  0
SECTION
  2
HEADER
  9
$ACADVER
  1
AC1024
  9
$DWGCODEPAGE
  3
ANSI_1252
  9
$EXTMAX
 10
297.0
 20
210.0
 30
0.0
  9
$EXTMIN
 10
0.0
 20
0.0
 30
0.0
  9
$LIMMIN
 10
0.0
 20
0.0
  9
$LIMMAX
 10
297.0
 20
210.0
  9
$VIEWCTR
 10
148.5
 20
105.0
  9
$VIEWSIZE
 40
210.0
  9
$CLAYER
  8
0
  9
$LTSCALE
 40
16.335
  9
$CELTYPE
  6
BYLAYER
  9
$DIMSCALE
 40
1.0
  9
$DIMASZ
 40
3.0
  9
$DIMEXO
 40
0.5
  9
$DIMDLI
 40
11.286
  9
$DIMEXE
 40
1.5
  9
$DIMCEN
 40
2.673
  9
$DIMLFAC
 40
1.0
  9
$DIMBLK
  1
_FILLED
  9
$DIMALT
 70
0
  9
$DIMALTF
 40
0.0393700787
  9
$DIMTXT
 40
3.0
  9
$DIMTOL
 70
1
  9
$DIMLIM
 70
0
  9
$DIMTFAC
 40
1.0
  9
$DIMTP
 40
0.01
  9
$DIMTM
 40
0.01
  9
$DIMGAP
 40
0.625
  9
$DIMDSEP
 70
44
  9
$AUNITS
 70
0
  9
$PDMODE
 70
3
  9
$PDSIZE
 40
3.0
  9
$HANDSEED
  5
7E5
  9
$TILEMODE
 70
1
  9
$MEASUREMENT
 70
1
  9
$INSUNITS
 70
4
  0
ENDSEC
  0
SECTION
  2
CLASSES
  0
CLASS
  1
ACDBDICTIONARYWDFLT
  2
AcDbDictionaryWithDefault
  3
AutoCAD 2000
 90
0
 91
1
280
0
281
0
  0
CLASS
  1
ACDBPLACEHOLDER
  2
AcDbPlaceHolder
  3
AutoCAD 2000
 90
0
 91
1
280
0
281
0
  0
CLASS
  1
LAYOUT
  2
AcDbLayout
  3
AutoCAD 2000
 90
0
 91
0
280
0
281
0
  0
ENDSEC
  0
SECTION
  2
TABLES
  0
TABLE
  2
VPORT
  5
8
100
AcDbSymbolTable
 70
2
  0
VPORT
  5
1F4
100
AcDbSymbolTableRecord
100
AcDbViewportTableRecord
  2
*ACTIVE
 70
0
 10
0.0
 20
0.0
 11
1.0
 21
1.0
 12
148.5
 22
105.0
 13
0.0
 23
0.0
 14
1.0
 24
1.0
 15
0.0
 25
0.0
 16
0.0
 26
0.0
 36
1.0
 17
0.0
 27
0.0
 37
0.0
 40
210.0
 41
1.4142857143
 42
50.0
 43
0.0
 44
0.0
 50
0.0
 51
0.0
 71
0
 72
100
 73
1
 74
1
 75
0
 76
0
 77
0
 78
0
  0
ENDTAB
  0
TABLE
  2
LTYPE
  5
5
100
AcDbSymbolTable
 70
6
  0
LTYPE
  5
14
100
AcDbSymbolTableRecord
100
AcDbLinetypeTableRecord
  2
BYBLOCK
 70
0
  3

 72
65
 73
0
 40
0.0
  0
LTYPE
  5
15
100
AcDbSymbolTableRecord
100
AcDbLinetypeTableRecord
  2
BYLAYER
 70
0
  3

 72
65
 73
0
 40
0.0
  0
LTYPE
  5
16
100
AcDbSymbolTableRecord
100
AcDbLinetypeTableRecord
  2
CONTINUOUS
 70
64
  3
Solid line
 72
65
 73
0
 40
0.0
  0
LTYPE
  5
1F5
100
AcDbSymbolTableRecord
100
AcDbLinetypeTableRecord
  2
CENTER
 70
64
  3
____ _ ____ _ ____ _ ____ _ ____ _ ____ _ ____
 72
65
 73
4
 40
0.6
 49
0.375
 74
0
 49
-0.075
 74
0
 49
0.075
 74
0
 49
-0.075
 74
0
  0
LTYPE
  5
1F6
100
AcDbSymbolTableRecord
100
AcDbLinetypeTableRecord
  2
HIDDEN
 70
64
  3
- - - - - - - - - - - - - - - - - - - -
 72
65
 73
2
 40
0.2
 49
0.1
 74
0
 49
-0.1
 74
0
  0
LTYPE
  5
1F7
100
AcDbSymbolTableRecord
100
AcDbLinetypeTableRecord
  2
PHANTOM
 70
64
  3
_____ _ _ _____ _ _ _____ _ _ _____
 72
65
 73
6
 40
0.8
 49
0.45
 74
0
 49
-0.05
 74
0
 49
0.1
 74
0
 49
-0.05
 74
0
 49
0.1
 74
0
 49
-0.05
 74
0
  0
LTYPE
  5
1F8
100
AcDbSymbolTableRecord
100
AcDbLinetypeTableRecord
  2
DOT
 70
64
  3
. . . . . . . . . . . . . . . . . . . .
 72
65
 73
2
 40
0.2
 49
0.1
 74
0
 49
-0.1
 74
0
  0
LTYPE
  5
1F9
100
AcDbSymbolTableRecord
100
AcDbLinetypeTableRecord
  2
DASHED
 70
64
  3
- - - - - - - - - - - - - - - - - - - -
 72
65
 73
2
 40
0.2
 49
0.1
 74
0
 49
-0.1
 74
0
  0
ENDTAB
  0
TABLE
  2
LAYER
  5
2
100
AcDbSymbolTable
 70
36
  0
LAYER
  5
10
100
AcDbSymbolTableRecord
100
AcDbLayerTableRecord
  2
0
 70
0
 62
7
  6
CONTINUOUS
370
-3
390
F
  0
LAYER
  5
1FA
100
AcDbSymbolTableRecord
100
AcDbLayerTableRecord
  2
DEFAULT_1
 70
0
 62
7
  6
CENTER
370
-3
390
F
  0
LAYER
  5
1FB
100
AcDbSymbolTableRecord
100
AcDbLayerTableRecord
  2
DEFAULT_2
 70
0
 62
7
  6
HIDDEN
370
-3
390
F
  0
LAYER
  5
1FC
100
AcDbSymbolTableRecord
100
AcDbLayerTableRecord
  2
DEFAULT_3
 70
0
 62
7
  6
PHANTOM
370
-3
390
F
  0
LAYER
  5
1FD
100
AcDbSymbolTableRecord
100
AcDbLayerTableRecord
  2
ASSI
 70
0
 62
7
  6
CONTINUOUS
370
-3
390
F
  0
LAYER
  5
1FE
100
AcDbSymbolTableRecord
100
AcDbLayerTableRecord
  2
COLOR15
 70
0
 62
7
  6
CONTINUOUS
370
-3
390
F
  0
LAYER
  5
1FF
100
AcDbSymbolTableRecord
100
AcDbLayerTableRecord
  2
COLOR9
 70
0
 62
7
  6
CONTINUOUS
370
-3
390
F
  0
LAYER
  5
200
100
AcDbSymbolTableRecord
100
AcDbLayerTableRecord
  2
COLORE_MATERIALE
 70
0
 62
7
  6
CONTINUOUS
370
-3
390
F
  0
LAYER
  5
201
100
AcDbSymbolTableRecord
100
AcDbLayerTableRecord
  2
COORDINATE
 70
0
 62
7
  6
CONTINUOUS
370
-3
390
F
  0
LAYER
  5
202
100
AcDbSymbolTableRecord
100
AcDbLayerTableRecord
  2
COORD_ORIGINE
 70
0
 62
7
  6
CONTINUOUS
370
-3
390
F
  0
LAYER
  5
203
100
AcDbSymbolTableRecord
100
AcDbLayerTableRecord
  2
COPY_PUBLISH
 70
0
 62
7
  6
CONTINUOUS
370
-3
390
F
  0
LAYER
  5
204
100
AcDbSymbolTableRecord
100
AcDbLayerTableRecord
  2
CORPO
 70
0
 62
7
  6
CONTINUOUS
370
-3
390
F
  0
LAYER
  5
205
100
AcDbSymbolTableRecord
100
AcDbLayerTableRecord
  2
COSMETIC
 70
0
 62
7
  6
CONTINUOUS
370
-3
390
F
  0
LAYER
  5
206
100
AcDbSymbolTableRecord
100
AcDbLayerTableRecord
  2
CURVE
 70
0
 62
7
  6
CONTINUOUS
370
-3
390
F
  0
LAYER
  5
207
100
AcDbSymbolTableRecord
100
AcDbLayerTableRecord
  2
DRAFT
 70
0
 62
7
  6
CONTINUOUS
370
-3
390
F
  0
LAYER
  5
208
100
AcDbSymbolTableRecord
100
AcDbLayerTableRecord
  2
FUSIBILE
 70
0
 62
7
  6
CONTINUOUS
370
-3
390
F
  0
LAYER
  5
209
100
AcDbSymbolTableRecord
100
AcDbLayerTableRecord
  2
IMPORT
 70
0
 62
7
  6
CONTINUOUS
370
-3
390
F
  0
LAYER
  5
20A
100
AcDbSymbolTableRecord
100
AcDbLayerTableRecord
  2
IMPORT_IGES
 70
0
 62
7
  6
CONTINUOUS
370
-3
390
F
  0
LAYER
  5
20B
100
AcDbSymbolTableRecord
100
AcDbLayerTableRecord
  2
INTF_1
 70
0
 62
7
  6
CONTINUOUS
370
-3
390
F
  0
LAYER
  5
20C
100
AcDbSymbolTableRecord
100
AcDbLayerTableRecord
  2
INTF_CYAN
 70
0
 62
7
  6
CONTINUOUS
370
-3
390
F
  0
LAYER
  5
20D
100
AcDbSymbolTableRecord
100
AcDbLayerTableRecord
  2
INTF_GREEN
 70
0
 62
7
  6
CONTINUOUS
370
-3
390
F
  0
LAYER
  5
20E
100
AcDbSymbolTableRecord
100
AcDbLayerTableRecord
  2
INTF_YELLOW
 70
0
 62
7
  6
CONTINUOUS
370
-3
390
F
  0
LAYER
  5
20F
100
AcDbSymbolTableRecord
100
AcDbLayerTableRecord
  2
MAGNETOTERMICO
 70
0
 62
7
  6
CONTINUOUS
370
-3
390
F
  0
LAYER
  5
210
100
AcDbSymbolTableRecord
100
AcDbLayerTableRecord
  2
MOLLA
 70
0
 62
7
  6
CONTINUOUS
370
-3
390
F
  0
LAYER
  5
211
100
AcDbSymbolTableRecord
100
AcDbLayerTableRecord
  2
NOTE
 70
0
 62
7
  6
CONTINUOUS
370
-3
390
F
  0
LAYER
  5
212
100
AcDbSymbolTableRecord
100
AcDbLayerTableRecord
  2
PIANI
 70
0
 62
7
  6
CONTINUOUS
370
-3
390
F
  0
LAYER
  5
213
100
AcDbSymbolTableRecord
100
AcDbLayerTableRecord
  2
PIANI_ORIGINE
 70
0
 62
7
  6
CONTINUOUS
370
-3
390
F
  0
LAYER
  5
214
100
AcDbSymbolTableRecord
100
AcDbLayerTableRecord
  2
PIANI_RIFERIMENTO
 70
0
 62
7
  6
CONTINUOUS
370
-3
390
F
  0
LAYER
  5
215
100
AcDbSymbolTableRecord
100
AcDbLayerTableRecord
  2
PORTATASTO
 70
0
 62
7
  6
CONTINUOUS
370
-3
390
F
  0
LAYER
  5
216
100
AcDbSymbolTableRecord
100
AcDbLayerTableRecord
  2
PUNTI
 70
0
 62
7
  6
CONTINUOUS
370
-3
390
F
  0
LAYER
  5
217
100
AcDbSymbolTableRecord
100
AcDbLayerTableRecord
  2
RACCORDO
 70
0
 62
7
  6
CONTINUOUS
370
-3
390
F
  0
LAYER
  5
218
100
AcDbSymbolTableRecord
100
AcDbLayerTableRecord
  2
RGB____0____0____0__
 70
0
 62
7
  6
CONTINUOUS
370
-3
390
F
  0
LAYER
  5
219
100
AcDbSymbolTableRecord
100
AcDbLayerTableRecord
  2
SKEL
 70
0
 62
7
  6
CONTINUOUS
370
-3
390
F
  0
LAYER
  5
21A
100
AcDbSymbolTableRecord
100
AcDbLayerTableRecord
  2
SKEL1
 70
0
 62
7
  6
CONTINUOUS
370
-3
390
F
  0
LAYER
  5
21B
100
AcDbSymbolTableRecord
100
AcDbLayerTableRecord
  2
SMUSSO
 70
0
 62
7
  6
CONTINUOUS
370
-3
390
F
  0
LAYER
  5
21C
100
AcDbSymbolTableRecord
100
AcDbLayerTableRecord
  2
SUPERFICI
 70
0
 62
7
  6
CONTINUOUS
370
-3
390
F
  0
LAYER
  5
21D
100
AcDbSymbolTableRecord
100
AcDbLayerTableRecord
  2
TASTO
 70
0
 62
7
  6
CONTINUOUS
370
-3
390
F
  0
LAYER
  5
21E
100
AcDbSymbolTableRecord
100
AcDbLayerTableRecord
  2
TRASH
 70
0
 62
7
  6
CONTINUOUS
370
-3
390
F
  0
LAYER
  5
21F
100
AcDbSymbolTableRecord
100
AcDbLayerTableRecord
  2
XSEC_DATUMS
 70
0
 62
7
  6
CONTINUOUS
370
-3
390
F
  0
LAYER
  5
220
100
AcDbSymbolTableRecord
100
AcDbLayerTableRecord
  2
___SHELL
 70
0
 62
7
  6
CONTINUOUS
370
-3
390
F
  0
ENDTAB
  0
TABLE
  2
STYLE
  5
3
100
AcDbSymbolTable
 70
1
  0
STYLE
  5
11
100
AcDbSymbolTableRecord
100
AcDbTextStyleTableRecord
  2
STANDARD
 70
0
 40
0.0
 41
0.8
 50
0.0
 71
0
 42
0.2
  3
txt
  4

  0
STYLE
  5
221
100
AcDbSymbolTableRecord
100
AcDbTextStyleTableRecord
  2
TEXTSTYLE_1
 70
0
 40
0.0
 41
0.8
 50
0.0
 71
0
 42
0.2
  3
gdt
  4

  0
ENDTAB
  0
TABLE
  2
VIEW
  5
6
100
AcDbSymbolTable
 70
0
  0
ENDTAB
  0
TABLE
  2
UCS
  5
7
100
AcDbSymbolTable
 70
0
  0
ENDTAB
  0
TABLE
  2
APPID
  5
9
100
AcDbSymbolTable
 70
1
  0
APPID
  5
222
100
AcDbSymbolTableRecord
100
AcDbRegAppTableRecord
  2
ACAD
 70
0
  0
ENDTAB
  0
TABLE
  2
BLOCK_RECORD
  5
1
100
AcDbSymbolTable
 70
0
  0
BLOCK_RECORD
  5
223
100
AcDbSymbolTableRecord
100
AcDbBlockTableRecord
  2
*Model_Space
  0
BLOCK_RECORD
  5
224
100
AcDbSymbolTableRecord
100
AcDbBlockTableRecord
  2
*Paper_Space
  0
BLOCK_RECORD
  5
225
100
AcDbSymbolTableRecord
100
AcDbBlockTableRecord
  2
_FILLED
  0
BLOCK_RECORD
  5
226
100
AcDbSymbolTableRecord
100
AcDbBlockTableRecord
  2
*D0
  0
BLOCK_RECORD
  5
227
100
AcDbSymbolTableRecord
100
AcDbBlockTableRecord
  2
*D1
  0
BLOCK_RECORD
  5
228
100
AcDbSymbolTableRecord
100
AcDbBlockTableRecord
  2
*D2
  0
BLOCK_RECORD
  5
229
100
AcDbSymbolTableRecord
100
AcDbBlockTableRecord
  2
*D3
  0
ENDTAB
  0
TABLE
  2
DIMSTYLE
  5
A
100
AcDbSymbolTable
 70
1
100
AcDbDimStyleTable
 71
0
  0
DIMSTYLE
105
22A
100
AcDbSymbolTableRecord
100
AcDbDimStyleTableRecord
  2
STANDARD
 70
0
  3

  4

 40
1.0
 41
3.0
 42
0.5
 43
0.38
 44
1.5
 45
0.0
 46
0.0
 47
0.01
 48
0.01
140
3.0
141
0.0
142
0.0
143
25.4
144
1.0
145
0.0
146
1.0
147
0.625
 71
1
 72
0
 73
0
 74
0
 75
0
 76
0
 77
1
 78
8
 79
2
170
0
171
1
172
0
173
0
174
0
175
0
176
0
177
0
178
0
270
2
179
2
271
2
272
2
273
2
274
2
275
0
280
0
281
0
282
0
283
1
284
8
285
0
286
0
287
3
288
0
340
11
278
44
341
225
342
225
343
225
344
225
  0
DIMSTYLE
105
22B
100
AcDbSymbolTableRecord
100
AcDbDimStyleTableRecord
  2
DIMSTYLE_1
 70
0
  3

  4

 40
1.0
 41
3.0
 42
0.5
 43
0.38
 44
1.5
 45
0.0
 46
0.0
 47
0.0
 48
0.0
140
3.0
141
0.0
142
0.0
143
25.4
144
1.0
145
0.0
146
1.0
147
0.75
 71
0
 72
0
 73
0
 74
0
 75
0
 76
0
 77
1
 78
8
 79
2
170
0
171
1
172
0
173
0
174
0
175
0
176
0
177
0
178
0
270
2
179
2
271
2
272
2
273
2
274
2
275
0
280
0
281
0
282
0
283
1
284
8
285
0
286
0
287
3
288
0
340
11
278
44
341
225
342
225
343
225
344
225
  0
ENDTAB
  0
ENDSEC
  0
SECTION
  2
BLOCKS
  0
BLOCK
  5
20
100
AcDbEntity
  8
0
100
AcDbBlockBegin
  2
*Model_Space
 70
0
 10
0.0
 20
0.0
 30
0.0
  3
*Model_Space
  1

  0
ENDBLK
  5
21
100
AcDbEntity
  8
0
100
AcDbBlockEnd
  0
BLOCK
  5
1C
100
AcDbEntity
  8
0
100
AcDbBlockBegin
  2
*Paper_Space
 70
0
 10
0.0
 20
0.0
 30
0.0
  3
*Paper_Space
  1

  0
ENDBLK
  5
1D
100
AcDbEntity
  8
0
100
AcDbBlockEnd
  0
BLOCK
  5
22C
100
AcDbEntity
  8
0
100
AcDbBlockBegin
  2
_FILLED
 70
64
 10
0.0
 20
0.0
 30
0.0
  3
_FILLED
  1

  0
SOLID
  5
22D
100
AcDbEntity
  8
0
  6
BYBLOCK
 62
0
100
AcDbTrace
 10
0.0
 20
0.0
 30
0.0
 11
-1.0
 21
0.3166666667
 31
0.0
 12
-1.0
 22
-0.3166666667
 32
0.0
 13
-1.0
 23
-0.3166666667
 33
0.0
  0
ENDBLK
  5
22E
100
AcDbEntity
  8
0
  6
BYBLOCK
 62
0
100
AcDbBlockEnd
  0
BLOCK
  5
22F
100
AcDbEntity
  8
0
100
AcDbBlockBegin
 62
7
  6
CONTINUOUS
  2
*D0
 70
65
 10
0.0
 20
0.0
 30
0.0
  3
*D0
  1

  0
MTEXT
  5
230
100
AcDbEntity
  8
0
100
AcDbMText
 62
7
  6
CONTINUOUS
  7
STANDARD
 71
2
 72
1
 10
0.0
 20
44.117602169
 30
0.0
 11
1.0
 21
0.0
 31
0.0
 73
2
 44
0.9
  1
{\ftxt;\W0.0001;\H0.0001;\~}{\ftxt;\W2.9285714286;\H3.0; }{\ftxt;\W0.0001;\H0.0001;\~}
 40
3.0
 41
13.1785714286
  0
LINE
  5
231
100
AcDbEntity
  8
0
100
AcDbLine
 62
7
  6
CONTINUOUS
 10
-22.35
 20
22.350016923
 30
0.0
 11
-22.35
 21
41.867602169
 31
0.0
  0
LINE
  5
232
100
AcDbEntity
  8
0
100
AcDbLine
 62
7
  6
CONTINUOUS
 10
22.35
 20
22.350016923
 30
0.0
 11
22.35
 21
41.867602169
 31
0.0
  0
LINE
  5
233
100
AcDbEntity
  8
0
100
AcDbLine
 62
7
  6
CONTINUOUS
 10
-22.35
 20
40.367602169
 30
0.0
 11
0.0
 21
40.367602169
 31
0.0
  0
LINE
  5
234
100
AcDbEntity
  8
0
100
AcDbLine
 62
7
  6
CONTINUOUS
 10
22.35
 20
40.367602169
 30
0.0
 11
0.0
 21
40.367602169
 31
0.0
  0
INSERT
  5
235
100
AcDbEntity
  8
0
100
AcDbBlockReference
 62
7
  6
CONTINUOUS
  2
_FILLED
 10
-22.35
 20
40.367602169
 30
0.0
 41
3.0
 42
3.0
 43
3.0
 50
180.0
  0
INSERT
  5
236
100
AcDbEntity
  8
0
100
AcDbBlockReference
 62
7
  6
CONTINUOUS
  2
_FILLED
 10
22.35
 20
40.367602169
 30
0.0
 41
3.0
 42
3.0
 43
3.0
  0
ENDBLK
  5
237
100
AcDbEntity
  8
0
  6
BYBLOCK
 62
0
100
AcDbBlockEnd
  0
BLOCK
  5
238
100
AcDbEntity
  8
0
100
AcDbBlockBegin
 62
7
  6
CONTINUOUS
  2
*D1
 70
65
 10
0.0
 20
0.0
 30
0.0
  3
*D1
  1

  0
MTEXT
  5
239
100
AcDbEntity
  8
0
100
AcDbMText
 62
7
  6
CONTINUOUS
  7
STANDARD
 71
2
 72
1
 10
27.4696293715
 20
0.0
 30
0.0
 11
0.0
 21
1.0
 31
0.0
 73
2
 44
0.9
  1
{\ftxt;\W0.0001;\H0.0001;\~}{\ftxt;\W1.5714285714;\H3.0; }{\ftxt;\W0.0001;\H0.0001;\~}
 40
3.0
 41
7.0714285714
  0
LINE
  5
23A
100
AcDbEntity
  8
0
100
AcDbLine
 62
7
  6
CONTINUOUS
 10
21.6500034269
 20
24.5
 30
0.0
 11
32.7196293715
 21
24.5
 31
0.0
  0
LINE
  5
23B
100
AcDbEntity
  8
0
100
AcDbLine
 62
7
  6
CONTINUOUS
 10
21.6500034269
 20
-24.5
 30
0.0
 11
32.7196293715
 21
-24.5
 31
0.0
  0
LINE
  5
23C
100
AcDbEntity
  8
0
100
AcDbLine
 62
7
  6
CONTINUOUS
 10
31.2196293715
 20
24.5
 30
0.0
 11
31.2196293715
 21
0.0
 31
0.0
  0
LINE
  5
23D
100
AcDbEntity
  8
0
100
AcDbLine
 62
7
  6
CONTINUOUS
 10
31.2196293715
 20
-24.5
 30
0.0
 11
31.2196293715
 21
0.0
 31
0.0
  0
INSERT
  5
23E
100
AcDbEntity
  8
0
100
AcDbBlockReference
 62
7
  6
CONTINUOUS
  2
_FILLED
 10
31.2196293715
 20
24.5
 30
0.0
 41
3.0
 42
3.0
 43
3.0
 50
90.0
  0
INSERT
  5
23F
100
AcDbEntity
  8
0
100
AcDbBlockReference
 62
7
  6
CONTINUOUS
  2
_FILLED
 10
31.2196293715
 20
-24.5
 30
0.0
 41
3.0
 42
3.0
 43
3.0
 50
270.0
  0
ENDBLK
  5
240
100
AcDbEntity
  8
0
  6
BYBLOCK
 62
0
100
AcDbBlockEnd
  0
BLOCK
  5
241
100
AcDbEntity
  8
0
100
AcDbBlockBegin
 62
7
  6
CONTINUOUS
  2
*D2
 70
65
 10
0.0
 20
0.0
 30
0.0
  3
*D2
  1

  0
MTEXT
  5
242
100
AcDbEntity
  8
0
100
AcDbMText
 62
7
  6
CONTINUOUS
  7
STANDARD
 71
2
 72
1
 10
-52.7147542244
 20
43.9003470397
 30
0.0
 11
1.0
 21
0.0
 31
0.0
 73
2
 44
0.9
  1
{\ftxt;\W0.0001;\H0.0001;\~}{\ftxt;\W1.5714285714;\H3.0; }{\ftxt;\W0.0001;\H0.0001;\~}
 40
3.0
 41
7.0714285714
  0
LINE
  5
243
100
AcDbEntity
  8
0
100
AcDbLine
 62
7
  6
CONTINUOUS
 10
-31.7147542244
 20
16.7869096983
 30
0.0
 11
-31.7147542244
 21
41.6503470397
 31
0.0
  0
LINE
  5
244
100
AcDbEntity
  8
0
100
AcDbLine
 62
7
  6
CONTINUOUS
 10
-73.7147542244
 20
0.5
 30
0.0
 11
-73.7147542244
 21
41.6503470397
 31
0.0
  0
LINE
  5
245
100
AcDbEntity
  8
0
100
AcDbLine
 62
7
  6
CONTINUOUS
 10
-31.7147542244
 20
40.1503470397
 30
0.0
 11
-52.7147542244
 21
40.1503470397
 31
0.0
  0
LINE
  5
246
100
AcDbEntity
  8
0
100
AcDbLine
 62
7
  6
CONTINUOUS
 10
-73.7147542244
 20
40.1503470397
 30
0.0
 11
-52.7147542244
 21
40.1503470397
 31
0.0
  0
INSERT
  5
247
100
AcDbEntity
  8
0
100
AcDbBlockReference
 62
7
  6
CONTINUOUS
  2
_FILLED
 10
-31.7147542244
 20
40.1503470397
 30
0.0
 41
3.0
 42
3.0
 43
3.0
  0
INSERT
  5
248
100
AcDbEntity
  8
0
100
AcDbBlockReference
 62
7
  6
CONTINUOUS
  2
_FILLED
 10
-73.7147542244
 20
40.1503470397
 30
0.0
 41
3.0
 42
3.0
 43
3.0
 50
180.0
  0
ENDBLK
  5
249
100
AcDbEntity
  8
0
  6
BYBLOCK
 62
0
100
AcDbBlockEnd
  0
BLOCK
  5
24A
100
AcDbEntity
  8
0
100
AcDbBlockBegin
 62
7
  6
CONTINUOUS
  2
*D3
 70
65
 10
0.0
 20
0.0
 30
0.0
  3
*D3
  1

  0
MTEXT
  5
24B
100
AcDbEntity
  8
0
100
AcDbMText
 62
7
  6
CONTINUOUS
  7
STANDARD
 71
2
 72
1
 10
-47.9647542244
 20
34.4770714992
 30
0.0
 11
1.0
 21
0.0
 31
0.0
 73
2
 44
0.9
  1
{\ftxt;\W0.0001;\H0.0001;\~}{\ftxt;\W2.7857142857;\H3.0; }{\ftxt;\W0.0001;\H0.0001;\~}
 40
3.0
 41
12.5357142857
  0
LINE
  5
24C
100
AcDbEntity
  8
0
100
AcDbLine
 62
7
  6
CONTINUOUS
 10
-64.2147542244
 20
24.7500034269
 30
0.0
 11
-64.2147542244
 21
32.2270714992
 31
0.0
  0
LINE
  5
24D
100
AcDbEntity
  8
0
100
AcDbLine
 62
7
  6
CONTINUOUS
 10
-31.7147542244
 20
16.7869096983
 30
0.0
 11
-31.7147542244
 21
32.2270714992
 31
0.0
  0
LINE
  5
24E
100
AcDbEntity
  8
0
100
AcDbLine
 62
7
  6
CONTINUOUS
 10
-64.2147542244
 20
30.7270714992
 30
0.0
 11
-47.9647542244
 21
30.7270714992
 31
0.0
  0
LINE
  5
24F
100
AcDbEntity
  8
0
100
AcDbLine
 62
7
  6
CONTINUOUS
 10
-31.7147542244
 20
30.7270714992
 30
0.0
 11
-47.9647542244
 21
30.7270714992
 31
0.0
  0
INSERT
  5
250
100
AcDbEntity
  8
0
100
AcDbBlockReference
 62
7
  6
CONTINUOUS
  2
_FILLED
 10
-64.2147542244
 20
30.7270714992
 30
0.0
 41
3.0
 42
3.0
 43
3.0
 50
180.0
  0
INSERT
  5
251
100
AcDbEntity
  8
0
100
AcDbBlockReference
 62
7
  6
CONTINUOUS
  2
_FILLED
 10
-31.7147542244
 20
30.7270714992
 30
0.0
 41
3.0
 42
3.0
 43
3.0
  0
ENDBLK
  5
252
100
AcDbEntity
  8
0
  6
BYBLOCK
 62
0
100
AcDbBlockEnd
  0
ENDSEC
  0
SECTION
  2
ENTITIES
  0
DIMENSION
  5
253
100
AcDbEntity
  8
0
100
AcDbDimension
 62
7
  6
CONTINUOUS
  2
*D0
 10
22.35
 20
40.367602169
 30
0.0
 11
-0.4285713773
 21
40.367602169
 31
0.0
 70
160
 71
2
 72
2
 41
0.9
 42
44.7
  1
{\ftxt;\W0.0001;\H0.0001;\~}{\ftxt;\W2.9285714286;\H3.0; }{\ftxt;\W0.0001;\H0.0001;\~}
  3
DIMSTYLE_1
100
AcDbAlignedDimension
 13
-22.35
 23
21.850016923
 33
0.0
 14
22.35
 24
21.850016923
 34
0.0
100
AcDbRotatedDimension
  0
DIMENSION
  5
254
100
AcDbEntity
  8
0
100
AcDbDimension
 62
7
  6
CONTINUOUS
  2
*D1
 10
31.2196293715
 20
-24.5
 30
0.0
 11
31.2196293715
 21
-0.4285716862
 31
0.0
 70
160
 71
2
 72
2
 41
0.9
 42
49.0
  1
{\ftxt;\W0.0001;\H0.0001;\~}{\ftxt;\W1.5714285714;\H3.0; }{\ftxt;\W0.0001;\H0.0001;\~}
  3
DIMSTYLE_1
100
AcDbAlignedDimension
 13
21.1500034269
 23
24.5
 33
0.0
 14
21.1500034269
 24
-24.5
 34
0.0
 50
270.0
100
AcDbRotatedDimension
  0
DIMENSION
  5
255
100
AcDbEntity
  8
0
100
AcDbDimension
 62
7
  6
CONTINUOUS
  2
*D2
 10
-73.7147542244
 20
40.1503470397
 30
0.0
 11
-53.1433249283
 21
40.1503470397
 31
0.0
 70
160
 71
2
 72
2
 41
0.9
 42
42.0
  1
{\ftxt;\W0.0001;\H0.0001;\~}{\ftxt;\W1.5714285714;\H3.0; }{\ftxt;\W0.0001;\H0.0001;\~}
  3
DIMSTYLE_1
100
AcDbAlignedDimension
 13
-31.7147542244
 23
16.2869096983
 33
0.0
 14
-73.7147542244
 24
0.0
 34
0.0
 50
180.0
100
AcDbRotatedDimension
  0
DIMENSION
  5
256
100
AcDbEntity
  8
0
100
AcDbDimension
 62
7
  6
CONTINUOUS
  2
*D3
 10
-31.7147542244
 20
30.7270714992
 30
0.0
 11
-48.3933257446
 21
30.7270714992
 31
0.0
 70
160
 71
2
 72
2
 41
0.9
 42
32.5
  1
{\ftxt;\W0.0001;\H0.0001;\~}{\ftxt;\W2.7857142857;\H3.0; }{\ftxt;\W0.0001;\H0.0001;\~}
  3
DIMSTYLE_1
100
AcDbAlignedDimension
 13
-64.2147542244
 23
24.2500034269
 33
0.0
 14
-31.7147542244
 24
16.2869096983
 34
0.0
100
AcDbRotatedDimension
  0
LINE
  5
257
100
AcDbEntity
  8
PORTATASTO
100
AcDbLine
 62
250
  6
CONTINUOUS
 10
-18.7670205427
 20
24.4829760304
 30
0.0
 11
-18.7499965731
 21
24.5
 31
0.0
  0
LINE
  5
258
100
AcDbEntity
  8
PORTATASTO
100
AcDbLine
 62
250
  6
CONTINUOUS
 10
-18.5170239696
 20
24.2329794573
 30
0.0
 11
-18.5
 21
24.2500034269
 31
0.0
  0
LINE
  5
259
100
AcDbEntity
  8
PORTATASTO
100
AcDbLine
 62
250
  6
CONTINUOUS
 10
-18.7670205427
 20
-24.4829760304
 30
0.0
 11
-18.7499965731
 21
-24.5
 31
0.0
  0
LINE
  5
25A
100
AcDbEntity
  8
PORTATASTO
100
AcDbLine
 62
250
  6
CONTINUOUS
 10
-18.5170239696
 20
-24.2329794573
 30
0.0
 11
-18.5
 21
-24.2500034269
 31
0.0
  0
LINE
  5
25B
100
AcDbEntity
  8
PORTATASTO
100
AcDbLine
 62
7
  6
CONTINUOUS
 10
-22.3849101299
 20
-18.1473460386
 30
0.0
 11
-22.35
 21
-18.5
 31
0.0
  0
LINE
  5
25C
100
AcDbEntity
  8
PORTATASTO
100
AcDbLine
 62
7
  6
CONTINUOUS
 10
-22.35
 20
18.5
 30
0.0
 11
-22.3849101299
 21
18.1473460386
 31
0.0
  0
LINE
  5
25D
100
AcDbEntity
  8
PORTATASTO
100
AcDbLine
 62
250
  6
CONTINUOUS
 10
-12.449998477
 20
24.0
 30
0.0
 11
-12.4613525438
 21
23.9931876706
 31
0.0
  0
LINE
  5
25E
100
AcDbEntity
  8
PORTATASTO
100
AcDbLine
 62
250
  6
CONTINUOUS
 10
-12.25
 20
23.8000063969
 30
0.0
 11
-12.2613601592
 21
23.7931904121
 31
0.0
  0
LINE
  5
25F
100
AcDbEntity
  8
PORTATASTO
100
AcDbLine
 62
7
  6
CONTINUOUS
 10
-21.1500034269
 20
-24.5
 30
0.0
 11
-18.7499965731
 21
-24.5
 31
0.0
  0
LINE
  5
260
100
AcDbEntity
  8
PORTATASTO
100
AcDbLine
 62
7
  6
CONTINUOUS
 10
21.1500034269
 20
-24.5
 30
0.0
 11
18.7499965731
 21
-24.5
 31
0.0
  0
LINE
  5
261
100
AcDbEntity
  8
PORTATASTO
100
AcDbLine
 62
7
  6
CONTINUOUS
 10
-1.3499965731
 20
-24.5
 30
0.0
 11
-3.7500034269
 21
-24.5
 31
0.0
  0
LINE
  5
262
100
AcDbEntity
  8
PORTATASTO
100
AcDbLine
 62
7
  6
CONTINUOUS
 10
1.3499965731
 20
-24.5
 30
0.0
 11
3.7500034269
 21
-24.5
 31
0.0
  0
LINE
  5
263
100
AcDbEntity
  8
PORTATASTO
100
AcDbLine
 62
7
  6
CONTINUOUS
 10
-21.1329794573
 20
-24.4829760304
 30
0.0
 11
-18.7670205427
 21
-24.4829760304
 31
0.0
  0
LINE
  5
264
100
AcDbEntity
  8
PORTATASTO
100
AcDbLine
 62
7
  6
CONTINUOUS
 10
-3.7329794573
 20
-24.4829760304
 30
0.0
 11
-1.3670205427
 21
-24.4829760304
 31
0.0
  0
LINE
  5
265
100
AcDbEntity
  8
PORTATASTO
100
AcDbLine
 62
7
  6
CONTINUOUS
 10
1.3670205427
 20
-24.4829760304
 30
0.0
 11
3.7329794573
 21
-24.4829760304
 31
0.0
  0
LINE
  5
266
100
AcDbEntity
  8
PORTATASTO
100
AcDbLine
 62
7
  6
CONTINUOUS
 10
18.7670205427
 20
-24.4829760304
 30
0.0
 11
21.1329794573
 21
-24.4829760304
 31
0.0
  0
LINE
  5
267
100
AcDbEntity
  8
PORTATASTO
100
AcDbLine
 62
250
  6
CONTINUOUS
 10
1.1170239696
 20
-24.2329794573
 30
0.0
 11
3.9829760304
 21
-24.2329794573
 31
0.0
  0
LINE
  5
268
100
AcDbEntity
  8
PORTATASTO
100
AcDbLine
 62
250
  6
CONTINUOUS
 10
-1.1170239696
 20
-24.2329794573
 30
0.0
 11
-3.9829760304
 21
-24.2329794573
 31
0.0
  0
LINE
  5
269
100
AcDbEntity
  8
PORTATASTO
100
AcDbLine
 62
250
  6
CONTINUOUS
 10
18.5170239696
 20
-24.2329794573
 30
0.0
 11
21.3829760304
 21
-24.2329794573
 31
0.0
  0
LINE
  5
26A
100
AcDbEntity
  8
PORTATASTO
100
AcDbLine
 62
250
  6
CONTINUOUS
 10
-18.5170239696
 20
-24.2329794573
 30
0.0
 11
-21.3829760304
 21
-24.2329794573
 31
0.0
  0
LINE
  5
26B
100
AcDbEntity
  8
PORTATASTO
100
AcDbLine
 62
7
  6
CONTINUOUS
 10
15.65
 20
-24.0
 30
0.0
 11
14.9569891099
 21
-24.0
 31
0.0
  0
LINE
  5
26C
100
AcDbEntity
  8
PORTATASTO
100
AcDbLine
 62
7
  6
CONTINUOUS
 10
12.4613525438
 20
-24.0
 30
0.0
 11
12.449998477
 21
-24.0
 31
0.0
  0
LINE
  5
26D
100
AcDbEntity
  8
PORTATASTO
100
AcDbLine
 62
7
  6
CONTINUOUS
 10
10.050001523
 20
-24.0
 30
0.0
 11
10.0386474562
 21
-24.0
 31
0.0
  0
LINE
  5
26E
100
AcDbEntity
  8
PORTATASTO
100
AcDbLine
 62
7
  6
CONTINUOUS
 10
7.5430108901
 20
-24.0
 30
0.0
 11
6.85
 21
-24.0
 31
0.0
  0
LINE
  5
26F
100
AcDbEntity
  8
PORTATASTO
100
AcDbLine
 62
7
  6
CONTINUOUS
 10
-6.85
 20
-24.0
 30
0.0
 11
-7.5430108901
 21
-24.0
 31
0.0
  0
LINE
  5
270
100
AcDbEntity
  8
PORTATASTO
100
AcDbLine
 62
7
  6
CONTINUOUS
 10
-10.0386474562
 20
-24.0
 30
0.0
 11
-10.050001523
 21
-24.0
 31
0.0
  0
LINE
  5
271
100
AcDbEntity
  8
PORTATASTO
100
AcDbLine
 62
7
  6
CONTINUOUS
 10
-12.449998477
 20
-24.0
 30
0.0
 11
-12.4613525438
 21
-24.0
 31
0.0
  0
LINE
  5
272
100
AcDbEntity
  8
PORTATASTO
100
AcDbLine
 62
7
  6
CONTINUOUS
 10
-14.9569891099
 20
-24.0
 30
0.0
 11
-15.65
 21
-24.0
 31
0.0
  0
LINE
  5
273
100
AcDbEntity
  8
PORTATASTO
100
AcDbLine
 62
7
  6
CONTINUOUS
 10
-14.9482622421
 20
-23.9931876706
 30
0.0
 11
-12.4613525438
 21
-23.9931876706
 31
0.0
  0
LINE
  5
274
100
AcDbEntity
  8
PORTATASTO
100
AcDbLine
 62
7
  6
CONTINUOUS
 10
-10.0386474562
 20
-23.9931876706
 30
0.0
 11
-7.5517377579
 21
-23.9931876706
 31
0.0
  0
LINE
  5
275
100
AcDbEntity
  8
PORTATASTO
100
AcDbLine
 62
7
  6
CONTINUOUS
 10
7.5517377579
 20
-23.9931876706
 30
0.0
 11
10.0386474562
 21
-23.9931876706
 31
0.0
  0
LINE
  5
276
100
AcDbEntity
  8
PORTATASTO
100
AcDbLine
 62
7
  6
CONTINUOUS
 10
12.4613525438
 20
-23.9931876706
 30
0.0
 11
14.9482622421
 21
-23.9931876706
 31
0.0
  0
LINE
  5
277
100
AcDbEntity
  8
PORTATASTO
100
AcDbLine
 62
7
  6
CONTINUOUS
 10
-15.637951635
 20
-23.987951635
 30
0.0
 11
-14.9569891099
 21
-23.987951635
 31
0.0
  0
LINE
  5
278
100
AcDbEntity
  8
PORTATASTO
100
AcDbLine
 62
7
  6
CONTINUOUS
 10
-7.5430108901
 20
-23.987951635
 30
0.0
 11
-6.862048365
 21
-23.987951635
 31
0.0
  0
LINE
  5
279
100
AcDbEntity
  8
PORTATASTO
100
AcDbLine
 62
7
  6
CONTINUOUS
 10
6.862048365
 20
-23.987951635
 30
0.0
 11
7.5430108901
 21
-23.987951635
 31
0.0
  0
LINE
  5
27A
100
AcDbEntity
  8
PORTATASTO
100
AcDbLine
 62
7
  6
CONTINUOUS
 10
14.9569891099
 20
-23.987951635
 30
0.0
 11
15.637951635
 21
-23.987951635
 31
0.0
  0
LINE
  5
27B
100
AcDbEntity
  8
PORTATASTO
100
AcDbLine
 62
250
  6
CONTINUOUS
 10
-1.1170239696
 20
-23.9443375673
 30
0.0
 11
-3.9829760304
 21
-23.9443375673
 31
0.0
  0
LINE
  5
27C
100
AcDbEntity
  8
PORTATASTO
100
AcDbLine
 62
250
  6
CONTINUOUS
 10
1.1170239696
 20
-23.9443375673
 30
0.0
 11
3.9829760304
 21
-23.9443375673
 31
0.0
  0
LINE
  5
27D
100
AcDbEntity
  8
PORTATASTO
100
AcDbLine
 62
250
  6
CONTINUOUS
 10
-18.5170239696
 20
-23.9443375673
 30
0.0
 11
-21.3829760304
 21
-23.9443375673
 31
0.0
  0
LINE
  5
27E
100
AcDbEntity
  8
PORTATASTO
100
AcDbLine
 62
250
  6
CONTINUOUS
 10
18.5170239696
 20
-23.9443375673
 30
0.0
 11
21.3829760304
 21
-23.9443375673
 31
0.0
  0
LINE
  5
27F
100
AcDbEntity
  8
PORTATASTO
100
AcDbLine
 62
250
  6
CONTINUOUS
 10
-10.2386398408
 20
-23.7931904121
 30
0.0
 11
-7.75
 21
-23.7931904121
 31
0.0
  0
LINE
  5
280
100
AcDbEntity
  8
PORTATASTO
100
AcDbLine
 62
250
  6
CONTINUOUS
 10
7.75
 20
-23.7931904121
 30
0.0
 11
10.2386398408
 21
-23.7931904121
 31
0.0
  0
LINE
  5
281
100
AcDbEntity
  8
PORTATASTO
100
AcDbLine
 62
250
  6
CONTINUOUS
 10
-12.2613601592
 20
-23.7931904121
 30
0.0
 11
-14.75
 21
-23.7931904121
 31
0.0
  0
LINE
  5
282
100
AcDbEntity
  8
PORTATASTO
100
AcDbLine
 62
250
  6
CONTINUOUS
 10
12.2613601592
 20
-23.7931904121
 30
0.0
 11
14.75
 21
-23.7931904121
 31
0.0
  0
LINE
  5
283
100
AcDbEntity
  8
PORTATASTO
100
AcDbLine
 62
250
  6
CONTINUOUS
 10
7.0620456235
 20
-23.7879543765
 30
0.0
 11
7.7430032747
 21
-23.7879543765
 31
0.0
  0
LINE
  5
284
100
AcDbEntity
  8
PORTATASTO
100
AcDbLine
 62
250
  6
CONTINUOUS
 10
-7.0620456235
 20
-23.7879543765
 30
0.0
 11
-7.7430032747
 21
-23.7879543765
 31
0.0
  0
LINE
  5
285
100
AcDbEntity
  8
PORTATASTO
100
AcDbLine
 62
250
  6
CONTINUOUS
 10
-14.7569967253
 20
-23.7879543765
 30
0.0
 11
-15.4379543765
 21
-23.7879543765
 31
0.0
  0
LINE
  5
286
100
AcDbEntity
  8
PORTATASTO
100
AcDbLine
 62
250
  6
CONTINUOUS
 10
14.7569967253
 20
-23.7879543765
 30
0.0
 11
15.4379543765
 21
-23.7879543765
 31
0.0
  0
LINE
  5
287
100
AcDbEntity
  8
PORTATASTO
100
AcDbLine
 62
250
  6
CONTINUOUS
 10
21.1329794573
 20
-23.7278312164
 30
0.0
 11
18.7670205427
 21
-23.7278312164
 31
0.0
  0
LINE
  5
288
100
AcDbEntity
  8
PORTATASTO
100
AcDbLine
 62
250
  6
CONTINUOUS
 10
3.7329794573
 20
-23.7278312164
 30
0.0
 11
1.3670205427
 21
-23.7278312164
 31
0.0
  0
LINE
  5
289
100
AcDbEntity
  8
PORTATASTO
100
AcDbLine
 62
250
  6
CONTINUOUS
 10
-1.3670205427
 20
-23.7278312164
 30
0.0
 11
-3.7329794573
 21
-23.7278312164
 31
0.0
  0
LINE
  5
28A
100
AcDbEntity
  8
PORTATASTO
100
AcDbLine
 62
250
  6
CONTINUOUS
 10
-18.7670205427
 20
-23.7278312164
 30
0.0
 11
-21.1329794573
 21
-23.7278312164
 31
0.0
  0
LINE
  5
28B
100
AcDbEntity
  8
PORTATASTO
100
AcDbLine
 62
250
  6
CONTINUOUS
 10
-12.449998477
 20
-24.0
 30
0.0
 11
-12.4613525438
 21
-23.9931876706
 31
0.0
  0
LINE
  5
28C
100
AcDbEntity
  8
PORTATASTO
100
AcDbLine
 62
250
  6
CONTINUOUS
 10
-12.25
 20
-23.8000063969
 30
0.0
 11
-12.2613601592
 21
-23.7931904121
 31
0.0
  0
LINE
  5
28D
100
AcDbEntity
  8
PORTATASTO
100
AcDbLine
 62
250
  6
CONTINUOUS
 10
-21.3869030571
 20
-23.5113248654
 30
0.0
 11
-21.3829760304
 21
-23.9443375673
 31
0.0
  0
LINE
  5
28E
100
AcDbEntity
  8
PORTATASTO
100
AcDbLine
 62
250
  6
CONTINUOUS
 10
-21.136906484
 20
-23.2948185145
 30
0.0
 11
-21.1329794573
 21
-23.7278312164
 31
0.0
  0
LINE
  5
28F
100
AcDbEntity
  8
PORTATASTO
100
AcDbLine
 62
7
  6
CONTINUOUS
 10
-21.3947639644
 20
23.2226497308
 30
0.0
 11
-21.4
 21
23.8
 31
0.0
  0
LINE
  5
290
100
AcDbEntity
  8
RACCORDO
100
AcDbLine
 62
7
  6
CONTINUOUS
 10
-22.15
 20
2.3247832141
 30
0.0
 11
-22.1116448613
 21
-21.6232368509
 31
0.0
  0
LINE
  5
291
100
AcDbEntity
  8
CORPO
100
AcDbLine
 62
7
  6
CONTINUOUS
 10
-22.4
 20
-17.6716990487
 30
0.0
 11
-22.4
 21
17.6716990487
 31
0.0
  0
LINE
  5
292
100
AcDbEntity
  8
ASSI
100
AcDbLine
 62
7
  6
CONTINUOUS
 10
-22.4
 20
-17.6716990487
 30
0.0
 11
-22.4
 21
17.6716990487
 31
0.0
  0
LINE
  5
293
100
AcDbEntity
  8
PORTATASTO
100
AcDbLine
 62
7
  6
CONTINUOUS
 10
-22.3849101299
 20
-18.1473460386
 30
0.0
 11
-22.3849101299
 21
18.1473460386
 31
0.0
  0
LINE
  5
294
100
AcDbEntity
  8
PORTATASTO
100
AcDbLine
 62
7
  6
CONTINUOUS
 10
-22.35
 20
21.850016923
 30
0.0
 11
-22.35
 21
18.5
 31
0.0
  0
LINE
  5
295
100
AcDbEntity
  8
PORTATASTO
100
AcDbLine
 62
7
  6
CONTINUOUS
 10
-22.35
 20
-21.850016923
 30
0.0
 11
-22.35
 21
-18.5
 31
0.0
  0
LINE
  5
296
100
AcDbEntity
  8
PORTATASTO
100
AcDbLine
 62
7
  6
CONTINUOUS
 10
-22.3238174026
 20
21.771159479
 30
0.0
 11
-22.3238174026
 21
-21.771159479
 31
0.0
  0
LINE
  5
297
100
AcDbEntity
  8
RACCORDO
100
AcDbLine
 62
7
  6
CONTINUOUS
 10
-22.15
 20
2.3247832141
 30
0.0
 11
-22.15
 21
21.6999997649
 31
0.0
  0
LINE
  5
298
100
AcDbEntity
  8
RACCORDO
100
AcDbLine
 62
250
  6
CONTINUOUS
 10
-21.5081671549
 20
-9.4999715498
 30
0.0
 11
-21.5081671527
 21
9.4999646989
 31
0.0
  0
LINE
  5
299
100
AcDbEntity
  8
PORTATASTO
100
AcDbLine
 62
7
  6
CONTINUOUS
 10
-21.4
 20
-24.2500034269
 30
0.0
 11
-21.4
 21
-23.8
 31
0.0
  0
LINE
  5
29A
100
AcDbEntity
  8
PORTATASTO
100
AcDbLine
 62
7
  6
CONTINUOUS
 10
-21.4
 20
23.8
 30
0.0
 11
-21.4
 21
24.2500034269
 31
0.0
  0
LINE
  5
29B
100
AcDbEntity
  8
PORTATASTO
100
AcDbLine
 62
7
  6
CONTINUOUS
 10
-21.3947639644
 20
23.2226497308
 30
0.0
 11
-21.3947639644
 21
23.0783121635
 31
0.0
  0
LINE
  5
29C
100
AcDbEntity
  8
PORTATASTO
100
AcDbLine
 62
7
  6
CONTINUOUS
 10
-21.3947639644
 20
-23.0783121635
 30
0.0
 11
-21.3947639644
 21
-23.2226497308
 31
0.0
  0
LINE
  5
29D
100
AcDbEntity
  8
PORTATASTO
100
AcDbLine
 62
7
  6
CONTINUOUS
 10
-21.388212066
 20
23.0783121635
 30
0.0
 11
-21.388212066
 21
22.2844216746
 31
0.0
  0
LINE
  5
29E
100
AcDbEntity
  8
PORTATASTO
100
AcDbLine
 62
7
  6
CONTINUOUS
 10
-21.388212066
 20
-22.2844216746
 30
0.0
 11
-21.388212066
 21
-23.0783121635
 31
0.0
  0
LINE
  5
29F
100
AcDbEntity
  8
PORTATASTO
100
AcDbLine
 62
7
  6
CONTINUOUS
 10
-21.3829760304
 20
24.2329794573
 30
0.0
 11
-21.3829760304
 21
23.9443375673
 31
0.0
  0
LINE
  5
2A0
100
AcDbEntity
  8
PORTATASTO
100
AcDbLine
 62
7
  6
CONTINUOUS
 10
-21.3829760304
 20
-23.9443375673
 30
0.0
 11
-21.3829760304
 21
-24.2329794573
 31
0.0
  0
LINE
  5
2A1
100
AcDbEntity
  8
PORTATASTO
100
AcDbLine
 62
250
  6
CONTINUOUS
 10
-21.1382154929
 20
23.0783121635
 30
0.0
 11
-21.1382154929
 21
22.2713883311
 31
0.0
  0
LINE
  5
2A2
100
AcDbEntity
  8
PORTATASTO
100
AcDbLine
 62
250
  6
CONTINUOUS
 10
-21.1382154929
 20
-22.2713883311
 30
0.0
 11
-21.1382154929
 21
-23.0783121635
 31
0.0
  0
LINE
  5
2A3
100
AcDbEntity
  8
PORTATASTO
100
AcDbLine
 62
250
  6
CONTINUOUS
 10
-21.1329794573
 20
-23.7278312164
 30
0.0
 11
-21.1329794573
 21
-24.4829760304
 31
0.0
  0
LINE
  5
2A4
100
AcDbEntity
  8
PORTATASTO
100
AcDbLine
 62
250
  6
CONTINUOUS
 10
-21.1329794573
 20
23.7278312164
 30
0.0
 11
-21.1329794573
 21
24.4829760304
 31
0.0
  0
LINE
  5
2A5
100
AcDbEntity
  8
PORTATASTO
100
AcDbLine
 62
250
  6
CONTINUOUS
 10
-21.3829760304
 20
23.9443375673
 30
0.0
 11
-21.3869030571
 21
23.5113248654
 31
0.0
  0
LINE
  5
2A6
100
AcDbEntity
  8
PORTATASTO
100
AcDbLine
 62
250
  6
CONTINUOUS
 10
-21.1329794573
 20
23.7278312164
 30
0.0
 11
-21.136906484
 21
23.2948185145
 31
0.0
  0
LINE
  5
2A7
100
AcDbEntity
  8
PORTATASTO
100
AcDbLine
 62
7
  6
CONTINUOUS
 10
-21.4
 20
-23.8
 30
0.0
 11
-21.3947639644
 21
-23.2226497308
 31
0.0
  0
LINE
  5
2A8
100
AcDbEntity
  8
PORTATASTO
100
AcDbLine
 62
7
  6
CONTINUOUS
 10
-6.862048365
 20
23.987951635
 30
0.0
 11
-6.85
 21
24.0
 31
0.0
  0
LINE
  5
2A9
100
AcDbEntity
  8
PORTATASTO
100
AcDbLine
 62
250
  6
CONTINUOUS
 10
21.136906484
 20
-23.2948185145
 30
0.0
 11
18.763093516
 21
-23.2948185145
 31
0.0
  0
LINE
  5
2AA
100
AcDbEntity
  8
PORTATASTO
100
AcDbLine
 62
250
  6
CONTINUOUS
 10
3.736906484
 20
-23.2948185145
 30
0.0
 11
1.363093516
 21
-23.2948185145
 31
0.0
  0
LINE
  5
2AB
100
AcDbEntity
  8
PORTATASTO
100
AcDbLine
 62
250
  6
CONTINUOUS
 10
-1.363093516
 20
-23.2948185145
 30
0.0
 11
-3.736906484
 21
-23.2948185145
 31
0.0
  0
LINE
  5
2AC
100
AcDbEntity
  8
PORTATASTO
100
AcDbLine
 62
250
  6
CONTINUOUS
 10
-18.763093516
 20
-23.2948185145
 30
0.0
 11
-21.136906484
 21
-23.2948185145
 31
0.0
  0
LINE
  5
2AD
100
AcDbEntity
  8
PORTATASTO
100
AcDbLine
 62
7
  6
CONTINUOUS
 10
-15.7446938615
 20
-23.2226497308
 30
0.0
 11
-15.6447639644
 21
-23.2226497308
 31
0.0
  0
LINE
  5
2AE
100
AcDbEntity
  8
PORTATASTO
100
AcDbLine
 62
7
  6
CONTINUOUS
 10
-6.8552360356
 20
-23.2226497308
 30
0.0
 11
-6.7553061385
 21
-23.2226497308
 31
0.0
  0
LINE
  5
2AF
100
AcDbEntity
  8
PORTATASTO
100
AcDbLine
 62
7
  6
CONTINUOUS
 10
6.7553061385
 20
-23.2226497308
 30
0.0
 11
6.8552360356
 21
-23.2226497308
 31
0.0
  0
LINE
  5
2B0
100
AcDbEntity
  8
PORTATASTO
100
AcDbLine
 62
7
  6
CONTINUOUS
 10
15.6447639644
 20
-23.2226497308
 30
0.0
 11
15.7446938615
 21
-23.2226497308
 31
0.0
  0
LINE
  5
2B1
100
AcDbEntity
  8
PORTATASTO
100
AcDbLine
 62
250
  6
CONTINUOUS
 10
21.388212066
 20
-23.0783121635
 30
0.0
 11
18.511787934
 21
-23.0783121635
 31
0.0
  0
LINE
  5
2B2
100
AcDbEntity
  8
PORTATASTO
100
AcDbLine
 62
250
  6
CONTINUOUS
 10
3.988212066
 20
-23.0783121635
 30
0.0
 11
1.111787934
 21
-23.0783121635
 31
0.0
  0
LINE
  5
2B3
100
AcDbEntity
  8
PORTATASTO
100
AcDbLine
 62
250
  6
CONTINUOUS
 10
-1.111787934
 20
-23.0783121635
 30
0.0
 11
-3.988212066
 21
-23.0783121635
 31
0.0
  0
LINE
  5
2B4
100
AcDbEntity
  8
PORTATASTO
100
AcDbLine
 62
250
  6
CONTINUOUS
 10
-18.511787934
 20
-23.0783121635
 30
0.0
 11
-21.388212066
 21
-23.0783121635
 31
0.0
  0
LINE
  5
2B5
100
AcDbEntity
  8
PORTATASTO
100
AcDbLine
 62
7
  6
CONTINUOUS
 10
12.25
 20
-22.4024077793
 30
0.0
 11
10.25
 21
-22.4024077793
 31
0.0
  0
LINE
  5
2B6
100
AcDbEntity
  8
PORTATASTO
100
AcDbLine
 62
7
  6
CONTINUOUS
 10
-10.25
 20
-22.4024077793
 30
0.0
 11
-12.25
 21
-22.4024077793
 31
0.0
  0
LINE
  5
2B7
100
AcDbEntity
  8
CORPO
100
AcDbLine
 62
7
  6
CONTINUOUS
 10
1.1052360356
 20
-22.4
 30
0.0
 11
-1.1052360356
 21
-22.4
 31
0.0
  0
LINE
  5
2B8
100
AcDbEntity
  8
ASSI
100
AcDbLine
 62
7
  6
CONTINUOUS
 10
1.1052360356
 20
-22.4
 30
0.0
 11
-1.1052360356
 21
-22.4
 31
0.0
  0
LINE
  5
2B9
100
AcDbEntity
  8
PORTATASTO
100
AcDbLine
 62
7
  6
CONTINUOUS
 10
21.8503805997
 20
-22.35
 30
0.0
 11
21.3947639644
 21
-22.35
 31
0.0
  0
LINE
  5
2BA
100
AcDbEntity
  8
PORTATASTO
100
AcDbLine
 62
7
  6
CONTINUOUS
 10
18.5052360356
 20
-22.35
 30
0.0
 11
15.6447639644
 21
-22.35
 31
0.0
  0
LINE
  5
2BB
100
AcDbEntity
  8
PORTATASTO
100
AcDbLine
 62
7
  6
CONTINUOUS
 10
6.8552360356
 20
-22.35
 30
0.0
 11
3.9947639644
 21
-22.35
 31
0.0
  0
LINE
  5
2BC
100
AcDbEntity
  8
PORTATASTO
100
AcDbLine
 62
7
  6
CONTINUOUS
 10
1.1052360356
 20
-22.35
 30
0.0
 11
-1.1052360356
 21
-22.35
 31
0.0
  0
LINE
  5
2BD
100
AcDbEntity
  8
PORTATASTO
100
AcDbLine
 62
7
  6
CONTINUOUS
 10
-3.9947639644
 20
-22.35
 30
0.0
 11
-6.8552360356
 21
-22.35
 31
0.0
  0
LINE
  5
2BE
100
AcDbEntity
  8
PORTATASTO
100
AcDbLine
 62
7
  6
CONTINUOUS
 10
-15.6447639644
 20
-22.35
 30
0.0
 11
-18.5052360356
 21
-22.35
 31
0.0
  0
LINE
  5
2BF
100
AcDbEntity
  8
PORTATASTO
100
AcDbLine
 62
7
  6
CONTINUOUS
 10
-21.3947639644
 20
-22.35
 30
0.0
 11
-21.8503805997
 21
-22.35
 31
0.0
  0
LINE
  5
2C0
100
AcDbEntity
  8
PORTATASTO
100
AcDbLine
 62
7
  6
CONTINUOUS
 10
14.75
 20
-22.3237961104
 30
0.0
 11
12.4613525438
 21
-22.3237961104
 31
0.0
  0
LINE
  5
2C1
100
AcDbEntity
  8
PORTATASTO
100
AcDbLine
 62
7
  6
CONTINUOUS
 10
10.0386474562
 20
-22.3237961104
 30
0.0
 11
7.75
 21
-22.3237961104
 31
0.0
  0
LINE
  5
2C2
100
AcDbEntity
  8
PORTATASTO
100
AcDbLine
 62
7
  6
CONTINUOUS
 10
-7.75
 20
-22.3237961104
 30
0.0
 11
-10.0386474562
 21
-22.3237961104
 31
0.0
  0
LINE
  5
2C3
100
AcDbEntity
  8
PORTATASTO
100
AcDbLine
 62
7
  6
CONTINUOUS
 10
-12.4613525438
 20
-22.3237961104
 30
0.0
 11
-14.75
 21
-22.3237961104
 31
0.0
  0
LINE
  5
2C4
100
AcDbEntity
  8
PORTATASTO
100
AcDbLine
 62
7
  6
CONTINUOUS
 10
21.8241980023
 20
-22.2713883311
 30
0.0
 11
21.1382154929
 21
-22.2713883311
 31
0.0
  0
LINE
  5
2C5
100
AcDbEntity
  8
PORTATASTO
100
AcDbLine
 62
7
  6
CONTINUOUS
 10
18.7617845071
 20
-22.2713883311
 30
0.0
 11
15.4379543765
 21
-22.2713883311
 31
0.0
  0
LINE
  5
2C6
100
AcDbEntity
  8
PORTATASTO
100
AcDbLine
 62
7
  6
CONTINUOUS
 10
14.9569891099
 20
-22.2713883311
 30
0.0
 11
7.5430108901
 21
-22.2713883311
 31
0.0
  0
LINE
  5
2C7
100
AcDbEntity
  8
PORTATASTO
100
AcDbLine
 62
7
  6
CONTINUOUS
 10
7.0620456235
 20
-22.2713883311
 30
0.0
 11
3.7382154929
 21
-22.2713883311
 31
0.0
  0
LINE
  5
2C8
100
AcDbEntity
  8
PORTATASTO
100
AcDbLine
 62
7
  6
CONTINUOUS
 10
1.3617845071
 20
-22.2713883311
 30
0.0
 11
-1.3617845071
 21
-22.2713883311
 31
0.0
  0
LINE
  5
2C9
100
AcDbEntity
  8
PORTATASTO
100
AcDbLine
 62
7
  6
CONTINUOUS
 10
-3.7382154929
 20
-22.2713883311
 30
0.0
 11
-7.0620456235
 21
-22.2713883311
 31
0.0
  0
LINE
  5
2CA
100
AcDbEntity
  8
PORTATASTO
100
AcDbLine
 62
7
  6
CONTINUOUS
 10
-7.5430108901
 20
-22.2713883311
 30
0.0
 11
-14.9569891099
 21
-22.2713883311
 31
0.0
  0
LINE
  5
2CB
100
AcDbEntity
  8
PORTATASTO
100
AcDbLine
 62
7
  6
CONTINUOUS
 10
-15.4379543765
 20
-22.2713883311
 30
0.0
 11
-18.7617845071
 21
-22.2713883311
 31
0.0
  0
LINE
  5
2CC
100
AcDbEntity
  8
PORTATASTO
100
AcDbLine
 62
7
  6
CONTINUOUS
 10
-21.1382154929
 20
-22.2713883311
 30
0.0
 11
-21.8241980023
 21
-22.2713883311
 31
0.0
  0
LINE
  5
2CD
100
AcDbEntity
  8
RACCORDO
100
AcDbLine
 62
7
  6
CONTINUOUS
 10
-21.6113604562
 20
-22.1216395076
 30
0.0
 11
21.6113604562
 21
-22.1216395076
 31
0.0
  0
LINE
  5
2CE
100
AcDbEntity
  8
RACCORDO
100
AcDbLine
 62
250
  6
CONTINUOUS
 10
21.5459352718
 20
-21.990699353
 30
0.0
 11
-21.5459352718
 21
-21.990699353
 31
0.0
  0
LINE
  5
2CF
100
AcDbEntity
  8
RACCORDO
100
AcDbLine
 62
250
  6
CONTINUOUS
 10
21.5336723934
 20
-21.1404073643
 30
0.0
 11
-21.5336723934
 21
-21.1404073643
 31
0.0
  0
LINE
  5
2D0
100
AcDbEntity
  8
PORTATASTO
100
AcDbLine
 62
7
  6
CONTINUOUS
 10
-6.862048365
 20
-23.987951635
 30
0.0
 11
-6.85
 21
-24.0
 31
0.0
  0
LINE
  5
2D1
100
AcDbEntity
  8
PORTATASTO
100
AcDbLine
 62
7
  6
CONTINUOUS
 10
-18.5
 20
-23.8
 30
0.0
 11
-18.5052360356
 21
-23.2226497308
 31
0.0
  0
LINE
  5
2D2
100
AcDbEntity
  8
PORTATASTO
100
AcDbLine
 62
250
  6
CONTINUOUS
 10
-18.763093516
 20
23.2948185145
 30
0.0
 11
-18.7670205427
 21
23.7278312164
 31
0.0
  0
LINE
  5
2D3
100
AcDbEntity
  8
PORTATASTO
100
AcDbLine
 62
250
  6
CONTINUOUS
 10
-18.5130969429
 20
23.5113248654
 30
0.0
 11
-18.5170239696
 21
23.9443375673
 31
0.0
  0
LINE
  5
2D4
100
AcDbEntity
  8
PORTATASTO
100
AcDbLine
 62
7
  6
CONTINUOUS
 10
-15.6447639644
 20
23.2226497308
 30
0.0
 11
-15.65
 21
23.8
 31
0.0
  0
LINE
  5
2D5
100
AcDbEntity
  8
PORTATASTO
100
AcDbLine
 62
250
  6
CONTINUOUS
 10
-18.7670205427
 20
-23.7278312164
 30
0.0
 11
-18.7670205427
 21
-24.4829760304
 31
0.0
  0
LINE
  5
2D6
100
AcDbEntity
  8
PORTATASTO
100
AcDbLine
 62
250
  6
CONTINUOUS
 10
-18.7670205427
 20
23.7278312164
 30
0.0
 11
-18.7670205427
 21
24.4829760304
 31
0.0
  0
LINE
  5
2D7
100
AcDbEntity
  8
PORTATASTO
100
AcDbLine
 62
250
  6
CONTINUOUS
 10
-18.7617845071
 20
-23.0783121635
 30
0.0
 11
-18.7617845071
 21
-22.2713883311
 31
0.0
  0
LINE
  5
2D8
100
AcDbEntity
  8
PORTATASTO
100
AcDbLine
 62
250
  6
CONTINUOUS
 10
-18.7617845071
 20
22.2713883311
 30
0.0
 11
-18.7617845071
 21
23.0783121635
 31
0.0
  0
LINE
  5
2D9
100
AcDbEntity
  8
PORTATASTO
100
AcDbLine
 62
7
  6
CONTINUOUS
 10
-18.5170239696
 20
-24.2329794573
 30
0.0
 11
-18.5170239696
 21
-23.9443375673
 31
0.0
  0
LINE
  5
2DA
100
AcDbEntity
  8
PORTATASTO
100
AcDbLine
 62
7
  6
CONTINUOUS
 10
-18.5170239696
 20
23.9443375673
 30
0.0
 11
-18.5170239696
 21
24.2329794573
 31
0.0
  0
LINE
  5
2DB
100
AcDbEntity
  8
PORTATASTO
100
AcDbLine
 62
7
  6
CONTINUOUS
 10
-18.511787934
 20
-23.0783121635
 30
0.0
 11
-18.511787934
 21
-22.2844216746
 31
0.0
  0
LINE
  5
2DC
100
AcDbEntity
  8
PORTATASTO
100
AcDbLine
 62
7
  6
CONTINUOUS
 10
-18.511787934
 20
22.2844216746
 30
0.0
 11
-18.511787934
 21
23.0783121635
 31
0.0
  0
LINE
  5
2DD
100
AcDbEntity
  8
PORTATASTO
100
AcDbLine
 62
7
  6
CONTINUOUS
 10
-18.5052360356
 20
23.2226497308
 30
0.0
 11
-18.5052360356
 21
23.0783121635
 31
0.0
  0
LINE
  5
2DE
100
AcDbEntity
  8
PORTATASTO
100
AcDbLine
 62
7
  6
CONTINUOUS
 10
-18.5052360356
 20
-23.0783121635
 30
0.0
 11
-18.5052360356
 21
-23.2226497308
 31
0.0
  0
LINE
  5
2DF
100
AcDbEntity
  8
PORTATASTO
100
AcDbLine
 62
7
  6
CONTINUOUS
 10
-18.5
 20
24.2500034269
 30
0.0
 11
-18.5
 21
23.8
 31
0.0
  0
LINE
  5
2E0
100
AcDbEntity
  8
PORTATASTO
100
AcDbLine
 62
7
  6
CONTINUOUS
 10
-18.5
 20
-23.8
 30
0.0
 11
-18.5
 21
-24.2500034269
 31
0.0
  0
LINE
  5
2E1
100
AcDbEntity
  8
PORTATASTO
100
AcDbLine
 62
7
  6
CONTINUOUS
 10
-15.6552360356
 20
-22.35
 30
0.0
 11
-15.6552360356
 21
-22.85711136
 31
0.0
  0
LINE
  5
2E2
100
AcDbEntity
  8
PORTATASTO
100
AcDbLine
 62
7
  6
CONTINUOUS
 10
-15.6552360356
 20
22.35
 30
0.0
 11
-15.6552360356
 21
22.85711136
 31
0.0
  0
LINE
  5
2E3
100
AcDbEntity
  8
PORTATASTO
100
AcDbLine
 62
7
  6
CONTINUOUS
 10
-15.65
 20
-24.0
 30
0.0
 11
-15.65
 21
-23.8
 31
0.0
  0
LINE
  5
2E4
100
AcDbEntity
  8
PORTATASTO
100
AcDbLine
 62
7
  6
CONTINUOUS
 10
-15.65
 20
23.8
 30
0.0
 11
-15.65
 21
24.0
 31
0.0
  0
LINE
  5
2E5
100
AcDbEntity
  8
PORTATASTO
100
AcDbLine
 62
7
  6
CONTINUOUS
 10
-15.637951635
 20
23.987951635
 30
0.0
 11
-15.637951635
 21
22.2818150059
 31
0.0
  0
LINE
  5
2E6
100
AcDbEntity
  8
PORTATASTO
100
AcDbLine
 62
7
  6
CONTINUOUS
 10
-15.637951635
 20
-22.2818150059
 30
0.0
 11
-15.637951635
 21
-23.987951635
 31
0.0
  0
LINE
  5
2E7
100
AcDbEntity
  8
PORTATASTO
100
AcDbLine
 62
250
  6
CONTINUOUS
 10
-15.4379543765
 20
23.7879543765
 30
0.0
 11
-15.4379543765
 21
22.2713883311
 31
0.0
  0
LINE
  5
2E8
100
AcDbEntity
  8
PORTATASTO
100
AcDbLine
 62
250
  6
CONTINUOUS
 10
-15.4379543765
 20
-22.2713883311
 30
0.0
 11
-15.4379543765
 21
-23.7879543765
 31
0.0
  0
LINE
  5
2E9
100
AcDbEntity
  8
PORTATASTO
100
AcDbLine
 62
7
  6
CONTINUOUS
 10
-18.5052360356
 20
23.2226497308
 30
0.0
 11
-18.5
 21
23.8
 31
0.0
  0
LINE
  5
2EA
100
AcDbEntity
  8
PORTATASTO
100
AcDbLine
 62
250
  6
CONTINUOUS
 10
-18.7670205427
 20
-23.7278312164
 30
0.0
 11
-18.763093516
 21
-23.2948185145
 31
0.0
  0
LINE
  5
2EB
100
AcDbEntity
  8
PORTATASTO
100
AcDbLine
 62
250
  6
CONTINUOUS
 10
-18.5170239696
 20
-23.9443375673
 30
0.0
 11
-18.5130969429
 21
-23.5113248654
 31
0.0
  0
LINE
  5
2EC
100
AcDbEntity
  8
PORTATASTO
100
AcDbLine
 62
7
  6
CONTINUOUS
 10
-15.65
 20
-23.8
 30
0.0
 11
-15.6447639644
 21
-23.2226497308
 31
0.0
  0
LINE
  5
2ED
100
AcDbEntity
  8
PORTATASTO
100
AcDbLine
 62
7
  6
CONTINUOUS
 10
-12.25
 20
22.4024077793
 30
0.0
 11
-12.2613601592
 21
22.3341861985
 31
0.0
  0
LINE
  5
2EE
100
AcDbEntity
  8
PORTATASTO
100
AcDbLine
 62
250
  6
CONTINUOUS
 10
-1.3670205427
 20
24.4829760304
 30
0.0
 11
-1.3499965731
 21
24.5
 31
0.0
  0
LINE
  5
2EF
100
AcDbEntity
  8
PORTATASTO
100
AcDbLine
 62
250
  6
CONTINUOUS
 10
-1.1170239696
 20
24.2329794573
 30
0.0
 11
-1.1
 21
24.2500034269
 31
0.0
  0
LINE
  5
2F0
100
AcDbEntity
  8
PORTATASTO
100
AcDbLine
 62
250
  6
CONTINUOUS
 10
10.050001523
 20
24.0
 30
0.0
 11
10.0386474562
 21
23.9931876706
 31
0.0
  0
LINE
  5
2F1
100
AcDbEntity
  8
PORTATASTO
100
AcDbLine
 62
250
  6
CONTINUOUS
 10
10.050001523
 20
-24.0
 30
0.0
 11
10.0386474562
 21
-23.9931876706
 31
0.0
  0
LINE
  5
2F2
100
AcDbEntity
  8
PORTATASTO
100
AcDbLine
 62
250
  6
CONTINUOUS
 10
-1.3670205427
 20
-24.4829760304
 30
0.0
 11
-1.3499965731
 21
-24.5
 31
0.0
  0
LINE
  5
2F3
100
AcDbEntity
  8
PORTATASTO
100
AcDbLine
 62
250
  6
CONTINUOUS
 10
-1.1170239696
 20
-24.2329794573
 30
0.0
 11
-1.1
 21
-24.2500034269
 31
0.0
  0
LINE
  5
2F4
100
AcDbEntity
  8
PORTATASTO
100
AcDbLine
 62
7
  6
CONTINUOUS
 10
-12.2613601592
 20
-22.3341861985
 30
0.0
 11
-12.25
 21
-22.4024077793
 31
0.0
  0
LINE
  5
2F5
100
AcDbEntity
  8
PORTATASTO
100
AcDbLine
 62
250
  6
CONTINUOUS
 10
-14.9569891099
 20
-22.2713883311
 30
0.0
 11
-14.9569891099
 21
-23.987951635
 31
0.0
  0
LINE
  5
2F6
100
AcDbEntity
  8
PORTATASTO
100
AcDbLine
 62
250
  6
CONTINUOUS
 10
-14.9569891099
 20
22.2713883311
 30
0.0
 11
-14.9569891099
 21
23.987951635
 31
0.0
  0
LINE
  5
2F7
100
AcDbEntity
  8
PORTATASTO
100
AcDbLine
 62
7
  6
CONTINUOUS
 10
-14.7569967253
 20
-23.7879543765
 30
0.0
 11
-14.7569967253
 21
-22.2817784193
 31
0.0
  0
LINE
  5
2F8
100
AcDbEntity
  8
PORTATASTO
100
AcDbLine
 62
7
  6
CONTINUOUS
 10
-14.7569967253
 20
22.2817784193
 30
0.0
 11
-14.7569967253
 21
23.7879543765
 31
0.0
  0
LINE
  5
2F9
100
AcDbEntity
  8
PORTATASTO
100
AcDbLine
 62
7
  6
CONTINUOUS
 10
-14.75
 20
23.7931904121
 30
0.0
 11
-14.75
 21
22.3237961104
 31
0.0
  0
LINE
  5
2FA
100
AcDbEntity
  8
PORTATASTO
100
AcDbLine
 62
7
  6
CONTINUOUS
 10
-14.75
 20
-23.7931904121
 30
0.0
 11
-14.75
 21
-22.3237961104
 31
0.0
  0
LINE
  5
2FB
100
AcDbEntity
  8
PORTATASTO
100
AcDbLine
 62
250
  6
CONTINUOUS
 10
-12.4613525438
 20
-23.9931876706
 30
0.0
 11
-12.4613525438
 21
-22.3237961104
 31
0.0
  0
LINE
  5
2FC
100
AcDbEntity
  8
PORTATASTO
100
AcDbLine
 62
250
  6
CONTINUOUS
 10
-12.4613525438
 20
22.3237961104
 30
0.0
 11
-12.4613525438
 21
23.9931876706
 31
0.0
  0
LINE
  5
2FD
100
AcDbEntity
  8
PORTATASTO
100
AcDbLine
 62
7
  6
CONTINUOUS
 10
-12.2613601592
 20
-23.7931904121
 30
0.0
 11
-12.2613601592
 21
-22.3341861985
 31
0.0
  0
LINE
  5
2FE
100
AcDbEntity
  8
PORTATASTO
100
AcDbLine
 62
7
  6
CONTINUOUS
 10
-12.2613601592
 20
22.3341861985
 30
0.0
 11
-12.2613601592
 21
23.7931904121
 31
0.0
  0
LINE
  5
2FF
100
AcDbEntity
  8
PORTATASTO
100
AcDbLine
 62
7
  6
CONTINUOUS
 10
-12.25
 20
23.8000063969
 30
0.0
 11
-12.25
 21
22.4024077793
 31
0.0
  0
LINE
  5
300
100
AcDbEntity
  8
PORTATASTO
100
AcDbLine
 62
7
  6
CONTINUOUS
 10
-12.25
 20
-22.4024077793
 30
0.0
 11
-12.25
 21
-23.8000063969
 31
0.0
  0
LINE
  5
301
100
AcDbEntity
  8
PORTATASTO
100
AcDbLine
 62
250
  6
CONTINUOUS
 10
-22.35
 20
-21.8497711479
 30
0.0
 11
-22.3238174026
 21
-21.771159479
 31
0.0
  0
LINE
  5
302
100
AcDbEntity
  8
PORTATASTO
100
AcDbLine
 62
250
  6
CONTINUOUS
 10
-21.8503805997
 20
-22.35
 30
0.0
 11
-21.8241980023
 21
-22.2713883311
 31
0.0
  0
LWPOLYLINE
  5
303
100
AcDbEntity
  8
0
100
AcDbPolyline
 62
7
  6
CONTINUOUS
 90
3
 70
0
 43
0.3500000006
 10
1.035714268
 20
41.40331604
 10
0.9642857051
 20
41.1890315552
 10
0.8214285793
 20
40.9033158875
  0
LINE
  5
304
100
AcDbEntity
  8
PORTATASTO
100
AcDbLine
 62
250
  6
CONTINUOUS
 10
3.7329794573
 20
24.4829760304
 30
0.0
 11
3.7500034269
 21
24.5
 31
0.0
  0
LINE
  5
305
100
AcDbEntity
  8
PORTATASTO
100
AcDbLine
 62
250
  6
CONTINUOUS
 10
3.9829760304
 20
24.2329794573
 30
0.0
 11
4.0
 21
24.2500034269
 31
0.0
  0
LINE
  5
306
100
AcDbEntity
  8
PORTATASTO
100
AcDbLine
 62
250
  6
CONTINUOUS
 10
10.25
 20
23.8000063969
 30
0.0
 11
10.2386398408
 21
23.7931904121
 31
0.0
  0
LINE
  5
307
100
AcDbEntity
  8
SUPERFICI
100
AcDbLine
 62
7
  6
CONTINUOUS
 10
-3.0500000693
 20
-15.329026998
 30
0.0
 11
-0.7000000002
 21
-15.329027
 31
0.0
  0
LINE
  5
308
100
AcDbEntity
  8
DRAFT
100
AcDbLine
 62
7
  6
CONTINUOUS
 10
-3.0500000695
 20
-15.329026998
 30
0.0
 11
-0.7000000002
 21
-15.329027
 31
0.0
  0
LINE
  5
309
100
AcDbEntity
  8
SUPERFICI
100
AcDbLine
 62
7
  6
CONTINUOUS
 10
0.7
 20
-15.329027
 30
0.0
 11
3.05
 21
-15.329027
 31
0.0
  0
LINE
  5
30A
100
AcDbEntity
  8
DRAFT
100
AcDbLine
 62
7
  6
CONTINUOUS
 10
0.7
 20
-15.329027
 30
0.0
 11
3.05
 21
-15.329027
 31
0.0
  0
LINE
  5
30B
100
AcDbEntity
  8
SUPERFICI
100
AcDbLine
 62
7
  6
CONTINUOUS
 10
-2.5357011046
 20
-14.7290269984
 30
0.0
 11
-0.6999999997
 21
-14.729027
 31
0.0
  0
LINE
  5
30C
100
AcDbEntity
  8
DRAFT
100
AcDbLine
 62
7
  6
CONTINUOUS
 10
-2.5357011048
 20
-14.7290269991
 30
0.0
 11
-0.6999999997
 21
-14.729027
 31
0.0
  0
LINE
  5
30D
100
AcDbEntity
  8
SUPERFICI
100
AcDbLine
 62
7
  6
CONTINUOUS
 10
0.7
 20
-14.729027
 30
0.0
 11
2.535701
 21
-14.729027
 31
0.0
  0
LINE
  5
30E
100
AcDbEntity
  8
DRAFT
100
AcDbLine
 62
7
  6
CONTINUOUS
 10
0.7
 20
-14.729027
 30
0.0
 11
2.535701
 21
-14.729027
 31
0.0
  0
LINE
  5
30F
100
AcDbEntity
  8
PORTATASTO
100
AcDbLine
 62
250
  6
CONTINUOUS
 10
10.25
 20
-23.8000063969
 30
0.0
 11
10.2386398408
 21
-23.7931904121
 31
0.0
  0
LINE
  5
310
100
AcDbEntity
  8
PORTATASTO
100
AcDbLine
 62
250
  6
CONTINUOUS
 10
3.7329794573
 20
-24.4829760304
 30
0.0
 11
3.7500034269
 21
-24.5
 31
0.0
  0
LINE
  5
311
100
AcDbEntity
  8
PORTATASTO
100
AcDbLine
 62
250
  6
CONTINUOUS
 10
3.9829760304
 20
-24.2329794573
 30
0.0
 11
4.0
 21
-24.2500034269
 31
0.0
  0
LINE
  5
312
100
AcDbEntity
  8
PORTATASTO
100
AcDbLine
 62
250
  6
CONTINUOUS
 10
-22.3238174026
 20
21.771159479
 30
0.0
 11
-22.35
 21
21.8497711479
 31
0.0
  0
LINE
  5
313
100
AcDbEntity
  8
PORTATASTO
100
AcDbLine
 62
250
  6
CONTINUOUS
 10
-21.8241980023
 20
22.2713883311
 30
0.0
 11
-21.8503805997
 21
22.35
 31
0.0
  0
LINE
  5
314
100
AcDbEntity
  8
PORTATASTO
100
AcDbLine
 62
7
  6
CONTINUOUS
 10
-10.25
 20
23.8000063969
 30
0.0
 11
-10.25
 21
22.4024077793
 31
0.0
  0
LINE
  5
315
100
AcDbEntity
  8
PORTATASTO
100
AcDbLine
 62
7
  6
CONTINUOUS
 10
-10.25
 20
-22.4024077793
 30
0.0
 11
-10.25
 21
-23.8000063969
 31
0.0
  0
LINE
  5
316
100
AcDbEntity
  8
PORTATASTO
100
AcDbLine
 62
7
  6
CONTINUOUS
 10
-10.2386398408
 20
23.7931904121
 30
0.0
 11
-10.2386398408
 21
22.3341861985
 31
0.0
  0
LINE
  5
317
100
AcDbEntity
  8
PORTATASTO
100
AcDbLine
 62
7
  6
CONTINUOUS
 10
-10.2386398408
 20
-22.3341861985
 30
0.0
 11
-10.2386398408
 21
-23.7931904121
 31
0.0
  0
LINE
  5
318
100
AcDbEntity
  8
PORTATASTO
100
AcDbLine
 62
250
  6
CONTINUOUS
 10
-10.0386474562
 20
23.9931876706
 30
0.0
 11
-10.0386474562
 21
22.3237961104
 31
0.0
  0
LINE
  5
319
100
AcDbEntity
  8
PORTATASTO
100
AcDbLine
 62
250
  6
CONTINUOUS
 10
-10.0386474562
 20
-22.3237961104
 30
0.0
 11
-10.0386474562
 21
-23.9931876706
 31
0.0
  0
LINE
  5
31A
100
AcDbEntity
  8
PORTATASTO
100
AcDbLine
 62
7
  6
CONTINUOUS
 10
-7.75
 20
23.7931904121
 30
0.0
 11
-7.75
 21
22.3237961104
 31
0.0
  0
LINE
  5
31B
100
AcDbEntity
  8
PORTATASTO
100
AcDbLine
 62
7
  6
CONTINUOUS
 10
-7.75
 20
-23.7931904121
 30
0.0
 11
-7.75
 21
-22.3237961104
 31
0.0
  0
LINE
  5
31C
100
AcDbEntity
  8
PORTATASTO
100
AcDbLine
 62
7
  6
CONTINUOUS
 10
-7.7430032747
 20
23.7879543765
 30
0.0
 11
-7.7430032747
 21
22.2817784193
 31
0.0
  0
LINE
  5
31D
100
AcDbEntity
  8
PORTATASTO
100
AcDbLine
 62
7
  6
CONTINUOUS
 10
-7.7430032747
 20
-22.2817784193
 30
0.0
 11
-7.7430032747
 21
-23.7879543765
 31
0.0
  0
LINE
  5
31E
100
AcDbEntity
  8
PORTATASTO
100
AcDbLine
 62
250
  6
CONTINUOUS
 10
-7.5430108901
 20
-22.2713883311
 30
0.0
 11
-7.5430108901
 21
-23.987951635
 31
0.0
  0
LINE
  5
31F
100
AcDbEntity
  8
PORTATASTO
100
AcDbLine
 62
250
  6
CONTINUOUS
 10
-7.5430108901
 20
22.2713883311
 30
0.0
 11
-7.5430108901
 21
23.987951635
 31
0.0
  0
LINE
  5
320
100
AcDbEntity
  8
RACCORDO
100
AcDbLine
 62
250
  6
CONTINUOUS
 10
-22.1116448613
 20
-21.6232368509
 30
0.0
 11
-22.0457639343
 21
-21.4913845856
 31
0.0
  0
LINE
  5
321
100
AcDbEntity
  8
RACCORDO
100
AcDbLine
 62
250
  6
CONTINUOUS
 10
-21.6113604562
 20
-22.1216395076
 30
0.0
 11
-21.5459352718
 21
-21.990699353
 31
0.0
  0
LINE
  5
322
100
AcDbEntity
  8
RACCORDO
100
AcDbLine
 62
250
  6
CONTINUOUS
 10
-21.5081671343
 20
-9.4999715498
 30
0.0
 11
21.5081671343
 21
-9.4999715499
 31
0.0
  0
LINE
  5
323
100
AcDbEntity
  8
RACCORDO
100
AcDbLine
 62
250
  6
CONTINUOUS
 10
-22.0457639343
 20
21.4913845856
 30
0.0
 11
-22.15
 21
21.6999997649
 31
0.0
  0
LINE
  5
324
100
AcDbEntity
  8
RACCORDO
100
AcDbLine
 62
250
  6
CONTINUOUS
 10
-21.5459352718
 20
21.990699353
 30
0.0
 11
-21.6505138364
 21
22.2
 31
0.0
  0
LINE
  5
325
100
AcDbEntity
  8
PORTATASTO
100
AcDbLine
 62
7
  6
CONTINUOUS
 10
-6.85
 20
-23.8
 30
0.0
 11
-6.8552360356
 21
-23.2226497308
 31
0.0
  0
LINE
  5
326
100
AcDbEntity
  8
PORTATASTO
100
AcDbLine
 62
250
  6
CONTINUOUS
 10
-3.9869030571
 20
-23.5113248654
 30
0.0
 11
-3.9829760304
 21
-23.9443375673
 31
0.0
  0
LINE
  5
327
100
AcDbEntity
  8
PORTATASTO
100
AcDbLine
 62
250
  6
CONTINUOUS
 10
-3.736906484
 20
-23.2948185145
 30
0.0
 11
-3.7329794573
 21
-23.7278312164
 31
0.0
  0
LINE
  5
328
100
AcDbEntity
  8
PORTATASTO
100
AcDbLine
 62
7
  6
CONTINUOUS
 10
-4.0
 20
23.8
 30
0.0
 11
-3.9947639644
 21
23.2226497308
 31
0.0
  0
LINE
  5
329
100
AcDbEntity
  8
PORTATASTO
100
AcDbLine
 62
250
  6
CONTINUOUS
 10
-7.0620456235
 20
-23.7879543765
 30
0.0
 11
-7.0620456235
 21
-22.2713883311
 31
0.0
  0
LINE
  5
32A
100
AcDbEntity
  8
PORTATASTO
100
AcDbLine
 62
250
  6
CONTINUOUS
 10
-7.0620456235
 20
22.2713883311
 30
0.0
 11
-7.0620456235
 21
23.7879543765
 31
0.0
  0
LINE
  5
32B
100
AcDbEntity
  8
PORTATASTO
100
AcDbLine
 62
7
  6
CONTINUOUS
 10
-6.862048365
 20
-23.987951635
 30
0.0
 11
-6.862048365
 21
-22.2818150059
 31
0.0
  0
LINE
  5
32C
100
AcDbEntity
  8
PORTATASTO
100
AcDbLine
 62
7
  6
CONTINUOUS
 10
-6.862048365
 20
22.2818150059
 30
0.0
 11
-6.862048365
 21
23.987951635
 31
0.0
  0
LINE
  5
32D
100
AcDbEntity
  8
PORTATASTO
100
AcDbLine
 62
7
  6
CONTINUOUS
 10
-6.85
 20
24.0
 30
0.0
 11
-6.85
 21
23.8
 31
0.0
  0
LINE
  5
32E
100
AcDbEntity
  8
PORTATASTO
100
AcDbLine
 62
7
  6
CONTINUOUS
 10
-6.85
 20
-23.8
 30
0.0
 11
-6.85
 21
-24.0
 31
0.0
  0
LINE
  5
32F
100
AcDbEntity
  8
PORTATASTO
100
AcDbLine
 62
7
  6
CONTINUOUS
 10
-6.8447639644
 20
-22.35
 30
0.0
 11
-6.8447639644
 21
-22.85711136
 31
0.0
  0
LINE
  5
330
100
AcDbEntity
  8
PORTATASTO
100
AcDbLine
 62
7
  6
CONTINUOUS
 10
-6.8447639644
 20
22.35
 30
0.0
 11
-6.8447639644
 21
22.85711136
 31
0.0
  0
LINE
  5
331
100
AcDbEntity
  8
PORTATASTO
100
AcDbLine
 62
7
  6
CONTINUOUS
 10
-4.0
 20
-24.2500034269
 30
0.0
 11
-4.0
 21
-23.8
 31
0.0
  0
LINE
  5
332
100
AcDbEntity
  8
PORTATASTO
100
AcDbLine
 62
7
  6
CONTINUOUS
 10
-4.0
 20
23.8
 30
0.0
 11
-4.0
 21
24.2500034269
 31
0.0
  0
LINE
  5
333
100
AcDbEntity
  8
PORTATASTO
100
AcDbLine
 62
7
  6
CONTINUOUS
 10
-3.9947639644
 20
23.2226497308
 30
0.0
 11
-3.9947639644
 21
23.0783121635
 31
0.0
  0
LINE
  5
334
100
AcDbEntity
  8
PORTATASTO
100
AcDbLine
 62
7
  6
CONTINUOUS
 10
-3.9947639644
 20
-23.0783121635
 30
0.0
 11
-3.9947639644
 21
-23.2226497308
 31
0.0
  0
LINE
  5
335
100
AcDbEntity
  8
PORTATASTO
100
AcDbLine
 62
7
  6
CONTINUOUS
 10
-3.988212066
 20
23.0783121635
 30
0.0
 11
-3.988212066
 21
22.2844216746
 31
0.0
  0
LINE
  5
336
100
AcDbEntity
  8
PORTATASTO
100
AcDbLine
 62
7
  6
CONTINUOUS
 10
-3.988212066
 20
-22.2844216746
 30
0.0
 11
-3.988212066
 21
-23.0783121635
 31
0.0
  0
LINE
  5
337
100
AcDbEntity
  8
PORTATASTO
100
AcDbLine
 62
7
  6
CONTINUOUS
 10
-3.9829760304
 20
24.2329794573
 30
0.0
 11
-3.9829760304
 21
23.9443375673
 31
0.0
  0
LINE
  5
338
100
AcDbEntity
  8
PORTATASTO
100
AcDbLine
 62
7
  6
CONTINUOUS
 10
-3.9829760304
 20
-23.9443375673
 30
0.0
 11
-3.9829760304
 21
-24.2329794573
 31
0.0
  0
LINE
  5
339
100
AcDbEntity
  8
PORTATASTO
100
AcDbLine
 62
250
  6
CONTINUOUS
 10
-3.7382154929
 20
23.0783121635
 30
0.0
 11
-3.7382154929
 21
22.2713883311
 31
0.0
  0
LINE
  5
33A
100
AcDbEntity
  8
PORTATASTO
100
AcDbLine
 62
250
  6
CONTINUOUS
 10
-3.7382154929
 20
-22.2713883311
 30
0.0
 11
-3.7382154929
 21
-23.0783121635
 31
0.0
  0
LINE
  5
33B
100
AcDbEntity
  8
PORTATASTO
100
AcDbLine
 62
250
  6
CONTINUOUS
 10
-3.7329794573
 20
-23.7278312164
 30
0.0
 11
-3.7329794573
 21
-24.4829760304
 31
0.0
  0
LINE
  5
33C
100
AcDbEntity
  8
PORTATASTO
100
AcDbLine
 62
250
  6
CONTINUOUS
 10
-3.7329794573
 20
23.7278312164
 30
0.0
 11
-3.7329794573
 21
24.4829760304
 31
0.0
  0
LINE
  5
33D
100
AcDbEntity
  8
PORTATASTO
100
AcDbLine
 62
7
  6
CONTINUOUS
 10
-6.8552360356
 20
23.2226497308
 30
0.0
 11
-6.85
 21
23.8
 31
0.0
  0
LINE
  5
33E
100
AcDbEntity
  8
PORTATASTO
100
AcDbLine
 62
250
  6
CONTINUOUS
 10
-3.9829760304
 20
23.9443375673
 30
0.0
 11
-3.9869030571
 21
23.5113248654
 31
0.0
  0
LINE
  5
33F
100
AcDbEntity
  8
PORTATASTO
100
AcDbLine
 62
250
  6
CONTINUOUS
 10
-3.7329794573
 20
23.7278312164
 30
0.0
 11
-3.736906484
 21
23.2948185145
 31
0.0
  0
LINE
  5
340
100
AcDbEntity
  8
PORTATASTO
100
AcDbLine
 62
7
  6
CONTINUOUS
 10
-3.9947639644
 20
-23.2226497308
 30
0.0
 11
-4.0
 21
-23.8
 31
0.0
  0
LINE
  5
341
100
AcDbEntity
  8
PORTATASTO
100
AcDbLine
 62
7
  6
CONTINUOUS
 10
-10.2386398408
 20
-22.3341861985
 30
0.0
 11
-10.25
 21
-22.4024077793
 31
0.0
  0
LINE
  5
342
100
AcDbEntity
  8
PORTATASTO
100
AcDbLine
 62
7
  6
CONTINUOUS
 10
15.637951635
 20
23.987951635
 30
0.0
 11
15.65
 21
24.0
 31
0.0
  0
LINE
  5
343
100
AcDbEntity
  8
PORTATASTO
100
AcDbLine
 62
7
  6
CONTINUOUS
 10
15.637951635
 20
-23.987951635
 30
0.0
 11
15.65
 21
-24.0
 31
0.0
  0
LINE
  5
344
100
AcDbEntity
  8
PORTATASTO
100
AcDbLine
 62
7
  6
CONTINUOUS
 10
-10.25
 20
22.4024077793
 30
0.0
 11
-10.2386398408
 21
22.3341861985
 31
0.0
  0
LINE
  5
345
100
AcDbEntity
  8
PORTATASTO
100
AcDbLine
 62
7
  6
CONTINUOUS
 10
-1.1052360356
 20
-23.2226497308
 30
0.0
 11
-1.1
 21
-23.8
 31
0.0
  0
LINE
  5
346
100
AcDbEntity
  8
PORTATASTO
100
AcDbLine
 62
250
  6
CONTINUOUS
 10
-1.363093516
 20
23.2948185145
 30
0.0
 11
-1.3670205427
 21
23.7278312164
 31
0.0
  0
LINE
  5
347
100
AcDbEntity
  8
PORTATASTO
100
AcDbLine
 62
250
  6
CONTINUOUS
 10
-1.1130969429
 20
23.5113248654
 30
0.0
 11
-1.1170239696
 21
23.9443375673
 31
0.0
  0
LWPOLYLINE
  5
348
100
AcDbEntity
  8
0
100
AcDbPolyline
 62
7
  6
CONTINUOUS
 90
2
 70
0
 43
0.3500000006
 10
-3.3928571262
 20
41.1176003723
 10
-3.3928571262
 20
42.6176008301
  0
LINE
  5
349
100
AcDbEntity
  8
PORTATASTO
100
AcDbLine
 62
250
  6
CONTINUOUS
 10
-1.3670205427
 20
-23.7278312164
 30
0.0
 11
-1.3670205427
 21
-24.4829760304
 31
0.0
  0
LINE
  5
34A
100
AcDbEntity
  8
PORTATASTO
100
AcDbLine
 62
250
  6
CONTINUOUS
 10
-1.3670205427
 20
23.7278312164
 30
0.0
 11
-1.3670205427
 21
24.4829760304
 31
0.0
  0
LINE
  5
34B
100
AcDbEntity
  8
PORTATASTO
100
AcDbLine
 62
250
  6
CONTINUOUS
 10
-1.3617845071
 20
-23.0783121635
 30
0.0
 11
-1.3617845071
 21
-22.2713883311
 31
0.0
  0
LINE
  5
34C
100
AcDbEntity
  8
PORTATASTO
100
AcDbLine
 62
250
  6
CONTINUOUS
 10
-1.3617845071
 20
22.2713883311
 30
0.0
 11
-1.3617845071
 21
23.0783121635
 31
0.0
  0
LINE
  5
34D
100
AcDbEntity
  8
PORTATASTO
100
AcDbLine
 62
7
  6
CONTINUOUS
 10
-1.1170239696
 20
-24.2329794573
 30
0.0
 11
-1.1170239696
 21
-23.9443375673
 31
0.0
  0
LINE
  5
34E
100
AcDbEntity
  8
PORTATASTO
100
AcDbLine
 62
7
  6
CONTINUOUS
 10
-1.1170239696
 20
23.9443375673
 30
0.0
 11
-1.1170239696
 21
24.2329794573
 31
0.0
  0
LINE
  5
34F
100
AcDbEntity
  8
PORTATASTO
100
AcDbLine
 62
7
  6
CONTINUOUS
 10
-1.111787934
 20
-23.0783121635
 30
0.0
 11
-1.111787934
 21
-22.2844216746
 31
0.0
  0
LINE
  5
350
100
AcDbEntity
  8
PORTATASTO
100
AcDbLine
 62
7
  6
CONTINUOUS
 10
-1.111787934
 20
22.2844216746
 30
0.0
 11
-1.111787934
 21
23.0783121635
 31
0.0
  0
LINE
  5
351
100
AcDbEntity
  8
PORTATASTO
100
AcDbLine
 62
7
  6
CONTINUOUS
 10
-1.1052360356
 20
23.2226497308
 30
0.0
 11
-1.1052360356
 21
23.0783121635
 31
0.0
  0
LINE
  5
352
100
AcDbEntity
  8
PORTATASTO
100
AcDbLine
 62
7
  6
CONTINUOUS
 10
-1.1052360356
 20
-23.0783121635
 30
0.0
 11
-1.1052360356
 21
-23.2226497308
 31
0.0
  0
LINE
  5
353
100
AcDbEntity
  8
PORTATASTO
100
AcDbLine
 62
7
  6
CONTINUOUS
 10
-1.1
 20
24.2500034269
 30
0.0
 11
-1.1
 21
23.8
 31
0.0
  0
LINE
  5
354
100
AcDbEntity
  8
PORTATASTO
100
AcDbLine
 62
7
  6
CONTINUOUS
 10
-1.1
 20
-23.8
 30
0.0
 11
-1.1
 21
-24.2500034269
 31
0.0
  0
LWPOLYLINE
  5
355
100
AcDbEntity
  8
0
100
AcDbPolyline
 62
7
  6
CONTINUOUS
 90
2
 70
0
 43
0.3500000006
 10
-1.035714268
 20
41.1176003723
 10
-1.035714268
 20
42.6176008301
  0
LINE
  5
356
100
AcDbEntity
  8
PORTATASTO
100
AcDbLine
 62
7
  6
CONTINUOUS
 10
-1.1
 20
23.8
 30
0.0
 11
-1.1052360356
 21
23.2226497308
 31
0.0
  0
LINE
  5
357
100
AcDbEntity
  8
PORTATASTO
100
AcDbLine
 62
250
  6
CONTINUOUS
 10
-1.3670205427
 20
-23.7278312164
 30
0.0
 11
-1.363093516
 21
-23.2948185145
 31
0.0
  0
LINE
  5
358
100
AcDbEntity
  8
PORTATASTO
100
AcDbLine
 62
250
  6
CONTINUOUS
 10
-1.1170239696
 20
-23.9443375673
 30
0.0
 11
-1.1130969429
 21
-23.5113248654
 31
0.0
  0
LINE
  5
359
100
AcDbEntity
  8
PORTATASTO
100
AcDbLine
 62
250
  6
CONTINUOUS
 10
21.1329794573
 20
24.4829760304
 30
0.0
 11
21.1500034269
 21
24.5
 31
0.0
  0
LINE
  5
35A
100
AcDbEntity
  8
PORTATASTO
100
AcDbLine
 62
250
  6
CONTINUOUS
 10
21.3829760304
 20
24.2329794573
 30
0.0
 11
21.4
 21
24.2500034269
 31
0.0
  0
LWPOLYLINE
  5
35B
100
AcDbEntity
  8
0
100
AcDbPolyline
 62
7
  6
CONTINUOUS
 90
2
 70
0
 43
0.3500000006
 10
30.469629982
 20
-1.3571429443
 10
28.9696295242
 20
-1.3571429443
  0
LINE
  5
35C
100
AcDbEntity
  8
PORTATASTO
100
AcDbLine
 62
250
  6
CONTINUOUS
 10
21.1329794573
 20
-24.4829760304
 30
0.0
 11
21.1500034269
 21
-24.5
 31
0.0
  0
LINE
  5
35D
100
AcDbEntity
  8
PORTATASTO
100
AcDbLine
 62
250
  6
CONTINUOUS
 10
21.3829760304
 20
-24.2329794573
 30
0.0
 11
21.4
 21
-24.2500034269
 31
0.0
  0
LINE
  5
35E
100
AcDbEntity
  8
PORTATASTO
100
AcDbLine
 62
250
  6
CONTINUOUS
 10
1.1130969429
 20
-23.5113248654
 30
0.0
 11
1.1170239696
 21
-23.9443375673
 31
0.0
  0
LINE
  5
35F
100
AcDbEntity
  8
PORTATASTO
100
AcDbLine
 62
250
  6
CONTINUOUS
 10
1.363093516
 20
-23.2948185145
 30
0.0
 11
1.3670205427
 21
-23.7278312164
 31
0.0
  0
LINE
  5
360
100
AcDbEntity
  8
PORTATASTO
100
AcDbLine
 62
7
  6
CONTINUOUS
 10
1.1052360356
 20
23.2226497308
 30
0.0
 11
1.1
 21
23.8
 31
0.0
  0
LINE
  5
361
100
AcDbEntity
  8
PORTATASTO
100
AcDbLine
 62
7
  6
CONTINUOUS
 10
4.0
 20
-23.8
 30
0.0
 11
3.9947639644
 21
-23.2226497308
 31
0.0
  0
LINE
  5
362
100
AcDbEntity
  8
PORTATASTO
100
AcDbLine
 62
250
  6
CONTINUOUS
 10
3.736906484
 20
23.2948185145
 30
0.0
 11
3.7329794573
 21
23.7278312164
 31
0.0
  0
LINE
  5
363
100
AcDbEntity
  8
PORTATASTO
100
AcDbLine
 62
250
  6
CONTINUOUS
 10
3.9869030571
 20
23.5113248654
 30
0.0
 11
3.9829760304
 21
23.9443375673
 31
0.0
  0
LINE
  5
364
100
AcDbEntity
  8
PORTATASTO
100
AcDbLine
 62
7
  6
CONTINUOUS
 10
1.1
 20
-24.2500034269
 30
0.0
 11
1.1
 21
-23.8
 31
0.0
  0
LINE
  5
365
100
AcDbEntity
  8
PORTATASTO
100
AcDbLine
 62
7
  6
CONTINUOUS
 10
1.1
 20
23.8
 30
0.0
 11
1.1
 21
24.2500034269
 31
0.0
  0
LINE
  5
366
100
AcDbEntity
  8
PORTATASTO
100
AcDbLine
 62
7
  6
CONTINUOUS
 10
1.1052360356
 20
23.2226497308
 30
0.0
 11
1.1052360356
 21
23.0783121635
 31
0.0
  0
LINE
  5
367
100
AcDbEntity
  8
PORTATASTO
100
AcDbLine
 62
7
  6
CONTINUOUS
 10
1.1052360356
 20
-23.0783121635
 30
0.0
 11
1.1052360356
 21
-23.2226497308
 31
0.0
  0
LINE
  5
368
100
AcDbEntity
  8
PORTATASTO
100
AcDbLine
 62
7
  6
CONTINUOUS
 10
1.111787934
 20
23.0783121635
 30
0.0
 11
1.111787934
 21
22.2844216746
 31
0.0
  0
LINE
  5
369
100
AcDbEntity
  8
PORTATASTO
100
AcDbLine
 62
7
  6
CONTINUOUS
 10
1.111787934
 20
-22.2844216746
 30
0.0
 11
1.111787934
 21
-23.0783121635
 31
0.0
  0
LINE
  5
36A
100
AcDbEntity
  8
PORTATASTO
100
AcDbLine
 62
7
  6
CONTINUOUS
 10
1.1170239696
 20
24.2329794573
 30
0.0
 11
1.1170239696
 21
23.9443375673
 31
0.0
  0
LINE
  5
36B
100
AcDbEntity
  8
PORTATASTO
100
AcDbLine
 62
7
  6
CONTINUOUS
 10
1.1170239696
 20
-23.9443375673
 30
0.0
 11
1.1170239696
 21
-24.2329794573
 31
0.0
  0
LINE
  5
36C
100
AcDbEntity
  8
PORTATASTO
100
AcDbLine
 62
250
  6
CONTINUOUS
 10
1.3617845071
 20
23.0783121635
 30
0.0
 11
1.3617845071
 21
22.2713883311
 31
0.0
  0
LINE
  5
36D
100
AcDbEntity
  8
PORTATASTO
100
AcDbLine
 62
250
  6
CONTINUOUS
 10
1.3617845071
 20
-22.2713883311
 30
0.0
 11
1.3617845071
 21
-23.0783121635
 31
0.0
  0
LINE
  5
36E
100
AcDbEntity
  8
PORTATASTO
100
AcDbLine
 62
250
  6
CONTINUOUS
 10
1.3670205427
 20
-23.7278312164
 30
0.0
 11
1.3670205427
 21
-24.4829760304
 31
0.0
  0
LINE
  5
36F
100
AcDbEntity
  8
PORTATASTO
100
AcDbLine
 62
250
  6
CONTINUOUS
 10
1.3670205427
 20
23.7278312164
 30
0.0
 11
1.3670205427
 21
24.4829760304
 31
0.0
  0
LWPOLYLINE
  5
370
100
AcDbEntity
  8
0
100
AcDbPolyline
 62
7
  6
CONTINUOUS
 90
4
 70
0
 43
0.3500000006
 10
2.0357142191
 20
43.4747433014
 10
2.0357142191
 20
44.1176012878
 10
3.5357143936
 20
44.1176012878
 10
2.6785713558
 20
41.1176003723
  0
LINE
  5
371
100
AcDbEntity
  8
PORTATASTO
100
AcDbLine
 62
250
  6
CONTINUOUS
 10
3.7329794573
 20
-23.7278312164
 30
0.0
 11
3.7329794573
 21
-24.4829760304
 31
0.0
  0
LINE
  5
372
100
AcDbEntity
  8
PORTATASTO
100
AcDbLine
 62
250
  6
CONTINUOUS
 10
3.7329794573
 20
23.7278312164
 30
0.0
 11
3.7329794573
 21
24.4829760304
 31
0.0
  0
LINE
  5
373
100
AcDbEntity
  8
PORTATASTO
100
AcDbLine
 62
250
  6
CONTINUOUS
 10
3.7382154929
 20
-23.0783121635
 30
0.0
 11
3.7382154929
 21
-22.2713883311
 31
0.0
  0
LINE
  5
374
100
AcDbEntity
  8
PORTATASTO
100
AcDbLine
 62
250
  6
CONTINUOUS
 10
3.7382154929
 20
22.2713883311
 30
0.0
 11
3.7382154929
 21
23.0783121635
 31
0.0
  0
LINE
  5
375
100
AcDbEntity
  8
PORTATASTO
100
AcDbLine
 62
7
  6
CONTINUOUS
 10
3.9829760304
 20
-24.2329794573
 30
0.0
 11
3.9829760304
 21
-23.9443375673
 31
0.0
  0
LINE
  5
376
100
AcDbEntity
  8
PORTATASTO
100
AcDbLine
 62
7
  6
CONTINUOUS
 10
3.9829760304
 20
23.9443375673
 30
0.0
 11
3.9829760304
 21
24.2329794573
 31
0.0
  0
LINE
  5
377
100
AcDbEntity
  8
PORTATASTO
100
AcDbLine
 62
7
  6
CONTINUOUS
 10
3.988212066
 20
-23.0783121635
 30
0.0
 11
3.988212066
 21
-22.2844216746
 31
0.0
  0
LINE
  5
378
100
AcDbEntity
  8
PORTATASTO
100
AcDbLine
 62
7
  6
CONTINUOUS
 10
3.988212066
 20
22.2844216746
 30
0.0
 11
3.988212066
 21
23.0783121635
 31
0.0
  0
LINE
  5
379
100
AcDbEntity
  8
PORTATASTO
100
AcDbLine
 62
7
  6
CONTINUOUS
 10
3.9947639644
 20
23.2226497308
 30
0.0
 11
3.9947639644
 21
23.0783121635
 31
0.0
  0
LINE
  5
37A
100
AcDbEntity
  8
PORTATASTO
100
AcDbLine
 62
7
  6
CONTINUOUS
 10
3.9947639644
 20
-23.0783121635
 30
0.0
 11
3.9947639644
 21
-23.2226497308
 31
0.0
  0
LINE
  5
37B
100
AcDbEntity
  8
PORTATASTO
100
AcDbLine
 62
7
  6
CONTINUOUS
 10
4.0
 20
24.2500034269
 30
0.0
 11
4.0
 21
23.8
 31
0.0
  0
LINE
  5
37C
100
AcDbEntity
  8
PORTATASTO
100
AcDbLine
 62
7
  6
CONTINUOUS
 10
4.0
 20
-23.8
 30
0.0
 11
4.0
 21
-24.2500034269
 31
0.0
  0
LINE
  5
37D
100
AcDbEntity
  8
PORTATASTO
100
AcDbLine
 62
250
  6
CONTINUOUS
 10
1.1170239696
 20
23.9443375673
 30
0.0
 11
1.1130969429
 21
23.5113248654
 31
0.0
  0
LINE
  5
37E
100
AcDbEntity
  8
PORTATASTO
100
AcDbLine
 62
250
  6
CONTINUOUS
 10
1.3670205427
 20
23.7278312164
 30
0.0
 11
1.363093516
 21
23.2948185145
 31
0.0
  0
LINE
  5
37F
100
AcDbEntity
  8
PORTATASTO
100
AcDbLine
 62
7
  6
CONTINUOUS
 10
1.1
 20
-23.8
 30
0.0
 11
1.1052360356
 21
-23.2226497308
 31
0.0
  0
LINE
  5
380
100
AcDbEntity
  8
PORTATASTO
100
AcDbLine
 62
7
  6
CONTINUOUS
 10
3.9947639644
 20
23.2226497308
 30
0.0
 11
4.0
 21
23.8
 31
0.0
  0
LINE
  5
381
100
AcDbEntity
  8
PORTATASTO
100
AcDbLine
 62
250
  6
CONTINUOUS
 10
3.7329794573
 20
-23.7278312164
 30
0.0
 11
3.736906484
 21
-23.2948185145
 31
0.0
  0
LINE
  5
382
100
AcDbEntity
  8
PORTATASTO
100
AcDbLine
 62
250
  6
CONTINUOUS
 10
3.9829760304
 20
-23.9443375673
 30
0.0
 11
3.9869030571
 21
-23.5113248654
 31
0.0
  0
LINE
  5
383
100
AcDbEntity
  8
PORTATASTO
100
AcDbLine
 62
250
  6
CONTINUOUS
 10
-21.3829760304
 20
-24.2329794573
 30
0.0
 11
-21.4
 21
-24.2500034269
 31
0.0
  0
LINE
  5
384
100
AcDbEntity
  8
PORTATASTO
100
AcDbLine
 62
250
  6
CONTINUOUS
 10
-21.1329794573
 20
-24.4829760304
 30
0.0
 11
-21.1500034269
 21
-24.5
 31
0.0
  0
LINE
  5
385
100
AcDbEntity
  8
PORTATASTO
100
AcDbLine
 62
250
  6
CONTINUOUS
 10
-21.3829760304
 20
24.2329794573
 30
0.0
 11
-21.4
 21
24.2500034269
 31
0.0
  0
LINE
  5
386
100
AcDbEntity
  8
PORTATASTO
100
AcDbLine
 62
250
  6
CONTINUOUS
 10
-21.1329794573
 20
24.4829760304
 30
0.0
 11
-21.1500034269
 21
24.5
 31
0.0
  0
LINE
  5
387
100
AcDbEntity
  8
PORTATASTO
100
AcDbLine
 62
7
  6
CONTINUOUS
 10
6.8552360356
 20
23.2226497308
 30
0.0
 11
6.85
 21
23.8
 31
0.0
  0
LINE
  5
388
100
AcDbEntity
  8
PORTATASTO
100
AcDbLine
 62
7
  6
CONTINUOUS
 10
6.8447639644
 20
-22.35
 30
0.0
 11
6.8447639644
 21
-22.85711136
 31
0.0
  0
LINE
  5
389
100
AcDbEntity
  8
PORTATASTO
100
AcDbLine
 62
7
  6
CONTINUOUS
 10
6.8447639644
 20
22.35
 30
0.0
 11
6.8447639644
 21
22.85711136
 31
0.0
  0
LINE
  5
38A
100
AcDbEntity
  8
PORTATASTO
100
AcDbLine
 62
7
  6
CONTINUOUS
 10
6.85
 20
-24.0
 30
0.0
 11
6.85
 21
-23.8
 31
0.0
  0
LINE
  5
38B
100
AcDbEntity
  8
PORTATASTO
100
AcDbLine
 62
7
  6
CONTINUOUS
 10
6.85
 20
23.8
 30
0.0
 11
6.85
 21
24.0
 31
0.0
  0
LINE
  5
38C
100
AcDbEntity
  8
PORTATASTO
100
AcDbLine
 62
7
  6
CONTINUOUS
 10
6.862048365
 20
23.987951635
 30
0.0
 11
6.862048365
 21
22.2818150059
 31
0.0
  0
LINE
  5
38D
100
AcDbEntity
  8
PORTATASTO
100
AcDbLine
 62
7
  6
CONTINUOUS
 10
6.862048365
 20
-22.2818150059
 30
0.0
 11
6.862048365
 21
-23.987951635
 31
0.0
  0
LINE
  5
38E
100
AcDbEntity
  8
PORTATASTO
100
AcDbLine
 62
250
  6
CONTINUOUS
 10
7.0620456235
 20
23.7879543765
 30
0.0
 11
7.0620456235
 21
22.2713883311
 31
0.0
  0
LINE
  5
38F
100
AcDbEntity
  8
PORTATASTO
100
AcDbLine
 62
250
  6
CONTINUOUS
 10
7.0620456235
 20
-22.2713883311
 30
0.0
 11
7.0620456235
 21
-23.7879543765
 31
0.0
  0
LINE
  5
390
100
AcDbEntity
  8
PORTATASTO
100
AcDbLine
 62
250
  6
CONTINUOUS
 10
7.5430108901
 20
-22.2713883311
 30
0.0
 11
7.5430108901
 21
-23.987951635
 31
0.0
  0
LINE
  5
391
100
AcDbEntity
  8
PORTATASTO
100
AcDbLine
 62
250
  6
CONTINUOUS
 10
7.5430108901
 20
22.2713883311
 30
0.0
 11
7.5430108901
 21
23.987951635
 31
0.0
  0
LINE
  5
392
100
AcDbEntity
  8
PORTATASTO
100
AcDbLine
 62
7
  6
CONTINUOUS
 10
7.7430032747
 20
-23.7879543765
 30
0.0
 11
7.7430032747
 21
-22.2817784193
 31
0.0
  0
LINE
  5
393
100
AcDbEntity
  8
PORTATASTO
100
AcDbLine
 62
7
  6
CONTINUOUS
 10
7.7430032747
 20
22.2817784193
 30
0.0
 11
7.7430032747
 21
23.7879543765
 31
0.0
  0
LINE
  5
394
100
AcDbEntity
  8
PORTATASTO
100
AcDbLine
 62
7
  6
CONTINUOUS
 10
7.75
 20
23.7931904121
 30
0.0
 11
7.75
 21
22.3237961104
 31
0.0
  0
LINE
  5
395
100
AcDbEntity
  8
PORTATASTO
100
AcDbLine
 62
7
  6
CONTINUOUS
 10
7.75
 20
-23.7931904121
 30
0.0
 11
7.75
 21
-22.3237961104
 31
0.0
  0
LINE
  5
396
100
AcDbEntity
  8
PORTATASTO
100
AcDbLine
 62
7
  6
CONTINUOUS
 10
6.85
 20
-23.8
 30
0.0
 11
6.8552360356
 21
-23.2226497308
 31
0.0
  0
LINE
  5
397
100
AcDbEntity
  8
PORTATASTO
100
AcDbLine
 62
7
  6
CONTINUOUS
 10
10.25
 20
22.4024077793
 30
0.0
 11
10.2386398408
 21
22.3341861985
 31
0.0
  0
LINE
  5
398
100
AcDbEntity
  8
PORTATASTO
100
AcDbLine
 62
7
  6
CONTINUOUS
 10
-15.637951635
 20
-23.987951635
 30
0.0
 11
-15.65
 21
-24.0
 31
0.0
  0
LINE
  5
399
100
AcDbEntity
  8
PORTATASTO
100
AcDbLine
 62
7
  6
CONTINUOUS
 10
-15.637951635
 20
23.987951635
 30
0.0
 11
-15.65
 21
24.0
 31
0.0
  0
LINE
  5
39A
100
AcDbEntity
  8
PORTATASTO
100
AcDbLine
 62
7
  6
CONTINUOUS
 10
10.2386398408
 20
-22.3341861985
 30
0.0
 11
10.25
 21
-22.4024077793
 31
0.0
  0
LINE
  5
39B
100
AcDbEntity
  8
PORTATASTO
100
AcDbLine
 62
250
  6
CONTINUOUS
 10
10.0386474562
 20
-23.9931876706
 30
0.0
 11
10.0386474562
 21
-22.3237961104
 31
0.0
  0
LINE
  5
39C
100
AcDbEntity
  8
PORTATASTO
100
AcDbLine
 62
250
  6
CONTINUOUS
 10
10.0386474562
 20
22.3237961104
 30
0.0
 11
10.0386474562
 21
23.9931876706
 31
0.0
  0
LINE
  5
39D
100
AcDbEntity
  8
PORTATASTO
100
AcDbLine
 62
7
  6
CONTINUOUS
 10
10.2386398408
 20
-23.7931904121
 30
0.0
 11
10.2386398408
 21
-22.3341861985
 31
0.0
  0
LINE
  5
39E
100
AcDbEntity
  8
PORTATASTO
100
AcDbLine
 62
7
  6
CONTINUOUS
 10
10.2386398408
 20
22.3341861985
 30
0.0
 11
10.2386398408
 21
23.7931904121
 31
0.0
  0
LINE
  5
39F
100
AcDbEntity
  8
PORTATASTO
100
AcDbLine
 62
7
  6
CONTINUOUS
 10
10.25
 20
23.8000063969
 30
0.0
 11
10.25
 21
22.4024077793
 31
0.0
  0
LINE
  5
3A0
100
AcDbEntity
  8
PORTATASTO
100
AcDbLine
 62
7
  6
CONTINUOUS
 10
10.25
 20
-22.4024077793
 30
0.0
 11
10.25
 21
-23.8000063969
 31
0.0
  0
LINE
  5
3A1
100
AcDbEntity
  8
PORTATASTO
100
AcDbLine
 62
7
  6
CONTINUOUS
 10
12.25
 20
23.8000063969
 30
0.0
 11
12.25
 21
22.4024077793
 31
0.0
  0
LINE
  5
3A2
100
AcDbEntity
  8
PORTATASTO
100
AcDbLine
 62
7
  6
CONTINUOUS
 10
12.25
 20
-22.4024077793
 30
0.0
 11
12.25
 21
-23.8000063969
 31
0.0
  0
LINE
  5
3A3
100
AcDbEntity
  8
PORTATASTO
100
AcDbLine
 62
7
  6
CONTINUOUS
 10
12.2613601592
 20
23.7931904121
 30
0.0
 11
12.2613601592
 21
22.3341861985
 31
0.0
  0
LINE
  5
3A4
100
AcDbEntity
  8
PORTATASTO
100
AcDbLine
 62
7
  6
CONTINUOUS
 10
12.2613601592
 20
-22.3341861985
 30
0.0
 11
12.2613601592
 21
-23.7931904121
 31
0.0
  0
LINE
  5
3A5
100
AcDbEntity
  8
RACCORDO
100
AcDbLine
 62
250
  6
CONTINUOUS
 10
21.6505138364
 20
22.2
 30
0.0
 11
21.5459352718
 21
21.990699353
 31
0.0
  0
LINE
  5
3A6
100
AcDbEntity
  8
RACCORDO
100
AcDbLine
 62
250
  6
CONTINUOUS
 10
22.15
 20
21.6999997649
 30
0.0
 11
22.0457639343
 21
21.4913845856
 31
0.0
  0
LINE
  5
3A7
100
AcDbEntity
  8
RACCORDO
100
AcDbLine
 62
250
  6
CONTINUOUS
 10
-21.5081671527
 20
9.4999646989
 30
0.0
 11
21.5081671527
 21
9.4999646989
 31
0.0
  0
LINE
  5
3A8
100
AcDbEntity
  8
RACCORDO
100
AcDbLine
 62
250
  6
CONTINUOUS
 10
21.5459352718
 20
-21.990699353
 30
0.0
 11
21.6113604562
 21
-22.1216395076
 31
0.0
  0
LINE
  5
3A9
100
AcDbEntity
  8
RACCORDO
100
AcDbLine
 62
250
  6
CONTINUOUS
 10
22.0457639343
 20
-21.4913845856
 30
0.0
 11
22.1116448613
 21
-21.6232368509
 31
0.0
  0
LINE
  5
3AA
100
AcDbEntity
  8
PORTATASTO
100
AcDbLine
 62
7
  6
CONTINUOUS
 10
15.65
 20
-23.8
 30
0.0
 11
15.6447639644
 21
-23.2226497308
 31
0.0
  0
LINE
  5
3AB
100
AcDbEntity
  8
PORTATASTO
100
AcDbLine
 62
250
  6
CONTINUOUS
 10
12.4613525438
 20
23.9931876706
 30
0.0
 11
12.4613525438
 21
22.3237961104
 31
0.0
  0
LINE
  5
3AC
100
AcDbEntity
  8
PORTATASTO
100
AcDbLine
 62
250
  6
CONTINUOUS
 10
12.4613525438
 20
-22.3237961104
 30
0.0
 11
12.4613525438
 21
-23.9931876706
 31
0.0
  0
LINE
  5
3AD
100
AcDbEntity
  8
PORTATASTO
100
AcDbLine
 62
7
  6
CONTINUOUS
 10
14.75
 20
23.7931904121
 30
0.0
 11
14.75
 21
22.3237961104
 31
0.0
  0
LINE
  5
3AE
100
AcDbEntity
  8
PORTATASTO
100
AcDbLine
 62
7
  6
CONTINUOUS
 10
14.75
 20
-23.7931904121
 30
0.0
 11
14.75
 21
-22.3237961104
 31
0.0
  0
LINE
  5
3AF
100
AcDbEntity
  8
PORTATASTO
100
AcDbLine
 62
7
  6
CONTINUOUS
 10
14.7569967253
 20
23.7879543765
 30
0.0
 11
14.7569967253
 21
22.2817784193
 31
0.0
  0
LINE
  5
3B0
100
AcDbEntity
  8
PORTATASTO
100
AcDbLine
 62
7
  6
CONTINUOUS
 10
14.7569967253
 20
-22.2817784193
 30
0.0
 11
14.7569967253
 21
-23.7879543765
 31
0.0
  0
LINE
  5
3B1
100
AcDbEntity
  8
PORTATASTO
100
AcDbLine
 62
250
  6
CONTINUOUS
 10
14.9569891099
 20
-22.2713883311
 30
0.0
 11
14.9569891099
 21
-23.987951635
 31
0.0
  0
LINE
  5
3B2
100
AcDbEntity
  8
PORTATASTO
100
AcDbLine
 62
250
  6
CONTINUOUS
 10
14.9569891099
 20
22.2713883311
 30
0.0
 11
14.9569891099
 21
23.987951635
 31
0.0
  0
LINE
  5
3B3
100
AcDbEntity
  8
PORTATASTO
100
AcDbLine
 62
250
  6
CONTINUOUS
 10
15.4379543765
 20
-23.7879543765
 30
0.0
 11
15.4379543765
 21
-22.2713883311
 31
0.0
  0
LINE
  5
3B4
100
AcDbEntity
  8
PORTATASTO
100
AcDbLine
 62
250
  6
CONTINUOUS
 10
15.4379543765
 20
22.2713883311
 30
0.0
 11
15.4379543765
 21
23.7879543765
 31
0.0
  0
LINE
  5
3B5
100
AcDbEntity
  8
PORTATASTO
100
AcDbLine
 62
7
  6
CONTINUOUS
 10
15.637951635
 20
-23.987951635
 30
0.0
 11
15.637951635
 21
-22.2818150059
 31
0.0
  0
LINE
  5
3B6
100
AcDbEntity
  8
PORTATASTO
100
AcDbLine
 62
7
  6
CONTINUOUS
 10
15.637951635
 20
22.2818150059
 30
0.0
 11
15.637951635
 21
23.987951635
 31
0.0
  0
LINE
  5
3B7
100
AcDbEntity
  8
PORTATASTO
100
AcDbLine
 62
7
  6
CONTINUOUS
 10
15.65
 20
24.0
 30
0.0
 11
15.65
 21
23.8
 31
0.0
  0
LINE
  5
3B8
100
AcDbEntity
  8
PORTATASTO
100
AcDbLine
 62
7
  6
CONTINUOUS
 10
15.65
 20
-23.8
 30
0.0
 11
15.65
 21
-24.0
 31
0.0
  0
LINE
  5
3B9
100
AcDbEntity
  8
PORTATASTO
100
AcDbLine
 62
7
  6
CONTINUOUS
 10
15.6552360356
 20
-22.35
 30
0.0
 11
15.6552360356
 21
-22.85711136
 31
0.0
  0
LINE
  5
3BA
100
AcDbEntity
  8
PORTATASTO
100
AcDbLine
 62
7
  6
CONTINUOUS
 10
15.6552360356
 20
22.35
 30
0.0
 11
15.6552360356
 21
22.85711136
 31
0.0
  0
LINE
  5
3BB
100
AcDbEntity
  8
PORTATASTO
100
AcDbLine
 62
7
  6
CONTINUOUS
 10
15.6447639644
 20
23.2226497308
 30
0.0
 11
15.65
 21
23.8
 31
0.0
  0
LINE
  5
3BC
100
AcDbEntity
  8
PORTATASTO
100
AcDbLine
 62
7
  6
CONTINUOUS
 10
12.2613601592
 20
-22.3341861985
 30
0.0
 11
12.25
 21
-22.4024077793
 31
0.0
  0
LINE
  5
3BD
100
AcDbEntity
  8
PORTATASTO
100
AcDbLine
 62
250
  6
CONTINUOUS
 10
21.8503805997
 20
22.35
 30
0.0
 11
21.8241980023
 21
22.2713883311
 31
0.0
  0
LINE
  5
3BE
100
AcDbEntity
  8
PORTATASTO
100
AcDbLine
 62
250
  6
CONTINUOUS
 10
22.35
 20
21.8497711479
 30
0.0
 11
22.3238174026
 21
21.771159479
 31
0.0
  0
LINE
  5
3BF
100
AcDbEntity
  8
PORTATASTO
100
AcDbLine
 62
250
  6
CONTINUOUS
 10
-3.9829760304
 20
-24.2329794573
 30
0.0
 11
-4.0
 21
-24.2500034269
 31
0.0
  0
LINE
  5
3C0
100
AcDbEntity
  8
PORTATASTO
100
AcDbLine
 62
250
  6
CONTINUOUS
 10
-3.7329794573
 20
-24.4829760304
 30
0.0
 11
-3.7500034269
 21
-24.5
 31
0.0
  0
LINE
  5
3C1
100
AcDbEntity
  8
PORTATASTO
100
AcDbLine
 62
250
  6
CONTINUOUS
 10
-10.25
 20
-23.8000063969
 30
0.0
 11
-10.2386398408
 21
-23.7931904121
 31
0.0
  0
LINE
  5
3C2
100
AcDbEntity
  8
PORTATASTO
100
AcDbLine
 62
250
  6
CONTINUOUS
 10
-10.050001523
 20
-24.0
 30
0.0
 11
-10.0386474562
 21
-23.9931876706
 31
0.0
  0
LINE
  5
3C3
100
AcDbEntity
  8
PORTATASTO
100
AcDbLine
 62
250
  6
CONTINUOUS
 10
-10.25
 20
23.8000063969
 30
0.0
 11
-10.2386398408
 21
23.7931904121
 31
0.0
  0
LINE
  5
3C4
100
AcDbEntity
  8
PORTATASTO
100
AcDbLine
 62
250
  6
CONTINUOUS
 10
-10.050001523
 20
24.0
 30
0.0
 11
-10.0386474562
 21
23.9931876706
 31
0.0
  0
LINE
  5
3C5
100
AcDbEntity
  8
PORTATASTO
100
AcDbLine
 62
250
  6
CONTINUOUS
 10
-3.9829760304
 20
24.2329794573
 30
0.0
 11
-4.0
 21
24.2500034269
 31
0.0
  0
LINE
  5
3C6
100
AcDbEntity
  8
PORTATASTO
100
AcDbLine
 62
250
  6
CONTINUOUS
 10
-3.7329794573
 20
24.4829760304
 30
0.0
 11
-3.7500034269
 21
24.5
 31
0.0
  0
LINE
  5
3C7
100
AcDbEntity
  8
PORTATASTO
100
AcDbLine
 62
250
  6
CONTINUOUS
 10
21.8241980023
 20
-22.2713883311
 30
0.0
 11
21.8503805997
 21
-22.35
 31
0.0
  0
LINE
  5
3C8
100
AcDbEntity
  8
PORTATASTO
100
AcDbLine
 62
250
  6
CONTINUOUS
 10
22.3238174026
 20
-21.771159479
 30
0.0
 11
22.35
 21
-21.8497711479
 31
0.0
  0
LINE
  5
3C9
100
AcDbEntity
  8
PORTATASTO
100
AcDbLine
 62
7
  6
CONTINUOUS
 10
12.25
 20
22.4024077793
 30
0.0
 11
12.2613601592
 21
22.3341861985
 31
0.0
  0
LINE
  5
3CA
100
AcDbEntity
  8
PORTATASTO
100
AcDbLine
 62
250
  6
CONTINUOUS
 10
18.5130969429
 20
-23.5113248654
 30
0.0
 11
18.5170239696
 21
-23.9443375673
 31
0.0
  0
LINE
  5
3CB
100
AcDbEntity
  8
PORTATASTO
100
AcDbLine
 62
250
  6
CONTINUOUS
 10
18.763093516
 20
-23.2948185145
 30
0.0
 11
18.7670205427
 21
-23.7278312164
 31
0.0
  0
LINE
  5
3CC
100
AcDbEntity
  8
PORTATASTO
100
AcDbLine
 62
7
  6
CONTINUOUS
 10
18.5
 20
23.8
 30
0.0
 11
18.5052360356
 21
23.2226497308
 31
0.0
  0
LINE
  5
3CD
100
AcDbEntity
  8
PORTATASTO
100
AcDbLine
 62
7
  6
CONTINUOUS
 10
18.5
 20
-24.2500034269
 30
0.0
 11
18.5
 21
-23.8
 31
0.0
  0
LINE
  5
3CE
100
AcDbEntity
  8
PORTATASTO
100
AcDbLine
 62
7
  6
CONTINUOUS
 10
18.5
 20
23.8
 30
0.0
 11
18.5
 21
24.2500034269
 31
0.0
  0
LINE
  5
3CF
100
AcDbEntity
  8
PORTATASTO
100
AcDbLine
 62
7
  6
CONTINUOUS
 10
18.5052360356
 20
23.2226497308
 30
0.0
 11
18.5052360356
 21
23.0783121635
 31
0.0
  0
LINE
  5
3D0
100
AcDbEntity
  8
PORTATASTO
100
AcDbLine
 62
7
  6
CONTINUOUS
 10
18.5052360356
 20
-23.0783121635
 30
0.0
 11
18.5052360356
 21
-23.2226497308
 31
0.0
  0
LINE
  5
3D1
100
AcDbEntity
  8
PORTATASTO
100
AcDbLine
 62
7
  6
CONTINUOUS
 10
18.511787934
 20
23.0783121635
 30
0.0
 11
18.511787934
 21
22.2844216746
 31
0.0
  0
LINE
  5
3D2
100
AcDbEntity
  8
PORTATASTO
100
AcDbLine
 62
7
  6
CONTINUOUS
 10
18.511787934
 20
-22.2844216746
 30
0.0
 11
18.511787934
 21
-23.0783121635
 31
0.0
  0
LINE
  5
3D3
100
AcDbEntity
  8
PORTATASTO
100
AcDbLine
 62
7
  6
CONTINUOUS
 10
18.5170239696
 20
24.2329794573
 30
0.0
 11
18.5170239696
 21
23.9443375673
 31
0.0
  0
LINE
  5
3D4
100
AcDbEntity
  8
PORTATASTO
100
AcDbLine
 62
7
  6
CONTINUOUS
 10
18.5170239696
 20
-23.9443375673
 30
0.0
 11
18.5170239696
 21
-24.2329794573
 31
0.0
  0
LINE
  5
3D5
100
AcDbEntity
  8
PORTATASTO
100
AcDbLine
 62
250
  6
CONTINUOUS
 10
18.7617845071
 20
23.0783121635
 30
0.0
 11
18.7617845071
 21
22.2713883311
 31
0.0
  0
LINE
  5
3D6
100
AcDbEntity
  8
PORTATASTO
100
AcDbLine
 62
250
  6
CONTINUOUS
 10
18.7617845071
 20
-22.2713883311
 30
0.0
 11
18.7617845071
 21
-23.0783121635
 31
0.0
  0
LINE
  5
3D7
100
AcDbEntity
  8
PORTATASTO
100
AcDbLine
 62
250
  6
CONTINUOUS
 10
18.7670205427
 20
-23.7278312164
 30
0.0
 11
18.7670205427
 21
-24.4829760304
 31
0.0
  0
LINE
  5
3D8
100
AcDbEntity
  8
PORTATASTO
100
AcDbLine
 62
250
  6
CONTINUOUS
 10
18.7670205427
 20
23.7278312164
 30
0.0
 11
18.7670205427
 21
24.4829760304
 31
0.0
  0
LINE
  5
3D9
100
AcDbEntity
  8
PORTATASTO
100
AcDbLine
 62
250
  6
CONTINUOUS
 10
18.5170239696
 20
23.9443375673
 30
0.0
 11
18.5130969429
 21
23.5113248654
 31
0.0
  0
LINE
  5
3DA
100
AcDbEntity
  8
PORTATASTO
100
AcDbLine
 62
250
  6
CONTINUOUS
 10
18.7670205427
 20
23.7278312164
 30
0.0
 11
18.763093516
 21
23.2948185145
 31
0.0
  0
LINE
  5
3DB
100
AcDbEntity
  8
PORTATASTO
100
AcDbLine
 62
7
  6
CONTINUOUS
 10
18.5052360356
 20
-23.2226497308
 30
0.0
 11
18.5
 21
-23.8
 31
0.0
  0
LINE
  5
3DC
100
AcDbEntity
  8
PORTATASTO
100
AcDbLine
 62
250
  6
CONTINUOUS
 10
1.1170239696
 20
-24.2329794573
 30
0.0
 11
1.1
 21
-24.2500034269
 31
0.0
  0
LINE
  5
3DD
100
AcDbEntity
  8
PORTATASTO
100
AcDbLine
 62
250
  6
CONTINUOUS
 10
1.3670205427
 20
-24.4829760304
 30
0.0
 11
1.3499965731
 21
-24.5
 31
0.0
  0
LINE
  5
3DE
100
AcDbEntity
  8
PORTATASTO
100
AcDbLine
 62
250
  6
CONTINUOUS
 10
1.1170239696
 20
24.2329794573
 30
0.0
 11
1.1
 21
24.2500034269
 31
0.0
  0
LINE
  5
3DF
100
AcDbEntity
  8
PORTATASTO
100
AcDbLine
 62
250
  6
CONTINUOUS
 10
1.3670205427
 20
24.4829760304
 30
0.0
 11
1.3499965731
 21
24.5
 31
0.0
  0
LWPOLYLINE
  5
3E0
100
AcDbEntity
  8
0
100
AcDbPolyline
 62
7
  6
CONTINUOUS
 90
10
 70
0
 43
0.3500000006
 10
0.9642857051
 20
41.6176005249
 10
1.035714268
 20
41.4747472229
 10
1.035714268
 20
41.40331604
 10
0.8928571422
 20
41.2604582062
 10
0.8214285793
 20
41.2604582062
 10
0.7500000165
 20
41.331889389
 10
0.7500000165
 20
41.40331604
 10
0.8214285793
 20
41.5461738739
 10
0.8928571422
 20
41.6176005249
 10
0.9642857051
 20
41.6176005249
  0
LINE
  5
3E1
100
AcDbEntity
  8
PORTATASTO
100
AcDbLine
 62
7
  6
CONTINUOUS
 10
22.35
 20
18.5
 30
0.0
 11
22.3849101299
 21
18.1473460386
 31
0.0
  0
LINE
  5
3E2
100
AcDbEntity
  8
PORTATASTO
100
AcDbLine
 62
7
  6
CONTINUOUS
 10
21.3947639644
 20
-23.2226497308
 30
0.0
 11
21.4
 21
-23.8
 31
0.0
  0
LINE
  5
3E3
100
AcDbEntity
  8
PORTATASTO
100
AcDbLine
 62
250
  6
CONTINUOUS
 10
21.136906484
 20
23.2948185145
 30
0.0
 11
21.1329794573
 21
23.7278312164
 31
0.0
  0
LINE
  5
3E4
100
AcDbEntity
  8
PORTATASTO
100
AcDbLine
 62
250
  6
CONTINUOUS
 10
21.3869030571
 20
23.5113248654
 30
0.0
 11
21.3829760304
 21
23.9443375673
 31
0.0
  0
LINE
  5
3E5
100
AcDbEntity
  8
PORTATASTO
100
AcDbLine
 62
250
  6
CONTINUOUS
 10
21.1329794573
 20
-23.7278312164
 30
0.0
 11
21.1329794573
 21
-24.4829760304
 31
0.0
  0
LINE
  5
3E6
100
AcDbEntity
  8
PORTATASTO
100
AcDbLine
 62
250
  6
CONTINUOUS
 10
21.1329794573
 20
23.7278312164
 30
0.0
 11
21.1329794573
 21
24.4829760304
 31
0.0
  0
LINE
  5
3E7
100
AcDbEntity
  8
PORTATASTO
100
AcDbLine
 62
250
  6
CONTINUOUS
 10
21.1382154929
 20
-23.0783121635
 30
0.0
 11
21.1382154929
 21
-22.2713883311
 31
0.0
  0
LINE
  5
3E8
100
AcDbEntity
  8
PORTATASTO
100
AcDbLine
 62
250
  6
CONTINUOUS
 10
21.1382154929
 20
22.2713883311
 30
0.0
 11
21.1382154929
 21
23.0783121635
 31
0.0
  0
LINE
  5
3E9
100
AcDbEntity
  8
PORTATASTO
100
AcDbLine
 62
7
  6
CONTINUOUS
 10
21.3829760304
 20
-24.2329794573
 30
0.0
 11
21.3829760304
 21
-23.9443375673
 31
0.0
  0
LINE
  5
3EA
100
AcDbEntity
  8
PORTATASTO
100
AcDbLine
 62
7
  6
CONTINUOUS
 10
21.3829760304
 20
23.9443375673
 30
0.0
 11
21.3829760304
 21
24.2329794573
 31
0.0
  0
LINE
  5
3EB
100
AcDbEntity
  8
PORTATASTO
100
AcDbLine
 62
7
  6
CONTINUOUS
 10
21.388212066
 20
-23.0783121635
 30
0.0
 11
21.388212066
 21
-22.2844216746
 31
0.0
  0
LINE
  5
3EC
100
AcDbEntity
  8
PORTATASTO
100
AcDbLine
 62
7
  6
CONTINUOUS
 10
21.388212066
 20
22.2844216746
 30
0.0
 11
21.388212066
 21
23.0783121635
 31
0.0
  0
LINE
  5
3ED
100
AcDbEntity
  8
PORTATASTO
100
AcDbLine
 62
7
  6
CONTINUOUS
 10
21.3947639644
 20
23.2226497308
 30
0.0
 11
21.3947639644
 21
23.0783121635
 31
0.0
  0
LINE
  5
3EE
100
AcDbEntity
  8
PORTATASTO
100
AcDbLine
 62
7
  6
CONTINUOUS
 10
21.3947639644
 20
-23.0783121635
 30
0.0
 11
21.3947639644
 21
-23.2226497308
 31
0.0
  0
LINE
  5
3EF
100
AcDbEntity
  8
PORTATASTO
100
AcDbLine
 62
7
  6
CONTINUOUS
 10
21.4
 20
24.2500034269
 30
0.0
 11
21.4
 21
23.8
 31
0.0
  0
LINE
  5
3F0
100
AcDbEntity
  8
PORTATASTO
100
AcDbLine
 62
7
  6
CONTINUOUS
 10
21.4
 20
-23.8
 30
0.0
 11
21.4
 21
-24.2500034269
 31
0.0
  0
LINE
  5
3F1
100
AcDbEntity
  8
RACCORDO
100
AcDbLine
 62
250
  6
CONTINUOUS
 10
21.5081671527
 20
9.4999646989
 30
0.0
 11
21.5081671549
 21
-9.4999715499
 31
0.0
  0
LINE
  5
3F2
100
AcDbEntity
  8
RACCORDO
100
AcDbLine
 62
7
  6
CONTINUOUS
 10
22.15
 20
2.3247832141
 30
0.0
 11
22.15
 21
21.6999997649
 31
0.0
  0
LINE
  5
3F3
100
AcDbEntity
  8
PORTATASTO
100
AcDbLine
 62
7
  6
CONTINUOUS
 10
22.3238174026
 20
21.771159479
 30
0.0
 11
22.3238174026
 21
-21.771159479
 31
0.0
  0
LINE
  5
3F4
100
AcDbEntity
  8
PORTATASTO
100
AcDbLine
 62
7
  6
CONTINUOUS
 10
22.35
 20
21.850016923
 30
0.0
 11
22.35
 21
18.5
 31
0.0
  0
LINE
  5
3F5
100
AcDbEntity
  8
PORTATASTO
100
AcDbLine
 62
7
  6
CONTINUOUS
 10
22.35
 20
-21.850016923
 30
0.0
 11
22.35
 21
-18.5
 31
0.0
  0
LINE
  5
3F6
100
AcDbEntity
  8
PORTATASTO
100
AcDbLine
 62
7
  6
CONTINUOUS
 10
22.3849101299
 20
18.1473460386
 30
0.0
 11
22.3849101299
 21
-18.1473460386
 31
0.0
  0
LINE
  5
3F7
100
AcDbEntity
  8
CORPO
100
AcDbLine
 62
7
  6
CONTINUOUS
 10
22.4
 20
17.6716990487
 30
0.0
 11
22.4
 21
-17.6716990487
 31
0.0
  0
LINE
  5
3F8
100
AcDbEntity
  8
ASSI
100
AcDbLine
 62
7
  6
CONTINUOUS
 10
22.4
 20
17.6716990487
 30
0.0
 11
22.4
 21
-17.6716990487
 31
0.0
  0
LINE
  5
3F9
100
AcDbEntity
  8
RACCORDO
100
AcDbLine
 62
7
  6
CONTINUOUS
 10
22.15
 20
2.3247832141
 30
0.0
 11
22.1116448613
 21
-21.6232368509
 31
0.0
  0
LINE
  5
3FA
100
AcDbEntity
  8
PORTATASTO
100
AcDbLine
 62
7
  6
CONTINUOUS
 10
21.4
 20
23.8
 30
0.0
 11
21.3947639644
 21
23.2226497308
 31
0.0
  0
LINE
  5
3FB
100
AcDbEntity
  8
PORTATASTO
100
AcDbLine
 62
250
  6
CONTINUOUS
 10
21.1329794573
 20
-23.7278312164
 30
0.0
 11
21.136906484
 21
-23.2948185145
 31
0.0
  0
LINE
  5
3FC
100
AcDbEntity
  8
PORTATASTO
100
AcDbLine
 62
250
  6
CONTINUOUS
 10
21.3829760304
 20
-23.9443375673
 30
0.0
 11
21.3869030571
 21
-23.5113248654
 31
0.0
  0
LINE
  5
3FD
100
AcDbEntity
  8
PORTATASTO
100
AcDbLine
 62
7
  6
CONTINUOUS
 10
22.3849101299
 20
-18.1473460386
 30
0.0
 11
22.35
 21
-18.5
 31
0.0
  0
LINE
  5
3FE
100
AcDbEntity
  8
PORTATASTO
100
AcDbLine
 62
7
  6
CONTINUOUS
 10
6.862048365
 20
-23.987951635
 30
0.0
 11
6.85
 21
-24.0
 31
0.0
  0
LINE
  5
3FF
100
AcDbEntity
  8
RACCORDO
100
AcDbLine
 62
250
  6
CONTINUOUS
 10
21.5336723936
 20
21.1404074278
 30
0.0
 11
-21.5336723936
 21
21.1404074278
 31
0.0
  0
LINE
  5
400
100
AcDbEntity
  8
RACCORDO
100
AcDbLine
 62
250
  6
CONTINUOUS
 10
21.5459352718
 20
21.990699353
 30
0.0
 11
-21.5459352718
 21
21.990699353
 31
0.0
  0
LINE
  5
401
100
AcDbEntity
  8
RACCORDO
100
AcDbLine
 62
7
  6
CONTINUOUS
 10
-21.6505138364
 20
22.2
 30
0.0
 11
21.6505138364
 21
22.2
 31
0.0
  0
LINE
  5
402
100
AcDbEntity
  8
PORTATASTO
100
AcDbLine
 62
7
  6
CONTINUOUS
 10
21.8241980023
 20
22.2713883311
 30
0.0
 11
21.1382154929
 21
22.2713883311
 31
0.0
  0
LINE
  5
403
100
AcDbEntity
  8
PORTATASTO
100
AcDbLine
 62
7
  6
CONTINUOUS
 10
18.7617845071
 20
22.2713883311
 30
0.0
 11
15.4379543765
 21
22.2713883311
 31
0.0
  0
LINE
  5
404
100
AcDbEntity
  8
PORTATASTO
100
AcDbLine
 62
7
  6
CONTINUOUS
 10
14.9569891099
 20
22.2713883311
 30
0.0
 11
7.5430108901
 21
22.2713883311
 31
0.0
  0
LINE
  5
405
100
AcDbEntity
  8
PORTATASTO
100
AcDbLine
 62
7
  6
CONTINUOUS
 10
7.0620456235
 20
22.2713883311
 30
0.0
 11
3.7382154929
 21
22.2713883311
 31
0.0
  0
LINE
  5
406
100
AcDbEntity
  8
PORTATASTO
100
AcDbLine
 62
7
  6
CONTINUOUS
 10
1.3617845071
 20
22.2713883311
 30
0.0
 11
-1.3617845071
 21
22.2713883311
 31
0.0
  0
LINE
  5
407
100
AcDbEntity
  8
PORTATASTO
100
AcDbLine
 62
7
  6
CONTINUOUS
 10
-3.7382154929
 20
22.2713883311
 30
0.0
 11
-7.0620456235
 21
22.2713883311
 31
0.0
  0
LINE
  5
408
100
AcDbEntity
  8
PORTATASTO
100
AcDbLine
 62
7
  6
CONTINUOUS
 10
-7.5430108901
 20
22.2713883311
 30
0.0
 11
-14.9569891099
 21
22.2713883311
 31
0.0
  0
LINE
  5
409
100
AcDbEntity
  8
PORTATASTO
100
AcDbLine
 62
7
  6
CONTINUOUS
 10
-15.4379543765
 20
22.2713883311
 30
0.0
 11
-18.7617845071
 21
22.2713883311
 31
0.0
  0
LINE
  5
40A
100
AcDbEntity
  8
PORTATASTO
100
AcDbLine
 62
7
  6
CONTINUOUS
 10
-21.1382154929
 20
22.2713883311
 30
0.0
 11
-21.8241980023
 21
22.2713883311
 31
0.0
  0
LINE
  5
40B
100
AcDbEntity
  8
PORTATASTO
100
AcDbLine
 62
7
  6
CONTINUOUS
 10
14.75
 20
22.3237961104
 30
0.0
 11
12.4613525438
 21
22.3237961104
 31
0.0
  0
LINE
  5
40C
100
AcDbEntity
  8
PORTATASTO
100
AcDbLine
 62
7
  6
CONTINUOUS
 10
10.0386474562
 20
22.3237961104
 30
0.0
 11
7.75
 21
22.3237961104
 31
0.0
  0
LINE
  5
40D
100
AcDbEntity
  8
PORTATASTO
100
AcDbLine
 62
7
  6
CONTINUOUS
 10
-7.75
 20
22.3237961104
 30
0.0
 11
-10.0386474562
 21
22.3237961104
 31
0.0
  0
LINE
  5
40E
100
AcDbEntity
  8
PORTATASTO
100
AcDbLine
 62
7
  6
CONTINUOUS
 10
-12.4613525438
 20
22.3237961104
 30
0.0
 11
-14.75
 21
22.3237961104
 31
0.0
  0
LINE
  5
40F
100
AcDbEntity
  8
PORTATASTO
100
AcDbLine
 62
7
  6
CONTINUOUS
 10
-21.8503805997
 20
22.35
 30
0.0
 11
-21.3947639644
 21
22.35
 31
0.0
  0
LINE
  5
410
100
AcDbEntity
  8
PORTATASTO
100
AcDbLine
 62
7
  6
CONTINUOUS
 10
-18.5052360356
 20
22.35
 30
0.0
 11
-15.6447639644
 21
22.35
 31
0.0
  0
LINE
  5
411
100
AcDbEntity
  8
PORTATASTO
100
AcDbLine
 62
7
  6
CONTINUOUS
 10
-6.8552360356
 20
22.35
 30
0.0
 11
-3.9947639644
 21
22.35
 31
0.0
  0
LINE
  5
412
100
AcDbEntity
  8
PORTATASTO
100
AcDbLine
 62
7
  6
CONTINUOUS
 10
-1.1052360356
 20
22.35
 30
0.0
 11
1.1052360356
 21
22.35
 31
0.0
  0
LINE
  5
413
100
AcDbEntity
  8
PORTATASTO
100
AcDbLine
 62
7
  6
CONTINUOUS
 10
3.9947639644
 20
22.35
 30
0.0
 11
6.8552360356
 21
22.35
 31
0.0
  0
LINE
  5
414
100
AcDbEntity
  8
PORTATASTO
100
AcDbLine
 62
7
  6
CONTINUOUS
 10
15.6447639644
 20
22.35
 30
0.0
 11
18.5052360356
 21
22.35
 31
0.0
  0
LINE
  5
415
100
AcDbEntity
  8
PORTATASTO
100
AcDbLine
 62
7
  6
CONTINUOUS
 10
21.3947639644
 20
22.35
 30
0.0
 11
21.8503805997
 21
22.35
 31
0.0
  0
LINE
  5
416
100
AcDbEntity
  8
CORPO
100
AcDbLine
 62
7
  6
CONTINUOUS
 10
-1.1052360356
 20
22.4
 30
0.0
 11
1.1052360356
 21
22.4
 31
0.0
  0
LINE
  5
417
100
AcDbEntity
  8
ASSI
100
AcDbLine
 62
7
  6
CONTINUOUS
 10
-1.1052360356
 20
22.4
 30
0.0
 11
1.1052360356
 21
22.4
 31
0.0
  0
LINE
  5
418
100
AcDbEntity
  8
PORTATASTO
100
AcDbLine
 62
7
  6
CONTINUOUS
 10
12.25
 20
22.4024077793
 30
0.0
 11
10.25
 21
22.4024077793
 31
0.0
  0
LINE
  5
419
100
AcDbEntity
  8
PORTATASTO
100
AcDbLine
 62
7
  6
CONTINUOUS
 10
-10.25
 20
22.4024077793
 30
0.0
 11
-12.25
 21
22.4024077793
 31
0.0
  0
LINE
  5
41A
100
AcDbEntity
  8
PORTATASTO
100
AcDbLine
 62
250
  6
CONTINUOUS
 10
-21.388212066
 20
23.0783121635
 30
0.0
 11
-18.511787934
 21
23.0783121635
 31
0.0
  0
LINE
  5
41B
100
AcDbEntity
  8
PORTATASTO
100
AcDbLine
 62
250
  6
CONTINUOUS
 10
-3.988212066
 20
23.0783121635
 30
0.0
 11
-1.111787934
 21
23.0783121635
 31
0.0
  0
LINE
  5
41C
100
AcDbEntity
  8
PORTATASTO
100
AcDbLine
 62
250
  6
CONTINUOUS
 10
1.111787934
 20
23.0783121635
 30
0.0
 11
3.988212066
 21
23.0783121635
 31
0.0
  0
LINE
  5
41D
100
AcDbEntity
  8
PORTATASTO
100
AcDbLine
 62
250
  6
CONTINUOUS
 10
18.511787934
 20
23.0783121635
 30
0.0
 11
21.388212066
 21
23.0783121635
 31
0.0
  0
LINE
  5
41E
100
AcDbEntity
  8
PORTATASTO
100
AcDbLine
 62
7
  6
CONTINUOUS
 10
15.7446938615
 20
23.2226497308
 30
0.0
 11
15.6447639644
 21
23.2226497308
 31
0.0
  0
LINE
  5
41F
100
AcDbEntity
  8
PORTATASTO
100
AcDbLine
 62
7
  6
CONTINUOUS
 10
6.8552360356
 20
23.2226497308
 30
0.0
 11
6.7553061385
 21
23.2226497308
 31
0.0
  0
LINE
  5
420
100
AcDbEntity
  8
PORTATASTO
100
AcDbLine
 62
7
  6
CONTINUOUS
 10
-6.7553061385
 20
23.2226497308
 30
0.0
 11
-6.8552360356
 21
23.2226497308
 31
0.0
  0
LINE
  5
421
100
AcDbEntity
  8
PORTATASTO
100
AcDbLine
 62
7
  6
CONTINUOUS
 10
-15.6447639644
 20
23.2226497308
 30
0.0
 11
-15.7446938615
 21
23.2226497308
 31
0.0
  0
LINE
  5
422
100
AcDbEntity
  8
PORTATASTO
100
AcDbLine
 62
250
  6
CONTINUOUS
 10
-21.136906484
 20
23.2948185145
 30
0.0
 11
-18.763093516
 21
23.2948185145
 31
0.0
  0
LINE
  5
423
100
AcDbEntity
  8
PORTATASTO
100
AcDbLine
 62
250
  6
CONTINUOUS
 10
-3.736906484
 20
23.2948185145
 30
0.0
 11
-1.363093516
 21
23.2948185145
 31
0.0
  0
LINE
  5
424
100
AcDbEntity
  8
PORTATASTO
100
AcDbLine
 62
250
  6
CONTINUOUS
 10
1.363093516
 20
23.2948185145
 30
0.0
 11
3.736906484
 21
23.2948185145
 31
0.0
  0
LINE
  5
425
100
AcDbEntity
  8
PORTATASTO
100
AcDbLine
 62
250
  6
CONTINUOUS
 10
18.763093516
 20
23.2948185145
 30
0.0
 11
21.136906484
 21
23.2948185145
 31
0.0
  0
LINE
  5
426
100
AcDbEntity
  8
PORTATASTO
100
AcDbLine
 62
250
  6
CONTINUOUS
 10
-21.1329794573
 20
23.7278312164
 30
0.0
 11
-18.7670205427
 21
23.7278312164
 31
0.0
  0
LINE
  5
427
100
AcDbEntity
  8
PORTATASTO
100
AcDbLine
 62
250
  6
CONTINUOUS
 10
-3.7329794573
 20
23.7278312164
 30
0.0
 11
-1.3670205427
 21
23.7278312164
 31
0.0
  0
LINE
  5
428
100
AcDbEntity
  8
PORTATASTO
100
AcDbLine
 62
250
  6
CONTINUOUS
 10
1.3670205427
 20
23.7278312164
 30
0.0
 11
3.7329794573
 21
23.7278312164
 31
0.0
  0
LINE
  5
429
100
AcDbEntity
  8
PORTATASTO
100
AcDbLine
 62
250
  6
CONTINUOUS
 10
18.7670205427
 20
23.7278312164
 30
0.0
 11
21.1329794573
 21
23.7278312164
 31
0.0
  0
LINE
  5
42A
100
AcDbEntity
  8
PORTATASTO
100
AcDbLine
 62
250
  6
CONTINUOUS
 10
-7.0620456235
 20
23.7879543765
 30
0.0
 11
-7.7430032747
 21
23.7879543765
 31
0.0
  0
LINE
  5
42B
100
AcDbEntity
  8
PORTATASTO
100
AcDbLine
 62
250
  6
CONTINUOUS
 10
7.0620456235
 20
23.7879543765
 30
0.0
 11
7.7430032747
 21
23.7879543765
 31
0.0
  0
LINE
  5
42C
100
AcDbEntity
  8
PORTATASTO
100
AcDbLine
 62
250
  6
CONTINUOUS
 10
14.7569967253
 20
23.7879543765
 30
0.0
 11
15.4379543765
 21
23.7879543765
 31
0.0
  0
LINE
  5
42D
100
AcDbEntity
  8
PORTATASTO
100
AcDbLine
 62
250
  6
CONTINUOUS
 10
-14.7569967253
 20
23.7879543765
 30
0.0
 11
-15.4379543765
 21
23.7879543765
 31
0.0
  0
LINE
  5
42E
100
AcDbEntity
  8
PORTATASTO
100
AcDbLine
 62
250
  6
CONTINUOUS
 10
10.2386398408
 20
23.7931904121
 30
0.0
 11
7.75
 21
23.7931904121
 31
0.0
  0
LINE
  5
42F
100
AcDbEntity
  8
PORTATASTO
100
AcDbLine
 62
250
  6
CONTINUOUS
 10
-7.75
 20
23.7931904121
 30
0.0
 11
-10.2386398408
 21
23.7931904121
 31
0.0
  0
LINE
  5
430
100
AcDbEntity
  8
PORTATASTO
100
AcDbLine
 62
250
  6
CONTINUOUS
 10
12.2613601592
 20
23.7931904121
 30
0.0
 11
14.75
 21
23.7931904121
 31
0.0
  0
LINE
  5
431
100
AcDbEntity
  8
PORTATASTO
100
AcDbLine
 62
250
  6
CONTINUOUS
 10
-12.2613601592
 20
23.7931904121
 30
0.0
 11
-14.75
 21
23.7931904121
 31
0.0
  0
LINE
  5
432
100
AcDbEntity
  8
PORTATASTO
100
AcDbLine
 62
250
  6
CONTINUOUS
 10
1.1170239696
 20
23.9443375673
 30
0.0
 11
3.9829760304
 21
23.9443375673
 31
0.0
  0
LINE
  5
433
100
AcDbEntity
  8
PORTATASTO
100
AcDbLine
 62
250
  6
CONTINUOUS
 10
-1.1170239696
 20
23.9443375673
 30
0.0
 11
-3.9829760304
 21
23.9443375673
 31
0.0
  0
LINE
  5
434
100
AcDbEntity
  8
PORTATASTO
100
AcDbLine
 62
250
  6
CONTINUOUS
 10
18.5170239696
 20
23.9443375673
 30
0.0
 11
21.3829760304
 21
23.9443375673
 31
0.0
  0
LINE
  5
435
100
AcDbEntity
  8
PORTATASTO
100
AcDbLine
 62
250
  6
CONTINUOUS
 10
-18.5170239696
 20
23.9443375673
 30
0.0
 11
-21.3829760304
 21
23.9443375673
 31
0.0
  0
LINE
  5
436
100
AcDbEntity
  8
PORTATASTO
100
AcDbLine
 62
7
  6
CONTINUOUS
 10
15.637951635
 20
23.987951635
 30
0.0
 11
14.9569891099
 21
23.987951635
 31
0.0
  0
LINE
  5
437
100
AcDbEntity
  8
PORTATASTO
100
AcDbLine
 62
7
  6
CONTINUOUS
 10
7.5430108901
 20
23.987951635
 30
0.0
 11
6.862048365
 21
23.987951635
 31
0.0
  0
LINE
  5
438
100
AcDbEntity
  8
PORTATASTO
100
AcDbLine
 62
7
  6
CONTINUOUS
 10
-6.862048365
 20
23.987951635
 30
0.0
 11
-7.5430108901
 21
23.987951635
 31
0.0
  0
LINE
  5
439
100
AcDbEntity
  8
PORTATASTO
100
AcDbLine
 62
7
  6
CONTINUOUS
 10
-14.9569891099
 20
23.987951635
 30
0.0
 11
-15.637951635
 21
23.987951635
 31
0.0
  0
LINE
  5
43A
100
AcDbEntity
  8
PORTATASTO
100
AcDbLine
 62
7
  6
CONTINUOUS
 10
14.9482622421
 20
23.9931876706
 30
0.0
 11
12.4613525438
 21
23.9931876706
 31
0.0
  0
LINE
  5
43B
100
AcDbEntity
  8
PORTATASTO
100
AcDbLine
 62
7
  6
CONTINUOUS
 10
10.0386474562
 20
23.9931876706
 30
0.0
 11
7.5517377579
 21
23.9931876706
 31
0.0
  0
LINE
  5
43C
100
AcDbEntity
  8
PORTATASTO
100
AcDbLine
 62
7
  6
CONTINUOUS
 10
-7.5517377579
 20
23.9931876706
 30
0.0
 11
-10.0386474562
 21
23.9931876706
 31
0.0
  0
LINE
  5
43D
100
AcDbEntity
  8
PORTATASTO
100
AcDbLine
 62
7
  6
CONTINUOUS
 10
-12.4613525438
 20
23.9931876706
 30
0.0
 11
-14.9482622421
 21
23.9931876706
 31
0.0
  0
LINE
  5
43E
100
AcDbEntity
  8
PORTATASTO
100
AcDbLine
 62
7
  6
CONTINUOUS
 10
-15.65
 20
24.0
 30
0.0
 11
-14.9569891099
 21
24.0
 31
0.0
  0
LINE
  5
43F
100
AcDbEntity
  8
PORTATASTO
100
AcDbLine
 62
7
  6
CONTINUOUS
 10
-12.4613525438
 20
24.0
 30
0.0
 11
-12.449998477
 21
24.0
 31
0.0
  0
LINE
  5
440
100
AcDbEntity
  8
PORTATASTO
100
AcDbLine
 62
7
  6
CONTINUOUS
 10
-10.050001523
 20
24.0
 30
0.0
 11
-10.0386474562
 21
24.0
 31
0.0
  0
LINE
  5
441
100
AcDbEntity
  8
PORTATASTO
100
AcDbLine
 62
7
  6
CONTINUOUS
 10
-7.5430108901
 20
24.0
 30
0.0
 11
-6.85
 21
24.0
 31
0.0
  0
LINE
  5
442
100
AcDbEntity
  8
PORTATASTO
100
AcDbLine
 62
7
  6
CONTINUOUS
 10
6.85
 20
24.0
 30
0.0
 11
7.5430108901
 21
24.0
 31
0.0
  0
LINE
  5
443
100
AcDbEntity
  8
PORTATASTO
100
AcDbLine
 62
7
  6
CONTINUOUS
 10
10.0386474562
 20
24.0
 30
0.0
 11
10.050001523
 21
24.0
 31
0.0
  0
LINE
  5
444
100
AcDbEntity
  8
PORTATASTO
100
AcDbLine
 62
7
  6
CONTINUOUS
 10
12.449998477
 20
24.0
 30
0.0
 11
12.4613525438
 21
24.0
 31
0.0
  0
LINE
  5
445
100
AcDbEntity
  8
PORTATASTO
100
AcDbLine
 62
7
  6
CONTINUOUS
 10
14.9569891099
 20
24.0
 30
0.0
 11
15.65
 21
24.0
 31
0.0
  0
LINE
  5
446
100
AcDbEntity
  8
PORTATASTO
100
AcDbLine
 62
250
  6
CONTINUOUS
 10
-1.1170239696
 20
24.2329794573
 30
0.0
 11
-3.9829760304
 21
24.2329794573
 31
0.0
  0
LINE
  5
447
100
AcDbEntity
  8
PORTATASTO
100
AcDbLine
 62
250
  6
CONTINUOUS
 10
1.1170239696
 20
24.2329794573
 30
0.0
 11
3.9829760304
 21
24.2329794573
 31
0.0
  0
LINE
  5
448
100
AcDbEntity
  8
PORTATASTO
100
AcDbLine
 62
250
  6
CONTINUOUS
 10
-18.5170239696
 20
24.2329794573
 30
0.0
 11
-21.3829760304
 21
24.2329794573
 31
0.0
  0
LINE
  5
449
100
AcDbEntity
  8
PORTATASTO
100
AcDbLine
 62
250
  6
CONTINUOUS
 10
18.5170239696
 20
24.2329794573
 30
0.0
 11
21.3829760304
 21
24.2329794573
 31
0.0
  0
LINE
  5
44A
100
AcDbEntity
  8
PORTATASTO
100
AcDbLine
 62
7
  6
CONTINUOUS
 10
6.862048365
 20
23.987951635
 30
0.0
 11
6.85
 21
24.0
 31
0.0
  0
LWPOLYLINE
  5
44B
100
AcDbEntity
  8
0
100
AcDbPolyline
 62
7
  6
CONTINUOUS
 90
10
 70
0
 43
0.3500000006
 10
30.469629982
 20
0.4285709152
 10
29.6124875107
 20
1.2857133865
 10
28.7553427734
 20
1.5000001373
 10
27.8982003021
 20
1.5000001373
 10
27.4696290665
 20
1.0714289017
 10
27.4696290665
 20
0.4285709152
 10
27.8982003021
 20
-0.0000003204
 10
28.7553427734
 20
-0.0000003204
 10
29.1839140091
 20
0.4285709152
 10
29.1839140091
 20
1.3571423035
  0
LINE
  5
44C
100
AcDbEntity
  8
PORTATASTO
100
AcDbLine
 62
250
  6
CONTINUOUS
 10
12.25
 20
-23.8000063969
 30
0.0
 11
12.2613601592
 21
-23.7931904121
 31
0.0
  0
LINE
  5
44D
100
AcDbEntity
  8
PORTATASTO
100
AcDbLine
 62
250
  6
CONTINUOUS
 10
12.449998477
 20
-24.0
 30
0.0
 11
12.4613525438
 21
-23.9931876706
 31
0.0
  0
LINE
  5
44E
100
AcDbEntity
  8
PORTATASTO
100
AcDbLine
 62
7
  6
CONTINUOUS
 10
21.1329794573
 20
24.4829760304
 30
0.0
 11
18.7670205427
 21
24.4829760304
 31
0.0
  0
LINE
  5
44F
100
AcDbEntity
  8
PORTATASTO
100
AcDbLine
 62
7
  6
CONTINUOUS
 10
3.7329794573
 20
24.4829760304
 30
0.0
 11
1.3670205427
 21
24.4829760304
 31
0.0
  0
LINE
  5
450
100
AcDbEntity
  8
PORTATASTO
100
AcDbLine
 62
7
  6
CONTINUOUS
 10
-1.3670205427
 20
24.4829760304
 30
0.0
 11
-3.7329794573
 21
24.4829760304
 31
0.0
  0
LINE
  5
451
100
AcDbEntity
  8
PORTATASTO
100
AcDbLine
 62
7
  6
CONTINUOUS
 10
-18.7670205427
 20
24.4829760304
 30
0.0
 11
-21.1329794573
 21
24.4829760304
 31
0.0
  0
LINE
  5
452
100
AcDbEntity
  8
PORTATASTO
100
AcDbLine
 62
7
  6
CONTINUOUS
 10
-21.1500034269
 20
24.5
 30
0.0
 11
-18.7499965731
 21
24.5
 31
0.0
  0
LINE
  5
453
100
AcDbEntity
  8
PORTATASTO
100
AcDbLine
 62
7
  6
CONTINUOUS
 10
21.1500034269
 20
24.5
 30
0.0
 11
18.7499965731
 21
24.5
 31
0.0
  0
LINE
  5
454
100
AcDbEntity
  8
PORTATASTO
100
AcDbLine
 62
7
  6
CONTINUOUS
 10
-1.3499965731
 20
24.5
 30
0.0
 11
-3.7500034269
 21
24.5
 31
0.0
  0
LINE
  5
455
100
AcDbEntity
  8
PORTATASTO
100
AcDbLine
 62
7
  6
CONTINUOUS
 10
1.3499965731
 20
24.5
 30
0.0
 11
3.7500034269
 21
24.5
 31
0.0
  0
LINE
  5
456
100
AcDbEntity
  8
PORTATASTO
100
AcDbLine
 62
250
  6
CONTINUOUS
 10
12.25
 20
23.8000063969
 30
0.0
 11
12.2613601592
 21
23.7931904121
 31
0.0
  0
LINE
  5
457
100
AcDbEntity
  8
PORTATASTO
100
AcDbLine
 62
250
  6
CONTINUOUS
 10
12.449998477
 20
24.0
 30
0.0
 11
12.4613525438
 21
23.9931876706
 31
0.0
  0
LWPOLYLINE
  5
458
100
AcDbEntity
  8
0
100
AcDbPolyline
 62
7
  6
CONTINUOUS
 90
3
 70
0
 43
0.3500000006
 10
29.8267719955
 20
-0.8571427917
 10
29.8267719955
 20
-2.3571432495
 10
27.4696290665
 20
-1.7142852631
  0
LINE
  5
459
100
AcDbEntity
  8
PORTATASTO
100
AcDbLine
 62
250
  6
CONTINUOUS
 10
18.5170239696
 20
-24.2329794573
 30
0.0
 11
18.5
 21
-24.2500034269
 31
0.0
  0
LINE
  5
45A
100
AcDbEntity
  8
PORTATASTO
100
AcDbLine
 62
250
  6
CONTINUOUS
 10
18.7670205427
 20
-24.4829760304
 30
0.0
 11
18.7499965731
 21
-24.5
 31
0.0
  0
LINE
  5
45B
100
AcDbEntity
  8
PORTATASTO
100
AcDbLine
 62
250
  6
CONTINUOUS
 10
18.5170239696
 20
24.2329794573
 30
0.0
 11
18.5
 21
24.2500034269
 31
0.0
  0
LINE
  5
45C
100
AcDbEntity
  8
PORTATASTO
100
AcDbLine
 62
250
  6
CONTINUOUS
 10
18.7670205427
 20
24.4829760304
 30
0.0
 11
18.7499965731
 21
24.5
 31
0.0
  0
LWPOLYLINE
  5
45D
100
AcDbEntity
  8
0
100
AcDbPolyline
 62
7
  6
CONTINUOUS
 90
3
 70
0
 43
0.3500000006
 10
-0.5357142924
 20
41.7604583588
 10
-2.0357142191
 20
41.7604583588
 10
-1.3928570824
 20
44.1176012878
  0
LWPOLYLINE
  5
45E
100
AcDbEntity
  8
0
100
AcDbPolyline
 62
7
  6
CONTINUOUS
 90
3
 70
0
 43
0.3500000006
 10
-2.8928572569
 20
41.7604583588
 10
-4.3928571482
 20
41.7604583588
 10
-3.7500000114
 20
44.1176012878
  0
LINE
  5
45F
100
AcDbEntity
  8
PORTATASTO
100
AcDbLine
 62
7
  6
CONTINUOUS
 10
-57.7095183324
 20
-23.7659383532
 30
0.0
 11
-64.2147542244
 21
-23.8
 31
0.0
  0
LINE
  5
460
100
AcDbEntity
  8
PORTATASTO
100
AcDbLine
 62
250
  6
CONTINUOUS
 10
-67.4660632154
 20
-24.2329794573
 30
0.0
 11
-67.7147542244
 21
-24.2329794573
 31
0.0
  0
LINE
  5
461
100
AcDbEntity
  8
PORTATASTO
100
AcDbLine
 62
250
  6
CONTINUOUS
 10
-67.7147542244
 20
-23.9443375673
 30
0.0
 11
-67.4660632154
 21
-23.9443375673
 31
0.0
  0
LINE
  5
462
100
AcDbEntity
  8
PORTATASTO
100
AcDbLine
 62
250
  6
CONTINUOUS
 10
-66.4660632154
 20
-23.0783121635
 30
0.0
 11
-66.7147542244
 21
-23.0783121635
 31
0.0
  0
LINE
  5
463
100
AcDbEntity
  8
PORTATASTO
100
AcDbLine
 62
7
  6
CONTINUOUS
 10
-67.4660632154
 20
-24.4829760304
 30
0.0
 11
-64.2147542244
 21
-24.5
 31
0.0
  0
LINE
  5
464
100
AcDbEntity
  8
PORTATASTO
100
AcDbLine
 62
250
  6
CONTINUOUS
 10
-67.4660632154
 20
-24.2329794573
 30
0.0
 11
-64.2147542244
 21
-24.2500034269
 31
0.0
  0
LWPOLYLINE
  5
465
100
AcDbEntity
  8
0
100
AcDbPolyline
 62
7
  6
CONTINUOUS
 90
5
 70
0
 43
0.3500000006
 10
-51.2861844177
 20
33.19135849
 10
-50.929042099
 20
33.4056429749
 10
-50.929042099
 20
34.0485009613
 10
-51.2861844177
 20
34.477069931
 10
-52.143326889
 20
34.477069931
  0
LINE
  5
466
100
AcDbEntity
  8
PORTATASTO
100
AcDbLine
 62
7
  6
CONTINUOUS
 10
-64.2147542244
 20
23.8
 30
0.0
 11
-65.2147542244
 21
23.2226497308
 31
0.0
  0
LINE
  5
467
100
AcDbEntity
  8
CORPO
100
AcDbLine
 62
7
  6
CONTINUOUS
 10
-57.1147542244
 20
-20.7435241039
 30
0.0
 11
-63.2147542244
 21
-20.85
 31
0.0
  0
LINE
  5
468
100
AcDbEntity
  8
ASSI
100
AcDbLine
 62
7
  6
CONTINUOUS
 10
-57.1147542244
 20
-20.7435241039
 30
0.0
 11
-63.2147542244
 21
-20.85
 31
0.0
  0
LINE
  5
469
100
AcDbEntity
  8
CORPO
100
AcDbLine
 62
7
  6
CONTINUOUS
 10
-32.697301818
 20
-19.1673158868
 30
0.0
 11
-57.1147542244
 21
-19.5935241039
 31
0.0
  0
LINE
  5
46A
100
AcDbEntity
  8
ASSI
100
AcDbLine
 62
7
  6
CONTINUOUS
 10
-32.697301818
 20
-19.1673158868
 30
0.0
 11
-57.1147542244
 21
-19.5935241039
 31
0.0
  0
LINE
  5
46B
100
AcDbEntity
  8
CORPO
100
AcDbLine
 62
250
  6
CONTINUOUS
 10
-32.697301818
 20
-18.874467277
 30
0.0
 11
-57.1147542244
 21
-19.3006754942
 31
0.0
  0
LINE
  5
46C
100
AcDbEntity
  8
ASSI
100
AcDbLine
 62
250
  6
CONTINUOUS
 10
-32.697301818
 20
-18.874467277
 30
0.0
 11
-57.1147542244
 21
-19.3006754942
 31
0.0
  0
LINE
  5
46D
100
AcDbEntity
  8
PORTATASTO
100
AcDbLine
 62
7
  6
CONTINUOUS
 10
-54.2089364931
 20
-22.2859700255
 30
0.0
 11
-65.2147542244
 21
-22.35
 31
0.0
  0
LINE
  5
46E
100
AcDbEntity
  8
PORTATASTO
100
AcDbLine
 62
250
  6
CONTINUOUS
 10
-65.2147542244
 20
-21.850016923
 30
0.0
 11
-64.2147542244
 21
-21.8441990932
 31
0.0
  0
LINE
  5
46F
100
AcDbEntity
  8
PORTATASTO
100
AcDbLine
 62
7
  6
CONTINUOUS
 10
-64.2147542244
 20
-19.5
 30
0.0
 11
-63.2147542244
 21
-19.5
 31
0.0
  0
LINE
  5
470
100
AcDbEntity
  8
PORTATASTO
100
AcDbLine
 62
7
  6
CONTINUOUS
 10
-53.7060280212
 20
-21.4537354271
 30
0.0
 11
-64.2147542244
 21
-21.4
 31
0.0
  0
LINE
  5
471
100
AcDbEntity
  8
PORTATASTO
100
AcDbLine
 62
7
  6
CONTINUOUS
 10
-53.2147542244
 20
-20.9959955457
 30
0.0
 11
-64.2147542244
 21
-20.9
 31
0.0
  0
LINE
  5
472
100
AcDbEntity
  8
PORTATASTO
100
AcDbLine
 62
7
  6
CONTINUOUS
 10
-53.2147542244
 20
-19.7872686779
 30
0.0
 11
-57.1147542244
 21
-19.7532338935
 31
0.0
  0
LINE
  5
473
100
AcDbEntity
  8
PORTATASTO
100
AcDbLine
 62
7
  6
CONTINUOUS
 10
-63.2147542244
 20
-19.7
 30
0.0
 11
-64.2147542244
 21
-19.6912731322
 31
0.0
  0
LINE
  5
474
100
AcDbEntity
  8
PORTATASTO
100
AcDbLine
 62
7
  6
CONTINUOUS
 10
-68.9226073089
 20
-19.9421853323
 30
0.0
 11
-66.7147542244
 21
-20.0
 31
0.0
  0
LINE
  5
475
100
AcDbEntity
  8
PORTATASTO
100
AcDbLine
 62
7
  6
CONTINUOUS
 10
-66.7147542244
 20
-22.2713883311
 30
0.0
 11
-65.2147542244
 21
-22.35
 31
0.0
  0
LINE
  5
476
100
AcDbEntity
  8
RACCORDO
100
AcDbLine
 62
7
  6
CONTINUOUS
 10
-71.7084484794
 20
-21.990699353
 30
0.0
 11
-69.2099614914
 21
-22.1216395076
 31
0.0
  0
LINE
  5
477
100
AcDbEntity
  8
PORTATASTO
100
AcDbLine
 62
250
  6
CONTINUOUS
 10
-66.7147542244
 20
-21.771159479
 30
0.0
 11
-65.2147542244
 21
-21.8497711479
 31
0.0
  0
LINE
  5
478
100
AcDbEntity
  8
RACCORDO
100
AcDbLine
 62
250
  6
CONTINUOUS
 10
-71.6953689754
 20
-21.4913845856
 30
0.0
 11
-69.179477879
 21
-21.6232368509
 31
0.0
  0
LINE
  5
479
100
AcDbEntity
  8
PORTATASTO
100
AcDbLine
 62
7
  6
CONTINUOUS
 10
-65.2147542244
 20
-23.2226497308
 30
0.0
 11
-64.2147542244
 21
-23.8
 31
0.0
  0
LINE
  5
47A
100
AcDbEntity
  8
CURVE
100
AcDbLine
 62
250
  6
CONTINUOUS
 10
-60.6232008171
 20
-15.342748
 30
0.0
 11
-58.6278877476
 21
-14.790021
 31
0.0
  0
LINE
  5
47B
100
AcDbEntity
  8
PORTATASTO
100
AcDbLine
 62
7
  6
CONTINUOUS
 10
-63.2147542244
 20
-18.1473460386
 30
0.0
 11
-65.2147542244
 21
-18.5
 31
0.0
  0
LINE
  5
47C
100
AcDbEntity
  8
CORPO
100
AcDbLine
 62
250
  6
CONTINUOUS
 10
-63.2147542244
 20
-19.0856972195
 30
0.0
 11
-32.697301818
 21
-18.8650522354
 31
0.0
  0
LINE
  5
47D
100
AcDbEntity
  8
ASSI
100
AcDbLine
 62
250
  6
CONTINUOUS
 10
-63.2147542244
 20
-19.0856972195
 30
0.0
 11
-32.697301818
 21
-18.8650522354
 31
0.0
  0
LINE
  5
47E
100
AcDbEntity
  8
CORPO
100
AcDbLine
 62
250
  6
CONTINUOUS
 10
-63.2147542244
 20
-17.6716990487
 30
0.0
 11
-32.697301818
 21
-17.4510540646
 31
0.0
  0
LINE
  5
47F
100
AcDbEntity
  8
ASSI
100
AcDbLine
 62
250
  6
CONTINUOUS
 10
-63.2147542244
 20
-17.6716990487
 30
0.0
 11
-32.697301818
 21
-17.4510540646
 31
0.0
  0
LINE
  5
480
100
AcDbEntity
  8
PORTATASTO
100
AcDbLine
 62
250
  6
CONTINUOUS
 10
-68.9849478717
 20
-18.4426993448
 30
0.0
 11
-68.9226073089
 21
-18.4426993448
 31
0.0
  0
LINE
  5
481
100
AcDbEntity
  8
CORPO
100
AcDbLine
 62
250
  6
CONTINUOUS
 10
-31.7147542244
 20
-17.4510540646
 30
0.0
 11
-32.697301818
 21
-17.4510540642
 31
0.0
  0
LINE
  5
482
100
AcDbEntity
  8
ASSI
100
AcDbLine
 62
250
  6
CONTINUOUS
 10
-31.7147542244
 20
-17.4510540646
 30
0.0
 11
-32.697301818
 21
-17.4510540642
 31
0.0
  0
LINE
  5
483
100
AcDbEntity
  8
CURVE
100
AcDbLine
 62
250
  6
CONTINUOUS
 10
-54.1175259615
 20
-16.0
 30
0.0
 11
-52.8179219239
 21
-16.0
 31
0.0
  0
LINE
  5
484
100
AcDbEntity
  8
PORTATASTO
100
AcDbLine
 62
7
  6
CONTINUOUS
 10
-64.2147542244
 20
-18.5587268678
 30
0.0
 11
-63.2147542244
 21
-18.5674537356
 31
0.0
  0
LINE
  5
485
100
AcDbEntity
  8
PORTATASTO
100
AcDbLine
 62
250
  6
CONTINUOUS
 10
-68.9226073089
 20
-18.4427053571
 30
0.0
 11
-66.7147542244
 21
-18.5005140125
 31
0.0
  0
LINE
  5
486
100
AcDbEntity
  8
CURVE
100
AcDbLine
 62
250
  6
CONTINUOUS
 10
-52.8179219239
 20
-14.754264
 30
0.0
 11
-54.1175259615
 21
-14.754264
 31
0.0
  0
LINE
  5
487
100
AcDbEntity
  8
0
100
AcDbLine
 62
250
  6
CONTINUOUS
 10
-36.5793482244
 20
-13.75
 30
0.0
 11
-39.8501602244
 21
-13.75
 31
0.0
  0
LINE
  5
488
100
AcDbEntity
  8
CURVE
100
AcDbLine
 62
250
  6
CONTINUOUS
 10
-60.6233747641
 20
-13.390935
 30
0.0
 11
-57.7244310122
 21
-13.390935
 31
0.0
  0
LINE
  5
489
100
AcDbEntity
  8
CURVE
100
AcDbLine
 62
250
  6
CONTINUOUS
 10
-48.3153737571
 20
-13.349998
 30
0.0
 11
-47.5647824467
 21
-13.349998
 31
0.0
  0
LINE
  5
48A
100
AcDbEntity
  8
CURVE
100
AcDbLine
 62
250
  6
CONTINUOUS
 10
-43.9714372646
 20
-13.349998
 30
0.0
 11
-43.2208459542
 21
-13.349998
 31
0.0
  0
LINE
  5
48B
100
AcDbEntity
  8
CURVE
100
AcDbLine
 62
250
  6
CONTINUOUS
 10
-54.1175259615
 20
-13.269593
 30
0.0
 11
-52.8179219239
 21
-13.269593
 31
0.0
  0
LINE
  5
48C
100
AcDbEntity
  8
CURVE
100
AcDbLine
 62
250
  6
CONTINUOUS
 10
-57.7244310122
 20
-12.785664
 30
0.0
 11
-60.6233747641
 21
-12.785664
 31
0.0
  0
LINE
  5
48D
100
AcDbEntity
  8
CURVE
100
AcDbLine
 62
250
  6
CONTINUOUS
 10
-54.1175259615
 20
-11.953245
 30
0.0
 11
-52.8179219239
 21
-11.953245
 31
0.0
  0
LINE
  5
48E
100
AcDbEntity
  8
CURVE
100
AcDbLine
 62
250
  6
CONTINUOUS
 10
-59.6172733024
 20
-11.750162
 30
0.0
 11
-57.7244310122
 21
-11.880779
 31
0.0
  0
LINE
  5
48F
100
AcDbEntity
  8
CURVE
100
AcDbLine
 62
250
  6
CONTINUOUS
 10
-57.7244310122
 20
-12.459827
 30
0.0
 11
-60.6232008171
 21
-12.198005
 31
0.0
  0
LINE
  5
490
100
AcDbEntity
  8
CURVE
100
AcDbLine
 62
250
  6
CONTINUOUS
 10
-58.6278877476
 20
-14.790021
 30
0.0
 11
-60.6232008171
 21
-14.22041
 31
0.0
  0
LINE
  5
491
100
AcDbEntity
  8
CURVE
100
AcDbLine
 62
250
  6
CONTINUOUS
 10
-60.6232008171
 20
-13.615552
 30
0.0
 11
-57.7244310122
 21
-14.547617
 31
0.0
  0
LINE
  5
492
100
AcDbEntity
  8
CURVE
100
AcDbLine
 62
7
  6
CONTINUOUS
 10
-60.6152842291
 20
15.6927692166
 30
0.0
 11
-60.3066164457
 21
16.001437
 31
0.0
  0
LINE
  5
493
100
AcDbEntity
  8
CURVE
100
AcDbLine
 62
7
  6
CONTINUOUS
 10
-60.3850241426
 20
15.5030078751
 30
0.0
 11
-59.8865950177
 21
16.001437
 31
0.0
  0
LINE
  5
494
100
AcDbEntity
  8
CURVE
100
AcDbLine
 62
7
  6
CONTINUOUS
 10
-59.9650047665
 20
15.5030058232
 30
0.0
 11
-59.4665735897
 21
16.001437
 31
0.0
  0
LINE
  5
495
100
AcDbEntity
  8
CURVE
100
AcDbLine
 62
7
  6
CONTINUOUS
 10
-59.5449853904
 20
15.5030037713
 30
0.0
 11
-59.0465521616
 21
16.001437
 31
0.0
  0
LINE
  5
496
100
AcDbEntity
  8
CURVE
100
AcDbLine
 62
7
  6
CONTINUOUS
 10
-60.6152842291
 20
14.0126835045
 30
0.0
 11
-60.1730097969
 21
14.4549579367
 31
0.0
  0
LINE
  5
497
100
AcDbEntity
  8
CURVE
100
AcDbLine
 62
7
  6
CONTINUOUS
 10
-59.1249660143
 20
15.5030017193
 30
0.0
 11
-58.6265307336
 21
16.001437
 31
0.0
  0
LINE
  5
498
100
AcDbEntity
  8
CURVE
100
AcDbLine
 62
7
  6
CONTINUOUS
 10
-60.5477363056
 20
13.66021
 30
0.0
 11
-58.9621652448
 21
15.2457810608
 31
0.0
  0
LINE
  5
499
100
AcDbEntity
  8
CURVE
100
AcDbLine
 62
7
  6
CONTINUOUS
 10
-58.7049466382
 20
15.5029996674
 30
0.0
 11
-58.2065093056
 21
16.001437
 31
0.0
  0
LINE
  5
49A
100
AcDbEntity
  8
CURVE
100
AcDbLine
 62
7
  6
CONTINUOUS
 10
-60.1277148776
 20
13.66021
 30
0.0
 11
-59.622681728
 21
14.1652431496
 31
0.0
  0
LINE
  5
49B
100
AcDbEntity
  8
CURVE
100
AcDbLine
 62
7
  6
CONTINUOUS
 10
-59.3993288068
 20
14.3885960708
 30
0.0
 11
-57.7864878776
 21
16.001437
 31
0.0
  0
LINE
  5
49C
100
AcDbEntity
  8
CURVE
100
AcDbLine
 62
7
  6
CONTINUOUS
 10
-59.7076934495
 20
13.66021
 30
0.0
 11
-59.2041124472
 21
14.1637910023
 31
0.0
  0
LINE
  5
49D
100
AcDbEntity
  8
CURVE
100
AcDbLine
 62
7
  6
CONTINUOUS
 10
-58.1951448571
 20
15.1727585924
 30
0.0
 11
-57.717073254
 21
15.6508301956
 31
0.0
  0
LINE
  5
49E
100
AcDbEntity
  8
CURVE
100
AcDbLine
 62
7
  6
CONTINUOUS
 10
-60.6152842291
 20
14.166101
 30
0.0
 11
-58.5683338925
 21
15.502999
 31
0.0
  0
LINE
  5
49F
100
AcDbEntity
  8
CURVE
100
AcDbLine
 62
7
  6
CONTINUOUS
 10
-57.717073254
 20
15.484078
 30
0.0
 11
-59.7416823975
 21
14.165656
 31
0.0
  0
LINE
  5
4A0
100
AcDbEntity
  8
CURVE
100
AcDbLine
 62
250
  6
CONTINUOUS
 10
-57.7244310122
 20
-7.677235
 30
0.0
 11
-58.303128695
 21
-7.834033
 31
0.0
  0
LINE
  5
4A1
100
AcDbEntity
  8
CURVE
100
AcDbLine
 62
250
  6
CONTINUOUS
 10
-58.7509222616
 20
-7.954996
 30
0.0
 11
-59.8266924967
 21
-8.233126
 31
0.0
  0
LINE
  5
4A2
100
AcDbEntity
  8
CURVE
100
AcDbLine
 62
250
  6
CONTINUOUS
 10
-60.6232008171
 20
-9.790227
 30
0.0
 11
-57.7244310122
 21
-9.519077
 31
0.0
  0
LINE
  5
4A3
100
AcDbEntity
  8
CURVE
100
AcDbLine
 62
250
  6
CONTINUOUS
 10
-57.7244310122
 20
-10.111193
 30
0.0
 11
-59.6093827065
 21
-10.235548
 31
0.0
  0
LINE
  5
4A4
100
AcDbEntity
  8
RACCORDO
100
AcDbLine
 62
250
  6
CONTINUOUS
 10
-73.1376748102
 20
-9.4905
 30
0.0
 11
-73.6244960403
 21
-9.4999999993
 31
0.0
  0
LINE
  5
4A5
100
AcDbEntity
  8
CURVE
100
AcDbLine
 62
250
  6
CONTINUOUS
 10
-54.1175259615
 20
-10.145272
 30
0.0
 11
-52.8179219239
 21
-10.145272
 31
0.0
  0
LINE
  5
4A6
100
AcDbEntity
  8
CURVE
100
AcDbLine
 62
250
  6
CONTINUOUS
 10
-54.1175259615
 20
-9.756944
 30
0.0
 11
-52.8179219239
 21
-9.756944
 31
0.0
  0
LINE
  5
4A7
100
AcDbEntity
  8
CURVE
100
AcDbLine
 62
250
  6
CONTINUOUS
 10
-46.1429956357
 20
-9.364888
 30
0.0
 11
-45.3932240756
 21
-9.364888
 31
0.0
  0
LINE
  5
4A8
100
AcDbEntity
  8
CURVE
100
AcDbLine
 62
250
  6
CONTINUOUS
 10
-48.3153737571
 20
-8.964888
 30
0.0
 11
-47.5647824467
 21
-8.964888
 31
0.0
  0
LINE
  5
4A9
100
AcDbEntity
  8
CURVE
100
AcDbLine
 62
250
  6
CONTINUOUS
 10
-43.9714372646
 20
-8.964888
 30
0.0
 11
-43.2208459542
 21
-8.964888
 31
0.0
  0
LINE
  5
4AA
100
AcDbEntity
  8
CURVE
100
AcDbLine
 62
250
  6
CONTINUOUS
 10
-54.1175259615
 20
-8.724819
 30
0.0
 11
-52.8179219239
 21
-8.724819
 31
0.0
  0
LINE
  5
4AB
100
AcDbEntity
  8
CURVE
100
AcDbLine
 62
250
  6
CONTINUOUS
 10
-54.1175259615
 20
-7.831288
 30
0.0
 11
-52.8179219239
 21
-7.831288
 31
0.0
  0
LINE
  5
4AC
100
AcDbEntity
  8
CURVE
100
AcDbLine
 62
250
  6
CONTINUOUS
 10
-57.7244310122
 20
-9.424033
 30
0.0
 11
-60.6232008171
 21
-8.514517
 31
0.0
  0
LINE
  5
4AD
100
AcDbEntity
  8
CURVE
100
AcDbLine
 62
250
  6
CONTINUOUS
 10
-59.0137951696
 20
-10.994355
 30
0.0
 11
-60.6232008171
 21
-10.389084
 31
0.0
  0
LINE
  5
4AE
100
AcDbEntity
  8
CURVE
100
AcDbLine
 62
250
  6
CONTINUOUS
 10
-59.6093827065
 20
-10.235548
 30
0.0
 11
-57.7244310122
 21
-10.955216
 31
0.0
  0
LINE
  5
4AF
100
AcDbEntity
  8
CURVE
100
AcDbLine
 62
250
  6
CONTINUOUS
 10
-54.1175259615
 20
-14.01011
 30
0.0
 11
-52.8179219239
 21
-14.580443
 31
0.0
  0
LINE
  5
4B0
100
AcDbEntity
  8
CURVE
100
AcDbLine
 62
250
  6
CONTINUOUS
 10
-54.1175259615
 20
-14.754264
 30
0.0
 11
-52.8179219239
 21
-15.377131
 31
0.0
  0
LINE
  5
4B1
100
AcDbEntity
  8
PORTATASTO
100
AcDbLine
 62
250
  6
CONTINUOUS
 10
-68.9226073089
 20
-18.4427053571
 30
0.0
 11
-68.9226073089
 21
-17.4234401537
 31
0.0
  0
LINE
  5
4B2
100
AcDbEntity
  8
PORTATASTO
100
AcDbLine
 62
7
  6
CONTINUOUS
 10
-67.7147542244
 20
-24.2329794573
 30
0.0
 11
-67.7147542244
 21
-23.9443375673
 31
0.0
  0
LINE
  5
4B3
100
AcDbEntity
  8
RACCORDO
100
AcDbLine
 62
7
  6
CONTINUOUS
 10
-67.7147542244
 20
2.3247832141
 30
0.0
 11
-67.7147542244
 21
22.2
 31
0.0
  0
LINE
  5
4B4
100
AcDbEntity
  8
PORTATASTO
100
AcDbLine
 62
7
  6
CONTINUOUS
 10
-67.7147542244
 20
23.9443375673
 30
0.0
 11
-67.7147542244
 21
24.2329794573
 31
0.0
  0
LINE
  5
4B5
100
AcDbEntity
  8
PORTATASTO
100
AcDbLine
 62
250
  6
CONTINUOUS
 10
-67.4660632154
 20
-24.2329794573
 30
0.0
 11
-67.4660632154
 21
-23.9443375673
 31
0.0
  0
LINE
  5
4B6
100
AcDbEntity
  8
PORTATASTO
100
AcDbLine
 62
250
  6
CONTINUOUS
 10
-67.4660632154
 20
23.9443375673
 30
0.0
 11
-67.4660632154
 21
24.2329794573
 31
0.0
  0
LINE
  5
4B7
100
AcDbEntity
  8
ASSI
100
AcDbLine
 62
7
  6
CONTINUOUS
 10
-66.9647542244
 20
15.3001980265
 30
0.0
 11
-66.9647542244
 21
15.1977025991
 31
0.0
  0
LINE
  5
4B8
100
AcDbEntity
  8
ASSI
100
AcDbLine
 62
7
  6
CONTINUOUS
 10
-66.9647542244
 20
12.8022928963
 30
0.0
 11
-66.9647542244
 21
12.6998019735
 31
0.0
  0
LINE
  5
4B9
100
AcDbEntity
  8
PORTATASTO
100
AcDbLine
 62
7
  6
CONTINUOUS
 10
-66.7147542244
 20
-23.0783121635
 30
0.0
 11
-66.7147542244
 21
23.0783121635
 31
0.0
  0
LINE
  5
4BA
100
AcDbEntity
  8
PORTATASTO
100
AcDbLine
 62
250
  6
CONTINUOUS
 10
-66.4660632154
 20
-23.0783121635
 30
0.0
 11
-66.4660632154
 21
-22.2844216746
 31
0.0
  0
LINE
  5
4BB
100
AcDbEntity
  8
PORTATASTO
100
AcDbLine
 62
250
  6
CONTINUOUS
 10
-66.4660632154
 20
22.2844216746
 30
0.0
 11
-66.4660632154
 21
23.0783121635
 31
0.0
  0
LINE
  5
4BC
100
AcDbEntity
  8
RACCORDO
100
AcDbLine
 62
7
  6
CONTINUOUS
 10
-67.7147542244
 20
2.3247832141
 30
0.0
 11
-69.2099614914
 21
-22.1216395076
 31
0.0
  0
LINE
  5
4BD
100
AcDbEntity
  8
CURVE
100
AcDbLine
 62
7
  6
CONTINUOUS
 10
-60.5239980972
 20
12.4238839243
 30
0.0
 11
-60.0018311754
 21
12.9460508461
 31
0.0
  0
LINE
  5
4BE
100
AcDbEntity
  8
CURVE
100
AcDbLine
 62
7
  6
CONTINUOUS
 10
-59.2876720215
 20
13.66021
 30
0.0
 11
-58.7855431664
 21
14.1623388551
 31
0.0
  0
LINE
  5
4BF
100
AcDbEntity
  8
CURVE
100
AcDbLine
 62
7
  6
CONTINUOUS
 10
-60.6773012796
 20
11.8505593139
 30
0.0
 11
-59.3912815529
 21
13.1365790406
 31
0.0
  0
LINE
  5
4C0
100
AcDbEntity
  8
CURVE
100
AcDbLine
 62
7
  6
CONTINUOUS
 10
-58.8676505935
 20
13.66021
 30
0.0
 11
-58.3669738857
 21
14.1608867078
 31
0.0
  0
LINE
  5
4C1
100
AcDbEntity
  8
CURVE
100
AcDbLine
 62
7
  6
CONTINUOUS
 10
-60.6511792477
 20
11.4566599177
 30
0.0
 11
-60.2098516886
 21
11.8979874768
 31
0.0
  0
LINE
  5
4C2
100
AcDbEntity
  8
CURVE
100
AcDbLine
 62
7
  6
CONTINUOUS
 10
-59.5212476164
 20
12.5865915491
 30
0.0
 11
-58.9686583528
 21
13.1391808127
 31
0.0
  0
LINE
  5
4C3
100
AcDbEntity
  8
CURVE
100
AcDbLine
 62
7
  6
CONTINUOUS
 10
-58.4476291655
 20
13.66021
 30
0.0
 11
-57.9484046049
 21
14.1594345605
 31
0.0
  0
LINE
  5
4C4
100
AcDbEntity
  8
CURVE
100
AcDbLine
 62
7
  6
CONTINUOUS
 10
-60.5483613046
 20
11.1394564328
 30
0.0
 11
-60.1846987965
 21
11.5031189409
 31
0.0
  0
LINE
  5
4C5
100
AcDbEntity
  8
CURVE
100
AcDbLine
 62
7
  6
CONTINUOUS
 10
-59.0620154548
 20
12.6258022827
 30
0.0
 11
-58.621179719
 21
13.0666380184
 31
0.0
  0
LINE
  5
4C6
100
AcDbEntity
  8
CURVE
100
AcDbLine
 62
7
  6
CONTINUOUS
 10
-58.0276077374
 20
13.66021
 30
0.0
 11
-57.717073254
 21
13.9707444835
 31
0.0
  0
LINE
  5
4C7
100
AcDbEntity
  8
CURVE
100
AcDbLine
 62
7
  6
CONTINUOUS
 10
-60.3865099917
 20
10.8812863177
 30
0.0
 11
-60.0406441637
 21
11.2271521457
 31
0.0
  0
LINE
  5
4C8
100
AcDbEntity
  8
CURVE
100
AcDbLine
 62
7
  6
CONTINUOUS
 10
-58.7106785547
 20
12.5571177547
 30
0.0
 11
-58.3251322431
 21
12.9426640663
 31
0.0
  0
LINE
  5
4C9
100
AcDbEntity
  8
CURVE
100
AcDbLine
 62
7
  6
CONTINUOUS
 10
-60.6152842291
 20
10.2324906523
 30
0.0
 11
-60.5573227099
 21
10.2904521715
 31
0.0
  0
LINE
  5
4CA
100
AcDbEntity
  8
CURVE
100
AcDbLine
 62
7
  6
CONTINUOUS
 10
-60.1720274086
 20
10.6757474728
 30
0.0
 11
-59.8094531635
 21
11.0383217179
 31
0.0
  0
LINE
  5
4CB
100
AcDbEntity
  8
CURVE
100
AcDbLine
 62
7
  6
CONTINUOUS
 10
-58.4317379866
 20
12.4160368948
 30
0.0
 11
-58.0783595418
 21
12.7694153396
 31
0.0
  0
LINE
  5
4CC
100
AcDbEntity
  8
CURVE
100
AcDbLine
 62
7
  6
CONTINUOUS
 10
-60.6152842291
 20
9.8124692243
 30
0.0
 11
-60.3519818362
 21
10.0757716172
 31
0.0
  0
LINE
  5
4CD
100
AcDbEntity
  8
CURVE
100
AcDbLine
 62
7
  6
CONTINUOUS
 10
-59.9073227455
 20
10.5204307079
 30
0.0
 11
-59.5056654473
 21
10.922088006
 31
0.0
  0
LINE
  5
4CE
100
AcDbEntity
  8
CURVE
100
AcDbLine
 62
7
  6
CONTINUOUS
 10
-58.2295599749
 20
12.1981934785
 30
0.0
 11
-57.8822102058
 21
12.5455432476
 31
0.0
  0
LINE
  5
4CF
100
AcDbEntity
  8
CURVE
100
AcDbLine
 62
7
  6
CONTINUOUS
 10
-60.4842122455
 20
9.5235197798
 30
0.0
 11
-60.1466409624
 21
9.8610910629
 31
0.0
  0
LINE
  5
4D0
100
AcDbEntity
  8
CURVE
100
AcDbLine
 62
7
  6
CONTINUOUS
 10
-59.5939241316
 20
10.4138078938
 30
0.0
 11
-59.1233423418
 21
10.8843896835
 31
0.0
  0
LINE
  5
4D1
100
AcDbEntity
  8
CURVE
100
AcDbLine
 62
7
  6
CONTINUOUS
 10
-58.120861125
 20
11.8868709003
 30
0.0
 11
-57.7404585211
 21
12.2672735043
 31
0.0
  0
LINE
  5
4D2
100
AcDbEntity
  8
CURVE
100
AcDbLine
 62
7
  6
CONTINUOUS
 10
-60.2759841895
 20
9.3117264079
 30
0.0
 11
-59.9413000886
 21
9.6464105087
 31
0.0
  0
LINE
  5
4D3
100
AcDbEntity
  8
CURVE
100
AcDbLine
 62
7
  6
CONTINUOUS
 10
-59.2235562895
 20
10.3641543078
 30
0.0
 11
-58.5779155093
 21
11.009795088
 31
0.0
  0
LINE
  5
4D4
100
AcDbEntity
  8
CURVE
100
AcDbLine
 62
7
  6
CONTINUOUS
 10
-58.1838405368
 20
11.4038700605
 30
0.0
 11
-57.6623134644
 21
11.9253971329
 31
0.0
  0
LINE
  5
4D5
100
AcDbEntity
  8
CURVE
100
AcDbLine
 62
250
  6
CONTINUOUS
 10
-53.2412092636
 20
16.0000010014
 30
0.0
 11
-53.5125965356
 21
15.7285721064
 31
0.0
  0
LINE
  5
4D6
100
AcDbEntity
  8
CURVE
100
AcDbLine
 62
7
  6
CONTINUOUS
 10
-60.0677561334
 20
9.0999330359
 30
0.0
 11
-59.7359592149
 21
9.4317299544
 31
0.0
  0
LINE
  5
4D7
100
AcDbEntity
  8
CURVE
100
AcDbLine
 62
7
  6
CONTINUOUS
 10
-58.7582978554
 20
10.4093913139
 30
0.0
 11
-57.6755899681
 21
11.4920992012
 31
0.0
  0
LINE
  5
4D8
100
AcDbEntity
  8
CURVE
100
AcDbLine
 62
7
  6
CONTINUOUS
 10
-60.6152842291
 20
8.1323835122
 30
0.0
 11
-60.3760846342
 21
8.371583107
 31
0.0
  0
LINE
  5
4D9
100
AcDbEntity
  8
CURVE
100
AcDbLine
 62
7
  6
CONTINUOUS
 10
-59.8595280773
 20
8.8881396639
 30
0.0
 11
-59.5306183411
 21
9.2170494002
 31
0.0
  0
LINE
  5
4DA
100
AcDbEntity
  8
CURVE
100
AcDbLine
 62
7
  6
CONTINUOUS
 10
-60.4738083132
 20
7.853838
 30
0.0
 11
-59.9560665301
 21
8.3715797831
 31
0.0
  0
LINE
  5
4DB
100
AcDbEntity
  8
CURVE
100
AcDbLine
 62
7
  6
CONTINUOUS
 10
-59.6513000213
 20
8.676346292
 30
0.0
 11
-58.670680413
 21
9.6569659002
 31
0.0
  0
LINE
  5
4DC
100
AcDbEntity
  8
CURVE
100
AcDbLine
 62
7
  6
CONTINUOUS
 10
-60.0537868852
 20
7.853838
 30
0.0
 11
-59.536048426
 21
8.3715764592
 31
0.0
  0
LINE
  5
4DD
100
AcDbEntity
  8
CURVE
100
AcDbLine
 62
7
  6
CONTINUOUS
 10
-59.4430719652
 20
8.46455292
 30
0.0
 11
-57.717073254
 21
10.1905516312
 31
0.0
  0
LINE
  5
4DE
100
AcDbEntity
  8
CURVE
100
AcDbLine
 62
250
  6
CONTINUOUS
 10
-53.2412092636
 20
14.6428578854
 30
0.0
 11
-53.5125965356
 21
14.3714294434
 31
0.0
  0
LINE
  5
4DF
100
AcDbEntity
  8
CURVE
100
AcDbLine
 62
7
  6
CONTINUOUS
 10
-59.4226975856
 20
9.10422
 30
0.0
 11
-57.717073254
 21
10.357884
 31
0.0
  0
LINE
  5
4E0
100
AcDbEntity
  8
CURVE
100
AcDbLine
 62
7
  6
CONTINUOUS
 10
-57.717073254
 20
9.706581
 30
0.0
 11
-59.0666910534
 21
8.741819
 31
0.0
  0
LINE
  5
4E1
100
AcDbEntity
  8
CURVE
100
AcDbLine
 62
250
  6
CONTINUOUS
 10
-49.9739140384
 20
15.628570652
 30
0.0
 11
-49.4168560313
 21
15.9999990463
 31
0.0
  0
LINE
  5
4E2
100
AcDbEntity
  8
CURVE
100
AcDbLine
 62
250
  6
CONTINUOUS
 10
-54.0553709663
 20
11.9285723329
 30
0.0
 11
-53.7839837509
 21
12.0642865539
 31
0.0
  0
LINE
  5
4E3
100
AcDbEntity
  8
CURVE
100
AcDbLine
 62
250
  6
CONTINUOUS
 10
-50.716658035
 20
13.3071422577
 30
0.0
 11
-49.9739140384
 21
13.678570652
 31
0.0
  0
LINE
  5
4E4
100
AcDbEntity
  8
CURVE
100
AcDbLine
 62
250
  6
CONTINUOUS
 10
-52.6984348045
 20
11.2500008881
 30
0.0
 11
-52.9698220482
 21
11.1142865539
 31
0.0
  0
LINE
  5
4E5
100
AcDbEntity
  8
CURVE
100
AcDbLine
 62
250
  6
CONTINUOUS
 10
-50.716658035
 20
12.1928570747
 30
0.0
 11
-49.9739140384
 21
12.5642854691
 31
0.0
  0
LINE
  5
4E6
100
AcDbEntity
  8
CURVE
100
AcDbLine
 62
250
  6
CONTINUOUS
 10
-52.8179219239
 20
-7.027348
 30
0.0
 11
-54.1175259615
 21
-7.027348
 31
0.0
  0
LINE
  5
4E7
100
AcDbEntity
  8
CURVE
100
AcDbLine
 62
250
  6
CONTINUOUS
 10
-60.5893334831
 20
-6.8615673444
 30
0.0
 11
-57.72443066
 21
-6.8615673444
 31
0.0
  0
LINE
  5
4E8
100
AcDbEntity
  8
CURVE
100
AcDbLine
 62
250
  6
CONTINUOUS
 10
-59.3335976336
 20
-6.2788012718
 30
0.0
 11
-60.1293665364
 21
-6.2788012718
 31
0.0
  0
LINE
  5
4E9
100
AcDbEntity
  8
CURVE
100
AcDbLine
 62
250
  6
CONTINUOUS
 10
-57.72443066
 20
-6.2587313832
 30
0.0
 11
-58.8588491405
 21
-6.2587313832
 31
0.0
  0
LINE
  5
4EA
100
AcDbEntity
  8
CURVE
100
AcDbLine
 62
250
  6
CONTINUOUS
 10
-59.0775508158
 20
-5.30544429
 30
0.0
 11
-59.0946800197
 21
-5.30544429
 31
0.0
  0
LINE
  5
4EB
100
AcDbEntity
  8
CURVE
100
AcDbLine
 62
250
  6
CONTINUOUS
 10
-54.1175259615
 20
-5.041082
 30
0.0
 11
-52.8179219239
 21
-5.041082
 31
0.0
  0
LINE
  5
4EC
100
AcDbEntity
  8
CURVE
100
AcDbLine
 62
250
  6
CONTINUOUS
 10
-52.8179219239
 20
-3.656396
 30
0.0
 11
-53.3208037063
 21
-3.656396
 31
0.0
  0
LINE
  5
4ED
100
AcDbEntity
  8
CURVE
100
AcDbLine
 62
250
  6
CONTINUOUS
 10
-59.8266924967
 20
-8.233126
 30
0.0
 11
-58.7509222616
 21
-8.5345
 31
0.0
  0
LINE
  5
4EE
100
AcDbEntity
  8
CURVE
100
AcDbLine
 62
250
  6
CONTINUOUS
 10
-58.303128695
 20
-8.658312
 30
0.0
 11
-57.7244310122
 21
-8.825329
 31
0.0
  0
LINE
  5
4EF
100
AcDbEntity
  8
PORTATASTO
100
AcDbLine
 62
7
  6
CONTINUOUS
 10
-65.2147542244
 20
23.2226497308
 30
0.0
 11
-65.2147542244
 21
22.35
 31
0.0
  0
LINE
  5
4F0
100
AcDbEntity
  8
PORTATASTO
100
AcDbLine
 62
7
  6
CONTINUOUS
 10
-65.2147542244
 20
21.850016923
 30
0.0
 11
-65.2147542244
 21
18.5
 31
0.0
  0
LINE
  5
4F1
100
AcDbEntity
  8
PORTATASTO
100
AcDbLine
 62
7
  6
CONTINUOUS
 10
-65.2147542244
 20
-22.35
 30
0.0
 11
-65.2147542244
 21
-23.2226497308
 31
0.0
  0
LINE
  5
4F2
100
AcDbEntity
  8
PORTATASTO
100
AcDbLine
 62
7
  6
CONTINUOUS
 10
-65.2147542244
 20
-21.850016923
 30
0.0
 11
-65.2147542244
 21
-18.5
 31
0.0
  0
LINE
  5
4F3
100
AcDbEntity
  8
PORTATASTO
100
AcDbLine
 62
7
  6
CONTINUOUS
 10
-64.2147542244
 20
24.5
 30
0.0
 11
-64.2147542244
 21
23.8
 31
0.0
  0
LINE
  5
4F4
100
AcDbEntity
  8
PORTATASTO
100
AcDbLine
 62
7
  6
CONTINUOUS
 10
-64.2147542244
 20
22.3441821702
 30
0.0
 11
-64.2147542244
 21
18.5587268678
 31
0.0
  0
LINE
  5
4F5
100
AcDbEntity
  8
PORTATASTO
100
AcDbLine
 62
7
  6
CONTINUOUS
 10
-64.2147542244
 20
-18.5587268678
 30
0.0
 11
-64.2147542244
 21
-22.3441821702
 31
0.0
  0
LINE
  5
4F6
100
AcDbEntity
  8
PORTATASTO
100
AcDbLine
 62
7
  6
CONTINUOUS
 10
-64.2147542244
 20
-23.8
 30
0.0
 11
-64.2147542244
 21
-24.5
 31
0.0
  0
LINE
  5
4F7
100
AcDbEntity
  8
CORPO
100
AcDbLine
 62
7
  6
CONTINUOUS
 10
-63.2147542244
 20
20.85
 30
0.0
 11
-63.2147542244
 21
19.0856972195
 31
0.0
  0
LINE
  5
4F8
100
AcDbEntity
  8
ASSI
100
AcDbLine
 62
7
  6
CONTINUOUS
 10
-63.2147542244
 20
20.85
 30
0.0
 11
-63.2147542244
 21
19.0856972195
 31
0.0
  0
LINE
  5
4F9
100
AcDbEntity
  8
PORTATASTO
100
AcDbLine
 62
7
  6
CONTINUOUS
 10
-63.2147542244
 20
19.5
 30
0.0
 11
-63.2147542244
 21
-19.5
 31
0.0
  0
LINE
  5
4FA
100
AcDbEntity
  8
CORPO
100
AcDbLine
 62
7
  6
CONTINUOUS
 10
-63.2147542244
 20
-19.0856972195
 30
0.0
 11
-63.2147542244
 21
-20.85
 31
0.0
  0
LINE
  5
4FB
100
AcDbEntity
  8
ASSI
100
AcDbLine
 62
7
  6
CONTINUOUS
 10
-63.2147542244
 20
-19.0856972195
 30
0.0
 11
-63.2147542244
 21
-20.85
 31
0.0
  0
LINE
  5
4FC
100
AcDbEntity
  8
CORPO
100
AcDbLine
 62
7
  6
CONTINUOUS
 10
-63.2147542244
 20
-18.2521805692
 30
0.0
 11
-63.2147542244
 21
-18.1865176261
 31
0.0
  0
LINE
  5
4FD
100
AcDbEntity
  8
ASSI
100
AcDbLine
 62
7
  6
CONTINUOUS
 10
-63.2147542244
 20
-18.2521805692
 30
0.0
 11
-63.2147542244
 21
-18.1865176261
 31
0.0
  0
LINE
  5
4FE
100
AcDbEntity
  8
CORPO
100
AcDbLine
 62
7
  6
CONTINUOUS
 10
-63.2147542244
 20
-18.0618205861
 30
0.0
 11
-63.2147542244
 21
18.0618205978
 31
0.0
  0
LINE
  5
4FF
100
AcDbEntity
  8
CORPO
100
AcDbLine
 62
7
  6
CONTINUOUS
 10
-63.2147542244
 20
18.1865176248
 30
0.0
 11
-63.2147542244
 21
18.2521805885
 31
0.0
  0
LINE
  5
500
100
AcDbEntity
  8
ASSI
100
AcDbLine
 62
7
  6
CONTINUOUS
 10
-63.2147542244
 20
-18.0618205861
 30
0.0
 11
-63.2147542244
 21
18.0618205978
 31
0.0
  0
LINE
  5
501
100
AcDbEntity
  8
ASSI
100
AcDbLine
 62
7
  6
CONTINUOUS
 10
-63.2147542244
 20
18.1865176248
 30
0.0
 11
-63.2147542244
 21
18.2521805885
 31
0.0
  0
LINE
  5
502
100
AcDbEntity
  8
CURVE
100
AcDbLine
 62
7
  6
CONTINUOUS
 10
-60.6152842291
 20
6.8723192281
 30
0.0
 11
-60.2494964572
 21
7.238107
 31
0.0
  0
LINE
  5
503
100
AcDbEntity
  8
CURVE
100
AcDbLine
 62
7
  6
CONTINUOUS
 10
-59.6337654572
 20
7.853838
 30
0.0
 11
-58.9118565258
 21
8.5757469313
 31
0.0
  0
LINE
  5
504
100
AcDbEntity
  8
CURVE
100
AcDbLine
 62
7
  6
CONTINUOUS
 10
-57.9413312307
 20
9.5462722264
 30
0.0
 11
-57.717073254
 21
9.7705302032
 31
0.0
  0
LINE
  5
505
100
AcDbEntity
  8
CURVE
100
AcDbLine
 62
7
  6
CONTINUOUS
 10
-60.3472440292
 20
6.720338
 30
0.0
 11
-59.8294750292
 21
7.238107
 31
0.0
  0
LINE
  5
506
100
AcDbEntity
  8
CURVE
100
AcDbLine
 62
7
  6
CONTINUOUS
 10
-59.2137440292
 20
7.853838
 30
0.0
 11
-58.6960067753
 21
8.3715752538
 31
0.0
  0
LINE
  5
507
100
AcDbEntity
  8
CURVE
100
AcDbLine
 62
7
  6
CONTINUOUS
 10
-60.6152842291
 20
6.032276372
 30
0.0
 11
-60.5615476011
 21
6.086013
 31
0.0
  0
LINE
  5
508
100
AcDbEntity
  8
CURVE
100
AcDbLine
 62
7
  6
CONTINUOUS
 10
-59.9272226011
 20
6.720338
 30
0.0
 11
-59.4094536011
 21
7.238107
 31
0.0
  0
LINE
  5
509
100
AcDbEntity
  8
CURVE
100
AcDbLine
 62
7
  6
CONTINUOUS
 10
-58.7937226011
 20
7.853838
 30
0.0
 11
-58.2759811656
 21
8.3715794356
 31
0.0
  0
LINE
  5
50A
100
AcDbEntity
  8
CURVE
100
AcDbLine
 62
250
  6
CONTINUOUS
 10
-50.716658035
 20
15.8142854691
 30
0.0
 11
-50.5309720455
 21
15.9999990463
 31
0.0
  0
LINE
  5
50B
100
AcDbEntity
  8
CURVE
100
AcDbLine
 62
250
  6
CONTINUOUS
 10
-52.6984348045
 20
13.6928578854
 30
0.0
 11
-52.4270475609
 21
13.9642867804
 31
0.0
  0
LINE
  5
50C
100
AcDbEntity
  8
CURVE
100
AcDbLine
 62
7
  6
CONTINUOUS
 10
-60.6152842291
 20
5.612254944
 30
0.0
 11
-60.1553044294
 21
6.0722347437
 31
0.0
  0
LINE
  5
50D
100
AcDbEntity
  8
CURVE
100
AcDbLine
 62
7
  6
CONTINUOUS
 10
-59.5072011731
 20
6.720338
 30
0.0
 11
-58.9894321731
 21
7.238107
 31
0.0
  0
LINE
  5
50E
100
AcDbEntity
  8
CURVE
100
AcDbLine
 62
7
  6
CONTINUOUS
 10
-58.3737011731
 20
7.853838
 30
0.0
 11
-57.8559555558
 21
8.3715836173
 31
0.0
  0
LINE
  5
50F
100
AcDbEntity
  8
CURVE
100
AcDbLine
 62
250
  6
CONTINUOUS
 10
-54.3267581817
 20
11.6571436644
 30
0.0
 11
-54.0553709663
 21
11.9285723329
 31
0.0
  0
LINE
  5
510
100
AcDbEntity
  8
CURVE
100
AcDbLine
 62
7
  6
CONTINUOUS
 10
-60.6152842291
 20
5.192233516
 30
0.0
 11
-60.1553060748
 21
5.6522116703
 31
0.0
  0
LINE
  5
511
100
AcDbEntity
  8
CURVE
100
AcDbLine
 62
7
  6
CONTINUOUS
 10
-59.0871797451
 20
6.720338
 30
0.0
 11
-58.5694107451
 21
7.238107
 31
0.0
  0
LINE
  5
512
100
AcDbEntity
  8
CURVE
100
AcDbLine
 62
7
  6
CONTINUOUS
 10
-57.9536797451
 20
7.853838
 30
0.0
 11
-57.717073254
 21
8.0904444911
 31
0.0
  0
LINE
  5
513
100
AcDbEntity
  8
CURVE
100
AcDbLine
 62
7
  6
CONTINUOUS
 10
-60.6152842291
 20
4.772212088
 30
0.0
 11
-60.1553077202
 21
5.2321885969
 31
0.0
  0
LINE
  5
514
100
AcDbEntity
  8
CURVE
100
AcDbLine
 62
7
  6
CONTINUOUS
 10
-59.434650149
 20
5.9528461681
 30
0.0
 11
-59.4053693171
 21
5.982127
 31
0.0
  0
LINE
  5
515
100
AcDbEntity
  8
CURVE
100
AcDbLine
 62
7
  6
CONTINUOUS
 10
-58.6671583171
 20
6.720338
 30
0.0
 11
-58.1493893171
 21
7.238107
 31
0.0
  0
LINE
  5
516
100
AcDbEntity
  8
CURVE
100
AcDbLine
 62
7
  6
CONTINUOUS
 10
-60.6152842291
 20
4.3521906599
 30
0.0
 11
-60.1553093655
 21
4.8121655235
 31
0.0
  0
LINE
  5
517
100
AcDbEntity
  8
CURVE
100
AcDbLine
 62
7
  6
CONTINUOUS
 10
-59.4346530909
 20
5.5328217981
 30
0.0
 11
-58.985347889
 21
5.982127
 31
0.0
  0
LINE
  5
518
100
AcDbEntity
  8
CURVE
100
AcDbLine
 62
7
  6
CONTINUOUS
 10
-58.247136889
 20
6.720338
 30
0.0
 11
-57.729367889
 21
7.238107
 31
0.0
  0
LINE
  5
519
100
AcDbEntity
  8
CURVE
100
AcDbLine
 62
250
  6
CONTINUOUS
 10
-54.0553709663
 20
10.5714294434
 30
0.0
 11
-54.3267581817
 21
10.3000008881
 31
0.0
  0
LINE
  5
51A
100
AcDbEntity
  8
CURVE
100
AcDbLine
 62
7
  6
CONTINUOUS
 10
-60.510359461
 20
4.037094
 30
0.0
 11
-59.992621461
 21
4.554832
 31
0.0
  0
LINE
  5
51B
100
AcDbEntity
  8
CURVE
100
AcDbLine
 62
7
  6
CONTINUOUS
 10
-59.4346560328
 20
5.1127974282
 30
0.0
 11
-58.9746572263
 21
5.5727962347
 31
0.0
  0
LINE
  5
51C
100
AcDbEntity
  8
CURVE
100
AcDbLine
 62
7
  6
CONTINUOUS
 10
-57.827115461
 20
6.720338
 30
0.0
 11
-57.717073254
 21
6.830380207
 31
0.0
  0
LINE
  5
51D
100
AcDbEntity
  8
CURVE
100
AcDbLine
 62
7
  6
CONTINUOUS
 10
-60.090338033
 20
4.037094
 30
0.0
 11
-59.572600033
 21
4.554832
 31
0.0
  0
LINE
  5
51E
100
AcDbEntity
  8
CURVE
100
AcDbLine
 62
7
  6
CONTINUOUS
 10
-59.4346589747
 20
4.6927730583
 30
0.0
 11
-58.9746542844
 21
5.1527777486
 31
0.0
  0
LINE
  5
51F
100
AcDbEntity
  8
CURVE
100
AcDbLine
 62
7
  6
CONTINUOUS
 10
-58.1770515807
 20
5.9503804523
 30
0.0
 11
-58.029766033
 21
6.097666
 31
0.0
  0
LINE
  5
520
100
AcDbEntity
  8
CURVE
100
AcDbLine
 62
250
  6
CONTINUOUS
 10
-52.4270475609
 20
11.5214294434
 30
0.0
 11
-52.6984348045
 21
11.2500008881
 31
0.0
  0
LINE
  5
521
100
AcDbEntity
  8
CURVE
100
AcDbLine
 62
7
  6
CONTINUOUS
 10
-59.670316605
 20
4.037094
 30
0.0
 11
-58.9746513426
 21
4.7327592624
 31
0.0
  0
LINE
  5
522
100
AcDbEntity
  8
CURVE
100
AcDbLine
 62
7
  6
CONTINUOUS
 10
-58.1770472262
 20
5.5303633788
 30
0.0
 11
-57.717073254
 21
5.990337351
 31
0.0
  0
LINE
  5
523
100
AcDbEntity
  8
CURVE
100
AcDbLine
 62
7
  6
CONTINUOUS
 10
-59.2502951769
 20
4.037094
 30
0.0
 11
-58.7325571769
 21
4.554832
 31
0.0
  0
LINE
  5
524
100
AcDbEntity
  8
CURVE
100
AcDbLine
 62
7
  6
CONTINUOUS
 10
-58.1770428717
 20
5.1103463052
 30
0.0
 11
-57.717073254
 21
5.570315923
 31
0.0
  0
LINE
  5
525
100
AcDbEntity
  8
CURVE
100
AcDbLine
 62
7
  6
CONTINUOUS
 10
-58.8302737489
 20
4.037094
 30
0.0
 11
-58.3125357489
 21
4.554832
 31
0.0
  0
LINE
  5
526
100
AcDbEntity
  8
CURVE
100
AcDbLine
 62
7
  6
CONTINUOUS
 10
-58.1770385173
 20
4.6903292317
 30
0.0
 11
-57.717073254
 21
5.1502944949
 31
0.0
  0
LINE
  5
527
100
AcDbEntity
  8
CURVE
100
AcDbLine
 62
7
  6
CONTINUOUS
 10
-58.4102523209
 20
4.037094
 30
0.0
 11
-57.717073254
 21
4.7302730669
 31
0.0
  0
LINE
  5
528
100
AcDbEntity
  8
CURVE
100
AcDbLine
 62
250
  6
CONTINUOUS
 10
-49.9739140384
 20
8.4166661263
 30
0.0
 11
-49.4168560313
 21
8.7880951405
 31
0.0
  0
LINE
  5
529
100
AcDbEntity
  8
CURVE
100
AcDbLine
 62
250
  6
CONTINUOUS
 10
-50.716658035
 20
4.3309520841
 30
0.0
 11
-49.4168560313
 21
4.7023806334
 31
0.0
  0
LINE
  5
52A
100
AcDbEntity
  8
CURVE
100
AcDbLine
 62
250
  6
CONTINUOUS
 10
-54.1175259615
 20
-5.860387
 30
0.0
 11
-52.8179219239
 21
-6.430721
 31
0.0
  0
LINE
  5
52B
100
AcDbEntity
  8
CURVE
100
AcDbLine
 62
250
  6
CONTINUOUS
 10
-60.6233747641
 20
-12.785664
 30
0.0
 11
-60.6233747641
 21
-13.390935
 31
0.0
  0
LINE
  5
52C
100
AcDbEntity
  8
CURVE
100
AcDbLine
 62
250
  6
CONTINUOUS
 10
-60.6232008171
 20
-16.00026
 30
0.0
 11
-60.6232008171
 21
-15.342748
 31
0.0
  0
LINE
  5
52D
100
AcDbEntity
  8
CURVE
100
AcDbLine
 62
250
  6
CONTINUOUS
 10
-60.6232008171
 20
-14.22041
 30
0.0
 11
-60.6232008171
 21
-13.615552
 31
0.0
  0
LINE
  5
52E
100
AcDbEntity
  8
CURVE
100
AcDbLine
 62
250
  6
CONTINUOUS
 10
-60.6232008171
 20
-12.198005
 30
0.0
 11
-60.6232008171
 21
-11.593234
 31
0.0
  0
LINE
  5
52F
100
AcDbEntity
  8
CURVE
100
AcDbLine
 62
250
  6
CONTINUOUS
 10
-60.6232008171
 20
-10.389084
 30
0.0
 11
-60.6232008171
 21
-9.790227
 31
0.0
  0
LINE
  5
530
100
AcDbEntity
  8
CURVE
100
AcDbLine
 62
250
  6
CONTINUOUS
 10
-60.6232008171
 20
-8.514517
 30
0.0
 11
-60.6232008171
 21
-7.92899
 31
0.0
  0
LINE
  5
531
100
AcDbEntity
  8
CURVE
100
AcDbLine
 62
7
  6
CONTINUOUS
 10
-60.6152842291
 20
4.037094
 30
0.0
 11
-60.6152842291
 21
6.086013
 31
0.0
  0
LINE
  5
532
100
AcDbEntity
  8
CURVE
100
AcDbLine
 62
7
  6
CONTINUOUS
 10
-60.6152842291
 20
6.720338
 30
0.0
 11
-60.6152842291
 21
7.238107
 31
0.0
  0
LINE
  5
533
100
AcDbEntity
  8
CURVE
100
AcDbLine
 62
7
  6
CONTINUOUS
 10
-60.6152842291
 20
7.853838
 30
0.0
 11
-60.6152842291
 21
8.371585
 31
0.0
  0
LINE
  5
534
100
AcDbEntity
  8
CURVE
100
AcDbLine
 62
7
  6
CONTINUOUS
 10
-60.6152842291
 20
9.656836
 30
0.0
 11
-60.6152842291
 21
10.35105
 31
0.0
  0
LINE
  5
535
100
AcDbEntity
  8
CURVE
100
AcDbLine
 62
7
  6
CONTINUOUS
 10
-60.6152842291
 20
13.66021
 30
0.0
 11
-60.6152842291
 21
14.166101
 31
0.0
  0
LINE
  5
536
100
AcDbEntity
  8
CURVE
100
AcDbLine
 62
7
  6
CONTINUOUS
 10
-60.6152842291
 20
15.503009
 30
0.0
 11
-60.6152842291
 21
16.001437
 31
0.0
  0
LINE
  5
537
100
AcDbEntity
  8
CURVE
100
AcDbLine
 62
7
  6
CONTINUOUS
 10
-60.1553043754
 20
6.086013
 30
0.0
 11
-60.1553103736
 21
4.554832
 31
0.0
  0
LINE
  5
538
100
AcDbEntity
  8
CURVE
100
AcDbLine
 62
7
  6
CONTINUOUS
 10
-59.4346599409
 20
4.554832
 30
0.0
 11
-59.4346499439
 21
5.982127
 31
0.0
  0
LINE
  5
539
100
AcDbEntity
  8
CURVE
100
AcDbLine
 62
250
  6
CONTINUOUS
 10
-59.3335976336
 20
-5.9328946758
 30
0.0
 11
-59.3335976336
 21
-6.2788012718
 31
0.0
  0
LINE
  5
53A
100
AcDbEntity
  8
CURVE
100
AcDbLine
 62
7
  6
CONTINUOUS
 10
-58.9746600933
 20
5.982127
 30
0.0
 11
-58.9746500963
 21
4.554832
 31
0.0
  0
LINE
  5
53B
100
AcDbEntity
  8
CURVE
100
AcDbLine
 62
250
  6
CONTINUOUS
 10
-58.8588491405
 20
-6.2587313832
 30
0.0
 11
-58.8588491405
 21
-5.9341993273
 31
0.0
  0
LINE
  5
53C
100
AcDbEntity
  8
CURVE
100
AcDbLine
 62
250
  6
CONTINUOUS
 10
-58.7509222616
 20
-8.5345
 30
0.0
 11
-58.7509222616
 21
-7.954996
 31
0.0
  0
LINE
  5
53D
100
AcDbEntity
  8
CURVE
100
AcDbLine
 62
7
  6
CONTINUOUS
 10
-57.9902308929
 20
4.037094
 30
0.0
 11
-57.717073254
 21
4.3102516389
 31
0.0
  0
LINE
  5
53E
100
AcDbEntity
  8
CURVE
100
AcDbLine
 62
250
  6
CONTINUOUS
 10
-50.716658035
 20
10.6452377319
 30
0.0
 11
-50.5309720455
 21
10.8309519291
 31
0.0
  0
LINE
  5
53F
100
AcDbEntity
  8
CURVE
100
AcDbLine
 62
250
  6
CONTINUOUS
 10
-50.716658035
 20
8.6023803234
 30
0.0
 11
-50.5309720455
 21
8.7880951405
 31
0.0
  0
LINE
  5
540
100
AcDbEntity
  8
CURVE
100
AcDbLine
 62
250
  6
CONTINUOUS
 10
-50.716658035
 20
2.8452377319
 30
0.0
 11
-49.9739140384
 21
3.21666632
 31
0.0
  0
LINE
  5
541
100
AcDbEntity
  8
CURVE
100
AcDbLine
 62
250
  6
CONTINUOUS
 10
-49.4168560313
 20
2.8452377319
 30
0.0
 11
-50.716658035
 21
2.8452377319
 31
0.0
  0
LINE
  5
542
100
AcDbEntity
  8
CURVE
100
AcDbLine
 62
250
  6
CONTINUOUS
 10
-50.716658035
 20
3.588094908
 30
0.0
 11
-49.4168560313
 21
3.588094908
 31
0.0
  0
LINE
  5
543
100
AcDbEntity
  8
CURVE
100
AcDbLine
 62
7
  6
CONTINUOUS
 10
-57.717073254
 20
4.037094
 30
0.0
 11
-60.6152842291
 21
4.037094
 31
0.0
  0
LINE
  5
544
100
AcDbEntity
  8
CURVE
100
AcDbLine
 62
250
  6
CONTINUOUS
 10
-53.3208037063
 20
-3.656396
 30
0.0
 11
-54.1175259615
 21
-3.180657
 31
0.0
  0
LINE
  5
545
100
AcDbEntity
  8
PORTATASTO
100
AcDbLine
 62
250
  6
CONTINUOUS
 10
-57.6289271695
 20
-23.7585444086
 30
0.0
 11
-57.6352488695
 21
-22.3059037278
 31
0.0
  0
LINE
  5
546
100
AcDbEntity
  8
CURVE
100
AcDbLine
 62
250
  6
CONTINUOUS
 10
-58.303128695
 20
-7.834033
 30
0.0
 11
-58.303128695
 21
-8.658312
 31
0.0
  0
LINE
  5
547
100
AcDbEntity
  8
CURVE
100
AcDbLine
 62
7
  6
CONTINUOUS
 10
-58.1770371125
 20
4.554832
 30
0.0
 11
-58.1770531076
 21
6.097666
 31
0.0
  0
LINE
  5
548
100
AcDbEntity
  8
CURVE
100
AcDbLine
 62
250
  6
CONTINUOUS
 10
-57.7244310122
 20
-7.039304
 30
0.0
 11
-57.7244310122
 21
-7.677235
 31
0.0
  0
LINE
  5
549
100
AcDbEntity
  8
CURVE
100
AcDbLine
 62
250
  6
CONTINUOUS
 10
-57.7244310122
 20
-8.825329
 30
0.0
 11
-57.7244310122
 21
-9.424033
 31
0.0
  0
LINE
  5
54A
100
AcDbEntity
  8
CURVE
100
AcDbLine
 62
250
  6
CONTINUOUS
 10
-57.7244310122
 20
-9.519077
 30
0.0
 11
-57.7244310122
 21
-10.111193
 31
0.0
  0
LINE
  5
54B
100
AcDbEntity
  8
CURVE
100
AcDbLine
 62
250
  6
CONTINUOUS
 10
-57.7244310122
 20
-10.955216
 30
0.0
 11
-57.7244310122
 21
-11.040105
 31
0.0
  0
LINE
  5
54C
100
AcDbEntity
  8
CURVE
100
AcDbLine
 62
250
  6
CONTINUOUS
 10
-57.7244310122
 20
-11.880779
 30
0.0
 11
-57.7244310122
 21
-12.459827
 31
0.0
  0
LINE
  5
54D
100
AcDbEntity
  8
CURVE
100
AcDbLine
 62
250
  6
CONTINUOUS
 10
-57.7244310122
 20
-14.547617
 30
0.0
 11
-57.7244310122
 21
-15.081013
 31
0.0
  0
LINE
  5
54E
100
AcDbEntity
  8
CURVE
100
AcDbLine
 62
250
  6
CONTINUOUS
 10
-57.7244310122
 20
-13.390935
 30
0.0
 11
-57.7244310122
 21
-12.785664
 31
0.0
  0
LINE
  5
54F
100
AcDbEntity
  8
CURVE
100
AcDbLine
 62
250
  6
CONTINUOUS
 10
-57.72443066
 20
-6.8615673444
 30
0.0
 11
-57.72443066
 21
-6.2587313832
 31
0.0
  0
LINE
  5
550
100
AcDbEntity
  8
CURVE
100
AcDbLine
 62
250
  6
CONTINUOUS
 10
-57.72443066
 20
-5.3318417383
 30
0.0
 11
-57.72443066
 21
-4.7496410148
 31
0.0
  0
LINE
  5
551
100
AcDbEntity
  8
CURVE
100
AcDbLine
 62
7
  6
CONTINUOUS
 10
-57.717073254
 20
16.001437
 30
0.0
 11
-57.717073254
 21
15.484078
 31
0.0
  0
LINE
  5
552
100
AcDbEntity
  8
CURVE
100
AcDbLine
 62
7
  6
CONTINUOUS
 10
-57.717073254
 20
14.158632
 30
0.0
 11
-57.717073254
 21
13.66021
 31
0.0
  0
LINE
  5
553
100
AcDbEntity
  8
CURVE
100
AcDbLine
 62
7
  6
CONTINUOUS
 10
-57.717073254
 20
10.357884
 30
0.0
 11
-57.717073254
 21
9.706581
 31
0.0
  0
LINE
  5
554
100
AcDbEntity
  8
CURVE
100
AcDbLine
 62
7
  6
CONTINUOUS
 10
-57.717073254
 20
8.371585
 30
0.0
 11
-57.717073254
 21
7.853838
 31
0.0
  0
LINE
  5
555
100
AcDbEntity
  8
CURVE
100
AcDbLine
 62
7
  6
CONTINUOUS
 10
-57.717073254
 20
7.238107
 30
0.0
 11
-57.717073254
 21
6.720338
 31
0.0
  0
LINE
  5
556
100
AcDbEntity
  8
CURVE
100
AcDbLine
 62
7
  6
CONTINUOUS
 10
-57.717073254
 20
6.097666
 30
0.0
 11
-57.717073254
 21
4.037094
 31
0.0
  0
LINE
  5
557
100
AcDbEntity
  8
PORTATASTO
100
AcDbLine
 62
7
  6
CONTINUOUS
 10
-57.7147542244
 20
23.4906890903
 30
0.0
 11
-57.7147542244
 21
22.8093109097
 31
0.0
  0
LINE
  5
558
100
AcDbEntity
  8
PORTATASTO
100
AcDbLine
 62
7
  6
CONTINUOUS
 10
-57.7147542244
 20
-22.8093109097
 30
0.0
 11
-57.7147542244
 21
-23.4906890903
 31
0.0
  0
LINE
  5
559
100
AcDbEntity
  8
PORTATASTO
100
AcDbLine
 62
7
  6
CONTINUOUS
 10
-57.2147542244
 20
-23.2659657686
 30
0.0
 11
-57.2147542244
 21
-22.3034573615
 31
0.0
  0
LINE
  5
55A
100
AcDbEntity
  8
PORTATASTO
100
AcDbLine
 62
7
  6
CONTINUOUS
 10
-57.2147542244
 20
22.3034573615
 30
0.0
 11
-57.2147542244
 21
23.2659657686
 31
0.0
  0
LINE
  5
55B
100
AcDbEntity
  8
CORPO
100
AcDbLine
 62
7
  6
CONTINUOUS
 10
-57.1147542244
 20
-20.7435241039
 30
0.0
 11
-57.1147542244
 21
-19.3006754942
 31
0.0
  0
LINE
  5
55C
100
AcDbEntity
  8
ASSI
100
AcDbLine
 62
7
  6
CONTINUOUS
 10
-57.1147542244
 20
-20.7435241039
 30
0.0
 11
-57.1147542244
 21
-19.3006754942
 31
0.0
  0
LINE
  5
55D
100
AcDbEntity
  8
CORPO
100
AcDbLine
 62
7
  6
CONTINUOUS
 10
-57.1147542244
 20
19.3006754942
 30
0.0
 11
-57.1147542244
 21
20.7435241039
 31
0.0
  0
LINE
  5
55E
100
AcDbEntity
  8
ASSI
100
AcDbLine
 62
7
  6
CONTINUOUS
 10
-57.1147542244
 20
19.3006754942
 30
0.0
 11
-57.1147542244
 21
20.7435241039
 31
0.0
  0
LINE
  5
55F
100
AcDbEntity
  8
PORTATASTO
100
AcDbLine
 62
250
  6
CONTINUOUS
 10
-57.6352488695
 20
22.3059037278
 30
0.0
 11
-57.6289271695
 21
23.7585444086
 31
0.0
  0
LWPOLYLINE
  5
560
100
AcDbEntity
  8
0
100
AcDbPolyline
 62
7
  6
CONTINUOUS
 90
3
 70
0
 43
0.3500000006
 10
-46.9290408783
 20
31.7627846832
 10
-47.0004675293
 20
31.5485001984
 10
-47.1433253632
 20
31.2627845306
  0
LINE
  5
561
100
AcDbEntity
  8
CURVE
100
AcDbLine
 62
250
  6
CONTINUOUS
 10
-49.7882280489
 20
5.7238090277
 30
0.0
 11
-50.345286056
 21
5.0738091826
 31
0.0
  0
LINE
  5
562
100
AcDbEntity
  8
CURVE
100
AcDbLine
 62
250
  6
CONTINUOUS
 10
-50.716658035
 20
5.6309519291
 30
0.0
 11
-50.6238150015
 21
5.7238090277
 31
0.0
  0
LINE
  5
563
100
AcDbEntity
  8
CURVE
100
AcDbLine
 62
250
  6
CONTINUOUS
 10
-49.5096990357
 20
5.0738091826
 30
0.0
 11
-49.4168560313
 21
5.1666662812
 31
0.0
  0
LINE
  5
564
100
AcDbEntity
  8
CURVE
100
AcDbLine
 62
250
  6
CONTINUOUS
 10
-54.1175259615
 20
-4.132134
 30
0.0
 11
-53.3208037063
 21
-3.656396
 31
0.0
  0
LINE
  5
565
100
AcDbEntity
  8
CURVE
100
AcDbLine
 62
250
  6
CONTINUOUS
 10
-60.6232008171
 20
-7.92899
 30
0.0
 11
-57.7244310122
 21
-7.039304
 31
0.0
  0
LINE
  5
566
100
AcDbEntity
  8
CURVE
100
AcDbLine
 62
7
  6
CONTINUOUS
 10
-60.1553103736
 20
4.554832
 30
0.0
 11
-59.4346599409
 21
4.554832
 31
0.0
  0
LINE
  5
567
100
AcDbEntity
  8
CURVE
100
AcDbLine
 62
7
  6
CONTINUOUS
 10
-58.9746500963
 20
4.554832
 30
0.0
 11
-58.1770371125
 21
4.554832
 31
0.0
  0
LINE
  5
568
100
AcDbEntity
  8
CURVE
100
AcDbLine
 62
250
  6
CONTINUOUS
 10
-50.345286056
 20
5.0738091826
 30
0.0
 11
-50.5309720455
 21
5.0738091826
 31
0.0
  0
LINE
  5
569
100
AcDbEntity
  8
CURVE
100
AcDbLine
 62
250
  6
CONTINUOUS
 10
-49.6025420401
 20
5.7238090277
 30
0.0
 11
-49.7882280489
 21
5.7238090277
 31
0.0
  0
LINE
  5
56A
100
AcDbEntity
  8
CURVE
100
AcDbLine
 62
7
  6
CONTINUOUS
 10
-59.4346499439
 20
5.982127
 30
0.0
 11
-58.9746600933
 21
5.982127
 31
0.0
  0
LINE
  5
56B
100
AcDbEntity
  8
CURVE
100
AcDbLine
 62
7
  6
CONTINUOUS
 10
-60.6152842291
 20
6.086013
 30
0.0
 11
-60.1553043754
 21
6.086013
 31
0.0
  0
LINE
  5
56C
100
AcDbEntity
  8
CURVE
100
AcDbLine
 62
7
  6
CONTINUOUS
 10
-58.1770531076
 20
6.097666
 30
0.0
 11
-57.717073254
 21
6.097666
 31
0.0
  0
LINE
  5
56D
100
AcDbEntity
  8
CURVE
100
AcDbLine
 62
250
  6
CONTINUOUS
 10
-49.4168560313
 20
6.4666664362
 30
0.0
 11
-50.716658035
 21
6.4666664362
 31
0.0
  0
LINE
  5
56E
100
AcDbEntity
  8
CURVE
100
AcDbLine
 62
7
  6
CONTINUOUS
 10
-57.717073254
 20
6.720338
 30
0.0
 11
-60.6152842291
 21
6.720338
 31
0.0
  0
LINE
  5
56F
100
AcDbEntity
  8
CURVE
100
AcDbLine
 62
250
  6
CONTINUOUS
 10
-49.4168560313
 20
7.2095235348
 30
0.0
 11
-50.716658035
 21
7.2095235348
 31
0.0
  0
LINE
  5
570
100
AcDbEntity
  8
CURVE
100
AcDbLine
 62
7
  6
CONTINUOUS
 10
-60.6152842291
 20
7.238107
 30
0.0
 11
-57.717073254
 21
7.238107
 31
0.0
  0
LINE
  5
571
100
AcDbEntity
  8
CURVE
100
AcDbLine
 62
7
  6
CONTINUOUS
 10
-57.717073254
 20
7.853838
 30
0.0
 11
-60.6152842291
 21
7.853838
 31
0.0
  0
LINE
  5
572
100
AcDbEntity
  8
CURVE
100
AcDbLine
 62
250
  6
CONTINUOUS
 10
-49.4168560313
 20
8.1380951405
 30
0.0
 11
-50.716658035
 21
8.1380951405
 31
0.0
  0
LINE
  5
573
100
AcDbEntity
  8
CURVE
100
AcDbLine
 62
7
  6
CONTINUOUS
 10
-58.7215002259
 20
8.371575
 30
0.0
 11
-57.717073254
 21
8.371585
 31
0.0
  0
LINE
  5
574
100
AcDbEntity
  8
CURVE
100
AcDbLine
 62
7
  6
CONTINUOUS
 10
-60.6152842291
 20
8.371585
 30
0.0
 11
-59.3516592295
 21
8.371575
 31
0.0
  0
LINE
  5
575
100
AcDbEntity
  8
CURVE
100
AcDbLine
 62
250
  6
CONTINUOUS
 10
-49.4168560313
 20
3.9595234573
 30
0.0
 11
-50.716658035
 21
4.3309520841
 31
0.0
  0
LINE
  5
576
100
AcDbEntity
  8
CURVE
100
AcDbLine
 62
250
  6
CONTINUOUS
 10
-54.3267581817
 20
10.3000008881
 30
0.0
 11
-54.3267581817
 21
9.8928580269
 31
0.0
  0
LINE
  5
577
100
AcDbEntity
  8
CURVE
100
AcDbLine
 62
250
  6
CONTINUOUS
 10
-54.3267581817
 20
11.5214294434
 30
0.0
 11
-54.3267581817
 21
11.6571436644
 31
0.0
  0
LINE
  5
578
100
AcDbEntity
  8
CURVE
100
AcDbLine
 62
250
  6
CONTINUOUS
 10
-54.3267581817
 20
15.1857152224
 30
0.0
 11
-54.3267581817
 21
16.0000010014
 31
0.0
  0
LINE
  5
579
100
AcDbEntity
  8
CURVE
100
AcDbLine
 62
250
  6
CONTINUOUS
 10
-54.1175259615
 20
-11.006258
 30
0.0
 11
-54.1175259615
 21
-11.953245
 31
0.0
  0
LINE
  5
57A
100
AcDbEntity
  8
CURVE
100
AcDbLine
 62
250
  6
CONTINUOUS
 10
-54.1175259615
 20
-12.839757
 30
0.0
 11
-54.1175259615
 21
-13.269593
 31
0.0
  0
LINE
  5
57B
100
AcDbEntity
  8
CURVE
100
AcDbLine
 62
250
  6
CONTINUOUS
 10
-54.1175259615
 20
-7.555145
 30
0.0
 11
-54.1175259615
 21
-6.499553
 31
0.0
  0
LWPOLYLINE
  5
57C
100
AcDbEntity
  8
0
100
AcDbPolyline
 62
7
  6
CONTINUOUS
 90
2
 70
0
 43
0.3500000006
 10
-54.0718963165
 20
40.9003475189
 10
-54.0718963165
 20
42.4003479767
  0
LINE
  5
57D
100
AcDbEntity
  8
PORTATASTO
100
AcDbLine
 62
250
  6
CONTINUOUS
 10
-53.7060280212
 20
-21.4537354271
 30
0.0
 11
-53.7060280212
 21
-20.9917082642
 31
0.0
  0
LINE
  5
57E
100
AcDbEntity
  8
PORTATASTO
100
AcDbLine
 62
250
  6
CONTINUOUS
 10
-53.7060280212
 20
20.9917082642
 30
0.0
 11
-53.7060280212
 21
21.4537354271
 31
0.0
  0
LINE
  5
57F
100
AcDbEntity
  8
CURVE
100
AcDbLine
 62
250
  6
CONTINUOUS
 10
-53.5125965356
 20
15.7285721064
 30
0.0
 11
-53.5125965356
 21
15.1857152224
 31
0.0
  0
LINE
  5
580
100
AcDbEntity
  8
CURVE
100
AcDbLine
 62
250
  6
CONTINUOUS
 10
-53.5125965356
 20
14.3714294434
 30
0.0
 11
-53.5125965356
 21
13.7833341837
 31
0.0
  0
LINE
  5
581
100
AcDbEntity
  8
CURVE
100
AcDbLine
 62
250
  6
CONTINUOUS
 10
-53.4677239427
 20
-11.953245
 30
0.0
 11
-53.4677239427
 21
-11.072654
 31
0.0
  0
LINE
  5
582
100
AcDbEntity
  8
CURVE
100
AcDbLine
 62
250
  6
CONTINUOUS
 10
-53.2896192075
 20
-6.223716
 30
0.0
 11
-53.2896192075
 21
-5.497059
 31
0.0
  0
LINE
  5
583
100
AcDbEntity
  8
CURVE
100
AcDbLine
 62
250
  6
CONTINUOUS
 10
-53.282180474
 20
-14.376702
 30
0.0
 11
-53.282180474
 21
-13.643517
 31
0.0
  0
LINE
  5
584
100
AcDbEntity
  8
CORPO
100
AcDbLine
 62
7
  6
CONTINUOUS
 10
-53.2147542244
 20
19.7872686779
 30
0.0
 11
-53.2147542244
 21
19.5254493507
 31
0.0
  0
LINE
  5
585
100
AcDbEntity
  8
ASSI
100
AcDbLine
 62
7
  6
CONTINUOUS
 10
-53.2147542244
 20
19.7872686779
 30
0.0
 11
-53.2147542244
 21
19.5254493507
 31
0.0
  0
LINE
  5
586
100
AcDbEntity
  8
CORPO
100
AcDbLine
 62
7
  6
CONTINUOUS
 10
-53.2147542244
 20
-19.5254493507
 30
0.0
 11
-53.2147542244
 21
-19.7872686779
 31
0.0
  0
LINE
  5
587
100
AcDbEntity
  8
ASSI
100
AcDbLine
 62
7
  6
CONTINUOUS
 10
-53.2147542244
 20
-19.5254493507
 30
0.0
 11
-53.2147542244
 21
-19.7872686779
 31
0.0
  0
LINE
  5
588
100
AcDbEntity
  8
PORTATASTO
100
AcDbLine
 62
7
  6
CONTINUOUS
 10
-53.2147542244
 20
-19.7872686779
 30
0.0
 11
-53.2147542244
 21
-21.2859869487
 31
0.0
  0
LINE
  5
589
100
AcDbEntity
  8
PORTATASTO
100
AcDbLine
 62
7
  6
CONTINUOUS
 10
-53.2147542244
 20
19.7872686779
 30
0.0
 11
-53.2147542244
 21
21.2859869487
 31
0.0
  0
LINE
  5
58A
100
AcDbEntity
  8
CURVE
100
AcDbLine
 62
250
  6
CONTINUOUS
 10
-52.8179219239
 20
-13.269593
 30
0.0
 11
-52.8179219239
 21
-12.839757
 31
0.0
  0
LINE
  5
58B
100
AcDbEntity
  8
CURVE
100
AcDbLine
 62
250
  6
CONTINUOUS
 10
-52.8179219239
 20
-11.953245
 30
0.0
 11
-52.8179219239
 21
-10.993568
 31
0.0
  0
LINE
  5
58C
100
AcDbEntity
  8
CURVE
100
AcDbLine
 62
250
  6
CONTINUOUS
 10
-52.8179219239
 20
-5.041082
 30
0.0
 11
-52.8179219239
 21
-4.294148
 31
0.0
  0
LINE
  5
58D
100
AcDbEntity
  8
CURVE
100
AcDbLine
 62
250
  6
CONTINUOUS
 10
-52.4270475609
 20
11.6571436644
 30
0.0
 11
-52.4270475609
 21
11.5214294434
 31
0.0
  0
LINE
  5
58E
100
AcDbEntity
  8
CURVE
100
AcDbLine
 62
250
  6
CONTINUOUS
 10
-52.4270475609
 20
10.5714294434
 30
0.0
 11
-52.4270475609
 21
9.6214294434
 31
0.0
  0
LINE
  5
58F
100
AcDbEntity
  8
CURVE
100
AcDbLine
 62
250
  6
CONTINUOUS
 10
-52.4270475609
 20
13.9642867804
 30
0.0
 11
-52.4270475609
 21
14.3714294434
 31
0.0
  0
LINE
  5
590
100
AcDbEntity
  8
CURVE
100
AcDbLine
 62
250
  6
CONTINUOUS
 10
-52.4270475609
 20
15.1857152224
 30
0.0
 11
-52.4270475609
 21
15.7285721064
 31
0.0
  0
LINE
  5
591
100
AcDbEntity
  8
CURVE
100
AcDbLine
 62
250
  6
CONTINUOUS
 10
-50.716658035
 20
5.2595233798
 30
0.0
 11
-50.716658035
 21
5.6309519291
 31
0.0
  0
LINE
  5
592
100
AcDbEntity
  8
CURVE
100
AcDbLine
 62
250
  6
CONTINUOUS
 10
-50.716658035
 20
6.0952377319
 30
0.0
 11
-50.716658035
 21
6.8380948305
 31
0.0
  0
LINE
  5
593
100
AcDbEntity
  8
CURVE
100
AcDbLine
 62
250
  6
CONTINUOUS
 10
-50.716658035
 20
7.2095235348
 30
0.0
 11
-50.716658035
 21
7.7666664362
 31
0.0
  0
LINE
  5
594
100
AcDbEntity
  8
CURVE
100
AcDbLine
 62
250
  6
CONTINUOUS
 10
-50.716658035
 20
8.1380951405
 30
0.0
 11
-50.716658035
 21
8.6023803234
 31
0.0
  0
LINE
  5
595
100
AcDbEntity
  8
CURVE
100
AcDbLine
 62
250
  6
CONTINUOUS
 10
-50.716658035
 20
10.1809519291
 30
0.0
 11
-50.716658035
 21
10.6452377319
 31
0.0
  0
LINE
  5
596
100
AcDbEntity
  8
CURVE
100
AcDbLine
 62
250
  6
CONTINUOUS
 10
-50.716658035
 20
14.4214286804
 30
0.0
 11
-50.716658035
 21
14.978570652
 31
0.0
  0
LINE
  5
597
100
AcDbEntity
  8
CURVE
100
AcDbLine
 62
250
  6
CONTINUOUS
 10
-50.716658035
 20
15.3499990463
 30
0.0
 11
-50.716658035
 21
15.8142854691
 31
0.0
  0
LINE
  5
598
100
AcDbEntity
  8
CURVE
100
AcDbLine
 62
250
  6
CONTINUOUS
 10
-52.8179219239
 20
-5.290054
 30
0.0
 11
-54.1175259615
 21
-5.860387
 31
0.0
  0
LINE
  5
599
100
AcDbEntity
  8
CURVE
100
AcDbLine
 62
250
  6
CONTINUOUS
 10
-57.7244310122
 20
-11.040105
 30
0.0
 11
-59.6172733024
 21
-11.750162
 31
0.0
  0
LINE
  5
59A
100
AcDbEntity
  8
CURVE
100
AcDbLine
 62
250
  6
CONTINUOUS
 10
-60.6232008171
 20
-11.593234
 30
0.0
 11
-59.0137951696
 21
-10.994355
 31
0.0
  0
LINE
  5
59B
100
AcDbEntity
  8
CURVE
100
AcDbLine
 62
250
  6
CONTINUOUS
 10
-50.5309720455
 20
8.7880951405
 30
0.0
 11
-50.1596000666
 21
8.7880951405
 31
0.0
  0
LINE
  5
59C
100
AcDbEntity
  8
CURVE
100
AcDbLine
 62
250
  6
CONTINUOUS
 10
-49.4168560313
 20
10.1809519291
 30
0.0
 11
-50.716658035
 21
10.1809519291
 31
0.0
  0
LINE
  5
59D
100
AcDbEntity
  8
CURVE
100
AcDbLine
 62
250
  6
CONTINUOUS
 10
-53.7839837509
 20
10.5714294434
 30
0.0
 11
-54.0553709663
 21
10.5714294434
 31
0.0
  0
LINE
  5
59E
100
AcDbEntity
  8
CURVE
100
AcDbLine
 62
250
  6
CONTINUOUS
 10
-50.5309720455
 20
10.8309519291
 30
0.0
 11
-49.6025420401
 21
10.8309519291
 31
0.0
  0
LINE
  5
59F
100
AcDbEntity
  8
CURVE
100
AcDbLine
 62
250
  6
CONTINUOUS
 10
-52.9698220482
 20
11.1142865539
 30
0.0
 11
-53.7839837509
 21
11.1142865539
 31
0.0
  0
LINE
  5
5A0
100
AcDbEntity
  8
CURVE
100
AcDbLine
 62
250
  6
CONTINUOUS
 10
-49.4168560313
 20
11.6047616005
 30
0.0
 11
-50.716658035
 21
11.6047616005
 31
0.0
  0
LINE
  5
5A1
100
AcDbEntity
  8
CURVE
100
AcDbLine
 62
250
  6
CONTINUOUS
 10
-53.7839837509
 20
12.0642865539
 30
0.0
 11
-52.9698220482
 21
12.0642865539
 31
0.0
  0
LINE
  5
5A2
100
AcDbEntity
  8
CURVE
100
AcDbLine
 62
250
  6
CONTINUOUS
 10
-49.4168560313
 20
12.1928570747
 30
0.0
 11
-50.716658035
 21
12.1928570747
 31
0.0
  0
LINE
  5
5A3
100
AcDbEntity
  8
RACCORDO
100
AcDbLine
 62
250
  6
CONTINUOUS
 10
-73.1376748102
 20
9.4905
 30
0.0
 11
-73.6244960771
 21
9.5
 31
0.0
  0
LINE
  5
5A4
100
AcDbEntity
  8
CURVE
100
AcDbLine
 62
250
  6
CONTINUOUS
 10
-49.9739140384
 20
3.21666632
 30
0.0
 11
-50.716658035
 21
3.588094908
 31
0.0
  0
LINE
  5
5A5
100
AcDbEntity
  8
CURVE
100
AcDbLine
 62
7
  6
CONTINUOUS
 10
-59.3516592295
 20
8.371575
 30
0.0
 11
-60.6152842291
 21
9.656836
 31
0.0
  0
LINE
  5
5A6
100
AcDbEntity
  8
CURVE
100
AcDbLine
 62
7
  6
CONTINUOUS
 10
-60.6152842291
 20
10.35105
 30
0.0
 11
-59.4226975856
 21
9.10422
 31
0.0
  0
LINE
  5
5A7
100
AcDbEntity
  8
CURVE
100
AcDbLine
 62
7
  6
CONTINUOUS
 10
-59.0666910534
 20
8.741819
 30
0.0
 11
-58.7215002259
 21
8.371575
 31
0.0
  0
LINE
  5
5A8
100
AcDbEntity
  8
0
100
AcDbLine
 62
250
  6
CONTINUOUS
 10
-39.2479452244
 20
-12.418978
 30
0.0
 11
-38.2147542244
 21
-13.75
 31
0.0
  0
LINE
  5
5A9
100
AcDbEntity
  8
CURVE
100
AcDbLine
 62
250
  6
CONTINUOUS
 10
-50.1596000666
 20
14.7928570747
 30
0.0
 11
-50.1596000666
 21
14.4214286804
 31
0.0
  0
LINE
  5
5AA
100
AcDbEntity
  8
CURVE
100
AcDbLine
 62
250
  6
CONTINUOUS
 10
-50.1596000666
 20
7.5809519291
 30
0.0
 11
-50.1596000666
 21
7.2095235348
 31
0.0
  0
LINE
  5
5AB
100
AcDbEntity
  8
CURVE
100
AcDbLine
 62
250
  6
CONTINUOUS
 10
-49.9739140384
 20
15.8142854691
 30
0.0
 11
-49.9739140384
 21
15.3499990463
 31
0.0
  0
LINE
  5
5AC
100
AcDbEntity
  8
CURVE
100
AcDbLine
 62
250
  6
CONTINUOUS
 10
-49.9739140384
 20
8.6023803234
 30
0.0
 11
-49.9739140384
 21
8.1380951405
 31
0.0
  0
LINE
  5
5AD
100
AcDbEntity
  8
CURVE
100
AcDbLine
 62
250
  6
CONTINUOUS
 10
-49.7882280489
 20
4.0833329737
 30
0.0
 11
-49.7882280489
 21
4.5785711169
 31
0.0
  0
LINE
  5
5AE
100
AcDbEntity
  8
CURVE
100
AcDbLine
 62
250
  6
CONTINUOUS
 10
-49.4168560313
 20
10.6452377319
 30
0.0
 11
-49.4168560313
 21
10.1809519291
 31
0.0
  0
LINE
  5
5AF
100
AcDbEntity
  8
CURVE
100
AcDbLine
 62
250
  6
CONTINUOUS
 10
-49.4168560313
 20
5.1666662812
 30
0.0
 11
-49.4168560313
 21
5.5380948305
 31
0.0
  0
LINE
  5
5B0
100
AcDbEntity
  8
CURVE
100
AcDbLine
 62
250
  6
CONTINUOUS
 10
-49.4168560313
 20
7.2095235348
 30
0.0
 11
-49.4168560313
 21
7.7666664362
 31
0.0
  0
LINE
  5
5B1
100
AcDbEntity
  8
CURVE
100
AcDbLine
 62
250
  6
CONTINUOUS
 10
-49.4168560313
 20
14.4214286804
 30
0.0
 11
-49.4168560313
 21
14.978570652
 31
0.0
  0
LINE
  5
5B2
100
AcDbEntity
  8
CURVE
100
AcDbLine
 62
250
  6
CONTINUOUS
 10
-52.8179219239
 20
-8.724819
 30
0.0
 11
-54.1175259615
 21
-9.756944
 31
0.0
  0
LINE
  5
5B3
100
AcDbEntity
  8
CURVE
100
AcDbLine
 62
250
  6
CONTINUOUS
 10
-57.7244310122
 20
-15.081013
 30
0.0
 11
-60.6232008171
 21
-16.00026
 31
0.0
  0
LINE
  5
5B4
100
AcDbEntity
  8
PORTATASTO
100
AcDbLine
 62
7
  6
CONTINUOUS
 10
-66.7147542244
 20
12.6998019735
 30
0.0
 11
-67.7147542244
 21
12.6998019735
 31
0.0
  0
LINE
  5
5B5
100
AcDbEntity
  8
CURVE
100
AcDbLine
 62
250
  6
CONTINUOUS
 10
-50.716658035
 20
12.9357138634
 30
0.0
 11
-49.4168560313
 21
12.9357138634
 31
0.0
  0
LINE
  5
5B6
100
AcDbEntity
  8
CURVE
100
AcDbLine
 62
250
  6
CONTINUOUS
 10
-54.3267581817
 20
13.1500007749
 30
0.0
 11
-52.4270475609
 21
13.1500007749
 31
0.0
  0
LINE
  5
5B7
100
AcDbEntity
  8
CURVE
100
AcDbLine
 62
250
  6
CONTINUOUS
 10
-49.4168560313
 20
13.3071422577
 30
0.0
 11
-50.716658035
 21
13.3071422577
 31
0.0
  0
LINE
  5
5B8
100
AcDbEntity
  8
CURVE
100
AcDbLine
 62
7
  6
CONTINUOUS
 10
-57.717073254
 20
13.66021
 30
0.0
 11
-60.6152842291
 21
13.66021
 31
0.0
  0
LINE
  5
5B9
100
AcDbEntity
  8
CURVE
100
AcDbLine
 62
250
  6
CONTINUOUS
 10
-53.3769028713
 20
13.6928578854
 30
0.0
 11
-52.6984348045
 21
13.6928578854
 31
0.0
  0
LINE
  5
5BA
100
AcDbEntity
  8
CURVE
100
AcDbLine
 62
250
  6
CONTINUOUS
 10
-50.716658035
 20
14.0499990463
 30
0.0
 11
-49.4168560313
 21
14.0499990463
 31
0.0
  0
LINE
  5
5BB
100
AcDbEntity
  8
DRAFT
100
AcDbLine
 62
7
  6
CONTINUOUS
 10
-31.6881372777
 20
14.1
 30
0.0
 11
-31.7147542244
 21
14.1
 31
0.0
  0
LINE
  5
5BC
100
AcDbEntity
  8
CURVE
100
AcDbLine
 62
250
  6
CONTINUOUS
 10
-49.4168560313
 20
14.4214286804
 30
0.0
 11
-50.716658035
 21
14.4214286804
 31
0.0
  0
LINE
  5
5BD
100
AcDbEntity
  8
CURVE
100
AcDbLine
 62
250
  6
CONTINUOUS
 10
-52.6984348045
 20
14.6428578854
 30
0.0
 11
-53.2412092636
 21
14.6428578854
 31
0.0
  0
LINE
  5
5BE
100
AcDbEntity
  8
CURVE
100
AcDbLine
 62
250
  6
CONTINUOUS
 10
-53.5125965356
 20
15.1857152224
 30
0.0
 11
-54.3267581817
 21
15.1857152224
 31
0.0
  0
LINE
  5
5BF
100
AcDbEntity
  8
PORTATASTO
100
AcDbLine
 62
7
  6
CONTINUOUS
 10
-66.7147542244
 20
15.3001980265
 30
0.0
 11
-67.7147542244
 21
15.3001980265
 31
0.0
  0
LINE
  5
5C0
100
AcDbEntity
  8
CURVE
100
AcDbLine
 62
250
  6
CONTINUOUS
 10
-49.4168560313
 20
15.3499990463
 30
0.0
 11
-50.716658035
 21
15.3499990463
 31
0.0
  0
LINE
  5
5C1
100
AcDbEntity
  8
CURVE
100
AcDbLine
 62
7
  6
CONTINUOUS
 10
-58.5683338925
 20
15.502999
 30
0.0
 11
-60.6152842291
 21
15.503009
 31
0.0
  0
LINE
  5
5C2
100
AcDbEntity
  8
CURVE
100
AcDbLine
 62
250
  6
CONTINUOUS
 10
-50.5309720455
 20
15.9999990463
 30
0.0
 11
-50.1596000666
 21
15.9999990463
 31
0.0
  0
LINE
  5
5C3
100
AcDbEntity
  8
CURVE
100
AcDbLine
 62
250
  6
CONTINUOUS
 10
-52.6984348045
 20
16.0000010014
 30
0.0
 11
-53.2412092636
 21
16.0000010014
 31
0.0
  0
LINE
  5
5C4
100
AcDbEntity
  8
CURVE
100
AcDbLine
 62
7
  6
CONTINUOUS
 10
-60.6152842291
 20
16.001437
 30
0.0
 11
-57.717073254
 21
16.001437
 31
0.0
  0
LINE
  5
5C5
100
AcDbEntity
  8
CURVE
100
AcDbLine
 62
7
  6
CONTINUOUS
 10
-59.7416823975
 20
14.165656
 30
0.0
 11
-57.717073254
 21
14.158632
 31
0.0
  0
LINE
  5
5C6
100
AcDbEntity
  8
CURVE
100
AcDbLine
 62
250
  6
CONTINUOUS
 10
-53.7839837509
 20
11.1142865539
 30
0.0
 11
-54.0553709663
 21
11.2500008881
 31
0.0
  0
LINE
  5
5C7
100
AcDbEntity
  8
CURVE
100
AcDbLine
 62
250
  6
CONTINUOUS
 10
-52.9698220482
 20
12.0642865539
 30
0.0
 11
-52.6984348045
 21
11.9285723329
 31
0.0
  0
LINE
  5
5C8
100
AcDbEntity
  8
CURVE
100
AcDbLine
 62
250
  6
CONTINUOUS
 10
-54.3267581817
 20
9.8928580269
 30
0.0
 11
-53.919677302
 21
9.6214294434
 31
0.0
  0
LINE
  5
5C9
100
AcDbEntity
  8
CURVE
100
AcDbLine
 62
250
  6
CONTINUOUS
 10
-52.4270475609
 20
9.6214294434
 30
0.0
 11
-53.7839837509
 21
10.5714294434
 31
0.0
  0
LINE
  5
5CA
100
AcDbEntity
  8
CURVE
100
AcDbLine
 62
250
  6
CONTINUOUS
 10
-50.5309720455
 20
5.0738091826
 30
0.0
 11
-50.716658035
 21
5.2595233798
 31
0.0
  0
LINE
  5
5CB
100
AcDbEntity
  8
CURVE
100
AcDbLine
 62
250
  6
CONTINUOUS
 10
-49.4168560313
 20
5.5380948305
 30
0.0
 11
-49.6025420401
 21
5.7238090277
 31
0.0
  0
LINE
  5
5CC
100
AcDbEntity
  8
CURVE
100
AcDbLine
 62
250
  6
CONTINUOUS
 10
-54.0553709663
 20
11.2500008881
 30
0.0
 11
-54.3267581817
 21
11.5214294434
 31
0.0
  0
LINE
  5
5CD
100
AcDbEntity
  8
CURVE
100
AcDbLine
 62
250
  6
CONTINUOUS
 10
-50.1596000666
 20
8.7880951405
 30
0.0
 11
-49.9739140384
 21
8.6023803234
 31
0.0
  0
LINE
  5
5CE
100
AcDbEntity
  8
CURVE
100
AcDbLine
 62
250
  6
CONTINUOUS
 10
-53.7839837509
 20
12.6071436644
 30
0.0
 11
-54.3267581817
 21
13.1500007749
 31
0.0
  0
LINE
  5
5CF
100
AcDbEntity
  8
CURVE
100
AcDbLine
 62
250
  6
CONTINUOUS
 10
-52.6984348045
 20
11.9285723329
 30
0.0
 11
-52.4270475609
 21
11.6571436644
 31
0.0
  0
LINE
  5
5D0
100
AcDbEntity
  8
CURVE
100
AcDbLine
 62
250
  6
CONTINUOUS
 10
-46.1429956357
 20
-10.825388
 30
0.0
 11
-46.1429956357
 21
-9.364888
 31
0.0
  0
LINE
  5
5D1
100
AcDbEntity
  8
CURVE
100
AcDbLine
 62
250
  6
CONTINUOUS
 10
-45.3932240756
 20
-9.364888
 30
0.0
 11
-45.3932240756
 21
-10.825388
 31
0.0
  0
LINE
  5
5D2
100
AcDbEntity
  8
CORPO
100
AcDbLine
 62
7
  6
CONTINUOUS
 10
-44.2147542244
 20
19.0755051566
 30
0.0
 11
-44.2147542244
 21
19.3683537664
 31
0.0
  0
LINE
  5
5D3
100
AcDbEntity
  8
ASSI
100
AcDbLine
 62
7
  6
CONTINUOUS
 10
-44.2147542244
 20
19.0755051566
 30
0.0
 11
-44.2147542244
 21
19.3683537664
 31
0.0
  0
LINE
  5
5D4
100
AcDbEntity
  8
PORTATASTO
100
AcDbLine
 62
7
  6
CONTINUOUS
 10
-67.5897542244
 20
-23.7278312164
 30
0.0
 11
-66.8397542244
 21
-23.2948185145
 31
0.0
  0
LINE
  5
5D5
100
AcDbEntity
  8
PORTATASTO
100
AcDbLine
 62
250
  6
CONTINUOUS
 10
-67.4660632154
 20
-23.9443375673
 30
0.0
 11
-66.7160632154
 21
-23.5113248654
 31
0.0
  0
LINE
  5
5D6
100
AcDbEntity
  8
CURVE
100
AcDbLine
 62
250
  6
CONTINUOUS
 10
-52.8179219239
 20
-15.377131
 30
0.0
 11
-54.1175259615
 21
-16.0
 31
0.0
  0
LINE
  5
5D7
100
AcDbEntity
  8
CURVE
100
AcDbLine
 62
250
  6
CONTINUOUS
 10
-52.8179219239
 20
-13.439776
 30
0.0
 11
-54.1175259615
 21
-14.01011
 31
0.0
  0
LINE
  5
5D8
100
AcDbEntity
  8
PORTATASTO
100
AcDbLine
 62
250
  6
CONTINUOUS
 10
-66.7147542244
 20
16.9001028025
 30
0.0
 11
-67.7147542244
 21
16.8739168809
 31
0.0
  0
LINE
  5
5D9
100
AcDbEntity
  8
PORTATASTO
100
AcDbLine
 62
7
  6
CONTINUOUS
 10
-66.7147542244
 20
17.2
 30
0.0
 11
-67.7147542244
 21
17.1738140784
 31
0.0
  0
LINE
  5
5DA
100
AcDbEntity
  8
PORTATASTO
100
AcDbLine
 62
7
  6
CONTINUOUS
 10
-67.7147542244
 20
18.0078557765
 30
0.0
 11
-66.7147542244
 21
18.034041698
 31
0.0
  0
LINE
  5
5DB
100
AcDbEntity
  8
PORTATASTO
100
AcDbLine
 62
250
  6
CONTINUOUS
 10
-67.7147542244
 20
19.6739168809
 30
0.0
 11
-66.7147542244
 21
19.7001028025
 31
0.0
  0
LINE
  5
5DC
100
AcDbEntity
  8
PORTATASTO
100
AcDbLine
 62
7
  6
CONTINUOUS
 10
-67.7147542244
 20
19.9738140784
 30
0.0
 11
-66.7147542244
 21
20.0
 31
0.0
  0
LINE
  5
5DD
100
AcDbEntity
  8
PORTATASTO
100
AcDbLine
 62
7
  6
CONTINUOUS
 10
-67.7147542244
 20
17.2389072728
 30
0.0
 11
-66.715737733
 21
17.2563451705
 31
0.0
  0
LINE
  5
5DE
100
AcDbEntity
  8
RACCORDO
100
AcDbLine
 62
250
  6
CONTINUOUS
 10
-32.6966194335
 20
17.0674431307
 30
0.0
 11
-31.7141099169
 21
17.0761696662
 31
0.0
  0
LINE
  5
5DF
100
AcDbEntity
  8
PORTATASTO
100
AcDbLine
 62
7
  6
CONTINUOUS
 10
-64.2147542244
 20
18.5587268678
 30
0.0
 11
-63.2147542244
 21
18.5674537356
 31
0.0
  0
LINE
  5
5E0
100
AcDbEntity
  8
PORTATASTO
100
AcDbLine
 62
7
  6
CONTINUOUS
 10
-53.2147542244
 20
19.7872686779
 30
0.0
 11
-57.1147542244
 21
19.7532338935
 31
0.0
  0
LINE
  5
5E1
100
AcDbEntity
  8
PORTATASTO
100
AcDbLine
 62
7
  6
CONTINUOUS
 10
-63.2147542244
 20
19.7
 30
0.0
 11
-64.2147542244
 21
19.6912731322
 31
0.0
  0
LINE
  5
5E2
100
AcDbEntity
  8
RACCORDO
100
AcDbLine
 62
7
  6
CONTINUOUS
 10
-31.7082090736
 20
16.4
 30
0.0
 11
-39.8712993753
 21
16.4
 31
0.0
  0
LINE
  5
5E3
100
AcDbEntity
  8
DRAFT
100
AcDbLine
 62
7
  6
CONTINUOUS
 10
-40.7987288206
 20
16.65
 30
0.0
 11
-39.8691176583
 21
16.65
 31
0.0
  0
LINE
  5
5E4
100
AcDbEntity
  8
PORTATASTO
100
AcDbLine
 62
7
  6
CONTINUOUS
 10
-64.2147542244
 20
19.5
 30
0.0
 11
-63.2147542244
 21
19.5
 31
0.0
  0
LINE
  5
5E5
100
AcDbEntity
  8
CORPO
100
AcDbLine
 62
250
  6
CONTINUOUS
 10
-41.3147542244
 20
17.5133593194
 30
0.0
 11
-63.2147542244
 21
17.6716990487
 31
0.0
  0
LINE
  5
5E6
100
AcDbEntity
  8
ASSI
100
AcDbLine
 62
250
  6
CONTINUOUS
 10
-41.3147542244
 20
17.5133593194
 30
0.0
 11
-63.2147542244
 21
17.6716990487
 31
0.0
  0
LINE
  5
5E7
100
AcDbEntity
  8
CORPO
100
AcDbLine
 62
250
  6
CONTINUOUS
 10
-41.3147542244
 20
18.9273574902
 30
0.0
 11
-63.2147542244
 21
19.0856972195
 31
0.0
  0
LINE
  5
5E8
100
AcDbEntity
  8
ASSI
100
AcDbLine
 62
250
  6
CONTINUOUS
 10
-41.3147542244
 20
18.9273574902
 30
0.0
 11
-63.2147542244
 21
19.0856972195
 31
0.0
  0
LINE
  5
5E9
100
AcDbEntity
  8
RACCORDO
100
AcDbLine
 62
250
  6
CONTINUOUS
 10
-39.3557150779
 20
17.1836780775
 30
0.0
 11
-39.8644222426
 21
17.1880413452
 31
0.0
  0
LINE
  5
5EA
100
AcDbEntity
  8
CORPO
100
AcDbLine
 62
7
  6
CONTINUOUS
 10
-31.7147542244
 20
16.2869096983
 30
0.0
 11
-41.3147542244
 21
16.3706876291
 31
0.0
  0
LINE
  5
5EB
100
AcDbEntity
  8
ASSI
100
AcDbLine
 62
7
  6
CONTINUOUS
 10
-31.7147542244
 20
16.2869096983
 30
0.0
 11
-41.3147542244
 21
16.3706876291
 31
0.0
  0
LINE
  5
5EC
100
AcDbEntity
  8
RACCORDO
100
AcDbLine
 62
250
  6
CONTINUOUS
 10
-39.3557150779
 20
17.1836780775
 30
0.0
 11
-32.6966194335
 21
17.0674431307
 31
0.0
  0
LINE
  5
5ED
100
AcDbEntity
  8
CORPO
100
AcDbLine
 62
250
  6
CONTINUOUS
 10
-57.1147542244
 20
19.3006754942
 30
0.0
 11
-44.2147542244
 21
19.0755051566
 31
0.0
  0
LINE
  5
5EE
100
AcDbEntity
  8
ASSI
100
AcDbLine
 62
250
  6
CONTINUOUS
 10
-57.1147542244
 20
19.3006754942
 30
0.0
 11
-44.2147542244
 21
19.0755051566
 31
0.0
  0
LINE
  5
5EF
100
AcDbEntity
  8
RACCORDO
100
AcDbLine
 62
7
  6
CONTINUOUS
 10
-39.3426287633
 20
19.1831450453
 30
0.0
 11
-32.7053463015
 21
19.067290849
 31
0.0
  0
LINE
  5
5F0
100
AcDbEntity
  8
CORPO
100
AcDbLine
 62
7
  6
CONTINUOUS
 10
-32.697301818
 20
19.1673158868
 30
0.0
 11
-57.1147542244
 21
19.5935241039
 31
0.0
  0
LINE
  5
5F1
100
AcDbEntity
  8
ASSI
100
AcDbLine
 62
7
  6
CONTINUOUS
 10
-32.697301818
 20
19.1673158868
 30
0.0
 11
-57.1147542244
 21
19.5935241039
 31
0.0
  0
LINE
  5
5F2
100
AcDbEntity
  8
CORPO
100
AcDbLine
 62
7
  6
CONTINUOUS
 10
-44.2147542244
 20
19.1809813985
 30
0.0
 11
-41.3147542244
 21
19.1093943488
 31
0.0
  0
LINE
  5
5F3
100
AcDbEntity
  8
ASSI
100
AcDbLine
 62
7
  6
CONTINUOUS
 10
-44.2147542244
 20
19.1809813985
 30
0.0
 11
-41.3147542244
 21
19.1093943488
 31
0.0
  0
LINE
  5
5F4
100
AcDbEntity
  8
PORTATASTO
100
AcDbLine
 62
7
  6
CONTINUOUS
 10
-65.2147542244
 20
18.5
 30
0.0
 11
-63.2147542244
 21
18.1473460386
 31
0.0
  0
LINE
  5
5F5
100
AcDbEntity
  8
CURVE
100
AcDbLine
 62
250
  6
CONTINUOUS
 10
-53.919677302
 20
13.9642867804
 30
0.0
 11
-53.3769028713
 21
13.6928578854
 31
0.0
  0
LINE
  5
5F6
100
AcDbEntity
  8
CURVE
100
AcDbLine
 62
250
  6
CONTINUOUS
 10
-49.9739140384
 20
12.5642854691
 30
0.0
 11
-50.716658035
 21
12.9357138634
 31
0.0
  0
LINE
  5
5F7
100
AcDbEntity
  8
CURVE
100
AcDbLine
 62
250
  6
CONTINUOUS
 10
-49.9739140384
 20
13.678570652
 30
0.0
 11
-50.716658035
 21
14.0499990463
 31
0.0
  0
LINE
  5
5F8
100
AcDbEntity
  8
PORTATASTO
100
AcDbLine
 62
7
  6
CONTINUOUS
 10
-66.8397542244
 20
23.2948185145
 30
0.0
 11
-67.5897542244
 21
23.7278312164
 31
0.0
  0
LINE
  5
5F9
100
AcDbEntity
  8
PORTATASTO
100
AcDbLine
 62
250
  6
CONTINUOUS
 10
-66.7160632154
 20
23.5113248654
 30
0.0
 11
-67.4660632154
 21
23.9443375673
 31
0.0
  0
LINE
  5
5FA
100
AcDbEntity
  8
CURVE
100
AcDbLine
 62
250
  6
CONTINUOUS
 10
-54.3267581817
 20
14.3714294434
 30
0.0
 11
-53.919677302
 21
13.9642867804
 31
0.0
  0
LINE
  5
5FB
100
AcDbEntity
  8
CURVE
100
AcDbLine
 62
250
  6
CONTINUOUS
 10
-49.6025420401
 20
10.8309519291
 30
0.0
 11
-49.4168560313
 21
10.6452377319
 31
0.0
  0
LINE
  5
5FC
100
AcDbEntity
  8
CURVE
100
AcDbLine
 62
250
  6
CONTINUOUS
 10
-52.4270475609
 20
14.3714294434
 30
0.0
 11
-52.6984348045
 21
14.6428578854
 31
0.0
  0
LINE
  5
5FD
100
AcDbEntity
  8
CURVE
100
AcDbLine
 62
250
  6
CONTINUOUS
 10
-52.4270475609
 20
15.7285721064
 30
0.0
 11
-52.6984348045
 21
16.0000010014
 31
0.0
  0
LINE
  5
5FE
100
AcDbEntity
  8
CORPO
100
AcDbLine
 62
7
  6
CONTINUOUS
 10
-41.3147542244
 20
16.3706876291
 30
0.0
 11
-41.3147542244
 21
19.1093943488
 31
0.0
  0
LINE
  5
5FF
100
AcDbEntity
  8
ASSI
100
AcDbLine
 62
7
  6
CONTINUOUS
 10
-41.3147542244
 20
16.3706876291
 30
0.0
 11
-41.3147542244
 21
19.1093943488
 31
0.0
  0
LINE
  5
600
100
AcDbEntity
  8
0
100
AcDbLine
 62
250
  6
CONTINUOUS
 10
-39.8501602244
 20
-13.502211
 30
0.0
 11
-39.8501602244
 21
-13.997789
 31
0.0
  0
LINE
  5
601
100
AcDbEntity
  8
RACCORDO
100
AcDbLine
 62
7
  6
CONTINUOUS
 10
-39.8513359281
 20
18.6875844655
 30
0.0
 11
-39.8712993753
 21
16.4
 31
0.0
  0
LINE
  5
602
100
AcDbEntity
  8
RACCORDO
100
AcDbLine
 62
250
  6
CONTINUOUS
 10
-39.3557150779
 20
17.1836780775
 30
0.0
 11
-39.3625541329
 21
16.4
 31
0.0
  0
LINE
  5
603
100
AcDbEntity
  8
CORPO
100
AcDbLine
 62
250
  6
CONTINUOUS
 10
-53.0551729927
 20
-19.52266385
 30
0.0
 11
-53.2147542244
 21
-19.5807466683
 31
0.0
  0
LINE
  5
604
100
AcDbEntity
  8
ASSI
100
AcDbLine
 62
250
  6
CONTINUOUS
 10
-53.0551729927
 20
-19.52266385
 30
0.0
 11
-53.2147542244
 21
-19.5807466683
 31
0.0
  0
LINE
  5
605
100
AcDbEntity
  8
CORPO
100
AcDbLine
 62
7
  6
CONTINUOUS
 10
-52.1338472904
 20
-19.50658205
 30
0.0
 11
-53.2147542244
 21
-19.9
 31
0.0
  0
LINE
  5
606
100
AcDbEntity
  8
ASSI
100
AcDbLine
 62
7
  6
CONTINUOUS
 10
-52.1338472904
 20
-19.50658205
 30
0.0
 11
-53.2147542244
 21
-19.9
 31
0.0
  0
LINE
  5
607
100
AcDbEntity
  8
RACCORDO
100
AcDbLine
 62
250
  6
CONTINUOUS
 10
-67.7147542244
 20
21.6999997649
 30
0.0
 11
-71.6953689754
 21
21.4913845856
 31
0.0
  0
LINE
  5
608
100
AcDbEntity
  8
PORTATASTO
100
AcDbLine
 62
250
  6
CONTINUOUS
 10
-65.2147542244
 20
21.8497711479
 30
0.0
 11
-66.7147542244
 21
21.771159479
 31
0.0
  0
LINE
  5
609
100
AcDbEntity
  8
RACCORDO
100
AcDbLine
 62
7
  6
CONTINUOUS
 10
-67.7147542244
 20
22.2
 30
0.0
 11
-71.7084484794
 21
21.990699353
 31
0.0
  0
LINE
  5
60A
100
AcDbEntity
  8
PORTATASTO
100
AcDbLine
 62
7
  6
CONTINUOUS
 10
-65.2147542244
 20
22.35
 30
0.0
 11
-66.7147542244
 21
22.2713883311
 31
0.0
  0
LINE
  5
60B
100
AcDbEntity
  8
PORTATASTO
100
AcDbLine
 62
7
  6
CONTINUOUS
 10
-53.2147542244
 20
20.9959955457
 30
0.0
 11
-64.2147542244
 21
20.9
 31
0.0
  0
LINE
  5
60C
100
AcDbEntity
  8
PORTATASTO
100
AcDbLine
 62
7
  6
CONTINUOUS
 10
-53.7060280212
 20
21.4537354271
 30
0.0
 11
-64.2147542244
 21
21.4
 31
0.0
  0
LINE
  5
60D
100
AcDbEntity
  8
PORTATASTO
100
AcDbLine
 62
250
  6
CONTINUOUS
 10
-66.7147542244
 20
23.0783121635
 30
0.0
 11
-66.4660632154
 21
23.0783121635
 31
0.0
  0
LINE
  5
60E
100
AcDbEntity
  8
PORTATASTO
100
AcDbLine
 62
250
  6
CONTINUOUS
 10
-67.4660632154
 20
23.9443375673
 30
0.0
 11
-67.7147542244
 21
23.9443375673
 31
0.0
  0
LINE
  5
60F
100
AcDbEntity
  8
PORTATASTO
100
AcDbLine
 62
7
  6
CONTINUOUS
 10
-57.7095183324
 20
23.7659383532
 30
0.0
 11
-64.2147542244
 21
23.8
 31
0.0
  0
LINE
  5
610
100
AcDbEntity
  8
PORTATASTO
100
AcDbLine
 62
250
  6
CONTINUOUS
 10
-64.2147542244
 20
21.8441990932
 30
0.0
 11
-65.2147542244
 21
21.850016923
 31
0.0
  0
LINE
  5
611
100
AcDbEntity
  8
PORTATASTO
100
AcDbLine
 62
7
  6
CONTINUOUS
 10
-54.2089364931
 20
22.2859700255
 30
0.0
 11
-65.2147542244
 21
22.35
 31
0.0
  0
LINE
  5
612
100
AcDbEntity
  8
CORPO
100
AcDbLine
 62
7
  6
CONTINUOUS
 10
-57.1147542244
 20
20.7435241039
 30
0.0
 11
-63.2147542244
 21
20.85
 31
0.0
  0
LINE
  5
613
100
AcDbEntity
  8
ASSI
100
AcDbLine
 62
7
  6
CONTINUOUS
 10
-57.1147542244
 20
20.7435241039
 30
0.0
 11
-63.2147542244
 21
20.85
 31
0.0
  0
LINE
  5
614
100
AcDbEntity
  8
CORPO
100
AcDbLine
 62
250
  6
CONTINUOUS
 10
-53.2147542244
 20
19.5807466683
 30
0.0
 11
-53.0551729927
 21
19.52266385
 31
0.0
  0
LINE
  5
615
100
AcDbEntity
  8
ASSI
100
AcDbLine
 62
250
  6
CONTINUOUS
 10
-53.2147542244
 20
19.5807466683
 30
0.0
 11
-53.0551729927
 21
19.52266385
 31
0.0
  0
LINE
  5
616
100
AcDbEntity
  8
CORPO
100
AcDbLine
 62
7
  6
CONTINUOUS
 10
-53.2147542244
 20
19.9
 30
0.0
 11
-52.1338472904
 21
19.50658205
 31
0.0
  0
LINE
  5
617
100
AcDbEntity
  8
ASSI
100
AcDbLine
 62
7
  6
CONTINUOUS
 10
-53.2147542244
 20
19.9
 30
0.0
 11
-52.1338472904
 21
19.50658205
 31
0.0
  0
LINE
  5
618
100
AcDbEntity
  8
CURVE
100
AcDbLine
 62
250
  6
CONTINUOUS
 10
-50.1596000666
 20
15.9999990463
 30
0.0
 11
-49.9739140384
 21
15.8142854691
 31
0.0
  0
LINE
  5
619
100
AcDbEntity
  8
0
100
AcDbLine
 62
250
  6
CONTINUOUS
 10
-36.5793482244
 20
-13.502211
 30
0.0
 11
-36.5793482244
 21
-13.997789
 31
0.0
  0
LINE
  5
61A
100
AcDbEntity
  8
0
100
AcDbLine
 62
250
  6
CONTINUOUS
 10
-35.9648322244
 20
-13.75
 30
0.0
 11
-35.9648322244
 21
-13.214776
 31
0.0
  0
LINE
  5
61B
100
AcDbEntity
  8
RACCORDO
100
AcDbLine
 62
7
  6
CONTINUOUS
 10
-38.3712993753
 20
16.4
 30
0.0
 11
-38.3717793122
 21
16.3450046761
 31
0.0
  0
LINE
  5
61C
100
AcDbEntity
  8
0
100
AcDbLine
 62
250
  6
CONTINUOUS
 10
-38.2147542244
 20
-13.75
 30
0.0
 11
-39.2479452244
 21
-15.081022
 31
0.0
  0
LINE
  5
61D
100
AcDbEntity
  8
PORTATASTO
100
AcDbLine
 62
250
  6
CONTINUOUS
 10
-67.4660632154
 20
24.2329794573
 30
0.0
 11
-64.2147542244
 21
24.2500034269
 31
0.0
  0
LINE
  5
61E
100
AcDbEntity
  8
PORTATASTO
100
AcDbLine
 62
7
  6
CONTINUOUS
 10
-67.4660632154
 20
24.4829760304
 30
0.0
 11
-64.2147542244
 21
24.5
 31
0.0
  0
LINE
  5
61F
100
AcDbEntity
  8
PORTATASTO
100
AcDbLine
 62
250
  6
CONTINUOUS
 10
-67.7147542244
 20
24.2329794573
 30
0.0
 11
-67.4660632154
 21
24.2329794573
 31
0.0
  0
LINE
  5
620
100
AcDbEntity
  8
0
100
AcDbLine
 62
7
  6
CONTINUOUS
 10
-41.3147542244
 20
16.9479274058
 30
0.0
 11
-40.7987288206
 21
16.65
 31
0.0
  0
LINE
  5
621
100
AcDbEntity
  8
CORPO
100
AcDbLine
 62
7
  6
CONTINUOUS
 10
-44.0898709921
 20
19.1778986322
 30
0.0
 11
-44.2147542244
 21
19.25
 31
0.0
  0
LINE
  5
622
100
AcDbEntity
  8
ASSI
100
AcDbLine
 62
7
  6
CONTINUOUS
 10
-44.0898709921
 20
19.1778986322
 30
0.0
 11
-44.2147542244
 21
19.25
 31
0.0
  0
LINE
  5
623
100
AcDbEntity
  8
DRAFT
100
AcDbLine
 62
7
  6
CONTINUOUS
 10
-33.2073358218
 20
16.2999352606
 30
0.0
 11
-33.2082090736
 21
16.4
 31
0.0
  0
LINE
  5
624
100
AcDbEntity
  8
RACCORDO
100
AcDbLine
 62
250
  6
CONTINUOUS
 10
-32.6907947455
 20
16.4
 30
0.0
 11
-32.6966194335
 21
17.0674431307
 31
0.0
  0
LINE
  5
625
100
AcDbEntity
  8
DRAFT
100
AcDbLine
 62
7
  6
CONTINUOUS
 10
-31.6881372777
 20
14.1
 30
0.0
 11
-31.7082090736
 21
16.4
 31
0.0
  0
LINE
  5
626
100
AcDbEntity
  8
RACCORDO
100
AcDbLine
 62
7
  6
CONTINUOUS
 10
-31.7082090736
 20
16.4
 30
0.0
 11
-31.7228367849
 21
18.0761696894
 31
0.0
  0
LINE
  5
627
100
AcDbEntity
  8
CORPO
100
AcDbLine
 62
250
  6
CONTINUOUS
 10
-32.697301818
 20
16.2954842613
 30
0.0
 11
-32.697301818
 21
-17.4510540646
 31
0.0
  0
LINE
  5
628
100
AcDbEntity
  8
ASSI
100
AcDbLine
 62
250
  6
CONTINUOUS
 10
-32.697301818
 20
16.2954842613
 30
0.0
 11
-32.697301818
 21
-17.4510540646
 31
0.0
  0
LINE
  5
629
100
AcDbEntity
  8
CORPO
100
AcDbLine
 62
250
  6
CONTINUOUS
 10
-32.697301818
 20
-18.8650522354
 30
0.0
 11
-32.697301818
 21
-18.874467277
 31
0.0
  0
LINE
  5
62A
100
AcDbEntity
  8
ASSI
100
AcDbLine
 62
250
  6
CONTINUOUS
 10
-32.697301818
 20
-18.8650522354
 30
0.0
 11
-32.697301818
 21
-18.874467277
 31
0.0
  0
LINE
  5
62B
100
AcDbEntity
  8
CORPO
100
AcDbLine
 62
7
  6
CONTINUOUS
 10
-31.7147542244
 20
18.1674681916
 30
0.0
 11
-31.7147542244
 21
17.15
 31
0.0
  0
LINE
  5
62C
100
AcDbEntity
  8
ASSI
100
AcDbLine
 62
7
  6
CONTINUOUS
 10
-31.7147542244
 20
18.1674681916
 30
0.0
 11
-31.7147542244
 21
17.15
 31
0.0
  0
LINE
  5
62D
100
AcDbEntity
  8
CORPO
100
AcDbLine
 62
7
  6
CONTINUOUS
 10
-31.7147542244
 20
16.2869096983
 30
0.0
 11
-31.7147542244
 21
-18.1674681916
 31
0.0
  0
LINE
  5
62E
100
AcDbEntity
  8
ASSI
100
AcDbLine
 62
7
  6
CONTINUOUS
 10
-31.7147542244
 20
16.2869096983
 30
0.0
 11
-31.7147542244
 21
-18.1674681916
 31
0.0
  0
LINE
  5
62F
100
AcDbEntity
  8
CURVE
100
AcDbLine
 62
250
  6
CONTINUOUS
 10
-31.7147542244
 20
-17.6999755309
 30
0.0
 11
-31.7147542244
 21
-17.4949747482
 31
0.0
  0
LWPOLYLINE
  5
630
100
AcDbEntity
  8
0
100
AcDbPolyline
 62
7
  6
CONTINUOUS
 90
6
 70
0
 43
0.3500000006
 10
-52.143326889
 20
31.4770735474
 10
-51.071895401
 20
31.4770735474
 10
-50.8576109161
 20
31.6913580322
 10
-50.8576109161
 20
32.7627849884
 10
-51.2861844177
 20
33.19135849
 10
-51.7147533875
 20
33.19135849
  0
LWPOLYLINE
  5
631
100
AcDbEntity
  8
0
100
AcDbPolyline
 62
7
  6
CONTINUOUS
 90
8
 70
0
 43
0.3500000006
 10
-45.9290405731
 20
31.4770735474
 10
-45.0718981018
 20
31.4770735474
 10
-44.6433246002
 20
31.9056425171
 10
-44.6433246002
 20
32.7627849884
 10
-45.0718981018
 20
33.19135849
 10
-45.9290405731
 20
33.19135849
 10
-45.9290405731
 20
34.477069931
 10
-44.6433246002
 20
34.477069931
  0
LWPOLYLINE
  5
632
100
AcDbEntity
  8
0
100
AcDbPolyline
 62
7
  6
CONTINUOUS
 90
7
 70
0
 43
0.3500000006
 10
-48.5004679871
 20
31.4770735474
 10
-50.0004684448
 20
31.4770735474
 10
-48.5004679871
 20
33.6199274597
 10
-48.5004679871
 20
34.0485009613
 10
-48.9290414886
 20
34.477069931
 10
-49.5718949432
 20
34.477069931
 10
-50.0004684448
 20
33.8342164764
  0
LWPOLYLINE
  5
633
100
AcDbEntity
  8
0
100
AcDbPolyline
 62
7
  6
CONTINUOUS
 90
10
 70
0
 43
0.3500000006
 10
-47.0004675293
 20
31.9770737
 10
-46.9290408783
 20
31.8342158661
 10
-46.9290408783
 20
31.7627846832
 10
-47.0718987122
 20
31.6199268494
 10
-47.1433253632
 20
31.6199268494
 10
-47.2147520142
 20
31.6913580322
 10
-47.2147520142
 20
31.7627846832
 10
-47.1433253632
 20
31.9056425171
 10
-47.0718987122
 20
31.9770737
 10
-47.0004675293
 20
31.9770737
  0
LWPOLYLINE
  5
634
100
AcDbEntity
  8
0
100
AcDbPolyline
 62
7
  6
CONTINUOUS
 90
7
 70
0
 43
0.3500000006
 10
-51.2147532349
 20
40.9003475189
 10
-52.7147536926
 20
40.9003475189
 10
-51.2147532349
 20
43.0432059631
 10
-51.2147532349
 20
43.4717749329
 10
-51.6433267365
 20
43.9003484344
 10
-52.2861847229
 20
43.9003484344
 10
-52.7147536926
 20
43.257490448
  0
LWPOLYLINE
  5
635
100
AcDbEntity
  8
0
100
AcDbPolyline
 62
7
  6
CONTINUOUS
 90
3
 70
0
 43
0.3500000006
 10
-53.5718961639
 20
41.5432055054
 10
-55.0718966217
 20
41.5432055054
 10
-54.4290386353
 20
43.9003484344
  0
ARC
  5
636
100
AcDbEntity
  8
RACCORDO
100
AcDbCircle
 62
250
  6
CONTINUOUS
 10
-3427.500712821
 20
-7.8573763175
 30
0.0
 40
3405.9929417708
100
AcDbArc
 50
359.776551637
 51
359.9723681818
  0
ARC
  5
637
100
AcDbEntity
  8
RACCORDO
100
AcDbCircle
 62
250
  6
CONTINUOUS
 10
-3390.2582225588
 20
-7.8570139238
 30
0.0
 40
3368.2506228243
100
AcDbArc
 50
359.7753033079
 51
359.9722135102
  0
ARC
  5
638
100
AcDbEntity
  8
SUPERFICI
100
AcDbCircle
 62
7
  6
CONTINUOUS
 10
-0.019143085
 20
-10.2500958902
 30
0.0
 40
0.5716745189
100
AcDbArc
 50
128.4017430003
 51
132.4990562976
  0
ARC
  5
639
100
AcDbEntity
  8
RACCORDO
100
AcDbCircle
 62
250
  6
CONTINUOUS
 10
-21.5453987013
 20
-21.4902976947
 30
0.0
 40
0.5003855302
100
AcDbArc
 50
180.1244574077
 51
269.9385629096
  0
ARC
  5
63A
100
AcDbEntity
  8
DRAFT
100
AcDbCircle
 62
7
  6
CONTINUOUS
 10
-3.0499819121
 20
-14.8290178338
 30
0.0
 40
0.500003801
100
AcDbArc
 50
132.5022442148
 51
269.9979193533
  0
ARC
  5
63B
100
AcDbEntity
  8
PORTATASTO
100
AcDbCircle
 62
7
  6
CONTINUOUS
 10
-15.25
 20
-23.15
 30
0.0
 40
0.5
100
AcDbArc
 50
144.1420797215
 51
216.2517105092
  0
ARC
  5
63C
100
AcDbEntity
  8
PORTATASTO
100
AcDbCircle
 62
7
  6
CONTINUOUS
 10
-7.25
 20
-23.15
 30
0.0
 40
0.5
100
AcDbArc
 50
323.7482894908
 51
35.8579202785
  0
ARC
  5
63D
100
AcDbEntity
  8
PORTATASTO
100
AcDbCircle
 62
7
  6
CONTINUOUS
 10
-21.8500384553
 20
-21.8500439681
 30
0.0
 40
0.4999576362
100
AcDbArc
 50
179.9687347085
 51
269.9607896946
  0
ARC
  5
63E
100
AcDbEntity
  8
SUPERFICI
100
AcDbCircle
 62
7
  6
CONTINUOUS
 10
-3.0575815118
 20
-14.8208055171
 30
0.0
 40
0.4888159302
100
AcDbArc
 50
132.495888561
 51
138.1778051765
  0
ARC
  5
63F
100
AcDbEntity
  8
SUPERFICI
100
AcDbCircle
 62
7
  6
CONTINUOUS
 10
-0.014561342
 20
-11.8826783265
 30
0.0
 40
0.3784363367
100
AcDbArc
 50
127.8542171241
 51
132.501476931
  0
ARC
  5
640
100
AcDbEntity
  8
DRAFT
100
AcDbCircle
 62
7
  6
CONTINUOUS
 10
-0.6999480505
 20
-15.0290231916
 30
0.0
 40
0.3000162262
100
AcDbArc
 50
269.9900784486
 51
90.0099217062
  0
ARC
  5
641
100
AcDbEntity
  8
DRAFT
100
AcDbCircle
 62
7
  6
CONTINUOUS
 10
-3.4500358667
 20
-13.0254507289
 30
0.0
 40
0.3000160304
100
AcDbArc
 50
132.4900804234
 51
312.5099195764
  0
ARC
  5
642
100
AcDbEntity
  8
SUPERFICI
100
AcDbCircle
 62
7
  6
CONTINUOUS
 10
-0.6998846496
 20
-15.0290280123
 30
0.0
 40
0.2998565613
100
AcDbArc
 50
269.9782085605
 51
90.0220721988
  0
ARC
  5
643
100
AcDbEntity
  8
SUPERFICI
100
AcDbCircle
 62
7
  6
CONTINUOUS
 10
-3.4500856738
 20
-13.0254901568
 30
0.0
 40
0.2998564066
100
AcDbArc
 50
132.4780407539
 51
312.5219027206
  0
ARC
  5
644
100
AcDbEntity
  8
SUPERFICI
100
AcDbCircle
 62
7
  6
CONTINUOUS
 10
-0.0109814875
 20
-10.66586993
 30
0.0
 40
0.2837297586
100
AcDbArc
 50
129.0025077648
 51
132.5029788596
  0
ARC
  5
645
100
AcDbEntity
  8
PORTATASTO
100
AcDbCircle
 62
7
  6
CONTINUOUS
 10
-21.1329705492
 20
-24.2329705492
 30
0.0
 40
0.2500054813
100
AcDbArc
 50
180.0020415441
 51
269.9979584559
  0
ARC
  5
646
100
AcDbEntity
  8
PORTATASTO
100
AcDbCircle
 62
7
  6
CONTINUOUS
 10
-3.7329705492
 20
-24.2329705492
 30
0.0
 40
0.2500054813
100
AcDbArc
 50
180.0020415441
 51
269.9979584559
  0
ARC
  5
647
100
AcDbEntity
  8
PORTATASTO
100
AcDbCircle
 62
7
  6
CONTINUOUS
 10
-18.7670294504
 20
-24.2329705496
 30
0.0
 40
0.2500054809
100
AcDbArc
 50
270.0020414376
 51
359.9979585624
  0
ARC
  5
648
100
AcDbEntity
  8
PORTATASTO
100
AcDbCircle
 62
7
  6
CONTINUOUS
 10
-1.3670294504
 20
-24.2329705496
 30
0.0
 40
0.2500054809
100
AcDbArc
 50
270.0020414376
 51
359.9979585624
  0
ARC
  5
649
100
AcDbEntity
  8
PORTATASTO
100
AcDbCircle
 62
7
  6
CONTINUOUS
 10
-7.5491836521
 20
-23.7930827022
 30
0.0
 40
0.2004943644
100
AcDbArc
 50
218.4318176103
 51
233.0524249573
  0
ARC
  5
64A
100
AcDbEntity
  8
PORTATASTO
100
AcDbCircle
 62
7
  6
CONTINUOUS
 10
-7.5429969142
 20
-23.7879452748
 30
0.0
 40
0.2000063607
100
AcDbArc
 50
180.0026073772
 51
269.9959963352
  0
ARC
  5
64B
100
AcDbEntity
  8
PORTATASTO
100
AcDbCircle
 62
7
  6
CONTINUOUS
 10
-10.0386334806
 20
-23.7931813107
 30
0.0
 40
0.2000063604
100
AcDbArc
 50
180.0026072914
 51
269.9959964211
  0
ARC
  5
64C
100
AcDbEntity
  8
PORTATASTO
100
AcDbCircle
 62
7
  6
CONTINUOUS
 10
-12.4613665194
 20
-23.7931813107
 30
0.0
 40
0.2000063604
100
AcDbArc
 50
270.0040035789
 51
359.9973927086
  0
ARC
  5
64D
100
AcDbEntity
  8
PORTATASTO
100
AcDbCircle
 62
250
  6
CONTINUOUS
 10
-14.9570030855
 20
-23.7879452751
 30
0.0
 40
0.2000063604
100
AcDbArc
 50
270.0040035789
 51
359.9973927086
  0
ARC
  5
64E
100
AcDbEntity
  8
PORTATASTO
100
AcDbCircle
 62
7
  6
CONTINUOUS
 10
-7.5504968559
 20
-23.7949664978
 30
0.0
 40
0.1982250569
100
AcDbArc
 50
233.0311541135
 51
269.6413222965
  0
ARC
  5
64F
100
AcDbEntity
  8
PORTATASTO
100
AcDbCircle
 62
7
  6
CONTINUOUS
 10
-14.9495031441
 20
-23.7949664977
 30
0.0
 40
0.1982250569
100
AcDbArc
 50
270.358677704
 51
287.2707010741
  0
ARC
  5
650
100
AcDbEntity
  8
SUPERFICI
100
AcDbCircle
 62
7
  6
CONTINUOUS
 10
-0.0011895636
 20
-12.3085785931
 30
0.0
 40
0.1031794164
100
AcDbArc
 50
56.7848856065
 51
65.1997962588
  0
ARC
  5
651
100
AcDbEntity
  8
DRAFT
100
AcDbCircle
 62
7
  6
CONTINUOUS
 10
-2.5356976238
 20
-14.6290263367
 30
0.0
 40
0.1000002235
100
AcDbArc
 50
132.5016948445
 51
269.9980055482
  0
ARC
  5
652
100
AcDbEntity
  8
SUPERFICI
100
AcDbCircle
 62
7
  6
CONTINUOUS
 10
-0.0027890737
 20
-12.3025125918
 30
0.0
 40
0.0959236967
100
AcDbArc
 50
123.4055094176
 51
132.471628085
  0
ARC
  5
653
100
AcDbEntity
  8
RACCORDO
100
AcDbCircle
 62
250
  6
CONTINUOUS
 10
-3446.1806385314
 20
7.8164457603
 30
0.0
 40
3424.6728852011
100
AcDbArc
 50
0.0281657656
 51
0.22291434
  0
ARC
  5
654
100
AcDbEntity
  8
RACCORDO
100
AcDbCircle
 62
250
  6
CONTINUOUS
 10
-3408.7225928982
 20
7.8163307307
 30
0.0
 40
3386.715010871
100
AcDbArc
 50
0.0283232681
 51
0.2241599139
  0
ARC
  5
655
100
AcDbEntity
  8
RACCORDO
100
AcDbCircle
 62
250
  6
CONTINUOUS
 10
-21.5453986828
 20
21.4902976787
 30
0.0
 40
0.5003855623
100
AcDbArc
 50
90.0614391898
 51
179.8755407566
  0
ARC
  5
656
100
AcDbEntity
  8
PORTATASTO
100
AcDbCircle
 62
7
  6
CONTINUOUS
 10
-7.25
 20
23.15
 30
0.0
 40
0.5
100
AcDbArc
 50
324.1420797215
 51
36.2517105092
  0
ARC
  5
657
100
AcDbEntity
  8
PORTATASTO
100
AcDbCircle
 62
7
  6
CONTINUOUS
 10
-15.25
 20
23.15
 30
0.0
 40
0.5
100
AcDbArc
 50
143.7482894908
 51
215.8579202785
  0
ARC
  5
658
100
AcDbEntity
  8
PORTATASTO
100
AcDbCircle
 62
7
  6
CONTINUOUS
 10
-21.8500384132
 20
21.8500440103
 30
0.0
 40
0.4999576362
100
AcDbArc
 50
90.0392151342
 51
180.0312701179
  0
ARC
  5
659
100
AcDbEntity
  8
PORTATASTO
100
AcDbCircle
 62
7
  6
CONTINUOUS
 10
-18.7670294508
 20
24.2329705492
 30
0.0
 40
0.2500054813
100
AcDbArc
 50
0.0020415441
 51
89.9979584559
  0
ARC
  5
65A
100
AcDbEntity
  8
PORTATASTO
100
AcDbCircle
 62
7
  6
CONTINUOUS
 10
-1.3670294508
 20
24.2329705492
 30
0.0
 40
0.2500054813
100
AcDbArc
 50
0.0020415441
 51
89.9979584559
  0
ARC
  5
65B
100
AcDbEntity
  8
PORTATASTO
100
AcDbCircle
 62
7
  6
CONTINUOUS
 10
-21.1329705496
 20
24.2329705496
 30
0.0
 40
0.2500054809
100
AcDbArc
 50
90.0020414376
 51
179.9979585624
  0
ARC
  5
65C
100
AcDbEntity
  8
PORTATASTO
100
AcDbCircle
 62
7
  6
CONTINUOUS
 10
-3.7329705496
 20
24.2329705496
 30
0.0
 40
0.2500054809
100
AcDbArc
 50
90.0020414376
 51
179.9979585624
  0
ARC
  5
65D
100
AcDbEntity
  8
PORTATASTO
100
AcDbCircle
 62
7
  6
CONTINUOUS
 10
-14.9508163479
 20
23.7930827022
 30
0.0
 40
0.2004943644
100
AcDbArc
 50
38.4318176103
 51
53.0524249573
  0
ARC
  5
65E
100
AcDbEntity
  8
PORTATASTO
100
AcDbCircle
 62
7
  6
CONTINUOUS
 10
-14.9570030858
 20
23.7879452748
 30
0.0
 40
0.2000063607
100
AcDbArc
 50
0.0026073772
 51
89.9959963353
  0
ARC
  5
65F
100
AcDbEntity
  8
PORTATASTO
100
AcDbCircle
 62
7
  6
CONTINUOUS
 10
-12.4613665194
 20
23.7931813107
 30
0.0
 40
0.2000063604
100
AcDbArc
 50
0.0026072914
 51
89.9959964211
  0
ARC
  5
660
100
AcDbEntity
  8
PORTATASTO
100
AcDbCircle
 62
7
  6
CONTINUOUS
 10
-10.0386334806
 20
23.7931813107
 30
0.0
 40
0.2000063604
100
AcDbArc
 50
90.0040035789
 51
179.9973927086
  0
ARC
  5
661
100
AcDbEntity
  8
PORTATASTO
100
AcDbCircle
 62
250
  6
CONTINUOUS
 10
-7.5429969145
 20
23.7879452751
 30
0.0
 40
0.2000063604
100
AcDbArc
 50
90.0040035789
 51
179.9973927086
  0
ARC
  5
662
100
AcDbEntity
  8
PORTATASTO
100
AcDbCircle
 62
7
  6
CONTINUOUS
 10
-7.5504968559
 20
23.7949664977
 30
0.0
 40
0.1982250569
100
AcDbArc
 50
90.358677704
 51
107.270701074
  0
ARC
  5
663
100
AcDbEntity
  8
PORTATASTO
100
AcDbCircle
 62
7
  6
CONTINUOUS
 10
-14.9495031441
 20
23.7949664978
 30
0.0
 40
0.1982250569
100
AcDbArc
 50
53.0311541134
 51
89.6413222965
  0
ARC
  5
664
100
AcDbEntity
  8
RACCORDO
100
AcDbCircle
 62
250
  6
CONTINUOUS
 10
3446.1785238128
 20
-7.8164515259
 30
0.0
 40
3424.670770476
100
AcDbArc
 50
180.0281658012
 51
180.2229143801
  0
ARC
  5
665
100
AcDbEntity
  8
RACCORDO
100
AcDbCircle
 62
250
  6
CONTINUOUS
 10
3408.7228269235
 20
-7.8163302151
 30
0.0
 40
3386.7152448965
100
AcDbArc
 50
180.0283232749
 51
180.2241599071
  0
ARC
  5
666
100
AcDbEntity
  8
DRAFT
100
AcDbCircle
 62
7
  6
CONTINUOUS
 10
0.0
 20
-10.2709732442
 30
0.0
 40
0.5999997994
100
AcDbArc
 50
47.5000170994
 51
132.4999829006
  0
ARC
  5
667
100
AcDbEntity
  8
SUPERFICI
100
AcDbCircle
 62
7
  6
CONTINUOUS
 10
0.0187730843
 20
-10.2504866688
 30
0.0
 40
0.5722125997
100
AcDbArc
 50
47.5000620954
 51
51.615434034
  0
ARC
  5
668
100
AcDbEntity
  8
RACCORDO
100
AcDbCircle
 62
250
  6
CONTINUOUS
 10
21.5453986996
 20
-21.4902976902
 30
0.0
 40
0.5003855332
100
AcDbArc
 50
270.0614372755
 51
359.8755420706
  0
ARC
  5
669
100
AcDbEntity
  8
DRAFT
100
AcDbCircle
 62
7
  6
CONTINUOUS
 10
3.0499800336
 20
-14.8290221538
 30
0.0
 40
0.5000045892
100
AcDbArc
 50
270.002287958
 51
47.4979389875
  0
ARC
  5
66A
100
AcDbEntity
  8
PORTATASTO
100
AcDbCircle
 62
7
  6
CONTINUOUS
 10
7.25
 20
-23.15
 30
0.0
 40
0.5
100
AcDbArc
 50
144.1420797215
 51
216.2517105092
  0
ARC
  5
66B
100
AcDbEntity
  8
PORTATASTO
100
AcDbCircle
 62
7
  6
CONTINUOUS
 10
15.25
 20
-23.15
 30
0.0
 40
0.5
100
AcDbArc
 50
323.7482894908
 51
35.8579202785
  0
ARC
  5
66C
100
AcDbEntity
  8
PORTATASTO
100
AcDbCircle
 62
7
  6
CONTINUOUS
 10
21.8500382294
 20
-21.8500437425
 30
0.0
 40
0.4999579139
100
AcDbArc
 50
270.0392361788
 51
0.0312394202
  0
ARC
  5
66D
100
AcDbEntity
  8
DRAFT
100
AcDbCircle
 62
7
  6
CONTINUOUS
 10
-0.0
 20
-11.8985840686
 30
0.0
 40
0.4000007799
100
AcDbArc
 50
47.50009991
 51
132.49990009
  0
ARC
  5
66E
100
AcDbEntity
  8
SUPERFICI
100
AcDbCircle
 62
7
  6
CONTINUOUS
 10
0.0145061582
 20
-11.8827387089
 30
0.0
 40
0.3785181369
100
AcDbArc
 50
47.4986026578
 51
52.1821290229
  0
ARC
  5
66F
100
AcDbEntity
  8
DRAFT
100
AcDbCircle
 62
7
  6
CONTINUOUS
 10
-0.0
 20
-10.6781667198
 30
0.0
 40
0.3002149524
100
AcDbArc
 50
47.5374930129
 51
132.4625069871
  0
ARC
  5
670
100
AcDbEntity
  8
DRAFT
100
AcDbCircle
 62
7
  6
CONTINUOUS
 10
0.69994807
 20
-15.0290305817
 30
0.0
 40
0.3000162209
100
AcDbArc
 50
89.9900822209
 51
270.009918016
  0
ARC
  5
671
100
AcDbEntity
  8
DRAFT
100
AcDbCircle
 62
7
  6
CONTINUOUS
 10
3.4500408011
 20
-13.0254454803
 30
0.0
 40
0.3000160355
100
AcDbArc
 50
227.4900630787
 51
47.5099373982
  0
ARC
  5
672
100
AcDbEntity
  8
SUPERFICI
100
AcDbCircle
 62
7
  6
CONTINUOUS
 10
0.6998846438
 20
-15.0290259987
 30
0.0
 40
0.2998565613
100
AcDbArc
 50
89.9782064885
 51
270.0220733821
  0
ARC
  5
673
100
AcDbEntity
  8
SUPERFICI
100
AcDbCircle
 62
7
  6
CONTINUOUS
 10
3.4500843288
 20
-13.0254916643
 30
0.0
 40
0.2998563967
100
AcDbArc
 50
227.4780312256
 51
47.5219026535
  0
ARC
  5
674
100
AcDbEntity
  8
PORTATASTO
100
AcDbCircle
 62
7
  6
CONTINUOUS
 10
1.3670294508
 20
-24.2329705492
 30
0.0
 40
0.2500054813
100
AcDbArc
 50
180.0020415441
 51
269.9979584559
  0
ARC
  5
675
100
AcDbEntity
  8
PORTATASTO
100
AcDbCircle
 62
7
  6
CONTINUOUS
 10
18.7670294508
 20
-24.2329705492
 30
0.0
 40
0.2500054813
100
AcDbArc
 50
180.0020415441
 51
269.9979584559
  0
ARC
  5
676
100
AcDbEntity
  8
PORTATASTO
100
AcDbCircle
 62
7
  6
CONTINUOUS
 10
3.7329705496
 20
-24.2329705496
 30
0.0
 40
0.2500054809
100
AcDbArc
 50
270.0020414376
 51
359.9979585624
  0
ARC
  5
677
100
AcDbEntity
  8
PORTATASTO
100
AcDbCircle
 62
7
  6
CONTINUOUS
 10
21.1329705496
 20
-24.2329705496
 30
0.0
 40
0.2500054809
100
AcDbArc
 50
270.0020414376
 51
359.9979585624
  0
ARC
  5
678
100
AcDbEntity
  8
PORTATASTO
100
AcDbCircle
 62
7
  6
CONTINUOUS
 10
14.9508163479
 20
-23.7930827022
 30
0.0
 40
0.2004943644
100
AcDbArc
 50
218.4318176103
 51
233.0524249573
  0
ARC
  5
679
100
AcDbEntity
  8
PORTATASTO
100
AcDbCircle
 62
7
  6
CONTINUOUS
 10
14.9570030858
 20
-23.7879452748
 30
0.0
 40
0.2000063607
100
AcDbArc
 50
180.0026073772
 51
269.9959963352
  0
ARC
  5
67A
100
AcDbEntity
  8
PORTATASTO
100
AcDbCircle
 62
7
  6
CONTINUOUS
 10
10.0386334806
 20
-23.7931813107
 30
0.0
 40
0.2000063604
100
AcDbArc
 50
270.0040035789
 51
359.9973927086
  0
ARC
  5
67B
100
AcDbEntity
  8
PORTATASTO
100
AcDbCircle
 62
7
  6
CONTINUOUS
 10
12.4613665194
 20
-23.7931813107
 30
0.0
 40
0.2000063604
100
AcDbArc
 50
180.0026072914
 51
269.9959964211
  0
ARC
  5
67C
100
AcDbEntity
  8
PORTATASTO
100
AcDbCircle
 62
250
  6
CONTINUOUS
 10
7.5429969145
 20
-23.7879452751
 30
0.0
 40
0.2000063604
100
AcDbArc
 50
270.0040035789
 51
359.9973927086
  0
ARC
  5
67D
100
AcDbEntity
  8
PORTATASTO
100
AcDbCircle
 62
7
  6
CONTINUOUS
 10
14.9495031441
 20
-23.7949664978
 30
0.0
 40
0.1982250569
100
AcDbArc
 50
233.0311541135
 51
269.6413222965
  0
ARC
  5
67E
100
AcDbEntity
  8
PORTATASTO
100
AcDbCircle
 62
7
  6
CONTINUOUS
 10
7.5504968559
 20
-23.7949664977
 30
0.0
 40
0.1982250569
100
AcDbArc
 50
270.358677704
 51
287.270701074
  0
ARC
  5
67F
100
AcDbEntity
  8
SUPERFICI
100
AcDbCircle
 62
7
  6
CONTINUOUS
 10
0.0010009678
 20
-12.308240456
 30
0.0
 40
0.1027919383
100
AcDbArc
 50
104.2786902947
 51
123.4112888706
  0
ARC
  5
680
100
AcDbEntity
  8
SUPERFICI
100
AcDbCircle
 62
7
  6
CONTINUOUS
 10
2.5356980422
 20
-14.6290252409
 30
0.0
 40
0.1000007758
100
AcDbArc
 50
269.9952152298
 51
47.4986422753
  0
ARC
  5
681
100
AcDbEntity
  8
DRAFT
100
AcDbCircle
 62
7
  6
CONTINUOUS
 10
2.5356981076
 20
-14.6290253337
 30
0.0
 40
0.1000007406
100
AcDbArc
 50
270.0016572132
 51
47.4981818397
  0
ARC
  5
682
100
AcDbEntity
  8
DRAFT
100
AcDbCircle
 62
7
  6
CONTINUOUS
 10
-0.0
 20
-12.3054866181
 30
0.0
 40
0.100000638
100
AcDbArc
 50
47.5002462084
 51
132.4997537916
  0
ARC
  5
683
100
AcDbEntity
  8
SUPERFICI
100
AcDbCircle
 62
7
  6
CONTINUOUS
 10
0.0027617088
 20
-12.3025341893
 30
0.0
 40
0.0959581048
100
AcDbArc
 50
47.5248171135
 51
56.7817123724
  0
ARC
  5
684
100
AcDbEntity
  8
RACCORDO
100
AcDbCircle
 62
250
  6
CONTINUOUS
 10
3427.5018390986
 20
7.8573727053
 30
0.0
 40
3405.994068054
100
AcDbArc
 50
179.776551649
 51
179.9723682454
  0
ARC
  5
685
100
AcDbEntity
  8
RACCORDO
100
AcDbCircle
 62
250
  6
CONTINUOUS
 10
3390.2584565848
 20
7.8570134081
 30
0.0
 40
3368.2508568506
100
AcDbArc
 50
179.7753033147
 51
179.9722135033
  0
ARC
  5
686
100
AcDbEntity
  8
RACCORDO
100
AcDbCircle
 62
250
  6
CONTINUOUS
 10
21.5453986962
 20
21.4902976837
 30
0.0
 40
0.5003855531
100
AcDbArc
 50
0.1244586742
 51
89.9385623497
  0
ARC
  5
687
100
AcDbEntity
  8
PORTATASTO
100
AcDbCircle
 62
7
  6
CONTINUOUS
 10
15.25
 20
23.15
 30
0.0
 40
0.5
100
AcDbArc
 50
324.1420797215
 51
36.2517105092
  0
ARC
  5
688
100
AcDbEntity
  8
PORTATASTO
100
AcDbCircle
 62
7
  6
CONTINUOUS
 10
7.25
 20
23.15
 30
0.0
 40
0.5
100
AcDbArc
 50
143.7482894908
 51
215.8579202785
  0
ARC
  5
689
100
AcDbEntity
  8
PORTATASTO
100
AcDbCircle
 62
7
  6
CONTINUOUS
 10
21.8500381874
 20
21.8500437846
 30
0.0
 40
0.4999579139
100
AcDbArc
 50
359.9687557599
 51
89.9607590019
  0
ARC
  5
68A
100
AcDbEntity
  8
PORTATASTO
100
AcDbCircle
 62
7
  6
CONTINUOUS
 10
3.7329705492
 20
24.2329705492
 30
0.0
 40
0.2500054813
100
AcDbArc
 50
0.0020415441
 51
89.9979584559
  0
ARC
  5
68B
100
AcDbEntity
  8
PORTATASTO
100
AcDbCircle
 62
7
  6
CONTINUOUS
 10
21.1329705492
 20
24.2329705492
 30
0.0
 40
0.2500054813
100
AcDbArc
 50
0.0020415441
 51
89.9979584559
  0
ARC
  5
68C
100
AcDbEntity
  8
PORTATASTO
100
AcDbCircle
 62
7
  6
CONTINUOUS
 10
1.3670294504
 20
24.2329705496
 30
0.0
 40
0.2500054809
100
AcDbArc
 50
90.0020414376
 51
179.9979585624
  0
ARC
  5
68D
100
AcDbEntity
  8
PORTATASTO
100
AcDbCircle
 62
7
  6
CONTINUOUS
 10
18.7670294504
 20
24.2329705496
 30
0.0
 40
0.2500054809
100
AcDbArc
 50
90.0020414376
 51
179.9979585624
  0
ARC
  5
68E
100
AcDbEntity
  8
PORTATASTO
100
AcDbCircle
 62
7
  6
CONTINUOUS
 10
7.5491836521
 20
23.7930827022
 30
0.0
 40
0.2004943644
100
AcDbArc
 50
38.4318176103
 51
53.0524249573
  0
ARC
  5
68F
100
AcDbEntity
  8
PORTATASTO
100
AcDbCircle
 62
7
  6
CONTINUOUS
 10
7.5429969142
 20
23.7879452748
 30
0.0
 40
0.2000063607
100
AcDbArc
 50
0.0026073772
 51
89.9959963353
  0
ARC
  5
690
100
AcDbEntity
  8
PORTATASTO
100
AcDbCircle
 62
7
  6
CONTINUOUS
 10
10.0386334806
 20
23.7931813107
 30
0.0
 40
0.2000063604
100
AcDbArc
 50
0.0026072914
 51
89.9959964211
  0
ARC
  5
691
100
AcDbEntity
  8
PORTATASTO
100
AcDbCircle
 62
7
  6
CONTINUOUS
 10
12.4613665194
 20
23.7931813107
 30
0.0
 40
0.2000063604
100
AcDbArc
 50
90.0040035789
 51
179.9973927086
  0
ARC
  5
692
100
AcDbEntity
  8
PORTATASTO
100
AcDbCircle
 62
250
  6
CONTINUOUS
 10
14.9570030855
 20
23.7879452751
 30
0.0
 40
0.2000063604
100
AcDbArc
 50
90.0040035789
 51
179.9973927086
  0
ARC
  5
693
100
AcDbEntity
  8
PORTATASTO
100
AcDbCircle
 62
7
  6
CONTINUOUS
 10
7.5504968559
 20
23.7949664978
 30
0.0
 40
0.1982250569
100
AcDbArc
 50
53.0311541135
 51
89.6413222965
  0
ARC
  5
694
100
AcDbEntity
  8
PORTATASTO
100
AcDbCircle
 62
7
  6
CONTINUOUS
 10
14.9495031441
 20
23.7949664977
 30
0.0
 40
0.1982250569
100
AcDbArc
 50
90.358677704
 51
107.270701074
  0
ARC
  5
695
100
AcDbEntity
  8
CORPO
100
AcDbCircle
 62
250
  6
CONTINUOUS
 10
-218.5540292006
 20
-18.15805315
 30
0.0
 40
185.8580720902
100
AcDbArc
 50
359.7820478769
 51
0.2179521231
  0
ARC
  5
696
100
AcDbEntity
  8
ASSI
100
AcDbCircle
 62
250
  6
CONTINUOUS
 10
-218.5540292006
 20
-18.15805315
 30
0.0
 40
185.8580720902
100
AcDbArc
 50
359.7820478769
 51
0.2179521231
  0
ARC
  5
697
100
AcDbEntity
  8
PORTATASTO
100
AcDbCircle
 62
7
  6
CONTINUOUS
 10
-54.2147542244
 20
-21.2859869487
 30
0.0
 40
1.0
100
AcDbArc
 50
270.3333333333
 51
360.0
  0
ARC
  5
698
100
AcDbEntity
  8
PORTATASTO
100
AcDbCircle
 62
250
  6
CONTINUOUS
 10
-66.966066644
 20
-23.078310184
 30
0.0
 40
0.5000034287
100
AcDbArc
 50
300.0002268374
 51
359.9997731626
  0
ARC
  5
699
100
AcDbEntity
  8
PORTATASTO
100
AcDbCircle
 62
7
  6
CONTINUOUS
 10
-57.7147542244
 20
-23.2659657686
 30
0.0
 40
0.5
100
AcDbArc
 50
270.6
 51
360.0
  0
ARC
  5
69A
100
AcDbEntity
  8
PORTATASTO
100
AcDbCircle
 62
7
  6
CONTINUOUS
 10
-67.4647542244
 20
-23.9443375673
 30
0.0
 40
0.25
100
AcDbArc
 50
120.0
 51
180.0
  0
ARC
  5
69B
100
AcDbEntity
  8
PORTATASTO
100
AcDbCircle
 62
7
  6
CONTINUOUS
 10
-66.9647542244
 20
-23.0783121635
 30
0.0
 40
0.25
100
AcDbArc
 50
299.9999779197
 51
359.9996752656
  0
ARC
  5
69C
100
AcDbEntity
  8
PORTATASTO
100
AcDbCircle
 62
7
  6
CONTINUOUS
 10
-67.4647542244
 20
-24.2329794573
 30
0.0
 40
0.25
100
AcDbArc
 50
180.0
 51
269.7
  0
ARC
  5
69D
100
AcDbEntity
  8
RACCORDO
100
AcDbCircle
 62
7
  6
CONTINUOUS
 10
-71.6561125231
 20
-20.9920698182
 30
0.0
 40
1.0
100
AcDbArc
 50
188.5305971978
 51
267.0
  0
ARC
  5
69E
100
AcDbEntity
  8
RACCORDO
100
AcDbCircle
 62
250
  6
CONTINUOUS
 10
-71.6691969316
 20
-20.9920677103
 30
0.0
 40
0.500002658
100
AcDbArc
 50
188.5307853326
 51
266.9995473942
  0
ARC
  5
69F
100
AcDbEntity
  8
PORTATASTO
100
AcDbCircle
 62
7
  6
CONTINUOUS
 10
-68.9147542244
 20
-19.6422881348
 30
0.0
 40
0.3
100
AcDbArc
 50
237.9609138627
 51
268.5
  0
ARC
  5
6A0
100
AcDbEntity
  8
CORPO
100
AcDbCircle
 62
7
  6
CONTINUOUS
 10
-32.7147542244
 20
-18.1674681916
 30
0.0
 40
1.0
100
AcDbArc
 50
271.0000000002
 51
360.0
  0
ARC
  5
6A1
100
AcDbEntity
  8
ASSI
100
AcDbCircle
 62
7
  6
CONTINUOUS
 10
-32.7147542244
 20
-18.1674681916
 30
0.0
 40
1.0
100
AcDbArc
 50
271.0
 51
360.0
  0
ARC
  5
6A2
100
AcDbEntity
  8
CORPO
100
AcDbCircle
 62
250
  6
CONTINUOUS
 10
-32.2164552189
 20
-18.1578179851
 30
0.0
 40
0.5017042593
100
AcDbArc
 50
352.9957475867
 51
358.9013271208
  0
ARC
  5
6A3
100
AcDbEntity
  8
ASSI
100
AcDbCircle
 62
250
  6
CONTINUOUS
 10
-32.2164552189
 20
-18.1578179851
 30
0.0
 40
0.5017042593
100
AcDbArc
 50
352.9957475867
 51
358.9013271208
  0
ARC
  5
6A4
100
AcDbEntity
  8
CORPO
100
AcDbCircle
 62
250
  6
CONTINUOUS
 10
-32.2100339744
 20
-18.1580504538
 30
0.0
 40
0.49527975
100
AcDbArc
 50
358.9139717154
 51
359.999688096
  0
ARC
  5
6A5
100
AcDbEntity
  8
ASSI
100
AcDbCircle
 62
250
  6
CONTINUOUS
 10
-32.2100339744
 20
-18.1580504538
 30
0.0
 40
0.49527975
100
AcDbArc
 50
358.9139717154
 51
359.999688096
  0
ARC
  5
6A6
100
AcDbEntity
  8
SUPERFICI
100
AcDbCircle
 62
7
  6
CONTINUOUS
 10
16.3592574557
 20
-7.79
 30
0.0
 40
90.0
100
AcDbArc
 50
181.1976370578
 51
183.5250170561
  0
ARC
  5
6A7
100
AcDbEntity
  8
SUPERFICI
100
AcDbCircle
 62
7
  6
CONTINUOUS
 10
16.3592574557
 20
-7.79
 30
0.0
 40
90.0
100
AcDbArc
 50
183.5261165277
 51
184.2504009554
  0
ARC
  5
6A8
100
AcDbEntity
  8
RACCORDO
100
AcDbCircle
 62
7
  6
CONTINUOUS
 10
16.3592574557
 20
-7.79
 30
0.0
 40
90.0
100
AcDbArc
 50
181.0886672048
 51
188.530615361
  0
ARC
  5
6A9
100
AcDbEntity
  8
RACCORDO
100
AcDbCircle
 62
250
  6
CONTINUOUS
 10
16.347269214
 20
-7.7899074243
 30
0.0
 40
89.5011017928
100
AcDbArc
 50
181.088731191
 51
188.5305696941
  0
ARC
  5
6AA
100
AcDbEntity
  8
CURVE
100
AcDbCircle
 62
250
  6
CONTINUOUS
 10
-45.7681196501
 20
-9.065689637
 30
0.0
 40
2.5491100283
100
AcDbArc
 50
177.7337656322
 51
358.1689805855
  0
ARC
  5
6AB
100
AcDbEntity
  8
CURVE
100
AcDbCircle
 62
250
  6
CONTINUOUS
 10
-45.7681196499
 20
-13.4507996376
 30
0.0
 40
2.5491098711
100
AcDbArc
 50
177.7338554515
 51
358.1689825899
  0
ARC
  5
6AC
100
AcDbEntity
  8
CURVE
100
AcDbCircle
 62
250
  6
CONTINUOUS
 10
-45.7650547214
 20
-9.0645395647
 30
0.0
 40
2.5461567163
100
AcDbArc
 50
358.1409101855
 51
2.2430144318
  0
ARC
  5
6AD
100
AcDbEntity
  8
CURVE
100
AcDbCircle
 62
250
  6
CONTINUOUS
 10
-45.7650547261
 20
-13.4496495652
 30
0.0
 40
2.5461565641
100
AcDbArc
 50
358.1409121912
 51
2.2430144373
  0
ARC
  5
6AE
100
AcDbEntity
  8
PORTATASTO
100
AcDbCircle
 62
7
  6
CONTINUOUS
 10
-69.2147542244
 20
14.0
 30
0.0
 40
2.55
100
AcDbArc
 50
11.2231281829
 51
30.6770143275
  0
ARC
  5
6AF
100
AcDbEntity
  8
PORTATASTO
100
AcDbCircle
 62
7
  6
CONTINUOUS
 10
-69.2147542244
 20
14.0
 30
0.0
 40
2.55
100
AcDbArc
 50
329.3229933374
 51
348.7766180541
  0
ARC
  5
6B0
100
AcDbEntity
  8
PORTATASTO
100
AcDbCircle
 62
250
  6
CONTINUOUS
 10
-69.2059566718
 20
13.999958745
 30
0.0
 40
2.0499173905
100
AcDbArc
 50
320.6223768311
 51
39.3717904895
  0
ARC
  5
6B1
100
AcDbEntity
  8
RACCORDO
100
AcDbCircle
 62
7
  6
CONTINUOUS
 10
-71.6561125231
 20
20.9920698182
 30
0.0
 40
1.0
100
AcDbArc
 50
93.0
 51
171.4693991255
  0
ARC
  5
6B2
100
AcDbEntity
  8
RACCORDO
100
AcDbCircle
 62
250
  6
CONTINUOUS
 10
-71.669199256
 20
20.9920655521
 30
0.0
 40
0.5000026741
100
AcDbArc
 50
93.0001736721
 51
171.4689305816
  0
ARC
  5
6B3
100
AcDbEntity
  8
PORTATASTO
100
AcDbCircle
 62
7
  6
CONTINUOUS
 10
-67.4647542244
 20
23.9443375673
 30
0.0
 40
0.25
100
AcDbArc
 50
180.0
 51
240.0
  0
ARC
  5
6B4
100
AcDbEntity
  8
PORTATASTO
100
AcDbCircle
 62
7
  6
CONTINUOUS
 10
-67.4647542244
 20
24.2329794573
 30
0.0
 40
0.25
100
AcDbArc
 50
90.3
 51
180.0
  0
ARC
  5
6B5
100
AcDbEntity
  8
PORTATASTO
100
AcDbCircle
 62
250
  6
CONTINUOUS
 10
-66.9660666439
 20
23.0783101841
 30
0.0
 40
0.5000034285
100
AcDbArc
 50
0.0002268279
 51
59.9997731721
  0
ARC
  5
6B6
100
AcDbEntity
  8
PORTATASTO
100
AcDbCircle
 62
7
  6
CONTINUOUS
 10
-66.9647542244
 20
23.0783121635
 30
0.0
 40
0.25
100
AcDbArc
 50
0.0003243525
 51
60.000019938
  0
ARC
  5
6B7
100
AcDbEntity
  8
PORTATASTO
100
AcDbCircle
 62
7
  6
CONTINUOUS
 10
-54.2147542244
 20
21.2859869487
 30
0.0
 40
1.0
100
AcDbArc
 50
0.0
 51
89.6666666667
  0
ARC
  5
6B8
100
AcDbEntity
  8
PORTATASTO
100
AcDbCircle
 62
7
  6
CONTINUOUS
 10
-57.7147542244
 20
23.2659657686
 30
0.0
 40
0.5
100
AcDbArc
 50
0.0
 51
89.4000000001
  0
ARC
  5
6B9
100
AcDbEntity
  8
RACCORDO
100
AcDbCircle
 62
7
  6
CONTINUOUS
 10
-32.7227987079
 20
18.0674431539
 30
0.0
 40
1.0
100
AcDbArc
 50
0.5
 51
89.0
  0
ARC
  5
6BA
100
AcDbEntity
  8
CORPO
100
AcDbCircle
 62
7
  6
CONTINUOUS
 10
-32.7147542244
 20
18.1674681916
 30
0.0
 40
1.0
100
AcDbArc
 50
0.0
 51
89.0
  0
ARC
  5
6BB
100
AcDbEntity
  8
ASSI
100
AcDbCircle
 62
7
  6
CONTINUOUS
 10
-32.7147542244
 20
18.1674681916
 30
0.0
 40
1.0
100
AcDbArc
 50
0.0
 51
89.0
  0
ARC
  5
6BC
100
AcDbEntity
  8
RACCORDO
100
AcDbCircle
 62
7
  6
CONTINUOUS
 10
-39.3513559426
 20
18.6831093497
 30
0.0
 40
0.5
100
AcDbArc
 50
89.0001118259
 51
179.4871826661
  0
ARC
  5
6BD
100
AcDbEntity
  8
RACCORDO
100
AcDbCircle
 62
7
  6
CONTINUOUS
 10
16.3592574557
 20
7.79
 30
0.0
 40
90.0
100
AcDbArc
 50
171.4693845982
 51
178.9113371574
  0
ARC
  5
6BE
100
AcDbEntity
  8
RACCORDO
100
AcDbCircle
 62
250
  6
CONTINUOUS
 10
16.3472691886
 20
7.7899074264
 30
0.0
 40
89.5011017673
100
AcDbArc
 50
171.4694303049
 51
178.91126881
  0
ARC
  5
6BF
100
AcDbEntity
  8
RACCORDO
100
AcDbCircle
 62
7
  6
CONTINUOUS
 10
426.2852457756
 20
-0.0
 30
0.0
 40
500.0
100
AcDbArc
 50
178.9113187259
 51
181.0886820593
  0
ARC
  5
6C0
100
AcDbEntity
  8
RACCORDO
100
AcDbCircle
 62
250
  6
CONTINUOUS
 10
426.3175202359
 20
0.0
 30
0.0
 40
499.5453547465
100
AcDbArc
 50
178.9114135359
 51
181.0885864641
  0
LINE
  5
6C1
100
AcDbEntity
  8
SUPERFICI
100
AcDbLine
 62
7
  6
CONTINUOUS
 10
0.4053538562
 20
-9.8286068682
 30
0.0
 11
1.4484588533
 21
-10.7844364146
 31
0.0
  0
LINE
  5
6C2
100
AcDbEntity
  8
SUPERFICI
100
AcDbLine
 62
7
  6
CONTINUOUS
 10
1.4484588533
 20
-10.7844364146
 30
0.0
 11
1.4883813377
 21
-10.8210186286
 31
0.0
  0
LINE
  5
6C3
100
AcDbEntity
  8
SUPERFICI
100
AcDbLine
 62
7
  6
CONTINUOUS
 10
1.4883813377
 20
-10.8210186286
 30
0.0
 11
2.5708410571
 21
-11.8129101151
 31
0.0
  0
LINE
  5
6C4
100
AcDbEntity
  8
SUPERFICI
100
AcDbLine
 62
7
  6
CONTINUOUS
 10
2.5708410571
 20
-11.8129101151
 30
0.0
 11
3.6526774028
 21
-12.804230369
 31
0.0
  0
SPLINE
  5
6C5
100
AcDbEntity
  8
SUPERFICI
100
AcDbSpline
 62
7
  6
CONTINUOUS
 70
0
 71
3
 72
9
 73
5
 74
0
 42
0.0000001
 43
0.0000001
 44
0.0000000001
 40
0.0
 40
0.0
 40
0.0
 40
0.0
 40
0.4999287406
 40
1.0
 40
1.0
 40
1.0
 40
1.0
 10
-0.3742510724
 20
-9.8020891127
 30
0.0
 10
-0.2707088517
 20
-9.7200185215
 30
0.0
 10
-0.0001480999
 20
-9.6221414912
 30
0.0
 10
0.270483228
 20
-9.7198903612
 30
0.0
 10
0.3740808594
 20
-9.801951671
 30
0.0
  0
LINE
  5
6C6
100
AcDbEntity
  8
SUPERFICI
100
AcDbLine
 62
7
  6
CONTINUOUS
 10
-3.6526771652
 20
-12.8042301513
 30
0.0
 11
-2.5708403374
 21
-11.8129094555
 31
0.0
  0
LINE
  5
6C7
100
AcDbEntity
  8
SUPERFICI
100
AcDbLine
 62
7
  6
CONTINUOUS
 10
-2.5708403374
 20
-11.8129094555
 30
0.0
 11
-1.4495499875
 21
-10.7854362548
 31
0.0
  0
LINE
  5
6C8
100
AcDbEntity
  8
SUPERFICI
100
AcDbLine
 62
7
  6
CONTINUOUS
 10
-1.4495499875
 20
-10.7854362548
 30
0.0
 11
-0.4053538497
 21
-9.8286068622
 31
0.0
  0
LINE
  5
6C9
100
AcDbEntity
  8
SUPERFICI
100
AcDbLine
 62
7
  6
CONTINUOUS
 10
-0.2026774097
 20
-10.4566923754
 30
0.0
 11
-1.2181549998
 21
-11.3872061209
 31
0.0
  0
LINE
  5
6CA
100
AcDbEntity
  8
SUPERFICI
100
AcDbLine
 62
7
  6
CONTINUOUS
 10
-1.2181549998
 20
-11.3872061209
 30
0.0
 11
-2.2330523011
 21
-12.317188142
 31
0.0
  0
LINE
  5
6CB
100
AcDbEntity
  8
SUPERFICI
100
AcDbLine
 62
7
  6
CONTINUOUS
 10
-2.2330523011
 20
-12.317188142
 30
0.0
 11
-3.2473235154
 21
-13.2465964722
 31
0.0
  0
SPLINE
  5
6CC
100
AcDbEntity
  8
SUPERFICI
100
AcDbSpline
 62
7
  6
CONTINUOUS
 70
0
 71
3
 72
8
 73
4
 74
0
 42
0.0000001
 43
0.0000001
 44
0.0000000001
 40
0.0
 40
0.0
 40
0.0
 40
0.0
 40
1.0
 40
1.0
 40
1.0
 40
1.0
 10
0.2026780149
 20
-10.45669293
 30
0.0
 10
0.1844863308
 20
-10.4400232253
 30
0.0
 10
0.1639303796
 20
-10.4256813031
 30
0.0
 10
0.1421610244
 20
-10.4140661578
 30
0.0
  0
SPLINE
  5
6CD
100
AcDbEntity
  8
SUPERFICI
100
AcDbSpline
 62
7
  6
CONTINUOUS
 70
0
 71
3
 72
11
 73
7
 74
0
 42
0.0000001
 43
0.0000001
 44
0.0000000001
 40
0.0
 40
0.0
 40
0.0
 40
0.0
 40
0.248853464
 40
0.5017065037
 40
0.7561783974
 40
1.0
 40
1.0
 40
1.0
 40
1.0
 10
0.1421610244
 20
-10.4140661578
 30
0.0
 10
0.1164045948
 20
-10.4003236898
 30
0.0
 10
0.0602757828
 20
-10.3797440734
 30
0.0
 10
-0.0296854065
 20
-10.3747333224
 30
0.0
 10
-0.1161741417
 20
-10.3972842882
 30
0.0
 10
-0.1673189421
 20
-10.4273783495
 30
0.0
 10
-0.189548061
 20
-10.4453783094
 30
0.0
  0
LINE
  5
6CE
100
AcDbEntity
  8
SUPERFICI
100
AcDbLine
 62
7
  6
CONTINUOUS
 10
3.2473232807
 20
-13.2465962571
 30
0.0
 11
1.2181543682
 21
-11.3872055422
 31
0.0
  0
LINE
  5
6CF
100
AcDbEntity
  8
SUPERFICI
100
AcDbLine
 62
7
  6
CONTINUOUS
 10
1.2181543682
 20
-11.3872055422
 30
0.0
 11
0.2026780148
 21
-10.45669293
 31
0.0
  0
SPLINE
  5
6D0
100
AcDbEntity
  8
SUPERFICI
100
AcDbSpline
 62
7
  6
CONTINUOUS
 70
0
 71
3
 72
13
 73
9
 74
0
 42
0.0000001
 43
0.0000001
 44
0.0000000001
 40
0.0
 40
0.0
 40
0.0
 40
0.0
 40
0.2443415003
 40
0.498413918
 40
0.6256568676
 40
0.7529318162
 40
0.877964261
 40
1.0
 40
1.0
 40
1.0
 40
1.0
 10
3.3877988796
 20
-14.4603917915
 30
0.0
 10
3.4491738185
 20
-14.5166327349
 30
0.0
 10
3.546947755
 20
-14.6657635024
 30
0.0
 10
3.5595207902
 20
-14.8890212374
 30
0.0
 10
3.5026868306
 20
-15.054520166
 30
0.0
 10
3.4292013785
 20
-15.1627646754
 30
0.0
 10
3.3326699575
 20
-15.2481119438
 30
0.0
 10
3.2564058094
 20
-15.2862279209
 30
0.0
 10
3.2172057489
 20
-15.3000846861
 30
0.0
  0
SPLINE
  5
6D1
100
AcDbEntity
  8
SUPERFICI
100
AcDbSpline
 62
7
  6
CONTINUOUS
 70
0
 71
3
 72
9
 73
5
 74
0
 42
0.0000001
 43
0.0000001
 44
0.0000000001
 40
0.0
 40
0.0
 40
0.0
 40
0.0
 40
0.2523812733
 40
1.0
 40
1.0
 40
1.0
 40
1.0
 10
3.2172057489
 20
-15.3000846861
 30
0.0
 10
3.2037100749
 20
-15.3048552498
 30
0.0
 10
3.1494660148
 20
-15.3214907022
 30
0.0
 10
3.0924020402
 20
-15.3290269855
 30
0.0
 10
3.0500001702
 20
-15.329027
 30
0.0
  0
LINE
  5
6D2
100
AcDbEntity
  8
SUPERFICI
100
AcDbLine
 62
7
  6
CONTINUOUS
 10
0.2702361109
 20
-11.6036721017
 30
0.0
 11
1.310230833
 21
-12.556651867
 31
0.0
  0
LINE
  5
6D3
100
AcDbEntity
  8
SUPERFICI
100
AcDbLine
 62
7
  6
CONTINUOUS
 10
1.310230833
 20
-12.556651867
 30
0.0
 11
2.3494336175
 21
-13.5089059418
 31
0.0
  0
LINE
  5
6D4
100
AcDbEntity
  8
SUPERFICI
100
AcDbLine
 62
7
  6
CONTINUOUS
 10
2.3494336175
 20
-13.5089059418
 30
0.0
 11
3.3240031301
 21
-14.4019345097
 31
0.0
  0
LINE
  5
6D5
100
AcDbEntity
  8
SUPERFICI
100
AcDbLine
 62
7
  6
CONTINUOUS
 10
3.3240031301
 20
-14.4019345097
 30
0.0
 11
3.3877984988
 21
-14.4603922047
 31
0.0
  0
SPLINE
  5
6D6
100
AcDbEntity
  8
SUPERFICI
100
AcDbSpline
 62
7
  6
CONTINUOUS
 70
0
 71
3
 72
9
 73
5
 74
0
 42
0.0000001
 43
0.0000001
 44
0.0000000001
 40
0.0
 40
0.0
 40
0.0
 40
0.0
 40
0.498397989
 40
1.0
 40
1.0
 40
1.0
 40
1.0
 10
-0.2467904943
 20
-11.5838745752
 30
0.0
 10
-0.17831543
 20
-11.5306623747
 30
0.0
 10
-0.0005414878
 20
-11.4667291832
 30
0.0
 10
0.1776466198
 20
-11.5302125603
 30
0.0
 10
0.2465958707
 20
-11.5837230816
 30
0.0
  0
LINE
  5
6D7
100
AcDbEntity
  8
SUPERFICI
100
AcDbLine
 62
7
  6
CONTINUOUS
 10
-3.3877949056
 20
-14.4603889135
 30
0.0
 11
-2.3494343135
 21
-13.5089065796
 31
0.0
  0
LINE
  5
6D8
100
AcDbEntity
  8
SUPERFICI
100
AcDbLine
 62
7
  6
CONTINUOUS
 10
-2.3494343135
 20
-13.5089065796
 30
0.0
 11
-1.2868120206
 21
-12.5351924751
 31
0.0
  0
LINE
  5
6D9
100
AcDbEntity
  8
SUPERFICI
100
AcDbLine
 62
7
  6
CONTINUOUS
 10
-1.2868120206
 20
-12.5351924751
 30
0.0
 11
-0.2702364174
 21
-11.6036723826
 31
0.0
  0
SPLINE
  5
6DA
100
AcDbEntity
  8
SUPERFICI
100
AcDbSpline
 62
7
  6
CONTINUOUS
 70
0
 71
3
 72
15
 73
11
 74
0
 42
0.0000001
 43
0.0000001
 44
0.0000000001
 40
0.0
 40
0.0
 40
0.0
 40
0.0
 40
0.1232313269
 40
0.2463994393
 40
0.3748150389
 40
0.5023634656
 40
0.6299706697
 40
0.7558691058
 40
0.8793001997
 40
1.0
 40
1.0
 40
1.0
 40
1.0
 10
-3.0499951231
 20
-15.329026437
 30
0.0
 10
-3.0971180876
 20
-15.3290269042
 30
0.0
 10
-3.1917965582
 20
-15.3151905788
 30
0.0
 10
-3.3242564528
 20
-15.2557261549
 30
0.0
 10
-3.4348680546
 20
-15.158710953
 30
0.0
 10
-3.5146043713
 20
-15.0331036959
 30
0.0
 10
-3.5530149457
 20
-14.8903095119
 30
0.0
 10
-3.5497401499
 20
-14.744214356
 30
0.0
 10
-3.5056306173
 20
-14.607773076
 30
0.0
 10
-3.4526283153
 20
-14.529252262
 30
0.0
 10
-3.4218558181
 20
-14.4948526933
 30
0.0
  0
SPLINE
  5
6DB
100
AcDbEntity
  8
SUPERFICI
100
AcDbSpline
 62
7
  6
CONTINUOUS
 70
0
 71
3
 72
11
 73
7
 74
0
 42
0.0000001
 43
0.0000001
 44
0.0000000001
 40
0.0
 40
0.0
 40
0.0
 40
0.0
 40
0.2415041401
 40
0.4954549404
 40
0.7513817559
 40
1.0
 40
1.0
 40
1.0
 40
1.0
 10
-2.603251089
 20
-14.5552918355
 30
0.0
 10
-2.6144752995
 20
-14.5655746438
 30
0.0
 10
-2.6328662522
 20
-14.5924180187
 30
0.0
 10
-2.6389278333
 20
-14.641262158
 30
0.0
 10
-2.6214196715
 20
-14.6877516417
 30
0.0
 10
-2.5966262774
 20
-14.70987427
 30
0.0
 10
-2.5827938782
 20
-14.7172388185
 30
0.0
  0
SPLINE
  5
6DC
100
AcDbEntity
  8
SUPERFICI
100
AcDbSpline
 62
7
  6
CONTINUOUS
 70
0
 71
3
 72
9
 73
5
 74
0
 42
0.0000001
 43
0.0000001
 44
0.0000000001
 40
0.0
 40
0.0
 40
0.0
 40
0.0
 40
0.2533104177
 40
1.0
 40
1.0
 40
1.0
 40
1.0
 10
-2.5827938782
 20
-14.7172388185
 30
0.0
 10
-2.5791550571
 20
-14.719176174
 30
0.0
 10
-2.5643250122
 20
-14.7259180584
 30
0.0
 10
-2.5478475701
 20
-14.7290270606
 30
0.0
 10
-2.5356958008
 20
-14.7290264449
 30
0.0
  0
LINE
  5
6DD
100
AcDbEntity
  8
SUPERFICI
100
AcDbLine
 62
7
  6
CONTINUOUS
 10
-0.0675591554
 20
-12.2317581424
 30
0.0
 11
-0.9133660334
 21
-13.0067973879
 31
0.0
  0
LINE
  5
6DE
100
AcDbEntity
  8
SUPERFICI
100
AcDbLine
 62
7
  6
CONTINUOUS
 10
-0.9133660334
 20
-13.0067973879
 30
0.0
 11
-1.7586084568
 21
-13.781319412
 31
0.0
  0
LINE
  5
6DF
100
AcDbEntity
  8
SUPERFICI
100
AcDbLine
 62
7
  6
CONTINUOUS
 10
-1.7586084568
 20
-13.781319412
 30
0.0
 11
-2.6032510882
 21
-14.5552918363
 31
0.0
  0
SPLINE
  5
6E0
100
AcDbEntity
  8
SUPERFICI
100
AcDbSpline
 62
7
  6
CONTINUOUS
 70
0
 71
3
 72
9
 73
5
 74
0
 42
0.0000001
 43
0.0000001
 44
0.0000000001
 40
0.0
 40
0.0
 40
0.0
 40
0.0
 40
0.5011797588
 40
1.0
 40
1.0
 40
1.0
 40
1.0
 10
0.0420895905
 20
-12.2149147966
 30
0.0
 10
0.0318460339
 20
-12.2101811984
 30
0.0
 10
0.0097019653
 20
-12.2039441524
 30
0.0
 10
-0.0132663884
 20
-12.2057851864
 30
0.0
 10
-0.0241509921
 20
-12.2085540562
 30
0.0
  0
LINE
  5
6E1
100
AcDbEntity
  8
SUPERFICI
100
AcDbLine
 62
7
  6
CONTINUOUS
 10
2.6032589077
 20
-14.5552989993
 30
0.0
 11
0.9133664448
 21
-13.0067977649
 31
0.0
  0
LINE
  5
6E2
100
AcDbEntity
  8
SUPERFICI
100
AcDbLine
 62
7
  6
CONTINUOUS
 10
0.9133664448
 20
-13.0067977649
 30
0.0
 11
0.0675594149
 21
-12.2317583802
 31
0.0
  0
LINE
  5
6E3
100
AcDbEntity
  8
DRAFT
100
AcDbLine
 62
7
  6
CONTINUOUS
 10
0.4053538571
 20
-9.828606869
 30
0.0
 11
3.652676929
 21
-12.8042299349
 31
0.0
  0
LINE
  5
6E4
100
AcDbEntity
  8
DRAFT
100
AcDbLine
 62
7
  6
CONTINUOUS
 10
-0.4053538571
 20
-9.828606869
 30
0.0
 11
-3.652676929
 21
-12.8042299349
 31
0.0
  0
LINE
  5
6E5
100
AcDbEntity
  8
DRAFT
100
AcDbLine
 62
7
  6
CONTINUOUS
 10
-0.2026773978
 20
-10.4566923645
 30
0.0
 11
-3.2473230625
 21
-13.2465960573
 31
0.0
  0
LINE
  5
6E6
100
AcDbEntity
  8
DRAFT
100
AcDbLine
 62
7
  6
CONTINUOUS
 10
0.2026773978
 20
-10.4566923645
 30
0.0
 11
3.2473230625
 21
-13.2465960573
 31
0.0
  0
LINE
  5
6E7
100
AcDbEntity
  8
DRAFT
100
AcDbLine
 62
7
  6
CONTINUOUS
 10
0.2702360957
 20
-11.6036720877
 30
0.0
 11
3.3877947159
 21
-14.4603887397
 31
0.0
  0
LINE
  5
6E8
100
AcDbEntity
  8
DRAFT
100
AcDbLine
 62
7
  6
CONTINUOUS
 10
-0.2702360957
 20
-11.6036720877
 30
0.0
 11
-3.387794765
 21
-14.4603887847
 31
0.0
  0
LINE
  5
6E9
100
AcDbEntity
  8
DRAFT
100
AcDbLine
 62
7
  6
CONTINUOUS
 10
-0.067559135
 20
-12.2317581237
 30
0.0
 11
-2.6032596612
 21
-14.5552996895
 31
0.0
  0
LINE
  5
6EA
100
AcDbEntity
  8
DRAFT
100
AcDbLine
 62
7
  6
CONTINUOUS
 10
0.067559135
 20
-12.2317581237
 30
0.0
 11
2.6032599581
 21
-14.5552992089
 31
0.0
  0
SPLINE
  5
6EB
100
AcDbEntity
  8
RACCORDO
100
AcDbSpline
 62
250
  6
CONTINUOUS
 70
0
 71
3
 72
18
 73
14
 74
0
 42
0.0000001
 43
0.0000001
 44
0.0000000001
 40
0.0
 40
0.0
 40
0.0
 40
0.0
 40
0.0074247296
 40
0.0239633808
 40
0.0495092307
 40
0.0838839566
 40
0.1268427744
 40
0.177918397
 40
0.3023242963
 40
0.4526536258
 40
0.6234464807
 40
0.8085434481
 40
1.0
 40
1.0
 40
1.0
 40
1.0
 10
-22.0079958269
 20
-9.4905
 30
0.0
 10
-22.0069943333
 20
-9.4912272939
 30
0.0
 10
-22.0027407639
 20
-9.4914797498
 30
0.0
 10
-21.9947711656
 20
-9.4926203034
 30
0.0
 10
-21.9819258038
 20
-9.4932881319
 30
0.0
 10
-21.9648481822
 20
-9.494196686
 30
0.0
 10
-21.9434376128
 20
-9.4949805019
 30
0.0
 10
-21.9070486286
 20
-9.4961007428
 30
0.0
 10
-21.8527420833
 20
-9.497286676
 30
0.0
 10
-21.778482233
 20
-9.4984257884
 30
0.0
 10
-21.6940978047
 20
-9.4992886969
 30
0.0
 10
-21.6028556779
 20
-9.4998375178
 30
0.0
 10
-21.5400833692
 20
-9.4999841235
 30
0.0
 10
-21.5081671644
 20
-9.5
 30
0.0
  0
SPLINE
  5
6EC
100
AcDbEntity
  8
RACCORDO
100
AcDbSpline
 62
250
  6
CONTINUOUS
 70
0
 71
3
 72
18
 73
14
 74
0
 42
0.0000001
 43
0.0000001
 44
0.0000000001
 40
0.0
 40
0.0
 40
0.0
 40
0.0
 40
0.0074247404
 40
0.0239634011
 40
0.0495092589
 40
0.083883991
 40
0.1268428133
 40
0.1779184387
 40
0.3023243389
 40
0.4526536635
 40
0.6234465086
 40
0.8085434629
 40
1.0
 40
1.0
 40
1.0
 40
1.0
 10
-22.0079958269
 20
9.4905
 30
0.0
 10
-22.0069943302
 20
9.4912272927
 30
0.0
 10
-22.0027407599
 20
9.4914797506
 30
0.0
 10
-21.9947711548
 20
9.4926203024
 30
0.0
 10
-21.9819257902
 20
9.4932881319
 30
0.0
 10
-21.9648481649
 20
9.4941966854
 30
0.0
 10
-21.9434375935
 20
9.4949805015
 30
0.0
 10
-21.9070486078
 20
9.4961007422
 30
0.0
 10
-21.8527420628
 20
9.4972866752
 30
0.0
 10
-21.7784822149
 20
9.4984257874
 30
0.0
 10
-21.6940977912
 20
9.4992886958
 30
0.0
 10
-21.6028556708
 20
9.4998375167
 30
0.0
 10
-21.5400833667
 20
9.4999841223
 30
0.0
 10
-21.5081671644
 20
9.4999999988
 30
0.0
  0
SPLINE
  5
6ED
100
AcDbEntity
  8
RACCORDO
100
AcDbSpline
 62
250
  6
CONTINUOUS
 70
0
 71
3
 72
13
 73
9
 74
0
 42
0.0000001
 43
0.0000001
 44
0.0000000001
 40
0.0
 40
0.0
 40
0.0
 40
0.0
 40
0.035998316
 40
0.1001284713
 40
0.1949877141
 40
0.3181466111
 40
0.6327317376
 40
1.0
 40
1.0
 40
1.0
 40
1.0
 10
-22.0335010567
 20
21.0662387498
 30
0.0
 10
-22.0324417024
 20
21.0723037505
 30
0.0
 10
-22.0176418407
 20
21.0848044733
 30
0.0
 10
-21.9873336134
 20
21.0964383311
 30
0.0
 10
-21.9401108219
 20
21.1087052276
 30
0.0
 10
-21.8504775087
 20
21.1239400795
 30
0.0
 10
-21.7130573752
 20
21.1365443763
 30
0.0
 10
-21.5964861347
 20
21.1401623611
 30
0.0
 10
-21.5336723945
 20
21.1404036432
 30
0.0
  0
SPLINE
  5
6EE
100
AcDbEntity
  8
RACCORDO
100
AcDbSpline
 62
250
  6
CONTINUOUS
 70
0
 71
3
 72
13
 73
9
 74
0
 42
0.0000001
 43
0.0000001
 44
0.0000000001
 40
0.0
 40
0.0
 40
0.0
 40
0.0
 40
0.0359954654
 40
0.1001217438
 40
0.1949779055
 40
0.3181352234
 40
0.6327229574
 40
1.0
 40
1.0
 40
1.0
 40
1.0
 10
22.033501057
 20
21.0662387498
 30
0.0
 10
22.0324430177
 20
21.0723035131
 30
0.0
 10
22.0176451391
 20
21.0848056545
 30
0.0
 10
21.9873385382
 20
21.0964394594
 30
0.0
 10
21.9401172385
 20
21.108707207
 30
0.0
 10
21.8504839971
 20
21.1239429066
 30
0.0
 10
21.7130616298
 20
21.1365481605
 30
0.0
 10
21.5964879172
 20
21.1401663769
 30
0.0
 10
21.5336723945
 20
21.1404076758
 30
0.0
  0
SPLINE
  5
6EF
100
AcDbEntity
  8
RACCORDO
100
AcDbSpline
 62
250
  6
CONTINUOUS
 70
0
 71
3
 72
18
 73
14
 74
0
 42
0.0000001
 43
0.0000001
 44
0.0000000001
 40
0.0
 40
0.0
 40
0.0
 40
0.0
 40
0.0074247295
 40
0.0239633807
 40
0.0495092305
 40
0.0838839563
 40
0.1268427741
 40
0.1779183967
 40
0.302324296
 40
0.4526536255
 40
0.6234464805
 40
0.808543448
 40
1.0
 40
1.0
 40
1.0
 40
1.0
 10
22.0079958269
 20
9.4905
 30
0.0
 10
22.0069943333
 20
9.4912272939
 30
0.0
 10
22.0027407639
 20
9.4914797498
 30
0.0
 10
21.9947711657
 20
9.4926203034
 30
0.0
 10
21.981925804
 20
9.4932881319
 30
0.0
 10
21.9648481824
 20
9.494196686
 30
0.0
 10
21.943437613
 20
9.4949805019
 30
0.0
 10
21.9070486288
 20
9.4961007428
 30
0.0
 10
21.8527420834
 20
9.497286676
 30
0.0
 10
21.7784822332
 20
9.4984257884
 30
0.0
 10
21.6940978048
 20
9.4992886969
 30
0.0
 10
21.602855678
 20
9.4998375178
 30
0.0
 10
21.5400833692
 20
9.4999841235
 30
0.0
 10
21.5081671644
 20
9.5
 30
0.0
  0
SPLINE
  5
6F0
100
AcDbEntity
  8
RACCORDO
100
AcDbSpline
 62
250
  6
CONTINUOUS
 70
0
 71
3
 72
18
 73
14
 74
0
 42
0.0000001
 43
0.0000001
 44
0.0000000001
 40
0.0
 40
0.0
 40
0.0
 40
0.0
 40
0.0074247359
 40
0.0239633925
 40
0.049509247
 40
0.0838839765
 40
0.1268427969
 40
0.1779184211
 40
0.302324321
 40
0.4526536476
 40
0.6234464969
 40
0.8085434567
 40
1.0
 40
1.0
 40
1.0
 40
1.0
 10
22.0079958269
 20
-9.4905
 30
0.0
 10
22.0069943315
 20
-9.4912272932
 30
0.0
 10
22.0027407616
 20
-9.4914797503
 30
0.0
 10
21.9947711593
 20
-9.4926203028
 30
0.0
 10
21.9819257959
 20
-9.4932881319
 30
0.0
 10
21.9648481722
 20
-9.4941966857
 30
0.0
 10
21.9434376016
 20
-9.4949805016
 30
0.0
 10
21.9070486166
 20
-9.4961007424
 30
0.0
 10
21.8527420714
 20
-9.4972866755
 30
0.0
 10
21.7784822225
 20
-9.4984257878
 30
0.0
 10
21.6940977969
 20
-9.4992886963
 30
0.0
 10
21.6028556738
 20
-9.4998375172
 30
0.0
 10
21.5400833677
 20
-9.4999841228
 30
0.0
 10
21.5081671644
 20
-9.4999999993
 30
0.0
  0
SPLINE
  5
6F1
100
AcDbEntity
  8
RACCORDO
100
AcDbSpline
 62
250
  6
CONTINUOUS
 70
0
 71
3
 72
13
 73
9
 74
0
 42
0.0000001
 43
0.0000001
 44
0.0000000001
 40
0.0
 40
0.0
 40
0.0
 40
0.0
 40
0.0359984304
 40
0.1001288233
 40
0.194988303
 40
0.3181473588
 40
0.632732375
 40
1.0
 40
1.0
 40
1.0
 40
1.0
 10
22.0335010567
 20
-21.0662387498
 30
0.0
 10
22.0324416408
 20
-21.0723037576
 30
0.0
 10
22.0176416479
 20
-21.0848043906
 30
0.0
 10
21.987333326
 20
-21.0964382225
 30
0.0
 10
21.9401104176
 20
-21.1087050561
 30
0.0
 10
21.8504770754
 20
-21.1239398348
 30
0.0
 10
21.7130570809
 20
-21.1365440671
 30
0.0
 10
21.596486006
 20
-21.1401620455
 30
0.0
 10
21.5336723946
 20
-21.1404033349
 30
0.0
  0
SPLINE
  5
6F2
100
AcDbEntity
  8
RACCORDO
100
AcDbSpline
 62
250
  6
CONTINUOUS
 70
0
 71
3
 72
16
 73
12
 74
0
 42
0.0000001
 43
0.0000001
 44
0.0000000001
 40
0.0
 40
0.0
 40
0.0
 40
0.0
 40
0.3802939731
 40
0.5487762339
 40
0.6961579111
 40
0.8180812732
 40
0.9109948017
 40
0.9457055895
 40
0.9722180479
 40
0.9903512855
 40
1.0
 40
1.0
 40
1.0
 40
1.0
 10
-21.5336723936
 20
21.1404074278
 30
0.0
 10
-21.5338852411
 20
21.2482218076
 30
0.0
 10
-21.5345104096
 20
21.4038015326
 30
0.0
 10
-21.5361591575
 20
21.6011574323
 30
0.0
 10
-21.5376233786
 20
21.7252644956
 30
0.0
 10
-21.5393383442
 20
21.8279374677
 30
0.0
 10
-21.5409730676
 20
21.8986744162
 30
0.0
 10
-21.5425116785
 20
21.9423368199
 30
0.0
 10
-21.5434820146
 20
21.9648311739
 30
0.0
 10
-21.5446065471
 20
21.9801516214
 30
0.0
 10
-21.5452700803
 20
21.9880460221
 30
0.0
 10
-21.5459352718
 20
21.990699353
 30
0.0
  0
SPLINE
  5
6F3
100
AcDbEntity
  8
RACCORDO
100
AcDbSpline
 62
250
  6
CONTINUOUS
 70
0
 71
3
 72
16
 73
12
 74
0
 42
0.0000001
 43
0.0000001
 44
0.0000000001
 40
0.0
 40
0.0
 40
0.0
 40
0.0
 40
0.0096487174
 40
0.027781939
 40
0.0542943588
 40
0.0890050886
 40
0.1819187672
 40
0.3038423419
 40
0.4512236444
 40
0.6197058479
 40
1.0
 40
1.0
 40
1.0
 40
1.0
 10
21.5459352718
 20
21.990699353
 30
0.0
 10
21.5452700799
 20
21.9880460214
 30
0.0
 10
21.5446065432
 20
21.9801516249
 30
0.0
 10
21.5434820109
 20
21.9648311919
 30
0.0
 10
21.5425116784
 20
21.9423368697
 30
0.0
 10
21.5409730768
 20
21.8986744504
 30
0.0
 10
21.5393383533
 20
21.8279374156
 30
0.0
 10
21.53762336
 20
21.7252644473
 30
0.0
 10
21.5361591619
 20
21.6011574459
 30
0.0
 10
21.5345104162
 20
21.4038016179
 30
0.0
 10
21.5338852399
 20
21.2482218583
 30
0.0
 10
21.5336723936
 20
21.1404074278
 30
0.0
  0
SPLINE
  5
6F4
100
AcDbEntity
  8
RACCORDO
100
AcDbSpline
 62
250
  6
CONTINUOUS
 70
0
 71
3
 72
16
 73
12
 74
0
 42
0.0000001
 43
0.0000001
 44
0.0000000001
 40
0.0
 40
0.0
 40
0.0
 40
0.0
 40
0.0096543632
 40
0.0277847367
 40
0.0542934179
 40
0.0890035942
 40
0.1819190755
 40
0.303842301
 40
0.4512235394
 40
0.6197060895
 40
1.0
 40
1.0
 40
1.0
 40
1.0
 10
-21.5459352718
 20
-21.990699353
 30
0.0
 10
-21.5452714134
 20
-21.9880440375
 30
0.0
 10
-21.5446061935
 20
-21.9801494313
 30
0.0
 10
-21.5434824795
 20
-21.9648288656
 30
0.0
 10
-21.5425114777
 20
-21.9423367718
 30
0.0
 10
-21.5409732095
 20
-21.8986749507
 30
0.0
 10
-21.5393376758
 20
-21.8279377489
 30
0.0
 10
-21.5376217159
 20
-21.7252643655
 30
0.0
 10
-21.5361592688
 20
-21.6011573683
 30
0.0
 10
-21.534511337
 20
-21.4038015171
 30
0.0
 10
-21.5338844412
 20
-21.2482217306
 30
0.0
 10
-21.5336723934
 20
-21.1404073643
 30
0.0
  0
SPLINE
  5
6F5
100
AcDbEntity
  8
RACCORDO
100
AcDbSpline
 62
250
  6
CONTINUOUS
 70
0
 71
3
 72
16
 73
12
 74
0
 42
0.0000001
 43
0.0000001
 44
0.0000000001
 40
0.0
 40
0.0
 40
0.0
 40
0.0
 40
0.3802937295
 40
0.5487764279
 40
0.6961579499
 40
0.8180809172
 40
0.9109962749
 40
0.9457065422
 40
0.9722152773
 40
0.9903456541
 40
1.0
 40
1.0
 40
1.0
 40
1.0
 10
21.5336723934
 20
-21.1404073643
 30
0.0
 10
21.5338844424
 20
-21.2482216793
 30
0.0
 10
21.5345113293
 20
-21.4038014565
 30
0.0
 10
21.5361592684
 20
-21.6011573787
 30
0.0
 10
21.5376217313
 20
-21.725264425
 30
0.0
 10
21.5393376643
 20
-21.8279377809
 30
0.0
 10
21.5409732028
 20
-21.8986749002
 30
0.0
 10
21.5425114814
 20
-21.9423367268
 30
0.0
 10
21.5434824848
 20
-21.9648288629
 30
0.0
 10
21.544606197
 20
-21.9801494395
 30
0.0
 10
21.5452714126
 20
-21.9880440427
 30
0.0
 10
21.5459352718
 20
-21.990699353
 30
0.0
  0
SPLINE
  5
6F6
100
AcDbEntity
  8
RACCORDO
100
AcDbSpline
 62
250
  6
CONTINUOUS
 70
0
 71
3
 72
15
 73
11
 74
0
 42
0.0000001
 43
0.0000001
 44
0.0000000001
 40
0.0
 40
0.0
 40
0.0
 40
0.0
 40
0.0098992022
 40
0.0281551655
 40
0.0894828346
 40
0.1824021818
 40
0.3042690834
 40
0.4515697201
 40
0.619950848
 40
1.0
 40
1.0
 40
1.0
 40
1.0
 10
22.0457639343
 20
21.4913845856
 30
0.0
 10
22.0451352372
 20
21.4901288889
 30
0.0
 10
22.0444159114
 20
21.4861241624
 30
0.0
 10
22.0426568982
 20
21.4736241548
 30
0.0
 10
22.0410718322
 20
21.4491173914
 30
0.0
 10
22.0391266595
 20
21.4100398575
 30
0.0
 10
22.037466522
 20
21.358681437
 30
0.0
 10
22.0359839626
 20
21.2966350787
 30
0.0
 10
22.0343435235
 20
21.1979495211
 30
0.0
 10
22.033713056
 20
21.1201517433
 30
0.0
 10
22.033501057
 20
21.0662387498
 30
0.0
  0
SPLINE
  5
6F7
100
AcDbEntity
  8
RACCORDO
100
AcDbSpline
 62
250
  6
CONTINUOUS
 70
0
 71
3
 72
8
 73
4
 74
0
 42
0.0000001
 43
0.0000001
 44
0.0000000001
 40
0.0
 40
0.0
 40
0.0
 40
0.0
 40
1.0
 40
1.0
 40
1.0
 40
1.0
 10
22.0079958269
 20
9.4905
 30
0.0
 10
22.0048473723
 20
3.1635007834
 30
0.0
 10
22.0048473726
 20
-3.1635007834
 30
0.0
 10
22.0079958269
 20
-9.4905
 30
0.0
  0
SPLINE
  5
6F8
100
AcDbEntity
  8
RACCORDO
100
AcDbSpline
 62
250
  6
CONTINUOUS
 70
0
 71
3
 72
15
 73
11
 74
0
 42
0.0000001
 43
0.0000001
 44
0.0000000001
 40
0.0
 40
0.0
 40
0.0
 40
0.0
 40
0.3800463089
 40
0.5484266466
 40
0.6957325027
 40
0.8176060887
 40
0.9105289706
 40
0.9718419901
 40
0.9900897351
 40
1.0
 40
1.0
 40
1.0
 40
1.0
 10
22.033501057
 20
-21.0662387498
 30
0.0
 10
22.0337126619
 20
-21.1201513259
 30
0.0
 10
22.0343437418
 20
-21.1979485825
 30
0.0
 10
22.0359841088
 20
-21.296634289
 30
0.0
 10
22.0374664551
 20
-21.3586823211
 30
0.0
 10
22.0391269084
 20
-21.4100426028
 30
0.0
 10
22.0410709298
 20
-21.4491202956
 30
0.0
 10
22.0426577812
 20
-21.473622788
 30
0.0
 10
22.0444152891
 20
-21.4861228027
 30
0.0
 10
22.0451371441
 20
-21.4901261829
 30
0.0
 10
22.0457639343
 20
-21.4913845856
 30
0.0
  0
SPLINE
  5
6F9
100
AcDbEntity
  8
RACCORDO
100
AcDbSpline
 62
250
  6
CONTINUOUS
 70
0
 71
3
 72
15
 73
11
 74
0
 42
0.0000001
 43
0.0000001
 44
0.0000000001
 40
0.0
 40
0.0
 40
0.0
 40
0.0
 40
0.0099102718
 40
0.028157978
 40
0.0894708659
 40
0.1823939512
 40
0.3042677861
 40
0.4515732626
 40
0.6199534854
 40
1.0
 40
1.0
 40
1.0
 40
1.0
 10
-22.0457639343
 20
-21.4913845856
 30
0.0
 10
-22.0451371471
 20
-21.4901261803
 30
0.0
 10
-22.0444152881
 20
-21.4861228075
 30
0.0
 10
-22.0426577828
 20
-21.4736228134
 30
0.0
 10
-22.0410709269
 20
-21.4491203186
 30
0.0
 10
-22.0391269124
 20
-21.410042579
 30
0.0
 10
-22.0374664543
 20
-21.3586822876
 30
0.0
 10
-22.0359841055
 20
-21.2966342901
 30
0.0
 10
-22.0343437452
 20
-21.1979486246
 30
0.0
 10
-22.0337126617
 20
-21.1201513551
 30
0.0
 10
-22.033501057
 20
-21.0662387498
 30
0.0
  0
SPLINE
  5
6FA
100
AcDbEntity
  8
RACCORDO
100
AcDbSpline
 62
250
  6
CONTINUOUS
 70
0
 71
3
 72
8
 73
4
 74
0
 42
0.0000001
 43
0.0000001
 44
0.0000000001
 40
0.0
 40
0.0
 40
0.0
 40
0.0
 40
1.0
 40
1.0
 40
1.0
 40
1.0
 10
-22.0079958269
 20
-9.4905
 30
0.0
 10
-22.0048473726
 20
-3.1635007834
 30
0.0
 10
-22.0048473723
 20
3.1635007834
 30
0.0
 10
-22.0079958269
 20
9.4905
 30
0.0
  0
SPLINE
  5
6FB
100
AcDbEntity
  8
RACCORDO
100
AcDbSpline
 62
250
  6
CONTINUOUS
 70
0
 71
3
 72
15
 73
11
 74
0
 42
0.0000001
 43
0.0000001
 44
0.0000000001
 40
0.0
 40
0.0
 40
0.0
 40
0.0
 40
0.3800489799
 40
0.5484301179
 40
0.695731141
 40
0.8175979521
 40
0.9105170533
 40
0.9718447368
 40
0.990100772
 40
1.0
 40
1.0
 40
1.0
 40
1.0
 10
-22.033501057
 20
21.0662387498
 30
0.0
 10
-22.0337130564
 20
21.1201517188
 30
0.0
 10
-22.0343435195
 20
21.1979494735
 30
0.0
 10
-22.0359839643
 20
21.2966350629
 30
0.0
 10
-22.0374665251
 20
21.3586814643
 30
0.0
 10
-22.0391266558
 20
21.4100398925
 30
0.0
 10
-22.0410718317
 20
21.4491173796
 30
0.0
 10
-22.0426568989
 20
21.4736241219
 30
0.0
 10
-22.0444159139
 20
21.4861241429
 30
0.0
 10
-22.0451352332
 20
21.4901288868
 30
0.0
 10
-22.0457639343
 20
21.4913845856
 30
0.0
  0
SPLINE
  5
6FC
100
AcDbEntity
  8
RACCORDO
100
AcDbSpline
 62
250
  6
CONTINUOUS
 70
0
 71
3
 72
13
 73
9
 74
0
 42
0.0000001
 43
0.0000001
 44
0.0000000001
 40
0.0
 40
0.0
 40
0.0
 40
0.0
 40
0.0359954702
 40
0.1001217538
 40
0.1949779186
 40
0.3181352373
 40
0.6327229669
 40
1.0
 40
1.0
 40
1.0
 40
1.0
 10
-22.033501057
 20
-21.0662387498
 30
0.0
 10
-22.0324430155
 20
-21.0723035135
 30
0.0
 10
-22.0176451343
 20
-21.0848056527
 30
0.0
 10
-21.9873385312
 20
-21.0964394582
 30
0.0
 10
-21.94011723
 20
-21.1087072047
 30
0.0
 10
-21.8504839891
 20
-21.1239429038
 30
0.0
 10
-21.7130616247
 20
-21.1365481567
 30
0.0
 10
-21.5964879152
 20
-21.1401663729
 30
0.0
 10
-21.5336723945
 20
-21.1404076718
 30
0.0
  0
SPLINE
  5
6FD
100
AcDbEntity
  8
PORTATASTO
100
AcDbSpline
 62
250
  6
CONTINUOUS
 70
0
 71
3
 72
9
 73
5
 74
0
 42
0.0000001
 43
0.0000001
 44
0.0000000001
 40
0.0
 40
0.0
 40
0.0
 40
0.0
 40
0.2988558748
 40
1.0
 40
1.0
 40
1.0
 40
1.0
 10
-18.511787934
 20
23.0783121635
 30
0.0
 10
-18.5117878473
 20
23.1214485406
 30
0.0
 10
-18.5119174974
 20
23.2657865037
 30
0.0
 10
-18.5121792793
 20
23.4101270088
 30
0.0
 10
-18.5130969429
 20
23.5113248654
 30
0.0
  0
SPLINE
  5
6FE
100
AcDbEntity
  8
PORTATASTO
100
AcDbSpline
 62
250
  6
CONTINUOUS
 70
0
 71
3
 72
9
 73
5
 74
0
 42
0.0000001
 43
0.0000001
 44
0.0000000001
 40
0.0
 40
0.0
 40
0.0
 40
0.0
 40
0.1835054169
 40
1.0
 40
1.0
 40
1.0
 40
1.0
 10
-18.5130969429
 20
-23.5113248654
 30
0.0
 10
-18.5128567699
 20
-23.4848390648
 30
0.0
 10
-18.511969008
 20
-23.3405029642
 30
0.0
 10
-18.511787697
 20
-23.1961637351
 30
0.0
 10
-18.511787934
 20
-23.0783121635
 30
0.0
  0
SPLINE
  5
6FF
100
AcDbEntity
  8
PORTATASTO
100
AcDbSpline
 62
250
  6
CONTINUOUS
 70
0
 71
3
 72
9
 73
5
 74
0
 42
0.0000001
 43
0.0000001
 44
0.0000000001
 40
0.0
 40
0.0
 40
0.0
 40
0.0
 40
0.1835054169
 40
1.0
 40
1.0
 40
1.0
 40
1.0
 10
-21.3869030571
 20
23.5113248654
 30
0.0
 10
-21.3871432301
 20
23.4848390648
 30
0.0
 10
-21.388030992
 20
23.3405029642
 30
0.0
 10
-21.388212303
 20
23.1961637351
 30
0.0
 10
-21.388212066
 20
23.0783121635
 30
0.0
  0
SPLINE
  5
700
100
AcDbEntity
  8
PORTATASTO
100
AcDbSpline
 62
250
  6
CONTINUOUS
 70
0
 71
3
 72
9
 73
5
 74
0
 42
0.0000001
 43
0.0000001
 44
0.0000000001
 40
0.0
 40
0.0
 40
0.0
 40
0.0
 40
0.2988558748
 40
1.0
 40
1.0
 40
1.0
 40
1.0
 10
-21.388212066
 20
-23.0783121635
 30
0.0
 10
-21.3882121527
 20
-23.1214485406
 30
0.0
 10
-21.3880825026
 20
-23.2657865037
 30
0.0
 10
-21.3878207207
 20
-23.4101270088
 30
0.0
 10
-21.3869030571
 20
-23.5113248654
 30
0.0
  0
SPLINE
  5
701
100
AcDbEntity
  8
PORTATASTO
100
AcDbSpline
 62
250
  6
CONTINUOUS
 70
0
 71
3
 72
9
 73
5
 74
0
 42
0.0000001
 43
0.0000001
 44
0.0000000001
 40
0.0
 40
0.0
 40
0.0
 40
0.0
 40
0.1835054169
 40
1.0
 40
1.0
 40
1.0
 40
1.0
 10
-3.9869030571
 20
23.5113248654
 30
0.0
 10
-3.9871432301
 20
23.4848390648
 30
0.0
 10
-3.988030992
 20
23.3405029642
 30
0.0
 10
-3.988212303
 20
23.1961637351
 30
0.0
 10
-3.988212066
 20
23.0783121635
 30
0.0
  0
SPLINE
  5
702
100
AcDbEntity
  8
PORTATASTO
100
AcDbSpline
 62
250
  6
CONTINUOUS
 70
0
 71
3
 72
9
 73
5
 74
0
 42
0.0000001
 43
0.0000001
 44
0.0000000001
 40
0.0
 40
0.0
 40
0.0
 40
0.0
 40
0.2988558748
 40
1.0
 40
1.0
 40
1.0
 40
1.0
 10
-3.988212066
 20
-23.0783121635
 30
0.0
 10
-3.9882121527
 20
-23.1214485406
 30
0.0
 10
-3.9880825026
 20
-23.2657865037
 30
0.0
 10
-3.9878207207
 20
-23.4101270088
 30
0.0
 10
-3.9869030571
 20
-23.5113248654
 30
0.0
  0
SPLINE
  5
703
100
AcDbEntity
  8
PORTATASTO
100
AcDbSpline
 62
250
  6
CONTINUOUS
 70
0
 71
3
 72
9
 73
5
 74
0
 42
0.0000001
 43
0.0000001
 44
0.0000000001
 40
0.0
 40
0.0
 40
0.0
 40
0.0
 40
0.2988558748
 40
1.0
 40
1.0
 40
1.0
 40
1.0
 10
-1.111787934
 20
23.0783121635
 30
0.0
 10
-1.1117878473
 20
23.1214485406
 30
0.0
 10
-1.1119174974
 20
23.2657865037
 30
0.0
 10
-1.1121792793
 20
23.4101270088
 30
0.0
 10
-1.1130969429
 20
23.5113248654
 30
0.0
  0
SPLINE
  5
704
100
AcDbEntity
  8
PORTATASTO
100
AcDbSpline
 62
250
  6
CONTINUOUS
 70
0
 71
3
 72
9
 73
5
 74
0
 42
0.0000001
 43
0.0000001
 44
0.0000000001
 40
0.0
 40
0.0
 40
0.0
 40
0.0
 40
0.1835054169
 40
1.0
 40
1.0
 40
1.0
 40
1.0
 10
-1.1130969429
 20
-23.5113248654
 30
0.0
 10
-1.1128567699
 20
-23.4848390648
 30
0.0
 10
-1.111969008
 20
-23.3405029642
 30
0.0
 10
-1.111787697
 20
-23.1961637351
 30
0.0
 10
-1.111787934
 20
-23.0783121635
 30
0.0
  0
SPLINE
  5
705
100
AcDbEntity
  8
PORTATASTO
100
AcDbSpline
 62
250
  6
CONTINUOUS
 70
0
 71
3
 72
9
 73
5
 74
0
 42
0.0000001
 43
0.0000001
 44
0.0000000001
 40
0.0
 40
0.0
 40
0.0
 40
0.0
 40
0.1835054169
 40
1.0
 40
1.0
 40
1.0
 40
1.0
 10
3.9869030571
 20
-23.5113248654
 30
0.0
 10
3.9871432301
 20
-23.4848390648
 30
0.0
 10
3.988030992
 20
-23.3405029642
 30
0.0
 10
3.988212303
 20
-23.1961637351
 30
0.0
 10
3.988212066
 20
-23.0783121635
 30
0.0
  0
SPLINE
  5
706
100
AcDbEntity
  8
PORTATASTO
100
AcDbSpline
 62
250
  6
CONTINUOUS
 70
0
 71
3
 72
9
 73
5
 74
0
 42
0.0000001
 43
0.0000001
 44
0.0000000001
 40
0.0
 40
0.0
 40
0.0
 40
0.0
 40
0.2988558748
 40
1.0
 40
1.0
 40
1.0
 40
1.0
 10
3.988212066
 20
23.0783121635
 30
0.0
 10
3.9882121527
 20
23.1214485406
 30
0.0
 10
3.9880825026
 20
23.2657865037
 30
0.0
 10
3.9878207207
 20
23.4101270088
 30
0.0
 10
3.9869030571
 20
23.5113248654
 30
0.0
  0
SPLINE
  5
707
100
AcDbEntity
  8
PORTATASTO
100
AcDbSpline
 62
250
  6
CONTINUOUS
 70
0
 71
3
 72
9
 73
5
 74
0
 42
0.0000001
 43
0.0000001
 44
0.0000000001
 40
0.0
 40
0.0
 40
0.0
 40
0.0
 40
0.2988558748
 40
1.0
 40
1.0
 40
1.0
 40
1.0
 10
1.111787934
 20
-23.0783121635
 30
0.0
 10
1.1117878473
 20
-23.1214485406
 30
0.0
 10
1.1119174974
 20
-23.2657865037
 30
0.0
 10
1.1121792793
 20
-23.4101270088
 30
0.0
 10
1.1130969429
 20
-23.5113248654
 30
0.0
  0
SPLINE
  5
708
100
AcDbEntity
  8
PORTATASTO
100
AcDbSpline
 62
250
  6
CONTINUOUS
 70
0
 71
3
 72
9
 73
5
 74
0
 42
0.0000001
 43
0.0000001
 44
0.0000000001
 40
0.0
 40
0.0
 40
0.0
 40
0.0
 40
0.1835054169
 40
1.0
 40
1.0
 40
1.0
 40
1.0
 10
1.1130969429
 20
23.5113248654
 30
0.0
 10
1.1128567699
 20
23.4848390648
 30
0.0
 10
1.111969008
 20
23.3405029642
 30
0.0
 10
1.111787697
 20
23.1961637351
 30
0.0
 10
1.111787934
 20
23.0783121635
 30
0.0
  0
SPLINE
  5
709
100
AcDbEntity
  8
PORTATASTO
100
AcDbSpline
 62
250
  6
CONTINUOUS
 70
0
 71
3
 72
9
 73
5
 74
0
 42
0.0000001
 43
0.0000001
 44
0.0000000001
 40
0.0
 40
0.0
 40
0.0
 40
0.0
 40
0.2988558748
 40
1.0
 40
1.0
 40
1.0
 40
1.0
 10
18.511787934
 20
-23.0783121635
 30
0.0
 10
18.5117878473
 20
-23.1214485406
 30
0.0
 10
18.5119174974
 20
-23.2657865037
 30
0.0
 10
18.5121792793
 20
-23.4101270088
 30
0.0
 10
18.5130969429
 20
-23.5113248654
 30
0.0
  0
SPLINE
  5
70A
100
AcDbEntity
  8
PORTATASTO
100
AcDbSpline
 62
250
  6
CONTINUOUS
 70
0
 71
3
 72
9
 73
5
 74
0
 42
0.0000001
 43
0.0000001
 44
0.0000000001
 40
0.0
 40
0.0
 40
0.0
 40
0.0
 40
0.1835054169
 40
1.0
 40
1.0
 40
1.0
 40
1.0
 10
18.5130969429
 20
23.5113248654
 30
0.0
 10
18.5128567699
 20
23.4848390648
 30
0.0
 10
18.511969008
 20
23.3405029642
 30
0.0
 10
18.511787697
 20
23.1961637351
 30
0.0
 10
18.511787934
 20
23.0783121635
 30
0.0
  0
SPLINE
  5
70B
100
AcDbEntity
  8
PORTATASTO
100
AcDbSpline
 62
250
  6
CONTINUOUS
 70
0
 71
3
 72
9
 73
5
 74
0
 42
0.0000001
 43
0.0000001
 44
0.0000000001
 40
0.0
 40
0.0
 40
0.0
 40
0.0
 40
0.1835054169
 40
1.0
 40
1.0
 40
1.0
 40
1.0
 10
21.3869030571
 20
-23.5113248654
 30
0.0
 10
21.3871432301
 20
-23.4848390648
 30
0.0
 10
21.388030992
 20
-23.3405029642
 30
0.0
 10
21.388212303
 20
-23.1961637351
 30
0.0
 10
21.388212066
 20
-23.0783121635
 30
0.0
  0
SPLINE
  5
70C
100
AcDbEntity
  8
PORTATASTO
100
AcDbSpline
 62
250
  6
CONTINUOUS
 70
0
 71
3
 72
9
 73
5
 74
0
 42
0.0000001
 43
0.0000001
 44
0.0000000001
 40
0.0
 40
0.0
 40
0.0
 40
0.0
 40
0.2988558748
 40
1.0
 40
1.0
 40
1.0
 40
1.0
 10
21.388212066
 20
23.0783121635
 30
0.0
 10
21.3882121527
 20
23.1214485406
 30
0.0
 10
21.3880825026
 20
23.2657865037
 30
0.0
 10
21.3878207207
 20
23.4101270088
 30
0.0
 10
21.3869030571
 20
23.5113248654
 30
0.0
  0
LINE
  5
70D
100
AcDbEntity
  8
PORTATASTO
100
AcDbLine
 62
7
  6
CONTINUOUS
 10
6.862048365
 20
23.987951635
 30
0.0
 11
7.0620456235
 21
23.7879543765
 31
0.0
  0
SPLINE
  5
70E
100
AcDbEntity
  8
PORTATASTO
100
AcDbSpline
 62
7
  6
CONTINUOUS
 70
0
 71
3
 72
9
 73
5
 74
0
 42
0.0000001
 43
0.0000001
 44
0.0000000001
 40
0.0
 40
0.0
 40
0.0
 40
0.0
 40
0.4778114847
 40
1.0
 40
1.0
 40
1.0
 40
1.0
 10
7.7062405916
 20
23.917706568
 30
0.0
 10
7.7194928163
 20
23.9010129193
 30
0.0
 10
7.741728437
 20
23.861415723
 30
0.0
 10
7.749997306
 20
23.8164842902
 30
0.0
 10
7.749997306
 20
23.7931904121
 30
0.0
  0
SPLINE
  5
70F
100
AcDbEntity
  8
PORTATASTO
100
AcDbSpline
 62
7
  6
CONTINUOUS
 70
0
 71
3
 72
10
 73
6
 74
0
 42
0.0000001
 43
0.0000001
 44
0.0000000001
 40
0.0
 40
0.0
 40
0.0
 40
0.0
 40
0.4492746602
 40
0.7118007678
 40
1.0
 40
1.0
 40
1.0
 40
1.0
 10
14.8906527797
 20
23.9842541302
 30
0.0
 10
14.8545491892
 20
23.9730037505
 30
0.0
 10
14.801318097
 20
23.9370844203
 30
0.0
 10
14.7586370514
 20
23.8632394359
 30
0.0
 10
14.7500005036
 20
23.8164100435
 30
0.0
 10
14.7500005036
 20
23.7921520413
 30
0.0
  0
SPLINE
  5
710
100
AcDbEntity
  8
PORTATASTO
100
AcDbSpline
 62
7
  6
CONTINUOUS
 70
0
 71
3
 72
9
 73
5
 74
0
 42
0.0000001
 43
0.0000001
 44
0.0000000001
 40
0.0
 40
0.0
 40
0.0
 40
0.0
 40
0.4778114847
 40
1.0
 40
1.0
 40
1.0
 40
1.0
 10
14.7937594084
 20
-23.917706568
 30
0.0
 10
14.7805071837
 20
-23.9010129193
 30
0.0
 10
14.758271563
 20
-23.861415723
 30
0.0
 10
14.750002694
 20
-23.8164842902
 30
0.0
 10
14.750002694
 20
-23.7931904121
 30
0.0
  0
LINE
  5
711
100
AcDbEntity
  8
PORTATASTO
100
AcDbLine
 62
7
  6
CONTINUOUS
 10
15.637951635
 20
-23.987951635
 30
0.0
 11
15.4379543765
 21
-23.7879543765
 31
0.0
  0
SPLINE
  5
712
100
AcDbEntity
  8
PORTATASTO
100
AcDbSpline
 62
7
  6
CONTINUOUS
 70
0
 71
3
 72
10
 73
6
 74
0
 42
0.0000001
 43
0.0000001
 44
0.0000000001
 40
0.0
 40
0.0
 40
0.0
 40
0.0
 40
0.4492746602
 40
0.7118007678
 40
1.0
 40
1.0
 40
1.0
 40
1.0
 10
7.6093472203
 20
-23.9842541302
 30
0.0
 10
7.6454508108
 20
-23.9730037505
 30
0.0
 10
7.698681903
 20
-23.9370844203
 30
0.0
 10
7.7413629486
 20
-23.8632394359
 30
0.0
 10
7.7499994964
 20
-23.8164100435
 30
0.0
 10
7.7499994964
 20
-23.7921520413
 30
0.0
  0
LINE
  5
713
100
AcDbEntity
  8
PORTATASTO
100
AcDbLine
 62
7
  6
CONTINUOUS
 10
-6.862048365
 20
-23.987951635
 30
0.0
 11
-7.0620456235
 21
-23.7879543765
 31
0.0
  0
LINE
  5
714
100
AcDbEntity
  8
PORTATASTO
100
AcDbLine
 62
7
  6
CONTINUOUS
 10
-15.637951635
 20
23.987951635
 30
0.0
 11
-15.4379543765
 21
23.7879543765
 31
0.0
  0
SPLINE
  5
715
100
AcDbEntity
  8
PORTATASTO
100
AcDbSpline
 62
7
  6
CONTINUOUS
 70
0
 71
3
 72
10
 73
6
 74
0
 42
0.0000001
 43
0.0000001
 44
0.0000000001
 40
0.0
 40
0.0
 40
0.0
 40
0.0
 40
0.4492746602
 40
0.7118007678
 40
1.0
 40
1.0
 40
1.0
 40
1.0
 10
-7.6093472203
 20
23.9842541302
 30
0.0
 10
-7.6454508108
 20
23.9730037505
 30
0.0
 10
-7.698681903
 20
23.9370844203
 30
0.0
 10
-7.7413629486
 20
23.8632394359
 30
0.0
 10
-7.7499994964
 20
23.8164100435
 30
0.0
 10
-7.7499994964
 20
23.7921520413
 30
0.0
  0
SPLINE
  5
716
100
AcDbEntity
  8
PORTATASTO
100
AcDbSpline
 62
7
  6
CONTINUOUS
 70
0
 71
3
 72
9
 73
5
 74
0
 42
0.0000001
 43
0.0000001
 44
0.0000000001
 40
0.0
 40
0.0
 40
0.0
 40
0.0
 40
0.4778114847
 40
1.0
 40
1.0
 40
1.0
 40
1.0
 10
-14.7937594084
 20
23.917706568
 30
0.0
 10
-14.7805071837
 20
23.9010129193
 30
0.0
 10
-14.758271563
 20
23.861415723
 30
0.0
 10
-14.750002694
 20
23.8164842902
 30
0.0
 10
-14.750002694
 20
23.7931904121
 30
0.0
  0
SPLINE
  5
717
100
AcDbEntity
  8
PORTATASTO
100
AcDbSpline
 62
7
  6
CONTINUOUS
 70
0
 71
3
 72
9
 73
5
 74
0
 42
0.0000001
 43
0.0000001
 44
0.0000000001
 40
0.0
 40
0.0
 40
0.0
 40
0.0
 40
0.4778114847
 40
1.0
 40
1.0
 40
1.0
 40
1.0
 10
-7.7062405916
 20
-23.917706568
 30
0.0
 10
-7.7194928163
 20
-23.9010129193
 30
0.0
 10
-7.741728437
 20
-23.861415723
 30
0.0
 10
-7.749997306
 20
-23.8164842902
 30
0.0
 10
-7.749997306
 20
-23.7931904121
 30
0.0
  0
SPLINE
  5
718
100
AcDbEntity
  8
PORTATASTO
100
AcDbSpline
 62
7
  6
CONTINUOUS
 70
0
 71
3
 72
10
 73
6
 74
0
 42
0.0000001
 43
0.0000001
 44
0.0000000001
 40
0.0
 40
0.0
 40
0.0
 40
0.0
 40
0.4492746602
 40
0.7118007678
 40
1.0
 40
1.0
 40
1.0
 40
1.0
 10
-14.8906527797
 20
-23.9842541302
 30
0.0
 10
-14.8545491892
 20
-23.9730037505
 30
0.0
 10
-14.801318097
 20
-23.9370844203
 30
0.0
 10
-14.7586370514
 20
-23.8632394359
 30
0.0
 10
-14.7500005036
 20
-23.8164100435
 30
0.0
 10
-14.7500005036
 20
-23.7921520413
 30
0.0
  0
SPLINE
  5
719
100
AcDbEntity
  8
PORTATASTO
100
AcDbSpline
 62
250
  6
CONTINUOUS
 70
0
 71
3
 72
11
 73
7
 74
0
 42
0.0000001
 43
0.0000001
 44
0.0000000001
 40
0.0
 40
0.0
 40
0.0
 40
0.0
 40
0.2331675662
 40
0.4766632552
 40
0.7337976114
 40
1.0
 40
1.0
 40
1.0
 40
1.0
 10
-18.5130969429
 20
23.5113248654
 30
0.0
 10
-18.5131825175
 20
23.4830165121
 30
0.0
 10
-18.5270960776
 20
23.4244633451
 30
0.0
 10
-18.584027503
 20
23.3527899567
 30
0.0
 10
-18.6667087603
 20
23.3057956233
 30
0.0
 10
-18.7307744148
 20
23.2948917905
 30
0.0
 10
-18.7630935167
 20
23.2948185145
 30
0.0
  0
SPLINE
  5
71A
100
AcDbEntity
  8
PORTATASTO
100
AcDbSpline
 62
250
  6
CONTINUOUS
 70
0
 71
3
 72
11
 73
7
 74
0
 42
0.0000001
 43
0.0000001
 44
0.0000000001
 40
0.0
 40
0.0
 40
0.0
 40
0.0
 40
0.2331675662
 40
0.4766632552
 40
0.7337976114
 40
1.0
 40
1.0
 40
1.0
 40
1.0
 10
-1.1130969429
 20
23.5113248654
 30
0.0
 10
-1.1131825175
 20
23.4830165121
 30
0.0
 10
-1.1270960776
 20
23.4244633451
 30
0.0
 10
-1.184027503
 20
23.3527899567
 30
0.0
 10
-1.2667087603
 20
23.3057956233
 30
0.0
 10
-1.3307744148
 20
23.2948917905
 30
0.0
 10
-1.3630935167
 20
23.2948185145
 30
0.0
  0
SPLINE
  5
71B
100
AcDbEntity
  8
PORTATASTO
100
AcDbSpline
 62
250
  6
CONTINUOUS
 70
0
 71
3
 72
11
 73
7
 74
0
 42
0.0000001
 43
0.0000001
 44
0.0000000001
 40
0.0
 40
0.0
 40
0.0
 40
0.0
 40
0.2331675662
 40
0.4766632552
 40
0.7337976114
 40
1.0
 40
1.0
 40
1.0
 40
1.0
 10
-21.3869030571
 20
-23.5113248654
 30
0.0
 10
-21.3868174825
 20
-23.4830165121
 30
0.0
 10
-21.3729039224
 20
-23.4244633451
 30
0.0
 10
-21.315972497
 20
-23.3527899567
 30
0.0
 10
-21.2332912397
 20
-23.3057956233
 30
0.0
 10
-21.1692255852
 20
-23.2948917905
 30
0.0
 10
-21.1369064833
 20
-23.2948185145
 30
0.0
  0
SPLINE
  5
71C
100
AcDbEntity
  8
PORTATASTO
100
AcDbSpline
 62
250
  6
CONTINUOUS
 70
0
 71
3
 72
11
 73
7
 74
0
 42
0.0000001
 43
0.0000001
 44
0.0000000001
 40
0.0
 40
0.0
 40
0.0
 40
0.0
 40
0.2331675662
 40
0.4766632552
 40
0.7337976114
 40
1.0
 40
1.0
 40
1.0
 40
1.0
 10
-3.9869030571
 20
-23.5113248654
 30
0.0
 10
-3.9868174825
 20
-23.4830165121
 30
0.0
 10
-3.9729039224
 20
-23.4244633451
 30
0.0
 10
-3.915972497
 20
-23.3527899567
 30
0.0
 10
-3.8332912397
 20
-23.3057956233
 30
0.0
 10
-3.7692255852
 20
-23.2948917905
 30
0.0
 10
-3.7369064833
 20
-23.2948185145
 30
0.0
  0
SPLINE
  5
71D
100
AcDbEntity
  8
PORTATASTO
100
AcDbSpline
 62
250
  6
CONTINUOUS
 70
0
 71
3
 72
11
 73
7
 74
0
 42
0.0000001
 43
0.0000001
 44
0.0000000001
 40
0.0
 40
0.0
 40
0.0
 40
0.0
 40
0.2662023886
 40
0.5233367448
 40
0.7668324338
 40
1.0
 40
1.0
 40
1.0
 40
1.0
 10
-18.7630935167
 20
-23.2948185145
 30
0.0
 10
-18.7307744148
 20
-23.2948917905
 30
0.0
 10
-18.6667087603
 20
-23.3057956233
 30
0.0
 10
-18.584027503
 20
-23.3527899567
 30
0.0
 10
-18.5270960776
 20
-23.4244633451
 30
0.0
 10
-18.5131825175
 20
-23.4830165121
 30
0.0
 10
-18.5130969429
 20
-23.5113248654
 30
0.0
  0
SPLINE
  5
71E
100
AcDbEntity
  8
PORTATASTO
100
AcDbSpline
 62
250
  6
CONTINUOUS
 70
0
 71
3
 72
9
 73
5
 74
0
 42
0.0000001
 43
0.0000001
 44
0.0000000001
 40
0.0
 40
0.0
 40
0.0
 40
0.0
 40
0.2988546737
 40
1.0
 40
1.0
 40
1.0
 40
1.0
 10
-18.761784508
 20
-23.0783135804
 30
0.0
 10
-18.7617845067
 20
-23.0998819167
 30
0.0
 10
-18.7619140938
 20
-23.1720510336
 30
0.0
 10
-18.7621753575
 20
-23.244225248
 30
0.0
 10
-18.7630935168
 20
-23.2948185626
 30
0.0
  0
SPLINE
  5
71F
100
AcDbEntity
  8
PORTATASTO
100
AcDbSpline
 62
250
  6
CONTINUOUS
 70
0
 71
3
 72
9
 73
5
 74
0
 42
0.0000001
 43
0.0000001
 44
0.0000000001
 40
0.0
 40
0.0
 40
0.0
 40
0.0
 40
0.1835113837
 40
1.0
 40
1.0
 40
1.0
 40
1.0
 10
-21.1369064832
 20
-23.294818558
 30
0.0
 10
-21.1371467943
 20
-23.2815767009
 30
0.0
 10
-21.1380340866
 20
-23.2094112991
 30
0.0
 10
-21.1382154955
 20
-23.1372396553
 30
0.0
 10
-21.138215492
 20
-23.0783135788
 30
0.0
  0
SPLINE
  5
720
100
AcDbEntity
  8
PORTATASTO
100
AcDbSpline
 62
250
  6
CONTINUOUS
 70
0
 71
3
 72
11
 73
7
 74
0
 42
0.0000001
 43
0.0000001
 44
0.0000000001
 40
0.0
 40
0.0
 40
0.0
 40
0.0
 40
0.2662023886
 40
0.5233367448
 40
0.7668324338
 40
1.0
 40
1.0
 40
1.0
 40
1.0
 10
-21.1369064833
 20
23.2948185145
 30
0.0
 10
-21.1692255852
 20
23.2948917905
 30
0.0
 10
-21.2332912397
 20
23.3057956233
 30
0.0
 10
-21.315972497
 20
23.3527899567
 30
0.0
 10
-21.3729039224
 20
23.4244633451
 30
0.0
 10
-21.3868174825
 20
23.4830165121
 30
0.0
 10
-21.3869030571
 20
23.5113248654
 30
0.0
  0
SPLINE
  5
721
100
AcDbEntity
  8
PORTATASTO
100
AcDbSpline
 62
250
  6
CONTINUOUS
 70
0
 71
3
 72
9
 73
5
 74
0
 42
0.0000001
 43
0.0000001
 44
0.0000000001
 40
0.0
 40
0.0
 40
0.0
 40
0.0
 40
0.2988546737
 40
1.0
 40
1.0
 40
1.0
 40
1.0
 10
-21.138215492
 20
23.0783135804
 30
0.0
 10
-21.1382154933
 20
23.0998819167
 30
0.0
 10
-21.1380859062
 20
23.1720510336
 30
0.0
 10
-21.1378246425
 20
23.244225248
 30
0.0
 10
-21.1369064832
 20
23.2948185626
 30
0.0
  0
SPLINE
  5
722
100
AcDbEntity
  8
PORTATASTO
100
AcDbSpline
 62
250
  6
CONTINUOUS
 70
0
 71
3
 72
9
 73
5
 74
0
 42
0.0000001
 43
0.0000001
 44
0.0000000001
 40
0.0
 40
0.0
 40
0.0
 40
0.0
 40
0.1835113837
 40
1.0
 40
1.0
 40
1.0
 40
1.0
 10
-18.7630935168
 20
23.294818558
 30
0.0
 10
-18.7628532057
 20
23.2815767009
 30
0.0
 10
-18.7619659134
 20
23.2094112991
 30
0.0
 10
-18.7617845045
 20
23.1372396553
 30
0.0
 10
-18.761784508
 20
23.0783135788
 30
0.0
  0
SPLINE
  5
723
100
AcDbEntity
  8
PORTATASTO
100
AcDbSpline
 62
250
  6
CONTINUOUS
 70
0
 71
3
 72
11
 73
7
 74
0
 42
0.0000001
 43
0.0000001
 44
0.0000000001
 40
0.0
 40
0.0
 40
0.0
 40
0.0
 40
0.2662023886
 40
0.5233367448
 40
0.7668324338
 40
1.0
 40
1.0
 40
1.0
 40
1.0
 10
-3.7369064833
 20
23.2948185145
 30
0.0
 10
-3.7692255852
 20
23.2948917905
 30
0.0
 10
-3.8332912397
 20
23.3057956233
 30
0.0
 10
-3.915972497
 20
23.3527899567
 30
0.0
 10
-3.9729039224
 20
23.4244633451
 30
0.0
 10
-3.9868174825
 20
23.4830165121
 30
0.0
 10
-3.9869030571
 20
23.5113248654
 30
0.0
  0
SPLINE
  5
724
100
AcDbEntity
  8
PORTATASTO
100
AcDbSpline
 62
250
  6
CONTINUOUS
 70
0
 71
3
 72
9
 73
5
 74
0
 42
0.0000001
 43
0.0000001
 44
0.0000000001
 40
0.0
 40
0.0
 40
0.0
 40
0.0
 40
0.2988546737
 40
1.0
 40
1.0
 40
1.0
 40
1.0
 10
-3.738215492
 20
23.0783135804
 30
0.0
 10
-3.7382154933
 20
23.0998819167
 30
0.0
 10
-3.7380859062
 20
23.1720510336
 30
0.0
 10
-3.7378246425
 20
23.244225248
 30
0.0
 10
-3.7369064832
 20
23.2948185626
 30
0.0
  0
SPLINE
  5
725
100
AcDbEntity
  8
PORTATASTO
100
AcDbSpline
 62
250
  6
CONTINUOUS
 70
0
 71
3
 72
9
 73
5
 74
0
 42
0.0000001
 43
0.0000001
 44
0.0000000001
 40
0.0
 40
0.0
 40
0.0
 40
0.0
 40
0.1835113837
 40
1.0
 40
1.0
 40
1.0
 40
1.0
 10
-1.3630935168
 20
23.294818558
 30
0.0
 10
-1.3628532057
 20
23.2815767009
 30
0.0
 10
-1.3619659134
 20
23.2094112991
 30
0.0
 10
-1.3617845045
 20
23.1372396553
 30
0.0
 10
-1.361784508
 20
23.0783135788
 30
0.0
  0
SPLINE
  5
726
100
AcDbEntity
  8
PORTATASTO
100
AcDbSpline
 62
250
  6
CONTINUOUS
 70
0
 71
3
 72
11
 73
7
 74
0
 42
0.0000001
 43
0.0000001
 44
0.0000000001
 40
0.0
 40
0.0
 40
0.0
 40
0.0
 40
0.2662023886
 40
0.5233367448
 40
0.7668324338
 40
1.0
 40
1.0
 40
1.0
 40
1.0
 10
-1.3630935167
 20
-23.2948185145
 30
0.0
 10
-1.3307744148
 20
-23.2948917905
 30
0.0
 10
-1.2667087603
 20
-23.3057956233
 30
0.0
 10
-1.184027503
 20
-23.3527899567
 30
0.0
 10
-1.1270960776
 20
-23.4244633451
 30
0.0
 10
-1.1131825175
 20
-23.4830165121
 30
0.0
 10
-1.1130969429
 20
-23.5113248654
 30
0.0
  0
SPLINE
  5
727
100
AcDbEntity
  8
PORTATASTO
100
AcDbSpline
 62
250
  6
CONTINUOUS
 70
0
 71
3
 72
9
 73
5
 74
0
 42
0.0000001
 43
0.0000001
 44
0.0000000001
 40
0.0
 40
0.0
 40
0.0
 40
0.0
 40
0.2988546737
 40
1.0
 40
1.0
 40
1.0
 40
1.0
 10
-1.361784508
 20
-23.0783135804
 30
0.0
 10
-1.3617845067
 20
-23.0998819167
 30
0.0
 10
-1.3619140938
 20
-23.1720510336
 30
0.0
 10
-1.3621753575
 20
-23.244225248
 30
0.0
 10
-1.3630935168
 20
-23.2948185626
 30
0.0
  0
SPLINE
  5
728
100
AcDbEntity
  8
PORTATASTO
100
AcDbSpline
 62
250
  6
CONTINUOUS
 70
0
 71
3
 72
9
 73
5
 74
0
 42
0.0000001
 43
0.0000001
 44
0.0000000001
 40
0.0
 40
0.0
 40
0.0
 40
0.0
 40
0.1835113837
 40
1.0
 40
1.0
 40
1.0
 40
1.0
 10
-3.7369064832
 20
-23.294818558
 30
0.0
 10
-3.7371467943
 20
-23.2815767009
 30
0.0
 10
-3.7380340866
 20
-23.2094112991
 30
0.0
 10
-3.7382154955
 20
-23.1372396553
 30
0.0
 10
-3.738215492
 20
-23.0783135788
 30
0.0
  0
SPLINE
  5
729
100
AcDbEntity
  8
PORTATASTO
100
AcDbSpline
 62
250
  6
CONTINUOUS
 70
0
 71
3
 72
11
 73
7
 74
0
 42
0.0000001
 43
0.0000001
 44
0.0000000001
 40
0.0
 40
0.0
 40
0.0
 40
0.0
 40
0.2331675657
 40
0.4766632543
 40
0.7337976107
 40
1.0
 40
1.0
 40
1.0
 40
1.0
 10
-18.5170239696
 20
-23.9443375673
 30
0.0
 10
-18.5171095442
 20
-23.9160292141
 30
0.0
 10
-18.5310231042
 20
-23.8574760473
 30
0.0
 10
-18.5879545292
 20
-23.785802659
 30
0.0
 10
-18.6706357863
 20
-23.7388083255
 30
0.0
 10
-18.7347014408
 20
-23.7279044925
 30
0.0
 10
-18.7670205427
 20
-23.7278312164
 30
0.0
  0
SPLINE
  5
72A
100
AcDbEntity
  8
PORTATASTO
100
AcDbSpline
 62
250
  6
CONTINUOUS
 70
0
 71
3
 72
11
 73
7
 74
0
 42
0.0000001
 43
0.0000001
 44
0.0000000001
 40
0.0
 40
0.0
 40
0.0
 40
0.0
 40
0.2662024211
 40
0.5233368106
 40
0.7668325224
 40
1.0
 40
1.0
 40
1.0
 40
1.0
 10
-21.1329794573
 20
-23.7278312164
 30
0.0
 10
-21.1652985631
 20
-23.7279044925
 30
0.0
 10
-21.2293642258
 20
-23.7388083285
 30
0.0
 10
-21.3120454894
 20
-23.7858026733
 30
0.0
 10
-21.3689769052
 20
-23.8574760659
 30
0.0
 10
-21.3828904558
 20
-23.9160292247
 30
0.0
 10
-21.3829760304
 20
-23.9443375673
 30
0.0
  0
SPLINE
  5
72B
100
AcDbEntity
  8
PORTATASTO
100
AcDbSpline
 62
250
  6
CONTINUOUS
 70
0
 71
3
 72
11
 73
7
 74
0
 42
0.0000001
 43
0.0000001
 44
0.0000000001
 40
0.0
 40
0.0
 40
0.0
 40
0.0
 40
0.2331675657
 40
0.4766632543
 40
0.7337976107
 40
1.0
 40
1.0
 40
1.0
 40
1.0
 10
-21.3829760304
 20
23.9443375673
 30
0.0
 10
-21.3828904558
 20
23.9160292141
 30
0.0
 10
-21.3689768958
 20
23.8574760473
 30
0.0
 10
-21.3120454708
 20
23.785802659
 30
0.0
 10
-21.2293642137
 20
23.7388083255
 30
0.0
 10
-21.1652985592
 20
23.7279044925
 30
0.0
 10
-21.1329794573
 20
23.7278312164
 30
0.0
  0
SPLINE
  5
72C
100
AcDbEntity
  8
PORTATASTO
100
AcDbSpline
 62
250
  6
CONTINUOUS
 70
0
 71
3
 72
11
 73
7
 74
0
 42
0.0000001
 43
0.0000001
 44
0.0000000001
 40
0.0
 40
0.0
 40
0.0
 40
0.0
 40
0.2662024211
 40
0.5233368106
 40
0.7668325224
 40
1.0
 40
1.0
 40
1.0
 40
1.0
 10
-18.7670205427
 20
23.7278312164
 30
0.0
 10
-18.7347014369
 20
23.7279044925
 30
0.0
 10
-18.6706357742
 20
23.7388083285
 30
0.0
 10
-18.5879545106
 20
23.7858026733
 30
0.0
 10
-18.5310230948
 20
23.8574760659
 30
0.0
 10
-18.5171095442
 20
23.9160292247
 30
0.0
 10
-18.5170239696
 20
23.9443375673
 30
0.0
  0
SPLINE
  5
72D
100
AcDbEntity
  8
PORTATASTO
100
AcDbSpline
 62
250
  6
CONTINUOUS
 70
0
 71
3
 72
11
 73
7
 74
0
 42
0.0000001
 43
0.0000001
 44
0.0000000001
 40
0.0
 40
0.0
 40
0.0
 40
0.0
 40
0.2331675657
 40
0.4766632543
 40
0.7337976107
 40
1.0
 40
1.0
 40
1.0
 40
1.0
 10
-3.9829760304
 20
23.9443375673
 30
0.0
 10
-3.9828904558
 20
23.9160292141
 30
0.0
 10
-3.9689768958
 20
23.8574760473
 30
0.0
 10
-3.9120454708
 20
23.785802659
 30
0.0
 10
-3.8293642137
 20
23.7388083255
 30
0.0
 10
-3.7652985592
 20
23.7279044925
 30
0.0
 10
-3.7329794573
 20
23.7278312164
 30
0.0
  0
SPLINE
  5
72E
100
AcDbEntity
  8
PORTATASTO
100
AcDbSpline
 62
250
  6
CONTINUOUS
 70
0
 71
3
 72
11
 73
7
 74
0
 42
0.0000001
 43
0.0000001
 44
0.0000000001
 40
0.0
 40
0.0
 40
0.0
 40
0.0
 40
0.2662024211
 40
0.5233368106
 40
0.7668325224
 40
1.0
 40
1.0
 40
1.0
 40
1.0
 10
-1.3670205427
 20
23.7278312164
 30
0.0
 10
-1.3347014369
 20
23.7279044925
 30
0.0
 10
-1.2706357742
 20
23.7388083285
 30
0.0
 10
-1.1879545106
 20
23.7858026733
 30
0.0
 10
-1.1310230948
 20
23.8574760659
 30
0.0
 10
-1.1171095442
 20
23.9160292247
 30
0.0
 10
-1.1170239696
 20
23.9443375673
 30
0.0
  0
SPLINE
  5
72F
100
AcDbEntity
  8
PORTATASTO
100
AcDbSpline
 62
250
  6
CONTINUOUS
 70
0
 71
3
 72
11
 73
7
 74
0
 42
0.0000001
 43
0.0000001
 44
0.0000000001
 40
0.0
 40
0.0
 40
0.0
 40
0.0
 40
0.2331675657
 40
0.4766632543
 40
0.7337976107
 40
1.0
 40
1.0
 40
1.0
 40
1.0
 10
-1.1170239696
 20
-23.9443375673
 30
0.0
 10
-1.1171095442
 20
-23.9160292141
 30
0.0
 10
-1.1310231042
 20
-23.8574760473
 30
0.0
 10
-1.1879545292
 20
-23.785802659
 30
0.0
 10
-1.2706357863
 20
-23.7388083255
 30
0.0
 10
-1.3347014408
 20
-23.7279044925
 30
0.0
 10
-1.3670205427
 20
-23.7278312164
 30
0.0
  0
SPLINE
  5
730
100
AcDbEntity
  8
PORTATASTO
100
AcDbSpline
 62
250
  6
CONTINUOUS
 70
0
 71
3
 72
11
 73
7
 74
0
 42
0.0000001
 43
0.0000001
 44
0.0000000001
 40
0.0
 40
0.0
 40
0.0
 40
0.0
 40
0.2662024211
 40
0.5233368106
 40
0.7668325224
 40
1.0
 40
1.0
 40
1.0
 40
1.0
 10
-3.7329794573
 20
-23.7278312164
 30
0.0
 10
-3.7652985631
 20
-23.7279044925
 30
0.0
 10
-3.8293642258
 20
-23.7388083285
 30
0.0
 10
-3.9120454894
 20
-23.7858026733
 30
0.0
 10
-3.9689769052
 20
-23.8574760659
 30
0.0
 10
-3.9828904558
 20
-23.9160292247
 30
0.0
 10
-3.9829760304
 20
-23.9443375673
 30
0.0
  0
SPLINE
  5
731
100
AcDbEntity
  8
PORTATASTO
100
AcDbSpline
 62
250
  6
CONTINUOUS
 70
0
 71
3
 72
11
 73
7
 74
0
 42
0.0000001
 43
0.0000001
 44
0.0000000001
 40
0.0
 40
0.0
 40
0.0
 40
0.0
 40
0.2331675662
 40
0.4766632552
 40
0.7337976114
 40
1.0
 40
1.0
 40
1.0
 40
1.0
 10
3.9869030571
 20
23.5113248654
 30
0.0
 10
3.9868174825
 20
23.4830165121
 30
0.0
 10
3.9729039224
 20
23.4244633451
 30
0.0
 10
3.915972497
 20
23.3527899567
 30
0.0
 10
3.8332912397
 20
23.3057956233
 30
0.0
 10
3.7692255852
 20
23.2948917905
 30
0.0
 10
3.7369064833
 20
23.2948185145
 30
0.0
  0
SPLINE
  5
732
100
AcDbEntity
  8
PORTATASTO
100
AcDbSpline
 62
250
  6
CONTINUOUS
 70
0
 71
3
 72
11
 73
7
 74
0
 42
0.0000001
 43
0.0000001
 44
0.0000000001
 40
0.0
 40
0.0
 40
0.0
 40
0.0
 40
0.2331675662
 40
0.4766632552
 40
0.7337976114
 40
1.0
 40
1.0
 40
1.0
 40
1.0
 10
21.3869030571
 20
23.5113248654
 30
0.0
 10
21.3868174825
 20
23.4830165121
 30
0.0
 10
21.3729039224
 20
23.4244633451
 30
0.0
 10
21.315972497
 20
23.3527899567
 30
0.0
 10
21.2332912397
 20
23.3057956233
 30
0.0
 10
21.1692255852
 20
23.2948917905
 30
0.0
 10
21.1369064833
 20
23.2948185145
 30
0.0
  0
SPLINE
  5
733
100
AcDbEntity
  8
PORTATASTO
100
AcDbSpline
 62
250
  6
CONTINUOUS
 70
0
 71
3
 72
11
 73
7
 74
0
 42
0.0000001
 43
0.0000001
 44
0.0000000001
 40
0.0
 40
0.0
 40
0.0
 40
0.0
 40
0.2331675662
 40
0.4766632552
 40
0.7337976114
 40
1.0
 40
1.0
 40
1.0
 40
1.0
 10
1.1130969429
 20
-23.5113248654
 30
0.0
 10
1.1131825175
 20
-23.4830165121
 30
0.0
 10
1.1270960776
 20
-23.4244633451
 30
0.0
 10
1.184027503
 20
-23.3527899567
 30
0.0
 10
1.2667087603
 20
-23.3057956233
 30
0.0
 10
1.3307744148
 20
-23.2948917905
 30
0.0
 10
1.3630935167
 20
-23.2948185145
 30
0.0
  0
SPLINE
  5
734
100
AcDbEntity
  8
PORTATASTO
100
AcDbSpline
 62
250
  6
CONTINUOUS
 70
0
 71
3
 72
11
 73
7
 74
0
 42
0.0000001
 43
0.0000001
 44
0.0000000001
 40
0.0
 40
0.0
 40
0.0
 40
0.0
 40
0.2331675662
 40
0.4766632552
 40
0.7337976114
 40
1.0
 40
1.0
 40
1.0
 40
1.0
 10
18.5130969429
 20
-23.5113248654
 30
0.0
 10
18.5131825175
 20
-23.4830165121
 30
0.0
 10
18.5270960776
 20
-23.4244633451
 30
0.0
 10
18.584027503
 20
-23.3527899567
 30
0.0
 10
18.6667087603
 20
-23.3057956233
 30
0.0
 10
18.7307744148
 20
-23.2948917905
 30
0.0
 10
18.7630935167
 20
-23.2948185145
 30
0.0
  0
SPLINE
  5
735
100
AcDbEntity
  8
PORTATASTO
100
AcDbSpline
 62
250
  6
CONTINUOUS
 70
0
 71
3
 72
11
 73
7
 74
0
 42
0.0000001
 43
0.0000001
 44
0.0000000001
 40
0.0
 40
0.0
 40
0.0
 40
0.0
 40
0.2662023886
 40
0.5233367448
 40
0.7668324338
 40
1.0
 40
1.0
 40
1.0
 40
1.0
 10
3.7369064833
 20
-23.2948185145
 30
0.0
 10
3.7692255852
 20
-23.2948917905
 30
0.0
 10
3.8332912397
 20
-23.3057956233
 30
0.0
 10
3.915972497
 20
-23.3527899567
 30
0.0
 10
3.9729039224
 20
-23.4244633451
 30
0.0
 10
3.9868174825
 20
-23.4830165121
 30
0.0
 10
3.9869030571
 20
-23.5113248654
 30
0.0
  0
SPLINE
  5
736
100
AcDbEntity
  8
PORTATASTO
100
AcDbSpline
 62
250
  6
CONTINUOUS
 70
0
 71
3
 72
9
 73
5
 74
0
 42
0.0000001
 43
0.0000001
 44
0.0000000001
 40
0.0
 40
0.0
 40
0.0
 40
0.0
 40
0.2988546737
 40
1.0
 40
1.0
 40
1.0
 40
1.0
 10
3.738215492
 20
-23.0783135804
 30
0.0
 10
3.7382154933
 20
-23.0998819167
 30
0.0
 10
3.7380859062
 20
-23.1720510336
 30
0.0
 10
3.7378246425
 20
-23.244225248
 30
0.0
 10
3.7369064832
 20
-23.2948185626
 30
0.0
  0
SPLINE
  5
737
100
AcDbEntity
  8
PORTATASTO
100
AcDbSpline
 62
250
  6
CONTINUOUS
 70
0
 71
3
 72
9
 73
5
 74
0
 42
0.0000001
 43
0.0000001
 44
0.0000000001
 40
0.0
 40
0.0
 40
0.0
 40
0.0
 40
0.1835113837
 40
1.0
 40
1.0
 40
1.0
 40
1.0
 10
1.3630935168
 20
-23.294818558
 30
0.0
 10
1.3628532057
 20
-23.2815767009
 30
0.0
 10
1.3619659134
 20
-23.2094112991
 30
0.0
 10
1.3617845045
 20
-23.1372396553
 30
0.0
 10
1.361784508
 20
-23.0783135788
 30
0.0
  0
SPLINE
  5
738
100
AcDbEntity
  8
PORTATASTO
100
AcDbSpline
 62
250
  6
CONTINUOUS
 70
0
 71
3
 72
11
 73
7
 74
0
 42
0.0000001
 43
0.0000001
 44
0.0000000001
 40
0.0
 40
0.0
 40
0.0
 40
0.0
 40
0.2662023886
 40
0.5233367448
 40
0.7668324338
 40
1.0
 40
1.0
 40
1.0
 40
1.0
 10
1.3630935167
 20
23.2948185145
 30
0.0
 10
1.3307744148
 20
23.2948917905
 30
0.0
 10
1.2667087603
 20
23.3057956233
 30
0.0
 10
1.184027503
 20
23.3527899567
 30
0.0
 10
1.1270960776
 20
23.4244633451
 30
0.0
 10
1.1131825175
 20
23.4830165121
 30
0.0
 10
1.1130969429
 20
23.5113248654
 30
0.0
  0
SPLINE
  5
739
100
AcDbEntity
  8
PORTATASTO
100
AcDbSpline
 62
250
  6
CONTINUOUS
 70
0
 71
3
 72
9
 73
5
 74
0
 42
0.0000001
 43
0.0000001
 44
0.0000000001
 40
0.0
 40
0.0
 40
0.0
 40
0.0
 40
0.2988546737
 40
1.0
 40
1.0
 40
1.0
 40
1.0
 10
1.361784508
 20
23.0783135804
 30
0.0
 10
1.3617845067
 20
23.0998819167
 30
0.0
 10
1.3619140938
 20
23.1720510336
 30
0.0
 10
1.3621753575
 20
23.244225248
 30
0.0
 10
1.3630935168
 20
23.2948185626
 30
0.0
  0
SPLINE
  5
73A
100
AcDbEntity
  8
PORTATASTO
100
AcDbSpline
 62
250
  6
CONTINUOUS
 70
0
 71
3
 72
9
 73
5
 74
0
 42
0.0000001
 43
0.0000001
 44
0.0000000001
 40
0.0
 40
0.0
 40
0.0
 40
0.0
 40
0.1835113837
 40
1.0
 40
1.0
 40
1.0
 40
1.0
 10
3.7369064832
 20
23.294818558
 30
0.0
 10
3.7371467943
 20
23.2815767009
 30
0.0
 10
3.7380340866
 20
23.2094112991
 30
0.0
 10
3.7382154955
 20
23.1372396553
 30
0.0
 10
3.738215492
 20
23.0783135788
 30
0.0
  0
SPLINE
  5
73B
100
AcDbEntity
  8
PORTATASTO
100
AcDbSpline
 62
250
  6
CONTINUOUS
 70
0
 71
3
 72
11
 73
7
 74
0
 42
0.0000001
 43
0.0000001
 44
0.0000000001
 40
0.0
 40
0.0
 40
0.0
 40
0.0
 40
0.2662023886
 40
0.5233367448
 40
0.7668324338
 40
1.0
 40
1.0
 40
1.0
 40
1.0
 10
18.7630935167
 20
23.2948185145
 30
0.0
 10
18.7307744148
 20
23.2948917905
 30
0.0
 10
18.6667087603
 20
23.3057956233
 30
0.0
 10
18.584027503
 20
23.3527899567
 30
0.0
 10
18.5270960776
 20
23.4244633451
 30
0.0
 10
18.5131825175
 20
23.4830165121
 30
0.0
 10
18.5130969429
 20
23.5113248654
 30
0.0
  0
SPLINE
  5
73C
100
AcDbEntity
  8
PORTATASTO
100
AcDbSpline
 62
250
  6
CONTINUOUS
 70
0
 71
3
 72
9
 73
5
 74
0
 42
0.0000001
 43
0.0000001
 44
0.0000000001
 40
0.0
 40
0.0
 40
0.0
 40
0.0
 40
0.2988546737
 40
1.0
 40
1.0
 40
1.0
 40
1.0
 10
18.761784508
 20
23.0783135804
 30
0.0
 10
18.7617845067
 20
23.0998819167
 30
0.0
 10
18.7619140938
 20
23.1720510336
 30
0.0
 10
18.7621753575
 20
23.244225248
 30
0.0
 10
18.7630935168
 20
23.2948185626
 30
0.0
  0
SPLINE
  5
73D
100
AcDbEntity
  8
PORTATASTO
100
AcDbSpline
 62
250
  6
CONTINUOUS
 70
0
 71
3
 72
9
 73
5
 74
0
 42
0.0000001
 43
0.0000001
 44
0.0000000001
 40
0.0
 40
0.0
 40
0.0
 40
0.0
 40
0.1835113837
 40
1.0
 40
1.0
 40
1.0
 40
1.0
 10
21.1369064832
 20
23.294818558
 30
0.0
 10
21.1371467943
 20
23.2815767009
 30
0.0
 10
21.1380340866
 20
23.2094112991
 30
0.0
 10
21.1382154955
 20
23.1372396553
 30
0.0
 10
21.138215492
 20
23.0783135788
 30
0.0
  0
SPLINE
  5
73E
100
AcDbEntity
  8
PORTATASTO
100
AcDbSpline
 62
250
  6
CONTINUOUS
 70
0
 71
3
 72
11
 73
7
 74
0
 42
0.0000001
 43
0.0000001
 44
0.0000000001
 40
0.0
 40
0.0
 40
0.0
 40
0.0
 40
0.2662023886
 40
0.5233367448
 40
0.7668324338
 40
1.0
 40
1.0
 40
1.0
 40
1.0
 10
21.1369064833
 20
-23.2948185145
 30
0.0
 10
21.1692255852
 20
-23.2948917905
 30
0.0
 10
21.2332912397
 20
-23.3057956233
 30
0.0
 10
21.315972497
 20
-23.3527899567
 30
0.0
 10
21.3729039224
 20
-23.4244633451
 30
0.0
 10
21.3868174825
 20
-23.4830165121
 30
0.0
 10
21.3869030571
 20
-23.5113248654
 30
0.0
  0
SPLINE
  5
73F
100
AcDbEntity
  8
PORTATASTO
100
AcDbSpline
 62
250
  6
CONTINUOUS
 70
0
 71
3
 72
9
 73
5
 74
0
 42
0.0000001
 43
0.0000001
 44
0.0000000001
 40
0.0
 40
0.0
 40
0.0
 40
0.0
 40
0.2988546737
 40
1.0
 40
1.0
 40
1.0
 40
1.0
 10
21.138215492
 20
-23.0783135804
 30
0.0
 10
21.1382154933
 20
-23.0998819167
 30
0.0
 10
21.1380859062
 20
-23.1720510336
 30
0.0
 10
21.1378246425
 20
-23.244225248
 30
0.0
 10
21.1369064832
 20
-23.2948185626
 30
0.0
  0
SPLINE
  5
740
100
AcDbEntity
  8
PORTATASTO
100
AcDbSpline
 62
250
  6
CONTINUOUS
 70
0
 71
3
 72
9
 73
5
 74
0
 42
0.0000001
 43
0.0000001
 44
0.0000000001
 40
0.0
 40
0.0
 40
0.0
 40
0.0
 40
0.1835113837
 40
1.0
 40
1.0
 40
1.0
 40
1.0
 10
18.7630935168
 20
-23.294818558
 30
0.0
 10
18.7628532057
 20
-23.2815767009
 30
0.0
 10
18.7619659134
 20
-23.2094112991
 30
0.0
 10
18.7617845045
 20
-23.1372396553
 30
0.0
 10
18.761784508
 20
-23.0783135788
 30
0.0
  0
SPLINE
  5
741
100
AcDbEntity
  8
PORTATASTO
100
AcDbSpline
 62
250
  6
CONTINUOUS
 70
0
 71
3
 72
11
 73
7
 74
0
 42
0.0000001
 43
0.0000001
 44
0.0000000001
 40
0.0
 40
0.0
 40
0.0
 40
0.0
 40
0.2331675657
 40
0.4766632543
 40
0.7337976107
 40
1.0
 40
1.0
 40
1.0
 40
1.0
 10
3.9829760304
 20
-23.9443375673
 30
0.0
 10
3.9828904558
 20
-23.9160292141
 30
0.0
 10
3.9689768958
 20
-23.8574760473
 30
0.0
 10
3.9120454708
 20
-23.785802659
 30
0.0
 10
3.8293642137
 20
-23.7388083255
 30
0.0
 10
3.7652985592
 20
-23.7279044925
 30
0.0
 10
3.7329794573
 20
-23.7278312164
 30
0.0
  0
SPLINE
  5
742
100
AcDbEntity
  8
PORTATASTO
100
AcDbSpline
 62
250
  6
CONTINUOUS
 70
0
 71
3
 72
11
 73
7
 74
0
 42
0.0000001
 43
0.0000001
 44
0.0000000001
 40
0.0
 40
0.0
 40
0.0
 40
0.0
 40
0.2662024211
 40
0.5233368106
 40
0.7668325224
 40
1.0
 40
1.0
 40
1.0
 40
1.0
 10
1.3670205427
 20
-23.7278312164
 30
0.0
 10
1.3347014369
 20
-23.7279044925
 30
0.0
 10
1.2706357742
 20
-23.7388083285
 30
0.0
 10
1.1879545106
 20
-23.7858026733
 30
0.0
 10
1.1310230948
 20
-23.8574760659
 30
0.0
 10
1.1171095442
 20
-23.9160292247
 30
0.0
 10
1.1170239696
 20
-23.9443375673
 30
0.0
  0
SPLINE
  5
743
100
AcDbEntity
  8
PORTATASTO
100
AcDbSpline
 62
250
  6
CONTINUOUS
 70
0
 71
3
 72
11
 73
7
 74
0
 42
0.0000001
 43
0.0000001
 44
0.0000000001
 40
0.0
 40
0.0
 40
0.0
 40
0.0
 40
0.2331675657
 40
0.4766632543
 40
0.7337976107
 40
1.0
 40
1.0
 40
1.0
 40
1.0
 10
1.1170239696
 20
23.9443375673
 30
0.0
 10
1.1171095442
 20
23.9160292141
 30
0.0
 10
1.1310231042
 20
23.8574760473
 30
0.0
 10
1.1879545292
 20
23.785802659
 30
0.0
 10
1.2706357863
 20
23.7388083255
 30
0.0
 10
1.3347014408
 20
23.7279044925
 30
0.0
 10
1.3670205427
 20
23.7278312164
 30
0.0
  0
SPLINE
  5
744
100
AcDbEntity
  8
PORTATASTO
100
AcDbSpline
 62
250
  6
CONTINUOUS
 70
0
 71
3
 72
11
 73
7
 74
0
 42
0.0000001
 43
0.0000001
 44
0.0000000001
 40
0.0
 40
0.0
 40
0.0
 40
0.0
 40
0.2662024211
 40
0.5233368106
 40
0.7668325224
 40
1.0
 40
1.0
 40
1.0
 40
1.0
 10
3.7329794573
 20
23.7278312164
 30
0.0
 10
3.7652985631
 20
23.7279044925
 30
0.0
 10
3.8293642258
 20
23.7388083285
 30
0.0
 10
3.9120454894
 20
23.7858026733
 30
0.0
 10
3.9689769052
 20
23.8574760659
 30
0.0
 10
3.9828904558
 20
23.9160292247
 30
0.0
 10
3.9829760304
 20
23.9443375673
 30
0.0
  0
SPLINE
  5
745
100
AcDbEntity
  8
PORTATASTO
100
AcDbSpline
 62
250
  6
CONTINUOUS
 70
0
 71
3
 72
11
 73
7
 74
0
 42
0.0000001
 43
0.0000001
 44
0.0000000001
 40
0.0
 40
0.0
 40
0.0
 40
0.0
 40
0.2331675657
 40
0.4766632543
 40
0.7337976107
 40
1.0
 40
1.0
 40
1.0
 40
1.0
 10
18.5170239696
 20
23.9443375673
 30
0.0
 10
18.5171095442
 20
23.9160292141
 30
0.0
 10
18.5310231042
 20
23.8574760473
 30
0.0
 10
18.5879545292
 20
23.785802659
 30
0.0
 10
18.6706357863
 20
23.7388083255
 30
0.0
 10
18.7347014408
 20
23.7279044925
 30
0.0
 10
18.7670205427
 20
23.7278312164
 30
0.0
  0
SPLINE
  5
746
100
AcDbEntity
  8
PORTATASTO
100
AcDbSpline
 62
250
  6
CONTINUOUS
 70
0
 71
3
 72
11
 73
7
 74
0
 42
0.0000001
 43
0.0000001
 44
0.0000000001
 40
0.0
 40
0.0
 40
0.0
 40
0.0
 40
0.2662024211
 40
0.5233368106
 40
0.7668325224
 40
1.0
 40
1.0
 40
1.0
 40
1.0
 10
21.1329794573
 20
23.7278312164
 30
0.0
 10
21.1652985631
 20
23.7279044925
 30
0.0
 10
21.2293642258
 20
23.7388083285
 30
0.0
 10
21.3120454894
 20
23.7858026733
 30
0.0
 10
21.3689769052
 20
23.8574760659
 30
0.0
 10
21.3828904558
 20
23.9160292247
 30
0.0
 10
21.3829760304
 20
23.9443375673
 30
0.0
  0
SPLINE
  5
747
100
AcDbEntity
  8
PORTATASTO
100
AcDbSpline
 62
250
  6
CONTINUOUS
 70
0
 71
3
 72
11
 73
7
 74
0
 42
0.0000001
 43
0.0000001
 44
0.0000000001
 40
0.0
 40
0.0
 40
0.0
 40
0.0
 40
0.2331675657
 40
0.4766632543
 40
0.7337976107
 40
1.0
 40
1.0
 40
1.0
 40
1.0
 10
21.3829760304
 20
-23.9443375673
 30
0.0
 10
21.3828904558
 20
-23.9160292141
 30
0.0
 10
21.3689768958
 20
-23.8574760473
 30
0.0
 10
21.3120454708
 20
-23.785802659
 30
0.0
 10
21.2293642137
 20
-23.7388083255
 30
0.0
 10
21.1652985592
 20
-23.7279044925
 30
0.0
 10
21.1329794573
 20
-23.7278312164
 30
0.0
  0
SPLINE
  5
748
100
AcDbEntity
  8
PORTATASTO
100
AcDbSpline
 62
250
  6
CONTINUOUS
 70
0
 71
3
 72
11
 73
7
 74
0
 42
0.0000001
 43
0.0000001
 44
0.0000000001
 40
0.0
 40
0.0
 40
0.0
 40
0.0
 40
0.2662024211
 40
0.5233368106
 40
0.7668325224
 40
1.0
 40
1.0
 40
1.0
 40
1.0
 10
18.7670205427
 20
-23.7278312164
 30
0.0
 10
18.7347014369
 20
-23.7279044925
 30
0.0
 10
18.6706357742
 20
-23.7388083285
 30
0.0
 10
18.5879545106
 20
-23.7858026733
 30
0.0
 10
18.5310230948
 20
-23.8574760659
 30
0.0
 10
18.5171095442
 20
-23.9160292247
 30
0.0
 10
18.5170239696
 20
-23.9443375673
 30
0.0
  0
LINE
  5
749
100
AcDbEntity
  8
PORTATASTO
100
AcDbLine
 62
7
  6
CONTINUOUS
 10
-15.637951635
 20
-23.987951635
 30
0.0
 11
-15.4379543765
 21
-23.7879543765
 31
0.0
  0
LINE
  5
74A
100
AcDbEntity
  8
PORTATASTO
100
AcDbLine
 62
7
  6
CONTINUOUS
 10
-6.862048365
 20
23.987951635
 30
0.0
 11
-7.0620456235
 21
23.7879543765
 31
0.0
  0
LINE
  5
74B
100
AcDbEntity
  8
PORTATASTO
100
AcDbLine
 62
7
  6
CONTINUOUS
 10
6.862048365
 20
-23.987951635
 30
0.0
 11
7.0620456235
 21
-23.7879543765
 31
0.0
  0
LINE
  5
74C
100
AcDbEntity
  8
PORTATASTO
100
AcDbLine
 62
7
  6
CONTINUOUS
 10
15.637951635
 20
23.987951635
 30
0.0
 11
15.4379543765
 21
23.7879543765
 31
0.0
  0
SPLINE
  5
74D
100
AcDbEntity
  8
RACCORDO
100
AcDbSpline
 62
250
  6
CONTINUOUS
 70
0
 71
3
 72
23
 73
19
 74
0
 42
0.0000001
 43
0.0000001
 44
0.0000000001
 40
0.0
 40
0.0
 40
0.0
 40
0.0
 40
0.1948773501
 40
0.3826339844
 40
0.5554537875
 40
0.6342305132
 40
0.7069196083
 40
0.772836933
 40
0.8313023117
 40
0.8817398944
 40
0.9237100095
 40
0.9567829281
 40
0.969864727
 40
0.9806127446
 40
0.9890108047
 40
0.9950437537
 40
0.9987001498
 40
1.0
 40
1.0
 40
1.0
 40
1.0
 10
-32.6966194335
 20
17.0674431307
 30
0.0
 10
-32.6960554415
 20
17.1973690293
 30
0.0
 10
-32.6951598213
 20
17.4524743763
 30
0.0
 10
-32.6944996213
 20
17.8228018474
 30
0.0
 10
-32.6945536246
 20
18.115724217
 30
0.0
 10
-32.6949999335
 20
18.3319291085
 30
0.0
 10
-32.6955060766
 20
18.4768600693
 30
0.0
 10
-32.6961841368
 20
18.6082493124
 30
0.0
 10
-32.6970294165
 20
18.7247989121
 30
0.0
 10
-32.6980254811
 20
18.8253898573
 30
0.0
 10
-32.6991757363
 20
18.9090225193
 30
0.0
 10
-32.7002699854
 20
18.9678111194
 30
0.0
 10
-32.7013134592
 20
19.0056668798
 30
0.0
 10
-32.7019714286
 20
19.0272868491
 30
0.0
 10
-32.7028819564
 20
19.0436809396
 30
0.0
 10
-32.7032340225
 20
19.0565785066
 30
0.0
 10
-32.7046268
 20
19.0623401236
 30
0.0
 10
-32.7044808641
 20
19.0672454736
 30
0.0
 10
-32.7053463015
 20
19.067290849
 30
0.0
  0
SPLINE
  5
74E
100
AcDbEntity
  8
RACCORDO
100
AcDbSpline
 62
250
  6
CONTINUOUS
 70
0
 71
3
 72
23
 73
19
 74
0
 42
0.0000001
 43
0.0000001
 44
0.0000000001
 40
0.0
 40
0.0
 40
0.0
 40
0.0
 40
0.0012426666
 40
0.0048768945
 40
0.0108953439
 40
0.0192824106
 40
0.0300215504
 40
0.0430959615
 40
0.076157764
 40
0.1181209592
 40
0.1685549608
 40
0.2270197261
 40
0.2929399037
 40
0.3656353589
 40
0.4444219788
 40
0.6172720805
 40
0.8050709969
 40
1.0
 40
1.0
 40
1.0
 40
1.0
 10
-39.3426287633
 20
19.1831450453
 30
0.0
 10
-39.3418037715
 20
19.1830714302
 30
0.0
 10
-39.3428609533
 20
19.1780879729
 30
0.0
 10
-39.3413157093
 20
19.1724881441
 30
0.0
 10
-39.3417628301
 20
19.1595304377
 30
0.0
 10
-39.3412262691
 20
19.1431835982
 30
0.0
 10
-39.341172359
 20
19.1215632415
 30
0.0
 10
-39.3409398593
 20
19.0837296872
 30
0.0
 10
-39.3409318825
 20
19.0249602865
 30
0.0
 10
-39.3410745353
 20
18.9413596337
 30
0.0
 10
-39.3414578936
 20
18.8407994601
 30
0.0
 10
-39.3420510059
 20
18.7242820421
 30
0.0
 10
-39.3428594312
 20
18.5929244827
 30
0.0
 10
-39.3438715312
 20
18.4480239745
 30
0.0
 10
-39.3455357039
 20
18.231854411
 30
0.0
 10
-39.3480647626
 20
17.9389699926
 30
0.0
 10
-39.3516237387
 20
17.5686797807
 30
0.0
 10
-39.3542974192
 20
17.3135956111
 30
0.0
 10
-39.3557150779
 20
17.1836780775
 30
0.0
  0
SPLINE
  5
74F
100
AcDbEntity
  8
RACCORDO
100
AcDbSpline
 62
250
  6
CONTINUOUS
 70
0
 71
3
 72
18
 73
14
 74
0
 42
0.0000001
 43
0.0000001
 44
0.0000000001
 40
0.0
 40
0.0
 40
0.0
 40
0.0
 40
0.194506942
 40
0.382294008
 40
0.5550403177
 40
0.7063255297
 40
0.8304800056
 40
0.8809376511
 40
0.9229345698
 40
0.9559992196
 40
0.9799078573
 40
0.9945291633
 40
1.0
 40
1.0
 40
1.0
 40
1.0
 10
-71.6953689754
 20
21.4913845856
 30
0.0
 10
-71.6970643116
 20
21.5237559209
 30
0.0
 10
-71.7002329161
 20
21.5873892475
 30
0.0
 10
-71.7043579371
 20
21.679796826
 30
0.0
 10
-71.7076569925
 20
21.7650359214
 30
0.0
 10
-71.710007063
 20
21.839677909
 30
0.0
 10
-71.7112084663
 20
21.8940141293
 30
0.0
 10
-71.7115420085
 20
21.9300564295
 30
0.0
 10
-71.7115380232
 20
21.9510963838
 30
0.0
 10
-71.7111688614
 20
21.9672710713
 30
0.0
 10
-71.7107940612
 20
21.9799243179
 30
0.0
 10
-71.709788365
 20
21.9859046188
 30
0.0
 10
-71.7093589786
 20
21.9906516357
 30
0.0
 10
-71.7084484818
 20
21.9906993528
 30
0.0
  0
SPLINE
  5
750
100
AcDbEntity
  8
RACCORDO
100
AcDbSpline
 62
250
  6
CONTINUOUS
 70
0
 71
3
 72
21
 73
17
 74
0
 42
0.0000001
 43
0.0000001
 44
0.0000000001
 40
0.0
 40
0.0
 40
0.0
 40
0.0
 40
0.1960531996
 40
0.3846056013
 40
0.557543685
 40
0.7086348558
 40
0.7742203253
 40
0.8323823722
 40
0.8825998965
 40
0.9243518389
 40
0.9571750174
 40
0.9808376132
 40
0.9891795117
 40
0.9951665055
 40
0.9987779419
 40
1.0
 40
1.0
 40
1.0
 40
1.0
 10
-72.1636693679
 20
21.0662387498
 30
0.0
 10
-72.1951475274
 20
21.070963627
 30
0.0
 10
-72.2568960256
 20
21.0802558256
 30
0.0
 10
-72.3463996287
 20
21.0937940519
 30
0.0
 10
-72.4286740174
 20
21.1063136208
 30
0.0
 10
-72.4912017568
 20
21.1158952687
 30
0.0
 10
-72.5353000766
 20
21.1227066774
 30
0.0
 10
-72.5632122892
 20
21.127042631
 30
0.0
 10
-72.5872857995
 20
21.1308189114
 30
0.0
 10
-72.6073198698
 20
21.1339759767
 30
0.0
 10
-72.6230088922
 20
21.1365402736
 30
0.0
 10
-72.6335153824
 20
21.1381914606
 30
0.0
 10
-72.6394294111
 20
21.1393229483
 30
0.0
 10
-72.6425686888
 20
21.1397023046
 30
0.0
 10
-72.6438073064
 20
21.1402872557
 30
0.0
 10
-72.6450786592
 20
21.14021146
 30
0.0
 10
-72.6450492273
 20
21.1404076758
 30
0.0
  0
SPLINE
  5
751
100
AcDbEntity
  8
RACCORDO
100
AcDbSpline
 62
250
  6
CONTINUOUS
 70
0
 71
3
 72
21
 73
17
 74
0
 42
0.0000001
 43
0.0000001
 44
0.0000000001
 40
0.0
 40
0.0
 40
0.0
 40
0.0
 40
0.1960576651
 40
0.3846128724
 40
0.5575518449
 40
0.708642249
 40
0.7742268425
 40
0.8323878054
 40
0.8826041406
 40
0.9243548919
 40
0.9571769816
 40
0.9808386653
 40
0.9891801927
 40
0.9951668819
 40
0.9987780878
 40
1.0
 40
1.0
 40
1.0
 40
1.0
 10
-72.1636693679
 20
-21.0662387498
 30
0.0
 10
-72.1951463532
 20
-21.0709634447
 30
0.0
 10
-72.2568923086
 20
-21.0802552508
 30
0.0
 10
-72.3463918429
 20
-21.0937928554
 30
0.0
 10
-72.4286617555
 20
-21.1063117471
 30
0.0
 10
-72.4911856141
 20
-21.1158928125
 30
0.0
 10
-72.5352808429
 20
-21.12270376
 30
0.0
 10
-72.5631908718
 20
-21.1270393886
 30
0.0
 10
-72.587262373
 20
-21.1308153699
 30
0.0
 10
-72.6072946911
 20
-21.1339721789
 30
0.0
 10
-72.6229822272
 20
-21.1365362505
 30
0.0
 10
-72.6334877616
 20
-21.1381873136
 30
0.0
 10
-72.639401099
 20
-21.1393186814
 30
0.0
 10
-72.6425401684
 20
-21.1396980463
 30
0.0
 10
-72.643778383
 20
-21.1402828679
 30
0.0
 10
-72.6450498083
 20
-21.140207171
 30
0.0
 10
-72.6450202712
 20
-21.1404033349
 30
0.0
  0
SPLINE
  5
752
100
AcDbEntity
  8
RACCORDO
100
AcDbSpline
 62
250
  6
CONTINUOUS
 70
0
 71
3
 72
18
 73
14
 74
0
 42
0.0000001
 43
0.0000001
 44
0.0000000001
 40
0.0
 40
0.0
 40
0.0
 40
0.0
 40
0.1945069818
 40
0.382294152
 40
0.555040513
 40
0.7063257026
 40
0.8304801139
 40
0.8809377202
 40
0.9229346166
 40
0.955999252
 40
0.9799078694
 40
0.9945291594
 40
1.0
 40
1.0
 40
1.0
 40
1.0
 10
-71.6953689754
 20
-21.4913845856
 30
0.0
 10
-71.697064323
 20
-21.5237559277
 30
0.0
 10
-71.7002329472
 20
-21.5873892787
 30
0.0
 10
-71.7043579899
 20
-21.6797968907
 30
0.0
 10
-71.707657058
 20
-21.7650360096
 30
0.0
 10
-71.7100071304
 20
-21.8396779929
 30
0.0
 10
-71.7112085262
 20
-21.8940141933
 30
0.0
 10
-71.7115420581
 20
-21.9300564737
 30
0.0
 10
-71.7115380636
 20
-21.9510964149
 30
0.0
 10
-71.7111688973
 20
-21.9672710956
 30
0.0
 10
-71.7107940799
 20
-21.9799243277
 30
0.0
 10
-71.7097883882
 20
-21.9859046334
 30
0.0
 10
-71.7093589769
 20
-21.9906516358
 30
0.0
 10
-71.7084484794
 20
-21.990699353
 30
0.0
  0
SPLINE
  5
753
100
AcDbEntity
  8
PORTATASTO
100
AcDbSpline
 62
250
  6
CONTINUOUS
 70
0
 71
3
 72
18
 73
14
 74
0
 42
0.0000001
 43
0.0000001
 44
0.0000000001
 40
0.0
 40
0.0
 40
0.0
 40
0.0
 40
0.0048430386
 40
0.0192506945
 40
0.0430985016
 40
0.0761613562
 40
0.1181199854
 40
0.1685697656
 40
0.2929283862
 40
0.4444571633
 40
0.6173359524
 40
0.8049135012
 40
1.0
 40
1.0
 40
1.0
 40
1.0
 10
-67.4660632154
 20
-24.4829760304
 30
0.0
 10
-67.4664668073
 20
-24.4829739171
 30
0.0
 10
-67.4657730049
 20
-24.4804116621
 30
0.0
 10
-67.4666065134
 20
-24.477741817
 30
0.0
 10
-67.4662703792
 20
-24.4712787438
 30
0.0
 10
-67.4665266706
 20
-24.4632666805
 30
0.0
 10
-67.4665149944
 20
-24.4527242526
 30
0.0
 10
-67.4666074404
 20
-24.4346997673
 30
0.0
 10
-67.4666099573
 20
-24.4074792103
 30
0.0
 10
-67.4665785307
 20
-24.3700912562
 30
0.0
 10
-67.4664688729
 20
-24.3274214419
 30
0.0
 10
-67.4662993792
 20
-24.2811263052
 30
0.0
 10
-67.4661483375
 20
-24.2492368805
 30
0.0
 10
-67.4660632154
 20
-24.2329794573
 30
0.0
  0
SPLINE
  5
754
100
AcDbEntity
  8
PORTATASTO
100
AcDbSpline
 62
250
  6
CONTINUOUS
 70
0
 71
3
 72
18
 73
14
 74
0
 42
0.0000001
 43
0.0000001
 44
0.0000000001
 40
0.0
 40
0.0
 40
0.0
 40
0.0
 40
0.1950865469
 40
0.3826641327
 40
0.5555429551
 40
0.7070717446
 40
0.8314303579
 40
0.8818801298
 40
0.923838749
 40
0.956901577
 40
0.980749359
 40
0.9951569941
 40
1.0
 40
1.0
 40
1.0
 40
1.0
 10
-67.4660632154
 20
24.2329794573
 30
0.0
 10
-67.4661483375
 20
24.2492368845
 30
0.0
 10
-67.4662993792
 20
24.2811263164
 30
0.0
 10
-67.4664688729
 20
24.3274214629
 30
0.0
 10
-67.4665785307
 20
24.3700912841
 30
0.0
 10
-67.4666099573
 20
24.4074792414
 30
0.0
 10
-67.4666074403
 20
24.4346997981
 30
0.0
 10
-67.4665149943
 20
24.4527242812
 30
0.0
 10
-67.4665266704
 20
24.4632667056
 30
0.0
 10
-67.4662703793
 20
24.4712787636
 30
0.0
 10
-67.4666065124
 20
24.4777418308
 30
0.0
 10
-67.4657730063
 20
24.4804116701
 30
0.0
 10
-67.4664668045
 20
24.4829739172
 30
0.0
 10
-67.4660632154
 20
24.4829760304
 30
0.0
  0
SPLINE
  5
755
100
AcDbEntity
  8
PORTATASTO
100
AcDbSpline
 62
250
  6
CONTINUOUS
 70
0
 71
3
 72
19
 73
15
 74
0
 42
0.0000001
 43
0.0000001
 44
0.0000000001
 40
0.0
 40
0.0
 40
0.0
 40
0.0
 40
0.1952269303
 40
0.382864658
 40
0.5557446454
 40
0.7072373604
 40
0.8315430487
 40
0.881965661
 40
0.9238991576
 40
0.9569404034
 40
0.9807712057
 40
0.9891600224
 40
0.9951670382
 40
1.0
 40
1.0
 40
1.0
 40
1.0
 10
-67.4660632154
 20
-23.9443375673
 30
0.0
 10
-67.4741765415
 20
-23.9302844889
 30
0.0
 10
-67.4900756688
 20
-23.902717703
 30
0.0
 10
-67.5131180181
 20
-23.8626821661
 30
0.0
 10
-67.534308099
 20
-23.8257762277
 30
0.0
 10
-67.5528411349
 20
-23.7934103724
 30
0.0
 10
-67.5662660824
 20
-23.7698601184
 30
0.0
 10
-67.5751678336
 20
-23.7541925315
 30
0.0
 10
-67.5802648077
 20
-23.7451287357
 30
0.0
 10
-67.5843619411
 20
-23.7379376794
 30
0.0
 10
-67.58683084
 20
-23.7332560573
 30
0.0
 10
-67.5885728886
 20
-23.7303832765
 30
0.0
 10
-67.5889306041
 20
-23.7291173174
 30
0.0
 10
-67.5901021146
 20
-23.7280320708
 30
0.0
 10
-67.5897542244
 20
-23.7278312164
 30
0.0
  0
SPLINE
  5
756
100
AcDbEntity
  8
PORTATASTO
100
AcDbSpline
 62
250
  6
CONTINUOUS
 70
0
 71
3
 72
19
 73
15
 74
0
 42
0.0000001
 43
0.0000001
 44
0.0000000001
 40
0.0
 40
0.0
 40
0.0
 40
0.0
 40
0.0048329633
 40
0.0108399801
 40
0.019228799
 40
0.0430596068
 40
0.0761008622
 40
0.1180343688
 40
0.1684569933
 40
0.2927627137
 40
0.4442554636
 40
0.6171354777
 40
0.8047732435
 40
1.0
 40
1.0
 40
1.0
 40
1.0
 10
-67.5897542244
 20
23.7278312164
 30
0.0
 10
-67.5901021147
 20
23.7280320709
 30
0.0
 10
-67.5889306038
 20
23.7291173177
 30
0.0
 10
-67.5885728883
 20
23.7303832771
 30
0.0
 10
-67.5868308393
 20
23.7332560585
 30
0.0
 10
-67.5843619397
 20
23.737937682
 30
0.0
 10
-67.5802648052
 20
23.74512874
 30
0.0
 10
-67.5751678298
 20
23.7541925381
 30
0.0
 10
-67.5662660764
 20
23.769860129
 30
0.0
 10
-67.5528411257
 20
23.7934103887
 30
0.0
 10
-67.5343080858
 20
23.8257762507
 30
0.0
 10
-67.5131180008
 20
23.8626821963
 30
0.0
 10
-67.4900756559
 20
23.9027177252
 30
0.0
 10
-67.4741765343
 20
23.9302845014
 30
0.0
 10
-67.4660632154
 20
23.9443375673
 30
0.0
  0
SPLINE
  5
757
100
AcDbEntity
  8
PORTATASTO
100
AcDbSpline
 62
250
  6
CONTINUOUS
 70
0
 71
3
 72
19
 73
15
 74
0
 42
0.0000001
 43
0.0000001
 44
0.0000000001
 40
0.0
 40
0.0
 40
0.0
 40
0.0
 40
0.0048329615
 40
0.0108399771
 40
0.0192287937
 40
0.0430595957
 40
0.0761008412
 40
0.1180343375
 40
0.1684569496
 40
0.2927626376
 40
0.4442553527
 40
0.6171353406
 40
0.8047730689
 40
1.0
 40
1.0
 40
1.0
 40
1.0
 10
-66.8397542244
 20
-23.2948185145
 30
0.0
 10
-66.8401021147
 20
-23.2950193687
 30
0.0
 10
-66.838930604
 20
-23.2961046156
 30
0.0
 10
-66.8385728887
 20
-23.2973705745
 30
0.0
 10
-66.83683084
 20
-23.3002433553
 30
0.0
 10
-66.8343619412
 20
-23.3049249773
 30
0.0
 10
-66.8302648078
 20
-23.3121160335
 30
0.0
 10
-66.8251678337
 20
-23.3211798292
 30
0.0
 10
-66.8162660827
 20
-23.3368474161
 30
0.0
 10
-66.8028411352
 20
-23.3603976701
 30
0.0
 10
-66.7843080992
 20
-23.3927635254
 30
0.0
 10
-66.7631180183
 20
-23.4296694639
 30
0.0
 10
-66.7400756689
 20
-23.4697050009
 30
0.0
 10
-66.7241765416
 20
-23.4972717869
 30
0.0
 10
-66.7160632154
 20
-23.5113248654
 30
0.0
  0
SPLINE
  5
758
100
AcDbEntity
  8
PORTATASTO
100
AcDbSpline
 62
250
  6
CONTINUOUS
 70
0
 71
3
 72
19
 73
15
 74
0
 42
0.0000001
 43
0.0000001
 44
0.0000000001
 40
0.0
 40
0.0
 40
0.0
 40
0.0
 40
0.1952269311
 40
0.3828646594
 40
0.5557446473
 40
0.7072373624
 40
0.8315430504
 40
0.8819656625
 40
0.9238991588
 40
0.9569404043
 40
0.9807712063
 40
0.9891600229
 40
0.9951670385
 40
1.0
 40
1.0
 40
1.0
 40
1.0
 10
-66.7160632154
 20
23.5113248654
 30
0.0
 10
-66.7241765416
 20
23.4972717869
 30
0.0
 10
-66.7400756689
 20
23.4697050009
 30
0.0
 10
-66.7631180183
 20
23.4296694639
 30
0.0
 10
-66.7843080992
 20
23.3927635254
 30
0.0
 10
-66.8028411352
 20
23.3603976701
 30
0.0
 10
-66.8162660827
 20
23.3368474161
 30
0.0
 10
-66.8251678337
 20
23.3211798292
 30
0.0
 10
-66.8302648078
 20
23.3121160335
 30
0.0
 10
-66.8343619412
 20
23.3049249773
 30
0.0
 10
-66.83683084
 20
23.3002433553
 30
0.0
 10
-66.8385728887
 20
23.2973705745
 30
0.0
 10
-66.838930604
 20
23.2961046156
 30
0.0
 10
-66.8401021147
 20
23.2950193687
 30
0.0
 10
-66.8397542244
 20
23.2948185145
 30
0.0
  0
SPLINE
  5
759
100
AcDbEntity
  8
PORTATASTO
100
AcDbSpline
 62
7
  6
CONTINUOUS
 70
0
 71
3
 72
16
 73
12
 74
0
 42
0.0000001
 43
0.0000001
 44
0.0000000001
 40
0.0
 40
0.0
 40
0.0
 40
0.0
 40
0.0194335006
 40
0.043321372
 40
0.0764177694
 40
0.168866941
 40
0.2932361216
 40
0.4447424389
 40
0.617560434
 40
0.805045457
 40
1.0
 40
1.0
 40
1.0
 40
1.0
 10
-65.2147542244
 20
22.35
 30
0.0
 10
-65.2152941209
 20
22.3467897933
 30
0.0
 10
-65.2159560307
 20
22.3395982613
 30
0.0
 10
-65.2159982609
 20
22.3268419062
 30
0.0
 10
-65.2163621478
 20
22.3019307569
 30
0.0
 10
-65.2161695239
 20
22.2602469762
 30
0.0
 10
-65.2158272961
 20
22.1988275853
 30
0.0
 10
-65.2151436115
 20
22.1240028371
 30
0.0
 10
-65.2145213394
 20
22.0386548321
 30
0.0
 10
-65.2136039927
 20
21.9460566619
 30
0.0
 10
-65.2147542244
 20
21.8822827244
 30
0.0
 10
-65.2147542244
 20
21.8497711479
 30
0.0
  0
SPLINE
  5
75A
100
AcDbEntity
  8
PORTATASTO
100
AcDbSpline
 62
7
  6
CONTINUOUS
 70
0
 71
3
 72
8
 73
4
 74
0
 42
0.0000001
 43
0.0000001
 44
0.0000000001
 40
0.0
 40
0.0
 40
0.0
 40
0.0
 40
1.0
 40
1.0
 40
1.0
 40
1.0
 10
-57.7147542244
 20
-23.4906890903
 30
0.0
 10
-60.0859938549
 20
-23.4773520251
 30
0.0
 10
-62.4572264816
 20
-23.4625990155
 30
0.0
 10
-64.8284431678
 20
-23.4456670951
 30
0.0
  0
SPLINE
  5
75B
100
AcDbEntity
  8
PORTATASTO
100
AcDbSpline
 62
7
  6
CONTINUOUS
 70
0
 71
3
 72
8
 73
4
 74
0
 42
0.0000001
 43
0.0000001
 44
0.0000000001
 40
0.0
 40
0.0
 40
0.0
 40
0.0
 40
1.0
 40
1.0
 40
1.0
 40
1.0
 10
-64.8284431678
 20
23.4456670951
 30
0.0
 10
-62.4572264816
 20
23.4625990155
 30
0.0
 10
-60.0859938549
 20
23.4773520251
 30
0.0
 10
-57.7147542244
 20
23.4906890903
 30
0.0
  0
SPLINE
  5
75C
100
AcDbEntity
  8
PORTATASTO
100
AcDbSpline
 62
250
  6
CONTINUOUS
 70
0
 71
3
 72
26
 73
22
 74
0
 42
0.0000001
 43
0.0000001
 44
0.0000000001
 40
0.0
 40
0.0
 40
0.0
 40
0.0
 40
0.0003297549
 40
0.0012442753
 40
0.0027563721
 40
0.0048674404
 40
0.0108829305
 40
0.019278859
 40
0.0300355839
 40
0.0431279437
 40
0.0585245882
 40
0.0761885653
 40
0.1181442017
 40
0.1685918515
 40
0.2270463062
 40
0.2929449968
 40
0.3656534227
 40
0.444471197
 40
0.6173461331
 40
0.8049251472
 40
1.0
 40
1.0
 40
1.0
 40
1.0
 10
-68.9226073005
 20
-19.9421853325
 30
0.0
 10
-68.9227720735
 20
-19.9421810032
 30
0.0
 10
-68.9228099892
 20
-19.941272993
 30
0.0
 10
-68.9230588542
 20
-19.9401798922
 30
0.0
 10
-68.9231761332
 20
-19.9377636681
 30
0.0
 10
-68.9234617961
 20
-19.9330454857
 30
0.0
 10
-68.923717995
 20
-19.9247217166
 30
0.0
 10
-68.9240300409
 20
-19.9121781221
 30
0.0
 10
-68.9243072229
 20
-19.8960497069
 30
0.0
 10
-68.9245711433
 20
-19.8764388796
 30
0.0
 10
-68.9248108494
 20
-19.853368694
 30
0.0
 10
-68.9251185031
 20
-19.8158732981
 30
0.0
 10
-68.9254229314
 20
-19.7608559025
 30
0.0
 10
-68.9256755495
 20
-19.685449354
 30
0.0
 10
-68.9258264937
 20
-19.5980742239
 30
0.0
 10
-68.9258738347
 20
-19.4995718842
 30
0.0
 10
-68.9258161684
 20
-19.3908908072
 30
0.0
 10
-68.9255920807
 20
-19.2287371917
 30
0.0
 10
-68.9250420074
 20
-19.0091653318
 30
0.0
 10
-68.9240212744
 20
-18.731482921
 30
0.0
 10
-68.9231173857
 20
-18.5402132993
 30
0.0
 10
-68.9226073454
 20
-18.4427053561
 30
0.0
  0
SPLINE
  5
75D
100
AcDbEntity
  8
PORTATASTO
100
AcDbSpline
 62
7
  6
CONTINUOUS
 70
0
 71
3
 72
16
 73
12
 74
0
 42
0.0000001
 43
0.0000001
 44
0.0000000001
 40
0.0
 40
0.0
 40
0.0
 40
0.0
 40
0.194954543
 40
0.382439566
 40
0.5552575611
 40
0.7067638784
 40
0.831133059
 40
0.9235822306
 40
0.956678628
 40
0.9805664994
 40
1.0
 40
1.0
 40
1.0
 40
1.0
 10
-65.2147542244
 20
-21.8497711479
 30
0.0
 10
-65.2147542244
 20
-21.8822827244
 30
0.0
 10
-65.2136039927
 20
-21.9460566619
 30
0.0
 10
-65.2145213394
 20
-22.0386548321
 30
0.0
 10
-65.2151436115
 20
-22.1240028371
 30
0.0
 10
-65.2158272961
 20
-22.1988275853
 30
0.0
 10
-65.2161695239
 20
-22.2602469762
 30
0.0
 10
-65.2163621478
 20
-22.3019307569
 30
0.0
 10
-65.2159982609
 20
-22.3268419062
 30
0.0
 10
-65.2159560307
 20
-22.3395982613
 30
0.0
 10
-65.2152941209
 20
-22.3467897933
 30
0.0
 10
-65.2147542244
 20
-22.35
 30
0.0
  0
SPLINE
  5
75E
100
AcDbEntity
  8
CORPO
100
AcDbSpline
 62
250
  6
CONTINUOUS
 70
0
 71
3
 72
19
 73
15
 74
0
 42
0.0000001
 43
0.0000001
 44
0.0000000001
 40
0.0
 40
0.0
 40
0.0
 40
0.0
 40
0.2247999942
 40
0.4244537952
 40
0.5966709725
 40
0.7398642107
 40
0.8001452489
 40
0.852696919
 40
0.8973987603
 40
0.9341307627
 40
0.9627876729
 40
0.9833218462
 40
0.9957083499
 40
1.0
 40
1.0
 40
1.0
 40
1.0
 10
-32.697301818
 20
-18.874467277
 30
0.0
 10
-32.6970774376
 20
-18.8964156116
 30
0.0
 10
-32.6966814987
 20
-18.9378573358
 30
0.0
 10
-32.6962245597
 20
-18.996114914
 30
0.0
 10
-32.6959438426
 20
-19.046404042
 30
0.0
 10
-32.6958480724
 20
-19.0830890877
 30
0.0
 10
-32.6958779113
 20
-19.1080833008
 30
0.0
 10
-32.6959369609
 20
-19.1234747484
 30
0.0
 10
-32.6960598428
 20
-19.1365276164
 30
0.0
 10
-32.6961678441
 20
-19.1473568486
 30
0.0
 10
-32.6964663832
 20
-19.1555359216
 30
0.0
 10
-32.6964439492
 20
-19.1620180513
 30
0.0
 10
-32.6971188031
 20
-19.1648062973
 30
0.0
 10
-32.6968828449
 20
-19.1673085737
 30
0.0
 10
-32.697301818
 20
-19.1673158868
 30
0.0
  0
SPLINE
  5
75F
100
AcDbEntity
  8
CORPO
100
AcDbSpline
 62
250
  6
CONTINUOUS
 70
0
 71
3
 72
13
 73
9
 74
0
 42
0.0000001
 43
0.0000001
 44
0.0000000001
 40
0.0
 40
0.0
 40
0.0
 40
0.0
 40
0.1036029014
 40
0.210966263
 40
0.3247727677
 40
0.4466056008
 40
0.7128206139
 40
1.0
 40
1.0
 40
1.0
 40
1.0
 10
-31.7147542244
 20
-18.1674681916
 30
0.0
 10
-31.7147542244
 20
-18.2133624057
 30
0.0
 10
-31.7279458006
 20
-18.3072769224
 30
0.0
 10
-31.7855428495
 20
-18.4407381594
 30
0.0
 10
-31.8781289699
 20
-18.562876433
 30
0.0
 10
-32.0474485049
 20
-18.7090052109
 30
0.0
 10
-32.324132089
 20
-18.837156781
 30
0.0
 10
-32.5700962259
 20
-18.8728972292
 30
0.0
 10
-32.697301818
 20
-18.8744672762
 30
0.0
  0
SPLINE
  5
760
100
AcDbEntity
  8
CORPO
100
AcDbSpline
 62
250
  6
CONTINUOUS
 70
0
 71
3
 72
13
 73
9
 74
0
 42
0.0000001
 43
0.0000001
 44
0.0000000001
 40
0.0
 40
0.0
 40
0.0
 40
0.0
 40
0.1037195961
 40
0.2119821382
 40
0.3269250312
 40
0.4495274355
 40
0.7153877924
 40
1.0
 40
1.0
 40
1.0
 40
1.0
 10
-31.7184951263
 20
-18.2189973118
 30
0.0
 10
-31.7238367027
 20
-18.262530817
 30
0.0
 10
-31.7465044676
 20
-18.3504283565
 30
0.0
 10
-31.8130752997
 20
-18.4729310516
 30
0.0
 10
-31.9096564285
 20
-18.5841082861
 30
0.0
 10
-32.0780572724
 20
-18.7160654452
 30
0.0
 10
-32.3435018545
 20
-18.8312526309
 30
0.0
 10
-32.5769567951
 20
-18.8635668655
 30
0.0
 10
-32.697301818
 20
-18.8650522354
 30
0.0
  0
SPLINE
  5
761
100
AcDbEntity
  8
ASSI
100
AcDbSpline
 62
250
  6
CONTINUOUS
 70
0
 71
3
 72
13
 73
9
 74
0
 42
0.0000001
 43
0.0000001
 44
0.0000000001
 40
0.0
 40
0.0
 40
0.0
 40
0.0
 40
0.1037195961
 40
0.2119821382
 40
0.3269250312
 40
0.4495274355
 40
0.7153877924
 40
1.0
 40
1.0
 40
1.0
 40
1.0
 10
-31.7184951263
 20
-18.2189973118
 30
0.0
 10
-31.7238367027
 20
-18.262530817
 30
0.0
 10
-31.7465044676
 20
-18.3504283565
 30
0.0
 10
-31.8130752997
 20
-18.4729310516
 30
0.0
 10
-31.9096564285
 20
-18.5841082861
 30
0.0
 10
-32.0780572724
 20
-18.7160654452
 30
0.0
 10
-32.3435018545
 20
-18.8312526309
 30
0.0
 10
-32.5769567951
 20
-18.8635668655
 30
0.0
 10
-32.697301818
 20
-18.8650522354
 30
0.0
  0
SPLINE
  5
762
100
AcDbEntity
  8
ASSI
100
AcDbSpline
 62
250
  6
CONTINUOUS
 70
0
 71
3
 72
19
 73
15
 74
0
 42
0.0000001
 43
0.0000001
 44
0.0000000001
 40
0.0
 40
0.0
 40
0.0
 40
0.0
 40
0.2247999942
 40
0.4244537952
 40
0.5966709725
 40
0.7398642107
 40
0.8001452489
 40
0.852696919
 40
0.8973987603
 40
0.9341307627
 40
0.9627876729
 40
0.9833218462
 40
0.9957083499
 40
1.0
 40
1.0
 40
1.0
 40
1.0
 10
-32.697301818
 20
-18.874467277
 30
0.0
 10
-32.6970774376
 20
-18.8964156116
 30
0.0
 10
-32.6966814987
 20
-18.9378573358
 30
0.0
 10
-32.6962245597
 20
-18.996114914
 30
0.0
 10
-32.6959438426
 20
-19.046404042
 30
0.0
 10
-32.6958480724
 20
-19.0830890877
 30
0.0
 10
-32.6958779113
 20
-19.1080833008
 30
0.0
 10
-32.6959369609
 20
-19.1234747484
 30
0.0
 10
-32.6960598428
 20
-19.1365276164
 30
0.0
 10
-32.6961678441
 20
-19.1473568486
 30
0.0
 10
-32.6964663832
 20
-19.1555359216
 30
0.0
 10
-32.6964439492
 20
-19.1620180513
 30
0.0
 10
-32.6971188031
 20
-19.1648062973
 30
0.0
 10
-32.6968828449
 20
-19.1673085737
 30
0.0
 10
-32.697301818
 20
-19.1673158868
 30
0.0
  0
SPLINE
  5
763
100
AcDbEntity
  8
ASSI
100
AcDbSpline
 62
250
  6
CONTINUOUS
 70
0
 71
3
 72
13
 73
9
 74
0
 42
0.0000001
 43
0.0000001
 44
0.0000000001
 40
0.0
 40
0.0
 40
0.0
 40
0.0
 40
0.1036029014
 40
0.210966263
 40
0.3247727677
 40
0.4466056008
 40
0.7128206139
 40
1.0
 40
1.0
 40
1.0
 40
1.0
 10
-31.7147542244
 20
-18.1674681916
 30
0.0
 10
-31.7147542244
 20
-18.2133624057
 30
0.0
 10
-31.7279458006
 20
-18.3072769224
 30
0.0
 10
-31.7855428495
 20
-18.4407381594
 30
0.0
 10
-31.8781289699
 20
-18.562876433
 30
0.0
 10
-32.0474485049
 20
-18.7090052109
 30
0.0
 10
-32.324132089
 20
-18.837156781
 30
0.0
 10
-32.5700962259
 20
-18.8728972292
 30
0.0
 10
-32.697301818
 20
-18.8744672762
 30
0.0
  0
SPLINE
  5
764
100
AcDbEntity
  8
CURVE
100
AcDbSpline
 62
250
  6
CONTINUOUS
 70
0
 71
3
 72
12
 73
8
 74
0
 42
0.0000001
 43
0.0000001
 44
0.0000000001
 40
0.0
 40
0.0
 40
0.0
 40
0.0
 40
0.2
 40
0.4
 40
0.6
 40
0.8
 40
1.0
 40
1.0
 40
1.0
 40
1.0
 10
-46.1429951096
 20
-10.8253922241
 30
0.0
 10
-46.3086407048
 20
-10.7900978261
 30
0.0
 10
-46.6317375375
 20
-10.6716830295
 30
0.0
 10
-47.0460229753
 20
-10.366312956
 30
0.0
 10
-47.3588255331
 20
-9.9569897998
 30
0.0
 10
-47.5447228725
 20
-9.4769803986
 30
0.0
 10
-47.5741914327
 20
-9.1340396987
 30
0.0
 10
-47.5647824467
 20
-8.964888
 30
0.0
  0
SPLINE
  5
765
100
AcDbEntity
  8
CURVE
100
AcDbSpline
 62
250
  6
CONTINUOUS
 70
0
 71
3
 72
12
 73
8
 74
0
 42
0.0000001
 43
0.0000001
 44
0.0000000001
 40
0.0
 40
0.0
 40
0.0
 40
0.0
 40
0.2
 40
0.4
 40
0.6
 40
0.8
 40
1.0
 40
1.0
 40
1.0
 40
1.0
 10
-43.971440466
 20
-8.9648852338
 30
0.0
 10
-43.9620312133
 20
-9.1340367466
 30
0.0
 10
-43.9914992177
 20
-9.4769771536
 30
0.0
 10
-44.1773957297
 20
-9.9569863288
 30
0.0
 10
-44.4901975091
 20
-10.3663094387
 30
0.0
 10
-44.9044822461
 20
-10.6716796043
 30
0.0
 10
-45.2275786707
 20
-10.7900945284
 30
0.0
 10
-45.3932240756
 20
-10.825389
 30
0.0
  0
SPLINE
  5
766
100
AcDbEntity
  8
CURVE
100
AcDbSpline
 62
250
  6
CONTINUOUS
 70
0
 71
3
 72
21
 73
17
 74
0
 42
0.0000001
 43
0.0000001
 44
0.0000000001
 40
0.0
 40
0.0
 40
0.0
 40
0.0
 40
0.0731707317
 40
0.1463414634
 40
0.2195121951
 40
0.2926829268
 40
0.3658536585
 40
0.4390243902
 40
0.512195122
 40
0.5853658537
 40
0.6585365854
 40
0.7317073171
 40
0.8048780488
 40
0.8780487805
 40
0.9512195122
 40
1.0
 40
1.0
 40
1.0
 40
1.0
 10
-43.9714372584
 20
-13.3499981109
 30
0.0
 10
-43.9637123596
 20
-13.4888739915
 30
0.0
 10
-43.9806776788
 20
-13.7695091742
 30
0.0
 10
-44.1022290575
 20
-14.172434448
 30
0.0
 10
-44.3132912728
 20
-14.5367660108
 30
0.0
 10
-44.6025381433
 20
-14.8426336566
 30
0.0
 10
-44.9544213453
 20
-15.0736782453
 30
0.0
 10
-45.3500320106
 20
-15.2174626183
 30
0.0
 10
-45.7681099117
 20
-15.2662655842
 30
0.0
 10
-46.1861878098
 20
-15.2174625924
 30
0.0
 10
-46.5817984662
 20
-15.0736781951
 30
0.0
 10
-46.933681654
 20
-14.8426335846
 30
0.0
 10
-47.2229285056
 20
-14.5367659209
 30
0.0
 10
-47.4339906984
 20
-14.1724343451
 30
0.0
 10
-47.5420363462
 20
-13.8142785396
 30
0.0
 10
-47.5650725609
 20
-13.5820850988
 30
0.0
 10
-47.5671118837
 20
-13.4891897731
 30
0.0
  0
SPLINE
  5
767
100
AcDbEntity
  8
CURVE
100
AcDbSpline
 62
250
  6
CONTINUOUS
 70
0
 71
3
 72
11
 73
7
 74
0
 42
0.0000001
 43
0.0000001
 44
0.0000000001
 40
0.0
 40
0.0
 40
0.0
 40
0.0
 40
0.2491315025
 40
0.4973515609
 40
0.7462289133
 40
1.0
 40
1.0
 40
1.0
 40
1.0
 10
-59.7840652629
 20
-5.4627200261
 30
0.0
 10
-59.7228339121
 20
-5.4617749198
 30
0.0
 10
-59.5983798403
 20
-5.4732383197
 30
0.0
 10
-59.4347444373
 20
-5.5749993121
 30
0.0
 10
-59.3494905149
 20
-5.746549742
 30
0.0
 10
-59.3349903566
 20
-5.8705216342
 30
0.0
 10
-59.3335976336
 20
-5.9328946758
 30
0.0
  0
SPLINE
  5
768
100
AcDbEntity
  8
CURVE
100
AcDbSpline
 62
250
  6
CONTINUOUS
 70
0
 71
3
 72
9
 73
5
 74
0
 42
0.0000001
 43
0.0000001
 44
0.0000000001
 40
0.0
 40
0.0
 40
0.0
 40
0.0
 40
0.5000882298
 40
1.0
 40
1.0
 40
1.0
 40
1.0
 10
-60.1464305276
 20
-5.804625691
 30
0.0
 10
-60.1361613202
 20
-5.7161471704
 30
0.0
 10
-60.0583097402
 20
-5.5367587789
 30
0.0
 10
-59.8730820332
 20
-5.4641127161
 30
0.0
 10
-59.7840652629
 20
-5.4627200261
 30
0.0
  0
SPLINE
  5
769
100
AcDbEntity
  8
CURVE
100
AcDbSpline
 62
250
  6
CONTINUOUS
 70
0
 71
3
 72
9
 73
5
 74
0
 42
0.0000001
 43
0.0000001
 44
0.0000000001
 40
0.0
 40
0.0
 40
0.0
 40
0.0
 40
0.4997637338
 40
1.0
 40
1.0
 40
1.0
 40
1.0
 10
-60.1293665364
 20
-6.2788012718
 30
0.0
 10
-60.1426948848
 20
-6.2006669333
 30
0.0
 10
-60.1620774946
 20
-6.0427263562
 30
0.0
 10
-60.155575345
 20
-5.8834349988
 30
0.0
 10
-60.1464305276
 20
-5.804625691
 30
0.0
  0
SPLINE
  5
76A
100
AcDbEntity
  8
CURVE
100
AcDbSpline
 62
250
  6
CONTINUOUS
 70
0
 71
3
 72
11
 73
7
 74
0
 42
0.0000001
 43
0.0000001
 44
0.0000000001
 40
0.0
 40
0.0
 40
0.0
 40
0.0
 40
0.249614251
 40
0.499888924
 40
0.7499637517
 40
1.0
 40
1.0
 40
1.0
 40
1.0
 10
-60.5588139371
 20
-5.3678501192
 30
0.0
 10
-60.6013882458
 20
-5.485729931
 30
0.0
 10
-60.6488639392
 20
-5.735014474
 30
0.0
 10
-60.6632707004
 20
-6.1116431473
 30
0.0
 10
-60.6401150266
 20
-6.4882750285
 30
0.0
 10
-60.6076013196
 20
-6.7373573696
 30
0.0
 10
-60.5893334831
 20
-6.8615673444
 30
0.0
  0
SPLINE
  5
76B
100
AcDbEntity
  8
CURVE
100
AcDbSpline
 62
250
  6
CONTINUOUS
 70
0
 71
3
 72
18
 73
14
 74
0
 42
0.0000001
 43
0.0000001
 44
0.0000000001
 40
0.0
 40
0.0
 40
0.0
 40
0.0
 40
0.0626155709
 40
0.1255750725
 40
0.1873779143
 40
0.2500548274
 40
0.3131302752
 40
0.3757850613
 40
0.5005898481
 40
0.6254073429
 40
0.7503252015
 40
0.8752611255
 40
1.0
 40
1.0
 40
1.0
 40
1.0
 10
-59.0946800197
 20
-5.30544429
 30
0.0
 10
-59.0995035087
 20
-5.2680508605
 30
0.0
 10
-59.1524759364
 20
-5.205742357
 30
0.0
 10
-59.2244972378
 20
-5.1219941374
 30
0.0
 10
-59.3104465077
 20
-5.0470552444
 30
0.0
 10
-59.4068649853
 20
-4.9877497308
 30
0.0
 10
-59.5112441783
 20
-4.9423237958
 30
0.0
 10
-59.6569067486
 20
-4.9015430794
 30
0.0
 10
-59.8463031224
 20
-4.887359708
 30
0.0
 10
-60.0714734132
 20
-4.9207057947
 30
0.0
 10
-60.2800249992
 20
-5.0158512686
 30
0.0
 10
-60.4501133162
 20
-5.1675562972
 30
0.0
 10
-60.5333328199
 20
-5.2971955627
 30
0.0
 10
-60.5588139371
 20
-5.3678501192
 30
0.0
  0
SPLINE
  5
76C
100
AcDbEntity
  8
CURVE
100
AcDbSpline
 62
250
  6
CONTINUOUS
 70
0
 71
3
 72
11
 73
7
 74
0
 42
0.0000001
 43
0.0000001
 44
0.0000000001
 40
0.0
 40
0.0
 40
0.0
 40
0.0
 40
0.2450440156
 40
0.5033055314
 40
0.7579591626
 40
1.0
 40
1.0
 40
1.0
 40
1.0
 10
-58.5090047151
 20
-4.9565587397
 30
0.0
 10
-58.5633145516
 20
-4.9713588828
 30
0.0
 10
-58.6752759696
 20
-5.0005213919
 30
0.0
 10
-58.8376838975
 20
-5.0651610171
 30
0.0
 10
-58.9853206812
 20
-5.159157879
 30
0.0
 10
-59.0569599092
 20
-5.2537899196
 30
0.0
 10
-59.0775508158
 20
-5.30544429
 30
0.0
  0
SPLINE
  5
76D
100
AcDbEntity
  8
CURVE
100
AcDbSpline
 62
250
  6
CONTINUOUS
 70
0
 71
3
 72
8
 73
4
 74
0
 42
0.0000001
 43
0.0000001
 44
0.0000000001
 40
0.0
 40
0.0
 40
0.0
 40
0.0
 40
1.0
 40
1.0
 40
1.0
 40
1.0
 10
-57.72443066
 20
-4.7496410148
 30
0.0
 10
-57.985436815
 20
-4.8205511455
 30
0.0
 10
-58.248054599
 20
-4.8854426
 30
0.0
 10
-58.5090047151
 20
-4.9565587397
 30
0.0
  0
SPLINE
  5
76E
100
AcDbEntity
  8
CURVE
100
AcDbSpline
 62
250
  6
CONTINUOUS
 70
0
 71
3
 72
9
 73
5
 74
0
 42
0.0000001
 43
0.0000001
 44
0.0000000001
 40
0.0
 40
0.0
 40
0.0
 40
0.0
 40
0.499968398
 40
1.0
 40
1.0
 40
1.0
 40
1.0
 10
-58.6034327121
 20
-5.5965120355
 30
0.0
 10
-58.4602159934
 20
-5.542691105
 30
0.0
 10
-58.1645952895
 20
-5.4614309255
 30
0.0
 10
-57.8714841962
 20
-5.3741331019
 30
0.0
 10
-57.72443066
 20
-5.3318417383
 30
0.0
  0
SPLINE
  5
76F
100
AcDbEntity
  8
CURVE
100
AcDbSpline
 62
250
  6
CONTINUOUS
 70
0
 71
3
 72
11
 73
7
 74
0
 42
0.0000001
 43
0.0000001
 44
0.0000000001
 40
0.0
 40
0.0
 40
0.0
 40
0.0
 40
0.2477795725
 40
0.4960551195
 40
0.7486644071
 40
1.0
 40
1.0
 40
1.0
 40
1.0
 10
-58.8588491405
 20
-5.9341993273
 30
0.0
 10
-58.8588491405
 20
-5.8969831769
 30
0.0
 10
-58.8479609191
 20
-5.8216580962
 30
0.0
 10
-58.7922545603
 20
-5.7211454858
 30
0.0
 10
-58.7065945919
 20
-5.6450913069
 30
0.0
 10
-58.6387699882
 20
-5.609777727
 30
0.0
 10
-58.6034327121
 20
-5.5965120355
 30
0.0
  0
SPLINE
  5
770
100
AcDbEntity
  8
CURVE
100
AcDbSpline
 62
7
  6
CONTINUOUS
 70
0
 71
3
 72
9
 73
5
 74
0
 42
0.0000001
 43
0.0000001
 44
0.0000000001
 40
0.0
 40
0.0
 40
0.0
 40
0.0
 40
0.7282625609
 40
1.0
 40
1.0
 40
1.0
 40
1.0
 10
-58.3593211074
 20
11.1551101322
 30
0.0
 10
-58.5134602568
 20
11.0138702534
 30
0.0
 10
-58.8030231766
 20
10.9047002016
 30
0.0
 10
-59.088186666
 20
10.8833098474
 30
0.0
 10
-59.1661893755
 20
10.8833098474
 30
0.0
  0
SPLINE
  5
771
100
AcDbEntity
  8
CURVE
100
AcDbSpline
 62
7
  6
CONTINUOUS
 70
0
 71
3
 72
9
 73
5
 74
0
 42
0.0000001
 43
0.0000001
 44
0.0000000001
 40
0.0
 40
0.0
 40
0.0
 40
0.0
 40
0.5053449687
 40
1.0
 40
1.0
 40
1.0
 40
1.0
 10
-58.1116636607
 20
11.7579507336
 30
0.0
 10
-58.1116636607
 20
11.6457648746
 30
0.0
 10
-58.1502153714
 20
11.421173748
 30
0.0
 10
-58.2783647023
 20
11.2292916292
 30
0.0
 10
-58.3593211074
 20
11.1551101322
 30
0.0
  0
SPLINE
  5
772
100
AcDbEntity
  8
CURVE
100
AcDbSpline
 62
7
  6
CONTINUOUS
 70
0
 71
3
 72
9
 73
5
 74
0
 42
0.0000001
 43
0.0000001
 44
0.0000000001
 40
0.0
 40
0.0
 40
0.0
 40
0.0
 40
0.4950526193
 40
1.0
 40
1.0
 40
1.0
 40
1.0
 10
-58.3593211074
 20
12.3579267794
 30
0.0
 10
-58.2786193754
 20
12.2839696873
 30
0.0
 10
-58.1500996861
 20
12.0934826238
 30
0.0
 10
-58.1116636607
 20
11.8696121173
 30
0.0
 10
-58.1116636607
 20
11.7579507336
 30
0.0
  0
SPLINE
  5
773
100
AcDbEntity
  8
CURVE
100
AcDbSpline
 62
7
  6
CONTINUOUS
 70
0
 71
3
 72
9
 73
5
 74
0
 42
0.0000001
 43
0.0000001
 44
0.0000000001
 40
0.0
 40
0.0
 40
0.0
 40
0.0
 40
0.7700645673
 40
1.0
 40
1.0
 40
1.0
 40
1.0
 10
-59.1661893755
 20
12.6297219488
 30
0.0
 10
-58.944764048
 20
12.6297219488
 30
0.0
 10
-58.645549184
 20
12.5688567527
 30
0.0
 10
-58.4080679866
 20
12.4025996425
 30
0.0
 10
-58.3593211074
 20
12.3579267794
 30
0.0
  0
SPLINE
  5
774
100
AcDbEntity
  8
CURVE
100
AcDbSpline
 62
7
  6
CONTINUOUS
 70
0
 71
3
 72
9
 73
5
 74
0
 42
0.0000001
 43
0.0000001
 44
0.0000000001
 40
0.0
 40
0.0
 40
0.0
 40
0.0
 40
0.7282560258
 40
1.0
 40
1.0
 40
1.0
 40
1.0
 10
-59.9730729848
 20
12.3579267794
 30
0.0
 10
-59.8189389772
 20
12.4991743507
 30
0.0
 10
-59.5293621716
 20
12.6083366388
 30
0.0
 10
-59.2441951852
 20
12.6297219488
 30
0.0
 10
-59.1661893755
 20
12.6297219488
 30
0.0
  0
SPLINE
  5
775
100
AcDbEntity
  8
CURVE
100
AcDbSpline
 62
7
  6
CONTINUOUS
 70
0
 71
3
 72
9
 73
5
 74
0
 42
0.0000001
 43
0.0000001
 44
0.0000000001
 40
0.0
 40
0.0
 40
0.0
 40
0.0
 40
0.5049501381
 40
1.0
 40
1.0
 40
1.0
 40
1.0
 10
-60.2207304315
 20
11.7579507336
 30
0.0
 10
-60.2207304315
 20
11.8696127735
 30
0.0
 10
-60.1822947179
 20
12.0934831107
 30
0.0
 10
-60.0537755266
 20
12.2839714064
 30
0.0
 10
-59.9730729848
 20
12.3579267794
 30
0.0
  0
SPLINE
  5
776
100
AcDbEntity
  8
CURVE
100
AcDbSpline
 62
7
  6
CONTINUOUS
 70
0
 71
3
 72
9
 73
5
 74
0
 42
0.0000001
 43
0.0000001
 44
0.0000000001
 40
0.0
 40
0.0
 40
0.0
 40
0.0
 40
0.4946539486
 40
1.0
 40
1.0
 40
1.0
 40
1.0
 10
-59.9730729848
 20
11.1551101322
 30
0.0
 10
-60.0540279811
 20
11.2292926333
 30
0.0
 10
-60.1821759679
 20
11.4211741939
 30
0.0
 10
-60.2207304315
 20
11.6457647571
 30
0.0
 10
-60.2207304315
 20
11.7579507336
 30
0.0
  0
SPLINE
  5
777
100
AcDbEntity
  8
CURVE
100
AcDbSpline
 62
7
  6
CONTINUOUS
 70
0
 71
3
 72
9
 73
5
 74
0
 42
0.0000001
 43
0.0000001
 44
0.0000000001
 40
0.0
 40
0.0
 40
0.0
 40
0.0
 40
0.770062655
 40
1.0
 40
1.0
 40
1.0
 40
1.0
 10
-59.1661893755
 20
10.8833098474
 30
0.0
 10
-59.3876183669
 20
10.8833098474
 30
0.0
 10
-59.6868396569
 20
10.9441751521
 30
0.0
 10
-59.9243242259
 20
11.1104366441
 30
0.0
 10
-59.9730729848
 20
11.1551101322
 30
0.0
  0
SPLINE
  5
778
100
AcDbEntity
  8
CURVE
100
AcDbSpline
 62
7
  6
CONTINUOUS
 70
0
 71
3
 72
10
 73
6
 74
0
 42
0.0000001
 43
0.0000001
 44
0.0000000001
 40
0.0
 40
0.0
 40
0.0
 40
0.0
 40
0.2516836918
 40
0.4984435794
 40
1.0
 40
1.0
 40
1.0
 40
1.0
 10
-60.2339903068
 20
12.7884285572
 30
0.0
 10
-60.3078041944
 20
12.7255665478
 30
0.0
 10
-60.4396767541
 20
12.5828421173
 30
0.0
 10
-60.6282596954
 20
12.243819082
 30
0.0
 10
-60.6801367849
 20
11.949828191
 30
0.0
 10
-60.6801367849
 20
11.7566003002
 30
0.0
  0
SPLINE
  5
779
100
AcDbEntity
  8
CURVE
100
AcDbSpline
 62
7
  6
CONTINUOUS
 70
0
 71
3
 72
9
 73
5
 74
0
 42
0.0000001
 43
0.0000001
 44
0.0000000001
 40
0.0
 40
0.0
 40
0.0
 40
0.0
 40
0.5125803392
 40
1.0
 40
1.0
 40
1.0
 40
1.0
 10
-59.1664706301
 20
13.1507078752
 30
0.0
 10
-59.361908266
 20
13.1507078752
 30
0.0
 10
-59.7448116944
 20
13.0895937289
 30
0.0
 10
-60.0924929152
 20
12.9089317667
 30
0.0
 10
-60.2339903068
 20
12.7884285572
 30
0.0
  0
SPLINE
  5
77A
100
AcDbEntity
  8
CURVE
100
AcDbSpline
 62
7
  6
CONTINUOUS
 70
0
 71
3
 72
9
 73
5
 74
0
 42
0.0000001
 43
0.0000001
 44
0.0000000001
 40
0.0
 40
0.0
 40
0.0
 40
0.0
 40
0.4874249962
 40
1.0
 40
1.0
 40
1.0
 40
1.0
 10
-58.0989560672
 20
12.7884285572
 30
0.0
 10
-58.2404591657
 20
12.9089263556
 30
0.0
 10
-58.5881362539
 20
13.0895834537
 30
0.0
 10
-58.9710362868
 20
13.1507078752
 30
0.0
 10
-59.1664706301
 20
13.1507078752
 30
0.0
  0
SPLINE
  5
77B
100
AcDbEntity
  8
CURVE
100
AcDbSpline
 62
7
  6
CONTINUOUS
 70
0
 71
3
 72
10
 73
6
 74
0
 42
0.0000001
 43
0.0000001
 44
0.0000000001
 40
0.0
 40
0.0
 40
0.0
 40
0.0
 40
0.501556884
 40
0.7483189441
 40
1.0
 40
1.0
 40
1.0
 40
1.0
 10
-57.6528044754
 20
11.7566003002
 30
0.0
 10
-57.6528044754
 20
11.94982905
 30
0.0
 10
-57.7046826624
 20
12.2438215452
 30
0.0
 10
-57.8932643372
 20
12.5828469295
 30
0.0
 10
-58.0251400484
 20
12.7255700908
 30
0.0
 10
-58.0989560672
 20
12.7884285572
 30
0.0
  0
SPLINE
  5
77C
100
AcDbEntity
  8
CURVE
100
AcDbSpline
 62
7
  6
CONTINUOUS
 70
0
 71
3
 72
10
 73
6
 74
0
 42
0.0000001
 43
0.0000001
 44
0.0000000001
 40
0.0
 40
0.0
 40
0.0
 40
0.0
 40
0.251674412
 40
0.4984485477
 40
1.0
 40
1.0
 40
1.0
 40
1.0
 10
-58.0989560672
 20
10.7246185849
 30
0.0
 10
-58.025137719
 20
10.7874877247
 30
0.0
 10
-57.8932611692
 20
10.9302447589
 30
0.0
 10
-57.7046933374
 20
11.2693270584
 30
0.0
 10
-57.6528044754
 20
11.5633512173
 30
0.0
 10
-57.6528044754
 20
11.7566003002
 30
0.0
  0
SPLINE
  5
77D
100
AcDbEntity
  8
CURVE
100
AcDbSpline
 62
7
  6
CONTINUOUS
 70
0
 71
3
 72
9
 73
5
 74
0
 42
0.0000001
 43
0.0000001
 44
0.0000000001
 40
0.0
 40
0.0
 40
0.0
 40
0.0
 40
0.5125781236
 40
1.0
 40
1.0
 40
1.0
 40
1.0
 10
-59.1664706301
 20
10.3623239211
 30
0.0
 10
-58.9710339537
 20
10.3623239211
 30
0.0
 10
-58.5881335027
 20
10.4234524755
 30
0.0
 10
-58.2404508673
 20
10.6041111966
 30
0.0
 10
-58.0989560672
 20
10.7246185849
 30
0.0
  0
SPLINE
  5
77E
100
AcDbEntity
  8
CURVE
100
AcDbSpline
 62
7
  6
CONTINUOUS
 70
0
 71
3
 72
9
 73
5
 74
0
 42
0.0000001
 43
0.0000001
 44
0.0000000001
 40
0.0
 40
0.0
 40
0.0
 40
0.0
 40
0.4874218054
 40
1.0
 40
1.0
 40
1.0
 40
1.0
 10
-60.2339903068
 20
10.7246185849
 30
0.0
 10
-60.0924927068
 20
10.6041133325
 30
0.0
 10
-59.7448111543
 20
10.4234513178
 30
0.0
 10
-59.3619081478
 20
10.3623239211
 30
0.0
 10
-59.1664706301
 20
10.3623239211
 30
0.0
  0
SPLINE
  5
77F
100
AcDbEntity
  8
CURVE
100
AcDbSpline
 62
7
  6
CONTINUOUS
 70
0
 71
3
 72
10
 73
6
 74
0
 42
0.0000001
 43
0.0000001
 44
0.0000000001
 40
0.0
 40
0.0
 40
0.0
 40
0.0
 40
0.5015550323
 40
0.748325997
 40
1.0
 40
1.0
 40
1.0
 40
1.0
 10
-60.6801367849
 20
11.7566003002
 30
0.0
 10
-60.6801367849
 20
11.5633493502
 30
0.0
 10
-60.6282583528
 20
11.2693229611
 30
0.0
 10
-60.4396922783
 20
10.9302372839
 30
0.0
 10
-60.3078115948
 20
10.787484406
 30
0.0
 10
-60.2339903068
 20
10.7246185849
 30
0.0
  0
SPLINE
  5
780
100
AcDbEntity
  8
CURVE
100
AcDbSpline
 62
250
  6
CONTINUOUS
 70
0
 71
3
 72
8
 73
4
 74
0
 42
0.0000001
 43
0.0000001
 44
0.0000000001
 40
0.0
 40
0.0
 40
0.0
 40
0.0
 40
1.0
 40
1.0
 40
1.0
 40
1.0
 10
-47.5671118837
 20
-13.4891897731
 30
0.0
 10
-47.5681315452
 20
-13.4427421103
 30
0.0
 10
-47.5673574159
 20
-13.39628996
 30
0.0
 10
-47.5647824467
 20
-13.349998
 30
0.0
  0
ELLIPSE
  5
781
100
AcDbEntity
  8
CORPO
100
AcDbEllipse
 62
7
  6
CONTINUOUS
 10
20.3996953439
 20
17.6714466826
 30
0.0
 11
-1.8480888181
 21
-0.7655034529
 31
0.0
 40
0.9998215708
 41
2.7489566578
 42
2.8709991878
  0
ELLIPSE
  5
782
100
AcDbEntity
  8
CORPO
100
AcDbEllipse
 62
7
  6
CONTINUOUS
 10
20.3996953439
 20
-17.6714466826
 30
0.0
 11
1.8480888181
 21
-0.7655034529
 31
0.0
 40
0.9998215708
 41
0.2705934654
 42
0.3926359958
  0
ELLIPSE
  5
783
100
AcDbEntity
  8
CORPO
100
AcDbEllipse
 62
7
  6
CONTINUOUS
 10
-20.3996953439
 20
-17.6714466826
 30
0.0
 11
1.8480888181
 21
0.7655034529
 31
0.0
 40
0.9998215708
 41
2.7489566578
 42
2.8709991878
  0
ELLIPSE
  5
784
100
AcDbEntity
  8
CORPO
100
AcDbEllipse
 62
7
  6
CONTINUOUS
 10
-20.3996953439
 20
17.6714466826
 30
0.0
 11
-1.8480888181
 21
0.7655034529
 31
0.0
 40
0.9998215708
 41
0.2705934654
 42
0.3926359958
  0
ELLIPSE
  5
785
100
AcDbEntity
  8
ASSI
100
AcDbEllipse
 62
7
  6
CONTINUOUS
 10
-20.3996953439
 20
17.6714466826
 30
0.0
 11
-1.8480888181
 21
0.7655034529
 31
0.0
 40
0.9998215708
 41
0.2705934654
 42
0.3926359958
  0
ELLIPSE
  5
786
100
AcDbEntity
  8
ASSI
100
AcDbEllipse
 62
7
  6
CONTINUOUS
 10
-20.3996953439
 20
-17.6714466826
 30
0.0
 11
1.8480888181
 21
0.7655034529
 31
0.0
 40
0.9998215708
 41
2.7489566578
 42
2.8709991878
  0
ELLIPSE
  5
787
100
AcDbEntity
  8
ASSI
100
AcDbEllipse
 62
7
  6
CONTINUOUS
 10
20.3996953439
 20
-17.6714466826
 30
0.0
 11
1.8480888181
 21
-0.7655034529
 31
0.0
 40
0.9998215708
 41
0.2705934654
 42
0.3926359958
  0
ELLIPSE
  5
788
100
AcDbEntity
  8
ASSI
100
AcDbEllipse
 62
7
  6
CONTINUOUS
 10
20.3996953439
 20
17.6714466826
 30
0.0
 11
-1.8480888181
 21
-0.7655034529
 31
0.0
 40
0.9998215708
 41
2.7489566578
 42
2.8709991878
  0
ELLIPSE
  5
789
100
AcDbEntity
  8
RACCORDO
100
AcDbEllipse
 62
7
  6
CONTINUOUS
 10
21.6498286038
 20
21.699313827
 30
0.0
 11
0.2238673116
 21
0.4480418466
 31
0.0
 40
0.9982882662
 41
-1.1067376861
 42
0.4626886447
  0
ELLIPSE
  5
78A
100
AcDbEntity
  8
RACCORDO
100
AcDbEllipse
 62
7
  6
CONTINUOUS
 10
-21.6498286038
 20
21.699313827
 30
0.0
 11
-0.2238673116
 21
0.4480418466
 31
0.0
 40
0.9982882662
 41
-0.4626886447
 42
1.1067376861
  0
ELLIPSE
  5
78B
100
AcDbEntity
  8
RACCORDO
100
AcDbEllipse
 62
7
  6
CONTINUOUS
 10
-21.6114745601
 20
-21.6225531047
 30
0.0
 11
0.4994885634
 21
-0.0261749567
 31
0.0
 40
0.9978197385
 41
-3.0877528432
 42
-1.5183265125
  0
ELLIPSE
  5
78C
100
AcDbEntity
  8
RACCORDO
100
AcDbEllipse
 62
7
  6
CONTINUOUS
 10
21.6114745601
 20
-21.6225531047
 30
0.0
 11
0.4994885634
 21
0.0261749567
 31
0.0
 40
0.9978197385
 41
-1.6232661411
 42
-0.0538398104
  0
ELLIPSE
  5
78D
100
AcDbEntity
  8
PORTATASTO
100
AcDbEllipse
 62
7
  6
CONTINUOUS
 10
-18.750003427
 20
24.249996573
 30
0.0
 11
0.1767815418
 21
0.1767815418
 31
0.0
 40
0.9999725851
 41
-0.7853844557
 42
0.7853844557
  0
ELLIPSE
  5
78E
100
AcDbEntity
  8
PORTATASTO
100
AcDbEllipse
 62
7
  6
CONTINUOUS
 10
-21.149996573
 20
24.249996573
 30
0.0
 11
0.1767815418
 21
-0.1767815418
 31
0.0
 40
0.9999725851
 41
-2.5465698621
 42
-2.3562081979
  0
ELLIPSE
  5
78F
100
AcDbEntity
  8
PORTATASTO
100
AcDbEllipse
 62
7
  6
CONTINUOUS
 10
-21.149996573
 20
24.249996573
 30
0.0
 11
-0.1767815418
 21
0.1767815418
 31
0.0
 40
0.9999725851
 41
0.1666317354
 42
0.5950227915
  0
ELLIPSE
  5
790
100
AcDbEntity
  8
PORTATASTO
100
AcDbEllipse
 62
7
  6
CONTINUOUS
 10
-21.149996573
 20
24.249996573
 30
0.0
 11
0.1767815418
 21
-0.1767815418
 31
0.0
 40
0.9999725851
 41
2.3562081979
 42
3.308224389
  0
ELLIPSE
  5
791
100
AcDbEntity
  8
PORTATASTO
100
AcDbEllipse
 62
7
  6
CONTINUOUS
 10
-1.350003427
 20
24.249996573
 30
0.0
 11
0.1767815418
 21
0.1767815418
 31
0.0
 40
0.9999725851
 41
-0.7853844557
 42
0.7853844557
  0
ELLIPSE
  5
792
100
AcDbEntity
  8
PORTATASTO
100
AcDbEllipse
 62
7
  6
CONTINUOUS
 10
-3.749996573
 20
24.249996573
 30
0.0
 11
0.1767815418
 21
-0.1767815418
 31
0.0
 40
0.9999725851
 41
-2.9749609182
 42
-2.3562081979
  0
ELLIPSE
  5
793
100
AcDbEntity
  8
PORTATASTO
100
AcDbEllipse
 62
7
  6
CONTINUOUS
 10
-3.749996573
 20
24.249996573
 30
0.0
 11
-0.1767815418
 21
0.1767815418
 31
0.0
 40
0.9999725851
 41
-0.7853844557
 42
0.1666317354
  0
ELLIPSE
  5
794
100
AcDbEntity
  8
PORTATASTO
100
AcDbEllipse
 62
7
  6
CONTINUOUS
 10
-18.750003427
 20
-24.249996573
 30
0.0
 11
0.1767815418
 21
-0.1767815418
 31
0.0
 40
0.9999725851
 41
-0.1666317418
 42
0.7853844557
  0
ELLIPSE
  5
795
100
AcDbEntity
  8
PORTATASTO
100
AcDbEllipse
 62
7
  6
CONTINUOUS
 10
-18.750003427
 20
-24.249996573
 30
0.0
 11
-0.1767815418
 21
0.1767815418
 31
0.0
 40
0.9999725851
 41
-3.9269771093
 42
-3.3082243954
  0
ELLIPSE
  5
796
100
AcDbEntity
  8
PORTATASTO
100
AcDbEllipse
 62
7
  6
CONTINUOUS
 10
-21.149996573
 20
-24.249996573
 30
0.0
 11
0.1767815418
 21
0.1767815418
 31
0.0
 40
0.9999725851
 41
2.3562081979
 42
3.9269771093
  0
ELLIPSE
  5
797
100
AcDbEntity
  8
PORTATASTO
100
AcDbEllipse
 62
7
  6
CONTINUOUS
 10
-1.350003427
 20
-24.249996573
 30
0.0
 11
0.1767815418
 21
-0.1767815418
 31
0.0
 40
0.9999725851
 41
-0.7853844557
 42
0.7853844557
  0
ELLIPSE
  5
798
100
AcDbEntity
  8
PORTATASTO
100
AcDbEllipse
 62
7
  6
CONTINUOUS
 10
-3.749996573
 20
-24.249996573
 30
0.0
 11
0.1767815418
 21
0.1767815418
 31
0.0
 40
0.9999725851
 41
-3.9269771093
 42
-2.3562081979
  0
ELLIPSE
  5
799
100
AcDbEntity
  8
PORTATASTO
100
AcDbEllipse
 62
7
  6
CONTINUOUS
 10
21.149996573
 20
-24.249996573
 30
0.0
 11
0.1767815418
 21
-0.1767815418
 31
0.0
 40
0.9999725851
 41
-0.1666317418
 42
0.7853844557
  0
ELLIPSE
  5
79A
100
AcDbEntity
  8
PORTATASTO
100
AcDbEllipse
 62
7
  6
CONTINUOUS
 10
21.149996573
 20
-24.249996573
 30
0.0
 11
-0.1767815418
 21
0.1767815418
 31
0.0
 40
0.9999725851
 41
-3.9269771093
 42
-3.3082243954
  0
ELLIPSE
  5
79B
100
AcDbEntity
  8
PORTATASTO
100
AcDbEllipse
 62
7
  6
CONTINUOUS
 10
18.750003427
 20
-24.249996573
 30
0.0
 11
0.1767815418
 21
0.1767815418
 31
0.0
 40
0.9999725851
 41
2.3562081979
 42
3.9269771093
  0
ELLIPSE
  5
79C
100
AcDbEntity
  8
PORTATASTO
100
AcDbEllipse
 62
7
  6
CONTINUOUS
 10
3.749996573
 20
-24.249996573
 30
0.0
 11
0.1767815418
 21
-0.1767815418
 31
0.0
 40
0.9999725851
 41
-0.1666317418
 42
0.7853844557
  0
ELLIPSE
  5
79D
100
AcDbEntity
  8
PORTATASTO
100
AcDbEllipse
 62
7
  6
CONTINUOUS
 10
3.749996573
 20
-24.249996573
 30
0.0
 11
-0.1767815418
 21
0.1767815418
 31
0.0
 40
0.9999725851
 41
-3.9269771093
 42
-3.3082243954
  0
ELLIPSE
  5
79E
100
AcDbEntity
  8
PORTATASTO
100
AcDbEllipse
 62
7
  6
CONTINUOUS
 10
1.350003427
 20
-24.249996573
 30
0.0
 11
0.1767815418
 21
0.1767815418
 31
0.0
 40
0.9999725851
 41
-3.9269771093
 42
-2.3562081979
  0
ELLIPSE
  5
79F
100
AcDbEntity
  8
PORTATASTO
100
AcDbEllipse
 62
7
  6
CONTINUOUS
 10
18.750003427
 20
24.249996573
 30
0.0
 11
0.1767815418
 21
-0.1767815418
 31
0.0
 40
0.9999725851
 41
-2.5465698621
 42
-2.3562081979
  0
ELLIPSE
  5
7A0
100
AcDbEntity
  8
PORTATASTO
100
AcDbEllipse
 62
7
  6
CONTINUOUS
 10
18.750003427
 20
24.249996573
 30
0.0
 11
-0.1767815418
 21
0.1767815418
 31
0.0
 40
0.9999725851
 41
0.1666317354
 42
0.5950227915
  0
ELLIPSE
  5
7A1
100
AcDbEntity
  8
PORTATASTO
100
AcDbEllipse
 62
7
  6
CONTINUOUS
 10
18.750003427
 20
24.249996573
 30
0.0
 11
0.1767815418
 21
-0.1767815418
 31
0.0
 40
0.9999725851
 41
2.9749609118
 42
3.308224389
  0
ELLIPSE
  5
7A2
100
AcDbEntity
  8
PORTATASTO
100
AcDbEllipse
 62
7
  6
CONTINUOUS
 10
18.750003427
 20
24.249996573
 30
0.0
 11
-0.1767815418
 21
0.1767815418
 31
0.0
 40
0.9999725851
 41
-0.7853844557
 42
-0.1666317418
  0
ELLIPSE
  5
7A3
100
AcDbEntity
  8
PORTATASTO
100
AcDbEllipse
 62
7
  6
CONTINUOUS
 10
21.149996573
 20
24.249996573
 30
0.0
 11
0.1767815418
 21
0.1767815418
 31
0.0
 40
0.9999725851
 41
-0.7853844557
 42
0.7853844557
  0
ELLIPSE
  5
7A4
100
AcDbEntity
  8
PORTATASTO
100
AcDbEllipse
 62
7
  6
CONTINUOUS
 10
1.350003427
 20
24.249996573
 30
0.0
 11
0.1767815418
 21
-0.1767815418
 31
0.0
 40
0.9999725851
 41
2.3562081979
 42
3.9269771093
  0
ELLIPSE
  5
7A5
100
AcDbEntity
  8
PORTATASTO
100
AcDbEllipse
 62
7
  6
CONTINUOUS
 10
3.749996573
 20
24.249996573
 30
0.0
 11
0.1767815418
 21
0.1767815418
 31
0.0
 40
0.9999725851
 41
-0.7853844557
 42
0.7853844557
  0
ELLIPSE
  5
7A6
100
AcDbEntity
  8
PORTATASTO
100
AcDbEllipse
 62
7
  6
CONTINUOUS
 10
10.0499923843
 20
-23.7999972584
 30
0.0
 11
0.1715082039
 21
-0.1029032505
 31
0.0
 40
0.9999482169
 41
-1.0303611479
 42
0.540389487
  0
ELLIPSE
  5
7A7
100
AcDbEntity
  8
PORTATASTO
100
AcDbEllipse
 62
7
  6
CONTINUOUS
 10
12.4500076157
 20
-23.7999972584
 30
0.0
 11
0.1715082039
 21
0.1029032505
 31
0.0
 40
0.9999482169
 41
2.6012031666
 42
4.1719538015
  0
ELLIPSE
  5
7A8
100
AcDbEntity
  8
PORTATASTO
100
AcDbEllipse
 62
7
  6
CONTINUOUS
 10
12.4500076157
 20
23.7999972584
 30
0.0
 11
0.1715082039
 21
-0.1029032505
 31
0.0
 40
0.9999482169
 41
2.1112315056
 42
3.6819821406
  0
ELLIPSE
  5
7A9
100
AcDbEntity
  8
PORTATASTO
100
AcDbEllipse
 62
7
  6
CONTINUOUS
 10
10.0499923843
 20
23.7999972584
 30
0.0
 11
0.1715082039
 21
0.1029032505
 31
0.0
 40
0.9999482169
 41
-0.540389487
 42
1.0303611479
  0
ELLIPSE
  5
7AA
100
AcDbEntity
  8
PORTATASTO
100
AcDbEllipse
 62
7
  6
CONTINUOUS
 10
-12.4500076157
 20
-23.7999972584
 30
0.0
 11
0.1715082039
 21
-0.1029032505
 31
0.0
 40
0.9999482169
 41
-1.0303611479
 42
0.540389487
  0
ELLIPSE
  5
7AB
100
AcDbEntity
  8
PORTATASTO
100
AcDbEllipse
 62
7
  6
CONTINUOUS
 10
-12.4500076157
 20
23.7999972584
 30
0.0
 11
0.1715082039
 21
0.1029032505
 31
0.0
 40
0.9999482169
 41
-0.540389487
 42
1.0303611479
  0
ELLIPSE
  5
7AC
100
AcDbEntity
  8
PORTATASTO
100
AcDbEllipse
 62
7
  6
CONTINUOUS
 10
-10.0499923843
 20
23.7999972584
 30
0.0
 11
0.1715082039
 21
-0.1029032505
 31
0.0
 40
0.9999482169
 41
2.1112315056
 42
3.6819821406
  0
ELLIPSE
  5
7AD
100
AcDbEntity
  8
PORTATASTO
100
AcDbEllipse
 62
7
  6
CONTINUOUS
 10
-10.0499923843
 20
-23.7999972584
 30
0.0
 11
0.1715082039
 21
0.1029032505
 31
0.0
 40
0.9999482169
 41
2.6012031666
 42
4.1719538015
  0
ELLIPSE
  5
7AE
100
AcDbEntity
  8
PORTATASTO
100
AcDbEllipse
 62
7
  6
CONTINUOUS
 10
-21.8237412386
 20
-21.7707021581
 30
0.0
 11
0.1582391023
 21
0.4751033573
 31
0.0
 40
0.9984778551
 41
1.8927600658
 42
3.4626430041
  0
ELLIPSE
  5
7AF
100
AcDbEntity
  8
PORTATASTO
100
AcDbEllipse
 62
7
  6
CONTINUOUS
 10
-21.8237412386
 20
21.7707021581
 30
0.0
 11
-0.1582391023
 21
0.4751033573
 31
0.0
 40
0.9984778551
 41
-0.3210503505
 42
1.2488325878
  0
ELLIPSE
  5
7B0
100
AcDbEntity
  8
PORTATASTO
100
AcDbEllipse
 62
7
  6
CONTINUOUS
 10
21.8237412386
 20
-21.7707021581
 30
0.0
 11
-0.1582391023
 21
0.4751033573
 31
0.0
 40
0.9984778551
 41
-3.4626430041
 42
-1.8927600658
  0
ELLIPSE
  5
7B1
100
AcDbEntity
  8
PORTATASTO
100
AcDbEllipse
 62
7
  6
CONTINUOUS
 10
21.8237412386
 20
21.7707021581
 30
0.0
 11
-0.1582391023
 21
-0.4751033573
 31
0.0
 40
0.9984778551
 41
1.8927600658
 42
3.4626430041
  0
ELLIPSE
  5
7B2
100
AcDbEntity
  8
PORTATASTO
100
AcDbEllipse
 62
7
  6
CONTINUOUS
 10
-18.7617845071
 20
22.2844902759
 30
0.0
 11
0.25
 21
-0.0
 31
0.0
 40
0.0524077793
 41
-1.5707963268
 42
-0.0052359878
  0
ELLIPSE
  5
7B3
100
AcDbEntity
  8
PORTATASTO
100
AcDbEllipse
 62
7
  6
CONTINUOUS
 10
-21.1382154929
 20
22.2844902759
 30
0.0
 11
0.25
 21
-0.0
 31
0.0
 40
0.0524077793
 41
-3.1363566658
 42
-1.5707963268
  0
ELLIPSE
  5
7B4
100
AcDbEntity
  8
PORTATASTO
100
AcDbEllipse
 62
7
  6
CONTINUOUS
 10
-3.7382154929
 20
22.2844902759
 30
0.0
 11
0.25
 21
-0.0
 31
0.0
 40
0.0524077793
 41
-3.1363566658
 42
-1.5707963268
  0
ELLIPSE
  5
7B5
100
AcDbEntity
  8
PORTATASTO
100
AcDbEllipse
 62
7
  6
CONTINUOUS
 10
-1.3617845071
 20
22.2844902759
 30
0.0
 11
0.25
 21
-0.0
 31
0.0
 40
0.0524077793
 41
-1.5707963268
 42
-0.0052359878
  0
ELLIPSE
  5
7B6
100
AcDbEntity
  8
PORTATASTO
100
AcDbEllipse
 62
7
  6
CONTINUOUS
 10
-18.7617845071
 20
-22.2844902759
 30
0.0
 11
0.25
 21
-0.0
 31
0.0
 40
0.0524077793
 41
0.0052359878
 42
1.5707963268
  0
ELLIPSE
  5
7B7
100
AcDbEntity
  8
PORTATASTO
100
AcDbEllipse
 62
7
  6
CONTINUOUS
 10
-21.1382154929
 20
-22.2844902759
 30
0.0
 11
0.25
 21
-0.0
 31
0.0
 40
0.0524077793
 41
1.5707963268
 42
3.1363566658
  0
ELLIPSE
  5
7B8
100
AcDbEntity
  8
PORTATASTO
100
AcDbEllipse
 62
7
  6
CONTINUOUS
 10
-1.3617845071
 20
-22.2844902759
 30
0.0
 11
0.25
 21
-0.0
 31
0.0
 40
0.0524077793
 41
0.0052359878
 42
1.5707963268
  0
ELLIPSE
  5
7B9
100
AcDbEntity
  8
PORTATASTO
100
AcDbEllipse
 62
7
  6
CONTINUOUS
 10
-3.7382154929
 20
-22.2844902759
 30
0.0
 11
0.25
 21
-0.0
 31
0.0
 40
0.0524077793
 41
1.5707963268
 42
3.1363566658
  0
ELLIPSE
  5
7BA
100
AcDbEntity
  8
PORTATASTO
100
AcDbEllipse
 62
7
  6
CONTINUOUS
 10
1.3617845071
 20
22.2844902759
 30
0.0
 11
0.25
 21
-0.0
 31
0.0
 40
0.0524077793
 41
-3.1363566658
 42
-1.5707963268
  0
ELLIPSE
  5
7BB
100
AcDbEntity
  8
PORTATASTO
100
AcDbEllipse
 62
7
  6
CONTINUOUS
 10
3.7382154929
 20
22.2844902759
 30
0.0
 11
0.25
 21
0.0
 31
0.0
 40
0.0524077793
 41
-1.5707963268
 42
-0.0052359878
  0
ELLIPSE
  5
7BC
100
AcDbEntity
  8
PORTATASTO
100
AcDbEllipse
 62
7
  6
CONTINUOUS
 10
21.1382154929
 20
22.2844902759
 30
0.0
 11
0.25
 21
-0.0
 31
0.0
 40
0.0524077793
 41
-1.5707963268
 42
-0.0052359878
  0
ELLIPSE
  5
7BD
100
AcDbEntity
  8
PORTATASTO
100
AcDbEllipse
 62
7
  6
CONTINUOUS
 10
18.7617845071
 20
22.2844902759
 30
0.0
 11
0.25
 21
-0.0
 31
0.0
 40
0.0524077793
 41
-3.1363566658
 42
-1.5707963268
  0
ELLIPSE
  5
7BE
100
AcDbEntity
  8
PORTATASTO
100
AcDbEllipse
 62
7
  6
CONTINUOUS
 10
1.3617845071
 20
-22.2844902759
 30
0.0
 11
0.25
 21
0.0
 31
0.0
 40
0.0524077793
 41
1.5707963268
 42
3.1363566658
  0
ELLIPSE
  5
7BF
100
AcDbEntity
  8
PORTATASTO
100
AcDbEllipse
 62
7
  6
CONTINUOUS
 10
3.7382154929
 20
-22.2844902759
 30
0.0
 11
0.25
 21
-0.0
 31
0.0
 40
0.0524077793
 41
0.0052359878
 42
1.5707963268
  0
ELLIPSE
  5
7C0
100
AcDbEntity
  8
PORTATASTO
100
AcDbEllipse
 62
7
  6
CONTINUOUS
 10
18.7617845071
 20
-22.2844902759
 30
0.0
 11
0.25
 21
0.0
 31
0.0
 40
0.0524077793
 41
1.5707963268
 42
3.1363566658
  0
ELLIPSE
  5
7C1
100
AcDbEntity
  8
PORTATASTO
100
AcDbEllipse
 62
7
  6
CONTINUOUS
 10
21.1382154929
 20
-22.2844902759
 30
0.0
 11
0.25
 21
-0.0
 31
0.0
 40
0.0524077793
 41
0.0052359878
 42
1.5707963268
  0
ELLIPSE
  5
7C2
100
AcDbEntity
  8
PORTATASTO
100
AcDbEllipse
 62
7
  6
CONTINUOUS
 10
-12.4613525438
 20
-22.3342776662
 30
0.0
 11
0.2
 21
-0.0
 31
0.0
 40
0.0524077793
 41
0.0087266463
 42
1.5707963268
  0
ELLIPSE
  5
7C3
100
AcDbEntity
  8
PORTATASTO
100
AcDbEllipse
 62
7
  6
CONTINUOUS
 10
-10.0386474562
 20
-22.3342776662
 30
0.0
 11
0.2
 21
-0.0
 31
0.0
 40
0.0524077793
 41
1.5707963268
 42
3.1328660073
  0
ELLIPSE
  5
7C4
100
AcDbEntity
  8
PORTATASTO
100
AcDbEllipse
 62
7
  6
CONTINUOUS
 10
-12.4613525438
 20
22.3342776662
 30
0.0
 11
0.2
 21
-0.0
 31
0.0
 40
0.0524077793
 41
-1.5707963268
 42
-0.0087266463
  0
ELLIPSE
  5
7C5
100
AcDbEntity
  8
PORTATASTO
100
AcDbEllipse
 62
7
  6
CONTINUOUS
 10
-10.0386474562
 20
22.3342776662
 30
0.0
 11
0.2
 21
-0.0
 31
0.0
 40
0.0524077793
 41
-3.1328660073
 42
-1.5707963268
  0
ELLIPSE
  5
7C6
100
AcDbEntity
  8
PORTATASTO
100
AcDbEllipse
 62
7
  6
CONTINUOUS
 10
-15.4379543765
 20
-22.2818698869
 30
0.0
 11
0.2
 21
-0.0
 31
0.0
 40
0.0524077793
 41
1.5707963268
 42
3.1363566658
  0
ELLIPSE
  5
7C7
100
AcDbEntity
  8
PORTATASTO
100
AcDbEllipse
 62
7
  6
CONTINUOUS
 10
-7.5430108901
 20
-22.2818698869
 30
0.0
 11
0.2
 21
-0.0
 31
0.0
 40
0.0524077793
 41
1.5707963268
 42
3.1328660073
  0
ELLIPSE
  5
7C8
100
AcDbEntity
  8
PORTATASTO
100
AcDbEllipse
 62
7
  6
CONTINUOUS
 10
-14.9569891099
 20
22.2818698869
 30
0.0
 11
0.2
 21
-0.0
 31
0.0
 40
0.0524077793
 41
-1.5707963268
 42
-0.0087266463
  0
ELLIPSE
  5
7C9
100
AcDbEntity
  8
PORTATASTO
100
AcDbEllipse
 62
7
  6
CONTINUOUS
 10
-7.0620456235
 20
22.2818698869
 30
0.0
 11
0.2
 21
0.0
 31
0.0
 40
0.0524077793
 41
-1.5707963268
 42
-0.0052359878
  0
ELLIPSE
  5
7CA
100
AcDbEntity
  8
PORTATASTO
100
AcDbEllipse
 62
7
  6
CONTINUOUS
 10
-7.5430108901
 20
22.2818698869
 30
0.0
 11
0.2
 21
-0.0
 31
0.0
 40
0.0524077793
 41
-3.1328660073
 42
-1.5707963268
  0
ELLIPSE
  5
7CB
100
AcDbEntity
  8
PORTATASTO
100
AcDbEllipse
 62
7
  6
CONTINUOUS
 10
-15.4379543765
 20
22.2818698869
 30
0.0
 11
0.2
 21
0.0
 31
0.0
 40
0.0524077793
 41
-3.1363566658
 42
-1.5707963268
  0
ELLIPSE
  5
7CC
100
AcDbEntity
  8
PORTATASTO
100
AcDbEllipse
 62
7
  6
CONTINUOUS
 10
-14.9569891099
 20
-22.2818698869
 30
0.0
 11
0.2
 21
-0.0
 31
0.0
 40
0.0524077793
 41
0.0087266463
 42
1.5707963268
  0
ELLIPSE
  5
7CD
100
AcDbEntity
  8
PORTATASTO
100
AcDbEllipse
 62
7
  6
CONTINUOUS
 10
-7.0620456235
 20
-22.2818698869
 30
0.0
 11
0.2
 21
0.0
 31
0.0
 40
0.0524077793
 41
0.0052359878
 42
1.5707963268
  0
ELLIPSE
  5
7CE
100
AcDbEntity
  8
PORTATASTO
100
AcDbEllipse
 62
7
  6
CONTINUOUS
 10
10.0386474562
 20
-22.3342776662
 30
0.0
 11
0.2
 21
0.0
 31
0.0
 40
0.0524077793
 41
0.0087266463
 42
1.5707963268
  0
ELLIPSE
  5
7CF
100
AcDbEntity
  8
PORTATASTO
100
AcDbEllipse
 62
7
  6
CONTINUOUS
 10
7.5430108901
 20
-22.2818698869
 30
0.0
 11
0.2
 21
0.0
 31
0.0
 40
0.0524077793
 41
0.0087266463
 42
1.5707963268
  0
ELLIPSE
  5
7D0
100
AcDbEntity
  8
PORTATASTO
100
AcDbEllipse
 62
7
  6
CONTINUOUS
 10
7.0620456235
 20
-22.2818698869
 30
0.0
 11
0.2
 21
0.0
 31
0.0
 40
0.0524077793
 41
1.5707963268
 42
3.1363566658
  0
ELLIPSE
  5
7D1
100
AcDbEntity
  8
PORTATASTO
100
AcDbEllipse
 62
7
  6
CONTINUOUS
 10
15.4379543765
 20
-22.2818698869
 30
0.0
 11
0.2
 21
-0.0
 31
0.0
 40
0.0524077793
 41
0.0052359878
 42
1.5707963268
  0
ELLIPSE
  5
7D2
100
AcDbEntity
  8
PORTATASTO
100
AcDbEllipse
 62
7
  6
CONTINUOUS
 10
12.4613525438
 20
-22.3342776662
 30
0.0
 11
0.2
 21
0.0
 31
0.0
 40
0.0524077793
 41
1.5707963268
 42
3.1328660073
  0
ELLIPSE
  5
7D3
100
AcDbEntity
  8
PORTATASTO
100
AcDbEllipse
 62
7
  6
CONTINUOUS
 10
14.9569891099
 20
-22.2818698869
 30
0.0
 11
0.2
 21
-0.0
 31
0.0
 40
0.0524077793
 41
1.5707963268
 42
3.1328660073
  0
ELLIPSE
  5
7D4
100
AcDbEntity
  8
PORTATASTO
100
AcDbEllipse
 62
7
  6
CONTINUOUS
 10
14.9569891099
 20
22.2818698869
 30
0.0
 11
0.2
 21
0.0
 31
0.0
 40
0.0524077793
 41
-3.1328660073
 42
-1.5707963268
  0
ELLIPSE
  5
7D5
100
AcDbEntity
  8
PORTATASTO
100
AcDbEllipse
 62
7
  6
CONTINUOUS
 10
15.4379543765
 20
22.2818698869
 30
0.0
 11
0.2
 21
0.0
 31
0.0
 40
0.0524077793
 41
-1.5707963268
 42
-0.0052359878
  0
ELLIPSE
  5
7D6
100
AcDbEntity
  8
PORTATASTO
100
AcDbEllipse
 62
7
  6
CONTINUOUS
 10
12.4613525438
 20
22.3342776662
 30
0.0
 11
0.2
 21
0.0
 31
0.0
 40
0.0524077793
 41
-3.1328660073
 42
-1.5707963268
  0
ELLIPSE
  5
7D7
100
AcDbEntity
  8
PORTATASTO
100
AcDbEllipse
 62
7
  6
CONTINUOUS
 10
10.0386474562
 20
22.3342776662
 30
0.0
 11
0.2
 21
-0.0
 31
0.0
 40
0.0524077793
 41
-1.5707963268
 42
-0.0087266463
  0
ELLIPSE
  5
7D8
100
AcDbEntity
  8
PORTATASTO
100
AcDbEllipse
 62
7
  6
CONTINUOUS
 10
7.0620456235
 20
22.2818698869
 30
0.0
 11
0.2
 21
0.0
 31
0.0
 40
0.0524077793
 41
-3.1363566658
 42
-1.5707963268
  0
ELLIPSE
  5
7D9
100
AcDbEntity
  8
PORTATASTO
100
AcDbEllipse
 62
7
  6
CONTINUOUS
 10
7.5430108901
 20
22.2818698869
 30
0.0
 11
0.2
 21
0.0
 31
0.0
 40
0.0524077793
 41
-1.5707963268
 42
-0.0087266463
  0
ELLIPSE
  5
7DA
100
AcDbEntity
  8
PORTATASTO
100
AcDbEllipse
 62
7
  6
CONTINUOUS
 10
-53.7147542244
 20
-21.9537669705
 30
0.0
 11
0.3546425507
 21
0.3568377408
 31
0.0
 40
0.9877342685
 41
-0.2093834035
 42
0.7710302454
  0
ELLIPSE
  5
7DB
100
AcDbEntity
  8
PORTATASTO
100
AcDbEllipse
 62
7
  6
CONTINUOUS
 10
-53.7147542244
 20
21.9537669705
 30
0.0
 11
-0.3546425507
 21
0.3568377408
 31
0.0
 40
0.9877342685
 41
-3.912622899
 42
-2.9322092501
  0
ELLIPSE
  5
7DC
100
AcDbEntity
  8
PORTATASTO
100
AcDbEllipse
 62
7
  6
CONTINUOUS
 10
12.1789203267
 20
-23.15
 30
0.0
 11
95.4920931889
 21
-0.0
 31
0.0
 40
0.0052360356
 41
2.3919487288
 42
2.5157538818
  0
ELLIPSE
  5
7DD
100
AcDbEntity
  8
PORTATASTO
100
AcDbEllipse
 62
7
  6
CONTINUOUS
 10
12.1789203267
 20
23.15
 30
0.0
 11
95.4920931889
 21
-0.0
 31
0.0
 40
0.0052360356
 41
-2.5157538818
 42
-2.3919487288
  0
ELLIPSE
  5
7DE
100
AcDbEntity
  8
0
100
AcDbEllipse
 62
250
  6
CONTINUOUS
 10
-34.9736772244
 20
-13.214776
 30
0.0
 11
0.9911548367
 21
0.0
 31
0.0
 40
1.0
 41
2.3322856063
 42
3.1415926536
  0
ELLIPSE
  5
7DF
100
AcDbEntity
  8
0
100
AcDbEllipse
 62
250
  6
CONTINUOUS
 10
-38.2147542244
 20
-13.75
 30
0.0
 11
1.6849638592
 21
-0.0
 31
0.0
 40
1.0
 41
-2.2308799162
 42
-0.7037206227
  0
ELLIPSE
  5
7E0
100
AcDbEntity
  8
0
100
AcDbEllipse
 62
250
  6
CONTINUOUS
 10
-38.2147542244
 20
-13.75
 30
0.0
 11
0.0
 21
1.6849640451
 31
0.0
 40
1.0
 41
-0.8670757041
 42
0.6600835894
  0
ELLIPSE
  5
7E1
100
AcDbEntity
  8
0
100
AcDbEllipse
 62
250
  6
CONTINUOUS
 10
-38.2147542244
 20
-13.75
 30
0.0
 11
2.249922
 21
0.0
 31
0.0
 40
1.0
 41
0.0
 42
6.2831853072
  0
ELLIPSE
  5
7E2
100
AcDbEntity
  8
CURVE
100
AcDbEllipse
 62
250
  6
CONTINUOUS
 10
-53.4677239427
 20
-12.839757
 30
0.0
 11
0.0
 21
0.65
 31
0.0
 40
0.9996954135
 41
-1.5707963268
 42
1.5707963268
  0
ENDSEC
  0
SECTION
  2
OBJECTS
  0
DICTIONARY
  5
C
100
AcDbDictionary
280
0
281
1
  3
ACAD_GROUP
350
D
  3
ACAD_MLINESTYLE
350
17
  3
ACAD_LAYOUT
350
1A
  3
ACAD_PLOTSETTINGS
350
19
  3
ACAD_PLOTSTYLENAME
350
E
  0
DICTIONARY
  5
D
102
{ACAD_REACTORS
330
C
102
}
100
AcDbDictionary
280
0
281
1
  0
ACDBDICTIONARYWDFLT
  5
E
102
{ACAD_REACTORS
330
C
102
}
100
AcDbDictionary
281
1
  3
Normal
350
F
100
AcDbDictionaryWithDefault
340
F
  0
DICTIONARY
  5
17
102
{ACAD_REACTORS
330
C
102
}
100
AcDbDictionary
280
0
281
1
  3
Standard
350
18
  0
DICTIONARY
  5
19
102
{ACAD_REACTORS
330
C
102
}
100
AcDbDictionary
281
1
  0
DICTIONARY
  5
1A
102
{ACAD_REACTORS
330
C
102
}
100
AcDbDictionary
281
1
  3
Model
350
7E3
  3
Layout1
350
7E4
  0
ACDBPLACEHOLDER
  5
F
102
{ACAD_REACTORS
330
E
102
}
  0
MLINESTYLE
  5
18
102
{ACAD_REACTORS
330
17
102
}
100
AcDbMlineStyle
  2
STANDARD
 70
0
  3

 62
256
 51
90.0
 52
90.0
 71
2
 49
0.5
 62
256
  6
BYLAYER
 49
-0.5
 62
256
  6
BYLAYER
  0
LAYOUT
  5
7E3
102
{ACAD_REACTORS
330
1A
102
}
100
AcDbPlotSettings
  1

  2
none_device
  4
ISO_A4_(297.00_x_210.00_MM)
  6

 40
0.0
 41
0.0
 42
0.0
 43
0.0
 44
297.0
 45
210.0
 46
0.0
 47
0.0
 48
0.0
 49
0.0
140
0.0
141
0.0
142
1.0
143
1.0
 70
1024
 72
1
 73
0
 74
0
  7

 75
0
147
1.0
148
0.0
149
0.0
100
AcDbLayout
  1
Model
 70
0
 71
0
 10
0.0
 20
0.0
 11
297.0
 21
210.0
 12
0.0
 22
0.0
 32
0.0
 14
0.0
 24
0.0
 34
0.0
 15
0.0
 25
0.0
 35
0.0
146
0.0
 13
0.0
 23
0.0
 33
0.0
 16
1.0
 26
0.0
 36
0.0
 17
0.0
 27
1.0
 37
0.0
 76
0
330
223
345
0
346
0
  0
LAYOUT
  5
7E4
102
{ACAD_REACTORS
330
1A
102
}
100
AcDbPlotSettings
  1

  2
none_device
  4
ISO_A4_(297.00_x_210.00_MM)
  6

 40
0.0
 41
0.0
 42
0.0
 43
0.0
 44
297.0
 45
210.0
 46
0.0
 47
0.0
 48
0.0
 49
0.0
140
0.0
141
0.0
142
1.0
143
1.0
 70
0
 72
1
 73
0
 74
0
  7

 75
0
147
1.0
148
0.0
149
0.0
100
AcDbLayout
  1
Layout1
 70
0
 71
1
 10
0.0
 20
0.0
 11
297.0
 21
210.0
 12
0.0
 22
0.0
 32
0.0
 14
0.0
 24
0.0
 34
0.0
 15
0.0
 25
0.0
 35
0.0
146
0.0
 13
0.0
 23
0.0
 33
0.0
 16
1.0
 26
0.0
 36
0.0
 17
0.0
 27
1.0
 37
0.0
 76
0
330
224
345
0
346
0
  0
ENDSEC
  0
EOF
