  0
SECTION
  2
HEADER
  9
$ACADVER
  1
AC1015
  9
$DWGCODEPAGE
  3
ANSI_1252
  9
$EXTMAX
 10
297.0
 20
210.0
 30
0.0
  9
$EXTMIN
 10
0.0
 20
0.0
 30
0.0
  9
$LIMMIN
 10
0.0
 20
0.0
  9
$LIMMAX
 10
297.0
 20
210.0
  9
$VIEWCTR
 10
148.5
 20
105.0
  9
$VIEWSIZE
 40
210.0
  9
$CLAYER
  8
0
  9
$LTSCALE
 40
16.335
  9
$CELTYPE
  6
BYLAYER
  9
$DIMSCALE
 40
1.0
  9
$DIMASZ
 40
3.0
  9
$DIMEXO
 40
1.85625
  9
$DIMDLI
 40
11.286
  9
$DIMEXE
 40
5.346
  9
$DIMCEN
 40
2.673
  9
$DIMLFAC
 40
1.0
  9
$DIMBLK
  1
_FILLED
  9
$DIMTXT
 40
3.0
  9
$DIMTOL
 70
1
  9
$DIMLIM
 70
0
  9
$DIMTFAC
 40
1.0
  9
$DIMTP
 40
0.01
  9
$DIMTM
 40
0.01
  9
$PDMODE
 70
3
  9
$PDSIZE
 40
3.0
  9
$HANDSEED
  5
6D1
  9
$TILEMODE
 70
1
  9
$MEASUREMENT
 70
1
  9
$INSUNITS
 70
4
  0
ENDSEC
  0
SECTION
  2
CLASSES
  0
CLASS
  1
ACDBDICTIONARYWDFLT
  2
AcDbDictionaryWithDefault
  3
AutoCAD 2000
 90
0
280
0
281
0
  0
CLASS
  1
ACDBPLACEHOLDER
  2
AcDbPlaceHolder
  3
AutoCAD 2000
 90
0
280
0
281
0
  0
CLASS
  1
LAYOUT
  2
AcDbLayout
  3
AutoCAD 2000
 90
0
280
0
281
0
  0
ENDSEC
  0
SECTION
  2
TABLES
  0
TABLE
  2
VPORT
  5
8
100
AcDbSymbolTable
 70
2
  0
VPORT
  5
1F4
100
AcDbSymbolTableRecord
100
AcDbViewportTableRecord
  2
*ACTIVE
 70
0
 10
0.0
 20
0.0
 11
1.0
 21
1.0
 12
148.5
 22
105.0
 13
0.0
 23
0.0
 14
1.0
 24
1.0
 15
0.0
 25
0.0
 16
0.0
 26
0.0
 36
1.0
 17
0.0
 27
0.0
 37
0.0
 40
210.0
 41
1.4142857143
 42
50.0
 43
0.0
 44
0.0
 50
0.0
 51
0.0
 71
0
 72
100
 73
1
 74
1
 75
0
 76
0
 77
0
 78
0
  0
ENDTAB
  0
TABLE
  2
LTYPE
  5
5
100
AcDbSymbolTable
 70
6
  0
LTYPE
  5
14
100
AcDbSymbolTableRecord
100
AcDbLinetypeTableRecord
  2
BYBLOCK
 70
0
  3

 72
65
 73
0
 40
0.0
  0
LTYPE
  5
15
100
AcDbSymbolTableRecord
100
AcDbLinetypeTableRecord
  2
BYLAYER
 70
0
  3

 72
65
 73
0
 40
0.0
  0
LTYPE
  5
16
100
AcDbSymbolTableRecord
100
AcDbLinetypeTableRecord
  2
CONTINUOUS
 70
64
  3
Solid line
 72
65
 73
0
 40
0.0
  0
LTYPE
  5
1F5
100
AcDbSymbolTableRecord
100
AcDbLinetypeTableRecord
  2
CENTER
 70
64
  3
____ _ ____ _ ____ _ ____ _ ____ _ ____ _ ____
 72
65
 73
4
 40
0.6
 49
0.375
 74
0
 49
-0.075
 74
0
 49
0.075
 74
0
 49
-0.075
 74
0
  0
LTYPE
  5
1F6
100
AcDbSymbolTableRecord
100
AcDbLinetypeTableRecord
  2
HIDDEN
 70
64
  3
- - - - - - - - - - - - - - - - - - - -
 72
65
 73
2
 40
0.2
 49
0.1
 74
0
 49
-0.1
 74
0
  0
LTYPE
  5
1F7
100
AcDbSymbolTableRecord
100
AcDbLinetypeTableRecord
  2
PHANTOM
 70
64
  3
_____ _ _ _____ _ _ _____ _ _ _____
 72
65
 73
6
 40
0.8
 49
0.45
 74
0
 49
-0.05
 74
0
 49
0.1
 74
0
 49
-0.05
 74
0
 49
0.1
 74
0
 49
-0.05
 74
0
  0
LTYPE
  5
1F8
100
AcDbSymbolTableRecord
100
AcDbLinetypeTableRecord
  2
DOT
 70
64
  3
. . . . . . . . . . . . . . . . . . . .
 72
65
 73
2
 40
0.2
 49
0.1
 74
0
 49
-0.1
 74
0
  0
LTYPE
  5
1F9
100
AcDbSymbolTableRecord
100
AcDbLinetypeTableRecord
  2
DASHED
 70
64
  3
- - - - - - - - - - - - - - - - - - - -
 72
65
 73
2
 40
0.2
 49
0.1
 74
0
 49
-0.1
 74
0
  0
ENDTAB
  0
TABLE
  2
LAYER
  5
2
100
AcDbSymbolTable
 70
36
  0
LAYER
  5
10
100
AcDbSymbolTableRecord
100
AcDbLayerTableRecord
  2
0
 70
0
 62
7
  6
CONTINUOUS
370
-3
390
F
  0
LAYER
  5
1FA
100
AcDbSymbolTableRecord
100
AcDbLayerTableRecord
  2
DEFAULT_1
 70
0
 62
7
  6
CENTER
370
-3
390
F
  0
LAYER
  5
1FB
100
AcDbSymbolTableRecord
100
AcDbLayerTableRecord
  2
DEFAULT_2
 70
0
 62
7
  6
HIDDEN
370
-3
390
F
  0
LAYER
  5
1FC
100
AcDbSymbolTableRecord
100
AcDbLayerTableRecord
  2
DEFAULT_3
 70
0
 62
7
  6
PHANTOM
370
-3
390
F
  0
LAYER
  5
1FD
100
AcDbSymbolTableRecord
100
AcDbLayerTableRecord
  2
ASSI
 70
0
 62
7
  6
CONTINUOUS
370
-3
390
F
  0
LAYER
  5
1FE
100
AcDbSymbolTableRecord
100
AcDbLayerTableRecord
  2
COLOR5
 70
0
 62
7
  6
CONTINUOUS
370
-3
390
F
  0
LAYER
  5
1FF
100
AcDbSymbolTableRecord
100
AcDbLayerTableRecord
  2
COORDINATE
 70
0
 62
7
  6
CONTINUOUS
370
-3
390
F
  0
LAYER
  5
200
100
AcDbSymbolTableRecord
100
AcDbLayerTableRecord
  2
COORD_ORIGINE
 70
0
 62
7
  6
CONTINUOUS
370
-3
390
F
  0
LAYER
  5
201
100
AcDbSymbolTableRecord
100
AcDbLayerTableRecord
  2
COPY_PUBLISH
 70
0
 62
7
  6
CONTINUOUS
370
-3
390
F
  0
LAYER
  5
202
100
AcDbSymbolTableRecord
100
AcDbLayerTableRecord
  2
COSMETIC
 70
0
 62
7
  6
CONTINUOUS
370
-3
390
F
  0
LAYER
  5
203
100
AcDbSymbolTableRecord
100
AcDbLayerTableRecord
  2
COSMETICHE
 70
0
 62
7
  6
CONTINUOUS
370
-3
390
F
  0
LAYER
  5
204
100
AcDbSymbolTableRecord
100
AcDbLayerTableRecord
  2
COSMETICI
 70
0
 62
7
  6
CONTINUOUS
370
-3
390
F
  0
LAYER
  5
205
100
AcDbSymbolTableRecord
100
AcDbLayerTableRecord
  2
CURVE
 70
0
 62
7
  6
CONTINUOUS
370
-3
390
F
  0
LAYER
  5
206
100
AcDbSymbolTableRecord
100
AcDbLayerTableRecord
  2
DRAFT
 70
0
 62
7
  6
CONTINUOUS
370
-3
390
F
  0
LAYER
  5
207
100
AcDbSymbolTableRecord
100
AcDbLayerTableRecord
  2
IMPORT_IGES
 70
0
 62
7
  6
CONTINUOUS
370
-3
390
F
  0
LAYER
  5
208
100
AcDbSymbolTableRecord
100
AcDbLayerTableRecord
  2
INTF_1
 70
0
 62
7
  6
CONTINUOUS
370
-3
390
F
  0
LAYER
  5
209
100
AcDbSymbolTableRecord
100
AcDbLayerTableRecord
  2
NOTE
 70
0
 62
7
  6
CONTINUOUS
370
-3
390
F
  0
LAYER
  5
20A
100
AcDbSymbolTableRecord
100
AcDbLayerTableRecord
  2
PIANI
 70
0
 62
7
  6
CONTINUOUS
370
-3
390
F
  0
LAYER
  5
20B
100
AcDbSymbolTableRecord
100
AcDbLayerTableRecord
  2
PIANI_ORIGINE
 70
0
 62
7
  6
CONTINUOUS
370
-3
390
F
  0
LAYER
  5
20C
100
AcDbSymbolTableRecord
100
AcDbLayerTableRecord
  2
PIANI_RIFERIMENTO
 70
0
 62
7
  6
CONTINUOUS
370
-3
390
F
  0
LAYER
  5
20D
100
AcDbSymbolTableRecord
100
AcDbLayerTableRecord
  2
PIANI_SFORMI
 70
0
 62
7
  6
CONTINUOUS
370
-3
390
F
  0
LAYER
  5
20E
100
AcDbSymbolTableRecord
100
AcDbLayerTableRecord
  2
PUNTI
 70
0
 62
7
  6
CONTINUOUS
370
-3
390
F
  0
LAYER
  5
20F
100
AcDbSymbolTableRecord
100
AcDbLayerTableRecord
  2
RACCORDO
 70
0
 62
7
  6
CONTINUOUS
370
-3
390
F
  0
LAYER
  5
210
100
AcDbSymbolTableRecord
100
AcDbLayerTableRecord
  2
RGB____0____0____0__
 70
0
 62
7
  6
CONTINUOUS
370
-3
390
F
  0
LAYER
  5
211
100
AcDbSymbolTableRecord
100
AcDbLayerTableRecord
  2
SIMBOLI
 70
0
 62
7
  6
CONTINUOUS
370
-3
390
F
  0
LAYER
  5
212
100
AcDbSymbolTableRecord
100
AcDbLayerTableRecord
  2
SMUSSO
 70
0
 62
7
  6
CONTINUOUS
370
-3
390
F
  0
LAYER
  5
213
100
AcDbSymbolTableRecord
100
AcDbLayerTableRecord
  2
SNAPLINE
 70
0
 62
7
  6
CONTINUOUS
370
-3
390
F
  0
LAYER
  5
214
100
AcDbSymbolTableRecord
100
AcDbLayerTableRecord
  2
SUPERFICI
 70
0
 62
7
  6
CONTINUOUS
370
-3
390
F
  0
LAYER
  5
215
100
AcDbSymbolTableRecord
100
AcDbLayerTableRecord
  2
TRASH
 70
0
 62
7
  6
CONTINUOUS
370
-3
390
F
  0
LAYER
  5
216
100
AcDbSymbolTableRecord
100
AcDbLayerTableRecord
  2
XSEC_DATUMS
 70
0
 62
7
  6
CONTINUOUS
370
-3
390
F
  0
ENDTAB
  0
TABLE
  2
STYLE
  5
3
100
AcDbSymbolTable
 70
1
  0
STYLE
  5
11
100
AcDbSymbolTableRecord
100
AcDbTextStyleTableRecord
  2
STANDARD
 70
0
 40
0.0
 41
0.8
 50
0.0
 71
0
 42
0.2
  3
txt
  4

  0
STYLE
  5
217
100
AcDbSymbolTableRecord
100
AcDbTextStyleTableRecord
  2
TEXTSTYLE_1
 70
0
 40
0.0
 41
0.8
 50
0.0
 71
0
 42
0.2
  3
gdt
  4

  0
ENDTAB
  0
TABLE
  2
VIEW
  5
6
100
AcDbSymbolTable
 70
0
  0
ENDTAB
  0
TABLE
  2
UCS
  5
7
100
AcDbSymbolTable
 70
0
  0
ENDTAB
  0
TABLE
  2
APPID
  5
9
100
AcDbSymbolTable
 70
1
  0
APPID
  5
218
100
AcDbSymbolTableRecord
100
AcDbRegAppTableRecord
  2
ACAD
 70
0
  0
ENDTAB
  0
TABLE
  2
BLOCK_RECORD
  5
1
100
AcDbSymbolTable
 70
0
  0
BLOCK_RECORD
  5
219
100
AcDbSymbolTableRecord
100
AcDbBlockTableRecord
  2
*Model_Space
  0
BLOCK_RECORD
  5
21A
100
AcDbSymbolTableRecord
100
AcDbBlockTableRecord
  2
*Paper_Space
  0
BLOCK_RECORD
  5
21B
100
AcDbSymbolTableRecord
100
AcDbBlockTableRecord
  2
_FILLED
  0
BLOCK_RECORD
  5
21C
100
AcDbSymbolTableRecord
100
AcDbBlockTableRecord
  2
*D0
  0
BLOCK_RECORD
  5
21D
100
AcDbSymbolTableRecord
100
AcDbBlockTableRecord
  2
*D1
  0
BLOCK_RECORD
  5
21E
100
AcDbSymbolTableRecord
100
AcDbBlockTableRecord
  2
*D2
  0
BLOCK_RECORD
  5
21F
100
AcDbSymbolTableRecord
100
AcDbBlockTableRecord
  2
*D3
  0
ENDTAB
  0
TABLE
  2
DIMSTYLE
  5
A
100
AcDbSymbolTable
 70
1
100
AcDbDimStyleTable
 71
0
  0
DIMSTYLE
105
220
100
AcDbSymbolTableRecord
100
AcDbDimStyleTableRecord
  2
STANDARD
 70
0
  3

  4

 40
1.0
 41
3.0
 42
0.0625
 43
0.38
 44
0.18
 45
0.0
 46
0.0
 47
0.01
 48
0.01
140
3.0
141
0.09
142
0.0
143
25.4
144
1.0
145
0.0
146
1.0
147
0.09
 71
1.0
 72
0.0
 73
0
 74
0
 75
0
 76
0
 77
1
 78
8
170
0
171
2
172
0
173
0
174
0
175
0
176
0
177
0
178
0
270
2
271
2
272
2
273
2
274
2
275
0
280
0
281
0
282
0
283
1
284
8
285
0
286
0
287
3
288
0
340
11
341
21B
342
21B
343
21B
344
21B
  0
DIMSTYLE
105
221
100
AcDbSymbolTableRecord
100
AcDbDimStyleTableRecord
  2
DIMSTYLE_1
 70
0
  3

  4

 40
1.0
 41
3.0
 42
0.0625
 43
0.38
 44
0.18
 45
0.0
 46
0.0
 47
0.0
 48
0.0
140
3.0
141
0.09
142
0.0
143
25.4
144
1.0
145
0.0
146
1.0
147
0.09
 71
0.0
 72
0.0
 73
0
 74
0
 75
0
 76
0
 77
1
 78
8
170
0
171
2
172
0
173
0
174
0
175
0
176
0
177
0
178
0
270
2
271
2
272
2
273
2
274
2
275
0
280
0
281
0
282
0
283
1
284
8
285
0
286
0
287
3
288
0
340
11
341
21B
342
21B
343
21B
344
21B
  0
ENDTAB
  0
ENDSEC
  0
SECTION
  2
BLOCKS
  0
BLOCK
  5
20
100
AcDbEntity
  8
0
100
AcDbBlockBegin
  2
*Model_Space
 70
0
 10
0.0
 20
0.0
 30
0.0
  3
*Model_Space
  1

  0
ENDBLK
  5
21
100
AcDbEntity
  8
0
100
AcDbBlockEnd
  0
BLOCK
  5
1C
100
AcDbEntity
  8
0
100
AcDbBlockBegin
  2
*Paper_Space
 70
0
 10
0.0
 20
0.0
 30
0.0
  3
*Paper_Space
  1

  0
ENDBLK
  5
1D
100
AcDbEntity
  8
0
100
AcDbBlockEnd
  0
BLOCK
  5
222
100
AcDbEntity
  8
0
100
AcDbBlockBegin
  2
_FILLED
 70
64
 10
0.0
 20
0.0
  3
_FILLED
  1

  0
SOLID
  5
223
100
AcDbEntity
  8
0
  6
BYBLOCK
 62
0
100
AcDbTrace
 10
0.0
 20
0.0
 11
-1.0
 21
0.3166666667
 12
-1.0
 22
-0.3166666667
 13
-1.0
 23
-0.3166666667
  0
ENDBLK
  5
224
100
AcDbEntity
  8
0
  6
BYBLOCK
 62
0
100
AcDbBlockEnd
  0
BLOCK
  5
225
100
AcDbEntity
  8
0
100
AcDbBlockBegin
 62
7
  6
CONTINUOUS
  2
*D0
 70
65
 10
0.0
 20
0.0
  3
*D0
  1

  0
MTEXT
  5
226
100
AcDbEntity
  8
0
100
AcDbMText
 62
7
  6
CONTINUOUS
  7
STANDARD
 71
2
 72
1
 10
-3.285
 20
39.4226312919
 30
0.0
 11
1.0
 21
0.0
 31
0.0
 44
0.9
  1
44,8
 40
3.0
 41
8.7857142857
  0
LINE
  5
227
100
AcDbEntity
  8
0
100
AcDbLine
 62
7
  6
CONTINUOUS
 10
19.115
 20
21.9001523048
 11
19.115
 21
37.1726312919
  0
LINE
  5
228
100
AcDbEntity
  8
0
100
AcDbLine
 62
7
  6
CONTINUOUS
 10
-25.685
 20
21.9001523048
 11
-25.685
 21
37.1726312919
  0
LINE
  5
229
100
AcDbEntity
  8
0
100
AcDbLine
 62
7
  6
CONTINUOUS
 10
19.115
 20
35.6726312919
 11
-3.285
 21
35.6726312919
  0
LINE
  5
22A
100
AcDbEntity
  8
0
100
AcDbLine
 62
7
  6
CONTINUOUS
 10
-25.685
 20
35.6726312919
 11
-3.285
 21
35.6726312919
  0
INSERT
  5
22B
100
AcDbEntity
  8
0
100
AcDbBlockReference
 62
7
  6
CONTINUOUS
  2
_FILLED
 10
19.115
 20
35.6726312919
 41
3.0
 42
3.0
 43
3.0
 50
360.0
  0
INSERT
  5
22C
100
AcDbEntity
  8
0
100
AcDbBlockReference
 62
7
  6
CONTINUOUS
  2
_FILLED
 10
-25.685
 20
35.6726312919
 41
3.0
 42
3.0
 43
3.0
 50
180.0
  0
ENDBLK
  5
22D
100
AcDbEntity
  8
0
  6
BYBLOCK
 62
0
100
AcDbBlockEnd
  0
BLOCK
  5
22E
100
AcDbEntity
  8
0
100
AcDbBlockBegin
 62
7
  6
CONTINUOUS
  2
*D1
 70
65
 10
0.0
 20
0.0
  3
*D1
  1

  0
MTEXT
  5
22F
100
AcDbEntity
  8
0
100
AcDbMText
 62
7
  6
CONTINUOUS
  7
STANDARD
 71
2
 72
1
 10
29.935
 20
-0.0
 30
0.0
 11
0.0
 21
1.0
 31
0.0
 44
0.9
  1
49
 40
3.0
 41
4.7142857143
  0
LINE
  5
230
100
AcDbEntity
  8
0
100
AcDbLine
 62
7
  6
CONTINUOUS
 10
15.9649965731
 20
24.5
 11
35.185
 21
24.5
  0
LINE
  5
231
100
AcDbEntity
  8
0
100
AcDbLine
 62
7
  6
CONTINUOUS
 10
15.9649965731
 20
-24.5
 11
35.185
 21
-24.5
  0
LINE
  5
232
100
AcDbEntity
  8
0
100
AcDbLine
 62
7
  6
CONTINUOUS
 10
33.685
 20
24.5
 11
33.685
 21
-0.0
  0
LINE
  5
233
100
AcDbEntity
  8
0
100
AcDbLine
 62
7
  6
CONTINUOUS
 10
33.685
 20
-24.5
 11
33.685
 21
-0.0
  0
INSERT
  5
234
100
AcDbEntity
  8
0
100
AcDbBlockReference
 62
7
  6
CONTINUOUS
  2
_FILLED
 10
33.685
 20
24.5
 41
3.0
 42
3.0
 43
3.0
 50
90.0
  0
INSERT
  5
235
100
AcDbEntity
  8
0
100
AcDbBlockReference
 62
7
  6
CONTINUOUS
  2
_FILLED
 10
33.685
 20
-24.5
 41
3.0
 42
3.0
 43
3.0
 50
270.0
  0
ENDBLK
  5
236
100
AcDbEntity
  8
0
  6
BYBLOCK
 62
0
100
AcDbBlockEnd
  0
BLOCK
  5
237
100
AcDbEntity
  8
0
100
AcDbBlockBegin
 62
7
  6
CONTINUOUS
  2
*D2
 70
65
 10
0.0
 20
0.0
  3
*D2
  1

  0
MTEXT
  5
238
100
AcDbEntity
  8
0
100
AcDbMText
 62
7
  6
CONTINUOUS
  7
STANDARD
 71
2
 72
1
 10
-54.5893758836
 20
39.1064899197
 30
0.0
 11
1.0
 21
0.0
 31
0.0
 44
0.9
  1
22,1
 40
3.0
 41
8.1428571429
  0
LINE
  5
239
100
AcDbEntity
  8
0
100
AcDbLine
 62
7
  6
CONTINUOUS
 10
-65.6393758836
 20
21.9001523048
 11
-65.6393758836
 21
36.8564899197
  0
LINE
  5
23A
100
AcDbEntity
  8
0
100
AcDbLine
 62
7
  6
CONTINUOUS
 10
-43.5393758836
 20
10.7
 11
-43.5393758836
 21
36.8564899197
  0
LINE
  5
23B
100
AcDbEntity
  8
0
100
AcDbLine
 62
7
  6
CONTINUOUS
 10
-65.6393758836
 20
35.3564899197
 11
-54.5893758836
 21
35.3564899197
  0
LINE
  5
23C
100
AcDbEntity
  8
0
100
AcDbLine
 62
7
  6
CONTINUOUS
 10
-43.5393758836
 20
35.3564899197
 11
-54.5893758836
 21
35.3564899197
  0
INSERT
  5
23D
100
AcDbEntity
  8
0
100
AcDbBlockReference
 62
7
  6
CONTINUOUS
  2
_FILLED
 10
-65.6393758836
 20
35.3564899197
 41
3.0
 42
3.0
 43
3.0
 50
180.0
  0
INSERT
  5
23E
100
AcDbEntity
  8
0
100
AcDbBlockReference
 62
7
  6
CONTINUOUS
  2
_FILLED
 10
-43.5393758836
 20
35.3564899197
 41
3.0
 42
3.0
 43
3.0
  0
ENDBLK
  5
23F
100
AcDbEntity
  8
0
  6
BYBLOCK
 62
0
100
AcDbBlockEnd
  0
BLOCK
  5
240
100
AcDbEntity
  8
0
100
AcDbBlockBegin
 62
7
  6
CONTINUOUS
  2
*D3
 70
65
 10
0.0
 20
0.0
  3
*D3
  1

  0
MTEXT
  5
241
100
AcDbEntity
  8
0
100
AcDbMText
 62
7
  6
CONTINUOUS
  7
STANDARD
 71
2
 72
1
 10
-66.5893758832
 20
49.1064899197
 30
0.0
 11
1.0
 21
0.0
 31
0.0
 44
0.9
  1
46,1
 40
3.0
 41
8.1428571429
  0
LINE
  5
242
100
AcDbEntity
  8
0
100
AcDbLine
 62
7
  6
CONTINUOUS
 10
-43.5393758836
 20
12.5
 11
-43.5393758836
 21
46.8564899197
  0
LINE
  5
243
100
AcDbEntity
  8
0
100
AcDbLine
 62
7
  6
CONTINUOUS
 10
-89.6393758828
 20
0.5
 11
-89.6393758828
 21
46.8564899197
  0
LINE
  5
244
100
AcDbEntity
  8
0
100
AcDbLine
 62
7
  6
CONTINUOUS
 10
-43.5393758836
 20
45.3564899197
 11
-66.5893758832
 21
45.3564899197
  0
LINE
  5
245
100
AcDbEntity
  8
0
100
AcDbLine
 62
7
  6
CONTINUOUS
 10
-89.6393758828
 20
45.3564899197
 11
-66.5893758832
 21
45.3564899197
  0
INSERT
  5
246
100
AcDbEntity
  8
0
100
AcDbBlockReference
 62
7
  6
CONTINUOUS
  2
_FILLED
 10
-43.5393758836
 20
45.3564899197
 41
3.0
 42
3.0
 43
3.0
  0
INSERT
  5
247
100
AcDbEntity
  8
0
100
AcDbBlockReference
 62
7
  6
CONTINUOUS
  2
_FILLED
 10
-89.6393758828
 20
45.3564899197
 41
3.0
 42
3.0
 43
3.0
 50
180.0
  0
ENDBLK
  5
248
100
AcDbEntity
  8
0
  6
BYBLOCK
 62
0
100
AcDbBlockEnd
  0
ENDSEC
  0
SECTION
  2
ENTITIES
  0
DIMENSION
  5
249
100
AcDbEntity
  8
0
100
AcDbDimension
 62
7
  6
CONTINUOUS
  2
*D0
 10
-25.685
 20
35.6726312919
 11
-7.6778571429
 21
37.9226312919
 70
160
 71
2
 42
44.8
  3
DIMSTYLE_1
100
AcDbAlignedDimension
 13
19.115
 23
21.9001523048
 14
-25.685
 24
21.9001523048
 50
180.0
100
AcDbRotatedDimension
  0
DIMENSION
  5
24A
100
AcDbEntity
  8
0
100
AcDbDimension
 62
7
  6
CONTINUOUS
  2
*D1
 10
33.685
 20
-24.5
 11
32.4911735237
 21
-2.1072778499
 70
160
 71
2
 42
49.0
  3
DIMSTYLE_1
100
AcDbAlignedDimension
 13
15.9649965731
 23
24.5
 14
15.9649965731
 24
-24.5
 50
270.0
100
AcDbRotatedDimension
  0
DIMENSION
  5
24B
100
AcDbEntity
  8
0
100
AcDbDimension
 62
7
  6
CONTINUOUS
  2
*D2
 10
-43.5393758836
 20
35.3564899197
 11
-58.660804455
 21
37.6064899197
 70
160
 71
2
 42
22.1
  3
DIMSTYLE_1
100
AcDbAlignedDimension
 13
-65.6393758836
 23
21.9001523048
 14
-43.5393758836
 24
10.7
100
AcDbRotatedDimension
  0
DIMENSION
  5
24C
100
AcDbEntity
  8
0
100
AcDbDimension
 62
7
  6
CONTINUOUS
  2
*D3
 10
-89.6393758828
 20
45.3564899197
 11
-70.6608044546
 21
47.6064899197
 70
160
 71
2
 42
46.0999999992
  3
DIMSTYLE_1
100
AcDbAlignedDimension
 13
-43.5393758836
 23
12.5
 14
-89.6393758828
 24
0.5
 50
180.0
100
AcDbRotatedDimension
  0
LINE
  5
24D
100
AcDbEntity
  8
RACCORDO
100
AcDbLine
 62
253
  6
CONTINUOUS
 10
-22.0520205427
 20
24.4829760304
 11
-22.0349965731
 21
24.5
  0
LINE
  5
24E
100
AcDbEntity
  8
RACCORDO
100
AcDbLine
 62
253
  6
CONTINUOUS
 10
-21.8020239696
 20
24.2329794573
 11
-21.785
 21
24.2500034269
  0
LINE
  5
24F
100
AcDbEntity
  8
RACCORDO
100
AcDbLine
 62
253
  6
CONTINUOUS
 10
-22.0520205427
 20
-24.4829760304
 11
-22.0349965731
 21
-24.5
  0
LINE
  5
250
100
AcDbEntity
  8
RACCORDO
100
AcDbLine
 62
253
  6
CONTINUOUS
 10
-21.8020239696
 20
-24.2329794573
 11
-21.785
 21
-24.2500034269
  0
LINE
  5
251
100
AcDbEntity
  8
DRAFT
100
AcDbLine
 62
7
  6
CONTINUOUS
 10
-25.635
 20
-21.6
 11
-25.6524550649
 21
-21.0226497308
  0
LINE
  5
252
100
AcDbEntity
  8
DRAFT
100
AcDbLine
 62
7
  6
CONTINUOUS
 10
-25.6524550649
 20
21.0226497308
 11
-25.635
 21
21.6
  0
LINE
  5
253
100
AcDbEntity
  8
RACCORDO
100
AcDbLine
 62
253
  6
CONTINUOUS
 10
-15.7350853401
 20
-24.0
 11
-15.7805189092
 21
-23.9931876706
  0
LINE
  5
254
100
AcDbEntity
  8
RACCORDO
100
AcDbLine
 62
253
  6
CONTINUOUS
 10
-15.535
 20
-23.8000338054
 11
-15.5806407438
 21
-23.7931904121
  0
LINE
  5
255
100
AcDbEntity
  8
RACCORDO
100
AcDbLine
 62
253
  6
CONTINUOUS
 10
-24.6679760304
 20
-23.8943375673
 11
-24.673212066
 21
-23.3169872981
  0
LINE
  5
256
100
AcDbEntity
  8
RACCORDO
100
AcDbLine
 62
253
  6
CONTINUOUS
 10
-24.4179794573
 20
-23.6778312164
 11
-24.4225609885
 21
-23.1726497308
  0
LINE
  5
257
100
AcDbEntity
  8
DRAFT
100
AcDbLine
 62
7
  6
CONTINUOUS
 10
-24.6797639644
 20
23.1726497308
 11
-24.685
 21
23.75
  0
LINE
  5
258
100
AcDbEntity
  8
DRAFT
100
AcDbLine
 62
7
  6
CONTINUOUS
 10
-21.785
 20
-23.75
 11
-21.7902360356
 21
-23.1726497308
  0
LINE
  5
259
100
AcDbEntity
  8
RACCORDO
100
AcDbLine
 62
7
  6
CONTINUOUS
 10
-25.685
 20
21.4001523048
 11
-25.685
 21
-21.4001523048
  0
LINE
  5
25A
100
AcDbEntity
  8
ASSI
100
AcDbLine
 62
7
  6
CONTINUOUS
 10
-25.685
 20
21.4001523048
 11
-25.685
 21
-21.4001523048
  0
LINE
  5
25B
100
AcDbEntity
  8
DRAFT
100
AcDbLine
 62
7
  6
CONTINUOUS
 10
-25.6524550649
 20
-21.0226497308
 11
-25.6524550649
 21
21.0226497308
  0
LINE
  5
25C
100
AcDbEntity
  8
RACCORDO
100
AcDbLine
 62
7
  6
CONTINUOUS
 10
-25.635
 20
21.8495424962
 11
-25.635
 21
21.6
  0
LINE
  5
25D
100
AcDbEntity
  8
RACCORDO
100
AcDbLine
 62
7
  6
CONTINUOUS
 10
-25.635
 20
-21.8495424962
 11
-25.635
 21
-21.6
  0
LINE
  5
25E
100
AcDbEntity
  8
RACCORDO
100
AcDbLine
 62
253
  6
CONTINUOUS
 10
-24.9968572029
 20
-9.5
 11
-24.9968572029
 21
9.5
  0
LINE
  5
25F
100
AcDbEntity
  8
RACCORDO
100
AcDbLine
 62
7
  6
CONTINUOUS
 10
-24.685
 20
24.2500034269
 11
-24.685
 21
23.75
  0
LINE
  5
260
100
AcDbEntity
  8
RACCORDO
100
AcDbLine
 62
7
  6
CONTINUOUS
 10
-24.685
 20
-23.75
 11
-24.685
 21
-24.2500034269
  0
LINE
  5
261
100
AcDbEntity
  8
DRAFT
100
AcDbLine
 62
7
  6
CONTINUOUS
 10
-24.6797639644
 20
-23.1726497308
 11
-24.6797639644
 21
-22.35
  0
LINE
  5
262
100
AcDbEntity
  8
DRAFT
100
AcDbLine
 62
7
  6
CONTINUOUS
 10
-24.6797639644
 20
22.35
 11
-24.6797639644
 21
23.1726497308
  0
LINE
  5
263
100
AcDbEntity
  8
RACCORDO
100
AcDbLine
 62
7
  6
CONTINUOUS
 10
-24.673212066
 20
23.3169872981
 11
-24.673212066
 21
22.2844216746
  0
LINE
  5
264
100
AcDbEntity
  8
RACCORDO
100
AcDbLine
 62
7
  6
CONTINUOUS
 10
-24.673212066
 20
-22.2844216746
 11
-24.673212066
 21
-23.3169872981
  0
LINE
  5
265
100
AcDbEntity
  8
RACCORDO
100
AcDbLine
 62
7
  6
CONTINUOUS
 10
-24.6679760304
 20
24.2329794573
 11
-24.6679760304
 21
23.8943375673
  0
LINE
  5
266
100
AcDbEntity
  8
RACCORDO
100
AcDbLine
 62
7
  6
CONTINUOUS
 10
-24.6679760304
 20
-23.8943375673
 11
-24.6679760304
 21
-24.2329794573
  0
LINE
  5
267
100
AcDbEntity
  8
RACCORDO
100
AcDbLine
 62
253
  6
CONTINUOUS
 10
-24.4232154929
 20
23.1726497308
 11
-24.4232154929
 21
22.2713883311
  0
LINE
  5
268
100
AcDbEntity
  8
RACCORDO
100
AcDbLine
 62
253
  6
CONTINUOUS
 10
-24.4232154929
 20
-22.2713883311
 11
-24.4232154929
 21
-23.1726497308
  0
LINE
  5
269
100
AcDbEntity
  8
RACCORDO
100
AcDbLine
 62
253
  6
CONTINUOUS
 10
-24.4179794573
 20
-23.6778312164
 11
-24.4179794573
 21
-24.4829760304
  0
LINE
  5
26A
100
AcDbEntity
  8
RACCORDO
100
AcDbLine
 62
253
  6
CONTINUOUS
 10
-24.4179794573
 20
23.6778312164
 11
-24.4179794573
 21
24.4829760304
  0
LINE
  5
26B
100
AcDbEntity
  8
RACCORDO
100
AcDbLine
 62
253
  6
CONTINUOUS
 10
-22.0520205427
 20
-23.6778312164
 11
-22.0520205427
 21
-24.4829760304
  0
LINE
  5
26C
100
AcDbEntity
  8
RACCORDO
100
AcDbLine
 62
253
  6
CONTINUOUS
 10
-22.0520205427
 20
23.6778312164
 11
-22.0520205427
 21
24.4829760304
  0
LINE
  5
26D
100
AcDbEntity
  8
RACCORDO
100
AcDbLine
 62
253
  6
CONTINUOUS
 10
-22.0467845071
 20
-23.1726497308
 11
-22.0467845071
 21
-22.2713883311
  0
LINE
  5
26E
100
AcDbEntity
  8
RACCORDO
100
AcDbLine
 62
253
  6
CONTINUOUS
 10
-22.0467845071
 20
22.2713883311
 11
-22.0467845071
 21
23.1726497308
  0
LINE
  5
26F
100
AcDbEntity
  8
RACCORDO
100
AcDbLine
 62
253
  6
CONTINUOUS
 10
-24.673212066
 20
23.3169872981
 11
-24.6679760304
 21
23.8943375673
  0
LINE
  5
270
100
AcDbEntity
  8
RACCORDO
100
AcDbLine
 62
253
  6
CONTINUOUS
 10
-24.4225609885
 20
23.1726497308
 11
-24.4179794573
 21
23.6778312164
  0
LINE
  5
271
100
AcDbEntity
  8
DRAFT
100
AcDbLine
 62
7
  6
CONTINUOUS
 10
-24.685
 20
-23.75
 11
-24.6797639644
 21
-23.1726497308
  0
LINE
  5
272
100
AcDbEntity
  8
DRAFT
100
AcDbLine
 62
7
  6
CONTINUOUS
 10
-21.7902360356
 20
23.1726497308
 11
-21.785
 21
23.75
  0
LINE
  5
273
100
AcDbEntity
  8
RACCORDO
100
AcDbLine
 62
7
  6
CONTINUOUS
 10
-15.5806407438
 20
22.3339118652
 11
-15.535
 21
22.4024077793
  0
LINE
  5
274
100
AcDbEntity
  8
DRAFT
100
AcDbLine
 62
7
  6
CONTINUOUS
 10
-10.098090089
 20
23.986909911
 11
-10.085
 21
24.0
  0
LINE
  5
275
100
AcDbEntity
  8
RACCORDO
100
AcDbLine
 62
253
  6
CONTINUOUS
 10
9.2105189092
 20
-23.9931876706
 11
9.1650853401
 21
-24.0
  0
LINE
  5
276
100
AcDbEntity
  8
RACCORDO
100
AcDbLine
 62
253
  6
CONTINUOUS
 10
9.0106407438
 20
-23.7931904121
 11
8.965
 21
-23.8000338054
  0
LINE
  5
277
100
AcDbEntity
  8
RACCORDO
100
AcDbLine
 62
7
  6
CONTINUOUS
 10
-24.4350034269
 20
-24.5
 11
-22.0349965731
 21
-24.5
  0
LINE
  5
278
100
AcDbEntity
  8
RACCORDO
100
AcDbLine
 62
7
  6
CONTINUOUS
 10
-7.0350034269
 20
-24.5
 11
-4.6349965731
 21
-24.5
  0
LINE
  5
279
100
AcDbEntity
  8
RACCORDO
100
AcDbLine
 62
7
  6
CONTINUOUS
 10
-1.9350034269
 20
-24.5
 11
0.4650034269
 21
-24.5
  0
LINE
  5
27A
100
AcDbEntity
  8
RACCORDO
100
AcDbLine
 62
7
  6
CONTINUOUS
 10
15.4649965731
 20
-24.5
 11
17.8650034269
 21
-24.5
  0
LINE
  5
27B
100
AcDbEntity
  8
RACCORDO
100
AcDbLine
 62
7
  6
CONTINUOUS
 10
-24.4179794573
 20
-24.4829760304
 11
-22.0520205427
 21
-24.4829760304
  0
LINE
  5
27C
100
AcDbEntity
  8
RACCORDO
100
AcDbLine
 62
7
  6
CONTINUOUS
 10
-7.0179794573
 20
-24.4829760304
 11
-4.6520205427
 21
-24.4829760304
  0
LINE
  5
27D
100
AcDbEntity
  8
RACCORDO
100
AcDbLine
 62
7
  6
CONTINUOUS
 10
-1.9179794573
 20
-24.4829760304
 11
0.4479794573
 21
-24.4829760304
  0
LINE
  5
27E
100
AcDbEntity
  8
RACCORDO
100
AcDbLine
 62
7
  6
CONTINUOUS
 10
15.4820205427
 20
-24.4829760304
 11
17.8479794573
 21
-24.4829760304
  0
LINE
  5
27F
100
AcDbEntity
  8
RACCORDO
100
AcDbLine
 62
253
  6
CONTINUOUS
 10
0.6979760304
 20
-24.2329794573
 11
-2.1679760304
 21
-24.2329794573
  0
LINE
  5
280
100
AcDbEntity
  8
RACCORDO
100
AcDbLine
 62
253
  6
CONTINUOUS
 10
-4.4020239696
 20
-24.2329794573
 11
-7.2679760304
 21
-24.2329794573
  0
LINE
  5
281
100
AcDbEntity
  8
RACCORDO
100
AcDbLine
 62
253
  6
CONTINUOUS
 10
15.2320239696
 20
-24.2329794573
 11
18.0979760304
 21
-24.2329794573
  0
LINE
  5
282
100
AcDbEntity
  8
RACCORDO
100
AcDbLine
 62
253
  6
CONTINUOUS
 10
-21.8020239696
 20
-24.2329794573
 11
-24.6679760304
 21
-24.2329794573
  0
LINE
  5
283
100
AcDbEntity
  8
RACCORDO
100
AcDbLine
 62
7
  6
CONTINUOUS
 10
12.415
 20
-24.0
 11
9.1650853401
 21
-24.0
  0
LINE
  5
284
100
AcDbEntity
  8
RACCORDO
100
AcDbLine
 62
7
  6
CONTINUOUS
 10
6.7649146599
 20
-24.0
 11
3.515
 21
-24.0
  0
LINE
  5
285
100
AcDbEntity
  8
RACCORDO
100
AcDbLine
 62
7
  6
CONTINUOUS
 10
-10.085
 20
-24.0
 11
-13.3349146599
 21
-24.0
  0
LINE
  5
286
100
AcDbEntity
  8
RACCORDO
100
AcDbLine
 62
7
  6
CONTINUOUS
 10
-15.7350853401
 20
-24.0
 11
-18.985
 21
-24.0
  0
LINE
  5
287
100
AcDbEntity
  8
RACCORDO
100
AcDbLine
 62
7
  6
CONTINUOUS
 10
-18.035
 20
-23.9931876706
 11
-15.7805189092
 21
-23.9931876706
  0
LINE
  5
288
100
AcDbEntity
  8
RACCORDO
100
AcDbLine
 62
7
  6
CONTINUOUS
 10
-13.2894810908
 20
-23.9931876706
 11
-11.035
 21
-23.9931876706
  0
LINE
  5
289
100
AcDbEntity
  8
RACCORDO
100
AcDbLine
 62
7
  6
CONTINUOUS
 10
4.465
 20
-23.9931876706
 11
6.7194810908
 21
-23.9931876706
  0
LINE
  5
28A
100
AcDbEntity
  8
RACCORDO
100
AcDbLine
 62
7
  6
CONTINUOUS
 10
9.2105189092
 20
-23.9931876706
 11
11.465
 21
-23.9931876706
  0
LINE
  5
28B
100
AcDbEntity
  8
DRAFT
100
AcDbLine
 62
7
  6
CONTINUOUS
 10
-18.971909911
 20
-23.986909911
 11
-18.035
 21
-23.986909911
  0
LINE
  5
28C
100
AcDbEntity
  8
DRAFT
100
AcDbLine
 62
7
  6
CONTINUOUS
 10
12.401909911
 20
-23.986909911
 11
11.465
 21
-23.986909911
  0
LINE
  5
28D
100
AcDbEntity
  8
DRAFT
100
AcDbLine
 62
7
  6
CONTINUOUS
 10
-11.035
 20
-23.986909911
 11
-10.098090089
 21
-23.986909911
  0
LINE
  5
28E
100
AcDbEntity
  8
DRAFT
100
AcDbLine
 62
7
  6
CONTINUOUS
 10
4.465
 20
-23.986909911
 11
3.528090089
 21
-23.986909911
  0
LINE
  5
28F
100
AcDbEntity
  8
RACCORDO
100
AcDbLine
 62
253
  6
CONTINUOUS
 10
0.6979760304
 20
-23.8943375673
 11
-2.1679760304
 21
-23.8943375673
  0
LINE
  5
290
100
AcDbEntity
  8
RACCORDO
100
AcDbLine
 62
253
  6
CONTINUOUS
 10
-4.4020239696
 20
-23.8943375673
 11
-7.2679760304
 21
-23.8943375673
  0
LINE
  5
291
100
AcDbEntity
  8
RACCORDO
100
AcDbLine
 62
253
  6
CONTINUOUS
 10
15.2320239696
 20
-23.8943375673
 11
18.0979760304
 21
-23.8943375673
  0
LINE
  5
292
100
AcDbEntity
  8
RACCORDO
100
AcDbLine
 62
253
  6
CONTINUOUS
 10
-21.8020239696
 20
-23.8943375673
 11
-24.6679760304
 21
-23.8943375673
  0
LINE
  5
293
100
AcDbEntity
  8
RACCORDO
100
AcDbLine
 62
253
  6
CONTINUOUS
 10
4.465
 20
-23.7931904121
 11
6.9193592562
 21
-23.7931904121
  0
LINE
  5
294
100
AcDbEntity
  8
RACCORDO
100
AcDbLine
 62
253
  6
CONTINUOUS
 10
9.0106407438
 20
-23.7931904121
 11
11.465
 21
-23.7931904121
  0
LINE
  5
295
100
AcDbEntity
  8
RACCORDO
100
AcDbLine
 62
253
  6
CONTINUOUS
 10
-11.035
 20
-23.7931904121
 11
-13.4893592562
 21
-23.7931904121
  0
LINE
  5
296
100
AcDbEntity
  8
RACCORDO
100
AcDbLine
 62
253
  6
CONTINUOUS
 10
-15.5806407438
 20
-23.7931904121
 11
-18.035
 21
-23.7931904121
  0
LINE
  5
297
100
AcDbEntity
  8
RACCORDO
100
AcDbLine
 62
253
  6
CONTINUOUS
 10
17.8479794573
 20
-23.6778312164
 11
15.4820205427
 21
-23.6778312164
  0
LINE
  5
298
100
AcDbEntity
  8
RACCORDO
100
AcDbLine
 62
253
  6
CONTINUOUS
 10
0.4479794573
 20
-23.6778312164
 11
-1.9179794573
 21
-23.6778312164
  0
LINE
  5
299
100
AcDbEntity
  8
RACCORDO
100
AcDbLine
 62
253
  6
CONTINUOUS
 10
-4.6520205427
 20
-23.6778312164
 11
-7.0179794573
 21
-23.6778312164
  0
LINE
  5
29A
100
AcDbEntity
  8
RACCORDO
100
AcDbLine
 62
253
  6
CONTINUOUS
 10
-22.0520205427
 20
-23.6778312164
 11
-24.4179794573
 21
-23.6778312164
  0
LINE
  5
29B
100
AcDbEntity
  8
RACCORDO
100
AcDbLine
 62
7
  6
CONTINUOUS
 10
-24.4232154929
 20
-23.1726497308
 11
-22.0467845071
 21
-23.1726497308
  0
LINE
  5
29C
100
AcDbEntity
  8
DRAFT
100
AcDbLine
 62
7
  6
CONTINUOUS
 10
-18.9902360356
 20
-23.1726497308
 11
-18.9797639644
 21
-23.1726497308
  0
LINE
  5
29D
100
AcDbEntity
  8
RACCORDO
100
AcDbLine
 62
7
  6
CONTINUOUS
 10
17.8532154929
 20
-23.1726497308
 11
15.4767845071
 21
-23.1726497308
  0
LINE
  5
29E
100
AcDbEntity
  8
DRAFT
100
AcDbLine
 62
7
  6
CONTINUOUS
 10
12.4202360356
 20
-23.1726497308
 11
12.4097639644
 21
-23.1726497308
  0
LINE
  5
29F
100
AcDbEntity
  8
RACCORDO
100
AcDbLine
 62
7
  6
CONTINUOUS
 10
-1.9232154929
 20
-23.1726497308
 11
0.4532154929
 21
-23.1726497308
  0
LINE
  5
2A0
100
AcDbEntity
  8
DRAFT
100
AcDbLine
 62
7
  6
CONTINUOUS
 10
3.5097639644
 20
-23.1726497308
 11
3.5202360356
 21
-23.1726497308
  0
LINE
  5
2A1
100
AcDbEntity
  8
RACCORDO
100
AcDbLine
 62
7
  6
CONTINUOUS
 10
-4.6467845071
 20
-23.1726497308
 11
-7.0232154929
 21
-23.1726497308
  0
LINE
  5
2A2
100
AcDbEntity
  8
DRAFT
100
AcDbLine
 62
7
  6
CONTINUOUS
 10
-10.0797639644
 20
-23.1726497308
 11
-10.0902360356
 21
-23.1726497308
  0
LINE
  5
2A3
100
AcDbEntity
  8
DRAFT
100
AcDbLine
 62
7
  6
CONTINUOUS
 10
-15.535
 20
-22.4024077793
 11
-13.535
 21
-22.4024077793
  0
LINE
  5
2A4
100
AcDbEntity
  8
DRAFT
100
AcDbLine
 62
7
  6
CONTINUOUS
 10
6.965
 20
-22.4024077793
 11
8.965
 21
-22.4024077793
  0
LINE
  5
2A5
100
AcDbEntity
  8
RACCORDO
100
AcDbLine
 62
7
  6
CONTINUOUS
 10
-24.6851523048
 20
-22.4
 11
-24.6797639644
 21
-22.4
  0
LINE
  5
2A6
100
AcDbEntity
  8
ASSI
100
AcDbLine
 62
7
  6
CONTINUOUS
 10
-24.6851523048
 20
-22.4
 11
-24.6797639644
 21
-22.4
  0
LINE
  5
2A7
100
AcDbEntity
  8
RACCORDO
100
AcDbLine
 62
7
  6
CONTINUOUS
 10
-21.7902360356
 20
-22.4
 11
-18.9902360356
 21
-22.4
  0
LINE
  5
2A8
100
AcDbEntity
  8
ASSI
100
AcDbLine
 62
7
  6
CONTINUOUS
 10
-21.7902360356
 20
-22.4
 11
-18.9902360356
 21
-22.4
  0
LINE
  5
2A9
100
AcDbEntity
  8
DRAFT
100
AcDbLine
 62
7
  6
CONTINUOUS
 10
-10.0797639644
 20
-22.4
 11
-7.2797639644
 21
-22.4
  0
LINE
  5
2AA
100
AcDbEntity
  8
ASSI
100
AcDbLine
 62
7
  6
CONTINUOUS
 10
-10.0797639644
 20
-22.4
 11
-7.2797639644
 21
-22.4
  0
LINE
  5
2AB
100
AcDbEntity
  8
DRAFT
100
AcDbLine
 62
7
  6
CONTINUOUS
 10
-4.3902360356
 20
-22.4
 11
-2.1797639644
 21
-22.4
  0
LINE
  5
2AC
100
AcDbEntity
  8
ASSI
100
AcDbLine
 62
7
  6
CONTINUOUS
 10
-4.3902360356
 20
-22.4
 11
-2.1797639644
 21
-22.4
  0
LINE
  5
2AD
100
AcDbEntity
  8
DRAFT
100
AcDbLine
 62
7
  6
CONTINUOUS
 10
0.7097639644
 20
-22.4
 11
3.5097639644
 21
-22.4
  0
LINE
  5
2AE
100
AcDbEntity
  8
ASSI
100
AcDbLine
 62
7
  6
CONTINUOUS
 10
0.7097639644
 20
-22.4
 11
3.5097639644
 21
-22.4
  0
LINE
  5
2AF
100
AcDbEntity
  8
RACCORDO
100
AcDbLine
 62
7
  6
CONTINUOUS
 10
12.4202360356
 20
-22.4
 11
15.2202360356
 21
-22.4
  0
LINE
  5
2B0
100
AcDbEntity
  8
ASSI
100
AcDbLine
 62
7
  6
CONTINUOUS
 10
12.4202360356
 20
-22.4
 11
15.2202360356
 21
-22.4
  0
LINE
  5
2B1
100
AcDbEntity
  8
RACCORDO
100
AcDbLine
 62
7
  6
CONTINUOUS
 10
18.1097639644
 20
-22.4
 11
18.1151523048
 21
-22.4
  0
LINE
  5
2B2
100
AcDbEntity
  8
ASSI
100
AcDbLine
 62
7
  6
CONTINUOUS
 10
18.1097639644
 20
-22.4
 11
18.1151523048
 21
-22.4
  0
LINE
  5
2B3
100
AcDbEntity
  8
RACCORDO
100
AcDbLine
 62
7
  6
CONTINUOUS
 10
18.5652093253
 20
-22.35
 11
18.1097639644
 21
-22.35
  0
LINE
  5
2B4
100
AcDbEntity
  8
DRAFT
100
AcDbLine
 62
7
  6
CONTINUOUS
 10
15.2202360356
 20
-22.35
 11
12.4097639644
 21
-22.35
  0
LINE
  5
2B5
100
AcDbEntity
  8
DRAFT
100
AcDbLine
 62
7
  6
CONTINUOUS
 10
0.7097639644
 20
-22.35
 11
3.5202360356
 21
-22.35
  0
LINE
  5
2B6
100
AcDbEntity
  8
DRAFT
100
AcDbLine
 62
7
  6
CONTINUOUS
 10
-2.1797639644
 20
-22.35
 11
-4.3902360356
 21
-22.35
  0
LINE
  5
2B7
100
AcDbEntity
  8
DRAFT
100
AcDbLine
 62
7
  6
CONTINUOUS
 10
-7.2797639644
 20
-22.35
 11
-10.0902360356
 21
-22.35
  0
LINE
  5
2B8
100
AcDbEntity
  8
DRAFT
100
AcDbLine
 62
7
  6
CONTINUOUS
 10
-18.9797639644
 20
-22.35
 11
-21.7902360356
 21
-22.35
  0
LINE
  5
2B9
100
AcDbEntity
  8
RACCORDO
100
AcDbLine
 62
7
  6
CONTINUOUS
 10
-24.6797639644
 20
-22.35
 11
-25.1352093253
 21
-22.35
  0
LINE
  5
2BA
100
AcDbEntity
  8
RACCORDO
100
AcDbLine
 62
7
  6
CONTINUOUS
 10
-18.035
 20
-22.3237961104
 11
-15.7805189092
 21
-22.3237961104
  0
LINE
  5
2BB
100
AcDbEntity
  8
RACCORDO
100
AcDbLine
 62
7
  6
CONTINUOUS
 10
-13.2894810908
 20
-22.3237961104
 11
-11.035
 21
-22.3237961104
  0
LINE
  5
2BC
100
AcDbEntity
  8
RACCORDO
100
AcDbLine
 62
7
  6
CONTINUOUS
 10
4.465
 20
-22.3237961104
 11
6.7194810908
 21
-22.3237961104
  0
LINE
  5
2BD
100
AcDbEntity
  8
RACCORDO
100
AcDbLine
 62
7
  6
CONTINUOUS
 10
9.2105189092
 20
-22.3237961104
 11
11.465
 21
-22.3237961104
  0
LINE
  5
2BE
100
AcDbEntity
  8
RACCORDO
100
AcDbLine
 62
7
  6
CONTINUOUS
 10
-24.4232154929
 20
-22.2713883311
 11
-22.0467845071
 21
-22.2713883311
  0
LINE
  5
2BF
100
AcDbEntity
  8
RACCORDO
100
AcDbLine
 62
7
  6
CONTINUOUS
 10
17.8532154929
 20
-22.2713883311
 11
15.4767845071
 21
-22.2713883311
  0
LINE
  5
2C0
100
AcDbEntity
  8
DRAFT
100
AcDbLine
 62
7
  6
CONTINUOUS
 10
12.401909911
 20
-22.2713883311
 11
11.465
 21
-22.2713883311
  0
LINE
  5
2C1
100
AcDbEntity
  8
RACCORDO
100
AcDbLine
 62
7
  6
CONTINUOUS
 10
-7.0232154929
 20
-22.2713883311
 11
-4.6467845071
 21
-22.2713883311
  0
LINE
  5
2C2
100
AcDbEntity
  8
DRAFT
100
AcDbLine
 62
7
  6
CONTINUOUS
 10
4.465
 20
-22.2713883311
 11
3.528090089
 21
-22.2713883311
  0
LINE
  5
2C3
100
AcDbEntity
  8
RACCORDO
100
AcDbLine
 62
7
  6
CONTINUOUS
 10
0.4532154929
 20
-22.2713883311
 11
-1.9232154929
 21
-22.2713883311
  0
LINE
  5
2C4
100
AcDbEntity
  8
DRAFT
100
AcDbLine
 62
7
  6
CONTINUOUS
 10
-10.098090089
 20
-22.2713883311
 11
-11.035
 21
-22.2713883311
  0
LINE
  5
2C5
100
AcDbEntity
  8
DRAFT
100
AcDbLine
 62
7
  6
CONTINUOUS
 10
-18.035
 20
-22.2713883311
 11
-18.971909911
 21
-22.2713883311
  0
LINE
  5
2C6
100
AcDbEntity
  8
RACCORDO
100
AcDbLine
 62
253
  6
CONTINUOUS
 10
18.4520828712
 20
-22.0098304059
 11
-25.0220828712
 21
-22.0098304059
  0
LINE
  5
2C7
100
AcDbEntity
  8
RACCORDO
100
AcDbLine
 62
253
  6
CONTINUOUS
 10
6.7649146599
 20
-24.0
 11
6.7194810908
 21
-23.9931876706
  0
LINE
  5
2C8
100
AcDbEntity
  8
RACCORDO
100
AcDbLine
 62
253
  6
CONTINUOUS
 10
6.965
 20
-23.8000338054
 11
6.9193592562
 21
-23.7931904121
  0
LINE
  5
2C9
100
AcDbEntity
  8
DRAFT
100
AcDbLine
 62
7
  6
CONTINUOUS
 10
-10.085
 20
-24.0
 11
-10.098090089
 21
-23.986909911
  0
LINE
  5
2CA
100
AcDbEntity
  8
RACCORDO
100
AcDbLine
 62
7
  6
CONTINUOUS
 10
-15.535
 20
-22.4024077793
 11
-15.5806407438
 21
-22.3339118652
  0
LINE
  5
2CB
100
AcDbEntity
  8
RACCORDO
100
AcDbLine
 62
253
  6
CONTINUOUS
 10
-22.0520205427
 20
23.6778312164
 11
-22.0474390115
 21
23.1726497308
  0
LINE
  5
2CC
100
AcDbEntity
  8
RACCORDO
100
AcDbLine
 62
253
  6
CONTINUOUS
 10
-21.8020239696
 20
23.8943375673
 11
-21.796787934
 21
23.3169872981
  0
LINE
  5
2CD
100
AcDbEntity
  8
DRAFT
100
AcDbLine
 62
7
  6
CONTINUOUS
 10
-18.9902360356
 20
-23.1726497308
 11
-18.985
 21
-23.74996875
  0
LINE
  5
2CE
100
AcDbEntity
  8
DRAFT
100
AcDbLine
 62
7
  6
CONTINUOUS
 10
-18.985
 20
23.74996875
 11
-18.9797639644
 21
23.1726497308
  0
LINE
  5
2CF
100
AcDbEntity
  8
RACCORDO
100
AcDbLine
 62
7
  6
CONTINUOUS
 10
-21.8020239696
 20
-24.2329794573
 11
-21.8020239696
 21
-23.8943375673
  0
LINE
  5
2D0
100
AcDbEntity
  8
RACCORDO
100
AcDbLine
 62
7
  6
CONTINUOUS
 10
-21.8020239696
 20
23.8943375673
 11
-21.8020239696
 21
24.2329794573
  0
LINE
  5
2D1
100
AcDbEntity
  8
RACCORDO
100
AcDbLine
 62
7
  6
CONTINUOUS
 10
-21.796787934
 20
-23.3169872981
 11
-21.796787934
 21
-22.2844216746
  0
LINE
  5
2D2
100
AcDbEntity
  8
RACCORDO
100
AcDbLine
 62
7
  6
CONTINUOUS
 10
-21.796787934
 20
22.2844216746
 11
-21.796787934
 21
23.3169872981
  0
LINE
  5
2D3
100
AcDbEntity
  8
DRAFT
100
AcDbLine
 62
7
  6
CONTINUOUS
 10
-21.7902360356
 20
23.1726497308
 11
-21.7902360356
 21
22.35
  0
LINE
  5
2D4
100
AcDbEntity
  8
DRAFT
100
AcDbLine
 62
7
  6
CONTINUOUS
 10
-21.7902360356
 20
-22.35
 11
-21.7902360356
 21
-23.1726497308
  0
LINE
  5
2D5
100
AcDbEntity
  8
RACCORDO
100
AcDbLine
 62
7
  6
CONTINUOUS
 10
-21.785
 20
-24.2500034269
 11
-21.785
 21
-23.75
  0
LINE
  5
2D6
100
AcDbEntity
  8
RACCORDO
100
AcDbLine
 62
7
  6
CONTINUOUS
 10
-21.785
 20
23.75
 11
-21.785
 21
24.2500034269
  0
LINE
  5
2D7
100
AcDbEntity
  8
DRAFT
100
AcDbLine
 62
7
  6
CONTINUOUS
 10
-18.9902360356
 20
-22.35
 11
-18.9902360356
 21
-23.1726497308
  0
LINE
  5
2D8
100
AcDbEntity
  8
DRAFT
100
AcDbLine
 62
7
  6
CONTINUOUS
 10
-18.9902360356
 20
22.35
 11
-18.9902360356
 21
23.1726497308
  0
LINE
  5
2D9
100
AcDbEntity
  8
DRAFT
100
AcDbLine
 62
7
  6
CONTINUOUS
 10
-18.985
 20
24.0
 11
-18.985
 21
23.74996875
  0
LINE
  5
2DA
100
AcDbEntity
  8
ASSI
100
AcDbLine
 62
7
  6
CONTINUOUS
 10
-18.985
 20
-23.8
 11
-18.985
 21
-23.74996875
  0
LINE
  5
2DB
100
AcDbEntity
  8
DRAFT
100
AcDbLine
 62
7
  6
CONTINUOUS
 10
-18.985
 20
-24.0
 11
-18.985
 21
-23.74996875
  0
LINE
  5
2DC
100
AcDbEntity
  8
ASSI
100
AcDbLine
 62
7
  6
CONTINUOUS
 10
-18.985
 20
23.74996875
 11
-18.985
 21
23.8
  0
LINE
  5
2DD
100
AcDbEntity
  8
DRAFT
100
AcDbLine
 62
7
  6
CONTINUOUS
 10
-18.9797639644
 20
-22.35
 11
-18.9797639644
 21
-23.1726497308
  0
LINE
  5
2DE
100
AcDbEntity
  8
DRAFT
100
AcDbLine
 62
7
  6
CONTINUOUS
 10
-18.9797639644
 20
22.35
 11
-18.9797639644
 21
23.1726497308
  0
LINE
  5
2DF
100
AcDbEntity
  8
DRAFT
100
AcDbLine
 62
7
  6
CONTINUOUS
 10
-18.971909911
 20
23.986909911
 11
-18.971909911
 21
22.2713883311
  0
LINE
  5
2E0
100
AcDbEntity
  8
DRAFT
100
AcDbLine
 62
7
  6
CONTINUOUS
 10
-18.971909911
 20
-22.2713883311
 11
-18.971909911
 21
-23.986909911
  0
LINE
  5
2E1
100
AcDbEntity
  8
RACCORDO
100
AcDbLine
 62
253
  6
CONTINUOUS
 10
-22.0474390115
 20
-23.1726497308
 11
-22.0520205427
 21
-23.6778312164
  0
LINE
  5
2E2
100
AcDbEntity
  8
RACCORDO
100
AcDbLine
 62
253
  6
CONTINUOUS
 10
-21.796787934
 20
-23.3169872981
 11
-21.8020239696
 21
-23.8943375673
  0
LINE
  5
2E3
100
AcDbEntity
  8
DRAFT
100
AcDbLine
 62
7
  6
CONTINUOUS
 10
-18.985
 20
23.74996875
 11
-18.9902360356
 21
23.1726497308
  0
LINE
  5
2E4
100
AcDbEntity
  8
DRAFT
100
AcDbLine
 62
7
  6
CONTINUOUS
 10
-18.9797639644
 20
-23.1726497308
 11
-18.985
 21
-23.74996875
  0
LINE
  5
2E5
100
AcDbEntity
  8
RACCORDO
100
AcDbLine
 62
253
  6
CONTINUOUS
 10
-4.6520205427
 20
24.4829760304
 11
-4.6349965731
 21
24.5
  0
LINE
  5
2E6
100
AcDbEntity
  8
RACCORDO
100
AcDbLine
 62
253
  6
CONTINUOUS
 10
-4.4020239696
 20
24.2329794573
 11
-4.385
 21
24.2500034269
  0
LINE
  5
2E7
100
AcDbEntity
  8
RACCORDO
100
AcDbLine
 62
253
  6
CONTINUOUS
 10
-13.2894810908
 20
-23.9931876706
 11
-13.3349146599
 21
-24.0
  0
LINE
  5
2E8
100
AcDbEntity
  8
RACCORDO
100
AcDbLine
 62
253
  6
CONTINUOUS
 10
-13.4893592562
 20
-23.7931904121
 11
-13.535
 21
-23.8000338054
  0
LINE
  5
2E9
100
AcDbEntity
  8
RACCORDO
100
AcDbLine
 62
253
  6
CONTINUOUS
 10
18.443908939
 20
-21.1597536899
 11
-25.013908939
 21
-21.1597536899
  0
LINE
  5
2EA
100
AcDbEntity
  8
RACCORDO
100
AcDbLine
 62
253
  6
CONTINUOUS
 10
-4.6520205427
 20
-24.4829760304
 11
-4.6349965731
 21
-24.5
  0
LINE
  5
2EB
100
AcDbEntity
  8
RACCORDO
100
AcDbLine
 62
253
  6
CONTINUOUS
 10
-4.4020239696
 20
-24.2329794573
 11
-4.385
 21
-24.2500034269
  0
LINE
  5
2EC
100
AcDbEntity
  8
DRAFT
100
AcDbLine
 62
7
  6
CONTINUOUS
 10
-18.035
 20
-23.986909911
 11
-18.035
 21
-22.2713883311
  0
LINE
  5
2ED
100
AcDbEntity
  8
DRAFT
100
AcDbLine
 62
7
  6
CONTINUOUS
 10
-18.035
 20
22.2713883311
 11
-18.035
 21
23.986909911
  0
LINE
  5
2EE
100
AcDbEntity
  8
RACCORDO
100
AcDbLine
 62
253
  6
CONTINUOUS
 10
-15.7805189092
 20
-22.3237961104
 11
-15.7805189092
 21
-23.9931876706
  0
LINE
  5
2EF
100
AcDbEntity
  8
RACCORDO
100
AcDbLine
 62
253
  6
CONTINUOUS
 10
-15.7805189092
 20
22.3237961104
 11
-15.7805189092
 21
23.9931876706
  0
LINE
  5
2F0
100
AcDbEntity
  8
RACCORDO
100
AcDbLine
 62
253
  6
CONTINUOUS
 10
-15.5806407438
 20
-23.7931904121
 11
-15.5806407438
 21
-22.3339118652
  0
LINE
  5
2F1
100
AcDbEntity
  8
RACCORDO
100
AcDbLine
 62
253
  6
CONTINUOUS
 10
-15.5806407438
 20
22.3339118652
 11
-15.5806407438
 21
23.7931904121
  0
LINE
  5
2F2
100
AcDbEntity
  8
RACCORDO
100
AcDbLine
 62
7
  6
CONTINUOUS
 10
-15.535
 20
-23.8000338054
 11
-15.535
 21
-22.4024077793
  0
LINE
  5
2F3
100
AcDbEntity
  8
RACCORDO
100
AcDbLine
 62
7
  6
CONTINUOUS
 10
-15.535
 20
22.4024077793
 11
-15.535
 21
23.8000338054
  0
LINE
  5
2F4
100
AcDbEntity
  8
RACCORDO
100
AcDbLine
 62
253
  6
CONTINUOUS
 10
-25.635
 20
-21.8497711479
 11
-25.5220113671
 21
-21.510529595
  0
LINE
  5
2F5
100
AcDbEntity
  8
RACCORDO
100
AcDbLine
 62
253
  6
CONTINUOUS
 10
-25.1353805997
 20
-22.35
 11
-25.0220828712
 21
-22.0098304059
  0
LINE
  5
2F6
100
AcDbEntity
  8
RACCORDO
100
AcDbLine
 62
253
  6
CONTINUOUS
 10
0.4479794573
 20
24.4829760304
 11
0.4650034269
 21
24.5
  0
LINE
  5
2F7
100
AcDbEntity
  8
RACCORDO
100
AcDbLine
 62
253
  6
CONTINUOUS
 10
0.6979760304
 20
24.2329794573
 11
0.715
 21
24.2500034269
  0
LINE
  5
2F8
100
AcDbEntity
  8
RACCORDO
100
AcDbLine
 62
253
  6
CONTINUOUS
 10
0.4479794573
 20
-24.4829760304
 11
0.4650034269
 21
-24.5
  0
LINE
  5
2F9
100
AcDbEntity
  8
RACCORDO
100
AcDbLine
 62
253
  6
CONTINUOUS
 10
0.6979760304
 20
-24.2329794573
 11
0.715
 21
-24.2500034269
  0
LINE
  5
2FA
100
AcDbEntity
  8
0
100
AcDbLine
 62
7
  6
CONTINUOUS
 10
-11.5345791138
 20
-13.063073744
 11
-11.2624135869
 21
-13.4479739235
  0
LINE
  5
2FB
100
AcDbEntity
  8
RACCORDO
100
AcDbLine
 62
253
  6
CONTINUOUS
 10
-25.5220067188
 20
21.5105156385
 11
-25.635
 21
21.8497711479
  0
LINE
  5
2FC
100
AcDbEntity
  8
RACCORDO
100
AcDbLine
 62
253
  6
CONTINUOUS
 10
-25.0220828712
 20
22.0098304059
 11
-25.1353805997
 21
22.35
  0
LINE
  5
2FD
100
AcDbEntity
  8
RACCORDO
100
AcDbLine
 62
7
  6
CONTINUOUS
 10
-13.535
 20
-23.8000338054
 11
-13.535
 21
-22.4024077793
  0
LINE
  5
2FE
100
AcDbEntity
  8
RACCORDO
100
AcDbLine
 62
7
  6
CONTINUOUS
 10
-13.535
 20
22.4024077793
 11
-13.535
 21
23.8000338054
  0
LINE
  5
2FF
100
AcDbEntity
  8
RACCORDO
100
AcDbLine
 62
253
  6
CONTINUOUS
 10
-13.4893592562
 20
23.7931904121
 11
-13.4893592562
 21
22.3339118652
  0
LINE
  5
300
100
AcDbEntity
  8
RACCORDO
100
AcDbLine
 62
253
  6
CONTINUOUS
 10
-13.4893592562
 20
-22.3339118652
 11
-13.4893592562
 21
-23.7931904121
  0
LINE
  5
301
100
AcDbEntity
  8
RACCORDO
100
AcDbLine
 62
253
  6
CONTINUOUS
 10
-13.2894810908
 20
-22.3237961104
 11
-13.2894810908
 21
-23.9931876706
  0
LINE
  5
302
100
AcDbEntity
  8
RACCORDO
100
AcDbLine
 62
253
  6
CONTINUOUS
 10
-13.2894810908
 20
22.3237961104
 11
-13.2894810908
 21
23.9931876706
  0
LINE
  5
303
100
AcDbEntity
  8
0
100
AcDbLine
 62
7
  6
CONTINUOUS
 10
-12.035
 20
-11.1717277088
 11
-12.035
 21
-11.6047404107
  0
LINE
  5
304
100
AcDbEntity
  8
DRAFT
100
AcDbLine
 62
7
  6
CONTINUOUS
 10
-11.035
 20
23.986909911
 11
-11.035
 21
22.2713883311
  0
LINE
  5
305
100
AcDbEntity
  8
DRAFT
100
AcDbLine
 62
7
  6
CONTINUOUS
 10
-11.035
 20
-22.2713883311
 11
-11.035
 21
-23.986909911
  0
LINE
  5
306
100
AcDbEntity
  8
DRAFT
100
AcDbLine
 62
7
  6
CONTINUOUS
 10
-10.0902360356
 20
-23.1726497308
 11
-10.085
 21
-23.74996875
  0
LINE
  5
307
100
AcDbEntity
  8
DRAFT
100
AcDbLine
 62
7
  6
CONTINUOUS
 10
-10.085
 20
23.75
 11
-10.0797639644
 21
23.1726497308
  0
LINE
  5
308
100
AcDbEntity
  8
RACCORDO
100
AcDbLine
 62
253
  6
CONTINUOUS
 10
-7.2679760304
 20
-23.8943375673
 11
-7.273212066
 21
-23.3169872981
  0
LINE
  5
309
100
AcDbEntity
  8
RACCORDO
100
AcDbLine
 62
253
  6
CONTINUOUS
 10
-7.0179794573
 20
-23.6778312164
 11
-7.0225609885
 21
-23.1726497308
  0
LINE
  5
30A
100
AcDbEntity
  8
DRAFT
100
AcDbLine
 62
7
  6
CONTINUOUS
 10
-7.285
 20
23.75
 11
-7.2797639644
 21
23.1726497308
  0
LINE
  5
30B
100
AcDbEntity
  8
DRAFT
100
AcDbLine
 62
7
  6
CONTINUOUS
 10
-10.098090089
 20
-23.986909911
 11
-10.098090089
 21
-22.2713883311
  0
LINE
  5
30C
100
AcDbEntity
  8
DRAFT
100
AcDbLine
 62
7
  6
CONTINUOUS
 10
-10.098090089
 20
22.2713883311
 11
-10.098090089
 21
23.986909911
  0
LINE
  5
30D
100
AcDbEntity
  8
DRAFT
100
AcDbLine
 62
7
  6
CONTINUOUS
 10
-10.0902360356
 20
-22.35
 11
-10.0902360356
 21
-23.1726497308
  0
LINE
  5
30E
100
AcDbEntity
  8
DRAFT
100
AcDbLine
 62
7
  6
CONTINUOUS
 10
-10.0902360356
 20
22.35
 11
-10.0902360356
 21
23.1726497308
  0
LINE
  5
30F
100
AcDbEntity
  8
DRAFT
100
AcDbLine
 62
7
  6
CONTINUOUS
 10
-10.085
 20
24.0
 11
-10.085
 21
23.75
  0
LINE
  5
310
100
AcDbEntity
  8
ASSI
100
AcDbLine
 62
7
  6
CONTINUOUS
 10
-10.085
 20
-23.8
 11
-10.085
 21
-23.74996875
  0
LINE
  5
311
100
AcDbEntity
  8
DRAFT
100
AcDbLine
 62
7
  6
CONTINUOUS
 10
-10.085
 20
-24.0
 11
-10.085
 21
-23.74996875
  0
LINE
  5
312
100
AcDbEntity
  8
ASSI
100
AcDbLine
 62
7
  6
CONTINUOUS
 10
-10.085
 20
23.75
 11
-10.085
 21
23.8
  0
LINE
  5
313
100
AcDbEntity
  8
DRAFT
100
AcDbLine
 62
7
  6
CONTINUOUS
 10
-10.0797639644
 20
-22.35
 11
-10.0797639644
 21
-23.1726497308
  0
LINE
  5
314
100
AcDbEntity
  8
DRAFT
100
AcDbLine
 62
7
  6
CONTINUOUS
 10
-10.0797639644
 20
22.35
 11
-10.0797639644
 21
23.1726497308
  0
LINE
  5
315
100
AcDbEntity
  8
RACCORDO
100
AcDbLine
 62
7
  6
CONTINUOUS
 10
-7.285
 20
24.2500034269
 11
-7.285
 21
23.75
  0
LINE
  5
316
100
AcDbEntity
  8
RACCORDO
100
AcDbLine
 62
7
  6
CONTINUOUS
 10
-7.285
 20
-23.75
 11
-7.285
 21
-24.2500034269
  0
LINE
  5
317
100
AcDbEntity
  8
DRAFT
100
AcDbLine
 62
7
  6
CONTINUOUS
 10
-7.2797639644
 20
-23.1726497308
 11
-7.2797639644
 21
-22.35
  0
LINE
  5
318
100
AcDbEntity
  8
DRAFT
100
AcDbLine
 62
7
  6
CONTINUOUS
 10
-7.2797639644
 20
22.35
 11
-7.2797639644
 21
23.1726497308
  0
LINE
  5
319
100
AcDbEntity
  8
RACCORDO
100
AcDbLine
 62
7
  6
CONTINUOUS
 10
-7.273212066
 20
23.3169872981
 11
-7.273212066
 21
22.2844216746
  0
LINE
  5
31A
100
AcDbEntity
  8
RACCORDO
100
AcDbLine
 62
7
  6
CONTINUOUS
 10
-7.273212066
 20
-22.2844216746
 11
-7.273212066
 21
-23.3169872981
  0
LINE
  5
31B
100
AcDbEntity
  8
RACCORDO
100
AcDbLine
 62
7
  6
CONTINUOUS
 10
-7.2679760304
 20
24.2329794573
 11
-7.2679760304
 21
23.8943375673
  0
LINE
  5
31C
100
AcDbEntity
  8
RACCORDO
100
AcDbLine
 62
7
  6
CONTINUOUS
 10
-7.2679760304
 20
-23.8943375673
 11
-7.2679760304
 21
-24.2329794573
  0
LINE
  5
31D
100
AcDbEntity
  8
RACCORDO
100
AcDbLine
 62
253
  6
CONTINUOUS
 10
-7.0232154929
 20
23.1726497308
 11
-7.0232154929
 21
22.2713883311
  0
LINE
  5
31E
100
AcDbEntity
  8
RACCORDO
100
AcDbLine
 62
253
  6
CONTINUOUS
 10
-7.0232154929
 20
-22.2713883311
 11
-7.0232154929
 21
-23.1726497308
  0
LINE
  5
31F
100
AcDbEntity
  8
RACCORDO
100
AcDbLine
 62
253
  6
CONTINUOUS
 10
-7.0179794573
 20
-23.6778312164
 11
-7.0179794573
 21
-24.4829760304
  0
LINE
  5
320
100
AcDbEntity
  8
RACCORDO
100
AcDbLine
 62
253
  6
CONTINUOUS
 10
-7.0179794573
 20
23.6778312164
 11
-7.0179794573
 21
24.4829760304
  0
LINE
  5
321
100
AcDbEntity
  8
DRAFT
100
AcDbLine
 62
7
  6
CONTINUOUS
 10
-10.085
 20
23.75
 11
-10.0902360356
 21
23.1726497308
  0
LINE
  5
322
100
AcDbEntity
  8
DRAFT
100
AcDbLine
 62
7
  6
CONTINUOUS
 10
-10.0797639644
 20
-23.1726497308
 11
-10.085
 21
-23.74996875
  0
LINE
  5
323
100
AcDbEntity
  8
RACCORDO
100
AcDbLine
 62
253
  6
CONTINUOUS
 10
-7.273212066
 20
23.3169872981
 11
-7.2679760304
 21
23.8943375673
  0
LINE
  5
324
100
AcDbEntity
  8
RACCORDO
100
AcDbLine
 62
253
  6
CONTINUOUS
 10
-7.0225609885
 20
23.1726497308
 11
-7.0179794573
 21
23.6778312164
  0
LINE
  5
325
100
AcDbEntity
  8
DRAFT
100
AcDbLine
 62
7
  6
CONTINUOUS
 10
-7.2797639644
 20
-23.1726497308
 11
-7.285
 21
-23.75
  0
LINE
  5
326
100
AcDbEntity
  8
DRAFT
100
AcDbLine
 62
7
  6
CONTINUOUS
 10
12.401909911
 20
23.986909911
 11
12.415
 21
24.0
  0
LINE
  5
327
100
AcDbEntity
  8
RACCORDO
100
AcDbLine
 62
253
  6
CONTINUOUS
 10
18.4268572029
 20
-9.5
 11
15.1131898717
 21
-9.499999989
  0
LINE
  5
328
100
AcDbEntity
  8
RACCORDO
100
AcDbLine
 62
253
  6
CONTINUOUS
 10
-21.6832971409
 20
-9.4999999896
 11
-24.9968572029
 21
-9.5
  0
LINE
  5
329
100
AcDbEntity
  8
DRAFT
100
AcDbLine
 62
7
  6
CONTINUOUS
 10
12.415
 20
-24.0
 11
12.401909911
 21
-23.986909911
  0
LINE
  5
32A
100
AcDbEntity
  8
DRAFT
100
AcDbLine
 62
7
  6
CONTINUOUS
 10
-4.3902360356
 20
-23.1726497308
 11
-4.385
 21
-23.75
  0
LINE
  5
32B
100
AcDbEntity
  8
RACCORDO
100
AcDbLine
 62
253
  6
CONTINUOUS
 10
-4.6520205427
 20
23.6778312164
 11
-4.6474390115
 21
23.1726497308
  0
LINE
  5
32C
100
AcDbEntity
  8
RACCORDO
100
AcDbLine
 62
253
  6
CONTINUOUS
 10
-4.4020239696
 20
23.8943375673
 11
-4.396787934
 21
23.3169872981
  0
LINE
  5
32D
100
AcDbEntity
  8
RACCORDO
100
AcDbLine
 62
253
  6
CONTINUOUS
 10
-4.6520205427
 20
-23.6778312164
 11
-4.6520205427
 21
-24.4829760304
  0
LINE
  5
32E
100
AcDbEntity
  8
RACCORDO
100
AcDbLine
 62
253
  6
CONTINUOUS
 10
-4.6520205427
 20
23.6778312164
 11
-4.6520205427
 21
24.4829760304
  0
LINE
  5
32F
100
AcDbEntity
  8
RACCORDO
100
AcDbLine
 62
253
  6
CONTINUOUS
 10
-4.6467845071
 20
-23.1726497308
 11
-4.6467845071
 21
-22.2713883311
  0
LINE
  5
330
100
AcDbEntity
  8
RACCORDO
100
AcDbLine
 62
253
  6
CONTINUOUS
 10
-4.6467845071
 20
22.2713883311
 11
-4.6467845071
 21
23.1726497308
  0
LINE
  5
331
100
AcDbEntity
  8
RACCORDO
100
AcDbLine
 62
7
  6
CONTINUOUS
 10
-4.4020239696
 20
-24.2329794573
 11
-4.4020239696
 21
-23.8943375673
  0
LINE
  5
332
100
AcDbEntity
  8
RACCORDO
100
AcDbLine
 62
7
  6
CONTINUOUS
 10
-4.4020239696
 20
23.8943375673
 11
-4.4020239696
 21
24.2329794573
  0
LINE
  5
333
100
AcDbEntity
  8
RACCORDO
100
AcDbLine
 62
7
  6
CONTINUOUS
 10
-4.396787934
 20
-23.3169872981
 11
-4.396787934
 21
-22.2844216746
  0
LINE
  5
334
100
AcDbEntity
  8
RACCORDO
100
AcDbLine
 62
7
  6
CONTINUOUS
 10
-4.396787934
 20
22.2844216746
 11
-4.396787934
 21
23.3169872981
  0
LINE
  5
335
100
AcDbEntity
  8
DRAFT
100
AcDbLine
 62
7
  6
CONTINUOUS
 10
-4.3902360356
 20
23.1726497308
 11
-4.3902360356
 21
22.35
  0
LINE
  5
336
100
AcDbEntity
  8
DRAFT
100
AcDbLine
 62
7
  6
CONTINUOUS
 10
-4.3902360356
 20
-22.35
 11
-4.3902360356
 21
-23.1726497308
  0
LINE
  5
337
100
AcDbEntity
  8
RACCORDO
100
AcDbLine
 62
7
  6
CONTINUOUS
 10
-4.385
 20
-24.2500034269
 11
-4.385
 21
-23.75
  0
LINE
  5
338
100
AcDbEntity
  8
RACCORDO
100
AcDbLine
 62
7
  6
CONTINUOUS
 10
-4.385
 20
23.75
 11
-4.385
 21
24.2500034269
  0
LINE
  5
339
100
AcDbEntity
  8
DRAFT
100
AcDbLine
 62
7
  6
CONTINUOUS
 10
-4.385
 20
23.75
 11
-4.3902360356
 21
23.1726497308
  0
LINE
  5
33A
100
AcDbEntity
  8
RACCORDO
100
AcDbLine
 62
253
  6
CONTINUOUS
 10
-4.6474390115
 20
-23.1726497308
 11
-4.6520205427
 21
-23.6778312164
  0
LINE
  5
33B
100
AcDbEntity
  8
RACCORDO
100
AcDbLine
 62
253
  6
CONTINUOUS
 10
-4.396787934
 20
-23.3169872981
 11
-4.4020239696
 21
-23.8943375673
  0
LINE
  5
33C
100
AcDbEntity
  8
RACCORDO
100
AcDbLine
 62
7
  6
CONTINUOUS
 10
6.9193592562
 20
22.3339118652
 11
6.965
 21
22.4024077793
  0
LINE
  5
33D
100
AcDbEntity
  8
RACCORDO
100
AcDbLine
 62
253
  6
CONTINUOUS
 10
17.8479794573
 20
24.4829760304
 11
17.8650034269
 21
24.5
  0
LINE
  5
33E
100
AcDbEntity
  8
RACCORDO
100
AcDbLine
 62
253
  6
CONTINUOUS
 10
18.0979760304
 20
24.2329794573
 11
18.115
 21
24.2500034269
  0
LINE
  5
33F
100
AcDbEntity
  8
RACCORDO
100
AcDbLine
 62
253
  6
CONTINUOUS
 10
17.8479794573
 20
-24.4829760304
 11
17.8650034269
 21
-24.5
  0
LINE
  5
340
100
AcDbEntity
  8
RACCORDO
100
AcDbLine
 62
253
  6
CONTINUOUS
 10
18.0979760304
 20
-24.2329794573
 11
18.115
 21
-24.2500034269
  0
LINE
  5
341
100
AcDbEntity
  8
RACCORDO
100
AcDbLine
 62
7
  6
CONTINUOUS
 10
6.965
 20
-22.4024077793
 11
6.9193592562
 21
-22.3339118652
  0
LINE
  5
342
100
AcDbEntity
  8
RACCORDO
100
AcDbLine
 62
253
  6
CONTINUOUS
 10
-2.1679760304
 20
-23.8943375673
 11
-2.173212066
 21
-23.3169872981
  0
LINE
  5
343
100
AcDbEntity
  8
RACCORDO
100
AcDbLine
 62
253
  6
CONTINUOUS
 10
-1.9179794573
 20
-23.6778312164
 11
-1.9225609885
 21
-23.1726497308
  0
LINE
  5
344
100
AcDbEntity
  8
DRAFT
100
AcDbLine
 62
7
  6
CONTINUOUS
 10
-2.1797639644
 20
23.1726497308
 11
-2.185
 21
23.75
  0
LINE
  5
345
100
AcDbEntity
  8
DRAFT
100
AcDbLine
 62
7
  6
CONTINUOUS
 10
0.715
 20
-23.75
 11
0.7097639644
 21
-23.1726497308
  0
LINE
  5
346
100
AcDbEntity
  8
RACCORDO
100
AcDbLine
 62
7
  6
CONTINUOUS
 10
-2.185
 20
24.2500034269
 11
-2.185
 21
23.75
  0
LINE
  5
347
100
AcDbEntity
  8
RACCORDO
100
AcDbLine
 62
7
  6
CONTINUOUS
 10
-2.185
 20
-23.75
 11
-2.185
 21
-24.2500034269
  0
LINE
  5
348
100
AcDbEntity
  8
DRAFT
100
AcDbLine
 62
7
  6
CONTINUOUS
 10
-2.1797639644
 20
23.1726497308
 11
-2.1797639644
 21
22.35
  0
LINE
  5
349
100
AcDbEntity
  8
DRAFT
100
AcDbLine
 62
7
  6
CONTINUOUS
 10
-2.1797639644
 20
-22.35
 11
-2.1797639644
 21
-23.1726497308
  0
LINE
  5
34A
100
AcDbEntity
  8
RACCORDO
100
AcDbLine
 62
7
  6
CONTINUOUS
 10
-2.173212066
 20
23.3169872981
 11
-2.173212066
 21
22.2844216746
  0
LINE
  5
34B
100
AcDbEntity
  8
RACCORDO
100
AcDbLine
 62
7
  6
CONTINUOUS
 10
-2.173212066
 20
-22.2844216746
 11
-2.173212066
 21
-23.3169872981
  0
LINE
  5
34C
100
AcDbEntity
  8
RACCORDO
100
AcDbLine
 62
7
  6
CONTINUOUS
 10
-2.1679760304
 20
24.2329794573
 11
-2.1679760304
 21
23.8943375673
  0
LINE
  5
34D
100
AcDbEntity
  8
RACCORDO
100
AcDbLine
 62
7
  6
CONTINUOUS
 10
-2.1679760304
 20
-23.8943375673
 11
-2.1679760304
 21
-24.2329794573
  0
LINE
  5
34E
100
AcDbEntity
  8
RACCORDO
100
AcDbLine
 62
253
  6
CONTINUOUS
 10
-1.9232154929
 20
23.1726497308
 11
-1.9232154929
 21
22.2713883311
  0
LINE
  5
34F
100
AcDbEntity
  8
RACCORDO
100
AcDbLine
 62
253
  6
CONTINUOUS
 10
-1.9232154929
 20
-22.2713883311
 11
-1.9232154929
 21
-23.1726497308
  0
LINE
  5
350
100
AcDbEntity
  8
RACCORDO
100
AcDbLine
 62
253
  6
CONTINUOUS
 10
-1.9179794573
 20
-23.6778312164
 11
-1.9179794573
 21
-24.4829760304
  0
LINE
  5
351
100
AcDbEntity
  8
RACCORDO
100
AcDbLine
 62
253
  6
CONTINUOUS
 10
-1.9179794573
 20
23.6778312164
 11
-1.9179794573
 21
24.4829760304
  0
LINE
  5
352
100
AcDbEntity
  8
RACCORDO
100
AcDbLine
 62
253
  6
CONTINUOUS
 10
0.4479794573
 20
-23.6778312164
 11
0.4479794573
 21
-24.4829760304
  0
LINE
  5
353
100
AcDbEntity
  8
RACCORDO
100
AcDbLine
 62
253
  6
CONTINUOUS
 10
0.4479794573
 20
23.6778312164
 11
0.4479794573
 21
24.4829760304
  0
LINE
  5
354
100
AcDbEntity
  8
RACCORDO
100
AcDbLine
 62
253
  6
CONTINUOUS
 10
0.4532154929
 20
-23.1726497308
 11
0.4532154929
 21
-22.2713883311
  0
LINE
  5
355
100
AcDbEntity
  8
RACCORDO
100
AcDbLine
 62
253
  6
CONTINUOUS
 10
0.4532154929
 20
22.2713883311
 11
0.4532154929
 21
23.1726497308
  0
LINE
  5
356
100
AcDbEntity
  8
RACCORDO
100
AcDbLine
 62
253
  6
CONTINUOUS
 10
-2.173212066
 20
23.3169872981
 11
-2.1679760304
 21
23.8943375673
  0
LINE
  5
357
100
AcDbEntity
  8
RACCORDO
100
AcDbLine
 62
253
  6
CONTINUOUS
 10
-1.9225609885
 20
23.1726497308
 11
-1.9179794573
 21
23.6778312164
  0
LINE
  5
358
100
AcDbEntity
  8
DRAFT
100
AcDbLine
 62
7
  6
CONTINUOUS
 10
-2.185
 20
-23.75
 11
-2.1797639644
 21
-23.1726497308
  0
LINE
  5
359
100
AcDbEntity
  8
DRAFT
100
AcDbLine
 62
7
  6
CONTINUOUS
 10
0.7097639644
 20
23.1726497308
 11
0.715
 21
23.75
  0
LINE
  5
35A
100
AcDbEntity
  8
RACCORDO
100
AcDbLine
 62
253
  6
CONTINUOUS
 10
-24.6679760304
 20
-24.2329794573
 11
-24.685
 21
-24.2500034269
  0
LINE
  5
35B
100
AcDbEntity
  8
RACCORDO
100
AcDbLine
 62
253
  6
CONTINUOUS
 10
-24.4179794573
 20
-24.4829760304
 11
-24.4350034269
 21
-24.5
  0
LINE
  5
35C
100
AcDbEntity
  8
RACCORDO
100
AcDbLine
 62
253
  6
CONTINUOUS
 10
-24.6679760304
 20
24.2329794573
 11
-24.685
 21
24.2500034269
  0
LINE
  5
35D
100
AcDbEntity
  8
RACCORDO
100
AcDbLine
 62
253
  6
CONTINUOUS
 10
-24.4179794573
 20
24.4829760304
 11
-24.4350034269
 21
24.5
  0
LINE
  5
35E
100
AcDbEntity
  8
RACCORDO
100
AcDbLine
 62
253
  6
CONTINUOUS
 10
0.4479794573
 20
23.6778312164
 11
0.4525609885
 21
23.1726497308
  0
LINE
  5
35F
100
AcDbEntity
  8
RACCORDO
100
AcDbLine
 62
253
  6
CONTINUOUS
 10
0.6979760304
 20
23.8943375673
 11
0.703212066
 21
23.3169872981
  0
LINE
  5
360
100
AcDbEntity
  8
DRAFT
100
AcDbLine
 62
7
  6
CONTINUOUS
 10
3.5097639644
 20
-23.1726497308
 11
3.515
 21
-23.74996875
  0
LINE
  5
361
100
AcDbEntity
  8
DRAFT
100
AcDbLine
 62
7
  6
CONTINUOUS
 10
3.515
 20
23.74996875
 11
3.5202360356
 21
23.1726497308
  0
LINE
  5
362
100
AcDbEntity
  8
RACCORDO
100
AcDbLine
 62
7
  6
CONTINUOUS
 10
0.6979760304
 20
-24.2329794573
 11
0.6979760304
 21
-23.8943375673
  0
LINE
  5
363
100
AcDbEntity
  8
RACCORDO
100
AcDbLine
 62
7
  6
CONTINUOUS
 10
0.6979760304
 20
23.8943375673
 11
0.6979760304
 21
24.2329794573
  0
LINE
  5
364
100
AcDbEntity
  8
RACCORDO
100
AcDbLine
 62
7
  6
CONTINUOUS
 10
0.703212066
 20
-23.3169872981
 11
0.703212066
 21
-22.2844216746
  0
LINE
  5
365
100
AcDbEntity
  8
RACCORDO
100
AcDbLine
 62
7
  6
CONTINUOUS
 10
0.703212066
 20
22.2844216746
 11
0.703212066
 21
23.3169872981
  0
LINE
  5
366
100
AcDbEntity
  8
DRAFT
100
AcDbLine
 62
7
  6
CONTINUOUS
 10
0.7097639644
 20
-23.1726497308
 11
0.7097639644
 21
-22.35
  0
LINE
  5
367
100
AcDbEntity
  8
DRAFT
100
AcDbLine
 62
7
  6
CONTINUOUS
 10
0.7097639644
 20
22.35
 11
0.7097639644
 21
23.1726497308
  0
LINE
  5
368
100
AcDbEntity
  8
RACCORDO
100
AcDbLine
 62
7
  6
CONTINUOUS
 10
0.715
 20
-24.2500034269
 11
0.715
 21
-23.75
  0
LINE
  5
369
100
AcDbEntity
  8
RACCORDO
100
AcDbLine
 62
7
  6
CONTINUOUS
 10
0.715
 20
23.75
 11
0.715
 21
24.2500034269
  0
LINE
  5
36A
100
AcDbEntity
  8
DRAFT
100
AcDbLine
 62
7
  6
CONTINUOUS
 10
3.5097639644
 20
-22.35
 11
3.5097639644
 21
-23.1726497308
  0
LINE
  5
36B
100
AcDbEntity
  8
DRAFT
100
AcDbLine
 62
7
  6
CONTINUOUS
 10
3.5097639644
 20
22.35
 11
3.5097639644
 21
23.1726497308
  0
LINE
  5
36C
100
AcDbEntity
  8
DRAFT
100
AcDbLine
 62
7
  6
CONTINUOUS
 10
3.515
 20
24.0
 11
3.515
 21
23.74996875
  0
LINE
  5
36D
100
AcDbEntity
  8
ASSI
100
AcDbLine
 62
7
  6
CONTINUOUS
 10
3.515
 20
-23.8
 11
3.515
 21
-23.74996875
  0
LINE
  5
36E
100
AcDbEntity
  8
DRAFT
100
AcDbLine
 62
7
  6
CONTINUOUS
 10
3.515
 20
-24.0
 11
3.515
 21
-23.74996875
  0
LINE
  5
36F
100
AcDbEntity
  8
ASSI
100
AcDbLine
 62
7
  6
CONTINUOUS
 10
3.515
 20
23.74996875
 11
3.515
 21
23.8
  0
LINE
  5
370
100
AcDbEntity
  8
DRAFT
100
AcDbLine
 62
7
  6
CONTINUOUS
 10
3.5202360356
 20
-22.35
 11
3.5202360356
 21
-23.1726497308
  0
LINE
  5
371
100
AcDbEntity
  8
DRAFT
100
AcDbLine
 62
7
  6
CONTINUOUS
 10
3.5202360356
 20
22.35
 11
3.5202360356
 21
23.1726497308
  0
LINE
  5
372
100
AcDbEntity
  8
DRAFT
100
AcDbLine
 62
7
  6
CONTINUOUS
 10
3.528090089
 20
23.986909911
 11
3.528090089
 21
22.2713883311
  0
LINE
  5
373
100
AcDbEntity
  8
DRAFT
100
AcDbLine
 62
7
  6
CONTINUOUS
 10
3.528090089
 20
-22.2713883311
 11
3.528090089
 21
-23.986909911
  0
LINE
  5
374
100
AcDbEntity
  8
RACCORDO
100
AcDbLine
 62
253
  6
CONTINUOUS
 10
0.4525609885
 20
-23.1726497308
 11
0.4479794573
 21
-23.6778312164
  0
LINE
  5
375
100
AcDbEntity
  8
RACCORDO
100
AcDbLine
 62
253
  6
CONTINUOUS
 10
0.703212066
 20
-23.3169872981
 11
0.6979760304
 21
-23.8943375673
  0
LINE
  5
376
100
AcDbEntity
  8
DRAFT
100
AcDbLine
 62
7
  6
CONTINUOUS
 10
3.515
 20
23.74996875
 11
3.5097639644
 21
23.1726497308
  0
LINE
  5
377
100
AcDbEntity
  8
DRAFT
100
AcDbLine
 62
7
  6
CONTINUOUS
 10
3.5202360356
 20
-23.1726497308
 11
3.515
 21
-23.74996875
  0
LINE
  5
378
100
AcDbEntity
  8
RACCORDO
100
AcDbLine
 62
7
  6
CONTINUOUS
 10
-13.535
 20
-22.4024077793
 11
-13.4893592562
 21
-22.3339118652
  0
LINE
  5
379
100
AcDbEntity
  8
DRAFT
100
AcDbLine
 62
7
  6
CONTINUOUS
 10
-18.985
 20
-24.0
 11
-18.971909911
 21
-23.986909911
  0
LINE
  5
37A
100
AcDbEntity
  8
DRAFT
100
AcDbLine
 62
7
  6
CONTINUOUS
 10
-18.985
 20
24.0
 11
-18.971909911
 21
23.986909911
  0
LINE
  5
37B
100
AcDbEntity
  8
RACCORDO
100
AcDbLine
 62
7
  6
CONTINUOUS
 10
-13.4893592562
 20
22.3339118652
 11
-13.535
 21
22.4024077793
  0
LINE
  5
37C
100
AcDbEntity
  8
DRAFT
100
AcDbLine
 62
7
  6
CONTINUOUS
 10
4.465
 20
-23.986909911
 11
4.465
 21
-22.2713883311
  0
LINE
  5
37D
100
AcDbEntity
  8
DRAFT
100
AcDbLine
 62
7
  6
CONTINUOUS
 10
4.465
 20
22.2713883311
 11
4.465
 21
23.986909911
  0
LINE
  5
37E
100
AcDbEntity
  8
0
100
AcDbLine
 62
7
  6
CONTINUOUS
 10
5.465
 20
-11.1717277088
 11
5.465
 21
-11.6047404107
  0
LINE
  5
37F
100
AcDbEntity
  8
RACCORDO
100
AcDbLine
 62
253
  6
CONTINUOUS
 10
6.7194810908
 20
-22.3237961104
 11
6.7194810908
 21
-23.9931876706
  0
LINE
  5
380
100
AcDbEntity
  8
RACCORDO
100
AcDbLine
 62
253
  6
CONTINUOUS
 10
6.7194810908
 20
22.3237961104
 11
6.7194810908
 21
23.9931876706
  0
LINE
  5
381
100
AcDbEntity
  8
RACCORDO
100
AcDbLine
 62
253
  6
CONTINUOUS
 10
6.9193592562
 20
-23.7931904121
 11
6.9193592562
 21
-22.3339118652
  0
LINE
  5
382
100
AcDbEntity
  8
RACCORDO
100
AcDbLine
 62
253
  6
CONTINUOUS
 10
6.9193592562
 20
22.3339118652
 11
6.9193592562
 21
23.7931904121
  0
LINE
  5
383
100
AcDbEntity
  8
RACCORDO
100
AcDbLine
 62
7
  6
CONTINUOUS
 10
6.965
 20
-23.8000338054
 11
6.965
 21
-22.4024077793
  0
LINE
  5
384
100
AcDbEntity
  8
RACCORDO
100
AcDbLine
 62
7
  6
CONTINUOUS
 10
6.965
 20
22.4024077793
 11
6.965
 21
23.8000338054
  0
LINE
  5
385
100
AcDbEntity
  8
RACCORDO
100
AcDbLine
 62
7
  6
CONTINUOUS
 10
8.965
 20
-23.8000338054
 11
8.965
 21
-22.4024077793
  0
LINE
  5
386
100
AcDbEntity
  8
RACCORDO
100
AcDbLine
 62
7
  6
CONTINUOUS
 10
8.965
 20
22.4024077793
 11
8.965
 21
23.8000338054
  0
LINE
  5
387
100
AcDbEntity
  8
RACCORDO
100
AcDbLine
 62
253
  6
CONTINUOUS
 10
9.0106407438
 20
23.7931904121
 11
9.0106407438
 21
22.3339118652
  0
LINE
  5
388
100
AcDbEntity
  8
RACCORDO
100
AcDbLine
 62
253
  6
CONTINUOUS
 10
9.0106407438
 20
-22.3339118652
 11
9.0106407438
 21
-23.7931904121
  0
LINE
  5
389
100
AcDbEntity
  8
RACCORDO
100
AcDbLine
 62
253
  6
CONTINUOUS
 10
9.2105189092
 20
-22.3237961104
 11
9.2105189092
 21
-23.9931876706
  0
LINE
  5
38A
100
AcDbEntity
  8
RACCORDO
100
AcDbLine
 62
253
  6
CONTINUOUS
 10
9.2105189092
 20
22.3237961104
 11
9.2105189092
 21
23.9931876706
  0
LINE
  5
38B
100
AcDbEntity
  8
DRAFT
100
AcDbLine
 62
7
  6
CONTINUOUS
 10
11.465
 20
23.986909911
 11
11.465
 21
22.2713883311
  0
LINE
  5
38C
100
AcDbEntity
  8
DRAFT
100
AcDbLine
 62
7
  6
CONTINUOUS
 10
11.465
 20
-22.2713883311
 11
11.465
 21
-23.986909911
  0
LINE
  5
38D
100
AcDbEntity
  8
RACCORDO
100
AcDbLine
 62
253
  6
CONTINUOUS
 10
18.5653805997
 20
22.35
 11
18.4520828712
 21
22.0098304059
  0
LINE
  5
38E
100
AcDbEntity
  8
RACCORDO
100
AcDbLine
 62
253
  6
CONTINUOUS
 10
19.065
 20
21.8497711479
 11
18.9520067188
 21
21.5105156385
  0
LINE
  5
38F
100
AcDbEntity
  8
0
100
AcDbLine
 62
7
  6
CONTINUOUS
 10
4.9645791138
 20
-13.063073744
 11
4.6924135869
 21
-13.4479739235
  0
LINE
  5
390
100
AcDbEntity
  8
RACCORDO
100
AcDbLine
 62
253
  6
CONTINUOUS
 10
18.4268572029
 20
9.5
 11
15.1131898679
 21
9.4999999916
  0
LINE
  5
391
100
AcDbEntity
  8
RACCORDO
100
AcDbLine
 62
253
  6
CONTINUOUS
 10
-21.6832971412
 20
9.4999999922
 11
-24.9968572029
 21
9.5
  0
LINE
  5
392
100
AcDbEntity
  8
RACCORDO
100
AcDbLine
 62
253
  6
CONTINUOUS
 10
18.4520828712
 20
-22.0098304059
 11
18.5653805997
 21
-22.35
  0
LINE
  5
393
100
AcDbEntity
  8
RACCORDO
100
AcDbLine
 62
253
  6
CONTINUOUS
 10
18.9519547823
 20
-21.5103597025
 11
19.065
 21
-21.8497711479
  0
LINE
  5
394
100
AcDbEntity
  8
DRAFT
100
AcDbLine
 62
7
  6
CONTINUOUS
 10
12.4097639644
 20
-23.1726497308
 11
12.415
 21
-23.74996875
  0
LINE
  5
395
100
AcDbEntity
  8
DRAFT
100
AcDbLine
 62
7
  6
CONTINUOUS
 10
12.415
 20
23.75
 11
12.4202360356
 21
23.1726497308
  0
LINE
  5
396
100
AcDbEntity
  8
RACCORDO
100
AcDbLine
 62
253
  6
CONTINUOUS
 10
15.2320239696
 20
-23.8943375673
 11
15.226787934
 21
-23.3169872981
  0
LINE
  5
397
100
AcDbEntity
  8
RACCORDO
100
AcDbLine
 62
253
  6
CONTINUOUS
 10
15.4820205427
 20
-23.6778312164
 11
15.4774390115
 21
-23.1726497308
  0
LINE
  5
398
100
AcDbEntity
  8
DRAFT
100
AcDbLine
 62
7
  6
CONTINUOUS
 10
15.215
 20
23.75
 11
15.2202360356
 21
23.1726497308
  0
LINE
  5
399
100
AcDbEntity
  8
DRAFT
100
AcDbLine
 62
7
  6
CONTINUOUS
 10
12.401909911
 20
-23.986909911
 11
12.401909911
 21
-22.2713883311
  0
LINE
  5
39A
100
AcDbEntity
  8
DRAFT
100
AcDbLine
 62
7
  6
CONTINUOUS
 10
12.401909911
 20
22.2713883311
 11
12.401909911
 21
23.986909911
  0
LINE
  5
39B
100
AcDbEntity
  8
DRAFT
100
AcDbLine
 62
7
  6
CONTINUOUS
 10
12.4097639644
 20
-22.35
 11
12.4097639644
 21
-23.1726497308
  0
LINE
  5
39C
100
AcDbEntity
  8
DRAFT
100
AcDbLine
 62
7
  6
CONTINUOUS
 10
12.4097639644
 20
22.35
 11
12.4097639644
 21
23.1726497308
  0
LINE
  5
39D
100
AcDbEntity
  8
DRAFT
100
AcDbLine
 62
7
  6
CONTINUOUS
 10
12.415
 20
24.0
 11
12.415
 21
23.75
  0
LINE
  5
39E
100
AcDbEntity
  8
ASSI
100
AcDbLine
 62
7
  6
CONTINUOUS
 10
12.415
 20
-23.8
 11
12.415
 21
-23.74996875
  0
LINE
  5
39F
100
AcDbEntity
  8
DRAFT
100
AcDbLine
 62
7
  6
CONTINUOUS
 10
12.415
 20
-24.0
 11
12.415
 21
-23.74996875
  0
LINE
  5
3A0
100
AcDbEntity
  8
ASSI
100
AcDbLine
 62
7
  6
CONTINUOUS
 10
12.415
 20
23.75
 11
12.415
 21
23.8
  0
LINE
  5
3A1
100
AcDbEntity
  8
DRAFT
100
AcDbLine
 62
7
  6
CONTINUOUS
 10
12.4202360356
 20
-22.35
 11
12.4202360356
 21
-23.1726497308
  0
LINE
  5
3A2
100
AcDbEntity
  8
DRAFT
100
AcDbLine
 62
7
  6
CONTINUOUS
 10
12.4202360356
 20
22.35
 11
12.4202360356
 21
23.1726497308
  0
LINE
  5
3A3
100
AcDbEntity
  8
RACCORDO
100
AcDbLine
 62
7
  6
CONTINUOUS
 10
15.215
 20
24.2500034269
 11
15.215
 21
23.75
  0
LINE
  5
3A4
100
AcDbEntity
  8
RACCORDO
100
AcDbLine
 62
7
  6
CONTINUOUS
 10
15.215
 20
-23.75
 11
15.215
 21
-24.2500034269
  0
LINE
  5
3A5
100
AcDbEntity
  8
DRAFT
100
AcDbLine
 62
7
  6
CONTINUOUS
 10
15.2202360356
 20
23.1726497308
 11
15.2202360356
 21
22.35
  0
LINE
  5
3A6
100
AcDbEntity
  8
DRAFT
100
AcDbLine
 62
7
  6
CONTINUOUS
 10
15.2202360356
 20
-22.35
 11
15.2202360356
 21
-23.1726497308
  0
LINE
  5
3A7
100
AcDbEntity
  8
RACCORDO
100
AcDbLine
 62
7
  6
CONTINUOUS
 10
15.226787934
 20
23.3169872981
 11
15.226787934
 21
22.2844216746
  0
LINE
  5
3A8
100
AcDbEntity
  8
RACCORDO
100
AcDbLine
 62
7
  6
CONTINUOUS
 10
15.226787934
 20
-22.2844216746
 11
15.226787934
 21
-23.3169872981
  0
LINE
  5
3A9
100
AcDbEntity
  8
RACCORDO
100
AcDbLine
 62
7
  6
CONTINUOUS
 10
15.2320239696
 20
24.2329794573
 11
15.2320239696
 21
23.8943375673
  0
LINE
  5
3AA
100
AcDbEntity
  8
RACCORDO
100
AcDbLine
 62
7
  6
CONTINUOUS
 10
15.2320239696
 20
-23.8943375673
 11
15.2320239696
 21
-24.2329794573
  0
LINE
  5
3AB
100
AcDbEntity
  8
RACCORDO
100
AcDbLine
 62
253
  6
CONTINUOUS
 10
15.4767845071
 20
23.1726497308
 11
15.4767845071
 21
22.2713883311
  0
LINE
  5
3AC
100
AcDbEntity
  8
RACCORDO
100
AcDbLine
 62
253
  6
CONTINUOUS
 10
15.4767845071
 20
-22.2713883311
 11
15.4767845071
 21
-23.1726497308
  0
LINE
  5
3AD
100
AcDbEntity
  8
RACCORDO
100
AcDbLine
 62
253
  6
CONTINUOUS
 10
15.4820205427
 20
-23.6778312164
 11
15.4820205427
 21
-24.4829760304
  0
LINE
  5
3AE
100
AcDbEntity
  8
RACCORDO
100
AcDbLine
 62
253
  6
CONTINUOUS
 10
15.4820205427
 20
23.6778312164
 11
15.4820205427
 21
24.4829760304
  0
LINE
  5
3AF
100
AcDbEntity
  8
DRAFT
100
AcDbLine
 62
7
  6
CONTINUOUS
 10
12.415
 20
23.75
 11
12.4097639644
 21
23.1726497308
  0
LINE
  5
3B0
100
AcDbEntity
  8
DRAFT
100
AcDbLine
 62
7
  6
CONTINUOUS
 10
12.4202360356
 20
-23.1726497308
 11
12.415
 21
-23.74996875
  0
LINE
  5
3B1
100
AcDbEntity
  8
RACCORDO
100
AcDbLine
 62
253
  6
CONTINUOUS
 10
15.226787934
 20
23.3169872981
 11
15.2320239696
 21
23.8943375673
  0
LINE
  5
3B2
100
AcDbEntity
  8
RACCORDO
100
AcDbLine
 62
253
  6
CONTINUOUS
 10
15.4774390115
 20
23.1726497308
 11
15.4820205427
 21
23.6778312164
  0
LINE
  5
3B3
100
AcDbEntity
  8
DRAFT
100
AcDbLine
 62
7
  6
CONTINUOUS
 10
15.2202360356
 20
-23.1726497308
 11
15.215
 21
-23.75
  0
LINE
  5
3B4
100
AcDbEntity
  8
RACCORDO
100
AcDbLine
 62
253
  6
CONTINUOUS
 10
-7.2679760304
 20
-24.2329794573
 11
-7.285
 21
-24.2500034269
  0
LINE
  5
3B5
100
AcDbEntity
  8
RACCORDO
100
AcDbLine
 62
253
  6
CONTINUOUS
 10
-7.0179794573
 20
-24.4829760304
 11
-7.0350034269
 21
-24.5
  0
LINE
  5
3B6
100
AcDbEntity
  8
RACCORDO
100
AcDbLine
 62
253
  6
CONTINUOUS
 10
-7.2679760304
 20
24.2329794573
 11
-7.285
 21
24.2500034269
  0
LINE
  5
3B7
100
AcDbEntity
  8
RACCORDO
100
AcDbLine
 62
253
  6
CONTINUOUS
 10
-7.0179794573
 20
24.4829760304
 11
-7.0350034269
 21
24.5
  0
LINE
  5
3B8
100
AcDbEntity
  8
DRAFT
100
AcDbLine
 62
7
  6
CONTINUOUS
 10
18.1097639644
 20
-23.1726497308
 11
18.115
 21
-23.75
  0
LINE
  5
3B9
100
AcDbEntity
  8
RACCORDO
100
AcDbLine
 62
253
  6
CONTINUOUS
 10
17.8479794573
 20
23.6778312164
 11
17.8525609885
 21
23.1726497308
  0
LINE
  5
3BA
100
AcDbEntity
  8
RACCORDO
100
AcDbLine
 62
253
  6
CONTINUOUS
 10
18.0979760304
 20
23.8943375673
 11
18.103212066
 21
23.3169872981
  0
LINE
  5
3BB
100
AcDbEntity
  8
RACCORDO
100
AcDbLine
 62
253
  6
CONTINUOUS
 10
17.8479794573
 20
-23.6778312164
 11
17.8479794573
 21
-24.4829760304
  0
LINE
  5
3BC
100
AcDbEntity
  8
RACCORDO
100
AcDbLine
 62
253
  6
CONTINUOUS
 10
17.8479794573
 20
23.6778312164
 11
17.8479794573
 21
24.4829760304
  0
LINE
  5
3BD
100
AcDbEntity
  8
RACCORDO
100
AcDbLine
 62
253
  6
CONTINUOUS
 10
17.8532154929
 20
-23.1726497308
 11
17.8532154929
 21
-22.2713883311
  0
LINE
  5
3BE
100
AcDbEntity
  8
RACCORDO
100
AcDbLine
 62
253
  6
CONTINUOUS
 10
17.8532154929
 20
22.2713883311
 11
17.8532154929
 21
23.1726497308
  0
LINE
  5
3BF
100
AcDbEntity
  8
RACCORDO
100
AcDbLine
 62
7
  6
CONTINUOUS
 10
18.0979760304
 20
-24.2329794573
 11
18.0979760304
 21
-23.8943375673
  0
LINE
  5
3C0
100
AcDbEntity
  8
RACCORDO
100
AcDbLine
 62
7
  6
CONTINUOUS
 10
18.0979760304
 20
23.8943375673
 11
18.0979760304
 21
24.2329794573
  0
LINE
  5
3C1
100
AcDbEntity
  8
RACCORDO
100
AcDbLine
 62
7
  6
CONTINUOUS
 10
18.103212066
 20
-23.3169872981
 11
18.103212066
 21
-22.2844216746
  0
LINE
  5
3C2
100
AcDbEntity
  8
RACCORDO
100
AcDbLine
 62
7
  6
CONTINUOUS
 10
18.103212066
 20
22.2844216746
 11
18.103212066
 21
23.3169872981
  0
LINE
  5
3C3
100
AcDbEntity
  8
DRAFT
100
AcDbLine
 62
7
  6
CONTINUOUS
 10
18.1097639644
 20
-23.1726497308
 11
18.1097639644
 21
-22.35
  0
LINE
  5
3C4
100
AcDbEntity
  8
DRAFT
100
AcDbLine
 62
7
  6
CONTINUOUS
 10
18.1097639644
 20
22.35
 11
18.1097639644
 21
23.1726497308
  0
LINE
  5
3C5
100
AcDbEntity
  8
RACCORDO
100
AcDbLine
 62
7
  6
CONTINUOUS
 10
18.115
 20
-24.2500034269
 11
18.115
 21
-23.75
  0
LINE
  5
3C6
100
AcDbEntity
  8
RACCORDO
100
AcDbLine
 62
7
  6
CONTINUOUS
 10
18.115
 20
23.75
 11
18.115
 21
24.2500034269
  0
LINE
  5
3C7
100
AcDbEntity
  8
RACCORDO
100
AcDbLine
 62
253
  6
CONTINUOUS
 10
18.4268572029
 20
9.5
 11
18.4268572029
 21
-9.5
  0
LINE
  5
3C8
100
AcDbEntity
  8
RACCORDO
100
AcDbLine
 62
7
  6
CONTINUOUS
 10
19.065
 20
21.8495424962
 11
19.065
 21
21.6
  0
LINE
  5
3C9
100
AcDbEntity
  8
RACCORDO
100
AcDbLine
 62
7
  6
CONTINUOUS
 10
19.065
 20
-21.8495424962
 11
19.065
 21
-21.6
  0
LINE
  5
3CA
100
AcDbEntity
  8
DRAFT
100
AcDbLine
 62
7
  6
CONTINUOUS
 10
19.0824550649
 20
-21.0226497308
 11
19.0824550649
 21
21.0226497308
  0
LINE
  5
3CB
100
AcDbEntity
  8
RACCORDO
100
AcDbLine
 62
7
  6
CONTINUOUS
 10
19.115
 20
-21.4001523048
 11
19.115
 21
21.4001523048
  0
LINE
  5
3CC
100
AcDbEntity
  8
ASSI
100
AcDbLine
 62
7
  6
CONTINUOUS
 10
19.115
 20
-21.4001523048
 11
19.115
 21
21.4001523048
  0
LINE
  5
3CD
100
AcDbEntity
  8
DRAFT
100
AcDbLine
 62
7
  6
CONTINUOUS
 10
18.115
 20
23.75
 11
18.1097639644
 21
23.1726497308
  0
LINE
  5
3CE
100
AcDbEntity
  8
RACCORDO
100
AcDbLine
 62
253
  6
CONTINUOUS
 10
17.8525609885
 20
-23.1726497308
 11
17.8479794573
 21
-23.6778312164
  0
LINE
  5
3CF
100
AcDbEntity
  8
RACCORDO
100
AcDbLine
 62
253
  6
CONTINUOUS
 10
18.103212066
 20
-23.3169872981
 11
18.0979760304
 21
-23.8943375673
  0
LINE
  5
3D0
100
AcDbEntity
  8
RACCORDO
100
AcDbLine
 62
253
  6
CONTINUOUS
 10
-2.1679760304
 20
-24.2329794573
 11
-2.185
 21
-24.2500034269
  0
LINE
  5
3D1
100
AcDbEntity
  8
RACCORDO
100
AcDbLine
 62
253
  6
CONTINUOUS
 10
-1.9179794573
 20
-24.4829760304
 11
-1.9350034269
 21
-24.5
  0
LINE
  5
3D2
100
AcDbEntity
  8
RACCORDO
100
AcDbLine
 62
253
  6
CONTINUOUS
 10
-2.1679760304
 20
24.2329794573
 11
-2.185
 21
24.2500034269
  0
LINE
  5
3D3
100
AcDbEntity
  8
RACCORDO
100
AcDbLine
 62
253
  6
CONTINUOUS
 10
-1.9179794573
 20
24.4829760304
 11
-1.9350034269
 21
24.5
  0
LINE
  5
3D4
100
AcDbEntity
  8
DRAFT
100
AcDbLine
 62
7
  6
CONTINUOUS
 10
19.0824550649
 20
21.0226497308
 11
19.065
 21
21.6
  0
LINE
  5
3D5
100
AcDbEntity
  8
DRAFT
100
AcDbLine
 62
7
  6
CONTINUOUS
 10
19.065
 20
-21.6
 11
19.0824550649
 21
-21.0226497308
  0
LINE
  5
3D6
100
AcDbEntity
  8
RACCORDO
100
AcDbLine
 62
7
  6
CONTINUOUS
 10
8.965
 20
-22.4024077793
 11
9.0106407438
 21
-22.3339118652
  0
LINE
  5
3D7
100
AcDbEntity
  8
DRAFT
100
AcDbLine
 62
7
  6
CONTINUOUS
 10
3.515
 20
-24.0
 11
3.528090089
 21
-23.986909911
  0
LINE
  5
3D8
100
AcDbEntity
  8
RACCORDO
100
AcDbLine
 62
253
  6
CONTINUOUS
 10
6.9193592562
 20
23.7931904121
 11
6.965
 21
23.8000338054
  0
LINE
  5
3D9
100
AcDbEntity
  8
RACCORDO
100
AcDbLine
 62
253
  6
CONTINUOUS
 10
6.7194810908
 20
23.9931876706
 11
6.7649146599
 21
24.0
  0
LINE
  5
3DA
100
AcDbEntity
  8
RACCORDO
100
AcDbLine
 62
253
  6
CONTINUOUS
 10
-25.013908939
 20
21.1597536899
 11
18.443908939
 21
21.1597536899
  0
LINE
  5
3DB
100
AcDbEntity
  8
RACCORDO
100
AcDbLine
 62
253
  6
CONTINUOUS
 10
-25.0220828712
 20
22.0098304059
 11
18.4520828712
 21
22.0098304059
  0
LINE
  5
3DC
100
AcDbEntity
  8
RACCORDO
100
AcDbLine
 62
7
  6
CONTINUOUS
 10
-24.4232154929
 20
22.2713883311
 11
-22.0467845071
 21
22.2713883311
  0
LINE
  5
3DD
100
AcDbEntity
  8
RACCORDO
100
AcDbLine
 62
7
  6
CONTINUOUS
 10
17.8532154929
 20
22.2713883311
 11
15.4767845071
 21
22.2713883311
  0
LINE
  5
3DE
100
AcDbEntity
  8
DRAFT
100
AcDbLine
 62
7
  6
CONTINUOUS
 10
12.401909911
 20
22.2713883311
 11
11.465
 21
22.2713883311
  0
LINE
  5
3DF
100
AcDbEntity
  8
RACCORDO
100
AcDbLine
 62
7
  6
CONTINUOUS
 10
-7.0232154929
 20
22.2713883311
 11
-4.6467845071
 21
22.2713883311
  0
LINE
  5
3E0
100
AcDbEntity
  8
DRAFT
100
AcDbLine
 62
7
  6
CONTINUOUS
 10
4.465
 20
22.2713883311
 11
3.528090089
 21
22.2713883311
  0
LINE
  5
3E1
100
AcDbEntity
  8
RACCORDO
100
AcDbLine
 62
7
  6
CONTINUOUS
 10
0.4532154929
 20
22.2713883311
 11
-1.9232154929
 21
22.2713883311
  0
LINE
  5
3E2
100
AcDbEntity
  8
DRAFT
100
AcDbLine
 62
7
  6
CONTINUOUS
 10
-10.098090089
 20
22.2713883311
 11
-11.035
 21
22.2713883311
  0
LINE
  5
3E3
100
AcDbEntity
  8
DRAFT
100
AcDbLine
 62
7
  6
CONTINUOUS
 10
-18.035
 20
22.2713883311
 11
-18.971909911
 21
22.2713883311
  0
LINE
  5
3E4
100
AcDbEntity
  8
RACCORDO
100
AcDbLine
 62
7
  6
CONTINUOUS
 10
-18.035
 20
22.3237961104
 11
-15.7805189092
 21
22.3237961104
  0
LINE
  5
3E5
100
AcDbEntity
  8
RACCORDO
100
AcDbLine
 62
7
  6
CONTINUOUS
 10
-13.2894810908
 20
22.3237961104
 11
-11.035
 21
22.3237961104
  0
LINE
  5
3E6
100
AcDbEntity
  8
RACCORDO
100
AcDbLine
 62
7
  6
CONTINUOUS
 10
4.465
 20
22.3237961104
 11
6.7194810908
 21
22.3237961104
  0
LINE
  5
3E7
100
AcDbEntity
  8
RACCORDO
100
AcDbLine
 62
7
  6
CONTINUOUS
 10
9.2105189092
 20
22.3237961104
 11
11.465
 21
22.3237961104
  0
LINE
  5
3E8
100
AcDbEntity
  8
RACCORDO
100
AcDbLine
 62
7
  6
CONTINUOUS
 10
18.5652093253
 20
22.35
 11
18.1097639644
 21
22.35
  0
LINE
  5
3E9
100
AcDbEntity
  8
DRAFT
100
AcDbLine
 62
7
  6
CONTINUOUS
 10
15.2202360356
 20
22.35
 11
12.4097639644
 21
22.35
  0
LINE
  5
3EA
100
AcDbEntity
  8
DRAFT
100
AcDbLine
 62
7
  6
CONTINUOUS
 10
0.7097639644
 20
22.35
 11
3.5202360356
 21
22.35
  0
LINE
  5
3EB
100
AcDbEntity
  8
DRAFT
100
AcDbLine
 62
7
  6
CONTINUOUS
 10
-2.1797639644
 20
22.35
 11
-4.3902360356
 21
22.35
  0
LINE
  5
3EC
100
AcDbEntity
  8
DRAFT
100
AcDbLine
 62
7
  6
CONTINUOUS
 10
-7.2797639644
 20
22.35
 11
-10.0902360356
 21
22.35
  0
LINE
  5
3ED
100
AcDbEntity
  8
DRAFT
100
AcDbLine
 62
7
  6
CONTINUOUS
 10
-18.9797639644
 20
22.35
 11
-21.7902360356
 21
22.35
  0
LINE
  5
3EE
100
AcDbEntity
  8
RACCORDO
100
AcDbLine
 62
7
  6
CONTINUOUS
 10
-24.6797639644
 20
22.35
 11
-25.1352093253
 21
22.35
  0
LINE
  5
3EF
100
AcDbEntity
  8
RACCORDO
100
AcDbLine
 62
7
  6
CONTINUOUS
 10
-24.6851523048
 20
22.4
 11
-24.6797639644
 21
22.4
  0
LINE
  5
3F0
100
AcDbEntity
  8
ASSI
100
AcDbLine
 62
7
  6
CONTINUOUS
 10
-24.6851523048
 20
22.4
 11
-24.6797639644
 21
22.4
  0
LINE
  5
3F1
100
AcDbEntity
  8
RACCORDO
100
AcDbLine
 62
7
  6
CONTINUOUS
 10
-21.7902360356
 20
22.4
 11
-18.9902360356
 21
22.4
  0
LINE
  5
3F2
100
AcDbEntity
  8
ASSI
100
AcDbLine
 62
7
  6
CONTINUOUS
 10
-21.7902360356
 20
22.4
 11
-18.9902360356
 21
22.4
  0
LINE
  5
3F3
100
AcDbEntity
  8
DRAFT
100
AcDbLine
 62
7
  6
CONTINUOUS
 10
-10.0797639644
 20
22.4
 11
-7.2797639644
 21
22.4
  0
LINE
  5
3F4
100
AcDbEntity
  8
ASSI
100
AcDbLine
 62
7
  6
CONTINUOUS
 10
-10.0797639644
 20
22.4
 11
-7.2797639644
 21
22.4
  0
LINE
  5
3F5
100
AcDbEntity
  8
DRAFT
100
AcDbLine
 62
7
  6
CONTINUOUS
 10
-4.3902360356
 20
22.4
 11
-2.1797639644
 21
22.4
  0
LINE
  5
3F6
100
AcDbEntity
  8
ASSI
100
AcDbLine
 62
7
  6
CONTINUOUS
 10
-4.3902360356
 20
22.4
 11
-2.1797639644
 21
22.4
  0
LINE
  5
3F7
100
AcDbEntity
  8
DRAFT
100
AcDbLine
 62
7
  6
CONTINUOUS
 10
0.7097639644
 20
22.4
 11
3.5097639644
 21
22.4
  0
LINE
  5
3F8
100
AcDbEntity
  8
ASSI
100
AcDbLine
 62
7
  6
CONTINUOUS
 10
0.7097639644
 20
22.4
 11
3.5097639644
 21
22.4
  0
LINE
  5
3F9
100
AcDbEntity
  8
RACCORDO
100
AcDbLine
 62
7
  6
CONTINUOUS
 10
12.4202360356
 20
22.4
 11
15.2202360356
 21
22.4
  0
LINE
  5
3FA
100
AcDbEntity
  8
ASSI
100
AcDbLine
 62
7
  6
CONTINUOUS
 10
12.4202360356
 20
22.4
 11
15.2202360356
 21
22.4
  0
LINE
  5
3FB
100
AcDbEntity
  8
RACCORDO
100
AcDbLine
 62
7
  6
CONTINUOUS
 10
18.1097639644
 20
22.4
 11
18.1151523048
 21
22.4
  0
LINE
  5
3FC
100
AcDbEntity
  8
ASSI
100
AcDbLine
 62
7
  6
CONTINUOUS
 10
18.1097639644
 20
22.4
 11
18.1151523048
 21
22.4
  0
LINE
  5
3FD
100
AcDbEntity
  8
DRAFT
100
AcDbLine
 62
7
  6
CONTINUOUS
 10
-15.535
 20
22.4024077793
 11
-13.535
 21
22.4024077793
  0
LINE
  5
3FE
100
AcDbEntity
  8
DRAFT
100
AcDbLine
 62
7
  6
CONTINUOUS
 10
6.965
 20
22.4024077793
 11
8.965
 21
22.4024077793
  0
LINE
  5
3FF
100
AcDbEntity
  8
RACCORDO
100
AcDbLine
 62
253
  6
CONTINUOUS
 10
-13.535
 20
23.8000338054
 11
-13.4893592562
 21
23.7931904121
  0
LINE
  5
400
100
AcDbEntity
  8
RACCORDO
100
AcDbLine
 62
253
  6
CONTINUOUS
 10
-13.3349146599
 20
24.0
 11
-13.2894810908
 21
23.9931876706
  0
LINE
  5
401
100
AcDbEntity
  8
DRAFT
100
AcDbLine
 62
7
  6
CONTINUOUS
 10
3.515
 20
24.0
 11
3.528090089
 21
23.986909911
  0
LINE
  5
402
100
AcDbEntity
  8
RACCORDO
100
AcDbLine
 62
7
  6
CONTINUOUS
 10
9.0106407438
 20
22.3339118652
 11
8.965
 21
22.4024077793
  0
LINE
  5
403
100
AcDbEntity
  8
RACCORDO
100
AcDbLine
 62
253
  6
CONTINUOUS
 10
-15.5806407438
 20
23.7931904121
 11
-15.535
 21
23.8000338054
  0
LINE
  5
404
100
AcDbEntity
  8
RACCORDO
100
AcDbLine
 62
253
  6
CONTINUOUS
 10
-15.7805189092
 20
23.9931876706
 11
-15.7350853401
 21
24.0
  0
LINE
  5
405
100
AcDbEntity
  8
RACCORDO
100
AcDbLine
 62
7
  6
CONTINUOUS
 10
-24.4232154929
 20
23.1726497308
 11
-22.0467845071
 21
23.1726497308
  0
LINE
  5
406
100
AcDbEntity
  8
DRAFT
100
AcDbLine
 62
7
  6
CONTINUOUS
 10
-18.9902360356
 20
23.1726497308
 11
-18.9797639644
 21
23.1726497308
  0
LINE
  5
407
100
AcDbEntity
  8
RACCORDO
100
AcDbLine
 62
7
  6
CONTINUOUS
 10
17.8532154929
 20
23.1726497308
 11
15.4767845071
 21
23.1726497308
  0
LINE
  5
408
100
AcDbEntity
  8
DRAFT
100
AcDbLine
 62
7
  6
CONTINUOUS
 10
12.4202360356
 20
23.1726497308
 11
12.4097639644
 21
23.1726497308
  0
LINE
  5
409
100
AcDbEntity
  8
RACCORDO
100
AcDbLine
 62
7
  6
CONTINUOUS
 10
-1.9232154929
 20
23.1726497308
 11
0.4532154929
 21
23.1726497308
  0
LINE
  5
40A
100
AcDbEntity
  8
DRAFT
100
AcDbLine
 62
7
  6
CONTINUOUS
 10
3.5097639644
 20
23.1726497308
 11
3.5202360356
 21
23.1726497308
  0
LINE
  5
40B
100
AcDbEntity
  8
RACCORDO
100
AcDbLine
 62
7
  6
CONTINUOUS
 10
-4.6467845071
 20
23.1726497308
 11
-7.0232154929
 21
23.1726497308
  0
LINE
  5
40C
100
AcDbEntity
  8
DRAFT
100
AcDbLine
 62
7
  6
CONTINUOUS
 10
-10.0797639644
 20
23.1726497308
 11
-10.0902360356
 21
23.1726497308
  0
LINE
  5
40D
100
AcDbEntity
  8
RACCORDO
100
AcDbLine
 62
253
  6
CONTINUOUS
 10
-24.4179794573
 20
23.6778312164
 11
-22.0520205427
 21
23.6778312164
  0
LINE
  5
40E
100
AcDbEntity
  8
RACCORDO
100
AcDbLine
 62
253
  6
CONTINUOUS
 10
-7.0179794573
 20
23.6778312164
 11
-4.6520205427
 21
23.6778312164
  0
LINE
  5
40F
100
AcDbEntity
  8
RACCORDO
100
AcDbLine
 62
253
  6
CONTINUOUS
 10
-1.9179794573
 20
23.6778312164
 11
0.4479794573
 21
23.6778312164
  0
LINE
  5
410
100
AcDbEntity
  8
RACCORDO
100
AcDbLine
 62
253
  6
CONTINUOUS
 10
15.4820205427
 20
23.6778312164
 11
17.8479794573
 21
23.6778312164
  0
LINE
  5
411
100
AcDbEntity
  8
RACCORDO
100
AcDbLine
 62
253
  6
CONTINUOUS
 10
4.465
 20
23.7931904121
 11
6.9193592562
 21
23.7931904121
  0
LINE
  5
412
100
AcDbEntity
  8
RACCORDO
100
AcDbLine
 62
253
  6
CONTINUOUS
 10
9.0106407438
 20
23.7931904121
 11
11.465
 21
23.7931904121
  0
LINE
  5
413
100
AcDbEntity
  8
RACCORDO
100
AcDbLine
 62
253
  6
CONTINUOUS
 10
-11.035
 20
23.7931904121
 11
-13.4893592562
 21
23.7931904121
  0
LINE
  5
414
100
AcDbEntity
  8
RACCORDO
100
AcDbLine
 62
253
  6
CONTINUOUS
 10
-15.5806407438
 20
23.7931904121
 11
-18.035
 21
23.7931904121
  0
LINE
  5
415
100
AcDbEntity
  8
RACCORDO
100
AcDbLine
 62
253
  6
CONTINUOUS
 10
0.6979760304
 20
23.8943375673
 11
-2.1679760304
 21
23.8943375673
  0
LINE
  5
416
100
AcDbEntity
  8
RACCORDO
100
AcDbLine
 62
253
  6
CONTINUOUS
 10
-4.4020239696
 20
23.8943375673
 11
-7.2679760304
 21
23.8943375673
  0
LINE
  5
417
100
AcDbEntity
  8
RACCORDO
100
AcDbLine
 62
253
  6
CONTINUOUS
 10
15.2320239696
 20
23.8943375673
 11
18.0979760304
 21
23.8943375673
  0
LINE
  5
418
100
AcDbEntity
  8
RACCORDO
100
AcDbLine
 62
253
  6
CONTINUOUS
 10
-21.8020239696
 20
23.8943375673
 11
-24.6679760304
 21
23.8943375673
  0
LINE
  5
419
100
AcDbEntity
  8
DRAFT
100
AcDbLine
 62
7
  6
CONTINUOUS
 10
3.528090089
 20
23.986909911
 11
4.465
 21
23.986909911
  0
LINE
  5
41A
100
AcDbEntity
  8
DRAFT
100
AcDbLine
 62
7
  6
CONTINUOUS
 10
-10.098090089
 20
23.986909911
 11
-11.035
 21
23.986909911
  0
LINE
  5
41B
100
AcDbEntity
  8
DRAFT
100
AcDbLine
 62
7
  6
CONTINUOUS
 10
11.465
 20
23.986909911
 11
12.401909911
 21
23.986909911
  0
LINE
  5
41C
100
AcDbEntity
  8
DRAFT
100
AcDbLine
 62
7
  6
CONTINUOUS
 10
-18.035
 20
23.986909911
 11
-18.971909911
 21
23.986909911
  0
LINE
  5
41D
100
AcDbEntity
  8
RACCORDO
100
AcDbLine
 62
7
  6
CONTINUOUS
 10
11.465
 20
23.9931876706
 11
9.2105189092
 21
23.9931876706
  0
LINE
  5
41E
100
AcDbEntity
  8
RACCORDO
100
AcDbLine
 62
7
  6
CONTINUOUS
 10
6.7194810908
 20
23.9931876706
 11
4.465
 21
23.9931876706
  0
LINE
  5
41F
100
AcDbEntity
  8
RACCORDO
100
AcDbLine
 62
7
  6
CONTINUOUS
 10
-11.035
 20
23.9931876706
 11
-13.2894810908
 21
23.9931876706
  0
LINE
  5
420
100
AcDbEntity
  8
RACCORDO
100
AcDbLine
 62
7
  6
CONTINUOUS
 10
-15.7805189092
 20
23.9931876706
 11
-18.035
 21
23.9931876706
  0
LINE
  5
421
100
AcDbEntity
  8
RACCORDO
100
AcDbLine
 62
7
  6
CONTINUOUS
 10
-18.985
 20
24.0
 11
-15.7350853401
 21
24.0
  0
LINE
  5
422
100
AcDbEntity
  8
RACCORDO
100
AcDbLine
 62
7
  6
CONTINUOUS
 10
-13.3349146599
 20
24.0
 11
-10.085
 21
24.0
  0
LINE
  5
423
100
AcDbEntity
  8
RACCORDO
100
AcDbLine
 62
7
  6
CONTINUOUS
 10
3.515
 20
24.0
 11
6.7649146599
 21
24.0
  0
LINE
  5
424
100
AcDbEntity
  8
RACCORDO
100
AcDbLine
 62
7
  6
CONTINUOUS
 10
9.1650853401
 20
24.0
 11
12.415
 21
24.0
  0
LINE
  5
425
100
AcDbEntity
  8
RACCORDO
100
AcDbLine
 62
253
  6
CONTINUOUS
 10
0.6979760304
 20
24.2329794573
 11
-2.1679760304
 21
24.2329794573
  0
LINE
  5
426
100
AcDbEntity
  8
RACCORDO
100
AcDbLine
 62
253
  6
CONTINUOUS
 10
-4.4020239696
 20
24.2329794573
 11
-7.2679760304
 21
24.2329794573
  0
LINE
  5
427
100
AcDbEntity
  8
RACCORDO
100
AcDbLine
 62
253
  6
CONTINUOUS
 10
15.2320239696
 20
24.2329794573
 11
18.0979760304
 21
24.2329794573
  0
LINE
  5
428
100
AcDbEntity
  8
RACCORDO
100
AcDbLine
 62
253
  6
CONTINUOUS
 10
-21.8020239696
 20
24.2329794573
 11
-24.6679760304
 21
24.2329794573
  0
LINE
  5
429
100
AcDbEntity
  8
RACCORDO
100
AcDbLine
 62
7
  6
CONTINUOUS
 10
17.8479794573
 20
24.4829760304
 11
15.4820205427
 21
24.4829760304
  0
LINE
  5
42A
100
AcDbEntity
  8
RACCORDO
100
AcDbLine
 62
7
  6
CONTINUOUS
 10
0.4479794573
 20
24.4829760304
 11
-1.9179794573
 21
24.4829760304
  0
LINE
  5
42B
100
AcDbEntity
  8
RACCORDO
100
AcDbLine
 62
7
  6
CONTINUOUS
 10
-4.6520205427
 20
24.4829760304
 11
-7.0179794573
 21
24.4829760304
  0
LINE
  5
42C
100
AcDbEntity
  8
RACCORDO
100
AcDbLine
 62
7
  6
CONTINUOUS
 10
-22.0520205427
 20
24.4829760304
 11
-24.4179794573
 21
24.4829760304
  0
LINE
  5
42D
100
AcDbEntity
  8
RACCORDO
100
AcDbLine
 62
7
  6
CONTINUOUS
 10
17.8650034269
 20
24.5
 11
15.4649965731
 21
24.5
  0
LINE
  5
42E
100
AcDbEntity
  8
RACCORDO
100
AcDbLine
 62
7
  6
CONTINUOUS
 10
0.4650034269
 20
24.5
 11
-1.9350034269
 21
24.5
  0
LINE
  5
42F
100
AcDbEntity
  8
RACCORDO
100
AcDbLine
 62
7
  6
CONTINUOUS
 10
-4.6349965731
 20
24.5
 11
-7.0350034269
 21
24.5
  0
LINE
  5
430
100
AcDbEntity
  8
RACCORDO
100
AcDbLine
 62
7
  6
CONTINUOUS
 10
-22.0349965731
 20
24.5
 11
-24.4350034269
 21
24.5
  0
LINE
  5
431
100
AcDbEntity
  8
RACCORDO
100
AcDbLine
 62
253
  6
CONTINUOUS
 10
8.965
 20
23.8000338054
 11
9.0106407438
 21
23.7931904121
  0
LINE
  5
432
100
AcDbEntity
  8
RACCORDO
100
AcDbLine
 62
253
  6
CONTINUOUS
 10
9.1650853401
 20
24.0
 11
9.2105189092
 21
23.9931876706
  0
LINE
  5
433
100
AcDbEntity
  8
RACCORDO
100
AcDbLine
 62
253
  6
CONTINUOUS
 10
15.2320239696
 20
-24.2329794573
 11
15.215
 21
-24.2500034269
  0
LINE
  5
434
100
AcDbEntity
  8
RACCORDO
100
AcDbLine
 62
253
  6
CONTINUOUS
 10
15.4820205427
 20
-24.4829760304
 11
15.4649965731
 21
-24.5
  0
LINE
  5
435
100
AcDbEntity
  8
RACCORDO
100
AcDbLine
 62
253
  6
CONTINUOUS
 10
15.2320239696
 20
24.2329794573
 11
15.215
 21
24.2500034269
  0
LINE
  5
436
100
AcDbEntity
  8
RACCORDO
100
AcDbLine
 62
253
  6
CONTINUOUS
 10
15.4820205427
 20
24.4829760304
 11
15.4649965731
 21
24.5
  0
LWPOLYLINE
  5
437
100
AcDbEntity
  8
0
100
AcDbPolyline
 62
7
  6
CONTINUOUS
 90
10
 70
0
 10
-89.6393758836
 20
0.0
 10
-89.6291995412
 20
-0.6479166073
 10
-89.5935063571
 20
-1.3756253521
 10
-89.532232346
 20
-2.101633025
 10
-89.4454710286
 20
-2.8250401036
 10
-89.3333160614
 20
-3.5449457381
 10
-89.1958614634
 20
-4.2604477867
 10
-89.0332311612
 20
-4.970652386
 10
-88.8456711787
 20
-5.6746913827
 10
-88.630572571
 20
-6.3806095254
  0
LINE
  5
438
100
AcDbEntity
  8
0
100
AcDbLine
 62
7
  6
CONTINUOUS
 10
-88.5670981667
 20
-7.2297404107
 11
-88.5670981667
 21
-7.8070906799
  0
LWPOLYLINE
  5
439
100
AcDbEntity
  8
0
100
AcDbPolyline
 62
7
  6
CONTINUOUS
 90
13
 70
0
 10
-87.8816292266
 20
8.3443408882
 10
-88.1336883935
 20
7.7473777245
 10
-88.3945874178
 20
7.0671094104
 10
-88.6313932172
 20
6.3780782812
 10
-88.8438284979
 20
5.6811451451
 10
-89.0316155544
 20
4.97717208
 10
-89.1944764923
 20
4.2670224922
 10
-89.3321641219
 20
3.5515642776
 10
-89.4445533469
 20
2.8316910606
 10
-89.5315498191
 20
2.108304944
 10
-89.5930595506
 20
1.3823067642
 10
-89.6289886868
 20
0.6545960552
 10
-89.6393758836
 20
0.0
  0
LINE
  5
43A
100
AcDbEntity
  8
0
100
AcDbLine
 62
7
  6
CONTINUOUS
 10
-87.8790846442
 20
8.350110292
 11
-87.8816292267
 21
8.344340888
  0
LINE
  5
43B
100
AcDbEntity
  8
RACCORDO
100
AcDbLine
 62
7
  6
CONTINUOUS
 10
-66.6393758836
 20
-22.35
 11
-65.6393758836
 21
-22.2975922207
  0
LINE
  5
43C
100
AcDbEntity
  8
RACCORDO
100
AcDbLine
 62
253
  6
CONTINUOUS
 10
-66.6393758836
 20
-21.8495424962
 11
-65.6393758836
 21
-21.7971347169
  0
LINE
  5
43D
100
AcDbEntity
  8
RACCORDO
100
AcDbLine
 62
7
  6
CONTINUOUS
 10
-47.775530786
 20
-22.088185424
 11
-65.6393758836
 21
-22.4
  0
LINE
  5
43E
100
AcDbEntity
  8
ASSI
100
AcDbLine
 62
7
  6
CONTINUOUS
 10
-47.775530786
 20
-22.088185424
 11
-65.6393758836
 21
-22.4
  0
LINE
  5
43F
100
AcDbEntity
  8
RACCORDO
100
AcDbLine
 62
7
  6
CONTINUOUS
 10
-65.6393758836
 20
-23.8
 11
-59.1350126158
 21
-23.7432372817
  0
LINE
  5
440
100
AcDbEntity
  8
ASSI
100
AcDbLine
 62
7
  6
CONTINUOUS
 10
-65.6393758836
 20
-23.8
 11
-59.1350126158
 21
-23.7432372817
  0
LINE
  5
441
100
AcDbEntity
  8
RACCORDO
100
AcDbLine
 62
253
  6
CONTINUOUS
 10
-68.8906848745
 20
-24.2329794573
 11
-69.1393758836
 21
-24.2329794573
  0
LINE
  5
442
100
AcDbEntity
  8
RACCORDO
100
AcDbLine
 62
253
  6
CONTINUOUS
 10
-69.1393758836
 20
-23.8943375673
 11
-68.8906848745
 21
-23.8943375673
  0
LINE
  5
443
100
AcDbEntity
  8
RACCORDO
100
AcDbLine
 62
7
  6
CONTINUOUS
 10
-68.8906848745
 20
-24.4829760304
 11
-65.6393758836
 21
-24.5
  0
LINE
  5
444
100
AcDbEntity
  8
RACCORDO
100
AcDbLine
 62
253
  6
CONTINUOUS
 10
-68.8906848745
 20
-24.2329794573
 11
-65.6393758836
 21
-24.2500034269
  0
LINE
  5
445
100
AcDbEntity
  8
RACCORDO
100
AcDbLine
 62
7
  6
CONTINUOUS
 10
-73.1301984058
 20
-22.0098304059
 11
-66.6393758836
 21
-22.35
  0
LINE
  5
446
100
AcDbEntity
  8
RACCORDO
100
AcDbLine
 62
253
  6
CONTINUOUS
 10
-73.1157320669
 20
-21.5103597025
 11
-66.6393758836
 21
-21.8497711479
  0
LINE
  5
447
100
AcDbEntity
  8
DRAFT
100
AcDbLine
 62
7
  6
CONTINUOUS
 10
-65.6393758836
 20
23.75
 11
-66.6393758836
 21
23.1726497308
  0
LWPOLYLINE
  5
448
100
AcDbEntity
  8
0
100
AcDbPolyline
 62
7
  6
CONTINUOUS
 90
28
 70
0
 10
-74.8475802238
 20
19.8276503392
 10
-75.4087648377
 20
19.652083227
 10
-76.040817007
 20
19.4330671267
 10
-76.6656931291
 20
19.1936757177
 10
-77.2827579332
 20
18.9341294576
 10
-77.8913209681
 20
18.6546709436
 10
-78.4906405136
 20
18.3555734228
 10
-79.0800621091
 20
18.03709584
 10
-79.6589802853
 20
17.6995882127
 10
-80.2267341093
 20
17.3434775961
 10
-80.7827356444
 20
16.969153211
 10
-81.3263966303
 20
16.5770044967
 10
-81.8570638572
 20
16.1674726676
 10
-82.3741543234
 20
15.740953122
 10
-82.8770993089
 20
15.2978614551
 10
-83.3653377478
 20
14.838752637
 10
-83.8383941742
 20
14.3641492363
 10
-84.2957943083
 20
13.8745726254
 10
-84.7370092776
 20
13.3706085437
 10
-85.1615714109
 20
12.8527832542
 10
-85.5690142496
 20
12.3216216739
 10
-85.9588489643
 20
11.777734855
 10
-86.3307258602
 20
11.2217301475
 10
-86.6843135676
 20
10.6542271795
 10
-87.0192405556
 20
10.0759177143
 10
-87.3351716143
 20
9.4874471022
 10
-87.631800131
 20
8.8894094728
 10
-87.8790846452
 20
8.3501102898
  0
LINE
  5
449
100
AcDbEntity
  8
RACCORDO
100
AcDbLine
 62
253
  6
CONTINUOUS
 10
-49.8306496804
 20
-21.1242047983
 11
-65.6393758836
 21
-21.4001523048
  0
LINE
  5
44A
100
AcDbEntity
  8
ASSI
100
AcDbLine
 62
253
  6
CONTINUOUS
 10
-49.8306496804
 20
-21.1242047983
 11
-65.6393758836
 21
-21.4001523048
  0
LINE
  5
44B
100
AcDbEntity
  8
DRAFT
100
AcDbLine
 62
7
  6
CONTINUOUS
 10
-45.8393771362
 20
-20.7272080287
 11
-46.7121827273
 21
-20.7348248877
  0
LINE
  5
44C
100
AcDbEntity
  8
ASSI
100
AcDbLine
 62
7
  6
CONTINUOUS
 10
-45.8393771362
 20
-20.7272080287
 11
-46.7121827273
 21
-20.7348248877
  0
LINE
  5
44D
100
AcDbEntity
  8
RACCORDO
100
AcDbLine
 62
253
  6
CONTINUOUS
 10
-49.3393758836
 20
-21.1242099625
 11
-49.8306496804
 21
-21.1242099625
  0
LINE
  5
44E
100
AcDbEntity
  8
ASSI
100
AcDbLine
 62
253
  6
CONTINUOUS
 10
-49.3393758836
 20
-21.1242099625
 11
-49.8306496804
 21
-21.1242099625
  0
LINE
  5
44F
100
AcDbEntity
  8
DRAFT
100
AcDbLine
 62
7
  6
CONTINUOUS
 10
-66.6393758836
 20
-23.1726497308
 11
-65.6393758836
 21
-23.75
  0
LINE
  5
450
100
AcDbEntity
  8
RACCORDO
100
AcDbLine
 62
7
  6
CONTINUOUS
 10
-82.4387195037
 20
-11.9226620198
 11
-88.0670981667
 21
-8.6731160837
  0
LWPOLYLINE
  5
451
100
AcDbEntity
  8
RACCORDO
100
AcDbPolyline
 62
7
  6
CONTINUOUS
 90
3
 70
0
 10
-88.0093017143
 20
-7.0675967398
 10
-87.9242602762
 20
-7.1305636788
 10
-87.8285580427
 20
-7.2021995367
  0
LWPOLYLINE
  5
452
100
AcDbEntity
  8
RACCORDO
100
AcDbPolyline
 62
7
  6
CONTINUOUS
 90
13
 70
0
 10
-87.8285580427
 20
-7.2021995367
 10
-87.7219414622
 20
-7.282901641
 10
-87.6051002973
 20
-7.3723468463
 10
-87.4788766364
 20
-7.4700708221
 10
-87.3431356932
 20
-7.5763303138
 10
-87.1984779553
 20
-7.6907954173
 10
-87.0456469228
 20
-7.8130088731
 10
-86.8845987656
 20
-7.9431382118
 10
-86.7159228597
 20
-8.0808297289
 10
-86.5402318592
 20
-8.2256947195
 10
-86.3573496463
 20
-8.3779878129
 10
-86.1675187092
 20
-8.5376150316
 10
-85.9715413741
 20
-8.7039964018
  0
LINE
  5
453
100
AcDbEntity
  8
RACCORDO
100
AcDbLine
 62
7
  6
CONTINUOUS
 10
-85.9715413741
 20
-8.7039964018
 11
-85.8036606632
 21
-8.84775306
  0
LWPOLYLINE
  5
454
100
AcDbEntity
  8
RACCORDO
100
AcDbPolyline
 62
7
  6
CONTINUOUS
 90
21
 70
0
 10
-85.8036708081
 20
-8.8477440568
 10
-85.6479751249
 20
-8.982034917
 10
-85.4419566388
 20
-9.161103016
 10
-85.2310095766
 20
-9.3460145759
 10
-85.0156555423
 20
-9.5363480163
 10
-84.7963001703
 20
-9.731783356
 10
-84.5732242873
 20
-9.9321023291
 10
-84.3468375688
 20
-10.1369549989
 10
-84.1176004816
 20
-10.3459479307
 10
-83.8858461018
 20
-10.5587986698
 10
-83.6520153089
 20
-10.7751060062
 10
-83.4165603241
 20
-10.9944714356
 10
-83.1798188383
 20
-11.2166255481
 10
-82.9421710228
 20
-11.4412439885
 10
-82.7041509379
 20
-11.6678570078
 10
-82.4663232097
 20
-11.8959819296
 10
-82.2290528309
 20
-12.1253132784
 10
-81.9928832667
 20
-12.3553653263
 10
-81.7586411441
 20
-12.5853800508
 10
-81.5268860869
 20
-12.814842532
 10
-81.2979241032
 20
-13.0434809572
  0
LWPOLYLINE
  5
455
100
AcDbEntity
  8
RACCORDO
100
AcDbPolyline
 62
7
  6
CONTINUOUS
 90
12
 70
0
 10
-74.461583183
 20
-20.0446005865
 10
-74.4435083613
 20
-20.0614638262
 10
-74.3957634182
 20
-20.1100618064
 10
-74.3514385414
 20
-20.1617974781
 10
-74.310739412
 20
-20.2164306006
 10
-74.2738549411
 20
-20.2737073514
 10
-74.2409563335
 20
-20.3333615072
 10
-74.2121959368
 20
-20.3951164094
 10
-74.1877068074
 20
-20.4586861694
 10
-74.1676025218
 20
-20.5237760393
 10
-74.1519764911
 20
-20.5900836757
 10
-74.1428131
 20
-20.6433581223
  0
LWPOLYLINE
  5
456
100
AcDbEntity
  8
RACCORDO
100
AcDbPolyline
 62
7
  6
CONTINUOUS
 90
6
 70
0
 10
-82.4415297121
 20
-11.9210395453
 10
-82.2258069986
 20
-12.1295926545
 10
-81.9899180171
 20
-12.3594253784
 10
-81.7559470669
 20
-12.5892242271
 10
-81.5244420185
 20
-12.8184806576
 10
-81.2957114591
 20
-13.0469157231
  0
LINE
  5
457
100
AcDbEntity
  8
RACCORDO
100
AcDbLine
 62
7
  6
CONTINUOUS
 10
-77.2231343015
 20
-17.0671218354
 11
-75.586122361
 21
-18.6526616375
  0
LINE
  5
458
100
AcDbEntity
  8
RACCORDO
100
AcDbLine
 62
7
  6
CONTINUOUS
 10
-75.754031763
 20
-18.4900035245
 11
-75.3031012408
 21
-18.9274636522
  0
LWPOLYLINE
  5
459
100
AcDbEntity
  8
RACCORDO
100
AcDbPolyline
 62
7
  6
CONTINUOUS
 90
27
 70
0
 10
-75.3030981764
 20
-18.92746589
 10
-75.2811128242
 20
-18.9490566783
 10
-75.2600823135
 20
-18.9701386639
 10
-75.2395707259
 20
-18.9911068645
 10
-75.2195671998
 20
-19.0119440552
 10
-75.2000661758
 20
-19.0326281484
 10
-75.1810541044
 20
-19.0531463574
 10
-75.1625196394
 20
-19.0734865689
 10
-75.1444615576
 20
-19.0936273255
 10
-75.1268699458
 20
-19.1135571276
 10
-75.1097317505
 20
-19.1332687485
 10
-75.0930420109
 20
-19.1527465342
 10
-75.0767917773
 20
-19.171981357
 10
-75.060969272
 20
-19.1909685906
 10
-75.0455664747
 20
-19.2096997075
 10
-75.0305727961
 20
-19.2281698216
 10
-75.0159795168
 20
-19.2463728411
 10
-75.0017824076
 20
-19.2642984651
 10
-74.9879736338
 20
-19.2819413355
 10
-74.9745435296
 20
-19.2992988892
 10
-74.9614859041
 20
-19.3163646611
 10
-74.9487934058
 20
-19.333134823
 10
-74.9364576093
 20
-19.3496076136
 10
-74.9244716607
 20
-19.3657795624
 10
-74.9128280824
 20
-19.3816484802
 10
-74.9015199063
 20
-19.3972124386
 10
-74.8905417416
 20
-19.4124678721
  0
LWPOLYLINE
  5
45A
100
AcDbEntity
  8
RACCORDO
100
AcDbPolyline
 62
7
  6
CONTINUOUS
 90
15
 70
0
 10
-81.2957114591
 20
-13.0469157231
 10
-80.8735934291
 20
-13.4721149615
 10
-80.567530014
 20
-13.7792998745
 10
-80.2638350968
 20
-14.0827971377
 10
-79.9630603371
 20
-14.3821743232
 10
-79.6657048257
 20
-14.6770507553
 10
-79.3722382543
 20
-14.9670709283
 10
-79.083171229
 20
-15.2518465584
 10
-78.7990155603
 20
-15.5309838077
 10
-78.5202415894
 20
-15.8041204634
 10
-78.24732001
 20
-16.0708834099
 10
-77.9807073914
 20
-16.330904705
 10
-77.720835157
 20
-16.5838440771
 10
-77.468161716
 20
-16.8293607326
 10
-77.2231343015
 20
-17.0671218354
  0
LWPOLYLINE
  5
45B
100
AcDbEntity
  8
RACCORDO
100
AcDbPolyline
 62
7
  6
CONTINUOUS
 90
16
 70
0
 10
-81.2979241032
 20
-13.0434809572
 10
-80.8756506408
 20
-13.4688946132
 10
-80.5695659616
 20
-13.7762071795
 10
-80.2658967746
 20
-14.0798023695
 10
-79.9652041828
 20
-14.3792251834
 10
-79.667970282
 20
-14.6740986905
 10
-79.3746286051
 20
-14.9640897656
 10
-79.085687992
 20
-15.2488061255
 10
-78.8016685367
 20
-15.5278464428
 10
-78.5230237585
 20
-15.8008672699
 10
-78.2502209266
 20
-16.067507685
 10
-77.983720277
 20
-16.3274076176
 10
-77.7239522355
 20
-16.580243123
 10
-77.4713776681
 20
-16.8256630459
 10
-77.2264365128
 20
-17.0633418279
 10
-75.9383978176
 20
-18.3110760205
  0
LINE
  5
45C
100
AcDbEntity
  8
RACCORDO
100
AcDbLine
 62
7
  6
CONTINUOUS
 10
-74.8905417416
 20
-19.4124678721
 11
-74.8695491992
 21
-19.4420469202
  0
LWPOLYLINE
  5
45D
100
AcDbEntity
  8
RACCORDO
100
AcDbPolyline
 62
7
  6
CONTINUOUS
 90
6
 70
0
 10
-74.8918962623
 20
-19.4105856084
 10
-74.8530527643
 20
-19.4656934334
 10
-74.8182784101
 20
-19.5166829169
 10
-74.7876005881
 20
-19.5630580702
 10
-74.7608331225
 20
-19.604695532
 10
-74.7381914476
 20
-19.6408851042
  0
LINE
  5
45E
100
AcDbEntity
  8
RACCORDO
100
AcDbLine
 62
7
  6
CONTINUOUS
 10
-74.8595235853
 20
-19.4563661997
 11
-74.849804214
 21
-19.470369981
  0
LINE
  5
45F
100
AcDbEntity
  8
0
100
AcDbLine
 62
7
  6
CONTINUOUS
 10
-88.3344757596
 20
-6.8268265826
 11
-88.5670981667
 21
-7.2297404107
  0
LINE
  5
460
100
AcDbEntity
  8
RACCORDO
100
AcDbLine
 62
7
  6
CONTINUOUS
 10
-45.8393758836
 20
-17.0
 11
-48.3713547448
 21
-17.0
  0
LINE
  5
461
100
AcDbEntity
  8
ASSI
100
AcDbLine
 62
7
  6
CONTINUOUS
 10
-45.8393758836
 20
-17.0
 11
-48.3713547448
 21
-17.0
  0
LINE
  5
462
100
AcDbEntity
  8
RACCORDO
100
AcDbLine
 62
253
  6
CONTINUOUS
 10
-45.3393758836
 20
-16.0
 11
-49.8306496804
 21
-16.0
  0
LINE
  5
463
100
AcDbEntity
  8
ASSI
100
AcDbLine
 62
253
  6
CONTINUOUS
 10
-45.3393758836
 20
-16.0
 11
-49.8306496804
 21
-16.0
  0
LINE
  5
464
100
AcDbEntity
  8
0
100
AcDbLine
 62
7
  6
CONTINUOUS
 10
-45.3393758836
 20
-15.7542
 11
-45.1393758836
 21
-15.7542
  0
LINE
  5
465
100
AcDbEntity
  8
ASSI
100
AcDbLine
 62
7
  6
CONTINUOUS
 10
-45.3393758836
 20
-15.7542
 11
-45.1393758836
 21
-15.7542
  0
LINE
  5
466
100
AcDbEntity
  8
0
100
AcDbLine
 62
7
  6
CONTINUOUS
 10
-45.3393758836
 20
-15.74167
 11
-45.1393758836
 21
-15.74167
  0
LINE
  5
467
100
AcDbEntity
  8
ASSI
100
AcDbLine
 62
7
  6
CONTINUOUS
 10
-45.3393758836
 20
-15.74167
 11
-45.1393758836
 21
-15.74167
  0
LINE
  5
468
100
AcDbEntity
  8
RACCORDO
100
AcDbLine
 62
253
  6
CONTINUOUS
 10
-84.0294650159
 20
-10.426894401
 11
-88.5670981667
 21
-7.8070906799
  0
LINE
  5
469
100
AcDbEntity
  8
0
100
AcDbLine
 62
7
  6
CONTINUOUS
 10
-88.5670981667
 20
-7.2297404107
 11
-85.8844261448
 21
-8.7785818247
  0
LINE
  5
46A
100
AcDbEntity
  8
0
100
AcDbLine
 62
7
  6
CONTINUOUS
 10
-88.3167576826
 20
-6.7969242874
 11
-88.2328837136
 21
-6.845348946
  0
LINE
  5
46B
100
AcDbEntity
  8
RACCORDO
100
AcDbLine
 62
7
  6
CONTINUOUS
 10
-74.8224315963
 20
-19.5104730217
 11
-74.8056247523
 21
-19.5356023542
  0
LINE
  5
46C
100
AcDbEntity
  8
RACCORDO
100
AcDbLine
 62
7
  6
CONTINUOUS
 10
-74.7899328708
 20
-19.5594313446
 11
-74.7753295345
 21
-19.5819426341
  0
LINE
  5
46D
100
AcDbEntity
  8
RACCORDO
100
AcDbLine
 62
7
  6
CONTINUOUS
 10
-74.7617891479
 20
-19.6031225049
 11
-74.7492935676
 21
-19.6229493301
  0
LINE
  5
46E
100
AcDbEntity
  8
RACCORDO
100
AcDbLine
 62
7
  6
CONTINUOUS
 10
-74.7434386018
 20
-19.6323392146
 11
-74.7325026383
 21
-19.6500627759
  0
LINE
  5
46F
100
AcDbEntity
  8
RACCORDO
100
AcDbLine
 62
7
  6
CONTINUOUS
 10
-74.7381914476
 20
-19.6408851042
 11
-74.7189069885
 21
-19.6725484062
  0
LINE
  5
470
100
AcDbEntity
  8
RACCORDO
100
AcDbLine
 62
7
  6
CONTINUOUS
 10
-74.7226186585
 20
-19.6663099899
 11
-74.7137997856
 21
-19.6810175105
  0
LINE
  5
471
100
AcDbEntity
  8
RACCORDO
100
AcDbLine
 62
7
  6
CONTINUOUS
 10
-74.7137997856
 20
-19.6810175105
 11
-74.7060858433
 21
-19.6940772428
  0
LINE
  5
472
100
AcDbEntity
  8
RACCORDO
100
AcDbLine
 62
7
  6
CONTINUOUS
 10
-74.7060858433
 20
-19.6940772428
 11
-74.699583698
 21
-19.7052619698
  0
LWPOLYLINE
  5
473
100
AcDbEntity
  8
RACCORDO
100
AcDbPolyline
 62
7
  6
CONTINUOUS
 90
6
 70
0
 10
-74.699583698
 20
-19.7052619698
 10
-74.694348903
 20
-19.7144237737
 10
-74.6922484304
 20
-19.7181537651
 10
-74.6904853838
 20
-19.7213170472
 10
-74.6891157886
 20
-19.723801742
 10
-74.688273798
 20
-19.725345854
  0
LWPOLYLINE
  5
474
100
AcDbEntity
  8
RACCORDO
100
AcDbPolyline
 62
7
  6
CONTINUOUS
 90
7
 70
0
 10
-74.6928112933
 20
-19.7171542406
 10
-74.6792530519
 20
-19.7482167839
 10
-74.6447432222
 20
-19.8136197478
 10
-74.6054944936
 20
-19.876293761
 10
-74.5617214633
 20
-19.9358960907
 10
-74.5136634413
 20
-19.9921008223
 10
-74.461583183
 20
-20.0446005865
  0
LWPOLYLINE
  5
475
100
AcDbEntity
  8
RACCORDO
100
AcDbPolyline
 62
7
  6
CONTINUOUS
 90
18
 70
0
 10
-74.1428089297
 20
20.6433669672
 10
-74.1545496179
 20
20.5776179372
 10
-74.170810396
 20
20.5122459211
 10
-74.1914355481
 20
20.4481168173
 10
-74.216331125
 20
20.3855225895
 10
-74.2453844648
 20
20.3247463497
 10
-74.2784652494
 20
20.266061442
 10
-74.3154245575
 20
20.2097335379
 10
-74.3560945849
 20
20.1560197067
 10
-74.4002906767
 20
20.1051646992
 10
-74.4478123775
 20
20.0573998233
 10
-74.498444408
 20
20.0129420643
 10
-74.5519571146
 20
19.9719936563
 10
-74.6081077656
 20
19.9347408782
 10
-74.6666416591
 20
19.9013532235
 10
-74.7272932022
 20
19.8719826809
 10
-74.7897871462
 20
19.8467630164
 10
-74.8475795472
 20
19.827648176
  0
LINE
  5
476
100
AcDbEntity
  8
0
100
AcDbLine
 62
7
  6
CONTINUOUS
 10
-45.3393758836
 20
-12.25833
 11
-45.1393758836
 21
-12.25833
  0
LINE
  5
477
100
AcDbEntity
  8
ASSI
100
AcDbLine
 62
7
  6
CONTINUOUS
 10
-45.3393758836
 20
-12.25833
 11
-45.1393758836
 21
-12.25833
  0
LINE
  5
478
100
AcDbEntity
  8
0
100
AcDbLine
 62
7
  6
CONTINUOUS
 10
-45.3393758836
 20
-12.2458
 11
-45.1393758836
 21
-12.2458
  0
LINE
  5
479
100
AcDbEntity
  8
ASSI
100
AcDbLine
 62
7
  6
CONTINUOUS
 10
-45.3393758836
 20
-12.2458
 11
-45.1393758836
 21
-12.2458
  0
LINE
  5
47A
100
AcDbEntity
  8
RACCORDO
100
AcDbLine
 62
253
  6
CONTINUOUS
 10
-74.5579341984
 20
-9.4905
 11
-75.0491177151
 21
-9.4999999996
  0
LINE
  5
47B
100
AcDbEntity
  8
RACCORDO
100
AcDbLine
 62
7
  6
CONTINUOUS
 10
-53.9045135865
 20
-2.8119544788
 11
-52.5810186419
 21
-2.6961636749
  0
LINE
  5
47C
100
AcDbEntity
  8
0
100
AcDbLine
 62
7
  6
CONTINUOUS
 10
-52.5810186419
 20
-2.6961636749
 11
-53.9045135865
 21
-2.8119544788
  0
LINE
  5
47D
100
AcDbEntity
  8
RACCORDO
100
AcDbLine
 62
253
  6
CONTINUOUS
 10
-45.3393758836
 20
-5.4912724791
 11
-45.8306496804
 21
-5.4912724791
  0
LINE
  5
47E
100
AcDbEntity
  8
ASSI
100
AcDbLine
 62
253
  6
CONTINUOUS
 10
-45.3393758836
 20
-5.4912724791
 11
-45.8306496804
 21
-5.4912724791
  0
LINE
  5
47F
100
AcDbEntity
  8
RACCORDO
100
AcDbLine
 62
7
  6
CONTINUOUS
 10
-55.1393758836
 20
-4.1
 11
-54.3393758836
 21
-4.1
  0
LINE
  5
480
100
AcDbEntity
  8
ASSI
100
AcDbLine
 62
7
  6
CONTINUOUS
 10
-46.3393758836
 20
-3.6
 11
-54.3393758836
 21
-3.6
  0
LINE
  5
481
100
AcDbEntity
  8
RACCORDO
100
AcDbLine
 62
253
  6
CONTINUOUS
 10
-47.9316240334
 20
-3.3393442623
 11
-49.147131401
 21
-3.3393442623
  0
LINE
  5
482
100
AcDbEntity
  8
RACCORDO
100
AcDbLine
 62
253
  6
CONTINUOUS
 10
-52.3316240334
 20
-3.3393442623
 11
-53.547131401
 21
-3.3393442623
  0
LINE
  5
483
100
AcDbEntity
  8
RACCORDO
100
AcDbLine
 62
253
  6
CONTINUOUS
 10
-55.1393758836
 20
-3.3
 11
-54.3393758836
 21
-3.3
  0
LINE
  5
484
100
AcDbEntity
  8
0
100
AcDbLine
 62
7
  6
CONTINUOUS
 10
-54.3393758836
 20
-3.3
 11
-46.3393758836
 21
-3.3
  0
LINE
  5
485
100
AcDbEntity
  8
RACCORDO
100
AcDbLine
 62
253
  6
CONTINUOUS
 10
-45.8306496804
 20
-5.4912775246
 11
-55.6306496804
 21
-5.3202128428
  0
LINE
  5
486
100
AcDbEntity
  8
ASSI
100
AcDbLine
 62
253
  6
CONTINUOUS
 10
-45.8306496804
 20
-5.4912775246
 11
-55.6306496804
 21
-5.3202128428
  0
LINE
  5
487
100
AcDbEntity
  8
RACCORDO
100
AcDbLine
 62
7
  6
CONTINUOUS
 10
-55.1393758836
 20
-4.3289403637
 11
-45.8306496804
 21
-4.491424784
  0
LINE
  5
488
100
AcDbEntity
  8
ASSI
100
AcDbLine
 62
7
  6
CONTINUOUS
 10
-55.1393758836
 20
-4.3289403637
 11
-45.8306496804
 21
-4.491424784
  0
LINE
  5
489
100
AcDbEntity
  8
RACCORDO
100
AcDbLine
 62
7
  6
CONTINUOUS
 10
-69.1393758836
 20
-24.2329794573
 11
-69.1393758836
 21
-23.8943375673
  0
LINE
  5
48A
100
AcDbEntity
  8
RACCORDO
100
AcDbLine
 62
7
  6
CONTINUOUS
 10
-69.1393758836
 20
23.8943375673
 11
-69.1393758836
 21
24.2329794573
  0
LINE
  5
48B
100
AcDbEntity
  8
RACCORDO
100
AcDbLine
 62
253
  6
CONTINUOUS
 10
-68.8906848745
 20
-24.2329794573
 11
-68.8906848745
 21
-23.8943375673
  0
LINE
  5
48C
100
AcDbEntity
  8
RACCORDO
100
AcDbLine
 62
253
  6
CONTINUOUS
 10
-68.8906848745
 20
23.8943375673
 11
-68.8906848745
 21
24.2329794573
  0
LINE
  5
48D
100
AcDbEntity
  8
RACCORDO
100
AcDbLine
 62
7
  6
CONTINUOUS
 10
-68.1393758836
 20
-23.1726497308
 11
-68.1393758836
 21
-22.2713883311
  0
LINE
  5
48E
100
AcDbEntity
  8
RACCORDO
100
AcDbLine
 62
7
  6
CONTINUOUS
 10
-68.1393758836
 20
22.2713883311
 11
-68.1393758836
 21
23.1726497308
  0
LINE
  5
48F
100
AcDbEntity
  8
RACCORDO
100
AcDbLine
 62
253
  6
CONTINUOUS
 10
-67.8906848745
 20
-23.3169872981
 11
-67.8906848745
 21
-22.2844216746
  0
LINE
  5
490
100
AcDbEntity
  8
RACCORDO
100
AcDbLine
 62
253
  6
CONTINUOUS
 10
-67.8906848745
 20
22.2844216746
 11
-67.8906848745
 21
23.3169872981
  0
LINE
  5
491
100
AcDbEntity
  8
RACCORDO
100
AcDbLine
 62
7
  6
CONTINUOUS
 10
-66.6393758836
 20
21.8495424962
 11
-66.6393758836
 21
21.6
  0
LINE
  5
492
100
AcDbEntity
  8
DRAFT
100
AcDbLine
 62
7
  6
CONTINUOUS
 10
-66.6393758836
 20
-23.1726497308
 11
-66.6393758836
 21
-22.35
  0
LINE
  5
493
100
AcDbEntity
  8
RACCORDO
100
AcDbLine
 62
7
  6
CONTINUOUS
 10
-66.6393758836
 20
-21.8495424962
 11
-66.6393758836
 21
-21.6
  0
LINE
  5
494
100
AcDbEntity
  8
DRAFT
100
AcDbLine
 62
7
  6
CONTINUOUS
 10
-66.6393758836
 20
22.35
 11
-66.6393758836
 21
23.1726497308
  0
LINE
  5
495
100
AcDbEntity
  8
0
100
AcDbLine
 62
7
  6
CONTINUOUS
 10
-51.9947313956
 20
-1.8
 11
-46.3393758836
 21
-1.8
  0
LINE
  5
496
100
AcDbEntity
  8
RACCORDO
100
AcDbLine
 62
253
  6
CONTINUOUS
 10
-48.9893758836
 20
-1.7606557377
 11
-47.9316203662
 21
-1.7606557377
  0
LINE
  5
497
100
AcDbEntity
  8
RACCORDO
100
AcDbLine
 62
7
  6
CONTINUOUS
 10
-50.3639484812
 20
-1.5
 11
-46.664967795
 21
-1.5
  0
LINE
  5
498
100
AcDbEntity
  8
ASSI
100
AcDbLine
 62
7
  6
CONTINUOUS
 10
-46.664967795
 20
-1.5
 11
-46.3393758836
 21
-1.5
  0
LINE
  5
499
100
AcDbEntity
  8
0
100
AcDbLine
 62
7
  6
CONTINUOUS
 10
-50.3639484812
 20
-1.5
 11
-51.907075195
 21
-1.5
  0
LINE
  5
49A
100
AcDbEntity
  8
RACCORDO
100
AcDbLine
 62
7
  6
CONTINUOUS
 10
-51.7176851191
 20
-0.2
 11
-52.6393758836
 21
-0.2
  0
LINE
  5
49B
100
AcDbEntity
  8
DRAFT
100
AcDbLine
 62
7
  6
CONTINUOUS
 10
-65.6393758836
 20
23.75
 11
-65.6393758836
 21
22.4
  0
LINE
  5
49C
100
AcDbEntity
  8
DRAFT
100
AcDbLine
 62
7
  6
CONTINUOUS
 10
-65.6393758836
 20
-23.74996875
 11
-65.6393758836
 21
-22.4
  0
LINE
  5
49D
100
AcDbEntity
  8
ASSI
100
AcDbLine
 62
7
  6
CONTINUOUS
 10
-65.6393758836
 20
-23.74996875
 11
-65.6393758836
 21
-22.2021654459
  0
LINE
  5
49E
100
AcDbEntity
  8
RACCORDO
100
AcDbLine
 62
7
  6
CONTINUOUS
 10
-65.6393758836
 20
-23.75
 11
-65.6393758836
 21
-24.5
  0
LINE
  5
49F
100
AcDbEntity
  8
RACCORDO
100
AcDbLine
 62
7
  6
CONTINUOUS
 10
-65.6393758836
 20
-22.4
 11
-65.6393758836
 21
22.2975922207
  0
LINE
  5
4A0
100
AcDbEntity
  8
ASSI
100
AcDbLine
 62
7
  6
CONTINUOUS
 10
-65.6393758836
 20
-21.7376340628
 11
-65.6393758836
 21
21.7376340624
  0
LINE
  5
4A1
100
AcDbEntity
  8
RACCORDO
100
AcDbLine
 62
7
  6
CONTINUOUS
 10
-65.6393758836
 20
22.3492445903
 11
-65.6393758836
 21
22.4
  0
LINE
  5
4A2
100
AcDbEntity
  8
ASSI
100
AcDbLine
 62
7
  6
CONTINUOUS
 10
-65.6393758836
 20
22.3961948018
 11
-65.6393758836
 21
23.75
  0
LINE
  5
4A3
100
AcDbEntity
  8
RACCORDO
100
AcDbLine
 62
7
  6
CONTINUOUS
 10
-65.6393758836
 20
23.75
 11
-65.6393758836
 21
24.5
  0
LINE
  5
4A4
100
AcDbEntity
  8
RACCORDO
100
AcDbLine
 62
7
  6
CONTINUOUS
 10
-51.7176851459
 20
1.0
 11
-52.6393758836
 21
1.0
  0
LINE
  5
4A5
100
AcDbEntity
  8
SMUSSO
100
AcDbLine
 62
7
  6
CONTINUOUS
 10
-51.3063494515
 20
4.9
 11
-53.3673345549
 21
4.9
  0
LINE
  5
4A6
100
AcDbEntity
  8
SMUSSO
100
AcDbLine
 62
7
  6
CONTINUOUS
 10
-51.3372682616
 20
4.95
 11
-53.325180946
 21
4.95
  0
LINE
  5
4A7
100
AcDbEntity
  8
SMUSSO
100
AcDbLine
 62
7
  6
CONTINUOUS
 10
-45.6393758836
 20
6.2
 11
-54.3393758836
 21
6.2
  0
LINE
  5
4A8
100
AcDbEntity
  8
SMUSSO
100
AcDbLine
 62
7
  6
CONTINUOUS
 10
-45.6393758836
 20
6.3
 11
-54.3393758836
 21
6.3
  0
LINE
  5
4A9
100
AcDbEntity
  8
RACCORDO
100
AcDbLine
 62
7
  6
CONTINUOUS
 10
-45.4393758836
 20
6.45
 11
-44.8393758836
 21
6.45
  0
LINE
  5
4AA
100
AcDbEntity
  8
0
100
AcDbLine
 62
7
  6
CONTINUOUS
 10
-44.8393758836
 20
6.45
 11
-45.4393758836
 21
6.45
  0
LINE
  5
4AB
100
AcDbEntity
  8
0
100
AcDbLine
 62
7
  6
CONTINUOUS
 10
-44.6393758836
 20
7.2
 11
-43.7393758836
 21
7.2
  0
LINE
  5
4AC
100
AcDbEntity
  8
RACCORDO
100
AcDbLine
 62
7
  6
CONTINUOUS
 10
-53.9045135865
 20
3.6119544788
 11
-52.5810186419
 21
3.4961636749
  0
LINE
  5
4AD
100
AcDbEntity
  8
0
100
AcDbLine
 62
7
  6
CONTINUOUS
 10
-52.5810186419
 20
3.4961636749
 11
-53.9045135865
 21
3.6119544788
  0
LINE
  5
4AE
100
AcDbEntity
  8
RACCORDO
100
AcDbLine
 62
7
  6
CONTINUOUS
 10
-58.6393758836
 20
-23.2432563202
 11
-58.6393758836
 21
-22.2778145455
  0
LINE
  5
4AF
100
AcDbEntity
  8
ASSI
100
AcDbLine
 62
7
  6
CONTINUOUS
 10
-58.6393758836
 20
-23.2432563202
 11
-58.6393758836
 21
-22.2778145455
  0
LINE
  5
4B0
100
AcDbEntity
  8
RACCORDO
100
AcDbLine
 62
7
  6
CONTINUOUS
 10
-58.6393758836
 20
22.2778145455
 11
-58.6393758836
 21
23.2432563202
  0
LINE
  5
4B1
100
AcDbEntity
  8
ASSI
100
AcDbLine
 62
7
  6
CONTINUOUS
 10
-58.6393758836
 20
22.2778145455
 11
-58.6393758836
 21
23.2432563202
  0
LINE
  5
4B2
100
AcDbEntity
  8
RACCORDO
100
AcDbLine
 62
253
  6
CONTINUOUS
 10
-55.6306496804
 20
21.2254450008
 11
-55.6306496804
 21
-5.3202128428
  0
LINE
  5
4B3
100
AcDbEntity
  8
ASSI
100
AcDbLine
 62
253
  6
CONTINUOUS
 10
-55.6306496804
 20
21.2254450008
 11
-55.6306496804
 21
-5.3202128428
  0
LINE
  5
4B4
100
AcDbEntity
  8
RACCORDO
100
AcDbLine
 62
7
  6
CONTINUOUS
 10
-55.1393758836
 20
21.7253731867
 11
-55.1393758836
 21
19.2
  0
LINE
  5
4B5
100
AcDbEntity
  8
ASSI
100
AcDbLine
 62
7
  6
CONTINUOUS
 10
-55.1393758836
 20
21.7253731867
 11
-55.1393758836
 21
19.2
  0
LINE
  5
4B6
100
AcDbEntity
  8
ASSI
100
AcDbLine
 62
7
  6
CONTINUOUS
 10
-55.1393758836
 20
-3.8999827278
 11
-55.1393758836
 21
-4.4678782481
  0
LINE
  5
4B7
100
AcDbEntity
  8
RACCORDO
100
AcDbLine
 62
7
  6
CONTINUOUS
 10
-55.1393758836
 20
-4.4678782481
 11
-55.1393758836
 21
-3.3
  0
LINE
  5
4B8
100
AcDbEntity
  8
0
100
AcDbLine
 62
7
  6
CONTINUOUS
 10
-55.1393758836
 20
-3.3
 11
-55.1393758836
 21
19.2
  0
LINE
  5
4B9
100
AcDbEntity
  8
0
100
AcDbLine
 62
7
  6
CONTINUOUS
 10
-53.9193849528
 20
21.0
 11
-53.9893758836
 21
20.2
  0
LINE
  5
4BA
100
AcDbEntity
  8
SMUSSO
100
AcDbLine
 62
7
  6
CONTINUOUS
 10
-51.3167751747
 20
14.5
 11
-51.3372682616
 21
14.45
  0
LINE
  5
4BB
100
AcDbEntity
  8
SMUSSO
100
AcDbLine
 62
7
  6
CONTINUOUS
 10
-53.3560826455
 20
4.9
 11
-53.325180946
 21
4.95
  0
LINE
  5
4BC
100
AcDbEntity
  8
RACCORDO
100
AcDbLine
 62
7
  6
CONTINUOUS
 10
-44.6393758836
 20
9.2
 11
-43.5393758836
 21
9.2
  0
LINE
  5
4BD
100
AcDbEntity
  8
RACCORDO
100
AcDbLine
 62
7
  6
CONTINUOUS
 10
-43.5393758836
 20
10.2
 11
-44.6393758836
 21
10.2
  0
LINE
  5
4BE
100
AcDbEntity
  8
RACCORDO
100
AcDbLine
 62
253
  6
CONTINUOUS
 10
-74.5579341984
 20
9.4905
 11
-75.0491177366
 21
9.5
  0
LINE
  5
4BF
100
AcDbEntity
  8
RACCORDO
100
AcDbLine
 62
7
  6
CONTINUOUS
 10
-54.3393758836
 20
-3.3
 11
-54.3393758836
 21
-4.1
  0
LINE
  5
4C0
100
AcDbEntity
  8
0
100
AcDbLine
 62
7
  6
CONTINUOUS
 10
-54.3393758836
 20
-3.3
 11
-54.3393758836
 21
19.2
  0
LINE
  5
4C1
100
AcDbEntity
  8
0
100
AcDbLine
 62
253
  6
CONTINUOUS
 10
-54.1393758836
 20
19.4
 11
-54.1393758836
 21
20.2
  0
LINE
  5
4C2
100
AcDbEntity
  8
0
100
AcDbLine
 62
253
  6
CONTINUOUS
 10
-54.1191646241
 20
3.5707786392
 11
-54.1191646241
 21
6.2
  0
LINE
  5
4C3
100
AcDbEntity
  8
0
100
AcDbLine
 62
253
  6
CONTINUOUS
 10
-54.1191646241
 20
13.2
 11
-54.1191646241
 21
17.2
  0
LINE
  5
4C4
100
AcDbEntity
  8
RACCORDO
100
AcDbLine
 62
253
  6
CONTINUOUS
 10
-53.9045135865
 20
3.6119544788
 11
-53.9045135865
 21
-2.8119544788
  0
LINE
  5
4C5
100
AcDbEntity
  8
0
100
AcDbLine
 62
7
  6
CONTINUOUS
 10
-53.3673345549
 20
14.5
 11
-53.3673345549
 21
13.2
  0
LINE
  5
4C6
100
AcDbEntity
  8
0
100
AcDbLine
 62
7
  6
CONTINUOUS
 10
-53.3673345549
 20
6.2
 11
-53.3673345549
 21
4.9
  0
LINE
  5
4C7
100
AcDbEntity
  8
SMUSSO
100
AcDbLine
 62
7
  6
CONTINUOUS
 10
-53.325180946
 20
14.45
 11
-53.325180946
 21
13.2
  0
LINE
  5
4C8
100
AcDbEntity
  8
SMUSSO
100
AcDbLine
 62
7
  6
CONTINUOUS
 10
-53.325180946
 20
6.2
 11
-53.325180946
 21
4.95
  0
LINE
  5
4C9
100
AcDbEntity
  8
0
100
AcDbLine
 62
7
  6
CONTINUOUS
 10
-52.6393758836
 20
-0.2
 11
-52.6393758836
 21
1.0
  0
LINE
  5
4CA
100
AcDbEntity
  8
DRAFT
100
AcDbLine
 62
7
  6
CONTINUOUS
 10
-52.6393758836
 20
17.2
 11
-52.6393758836
 21
17.9218171695
  0
LINE
  5
4CB
100
AcDbEntity
  8
ASSI
100
AcDbLine
 62
7
  6
CONTINUOUS
 10
-52.6393758836
 20
17.2
 11
-52.6393758836
 21
17.9218171695
  0
LINE
  5
4CC
100
AcDbEntity
  8
RACCORDO
100
AcDbLine
 62
253
  6
CONTINUOUS
 10
-52.5810186419
 20
3.4961636749
 11
-52.5810186419
 21
1.0
  0
LINE
  5
4CD
100
AcDbEntity
  8
RACCORDO
100
AcDbLine
 62
253
  6
CONTINUOUS
 10
-52.5810186419
 20
-0.2
 11
-52.5810186419
 21
-2.6961636749
  0
LINE
  5
4CE
100
AcDbEntity
  8
RACCORDO
100
AcDbLine
 62
253
  6
CONTINUOUS
 10
-52.5393758836
 20
20.2
 11
-52.5393758836
 21
19.4
  0
LINE
  5
4CF
100
AcDbEntity
  8
0
100
AcDbLine
 62
7
  6
CONTINUOUS
 10
-52.4893758836
 20
17.9231261996
 11
-52.4893758836
 21
17.2
  0
LINE
  5
4D0
100
AcDbEntity
  8
RACCORDO
100
AcDbLine
 62
253
  6
CONTINUOUS
 10
-52.2508206393
 20
3.2611819045
 11
-52.2508206393
 21
1.0
  0
LINE
  5
4D1
100
AcDbEntity
  8
RACCORDO
100
AcDbLine
 62
253
  6
CONTINUOUS
 10
-52.2508206393
 20
-0.2
 11
-52.2508206393
 21
-2.4611819045
  0
LINE
  5
4D2
100
AcDbEntity
  8
0
100
AcDbLine
 62
7
  6
CONTINUOUS
 10
-52.2393758836
 20
19.4
 11
-52.2393758836
 21
19.3493803117
  0
LINE
  5
4D3
100
AcDbEntity
  8
RACCORDO
100
AcDbLine
 62
7
  6
CONTINUOUS
 10
-52.0393758836
 20
20.2
 11
-52.0393758836
 21
19.4
  0
LINE
  5
4D4
100
AcDbEntity
  8
0
100
AcDbLine
 62
7
  6
CONTINUOUS
 10
-51.9426418483
 20
2.4380758723
 11
-51.9426418483
 21
2.4252741745
  0
LINE
  5
4D5
100
AcDbEntity
  8
0
100
AcDbLine
 62
7
  6
CONTINUOUS
 10
-51.9426418483
 20
-1.625260572
 11
-51.9426418483
 21
-1.6380758723
  0
LINE
  5
4D6
100
AcDbEntity
  8
RACCORDO
100
AcDbLine
 62
253
  6
CONTINUOUS
 10
-51.8929292742
 20
20.2
 11
-51.8929292742
 21
19.4
  0
LINE
  5
4D7
100
AcDbEntity
  8
0
100
AcDbLine
 62
7
  6
CONTINUOUS
 10
-44.6393758836
 20
12.2
 11
-43.7393758836
 21
12.2
  0
LINE
  5
4D8
100
AcDbEntity
  8
0
100
AcDbLine
 62
7
  6
CONTINUOUS
 10
-44.8393758836
 20
12.95
 11
-45.4393758836
 21
12.95
  0
LINE
  5
4D9
100
AcDbEntity
  8
SMUSSO
100
AcDbLine
 62
7
  6
CONTINUOUS
 10
-45.6393758836
 20
13.1
 11
-54.3393758836
 21
13.1
  0
LINE
  5
4DA
100
AcDbEntity
  8
SMUSSO
100
AcDbLine
 62
7
  6
CONTINUOUS
 10
-45.6393758836
 20
13.2
 11
-54.3393758836
 21
13.2
  0
LINE
  5
4DB
100
AcDbEntity
  8
SMUSSO
100
AcDbLine
 62
7
  6
CONTINUOUS
 10
-53.325180946
 20
14.45
 11
-51.3372682616
 21
14.45
  0
LINE
  5
4DC
100
AcDbEntity
  8
SMUSSO
100
AcDbLine
 62
7
  6
CONTINUOUS
 10
-51.3063494515
 20
14.5
 11
-53.3673345549
 21
14.5
  0
LINE
  5
4DD
100
AcDbEntity
  8
SMUSSO
100
AcDbLine
 62
7
  6
CONTINUOUS
 10
-51.3372682616
 20
14.45
 11
-51.3372682616
 21
13.2
  0
LINE
  5
4DE
100
AcDbEntity
  8
SMUSSO
100
AcDbLine
 62
7
  6
CONTINUOUS
 10
-51.3372682616
 20
6.2
 11
-51.3372682616
 21
4.95
  0
LINE
  5
4DF
100
AcDbEntity
  8
0
100
AcDbLine
 62
7
  6
CONTINUOUS
 10
-51.3063494515
 20
14.5
 11
-51.3063494515
 21
13.2
  0
LINE
  5
4E0
100
AcDbEntity
  8
0
100
AcDbLine
 62
7
  6
CONTINUOUS
 10
-51.3063494515
 20
6.2
 11
-51.3063494515
 21
4.9
  0
LINE
  5
4E1
100
AcDbEntity
  8
0
100
AcDbLine
 62
7
  6
CONTINUOUS
 10
-51.0893758836
 20
22.1004229811
 11
-51.0893758836
 21
21.9116686458
  0
LINE
  5
4E2
100
AcDbEntity
  8
0
100
AcDbLine
 62
7
  6
CONTINUOUS
 10
-50.3893758836
 20
21.9116686458
 11
-50.3893758836
 21
22.1004229811
  0
LINE
  5
4E3
100
AcDbEntity
  8
0
100
AcDbLine
 62
253
  6
CONTINUOUS
 10
-50.3639484812
 20
-1.5
 11
-50.3639484812
 21
6.2
  0
LINE
  5
4E4
100
AcDbEntity
  8
0
100
AcDbLine
 62
253
  6
CONTINUOUS
 10
-50.3639484812
 20
13.2
 11
-50.3639484812
 21
17.2
  0
LINE
  5
4E5
100
AcDbEntity
  8
DRAFT
100
AcDbLine
 62
7
  6
CONTINUOUS
 10
-50.1393758836
 20
19.3127246754
 11
-50.1393758836
 21
17.943634339
  0
LINE
  5
4E6
100
AcDbEntity
  8
ASSI
100
AcDbLine
 62
7
  6
CONTINUOUS
 10
-50.1393758836
 20
19.3127246754
 11
-50.1393758836
 21
17.943634339
  0
LINE
  5
4E7
100
AcDbEntity
  8
RACCORDO
100
AcDbLine
 62
253
  6
CONTINUOUS
 10
-49.8306496804
 20
-16.0
 11
-49.8306496804
 21
-21.1242047983
  0
LINE
  5
4E8
100
AcDbEntity
  8
ASSI
100
AcDbLine
 62
253
  6
CONTINUOUS
 10
-49.8306496804
 20
-16.0
 11
-49.8306496804
 21
-21.1242047983
  0
LINE
  5
4E9
100
AcDbEntity
  8
RACCORDO
100
AcDbLine
 62
7
  6
CONTINUOUS
 10
-49.3393758836
 20
-16.8609283653
 11
-49.3393758836
 21
-21.4300317911
  0
LINE
  5
4EA
100
AcDbEntity
  8
ASSI
100
AcDbLine
 62
7
  6
CONTINUOUS
 10
-49.3393758836
 20
-16.8609283653
 11
-49.3393758836
 21
-21.4300317911
  0
LINE
  5
4EB
100
AcDbEntity
  8
0
100
AcDbLine
 62
7
  6
CONTINUOUS
 10
-49.2393758836
 20
19.4
 11
-49.2393758836
 21
19.2
  0
LINE
  5
4EC
100
AcDbEntity
  8
0
100
AcDbLine
 62
7
  6
CONTINUOUS
 10
-48.9893758836
 20
19.2
 11
-48.9893758836
 21
17.2
  0
LINE
  5
4ED
100
AcDbEntity
  8
0
100
AcDbLine
 62
7
  6
CONTINUOUS
 10
-48.9893758836
 20
-1.5
 11
-48.9893758836
 21
-1.8
  0
LINE
  5
4EE
100
AcDbEntity
  8
RACCORDO
100
AcDbLine
 62
253
  6
CONTINUOUS
 10
-47.8736904586
 20
20.2
 11
-47.8736904586
 21
19.4
  0
LINE
  5
4EF
100
AcDbEntity
  8
DRAFT
100
AcDbLine
 62
7
  6
CONTINUOUS
 10
-66.6393758836
 20
-21.6
 11
-65.6393758836
 21
-21.0226497308
  0
LINE
  5
4F0
100
AcDbEntity
  8
DRAFT
100
AcDbLine
 62
7
  6
CONTINUOUS
 10
-54.3393758836
 20
17.9069814942
 11
-50.1393758836
 21
17.943634339
  0
LINE
  5
4F1
100
AcDbEntity
  8
ASSI
100
AcDbLine
 62
7
  6
CONTINUOUS
 10
-54.3393758836
 20
17.9069814942
 11
-50.1393758836
 21
17.943634339
  0
LINE
  5
4F2
100
AcDbEntity
  8
SMUSSO
100
AcDbLine
 62
7
  6
CONTINUOUS
 10
-47.1393758836
 20
17.9698149423
 11
-48.9893758836
 21
17.9536702369
  0
LINE
  5
4F3
100
AcDbEntity
  8
ASSI
100
AcDbLine
 62
7
  6
CONTINUOUS
 10
-47.1393758836
 20
17.9698149423
 11
-48.9893758836
 21
17.9536702369
  0
LINE
  5
4F4
100
AcDbEntity
  8
0
100
AcDbLine
 62
7
  6
CONTINUOUS
 10
-54.3393758836
 20
17.2
 11
-54.2966873997
 21
17.2
  0
LINE
  5
4F5
100
AcDbEntity
  8
RACCORDO
100
AcDbLine
 62
7
  6
CONTINUOUS
 10
-50.3639484812
 20
17.2
 11
-46.664967795
 21
17.2
  0
LINE
  5
4F6
100
AcDbEntity
  8
0
100
AcDbLine
 62
7
  6
CONTINUOUS
 10
-50.3639484812
 20
17.2
 11
-54.2966873997
 21
17.2
  0
LINE
  5
4F7
100
AcDbEntity
  8
DRAFT
100
AcDbLine
 62
7
  6
CONTINUOUS
 10
-52.6393758836
 20
17.8563623377
 11
-54.3393758836
 21
17.8860359481
  0
LINE
  5
4F8
100
AcDbEntity
  8
ASSI
100
AcDbLine
 62
7
  6
CONTINUOUS
 10
-52.6393758836
 20
17.8563623377
 11
-54.3393758836
 21
17.8860359481
  0
LINE
  5
4F9
100
AcDbEntity
  8
DRAFT
100
AcDbLine
 62
7
  6
CONTINUOUS
 10
-65.6393758836
 20
21.0226497308
 11
-66.6393758836
 21
21.6
  0
LINE
  5
4FA
100
AcDbEntity
  8
SMUSSO
100
AcDbLine
 62
7
  6
CONTINUOUS
 10
-51.3372682616
 20
4.95
 11
-51.3167751747
 21
4.9
  0
LINE
  5
4FB
100
AcDbEntity
  8
0
100
AcDbLine
 62
7
  6
CONTINUOUS
 10
-47.5593668144
 20
21.0
 11
-47.4893758836
 21
20.2
  0
LINE
  5
4FC
100
AcDbEntity
  8
RACCORDO
100
AcDbLine
 62
7
  6
CONTINUOUS
 10
-47.6393758836
 20
20.2
 11
-47.6393758836
 21
19.4
  0
LINE
  5
4FD
100
AcDbEntity
  8
SMUSSO
100
AcDbLine
 62
7
  6
CONTINUOUS
 10
-47.6390712971
 20
19.2690816965
 11
-47.6390712971
 21
17.9654541665
  0
LINE
  5
4FE
100
AcDbEntity
  8
ASSI
100
AcDbLine
 62
7
  6
CONTINUOUS
 10
-47.6390712971
 20
19.2690816965
 11
-47.6390712971
 21
17.9654541665
  0
LINE
  5
4FF
100
AcDbEntity
  8
SMUSSO
100
AcDbLine
 62
7
  6
CONTINUOUS
 10
-47.1393758836
 20
19.2603594806
 11
-47.1393758836
 21
17.9698149423
  0
LINE
  5
500
100
AcDbEntity
  8
ASSI
100
AcDbLine
 62
7
  6
CONTINUOUS
 10
-47.1393758836
 20
19.2603594806
 11
-47.1393758836
 21
17.9698149423
  0
LINE
  5
501
100
AcDbEntity
  8
SMUSSO
100
AcDbLine
 62
7
  6
CONTINUOUS
 10
-46.7121827273
 20
-21.0694723329
 11
-46.7121827273
 21
-20.7348248877
  0
LINE
  5
502
100
AcDbEntity
  8
ASSI
100
AcDbLine
 62
7
  6
CONTINUOUS
 10
-46.7121827273
 20
-21.0694723329
 11
-46.7121827273
 21
-20.7348248877
  0
LINE
  5
503
100
AcDbEntity
  8
0
100
AcDbLine
 62
7
  6
CONTINUOUS
 10
-46.3393758836
 20
-1.8
 11
-46.3393758836
 21
-3.3
  0
LINE
  5
504
100
AcDbEntity
  8
RACCORDO
100
AcDbLine
 62
7
  6
CONTINUOUS
 10
-46.3371928204
 20
17.040586952
 11
-46.3371928204
 21
13.2
  0
LINE
  5
505
100
AcDbEntity
  8
RACCORDO
100
AcDbLine
 62
7
  6
CONTINUOUS
 10
-46.3371928204
 20
6.2
 11
-46.3371928204
 21
-1.340586952
  0
LINE
  5
506
100
AcDbEntity
  8
ASSI
100
AcDbLine
 62
7
  6
CONTINUOUS
 10
-46.0393758836
 20
-1.8
 11
-46.0393758836
 21
-3.3
  0
LINE
  5
507
100
AcDbEntity
  8
0
100
AcDbLine
 62
7
  6
CONTINUOUS
 10
-45.8393758836
 20
-17.0
 11
-45.8393758836
 21
-20.7272258163
  0
LINE
  5
508
100
AcDbEntity
  8
ASSI
100
AcDbLine
 62
7
  6
CONTINUOUS
 10
-45.8393758836
 20
-17.0
 11
-45.8393758836
 21
-20.7272258163
  0
LINE
  5
509
100
AcDbEntity
  8
RACCORDO
100
AcDbLine
 62
253
  6
CONTINUOUS
 10
-45.8306496804
 20
-5.4912775246
 11
-45.8306496804
 21
-15.9999949476
  0
LINE
  5
50A
100
AcDbEntity
  8
ASSI
100
AcDbLine
 62
253
  6
CONTINUOUS
 10
-45.8306496804
 20
-5.4912775246
 11
-45.8306496804
 21
-15.9999949476
  0
LINE
  5
50B
100
AcDbEntity
  8
SMUSSO
100
AcDbLine
 62
7
  6
CONTINUOUS
 10
-45.6393758836
 20
13.2
 11
-45.6393758836
 21
6.2
  0
LINE
  5
50C
100
AcDbEntity
  8
RACCORDO
100
AcDbLine
 62
253
  6
CONTINUOUS
 10
-45.4393758836
 20
12.95
 11
-45.4393758836
 21
6.45
  0
LINE
  5
50D
100
AcDbEntity
  8
RACCORDO
100
AcDbLine
 62
7
  6
CONTINUOUS
 10
-45.3393758836
 20
-4.9913486316
 11
-45.3393758836
 21
-16.5
  0
LINE
  5
50E
100
AcDbEntity
  8
ASSI
100
AcDbLine
 62
7
  6
CONTINUOUS
 10
-45.3393758836
 20
-4.9913486316
 11
-45.3393758836
 21
-16.5
  0
LINE
  5
50F
100
AcDbEntity
  8
0
100
AcDbLine
 62
7
  6
CONTINUOUS
 10
-45.1393758836
 20
-12.2458
 11
-45.1393758836
 21
-15.7542
  0
LINE
  5
510
100
AcDbEntity
  8
ASSI
100
AcDbLine
 62
7
  6
CONTINUOUS
 10
-45.1393758836
 20
-12.2458
 11
-45.1393758836
 21
-15.7542
  0
LINE
  5
511
100
AcDbEntity
  8
RACCORDO
100
AcDbLine
 62
253
  6
CONTINUOUS
 10
-44.8393758836
 20
12.95
 11
-44.8393758836
 21
6.45
  0
LINE
  5
512
100
AcDbEntity
  8
RACCORDO
100
AcDbLine
 62
7
  6
CONTINUOUS
 10
-44.6393758836
 20
12.75
 11
-44.6393758836
 21
6.65
  0
LINE
  5
513
100
AcDbEntity
  8
RACCORDO
100
AcDbLine
 62
7
  6
CONTINUOUS
 10
-68.1393758836
 20
-23.1726497308
 11
-69.0143758836
 21
-23.6778312164
  0
LINE
  5
514
100
AcDbEntity
  8
RACCORDO
100
AcDbLine
 62
253
  6
CONTINUOUS
 10
-67.8906848745
 20
-23.3169872981
 11
-68.8906848745
 21
-23.8943375673
  0
LINE
  5
515
100
AcDbEntity
  8
RACCORDO
100
AcDbLine
 62
253
  6
CONTINUOUS
 10
-66.6393758836
 20
21.8497711479
 11
-73.1127566309
 21
21.5105156385
  0
LINE
  5
516
100
AcDbEntity
  8
RACCORDO
100
AcDbLine
 62
7
  6
CONTINUOUS
 10
-66.6393758836
 20
22.35
 11
-73.1301984058
 21
22.0098304059
  0
LINE
  5
517
100
AcDbEntity
  8
0
100
AcDbLine
 62
253
  6
CONTINUOUS
 10
-55.1393758836
 20
19.2
 11
-54.3393758836
 21
19.2
  0
LINE
  5
518
100
AcDbEntity
  8
0
100
AcDbLine
 62
7
  6
CONTINUOUS
 10
-48.9894064711
 20
19.2
 11
-50.1393758836
 21
19.2
  0
LINE
  5
519
100
AcDbEntity
  8
RACCORDO
100
AcDbLine
 62
7
  6
CONTINUOUS
 10
-47.6393758836
 20
19.4
 11
-54.1393758836
 21
19.4
  0
LINE
  5
51A
100
AcDbEntity
  8
RACCORDO
100
AcDbLine
 62
7
  6
CONTINUOUS
 10
-51.8929292742
 20
20.2
 11
-47.6393758836
 21
20.2
  0
LINE
  5
51B
100
AcDbEntity
  8
0
100
AcDbLine
 62
7
  6
CONTINUOUS
 10
-47.4893758836
 20
20.2
 11
-47.6001321783
 21
20.2
  0
LINE
  5
51C
100
AcDbEntity
  8
RACCORDO
100
AcDbLine
 62
7
  6
CONTINUOUS
 10
-52.0393758836
 20
20.2
 11
-54.1393758836
 21
20.2
  0
LINE
  5
51D
100
AcDbEntity
  8
0
100
AcDbLine
 62
7
  6
CONTINUOUS
 10
-47.5593668144
 20
21.0
 11
-47.5989208719
 21
21.0
  0
LINE
  5
51E
100
AcDbEntity
  8
0
100
AcDbLine
 62
7
  6
CONTINUOUS
 10
-53.8798308952
 20
21.0
 11
-53.9193849528
 21
21.0
  0
LINE
  5
51F
100
AcDbEntity
  8
RACCORDO
100
AcDbLine
 62
253
  6
CONTINUOUS
 10
-55.1393758836
 20
21.2254493391
 11
-55.6306496804
 21
21.2254493391
  0
LINE
  5
520
100
AcDbEntity
  8
ASSI
100
AcDbLine
 62
253
  6
CONTINUOUS
 10
-55.1393758836
 20
21.2254493391
 11
-55.6306496804
 21
21.2254493391
  0
LINE
  5
521
100
AcDbEntity
  8
0
100
AcDbLine
 62
253
  6
CONTINUOUS
 10
-53.8549539663
 20
21.2807801117
 11
-47.6237978008
 21
21.2807801117
  0
LINE
  5
522
100
AcDbEntity
  8
0
100
AcDbLine
 62
253
  6
CONTINUOUS
 10
-53.7481667171
 20
21.4399632159
 11
-47.7305850501
 21
21.4399632159
  0
LINE
  5
523
100
AcDbEntity
  8
SMUSSO
100
AcDbLine
 62
7
  6
CONTINUOUS
 10
-47.1393758836
 20
19.2603594806
 11
-49.2393758836
 21
19.2970151169
  0
LINE
  5
524
100
AcDbEntity
  8
ASSI
100
AcDbLine
 62
7
  6
CONTINUOUS
 10
-47.1393758836
 20
19.2603594806
 11
-49.2393758836
 21
19.2970151169
  0
LINE
  5
525
100
AcDbEntity
  8
DRAFT
100
AcDbLine
 62
7
  6
CONTINUOUS
 10
-50.1393758836
 20
19.3127246754
 11
-54.1396804701
 21
19.3825502516
  0
LINE
  5
526
100
AcDbEntity
  8
ASSI
100
AcDbLine
 62
7
  6
CONTINUOUS
 10
-50.1393758836
 20
19.3127246754
 11
-54.1396804701
 21
19.3825502516
  0
LINE
  5
527
100
AcDbEntity
  8
RACCORDO
100
AcDbLine
 62
253
  6
CONTINUOUS
 10
-55.6306496804
 20
21.2254450008
 11
-65.6393758836
 21
21.4001523048
  0
LINE
  5
528
100
AcDbEntity
  8
ASSI
100
AcDbLine
 62
253
  6
CONTINUOUS
 10
-55.6306496804
 20
21.2254450008
 11
-65.6393758836
 21
21.4001523048
  0
LINE
  5
529
100
AcDbEntity
  8
RACCORDO
100
AcDbLine
 62
7
  6
CONTINUOUS
 10
-55.6306496804
 20
22.2252970343
 11
-65.6393758836
 21
22.4
  0
LINE
  5
52A
100
AcDbEntity
  8
ASSI
100
AcDbLine
 62
7
  6
CONTINUOUS
 10
-55.6306496804
 20
22.2252970343
 11
-65.6393758836
 21
22.4
  0
LINE
  5
52B
100
AcDbEntity
  8
RACCORDO
100
AcDbLine
 62
253
  6
CONTINUOUS
 10
-65.6393758836
 20
21.7971347169
 11
-66.6393758836
 21
21.8495424962
  0
LINE
  5
52C
100
AcDbEntity
  8
RACCORDO
100
AcDbLine
 62
7
  6
CONTINUOUS
 10
-65.6393758836
 20
22.2975922207
 11
-66.6393758836
 21
22.35
  0
LINE
  5
52D
100
AcDbEntity
  8
RACCORDO
100
AcDbLine
 62
7
  6
CONTINUOUS
 10
-69.0143758836
 20
23.6778312164
 11
-68.1393758836
 21
23.1726497308
  0
LINE
  5
52E
100
AcDbEntity
  8
RACCORDO
100
AcDbLine
 62
253
  6
CONTINUOUS
 10
-68.8906848745
 20
23.8943375673
 11
-67.8906848745
 21
23.3169872981
  0
LINE
  5
52F
100
AcDbEntity
  8
DRAFT
100
AcDbLine
 62
7
  6
CONTINUOUS
 10
-53.7145046639
 20
17.8751287803
 11
-53.0393758836
 21
17.2
  0
LINE
  5
530
100
AcDbEntity
  8
ASSI
100
AcDbLine
 62
7
  6
CONTINUOUS
 10
-53.7145046639
 20
17.8751287803
 11
-53.0393758836
 21
17.2
  0
LINE
  5
531
100
AcDbEntity
  8
SMUSSO
100
AcDbLine
 62
7
  6
CONTINUOUS
 10
-53.325180946
 20
14.45
 11
-53.3560826455
 21
14.5
  0
LINE
  5
532
100
AcDbEntity
  8
RACCORDO
100
AcDbLine
 62
253
  6
CONTINUOUS
 10
-43.7393758836
 20
7.2
 11
-43.7393758836
 21
9.2
  0
LINE
  5
533
100
AcDbEntity
  8
RACCORDO
100
AcDbLine
 62
253
  6
CONTINUOUS
 10
-43.7393758836
 20
10.2
 11
-43.7393758836
 21
12.2
  0
LINE
  5
534
100
AcDbEntity
  8
RACCORDO
100
AcDbLine
 62
7
  6
CONTINUOUS
 10
-43.5393758836
 20
12.0
 11
-43.5393758836
 21
10.2
  0
LINE
  5
535
100
AcDbEntity
  8
RACCORDO
100
AcDbLine
 62
7
  6
CONTINUOUS
 10
-43.5393758836
 20
9.2
 11
-43.5393758836
 21
7.4
  0
LINE
  5
536
100
AcDbEntity
  8
RACCORDO
100
AcDbLine
 62
253
  6
CONTINUOUS
 10
-68.8906848745
 20
24.2329794573
 11
-65.6393758836
 21
24.2500034269
  0
LINE
  5
537
100
AcDbEntity
  8
RACCORDO
100
AcDbLine
 62
7
  6
CONTINUOUS
 10
-68.8906848745
 20
24.4829760304
 11
-65.6393758836
 21
24.5
  0
LINE
  5
538
100
AcDbEntity
  8
RACCORDO
100
AcDbLine
 62
253
  6
CONTINUOUS
 10
-68.8906848745
 20
23.8943375673
 11
-69.1393758836
 21
23.8943375673
  0
LINE
  5
539
100
AcDbEntity
  8
RACCORDO
100
AcDbLine
 62
253
  6
CONTINUOUS
 10
-69.1393758836
 20
24.2329794573
 11
-68.8906848745
 21
24.2329794573
  0
LINE
  5
53A
100
AcDbEntity
  8
RACCORDO
100
AcDbLine
 62
7
  6
CONTINUOUS
 10
-65.6393758836
 20
23.8
 11
-59.1350126158
 21
23.7432372817
  0
LINE
  5
53B
100
AcDbEntity
  8
ASSI
100
AcDbLine
 62
7
  6
CONTINUOUS
 10
-65.6393758836
 20
23.8
 11
-59.1350126158
 21
23.7432372817
  0
ARC
  5
53C
100
AcDbEntity
  8
RACCORDO
100
AcDbCircle
 62
253
  6
CONTINUOUS
 10
-5134.3953230865
 20
-7.8576804907
 40
5109.3987298299
100
AcDbArc
 50
359.8508330325
 51
359.9815833559
  0
ARC
  5
53D
100
AcDbEntity
  8
RACCORDO
100
AcDbCircle
 62
253
  6
CONTINUOUS
 10
-5078.282149137
 20
-7.8573041875
 40
5052.7856320329
100
AcDbArc
 50
359.8499997012
 51
359.9814804673
  0
ARC
  5
53E
100
AcDbEntity
  8
RACCORDO
100
AcDbCircle
 62
253
  6
CONTINUOUS
 10
-3.9886261209
 20
-0.4823015553
 40
21.5528587027
100
AcDbArc
 50
27.5908438558
 51
28.6661332764
  0
ARC
  5
53F
100
AcDbEntity
  8
RACCORDO
100
AcDbCircle
 62
253
  6
CONTINUOUS
 10
-4.2818103736
 20
-0.5062011777
 40
20.8928390602
100
AcDbArc
 50
27.3185835106
 51
28.3862543237
  0
ARC
  5
540
100
AcDbEntity
  8
RACCORDO
100
AcDbCircle
 62
253
  6
CONTINUOUS
 10
-3.3406367059
 20
-0.0004297597
 40
20.6565976476
100
AcDbArc
 50
179.9988079628
 51
207.3794084486
  0
ARC
  5
541
100
AcDbEntity
  8
RACCORDO
100
AcDbCircle
 62
253
  6
CONTINUOUS
 10
-3.3001863043
 20
-0.0011462255
 40
19.7878561968
100
AcDbArc
 50
332.6821629784
 51
0.0033188983
  0
ARC
  5
542
100
AcDbEntity
  8
0
100
AcDbCircle
 62
253
  6
CONTINUOUS
 10
-3.4268863694
 20
-16.8986528084
 40
6.2625725048
100
AcDbArc
 50
100.735662442
 51
101.659546201
  0
ARC
  5
543
100
AcDbEntity
  8
0
100
AcDbCircle
 62
7
  6
CONTINUOUS
 10
-9.8298266758
 20
-11.605456692
 40
2.2051734405
100
AcDbArc
 50
168.9072785009
 51
179.9813892666
  0
ARC
  5
544
100
AcDbEntity
  8
RACCORDO
100
AcDbCircle
 62
253
  6
CONTINUOUS
 10
-25.0218670208
 20
-21.5096478376
 40
0.5001623766
100
AcDbArc
 50
180.0994143893
 51
269.9752743977
  0
ARC
  5
545
100
AcDbEntity
  8
RACCORDO
100
AcDbCircle
 62
7
  6
CONTINUOUS
 10
-25.1350045297
 20
-21.8500507451
 40
0.4999715151
100
AcDbArc
 50
179.967960238
 51
269.9569011865
  0
ARC
  5
546
100
AcDbEntity
  8
0
100
AcDbCircle
 62
7
  6
CONTINUOUS
 10
-4.1234013972
 20
-11.0482881674
 40
0.474469227
100
AcDbArc
 50
212.9892010944
 51
213.8849873716
  0
ARC
  5
547
100
AcDbEntity
  8
0
100
AcDbCircle
 62
7
  6
CONTINUOUS
 10
-4.1419768306
 20
-11.0601530178
 40
0.4524284951
100
AcDbArc
 50
209.2660689787
 51
213.0097233353
  0
ARC
  5
548
100
AcDbEntity
  8
RACCORDO
100
AcDbCircle
 62
7
  6
CONTINUOUS
 10
-24.4179574248
 20
-24.2329572368
 40
0.2500199245
100
AcDbArc
 50
180.0050921742
 51
269.9949508958
  0
ARC
  5
549
100
AcDbEntity
  8
RACCORDO
100
AcDbCircle
 62
7
  6
CONTINUOUS
 10
-7.0179574248
 20
-24.2329572368
 40
0.2500199246
100
AcDbArc
 50
180.005092177
 51
269.9949508954
  0
ARC
  5
54A
100
AcDbEntity
  8
RACCORDO
100
AcDbCircle
 62
7
  6
CONTINUOUS
 10
-22.0520425199
 20
-24.2329574801
 40
0.2500198142
100
AcDbArc
 50
270.0050364384
 51
359.9949635616
  0
ARC
  5
54B
100
AcDbEntity
  8
RACCORDO
100
AcDbCircle
 62
7
  6
CONTINUOUS
 10
-4.6520425199
 20
-24.2329574801
 40
0.2500198142
100
AcDbArc
 50
270.005036437
 51
359.994963563
  0
ARC
  5
54C
100
AcDbEntity
  8
0
100
AcDbCircle
 62
7
  6
CONTINUOUS
 10
-3.5703885367
 20
-11.1564254893
 40
0.2293092621
100
AcDbArc
 50
135.4195484339
 51
140.3472702532
  0
ARC
  5
54D
100
AcDbEntity
  8
0
100
AcDbCircle
 62
7
  6
CONTINUOUS
 10
-3.5893703609
 20
-11.1404823978
 40
0.2045209108
100
AcDbArc
 50
140.3926764268
 51
143.563516052
  0
ARC
  5
54E
100
AcDbEntity
  8
0
100
AcDbCircle
 62
7
  6
CONTINUOUS
 10
-3.5893703609
 20
-10.89784568
 40
0.2045209108
100
AcDbArc
 50
216.436483948
 51
219.6073235732
  0
ARC
  5
54F
100
AcDbEntity
  8
RACCORDO
100
AcDbCircle
 62
253
  6
CONTINUOUS
 10
-13.2893629649
 20
-23.79319953
 40
0.1999932745
100
AcDbArc
 50
179.997387872
 51
269.9661574335
  0
ARC
  5
550
100
AcDbEntity
  8
RACCORDO
100
AcDbCircle
 62
253
  6
CONTINUOUS
 10
-15.7806369918
 20
-23.7931997187
 40
0.1999931886
100
AcDbArc
 50
270.0338302064
 51
0.0026661963
  0
ARC
  5
551
100
AcDbEntity
  8
RACCORDO
100
AcDbCircle
 62
253
  6
CONTINUOUS
 10
-5162.499170848
 20
7.8165801888
 40
5137.5025894506
100
AcDbArc
 50
0.0187742683
 51
0.1488093433
  0
ARC
  5
552
100
AcDbEntity
  8
RACCORDO
100
AcDbCircle
 62
253
  6
CONTINUOUS
 10
-5106.0744695657
 20
7.8164324115
 40
5080.5779643207
100
AcDbArc
 50
0.0188791531
 51
0.1496406784
  0
ARC
  5
553
100
AcDbEntity
  8
RACCORDO
100
AcDbCircle
 62
253
  6
CONTINUOUS
 10
-3.9886220508
 20
0.4822993683
 40
21.5528540843
100
AcDbArc
 50
331.3338658947
 51
332.4091562959
  0
ARC
  5
554
100
AcDbEntity
  8
RACCORDO
100
AcDbCircle
 62
253
  6
CONTINUOUS
 10
-4.2818086019
 20
0.5062002341
 40
20.8928370542
100
AcDbArc
 50
331.6137449071
 51
332.6814165598
  0
ARC
  5
555
100
AcDbEntity
  8
RACCORDO
100
AcDbCircle
 62
253
  6
CONTINUOUS
 10
-3.3406322722
 20
0.0004286837
 40
20.6566020812
100
AcDbArc
 50
152.6205945512
 51
180.001189051
  0
ARC
  5
556
100
AcDbEntity
  8
RACCORDO
100
AcDbCircle
 62
253
  6
CONTINUOUS
 10
-3.3001909925
 20
0.0011450841
 40
19.787860885
100
AcDbArc
 50
359.9966844073
 51
27.3178337293
  0
ARC
  5
557
100
AcDbEntity
  8
RACCORDO
100
AcDbCircle
 62
253
  6
CONTINUOUS
 10
-25.0218670267
 20
21.5096478423
 40
0.5001623718
100
AcDbArc
 50
90.024724921
 51
179.9005857564
  0
ARC
  5
558
100
AcDbEntity
  8
RACCORDO
100
AcDbCircle
 62
7
  6
CONTINUOUS
 10
-25.1350045273
 20
21.8500507478
 40
0.4999715149
100
AcDbArc
 50
90.0430990887
 51
180.0320400744
  0
ARC
  5
559
100
AcDbEntity
  8
RACCORDO
100
AcDbCircle
 62
7
  6
CONTINUOUS
 10
-22.0520425727
 20
24.232957207
 40
0.2500199347
100
AcDbArc
 50
0.0050990163
 51
89.9949514833
  0
ARC
  5
55A
100
AcDbEntity
  8
RACCORDO
100
AcDbCircle
 62
7
  6
CONTINUOUS
 10
-4.6520425727
 20
24.232957207
 40
0.2500199347
100
AcDbArc
 50
0.0050990147
 51
89.9949514872
  0
ARC
  5
55B
100
AcDbEntity
  8
RACCORDO
100
AcDbCircle
 62
7
  6
CONTINUOUS
 10
-24.4179574801
 20
24.2329574801
 40
0.2500198142
100
AcDbArc
 50
90.0050364362
 51
179.9949635638
  0
ARC
  5
55C
100
AcDbEntity
  8
RACCORDO
100
AcDbCircle
 62
7
  6
CONTINUOUS
 10
-7.01795748
 20
24.23295748
 40
0.2500198143
100
AcDbArc
 50
90.0050364433
 51
179.9949635567
  0
ARC
  5
55D
100
AcDbEntity
  8
RACCORDO
100
AcDbCircle
 62
253
  6
CONTINUOUS
 10
-15.7806370361
 20
23.793199531
 40
0.1999932746
100
AcDbArc
 50
359.997387575
 51
89.9661571254
  0
ARC
  5
55E
100
AcDbEntity
  8
RACCORDO
100
AcDbCircle
 62
253
  6
CONTINUOUS
 10
-13.2893630072
 20
23.7931997197
 40
0.1999931886
100
AcDbArc
 50
90.0338304816
 51
180.0026664622
  0
ARC
  5
55F
100
AcDbEntity
  8
RACCORDO
100
AcDbCircle
 62
253
  6
CONTINUOUS
 10
5155.9293674321
 20
-7.8165799013
 40
5137.5027860347
100
AcDbArc
 50
180.0187742708
 51
180.1488093408
  0
ARC
  5
560
100
AcDbEntity
  8
RACCORDO
100
AcDbCircle
 62
253
  6
CONTINUOUS
 10
5099.5046685405
 20
-7.8164321189
 40
5080.5781632956
100
AcDbArc
 50
180.0188791557
 51
180.1496406759
  0
ARC
  5
561
100
AcDbEntity
  8
RACCORDO
100
AcDbCircle
 62
253
  6
CONTINUOUS
 10
-2.5786717701
 20
-0.4832384537
 40
21.5557825293
100
AcDbArc
 50
151.3157883887
 51
152.4104076085
  0
ARC
  5
562
100
AcDbEntity
  8
RACCORDO
100
AcDbCircle
 62
253
  6
CONTINUOUS
 10
-2.2859170759
 20
-0.5070994816
 40
20.8953240469
100
AcDbArc
 50
151.5952745272
 51
152.6821614886
  0
ARC
  5
563
100
AcDbEntity
  8
RACCORDO
100
AcDbCircle
 62
253
  6
CONTINUOUS
 10
-3.2285233657
 20
-0.0004272363
 40
20.6557577191
100
AcDbArc
 50
332.6193770582
 51
0.0011850849
  0
ARC
  5
564
100
AcDbEntity
  8
RACCORDO
100
AcDbCircle
 62
253
  6
CONTINUOUS
 10
-3.2693390015
 20
-0.0011477272
 40
19.7883308911
100
AcDbArc
 50
179.996676833
 51
207.3171246491
  0
ARC
  5
565
100
AcDbEntity
  8
0
100
AcDbCircle
 62
253
  6
CONTINUOUS
 10
-3.1431136305
 20
-16.8986528084
 40
6.2625725048
100
AcDbArc
 50
78.340453799
 51
79.264337558
  0
ARC
  5
566
100
AcDbEntity
  8
0
100
AcDbCircle
 62
7
  6
CONTINUOUS
 10
3.2404317382
 20
-11.6073432319
 40
2.2245697845
100
AcDbArc
 50
0.0670379961
 51
11.0442942365
  0
ARC
  5
567
100
AcDbEntity
  8
RACCORDO
100
AcDbCircle
 62
253
  6
CONTINUOUS
 10
18.4515763525
 20
-21.5094167445
 40
0.5003950206
100
AcDbArc
 50
270.0579947601
 51
359.8941296984
  0
ARC
  5
568
100
AcDbEntity
  8
RACCORDO
100
AcDbCircle
 62
7
  6
CONTINUOUS
 10
18.5650045297
 20
-21.8500507452
 40
0.499971515
100
AcDbArc
 50
270.0430988171
 51
0.0320397713
  0
ARC
  5
569
100
AcDbEntity
  8
0
100
AcDbCircle
 62
7
  6
CONTINUOUS
 10
-2.4280231694
 20
-11.0601530178
 40
0.4524284951
100
AcDbArc
 50
326.9902766647
 51
330.7339310212
  0
ARC
  5
56A
100
AcDbEntity
  8
RACCORDO
100
AcDbCircle
 62
7
  6
CONTINUOUS
 10
-1.9179574248
 20
-24.2329572369
 40
0.2500199245
100
AcDbArc
 50
180.0050921717
 51
269.994950899
  0
ARC
  5
56B
100
AcDbEntity
  8
RACCORDO
100
AcDbCircle
 62
7
  6
CONTINUOUS
 10
15.4820425752
 20
-24.2329572369
 40
0.2500199245
100
AcDbArc
 50
180.0050921698
 51
269.9949509026
  0
ARC
  5
56C
100
AcDbEntity
  8
RACCORDO
100
AcDbCircle
 62
7
  6
CONTINUOUS
 10
0.4479574801
 20
-24.2329574801
 40
0.2500198142
100
AcDbArc
 50
270.0050364334
 51
359.9949635666
  0
ARC
  5
56D
100
AcDbEntity
  8
RACCORDO
100
AcDbCircle
 62
7
  6
CONTINUOUS
 10
17.8479574801
 20
-24.2329574801
 40
0.2500198142
100
AcDbArc
 50
270.005036437
 51
359.994963563
  0
ARC
  5
56E
100
AcDbEntity
  8
0
100
AcDbCircle
 62
7
  6
CONTINUOUS
 10
-2.9993672443
 20
-11.1562111303
 40
0.2289844421
100
AcDbArc
 50
39.6504286352
 51
44.4924452481
  0
ARC
  5
56F
100
AcDbEntity
  8
0
100
AcDbCircle
 62
7
  6
CONTINUOUS
 10
-2.9806296391
 20
-11.1404823978
 40
0.2045209108
100
AcDbArc
 50
36.436483948
 51
39.6073235732
  0
ARC
  5
570
100
AcDbEntity
  8
0
100
AcDbCircle
 62
7
  6
CONTINUOUS
 10
-2.9806296391
 20
-10.89784568
 40
0.2045209108
100
AcDbArc
 50
320.3926764268
 51
323.563516052
  0
ARC
  5
571
100
AcDbEntity
  8
RACCORDO
100
AcDbCircle
 62
253
  6
CONTINUOUS
 10
9.2106370351
 20
-23.79319953
 40
0.1999932745
100
AcDbArc
 50
179.9973878724
 51
269.9661574331
  0
ARC
  5
572
100
AcDbEntity
  8
RACCORDO
100
AcDbCircle
 62
253
  6
CONTINUOUS
 10
6.7193630082
 20
-23.7931997188
 40
0.1999931885
100
AcDbArc
 50
270.0338301995
 51
0.0026662032
  0
ARC
  5
573
100
AcDbEntity
  8
RACCORDO
100
AcDbCircle
 62
253
  6
CONTINUOUS
 10
5127.825519612
 20
7.8576802033
 40
5109.3989263554
100
AcDbArc
 50
179.8508330351
 51
179.9815833534
  0
ARC
  5
574
100
AcDbEntity
  8
RACCORDO
100
AcDbCircle
 62
253
  6
CONTINUOUS
 10
5071.7123481004
 20
7.8573038949
 40
5052.7858309964
100
AcDbArc
 50
179.8499997038
 51
179.9814804647
  0
ARC
  5
575
100
AcDbEntity
  8
RACCORDO
100
AcDbCircle
 62
253
  6
CONTINUOUS
 10
-2.5786754653
 20
0.483236489
 40
21.5557783426
100
AcDbArc
 50
207.5895923065
 51
208.6842117558
  0
ARC
  5
576
100
AcDbEntity
  8
RACCORDO
100
AcDbCircle
 62
253
  6
CONTINUOUS
 10
-2.2859186617
 20
0.5070986497
 40
20.8953222552
100
AcDbArc
 50
207.3178384814
 51
208.4047255451
  0
ARC
  5
577
100
AcDbEntity
  8
RACCORDO
100
AcDbCircle
 62
253
  6
CONTINUOUS
 10
-3.2285276309
 20
0.0004261936
 40
20.6557619842
100
AcDbArc
 50
359.9988178066
 51
27.3806200795
  0
ARC
  5
578
100
AcDbEntity
  8
RACCORDO
100
AcDbCircle
 62
253
  6
CONTINUOUS
 10
-3.2693341544
 20
0.0011465516
 40
19.7883357381
100
AcDbArc
 50
152.6828787683
 51
180.0033197622
  0
ARC
  5
579
100
AcDbEntity
  8
RACCORDO
100
AcDbCircle
 62
253
  6
CONTINUOUS
 10
18.4518670289
 20
21.5096478389
 40
0.5001623724
100
AcDbArc
 50
0.0994146312
 51
89.9752753284
  0
ARC
  5
57A
100
AcDbEntity
  8
RACCORDO
100
AcDbCircle
 62
7
  6
CONTINUOUS
 10
18.5650045272
 20
21.8500507478
 40
0.499971515
100
AcDbArc
 50
359.9679599315
 51
89.9569008914
  0
ARC
  5
57B
100
AcDbEntity
  8
RACCORDO
100
AcDbCircle
 62
7
  6
CONTINUOUS
 10
0.4479574273
 20
24.232957207
 40
0.2500199347
100
AcDbArc
 50
0.0050990197
 51
89.9949514831
  0
ARC
  5
57C
100
AcDbEntity
  8
RACCORDO
100
AcDbCircle
 62
7
  6
CONTINUOUS
 10
17.8479574273
 20
24.232957207
 40
0.2500199347
100
AcDbArc
 50
0.005099018
 51
89.9949514831
  0
ARC
  5
57D
100
AcDbEntity
  8
RACCORDO
100
AcDbCircle
 62
7
  6
CONTINUOUS
 10
-1.9179574801
 20
24.2329574801
 40
0.2500198142
100
AcDbArc
 50
90.0050364363
 51
179.9949635637
  0
ARC
  5
57E
100
AcDbEntity
  8
RACCORDO
100
AcDbCircle
 62
7
  6
CONTINUOUS
 10
15.48204252
 20
24.23295748
 40
0.2500198143
100
AcDbArc
 50
90.0050364433
 51
179.9949635567
  0
ARC
  5
57F
100
AcDbEntity
  8
RACCORDO
100
AcDbCircle
 62
253
  6
CONTINUOUS
 10
6.7193629639
 20
23.793199531
 40
0.1999932746
100
AcDbArc
 50
359.9973875815
 51
89.9661571189
  0
ARC
  5
580
100
AcDbEntity
  8
RACCORDO
100
AcDbCircle
 62
253
  6
CONTINUOUS
 10
9.2106369927
 20
23.7931997197
 40
0.1999931886
100
AcDbArc
 50
90.0338304736
 51
180.0026664703
  0
ARC
  5
581
100
AcDbEntity
  8
RACCORDO
100
AcDbCircle
 62
253
  6
CONTINUOUS
 10
-120.6088659737
 20
-48.6715340746
 40
53.0387147114
100
AcDbArc
 50
49.2442560276
 51
50.7586832
  0
ARC
  5
582
100
AcDbEntity
  8
RACCORDO
100
AcDbCircle
 62
253
  6
CONTINUOUS
 10
-112.843521101
 20
-39.1497616027
 40
40.7519485736
100
AcDbArc
 50
50.7457649657
 51
51.8561183913
  0
ARC
  5
583
100
AcDbEntity
  8
RACCORDO
100
AcDbCircle
 62
253
  6
CONTINUOUS
 10
-108.0088115754
 20
-32.9927804915
 40
32.9236050076
100
AcDbArc
 50
51.9448062412
 51
52.335472368
  0
ARC
  5
584
100
AcDbEntity
  8
RACCORDO
100
AcDbCircle
 62
253
  6
CONTINUOUS
 10
-49.7975217998
 20
-20.4909454572
 40
1.6322854484
100
AcDbArc
 50
268.8513220162
 51
270.9762638992
  0
ARC
  5
585
100
AcDbEntity
  8
ASSI
100
AcDbCircle
 62
253
  6
CONTINUOUS
 10
-49.7975217998
 20
-20.4909454572
 40
1.6322854484
100
AcDbArc
 50
268.8513220162
 51
270.9762638992
  0
ARC
  5
586
100
AcDbEntity
  8
RACCORDO
100
AcDbCircle
 62
7
  6
CONTINUOUS
 10
-73.0778624495
 20
-21.0112008711
 40
1.0
100
AcDbArc
 50
188.5430695997
 51
267.0
  0
ARC
  5
587
100
AcDbEntity
  8
RACCORDO
100
AcDbCircle
 62
253
  6
CONTINUOUS
 10
-73.0865563804
 20
-21.0111759752
 40
0.5000356131
100
AcDbArc
 50
188.5453412826
 51
266.6550509556
  0
ARC
  5
588
100
AcDbEntity
  8
RACCORDO
100
AcDbCircle
 62
7
  6
CONTINUOUS
 10
-45.8393758836
 20
-16.5
 40
0.5
100
AcDbArc
 50
270.0
 51
360.0
  0
ARC
  5
589
100
AcDbEntity
  8
RACCORDO
100
AcDbCircle
 62
7
  6
CONTINUOUS
 10
-59.1393758836
 20
-23.2432563202
 40
0.5
100
AcDbArc
 50
270.5
 51
360.0
  0
ARC
  5
58A
100
AcDbEntity
  8
ASSI
100
AcDbCircle
 62
7
  6
CONTINUOUS
 10
-59.1393758836
 20
-23.2432563202
 40
0.5
100
AcDbArc
 50
270.5
 51
360.0
  0
ARC
  5
58B
100
AcDbEntity
  8
ASSI
100
AcDbCircle
 62
7
  6
CONTINUOUS
 10
-45.8393758836
 20
-16.5
 40
0.5
100
AcDbArc
 50
270.0
 51
360.0
  0
ARC
  5
58C
100
AcDbEntity
  8
ASSI
100
AcDbCircle
 62
7
  6
CONTINUOUS
 10
-49.8675912177
 20
-21.722826685
 40
0.4049437698
100
AcDbArc
 50
292.2641583076
 51
298.643017722
  0
ARC
  5
58D
100
AcDbEntity
  8
ASSI
100
AcDbCircle
 62
7
  6
CONTINUOUS
 10
-49.8583265656
 20
-21.7444611239
 40
0.3814122652
100
AcDbArc
 50
291.0612564885
 51
292.2075034711
  0
ARC
  5
58E
100
AcDbEntity
  8
RACCORDO
100
AcDbCircle
 62
7
  6
CONTINUOUS
 10
-68.8893758836
 20
-23.8943375673
 40
0.25
100
AcDbArc
 50
120.0
 51
180.0
  0
ARC
  5
58F
100
AcDbEntity
  8
RACCORDO
100
AcDbCircle
 62
7
  6
CONTINUOUS
 10
-68.8893758836
 20
-24.2329794573
 40
0.25
100
AcDbArc
 50
180.0
 51
269.7
  0
ARC
  5
590
100
AcDbEntity
  8
ASSI
100
AcDbCircle
 62
7
  6
CONTINUOUS
 10
-49.8278410707
 20
-21.9934759031
 40
0.1294492852
100
AcDbArc
 50
268.9363679846
 51
270.6614858783
  0
ARC
  5
591
100
AcDbEntity
  8
RACCORDO
100
AcDbCircle
 62
7
  6
CONTINUOUS
 10
-49.8278470069
 20
-21.9951674196
 40
0.1277579525
100
AcDbArc
 50
268.9249480571
 51
270.6729058058
  0
ARC
  5
592
100
AcDbEntity
  8
RACCORDO
100
AcDbCircle
 62
7
  6
CONTINUOUS
 10
-87.6793361658
 20
-6.0721452497
 40
1.0000002832
100
AcDbArc
 50
197.9667166646
 51
229.0382613808
  0
ARC
  5
593
100
AcDbEntity
  8
RACCORDO
100
AcDbCircle
 62
7
  6
CONTINUOUS
 10
-87.5670981667
 20
-7.8070906799
 40
1.0
100
AcDbArc
 50
180.0
 51
240.0
  0
ARC
  5
594
100
AcDbEntity
  8
RACCORDO
100
AcDbCircle
 62
253
  6
CONTINUOUS
 10
-85.5001062542
 20
-8.4954773388
 40
0.4650207605
100
AcDbArc
 50
215.7924192872
 51
228.1429129911
  0
ARC
  5
595
100
AcDbEntity
  8
RACCORDO
100
AcDbCircle
 62
253
  6
CONTINUOUS
 10
-85.5052215564
 20
-8.5004864889
 40
0.4578768137
100
AcDbArc
 50
228.2014074442
 51
229.3227088954
  0
ARC
  5
596
100
AcDbEntity
  8
RACCORDO
100
AcDbCircle
 62
7
  6
CONTINUOUS
 10
-45.8393758836
 20
-4.9913486701
 40
0.5
100
AcDbArc
 50
0.0000044173
 51
89.0000000771
  0
ARC
  5
597
100
AcDbEntity
  8
ASSI
100
AcDbCircle
 62
7
  6
CONTINUOUS
 10
-45.8393758836
 20
-4.9913486701
 40
0.5
100
AcDbArc
 50
0.0000044173
 51
89.0000000771
  0
ARC
  5
598
100
AcDbEntity
  8
RACCORDO
100
AcDbCircle
 62
7
  6
CONTINUOUS
 10
-52.615880939
 20
-2.2976857957
 40
0.4
100
AcDbArc
 50
275.0000000001
 51
335.8742748027
  0
ARC
  5
599
100
AcDbEntity
  8
RACCORDO
100
AcDbCircle
 62
7
  6
CONTINUOUS
 10
-53.9393758836
 20
-2.4134765996
 40
0.4
100
AcDbArc
 50
180.0
 51
275.0
  0
ARC
  5
59A
100
AcDbEntity
  8
ASSI
100
AcDbCircle
 62
7
  6
CONTINUOUS
 10
-46.3393758836
 20
-3.3
 40
0.3
100
AcDbArc
 50
270.0
 51
360.0
  0
ARC
  5
59B
100
AcDbEntity
  8
ASSI
100
AcDbCircle
 62
7
  6
CONTINUOUS
 10
-46.3393758836
 20
-1.8
 40
0.3
100
AcDbArc
 50
0.0
 51
90.0
  0
ARC
  5
59C
100
AcDbEntity
  8
0
100
AcDbCircle
 62
7
  6
CONTINUOUS
 10
-58.6393758836
 20
0.4
 40
7.0
100
AcDbArc
 50
16.9270387468
 51
24.1257251973
  0
ARC
  5
59D
100
AcDbEntity
  8
0
100
AcDbCircle
 62
7
  6
CONTINUOUS
 10
-58.6393758836
 20
0.4
 40
7.0
100
AcDbArc
 50
335.8742748027
 51
343.0729612532
  0
ARC
  5
59E
100
AcDbEntity
  8
0
100
AcDbCircle
 62
7
  6
CONTINUOUS
 10
-58.3738766721
 20
0.530238552
 40
6.7046208968
100
AcDbArc
 50
9.3647724856
 51
16.4182019071
  0
ARC
  5
59F
100
AcDbEntity
  8
0
100
AcDbCircle
 62
7
  6
CONTINUOUS
 10
-58.3733944784
 20
0.2697226743
 40
6.7041435615
100
AcDbArc
 50
343.5810626847
 51
350.6334121227
  0
ARC
  5
5A0
100
AcDbEntity
  8
0
100
AcDbCircle
 62
7
  6
CONTINUOUS
 10
-57.3711862661
 20
0.8071295148
 40
5.6711663704
100
AcDbArc
 50
2.8152098219
 51
8.0847503803
  0
ARC
  5
5A1
100
AcDbEntity
  8
0
100
AcDbCircle
 62
7
  6
CONTINUOUS
 10
-57.3138950087
 20
-0.0125950365
 40
5.6136764888
100
AcDbArc
 50
351.8882431288
 51
357.2117896191
  0
ARC
  5
5A2
100
AcDbEntity
  8
0
100
AcDbCircle
 62
7
  6
CONTINUOUS
 10
-56.4709290075
 20
0.9766979184
 40
4.7561880233
100
AcDbArc
 50
7.5875464124
 51
7.7881258101
  0
ARC
  5
5A3
100
AcDbEntity
  8
0
100
AcDbCircle
 62
7
  6
CONTINUOUS
 10
-56.470925935
 20
-0.1766983252
 40
4.7561849249
100
AcDbArc
 50
352.2097986719
 51
352.4124546779
  0
ARC
  5
5A4
100
AcDbEntity
  8
0
100
AcDbCircle
 62
7
  6
CONTINUOUS
 10
-53.3191719749
 20
1.2458040883
 40
1.6202406344
100
AcDbArc
 50
351.2740570964
 51
354.32793811
  0
ARC
  5
5A5
100
AcDbEntity
  8
0
100
AcDbCircle
 62
7
  6
CONTINUOUS
 10
-53.3062203426
 20
-0.4441692575
 40
1.6071909602
100
AcDbArc
 50
5.6597089171
 51
8.7383831692
  0
ARC
  5
5A6
100
AcDbEntity
  8
RACCORDO
100
AcDbCircle
 62
7
  6
CONTINUOUS
 10
-52.615880939
 20
3.0976857957
 40
0.4
100
AcDbArc
 50
24.1257251973
 51
84.9999999999
  0
ARC
  5
5A7
100
AcDbEntity
  8
RACCORDO
100
AcDbCircle
 62
7
  6
CONTINUOUS
 10
-53.9393758836
 20
3.2134765996
 40
0.4
100
AcDbArc
 50
85.0
 51
180.0
  0
ARC
  5
5A8
100
AcDbEntity
  8
RACCORDO
100
AcDbCircle
 62
7
  6
CONTINUOUS
 10
-43.7393758836
 20
7.4
 40
0.2
100
AcDbArc
 50
270.0
 51
360.0
  0
ARC
  5
5A9
100
AcDbEntity
  8
RACCORDO
100
AcDbCircle
 62
7
  6
CONTINUOUS
 10
-44.8393758836
 20
6.65
 40
0.2
100
AcDbArc
 50
270.0
 51
360.0
  0
ARC
  5
5AA
100
AcDbEntity
  8
RACCORDO
100
AcDbCircle
 62
7
  6
CONTINUOUS
 10
-45.4393758836
 20
6.65
 40
0.2
100
AcDbArc
 50
180.0
 51
270.0
  0
ARC
  5
5AB
100
AcDbEntity
  8
RACCORDO
100
AcDbCircle
 62
7
  6
CONTINUOUS
 10
-73.0778624495
 20
21.0112008711
 40
1.0
100
AcDbArc
 50
93.0
 51
171.4569304003
  0
ARC
  5
5AC
100
AcDbEntity
  8
RACCORDO
100
AcDbCircle
 62
253
  6
CONTINUOUS
 10
-73.0865855107
 20
21.0111974093
 40
0.5000036215
100
AcDbArc
 50
93.0003388019
 51
171.4565915984
  0
ARC
  5
5AD
100
AcDbEntity
  8
RACCORDO
100
AcDbCircle
 62
7
  6
CONTINUOUS
 10
-59.1393758836
 20
23.2432563202
 40
0.5
100
AcDbArc
 50
0.0
 51
89.5
  0
ARC
  5
5AE
100
AcDbEntity
  8
ASSI
100
AcDbCircle
 62
7
  6
CONTINUOUS
 10
-59.1393758836
 20
23.2432563202
 40
0.5
100
AcDbArc
 50
0.0
 51
89.5
  0
ARC
  5
5AF
100
AcDbEntity
  8
RACCORDO
100
AcDbCircle
 62
7
  6
CONTINUOUS
 10
-68.8893758836
 20
23.8943375673
 40
0.25
100
AcDbArc
 50
180.0
 51
240.0
  0
ARC
  5
5B0
100
AcDbEntity
  8
RACCORDO
100
AcDbCircle
 62
7
  6
CONTINUOUS
 10
-68.8893758836
 20
24.2329794573
 40
0.25
100
AcDbArc
 50
90.3
 51
180.0
  0
ARC
  5
5B1
100
AcDbEntity
  8
0
100
AcDbCircle
 62
7
  6
CONTINUOUS
 10
-50.7393758836
 20
14.7572870994
 40
7.1629376174
100
AcDbArc
 50
87.1992620474
 51
92.8007379526
  0
ARC
  5
5B2
100
AcDbEntity
  8
0
100
AcDbCircle
 62
7
  6
CONTINUOUS
 10
-50.7393758836
 20
15.7
 40
6.4807406984
100
AcDbArc
 50
62.337238166
 51
84.8612239836
  0
ARC
  5
5B3
100
AcDbEntity
  8
0
100
AcDbCircle
 62
7
  6
CONTINUOUS
 10
-50.7393758836
 20
15.7
 40
6.4807406984
100
AcDbArc
 50
95.1387760164
 51
117.662761834
  0
ARC
  5
5B4
100
AcDbEntity
  8
0
100
AcDbCircle
 62
7
  6
CONTINUOUS
 10
-50.9316031734
 20
16.2131291518
 40
5.9542343735
100
AcDbArc
 50
93.1417336096
 51
93.7385872465
  0
ARC
  5
5B5
100
AcDbEntity
  8
RACCORDO
100
AcDbCircle
 62
7
  6
CONTINUOUS
 10
-43.7393758836
 20
12.0
 40
0.2
100
AcDbArc
 50
0.0
 51
90.0
  0
ARC
  5
5B6
100
AcDbEntity
  8
RACCORDO
100
AcDbCircle
 62
7
  6
CONTINUOUS
 10
-44.8393758836
 20
12.75
 40
0.2
100
AcDbArc
 50
0.0
 51
90.0
  0
ARC
  5
5B7
100
AcDbEntity
  8
RACCORDO
100
AcDbCircle
 62
7
  6
CONTINUOUS
 10
-45.4393758836
 20
12.75
 40
0.2
100
AcDbArc
 50
90.0
 51
180.0
  0
ARC
  5
5B8
100
AcDbEntity
  8
RACCORDO
100
AcDbCircle
 62
7
  6
CONTINUOUS
 10
-42.9970804752
 20
19.8606551487
 40
49.8397466612
100
AcDbArc
 50
239.7043053309
 51
240.0348644104
  0
ARC
  5
5B9
100
AcDbEntity
  8
0
100
AcDbCircle
 62
7
  6
CONTINUOUS
 10
-54.1393758836
 20
19.2
 40
1.0
100
AcDbArc
 50
90.0
 51
180.0
  0
ARC
  5
5BA
100
AcDbEntity
  8
RACCORDO
100
AcDbCircle
 62
7
  6
CONTINUOUS
 10
-55.6393758836
 20
21.7253731255
 40
0.5
100
AcDbArc
 50
0.0000070126
 51
89.0000001224
  0
ARC
  5
5BB
100
AcDbEntity
  8
ASSI
100
AcDbCircle
 62
7
  6
CONTINUOUS
 10
-55.6393758836
 20
21.7253731255
 40
0.5
100
AcDbArc
 50
0.0000070126
 51
89.0000001224
  0
ARC
  5
5BC
100
AcDbEntity
  8
0
100
AcDbCircle
 62
7
  6
CONTINUOUS
 10
-54.1393758836
 20
19.2
 40
0.2
100
AcDbArc
 50
90.0
 51
180.0
  0
ARC
  5
5BD
100
AcDbEntity
  8
RACCORDO
100
AcDbCircle
 62
7
  6
CONTINUOUS
 10
14.9346357966
 20
-7.79
 40
90.0
100
AcDbArc
 50
181.088685313
 51
188.5430695997
  0
ARC
  5
5BE
100
AcDbEntity
  8
RACCORDO
100
AcDbCircle
 62
7
  6
CONTINUOUS
 10
14.9346357966
 20
7.79
 40
90.0
100
AcDbArc
 50
171.4569304003
 51
178.91131468
  0
ARC
  5
5BF
100
AcDbEntity
  8
RACCORDO
100
AcDbCircle
 62
253
  6
CONTINUOUS
 10
14.9254332709
 20
-7.7900401308
 40
89.499523001
100
AcDbArc
 50
181.0886654274
 51
188.5430894923
  0
ARC
  5
5C0
100
AcDbEntity
  8
RACCORDO
100
AcDbCircle
 62
253
  6
CONTINUOUS
 10
14.9254332704
 20
7.7900401309
 40
89.4995230005
100
AcDbArc
 50
171.4569105076
 51
178.9113345726
  0
ARC
  5
5C1
100
AcDbEntity
  8
RACCORDO
100
AcDbCircle
 62
253
  6
CONTINUOUS
 10
9.8373081465
 20
7.3958966673
 40
85.5616053952
100
AcDbArc
 50
178.6400720894
 51
178.8706301278
  0
ARC
  5
5C2
100
AcDbEntity
  8
RACCORDO
100
AcDbCircle
 62
253
  6
CONTINUOUS
 10
9.79435259
 20
-7.3968299961
 40
85.5186397896
100
AcDbArc
 50
181.1293119218
 51
181.3599859541
  0
ARC
  5
5C3
100
AcDbEntity
  8
RACCORDO
100
AcDbCircle
 62
7
  6
CONTINUOUS
 10
424.8606241164
 20
-0.0
 40
500.0
100
AcDbArc
 50
178.91131468
 51
181.08868532
  0
ARC
  5
5C4
100
AcDbEntity
  8
RACCORDO
100
AcDbCircle
 62
253
  6
CONTINUOUS
 10
424.8972097898
 20
-0.0
 40
499.5453036978
100
AcDbArc
 50
178.9114134246
 51
181.0885865754
  0
ARC
  5
5C5
100
AcDbEntity
  8
RACCORDO
100
AcDbCircle
 62
253
  6
CONTINUOUS
 10
385.6808449649
 20
0.0027919747
 40
461.4778488812
100
AcDbArc
 50
178.8726399145
 51
180.0003466436
  0
ARC
  5
5C6
100
AcDbEntity
  8
RACCORDO
100
AcDbCircle
 62
253
  6
CONTINUOUS
 10
385.3238412211
 20
-0.006303348
 40
461.120845172
100
AcDbArc
 50
179.9992167883
 51
181.1277966259
  0
SPLINE
  5
5C7
100
AcDbEntity
  8
0
100
AcDbSpline
 62
7
  6
CONTINUOUS
 70
0
 71
3
 72
9
 73
5
 74
3
 42
0.0000001
 43
0.0000001
 44
0.0000000001
 12
0.0
 22
0.0933508999
 32
0.0
 13
0.0554180004
 23
0.0751214733
 33
0.0
 40
0.0
 40
0.0
 40
0.0
 40
0.0
 40
0.4785091849
 40
1.0
 40
1.0
 40
1.0
 40
1.0
 10
-3.785
 20
-11.1057665792
 30
0.0
 10
-3.785
 20
-11.0908768249
 30
0.0
 10
-3.7790878335
 20
-11.0595855325
 30
0.0
 10
-3.7635439841
 20
-11.0320694146
 30
0.0
 10
-3.753910658
 20
-11.0190110285
 30
0.0
 11
-3.785
 21
-11.1057665792
 31
0.0
 11
-3.7771365716
 21
-11.0617948889
 31
0.0
 11
-3.753910658
 21
-11.0190110285
 31
0.0
  0
SPLINE
  5
5C8
100
AcDbEntity
  8
0
100
AcDbSpline
 62
7
  6
CONTINUOUS
 70
0
 71
3
 72
9
 73
5
 74
3
 42
0.0000001
 43
0.0000001
 44
0.0000000001
 12
0.0554180004
 22
-0.0751214733
 32
0.0
 13
0.0
 23
-0.0933508999
 33
0.0
 40
0.0
 40
0.0
 40
0.0
 40
0.0
 40
0.5214908151
 40
1.0
 40
1.0
 40
1.0
 40
1.0
 10
-2.816089342
 20
-11.0190110285
 30
0.0
 10
-2.8064560159
 20
-11.0320694146
 30
0.0
 10
-2.7909121665
 20
-11.0595855325
 30
0.0
 10
-2.785
 20
-11.0908768249
 30
0.0
 10
-2.785
 20
-11.1057665792
 30
0.0
 11
-2.816089342
 21
-11.0190110285
 31
0.0
 11
-2.7928634284
 21
-11.0617948889
 31
0.0
 11
-2.785
 21
-11.1057665792
 31
0.0
  0
SPLINE
  5
5C9
100
AcDbEntity
  8
0
100
AcDbSpline
 62
7
  6
CONTINUOUS
 70
0
 71
3
 72
9
 73
5
 74
3
 42
0.0000001
 43
0.0000001
 44
0.0000000001
 12
-0.0261090944
 22
-0.0315738429
 32
0.0
 13
-0.0309543872
 23
-0.0268406088
 33
0.0
 40
0.0
 40
0.0
 40
0.0
 40
0.0
 40
0.2411051398
 40
1.0
 40
1.0
 40
1.0
 40
1.0
 10
-2.8230602337
 20
-11.0282323566
 30
0.0
 10
-2.8251585794
 20
-11.0307698952
 30
0.0
 10
-2.834106294
 20
-11.0410914699
 30
0.0
 10
-2.8439656238
 20
-11.0506083819
 30
0.0
 10
-2.8517959989
 20
-11.0573981153
 30
0.0
 11
-2.8230602337
 21
-11.0282323566
 31
0.0
 11
-2.8295262531
 21
-11.0357002882
 31
0.0
 11
-2.8517959989
 21
-11.0573981153
 31
0.0
  0
SPLINE
  5
5CA
100
AcDbEntity
  8
0
100
AcDbSpline
 62
7
  6
CONTINUOUS
 70
0
 71
3
 72
13
 73
9
 74
7
 42
0.0000001
 43
0.0000001
 44
0.0000000001
 12
-0.6924112589
 22
-0.6003911376
 32
0.0
 13
-0.6924112589
 23
0.6003911376
 33
0.0
 40
0.0
 40
0.0
 40
0.0
 40
0.0
 40
0.103485059
 40
0.224583336
 40
0.5
 40
0.775416664
 40
0.896514941
 40
1.0
 40
1.0
 40
1.0
 40
1.0
 10
-2.8517959989
 20
-11.0573981153
 30
0.0
 10
-2.8756807389
 20
-11.0781086193
 30
0.0
 10
-2.934646453
 20
-11.1148387609
 30
0.0
 10
-3.0785094182
 20
-11.1679644436
 30
0.0
 10
-3.285
 20
-11.1927005166
 30
0.0
 10
-3.4914905818
 20
-11.1679644436
 30
0.0
 10
-3.635353547
 20
-11.1148387609
 30
0.0
 10
-3.6943192611
 20
-11.0781086193
 30
0.0
 10
-3.7182040011
 20
-11.0573981153
 30
0.0
 11
-2.8517959989
 21
-11.0573981153
 31
0.0
 11
-2.9312222105
 21
-11.1092259935
 31
0.0
 11
-3.0348322785
 21
-11.1489997951
 31
0.0
 11
-3.285
 21
-11.1825614985
 31
0.0
 11
-3.5351677215
 21
-11.1489997951
 31
0.0
 11
-3.6387777895
 21
-11.1092259935
 31
0.0
 11
-3.7182040011
 21
-11.0573981153
 31
0.0
  0
SPLINE
  5
5CB
100
AcDbEntity
  8
0
100
AcDbSpline
 62
7
  6
CONTINUOUS
 70
0
 71
3
 72
9
 73
5
 74
3
 42
0.0000001
 43
0.0000001
 44
0.0000000001
 12
-0.0309532972
 22
0.0268396637
 32
0.0
 13
-0.0261081751
 23
0.0315727311
 33
0.0
 40
0.0
 40
0.0
 40
0.0
 40
0.0
 40
0.2592529473
 40
1.0
 40
1.0
 40
1.0
 40
1.0
 10
-3.7182040011
 20
-11.0573981153
 30
0.0
 10
-3.7208789123
 20
-11.0550786946
 30
0.0
 10
-3.7310304571
 20
-11.0459443812
 30
0.0
 10
-3.7404932483
 20
-11.0360281591
 30
0.0
 10
-3.7469397663
 20
-11.0282323566
 30
0.0
 11
-3.7182040011
 21
-11.0573981153
 31
0.0
 11
-3.7260962555
 21
-11.0502899455
 31
0.0
 11
-3.7469397663
 21
-11.0282323566
 31
0.0
  0
SPLINE
  5
5CC
100
AcDbEntity
  8
0
100
AcDbSpline
 62
7
  6
CONTINUOUS
 70
0
 71
3
 72
35
 73
31
 74
29
 42
0.0000001
 43
0.0000001
 44
0.0000000001
 12
2.3416395548
 22
-1.9877855989
 32
0.0
 13
-2.7214012683
 23
-1.4242691208
 33
0.0
 40
0.0
 40
0.0
 40
0.0
 40
0.0
 40
0.003044391
 40
0.0048788672
 40
0.0054895479
 40
0.0061150574
 40
0.0079919733
 40
0.0111382815
 40
0.0155739851
 40
0.0212926304
 40
0.0282500626
 40
0.0364006809
 40
0.0457003975
 40
0.0561067706
 40
0.0800600253
 40
0.1078319942
 40
0.1389646868
 40
0.1730189995
 40
0.2096008179
 40
0.2483281924
 40
0.3307735618
 40
0.4178211481
 40
0.5071496927
 40
0.5966051793
 40
0.684011864
 40
0.7671070032
 40
0.8433305729
 40
0.9098010905
 40
0.9631765305
 40
1.0
 40
1.0
 40
1.0
 40
1.0
 10
-1.7866077917
 20
-11.266179905
 30
0.0
 10
-1.7842315029
 20
-11.2681971039
 30
0.0
 10
-1.7798960472
 20
-11.2717337542
 30
0.0
 10
-1.7767010064
 20
-11.2743563467
 30
0.0
 10
-1.7726295028
 20
-11.2773218399
 30
0.0
 10
-1.7768431577
 20
-11.2743585582
 30
0.0
 10
-1.7804600356
 20
-11.2721109216
 30
0.0
 10
-1.7894203025
 20
-11.2665213225
 30
0.0
 10
-1.800892427
 20
-11.2599305508
 30
0.0
 10
-1.8163900025
 20
-11.2514351801
 30
0.0
 10
-1.835279439
 20
-11.241655648
 30
0.0
 10
-1.8577282653
 20
-11.230629625
 30
0.0
 10
-1.8835924321
 20
-11.2186171531
 30
0.0
 10
-1.9245394552
 20
-11.2006716823
 30
0.0
 10
-1.9836761721
 20
-11.1771750706
 30
0.0
 10
-2.0636896671
 20
-11.1489260318
 30
0.0
 10
-2.1545689991
 20
-11.120573982
 30
0.0
 10
-2.2551430481
 20
-11.0932522454
 30
0.0
 10
-2.3641575202
 20
-11.0675927798
 30
0.0
 10
-2.5225272981
 20
-11.0357286958
 30
0.0
 10
-2.7334952781
 20
-11.0040047436
 30
0.0
 10
-2.9975658746
 20
-10.9801915317
 30
0.0
 10
-3.269756195
 20
-10.9715511942
 30
0.0
 10
-3.5423575625
 20
-10.9784933643
 30
0.0
 10
-3.8077518638
 20
-11.000590453
 30
0.0
 10
-4.0579434675
 20
-11.0366105692
 30
0.0
 10
-4.2844125141
 20
-11.0837955459
 30
0.0
 10
-4.4779295151
 20
-11.1378653883
 30
0.0
 10
-4.628922304
 20
-11.1923952826
 30
0.0
 10
-4.7132717921
 20
-11.2303489317
 30
0.0
 10
-4.7466756043
 20
-11.2478311085
 30
0.0
 11
-1.7866077917
 21
-11.266179905
 31
0.0
 11
-1.7794033312
 21
-11.2721413062
 31
0.0
 11
-1.7749648732
 21
-11.2756126559
 31
0.0
 11
-1.7734574967
 21
-11.2767290154
 31
0.0
 11
-1.7750378381
 21
-11.2756363535
 31
0.0
 11
-1.7798625336
 21
-11.2724806391
 31
0.0
 11
-1.7880882196
 21
-11.2674078412
 31
0.0
 11
-1.7998694574
 21
-11.2605644537
 31
0.0
 11
-1.8152714665
 21
-11.2521195813
 31
0.0
 11
-1.8342381208
 21
-11.2422730392
 31
0.0
 11
-1.8567046297
 21
-11.2312268351
 31
0.0
 11
-1.8826062025
 21
-11.2191829771
 31
0.0
 11
-1.9118780488
 21
-11.2063434729
 31
0.0
 11
-1.9801954169
 21
-11.1790323105
 31
0.0
 11
-2.0606008789
 21
-11.1505423805
 31
0.0
 11
-2.1518708171
 21
-11.1220081656
 31
0.0
 11
-2.2527855653
 21
-11.0944864344
 31
0.0
 11
-2.3621448232
 21
-11.0686761937
 31
0.0
 11
-2.4787538719
 21
-11.0451733457
 31
0.0
 11
-2.7291164585
 21
-11.0071262169
 31
0.0
 11
-2.9953950037
 21
-10.9829577098
 31
0.0
 11
-3.2696334867
 21
-10.9741700175
 31
0.0
 11
-3.5443123669
 21
-10.9812128226
 31
0.0
 11
-3.8118459265
 21
-11.003689815
 31
0.0
 11
-4.0644331928
 21
-11.0403435208
 31
0.0
 11
-4.2935422696
 21
-11.0885532176
 31
0.0
 11
-4.4899982627
 21
-11.1441416352
 31
0.0
 11
-4.6439706729
 21
-11.2004531846
 31
0.0
 11
-4.7466756043
 21
-11.2478311085
 31
0.0
  0
SPLINE
  5
5CD
100
AcDbEntity
  8
RACCORDO
100
AcDbSpline
 62
7
  6
CONTINUOUS
 70
0
 71
3
 72
23
 73
19
 74
17
 42
0.0000001
 43
0.0000001
 44
0.0000000001
 12
10.1476950597
 22
-14.3510079802
 32
0.0
 13
10.1476950597
 23
14.3510079802
 33
0.0
 40
0.0
 40
0.0
 40
0.0
 40
0.0
 40
0.0506690212
 40
0.1044995756
 40
0.1621016896
 40
0.2237212554
 40
0.289078327
 40
0.3575352819
 40
0.428198427
 40
0.5000058513
 40
0.5718129057
 40
0.6424753135
 40
0.7109312567
 40
0.7762865131
 40
0.8379042388
 40
0.8955039158
 40
0.9493321041
 40
1.0
 40
1.0
 40
1.0
 40
1.0
 10
-11.2624135869
 20
-13.4479739235
 30
0.0
 10
-11.0910223282
 20
-13.690357766
 30
0.0
 10
-10.679879
 20
-14.1506913364
 30
0.0
 10
-9.9276190181
 20
-14.7365004882
 30
0.0
 10
-9.0427819896
 20
-15.2376683824
 30
0.0
 10
-8.042704655
 20
-15.654756367
 30
0.0
 10
-6.9444805981
 20
-15.9849342777
 30
0.0
 10
-5.7691737662
 20
-16.2245200191
 30
0.0
 10
-4.5406313027
 20
-16.3699650426
 30
0.0
 10
-3.2848992723
 20
-16.4187373787
 30
0.0
 10
-2.0291724303
 20
-16.3699468511
 30
0.0
 10
-0.8006437611
 20
-16.224491284
 30
0.0
 10
0.3746396696
 20
-15.9848950639
 30
0.0
 10
1.4728333096
 20
-15.65471082
 30
0.0
 10
2.4728713679
 20
-15.2376219404
 30
0.0
 10
3.3576697137
 20
-14.7364648841
 30
0.0
 10
4.1098954389
 20
-14.1506692611
 30
0.0
 10
4.5210261344
 20
-13.6903523832
 30
0.0
 10
4.6924135869
 20
-13.4479739235
 30
0.0
 11
-11.2624135869
 21
-13.4479739235
 31
0.0
 11
-10.6749661902
 21
-14.1173240353
 31
0.0
 11
-9.9328357355
 21
-14.7042051212
 31
0.0
 11
-9.0548342912
 21
-15.2083229866
 31
0.0
 11
-8.0569367279
 21
-15.6292598353
 31
0.0
 11
-6.9578001505
 21
-15.963169318
 31
0.0
 11
-5.7792738701
 21
-16.2056934972
 31
0.0
 11
-4.5460404616
 21
-16.3529861318
 31
0.0
 11
-3.2848972501
 21
-16.4023900535
 31
0.0
 11
-2.0237612219
 21
-16.352968842
 31
0.0
 11
-0.7905423166
 21
-16.2056640613
 31
0.0
 11
0.3879635824
 21
-15.9631290554
 31
0.0
 11
1.4870652031
 21
-15.6292142626
 31
0.0
 11
2.4849272123
 21
-15.2082763436
 31
0.0
 11
3.3628861224
 21
-14.7041704216
 31
0.0
 11
4.1049792531
 21
-14.1173091851
 31
0.0
 11
4.6924135869
 21
-13.4479739235
 31
0.0
  0
SPLINE
  5
5CE
100
AcDbEntity
  8
0
100
AcDbSpline
 62
7
  6
CONTINUOUS
 70
0
 71
3
 72
11
 73
7
 74
5
 42
0.0000001
 43
0.0000001
 44
0.0000000001
 12
0.903726228
 22
1.2780919652
 32
0.0
 13
0.0
 23
1.5653243008
 33
0.0
 40
0.0
 40
0.0
 40
0.0
 40
0.0
 40
0.2661936059
 40
0.5189934782
 40
0.762161216
 40
1.0
 40
1.0
 40
1.0
 40
1.0
 10
4.9645780402
 20
-13.0630735543
 30
0.0
 10
5.0447667546
 20
-12.949666918
 30
0.0
 10
5.1877071854
 20
-12.7185435518
 30
0.0
 10
5.3469852235
 20
-12.3525436514
 30
0.0
 10
5.4432848093
 20
-11.9803016941
 30
0.0
 10
5.465
 20
-11.7288386868
 30
0.0
 10
5.465
 20
-11.6047404107
 30
0.0
 11
4.9645780402
 21
-13.0630735543
 31
0.0
 11
5.1823253877
 21
-12.7078162554
 31
0.0
 11
5.3389798245
 21
-12.34443108
 31
0.0
 11
5.4334013147
 21
-11.9756918391
 31
0.0
 11
5.465
 21
-11.6047404107
 31
0.0
  0
SPLINE
  5
5CF
100
AcDbEntity
  8
0
100
AcDbSpline
 62
7
  6
CONTINUOUS
 70
0
 71
3
 72
11
 73
7
 74
5
 42
0.0000001
 43
0.0000001
 44
0.0000000001
 12
0.0
 22
-1.5653243008
 32
0.0
 13
0.903726228
 23
-1.2780919652
 33
0.0
 40
0.0
 40
0.0
 40
0.0
 40
0.0
 40
0.237838784
 40
0.4810065218
 40
0.7338063941
 40
1.0
 40
1.0
 40
1.0
 40
1.0
 10
-12.035
 20
-11.6047404107
 30
0.0
 10
-12.035
 20
-11.7288386868
 30
0.0
 10
-12.0132848093
 20
-11.9803016941
 30
0.0
 10
-11.9169852235
 20
-12.3525436514
 30
0.0
 10
-11.7577071854
 20
-12.7185435518
 30
0.0
 10
-11.6147667546
 20
-12.949666918
 30
0.0
 10
-11.5345780402
 20
-13.0630735543
 30
0.0
 11
-12.035
 21
-11.6047404107
 31
0.0
 11
-12.0034013147
 21
-11.9756918391
 31
0.0
 11
-11.9089798245
 21
-12.34443108
 31
0.0
 11
-11.7523253877
 21
-12.7078162554
 31
0.0
 11
-11.5345780402
 21
-13.0630735543
 31
0.0
  0
SPLINE
  5
5D0
100
AcDbEntity
  8
RACCORDO
100
AcDbSpline
 62
253
  6
CONTINUOUS
 70
0
 71
3
 72
33
 73
29
 74
27
 42
0.0000001
 43
0.0000001
 44
0.0000000001
 12
0.0000000004
 22
20.4828072378
 32
0.0
 13
-0.0000000001
 23
-20.4828072378
 33
0.0
 40
0.0
 40
0.0
 40
0.0
 40
0.0
 40
0.020332493
 40
0.0412558752
 40
0.0632502935
 40
0.0867153025
 40
0.1119379246
 40
0.1390783691
 40
0.1682037956
 40
0.1992951624
 40
0.2494154247
 40
0.3032764719
 40
0.3601883244
 40
0.4193228025
 40
0.4797585922
 40
0.5405227275
 40
0.6006308491
 40
0.6591236474
 40
0.7151048856
 40
0.7677865817
 40
0.8165381439
 40
0.8609476133
 40
0.900904919
 40
0.9367115113
 40
0.9533332882
 40
0.9692904459
 40
0.9847752568
 40
1.0
 40
1.0
 40
1.0
 40
1.0
 10
5.1763248654
 20
-12.0377531126
 30
0.0
 10
5.1763248654
 20
-11.898930934
 30
0.0
 10
5.148075293
 20
-11.6165326264
 30
0.0
 10
5.023141434
 20
-11.2006890949
 30
0.0
 10
4.8170896309
 20
-10.7945840821
 30
0.0
 10
4.5332449386
 20
-10.4021936059
 30
0.0
 10
4.174703057
 20
-10.0268147649
 30
0.0
 10
3.7452766435
 20
-9.6713496835
 30
0.0
 10
3.2488729952
 20
-9.3390929013
 30
0.0
 10
2.5876024999
 20
-8.9764971388
 30
0.0
 10
1.7373941282
 20
-8.6142269793
 30
0.0
 10
0.6877132346
 20
-8.2852721706
 30
0.0
 10
-0.4466738256
 20
-8.0361547175
 30
0.0
 10
-1.6416209575
 20
-7.872203025
 30
0.0
 10
-2.8717007803
 20
-7.7969794769
 30
0.0
 10
-4.110613704
 20
-7.8120728085
 30
0.0
 10
-5.3318768907
 20
-7.9171450096
 30
0.0
 10
-6.5094130912
 20
-8.1099397131
 30
0.0
 10
-7.6181546072
 20
-8.3863513032
 30
0.0
 10
-8.6346762278
 20
-8.7404991499
 30
0.0
 10
-9.5377276199
 20
-9.1649815595
 30
0.0
 10
-10.3087647126
 20
-9.6515574262
 30
0.0
 10
-10.9317333455
 20
-10.1910205608
 30
0.0
 10
-11.3259570906
 20
-10.690259424
 30
0.0
 10
-11.5454242906
 20
-11.1036355019
 30
0.0
 10
-11.6609617989
 20
-11.4118699859
 30
0.0
 10
-11.7306597857
 20
-11.7238193143
 30
0.0
 10
-11.7463248654
 20
-11.9338046189
 30
0.0
 10
-11.7463248654
 20
-12.0377531126
 30
0.0
 11
5.1763248654
 21
-12.0377531126
 31
0.0
 11
5.1355483719
 21
-11.6232876099
 31
0.0
 11
5.0137428936
 21
-11.2123918443
 31
0.0
 11
4.8119514287
 21
-10.8096051146
 31
0.0
 11
4.5322448773
 21
-10.418748712
 31
0.0
 11
4.177193174
 21
-10.0434555527
 31
0.0
 11
3.750334519
 21
-9.6873230091
 31
0.0
 11
3.2556670247
 21
-9.3538557306
 31
0.0
 11
2.6980602079
 21
-9.0462230264
 31
0.0
 11
1.7553926559
 21
-8.639660629
 31
0.0
 11
0.7036253501
 21
-8.3066562443
 31
0.0
 11
-0.4344698631
 21
-8.0544071724
 31
0.0
 11
-1.6342774106
 21
-7.8883816719
 31
0.0
 11
-2.8698254058
 21
-7.8121959244
 31
0.0
 11
-4.1143516406
 21
-7.8274789157
 31
0.0
 11
-5.3409277845
 21
-7.9338871429
 31
0.0
 11
-6.5230088687
 21
-8.1291306876
 31
0.0
 11
-7.6349825371
 21
-8.4090011224
 31
0.0
 11
-8.652786724
 21
-8.7674207063
 31
0.0
 11
-9.5544130882
 21
-9.1966172233
 31
0.0
 11
-10.3203345305
 21
-9.6873230176
 31
0.0
 11
-10.9339311696
 21
-10.2289313455
 31
0.0
 11
-11.3819514366
 21
-10.8096051307
 31
0.0
 11
-11.5407268779
 21
-11.1107758706
 31
0.0
 11
-11.6547251364
 21
-11.4170985936
 31
0.0
 11
-11.7233696681
 21
-11.7267536543
 31
0.0
 11
-11.7463248654
 21
-12.0377531126
 31
0.0
  0
SPLINE
  5
5D1
100
AcDbEntity
  8
RACCORDO
100
AcDbSpline
 62
253
  6
CONTINUOUS
 70
0
 71
3
 72
9
 73
5
 74
3
 42
0.0000001
 43
0.0000001
 44
0.0000000001
 12
0.2700600114
 22
0.3819396122
 32
0.0
 13
0.2062165717
 23
0.4198630762
 33
0.0
 40
0.0
 40
0.0
 40
0.0
 40
0.0
 40
0.2563146908
 40
1.0
 40
1.0
 40
1.0
 40
1.0
 10
4.6924150082
 20
-13.4479737381
 30
0.0
 10
4.7154884576
 20
-13.4153414936
 30
0.0
 10
4.8031560026
 20
-13.2863921085
 30
0.0
 10
4.8810929202
 20
-13.1507421851
 30
0.0
 10
4.9322129985
 20
-13.0466601845
 30
0.0
 11
4.6924150082
 21
-13.4479737381
 31
0.0
 11
4.7597901418
 21
-13.3487980433
 31
0.0
 11
4.9322129985
 21
-13.0466601845
 31
0.0
  0
SPLINE
  5
5D2
100
AcDbEntity
  8
RACCORDO
100
AcDbSpline
 62
253
  6
CONTINUOUS
 70
0
 71
3
 72
9
 73
5
 74
3
 42
0.0000001
 43
0.0000001
 44
0.0000000001
 12
0.4606479005
 22
0.9378928323
 32
0.0
 13
0.0
 23
1.0449112178
 33
0.0
 40
0.0
 40
0.0
 40
0.0
 40
0.0
 40
0.5103747174
 40
1.0
 40
1.0
 40
1.0
 40
1.0
 10
4.9322129985
 20
-13.0466601845
 30
0.0
 10
5.0105806791
 20
-12.8871012548
 30
0.0
 10
5.1332239796
 20
-12.557763637
 30
0.0
 10
5.1763248654
 20
-12.2082914294
 30
0.0
 10
5.1763248654
 20
-12.0377531126
 30
0.0
 11
4.9322129985
 21
-13.0466601845
 31
0.0
 11
5.1150493635
 21
-12.5456853622
 31
0.0
 11
5.1763248654
 21
-12.0377531126
 31
0.0
  0
SPLINE
  5
5D3
100
AcDbEntity
  8
0
100
AcDbSpline
 62
7
  6
CONTINUOUS
 70
0
 71
3
 72
31
 73
27
 74
25
 42
0.0000001
 43
0.0000001
 44
0.0000000001
 12
3.8843583916
 22
19.9559061551
 32
0.0
 13
3.8843583916
 23
-19.9559061551
 33
0.0
 40
0.0
 40
0.0
 40
0.0
 40
0.0
 40
0.0204203013
 40
0.0417939732
 40
0.0644715544
 40
0.0887172125
 40
0.1146958143
 40
0.1424828939
 40
0.1720899826
 40
0.2034647371
 40
0.2710694071
 40
0.3441445465
 40
0.4210773161
 40
0.5
 40
0.5789226839
 40
0.6558554535
 40
0.7289305929
 40
0.7965352629
 40
0.8279100174
 40
0.8575171061
 40
0.8853041857
 40
0.9112827875
 40
0.9355284456
 40
0.9582060268
 40
0.9795796987
 40
1.0
 40
1.0
 40
1.0
 40
1.0
 10
-11.9938011098
 20
-11.1811872592
 30
0.0
 10
-11.9673611869
 20
-11.0453520535
 30
0.0
 10
-11.8877380334
 20
-10.7717688707
 30
0.0
 10
-11.6964053429
 20
-10.3770468391
 30
0.0
 10
-11.4337946295
 20
-9.9940516045
 30
0.0
 10
-11.102562225
 20
-9.6258445683
 30
0.0
 10
-10.705735889
 20
-9.2750245226
 30
0.0
 10
-10.2467069711
 20
-8.944210561
 30
0.0
 10
-9.7291956843
 20
-8.6361607366
 30
0.0
 10
-8.9476007068
 20
-8.2492492196
 30
0.0
 10
-7.8505794062
 20
-7.8440228948
 30
0.0
 10
-6.4155095935
 20
-7.493235909
 30
0.0
 10
-4.8766176645
 20
-7.2779432648
 30
0.0
 10
-3.285
 20
-7.2053645718
 30
0.0
 10
-1.6933823355
 20
-7.2779432648
 30
0.0
 10
-0.1544904065
 20
-7.493235909
 30
0.0
 10
1.2805794062
 20
-7.8440228948
 30
0.0
 10
2.3776007068
 20
-8.2492492196
 30
0.0
 10
3.1591956843
 20
-8.6361607366
 30
0.0
 10
3.6767069711
 20
-8.944210561
 30
0.0
 10
4.135735889
 20
-9.2750245226
 30
0.0
 10
4.532562225
 20
-9.6258445683
 30
0.0
 10
4.8637946295
 20
-9.9940516045
 30
0.0
 10
5.1264053429
 20
-10.3770468391
 30
0.0
 10
5.3177380334
 20
-10.7717688707
 30
0.0
 10
5.3973611869
 20
-11.0453520535
 30
0.0
 10
5.4238011098
 20
-11.1811872592
 30
0.0
 11
-11.9938011098
 21
-11.1811872592
 31
0.0
 11
-11.8789527888
 21
-10.7822357373
 31
0.0
 11
-11.6911756111
 21
-10.3903668357
 31
0.0
 11
-11.4321696476
 21
-10.0089505201
 31
0.0
 11
-11.1040775719
 21
-9.6410778085
 31
0.0
 11
-10.7096762163
 21
-9.2897994067
 31
0.0
 11
-10.2523669799
 21
-8.9581269679
 31
0.0
 11
-9.7359290589
 21
-8.6489256843
 31
0.0
 11
-9.16485894
 21
-8.3647651394
 31
0.0
 11
-7.8783572893
 21
-7.8810533746
 31
0.0
 11
-6.4364111008
 21
-7.5233602046
 31
0.0
 11
-4.8878236886
 21
-7.3037880442
 31
0.0
 11
-3.285
 21
-7.2297625217
 31
0.0
 11
-1.6821763114
 21
-7.3037880442
 31
0.0
 11
-0.1335888992
 21
-7.5233602046
 31
0.0
 11
1.3083572893
 21
-7.8810533746
 31
0.0
 11
2.59485894
 21
-8.3647651394
 31
0.0
 11
3.1659290589
 21
-8.6489256843
 31
0.0
 11
3.6823669799
 21
-8.9581269679
 31
0.0
 11
4.1396762163
 21
-9.2897994067
 31
0.0
 11
4.5340775719
 21
-9.6410778085
 31
0.0
 11
4.8621696476
 21
-10.0089505201
 31
0.0
 11
5.1211756111
 21
-10.3903668357
 31
0.0
 11
5.3089527888
 21
-10.7822357373
 31
0.0
 11
5.4238011098
 21
-11.1811872592
 31
0.0
  0
SPLINE
  5
5D4
100
AcDbEntity
  8
RACCORDO
100
AcDbSpline
 62
253
  6
CONTINUOUS
 70
0
 71
3
 72
32
 73
28
 74
26
 42
0.0000001
 43
0.0000001
 44
0.0000000001
 12
0.0
 22
-18.3851282361
 32
0.0
 13
0.0
 23
18.3851282361
 33
0.0
 40
0.0
 40
0.0
 40
0.0
 40
0.0
 40
0.0203336401
 40
0.0412580111
 40
0.0632538055
 40
0.0867205035
 40
0.1119448433
 40
0.1390870788
 40
0.1682145061
 40
0.1993080278
 40
0.2494317437
 40
0.3032965314
 40
0.3602123539
 40
0.4193509598
 40
0.47979098
 40
0.5405593693
 40
0.6006716955
 40
0.6591685787
 40
0.7151537129
 40
0.7678390495
 40
0.8165939917
 40
0.8610065152
 40
0.9009664564
 40
0.9367756024
 40
0.9692888184
 40
0.9847743632
 40
1.0
 40
1.0
 40
1.0
 40
1.0
 10
-10.8802994616
 20
-12.4707658145
 30
0.0
 10
-10.8802994616
 20
-12.5953780079
 30
0.0
 10
-10.8549452229
 20
-12.8488688827
 30
0.0
 10
-10.7427986839
 20
-13.2221459042
 30
0.0
 10
-10.557837419
 20
-13.5866828264
 30
0.0
 10
-10.3030479635
 20
-13.9389141873
 30
0.0
 10
-9.9812044458
 20
-14.2758746082
 30
0.0
 10
-9.5957305917
 20
-14.5949579071
 30
0.0
 10
-9.1501345932
 20
-14.8932086324
 30
0.0
 10
-8.5565458436
 20
-15.2186943353
 30
0.0
 10
-7.7933563224
 20
-15.5438873466
 30
0.0
 10
-6.8511097798
 20
-15.8391742431
 30
0.0
 10
-5.832826425
 20
-16.0627953941
 30
0.0
 10
-4.7601809836
 20
-16.2099672656
 30
0.0
 10
-3.6559984969
 20
-16.2774918739
 30
0.0
 10
-2.5438869306
 20
-16.2639432896
 30
0.0
 10
-1.4476186757
 20
-16.1696247791
 30
0.0
 10
-0.3906024081
 20
-15.9965628132
 30
0.0
 10
0.6046605813
 20
-15.7484379952
 30
0.0
 10
1.5171394546
 20
-15.4305458828
 30
0.0
 10
2.3277704257
 20
-15.0494766891
 30
0.0
 10
3.0198672687
 20
-14.612801855
 30
0.0
 10
3.579148339
 20
-14.128228383
 30
0.0
 10
3.9936452406
 20
-13.6040388
 30
0.0
 10
4.2115935766
 20
-13.131861855
 30
0.0
 10
4.2962191235
 20
-12.7525746121
 30
0.0
 10
4.3102994616
 20
-12.5640742431
 30
0.0
 10
4.3102994616
 20
-12.4707658145
 30
0.0
 11
-10.8802994616
 21
-12.4707658145
 31
0.0
 11
-10.8436993026
 21
-12.8428064265
 31
0.0
 11
-10.734363103
 21
-13.2116391339
 31
0.0
 11
-10.5532263704
 21
-13.5731985401
 31
0.0
 11
-10.3021494789
 21
-13.9240537233
 31
0.0
 11
-9.983439212
 21
-14.2609370162
 31
0.0
 11
-9.6002711657
 21
-14.5806192053
 31
0.0
 11
-9.1562333781
 21
-14.8799567992
 31
0.0
 11
-8.6556979501
 21
-15.156104574
 31
0.0
 11
-7.8095128088
 21
-15.5210566073
 31
0.0
 11
-6.8653934028
 21
-15.8199788111
 31
0.0
 11
-5.8437813223
 21
-16.0464110153
 31
0.0
 11
-4.7667729882
 21
-16.1954444154
 31
0.0
 11
-3.6576819348
 21
-16.2638327875
 31
0.0
 11
-2.5405315367
 21
-16.2501139282
 31
0.0
 11
-1.4394941369
 21
-16.1545963015
 31
0.0
 11
-0.3783979599
 21
-15.9793352687
 31
0.0
 11
0.6197658551
 21
-15.7281085299
 31
0.0
 11
1.5333978698
 21
-15.4063723546
 31
0.0
 11
2.3427426866
 21
-15.021102669
 31
0.0
 11
3.0302711905
 21
-14.5806191869
 31
0.0
 11
3.5810632964
 21
-14.0944442461
 31
0.0
 11
3.9832263898
 21
-13.5731984995
 31
0.0
 11
4.2280796972
 21
-13.0278880815
 31
0.0
 11
4.289695556
 21
-12.749931795
 31
0.0
 11
4.3102994616
 21
-12.4707658145
 31
0.0
  0
SPLINE
  5
5D5
100
AcDbEntity
  8
0
100
AcDbSpline
 62
7
  6
CONTINUOUS
 70
0
 71
3
 72
9
 73
5
 74
3
 42
0.0000001
 43
0.0000001
 44
0.0000000001
 12
0.0239786617
 22
-0.1119074396
 32
0.0
 13
0.055909112
 23
-0.099862017
 33
0.0
 40
0.0
 40
0.0
 40
0.0
 40
0.0
 40
0.2428849118
 40
1.0
 40
1.0
 40
1.0
 40
1.0
 10
-4.5776070061
 20
-11.174722366
 30
0.0
 10
-4.5756656544
 20
-11.1837825755
 30
0.0
 10
-4.5661691671
 20
-11.2207576086
 30
0.0
 10
-4.5507667485
 20
-11.2561275435
 30
0.0
 10
-4.536656871
 20
-11.2813298901
 30
0.0
 11
-4.5776070061
 21
-11.174722366
 31
0.0
 11
-4.5707041384
 21
-11.2016492411
 31
0.0
 11
-4.536656871
 21
-11.2813298901
 31
0.0
  0
SPLINE
  5
5D6
100
AcDbEntity
  8
0
100
AcDbSpline
 62
7
  6
CONTINUOUS
 70
0
 71
3
 72
17
 73
13
 74
11
 42
0.0000001
 43
0.0000001
 44
0.0000000001
 12
1.5099280818
 22
-2.248422665
 32
0.0
 13
1.4745916511
 23
2.2717541141
 33
0.0
 40
0.0
 40
0.0
 40
0.0
 40
0.0
 40
0.0958136488
 40
0.1525860667
 40
0.2148724305
 40
0.3527450539
 40
0.5010439183
 40
0.6491681946
 40
0.7865480974
 40
0.8484988643
 40
0.9049010988
 40
1.0
 40
1.0
 40
1.0
 40
1.0
 10
-4.51728601
 20
-11.3128178617
 30
0.0
 10
-4.4690621037
 20
-11.3846277215
 30
0.0
 10
-4.3624649567
 20
-11.4787203328
 30
0.0
 10
-4.193753837
 20
-11.5741703838
 30
0.0
 10
-3.978899466
 20
-11.6633490528
 30
0.0
 10
-3.6711271424
 20
-11.7370187122
 30
0.0
 10
-3.2786205858
 20
-11.7659674259
 30
0.0
 10
-2.8867035795
 20
-11.7351233757
 30
0.0
 10
-2.5802066424
 20
-11.6599383616
 30
0.0
 10
-2.3669847256
 20
-11.5696302977
 30
0.0
 10
-2.2002128946
 20
-11.4733823721
 30
0.0
 10
-2.0953705441
 20
-11.3786413989
 30
0.0
 10
-2.0486265288
 20
-11.3066276256
 30
0.0
 11
-4.51728601
 21
-11.3128178617
 31
0.0
 11
-4.329982464
 21
-11.4924207337
 31
0.0
 11
-4.1967008418
 21
-11.5690916424
 31
0.0
 11
-4.0411959975
 21
-11.6344839869
 31
0.0
 11
-3.6789719366
 21
-11.7251988203
 31
0.0
 11
-3.2784874664
 21
-11.7557583558
 31
0.0
 11
-2.8786354169
 21
-11.7231942815
 31
0.0
 11
-2.5182472055
 21
-11.6306688385
 31
0.0
 11
-2.3640596634
 21
-11.564500245
 31
0.0
 11
-2.2323217425
 21
-11.4871683332
 31
0.0
 11
-2.0486265288
 21
-11.3066276256
 31
0.0
  0
SPLINE
  5
5D7
100
AcDbEntity
  8
0
100
AcDbSpline
 62
7
  6
CONTINUOUS
 70
0
 71
3
 72
9
 73
5
 74
3
 42
0.0000001
 43
0.0000001
 44
0.0000000001
 12
0.0560283737
 22
0.1000750363
 32
0.0
 13
0.0239465834
 23
0.1121639545
 33
0.0
 40
0.0
 40
0.0
 40
0.0
 40
0.0
 40
0.2587388089
 40
1.0
 40
1.0
 40
1.0
 40
1.0
 10
-2.033343129
 20
-11.2813298901
 30
0.0
 10
-2.0285108907
 20
-11.2726987916
 30
0.0
 10
-2.0109699795
 20
-11.2387273925
 30
0.0
 10
-1.9982565899
 20
-11.2021874517
 30
0.0
 10
-1.992339699
 20
-11.1744731895
 30
0.0
 11
-2.033343129
 21
-11.2813298901
 31
0.0
 11
-2.0197570439
 21
-11.2549473999
 31
0.0
 11
-1.992339699
 21
-11.1744731895
 31
0.0
  0
SPLINE
  5
5D8
100
AcDbEntity
  8
RACCORDO
100
AcDbSpline
 62
253
  6
CONTINUOUS
 70
0
 71
3
 72
10
 73
6
 74
4
 42
0.0000001
 43
0.0000001
 44
0.0000000001
 12
0.0
 22
1.329399143
 32
0.0
 13
-0.7571086392
 23
1.0927436066
 33
0.0
 40
0.0
 40
0.0
 40
0.0
 40
0.0
 40
0.2385706538
 40
0.4822641568
 40
1.0
 40
1.0
 40
1.0
 40
1.0
 10
4.3102994616
 20
-12.4707658145
 30
0.0
 10
4.3102994616
 20
-12.3650472736
 30
0.0
 10
4.2921413005
 20
-12.150897157
 30
0.0
 10
4.1829424362
 20
-11.7198916589
 30
0.0
 10
4.0224723298
 20
-11.4161744508
 30
0.0
 10
3.8918115699
 20
-11.2275902732
 30
0.0
 11
4.3102994616
 21
-12.4707658145
 31
0.0
 11
4.2838903401
 21
-12.1547116303
 31
0.0
 11
4.2049473378
 21
-11.8405111708
 31
0.0
 11
3.8918115699
 21
-11.2275902732
 31
0.0
  0
SPLINE
  5
5D9
100
AcDbEntity
  8
RACCORDO
100
AcDbSpline
 62
253
  6
CONTINUOUS
 70
0
 71
3
 72
23
 73
19
 74
17
 42
0.0000001
 43
0.0000001
 44
0.0000000001
 12
-8.9540439117
 22
12.9234745595
 32
0.0
 13
-8.9540439739
 23
-12.9234745164
 33
0.0
 40
0.0
 40
0.0
 40
0.0
 40
0.0
 40
0.0453773205
 40
0.0962944654
 40
0.1529528577
 40
0.215031688
 40
0.2818300008
 40
0.3523789088
 40
0.425525547
 40
0.4999999982
 40
0.5744744494
 40
0.6476210879
 40
0.7181699961
 40
0.7849683093
 40
0.8470471404
 40
0.9037055327
 40
0.9546226779
 40
1.0
 40
1.0
 40
1.0
 40
1.0
 10
3.8918115699
 20
-11.2275902732
 30
0.0
 10
3.7563747297
 20
-11.032112724
 30
0.0
 10
3.4173863868
 20
-10.6522826943
 30
0.0
 10
2.7805590611
 20
-10.1602585916
 30
0.0
 10
2.0028682013
 20
-9.7237898678
 30
0.0
 10
1.1021552854
 20
-9.3523883848
 30
0.0
 10
0.0988121081
 20
-9.0541155688
 30
0.0
 10
-0.983914526
 20
-8.835892056
 30
0.0
 10
-2.1207509958
 20
-8.7028360302
 30
0.0
 10
-3.2849999472
 20
-8.6581224508
 30
0.0
 10
-4.4492489004
 20
-8.7028360225
 30
0.0
 10
-5.5860853735
 20
-8.8358920411
 30
0.0
 10
-6.6688120141
 20
-9.0541155443
 30
0.0
 10
-7.6721552005
 20
-9.3523883545
 30
0.0
 10
-8.5728681255
 20
-9.7237898321
 30
0.0
 10
-9.3505589959
 20
-10.16025855
 30
0.0
 10
-9.9873863384
 20
-10.6522826471
 30
0.0
 10
-10.3263746941
 20
-11.0321126795
 30
0.0
 10
-10.4618115398
 20
-11.2275902346
 30
0.0
 11
3.8918115699
 21
-11.2275902732
 31
0.0
 11
3.4231341281
 21
-10.6896934941
 31
0.0
 11
2.7943310093
 21
-10.1942509528
 31
0.0
 11
2.0203968873
 21
-9.7531701652
 31
0.0
 11
1.1197892936
 21
-9.3769702735
 31
0.0
 11
0.1140241894
 21
-9.0746346335
 31
0.0
 11
-0.9728744545
 21
-8.8533698237
 31
0.0
 11
-2.1149674352
 21
-8.7184533591
 31
0.0
 11
-3.2849999473
 21
-8.6731160837
 31
0.0
 11
-4.4550324596
 21
-8.7184533513
 31
0.0
 11
-5.5971254455
 21
-8.8533698082
 31
0.0
 11
-6.6840240949
 21
-9.0746346091
 31
0.0
 11
-7.6897892066
 21
-9.3769702422
 31
0.0
 11
-8.5903968153
 21
-9.7531701307
 31
0.0
 11
-9.3643309437
 21
-10.1942509094
 31
0.0
 11
-9.9931340755
 21
-10.6896934434
 31
0.0
 11
-10.4618115398
 21
-11.2275902346
 31
0.0
  0
SPLINE
  5
5DA
100
AcDbEntity
  8
RACCORDO
100
AcDbSpline
 62
253
  6
CONTINUOUS
 70
0
 71
3
 72
10
 73
6
 74
4
 42
0.0000001
 43
0.0000001
 44
0.0000000001
 12
-0.7571086732
 22
-1.0927436445
 32
0.0
 13
-0.0
 23
-1.3293991935
 33
0.0
 40
0.0
 40
0.0
 40
0.0
 40
0.0
 40
0.5177358554
 40
0.7614293483
 40
1.0
 40
1.0
 40
1.0
 40
1.0
 10
-10.4618115398
 20
-11.2275902346
 30
0.0
 10
-10.5924723087
 20
-11.4161744231
 30
0.0
 10
-10.7529424368
 20
-11.7198916354
 30
0.0
 10
-10.8621413074
 20
-12.1508971508
 30
0.0
 10
-10.8802994616
 20
-12.3650472705
 30
0.0
 10
-10.8802994616
 20
-12.4707658145
 30
0.0
 11
-10.4618115398
 21
-11.2275902346
 31
0.0
 11
-10.7749473415
 21
-11.8405111624
 31
0.0
 11
-10.8538903441
 21
-12.1547116207
 31
0.0
 11
-10.8802994616
 21
-12.4707658145
 31
0.0
  0
SPLINE
  5
5DB
100
AcDbEntity
  8
0
100
AcDbSpline
 62
253
  6
CONTINUOUS
 70
0
 71
3
 72
27
 73
23
 74
21
 42
0.0000001
 43
0.0000001
 44
0.0000000001
 12
0.0
 22
-8.9274522913
 32
0.0
 13
0.0
 23
8.9274522913
 33
0.0
 40
0.0
 40
0.0
 40
0.0
 40
0.0
 40
0.0203337268
 40
0.0412713844
 40
0.086627013
 40
0.1118585862
 40
0.1390153505
 40
0.168155493
 40
0.199265484
 40
0.2494127988
 40
0.3033042657
 40
0.419320717
 40
0.5405049445
 40
0.6590829639
 40
0.7150953821
 40
0.7678057038
 40
0.81658586
 40
0.8610184154
 40
0.9009964698
 40
0.9368239249
 40
0.969363563
 40
1.0
 40
1.0
 40
1.0
 40
1.0
 10
-6.9749294159
 20
-12.4707658145
 30
0.0
 10
-6.9749294159
 20
-12.5312752732
 30
0.0
 10
-6.9625598945
 20
-12.6544114356
 30
0.0
 10
-6.8880852468
 20
-12.9025789326
 30
0.0
 10
-6.739341003
 20
-13.1371984928
 30
0.0
 10
-6.5381858577
 20
-13.3476794742
 30
0.0
 10
-6.3508061456
 20
-13.5027110158
 30
0.0
 10
-6.1343913722
 20
-13.6476464621
 30
0.0
 10
-5.8459894096
 20
-13.8057394812
 30
0.0
 10
-5.4752284552
 20
-13.9637751552
 30
0.0
 10
-4.8495270347
 20
-14.159706153
 30
0.0
 10
-3.9917551079
 20
-14.3077179836
 30
0.0
 10
-2.9300726934
 20
-14.332991493
 30
0.0
 10
-2.052408606
 20
-14.2268468281
 30
0.0
 10
-1.395355491
 20
-14.0631283589
 30
0.0
 10
-0.9520473048
 20
-13.9086642071
 30
0.0
 10
-0.558212267
 20
-13.7235827697
 30
0.0
 10
-0.22203408
 20
-13.5113457495
 30
0.0
 10
0.0497249863
 20
-13.2760690067
 30
0.0
 10
0.2511288167
 20
-13.0211926697
 30
0.0
 10
0.3760433052
 20
-12.7509082634
 30
0.0
 10
0.4049294159
 20
-12.5619342576
 30
0.0
 10
0.4049294159
 20
-12.4707658145
 30
0.0
 11
-6.9749294159
 21
-12.4707658145
 31
0.0
 11
-6.9571307251
 21
-12.6514195106
 31
0.0
 11
-6.9040159081
 21
-12.8306341301
 31
0.0
 11
-6.6940226198
 21
-13.1768350793
 31
0.0
 11
-6.5392270359
 21
-13.3404735263
 31
0.0
 11
-6.3530378967
 21
-13.4957510401
 31
0.0
 11
-6.137345513
 21
-13.6411930473
 31
0.0
 11
-5.8941626647
 21
-13.7753485542
 31
0.0
 11
-5.4830821517
 21
-13.9526537786
 31
0.0
 11
-5.024405541
 21
-14.0978638531
 31
0.0
 11
-4.0048625179
 21
-14.280268404
 31
0.0
 11
-2.923322579
 21
-14.306844493
 31
0.0
 11
-1.8729292879
 21
-14.1752881481
 31
0.0
 11
-1.3880054424
 21
-14.0532346475
 31
0.0
 11
-0.9441522837
 21
-13.8969354249
 31
0.0
 11
-0.5509429059
 21
-13.7097686338
 31
0.0
 11
-0.2169621033
 21
-13.4957510401
 31
0.0
 11
0.0506459907
 21
-13.2596047518
 31
0.0
 11
0.246028165
 21
-13.0063687305
 31
0.0
 11
0.3649614647
 21
-12.7413350812
 31
0.0
 11
0.4049294159
 21
-12.4707658145
 31
0.0
  0
SPLINE
  5
5DC
100
AcDbEntity
  8
0
100
AcDbSpline
 62
253
  6
CONTINUOUS
 70
0
 71
3
 72
15
 73
11
 74
9
 42
0.0000001
 43
0.0000001
 44
0.0000000001
 12
0.0
 22
3.0481513732
 32
0.0
 13
-2.9852369688
 23
0.6161063499
 33
0.0
 40
0.0
 40
0.0
 40
0.0
 40
0.0
 40
0.0898313319
 40
0.1852546062
 40
0.2903364777
 40
0.4076077616
 40
0.5379556994
 40
0.6810609714
 40
0.8356924449
 40
1.0
 40
1.0
 40
1.0
 40
1.0
 10
0.4049294159
 20
-12.4707658145
 30
0.0
 10
0.4049294159
 20
-12.3794926486
 30
0.0
 10
0.375973518
 20
-12.1902881008
 30
0.0
 10
0.2507682094
 20
-11.9197090656
 30
0.0
 10
0.0489163092
 20
-11.6645915676
 30
0.0
 10
-0.2234272393
 20
-11.4291353732
 30
0.0
 10
-0.5602998816
 20
-11.2167921482
 30
0.0
 10
-0.9549250034
 20
-11.0316811491
 30
0.0
 10
-1.3990236013
 20
-10.8773064971
 30
0.0
 10
-1.7139746419
 20
-10.7990474649
 30
0.0
 10
-1.8774736378
 20
-10.7653038223
 30
0.0
 11
0.4049294159
 21
-12.4707658145
 31
0.0
 11
0.3648712546
 21
-12.1998922997
 31
0.0
 11
0.2456709556
 21
-11.9345745746
 31
0.0
 11
0.0498573
 21
-11.6810936203
 31
0.0
 11
-0.2183289247
 21
-11.4447585883
 31
0.0
 11
-0.5530079983
 21
-11.2306247625
 31
0.0
 11
-0.9470043245
 21
-11.0434269181
 31
0.0
 11
-1.3916977395
 21
-10.8871921824
 31
0.0
 11
-1.8774736378
 21
-10.7653038223
 31
0.0
  0
SPLINE
  5
5DD
100
AcDbEntity
  8
0
100
AcDbSpline
 62
253
  6
CONTINUOUS
 70
0
 71
3
 72
11
 73
7
 74
5
 42
0.0000001
 43
0.0000001
 44
0.0000000001
 12
-2.5846819874
 22
0.4901249843
 32
0.0
 13
-2.5846819874
 23
-0.4901249843
 33
0.0
 40
0.0
 40
0.0
 40
0.0
 40
0.0
 40
0.2469123198
 40
0.5
 40
0.7530876802
 40
1.0
 40
1.0
 40
1.0
 40
1.0
 10
-1.9765329963
 20
-10.7456938454
 30
0.0
 10
-2.1892629381
 20
-10.7053545464
 30
0.0
 10
-2.6244147914
 20
-10.6454896395
 30
0.0
 10
-3.285
 20
-10.6158604891
 30
0.0
 10
-3.9455852086
 20
-10.6454896395
 30
0.0
 10
-4.3807370619
 20
-10.7053545464
 30
0.0
 10
-4.5934670037
 20
-10.7456938454
 30
0.0
 11
-1.9765329963
 21
-10.7456938454
 31
0.0
 11
-2.6198774538
 21
-10.6560306217
 31
0.0
 11
-3.285
 21
-10.6258178595
 31
0.0
 11
-3.9501225462
 21
-10.6560306217
 31
0.0
 11
-4.5934670037
 21
-10.7456938454
 31
0.0
  0
SPLINE
  5
5DE
100
AcDbEntity
  8
0
100
AcDbSpline
 62
253
  6
CONTINUOUS
 70
0
 71
3
 72
15
 73
11
 74
9
 42
0.0000001
 43
0.0000001
 44
0.0000000001
 12
-2.9852369688
 22
-0.6161063499
 32
0.0
 13
-0.0
 23
-3.0481513732
 33
0.0
 40
0.0
 40
0.0
 40
0.0
 40
0.0
 40
0.1643075551
 40
0.3189390286
 40
0.4620443006
 40
0.5923922384
 40
0.7096635223
 40
0.8147453938
 40
0.9101686681
 40
1.0
 40
1.0
 40
1.0
 40
1.0
 10
-4.6925263622
 20
-10.7653038223
 30
0.0
 10
-4.8560253581
 20
-10.7990474649
 30
0.0
 10
-5.1709763987
 20
-10.8773064971
 30
0.0
 10
-5.6150749966
 20
-11.0316811491
 30
0.0
 10
-6.0097001184
 20
-11.2167921482
 30
0.0
 10
-6.3465727607
 20
-11.4291353732
 30
0.0
 10
-6.6189163092
 20
-11.6645915676
 30
0.0
 10
-6.8207682094
 20
-11.9197090656
 30
0.0
 10
-6.945973518
 20
-12.1902881008
 30
0.0
 10
-6.9749294159
 20
-12.3794926486
 30
0.0
 10
-6.9749294159
 20
-12.4707658145
 30
0.0
 11
-4.6925263622
 21
-10.7653038223
 31
0.0
 11
-5.1783022605
 21
-10.8871921824
 31
0.0
 11
-5.6229956755
 21
-11.0434269181
 31
0.0
 11
-6.0169920017
 21
-11.2306247625
 31
0.0
 11
-6.3516710753
 21
-11.4447585883
 31
0.0
 11
-6.6198573
 21
-11.6810936203
 31
0.0
 11
-6.8156709556
 21
-11.9345745746
 31
0.0
 11
-6.9348712546
 21
-12.1998922997
 31
0.0
 11
-6.9749294159
 21
-12.4707658145
 31
0.0
  0
SPLINE
  5
5DF
100
AcDbEntity
  8
RACCORDO
100
AcDbSpline
 62
253
  6
CONTINUOUS
 70
0
 71
3
 72
9
 73
5
 74
3
 42
0.0000001
 43
0.0000001
 44
0.0000000001
 12
-0.0
 22
-1.0449110961
 32
0.0
 13
0.4606477989
 23
-0.9378927467
 33
0.0
 40
0.0
 40
0.0
 40
0.0
 40
0.0
 40
0.489625284
 40
1.0
 40
1.0
 40
1.0
 40
1.0
 10
-11.7463248654
 20
-12.0377531126
 30
0.0
 10
-11.7463248654
 20
-12.20829141
 30
0.0
 10
-11.7032239839
 20
-12.5577635757
 30
0.0
 10
-11.5805807165
 20
-12.887101161
 30
0.0
 10
-11.5022130533
 20
-13.0466600757
 30
0.0
 11
-11.7463248654
 21
-12.0377531126
 31
0.0
 11
-11.6850493744
 21
-12.545685305
 31
0.0
 11
-11.5022130533
 21
-13.0466600757
 31
0.0
  0
SPLINE
  5
5E0
100
AcDbEntity
  8
RACCORDO
100
AcDbSpline
 62
253
  6
CONTINUOUS
 70
0
 71
3
 72
9
 73
5
 74
3
 42
0.0000001
 43
0.0000001
 44
0.0000000001
 12
0.206220699
 22
-0.4198715337
 32
0.0
 13
0.2700654606
 23
-0.381947285
 33
0.0
 40
0.0
 40
0.0
 40
0.0
 40
0.0
 40
0.2441290917
 40
1.0
 40
1.0
 40
1.0
 40
1.0
 10
-11.5022130533
 20
-13.0466600757
 30
0.0
 10
-11.4854315627
 20
-13.0808276944
 30
0.0
 10
-11.4137118696
 20
-13.2193119092
 30
0.0
 10
-11.3304598125
 20
-13.3517395591
 30
0.0
 10
-11.2624149375
 20
-13.4479738395
 30
0.0
 11
-11.5022130533
 21
-13.0466600757
 31
0.0
 11
-11.4497265181
 21
-13.1480827803
 31
0.0
 11
-11.2624149375
 21
-13.4479738395
 31
0.0
  0
SPLINE
  5
5E1
100
AcDbEntity
  8
0
100
AcDbSpline
 62
7
  6
CONTINUOUS
 70
0
 71
3
 72
20
 73
16
 74
14
 42
0.0000001
 43
0.0000001
 44
0.0000000001
 12
0.0
 22
-1.2083061333
 32
0.0
 13
0.0
 23
1.2083061333
 33
0.0
 40
0.0
 40
0.0
 40
0.0
 40
0.0
 40
0.0410632829
 40
0.0865189622
 40
0.138906898
 40
0.1991409921
 40
0.3031748768
 40
0.4193213196
 40
0.5406367589
 40
0.6593563996
 40
0.7680882208
 40
0.8611990551
 40
0.936799759
 40
0.9693979151
 40
1.0
 40
1.0
 40
1.0
 40
1.0
 10
-2.785
 20
-11.1057665792
 30
0.0
 10
-2.785
 20
-11.1223055848
 30
0.0
 10
-2.7924214051
 20
-11.1573891728
 30
0.0
 10
-2.8228268686
 20
-11.2053791938
 30
0.0
 10
-2.8705342449
 20
-11.2484138502
 30
0.0
 10
-2.9459280408
 20
-11.2931574569
 30
0.0
 10
-3.0531631198
 20
-11.3311523281
 30
0.0
 10
-3.1891927748
 20
-11.3546718925
 30
0.0
 10
-3.3331245859
 20
-11.3580900127
 30
0.0
 10
-3.4730897894
 20
-11.3411843793
 30
0.0
 10
-3.5978234613
 20
-11.3051406147
 30
0.0
 10
-3.6976627
 20
-11.2531988294
 30
0.0
 10
-3.7573505145
 20
-11.1949658678
 30
0.0
 10
-3.7810338714
 20
-11.1436694421
 30
0.0
 10
-3.785
 20
-11.1180921416
 30
0.0
 10
-3.785
 20
-11.1057665792
 30
0.0
 11
-2.785
 21
-11.1057665792
 31
0.0
 11
-2.7946389163
 21
-11.1544383331
 31
0.0
 11
-2.8230602337
 21
-11.2014374373
 31
0.0
 11
-2.8692919461
 21
-11.2446763417
 31
0.0
 11
-2.9314466094
 21
-11.2825432745
 31
0.0
 11
-3.0493135538
 21
-11.3262362415
 31
0.0
 11
-3.187461116
 21
-11.350948497
 31
0.0
 11
-3.3340029453
 21
-11.3545544896
 31
0.0
 11
-3.4763417162
 21
-11.3367364624
 31
0.0
 11
-3.6021881923
 21
-11.2990042829
 31
0.0
 11
-3.7007080539
 21
-11.2446763417
 31
0.0
 11
-3.7634517785
 21
-11.1782848724
 31
0.0
 11
-3.7795606921
 21
-11.1423410144
 31
0.0
 11
-3.785
 21
-11.1057665792
 31
0.0
  0
LINE
  5
5E2
100
AcDbEntity
  8
RACCORDO
100
AcDbLine
 62
253
  6
CONTINUOUS
 10
-21.4890954781
 20
-9.8631442741
 11
-21.4854784587
 21
-9.8697523614
  0
SPLINE
  5
5E3
100
AcDbEntity
  8
RACCORDO
100
AcDbSpline
 62
253
  6
CONTINUOUS
 70
0
 71
3
 72
36
 73
32
 74
30
 42
0.0000001
 43
0.0000001
 44
0.0000000001
 12
21.300407891
 22
-38.8976707528
 32
0.0
 13
21.2875068837
 23
38.9047325783
 33
0.0
 40
0.0
 40
0.0
 40
0.0
 40
0.0
 40
0.0312762142
 40
0.0625430484
 40
0.1250128571
 40
0.187455132
 40
0.249893056
 40
0.3123462553
 40
0.3436002984
 40
0.3748625015
 40
0.4061326585
 40
0.4217725331
 40
0.4374139316
 40
0.4530566135
 40
0.4687003318
 40
0.4843448098
 40
0.4999889176
 40
0.5156330376
 40
0.5312775113
 40
0.5469212232
 40
0.5625639004
 40
0.5782052907
 40
0.5938451467
 40
0.6251152024
 40
0.6563772277
 40
0.6876311226
 40
0.7500840859
 40
0.8125246356
 40
0.8749776068
 40
0.9374662289
 40
1.0
 40
1.0
 40
1.0
 40
1.0
 10
-21.4854784587
 20
-9.8697523614
 30
0.0
 10
-21.2634130852
 20
-10.2752763226
 30
0.0
 10
-20.7919160339
 20
-11.0715834165
 30
0.0
 10
-19.7441740352
 20
-12.595204063
 30
0.0
 10
-18.2464582871
 20
-14.3622192629
 30
0.0
 10
-16.1823832502
 20
-16.2210121764
 30
0.0
 10
-13.8893175244
 20
-17.7881088629
 30
0.0
 10
-11.8203492317
 20
-18.8281629682
 30
0.0
 10
-10.0945112503
 20
-19.4902682101
 30
0.0
 10
-8.769045049
 20
-19.9003637687
 30
0.0
 10
-7.6439548214
 20
-20.1680527456
 30
0.0
 10
-6.7348243591
 20
-20.3376218757
 30
0.0
 10
-6.0490236012
 20
-20.4425890536
 30
0.0
 10
-5.3601712734
 20
-20.5255337463
 30
0.0
 10
-4.6690030469
 20
-20.5868692129
 30
0.0
 10
-3.976438222
 20
-20.6283624285
 30
0.0
 10
-3.2826887171
 20
-20.6509221141
 30
0.0
 10
-2.5889488699
 20
-20.6281062882
 30
0.0
 10
-1.8963925667
 20
-20.5864768316
 30
0.0
 10
-1.2052386033
 20
-20.5249829849
 30
0.0
 10
-0.516400883
 20
-20.4419233866
 30
0.0
 10
0.169383933
 20
-20.3368547352
 30
0.0
 10
1.0784841376
 20
-20.1671318668
 30
0.0
 10
2.2035044119
 20
-19.8991544707
 30
0.0
 10
3.5288231196
 20
-19.4885973117
 30
0.0
 10
5.2544319247
 20
-18.8259378948
 30
0.0
 10
7.3232946921
 20
-17.7855939134
 30
0.0
 10
9.6162165436
 20
-16.2180454779
 30
0.0
 10
11.6802530439
 20
-14.3580433984
 30
0.0
 10
13.4770457734
 20
-12.2376007808
 30
0.0
 10
14.4751627286
 20
-10.6742533382
 30
0.0
 10
14.9188920898
 20
-9.8633001237
 30
0.0
 11
-21.4854784587
 21
-9.8697523614
 31
0.0
 11
-20.7786711535
 21
-11.0631876769
 31
0.0
 11
-19.9930828007
 21
-12.2057994023
 31
0.0
 11
-18.2015975254
 21
-14.3190251728
 31
0.0
 11
-16.1441397113
 21
-16.1724667837
 31
0.0
 11
-13.8579857277
 21
-17.7347759097
 31
0.0
 11
-11.3836510639
 21
-18.9792556542
 31
0.0
 11
-10.0895811502
 21
-19.4757643343
 31
0.0
 11
-8.7650996002
 21
-19.8855078035
 31
0.0
 11
-7.4160435605
 21
-20.2067041892
 31
0.0
 11
-6.7342129296
 21
-20.3339119645
 31
0.0
 11
-6.048543186
 21
-20.4389147678
 31
0.0
 11
-5.3598080713
 21
-20.5219298065
 31
0.0
 11
-4.6687849802
 21
-20.5835610288
 31
0.0
 11
-3.9762362945
 21
-20.625207022
 31
0.0
 11
-3.2826904985
 21
-20.6433595872
 31
0.0
 11
-2.5891503765
 21
-20.6249708547
 31
0.0
 11
-1.8966115176
 21
-20.5831649498
 31
0.0
 11
-1.2056018778
 21
-20.5213862879
 31
0.0
 11
-0.5168814425
 21
-20.4382513238
 31
0.0
 11
0.1687716843
 21
-20.3331424571
 31
0.0
 11
0.8505791646
 21
-20.2058151255
 31
0.0
 11
2.1995496134
 21
-19.8842788675
 31
0.0
 11
3.523888502
 21
-19.4741011715
 31
0.0
 11
4.8177997189
 21
-18.9771974073
 31
0.0
 11
7.2919021707
 21
-17.7322793526
 31
0.0
 11
9.5778603597
 21
-16.1694774243
 31
0.0
 11
11.6351890994
 21
-14.3151839447
 31
0.0
 11
13.426619962
 21
-12.2008183921
 31
0.0
 11
14.9188920898
 21
-9.8633001237
 31
0.0
  0
LINE
  5
5E4
100
AcDbEntity
  8
RACCORDO
100
AcDbLine
 62
253
  6
CONTINUOUS
 10
14.9188920898
 20
-9.8633001237
 11
14.9224956226
 21
-9.8567115865
  0
LINE
  5
5E5
100
AcDbEntity
  8
RACCORDO
100
AcDbLine
 62
253
  6
CONTINUOUS
 10
14.9224957543
 20
9.8567113414
 11
14.9188920858
 21
9.8633001268
  0
SPLINE
  5
5E6
100
AcDbEntity
  8
RACCORDO
100
AcDbSpline
 62
253
  6
CONTINUOUS
 70
0
 71
3
 72
36
 73
32
 74
30
 42
0.0000001
 43
0.0000001
 44
0.0000000001
 12
-21.2876904145
 22
38.9046328601
 32
0.0
 13
-21.3004226833
 23
-38.8976633576
 33
0.0
 40
0.0
 40
0.0
 40
0.0
 40
0.0
 40
0.0625338204
 40
0.1250223268
 40
0.1874752196
 40
0.249915717
 40
0.3123686462
 40
0.34362263
 40
0.3748847782
 40
0.4061548825
 40
0.4217947443
 40
0.4374361337
 40
0.4530788089
 40
0.4687225206
 40
0.4843669929
 40
0.5000111119
 40
0.5156552248
 40
0.5312997012
 40
0.5469434163
 40
0.5625860968
 40
0.5782274922
 40
0.5938673566
 40
0.6251374554
 40
0.6563995227
 40
0.6876534583
 40
0.750106439
 40
0.8125446691
 40
0.8749871332
 40
0.9374569717
 40
0.9687238013
 40
1.0
 40
1.0
 40
1.0
 40
1.0
 10
14.9188920858
 20
9.8633001268
 30
0.0
 10
14.4751585496
 20
10.6742519013
 30
0.0
 10
13.4770485801
 20
12.2376021454
 30
0.0
 10
11.6802549605
 20
14.3580420077
 30
0.0
 10
9.6162215241
 20
16.2180416937
 30
0.0
 10
7.3233021032
 20
17.7855894973
 30
0.0
 10
5.2544397573
 20
18.8259344237
 30
0.0
 10
3.5288287179
 20
19.4885954336
 30
0.0
 10
2.2035064463
 20
19.8991542098
 30
0.0
 10
1.0784835461
 20
20.1671320025
 30
0.0
 10
0.1693825525
 20
20.3368549979
 30
0.0
 10
-0.516402333
 20
20.4419235991
 30
0.0
 10
-1.2052400155
 20
20.5249829705
 30
0.0
 10
-1.8963939356
 20
20.5864776632
 30
0.0
 10
-2.5889502415
 20
20.6281036574
 30
0.0
 10
-3.2826899367
 20
20.6509338081
 30
0.0
 10
-3.9764392399
 20
20.6283588752
 30
0.0
 10
-4.6690041644
 20
20.5868700589
 30
0.0
 10
-5.360172281
 20
20.5255333695
 30
0.0
 10
-6.0490245061
 20
20.4425889701
 30
0.0
 10
-6.7348250606
 20
20.3376217527
 30
0.0
 10
-7.6439544724
 20
20.1680527228
 30
0.0
 10
-8.769041914
 20
19.9003650216
 30
0.0
 10
-10.0945038685
 20
19.4902706798
 30
0.0
 10
-11.8203355514
 20
18.8281683084
 30
0.0
 10
-13.8893066886
 20
17.7881202233
 30
0.0
 10
-16.1823739276
 20
16.2210180001
 30
0.0
 10
-18.2464563426
 20
14.3622218945
 30
0.0
 10
-19.7441740541
 20
12.5952039918
 30
0.0
 10
-20.7919161984
 20
11.0715832494
 30
0.0
 10
-21.2634129084
 20
10.2752762907
 30
0.0
 10
-21.4854783261
 20
9.8697526076
 30
0.0
 11
14.9188920858
 21
9.8633001268
 31
0.0
 11
13.426619354
 21
12.2008206463
 31
0.0
 11
11.6351919069
 21
14.3151824204
 31
0.0
 11
9.577865695
 21
16.1694735676
 31
0.0
 11
7.2919098579
 21
17.7322748973
 31
0.0
 11
4.8178092612
 21
18.9771933671
 31
0.0
 11
3.5238945505
 21
19.4740990779
 31
0.0
 11
2.1995505437
 21
19.8842787338
 31
0.0
 11
0.8505779524
 21
20.205815387
 31
0.0
 11
0.1687702013
 21
20.333142729
 31
0.0
 11
-0.5168829042
 21
20.4382515113
 31
0.0
 11
-1.2056032622
 21
20.5213864495
 31
0.0
 11
-1.8966129102
 21
20.5831650644
 31
0.0
 11
-2.589151704
 21
20.6249711878
 31
0.0
 11
-3.2826916197
 21
20.6433663519
 31
0.0
 11
-3.9762374677
 21
20.6252067381
 31
0.0
 11
-4.6687861015
 21
20.5835609353
 31
0.0
 11
-5.3598090586
 21
20.5219296847
 31
0.0
 11
-6.0485441146
 21
20.438914623
 31
0.0
 11
-6.7342137308
 21
20.333911826
 31
0.0
 11
-7.4160439245
 21
20.206704105
 31
0.0
 11
-8.7650975557
 21
19.8855086679
 31
0.0
 11
-10.0895734023
 21
19.4757670664
 31
0.0
 11
-11.3836391158
 21
18.9792607072
 31
0.0
 11
-13.8579672505
 21
17.7347894596
 31
0.0
 11
-16.1441321737
 21
16.1724722196
 31
0.0
 11
-18.2015968606
 21
14.3190256443
 31
0.0
 11
-19.9930831427
 21
12.2057989428
 31
0.0
 11
-20.7786713536
 21
11.0631873436
 31
0.0
 11
-21.4854783261
 21
9.8697526076
 31
0.0
  0
LINE
  5
5E7
100
AcDbEntity
  8
RACCORDO
100
AcDbLine
 62
253
  6
CONTINUOUS
 10
-21.4854783261
 20
9.8697526076
 11
-21.4890954819
 21
9.8631442711
  0
SPLINE
  5
5E8
100
AcDbEntity
  8
RACCORDO
100
AcDbSpline
 62
253
  6
CONTINUOUS
 70
0
 71
3
 72
11
 73
7
 74
5
 42
0.0000001
 43
0.0000001
 44
0.0000000001
 12
0.3642214703
 22
0.0008257884
 32
0.0
 13
0.0011010188
 23
0.3642207423
 33
0.0
 40
0.0
 40
0.0
 40
0.0
 40
0.0
 40
0.2662357453
 40
0.5233327532
 40
0.7668031567
 40
1.0
 40
1.0
 40
1.0
 40
1.0
 10
-22.0520205427
 20
23.6778312164
 30
0.0
 10
-22.0196976178
 20
23.6779045011
 30
0.0
 10
-21.9556284938
 20
23.6888017363
 30
0.0
 10
-21.8729686094
 20
23.7358185745
 30
0.0
 10
-21.8160178611
 20
23.8074679693
 30
0.0
 10
-21.8021095543
 20
23.8660258582
 30
0.0
 10
-21.8020239696
 20
23.8943375673
 30
0.0
 11
-22.0520205427
 21
23.6778312164
 31
0.0
 11
-21.9564908209
 21
23.6944764512
 31
0.0
 11
-21.8754853616
 21
23.7414515201
 31
0.0
 11
-21.8212439678
 21
23.8116052673
 31
0.0
 11
-21.8020239696
 21
23.8943375673
 31
0.0
  0
SPLINE
  5
5E9
100
AcDbEntity
  8
RACCORDO
100
AcDbSpline
 62
253
  6
CONTINUOUS
 70
0
 71
3
 72
11
 73
7
 74
5
 42
0.0000001
 43
0.0000001
 44
0.0000000001
 12
0.0011010187
 22
-0.3642207076
 32
0.0
 13
0.3642214356
 23
-0.0008257883
 33
0.0
 40
0.0
 40
0.0
 40
0.0
 40
0.0
 40
0.2331983104
 40
0.4766700817
 40
0.7337692773
 40
1.0
 40
1.0
 40
1.0
 40
1.0
 10
-24.6679760304
 20
23.8943375673
 30
0.0
 10
-24.6678904451
 20
23.8660256828
 30
0.0
 10
-24.6539819476
 20
23.8074674635
 30
0.0
 10
-24.5970306039
 20
23.7358176933
 30
0.0
 10
-24.5143704525
 20
23.688801661
 30
0.0
 10
-24.4503017693
 20
23.6779044998
 30
0.0
 10
-24.4179794573
 20
23.6778312164
 30
0.0
 11
-24.6679760304
 21
23.8943375673
 31
0.0
 11
-24.6487557976
 21
23.8116047816
 31
0.0
 11
-24.5945138719
 21
23.7414508265
 31
0.0
 11
-24.5135074044
 21
23.6944759256
 31
0.0
 11
-24.4179794573
 21
23.6778312164
 31
0.0
  0
SPLINE
  5
5EA
100
AcDbEntity
  8
RACCORDO
100
AcDbSpline
 62
7
  6
CONTINUOUS
 70
0
 71
3
 72
13
 73
9
 74
7
 42
0.0000001
 43
0.0000001
 44
0.0000000001
 12
0.002852503
 22
-0.3145370621
 32
0.0
 13
0.3145499964
 23
0.0
 33
0.0
 40
0.0
 40
0.0
 40
0.0
 40
0.0
 40
0.0847539955
 40
0.1758124513
 40
0.2779583121
 40
0.3944533855
 40
0.6735537874
 40
1.0
 40
1.0
 40
1.0
 40
1.0
 10
-24.673212066
 20
23.3169872981
 30
0.0
 10
-24.673131479
 20
23.3081012072
 30
0.0
 10
-24.6699110834
 20
23.2895865771
 30
0.0
 10
-24.6564094295
 20
23.2633539473
 30
0.0
 10
-24.6345810498
 20
23.2389240474
 30
0.0
 10
-24.5922864387
 20
23.2078445986
 30
0.0
 10
-24.5204942746
 20
23.180186698
 30
0.0
 10
-24.4567888734
 20
23.1726497308
 30
0.0
 10
-24.4225609885
 20
23.1726497308
 30
0.0
 11
-24.673212066
 21
23.3169872981
 31
0.0
 11
-24.6687903345
 21
23.2906971812
 31
0.0
 11
-24.656007776
 21
23.2650652599
 31
0.0
 11
-24.6349009111
 21
23.2408405642
 31
0.0
 11
-24.605607582
 21
23.218825824
 31
0.0
 11
-24.5244591098
 21
23.1853267123
 31
0.0
 11
-24.4225609885
 21
23.1726497308
 31
0.0
  0
SPLINE
  5
5EB
100
AcDbEntity
  8
RACCORDO
100
AcDbSpline
 62
7
  6
CONTINUOUS
 70
0
 71
3
 72
13
 73
9
 74
7
 42
0.0000001
 43
0.0000001
 44
0.0000000001
 12
0.3145499964
 22
0.0
 32
0.0
 13
0.002852503
 23
0.3145370621
 33
0.0
 40
0.0
 40
0.0
 40
0.0
 40
0.0
 40
0.3264462126
 40
0.6055466145
 40
0.7220416879
 40
0.8241875487
 40
0.9152460045
 40
1.0
 40
1.0
 40
1.0
 40
1.0
 10
-22.0474390115
 20
23.1726497308
 30
0.0
 10
-22.0132111266
 20
23.1726497308
 30
0.0
 10
-21.9495057254
 20
23.180186698
 30
0.0
 10
-21.8777135613
 20
23.2078445986
 30
0.0
 10
-21.8354189502
 20
23.2389240474
 30
0.0
 10
-21.8135905705
 20
23.2633539473
 30
0.0
 10
-21.8000889166
 20
23.2895865771
 30
0.0
 10
-21.796868521
 20
23.3081012072
 30
0.0
 10
-21.796787934
 20
23.3169872981
 30
0.0
 11
-22.0474390115
 21
23.1726497308
 31
0.0
 11
-21.9455408902
 21
23.1853267123
 31
0.0
 11
-21.864392418
 21
23.218825824
 31
0.0
 11
-21.8350990889
 21
23.2408405642
 31
0.0
 11
-21.813992224
 21
23.2650652599
 31
0.0
 11
-21.8012096655
 21
23.2906971812
 31
0.0
 11
-21.796787934
 21
23.3169872981
 31
0.0
  0
SPLINE
  5
5EC
100
AcDbEntity
  8
RACCORDO
100
AcDbSpline
 62
253
  6
CONTINUOUS
 70
0
 71
3
 72
11
 73
7
 74
5
 42
0.0000001
 43
0.0000001
 44
0.0000000001
 12
0.3642214703
 22
0.0008257884
 32
0.0
 13
0.0011010188
 23
0.3642207423
 33
0.0
 40
0.0
 40
0.0
 40
0.0
 40
0.0
 40
0.2662357453
 40
0.5233327532
 40
0.7668031567
 40
1.0
 40
1.0
 40
1.0
 40
1.0
 10
-4.6520205427
 20
23.6778312164
 30
0.0
 10
-4.6196976178
 20
23.6779045011
 30
0.0
 10
-4.5556284938
 20
23.6888017363
 30
0.0
 10
-4.4729686094
 20
23.7358185745
 30
0.0
 10
-4.4160178611
 20
23.8074679693
 30
0.0
 10
-4.4021095543
 20
23.8660258582
 30
0.0
 10
-4.4020239696
 20
23.8943375673
 30
0.0
 11
-4.6520205427
 21
23.6778312164
 31
0.0
 11
-4.5564908209
 21
23.6944764512
 31
0.0
 11
-4.4754853616
 21
23.7414515201
 31
0.0
 11
-4.4212439678
 21
23.8116052673
 31
0.0
 11
-4.4020239696
 21
23.8943375673
 31
0.0
  0
SPLINE
  5
5ED
100
AcDbEntity
  8
RACCORDO
100
AcDbSpline
 62
253
  6
CONTINUOUS
 70
0
 71
3
 72
11
 73
7
 74
5
 42
0.0000001
 43
0.0000001
 44
0.0000000001
 12
0.0011010187
 22
-0.3642207076
 32
0.0
 13
0.3642214356
 23
-0.0008257883
 33
0.0
 40
0.0
 40
0.0
 40
0.0
 40
0.0
 40
0.2331983104
 40
0.4766700817
 40
0.7337692773
 40
1.0
 40
1.0
 40
1.0
 40
1.0
 10
-7.2679760304
 20
23.8943375673
 30
0.0
 10
-7.2678904451
 20
23.8660256828
 30
0.0
 10
-7.2539819476
 20
23.8074674635
 30
0.0
 10
-7.1970306039
 20
23.7358176933
 30
0.0
 10
-7.1143704525
 20
23.688801661
 30
0.0
 10
-7.0503017693
 20
23.6779044998
 30
0.0
 10
-7.0179794573
 20
23.6778312164
 30
0.0
 11
-7.2679760304
 21
23.8943375673
 31
0.0
 11
-7.2487557976
 21
23.8116047816
 31
0.0
 11
-7.1945138719
 21
23.7414508265
 31
0.0
 11
-7.1135074044
 21
23.6944759256
 31
0.0
 11
-7.0179794573
 21
23.6778312164
 31
0.0
  0
SPLINE
  5
5EE
100
AcDbEntity
  8
RACCORDO
100
AcDbSpline
 62
7
  6
CONTINUOUS
 70
0
 71
3
 72
13
 73
9
 74
7
 42
0.0000001
 43
0.0000001
 44
0.0000000001
 12
0.002852503
 22
-0.3145370621
 32
0.0
 13
0.3145499964
 23
-0.0
 33
0.0
 40
0.0
 40
0.0
 40
0.0
 40
0.0
 40
0.0847539955
 40
0.1758124513
 40
0.2779583121
 40
0.3944533855
 40
0.6735537874
 40
1.0
 40
1.0
 40
1.0
 40
1.0
 10
-7.273212066
 20
23.3169872981
 30
0.0
 10
-7.273131479
 20
23.3081012072
 30
0.0
 10
-7.2699110834
 20
23.2895865771
 30
0.0
 10
-7.2564094295
 20
23.2633539473
 30
0.0
 10
-7.2345810498
 20
23.2389240474
 30
0.0
 10
-7.1922864387
 20
23.2078445986
 30
0.0
 10
-7.1204942746
 20
23.180186698
 30
0.0
 10
-7.0567888734
 20
23.1726497308
 30
0.0
 10
-7.0225609885
 20
23.1726497308
 30
0.0
 11
-7.273212066
 21
23.3169872981
 31
0.0
 11
-7.2687903345
 21
23.2906971812
 31
0.0
 11
-7.256007776
 21
23.2650652599
 31
0.0
 11
-7.2349009111
 21
23.2408405642
 31
0.0
 11
-7.205607582
 21
23.218825824
 31
0.0
 11
-7.1244591098
 21
23.1853267123
 31
0.0
 11
-7.0225609885
 21
23.1726497308
 31
0.0
  0
SPLINE
  5
5EF
100
AcDbEntity
  8
RACCORDO
100
AcDbSpline
 62
7
  6
CONTINUOUS
 70
0
 71
3
 72
13
 73
9
 74
7
 42
0.0000001
 43
0.0000001
 44
0.0000000001
 12
0.3145499964
 22
0.0
 32
0.0
 13
0.002852503
 23
0.3145370621
 33
0.0
 40
0.0
 40
0.0
 40
0.0
 40
0.0
 40
0.3264462126
 40
0.6055466145
 40
0.7220416879
 40
0.8241875487
 40
0.9152460045
 40
1.0
 40
1.0
 40
1.0
 40
1.0
 10
-4.6474390115
 20
23.1726497308
 30
0.0
 10
-4.6132111266
 20
23.1726497308
 30
0.0
 10
-4.5495057254
 20
23.180186698
 30
0.0
 10
-4.4777135613
 20
23.2078445986
 30
0.0
 10
-4.4354189502
 20
23.2389240474
 30
0.0
 10
-4.4135905705
 20
23.2633539473
 30
0.0
 10
-4.4000889166
 20
23.2895865771
 30
0.0
 10
-4.396868521
 20
23.3081012072
 30
0.0
 10
-4.396787934
 20
23.3169872981
 30
0.0
 11
-4.6474390115
 21
23.1726497308
 31
0.0
 11
-4.5455408902
 21
23.1853267123
 31
0.0
 11
-4.464392418
 21
23.218825824
 31
0.0
 11
-4.4350990889
 21
23.2408405642
 31
0.0
 11
-4.413992224
 21
23.2650652599
 31
0.0
 11
-4.4012096655
 21
23.2906971812
 31
0.0
 11
-4.396787934
 21
23.3169872981
 31
0.0
  0
SPLINE
  5
5F0
100
AcDbEntity
  8
RACCORDO
100
AcDbSpline
 62
253
  6
CONTINUOUS
 70
0
 71
3
 72
11
 73
7
 74
5
 42
0.0000001
 43
0.0000001
 44
0.0000000001
 12
0.0011010187
 22
-0.3642207076
 32
0.0
 13
0.3642214356
 23
-0.0008257883
 33
0.0
 40
0.0
 40
0.0
 40
0.0
 40
0.0
 40
0.2331983104
 40
0.4766700817
 40
0.7337692773
 40
1.0
 40
1.0
 40
1.0
 40
1.0
 10
-2.1679760304
 20
23.8943375673
 30
0.0
 10
-2.1678904451
 20
23.8660256828
 30
0.0
 10
-2.1539819476
 20
23.8074674635
 30
0.0
 10
-2.0970306039
 20
23.7358176933
 30
0.0
 10
-2.0143704525
 20
23.688801661
 30
0.0
 10
-1.9503017693
 20
23.6779044998
 30
0.0
 10
-1.9179794573
 20
23.6778312164
 30
0.0
 11
-2.1679760304
 21
23.8943375673
 31
0.0
 11
-2.1487557976
 21
23.8116047816
 31
0.0
 11
-2.0945138719
 21
23.7414508265
 31
0.0
 11
-2.0135074044
 21
23.6944759256
 31
0.0
 11
-1.9179794573
 21
23.6778312164
 31
0.0
  0
SPLINE
  5
5F1
100
AcDbEntity
  8
RACCORDO
100
AcDbSpline
 62
253
  6
CONTINUOUS
 70
0
 71
3
 72
11
 73
7
 74
5
 42
0.0000001
 43
0.0000001
 44
0.0000000001
 12
0.3642214703
 22
0.0008257884
 32
0.0
 13
0.0011010188
 23
0.3642207423
 33
0.0
 40
0.0
 40
0.0
 40
0.0
 40
0.0
 40
0.2662357453
 40
0.5233327532
 40
0.7668031567
 40
1.0
 40
1.0
 40
1.0
 40
1.0
 10
0.4479794573
 20
23.6778312164
 30
0.0
 10
0.4803023822
 20
23.6779045011
 30
0.0
 10
0.5443715062
 20
23.6888017363
 30
0.0
 10
0.6270313906
 20
23.7358185745
 30
0.0
 10
0.6839821389
 20
23.8074679693
 30
0.0
 10
0.6978904457
 20
23.8660258582
 30
0.0
 10
0.6979760304
 20
23.8943375673
 30
0.0
 11
0.4479794573
 21
23.6778312164
 31
0.0
 11
0.5435091791
 21
23.6944764512
 31
0.0
 11
0.6245146384
 21
23.7414515201
 31
0.0
 11
0.6787560322
 21
23.8116052673
 31
0.0
 11
0.6979760304
 21
23.8943375673
 31
0.0
  0
SPLINE
  5
5F2
100
AcDbEntity
  8
RACCORDO
100
AcDbSpline
 62
7
  6
CONTINUOUS
 70
0
 71
3
 72
13
 73
9
 74
7
 42
0.0000001
 43
0.0000001
 44
0.0000000001
 12
0.002852503
 22
-0.3145370621
 32
0.0
 13
0.3145499964
 23
-0.0
 33
0.0
 40
0.0
 40
0.0
 40
0.0
 40
0.0
 40
0.0847539955
 40
0.1758124513
 40
0.2779583121
 40
0.3944533855
 40
0.6735537874
 40
1.0
 40
1.0
 40
1.0
 40
1.0
 10
-2.173212066
 20
23.3169872981
 30
0.0
 10
-2.173131479
 20
23.3081012072
 30
0.0
 10
-2.1699110834
 20
23.2895865771
 30
0.0
 10
-2.1564094295
 20
23.2633539473
 30
0.0
 10
-2.1345810498
 20
23.2389240474
 30
0.0
 10
-2.0922864387
 20
23.2078445986
 30
0.0
 10
-2.0204942746
 20
23.180186698
 30
0.0
 10
-1.9567888734
 20
23.1726497308
 30
0.0
 10
-1.9225609885
 20
23.1726497308
 30
0.0
 11
-2.173212066
 21
23.3169872981
 31
0.0
 11
-2.1687903345
 21
23.2906971812
 31
0.0
 11
-2.156007776
 21
23.2650652599
 31
0.0
 11
-2.1349009111
 21
23.2408405642
 31
0.0
 11
-2.105607582
 21
23.218825824
 31
0.0
 11
-2.0244591098
 21
23.1853267123
 31
0.0
 11
-1.9225609885
 21
23.1726497308
 31
0.0
  0
SPLINE
  5
5F3
100
AcDbEntity
  8
RACCORDO
100
AcDbSpline
 62
7
  6
CONTINUOUS
 70
0
 71
3
 72
13
 73
9
 74
7
 42
0.0000001
 43
0.0000001
 44
0.0000000001
 12
0.3145499964
 22
0.0
 32
0.0
 13
0.002852503
 23
0.3145370621
 33
0.0
 40
0.0
 40
0.0
 40
0.0
 40
0.0
 40
0.3264462126
 40
0.6055466145
 40
0.7220416879
 40
0.8241875487
 40
0.9152460045
 40
1.0
 40
1.0
 40
1.0
 40
1.0
 10
0.4525609885
 20
23.1726497308
 30
0.0
 10
0.4867888734
 20
23.1726497308
 30
0.0
 10
0.5504942746
 20
23.180186698
 30
0.0
 10
0.6222864387
 20
23.2078445986
 30
0.0
 10
0.6645810498
 20
23.2389240474
 30
0.0
 10
0.6864094295
 20
23.2633539473
 30
0.0
 10
0.6999110834
 20
23.2895865771
 30
0.0
 10
0.703131479
 20
23.3081012072
 30
0.0
 10
0.703212066
 20
23.3169872981
 30
0.0
 11
0.4525609885
 21
23.1726497308
 31
0.0
 11
0.5544591098
 21
23.1853267123
 31
0.0
 11
0.635607582
 21
23.218825824
 31
0.0
 11
0.6649009111
 21
23.2408405642
 31
0.0
 11
0.686007776
 21
23.2650652599
 31
0.0
 11
0.6987903345
 21
23.2906971812
 31
0.0
 11
0.703212066
 21
23.3169872981
 31
0.0
  0
SPLINE
  5
5F4
100
AcDbEntity
  8
RACCORDO
100
AcDbSpline
 62
253
  6
CONTINUOUS
 70
0
 71
3
 72
11
 73
7
 74
5
 42
0.0000001
 43
0.0000001
 44
0.0000000001
 12
0.3642214703
 22
0.0008257884
 32
0.0
 13
0.0011010188
 23
0.3642207423
 33
0.0
 40
0.0
 40
0.0
 40
0.0
 40
0.0
 40
0.2662357453
 40
0.5233327532
 40
0.7668031567
 40
1.0
 40
1.0
 40
1.0
 40
1.0
 10
17.8479794573
 20
23.6778312164
 30
0.0
 10
17.8803023822
 20
23.6779045011
 30
0.0
 10
17.9443715062
 20
23.6888017363
 30
0.0
 10
18.0270313906
 20
23.7358185745
 30
0.0
 10
18.0839821389
 20
23.8074679693
 30
0.0
 10
18.0978904457
 20
23.8660258582
 30
0.0
 10
18.0979760304
 20
23.8943375673
 30
0.0
 11
17.8479794573
 21
23.6778312164
 31
0.0
 11
17.9435091791
 21
23.6944764512
 31
0.0
 11
18.0245146384
 21
23.7414515201
 31
0.0
 11
18.0787560322
 21
23.8116052673
 31
0.0
 11
18.0979760304
 21
23.8943375673
 31
0.0
  0
SPLINE
  5
5F5
100
AcDbEntity
  8
RACCORDO
100
AcDbSpline
 62
253
  6
CONTINUOUS
 70
0
 71
3
 72
11
 73
7
 74
5
 42
0.0000001
 43
0.0000001
 44
0.0000000001
 12
0.0011010187
 22
-0.3642207076
 32
0.0
 13
0.3642214356
 23
-0.0008257883
 33
0.0
 40
0.0
 40
0.0
 40
0.0
 40
0.0
 40
0.2331983104
 40
0.4766700817
 40
0.7337692773
 40
1.0
 40
1.0
 40
1.0
 40
1.0
 10
15.2320239696
 20
23.8943375673
 30
0.0
 10
15.2321095549
 20
23.8660256828
 30
0.0
 10
15.2460180524
 20
23.8074674635
 30
0.0
 10
15.3029693961
 20
23.7358176933
 30
0.0
 10
15.3856295475
 20
23.688801661
 30
0.0
 10
15.4496982307
 20
23.6779044998
 30
0.0
 10
15.4820205427
 20
23.6778312164
 30
0.0
 11
15.2320239696
 21
23.8943375673
 31
0.0
 11
15.2512442024
 21
23.8116047816
 31
0.0
 11
15.3054861281
 21
23.7414508265
 31
0.0
 11
15.3864925956
 21
23.6944759256
 31
0.0
 11
15.4820205427
 21
23.6778312164
 31
0.0
  0
SPLINE
  5
5F6
100
AcDbEntity
  8
RACCORDO
100
AcDbSpline
 62
7
  6
CONTINUOUS
 70
0
 71
3
 72
13
 73
9
 74
7
 42
0.0000001
 43
0.0000001
 44
0.0000000001
 12
0.002852503
 22
-0.3145370621
 32
0.0
 13
0.3145499964
 23
0.0
 33
0.0
 40
0.0
 40
0.0
 40
0.0
 40
0.0
 40
0.0847539955
 40
0.1758124513
 40
0.2779583121
 40
0.3944533855
 40
0.6735537874
 40
1.0
 40
1.0
 40
1.0
 40
1.0
 10
15.226787934
 20
23.3169872981
 30
0.0
 10
15.226868521
 20
23.3081012072
 30
0.0
 10
15.2300889166
 20
23.2895865771
 30
0.0
 10
15.2435905705
 20
23.2633539473
 30
0.0
 10
15.2654189502
 20
23.2389240474
 30
0.0
 10
15.3077135613
 20
23.2078445986
 30
0.0
 10
15.3795057254
 20
23.180186698
 30
0.0
 10
15.4432111266
 20
23.1726497308
 30
0.0
 10
15.4774390115
 20
23.1726497308
 30
0.0
 11
15.226787934
 21
23.3169872981
 31
0.0
 11
15.2312096655
 21
23.2906971812
 31
0.0
 11
15.243992224
 21
23.2650652599
 31
0.0
 11
15.2650990889
 21
23.2408405642
 31
0.0
 11
15.294392418
 21
23.218825824
 31
0.0
 11
15.3755408902
 21
23.1853267123
 31
0.0
 11
15.4774390115
 21
23.1726497308
 31
0.0
  0
SPLINE
  5
5F7
100
AcDbEntity
  8
RACCORDO
100
AcDbSpline
 62
7
  6
CONTINUOUS
 70
0
 71
3
 72
13
 73
9
 74
7
 42
0.0000001
 43
0.0000001
 44
0.0000000001
 12
0.3145499964
 22
0.0
 32
0.0
 13
0.002852503
 23
0.3145370621
 33
0.0
 40
0.0
 40
0.0
 40
0.0
 40
0.0
 40
0.3264462126
 40
0.6055466145
 40
0.7220416879
 40
0.8241875487
 40
0.9152460045
 40
1.0
 40
1.0
 40
1.0
 40
1.0
 10
17.8525609885
 20
23.1726497308
 30
0.0
 10
17.8867888734
 20
23.1726497308
 30
0.0
 10
17.9504942746
 20
23.180186698
 30
0.0
 10
18.0222864387
 20
23.2078445986
 30
0.0
 10
18.0645810498
 20
23.2389240474
 30
0.0
 10
18.0864094295
 20
23.2633539473
 30
0.0
 10
18.0999110834
 20
23.2895865771
 30
0.0
 10
18.103131479
 20
23.3081012072
 30
0.0
 10
18.103212066
 20
23.3169872981
 30
0.0
 11
17.8525609885
 21
23.1726497308
 31
0.0
 11
17.9544591098
 21
23.1853267123
 31
0.0
 11
18.035607582
 21
23.218825824
 31
0.0
 11
18.0649009111
 21
23.2408405642
 31
0.0
 11
18.086007776
 21
23.2650652599
 31
0.0
 11
18.0987903345
 21
23.2906971812
 31
0.0
 11
18.103212066
 21
23.3169872981
 31
0.0
  0
SPLINE
  5
5F8
100
AcDbEntity
  8
RACCORDO
100
AcDbSpline
 62
253
  6
CONTINUOUS
 70
0
 71
3
 72
11
 73
7
 74
5
 42
0.0000001
 43
0.0000001
 44
0.0000000001
 12
-0.3642214703
 22
-0.0008257884
 32
0.0
 13
-0.0011010188
 23
-0.3642207423
 33
0.0
 40
0.0
 40
0.0
 40
0.0
 40
0.0
 40
0.2662357453
 40
0.5233327532
 40
0.7668031567
 40
1.0
 40
1.0
 40
1.0
 40
1.0
 10
-24.4179794573
 20
-23.6778312164
 30
0.0
 10
-24.4503023822
 20
-23.6779045011
 30
0.0
 10
-24.5143715062
 20
-23.6888017363
 30
0.0
 10
-24.5970313906
 20
-23.7358185745
 30
0.0
 10
-24.6539821389
 20
-23.8074679693
 30
0.0
 10
-24.6678904457
 20
-23.8660258582
 30
0.0
 10
-24.6679760304
 20
-23.8943375673
 30
0.0
 11
-24.4179794573
 21
-23.6778312164
 31
0.0
 11
-24.5135091791
 21
-23.6944764512
 31
0.0
 11
-24.5945146384
 21
-23.7414515201
 31
0.0
 11
-24.6487560322
 21
-23.8116052673
 31
0.0
 11
-24.6679760304
 21
-23.8943375673
 31
0.0
  0
SPLINE
  5
5F9
100
AcDbEntity
  8
RACCORDO
100
AcDbSpline
 62
253
  6
CONTINUOUS
 70
0
 71
3
 72
11
 73
7
 74
5
 42
0.0000001
 43
0.0000001
 44
0.0000000001
 12
-0.0011010187
 22
0.3642207076
 32
0.0
 13
-0.3642214356
 23
0.0008257883
 33
0.0
 40
0.0
 40
0.0
 40
0.0
 40
0.0
 40
0.2331983104
 40
0.4766700817
 40
0.7337692773
 40
1.0
 40
1.0
 40
1.0
 40
1.0
 10
-21.8020239696
 20
-23.8943375673
 30
0.0
 10
-21.8021095549
 20
-23.8660256828
 30
0.0
 10
-21.8160180524
 20
-23.8074674635
 30
0.0
 10
-21.8729693961
 20
-23.7358176933
 30
0.0
 10
-21.9556295475
 20
-23.688801661
 30
0.0
 10
-22.0196982307
 20
-23.6779044998
 30
0.0
 10
-22.0520205427
 20
-23.6778312164
 30
0.0
 11
-21.8020239696
 21
-23.8943375673
 31
0.0
 11
-21.8212442024
 21
-23.8116047816
 31
0.0
 11
-21.8754861281
 21
-23.7414508265
 31
0.0
 11
-21.9564925956
 21
-23.6944759256
 31
0.0
 11
-22.0520205427
 21
-23.6778312164
 31
0.0
  0
SPLINE
  5
5FA
100
AcDbEntity
  8
RACCORDO
100
AcDbSpline
 62
7
  6
CONTINUOUS
 70
0
 71
3
 72
13
 73
9
 74
7
 42
0.0000001
 43
0.0000001
 44
0.0000000001
 12
-0.002852503
 22
0.3145370621
 32
0.0
 13
-0.3145499964
 23
0.0
 33
0.0
 40
0.0
 40
0.0
 40
0.0
 40
0.0
 40
0.0847539955
 40
0.1758124513
 40
0.2779583121
 40
0.3944533855
 40
0.6735537874
 40
1.0
 40
1.0
 40
1.0
 40
1.0
 10
-21.796787934
 20
-23.3169872981
 30
0.0
 10
-21.796868521
 20
-23.3081012072
 30
0.0
 10
-21.8000889166
 20
-23.2895865771
 30
0.0
 10
-21.8135905705
 20
-23.2633539473
 30
0.0
 10
-21.8354189502
 20
-23.2389240474
 30
0.0
 10
-21.8777135613
 20
-23.2078445986
 30
0.0
 10
-21.9495057254
 20
-23.180186698
 30
0.0
 10
-22.0132111266
 20
-23.1726497308
 30
0.0
 10
-22.0474390115
 20
-23.1726497308
 30
0.0
 11
-21.796787934
 21
-23.3169872981
 31
0.0
 11
-21.8012096655
 21
-23.2906971812
 31
0.0
 11
-21.813992224
 21
-23.2650652599
 31
0.0
 11
-21.8350990889
 21
-23.2408405642
 31
0.0
 11
-21.864392418
 21
-23.218825824
 31
0.0
 11
-21.9455408902
 21
-23.1853267123
 31
0.0
 11
-22.0474390115
 21
-23.1726497308
 31
0.0
  0
SPLINE
  5
5FB
100
AcDbEntity
  8
RACCORDO
100
AcDbSpline
 62
7
  6
CONTINUOUS
 70
0
 71
3
 72
13
 73
9
 74
7
 42
0.0000001
 43
0.0000001
 44
0.0000000001
 12
-0.3145499964
 22
0.0
 32
0.0
 13
-0.002852503
 23
-0.3145370621
 33
0.0
 40
0.0
 40
0.0
 40
0.0
 40
0.0
 40
0.3264462126
 40
0.6055466145
 40
0.7220416879
 40
0.8241875487
 40
0.9152460045
 40
1.0
 40
1.0
 40
1.0
 40
1.0
 10
-24.4225609885
 20
-23.1726497308
 30
0.0
 10
-24.4567888734
 20
-23.1726497308
 30
0.0
 10
-24.5204942746
 20
-23.180186698
 30
0.0
 10
-24.5922864387
 20
-23.2078445986
 30
0.0
 10
-24.6345810498
 20
-23.2389240474
 30
0.0
 10
-24.6564094295
 20
-23.2633539473
 30
0.0
 10
-24.6699110834
 20
-23.2895865771
 30
0.0
 10
-24.673131479
 20
-23.3081012072
 30
0.0
 10
-24.673212066
 20
-23.3169872981
 30
0.0
 11
-24.4225609885
 21
-23.1726497308
 31
0.0
 11
-24.5244591098
 21
-23.1853267123
 31
0.0
 11
-24.605607582
 21
-23.218825824
 31
0.0
 11
-24.6349009111
 21
-23.2408405642
 31
0.0
 11
-24.656007776
 21
-23.2650652599
 31
0.0
 11
-24.6687903345
 21
-23.2906971812
 31
0.0
 11
-24.673212066
 21
-23.3169872981
 31
0.0
  0
SPLINE
  5
5FC
100
AcDbEntity
  8
RACCORDO
100
AcDbSpline
 62
253
  6
CONTINUOUS
 70
0
 71
3
 72
16
 73
12
 74
10
 42
0.0000001
 43
0.0000001
 44
0.0000000001
 12
0.1395937382
 22
0.8386350891
 32
0.0
 13
0.0011121993
 23
0.8501729162
 33
0.0
 40
0.0
 40
0.0
 40
0.0
 40
0.0
 40
0.0096006321
 40
0.0277100708
 40
0.0542124403
 40
0.0889072169
 40
0.1818251506
 40
0.3037553268
 40
0.451143029
 40
0.6196618622
 40
1.0
 40
1.0
 40
1.0
 40
1.0
 10
-25.0220828757
 20
-22.0098304059
 30
0.0
 10
-25.0216361463
 20
-22.0071465969
 30
0.0
 10
-25.0212004375
 20
-21.999284942
 30
0.0
 10
-25.0204453458
 20
-21.9839543802
 30
0.0
 10
-25.0198006911
 20
-21.9614808274
 30
0.0
 10
-25.0187735655
 20
-21.917822091
 30
0.0
 10
-25.0176856523
 20
-21.8471084222
 30
0.0
 10
-25.0165425891
 20
-21.7444616616
 30
0.0
 10
-25.0155675818
 20
-21.6203857011
 30
0.0
 10
-25.0144688717
 20
-21.4230792656
 30
0.0
 10
-25.014049943
 20
-21.2675380845
 30
0.0
 10
-25.013908939
 20
-21.1597536899
 30
0.0
 11
-25.0220828757
 21
-22.0098304059
 31
0.0
 11
-25.0213402009
 21
-22.0017020595
 31
0.0
 11
-25.020604881
 21
-21.9863234615
 31
0.0
 11
-25.0198840867
 21
-21.9638033776
 31
0.0
 11
-25.0191833461
 21
-21.9343151178
 31
0.0
 11
-25.0178605198
 21
-21.855329816
 31
0.0
 11
-25.0166741889
 21
-21.7516747823
 31
0.0
 11
-25.0156592541
 21
-21.6263737529
 31
0.0
 11
-25.0148452912
 21
-21.4831057946
 31
0.0
 11
-25.013908939
 21
-21.1597536899
 31
0.0
  0
SPLINE
  5
5FD
100
AcDbEntity
  8
RACCORDO
100
AcDbSpline
 62
253
  6
CONTINUOUS
 70
0
 71
3
 72
16
 73
12
 74
10
 42
0.0000001
 43
0.0000001
 44
0.0000000001
 12
0.1345233767
 22
0.403407724
 32
0.0
 13
0.0011149097
 23
0.4252447385
 33
0.0
 40
0.0
 40
0.0
 40
0.0
 40
0.0
 40
0.0096878333
 40
0.0277976365
 40
0.0542870812
 40
0.0889730438
 40
0.181864465
 40
0.3037656375
 40
0.4511350151
 40
0.6196463294
 40
1.0
 40
1.0
 40
1.0
 40
1.0
 10
-25.5220113671
 20
-21.510529595
 30
0.0
 10
-25.5215769538
 20
-21.5092268794
 30
0.0
 10
-25.5211208167
 20
-21.5052748597
 30
0.0
 10
-25.5203782519
 20
-21.4976410543
 30
0.0
 10
-25.5197267701
 20
-21.4864070273
 30
0.0
 10
-25.5187024568
 20
-21.4645994323
 30
0.0
 10
-25.5176111685
 20
-21.4292461373
 30
0.0
 10
-25.5164683175
 20
-21.377925187
 30
0.0
 10
-25.5154921672
 20
-21.3158765266
 30
0.0
 10
-25.51439274
 20
-21.2171925188
 30
0.0
 10
-25.5139741399
 20
-21.1393917463
 30
0.0
 10
-25.5138327866
 20
-21.0854772805
 30
0.0
 11
-25.5220113671
 21
-21.510529595
 31
0.0
 11
-25.5212682343
 21
-21.5064774598
 31
0.0
 11
-25.5205330347
 21
-21.4988115086
 31
0.0
 11
-25.5198121106
 21
-21.487570066
 31
0.0
 11
-25.5191108828
 21
-21.47283667
 31
0.0
 11
-25.5177870214
 21
-21.4333571363
 31
0.0
 11
-25.5165997807
 21
-21.3815327234
 31
0.0
 11
-25.5155840435
 21
-21.3188726877
 31
0.0
 11
-25.5147695007
 21
-21.2472185212
 31
0.0
 11
-25.5138327866
 21
-21.0854772805
 31
0.0
  0
SPLINE
  5
5FE
100
AcDbEntity
  8
RACCORDO
100
AcDbSpline
 62
253
  6
CONTINUOUS
 70
0
 71
3
 72
14
 73
10
 74
8
 42
0.0000001
 43
0.0000001
 44
0.0000000001
 12
0.0592762408
 22
-0.5102889868
 32
0.0
 13
0.5137185878
 23
-0.0013172917
 33
0.0
 40
0.0
 40
0.0
 40
0.0
 40
0.0
 40
0.0352436367
 40
0.063092138
 40
0.0986747908
 40
0.1929112803
 40
0.3159811856
 40
0.6312104994
 40
1.0
 40
1.0
 40
1.0
 40
1.0
 10
-25.5138327866
 20
-21.0854772805
 30
0.0
 10
-25.5131364165
 20
-21.0914720937
 30
0.0
 10
-25.5038623289
 20
-21.0999241124
 30
0.0
 10
-25.4893219682
 20
-21.1075970452
 30
0.0
 10
-25.4639256515
 20
-21.1175012913
 30
0.0
 10
-25.4219551765
 20
-21.1280602363
 30
0.0
 10
-25.3320011966
 20
-21.1436660869
 30
0.0
 10
-25.1941959116
 20
-21.1560204384
 30
0.0
 10
-25.0770602795
 20
-21.15959175
 30
0.0
 10
-25.013908939
 20
-21.1597536845
 30
0.0
 11
-25.5138327866
 21
-21.0854772805
 31
0.0
 11
-25.5027681387
 21
-21.0998082965
 31
0.0
 11
-25.4902939145
 21
-21.1068129442
 31
0.0
 11
-25.4733256364
 21
-21.1136113825
 31
0.0
 11
-25.4266198336
 21
-21.1263476233
 31
0.0
 11
-25.3643969129
 21
-21.1375511865
 31
0.0
 11
-25.2032679671
 21
-21.1537353186
 31
0.0
 11
-25.013908939
 21
-21.1597536845
 31
0.0
  0
SPLINE
  5
5FF
100
AcDbEntity
  8
RACCORDO
100
AcDbSpline
 62
253
  6
CONTINUOUS
 70
0
 71
3
 72
20
 73
16
 74
14
 42
0.0000001
 43
0.0000001
 44
0.0000000001
 12
0.3383393992
 22
-0.3684642647
 32
0.0
 13
0.5002393786
 23
-0.0001658726
 33
0.0
 40
0.0
 40
0.0
 40
0.0
 40
0.0
 40
0.0022251634
 40
0.0066990777
 40
0.0225502428
 40
0.0475630429
 40
0.0815373204
 40
0.124130018
 40
0.1749728425
 40
0.2335807338
 40
0.2993935447
 40
0.4501452467
 40
0.6215021643
 40
0.8072022474
 40
1.0
 40
1.0
 40
1.0
 40
1.0
 10
-25.4967810505
 20
-9.4905
 30
0.0
 10
-25.496530097
 20
-9.4907732977
 30
0.0
 10
-25.4953660765
 20
-9.4910661405
 30
0.0
 10
-25.4917735267
 20
-9.4918168284
 30
0.0
 10
-25.4841413084
 20
-9.4924851919
 30
0.0
 10
-25.4717492231
 20
-9.4933766353
 30
0.0
 10
-25.4548060001
 20
-9.494190492
 30
0.0
 10
-25.4335857018
 20
-9.4950128651
 30
0.0
 10
-25.4082414366
 20
-9.4957878387
 30
0.0
 10
-25.3790270381
 20
-9.4965218707
 30
0.0
 10
-25.3331522758
 20
-9.4974709066
 30
0.0
 10
-25.2684750106
 20
-9.4984538508
 30
0.0
 10
-25.1838037
 20
-9.4993119605
 30
0.0
 10
-25.092118749
 20
-9.4998534332
 30
0.0
 10
-25.0290055456
 20
-9.49998934
 30
0.0
 10
-24.9968572029
 20
-9.5
 30
0.0
 11
-25.4967810505
 21
-9.4905
 31
0.0
 11
-25.4957674923
 21
-9.4909601341
 31
0.0
 11
-25.4935771817
 21
-9.491419819
 31
0.0
 11
-25.4857005315
 21
-9.4923327304
 31
0.0
 11
-25.4732202508
 21
-9.4932285289
 31
0.0
 11
-25.456247232
 21
-9.4940979627
 31
0.0
 11
-25.4349570658
 21
-9.4949332572
 31
0.0
 11
-25.4095358638
 21
-9.4957267936
 31
0.0
 11
-25.3802273413
 21
-9.4964712859
 31
0.0
 11
-25.3473123774
 21
-9.4971596626
 31
0.0
 11
-25.271909706
 21
-9.4983420889
 31
0.0
 11
-25.1861948194
 21
-9.4992297401
 31
0.0
 11
-25.0933020063
 21
-9.4997894381
 31
0.0
 11
-24.9968572029
 21
-9.5
 31
0.0
  0
SPLINE
  5
600
100
AcDbEntity
  8
RACCORDO
100
AcDbSpline
 62
253
  6
CONTINUOUS
 70
0
 71
3
 72
11
 73
7
 74
5
 42
0.0000001
 43
0.0000001
 44
0.0000000001
 12
-0.0011010187
 22
0.3642207076
 32
0.0
 13
-0.3642214356
 23
0.0008257883
 33
0.0
 40
0.0
 40
0.0
 40
0.0
 40
0.0
 40
0.2331983104
 40
0.4766700817
 40
0.7337692773
 40
1.0
 40
1.0
 40
1.0
 40
1.0
 10
-4.4020239696
 20
-23.8943375673
 30
0.0
 10
-4.4021095549
 20
-23.8660256828
 30
0.0
 10
-4.4160180524
 20
-23.8074674635
 30
0.0
 10
-4.4729693961
 20
-23.7358176933
 30
0.0
 10
-4.5556295475
 20
-23.688801661
 30
0.0
 10
-4.6196982307
 20
-23.6779044998
 30
0.0
 10
-4.6520205427
 20
-23.6778312164
 30
0.0
 11
-4.4020239696
 21
-23.8943375673
 31
0.0
 11
-4.4212442024
 21
-23.8116047816
 31
0.0
 11
-4.4754861281
 21
-23.7414508265
 31
0.0
 11
-4.5564925956
 21
-23.6944759256
 31
0.0
 11
-4.6520205427
 21
-23.6778312164
 31
0.0
  0
SPLINE
  5
601
100
AcDbEntity
  8
RACCORDO
100
AcDbSpline
 62
253
  6
CONTINUOUS
 70
0
 71
3
 72
9
 73
5
 74
3
 42
0.0000001
 43
0.0000001
 44
0.0000000001
 12
0.0062961104
 22
18.9809991515
 32
0.0
 13
-0.0062961109
 23
18.9809991515
 33
0.0
 40
0.0
 40
0.0
 40
0.0
 40
0.0
 40
0.2499885516
 40
1.0
 40
1.0
 40
1.0
 40
1.0
 10
-25.4967810505
 20
-9.4905
 30
0.0
 10
-25.4962563986
 20
-7.9088225048
 30
0.0
 10
-25.4946825617
 20
-1.5818226244
 30
0.0
 10
-25.4952069987
 20
4.745177778
 30
0.0
 10
-25.4967810505
 20
9.4905
 30
0.0
 11
-25.4967810505
 21
-9.4905
 31
0.0
 11
-25.4956006463
 21
-4.7454674001
 31
0.0
 11
-25.4967810505
 21
9.4905
 31
0.0
  0
SPLINE
  5
602
100
AcDbEntity
  8
RACCORDO
100
AcDbSpline
 62
253
  6
CONTINUOUS
 70
0
 71
3
 72
20
 73
16
 74
14
 42
0.0000001
 43
0.0000001
 44
0.0000000001
 12
0.3383401548
 22
0.3684635705
 32
0.0
 13
0.5002393783
 23
0.0001658725
 33
0.0
 40
0.0
 40
0.0
 40
0.0
 40
0.0
 40
0.0022251664
 40
0.0066990837
 40
0.0225502544
 40
0.047563059
 40
0.0815373401
 40
0.1241300403
 40
0.1749728665
 40
0.2335807585
 40
0.2993935692
 40
0.4501452683
 40
0.6215021803
 40
0.8072022559
 40
1.0
 40
1.0
 40
1.0
 40
1.0
 10
-25.4967810505
 20
9.4905
 30
0.0
 10
-25.4965300961
 20
9.4907732976
 30
0.0
 10
-25.4953660751
 20
9.4910661405
 30
0.0
 10
-25.4917735227
 20
9.4918168281
 30
0.0
 10
-25.4841413029
 20
9.4924851918
 30
0.0
 10
-25.4717492149
 20
9.493376635
 30
0.0
 10
-25.4548059902
 20
9.4941904918
 30
0.0
 10
-25.4335856906
 20
9.4950128648
 30
0.0
 10
-25.4082414246
 20
9.4957878384
 30
0.0
 10
-25.3790270258
 20
9.4965218704
 30
0.0
 10
-25.3331522638
 20
9.4974709062
 30
0.0
 10
-25.2684750001
 20
9.4984538503
 30
0.0
 10
-25.1838036922
 20
9.4993119599
 30
0.0
 10
-25.0921187449
 20
9.4998534325
 30
0.0
 10
-25.0290055441
 20
9.4999893394
 30
0.0
 10
-24.9968572029
 20
9.4999999993
 30
0.0
 11
-25.4967810505
 21
9.4905
 31
0.0
 11
-25.4957674906
 21
9.4909601341
 31
0.0
 11
-25.4935771785
 21
9.491419819
 31
0.0
 11
-25.4857005255
 21
9.4923327303
 31
0.0
 11
-25.4732202426
 21
9.4932285288
 31
0.0
 11
-25.4562472219
 21
9.4940979625
 31
0.0
 11
-25.4349570545
 21
9.4949332569
 31
0.0
 11
-25.4095358516
 21
9.4957267933
 31
0.0
 11
-25.3802273288
 21
9.4964712856
 31
0.0
 11
-25.347312365
 21
9.4971596622
 31
0.0
 11
-25.2719096951
 21
9.4983420884
 31
0.0
 11
-25.1861948113
 21
9.4992297395
 31
0.0
 11
-25.093302002
 21
9.4997894374
 31
0.0
 11
-24.9968572029
 21
9.4999999993
 31
0.0
  0
SPLINE
  5
603
100
AcDbEntity
  8
RACCORDO
100
AcDbSpline
 62
253
  6
CONTINUOUS
 70
0
 71
3
 72
11
 73
7
 74
5
 42
0.0000001
 43
0.0000001
 44
0.0000000001
 12
-0.3642214703
 22
-0.0008257884
 32
0.0
 13
-0.0011010188
 23
-0.3642207423
 33
0.0
 40
0.0
 40
0.0
 40
0.0
 40
0.0
 40
0.2662357453
 40
0.5233327532
 40
0.7668031567
 40
1.0
 40
1.0
 40
1.0
 40
1.0
 10
-7.0179794573
 20
-23.6778312164
 30
0.0
 10
-7.0503023822
 20
-23.6779045011
 30
0.0
 10
-7.1143715062
 20
-23.6888017363
 30
0.0
 10
-7.1970313906
 20
-23.7358185745
 30
0.0
 10
-7.2539821389
 20
-23.8074679693
 30
0.0
 10
-7.2678904457
 20
-23.8660258582
 30
0.0
 10
-7.2679760304
 20
-23.8943375673
 30
0.0
 11
-7.0179794573
 21
-23.6778312164
 31
0.0
 11
-7.1135091791
 21
-23.6944764512
 31
0.0
 11
-7.1945146384
 21
-23.7414515201
 31
0.0
 11
-7.2487560322
 21
-23.8116052673
 31
0.0
 11
-7.2679760304
 21
-23.8943375673
 31
0.0
  0
SPLINE
  5
604
100
AcDbEntity
  8
RACCORDO
100
AcDbSpline
 62
253
  6
CONTINUOUS
 70
0
 71
3
 72
14
 73
10
 74
8
 42
0.0000001
 43
0.0000001
 44
0.0000000001
 12
0.0593257294
 22
0.5102820686
 32
0.0
 13
0.5137174287
 23
0.0013172695
 33
0.0
 40
0.0
 40
0.0
 40
0.0
 40
0.0
 40
0.0352449145
 40
0.0630943422
 40
0.0986779041
 40
0.192915889
 40
0.3159865716
 40
0.6312146696
 40
1.0
 40
1.0
 40
1.0
 40
1.0
 10
-25.5138327865
 20
21.0854772805
 30
0.0
 10
-25.5131358098
 20
21.0914722298
 30
0.0
 10
-25.5038610179
 20
21.0999237775
 30
0.0
 10
-25.4893200545
 20
21.1075966545
 30
0.0
 10
-25.4639230927
 20
21.1175006176
 30
0.0
 10
-25.4219521102
 20
21.1280593344
 30
0.0
 10
-25.3319980675
 20
21.1436646754
 30
0.0
 10
-25.1941938712
 20
21.1560186394
 30
0.0
 10
-25.0770594229
 20
21.1595898222
 30
0.0
 10
-25.013908939
 20
21.159751752
 30
0.0
 11
-25.5138327865
 21
21.0854772805
 31
0.0
 11
-25.5027668212
 21
21.0998080569
 31
0.0
 11
-25.4902920127
 21
21.1068125701
 31
0.0
 11
-25.4733232184
 21
21.1136108649
 31
0.0
 11
-25.4266166487
 21
21.1263467986
 31
0.0
 11
-25.3643934099
 21
21.1375500433
 31
0.0
 11
-25.2032654035
 21
21.1537336212
 31
0.0
 11
-25.013908939
 21
21.159751752
 31
0.0
  0
SPLINE
  5
605
100
AcDbEntity
  8
RACCORDO
100
AcDbSpline
 62
253
  6
CONTINUOUS
 70
0
 71
3
 72
16
 73
12
 74
10
 42
0.0000001
 43
0.0000001
 44
0.0000000001
 12
-0.0011171758
 22
0.8501729072
 32
0.0
 13
-0.1396552723
 23
0.8386248417
 33
0.0
 40
0.0
 40
0.0
 40
0.0
 40
0.0
 40
0.3803381627
 40
0.5488569809
 40
0.6962447447
 40
0.8181746048
 40
0.9110933047
 40
0.9457885595
 40
0.9722890497
 40
0.9903956229
 40
1.0
 40
1.0
 40
1.0
 40
1.0
 10
-25.013908939
 20
21.1597536899
 30
0.0
 10
-25.0140505739
 20
21.2675380904
 30
0.0
 10
-25.0144682824
 20
21.4230792761
 30
0.0
 10
-25.0155672061
 20
21.6203857311
 30
0.0
 10
-25.0165421352
 20
21.744461615
 30
0.0
 10
-25.0176855406
 20
21.8471085181
 30
0.0
 10
-25.0187743495
 20
21.9178224358
 30
0.0
 10
-25.0198016113
 20
21.9614809875
 30
0.0
 10
-25.0204459211
 20
21.9839533398
 30
0.0
 10
-25.0211998954
 20
21.9992836576
 30
0.0
 10
-25.0216357705
 20
22.0071455828
 30
0.0
 10
-25.0220828712
 20
22.0098304059
 30
0.0
 11
-25.013908939
 21
21.1597536899
 31
0.0
 11
-25.0148448978
 21
21.483105816
 31
0.0
 11
-25.0156588412
 21
21.6263737612
 31
0.0
 11
-25.0166738216
 21
21.7516748422
 31
0.0
 11
-25.0178606135
 21
21.8553296015
 31
0.0
 11
-25.0191841604
 21
21.9343155426
 31
0.0
 11
-25.0198849366
 21
21.9638042081
 31
0.0
 11
-25.0206051694
 21
21.9863227113
 31
0.0
 11
-25.0213396922
 21
22.0016989085
 31
0.0
 11
-25.0220828712
 21
22.0098304059
 31
0.0
  0
SPLINE
  5
606
100
AcDbEntity
  8
RACCORDO
100
AcDbSpline
 62
253
  6
CONTINUOUS
 70
0
 71
3
 72
16
 73
12
 74
10
 42
0.0000001
 43
0.0000001
 44
0.0000000001
 12
-0.0011151197
 22
0.4252302152
 32
0.0
 13
-0.1340657703
 23
0.4035447294
 33
0.0
 40
0.0
 40
0.0
 40
0.0
 40
0.0
 40
0.3802260304
 40
0.5487003815
 40
0.6960536407
 40
0.8179598499
 40
0.910880445
 40
0.9455924731
 40
0.9721218457
 40
0.9902795125
 40
1.0
 40
1.0
 40
1.0
 40
1.0
 10
-25.5138327866
 20
21.0854772805
 30
0.0
 10
-25.5139741191
 20
21.1393718128
 30
0.0
 10
-25.5143925122
 20
21.2171465951
 30
0.0
 10
-25.5154911879
 20
21.3158016254
 30
0.0
 10
-25.5164667023
 20
21.3778413581
 30
0.0
 10
-25.5176089208
 20
21.4291631516
 30
0.0
 10
-25.5186996811
 20
21.464523762
 30
0.0
 10
-25.5197234649
 20
21.486344185
 30
0.0
 10
-25.5203747218
 20
21.4975939317
 30
0.0
 10
-25.5211169824
 20
21.5052447458
 30
0.0
 10
-25.5215723239
 20
21.509208088
 30
0.0
 10
-25.5220067188
 20
21.5105156385
 30
0.0
 11
-25.5138327866
 21
21.0854772805
 31
0.0
 11
-25.5147689551
 21
21.2471587229
 31
0.0
 11
-25.5155829529
 21
21.3187947293
 31
0.0
 11
-25.5165980183
 21
21.3814457804
 31
0.0
 11
-25.5177845482
 21
21.4332705812
 31
0.0
 11
-25.5191076707
 21
21.4727612025
 31
0.0
 11
-25.5198085254
 21
21.4875052083
 31
0.0
 11
-25.5205290721
 21
21.498763303
 31
0.0
 11
-25.5212639087
 21
21.506449471
 31
0.0
 11
-25.5220067188
 21
21.5105156385
 31
0.0
  0
SPLINE
  5
607
100
AcDbEntity
  8
RACCORDO
100
AcDbSpline
 62
7
  6
CONTINUOUS
 70
0
 71
3
 72
13
 73
9
 74
7
 42
0.0000001
 43
0.0000001
 44
0.0000000001
 12
-0.3145499964
 22
0.0
 32
0.0
 13
-0.002852503
 23
-0.3145370621
 33
0.0
 40
0.0
 40
0.0
 40
0.0
 40
0.0
 40
0.3264462126
 40
0.6055466145
 40
0.7220416879
 40
0.8241875487
 40
0.9152460045
 40
1.0
 40
1.0
 40
1.0
 40
1.0
 10
-7.0225609885
 20
-23.1726497308
 30
0.0
 10
-7.0567888734
 20
-23.1726497308
 30
0.0
 10
-7.1204942746
 20
-23.180186698
 30
0.0
 10
-7.1922864387
 20
-23.2078445986
 30
0.0
 10
-7.2345810498
 20
-23.2389240474
 30
0.0
 10
-7.2564094295
 20
-23.2633539473
 30
0.0
 10
-7.2699110834
 20
-23.2895865771
 30
0.0
 10
-7.273131479
 20
-23.3081012072
 30
0.0
 10
-7.273212066
 20
-23.3169872981
 30
0.0
 11
-7.0225609885
 21
-23.1726497308
 31
0.0
 11
-7.1244591098
 21
-23.1853267123
 31
0.0
 11
-7.205607582
 21
-23.218825824
 31
0.0
 11
-7.2349009111
 21
-23.2408405642
 31
0.0
 11
-7.256007776
 21
-23.2650652599
 31
0.0
 11
-7.2687903345
 21
-23.2906971812
 31
0.0
 11
-7.273212066
 21
-23.3169872981
 31
0.0
  0
SPLINE
  5
608
100
AcDbEntity
  8
RACCORDO
100
AcDbSpline
 62
7
  6
CONTINUOUS
 70
0
 71
3
 72
13
 73
9
 74
7
 42
0.0000001
 43
0.0000001
 44
0.0000000001
 12
-0.002852503
 22
0.3145370621
 32
0.0
 13
-0.3145499964
 23
0.0
 33
0.0
 40
0.0
 40
0.0
 40
0.0
 40
0.0
 40
0.0847539955
 40
0.1758124513
 40
0.2779583121
 40
0.3944533855
 40
0.6735537874
 40
1.0
 40
1.0
 40
1.0
 40
1.0
 10
-4.396787934
 20
-23.3169872981
 30
0.0
 10
-4.396868521
 20
-23.3081012072
 30
0.0
 10
-4.4000889166
 20
-23.2895865771
 30
0.0
 10
-4.4135905705
 20
-23.2633539473
 30
0.0
 10
-4.4354189502
 20
-23.2389240474
 30
0.0
 10
-4.4777135613
 20
-23.2078445986
 30
0.0
 10
-4.5495057254
 20
-23.180186698
 30
0.0
 10
-4.6132111266
 20
-23.1726497308
 30
0.0
 10
-4.6474390115
 20
-23.1726497308
 30
0.0
 11
-4.396787934
 21
-23.3169872981
 31
0.0
 11
-4.4012096655
 21
-23.2906971812
 31
0.0
 11
-4.413992224
 21
-23.2650652599
 31
0.0
 11
-4.4350990889
 21
-23.2408405642
 31
0.0
 11
-4.464392418
 21
-23.218825824
 31
0.0
 11
-4.5455408902
 21
-23.1853267123
 31
0.0
 11
-4.6474390115
 21
-23.1726497308
 31
0.0
  0
SPLINE
  5
609
100
AcDbEntity
  8
RACCORDO
100
AcDbSpline
 62
253
  6
CONTINUOUS
 70
0
 71
3
 72
14
 73
10
 74
8
 42
0.0000001
 43
0.0000001
 44
0.0000000001
 12
-0.059276124
 22
-0.5102889961
 32
0.0
 13
-0.5137185836
 23
-0.0013173225
 33
0.0
 40
0.0
 40
0.0
 40
0.0
 40
0.0
 40
0.0352436224
 40
0.063092118
 40
0.0986747649
 40
0.1929112477
 40
0.3159811501
 40
0.6312104725
 40
1.0
 40
1.0
 40
1.0
 40
1.0
 10
18.9438327866
 20
-21.0854772805
 30
0.0
 10
18.9431364182
 20
-21.0914720914
 30
0.0
 10
18.9338623325
 20
-21.0999241079
 30
0.0
 10
18.9193219749
 20
-21.1075970362
 30
0.0
 10
18.8939256609
 20
-21.1175012803
 30
0.0
 10
18.8519551885
 20
-21.1280602231
 30
0.0
 10
18.7620012096
 20
-21.1436660737
 30
0.0
 10
18.6241959206
 20
-21.1560204288
 30
0.0
 10
18.5070602836
 20
-21.1595917465
 30
0.0
 10
18.443908939
 20
-21.1597536847
 30
0.0
 11
18.9438327866
 21
-21.0854772805
 31
0.0
 11
18.9327681436
 21
-21.0998082908
 31
0.0
 11
18.9202939213
 21
-21.1068129357
 31
0.0
 11
18.9033256458
 21
-21.1136113719
 31
0.0
 11
18.8566198464
 21
-21.1263476104
 31
0.0
 11
18.7943969276
 21
-21.1375511731
 31
0.0
 11
18.6332679791
 21
-21.1537353092
 31
0.0
 11
18.443908939
 21
-21.1597536847
 31
0.0
  0
SPLINE
  5
60A
100
AcDbEntity
  8
RACCORDO
100
AcDbSpline
 62
253
  6
CONTINUOUS
 70
0
 71
3
 72
16
 73
12
 74
10
 42
0.0000001
 43
0.0000001
 44
0.0000000001
 12
0.0011121993
 22
-0.8501729162
 32
0.0
 13
0.1395937326
 23
-0.8386350901
 33
0.0
 40
0.0
 40
0.0
 40
0.0
 40
0.0
 40
0.3803381378
 40
0.548856971
 40
0.6962446732
 40
0.8181748494
 40
0.9110927831
 40
0.9457875597
 40
0.9722899291
 40
0.9903993678
 40
1.0
 40
1.0
 40
1.0
 40
1.0
 10
18.443908939
 20
-21.1597536899
 30
0.0
 10
18.444049943
 20
-21.2675380845
 30
0.0
 10
18.4444688717
 20
-21.4230792656
 30
0.0
 10
18.4455675818
 20
-21.6203857011
 30
0.0
 10
18.4465425891
 20
-21.7444616616
 30
0.0
 10
18.4476856523
 20
-21.8471084222
 30
0.0
 10
18.4487735655
 20
-21.917822091
 30
0.0
 10
18.4498006911
 20
-21.9614808274
 30
0.0
 10
18.4504453458
 20
-21.9839543802
 30
0.0
 10
18.4512004375
 20
-21.999284942
 30
0.0
 10
18.4516361463
 20
-22.0071465969
 30
0.0
 10
18.4520828757
 20
-22.0098304059
 30
0.0
 11
18.443908939
 21
-21.1597536899
 31
0.0
 11
18.4448452912
 21
-21.4831057946
 31
0.0
 11
18.4456592541
 21
-21.6263737529
 31
0.0
 11
18.4466741889
 21
-21.7516747823
 31
0.0
 11
18.4478605198
 21
-21.855329816
 31
0.0
 11
18.4491833461
 21
-21.9343151178
 31
0.0
 11
18.4498840867
 21
-21.9638033777
 31
0.0
 11
18.450604881
 21
-21.9863234614
 31
0.0
 11
18.4513402009
 21
-22.0017020595
 31
0.0
 11
18.4520828757
 21
-22.0098304059
 31
0.0
  0
SPLINE
  5
60B
100
AcDbEntity
  8
RACCORDO
100
AcDbSpline
 62
253
  6
CONTINUOUS
 70
0
 71
3
 72
15
 73
11
 74
9
 42
0.0000001
 43
0.0000001
 44
0.0000000001
 12
0.0011144419
 22
-0.4250663161
 32
0.0
 13
0.1205091697
 23
-0.407627471
 33
0.0
 40
0.0
 40
0.0
 40
0.0
 40
0.0
 40
0.3788294253
 40
0.5468359622
 40
0.6939564834
 40
0.8159131748
 40
0.909194896
 40
0.9711094045
 40
0.9897238807
 40
1.0
 40
1.0
 40
1.0
 40
1.0
 10
18.9438327866
 20
-21.0854772805
 30
0.0
 10
18.9439735144
 20
-21.1391531566
 30
0.0
 10
18.9443917614
 20
-21.2166331336
 30
0.0
 10
18.9454773403
 20
-21.3149546278
 30
0.0
 10
18.9464586438
 20
-21.3768747112
 30
0.0
 10
18.9475590964
 20
-21.4282126692
 30
0.0
 10
18.9488459149
 20
-21.4674453992
 30
0.0
 10
18.9499013569
 20
-21.4920820642
 30
0.0
 10
18.9510639977
 20
-21.5048701309
 30
0.0
 10
18.9515419935
 20
-21.5089634263
 30
0.0
 10
18.9519547823
 20
-21.5103597025
 30
0.0
 11
18.9438327866
 21
-21.0854772805
 31
0.0
 11
18.9447628257
 21
-21.2465027764
 31
0.0
 11
18.9455709912
 21
-21.3179123686
 31
0.0
 11
18.9465788313
 21
-21.3804404397
 31
0.0
 11
18.9477571632
 21
-21.4322669058
 31
0.0
 11
18.9490716942
 21
-21.4718961637
 31
0.0
 11
18.9504847208
 21
-21.4981760656
 31
0.0
 11
18.9512156311
 21
-21.5060546483
 31
0.0
 11
18.9519547823
 21
-21.5103597025
 31
0.0
  0
SPLINE
  5
60C
100
AcDbEntity
  8
RACCORDO
100
AcDbSpline
 62
253
  6
CONTINUOUS
 70
0
 71
3
 72
20
 73
16
 74
14
 42
0.0000001
 43
0.0000001
 44
0.0000000001
 12
-0.3383398478
 22
-0.3684638525
 32
0.0
 13
-0.5002393784
 23
-0.0001658725
 33
0.0
 40
0.0
 40
0.0
 40
0.0
 40
0.0
 40
0.0022251652
 40
0.0066990813
 40
0.0225502497
 40
0.0475630525
 40
0.0815373321
 40
0.1241300313
 40
0.1749728567
 40
0.2335807484
 40
0.2993935592
 40
0.4501452595
 40
0.6215021738
 40
0.8072022524
 40
1.0
 40
1.0
 40
1.0
 40
1.0
 10
18.9267810505
 20
-9.4905
 30
0.0
 10
18.9265300965
 20
-9.4907732976
 30
0.0
 10
18.9253660756
 20
-9.4910661405
 30
0.0
 10
18.9217735243
 20
-9.4918168282
 30
0.0
 10
18.9141413051
 20
-9.4924851919
 30
0.0
 10
18.9017492182
 20
-9.4933766351
 30
0.0
 10
18.8848059942
 20
-9.4941904919
 30
0.0
 10
18.8635856952
 20
-9.4950128649
 30
0.0
 10
18.8382414294
 20
-9.4957878385
 30
0.0
 10
18.8090270308
 20
-9.4965218705
 30
0.0
 10
18.7631522687
 20
-9.4974709064
 30
0.0
 10
18.6984750044
 20
-9.4984538505
 30
0.0
 10
18.6138036954
 20
-9.4993119601
 30
0.0
 10
18.5221187466
 20
-9.4998534328
 30
0.0
 10
18.4590055447
 20
-9.4999893396
 30
0.0
 10
18.4268572029
 20
-9.4999999996
 30
0.0
 11
18.9267810505
 21
-9.4905
 31
0.0
 11
18.9257674913
 21
-9.4909601341
 31
0.0
 11
18.9235771798
 21
-9.491419819
 31
0.0
 11
18.9157005279
 21
-9.4923327303
 31
0.0
 11
18.9032202459
 21
-9.4932285289
 31
0.0
 11
18.886247226
 21
-9.4940979626
 31
0.0
 11
18.8649570591
 21
-9.494933257
 31
0.0
 11
18.8395358566
 21
-9.4957267934
 31
0.0
 11
18.8102273339
 21
-9.4964712857
 31
0.0
 11
18.77731237
 21
-9.4971596624
 31
0.0
 11
18.7019096995
 21
-9.4983420886
 31
0.0
 11
18.6161948146
 21
-9.4992297398
 31
0.0
 11
18.5233020038
 21
-9.4997894377
 31
0.0
 11
18.4268572029
 21
-9.4999999996
 31
0.0
  0
SPLINE
  5
60D
100
AcDbEntity
  8
RACCORDO
100
AcDbSpline
 62
253
  6
CONTINUOUS
 70
0
 71
3
 72
20
 73
16
 74
14
 42
0.0000001
 43
0.0000001
 44
0.0000000001
 12
-0.3383393934
 22
0.36846427
 32
0.0
 13
-0.5002393786
 23
0.0001658726
 33
0.0
 40
0.0
 40
0.0
 40
0.0
 40
0.0
 40
0.0022251634
 40
0.0066990776
 40
0.0225502427
 40
0.0475630428
 40
0.0815373203
 40
0.1241300179
 40
0.1749728423
 40
0.2335807336
 40
0.2993935445
 40
0.4501452466
 40
0.6215021642
 40
0.8072022473
 40
1.0
 40
1.0
 40
1.0
 40
1.0
 10
18.9267810505
 20
9.4905
 30
0.0
 10
18.926530097
 20
9.4907732977
 30
0.0
 10
18.9253660765
 20
9.4910661405
 30
0.0
 10
18.9217735267
 20
9.4918168284
 30
0.0
 10
18.9141413085
 20
9.4924851919
 30
0.0
 10
18.9017492232
 20
9.4933766353
 30
0.0
 10
18.8848060002
 20
9.494190492
 30
0.0
 10
18.8635857019
 20
9.4950128651
 30
0.0
 10
18.8382414367
 20
9.4957878387
 30
0.0
 10
18.8090270382
 20
9.4965218707
 30
0.0
 10
18.7631522758
 20
9.4974709067
 30
0.0
 10
18.6984750107
 20
9.4984538509
 30
0.0
 10
18.6138037
 20
9.4993119605
 30
0.0
 10
18.5221187491
 20
9.4998534332
 30
0.0
 10
18.4590055456
 20
9.49998934
 30
0.0
 10
18.4268572029
 20
9.5
 30
0.0
 11
18.9267810505
 21
9.4905
 31
0.0
 11
18.9257674923
 21
9.4909601341
 31
0.0
 11
18.9235771818
 21
9.491419819
 31
0.0
 11
18.9157005315
 21
9.4923327304
 31
0.0
 11
18.9032202509
 21
9.493228529
 31
0.0
 11
18.8862472321
 21
9.4940979627
 31
0.0
 11
18.8649570659
 21
9.4949332572
 31
0.0
 11
18.8395358639
 21
9.4957267936
 31
0.0
 11
18.8102273414
 21
9.4964712859
 31
0.0
 11
18.7773123775
 21
9.4971596626
 31
0.0
 11
18.7019097061
 21
9.4983420889
 31
0.0
 11
18.6161948195
 21
9.4992297401
 31
0.0
 11
18.5233020063
 21
9.4997894381
 31
0.0
 11
18.4268572029
 21
9.5
 31
0.0
  0
SPLINE
  5
60E
100
AcDbEntity
  8
RACCORDO
100
AcDbSpline
 62
253
  6
CONTINUOUS
 70
0
 71
3
 72
9
 73
5
 74
3
 42
0.0000001
 43
0.0000001
 44
0.0000000001
 12
-0.0062961109
 22
-18.9809991515
 32
0.0
 13
0.0062961104
 23
-18.9809991515
 33
0.0
 40
0.0
 40
0.0
 40
0.0
 40
0.0
 40
0.2499885516
 40
1.0
 40
1.0
 40
1.0
 40
1.0
 10
18.9267810505
 20
9.4905
 30
0.0
 10
18.9262563986
 20
7.9088225048
 30
0.0
 10
18.9246825618
 20
1.5818226244
 30
0.0
 10
18.9252069989
 20
-4.7451777781
 30
0.0
 10
18.9267810505
 20
-9.4905
 30
0.0
 11
18.9267810505
 21
9.4905
 31
0.0
 11
18.9256006463
 21
4.7454674001
 31
0.0
 11
18.9267810505
 21
-9.4905
 31
0.0
  0
SPLINE
  5
60F
100
AcDbEntity
  8
RACCORDO
100
AcDbSpline
 62
253
  6
CONTINUOUS
 70
0
 71
3
 72
14
 73
10
 74
8
 42
0.0000001
 43
0.0000001
 44
0.0000000001
 12
-0.0592761421
 22
0.510289
 32
0.0
 13
-0.5137185896
 23
0.0013172927
 33
0.0
 40
0.0
 40
0.0
 40
0.0
 40
0.0
 40
0.0352436341
 40
0.0630921339
 40
0.0986747854
 40
0.1929112731
 40
0.315981178
 40
0.6312104942
 40
1.0
 40
1.0
 40
1.0
 40
1.0
 10
18.9438327866
 20
21.0854772805
 30
0.0
 10
18.9431364177
 20
21.0914720935
 30
0.0
 10
18.9338623312
 20
21.099924113
 30
0.0
 10
18.9193219716
 20
21.1075970457
 30
0.0
 10
18.8939256557
 20
21.1175012921
 30
0.0
 10
18.8519551812
 20
21.1280602374
 30
0.0
 10
18.762001201
 20
21.1436660886
 30
0.0
 10
18.6241959144
 20
21.1560204402
 30
0.0
 10
18.5070602806
 20
21.1595917521
 30
0.0
 10
18.443908939
 20
21.1597536866
 30
0.0
 11
18.9438327866
 21
21.0854772805
 31
0.0
 11
18.9327681412
 21
21.0998082968
 31
0.0
 11
18.9202939179
 21
21.1068129447
 31
0.0
 11
18.9033256405
 21
21.1136113831
 31
0.0
 11
18.8566198386
 21
21.1263476243
 31
0.0
 11
18.7943969179
 21
21.1375511878
 31
0.0
 11
18.6332679704
 21
21.1537353204
 31
0.0
 11
18.443908939
 21
21.1597536866
 31
0.0
  0
SPLINE
  5
610
100
AcDbEntity
  8
RACCORDO
100
AcDbSpline
 62
253
  6
CONTINUOUS
 70
0
 71
3
 72
16
 73
12
 74
10
 42
0.0000001
 43
0.0000001
 44
0.0000000001
 12
-0.1396552825
 22
-0.83862484
 32
0.0
 13
-0.0011171758
 23
-0.8501729072
 33
0.0
 40
0.0
 40
0.0
 40
0.0
 40
0.0
 40
0.009604377
 40
0.0277109503
 40
0.0542114405
 40
0.0889066953
 40
0.1818253952
 40
0.3037552553
 40
0.4511430191
 40
0.6196618373
 40
1.0
 40
1.0
 40
1.0
 40
1.0
 10
18.4520828712
 20
22.0098304059
 30
0.0
 10
18.4516357705
 20
22.0071455829
 30
0.0
 10
18.4511998954
 20
21.9992836577
 30
0.0
 10
18.4504459212
 20
21.9839533398
 30
0.0
 10
18.4498016113
 20
21.9614809875
 30
0.0
 10
18.4487743495
 20
21.9178224358
 30
0.0
 10
18.4476855406
 20
21.8471085181
 30
0.0
 10
18.4465421352
 20
21.744461615
 30
0.0
 10
18.4455672061
 20
21.6203857311
 30
0.0
 10
18.4444682824
 20
21.4230792761
 30
0.0
 10
18.4440505739
 20
21.2675380904
 30
0.0
 10
18.443908939
 20
21.1597536899
 30
0.0
 11
18.4520828712
 21
22.0098304059
 31
0.0
 11
18.4513396922
 21
22.0016989086
 31
0.0
 11
18.4506051694
 21
21.9863227114
 31
0.0
 11
18.4498849366
 21
21.9638042081
 31
0.0
 11
18.4491841604
 21
21.9343155426
 31
0.0
 11
18.4478606135
 21
21.8553296015
 31
0.0
 11
18.4466738216
 21
21.7516748422
 31
0.0
 11
18.4456588412
 21
21.6263737612
 31
0.0
 11
18.4448448978
 21
21.483105816
 31
0.0
 11
18.443908939
 21
21.1597536899
 31
0.0
  0
SPLINE
  5
611
100
AcDbEntity
  8
RACCORDO
100
AcDbSpline
 62
253
  6
CONTINUOUS
 70
0
 71
3
 72
16
 73
12
 74
10
 42
0.0000001
 43
0.0000001
 44
0.0000000001
 12
-0.134065777
 22
-0.4035447272
 32
0.0
 13
-0.0011151198
 23
-0.4252302152
 33
0.0
 40
0.0
 40
0.0
 40
0.0
 40
0.0
 40
0.0097204874
 40
0.0278781543
 40
0.0544075269
 40
0.089119555
 40
0.18204015
 40
0.3039463593
 40
0.4512996185
 40
0.6197739696
 40
1.0
 40
1.0
 40
1.0
 40
1.0
 10
18.9520067188
 20
21.5105156385
 30
0.0
 10
18.9515723239
 20
21.509208088
 30
0.0
 10
18.9511169824
 20
21.5052447458
 30
0.0
 10
18.9503747218
 20
21.4975939317
 30
0.0
 10
18.9497234649
 20
21.486344185
 30
0.0
 10
18.9486996811
 20
21.464523762
 30
0.0
 10
18.9476089208
 20
21.4291631516
 30
0.0
 10
18.9464667023
 20
21.3778413581
 30
0.0
 10
18.9454911879
 20
21.3158016254
 30
0.0
 10
18.9443925122
 20
21.2171465951
 30
0.0
 10
18.9439741191
 20
21.1393718128
 30
0.0
 10
18.9438327866
 20
21.0854772805
 30
0.0
 11
18.9520067188
 21
21.5105156385
 31
0.0
 11
18.9512639087
 21
21.5064494711
 31
0.0
 11
18.9505290721
 21
21.4987633031
 31
0.0
 11
18.9498085254
 21
21.4875052083
 31
0.0
 11
18.9491076707
 21
21.4727612025
 31
0.0
 11
18.9477845482
 21
21.4332705812
 31
0.0
 11
18.9465980183
 21
21.3814457804
 31
0.0
 11
18.9455829529
 21
21.3187947293
 31
0.0
 11
18.9447689551
 21
21.2471587229
 31
0.0
 11
18.9438327866
 21
21.0854772805
 31
0.0
  0
SPLINE
  5
612
100
AcDbEntity
  8
RACCORDO
100
AcDbSpline
 62
253
  6
CONTINUOUS
 70
0
 71
3
 72
13
 73
9
 74
7
 42
0.0000001
 43
0.0000001
 44
0.0000000001
 12
0.699955184
 22
-0.8672075852
 32
0.0
 13
0.9501231151
 23
0.5824537077
 33
0.0
 40
0.0
 40
0.0
 40
0.0
 40
0.0
 40
0.3084832134
 40
0.5837014485
 40
0.7040510465
 40
0.8120763892
 40
0.9094991258
 40
1.0
 40
1.0
 40
1.0
 40
1.0
 10
-11.4662391528
 20
-8.4970563424
 30
0.0
 10
-11.3942643446
 20
-8.5862293365
 30
0.0
 10
-11.2416213667
 20
-8.7423933711
 30
0.0
 10
-11.0195592368
 20
-8.8868976607
 30
0.0
 10
-10.8423311455
 20
-8.949485043
 30
0.0
 10
-10.7216919975
 20
-8.9674402686
 30
0.0
 10
-10.6109869729
 20
-8.9572649279
 30
0.0
 10
-10.5450754893
 20
-8.9305017215
 30
0.0
 10
-10.5164131651
 20
-8.912930865
 30
0.0
 11
-11.4662391528
 21
-8.4970563424
 31
0.0
 11
-11.224135258
 21
-8.7411372045
 31
0.0
 11
-10.9637195265
 21
-8.9031803815
 31
0.0
 11
-10.8368293846
 21
-8.9466298095
 31
0.0
 11
-10.7175513021
 21
-8.9629413446
 31
0.0
 11
-10.6095761451
 21
-8.9515706578
 31
0.0
 11
-10.5164131651
 21
-8.912930865
 31
0.0
  0
SPLINE
  5
613
100
AcDbEntity
  8
RACCORDO
100
AcDbSpline
 62
253
  6
CONTINUOUS
 70
0
 71
3
 72
13
 73
9
 74
7
 42
0.0000001
 43
0.0000001
 44
0.0000000001
 12
0.7017066966
 22
-0.8674959156
 32
0.0
 13
0.9500767862
 23
0.5850602977
 33
0.0
 40
0.0
 40
0.0
 40
0.0
 40
0.0
 40
0.3083926263
 40
0.5835797691
 40
0.7039359849
 40
0.8119831633
 40
0.9094443757
 40
1.0
 40
1.0
 40
1.0
 40
1.0
 10
-11.475368185
 20
-8.5035700884
 30
0.0
 10
-11.4032344614
 20
-8.5927465363
 30
0.0
 10
-11.2502447687
 20
-8.7488786662
 30
0.0
 10
-11.0277226205
 20
-8.8931882619
 30
0.0
 10
-10.8501702587
 20
-8.9555296062
 30
0.0
 10
-10.7293265509
 20
-8.9732730834
 30
0.0
 10
-10.6184674736
 20
-8.9628509041
 30
0.0
 10
-10.5525015079
 20
-8.9359049072
 30
0.0
 10
-10.5238232424
 20
-8.9182447404
 30
0.0
 11
-11.475368185
 21
-8.5035700884
 31
0.0
 11
-11.2327468163
 21
-8.7475706785
 31
0.0
 11
-10.971798139
 21
-8.9093812737
 31
0.0
 11
-10.8446718878
 21
-8.9526555546
 31
0.0
 11
-10.7251961927
 21
-8.9687566346
 31
0.0
 11
-10.61707358
 21
-8.9571458223
 31
0.0
 11
-10.5238232424
 21
-8.9182447404
 31
0.0
  0
SPLINE
  5
614
100
AcDbEntity
  8
RACCORDO
100
AcDbSpline
 62
253
  6
CONTINUOUS
 70
0
 71
3
 72
14
 73
10
 74
8
 42
0.0000001
 43
0.0000001
 44
0.0000000001
 12
1.7533206111
 22
-0.6013557269
 32
0.0
 13
0.0648539575
 23
1.8524459074
 33
0.0
 40
0.0
 40
0.0
 40
0.0
 40
0.0
 40
0.2674126616
 40
0.406539713
 40
0.5427291523
 40
0.671819837
 40
0.7909791395
 40
0.8995783225
 40
1.0
 40
1.0
 40
1.0
 40
1.0
 10
-13.8379947239
 20
-13.1542536673
 30
0.0
 10
-13.6817080135
 20
-13.2078570458
 30
0.0
 10
-13.4237736265
 20
-13.2363316923
 30
0.0
 10
-13.0913989071
 20
-13.1857203192
 30
0.0
 10
-12.8536057294
 20
-13.1038350995
 30
0.0
 10
-12.6468672146
 20
-12.9835428734
 30
0.0
 10
-12.4840329887
 20
-12.8316108645
 30
0.0
 10
-12.3761734294
 20
-12.656585354
 30
0.0
 10
-12.3468465429
 20
-12.5275892063
 30
0.0
 10
-12.3446756285
 20
-12.4655806312
 30
0.0
 11
-13.8379947239
 21
-13.1542536673
 31
0.0
 11
-13.3462595954
 21
-13.2165937483
 31
0.0
 11
-13.0913159852
 21
-13.1777669729
 31
0.0
 11
-12.852944129
 21
-13.0946774471
 31
0.0
 11
-12.6469943314
 21
-12.9728595182
 31
0.0
 11
-12.4871723486
 21
-12.8204091711
 31
0.0
 11
-12.384113466
 21
-12.6474944661
 31
0.0
 11
-12.3446756285
 21
-12.4655806312
 31
0.0
  0
SPLINE
  5
615
100
AcDbEntity
  8
RACCORDO
100
AcDbSpline
 62
253
  6
CONTINUOUS
 70
0
 71
3
 72
15
 73
11
 74
9
 42
0.0000001
 43
0.0000001
 44
0.0000000001
 12
1.4496782356
 22
0.6263010783
 32
0.0
 13
0.2005964376
 23
1.5663911059
 33
0.0
 40
0.0
 40
0.0
 40
0.0
 40
0.0
 40
0.0799906109
 40
0.1815664113
 40
0.3024229461
 40
0.4379233844
 40
0.5821053364
 40
0.7283196652
 40
0.8697641024
 40
1.0
 40
1.0
 40
1.0
 40
1.0
 10
-8.4245530611
 20
-19.1291213503
 30
0.0
 10
-8.3858995119
 20
-19.1124219483
 30
0.0
 10
-8.3058945338
 20
-19.0574246199
 30
0.0
 10
-8.1948749863
 20
-18.9427882944
 30
0.0
 10
-8.0828005846
 20
-18.7906986323
 30
0.0
 10
-7.9757443238
 20
-18.6087335806
 30
0.0
 10
-7.8792164286
 20
-18.4060945454
 30
0.0
 10
-7.7983606714
 20
-18.1933668779
 30
0.0
 10
-7.7374092998
 20
-17.9817488011
 30
0.0
 10
-7.7105843233
 20
-17.8409588812
 30
0.0
 10
-7.7018760376
 20
-17.772958764
 30
0.0
 11
-8.4245530611
 21
-19.1291213503
 31
0.0
 11
-8.3179972716
 21
-19.061279138
 31
0.0
 11
-8.2044570489
 21
-18.9479699895
 31
0.0
 11
-8.0899973499
 21
-18.7952464949
 31
0.0
 11
-7.9807322512
 21
-18.6112666222
 31
0.0
 11
-7.8824983603
 21
-18.4058579589
 31
0.0
 11
-7.8005430441
 21
-18.1899927657
 31
0.0
 11
-7.7392441277
 21
-17.9752018788
 31
0.0
 11
-7.7018760376
 21
-17.772958764
 31
0.0
  0
SPLINE
  5
616
100
AcDbEntity
  8
RACCORDO
100
AcDbSpline
 62
253
  6
CONTINUOUS
 70
0
 71
3
 72
15
 73
11
 74
9
 42
0.0000001
 43
0.0000001
 44
0.0000000001
 12
-1.4495696493
 22
0.6264891271
 32
0.0
 13
-0.2007460923
 23
1.5663466414
 33
0.0
 40
0.0
 40
0.0
 40
0.0
 40
0.0
 40
0.0799898553
 40
0.1815668639
 40
0.3024251619
 40
0.4379271098
 40
0.5821098345
 40
0.7283239092
 40
0.8697668909
 40
1.0
 40
1.0
 40
1.0
 40
1.0
 10
1.8542978295
 20
-19.1292182512
 30
0.0
 10
1.8156475406
 20
-19.112513993
 30
0.0
 10
1.7356499229
 20
-19.0575093141
 30
0.0
 10
1.6246375129
 20
-18.9428684068
 30
0.0
 10
1.5125663476
 20
-18.7907774266
 30
0.0
 10
1.4055091839
 20
-18.6088145033
 30
0.0
 10
1.3089762784
 20
-18.4061807585
 30
0.0
 10
1.2281114923
 20
-18.193461045
 30
0.0
 10
1.1671474073
 20
-17.9818528503
 30
0.0
 10
1.1403110562
 20
-17.8410698159
 30
0.0
 10
1.1315964603
 20
-17.7730730849
 30
0.0
 11
1.8542978295
 21
-19.1292182512
 31
0.0
 11
1.747752031
 21
-19.0613663061
 31
0.0
 11
1.6342186801
 21
-18.9480511785
 31
0.0
 11
1.5197621735
 21
-18.795325601
 31
0.0
 11
1.4104962175
 21
-18.6113474183
 31
0.0
 11
1.3122572634
 21
-18.4059438335
 31
0.0
 11
1.2302927523
 21
-18.1900864842
 31
0.0
 11
1.1689808241
 21
-17.9753053915
 31
0.0
 11
1.1315964603
 21
-17.7730730849
 31
0.0
  0
SPLINE
  5
617
100
AcDbEntity
  8
RACCORDO
100
AcDbSpline
 62
253
  6
CONTINUOUS
 70
0
 71
3
 72
14
 73
10
 74
8
 42
0.0000001
 43
0.0000001
 44
0.0000000001
 12
-1.7534168785
 22
-0.6010012988
 32
0.0
 13
-0.0650914951
 23
1.852413671
 33
0.0
 40
0.0
 40
0.0
 40
0.0
 40
0.0
 40
0.2673916141
 40
0.4065172986
 40
0.5427108366
 40
0.6718092503
 40
0.7909769249
 40
0.8995810688
 40
1.0
 40
1.0
 40
1.0
 40
1.0
 10
7.2676989856
 20
-13.1559252807
 30
0.0
 10
7.1114159958
 20
-13.2094928499
 30
0.0
 10
6.8534930592
 20
-13.237908189
 30
0.0
 10
6.5211440154
 20
-13.1872376607
 30
0.0
 10
6.2833606495
 20
-13.1053158385
 30
0.0
 10
6.0766266153
 20
-12.9849990804
 30
0.0
 10
5.9137901144
 20
-12.8330565221
 30
0.0
 10
5.8059191832
 20
-12.6580354313
 30
0.0
 10
5.776575419
 20
-12.5290441815
 30
0.0
 10
5.7743966129
 20
-12.4670383811
 30
0.0
 11
7.2676989856
 21
-13.1559252807
 31
0.0
 11
6.7759961282
 21
-13.2181588426
 31
0.0
 11
6.52106537
 21
-13.1792866119
 31
0.0
 11
6.2827015492
 21
-13.0961608456
 31
0.0
 11
6.0767534752
 21
-12.9743179226
 31
0.0
 11
5.9169260063
 21
-12.8218549684
 31
0.0
 11
5.8138542329
 21
-12.6489402626
 31
0.0
 11
5.7743966129
 21
-12.4670383811
 31
0.0
  0
SPLINE
  5
618
100
AcDbEntity
  8
RACCORDO
100
AcDbSpline
 62
253
  6
CONTINUOUS
 70
0
 71
3
 72
11
 73
7
 74
5
 42
0.0000001
 43
0.0000001
 44
0.0000000001
 12
-0.3642214703
 22
-0.0008257884
 32
0.0
 13
-0.0011010188
 23
-0.3642207423
 33
0.0
 40
0.0
 40
0.0
 40
0.0
 40
0.0
 40
0.2662357453
 40
0.5233327532
 40
0.7668031567
 40
1.0
 40
1.0
 40
1.0
 40
1.0
 10
-1.9179794573
 20
-23.6778312164
 30
0.0
 10
-1.9503023822
 20
-23.6779045011
 30
0.0
 10
-2.0143715062
 20
-23.6888017363
 30
0.0
 10
-2.0970313906
 20
-23.7358185745
 30
0.0
 10
-2.1539821389
 20
-23.8074679693
 30
0.0
 10
-2.1678904457
 20
-23.8660258582
 30
0.0
 10
-2.1679760304
 20
-23.8943375673
 30
0.0
 11
-1.9179794573
 21
-23.6778312164
 31
0.0
 11
-2.0135091791
 21
-23.6944764512
 31
0.0
 11
-2.0945146384
 21
-23.7414515201
 31
0.0
 11
-2.1487560322
 21
-23.8116052673
 31
0.0
 11
-2.1679760304
 21
-23.8943375673
 31
0.0
  0
SPLINE
  5
619
100
AcDbEntity
  8
RACCORDO
100
AcDbSpline
 62
253
  6
CONTINUOUS
 70
0
 71
3
 72
13
 73
9
 74
7
 42
0.0000001
 43
0.0000001
 44
0.0000000001
 12
-0.7008904675
 22
-0.8671750719
 32
0.0
 13
-0.9502478827
 23
0.5833258216
 33
0.0
 40
0.0
 40
0.0
 40
0.0
 40
0.0
 40
0.3083963772
 40
0.583582142
 40
0.7039401784
 40
0.8119905112
 40
0.9094523735
 40
1.0
 40
1.0
 40
1.0
 40
1.0
 10
4.9015513104
 20
-8.500997636
 30
0.0
 10
4.8295006167
 20
-8.5901421862
 30
0.0
 10
4.6766894818
 20
-8.7462380652
 30
0.0
 10
4.4544114576
 20
-8.8905848538
 30
0.0
 10
4.2770298842
 20
-8.9530241482
 30
0.0
 10
4.1562849313
 20
-8.9708693423
 30
0.0
 10
4.0454934666
 20
-8.9605805317
 30
0.0
 10
3.979540343
 20
-8.9337433569
 30
0.0
 10
3.9508594462
 20
-8.9161371006
 30
0.0
 11
4.9015513104
 21
-8.500997636
 31
0.0
 11
4.6592069906
 21
-8.7449478567
 31
0.0
 11
4.3985407058
 21
-8.9068125611
 31
0.0
 11
4.2715341361
 21
-8.9501597344
 31
0.0
 11
4.1521520057
 21
-8.9663640059
 31
0.0
 11
4.0440894278
 21
-8.9548841964
 31
0.0
 11
3.9508594462
 21
-8.9161371006
 31
0.0
  0
SPLINE
  5
61A
100
AcDbEntity
  8
RACCORDO
100
AcDbSpline
 62
253
  6
CONTINUOUS
 70
0
 71
3
 72
13
 73
9
 74
7
 42
0.0000001
 43
0.0000001
 44
0.0000000001
 12
-0.6992022736
 22
-0.8668711719
 32
0.0
 13
-0.9502722782
 23
0.5808029314
 33
0.0
 40
0.0
 40
0.0
 40
0.0
 40
0.0
 40
0.3084824039
 40
0.5836968041
 40
0.704048306
 40
0.8120779847
 40
0.9095037377
 40
1.0
 40
1.0
 40
1.0
 40
1.0
 10
4.8927191661
 20
-8.4947320463
 30
0.0
 10
4.8208219667
 20
-8.583870214
 30
0.0
 10
4.6683461742
 20
-8.7399910314
 30
0.0
 10
4.4465139693
 20
-8.8845183084
 30
0.0
 10
4.2694474954
 20
-8.9471899864
 30
0.0
 10
4.1489012575
 20
-8.9652366578
 30
0.0
 10
4.0382596388
 20
-8.9551840324
 30
0.0
 10
3.9723598226
 20
-8.9285227122
 30
0.0
 10
3.9436944595
 20
-8.9110025474
 30
0.0
 11
4.8927191661
 21
-8.4947320463
 31
0.0
 11
4.650875395
 21
-8.7387504315
 31
0.0
 11
4.3907260894
 21
-8.9008309206
 31
0.0
 11
4.2639488533
 21
-8.9443436102
 31
0.0
 11
4.1447587699
 21
-8.960748257
 31
0.0
 11
4.0368395385
 21
-8.9494983554
 31
0.0
 11
3.9436944595
 21
-8.9110025474
 31
0.0
  0
SPLINE
  5
61B
100
AcDbEntity
  8
RACCORDO
100
AcDbSpline
 62
253
  6
CONTINUOUS
 70
0
 71
3
 72
11
 73
7
 74
5
 42
0.0000001
 43
0.0000001
 44
0.0000000001
 12
-0.8274273405
 22
-0.4274933585
 32
0.0
 13
-0.846328343
 23
-0.3887350142
 33
0.0
 40
0.0
 40
0.0
 40
0.0
 40
0.0
 40
0.3204196185
 40
0.6106603971
 40
0.8443011445
 40
1.0
 40
1.0
 40
1.0
 40
1.0
 10
15.1131898638
 20
9.5
 30
0.0
 10
15.0248152129
 20
9.4543409137
 30
0.0
 10
14.8561710858
 20
9.3677469657
 30
0.0
 10
14.6223808972
 20
9.249231679
 30
0.0
 10
14.4334843886
 20
9.1552878784
 30
0.0
 10
14.324741577
 20
9.1024865186
 30
0.0
 10
14.2808174589
 20
9.0823113197
 30
0.0
 11
15.1131898638
 21
9.5
 31
0.0
 11
14.8477127834
 21
9.3637084024
 31
0.0
 11
14.6065382148
 21
9.2416296548
 31
0.0
 11
14.4116317213
 21
9.1448807211
 31
0.0
 11
14.2808174589
 21
9.0823113197
 31
0.0
  0
SPLINE
  5
61C
100
AcDbEntity
  8
RACCORDO
100
AcDbSpline
 62
253
  6
CONTINUOUS
 70
0
 71
3
 72
11
 73
7
 74
5
 42
0.0000001
 43
0.0000001
 44
0.0000000001
 12
-0.8274275017
 22
0.427493442
 32
0.0
 13
-0.8463284946
 23
0.3887351191
 33
0.0
 40
0.0
 40
0.0
 40
0.0
 40
0.0
 40
0.3204195936
 40
0.6106603706
 40
0.8443011301
 40
1.0
 40
1.0
 40
1.0
 40
1.0
 10
15.1131898659
 20
-9.5000000018
 30
0.0
 10
15.0248152046
 20
-9.4543409101
 30
0.0
 10
14.8561710519
 20
-9.3677469489
 30
0.0
 10
14.6223808219
 20
-9.249231641
 30
0.0
 10
14.4334842701
 20
-9.1552878174
 30
0.0
 10
14.3247414306
 20
-9.1024864424
 30
0.0
 10
14.2808173005
 20
-9.0823112361
 30
0.0
 11
15.1131898659
 21
-9.5000000018
 31
0.0
 11
14.8477127544
 21
-9.3637083881
 31
0.0
 11
14.6065381403
 21
-9.2416296169
 31
0.0
 11
14.4116315994
 21
-9.144880658
 31
0.0
 11
14.2808173005
 21
-9.0823112361
 31
0.0
  0
SPLINE
  5
61D
100
AcDbEntity
  8
RACCORDO
100
AcDbSpline
 62
253
  6
CONTINUOUS
 70
0
 71
3
 72
19
 73
15
 74
13
 42
0.0000001
 43
0.0000001
 44
0.0000000001
 12
-9.9549004467
 22
-3.2908673813
 32
0.0
 13
-9.9550968228
 23
3.2902732825
 33
0.0
 40
0.0
 40
0.0
 40
0.0
 40
0.0
 40
0.1239709712
 40
0.2488930255
 40
0.3115735357
 40
0.3743395484
 40
0.4371593824
 40
0.500000209
 40
0.5628410257
 40
0.6256607985
 40
0.6884267391
 40
0.751107321
 40
0.8760294688
 40
1.0
 40
1.0
 40
1.0
 40
1.0
 10
1.8543270875
 20
-19.1292088085
 30
0.0
 10
1.4429541953
 20
-19.2651994837
 30
0.0
 10
0.609952946
 20
-19.5176921917
 30
0.0
 10
-0.452799752
 20
-19.7602788708
 30
0.0
 10
-1.3163557234
 20
-19.9027899183
 30
0.0
 10
-1.9697209516
 20
-19.9823746127
 30
0.0
 10
-2.6263339585
 20
-20.0343640231
 30
0.0
 10
-3.2851257953
 20
-20.0583767605
 30
0.0
 10
-3.9439171322
 20
-20.0343642719
 30
0.0
 10
-4.6005311437
 20
-19.9823942772
 30
0.0
 10
-5.2538966201
 20
-19.9028101355
 30
0.0
 10
-6.1174474023
 20
-19.7602618313
 30
0.0
 10
-7.1801786547
 20
-19.5175868597
 30
0.0
 10
-8.0131767471
 20
-19.2650965464
 30
0.0
 10
-8.424556294
 20
-19.1291309043
 30
0.0
 11
1.8543270875
 21
-19.1292088085
 31
0.0
 11
0.6091781802
 21
-19.502162265
 31
0.0
 11
-0.668279849
 21
-19.7913221381
 31
0.0
 11
-1.3167276331
 21
-19.8981536245
 31
0.0
 11
-1.9699822388
 21
-19.9777464743
 31
0.0
 11
-2.6265803739
 21
-20.0296938307
 31
0.0
 11
-3.2851257824
 21
-20.0503716637
 31
0.0
 11
-3.9436711943
 21
-20.0296972631
 31
0.0
 11
-4.6002697217
 21
-19.977763002
 31
0.0
 11
-5.2535234447
 21
-19.898169159
 31
0.0
 11
-5.9019676813
 21
-19.7913115167
 31
0.0
 11
-7.1794092588
 21
-19.5020745299
 31
0.0
 11
-8.424556294
 21
-19.1291309043
 31
0.0
  0
SPLINE
  5
61E
100
AcDbEntity
  8
RACCORDO
100
AcDbSpline
 62
253
  6
CONTINUOUS
 70
0
 71
3
 72
11
 73
7
 74
5
 42
0.0000001
 43
0.0000001
 44
0.0000000001
 12
0.8274739514
 22
0.427494556
 32
0.0
 13
0.8463820098
 23
0.3887187018
 33
0.0
 40
0.0
 40
0.0
 40
0.0
 40
0.0
 40
0.3204364041
 40
0.6106864796
 40
0.8443229225
 40
1.0
 40
1.0
 40
1.0
 40
1.0
 10
-21.6832971354
 20
-9.5
 30
0.0
 10
-21.5949128763
 20
-9.4543383939
 30
0.0
 10
-21.4262520293
 20
-9.3677405843
 30
0.0
 10
-21.1924426035
 20
-9.249222163
 30
0.0
 10
-21.0035399474
 20
-9.1552811043
 30
0.0
 10
-20.8947981881
 20
-9.1024836066
 30
0.0
 10
-20.8508774288
 20
-9.0823120761
 30
0.0
 11
-21.6832971354
 21
-9.5
 31
0.0
 11
-21.417791171
 21
-9.3637009954
 31
0.0
 11
-21.1765952165
 21
-9.2416183575
 31
0.0
 11
-20.9816811634
 21
-9.1448716209
 31
0.0
 11
-20.8508774288
 21
-9.0823120761
 31
0.0
  0
SPLINE
  5
61F
100
AcDbEntity
  8
RACCORDO
100
AcDbSpline
 62
253
  6
CONTINUOUS
 70
0
 71
3
 72
11
 73
7
 74
5
 42
0.0000001
 43
0.0000001
 44
0.0000000001
 12
0.8274741313
 22
-0.4274946479
 32
0.0
 13
0.8463821753
 23
-0.3887188253
 33
0.0
 40
0.0
 40
0.0
 40
0.0
 40
0.0
 40
0.3204363764
 40
0.6106864502
 40
0.8443229065
 40
1.0
 40
1.0
 40
1.0
 40
1.0
 10
-21.6832971374
 20
9.5000000019
 30
0.0
 10
-21.5949128667
 20
9.45433839
 30
0.0
 10
-21.4262519911
 20
9.367740566
 30
0.0
 10
-21.1924425191
 20
9.2492221211
 30
0.0
 10
-21.0035398149
 20
9.155281037
 30
0.0
 10
-20.8947980247
 20
9.1024835221
 30
0.0
 10
-20.8508772524
 20
9.0823119831
 30
0.0
 11
-21.6832971374
 21
9.5000000019
 31
0.0
 11
-21.4177911382
 21
9.3637009798
 31
0.0
 11
-21.176595133
 21
9.2416183159
 31
0.0
 11
-20.9816810272
 21
9.1448715512
 31
0.0
 11
-20.8508772524
 21
9.0823119831
 31
0.0
  0
SPLINE
  5
620
100
AcDbEntity
  8
RACCORDO
100
AcDbSpline
 62
253
  6
CONTINUOUS
 70
0
 71
3
 72
11
 73
7
 74
5
 42
0.0000001
 43
0.0000001
 44
0.0000000001
 12
-0.0011010187
 22
0.3642207076
 32
0.0
 13
-0.3642214356
 23
0.0008257883
 33
0.0
 40
0.0
 40
0.0
 40
0.0
 40
0.0
 40
0.2331983104
 40
0.4766700817
 40
0.7337692773
 40
1.0
 40
1.0
 40
1.0
 40
1.0
 10
0.6979760304
 20
-23.8943375673
 30
0.0
 10
0.6978904451
 20
-23.8660256828
 30
0.0
 10
0.6839819476
 20
-23.8074674635
 30
0.0
 10
0.6270306039
 20
-23.7358176933
 30
0.0
 10
0.5443704525
 20
-23.688801661
 30
0.0
 10
0.4803017693
 20
-23.6779044998
 30
0.0
 10
0.4479794573
 20
-23.6778312164
 30
0.0
 11
0.6979760304
 21
-23.8943375673
 31
0.0
 11
0.6787557976
 21
-23.8116047816
 31
0.0
 11
0.6245138719
 21
-23.7414508265
 31
0.0
 11
0.5435074044
 21
-23.6944759256
 31
0.0
 11
0.4479794573
 21
-23.6778312164
 31
0.0
  0
SPLINE
  5
621
100
AcDbEntity
  8
RACCORDO
100
AcDbSpline
 62
7
  6
CONTINUOUS
 70
0
 71
3
 72
13
 73
9
 74
7
 42
0.0000001
 43
0.0000001
 44
0.0000000001
 12
-0.002852503
 22
0.3145370621
 32
0.0
 13
-0.3145499964
 23
0.0
 33
0.0
 40
0.0
 40
0.0
 40
0.0
 40
0.0
 40
0.0847539955
 40
0.1758124513
 40
0.2779583121
 40
0.3944533855
 40
0.6735537874
 40
1.0
 40
1.0
 40
1.0
 40
1.0
 10
0.703212066
 20
-23.3169872981
 30
0.0
 10
0.703131479
 20
-23.3081012072
 30
0.0
 10
0.6999110834
 20
-23.2895865771
 30
0.0
 10
0.6864094295
 20
-23.2633539473
 30
0.0
 10
0.6645810498
 20
-23.2389240474
 30
0.0
 10
0.6222864387
 20
-23.2078445986
 30
0.0
 10
0.5504942746
 20
-23.180186698
 30
0.0
 10
0.4867888734
 20
-23.1726497308
 30
0.0
 10
0.4525609885
 20
-23.1726497308
 30
0.0
 11
0.703212066
 21
-23.3169872981
 31
0.0
 11
0.6987903345
 21
-23.2906971812
 31
0.0
 11
0.686007776
 21
-23.2650652599
 31
0.0
 11
0.6649009111
 21
-23.2408405642
 31
0.0
 11
0.635607582
 21
-23.218825824
 31
0.0
 11
0.5544591098
 21
-23.1853267123
 31
0.0
 11
0.4525609885
 21
-23.1726497308
 31
0.0
  0
SPLINE
  5
622
100
AcDbEntity
  8
RACCORDO
100
AcDbSpline
 62
7
  6
CONTINUOUS
 70
0
 71
3
 72
13
 73
9
 74
7
 42
0.0000001
 43
0.0000001
 44
0.0000000001
 12
-0.3145499964
 22
0.0
 32
0.0
 13
-0.002852503
 23
-0.3145370621
 33
0.0
 40
0.0
 40
0.0
 40
0.0
 40
0.0
 40
0.3264462126
 40
0.6055466145
 40
0.7220416879
 40
0.8241875487
 40
0.9152460045
 40
1.0
 40
1.0
 40
1.0
 40
1.0
 10
-1.9225609885
 20
-23.1726497308
 30
0.0
 10
-1.9567888734
 20
-23.1726497308
 30
0.0
 10
-2.0204942746
 20
-23.180186698
 30
0.0
 10
-2.0922864387
 20
-23.2078445986
 30
0.0
 10
-2.1345810498
 20
-23.2389240474
 30
0.0
 10
-2.1564094295
 20
-23.2633539473
 30
0.0
 10
-2.1699110834
 20
-23.2895865771
 30
0.0
 10
-2.173131479
 20
-23.3081012072
 30
0.0
 10
-2.173212066
 20
-23.3169872981
 30
0.0
 11
-1.9225609885
 21
-23.1726497308
 31
0.0
 11
-2.0244591098
 21
-23.1853267123
 31
0.0
 11
-2.105607582
 21
-23.218825824
 31
0.0
 11
-2.1349009111
 21
-23.2408405642
 31
0.0
 11
-2.156007776
 21
-23.2650652599
 31
0.0
 11
-2.1687903345
 21
-23.2906971812
 31
0.0
 11
-2.173212066
 21
-23.3169872981
 31
0.0
  0
SPLINE
  5
623
100
AcDbEntity
  8
RACCORDO
100
AcDbSpline
 62
253
  6
CONTINUOUS
 70
0
 71
3
 72
37
 73
33
 74
31
 42
0.0000001
 43
0.0000001
 44
0.0000000001
 12
-20.2087620226
 22
37.3619116702
 32
0.0
 13
-20.2211833057
 23
-37.3551904273
 33
0.0
 40
0.0
 40
0.0
 40
0.0
 40
0.0
 40
0.0625363517
 40
0.125025098
 40
0.1874763819
 40
0.2499149465
 40
0.3123675413
 40
0.3436228119
 40
0.3748872602
 40
0.4061607424
 40
0.4218027486
 40
0.4374464814
 40
0.4530915535
 40
0.4687373508
 40
0.4843833569
 40
0.4922063388
 40
0.5000289301
 40
0.5078515469
 40
0.5156745213
 40
0.5313205269
 40
0.5469663225
 40
0.5626113964
 40
0.5782551294
 40
0.5938971316
 40
0.6251706019
 40
0.6564349709
 40
0.6876901921
 40
0.750142808
 40
0.812579032
 40
0.8750197868
 40
0.9374899356
 40
1.0
 40
1.0
 40
1.0
 40
1.0
 10
14.0954903719
 20
9.43289054
 30
0.0
 10
13.6742296222
 20
10.2117164227
 30
0.0
 10
12.7264846512
 20
11.7142821502
 30
0.0
 10
11.0184560626
 20
13.7561329739
 30
0.0
 10
9.0533425177
 20
15.5506692499
 30
0.0
 10
6.866623454
 20
17.0658872573
 30
0.0
 10
4.8903094112
 20
18.0730238095
 30
0.0
 10
3.2401849936
 20
18.7149041624
 30
0.0
 10
1.972012409
 20
19.1125588149
 30
0.0
 10
0.8949096911
 20
19.3717843377
 30
0.0
 10
0.0242536368
 20
19.5354977638
 30
0.0
 10
-0.6326583045
 20
19.6364526277
 30
0.0
 10
-1.2925960613
 20
19.7156022727
 30
0.0
 10
-1.9547797323
 20
19.7733151132
 30
0.0
 10
-2.5077889315
 20
19.8046903411
 30
0.0
 10
-2.9504759873
 20
19.8227121275
 30
0.0
 10
-3.282753784
 20
19.8300672569
 30
0.0
 10
-3.6150362007
 20
19.822887361
 30
0.0
 10
-4.0577263918
 20
19.8049282326
 30
0.0
 10
-4.6107430133
 20
19.7736964244
 30
0.0
 10
-5.272940378
 20
19.7161346553
 30
0.0
 10
-5.9328920157
 20
19.6370980531
 30
0.0
 10
-6.589818321
 20
19.5362367955
 30
0.0
 10
-7.460501232
 20
19.3726696884
 30
0.0
 10
-8.5376676577
 20
19.1137295953
 30
0.0
 10
-9.8059818786
 20
18.7165388846
 30
0.0
 10
-11.4563252503
 20
18.0752110786
 30
0.0
 10
-13.4327469889
 20
17.0683293548
 30
0.0
 10
-15.6195769336
 20
15.5536213578
 30
0.0
 10
-17.5848602616
 20
13.7599392083
 30
0.0
 10
-19.2929451022
 20
11.7191648014
 30
0.0
 10
-20.2408531841
 20
10.2174611517
 30
0.0
 10
-20.6621956743
 20
9.4391026987
 30
0.0
 11
14.0954903719
 21
9.43289054
 31
0.0
 11
12.6782591359
 21
11.679605697
 31
0.0
 11
10.975085771
 21
13.7154678901
 31
0.0
 11
9.0162056618
 21
15.504288156
 31
0.0
 11
6.8360556172
 21
17.014642037
 31
0.0
 11
4.4726787847
 21
18.2195630316
 31
0.0
 11
3.23535257
 21
18.7008491481
 31
0.0
 11
1.9681288589
 21
19.09807935
 31
0.0
 11
0.6766310439
 21
19.4090464304
 31
0.0
 11
0.023650879
 21
19.531850481
 31
0.0
 11
-0.6331349591
 21
19.6328146036
 31
0.0
 11
-1.2929548333
 21
19.7120278191
 31
0.0
 11
-1.9550126405
 21
19.769970965
 31
0.0
 11
-2.6184861262
 21
19.808606007
 31
0.0
 11
-2.9505264331
 21
19.8216854729
 31
0.0
 11
-3.2827542116
 21
19.8276447912
 31
0.0
 11
-3.6149857949
 21
19.8218393168
 31
0.0
 11
-3.9470286377
 21
19.8088325747
 31
0.0
 11
-4.6105108948
 21
19.7703487724
 31
0.0
 11
-5.2725815858
 21
19.7125538719
 31
0.0
 11
-5.9324154702
 21
19.6334567898
 31
0.0
 11
-6.5892166101
 21
19.5325921954
 31
0.0
 11
-7.2422180086
 21
19.4099020362
 31
0.0
 11
-8.5337959683
 21
19.0992701541
 31
0.0
 11
-9.8011527233
 21
18.7024759052
 31
0.0
 11
-11.0386295052
 21
18.2215828524
 31
0.0
 11
-13.4022244158
 21
17.0170877316
 31
0.0
 11
-15.5825744217
 21
15.5071971529
 31
0.0
 11
-17.5415891586
 21
13.7191876978
 31
0.0
 11
-19.2448330918
 21
11.6844146343
 31
0.0
 11
-20.6621956743
 21
9.4391026987
 31
0.0
  0
LINE
  5
624
100
AcDbEntity
  8
RACCORDO
100
AcDbLine
 62
253
  6
CONTINUOUS
 10
14.0989130063
 20
9.4265227227
 11
14.0955064912
 21
9.4328972995
  0
LINE
  5
625
100
AcDbEntity
  8
RACCORDO
100
AcDbLine
 62
253
  6
CONTINUOUS
 10
-20.6622119518
 20
9.4391095278
 11
-20.6656230523
 21
9.4327315692
  0
SPLINE
  5
626
100
AcDbEntity
  8
RACCORDO
100
AcDbSpline
 62
253
  6
CONTINUOUS
 70
0
 71
3
 72
14
 73
10
 74
8
 42
0.0000001
 43
0.0000001
 44
0.0000000001
 12
8.5694211533
 22
-0.0001202098
 32
0.0
 13
6.987975623
 23
-4.960158829
 33
0.0
 40
0.0
 40
0.0
 40
0.0
 40
0.0
 40
0.1327254004
 40
0.2647172217
 40
0.3952324662
 40
0.5235172541
 40
0.6488161984
 40
0.7704144785
 40
1.0
 40
1.0
 40
1.0
 40
1.0
 10
-3.2849679235
 20
-6.3806098563
 30
0.0
 10
-2.9058413056
 20
-6.3806151746
 30
0.0
 10
-2.1495266587
 20
-6.400477013
 30
0.0
 10
-1.0236294646
 20
-6.4908823923
 30
0.0
 10
0.0827188145
 20
-6.6448100159
 30
0.0
 10
1.1581649222
 20
-6.8659961015
 30
0.0
 10
2.1906677278
 20
-7.1580342184
 30
0.0
 10
3.4661191229
 20
-7.6347503663
 30
0.0
 10
4.3579398236
 20
-8.1151384959
 30
0.0
 10
4.8927191661
 20
-8.4947320463
 30
0.0
 11
-3.2849679235
 21
-6.3806098563
 31
0.0
 11
-2.1479877798
 21
-6.4107608897
 31
0.0
 11
-1.020594778
 21
-6.5021804575
 31
0.0
 11
0.0869848076
 21
-6.6576658708
 31
0.0
 11
1.1634155287
 21
-6.8808594677
 31
0.0
 11
2.1960701129
 21
-7.1750377449
 31
0.0
 11
3.1712760193
 21
-7.5421800161
 31
0.0
 11
4.8927191661
 21
-8.4947320463
 31
0.0
  0
SPLINE
  5
627
100
AcDbEntity
  8
RACCORDO
100
AcDbSpline
 62
253
  6
CONTINUOUS
 70
0
 71
3
 72
14
 73
10
 74
8
 42
0.0000001
 43
0.0000001
 44
0.0000000001
 12
6.988770581
 22
4.9664136195
 32
0.0
 13
8.573691061
 23
-0.0002533912
 33
0.0
 40
0.0
 40
0.0
 40
0.0
 40
0.0
 40
0.2295732693
 40
0.3511691175
 40
0.4764681069
 40
0.6047550644
 40
0.7352739706
 40
0.8672702007
 40
1.0
 40
1.0
 40
1.0
 40
1.0
 10
-11.4661790669
 20
-8.4970170916
 30
0.0
 10
-10.9313674301
 20
-8.1169651545
 30
0.0
 10
-10.039305324
 20
-7.6360030907
 30
0.0
 10
-8.7633762876
 20
-7.1587452424
 30
0.0
 10
-7.7304066209
 20
-6.8663859028
 30
0.0
 10
-6.6544297005
 20
-6.6449750184
 30
0.0
 10
-5.5475075415
 20
-6.4909124897
 30
0.0
 10
-4.4210137514
 20
-6.4004509506
 30
0.0
 10
-3.6642960216
 20
-6.3805986455
 30
0.0
 10
-3.2849679235
 20
-6.3806098563
 30
0.0
 11
-11.4661790669
 21
-8.4970170916
 31
0.0
 11
-9.7443591175
 21
-7.5433385725
 31
0.0
 11
-8.7687798004
 21
-7.1757737934
 31
0.0
 11
-7.7356610529
 21
-6.8812707285
 31
0.0
 11
-6.6586993288
 21
-6.6578485108
 31
0.0
 11
-5.5505447343
 21
-6.5022245947
 31
0.0
 11
-4.422553097
 21
-6.4107466742
 31
0.0
 11
-3.2849679235
 21
-6.3806098563
 31
0.0
  0
LINE
  5
628
100
AcDbEntity
  8
RACCORDO
100
AcDbLine
 62
253
  6
CONTINUOUS
 10
4.8927191661
 20
-8.4947320463
 11
4.9015517413
 21
-8.500998092
  0
LINE
  5
629
100
AcDbEntity
  8
RACCORDO
100
AcDbLine
 62
253
  6
CONTINUOUS
 10
14.0955064935
 20
-9.4328972964
 11
14.0989128803
 21
-9.4265229595
  0
LINE
  5
62A
100
AcDbEntity
  8
RACCORDO
100
AcDbLine
 62
253
  6
CONTINUOUS
 10
-11.4752945654
 20
-8.5035175052
 11
-11.4661845692
 21
-8.4970173128
  0
LINE
  5
62B
100
AcDbEntity
  8
RACCORDO
100
AcDbLine
 62
253
  6
CONTINUOUS
 10
-20.6656230502
 20
-9.4327315722
 11
-20.6622120784
 21
-9.4391092905
  0
SPLINE
  5
62C
100
AcDbEntity
  8
RACCORDO
100
AcDbSpline
 62
253
  6
CONTINUOUS
 70
0
 71
3
 72
14
 73
10
 74
8
 42
0.0000001
 43
0.0000001
 44
0.0000000001
 12
4.4708306277
 22
-3.1856727486
 32
0.0
 13
-0.7056744379
 23
-5.4441584245
 33
0.0
 40
0.0
 40
0.0
 40
0.0
 40
0.0
 40
0.2699884187
 40
0.3980443447
 40
0.5220683513
 40
0.6429622309
 40
0.7619341148
 40
0.8804293041
 40
1.0
 40
1.0
 40
1.0
 40
1.0
 10
4.9015517413
 20
-8.500998092
 30
0.0
 10
5.3039092384
 20
-8.7876963413
 30
0.0
 10
5.8607577907
 20
-9.269035903
 30
0.0
 10
6.4605664107
 20
-10.0151847887
 30
0.0
 10
6.8170950604
 20
-10.599684221
 30
0.0
 10
7.0819984864
 20
-11.2131101827
 30
0.0
 10
7.2504867471
 20
-11.8495147617
 30
0.0
 10
7.3187797764
 20
-12.5018274211
 30
0.0
 10
7.2958291356
 20
-12.9389433674
 30
0.0
 10
7.267703141
 20
-13.155930638
 30
0.0
 11
4.9015517413
 21
-8.500998092
 31
0.0
 11
6.013523715
 21
-9.4809497768
 31
0.0
 11
6.452643653
 21
-10.0299189822
 31
0.0
 11
6.8057720807
 21
-10.6120390436
 31
0.0
 11
7.0676887428
 21
-11.2218418715
 31
0.0
 11
7.2340877253
 21
-11.8534093598
 31
0.0
 11
7.3016066308
 21
-12.5003991913
 31
0.0
 11
7.267703141
 21
-13.155930638
 31
0.0
  0
SPLINE
  5
62D
100
AcDbEntity
  8
RACCORDO
100
AcDbSpline
 62
253
  6
CONTINUOUS
 70
0
 71
3
 72
15
 73
11
 74
9
 42
0.0000001
 43
0.0000001
 44
0.0000000001
 12
15.4897044226
 22
4.187330578
 32
0.0
 13
7.6338173288
 23
14.1134515077
 33
0.0
 40
0.0
 40
0.0
 40
0.0
 40
0.0
 40
0.1250307056
 40
0.2500087388
 40
0.3749478282
 40
0.499873557
 40
0.624817213
 40
0.7498094011
 40
0.8748711256
 40
1.0
 40
1.0
 40
1.0
 40
1.0
 10
1.8543105381
 20
-19.1292139656
 30
0.0
 10
2.4998734291
 20
-18.9546990001
 30
0.0
 10
3.7738133989
 20
-18.5394219476
 30
0.0
 10
5.6108838619
 20
-17.7270295243
 30
0.0
 10
7.3561218617
 20
-16.7332006763
 30
0.0
 10
8.9912113455
 20
-15.567421733
 30
0.0
 10
10.5003087579
 20
-14.2421636053
 30
0.0
 10
11.8678182954
 20
-12.7701925973
 30
0.0
 10
13.080447388
 20
-11.1672535067
 30
0.0
 10
13.7770867182
 20
-10.021557304
 30
0.0
 10
14.0954903748
 20
-9.4328905371
 30
0.0
 11
1.8543105381
 21
-19.1292139656
 31
0.0
 11
3.7618233566
 21
-18.5077180908
 31
0.0
 11
5.5958489034
 21
-17.6966557434
 31
0.0
 11
7.337851248
 21
-16.7044895067
 31
0.0
 11
8.9701020981
 21
-15.5409330362
 31
0.0
 11
10.4764392754
 21
-14.2179787256
 31
0.0
 11
11.8416601917
 21
-12.7487766699
 31
0.0
 11
13.0522448205
 21
-11.1483565881
 31
0.0
 11
14.0954903748
 21
-9.4328905371
 31
0.0
  0
SPLINE
  5
62E
100
AcDbEntity
  8
RACCORDO
100
AcDbSpline
 62
253
  6
CONTINUOUS
 70
0
 71
3
 72
14
 73
10
 74
8
 42
0.0000001
 43
0.0000001
 44
0.0000000001
 12
-1.085929609
 22
-8.3757980565
 32
0.0
 13
-7.8498515769
 23
-3.1165792818
 33
0.0
 40
0.0
 40
0.0
 40
0.0
 40
0.0
 40
0.1112512732
 40
0.2244346234
 40
0.3409338409
 40
0.4618869732
 40
0.588095814
 40
0.7199742051
 40
1.0
 40
1.0
 40
1.0
 40
1.0
 10
7.267703141
 20
-13.155930638
 30
0.0
 10
7.2274327905
 20
-13.4665367039
 30
0.0
 10
7.0948910656
 20
-14.087657239
 30
0.0
 10
6.7457686902
 20
-14.9858003834
 30
0.0
 10
6.2495253802
 20
-15.843459285
 30
0.0
 10
5.6124998991
 20
-16.6491223948
 30
0.0
 10
4.8425788266
 20
-17.3924280032
 30
0.0
 10
3.6297897634
 20
-18.3048866647
 30
0.0
 10
2.5870308473
 20
-18.8383064354
 30
0.0
 10
1.8543105381
 20
-19.1292139656
 30
0.0
 11
7.267703141
 21
-13.155930638
 31
0.0
 11
7.0721281661
 21
-14.074968664
 31
0.0
 11
6.7273423817
 21
-14.9665599937
 31
0.0
 11
6.2365993559
 21
-15.8193851769
 31
0.0
 11
5.6051603569
 21
-16.6224205422
 31
0.0
 11
4.8403600481
 21
-17.3649326117
 31
0.0
 11
3.9519530308
 21
-18.0367616065
 31
0.0
 11
1.8543105381
 21
-19.1292139656
 31
0.0
  0
SPLINE
  5
62F
100
AcDbEntity
  8
RACCORDO
100
AcDbSpline
 62
253
  6
CONTINUOUS
 70
0
 71
3
 72
14
 73
10
 74
8
 42
0.0000001
 43
0.0000001
 44
0.0000000001
 12
-7.8515414651
 22
3.1167417781
 32
0.0
 13
-1.0830435363
 23
8.3778159079
 33
0.0
 40
0.0
 40
0.0
 40
0.0
 40
0.0
 40
0.2800663064
 40
0.4119683561
 40
0.5381963148
 40
0.6591550559
 40
0.7756371843
 40
0.8887810225
 40
1.0
 40
1.0
 40
1.0
 40
1.0
 10
-8.4245555261
 20
-19.1291314437
 30
0.0
 10
-9.1575395986
 20
-18.8381666578
 30
0.0
 10
-10.2007112221
 20
-18.3046348592
 30
0.0
 10
-11.413859308
 20
-17.3917616182
 30
0.0
 10
-12.1838753867
 20
-16.6480528697
 30
0.0
 10
-12.8207978728
 20
-15.8420223723
 30
0.0
 10
-13.3167482535
 20
-14.9841391525
 30
0.0
 10
-13.6655477129
 20
-14.0859419314
 30
0.0
 10
-13.7978479829
 20
-13.4648507211
 30
0.0
 10
-13.8379996478
 20
-13.1542600149
 30
0.0
 11
-8.4245555261
 21
-19.1291314437
 31
0.0
 11
-10.5229450405
 21
-18.0363840527
 31
0.0
 11
-11.4116276377
 21
-17.3642316194
 31
0.0
 11
-12.1765395138
 21
-16.6213072094
 31
0.0
 11
-12.8078881678
 21
-15.8178896936
 31
0.0
 11
-13.2983496709
 21
-14.9648499711
 31
0.0
 11
-13.6427736703
 21
-14.0732787876
 31
0.0
 11
-13.8379996478
 21
-13.1542600149
 31
0.0
  0
SPLINE
  5
630
100
AcDbEntity
  8
RACCORDO
100
AcDbSpline
 62
253
  6
CONTINUOUS
 70
0
 71
3
 72
15
 73
11
 74
9
 42
0.0000001
 43
0.0000001
 44
0.0000000001
 12
7.6351055172
 22
-14.1045622694
 32
0.0
 13
15.4830339879
 23
-4.1843962048
 33
0.0
 40
0.0
 40
0.0
 40
0.0
 40
0.0
 40
0.1250982859
 40
0.2501354938
 40
0.375114983
 40
0.5000587282
 40
0.6249963396
 40
0.7499540812
 40
0.874950561
 40
1.0
 40
1.0
 40
1.0
 40
1.0
 10
-20.6621958014
 20
-9.4391024616
 30
0.0
 10
-20.3438162637
 20
-10.0272546495
 30
0.0
 10
-19.6473983622
 20
-11.1720404882
 30
0.0
 10
-18.4348862836
 20
-12.7734739226
 30
0.0
 10
-17.0680075668
 20
-14.2445145068
 30
0.0
 10
-15.5593070215
 20
-15.5688612512
 30
0.0
 10
-13.924745106
 20
-16.7340801847
 30
0.0
 10
-12.1801496951
 20
-17.727747337
 30
0.0
 10
-10.3435556032
 20
-18.5397590839
 30
0.0
 10
-9.0699370977
 20
-18.9547126443
 30
0.0
 10
-8.4245555261
 20
-19.1291314437
 30
0.0
 11
-20.6621958014
 21
-9.4391024616
 31
0.0
 11
-19.6191862033
 21
-11.1530825413
 31
0.0
 11
-18.4088723185
 21
-12.7520844413
 31
0.0
 11
-17.0441714863
 21
-14.2202623491
 31
0.0
 11
-15.5382907769
 21
-15.5423743303
 31
0.0
 11
-13.906537629
 21
-16.7054066586
 31
0.0
 11
-12.1650912518
 21
-17.6973346045
 31
0.0
 11
-10.331567786
 21
-18.5080373643
 31
0.0
 11
-8.4245555261
 21
-19.1291314437
 31
0.0
  0
SPLINE
  5
631
100
AcDbEntity
  8
RACCORDO
100
AcDbSpline
 62
253
  6
CONTINUOUS
 70
0
 71
3
 72
14
 73
10
 74
8
 42
0.0000001
 43
0.0000001
 44
0.0000000001
 12
-0.7029042879
 22
5.4382955726
 32
0.0
 13
4.4635884837
 23
3.1852018808
 33
0.0
 40
0.0
 40
0.0
 40
0.0
 40
0.0
 40
0.1195750105
 40
0.2380806195
 40
0.3570606127
 40
0.4779561099
 40
0.6019771929
 40
0.7300277749
 40
1.0
 40
1.0
 40
1.0
 40
1.0
 10
-13.8379996478
 20
-13.1542600149
 30
0.0
 10
-13.8660162437
 20
-12.9374985981
 30
0.0
 10
-13.8888166924
 20
-12.5008436117
 30
0.0
 10
-13.8204736156
 20
-11.849238514
 30
0.0
 10
-13.6521224997
 20
-11.2135289583
 30
0.0
 10
-13.3875520731
 20
-10.6007695172
 30
0.0
 10
-13.0315940268
 20
-10.0168461284
 30
0.0
 10
-12.4328509384
 20
-9.2712865055
 30
0.0
 10
-11.8769822643
 20
-8.7901564285
 30
0.0
 10
-11.475300626
 20
-8.5035177487
 30
0.0
 11
-13.8379996478
 21
-13.1542600149
 31
0.0
 11
-13.8716726613
 21
-12.4994317159
 31
0.0
 11
-13.8041043565
 21
-11.8531246817
 31
0.0
 11
-13.6378381272
 21
-11.2222353336
 31
0.0
 11
-13.3762573084
 21
-10.6130904049
 31
0.0
 11
-13.0236919749
 21
-10.0315425485
 31
0.0
 11
-12.5853391012
 21
-9.4830091603
 31
0.0
 11
-11.475300626
 21
-8.5035177487
 31
0.0
  0
SPLINE
  5
632
100
AcDbEntity
  8
RACCORDO
100
AcDbSpline
 62
253
  6
CONTINUOUS
 70
0
 71
3
 72
11
 73
7
 74
5
 42
0.0000001
 43
0.0000001
 44
0.0000000001
 12
-0.0011010187
 22
0.3642207076
 32
0.0
 13
-0.3642214356
 23
0.0008257883
 33
0.0
 40
0.0
 40
0.0
 40
0.0
 40
0.0
 40
0.2331983104
 40
0.4766700817
 40
0.7337692773
 40
1.0
 40
1.0
 40
1.0
 40
1.0
 10
18.0979760304
 20
-23.8943375673
 30
0.0
 10
18.0978904451
 20
-23.8660256828
 30
0.0
 10
18.0839819476
 20
-23.8074674635
 30
0.0
 10
18.0270306039
 20
-23.7358176933
 30
0.0
 10
17.9443704525
 20
-23.688801661
 30
0.0
 10
17.8803017693
 20
-23.6779044998
 30
0.0
 10
17.8479794573
 20
-23.6778312164
 30
0.0
 11
18.0979760304
 21
-23.8943375673
 31
0.0
 11
18.0787557976
 21
-23.8116047816
 31
0.0
 11
18.0245138719
 21
-23.7414508265
 31
0.0
 11
17.9435074044
 21
-23.6944759256
 31
0.0
 11
17.8479794573
 21
-23.6778312164
 31
0.0
  0
SPLINE
  5
633
100
AcDbEntity
  8
RACCORDO
100
AcDbSpline
 62
253
  6
CONTINUOUS
 70
0
 71
3
 72
11
 73
7
 74
5
 42
0.0000001
 43
0.0000001
 44
0.0000000001
 12
-0.3642214703
 22
-0.0008257884
 32
0.0
 13
-0.0011010188
 23
-0.3642207423
 33
0.0
 40
0.0
 40
0.0
 40
0.0
 40
0.0
 40
0.2662357453
 40
0.5233327532
 40
0.7668031567
 40
1.0
 40
1.0
 40
1.0
 40
1.0
 10
15.4820205427
 20
-23.6778312164
 30
0.0
 10
15.4496976178
 20
-23.6779045011
 30
0.0
 10
15.3856284938
 20
-23.6888017363
 30
0.0
 10
15.3029686094
 20
-23.7358185745
 30
0.0
 10
15.2460178611
 20
-23.8074679693
 30
0.0
 10
15.2321095543
 20
-23.8660258582
 30
0.0
 10
15.2320239696
 20
-23.8943375673
 30
0.0
 11
15.4820205427
 21
-23.6778312164
 31
0.0
 11
15.3864908209
 21
-23.6944764512
 31
0.0
 11
15.3054853616
 21
-23.7414515201
 31
0.0
 11
15.2512439678
 21
-23.8116052673
 31
0.0
 11
15.2320239696
 21
-23.8943375673
 31
0.0
  0
SPLINE
  5
634
100
AcDbEntity
  8
RACCORDO
100
AcDbSpline
 62
7
  6
CONTINUOUS
 70
0
 71
3
 72
13
 73
9
 74
7
 42
0.0000001
 43
0.0000001
 44
0.0000000001
 12
-0.002852503
 22
0.3145370621
 32
0.0
 13
-0.3145499964
 23
0.0
 33
0.0
 40
0.0
 40
0.0
 40
0.0
 40
0.0
 40
0.0847539955
 40
0.1758124513
 40
0.2779583121
 40
0.3944533855
 40
0.6735537874
 40
1.0
 40
1.0
 40
1.0
 40
1.0
 10
18.103212066
 20
-23.3169872981
 30
0.0
 10
18.103131479
 20
-23.3081012072
 30
0.0
 10
18.0999110834
 20
-23.2895865771
 30
0.0
 10
18.0864094295
 20
-23.2633539473
 30
0.0
 10
18.0645810498
 20
-23.2389240474
 30
0.0
 10
18.0222864387
 20
-23.2078445986
 30
0.0
 10
17.9504942746
 20
-23.180186698
 30
0.0
 10
17.8867888734
 20
-23.1726497308
 30
0.0
 10
17.8525609885
 20
-23.1726497308
 30
0.0
 11
18.103212066
 21
-23.3169872981
 31
0.0
 11
18.0987903345
 21
-23.2906971812
 31
0.0
 11
18.086007776
 21
-23.2650652599
 31
0.0
 11
18.0649009111
 21
-23.2408405642
 31
0.0
 11
18.035607582
 21
-23.218825824
 31
0.0
 11
17.9544591098
 21
-23.1853267123
 31
0.0
 11
17.8525609885
 21
-23.1726497308
 31
0.0
  0
SPLINE
  5
635
100
AcDbEntity
  8
RACCORDO
100
AcDbSpline
 62
7
  6
CONTINUOUS
 70
0
 71
3
 72
13
 73
9
 74
7
 42
0.0000001
 43
0.0000001
 44
0.0000000001
 12
-0.3145499964
 22
0.0
 32
0.0
 13
-0.002852503
 23
-0.3145370621
 33
0.0
 40
0.0
 40
0.0
 40
0.0
 40
0.0
 40
0.3264462126
 40
0.6055466145
 40
0.7220416879
 40
0.8241875487
 40
0.9152460045
 40
1.0
 40
1.0
 40
1.0
 40
1.0
 10
15.4774390115
 20
-23.1726497308
 30
0.0
 10
15.4432111266
 20
-23.1726497308
 30
0.0
 10
15.3795057254
 20
-23.180186698
 30
0.0
 10
15.3077135613
 20
-23.2078445986
 30
0.0
 10
15.2654189502
 20
-23.2389240474
 30
0.0
 10
15.2435905705
 20
-23.2633539473
 30
0.0
 10
15.2300889166
 20
-23.2895865771
 30
0.0
 10
15.226868521
 20
-23.3081012072
 30
0.0
 10
15.226787934
 20
-23.3169872981
 30
0.0
 11
15.4774390115
 21
-23.1726497308
 31
0.0
 11
15.3755408902
 21
-23.1853267123
 31
0.0
 11
15.294392418
 21
-23.218825824
 31
0.0
 11
15.2650990889
 21
-23.2408405642
 31
0.0
 11
15.243992224
 21
-23.2650652599
 31
0.0
 11
15.2312096655
 21
-23.2906971812
 31
0.0
 11
15.226787934
 21
-23.3169872981
 31
0.0
  0
SPLINE
  5
636
100
AcDbEntity
  8
RACCORDO
100
AcDbSpline
 62
253
  6
CONTINUOUS
 70
0
 71
3
 72
18
 73
14
 74
12
 42
0.0000001
 43
0.0000001
 44
0.0000000001
 12
10.5821565428
 22
0.0
 32
0.0
 13
1.9711362312
 23
10.3969543162
 33
0.0
 40
0.0
 40
0.0
 40
0.0
 40
0.0
 40
0.1579623974
 40
0.3119225989
 40
0.4581384514
 40
0.5933722804
 40
0.7152235482
 40
0.7707737341
 40
0.8226978849
 40
0.8711577124
 40
0.9164815116
 40
0.9591945077
 40
1.0
 40
1.0
 40
1.0
 40
1.0
 10
-3.285
 20
-16.5877531126
 30
0.0
 10
-2.7278057277
 20
-16.5877531126
 30
0.0
 10
-1.6268275011
 20
-16.5374721604
 30
0.0
 10
-0.0240888466
 20
-16.3128310932
 30
0.0
 10
1.4706355162
 20
-15.9467769509
 30
0.0
 10
2.8078085272
 20
-15.4515344305
 30
0.0
 10
3.7844800392
 20
-14.9285998881
 30
0.0
 10
4.4409672486
 20
-14.4540785028
 30
0.0
 10
4.8530732203
 20
-14.0881757755
 30
0.0
 10
5.1966259773
 20
-13.7041785256
 30
0.0
 10
5.4685403497
 20
-13.304864786
 30
0.0
 10
5.6659270003
 20
-12.8934779346
 30
0.0
 10
5.7475830621
 20
-12.608559235
 30
0.0
 10
5.7743941235
 20
-12.4671416219
 30
0.0
 11
-3.285
 21
-16.5877531126
 31
0.0
 11
-1.6152033866
 21
-16.5104977957
 31
0.0
 11
-0.0021652448
 21
-16.2813658415
 31
0.0
 11
1.4994224812
 21
-15.9081276732
 31
0.0
 11
2.8385513636
 21
-15.4034669558
 31
0.0
 11
3.9697338382
 21
-14.7845118476
 31
0.0
 11
4.4450346215
 21
-14.4386131231
 31
0.0
 11
4.8545742621
 21
-14.0722881225
 31
0.0
 11
5.1948623809
 21
-13.6886508465
 31
0.0
 11
5.4630055087
 21
-13.290985156
 31
0.0
 11
5.6567409879
 21
-12.8826144952
 31
0.0
 11
5.7743941235
 21
-12.4671416219
 31
0.0
  0
SPLINE
  5
637
100
AcDbEntity
  8
RACCORDO
100
AcDbSpline
 62
253
  6
CONTINUOUS
 70
0
 71
3
 72
13
 73
9
 74
7
 42
0.0000001
 43
0.0000001
 44
0.0000000001
 12
3.4139505159
 22
-2.4494592358
 32
0.0
 13
-0.6238501913
 23
-4.1552039194
 33
0.0
 40
0.0
 40
0.0
 40
0.0
 40
0.0
 40
0.2772674398
 40
0.530275088
 40
0.6501143029
 40
0.7671577226
 40
0.8831546645
 40
1.0
 40
1.0
 40
1.0
 40
1.0
 10
3.9508600012
 20
-8.9161362839
 30
0.0
 10
4.2663857743
 20
-9.142521381
 30
0.0
 10
4.8341143795
 20
-9.6302896075
 30
0.0
 10
5.3751995907
 20
-10.3766323966
 30
0.0
 10
5.6492757007
 20
-11.0082395421
 30
0.0
 10
5.7749075862
 20
-11.4884220228
 30
0.0
 10
5.8214069342
 20
-11.9783434838
 30
0.0
 10
5.7986792842
 20
-12.3053705769
 30
0.0
 10
5.7743812893
 20
-12.4672093089
 30
0.0
 11
3.9508600012
 21
-8.9161362839
 31
0.0
 11
4.8255343372
 21
-9.6856850718
 31
0.0
 11
5.439193687
 21
-10.5537654693
 31
0.0
 11
5.6385056202
 21
-11.0161772116
 31
0.0
 11
5.7621641265
 21
-11.4921667382
 31
0.0
 11
5.8079737661
 21
-11.9774021477
 31
0.0
 11
5.7743812893
 21
-12.4672093089
 31
0.0
  0
LINE
  5
638
100
AcDbEntity
  8
RACCORDO
100
AcDbLine
 62
253
  6
CONTINUOUS
 10
3.9436944595
 20
-8.9110025474
 11
3.9508600012
 21
-8.9161362839
  0
SPLINE
  5
639
100
AcDbEntity
  8
RACCORDO
100
AcDbSpline
 62
253
  6
CONTINUOUS
 70
0
 71
3
 72
14
 73
10
 74
8
 42
0.0000001
 43
0.0000001
 44
0.0000000001
 12
7.5783569442
 22
-0.0000478008
 32
0.0
 13
6.1634681968
 23
-4.4094391664
 33
0.0
 40
0.0
 40
0.0
 40
0.0
 40
0.0
 40
0.2701196945
 40
0.4025575044
 40
0.5318349421
 40
0.6569875302
 40
0.7771536591
 40
0.8916403769
 40
1.0
 40
1.0
 40
1.0
 40
1.0
 10
-3.285
 20
-7.0299492222
 30
0.0
 10
-2.6026455124
 20
-7.0299535261
 30
0.0
 10
-1.5842891228
 20
-7.086287389
 30
0.0
 10
-0.2543495768
 20
-7.2809571678
 30
0.0
 10
0.7021502649
 20
-7.4852756615
 30
0.0
 10
1.6118385723
 20
-7.7490579394
 30
0.0
 10
2.4626693124
 20
-8.0719857057
 30
0.0
 10
3.2425181143
 20
-8.4525524744
 30
0.0
 10
3.7210707627
 20
-8.7517341587
 30
0.0
 10
3.9436944595
 20
-8.9110025474
 30
0.0
 11
-3.285
 21
-7.0299492222
 31
0.0
 11
-1.2412591586
 21
-7.1465347886
 31
0.0
 11
-0.2483392941
 21
-7.2929777393
 31
0.0
 11
0.7094604211
 21
-7.4990177896
 31
0.0
 11
1.6198773621
 21
-7.7649130038
 31
0.0
 11
2.4704891829
 21
-8.0901275116
 31
0.0
 11
3.2490329575
 21
-8.4730585238
 31
0.0
 11
3.9436944595
 21
-8.9110025474
 31
0.0
  0
LINE
  5
63A
100
AcDbEntity
  8
RACCORDO
100
AcDbLine
 62
253
  6
CONTINUOUS
 10
-10.5238232424
 20
-8.9182447404
 11
-10.5164136819
 21
-8.9129301033
  0
SPLINE
  5
63B
100
AcDbEntity
  8
RACCORDO
100
AcDbSpline
 62
253
  6
CONTINUOUS
 70
0
 71
3
 72
14
 73
10
 74
8
 42
0.0000001
 43
0.0000001
 44
0.0000000001
 12
-0.910590707
 22
-7.3266276469
 32
0.0
 13
-6.825583975
 23
-2.8142586078
 33
0.0
 40
0.0
 40
0.0
 40
0.0
 40
0.0
 40
0.1126555032
 40
0.2269507568
 40
0.3441689557
 40
0.4653823123
 40
0.5913624009
 40
0.7225466158
 40
1.0
 40
1.0
 40
1.0
 40
1.0
 10
5.7743941235
 20
-12.4671416219
 30
0.0
 10
5.7401997721
 20
-12.74226993
 30
0.0
 10
5.6274376247
 20
-13.2920533319
 30
0.0
 10
5.3293546972
 20
-14.08825762
 30
0.0
 10
4.9049042035
 20
-14.8491084813
 30
0.0
 10
4.3593304337
 20
-15.5644265441
 30
0.0
 10
3.6992951339
 20
-16.2250794498
 30
0.0
 10
2.6600855647
 20
-17.0359099309
 30
0.0
 10
1.7628569203
 20
-17.5127978954
 30
0.0
 10
1.1315964626
 20
-17.773073087
 30
0.0
 11
5.7743941235
 21
-12.4671416219
 31
0.0
 11
5.6076043035
 21
-13.2819819204
 31
0.0
 11
5.3128567709
 21
-14.072673035
 31
0.0
 11
4.892781182
 21
-14.8293044584
 31
0.0
 11
4.3517710556
 21
-15.5421761494
 31
0.0
 11
3.6960637145
 21
-16.2018379532
 31
0.0
 11
2.9338037892
 21
-16.7993456003
 31
0.0
 11
1.1315964626
 21
-17.773073087
 31
0.0
  0
SPLINE
  5
63C
100
AcDbEntity
  8
RACCORDO
100
AcDbSpline
 62
253
  6
CONTINUOUS
 70
0
 71
3
 72
19
 73
15
 74
13
 42
0.0000001
 43
0.0000001
 44
0.0000000001
 12
-8.4448157683
 22
-3.48209631
 32
0.0
 13
-8.4450391412
 23
3.4815545343
 33
0.0
 40
0.0
 40
0.0
 40
0.0
 40
0.0
 40
0.1216533844
 40
0.2464588887
 40
0.3095448956
 40
0.3728980428
 40
0.4364160915
 40
0.5000008323
 40
0.5635855395
 40
0.6271033805
 40
0.6904562893
 40
0.7535424011
 40
0.8783481489
 40
1.0
 40
1.0
 40
1.0
 40
1.0
 10
1.1315964626
 20
-17.773073087
 30
0.0
 10
0.7891496564
 20
-17.9142760206
 30
0.0
 10
0.0910193203
 20
-18.1903898916
 30
0.0
 10
-0.8104861046
 20
-18.47046468
 30
0.0
 10
-1.5568004608
 20
-18.6401035373
 30
0.0
 10
-2.1275643746
 20
-18.735916643
 30
0.0
 10
-2.704507414
 20
-18.7973541272
 30
0.0
 10
-3.2851615943
 20
-18.8231807753
 30
0.0
 10
-3.8658141992
 20
-18.7973408112
 30
0.0
 10
-4.4427560803
 20
-18.7359067406
 30
0.0
 10
-5.0135175023
 20
-18.6400825218
 30
0.0
 10
-5.7598232821
 20
-18.4704017755
 30
0.0
 10
-6.6613005938
 20
-18.1902506851
 30
0.0
 10
-7.3594253133
 20
-17.9141386906
 30
0.0
 10
-7.7018768614
 20
-17.772959506
 30
0.0
 11
1.1315964626
 21
-17.773073087
 31
0.0
 11
0.0951614646
 21
-18.173916257
 31
0.0
 11
-0.9950528139
 21
-18.5072739787
 31
0.0
 11
-1.5570843288
 21
-18.6345469794
 31
0.0
 11
-2.1278463567
 21
-18.7300817714
 31
0.0
 11
-2.7048063852
 21
-18.7913923026
 31
0.0
 11
-3.2851615393
 21
-18.8145666577
 31
0.0
 11
-3.8655159638
 21
-18.7913817235
 31
0.0
 11
-4.442473899
 21
-18.730069446
 31
0.0
 11
-5.0132317284
 21
-18.634522759
 31
0.0
 11
-5.5752574092
 21
-18.5072196633
 31
0.0
 11
-6.6654521474
 21
-18.1737904387
 31
0.0
 11
-7.7018768614
 21
-17.772959506
 31
0.0
  0
SPLINE
  5
63D
100
AcDbEntity
  8
RACCORDO
100
AcDbSpline
 62
253
  6
CONTINUOUS
 70
0
 71
3
 72
14
 73
10
 74
8
 42
0.0000001
 43
0.0000001
 44
0.0000000001
 12
-6.827052163
 22
2.8143184973
 32
0.0
 13
-0.9077524741
 23
7.3283705751
 33
0.0
 40
0.0
 40
0.0
 40
0.0
 40
0.0
 40
0.2774924373
 40
0.4086982428
 40
0.5346958649
 40
0.6559159247
 40
0.7731212333
 40
0.8873790662
 40
1.0
 40
1.0
 40
1.0
 40
1.0
 10
-7.7018768614
 20
-17.772959506
 30
0.0
 10
-8.3333619762
 20
-17.5126421396
 30
0.0
 10
-9.2309444953
 20
-17.0356717691
 30
0.0
 10
-10.2704351285
 20
-16.2244741317
 30
0.0
 10
-10.9305195192
 20
-15.5634564789
 30
0.0
 10
-11.4759832357
 20
-14.8478055507
 30
0.0
 10
-11.9002176345
 20
-14.0867733591
 30
0.0
 10
-12.1980602397
 20
-13.290532073
 30
0.0
 10
-12.3105952028
 20
-12.7407731749
 30
0.0
 10
-12.3446725133
 20
-12.4656638623
 30
0.0
 11
-7.7018768614
 21
-17.772959506
 31
0.0
 11
-9.5047174894
 21
-16.7989918974
 31
0.0
 11
-10.2671888736
 21
-16.2012021005
 31
0.0
 11
-10.92295863
 21
-15.5411746553
 31
0.0
 11
-11.4638785694
 21
-14.8279624138
 31
0.0
 11
-11.8837466735
 21
-14.0711396753
 31
0.0
 11
-12.178210179
 21
-13.280469277
 31
0.0
 11
-12.3446725133
 21
-12.4656638623
 31
0.0
  0
SPLINE
  5
63E
100
AcDbEntity
  8
RACCORDO
100
AcDbSpline
 62
253
  6
CONTINUOUS
 70
0
 71
3
 72
14
 73
10
 74
8
 42
0.0000001
 43
0.0000001
 44
0.0000000001
 12
6.1639031206
 22
4.4145740766
 32
0.0
 13
7.5816994108
 23
-0.0000420096
 33
0.0
 40
0.0
 40
0.0
 40
0.0
 40
0.0
 40
0.1083483161
 40
0.2228270041
 40
0.3429888981
 40
0.4681410803
 40
0.5974215448
 40
0.7298650332
 40
1.0
 40
1.0
 40
1.0
 40
1.0
 10
-10.5164136819
 20
-8.9129301033
 30
0.0
 10
-10.2937975072
 20
-8.7534928807
 30
0.0
 10
-9.8152053353
 20
-8.4539911963
 30
0.0
 10
-9.0351897612
 20
-8.0730238175
 30
0.0
 10
-8.1840899384
 20
-7.7497583534
 30
0.0
 10
-7.2740482195
 20
-7.4857042922
 30
0.0
 10
-6.3171284171
 20
-7.2811806895
 30
0.0
 10
-4.986555071
 20
-7.0863229729
 30
0.0
 10
-3.9676940396
 20
-7.0299454394
 30
0.0
 10
-3.285
 20
-7.0299492222
 30
0.0
 11
-10.5164136819
 21
-8.9129301033
 31
0.0
 11
-9.82171557
 21
-8.4745259113
 31
0.0
 11
-9.0430118209
 21
-8.0911911695
 31
0.0
 11
-8.1921348987
 21
-7.7656353307
 31
0.0
 11
-7.2813658588
 21
-7.4994645748
 31
0.0
 11
-6.3231455308
 21
-7.2932160639
 31
0.0
 11
-5.3297556721
 21
-7.1466308672
 31
0.0
 11
-3.285
 21
-7.0299492222
 31
0.0
  0
SPLINE
  5
63F
100
AcDbEntity
  8
RACCORDO
100
AcDbSpline
 62
253
  6
CONTINUOUS
 70
0
 71
3
 72
18
 73
14
 74
12
 42
0.0000001
 43
0.0000001
 44
0.0000000001
 12
-10.5836539375
 22
0.0
 32
0.0
 13
-1.9648072748
 23
10.3996761028
 33
0.0
 40
0.0
 40
0.0
 40
0.0
 40
0.0
 40
0.1579744728
 40
0.3119446994
 40
0.4581667221
 40
0.593401566
 40
0.7152482581
 40
0.7707943417
 40
0.8227135271
 40
0.8711680114
 40
0.9164866375
 40
0.9591959149
 40
1.0
 40
1.0
 40
1.0
 40
1.0
 10
-3.285
 20
-16.5877531126
 30
0.0
 10
-3.842315717
 20
-16.5877531126
 30
0.0
 10
-4.9435280775
 20
-16.5374506256
 30
0.0
 10
-6.5465865878
 20
-16.3127140811
 30
0.0
 10
-8.0415623509
 20
-15.9465078837
 30
0.0
 10
-9.3788892098
 20
-15.4510669929
 30
0.0
 10
-10.3556023511
 20
-14.9279258011
 30
0.0
 10
-11.0120426201
 20
-14.4532241021
 30
0.0
 10
-11.4240712768
 20
-14.0871917353
 30
0.0
 10
-11.7675074094
 20
-13.703063815
 30
0.0
 10
-12.0392673738
 20
-13.3036208354
 30
0.0
 10
-12.2364570528
 20
-12.8921058588
 30
0.0
 10
-12.3179484589
 20
-12.6071136184
 30
0.0
 10
-12.3446725133
 20
-12.4656638623
 30
0.0
 11
-3.285
 21
-16.5877531126
 31
0.0
 11
-4.9551597686
 21
-16.510463898
 31
0.0
 11
-6.5685238133
 21
-16.2812325626
 31
0.0
 11
-8.0703651379
 21
-15.907836311
 31
0.0
 11
-9.4096443182
 21
-15.4029697466
 31
0.0
 11
-10.5408487186
 21
-14.7837755176
 31
0.0
 11
-11.0161065025
 21
-14.4377501546
 31
0.0
 11
-11.4255651114
 21
-14.0712967968
 31
0.0
 11
-11.7657333251
 21
-13.6875318001
 31
0.0
 11
-12.0337173261
 21
-13.2897430411
 31
0.0
 11
-12.2272551512
 21
-12.8812514467
 31
0.0
 11
-12.3446725133
 21
-12.4656638623
 31
0.0
  0
SPLINE
  5
640
100
AcDbEntity
  8
RACCORDO
100
AcDbSpline
 62
253
  6
CONTINUOUS
 70
0
 71
3
 72
13
 73
9
 74
7
 42
0.0000001
 43
0.0000001
 44
0.0000000001
 12
-0.6210230162
 22
4.1504648741
 32
0.0
 13
3.4084182034
 23
2.4484104248
 33
0.0
 40
0.0
 40
0.0
 40
0.0
 40
0.0
 40
0.1168491475
 40
0.2328587076
 40
0.3499141646
 40
0.4697593736
 40
0.7227605424
 40
1.0
 40
1.0
 40
1.0
 40
1.0
 10
-12.3446621575
 20
-12.4657186696
 30
0.0
 10
-12.3688508275
 20
-12.3040592422
 30
0.0
 10
-12.3914099443
 20
-11.9774000249
 30
0.0
 10
-12.3448429796
 20
-11.4880505868
 30
0.0
 10
-12.2193287228
 20
-11.0084213522
 30
0.0
 10
-11.9456615468
 20
-10.3775372724
 30
0.0
 10
-11.405541487
 20
-9.6319551154
 30
0.0
 10
-10.8388059138
 20
-9.1445100665
 30
0.0
 10
-10.5238232424
 20
-8.9182447404
 30
0.0
 11
-12.3446621575
 21
-12.4657186696
 31
0.0
 11
-12.37800752
 21
-11.9764765549
 31
0.0
 11
-12.3321297601
 21
-11.4917892872
 31
0.0
 11
-12.208581926
 21
-11.0163362484
 31
0.0
 11
-12.0095578186
 21
-10.5544393449
 31
0.0
 11
-11.3969509055
 21
-9.6872303146
 31
0.0
 11
-10.5238232424
 21
-8.9182447404
 31
0.0
  0
SPLINE
  5
641
100
AcDbEntity
  8
0
100
AcDbSpline
 62
7
  6
CONTINUOUS
 70
0
 71
3
 72
9
 73
5
 74
3
 42
0.0000001
 43
0.0000001
 44
0.0000000001
 12
0.159677079
 22
0.0800130452
 32
0.0
 13
0.1755359536
 23
0.0329543009
 33
0.0
 40
0.0
 40
0.0
 40
0.0
 40
0.0
 40
0.259987682
 40
1.0
 40
1.0
 40
1.0
 40
1.0
 10
-50.3893758836
 20
22.1004229811
 30
0.0
 10
-50.375537859
 20
22.1073571165
 30
0.0
 10
-50.3215218198
 20
22.1323868805
 30
0.0
 10
-50.2641172479
 20
22.1503725072
 30
0.0
 10
-50.2208176586
 20
22.1585013701
 30
0.0
 11
-50.3893758836
 21
22.1004229811
 31
0.0
 11
-50.3472218063
 21
22.1198958386
 31
0.0
 11
-50.2208176586
 21
22.1585013701
 31
0.0
  0
LINE
  5
642
100
AcDbEntity
  8
0
100
AcDbLine
 62
7
  6
CONTINUOUS
 10
-50.1589065266
 20
22.1546925043
 11
-50.2208203008
 21
22.1584072723
  0
SPLINE
  5
643
100
AcDbEntity
  8
0
100
AcDbSpline
 62
7
  6
CONTINUOUS
 70
0
 71
3
 72
9
 73
5
 74
3
 42
0.0000001
 43
0.0000001
 44
0.0000000001
 12
-0.1597591478
 22
0.0800541693
 32
0.0
 13
-0.1756261734
 23
0.0329712383
 33
0.0
 40
0.0
 40
0.0
 40
0.0
 40
0.0
 40
0.512291023
 40
1.0
 40
1.0
 40
1.0
 40
1.0
 10
-51.0893758836
 20
22.1004229811
 30
0.0
 10
-51.1166569427
 20
22.1140933252
 30
0.0
 10
-51.1715871858
 20
22.1376382831
 30
0.0
 10
-51.2293799804
 20
22.1530471905
 30
0.0
 10
-51.2579314675
 20
22.1584073135
 30
0.0
 11
-51.0893758836
 21
22.1004229811
 31
0.0
 11
-51.1736887376
 21
22.1360818242
 31
0.0
 11
-51.2579314675
 21
22.1584073135
 31
0.0
  0
SPLINE
  5
644
100
AcDbEntity
  8
0
100
AcDbSpline
 62
7
  6
CONTINUOUS
 70
0
 71
3
 72
9
 73
5
 74
3
 42
0.0000001
 43
0.0000001
 44
0.0000000001
 12
-0.1752239637
 22
-0.0918494137
 32
0.0
 13
-0.0174616148
 23
-0.1970655837
 33
0.0
 40
0.0
 40
0.0
 40
0.0
 40
0.0
 40
0.5000791155
 40
1.0
 40
1.0
 40
1.0
 40
1.0
 10
-53.7481667171
 20
21.4399632159
 30
0.0
 10
-53.777375332
 20
21.4246525581
 30
0.0
 10
-53.8290748156
 20
21.3788732224
 30
0.0
 10
-53.8520441577
 20
21.3136191786
 30
0.0
 10
-53.8549539663
 20
21.2807801117
 30
0.0
 11
-53.7481667171
 21
21.4399632159
 31
0.0
 11
-53.8218981875
 21
21.3739957608
 31
0.0
 11
-53.8549539663
 21
21.2807801117
 31
0.0
  0
SPLINE
  5
645
100
AcDbEntity
  8
0
100
AcDbSpline
 62
7
  6
CONTINUOUS
 70
0
 71
3
 72
9
 73
5
 74
3
 42
0.0000001
 43
0.0000001
 44
0.0000000001
 12
-0.0174616147
 22
0.1970655834
 32
0.0
 13
-0.1752239635
 23
0.0918494135
 33
0.0
 40
0.0
 40
0.0
 40
0.0
 40
0.0
 40
0.4999228887
 40
1.0
 40
1.0
 40
1.0
 40
1.0
 10
-47.6237978008
 20
21.2807801117
 30
0.0
 10
-47.6267076211
 20
21.3136193102
 30
0.0
 10
-47.6496770448
 20
21.3788733598
 30
0.0
 10
-47.7013765522
 20
21.4246526195
 30
0.0
 10
-47.7305850501
 20
21.4399632159
 30
0.0
 11
-47.6237978008
 21
21.2807801117
 31
0.0
 11
-47.6568538081
 21
21.3739961003
 31
0.0
 11
-47.7305850501
 21
21.4399632159
 31
0.0
  0
LINE
  5
646
100
AcDbEntity
  8
0
100
AcDbLine
 62
7
  6
CONTINUOUS
 10
-53.8549539663
 20
21.2807801117
 11
-53.8798308952
 21
21.0
  0
LINE
  5
647
100
AcDbEntity
  8
0
100
AcDbLine
 62
7
  6
CONTINUOUS
 10
-47.5989208719
 20
21.0
 11
-47.6237978008
 21
21.2807801117
  0
SPLINE
  5
648
100
AcDbEntity
  8
RACCORDO
100
AcDbSpline
 62
253
  6
CONTINUOUS
 70
0
 71
3
 72
9
 73
5
 74
3
 42
0.0000001
 43
0.0000001
 44
0.0000000001
 12
-0.4265916498
 22
0.0914814872
 32
0.0
 13
-0.3128751184
 23
0.304069825
 33
0.0
 40
0.0
 40
0.0
 40
0.0
 40
0.0
 40
0.5047319757
 40
1.0
 40
1.0
 40
1.0
 40
1.0
 10
-74.9211115874
 20
-19.1292182512
 30
0.0
 10
-74.9928830695
 20
-19.1138270406
 30
0.0
 10
-75.1318169517
 20
-19.0642989465
 30
0.0
 10
-75.2514430821
 20
-18.9776617504
 30
0.0
 10
-75.3030954294
 20
-18.9274630632
 30
0.0
 11
-74.9211115874
 21
-19.1292182512
 31
0.0
 11
-75.1282130811
 21
-19.0543765092
 31
0.0
 11
-75.3030954294
 21
-18.9274630632
 31
0.0
  0
SPLINE
  5
649
100
AcDbEntity
  8
RACCORDO
100
AcDbSpline
 62
253
  6
CONTINUOUS
 70
0
 71
3
 72
12
 73
8
 74
6
 42
0.0000001
 43
0.0000001
 44
0.0000000001
 12
-0.1177069655
 22
-0.0847342947
 32
0.0
 13
-0.1019183633
 23
0.1031866157
 33
0.0
 40
0.0
 40
0.0
 40
0.0
 40
0.0
 40
0.4050784686
 40
0.7053623762
 40
0.8152741948
 40
0.8991351628
 40
1.0
 40
1.0
 40
1.0
 40
1.0
 10
-80.9975875756
 20
-13.1559252807
 30
0.0
 10
-81.0134810947
 20
-13.1673666268
 30
0.0
 10
-81.0416271827
 20
-13.1867231072
 30
0.0
 10
-81.0753588354
 20
-13.2069555703
 30
0.0
 10
-81.0974737292
 20
-13.2167176719
 30
0.0
 10
-81.1105340388
 20
-13.2209334889
 30
0.0
 10
-81.1213127293
 20
-13.2212471759
 30
0.0
 10
-81.124739389
 20
-13.2177778755
 30
0.0
 11
-80.9975875756
 21
-13.1559252807
 31
0.0
 11
-81.0461511388
 21
-13.1889881826
 31
0.0
 11
-81.0839800003
 21
-13.2105681929
 31
0.0
 11
-81.0986126834
 21
-13.2168925999
 31
0.0
 11
-81.1103141802
 21
-13.2202101027
 31
0.0
 11
-81.124739389
 21
-13.2177778755
 31
0.0
  0
SPLINE
  5
64A
100
AcDbEntity
  8
RACCORDO
100
AcDbSpline
 62
253
  6
CONTINUOUS
 70
0
 71
3
 72
9
 73
5
 74
3
 42
0.0000001
 43
0.0000001
 44
0.0000000001
 12
0.0335554298
 22
-0.2844860478
 32
0.0
 13
0.1676681913
 23
-0.2322620415
 33
0.0
 40
0.0
 40
0.0
 40
0.0
 40
0.0
 40
0.5165116315
 40
1.0
 40
1.0
 40
1.0
 40
1.0
 10
-85.976006589
 20
-8.500997636
 30
0.0
 10
-85.9702293324
 20
-8.5499777535
 30
0.0
 10
-85.9489838808
 20
-8.6440719926
 30
0.0
 10
-85.9043256284
 20
-8.7300128991
 30
0.0
 10
-85.877303755
 20
-8.7674448976
 30
0.0
 11
-85.976006589
 21
-8.500997636
 31
0.0
 11
-85.9420361198
 21
-8.6450041106
 31
0.0
 11
-85.877303755
 21
-8.7674448976
 31
0.0
  0
SPLINE
  5
64B
100
AcDbEntity
  8
RACCORDO
100
AcDbSpline
 62
253
  6
CONTINUOUS
 70
0
 71
3
 72
9
 73
5
 74
3
 42
0.0000001
 43
0.0000001
 44
0.0000000001
 12
0.0465424636
 22
-0.3919660409
 32
0.0
 13
0.2994009979
 23
-0.2572209568
 33
0.0
 40
0.0
 40
0.0
 40
0.0
 40
0.0
 40
0.5193869064
 40
1.0
 40
1.0
 40
1.0
 40
1.0
 10
-85.9832997399
 20
-8.4947320463
 30
0.0
 10
-85.9752418912
 20
-8.5625927228
 30
0.0
 10
-85.9404575371
 20
-8.6925158868
 30
0.0
 10
-85.8584474217
 20
-8.8006700121
 30
0.0
 10
-85.8104820751
 20
-8.8418779321
 30
0.0
 11
-85.9832997399
 21
-8.4947320463
 31
0.0
 11
-85.9263690634
 21
-8.6916810273
 31
0.0
 11
-85.8104820751
 21
-8.8418779321
 31
0.0
  0
SPLINE
  5
64C
100
AcDbEntity
  8
RACCORDO
100
AcDbSpline
 62
253
  6
CONTINUOUS
 70
0
 71
3
 72
13
 73
9
 74
7
 42
0.0000001
 43
0.0000001
 44
0.0000000001
 12
-0.0158239582
 22
-0.8326896768
 32
0.0
 13
-0.8234134817
 23
-0.124950925
 33
0.0
 40
0.0
 40
0.0
 40
0.0
 40
0.0
 40
0.0844050385
 40
0.1756179802
 40
0.2783943373
 40
0.395384822
 40
0.6727697529
 40
1.0
 40
1.0
 40
1.0
 40
1.0
 10
-75.049117737
 20
9.5
 30
0.0
 10
-75.0495629443
 20
9.4765722653
 30
0.0
 10
-75.0589940012
 20
9.4276933457
 30
0.0
 10
-75.0965966139
 20
9.359084345
 30
0.0
 10
-75.155792829
 20
9.2953102844
 30
0.0
 10
-75.2675687724
 20
9.2133192614
 30
0.0
 10
-75.4534340617
 20
9.1329414925
 30
0.0
 10
-75.6178607971
 20
9.0959405604
 30
0.0
 10
-75.7076760628
 20
9.0823113197
 30
0.0
 11
-75.049117737
 21
9.5
 31
0.0
 11
-75.0619291983
 21
9.4308814125
 31
0.0
 11
-75.0974057774
 21
9.3637084024
 31
0.0
 11
-75.1547443169
 21
9.3001551794
 31
0.0
 11
-75.2326430778
 21
9.2416296548
 31
0.0
 11
-75.4424254014
 21
9.1448807211
 31
0.0
 11
-75.7076760628
 21
9.0823113197
 31
0.0
  0
SPLINE
  5
64D
100
AcDbEntity
  8
RACCORDO
100
AcDbSpline
 62
253
  6
CONTINUOUS
 70
0
 71
3
 72
21
 73
17
 74
15
 42
0.0000001
 43
0.0000001
 44
0.0000000001
 12
-0.2159498198
 22
0.1246786866
 32
0.0
 13
0.124676123
 23
0.2159512999
 33
0.0
 40
0.0
 40
0.0
 40
0.0
 40
0.0
 40
0.0012309956
 40
0.0048577891
 40
0.0108724035
 40
0.0192577379
 40
0.0430677323
 40
0.0761167291
 40
0.1180576822
 40
0.1684649141
 40
0.2269030746
 40
0.2927992599
 40
0.4442465838
 40
0.617092682
 40
0.8049439107
 40
1.0
 40
1.0
 40
1.0
 40
1.0
 10
-69.0143758836
 20
23.6778312164
 30
0.0
 10
-69.0144644947
 20
23.677882376
 30
0.0
 10
-69.0140423434
 20
23.6783756625
 30
0.0
 10
-69.0138755431
 20
23.6790611424
 30
0.0
 10
-69.0130343307
 20
23.6804510746
 30
0.0
 10
-69.0115987237
 20
23.6832000018
 30
0.0
 10
-69.0089049603
 20
23.6879712419
 30
0.0
 10
-69.0049155893
 20
23.695118709
 30
0.0
 10
-68.9997775265
 20
23.7041990033
 30
0.0
 10
-68.9935959529
 20
23.7150975832
 30
0.0
 10
-68.9864085713
 20
23.7277203413
 30
0.0
 10
-68.9750462855
 20
23.7476283167
 30
0.0
 10
-68.958931515
 20
23.7757740536
 30
0.0
 10
-68.9377348613
 20
23.8126903683
 30
0.0
 10
-68.9146921269
 20
23.8527265711
 30
0.0
 10
-68.8987911535
 20
23.8802966953
 30
0.0
 10
-68.8906848745
 20
23.8943375673
 30
0.0
 11
-69.0143758836
 21
23.6778312164
 31
0.0
 11
-69.0142728656
 21
23.678120371
 31
0.0
 11
-69.0138694426
 21
23.6789297725
 31
0.0
 11
-69.0131678034
 21
23.6802553169
 31
0.0
 11
-69.012170137
 21
23.6820929002
 31
0.0
 11
-69.0092954777
 21
23.6872877679
 31
0.0
 11
-69.0052659498
 21
23.6944764512
 31
0.0
 11
-69.0001240213
 21
23.7035833889
 31
0.0
 11
-68.9939220127
 21
23.7145161508
 31
0.0
 11
-68.9867134412
 21
23.7271802448
 31
0.0
 11
-68.9785690286
 21
23.7414515201
 31
0.0
 11
-68.9598090447
 21
23.7742268306
 31
0.0
 11
-68.9383497536
 21
23.8116052673
 31
0.0
 11
-68.9149848845
 21
23.8522040874
 31
0.0
 11
-68.8906848745
 21
23.8943375673
 31
0.0
  0
SPLINE
  5
64E
100
AcDbEntity
  8
RACCORDO
100
AcDbSpline
 62
253
  6
CONTINUOUS
 70
0
 71
3
 72
13
 73
9
 74
7
 42
0.0000001
 43
0.0000001
 44
0.0000000001
 12
-0.0158234219
 22
0.8326896483
 32
0.0
 13
-0.8234134372
 23
0.1249509605
 33
0.0
 40
0.0
 40
0.0
 40
0.0
 40
0.0
 40
0.0844050411
 40
0.1756179761
 40
0.2783943234
 40
0.3953848001
 40
0.6727697299
 40
1.0
 40
1.0
 40
1.0
 40
1.0
 10
-75.0491178298
 20
-9.5000000018
 30
0.0
 10
-75.049563022
 20
-9.4765722671
 30
0.0
 10
-75.0589940474
 20
-9.4276933444
 30
0.0
 10
-75.0965966234
 20
-9.359084331
 30
0.0
 10
-75.1557928098
 20
-9.2953102574
 30
0.0
 10
-75.2675687248
 20
-9.2133192145
 30
0.0
 10
-75.4534340008
 20
-9.132941424
 30
0.0
 10
-75.6178607324
 20
-9.0959404817
 30
0.0
 10
-75.7076759996
 20
-9.0823112361
 30
0.0
 11
-75.0491178298
 21
-9.5000000018
 31
0.0
 11
-75.0619292487
 21
-9.4308814075
 31
0.0
 11
-75.0974057908
 21
-9.3637083881
 31
0.0
 11
-75.1547442997
 21
-9.3001551539
 31
0.0
 11
-75.2326430372
 21
-9.2416296169
 31
0.0
 11
-75.4424253363
 21
-9.144880658
 31
0.0
 11
-75.7076759996
 21
-9.0823112361
 31
0.0
  0
SPLINE
  5
64F
100
AcDbEntity
  8
RACCORDO
100
AcDbSpline
 62
253
  6
CONTINUOUS
 70
0
 71
3
 72
21
 73
17
 74
15
 42
0.0000001
 43
0.0000001
 44
0.0000000001
 12
-0.0013090019
 22
0.2500055227
 32
0.0
 13
0.2500055225
 23
0.0013090378
 33
0.0
 40
0.0
 40
0.0
 40
0.0
 40
0.0
 40
0.1949175104
 40
0.3827157676
 40
0.5555641092
 40
0.7070467403
 40
0.7729674987
 40
0.8314332864
 40
0.8818659651
 40
0.9238296935
 40
0.9568995691
 40
0.9807240104
 40
0.9891139418
 40
0.9951320648
 40
0.9987621395
 40
1.0
 40
1.0
 40
1.0
 40
1.0
 10
-68.8906848745
 20
24.2329794573
 30
0.0
 10
-68.8907699237
 20
24.249222942
 30
0.0
 10
-68.8909206414
 20
24.2811167068
 30
0.0
 10
-68.8910912655
 20
24.3274151016
 30
0.0
 10
-68.8911979557
 20
24.3700938347
 30
0.0
 10
-68.8912330526
 20
24.4026162598
 30
0.0
 10
-68.8912218426
 20
24.425605693
 30
0.0
 10
-68.8911974831
 20
24.4401756627
 30
0.0
 10
-68.891153014
 20
24.452744301
 30
0.0
 10
-68.8911015963
 20
24.4632102358
 30
0.0
 10
-68.8910114352
 20
24.4714218069
 30
0.0
 10
-68.8909703133
 20
24.4769175939
 30
0.0
 10
-68.8908469356
 20
24.4800274849
 30
0.0
 10
-68.8908742726
 20
24.4816547744
 30
0.0
 10
-68.8906839133
 20
24.4823384231
 30
0.0
 10
-68.8907880319
 20
24.4829754902
 30
0.0
 10
-68.8906848745
 20
24.4829760304
 30
0.0
 11
-68.8906848745
 21
24.2329794573
 31
0.0
 11
-68.8909148389
 21
24.2817100367
 31
0.0
 11
-68.8910861959
 21
24.328660969
 31
0.0
 11
-68.8911915007
 21
24.371874473
 31
0.0
 11
-68.8912269659
 21
24.4097464699
 31
0.0
 11
-68.8912180913
 21
24.4262272471
 31
0.0
 11
-68.8911914851
 21
24.440844193
 31
0.0
 11
-68.8911473507
 21
24.4534527368
 31
0.0
 11
-68.8910861651
 21
24.463943866
 31
0.0
 11
-68.8910084263
 21
24.4722112654
 31
0.0
 11
-68.8909148306
 21
24.4781668536
 31
0.0
 11
-68.8908624515
 21
24.4802637574
 31
0.0
 11
-68.8908065611
 21
24.4817673036
 31
0.0
 11
-68.8907473164
 21
24.482672919
 31
0.0
 11
-68.8906848745
 21
24.4829760304
 31
0.0
  0
SPLINE
  5
650
100
AcDbEntity
  8
RACCORDO
100
AcDbSpline
 62
253
  6
CONTINUOUS
 70
0
 71
3
 72
9
 73
5
 74
3
 42
0.0000001
 43
0.0000001
 44
0.0000000001
 12
0.3162643154
 22
-0.4955295934
 32
0.0
 13
0.2608986314
 23
-0.5267870531
 33
0.0
 40
0.0
 40
0.0
 40
0.0
 40
0.0
 40
0.2844232332
 40
1.0
 40
1.0
 40
1.0
 40
1.0
 10
-74.9211175507
 20
-19.1292088085
 30
0.0
 10
-74.8911332443
 20
-19.1761888516
 30
0.0
 10
-74.7888245902
 20
-19.3433501068
 30
0.0
 10
-74.696055724
 20
-19.5162193562
 30
0.0
 10
-74.6338247243
 20
-19.6418715483
 30
0.0
 11
-74.9211175507
 21
-19.1292088085
 31
0.0
 11
-74.8337070641
 21
-19.2717396982
 31
0.0
 11
-74.6338247243
 21
-19.6418715483
 31
0.0
  0
SPLINE
  5
651
100
AcDbEntity
  8
RACCORDO
100
AcDbSpline
 62
253
  6
CONTINUOUS
 70
0
 71
3
 72
18
 73
14
 74
12
 42
0.0000001
 43
0.0000001
 44
0.0000000001
 12
0.1980221392
 22
-0.3998315306
 32
0.0
 13
-0.0385660498
 23
-0.4445117325
 33
0.0
 40
0.0
 40
0.0
 40
0.0
 40
0.0
 40
0.2229828875
 40
0.419111453
 40
0.5876814989
 40
0.7281502193
 40
0.8402516002
 40
0.8856942611
 40
0.924098402
 40
0.955375314
 40
0.9791737539
 40
0.9945783484
 40
1.0
 40
1.0
 40
1.0
 40
1.0
 10
-74.6338247243
 20
-19.6418715483
 30
0.0
 10
-74.6191062081
 20
-19.671590078
 30
0.0
 10
-74.5918847886
 20
-19.7276689268
 30
0.0
 10
-74.5549062811
 20
-19.8068682337
 30
0.0
 10
-74.5240708707
 20
-19.8753846738
 30
0.0
 10
-74.499175833
 20
-19.932859637
 30
0.0
 10
-74.4821864937
 20
-19.9738049093
 30
0.0
 10
-74.4715825835
 20
-20.0009451532
 30
0.0
 10
-74.4655834689
 20
-20.016995836
 30
0.0
 10
-74.4611800594
 20
-20.0301538099
 30
0.0
 10
-74.4577985965
 20
-20.040150379
 30
0.0
 10
-74.4566167253
 20
-20.046599326
 30
0.0
 10
-74.4552958361
 20
-20.0495683355
 30
0.0
 10
-74.4553655334
 20
-20.0503716647
 30
0.0
 11
-74.6338247243
 21
-19.6418715483
 31
0.0
 11
-74.590381138
 21
-19.7313762205
 31
0.0
 11
-74.5533708024
 21
-19.810673463
 31
0.0
 11
-74.5225327121
 21
-19.8792736482
 31
0.0
 11
-74.4976633644
 21
-19.9368029088
 31
0.0
 11
-74.4786171166
 21
-19.9830522127
 31
0.0
 11
-74.4712510863
 21
-20.0019425479
 31
0.0
 11
-74.4653179946
 21
-20.0180178153
 31
0.0
 11
-74.4608122922
 21
-20.0312256073
 31
0.0
 11
-74.457706388
 21
-20.0413796375
 31
0.0
 11
-74.4559314278
 21
-20.0480197456
 31
0.0
 11
-74.4553655334
 21
-20.0503716647
 31
0.0
  0
LINE
  5
652
100
AcDbEntity
  8
RACCORDO
100
AcDbLine
 62
253
  6
CONTINUOUS
 10
-81.1274828536
 20
-13.2162166498
 11
-81.1289829486
 21
-13.2141478073
  0
SPLINE
  5
653
100
AcDbEntity
  8
RACCORDO
100
AcDbSpline
 62
253
  6
CONTINUOUS
 70
0
 71
3
 72
10
 73
6
 74
4
 42
0.0000001
 43
0.0000001
 44
0.0000000001
 12
5.7012951508
 22
-5.7632736477
 32
0.0
 13
5.7983313645
 23
-5.665637027
 33
0.0
 40
0.0
 40
0.0
 40
0.0
 40
0.0
 40
0.5662455406
 40
0.8061858292
 40
1.0
 40
1.0
 40
1.0
 40
1.0
 10
-80.9975924463
 20
-13.155930638
 30
0.0
 10
-79.9214814615
 20
-14.243739972
 30
0.0
 10
-78.3706629009
 20
-15.7739761176
 30
0.0
 10
-76.4321649426
 20
-17.6566220373
 30
0.0
 10
-75.5916440398
 20
-18.4735663257
 30
0.0
 10
-75.2170444447
 20
-18.8395932398
 30
0.0
 11
-80.9975924463
 21
-13.155930638
 31
0.0
 11
-77.7370604422
 21
-16.3871884488
 31
0.0
 11
-76.3428447933
 21
-17.7435646812
 31
0.0
 11
-75.2170444447
 21
-18.8395932398
 31
0.0
  0
LINE
  5
654
100
AcDbEntity
  8
RACCORDO
100
AcDbLine
 62
253
  6
CONTINUOUS
 10
-75.2170444447
 20
-18.8395932398
 11
-74.9211169843
 21
-19.1292139656
  0
SPLINE
  5
655
100
AcDbEntity
  8
RACCORDO
100
AcDbSpline
 62
253
  6
CONTINUOUS
 70
0
 71
3
 72
13
 73
9
 74
7
 42
0.0000001
 43
0.0000001
 44
0.0000000001
 12
-1.2548300872
 22
9.6509663969
 32
0.0
 13
-0.2304808156
 23
9.7294722126
 33
0.0
 40
0.0
 40
0.0
 40
0.0
 40
0.0
 40
0.0643946849
 40
0.1483731922
 40
0.2509874522
 40
0.3711700662
 40
0.6589690178
 40
1.0
 40
1.0
 40
1.0
 40
1.0
 10
-74.9211169843
 20
-19.1292139656
 30
0.0
 10
-74.9480517804
 20
-18.9220569855
 30
0.0
 10
-75.0105555291
 20
-18.4447991651
 30
0.0
 10
-75.1111113059
 20
-17.6368030355
 30
0.0
 10
-75.2245439276
 20
-16.6480677751
 30
0.0
 10
-75.3934042681
 20
-15.0002491964
 30
0.0
 10
-75.5857690622
 20
-12.5775977963
 30
0.0
 10
-75.6738455845
 20
-10.538907692
 30
0.0
 10
-75.7000459508
 20
-9.4328905371
 30
0.0
 11
-74.9211169843
 21
-19.1292139656
 31
0.0
 11
-75.0017293682
 21
-18.5077180908
 31
0.0
 11
-75.1024778329
 21
-17.6966557434
 31
0.0
 11
-75.2162025429
 21
-16.7044895067
 31
0.0
 11
-75.3353556104
 21
-15.5409330362
 31
0.0
 11
-75.5567183231
 21
-12.7487766699
 31
0.0
 11
-75.7000459508
 21
-9.4328905371
 31
0.0
  0
SPLINE
  5
656
100
AcDbEntity
  8
RACCORDO
100
AcDbSpline
 62
253
  6
CONTINUOUS
 70
0
 71
3
 72
11
 73
7
 74
5
 42
0.0000001
 43
0.0000001
 44
0.0000000001
 12
5.1665504683
 22
-4.4475589977
 32
0.0
 13
4.7943460554
 23
-4.8464699194
 33
0.0
 40
0.0
 40
0.0
 40
0.0
 40
0.0
 40
0.2176677202
 40
0.4635549251
 40
0.7281362319
 40
1.0
 40
1.0
 40
1.0
 40
1.0
 10
-85.9760075021
 20
-8.500998092
 30
0.0
 10
-85.6011437483
 20
-8.8236947678
 30
0.0
 10
-84.8106667113
 20
-9.5200683907
 30
0.0
 10
-83.5900220528
 20
-10.6372323505
 30
0.0
 10
-82.2999928407
 20
-11.8605915558
 30
0.0
 10
-81.4320621077
 20
-12.7167374466
 30
0.0
 10
-80.9975924463
 20
-13.155930638
 30
0.0
 11
-85.9760075021
 21
-8.500998092
 31
0.0
 11
-84.8617371122
 21
-9.4809497768
 31
0.0
 11
-83.6246111435
 21
-10.6120390436
 31
0.0
 11
-82.3160495879
 21
-11.8534093598
 31
0.0
 11
-80.9975924463
 21
-13.155930638
 31
0.0
  0
LINE
  5
657
100
AcDbEntity
  8
RACCORDO
100
AcDbLine
 62
253
  6
CONTINUOUS
 10
-75.6999980647
 20
-9.4328972964
 11
-75.7002453155
 21
-9.4265229595
  0
LINE
  5
658
100
AcDbEntity
  8
RACCORDO
100
AcDbLine
 62
253
  6
CONTINUOUS
 10
-85.9832997399
 20
-8.4947320463
 11
-85.9760075021
 21
-8.500998092
  0
SPLINE
  5
659
100
AcDbEntity
  8
RACCORDO
100
AcDbSpline
 62
253
  6
CONTINUOUS
 70
0
 71
3
 72
20
 73
16
 74
14
 42
0.0000001
 43
0.0000001
 44
0.0000000001
 12
0.8614172069
 22
-0.3269520463
 32
0.0
 13
0.7293847688
 23
-0.5629698962
 33
0.0
 40
0.0
 40
0.0
 40
0.0
 40
0.0
 40
0.0038720225
 40
0.0087036626
 40
0.0154665189
 40
0.0347882866
 40
0.0618421716
 40
0.0966386946
 40
0.139206747
 40
0.1895791164
 40
0.2477888144
 40
0.3878638172
 40
0.5597460947
 40
0.7637264969
 40
1.0
 40
1.0
 40
1.0
 40
1.0
 10
-88.6305724524
 20
-6.3806098563
 30
0.0
 10
-88.6294606435
 20
-6.3810318449
 30
0.0
 10
-88.6274987401
 20
-6.3829904284
 30
0.0
 10
-88.6235095906
 20
-6.3855231547
 30
0.0
 10
-88.6158322122
 20
-6.3911422028
 30
0.0
 10
-88.6024879588
 20
-6.4005152883
 30
0.0
 10
-88.5822205167
 20
-6.4150434572
 30
0.0
 10
-88.556137204
 20
-6.4336970861
 30
0.0
 10
-88.5242923
 20
-6.4566116369
 30
0.0
 10
-88.4866713492
 20
-6.4838081831
 30
0.0
 10
-88.4249005176
 20
-6.5287150746
 30
0.0
 10
-88.3332413254
 20
-6.595973395
 30
0.0
 10
-88.2061014442
 20
-6.6905500518
 30
0.0
 10
-88.0560407362
 20
-6.8038083897
 30
0.0
 10
-87.948713238
 20
-6.8860511711
 30
0.0
 10
-87.8912684732
 20
-6.9303894609
 30
0.0
 11
-88.6305724524
 21
-6.3806098563
 31
0.0
 11
-88.6276590477
 21
-6.3826689372
 31
0.0
 11
-88.6240270088
 21
-6.3852431396
 31
0.0
 11
-88.6189460445
 21
-6.3888502141
 31
0.0
 11
-88.6044412362
 21
-6.3991722721
 31
0.0
 11
-88.584152416
 21
-6.4136536987
 31
0.0
 11
-88.5580862531
 21
-6.4323204253
 31
0.0
 11
-88.5262457733
 21
-6.4552222008
 31
0.0
 11
-88.4886332647
 21
-6.4824135935
 31
0.0
 11
-88.4452510172
 21
-6.5139491797
 31
0.0
 11
-88.3411922138
 21
-6.590295552
 31
0.0
 11
-88.2141120035
 21
-6.6848006438
 31
0.0
 11
-88.0640854245
 21
-6.7980022792
 31
0.0
 11
-87.8912684732
 21
-6.9303894609
 31
0.0
  0
LINE
  5
65A
100
AcDbEntity
  8
RACCORDO
100
AcDbLine
 62
253
  6
CONTINUOUS
 10
-87.7140334152
 20
-7.0681638862
 11
-87.6735531632
 21
-7.0998937939
  0
LINE
  5
65B
100
AcDbEntity
  8
RACCORDO
100
AcDbLine
 62
253
  6
CONTINUOUS
 10
-75.7002453206
 20
9.4265227227
 11
-75.6999980605
 21
9.4328972995
  0
SPLINE
  5
65C
100
AcDbEntity
  8
RACCORDO
100
AcDbSpline
 62
253
  6
CONTINUOUS
 70
0
 71
3
 72
39
 73
35
 74
33
 42
0.0000001
 43
0.0000001
 44
0.0000000001
 12
0.2471478498
 22
10.4330858693
 32
0.0
 13
-9.4782157311
 23
-4.367354962
 33
0.0
 40
0.0
 40
0.0
 40
0.0
 40
0.0
 40
0.2154477549
 40
0.3159012257
 40
0.4109218751
 40
0.5000703023
 40
0.5829557849
 40
0.6592063695
 40
0.7284661117
 40
0.7904009835
 40
0.8447397884
 40
0.8689813855
 40
0.8912283396
 40
0.9114481901
 40
0.9296083259
 40
0.9456790875
 40
0.9596444858
 40
0.971494203
 40
0.9766233361
 40
0.9812217336
 40
0.9852906701
 40
0.9888335647
 40
0.9918593674
 40
0.9943844929
 40
0.9954682529
 40
0.996441134
 40
0.9973107195
 40
0.9980863689
 40
0.9987697294
 40
0.9993599248
 40
0.9996142003
 40
0.9998186922
 40
0.9999530199
 40
1.0
 40
1.0
 40
1.0
 40
1.0
 10
-75.7000459483
 20
9.43289054
 30
0.0
 10
-75.6822967985
 20
10.1821521823
 30
0.0
 10
-75.6417961607
 20
11.2804929637
 30
0.0
 10
-75.5613338317
 20
12.7077116901
 30
0.0
 10
-75.4937391111
 20
13.6955346114
 30
0.0
 10
-75.4199226682
 20
14.6216098636
 30
0.0
 10
-75.3423197791
 20
15.4818312225
 30
0.0
 10
-75.2633638776
 20
16.2724231815
 30
0.0
 10
-75.1854808162
 20
16.989849516
 30
0.0
 10
-75.1110036492
 20
17.63095296
 30
0.0
 10
-75.0514611356
 20
18.1161221746
 30
0.0
 10
-75.0073879949
 20
18.4640875346
 30
0.0
 10
-74.9777712588
 20
18.694246527
 30
0.0
 10
-74.9505663705
 20
18.9033857491
 30
0.0
 10
-74.9260374134
 20
19.0912070154
 30
0.0
 10
-74.9044424887
 20
19.2574696309
 30
0.0
 10
-74.8859985066
 20
19.4020047517
 30
0.0
 10
-74.8729258608
 20
19.5088544077
 30
0.0
 10
-74.864478651
 20
19.5834383286
 30
0.0
 10
-74.8594895152
 20
19.6311725291
 30
0.0
 10
-74.8555995769
 20
19.6734708675
 30
0.0
 10
-74.8528996913
 20
19.7103805215
 30
0.0
 10
-74.8514307206
 20
19.7419846211
 30
0.0
 10
-74.8512229918
 20
19.7650742222
 30
0.0
 10
-74.8517871297
 20
19.7810042989
 30
0.0
 10
-74.852362506
 20
19.7911684875
 30
0.0
 10
-74.8529780205
 20
19.8002530757
 30
0.0
 10
-74.8530530943
 20
19.8083705506
 30
0.0
 10
-74.8524865096
 20
19.8154584755
 30
0.0
 10
-74.8511725092
 20
19.8207398532
 30
0.0
 10
-74.8497700863
 20
19.8239523567
 30
0.0
 10
-74.8485235615
 20
19.8259898113
 30
0.0
 10
-74.848336244
 20
19.8266929276
 30
0.0
 10
-74.8474382551
 20
19.8277132542
 30
0.0
 10
-74.8475866844
 20
19.8276448612
 30
0.0
 11
-75.7000459483
 21
9.43289054
 31
0.0
 11
-75.6171197631
 21
11.6797762994
 31
0.0
 11
-75.5581184176
 21
12.7264483593
 31
0.0
 11
-75.4904364328
 21
13.7157726317
 31
0.0
 11
-75.4165216616
 21
14.6431859194
 31
0.0
 11
-75.3388152668
 21
15.5046824431
 31
0.0
 11
-75.2597587782
 21
16.2964977231
 31
0.0
 11
-75.181780761
 21
17.0150746804
 31
0.0
 11
-75.1072180004
 21
17.6571126403
 31
0.0
 11
-75.0382052049
 21
18.219978064
 31
0.0
 11
-75.0064294132
 21
18.4709601785
 31
0.0
 11
-74.9768158862
 21
18.7012333085
 31
0.0
 11
-74.9496234421
 21
18.9104885115
 31
0.0
 11
-74.9251194864
 21
19.0984171227
 31
0.0
 11
-74.9035655626
 21
19.2647410235
 31
0.0
 11
-74.8852019796
 21
19.4093225665
 31
0.0
 11
-74.8703428286
 21
19.5320904012
 31
0.0
 11
-74.8643516385
 21
19.5852817549
 31
0.0
 11
-74.8594030613
 21
19.6330148616
 31
0.0
 11
-74.8555728807
 21
19.6753052428
 31
0.0
 11
-74.8529447694
 21
19.7121854135
 31
0.0
 11
-74.8515646325
 21
19.7437325542
 31
0.0
 11
-74.8514507247
 21
19.77008455
 31
0.0
 11
-74.8518427577
 21
19.7813878876
 31
0.0
 11
-74.8524025797
 21
19.7915254416
 31
0.0
 11
-74.8529068675
 21
19.8005864242
 31
0.0
 11
-74.8529287629
 21
19.8086810819
 31
0.0
 11
-74.8522467759
 21
19.8157799564
 31
0.0
 11
-74.8506868825
 21
19.8217384416
 31
0.0
 11
-74.8495957457
 21
19.8241573535
 31
0.0
 11
-74.8485755656
 21
19.826031795
 31
0.0
 11
-74.8478492433
 21
19.8272308049
 31
0.0
 11
-74.8475866844
 21
19.8276448612
 31
0.0
  0
SPLINE
  5
65D
100
AcDbEntity
  8
RACCORDO
100
AcDbSpline
 62
253
  6
CONTINUOUS
 70
0
 71
3
 72
21
 73
17
 74
15
 42
0.0000001
 43
0.0000001
 44
0.0000000001
 12
-0.1246761234
 22
0.2159513006
 32
0.0
 13
0.2159498205
 23
0.124678687
 33
0.0
 40
0.0
 40
0.0
 40
0.0
 40
0.0
 40
0.1950567068
 40
0.3829095638
 40
0.555756556
 40
0.7072039415
 40
0.7731000365
 40
0.831538382
 40
0.8819452735
 40
0.9238856831
 40
0.9569345375
 40
0.9807438825
 40
0.9891286791
 40
0.9951427672
 40
0.9987691609
 40
1.0
 40
1.0
 40
1.0
 40
1.0
 10
-68.8906848745
 20
-23.8943375673
 30
0.0
 10
-68.8987911792
 20
-23.8802966508
 30
0.0
 10
-68.9146922455
 20
-23.8527263646
 30
0.0
 10
-68.9377351104
 20
-23.8126899356
 30
0.0
 10
-68.95893187
 20
-23.7757734339
 30
0.0
 10
-68.9750466764
 20
-23.7476276346
 30
0.0
 10
-68.9864089667
 20
-23.7277196467
 30
0.0
 10
-68.9935963378
 20
-23.715096906
 30
0.0
 10
-68.9997778809
 20
-23.7041983756
 30
0.0
 10
-69.0049158989
 20
-23.6951181538
 30
0.0
 10
-69.0089052177
 20
-23.6879707851
 30
0.0
 10
-69.0115989268
 20
-23.6831996415
 30
0.0
 10
-69.0130344692
 20
-23.680450838
 30
0.0
 10
-69.0138756057
 20
-23.6790610148
 30
0.0
 10
-69.0140423963
 20
-23.6783756045
 30
0.0
 10
-69.0144644834
 20
-23.6778823695
 30
0.0
 10
-69.0143758836
 20
-23.6778312164
 30
0.0
 11
-68.8906848745
 21
-23.8943375673
 31
0.0
 11
-68.9149849613
 21
-23.8522039537
 31
0.0
 11
-68.9383500328
 21
-23.8116047816
 31
0.0
 11
-68.9598094343
 21
-23.774226151
 31
0.0
 11
-68.978569425
 21
-23.7414508265
 31
0.0
 11
-68.9867138254
 21
-23.7271795702
 31
0.0
 11
-68.9939224189
 21
-23.7145154355
 31
0.0
 11
-69.0001243836
 21
-23.7035827463
 31
0.0
 11
-69.0052662439
 21
-23.6944759256
 31
0.0
 11
-69.0092957556
 21
-23.6872872739
 31
0.0
 11
-69.0121703365
 21
-23.6820925479
 31
0.0
 11
-69.0131679371
 21
-23.6802550814
 31
0.0
 11
-69.0138695115
 21
-23.6789296512
 31
0.0
 11
-69.0142728852
 21
-23.6781203365
 31
0.0
 11
-69.0143758836
 21
-23.6778312164
 31
0.0
  0
SPLINE
  5
65E
100
AcDbEntity
  8
RACCORDO
100
AcDbSpline
 62
253
  6
CONTINUOUS
 70
0
 71
3
 72
22
 73
18
 74
16
 42
0.0000001
 43
0.0000001
 44
0.0000000001
 12
-0.4859230429
 22
-0.07301737
 32
0.0
 13
0.0729959643
 23
-0.485926259
 33
0.0
 40
0.0
 40
0.0
 40
0.0
 40
0.0
 40
0.1959383104
 40
0.3839987353
 40
0.5568376629
 40
0.7081348445
 40
0.773858349
 40
0.8321351879
 40
0.8824066352
 40
0.9241900674
 40
0.957120815
 40
0.9701558511
 40
0.9808560342
 40
0.9892049602
 40
0.9951877644
 40
0.9987899256
 40
1.0
 40
1.0
 40
1.0
 40
1.0
 10
-73.5810408901
 20
-21.0854772805
 30
0.0
 10
-73.6127778701
 20
-21.0902462472
 30
0.0
 10
-73.6749735001
 20
-21.0996078817
 30
0.0
 10
-73.7651565215
 20
-21.1132297285
 30
0.0
 10
-73.8481023966
 20
-21.1258080389
 30
0.0
 10
-73.9112298528
 20
-21.1354267126
 30
0.0
 10
-73.9558021484
 20
-21.1422532782
 30
0.0
 10
-73.9840141196
 20
-21.1465929222
 30
0.0
 10
-74.0083504715
 20
-21.1503542112
 30
0.0
 10
-74.0285718659
 20
-21.153508846
 30
0.0
 10
-74.0427846912
 20
-21.1557349815
 30
0.0
 10
-74.0519269415
 20
-21.1572125692
 30
0.0
 10
-74.0571631207
 20
-21.1580243445
 30
0.0
 10
-74.0610824063
 20
-21.1587655989
 30
0.0
 10
-74.0642642449
 20
-21.1590932881
 30
0.0
 10
-74.0654999456
 20
-21.1597014436
 30
0.0
 10
-74.0667963355
 20
-21.1595576824
 30
0.0
 10
-74.066766892
 20
-21.1597536847
 30
0.0
 11
-73.5810408901
 21
-21.0854772805
 31
0.0
 11
-73.6762482041
 21
-21.0998082908
 31
0.0
 11
-73.76762034
 21
-21.1136113719
 31
0.0
 11
-73.8515892457
 21
-21.1263476104
 31
0.0
 11
-73.9250843853
 21
-21.1375511731
 31
0.0
 11
-73.9570070757
 21
-21.1424415752
 31
0.0
 11
-73.9853100543
 21
-21.1467959718
 31
0.0
 11
-74.0097219515
 21
-21.1505726219
 31
0.0
 11
-74.0300083739
 21
-21.1537353092
 31
0.0
 11
-74.0459922344
 21
-21.1562563802
 31
0.0
 11
-74.0523169923
 21
-21.157267911
 31
0.0
 11
-74.0575070005
 21
-21.1581097454
 31
0.0
 11
-74.0615542753
 21
-21.15878051
 31
0.0
 11
-74.0644515359
 21
-21.1592789349
 31
0.0
 11
-74.0661915017
 21
-21.1596037498
 31
0.0
 11
-74.066766892
 21
-21.1597536847
 31
0.0
  0
SPLINE
  5
65F
100
AcDbEntity
  8
RACCORDO
100
AcDbSpline
 62
253
  6
CONTINUOUS
 70
0
 71
3
 72
21
 73
17
 74
15
 42
0.0000001
 43
0.0000001
 44
0.0000000001
 12
-0.2500055185
 22
0.0013090378
 32
0.0
 13
0.0013090019
 23
0.2500055187
 33
0.0
 40
0.0
 40
0.0
 40
0.0
 40
0.0
 40
0.0012384407
 40
0.0048700036
 40
0.0108900873
 40
0.0192820228
 40
0.0431088886
 40
0.0761794467
 40
0.1181454674
 40
0.1685796924
 40
0.2270451223
 40
0.2929667501
 40
0.4444496604
 40
0.6172940816
 40
0.8050851425
 40
1.0
 40
1.0
 40
1.0
 40
1.0
 10
-68.8906848745
 20
-24.4829760304
 30
0.0
 10
-68.8907880802
 20
-24.48297549
 30
0.0
 10
-68.8906838494
 20
-24.4823381359
 30
0.0
 10
-68.8908743067
 20
-24.4816542453
 30
0.0
 10
-68.8908469245
 20
-24.4800264605
 30
0.0
 10
-68.8909703234
 20
-24.4769160491
 30
0.0
 10
-68.8910114489
 20
-24.4714198346
 30
0.0
 10
-68.8911016252
 20
-24.4632078127
 30
0.0
 10
-68.8911530299
 20
-24.4527415016
 30
0.0
 10
-68.8911974911
 20
-24.4401725732
 30
0.0
 10
-68.8912218481
 20
-24.4256024323
 30
0.0
 10
-68.8912330477
 20
-24.4026129335
 30
0.0
 10
-68.8911979514
 20
-24.37009074
 30
0.0
 10
-68.8910912571
 20
-24.3274129108
 30
0.0
 10
-68.8909206386
 20
-24.2811156642
 30
0.0
 10
-68.8907699225
 20
-24.2492227206
 30
0.0
 10
-68.8906848745
 20
-24.2329794573
 30
0.0
 11
-68.8906848745
 21
-24.4829760304
 31
0.0
 11
-68.8907473168
 21
-24.4826727709
 31
0.0
 11
-68.8908065626
 21
-24.4817667828
 31
0.0
 11
-68.8908624551
 21
-24.4802627462
 31
0.0
 11
-68.8909148372
 21
-24.4781653412
 31
0.0
 11
-68.8910084425
 21
-24.4722091471
 31
0.0
 11
-68.8910861884
 21
-24.4639415773
 31
0.0
 11
-68.8911473689
 21
-24.4534498751
 31
0.0
 11
-68.8911914949
 21
-24.4408409449
 31
0.0
 11
-68.8912180962
 21
-24.4262240886
 31
0.0
 11
-68.891226965
 21
-24.4097430944
 31
0.0
 11
-68.8911914949
 21
-24.3718710283
 31
0.0
 11
-68.8910861884
 21
-24.3286585051
 31
0.0
 11
-68.8909148372
 21
-24.2817093727
 31
0.0
 11
-68.8906848745
 21
-24.2329794573
 31
0.0
  0
SPLINE
  5
660
100
AcDbEntity
  8
RACCORDO
100
AcDbSpline
 62
253
  6
CONTINUOUS
 70
0
 71
3
 72
20
 73
16
 74
14
 42
0.0000001
 43
0.0000001
 44
0.0000000001
 12
-0.0267937997
 22
-0.4995278765
 32
0.0
 13
0.4995603769
 23
-0.02618085
 33
0.0
 40
0.0
 40
0.0
 40
0.0
 40
0.0
 40
0.1948048853
 40
0.3822493937
 40
0.5548660318
 40
0.7062185514
 40
0.7720376535
 40
0.830439154
 40
0.8808546665
 40
0.9227951754
 40
0.9558952135
 40
0.9798207578
 40
0.9944095195
 40
0.9982382929
 40
1.0
 40
1.0
 40
1.0
 40
1.0
 10
-73.1160827082
 20
-21.5103413262
 30
0.0
 10
-73.1178225626
 20
-21.5427781498
 30
0.0
 10
-73.1210841983
 20
-21.6064344381
 30
0.0
 10
-73.1254793093
 20
-21.6988533359
 30
0.0
 10
-73.1290395926
 20
-21.7840575039
 30
0.0
 10
-73.1311863895
 20
-21.8490191705
 30
0.0
 10
-73.1323584007
 20
-21.8949569089
 30
0.0
 10
-73.1329223706
 20
-21.9240694595
 30
0.0
 10
-73.1332032431
 20
-21.9492146007
 30
0.0
 10
-73.1332092818
 20
-21.9701128769
 30
0.0
 10
-73.1329252919
 20
-21.9866716607
 30
0.0
 10
-73.1324469943
 20
-21.9984723926
 30
0.0
 10
-73.1317149271
 20
-22.0057367409
 30
0.0
 10
-73.131052808
 20
-22.0088039826
 30
0.0
 10
-73.1304917655
 20
-22.0098150316
 30
0.0
 10
-73.1301984058
 20
-22.0098304059
 30
0.0
 11
-73.1160827082
 21
-21.5103413262
 31
0.0
 11
-73.121086273
 21
-21.6076631423
 31
0.0
 11
-73.1255031432
 21
-21.7013274137
 31
0.0
 11
-73.129053892
 21
-21.7876051529
 31
0.0
 11
-73.1315251358
 21
-21.8632782966
 31
0.0
 11
-73.1323542502
 21
-21.8961935949
 31
0.0
 11
-73.1329053348
 21
-21.9254035108
 31
0.0
 11
-73.1331690838
 21
-21.9506222874
 31
0.0
 11
-73.1331413142
 21
-21.9716028386
 31
0.0
 11
-73.1328257797
 21
-21.9881579918
 31
0.0
 11
-73.132226939
 21
-22.0001116577
 31
0.0
 11
-73.131349516
 21
-22.007356689
 31
0.0
 11
-73.1308078657
 21
-22.009193833
 31
0.0
 11
-73.1301984058
 21
-22.0098304059
 31
0.0
  0
SPLINE
  5
661
100
AcDbEntity
  8
RACCORDO
100
AcDbSpline
 62
7
  6
CONTINUOUS
 70
0
 71
3
 72
10
 73
6
 74
4
 42
0.0000001
 43
0.0000001
 44
0.0000000001
 12
0.2470511738
 22
0.1471364492
 32
0.0
 13
0.2490186178
 23
0.1437739222
 33
0.0
 40
0.0
 40
0.0
 40
0.0
 40
0.0
 40
0.086531514
 40
0.4709630139
 40
1.0
 40
1.0
 40
1.0
 40
1.0
 10
-68.1393758836
 20
23.1726497308
 30
0.0
 10
-68.1322499795
 20
23.1768937107
 30
0.0
 10
-68.093403246
 20
23.1998854026
 30
0.0
 10
-68.0103413568
 20
23.2477182574
 30
0.0
 10
-67.9345982276
 20
23.2916333906
 30
0.0
 10
-67.8906848745
 20
23.3169872981
 30
0.0
 11
-68.1393758836
 21
23.1726497308
 31
0.0
 11
-68.117965921
 21
23.1853267123
 31
0.0
 11
-68.0223758147
 21
23.2408405642
 31
0.0
 11
-67.8906848745
 21
23.3169872981
 31
0.0
  0
SPLINE
  5
662
100
AcDbEntity
  8
RACCORDO
100
AcDbSpline
 62
253
  6
CONTINUOUS
 70
0
 71
3
 72
22
 73
18
 74
16
 42
0.0000001
 43
0.0000001
 44
0.0000000001
 12
-0.4859230492
 22
0.0730173985
 32
0.0
 13
0.0729957908
 23
0.4859262955
 33
0.0
 40
0.0
 40
0.0
 40
0.0
 40
0.0
 40
0.1959383168
 40
0.3839987542
 40
0.556837682
 40
0.7081348604
 40
0.7738583634
 40
0.8321351988
 40
0.8824066444
 40
0.9241900738
 40
0.9571208185
 40
0.9701558541
 40
0.9808560367
 40
0.989204962
 40
0.9951877655
 40
0.9987899261
 40
1.0
 40
1.0
 40
1.0
 40
1.0
 10
-73.5810408901
 20
21.0854772805
 30
0.0
 10
-73.6127778715
 20
21.0902462492
 30
0.0
 10
-73.6749735053
 20
21.099607888
 30
0.0
 10
-73.7651565312
 20
21.1132297396
 30
0.0
 10
-73.8481024092
 20
21.1258080528
 30
0.0
 10
-73.9112298659
 20
21.1354267275
 30
0.0
 10
-73.9558021611
 20
21.1422532928
 30
0.0
 10
-73.984014132
 20
21.1465929361
 30
0.0
 10
-74.0083504832
 20
21.1503542241
 30
0.0
 10
-74.028571877
 20
21.1535088574
 30
0.0
 10
-74.0427847019
 20
21.1557349913
 30
0.0
 10
-74.0519269519
 20
21.1572125776
 30
0.0
 10
-74.0571631312
 20
21.1580243516
 30
0.0
 10
-74.0610824166
 20
21.1587656054
 30
0.0
 10
-74.0642642554
 20
21.1590932922
 30
0.0
 10
-74.0654999557
 20
21.1597014487
 30
0.0
 10
-74.0667963459
 20
21.1595576844
 30
0.0
 10
-74.0667669025
 20
21.1597536866
 30
0.0
 11
-73.5810408901
 21
21.0854772805
 31
0.0
 11
-73.6762482084
 21
21.0998082968
 31
0.0
 11
-73.7676203517
 21
21.1136113831
 31
0.0
 11
-73.851589259
 21
21.1263476243
 31
0.0
 11
-73.9250843984
 21
21.1375511878
 31
0.0
 11
-73.9570070888
 21
21.1424415897
 31
0.0
 11
-73.9853100664
 21
21.1467959856
 31
0.0
 11
-74.0097219635
 21
21.1505726346
 31
0.0
 11
-74.0300083851
 21
21.1537353204
 31
0.0
 11
-74.0459922448
 21
21.1562563895
 31
0.0
 11
-74.0523170028
 21
21.1572679192
 31
0.0
 11
-74.0575070111
 21
21.1581097525
 31
0.0
 11
-74.0615542858
 21
21.158780516
 31
0.0
 11
-74.0644515463
 21
21.1592789395
 31
0.0
 11
-74.0661915121
 21
21.1596037531
 31
0.0
 11
-74.0667669025
 21
21.1597536866
 31
0.0
  0
SPLINE
  5
663
100
AcDbEntity
  8
RACCORDO
100
AcDbSpline
 62
253
  6
CONTINUOUS
 70
0
 71
3
 72
21
 73
17
 74
15
 42
0.0000001
 43
0.0000001
 44
0.0000000001
 12
-0.0261537512
 22
0.4991951998
 32
0.0
 13
0.4991947837
 23
0.02616169
 33
0.0
 40
0.0
 40
0.0
 40
0.0
 40
0.0
 40
0.1949450083
 40
0.3825242932
 40
0.5552624243
 40
0.7067120117
 40
0.7725678414
 40
0.8309964024
 40
0.8814269906
 40
0.9233674158
 40
0.9564475786
 40
0.9803238809
 40
0.9887448367
 40
0.9948083851
 40
0.9985211301
 40
1.0
 40
1.0
 40
1.0
 40
1.0
 10
-73.1127566309
 20
21.5105156385
 30
0.0
 10
-73.1144561453
 20
21.542954176
 30
0.0
 10
-73.1176834899
 20
21.6066112803
 30
0.0
 10
-73.1220465927
 20
21.6990300948
 30
0.0
 10
-73.12573262
 20
21.7842244944
 30
0.0
 10
-73.1282351859
 20
21.8491686671
 30
0.0
 10
-73.1297658651
 20
21.8950873194
 30
0.0
 10
-73.1306145883
 20
21.9241885956
 30
0.0
 10
-73.1312119753
 20
21.9493047278
 30
0.0
 10
-73.1315561884
 20
21.9702173939
 30
0.0
 10
-73.1316444125
 20
21.9866658627
 30
0.0
 10
-73.1315159909
 20
21.9976238958
 30
0.0
 10
-73.131237608
 20
22.003924514
 30
0.0
 10
-73.1309937034
 20
22.0070914061
 30
0.0
 10
-73.1307274535
 20
22.0086861727
 30
0.0
 10
-73.1304444858
 20
22.0098175094
 30
0.0
 10
-73.1301984044
 20
22.009830406
 30
0.0
 11
-73.1127566309
 21
21.5105156385
 31
0.0
 11
-73.1176880876
 21
21.607839861
 31
0.0
 11
-73.1220992302
 21
21.7015031506
 31
0.0
 11
-73.1258135682
 21
21.7877715375
 31
0.0
 11
-73.1286930814
 21
21.8634233536
 31
0.0
 11
-73.1297828948
 21
21.8963253119
 31
0.0
 11
-73.1306253321
 21
21.9255204204
 31
0.0
 11
-73.131212083
 21
21.9507228261
 31
0.0
 11
-73.1315370822
 21
21.9716854804
 31
0.0
 11
-73.1315977436
 21
21.988221476
 31
0.0
 11
-73.1313922114
 21
22.0001549887
 31
0.0
 11
-73.1311904091
 21
22.0043596148
 31
0.0
 11
-73.1309236375
 21
22.007378898
 31
0.0
 11
-73.1305927011
 21
22.0092050808
 31
0.0
 11
-73.1301984044
 21
22.009830406
 31
0.0
  0
SPLINE
  5
664
100
AcDbEntity
  8
RACCORDO
100
AcDbSpline
 62
7
  6
CONTINUOUS
 70
0
 71
3
 72
12
 73
8
 74
6
 42
0.0000001
 43
0.0000001
 44
0.0000000001
 12
-0.0
 22
0.5002397956
 32
0.0
 13
0.0112716375
 23
0.5001379727
 33
0.0
 40
0.0
 40
0.0
 40
0.0
 40
0.0
 40
0.1949000392
 40
0.3824877233
 40
0.706862482
 40
0.9237499069
 40
1.0
 40
1.0
 40
1.0
 40
1.0
 10
-66.6393758836
 20
21.8497711479
 30
0.0
 10
-66.6393758836
 20
21.8822700665
 30
0.0
 10
-66.6402494113
 20
21.9460449088
 30
0.0
 10
-66.6408878533
 20
22.0639110368
 30
0.0
 10
-66.6404070642
 20
22.1854426695
 30
0.0
 10
-66.6404623845
 20
22.2884151736
 30
0.0
 10
-66.6396623714
 20
22.3372881443
 30
0.0
 10
-66.6393758836
 20
22.35
 30
0.0
 11
-66.6393758836
 21
21.8497711479
 31
0.0
 11
-66.6401289997
 21
21.9472649949
 31
0.0
 11
-66.6406568851
 21
22.0411023349
 31
0.0
 11
-66.6404818087
 21
22.2033674034
 31
0.0
 11
-66.6400226592
 21
22.3118621529
 31
0.0
 11
-66.6393758836
 21
22.35
 31
0.0
  0
SPLINE
  5
665
100
AcDbEntity
  8
RACCORDO
100
AcDbSpline
 62
7
  6
CONTINUOUS
 70
0
 71
3
 72
12
 73
8
 74
6
 42
0.0000001
 43
0.0000001
 44
0.0000000001
 12
0.0
 22
-0.5002397956
 32
0.0
 13
0.0112716375
 23
-0.5001379727
 33
0.0
 40
0.0
 40
0.0
 40
0.0
 40
0.0
 40
0.1949000392
 40
0.3824877233
 40
0.706862482
 40
0.9237499069
 40
1.0
 40
1.0
 40
1.0
 40
1.0
 10
-66.6393758836
 20
-21.8497711479
 30
0.0
 10
-66.6393758836
 20
-21.8822700665
 30
0.0
 10
-66.6402494113
 20
-21.9460449088
 30
0.0
 10
-66.6408878533
 20
-22.0639110368
 30
0.0
 10
-66.6404070642
 20
-22.1854426695
 30
0.0
 10
-66.6404623845
 20
-22.2884151736
 30
0.0
 10
-66.6396623714
 20
-22.3372881443
 30
0.0
 10
-66.6393758836
 20
-22.35
 30
0.0
 11
-66.6393758836
 21
-21.8497711479
 31
0.0
 11
-66.6401289997
 21
-21.9472649949
 31
0.0
 11
-66.6406568851
 21
-22.0411023349
 31
0.0
 11
-66.6404818087
 21
-22.2033674034
 31
0.0
 11
-66.6400226592
 21
-22.3118621529
 31
0.0
 11
-66.6393758836
 21
-22.35
 31
0.0
  0
SPLINE
  5
666
100
AcDbEntity
  8
RACCORDO
100
AcDbSpline
 62
7
  6
CONTINUOUS
 70
0
 71
3
 72
16
 73
12
 74
10
 42
0.0000001
 43
0.0000001
 44
0.0000000001
 12
-0.3818175655
 22
-1.0002444762
 32
0.0
 13
-1.0704786431
 23
-0.0186852905
 33
0.0
 40
0.0
 40
0.0
 40
0.0
 40
0.0
 40
0.1183308414
 40
0.2392761397
 40
0.3006991053
 40
0.3626507949
 40
0.4878654312
 40
0.61460025
 40
0.7424614219
 40
0.8710648589
 40
1.0
 40
1.0
 40
1.0
 40
1.0
 10
-46.8949857652
 20
-21.579624253
 30
0.0
 10
-46.9100460298
 20
-21.6190775098
 30
0.0
 10
-46.9510788516
 20
-21.6950065756
 30
0.0
 10
-47.0205450875
 20
-21.7775435531
 30
0.0
 10
-47.0845692843
 20
-21.8368453151
 30
0.0
 10
-47.1541619113
 20
-21.8919910609
 30
0.0
 10
-47.2492231826
 20
-21.9519628073
 30
0.0
 10
-47.3723915771
 20
-22.0093177276
 30
0.0
 10
-47.5026162824
 20
-22.0521006375
 30
0.0
 10
-47.6376457487
 20
-22.0797420896
 30
0.0
 10
-47.7295233477
 20
-22.0873823604
 30
0.0
 10
-47.775530786
 20
-22.088185424
 30
0.0
 11
-46.8949857652
 21
-21.579624253
 31
0.0
 11
-46.9541140483
 21
-21.6916697149
 31
0.0
 11
-47.0367849919
 21
-21.7913338363
 31
0.0
 11
-47.0849780991
 21
-21.8360782615
 31
0.0
 11
-47.1369207747
 21
-21.8773259324
 31
0.0
 11
-47.2500976822
 21
-21.9491804689
 31
0.0
 11
-47.3730070882
 21
-22.0066643628
 31
0.0
 11
-47.5030350692
 21
-22.0494727196
 31
0.0
 11
-47.6379399334
 21
-22.0770175735
 31
0.0
 11
-47.775530786
 21
-22.088185424
 31
0.0
  0
SPLINE
  5
667
100
AcDbEntity
  8
RACCORDO
100
AcDbSpline
 62
253
  6
CONTINUOUS
 70
0
 71
3
 72
32
 73
28
 74
26
 42
0.0000001
 43
0.0000001
 44
0.0000000001
 12
0.999844338
 22
-0.018198772
 32
0.0
 13
-0.0087245516
 23
-0.9999718885
 33
0.0
 40
0.0
 40
0.0
 40
0.0
 40
0.0
 40
0.0003710795
 40
0.0013009336
 40
0.0028221295
 40
0.0049396101
 40
0.0076540624
 40
0.0109644521
 40
0.0148693065
 40
0.0193668192
 40
0.0301285532
 40
0.0432248361
 40
0.0586243589
 40
0.0762907825
 40
0.09618126
 40
0.1182485499
 40
0.1424391886
 40
0.168695283
 40
0.2271459109
 40
0.2930380829
 40
0.3657376229
 40
0.4445446752
 40
0.5287005186
 40
0.6173949684
 40
0.7097739366
 40
0.8049487063
 40
1.0
 40
1.0
 40
1.0
 40
1.0
 10
-45.830649682
 20
-4.491424784
 30
0.0
 10
-45.8305260081
 20
-4.491427035
 30
0.0
 10
-45.8303596153
 20
-4.4919849652
 30
0.0
 10
-45.8301905111
 20
-4.4927803765
 30
0.0
 10
-45.8299984079
 20
-4.4943633543
 30
0.0
 10
-45.8298135269
 20
-4.4964418594
 30
0.0
 10
-45.8296284048
 20
-4.4991619506
 30
0.0
 10
-45.829448799
 20
-4.5024626959
 30
0.0
 10
-45.8292737785
 20
-4.5063645969
 30
0.0
 10
-45.8290333993
 20
-4.5127475729
 30
0.0
 10
-45.828758138
 20
-4.5221960356
 30
0.0
 10
-45.8284664538
 20
-4.5352786551
 30
0.0
 10
-45.8281993606
 20
-4.5506640053
 30
0.0
 10
-45.82795784
 20
-4.5683146801
 30
0.0
 10
-45.8277429536
 20
-4.5881884744
 30
0.0
 10
-45.8275554587
 20
-4.6102373791
 30
0.0
 10
-45.8273959204
 20
-4.634408447
 30
0.0
 10
-45.8272147507
 20
-4.6707074887
 30
0.0
 10
-45.8270702926
 20
-4.7209074673
 30
0.0
 10
-45.8270176002
 20
-4.7865889131
 30
0.0
 10
-45.8270817862
 20
-4.85905589
 30
0.0
 10
-45.8272625641
 20
-4.9376106308
 30
0.0
 10
-45.8275585811
 20
-5.0214967436
 30
0.0
 10
-45.8279671885
 20
-5.1099064483
 30
0.0
 10
-45.8284845981
 20
-5.201988655
 30
0.0
 10
-45.8293199821
 20
-5.3295222105
 30
0.0
 10
-45.8300824813
 20
-5.4262622536
 30
0.0
 10
-45.8306497263
 20
-5.4912775238
 30
0.0
 11
-45.830649682
 21
-4.491424784
 31
0.0
 11
-45.8304382797
 21
-4.4917297623
 31
0.0
 11
-45.8302322491
 21
-4.4926365132
 31
0.0
 11
-45.8300317159
 21
-4.4941444487
 31
0.0
 11
-45.8298368056
 21
-4.4962529608
 31
0.0
 11
-45.8296476384
 21
-4.4989608407
 31
0.0
 11
-45.8294643283
 21
-4.5022661842
 31
0.0
 11
-45.8292869889
 21
-4.5061670485
 31
0.0
 11
-45.8291157317
 21
-4.5106613442
 31
0.0
 11
-45.8287918563
 21
-4.5214183106
 31
0.0
 11
-45.8284934622
 21
-4.534511324
 31
0.0
 11
-45.828221264
 21
-4.5499085942
 31
0.0
 11
-45.8279759339
 21
-4.56757349
 31
0.0
 11
-45.8277580552
 21
-4.587462972
 31
0.0
 11
-45.8275681552
 21
-4.6095296644
 31
0.0
 11
-45.8274066872
 21
-4.6337200048
 31
0.0
 11
-45.827274045
 21
-4.6599760254
 31
0.0
 11
-45.827096439
 21
-4.7184269649
 31
0.0
 11
-45.8270370476
 21
-4.7843197656
 31
0.0
 11
-45.8270964435
 21
-4.8570200046
 31
0.0
 11
-45.8272740544
 21
-4.9358276407
 31
0.0
 11
-45.8275681695
 21
-5.0199838073
 31
0.0
 11
-45.8279759535
 21
-5.108678202
 31
0.0
 11
-45.8284934861
 21
-5.2010566395
 31
0.0
 11
-45.8291157636
 21
-5.2962303217
 31
0.0
 11
-45.8306497263
 21
-5.4912775238
 31
0.0
  0
SPLINE
  5
668
100
AcDbEntity
  8
RACCORDO
100
AcDbSpline
 62
253
  6
CONTINUOUS
 70
0
 71
3
 72
32
 73
28
 74
26
 42
0.0000001
 43
0.0000001
 44
0.0000000001
 12
0.9998414045
 22
-0.0183203224
 32
0.0
 13
-0.0087254594
 23
-0.9999711669
 33
0.0
 40
0.0
 40
0.0
 40
0.0
 40
0.0
 40
0.0003710848
 40
0.0013009382
 40
0.0028221266
 40
0.0049396006
 40
0.0076540508
 40
0.0109644413
 40
0.0148692972
 40
0.0193668103
 40
0.0301285418
 40
0.0432248219
 40
0.0586243423
 40
0.0762907631
 40
0.0961812373
 40
0.1182485239
 40
0.142439159
 40
0.1686952499
 40
0.2271458706
 40
0.2930380358
 40
0.3657375703
 40
0.4445446188
 40
0.528700461
 40
0.6173949129
 40
0.7097738872
 40
0.8049486678
 40
1.0
 40
1.0
 40
1.0
 40
1.0
 10
-55.6306496823
 20
22.2252970343
 30
0.0
 10
-55.630526007
 20
22.2252947681
 30
0.0
 10
-55.6303596457
 20
22.2247368465
 30
0.0
 10
-55.6301905091
 20
22.2239414283
 30
0.0
 10
-55.6299984086
 20
22.2223584636
 30
0.0
 10
-55.629813515
 20
22.2202799635
 30
0.0
 10
-55.6296283957
 20
22.2175598778
 30
0.0
 10
-55.6294487923
 20
22.2142591343
 30
0.0
 10
-55.6292737758
 20
22.2103572351
 30
0.0
 10
-55.6290333979
 20
22.2039742638
 30
0.0
 10
-55.6287581337
 20
22.1945258096
 30
0.0
 10
-55.6284664487
 20
22.181443202
 30
0.0
 10
-55.6281993571
 20
22.1660578655
 30
0.0
 10
-55.6279578367
 20
22.1484072061
 30
0.0
 10
-55.6277429502
 20
22.1285334291
 30
0.0
 10
-55.6275554556
 20
22.1064845435
 30
0.0
 10
-55.6273959179
 20
22.0823134964
 30
0.0
 10
-55.6272147486
 20
22.0460144854
 30
0.0
 10
-55.6270702914
 20
21.9958145484
 30
0.0
 10
-55.6270176003
 20
21.9301331559
 30
0.0
 10
-55.6270817874
 20
21.8576662361
 30
0.0
 10
-55.6272625659
 20
21.7791115549
 30
0.0
 10
-55.6275585834
 20
21.695225503
 30
0.0
 10
-55.6279671901
 20
21.606815859
 30
0.0
 10
-55.6284845991
 20
21.5147337116
 30
0.0
 10
-55.6293199916
 20
21.3872002287
 30
0.0
 10
-55.6300824157
 20
21.2904602375
 30
0.0
 10
-55.6306497199
 20
21.2254450015
 30
0.0
 11
-55.6306496823
 21
22.2252970343
 31
0.0
 11
-55.6304382919
 21
22.2249920416
 31
0.0
 11
-55.6302322577
 21
22.2240852929
 31
0.0
 11
-55.6300317147
 21
22.2225773673
 31
0.0
 11
-55.6298367972
 21
22.220468864
 31
0.0
 11
-55.6296476291
 21
22.2177609883
 31
0.0
 11
-55.6294643216
 21
22.2144556462
 31
0.0
 11
-55.6292869854
 21
22.2105547831
 31
0.0
 11
-55.6291157296
 21
22.2060604901
 31
0.0
 11
-55.6287918526
 21
22.1953035338
 31
0.0
 11
-55.6284934575
 21
22.1822105327
 31
0.0
 11
-55.6282212602
 21
22.1668132759
 31
0.0
 11
-55.6279759305
 21
22.1491483955
 31
0.0
 11
-55.6277580519
 21
22.1292589309
 31
0.0
 11
-55.6275681522
 21
22.1071922576
 31
0.0
 11
-55.6274066847
 21
22.083001938
 31
0.0
 11
-55.6272740428
 21
22.0567459398
 31
0.0
 11
-55.6270964378
 21
21.9982950492
 31
0.0
 11
-55.6270370476
 21
21.9324023022
 31
0.0
 11
-55.6270964446
 21
21.8597021207
 31
0.0
 11
-55.6272740561
 21
21.7808945446
 31
0.0
 11
-55.6275681715
 21
21.6967384392
 31
0.0
 11
-55.6279759552
 21
21.6080441057
 31
0.0
 11
-55.6284934882
 21
21.5156657281
 31
0.0
 11
-55.6291157621
 21
21.4204921029
 31
0.0
 11
-55.6306497199
 21
21.2254450015
 31
0.0
  0
SPLINE
  5
669
100
AcDbEntity
  8
RACCORDO
100
AcDbSpline
 62
7
  6
CONTINUOUS
 70
0
 71
3
 72
17
 73
13
 74
11
 42
0.0000001
 43
0.0000001
 44
0.0000000001
 12
0.0
 22
-0.9921454394
 32
0.0
 13
-0.5774401992
 23
-0.8067932755
 33
0.0
 40
0.0
 40
0.0
 40
0.0
 40
0.0
 40
0.0394860088
 40
0.0838751656
 40
0.1330184677
 40
0.1864551885
 40
0.2436347051
 40
0.3040141426
 40
0.4324425986
 40
0.5684843581
 40
0.7096578019
 40
1.0
 40
1.0
 40
1.0
 40
1.0
 10
-55.1393758836
 20
-4.4678782481
 30
0.0
 10
-55.1393758836
 20
-4.4809368693
 30
0.0
 10
-55.1424415679
 20
-4.5086814494
 30
0.0
 10
-55.1534154738
 20
-4.5513620151
 30
0.0
 10
-55.1700321339
 20
-4.5970996068
 30
0.0
 10
-55.191448088
 20
-4.6454295593
 30
0.0
 10
-55.2169111302
 20
-4.6959431387
 30
0.0
 10
-55.2562209872
 20
-4.767182483
 30
0.0
 10
-55.3121051568
 20
-4.8589846156
 30
0.0
 10
-55.3856420356
 20
-4.9711994636
 30
0.0
 10
-55.4918206909
 20
-5.1259927052
 30
0.0
 10
-55.5747645948
 20
-5.2421307985
 30
0.0
 10
-55.6306496804
 20
-5.3202128428
 30
0.0
 11
-55.1393758836
 21
-4.4678782481
 31
0.0
 11
-55.143116487
 21
-4.506875122
 31
0.0
 11
-55.153667117
 21
-4.5496331599
 31
0.0
 11
-55.1700408583
 21
-4.5955589173
 31
0.0
 11
-55.1913299438
 21
-4.6441138038
 31
0.0
 11
-55.2167376048
 21
-4.694836468
 31
0.0
 11
-55.2455825395
 21
-4.7473398085
 31
0.0
 11
-55.3113725379
 21
-4.8564611071
 31
0.0
 11
-55.3850986654
 21
-4.9695196136
 31
0.0
 11
-55.4641513726
 21
-5.0851429608
 31
0.0
 11
-55.6306496804
 21
-5.3202128428
 31
0.0
  0
SPLINE
  5
66A
100
AcDbEntity
  8
RACCORDO
100
AcDbSpline
 62
7
  6
CONTINUOUS
 70
0
 71
3
 72
9
 73
5
 74
3
 42
0.0000001
 43
0.0000001
 44
0.0000000001
 12
0.0421819132
 22
0.0004762478
 32
0.0
 13
0.0414924494
 23
0.0076103388
 33
0.0
 40
0.0
 40
0.0
 40
0.0
 40
0.0
 40
0.5413116619
 40
1.0
 40
1.0
 40
1.0
 40
1.0
 10
-49.8263465981
 20
-22.1229165613
 30
0.0
 10
-49.818735411
 20
-22.1228306284
 30
0.0
 10
-49.8046925902
 20
-22.1216055591
 30
0.0
 10
-49.7907883166
 20
-22.1194917794
 30
0.0
 10
-49.7844442824
 20
-22.1183281882
 30
0.0
 11
-49.8263465981
 21
-22.1229165613
 31
0.0
 11
-49.8035729225
 21
-22.1212439314
 31
0.0
 11
-49.7844442824
 21
-22.1183281882
 31
0.0
  0
SPLINE
  5
66B
100
AcDbEntity
  8
RACCORDO
100
AcDbSpline
 62
7
  6
CONTINUOUS
 70
0
 71
3
 72
9
 73
5
 74
3
 42
0.0000001
 43
0.0000001
 44
0.0000000001
 12
0.0721467181
 22
0.0132327925
 32
0.0
 13
0.0679099422
 23
0.0277217511
 33
0.0
 40
0.0
 40
0.0
 40
0.0
 40
0.0
 40
0.2486684746
 40
1.0
 40
1.0
 40
1.0
 40
1.0
 10
-49.7844442824
 20
-22.1183281882
 30
0.0
 10
-49.7784640776
 20
-22.1172313287
 30
0.0
 10
-49.7545394249
 20
-22.1121571832
 30
0.0
 10
-49.7311748361
 20
-22.1045233867
 30
0.0
 10
-49.7141672093
 20
-22.0975806448
 30
0.0
 11
-49.7844442824
 21
-22.1183281882
 31
0.0
 11
-49.7666000959
 21
-22.1145494901
 31
0.0
 11
-49.7141672093
 21
-22.0975806448
 31
0.0
  0
SPLINE
  5
66C
100
AcDbEntity
  8
RACCORDO
100
AcDbSpline
 62
7
  6
CONTINUOUS
 70
0
 71
3
 72
15
 73
11
 74
9
 42
0.0000001
 43
0.0000001
 44
0.0000000001
 12
0.5718422094
 22
0.2334336753
 32
0.0
 13
0.1404863562
 23
0.6014635292
 33
0.0
 40
0.0
 40
0.0
 40
0.0
 40
0.0
 40
0.1051149246
 40
0.2160505796
 40
0.3335064541
 40
0.4575275376
 40
0.5875638402
 40
0.722498078
 40
0.8606822153
 40
1.0
 40
1.0
 40
1.0
 40
1.0
 10
-49.7141672093
 20
-22.0975806448
 30
0.0
 10
-49.6941308257
 20
-22.0894015238
 30
0.0
 10
-49.6543183989
 20
-22.0690768963
 30
0.0
 10
-49.5983020186
 20
-22.0290031062
 30
0.0
 10
-49.54526747
 20
-21.9792013972
 30
0.0
 10
-49.4960601639
 20
-21.9204266228
 30
0.0
 10
-49.4515908815
 20
-21.8536405917
 30
0.0
 10
-49.4128643494
 20
-21.7800636231
 30
0.0
 10
-49.3809583772
 20
-21.7012280059
 30
0.0
 10
-49.3649480811
 20
-21.6462552964
 30
0.0
 10
-49.3584239985
 20
-21.6183237742
 30
0.0
 11
-49.7141672093
 21
-22.0975806448
 31
0.0
 11
-49.6562252123
 21
-22.0682904216
 31
0.0
 11
-49.6003386327
 21
-22.028646511
 31
0.0
 11
-49.547286054
 21
-21.9791643808
 31
0.0
 11
-49.4979546168
 21
-21.9205617516
 31
0.0
 11
-49.4533161368
 21
-21.8537914782
 31
0.0
 11
-49.414423084
 21
-21.7800805498
 31
0.0
 11
-49.38239925
 21
-21.7009663151
 31
0.0
 11
-49.3584239985
 21
-21.6183237742
 31
0.0
  0
SPLINE
  5
66D
100
AcDbEntity
  8
RACCORDO
100
AcDbSpline
 62
7
  6
CONTINUOUS
 70
0
 71
3
 72
11
 73
7
 74
5
 42
0.0000001
 43
0.0000001
 44
0.0000000001
 12
-0.972416355
 22
0.0
 32
0.0
 13
-0.9641435465
 23
0.1265732558
 33
0.0
 40
0.0
 40
0.0
 40
0.0
 40
0.0
 40
0.2408776141
 40
0.4883430419
 40
0.7416490484
 40
1.0
 40
1.0
 40
1.0
 40
1.0
 10
-48.3713547448
 20
-17.0
 30
0.0
 10
-48.4494325219
 20
-17.0
 30
0.0
 10
-48.6077367975
 20
-16.9944442645
 30
0.0
 10
-48.8473602456
 20
-16.97460043
 30
0.0
 10
-49.0918747699
 20
-16.9468533531
 30
0.0
 10
-49.2563467493
 20
-16.9255246353
 30
0.0
 10
-49.3393758836
 20
-16.9146245283
 30
0.0
 11
-48.3713547448
 21
-17.0
 31
0.0
 11
-48.6054740416
 21
-16.992691892
 31
0.0
 11
-48.8453516393
 21
-16.9735588574
 31
0.0
 11
-49.0901680368
 21
-16.9463939206
 31
0.0
 11
-49.3393758836
 21
-16.9146245283
 31
0.0
  0
SPLINE
  5
66E
100
AcDbEntity
  8
RACCORDO
100
AcDbSpline
 62
253
  6
CONTINUOUS
 70
0
 71
3
 72
32
 73
28
 74
26
 42
0.0000001
 43
0.0000001
 44
0.0000000001
 12
0.0000001847
 22
-1.0002008695
 32
0.0
 13
-1.0002008387
 23
-0.000248577
 33
0.0
 40
0.0
 40
0.0
 40
0.0
 40
0.0
 40
0.1950557138
 40
0.290233695
 40
0.3826160229
 40
0.4713136842
 40
0.5554723643
 40
0.6342817118
 40
0.706982886
 40
0.7728759416
 40
0.8313266274
 40
0.8575824178
 40
0.8817725164
 40
0.9038390191
 40
0.9237284491
 40
0.9413935507
 40
0.9567914618
 40
0.9698858264
 40
0.9806453178
 40
0.9851415821
 40
0.9890451004
 40
0.9923540645
 40
0.9950670001
 40
0.9971828727
 40
0.9987023728
 40
0.999630466
 40
1.0
 40
1.0
 40
1.0
 40
1.0
 10
-45.8306496823
 20
-15.9999949476
 30
0.0
 10
-45.8306496703
 20
-16.0650265791
 30
0.0
 10
-45.8307311075
 20
-16.1617906074
 30
0.0
 10
-45.8310084053
 20
-16.2893546113
 30
0.0
 10
-45.8312944578
 20
-16.3814586697
 30
0.0
 10
-45.8316572909
 20
-16.4698885902
 30
0.0
 10
-45.8320932953
 20
-16.5537928898
 30
0.0
 10
-45.832598055
 20
-16.6323634707
 30
0.0
 10
-45.8331663237
 20
-16.7048436884
 30
0.0
 10
-45.8337922946
 20
-16.7705355717
 30
0.0
 10
-45.834374949
 20
-16.8207421742
 30
0.0
 10
-45.8348730043
 20
-16.8570449198
 30
0.0
 10
-45.8352435664
 20
-16.881217745
 30
0.0
 10
-45.8356235735
 20
-16.9032675905
 30
0.0
 10
-45.8360119967
 20
-16.9231414933
 30
0.0
 10
-45.8364076601
 20
-16.9407914289
 30
0.0
 10
-45.8368091357
 20
-16.9561751801
 30
0.0
 10
-45.8372151085
 20
-16.9692553245
 30
0.0
 10
-45.8375729396
 20
-16.9787010256
 30
0.0
 10
-45.8378691155
 20
-16.9850812598
 30
0.0
 10
-45.8380782693
 20
-16.988980902
 30
0.0
 10
-45.8382867007
 20
-16.9922791149
 30
0.0
 10
-45.8384957522
 20
-16.9949965853
 30
0.0
 10
-45.838698504
 20
-16.9970719213
 30
0.0
 10
-45.8389052054
 20
-16.9986523087
 30
0.0
 10
-45.8390799139
 20
-16.999443809
 30
0.0
 10
-45.8392527187
 20
-16.9999999694
 30
0.0
 10
-45.8393759214
 20
-17.0
 30
0.0
 11
-45.8306496823
 21
-15.9999949476
 31
0.0
 11
-45.830817356
 21
-16.1950897701
 31
0.0
 11
-45.8310254383
 21
-16.2902866423
 31
0.0
 11
-45.831313944
 21
-16.3826870766
 31
0.0
 11
-45.8316800908
 21
-16.4714017989
 31
0.0
 11
-45.8321203531
 21
-16.5555762325
 31
0.0
 11
-45.8326304894
 21
-16.6343997597
 31
0.0
 11
-45.8332055864
 21
-16.7071132631
 31
0.0
 11
-45.8338401048
 21
-16.7730165002
 31
0.0
 11
-45.8345279328
 21
-16.8314748805
 31
0.0
 11
-45.834889786
 21
-16.8577334518
 31
0.0
 11
-45.8352624471
 21
-16.8819255393
 31
0.0
 11
-45.835645016
 21
-16.9039931586
 31
0.0
 11
-45.8360365706
 21
-16.92388273
 31
0.0
 11
-45.8364361712
 21
-16.9415468607
 31
0.0
 11
-45.8368428591
 21
-16.9569424942
 31
0.0
 11
-45.8372556396
 21
-16.9700329825
 31
0.0
 11
-45.8376735196
 21
-16.980786519
 31
0.0
 11
-45.8378840654
 21
-16.9852787551
 31
0.0
 11
-45.8380955167
 21
-16.9891773273
 31
0.0
 11
-45.8383077434
 21
-16.9924801447
 31
0.0
 11
-45.8385206147
 21
-16.9951852625
 31
0.0
 11
-45.8387339997
 21
-16.9972907749
 31
0.0
 11
-45.8389477671
 21
-16.9987954715
 31
0.0
 11
-45.839161785
 21
-16.999698743
 31
0.0
 11
-45.8393759214
 21
-17.0
 31
0.0
  0
LINE
  5
66F
100
AcDbEntity
  8
RACCORDO
100
AcDbLine
 62
253
  6
CONTINUOUS
 10
-49.3584239182
 20
-21.6183237736
 11
-48.3398150414
 21
-21.602321879
  0
LINE
  5
670
100
AcDbEntity
  8
RACCORDO
100
AcDbLine
 62
253
  6
CONTINUOUS
 10
-48.3398150414
 20
-21.602321879
 11
-46.8949857695
 21
-21.5796242481
  0
SPLINE
  5
671
100
AcDbEntity
  8
RACCORDO
100
AcDbSpline
 62
7
  6
CONTINUOUS
 70
0
 71
3
 72
17
 73
13
 74
11
 42
0.0000001
 43
0.0000001
 44
0.0000000001
 12
0.5769689508
 22
-0.8160816085
 32
0.0
 13
0.0
 23
-0.9994410247
 33
0.0
 40
0.0
 40
0.0
 40
0.0
 40
0.0
 40
0.2899031426
 40
0.4309417046
 40
0.5669461518
 40
0.695457984
 40
0.7559250239
 40
0.8132171581
 40
0.8667800676
 40
0.9160427132
 40
0.9605127324
 40
1.0
 40
1.0
 40
1.0
 40
1.0
 10
-49.8306496804
 20
-16.0
 30
0.0
 10
-49.774894643
 20
-16.078861541
 30
0.0
 10
-49.692130254
 20
-16.1961791879
 30
0.0
 10
-49.5861328562
 20
-16.3525197937
 30
0.0
 10
-49.5126390716
 20
-16.4659044583
 30
0.0
 10
-49.4567258032
 20
-16.5586631976
 30
0.0
 10
-49.417337846
 20
-16.630649554
 30
0.0
 10
-49.3917873722
 20
-16.6817057949
 30
0.0
 10
-49.3702690081
 20
-16.7305449567
 30
0.0
 10
-49.353547108
 20
-16.7767395776
 30
0.0
 10
-49.3424830991
 20
-16.8197988172
 30
0.0
 10
-49.3393758836
 20
-16.8477733002
 30
0.0
 10
-49.3393758836
 20
-16.8609283653
 30
0.0
 11
-49.8306496804
 21
-16.0
 31
0.0
 11
-49.6645333057
 21
-16.2373926106
 31
0.0
 11
-49.5856041018
 21
-16.3541822712
 31
0.0
 11
-49.5119223947
 21
-16.4684081112
 31
0.0
 11
-49.446077233
 21
-16.5786861578
 31
0.0
 11
-49.4171653968
 21
-16.631754814
 31
0.0
 11
-49.3916678361
 21
-16.6830246347
 31
0.0
 11
-49.3702732496
 21
-16.7320965254
 31
0.0
 11
-49.3537920516
 21
-16.7784912026
 31
0.0
 11
-49.3431537619
 21
-16.8216444084
 31
0.0
 11
-49.3393758836
 21
-16.8609283653
 31
0.0
  0
SPLINE
  5
672
100
AcDbEntity
  8
RACCORDO
100
AcDbSpline
 62
253
  6
CONTINUOUS
 70
0
 71
3
 72
22
 73
18
 74
16
 42
0.0000001
 43
0.0000001
 44
0.0000000001
 12
0.169934242
 22
0.9842031381
 32
0.0
 13
-0.0087137703
 23
0.9987279579
 33
0.0
 40
0.0
 40
0.0
 40
0.0
 40
0.0
 40
0.0034413246
 40
0.0091287728
 40
0.0170549611
 40
0.0272035468
 40
0.0540758668
 40
0.0895061921
 40
0.1331753968
 40
0.1846890631
 40
0.2435814707
 40
0.3093199348
 40
0.3813096966
 40
0.4588993533
 40
0.6280254723
 40
0.8105902989
 40
1.0
 40
1.0
 40
1.0
 40
1.0
 10
-49.8302440138
 20
-22.1229028837
 30
0.0
 10
-49.8300490808
 20
-22.1217738962
 30
0.0
 10
-49.8297817217
 20
-22.1187411372
 30
0.0
 10
-49.8294322778
 20
-22.1130764993
 30
0.0
 10
-49.8291131687
 20
-22.105170278
 30
0.0
 10
-49.8286576851
 20
-22.0902139491
 30
0.0
 10
-49.828194726
 20
-22.0660966953
 30
0.0
 10
-49.8277549454
 20
-22.0308192718
 30
0.0
 10
-49.8274150782
 20
-21.9873363546
 30
0.0
 10
-49.8271766916
 20
-21.936041846
 30
0.0
 10
-49.8270456404
 20
-21.8773995423
 30
0.0
 10
-49.8270235595
 20
-21.811940187
 30
0.0
 10
-49.8271113989
 20
-21.7402561563
 30
0.0
 10
-49.827382777
 20
-21.6341523972
 30
0.0
 10
-49.8280018169
 20
-21.4912366658
 30
0.0
 10
-49.8291205824
 20
-21.3110957534
 30
0.0
 10
-49.8300995698
 20
-21.1872610538
 30
0.0
 10
-49.8306497274
 20
-21.1242047991
 30
0.0
 11
-49.8302440138
 21
-22.1229028837
 31
0.0
 11
-49.829858919
 21
-22.1194874471
 31
0.0
 11
-49.8294949232
 21
-22.1138186917
 31
0.0
 11
-49.8291544684
 21
-22.1059096088
 31
0.0
 11
-49.8288375751
 21
-22.0957785016
 31
0.0
 11
-49.8282753735
 21
-22.0689452318
 31
0.0
 11
-49.8278137015
 21
-22.0335616402
 31
0.0
 11
-49.8274566248
 21
-21.9899477863
 31
0.0
 11
-49.8272074135
 21
-21.938498293
 31
0.0
 11
-49.8270683131
 21
-21.8796787248
 31
0.0
 11
-49.8270405857
 21
-21.8140213898
 31
0.0
 11
-49.8271244822
 21
-21.7421205144
 31
0.0
 11
-49.8273192435
 21
-21.6646268504
 31
0.0
 11
-49.8280333135
 21
-21.4957109473
 31
0.0
 11
-49.8291569923
 21
-21.3133748736
 31
0.0
 11
-49.8306497274
 21
-21.1242047991
 31
0.0
  0
SPLINE
  5
673
100
AcDbEntity
  8
RACCORDO
100
AcDbSpline
 62
7
  6
CONTINUOUS
 70
0
 71
3
 72
9
 73
5
 74
3
 42
0.0000001
 43
0.0000001
 44
0.0000000001
 12
-0.0000000155
 22
-0.1895678089
 32
0.0
 13
-0.0431175961
 23
-0.1845990983
 33
0.0
 40
0.0
 40
0.0
 40
0.0
 40
0.0
 40
0.5003724708
 40
1.0
 40
1.0
 40
1.0
 40
1.0
 10
-49.3393758836
 20
-21.4300317911
 30
0.0
 10
-49.3393758862
 20
-21.4616499621
 30
0.0
 10
-49.3416307722
 20
-21.5248865438
 30
0.0
 10
-49.3512430055
 20
-21.5875801765
 30
0.0
 10
-49.3584239182
 20
-21.6183237736
 30
0.0
 11
-49.3393758836
 21
-21.4300317911
 31
0.0
 11
-49.3434745302
 21
-21.5247977118
 31
0.0
 11
-49.3584239182
 21
-21.6183237736
 31
0.0
  0
SPLINE
  5
674
100
AcDbEntity
  8
ASSI
100
AcDbSpline
 62
7
  6
CONTINUOUS
 70
0
 71
3
 72
11
 73
7
 74
5
 42
0.0000001
 43
0.0000001
 44
0.0000000001
 12
-0.3806973347
 22
-0.9973098163
 32
0.0
 13
-1.0673379202
 23
-0.018630469
 33
0.0
 40
0.0
 40
0.0
 40
0.0
 40
0.0
 40
0.2386974708
 40
0.4872815623
 40
0.7421716609
 40
1.0
 40
1.0
 40
1.0
 40
1.0
 10
-46.8949857652
 20
-21.579624253
 30
0.0
 10
-46.9252762621
 20
-21.6589760299
 30
0.0
 10
-47.0297963001
 20
-21.8048316753
 30
0.0
 10
-47.2468089286
 20
-21.9600912198
 30
0.0
 10
-47.5012522322
 20
-22.0598583508
 30
0.0
 10
-47.6838007982
 20
-22.0865842697
 30
0.0
 10
-47.775530786
 20
-22.088185424
 30
0.0
 11
-46.8949857652
 21
-21.579624253
 31
0.0
 11
-47.0367849919
 21
-21.7913338363
 31
0.0
 11
-47.2500976822
 21
-21.9491804689
 31
0.0
 11
-47.5030350692
 21
-22.0494727196
 31
0.0
 11
-47.775530786
 21
-22.088185424
 31
0.0
  0
LINE
  5
675
100
AcDbEntity
  8
ASSI
100
AcDbLine
 62
253
  6
CONTINUOUS
 10
-48.3398150414
 20
-21.602321879
 11
-46.8949857695
 21
-21.5796242481
  0
LINE
  5
676
100
AcDbEntity
  8
ASSI
100
AcDbLine
 62
253
  6
CONTINUOUS
 10
-49.3584239182
 20
-21.6183237736
 11
-48.3398150414
 21
-21.602321879
  0
SPLINE
  5
677
100
AcDbEntity
  8
ASSI
100
AcDbSpline
 62
7
  6
CONTINUOUS
 70
0
 71
3
 72
10
 73
6
 74
4
 42
0.0000001
 43
0.0000001
 44
0.0000000001
 12
0.1078941038
 22
0.0012181603
 32
0.0
 13
0.10069392
 23
0.0387731354
 33
0.0
 40
0.0
 40
0.0
 40
0.0
 40
0.0
 40
0.2780989039
 40
0.5189956662
 40
1.0
 40
1.0
 40
1.0
 40
1.0
 10
-49.8263465981
 20
-22.1229165613
 30
0.0
 10
-49.8163448541
 20
-22.1228036383
 30
0.0
 10
-49.7977101991
 20
-22.1208533768
 30
0.0
 10
-49.7623377146
 20
-22.1143137867
 30
0.0
 10
-49.7374047558
 20
-22.106610493
 30
0.0
 10
-49.7212600185
 20
-22.100393811
 30
0.0
 11
-49.8263465981
 21
-22.1229165613
 31
0.0
 11
-49.7964538348
 21
-22.1202990411
 31
0.0
 11
-49.7708980042
 21
-22.1155518939
 31
0.0
 11
-49.7212600185
 21
-22.100393811
 31
0.0
  0
SPLINE
  5
678
100
AcDbEntity
  8
ASSI
100
AcDbSpline
 62
7
  6
CONTINUOUS
 70
0
 71
3
 72
10
 73
6
 74
4
 42
0.0000001
 43
0.0000001
 44
0.0000000001
 12
0.5006049921
 22
0.2728225851
 32
0.0
 13
0.1296750994
 23
0.5551773498
 33
0.0
 40
0.0
 40
0.0
 40
0.0
 40
0.0
 40
0.46139648
 40
0.7256086275
 40
1.0
 40
1.0
 40
1.0
 40
1.0
 10
-49.6734810517
 20
-22.078214783
 30
0.0
 10
-49.5964885913
 20
-22.0362549896
 30
0.0
 10
-49.4953080722
 20
-21.9332639141
 30
0.0
 10
-49.4034324415
 20
-21.7668590066
 30
0.0
 10
-49.3702845747
 20
-21.6691023992
 30
0.0
 10
-49.3584239985
 20
-21.6183237742
 30
0.0
 11
-49.6734810517
 21
-22.078214783
 31
0.0
 11
-49.4817678442
 21
-21.898097557
 31
0.0
 11
-49.4082989151
 21
-21.7665963978
 31
0.0
 11
-49.3584239985
 21
-21.6183237742
 31
0.0
  0
SPLINE
  5
679
100
AcDbEntity
  8
ASSI
100
AcDbSpline
 62
7
  6
CONTINUOUS
 70
0
 71
3
 72
13
 73
9
 74
7
 42
0.0000001
 43
0.0000001
 44
0.0000000001
 12
0.5767836217
 22
-0.8158194737
 32
0.0
 13
-0.0
 23
-0.9991199928
 33
0.0
 40
0.0
 40
0.0
 40
0.0
 40
0.0
 40
0.2899962928
 40
0.5671124229
 40
0.6956655478
 40
0.8134420446
 40
0.9162381076
 40
1.0
 40
1.0
 40
1.0
 40
1.0
 10
-49.8306496804
 20
-16.0
 30
0.0
 10
-49.774894643
 20
-16.078861541
 30
0.0
 10
-49.6660891602
 20
-16.2332254087
 30
0.0
 10
-49.5369135805
 20
-16.4256828694
 30
0.0
 10
-49.4468922649
 20
-16.5749885694
 30
0.0
 10
-49.3922535568
 20
-16.6778175902
 30
0.0
 10
-49.3531358721
 20
-16.7713004803
 30
0.0
 10
-49.3393758836
 20
-16.8330323048
 30
0.0
 10
-49.3393758836
 20
-16.8609283653
 30
0.0
 11
-49.8306496804
 21
-16.0
 31
0.0
 11
-49.6645333057
 21
-16.2373926106
 31
0.0
 11
-49.5119223947
 21
-16.4684081112
 31
0.0
 11
-49.446077233
 21
-16.5786861578
 31
0.0
 11
-49.3916678361
 21
-16.6830246347
 31
0.0
 11
-49.3537920516
 21
-16.7784912026
 31
0.0
 11
-49.3393758836
 21
-16.8609283653
 31
0.0
  0
SPLINE
  5
67A
100
AcDbEntity
  8
ASSI
100
AcDbSpline
 62
253
  6
CONTINUOUS
 70
0
 71
3
 72
17
 73
13
 74
11
 42
0.0000001
 43
0.0000001
 44
0.0000000001
 12
0.1699337293
 22
0.9842001683
 32
0.0
 13
-0.008713744
 23
0.9987249443
 33
0.0
 40
0.0
 40
0.0
 40
0.0
 40
0.0
 40
0.0091263147
 40
0.027200836
 40
0.054073237
 40
0.0895036692
 40
0.1846866953
 40
0.3093178846
 40
0.4588977206
 40
0.6280243499
 40
0.8105897274
 40
1.0
 40
1.0
 40
1.0
 40
1.0
 10
-49.8302440138
 20
-22.1229028837
 30
0.0
 10
-49.8297270576
 20
-22.1199088435
 30
0.0
 10
-49.829384371
 20
-22.1108250311
 30
0.0
 10
-49.8286646246
 20
-22.0928620299
 30
0.0
 10
-49.8282123286
 20
-22.0660927077
 30
0.0
 10
-49.8275284141
 20
-22.0136741212
 30
0.0
 10
-49.8271051394
 20
-21.928692687
 30
0.0
 10
-49.8269715223
 20
-21.8057161025
 30
0.0
 10
-49.8272810521
 20
-21.6581189089
 30
0.0
 10
-49.8280011747
 20
-21.4912367418
 30
0.0
 10
-49.8291207795
 20
-21.3110957301
 30
0.0
 10
-49.8300995698
 20
-21.1872610538
 30
0.0
 10
-49.8306497274
 20
-21.1242047991
 30
0.0
 11
-49.8302440138
 21
-22.1229028837
 31
0.0
 11
-49.8294949232
 21
-22.1138186917
 31
0.0
 11
-49.8288375751
 21
-22.0957785016
 31
0.0
 11
-49.8282753735
 21
-22.0689452318
 31
0.0
 11
-49.8278137015
 21
-22.0335616402
 31
0.0
 11
-49.8272074135
 21
-21.938498293
 31
0.0
 11
-49.8270405857
 21
-21.8140213898
 31
0.0
 11
-49.8273192435
 21
-21.6646268504
 31
0.0
 11
-49.8280333135
 21
-21.4957109473
 31
0.0
 11
-49.8291569923
 21
-21.3133748736
 31
0.0
 11
-49.8306497274
 21
-21.1242047991
 31
0.0
  0
SPLINE
  5
67B
100
AcDbEntity
  8
ASSI
100
AcDbSpline
 62
7
  6
CONTINUOUS
 70
0
 71
3
 72
8
 73
4
 74
2
 42
0.0000001
 43
0.0000001
 44
0.0000000001
 12
-0.0000000155
 22
-0.1892530007
 32
0.0
 13
-0.0430459923
 23
-0.1842925414
 33
0.0
 40
0.0
 40
0.0
 40
0.0
 40
0.0
 40
1.0
 40
1.0
 40
1.0
 40
1.0
 10
-49.3393758836
 20
-21.4300317911
 30
0.0
 10
-49.3393758888
 20
-21.4931161247
 30
0.0
 10
-49.3440752541
 20
-21.5568929265
 30
0.0
 10
-49.3584239182
 20
-21.6183237736
 30
0.0
 11
-49.3393758836
 21
-21.4300317911
 31
0.0
 11
-49.3584239182
 21
-21.6183237736
 31
0.0
  0
SPLINE
  5
67C
100
AcDbEntity
  8
ASSI
100
AcDbSpline
 62
253
  6
CONTINUOUS
 70
0
 71
3
 72
24
 73
20
 74
18
 42
0.0000001
 43
0.0000001
 44
0.0000000001
 12
0.999823999
 22
-0.0181984018
 32
0.0
 13
-0.0087243742
 23
-0.9999515469
 33
0.0
 40
0.0
 40
0.0
 40
0.0
 40
0.0
 40
0.0012816287
 40
0.0049196699
 40
0.0109444811
 40
0.0193469628
 40
0.0301089157
 40
0.043205465
 40
0.0586053011
 40
0.076272084
 40
0.1182306762
 40
0.1686784189
 40
0.2271302358
 40
0.2930237482
 40
0.3657247671
 40
0.4445334226
 40
0.6173872058
 40
0.8049447385
 40
1.0
 40
1.0
 40
1.0
 40
1.0
 10
-45.830649682
 20
-4.491424784
 30
0.0
 10
-45.8302225477
 20
-4.4914325585
 30
0.0
 10
-45.8302891225
 20
-4.4938982178
 30
0.0
 10
-45.8296182052
 20
-4.4967378012
 30
0.0
 10
-45.829464167
 20
-4.5031977354
 30
0.0
 10
-45.8290480227
 20
-4.5113908648
 30
0.0
 10
-45.8287666289
 20
-4.5222163074
 30
0.0
 10
-45.828463538
 20
-4.5352716712
 30
0.0
 10
-45.828200262
 20
-4.5506662709
 30
0.0
 10
-45.8278568336
 20
-4.5756681724
 30
0.0
 10
-45.8275191862
 20
-4.6123598096
 30
0.0
 10
-45.8272379862
 20
-4.6626436536
 30
0.0
 10
-45.8270702803
 20
-4.7209075445
 30
0.0
 10
-45.8270176138
 20
-4.7865888889
 30
0.0
 10
-45.8270817399
 20
-4.8590558976
 30
0.0
 10
-45.8273308807
 20
-4.9671756555
 30
0.0
 10
-45.827942478
 20
-5.1135796545
 30
0.0
 10
-45.8290774287
 20
-5.2987298649
 30
0.0
 10
-45.8300824813
 20
-5.4262622536
 30
0.0
 10
-45.8306497263
 20
-5.4912775238
 30
0.0
 11
-45.830649682
 21
-4.491424784
 31
0.0
 11
-45.8302322491
 21
-4.4926365132
 31
0.0
 11
-45.8298368056
 21
-4.4962529608
 31
0.0
 11
-45.8294643283
 21
-4.5022661842
 31
0.0
 11
-45.8291157317
 21
-4.5106613442
 31
0.0
 11
-45.8287918563
 21
-4.5214183106
 31
0.0
 11
-45.8284934622
 21
-4.534511324
 31
0.0
 11
-45.828221264
 21
-4.5499085942
 31
0.0
 11
-45.8279759339
 21
-4.56757349
 31
0.0
 11
-45.8275681552
 21
-4.6095296644
 31
0.0
 11
-45.827274045
 21
-4.6599760254
 31
0.0
 11
-45.827096439
 21
-4.7184269649
 31
0.0
 11
-45.8270370476
 21
-4.7843197656
 31
0.0
 11
-45.8270964435
 21
-4.8570200046
 31
0.0
 11
-45.8272740544
 21
-4.9358276407
 31
0.0
 11
-45.8279759535
 21
-5.108678202
 31
0.0
 11
-45.8291157636
 21
-5.2962303217
 31
0.0
 11
-45.8306497263
 21
-5.4912775238
 31
0.0
  0
SPLINE
  5
67D
100
AcDbEntity
  8
ASSI
100
AcDbSpline
 62
253
  6
CONTINUOUS
 70
0
 71
3
 72
24
 73
20
 74
18
 42
0.0000001
 43
0.0000001
 44
0.0000000001
 12
0.9998210704
 22
-0.0183199498
 32
0.0
 13
-0.0087252819
 23
-0.9999508302
 33
0.0
 40
0.0
 40
0.0
 40
0.0
 40
0.0
 40
0.0012816384
 40
0.0049196654
 40
0.0109444752
 40
0.0193469587
 40
0.0301089091
 40
0.0432054555
 40
0.0586052891
 40
0.0762720692
 40
0.1182306545
 40
0.1686783899
 40
0.2271301993
 40
0.2930237047
 40
0.3657247177
 40
0.4445333689
 40
0.6173871522
 40
0.8049447009
 40
1.0
 40
1.0
 40
1.0
 40
1.0
 10
-55.6306496823
 20
22.2252970343
 30
0.0
 10
-55.630222546
 20
22.2252892078
 30
0.0
 10
-55.6302891477
 20
22.2228236641
 30
0.0
 10
-55.6296181748
 20
22.2199839794
 30
0.0
 10
-55.6294641699
 20
22.2135241129
 30
0.0
 10
-55.629048019
 20
22.2053309641
 30
0.0
 10
-55.6287666255
 20
22.1945055405
 30
0.0
 10
-55.6284635327
 20
22.1814501849
 30
0.0
 10
-55.6282002586
 20
22.1660556002
 30
0.0
 10
-55.6278568302
 20
22.14105372
 30
0.0
 10
-55.6275191831
 20
22.1043621148
 30
0.0
 10
-55.6272379841
 20
22.0540783135
 30
0.0
 10
-55.6270702791
 20
21.9958144712
 30
0.0
 10
-55.627017614
 20
21.9301331802
 30
0.0
 10
-55.627081741
 20
21.8576662285
 30
0.0
 10
-55.6273308835
 20
21.7495465506
 30
0.0
 10
-55.6279424736
 20
21.6031426514
 30
0.0
 10
-55.6290774546
 20
21.4179925546
 30
0.0
 10
-55.6300824157
 20
21.2904602375
 30
0.0
 10
-55.6306497199
 20
21.2254450015
 30
0.0
 11
-55.6306496823
 21
22.2252970343
 31
0.0
 11
-55.6302322577
 21
22.2240852929
 31
0.0
 11
-55.6298367972
 21
22.220468864
 31
0.0
 11
-55.6294643216
 21
22.2144556462
 31
0.0
 11
-55.6291157296
 21
22.2060604901
 31
0.0
 11
-55.6287918526
 21
22.1953035338
 31
0.0
 11
-55.6284934575
 21
22.1822105327
 31
0.0
 11
-55.6282212602
 21
22.1668132759
 31
0.0
 11
-55.6279759305
 21
22.1491483955
 31
0.0
 11
-55.6275681522
 21
22.1071922576
 31
0.0
 11
-55.6272740428
 21
22.0567459398
 31
0.0
 11
-55.6270964378
 21
21.9982950492
 31
0.0
 11
-55.6270370476
 21
21.9324023022
 31
0.0
 11
-55.6270964446
 21
21.8597021207
 31
0.0
 11
-55.6272740561
 21
21.7808945446
 31
0.0
 11
-55.6279759552
 21
21.6080441057
 31
0.0
 11
-55.6291157621
 21
21.4204921029
 31
0.0
 11
-55.6306497199
 21
21.2254450015
 31
0.0
  0
SPLINE
  5
67E
100
AcDbEntity
  8
ASSI
100
AcDbSpline
 62
7
  6
CONTINUOUS
 70
0
 71
3
 72
9
 73
5
 74
3
 42
0.0000001
 43
0.0000001
 44
0.0000000001
 12
-0.9722609035
 22
0.0
 32
0.0
 13
-0.9639894176
 23
0.1265530217
 33
0.0
 40
0.0
 40
0.0
 40
0.0
 40
0.0
 40
0.488278206
 40
1.0
 40
1.0
 40
1.0
 40
1.0
 10
-48.3713547448
 20
-17.0
 30
0.0
 10
-48.529599348
 20
-17.0
 30
0.0
 10
-48.8535613079
 20
-16.9775218638
 30
0.0
 10
-49.1749444189
 20
-16.9362111747
 30
0.0
 10
-49.3393758836
 20
-16.9146245283
 30
0.0
 11
-48.3713547448
 21
-17.0
 31
0.0
 11
-48.8453516393
 21
-16.9735588574
 31
0.0
 11
-49.3393758836
 21
-16.9146245283
 31
0.0
  0
SPLINE
  5
67F
100
AcDbEntity
  8
ASSI
100
AcDbSpline
 62
253
  6
CONTINUOUS
 70
0
 71
3
 72
24
 73
20
 74
18
 42
0.0000001
 43
0.0000001
 44
0.0000000001
 12
0.0000001847
 22
-1.0001803275
 32
0.0
 13
-1.0001802966
 23
-0.0002485718
 33
0.0
 40
0.0
 40
0.0
 40
0.0
 40
0.0
 40
0.1950597199
 40
0.3826238606
 40
0.5554837259
 40
0.6342946921
 40
0.7069973594
 40
0.7728917683
 40
0.8313436546
 40
0.8817905631
 40
0.9237473286
 40
0.941412793
 40
0.9568110204
 40
0.9699056538
 40
0.9806653663
 40
0.9890652649
 40
0.9950871346
 40
0.9987218702
 40
1.0
 40
1.0
 40
1.0
 40
1.0
 10
-45.8306496823
 20
-15.9999949476
 30
0.0
 10
-45.8306496703
 20
-16.0650265791
 30
0.0
 10
-45.830757171
 20
-16.1925908966
 30
0.0
 10
-45.8312376729
 20
-16.3777849927
 30
0.0
 10
-45.8319035992
 20
-16.5242216793
 30
0.0
 10
-45.8325980088
 20
-16.6323634634
 30
0.0
 10
-45.8331663376
 20
-16.7048437128
 30
0.0
 10
-45.8337922815
 20
-16.7705354937
 30
0.0
 10
-45.8344685717
 20
-16.8288068613
 30
0.0
 10
-45.8351887472
 20
-16.8790950515
 30
0.0
 10
-45.8358467704
 20
-16.9157880394
 30
0.0
 10
-45.836408536
 20
-16.9407891314
 30
0.0
 10
-45.8368062985
 20
-16.9561822633
 30
0.0
 10
-45.8372233708
 20
-16.9692347657
 30
0.0
 10
-45.837599555
 20
-16.9800579376
 30
0.0
 10
-45.8380867916
 20
-16.9882441009
 30
0.0
 10
-45.8382985517
 20
-16.994705129
 30
0.0
 10
-45.8389918873
 20
-16.9975286827
 30
0.0
 10
-45.8389498014
 20
-16.9999998941
 30
0.0
 10
-45.8393759214
 20
-17.0
 30
0.0
 11
-45.8306496823
 21
-15.9999949476
 31
0.0
 11
-45.830817356
 21
-16.1950897701
 31
0.0
 11
-45.831313944
 21
-16.3826870766
 31
0.0
 11
-45.8321203531
 21
-16.5555762325
 31
0.0
 11
-45.8326304894
 21
-16.6343997597
 31
0.0
 11
-45.8332055864
 21
-16.7071132631
 31
0.0
 11
-45.8338401048
 21
-16.7730165002
 31
0.0
 11
-45.8345279328
 21
-16.8314748805
 31
0.0
 11
-45.8352624471
 21
-16.8819255393
 31
0.0
 11
-45.8360365706
 21
-16.92388273
 31
0.0
 11
-45.8364361712
 21
-16.9415468607
 31
0.0
 11
-45.8368428591
 21
-16.9569424942
 31
0.0
 11
-45.8372556396
 21
-16.9700329825
 31
0.0
 11
-45.8376735196
 21
-16.980786519
 31
0.0
 11
-45.8380955167
 21
-16.9891773273
 31
0.0
 11
-45.8385206147
 21
-16.9951852625
 31
0.0
 11
-45.8389477671
 21
-16.9987954715
 31
0.0
 11
-45.8393759214
 21
-17.0
 31
0.0
  0
SPLINE
  5
680
100
AcDbEntity
  8
ASSI
100
AcDbSpline
 62
7
  6
CONTINUOUS
 70
0
 71
3
 72
13
 73
9
 74
7
 42
0.0000001
 43
0.0000001
 44
0.0000000001
 12
0.0
 22
-0.9918227028
 32
0.0
 13
-0.5772523627
 23
-0.8065308324
 33
0.0
 40
0.0
 40
0.0
 40
0.0
 40
0.0
 40
0.083678875
 40
0.1862282208
 40
0.30380422
 40
0.4322744663
 40
0.7095633253
 40
1.0
 40
1.0
 40
1.0
 40
1.0
 10
-55.1393758836
 20
-4.4678782481
 30
0.0
 10
-55.1393758836
 20
-4.4955431174
 30
0.0
 10
-55.152969649
 20
-4.5567286982
 30
0.0
 10
-55.1919111212
 20
-4.6493075564
 30
0.0
 10
-55.2464074827
 20
-4.7510508577
 30
0.0
 10
-55.3364007631
 20
-4.8988451433
 30
0.0
 10
-55.4657518502
 20
-5.0893568246
 30
0.0
 10
-55.5747645948
 20
-5.2421307985
 30
0.0
 10
-55.6306496804
 20
-5.3202128428
 30
0.0
 11
-55.1393758836
 21
-4.4678782481
 31
0.0
 11
-55.153667117
 21
-4.5496331599
 31
0.0
 11
-55.1913299438
 21
-4.6441138038
 31
0.0
 11
-55.2455825395
 21
-4.7473398085
 31
0.0
 11
-55.3113725379
 21
-4.8564611071
 31
0.0
 11
-55.4641513726
 21
-5.0851429608
 31
0.0
 11
-55.6306496804
 21
-5.3202128428
 31
0.0
  0
SPLINE
  5
681
100
AcDbEntity
  8
RACCORDO
100
AcDbSpline
 62
7
  6
CONTINUOUS
 70
0
 71
3
 72
9
 73
5
 74
3
 42
0.0000001
 43
0.0000001
 44
0.0000000001
 12
0.3736031498
 22
0.0
 32
0.0
 13
0.2431514378
 23
0.2836488883
 33
0.0
 40
0.0
 40
0.0
 40
0.0
 40
0.0
 40
0.4867697052
 40
1.0
 40
1.0
 40
1.0
 40
1.0
 10
-46.664967795
 20
-1.5
 30
0.0
 10
-46.60434823
 20
-1.5
 30
0.0
 10
-46.4778580803
 20
-1.4712960372
 30
0.0
 10
-46.3787903818
 20
-1.3891126862
 30
0.0
 10
-46.3371928204
 20
-1.340586952
 30
0.0
 11
-46.664967795
 21
-1.5
 31
0.0
 11
-46.4877026899
 21
-1.4593839009
 31
0.0
 11
-46.3371928204
 21
-1.340586952
 31
0.0
  0
SPLINE
  5
682
100
AcDbEntity
  8
RACCORDO
100
AcDbSpline
 62
7
  6
CONTINUOUS
 70
0
 71
3
 72
9
 73
5
 74
3
 42
0.0000001
 43
0.0000001
 44
0.0000000001
 12
-0.2431514391
 22
0.2836488899
 32
0.0
 13
-0.3736031519
 23
0.0
 33
0.0
 40
0.0
 40
0.0
 40
0.0
 40
0.0
 40
0.5132316653
 40
1.0
 40
1.0
 40
1.0
 40
1.0
 10
-46.3371928204
 20
17.040586952
 30
0.0
 10
-46.3787904931
 20
17.089112816
 30
0.0
 10
-46.4778582604
 20
17.1712961376
 30
0.0
 10
-46.6043484004
 20
17.2
 30
0.0
 10
-46.664967795
 20
17.2
 30
0.0
 11
-46.3371928204
 21
17.040586952
 31
0.0
 11
-46.4877031613
 21
17.1593841319
 31
0.0
 11
-46.664967795
 21
17.2
 31
0.0
  0
ELLIPSE
  5
683
100
AcDbEntity
  8
RACCORDO
100
AcDbEllipse
 62
7
  6
CONTINUOUS
 10
-24.684847672
 20
-21.399847672
 30
0.0
 11
0.7073221892
 21
0.7073221892
 31
0.0
 40
0.9996954599
 41
8.6395320906
 42
8.956963217
  0
ELLIPSE
  5
684
100
AcDbEntity
  8
RACCORDO
100
AcDbEllipse
 62
7
  6
CONTINUOUS
 10
-24.684847672
 20
-21.399847672
 30
0.0
 11
0.7073221892
 21
0.7073221892
 31
0.0
 40
0.9996954599
 41
9.8925927041
 42
10.2100238309
  0
ELLIPSE
  5
685
100
AcDbEntity
  8
RACCORDO
100
AcDbEllipse
 62
7
  6
CONTINUOUS
 10
-24.684847672
 20
21.399847672
 30
0.0
 11
0.7073221892
 21
-0.7073221892
 31
0.0
 40
0.9996954599
 41
8.6395320906
 42
8.956963217
  0
ELLIPSE
  5
686
100
AcDbEntity
  8
RACCORDO
100
AcDbEllipse
 62
7
  6
CONTINUOUS
 10
-24.684847672
 20
21.399847672
 30
0.0
 11
0.7073221892
 21
-0.7073221892
 31
0.0
 40
0.9996954599
 41
9.8925927041
 42
10.2100238309
  0
ELLIPSE
  5
687
100
AcDbEntity
  8
RACCORDO
100
AcDbEllipse
 62
7
  6
CONTINUOUS
 10
18.114847672
 20
21.399847672
 30
0.0
 11
-0.7073221892
 21
-0.7073221892
 31
0.0
 40
0.9996954599
 41
8.6395320906
 42
8.956963217
  0
ELLIPSE
  5
688
100
AcDbEntity
  8
RACCORDO
100
AcDbEllipse
 62
7
  6
CONTINUOUS
 10
18.114847672
 20
21.399847672
 30
0.0
 11
-0.7073221892
 21
-0.7073221892
 31
0.0
 40
0.9996954599
 41
9.8925927041
 42
10.2100238309
  0
ELLIPSE
  5
689
100
AcDbEntity
  8
RACCORDO
100
AcDbEllipse
 62
7
  6
CONTINUOUS
 10
18.114847672
 20
-21.399847672
 30
0.0
 11
-0.7073221892
 21
0.7073221892
 31
0.0
 40
0.9996954599
 41
8.6395320906
 42
8.956963217
  0
ELLIPSE
  5
68A
100
AcDbEntity
  8
RACCORDO
100
AcDbEllipse
 62
7
  6
CONTINUOUS
 10
18.114847672
 20
-21.399847672
 30
0.0
 11
-0.7073221892
 21
0.7073221892
 31
0.0
 40
0.9996954599
 41
9.8925927041
 42
10.2100238309
  0
ELLIPSE
  5
68B
100
AcDbEntity
  8
ASSI
100
AcDbEllipse
 62
7
  6
CONTINUOUS
 10
-24.684847672
 20
-21.399847672
 30
0.0
 11
0.7073221892
 21
0.7073221892
 31
0.0
 40
0.9996954599
 41
8.6395320906
 42
8.956963217
  0
ELLIPSE
  5
68C
100
AcDbEntity
  8
ASSI
100
AcDbEllipse
 62
7
  6
CONTINUOUS
 10
-24.684847672
 20
-21.399847672
 30
0.0
 11
0.7073221892
 21
0.7073221892
 31
0.0
 40
0.9996954599
 41
9.8925927041
 42
10.2100238309
  0
ELLIPSE
  5
68D
100
AcDbEntity
  8
ASSI
100
AcDbEllipse
 62
7
  6
CONTINUOUS
 10
-24.684847672
 20
21.399847672
 30
0.0
 11
0.7073221892
 21
-0.7073221892
 31
0.0
 40
0.9996954599
 41
8.6395320906
 42
8.956963217
  0
ELLIPSE
  5
68E
100
AcDbEntity
  8
ASSI
100
AcDbEllipse
 62
7
  6
CONTINUOUS
 10
-24.684847672
 20
21.399847672
 30
0.0
 11
0.7073221892
 21
-0.7073221892
 31
0.0
 40
0.9996954599
 41
9.8925927041
 42
10.2100238309
  0
ELLIPSE
  5
68F
100
AcDbEntity
  8
ASSI
100
AcDbEllipse
 62
7
  6
CONTINUOUS
 10
18.114847672
 20
21.399847672
 30
0.0
 11
-0.7073221892
 21
-0.7073221892
 31
0.0
 40
0.9996954599
 41
8.6395320906
 42
8.956963217
  0
ELLIPSE
  5
690
100
AcDbEntity
  8
ASSI
100
AcDbEllipse
 62
7
  6
CONTINUOUS
 10
18.114847672
 20
21.399847672
 30
0.0
 11
-0.7073221892
 21
-0.7073221892
 31
0.0
 40
0.9996954599
 41
9.8925927041
 42
10.2100238309
  0
ELLIPSE
  5
691
100
AcDbEntity
  8
ASSI
100
AcDbEllipse
 62
7
  6
CONTINUOUS
 10
18.114847672
 20
-21.399847672
 30
0.0
 11
-0.7073221892
 21
0.7073221892
 31
0.0
 40
0.9996954599
 41
8.6395320906
 42
8.956963217
  0
ELLIPSE
  5
692
100
AcDbEntity
  8
ASSI
100
AcDbEllipse
 62
7
  6
CONTINUOUS
 10
18.114847672
 20
-21.399847672
 30
0.0
 11
-0.7073221892
 21
0.7073221892
 31
0.0
 40
0.9996954599
 41
9.8925927041
 42
10.2100238309
  0
ELLIPSE
  5
693
100
AcDbEntity
  8
RACCORDO
100
AcDbEllipse
 62
7
  6
CONTINUOUS
 10
-15.7351219089
 20
-23.7999972584
 30
0.0
 11
0.1979122691
 21
-0.0296750531
 31
0.0
 40
0.9993771443
 41
-1.4218732339
 42
0.1487403604
  0
ELLIPSE
  5
694
100
AcDbEntity
  8
RACCORDO
100
AcDbEllipse
 62
7
  6
CONTINUOUS
 10
-13.3348780911
 20
-23.7999972584
 30
0.0
 11
0.1979122691
 21
0.0296750531
 31
0.0
 40
0.9993771443
 41
2.9928522931
 42
4.5634658874
  0
ELLIPSE
  5
695
100
AcDbEntity
  8
RACCORDO
100
AcDbEllipse
 62
7
  6
CONTINUOUS
 10
6.7648780911
 20
-23.7999972584
 30
0.0
 11
0.1979122691
 21
-0.0296750531
 31
0.0
 40
0.9993771443
 41
-1.4218732339
 42
0.1487403604
  0
ELLIPSE
  5
696
100
AcDbEntity
  8
RACCORDO
100
AcDbEllipse
 62
7
  6
CONTINUOUS
 10
9.1651219089
 20
-23.7999972584
 30
0.0
 11
0.1979122691
 21
0.0296750531
 31
0.0
 40
0.9993771443
 41
2.9928522932
 42
4.5634658874
  0
ELLIPSE
  5
697
100
AcDbEntity
  8
RACCORDO
100
AcDbEllipse
 62
7
  6
CONTINUOUS
 10
9.1651219089
 20
23.7999972584
 30
0.0
 11
0.1979122691
 21
-0.0296750531
 31
0.0
 40
0.9993771443
 41
1.7197194197
 42
3.290333014
  0
ELLIPSE
  5
698
100
AcDbEntity
  8
RACCORDO
100
AcDbEllipse
 62
7
  6
CONTINUOUS
 10
6.7648780911
 20
23.7999972584
 30
0.0
 11
0.1979122691
 21
0.0296750531
 31
0.0
 40
0.9993771443
 41
-0.1487403604
 42
1.4218732338
  0
ELLIPSE
  5
699
100
AcDbEntity
  8
RACCORDO
100
AcDbEllipse
 62
7
  6
CONTINUOUS
 10
-13.3348780911
 20
23.7999972584
 30
0.0
 11
0.1979122691
 21
-0.0296750531
 31
0.0
 40
0.9993771443
 41
1.7197194197
 42
3.290333014
  0
ELLIPSE
  5
69A
100
AcDbEntity
  8
RACCORDO
100
AcDbEllipse
 62
7
  6
CONTINUOUS
 10
-15.7351219089
 20
23.7999972584
 30
0.0
 11
0.1979122691
 21
0.0296750531
 31
0.0
 40
0.9993771443
 41
-0.1487403605
 42
1.4218732338
  0
ELLIPSE
  5
69B
100
AcDbEntity
  8
RACCORDO
100
AcDbEllipse
 62
7
  6
CONTINUOUS
 10
15.465003427
 20
-24.249996573
 30
0.0
 11
0.1767815417
 21
0.1767815418
 31
0.0
 40
0.9999725851
 41
2.3562081977
 42
3.9269771093
  0
ELLIPSE
  5
69C
100
AcDbEntity
  8
RACCORDO
100
AcDbEllipse
 62
7
  6
CONTINUOUS
 10
17.864996573
 20
-24.249996573
 30
0.0
 11
0.1767815418
 21
-0.1767815418
 31
0.0
 40
0.9999725851
 41
-0.4712290121
 42
0.7853844557
  0
ELLIPSE
  5
69D
100
AcDbEntity
  8
RACCORDO
100
AcDbEllipse
 62
7
  6
CONTINUOUS
 10
17.864996573
 20
-24.249996573
 30
0.0
 11
-0.1767815418
 21
0.1767815417
 31
0.0
 40
0.9999725851
 41
-3.9269771094
 42
-3.6128216658
  0
ELLIPSE
  5
69E
100
AcDbEntity
  8
RACCORDO
100
AcDbEllipse
 62
7
  6
CONTINUOUS
 10
0.464996573
 20
-24.249996573
 30
0.0
 11
0.1767815418
 21
-0.1767815417
 31
0.0
 40
0.9999725851
 41
-0.7853844558
 42
0.7853844557
  0
ELLIPSE
  5
69F
100
AcDbEntity
  8
RACCORDO
100
AcDbEllipse
 62
7
  6
CONTINUOUS
 10
-1.934996573
 20
-24.249996573
 30
0.0
 11
0.1767815418
 21
0.1767815417
 31
0.0
 40
0.9999725851
 41
-3.9269771093
 42
-2.3562081979
  0
ELLIPSE
  5
6A0
100
AcDbEntity
  8
RACCORDO
100
AcDbEllipse
 62
7
  6
CONTINUOUS
 10
15.465003427
 20
24.249996573
 30
0.0
 11
-0.1767815418
 21
0.1767815418
 31
0.0
 40
0.9999725851
 41
0.6787856803
 42
0.7853844557
  0
ELLIPSE
  5
6A1
100
AcDbEntity
  8
RACCORDO
100
AcDbEllipse
 62
7
  6
CONTINUOUS
 10
15.465003427
 20
24.249996573
 30
0.0
 11
0.1767815418
 21
-0.1767815417
 31
0.0
 40
0.9999725851
 41
-2.6703636551
 42
-2.4628069737
  0
ELLIPSE
  5
6A2
100
AcDbEntity
  8
RACCORDO
100
AcDbEllipse
 62
7
  6
CONTINUOUS
 10
15.465003427
 20
24.249996573
 30
0.0
 11
-0.1767815417
 21
0.1767815418
 31
0.0
 40
0.9999725851
 41
-0.7853844556
 42
0.4712289987
  0
ELLIPSE
  5
6A3
100
AcDbEntity
  8
RACCORDO
100
AcDbEllipse
 62
7
  6
CONTINUOUS
 10
17.864996573
 20
24.249996573
 30
0.0
 11
0.1767815417
 21
0.1767815418
 31
0.0
 40
0.9999725851
 41
-0.785384456
 42
0.7853844564
  0
ELLIPSE
  5
6A4
100
AcDbEntity
  8
RACCORDO
100
AcDbEllipse
 62
7
  6
CONTINUOUS
 10
0.464996573
 20
24.249996573
 30
0.0
 11
0.1767815417
 21
0.1767815418
 31
0.0
 40
0.9999725851
 41
-0.7853844559
 42
0.7853844558
  0
ELLIPSE
  5
6A5
100
AcDbEntity
  8
RACCORDO
100
AcDbEllipse
 62
7
  6
CONTINUOUS
 10
-1.934996573
 20
24.249996573
 30
0.0
 11
-0.1767815417
 21
0.1767815418
 31
0.0
 40
0.9999725851
 41
0.6787856806
 42
0.785384456
  0
ELLIPSE
  5
6A6
100
AcDbEntity
  8
RACCORDO
100
AcDbEllipse
 62
7
  6
CONTINUOUS
 10
-1.934996573
 20
24.249996573
 30
0.0
 11
0.1767815418
 21
-0.1767815417
 31
0.0
 40
0.9999725851
 41
-2.6703636551
 42
-2.4628069737
  0
ELLIPSE
  5
6A7
100
AcDbEntity
  8
RACCORDO
100
AcDbEllipse
 62
7
  6
CONTINUOUS
 10
-1.934996573
 20
24.249996573
 30
0.0
 11
-0.1767815417
 21
0.1767815418
 31
0.0
 40
0.9999725851
 41
-0.7853844553
 42
0.471228999
  0
ELLIPSE
  5
6A8
100
AcDbEntity
  8
RACCORDO
100
AcDbEllipse
 62
7
  6
CONTINUOUS
 10
-4.635003427
 20
-24.249996573
 30
0.0
 11
0.1767815418
 21
-0.1767815418
 31
0.0
 40
0.9999725851
 41
-0.7853844557
 42
0.7853844558
  0
ELLIPSE
  5
6A9
100
AcDbEntity
  8
RACCORDO
100
AcDbEllipse
 62
7
  6
CONTINUOUS
 10
-7.034996573
 20
-24.249996573
 30
0.0
 11
0.1767815418
 21
0.1767815418
 31
0.0
 40
0.9999725851
 41
-3.9269771093
 42
-2.3562081979
  0
ELLIPSE
  5
6AA
100
AcDbEntity
  8
RACCORDO
100
AcDbEllipse
 62
7
  6
CONTINUOUS
 10
-22.035003427
 20
-24.249996573
 30
0.0
 11
0.1767815418
 21
-0.1767815418
 31
0.0
 40
0.9999725851
 41
0.4712289989
 42
0.7853844558
  0
ELLIPSE
  5
6AB
100
AcDbEntity
  8
RACCORDO
100
AcDbEllipse
 62
7
  6
CONTINUOUS
 10
-22.035003427
 20
-24.249996573
 30
0.0
 11
-0.1767815418
 21
0.1767815418
 31
0.0
 40
0.9999725851
 41
-3.6128216657
 42
-2.6703636547
  0
ELLIPSE
  5
6AC
100
AcDbEntity
  8
RACCORDO
100
AcDbEllipse
 62
7
  6
CONTINUOUS
 10
-22.035003427
 20
-24.249996573
 30
0.0
 11
0.1767815418
 21
-0.1767815417
 31
0.0
 40
0.9999725851
 41
-0.7853844558
 42
-0.4712290122
  0
ELLIPSE
  5
6AD
100
AcDbEntity
  8
RACCORDO
100
AcDbEllipse
 62
7
  6
CONTINUOUS
 10
-24.434996573
 20
-24.249996573
 30
0.0
 11
0.1767815418
 21
0.1767815417
 31
0.0
 40
0.9999725851
 41
-3.9269771093
 42
-2.3562081979
  0
ELLIPSE
  5
6AE
100
AcDbEntity
  8
RACCORDO
100
AcDbEllipse
 62
7
  6
CONTINUOUS
 10
-7.034996573
 20
24.249996573
 30
0.0
 11
-0.1767815418
 21
0.1767815417
 31
0.0
 40
0.9999725851
 41
0.6787856801
 42
0.7853844556
  0
ELLIPSE
  5
6AF
100
AcDbEntity
  8
RACCORDO
100
AcDbEllipse
 62
7
  6
CONTINUOUS
 10
-7.034996573
 20
24.249996573
 30
0.0
 11
0.1767815418
 21
-0.1767815417
 31
0.0
 40
0.9999725851
 41
2.6703636413
 42
3.8203783335
  0
ELLIPSE
  5
6B0
100
AcDbEntity
  8
RACCORDO
100
AcDbEllipse
 62
7
  6
CONTINUOUS
 10
-7.034996573
 20
24.249996573
 30
0.0
 11
-0.1767815417
 21
0.1767815418
 31
0.0
 40
0.9999725851
 41
-0.7853844554
 42
-0.4712290118
  0
ELLIPSE
  5
6B1
100
AcDbEntity
  8
RACCORDO
100
AcDbEllipse
 62
7
  6
CONTINUOUS
 10
-4.635003427
 20
24.249996573
 30
0.0
 11
0.1767815417
 21
0.1767815418
 31
0.0
 40
0.9999725851
 41
-0.7853844562
 42
0.7853844557
  0
ELLIPSE
  5
6B2
100
AcDbEntity
  8
RACCORDO
100
AcDbEllipse
 62
7
  6
CONTINUOUS
 10
-24.434996573
 20
24.249996573
 30
0.0
 11
-0.1767815417
 21
0.1767815418
 31
0.0
 40
0.9999725851
 41
0.4712289992
 42
0.7853844556
  0
ELLIPSE
  5
6B3
100
AcDbEntity
  8
RACCORDO
100
AcDbEllipse
 62
7
  6
CONTINUOUS
 10
-24.434996573
 20
24.249996573
 30
0.0
 11
0.1767815418
 21
-0.1767815417
 31
0.0
 40
0.9999725851
 41
2.3562081975
 42
3.6128216521
  0
ELLIPSE
  5
6B4
100
AcDbEntity
  8
RACCORDO
100
AcDbEllipse
 62
7
  6
CONTINUOUS
 10
-22.035003427
 20
24.249996573
 30
0.0
 11
0.1767815417
 21
0.1767815418
 31
0.0
 40
0.9999725851
 41
-0.7853844558
 42
0.7853844557
  0
ELLIPSE
  5
6B5
100
AcDbEntity
  8
RACCORDO
100
AcDbEllipse
 62
7
  6
CONTINUOUS
 10
6.7194810908
 20
22.3342776662
 30
0.0
 11
0.2
 21
0.0
 31
0.0
 40
0.0524077793
 41
-1.5707963268
 42
-0.034906585
  0
ELLIPSE
  5
6B6
100
AcDbEntity
  8
RACCORDO
100
AcDbEllipse
 62
7
  6
CONTINUOUS
 10
9.2105189092
 20
22.3342776662
 30
0.0
 11
0.2
 21
-0.0
 31
0.0
 40
0.0524077793
 41
-3.1066860685
 42
-1.5707963268
  0
ELLIPSE
  5
6B7
100
AcDbEntity
  8
RACCORDO
100
AcDbEllipse
 62
7
  6
CONTINUOUS
 10
-13.2894810908
 20
-22.3342776662
 30
0.0
 11
0.2
 21
0.0
 31
0.0
 40
0.0524077793
 41
1.5707963268
 42
3.1066860685
  0
ELLIPSE
  5
6B8
100
AcDbEntity
  8
RACCORDO
100
AcDbEllipse
 62
7
  6
CONTINUOUS
 10
-15.7805189092
 20
-22.3342776662
 30
0.0
 11
0.2
 21
-0.0
 31
0.0
 40
0.0524077793
 41
0.034906585
 42
1.5707963268
  0
ELLIPSE
  5
6B9
100
AcDbEntity
  8
RACCORDO
100
AcDbEllipse
 62
7
  6
CONTINUOUS
 10
9.2105189092
 20
-22.3342776662
 30
0.0
 11
0.2
 21
-0.0
 31
0.0
 40
0.0524077793
 41
1.5707963268
 42
3.1066860685
  0
ELLIPSE
  5
6BA
100
AcDbEntity
  8
RACCORDO
100
AcDbEllipse
 62
7
  6
CONTINUOUS
 10
6.7194810908
 20
-22.3342776662
 30
0.0
 11
0.2
 21
0.0
 31
0.0
 40
0.0524077793
 41
0.034906585
 42
1.5707963268
  0
ELLIPSE
  5
6BB
100
AcDbEntity
  8
RACCORDO
100
AcDbEllipse
 62
7
  6
CONTINUOUS
 10
-24.4232154929
 20
22.2844902759
 30
0.0
 11
0.25
 21
0.0
 31
0.0
 40
0.0524077793
 41
-3.1363566658
 42
-1.5707963268
  0
ELLIPSE
  5
6BC
100
AcDbEntity
  8
RACCORDO
100
AcDbEllipse
 62
7
  6
CONTINUOUS
 10
-22.0467845071
 20
22.2844902759
 30
0.0
 11
0.25
 21
-0.0
 31
0.0
 40
0.0524077793
 41
-1.5707963268
 42
-0.0052359878
  0
ELLIPSE
  5
6BD
100
AcDbEntity
  8
RACCORDO
100
AcDbEllipse
 62
7
  6
CONTINUOUS
 10
-7.0232154929
 20
22.2844902759
 30
0.0
 11
0.25
 21
0.0
 31
0.0
 40
0.0524077793
 41
-3.1363566658
 42
-1.5707963268
  0
ELLIPSE
  5
6BE
100
AcDbEntity
  8
RACCORDO
100
AcDbEllipse
 62
7
  6
CONTINUOUS
 10
-4.6467845071
 20
22.2844902759
 30
0.0
 11
0.25
 21
0.0
 31
0.0
 40
0.0524077793
 41
-1.5707963268
 42
-0.0052359878
  0
ELLIPSE
  5
6BF
100
AcDbEntity
  8
RACCORDO
100
AcDbEllipse
 62
7
  6
CONTINUOUS
 10
-1.9232154929
 20
22.2844902759
 30
0.0
 11
0.25
 21
-0.0
 31
0.0
 40
0.0524077793
 41
-3.1363566658
 42
-1.5707963268
  0
ELLIPSE
  5
6C0
100
AcDbEntity
  8
RACCORDO
100
AcDbEllipse
 62
7
  6
CONTINUOUS
 10
0.4532154929
 20
22.2844902759
 30
0.0
 11
0.25
 21
-0.0
 31
0.0
 40
0.0524077793
 41
-1.5707963268
 42
-0.0052359878
  0
ELLIPSE
  5
6C1
100
AcDbEntity
  8
RACCORDO
100
AcDbEllipse
 62
7
  6
CONTINUOUS
 10
15.4767845071
 20
22.2844902759
 30
0.0
 11
0.25
 21
0.0
 31
0.0
 40
0.0524077793
 41
-3.1363566658
 42
-1.5707963268
  0
ELLIPSE
  5
6C2
100
AcDbEntity
  8
RACCORDO
100
AcDbEllipse
 62
7
  6
CONTINUOUS
 10
17.8532154929
 20
22.2844902759
 30
0.0
 11
0.25
 21
0.0
 31
0.0
 40
0.0524077793
 41
-1.5707963268
 42
-0.0052359878
  0
ELLIPSE
  5
6C3
100
AcDbEntity
  8
RACCORDO
100
AcDbEllipse
 62
7
  6
CONTINUOUS
 10
-22.0467845071
 20
-22.2844902759
 30
0.0
 11
0.25
 21
-0.0
 31
0.0
 40
0.0524077793
 41
0.0052359878
 42
1.5707963268
  0
ELLIPSE
  5
6C4
100
AcDbEntity
  8
RACCORDO
100
AcDbEllipse
 62
7
  6
CONTINUOUS
 10
-24.4232154929
 20
-22.2844902759
 30
0.0
 11
0.25
 21
-0.0
 31
0.0
 40
0.0524077793
 41
1.5707963268
 42
3.1363566658
  0
ELLIPSE
  5
6C5
100
AcDbEntity
  8
RACCORDO
100
AcDbEllipse
 62
7
  6
CONTINUOUS
 10
-7.0232154929
 20
-22.2844902759
 30
0.0
 11
0.25
 21
-0.0
 31
0.0
 40
0.0524077793
 41
1.5707963268
 42
3.1363566658
  0
ELLIPSE
  5
6C6
100
AcDbEntity
  8
RACCORDO
100
AcDbEllipse
 62
7
  6
CONTINUOUS
 10
-4.6467845071
 20
-22.2844902759
 30
0.0
 11
0.25
 21
0.0
 31
0.0
 40
0.0524077793
 41
0.0052359878
 42
1.5707963268
  0
ELLIPSE
  5
6C7
100
AcDbEntity
  8
RACCORDO
100
AcDbEllipse
 62
7
  6
CONTINUOUS
 10
0.4532154929
 20
-22.2844902759
 30
0.0
 11
0.25
 21
0.0
 31
0.0
 40
0.0524077793
 41
0.0052359878
 42
1.5707963268
  0
ELLIPSE
  5
6C8
100
AcDbEntity
  8
RACCORDO
100
AcDbEllipse
 62
7
  6
CONTINUOUS
 10
-15.7805189092
 20
22.3342776662
 30
0.0
 11
0.2
 21
0.0
 31
0.0
 40
0.0524077793
 41
-1.5707963268
 42
-0.034906585
  0
ELLIPSE
  5
6C9
100
AcDbEntity
  8
RACCORDO
100
AcDbEllipse
 62
7
  6
CONTINUOUS
 10
-1.9232154929
 20
-22.2844902759
 30
0.0
 11
0.25
 21
-0.0
 31
0.0
 40
0.0524077793
 41
1.5707963268
 42
3.1363566658
  0
ELLIPSE
  5
6CA
100
AcDbEntity
  8
RACCORDO
100
AcDbEllipse
 62
7
  6
CONTINUOUS
 10
17.8532154929
 20
-22.2844902759
 30
0.0
 11
0.25
 21
-0.0
 31
0.0
 40
0.0524077793
 41
0.0052359878
 42
1.5707963268
  0
ELLIPSE
  5
6CB
100
AcDbEntity
  8
RACCORDO
100
AcDbEllipse
 62
7
  6
CONTINUOUS
 10
15.4767845071
 20
-22.2844902759
 30
0.0
 11
0.25
 21
0.0
 31
0.0
 40
0.0524077793
 41
1.5707963268
 42
3.1363566658
  0
ELLIPSE
  5
6CC
100
AcDbEntity
  8
RACCORDO
100
AcDbEllipse
 62
7
  6
CONTINUOUS
 10
-13.2894810908
 20
22.3342776662
 30
0.0
 11
0.2
 21
-0.0
 31
0.0
 40
0.0524077793
 41
-3.1066860685
 42
-1.5707963268
  0
ELLIPSE
  5
6CD
100
AcDbEntity
  8
RACCORDO
100
AcDbEllipse
 62
7
  6
CONTINUOUS
 10
-50.8393758836
 20
-15.6406749532
 30
0.0
 11
0.1743913783
 21
10.003047717
 31
0.0
 40
0.4995435372
 41
-2.1977261386
 42
-2.1357285061
  0
ELLIPSE
  5
6CE
100
AcDbEntity
  8
ASSI
100
AcDbEllipse
 62
7
  6
CONTINUOUS
 10
-50.8393758836
 20
-15.6406749532
 30
0.0
 11
0.1743913783
 21
10.003047717
 31
0.0
 40
0.4995435372
 41
-2.1977261386
 42
-2.1357285061
  0
ENDSEC
  0
SECTION
  2
OBJECTS
  0
DICTIONARY
  5
C
100
AcDbDictionary
280
0
281
1
  3
ACAD_GROUP
350
D
  3
ACAD_MLINESTYLE
350
17
  3
ACAD_LAYOUT
350
1A
  3
ACAD_PLOTSETTINGS
350
19
  3
ACAD_PLOTSTYLENAME
350
E
  0
DICTIONARY
  5
D
102
{ACAD_REACTORS
330
C
102
}
100
AcDbDictionary
280
0
281
1
  0
ACDBDICTIONARYWDFLT
  5
E
102
{ACAD_REACTORS
330
C
102
}
100
AcDbDictionary
281
1
  3
Normal
350
F
100
AcDbDictionaryWithDefault
340
F
  0
DICTIONARY
  5
17
102
{ACAD_REACTORS
330
C
102
}
100
AcDbDictionary
280
0
281
1
  3
Standard
350
18
  0
DICTIONARY
  5
19
102
{ACAD_REACTORS
330
C
102
}
100
AcDbDictionary
281
1
  0
DICTIONARY
  5
1A
102
{ACAD_REACTORS
330
C
102
}
100
AcDbDictionary
281
1
  3
Model
350
6CF
  3
Layout1
350
6D0
  0
ACDBPLACEHOLDER
  5
F
102
{ACAD_REACTORS
330
E
102
}
  0
MLINESTYLE
  5
18
102
{ACAD_REACTORS
330
17
102
}
100
AcDbMlineStyle
  2
STANDARD
 70
0
  3

 62
256
 51
90.0
 52
90.0
 71
2
 49
0.5
 62
256
  6
BYLAYER
 49
-0.5
 62
256
  6
BYLAYER
  0
LAYOUT
  5
6CF
102
{ACAD_REACTORS
330
1A
102
}
100
AcDbPlotSettings
  1

  2
none_device
  4
ISO_A4_(297.00_x_210.00_MM)
  6

 40
0.0
 41
0.0
 42
0.0
 43
0.0
 44
297.0
 45
210.0
 46
0.0
 47
0.0
 48
0.0
 49
0.0
140
0.0
141
0.0
142
1.0
143
1.0
 70
1024
 72
1
 73
0
 74
0
  7

 75
0
147
1.0
148
0.0
149
0.0
100
AcDbLayout
  1
Model
 70
0
 71
0
 10
0.0
 20
0.0
 11
297.0
 21
210.0
 12
0.0
 22
0.0
 32
0.0
 14
0.0
 24
0.0
 34
0.0
 15
0.0
 25
0.0
 35
0.0
146
0.0
 13
0.0
 23
0.0
 33
0.0
 16
1.0
 26
0.0
 36
0.0
 17
0.0
 27
1.0
 37
0.0
 76
0
330
219
345
0
346
0
  0
LAYOUT
  5
6D0
102
{ACAD_REACTORS
330
1A
102
}
100
AcDbPlotSettings
  1

  2
none_device
  4
ISO_A4_(297.00_x_210.00_MM)
  6

 40
0.0
 41
0.0
 42
0.0
 43
0.0
 44
297.0
 45
210.0
 46
0.0
 47
0.0
 48
0.0
 49
0.0
140
0.0
141
0.0
142
1.0
143
1.0
 70
0
 72
1
 73
0
 74
0
  7

 75
0
147
1.0
148
0.0
149
0.0
100
AcDbLayout
  1
Layout1
 70
0
 71
1
 10
0.0
 20
0.0
 11
297.0
 21
210.0
 12
0.0
 22
0.0
 32
0.0
 14
0.0
 24
0.0
 34
0.0
 15
0.0
 25
0.0
 35
0.0
146
0.0
 13
0.0
 23
0.0
 33
0.0
 16
1.0
 26
0.0
 36
0.0
 17
0.0
 27
1.0
 37
0.0
 76
0
330
21A
345
0
346
0
  0
ENDSEC
  0
EOF
