  0
SECTION
  2
HEADER
  9
$ACADVER
  1
AC1021
  9
$DWGCODEPAGE
  3
ANSI_1252
  9
$EXTMAX
 10
297.0
 20
210.0
 30
0.0
  9
$EXTMIN
 10
0.0
 20
0.0
 30
0.0
  9
$LIMMIN
 10
0.0
 20
0.0
  9
$LIMMAX
 10
297.0
 20
210.0
  9
$VIEWCTR
 10
148.5
 20
105.0
  9
$VIEWSIZE
 40
210.0
  9
$CLAYER
  8
0
  9
$LTSCALE
 40
16.335
  9
$CELTYPE
  6
BYLAYER
  9
$DIMSCALE
 40
1.0
  9
$DIMASZ
 40
3.0
  9
$DIMEXO
 40
0.5
  9
$DIMDLI
 40
11.286
  9
$DIMEXE
 40
1.5
  9
$DIMCEN
 40
2.673
  9
$DIMLFAC
 40
1.0
  9
$DIMBLK
  1
_FILLED
  9
$DIMALT
 70
0
  9
$DIMALTF
 40
0.0393700787
  9
$DIMTXT
 40
3.0
  9
$DIMTOL
 70
1
  9
$DIMLIM
 70
0
  9
$DIMTFAC
 40
1.0
  9
$DIMTP
 40
0.01
  9
$DIMTM
 40
0.01
  9
$DIMGAP
 40
0.625
  9
$DIMDSEP
 70
44
  9
$AUNITS
 70
0
  9
$PDMODE
 70
3
  9
$PDSIZE
 40
3.0
  9
$HANDSEED
  5
489
  9
$TILEMODE
 70
1
  9
$MEASUREMENT
 70
1
  9
$INSUNITS
 70
4
  0
ENDSEC
  0
SECTION
  2
CLASSES
  0
CLASS
  1
ACDBDICTIONARYWDFLT
  2
AcDbDictionaryWithDefault
  3
AutoCAD 2000
 90
0
 91
1
280
0
281
0
  0
CLASS
  1
ACDBPLACEHOLDER
  2
AcDbPlaceHolder
  3
AutoCAD 2000
 90
0
 91
1
280
0
281
0
  0
CLASS
  1
LAYOUT
  2
AcDbLayout
  3
AutoCAD 2000
 90
0
 91
0
280
0
281
0
  0
ENDSEC
  0
SECTION
  2
TABLES
  0
TABLE
  2
VPORT
  5
8
100
AcDbSymbolTable
 70
2
  0
VPORT
  5
1F4
100
AcDbSymbolTableRecord
100
AcDbViewportTableRecord
  2
*ACTIVE
 70
0
 10
0.0
 20
0.0
 11
1.0
 21
1.0
 12
148.5
 22
105.0
 13
0.0
 23
0.0
 14
1.0
 24
1.0
 15
0.0
 25
0.0
 16
0.0
 26
0.0
 36
1.0
 17
0.0
 27
0.0
 37
0.0
 40
210.0
 41
1.4142857143
 42
50.0
 43
0.0
 44
0.0
 50
0.0
 51
0.0
 71
0
 72
100
 73
1
 74
1
 75
0
 76
0
 77
0
 78
0
  0
ENDTAB
  0
TABLE
  2
LTYPE
  5
5
100
AcDbSymbolTable
 70
6
  0
LTYPE
  5
14
100
AcDbSymbolTableRecord
100
AcDbLinetypeTableRecord
  2
BYBLOCK
 70
0
  3

 72
65
 73
0
 40
0.0
  0
LTYPE
  5
15
100
AcDbSymbolTableRecord
100
AcDbLinetypeTableRecord
  2
BYLAYER
 70
0
  3

 72
65
 73
0
 40
0.0
  0
LTYPE
  5
16
100
AcDbSymbolTableRecord
100
AcDbLinetypeTableRecord
  2
CONTINUOUS
 70
64
  3
Solid line
 72
65
 73
0
 40
0.0
  0
LTYPE
  5
1F5
100
AcDbSymbolTableRecord
100
AcDbLinetypeTableRecord
  2
CENTER
 70
64
  3
____ _ ____ _ ____ _ ____ _ ____ _ ____ _ ____
 72
65
 73
4
 40
0.6
 49
0.375
 74
0
 49
-0.075
 74
0
 49
0.075
 74
0
 49
-0.075
 74
0
  0
LTYPE
  5
1F6
100
AcDbSymbolTableRecord
100
AcDbLinetypeTableRecord
  2
HIDDEN
 70
64
  3
- - - - - - - - - - - - - - - - - - - -
 72
65
 73
2
 40
0.2
 49
0.1
 74
0
 49
-0.1
 74
0
  0
LTYPE
  5
1F7
100
AcDbSymbolTableRecord
100
AcDbLinetypeTableRecord
  2
PHANTOM
 70
64
  3
_____ _ _ _____ _ _ _____ _ _ _____
 72
65
 73
6
 40
0.8
 49
0.45
 74
0
 49
-0.05
 74
0
 49
0.1
 74
0
 49
-0.05
 74
0
 49
0.1
 74
0
 49
-0.05
 74
0
  0
LTYPE
  5
1F8
100
AcDbSymbolTableRecord
100
AcDbLinetypeTableRecord
  2
DOT
 70
64
  3
. . . . . . . . . . . . . . . . . . . .
 72
65
 73
2
 40
0.2
 49
0.1
 74
0
 49
-0.1
 74
0
  0
LTYPE
  5
1F9
100
AcDbSymbolTableRecord
100
AcDbLinetypeTableRecord
  2
DASHED
 70
64
  3
- - - - - - - - - - - - - - - - - - - -
 72
65
 73
2
 40
0.2
 49
0.1
 74
0
 49
-0.1
 74
0
  0
ENDTAB
  0
TABLE
  2
LAYER
  5
2
100
AcDbSymbolTable
 70
36
  0
LAYER
  5
10
100
AcDbSymbolTableRecord
100
AcDbLayerTableRecord
  2
0
 70
0
 62
7
  6
CONTINUOUS
370
-3
390
F
  0
LAYER
  5
1FA
100
AcDbSymbolTableRecord
100
AcDbLayerTableRecord
  2
DEFAULT_1
 70
0
 62
7
  6
CENTER
370
-3
390
F
  0
LAYER
  5
1FB
100
AcDbSymbolTableRecord
100
AcDbLayerTableRecord
  2
DEFAULT_2
 70
0
 62
7
  6
HIDDEN
370
-3
390
F
  0
LAYER
  5
1FC
100
AcDbSymbolTableRecord
100
AcDbLayerTableRecord
  2
DEFAULT_3
 70
0
 62
7
  6
PHANTOM
370
-3
390
F
  0
LAYER
  5
1FD
100
AcDbSymbolTableRecord
100
AcDbLayerTableRecord
  2
ASSI
 70
0
 62
7
  6
CONTINUOUS
370
-3
390
F
  0
LAYER
  5
1FE
100
AcDbSymbolTableRecord
100
AcDbLayerTableRecord
  2
COORDINATE
 70
0
 62
7
  6
CONTINUOUS
370
-3
390
F
  0
LAYER
  5
1FF
100
AcDbSymbolTableRecord
100
AcDbLayerTableRecord
  2
COORD_ORIGINE
 70
0
 62
7
  6
CONTINUOUS
370
-3
390
F
  0
LAYER
  5
200
100
AcDbSymbolTableRecord
100
AcDbLayerTableRecord
  2
COPY_GEOM
 70
0
 62
7
  6
CONTINUOUS
370
-3
390
F
  0
LAYER
  5
201
100
AcDbSymbolTableRecord
100
AcDbLayerTableRecord
  2
COPY_PUBLISH
 70
0
 62
7
  6
CONTINUOUS
370
-3
390
F
  0
LAYER
  5
202
100
AcDbSymbolTableRecord
100
AcDbLayerTableRecord
  2
COSMETICI
 70
0
 62
7
  6
CONTINUOUS
370
-3
390
F
  0
LAYER
  5
203
100
AcDbSymbolTableRecord
100
AcDbLayerTableRecord
  2
CURVE
 70
0
 62
7
  6
CONTINUOUS
370
-3
390
F
  0
LAYER
  5
204
100
AcDbSymbolTableRecord
100
AcDbLayerTableRecord
  2
DRAFT
 70
0
 62
7
  6
CONTINUOUS
370
-3
390
F
  0
LAYER
  5
205
100
AcDbSymbolTableRecord
100
AcDbLayerTableRecord
  2
IGS
 70
0
 62
7
  6
CONTINUOUS
370
-3
390
F
  0
LAYER
  5
206
100
AcDbSymbolTableRecord
100
AcDbLayerTableRecord
  2
IMPORT_IGES
 70
0
 62
7
  6
CONTINUOUS
370
-3
390
F
  0
LAYER
  5
207
100
AcDbSymbolTableRecord
100
AcDbLayerTableRecord
  2
INTF_MAGENTA
 70
0
 62
7
  6
CONTINUOUS
370
-3
390
F
  0
LAYER
  5
208
100
AcDbSymbolTableRecord
100
AcDbLayerTableRecord
  2
NOTE
 70
0
 62
7
  6
CONTINUOUS
370
-3
390
F
  0
LAYER
  5
209
100
AcDbSymbolTableRecord
100
AcDbLayerTableRecord
  2
PIANI
 70
0
 62
7
  6
CONTINUOUS
370
-3
390
F
  0
LAYER
  5
20A
100
AcDbSymbolTableRecord
100
AcDbLayerTableRecord
  2
PIANI_ORIGINE
 70
0
 62
7
  6
CONTINUOUS
370
-3
390
F
  0
LAYER
  5
20B
100
AcDbSymbolTableRecord
100
AcDbLayerTableRecord
  2
PIANI_RIFERIMENTO
 70
0
 62
7
  6
CONTINUOUS
370
-3
390
F
  0
LAYER
  5
20C
100
AcDbSymbolTableRecord
100
AcDbLayerTableRecord
  2
PUNTI
 70
0
 62
7
  6
CONTINUOUS
370
-3
390
F
  0
LAYER
  5
20D
100
AcDbSymbolTableRecord
100
AcDbLayerTableRecord
  2
RACCORDO
 70
0
 62
7
  6
CONTINUOUS
370
-3
390
F
  0
LAYER
  5
20E
100
AcDbSymbolTableRecord
100
AcDbLayerTableRecord
  2
SIMBOLI
 70
0
 62
7
  6
CONTINUOUS
370
-3
390
F
  0
LAYER
  5
20F
100
AcDbSymbolTableRecord
100
AcDbLayerTableRecord
  2
SMUSSO
 70
0
 62
7
  6
CONTINUOUS
370
-3
390
F
  0
LAYER
  5
210
100
AcDbSymbolTableRecord
100
AcDbLayerTableRecord
  2
SNAPLINE
 70
0
 62
7
  6
CONTINUOUS
370
-3
390
F
  0
LAYER
  5
211
100
AcDbSymbolTableRecord
100
AcDbLayerTableRecord
  2
STANDARD
 70
0
 62
7
  6
CONTINUOUS
370
-3
390
F
  0
LAYER
  5
212
100
AcDbSymbolTableRecord
100
AcDbLayerTableRecord
  2
SUPERFICI
 70
0
 62
7
  6
CONTINUOUS
370
-3
390
F
  0
LAYER
  5
213
100
AcDbSymbolTableRecord
100
AcDbLayerTableRecord
  2
SUP_ARANCIONE
 70
0
 62
7
  6
CONTINUOUS
370
-3
390
F
  0
LAYER
  5
214
100
AcDbSymbolTableRecord
100
AcDbLayerTableRecord
  2
SUP_DIFF
 70
0
 62
7
  6
CONTINUOUS
370
-3
390
F
  0
LAYER
  5
215
100
AcDbSymbolTableRecord
100
AcDbLayerTableRecord
  2
SUP_ROSSA
 70
0
 62
7
  6
CONTINUOUS
370
-3
390
F
  0
LAYER
  5
216
100
AcDbSymbolTableRecord
100
AcDbLayerTableRecord
  2
SUP_VERDE
 70
0
 62
7
  6
CONTINUOUS
370
-3
390
F
  0
LAYER
  5
217
100
AcDbSymbolTableRecord
100
AcDbLayerTableRecord
  2
TRASH
 70
0
 62
7
  6
CONTINUOUS
370
-3
390
F
  0
LAYER
  5
218
100
AcDbSymbolTableRecord
100
AcDbLayerTableRecord
  2
XSEC_DATUMS
 70
0
 62
7
  6
CONTINUOUS
370
-3
390
F
  0
ENDTAB
  0
TABLE
  2
STYLE
  5
3
100
AcDbSymbolTable
 70
1
  0
STYLE
  5
11
100
AcDbSymbolTableRecord
100
AcDbTextStyleTableRecord
  2
STANDARD
 70
0
 40
0.0
 41
0.8
 50
0.0
 71
0
 42
0.2
  3
txt
  4

  0
STYLE
  5
219
100
AcDbSymbolTableRecord
100
AcDbTextStyleTableRecord
  2
TEXTSTYLE_1
 70
0
 40
0.0
 41
0.8
 50
0.0
 71
0
 42
0.2
  3
gdt
  4

  0
ENDTAB
  0
TABLE
  2
VIEW
  5
6
100
AcDbSymbolTable
 70
0
  0
ENDTAB
  0
TABLE
  2
UCS
  5
7
100
AcDbSymbolTable
 70
0
  0
ENDTAB
  0
TABLE
  2
APPID
  5
9
100
AcDbSymbolTable
 70
1
  0
APPID
  5
21A
100
AcDbSymbolTableRecord
100
AcDbRegAppTableRecord
  2
ACAD
 70
0
  0
ENDTAB
  0
TABLE
  2
BLOCK_RECORD
  5
1
100
AcDbSymbolTable
 70
0
  0
BLOCK_RECORD
  5
21B
100
AcDbSymbolTableRecord
100
AcDbBlockTableRecord
  2
*Model_Space
  0
BLOCK_RECORD
  5
21C
100
AcDbSymbolTableRecord
100
AcDbBlockTableRecord
  2
*Paper_Space
  0
BLOCK_RECORD
  5
21D
100
AcDbSymbolTableRecord
100
AcDbBlockTableRecord
  2
_FILLED
  0
BLOCK_RECORD
  5
21E
100
AcDbSymbolTableRecord
100
AcDbBlockTableRecord
  2
*D0
  0
BLOCK_RECORD
  5
21F
100
AcDbSymbolTableRecord
100
AcDbBlockTableRecord
  2
*D1
  0
BLOCK_RECORD
  5
220
100
AcDbSymbolTableRecord
100
AcDbBlockTableRecord
  2
*D2
  0
ENDTAB
  0
TABLE
  2
DIMSTYLE
  5
A
100
AcDbSymbolTable
 70
1
100
AcDbDimStyleTable
 71
0
  0
DIMSTYLE
105
221
100
AcDbSymbolTableRecord
100
AcDbDimStyleTableRecord
  2
STANDARD
 70
0
  3

  4

 40
1.0
 41
3.0
 42
0.5
 43
0.38
 44
1.5
 45
0.0
 46
0.0
 47
0.01
 48
0.01
140
3.0
141
0.09
142
0.0
143
25.4
144
1.0
145
0.0
146
1.0
147
0.625
 71
1.0
 72
0.0
 73
0
 74
0
 75
0
 76
0
 77
1
 78
8
170
0
171
2
172
0
173
0
174
0
175
0
176
0
177
0
178
0
270
2
271
2
272
2
273
2
274
2
275
0
280
0
281
0
282
0
283
1
284
8
285
0
286
0
287
3
288
0
340
11
278
44
341
21D
342
21D
343
21D
344
21D
  0
DIMSTYLE
105
222
100
AcDbSymbolTableRecord
100
AcDbDimStyleTableRecord
  2
DIMSTYLE_1
 70
0
  3

  4

 40
1.0
 41
3.0
 42
0.5
 43
0.38
 44
1.5
 45
0.0
 46
0.0
 47
0.0
 48
0.0
140
3.0
141
0.09
142
0.0
143
25.4
144
1.0
145
0.0
146
1.0
147
0.75
 71
0.0
 72
0.0
 73
0
 74
0
 75
0
 76
0
 77
1
 78
8
170
0
171
2
172
0
173
0
174
0
175
0
176
0
177
0
178
0
270
2
271
2
272
2
273
2
274
2
275
0
280
0
281
0
282
0
283
1
284
8
285
0
286
0
287
3
288
0
340
11
278
44
341
21D
342
21D
343
21D
344
21D
  0
ENDTAB
  0
ENDSEC
  0
SECTION
  2
BLOCKS
  0
BLOCK
  5
20
100
AcDbEntity
  8
0
100
AcDbBlockBegin
  2
*Model_Space
 70
0
 10
0.0
 20
0.0
 30
0.0
  3
*Model_Space
  1

  0
ENDBLK
  5
21
100
AcDbEntity
  8
0
100
AcDbBlockEnd
  0
BLOCK
  5
1C
100
AcDbEntity
  8
0
100
AcDbBlockBegin
  2
*Paper_Space
 70
0
 10
0.0
 20
0.0
 30
0.0
  3
*Paper_Space
  1

  0
ENDBLK
  5
1D
100
AcDbEntity
  8
0
100
AcDbBlockEnd
  0
BLOCK
  5
223
100
AcDbEntity
  8
0
100
AcDbBlockBegin
  2
_FILLED
 70
64
 10
0.0
 20
0.0
  3
_FILLED
  1

  0
SOLID
  5
224
100
AcDbEntity
  8
0
  6
BYBLOCK
 62
0
100
AcDbTrace
 10
0.0
 20
0.0
 11
-1.0
 21
0.3166666667
 12
-1.0
 22
-0.3166666667
 13
-1.0
 23
-0.3166666667
  0
ENDBLK
  5
225
100
AcDbEntity
  8
0
  6
BYBLOCK
 62
0
100
AcDbBlockEnd
  0
BLOCK
  5
226
100
AcDbEntity
  8
0
100
AcDbBlockBegin
 62
7
  6
CONTINUOUS
  2
*D0
 70
65
 10
0.0
 20
0.0
  3
*D0
  1

  0
MTEXT
  5
227
100
AcDbEntity
  8
0
100
AcDbMText
 62
7
  6
CONTINUOUS
  7
STANDARD
 71
2
 72
1
 10
173.2781600686
 20
137.412928616
 30
0.0
 11
1.0
 21
0.0
 31
0.0
 44
0.9
  1
22
 40
3.0
 41
7.0714285714
  0
LINE
  5
228
100
AcDbEntity
  8
0
100
AcDbLine
 62
7
  6
CONTINUOUS
 10
184.2781600686
 20
123.6630999535
 11
184.2781600686
 21
135.162928616
  0
LINE
  5
229
100
AcDbEntity
  8
0
100
AcDbLine
 62
7
  6
CONTINUOUS
 10
162.2781600686
 20
123.6630999535
 11
162.2781600686
 21
135.162928616
  0
LINE
  5
22A
100
AcDbEntity
  8
0
100
AcDbLine
 62
7
  6
CONTINUOUS
 10
184.2781600686
 20
133.662928616
 11
173.2781600686
 21
133.662928616
  0
LINE
  5
22B
100
AcDbEntity
  8
0
100
AcDbLine
 62
7
  6
CONTINUOUS
 10
162.2781600686
 20
133.662928616
 11
173.2781600686
 21
133.662928616
  0
INSERT
  5
22C
100
AcDbEntity
  8
0
100
AcDbBlockReference
 62
7
  6
CONTINUOUS
  2
_FILLED
 10
184.2781600686
 20
133.662928616
 41
3.0
 42
3.0
 43
3.0
  0
INSERT
  5
22D
100
AcDbEntity
  8
0
100
AcDbBlockReference
 62
7
  6
CONTINUOUS
  2
_FILLED
 10
162.2781600686
 20
133.662928616
 41
3.0
 42
3.0
 43
3.0
 50
180.0
  0
ENDBLK
  5
22E
100
AcDbEntity
  8
0
  6
BYBLOCK
 62
0
100
AcDbBlockEnd
  0
BLOCK
  5
22F
100
AcDbEntity
  8
0
100
AcDbBlockBegin
 62
7
  6
CONTINUOUS
  2
*D1
 70
65
 10
0.0
 20
0.0
  3
*D1
  1

  0
MTEXT
  5
230
100
AcDbEntity
  8
0
100
AcDbMText
 62
7
  6
CONTINUOUS
  7
STANDARD
 71
2
 72
1
 10
190.5281600686
 20
101.562928616
 30
0.0
 11
0.0
 21
1.0
 31
0.0
 44
0.9
  1
44,2
 40
3.0
 41
13.1785714286
  0
LINE
  5
231
100
AcDbEntity
  8
0
100
AcDbLine
 62
7
  6
CONTINUOUS
 10
184.2783314061
 20
123.662928616
 11
195.7781600686
 21
123.662928616
  0
LINE
  5
232
100
AcDbEntity
  8
0
100
AcDbLine
 62
7
  6
CONTINUOUS
 10
184.2783314061
 20
79.462928616
 11
195.7781600686
 21
79.462928616
  0
LINE
  5
233
100
AcDbEntity
  8
0
100
AcDbLine
 62
7
  6
CONTINUOUS
 10
194.2781600686
 20
123.662928616
 11
194.2781600686
 21
101.562928616
  0
LINE
  5
234
100
AcDbEntity
  8
0
100
AcDbLine
 62
7
  6
CONTINUOUS
 10
194.2781600686
 20
79.462928616
 11
194.2781600686
 21
101.562928616
  0
INSERT
  5
235
100
AcDbEntity
  8
0
100
AcDbBlockReference
 62
7
  6
CONTINUOUS
  2
_FILLED
 10
194.2781600686
 20
123.662928616
 41
3.0
 42
3.0
 43
3.0
 50
90.0
  0
INSERT
  5
236
100
AcDbEntity
  8
0
100
AcDbBlockReference
 62
7
  6
CONTINUOUS
  2
_FILLED
 10
194.2781600686
 20
79.462928616
 41
3.0
 42
3.0
 43
3.0
 50
270.0
  0
ENDBLK
  5
237
100
AcDbEntity
  8
0
  6
BYBLOCK
 62
0
100
AcDbBlockEnd
  0
BLOCK
  5
238
100
AcDbEntity
  8
0
100
AcDbBlockBegin
 62
7
  6
CONTINUOUS
  2
*D2
 70
65
 10
0.0
 20
0.0
  3
*D2
  1

  0
MTEXT
  5
239
100
AcDbEntity
  8
0
100
AcDbMText
 62
7
  6
CONTINUOUS
  7
STANDARD
 71
2
 72
1
 10
132.6298620704
 20
137.412928616
 30
0.0
 11
1.0
 21
0.0
 31
0.0
 44
0.9
  1
6
 40
3.0
 41
3.5357142857
  0
LINE
  5
23A
100
AcDbEntity
  8
0
100
AcDbLine
 62
7
  6
CONTINUOUS
 10
135.6298620704
 20
123.6630999535
 11
135.6298620704
 21
135.162928616
  0
LINE
  5
23B
100
AcDbEntity
  8
0
100
AcDbLine
 62
7
  6
CONTINUOUS
 10
129.6298620704
 20
102.062928616
 11
129.6298620704
 21
135.162928616
  0
LINE
  5
23C
100
AcDbEntity
  8
0
100
AcDbLine
 62
7
  6
CONTINUOUS
 10
135.6298620704
 20
133.662928616
 11
139.6298620704
 21
133.662928616
  0
LINE
  5
23D
100
AcDbEntity
  8
0
100
AcDbLine
 62
7
  6
CONTINUOUS
 10
139.6298620704
 20
133.662928616
 11
132.6298620704
 21
133.662928616
  0
LINE
  5
23E
100
AcDbEntity
  8
0
100
AcDbLine
 62
7
  6
CONTINUOUS
 10
129.6298620704
 20
133.662928616
 11
125.6298620704
 21
133.662928616
  0
LINE
  5
23F
100
AcDbEntity
  8
0
100
AcDbLine
 62
7
  6
CONTINUOUS
 10
125.6298620704
 20
133.662928616
 11
132.6298620704
 21
133.662928616
  0
INSERT
  5
240
100
AcDbEntity
  8
0
100
AcDbBlockReference
 62
7
  6
CONTINUOUS
  2
_FILLED
 10
135.6298620704
 20
133.662928616
 41
3.0
 42
3.0
 43
3.0
 50
180.0
  0
INSERT
  5
241
100
AcDbEntity
  8
0
100
AcDbBlockReference
 62
7
  6
CONTINUOUS
  2
_FILLED
 10
129.6298620704
 20
133.662928616
 41
3.0
 42
3.0
 43
3.0
  0
ENDBLK
  5
242
100
AcDbEntity
  8
0
  6
BYBLOCK
 62
0
100
AcDbBlockEnd
  0
ENDSEC
  0
SECTION
  2
ENTITIES
  0
DIMENSION
  5
243
100
AcDbEntity
  8
0
100
AcDbDimension
 62
7
  6
CONTINUOUS
  2
*D0
 10
162.2781600686
 20
133.662928616
 11
172.849585968
 21
133.662928616
 70
160
 71
2
 42
22.0
  3
DIMSTYLE_1
100
AcDbAlignedDimension
 13
184.2781600686
 23
123.1630999535
 14
162.2781600686
 24
123.1630999535
 50
180.0
100
AcDbRotatedDimension
  0
DIMENSION
  5
244
100
AcDbEntity
  8
0
100
AcDbDimension
 62
7
  6
CONTINUOUS
  2
*D1
 10
194.2781600686
 20
79.462928616
 11
194.2781600686
 21
101.1343581514
 70
160
 71
2
 42
44.2
  3
DIMSTYLE_1
100
AcDbAlignedDimension
 13
183.7783314061
 23
123.662928616
 14
183.7783314061
 24
79.462928616
 50
270.0
100
AcDbRotatedDimension
  0
DIMENSION
  5
245
100
AcDbEntity
  8
0
100
AcDbDimension
 62
7
  6
CONTINUOUS
  2
*D2
 10
129.6298620704
 20
133.662928616
 11
132.2012866058
 21
133.662928616
 70
160
 71
2
 42
6.0
  3
DIMSTYLE_1
100
AcDbAlignedDimension
 13
135.6298620704
 23
123.1630999535
 14
129.6298620704
 24
101.562928616
 50
180.0
100
AcDbRotatedDimension
  0
LINE
  5
246
100
AcDbEntity
  8
ASSI
100
AcDbLine
 62
7
  6
CONTINUOUS
 10
162.7779887311
 20
79.462928616
 11
183.7783314061
 21
79.462928616
  0
LINE
  5
247
100
AcDbEntity
  8
RACCORDO
100
AcDbLine
 62
7
  6
CONTINUOUS
 10
162.7779887311
 20
79.462928616
 11
183.7783314061
 21
79.462928616
  0
LINE
  5
248
100
AcDbEntity
  8
ASSI
100
AcDbLine
 62
253
  6
CONTINUOUS
 10
162.881865026
 20
79.5668049109
 11
183.6744551111
 21
79.5668049109
  0
LINE
  5
249
100
AcDbEntity
  8
RACCORDO
100
AcDbLine
 62
253
  6
CONTINUOUS
 10
162.881865026
 20
79.5668049109
 11
183.6744551111
 21
79.5668049109
  0
LINE
  5
24A
100
AcDbEntity
  8
ASSI
100
AcDbLine
 62
253
  6
CONTINUOUS
 10
162.8944703052
 20
80.4180749732
 11
183.6618498319
 21
80.4180749732
  0
LINE
  5
24B
100
AcDbEntity
  8
RACCORDO
100
AcDbLine
 62
253
  6
CONTINUOUS
 10
162.8944703052
 20
80.4180749732
 11
183.6618498319
 21
80.4180749732
  0
LWPOLYLINE
  5
24C
100
AcDbEntity
  8
ASSI
100
AcDbPolyline
 62
253
  6
CONTINUOUS
 90
16
 70
0
 10
162.3946416429
 20
122.6335886274
 10
162.3986223324
 20
122.6412188598
 10
162.4078580049
 20
122.6487682062
 10
162.4222507807
 20
122.6561566588
 10
162.4416481257
 20
122.6633059149
 10
162.4658444671
 20
122.6701402068
 10
162.4945833726
 20
122.6765871049
 10
162.5275602679
 20
122.682578285
 10
162.5644256645
 20
122.6880502528
 10
162.6047888637
 20
122.6929450165
 10
162.6482220971
 20
122.6972107013
 10
162.6942650603
 20
122.7008020997
 10
162.7424297908
 20
122.7036811503
 10
162.7922058398
 20
122.705817341
 10
162.8430656818
 20
122.7071880324
 10
162.8944703052
 20
122.707778698
  0
LWPOLYLINE
  5
24D
100
AcDbEntity
  8
RACCORDO
100
AcDbPolyline
 62
253
  6
CONTINUOUS
 90
16
 70
0
 10
162.3946416429
 20
122.6335886274
 10
162.3986223324
 20
122.6412188598
 10
162.4078580049
 20
122.6487682062
 10
162.4222507807
 20
122.6561566588
 10
162.4416481257
 20
122.6633059149
 10
162.4658444671
 20
122.6701402068
 10
162.4945833726
 20
122.6765871049
 10
162.5275602679
 20
122.682578285
 10
162.5644256645
 20
122.6880502528
 10
162.6047888637
 20
122.6929450165
 10
162.6482220971
 20
122.6972107013
 10
162.6942650603
 20
122.7008020997
 10
162.7424297908
 20
122.7036811503
 10
162.7922058398
 20
122.705817341
 10
162.8430656818
 20
122.7071880324
 10
162.8944703052
 20
122.707778698
  0
LWPOLYLINE
  5
24E
100
AcDbEntity
  8
ASSI
100
AcDbPolyline
 62
253
  6
CONTINUOUS
 90
16
 70
0
 10
162.3946416427
 20
80.4922686046
 10
162.3986210648
 20
80.4846380699
 10
162.4078556649
 20
80.4770884063
 10
162.4222475716
 20
80.4696996276
 10
162.4416442547
 20
80.4625500427
 10
162.4658401414
 20
80.4557154253
 10
162.4945787956
 20
80.449268211
 10
162.5275556353
 20
80.4432767294
 10
162.5644211608
 20
80.4378044804
 10
162.6047846589
 20
80.4329094607
 10
162.6482183434
 20
80.4286435494
 10
162.6942618896
 20
80.4250519581
 10
162.7424273122
 20
80.4221727513
 10
162.792204138
 20
80.4200364438
 10
162.8430648152
 20
80.4186656769
 10
162.8944703052
 20
80.4180749786
  0
LWPOLYLINE
  5
24F
100
AcDbEntity
  8
RACCORDO
100
AcDbPolyline
 62
253
  6
CONTINUOUS
 90
16
 70
0
 10
162.3946416427
 20
80.4922686046
 10
162.3986210648
 20
80.4846380699
 10
162.4078556649
 20
80.4770884063
 10
162.4222475716
 20
80.4696996276
 10
162.4416442547
 20
80.4625500427
 10
162.4658401414
 20
80.4557154253
 10
162.4945787956
 20
80.449268211
 10
162.5275556353
 20
80.4432767294
 10
162.5644211608
 20
80.4378044804
 10
162.6047846589
 20
80.4329094607
 10
162.6482183434
 20
80.4286435494
 10
162.6942618896
 20
80.4250519581
 10
162.7424273122
 20
80.4221727513
 10
162.792204138
 20
80.4200364438
 10
162.8430648152
 20
80.4186656769
 10
162.8944703052
 20
80.4180749786
  0
LWPOLYLINE
  5
250
100
AcDbEntity
  8
RACCORDO
100
AcDbPolyline
 62
7
  6
CONTINUOUS
 90
5
 70
0
 10
178.9807022608
 20
86.8313933571
 10
178.9586159694
 20
86.8257687318
 10
178.9362289431
 20
86.8211351857
 10
178.9137597646
 20
86.8175306118
 10
178.8912812947
 20
86.814967641
  0
LWPOLYLINE
  5
251
100
AcDbEntity
  8
ASSI
100
AcDbPolyline
 62
7
  6
CONTINUOUS
 90
12
 70
0
 10
178.9723558091
 20
86.8155146768
 10
179.0170982545
 20
86.8232212546
 10
179.0604951875
 20
86.8358847256
 10
179.1019533105
 20
86.8532529765
 10
179.1410363054
 20
86.8750615518
 10
179.1774354537
 20
86.9011013051
 10
179.2106944948
 20
86.9310454091
 10
179.2403981488
 20
86.9645193352
 10
179.2662777706
 20
87.0012688712
 10
179.287981279
 20
87.040926045
 10
179.305133745
 20
87.0829651311
 10
179.3174533001
 20
87.1268696057
  0
LINE
  5
252
100
AcDbEntity
  8
ASSI
100
AcDbLine
 62
7
  6
CONTINUOUS
 10
178.926832917
 20
86.812928616
 11
178.9723558091
 21
86.8155146768
  0
LWPOLYLINE
  5
253
100
AcDbEntity
  8
RACCORDO
100
AcDbPolyline
 62
7
  6
CONTINUOUS
 90
13
 70
0
 10
178.926832917
 20
86.812928616
 10
178.9723558091
 20
86.8155146768
 10
179.0170982545
 20
86.8232212546
 10
179.0604951875
 20
86.8358847256
 10
179.1019533105
 20
86.8532529765
 10
179.1410363054
 20
86.8750615518
 10
179.1774354537
 20
86.9011013051
 10
179.2106944948
 20
86.9310454091
 10
179.2403981488
 20
86.9645193352
 10
179.2662777706
 20
87.0012688712
 10
179.287981279
 20
87.040926045
 10
179.305133745
 20
87.0829651311
 10
179.3174533001
 20
87.1268696057
  0
LINE
  5
254
100
AcDbEntity
  8
ASSI
100
AcDbLine
 62
253
  6
CONTINUOUS
 10
178.9292801955
 20
86.7020304056
 11
167.6270399417
 21
86.7020304056
  0
LINE
  5
255
100
AcDbEntity
  8
RACCORDO
100
AcDbLine
 62
253
  6
CONTINUOUS
 10
178.9292801955
 20
86.7020304056
 11
167.6270399417
 21
86.7020304056
  0
LINE
  5
256
100
AcDbEntity
  8
ASSI
100
AcDbLine
 62
7
  6
CONTINUOUS
 10
178.9292801955
 20
86.8098831514
 11
167.6270399417
 21
86.8098831514
  0
LINE
  5
257
100
AcDbEntity
  8
RACCORDO
100
AcDbLine
 62
7
  6
CONTINUOUS
 10
178.9292801955
 20
86.8098831514
 11
167.6270399417
 21
86.8098831514
  0
LINE
  5
258
100
AcDbEntity
  8
DRAFT
100
AcDbLine
 62
7
  6
CONTINUOUS
 10
168.2781600686
 20
86.8190374234
 11
168.7781600686
 21
86.8190374234
  0
LINE
  5
259
100
AcDbEntity
  8
DRAFT
100
AcDbLine
 62
7
  6
CONTINUOUS
 10
177.7781600686
 20
86.8190374234
 11
178.2781600686
 21
86.8190374234
  0
LINE
  5
25A
100
AcDbEntity
  8
RACCORDO
100
AcDbLine
 62
253
  6
CONTINUOUS
 10
178.8388505465
 20
86.8218308975
 11
167.7174695907
 21
86.8218308975
  0
LINE
  5
25B
100
AcDbEntity
  8
RACCORDO
100
AcDbLine
 62
253
  6
CONTINUOUS
 10
178.8388505465
 20
86.9604963074
 11
167.7174695907
 21
86.9604963074
  0
LWPOLYLINE
  5
25C
100
AcDbEntity
  8
RACCORDO
100
AcDbPolyline
 62
253
  6
CONTINUOUS
 90
31
 70
0
 10
167.7174695907
 20
86.8218314982
 10
167.6947581917
 20
86.8223488248
 10
167.6720893544
 20
86.8238967821
 10
167.6495163101
 20
86.8264736355
 10
167.6270888585
 20
86.8300736317
 10
167.6048506432
 20
86.8346882162
 10
167.5828429659
 20
86.8403095459
 10
167.5611096154
 20
86.8469268162
 10
167.5396970802
 20
86.854525134
 10
167.5186509549
 20
86.8630895714
 10
167.4980158274
 20
86.8726028597
 10
167.4778334214
 20
86.8830443935
 10
167.4581448432
 20
86.8943936263
 10
167.4389911996
 20
86.9066281536
 10
167.4204117198
 20
86.9197216634
 10
167.402444833
 20
86.9336476754
 10
167.3851285235
 20
86.948378562
 10
167.3684980388
 20
86.9638830757
 10
167.3525879006
 20
86.9801292575
 10
167.3374321073
 20
86.9970845446
 10
167.3230613447
 20
87.0147135877
 10
167.309505225
 20
87.0329800485
 10
167.2967926526
 20
87.0518477322
 10
167.2849499378
 20
87.0712767942
 10
167.2740022541
 20
87.0912248141
 10
167.2639737974
 20
87.1116499394
 10
167.2548843758
 20
87.1325117353
 10
167.2467514638
 20
87.1537695833
 10
167.2395927611
 20
87.1753819819
 10
167.2334238532
 20
87.1973021407
 10
167.2282577718
 20
87.2194787631
  0
LWPOLYLINE
  5
25D
100
AcDbEntity
  8
RACCORDO
100
AcDbPolyline
 62
253
  6
CONTINUOUS
 90
31
 70
0
 10
167.7174695907
 20
86.9604963074
 10
167.7015434784
 20
86.9608616977
 10
167.6857084533
 20
86.9619438906
 10
167.6699645154
 20
86.9637428878
 10
167.6542776429
 20
86.9662651723
 10
167.6386818576
 20
86.9695042691
 10
167.6232792247
 20
86.9734407452
 10
167.608072576
 20
86.9780790166
 10
167.5930590796
 20
86.9834146824
 10
167.5783323053
 20
86.9894150866
 10
167.5638943545
 20
86.9960842652
 10
167.5497431258
 20
87.0034182033
 10
167.5359658847
 20
87.0113721683
 10
167.5225647705
 20
87.0199500618
 10
167.5095376439
 20
87.0291480077
 10
167.4969653519
 20
87.0389096072
 10
167.4848506231
 20
87.0492384658
 10
167.473190729
 20
87.0601310059
 10
167.4620583312
 20
87.0715200512
 10
167.4514567682
 20
87.0834086142
 10
167.4413827015
 20
87.0957937108
 10
167.4318987773
 20
87.1085991666
 10
167.4230084841
 20
87.1218280025
 10
167.4147083334
 20
87.1354772241
 10
167.4070505061
 20
87.1494616303
 10
167.4000387594
 20
87.1637850315
 10
167.3936693362
 20
87.1784436398
 10
167.3879831456
 20
87.193340851
 10
167.382993824
 20
87.2084444675
 10
167.3786877351
 20
87.2237867026
 10
167.3750648787
 20
87.2393675648
  0
LWPOLYLINE
  5
25E
100
AcDbEntity
  8
ASSI
100
AcDbPolyline
 62
253
  6
CONTINUOUS
 90
16
 70
0
 10
167.6270399401
 20
86.8098868541
 10
167.5909338252
 20
86.8115134918
 10
167.5551556281
 20
86.8163913713
 10
167.5199887599
 20
86.8244585143
 10
167.4857209703
 20
86.8356500958
 10
167.4526201766
 20
86.8498755972
 10
167.4209320075
 20
86.8670064899
 10
167.3909330563
 20
86.886894368
 10
167.3628592097
 20
86.9093996163
 10
167.3368742205
 20
86.9343790931
 10
167.3131577973
 20
86.9616843529
 10
167.2919769108
 20
86.9910714265
 10
167.2735692366
 20
87.0222130679
 10
167.2580770675
 20
87.0548147818
 10
167.2456047932
 20
87.0886510091
 10
167.2362521129
 20
87.1234449906
  0
LWPOLYLINE
  5
25F
100
AcDbEntity
  8
RACCORDO
100
AcDbPolyline
 62
253
  6
CONTINUOUS
 90
16
 70
0
 10
167.6270399401
 20
86.8098868541
 10
167.5909338252
 20
86.8115134918
 10
167.5551556281
 20
86.8163913713
 10
167.5199887599
 20
86.8244585143
 10
167.4857209703
 20
86.8356500958
 10
167.4526201766
 20
86.8498755972
 10
167.4209320075
 20
86.8670064899
 10
167.3909330563
 20
86.886894368
 10
167.3628592097
 20
86.9093996163
 10
167.3368742205
 20
86.9343790931
 10
167.3131577973
 20
86.9616843529
 10
167.2919769108
 20
86.9910714265
 10
167.2735692366
 20
87.0222130679
 10
167.2580770675
 20
87.0548147818
 10
167.2456047932
 20
87.0886510091
 10
167.2362521129
 20
87.1234449906
  0
LWPOLYLINE
  5
260
100
AcDbEntity
  8
ASSI
100
AcDbPolyline
 62
253
  6
CONTINUOUS
 90
16
 70
0
 10
167.6270399417
 20
86.7020304056
 10
167.5812516603
 20
86.7042311974
 10
167.5365826153
 20
86.7103308482
 10
167.4930328067
 20
86.7203294205
 10
167.4502767372
 20
86.7343754021
 10
167.4086399041
 20
86.7523205541
 10
167.3690987992
 20
86.7737198872
 10
167.33171372
 20
86.7986287009
 10
167.296424369
 20
86.8269921117
 10
167.2640263458
 20
86.8581998337
 10
167.2345389297
 20
86.8923999773
 10
167.2079428414
 20
86.9294449107
 10
167.1849758432
 20
86.9682806193
 10
167.1658838557
 20
87.0085558347
 10
167.1504209581
 20
87.0506221452
 10
167.1385871506
 20
87.0944797306
  0
LWPOLYLINE
  5
261
100
AcDbEntity
  8
RACCORDO
100
AcDbPolyline
 62
253
  6
CONTINUOUS
 90
16
 70
0
 10
167.6270399417
 20
86.7020304056
 10
167.5812516603
 20
86.7042311974
 10
167.5365826153
 20
86.7103308482
 10
167.4930328067
 20
86.7203294205
 10
167.4502767372
 20
86.7343754021
 10
167.4086399041
 20
86.7523205541
 10
167.3690987992
 20
86.7737198872
 10
167.33171372
 20
86.7986287009
 10
167.296424369
 20
86.8269921117
 10
167.2640263458
 20
86.8581998337
 10
167.2345389297
 20
86.8923999773
 10
167.2079428414
 20
86.9294449107
 10
167.1849758432
 20
86.9682806193
 10
167.1658838557
 20
87.0085558347
 10
167.1504209581
 20
87.0506221452
 10
167.1385871506
 20
87.0944797306
  0
LWPOLYLINE
  5
262
100
AcDbEntity
  8
RACCORDO
100
AcDbPolyline
 62
7
  6
CONTINUOUS
 90
5
 70
0
 10
167.6650424648
 20
86.8149674306
 10
167.6425666866
 20
86.8175297492
 10
167.6201010208
 20
86.8211333028
 10
167.5977180943
 20
86.8257654638
 10
167.5756357869
 20
86.8313883501
  0
LWPOLYLINE
  5
263
100
AcDbEntity
  8
RACCORDO
100
AcDbPolyline
 62
7
  6
CONTINUOUS
 90
18
 70
0
 10
167.5756357869
 20
86.8313883501
 10
167.5538801898
 20
86.8380099899
 10
167.5324252119
 20
86.8456223548
 10
167.5114104593
 20
86.8541634778
 10
167.490869484
 20
86.8636170941
 10
167.4707687341
 20
86.8739994685
 10
167.4511471605
 20
86.8852974285
 10
167.4319589259
 20
86.8975425864
 10
167.4132498676
 20
86.9107033299
 10
167.3951964486
 20
86.9246716491
 10
167.3778102831
 20
86.9394616071
 10
167.3610797569
 20
86.9550591407
 10
167.34514649
 20
86.9713140509
 10
167.330050906
 20
86.988187722
 10
167.3157525813
 20
87.0057187697
 10
167.3022718647
 20
87.0238728422
 10
167.2895854702
 20
87.0426800731
 10
167.2777166838
 20
87.0621103287
  0
LWPOLYLINE
  5
264
100
AcDbEntity
  8
RACCORDO
100
AcDbPolyline
 62
253
  6
CONTINUOUS
 90
25
 70
0
 10
167.2282573277
 20
87.21947867
 10
167.2287851387
 20
87.2188890735
 10
167.2299207016
 20
87.218429701
 10
167.2316592985
 20
87.2181024612
 10
167.2339937059
 20
87.2179087135
 10
167.2369142251
 20
87.2178492631
 10
167.240408722
 20
87.2179243568
 10
167.2444626782
 20
87.2181336828
 10
167.2490592504
 20
87.2184763712
 10
167.2541793412
 20
87.2189509983
 10
167.2598016781
 20
87.2195555923
 10
167.2659029018
 20
87.2202876411
 10
167.2724576634
 20
87.2211441032
 10
167.2794387297
 20
87.2221214205
 10
167.2868170963
 20
87.2232155323
 10
167.2945621082
 20
87.2244218929
 10
167.302641587
 20
87.2257354903
 10
167.3110219647
 20
87.2271508667
 10
167.3196684231
 20
87.2286621418
 10
167.3285450387
 20
87.2302630365
 10
167.3376149316
 20
87.2319468997
 10
167.3468404188
 20
87.2337067353
 10
167.3561831711
 20
87.2355352316
 10
167.3656043719
 20
87.2374247919
 10
167.3750648787
 20
87.2393675655
  0
LWPOLYLINE
  5
265
100
AcDbEntity
  8
ASSI
100
AcDbPolyline
 62
253
  6
CONTINUOUS
 90
16
 70
0
 10
162.3820363635
 20
80.0666335734
 10
162.3848077353
 20
80.0144112801
 10
162.3930199903
 20
79.9627604108
 10
162.4065833009
 20
79.9122463561
 10
162.4253492649
 20
79.8634220696
 10
162.4491125238
 20
79.8168220282
 10
162.477613005
 20
79.7729563779
 10
162.510538783
 20
79.7323053247
 10
162.5475294765
 20
79.6953139049
 10
162.5881801763
 20
79.6623871155
 10
162.6320459253
 20
79.6338854361
 10
162.678646556
 20
79.610120917
 10
162.7274719119
 20
79.5913537672
 10
162.7779875008
 20
79.5777894674
 10
162.8296403524
 20
79.5695765343
 10
162.8818650259
 20
79.5668049108
  0
LWPOLYLINE
  5
266
100
AcDbEntity
  8
RACCORDO
100
AcDbPolyline
 62
253
  6
CONTINUOUS
 90
16
 70
0
 10
162.3820363635
 20
80.0666335734
 10
162.3848077353
 20
80.0144112801
 10
162.3930199903
 20
79.9627604108
 10
162.4065833009
 20
79.9122463561
 10
162.4253492649
 20
79.8634220696
 10
162.4491125238
 20
79.8168220282
 10
162.477613005
 20
79.7729563779
 10
162.510538783
 20
79.7323053247
 10
162.5475294765
 20
79.6953139049
 10
162.5881801763
 20
79.6623871155
 10
162.6320459253
 20
79.6338854361
 10
162.678646556
 20
79.610120917
 10
162.7274719119
 20
79.5913537672
 10
162.7779875008
 20
79.5777894674
 10
162.8296403524
 20
79.5695765343
 10
162.8818650259
 20
79.5668049108
  0
LWPOLYLINE
  5
267
100
AcDbEntity
  8
ASSI
100
AcDbPolyline
 62
253
  6
CONTINUOUS
 90
16
 70
0
 10
162.3820363635
 20
123.0592236585
 10
162.3848078764
 20
123.1114472845
 10
162.3930205054
 20
123.1630992362
 10
162.4065843498
 20
123.2136140971
 10
162.4253509306
 20
123.2624388982
 10
162.4491148166
 20
123.3090391709
 10
162.4776158725
 20
123.3529047978
 10
162.5105421069
 20
123.3935555969
 10
162.5475330874
 20
123.4305465775
 10
162.5881838865
 20
123.4634728119
 10
162.6320495134
 20
123.4919738679
 10
162.6786497861
 20
123.5157377539
 10
162.7274745873
 20
123.5345043348
 10
162.7779894482
 20
123.5480681792
 10
162.8296413999
 20
123.5562808082
 10
162.881865026
 20
123.559052321
  0
LWPOLYLINE
  5
268
100
AcDbEntity
  8
RACCORDO
100
AcDbPolyline
 62
253
  6
CONTINUOUS
 90
16
 70
0
 10
162.3820363635
 20
123.0592236585
 10
162.3848078764
 20
123.1114472845
 10
162.3930205054
 20
123.1630992362
 10
162.4065843498
 20
123.2136140971
 10
162.4253509306
 20
123.2624388982
 10
162.4491148166
 20
123.3090391709
 10
162.4776158725
 20
123.3529047978
 10
162.5105421069
 20
123.3935555969
 10
162.5475330874
 20
123.4305465775
 10
162.5881838865
 20
123.4634728119
 10
162.6320495134
 20
123.4919738679
 10
162.6786497861
 20
123.5157377539
 10
162.7274745873
 20
123.5345043348
 10
162.7779894482
 20
123.5480681792
 10
162.8296413999
 20
123.5562808082
 10
162.881865026
 20
123.559052321
  0
LINE
  5
269
100
AcDbEntity
  8
0
100
AcDbLine
 62
253
  6
CONTINUOUS
 10
172.6453310686
 20
117.009570616
 11
172.1067590686
 21
116.547582616
  0
LINE
  5
26A
100
AcDbEntity
  8
0
100
AcDbLine
 62
253
  6
CONTINUOUS
 10
172.4732480686
 20
116.263569616
 11
172.8588060686
 21
116.579208616
  0
LINE
  5
26B
100
AcDbEntity
  8
0
100
AcDbLine
 62
253
  6
CONTINUOUS
 10
176.1587600686
 20
116.077533616
 11
175.8986200686
 21
115.960641616
  0
LINE
  5
26C
100
AcDbEntity
  8
0
100
AcDbLine
 62
253
  6
CONTINUOUS
 10
171.4987340686
 20
113.172904616
 11
170.9711690686
 21
112.936020616
  0
LINE
  5
26D
100
AcDbEntity
  8
0
100
AcDbLine
 62
253
  6
CONTINUOUS
 10
171.4074220686
 20
114.301518616
 11
171.9349860686
 21
114.538092616
  0
LINE
  5
26E
100
AcDbEntity
  8
0
100
AcDbLine
 62
253
  6
CONTINUOUS
 10
175.0019310686
 20
114.740561616
 11
174.6059860686
 21
114.563207616
  0
LINE
  5
26F
100
AcDbEntity
  8
0
100
AcDbLine
 62
253
  6
CONTINUOUS
 10
175.8986200686
 20
115.960641616
 11
169.6137330686
 21
113.148100616
  0
LINE
  5
270
100
AcDbEntity
  8
0
100
AcDbLine
 62
253
  6
CONTINUOUS
 10
174.2838350686
 20
115.589501616
 11
174.6797800686
 21
115.766235616
  0
LINE
  5
271
100
AcDbEntity
  8
0
100
AcDbLine
 62
253
  6
CONTINUOUS
 10
170.0479700686
 20
112.874008616
 11
176.3330130686
 21
115.687480616
  0
LINE
  5
272
100
AcDbEntity
  8
0
100
AcDbLine
 62
253
  6
CONTINUOUS
 10
169.7879860686
 20
112.758046616
 11
170.0479700686
 21
112.874008616
  0
LWPOLYLINE
  5
273
100
AcDbEntity
  8
ASSI
100
AcDbPolyline
 62
253
  6
CONTINUOUS
 90
7
 70
0
 10
184.1361558954
 20
92.072428616
 10
184.1321630348
 20
92.0714517493
 10
184.1229170765
 20
92.070485232
 10
184.1085159762
 20
92.0695393037
 10
184.0891123054
 20
92.068623986
 10
184.0649116348
 20
92.0677489763
 10
184.0361703567
 20
92.0669235446
  0
LWPOLYLINE
  5
274
100
AcDbEntity
  8
RACCORDO
100
AcDbPolyline
 62
253
  6
CONTINUOUS
 90
7
 70
0
 10
184.1361558954
 20
92.072428616
 10
184.1321630348
 20
92.0714517493
 10
184.1229170765
 20
92.070485232
 10
184.1085159762
 20
92.0695393037
 10
184.0891123054
 20
92.068623986
 10
184.0649116348
 20
92.0677489763
 10
184.0361703567
 20
92.0669235446
  0
LINE
  5
275
100
AcDbEntity
  8
RACCORDO
100
AcDbLine
 62
253
  6
CONTINUOUS
 10
179.2901888137
 20
90.8938141358
 11
179.2766134632
 21
90.8905260209
  0
LINE
  5
276
100
AcDbEntity
  8
RACCORDO
100
AcDbLine
 62
253
  6
CONTINUOUS
 10
179.2766134632
 20
90.8905260209
 11
179.2613881431
 21
90.8869544255
  0
LINE
  5
277
100
AcDbEntity
  8
RACCORDO
100
AcDbLine
 62
253
  6
CONTINUOUS
 10
179.2613881431
 20
90.8869544255
 11
179.2447726587
 21
90.8831602956
  0
LWPOLYLINE
  5
278
100
AcDbEntity
  8
ASSI
100
AcDbPolyline
 62
253
  6
CONTINUOUS
 90
10
 70
0
 10
167.1385871506
 20
87.0944797572
 10
167.1556220439
 20
87.0983419658
 10
167.1721345834
 20
87.102313306
 10
167.1876183846
 20
87.10627199
 10
167.201598611
 20
87.1100966181
 10
167.2136465359
 20
87.1136699018
 10
167.2233926896
 20
87.1168822608
 10
167.2305381901
 20
87.1196351829
 10
167.2348639086
 20
87.1218442451
 10
167.2362371898
 20
87.1234417027
  0
LWPOLYLINE
  5
279
100
AcDbEntity
  8
RACCORDO
100
AcDbPolyline
 62
253
  6
CONTINUOUS
 90
10
 70
0
 10
167.1385871506
 20
87.0944797572
 10
167.1556220439
 20
87.0983419658
 10
167.1721345834
 20
87.102313306
 10
167.1876183846
 20
87.10627199
 10
167.201598611
 20
87.1100966181
 10
167.2136465359
 20
87.1136699018
 10
167.2233926896
 20
87.1168822608
 10
167.2305381901
 20
87.1196351829
 10
167.2348639086
 20
87.1218442451
 10
167.2362371898
 20
87.1234417027
  0
LINE
  5
27A
100
AcDbEntity
  8
RACCORDO
100
AcDbLine
 62
253
  6
CONTINUOUS
 10
179.2447726587
 20
90.8831602956
 11
179.2270505371
 21
90.8792083743
  0
LWPOLYLINE
  5
27B
100
AcDbEntity
  8
ASSI
100
AcDbPolyline
 62
253
  6
CONTINUOUS
 90
10
 70
0
 10
179.4191582694
 20
91.0227798106
 10
179.4023639047
 20
91.0191256039
 10
179.3860699139
 20
91.0156713226
 10
179.3707618096
 20
91.0125198941
 10
179.3568957279
 20
91.0097652216
 10
179.3448848369
 20
91.0074893862
 10
179.3350870255
 20
91.0057602006
 10
179.3277942395
 20
91.0046291894
 10
179.3232237824
 20
91.0041300535
 10
179.3215118403
 20
91.0042776656
  0
LWPOLYLINE
  5
27C
100
AcDbEntity
  8
RACCORDO
100
AcDbPolyline
 62
253
  6
CONTINUOUS
 90
10
 70
0
 10
179.4191582694
 20
91.0227798106
 10
179.4023639047
 20
91.0191256039
 10
179.3860699139
 20
91.0156713226
 10
179.3707618096
 20
91.0125198941
 10
179.3568957279
 20
91.0097652216
 10
179.3448848369
 20
91.0074893862
 10
179.3350870255
 20
91.0057602006
 10
179.3277942395
 20
91.0046291894
 10
179.3232237824
 20
91.0041300535
 10
179.3215118403
 20
91.0042776656
  0
LINE
  5
27D
100
AcDbEntity
  8
RACCORDO
100
AcDbLine
 62
253
  6
CONTINUOUS
 10
179.2270505371
 20
90.8792083743
 11
179.199057833
 21
90.8731326028
  0
LINE
  5
27E
100
AcDbEntity
  8
RACCORDO
100
AcDbLine
 62
253
  6
CONTINUOUS
 10
179.199057833
 20
90.8731326028
 11
179.1799207158
 21
90.8690842855
  0
LINE
  5
27F
100
AcDbEntity
  8
RACCORDO
100
AcDbLine
 62
253
  6
CONTINUOUS
 10
167.3477960249
 20
90.8751660833
 11
167.3763994213
 21
90.8690842853
  0
LWPOLYLINE
  5
280
100
AcDbEntity
  8
ASSI
100
AcDbPolyline
 62
253
  6
CONTINUOUS
 90
10
 70
0
 10
167.1371618679
 20
91.0227798528
 10
167.153956474
 20
91.0191255792
 10
167.1702507664
 20
91.01567122
 10
167.1855592031
 20
91.0125197093
 10
167.1994256187
 20
91.0097649568
 10
167.2114368178
 20
91.0074890495
 10
167.2212348872
 20
91.0057598054
 10
167.228527861
 20
91.0046287532
 10
167.2330984212
 20
91.0041295963
 10
167.2348103728
 20
91.0042772089
  0
LWPOLYLINE
  5
281
100
AcDbEntity
  8
RACCORDO
100
AcDbPolyline
 62
253
  6
CONTINUOUS
 90
10
 70
0
 10
167.1371618679
 20
91.0227798528
 10
167.153956474
 20
91.0191255792
 10
167.1702507664
 20
91.01567122
 10
167.1855592031
 20
91.0125197093
 10
167.1994256187
 20
91.0097649568
 10
167.2114368178
 20
91.0074890495
 10
167.2212348872
 20
91.0057598054
 10
167.228527861
 20
91.0046287532
 10
167.2330984212
 20
91.0041295963
 10
167.2348103728
 20
91.0042772089
  0
LINE
  5
282
100
AcDbEntity
  8
RACCORDO
100
AcDbLine
 62
253
  6
CONTINUOUS
 10
167.3292697338
 20
90.8792083496
 11
167.3477960249
 21
90.8751660833
  0
LINE
  5
283
100
AcDbEntity
  8
RACCORDO
100
AcDbLine
 62
253
  6
CONTINUOUS
 10
167.3115476705
 20
90.8831602596
 11
167.3292697338
 21
90.8792083496
  0
LWPOLYLINE
  5
284
100
AcDbEntity
  8
ASSI
100
AcDbPolyline
 62
253
  6
CONTINUOUS
 90
10
 70
0
 10
179.4177329864
 20
87.0944798624
 10
179.4006978352
 20
87.0983420885
 10
179.3841849736
 20
87.1023134678
 10
179.3687008183
 20
87.1062722061
 10
179.3547202374
 20
87.1100968967
 10
179.3426719874
 20
87.1136702438
 10
179.3329255643
 20
87.1168826602
 10
179.3257798713
 20
87.1196356272
 10
179.3214540526
 20
87.1218447169
 10
179.3200807725
 20
87.1234421809
  0
LWPOLYLINE
  5
285
100
AcDbEntity
  8
RACCORDO
100
AcDbPolyline
 62
253
  6
CONTINUOUS
 90
10
 70
0
 10
179.4177329864
 20
87.0944798624
 10
179.4006978352
 20
87.0983420885
 10
179.3841849736
 20
87.1023134678
 10
179.3687008183
 20
87.1062722061
 10
179.3547202374
 20
87.1100968967
 10
179.3426719874
 20
87.1136702438
 10
179.3329255643
 20
87.1168826602
 10
179.3257798713
 20
87.1196356272
 10
179.3214540526
 20
87.1218447169
 10
179.3200807725
 20
87.1234421809
  0
LINE
  5
286
100
AcDbEntity
  8
RACCORDO
100
AcDbLine
 62
253
  6
CONTINUOUS
 10
167.2949322439
 20
90.8869543779
 11
167.3115476705
 21
90.8831602596
  0
LINE
  5
287
100
AcDbEntity
  8
RACCORDO
100
AcDbLine
 62
253
  6
CONTINUOUS
 10
167.2797069794
 20
90.8905259618
 11
167.2949322439
 21
90.8869543779
  0
LWPOLYLINE
  5
288
100
AcDbEntity
  8
ASSI
100
AcDbPolyline
 62
253
  6
CONTINUOUS
 90
9
 70
0
 10
162.4201642417
 20
92.072428616
 10
162.4241571003
 20
92.0714517493
 10
162.4334030569
 20
92.0704852319
 10
162.4478041559
 20
92.0695393036
 10
162.4672078257
 20
92.0686239859
 10
162.4914084956
 20
92.0677489761
 10
162.5201497732
 20
92.0669235444
 10
162.5531271612
 20
92.0661564358
 10
162.6303515835
 20
92.0648289923
  0
LWPOLYLINE
  5
289
100
AcDbEntity
  8
RACCORDO
100
AcDbPolyline
 62
253
  6
CONTINUOUS
 90
9
 70
0
 10
162.4201642417
 20
92.072428616
 10
162.4241571003
 20
92.0714517493
 10
162.4334030569
 20
92.0704852319
 10
162.4478041559
 20
92.0695393036
 10
162.4672078257
 20
92.0686239859
 10
162.4914084956
 20
92.0677489761
 10
162.5201497732
 20
92.0669235444
 10
162.5531271612
 20
92.0661564358
 10
162.6303515835
 20
92.0648289923
  0
LWPOLYLINE
  5
28A
100
AcDbEntity
  8
RACCORDO
100
AcDbPolyline
 62
253
  6
CONTINUOUS
 90
13
 70
0
 10
167.2295875088
 20
90.9046439325
 10
167.2299213851
 20
90.9042586402
 10
167.2308808057
 20
90.9037437561
 10
167.2324616734
 20
90.9031014789
 10
167.2346572371
 20
90.9023345516
 10
167.2374581204
 20
90.9014462493
 10
167.240852362
 20
90.9004403657
 10
167.2448254667
 20
90.8993211963
 10
167.2493604671
 20
90.8980935207
 10
167.2544379961
 20
90.8967625818
 10
167.26003637
 20
90.8953340632
 10
167.2661316806
 20
90.8938140658
 10
167.2797069794
 20
90.8905259618
  0
LINE
  5
28B
100
AcDbEntity
  8
RACCORDO
100
AcDbLine
 62
7
  6
CONTINUOUS
 10
167.2777166838
 20
87.0621103287
 11
167.2667557122
 21
87.0820388563
  0
LWPOLYLINE
  5
28C
100
AcDbEntity
  8
RACCORDO
100
AcDbPolyline
 62
7
  6
CONTINUOUS
 90
5
 70
0
 10
167.2667557122
 20
87.0820388563
 10
167.2567052805
 20
87.1024926935
 10
167.2475626635
 20
87.1234448027
 10
167.2394098921
 20
87.1446893177
 10
167.2322743097
 20
87.1661576165
  0
LWPOLYLINE
  5
28D
100
AcDbEntity
  8
ASSI
100
AcDbPolyline
 62
253
  6
CONTINUOUS
 90
10
 70
0
 10
162.390368657
 20
122.9338936904
 10
162.3895820031
 20
122.9584204616
 10
162.3887429991
 20
122.9807007922
 10
162.3878670013
 20
123.0003263523
 10
162.3869527764
 20
123.0172458176
 10
162.3860015577
 20
123.0315105125
 10
162.3850324014
 20
123.0428660797
 10
162.3840516597
 20
123.0512277336
 10
162.3830529804
 20
123.0566802599
 10
162.3820363635
 20
123.0592236585
  0
LWPOLYLINE
  5
28E
100
AcDbEntity
  8
RACCORDO
100
AcDbPolyline
 62
253
  6
CONTINUOUS
 90
10
 70
0
 10
162.390368657
 20
122.9338936904
 10
162.3895820031
 20
122.9584204616
 10
162.3887429991
 20
122.9807007922
 10
162.3878670013
 20
123.0003263523
 10
162.3869527764
 20
123.0172458176
 10
162.3860015577
 20
123.0315105125
 10
162.3850324014
 20
123.0428660797
 10
162.3840516597
 20
123.0512277336
 10
162.3830529804
 20
123.0566802599
 10
162.3820363635
 20
123.0592236585
  0
LWPOLYLINE
  5
28F
100
AcDbEntity
  8
ASSI
100
AcDbPolyline
 62
253
  6
CONTINUOUS
 90
7
 70
0
 10
162.8877001625
 20
123.4410441564
 10
162.8867890498
 20
123.4749499219
 10
162.8858410954
 20
123.5033551497
 10
162.8848730416
 20
123.5260874007
 10
162.8838904692
 20
123.5430095845
 10
162.8828877973
 20
123.5540200469
 10
162.881865026
 20
123.559052321
  0
LWPOLYLINE
  5
290
100
AcDbEntity
  8
RACCORDO
100
AcDbPolyline
 62
253
  6
CONTINUOUS
 90
7
 70
0
 10
162.8877001625
 20
123.4410441564
 10
162.8867890498
 20
123.4749499219
 10
162.8858410954
 20
123.5033551497
 10
162.8848730416
 20
123.5260874007
 10
162.8838904692
 20
123.5430095845
 10
162.8828877973
 20
123.5540200469
 10
162.881865026
 20
123.559052321
  0
LINE
  5
291
100
AcDbEntity
  8
ASSI
100
AcDbLine
 62
253
  6
CONTINUOUS
 10
162.3917827033
 20
122.8780238249
 11
162.390368657
 21
122.9338936904
  0
LINE
  5
292
100
AcDbEntity
  8
RACCORDO
100
AcDbLine
 62
253
  6
CONTINUOUS
 10
162.3917827033
 20
122.8780238249
 11
162.390368657
 21
122.9338936904
  0
LINE
  5
293
100
AcDbEntity
  8
ASSI
100
AcDbLine
 62
253
  6
CONTINUOUS
 10
162.8894108258
 20
123.3575841256
 11
162.8877001625
 21
123.4410441564
  0
LINE
  5
294
100
AcDbEntity
  8
RACCORDO
100
AcDbLine
 62
253
  6
CONTINUOUS
 10
162.8894108258
 20
123.3575841256
 11
162.8877001625
 21
123.4410441564
  0
LINE
  5
295
100
AcDbEntity
  8
ASSI
100
AcDbLine
 62
253
  6
CONTINUOUS
 10
162.3929501803
 20
122.814686256
 11
162.3917827033
 21
122.8780238249
  0
LINE
  5
296
100
AcDbEntity
  8
RACCORDO
100
AcDbLine
 62
253
  6
CONTINUOUS
 10
162.3929501803
 20
122.814686256
 11
162.3917827033
 21
122.8780238249
  0
LINE
  5
297
100
AcDbEntity
  8
ASSI
100
AcDbLine
 62
253
  6
CONTINUOUS
 10
162.3938501587
 20
122.7450889554
 11
162.3929501803
 21
122.814686256
  0
LINE
  5
298
100
AcDbEntity
  8
RACCORDO
100
AcDbLine
 62
253
  6
CONTINUOUS
 10
162.3938501587
 20
122.7450889554
 11
162.3929501803
 21
122.814686256
  0
LINE
  5
299
100
AcDbEntity
  8
ASSI
100
AcDbLine
 62
253
  6
CONTINUOUS
 10
162.8916072763
 20
123.1972421333
 11
162.8894108258
 21
123.3575841256
  0
LINE
  5
29A
100
AcDbEntity
  8
RACCORDO
100
AcDbLine
 62
253
  6
CONTINUOUS
 10
162.8916072763
 20
123.1972421333
 11
162.8894108258
 21
123.3575841256
  0
LINE
  5
29B
100
AcDbEntity
  8
ASSI
100
AcDbLine
 62
253
  6
CONTINUOUS
 10
162.8936738464
 20
122.93176144
 11
162.8916072763
 21
123.1972421333
  0
LINE
  5
29C
100
AcDbEntity
  8
RACCORDO
100
AcDbLine
 62
253
  6
CONTINUOUS
 10
162.8936738464
 20
122.93176144
 11
162.8916072763
 21
123.1972421333
  0
LINE
  5
29D
100
AcDbEntity
  8
ASSI
100
AcDbLine
 62
253
  6
CONTINUOUS
 10
162.3946416427
 20
122.6335886274
 11
162.3938501587
 21
122.7450889554
  0
LINE
  5
29E
100
AcDbEntity
  8
RACCORDO
100
AcDbLine
 62
253
  6
CONTINUOUS
 10
162.3946416427
 20
122.6335886274
 11
162.3938501587
 21
122.7450889554
  0
LINE
  5
29F
100
AcDbEntity
  8
ASSI
100
AcDbLine
 62
253
  6
CONTINUOUS
 10
162.8992507425
 20
121.4214562049
 11
162.8936738464
 21
122.93176144
  0
LINE
  5
2A0
100
AcDbEntity
  8
RACCORDO
100
AcDbLine
 62
253
  6
CONTINUOUS
 10
162.8992507425
 20
121.4214562049
 11
162.8936738464
 21
122.93176144
  0
LWPOLYLINE
  5
2A1
100
AcDbEntity
  8
ASSI
100
AcDbPolyline
 62
253
  6
CONTINUOUS
 90
9
 70
0
 10
162.4192765781
 20
112.3455367294
 10
162.4179014171
 20
113.6364948761
 10
162.4160387588
 20
114.926303056
 10
162.4136880003
 20
116.2152358694
 10
162.4108497444
 20
117.503018716
 10
162.4075257999
 20
118.7888277951
 10
162.4037167695
 20
120.0723885067
 10
162.3994220505
 20
121.3539754507
 10
162.3946416427
 20
122.6335886274
  0
LWPOLYLINE
  5
2A2
100
AcDbEntity
  8
RACCORDO
100
AcDbPolyline
 62
253
  6
CONTINUOUS
 90
9
 70
0
 10
162.4192765781
 20
112.3455367294
 10
162.4179014171
 20
113.6364948761
 10
162.4160387588
 20
114.926303056
 10
162.4136880003
 20
116.2152358694
 10
162.4108497444
 20
117.503018716
 10
162.4075257999
 20
118.7888277951
 10
162.4037167695
 20
120.0723885067
 10
162.3994220505
 20
121.3539754507
 10
162.3946416427
 20
122.6335886274
  0
LWPOLYLINE
  5
2A3
100
AcDbEntity
  8
ASSI
100
AcDbPolyline
 62
253
  6
CONTINUOUS
 90
8
 70
0
 10
162.9191051971
 20
112.3618301962
 10
162.9177300127
 20
113.6601050435
 10
162.9158673509
 20
114.9574825539
 10
162.9135166211
 20
116.2536922377
 10
162.9106784138
 20
117.5484639929
 10
162.9073545014
 20
118.8415281605
 10
162.9035454746
 20
120.1326152916
 10
162.8992507425
 20
121.4214562049
  0
LWPOLYLINE
  5
2A4
100
AcDbEntity
  8
RACCORDO
100
AcDbPolyline
 62
253
  6
CONTINUOUS
 90
8
 70
0
 10
162.9191051971
 20
112.3618301962
 10
162.9177300127
 20
113.6601050435
 10
162.9158673509
 20
114.9574825539
 10
162.9135166211
 20
116.2536922377
 10
162.9106784138
 20
117.5484639929
 10
162.9073545014
 20
118.8415281605
 10
162.9035454746
 20
120.1326152916
 10
162.8992507425
 20
121.4214562049
  0
LINE
  5
2A5
100
AcDbEntity
  8
ASSI
100
AcDbLine
 62
253
  6
CONTINUOUS
 10
162.42109704
 20
108.9444562518
 11
162.4192765781
 21
112.3455367294
  0
LINE
  5
2A6
100
AcDbEntity
  8
RACCORDO
100
AcDbLine
 62
253
  6
CONTINUOUS
 10
162.42109704
 20
108.9444562518
 11
162.4192765781
 21
112.3455367294
  0
LINE
  5
2A7
100
AcDbEntity
  8
ASSI
100
AcDbLine
 62
253
  6
CONTINUOUS
 10
162.9209257025
 20
108.951906825
 11
162.9191051971
 21
112.3618301962
  0
LINE
  5
2A8
100
AcDbEntity
  8
RACCORDO
100
AcDbLine
 62
253
  6
CONTINUOUS
 10
162.9209257025
 20
108.951906825
 11
162.9191051971
 21
112.3618301962
  0
LINE
  5
2A9
100
AcDbEntity
  8
ASSI
100
AcDbLine
 62
253
  6
CONTINUOUS
 10
162.4222630376
 20
104.7264693183
 11
162.42109704
 21
108.9444562518
  0
LINE
  5
2AA
100
AcDbEntity
  8
RACCORDO
100
AcDbLine
 62
253
  6
CONTINUOUS
 10
162.4222630376
 20
104.7264693183
 11
162.42109704
 21
108.9444562518
  0
LINE
  5
2AB
100
AcDbEntity
  8
ASSI
100
AcDbLine
 62
253
  6
CONTINUOUS
 10
162.9220917003
 20
104.7296348202
 11
162.9209257025
 21
108.951906825
  0
LINE
  5
2AC
100
AcDbEntity
  8
RACCORDO
100
AcDbLine
 62
253
  6
CONTINUOUS
 10
162.9220917003
 20
104.7296348202
 11
162.9209257025
 21
108.951906825
  0
LINE
  5
2AD
100
AcDbEntity
  8
ASSI
100
AcDbLine
 62
7
  6
CONTINUOUS
 10
162.2781600686
 20
79.9627572784
 11
162.2781600686
 21
123.1630999535
  0
LINE
  5
2AE
100
AcDbEntity
  8
RACCORDO
100
AcDbLine
 62
7
  6
CONTINUOUS
 10
162.2781600686
 20
79.9627572784
 11
162.2781600686
 21
123.1630999535
  0
LINE
  5
2AF
100
AcDbEntity
  8
ASSI
100
AcDbLine
 62
253
  6
CONTINUOUS
 10
162.4222630369
 20
98.3993834054
 11
162.4222630376
 21
104.7264693183
  0
LINE
  5
2B0
100
AcDbEntity
  8
RACCORDO
100
AcDbLine
 62
253
  6
CONTINUOUS
 10
162.4222630369
 20
98.3993834054
 11
162.4222630376
 21
104.7264693183
  0
LINE
  5
2B1
100
AcDbEntity
  8
ASSI
100
AcDbLine
 62
253
  6
CONTINUOUS
 10
162.9220917
 20
98.3962204284
 11
162.9220917003
 21
104.7296348202
  0
LINE
  5
2B2
100
AcDbEntity
  8
RACCORDO
100
AcDbLine
 62
253
  6
CONTINUOUS
 10
162.9220917
 20
98.3962204284
 11
162.9220917003
 21
104.7296348202
  0
LINE
  5
2B3
100
AcDbEntity
  8
ASSI
100
AcDbLine
 62
253
  6
CONTINUOUS
 10
162.4210970395
 20
94.1813989765
 11
162.4222630369
 21
98.3993834054
  0
LINE
  5
2B4
100
AcDbEntity
  8
RACCORDO
100
AcDbLine
 62
253
  6
CONTINUOUS
 10
162.4210970395
 20
94.1813989765
 11
162.4222630369
 21
98.3993834054
  0
LINE
  5
2B5
100
AcDbEntity
  8
ASSI
100
AcDbLine
 62
253
  6
CONTINUOUS
 10
162.9209257023
 20
94.1739495255
 11
162.9220917
 21
98.3962204284
  0
LINE
  5
2B6
100
AcDbEntity
  8
RACCORDO
100
AcDbLine
 62
253
  6
CONTINUOUS
 10
162.9209257023
 20
94.1739495255
 11
162.9220917
 21
98.3962204284
  0
LWPOLYLINE
  5
2B7
100
AcDbEntity
  8
ASSI
100
AcDbPolyline
 62
253
  6
CONTINUOUS
 90
9
 70
0
 10
162.3994220118
 20
81.7718689703
 10
162.4037167045
 20
83.053446298
 10
162.4075257207
 20
84.3370005875
 10
162.4108496668
 20
85.622806428
 10
162.4136879364
 20
86.9105892304
 10
162.4160387106
 20
88.1995252271
 10
162.4179013831
 20
89.4893398291
 10
162.4192765601
 20
90.7803076253
 10
162.4210970395
 20
94.1813989765
  0
LWPOLYLINE
  5
2B8
100
AcDbEntity
  8
RACCORDO
100
AcDbPolyline
 62
253
  6
CONTINUOUS
 90
9
 70
0
 10
162.3994220118
 20
81.7718689703
 10
162.4037167045
 20
83.053446298
 10
162.4075257207
 20
84.3370005875
 10
162.4108496668
 20
85.622806428
 10
162.4136879364
 20
86.9105892304
 10
162.4160387106
 20
88.1995252271
 10
162.4179013831
 20
89.4893398291
 10
162.4192765601
 20
90.7803076253
 10
162.4210970395
 20
94.1813989765
  0
LWPOLYLINE
  5
2B9
100
AcDbEntity
  8
ASSI
100
AcDbPolyline
 62
253
  6
CONTINUOUS
 90
9
 70
0
 10
162.8992507431
 20
81.7044010321
 10
162.9035454755
 20
82.9932419493
 10
162.9073545024
 20
84.2843290831
 10
162.9106784143
 20
85.577393252
 10
162.9135166207
 20
86.8721650074
 10
162.91586735
 20
88.16837469
 10
162.9177300118
 20
89.4657521977
 10
162.9191051965
 20
90.764027041
 10
162.9209257023
 20
94.1739495255
  0
LWPOLYLINE
  5
2BA
100
AcDbEntity
  8
RACCORDO
100
AcDbPolyline
 62
253
  6
CONTINUOUS
 90
9
 70
0
 10
162.8992507431
 20
81.7044010321
 10
162.9035454755
 20
82.9932419493
 10
162.9073545024
 20
84.2843290831
 10
162.9106784143
 20
85.577393252
 10
162.9135166207
 20
86.8721650074
 10
162.91586735
 20
88.16837469
 10
162.9177300118
 20
89.4657521977
 10
162.9191051965
 20
90.764027041
 10
162.9209257023
 20
94.1739495255
  0
LINE
  5
2BB
100
AcDbEntity
  8
ASSI
100
AcDbLine
 62
253
  6
CONTINUOUS
 10
162.8932600719
 20
80.1233226639
 11
162.8992507431
 21
81.7044010321
  0
LINE
  5
2BC
100
AcDbEntity
  8
RACCORDO
100
AcDbLine
 62
253
  6
CONTINUOUS
 10
162.8932600719
 20
80.1233226639
 11
162.8992507431
 21
81.7044010321
  0
LINE
  5
2BD
100
AcDbEntity
  8
ASSI
100
AcDbLine
 62
253
  6
CONTINUOUS
 10
162.3941871268
 20
80.4168727635
 11
162.3994220118
 21
81.7718689703
  0
LINE
  5
2BE
100
AcDbEntity
  8
RACCORDO
100
AcDbLine
 62
253
  6
CONTINUOUS
 10
162.3941871268
 20
80.4168727635
 11
162.3994220118
 21
81.7718689703
  0
LINE
  5
2BF
100
AcDbEntity
  8
ASSI
100
AcDbLine
 62
253
  6
CONTINUOUS
 10
162.8916069479
 20
79.928610917
 11
162.8932600719
 21
80.1233226639
  0
LINE
  5
2C0
100
AcDbEntity
  8
RACCORDO
100
AcDbLine
 62
253
  6
CONTINUOUS
 10
162.8916069479
 20
79.928610917
 11
162.8932600719
 21
80.1233226639
  0
LINE
  5
2C1
100
AcDbEntity
  8
ASSI
100
AcDbLine
 62
253
  6
CONTINUOUS
 10
162.3934360247
 20
80.3453885656
 11
162.3941871268
 21
80.4168727635
  0
LINE
  5
2C2
100
AcDbEntity
  8
RACCORDO
100
AcDbLine
 62
253
  6
CONTINUOUS
 10
162.3934360247
 20
80.3453885656
 11
162.3941871268
 21
80.4168727635
  0
LINE
  5
2C3
100
AcDbEntity
  8
ASSI
100
AcDbLine
 62
253
  6
CONTINUOUS
 10
162.8894099845
 20
79.7682693884
 11
162.8916069479
 21
79.928610917
  0
LINE
  5
2C4
100
AcDbEntity
  8
RACCORDO
100
AcDbLine
 62
253
  6
CONTINUOUS
 10
162.8894099845
 20
79.7682693884
 11
162.8916069479
 21
79.928610917
  0
LINE
  5
2C5
100
AcDbEntity
  8
ASSI
100
AcDbLine
 62
253
  6
CONTINUOUS
 10
162.3923972694
 20
80.2785070505
 11
162.3934360247
 21
80.3453885656
  0
LINE
  5
2C6
100
AcDbEntity
  8
RACCORDO
100
AcDbLine
 62
253
  6
CONTINUOUS
 10
162.3923972694
 20
80.2785070505
 11
162.3934360247
 21
80.3453885656
  0
LINE
  5
2C7
100
AcDbEntity
  8
0
100
AcDbLine
 62
253
  6
CONTINUOUS
 10
172.8716730686
 20
112.527983616
 11
172.7972590686
 21
112.485505616
  0
LINE
  5
2C8
100
AcDbEntity
  8
RACCORDO
100
AcDbLine
 62
7
  6
CONTINUOUS
 10
167.6650388364
 20
91.310889595
 11
167.6875994736
 21
91.3124235956
  0
LINE
  5
2C9
100
AcDbEntity
  8
ASSI
100
AcDbLine
 62
7
  6
CONTINUOUS
 10
167.6294872201
 20
91.312928616
 11
167.5839643281
 21
91.3103425551
  0
LINE
  5
2CA
100
AcDbEntity
  8
RACCORDO
100
AcDbLine
 62
7
  6
CONTINUOUS
 10
167.6294872201
 20
91.312928616
 11
167.5839643281
 21
91.3103425551
  0
LINE
  5
2CB
100
AcDbEntity
  8
RACCORDO
100
AcDbLine
 62
7
  6
CONTINUOUS
 10
167.6875994736
 20
91.3124235956
 11
167.710242239
 21
91.312928616
  0
LWPOLYLINE
  5
2CC
100
AcDbEntity
  8
ASSI
100
AcDbPolyline
 62
253
  6
CONTINUOUS
 90
3
 70
0
 10
184.0361703567
 20
92.0669235446
 10
183.9663288474
 20
92.0654557777
 10
183.9259685471
 20
92.0648289926
  0
LWPOLYLINE
  5
2CD
100
AcDbEntity
  8
RACCORDO
100
AcDbPolyline
 62
253
  6
CONTINUOUS
 90
3
 70
0
 10
184.0361703567
 20
92.0669235446
 10
183.9663288474
 20
92.0654557777
 10
183.9259685471
 20
92.0648289926
  0
LINE
  5
2CE
100
AcDbEntity
  8
RACCORDO
100
AcDbLine
 62
253
  6
CONTINUOUS
 10
167.7190223734
 20
91.1477548294
 11
178.8372977638
 21
91.1477548294
  0
LINE
  5
2CF
100
AcDbEntity
  8
RACCORDO
100
AcDbLine
 62
253
  6
CONTINUOUS
 10
167.7190223734
 20
91.3021147062
 11
178.8372977638
 21
91.3021147062
  0
LINE
  5
2D0
100
AcDbEntity
  8
DRAFT
100
AcDbLine
 62
7
  6
CONTINUOUS
 10
168.2781600686
 20
91.3068198085
 11
168.7781600686
 21
91.3068198085
  0
LINE
  5
2D1
100
AcDbEntity
  8
DRAFT
100
AcDbLine
 62
7
  6
CONTINUOUS
 10
177.7781600686
 20
91.3068198085
 11
178.2781600686
 21
91.3068198085
  0
LINE
  5
2D2
100
AcDbEntity
  8
ASSI
100
AcDbLine
 62
7
  6
CONTINUOUS
 10
167.6294873867
 20
91.312928616
 11
168.7781600686
 21
91.312928616
  0
LINE
  5
2D3
100
AcDbEntity
  8
RACCORDO
100
AcDbLine
 62
7
  6
CONTINUOUS
 10
167.6294873867
 20
91.312928616
 11
168.7781600686
 21
91.312928616
  0
LINE
  5
2D4
100
AcDbEntity
  8
ASSI
100
AcDbLine
 62
7
  6
CONTINUOUS
 10
177.7781600686
 20
91.312928616
 11
178.9268327677
 21
91.312928616
  0
LINE
  5
2D5
100
AcDbEntity
  8
RACCORDO
100
AcDbLine
 62
7
  6
CONTINUOUS
 10
177.7781600686
 20
91.312928616
 11
178.9268327677
 21
91.312928616
  0
LINE
  5
2D6
100
AcDbEntity
  8
ASSI
100
AcDbLine
 62
7
  6
CONTINUOUS
 10
167.6253079456
 20
91.318129963
 11
178.9310121915
 21
91.318129963
  0
LINE
  5
2D7
100
AcDbEntity
  8
RACCORDO
100
AcDbLine
 62
7
  6
CONTINUOUS
 10
167.6253079456
 20
91.318129963
 11
178.9310121915
 21
91.318129963
  0
LINE
  5
2D8
100
AcDbEntity
  8
ASSI
100
AcDbLine
 62
253
  6
CONTINUOUS
 10
167.6253079456
 20
91.4155067977
 11
178.9310121915
 21
91.4155067977
  0
LINE
  5
2D9
100
AcDbEntity
  8
RACCORDO
100
AcDbLine
 62
253
  6
CONTINUOUS
 10
167.6253079456
 20
91.4155067977
 11
178.9310121915
 21
91.4155067977
  0
LINE
  5
2DA
100
AcDbEntity
  8
RACCORDO
100
AcDbLine
 62
7
  6
CONTINUOUS
 10
178.8460778981
 20
91.312928616
 11
178.868719146
 21
91.3124235185
  0
LWPOLYLINE
  5
2DB
100
AcDbEntity
  8
RACCORDO
100
AcDbPolyline
 62
253
  6
CONTINUOUS
 90
31
 70
0
 10
178.8372977637
 20
91.3021141163
 10
178.8600306774
 20
91.3015961609
 10
178.8827204401
 20
91.3000463737
 10
178.9053139535
 20
91.2974666461
 10
178.9277619244
 20
91.2938627203
 10
178.9500204175
 20
91.28924319
 10
178.9720471088
 20
91.2836162618
 10
178.993798223
 20
91.2769929105
 10
179.0152275001
 20
91.2693880577
 10
179.0362887695
 20
91.260817035
 10
179.0569375805
 20
91.2512972684
 10
179.0771323174
 20
91.2408494451
 10
179.0968314312
 20
91.2294945756
 10
179.1159939701
 20
91.2172552407
 10
179.1345808163
 20
91.2041578817
 10
179.1525532561
 20
91.1902294738
 10
179.1698734245
 20
91.1754978889
 10
179.1865062766
 20
91.1599945123
 10
179.2024173394
 20
91.1437516293
 10
179.2175727254
 20
91.1268020752
 10
179.2319420042
 20
91.1091813293
 10
179.245495939
 20
91.0909257127
 10
179.2582057499
 20
91.0720716413
 10
179.270045358
 20
91.052659101
 10
179.2809901023
 20
91.0327301829
 10
179.2910158738
 20
91.0123269619
 10
179.3001030906
 20
90.9914899596
 10
179.3082348516
 20
90.9702590657
 10
179.3153936483
 20
90.9486755568
 10
179.3215638794
 20
90.9267866825
 10
179.326732689
 20
90.9046439452
  0
LWPOLYLINE
  5
2DC
100
AcDbEntity
  8
RACCORDO
100
AcDbPolyline
 62
253
  6
CONTINUOUS
 90
31
 70
0
 10
178.8372977638
 20
91.1477548294
 10
178.8532389718
 20
91.1473890062
 10
178.8690889881
 20
91.1463058559
 10
178.8848478125
 20
91.1445053793
 10
178.9005496438
 20
91.1419809931
 10
178.9161602832
 20
91.1387392835
 10
178.9315771346
 20
91.1348000066
 10
178.9467972679
 20
91.1301587332
 10
178.9618236131
 20
91.1248198983
 10
178.9765623641
 20
91.118816555
 10
178.9910113864
 20
91.1121446591
 10
179.0051728146
 20
91.1048082632
 10
179.0189592463
 20
91.0968525657
 10
179.0323684992
 20
91.0882736623
 10
179.0454027558
 20
91.0790754676
 10
179.0579811609
 20
91.0693149086
 10
179.070100899
 20
91.0589884293
 10
179.0817647857
 20
91.0480995972
 10
179.0929004132
 20
91.0367160244
 10
179.1035043649
 20
91.0248347985
 10
179.1135800574
 20
91.0124588438
 10
179.1230653331
 20
90.9996645259
 10
179.131956678
 20
90.9864489235
 10
179.140257606
 20
90.9728149695
 10
179.1479165014
 20
90.9588478098
 10
179.1549296122
 20
90.9445437475
 10
179.1613006904
 20
90.9299064899
 10
179.1669893758
 20
90.9150322865
 10
179.1719822152
 20
90.8999532225
 10
179.1762926619
 20
90.8846372206
 10
179.1799207158
 20
90.8690842851
  0
LWPOLYLINE
  5
2DD
100
AcDbEntity
  8
ASSI
100
AcDbPolyline
 62
253
  6
CONTINUOUS
 90
16
 70
0
 10
178.9310121931
 20
91.3181262014
 10
178.967160921
 20
91.3164938223
 10
179.0029695126
 20
91.3115999939
 10
179.0381549245
 20
91.3035087959
 10
179.0724313895
 20
91.2922866473
 10
179.1055306138
 20
91.2780259721
 10
179.1372043268
 20
91.2608588457
 10
179.1671751286
 20
91.2409375947
 10
179.1952110426
 20
91.2184027931
 10
179.2211525975
 20
91.1933970578
 10
179.2448205367
 20
91.1660712367
 10
179.265949923
 20
91.1366702674
 10
179.2843080091
 20
91.1055174125
 10
179.2997540819
 20
91.072906548
 10
179.3121832882
 20
91.0390663281
 10
179.3214969326
 20
91.0042743786
  0
LWPOLYLINE
  5
2DE
100
AcDbEntity
  8
RACCORDO
100
AcDbPolyline
 62
253
  6
CONTINUOUS
 90
16
 70
0
 10
178.9310121931
 20
91.3181262014
 10
178.967160921
 20
91.3164938223
 10
179.0029695126
 20
91.3115999939
 10
179.0381549245
 20
91.3035087959
 10
179.0724313895
 20
91.2922866473
 10
179.1055306138
 20
91.2780259721
 10
179.1372043268
 20
91.2608588457
 10
179.1671751286
 20
91.2409375947
 10
179.1952110426
 20
91.2184027931
 10
179.2211525975
 20
91.1933970578
 10
179.2448205367
 20
91.1660712367
 10
179.265949923
 20
91.1366702674
 10
179.2843080091
 20
91.1055174125
 10
179.2997540819
 20
91.072906548
 10
179.3121832882
 20
91.0390663281
 10
179.3214969326
 20
91.0042743786
  0
LWPOLYLINE
  5
2DF
100
AcDbEntity
  8
ASSI
100
AcDbPolyline
 62
253
  6
CONTINUOUS
 90
16
 70
0
 10
178.9310121915
 20
91.4155067977
 10
178.9768515613
 20
91.4132956239
 10
179.0215589138
 20
91.4071784332
 10
179.0651342489
 20
91.3971552468
 10
179.1079032921
 20
91.383074769
 10
179.149540318
 20
91.3650883799
 10
179.1890681503
 20
91.3436501282
 10
179.22642342
 20
91.3187068477
 10
179.2616694961
 20
91.2903118528
 10
179.2940193094
 20
91.2590789076
 10
179.3234536243
 20
91.2248621569
 10
179.3499916763
 20
91.1878076408
 10
179.3729041031
 20
91.1489669283
 10
179.3919477838
 20
91.1086905766
 10
179.4073658392
 20
91.0666281724
 10
179.4191582694
 20
91.0227797996
  0
LWPOLYLINE
  5
2E0
100
AcDbEntity
  8
RACCORDO
100
AcDbPolyline
 62
253
  6
CONTINUOUS
 90
16
 70
0
 10
178.9310121915
 20
91.4155067977
 10
178.9768515613
 20
91.4132956239
 10
179.0215589138
 20
91.4071784332
 10
179.0651342489
 20
91.3971552468
 10
179.1079032921
 20
91.383074769
 10
179.149540318
 20
91.3650883799
 10
179.1890681503
 20
91.3436501282
 10
179.22642342
 20
91.3187068477
 10
179.2616694961
 20
91.2903118528
 10
179.2940193094
 20
91.2590789076
 10
179.3234536243
 20
91.2248621569
 10
179.3499916763
 20
91.1878076408
 10
179.3729041031
 20
91.1489669283
 10
179.3919477838
 20
91.1086905766
 10
179.4073658392
 20
91.0666281724
 10
179.4191582694
 20
91.0227797996
  0
LINE
  5
2E1
100
AcDbEntity
  8
RACCORDO
100
AcDbLine
 62
7
  6
CONTINUOUS
 10
178.868719146
 20
91.3124235185
 11
178.8912776789
 21
91.3108898054
  0
LINE
  5
2E2
100
AcDbEntity
  8
RACCORDO
100
AcDbLine
 62
253
  6
CONTINUOUS
 10
167.7190223734
 20
91.3021147062
 11
167.710242239
 21
91.312928616
  0
LINE
  5
2E3
100
AcDbEntity
  8
ASSI
100
AcDbLine
 62
253
  6
CONTINUOUS
 10
167.2388667566
 20
90.9989872608
 11
167.2348066966
 21
91.0042780189
  0
LINE
  5
2E4
100
AcDbEntity
  8
RACCORDO
100
AcDbLine
 62
253
  6
CONTINUOUS
 10
167.2388667566
 20
90.9989872608
 11
167.2348066966
 21
91.0042780189
  0
LINE
  5
2E5
100
AcDbEntity
  8
RACCORDO
100
AcDbLine
 62
253
  6
CONTINUOUS
 10
167.229586932
 20
90.9046440533
 11
167.2209726815
 21
90.9158858006
  0
LINE
  5
2E6
100
AcDbEntity
  8
RACCORDO
100
AcDbLine
 62
7
  6
CONTINUOUS
 10
167.2322743097
 20
87.1661576165
 11
167.2261285728
 21
87.187918321
  0
LWPOLYLINE
  5
2E7
100
AcDbEntity
  8
ASSI
100
AcDbPolyline
 62
7
  6
CONTINUOUS
 90
13
 70
0
 10
167.2388668372
 20
87.1268696051
 10
167.2511863923
 20
87.0829651308
 10
167.2683388582
 20
87.0409260449
 10
167.2900423666
 20
87.0012688712
 10
167.3159219884
 20
86.9645193353
 10
167.3456256423
 20
86.9310454092
 10
167.3788846834
 20
86.9011013051
 10
167.4152838318
 20
86.8750615518
 10
167.4543668267
 20
86.8532529765
 10
167.4958249497
 20
86.8358847256
 10
167.5392218827
 20
86.8232212546
 10
167.5839643281
 20
86.8155146768
 10
167.6294872201
 20
86.812928616
  0
LWPOLYLINE
  5
2E8
100
AcDbEntity
  8
RACCORDO
100
AcDbPolyline
 62
7
  6
CONTINUOUS
 90
13
 70
0
 10
167.2388668372
 20
87.1268696051
 10
167.2511863923
 20
87.0829651308
 10
167.2683388582
 20
87.0409260449
 10
167.2900423666
 20
87.0012688712
 10
167.3159219884
 20
86.9645193353
 10
167.3456256423
 20
86.9310454092
 10
167.3788846834
 20
86.9011013051
 10
167.4152838318
 20
86.8750615518
 10
167.4543668267
 20
86.8532529765
 10
167.4958249497
 20
86.8358847256
 10
167.5392218827
 20
86.8232212546
 10
167.5839643281
 20
86.8155146768
 10
167.6294872201
 20
86.812928616
  0
LINE
  5
2E9
100
AcDbEntity
  8
ASSI
100
AcDbLine
 62
253
  6
CONTINUOUS
 10
183.7783314061
 20
123.662928616
 11
183.6744551111
 21
123.559052321
  0
LINE
  5
2EA
100
AcDbEntity
  8
RACCORDO
100
AcDbLine
 62
253
  6
CONTINUOUS
 10
183.7783314061
 20
123.662928616
 11
183.6744551111
 21
123.559052321
  0
LINE
  5
2EB
100
AcDbEntity
  8
0
100
AcDbLine
 62
253
  6
CONTINUOUS
 10
172.7972590686
 20
112.485505616
 11
172.7682690686
 21
112.460390616
  0
LINE
  5
2EC
100
AcDbEntity
  8
0
100
AcDbLine
 62
253
  6
CONTINUOUS
 10
172.7208300686
 20
111.116286616
 11
172.8422180686
 21
111.157214616
  0
LWPOLYLINE
  5
2ED
100
AcDbEntity
  8
RACCORDO
100
AcDbPolyline
 62
7
  6
CONTINUOUS
 90
5
 70
0
 10
167.5756175708
 20
91.2944637893
 10
167.5977039595
 20
91.3000884509
 10
167.6200910794
 20
91.3047220226
 10
167.6425603275
 20
91.308326614
 10
167.6650388364
 20
91.310889595
  0
LWPOLYLINE
  5
2EE
100
AcDbEntity
  8
ASSI
100
AcDbPolyline
 62
7
  6
CONTINUOUS
 90
12
 70
0
 10
167.5839643281
 20
91.3103425551
 10
167.5392218827
 20
91.3026359773
 10
167.4958249497
 20
91.2899725063
 10
167.4543668267
 20
91.2726042554
 10
167.4152838318
 20
91.2507956801
 10
167.3788846834
 20
91.2247559269
 10
167.3456256425
 20
91.1948118229
 10
167.3159219886
 20
91.161337897
 10
167.2900423666
 20
91.1245883608
 10
167.2683388577
 20
91.0849311859
 10
167.2511863912
 20
91.0428920981
 10
167.238866836
 20
90.9989876212
  0
LWPOLYLINE
  5
2EF
100
AcDbEntity
  8
RACCORDO
100
AcDbPolyline
 62
7
  6
CONTINUOUS
 90
12
 70
0
 10
167.5839643281
 20
91.3103425551
 10
167.5392218827
 20
91.3026359773
 10
167.4958249497
 20
91.2899725063
 10
167.4543668267
 20
91.2726042554
 10
167.4152838318
 20
91.2507956801
 10
167.3788846834
 20
91.2247559269
 10
167.3456256425
 20
91.1948118229
 10
167.3159219886
 20
91.161337897
 10
167.2900423666
 20
91.1245883608
 10
167.2683388577
 20
91.0849311859
 10
167.2511863912
 20
91.0428920981
 10
167.238866836
 20
90.9989876212
  0
LINE
  5
2F0
100
AcDbEntity
  8
ASSI
100
AcDbLine
 62
253
  6
CONTINUOUS
 10
183.9259685471
 20
92.0648289926
 11
183.8365022969
 21
92.0638227508
  0
LINE
  5
2F1
100
AcDbEntity
  8
RACCORDO
100
AcDbLine
 62
253
  6
CONTINUOUS
 10
183.9259685471
 20
92.0648289926
 11
183.8365022969
 21
92.0638227508
  0
LINE
  5
2F2
100
AcDbEntity
  8
ASSI
100
AcDbLine
 62
253
  6
CONTINUOUS
 10
183.8365022969
 20
92.0638227508
 11
183.6877236503
 21
92.0630045067
  0
LINE
  5
2F3
100
AcDbEntity
  8
RACCORDO
100
AcDbLine
 62
253
  6
CONTINUOUS
 10
183.8365022969
 20
92.0638227508
 11
183.6877236503
 21
92.0630045067
  0
LINE
  5
2F4
100
AcDbEntity
  8
0
100
AcDbLine
 62
253
  6
CONTINUOUS
 10
175.6614937039
 20
93.312928616
 11
175.1043504925
 21
93.312928616
  0
LINE
  5
2F5
100
AcDbEntity
  8
0
100
AcDbLine
 62
253
  6
CONTINUOUS
 10
171.3900649996
 20
93.312928616
 11
170.6472079011
 21
93.312928616
  0
LINE
  5
2F6
100
AcDbEntity
  8
0
100
AcDbLine
 62
253
  6
CONTINUOUS
 10
166.4376840325
 20
93.312928616
 11
167.3662554832
 21
93.312928616
  0
LINE
  5
2F7
100
AcDbEntity
  8
0
100
AcDbLine
 62
253
  6
CONTINUOUS
 10
178.8186362954
 20
93.312928616
 11
179.7472079011
 21
93.312928616
  0
LINE
  5
2F8
100
AcDbEntity
  8
ASSI
100
AcDbLine
 62
253
  6
CONTINUOUS
 10
162.8685964855
 20
92.0630045063
 11
183.6877236503
 21
92.0630045067
  0
LINE
  5
2F9
100
AcDbEntity
  8
RACCORDO
100
AcDbLine
 62
253
  6
CONTINUOUS
 10
162.8685964855
 20
92.0630045063
 11
183.6877236503
 21
92.0630045067
  0
LINE
  5
2FA
100
AcDbEntity
  8
ASSI
100
AcDbLine
 62
253
  6
CONTINUOUS
 10
162.7198178353
 20
92.0638227505
 11
162.8685964855
 21
92.0630045063
  0
LINE
  5
2FB
100
AcDbEntity
  8
RACCORDO
100
AcDbLine
 62
253
  6
CONTINUOUS
 10
162.7198178353
 20
92.0638227505
 11
162.8685964855
 21
92.0630045063
  0
LINE
  5
2FC
100
AcDbEntity
  8
ASSI
100
AcDbLine
 62
253
  6
CONTINUOUS
 10
162.6303515835
 20
92.0648289923
 11
162.7198178353
 21
92.0638227505
  0
LINE
  5
2FD
100
AcDbEntity
  8
RACCORDO
100
AcDbLine
 62
253
  6
CONTINUOUS
 10
162.6303515835
 20
92.0648289923
 11
162.7198178353
 21
92.0638227505
  0
LWPOLYLINE
  5
2FE
100
AcDbEntity
  8
RACCORDO
100
AcDbPolyline
 62
7
  6
CONTINUOUS
 90
5
 70
0
 10
178.8912776789
 20
91.3108898054
 10
178.9137534968
 20
91.3083274764
 10
178.9362192331
 20
91.3047239052
 10
178.9586022543
 20
91.3000917181
 10
178.9806846606
 20
91.294468795
  0
LWPOLYLINE
  5
2FF
100
AcDbEntity
  8
RACCORDO
100
AcDbPolyline
 62
7
  6
CONTINUOUS
 90
18
 70
0
 10
178.9806846606
 20
91.294468795
 10
179.0024403687
 20
91.2878470991
 10
179.0238954618
 20
91.2802346671
 10
179.0449102893
 20
91.2716934891
 10
179.0654512657
 20
91.2622398461
 10
179.0855519765
 20
91.2518574572
 10
179.1051735281
 20
91.2405594693
 10
179.1243617779
 20
91.228314265
 10
179.1430708684
 20
91.2151534617
 10
179.1611243338
 20
91.2011850592
 10
179.1785105713
 20
91.1863949795
 10
179.1952411835
 20
91.1707973007
 10
179.2111745126
 20
91.1545422561
 10
179.2262701296
 20
91.1376684522
 10
179.2405684635
 20
91.1201372827
 10
179.2540491425
 20
91.1019831617
 10
179.2667354256
 20
91.0831759962
 10
179.2786040537
 20
91.0637458792
  0
LINE
  5
300
100
AcDbEntity
  8
ASSI
100
AcDbLine
 62
253
  6
CONTINUOUS
 10
183.6744551111
 20
79.5668049109
 11
183.7783314061
 21
79.462928616
  0
LINE
  5
301
100
AcDbEntity
  8
RACCORDO
100
AcDbLine
 62
253
  6
CONTINUOUS
 10
183.6744551111
 20
79.5668049109
 11
183.7783314061
 21
79.462928616
  0
LINE
  5
302
100
AcDbEntity
  8
0
100
AcDbLine
 62
253
  6
CONTINUOUS
 10
167.7376840325
 20
95.5415000667
 11
167.3662554832
 21
95.912928616
  0
LINE
  5
303
100
AcDbEntity
  8
RACCORDO
100
AcDbLine
 62
7
  6
CONTINUOUS
 10
167.2261285728
 20
87.187918321
 11
167.2209726814
 21
87.2099714314
  0
LWPOLYLINE
  5
304
100
AcDbEntity
  8
ASSI
100
AcDbPolyline
 62
7
  6
CONTINUOUS
 90
13
 70
0
 10
167.2391395156
 20
87.1256321184
 10
167.1748056531
 20
87.4448694102
 10
167.1220772856
 20
87.7661289158
 10
167.0810129944
 20
88.0889885601
 10
167.0516583561
 20
88.4129924607
 10
167.0340365526
 20
88.7377483903
 10
167.0281600686
 20
89.062928969
 10
167.034036579
 20
89.3881095733
 10
167.0516584109
 20
89.7128655276
 10
167.0810130708
 20
90.0368693738
 10
167.1220773648
 20
90.3597288599
 10
167.1748057096
 20
90.6809881313
 10
167.2391395159
 20
91.0002251149
  0
LWPOLYLINE
  5
305
100
AcDbEntity
  8
RACCORDO
100
AcDbPolyline
 62
7
  6
CONTINUOUS
 90
13
 70
0
 10
167.2391395156
 20
87.1256321184
 10
167.1748056531
 20
87.4448694102
 10
167.1220772856
 20
87.7661289158
 10
167.0810129944
 20
88.0889885601
 10
167.0516583561
 20
88.4129924607
 10
167.0340365526
 20
88.7377483903
 10
167.0281600686
 20
89.062928969
 10
167.034036579
 20
89.3881095733
 10
167.0516584109
 20
89.7128655276
 10
167.0810130708
 20
90.0368693738
 10
167.1220773648
 20
90.3597288599
 10
167.1748057096
 20
90.6809881313
 10
167.2391395159
 20
91.0002251149
  0
LWPOLYLINE
  5
306
100
AcDbEntity
  8
RACCORDO
100
AcDbPolyline
 62
253
  6
CONTINUOUS
 90
19
 70
0
 10
167.2282572628
 20
87.2194786564
 10
167.1884341877
 20
87.4217068641
 10
167.1532426052
 20
87.6248634873
 10
167.1227058037
 20
87.8288427584
 10
167.0968416948
 20
88.0335649267
 10
167.0756729276
 20
88.2388965307
 10
167.0592207502
 20
88.4446498449
 10
167.047494102
 20
88.6506960005
 10
167.0404966769
 20
88.8569472035
 10
167.0382313545
 20
89.0632765485
 10
167.0406974232
 20
89.2695758186
 10
167.0478917428
 20
89.4757364348
 10
167.0598072423
 20
89.6816311009
 10
167.0764363654
 20
89.8871725324
 10
167.0977662864
 20
90.0922324327
 10
167.1237714675
 20
90.2966230957
 10
167.1544252579
 20
90.5002118107
 10
167.1897060917
 20
90.70292027
 10
167.229586932
 20
90.9046440533
  0
LWPOLYLINE
  5
307
100
AcDbEntity
  8
RACCORDO
100
AcDbPolyline
 62
253
  6
CONTINUOUS
 90
19
 70
0
 10
167.3750648787
 20
87.2393675648
 10
167.3358763209
 20
87.4387109133
 10
167.3012829232
 20
87.6387661437
 10
167.2712846856
 20
87.8395325818
 10
167.2458656072
 20
88.0411426902
 10
167.2250416889
 20
88.243462637
 10
167.2088609332
 20
88.4460921082
 10
167.1973368036
 20
88.6490088063
 10
167.1904558365
 20
88.8522331915
 10
167.1882256444
 20
89.05542878
 10
167.1906552191
 20
89.2585943032
 10
167.1977355687
 20
89.4617289238
 10
167.2094473302
 20
89.6644965687
 10
167.2258040268
 20
89.8669168554
 10
167.2467921352
 20
90.068967883
 10
167.2723517222
 20
90.2702510948
 10
167.30246281
 20
90.4706327881
 10
167.3371453764
 20
90.6702442397
 10
167.3763994213
 20
90.8690842851
  0
LWPOLYLINE
  5
308
100
AcDbEntity
  8
ASSI
100
AcDbPolyline
 62
253
  6
CONTINUOUS
 90
10
 70
0
 10
167.2362355943
 20
87.1234413508
 10
167.1526518771
 20
87.5497193812
 10
167.0897174055
 20
87.9797515704
 10
167.0476097307
 20
88.4125378581
 10
167.0264519754
 20
88.8472963077
 10
167.0263522809
 20
89.2827845245
 10
167.0472936601
 20
89.7173017389
 10
167.0891322149
 20
90.1496087853
 10
167.1517075773
 20
90.578930727
 10
167.2348066966
 20
91.0042780189
  0
LWPOLYLINE
  5
309
100
AcDbEntity
  8
RACCORDO
100
AcDbPolyline
 62
253
  6
CONTINUOUS
 90
10
 70
0
 10
167.2362355943
 20
87.1234413508
 10
167.1526518771
 20
87.5497193812
 10
167.0897174055
 20
87.9797515704
 10
167.0476097307
 20
88.4125378581
 10
167.0264519754
 20
88.8472963077
 10
167.0263522809
 20
89.2827845245
 10
167.0472936601
 20
89.7173017389
 10
167.0891322149
 20
90.1496087853
 10
167.1517075773
 20
90.578930727
 10
167.2348066966
 20
91.0042780189
  0
LWPOLYLINE
  5
30A
100
AcDbEntity
  8
ASSI
100
AcDbPolyline
 62
253
  6
CONTINUOUS
 90
10
 70
0
 10
167.1385871506
 20
87.0944797306
 10
167.0538636036
 20
87.5275126798
 10
166.9902966272
 20
87.9624148895
 10
166.9478862213
 20
88.3991778398
 10
166.9266527526
 20
88.8391078253
 10
166.9265758545
 20
89.2808814648
 10
166.9475944269
 20
89.7205423128
 10
166.9896881032
 20
90.1567623312
 10
167.0528772502
 20
90.5908452697
 10
167.1371618677
 20
91.0227797996
  0
LWPOLYLINE
  5
30B
100
AcDbEntity
  8
RACCORDO
100
AcDbPolyline
 62
253
  6
CONTINUOUS
 90
10
 70
0
 10
167.1385871506
 20
87.0944797306
 10
167.0538636036
 20
87.5275126798
 10
166.9902966272
 20
87.9624148895
 10
166.9478862213
 20
88.3991778398
 10
166.9266527526
 20
88.8391078253
 10
166.9265758545
 20
89.2808814648
 10
166.9475944269
 20
89.7205423128
 10
166.9896881032
 20
90.1567623312
 10
167.0528772502
 20
90.5908452697
 10
167.1371618677
 20
91.0227797996
  0
LINE
  5
30C
100
AcDbEntity
  8
0
100
AcDbLine
 62
253
  6
CONTINUOUS
 10
166.4376840325
 20
95.912928616
 11
166.4376840325
 21
93.3129287319
  0
LINE
  5
30D
100
AcDbEntity
  8
0
100
AcDbLine
 62
253
  6
CONTINUOUS
 10
172.7682690686
 20
112.460390616
 11
172.7440840686
 21
112.423803616
  0
LINE
  5
30E
100
AcDbEntity
  8
0
100
AcDbLine
 62
253
  6
CONTINUOUS
 10
171.9438230686
 20
112.101342616
 11
172.0156020686
 21
112.207692616
  0
LINE
  5
30F
100
AcDbEntity
  8
ASSI
100
AcDbLine
 62
253
  6
CONTINUOUS
 10
184.2781600686
 20
123.1630999535
 11
184.1742837736
 21
123.0592236585
  0
LINE
  5
310
100
AcDbEntity
  8
RACCORDO
100
AcDbLine
 62
253
  6
CONTINUOUS
 10
184.2781600686
 20
123.1630999535
 11
184.1742837736
 21
123.0592236585
  0
LINE
  5
311
100
AcDbEntity
  8
0
100
AcDbLine
 62
253
  6
CONTINUOUS
 10
176.7757795068
 20
94.4272143413
 11
177.7043511124
 21
94.4272143413
  0
LINE
  5
312
100
AcDbEntity
  8
0
100
AcDbLine
 62
253
  6
CONTINUOUS
 10
178.8186362954
 20
94.612928616
 11
179.7472079011
 21
94.612928616
  0
LINE
  5
313
100
AcDbEntity
  8
0
100
AcDbLine
 62
253
  6
CONTINUOUS
 10
170.4614937039
 20
95.1700715174
 11
171.7614937039
 21
94.055785792
  0
LINE
  5
314
100
AcDbEntity
  8
0
100
AcDbLine
 62
253
  6
CONTINUOUS
 10
170.6472079011
 20
93.312928616
 11
170.4614937039
 21
93.49864291
  0
LINE
  5
315
100
AcDbEntity
  8
ASSI
100
AcDbLine
 62
253
  6
CONTINUOUS
 10
184.1742837736
 20
80.0666335734
 11
184.2781600686
 21
79.9627572784
  0
LINE
  5
316
100
AcDbEntity
  8
RACCORDO
100
AcDbLine
 62
253
  6
CONTINUOUS
 10
184.1742837736
 20
80.0666335734
 11
184.2781600686
 21
79.9627572784
  0
LINE
  5
317
100
AcDbEntity
  8
0
100
AcDbLine
 62
253
  6
CONTINUOUS
 10
167.2733983727
 20
99.512928616
 11
167.2733983727
 21
96.9129286633
  0
LINE
  5
318
100
AcDbEntity
  8
ASSI
100
AcDbLine
 62
253
  6
CONTINUOUS
 10
167.6253079456
 20
91.4155067977
 11
167.6253079456
 21
91.318129963
  0
LINE
  5
319
100
AcDbEntity
  8
RACCORDO
100
AcDbLine
 62
253
  6
CONTINUOUS
 10
167.6253079456
 20
91.4155067977
 11
167.6253079456
 21
91.318129963
  0
LINE
  5
31A
100
AcDbEntity
  8
ASSI
100
AcDbLine
 62
253
  6
CONTINUOUS
 10
167.6270399417
 20
86.7020304056
 11
167.6270399401
 21
86.8098831514
  0
LINE
  5
31B
100
AcDbEntity
  8
RACCORDO
100
AcDbLine
 62
253
  6
CONTINUOUS
 10
167.6270399417
 20
86.7020304056
 11
167.6270399401
 21
86.8098831514
  0
LINE
  5
31C
100
AcDbEntity
  8
RACCORDO
100
AcDbLine
 62
253
  6
CONTINUOUS
 10
167.7174695907
 20
86.8218308975
 11
167.7174695907
 21
86.9604963074
  0
LINE
  5
31D
100
AcDbEntity
  8
RACCORDO
100
AcDbLine
 62
253
  6
CONTINUOUS
 10
167.7190223734
 20
91.3021147062
 11
167.7190223734
 21
91.1477548294
  0
LINE
  5
31E
100
AcDbEntity
  8
0
100
AcDbLine
 62
253
  6
CONTINUOUS
 10
167.7376840325
 20
93.684357204
 11
167.7376840325
 21
95.5415000394
  0
LINE
  5
31F
100
AcDbEntity
  8
DRAFT
100
AcDbLine
 62
7
  6
CONTINUOUS
 10
168.2781600686
 20
91.312928616
 11
168.2781600686
 21
91.3068198085
  0
LINE
  5
320
100
AcDbEntity
  8
DRAFT
100
AcDbLine
 62
7
  6
CONTINUOUS
 10
168.2781600686
 20
86.812928616
 11
168.2781600686
 21
86.8190374234
  0
LWPOLYLINE
  5
321
100
AcDbEntity
  8
ASSI
100
AcDbPolyline
 62
253
  6
CONTINUOUS
 90
8
 70
0
 10
162.881865026
 20
79.5668049109
 10
162.8828877118
 20
79.5718372144
 10
162.883890304
 20
79.5828476703
 10
162.8848728028
 20
79.5997697111
 10
162.8858408023
 20
79.6225015
 10
162.8867887082
 20
79.650905903
 10
162.8876997384
 20
79.6848107651
 10
162.8894099845
 20
79.7682693884
  0
LWPOLYLINE
  5
322
100
AcDbEntity
  8
RACCORDO
100
AcDbPolyline
 62
253
  6
CONTINUOUS
 90
8
 70
0
 10
162.881865026
 20
79.5668049109
 10
162.8828877118
 20
79.5718372144
 10
162.883890304
 20
79.5828476703
 10
162.8848728028
 20
79.5997697111
 10
162.8858408023
 20
79.6225015
 10
162.8867887082
 20
79.650905903
 10
162.8876997384
 20
79.6848107651
 10
162.8894099845
 20
79.7682693884
  0
LINE
  5
323
100
AcDbEntity
  8
0
100
AcDbLine
 62
253
  6
CONTINUOUS
 10
172.1067590686
 20
116.547582616
 11
171.9379320686
 21
115.962502616
  0
LINE
  5
324
100
AcDbEntity
  8
0
100
AcDbLine
 62
253
  6
CONTINUOUS
 10
172.3507750686
 20
115.840028616
 11
172.4732480686
 21
116.263569616
  0
LINE
  5
325
100
AcDbEntity
  8
0
100
AcDbLine
 62
253
  6
CONTINUOUS
 10
171.2945600686
 20
112.532633616
 11
171.4987340686
 21
113.172904616
  0
LINE
  5
326
100
AcDbEntity
  8
0
100
AcDbLine
 62
253
  6
CONTINUOUS
 10
171.9349860686
 20
114.538092616
 11
172.3507750686
 21
115.840028616
  0
LINE
  5
327
100
AcDbEntity
  8
0
100
AcDbLine
 62
253
  6
CONTINUOUS
 10
170.9711690686
 20
112.936020616
 11
170.7887000686
 21
112.364892616
  0
LINE
  5
328
100
AcDbEntity
  8
0
100
AcDbLine
 62
253
  6
CONTINUOUS
 10
171.9379320686
 20
115.962502616
 11
171.4074220686
 21
114.301518616
  0
LINE
  5
329
100
AcDbEntity
  8
0
100
AcDbLine
 62
253
  6
CONTINUOUS
 10
170.7887000686
 20
112.364892616
 11
170.7817240686
 21
112.344428616
  0
LINE
  5
32A
100
AcDbEntity
  8
0
100
AcDbLine
 62
253
  6
CONTINUOUS
 10
175.6713480686
 20
112.101342616
 11
175.7578540686
 21
112.190019616
  0
LINE
  5
32B
100
AcDbEntity
  8
0
100
AcDbLine
 62
253
  6
CONTINUOUS
 10
179.3757795068
 20
95.912928616
 11
178.8186362954
 21
95.912928616
  0
LINE
  5
32C
100
AcDbEntity
  8
0
100
AcDbLine
 62
253
  6
CONTINUOUS
 10
177.7043511124
 20
95.912928616
 11
176.7757795068
 21
95.912928616
  0
LINE
  5
32D
100
AcDbEntity
  8
0
100
AcDbLine
 62
253
  6
CONTINUOUS
 10
173.9900646897
 20
95.912928616
 11
172.5043504925
 21
95.912928616
  0
LINE
  5
32E
100
AcDbEntity
  8
0
100
AcDbLine
 62
253
  6
CONTINUOUS
 10
171.5757791968
 20
95.912928616
 11
170.8329220982
 21
95.912928616
  0
LINE
  5
32F
100
AcDbEntity
  8
0
100
AcDbLine
 62
253
  6
CONTINUOUS
 10
167.3662554832
 20
95.912928616
 11
166.4376840325
 21
95.912928616
  0
LINE
  5
330
100
AcDbEntity
  8
0
100
AcDbLine
 62
253
  6
CONTINUOUS
 10
169.6257793399
 20
97.284357204
 11
169.9972080441
 21
96.912928616
  0
LINE
  5
331
100
AcDbEntity
  8
0
100
AcDbLine
 62
253
  6
CONTINUOUS
 10
171.7614937039
 20
95.7272142638
 11
171.5757791968
 21
95.912928616
  0
LINE
  5
332
100
AcDbEntity
  8
0
100
AcDbLine
 62
253
  6
CONTINUOUS
 10
168.5733983727
 20
99.1415000667
 11
168.2019698234
 21
99.512928616
  0
LINE
  5
333
100
AcDbEntity
  8
RACCORDO
100
AcDbLine
 62
253
  6
CONTINUOUS
 10
178.8388505465
 20
86.8218308975
 11
178.8460778982
 21
86.812928616
  0
LINE
  5
334
100
AcDbEntity
  8
0
100
AcDbLine
 62
253
  6
CONTINUOUS
 10
168.5733983727
 20
97.284357204
 11
168.5733983727
 21
99.1415000711
  0
LINE
  5
335
100
AcDbEntity
  8
ASSI
100
AcDbLine
 62
7
  6
CONTINUOUS
 10
168.7781600686
 20
86.8141485799
 11
168.7781600686
 21
86.8184388669
  0
LINE
  5
336
100
AcDbEntity
  8
RACCORDO
100
AcDbLine
 62
7
  6
CONTINUOUS
 10
168.7781600686
 20
86.8141485799
 11
168.7781600686
 21
86.8184388669
  0
LINE
  5
337
100
AcDbEntity
  8
ASSI
100
AcDbLine
 62
7
  6
CONTINUOUS
 10
168.7781600686
 20
91.307418365
 11
168.7781600686
 21
91.3143821776
  0
LINE
  5
338
100
AcDbEntity
  8
RACCORDO
100
AcDbLine
 62
7
  6
CONTINUOUS
 10
168.7781600686
 20
91.307418365
 11
168.7781600686
 21
91.3143821776
  0
LINE
  5
339
100
AcDbEntity
  8
0
100
AcDbLine
 62
253
  6
CONTINUOUS
 10
169.2853030654
 20
95.912928616
 11
169.2853030654
 21
93.3129287319
  0
LINE
  5
33A
100
AcDbEntity
  8
0
100
AcDbLine
 62
253
  6
CONTINUOUS
 10
169.6257793399
 20
99.1415000667
 11
169.6257793399
 21
97.2843571995
  0
LINE
  5
33B
100
AcDbEntity
  8
0
100
AcDbLine
 62
253
  6
CONTINUOUS
 10
170.7817240686
 20
112.344428616
 11
170.7769180686
 21
112.322104616
  0
LWPOLYLINE
  5
33C
100
AcDbEntity
  8
RACCORDO
100
AcDbPolyline
 62
253
  6
CONTINUOUS
 90
31
 70
0
 10
167.3763994213
 20
90.8690842851
 10
167.3800270496
 20
90.8846358553
 10
167.3843371244
 20
90.8999508095
 10
167.3893296456
 20
90.9150291435
 10
167.3950180918
 20
90.9299030388
 10
167.4013889845
 20
90.9445403058
 10
167.408401888
 20
90.9588443826
 10
167.4160605265
 20
90.9728114555
 10
167.4243611759
 20
90.9864453275
 10
167.4332522275
 20
90.99966086
 10
167.4427371956
 20
91.0124551177
 10
167.452812566
 20
91.024831024
 10
167.4634161881
 20
91.036712226
 10
167.4745514362
 20
91.0480957773
 10
167.4862149359
 20
91.0589846122
 10
167.4983344137
 20
91.0693111977
 10
167.5109127643
 20
91.0790720306
 10
167.5239470931
 20
91.0882706027
 10
167.537356442
 20
91.0968498722
 10
167.5511429645
 20
91.1048058881
 10
167.5653045072
 20
91.1121425912
 10
167.5797536521
 20
91.1188147774
 10
167.5944925312
 20
91.1248183941
 10
167.6095190125
 20
91.1301574855
 10
167.6247392821
 20
91.1347989931
 10
167.6401561595
 20
91.1387384764
 10
167.6557668252
 20
91.14198037
 10
167.6714690067
 20
91.144504928
 10
167.6872286132
 20
91.1463055673
 10
167.7030797354
 20
91.1473888681
 10
167.7190223734
 20
91.1477548294
  0
LWPOLYLINE
  5
33D
100
AcDbEntity
  8
RACCORDO
100
AcDbPolyline
 62
253
  6
CONTINUOUS
 90
31
 70
0
 10
167.2295875088
 20
90.9046439325
 10
167.234756332
 20
90.926786994
 10
167.2409265181
 20
90.9486758699
 10
167.2480853099
 20
90.9702591118
 10
167.2562170197
 20
90.9914898806
 10
167.2653042203
 20
91.012326894
 10
167.2753300711
 20
91.0327301686
 10
167.2862748139
 20
91.0526591472
 10
167.2981143919
 20
91.0720717207
 10
167.3108242448
 20
91.0909257507
 10
167.3243781772
 20
91.1091813622
 10
167.3387474227
 20
91.1268021285
 10
167.3539028408
 20
91.1437516546
 10
167.3698139176
 20
91.1599945395
 10
167.3864467443
 20
91.1754979522
 10
167.403766932
 20
91.1902295149
 10
167.4217393921
 20
91.2041579019
 10
167.4403262103
 20
91.2172552946
 10
167.4594887475
 20
91.2294946171
 10
167.4791878856
 20
91.2408494511
 10
167.4993826118
 20
91.251297312
 10
167.5200314305
 20
91.2608170797
 10
167.5410927334
 20
91.2693880525
 10
167.5625219839
 20
91.276992941
 10
167.5842730383
 20
91.283616305
 10
167.6062996612
 20
91.2892431654
 10
167.6285581456
 20
91.2938627132
 10
167.6510062478
 20
91.2974666625
 10
167.6736000214
 20
91.3000463387
 10
167.6962897866
 20
91.3015961702
 10
167.7190223734
 20
91.3021141786
  0
LINE
  5
33E
100
AcDbEntity
  8
RACCORDO
100
AcDbLine
 62
7
  6
CONTINUOUS
 10
167.2209726814
 20
90.9158858005
 11
167.2261283752
 21
90.93793749
  0
LWPOLYLINE
  5
33F
100
AcDbEntity
  8
ASSI
100
AcDbPolyline
 62
253
  6
CONTINUOUS
 90
16
 70
0
 10
167.2348103728
 20
91.0042772089
 10
167.2442089758
 20
91.0393029478
 10
167.256726288
 20
91.0732792984
 10
167.27223591
 20
91.1059440384
 10
167.2906093397
 20
91.1370341693
 10
167.3116957803
 20
91.1663078637
 10
167.3353086968
 20
91.1935500187
 10
167.3612367604
 20
91.2185239644
 10
167.3892912216
 20
91.2410363123
 10
167.4192958136
 20
91.2609638433
 10
167.4510613744
 20
91.2781657828
 10
167.484292037
 20
91.2924402304
 10
167.5186252734
 20
91.3036339976
 10
167.5537446632
 20
91.3116753896
 10
167.5894029107
 20
91.3165130402
 10
167.625307941
 20
91.3181130052
  0
LWPOLYLINE
  5
340
100
AcDbEntity
  8
RACCORDO
100
AcDbPolyline
 62
253
  6
CONTINUOUS
 90
16
 70
0
 10
167.2348103728
 20
91.0042772089
 10
167.2442089758
 20
91.0393029478
 10
167.256726288
 20
91.0732792984
 10
167.27223591
 20
91.1059440384
 10
167.2906093397
 20
91.1370341693
 10
167.3116957803
 20
91.1663078637
 10
167.3353086968
 20
91.1935500187
 10
167.3612367604
 20
91.2185239644
 10
167.3892912216
 20
91.2410363123
 10
167.4192958136
 20
91.2609638433
 10
167.4510613744
 20
91.2781657828
 10
167.484292037
 20
91.2924402304
 10
167.5186252734
 20
91.3036339976
 10
167.5537446632
 20
91.3116753896
 10
167.5894029107
 20
91.3165130402
 10
167.625307941
 20
91.3181130052
  0
LWPOLYLINE
  5
341
100
AcDbEntity
  8
ASSI
100
AcDbPolyline
 62
253
  6
CONTINUOUS
 90
16
 70
0
 10
167.1371618677
 20
91.0227797996
 10
167.1492230666
 20
91.0672081636
 10
167.1648527134
 20
91.1096720456
 10
167.1840508081
 20
91.1501713531
 10
167.2070388202
 20
91.1889908678
 10
167.2335952801
 20
91.2258456482
 10
167.2630557793
 20
91.2598809961
 10
167.29545752
 20
91.2910214498
 10
167.3307632999
 20
91.3193422893
 10
167.3681971045
 20
91.3442148972
 10
167.4078939092
 20
91.3655878294
 10
167.4497187385
 20
91.3835123824
 10
167.492490651
 20
91.3975140436
 10
167.5358159994
 20
91.4074346113
 10
167.580088431
 20
91.4134322029
 10
167.6253079456
 20
91.4155067977
  0
LWPOLYLINE
  5
342
100
AcDbEntity
  8
RACCORDO
100
AcDbPolyline
 62
253
  6
CONTINUOUS
 90
16
 70
0
 10
167.1371618677
 20
91.0227797996
 10
167.1492230666
 20
91.0672081636
 10
167.1648527134
 20
91.1096720456
 10
167.1840508081
 20
91.1501713531
 10
167.2070388202
 20
91.1889908678
 10
167.2335952801
 20
91.2258456482
 10
167.2630557793
 20
91.2598809961
 10
167.29545752
 20
91.2910214498
 10
167.3307632999
 20
91.3193422893
 10
167.3681971045
 20
91.3442148972
 10
167.4078939092
 20
91.3655878294
 10
167.4497187385
 20
91.3835123824
 10
167.492490651
 20
91.3975140436
 10
167.5358159994
 20
91.4074346113
 10
167.580088431
 20
91.4134322029
 10
167.6253079456
 20
91.4155067977
  0
LINE
  5
343
100
AcDbEntity
  8
0
100
AcDbLine
 62
253
  6
CONTINUOUS
 10
172.7440840686
 20
112.423803616
 11
172.4272040686
 21
111.271005616
  0
LINE
  5
344
100
AcDbEntity
  8
0
100
AcDbLine
 62
253
  6
CONTINUOUS
 10
167.2733983727
 20
96.912928616
 11
168.2019698234
 21
96.912928616
  0
LINE
  5
345
100
AcDbEntity
  8
0
100
AcDbLine
 62
253
  6
CONTINUOUS
 10
169.9972080441
 20
96.912928616
 11
170.5543506356
 21
96.912928616
  0
LINE
  5
346
100
AcDbEntity
  8
0
100
AcDbLine
 62
253
  6
CONTINUOUS
 10
176.1257790299
 20
96.912928616
 11
176.6829222413
 21
96.912928616
  0
LINE
  5
347
100
AcDbEntity
  8
0
100
AcDbLine
 62
253
  6
CONTINUOUS
 10
179.561493084
 20
95.8510237803
 11
179.3757795067
 21
95.912928616
  0
LINE
  5
348
100
AcDbEntity
  8
0
100
AcDbLine
 62
253
  6
CONTINUOUS
 10
175.1043504925
 20
93.312928616
 11
174.7329220982
 21
93.684357204
  0
LINE
  5
349
100
AcDbEntity
  8
0
100
AcDbLine
 62
253
  6
CONTINUOUS
 10
170.9257793399
 20
99.1415000667
 11
170.5543506356
 21
99.512928616
  0
LINE
  5
34A
100
AcDbEntity
  8
ASSI
100
AcDbLine
 62
253
  6
CONTINUOUS
 10
179.3174533559
 20
87.1268698593
 11
179.3200845429
 21
87.1234413508
  0
LINE
  5
34B
100
AcDbEntity
  8
RACCORDO
100
AcDbLine
 62
253
  6
CONTINUOUS
 10
179.3174533559
 20
87.1268698593
 11
179.3200845429
 21
87.1234413508
  0
LINE
  5
34C
100
AcDbEntity
  8
RACCORDO
100
AcDbLine
 62
253
  6
CONTINUOUS
 10
179.3280628743
 20
87.2194786564
 11
179.3353474557
 21
87.2099714313
  0
LINE
  5
34D
100
AcDbEntity
  8
0
100
AcDbLine
 62
253
  6
CONTINUOUS
 10
170.4614937039
 20
95.5415000667
 11
170.4614937039
 21
95.1700715058
  0
LINE
  5
34E
100
AcDbEntity
  8
0
100
AcDbLine
 62
253
  6
CONTINUOUS
 10
170.7769180686
 20
112.322104616
 11
170.7769180686
 21
112.1900196206
  0
LINE
  5
34F
100
AcDbEntity
  8
0
100
AcDbLine
 62
253
  6
CONTINUOUS
 10
170.9257793399
 20
97.284357204
 11
170.9257793399
 21
99.1415000711
  0
LINE
  5
350
100
AcDbEntity
  8
0
100
AcDbLine
 62
253
  6
CONTINUOUS
 10
171.7614937039
 20
94.055785792
 11
171.7614937039
 21
93.6843572099
  0
LINE
  5
351
100
AcDbEntity
  8
0
100
AcDbLine
 62
253
  6
CONTINUOUS
 10
172.8422180686
 20
111.157214616
 11
173.1023570686
 21
112.101342616
  0
LINE
  5
352
100
AcDbEntity
  8
RACCORDO
100
AcDbLine
 62
7
  6
CONTINUOUS
 10
167.2261283752
 20
90.93793749
 11
167.2322734005
 21
90.9596962028
  0
LWPOLYLINE
  5
353
100
AcDbEntity
  8
RACCORDO
100
AcDbPolyline
 62
7
  6
CONTINUOUS
 90
5
 70
0
 10
167.2322734005
 20
90.9596962028
 10
167.2394077573
 20
90.9811619388
 10
167.2475587306
 20
91.0024030631
 10
167.2566990353
 20
91.0233512106
 10
167.2667468164
 20
91.0438012865
  0
LWPOLYLINE
  5
354
100
AcDbEntity
  8
ASSI
100
AcDbPolyline
 62
253
  6
CONTINUOUS
 90
12
 70
0
 10
162.3820363635
 20
80.0666335734
 10
162.3830527061
 20
80.069177921
 10
162.3840510194
 20
80.0746271016
 10
162.3850313035
 20
80.0829811154
 10
162.3859998488
 20
80.0943244751
 10
162.3869503648
 20
80.1085726679
 10
162.3878639801
 20
80.1254721553
 10
162.3887394315
 20
80.1450692443
 10
162.3895779822
 20
80.1673176278
 10
162.3903645496
 20
80.1918248461
 10
162.3910982681
 20
80.2186375119
 10
162.3923972694
 20
80.2785070505
  0
LWPOLYLINE
  5
355
100
AcDbEntity
  8
RACCORDO
100
AcDbPolyline
 62
253
  6
CONTINUOUS
 90
12
 70
0
 10
162.3820363635
 20
80.0666335734
 10
162.3830527061
 20
80.069177921
 10
162.3840510194
 20
80.0746271016
 10
162.3850313035
 20
80.0829811154
 10
162.3859998488
 20
80.0943244751
 10
162.3869503648
 20
80.1085726679
 10
162.3878639801
 20
80.1254721553
 10
162.3887394315
 20
80.1450692443
 10
162.3895779822
 20
80.1673176278
 10
162.3903645496
 20
80.1918248461
 10
162.3910982681
 20
80.2186375119
 10
162.3923972694
 20
80.2785070505
  0
LINE
  5
356
100
AcDbEntity
  8
0
100
AcDbLine
 62
253
  6
CONTINUOUS
 10
179.2829222413
 20
99.512928616
 11
177.7972074242
 21
99.512928616
  0
LINE
  5
357
100
AcDbEntity
  8
0
100
AcDbLine
 62
253
  6
CONTINUOUS
 10
176.6829222413
 20
99.512928616
 11
176.1257790299
 21
99.512928616
  0
LINE
  5
358
100
AcDbEntity
  8
0
100
AcDbLine
 62
253
  6
CONTINUOUS
 10
170.5543506356
 20
99.512928616
 11
169.9972080441
 21
99.512928616
  0
LINE
  5
359
100
AcDbEntity
  8
0
100
AcDbLine
 62
253
  6
CONTINUOUS
 10
168.2019698234
 20
99.512928616
 11
167.2733983727
 21
99.512928616
  0
LINE
  5
35A
100
AcDbEntity
  8
0
100
AcDbLine
 62
253
  6
CONTINUOUS
 10
172.0156020686
 20
112.207692616
 11
172.0156020686
 21
112.4259736178
  0
LINE
  5
35B
100
AcDbEntity
  8
0
100
AcDbLine
 62
253
  6
CONTINUOUS
 10
173.2472079011
 20
95.912928616
 11
173.2472079011
 21
93.3129287319
  0
LINE
  5
35C
100
AcDbEntity
  8
RACCORDO
100
AcDbLine
 62
7
  6
CONTINUOUS
 10
167.2667468164
 20
91.0438012865
 11
167.2777044016
 21
91.0637260159
  0
LINE
  5
35D
100
AcDbEntity
  8
0
100
AcDbLine
 62
253
  6
CONTINUOUS
 10
169.9972080441
 20
99.512928616
 11
169.6257793399
 21
99.1415000667
  0
LINE
  5
35E
100
AcDbEntity
  8
0
100
AcDbLine
 62
253
  6
CONTINUOUS
 10
168.2019698234
 20
96.912928616
 11
168.5733983727
 21
97.284357204
  0
LINE
  5
35F
100
AcDbEntity
  8
0
100
AcDbLine
 62
253
  6
CONTINUOUS
 10
179.9329227181
 20
95.5415000667
 11
179.561493084
 21
95.8510237803
  0
LINE
  5
360
100
AcDbEntity
  8
0
100
AcDbLine
 62
253
  6
CONTINUOUS
 10
175.7543506356
 20
97.284357204
 11
176.1257790299
 21
96.912928616
  0
LINE
  5
361
100
AcDbEntity
  8
0
100
AcDbLine
 62
253
  6
CONTINUOUS
 10
178.0757795068
 20
95.5415000667
 11
177.7043511124
 21
95.912928616
  0
LINE
  5
362
100
AcDbEntity
  8
0
100
AcDbLine
 62
253
  6
CONTINUOUS
 10
180.1186362954
 20
94.2415000667
 11
179.7472079011
 21
94.612928616
  0
LINE
  5
363
100
AcDbEntity
  8
0
100
AcDbLine
 62
253
  6
CONTINUOUS
 10
178.0757795068
 20
93.312928616
 11
177.3329227181
 21
94.4272143413
  0
LINE
  5
364
100
AcDbEntity
  8
RACCORDO
100
AcDbLine
 62
7
  6
CONTINUOUS
 10
179.2786040537
 20
91.0637458792
 11
179.2895648782
 21
91.043817505
  0
LINE
  5
365
100
AcDbEntity
  8
0
100
AcDbLine
 62
253
  6
CONTINUOUS
 10
175.011493847
 20
96.912928616
 11
173.711493847
 21
99.512928616
  0
LINE
  5
366
100
AcDbEntity
  8
0
100
AcDbLine
 62
253
  6
CONTINUOUS
 10
173.711493847
 20
99.512928616
 11
173.711493847
 21
96.9129286633
  0
LINE
  5
367
100
AcDbEntity
  8
0
100
AcDbLine
 62
253
  6
CONTINUOUS
 10
174.7329220982
 20
93.684357204
 11
174.7329220982
 21
95.9129285478
  0
LINE
  5
368
100
AcDbEntity
  8
0
100
AcDbLine
 62
253
  6
CONTINUOUS
 10
175.011493847
 20
99.512928616
 11
175.011493847
 21
96.9129286633
  0
LWPOLYLINE
  5
369
100
AcDbEntity
  8
RACCORDO
100
AcDbPolyline
 62
7
  6
CONTINUOUS
 90
18
 70
0
 10
167.2777044016
 20
91.0637260159
 10
167.289569463
 20
91.0831526737
 10
167.3022531626
 20
91.1019579899
 10
167.3157329837
 20
91.1201129104
 10
167.3300314429
 20
91.1376464892
 10
167.3451272516
 20
91.1545226178
 10
167.3610607449
 20
91.1707794609
 10
167.3777915876
 20
91.1863788538
 10
167.3951774854
 20
91.2011701938
 10
167.4132296379
 20
91.2151390859
 10
167.4319368455
 20
91.228299925
 10
167.4511232143
 20
91.2405452934
 10
167.4707425003
 20
91.2518436069
 10
167.4908409476
 20
91.2622264496
 10
167.5113813944
 20
91.2716811558
 10
167.5323985431
 20
91.2802244879
 10
167.5538576913
 20
91.2878396836
 10
167.5756175708
 20
91.2944637893
  0
LINE
  5
36A
100
AcDbEntity
  8
0
100
AcDbLine
 62
253
  6
CONTINUOUS
 10
170.5543506356
 20
96.912928616
 11
170.9257793399
 21
97.284357204
  0
LINE
  5
36B
100
AcDbEntity
  8
0
100
AcDbLine
 62
253
  6
CONTINUOUS
 10
167.3662554832
 20
93.312928616
 11
167.7376840325
 21
93.684357204
  0
LINE
  5
36C
100
AcDbEntity
  8
0
100
AcDbLine
 62
253
  6
CONTINUOUS
 10
177.0543506356
 20
99.1415000667
 11
176.6829222413
 21
99.512928616
  0
LWPOLYLINE
  5
36D
100
AcDbEntity
  8
RACCORDO
100
AcDbPolyline
 62
7
  6
CONTINUOUS
 90
5
 70
0
 10
179.2895648782
 20
91.043817505
 10
179.2996151902
 20
91.023363825
 10
179.3087576985
 20
91.0024118876
 10
179.3169103814
 20
90.9811675326
 10
179.3240458983
 20
90.959699373
  0
LINE
  5
36E
100
AcDbEntity
  8
0
100
AcDbLine
 62
253
  6
CONTINUOUS
 10
169.6137330686
 20
113.148100616
 11
169.7879860686
 21
112.758046616
  0
LINE
  5
36F
100
AcDbEntity
  8
0
100
AcDbLine
 62
253
  6
CONTINUOUS
 10
175.7543506356
 20
99.1415000667
 11
175.7543506356
 21
97.2843571995
  0
LINE
  5
370
100
AcDbEntity
  8
0
100
AcDbLine
 62
253
  6
CONTINUOUS
 10
175.7578540686
 20
112.190019616
 11
175.7578540686
 21
112.3193136151
  0
LINE
  5
371
100
AcDbEntity
  8
0
100
AcDbLine
 62
253
  6
CONTINUOUS
 10
176.0329220982
 20
95.912928616
 11
176.0329220982
 21
93.6843572721
  0
LINE
  5
372
100
AcDbEntity
  8
0
100
AcDbLine
 62
253
  6
CONTINUOUS
 10
176.7757795068
 20
95.912928616
 11
176.7757795068
 21
93.3129287319
  0
LWPOLYLINE
  5
373
100
AcDbEntity
  8
ASSI
100
AcDbPolyline
 62
253
  6
CONTINUOUS
 90
12
 70
0
 10
184.1742837736
 20
123.0592236585
 10
184.1732671568
 20
123.0566802598
 10
184.1722684775
 20
123.0512277335
 10
184.1712877357
 20
123.0428660796
 10
184.1703185795
 20
123.0315105124
 10
184.1693673608
 20
123.0172458176
 10
184.1684531359
 20
123.0003263523
 10
184.1675771381
 20
122.9807007922
 10
184.1667381341
 20
122.9584204616
 10
184.1659514802
 20
122.9338936904
 10
184.1652182819
 20
122.907081978
 10
184.1639209754
 20
122.8472430629
  0
LWPOLYLINE
  5
374
100
AcDbEntity
  8
RACCORDO
100
AcDbPolyline
 62
253
  6
CONTINUOUS
 90
12
 70
0
 10
184.1742837736
 20
123.0592236585
 10
184.1732671568
 20
123.0566802598
 10
184.1722684775
 20
123.0512277335
 10
184.1712877357
 20
123.0428660796
 10
184.1703185795
 20
123.0315105124
 10
184.1693673608
 20
123.0172458176
 10
184.1684531359
 20
123.0003263523
 10
184.1675771381
 20
122.9807007922
 10
184.1667381341
 20
122.9584204616
 10
184.1659514802
 20
122.9338936904
 10
184.1652182819
 20
122.907081978
 10
184.1639209754
 20
122.8472430629
  0
LINE
  5
375
100
AcDbEntity
  8
0
100
AcDbLine
 62
253
  6
CONTINUOUS
 10
170.8329220982
 20
95.912928616
 11
170.4614937039
 21
95.5415000667
  0
LINE
  5
376
100
AcDbEntity
  8
0
100
AcDbLine
 62
253
  6
CONTINUOUS
 10
176.1257790299
 20
99.512928616
 11
175.7543506356
 21
99.1415000667
  0
LINE
  5
377
100
AcDbEntity
  8
RACCORDO
100
AcDbLine
 62
7
  6
CONTINUOUS
 10
179.3240458983
 20
90.959699373
 11
179.3301915897
 21
90.9379387956
  0
LWPOLYLINE
  5
378
100
AcDbEntity
  8
ASSI
100
AcDbPolyline
 62
7
  6
CONTINUOUS
 90
13
 70
0
 10
179.3174533008
 20
90.9989876229
 10
179.3051337456
 20
91.0428920991
 10
179.2879812793
 20
91.0849311863
 10
179.2662777706
 20
91.1245883608
 10
179.2403981486
 20
91.1613378969
 10
179.2106944948
 20
91.1948118229
 10
179.1774354537
 20
91.2247559269
 10
179.1410363054
 20
91.2507956801
 10
179.1019533105
 20
91.2726042554
 10
179.0604951875
 20
91.2899725063
 10
179.0170982545
 20
91.3026359773
 10
178.9723558091
 20
91.3103425551
 10
178.926832917
 20
91.312928616
  0
LWPOLYLINE
  5
379
100
AcDbEntity
  8
RACCORDO
100
AcDbPolyline
 62
7
  6
CONTINUOUS
 90
13
 70
0
 10
179.3174533008
 20
90.9989876229
 10
179.3051337456
 20
91.0428920991
 10
179.2879812793
 20
91.0849311863
 10
179.2662777706
 20
91.1245883608
 10
179.2403981486
 20
91.1613378969
 10
179.2106944948
 20
91.1948118229
 10
179.1774354537
 20
91.2247559269
 10
179.1410363054
 20
91.2507956801
 10
179.1019533105
 20
91.2726042554
 10
179.0604951875
 20
91.2899725063
 10
179.0170982545
 20
91.3026359773
 10
178.9723558091
 20
91.3103425551
 10
178.926832917
 20
91.312928616
  0
LINE
  5
37A
100
AcDbEntity
  8
RACCORDO
100
AcDbLine
 62
7
  6
CONTINUOUS
 10
179.3301915897
 20
90.9379387956
 11
179.3353474557
 21
90.9158858005
  0
LINE
  5
37B
100
AcDbEntity
  8
0
100
AcDbLine
 62
253
  6
CONTINUOUS
 10
177.0543506356
 20
97.284357204
 11
177.0543506356
 21
99.1415000711
  0
LINE
  5
37C
100
AcDbEntity
  8
ASSI
100
AcDbLine
 62
7
  6
CONTINUOUS
 10
177.7781600686
 20
91.3154389416
 11
177.7781600686
 21
91.3068198085
  0
LINE
  5
37D
100
AcDbEntity
  8
ASSI
100
AcDbLine
 62
7
  6
CONTINUOUS
 10
177.7781600686
 20
86.8190374234
 11
177.7781600686
 21
86.8104182903
  0
LINE
  5
37E
100
AcDbEntity
  8
0
100
AcDbLine
 62
253
  6
CONTINUOUS
 10
178.0757795068
 20
94.7986429681
 11
178.0757795068
 21
95.5415000536
  0
LINE
  5
37F
100
AcDbEntity
  8
DRAFT
100
AcDbLine
 62
7
  6
CONTINUOUS
 10
178.2781600686
 20
91.312928616
 11
178.2781600686
 21
91.3068198085
  0
LINE
  5
380
100
AcDbEntity
  8
DRAFT
100
AcDbLine
 62
7
  6
CONTINUOUS
 10
178.2781600686
 20
86.812928616
 11
178.2781600686
 21
86.8190374234
  0
LINE
  5
381
100
AcDbEntity
  8
RACCORDO
100
AcDbLine
 62
253
  6
CONTINUOUS
 10
167.2282572628
 20
87.2194786564
 11
167.2209726814
 21
87.2099714314
  0
LINE
  5
382
100
AcDbEntity
  8
ASSI
100
AcDbLine
 62
253
  6
CONTINUOUS
 10
167.2388667843
 20
87.1268698455
 11
167.2362355943
 21
87.1234413508
  0
LINE
  5
383
100
AcDbEntity
  8
RACCORDO
100
AcDbLine
 62
253
  6
CONTINUOUS
 10
167.2388667843
 20
87.1268698455
 11
167.2362355943
 21
87.1234413508
  0
LINE
  5
384
100
AcDbEntity
  8
RACCORDO
100
AcDbLine
 62
253
  6
CONTINUOUS
 10
167.7174695907
 20
86.8218308975
 11
167.710242239
 21
86.812928616
  0
LINE
  5
385
100
AcDbEntity
  8
0
100
AcDbLine
 62
253
  6
CONTINUOUS
 10
171.7614937039
 20
93.684357204
 11
171.3900649996
 21
93.312928616
  0
LINE
  5
386
100
AcDbEntity
  8
0
100
AcDbLine
 62
253
  6
CONTINUOUS
 10
172.0156020686
 20
112.425973616
 11
171.9438230686
 21
112.532633616
  0
LINE
  5
387
100
AcDbEntity
  8
0
100
AcDbLine
 62
253
  6
CONTINUOUS
 10
174.6059860686
 20
114.563207616
 11
175.2425360686
 21
112.532633616
  0
LINE
  5
388
100
AcDbEntity
  8
0
100
AcDbLine
 62
253
  6
CONTINUOUS
 10
174.2053900686
 20
115.840649616
 11
174.2838350686
 21
115.589501616
  0
LINE
  5
389
100
AcDbEntity
  8
0
100
AcDbLine
 62
253
  6
CONTINUOUS
 10
174.0826070686
 20
116.263569616
 11
174.2053900686
 21
115.840649616
  0
LWPOLYLINE
  5
38A
100
AcDbEntity
  8
ASSI
100
AcDbPolyline
 62
7
  6
CONTINUOUS
 90
13
 70
0
 10
179.3171806216
 20
91.0002251135
 10
179.3815144841
 20
90.6809878218
 10
179.4342428516
 20
90.3597283162
 10
179.4753071428
 20
90.036868672
 10
179.504661781
 20
89.7128647714
 10
179.5222835846
 20
89.3881088418
 10
179.5281600686
 20
89.0629282632
 10
179.5222835581
 20
88.7377476589
 10
179.5046617263
 20
88.4129917047
 10
179.4753070664
 20
88.0889878585
 10
179.4342427724
 20
87.7661283723
 10
179.3815144276
 20
87.4448691009
 10
179.3171806212
 20
87.125632117
  0
LWPOLYLINE
  5
38B
100
AcDbEntity
  8
RACCORDO
100
AcDbPolyline
 62
7
  6
CONTINUOUS
 90
13
 70
0
 10
179.3171806216
 20
91.0002251135
 10
179.3815144841
 20
90.6809878218
 10
179.4342428516
 20
90.3597283162
 10
179.4753071428
 20
90.036868672
 10
179.504661781
 20
89.7128647714
 10
179.5222835846
 20
89.3881088418
 10
179.5281600686
 20
89.0629282632
 10
179.5222835581
 20
88.7377476589
 10
179.5046617263
 20
88.4129917047
 10
179.4753070664
 20
88.0889878585
 10
179.4342427724
 20
87.7661283723
 10
179.3815144276
 20
87.4448691009
 10
179.3171806212
 20
87.125632117
  0
LWPOLYLINE
  5
38C
100
AcDbEntity
  8
RACCORDO
100
AcDbPolyline
 62
253
  6
CONTINUOUS
 90
19
 70
0
 10
179.3267332052
 20
90.9046440533
 10
179.3666141931
 20
90.7029194761
 10
179.401895091
 20
90.5002105063
 10
179.4325488818
 20
90.2966215684
 10
179.4585540107
 20
90.0922310493
 10
179.4798838592
 20
89.8871715867
 10
179.4965129255
 20
89.6816306596
 10
179.5084283883
 20
89.4757365654
 10
179.515622696
 20
89.2695765868
 10
179.518088782
 20
89.0632777864
 10
179.5158234924
 20
88.8569486354
 10
179.5088261013
 20
88.6506974576
 10
179.4970994828
 20
88.4446512464
 10
179.4806473267
 20
88.2388978101
 10
179.459478566
 20
88.0335660044
 10
179.4336144499
 20
87.8288436019
 10
179.4030776277
 20
87.6248640805
 10
179.3678860071
 20
87.4217071758
 10
179.3280628743
 20
87.2194786564
  0
LWPOLYLINE
  5
38D
100
AcDbEntity
  8
RACCORDO
100
AcDbPolyline
 62
253
  6
CONTINUOUS
 90
19
 70
0
 10
179.1799207158
 20
90.8690842851
 10
179.2191750587
 20
90.670242257
 10
179.2538578191
 20
90.4706293992
 10
179.2839689968
 20
90.2702468761
 10
179.3095285303
 20
90.0689635807
 10
179.3305164811
 20
89.8669130457
 10
179.3468730344
 20
89.6644933179
 10
179.3585847063
 20
89.4617262001
 10
179.3656649805
 20
89.2585921729
 10
179.3680944936
 20
89.0554270947
 10
179.3658642602
 20
88.8522317074
 10
179.3589832657
 20
88.649007375
 10
179.3474591023
 20
88.4460906541
 10
179.3312782827
 20
88.2434609954
 10
179.3104542944
 20
88.0411407856
 10
179.2850351923
 20
87.8395306761
 10
179.2550369947
 20
87.6387646114
 10
179.2204436835
 20
87.4387100163
 10
179.1812552585
 20
87.2393675648
  0
LWPOLYLINE
  5
38E
100
AcDbEntity
  8
ASSI
100
AcDbPolyline
 62
253
  6
CONTINUOUS
 90
10
 70
0
 10
179.3215134406
 20
91.0042780189
 10
179.4046051694
 20
90.5789740925
 10
179.4671786945
 20
90.1496849262
 10
179.5090193842
 20
89.7173996044
 10
179.5299652681
 20
89.2828923778
 10
179.5298707602
 20
88.8474026405
 10
179.5087172967
 20
88.4126323087
 10
179.4666115866
 20
87.9798243089
 10
179.403675293
 20
87.549760492
 10
179.3200845429
 20
87.1234413508
  0
LWPOLYLINE
  5
38F
100
AcDbEntity
  8
RACCORDO
100
AcDbPolyline
 62
253
  6
CONTINUOUS
 90
10
 70
0
 10
179.3215134406
 20
91.0042780189
 10
179.4046051694
 20
90.5789740925
 10
179.4671786945
 20
90.1496849262
 10
179.5090193842
 20
89.7173996044
 10
179.5299652681
 20
89.2828923778
 10
179.5298707602
 20
88.8474026405
 10
179.5087172967
 20
88.4126323087
 10
179.4666115866
 20
87.9798243089
 10
179.403675293
 20
87.549760492
 10
179.3200845429
 20
87.1234413508
  0
LWPOLYLINE
  5
390
100
AcDbEntity
  8
ASSI
100
AcDbPolyline
 62
253
  6
CONTINUOUS
 90
10
 70
0
 10
179.4191582694
 20
91.0227797996
 10
179.5034519634
 20
90.5907545365
 10
179.566645628
 20
90.1566032932
 10
179.6087392633
 20
89.7203373911
 10
179.6297501829
 20
89.2806526919
 10
179.6296610732
 20
88.8388775985
 10
179.6084199929
 20
88.3989696729
 10
179.5660096281
 20
87.9622526529
 10
179.5024472927
 20
87.5274198413
 10
179.4177329866
 20
87.0944797306
  0
LWPOLYLINE
  5
391
100
AcDbEntity
  8
RACCORDO
100
AcDbPolyline
 62
253
  6
CONTINUOUS
 90
10
 70
0
 10
179.4191582694
 20
91.0227797996
 10
179.5034519634
 20
90.5907545365
 10
179.566645628
 20
90.1566032932
 10
179.6087392633
 20
89.7203373911
 10
179.6297501829
 20
89.2806526919
 10
179.6296610732
 20
88.8388775985
 10
179.6084199929
 20
88.3989696729
 10
179.5660096281
 20
87.9622526529
 10
179.5024472927
 20
87.5274198413
 10
179.4177329866
 20
87.0944797306
  0
LINE
  5
392
100
AcDbEntity
  8
0
100
AcDbLine
 62
253
  6
CONTINUOUS
 10
175.7578540686
 20
112.319313616
 11
175.7544430686
 21
112.337917616
  0
LINE
  5
393
100
AcDbEntity
  8
0
100
AcDbLine
 62
253
  6
CONTINUOUS
 10
178.5400654526
 20
99.512928616
 11
178.5400654526
 21
96.9129286633
  0
LINE
  5
394
100
AcDbEntity
  8
0
100
AcDbLine
 62
253
  6
CONTINUOUS
 10
178.8186362954
 20
95.912928616
 11
178.8186362954
 21
93.3129287319
  0
LINE
  5
395
100
AcDbEntity
  8
RACCORDO
100
AcDbLine
 62
253
  6
CONTINUOUS
 10
178.8372977638
 20
91.3021147062
 11
178.8372977638
 21
91.1477548294
  0
LINE
  5
396
100
AcDbEntity
  8
RACCORDO
100
AcDbLine
 62
253
  6
CONTINUOUS
 10
178.8388505465
 20
86.8218308975
 11
178.8388505465
 21
86.9604963074
  0
LINE
  5
397
100
AcDbEntity
  8
ASSI
100
AcDbLine
 62
253
  6
CONTINUOUS
 10
178.9292801955
 20
86.7020304056
 11
178.9292801955
 21
86.8098831514
  0
LINE
  5
398
100
AcDbEntity
  8
RACCORDO
100
AcDbLine
 62
253
  6
CONTINUOUS
 10
178.9292801955
 20
86.7020304056
 11
178.9292801955
 21
86.8098831514
  0
LINE
  5
399
100
AcDbEntity
  8
ASSI
100
AcDbLine
 62
253
  6
CONTINUOUS
 10
178.9310121915
 20
91.4155067977
 11
178.9310121931
 21
91.318129963
  0
LINE
  5
39A
100
AcDbEntity
  8
RACCORDO
100
AcDbLine
 62
253
  6
CONTINUOUS
 10
178.9310121915
 20
91.4155067977
 11
178.9310121931
 21
91.318129963
  0
LINE
  5
39B
100
AcDbEntity
  8
0
100
AcDbLine
 62
253
  6
CONTINUOUS
 10
179.9329227181
 20
94.9843571652
 11
179.9329227181
 21
95.5415000931
  0
LWPOLYLINE
  5
39C
100
AcDbEntity
  8
ASSI
100
AcDbPolyline
 62
253
  6
CONTINUOUS
 90
8
 70
0
 10
183.6744551111
 20
123.559052321
 10
183.6734323399
 20
123.5540200469
 10
183.672429668
 20
123.5430095845
 10
183.6714470956
 20
123.5260874007
 10
183.6704790417
 20
123.5033551497
 10
183.6695310873
 20
123.4749499219
 10
183.6686199746
 20
123.4410441564
 10
183.6669093113
 20
123.3575841256
  0
LWPOLYLINE
  5
39D
100
AcDbEntity
  8
RACCORDO
100
AcDbPolyline
 62
253
  6
CONTINUOUS
 90
8
 70
0
 10
183.6744551111
 20
123.559052321
 10
183.6734323399
 20
123.5540200469
 10
183.672429668
 20
123.5430095845
 10
183.6714470956
 20
123.5260874007
 10
183.6704790417
 20
123.5033551497
 10
183.6695310873
 20
123.4749499219
 10
183.6686199746
 20
123.4410441564
 10
183.6669093113
 20
123.3575841256
  0
LINE
  5
39E
100
AcDbEntity
  8
0
100
AcDbLine
 62
253
  6
CONTINUOUS
 10
176.6829222413
 20
96.912928616
 11
177.0543506356
 21
97.284357204
  0
LINE
  5
39F
100
AcDbEntity
  8
0
100
AcDbLine
 62
253
  6
CONTINUOUS
 10
170.7769180686
 20
112.190019616
 11
170.8651290686
 21
112.101342616
  0
LINE
  5
3A0
100
AcDbEntity
  8
0
100
AcDbLine
 62
253
  6
CONTINUOUS
 10
172.4272040686
 20
111.271005616
 11
172.5107650686
 21
111.173647616
  0
LINE
  5
3A1
100
AcDbEntity
  8
0
100
AcDbLine
 62
253
  6
CONTINUOUS
 10
174.6797800686
 20
115.766235616
 11
174.6177680686
 21
115.965292616
  0
LINE
  5
3A2
100
AcDbEntity
  8
0
100
AcDbLine
 62
253
  6
CONTINUOUS
 10
175.7544430686
 20
112.337917616
 11
175.0019310686
 21
114.740561616
  0
LINE
  5
3A3
100
AcDbEntity
  8
0
100
AcDbLine
 62
253
  6
CONTINUOUS
 10
174.6177680686
 20
115.965292616
 11
174.4484760686
 21
116.550063616
  0
LINE
  5
3A4
100
AcDbEntity
  8
0
100
AcDbLine
 62
253
  6
CONTINUOUS
 10
180.1186362954
 20
93.684357204
 11
180.1186362954
 21
94.2415000724
  0
LINE
  5
3A5
100
AcDbEntity
  8
ASSI
100
AcDbLine
 62
253
  6
CONTINUOUS
 10
162.2781600686
 20
79.9627572784
 11
162.3820363635
 21
80.0666335734
  0
LINE
  5
3A6
100
AcDbEntity
  8
RACCORDO
100
AcDbLine
 62
253
  6
CONTINUOUS
 10
162.2781600686
 20
79.9627572784
 11
162.3820363635
 21
80.0666335734
  0
LINE
  5
3A7
100
AcDbEntity
  8
0
100
AcDbLine
 62
253
  6
CONTINUOUS
 10
176.0329220982
 20
93.684357204
 11
175.6614937039
 21
93.312928616
  0
LINE
  5
3A8
100
AcDbEntity
  8
0
100
AcDbLine
 62
253
  6
CONTINUOUS
 10
177.7043511124
 20
94.4272143413
 11
178.0757795068
 21
94.7986429681
  0
LINE
  5
3A9
100
AcDbEntity
  8
ASSI
100
AcDbLine
 62
253
  6
CONTINUOUS
 10
162.7779887311
 20
79.462928616
 11
162.881865026
 21
79.5668049109
  0
LINE
  5
3AA
100
AcDbEntity
  8
RACCORDO
100
AcDbLine
 62
253
  6
CONTINUOUS
 10
162.7779887311
 20
79.462928616
 11
162.881865026
 21
79.5668049109
  0
LINE
  5
3AB
100
AcDbEntity
  8
ASSI
100
AcDbLine
 62
253
  6
CONTINUOUS
 10
162.3820363635
 20
123.0592236585
 11
162.2781600686
 21
123.1630999535
  0
LINE
  5
3AC
100
AcDbEntity
  8
RACCORDO
100
AcDbLine
 62
253
  6
CONTINUOUS
 10
162.3820363635
 20
123.0592236585
 11
162.2781600686
 21
123.1630999535
  0
LINE
  5
3AD
100
AcDbEntity
  8
ASSI
100
AcDbLine
 62
253
  6
CONTINUOUS
 10
162.881865026
 20
123.559052321
 11
162.7779887311
 21
123.662928616
  0
LINE
  5
3AE
100
AcDbEntity
  8
RACCORDO
100
AcDbLine
 62
253
  6
CONTINUOUS
 10
162.881865026
 20
123.559052321
 11
162.7779887311
 21
123.662928616
  0
LWPOLYLINE
  5
3AF
100
AcDbEntity
  8
ASSI
100
AcDbPolyline
 62
253
  6
CONTINUOUS
 90
7
 70
0
 10
183.6686203988
 20
79.6848107651
 10
183.6695314289
 20
79.650905903
 10
183.6704793349
 20
79.6225015
 10
183.6714473343
 20
79.5997697111
 10
183.6724298331
 20
79.5828476703
 10
183.6734324254
 20
79.5718372144
 10
183.6744551111
 20
79.5668049109
  0
LWPOLYLINE
  5
3B0
100
AcDbEntity
  8
RACCORDO
100
AcDbPolyline
 62
253
  6
CONTINUOUS
 90
7
 70
0
 10
183.6686203988
 20
79.6848107651
 10
183.6695314289
 20
79.650905903
 10
183.6704793349
 20
79.6225015
 10
183.6714473343
 20
79.5997697111
 10
183.6724298331
 20
79.5828476703
 10
183.6734324254
 20
79.5718372144
 10
183.6744551111
 20
79.5668049109
  0
LINE
  5
3B1
100
AcDbEntity
  8
ASSI
100
AcDbLine
 62
253
  6
CONTINUOUS
 10
183.6669101527
 20
79.7682693884
 11
183.6686203988
 21
79.6848107651
  0
LINE
  5
3B2
100
AcDbEntity
  8
RACCORDO
100
AcDbLine
 62
253
  6
CONTINUOUS
 10
183.6669101527
 20
79.7682693884
 11
183.6686203988
 21
79.6848107651
  0
LINE
  5
3B3
100
AcDbEntity
  8
ASSI
100
AcDbLine
 62
253
  6
CONTINUOUS
 10
183.6653933284
 20
79.8708778907
 11
183.6669101527
 21
79.7682693884
  0
LINE
  5
3B4
100
AcDbEntity
  8
RACCORDO
100
AcDbLine
 62
253
  6
CONTINUOUS
 10
183.6653933284
 20
79.8708778907
 11
183.6669101527
 21
79.7682693884
  0
LINE
  5
3B5
100
AcDbEntity
  8
ASSI
100
AcDbLine
 62
253
  6
CONTINUOUS
 10
183.6669093113
 20
123.3575841256
 11
183.6653926307
 21
123.2549750051
  0
LINE
  5
3B6
100
AcDbEntity
  8
RACCORDO
100
AcDbLine
 62
253
  6
CONTINUOUS
 10
183.6669093113
 20
123.3575841256
 11
183.6653926307
 21
123.2549750051
  0
LWPOLYLINE
  5
3B7
100
AcDbEntity
  8
RACCORDO
100
AcDbPolyline
 62
253
  6
CONTINUOUS
 90
31
 70
0
 10
179.1812552585
 20
87.2393675648
 10
179.1776328296
 20
87.223788076
 10
179.1733271137
 20
87.2084468938
 10
179.1683381108
 20
87.1933440097
 10
179.1626521591
 20
87.1784471054
 10
179.1562829203
 20
87.1637884834
 10
179.1492713796
 20
87.1494650635
 10
179.1416138073
 20
87.1354807406
 10
179.133313933
 20
87.1218315972
 10
179.1244239302
 20
87.1086028278
 10
179.1149403107
 20
87.0957974288
 10
179.1048665627
 20
87.0834123772
 10
179.0942653244
 20
87.0715238342
 10
179.0831332991
 20
87.0601348052
 10
179.0714737834
 20
87.0492422563
 10
179.0593593053
 20
87.0389132859
 10
179.0467870567
 20
87.0291514072
 10
179.0337598457
 20
87.0199530789
 10
179.0203586237
 20
87.0113748159
 10
179.0065812804
 20
87.0034205307
 10
178.9924299262
 20
86.9960862852
 10
178.9779918445
 20
86.9894168177
 10
178.9632649362
 20
86.9834161434
 10
178.9482513004
 20
86.978080226
 10
178.9330445182
 20
86.9734417265
 10
178.917641871
 20
86.9695050513
 10
178.9020460773
 20
86.966265779
 10
178.8863588743
 20
86.9637433298
 10
178.8706141744
 20
86.9619441744
 10
178.8547780651
 20
86.9608618342
 10
178.8388505465
 20
86.9604963074
  0
LWPOLYLINE
  5
3B8
100
AcDbEntity
  8
RACCORDO
100
AcDbPolyline
 62
253
  6
CONTINUOUS
 90
31
 70
0
 10
179.3280623058
 20
87.2194787756
 10
179.322896213
 20
87.1973018415
 10
179.316727352
 20
87.1753816883
 10
179.3095686568
 20
87.153769557
 10
179.3014357959
 20
87.1325118325
 10
179.292346388
 20
87.1116500203
 10
179.2823178494
 20
87.0912248327
 10
179.2713701648
 20
87.0712767476
 10
179.2595274765
 20
87.0518476484
 10
179.2468148566
 20
87.0329799982
 10
179.2332587347
 20
87.014713537
 10
179.2188880005
 20
86.9970844699
 10
179.2037321658
 20
86.9801292033
 10
179.1878220034
 20
86.9638830116
 10
179.1711915336
 20
86.9483784551
 10
179.1538751898
 20
86.9336475833
 10
179.1359082665
 20
86.9197215848
 10
179.1173288001
 20
86.9066280358
 10
179.0981751413
 20
86.8943935174
 10
179.0784865202
 20
86.8830443174
 10
179.0583041104
 20
86.8726027449
 10
179.0376689629
 20
86.8630894583
 10
179.0166227928
 20
86.8545250764
 10
178.9952102806
 20
86.8469267287
 10
178.9734769947
 20
86.840309455
 10
178.9514694005
 20
86.8346882069
 10
178.9292312192
 20
86.8300736154
 10
178.9068036654
 20
86.8264736045
 10
178.8842303897
 20
86.823896812
 10
178.8615615822
 20
86.8223488141
 10
178.8388505464
 20
86.8218314346
  0
LINE
  5
3B9
100
AcDbEntity
  8
RACCORDO
100
AcDbLine
 62
7
  6
CONTINUOUS
 10
179.3353474557
 20
87.2099714314
 11
179.3301917469
 21
87.187919658
  0
LWPOLYLINE
  5
3BA
100
AcDbEntity
  8
ASSI
100
AcDbPolyline
 62
253
  6
CONTINUOUS
 90
16
 70
0
 10
179.3200807725
 20
87.1234421809
 10
179.3106437631
 20
87.0884163032
 10
179.2980837136
 20
87.0544451607
 10
179.2825280089
 20
87.021789747
 10
179.2641045028
 20
86.9907092964
 10
179.2429654531
 20
86.9614473863
 10
179.219303273
 20
86.9342250113
 10
179.1933323226
 20
86.9092780315
 10
179.1652412396
 20
86.8867961606
 10
179.1352097133
 20
86.866902676
 10
179.1034298246
 20
86.8497369715
 10
179.0701967631
 20
86.8354972862
 10
179.0358715133
 20
86.8243337183
 10
179.0007706547
 20
86.8163160935
 10
178.9651428155
 20
86.8114942454
 10
178.9292802001
 20
86.8099001614
  0
LWPOLYLINE
  5
3BB
100
AcDbEntity
  8
RACCORDO
100
AcDbPolyline
 62
253
  6
CONTINUOUS
 90
16
 70
0
 10
179.3200807725
 20
87.1234421809
 10
179.3106437631
 20
87.0884163032
 10
179.2980837136
 20
87.0544451607
 10
179.2825280089
 20
87.021789747
 10
179.2641045028
 20
86.9907092964
 10
179.2429654531
 20
86.9614473863
 10
179.219303273
 20
86.9342250113
 10
179.1933323226
 20
86.9092780315
 10
179.1652412396
 20
86.8867961606
 10
179.1352097133
 20
86.866902676
 10
179.1034298246
 20
86.8497369715
 10
179.0701967631
 20
86.8354972862
 10
179.0358715133
 20
86.8243337183
 10
179.0007706547
 20
86.8163160935
 10
178.9651428155
 20
86.8114942454
 10
178.9292802001
 20
86.8099001614
  0
LWPOLYLINE
  5
3BC
100
AcDbEntity
  8
ASSI
100
AcDbPolyline
 62
253
  6
CONTINUOUS
 90
16
 70
0
 10
179.4177329866
 20
87.0944797306
 10
179.4056307943
 20
87.0500443228
 10
179.3899563374
 20
87.0075777984
 10
179.370709616
 20
86.967079957
 10
179.3476659567
 20
86.9282641878
 10
179.3210500329
 20
86.8914167408
 10
179.2915358647
 20
86.8573966381
 10
179.259087102
 20
86.8262820348
 10
179.223740095
 20
86.7979943059
 10
179.1862779141
 20
86.7731572036
 10
179.1465679581
 20
86.7518231071
 10
179.1047428283
 20
86.7339392231
 10
179.0619833997
 20
86.7199715217
 10
179.0186832972
 20
86.7100752357
 10
178.9744488957
 20
86.7040948842
 10
178.9292801955
 20
86.7020304056
  0
LWPOLYLINE
  5
3BD
100
AcDbEntity
  8
RACCORDO
100
AcDbPolyline
 62
253
  6
CONTINUOUS
 90
16
 70
0
 10
179.4177329866
 20
87.0944797306
 10
179.4056307943
 20
87.0500443228
 10
179.3899563374
 20
87.0075777984
 10
179.370709616
 20
86.967079957
 10
179.3476659567
 20
86.9282641878
 10
179.3210500329
 20
86.8914167408
 10
179.2915358647
 20
86.8573966381
 10
179.259087102
 20
86.8262820348
 10
179.223740095
 20
86.7979943059
 10
179.1862779141
 20
86.7731572036
 10
179.1465679581
 20
86.7518231071
 10
179.1047428283
 20
86.7339392231
 10
179.0619833997
 20
86.7199715217
 10
179.0186832972
 20
86.7100752357
 10
178.9744488957
 20
86.7040948842
 10
178.9292801955
 20
86.7020304056
  0
LINE
  5
3BE
100
AcDbEntity
  8
RACCORDO
100
AcDbLine
 62
7
  6
CONTINUOUS
 10
179.3301917469
 20
87.187919658
 11
179.324046684
 21
87.16616084
  0
LINE
  5
3BF
100
AcDbEntity
  8
0
100
AcDbLine
 62
253
  6
CONTINUOUS
 10
179.561493084
 20
94.612928616
 11
179.9329227181
 21
94.9843571652
  0
LINE
  5
3C0
100
AcDbEntity
  8
ASSI
100
AcDbLine
 62
253
  6
CONTINUOUS
 10
162.5201497853
 20
111.0589336872
 11
162.5899912946
 21
111.060401454
  0
LINE
  5
3C1
100
AcDbEntity
  8
RACCORDO
100
AcDbLine
 62
253
  6
CONTINUOUS
 10
162.5201497853
 20
111.0589336872
 11
162.5899912946
 21
111.060401454
  0
LINE
  5
3C2
100
AcDbEntity
  8
ASSI
100
AcDbLine
 62
253
  6
CONTINUOUS
 10
162.5899912946
 20
111.060401454
 11
162.6737804791
 21
111.0615745106
  0
LINE
  5
3C3
100
AcDbEntity
  8
RACCORDO
100
AcDbLine
 62
253
  6
CONTINUOUS
 10
162.5899912946
 20
111.060401454
 11
162.6737804791
 21
111.0615745106
  0
LINE
  5
3C4
100
AcDbEntity
  8
ASSI
100
AcDbLine
 62
253
  6
CONTINUOUS
 10
162.6737804791
 20
111.0615745106
 11
162.7679759489
 21
111.0624032769
  0
LINE
  5
3C5
100
AcDbEntity
  8
RACCORDO
100
AcDbLine
 62
253
  6
CONTINUOUS
 10
162.6737804791
 20
111.0615745106
 11
162.7679759489
 21
111.0624032769
  0
LINE
  5
3C6
100
AcDbEntity
  8
ASSI
100
AcDbLine
 62
253
  6
CONTINUOUS
 10
162.7679759489
 20
111.0624032769
 11
162.9199929042
 21
111.0629286153
  0
LINE
  5
3C7
100
AcDbEntity
  8
RACCORDO
100
AcDbLine
 62
253
  6
CONTINUOUS
 10
162.7679759489
 20
111.0624032769
 11
162.9199929042
 21
111.0629286153
  0
LINE
  5
3C8
100
AcDbEntity
  8
ASSI
100
AcDbLine
 62
253
  6
CONTINUOUS
 10
183.7385755546
 20
111.0626769922
 11
162.9199929042
 21
111.062928616
  0
LINE
  5
3C9
100
AcDbEntity
  8
RACCORDO
100
AcDbLine
 62
253
  6
CONTINUOUS
 10
183.7385755546
 20
111.0626769922
 11
162.9199929042
 21
111.062928616
  0
LINE
  5
3CA
100
AcDbEntity
  8
ASSI
100
AcDbLine
 62
253
  6
CONTINUOUS
 10
183.8365023019
 20
111.0620344815
 11
183.7385755546
 21
111.0626769922
  0
LINE
  5
3CB
100
AcDbEntity
  8
RACCORDO
100
AcDbLine
 62
253
  6
CONTINUOUS
 10
183.8365023019
 20
111.0620344815
 11
183.7385755546
 21
111.0626769922
  0
LINE
  5
3CC
100
AcDbEntity
  8
ASSI
100
AcDbLine
 62
253
  6
CONTINUOUS
 10
183.9259685538
 20
111.0610282396
 11
183.8365023019
 21
111.0620344815
  0
LINE
  5
3CD
100
AcDbEntity
  8
RACCORDO
100
AcDbLine
 62
253
  6
CONTINUOUS
 10
183.9259685538
 20
111.0610282396
 11
183.8365023019
 21
111.0620344815
  0
LINE
  5
3CE
100
AcDbEntity
  8
0
100
AcDbLine
 62
253
  6
CONTINUOUS
 10
172.5107650686
 20
111.173647616
 11
172.7208300686
 21
111.116286616
  0
LINE
  5
3CF
100
AcDbEntity
  8
0
100
AcDbLine
 62
253
  6
CONTINUOUS
 10
176.3330130686
 20
115.687480616
 11
176.1587600686
 21
116.077533616
  0
LWPOLYLINE
  5
3D0
100
AcDbEntity
  8
ASSI
100
AcDbPolyline
 62
253
  6
CONTINUOUS
 90
10
 70
0
 10
184.1659555876
 20
80.1918248461
 10
184.166742155
 20
80.1673176278
 10
184.1675807056
 20
80.1450692443
 10
184.1684561571
 20
80.1254721553
 10
184.1693697723
 20
80.1085726679
 10
184.1703202884
 20
80.0943244751
 10
184.1712888337
 20
80.0829811153
 10
184.1722691177
 20
80.0746271016
 10
184.173267431
 20
80.0691779209
 10
184.1742837736
 20
80.0666335734
  0
LWPOLYLINE
  5
3D1
100
AcDbEntity
  8
RACCORDO
100
AcDbPolyline
 62
253
  6
CONTINUOUS
 90
10
 70
0
 10
184.1659555876
 20
80.1918248461
 10
184.166742155
 20
80.1673176278
 10
184.1675807056
 20
80.1450692443
 10
184.1684561571
 20
80.1254721553
 10
184.1693697723
 20
80.1085726679
 10
184.1703202884
 20
80.0943244751
 10
184.1712888337
 20
80.0829811153
 10
184.1722691177
 20
80.0746271016
 10
184.173267431
 20
80.0691779209
 10
184.1742837736
 20
80.0666335734
  0
LINE
  5
3D2
100
AcDbEntity
  8
ASSI
100
AcDbLine
 62
253
  6
CONTINUOUS
 10
184.1645401337
 20
80.2477090126
 11
184.1659555876
 21
80.1918248461
  0
LINE
  5
3D3
100
AcDbEntity
  8
RACCORDO
100
AcDbLine
 62
253
  6
CONTINUOUS
 10
184.1645401337
 20
80.2477090126
 11
184.1659555876
 21
80.1918248461
  0
LINE
  5
3D4
100
AcDbEntity
  8
ASSI
100
AcDbLine
 62
253
  6
CONTINUOUS
 10
184.1633712554
 20
80.3110845395
 11
184.1645401337
 21
80.2477090126
  0
LINE
  5
3D5
100
AcDbEntity
  8
RACCORDO
100
AcDbLine
 62
253
  6
CONTINUOUS
 10
184.1633712554
 20
80.3110845395
 11
184.1645401337
 21
80.2477090126
  0
LINE
  5
3D6
100
AcDbEntity
  8
ASSI
100
AcDbLine
 62
253
  6
CONTINUOUS
 10
184.1624703715
 20
80.3807280891
 11
184.1633712554
 21
80.3110845395
  0
LINE
  5
3D7
100
AcDbEntity
  8
RACCORDO
100
AcDbLine
 62
253
  6
CONTINUOUS
 10
184.1624703715
 20
80.3807280891
 11
184.1633712554
 21
80.3110845395
  0
LINE
  5
3D8
100
AcDbEntity
  8
ASSI
100
AcDbLine
 62
253
  6
CONTINUOUS
 10
183.6635465577
 20
80.055213117
 11
183.6653933284
 21
79.8708778907
  0
LINE
  5
3D9
100
AcDbEntity
  8
RACCORDO
100
AcDbLine
 62
253
  6
CONTINUOUS
 10
183.6635465577
 20
80.055213117
 11
183.6653933284
 21
79.8708778907
  0
LINE
  5
3DA
100
AcDbEntity
  8
ASSI
100
AcDbLine
 62
253
  6
CONTINUOUS
 10
184.1616784944
 20
80.4922686046
 11
184.1624703715
 21
80.3807280891
  0
LINE
  5
3DB
100
AcDbEntity
  8
RACCORDO
100
AcDbLine
 62
253
  6
CONTINUOUS
 10
184.1616784944
 20
80.4922686046
 11
184.1624703715
 21
80.3807280891
  0
LWPOLYLINE
  5
3DC
100
AcDbEntity
  8
ASSI
100
AcDbPolyline
 62
253
  6
CONTINUOUS
 90
3
 70
0
 10
183.657069394
 20
81.7044010321
 10
183.6620426016
 20
80.3419154931
 10
183.6635465577
 20
80.055213117
  0
LWPOLYLINE
  5
3DD
100
AcDbEntity
  8
RACCORDO
100
AcDbPolyline
 62
253
  6
CONTINUOUS
 90
3
 70
0
 10
183.657069394
 20
81.7044010321
 10
183.6620426016
 20
80.3419154931
 10
183.6635465577
 20
80.055213117
  0
LWPOLYLINE
  5
3DE
100
AcDbEntity
  8
ASSI
100
AcDbPolyline
 62
253
  6
CONTINUOUS
 90
8
 70
0
 10
183.6372149406
 20
90.764027041
 10
183.6385901254
 20
89.4657521977
 10
183.6404527871
 20
88.16837469
 10
183.6428035165
 20
86.8721650074
 10
183.6456417229
 20
85.577393252
 10
183.6489656348
 20
84.2843290831
 10
183.6527746617
 20
82.9932419493
 10
183.657069394
 20
81.7044010321
  0
LWPOLYLINE
  5
3DF
100
AcDbEntity
  8
RACCORDO
100
AcDbPolyline
 62
253
  6
CONTINUOUS
 90
8
 70
0
 10
183.6372149406
 20
90.764027041
 10
183.6385901254
 20
89.4657521977
 10
183.6404527871
 20
88.16837469
 10
183.6428035165
 20
86.8721650074
 10
183.6456417229
 20
85.577393252
 10
183.6489656348
 20
84.2843290831
 10
183.6527746617
 20
82.9932419493
 10
183.657069394
 20
81.7044010321
  0
LWPOLYLINE
  5
3E0
100
AcDbEntity
  8
ASSI
100
AcDbPolyline
 62
253
  6
CONTINUOUS
 90
9
 70
0
 10
184.1370435771
 20
90.7803076253
 10
184.1384187541
 20
89.4893398291
 10
184.1402814265
 20
88.1995252271
 10
184.1426322008
 20
86.9105892304
 10
184.1454704704
 20
85.622806428
 10
184.1487944165
 20
84.3370005875
 10
184.1526034327
 20
83.053446298
 10
184.1568981253
 20
81.7718689703
 10
184.1616784944
 20
80.4922686046
  0
LWPOLYLINE
  5
3E1
100
AcDbEntity
  8
RACCORDO
100
AcDbPolyline
 62
253
  6
CONTINUOUS
 90
9
 70
0
 10
184.1370435771
 20
90.7803076253
 10
184.1384187541
 20
89.4893398291
 10
184.1402814265
 20
88.1995252271
 10
184.1426322008
 20
86.9105892304
 10
184.1454704704
 20
85.622806428
 10
184.1487944165
 20
84.3370005875
 10
184.1526034327
 20
83.053446298
 10
184.1568981253
 20
81.7718689703
 10
184.1616784944
 20
80.4922686046
  0
LINE
  5
3E2
100
AcDbEntity
  8
ASSI
100
AcDbLine
 62
253
  6
CONTINUOUS
 10
183.6353944349
 20
94.1739495255
 11
183.6372149406
 21
90.764027041
  0
LINE
  5
3E3
100
AcDbEntity
  8
RACCORDO
100
AcDbLine
 62
253
  6
CONTINUOUS
 10
183.6353944349
 20
94.1739495255
 11
183.6372149406
 21
90.764027041
  0
LINE
  5
3E4
100
AcDbEntity
  8
ASSI
100
AcDbLine
 62
253
  6
CONTINUOUS
 10
184.1352230977
 20
94.1813989765
 11
184.1370435771
 21
90.7803076253
  0
LINE
  5
3E5
100
AcDbEntity
  8
RACCORDO
100
AcDbLine
 62
253
  6
CONTINUOUS
 10
184.1352230977
 20
94.1813989765
 11
184.1370435771
 21
90.7803076253
  0
LINE
  5
3E6
100
AcDbEntity
  8
ASSI
100
AcDbLine
 62
253
  6
CONTINUOUS
 10
183.6342284372
 20
98.3962204284
 11
183.6353944349
 21
94.1739495255
  0
LINE
  5
3E7
100
AcDbEntity
  8
RACCORDO
100
AcDbLine
 62
253
  6
CONTINUOUS
 10
183.6342284372
 20
98.3962204284
 11
183.6353944349
 21
94.1739495255
  0
LINE
  5
3E8
100
AcDbEntity
  8
ASSI
100
AcDbLine
 62
253
  6
CONTINUOUS
 10
184.1340571003
 20
98.3993834054
 11
184.1352230977
 21
94.1813989765
  0
LINE
  5
3E9
100
AcDbEntity
  8
RACCORDO
100
AcDbLine
 62
253
  6
CONTINUOUS
 10
184.1340571003
 20
98.3993834054
 11
184.1352230977
 21
94.1813989765
  0
LINE
  5
3EA
100
AcDbEntity
  8
ASSI
100
AcDbLine
 62
253
  6
CONTINUOUS
 10
183.6339952374
 20
102.6184885347
 11
183.6342284372
 21
98.3962204284
  0
LINE
  5
3EB
100
AcDbEntity
  8
RACCORDO
100
AcDbLine
 62
253
  6
CONTINUOUS
 10
183.6339952374
 20
102.6184885347
 11
183.6342284372
 21
98.3962204284
  0
LINE
  5
3EC
100
AcDbEntity
  8
ASSI
100
AcDbLine
 62
253
  6
CONTINUOUS
 10
184.1338239003
 20
102.6174452032
 11
184.1340571003
 21
98.3993834054
  0
LINE
  5
3ED
100
AcDbEntity
  8
RACCORDO
100
AcDbLine
 62
253
  6
CONTINUOUS
 10
184.1338239003
 20
102.6174452032
 11
184.1340571003
 21
98.3993834054
  0
LINE
  5
3EE
100
AcDbEntity
  8
ASSI
100
AcDbLine
 62
7
  6
CONTINUOUS
 10
184.2781600686
 20
79.9627572784
 11
184.2781600686
 21
123.1630999535
  0
LINE
  5
3EF
100
AcDbEntity
  8
RACCORDO
100
AcDbLine
 62
7
  6
CONTINUOUS
 10
184.2781600686
 20
79.9627572784
 11
184.2781600686
 21
123.1630999535
  0
LINE
  5
3F0
100
AcDbEntity
  8
ASSI
100
AcDbLine
 62
253
  6
CONTINUOUS
 10
183.6353944347
 20
108.951906825
 11
183.6339952374
 21
102.6184885347
  0
LINE
  5
3F1
100
AcDbEntity
  8
RACCORDO
100
AcDbLine
 62
253
  6
CONTINUOUS
 10
183.6353944347
 20
108.951906825
 11
183.6339952374
 21
102.6184885347
  0
LINE
  5
3F2
100
AcDbEntity
  8
ASSI
100
AcDbLine
 62
253
  6
CONTINUOUS
 10
184.1352230972
 20
108.9444562518
 11
184.1338239003
 21
102.6174452032
  0
LINE
  5
3F3
100
AcDbEntity
  8
RACCORDO
100
AcDbLine
 62
253
  6
CONTINUOUS
 10
184.1352230972
 20
108.9444562518
 11
184.1338239003
 21
102.6174452032
  0
LWPOLYLINE
  5
3F4
100
AcDbEntity
  8
ASSI
100
AcDbPolyline
 62
253
  6
CONTINUOUS
 90
9
 70
0
 10
183.6570693947
 20
121.4214562049
 10
183.6527746626
 20
120.1326152916
 10
183.6489656357
 20
118.8415281605
 10
183.6456417233
 20
117.5484639929
 10
183.6428035161
 20
116.2536922377
 10
183.6404527862
 20
114.9574825539
 10
183.6385901245
 20
113.6601050435
 10
183.63721494
 20
112.3618301962
 10
183.6353944347
 20
108.951906825
  0
LWPOLYLINE
  5
3F5
100
AcDbEntity
  8
RACCORDO
100
AcDbPolyline
 62
253
  6
CONTINUOUS
 90
9
 70
0
 10
183.6570693947
 20
121.4214562049
 10
183.6527746626
 20
120.1326152916
 10
183.6489656357
 20
118.8415281605
 10
183.6456417233
 20
117.5484639929
 10
183.6428035161
 20
116.2536922377
 10
183.6404527862
 20
114.9574825539
 10
183.6385901245
 20
113.6601050435
 10
183.63721494
 20
112.3618301962
 10
183.6353944347
 20
108.951906825
  0
LWPOLYLINE
  5
3F6
100
AcDbEntity
  8
ASSI
100
AcDbPolyline
 62
253
  6
CONTINUOUS
 90
9
 70
0
 10
184.1568980867
 20
121.3539754507
 10
184.1526033676
 20
120.0723885067
 10
184.1487943373
 20
118.7888277951
 10
184.1454703927
 20
117.503018716
 10
184.1426321369
 20
116.2152358694
 10
184.1402813783
 20
114.926303056
 10
184.13841872
 20
113.6364948761
 10
184.1370435591
 20
112.3455367294
 10
184.1352230972
 20
108.9444562518
  0
LWPOLYLINE
  5
3F7
100
AcDbEntity
  8
RACCORDO
100
AcDbPolyline
 62
253
  6
CONTINUOUS
 90
9
 70
0
 10
184.1568980867
 20
121.3539754507
 10
184.1526033676
 20
120.0723885067
 10
184.1487943373
 20
118.7888277951
 10
184.1454703927
 20
117.503018716
 10
184.1426321369
 20
116.2152358694
 10
184.1402813783
 20
114.926303056
 10
184.13841872
 20
113.6364948761
 10
184.1370435591
 20
112.3455367294
 10
184.1352230972
 20
108.9444562518
  0
LINE
  5
3F8
100
AcDbEntity
  8
ASSI
100
AcDbLine
 62
253
  6
CONTINUOUS
 10
183.6630600841
 20
123.0025333028
 11
183.6570693947
 21
121.4214562049
  0
LINE
  5
3F9
100
AcDbEntity
  8
RACCORDO
100
AcDbLine
 62
253
  6
CONTINUOUS
 10
183.6630600841
 20
123.0025333028
 11
183.6570693947
 21
121.4214562049
  0
LINE
  5
3FA
100
AcDbEntity
  8
ASSI
100
AcDbLine
 62
253
  6
CONTINUOUS
 10
184.1621328713
 20
122.7089606483
 11
184.1568980867
 21
121.3539754507
  0
LINE
  5
3FB
100
AcDbEntity
  8
RACCORDO
100
AcDbLine
 62
253
  6
CONTINUOUS
 10
184.1621328713
 20
122.7089606483
 11
184.1568980867
 21
121.3539754507
  0
LINE
  5
3FC
100
AcDbEntity
  8
ASSI
100
AcDbLine
 62
253
  6
CONTINUOUS
 10
184.1628833281
 20
122.7804068401
 11
184.1621328713
 21
122.7089606483
  0
LINE
  5
3FD
100
AcDbEntity
  8
RACCORDO
100
AcDbLine
 62
253
  6
CONTINUOUS
 10
184.1628833281
 20
122.7804068401
 11
184.1621328713
 21
122.7089606483
  0
LWPOLYLINE
  5
3FE
100
AcDbEntity
  8
ASSI
100
AcDbPolyline
 62
253
  6
CONTINUOUS
 90
3
 70
0
 10
183.6653926307
 20
123.2549750051
 10
183.6647128609
 20
123.1972421333
 10
183.6630600841
 20
123.0025333028
  0
LWPOLYLINE
  5
3FF
100
AcDbEntity
  8
RACCORDO
100
AcDbPolyline
 62
253
  6
CONTINUOUS
 90
3
 70
0
 10
183.6653926307
 20
123.2549750051
 10
183.6647128609
 20
123.1972421333
 10
183.6630600841
 20
123.0025333028
  0
LINE
  5
400
100
AcDbEntity
  8
ASSI
100
AcDbLine
 62
253
  6
CONTINUOUS
 10
184.1639209754
 20
122.8472430629
 11
184.1628833281
 21
122.7804068401
  0
LINE
  5
401
100
AcDbEntity
  8
RACCORDO
100
AcDbLine
 62
253
  6
CONTINUOUS
 10
184.1639209754
 20
122.8472430629
 11
184.1628833281
 21
122.7804068401
  0
LWPOLYLINE
  5
402
100
AcDbEntity
  8
RACCORDO
100
AcDbPolyline
 62
7
  6
CONTINUOUS
 90
5
 70
0
 10
179.324046684
 20
87.16616084
 10
179.3169122672
 20
87.1446949776
 10
179.3087612076
 20
87.1234536936
 10
179.299620794
 20
87.102505365
 10
179.2895728926
 20
87.0820551229
  0
LINE
  5
403
100
AcDbEntity
  8
RACCORDO
100
AcDbLine
 62
253
  6
CONTINUOUS
 10
179.3267332052
 20
90.9046440533
 11
179.3353474557
 21
90.9158858006
  0
LINE
  5
404
100
AcDbEntity
  8
ASSI
100
AcDbLine
 62
253
  6
CONTINUOUS
 10
179.3174533719
 20
90.9989872998
 11
179.3215134406
 21
91.0042780189
  0
LINE
  5
405
100
AcDbEntity
  8
RACCORDO
100
AcDbLine
 62
253
  6
CONTINUOUS
 10
179.3174533719
 20
90.9989872998
 11
179.3215134406
 21
91.0042780189
  0
LINE
  5
406
100
AcDbEntity
  8
RACCORDO
100
AcDbLine
 62
253
  6
CONTINUOUS
 10
178.8372977638
 20
91.3021147062
 11
178.8460778982
 21
91.312928616
  0
LWPOLYLINE
  5
407
100
AcDbEntity
  8
RACCORDO
100
AcDbPolyline
 62
253
  6
CONTINUOUS
 90
12
 70
0
 10
179.326733135
 20
90.9046440386
 10
179.3263992569
 20
90.9042587453
 10
179.3254398319
 20
90.9037438597
 10
179.3238589573
 20
90.9031015805
 10
179.3216633842
 20
90.9023346507
 10
179.3188624891
 20
90.9014463455
 10
179.3154682334
 20
90.9004404584
 10
179.3114951123
 20
90.8993212852
 10
179.3069600936
 20
90.8980936054
 10
179.3018825441
 20
90.8967626619
 10
179.296284148
 20
90.8953341385
 10
179.2901888137
 20
90.8938141358
  0
LINE
  5
408
100
AcDbEntity
  8
0
100
AcDbLine
 62
253
  6
CONTINUOUS
 10
179.7472079011
 20
93.312928616
 11
180.1186362954
 21
93.684357204
  0
LINE
  5
409
100
AcDbEntity
  8
0
100
AcDbLine
 62
253
  6
CONTINUOUS
 10
172.8977180686
 20
112.532633616
 11
172.8716730686
 21
112.527983616
  0
LINE
  5
40A
100
AcDbEntity
  8
0
100
AcDbLine
 62
253
  6
CONTINUOUS
 10
172.9253140686
 20
112.533564616
 11
172.8977180686
 21
112.532633616
  0
LINE
  5
40B
100
AcDbEntity
  8
0
100
AcDbLine
 62
253
  6
CONTINUOUS
 10
170.8651290686
 20
112.101342616
 11
171.9438230686
 21
112.101342616
  0
LINE
  5
40C
100
AcDbEntity
  8
0
100
AcDbLine
 62
253
  6
CONTINUOUS
 10
173.1023570686
 20
112.101342616
 11
175.6713480686
 21
112.101342616
  0
LINE
  5
40D
100
AcDbEntity
  8
0
100
AcDbLine
 62
253
  6
CONTINUOUS
 10
171.9438230686
 20
112.532633616
 11
171.2945600686
 21
112.532633616
  0
LINE
  5
40E
100
AcDbEntity
  8
0
100
AcDbLine
 62
253
  6
CONTINUOUS
 10
175.2425360686
 20
112.532633616
 11
172.9253140686
 21
112.533564616
  0
LWPOLYLINE
  5
40F
100
AcDbEntity
  8
ASSI
100
AcDbPolyline
 62
253
  6
CONTINUOUS
 90
16
 70
0
 10
184.1742837736
 20
123.0592236585
 10
184.1715123629
 20
123.1114463179
 10
184.1633000048
 20
123.1630974852
 10
184.1497365469
 20
123.2136117628
 10
184.130970412
 20
123.2624361929
 10
184.1072069785
 20
123.3090363006
 10
184.0787063367
 20
123.3529019466
 10
184.0457804302
 20
123.3935529314
 10
184.0087896545
 20
123.4305442315
 10
183.9681389248
 20
123.4634708681
 10
183.9242732075
 20
123.4919723749
 10
183.8776726745
 20
123.5157367181
 10
183.8288474724
 20
123.534503709
 10
183.7783320873
 20
123.5480678811
 10
183.7266794889
 20
123.5562807287
 10
183.6744551112
 20
123.5590523211
  0
LWPOLYLINE
  5
410
100
AcDbEntity
  8
RACCORDO
100
AcDbPolyline
 62
253
  6
CONTINUOUS
 90
16
 70
0
 10
184.1742837736
 20
123.0592236585
 10
184.1715123629
 20
123.1114463179
 10
184.1633000048
 20
123.1630974852
 10
184.1497365469
 20
123.2136117628
 10
184.130970412
 20
123.2624361929
 10
184.1072069785
 20
123.3090363006
 10
184.0787063367
 20
123.3529019466
 10
184.0457804302
 20
123.3935529314
 10
184.0087896545
 20
123.4305442315
 10
183.9681389248
 20
123.4634708681
 10
183.9242732075
 20
123.4919723749
 10
183.8776726745
 20
123.5157367181
 10
183.8288474724
 20
123.534503709
 10
183.7783320873
 20
123.5480678811
 10
183.7266794889
 20
123.5562807287
 10
183.6744551112
 20
123.5590523211
  0
LWPOLYLINE
  5
411
100
AcDbEntity
  8
ASSI
100
AcDbPolyline
 62
253
  6
CONTINUOUS
 90
16
 70
0
 10
184.1742837736
 20
80.0666335734
 10
184.1715122608
 20
80.0144099474
 10
184.1632996318
 20
79.9627579958
 10
184.1497357874
 20
79.9122431349
 10
184.1309692066
 20
79.8634183338
 10
184.1072053206
 20
79.8168180611
 10
184.0787042647
 20
79.7729524342
 10
184.0457780304
 20
79.7323016351
 10
184.0087870498
 20
79.6953106545
 10
183.9681362508
 20
79.6623844201
 10
183.9242706239
 20
79.6338833642
 10
183.8776703511
 20
79.6101194781
 10
183.82884555
 20
79.5913528972
 10
183.778330689
 20
79.5777890528
 10
183.7266787372
 20
79.5695764238
 10
183.6744551111
 20
79.5668049109
  0
LWPOLYLINE
  5
412
100
AcDbEntity
  8
RACCORDO
100
AcDbPolyline
 62
253
  6
CONTINUOUS
 90
16
 70
0
 10
184.1742837736
 20
80.0666335734
 10
184.1715122608
 20
80.0144099474
 10
184.1632996318
 20
79.9627579958
 10
184.1497357874
 20
79.9122431349
 10
184.1309692066
 20
79.8634183338
 10
184.1072053206
 20
79.8168180611
 10
184.0787042647
 20
79.7729524342
 10
184.0457780304
 20
79.7323016351
 10
184.0087870498
 20
79.6953106545
 10
183.9681362508
 20
79.6623844201
 10
183.9242706239
 20
79.6338833642
 10
183.8776703511
 20
79.6101194781
 10
183.82884555
 20
79.5913528972
 10
183.778330689
 20
79.5777890528
 10
183.7266787372
 20
79.5695764238
 10
183.6744551111
 20
79.5668049109
  0
LINE
  5
413
100
AcDbEntity
  8
RACCORDO
100
AcDbLine
 62
7
  6
CONTINUOUS
 10
179.2895728926
 20
87.0820551229
 11
179.2786151586
 21
87.0621302331
  0
LWPOLYLINE
  5
414
100
AcDbEntity
  8
RACCORDO
100
AcDbPolyline
 62
7
  6
CONTINUOUS
 90
18
 70
0
 10
179.2786151586
 20
87.0621302331
 10
179.2667499368
 20
87.0427034297
 10
179.2540661269
 20
87.0238980454
 10
179.2405862763
 20
87.005743179
 10
179.2262878375
 20
86.9882097319
 10
179.2111920684
 20
86.9713337406
 10
179.1952586349
 20
86.9550770262
 10
179.178527871
 20
86.9394777677
 10
179.1611420364
 20
86.9246865387
 10
179.1430899184
 20
86.9107177199
 10
179.1243827297
 20
86.8975569305
 10
179.105196368
 20
86.8853116023
 10
179.0855770621
 20
86.8740133169
 10
179.0654785832
 20
86.8636304927
 10
179.0449381425
 20
86.8541758159
 10
179.0239210681
 20
86.8456325382
 10
179.0024620319
 20
86.8380174081
 10
178.9807022608
 20
86.8313933571
  0
LWPOLYLINE
  5
415
100
AcDbEntity
  8
ASSI
100
AcDbPolyline
 62
253
  6
CONTINUOUS
 90
7
 70
0
 10
162.4201642417
 20
111.053428616
 10
162.4241571037
 20
111.0544054826
 10
162.4334030631
 20
111.0553719999
 10
162.4478041644
 20
111.0563179282
 10
162.467207836
 20
111.0572332458
 10
162.491408507
 20
111.0581082555
 10
162.5201497853
 20
111.0589336872
  0
LWPOLYLINE
  5
416
100
AcDbEntity
  8
RACCORDO
100
AcDbPolyline
 62
253
  6
CONTINUOUS
 90
7
 70
0
 10
162.4201642417
 20
111.053428616
 10
162.4241571037
 20
111.0544054826
 10
162.4334030631
 20
111.0553719999
 10
162.4478041644
 20
111.0563179282
 10
162.467207836
 20
111.0572332458
 10
162.491408507
 20
111.0581082555
 10
162.5201497853
 20
111.0589336872
  0
LWPOLYLINE
  5
417
100
AcDbEntity
  8
ASSI
100
AcDbPolyline
 62
253
  6
CONTINUOUS
 90
9
 70
0
 10
184.1361558954
 20
111.053428616
 10
184.1321630368
 20
111.0544054827
 10
184.1229170803
 20
111.055372
 10
184.1085159813
 20
111.0563179283
 10
184.0891123115
 20
111.057233246
 10
184.0649116416
 20
111.0581082558
 10
184.036170364
 20
111.0589336875
 10
184.0031929761
 20
111.0597007961
 10
183.9259685538
 20
111.0610282396
  0
LWPOLYLINE
  5
418
100
AcDbEntity
  8
RACCORDO
100
AcDbPolyline
 62
253
  6
CONTINUOUS
 90
9
 70
0
 10
184.1361558954
 20
111.053428616
 10
184.1321630368
 20
111.0544054827
 10
184.1229170803
 20
111.055372
 10
184.1085159813
 20
111.0563179283
 10
184.0891123115
 20
111.057233246
 10
184.0649116416
 20
111.0581082558
 10
184.036170364
 20
111.0589336875
 10
184.0031929761
 20
111.0597007961
 10
183.9259685538
 20
111.0610282396
  0
LINE
  5
419
100
AcDbEntity
  8
0
100
AcDbLine
 62
253
  6
CONTINUOUS
 10
173.6975150686
 20
116.579208616
 11
174.0826070686
 21
116.263569616
  0
LINE
  5
41A
100
AcDbEntity
  8
0
100
AcDbLine
 62
253
  6
CONTINUOUS
 10
174.4484760686
 20
116.550063616
 11
173.9109900686
 21
117.009570616
  0
LWPOLYLINE
  5
41B
100
AcDbEntity
  8
RACCORDO
100
AcDbPolyline
 62
253
  6
CONTINUOUS
 90
25
 70
0
 10
179.3280623058
 20
87.2194787756
 10
179.3275344976
 20
87.2188891794
 10
179.32639894
 20
87.2184298068
 10
179.3246603509
 20
87.2181025663
 10
179.3223259536
 20
87.2179088174
 10
179.3194054468
 20
87.2178493652
 10
179.3159109644
 20
87.2179244567
 10
179.311857025
 20
87.2181337799
 10
179.3072604714
 20
87.2184764651
 10
179.3021404011
 20
87.2189510885
 10
179.2965180863
 20
87.2195556783
 10
179.2904168863
 20
87.2202877225
 10
179.2838621496
 20
87.2211441796
 10
179.2768811094
 20
87.2221214915
 10
179.2695027698
 20
87.2232155976
 10
179.2617577856
 20
87.2244219522
 10
179.253678335
 20
87.2257355433
 10
179.2452979858
 20
87.2271509133
 10
179.2366515558
 20
87.2286621818
 10
179.2277749685
 20
87.2302630698
 10
179.2187051035
 20
87.2319469261
 10
179.2094796434
 20
87.2337067549
 10
179.2001369174
 20
87.2355352445
 10
179.1907157416
 20
87.2374247981
 10
179.1812552585
 20
87.2393675651
  0
LINE
  5
41C
100
AcDbEntity
  8
0
100
AcDbLine
 62
253
  6
CONTINUOUS
 10
172.8588060686
 20
116.579208616
 11
173.6975150686
 21
116.579208616
  0
LINE
  5
41D
100
AcDbEntity
  8
0
100
AcDbLine
 62
253
  6
CONTINUOUS
 10
173.9109900686
 20
117.009570616
 11
172.6453310686
 21
117.009570616
  0
LWPOLYLINE
  5
41E
100
AcDbEntity
  8
ASSI
100
AcDbPolyline
 62
253
  6
CONTINUOUS
 90
16
 70
0
 10
184.1616784943
 20
80.4922686046
 10
184.1576981176
 20
80.4846382804
 10
184.1484627097
 20
80.4770888394
 10
184.1340701483
 20
80.469700291
 10
184.1146729667
 20
80.4625509397
 10
184.0904767375
 20
80.4557165546
 10
184.061737894
 20
80.4492695672
 10
184.0287610124
 20
80.4432783029
 10
183.991895584
 20
80.4378062577
 10
183.9515323111
 20
80.4329114245
 10
183.9080989663
 20
80.4286456793
 10
183.8620558593
 20
80.4250542307
 10
183.813890958
 20
80.4221751407
 10
183.7641147173
 20
80.4200389221
 10
183.7132546692
 20
80.4186682146
 10
183.6618498319
 20
80.4180775453
  0
LWPOLYLINE
  5
41F
100
AcDbEntity
  8
RACCORDO
100
AcDbPolyline
 62
253
  6
CONTINUOUS
 90
16
 70
0
 10
184.1616784943
 20
80.4922686046
 10
184.1576981176
 20
80.4846382804
 10
184.1484627097
 20
80.4770888394
 10
184.1340701483
 20
80.469700291
 10
184.1146729667
 20
80.4625509397
 10
184.0904767375
 20
80.4557165546
 10
184.061737894
 20
80.4492695672
 10
184.0287610124
 20
80.4432783029
 10
183.991895584
 20
80.4378062577
 10
183.9515323111
 20
80.4329114245
 10
183.9080989663
 20
80.4286456793
 10
183.8620558593
 20
80.4250542307
 10
183.813890958
 20
80.4221751407
 10
183.7641147173
 20
80.4200389221
 10
183.7132546692
 20
80.4186682146
 10
183.6618498319
 20
80.4180775453
  0
LWPOLYLINE
  5
420
100
AcDbEntity
  8
ASSI
100
AcDbPolyline
 62
253
  6
CONTINUOUS
 90
16
 70
0
 10
184.1616784944
 20
122.6335886274
 10
184.1576990737
 20
122.6412191622
 10
184.1484644747
 20
122.648768826
 10
184.134072569
 20
122.6561576048
 10
184.1146758867
 20
122.6633071899
 10
184.0904800005
 20
122.6701418076
 10
184.0617413466
 20
122.6765890222
 10
184.0287645069
 20
122.682580504
 10
183.9918989813
 20
122.6880527532
 10
183.9515354829
 20
122.6929477731
 10
183.9081017979
 20
122.6972136846
 10
183.8620582511
 20
122.7008052762
 10
183.8138928277
 20
122.7036844831
 10
183.7641160011
 20
122.7058207906
 10
183.7132553229
 20
122.7071915573
 10
183.6618498319
 20
122.7077822555
  0
LWPOLYLINE
  5
421
100
AcDbEntity
  8
RACCORDO
100
AcDbPolyline
 62
253
  6
CONTINUOUS
 90
16
 70
0
 10
184.1616784944
 20
122.6335886274
 10
184.1576990737
 20
122.6412191622
 10
184.1484644747
 20
122.648768826
 10
184.134072569
 20
122.6561576048
 10
184.1146758867
 20
122.6633071899
 10
184.0904800005
 20
122.6701418076
 10
184.0617413466
 20
122.6765890222
 10
184.0287645069
 20
122.682580504
 10
183.9918989813
 20
122.6880527532
 10
183.9515354829
 20
122.6929477731
 10
183.9081017979
 20
122.6972136846
 10
183.8620582511
 20
122.7008052762
 10
183.8138928277
 20
122.7036844831
 10
183.7641160011
 20
122.7058207906
 10
183.7132553229
 20
122.7071915573
 10
183.6618498319
 20
122.7077822555
  0
LINE
  5
422
100
AcDbEntity
  8
ASSI
100
AcDbLine
 62
253
  6
CONTINUOUS
 10
162.8944703052
 20
122.7077822587
 11
183.6618498319
 21
122.7077822587
  0
LINE
  5
423
100
AcDbEntity
  8
RACCORDO
100
AcDbLine
 62
253
  6
CONTINUOUS
 10
162.8944703052
 20
122.7077822587
 11
183.6618498319
 21
122.7077822587
  0
LINE
  5
424
100
AcDbEntity
  8
ASSI
100
AcDbLine
 62
253
  6
CONTINUOUS
 10
162.881865026
 20
123.559052321
 11
183.6744551111
 21
123.559052321
  0
LINE
  5
425
100
AcDbEntity
  8
RACCORDO
100
AcDbLine
 62
253
  6
CONTINUOUS
 10
162.881865026
 20
123.559052321
 11
183.6744551111
 21
123.559052321
  0
LINE
  5
426
100
AcDbEntity
  8
ASSI
100
AcDbLine
 62
7
  6
CONTINUOUS
 10
162.7779887311
 20
123.662928616
 11
183.7783314061
 21
123.662928616
  0
LINE
  5
427
100
AcDbEntity
  8
RACCORDO
100
AcDbLine
 62
7
  6
CONTINUOUS
 10
162.7779887311
 20
123.662928616
 11
183.7783314061
 21
123.662928616
  0
LINE
  5
428
100
AcDbEntity
  8
ASSI
100
AcDbLine
 62
7
  6
CONTINUOUS
 10
131.6629864082
 20
79.5668049109
 11
135.6298620704
 21
79.462928616
  0
LINE
  5
429
100
AcDbEntity
  8
RACCORDO
100
AcDbLine
 62
7
  6
CONTINUOUS
 10
131.6629864082
 20
79.5668049109
 11
135.6298620704
 21
79.462928616
  0
LINE
  5
42A
100
AcDbEntity
  8
ASSI
100
AcDbLine
 62
253
  6
CONTINUOUS
 10
131.6629864082
 20
80.0666335734
 11
135.6298620704
 21
79.9627572784
  0
LINE
  5
42B
100
AcDbEntity
  8
RACCORDO
100
AcDbLine
 62
253
  6
CONTINUOUS
 10
131.6629864082
 20
80.0666335734
 11
135.6298620704
 21
79.9627572784
  0
LWPOLYLINE
  5
42C
100
AcDbEntity
  8
ASSI
100
AcDbPolyline
 62
253
  6
CONTINUOUS
 90
4
 70
0
 10
130.7235783055
 20
80.4221751407
 10
130.7106448726
 20
80.4200389221
 10
130.7028415834
 20
80.4186682146
 10
130.7002511378
 20
80.4180775453
  0
LWPOLYLINE
  5
42D
100
AcDbEntity
  8
RACCORDO
100
AcDbPolyline
 62
253
  6
CONTINUOUS
 90
4
 70
0
 10
130.7235783055
 20
80.4221751407
 10
130.7106448726
 20
80.4200389221
 10
130.7028415834
 20
80.4186682146
 10
130.7002511378
 20
80.4180775453
  0
LINE
  5
42E
100
AcDbEntity
  8
ASSI
100
AcDbLine
 62
253
  6
CONTINUOUS
 10
130.7915262011
 20
80.4329114245
 11
130.7235783055
 21
80.4221751407
  0
LINE
  5
42F
100
AcDbEntity
  8
RACCORDO
100
AcDbLine
 62
253
  6
CONTINUOUS
 10
130.7915262011
 20
80.4329114245
 11
130.7235783055
 21
80.4221751407
  0
LWPOLYLINE
  5
430
100
AcDbEntity
  8
ASSI
100
AcDbPolyline
 62
253
  6
CONTINUOUS
 90
3
 70
0
 10
131.1816102172
 20
80.4922686046
 10
131.130862034
 20
80.4846382804
 10
130.7915262011
 20
80.4329114245
  0
LWPOLYLINE
  5
431
100
AcDbEntity
  8
RACCORDO
100
AcDbPolyline
 62
253
  6
CONTINUOUS
 90
3
 70
0
 10
131.1816102172
 20
80.4922686046
 10
131.130862034
 20
80.4846382804
 10
130.7915262011
 20
80.4329114245
  0
LWPOLYLINE
  5
432
100
AcDbEntity
  8
RACCORDO
100
AcDbPolyline
 62
253
  6
CONTINUOUS
 90
25
 70
0
 10
129.8891084459
 20
87.2194787756
 10
129.8794723301
 20
87.2188891794
 10
129.8698816878
 20
87.2184298068
 10
129.8603763656
 20
87.2181025663
 10
129.8509958552
 20
87.2179088174
 10
129.8417791298
 20
87.2178493652
 10
129.8327644823
 20
87.2179244567
 10
129.823989366
 20
87.2181337799
 10
129.8154902388
 20
87.2184764651
 10
129.8073024122
 20
87.2189510885
 10
129.7994599042
 20
87.2195556783
 10
129.7919952981
 20
87.2202877225
 10
129.7849396073
 20
87.2211441796
 10
129.7783221459
 20
87.2221214915
 10
129.7721704077
 20
87.2232155976
 10
129.7665099513
 20
87.2244219522
 10
129.7613642942
 20
87.2257355433
 10
129.7567548153
 20
87.2271509133
 10
129.7527006654
 20
87.2286621818
 10
129.7492186885
 20
87.2302630698
 10
129.7463233511
 20
87.2319469261
 10
129.7440266824
 20
87.2337067549
 10
129.7423382246
 20
87.2355352445
 10
129.7412649926
 20
87.2374247981
 10
129.7408114454
 20
87.2393675651
  0
LINE
  5
433
100
AcDbEntity
  8
RACCORDO
100
AcDbLine
 62
7
  6
CONTINUOUS
 10
129.9097616504
 20
86.8218308975
 11
129.9731052855
 21
86.8212781059
  0
LINE
  5
434
100
AcDbEntity
  8
RACCORDO
100
AcDbLine
 62
253
  6
CONTINUOUS
 10
129.8891084409
 20
87.2194786564
 11
129.9430402269
 21
87.2189859718
  0
LINE
  5
435
100
AcDbEntity
  8
RACCORDO
100
AcDbLine
 62
253
  6
CONTINUOUS
 10
129.6992414418
 20
90.9046440533
 11
129.7504848991
 21
90.9051121868
  0
LWPOLYLINE
  5
436
100
AcDbEntity
  8
RACCORDO
100
AcDbPolyline
 62
253
  6
CONTINUOUS
 90
25
 70
0
 10
129.6992414425
 20
90.9046440386
 10
129.6894522717
 20
90.9042587453
 10
129.6797104964
 20
90.9037438597
 10
129.6700577195
 20
90.9031015805
 10
129.6605351637
 20
90.9023346507
 10
129.651183496
 20
90.9014463455
 10
129.6420426531
 20
90.9004404584
 10
129.6331516717
 20
90.8993212852
 10
129.6245485213
 20
90.8980936054
 10
129.6162699423
 20
90.8967626619
 10
129.6083512888
 20
90.8953341385
 10
129.6008263782
 20
90.8938141358
 10
129.5937273459
 20
90.8922091452
 10
129.5870845089
 20
90.8905260209
 10
129.580926236
 20
90.8887719507
 10
129.5752788263
 20
90.8869544255
 10
129.5701663976
 20
90.8850812073
 10
129.5656107829
 20
90.8831602956
 10
129.5616314372
 20
90.881199894
 10
129.5582453545
 20
90.8792083743
 10
129.5554669954
 20
90.8771942416
 10
129.5533082251
 20
90.8751660973
 10
129.5517782627
 20
90.8731326028
 10
129.550883642
 20
90.8711024422
 10
129.5506281836
 20
90.8690842855
  0
LINE
  5
437
100
AcDbEntity
  8
ASSI
100
AcDbLine
 62
253
  6
CONTINUOUS
 10
129.7227678822
 20
92.0630045067
 11
129.7201202387
 21
92.0629286164
  0
LINE
  5
438
100
AcDbEntity
  8
RACCORDO
100
AcDbLine
 62
253
  6
CONTINUOUS
 10
129.7227678822
 20
92.0630045067
 11
129.7201202387
 21
92.0629286164
  0
LINE
  5
439
100
AcDbEntity
  8
ASSI
100
AcDbLine
 62
253
  6
CONTINUOUS
 10
130.2069414847
 20
92.072428616
 11
129.7227678822
 21
92.0630045067
  0
LINE
  5
43A
100
AcDbEntity
  8
RACCORDO
100
AcDbLine
 62
253
  6
CONTINUOUS
 10
130.2069414847
 20
92.072428616
 11
129.7227678822
 21
92.0630045067
  0
LINE
  5
43B
100
AcDbEntity
  8
RACCORDO
100
AcDbLine
 62
7
  6
CONTINUOUS
 10
129.6907107488
 20
91.3021147062
 11
129.7377861909
 21
91.3025255274
  0
LWPOLYLINE
  5
43C
100
AcDbEntity
  8
ASSI
100
AcDbPolyline
 62
253
  6
CONTINUOUS
 90
10
 70
0
 10
131.1816102172
 20
122.6335886274
 10
130.9990538111
 20
121.3539754507
 10
130.8350451076
 20
120.0723885067
 10
130.6895841067
 20
118.7888277951
 10
130.5626477853
 20
117.503018716
 10
130.4542591666
 20
116.2152358694
 10
130.3644873202
 20
114.926303056
 10
130.2933552694
 20
113.6364948761
 10
130.2408399909
 20
112.3455367294
 10
130.2069414847
 20
111.053428616
  0
LWPOLYLINE
  5
43D
100
AcDbEntity
  8
RACCORDO
100
AcDbPolyline
 62
253
  6
CONTINUOUS
 90
10
 70
0
 10
131.1816102172
 20
122.6335886274
 10
130.9990538111
 20
121.3539754507
 10
130.8350451076
 20
120.0723885067
 10
130.6895841067
 20
118.7888277951
 10
130.5626477853
 20
117.503018716
 10
130.4542591666
 20
116.2152358694
 10
130.3644873202
 20
114.926303056
 10
130.2933552694
 20
113.6364948761
 10
130.2408399909
 20
112.3455367294
 10
130.2069414847
 20
111.053428616
  0
LWPOLYLINE
  5
43E
100
AcDbEntity
  8
ASSI
100
AcDbPolyline
 62
253
  6
CONTINUOUS
 90
19
 70
0
 10
131.1816102172
 20
80.4922686046
 10
131.1888872923
 20
80.4540529353
 10
131.1989674812
 20
80.4168727635
 10
131.211850784
 20
80.3807280891
 10
131.227650911
 20
80.3453885656
 10
131.2462541518
 20
80.3110845395
 10
131.2673193757
 20
80.2785070505
 10
131.290891813
 20
80.2477090126
 10
131.3169262333
 20
80.2186375119
 10
131.3449458155
 20
80.1918248461
 10
131.3749836117
 20
80.1673176278
 10
131.4070065697
 20
80.1450692443
 10
131.440438712
 20
80.1254721553
 10
131.4753282708
 20
80.1085726679
 10
131.5116270139
 20
80.0943244751
 10
131.5486142666
 20
80.0829811153
 10
131.5860498042
 20
80.0746271016
 10
131.6241738514
 20
80.0691779209
 10
131.6629864082
 20
80.0666335734
  0
LWPOLYLINE
  5
43F
100
AcDbEntity
  8
RACCORDO
100
AcDbPolyline
 62
253
  6
CONTINUOUS
 90
19
 70
0
 10
131.1816102172
 20
80.4922686046
 10
131.1888872923
 20
80.4540529353
 10
131.1989674812
 20
80.4168727635
 10
131.211850784
 20
80.3807280891
 10
131.227650911
 20
80.3453885656
 10
131.2462541518
 20
80.3110845395
 10
131.2673193757
 20
80.2785070505
 10
131.290891813
 20
80.2477090126
 10
131.3169262333
 20
80.2186375119
 10
131.3449458155
 20
80.1918248461
 10
131.3749836117
 20
80.1673176278
 10
131.4070065697
 20
80.1450692443
 10
131.440438712
 20
80.1254721553
 10
131.4753282708
 20
80.1085726679
 10
131.5116270139
 20
80.0943244751
 10
131.5486142666
 20
80.0829811153
 10
131.5860498042
 20
80.0746271016
 10
131.6241738514
 20
80.0691779209
 10
131.6629864082
 20
80.0666335734
  0
LWPOLYLINE
  5
440
100
AcDbEntity
  8
RACCORDO
100
AcDbPolyline
 62
253
  6
CONTINUOUS
 90
4
 70
0
 10
129.9093832325
 20
86.8264736045
 10
129.9095612018
 20
86.823896812
 10
129.9096874025
 20
86.8223488141
 10
129.909761655
 20
86.8218314346
  0
LINE
  5
441
100
AcDbEntity
  8
RACCORDO
100
AcDbLine
 62
253
  6
CONTINUOUS
 10
129.908874744
 20
86.8346882069
 11
129.9093832325
 21
86.8264736045
  0
LINE
  5
442
100
AcDbEntity
  8
RACCORDO
100
AcDbLine
 62
253
  6
CONTINUOUS
 10
129.9067425454
 20
86.8726027449
 11
129.908874744
 21
86.8346882069
  0
LINE
  5
443
100
AcDbEntity
  8
RACCORDO
100
AcDbLine
 62
253
  6
CONTINUOUS
 10
129.8944166524
 20
87.1116500203
 11
129.9067425454
 21
86.8726027449
  0
LINE
  5
444
100
AcDbEntity
  8
RACCORDO
100
AcDbLine
 62
253
  6
CONTINUOUS
 10
129.8891084459
 20
87.2194787756
 11
129.8944166524
 21
87.1116500203
  0
LWPOLYLINE
  5
445
100
AcDbEntity
  8
RACCORDO
100
AcDbPolyline
 62
253
  6
CONTINUOUS
 90
19
 70
0
 10
129.6992414418
 20
90.9046440533
 10
129.7058466782
 20
90.7029194761
 10
129.7129286659
 20
90.5002105063
 10
129.7204874049
 20
90.2966215684
 10
129.7285245212
 20
90.0922310493
 10
129.7370383888
 20
89.8871715867
 10
129.7460241299
 20
89.6816306596
 10
129.7554841325
 20
89.4757365654
 10
129.7654160085
 20
89.2695765868
 10
129.7758077166
 20
89.0632777864
 10
129.7866622931
 20
88.8569486354
 10
129.7979767016
 20
88.6506974576
 10
129.8097297914
 20
88.4446512464
 10
129.82192599
 20
88.2388978101
 10
129.8345608699
 20
88.0335660044
 10
129.8475999983
 20
87.8288436019
 10
129.8610318974
 20
87.6248640805
 10
129.8748680449
 20
87.4217071758
 10
129.8891084409
 20
87.2194786564
  0
LINE
  5
446
100
AcDbEntity
  8
RACCORDO
100
AcDbLine
 62
253
  6
CONTINUOUS
 10
129.6920892633
 20
91.2172552407
 11
129.6992414464
 21
90.9046439452
  0
LINE
  5
447
100
AcDbEntity
  8
RACCORDO
100
AcDbLine
 62
253
  6
CONTINUOUS
 10
129.6908504988
 20
91.2836162618
 11
129.6920892633
 21
91.2172552407
  0
LINE
  5
448
100
AcDbEntity
  8
0
100
AcDbLine
 62
253
  6
CONTINUOUS
 10
129.6845691885
 20
94.1667049057
 11
129.6843686568
 21
94.1802722235
  0
LINE
  5
449
100
AcDbEntity
  8
0
100
AcDbLine
 62
253
  6
CONTINUOUS
 10
129.7600937843
 20
112.533564616
 11
129.7600608666
 21
112.532633616
  0
LWPOLYLINE
  5
44A
100
AcDbEntity
  8
ASSI
100
AcDbPolyline
 62
253
  6
CONTINUOUS
 90
10
 70
0
 10
130.2069414847
 20
92.072428616
 10
130.2408406778
 20
90.7803076253
 10
130.29335657
 20
89.4893398291
 10
130.3644891614
 20
88.1995252271
 10
130.4542616065
 20
86.9105892304
 10
130.5626507507
 20
85.622806428
 10
130.6895871303
 20
84.3370005875
 10
130.8350475906
 20
83.053446298
 10
130.9990552862
 20
81.7718689703
 10
131.1816102172
 20
80.4922686046
  0
LWPOLYLINE
  5
44B
100
AcDbEntity
  8
RACCORDO
100
AcDbPolyline
 62
253
  6
CONTINUOUS
 90
10
 70
0
 10
130.2069414847
 20
92.072428616
 10
130.2408406778
 20
90.7803076253
 10
130.29335657
 20
89.4893398291
 10
130.3644891614
 20
88.1995252271
 10
130.4542616065
 20
86.9105892304
 10
130.5626507507
 20
85.622806428
 10
130.6895871303
 20
84.3370005875
 10
130.8350475906
 20
83.053446298
 10
130.9990552862
 20
81.7718689703
 10
131.1816102172
 20
80.4922686046
  0
LWPOLYLINE
  5
44C
100
AcDbEntity
  8
ASSI
100
AcDbPolyline
 62
253
  6
CONTINUOUS
 90
10
 70
0
 10
130.2069414847
 20
111.053428616
 10
130.1713193569
 20
108.9444562518
 10
130.1446027634
 20
106.8354698192
 10
130.1267917041
 20
104.7264693183
 10
130.1178861822
 20
102.6174452032
 10
130.1178861945
 20
100.5084070196
 10
130.1267917318
 20
98.3993834054
 10
130.1446027911
 20
96.2903839063
 10
130.1713193754
 20
94.1813989765
 10
130.2069414847
 20
92.072428616
  0
LWPOLYLINE
  5
44D
100
AcDbEntity
  8
RACCORDO
100
AcDbPolyline
 62
253
  6
CONTINUOUS
 90
10
 70
0
 10
130.2069414847
 20
111.053428616
 10
130.1713193569
 20
108.9444562518
 10
130.1446027634
 20
106.8354698192
 10
130.1267917041
 20
104.7264693183
 10
130.1178861822
 20
102.6174452032
 10
130.1178861945
 20
100.5084070196
 10
130.1267917318
 20
98.3993834054
 10
130.1446027911
 20
96.2903839063
 10
130.1713193754
 20
94.1813989765
 10
130.2069414847
 20
92.072428616
  0
LWPOLYLINE
  5
44E
100
AcDbEntity
  8
RACCORDO
100
AcDbPolyline
 62
253
  6
CONTINUOUS
 90
6
 70
0
 10
129.6907107539
 20
91.3021141163
 10
129.6906741588
 20
91.3015961609
 10
129.6906615897
 20
91.3000463737
 10
129.6906730328
 20
91.2974666461
 10
129.69070833
 20
91.2938627203
 10
129.6908504988
 20
91.2836162618
  0
LINE
  5
44F
100
AcDbEntity
  8
ASSI
100
AcDbLine
 62
253
  6
CONTINUOUS
 10
131.6629864082
 20
123.0592236585
 11
131.6605539927
 21
123.1630974852
  0
LINE
  5
450
100
AcDbEntity
  8
RACCORDO
100
AcDbLine
 62
253
  6
CONTINUOUS
 10
131.6629864082
 20
123.0592236585
 11
131.6605539927
 21
123.1630974852
  0
LINE
  5
451
100
AcDbEntity
  8
ASSI
100
AcDbLine
 62
253
  6
CONTINUOUS
 10
131.6605539927
 20
123.1630974852
 11
131.658799295
 21
123.2624361929
  0
LINE
  5
452
100
AcDbEntity
  8
RACCORDO
100
AcDbLine
 62
253
  6
CONTINUOUS
 10
131.6605539927
 20
123.1630974852
 11
131.658799295
 21
123.2624361929
  0
LWPOLYLINE
  5
453
100
AcDbEntity
  8
ASSI
100
AcDbPolyline
 62
253
  6
CONTINUOUS
 90
11
 70
0
 10
131.658799295
 20
123.2624361929
 10
131.6577989481
 20
123.3529019466
 10
131.65759666
 20
123.3935529314
 10
131.6575966468
 20
123.4305442315
 10
131.6577989103
 20
123.4634708681
 10
131.6582012376
 20
123.4919723749
 10
131.658799226
 20
123.5157367181
 10
131.6595863296
 20
123.534503709
 10
131.6605539328
 20
123.5480678811
 10
131.6616914443
 20
123.5562807287
 10
131.6629864127
 20
123.5590523211
  0
LWPOLYLINE
  5
454
100
AcDbEntity
  8
RACCORDO
100
AcDbPolyline
 62
253
  6
CONTINUOUS
 90
11
 70
0
 10
131.658799295
 20
123.2624361929
 10
131.6577989481
 20
123.3529019466
 10
131.65759666
 20
123.3935529314
 10
131.6575966468
 20
123.4305442315
 10
131.6577989103
 20
123.4634708681
 10
131.6582012376
 20
123.4919723749
 10
131.658799226
 20
123.5157367181
 10
131.6595863296
 20
123.534503709
 10
131.6605539328
 20
123.5480678811
 10
131.6616914443
 20
123.5562807287
 10
131.6629864127
 20
123.5590523211
  0
LWPOLYLINE
  5
455
100
AcDbEntity
  8
ASSI
100
AcDbPolyline
 62
253
  6
CONTINUOUS
 90
9
 70
0
 10
131.6575966603
 20
79.7323016351
 10
131.6575966605
 20
79.6953106545
 10
131.6577989355
 20
79.6623844201
 10
131.6582012712
 20
79.6338833642
 10
131.6587992632
 20
79.6101194781
 10
131.6595863654
 20
79.5913528972
 10
131.6605539616
 20
79.5777890528
 10
131.6616914598
 20
79.5695764238
 10
131.6629864082
 20
79.5668049109
  0
LWPOLYLINE
  5
456
100
AcDbEntity
  8
RACCORDO
100
AcDbPolyline
 62
253
  6
CONTINUOUS
 90
9
 70
0
 10
131.6575966603
 20
79.7323016351
 10
131.6575966605
 20
79.6953106545
 10
131.6577989355
 20
79.6623844201
 10
131.6582012712
 20
79.6338833642
 10
131.6587992632
 20
79.6101194781
 10
131.6595863654
 20
79.5913528972
 10
131.6605539616
 20
79.5777890528
 10
131.6616914598
 20
79.5695764238
 10
131.6629864082
 20
79.5668049109
  0
LINE
  5
457
100
AcDbEntity
  8
ASSI
100
AcDbLine
 62
253
  6
CONTINUOUS
 10
131.6582012703
 20
79.8168180611
 11
131.6575966603
 21
79.7323016351
  0
LINE
  5
458
100
AcDbEntity
  8
RACCORDO
100
AcDbLine
 62
253
  6
CONTINUOUS
 10
131.6582012703
 20
79.8168180611
 11
131.6575966603
 21
79.7323016351
  0
LINE
  5
459
100
AcDbEntity
  8
ASSI
100
AcDbLine
 62
253
  6
CONTINUOUS
 10
131.6595863641
 20
79.9122431349
 11
131.6582012703
 21
79.8168180611
  0
LINE
  5
45A
100
AcDbEntity
  8
RACCORDO
100
AcDbLine
 62
253
  6
CONTINUOUS
 10
131.6595863641
 20
79.9122431349
 11
131.6582012703
 21
79.8168180611
  0
LWPOLYLINE
  5
45B
100
AcDbEntity
  8
ASSI
100
AcDbPolyline
 62
253
  6
CONTINUOUS
 90
3
 70
0
 10
131.6629864082
 20
80.0666335734
 10
131.6616914591
 20
80.0144099474
 10
131.6595863641
 20
79.9122431349
  0
LWPOLYLINE
  5
45C
100
AcDbEntity
  8
RACCORDO
100
AcDbPolyline
 62
253
  6
CONTINUOUS
 90
3
 70
0
 10
131.6629864082
 20
80.0666335734
 10
131.6616914591
 20
80.0144099474
 10
131.6595863641
 20
79.9122431349
  0
LINE
  5
45D
100
AcDbEntity
  8
ASSI
100
AcDbLine
 62
7
  6
CONTINUOUS
 10
135.6298620704
 20
79.462928616
 11
135.6298620704
 21
123.662928616
  0
LINE
  5
45E
100
AcDbEntity
  8
RACCORDO
100
AcDbLine
 62
7
  6
CONTINUOUS
 10
135.6298620704
 20
79.462928616
 11
135.6298620704
 21
123.662928616
  0
LWPOLYLINE
  5
45F
100
AcDbEntity
  8
ASSI
100
AcDbPolyline
 62
253
  6
CONTINUOUS
 90
3
 70
0
 10
130.2069414847
 20
111.053428616
 10
129.7227678611
 20
111.0628527256
 10
129.7201202174
 20
111.062928616
  0
LWPOLYLINE
  5
460
100
AcDbEntity
  8
RACCORDO
100
AcDbPolyline
 62
253
  6
CONTINUOUS
 90
3
 70
0
 10
130.2069414847
 20
111.053428616
 10
129.7227678611
 20
111.0628527256
 10
129.7201202174
 20
111.062928616
  0
LWPOLYLINE
  5
461
100
AcDbEntity
  8
ASSI
100
AcDbPolyline
 62
253
  6
CONTINUOUS
 90
19
 70
0
 10
131.6629864082
 20
123.0592236585
 10
131.6241633766
 20
123.0566802598
 10
131.5860253528
 20
123.0512277335
 10
131.5485723368
 20
123.0428660796
 10
131.5115617525
 20
123.0315105124
 10
131.475236176
 20
123.0172458176
 10
131.4403233357
 20
123.0003263523
 10
131.4068703297
 20
122.9807007922
 10
131.3748300598
 20
122.9584204616
 10
131.3447889597
 20
122.9338936904
 10
131.3167892487
 20
122.907081978
 10
131.2907887076
 20
122.8780238249
 10
131.267247112
 20
122.8472430629
 10
131.2462045622
 20
122.814686256
 10
131.227620958
 20
122.7804068401
 10
131.2118357739
 20
122.7450889554
 10
131.1989621682
 20
122.7089606483
 10
131.1888869826
 20
122.6717938723
 10
131.1816102172
 20
122.6335886274
  0
LWPOLYLINE
  5
462
100
AcDbEntity
  8
RACCORDO
100
AcDbPolyline
 62
253
  6
CONTINUOUS
 90
19
 70
0
 10
131.6629864082
 20
123.0592236585
 10
131.6241633766
 20
123.0566802598
 10
131.5860253528
 20
123.0512277335
 10
131.5485723368
 20
123.0428660796
 10
131.5115617525
 20
123.0315105124
 10
131.475236176
 20
123.0172458176
 10
131.4403233357
 20
123.0003263523
 10
131.4068703297
 20
122.9807007922
 10
131.3748300598
 20
122.9584204616
 10
131.3447889597
 20
122.9338936904
 10
131.3167892487
 20
122.907081978
 10
131.2907887076
 20
122.8780238249
 10
131.267247112
 20
122.8472430629
 10
131.2462045622
 20
122.814686256
 10
131.227620958
 20
122.7804068401
 10
131.2118357739
 20
122.7450889554
 10
131.1989621682
 20
122.7089606483
 10
131.1888869826
 20
122.6717938723
 10
131.1816102172
 20
122.6335886274
  0
LINE
  5
463
100
AcDbEntity
  8
ASSI
100
AcDbLine
 62
253
  6
CONTINUOUS
 10
135.6298620704
 20
123.1630999535
 11
131.6629864082
 21
123.0592236585
  0
LINE
  5
464
100
AcDbEntity
  8
RACCORDO
100
AcDbLine
 62
253
  6
CONTINUOUS
 10
135.6298620704
 20
123.1630999535
 11
131.6629864082
 21
123.0592236585
  0
LINE
  5
465
100
AcDbEntity
  8
ASSI
100
AcDbLine
 62
7
  6
CONTINUOUS
 10
135.6298620704
 20
123.662928616
 11
131.6629864082
 21
123.559052321
  0
LINE
  5
466
100
AcDbEntity
  8
RACCORDO
100
AcDbLine
 62
7
  6
CONTINUOUS
 10
135.6298620704
 20
123.662928616
 11
131.6629864082
 21
123.559052321
  0
LINE
  5
467
100
AcDbEntity
  8
ASSI
100
AcDbLine
 62
253
  6
CONTINUOUS
 10
131.1816102172
 20
122.6335886274
 11
130.8976503284
 21
122.6765890222
  0
LINE
  5
468
100
AcDbEntity
  8
RACCORDO
100
AcDbLine
 62
253
  6
CONTINUOUS
 10
131.1816102172
 20
122.6335886274
 11
130.8976503284
 21
122.6765890222
  0
LINE
  5
469
100
AcDbEntity
  8
ASSI
100
AcDbLine
 62
253
  6
CONTINUOUS
 10
130.8976503284
 20
122.6765890222
 11
130.7642201174
 21
122.6972136846
  0
LINE
  5
46A
100
AcDbEntity
  8
RACCORDO
100
AcDbLine
 62
253
  6
CONTINUOUS
 10
130.8976503284
 20
122.6765890222
 11
130.7642201174
 21
122.6972136846
  0
LWPOLYLINE
  5
46B
100
AcDbEntity
  8
ASSI
100
AcDbPolyline
 62
253
  6
CONTINUOUS
 90
5
 70
0
 10
130.7642201174
 20
122.6972136846
 10
130.7235623227
 20
122.7036844831
 10
130.7106283204
 20
122.7058207906
 10
130.7028246602
 20
122.7071915573
 10
130.7002340478
 20
122.7077822555
  0
LWPOLYLINE
  5
46C
100
AcDbEntity
  8
RACCORDO
100
AcDbPolyline
 62
253
  6
CONTINUOUS
 90
5
 70
0
 10
130.7642201174
 20
122.6972136846
 10
130.7235623227
 20
122.7036844831
 10
130.7106283204
 20
122.7058207906
 10
130.7028246602
 20
122.7071915573
 10
130.7002340478
 20
122.7077822555
  0
ARC
  5
46D
100
AcDbEntity
  8
ASSI
100
AcDbCircle
 62
7
  6
CONTINUOUS
 10
131.6891633565
 20
80.5664622359
 40
1.0
100
AcDbArc
 50
188.5334776264
 51
268.5
  0
ARC
  5
46E
100
AcDbEntity
  8
RACCORDO
100
AcDbCircle
 62
7
  6
CONTINUOUS
 10
131.6891633565
 20
80.5664622359
 40
1.0
100
AcDbArc
 50
188.5334776264
 51
268.5
  0
ARC
  5
46F
100
AcDbEntity
  8
RACCORDO
100
AcDbCircle
 62
7
  6
CONTINUOUS
 10
129.9110706307
 20
86.9718251859
 40
0.15
100
AcDbArc
 50
184.3314373947
 51
269.5
  0
ARC
  5
470
100
AcDbEntity
  8
RACCORDO
100
AcDbCircle
 62
7
  6
CONTINUOUS
 10
129.6920197291
 20
91.1521204177
 40
0.15
100
AcDbArc
 50
90.5
 51
181.6677674123
  0
ARC
  5
471
100
AcDbEntity
  8
RACCORDO
100
AcDbCircle
 62
7
  6
CONTINUOUS
 10
219.7038737506
 20
93.772928616
 40
90.2
100
AcDbArc
 50
181.6677674123
 51
184.3314373947
  0
ARC
  5
472
100
AcDbEntity
  8
ASSI
100
AcDbCircle
 62
7
  6
CONTINUOUS
 10
219.7038737506
 20
93.772928616
 40
90.0
100
AcDbArc
 50
181.08868532
 51
188.5334776264
  0
ARC
  5
473
100
AcDbEntity
  8
RACCORDO
100
AcDbCircle
 62
7
  6
CONTINUOUS
 10
219.7038737506
 20
93.772928616
 40
90.0
100
AcDbArc
 50
181.08868532
 51
188.5334776264
  0
ARC
  5
474
100
AcDbEntity
  8
ASSI
100
AcDbCircle
 62
7
  6
CONTINUOUS
 10
219.7038737506
 20
109.352928616
 40
90.0
100
AcDbArc
 50
171.4665223736
 51
178.91131468
  0
ARC
  5
475
100
AcDbEntity
  8
0
100
AcDbCircle
 62
253
  6
CONTINUOUS
 10
219.7038737506
 20
109.352928616
 40
90.0
100
AcDbArc
 50
178.0432584459
 51
178.193552507
  0
ARC
  5
476
100
AcDbEntity
  8
RACCORDO
100
AcDbCircle
 62
7
  6
CONTINUOUS
 10
219.7038737506
 20
109.352928616
 40
90.0
100
AcDbArc
 50
171.4665223736
 51
178.91131468
  0
ARC
  5
477
100
AcDbEntity
  8
ASSI
100
AcDbCircle
 62
7
  6
CONTINUOUS
 10
131.6891633565
 20
122.559394996
 40
1.0
100
AcDbArc
 50
91.5
 51
171.4665223737
  0
ARC
  5
478
100
AcDbEntity
  8
RACCORDO
100
AcDbCircle
 62
7
  6
CONTINUOUS
 10
131.6891633565
 20
122.559394996
 40
1.0
100
AcDbArc
 50
91.5
 51
171.4665223737
  0
ARC
  5
479
100
AcDbEntity
  8
ASSI
100
AcDbCircle
 62
7
  6
CONTINUOUS
 10
629.6298620704
 20
101.562928616
 40
500.0
100
AcDbArc
 50
178.91131468
 51
181.08868532
  0
ARC
  5
47A
100
AcDbEntity
  8
0
100
AcDbCircle
 62
253
  6
CONTINUOUS
 10
629.6298620704
 20
101.562928616
 40
500.0
100
AcDbArc
 50
180.6474560879
 51
180.9454232639
  0
ARC
  5
47B
100
AcDbEntity
  8
RACCORDO
100
AcDbCircle
 62
7
  6
CONTINUOUS
 10
629.6298620704
 20
101.562928616
 40
500.0
100
AcDbArc
 50
178.91131468
 51
181.08868532
  0
ELLIPSE
  5
47C
100
AcDbEntity
  8
ASSI
100
AcDbEllipse
 62
7
  6
CONTINUOUS
 10
183.7779886723
 20
79.9631000122
 30
0.0
 11
-0.35379574
 21
0.35379574
 31
0.0
 40
0.999315002
 41
-3.9266482006
 42
-2.3565371065
  0
ELLIPSE
  5
47D
100
AcDbEntity
  8
ASSI
100
AcDbEllipse
 62
7
  6
CONTINUOUS
 10
183.7779886723
 20
123.1627572197
 30
0.0
 11
0.35379574
 21
0.35379574
 31
0.0
 40
0.999315002
 41
-0.7850555471
 42
0.7850555471
  0
ELLIPSE
  5
47E
100
AcDbEntity
  8
ASSI
100
AcDbEllipse
 62
7
  6
CONTINUOUS
 10
162.7783314648
 20
123.1627572197
 30
0.0
 11
-0.35379574
 21
0.35379574
 31
0.0
 40
0.999315002
 41
-0.7850555471
 42
0.7850555471
  0
ELLIPSE
  5
47F
100
AcDbEntity
  8
ASSI
100
AcDbEllipse
 62
7
  6
CONTINUOUS
 10
162.7783314648
 20
79.9631000122
 30
0.0
 11
0.35379574
 21
0.35379574
 31
0.0
 40
0.999315002
 41
-3.9266482006
 42
-2.3565371065
  0
ELLIPSE
  5
480
100
AcDbEntity
  8
RACCORDO
100
AcDbEllipse
 62
7
  6
CONTINUOUS
 10
162.7783314648
 20
79.9631000122
 30
0.0
 11
0.35379574
 21
0.35379574
 31
0.0
 40
0.999315002
 41
-3.9266482006
 42
-2.3565371065
  0
ELLIPSE
  5
481
100
AcDbEntity
  8
RACCORDO
100
AcDbEllipse
 62
7
  6
CONTINUOUS
 10
162.7783314648
 20
123.1627572197
 30
0.0
 11
-0.35379574
 21
0.35379574
 31
0.0
 40
0.999315002
 41
-0.7850555471
 42
0.7850555471
  0
ELLIPSE
  5
482
100
AcDbEntity
  8
RACCORDO
100
AcDbEllipse
 62
7
  6
CONTINUOUS
 10
183.7779886723
 20
123.1627572197
 30
0.0
 11
0.35379574
 21
0.35379574
 31
0.0
 40
0.999315002
 41
-0.7850555471
 42
0.7850555471
  0
ELLIPSE
  5
483
100
AcDbEntity
  8
RACCORDO
100
AcDbEllipse
 62
7
  6
CONTINUOUS
 10
183.7779886723
 20
79.9631000122
 30
0.0
 11
-0.35379574
 21
0.35379574
 31
0.0
 40
0.999315002
 41
-3.9266482006
 42
-2.3565371065
  0
ELLIPSE
  5
484
100
AcDbEntity
  8
0
100
AcDbEllipse
 62
253
  6
CONTINUOUS
 10
629.6298620704
 20
101.562928616
 30
0.0
 11
-0.0
 21
500.0
 31
0.0
 40
1.0
 41
-4.7010887399
 42
-4.7003458322
  0
ELLIPSE
  5
485
100
AcDbEntity
  8
0
100
AcDbEllipse
 62
253
  6
CONTINUOUS
 10
629.6298620704
 20
101.562928616
 30
0.0
 11
0.0
 21
500.0
 31
0.0
 40
1.0
 41
1.5835823894
 42
1.5872970756
  0
ELLIPSE
  5
486
100
AcDbEntity
  8
0
100
AcDbEllipse
 62
253
  6
CONTINUOUS
 10
219.7038737506
 20
109.352928616
 30
0.0
 11
90.0
 21
0.0
 31
0.0
 40
1.0
 41
9.3624454557
 42
9.4051838403
  0
ENDSEC
  0
SECTION
  2
OBJECTS
  0
DICTIONARY
  5
C
100
AcDbDictionary
280
0
281
1
  3
ACAD_GROUP
350
D
  3
ACAD_MLINESTYLE
350
17
  3
ACAD_LAYOUT
350
1A
  3
ACAD_PLOTSETTINGS
350
19
  3
ACAD_PLOTSTYLENAME
350
E
  0
DICTIONARY
  5
D
102
{ACAD_REACTORS
330
C
102
}
100
AcDbDictionary
280
0
281
1
  0
ACDBDICTIONARYWDFLT
  5
E
102
{ACAD_REACTORS
330
C
102
}
100
AcDbDictionary
281
1
  3
Normal
350
F
100
AcDbDictionaryWithDefault
340
F
  0
DICTIONARY
  5
17
102
{ACAD_REACTORS
330
C
102
}
100
AcDbDictionary
280
0
281
1
  3
Standard
350
18
  0
DICTIONARY
  5
19
102
{ACAD_REACTORS
330
C
102
}
100
AcDbDictionary
281
1
  0
DICTIONARY
  5
1A
102
{ACAD_REACTORS
330
C
102
}
100
AcDbDictionary
281
1
  3
Model
350
487
  3
Layout1
350
488
  0
ACDBPLACEHOLDER
  5
F
102
{ACAD_REACTORS
330
E
102
}
  0
MLINESTYLE
  5
18
102
{ACAD_REACTORS
330
17
102
}
100
AcDbMlineStyle
  2
STANDARD
 70
0
  3

 62
256
 51
90.0
 52
90.0
 71
2
 49
0.5
 62
256
  6
BYLAYER
 49
-0.5
 62
256
  6
BYLAYER
  0
LAYOUT
  5
487
102
{ACAD_REACTORS
330
1A
102
}
100
AcDbPlotSettings
  1

  2
none_device
  4
ISO_A4_(297.00_x_210.00_MM)
  6

 40
0.0
 41
0.0
 42
0.0
 43
0.0
 44
297.0
 45
210.0
 46
0.0
 47
0.0
 48
0.0
 49
0.0
140
0.0
141
0.0
142
1.0
143
1.0
 70
1024
 72
1
 73
0
 74
0
  7

 75
0
147
1.0
148
0.0
149
0.0
100
AcDbLayout
  1
Model
 70
0
 71
0
 10
0.0
 20
0.0
 11
297.0
 21
210.0
 12
0.0
 22
0.0
 32
0.0
 14
0.0
 24
0.0
 34
0.0
 15
0.0
 25
0.0
 35
0.0
146
0.0
 13
0.0
 23
0.0
 33
0.0
 16
1.0
 26
0.0
 36
0.0
 17
0.0
 27
1.0
 37
0.0
 76
0
330
21B
345
0
346
0
  0
LAYOUT
  5
488
102
{ACAD_REACTORS
330
1A
102
}
100
AcDbPlotSettings
  1

  2
none_device
  4
ISO_A4_(297.00_x_210.00_MM)
  6

 40
0.0
 41
0.0
 42
0.0
 43
0.0
 44
297.0
 45
210.0
 46
0.0
 47
0.0
 48
0.0
 49
0.0
140
0.0
141
0.0
142
1.0
143
1.0
 70
0
 72
1
 73
0
 74
0
  7

 75
0
147
1.0
148
0.0
149
0.0
100
AcDbLayout
  1
Layout1
 70
0
 71
1
 10
0.0
 20
0.0
 11
297.0
 21
210.0
 12
0.0
 22
0.0
 32
0.0
 14
0.0
 24
0.0
 34
0.0
 15
0.0
 25
0.0
 35
0.0
146
0.0
 13
0.0
 23
0.0
 33
0.0
 16
1.0
 26
0.0
 36
0.0
 17
0.0
 27
1.0
 37
0.0
 76
0
330
21C
345
0
346
0
  0
ENDSEC
  0
EOF
