  0
SECTION
  2
HEADER
  9
$ACADVER
  1
AC1021
  9
$DWGCODEPAGE
  3
ANSI_1252
  9
$EXTMAX
 10
297.0
 20
210.0
 30
0.0
  9
$EXTMIN
 10
0.0
 20
0.0
 30
0.0
  9
$LIMMIN
 10
0.0
 20
0.0
  9
$LIMMAX
 10
297.0
 20
210.0
  9
$VIEWCTR
 10
148.5
 20
105.0
  9
$VIEWSIZE
 40
210.0
  9
$CLAYER
  8
0
  9
$LTSCALE
 40
16.335
  9
$CELTYPE
  6
BYLAYER
  9
$DIMSCALE
 40
1.0
  9
$DIMASZ
 40
3.0
  9
$DIMEXO
 40
1.85625
  9
$DIMDLI
 40
11.286
  9
$DIMEXE
 40
5.346
  9
$DIMCEN
 40
2.673
  9
$DIMLFAC
 40
1.0
  9
$DIMBLK
  1
_FILLED
  9
$DIMTXT
 40
3.0
  9
$DIMTOL
 70
1
  9
$DIMLIM
 70
0
  9
$DIMTFAC
 40
1.0
  9
$DIMTP
 40
0.01
  9
$DIMTM
 40
0.01
  9
$PDMODE
 70
3
  9
$PDSIZE
 40
3.0
  9
$HANDSEED
  5
52B
  9
$TILEMODE
 70
1
  9
$MEASUREMENT
 70
1
  9
$INSUNITS
 70
4
  0
ENDSEC
  0
SECTION
  2
CLASSES
  0
CLASS
  1
ACDBDICTIONARYWDFLT
  2
AcDbDictionaryWithDefault
  3
AutoCAD 2000
 90
0
 91
1
280
0
281
0
  0
CLASS
  1
ACDBPLACEHOLDER
  2
AcDbPlaceHolder
  3
AutoCAD 2000
 90
0
 91
1
280
0
281
0
  0
CLASS
  1
LAYOUT
  2
AcDbLayout
  3
AutoCAD 2000
 90
0
 91
0
280
0
281
0
  0
ENDSEC
  0
SECTION
  2
TABLES
  0
TABLE
  2
VPORT
  5
8
100
AcDbSymbolTable
 70
2
  0
VPORT
  5
1F4
100
AcDbSymbolTableRecord
100
AcDbViewportTableRecord
  2
*ACTIVE
 70
0
 10
0.0
 20
0.0
 11
1.0
 21
1.0
 12
148.5
 22
105.0
 13
0.0
 23
0.0
 14
1.0
 24
1.0
 15
0.0
 25
0.0
 16
0.0
 26
0.0
 36
1.0
 17
0.0
 27
0.0
 37
0.0
 40
210.0
 41
1.4142857143
 42
50.0
 43
0.0
 44
0.0
 50
0.0
 51
0.0
 71
0
 72
100
 73
1
 74
1
 75
0
 76
0
 77
0
 78
0
  0
ENDTAB
  0
TABLE
  2
LTYPE
  5
5
100
AcDbSymbolTable
 70
6
  0
LTYPE
  5
14
100
AcDbSymbolTableRecord
100
AcDbLinetypeTableRecord
  2
BYBLOCK
 70
0
  3

 72
65
 73
0
 40
0.0
  0
LTYPE
  5
15
100
AcDbSymbolTableRecord
100
AcDbLinetypeTableRecord
  2
BYLAYER
 70
0
  3

 72
65
 73
0
 40
0.0
  0
LTYPE
  5
16
100
AcDbSymbolTableRecord
100
AcDbLinetypeTableRecord
  2
CONTINUOUS
 70
64
  3
Solid line
 72
65
 73
0
 40
0.0
  0
LTYPE
  5
1F5
100
AcDbSymbolTableRecord
100
AcDbLinetypeTableRecord
  2
CENTER
 70
64
  3
____ _ ____ _ ____ _ ____ _ ____ _ ____ _ ____
 72
65
 73
4
 40
0.6
 49
0.375
 74
0
 49
-0.075
 74
0
 49
0.075
 74
0
 49
-0.075
 74
0
  0
LTYPE
  5
1F6
100
AcDbSymbolTableRecord
100
AcDbLinetypeTableRecord
  2
HIDDEN
 70
64
  3
- - - - - - - - - - - - - - - - - - - -
 72
65
 73
2
 40
0.2
 49
0.1
 74
0
 49
-0.1
 74
0
  0
LTYPE
  5
1F7
100
AcDbSymbolTableRecord
100
AcDbLinetypeTableRecord
  2
PHANTOM
 70
64
  3
_____ _ _ _____ _ _ _____ _ _ _____
 72
65
 73
6
 40
0.8
 49
0.45
 74
0
 49
-0.05
 74
0
 49
0.1
 74
0
 49
-0.05
 74
0
 49
0.1
 74
0
 49
-0.05
 74
0
  0
LTYPE
  5
1F8
100
AcDbSymbolTableRecord
100
AcDbLinetypeTableRecord
  2
DOT
 70
64
  3
. . . . . . . . . . . . . . . . . . . .
 72
65
 73
2
 40
0.2
 49
0.1
 74
0
 49
-0.1
 74
0
  0
LTYPE
  5
1F9
100
AcDbSymbolTableRecord
100
AcDbLinetypeTableRecord
  2
DASHED
 70
64
  3
- - - - - - - - - - - - - - - - - - - -
 72
65
 73
2
 40
0.2
 49
0.1
 74
0
 49
-0.1
 74
0
  0
ENDTAB
  0
TABLE
  2
LAYER
  5
2
100
AcDbSymbolTable
 70
36
  0
LAYER
  5
10
100
AcDbSymbolTableRecord
100
AcDbLayerTableRecord
  2
0
 70
0
 62
7
  6
CONTINUOUS
370
-3
390
F
  0
LAYER
  5
1FA
100
AcDbSymbolTableRecord
100
AcDbLayerTableRecord
  2
DEFAULT_1
 70
0
 62
7
  6
CENTER
370
-3
390
F
  0
LAYER
  5
1FB
100
AcDbSymbolTableRecord
100
AcDbLayerTableRecord
  2
DEFAULT_2
 70
0
 62
7
  6
HIDDEN
370
-3
390
F
  0
LAYER
  5
1FC
100
AcDbSymbolTableRecord
100
AcDbLayerTableRecord
  2
DEFAULT_3
 70
0
 62
7
  6
PHANTOM
370
-3
390
F
  0
LAYER
  5
1FD
100
AcDbSymbolTableRecord
100
AcDbLayerTableRecord
  2
ASSI
 70
0
 62
7
  6
CONTINUOUS
370
-3
390
F
  0
LAYER
  5
1FE
100
AcDbSymbolTableRecord
100
AcDbLayerTableRecord
  2
COLOR3
 70
0
 62
7
  6
CONTINUOUS
370
-3
390
F
  0
LAYER
  5
1FF
100
AcDbSymbolTableRecord
100
AcDbLayerTableRecord
  2
COORDINATE
 70
0
 62
7
  6
CONTINUOUS
370
-3
390
F
  0
LAYER
  5
200
100
AcDbSymbolTableRecord
100
AcDbLayerTableRecord
  2
COPY_PUBLISH
 70
0
 62
7
  6
CONTINUOUS
370
-3
390
F
  0
LAYER
  5
201
100
AcDbSymbolTableRecord
100
AcDbLayerTableRecord
  2
COSMETIC
 70
0
 62
7
  6
CONTINUOUS
370
-3
390
F
  0
LAYER
  5
202
100
AcDbSymbolTableRecord
100
AcDbLayerTableRecord
  2
COSMETICI
 70
0
 62
7
  6
CONTINUOUS
370
-3
390
F
  0
LAYER
  5
203
100
AcDbSymbolTableRecord
100
AcDbLayerTableRecord
  2
CURVE
 70
0
 62
7
  6
CONTINUOUS
370
-3
390
F
  0
LAYER
  5
204
100
AcDbSymbolTableRecord
100
AcDbLayerTableRecord
  2
DRAFT
 70
0
 62
7
  6
CONTINUOUS
370
-3
390
F
  0
LAYER
  5
205
100
AcDbSymbolTableRecord
100
AcDbLayerTableRecord
  2
IMPORT_IGES
 70
0
 62
7
  6
CONTINUOUS
370
-3
390
F
  0
LAYER
  5
206
100
AcDbSymbolTableRecord
100
AcDbLayerTableRecord
  2
INTFCLR_1
 70
0
 62
7
  6
CONTINUOUS
370
-3
390
F
  0
LAYER
  5
207
100
AcDbSymbolTableRecord
100
AcDbLayerTableRecord
  2
INTF_1
 70
0
 62
7
  6
CONTINUOUS
370
-3
390
F
  0
LAYER
  5
208
100
AcDbSymbolTableRecord
100
AcDbLayerTableRecord
  2
INTF_10
 70
0
 62
7
  6
CONTINUOUS
370
-3
390
F
  0
LAYER
  5
209
100
AcDbSymbolTableRecord
100
AcDbLayerTableRecord
  2
INTF_13
 70
0
 62
7
  6
CONTINUOUS
370
-3
390
F
  0
LAYER
  5
20A
100
AcDbSymbolTableRecord
100
AcDbLayerTableRecord
  2
INTF_15
 70
0
 62
7
  6
CONTINUOUS
370
-3
390
F
  0
LAYER
  5
20B
100
AcDbSymbolTableRecord
100
AcDbLayerTableRecord
  2
INTF_16
 70
0
 62
7
  6
CONTINUOUS
370
-3
390
F
  0
LAYER
  5
20C
100
AcDbSymbolTableRecord
100
AcDbLayerTableRecord
  2
INTF_18
 70
0
 62
7
  6
CONTINUOUS
370
-3
390
F
  0
LAYER
  5
20D
100
AcDbSymbolTableRecord
100
AcDbLayerTableRecord
  2
INTF_20
 70
0
 62
7
  6
CONTINUOUS
370
-3
390
F
  0
LAYER
  5
20E
100
AcDbSymbolTableRecord
100
AcDbLayerTableRecord
  2
INTF_3
 70
0
 62
7
  6
CONTINUOUS
370
-3
390
F
  0
LAYER
  5
20F
100
AcDbSymbolTableRecord
100
AcDbLayerTableRecord
  2
INTF_5
 70
0
 62
7
  6
CONTINUOUS
370
-3
390
F
  0
LAYER
  5
210
100
AcDbSymbolTableRecord
100
AcDbLayerTableRecord
  2
INTF_8
 70
0
 62
7
  6
CONTINUOUS
370
-3
390
F
  0
LAYER
  5
211
100
AcDbSymbolTableRecord
100
AcDbLayerTableRecord
  2
NOTE
 70
0
 62
7
  6
CONTINUOUS
370
-3
390
F
  0
LAYER
  5
212
100
AcDbSymbolTableRecord
100
AcDbLayerTableRecord
  2
PIANI
 70
0
 62
7
  6
CONTINUOUS
370
-3
390
F
  0
LAYER
  5
213
100
AcDbSymbolTableRecord
100
AcDbLayerTableRecord
  2
PUNTI
 70
0
 62
7
  6
CONTINUOUS
370
-3
390
F
  0
LAYER
  5
214
100
AcDbSymbolTableRecord
100
AcDbLayerTableRecord
  2
RACCORDO
 70
0
 62
7
  6
CONTINUOUS
370
-3
390
F
  0
LAYER
  5
215
100
AcDbSymbolTableRecord
100
AcDbLayerTableRecord
  2
SIMBOLI
 70
0
 62
7
  6
CONTINUOUS
370
-3
390
F
  0
LAYER
  5
216
100
AcDbSymbolTableRecord
100
AcDbLayerTableRecord
  2
SMUSSO
 70
0
 62
7
  6
CONTINUOUS
370
-3
390
F
  0
LAYER
  5
217
100
AcDbSymbolTableRecord
100
AcDbLayerTableRecord
  2
SNAPLINE
 70
0
 62
7
  6
CONTINUOUS
370
-3
390
F
  0
LAYER
  5
218
100
AcDbSymbolTableRecord
100
AcDbLayerTableRecord
  2
SOLIDO
 70
0
 62
7
  6
CONTINUOUS
370
-3
390
F
  0
LAYER
  5
219
100
AcDbSymbolTableRecord
100
AcDbLayerTableRecord
  2
SUPERFICI
 70
0
 62
7
  6
CONTINUOUS
370
-3
390
F
  0
LAYER
  5
21A
100
AcDbSymbolTableRecord
100
AcDbLayerTableRecord
  2
SUPERFICI_SKEL
 70
0
 62
7
  6
CONTINUOUS
370
-3
390
F
  0
LAYER
  5
21B
100
AcDbSymbolTableRecord
100
AcDbLayerTableRecord
  2
TRASH
 70
0
 62
7
  6
CONTINUOUS
370
-3
390
F
  0
LAYER
  5
21C
100
AcDbSymbolTableRecord
100
AcDbLayerTableRecord
  2
___SHELL
 70
0
 62
7
  6
CONTINUOUS
370
-3
390
F
  0
ENDTAB
  0
TABLE
  2
STYLE
  5
3
100
AcDbSymbolTable
 70
1
  0
STYLE
  5
11
100
AcDbSymbolTableRecord
100
AcDbTextStyleTableRecord
  2
STANDARD
 70
0
 40
0.0
 41
0.8
 50
0.0
 71
0
 42
0.2
  3
txt
  4

  0
STYLE
  5
21D
100
AcDbSymbolTableRecord
100
AcDbTextStyleTableRecord
  2
TEXTSTYLE_1
 70
0
 40
0.0
 41
0.8
 50
0.0
 71
0
 42
0.2
  3
gdt
  4

  0
ENDTAB
  0
TABLE
  2
VIEW
  5
6
100
AcDbSymbolTable
 70
0
  0
ENDTAB
  0
TABLE
  2
UCS
  5
7
100
AcDbSymbolTable
 70
0
  0
ENDTAB
  0
TABLE
  2
APPID
  5
9
100
AcDbSymbolTable
 70
1
  0
APPID
  5
21E
100
AcDbSymbolTableRecord
100
AcDbRegAppTableRecord
  2
ACAD
 70
0
  0
ENDTAB
  0
TABLE
  2
BLOCK_RECORD
  5
1
100
AcDbSymbolTable
 70
0
  0
BLOCK_RECORD
  5
21F
100
AcDbSymbolTableRecord
100
AcDbBlockTableRecord
  2
*Model_Space
  0
BLOCK_RECORD
  5
220
100
AcDbSymbolTableRecord
100
AcDbBlockTableRecord
  2
*Paper_Space
  0
BLOCK_RECORD
  5
221
100
AcDbSymbolTableRecord
100
AcDbBlockTableRecord
  2
_FILLED
  0
BLOCK_RECORD
  5
222
100
AcDbSymbolTableRecord
100
AcDbBlockTableRecord
  2
*D0
  0
BLOCK_RECORD
  5
223
100
AcDbSymbolTableRecord
100
AcDbBlockTableRecord
  2
*D1
  0
BLOCK_RECORD
  5
224
100
AcDbSymbolTableRecord
100
AcDbBlockTableRecord
  2
*D2
  0
ENDTAB
  0
TABLE
  2
DIMSTYLE
  5
A
100
AcDbSymbolTable
 70
1
100
AcDbDimStyleTable
 71
0
  0
DIMSTYLE
105
225
100
AcDbSymbolTableRecord
100
AcDbDimStyleTableRecord
  2
STANDARD
 70
0
  3

  4

 40
1.0
 41
3.0
 42
0.0625
 43
0.38
 44
0.18
 45
0.0
 46
0.0
 47
0.01
 48
0.01
140
3.0
141
0.09
142
0.0
143
25.4
144
1.0
145
0.0
146
1.0
147
0.09
 71
1.0
 72
0.0
 73
0
 74
0
 75
0
 76
0
 77
1
 78
8
170
0
171
2
172
0
173
0
174
0
175
0
176
0
177
0
178
0
270
2
271
2
272
2
273
2
274
2
275
0
280
0
281
0
282
0
283
1
284
8
285
0
286
0
287
3
288
0
340
11
341
221
342
221
343
221
344
221
  0
DIMSTYLE
105
226
100
AcDbSymbolTableRecord
100
AcDbDimStyleTableRecord
  2
DIMSTYLE_1
 70
0
  3

  4

 40
1.0
 41
3.0
 42
0.0625
 43
0.38
 44
0.18
 45
0.0
 46
0.0
 47
0.0
 48
0.0
140
3.0
141
0.09
142
0.0
143
25.4
144
1.0
145
0.0
146
1.0
147
0.09
 71
0.0
 72
0.0
 73
0
 74
0
 75
0
 76
0
 77
1
 78
8
170
0
171
2
172
0
173
0
174
0
175
0
176
0
177
0
178
0
270
2
271
2
272
2
273
2
274
2
275
0
280
0
281
0
282
0
283
1
284
8
285
0
286
0
287
3
288
0
340
11
341
221
342
221
343
221
344
221
  0
DIMSTYLE
105
227
100
AcDbSymbolTableRecord
100
AcDbDimStyleTableRecord
  2
DIMSTYLE_2
 70
0
  3

  4

 40
1.0
 41
3.0
 42
0.0625
 43
0.38
 44
0.18
 45
0.0
 46
0.0
 47
0.0
 48
0.0
140
3.0
141
0.09
142
0.0
143
25.4
144
1.0
145
0.0
146
1.0
147
0.09
 71
0.0
 72
0.0
 73
0
 74
0
 75
0
 76
0
 77
1
 78
8
170
0
171
2
172
0
173
0
174
0
175
0
176
0
177
0
178
0
270
2
271
1
272
1
273
2
274
2
275
0
280
0
281
0
282
0
283
1
284
8
285
0
286
0
287
3
288
0
340
11
341
221
342
221
343
221
344
221
  0
ENDTAB
  0
ENDSEC
  0
SECTION
  2
BLOCKS
  0
BLOCK
  5
20
100
AcDbEntity
  8
0
100
AcDbBlockBegin
  2
*Model_Space
 70
0
 10
0.0
 20
0.0
 30
0.0
  3
*Model_Space
  1

  0
ENDBLK
  5
21
100
AcDbEntity
  8
0
100
AcDbBlockEnd
  0
BLOCK
  5
1C
100
AcDbEntity
  8
0
100
AcDbBlockBegin
  2
*Paper_Space
 70
0
 10
0.0
 20
0.0
 30
0.0
  3
*Paper_Space
  1

  0
ENDBLK
  5
1D
100
AcDbEntity
  8
0
100
AcDbBlockEnd
  0
BLOCK
  5
228
100
AcDbEntity
  8
0
100
AcDbBlockBegin
  2
_FILLED
 70
64
 10
0.0
 20
0.0
  3
_FILLED
  1

  0
SOLID
  5
229
100
AcDbEntity
  8
0
  6
BYBLOCK
 62
0
100
AcDbTrace
 10
0.0
 20
0.0
 11
-1.0
 21
0.3166666667
 12
-1.0
 22
-0.3166666667
 13
-1.0
 23
-0.3166666667
  0
ENDBLK
  5
22A
100
AcDbEntity
  8
0
  6
BYBLOCK
 62
0
100
AcDbBlockEnd
  0
BLOCK
  5
22B
100
AcDbEntity
  8
0
100
AcDbBlockBegin
 62
7
  6
CONTINUOUS
  2
*D0
 70
65
 10
0.0
 20
0.0
  3
*D0
  1

  0
MTEXT
  5
22C
100
AcDbEntity
  8
0
100
AcDbMText
 62
7
  6
CONTINUOUS
  7
STANDARD
 71
2
 72
1
 10
160.7134303534
 20
146.1318903578
 30
0.0
 11
1.0
 21
0.0
 31
0.0
 44
0.9
  1
44,5
 40
3.0
 41
8.5714285714
  0
LINE
  5
22D
100
AcDbEntity
  8
0
100
AcDbLine
 62
7
  6
CONTINUOUS
 10
182.9626145554
 20
120.5882328482
 11
182.9626145554
 21
143.8818903578
  0
LINE
  5
22E
100
AcDbEntity
  8
0
100
AcDbLine
 62
7
  6
CONTINUOUS
 10
138.4642461515
 20
120.5882328482
 11
138.4642461515
 21
143.8818903578
  0
LINE
  5
22F
100
AcDbEntity
  8
0
100
AcDbLine
 62
7
  6
CONTINUOUS
 10
182.9626145554
 20
142.3818903578
 11
160.7134303534
 21
142.3818903578
  0
LINE
  5
230
100
AcDbEntity
  8
0
100
AcDbLine
 62
7
  6
CONTINUOUS
 10
138.4642461515
 20
142.3818903578
 11
160.7134303534
 21
142.3818903578
  0
INSERT
  5
231
100
AcDbEntity
  8
0
100
AcDbBlockReference
 62
7
  6
CONTINUOUS
  2
_FILLED
 10
182.9626145554
 20
142.3818903578
 41
3.0
 42
3.0
 43
3.0
 50
0.0
  0
INSERT
  5
232
100
AcDbEntity
  8
0
100
AcDbBlockReference
 62
7
  6
CONTINUOUS
  2
_FILLED
 10
138.4642461515
 20
142.3818903578
 41
3.0
 42
3.0
 43
3.0
 50
180.0
  0
ENDBLK
  5
233
100
AcDbEntity
  8
0
  6
BYBLOCK
 62
0
100
AcDbBlockEnd
  0
BLOCK
  5
234
100
AcDbEntity
  8
0
100
AcDbBlockBegin
 62
7
  6
CONTINUOUS
  2
*D1
 70
65
 10
0.0
 20
0.0
  3
*D1
  1

  0
MTEXT
  5
235
100
AcDbEntity
  8
0
100
AcDbMText
 62
7
  6
CONTINUOUS
  7
STANDARD
 71
2
 72
1
 10
192.2997129279
 20
106.9882328482
 30
0.0
 11
0.0
 21
1.0
 31
0.0
 44
0.9
  1
44,3
 40
3.0
 41
8.5714285714
  0
LINE
  5
236
100
AcDbEntity
  8
0
100
AcDbLine
 62
7
  6
CONTINUOUS
 10
182.9423797424
 20
129.1449371249
 11
197.5497129279
 21
129.1449371249
  0
LINE
  5
237
100
AcDbEntity
  8
0
100
AcDbLine
 62
7
  6
CONTINUOUS
 10
182.9423797424
 20
84.8315285716
 11
197.5497129279
 21
84.8315285716
  0
LINE
  5
238
100
AcDbEntity
  8
0
100
AcDbLine
 62
7
  6
CONTINUOUS
 10
196.0497129279
 20
129.1449371249
 11
196.0497129279
 21
106.9882328482
  0
LINE
  5
239
100
AcDbEntity
  8
0
100
AcDbLine
 62
7
  6
CONTINUOUS
 10
196.0497129279
 20
84.8315285716
 11
196.0497129279
 21
106.9882328482
  0
INSERT
  5
23A
100
AcDbEntity
  8
0
100
AcDbBlockReference
 62
7
  6
CONTINUOUS
  2
_FILLED
 10
196.0497129279
 20
129.1449371249
 41
3.0
 42
3.0
 43
3.0
 50
90.0
  0
INSERT
  5
23B
100
AcDbEntity
  8
0
100
AcDbBlockReference
 62
7
  6
CONTINUOUS
  2
_FILLED
 10
196.0497129279
 20
84.8315285716
 41
3.0
 42
3.0
 43
3.0
 50
270.0
  0
ENDBLK
  5
23C
100
AcDbEntity
  8
0
  6
BYBLOCK
 62
0
100
AcDbBlockEnd
  0
BLOCK
  5
23D
100
AcDbEntity
  8
0
100
AcDbBlockBegin
 62
7
  6
CONTINUOUS
  2
*D2
 70
65
 10
0.0
 20
0.0
  3
*D2
  1

  0
MTEXT
  5
23E
100
AcDbEntity
  8
0
100
AcDbMText
 62
7
  6
CONTINUOUS
  7
STANDARD
 71
2
 72
1
 10
118.2297357163
 20
146.1318903578
 30
0.0
 11
1.0
 21
0.0
 31
0.0
 44
0.9
  1
5,3
 40
3.0
 41
6.0
  0
LINE
  5
23F
100
AcDbEntity
  8
0
100
AcDbLine
 62
7
  6
CONTINUOUS
 10
120.9043085106
 20
120.5882328482
 11
120.9043085106
 21
143.8818903578
  0
LINE
  5
240
100
AcDbEntity
  8
0
100
AcDbLine
 62
7
  6
CONTINUOUS
 10
115.5551629221
 20
108.231498358
 11
115.5551629221
 21
143.8818903578
  0
LINE
  5
241
100
AcDbEntity
  8
0
100
AcDbLine
 62
7
  6
CONTINUOUS
 10
120.9043085106
 20
142.3818903578
 11
124.9043085106
 21
142.3818903578
  0
LINE
  5
242
100
AcDbEntity
  8
0
100
AcDbLine
 62
7
  6
CONTINUOUS
 10
124.9043085106
 20
142.3818903578
 11
118.2297357163
 21
142.3818903578
  0
LINE
  5
243
100
AcDbEntity
  8
0
100
AcDbLine
 62
7
  6
CONTINUOUS
 10
115.5551629221
 20
142.3818903578
 11
111.5551629221
 21
142.3818903578
  0
LINE
  5
244
100
AcDbEntity
  8
0
100
AcDbLine
 62
7
  6
CONTINUOUS
 10
111.5551629221
 20
142.3818903578
 11
118.2297357163
 21
142.3818903578
  0
INSERT
  5
245
100
AcDbEntity
  8
0
100
AcDbBlockReference
 62
7
  6
CONTINUOUS
  2
_FILLED
 10
120.9043085106
 20
142.3818903578
 41
3.0
 42
3.0
 43
3.0
 50
180.0
  0
INSERT
  5
246
100
AcDbEntity
  8
0
100
AcDbBlockReference
 62
7
  6
CONTINUOUS
  2
_FILLED
 10
115.5551629221
 20
142.3818903578
 41
3.0
 42
3.0
 43
3.0
  0
ENDBLK
  5
247
100
AcDbEntity
  8
0
  6
BYBLOCK
 62
0
100
AcDbBlockEnd
  0
ENDSEC
  0
SECTION
  2
ENTITIES
  0
DIMENSION
  5
248
100
AcDbEntity
  8
0
100
AcDbDimension
 62
7
  6
CONTINUOUS
  2
*D0
 10
138.4642461515
 20
142.3818903578
 11
156.4277160677
 21
144.6318903578
 70
160
 71
2
 42
44.4983684039
  3
DIMSTYLE_1
100
AcDbAlignedDimension
 13
182.9626145554
 23
120.5882328482
 14
138.4642461515
 24
120.5882328482
 50
180.0
100
AcDbRotatedDimension
  0
DIMENSION
  5
249
100
AcDbEntity
  8
0
100
AcDbDimension
 62
7
  6
CONTINUOUS
  2
*D1
 10
196.0497129279
 20
84.8315285716
 11
195.7200284256
 21
103.1568185757
 70
160
 71
2
 42
44.3134085533
  3
DIMSTYLE_2
100
AcDbAlignedDimension
 13
182.9423797424
 23
129.1449371249
 14
182.9423797424
 24
84.8315285716
 50
270.0
100
AcDbRotatedDimension
  0
DIMENSION
  5
24A
100
AcDbEntity
  8
0
100
AcDbDimension
 62
7
  6
CONTINUOUS
  2
*D2
 10
115.5551629221
 20
142.3818903578
 11
115.2297357163
 21
144.6318903578
 70
160
 71
2
 42
5.3491455885
  3
DIMSTYLE_2
100
AcDbAlignedDimension
 13
120.9043085106
 23
120.5882328482
 14
115.5551629221
 24
108.231498358
 50
180.0
100
AcDbRotatedDimension
  0
LWPOLYLINE
  5
24B
100
AcDbEntity
  8
0
100
AcDbPolyline
 62
253
  6
CONTINUOUS
 90
7
 70
0
 10
139.0505925187
 20
129.0126232884
 10
139.0495424502
 20
129.0052372649
 10
139.0484505921
 20
128.9919614019
 10
139.0473448031
 20
128.9728643286
 10
139.0462736902
 20
128.9480442829
 10
139.0452431816
 20
128.9176263137
 10
139.0432169341
 20
128.8406202763
  0
LWPOLYLINE
  5
24C
100
AcDbEntity
  8
ASSI
100
AcDbPolyline
 62
253
  6
CONTINUOUS
 90
7
 70
0
 10
139.0505925187
 20
129.0126232884
 10
139.0495424502
 20
129.0052372649
 10
139.0484505921
 20
128.9919614019
 10
139.0473448031
 20
128.9728643286
 10
139.0462736902
 20
128.9480442829
 10
139.0452431816
 20
128.9176263137
 10
139.0432169341
 20
128.8406202763
  0
LINE
  5
24D
100
AcDbEntity
  8
0
100
AcDbLine
 62
7
  6
CONTINUOUS
 10
175.3548736045
 20
84.8315285716
 11
175.7056953265
 21
84.8633736895
  0
LINE
  5
24E
100
AcDbEntity
  8
ASSI
100
AcDbLine
 62
7
  6
CONTINUOUS
 10
175.3548736045
 20
84.8315285716
 11
175.7056953265
 21
84.8633736895
  0
LWPOLYLINE
  5
24F
100
AcDbEntity
  8
0
100
AcDbPolyline
 62
253
  6
CONTINUOUS
 90
16
 70
0
 10
182.3762681881
 20
84.963842408
 10
182.4284698146
 20
84.9666444533
 10
182.4801004261
 20
84.9748770427
 10
182.5305953229
 20
84.988450113
 10
182.5794022447
 20
85.0072151974
 10
182.6259873662
 20
85.0309670334
 10
182.669841143
 20
85.0594457937
 10
182.7104839473
 20
85.0923399623
 10
182.7474712919
 20
85.1292897466
 10
182.7803986555
 20
85.1698909818
 10
182.8089059351
 20
85.2136995731
 10
182.8326813873
 20
85.2602363701
 10
182.8514650216
 20
85.3089923951
 10
182.8650514382
 20
85.3594343981
 10
182.8732920778
 20
85.4110106872
 10
182.8760968506
 20
85.4631571754
  0
LWPOLYLINE
  5
250
100
AcDbEntity
  8
ASSI
100
AcDbPolyline
 62
253
  6
CONTINUOUS
 90
16
 70
0
 10
182.3762681881
 20
84.963842408
 10
182.4284698146
 20
84.9666444533
 10
182.4801004261
 20
84.9748770427
 10
182.5305953229
 20
84.988450113
 10
182.5794022447
 20
85.0072151974
 10
182.6259873662
 20
85.0309670334
 10
182.669841143
 20
85.0594457937
 10
182.7104839473
 20
85.0923399623
 10
182.7474712919
 20
85.1292897466
 10
182.7803986555
 20
85.1698909818
 10
182.8089059351
 20
85.2136995731
 10
182.8326813873
 20
85.2602363701
 10
182.8514650216
 20
85.3089923951
 10
182.8650514382
 20
85.3594343981
 10
182.8732920778
 20
85.4110106872
 10
182.8760968506
 20
85.4631571754
  0
LWPOLYLINE
  5
251
100
AcDbEntity
  8
0
100
AcDbPolyline
 62
253
  6
CONTINUOUS
 90
16
 70
0
 10
139.0505925168
 20
84.9638424042
 10
138.9983915468
 20
84.9666443794
 10
138.9467615052
 20
84.9748767765
 10
138.8962670763
 20
84.9884495567
 10
138.8474605239
 20
85.0072142729
 10
138.8008756512
 20
85.030965693
 10
138.7570219628
 20
85.0594440448
 10
138.7163790919
 20
85.092337857
 10
138.6793915545
 20
85.1292873659
 10
138.6464638881
 20
85.1698884502
 10
138.6179562264
 20
85.2136970508
 10
138.5941803614
 20
85.2602340276
 10
138.5753963326
 20
85.3089903999
 10
138.5618095833
 20
85.3594329132
 10
138.5535687134
 20
85.4110098717
 10
138.5507638543
 20
85.4631571716
  0
LWPOLYLINE
  5
252
100
AcDbEntity
  8
ASSI
100
AcDbPolyline
 62
253
  6
CONTINUOUS
 90
16
 70
0
 10
139.0505925168
 20
84.9638424042
 10
138.9983915468
 20
84.9666443794
 10
138.9467615052
 20
84.9748767765
 10
138.8962670763
 20
84.9884495567
 10
138.8474605239
 20
85.0072142729
 10
138.8008756512
 20
85.030965693
 10
138.7570219628
 20
85.0594440448
 10
138.7163790919
 20
85.092337857
 10
138.6793915545
 20
85.1292873659
 10
138.6464638881
 20
85.1698884502
 10
138.6179562264
 20
85.2136970508
 10
138.5941803614
 20
85.2602340276
 10
138.5753963326
 20
85.3089903999
 10
138.5618095833
 20
85.3594329132
 10
138.5535687134
 20
85.4110098717
 10
138.5507638543
 20
85.4631571716
  0
LINE
  5
253
100
AcDbEntity
  8
0
100
AcDbLine
 62
7
  6
CONTINUOUS
 10
146.0719871023
 20
84.8315285716
 11
145.7211653803
 21
84.8633736895
  0
LINE
  5
254
100
AcDbEntity
  8
ASSI
100
AcDbLine
 62
7
  6
CONTINUOUS
 10
146.0719871023
 20
84.8315285716
 11
145.7211653803
 21
84.8633736895
  0
LWPOLYLINE
  5
255
100
AcDbEntity
  8
0
100
AcDbPolyline
 62
253
  6
CONTINUOUS
 90
8
 70
0
 10
139.0512736118
 20
107.3570013975
 10
139.0548971226
 20
107.3239029149
 10
139.0588113578
 20
107.2952605782
 10
139.0624432202
 20
107.2713383086
 10
139.0666969891
 20
107.2522990329
 10
139.0715706101
 20
107.2384001666
 10
139.0760889038
 20
107.2298541321
 10
139.0797644152
 20
107.226712073
  0
LWPOLYLINE
  5
256
100
AcDbEntity
  8
ASSI
100
AcDbPolyline
 62
253
  6
CONTINUOUS
 90
8
 70
0
 10
139.0512736118
 20
107.3570013975
 10
139.0548971226
 20
107.3239029149
 10
139.0588113578
 20
107.2952605782
 10
139.0624432202
 20
107.2713383086
 10
139.0666969891
 20
107.2522990329
 10
139.0715706101
 20
107.2384001666
 10
139.0760889038
 20
107.2298541321
 10
139.0797644152
 20
107.226712073
  0
LWPOLYLINE
  5
257
100
AcDbEntity
  8
0
100
AcDbPolyline
 62
253
  6
CONTINUOUS
 90
19
 70
0
 10
138.5799357527
 20
107.7266930345
 10
138.5818024712
 20
107.6836357377
 10
138.5873899783
 20
107.6407786509
 10
138.596687683
 20
107.5984460642
 10
138.6096646057
 20
107.5569403724
 10
138.6262486504
 20
107.5166085005
 10
138.6463073289
 20
107.4778314204
 10
138.6696982889
 20
107.4409121953
 10
138.6962545516
 20
107.4061383293
 10
138.7257362604
 20
107.3738311
 10
138.7578891445
 20
107.3442562821
 10
138.7924861389
 20
107.3176109583
 10
138.8292896424
 20
107.2940782049
 10
138.8680379924
 20
107.2738335174
 10
138.9084215867
 20
107.257046436
 10
138.9501111614
 20
107.243855442
 10
138.9927798294
 20
107.2343613774
 10
139.0361080645
 20
107.2286328109
 10
139.0797644152
 20
107.226712073
  0
LWPOLYLINE
  5
258
100
AcDbEntity
  8
ASSI
100
AcDbPolyline
 62
253
  6
CONTINUOUS
 90
19
 70
0
 10
138.5799357527
 20
107.7266930345
 10
138.5818024712
 20
107.6836357377
 10
138.5873899783
 20
107.6407786509
 10
138.596687683
 20
107.5984460642
 10
138.6096646057
 20
107.5569403724
 10
138.6262486504
 20
107.5166085005
 10
138.6463073289
 20
107.4778314204
 10
138.6696982889
 20
107.4409121953
 10
138.6962545516
 20
107.4061383293
 10
138.7257362604
 20
107.3738311
 10
138.7578891445
 20
107.3442562821
 10
138.7924861389
 20
107.3176109583
 10
138.8292896424
 20
107.2940782049
 10
138.8680379924
 20
107.2738335174
 10
138.9084215867
 20
107.257046436
 10
138.9501111614
 20
107.243855442
 10
138.9927798294
 20
107.2343613774
 10
139.0361080645
 20
107.2286328109
 10
139.0797644152
 20
107.226712073
  0
LWPOLYLINE
  5
259
100
AcDbEntity
  8
0
100
AcDbPolyline
 62
253
  6
CONTINUOUS
 90
4
 70
0
 10
139.0410145127
 20
107.5252591675
 10
139.0428061035
 20
107.4785482399
 10
139.0455094199
 20
107.4345780368
 10
139.0512736118
 20
107.3570013975
  0
LWPOLYLINE
  5
25A
100
AcDbEntity
  8
ASSI
100
AcDbPolyline
 62
253
  6
CONTINUOUS
 90
4
 70
0
 10
139.0410145127
 20
107.5252591675
 10
139.0428061035
 20
107.4785482399
 10
139.0455094199
 20
107.4345780368
 10
139.0512736118
 20
107.3570013975
  0
LWPOLYLINE
  5
25B
100
AcDbEntity
  8
0
100
AcDbPolyline
 62
253
  6
CONTINUOUS
 90
6
 70
0
 10
139.0452432194
 20
85.0588393794
 10
139.0462737206
 20
85.0284214109
 10
139.0473448259
 20
85.0036013653
 10
139.0484506069
 20
84.9845042915
 10
139.0495424567
 20
84.971228428
 10
139.0505925168
 20
84.9638424042
  0
LWPOLYLINE
  5
25C
100
AcDbEntity
  8
ASSI
100
AcDbPolyline
 62
253
  6
CONTINUOUS
 90
6
 70
0
 10
139.0452432194
 20
85.0588393794
 10
139.0462737206
 20
85.0284214109
 10
139.0473448259
 20
85.0036013653
 10
139.0484506069
 20
84.9845042915
 10
139.0495424567
 20
84.971228428
 10
139.0505925168
 20
84.9638424042
  0
LINE
  5
25D
100
AcDbEntity
  8
0
100
AcDbLine
 62
253
  6
CONTINUOUS
 10
138.5614459897
 20
128.3562487412
 11
138.5633316744
 21
128.2886470335
  0
LINE
  5
25E
100
AcDbEntity
  8
ASSI
100
AcDbLine
 62
253
  6
CONTINUOUS
 10
138.5614459897
 20
128.3562487412
 11
138.5633316744
 21
128.2886470335
  0
LINE
  5
25F
100
AcDbEntity
  8
0
100
AcDbLine
 62
253
  6
CONTINUOUS
 10
139.0432169858
 20
85.1358454152
 11
139.0452432194
 21
85.0588393794
  0
LINE
  5
260
100
AcDbEntity
  8
ASSI
100
AcDbLine
 62
253
  6
CONTINUOUS
 10
139.0432169858
 20
85.1358454152
 11
139.0452432194
 21
85.0588393794
  0
LINE
  5
261
100
AcDbEntity
  8
0
100
AcDbLine
 62
253
  6
CONTINUOUS
 10
138.5633316744
 20
128.2886470335
 11
138.5649454889
 21
128.2118990711
  0
LINE
  5
262
100
AcDbEntity
  8
ASSI
100
AcDbLine
 62
253
  6
CONTINUOUS
 10
138.5633316744
 20
128.2886470335
 11
138.5649454889
 21
128.2118990711
  0
LINE
  5
263
100
AcDbEntity
  8
0
100
AcDbLine
 62
253
  6
CONTINUOUS
 10
139.0413461697
 20
85.2330920876
 11
139.0432169858
 21
85.1358454152
  0
LINE
  5
264
100
AcDbEntity
  8
ASSI
100
AcDbLine
 62
253
  6
CONTINUOUS
 10
139.0413461697
 20
85.2330920876
 11
139.0432169858
 21
85.1358454152
  0
LINE
  5
265
100
AcDbEntity
  8
0
100
AcDbLine
 62
253
  6
CONTINUOUS
 10
138.5649454889
 20
128.2118990711
 11
138.5662637917
 21
128.127145759
  0
LINE
  5
266
100
AcDbEntity
  8
ASSI
100
AcDbLine
 62
253
  6
CONTINUOUS
 10
138.5649454889
 20
128.2118990711
 11
138.5662637917
 21
128.127145759
  0
LINE
  5
267
100
AcDbEntity
  8
0
100
AcDbLine
 62
253
  6
CONTINUOUS
 10
139.038850721
 20
85.4125663673
 11
139.0413461697
 21
85.2330920876
  0
LINE
  5
268
100
AcDbEntity
  8
ASSI
100
AcDbLine
 62
253
  6
CONTINUOUS
 10
139.038850721
 20
85.4125663673
 11
139.0413461697
 21
85.2330920876
  0
LINE
  5
269
100
AcDbEntity
  8
0
100
AcDbLine
 62
253
  6
CONTINUOUS
 10
138.5662637917
 20
128.127145759
 11
138.5676222436
 21
127.9891356043
  0
LINE
  5
26A
100
AcDbEntity
  8
ASSI
100
AcDbLine
 62
253
  6
CONTINUOUS
 10
138.5662637917
 20
128.127145759
 11
138.5676222436
 21
127.9891356043
  0
LINE
  5
26B
100
AcDbEntity
  8
0
100
AcDbLine
 62
253
  6
CONTINUOUS
 10
139.0362813855
 20
85.7017580778
 11
139.038850721
 21
85.4125663673
  0
LINE
  5
26C
100
AcDbEntity
  8
ASSI
100
AcDbLine
 62
253
  6
CONTINUOUS
 10
139.0362813855
 20
85.7017580778
 11
139.038850721
 21
85.4125663673
  0
LWPOLYLINE
  5
26D
100
AcDbEntity
  8
0
100
AcDbPolyline
 62
253
  6
CONTINUOUS
 90
3
 70
0
 10
139.0372906751
 20
106.2490148824
 10
139.037064281
 20
106.3020032903
 10
139.0379137427
 20
106.3532529558
  0
LWPOLYLINE
  5
26E
100
AcDbEntity
  8
ASSI
100
AcDbPolyline
 62
253
  6
CONTINUOUS
 90
3
 70
0
 10
139.0372906751
 20
106.2490148824
 10
139.037064281
 20
106.3020032903
 10
139.0379137427
 20
106.3532529558
  0
LINE
  5
26F
100
AcDbEntity
  8
0
100
AcDbLine
 62
7
  6
CONTINUOUS
 10
138.4838545429
 20
85.3292467259
 11
138.4642461515
 21
93.8882328482
  0
LINE
  5
270
100
AcDbEntity
  8
ASSI
100
AcDbLine
 62
7
  6
CONTINUOUS
 10
138.4838545429
 20
85.3292467259
 11
138.4642461515
 21
93.8882328482
  0
LINE
  5
271
100
AcDbEntity
  8
0
100
AcDbLine
 62
253
  6
CONTINUOUS
 10
139.0345563404
 20
86.1109815007
 11
139.0362813855
 21
85.7017580778
  0
LINE
  5
272
100
AcDbEntity
  8
ASSI
100
AcDbLine
 62
253
  6
CONTINUOUS
 10
139.0345563404
 20
86.1109815007
 11
139.0362813855
 21
85.7017580778
  0
LINE
  5
273
100
AcDbEntity
  8
0
100
AcDbLine
 62
253
  6
CONTINUOUS
 10
138.5676222436
 20
127.9891356043
 11
138.5681902993
 21
127.8440493196
  0
LINE
  5
274
100
AcDbEntity
  8
ASSI
100
AcDbLine
 62
253
  6
CONTINUOUS
 10
138.5676222436
 20
127.9891356043
 11
138.5681902993
 21
127.8440493196
  0
LINE
  5
275
100
AcDbEntity
  8
0
100
AcDbLine
 62
253
  6
CONTINUOUS
 10
138.5681902993
 20
127.8440493196
 11
138.5784092572
 21
114.5394351286
  0
LINE
  5
276
100
AcDbEntity
  8
ASSI
100
AcDbLine
 62
253
  6
CONTINUOUS
 10
138.5681902993
 20
127.8440493196
 11
138.5784092572
 21
114.5394351286
  0
LINE
  5
277
100
AcDbEntity
  8
0
100
AcDbLine
 62
7
  6
CONTINUOUS
 10
138.4642461515
 20
120.0882328482
 11
138.4642461515
 21
107.688137666
  0
LINE
  5
278
100
AcDbEntity
  8
ASSI
100
AcDbLine
 62
7
  6
CONTINUOUS
 10
138.4642461515
 20
120.0882328482
 11
138.4642461515
 21
107.688137666
  0
LINE
  5
279
100
AcDbEntity
  8
0
100
AcDbLine
 62
7
  6
CONTINUOUS
 10
138.4642461515
 20
93.8882328482
 11
138.4642461515
 21
106.2883280304
  0
LINE
  5
27A
100
AcDbEntity
  8
ASSI
100
AcDbLine
 62
7
  6
CONTINUOUS
 10
138.4642461515
 20
93.8882328482
 11
138.4642461515
 21
106.2883280304
  0
LINE
  5
27B
100
AcDbEntity
  8
0
100
AcDbLine
 62
253
  6
CONTINUOUS
 10
138.5784092572
 20
114.5394351286
 11
138.5799357527
 21
107.7266930345
  0
LINE
  5
27C
100
AcDbEntity
  8
ASSI
100
AcDbLine
 62
253
  6
CONTINUOUS
 10
138.5784092572
 20
114.5394351286
 11
138.5799357527
 21
107.7266930345
  0
LINE
  5
27D
100
AcDbEntity
  8
0
100
AcDbLine
 62
253
  6
CONTINUOUS
 10
139.037290748
 20
106.2490148903
 11
139.0345563035
 21
86.1109814966
  0
LINE
  5
27E
100
AcDbEntity
  8
ASSI
100
AcDbLine
 62
253
  6
CONTINUOUS
 10
139.037290748
 20
106.2490148903
 11
139.0345563035
 21
86.1109814966
  0
LINE
  5
27F
100
AcDbEntity
  8
0
100
AcDbLine
 62
253
  6
CONTINUOUS
 10
138.5799357509
 20
106.2497726626
 11
138.5776883401
 21
97.8266059902
  0
LINE
  5
280
100
AcDbEntity
  8
ASSI
100
AcDbLine
 62
253
  6
CONTINUOUS
 10
138.5799357509
 20
106.2497726626
 11
138.5776883401
 21
97.8266059902
  0
LINE
  5
281
100
AcDbEntity
  8
0
100
AcDbLine
 62
253
  6
CONTINUOUS
 10
138.5776883401
 20
97.8266059902
 11
138.5707946146
 21
88.6360709699
  0
LINE
  5
282
100
AcDbEntity
  8
ASSI
100
AcDbLine
 62
253
  6
CONTINUOUS
 10
138.5776883401
 20
97.8266059902
 11
138.5707946146
 21
88.6360709699
  0
LINE
  5
283
100
AcDbEntity
  8
0
100
AcDbLine
 62
7
  6
CONTINUOUS
 10
138.4838545429
 20
128.6472189706
 11
138.4642461515
 21
120.0882328482
  0
LINE
  5
284
100
AcDbEntity
  8
ASSI
100
AcDbLine
 62
7
  6
CONTINUOUS
 10
138.4838545429
 20
128.6472189706
 11
138.4642461515
 21
120.0882328482
  0
LINE
  5
285
100
AcDbEntity
  8
0
100
AcDbLine
 62
253
  6
CONTINUOUS
 10
139.0350290579
 20
128.0328282806
 11
139.0372907502
 21
107.7274508028
  0
LINE
  5
286
100
AcDbEntity
  8
ASSI
100
AcDbLine
 62
253
  6
CONTINUOUS
 10
139.0350290579
 20
128.0328282806
 11
139.0372907502
 21
107.7274508028
  0
LINE
  5
287
100
AcDbEntity
  8
0
100
AcDbLine
 62
253
  6
CONTINUOUS
 10
138.5707946146
 20
88.6360709699
 11
138.5678994152
 21
86.0349059442
  0
LINE
  5
288
100
AcDbEntity
  8
ASSI
100
AcDbLine
 62
253
  6
CONTINUOUS
 10
138.5707946146
 20
88.6360709699
 11
138.5678994152
 21
86.0349059442
  0
LWPOLYLINE
  5
289
100
AcDbEntity
  8
0
100
AcDbPolyline
 62
253
  6
CONTINUOUS
 90
4
 70
0
 10
139.0372906769
 20
107.7274508071
 10
139.0370644117
 20
107.6744643948
 10
139.0379137925
 20
107.6232164018
 10
139.0410145127
 20
107.5252591675
  0
LWPOLYLINE
  5
28A
100
AcDbEntity
  8
ASSI
100
AcDbPolyline
 62
253
  6
CONTINUOUS
 90
4
 70
0
 10
139.0372906769
 20
107.7274508071
 10
139.0370644117
 20
107.6744643948
 10
139.0379137925
 20
107.6232164018
 10
139.0410145127
 20
107.5252591675
  0
LINE
  5
28B
100
AcDbEntity
  8
0
100
AcDbLine
 62
253
  6
CONTINUOUS
 10
139.0374506877
 20
128.42530037
 11
139.0350290579
 21
128.0328282806
  0
LINE
  5
28C
100
AcDbEntity
  8
ASSI
100
AcDbLine
 62
253
  6
CONTINUOUS
 10
139.0374506877
 20
128.42530037
 11
139.0350290579
 21
128.0328282806
  0
LINE
  5
28D
100
AcDbEntity
  8
0
100
AcDbLine
 62
253
  6
CONTINUOUS
 10
138.5678994152
 20
86.0349059442
 11
138.5668000035
 21
85.8940394455
  0
LINE
  5
28E
100
AcDbEntity
  8
ASSI
100
AcDbLine
 62
253
  6
CONTINUOUS
 10
138.5678994152
 20
86.0349059442
 11
138.5668000035
 21
85.8940394455
  0
LINE
  5
28F
100
AcDbEntity
  8
0
100
AcDbLine
 62
253
  6
CONTINUOUS
 10
139.0396373545
 20
128.6278301859
 11
139.0374506877
 21
128.42530037
  0
LINE
  5
290
100
AcDbEntity
  8
ASSI
100
AcDbLine
 62
253
  6
CONTINUOUS
 10
139.0396373545
 20
128.6278301859
 11
139.0374506877
 21
128.42530037
  0
LINE
  5
291
100
AcDbEntity
  8
0
100
AcDbLine
 62
253
  6
CONTINUOUS
 10
138.5668000035
 20
85.8940394455
 11
138.5656452302
 21
85.8061769314
  0
LINE
  5
292
100
AcDbEntity
  8
ASSI
100
AcDbLine
 62
253
  6
CONTINUOUS
 10
138.5668000035
 20
85.8940394455
 11
138.5656452302
 21
85.8061769314
  0
LINE
  5
293
100
AcDbEntity
  8
0
100
AcDbLine
 62
253
  6
CONTINUOUS
 10
139.0413461055
 20
128.7433736026
 11
139.0396373545
 21
128.6278301859
  0
LINE
  5
294
100
AcDbEntity
  8
ASSI
100
AcDbLine
 62
253
  6
CONTINUOUS
 10
139.0413461055
 20
128.7433736026
 11
139.0396373545
 21
128.6278301859
  0
LINE
  5
295
100
AcDbEntity
  8
0
100
AcDbLine
 62
253
  6
CONTINUOUS
 10
138.5656452302
 20
85.8061769314
 11
138.5641746786
 21
85.7251039678
  0
LINE
  5
296
100
AcDbEntity
  8
ASSI
100
AcDbLine
 62
253
  6
CONTINUOUS
 10
138.5656452302
 20
85.8061769314
 11
138.5641746786
 21
85.7251039678
  0
LINE
  5
297
100
AcDbEntity
  8
0
100
AcDbLine
 62
253
  6
CONTINUOUS
 10
139.0432169341
 20
128.8406202763
 11
139.0413461055
 21
128.7433736026
  0
LINE
  5
298
100
AcDbEntity
  8
ASSI
100
AcDbLine
 62
253
  6
CONTINUOUS
 10
139.0432169341
 20
128.8406202763
 11
139.0413461055
 21
128.7433736026
  0
LWPOLYLINE
  5
299
100
AcDbEntity
  8
0
100
AcDbPolyline
 62
253
  6
CONTINUOUS
 90
12
 70
0
 10
138.5641746786
 20
85.7251039678
 10
138.5624176011
 20
85.6526810067
 10
138.5614459875
 20
85.6202169497
 10
138.5604159754
 20
85.5904681355
 10
138.5593284206
 20
85.5633929146
 10
138.5581994122
 20
85.5393922708
 10
138.5570277633
 20
85.5185109516
 10
138.5558146608
 20
85.5007042096
 10
138.5545797538
 20
85.4862387864
 10
138.5533295918
 20
85.4752035959
 10
138.5520576254
 20
85.4675097243
 10
138.5507638543
 20
85.4631571716
  0
LWPOLYLINE
  5
29A
100
AcDbEntity
  8
ASSI
100
AcDbPolyline
 62
253
  6
CONTINUOUS
 90
12
 70
0
 10
138.5641746786
 20
85.7251039678
 10
138.5624176011
 20
85.6526810067
 10
138.5614459875
 20
85.6202169497
 10
138.5604159754
 20
85.5904681355
 10
138.5593284206
 20
85.5633929146
 10
138.5581994122
 20
85.5393922708
 10
138.5570277633
 20
85.5185109516
 10
138.5558146608
 20
85.5007042096
 10
138.5545797538
 20
85.4862387864
 10
138.5533295918
 20
85.4752035959
 10
138.5520576254
 20
85.4675097243
 10
138.5507638543
 20
85.4631571716
  0
LWPOLYLINE
  5
29B
100
AcDbEntity
  8
0
100
AcDbPolyline
 62
253
  6
CONTINUOUS
 90
4
 70
0
 10
139.0379137427
 20
106.3532529558
 10
139.0410147599
 20
106.4512125262
 10
139.0428063893
 20
106.4979241127
 10
139.0455098429
 20
106.5418945328
  0
LWPOLYLINE
  5
29C
100
AcDbEntity
  8
ASSI
100
AcDbPolyline
 62
253
  6
CONTINUOUS
 90
4
 70
0
 10
139.0379137427
 20
106.3532529558
 10
139.0410147599
 20
106.4512125262
 10
139.0428063893
 20
106.4979241127
 10
139.0455098429
 20
106.5418945328
  0
LWPOLYLINE
  5
29D
100
AcDbEntity
  8
0
100
AcDbPolyline
 62
253
  6
CONTINUOUS
 90
19
 70
0
 10
138.5799357509
 20
106.2497726626
 10
138.5818024725
 20
106.2928299945
 10
138.5873899879
 20
106.3356871115
 10
138.5966877051
 20
106.3780197228
 10
138.6096646442
 20
106.419525436
 10
138.6262487072
 20
106.4598573231
 10
138.6463074007
 20
106.4986344048
 10
138.6696983642
 20
106.5355536125
 10
138.6962546201
 20
106.5703274518
 10
138.7257363213
 20
106.6026346599
 10
138.7578892043
 20
106.6322094668
 10
138.7924862
 20
106.6588547829
 10
138.8292897024
 20
106.6823875279
 10
138.8680380465
 20
106.7026322058
 10
138.9084216321
 20
106.7194192783
 10
138.9501111966
 20
106.732610265
 10
138.9927798533
 20
106.7421043242
 10
139.036108076
 20
106.7478328874
 10
139.0797644134
 20
106.7497536241
  0
LWPOLYLINE
  5
29E
100
AcDbEntity
  8
ASSI
100
AcDbPolyline
 62
253
  6
CONTINUOUS
 90
19
 70
0
 10
138.5799357509
 20
106.2497726626
 10
138.5818024725
 20
106.2928299945
 10
138.5873899879
 20
106.3356871115
 10
138.5966877051
 20
106.3780197228
 10
138.6096646442
 20
106.419525436
 10
138.6262487072
 20
106.4598573231
 10
138.6463074007
 20
106.4986344048
 10
138.6696983642
 20
106.5355536125
 10
138.6962546201
 20
106.5703274518
 10
138.7257363213
 20
106.6026346599
 10
138.7578892043
 20
106.6322094668
 10
138.7924862
 20
106.6588547829
 10
138.8292897024
 20
106.6823875279
 10
138.8680380465
 20
106.7026322058
 10
138.9084216321
 20
106.7194192783
 10
138.9501111966
 20
106.732610265
 10
138.9927798533
 20
106.7421043242
 10
139.036108076
 20
106.7478328874
 10
139.0797644134
 20
106.7497536241
  0
LWPOLYLINE
  5
29F
100
AcDbEntity
  8
0
100
AcDbPolyline
 62
253
  6
CONTINUOUS
 90
9
 70
0
 10
139.0455098429
 20
106.5418945328
 10
139.0512741824
 20
106.6194702338
 10
139.0548977019
 20
106.6525677885
 10
139.058811959
 20
106.6812090089
 10
139.0624437588
 20
106.7051300991
 10
139.0666974073
 20
106.724168308
 10
139.0715708822
 20
106.7380663217
 10
139.0760890227
 20
106.7466117829
 10
139.0797644138
 20
106.7497536241
  0
LWPOLYLINE
  5
2A0
100
AcDbEntity
  8
ASSI
100
AcDbPolyline
 62
253
  6
CONTINUOUS
 90
9
 70
0
 10
139.0455098429
 20
106.5418945328
 10
139.0512741824
 20
106.6194702338
 10
139.0548977019
 20
106.6525677885
 10
139.058811959
 20
106.6812090089
 10
139.0624437588
 20
106.7051300991
 10
139.0666974073
 20
106.724168308
 10
139.0715708822
 20
106.7380663217
 10
139.0760890227
 20
106.7466117829
 10
139.0797644138
 20
106.7497536241
  0
LINE
  5
2A1
100
AcDbEntity
  8
0
100
AcDbLine
 62
7
  6
CONTINUOUS
 10
164.1548736045
 20
84.8315285716
 11
164.5056953265
 21
84.8633736895
  0
LINE
  5
2A2
100
AcDbEntity
  8
ASSI
100
AcDbLine
 62
7
  6
CONTINUOUS
 10
164.1548736045
 20
84.8315285716
 11
164.5056953265
 21
84.8633736895
  0
LINE
  5
2A3
100
AcDbEntity
  8
0
100
AcDbLine
 62
7
  6
CONTINUOUS
 10
152.8548736045
 20
84.8315285716
 11
153.2056953265
 21
84.8633736895
  0
LINE
  5
2A4
100
AcDbEntity
  8
ASSI
100
AcDbLine
 62
7
  6
CONTINUOUS
 10
152.8548736045
 20
84.8315285716
 11
153.2056953265
 21
84.8633736895
  0
LINE
  5
2A5
100
AcDbEntity
  8
0
100
AcDbLine
 62
7
  6
CONTINUOUS
 10
141.6548736045
 20
84.8315285716
 11
142.0056953265
 21
84.8633736895
  0
LINE
  5
2A6
100
AcDbEntity
  8
ASSI
100
AcDbLine
 62
7
  6
CONTINUOUS
 10
141.6548736045
 20
84.8315285716
 11
142.0056953265
 21
84.8633736895
  0
LWPOLYLINE
  5
2A7
100
AcDbEntity
  8
0
100
AcDbPolyline
 62
253
  6
CONTINUOUS
 90
14
 70
0
 10
182.4893124801
 20
86.1117880705
 10
182.5361520497
 20
86.1124938497
 10
182.5812723168
 20
86.1133928091
 10
182.6242357694
 20
86.114476232
 10
182.6646258092
 20
86.1157336128
 10
182.7020507912
 20
86.1171527592
 10
182.7361478214
 20
86.1187199105
 10
182.7665862753
 20
86.1204198706
 10
182.7930710042
 20
86.1222361557
 10
182.8153451971
 20
86.1241511542
 10
182.8331928705
 20
86.126146297
 10
182.8464409631
 20
86.1282022381
 10
182.8549610139
 20
86.130299042
 10
182.8586704076
 20
86.1324163768
  0
LWPOLYLINE
  5
2A8
100
AcDbEntity
  8
ASSI
100
AcDbPolyline
 62
253
  6
CONTINUOUS
 90
14
 70
0
 10
182.4893124801
 20
86.1117880705
 10
182.5361520497
 20
86.1124938497
 10
182.5812723168
 20
86.1133928091
 10
182.6242357694
 20
86.114476232
 10
182.6646258092
 20
86.1157336128
 10
182.7020507912
 20
86.1171527592
 10
182.7361478214
 20
86.1187199105
 10
182.7665862753
 20
86.1204198706
 10
182.7930710042
 20
86.1222361557
 10
182.8153451971
 20
86.1241511542
 10
182.8331928705
 20
86.126146297
 10
182.8464409631
 20
86.1282022381
 10
182.8549610139
 20
86.130299042
 10
182.8586704076
 20
86.1324163768
  0
LINE
  5
2A9
100
AcDbEntity
  8
0
100
AcDbLine
 62
253
  6
CONTINUOUS
 10
182.3923044343
 20
86.1109814879
 11
182.4893124801
 21
86.1117880705
  0
LINE
  5
2AA
100
AcDbEntity
  8
ASSI
100
AcDbLine
 62
253
  6
CONTINUOUS
 10
182.3923044343
 20
86.1109814879
 11
182.4893124801
 21
86.1117880705
  0
LINE
  5
2AB
100
AcDbEntity
  8
0
100
AcDbLine
 62
253
  6
CONTINUOUS
 10
139.0505925168
 20
84.9638424042
 11
142.2995100622
 21
84.9735583451
  0
LINE
  5
2AC
100
AcDbEntity
  8
ASSI
100
AcDbLine
 62
253
  6
CONTINUOUS
 10
139.0505925168
 20
84.9638424042
 11
142.2995100622
 21
84.9735583451
  0
LINE
  5
2AD
100
AcDbEntity
  8
0
100
AcDbLine
 62
253
  6
CONTINUOUS
 10
142.2995100622
 20
84.9735583451
 11
145.7023180351
 21
84.9798763902
  0
LINE
  5
2AE
100
AcDbEntity
  8
ASSI
100
AcDbLine
 62
253
  6
CONTINUOUS
 10
142.2995100622
 20
84.9735583451
 11
145.7023180351
 21
84.9798763902
  0
LINE
  5
2AF
100
AcDbEntity
  8
0
100
AcDbLine
 62
253
  6
CONTINUOUS
 10
139.0345563035
 20
86.1109814966
 11
144.527306009
 21
86.1169190642
  0
LINE
  5
2B0
100
AcDbEntity
  8
ASSI
100
AcDbLine
 62
253
  6
CONTINUOUS
 10
139.0345563035
 20
86.1109814966
 11
144.527306009
 21
86.1169190642
  0
LINE
  5
2B1
100
AcDbEntity
  8
0
100
AcDbLine
 62
253
  6
CONTINUOUS
 10
145.7023180351
 20
84.9798763902
 11
149.4638840579
 21
84.9823188495
  0
LINE
  5
2B2
100
AcDbEntity
  8
ASSI
100
AcDbLine
 62
253
  6
CONTINUOUS
 10
145.7023180351
 20
84.9798763902
 11
149.4638840579
 21
84.9823188495
  0
LINE
  5
2B3
100
AcDbEntity
  8
0
100
AcDbLine
 62
7
  6
CONTINUOUS
 10
138.9844809645
 20
84.8315285716
 11
141.6548736045
 21
84.8315285716
  0
LINE
  5
2B4
100
AcDbEntity
  8
ASSI
100
AcDbLine
 62
7
  6
CONTINUOUS
 10
138.9844809645
 20
84.8315285716
 11
141.6548736045
 21
84.8315285716
  0
LINE
  5
2B5
100
AcDbEntity
  8
0
100
AcDbLine
 62
7
  6
CONTINUOUS
 10
146.0719871023
 20
84.8315285716
 11
152.8548736045
 21
84.8315285716
  0
LINE
  5
2B6
100
AcDbEntity
  8
ASSI
100
AcDbLine
 62
7
  6
CONTINUOUS
 10
146.0719871023
 20
84.8315285716
 11
152.8548736045
 21
84.8315285716
  0
LINE
  5
2B7
100
AcDbEntity
  8
0
100
AcDbLine
 62
7
  6
CONTINUOUS
 10
157.2719871023
 20
84.8315285716
 11
164.1548736045
 21
84.8315285716
  0
LINE
  5
2B8
100
AcDbEntity
  8
ASSI
100
AcDbLine
 62
7
  6
CONTINUOUS
 10
157.2719871023
 20
84.8315285716
 11
164.1548736045
 21
84.8315285716
  0
LINE
  5
2B9
100
AcDbEntity
  8
0
100
AcDbLine
 62
7
  6
CONTINUOUS
 10
168.5719871023
 20
84.8315285716
 11
175.3548736045
 21
84.8315285716
  0
LINE
  5
2BA
100
AcDbEntity
  8
ASSI
100
AcDbLine
 62
7
  6
CONTINUOUS
 10
168.5719871023
 20
84.8315285716
 11
175.3548736045
 21
84.8315285716
  0
LINE
  5
2BB
100
AcDbEntity
  8
0
100
AcDbLine
 62
7
  6
CONTINUOUS
 10
179.7719871023
 20
84.8315285716
 11
182.4423797424
 21
84.8315285716
  0
LINE
  5
2BC
100
AcDbEntity
  8
ASSI
100
AcDbLine
 62
7
  6
CONTINUOUS
 10
179.7719871023
 20
84.8315285716
 11
182.4423797424
 21
84.8315285716
  0
LINE
  5
2BD
100
AcDbEntity
  8
0
100
AcDbLine
 62
7
  6
CONTINUOUS
 10
156.7479602996
 20
84.8686144674
 11
153.3789004073
 21
84.8686144674
  0
LINE
  5
2BE
100
AcDbEntity
  8
ASSI
100
AcDbLine
 62
7
  6
CONTINUOUS
 10
156.7479602996
 20
84.8686144674
 11
153.3789004073
 21
84.8686144674
  0
LINE
  5
2BF
100
AcDbEntity
  8
0
100
AcDbLine
 62
7
  6
CONTINUOUS
 10
145.5479602996
 20
84.8686144674
 11
142.1789004073
 21
84.8686144674
  0
LINE
  5
2C0
100
AcDbEntity
  8
ASSI
100
AcDbLine
 62
7
  6
CONTINUOUS
 10
145.5479602996
 20
84.8686144674
 11
142.1789004073
 21
84.8686144674
  0
LINE
  5
2C1
100
AcDbEntity
  8
0
100
AcDbLine
 62
7
  6
CONTINUOUS
 10
164.6789004073
 20
84.8686144674
 11
168.0479602996
 21
84.8686144674
  0
LINE
  5
2C2
100
AcDbEntity
  8
ASSI
100
AcDbLine
 62
7
  6
CONTINUOUS
 10
164.6789004073
 20
84.8686144674
 11
168.0479602996
 21
84.8686144674
  0
LINE
  5
2C3
100
AcDbEntity
  8
0
100
AcDbLine
 62
7
  6
CONTINUOUS
 10
175.8789004073
 20
84.8686144674
 11
179.2479602996
 21
84.8686144674
  0
LINE
  5
2C4
100
AcDbEntity
  8
ASSI
100
AcDbLine
 62
7
  6
CONTINUOUS
 10
175.8789004073
 20
84.8686144674
 11
179.2479602996
 21
84.8686144674
  0
LINE
  5
2C5
100
AcDbEntity
  8
0
100
AcDbLine
 62
253
  6
CONTINUOUS
 10
144.527306009
 20
86.1169190642
 11
173.7662139053
 21
86.1181738043
  0
LINE
  5
2C6
100
AcDbEntity
  8
ASSI
100
AcDbLine
 62
253
  6
CONTINUOUS
 10
144.527306009
 20
86.1169190642
 11
173.7662139053
 21
86.1181738043
  0
LINE
  5
2C7
100
AcDbEntity
  8
0
100
AcDbLine
 62
253
  6
CONTINUOUS
 10
149.4638840579
 20
84.9823188495
 11
174.6407523163
 21
84.9810669657
  0
LINE
  5
2C8
100
AcDbEntity
  8
ASSI
100
AcDbLine
 62
253
  6
CONTINUOUS
 10
149.4638840579
 20
84.9823188495
 11
174.6407523163
 21
84.9810669657
  0
LINE
  5
2C9
100
AcDbEntity
  8
0
100
AcDbLine
 62
253
  6
CONTINUOUS
 10
173.7662139053
 20
86.1181738043
 11
178.0434403414
 21
86.1160036127
  0
LINE
  5
2CA
100
AcDbEntity
  8
ASSI
100
AcDbLine
 62
253
  6
CONTINUOUS
 10
173.7662139053
 20
86.1181738043
 11
178.0434403414
 21
86.1160036127
  0
LINE
  5
2CB
100
AcDbEntity
  8
0
100
AcDbLine
 62
253
  6
CONTINUOUS
 10
178.0434403414
 20
86.1160036127
 11
182.3923044344
 21
86.1109814998
  0
LINE
  5
2CC
100
AcDbEntity
  8
ASSI
100
AcDbLine
 62
253
  6
CONTINUOUS
 10
178.0434403414
 20
86.1160036127
 11
182.3923044344
 21
86.1109814998
  0
LINE
  5
2CD
100
AcDbEntity
  8
0
100
AcDbLine
 62
253
  6
CONTINUOUS
 10
174.6407523163
 20
84.9810669657
 11
178.0302325536
 21
84.9760314751
  0
LINE
  5
2CE
100
AcDbEntity
  8
ASSI
100
AcDbLine
 62
253
  6
CONTINUOUS
 10
174.6407523163
 20
84.9810669657
 11
178.0302325536
 21
84.9760314751
  0
LWPOLYLINE
  5
2CF
100
AcDbEntity
  8
0
100
AcDbPolyline
 62
253
  6
CONTINUOUS
 90
3
 70
0
 10
178.0302325536
 20
84.9760314751
 10
181.4794505733
 20
84.9668658149
 10
182.3762681881
 20
84.963842408
  0
LWPOLYLINE
  5
2D0
100
AcDbEntity
  8
ASSI
100
AcDbPolyline
 62
253
  6
CONTINUOUS
 90
3
 70
0
 10
178.0302325536
 20
84.9760314751
 10
181.4794505733
 20
84.9668658149
 10
182.3762681881
 20
84.963842408
  0
LWPOLYLINE
  5
2D1
100
AcDbEntity
  8
0
100
AcDbPolyline
 62
253
  6
CONTINUOUS
 90
15
 70
0
 10
139.0345571963
 20
86.110982031
 10
138.9375500523
 20
86.1117885873
 10
138.8907108731
 20
86.1124943446
 10
138.8455909388
 20
86.1133932765
 10
138.8026277496
 20
86.1144766668
 10
138.762237893
 20
86.1157340109
 10
138.7248130044
 20
86.117153117
 10
138.69071597
 20
86.118720225
 10
138.6602774075
 20
86.1204201395
 10
138.633792461
 20
86.1222363776
 10
138.6115179386
 20
86.1241513283
 10
138.5936698227
 20
86.1261464235
 10
138.5804211753
 20
86.128202318
 10
138.5719004604
 20
86.1302990771
 10
138.5681902982
 20
86.1324163698
  0
LWPOLYLINE
  5
2D2
100
AcDbEntity
  8
ASSI
100
AcDbPolyline
 62
253
  6
CONTINUOUS
 90
15
 70
0
 10
139.0345571963
 20
86.110982031
 10
138.9375500523
 20
86.1117885873
 10
138.8907108731
 20
86.1124943446
 10
138.8455909388
 20
86.1133932765
 10
138.8026277496
 20
86.1144766668
 10
138.762237893
 20
86.1157340109
 10
138.7248130044
 20
86.117153117
 10
138.69071597
 20
86.118720225
 10
138.6602774075
 20
86.1204201395
 10
138.633792461
 20
86.1222363776
 10
138.6115179386
 20
86.1241513283
 10
138.5936698227
 20
86.1261464235
 10
138.5804211753
 20
86.128202318
 10
138.5719004604
 20
86.1302990771
 10
138.5681902982
 20
86.1324163698
  0
LINE
  5
2D3
100
AcDbEntity
  8
0
100
AcDbLine
 62
7
  6
CONTINUOUS
 10
157.2719871023
 20
84.8315285716
 11
156.9211653803
 21
84.8633736895
  0
LINE
  5
2D4
100
AcDbEntity
  8
ASSI
100
AcDbLine
 62
7
  6
CONTINUOUS
 10
157.2719871023
 20
84.8315285716
 11
156.9211653803
 21
84.8633736895
  0
LINE
  5
2D5
100
AcDbEntity
  8
0
100
AcDbLine
 62
7
  6
CONTINUOUS
 10
168.5719871023
 20
84.8315285716
 11
168.2211653803
 21
84.8633736895
  0
LINE
  5
2D6
100
AcDbEntity
  8
ASSI
100
AcDbLine
 62
7
  6
CONTINUOUS
 10
168.5719871023
 20
84.8315285716
 11
168.2211653803
 21
84.8633736895
  0
LINE
  5
2D7
100
AcDbEntity
  8
0
100
AcDbLine
 62
7
  6
CONTINUOUS
 10
179.7719871023
 20
84.8315285716
 11
179.4211653803
 21
84.8633736895
  0
LINE
  5
2D8
100
AcDbEntity
  8
ASSI
100
AcDbLine
 62
7
  6
CONTINUOUS
 10
179.7719871023
 20
84.8315285716
 11
179.4211653803
 21
84.8633736895
  0
LWPOLYLINE
  5
2D9
100
AcDbEntity
  8
0
100
AcDbPolyline
 62
253
  6
CONTINUOUS
 90
10
 70
0
 10
138.5507638563
 20
128.5133085211
 10
138.5520576273
 20
128.5089559681
 10
138.5533295938
 20
128.5012620963
 10
138.5545797558
 20
128.4902269057
 10
138.5558146629
 20
128.4757614824
 10
138.5570277654
 20
128.4579547402
 10
138.5581994143
 20
128.4370734209
 10
138.5593284228
 20
128.4130727768
 10
138.5604159776
 20
128.3859975556
 10
138.5614459897
 20
128.3562487412
  0
LWPOLYLINE
  5
2DA
100
AcDbEntity
  8
ASSI
100
AcDbPolyline
 62
253
  6
CONTINUOUS
 90
10
 70
0
 10
138.5507638563
 20
128.5133085211
 10
138.5520576273
 20
128.5089559681
 10
138.5533295938
 20
128.5012620963
 10
138.5545797558
 20
128.4902269057
 10
138.5558146629
 20
128.4757614824
 10
138.5570277654
 20
128.4579547402
 10
138.5581994143
 20
128.4370734209
 10
138.5593284228
 20
128.4130727768
 10
138.5604159776
 20
128.3859975556
 10
138.5614459897
 20
128.3562487412
  0
LWPOLYLINE
  5
2DB
100
AcDbEntity
  8
0
100
AcDbPolyline
 62
253
  6
CONTINUOUS
 90
3
 70
0
 10
149.4645640397
 20
107.2423227959
 10
149.4647112174
 20
107.2337579415
 10
149.4648600112
 20
107.2305888037
  0
LWPOLYLINE
  5
2DC
100
AcDbEntity
  8
ASSI
100
AcDbPolyline
 62
253
  6
CONTINUOUS
 90
3
 70
0
 10
149.4645640397
 20
107.2423227959
 10
149.4647112174
 20
107.2337579415
 10
149.4648600112
 20
107.2305888037
  0
LINE
  5
2DD
100
AcDbEntity
  8
0
100
AcDbLine
 62
253
  6
CONTINUOUS
 10
149.4642808914
 20
107.2752099832
 11
149.4645640397
 21
107.2423227959
  0
LINE
  5
2DE
100
AcDbEntity
  8
ASSI
100
AcDbLine
 62
253
  6
CONTINUOUS
 10
149.4642808914
 20
107.2752099832
 11
149.4645640397
 21
107.2423227959
  0
LINE
  5
2DF
100
AcDbEntity
  8
0
100
AcDbLine
 62
253
  6
CONTINUOUS
 10
149.4635568616
 20
107.5288878117
 11
149.4642808914
 21
107.2752099832
  0
LINE
  5
2E0
100
AcDbEntity
  8
ASSI
100
AcDbLine
 62
253
  6
CONTINUOUS
 10
149.4635568616
 20
107.5288878117
 11
149.4642808914
 21
107.2752099832
  0
LINE
  5
2E1
100
AcDbEntity
  8
0
100
AcDbLine
 62
253
  6
CONTINUOUS
 10
149.4635568616
 20
107.5288878117
 11
149.4634357318
 21
127.9556983404
  0
LINE
  5
2E2
100
AcDbEntity
  8
ASSI
100
AcDbLine
 62
253
  6
CONTINUOUS
 10
149.4635568616
 20
107.5288878117
 11
149.4634357318
 21
127.9556983404
  0
LINE
  5
2E3
100
AcDbEntity
  8
0
100
AcDbLine
 62
253
  6
CONTINUOUS
 10
149.4638840579
 20
84.9823188495
 11
149.463439139
 21
106.2970087913
  0
LINE
  5
2E4
100
AcDbEntity
  8
ASSI
100
AcDbLine
 62
253
  6
CONTINUOUS
 10
149.4638840579
 20
84.9823188495
 11
149.463439139
 21
106.2970087913
  0
LINE
  5
2E5
100
AcDbEntity
  8
0
100
AcDbLine
 62
253
  6
CONTINUOUS
 10
149.4634357318
 20
127.9556983404
 11
149.4638840579
 21
128.994146847
  0
LINE
  5
2E6
100
AcDbEntity
  8
ASSI
100
AcDbLine
 62
253
  6
CONTINUOUS
 10
149.4634357318
 20
127.9556983404
 11
149.4638840579
 21
128.994146847
  0
LINE
  5
2E7
100
AcDbEntity
  8
0
100
AcDbLine
 62
253
  6
CONTINUOUS
 10
149.463439139
 20
106.2970087913
 11
149.4641480024
 21
106.6772904746
  0
LINE
  5
2E8
100
AcDbEntity
  8
ASSI
100
AcDbLine
 62
253
  6
CONTINUOUS
 10
149.463439139
 20
106.2970087913
 11
149.4641480024
 21
106.6772904746
  0
LWPOLYLINE
  5
2E9
100
AcDbEntity
  8
0
100
AcDbPolyline
 62
253
  6
CONTINUOUS
 90
5
 70
0
 10
149.4641480024
 20
106.6772904746
 10
149.4644200807
 20
106.7202752878
 10
149.4645640426
 20
106.7341428555
 10
149.4647112189
 20
106.7427077306
 10
149.4648600112
 20
106.7458768928
  0
LWPOLYLINE
  5
2EA
100
AcDbEntity
  8
ASSI
100
AcDbPolyline
 62
253
  6
CONTINUOUS
 90
5
 70
0
 10
149.4641480024
 20
106.6772904746
 10
149.4644200807
 20
106.7202752878
 10
149.4645640426
 20
106.7341428555
 10
149.4647112189
 20
106.7427077306
 10
149.4648600112
 20
106.7458768928
  0
LINE
  5
2EB
100
AcDbEntity
  8
0
100
AcDbLine
 62
253
  6
CONTINUOUS
 10
138.5507638543
 20
85.4631571716
 11
138.4838545429
 21
85.3292467259
  0
LINE
  5
2EC
100
AcDbEntity
  8
ASSI
100
AcDbLine
 62
253
  6
CONTINUOUS
 10
138.5507638543
 20
85.4631571716
 11
138.4838545429
 21
85.3292467259
  0
LWPOLYLINE
  5
2ED
100
AcDbEntity
  8
0
100
AcDbPolyline
 62
253
  6
CONTINUOUS
 90
19
 70
0
 10
157.2285610386
 20
117.9638971541
 10
157.3944882806
 20
118.1327711188
 10
157.5623274561
 20
118.2997356345
 10
157.7320552227
 20
118.4647688413
 10
157.9036482386
 20
118.6278488788
 10
158.0770831616
 20
118.7889538872
 10
158.2523366496
 20
118.9480620061
 10
158.4293857898
 20
119.1051521282
 10
158.6082093857
 20
119.2602061564
 10
158.7887866701
 20
119.4132067462
 10
158.9710968756
 20
119.5641365532
 10
159.1551192349
 20
119.712978233
 10
159.3408329808
 20
119.8597144411
 10
159.5282165301
 20
120.004327543
 10
159.7172450354
 20
120.1467987442
 10
159.9078928336
 20
120.28710896
 10
160.1001342615
 20
120.4252391057
 10
160.2939436558
 20
120.5611700967
 10
160.4892953534
 20
120.6948828482
  0
LWPOLYLINE
  5
2EE
100
AcDbEntity
  8
0
100
AcDbPolyline
 62
253
  6
CONTINUOUS
 90
19
 70
0
 10
156.7982991982
 20
118.382077999
 10
156.9772032915
 20
118.5640743522
 10
157.1582658691
 20
118.7439121527
 10
157.3414592462
 20
118.921565593
 10
157.5267557378
 20
119.0970088659
 10
157.714127659
 20
119.270216164
 10
157.9035473248
 20
119.4411616799
 10
158.094987548
 20
119.6098205048
 10
158.2884231313
 20
119.7761713233
 10
158.4838293754
 20
119.9401937186
 10
158.6811815809
 20
120.1018672737
 10
158.8804550481
 20
120.261171572
 10
159.0816250778
 20
120.4180861963
 10
159.2846659956
 20
120.5725904078
 10
159.4895482284
 20
120.7246621784
 10
159.6962412285
 20
120.8742791579
 10
159.9047144479
 20
121.0214189961
 10
160.1149373389
 20
121.166059343
 10
160.3268793534
 20
121.3081778482
  0
LWPOLYLINE
  5
2EF
100
AcDbEntity
  8
0
100
AcDbPolyline
 62
253
  6
CONTINUOUS
 90
81
 70
0
 10
157.2285608536
 20
117.963897334
 10
157.2202373236
 20
117.9556626897
 10
157.2115921452
 20
117.9477546127
 10
157.2026376295
 20
117.9401840488
 10
157.1933860874
 20
117.9329619438
 10
157.1838498297
 20
117.9260992435
 10
157.1740411674
 20
117.9196068936
 10
157.1639724114
 20
117.9134958399
 10
157.1536558727
 20
117.9077770283
 10
157.143105156
 20
117.9024613197
 10
157.1323390414
 20
117.8975592362
 10
157.1213776032
 20
117.893081215
 10
157.1102409153
 20
117.8890376935
 10
157.0989506156
 20
117.8854381643
 10
157.0875345971
 20
117.8822883415
 10
157.0760223164
 20
117.8795929946
 10
157.0644432303
 20
117.8773568931
 10
157.0528231291
 20
117.8755835499
 10
157.0411731372
 20
117.8742714514
 10
157.0295007124
 20
117.8734178276
 10
157.0178133128
 20
117.8730199084
 10
157.0061181623
 20
117.8730759682
 10
156.9944215505
 20
117.8735884598
 10
156.9827295329
 20
117.8745608807
 10
156.9710481651
 20
117.8759967282
 10
156.9593876493
 20
117.8778984031
 10
156.947774774
 20
117.8802639192
 10
156.9362404744
 20
117.8830901936
 10
156.9248156855
 20
117.8863741432
 10
156.9135303921
 20
117.8901109405
 10
156.9024107774
 20
117.894288778
 10
156.8914820743
 20
117.8988941037
 10
156.8807695157
 20
117.9039133653
 10
156.8702951009
 20
117.9093341351
 10
156.8600678954
 20
117.915148483
 10
156.8500937311
 20
117.9213496034
 10
156.8403784399
 20
117.9279306907
 10
156.8309287522
 20
117.9348848889
 10
156.8217549919
 20
117.9422051416
 10
156.8128683814
 20
117.9498843423
 10
156.8042801431
 20
117.9579153842
 10
156.7960023021
 20
117.9662895573
 10
156.7880500935
 20
117.9749917379
 10
156.7804395554
 20
117.9840051988
 10
156.7731867258
 20
117.9933132128
 10
156.766306694
 20
118.0028990253
 10
156.7598107558
 20
118.0127457723
 10
156.7537092584
 20
118.0228365622
 10
156.748012549
 20
118.0331545033
 10
156.7427301142
 20
118.0436828063
 10
156.7378679975
 20
118.0544050897
 10
156.7334313818
 20
118.0653050742
 10
156.72942545
 20
118.0763664803
 10
156.7258553848
 20
118.0875730287
 10
156.7227263692
 20
118.09890844
 10
156.7200435859
 20
118.1103564349
 10
156.717812218
 20
118.121900734
 10
156.7160367661
 20
118.1335249037
 10
156.7147190037
 20
118.1452118939
 10
156.7138600218
 20
118.1569445002
 10
156.7134609118
 20
118.1687055182
 10
156.7135227649
 20
118.1804777438
 10
156.7140466724
 20
118.1922439724
 10
156.7150337254
 20
118.2039869998
 10
156.7164850153
 20
118.2156896216
 10
156.7184004064
 20
118.2273341753
 10
156.720774855
 20
118.2389011649
 10
156.7236020906
 20
118.2503706366
 10
156.7268758426
 20
118.2617226361
 10
156.7305898405
 20
118.2729372094
 10
156.7347378136
 20
118.2839944025
 10
156.7393134914
 20
118.2948742612
 10
156.7443106033
 20
118.3055568316
 10
156.7497220833
 20
118.316023248
 10
156.7555376831
 20
118.3262589991
 10
156.7617463592
 20
118.3362506618
 10
156.7683370678
 20
118.3459848133
 10
156.7752987651
 20
118.3554480307
 10
156.7826204077
 20
118.3646268909
 10
156.7902909517
 20
118.373507971
 10
156.7982993534
 20
118.3820778482
  0
LWPOLYLINE
  5
2F0
100
AcDbEntity
  8
0
100
AcDbPolyline
 62
253
  6
CONTINUOUS
 90
46
 70
0
 10
160.4203313534
 20
119.6703238482
 10
160.4319151328
 20
119.6784579049
 10
160.4437070208
 20
119.6862497733
 10
160.4556971481
 20
119.6936953656
 10
160.4678756455
 20
119.7007905937
 10
160.4802326435
 20
119.7075313696
 10
160.4927582731
 20
119.7139136054
 10
160.5054426647
 20
119.719933213
 10
160.5182759492
 20
119.7255861046
 10
160.5312482571
 20
119.7308681921
 10
160.5443491933
 20
119.7357759852
 10
160.5575662581
 20
119.7403083838
 10
160.570886426
 20
119.7444648855
 10
160.5842966713
 20
119.7482449878
 10
160.5977839686
 20
119.7516481885
 10
160.6113352923
 20
119.7546739849
 10
160.6249376167
 20
119.7573218748
 10
160.6385779163
 20
119.7595913557
 10
160.6522431656
 20
119.7614819251
 10
160.6659221627
 20
119.7629930876
 10
160.6796110015
 20
119.7641243748
 10
160.6933075996
 20
119.7648753255
 10
160.7070098744
 20
119.7652454783
 10
160.7207157436
 20
119.7652343718
 10
160.7344231248
 20
119.7648415447
 10
160.7481299355
 20
119.7640665356
 10
160.7618340933
 20
119.7629088832
 10
160.7755335158
 20
119.7613681261
 10
160.7892238293
 20
119.7594442071
 10
160.8028914948
 20
119.7571386855
 10
160.8165206821
 20
119.7544535248
 10
160.8300955609
 20
119.7513906886
 10
160.8436003009
 20
119.7479521401
 10
160.857019072
 20
119.744139843
 10
160.8703360438
 20
119.7399557607
 10
160.8835353862
 20
119.7354018567
 10
160.8966012688
 20
119.7304800944
 10
160.9095191684
 20
119.7251929438
 10
160.9222797899
 20
119.7195449012
 10
160.9348751452
 20
119.7135409691
 10
160.9472972462
 20
119.7071861503
 10
160.9595381049
 20
119.7004854473
 10
160.971589733
 20
119.693443863
 10
160.9834441425
 20
119.6860663999
 10
160.9950933454
 20
119.6783580608
 10
161.0065293534
 20
119.6703238482
  0
LWPOLYLINE
  5
2F1
100
AcDbEntity
  8
0
100
AcDbPolyline
 62
253
  6
CONTINUOUS
 90
42
 70
0
 10
160.4892953534
 20
120.6948828482
 10
160.498332142
 20
120.7008195075
 10
160.5075081727
 20
120.7064985678
 10
160.5168158138
 20
120.7119178835
 10
160.5262474336
 20
120.7170753087
 10
160.5357954001
 20
120.7219686977
 10
160.5454520817
 20
120.7265959046
 10
160.5552098464
 20
120.7309547836
 10
160.5650610625
 20
120.7350431889
 10
160.5749980981
 20
120.7388589748
 10
160.5862703573
 20
120.7428237807
 10
160.5976307991
 20
120.7464412852
 10
160.6090686497
 20
120.7497119368
 10
160.6205731351
 20
120.7526361838
 10
160.6321334816
 20
120.7552144746
 10
160.6437389154
 20
120.7574472576
 10
160.6553786627
 20
120.7593349813
 10
160.6670419495
 20
120.7608780939
 10
160.6787193926
 20
120.7620768752
 10
160.6904071702
 20
120.7629309291
 10
160.7021028509
 20
120.7634396909
 10
160.7138040036
 20
120.7636025958
 10
160.7255081969
 20
120.7634190791
 10
160.7372129995
 20
120.762888576
 10
160.7489159802
 20
120.7620105217
 10
160.7606147075
 20
120.7607843514
 10
160.7723047575
 20
120.7592098117
 10
160.7839737348
 20
120.7572878941
 10
160.7956072514
 20
120.7550199013
 10
160.8071909191
 20
120.7524071361
 10
160.8187103498
 20
120.7494509012
 10
160.8301511556
 20
120.7461524994
 10
160.8414989482
 20
120.7425132334
 10
160.8527393397
 20
120.7385344061
 10
160.8638589104
 20
120.7342178025
 10
160.8748481149
 20
120.7295671368
 10
160.8856983766
 20
120.7245866056
 10
160.8964011186
 20
120.7192804056
 10
160.9069477641
 20
120.7136527332
 10
160.9173297362
 20
120.7077077852
 10
160.9275384583
 20
120.701449758
 10
160.9375653534
 20
120.6948828482
  0
LWPOLYLINE
  5
2F2
100
AcDbEntity
  8
0
100
AcDbPolyline
 62
253
  6
CONTINUOUS
 90
41
 70
0
 10
160.3268793534
 20
121.3081778482
 10
160.3442753648
 20
121.319334981
 10
160.3619765798
 20
121.3299651864
 10
160.3799684474
 20
121.3400613962
 10
160.3982364168
 20
121.3496165421
 10
160.4167659367
 20
121.358623556
 10
160.4355424562
 20
121.3670753694
 10
160.4545514243
 20
121.3749649142
 10
160.4737782899
 20
121.382285122
 10
160.4932069956
 20
121.3890297824
 10
160.5128154581
 20
121.3951961154
 10
160.5325800874
 20
121.4007821989
 10
160.5524772938
 20
121.4057861107
 10
160.5724834875
 20
121.4102059288
 10
160.5925750786
 20
121.4140397309
 10
160.6127284774
 20
121.4172855949
 10
160.6329200939
 20
121.4199415987
 10
160.6531297622
 20
121.4220060609
 10
160.6733510106
 20
121.4234782633
 10
160.6935807914
 20
121.4243577285
 10
160.7138160567
 20
121.4246439793
 10
160.7340537587
 20
121.4243365382
 10
160.7542908496
 20
121.4234349279
 10
160.7745242815
 20
121.4219386711
 10
160.7947510067
 20
121.4198472903
 10
160.8149640175
 20
121.4171609743
 10
160.8351404672
 20
121.4138825767
 10
160.8552535494
 20
121.4100156172
 10
160.8752764578
 20
121.4055636154
 10
160.8951823858
 20
121.400530091
 10
160.9149445271
 20
121.3949185637
 10
160.9345360751
 20
121.3887325532
 10
160.9539302235
 20
121.381975579
 10
160.9731025508
 20
121.3746519235
 10
160.9920381754
 20
121.3667689186
 10
161.0107246006
 20
121.358334659
 10
161.0291493298
 20
121.3493572391
 10
161.0472998664
 20
121.3398447535
 10
161.0651637136
 20
121.3298052968
 10
161.0827283748
 20
121.3192469635
 10
161.0999813534
 20
121.3081778482
  0
LWPOLYLINE
  5
2F3
100
AcDbEntity
  8
0
100
AcDbPolyline
 62
253
  6
CONTINUOUS
 90
19
 70
0
 10
160.3268794729
 20
92.6682880287
 10
160.1149391313
 20
92.8104053976
 10
159.9047176909
 20
92.9550447042
 10
159.6962457038
 20
93.1021836056
 10
159.4895537225
 20
93.2517997592
 10
159.2846722991
 20
93.4038708219
 10
159.081631986
 20
93.5583744509
 10
158.880462361
 20
93.7152886256
 10
158.6811891035
 20
93.8745926134
 10
158.4838369187
 20
94.0362660039
 10
158.2884305114
 20
94.2002883869
 10
158.0949945868
 20
94.3666393518
 10
157.9035538498
 20
94.5352984884
 10
157.7141335032
 20
94.7062444878
 10
157.5267607405
 20
94.8794524468
 10
157.3414632529
 20
95.0548965639
 10
157.1582687317
 20
95.2325510376
 10
156.9772048682
 20
95.4123900662
 10
156.7982993534
 20
95.5943878482
  0
LWPOLYLINE
  5
2F4
100
AcDbEntity
  8
0
100
AcDbPolyline
 62
253
  6
CONTINUOUS
 90
19
 70
0
 10
160.4892955993
 20
93.2815832119
 10
160.2939454053
 20
93.4152949216
 10
160.1001373155
 20
93.551224961
 10
159.9078969969
 20
93.6893542515
 10
159.7172501168
 20
93.8296637149
 10
159.5282223421
 20
93.9721342726
 10
159.34083934
 20
94.1167468464
 10
159.1551259619
 20
94.2634826478
 10
158.9711037955
 20
94.4123240479
 10
158.788793613
 20
94.563253708
 10
158.6082161864
 20
94.7162542891
 10
158.4293922879
 20
94.8713084525
 10
158.2523426896
 20
95.0283988592
 10
158.0770885926
 20
95.1875074178
 10
157.9036529154
 20
95.3486130257
 10
157.7320590054
 20
95.5116938278
 10
157.56233021
 20
95.6767279691
 10
157.3944898769
 20
95.8436935943
 10
157.2285613534
 20
96.0125688482
  0
LWPOLYLINE
  5
2F5
100
AcDbEntity
  8
0
100
AcDbPolyline
 62
253
  6
CONTINUOUS
 90
19
 70
0
 10
160.420331214
 20
94.3061416554
 10
160.2000544826
 20
94.4676769609
 10
159.9820234382
 20
94.6322095596
 10
159.7662781214
 20
94.7997072225
 10
159.5528585723
 20
94.9701377209
 10
159.3418048313
 20
95.1434688259
 10
159.1331569389
 20
95.3196683086
 10
158.9269543935
 20
95.4987035029
 10
158.7232345262
 20
95.6805399929
 10
158.5220341263
 20
95.8651429255
 10
158.3233899831
 20
96.0524774476
 10
158.127338886
 20
96.2425087061
 10
157.9339176243
 20
96.4352018477
 10
157.7431625731
 20
96.6305214657
 10
157.5551084513
 20
96.8284299377
 10
157.3697895636
 20
97.0288890879
 10
157.1872402149
 20
97.2318607404
 10
157.0074947099
 20
97.4373067191
 10
156.8305873534
 20
97.6451888482
  0
LWPOLYLINE
  5
2F6
100
AcDbEntity
  8
0
100
AcDbPolyline
 62
253
  6
CONTINUOUS
 90
81
 70
0
 10
156.7982988536
 20
95.5943873625
 10
156.7903085918
 20
95.6029374405
 10
156.782653508
 20
95.611799462
 10
156.7753441828
 20
95.6209608611
 10
156.7683911967
 20
95.6304090718
 10
156.7618051303
 20
95.6401315281
 10
156.7555965641
 20
95.6501156643
 10
156.7497760786
 20
95.6603489143
 10
156.7443542544
 20
95.6708187123
 10
156.7393415565
 20
95.6815111763
 10
156.7347479889
 20
95.6924071603
 10
156.7305834398
 20
95.7034862025
 10
156.7268577978
 20
95.7147278408
 10
156.7235799526
 20
95.7261101726
 10
156.7207547992
 20
95.7376055332
 10
156.718386234
 20
95.749184817
 10
156.7164781533
 20
95.7608189187
 10
156.7150333394
 20
95.7724822646
 10
156.7140501182
 20
95.7841634089
 10
156.7135257016
 20
95.7958544377
 10
156.7134573015
 20
95.8075474371
 10
156.7138430305
 20
95.8192345265
 10
156.7146846047
 20
95.8309079597
 10
156.7159846413
 20
95.8425600234
 10
156.7177457571
 20
95.8541830049
 10
156.7199694668
 20
95.8657656691
 10
156.7226528758
 20
95.877282693
 10
156.725791987
 20
95.8887052314
 10
156.7293828034
 20
95.9000044392
 10
156.7334197122
 20
95.9111522394
 10
156.737890638
 20
95.9221236269
 10
156.7427818895
 20
95.9328943646
 10
156.7480797755
 20
95.9434402154
 10
156.7537717261
 20
95.9537399934
 10
156.7598496572
 20
95.9637847169
 10
156.7663066056
 20
95.9735684555
 10
156.7731356085
 20
95.9830852785
 10
156.7803298369
 20
95.9923285387
 10
156.7878829969
 20
96.0012887215
 10
156.7957889288
 20
96.0099555954
 10
156.8040414727
 20
96.0183189292
 10
156.8126325646
 20
96.0263673808
 10
156.8215465234
 20
96.0340851658
 10
156.8307657639
 20
96.0414553891
 10
156.8402727009
 20
96.0484611554
 10
156.850049542
 20
96.055086703
 10
156.8600776667
 20
96.0613208027
 10
156.8703382474
 20
96.0671533586
 10
156.8808124563
 20
96.0725742748
 10
156.8914821786
 20
96.077574365
 10
156.9023321508
 20
96.0821480816
 10
156.9133478221
 20
96.0862907863
 10
156.9245146418
 20
96.0899978412
 10
156.9358180591
 20
96.0932646081
 10
156.9472435233
 20
96.096086449
 10
156.9587764836
 20
96.0984587257
 10
156.9704023893
 20
96.1003768003
 10
156.9821059884
 20
96.1018365426
 10
156.9938692242
 20
96.1028358547
 10
157.005673339
 20
96.1033731467
 10
157.0174995747
 20
96.1034468286
 10
157.0293291735
 20
96.1030553107
 10
157.0411433776
 20
96.1021970029
 10
157.052923429
 20
96.1008703154
 10
157.0646505699
 20
96.0990736582
 10
157.0763055182
 20
96.0968071864
 10
157.0878668945
 20
96.0940780348
 10
157.0993127954
 20
96.0908950833
 10
157.1106213175
 20
96.0872672115
 10
157.1217705572
 20
96.0832032994
 10
157.1327386111
 20
96.0787122266
 10
157.1435035756
 20
96.073802873
 10
157.1540435472
 20
96.0684841183
 10
157.1643384316
 20
96.0627654432
 10
157.1743753699
 20
96.0566587317
 10
157.1841433126
 20
96.0501764686
 10
157.19363121
 20
96.0433311387
 10
157.2028280124
 20
96.0361352269
 10
157.2117226702
 20
96.028601218
 10
157.2203041338
 20
96.0207415968
 10
157.2285613534
 20
96.0125688482
  0
LINE
  5
2F7
100
AcDbEntity
  8
0
100
AcDbLine
 62
253
  6
CONTINUOUS
 10
138.4838545429
 20
128.6472189706
 11
138.5507638563
 21
128.5133085211
  0
LINE
  5
2F8
100
AcDbEntity
  8
ASSI
100
AcDbLine
 62
253
  6
CONTINUOUS
 10
138.4838545429
 20
128.6472189706
 11
138.5507638563
 21
128.5133085211
  0
LINE
  5
2F9
100
AcDbEntity
  8
0
100
AcDbLine
 62
253
  6
CONTINUOUS
 10
139.0505925168
 20
84.9638424042
 11
138.9844809645
 21
84.8315285716
  0
LINE
  5
2FA
100
AcDbEntity
  8
ASSI
100
AcDbLine
 62
253
  6
CONTINUOUS
 10
139.0505925168
 20
84.9638424042
 11
138.9844809645
 21
84.8315285716
  0
LWPOLYLINE
  5
2FB
100
AcDbEntity
  8
0
100
AcDbPolyline
 62
253
  6
CONTINUOUS
 90
19
 70
0
 10
156.8305875357
 20
116.3312766953
 10
157.0075029946
 20
116.5391681533
 10
157.1872556931
 20
116.7446218685
 10
157.3698110517
 20
116.9475995496
 10
157.5551344911
 20
117.1480629055
 10
157.7431914319
 20
117.3459736451
 10
157.9339472948
 20
117.5412934772
 10
158.1273672274
 20
117.7339847791
 10
158.3234152857
 20
117.9240126018
 10
158.5220552525
 20
118.1113426649
 10
158.7232509108
 20
118.295940688
 10
158.9269660434
 20
118.4777723905
 10
159.1331644333
 20
118.656803492
 10
159.3418091984
 20
118.833000018
 10
159.5528607958
 20
119.0063292174
 10
159.7662790178
 20
119.1767586452
 10
159.9820236566
 20
119.3442558563
 10
160.2000545044
 20
119.5087884057
 10
160.4203313534
 20
119.6703238482
  0
LWPOLYLINE
  5
2FC
100
AcDbEntity
  8
0
100
AcDbPolyline
 62
253
  6
CONTINUOUS
 90
19
 70
0
 10
157.5738929041
 20
116.2756933645
 10
157.7284596494
 20
116.4495115415
 10
157.8851009775
 20
116.6214532209
 10
158.0437926083
 20
116.791493373
 10
158.2045102615
 20
116.959606968
 10
158.3672296571
 20
117.1257689761
 10
158.5319265148
 20
117.2899543677
 10
158.6985769591
 20
117.4521389559
 10
158.8671587329
 20
117.6123019258
 10
159.0376499838
 20
117.7704233055
 10
159.2100288593
 20
117.926483123
 10
159.3842735069
 20
118.0804614065
 10
159.5603620742
 20
118.232338184
 10
159.7382718351
 20
118.3820931551
 10
159.9179765691
 20
118.5297047056
 10
160.099449182
 20
118.6751508928
 10
160.2826625798
 20
118.818409774
 10
160.4675896683
 20
118.9594594068
 10
160.6542033534
 20
119.0982778482
  0
LWPOLYLINE
  5
2FD
100
AcDbEntity
  8
0
100
AcDbPolyline
 62
253
  6
CONTINUOUS
 90
43
 70
0
 10
160.6542033534
 20
119.0982778482
 10
160.6566967958
 20
119.1000515342
 10
160.6592418375
 20
119.1017456377
 10
160.6618356714
 20
119.1033592854
 10
160.6644754906
 20
119.1048916042
 10
160.6671584882
 20
119.1063417209
 10
160.6698818571
 20
119.1077087623
 10
160.6726427905
 20
119.1089918551
 10
160.6754384812
 20
119.1101901262
 10
160.6782661224
 20
119.1113027023
 10
160.6811229071
 20
119.1123287103
 10
160.6840060283
 20
119.1132672769
 10
160.686912679
 20
119.114117529
 10
160.6898400522
 20
119.1148785932
 10
160.692785341
 20
119.1155495966
 10
160.6957458137
 20
119.1161298309
 10
160.6987190395
 20
119.1166192488
 10
160.7017026631
 20
119.1170179681
 10
160.7046943289
 20
119.1173261067
 10
160.7076916816
 20
119.1175437822
 10
160.7106923656
 20
119.1176711125
 10
160.7136940256
 20
119.1177082154
 10
160.7166943061
 20
119.1176552087
 10
160.7196908516
 20
119.1175122101
 10
160.7226813067
 20
119.1172793375
 10
160.725663316
 20
119.1169567086
 10
160.728634524
 20
119.1165444412
 10
160.7315925753
 20
119.1160426532
 10
160.7345351144
 20
119.1154514624
 10
160.7374597402
 20
119.1147711411
 10
160.7403638685
 20
119.1140025805
 10
160.7432448696
 20
119.1131468263
 10
160.7461001136
 20
119.1122049244
 10
160.7489269707
 20
119.1111779205
 10
160.7517228111
 20
119.1100668604
 10
160.7544850049
 20
119.1088727898
 10
160.7572109224
 20
119.1075967546
 10
160.7598979337
 20
119.1062398004
 10
160.7625434089
 20
119.1048029732
 10
160.7651447184
 20
119.1032873185
 10
160.7676992321
 20
119.1016938823
 10
160.7702043204
 20
119.1000237103
 10
160.7726573534
 20
119.0982778482
  0
LINE
  5
2FE
100
AcDbEntity
  8
0
100
AcDbLine
 62
253
  6
CONTINUOUS
 10
138.4642461515
 20
107.688137666
 11
138.5799357527
 21
107.7266930345
  0
LINE
  5
2FF
100
AcDbEntity
  8
ASSI
100
AcDbLine
 62
253
  6
CONTINUOUS
 10
138.4642461515
 20
107.688137666
 11
138.5799357527
 21
107.7266930345
  0
LINE
  5
300
100
AcDbEntity
  8
0
100
AcDbLine
 62
253
  6
CONTINUOUS
 10
157.6489983534
 20
97.8667861246
 11
159.9234303534
 21
97.8668042916
  0
LINE
  5
301
100
AcDbEntity
  8
0
100
AcDbLine
 62
253
  6
CONTINUOUS
 10
161.5034303534
 20
97.8668042914
 11
163.7778623534
 21
97.8667861244
  0
LINE
  5
302
100
AcDbEntity
  8
0
100
AcDbLine
 62
253
  6
CONTINUOUS
 10
164.2134303534
 20
98.4667839468
 11
161.5034303534
 21
98.4668058173
  0
LINE
  5
303
100
AcDbEntity
  8
0
100
AcDbLine
 62
253
  6
CONTINUOUS
 10
159.9234303534
 20
98.4668058169
 11
157.2134303534
 21
98.4667839465
  0
LWPOLYLINE
  5
304
100
AcDbEntity
  8
0
100
AcDbPolyline
 62
253
  6
CONTINUOUS
 90
51
 70
0
 10
161.5034303534
 20
97.8667968482
 10
161.494354145
 20
97.8669390759
 10
161.4852836969
 20
97.8673654698
 10
161.4762273302
 20
97.8680755961
 10
161.4671933665
 20
97.8690690209
 10
161.4581901269
 20
97.8703453103
 10
161.4492259327
 20
97.8719040306
 10
161.4403091053
 20
97.8737447478
 10
161.4314479659
 20
97.8758670282
 10
161.422650836
 20
97.8782704379
 10
161.4139260367
 20
97.8809545431
 10
161.4052821964
 20
97.8839180834
 10
161.3967291718
 20
97.887156492
 10
161.3882771265
 20
97.8906643755
 10
161.3799362241
 20
97.8944363408
 10
161.3717166284
 20
97.8984669944
 10
161.3636285031
 20
97.9027509431
 10
161.3556820117
 20
97.9072827936
 10
161.347887318
 20
97.9120571524
 10
161.3402545856
 20
97.9170686264
 10
161.3327939781
 20
97.9223118222
 10
161.3255145731
 20
97.9277813278
 10
161.3184211032
 20
97.9334716567
 10
161.3115172146
 20
97.9393773035
 10
161.3048065538
 20
97.9454927631
 10
161.298292767
 20
97.9518125302
 10
161.2919796034
 20
97.9583315244
 10
161.2858712225
 20
97.9650463651
 10
161.2799718867
 20
97.9719540963
 10
161.2742858583
 20
97.9790517624
 10
161.2688173996
 20
97.9863364074
 10
161.263571341
 20
97.9938037564
 10
161.2585547855
 20
98.0014442579
 10
161.2537754041
 20
98.009247041
 10
161.2492408681
 20
98.0172012352
 10
161.2449588484
 20
98.0252959695
 10
161.2409363278
 20
98.0335204418
 10
161.2371775352
 20
98.0418641238
 10
161.233686011
 20
98.0503165554
 10
161.2304652957
 20
98.0588672767
 10
161.2275189298
 20
98.0675058279
 10
161.2248499607
 20
98.0762221251
 10
161.2224594637
 20
98.0850075885
 10
161.220348021
 20
98.0938540147
 10
161.218516215
 20
98.1027531999
 10
161.2169646278
 20
98.1116969405
 10
161.2156938417
 20
98.120677033
 10
161.214704439
 20
98.1296852736
 10
161.2139970018
 20
98.1387134587
 10
161.2135721126
 20
98.1477533848
 10
161.2134303534
 20
98.1567968482
  0
LWPOLYLINE
  5
305
100
AcDbEntity
  8
0
100
AcDbPolyline
 62
253
  6
CONTINUOUS
 90
51
 70
0
 10
159.9234303534
 20
98.4667968482
 10
159.9325066816
 20
98.4666546171
 10
159.9415772452
 20
98.4662282129
 10
159.9506337229
 20
98.4655180698
 10
159.9596677934
 20
98.4645246215
 10
159.9686711354
 20
98.4632483022
 10
159.9776354278
 20
98.4616895457
 10
159.9865523492
 20
98.459848786
 10
159.9954135783
 20
98.4577264571
 10
160.004210794
 20
98.4553229929
 10
160.0129356748
 20
98.4526388274
 10
160.0215795924
 20
98.4496752212
 10
160.0301326894
 20
98.4464367422
 10
160.0385848013
 20
98.4429287847
 10
160.0469257636
 20
98.4391567431
 10
160.0551454118
 20
98.4351260118
 10
160.0632335814
 20
98.4308419853
 10
160.0711801079
 20
98.426310058
 10
160.0789748267
 20
98.4215356244
 10
160.0866075734
 20
98.4165240788
 10
160.0940681835
 20
98.4112808156
 10
160.1013475789
 20
98.4058112479
 10
160.1084410285
 20
98.4001208623
 10
160.1153448872
 20
98.3942151642
 10
160.1220555104
 20
98.388099659
 10
160.1285692533
 20
98.3817798518
 10
160.1348823681
 20
98.3752608234
 10
160.1409906953
 20
98.3685459554
 10
160.1468899723
 20
98.3616382053
 10
160.1525759368
 20
98.35454053
 10
160.1580443262
 20
98.3472558867
 10
160.1632903102
 20
98.3397885514
 10
160.1683067872
 20
98.3321480752
 10
160.1730860879
 20
98.324345328
 10
160.1776205429
 20
98.3163911795
 10
160.1819024829
 20
98.3082964996
 10
160.1859249265
 20
98.3000720896
 10
160.1896836458
 20
98.2917284765
 10
160.1931751008
 20
98.2832761183
 10
160.1963957515
 20
98.2747254735
 10
160.199342058
 20
98.2660870003
 10
160.2020109735
 20
98.2573707813
 10
160.2044014225
 20
98.2485853964
 10
160.206512823
 20
98.2397390497
 10
160.2083445925
 20
98.2308399456
 10
160.2098961489
 20
98.2218962881
 10
160.2111669098
 20
98.2129162816
 10
160.212156293
 20
98.2039081301
 10
160.2128637162
 20
98.1948800379
 10
160.2132885971
 20
98.1858402092
 10
160.2134303534
 20
98.1767968482
  0
LWPOLYLINE
  5
306
100
AcDbEntity
  8
0
100
AcDbPolyline
 62
253
  6
CONTINUOUS
 90
67
 70
0
 10
164.2134303534
 20
98.4667973165
 10
164.2306193191
 20
98.4665010439
 10
164.2477880641
 20
98.4656136104
 10
164.2649163667
 20
98.4641370924
 10
164.2819840054
 20
98.4620735664
 10
164.2989707584
 20
98.4594251088
 10
164.3158564042
 20
98.4561937959
 10
164.3326208495
 20
98.4523823937
 10
164.3492445144
 20
98.4479964253
 10
164.3657079472
 20
98.4430421033
 10
164.3819916964
 20
98.4375256401
 10
164.3980763102
 20
98.4314532482
 10
164.4139423371
 20
98.4248311403
 10
164.4295706169
 20
98.4176661685
 10
164.4449431552
 20
98.4099677432
 10
164.4600422492
 20
98.4017459146
 10
164.4748501959
 20
98.3930107328
 10
164.4893492924
 20
98.3837722479
 10
164.5035218359
 20
98.3740405101
 10
164.5173505279
 20
98.3638261372
 10
164.530819688
 20
98.3531420181
 10
164.5439140404
 20
98.3420016098
 10
164.5566183093
 20
98.330418369
 10
164.5689172189
 20
98.3184057524
 10
164.5807954931
 20
98.3059772168
 10
164.5922383691
 20
98.2931466935
 10
164.6032331349
 20
98.2799300115
 10
164.6137675914
 20
98.2663434744
 10
164.6238295394
 20
98.2524033856
 10
164.6334067799
 20
98.2381260488
 10
164.6424871136
 20
98.2235277673
 10
164.651058941
 20
98.208625204
 10
164.6591130596
 20
98.1934364579
 10
164.6666408665
 20
98.1779799873
 10
164.6736337588
 20
98.1622742505
 10
164.6800831334
 20
98.1463377057
 10
164.6859803875
 20
98.1301888113
 10
164.691317579
 20
98.1138462556
 10
164.6960894088
 20
98.0973296485
 10
164.7002912391
 20
98.0806588297
 10
164.7039184318
 20
98.0638536393
 10
164.7069663489
 20
98.0469339171
 10
164.7094303522
 20
98.029919503
 10
164.7113064982
 20
98.0128303227
 10
164.7125936208
 20
97.995686645
 10
164.7132912485
 20
97.9785088246
 10
164.7133989095
 20
97.9613172159
 10
164.7129161323
 20
97.9441321736
 10
164.7118424452
 20
97.9269740523
 10
164.7101780712
 20
97.9098631483
 10
164.707926012
 20
97.8928195254
 10
164.7050899638
 20
97.8758631891
 10
164.7016736229
 20
97.859014145
 10
164.6976806856
 20
97.8422923986
 10
164.693114848
 20
97.8257179555
 10
164.687980476
 20
97.8093106267
 10
164.6822846134
 20
97.7930894459
 10
164.6760349733
 20
97.7770732521
 10
164.669239269
 20
97.7612808846
 10
164.6619052137
 20
97.7457311824
 10
164.6540405207
 20
97.7304429847
 10
164.6456535163
 20
97.7154347994
 10
164.6367549797
 20
97.7007238098
 10
164.6273563029
 20
97.6863268679
 10
164.6174688781
 20
97.6722608257
 10
164.6071040976
 20
97.6585425351
 10
164.5962733534
 20
97.6451888482
  0
LWPOLYLINE
  5
307
100
AcDbEntity
  8
0
100
AcDbPolyline
 62
253
  6
CONTINUOUS
 90
61
 70
0
 10
163.7778623534
 20
97.8667979075
 10
163.7816873411
 20
97.8667242482
 10
163.7855064497
 20
97.866503869
 10
163.7893142668
 20
97.8661376683
 10
163.7931053799
 20
97.8656265443
 10
163.7968743767
 20
97.8649713952
 10
163.8006158448
 20
97.8641731194
 10
163.8043243716
 20
97.863232615
 10
163.8079945447
 20
97.8621507804
 10
163.8116209517
 20
97.8609285138
 10
163.8151981802
 20
97.8595667135
 10
163.8187208793
 20
97.8580667227
 10
163.822183944
 20
97.856431665
 10
163.8255823308
 20
97.8546651086
 10
163.8289109964
 20
97.8527706221
 10
163.8321648973
 20
97.850751774
 10
163.83533899
 20
97.8486121326
 10
163.8384282313
 20
97.8463552663
 10
163.8414275775
 20
97.8439847438
 10
163.8443319853
 20
97.8415041333
 10
163.8471364113
 20
97.8389170033
 10
163.8498362059
 20
97.8362269821
 10
163.8524282951
 20
97.8334379371
 10
163.8549099988
 20
97.8305537956
 10
163.857278637
 20
97.8275784848
 10
163.8595315294
 20
97.8245159321
 10
163.861665996
 20
97.8213700645
 10
163.8636793567
 20
97.8181448095
 10
163.8655689313
 20
97.8148440941
 10
163.8673320398
 20
97.8114718458
 10
163.8689660021
 20
97.8080319918
 10
163.8704682972
 20
97.804528748
 10
163.8718370411
 20
97.8009674858
 10
163.8730705089
 20
97.7973538651
 10
163.8741669756
 20
97.7936935459
 10
163.8751247165
 20
97.7899921882
 10
163.8759420066
 20
97.7862554521
 10
163.8766171211
 20
97.7824889975
 10
163.877148335
 20
97.7786984845
 10
163.8775339235
 20
97.7748895731
 10
163.8777721617
 20
97.7710679232
 10
163.8778617885
 20
97.7672392347
 10
163.8778033979
 20
97.7634093668
 10
163.8775980479
 20
97.7595842184
 10
163.8772467963
 20
97.7557696886
 10
163.876750701
 20
97.7519716764
 10
163.8761108197
 20
97.7481960806
 10
163.8753282104
 20
97.7444488004
 10
163.874403931
 20
97.7407357346
 10
163.8733390393
 20
97.7370627824
 10
163.8721345931
 20
97.7334358426
 10
163.8707919713
 20
97.7298605913
 10
163.8693138367
 20
97.726341812
 10
163.8677031731
 20
97.7228840654
 10
163.8659629642
 20
97.7194919122
 10
163.8640961939
 20
97.716169913
 10
163.862105846
 20
97.7129226284
 10
163.8599949042
 20
97.709754619
 10
163.8577663523
 20
97.7066704454
 10
163.8554231741
 20
97.7036746683
 10
163.8529683534
 20
97.7007718482
  0
LINE
  5
308
100
AcDbEntity
  8
0
100
AcDbLine
 62
253
  6
CONTINUOUS
 10
138.5799357509
 20
106.2497726626
 11
138.4642461515
 21
106.2883280304
  0
LINE
  5
309
100
AcDbEntity
  8
ASSI
100
AcDbLine
 62
253
  6
CONTINUOUS
 10
138.5799357509
 20
106.2497726626
 11
138.4642461515
 21
106.2883280304
  0
LWPOLYLINE
  5
30A
100
AcDbEntity
  8
0
100
AcDbPolyline
 62
253
  6
CONTINUOUS
 90
19
 70
0
 10
160.6542029195
 20
94.8781872575
 10
160.4675959557
 20
95.0170005913
 10
160.2826743815
 20
95.1580457486
 10
160.0994651341
 20
95.3013010316
 10
159.9179951512
 20
95.4467447423
 10
159.7382913701
 20
95.5943551827
 10
159.5603807284
 20
95.7441106548
 10
159.3842894186
 20
95.8959896562
 10
159.2100406534
 20
96.0499714672
 10
159.0376569008
 20
96.2060355638
 10
158.8671606286
 20
96.3641614218
 10
158.6985743048
 20
96.5243285171
 10
158.5319203972
 20
96.6865163256
 10
158.3672216351
 20
96.8507035967
 10
158.2045017933
 20
97.0168661729
 10
158.043784908
 20
97.1849791701
 10
157.8850950154
 20
97.3550177045
 10
157.7284561519
 20
97.5269568919
 10
157.5738923534
 20
97.7007718482
  0
LWPOLYLINE
  5
30B
100
AcDbEntity
  8
0
100
AcDbPolyline
 62
253
  6
CONTINUOUS
 90
61
 70
0
 10
157.573893149
 20
97.7007725476
 10
157.5714226637
 20
97.7036944142
 10
157.5690663001
 20
97.7067087446
 10
157.5668269569
 20
97.7098108835
 10
157.5647075329
 20
97.7129961755
 10
157.5627109266
 20
97.7162599651
 10
157.5608400367
 20
97.719597597
 10
157.5590977619
 20
97.7230044157
 10
157.5574870009
 20
97.7264757659
 10
157.5560106523
 20
97.7300069921
 10
157.5546716148
 20
97.733593439
 10
157.5534724123
 20
97.7372302013
 10
157.5524140694
 20
97.7409113746
 10
157.5514972362
 20
97.7446308045
 10
157.5507225626
 20
97.7483823368
 10
157.5500906985
 20
97.7521598172
 10
157.5496022938
 20
97.7559570914
 10
157.5492579986
 20
97.7597680052
 10
157.5490584627
 20
97.7635864042
 10
157.5490043361
 20
97.7674061341
 10
157.5490962688
 20
97.7712210408
 10
157.5493346041
 20
97.7750252277
 10
157.5497184597
 20
97.77881383
 10
157.5502466466
 20
97.7825822407
 10
157.5509179757
 20
97.7863258528
 10
157.5517312583
 20
97.7900400594
 10
157.5526853052
 20
97.7937202534
 10
157.5537789276
 20
97.7973618279
 10
157.5550109364
 20
97.8009601759
 10
157.5563801428
 20
97.8045106903
 10
157.5578853577
 20
97.8080087642
 10
157.5595250714
 20
97.8114497211
 10
157.5612964904
 20
97.8148286063
 10
157.5631965005
 20
97.8181403957
 10
157.5652219874
 20
97.8213800651
 10
157.5673698368
 20
97.8245425904
 10
157.5696369345
 20
97.8276229474
 10
157.5720201661
 20
97.8306161119
 10
157.5745164174
 20
97.8335170598
 10
157.5771225742
 20
97.8363207669
 10
157.5798355221
 20
97.8390222092
 10
157.5826518117
 20
97.8416166836
 10
157.5855666532
 20
97.8441007729
 10
157.5885749214
 20
97.8464713809
 10
157.5916714912
 20
97.8487254115
 10
157.5948512376
 20
97.8508597686
 10
157.5981090354
 20
97.8528713561
 10
157.6014397596
 20
97.8547570779
 10
157.6048382851
 20
97.856513838
 10
157.6082994869
 20
97.8581385402
 10
157.6118182397
 20
97.8596280884
 10
157.6153893734
 20
97.8609797744
 10
157.6190075368
 20
97.8621924415
 10
157.6226673336
 20
97.8632653211
 10
157.6263633674
 20
97.8641976442
 10
157.6300902419
 20
97.8649886423
 10
157.6338425608
 20
97.8656375464
 10
157.6376149277
 20
97.8661435878
 10
157.6414019464
 20
97.8665059977
 10
157.6451982204
 20
97.8667240075
 10
157.6489983534
 20
97.8667968482
  0
LWPOLYLINE
  5
30C
100
AcDbEntity
  8
0
100
AcDbPolyline
 62
253
  6
CONTINUOUS
 90
67
 70
0
 10
156.830587712
 20
97.6451891495
 10
156.8197533597
 20
97.6585474435
 10
156.809385276
 20
97.6722706048
 10
156.7994948657
 20
97.6863417709
 10
156.7900935334
 20
97.7007440789
 10
156.7811926839
 20
97.7154606663
 10
156.772803722
 20
97.7304746705
 10
156.7649374394
 20
97.7457688933
 10
156.7576021757
 20
97.7613247949
 10
156.7508056576
 20
97.7771235002
 10
156.7445556119
 20
97.7931461341
 10
156.7388597651
 20
97.8093738212
 10
156.7337258441
 20
97.8257876864
 10
156.7291609027
 20
97.8423686613
 10
156.7251693035
 20
97.8590969046
 10
156.7217547366
 20
97.8759523817
 10
156.7189208919
 20
97.8929150582
 10
156.7166714592
 20
97.9099648996
 10
156.7150101285
 20
97.9270818712
 10
156.7139398938
 20
97.9442458806
 10
156.7134609652
 20
97.961436603
 10
156.7135728569
 20
97.9786336559
 10
156.7142750831
 20
97.9958166566
 10
156.715567158
 20
98.0129652223
 10
156.7174485958
 20
98.0300589703
 10
156.7199182133
 20
98.0470776082
 10
156.7229720377
 20
98.0640012038
 10
156.7266053987
 20
98.0808099151
 10
156.7308136261
 20
98.0974839002
 10
156.7355920496
 20
98.1140033169
 10
156.740935999
 20
98.1303483234
 10
156.7468401568
 20
98.1464993121
 10
156.753296616
 20
98.162437613
 10
156.7602968227
 20
98.1781447905
 10
156.7678322224
 20
98.193602409
 10
156.7758942612
 20
98.208792033
 10
156.7844743848
 20
98.223695227
 10
156.7935633966
 20
98.2382938979
 10
156.8031495299
 20
98.2525713226
 10
156.8132203753
 20
98.2665111209
 10
156.8237635236
 20
98.2800969122
 10
156.8347665657
 20
98.293312316
 10
156.8462170922
 20
98.306140952
 10
156.8581023461
 20
98.3185669723
 10
156.8704081798
 20
98.33057666
 10
156.8831200977
 20
98.3421568307
 10
156.8962236043
 20
98.3532943001
 10
156.9097042041
 20
98.3639758837
 10
156.9235474016
 20
98.3741883973
 10
156.9377377684
 20
98.3839190388
 10
156.9522561435
 20
98.3931565349
 10
156.9670824333
 20
98.4018899946
 10
156.982196544
 20
98.4101085271
 10
156.9975783817
 20
98.4178012412
 10
157.0132078526
 20
98.4249572461
 10
157.0290653214
 20
98.4315666374
 10
157.0451329864
 20
98.4376234578
 10
157.0613935042
 20
98.4431227364
 10
157.0778295317
 20
98.4480595026
 10
157.0944237255
 20
98.4524287857
 10
157.1111587424
 20
98.4562256148
 10
157.1280166624
 20
98.4594454367
 10
157.1449772591
 20
98.4620853674
 10
157.1620197296
 20
98.4641429405
 10
157.1791232708
 20
98.4656156893
 10
157.1962670798
 20
98.4665011474
 10
157.2134303534
 20
98.4667968482
  0
LINE
  5
30D
100
AcDbEntity
  8
0
100
AcDbLine
 62
253
  6
CONTINUOUS
 10
138.9844809645
 20
129.1449371249
 11
139.0505925187
 21
129.0126232884
  0
LINE
  5
30E
100
AcDbEntity
  8
ASSI
100
AcDbLine
 62
253
  6
CONTINUOUS
 10
138.9844809645
 20
129.1449371249
 11
139.0505925187
 21
129.0126232884
  0
LINE
  5
30F
100
AcDbEntity
  8
0
100
AcDbLine
 62
253
  6
CONTINUOUS
 10
138.9643032915
 20
107.1882328482
 11
139.0797644152
 21
107.226712073
  0
LINE
  5
310
100
AcDbEntity
  8
ASSI
100
AcDbLine
 62
253
  6
CONTINUOUS
 10
138.9643032915
 20
107.1882328482
 11
139.0797644152
 21
107.226712073
  0
LWPOLYLINE
  5
311
100
AcDbEntity
  8
SUPERFICI
100
AcDbPolyline
 62
7
  6
CONTINUOUS
 90
46
 70
0
 10
162.9635730801
 20
101.506580513
 10
163.0322484417
 20
101.5090074263
 10
163.1000476284
 20
101.5161138293
 10
163.16697064
 20
101.5278997271
 10
163.2333638942
 20
101.5444617311
 10
163.2988809734
 20
101.5657032464
 10
163.3624826245
 20
101.5913344719
 10
163.4241490027
 20
101.6214564053
 10
163.4838999528
 20
101.6559680765
 10
163.5407557557
 20
101.6942767322
 10
163.5945898732
 20
101.7363707238
 10
163.6455288434
 20
101.7822617316
 10
163.692972562
 20
101.8313919925
 10
163.7369499039
 20
101.883902231
 10
163.7774319942
 20
101.9396517543
 10
163.8137321024
 20
101.9976606657
 10
163.8457188725
 20
102.0578158711
 10
163.8735236607
 20
102.1202304862
 10
163.8968538055
 20
102.1842639206
 10
163.915702988
 20
102.2501184722
 10
163.9300775271
 20
102.3175918581
 10
163.9397037187
 20
102.3854366049
 10
163.9444915207
 20
102.4534799023
 10
163.9445309752
 20
102.521894558
 10
163.9398185043
 20
102.5899515142
 10
163.9302666162
 20
102.6578190654
 10
163.9159628027
 20
102.7253289071
 10
163.8971659603
 20
102.7912470721
 10
163.8738527018
 20
102.8553984808
 10
163.8460464143
 20
102.91795819
 10
163.8140761557
 20
102.9782174289
 10
163.7778395917
 20
103.0362423799
 10
163.7374390565
 20
103.0919668358
 10
163.6935106099
 20
103.1444834351
 10
163.6460475498
 20
103.1936936997
 10
163.5950565784
 20
103.2396960812
 10
163.5411938617
 20
103.2818786092
 10
163.4843739374
 20
103.3202230034
 10
163.4246822678
 20
103.3547475215
 10
163.3630314061
 20
103.3848950001
 10
163.299372441
 20
103.4105845899
 10
163.2337542837
 20
103.431897124
 10
163.1672362215
 20
103.4485179633
 10
163.10017135
 20
103.4603422257
 10
163.0322065736
 20
103.4674747858
 10
162.9633418921
 20
103.4699156421
  0
LINE
  5
312
100
AcDbEntity
  8
SUPERFICI
100
AcDbLine
 62
7
  6
CONTINUOUS
 10
158.4632877446
 20
101.506580513
 11
162.9635730801
 21
101.506580513
  0
LINE
  5
313
100
AcDbEntity
  8
0
100
AcDbLine
 62
7
  6
CONTINUOUS
 10
162.9634425258
 20
101.5065668317
 11
158.4634181626
 21
101.506580512
  0
LINE
  5
314
100
AcDbEntity
  8
ASSI
100
AcDbLine
 62
7
  6
CONTINUOUS
 10
162.9634425258
 20
101.5065668317
 11
158.4634181626
 21
101.506580512
  0
LWPOLYLINE
  5
315
100
AcDbEntity
  8
0
100
AcDbPolyline
 62
7
  6
CONTINUOUS
 90
40
 70
0
 10
158.4634181626
 20
101.506580512
 10
158.3841278641
 20
101.5098804877
 10
158.3063243496
 20
101.5192608846
 10
158.2300076191
 20
101.534721711
 10
158.1547461153
 20
101.556410448
 10
158.0809713956
 20
101.5841796424
 10
158.0099781319
 20
101.6175869054
 10
157.9417245737
 20
101.6567869673
 10
157.8762524716
 20
101.701625143
 10
157.8149817494
 20
101.7511949193
 10
157.758089172
 20
101.8055067295
 10
157.7053979745
 20
101.8645501893
 10
157.6577977866
 20
101.9273875509
 10
157.6152790946
 20
101.9942274958
 10
157.5778514122
 20
102.064861387
 10
157.5464329096
 20
102.137725483
 10
157.5212169592
 20
102.2127266273
 10
157.5020101886
 20
102.2899579991
 10
157.489150651
 20
102.3681353407
 10
157.4827475792
 20
102.4474498853
 10
157.4826917403
 20
102.5277104041
 10
157.4889934882
 20
102.6070589241
 10
157.5017632939
 20
102.6853103942
 10
157.5208906864
 20
102.7626498428
 10
157.5460546067
 20
102.8377743957
 10
157.5774587516
 20
102.9107788616
 10
157.6148994243
 20
102.981568398
 10
157.6574444752
 20
103.0485556389
 10
157.7050792649
 20
103.1115278716
 10
157.7578184327
 20
103.1706977659
 10
157.8147737478
 20
103.2251160216
 10
157.8761348299
 20
103.2747680321
 10
157.9417120593
 20
103.3196683664
 10
158.0100483446
 20
103.3589114849
 10
158.0810896372
 20
103.3923381173
 10
158.1548899858
 20
103.420107506
 10
158.2301544458
 20
103.4417918819
 10
158.306451369
 20
103.4572486506
 10
158.3842124037
 20
103.4666203933
 10
158.4634375498
 20
103.4699071071
  0
LWPOLYLINE
  5
316
100
AcDbEntity
  8
ASSI
100
AcDbPolyline
 62
7
  6
CONTINUOUS
 90
40
 70
0
 10
158.4634181626
 20
101.506580512
 10
158.3841278641
 20
101.5098804877
 10
158.3063243496
 20
101.5192608846
 10
158.2300076191
 20
101.534721711
 10
158.1547461153
 20
101.556410448
 10
158.0809713956
 20
101.5841796424
 10
158.0099781319
 20
101.6175869054
 10
157.9417245737
 20
101.6567869673
 10
157.8762524716
 20
101.701625143
 10
157.8149817494
 20
101.7511949193
 10
157.758089172
 20
101.8055067295
 10
157.7053979745
 20
101.8645501893
 10
157.6577977866
 20
101.9273875509
 10
157.6152790946
 20
101.9942274958
 10
157.5778514122
 20
102.064861387
 10
157.5464329096
 20
102.137725483
 10
157.5212169592
 20
102.2127266273
 10
157.5020101886
 20
102.2899579991
 10
157.489150651
 20
102.3681353407
 10
157.4827475792
 20
102.4474498853
 10
157.4826917403
 20
102.5277104041
 10
157.4889934882
 20
102.6070589241
 10
157.5017632939
 20
102.6853103942
 10
157.5208906864
 20
102.7626498428
 10
157.5460546067
 20
102.8377743957
 10
157.5774587516
 20
102.9107788616
 10
157.6148994243
 20
102.981568398
 10
157.6574444752
 20
103.0485556389
 10
157.7050792649
 20
103.1115278716
 10
157.7578184327
 20
103.1706977659
 10
157.8147737478
 20
103.2251160216
 10
157.8761348299
 20
103.2747680321
 10
157.9417120593
 20
103.3196683664
 10
158.0100483446
 20
103.3589114849
 10
158.0810896372
 20
103.3923381173
 10
158.1548899858
 20
103.420107506
 10
158.2301544458
 20
103.4417918819
 10
158.306451369
 20
103.4572486506
 10
158.3842124037
 20
103.4666203933
 10
158.4634375498
 20
103.4699071071
  0
LWPOLYLINE
  5
317
100
AcDbEntity
  8
SUPERFICI
100
AcDbPolyline
 62
7
  6
CONTINUOUS
 90
3
 70
0
 10
158.326624983
 20
101.516139202
 10
158.3945179883
 20
101.5090129337
 10
158.4632877446
 20
101.506580513
  0
LINE
  5
318
100
AcDbEntity
  8
0
100
AcDbLine
 62
253
  6
CONTINUOUS
 10
139.0797644144
 20
106.7497536238
 11
138.9643032915
 21
106.7882328482
  0
LINE
  5
319
100
AcDbEntity
  8
ASSI
100
AcDbLine
 62
253
  6
CONTINUOUS
 10
139.0797644144
 20
106.7497536238
 11
138.9643032915
 21
106.7882328482
  0
LWPOLYLINE
  5
31A
100
AcDbEntity
  8
SUPERFICI
100
AcDbPolyline
 62
7
  6
CONTINUOUS
 90
43
 70
0
 10
158.394748375
 20
103.4674802701
 10
158.3268771672
 20
103.4603675391
 10
158.2599053418
 20
103.4485774505
 10
158.1934942327
 20
103.4320142715
 10
158.1279825059
 20
103.4107737424
 10
158.0643861603
 20
103.3851430762
 10
158.0027171727
 20
103.3550203883
 10
157.9429635663
 20
103.3205075795
 10
157.886105409
 20
103.2821975413
 10
157.8322693091
 20
103.2401019098
 10
157.7813286583
 20
103.1942090711
 10
157.7338836995
 20
103.1450770411
 10
157.689905628
 20
103.0925650836
 10
157.6494232486
 20
103.0368139616
 10
157.6131232186
 20
102.9788039366
 10
157.581136987
 20
102.9186482664
 10
157.5533331048
 20
102.8562337173
 10
157.5300038834
 20
102.7922008083
 10
157.5111555993
 20
102.7263474534
 10
157.4967819759
 20
102.6588757614
 10
157.4871564951
 20
102.5910325349
 10
157.4823690589
 20
102.5229904225
 10
157.4823297653
 20
102.4545767857
 10
157.4870423902
 20
102.3865204846
 10
157.4965944796
 20
102.3186530186
 10
157.5108984874
 20
102.2511428911
 10
157.5296955523
 20
102.1852244569
 10
157.553009127
 20
102.1210728112
 10
157.5808157588
 20
102.0585128443
 10
157.6127862278
 20
101.9982535915
 10
157.6490228869
 20
101.9402289266
 10
157.6894233833
 20
101.8845049537
 10
157.7333514379
 20
101.8319890438
 10
157.7808136788
 20
101.7827797117
 10
157.8318034779
 20
101.7367784113
 10
157.885664673
 20
101.694596916
 10
157.9424826212
 20
101.6562534797
 10
158.0021719652
 20
101.6217298165
 10
158.0638204714
 20
101.5915828857
 10
158.1274848654
 20
101.5658926051
 10
158.1931084216
 20
101.5445790294
 10
158.2596087287
 20
101.5279593231
 10
158.326624983
 20
101.516139202
  0
LINE
  5
31B
100
AcDbEntity
  8
SUPERFICI
100
AcDbLine
 62
7
  6
CONTINUOUS
 10
158.4635189652
 20
103.4699156421
 11
158.394748375
 21
103.4674802701
  0
LINE
  5
31C
100
AcDbEntity
  8
SUPERFICI
100
AcDbLine
 62
7
  6
CONTINUOUS
 10
162.9633418921
 20
103.4699156421
 11
158.4635189652
 21
103.4699156421
  0
LINE
  5
31D
100
AcDbEntity
  8
0
100
AcDbLine
 62
7
  6
CONTINUOUS
 10
158.4634375498
 20
103.4699071071
 11
162.963423146
 21
103.4699156424
  0
LINE
  5
31E
100
AcDbEntity
  8
ASSI
100
AcDbLine
 62
7
  6
CONTINUOUS
 10
158.4634375498
 20
103.4699071071
 11
162.963423146
 21
103.4699156424
  0
LWPOLYLINE
  5
31F
100
AcDbEntity
  8
0
100
AcDbPolyline
 62
7
  6
CONTINUOUS
 90
40
 70
0
 10
162.963423146
 20
103.4699156424
 10
163.0427154757
 20
103.4666070884
 10
163.1205207528
 20
103.4572204332
 10
163.1968389773
 20
103.4417556797
 10
163.2721016793
 20
103.420066155
 10
163.3458773287
 20
103.3922985452
 10
163.4168713346
 20
103.3588928955
 10
163.4851254558
 20
103.3196936831
 10
163.5505979336
 20
103.2748564587
 10
163.6118689012
 20
103.2252878786
 10
163.6687615066
 20
103.1709776519
 10
163.7214526018
 20
103.111936107
 10
163.7690528767
 20
103.0491008258
 10
163.8115718946
 20
102.9822632792
 10
163.849000092
 20
102.911632039
 10
163.8804194682
 20
102.8387703305
 10
163.9056367616
 20
102.7637712971
 10
163.9248452337
 20
102.6865418293
 10
163.9377066683
 20
102.6083657584
 10
163.9441119211
 20
102.5290517095
 10
163.9441701365
 20
102.4487910807
 10
163.9378705316
 20
102.3694418432
 10
163.9251025449
 20
102.2911888703
 10
163.905976738
 20
102.2138472848
 10
163.8808140134
 20
102.1387204103
 10
163.8494105653
 20
102.065713374
 10
163.8119701996
 20
101.9949210262
 10
163.7694252351
 20
101.9279312548
 10
163.7217902529
 20
101.864956833
 10
163.6690506721
 20
101.8057849428
 10
163.6120950691
 20
101.7513650691
 10
163.5507338863
 20
101.701711874
 10
163.4851566813
 20
101.6568106461
 10
163.416820704
 20
101.6175668015
 10
163.3457799483
 20
101.5841395981
 10
163.2719804203
 20
101.5563697326
 10
163.1967173873
 20
101.534684778
 10
163.1204226051
 20
101.519227249
 10
163.0426643179
 20
101.5098546029
 10
162.9634425258
 20
101.5065668317
  0
LWPOLYLINE
  5
320
100
AcDbEntity
  8
ASSI
100
AcDbPolyline
 62
7
  6
CONTINUOUS
 90
40
 70
0
 10
162.963423146
 20
103.4699156424
 10
163.0427154757
 20
103.4666070884
 10
163.1205207528
 20
103.4572204332
 10
163.1968389773
 20
103.4417556797
 10
163.2721016793
 20
103.420066155
 10
163.3458773287
 20
103.3922985452
 10
163.4168713346
 20
103.3588928955
 10
163.4851254558
 20
103.3196936831
 10
163.5505979336
 20
103.2748564587
 10
163.6118689012
 20
103.2252878786
 10
163.6687615066
 20
103.1709776519
 10
163.7214526018
 20
103.111936107
 10
163.7690528767
 20
103.0491008258
 10
163.8115718946
 20
102.9822632792
 10
163.849000092
 20
102.911632039
 10
163.8804194682
 20
102.8387703305
 10
163.9056367616
 20
102.7637712971
 10
163.9248452337
 20
102.6865418293
 10
163.9377066683
 20
102.6083657584
 10
163.9441119211
 20
102.5290517095
 10
163.9441701365
 20
102.4487910807
 10
163.9378705316
 20
102.3694418432
 10
163.9251025449
 20
102.2911888703
 10
163.905976738
 20
102.2138472848
 10
163.8808140134
 20
102.1387204103
 10
163.8494105653
 20
102.065713374
 10
163.8119701996
 20
101.9949210262
 10
163.7694252351
 20
101.9279312548
 10
163.7217902529
 20
101.864956833
 10
163.6690506721
 20
101.8057849428
 10
163.6120950691
 20
101.7513650691
 10
163.5507338863
 20
101.701711874
 10
163.4851566813
 20
101.6568106461
 10
163.416820704
 20
101.6175668015
 10
163.3457799483
 20
101.5841395981
 10
163.2719804203
 20
101.5563697326
 10
163.1967173873
 20
101.534684778
 10
163.1204226051
 20
101.519227249
 10
163.0426643179
 20
101.5098546029
 10
162.9634425258
 20
101.5065668317
  0
LINE
  5
321
100
AcDbEntity
  8
0
100
AcDbLine
 62
253
  6
CONTINUOUS
 10
160.2134303534
 20
98.1567968482
 11
160.2134303534
 21
98.1767968482
  0
LINE
  5
322
100
AcDbEntity
  8
0
100
AcDbLine
 62
253
  6
CONTINUOUS
 10
160.2134303534
 20
115.7996688482
 11
160.2134303534
 21
115.8196688482
  0
LWPOLYLINE
  5
323
100
AcDbEntity
  8
0
100
AcDbPolyline
 62
253
  6
CONTINUOUS
 90
51
 70
0
 10
160.2134303534
 20
115.7996688482
 10
160.2132880627
 20
115.7905903749
 10
160.2128614818
 20
115.7815177818
 10
160.212151048
 20
115.7724593849
 10
160.2111571983
 20
115.7634234999
 10
160.2098803699
 20
115.7544184426
 10
160.208321
 20
115.7454525287
 10
160.2064795256
 20
115.7365340741
 10
160.2043563839
 20
115.7276713945
 10
160.2019520121
 20
115.7188728057
 10
160.1992668472
 20
115.7101466234
 10
160.1963021554
 20
115.7015014739
 10
160.1930625191
 20
115.6929472243
 10
160.1895533498
 20
115.6844940523
 10
160.1857800589
 20
115.6761521356
 10
160.1817480577
 20
115.6679316517
 10
160.1774627578
 20
115.6598427784
 10
160.1729295705
 20
115.6518956932
 10
160.1681539073
 20
115.6441005738
 10
160.1631411796
 20
115.6364675977
 10
160.1578967988
 20
115.6290069427
 10
160.1524261922
 20
115.6217276935
 10
160.1467348506
 20
115.6146345633
 10
160.1408282805
 20
115.6077311727
 10
160.1347119885
 20
115.6010211419
 10
160.1283914812
 20
115.5945080915
 10
160.121871843
 20
115.5881957489
 10
160.1151564698
 20
115.5820882701
 10
160.1082483352
 20
115.5761899181
 10
160.1011504128
 20
115.570504956
 10
160.0938656763
 20
115.5650376468
 10
160.086398414
 20
115.5597928175
 10
160.0787581717
 20
115.5547775518
 10
160.07095581
 20
115.5499994972
 10
160.0630021895
 20
115.5454663013
 10
160.0549081705
 20
115.5411856116
 10
160.0466845451
 20
115.5371643899
 10
160.0383418309
 20
115.5334068544
 10
160.0298904767
 20
115.5299165374
 10
160.0213409318
 20
115.5266969711
 10
160.0127036451
 20
115.5237516878
 10
160.0039886921
 20
115.5210837273
 10
159.9952046549
 20
115.5186941582
 10
159.9863597421
 20
115.516583557
 10
159.9774621622
 20
115.5147524997
 10
159.9685201237
 20
115.5132015627
 10
159.9595418353
 20
115.5119313221
 10
159.9505355055
 20
115.5109423541
 10
159.9415093429
 20
115.510235235
 10
159.932471556
 20
115.509810541
 10
159.9234303534
 20
115.5096688482
  0
LWPOLYLINE
  5
324
100
AcDbEntity
  8
0
100
AcDbPolyline
 62
253
  6
CONTINUOUS
 90
51
 70
0
 10
160.2134303534
 20
98.1567968482
 10
160.2132880596
 20
98.1477182605
 10
160.2128614696
 20
98.1386455597
 10
160.2121510207
 20
98.1295870612
 10
160.2111571501
 20
98.1205510802
 10
160.209880295
 20
98.1115459323
 10
160.2083208927
 20
98.1025799327
 10
160.2064793803
 20
98.0936613967
 10
160.2043561952
 20
98.0847986397
 10
160.2019517744
 20
98.0759999772
 10
160.1992665553
 20
98.0672737243
 10
160.1963018043
 20
98.058628507
 10
160.1930621046
 20
98.0500741933
 10
160.1895528687
 20
98.0416209617
 10
160.1857795091
 20
98.0332789908
 10
160.1817474381
 20
98.0250584591
 10
160.1774620682
 20
98.0169695452
 10
160.1729288119
 20
98.0090224275
 10
160.1681530816
 20
98.0012272847
 10
160.1631402898
 20
97.9935942952
 10
160.1578958488
 20
97.9861336376
 10
160.152425187
 20
97.9788543972
 10
160.1467337951
 20
97.971761286
 10
160.1408271797
 20
97.9648579229
 10
160.1347108474
 20
97.9581479267
 10
160.1283903049
 20
97.9516349163
 10
160.1218706366
 20
97.9453226179
 10
160.1151552391
 20
97.9392151872
 10
160.1082470868
 20
97.9333168871
 10
160.1011491542
 20
97.9276319807
 10
160.0938644158
 20
97.9221647311
 10
160.0863971602
 20
97.9169199651
 10
160.0787569332
 20
97.9119047654
 10
160.0709545947
 20
97.9071267783
 10
160.0630010045
 20
97.9025936503
 10
160.0549070227
 20
97.8983130278
 10
160.0466834405
 20
97.8942918714
 10
160.0383407752
 20
97.890534399
 10
160.0298894755
 20
97.8870441423
 10
160.0213399902
 20
97.8838246334
 10
160.0127027678
 20
97.880879404
 10
160.0039878838
 20
97.8782114935
 10
159.9952039201
 20
97.8758219706
 10
159.9863590849
 20
97.873711411
 10
159.977461587
 20
97.8718803908
 10
159.9685196346
 20
97.8703294858
 10
159.9595414363
 20
97.8690592721
 10
159.9505352006
 20
97.8680703256
 10
159.9415091359
 20
97.8673632221
 10
159.9324714507
 20
97.8669385377
 10
159.9234303534
 20
97.8667968482
  0
LINE
  5
325
100
AcDbEntity
  8
0
100
AcDbLine
 62
7
  6
CONTINUOUS
 10
180.2134303534
 20
106.7620522449
 11
180.475896344
 21
106.7882328482
  0
LINE
  5
326
100
AcDbEntity
  8
ASSI
100
AcDbLine
 62
7
  6
CONTINUOUS
 10
180.2134303534
 20
106.7620522449
 11
180.475896344
 21
106.7882328482
  0
LINE
  5
327
100
AcDbEntity
  8
0
100
AcDbLine
 62
253
  6
CONTINUOUS
 10
182.8469249542
 20
106.249772662
 11
182.8432890395
 21
106.2496985855
  0
LINE
  5
328
100
AcDbEntity
  8
ASSI
100
AcDbLine
 62
253
  6
CONTINUOUS
 10
182.8469249542
 20
106.249772662
 11
182.8432890395
 21
106.2496985855
  0
LINE
  5
329
100
AcDbEntity
  8
0
100
AcDbLine
 62
253
  6
CONTINUOUS
 10
182.8432890395
 20
106.2496985855
 11
182.8220130602
 21
106.2495532291
  0
LINE
  5
32A
100
AcDbEntity
  8
ASSI
100
AcDbLine
 62
253
  6
CONTINUOUS
 10
182.8432890395
 20
106.2496985855
 11
182.8220130602
 21
106.2495532291
  0
LINE
  5
32B
100
AcDbEntity
  8
0
100
AcDbLine
 62
253
  6
CONTINUOUS
 10
182.8220130602
 20
106.2495532291
 11
171.9634303534
 21
106.2449673385
  0
LINE
  5
32C
100
AcDbEntity
  8
ASSI
100
AcDbLine
 62
253
  6
CONTINUOUS
 10
182.8220130602
 20
106.2495532291
 11
171.9634303534
 21
106.2449673385
  0
LINE
  5
32D
100
AcDbEntity
  8
0
100
AcDbLine
 62
253
  6
CONTINUOUS
 10
182.3470962916
 20
106.7497536235
 11
175.0948113365
 21
106.7462697722
  0
LINE
  5
32E
100
AcDbEntity
  8
ASSI
100
AcDbLine
 62
253
  6
CONTINUOUS
 10
182.3470962916
 20
106.7497536235
 11
175.0948113365
 21
106.7462697722
  0
LINE
  5
32F
100
AcDbEntity
  8
0
100
AcDbLine
 62
253
  6
CONTINUOUS
 10
139.0797644152
 20
107.226712073
 11
147.4129337545
 21
107.2304162092
  0
LINE
  5
330
100
AcDbEntity
  8
ASSI
100
AcDbLine
 62
253
  6
CONTINUOUS
 10
139.0797644152
 20
107.226712073
 11
147.4129337545
 21
107.2304162092
  0
LINE
  5
331
100
AcDbEntity
  8
0
100
AcDbLine
 62
253
  6
CONTINUOUS
 10
171.9634303534
 20
106.2449673385
 11
149.4634303534
 21
106.2449673385
  0
LINE
  5
332
100
AcDbEntity
  8
ASSI
100
AcDbLine
 62
253
  6
CONTINUOUS
 10
171.9634303534
 20
106.2449673385
 11
149.4634303534
 21
106.2449673385
  0
LINE
  5
333
100
AcDbEntity
  8
0
100
AcDbLine
 62
7
  6
CONTINUOUS
 10
180.2134303534
 20
106.7620522449
 11
141.2134303534
 21
106.7620522449
  0
LINE
  5
334
100
AcDbEntity
  8
ASSI
100
AcDbLine
 62
7
  6
CONTINUOUS
 10
180.2134303534
 20
106.7620522449
 11
141.2134303534
 21
106.7620522449
  0
LINE
  5
335
100
AcDbEntity
  8
0
100
AcDbLine
 62
7
  6
CONTINUOUS
 10
138.9643032915
 20
106.7882328482
 11
140.9509643629
 21
106.7882328482
  0
LINE
  5
336
100
AcDbEntity
  8
ASSI
100
AcDbLine
 62
7
  6
CONTINUOUS
 10
138.9643032915
 20
106.7882328482
 11
140.9509643629
 21
106.7882328482
  0
LINE
  5
337
100
AcDbEntity
  8
0
100
AcDbLine
 62
7
  6
CONTINUOUS
 10
180.475896344
 20
106.7882328482
 11
182.4625574153
 21
106.7882328482
  0
LINE
  5
338
100
AcDbEntity
  8
ASSI
100
AcDbLine
 62
7
  6
CONTINUOUS
 10
180.475896344
 20
106.7882328482
 11
182.4625574153
 21
106.7882328482
  0
LINE
  5
339
100
AcDbEntity
  8
0
100
AcDbLine
 62
7
  6
CONTINUOUS
 10
182.4625574153
 20
107.1882328482
 11
180.475896344
 21
107.1882328482
  0
LINE
  5
33A
100
AcDbEntity
  8
ASSI
100
AcDbLine
 62
7
  6
CONTINUOUS
 10
182.4625574153
 20
107.1882328482
 11
180.475896344
 21
107.1882328482
  0
LINE
  5
33B
100
AcDbEntity
  8
0
100
AcDbLine
 62
7
  6
CONTINUOUS
 10
140.9509643629
 20
107.1882328482
 11
138.9643032915
 21
107.1882328482
  0
LINE
  5
33C
100
AcDbEntity
  8
ASSI
100
AcDbLine
 62
7
  6
CONTINUOUS
 10
140.9509643629
 20
107.1882328482
 11
138.9643032915
 21
107.1882328482
  0
LINE
  5
33D
100
AcDbEntity
  8
0
100
AcDbLine
 62
7
  6
CONTINUOUS
 10
141.2134303534
 20
107.2144134516
 11
180.2134303534
 21
107.2144134516
  0
LINE
  5
33E
100
AcDbEntity
  8
ASSI
100
AcDbLine
 62
7
  6
CONTINUOUS
 10
141.2134303534
 20
107.2144134516
 11
180.2134303534
 21
107.2144134516
  0
LINE
  5
33F
100
AcDbEntity
  8
0
100
AcDbLine
 62
253
  6
CONTINUOUS
 10
175.0948113365
 20
106.7462697722
 11
146.3265872678
 21
106.7462710177
  0
LINE
  5
340
100
AcDbEntity
  8
ASSI
100
AcDbLine
 62
253
  6
CONTINUOUS
 10
175.0948113365
 20
106.7462697722
 11
146.3265872678
 21
106.7462710177
  0
LINE
  5
341
100
AcDbEntity
  8
0
100
AcDbLine
 62
253
  6
CONTINUOUS
 10
147.4129337545
 20
107.2304162092
 11
177.3726283974
 21
107.2295061942
  0
LINE
  5
342
100
AcDbEntity
  8
ASSI
100
AcDbLine
 62
253
  6
CONTINUOUS
 10
147.4129337545
 20
107.2304162092
 11
177.3726283974
 21
107.2295061942
  0
LINE
  5
343
100
AcDbEntity
  8
0
100
AcDbLine
 62
253
  6
CONTINUOUS
 10
149.4634303534
 20
106.2449673385
 11
138.8957151203
 21
106.2490712903
  0
LINE
  5
344
100
AcDbEntity
  8
ASSI
100
AcDbLine
 62
253
  6
CONTINUOUS
 10
149.4634303534
 20
106.2449673385
 11
138.8957151203
 21
106.2490712903
  0
LINE
  5
345
100
AcDbEntity
  8
0
100
AcDbLine
 62
253
  6
CONTINUOUS
 10
146.3265872678
 20
106.7462710177
 11
139.0797644144
 21
106.7497536238
  0
LINE
  5
346
100
AcDbEntity
  8
ASSI
100
AcDbLine
 62
253
  6
CONTINUOUS
 10
146.3265872678
 20
106.7462710177
 11
139.0797644144
 21
106.7497536238
  0
LINE
  5
347
100
AcDbEntity
  8
0
100
AcDbLine
 62
253
  6
CONTINUOUS
 10
177.3726283974
 20
107.2295061942
 11
182.3470962925
 21
107.2267120727
  0
LINE
  5
348
100
AcDbEntity
  8
ASSI
100
AcDbLine
 62
253
  6
CONTINUOUS
 10
177.3726283974
 20
107.2295061942
 11
182.3470962925
 21
107.2267120727
  0
LINE
  5
349
100
AcDbEntity
  8
0
100
AcDbLine
 62
253
  6
CONTINUOUS
 10
138.8957151203
 20
106.2490712903
 11
138.6048476449
 21
106.2495532265
  0
LINE
  5
34A
100
AcDbEntity
  8
ASSI
100
AcDbLine
 62
253
  6
CONTINUOUS
 10
138.8957151203
 20
106.2490712903
 11
138.6048476449
 21
106.2495532265
  0
LWPOLYLINE
  5
34B
100
AcDbEntity
  8
0
100
AcDbPolyline
 62
253
  6
CONTINUOUS
 90
3
 70
0
 10
138.6048476449
 20
106.2495532265
 10
138.5835716657
 20
106.249698585
 10
138.5799357509
 20
106.2497726626
  0
LWPOLYLINE
  5
34C
100
AcDbEntity
  8
ASSI
100
AcDbPolyline
 62
253
  6
CONTINUOUS
 90
3
 70
0
 10
138.6048476449
 20
106.2495532265
 10
138.5835716657
 20
106.249698585
 10
138.5799357509
 20
106.2497726626
  0
LINE
  5
34D
100
AcDbEntity
  8
0
100
AcDbLine
 62
7
  6
CONTINUOUS
 10
141.2134303534
 20
106.7620522449
 11
140.9509643629
 21
106.7882328482
  0
LINE
  5
34E
100
AcDbEntity
  8
ASSI
100
AcDbLine
 62
7
  6
CONTINUOUS
 10
141.2134303534
 20
106.7620522449
 11
140.9509643629
 21
106.7882328482
  0
LINE
  5
34F
100
AcDbEntity
  8
0
100
AcDbLine
 62
253
  6
CONTINUOUS
 10
161.2134303534
 20
115.8196688482
 11
161.2134303534
 21
115.7996688482
  0
LINE
  5
350
100
AcDbEntity
  8
0
100
AcDbLine
 62
253
  6
CONTINUOUS
 10
161.2134303534
 20
98.1767968482
 11
161.2134303534
 21
98.1567968482
  0
LWPOLYLINE
  5
351
100
AcDbEntity
  8
0
100
AcDbPolyline
 62
253
  6
CONTINUOUS
 90
51
 70
0
 10
161.2134303534
 20
115.8196688482
 10
161.2135726473
 20
115.828747436
 10
161.2139992372
 20
115.8378201368
 10
161.2147096861
 20
115.8468786353
 10
161.2157035567
 20
115.8559146162
 10
161.2169804118
 20
115.8649197642
 10
161.2185398142
 20
115.8738857638
 10
161.2203813265
 20
115.8828042998
 10
161.2225045117
 20
115.8916670567
 10
161.2249089324
 20
115.9004657193
 10
161.2275941515
 20
115.9091919722
 10
161.2305589025
 20
115.9178371895
 10
161.2337986022
 20
115.9263915032
 10
161.2373078381
 20
115.9348447347
 10
161.2410811978
 20
115.9431867056
 10
161.2451132688
 20
115.9514072373
 10
161.2493986387
 20
115.9594961513
 10
161.253931895
 20
115.9674432689
 10
161.2587076253
 20
115.9752384118
 10
161.2637204171
 20
115.9828714013
 10
161.268964858
 20
115.9903320589
 10
161.2744355199
 20
115.9976112993
 10
161.2801269118
 20
116.0047044105
 10
161.2860335272
 20
116.0116077736
 10
161.2921498594
 20
116.0183177697
 10
161.298470402
 20
116.0248307801
 10
161.3049900703
 20
116.0311430785
 10
161.3117054678
 20
116.0372505093
 10
161.3186136201
 20
116.0431488094
 10
161.3257115527
 20
116.0488337158
 10
161.3329962911
 20
116.0543009654
 10
161.3404635467
 20
116.0595457313
 10
161.3481037736
 20
116.0645609311
 10
161.3559061122
 20
116.0693389182
 10
161.3638597023
 20
116.0738720462
 10
161.3719536842
 20
116.0781526687
 10
161.3801772664
 20
116.082173825
 10
161.3885199317
 20
116.0859312975
 10
161.3969712313
 20
116.0894215541
 10
161.4055207167
 20
116.0926410631
 10
161.414157939
 20
116.0955862925
 10
161.422872823
 20
116.0982542029
 10
161.4316567868
 20
116.1006437259
 10
161.4405016219
 20
116.1027542855
 10
161.4493991199
 20
116.1045853057
 10
161.4583410723
 20
116.1061362106
 10
161.4673192706
 20
116.1074064243
 10
161.4763255063
 20
116.1083953709
 10
161.485351571
 20
116.1091024743
 10
161.4943892562
 20
116.1095271588
 10
161.5034303534
 20
116.1096688482
  0
LWPOLYLINE
  5
352
100
AcDbEntity
  8
0
100
AcDbPolyline
 62
253
  6
CONTINUOUS
 90
51
 70
0
 10
161.2134303534
 20
98.1767968482
 10
161.2135726442
 20
98.1858753216
 10
161.2139992251
 20
98.1949479146
 10
161.2147096589
 20
98.2040063115
 10
161.2157035085
 20
98.2130421965
 10
161.2169803369
 20
98.2220472539
 10
161.2185397069
 20
98.2310131677
 10
161.2203811812
 20
98.2399316223
 10
161.2225043229
 20
98.248794302
 10
161.2249086948
 20
98.2575928908
 10
161.2275938597
 20
98.266319073
 10
161.2305585515
 20
98.2749642226
 10
161.2337981877
 20
98.2835184722
 10
161.2373073571
 20
98.2919716441
 10
161.241080648
 20
98.3003135609
 10
161.2451126491
 20
98.3085340447
 10
161.2493979491
 20
98.3166229181
 10
161.2539311364
 20
98.3245700033
 10
161.2587067996
 20
98.3323651227
 10
161.2637195273
 20
98.3399980987
 10
161.2689639081
 20
98.3474587537
 10
161.2744345146
 20
98.354738003
 10
161.2801258562
 20
98.3618311331
 10
161.2860324263
 20
98.3687345238
 10
161.2921487183
 20
98.3754445545
 10
161.2984692256
 20
98.381957605
 10
161.3049888638
 20
98.3882699475
 10
161.3117042371
 20
98.3943774263
 10
161.3186123717
 20
98.4002757783
 10
161.3257102941
 20
98.4059607405
 10
161.3329950305
 20
98.4114280497
 10
161.3404622929
 20
98.4166728789
 10
161.3481025352
 20
98.4216881447
 10
161.3559048968
 20
98.4264661993
 10
161.3638585174
 20
98.4309993952
 10
161.3719525363
 20
98.4352800849
 10
161.3801761617
 20
98.4393013065
 10
161.388518876
 20
98.443058842
 10
161.3969702301
 20
98.4465491591
 10
161.405519775
 20
98.4497687254
 10
161.4141570618
 20
98.4527140086
 10
161.4228720147
 20
98.4553819692
 10
161.4316560519
 20
98.4577715382
 10
161.4405009648
 20
98.4598821395
 10
161.4493985447
 20
98.4617131968
 10
161.4583405832
 20
98.4632641338
 10
161.4673188716
 20
98.4645343744
 10
161.4763252014
 20
98.4655233424
 10
161.485351364
 20
98.4662304615
 10
161.4943891509
 20
98.4666551555
 10
161.5034303534
 20
98.4667968482
  0
LINE
  5
353
100
AcDbEntity
  8
0
100
AcDbLine
 62
7
  6
CONTINUOUS
 10
141.2134303534
 20
107.2144134516
 11
140.9509643629
 21
107.1882328482
  0
LINE
  5
354
100
AcDbEntity
  8
ASSI
100
AcDbLine
 62
7
  6
CONTINUOUS
 10
141.2134303534
 20
107.2144134516
 11
140.9509643629
 21
107.1882328482
  0
LINE
  5
355
100
AcDbEntity
  8
0
100
AcDbLine
 62
253
  6
CONTINUOUS
 10
138.5799357526
 20
107.7266930345
 11
138.5835716674
 21
107.726767111
  0
LINE
  5
356
100
AcDbEntity
  8
ASSI
100
AcDbLine
 62
253
  6
CONTINUOUS
 10
138.5799357526
 20
107.7266930345
 11
138.5835716674
 21
107.726767111
  0
LINE
  5
357
100
AcDbEntity
  8
0
100
AcDbLine
 62
253
  6
CONTINUOUS
 10
138.5835716674
 20
107.726767111
 11
138.6048476466
 21
107.7269124674
  0
LINE
  5
358
100
AcDbEntity
  8
ASSI
100
AcDbLine
 62
253
  6
CONTINUOUS
 10
138.5835716674
 20
107.726767111
 11
138.6048476466
 21
107.7269124674
  0
LINE
  5
359
100
AcDbEntity
  8
0
100
AcDbLine
 62
253
  6
CONTINUOUS
 10
138.6048476466
 20
107.7269124674
 11
149.4634303534
 21
107.731498358
  0
LINE
  5
35A
100
AcDbEntity
  8
ASSI
100
AcDbLine
 62
253
  6
CONTINUOUS
 10
138.6048476466
 20
107.7269124674
 11
149.4634303534
 21
107.731498358
  0
LINE
  5
35B
100
AcDbEntity
  8
0
100
AcDbLine
 62
253
  6
CONTINUOUS
 10
149.4634303534
 20
107.731498358
 11
171.9634303534
 21
107.731498358
  0
LINE
  5
35C
100
AcDbEntity
  8
ASSI
100
AcDbLine
 62
253
  6
CONTINUOUS
 10
149.4634303534
 20
107.731498358
 11
171.9634303534
 21
107.731498358
  0
LINE
  5
35D
100
AcDbEntity
  8
0
100
AcDbLine
 62
253
  6
CONTINUOUS
 10
171.9634303534
 20
107.731498358
 11
182.6937905047
 21
107.7272284357
  0
LINE
  5
35E
100
AcDbEntity
  8
ASSI
100
AcDbLine
 62
253
  6
CONTINUOUS
 10
171.9634303534
 20
107.731498358
 11
182.6937905047
 21
107.7272284357
  0
LWPOLYLINE
  5
35F
100
AcDbEntity
  8
0
100
AcDbPolyline
 62
253
  6
CONTINUOUS
 90
4
 70
0
 10
182.6937905047
 20
107.7272284357
 10
182.8349588066
 20
107.7268404882
 10
182.8432890412
 20
107.7267671114
 10
182.846924956
 20
107.7266930339
  0
LWPOLYLINE
  5
360
100
AcDbEntity
  8
ASSI
100
AcDbPolyline
 62
253
  6
CONTINUOUS
 90
4
 70
0
 10
182.6937905047
 20
107.7272284357
 10
182.8349588066
 20
107.7268404882
 10
182.8432890412
 20
107.7267671114
 10
182.846924956
 20
107.7266930339
  0
LINE
  5
361
100
AcDbEntity
  8
0
100
AcDbLine
 62
7
  6
CONTINUOUS
 10
180.2134303534
 20
107.2144134516
 11
180.475896344
 21
107.1882328482
  0
LINE
  5
362
100
AcDbEntity
  8
ASSI
100
AcDbLine
 62
7
  6
CONTINUOUS
 10
180.2134303534
 20
107.2144134516
 11
180.475896344
 21
107.1882328482
  0
LWPOLYLINE
  5
363
100
AcDbEntity
  8
SUPERFICI
100
AcDbPolyline
 62
7
  6
CONTINUOUS
 90
43
 70
0
 10
163.0321123319
 20
110.5089854263
 10
163.0999835397
 20
110.5160981574
 10
163.166955365
 20
110.527888246
 10
163.2333664742
 20
110.5444514249
 10
163.298878201
 20
110.565691954
 10
163.3624745466
 20
110.5913226203
 10
163.4241435341
 20
110.6214453081
 10
163.4838971405
 20
110.6559581169
 10
163.5407552978
 20
110.6942681552
 10
163.5945913977
 20
110.7363637867
 10
163.6455320486
 20
110.7822566254
 10
163.6929770073
 20
110.8313886553
 10
163.7369550789
 20
110.8839006128
 10
163.7774374583
 20
110.9396517348
 10
163.8137374882
 20
110.9976617599
 10
163.8457237199
 20
111.0578174301
 10
163.8735276021
 20
111.1202319791
 10
163.8968568234
 20
111.1842648881
 10
163.9157051076
 20
111.2501182431
 10
163.930078731
 20
111.3175899351
 10
163.9397042117
 20
111.3854331616
 10
163.9444916479
 20
111.4534752739
 10
163.9445309416
 20
111.5218889108
 10
163.9398183166
 20
111.5899452119
 10
163.9302662273
 20
111.6578126778
 10
163.9159622194
 20
111.7253228053
 10
163.8971651545
 20
111.7912412396
 10
163.8738515798
 20
111.8553928853
 10
163.846044948
 20
111.9179528522
 10
163.8140744791
 20
111.978212105
 10
163.7778378199
 20
112.0362367698
 10
163.7374373236
 20
112.0919607428
 10
163.6935092689
 20
112.1444766527
 10
163.6460470281
 20
112.1936859848
 10
163.5950572289
 20
112.2396872851
 10
163.5411960338
 20
112.2818687805
 10
163.4843780857
 20
112.3202122168
 10
163.4246887417
 20
112.35473588
 10
163.3630402355
 20
112.3848828108
 10
163.2993758414
 20
112.4105730913
 10
163.2337522853
 20
112.4318866671
 10
163.1672519782
 20
112.4485063734
 10
163.1002357238
 20
112.4603264944
  0
LINE
  5
364
100
AcDbEntity
  8
SUPERFICI
100
AcDbLine
 62
7
  6
CONTINUOUS
 10
162.9633417417
 20
110.5065500544
 11
163.0321123319
 21
110.5089854263
  0
LINE
  5
365
100
AcDbEntity
  8
0
100
AcDbLine
 62
7
  6
CONTINUOUS
 10
162.9634231571
 20
110.5065585893
 11
158.4634375609
 21
110.506550054
  0
LINE
  5
366
100
AcDbEntity
  8
ASSI
100
AcDbLine
 62
7
  6
CONTINUOUS
 10
162.9634231571
 20
110.5065585893
 11
158.4634375609
 21
110.506550054
  0
LINE
  5
367
100
AcDbEntity
  8
SUPERFICI
100
AcDbLine
 62
7
  6
CONTINUOUS
 10
158.4635188147
 20
110.5065500544
 11
162.9633417417
 21
110.5065500544
  0
LINE
  5
368
100
AcDbEntity
  8
0
100
AcDbLine
 62
7
  6
CONTINUOUS
 10
158.4634181811
 20
112.4698988648
 11
162.9634425442
 21
112.4698851845
  0
LINE
  5
369
100
AcDbEntity
  8
ASSI
100
AcDbLine
 62
7
  6
CONTINUOUS
 10
158.4634181811
 20
112.4698988648
 11
162.9634425442
 21
112.4698851845
  0
LINE
  5
36A
100
AcDbEntity
  8
SUPERFICI
100
AcDbLine
 62
7
  6
CONTINUOUS
 10
162.9635729623
 20
112.4698851835
 11
158.4632876268
 21
112.4698851835
  0
LWPOLYLINE
  5
36B
100
AcDbEntity
  8
0
100
AcDbPolyline
 62
7
  6
CONTINUOUS
 90
40
 70
0
 10
158.4634375609
 20
110.506550054
 10
158.3841452311
 20
110.5098586081
 10
158.306339954
 20
110.5192452633
 10
158.2300217296
 20
110.5347100167
 10
158.1547590275
 20
110.5563995415
 10
158.0809833782
 20
110.5841671512
 10
158.0099893722
 20
110.617572801
 10
157.941735251
 20
110.6567720133
 10
157.8762627733
 20
110.7016092378
 10
157.8149918056
 20
110.7511778179
 10
157.7580992003
 20
110.8054880445
 10
157.705408105
 20
110.8645295895
 10
157.6578078302
 20
110.9273648707
 10
157.6152888123
 20
110.9942024173
 10
157.5778606148
 20
111.0648336574
 10
157.5464412386
 20
111.137695366
 10
157.5212239453
 20
111.2126943994
 10
157.5020154732
 20
111.2899238672
 10
157.4891540385
 20
111.368099938
 10
157.4827487858
 20
111.4474139869
 10
157.4826905704
 20
111.5276746157
 10
157.4889901752
 20
111.6070238532
 10
157.5017581619
 20
111.6852768262
 10
157.5208839688
 20
111.7626184116
 10
157.5460466935
 20
111.8377452862
 10
157.5774501415
 20
111.9107523225
 10
157.6148905073
 20
111.9815446702
 10
157.6574354717
 20
112.0485344417
 10
157.7050704539
 20
112.1115088634
 10
157.7578100348
 20
112.1706807536
 10
157.8147656377
 20
112.2251006274
 10
157.8761268206
 20
112.2747538224
 10
157.9417040255
 20
112.3196550504
 10
158.0100400029
 20
112.358898895
 10
158.0810807585
 20
112.3923260984
 10
158.1548802866
 20
112.4200959639
 10
158.2301433196
 20
112.4417809185
 10
158.3064381018
 20
112.4572384475
 10
158.384196389
 20
112.4666110935
 10
158.4634181811
 20
112.4698988648
  0
LWPOLYLINE
  5
36C
100
AcDbEntity
  8
ASSI
100
AcDbPolyline
 62
7
  6
CONTINUOUS
 90
40
 70
0
 10
158.4634375609
 20
110.506550054
 10
158.3841452311
 20
110.5098586081
 10
158.306339954
 20
110.5192452633
 10
158.2300217296
 20
110.5347100167
 10
158.1547590275
 20
110.5563995415
 10
158.0809833782
 20
110.5841671512
 10
158.0099893722
 20
110.617572801
 10
157.941735251
 20
110.6567720133
 10
157.8762627733
 20
110.7016092378
 10
157.8149918056
 20
110.7511778179
 10
157.7580992003
 20
110.8054880445
 10
157.705408105
 20
110.8645295895
 10
157.6578078302
 20
110.9273648707
 10
157.6152888123
 20
110.9942024173
 10
157.5778606148
 20
111.0648336574
 10
157.5464412386
 20
111.137695366
 10
157.5212239453
 20
111.2126943994
 10
157.5020154732
 20
111.2899238672
 10
157.4891540385
 20
111.368099938
 10
157.4827487858
 20
111.4474139869
 10
157.4826905704
 20
111.5276746157
 10
157.4889901752
 20
111.6070238532
 10
157.5017581619
 20
111.6852768262
 10
157.5208839688
 20
111.7626184116
 10
157.5460466935
 20
111.8377452862
 10
157.5774501415
 20
111.9107523225
 10
157.6148905073
 20
111.9815446702
 10
157.6574354717
 20
112.0485344417
 10
157.7050704539
 20
112.1115088634
 10
157.7578100348
 20
112.1706807536
 10
157.8147656377
 20
112.2251006274
 10
157.8761268206
 20
112.2747538224
 10
157.9417040255
 20
112.3196550504
 10
158.0100400029
 20
112.358898895
 10
158.0810807585
 20
112.3923260984
 10
158.1548802866
 20
112.4200959639
 10
158.2301433196
 20
112.4417809185
 10
158.3064381018
 20
112.4572384475
 10
158.384196389
 20
112.4666110935
 10
158.4634181811
 20
112.4698988648
  0
LINE
  5
36D
100
AcDbEntity
  8
0
100
AcDbLine
 62
253
  6
CONTINUOUS
 10
182.4625574153
 20
106.7882328482
 11
182.3470962916
 21
106.7497536235
  0
LINE
  5
36E
100
AcDbEntity
  8
ASSI
100
AcDbLine
 62
253
  6
CONTINUOUS
 10
182.4625574153
 20
106.7882328482
 11
182.3470962916
 21
106.7497536235
  0
LINE
  5
36F
100
AcDbEntity
  8
0
100
AcDbLine
 62
253
  6
CONTINUOUS
 10
182.9626145554
 20
106.2883280304
 11
182.8469249542
 21
106.249772662
  0
LINE
  5
370
100
AcDbEntity
  8
ASSI
100
AcDbLine
 62
253
  6
CONTINUOUS
 10
182.9626145554
 20
106.2883280304
 11
182.8469249542
 21
106.249772662
  0
LWPOLYLINE
  5
371
100
AcDbEntity
  8
SUPERFICI
100
AcDbPolyline
 62
7
  6
CONTINUOUS
 90
46
 70
0
 10
158.4632876268
 20
112.4698851835
 10
158.3946122651
 20
112.4674582702
 10
158.3268130785
 20
112.4603518672
 10
158.2598900669
 20
112.4485659693
 10
158.1934968127
 20
112.4320039654
 10
158.1279797334
 20
112.41076245
 10
158.0643780824
 20
112.3851312246
 10
158.0027117041
 20
112.3550092912
 10
157.9429607541
 20
112.32049762
 10
157.8861049512
 20
112.2821889643
 10
157.8322708337
 20
112.2400949726
 10
157.7813318634
 20
112.1942039649
 10
157.7338881449
 20
112.145073704
 10
157.6899108029
 20
112.0925634655
 10
157.6494287127
 20
112.0368139422
 10
157.6131286044
 20
111.9788050307
 10
157.5811418343
 20
111.9186498254
 10
157.5533370462
 20
111.8562352103
 10
157.5300069013
 20
111.7922017759
 10
157.5111577189
 20
111.7263472242
 10
157.4967831798
 20
111.6588738383
 10
157.4871569882
 20
111.5910290916
 10
157.4823691861
 20
111.5229857942
 10
157.4823297316
 20
111.4545711384
 10
157.4870422026
 20
111.3865141823
 10
157.4965940906
 20
111.3186466311
 10
157.5108979041
 20
111.2511367894
 10
157.5296947466
 20
111.1852186243
 10
157.5530080051
 20
111.1210672157
 10
157.5808142925
 20
111.0585075064
 10
157.6127845512
 20
110.9982482676
 10
157.6490211152
 20
110.9402233165
 10
157.6894216504
 20
110.8844988606
 10
157.7333500969
 20
110.8319822614
 10
157.780813157
 20
110.7827719968
 10
157.8318041285
 20
110.7367696152
 10
157.8856668452
 20
110.6945870872
 10
157.9424867695
 20
110.6562426931
 10
158.002178439
 20
110.621718175
 10
158.0638293007
 20
110.5915706963
 10
158.1274882659
 20
110.5658811065
 10
158.1931064231
 20
110.5445685725
 10
158.2596244854
 20
110.5279477331
 10
158.3266893568
 20
110.5161234708
 10
158.3946541333
 20
110.5089909107
 10
158.4635188147
 20
110.5065500544
  0
LWPOLYLINE
  5
372
100
AcDbEntity
  8
0
100
AcDbPolyline
 62
7
  6
CONTINUOUS
 90
40
 70
0
 10
162.9634425442
 20
112.4698851845
 10
163.0427328428
 20
112.4665852088
 10
163.1205363573
 20
112.4572048119
 10
163.1968530877
 20
112.4417439855
 10
163.2721145915
 20
112.4200552485
 10
163.3458893113
 20
112.3922860541
 10
163.416882575
 20
112.3588787911
 10
163.4851361332
 20
112.3196787292
 10
163.5506082353
 20
112.2748405534
 10
163.6118789574
 20
112.2252707772
 10
163.6687715348
 20
112.1709589669
 10
163.7214627323
 20
112.1119155071
 10
163.7690629203
 20
112.0490781456
 10
163.8115816122
 20
111.9822382006
 10
163.8490092947
 20
111.9116043095
 10
163.8804277973
 20
111.8387402134
 10
163.9056437477
 20
111.7637390691
 10
163.9248505182
 20
111.6865076974
 10
163.9377100559
 20
111.6083303558
 10
163.9441131277
 20
111.5290158111
 10
163.9441689666
 20
111.4487552924
 10
163.9378672187
 20
111.3694067724
 10
163.925097413
 20
111.2911553023
 10
163.9059700204
 20
111.2138158537
 10
163.8808061001
 20
111.1386913008
 10
163.8494019552
 20
111.0656868348
 10
163.8119612825
 20
110.9948972985
 10
163.7694162316
 20
110.9279100575
 10
163.721781442
 20
110.8649378249
 10
163.6690422741
 20
110.8057679305
 10
163.6120869591
 20
110.7513496748
 10
163.5507258769
 20
110.7016976643
 10
163.4851486476
 20
110.6567973301
 10
163.4168123622
 20
110.6175542116
 10
163.3457710697
 20
110.5841275791
 10
163.2719707211
 20
110.5563581905
 10
163.1967062611
 20
110.5346738146
 10
163.1204093378
 20
110.5192170458
 10
163.0426483032
 20
110.5098453031
 10
162.9634231571
 20
110.5065585893
  0
LWPOLYLINE
  5
373
100
AcDbEntity
  8
ASSI
100
AcDbPolyline
 62
7
  6
CONTINUOUS
 90
40
 70
0
 10
162.9634425442
 20
112.4698851845
 10
163.0427328428
 20
112.4665852088
 10
163.1205363573
 20
112.4572048119
 10
163.1968530877
 20
112.4417439855
 10
163.2721145915
 20
112.4200552485
 10
163.3458893113
 20
112.3922860541
 10
163.416882575
 20
112.3588787911
 10
163.4851361332
 20
112.3196787292
 10
163.5506082353
 20
112.2748405534
 10
163.6118789574
 20
112.2252707772
 10
163.6687715348
 20
112.1709589669
 10
163.7214627323
 20
112.1119155071
 10
163.7690629203
 20
112.0490781456
 10
163.8115816122
 20
111.9822382006
 10
163.8490092947
 20
111.9116043095
 10
163.8804277973
 20
111.8387402134
 10
163.9056437477
 20
111.7637390691
 10
163.9248505182
 20
111.6865076974
 10
163.9377100559
 20
111.6083303558
 10
163.9441131277
 20
111.5290158111
 10
163.9441689666
 20
111.4487552924
 10
163.9378672187
 20
111.3694067724
 10
163.925097413
 20
111.2911553023
 10
163.9059700204
 20
111.2138158537
 10
163.8808061001
 20
111.1386913008
 10
163.8494019552
 20
111.0656868348
 10
163.8119612825
 20
110.9948972985
 10
163.7694162316
 20
110.9279100575
 10
163.721781442
 20
110.8649378249
 10
163.6690422741
 20
110.8057679305
 10
163.6120869591
 20
110.7513496748
 10
163.5507258769
 20
110.7016976643
 10
163.4851486476
 20
110.6567973301
 10
163.4168123622
 20
110.6175542116
 10
163.3457710697
 20
110.5841275791
 10
163.2719707211
 20
110.5563581905
 10
163.1967062611
 20
110.5346738146
 10
163.1204093378
 20
110.5192170458
 10
163.0426483032
 20
110.5098453031
 10
162.9634231571
 20
110.5065585893
  0
LWPOLYLINE
  5
374
100
AcDbEntity
  8
SUPERFICI
100
AcDbPolyline
 62
7
  6
CONTINUOUS
 90
3
 70
0
 10
163.1002357238
 20
112.4603264944
 10
163.0323427185
 20
112.4674527628
 10
162.9635729623
 20
112.4698851835
  0
LINE
  5
375
100
AcDbEntity
  8
0
100
AcDbLine
 62
253
  6
CONTINUOUS
 10
182.3470962925
 20
107.2267120727
 11
182.4625574153
 21
107.1882328482
  0
LINE
  5
376
100
AcDbEntity
  8
ASSI
100
AcDbLine
 62
253
  6
CONTINUOUS
 10
182.3470962925
 20
107.2267120727
 11
182.4625574153
 21
107.1882328482
  0
LINE
  5
377
100
AcDbEntity
  8
0
100
AcDbLine
 62
253
  6
CONTINUOUS
 10
182.8469249559
 20
107.7266930339
 11
182.9626145554
 21
107.688137666
  0
LINE
  5
378
100
AcDbEntity
  8
ASSI
100
AcDbLine
 62
253
  6
CONTINUOUS
 10
182.8469249559
 20
107.7266930339
 11
182.9626145554
 21
107.688137666
  0
LINE
  5
379
100
AcDbEntity
  8
0
100
AcDbLine
 62
253
  6
CONTINUOUS
 10
182.37626819
 20
129.0126232923
 11
182.4423797424
 21
129.1449371249
  0
LINE
  5
37A
100
AcDbEntity
  8
ASSI
100
AcDbLine
 62
253
  6
CONTINUOUS
 10
182.37626819
 20
129.0126232923
 11
182.4423797424
 21
129.1449371249
  0
LINE
  5
37B
100
AcDbEntity
  8
0
100
AcDbLine
 62
253
  6
CONTINUOUS
 10
182.8760968525
 20
128.5133085249
 11
182.943006164
 21
128.6472189706
  0
LINE
  5
37C
100
AcDbEntity
  8
ASSI
100
AcDbLine
 62
253
  6
CONTINUOUS
 10
182.8760968525
 20
128.5133085249
 11
182.943006164
 21
128.6472189706
  0
LWPOLYLINE
  5
37D
100
AcDbEntity
  8
0
100
AcDbPolyline
 62
253
  6
CONTINUOUS
 90
19
 70
0
 10
164.5962731712
 20
97.6451890012
 10
164.4193577122
 20
97.4372975432
 10
164.2396050138
 20
97.231843828
 10
164.0570496552
 20
97.0288661469
 10
163.8717262158
 20
96.8284027909
 10
163.683669275
 20
96.6304920513
 10
163.4929134121
 20
96.4351722193
 10
163.2994934795
 20
96.2424809174
 10
163.1034454212
 20
96.0524530947
 10
162.9048054544
 20
95.8651230315
 10
162.7036097961
 20
95.6805250085
 10
162.4998946635
 20
95.498693306
 10
162.2936962735
 20
95.3196622045
 10
162.0850515085
 20
95.1434656785
 10
161.8739999111
 20
94.9701364791
 10
161.6605816891
 20
94.7997070513
 10
161.4448370503
 20
94.6322098402
 10
161.2268062024
 20
94.4676772908
 10
161.0065293534
 20
94.3061418482
  0
LWPOLYLINE
  5
37E
100
AcDbEntity
  8
0
100
AcDbPolyline
 62
253
  6
CONTINUOUS
 90
19
 70
0
 10
163.8529678028
 20
97.700772332
 10
163.6984010575
 20
97.526954155
 10
163.5417597293
 20
97.3550124756
 10
163.3830680986
 20
97.1849723235
 10
163.2223504453
 20
97.0168587285
 10
163.0596310498
 20
96.8506967203
 10
162.8949341921
 20
96.6865113288
 10
162.7282837478
 20
96.5243267406
 10
162.5597019739
 20
96.3641637707
 10
162.389210723
 20
96.206042391
 10
162.2168318475
 20
96.0499825734
 10
162.0425871999
 20
95.8960042899
 10
161.8664986326
 20
95.7441275125
 10
161.6885888718
 20
95.5943725414
 10
161.5088841378
 20
95.4467609909
 10
161.3274115249
 20
95.3013148037
 10
161.1441981271
 20
95.1580559224
 10
160.9592710386
 20
95.0170062897
 10
160.7726573534
 20
94.8781878482
  0
LWPOLYLINE
  5
37F
100
AcDbEntity
  8
0
100
AcDbPolyline
 62
253
  6
CONTINUOUS
 90
19
 70
0
 10
164.1982996683
 20
96.0125685424
 10
164.0323724262
 20
95.8436945777
 10
163.8645332508
 20
95.676730062
 10
163.6948054841
 20
95.5116968552
 10
163.5232124683
 20
95.3486168176
 10
163.3497775453
 20
95.1875118093
 10
163.1745240572
 20
95.0284036903
 10
162.997474917
 20
94.8713135682
 10
162.8186513211
 20
94.7162595401
 10
162.6380740368
 20
94.5632589503
 10
162.4557638313
 20
94.4123291433
 10
162.2717414719
 20
94.2634874635
 10
162.086027726
 20
94.1167512554
 10
161.8986441768
 20
93.9721381534
 10
161.7096156715
 20
93.8296669522
 10
161.5189678733
 20
93.6893567365
 10
161.3267264454
 20
93.5512265908
 10
161.132917051
 20
93.4152955998
 10
160.9375653534
 20
93.2815828482
  0
LWPOLYLINE
  5
380
100
AcDbEntity
  8
0
100
AcDbPolyline
 62
253
  6
CONTINUOUS
 90
81
 70
0
 10
164.1982998532
 20
96.0125683625
 10
164.2066233833
 20
96.0208030068
 10
164.2152685616
 20
96.0287110838
 10
164.2242230773
 20
96.0362816476
 10
164.2334746195
 20
96.0435037526
 10
164.2430108772
 20
96.050366453
 10
164.2528195395
 20
96.0568588029
 10
164.2628882954
 20
96.0629698565
 10
164.2732048342
 20
96.0686886682
 10
164.2837555509
 20
96.0740043768
 10
164.2945216654
 20
96.0789064603
 10
164.3054831037
 20
96.0833844814
 10
164.3166197915
 20
96.087428003
 10
164.3279100912
 20
96.0910275322
 10
164.3393261098
 20
96.094177355
 10
164.3508383905
 20
96.0968727019
 10
164.3624174765
 20
96.0991088034
 10
164.3740375777
 20
96.1008821466
 10
164.3856875697
 20
96.1021942451
 10
164.3973599944
 20
96.1030478688
 10
164.4090473941
 20
96.1034457881
 10
164.4207425445
 20
96.1033897283
 10
164.4324391564
 20
96.1028772367
 10
164.444131174
 20
96.1019048158
 10
164.4558125418
 20
96.1004689683
 10
164.4674730576
 20
96.0985672933
 10
164.4790859329
 20
96.0962017773
 10
164.4906202325
 20
96.0933755029
 10
164.5020450214
 20
96.0900915532
 10
164.5133303148
 20
96.086354756
 10
164.5244499295
 20
96.0821769184
 10
164.5353786326
 20
96.0775715928
 10
164.5460911912
 20
96.0725523312
 10
164.556565606
 20
96.0671315614
 10
164.5667928115
 20
96.0613172135
 10
164.5767669758
 20
96.055116093
 10
164.586482267
 20
96.0485350058
 10
164.5959319547
 20
96.0415808076
 10
164.605105715
 20
96.0342605548
 10
164.6139923255
 20
96.0265813542
 10
164.6225805637
 20
96.0185503123
 10
164.6308584048
 20
96.0101761392
 10
164.6388106133
 20
96.0014739586
 10
164.6464211514
 20
95.9924604977
 10
164.6536739811
 20
95.9831524837
 10
164.6605540129
 20
95.9735666711
 10
164.6670499511
 20
95.9637199241
 10
164.6731514485
 20
95.9536291343
 10
164.6788481579
 20
95.9433111931
 10
164.6841305927
 20
95.9327828902
 10
164.6889927094
 20
95.9220606067
 10
164.693429325
 20
95.9111606223
 10
164.6974352569
 20
95.9000992162
 10
164.7010053221
 20
95.8888926678
 10
164.7041343377
 20
95.8775572564
 10
164.7068171209
 20
95.8661092615
 10
164.7090484889
 20
95.8545649625
 10
164.7108239407
 20
95.8429407928
 10
164.7121417032
 20
95.8312538026
 10
164.713000685
 20
95.8195211963
 10
164.7133997951
 20
95.8077601782
 10
164.713337942
 20
95.7959879527
 10
164.7128140345
 20
95.7842217241
 10
164.7118269814
 20
95.7724786967
 10
164.7103756915
 20
95.7607760748
 10
164.7084603004
 20
95.7491315212
 10
164.7060858518
 20
95.7375645315
 10
164.7032586162
 20
95.7260950599
 10
164.6999848642
 20
95.7147430604
 10
164.6962708664
 20
95.7035284871
 10
164.6921228933
 20
95.692471294
 10
164.6875472155
 20
95.6815914352
 10
164.6825501036
 20
95.6709088649
 10
164.6771386236
 20
95.6604424484
 10
164.6713230237
 20
95.6502066974
 10
164.6651143477
 20
95.6402150346
 10
164.6585236391
 20
95.6304808831
 10
164.6515619417
 20
95.6210176658
 10
164.6442402992
 20
95.6118388056
 10
164.6365697552
 20
95.6029577254
 10
164.6285613534
 20
95.5943878482
  0
LWPOLYLINE
  5
381
100
AcDbEntity
  8
0
100
AcDbPolyline
 62
253
  6
CONTINUOUS
 90
43
 70
0
 10
160.7726573534
 20
94.8781878482
 10
160.770163911
 20
94.8764141623
 10
160.7676188694
 20
94.8747200588
 10
160.7650250355
 20
94.8731064111
 10
160.7623852162
 20
94.8715740923
 10
160.7597022187
 20
94.8701239756
 10
160.7569788497
 20
94.8687569342
 10
160.7542179164
 20
94.8674738414
 10
160.7514222256
 20
94.8662755703
 10
160.7485945844
 20
94.8651629942
 10
160.7457377998
 20
94.8641369862
 10
160.7428546786
 20
94.8631984196
 10
160.7399480279
 20
94.8623481675
 10
160.7370206547
 20
94.8615871032
 10
160.7340753658
 20
94.8609160999
 10
160.7311148932
 20
94.8603358656
 10
160.7281416673
 20
94.8598464477
 10
160.7251580438
 20
94.8594477283
 10
160.7221663779
 20
94.8591395898
 10
160.7191690253
 20
94.8589219143
 10
160.7161683412
 20
94.858794584
 10
160.7131666813
 20
94.8587574811
 10
160.7101664008
 20
94.8588104878
 10
160.7071698553
 20
94.8589534864
 10
160.7041794001
 20
94.859186359
 10
160.7011973909
 20
94.8595089879
 10
160.6982261828
 20
94.8599212552
 10
160.6952681316
 20
94.8604230432
 10
160.6923255924
 20
94.8610142341
 10
160.6894009667
 20
94.8616945554
 10
160.6864968383
 20
94.862463116
 10
160.6836158372
 20
94.8633188702
 10
160.6807605932
 20
94.8642607721
 10
160.6779337361
 20
94.865287776
 10
160.6751378958
 20
94.8663988361
 10
160.6723757019
 20
94.8675929067
 10
160.6696497845
 20
94.8688689419
 10
160.6669627732
 20
94.870225896
 10
160.6643172979
 20
94.8716627233
 10
160.6617159885
 20
94.8731783779
 10
160.6591614747
 20
94.8747718141
 10
160.6566563864
 20
94.8764419862
 10
160.6542033534
 20
94.8781878482
  0
LWPOLYLINE
  5
382
100
AcDbEntity
  8
0
100
AcDbPolyline
 62
253
  6
CONTINUOUS
 90
46
 70
0
 10
161.0065293534
 20
94.3061418482
 10
160.9949455741
 20
94.2980077916
 10
160.9831536861
 20
94.2902159231
 10
160.9711635588
 20
94.2827703309
 10
160.9589850614
 20
94.2756751028
 10
160.9466280633
 20
94.2689343269
 10
160.9341024338
 20
94.2625520911
 10
160.9214180422
 20
94.2565324834
 10
160.9085847577
 20
94.2508795918
 10
160.8956124497
 20
94.2455975043
 10
160.8825115136
 20
94.2406897113
 10
160.8692944488
 20
94.2361573127
 10
160.8559742809
 20
94.232000811
 10
160.8425640355
 20
94.2282207086
 10
160.8290767382
 20
94.224817508
 10
160.8155254146
 20
94.2217917115
 10
160.8019230902
 20
94.2191438217
 10
160.7882827906
 20
94.2168743408
 10
160.7746175413
 20
94.2149837713
 10
160.7609385441
 20
94.2134726089
 10
160.7472497053
 20
94.2123413216
 10
160.7335531073
 20
94.2115903709
 10
160.7198508325
 20
94.2112202182
 10
160.7061449632
 20
94.2112313247
 10
160.6924375821
 20
94.2116241518
 10
160.6787307714
 20
94.2123991609
 10
160.6650266136
 20
94.2135568133
 10
160.651327191
 20
94.2150975704
 10
160.6376368776
 20
94.2170214894
 10
160.6239692121
 20
94.219327011
 10
160.6103400248
 20
94.2220121716
 10
160.596765146
 20
94.2250750079
 10
160.5832604059
 20
94.2285135563
 10
160.5698416349
 20
94.2323258535
 10
160.556524663
 20
94.2365099358
 10
160.5433253207
 20
94.2410638398
 10
160.5302594381
 20
94.2459856021
 10
160.5173415385
 20
94.2512727526
 10
160.504580917
 20
94.2569207953
 10
160.4919855617
 20
94.2629247274
 10
160.4795634606
 20
94.2692795462
 10
160.467322602
 20
94.2759802491
 10
160.4552709739
 20
94.2830218335
 10
160.4434165643
 20
94.2903992965
 10
160.4317673615
 20
94.2981076357
 10
160.4203313534
 20
94.3061418482
  0
LINE
  5
383
100
AcDbEntity
  8
0
100
AcDbLine
 62
253
  6
CONTINUOUS
 10
157.2134303534
 20
115.5096817497
 11
159.9234303534
 21
115.5096598792
  0
LINE
  5
384
100
AcDbEntity
  8
0
100
AcDbLine
 62
253
  6
CONTINUOUS
 10
161.5034303534
 20
115.5096598795
 11
164.2134303534
 21
115.50968175
  0
LINE
  5
385
100
AcDbEntity
  8
0
100
AcDbLine
 62
253
  6
CONTINUOUS
 10
163.7778623534
 20
116.1096795719
 11
161.5034303534
 21
116.1096614049
  0
LINE
  5
386
100
AcDbEntity
  8
0
100
AcDbLine
 62
253
  6
CONTINUOUS
 10
159.9234303534
 20
116.109661405
 11
157.6489983534
 21
116.109679572
  0
LWPOLYLINE
  5
387
100
AcDbEntity
  8
0
100
AcDbPolyline
 62
253
  6
CONTINUOUS
 90
51
 70
0
 10
161.5034303534
 20
115.5096688482
 10
161.4943540252
 20
115.5098110794
 10
161.4852834617
 20
115.5102374835
 10
161.476226984
 20
115.5109476267
 10
161.4671929135
 20
115.5119410749
 10
161.4581895714
 20
115.5132173943
 10
161.449225279
 20
115.5147761508
 10
161.4403083577
 20
115.5166169105
 10
161.4314471285
 20
115.5187392394
 10
161.4226499129
 20
115.5211427036
 10
161.4139250321
 20
115.5238268691
 10
161.4052811145
 20
115.5267904752
 10
161.3967280175
 20
115.5300289543
 10
161.3882759056
 20
115.5335369118
 10
161.3799349433
 20
115.5373089534
 10
161.371715295
 20
115.5413396847
 10
161.3636271254
 20
115.5456237111
 10
161.355680599
 20
115.5501556384
 10
161.3478858801
 20
115.5549300721
 10
161.3402531334
 20
115.5599416177
 10
161.3327925234
 20
115.5651848808
 10
161.3255131279
 20
115.5706544486
 10
161.3184196784
 20
115.5763448342
 10
161.3115158196
 20
115.5822505322
 10
161.3048051964
 20
115.5883660375
 10
161.2982914536
 20
115.5946858447
 10
161.2919783388
 20
115.6012048731
 10
161.2858700116
 20
115.607919741
 10
161.2799707345
 20
115.6148274912
 10
161.2742847701
 20
115.6219251665
 10
161.2688163807
 20
115.6292098098
 10
161.2635703967
 20
115.636677145
 10
161.2585539196
 20
115.6443176212
 10
161.2537746189
 20
115.6521203685
 10
161.2492401639
 20
115.660074517
 10
161.244958224
 20
115.6681691969
 10
161.2409357803
 20
115.6763936068
 10
161.2371770611
 20
115.68473722
 10
161.2336856061
 20
115.6931895782
 10
161.2304649554
 20
115.701740223
 10
161.2275186488
 20
115.7103786962
 10
161.2248497334
 20
115.7190949152
 10
161.2224592843
 20
115.7278803001
 10
161.2203478839
 20
115.7367266467
 10
161.2185161143
 20
115.7456257509
 10
161.216964558
 20
115.7545694083
 10
161.2156937971
 20
115.7635494149
 10
161.2147044139
 20
115.7725575664
 10
161.2139969907
 20
115.7815856586
 10
161.2135721098
 20
115.7906254872
 10
161.2134303534
 20
115.7996688482
  0
LWPOLYLINE
  5
388
100
AcDbEntity
  8
0
100
AcDbPolyline
 62
253
  6
CONTINUOUS
 90
51
 70
0
 10
159.9234303534
 20
116.1096688482
 10
159.9325065618
 20
116.1095266205
 10
159.94157701
 20
116.1091002266
 10
159.9506333766
 20
116.1083901004
 10
159.9596673404
 20
116.1073966756
 10
159.96867058
 20
116.1061203862
 10
159.9776347742
 20
116.1045616659
 10
159.9865516016
 20
116.1027209487
 10
159.9954127409
 20
116.1005986682
 10
160.0042098709
 20
116.0981952585
 10
160.0129346702
 20
116.0955111533
 10
160.0215785105
 20
116.0925476131
 10
160.0301315351
 20
116.0893092045
 10
160.0385835804
 20
116.0858013209
 10
160.0469244827
 20
116.0820293557
 10
160.0551440784
 20
116.077998702
 10
160.0632322038
 20
116.0737147533
 10
160.0711786952
 20
116.0691829029
 10
160.0789733889
 20
116.064408544
 10
160.0866061213
 20
116.05939707
 10
160.0940667287
 20
116.0541538742
 10
160.1013461337
 20
116.0486843686
 10
160.1084396037
 20
116.0429940398
 10
160.1153434923
 20
116.0370883929
 10
160.1220541531
 20
116.0309729333
 10
160.1285679399
 20
116.0246531663
 10
160.1348811035
 20
116.018134172
 10
160.1409894843
 20
116.0114193314
 10
160.1468888201
 20
116.0045116001
 10
160.1525748485
 20
115.9974139341
 10
160.1580433073
 20
115.9901292891
 10
160.1632893659
 20
115.98266194
 10
160.1683059214
 20
115.9750214386
 10
160.1730853027
 20
115.9672186554
 10
160.1776198388
 20
115.9592644613
 10
160.1819018584
 20
115.9511697269
 10
160.185924379
 20
115.9429452546
 10
160.1896831717
 20
115.9346015727
 10
160.1931746958
 20
115.9261491411
 10
160.1963954111
 20
115.9175984198
 10
160.1993417771
 20
115.9089598686
 10
160.2020107462
 20
115.9002435714
 10
160.2044012432
 20
115.8914581079
 10
160.2065126858
 20
115.8826116818
 10
160.2083444919
 20
115.8737124966
 10
160.2098960791
 20
115.8647687559
 10
160.2111668652
 20
115.8557886635
 10
160.2121562679
 20
115.8467804229
 10
160.212863705
 20
115.8377522377
 10
160.2132885943
 20
115.8287123116
 10
160.2134303534
 20
115.8196688482
  0
LWPOLYLINE
  5
389
100
AcDbEntity
  8
0
100
AcDbPolyline
 62
253
  6
CONTINUOUS
 90
67
 70
0
 10
157.2134303534
 20
115.5096683799
 10
157.1962413877
 20
115.5099646525
 10
157.1790726427
 20
115.510852086
 10
157.1619443401
 20
115.512328604
 10
157.1448767015
 20
115.5143921301
 10
157.1278899485
 20
115.5170405877
 10
157.1110043026
 20
115.5202719005
 10
157.0942398573
 20
115.5240833027
 10
157.0776161924
 20
115.5284692711
 10
157.0611527596
 20
115.5334235932
 10
157.0448690105
 20
115.5389400564
 10
157.0287843967
 20
115.5450124482
 10
157.0129183698
 20
115.5516345561
 10
156.99729009
 20
115.558799528
 10
156.9819175517
 20
115.5664979533
 10
156.9668184577
 20
115.5747197819
 10
156.952010511
 20
115.5834549637
 10
156.9375114144
 20
115.5926934485
 10
156.923338871
 20
115.6024251864
 10
156.909510179
 20
115.6126395593
 10
156.8960410189
 20
115.6233236783
 10
156.8829466664
 20
115.6344640866
 10
156.8702423975
 20
115.6460473275
 10
156.857943488
 20
115.6580599441
 10
156.8460652137
 20
115.6704884796
 10
156.8346223377
 20
115.683319003
 10
156.823627572
 20
115.696535685
 10
156.8130931155
 20
115.7101222221
 10
156.8030311675
 20
115.7240623109
 10
156.793453927
 20
115.7383396477
 10
156.7843735932
 20
115.7529379291
 10
156.7758017659
 20
115.7678404925
 10
156.7677476473
 20
115.7830292385
 10
156.7602198403
 20
115.7984857091
 10
156.7532269481
 20
115.8141914459
 10
156.7467775734
 20
115.8301279907
 10
156.7408803193
 20
115.8462768852
 10
156.7355431279
 20
115.8626194408
 10
156.730771298
 20
115.879136048
 10
156.7265694677
 20
115.8958068667
 10
156.722942275
 20
115.9126120572
 10
156.719894358
 20
115.9295317794
 10
156.7174303547
 20
115.9465461935
 10
156.7155542087
 20
115.9636353738
 10
156.714267086
 20
115.9807790515
 10
156.7135694584
 20
115.9979568719
 10
156.7134617973
 20
116.0151484806
 10
156.7139445745
 20
116.0323335229
 10
156.7150182616
 20
116.0494916442
 10
156.7166826356
 20
116.0666025482
 10
156.7189346948
 20
116.0836461711
 10
156.721770743
 20
116.1006025073
 10
156.7251870839
 20
116.1174515514
 10
156.7291800213
 20
116.1341732978
 10
156.7337458589
 20
116.150747741
 10
156.7388802308
 20
116.1671550697
 10
156.7445760935
 20
116.1833762506
 10
156.7508257336
 20
116.1993924444
 10
156.7576214379
 20
116.2151848119
 10
156.7649554932
 20
116.2307345141
 10
156.7728201862
 20
116.2460227118
 10
156.7812071905
 20
116.261030897
 10
156.7901057272
 20
116.2757418866
 10
156.799504404
 20
116.2901388285
 10
156.8093918288
 20
116.3042048708
 10
156.8197566093
 20
116.3179231614
 10
156.8305873534
 20
116.3312768482
  0
LWPOLYLINE
  5
38A
100
AcDbEntity
  8
0
100
AcDbPolyline
 62
253
  6
CONTINUOUS
 90
61
 70
0
 10
157.6489983534
 20
116.1096677889
 10
157.6451733658
 20
116.1097414483
 10
157.6413542572
 20
116.1099618274
 10
157.6375464401
 20
116.1103280282
 10
157.6337553269
 20
116.1108391522
 10
157.6299863301
 20
116.1114943013
 10
157.6262448621
 20
116.1122925771
 10
157.6225363353
 20
116.1132330815
 10
157.6188661622
 20
116.1143149161
 10
157.6152397551
 20
116.1155371827
 10
157.6116625266
 20
116.116898983
 10
157.6081398276
 20
116.1183989737
 10
157.6046767629
 20
116.1200340315
 10
157.6012783761
 20
116.1218005879
 10
157.5979497105
 20
116.1236950743
 10
157.5946958096
 20
116.1257139225
 10
157.5915217168
 20
116.1278535639
 10
157.5884324756
 20
116.1301104301
 10
157.5854331294
 20
116.1324809527
 10
157.5825287215
 20
116.1349615632
 10
157.5797242955
 20
116.1375486932
 10
157.577024501
 20
116.1402387144
 10
157.5744324117
 20
116.1430277593
 10
157.571950708
 20
116.1459119008
 10
157.5695820699
 20
116.1488872116
 10
157.5673291775
 20
116.1519497644
 10
157.5651947109
 20
116.155095632
 10
157.5631813502
 20
116.158320887
 10
157.5612917756
 20
116.1616216023
 10
157.559528667
 20
116.1649938506
 10
157.5578947048
 20
116.1684337047
 10
157.5563924097
 20
116.1719369484
 10
157.5550236658
 20
116.1754982107
 10
157.553790198
 20
116.1791118314
 10
157.5526937312
 20
116.1827721506
 10
157.5517359904
 20
116.1864735083
 10
157.5509187003
 20
116.1902102444
 10
157.5502435858
 20
116.1939766989
 10
157.5497123719
 20
116.197767212
 10
157.5493267834
 20
116.2015761234
 10
157.5490885452
 20
116.2053977733
 10
157.5489989184
 20
116.2092264618
 10
157.5490573089
 20
116.2130563297
 10
157.5492626589
 20
116.216881478
 10
157.5496139106
 20
116.2206960078
 10
157.5501100059
 20
116.2244940201
 10
157.5507498872
 20
116.2282696159
 10
157.5515324964
 20
116.2320168961
 10
157.5524567759
 20
116.2357299618
 10
157.5535216676
 20
116.2394029141
 10
157.5547261138
 20
116.2430298539
 10
157.5560687356
 20
116.2466051052
 10
157.5575468702
 20
116.2501238845
 10
157.5591575338
 20
116.253581631
 10
157.5608977426
 20
116.2569737842
 10
157.5627645129
 20
116.2602957834
 10
157.5647548608
 20
116.2635430681
 10
157.5668658027
 20
116.2667110775
 10
157.5690943545
 20
116.2697952511
 10
157.5714375327
 20
116.2727910282
 10
157.5738923534
 20
116.2756938482
  0
LWPOLYLINE
  5
38B
100
AcDbEntity
  8
0
100
AcDbPolyline
 62
253
  6
CONTINUOUS
 90
19
 70
0
 10
161.0065294928
 20
119.6703240411
 10
161.2268062243
 20
119.5087887356
 10
161.4448372686
 20
119.3442561369
 10
161.6605825855
 20
119.176758474
 10
161.8740021346
 20
119.0063279756
 10
162.0850558755
 20
118.8329968706
 10
162.293703768
 20
118.6567973878
 10
162.4999063134
 20
118.4777621936
 10
162.7036261807
 20
118.2959257036
 10
162.9048265806
 20
118.111322771
 10
163.1034707237
 20
117.9239882488
 10
163.2995218208
 20
117.7339569904
 10
163.4929430826
 20
117.5412638487
 10
163.6836981338
 20
117.3459442308
 10
163.8717522556
 20
117.1480357588
 10
164.0570711432
 20
116.9475766085
 10
164.2396204919
 20
116.7446049561
 10
164.4193659969
 20
116.5391589773
 10
164.5962733534
 20
116.3312768482
  0
LWPOLYLINE
  5
38C
100
AcDbEntity
  8
0
100
AcDbPolyline
 62
253
  6
CONTINUOUS
 90
19
 70
0
 10
160.7726577873
 20
119.0982784389
 10
160.9592647511
 20
118.9594651052
 10
161.1441863254
 20
118.8184199479
 10
161.3273955728
 20
118.6751646648
 10
161.5088655557
 20
118.5297209541
 10
161.6885693367
 20
118.3821105138
 10
161.8664799785
 20
118.2323550417
 10
162.0425712883
 20
118.0804760403
 10
162.2168200535
 20
117.9264942293
 10
162.3892038061
 20
117.7704301327
 10
162.5597000782
 20
117.6123042747
 10
162.728286402
 20
117.4521371794
 10
162.8949403096
 20
117.2899493708
 10
163.0596390718
 20
117.1257620998
 10
163.2223589136
 20
116.9595995236
 10
163.3830757989
 20
116.7914865263
 10
163.5417656914
 20
116.621447992
 10
163.698404555
 20
116.4495088046
 10
163.8529683534
 20
116.2756938482
  0
LWPOLYLINE
  5
38D
100
AcDbEntity
  8
0
100
AcDbPolyline
 62
253
  6
CONTINUOUS
 90
81
 70
0
 10
164.6285618532
 20
118.382078334
 10
164.6365521151
 20
118.3735282559
 10
164.6442071989
 20
118.3646662344
 10
164.6515165241
 20
118.3555048354
 10
164.6584695101
 20
118.3460566247
 10
164.6650555765
 20
118.3363341683
 10
164.6712641428
 20
118.3263500322
 10
164.6770846283
 20
118.3161167821
 10
164.6825064525
 20
118.3056469842
 10
164.6875191503
 20
118.2949545202
 10
164.692112718
 20
118.2840585361
 10
164.696277267
 20
118.272979494
 10
164.700002909
 20
118.2617378557
 10
164.7032807542
 20
118.2503555238
 10
164.7061059076
 20
118.2388601633
 10
164.7084744729
 20
118.2272808794
 10
164.7103825536
 20
118.2156467778
 10
164.7118273675
 20
118.2039834319
 10
164.7128105886
 20
118.1923022875
 10
164.7133350052
 20
118.1806112587
 10
164.7134034054
 20
118.1689182594
 10
164.7130176764
 20
118.1572311699
 10
164.7121761021
 20
118.1455577368
 10
164.7108760656
 20
118.133905673
 10
164.7091149498
 20
118.1222826915
 10
164.70689124
 20
118.1107000273
 10
164.7042078311
 20
118.0991830035
 10
164.7010687198
 20
118.0877604651
 10
164.6974779035
 20
118.0764612573
 10
164.6934409946
 20
118.0653134571
 10
164.6889700689
 20
118.0543420696
 10
164.6840788174
 20
118.0435713319
 10
164.6787809314
 20
118.0330254811
 10
164.6730889807
 20
118.0227257031
 10
164.6670110497
 20
118.0126809795
 10
164.6605541012
 20
118.002897241
 10
164.6537250983
 20
117.9933804179
 10
164.64653087
 20
117.9841371578
 10
164.63897771
 20
117.975176975
 10
164.6310717781
 20
117.9665101011
 10
164.6228192341
 20
117.9581467673
 10
164.6142281423
 20
117.9500983156
 10
164.6053141835
 20
117.9423805306
 10
164.596094943
 20
117.9350103074
 10
164.586588006
 20
117.928004541
 10
164.5768111648
 20
117.9213789934
 10
164.5667830401
 20
117.9151448937
 10
164.5565224595
 20
117.9093123378
 10
164.5460482506
 20
117.9038914216
 10
164.5353785282
 20
117.8988913314
 10
164.524528556
 20
117.8943176149
 10
164.5135128847
 20
117.8901749102
 10
164.502346065
 20
117.8864678553
 10
164.4910426477
 20
117.8832010884
 10
164.4796171836
 20
117.8803792475
 10
164.4680842233
 20
117.8780069707
 10
164.4564583176
 20
117.8760888962
 10
164.4447547185
 20
117.8746291539
 10
164.4329914826
 20
117.8736298418
 10
164.4211873679
 20
117.8730925498
 10
164.4093611322
 20
117.8730188678
 10
164.3975315333
 20
117.8734103858
 10
164.3857173292
 20
117.8742686936
 10
164.3739372778
 20
117.8755953811
 10
164.3622101369
 20
117.8773920383
 10
164.3505551887
 20
117.8796585101
 10
164.3389938124
 20
117.8823876616
 10
164.3275479114
 20
117.8855706132
 10
164.3162393894
 20
117.8891984849
 10
164.3050901496
 20
117.8932623971
 10
164.2941220958
 20
117.8977534699
 10
164.2833571313
 20
117.9026628235
 10
164.2728171596
 20
117.9079815782
 10
164.2625222753
 20
117.9137002533
 10
164.252485337
 20
117.9198069648
 10
164.2427173943
 20
117.9262892279
 10
164.2332294969
 20
117.9331345578
 10
164.2240326944
 20
117.9403304696
 10
164.2151380366
 20
117.9478644785
 10
164.2065565731
 20
117.9557240997
 10
164.1982993534
 20
117.9638968482
  0
LWPOLYLINE
  5
38E
100
AcDbEntity
  8
0
100
AcDbPolyline
 62
253
  6
CONTINUOUS
 90
61
 70
0
 10
163.8529675578
 20
116.2756931488
 10
163.8554380432
 20
116.2727712823
 10
163.8577944068
 20
116.2697569518
 10
163.8600337499
 20
116.2666548129
 10
163.862153174
 20
116.263469521
 10
163.8641497803
 20
116.2602057313
 10
163.8660206701
 20
116.2568680995
 10
163.8677629449
 20
116.2534612807
 10
163.8693737059
 20
116.2499899305
 10
163.8708500545
 20
116.2464587043
 10
163.872189092
 20
116.2428722574
 10
163.8733882946
 20
116.2392354951
 10
163.8744466374
 20
116.2355543219
 10
163.8753634707
 20
116.231834892
 10
163.8761381443
 20
116.2280833597
 10
163.8767700084
 20
116.2243058793
 10
163.8772584131
 20
116.220508605
 10
163.8776027083
 20
116.2166976913
 10
163.8778022442
 20
116.2128792923
 10
163.8778563708
 20
116.2090595623
 10
163.8777644381
 20
116.2052446557
 10
163.8775261027
 20
116.2014404688
 10
163.8771422471
 20
116.1976518665
 10
163.8766140603
 20
116.1938834558
 10
163.8759427311
 20
116.1901398436
 10
163.8751294486
 20
116.186425637
 10
163.8741754017
 20
116.182745443
 10
163.8730817793
 20
116.1791038685
 10
163.8718497704
 20
116.1755055206
 10
163.8704805641
 20
116.1719550062
 10
163.8689753491
 20
116.1684569323
 10
163.8673356354
 20
116.1650159754
 10
163.8655642164
 20
116.1616370902
 10
163.8636642063
 20
116.1583253008
 10
163.8616387195
 20
116.1550856314
 10
163.8594908701
 20
116.1519231061
 10
163.8572237724
 20
116.1488427491
 10
163.8548405408
 20
116.1458495846
 10
163.8523442895
 20
116.1429486367
 10
163.8497381327
 20
116.1401449295
 10
163.8470251848
 20
116.1374434873
 10
163.8442088951
 20
116.1348490129
 10
163.8412940536
 20
116.1323649236
 10
163.8382857855
 20
116.1299943156
 10
163.8351892156
 20
116.127740285
 10
163.8320094693
 20
116.1256059279
 10
163.8287516714
 20
116.1235943404
 10
163.8254209472
 20
116.1217086185
 10
163.8220224217
 20
116.1199518585
 10
163.81856122
 20
116.1183271563
 10
163.8150424671
 20
116.1168376081
 10
163.8114713335
 20
116.1154859221
 10
163.8078531701
 20
116.1142732549
 10
163.8041933733
 20
116.1132003754
 10
163.8004973395
 20
116.1122680522
 10
163.7967704649
 20
116.1114770542
 10
163.793018146
 20
116.1108281501
 10
163.7892457791
 20
116.1103221087
 10
163.7854587605
 20
116.1099596987
 10
163.7816624865
 20
116.109741689
 10
163.7778623534
 20
116.1096688482
  0
LWPOLYLINE
  5
38F
100
AcDbEntity
  8
0
100
AcDbPolyline
 62
253
  6
CONTINUOUS
 90
67
 70
0
 10
164.5962729949
 20
116.331276547
 10
164.6071073472
 20
116.317918253
 10
164.6174754309
 20
116.3041950916
 10
164.6273658412
 20
116.2901239256
 10
164.6367671735
 20
116.2757216176
 10
164.6456680229
 20
116.2610050301
 10
164.6540569848
 20
116.245991026
 10
164.6619232675
 20
116.2306968032
 10
164.6692585312
 20
116.2151409016
 10
164.6760550493
 20
116.1993421962
 10
164.682305095
 20
116.1833195624
 10
164.6880009417
 20
116.1670918753
 10
164.6931348628
 20
116.1506780101
 10
164.6976998042
 20
116.1340970352
 10
164.7016914033
 20
116.1173687919
 10
164.7051059702
 20
116.1005133147
 10
164.707939815
 20
116.0835506382
 10
164.7101892477
 20
116.0665007969
 10
164.7118505783
 20
116.0493838253
 10
164.7129208131
 20
116.0322198159
 10
164.7133997417
 20
116.0150290934
 10
164.71328785
 20
115.9978320405
 10
164.7125856238
 20
115.9806490399
 10
164.7112935489
 20
115.9635004742
 10
164.7094121111
 20
115.9464067261
 10
164.7069424936
 20
115.9293880882
 10
164.7038886692
 20
115.9124644926
 10
164.7002553082
 20
115.8956557813
 10
164.6960470808
 20
115.8789817963
 10
164.6912686573
 20
115.8624623795
 10
164.6859247078
 20
115.846117373
 10
164.6800205501
 20
115.8299663844
 10
164.6735640908
 20
115.8140280835
 10
164.6665638842
 20
115.798320906
 10
164.6590284844
 20
115.7828632875
 10
164.6509664456
 20
115.7676736634
 10
164.642386322
 20
115.7527704695
 10
164.6332973102
 20
115.7381717986
 10
164.623711177
 20
115.7238943738
 10
164.6136403316
 20
115.7099545756
 10
164.6030971832
 20
115.6963687843
 10
164.5920941412
 20
115.6831533805
 10
164.5806436147
 20
115.6703247445
 10
164.5687583607
 20
115.6578987241
 10
164.5564525271
 20
115.6458890364
 10
164.5437406092
 20
115.6343088658
 10
164.5306371026
 20
115.6231713964
 10
164.5171565028
 20
115.6124898128
 10
164.5033133052
 20
115.6022772992
 10
164.4891229385
 20
115.5925466577
 10
164.4746045633
 20
115.5833091616
 10
164.4597782735
 20
115.5745757019
 10
164.4446641629
 20
115.5663571694
 10
164.4292823252
 20
115.5586644553
 10
164.4136528543
 20
115.5515084504
 10
164.3977953855
 20
115.544899059
 10
164.3817277205
 20
115.5388422387
 10
164.3654672026
 20
115.53334296
 10
164.3490311751
 20
115.5284061938
 10
164.3324369813
 20
115.5240369108
 10
164.3157019645
 20
115.5202400816
 10
164.2988440445
 20
115.5170202597
 10
164.2818834477
 20
115.514380329
 10
164.2648409772
 20
115.512322756
 10
164.247737436
 20
115.5108500071
 10
164.2305936271
 20
115.509964549
 10
164.2134303534
 20
115.5096688482
  0
LINE
  5
390
100
AcDbEntity
  8
0
100
AcDbLine
 62
253
  6
CONTINUOUS
 10
182.4423797424
 20
84.8315285716
 11
182.3762681881
 21
84.963842408
  0
LINE
  5
391
100
AcDbEntity
  8
ASSI
100
AcDbLine
 62
253
  6
CONTINUOUS
 10
182.4423797424
 20
84.8315285716
 11
182.3762681881
 21
84.963842408
  0
LINE
  5
392
100
AcDbEntity
  8
0
100
AcDbLine
 62
253
  6
CONTINUOUS
 10
182.943006164
 20
85.3292467259
 11
182.8760968506
 21
85.4631571754
  0
LINE
  5
393
100
AcDbEntity
  8
ASSI
100
AcDbLine
 62
253
  6
CONTINUOUS
 10
182.943006164
 20
85.3292467259
 11
182.8760968506
 21
85.4631571754
  0
LWPOLYLINE
  5
394
100
AcDbEntity
  8
0
100
AcDbPolyline
 62
253
  6
CONTINUOUS
 90
3
 70
0
 10
171.9622966671
 20
106.7341429006
 10
171.9621494894
 20
106.742707755
 10
171.9620006957
 20
106.7458768928
  0
LWPOLYLINE
  5
395
100
AcDbEntity
  8
ASSI
100
AcDbPolyline
 62
253
  6
CONTINUOUS
 90
3
 70
0
 10
171.9622966671
 20
106.7341429006
 10
171.9621494894
 20
106.742707755
 10
171.9620006957
 20
106.7458768928
  0
LINE
  5
396
100
AcDbEntity
  8
0
100
AcDbLine
 62
253
  6
CONTINUOUS
 10
171.9625798155
 20
106.7012557133
 11
171.9622966671
 21
106.7341429006
  0
LINE
  5
397
100
AcDbEntity
  8
ASSI
100
AcDbLine
 62
253
  6
CONTINUOUS
 10
171.9625798155
 20
106.7012557133
 11
171.9622966671
 21
106.7341429006
  0
LINE
  5
398
100
AcDbEntity
  8
0
100
AcDbLine
 62
253
  6
CONTINUOUS
 10
171.9633038452
 20
106.4475778847
 11
171.9625798155
 21
106.7012557133
  0
LINE
  5
399
100
AcDbEntity
  8
ASSI
100
AcDbLine
 62
253
  6
CONTINUOUS
 10
171.9633038452
 20
106.4475778847
 11
171.9625798155
 21
106.7012557133
  0
LINE
  5
39A
100
AcDbEntity
  8
0
100
AcDbLine
 62
253
  6
CONTINUOUS
 10
171.9633038452
 20
106.4475778847
 11
171.963424975
 21
86.020767356
  0
LINE
  5
39B
100
AcDbEntity
  8
ASSI
100
AcDbLine
 62
253
  6
CONTINUOUS
 10
171.9633038452
 20
106.4475778847
 11
171.963424975
 21
86.020767356
  0
LINE
  5
39C
100
AcDbEntity
  8
0
100
AcDbLine
 62
253
  6
CONTINUOUS
 10
171.9629766489
 20
128.994146847
 11
171.9628378659
 21
107.3278256233
  0
LINE
  5
39D
100
AcDbEntity
  8
ASSI
100
AcDbLine
 62
253
  6
CONTINUOUS
 10
171.9629766489
 20
128.994146847
 11
171.9628378659
 21
107.3278256233
  0
LINE
  5
39E
100
AcDbEntity
  8
0
100
AcDbLine
 62
253
  6
CONTINUOUS
 10
171.963424975
 20
86.020767356
 11
171.9629766489
 21
84.9823188495
  0
LINE
  5
39F
100
AcDbEntity
  8
ASSI
100
AcDbLine
 62
253
  6
CONTINUOUS
 10
171.963424975
 20
86.020767356
 11
171.9629766489
 21
84.9823188495
  0
LWPOLYLINE
  5
3A0
100
AcDbEntity
  8
0
100
AcDbPolyline
 62
253
  6
CONTINUOUS
 90
5
 70
0
 10
171.9628378659
 20
107.3278256233
 10
171.9624406262
 20
107.2561904086
 10
171.9622966643
 20
107.2423228409
 10
171.962149488
 20
107.2337579659
 10
171.9620006957
 20
107.2305888037
  0
LWPOLYLINE
  5
3A1
100
AcDbEntity
  8
ASSI
100
AcDbPolyline
 62
253
  6
CONTINUOUS
 90
5
 70
0
 10
171.9628378659
 20
107.3278256233
 10
171.9624406262
 20
107.2561904086
 10
171.9622966643
 20
107.2423228409
 10
171.962149488
 20
107.2337579659
 10
171.9620006957
 20
107.2305888037
  0
LWPOLYLINE
  5
3A2
100
AcDbEntity
  8
0
100
AcDbPolyline
 62
253
  6
CONTINUOUS
 90
19
 70
0
 10
164.6285615087
 20
95.5943876974
 10
164.4496574154
 20
95.4123913442
 10
164.2685948377
 20
95.2325535438
 10
164.0854014606
 20
95.0549001035
 10
163.900104969
 20
94.8794568306
 10
163.7127330478
 20
94.7062495325
 10
163.523313382
 20
94.5353040166
 10
163.3318731589
 20
94.3666451917
 10
163.1384375756
 20
94.2002943732
 10
162.9430313314
 20
94.0362719779
 10
162.745679126
 20
93.8745984227
 10
162.5464056587
 20
93.7152941245
 10
162.3452356291
 20
93.5583795001
 10
162.1421947113
 20
93.4038752887
 10
161.9373124784
 20
93.2518035181
 10
161.7306194784
 20
93.1021865386
 10
161.5221462589
 20
92.9550467003
 10
161.311923368
 20
92.8104063535
 10
161.0999813534
 20
92.6682878482
  0
LWPOLYLINE
  5
3A3
100
AcDbEntity
  8
0
100
AcDbPolyline
 62
253
  6
CONTINUOUS
 90
42
 70
0
 10
160.9375653534
 20
93.2815828482
 10
160.9285285649
 20
93.275646189
 10
160.9193525342
 20
93.2699671286
 10
160.910044893
 20
93.2645478129
 10
160.9006132733
 20
93.2593903877
 10
160.8910653067
 20
93.2544969988
 10
160.8814086252
 20
93.2498697919
 10
160.8716508605
 20
93.2455109129
 10
160.8617996444
 20
93.2414225075
 10
160.8518626087
 20
93.2376067216
 10
160.8405903495
 20
93.2336419157
 10
160.8292299077
 20
93.2300244112
 10
160.8177920572
 20
93.2267537597
 10
160.8062875718
 20
93.2238295127
 10
160.7947272252
 20
93.2212512219
 10
160.7831217914
 20
93.2190184389
 10
160.7714820442
 20
93.2171307152
 10
160.7598187573
 20
93.2155876025
 10
160.7481413143
 20
93.2143888213
 10
160.7364535367
 20
93.2135347674
 10
160.7247578559
 20
93.2130260056
 10
160.7130567032
 20
93.2128631007
 10
160.7013525099
 20
93.2130466174
 10
160.6896477073
 20
93.2135771205
 10
160.6779447267
 20
93.2144551748
 10
160.6662459994
 20
93.215681345
 10
160.6545559494
 20
93.2172558847
 10
160.6428869721
 20
93.2191778023
 10
160.6312534555
 20
93.2214457951
 10
160.6196697878
 20
93.2240585604
 10
160.608150357
 20
93.2270147953
 10
160.5967095513
 20
93.2303131971
 10
160.5853617586
 20
93.233952463
 10
160.5741213672
 20
93.2379312903
 10
160.5630017965
 20
93.242247894
 10
160.5520125919
 20
93.2468985597
 10
160.5411623302
 20
93.2518790909
 10
160.5304595883
 20
93.2571852909
 10
160.5199129428
 20
93.2628129633
 10
160.5095309706
 20
93.2687579113
 10
160.4993222486
 20
93.2750159385
 10
160.4892953534
 20
93.2815828482
  0
LWPOLYLINE
  5
3A4
100
AcDbEntity
  8
0
100
AcDbPolyline
 62
253
  6
CONTINUOUS
 90
41
 70
0
 10
161.0999813534
 20
92.6682878482
 10
161.0825853421
 20
92.6571307155
 10
161.0648841271
 20
92.6465005101
 10
161.0468922594
 20
92.6364043003
 10
161.0286242901
 20
92.6268491543
 10
161.0100947702
 20
92.6178421405
 10
160.9913182507
 20
92.6093903271
 10
160.9723092826
 20
92.6015007823
 10
160.9530824169
 20
92.5941805745
 10
160.9336537112
 20
92.5874359141
 10
160.9140452488
 20
92.5812695811
 10
160.8942806195
 20
92.5756834976
 10
160.8743834131
 20
92.5706795857
 10
160.8543772194
 20
92.5662597677
 10
160.8342856283
 20
92.5624259655
 10
160.8141322295
 20
92.5591801015
 10
160.7939406129
 20
92.5565240978
 10
160.7737309447
 20
92.5544596356
 10
160.7535096962
 20
92.5529874332
 10
160.7332799154
 20
92.5521079679
 10
160.7130446501
 20
92.5518217172
 10
160.6928069481
 20
92.5521291582
 10
160.6725698573
 20
92.5530307685
 10
160.6523364253
 20
92.5545270254
 10
160.6321097002
 20
92.5566184062
 10
160.6118966894
 20
92.5593047222
 10
160.5917202397
 20
92.5625831197
 10
160.5716071574
 20
92.5664500793
 10
160.5515842491
 20
92.570902081
 10
160.5316783211
 20
92.5759356054
 10
160.5119161798
 20
92.5815471328
 10
160.4923246318
 20
92.5877331433
 10
160.4729304833
 20
92.5944901174
 10
160.453758156
 20
92.601813773
 10
160.4348225314
 20
92.6096967779
 10
160.4161361062
 20
92.6181310375
 10
160.397711377
 20
92.6271084574
 10
160.3795608405
 20
92.636620943
 10
160.3616969933
 20
92.6466603997
 10
160.344132332
 20
92.6572187329
 10
160.3268793534
 20
92.6682878482
  0
LWPOLYLINE
  5
3A5
100
AcDbEntity
  8
0
100
AcDbPolyline
 62
253
  6
CONTINUOUS
 90
19
 70
0
 10
161.099981234
 20
121.3081776677
 10
161.3119215755
 20
121.1660602989
 10
161.522143016
 20
121.0214209923
 10
161.730615003
 20
120.8742820908
 10
161.9373069844
 20
120.7246659373
 10
162.1421884077
 20
120.5725948746
 10
162.3452287208
 20
120.4180912455
 10
162.5463983459
 20
120.2611770709
 10
162.7456716033
 20
120.1018730831
 10
162.9430237882
 20
119.9401996926
 10
163.1384301954
 20
119.7761773096
 10
163.3318661201
 20
119.6098263447
 10
163.523306857
 20
119.4411672081
 10
163.7127272036
 20
119.2702212087
 10
163.9000999664
 20
119.0970132497
 10
164.0853974539
 20
118.9215691325
 10
164.2685919751
 20
118.7439146589
 10
164.4496558387
 20
118.5640756302
 10
164.6285613534
 20
118.3820778482
  0
LWPOLYLINE
  5
3A6
100
AcDbEntity
  8
0
100
AcDbPolyline
 62
253
  6
CONTINUOUS
 90
19
 70
0
 10
160.9375651076
 20
120.6948824846
 10
161.1329153016
 20
120.5611707748
 10
161.3267233914
 20
120.4252407355
 10
161.51896371
 20
120.2871114449
 10
161.7096105901
 20
120.1468019816
 10
161.8986383648
 20
120.0043314238
 10
162.0860213668
 20
119.85971885
 10
162.271734745
 20
119.7129830487
 10
162.4557569114
 20
119.5641416486
 10
162.6380670939
 20
119.4132119885
 10
162.8186445204
 20
119.2602114074
 10
162.9974684189
 20
119.105157244
 10
163.1745180173
 20
118.9480668372
 10
163.3497721142
 20
118.7889582787
 10
163.5232077915
 20
118.6278526708
 10
163.6948017015
 20
118.4647718686
 10
163.8645304968
 20
118.2997377274
 10
164.03237083
 20
118.1327721022
 10
164.1982993534
 20
117.9638968482
  0
LWPOLYLINE
  5
3A7
100
AcDbEntity
  8
0
100
AcDbPolyline
 62
253
  6
CONTINUOUS
 90
10
 70
0
 10
182.8760968506
 20
85.4631571754
 10
182.8748030795
 20
85.4675097284
 10
182.873531113
 20
85.4752036002
 10
182.8722809511
 20
85.4862387908
 10
182.871046044
 20
85.5007042141
 10
182.8698329414
 20
85.5185109563
 10
182.8686612925
 20
85.5393922756
 10
182.8675322841
 20
85.5633929196
 10
182.8664447293
 20
85.5904681409
 10
182.8654147172
 20
85.6202169553
  0
LWPOLYLINE
  5
3A8
100
AcDbEntity
  8
ASSI
100
AcDbPolyline
 62
253
  6
CONTINUOUS
 90
10
 70
0
 10
182.8760968506
 20
85.4631571754
 10
182.8748030795
 20
85.4675097284
 10
182.873531113
 20
85.4752036002
 10
182.8722809511
 20
85.4862387908
 10
182.871046044
 20
85.5007042141
 10
182.8698329414
 20
85.5185109563
 10
182.8686612925
 20
85.5393922756
 10
182.8675322841
 20
85.5633929196
 10
182.8664447293
 20
85.5904681409
 10
182.8654147172
 20
85.6202169553
  0
LINE
  5
3A9
100
AcDbEntity
  8
0
100
AcDbLine
 62
7
  6
CONTINUOUS
 10
179.7719871023
 20
129.1449371249
 11
179.4211653803
 21
129.113092007
  0
LINE
  5
3AA
100
AcDbEntity
  8
ASSI
100
AcDbLine
 62
7
  6
CONTINUOUS
 10
179.7719871023
 20
129.1449371249
 11
179.4211653803
 21
129.113092007
  0
LINE
  5
3AB
100
AcDbEntity
  8
0
100
AcDbLine
 62
253
  6
CONTINUOUS
 10
182.3923044034
 20
127.8654841999
 11
176.8995546978
 21
127.8595466323
  0
LINE
  5
3AC
100
AcDbEntity
  8
ASSI
100
AcDbLine
 62
253
  6
CONTINUOUS
 10
182.3923044034
 20
127.8654841999
 11
176.8995546978
 21
127.8595466323
  0
LINE
  5
3AD
100
AcDbEntity
  8
0
100
AcDbLine
 62
253
  6
CONTINUOUS
 10
176.8995546978
 20
127.8595466323
 11
147.6606468016
 21
127.8582918922
  0
LINE
  5
3AE
100
AcDbEntity
  8
ASSI
100
AcDbLine
 62
253
  6
CONTINUOUS
 10
176.8995546978
 20
127.8595466323
 11
147.6606468016
 21
127.8582918922
  0
LINE
  5
3AF
100
AcDbEntity
  8
0
100
AcDbLine
 62
253
  6
CONTINUOUS
 10
147.6606468016
 20
127.8582918922
 11
143.3834203655
 21
127.8604620838
  0
LINE
  5
3B0
100
AcDbEntity
  8
ASSI
100
AcDbLine
 62
253
  6
CONTINUOUS
 10
147.6606468016
 20
127.8582918922
 11
143.3834203655
 21
127.8604620838
  0
LINE
  5
3B1
100
AcDbEntity
  8
0
100
AcDbLine
 62
253
  6
CONTINUOUS
 10
143.3834203655
 20
127.8604620838
 11
139.0345562725
 21
127.8654841967
  0
LINE
  5
3B2
100
AcDbEntity
  8
ASSI
100
AcDbLine
 62
253
  6
CONTINUOUS
 10
143.3834203655
 20
127.8604620838
 11
139.0345562725
 21
127.8654841967
  0
LINE
  5
3B3
100
AcDbEntity
  8
0
100
AcDbLine
 62
7
  6
CONTINUOUS
 10
141.6548736045
 20
129.1449371249
 11
142.0056953265
 21
129.113092007
  0
LINE
  5
3B4
100
AcDbEntity
  8
ASSI
100
AcDbLine
 62
7
  6
CONTINUOUS
 10
141.6548736045
 20
129.1449371249
 11
142.0056953265
 21
129.113092007
  0
LWPOLYLINE
  5
3B5
100
AcDbEntity
  8
0
100
AcDbPolyline
 62
253
  6
CONTINUOUS
 90
8
 70
0
 10
182.375587095
 20
106.6194642989
 10
182.3719635843
 20
106.6525627816
 10
182.368049349
 20
106.6812051182
 10
182.3644174867
 20
106.7051273879
 10
182.3601637178
 20
106.7241666636
 10
182.3552900967
 20
106.7380655298
 10
182.350771803
 20
106.7466115644
 10
182.3470962917
 20
106.7497536235
  0
LWPOLYLINE
  5
3B6
100
AcDbEntity
  8
ASSI
100
AcDbPolyline
 62
253
  6
CONTINUOUS
 90
8
 70
0
 10
182.375587095
 20
106.6194642989
 10
182.3719635843
 20
106.6525627816
 10
182.368049349
 20
106.6812051182
 10
182.3644174867
 20
106.7051273879
 10
182.3601637178
 20
106.7241666636
 10
182.3552900967
 20
106.7380655298
 10
182.350771803
 20
106.7466115644
 10
182.3470962917
 20
106.7497536235
  0
LWPOLYLINE
  5
3B7
100
AcDbEntity
  8
0
100
AcDbPolyline
 62
253
  6
CONTINUOUS
 90
19
 70
0
 10
182.8469249542
 20
106.249772662
 10
182.8450582357
 20
106.2928299588
 10
182.8394707286
 20
106.3356870456
 10
182.8301730239
 20
106.3780196322
 10
182.8171961012
 20
106.419525324
 10
182.8006120565
 20
106.459857196
 10
182.7805533779
 20
106.4986342761
 10
182.757162418
 20
106.5355535012
 10
182.7306061552
 20
106.5703273672
 10
182.7011244464
 20
106.6026345965
 10
182.6689715623
 20
106.6322094144
 10
182.6343745679
 20
106.6588547382
 10
182.5975710644
 20
106.6823874915
 10
182.5588227145
 20
106.7026321791
 10
182.5184391202
 20
106.7194192605
 10
182.4767495455
 20
106.7326102545
 10
182.4340808775
 20
106.7421043191
 10
182.3907526424
 20
106.7478328856
 10
182.3470962917
 20
106.7497536235
  0
LWPOLYLINE
  5
3B8
100
AcDbEntity
  8
ASSI
100
AcDbPolyline
 62
253
  6
CONTINUOUS
 90
19
 70
0
 10
182.8469249542
 20
106.249772662
 10
182.8450582357
 20
106.2928299588
 10
182.8394707286
 20
106.3356870456
 10
182.8301730239
 20
106.3780196322
 10
182.8171961012
 20
106.419525324
 10
182.8006120565
 20
106.459857196
 10
182.7805533779
 20
106.4986342761
 10
182.757162418
 20
106.5355535012
 10
182.7306061552
 20
106.5703273672
 10
182.7011244464
 20
106.6026345965
 10
182.6689715623
 20
106.6322094144
 10
182.6343745679
 20
106.6588547382
 10
182.5975710644
 20
106.6823874915
 10
182.5588227145
 20
106.7026321791
 10
182.5184391202
 20
106.7194192605
 10
182.4767495455
 20
106.7326102545
 10
182.4340808775
 20
106.7421043191
 10
182.3907526424
 20
106.7478328856
 10
182.3470962917
 20
106.7497536235
  0
LWPOLYLINE
  5
3B9
100
AcDbEntity
  8
0
100
AcDbPolyline
 62
253
  6
CONTINUOUS
 90
4
 70
0
 10
182.3858461942
 20
106.451206529
 10
182.3840546034
 20
106.4979174566
 10
182.3813512869
 20
106.5418876597
 10
182.375587095
 20
106.6194642989
  0
LWPOLYLINE
  5
3BA
100
AcDbEntity
  8
ASSI
100
AcDbPolyline
 62
253
  6
CONTINUOUS
 90
4
 70
0
 10
182.3858461942
 20
106.451206529
 10
182.3840546034
 20
106.4979174566
 10
182.3813512869
 20
106.5418876597
 10
182.375587095
 20
106.6194642989
  0
LWPOLYLINE
  5
3BB
100
AcDbEntity
  8
0
100
AcDbPolyline
 62
253
  6
CONTINUOUS
 90
6
 70
0
 10
182.3816174874
 20
128.917626317
 10
182.3805869862
 20
128.9480442855
 10
182.379515881
 20
128.9728643312
 10
182.3784100999
 20
128.9919614049
 10
182.3773182501
 20
129.0052372684
 10
182.37626819
 20
129.0126232923
  0
LWPOLYLINE
  5
3BC
100
AcDbEntity
  8
ASSI
100
AcDbPolyline
 62
253
  6
CONTINUOUS
 90
6
 70
0
 10
182.3816174874
 20
128.917626317
 10
182.3805869862
 20
128.9480442855
 10
182.379515881
 20
128.9728643312
 10
182.3784100999
 20
128.9919614049
 10
182.3773182501
 20
129.0052372684
 10
182.37626819
 20
129.0126232923
  0
LINE
  5
3BD
100
AcDbEntity
  8
0
100
AcDbLine
 62
253
  6
CONTINUOUS
 10
182.8654147172
 20
85.6202169553
 11
182.8635290325
 21
85.6878186629
  0
LINE
  5
3BE
100
AcDbEntity
  8
ASSI
100
AcDbLine
 62
253
  6
CONTINUOUS
 10
182.8654147172
 20
85.6202169553
 11
182.8635290325
 21
85.6878186629
  0
LINE
  5
3BF
100
AcDbEntity
  8
0
100
AcDbLine
 62
253
  6
CONTINUOUS
 10
182.383643721
 20
128.8406202812
 11
182.3816174874
 21
128.917626317
  0
LINE
  5
3C0
100
AcDbEntity
  8
ASSI
100
AcDbLine
 62
253
  6
CONTINUOUS
 10
182.383643721
 20
128.8406202812
 11
182.3816174874
 21
128.917626317
  0
LINE
  5
3C1
100
AcDbEntity
  8
0
100
AcDbLine
 62
253
  6
CONTINUOUS
 10
182.8635290325
 20
85.6878186629
 11
182.861915218
 21
85.7645666254
  0
LINE
  5
3C2
100
AcDbEntity
  8
ASSI
100
AcDbLine
 62
253
  6
CONTINUOUS
 10
182.8635290325
 20
85.6878186629
 11
182.861915218
 21
85.7645666254
  0
LINE
  5
3C3
100
AcDbEntity
  8
0
100
AcDbLine
 62
253
  6
CONTINUOUS
 10
182.3855145372
 20
128.7433736088
 11
182.383643721
 21
128.8406202812
  0
LINE
  5
3C4
100
AcDbEntity
  8
ASSI
100
AcDbLine
 62
253
  6
CONTINUOUS
 10
182.3855145372
 20
128.7433736088
 11
182.383643721
 21
128.8406202812
  0
LINE
  5
3C5
100
AcDbEntity
  8
0
100
AcDbLine
 62
253
  6
CONTINUOUS
 10
182.861915218
 20
85.7645666254
 11
182.8605969151
 21
85.8493199375
  0
LINE
  5
3C6
100
AcDbEntity
  8
ASSI
100
AcDbLine
 62
253
  6
CONTINUOUS
 10
182.861915218
 20
85.7645666254
 11
182.8605969151
 21
85.8493199375
  0
LINE
  5
3C7
100
AcDbEntity
  8
0
100
AcDbLine
 62
253
  6
CONTINUOUS
 10
182.3880099859
 20
128.5638993292
 11
182.3855145372
 21
128.7433736088
  0
LINE
  5
3C8
100
AcDbEntity
  8
ASSI
100
AcDbLine
 62
253
  6
CONTINUOUS
 10
182.3880099859
 20
128.5638993292
 11
182.3855145372
 21
128.7433736088
  0
LINE
  5
3C9
100
AcDbEntity
  8
0
100
AcDbLine
 62
253
  6
CONTINUOUS
 10
182.8605969151
 20
85.8493199375
 11
182.8592384633
 21
85.9873300921
  0
LINE
  5
3CA
100
AcDbEntity
  8
ASSI
100
AcDbLine
 62
253
  6
CONTINUOUS
 10
182.8605969151
 20
85.8493199375
 11
182.8592384633
 21
85.9873300921
  0
LINE
  5
3CB
100
AcDbEntity
  8
0
100
AcDbLine
 62
253
  6
CONTINUOUS
 10
182.3905793213
 20
128.2747076187
 11
182.3880099859
 21
128.5638993292
  0
LINE
  5
3CC
100
AcDbEntity
  8
ASSI
100
AcDbLine
 62
253
  6
CONTINUOUS
 10
182.3905793213
 20
128.2747076187
 11
182.3880099859
 21
128.5638993292
  0
LWPOLYLINE
  5
3CD
100
AcDbEntity
  8
0
100
AcDbPolyline
 62
253
  6
CONTINUOUS
 90
3
 70
0
 10
182.3895700318
 20
107.727450814
 10
182.3897964259
 20
107.6744624062
 10
182.3889469641
 20
107.6232127406
  0
LWPOLYLINE
  5
3CE
100
AcDbEntity
  8
ASSI
100
AcDbPolyline
 62
253
  6
CONTINUOUS
 90
3
 70
0
 10
182.3895700318
 20
107.727450814
 10
182.3897964259
 20
107.6744624062
 10
182.3889469641
 20
107.6232127406
  0
LINE
  5
3CF
100
AcDbEntity
  8
0
100
AcDbLine
 62
253
  6
CONTINUOUS
 10
182.3923043664
 20
127.8654841957
 11
182.3905793213
 21
128.2747076187
  0
LINE
  5
3D0
100
AcDbEntity
  8
ASSI
100
AcDbLine
 62
253
  6
CONTINUOUS
 10
182.3923043664
 20
127.8654841957
 11
182.3905793213
 21
128.2747076187
  0
LINE
  5
3D1
100
AcDbEntity
  8
0
100
AcDbLine
 62
7
  6
CONTINUOUS
 10
182.943006164
 20
128.6472189706
 11
182.9626145554
 21
120.0882328482
  0
LINE
  5
3D2
100
AcDbEntity
  8
ASSI
100
AcDbLine
 62
7
  6
CONTINUOUS
 10
182.943006164
 20
128.6472189706
 11
182.9626145554
 21
120.0882328482
  0
LINE
  5
3D3
100
AcDbEntity
  8
0
100
AcDbLine
 62
253
  6
CONTINUOUS
 10
182.8592384633
 20
85.9873300921
 11
182.8586704076
 21
86.1324163768
  0
LINE
  5
3D4
100
AcDbEntity
  8
ASSI
100
AcDbLine
 62
253
  6
CONTINUOUS
 10
182.8592384633
 20
85.9873300921
 11
182.8586704076
 21
86.1324163768
  0
LINE
  5
3D5
100
AcDbEntity
  8
0
100
AcDbLine
 62
253
  6
CONTINUOUS
 10
182.8586704076
 20
86.1324163768
 11
182.8506912521
 21
95.1306857462
  0
LINE
  5
3D6
100
AcDbEntity
  8
ASSI
100
AcDbLine
 62
253
  6
CONTINUOUS
 10
182.8586704076
 20
86.1324163768
 11
182.8506912521
 21
95.1306857462
  0
LWPOLYLINE
  5
3D7
100
AcDbEntity
  8
0
100
AcDbPolyline
 62
253
  6
CONTINUOUS
 90
3
 70
0
 10
182.8506912521
 20
95.1306857462
 10
182.8471833644
 20
103.9418227179
 10
182.8469249542
 20
106.249772662
  0
LWPOLYLINE
  5
3D8
100
AcDbEntity
  8
ASSI
100
AcDbPolyline
 62
253
  6
CONTINUOUS
 90
3
 70
0
 10
182.8506912521
 20
95.1306857462
 10
182.8471833644
 20
103.9418227179
 10
182.8469249542
 20
106.249772662
  0
LINE
  5
3D9
100
AcDbEntity
  8
0
100
AcDbLine
 62
7
  6
CONTINUOUS
 10
182.9626145554
 20
120.0882328482
 11
182.9626145554
 21
107.688137666
  0
LINE
  5
3DA
100
AcDbEntity
  8
ASSI
100
AcDbLine
 62
7
  6
CONTINUOUS
 10
182.9626145554
 20
120.0882328482
 11
182.9626145554
 21
107.688137666
  0
LINE
  5
3DB
100
AcDbEntity
  8
0
100
AcDbLine
 62
7
  6
CONTINUOUS
 10
182.9626145554
 20
93.8882328482
 11
182.9626145554
 21
106.2883280304
  0
LINE
  5
3DC
100
AcDbEntity
  8
ASSI
100
AcDbLine
 62
7
  6
CONTINUOUS
 10
182.9626145554
 20
93.8882328482
 11
182.9626145554
 21
106.2883280304
  0
LINE
  5
3DD
100
AcDbEntity
  8
0
100
AcDbLine
 62
253
  6
CONTINUOUS
 10
182.3895699589
 20
107.7274508062
 11
182.3923044034
 21
127.8654841999
  0
LINE
  5
3DE
100
AcDbEntity
  8
ASSI
100
AcDbLine
 62
253
  6
CONTINUOUS
 10
182.3895699589
 20
107.7274508062
 11
182.3923044034
 21
127.8654841999
  0
LINE
  5
3DF
100
AcDbEntity
  8
0
100
AcDbLine
 62
253
  6
CONTINUOUS
 10
182.8469249559
 20
107.7266930339
 11
182.8503614697
 21
118.3206577668
  0
LINE
  5
3E0
100
AcDbEntity
  8
ASSI
100
AcDbLine
 62
253
  6
CONTINUOUS
 10
182.8469249559
 20
107.7266930339
 11
182.8503614697
 21
118.3206577668
  0
LINE
  5
3E1
100
AcDbEntity
  8
0
100
AcDbLine
 62
7
  6
CONTINUOUS
 10
182.943006164
 20
85.3292467259
 11
182.9626145554
 21
93.8882328482
  0
LINE
  5
3E2
100
AcDbEntity
  8
ASSI
100
AcDbLine
 62
7
  6
CONTINUOUS
 10
182.943006164
 20
85.3292467259
 11
182.9626145554
 21
93.8882328482
  0
LINE
  5
3E3
100
AcDbEntity
  8
0
100
AcDbLine
 62
253
  6
CONTINUOUS
 10
182.3918316489
 20
85.9436374159
 11
182.3895699566
 21
106.2490148937
  0
LINE
  5
3E4
100
AcDbEntity
  8
ASSI
100
AcDbLine
 62
253
  6
CONTINUOUS
 10
182.3918316489
 20
85.9436374159
 11
182.3895699566
 21
106.2490148937
  0
LINE
  5
3E5
100
AcDbEntity
  8
0
100
AcDbLine
 62
253
  6
CONTINUOUS
 10
182.8503614697
 20
118.3206577668
 11
182.8589612917
 21
127.9415597522
  0
LINE
  5
3E6
100
AcDbEntity
  8
ASSI
100
AcDbLine
 62
253
  6
CONTINUOUS
 10
182.8503614697
 20
118.3206577668
 11
182.8589612917
 21
127.9415597522
  0
LWPOLYLINE
  5
3E7
100
AcDbEntity
  8
0
100
AcDbPolyline
 62
253
  6
CONTINUOUS
 90
4
 70
0
 10
182.38957003
 20
106.2490148893
 10
182.3897962952
 20
106.3020013017
 10
182.3889469144
 20
106.3532492947
 10
182.3858461942
 20
106.451206529
  0
LWPOLYLINE
  5
3E8
100
AcDbEntity
  8
ASSI
100
AcDbPolyline
 62
253
  6
CONTINUOUS
 90
4
 70
0
 10
182.38957003
 20
106.2490148893
 10
182.3897962952
 20
106.3020013017
 10
182.3889469144
 20
106.3532492947
 10
182.3858461942
 20
106.451206529
  0
LINE
  5
3E9
100
AcDbEntity
  8
0
100
AcDbLine
 62
253
  6
CONTINUOUS
 10
182.3894100192
 20
85.5511653265
 11
182.3918316489
 21
85.9436374159
  0
LINE
  5
3EA
100
AcDbEntity
  8
ASSI
100
AcDbLine
 62
253
  6
CONTINUOUS
 10
182.3894100192
 20
85.5511653265
 11
182.3918316489
 21
85.9436374159
  0
LINE
  5
3EB
100
AcDbEntity
  8
0
100
AcDbLine
 62
253
  6
CONTINUOUS
 10
182.8589612917
 20
127.9415597522
 11
182.8600607034
 21
128.0824262509
  0
LINE
  5
3EC
100
AcDbEntity
  8
ASSI
100
AcDbLine
 62
253
  6
CONTINUOUS
 10
182.8589612917
 20
127.9415597522
 11
182.8600607034
 21
128.0824262509
  0
LINE
  5
3ED
100
AcDbEntity
  8
0
100
AcDbLine
 62
253
  6
CONTINUOUS
 10
182.3872233523
 20
85.3486355105
 11
182.3894100192
 21
85.5511653265
  0
LINE
  5
3EE
100
AcDbEntity
  8
ASSI
100
AcDbLine
 62
253
  6
CONTINUOUS
 10
182.3872233523
 20
85.3486355105
 11
182.3894100192
 21
85.5511653265
  0
LINE
  5
3EF
100
AcDbEntity
  8
0
100
AcDbLine
 62
253
  6
CONTINUOUS
 10
182.8600607034
 20
128.0824262509
 11
182.8612154767
 21
128.1702887651
  0
LINE
  5
3F0
100
AcDbEntity
  8
ASSI
100
AcDbLine
 62
253
  6
CONTINUOUS
 10
182.8600607034
 20
128.0824262509
 11
182.8612154767
 21
128.1702887651
  0
LINE
  5
3F1
100
AcDbEntity
  8
0
100
AcDbLine
 62
253
  6
CONTINUOUS
 10
182.3855146014
 20
85.2330920939
 11
182.3872233523
 21
85.3486355105
  0
LINE
  5
3F2
100
AcDbEntity
  8
ASSI
100
AcDbLine
 62
253
  6
CONTINUOUS
 10
182.3855146014
 20
85.2330920939
 11
182.3872233523
 21
85.3486355105
  0
LINE
  5
3F3
100
AcDbEntity
  8
0
100
AcDbLine
 62
253
  6
CONTINUOUS
 10
182.8612154767
 20
128.1702887651
 11
182.8626860283
 21
128.2513617286
  0
LINE
  5
3F4
100
AcDbEntity
  8
ASSI
100
AcDbLine
 62
253
  6
CONTINUOUS
 10
182.8612154767
 20
128.1702887651
 11
182.8626860283
 21
128.2513617286
  0
LINE
  5
3F5
100
AcDbEntity
  8
0
100
AcDbLine
 62
253
  6
CONTINUOUS
 10
182.3836437727
 20
85.1358454201
 11
182.3855146014
 21
85.2330920939
  0
LINE
  5
3F6
100
AcDbEntity
  8
ASSI
100
AcDbLine
 62
253
  6
CONTINUOUS
 10
182.3836437727
 20
85.1358454201
 11
182.3855146014
 21
85.2330920939
  0
LWPOLYLINE
  5
3F7
100
AcDbEntity
  8
0
100
AcDbPolyline
 62
253
  6
CONTINUOUS
 90
12
 70
0
 10
182.8626860283
 20
128.2513617286
 10
182.8644431057
 20
128.3237846897
 10
182.8654147194
 20
128.3562487467
 10
182.8664447315
 20
128.3859975609
 10
182.8675322862
 20
128.4130727819
 10
182.8686612947
 20
128.4370734257
 10
182.8698329435
 20
128.4579547449
 10
182.871046046
 20
128.4757614869
 10
182.8722809531
 20
128.4902269101
 10
182.873531115
 20
128.5012621005
 10
182.8748030815
 20
128.5089559721
 10
182.8760968525
 20
128.5133085249
  0
LWPOLYLINE
  5
3F8
100
AcDbEntity
  8
ASSI
100
AcDbPolyline
 62
253
  6
CONTINUOUS
 90
12
 70
0
 10
182.8626860283
 20
128.2513617286
 10
182.8644431057
 20
128.3237846897
 10
182.8654147194
 20
128.3562487467
 10
182.8664447315
 20
128.3859975609
 10
182.8675322862
 20
128.4130727819
 10
182.8686612947
 20
128.4370734257
 10
182.8698329435
 20
128.4579547449
 10
182.871046046
 20
128.4757614869
 10
182.8722809531
 20
128.4902269101
 10
182.873531115
 20
128.5012621005
 10
182.8748030815
 20
128.5089559721
 10
182.8760968525
 20
128.5133085249
  0
LWPOLYLINE
  5
3F9
100
AcDbEntity
  8
0
100
AcDbPolyline
 62
253
  6
CONTINUOUS
 90
4
 70
0
 10
182.3889469641
 20
107.6232127406
 10
182.385845947
 20
107.5252531702
 10
182.3840543175
 20
107.4785415837
 10
182.381350864
 20
107.4345711637
  0
LWPOLYLINE
  5
3FA
100
AcDbEntity
  8
ASSI
100
AcDbPolyline
 62
253
  6
CONTINUOUS
 90
4
 70
0
 10
182.3889469641
 20
107.6232127406
 10
182.385845947
 20
107.5252531702
 10
182.3840543175
 20
107.4785415837
 10
182.381350864
 20
107.4345711637
  0
LWPOLYLINE
  5
3FB
100
AcDbEntity
  8
0
100
AcDbPolyline
 62
253
  6
CONTINUOUS
 90
19
 70
0
 10
182.8469249559
 20
107.7266930339
 10
182.8450582344
 20
107.6836357019
 10
182.8394707189
 20
107.6407785849
 10
182.8301730017
 20
107.5984459737
 10
182.8171960627
 20
107.5569402605
 10
182.8006119997
 20
107.5166083734
 10
182.7805533062
 20
107.4778312916
 10
182.7571623426
 20
107.440912084
 10
182.7306060868
 20
107.4061382447
 10
182.7011243856
 20
107.3738310365
 10
182.6689715026
 20
107.3442562297
 10
182.6343745069
 20
107.3176109135
 10
182.5975710044
 20
107.2940781685
 10
182.5588226603
 20
107.2738334906
 10
182.5184390747
 20
107.2570464181
 10
182.4767495103
 20
107.2438554315
 10
182.4340808535
 20
107.2343613722
 10
182.3907526309
 20
107.2286328091
 10
182.3470962935
 20
107.2267120724
  0
LWPOLYLINE
  5
3FC
100
AcDbEntity
  8
ASSI
100
AcDbPolyline
 62
253
  6
CONTINUOUS
 90
19
 70
0
 10
182.8469249559
 20
107.7266930339
 10
182.8450582344
 20
107.6836357019
 10
182.8394707189
 20
107.6407785849
 10
182.8301730017
 20
107.5984459737
 10
182.8171960627
 20
107.5569402605
 10
182.8006119997
 20
107.5166083734
 10
182.7805533062
 20
107.4778312916
 10
182.7571623426
 20
107.440912084
 10
182.7306060868
 20
107.4061382447
 10
182.7011243856
 20
107.3738310365
 10
182.6689715026
 20
107.3442562297
 10
182.6343745069
 20
107.3176109135
 10
182.5975710044
 20
107.2940781685
 10
182.5588226603
 20
107.2738334906
 10
182.5184390747
 20
107.2570464181
 10
182.4767495103
 20
107.2438554315
 10
182.4340808535
 20
107.2343613722
 10
182.3907526309
 20
107.2286328091
 10
182.3470962935
 20
107.2267120724
  0
LWPOLYLINE
  5
3FD
100
AcDbEntity
  8
0
100
AcDbPolyline
 62
253
  6
CONTINUOUS
 90
9
 70
0
 10
182.381350864
 20
107.4345711637
 10
182.3755865245
 20
107.3569954627
 10
182.371963005
 20
107.323897908
 10
182.3680487479
 20
107.2952566876
 10
182.364416948
 20
107.2713355973
 10
182.3601632996
 20
107.2522973885
 10
182.3552898246
 20
107.2383993747
 10
182.3507716842
 20
107.2298539136
 10
182.347096293
 20
107.2267120724
  0
LWPOLYLINE
  5
3FE
100
AcDbEntity
  8
ASSI
100
AcDbPolyline
 62
253
  6
CONTINUOUS
 90
9
 70
0
 10
182.381350864
 20
107.4345711637
 10
182.3755865245
 20
107.3569954627
 10
182.371963005
 20
107.323897908
 10
182.3680487479
 20
107.2952566876
 10
182.364416948
 20
107.2713355973
 10
182.3601632996
 20
107.2522973885
 10
182.3552898246
 20
107.2383993747
 10
182.3507716842
 20
107.2298539136
 10
182.347096293
 20
107.2267120724
  0
LINE
  5
3FF
100
AcDbEntity
  8
0
100
AcDbLine
 62
7
  6
CONTINUOUS
 10
168.5719871023
 20
129.1449371249
 11
168.2211653803
 21
129.113092007
  0
LINE
  5
400
100
AcDbEntity
  8
ASSI
100
AcDbLine
 62
7
  6
CONTINUOUS
 10
168.5719871023
 20
129.1449371249
 11
168.2211653803
 21
129.113092007
  0
LINE
  5
401
100
AcDbEntity
  8
0
100
AcDbLine
 62
7
  6
CONTINUOUS
 10
157.2719871023
 20
129.1449371249
 11
156.9211653803
 21
129.113092007
  0
LINE
  5
402
100
AcDbEntity
  8
ASSI
100
AcDbLine
 62
7
  6
CONTINUOUS
 10
157.2719871023
 20
129.1449371249
 11
156.9211653803
 21
129.113092007
  0
LINE
  5
403
100
AcDbEntity
  8
0
100
AcDbLine
 62
7
  6
CONTINUOUS
 10
146.0719871023
 20
129.1449371249
 11
145.7211653803
 21
129.113092007
  0
LINE
  5
404
100
AcDbEntity
  8
ASSI
100
AcDbLine
 62
7
  6
CONTINUOUS
 10
146.0719871023
 20
129.1449371249
 11
145.7211653803
 21
129.113092007
  0
LWPOLYLINE
  5
405
100
AcDbEntity
  8
0
100
AcDbPolyline
 62
253
  6
CONTINUOUS
 90
16
 70
0
 10
139.0505925187
 20
129.0126232884
 10
138.9983908923
 20
129.0098212432
 10
138.9467602807
 20
129.0015886538
 10
138.896265384
 20
128.9880155835
 10
138.8474584622
 20
128.9692504991
 10
138.8008733406
 20
128.945498663
 10
138.7570195639
 20
128.9170199028
 10
138.7163767596
 20
128.8841257342
 10
138.6793894149
 20
128.8471759498
 10
138.6464620514
 20
128.8065747147
 10
138.6179547718
 20
128.7627661233
 10
138.5941793195
 20
128.7162293264
 10
138.5753956852
 20
128.6674733014
 10
138.5618092687
 20
128.6170312984
 10
138.553568629
 20
128.5654550093
 10
138.5507638563
 20
128.5133085211
  0
LWPOLYLINE
  5
406
100
AcDbEntity
  8
ASSI
100
AcDbPolyline
 62
253
  6
CONTINUOUS
 90
16
 70
0
 10
139.0505925187
 20
129.0126232884
 10
138.9983908923
 20
129.0098212432
 10
138.9467602807
 20
129.0015886538
 10
138.896265384
 20
128.9880155835
 10
138.8474584622
 20
128.9692504991
 10
138.8008733406
 20
128.945498663
 10
138.7570195639
 20
128.9170199028
 10
138.7163767596
 20
128.8841257342
 10
138.6793894149
 20
128.8471759498
 10
138.6464620514
 20
128.8065747147
 10
138.6179547718
 20
128.7627661233
 10
138.5941793195
 20
128.7162293264
 10
138.5753956852
 20
128.6674733014
 10
138.5618092687
 20
128.6170312984
 10
138.553568629
 20
128.5654550093
 10
138.5507638563
 20
128.5133085211
  0
LWPOLYLINE
  5
407
100
AcDbEntity
  8
0
100
AcDbPolyline
 62
253
  6
CONTINUOUS
 90
14
 70
0
 10
138.9375482267
 20
127.864677626
 10
138.8907086572
 20
127.8639718468
 10
138.8455883901
 20
127.8630728873
 10
138.8026249375
 20
127.8619894645
 10
138.7622348977
 20
127.8607320837
 10
138.7248099156
 20
127.8593129372
 10
138.6907128855
 20
127.857745786
 10
138.6602744316
 20
127.8560458259
 10
138.6337897026
 20
127.8542295407
 10
138.6115155098
 20
127.8523145423
 10
138.5936678364
 20
127.8503193995
 10
138.5804197437
 20
127.8482634583
 10
138.5718996929
 20
127.8461666544
 10
138.5681902993
 20
127.8440493196
  0
LWPOLYLINE
  5
408
100
AcDbEntity
  8
ASSI
100
AcDbPolyline
 62
253
  6
CONTINUOUS
 90
14
 70
0
 10
138.9375482267
 20
127.864677626
 10
138.8907086572
 20
127.8639718468
 10
138.8455883901
 20
127.8630728873
 10
138.8026249375
 20
127.8619894645
 10
138.7622348977
 20
127.8607320837
 10
138.7248099156
 20
127.8593129372
 10
138.6907128855
 20
127.857745786
 10
138.6602744316
 20
127.8560458259
 10
138.6337897026
 20
127.8542295407
 10
138.6115155098
 20
127.8523145423
 10
138.5936678364
 20
127.8503193995
 10
138.5804197437
 20
127.8482634583
 10
138.5718996929
 20
127.8461666544
 10
138.5681902993
 20
127.8440493196
  0
LINE
  5
409
100
AcDbEntity
  8
0
100
AcDbLine
 62
253
  6
CONTINUOUS
 10
139.0345562726
 20
127.8654842086
 11
138.9375482267
 21
127.864677626
  0
LINE
  5
40A
100
AcDbEntity
  8
ASSI
100
AcDbLine
 62
253
  6
CONTINUOUS
 10
139.0345562726
 20
127.8654842086
 11
138.9375482267
 21
127.864677626
  0
LINE
  5
40B
100
AcDbEntity
  8
0
100
AcDbLine
 62
253
  6
CONTINUOUS
 10
182.37626819
 20
129.0126232923
 11
179.1273506446
 21
129.0029073514
  0
LINE
  5
40C
100
AcDbEntity
  8
ASSI
100
AcDbLine
 62
253
  6
CONTINUOUS
 10
182.37626819
 20
129.0126232923
 11
179.1273506446
 21
129.0029073514
  0
LINE
  5
40D
100
AcDbEntity
  8
0
100
AcDbLine
 62
253
  6
CONTINUOUS
 10
179.1273506446
 20
129.0029073514
 11
175.7245426717
 21
128.9965893063
  0
LINE
  5
40E
100
AcDbEntity
  8
ASSI
100
AcDbLine
 62
253
  6
CONTINUOUS
 10
179.1273506446
 20
129.0029073514
 11
175.7245426717
 21
128.9965893063
  0
LINE
  5
40F
100
AcDbEntity
  8
0
100
AcDbLine
 62
253
  6
CONTINUOUS
 10
175.7245426717
 20
128.9965893063
 11
171.9629766489
 21
128.994146847
  0
LINE
  5
410
100
AcDbEntity
  8
ASSI
100
AcDbLine
 62
253
  6
CONTINUOUS
 10
175.7245426717
 20
128.9965893063
 11
171.9629766489
 21
128.994146847
  0
LINE
  5
411
100
AcDbEntity
  8
0
100
AcDbLine
 62
7
  6
CONTINUOUS
 10
156.7479602996
 20
129.1078512291
 11
153.3789004073
 21
129.1078512291
  0
LINE
  5
412
100
AcDbEntity
  8
ASSI
100
AcDbLine
 62
7
  6
CONTINUOUS
 10
156.7479602996
 20
129.1078512291
 11
153.3789004073
 21
129.1078512291
  0
LINE
  5
413
100
AcDbEntity
  8
0
100
AcDbLine
 62
7
  6
CONTINUOUS
 10
145.5479602996
 20
129.1078512291
 11
142.1789004073
 21
129.1078512291
  0
LINE
  5
414
100
AcDbEntity
  8
ASSI
100
AcDbLine
 62
7
  6
CONTINUOUS
 10
145.5479602996
 20
129.1078512291
 11
142.1789004073
 21
129.1078512291
  0
LINE
  5
415
100
AcDbEntity
  8
0
100
AcDbLine
 62
7
  6
CONTINUOUS
 10
164.6789004073
 20
129.1078512291
 11
168.0479602996
 21
129.1078512291
  0
LINE
  5
416
100
AcDbEntity
  8
ASSI
100
AcDbLine
 62
7
  6
CONTINUOUS
 10
164.6789004073
 20
129.1078512291
 11
168.0479602996
 21
129.1078512291
  0
LINE
  5
417
100
AcDbEntity
  8
0
100
AcDbLine
 62
7
  6
CONTINUOUS
 10
175.8789004073
 20
129.1078512291
 11
179.2479602996
 21
129.1078512291
  0
LINE
  5
418
100
AcDbEntity
  8
ASSI
100
AcDbLine
 62
7
  6
CONTINUOUS
 10
175.8789004073
 20
129.1078512291
 11
179.2479602996
 21
129.1078512291
  0
LINE
  5
419
100
AcDbEntity
  8
0
100
AcDbLine
 62
7
  6
CONTINUOUS
 10
182.4423797424
 20
129.1449371249
 11
179.7719871023
 21
129.1449371249
  0
LINE
  5
41A
100
AcDbEntity
  8
ASSI
100
AcDbLine
 62
7
  6
CONTINUOUS
 10
182.4423797424
 20
129.1449371249
 11
179.7719871023
 21
129.1449371249
  0
LINE
  5
41B
100
AcDbEntity
  8
0
100
AcDbLine
 62
7
  6
CONTINUOUS
 10
175.3548736045
 20
129.1449371249
 11
168.5719871023
 21
129.1449371249
  0
LINE
  5
41C
100
AcDbEntity
  8
ASSI
100
AcDbLine
 62
7
  6
CONTINUOUS
 10
175.3548736045
 20
129.1449371249
 11
168.5719871023
 21
129.1449371249
  0
LINE
  5
41D
100
AcDbEntity
  8
0
100
AcDbLine
 62
7
  6
CONTINUOUS
 10
164.1548736045
 20
129.1449371249
 11
157.2719871023
 21
129.1449371249
  0
LINE
  5
41E
100
AcDbEntity
  8
ASSI
100
AcDbLine
 62
7
  6
CONTINUOUS
 10
164.1548736045
 20
129.1449371249
 11
157.2719871023
 21
129.1449371249
  0
LINE
  5
41F
100
AcDbEntity
  8
0
100
AcDbLine
 62
7
  6
CONTINUOUS
 10
152.8548736045
 20
129.1449371249
 11
146.0719871023
 21
129.1449371249
  0
LINE
  5
420
100
AcDbEntity
  8
ASSI
100
AcDbLine
 62
7
  6
CONTINUOUS
 10
152.8548736045
 20
129.1449371249
 11
146.0719871023
 21
129.1449371249
  0
LINE
  5
421
100
AcDbEntity
  8
0
100
AcDbLine
 62
7
  6
CONTINUOUS
 10
141.6548736045
 20
129.1449371249
 11
138.9844809645
 21
129.1449371249
  0
LINE
  5
422
100
AcDbEntity
  8
ASSI
100
AcDbLine
 62
7
  6
CONTINUOUS
 10
141.6548736045
 20
129.1449371249
 11
138.9844809645
 21
129.1449371249
  0
LINE
  5
423
100
AcDbEntity
  8
0
100
AcDbLine
 62
253
  6
CONTINUOUS
 10
171.9629766489
 20
128.994146847
 11
146.7861083905
 21
128.9953987307
  0
LINE
  5
424
100
AcDbEntity
  8
ASSI
100
AcDbLine
 62
253
  6
CONTINUOUS
 10
171.9629766489
 20
128.994146847
 11
146.7861083905
 21
128.9953987307
  0
LINE
  5
425
100
AcDbEntity
  8
0
100
AcDbLine
 62
253
  6
CONTINUOUS
 10
146.7861083905
 20
128.9953987307
 11
143.3966281532
 21
129.0004342213
  0
LINE
  5
426
100
AcDbEntity
  8
ASSI
100
AcDbLine
 62
253
  6
CONTINUOUS
 10
146.7861083905
 20
128.9953987307
 11
143.3966281532
 21
129.0004342213
  0
LWPOLYLINE
  5
427
100
AcDbEntity
  8
0
100
AcDbPolyline
 62
253
  6
CONTINUOUS
 90
3
 70
0
 10
143.3966281532
 20
129.0004342213
 10
139.9474101336
 20
129.0095998816
 10
139.0505925187
 20
129.0126232884
  0
LWPOLYLINE
  5
428
100
AcDbEntity
  8
ASSI
100
AcDbPolyline
 62
253
  6
CONTINUOUS
 90
3
 70
0
 10
143.3966281532
 20
129.0004342213
 10
139.9474101336
 20
129.0095998816
 10
139.0505925187
 20
129.0126232884
  0
LWPOLYLINE
  5
429
100
AcDbEntity
  8
0
100
AcDbPolyline
 62
253
  6
CONTINUOUS
 90
15
 70
0
 10
182.3923035106
 20
127.8654836655
 10
182.4893106546
 20
127.8646771091
 10
182.5361498338
 20
127.8639713519
 10
182.581269768
 20
127.86307242
 10
182.6242329572
 20
127.8619890296
 10
182.6646228139
 20
127.8607316856
 10
182.7020477024
 20
127.8593125794
 10
182.7361447369
 20
127.8577454715
 10
182.7665832994
 20
127.8560455569
 10
182.7930682459
 20
127.8542293189
 10
182.8153427682
 20
127.8523143682
 10
182.8331908842
 20
127.850319273
 10
182.8464395316
 20
127.8482633785
 10
182.8549602465
 20
127.8461666194
 10
182.8586704087
 20
127.8440493267
  0
LWPOLYLINE
  5
42A
100
AcDbEntity
  8
ASSI
100
AcDbPolyline
 62
253
  6
CONTINUOUS
 90
15
 70
0
 10
182.3923035106
 20
127.8654836655
 10
182.4893106546
 20
127.8646771091
 10
182.5361498338
 20
127.8639713519
 10
182.581269768
 20
127.86307242
 10
182.6242329572
 20
127.8619890296
 10
182.6646228139
 20
127.8607316856
 10
182.7020477024
 20
127.8593125794
 10
182.7361447369
 20
127.8577454715
 10
182.7665832994
 20
127.8560455569
 10
182.7930682459
 20
127.8542293189
 10
182.8153427682
 20
127.8523143682
 10
182.8331908842
 20
127.850319273
 10
182.8464395316
 20
127.8482633785
 10
182.8549602465
 20
127.8461666194
 10
182.8586704087
 20
127.8440493267
  0
LWPOLYLINE
  5
42B
100
AcDbEntity
  8
0
100
AcDbPolyline
 62
253
  6
CONTINUOUS
 90
16
 70
0
 10
182.37626819
 20
129.0126232923
 10
182.4284691601
 20
129.0098213171
 10
182.4800992016
 20
129.00158892
 10
182.5305936305
 20
128.9880161397
 10
182.579400183
 20
128.9692514236
 10
182.6259850556
 20
128.9455000035
 10
182.6698387441
 20
128.9170216517
 10
182.710481615
 20
128.8841278395
 10
182.7474691523
 20
128.8471783306
 10
182.7803968188
 20
128.8065772463
 10
182.8089044804
 20
128.7627686457
 10
182.8326803454
 20
128.7162316689
 10
182.8514643742
 20
128.6674752966
 10
182.8650511236
 20
128.6170327832
 10
182.8732919935
 20
128.5654558248
 10
182.8760968525
 20
128.5133085249
  0
LWPOLYLINE
  5
42C
100
AcDbEntity
  8
ASSI
100
AcDbPolyline
 62
253
  6
CONTINUOUS
 90
16
 70
0
 10
182.37626819
 20
129.0126232923
 10
182.4284691601
 20
129.0098213171
 10
182.4800992016
 20
129.00158892
 10
182.5305936305
 20
128.9880161397
 10
182.579400183
 20
128.9692514236
 10
182.6259850556
 20
128.9455000035
 10
182.6698387441
 20
128.9170216517
 10
182.710481615
 20
128.8841278395
 10
182.7474691523
 20
128.8471783306
 10
182.7803968188
 20
128.8065772463
 10
182.8089044804
 20
128.7627686457
 10
182.8326803454
 20
128.7162316689
 10
182.8514643742
 20
128.6674752966
 10
182.8650511236
 20
128.6170327832
 10
182.8732919935
 20
128.5654558248
 10
182.8760968525
 20
128.5133085249
  0
LINE
  5
42D
100
AcDbEntity
  8
0
100
AcDbLine
 62
7
  6
CONTINUOUS
 10
152.8548736045
 20
129.1449371249
 11
153.2056953265
 21
129.113092007
  0
LINE
  5
42E
100
AcDbEntity
  8
ASSI
100
AcDbLine
 62
7
  6
CONTINUOUS
 10
152.8548736045
 20
129.1449371249
 11
153.2056953265
 21
129.113092007
  0
LINE
  5
42F
100
AcDbEntity
  8
0
100
AcDbLine
 62
7
  6
CONTINUOUS
 10
164.1548736045
 20
129.1449371249
 11
164.5056953265
 21
129.113092007
  0
LINE
  5
430
100
AcDbEntity
  8
ASSI
100
AcDbLine
 62
7
  6
CONTINUOUS
 10
164.1548736045
 20
129.1449371249
 11
164.5056953265
 21
129.113092007
  0
LINE
  5
431
100
AcDbEntity
  8
0
100
AcDbLine
 62
7
  6
CONTINUOUS
 10
175.3548736045
 20
129.1449371249
 11
175.7056953265
 21
129.113092007
  0
LINE
  5
432
100
AcDbEntity
  8
ASSI
100
AcDbLine
 62
7
  6
CONTINUOUS
 10
175.3548736045
 20
129.1449371249
 11
175.7056953265
 21
129.113092007
  0
LWPOLYLINE
  5
433
100
AcDbEntity
  8
0
100
AcDbPolyline
 62
253
  6
CONTINUOUS
 90
7
 70
0
 10
182.3762681881
 20
84.963842408
 10
182.3773182567
 20
84.9712284315
 10
182.3784101148
 20
84.9845042945
 10
182.3795159038
 20
85.0036013679
 10
182.3805870167
 20
85.0284214136
 10
182.3816175252
 20
85.0588393828
 10
182.3836437727
 20
85.1358454201
  0
LWPOLYLINE
  5
434
100
AcDbEntity
  8
ASSI
100
AcDbPolyline
 62
253
  6
CONTINUOUS
 90
7
 70
0
 10
182.3762681881
 20
84.963842408
 10
182.3773182567
 20
84.9712284315
 10
182.3784101148
 20
84.9845042945
 10
182.3795159038
 20
85.0036013679
 10
182.3805870167
 20
85.0284214136
 10
182.3816175252
 20
85.0588393828
 10
182.3836437727
 20
85.1358454201
  0
LINE
  5
435
100
AcDbEntity
  8
0
100
AcDbLine
 62
7
  6
CONTINUOUS
 10
120.1119495575
 20
84.8315285716
 11
117.2346996541
 21
84.9823188495
  0
LINE
  5
436
100
AcDbEntity
  8
ASSI
100
AcDbLine
 62
7
  6
CONTINUOUS
 10
120.1119495575
 20
84.8315285716
 11
117.2346996541
 21
84.9823188495
  0
LWPOLYLINE
  5
437
100
AcDbEntity
  8
0
100
AcDbPolyline
 62
253
  6
CONTINUOUS
 90
5
 70
0
 10
117.5872511588
 20
84.963842408
 10
117.503042351
 20
84.9712284315
 10
117.4195786613
 20
84.9845042945
 10
117.3372709069
 20
85.0036013679
 10
117.2565252218
 20
85.0284214136
  0
LWPOLYLINE
  5
438
100
AcDbEntity
  8
ASSI
100
AcDbPolyline
 62
253
  6
CONTINUOUS
 90
5
 70
0
 10
117.5872511588
 20
84.963842408
 10
117.503042351
 20
84.9712284315
 10
117.4195786613
 20
84.9845042945
 10
117.3372709069
 20
85.0036013679
 10
117.2565252218
 20
85.0284214136
  0
LWPOLYLINE
  5
439
100
AcDbEntity
  8
0
100
AcDbPolyline
 62
253
  6
CONTINUOUS
 90
5
 70
0
 10
117.2565252938
 20
128.9480442855
 10
117.3372709771
 20
128.9728643312
 10
117.4195787314
 20
128.9919614049
 10
117.5030424221
 20
129.0052372684
 10
117.5872512322
 20
129.0126232923
  0
LWPOLYLINE
  5
43A
100
AcDbEntity
  8
ASSI
100
AcDbPolyline
 62
253
  6
CONTINUOUS
 90
5
 70
0
 10
117.2565252938
 20
128.9480442855
 10
117.3372709771
 20
128.9728643312
 10
117.4195787314
 20
128.9919614049
 10
117.5030424221
 20
129.0052372684
 10
117.5872512322
 20
129.0126232923
  0
LINE
  5
43B
100
AcDbEntity
  8
0
100
AcDbLine
 62
253
  6
CONTINUOUS
 10
116.4495118368
 20
86.1109814879
 11
116.4552139979
 21
86.1112823152
  0
LINE
  5
43C
100
AcDbEntity
  8
ASSI
100
AcDbLine
 62
253
  6
CONTINUOUS
 10
116.4495118368
 20
86.1109814879
 11
116.4552139979
 21
86.1112823152
  0
LINE
  5
43D
100
AcDbEntity
  8
0
100
AcDbLine
 62
253
  6
CONTINUOUS
 10
116.4552139979
 20
86.1112823152
 11
116.6587926496
 21
86.1204198706
  0
LINE
  5
43E
100
AcDbEntity
  8
ASSI
100
AcDbLine
 62
253
  6
CONTINUOUS
 10
116.4552139979
 20
86.1112823152
 11
116.6587926496
 21
86.1204198706
  0
LINE
  5
43F
100
AcDbEntity
  8
0
100
AcDbLine
 62
253
  6
CONTINUOUS
 10
116.6587926496
 20
86.1204198706
 11
116.9348416529
 21
86.1324163768
  0
LINE
  5
440
100
AcDbEntity
  8
ASSI
100
AcDbLine
 62
253
  6
CONTINUOUS
 10
116.6587926496
 20
86.1204198706
 11
116.9348416529
 21
86.1324163768
  0
LWPOLYLINE
  5
441
100
AcDbEntity
  8
0
100
AcDbPolyline
 62
253
  6
CONTINUOUS
 90
4
 70
0
 10
116.099137139
 20
86.1180681183
 10
116.1020760823
 20
86.1181922623
 10
116.1100654447
 20
86.1181738043
 10
116.1228753689
 20
86.1180129515
  0
LWPOLYLINE
  5
442
100
AcDbEntity
  8
ASSI
100
AcDbPolyline
 62
253
  6
CONTINUOUS
 90
4
 70
0
 10
116.099137139
 20
86.1180681183
 10
116.1020760823
 20
86.1181922623
 10
116.1100654447
 20
86.1181738043
 10
116.1228753689
 20
86.1180129515
  0
LINE
  5
443
100
AcDbEntity
  8
0
100
AcDbLine
 62
253
  6
CONTINUOUS
 10
116.1228753689
 20
86.1180129515
 11
116.4495118347
 21
86.1109814998
  0
LINE
  5
444
100
AcDbEntity
  8
ASSI
100
AcDbLine
 62
253
  6
CONTINUOUS
 10
116.1228753689
 20
86.1180129515
 11
116.4495118347
 21
86.1109814998
  0
LINE
  5
445
100
AcDbEntity
  8
0
100
AcDbLine
 62
253
  6
CONTINUOUS
 10
120.1554942536
 20
85.3292467259
 11
117.6003306628
 21
85.4631571754
  0
LINE
  5
446
100
AcDbEntity
  8
ASSI
100
AcDbLine
 62
253
  6
CONTINUOUS
 10
120.1554942536
 20
85.3292467259
 11
117.6003306628
 21
85.4631571754
  0
LWPOLYLINE
  5
447
100
AcDbEntity
  8
0
100
AcDbPolyline
 62
253
  6
CONTINUOUS
 90
22
 70
0
 10
117.6003306628
 20
85.4631571754
 10
117.5509235393
 20
85.4675097284
 10
117.5023490981
 20
85.4752036002
 10
117.4546073392
 20
85.4862387908
 10
117.4074481393
 20
85.5007042141
 10
117.3611216218
 20
85.5185109563
 10
117.3163781566
 20
85.5393922756
 10
117.2732630624
 20
85.5633929196
 10
117.2317310206
 20
85.5904681409
 10
117.1923964454
 20
85.6202169553
 10
117.155292016
 20
85.6526810125
 10
117.1203850532
 20
85.6878186629
 10
117.0881919334
 20
85.7251039739
 10
117.0587559616
 20
85.7645666254
 10
117.0320338327
 20
85.8061769375
 10
117.0084120085
 20
85.8493199375
 10
116.987934818
 20
85.8940394515
 10
116.9705579321
 20
85.9402916535
 10
116.9565348252
 20
85.9873300921
 10
116.9459499888
 20
86.0349059504
 10
116.9387189313
 20
86.0832680453
 10
116.9348416529
 20
86.1324163768
  0
LWPOLYLINE
  5
448
100
AcDbEntity
  8
ASSI
100
AcDbPolyline
 62
253
  6
CONTINUOUS
 90
22
 70
0
 10
117.6003306628
 20
85.4631571754
 10
117.5509235393
 20
85.4675097284
 10
117.5023490981
 20
85.4752036002
 10
117.4546073392
 20
85.4862387908
 10
117.4074481393
 20
85.5007042141
 10
117.3611216218
 20
85.5185109563
 10
117.3163781566
 20
85.5393922756
 10
117.2732630624
 20
85.5633929196
 10
117.2317310206
 20
85.5904681409
 10
117.1923964454
 20
85.6202169553
 10
117.155292016
 20
85.6526810125
 10
117.1203850532
 20
85.6878186629
 10
117.0881919334
 20
85.7251039739
 10
117.0587559616
 20
85.7645666254
 10
117.0320338327
 20
85.8061769375
 10
117.0084120085
 20
85.8493199375
 10
116.987934818
 20
85.8940394515
 10
116.9705579321
 20
85.9402916535
 10
116.9565348252
 20
85.9873300921
 10
116.9459499888
 20
86.0349059504
 10
116.9387189313
 20
86.0832680453
 10
116.9348416529
 20
86.1324163768
  0
LWPOLYLINE
  5
449
100
AcDbEntity
  8
0
100
AcDbPolyline
 62
253
  6
CONTINUOUS
 90
18
 70
0
 10
117.2565252218
 20
85.0284214136
 10
117.1777368362
 20
85.0588393828
 10
117.101288871
 20
85.0947059987
 10
117.0275532454
 20
85.1358454201
 10
116.9568963698
 20
85.1820516256
 10
116.8896730225
 20
85.2330920939
 10
116.8262141219
 20
85.2887117631
 10
116.7668285284
 20
85.3486355105
 10
116.7118094764
 20
85.4125663763
 10
116.6614257006
 20
85.4801880529
 10
116.6159232518
 20
85.5511653265
 10
116.5755269319
 20
85.6251459055
 10
116.5404357749
 20
85.7017580913
 10
116.510816405
 20
85.7806288121
 10
116.4868091907
 20
85.8613858291
 10
116.4685327548
 20
85.9436374159
 10
116.4560794765
 20
86.0269728488
 10
116.4495118343
 20
86.1109815
  0
LWPOLYLINE
  5
44A
100
AcDbEntity
  8
ASSI
100
AcDbPolyline
 62
253
  6
CONTINUOUS
 90
18
 70
0
 10
117.2565252218
 20
85.0284214136
 10
117.1777368362
 20
85.0588393828
 10
117.101288871
 20
85.0947059987
 10
117.0275532454
 20
85.1358454201
 10
116.9568963698
 20
85.1820516256
 10
116.8896730225
 20
85.2330920939
 10
116.8262141219
 20
85.2887117631
 10
116.7668285284
 20
85.3486355105
 10
116.7118094764
 20
85.4125663763
 10
116.6614257006
 20
85.4801880529
 10
116.6159232518
 20
85.5511653265
 10
116.5755269319
 20
85.6251459055
 10
116.5404357749
 20
85.7017580913
 10
116.510816405
 20
85.7806288121
 10
116.4868091907
 20
85.8613858291
 10
116.4685327548
 20
85.9436374159
 10
116.4560794765
 20
86.0269728488
 10
116.4495118343
 20
86.1109815
  0
LINE
  5
44B
100
AcDbEntity
  8
ASSI
100
AcDbLine
 62
7
  6
CONTINUOUS
 10
116.098562686
 20
127.8585802698
 11
116.0985149536
 21
127.8585498864
  0
LINE
  5
44C
100
AcDbEntity
  8
0
100
AcDbLine
 62
7
  6
CONTINUOUS
 10
116.0985150851
 20
86.1179218594
 11
116.099137139
 21
86.1180681183
  0
LINE
  5
44D
100
AcDbEntity
  8
ASSI
100
AcDbLine
 62
7
  6
CONTINUOUS
 10
116.0985150851
 20
86.1179218594
 11
116.099137139
 21
86.1180681183
  0
LINE
  5
44E
100
AcDbEntity
  8
0
100
AcDbLine
 62
253
  6
CONTINUOUS
 10
120.5043085106
 20
89.054741247
 11
120.4814327902
 21
89.0547412472
  0
LINE
  5
44F
100
AcDbEntity
  8
ASSI
100
AcDbLine
 62
253
  6
CONTINUOUS
 10
120.5043085106
 20
89.054741247
 11
120.4814327902
 21
89.0547412472
  0
LWPOLYLINE
  5
450
100
AcDbEntity
  8
0
100
AcDbPolyline
 62
253
  6
CONTINUOUS
 90
11
 70
0
 10
117.5872512322
 20
129.0126232923
 10
117.5860311482
 20
129.0098213171
 10
117.5851106105
 20
129.00158892
 10
117.5844996871
 20
128.9880161397
 10
117.5842050596
 20
128.9692514236
 10
117.5842299506
 20
128.9455000035
 10
117.5845740882
 20
128.9170216517
 10
117.5852337085
 20
128.8841278395
 10
117.5862015971
 20
128.8471783306
 10
117.5874671682
 20
128.8065772463
 10
117.5908328865
 20
128.7162316689
  0
LWPOLYLINE
  5
451
100
AcDbEntity
  8
ASSI
100
AcDbPolyline
 62
253
  6
CONTINUOUS
 90
11
 70
0
 10
117.5872512322
 20
129.0126232923
 10
117.5860311482
 20
129.0098213171
 10
117.5851106105
 20
129.00158892
 10
117.5844996871
 20
128.9880161397
 10
117.5842050596
 20
128.9692514236
 10
117.5842299506
 20
128.9455000035
 10
117.5845740882
 20
128.9170216517
 10
117.5852337085
 20
128.8841278395
 10
117.5862015971
 20
128.8471783306
 10
117.5874671682
 20
128.8065772463
 10
117.5908328865
 20
128.7162316689
  0
LWPOLYLINE
  5
452
100
AcDbEntity
  8
0
100
AcDbPolyline
 62
253
  6
CONTINUOUS
 90
9
 70
0
 10
117.5872511588
 20
84.963842408
 10
117.5860310569
 20
84.9666444533
 10
117.5851105105
 20
84.9748770427
 10
117.5844995868
 20
84.988450113
 10
117.5842049663
 20
85.0072151974
 10
117.5842298706
 20
85.0309670334
 10
117.5845740259
 20
85.0594457937
 10
117.5852336661
 20
85.0923399623
 10
117.5862015743
 20
85.1292897466
  0
LWPOLYLINE
  5
453
100
AcDbEntity
  8
ASSI
100
AcDbPolyline
 62
253
  6
CONTINUOUS
 90
9
 70
0
 10
117.5872511588
 20
84.963842408
 10
117.5860310569
 20
84.9666444533
 10
117.5851105105
 20
84.9748770427
 10
117.5844995868
 20
84.988450113
 10
117.5842049663
 20
85.0072151974
 10
117.5842298706
 20
85.0309670334
 10
117.5845740259
 20
85.0594457937
 10
117.5852336661
 20
85.0923399623
 10
117.5862015743
 20
85.1292897466
  0
LINE
  5
454
100
AcDbEntity
  8
0
100
AcDbLine
 62
253
  6
CONTINUOUS
 10
115.6583137061
 20
97.8668042914
 11
115.6569863773
 21
97.8667861244
  0
LINE
  5
455
100
AcDbEntity
  8
0
100
AcDbLine
 62
253
  6
CONTINUOUS
 10
115.6450810485
 20
98.4668058169
 11
115.6433706033
 21
98.4667839465
  0
LWPOLYLINE
  5
456
100
AcDbEntity
  8
0
100
AcDbPolyline
 62
253
  6
CONTINUOUS
 90
3
 70
0
 10
115.8907582553
 20
90.5864550351
 10
115.9887035254
 20
88.3518475557
 10
116.099137139
 20
86.1180681183
  0
LWPOLYLINE
  5
457
100
AcDbEntity
  8
0
100
AcDbPolyline
 62
253
  6
CONTINUOUS
 90
6
 70
0
 10
115.7007975263
 20
96.1021942451
 10
115.7007657013
 20
96.1030478688
 10
115.7007463117
 20
96.1034457881
 10
115.7007393137
 20
96.1033897283
 10
115.7007447812
 20
96.1028772367
 10
115.7007628176
 20
96.1019048158
  0
LINE
  5
458
100
AcDbEntity
  8
0
100
AcDbLine
 62
253
  6
CONTINUOUS
 10
115.7741871644
 20
93.7152941245
 11
115.8907582553
 21
90.5864550351
  0
LINE
  5
459
100
AcDbEntity
  8
0
100
AcDbLine
 62
253
  6
CONTINUOUS
 10
115.8107524626
 20
121.3081776677
 11
115.7741873505
 21
120.2611770709
  0
LWPOLYLINE
  5
45A
100
AcDbEntity
  8
CURVE
100
AcDbPolyline
 62
7
  6
CONTINUOUS
 90
7
 70
0
 10
116.0985296106
 20
127.8588436927
 10
115.9899044079
 20
125.6814035486
 10
115.8901781573
 20
123.429544274
 10
115.8032374287
 20
121.1769821074
 10
115.7290851764
 20
118.9237893344
 10
115.667724366
 20
116.670038575
 10
115.6191579651
 20
114.4158027836
  0
LWPOLYLINE
  5
45B
100
AcDbEntity
  8
ASSI
100
AcDbPolyline
 62
7
  6
CONTINUOUS
 90
7
 70
0
 10
116.0985296106
 20
127.8588436927
 10
115.9899044079
 20
125.6814035486
 10
115.8901781573
 20
123.429544274
 10
115.8032374287
 20
121.1769821074
 10
115.7290851764
 20
118.9237893344
 10
115.667724366
 20
116.670038575
 10
115.6191579651
 20
114.4158027836
  0
LWPOLYLINE
  5
45C
100
AcDbEntity
  8
0
100
AcDbPolyline
 62
253
  6
CONTINUOUS
 90
18
 70
0
 10
116.449511918
 20
127.8654841957
 10
116.4560795599
 20
127.9494928553
 10
116.4685328387
 20
128.032828294
 10
116.4868092754
 20
128.1150798838
 10
116.5108164903
 20
128.1958369005
 10
116.5404358599
 20
128.2747076187
 10
116.5755270163
 20
128.3513198023
 10
116.615923336
 20
128.4253003804
 10
116.6614257847
 20
128.4962776533
 10
116.7118095601
 20
128.5638993292
 10
116.7668286114
 20
128.627830194
 10
116.8262142041
 20
128.6877539405
 10
116.8896731036
 20
128.7433736088
 10
116.9568964498
 20
128.7944140764
 10
117.0275533242
 20
128.8406202812
 10
117.1012889482
 20
128.881759702
 10
117.177736911
 20
128.917626317
 10
117.2565252938
 20
128.9480442855
  0
LWPOLYLINE
  5
45D
100
AcDbEntity
  8
ASSI
100
AcDbPolyline
 62
253
  6
CONTINUOUS
 90
18
 70
0
 10
116.449511918
 20
127.8654841957
 10
116.4560795599
 20
127.9494928553
 10
116.4685328387
 20
128.032828294
 10
116.4868092754
 20
128.1150798838
 10
116.5108164903
 20
128.1958369005
 10
116.5404358599
 20
128.2747076187
 10
116.5755270163
 20
128.3513198023
 10
116.615923336
 20
128.4253003804
 10
116.6614257847
 20
128.4962776533
 10
116.7118095601
 20
128.5638993292
 10
116.7668286114
 20
128.627830194
 10
116.8262142041
 20
128.6877539405
 10
116.8896731036
 20
128.7433736088
 10
116.9568964498
 20
128.7944140764
 10
117.0275533242
 20
128.8406202812
 10
117.1012889482
 20
128.881759702
 10
117.177736911
 20
128.917626317
 10
117.2565252938
 20
128.9480442855
  0
LWPOLYLINE
  5
45E
100
AcDbEntity
  8
0
100
AcDbPolyline
 62
253
  6
CONTINUOUS
 90
22
 70
0
 10
116.9348416976
 20
127.8440493267
 10
116.9387189955
 20
127.8931976577
 10
116.9459500676
 20
127.9415597522
 10
116.9565349137
 20
127.9891356102
 10
116.9705580238
 20
128.0361740488
 10
116.987934908
 20
128.0824262509
 10
117.0084120966
 20
128.1271457651
 10
117.0320339204
 20
128.1702887651
 10
117.0587560488
 20
128.2118990772
 10
117.08819202
 20
128.2513617286
 10
117.1203851392
 20
128.2886470395
 10
117.1552921012
 20
128.3237846897
 10
117.1923965298
 20
128.3562487467
 10
117.2317311041
 20
128.3859975609
 10
117.2732631449
 20
128.4130727819
 10
117.316378238
 20
128.4370734257
 10
117.361121702
 20
128.4579547449
 10
117.4074482182
 20
128.4757614869
 10
117.4546074167
 20
128.4902269101
 10
117.5023491742
 20
128.5012621005
 10
117.5509236141
 20
128.5089559721
 10
117.6003307362
 20
128.5133085249
  0
LWPOLYLINE
  5
45F
100
AcDbEntity
  8
ASSI
100
AcDbPolyline
 62
253
  6
CONTINUOUS
 90
22
 70
0
 10
116.9348416976
 20
127.8440493267
 10
116.9387189955
 20
127.8931976577
 10
116.9459500676
 20
127.9415597522
 10
116.9565349137
 20
127.9891356102
 10
116.9705580238
 20
128.0361740488
 10
116.987934908
 20
128.0824262509
 10
117.0084120966
 20
128.1271457651
 10
117.0320339204
 20
128.1702887651
 10
117.0587560488
 20
128.2118990772
 10
117.08819202
 20
128.2513617286
 10
117.1203851392
 20
128.2886470395
 10
117.1552921012
 20
128.3237846897
 10
117.1923965298
 20
128.3562487467
 10
117.2317311041
 20
128.3859975609
 10
117.2732631449
 20
128.4130727819
 10
117.316378238
 20
128.4370734257
 10
117.361121702
 20
128.4579547449
 10
117.4074482182
 20
128.4757614869
 10
117.4546074167
 20
128.4902269101
 10
117.5023491742
 20
128.5012621005
 10
117.5509236141
 20
128.5089559721
 10
117.6003307362
 20
128.5133085249
  0
LWPOLYLINE
  5
460
100
AcDbEntity
  8
0
100
AcDbPolyline
 62
253
  6
CONTINUOUS
 90
16
 70
0
 10
116.0011972864
 20
107.727450814
 10
116.0039616706
 20
107.6744624062
 10
116.0120083114
 20
107.6232127406
 10
116.0251196025
 20
107.5735837559
 10
116.0434064809
 20
107.5252531702
 10
116.0668909141
 20
107.4785415837
 10
116.0950486813
 20
107.4345711637
 10
116.1274275632
 20
107.3940312349
 10
116.163961322
 20
107.3569954627
 10
116.204198414
 20
107.323897908
 10
116.2475488533
 20
107.2952566876
 10
116.2935992412
 20
107.2713355973
 10
116.3419790543
 20
107.2522973885
 10
116.3921412624
 20
107.2383993747
 10
116.4433771052
 20
107.2298539136
 10
116.4950261575
 20
107.2267120724
  0
LWPOLYLINE
  5
461
100
AcDbEntity
  8
ASSI
100
AcDbPolyline
 62
253
  6
CONTINUOUS
 90
16
 70
0
 10
116.0011972864
 20
107.727450814
 10
116.0039616706
 20
107.6744624062
 10
116.0120083114
 20
107.6232127406
 10
116.0251196025
 20
107.5735837559
 10
116.0434064809
 20
107.5252531702
 10
116.0668909141
 20
107.4785415837
 10
116.0950486813
 20
107.4345711637
 10
116.1274275632
 20
107.3940312349
 10
116.163961322
 20
107.3569954627
 10
116.204198414
 20
107.323897908
 10
116.2475488533
 20
107.2952566876
 10
116.2935992412
 20
107.2713355973
 10
116.3419790543
 20
107.2522973885
 10
116.3921412624
 20
107.2383993747
 10
116.4433771052
 20
107.2298539136
 10
116.4950261575
 20
107.2267120724
  0
LWPOLYLINE
  5
462
100
AcDbEntity
  8
0
100
AcDbPolyline
 62
253
  6
CONTINUOUS
 90
16
 70
0
 10
115.5551629176
 20
107.731498358
 10
115.5577814265
 20
107.6794569051
 10
115.5658018041
 20
107.6279705726
 10
115.5791369436
 20
107.5775985369
 10
115.5976420162
 20
107.5288878724
 10
115.6211160445
 20
107.4823676099
 10
115.6493040845
 20
107.4385429912
 10
115.681899995
 20
107.3978899812
 10
115.7185497623
 20
107.3608500991
 10
115.7588553451
 20
107.3278256233
 10
115.8023789975
 20
107.2991752219
 10
115.848648023
 20
107.2752100577
 10
115.8971599088
 20
107.2561904086
 10
115.9473877828
 20
107.2423228409
 10
115.9987861362
 20
107.2337579659
 10
116.0507967481
 20
107.2305888037
  0
LWPOLYLINE
  5
463
100
AcDbEntity
  8
ASSI
100
AcDbPolyline
 62
253
  6
CONTINUOUS
 90
16
 70
0
 10
115.5551629176
 20
107.731498358
 10
115.5577814265
 20
107.6794569051
 10
115.5658018041
 20
107.6279705726
 10
115.5791369436
 20
107.5775985369
 10
115.5976420162
 20
107.5288878724
 10
115.6211160445
 20
107.4823676099
 10
115.6493040845
 20
107.4385429912
 10
115.681899995
 20
107.3978899812
 10
115.7185497623
 20
107.3608500991
 10
115.7588553451
 20
107.3278256233
 10
115.8023789975
 20
107.2991752219
 10
115.848648023
 20
107.2752100577
 10
115.8971599088
 20
107.2561904086
 10
115.9473877828
 20
107.2423228409
 10
115.9987861362
 20
107.2337579659
 10
116.0507967481
 20
107.2305888037
  0
LWPOLYLINE
  5
464
100
AcDbEntity
  8
0
100
AcDbPolyline
 62
253
  6
CONTINUOUS
 90
10
 70
0
 10
116.4495118347
 20
86.1109814998
 10
116.3554158617
 20
88.4267519655
 10
116.2736706955
 20
90.7041912968
 10
116.2037322765
 20
92.9432294197
 10
116.1456814631
 20
95.1185773209
 10
116.0981532252
 20
97.2553947231
 10
116.0594527074
 20
99.4293148068
 10
116.0297986591
 20
101.6655329482
 10
116.0102073763
 20
103.9387815121
 10
116.0011972069
 20
106.2490148937
  0
LWPOLYLINE
  5
465
100
AcDbEntity
  8
ASSI
100
AcDbPolyline
 62
253
  6
CONTINUOUS
 90
10
 70
0
 10
116.4495118347
 20
86.1109814998
 10
116.3554158617
 20
88.4267519655
 10
116.2736706955
 20
90.7041912968
 10
116.2037322765
 20
92.9432294197
 10
116.1456814631
 20
95.1185773209
 10
116.0981532252
 20
97.2553947231
 10
116.0594527074
 20
99.4293148068
 10
116.0297986591
 20
101.6655329482
 10
116.0102073763
 20
103.9387815121
 10
116.0011972069
 20
106.2490148937
  0
LWPOLYLINE
  5
466
100
AcDbEntity
  8
0
100
AcDbPolyline
 62
253
  6
CONTINUOUS
 90
10
 70
0
 10
116.9348416529
 20
86.1324163768
 10
116.8416007852
 20
88.4459010842
 10
116.7596398475
 20
90.720966188
 10
116.6889588396
 20
92.9576116882
 10
116.6301300001
 20
95.1306857462
 10
116.5825810904
 20
97.2653402007
 10
116.5445953955
 20
99.4370305679
 10
116.515600677
 20
101.6709086865
 10
116.4961691732
 20
103.9418227179
 10
116.4857463164
 20
106.3356870456
  0
LWPOLYLINE
  5
467
100
AcDbEntity
  8
ASSI
100
AcDbPolyline
 62
253
  6
CONTINUOUS
 90
10
 70
0
 10
116.9348416529
 20
86.1324163768
 10
116.8416007852
 20
88.4459010842
 10
116.7596398475
 20
90.720966188
 10
116.6889588396
 20
92.9576116882
 10
116.6301300001
 20
95.1306857462
 10
116.5825810904
 20
97.2653402007
 10
116.5445953955
 20
99.4370305679
 10
116.515600677
 20
101.6709086865
 10
116.4961691732
 20
103.9418227179
 10
116.4857463164
 20
106.3356870456
  0
LINE
  5
468
100
AcDbEntity
  8
SUPERFICI
100
AcDbLine
 62
7
  6
CONTINUOUS
 10
115.5910470187
 20
101.506580513
 11
115.5909615213
 21
101.5090074263
  0
LINE
  5
469
100
AcDbEntity
  8
0
100
AcDbLine
 62
7
  6
CONTINUOUS
 10
115.5909419078
 20
101.5098546029
 11
115.5910473049
 21
101.5065668317
  0
LINE
  5
46A
100
AcDbEntity
  8
ASSI
100
AcDbLine
 62
7
  6
CONTINUOUS
 10
115.5909419078
 20
101.5098546029
 11
115.5910473049
 21
101.5065668317
  0
LINE
  5
46B
100
AcDbEntity
  8
0
100
AcDbLine
 62
253
  6
CONTINUOUS
 10
115.7103674305
 20
95.7491315212
 11
115.7116654057
 21
95.7035284871
  0
LINE
  5
46C
100
AcDbEntity
  8
0
100
AcDbLine
 62
253
  6
CONTINUOUS
 10
115.7093758064
 20
95.7842217241
 11
115.7100376793
 21
95.7607760748
  0
LINE
  5
46D
100
AcDbEntity
  8
0
100
AcDbLine
 62
253
  6
CONTINUOUS
 10
115.697761338
 20
96.2424809174
 11
115.8053054468
 21
92.8218208171
  0
LINE
  5
46E
100
AcDbEntity
  8
0
100
AcDbLine
 62
253
  6
CONTINUOUS
 10
115.7007935262
 20
96.1004689683
 11
115.701043496
 21
96.0900915532
  0
LINE
  5
46F
100
AcDbEntity
  8
0
100
AcDbLine
 62
253
  6
CONTINUOUS
 10
115.6540947212
 20
97.9613172159
 11
115.7323480463
 21
95.0579144073
  0
LWPOLYLINE
  5
470
100
AcDbEntity
  8
0
100
AcDbPolyline
 62
253
  6
CONTINUOUS
 90
10
 70
0
 10
116.4870394935
 20
107.3738310365
 10
116.487623351
 20
107.3442562297
 10
116.488296775
 20
107.3176109135
 10
116.4890551415
 20
107.2940781685
 10
116.48989313
 20
107.2738334906
 10
116.4908041128
 20
107.2570464181
 10
116.4917806765
 20
107.2438554315
 10
116.4928151411
 20
107.2343613722
 10
116.4938997381
 20
107.2286328091
 10
116.4950261575
 20
107.2267120724
  0
LWPOLYLINE
  5
471
100
AcDbEntity
  8
ASSI
100
AcDbPolyline
 62
253
  6
CONTINUOUS
 90
10
 70
0
 10
116.4870394935
 20
107.3738310365
 10
116.487623351
 20
107.3442562297
 10
116.488296775
 20
107.3176109135
 10
116.4890551415
 20
107.2940781685
 10
116.48989313
 20
107.2738334906
 10
116.4908041128
 20
107.2570464181
 10
116.4917806765
 20
107.2438554315
 10
116.4928151411
 20
107.2343613722
 10
116.4938997381
 20
107.2286328091
 10
116.4950261575
 20
107.2267120724
  0
LINE
  5
472
100
AcDbEntity
  8
0
100
AcDbLine
 62
253
  6
CONTINUOUS
 10
115.6435816526
 20
98.4523823937
 11
115.6540947212
 21
97.9613172159
  0
LINE
  5
473
100
AcDbEntity
  8
0
100
AcDbLine
 62
253
  6
CONTINUOUS
 10
115.6450812396
 20
98.4667968482
 11
115.6582637323
 21
97.8080319918
  0
LINE
  5
474
100
AcDbEntity
  8
0
100
AcDbLine
 62
253
  6
CONTINUOUS
 10
115.6569923804
 20
97.8661376683
 11
115.6570011444
 21
97.8656265443
  0
LINE
  5
475
100
AcDbEntity
  8
SUPERFICI
100
AcDbLine
 62
7
  6
CONTINUOUS
 10
115.5909615213
 20
101.5090074263
 11
115.5903189817
 21
101.5444617311
  0
LINE
  5
476
100
AcDbEntity
  8
0
100
AcDbLine
 62
7
  6
CONTINUOUS
 10
115.5901257703
 20
101.5563697326
 11
115.5909419078
 21
101.5098546029
  0
LINE
  5
477
100
AcDbEntity
  8
ASSI
100
AcDbLine
 62
7
  6
CONTINUOUS
 10
115.5901257703
 20
101.5563697326
 11
115.5909419078
 21
101.5098546029
  0
LWPOLYLINE
  5
478
100
AcDbEntity
  8
0
100
AcDbPolyline
 62
253
  6
CONTINUOUS
 90
3
 70
0
 10
115.5901257703
 20
101.5563697326
 10
115.6239429771
 20
99.5317698954
 10
115.6718917842
 20
97.2946266952
  0
LWPOLYLINE
  5
479
100
AcDbEntity
  8
ASSI
100
AcDbPolyline
 62
253
  6
CONTINUOUS
 90
8
 70
0
 10
115.5901257703
 20
101.5563697326
 10
115.6239429771
 20
99.5317698954
 10
115.6718917842
 20
97.2946266952
 10
115.7323480463
 20
95.0579144073
 10
115.8053054468
 20
92.8218208171
 10
115.8907582553
 20
90.5864550351
 10
115.9887035254
 20
88.3518475557
 10
115.9899044079
 20
88.2950621479
  0
LWPOLYLINE
  5
47A
100
AcDbEntity
  8
0
100
AcDbPolyline
 62
7
  6
CONTINUOUS
 90
18
 70
0
 10
115.5503946021
 20
107.7315470641
 10
115.5506080222
 20
107.7159740858
 10
115.5543191308
 20
107.6680814031
 10
115.5626047417
 20
107.6207846498
 10
115.5753829937
 20
107.574519068
 10
115.5925308051
 20
107.5297095304
 10
115.6138852416
 20
107.4867664452
 10
115.6392448103
 20
107.4460826821
 10
115.6683712203
 20
107.4080298903
 10
115.7009910045
 20
107.3729554672
 10
115.7368017132
 20
107.3411758082
 10
115.7754754036
 20
107.3129752559
 10
115.8166613245
 20
107.2886055184
 10
115.8599745798
 20
107.2682905317
 10
115.9050016489
 20
107.252217021
 10
115.9513226987
 20
107.2405247031
 10
115.9985175814
 20
107.2333097762
 10
116.0460304662
 20
107.2306303984
  0
LWPOLYLINE
  5
47B
100
AcDbEntity
  8
ASSI
100
AcDbPolyline
 62
7
  6
CONTINUOUS
 90
18
 70
0
 10
115.5503946021
 20
107.7315470641
 10
115.5506080222
 20
107.7159740858
 10
115.5543191308
 20
107.6680814031
 10
115.5626047417
 20
107.6207846498
 10
115.5753829937
 20
107.574519068
 10
115.5925308051
 20
107.5297095304
 10
115.6138852416
 20
107.4867664452
 10
115.6392448103
 20
107.4460826821
 10
115.6683712203
 20
107.4080298903
 10
115.7009910045
 20
107.3729554672
 10
115.7368017132
 20
107.3411758082
 10
115.7754754036
 20
107.3129752559
 10
115.8166613245
 20
107.2886055184
 10
115.8599745798
 20
107.2682905317
 10
115.9050016489
 20
107.252217021
 10
115.9513226987
 20
107.2405247031
 10
115.9985175814
 20
107.2333097762
 10
116.0460304662
 20
107.2306303984
  0
LINE
  5
47C
100
AcDbEntity
  8
SUPERFICI
100
AcDbLine
 62
7
  6
CONTINUOUS
 10
115.5903189817
 20
101.5444617311
 11
115.5791328185
 21
102.3854366049
  0
LINE
  5
47D
100
AcDbEntity
  8
0
100
AcDbLine
 62
7
  6
CONTINUOUS
 10
115.5784029494
 20
102.4487910807
 11
115.5901257703
 21
101.5563697326
  0
LINE
  5
47E
100
AcDbEntity
  8
ASSI
100
AcDbLine
 62
7
  6
CONTINUOUS
 10
115.5784029494
 20
102.4487910807
 11
115.5901257703
 21
101.5563697326
  0
LINE
  5
47F
100
AcDbEntity
  8
0
100
AcDbLine
 62
253
  6
CONTINUOUS
 10
116.4861574954
 20
107.440912084
 11
116.4870394935
 21
107.3738310365
  0
LINE
  5
480
100
AcDbEntity
  8
ASSI
100
AcDbLine
 62
253
  6
CONTINUOUS
 10
116.4861574954
 20
107.440912084
 11
116.4870394935
 21
107.3738310365
  0
LINE
  5
481
100
AcDbEntity
  8
SUPERFICI
100
AcDbLine
 62
7
  6
CONTINUOUS
 10
115.5791328185
 20
102.3854366049
 11
115.5695849518
 21
103.3547475215
  0
LINE
  5
482
100
AcDbEntity
  8
0
100
AcDbLine
 62
7
  6
CONTINUOUS
 10
115.5693122065
 20
103.3922985452
 11
115.5784029494
 21
102.4487910807
  0
LINE
  5
483
100
AcDbEntity
  8
0
100
AcDbLine
 62
253
  6
CONTINUOUS
 10
116.4856803176
 20
107.5166083734
 11
116.4861574954
 21
107.440912084
  0
LINE
  5
484
100
AcDbEntity
  8
ASSI
100
AcDbLine
 62
253
  6
CONTINUOUS
 10
116.4856803176
 20
107.5166083734
 11
116.4861574954
 21
107.440912084
  0
LWPOLYLINE
  5
485
100
AcDbEntity
  8
CURVE
100
AcDbPolyline
 62
7
  6
CONTINUOUS
 90
10
 70
0
 10
115.5503974597
 20
106.244918638
 10
115.5604202026
 20
104.0702991095
 10
115.5833889279
 20
101.8153110488
 10
115.6191579651
 20
99.5606629128
 10
115.667724366
 20
97.3064271215
 10
115.7290851764
 20
95.0526763621
 10
115.8032374287
 20
92.7994835891
 10
115.8901781573
 20
90.5469214224
 10
115.9899044079
 20
88.2950621479
 10
116.0985296106
 20
86.1176220038
  0
LWPOLYLINE
  5
486
100
AcDbEntity
  8
ASSI
100
AcDbPolyline
 62
7
  6
CONTINUOUS
 90
10
 70
0
 10
115.5503974597
 20
106.244918638
 10
115.5604202026
 20
104.0702991095
 10
115.5833889279
 20
101.8153110488
 10
115.6191579651
 20
99.5606629128
 10
115.667724366
 20
97.3064271215
 10
115.7290851764
 20
95.0526763621
 10
115.8032374287
 20
92.7994835891
 10
115.8901781573
 20
90.5469214224
 10
115.9899044079
 20
88.2950621479
 10
116.0985296106
 20
86.1176220038
  0
LWPOLYLINE
  5
487
100
AcDbEntity
  8
0
100
AcDbPolyline
 62
253
  6
CONTINUOUS
 90
3
 70
0
 10
115.5551629221
 20
106.2449673385
 10
115.5655768804
 20
104.0069905595
 10
115.5885042793
 20
101.7692347442
  0
LWPOLYLINE
  5
488
100
AcDbEntity
  8
ASSI
100
AcDbPolyline
 62
253
  6
CONTINUOUS
 90
3
 70
0
 10
115.5551629221
 20
106.2449673385
 10
115.5655768804
 20
104.0069905595
 10
115.5885042793
 20
101.7692347442
  0
LWPOLYLINE
  5
489
100
AcDbEntity
  8
SUPERFICI
100
AcDbPolyline
 62
7
  6
CONTINUOUS
 90
4
 70
0
 10
115.5695849518
 20
103.3547475215
 10
115.5689088216
 20
103.4603422257
 10
115.5689003623
 20
103.4674747858
 10
115.5689331578
 20
103.4699156421
  0
LINE
  5
48A
100
AcDbEntity
  8
0
100
AcDbLine
 62
253
  6
CONTINUOUS
 10
116.4857463164
 20
106.3356870456
 11
116.4855979524
 21
106.419525324
  0
LINE
  5
48B
100
AcDbEntity
  8
ASSI
100
AcDbLine
 62
253
  6
CONTINUOUS
 10
116.4857463164
 20
106.3356870456
 11
116.4855979524
 21
106.419525324
  0
LINE
  5
48C
100
AcDbEntity
  8
0
100
AcDbLine
 62
253
  6
CONTINUOUS
 10
116.4856204214
 20
107.5984459737
 11
116.4856803176
 21
107.5166083734
  0
LINE
  5
48D
100
AcDbEntity
  8
ASSI
100
AcDbLine
 62
253
  6
CONTINUOUS
 10
116.4856204214
 20
107.5984459737
 11
116.4856803176
 21
107.5166083734
  0
LWPOLYLINE
  5
48E
100
AcDbEntity
  8
0
100
AcDbPolyline
 62
253
  6
CONTINUOUS
 90
10
 70
0
 10
116.0011972071
 20
107.7274508062
 10
116.0087322221
 20
109.7930260475
 10
116.0253633299
 20
111.8895732607
 10
116.0514918114
 20
114.0170499425
 10
116.0872183124
 20
116.1592165114
 10
116.1331167467
 20
118.3322197238
 10
116.190961144
 20
120.5845770776
 10
116.2623892452
 20
122.9323987909
 10
116.3481756041
 20
125.3594023202
 10
116.4495118328
 20
127.8654841999
  0
LWPOLYLINE
  5
48F
100
AcDbEntity
  8
ASSI
100
AcDbPolyline
 62
253
  6
CONTINUOUS
 90
10
 70
0
 10
116.0011972071
 20
107.7274508062
 10
116.0087322221
 20
109.7930260475
 10
116.0253633299
 20
111.8895732607
 10
116.0514918114
 20
114.0170499425
 10
116.0872183124
 20
116.1592165114
 10
116.1331167467
 20
118.3322197238
 10
116.190961144
 20
120.5845770776
 10
116.2623892452
 20
122.9323987909
 10
116.3481756041
 20
125.3594023202
 10
116.4495118328
 20
127.8654841999
  0
LINE
  5
490
100
AcDbEntity
  8
CURVE
100
AcDbLine
 62
7
  6
CONTINUOUS
 10
115.5604202026
 20
109.906166587
 11
115.5503974597
 21
107.7315470584
  0
LINE
  5
491
100
AcDbEntity
  8
ASSI
100
AcDbLine
 62
7
  6
CONTINUOUS
 10
115.5604202026
 20
109.906166587
 11
115.5503974597
 21
107.7315470584
  0
LWPOLYLINE
  5
492
100
AcDbEntity
  8
0
100
AcDbPolyline
 62
253
  6
CONTINUOUS
 90
4
 70
0
 10
115.5551629221
 20
107.731498358
 10
115.5655767812
 20
109.9694618187
 10
115.5885039454
 20
112.2072053454
 10
115.6239422901
 20
114.4446589362
  0
LWPOLYLINE
  5
493
100
AcDbEntity
  8
ASSI
100
AcDbPolyline
 62
253
  6
CONTINUOUS
 90
10
 70
0
 10
115.5551629221
 20
107.731498358
 10
115.5655767812
 20
109.9694618187
 10
115.5885039454
 20
112.2072053454
 10
115.6239422901
 20
114.4446589362
 10
115.6718905688
 20
116.6817888423
 10
115.7323461844
 20
118.9184888691
 10
115.8053031636
 20
121.1545804316
 10
115.8907560734
 20
123.3899574801
 10
115.9887020473
 20
125.6245864453
 10
115.9899044079
 20
125.6814035486
  0
LINE
  5
494
100
AcDbEntity
  8
0
100
AcDbLine
 62
253
  6
CONTINUOUS
 10
116.4855979524
 20
106.419525324
 11
116.4858671026
 21
106.4986342761
  0
LINE
  5
495
100
AcDbEntity
  8
ASSI
100
AcDbLine
 62
253
  6
CONTINUOUS
 10
116.4855979524
 20
106.419525324
 11
116.4858671026
 21
106.4986342761
  0
LWPOLYLINE
  5
496
100
AcDbEntity
  8
0
100
AcDbPolyline
 62
253
  6
CONTINUOUS
 90
3
 70
0
 10
115.6433676662
 20
115.5108500071
 10
115.6433626904
 20
115.509964549
 10
115.6433703276
 20
115.5096688482
  0
LINE
  5
497
100
AcDbEntity
  8
0
100
AcDbLine
 62
253
  6
CONTINUOUS
 10
116.4931636157
 20
109.790257679
 11
116.4856204214
 21
107.5984459737
  0
LINE
  5
498
100
AcDbEntity
  8
ASSI
100
AcDbLine
 62
253
  6
CONTINUOUS
 10
116.4931636157
 20
109.790257679
 11
116.4856204214
 21
107.5984459737
  0
LWPOLYLINE
  5
499
100
AcDbEntity
  8
0
100
AcDbPolyline
 62
253
  6
CONTINUOUS
 90
9
 70
0
 10
116.4931636157
 20
109.790257679
 10
116.5099398571
 20
111.8846596623
 10
116.5366296752
 20
114.0098989839
 10
116.5721261069
 20
116.1498597062
 10
116.6175361153
 20
118.3206577668
 10
116.6761805896
 20
120.5706409779
 10
116.749166493
 20
122.915925277
 10
116.8353868623
 20
125.3403947266
 10
116.9348416976
 20
127.8440493267
  0
LWPOLYLINE
  5
49A
100
AcDbEntity
  8
ASSI
100
AcDbPolyline
 62
253
  6
CONTINUOUS
 90
9
 70
0
 10
116.4931636157
 20
109.790257679
 10
116.5099398571
 20
111.8846596623
 10
116.5366296752
 20
114.0098989839
 10
116.5721261069
 20
116.1498597062
 10
116.6175361153
 20
118.3206577668
 10
116.6761805896
 20
120.5706409779
 10
116.749166493
 20
122.915925277
 10
116.8353868623
 20
125.3403947266
 10
116.9348416976
 20
127.8440493267
  0
LWPOLYLINE
  5
49B
100
AcDbEntity
  8
0
100
AcDbPolyline
 62
7
  6
CONTINUOUS
 90
4
 70
0
 10
115.5689330942
 20
103.4699156424
 10
115.5688996443
 20
103.4666070884
 10
115.568919934
 20
103.4572204332
 10
115.5693122065
 20
103.3922985452
  0
LWPOLYLINE
  5
49C
100
AcDbEntity
  8
ASSI
100
AcDbPolyline
 62
7
  6
CONTINUOUS
 90
4
 70
0
 10
115.5689330942
 20
103.4699156424
 10
115.5688996443
 20
103.4666070884
 10
115.568919934
 20
103.4572204332
 10
115.5706215026
 20
103.2252878786
  0
LWPOLYLINE
  5
49D
100
AcDbEntity
  8
0
100
AcDbPolyline
 62
253
  6
CONTINUOUS
 90
6
 70
0
 10
115.7007454982
 20
117.8736298418
 10
115.7007394252
 20
117.8730925498
 10
115.7007460345
 20
117.8730188678
 10
115.7007653558
 20
117.8734103858
 10
115.7007974185
 20
117.8742686936
 10
115.7008422521
 20
117.8755953811
  0
LWPOLYLINE
  5
49E
100
AcDbEntity
  8
0
100
AcDbPolyline
 62
253
  6
CONTINUOUS
 90
12
 70
0
 10
116.4858671026
 20
106.4986342761
 10
116.4865493605
 20
106.5703273672
 10
116.4870394253
 20
106.6026345965
 10
116.4876232827
 20
106.6322094144
 10
116.4882967066
 20
106.6588547382
 10
116.489055073
 20
106.6823874915
 10
116.4898930616
 20
106.7026321791
 10
116.4908040446
 20
106.7194192605
 10
116.4917806085
 20
106.7326102545
 10
116.4928150734
 20
106.7421043191
 10
116.4938996707
 20
106.7478328856
 10
116.4950260905
 20
106.7497536235
  0
LWPOLYLINE
  5
49F
100
AcDbEntity
  8
ASSI
100
AcDbPolyline
 62
253
  6
CONTINUOUS
 90
12
 70
0
 10
116.4858671026
 20
106.4986342761
 10
116.4865493605
 20
106.5703273672
 10
116.4870394253
 20
106.6026345965
 10
116.4876232827
 20
106.6322094144
 10
116.4882967066
 20
106.6588547382
 10
116.489055073
 20
106.6823874915
 10
116.4898930616
 20
106.7026321791
 10
116.4908040446
 20
106.7194192605
 10
116.4917806085
 20
106.7326102545
 10
116.4928150734
 20
106.7421043191
 10
116.4938996707
 20
106.7478328856
 10
116.4950260905
 20
106.7497536235
  0
LWPOLYLINE
  5
4A0
100
AcDbEntity
  8
0
100
AcDbPolyline
 62
253
  6
CONTINUOUS
 90
4
 70
0
 10
115.6569922981
 20
116.1103221087
 10
115.6569869308
 20
116.1099596987
 10
115.6569848714
 20
116.109741689
 10
115.6569861322
 20
116.1096688482
  0
LWPOLYLINE
  5
4A1
100
AcDbEntity
  8
CURVE
100
AcDbPolyline
 62
7
  6
CONTINUOUS
 90
3
 70
0
 10
115.6191579651
 20
114.4158027836
 10
115.5833889279
 20
112.1611546476
 10
115.5604202026
 20
109.906166587
  0
LWPOLYLINE
  5
4A2
100
AcDbEntity
  8
ASSI
100
AcDbPolyline
 62
7
  6
CONTINUOUS
 90
3
 70
0
 10
115.6191579651
 20
114.4158027836
 10
115.5833889279
 20
112.1611546476
 10
115.5604202026
 20
109.906166587
  0
LWPOLYLINE
  5
4A3
100
AcDbEntity
  8
0
100
AcDbPolyline
 62
253
  6
CONTINUOUS
 90
3
 70
0
 10
115.6569861079
 20
97.8667979075
 10
115.6569848467
 20
97.8667242482
 10
115.6569869426
 20
97.866503869
  0
LINE
  5
4A4
100
AcDbEntity
  8
0
100
AcDbLine
 62
253
  6
CONTINUOUS
 10
115.6437532529
 20
115.53334296
 11
115.6433852285
 21
115.512322756
  0
LINE
  5
4A5
100
AcDbEntity
  8
0
100
AcDbLine
 62
253
  6
CONTINUOUS
 10
115.7008395043
 20
117.8780069707
 11
115.7007454982
 21
117.8736298418
  0
LINE
  5
4A6
100
AcDbEntity
  8
0
100
AcDbLine
 62
253
  6
CONTINUOUS
 10
115.6777203245
 20
116.9595995236
 11
115.6239422901
 21
114.4446589362
  0
LWPOLYLINE
  5
4A7
100
AcDbEntity
  8
0
100
AcDbPolyline
 62
253
  6
CONTINUOUS
 90
5
 70
0
 10
115.6433703176
 20
98.4667973165
 10
115.6433626717
 20
98.4665010439
 10
115.6433676692
 20
98.4656136104
 10
115.6433852919
 20
98.4641370924
 10
115.6435816526
 20
98.4523823937
  0
LINE
  5
4A8
100
AcDbEntity
  8
0
100
AcDbLine
 62
253
  6
CONTINUOUS
 10
115.7148200019
 20
118.382078334
 11
115.6437532529
 21
115.53334296
  0
LINE
  5
4A9
100
AcDbEntity
  8
0
100
AcDbLine
 62
253
  6
CONTINUOUS
 10
115.7503455602
 20
119.5087887356
 11
115.6718905688
 21
116.6817888423
  0
LWPOLYLINE
  5
4AA
100
AcDbEntity
  8
0
100
AcDbPolyline
 62
253
  6
CONTINUOUS
 90
5
 70
0
 10
115.7323461844
 20
118.9184888691
 10
115.8053031636
 20
121.1545804316
 10
115.8907560734
 20
123.3899574801
 10
115.9887020473
 20
125.6245864453
 10
116.099137139
 20
127.8583975782
  0
LINE
  5
4AB
100
AcDbEntity
  8
0
100
AcDbLine
 62
253
  6
CONTINUOUS
 10
115.7754143458
 20
120.2871114449
 11
115.7079296265
 21
118.0804760403
  0
LWPOLYLINE
  5
4AC
100
AcDbEntity
  8
0
100
AcDbPolyline
 62
253
  6
CONTINUOUS
 90
16
 70
0
 10
115.5551626652
 20
106.244967338
 10
115.557781176
 20
106.2970088075
 10
115.5658015589
 20
106.3484951561
 10
115.579136707
 20
106.3988672068
 10
115.5976417915
 20
106.4475778847
 10
115.6211158345
 20
106.4940981584
 10
115.6493038917
 20
106.537922786
 10
115.6818998216
 20
106.5785758018
 10
115.7185496101
 20
106.6156156864
 10
115.7588552153
 20
106.6486401612
 10
115.8023788908
 20
106.6772905578
 10
115.8486479397
 20
106.7012557133
 10
115.8971598483
 20
106.7202753496
 10
115.9473877442
 20
106.7341429006
 10
115.998786118
 20
106.742707755
 10
116.0507967481
 20
106.7458768928
  0
LWPOLYLINE
  5
4AD
100
AcDbEntity
  8
ASSI
100
AcDbPolyline
 62
253
  6
CONTINUOUS
 90
16
 70
0
 10
115.5551626652
 20
106.244967338
 10
115.557781176
 20
106.2970088075
 10
115.5658015589
 20
106.3484951561
 10
115.579136707
 20
106.3988672068
 10
115.5976417915
 20
106.4475778847
 10
115.6211158345
 20
106.4940981584
 10
115.6493038917
 20
106.537922786
 10
115.6818998216
 20
106.5785758018
 10
115.7185496101
 20
106.6156156864
 10
115.7588552153
 20
106.6486401612
 10
115.8023788908
 20
106.6772905578
 10
115.8486479397
 20
106.7012557133
 10
115.8971598483
 20
106.7202753496
 10
115.9473877442
 20
106.7341429006
 10
115.998786118
 20
106.742707755
 10
116.0507967481
 20
106.7458768928
  0
LWPOLYLINE
  5
4AE
100
AcDbEntity
  8
0
100
AcDbPolyline
 62
253
  6
CONTINUOUS
 90
16
 70
0
 10
116.0011972193
 20
106.2490148893
 10
116.0039613827
 20
106.3020013017
 10
116.0120074629
 20
106.3532492947
 10
116.0251179359
 20
106.4028769486
 10
116.0434037858
 20
106.451206529
 10
116.0668870529
 20
106.4979174566
 10
116.0950436851
 20
106.5418876597
 10
116.127421642
 20
106.5824278622
 10
116.163954763
 20
106.6194642989
 10
116.2041915647
 20
106.6525627816
 10
116.2475421723
 20
106.6812051182
 10
116.2935932218
 20
106.7051273879
 10
116.341974068
 20
106.7241666636
 10
116.3921376134
 20
106.7380655298
 10
116.4433751133
 20
106.7466115644
 10
116.4950260905
 20
106.7497536235
  0
LWPOLYLINE
  5
4AF
100
AcDbEntity
  8
ASSI
100
AcDbPolyline
 62
253
  6
CONTINUOUS
 90
16
 70
0
 10
116.0011972193
 20
106.2490148893
 10
116.0039613827
 20
106.3020013017
 10
116.0120074629
 20
106.3532492947
 10
116.0251179359
 20
106.4028769486
 10
116.0434037858
 20
106.451206529
 10
116.0668870529
 20
106.4979174566
 10
116.0950436851
 20
106.5418876597
 10
116.127421642
 20
106.5824278622
 10
116.163954763
 20
106.6194642989
 10
116.2041915647
 20
106.6525627816
 10
116.2475421723
 20
106.6812051182
 10
116.2935932218
 20
106.7051273879
 10
116.341974068
 20
106.7241666636
 10
116.3921376134
 20
106.7380655298
 10
116.4433751133
 20
106.7466115644
 10
116.4950260905
 20
106.7497536235
  0
LINE
  5
4B0
100
AcDbEntity
  8
ASSI
100
AcDbLine
 62
7
  6
CONTINUOUS
 10
115.5696968897
 20
103.4699080367
 11
115.5695943734
 21
103.4699088958
  0
LINE
  5
4B1
100
AcDbEntity
  8
SUPERFICI
100
AcDbLine
 62
7
  6
CONTINUOUS
 10
115.5695938922
 20
103.4699088951
 11
115.5696968897
 21
103.4699080346
  0
LINE
  5
4B2
100
AcDbEntity
  8
0
100
AcDbLine
 62
253
  6
CONTINUOUS
 10
117.5951840209
 20
128.6170327832
 11
117.6003307362
 21
128.5133085249
  0
LINE
  5
4B3
100
AcDbEntity
  8
ASSI
100
AcDbLine
 62
253
  6
CONTINUOUS
 10
117.5951840209
 20
128.6170327832
 11
117.6003307362
 21
128.5133085249
  0
LINE
  5
4B4
100
AcDbEntity
  8
0
100
AcDbLine
 62
253
  6
CONTINUOUS
 10
117.5908328865
 20
128.7162316689
 11
117.5951840209
 21
128.6170327832
  0
LINE
  5
4B5
100
AcDbEntity
  8
ASSI
100
AcDbLine
 62
253
  6
CONTINUOUS
 10
117.5908328865
 20
128.7162316689
 11
117.5951840209
 21
128.6170327832
  0
LINE
  5
4B6
100
AcDbEntity
  8
0
100
AcDbLine
 62
253
  6
CONTINUOUS
 10
117.5862015743
 20
85.1292897466
 11
117.5890165847
 21
85.2136995731
  0
LINE
  5
4B7
100
AcDbEntity
  8
ASSI
100
AcDbLine
 62
253
  6
CONTINUOUS
 10
117.5862015743
 20
85.1292897466
 11
117.5890165847
 21
85.2136995731
  0
LINE
  5
4B8
100
AcDbEntity
  8
0
100
AcDbLine
 62
253
  6
CONTINUOUS
 10
117.5890165847
 20
85.2136995731
 11
117.5928962253
 21
85.3089923951
  0
LINE
  5
4B9
100
AcDbEntity
  8
ASSI
100
AcDbLine
 62
253
  6
CONTINUOUS
 10
117.5890165847
 20
85.2136995731
 11
117.5928962253
 21
85.3089923951
  0
LWPOLYLINE
  5
4BA
100
AcDbEntity
  8
0
100
AcDbPolyline
 62
253
  6
CONTINUOUS
 90
3
 70
0
 10
117.5928962253
 20
85.3089923951
 10
117.5976712225
 20
85.4110106872
 10
117.6003306628
 20
85.4631571754
  0
LWPOLYLINE
  5
4BB
100
AcDbEntity
  8
ASSI
100
AcDbPolyline
 62
253
  6
CONTINUOUS
 90
3
 70
0
 10
117.5928962253
 20
85.3089923951
 10
117.5976712225
 20
85.4110106872
 10
117.6003306628
 20
85.4631571754
  0
LINE
  5
4BC
100
AcDbEntity
  8
0
100
AcDbLine
 62
7
  6
CONTINUOUS
 10
120.5043085106
 20
124.9217244494
 11
120.5043085106
 21
124.6602537693
  0
LINE
  5
4BD
100
AcDbEntity
  8
ASSI
100
AcDbLine
 62
7
  6
CONTINUOUS
 10
120.5043085106
 20
124.9217244494
 11
120.5043085106
 21
124.6602537693
  0
LINE
  5
4BE
100
AcDbEntity
  8
0
100
AcDbLine
 62
7
  6
CONTINUOUS
 10
120.5043085106
 20
89.3162119271
 11
120.5043085106
 21
89.054741247
  0
LINE
  5
4BF
100
AcDbEntity
  8
ASSI
100
AcDbLine
 62
7
  6
CONTINUOUS
 10
120.5043085106
 20
89.3162119271
 11
120.5043085106
 21
89.054741247
  0
LINE
  5
4C0
100
AcDbEntity
  8
0
100
AcDbLine
 62
7
  6
CONTINUOUS
 10
116.0460304662
 20
106.745835298
 11
116.0272283649
 21
106.7447749976
  0
LINE
  5
4C1
100
AcDbEntity
  8
ASSI
100
AcDbLine
 62
7
  6
CONTINUOUS
 10
116.0460304662
 20
106.745835298
 11
116.0272283649
 21
106.7447749976
  0
LINE
  5
4C2
100
AcDbEntity
  8
0
100
AcDbLine
 62
7
  6
CONTINUOUS
 10
115.5551629221
 20
106.2449673385
 11
115.5503974608
 21
106.2449180251
  0
LINE
  5
4C3
100
AcDbEntity
  8
ASSI
100
AcDbLine
 62
7
  6
CONTINUOUS
 10
115.5551629221
 20
106.2449673385
 11
115.5503974608
 21
106.2449180251
  0
LINE
  5
4C4
100
AcDbEntity
  8
0
100
AcDbLine
 62
253
  6
CONTINUOUS
 10
116.0011972069
 20
106.2490148937
 11
115.5551629221
 21
106.2449673385
  0
LINE
  5
4C5
100
AcDbEntity
  8
ASSI
100
AcDbLine
 62
253
  6
CONTINUOUS
 10
116.0011972069
 20
106.2490148937
 11
115.5551629221
 21
106.2449673385
  0
LINE
  5
4C6
100
AcDbEntity
  8
0
100
AcDbLine
 62
253
  6
CONTINUOUS
 10
120.9043085106
 20
106.2883280304
 11
116.4863008841
 21
106.249772662
  0
LINE
  5
4C7
100
AcDbEntity
  8
ASSI
100
AcDbLine
 62
253
  6
CONTINUOUS
 10
120.9043085106
 20
106.2883280304
 11
116.4863008841
 21
106.249772662
  0
LINE
  5
4C8
100
AcDbEntity
  8
0
100
AcDbLine
 62
7
  6
CONTINUOUS
 10
120.9043085106
 20
106.7882328482
 11
116.0461098697
 21
106.745835991
  0
LINE
  5
4C9
100
AcDbEntity
  8
ASSI
100
AcDbLine
 62
7
  6
CONTINUOUS
 10
120.9043085106
 20
106.7882328482
 11
116.0461098697
 21
106.745835991
  0
LINE
  5
4CA
100
AcDbEntity
  8
0
100
AcDbLine
 62
253
  6
CONTINUOUS
 10
116.4863008853
 20
106.249772662
 11
116.0011972193
 21
106.2490148893
  0
LINE
  5
4CB
100
AcDbEntity
  8
ASSI
100
AcDbLine
 62
253
  6
CONTINUOUS
 10
116.4863008853
 20
106.249772662
 11
116.0011972193
 21
106.2490148893
  0
LINE
  5
4CC
100
AcDbEntity
  8
0
100
AcDbLine
 62
7
  6
CONTINUOUS
 10
116.0460304662
 20
107.2306303984
 11
120.9043085106
 21
107.1882328482
  0
LINE
  5
4CD
100
AcDbEntity
  8
ASSI
100
AcDbLine
 62
7
  6
CONTINUOUS
 10
116.0460304662
 20
107.2306303984
 11
120.9043085106
 21
107.1882328482
  0
LINE
  5
4CE
100
AcDbEntity
  8
0
100
AcDbLine
 62
7
  6
CONTINUOUS
 10
120.1119495575
 20
129.1449371249
 11
120.9043085106
 21
120.0882328482
  0
LINE
  5
4CF
100
AcDbEntity
  8
ASSI
100
AcDbLine
 62
7
  6
CONTINUOUS
 10
120.1119495575
 20
129.1449371249
 11
120.9043085106
 21
120.0882328482
  0
LINE
  5
4D0
100
AcDbEntity
  8
0
100
AcDbLine
 62
7
  6
CONTINUOUS
 10
120.9043085106
 20
120.0882328482
 11
120.9043085106
 21
107.1882328482
  0
LINE
  5
4D1
100
AcDbEntity
  8
ASSI
100
AcDbLine
 62
7
  6
CONTINUOUS
 10
120.9043085106
 20
120.0882328482
 11
120.9043085106
 21
107.1882328482
  0
LINE
  5
4D2
100
AcDbEntity
  8
0
100
AcDbLine
 62
7
  6
CONTINUOUS
 10
120.9043085106
 20
93.8882328482
 11
120.9043085106
 21
106.7882328482
  0
LINE
  5
4D3
100
AcDbEntity
  8
ASSI
100
AcDbLine
 62
7
  6
CONTINUOUS
 10
120.9043085106
 20
93.8882328482
 11
120.9043085106
 21
106.7882328482
  0
LINE
  5
4D4
100
AcDbEntity
  8
0
100
AcDbLine
 62
7
  6
CONTINUOUS
 10
120.1119495575
 20
84.8315285716
 11
120.9043085106
 21
93.8882328482
  0
LINE
  5
4D5
100
AcDbEntity
  8
ASSI
100
AcDbLine
 62
7
  6
CONTINUOUS
 10
120.1119495575
 20
84.8315285716
 11
120.9043085106
 21
93.8882328482
  0
LINE
  5
4D6
100
AcDbEntity
  8
0
100
AcDbLine
 62
253
  6
CONTINUOUS
 10
116.0011972864
 20
107.727450814
 11
116.4863009523
 21
107.7266930339
  0
LINE
  5
4D7
100
AcDbEntity
  8
ASSI
100
AcDbLine
 62
253
  6
CONTINUOUS
 10
116.0011972864
 20
107.727450814
 11
116.4863009523
 21
107.7266930339
  0
LINE
  5
4D8
100
AcDbEntity
  8
0
100
AcDbLine
 62
253
  6
CONTINUOUS
 10
116.4863009511
 20
107.7266930339
 11
120.9043085106
 21
107.688137666
  0
LINE
  5
4D9
100
AcDbEntity
  8
ASSI
100
AcDbLine
 62
253
  6
CONTINUOUS
 10
116.4863009511
 20
107.7266930339
 11
120.9043085106
 21
107.688137666
  0
LINE
  5
4DA
100
AcDbEntity
  8
0
100
AcDbLine
 62
253
  6
CONTINUOUS
 10
115.5551629221
 20
107.731498358
 11
116.0011972071
 21
107.7274508062
  0
LINE
  5
4DB
100
AcDbEntity
  8
ASSI
100
AcDbLine
 62
253
  6
CONTINUOUS
 10
115.5551629221
 20
107.731498358
 11
116.0011972071
 21
107.7274508062
  0
LINE
  5
4DC
100
AcDbEntity
  8
0
100
AcDbLine
 62
7
  6
CONTINUOUS
 10
115.5550943895
 20
107.7315006942
 11
115.5503974937
 21
107.7315476766
  0
LINE
  5
4DD
100
AcDbEntity
  8
ASSI
100
AcDbLine
 62
7
  6
CONTINUOUS
 10
115.5550943895
 20
107.7315006942
 11
115.5503974937
 21
107.7315476766
  0
LINE
  5
4DE
100
AcDbEntity
  8
0
100
AcDbLine
 62
253
  6
CONTINUOUS
 10
115.6569863773
 20
116.1096795719
 11
115.6583137061
 21
116.1096614049
  0
LINE
  5
4DF
100
AcDbEntity
  8
0
100
AcDbLine
 62
253
  6
CONTINUOUS
 10
120.5043085106
 20
124.9217244494
 11
120.4814327902
 21
124.9217244494
  0
LINE
  5
4E0
100
AcDbEntity
  8
ASSI
100
AcDbLine
 62
253
  6
CONTINUOUS
 10
120.5043085106
 20
124.9217244494
 11
120.4814327902
 21
124.9217244494
  0
LWPOLYLINE
  5
4E1
100
AcDbEntity
  8
0
100
AcDbPolyline
 62
253
  6
CONTINUOUS
 90
4
 70
0
 10
116.4495246685
 20
127.8654836655
 10
116.4552265652
 20
127.8651828483
 10
116.4657059875
 20
127.8646771091
 10
116.9348416976
 20
127.8440493267
  0
LWPOLYLINE
  5
4E2
100
AcDbEntity
  8
ASSI
100
AcDbPolyline
 62
253
  6
CONTINUOUS
 90
4
 70
0
 10
116.4495246685
 20
127.8654836655
 10
116.4552265652
 20
127.8651828483
 10
116.4657059875
 20
127.8646771091
 10
116.9348416976
 20
127.8440493267
  0
LINE
  5
4E3
100
AcDbEntity
  8
0
100
AcDbLine
 62
7
  6
CONTINUOUS
 10
116.099137139
 20
127.8583975782
 11
116.0985151071
 21
127.8585444645
  0
LINE
  5
4E4
100
AcDbEntity
  8
ASSI
100
AcDbLine
 62
7
  6
CONTINUOUS
 10
116.099137139
 20
127.8583975782
 11
116.0985151071
 21
127.8585444645
  0
LINE
  5
4E5
100
AcDbEntity
  8
0
100
AcDbLine
 62
7
  6
CONTINUOUS
 10
117.2340906477
 20
128.9941149303
 11
117.147062441
 21
128.9863657725
  0
LINE
  5
4E6
100
AcDbEntity
  8
ASSI
100
AcDbLine
 62
7
  6
CONTINUOUS
 10
117.2340906477
 20
128.9941149303
 11
117.147062441
 21
128.9863657725
  0
LINE
  5
4E7
100
AcDbEntity
  8
0
100
AcDbLine
 62
253
  6
CONTINUOUS
 10
117.6003307362
 20
128.5133085249
 11
120.1554942536
 21
128.6472189706
  0
LINE
  5
4E8
100
AcDbEntity
  8
ASSI
100
AcDbLine
 62
253
  6
CONTINUOUS
 10
117.6003307362
 20
128.5133085249
 11
120.1554942536
 21
128.6472189706
  0
LINE
  5
4E9
100
AcDbEntity
  8
0
100
AcDbLine
 62
7
  6
CONTINUOUS
 10
117.2346996541
 20
128.994146847
 11
120.1119495575
 21
129.1449371249
  0
LINE
  5
4EA
100
AcDbEntity
  8
ASSI
100
AcDbLine
 62
7
  6
CONTINUOUS
 10
117.2346996541
 20
128.994146847
 11
120.1119495575
 21
129.1449371249
  0
LWPOLYLINE
  5
4EB
100
AcDbEntity
  8
0
100
AcDbPolyline
 62
253
  6
CONTINUOUS
 90
5
 70
0
 10
116.4495118328
 20
127.8654841999
 10
116.1454370764
 20
127.8588795928
 10
116.1206512903
 20
127.8584803225
 10
116.1049142475
 20
127.8583195472
 10
116.099137139
 20
127.8583975782
  0
LWPOLYLINE
  5
4EC
100
AcDbEntity
  8
ASSI
100
AcDbPolyline
 62
253
  6
CONTINUOUS
 90
5
 70
0
 10
116.4495118328
 20
127.8654841999
 10
116.1454370764
 20
127.8588795928
 10
116.1206512903
 20
127.8584803225
 10
116.1049142475
 20
127.8583195472
 10
116.099137139
 20
127.8583975782
  0
ARC
  5
4ED
100
AcDbEntity
  8
0
100
AcDbCircle
 62
7
  6
CONTINUOUS
 10
117.297502809
 20
86.1806742908
 40
1.2
100
AcDbArc
 50
182.9905824671
 51
267.0000000773
  0
ARC
  5
4EE
100
AcDbEntity
  8
ASSI
100
AcDbCircle
 62
7
  6
CONTINUOUS
 10
117.297502809
 20
86.1806742908
 40
1.2
100
AcDbArc
 50
182.9905824671
 51
267.0000000773
  0
ARC
  5
4EF
100
AcDbEntity
  8
0
100
AcDbCircle
 62
7
  6
CONTINUOUS
 10
116.0503937472
 20
106.2458543366
 40
0.5
100
AcDbArc
 50
90.5575989706
 51
180.1072238528
  0
ARC
  5
4F0
100
AcDbEntity
  8
ASSI
100
AcDbCircle
 62
7
  6
CONTINUOUS
 10
116.0503937472
 20
106.2458543366
 40
0.5
100
AcDbArc
 50
90.5575989706
 51
180.1072238528
  0
ARC
  5
4F1
100
AcDbEntity
  8
0
100
AcDbCircle
 62
7
  6
CONTINUOUS
 10
117.2975018233
 20
127.795791354
 40
1.2
100
AcDbArc
 50
92.9999527971
 51
177.0094126144
  0
ARC
  5
4F2
100
AcDbEntity
  8
ASSI
100
AcDbCircle
 62
7
  6
CONTINUOUS
 10
117.2975018233
 20
127.795791354
 40
1.2
100
AcDbArc
 50
92.9999527971
 51
177.0094126144
  0
ARC
  5
4F3
100
AcDbEntity
  8
0
100
AcDbCircle
 62
7
  6
CONTINUOUS
 10
116.0503937472
 20
107.7306113598
 40
0.5
100
AcDbArc
 50
267.3411443881
 51
269.4424010294
  0
ARC
  5
4F4
100
AcDbEntity
  8
ASSI
100
AcDbCircle
 62
7
  6
CONTINUOUS
 10
116.0503937472
 20
107.7306113598
 40
0.5
100
AcDbArc
 50
267.3411443881
 51
269.4424010294
  0
ARC
  5
4F5
100
AcDbEntity
  8
0
100
AcDbCircle
 62
7
  6
CONTINUOUS
 10
120.2043085106
 20
89.054741247
 40
0.3
100
AcDbArc
 50
334.999934893
 51
0.0004327973
  0
ARC
  5
4F6
100
AcDbEntity
  8
ASSI
100
AcDbCircle
 62
7
  6
CONTINUOUS
 10
120.2043085106
 20
89.054741247
 40
0.3
100
AcDbArc
 50
334.999934893
 51
0.0004327973
  0
ARC
  5
4F7
100
AcDbEntity
  8
0
100
AcDbCircle
 62
7
  6
CONTINUOUS
 10
120.2043085106
 20
124.9217244494
 40
0.3
100
AcDbArc
 50
359.9995672027
 51
25.0000856102
  0
ARC
  5
4F8
100
AcDbEntity
  8
ASSI
100
AcDbCircle
 62
7
  6
CONTINUOUS
 10
120.2043085106
 20
124.9217244494
 40
0.3
100
AcDbArc
 50
359.9995672027
 51
25.0000856102
  0
ELLIPSE
  5
4F9
100
AcDbEntity
  8
0
100
AcDbEllipse
 62
7
  6
CONTINUOUS
 10
142.1789004073
 20
84.8581329115
 30
0.0
 11
0.2
 21
0.0
 31
0.0
 40
0.0524077793
 41
1.5707963268
 42
2.617993878
  0
ELLIPSE
  5
4FA
100
AcDbEntity
  8
0
100
AcDbEllipse
 62
7
  6
CONTINUOUS
 10
145.5479602996
 20
84.8581329115
 30
0.0
 11
0.2
 21
0.0
 31
0.0
 40
0.0524077793
 41
0.5235987756
 42
1.5707963268
  0
ELLIPSE
  5
4FB
100
AcDbEntity
  8
0
100
AcDbEllipse
 62
7
  6
CONTINUOUS
 10
153.3789004073
 20
84.8581329115
 30
0.0
 11
0.2
 21
-0.0
 31
0.0
 40
0.0524077793
 41
1.5707963268
 42
2.617993878
  0
ELLIPSE
  5
4FC
100
AcDbEntity
  8
0
100
AcDbEllipse
 62
7
  6
CONTINUOUS
 10
156.7479602996
 20
84.8581329115
 30
0.0
 11
0.2
 21
-0.0
 31
0.0
 40
0.0524077793
 41
0.5235987756
 42
1.5707963268
  0
ELLIPSE
  5
4FD
100
AcDbEntity
  8
0
100
AcDbEllipse
 62
7
  6
CONTINUOUS
 10
168.0479602996
 20
84.8581329115
 30
0.0
 11
0.2
 21
0.0
 31
0.0
 40
0.0524077793
 41
0.5235987756
 42
1.5707963268
  0
ELLIPSE
  5
4FE
100
AcDbEntity
  8
0
100
AcDbEllipse
 62
7
  6
CONTINUOUS
 10
164.6789004073
 20
84.8581329115
 30
0.0
 11
0.2
 21
0.0
 31
0.0
 40
0.0524077793
 41
1.5707963268
 42
2.617993878
  0
ELLIPSE
  5
4FF
100
AcDbEntity
  8
0
100
AcDbEllipse
 62
7
  6
CONTINUOUS
 10
175.8789004073
 20
84.8581329115
 30
0.0
 11
0.2
 21
0.0
 31
0.0
 40
0.0524077793
 41
1.5707963268
 42
2.617993878
  0
ELLIPSE
  5
500
100
AcDbEntity
  8
0
100
AcDbEllipse
 62
7
  6
CONTINUOUS
 10
179.2479602996
 20
84.8581329115
 30
0.0
 11
0.2
 21
-0.0
 31
0.0
 40
0.0524077793
 41
0.5235987756
 42
1.5707963268
  0
ELLIPSE
  5
501
100
AcDbEntity
  8
0
100
AcDbEllipse
 62
7
  6
CONTINUOUS
 10
182.4624431591
 20
106.288213809
 30
0.0
 11
0.4745319423
 21
0.1581451893
 31
0.0
 40
0.9996192872
 41
-0.3215754254
 42
1.2489924674
  0
ELLIPSE
  5
502
100
AcDbEntity
  8
0
100
AcDbEllipse
 62
7
  6
CONTINUOUS
 10
138.9644175477
 20
106.288213809
 30
0.0
 11
0.4745319423
 21
-0.1581451893
 31
0.0
 40
0.9996192872
 41
1.8926001863
 42
3.463168079
  0
ELLIPSE
  5
503
100
AcDbEntity
  8
0
100
AcDbEllipse
 62
7
  6
CONTINUOUS
 10
182.442836332
 20
85.329929533
 30
0.0
 11
0.4962344879
 21
0.0628595572
 31
0.0
 40
0.9963456432
 41
-1.6972555761
 42
-0.1278292453
  0
ELLIPSE
  5
504
100
AcDbEntity
  8
0
100
AcDbEllipse
 62
7
  6
CONTINUOUS
 10
138.9840243748
 20
85.329929533
 30
0.0
 11
0.4962344879
 21
-0.0628595572
 31
0.0
 40
0.9963456432
 41
-3.0137634083
 42
-1.4443370775
  0
ELLIPSE
  5
505
100
AcDbEntity
  8
ASSI
100
AcDbEllipse
 62
7
  6
CONTINUOUS
 10
142.1789004073
 20
84.8581329115
 30
0.0
 11
0.2
 21
0.0
 31
0.0
 40
0.0524077793
 41
1.5707963268
 42
2.617993878
  0
ELLIPSE
  5
506
100
AcDbEntity
  8
ASSI
100
AcDbEllipse
 62
7
  6
CONTINUOUS
 10
145.5479602996
 20
84.8581329115
 30
0.0
 11
0.2
 21
0.0
 31
0.0
 40
0.0524077793
 41
0.5235987756
 42
1.5707963268
  0
ELLIPSE
  5
507
100
AcDbEntity
  8
ASSI
100
AcDbEllipse
 62
7
  6
CONTINUOUS
 10
153.3789004073
 20
84.8581329115
 30
0.0
 11
0.2
 21
-0.0
 31
0.0
 40
0.0524077793
 41
1.5707963268
 42
2.617993878
  0
ELLIPSE
  5
508
100
AcDbEntity
  8
ASSI
100
AcDbEllipse
 62
7
  6
CONTINUOUS
 10
156.7479602996
 20
84.8581329115
 30
0.0
 11
0.2
 21
-0.0
 31
0.0
 40
0.0524077793
 41
0.5235987756
 42
1.5707963268
  0
ELLIPSE
  5
509
100
AcDbEntity
  8
ASSI
100
AcDbEllipse
 62
7
  6
CONTINUOUS
 10
168.0479602996
 20
84.8581329115
 30
0.0
 11
0.2
 21
0.0
 31
0.0
 40
0.0524077793
 41
0.5235987756
 42
1.5707963268
  0
ELLIPSE
  5
50A
100
AcDbEntity
  8
ASSI
100
AcDbEllipse
 62
7
  6
CONTINUOUS
 10
164.6789004073
 20
84.8581329115
 30
0.0
 11
0.2
 21
0.0
 31
0.0
 40
0.0524077793
 41
1.5707963268
 42
2.617993878
  0
ELLIPSE
  5
50B
100
AcDbEntity
  8
ASSI
100
AcDbEllipse
 62
7
  6
CONTINUOUS
 10
175.8789004073
 20
84.8581329115
 30
0.0
 11
0.2
 21
0.0
 31
0.0
 40
0.0524077793
 41
1.5707963268
 42
2.617993878
  0
ELLIPSE
  5
50C
100
AcDbEntity
  8
ASSI
100
AcDbEllipse
 62
7
  6
CONTINUOUS
 10
179.2479602996
 20
84.8581329115
 30
0.0
 11
0.2
 21
-0.0
 31
0.0
 40
0.0524077793
 41
0.5235987756
 42
1.5707963268
  0
ELLIPSE
  5
50D
100
AcDbEntity
  8
ASSI
100
AcDbEllipse
 62
7
  6
CONTINUOUS
 10
182.4624431591
 20
106.288213809
 30
0.0
 11
0.4745319423
 21
0.1581451893
 31
0.0
 40
0.9996192872
 41
-0.3215754254
 42
1.2489924674
  0
ELLIPSE
  5
50E
100
AcDbEntity
  8
ASSI
100
AcDbEllipse
 62
7
  6
CONTINUOUS
 10
138.9644175477
 20
106.288213809
 30
0.0
 11
0.4745319423
 21
-0.1581451893
 31
0.0
 40
0.9996192872
 41
1.8926001863
 42
3.463168079
  0
ELLIPSE
  5
50F
100
AcDbEntity
  8
ASSI
100
AcDbEllipse
 62
7
  6
CONTINUOUS
 10
182.442836332
 20
85.329929533
 30
0.0
 11
0.4962344879
 21
0.0628595572
 31
0.0
 40
0.9963456432
 41
-1.6972555761
 42
-0.1278292453
  0
ELLIPSE
  5
510
100
AcDbEntity
  8
ASSI
100
AcDbEllipse
 62
7
  6
CONTINUOUS
 10
138.9840243748
 20
85.329929533
 30
0.0
 11
0.4962344879
 21
-0.0628595572
 31
0.0
 40
0.9963456432
 41
-3.0137634083
 42
-1.4443370775
  0
ELLIPSE
  5
511
100
AcDbEntity
  8
0
100
AcDbEllipse
 62
7
  6
CONTINUOUS
 10
179.2479602996
 20
129.1183327849
 30
0.0
 11
0.2
 21
0.0
 31
0.0
 40
0.0524077793
 41
-1.5707963268
 42
-0.5235987756
  0
ELLIPSE
  5
512
100
AcDbEntity
  8
0
100
AcDbEllipse
 62
7
  6
CONTINUOUS
 10
175.8789004073
 20
129.1183327849
 30
0.0
 11
0.2
 21
0.0
 31
0.0
 40
0.0524077793
 41
-2.617993878
 42
-1.5707963268
  0
ELLIPSE
  5
513
100
AcDbEntity
  8
0
100
AcDbEllipse
 62
7
  6
CONTINUOUS
 10
168.0479602996
 20
129.1183327849
 30
0.0
 11
0.2
 21
-0.0
 31
0.0
 40
0.0524077793
 41
-1.5707963268
 42
-0.5235987756
  0
ELLIPSE
  5
514
100
AcDbEntity
  8
0
100
AcDbEllipse
 62
7
  6
CONTINUOUS
 10
164.6789004073
 20
129.1183327849
 30
0.0
 11
0.2
 21
-0.0
 31
0.0
 40
0.0524077793
 41
-2.617993878
 42
-1.5707963268
  0
ELLIPSE
  5
515
100
AcDbEntity
  8
0
100
AcDbEllipse
 62
7
  6
CONTINUOUS
 10
153.3789004073
 20
129.1183327849
 30
0.0
 11
0.2
 21
0.0
 31
0.0
 40
0.0524077793
 41
-2.617993878
 42
-1.5707963268
  0
ELLIPSE
  5
516
100
AcDbEntity
  8
0
100
AcDbEllipse
 62
7
  6
CONTINUOUS
 10
156.7479602996
 20
129.1183327849
 30
0.0
 11
0.2
 21
0.0
 31
0.0
 40
0.0524077793
 41
-1.5707963268
 42
-0.5235987756
  0
ELLIPSE
  5
517
100
AcDbEntity
  8
0
100
AcDbEllipse
 62
7
  6
CONTINUOUS
 10
145.5479602996
 20
129.1183327849
 30
0.0
 11
0.2
 21
-0.0
 31
0.0
 40
0.0524077793
 41
-1.5707963268
 42
-0.5235987756
  0
ELLIPSE
  5
518
100
AcDbEntity
  8
0
100
AcDbEllipse
 62
7
  6
CONTINUOUS
 10
142.1789004073
 20
129.1183327849
 30
0.0
 11
0.2
 21
0.0
 31
0.0
 40
0.0524077793
 41
-2.617993878
 42
-1.5707963268
  0
ELLIPSE
  5
519
100
AcDbEntity
  8
0
100
AcDbEllipse
 62
7
  6
CONTINUOUS
 10
138.9644175477
 20
107.6882518874
 30
0.0
 11
0.4745319423
 21
0.1581451893
 31
0.0
 40
0.9996192872
 41
2.8200172282
 42
4.3905851209
  0
ELLIPSE
  5
51A
100
AcDbEntity
  8
0
100
AcDbEllipse
 62
7
  6
CONTINUOUS
 10
182.4624431591
 20
107.6882518874
 30
0.0
 11
0.4745319423
 21
-0.1581451893
 31
0.0
 40
0.9996192872
 41
-1.2489924673
 42
0.3215754255
  0
ELLIPSE
  5
51B
100
AcDbEntity
  8
0
100
AcDbEllipse
 62
7
  6
CONTINUOUS
 10
138.9840243748
 20
128.6465361634
 30
0.0
 11
0.4962344879
 21
0.0628595572
 31
0.0
 40
0.9963456432
 41
1.4443370775
 42
3.0137634083
  0
ELLIPSE
  5
51C
100
AcDbEntity
  8
0
100
AcDbEllipse
 62
7
  6
CONTINUOUS
 10
182.442836332
 20
128.6465361634
 30
0.0
 11
0.4962344879
 21
-0.0628595572
 31
0.0
 40
0.9963456432
 41
0.1278292453
 42
1.6972555761
  0
ELLIPSE
  5
51D
100
AcDbEntity
  8
ASSI
100
AcDbEllipse
 62
7
  6
CONTINUOUS
 10
179.2479602996
 20
129.1183327849
 30
0.0
 11
0.2
 21
0.0
 31
0.0
 40
0.0524077793
 41
-1.5707963268
 42
-0.5235987756
  0
ELLIPSE
  5
51E
100
AcDbEntity
  8
ASSI
100
AcDbEllipse
 62
7
  6
CONTINUOUS
 10
175.8789004073
 20
129.1183327849
 30
0.0
 11
0.2
 21
0.0
 31
0.0
 40
0.0524077793
 41
-2.617993878
 42
-1.5707963268
  0
ELLIPSE
  5
51F
100
AcDbEntity
  8
ASSI
100
AcDbEllipse
 62
7
  6
CONTINUOUS
 10
168.0479602996
 20
129.1183327849
 30
0.0
 11
0.2
 21
-0.0
 31
0.0
 40
0.0524077793
 41
-1.5707963268
 42
-0.5235987756
  0
ELLIPSE
  5
520
100
AcDbEntity
  8
ASSI
100
AcDbEllipse
 62
7
  6
CONTINUOUS
 10
164.6789004073
 20
129.1183327849
 30
0.0
 11
0.2
 21
-0.0
 31
0.0
 40
0.0524077793
 41
-2.617993878
 42
-1.5707963268
  0
ELLIPSE
  5
521
100
AcDbEntity
  8
ASSI
100
AcDbEllipse
 62
7
  6
CONTINUOUS
 10
153.3789004073
 20
129.1183327849
 30
0.0
 11
0.2
 21
0.0
 31
0.0
 40
0.0524077793
 41
-2.617993878
 42
-1.5707963268
  0
ELLIPSE
  5
522
100
AcDbEntity
  8
ASSI
100
AcDbEllipse
 62
7
  6
CONTINUOUS
 10
156.7479602996
 20
129.1183327849
 30
0.0
 11
0.2
 21
0.0
 31
0.0
 40
0.0524077793
 41
-1.5707963268
 42
-0.5235987756
  0
ELLIPSE
  5
523
100
AcDbEntity
  8
ASSI
100
AcDbEllipse
 62
7
  6
CONTINUOUS
 10
145.5479602996
 20
129.1183327849
 30
0.0
 11
0.2
 21
-0.0
 31
0.0
 40
0.0524077793
 41
-1.5707963268
 42
-0.5235987756
  0
ELLIPSE
  5
524
100
AcDbEntity
  8
ASSI
100
AcDbEllipse
 62
7
  6
CONTINUOUS
 10
142.1789004073
 20
129.1183327849
 30
0.0
 11
0.2
 21
0.0
 31
0.0
 40
0.0524077793
 41
-2.617993878
 42
-1.5707963268
  0
ELLIPSE
  5
525
100
AcDbEntity
  8
ASSI
100
AcDbEllipse
 62
7
  6
CONTINUOUS
 10
138.9644175477
 20
107.6882518874
 30
0.0
 11
0.4745319423
 21
0.1581451893
 31
0.0
 40
0.9996192872
 41
2.8200172282
 42
4.3905851209
  0
ELLIPSE
  5
526
100
AcDbEntity
  8
ASSI
100
AcDbEllipse
 62
7
  6
CONTINUOUS
 10
182.4624431591
 20
107.6882518874
 30
0.0
 11
0.4745319423
 21
-0.1581451893
 31
0.0
 40
0.9996192872
 41
-1.2489924673
 42
0.3215754255
  0
ELLIPSE
  5
527
100
AcDbEntity
  8
ASSI
100
AcDbEllipse
 62
7
  6
CONTINUOUS
 10
138.9840243748
 20
128.6465361634
 30
0.0
 11
0.4962344879
 21
0.0628595572
 31
0.0
 40
0.9963456432
 41
1.4443370775
 42
3.0137634083
  0
ELLIPSE
  5
528
100
AcDbEntity
  8
ASSI
100
AcDbEllipse
 62
7
  6
CONTINUOUS
 10
182.442836332
 20
128.6465361634
 30
0.0
 11
0.4962344879
 21
-0.0628595572
 31
0.0
 40
0.9963456432
 41
0.1278292453
 42
1.6972555761
  0
ENDSEC
  0
SECTION
  2
OBJECTS
  0
DICTIONARY
  5
C
100
AcDbDictionary
280
0
281
1
  3
ACAD_GROUP
350
D
  3
ACAD_MLINESTYLE
350
17
  3
ACAD_LAYOUT
350
1A
  3
ACAD_PLOTSETTINGS
350
19
  3
ACAD_PLOTSTYLENAME
350
E
  0
DICTIONARY
  5
D
102
{ACAD_REACTORS
330
C
102
}
100
AcDbDictionary
280
0
281
1
  0
ACDBDICTIONARYWDFLT
  5
E
102
{ACAD_REACTORS
330
C
102
}
100
AcDbDictionary
281
1
  3
Normal
350
F
100
AcDbDictionaryWithDefault
340
F
  0
DICTIONARY
  5
17
102
{ACAD_REACTORS
330
C
102
}
100
AcDbDictionary
280
0
281
1
  3
Standard
350
18
  0
DICTIONARY
  5
19
102
{ACAD_REACTORS
330
C
102
}
100
AcDbDictionary
281
1
  0
DICTIONARY
  5
1A
102
{ACAD_REACTORS
330
C
102
}
100
AcDbDictionary
281
1
  3
Model
350
529
  3
Layout1
350
52A
  0
ACDBPLACEHOLDER
  5
F
102
{ACAD_REACTORS
330
E
102
}
  0
MLINESTYLE
  5
18
102
{ACAD_REACTORS
330
17
102
}
100
AcDbMlineStyle
  2
STANDARD
 70
0
  3

 62
256
 51
90.0
 52
90.0
 71
2
 49
0.5
 62
256
  6
BYLAYER
 49
-0.5
 62
256
  6
BYLAYER
  0
LAYOUT
  5
529
102
{ACAD_REACTORS
330
1A
102
}
100
AcDbPlotSettings
  1

  2
none_device
  4
ISO_A4_(297.00_x_210.00_MM)
  6

 40
0.0
 41
0.0
 42
0.0
 43
0.0
 44
297.0
 45
210.0
 46
0.0
 47
0.0
 48
0.0
 49
0.0
140
0.0
141
0.0
142
1.0
143
1.0
 70
1024
 72
1
 73
0
 74
0
  7

 75
0
147
1.0
148
0.0
149
0.0
100
AcDbLayout
  1
Model
 70
0
 71
0
 10
0.0
 20
0.0
 11
297.0
 21
210.0
 12
0.0
 22
0.0
 32
0.0
 14
0.0
 24
0.0
 34
0.0
 15
0.0
 25
0.0
 35
0.0
146
0.0
 13
0.0
 23
0.0
 33
0.0
 16
1.0
 26
0.0
 36
0.0
 17
0.0
 27
1.0
 37
0.0
 76
0
330
21F
345
0
346
0
  0
LAYOUT
  5
52A
102
{ACAD_REACTORS
330
1A
102
}
100
AcDbPlotSettings
  1

  2
none_device
  4
ISO_A4_(297.00_x_210.00_MM)
  6

 40
0.0
 41
0.0
 42
0.0
 43
0.0
 44
297.0
 45
210.0
 46
0.0
 47
0.0
 48
0.0
 49
0.0
140
0.0
141
0.0
142
1.0
143
1.0
 70
0
 72
1
 73
0
 74
0
  7

 75
0
147
1.0
148
0.0
149
0.0
100
AcDbLayout
  1
Layout1
 70
0
 71
1
 10
0.0
 20
0.0
 11
297.0
 21
210.0
 12
0.0
 22
0.0
 32
0.0
 14
0.0
 24
0.0
 34
0.0
 15
0.0
 25
0.0
 35
0.0
146
0.0
 13
0.0
 23
0.0
 33
0.0
 16
1.0
 26
0.0
 36
0.0
 17
0.0
 27
1.0
 37
0.0
 76
0
330
220
345
0
346
0
  0
ENDSEC
  0
EOF
