  0
SECTION
  2
HEADER
  9
$ACADVER
  1
AC1021
  9
$DWGCODEPAGE
  3
ANSI_1252
  9
$EXTMAX
 10
297.0
 20
210.0
 30
0.0
  9
$EXTMIN
 10
0.0
 20
0.0
 30
0.0
  9
$LIMMIN
 10
0.0
 20
0.0
  9
$LIMMAX
 10
297.0
 20
210.0
  9
$VIEWCTR
 10
148.5
 20
105.0
  9
$VIEWSIZE
 40
210.0
  9
$CLAYER
  8
0
  9
$LTSCALE
 40
16.335
  9
$CELTYPE
  6
BYLAYER
  9
$DIMSCALE
 40
1.0
  9
$DIMASZ
 40
3.0
  9
$DIMEXO
 40
1.85625
  9
$DIMDLI
 40
11.286
  9
$DIMEXE
 40
5.346
  9
$DIMCEN
 40
2.673
  9
$DIMLFAC
 40
1.0
  9
$DIMBLK
  1
_FILLED
  9
$DIMTXT
 40
3.0
  9
$DIMTOL
 70
1
  9
$DIMLIM
 70
0
  9
$DIMTFAC
 40
1.0
  9
$DIMTP
 40
0.01
  9
$DIMTM
 40
0.01
  9
$PDMODE
 70
3
  9
$PDSIZE
 40
3.0
  9
$HANDSEED
  5
500
  9
$TILEMODE
 70
1
  9
$MEASUREMENT
 70
1
  9
$INSUNITS
 70
4
  0
ENDSEC
  0
SECTION
  2
CLASSES
  0
CLASS
  1
ACDBDICTIONARYWDFLT
  2
AcDbDictionaryWithDefault
  3
AutoCAD 2000
 90
0
 91
1
280
0
281
0
  0
CLASS
  1
ACDBPLACEHOLDER
  2
AcDbPlaceHolder
  3
AutoCAD 2000
 90
0
 91
1
280
0
281
0
  0
CLASS
  1
LAYOUT
  2
AcDbLayout
  3
AutoCAD 2000
 90
0
 91
0
280
0
281
0
  0
ENDSEC
  0
SECTION
  2
TABLES
  0
TABLE
  2
VPORT
  5
8
100
AcDbSymbolTable
 70
2
  0
VPORT
  5
1F4
100
AcDbSymbolTableRecord
100
AcDbViewportTableRecord
  2
*ACTIVE
 70
0
 10
0.0
 20
0.0
 11
1.0
 21
1.0
 12
148.5
 22
105.0
 13
0.0
 23
0.0
 14
1.0
 24
1.0
 15
0.0
 25
0.0
 16
0.0
 26
0.0
 36
1.0
 17
0.0
 27
0.0
 37
0.0
 40
210.0
 41
1.4142857143
 42
50.0
 43
0.0
 44
0.0
 50
0.0
 51
0.0
 71
0
 72
100
 73
1
 74
1
 75
0
 76
0
 77
0
 78
0
  0
ENDTAB
  0
TABLE
  2
LTYPE
  5
5
100
AcDbSymbolTable
 70
6
  0
LTYPE
  5
14
100
AcDbSymbolTableRecord
100
AcDbLinetypeTableRecord
  2
BYBLOCK
 70
0
  3

 72
65
 73
0
 40
0.0
  0
LTYPE
  5
15
100
AcDbSymbolTableRecord
100
AcDbLinetypeTableRecord
  2
BYLAYER
 70
0
  3

 72
65
 73
0
 40
0.0
  0
LTYPE
  5
16
100
AcDbSymbolTableRecord
100
AcDbLinetypeTableRecord
  2
CONTINUOUS
 70
64
  3
Solid line
 72
65
 73
0
 40
0.0
  0
LTYPE
  5
1F5
100
AcDbSymbolTableRecord
100
AcDbLinetypeTableRecord
  2
CENTER
 70
64
  3
____ _ ____ _ ____ _ ____ _ ____ _ ____ _ ____
 72
65
 73
4
 40
0.6
 49
0.375
 74
0
 49
-0.075
 74
0
 49
0.075
 74
0
 49
-0.075
 74
0
  0
LTYPE
  5
1F6
100
AcDbSymbolTableRecord
100
AcDbLinetypeTableRecord
  2
HIDDEN
 70
64
  3
- - - - - - - - - - - - - - - - - - - -
 72
65
 73
2
 40
0.2
 49
0.1
 74
0
 49
-0.1
 74
0
  0
LTYPE
  5
1F7
100
AcDbSymbolTableRecord
100
AcDbLinetypeTableRecord
  2
PHANTOM
 70
64
  3
_____ _ _ _____ _ _ _____ _ _ _____
 72
65
 73
6
 40
0.8
 49
0.45
 74
0
 49
-0.05
 74
0
 49
0.1
 74
0
 49
-0.05
 74
0
 49
0.1
 74
0
 49
-0.05
 74
0
  0
LTYPE
  5
1F8
100
AcDbSymbolTableRecord
100
AcDbLinetypeTableRecord
  2
DOT
 70
64
  3
. . . . . . . . . . . . . . . . . . . .
 72
65
 73
2
 40
0.2
 49
0.1
 74
0
 49
-0.1
 74
0
  0
LTYPE
  5
1F9
100
AcDbSymbolTableRecord
100
AcDbLinetypeTableRecord
  2
DASHED
 70
64
  3
- - - - - - - - - - - - - - - - - - - -
 72
65
 73
2
 40
0.2
 49
0.1
 74
0
 49
-0.1
 74
0
  0
ENDTAB
  0
TABLE
  2
LAYER
  5
2
100
AcDbSymbolTable
 70
36
  0
LAYER
  5
10
100
AcDbSymbolTableRecord
100
AcDbLayerTableRecord
  2
0
 70
0
 62
7
  6
CONTINUOUS
370
-3
390
F
  0
LAYER
  5
1FA
100
AcDbSymbolTableRecord
100
AcDbLayerTableRecord
  2
DEFAULT_1
 70
0
 62
7
  6
CENTER
370
-3
390
F
  0
LAYER
  5
1FB
100
AcDbSymbolTableRecord
100
AcDbLayerTableRecord
  2
DEFAULT_2
 70
0
 62
7
  6
HIDDEN
370
-3
390
F
  0
LAYER
  5
1FC
100
AcDbSymbolTableRecord
100
AcDbLayerTableRecord
  2
DEFAULT_3
 70
0
 62
7
  6
PHANTOM
370
-3
390
F
  0
LAYER
  5
1FD
100
AcDbSymbolTableRecord
100
AcDbLayerTableRecord
  2
ASSI
 70
0
 62
7
  6
CONTINUOUS
370
-3
390
F
  0
LAYER
  5
1FE
100
AcDbSymbolTableRecord
100
AcDbLayerTableRecord
  2
COLOR3
 70
0
 62
7
  6
CONTINUOUS
370
-3
390
F
  0
LAYER
  5
1FF
100
AcDbSymbolTableRecord
100
AcDbLayerTableRecord
  2
COORDINATE
 70
0
 62
7
  6
CONTINUOUS
370
-3
390
F
  0
LAYER
  5
200
100
AcDbSymbolTableRecord
100
AcDbLayerTableRecord
  2
COPY_PUBLISH
 70
0
 62
7
  6
CONTINUOUS
370
-3
390
F
  0
LAYER
  5
201
100
AcDbSymbolTableRecord
100
AcDbLayerTableRecord
  2
COSMETIC
 70
0
 62
7
  6
CONTINUOUS
370
-3
390
F
  0
LAYER
  5
202
100
AcDbSymbolTableRecord
100
AcDbLayerTableRecord
  2
COSMETICI
 70
0
 62
7
  6
CONTINUOUS
370
-3
390
F
  0
LAYER
  5
203
100
AcDbSymbolTableRecord
100
AcDbLayerTableRecord
  2
CURVE
 70
0
 62
7
  6
CONTINUOUS
370
-3
390
F
  0
LAYER
  5
204
100
AcDbSymbolTableRecord
100
AcDbLayerTableRecord
  2
DRAFT
 70
0
 62
7
  6
CONTINUOUS
370
-3
390
F
  0
LAYER
  5
205
100
AcDbSymbolTableRecord
100
AcDbLayerTableRecord
  2
IMPORT_IGES
 70
0
 62
7
  6
CONTINUOUS
370
-3
390
F
  0
LAYER
  5
206
100
AcDbSymbolTableRecord
100
AcDbLayerTableRecord
  2
INTFCLR_1
 70
0
 62
7
  6
CONTINUOUS
370
-3
390
F
  0
LAYER
  5
207
100
AcDbSymbolTableRecord
100
AcDbLayerTableRecord
  2
INTF_1
 70
0
 62
7
  6
CONTINUOUS
370
-3
390
F
  0
LAYER
  5
208
100
AcDbSymbolTableRecord
100
AcDbLayerTableRecord
  2
INTF_10
 70
0
 62
7
  6
CONTINUOUS
370
-3
390
F
  0
LAYER
  5
209
100
AcDbSymbolTableRecord
100
AcDbLayerTableRecord
  2
INTF_13
 70
0
 62
7
  6
CONTINUOUS
370
-3
390
F
  0
LAYER
  5
20A
100
AcDbSymbolTableRecord
100
AcDbLayerTableRecord
  2
INTF_15
 70
0
 62
7
  6
CONTINUOUS
370
-3
390
F
  0
LAYER
  5
20B
100
AcDbSymbolTableRecord
100
AcDbLayerTableRecord
  2
INTF_16
 70
0
 62
7
  6
CONTINUOUS
370
-3
390
F
  0
LAYER
  5
20C
100
AcDbSymbolTableRecord
100
AcDbLayerTableRecord
  2
INTF_18
 70
0
 62
7
  6
CONTINUOUS
370
-3
390
F
  0
LAYER
  5
20D
100
AcDbSymbolTableRecord
100
AcDbLayerTableRecord
  2
INTF_20
 70
0
 62
7
  6
CONTINUOUS
370
-3
390
F
  0
LAYER
  5
20E
100
AcDbSymbolTableRecord
100
AcDbLayerTableRecord
  2
INTF_3
 70
0
 62
7
  6
CONTINUOUS
370
-3
390
F
  0
LAYER
  5
20F
100
AcDbSymbolTableRecord
100
AcDbLayerTableRecord
  2
INTF_5
 70
0
 62
7
  6
CONTINUOUS
370
-3
390
F
  0
LAYER
  5
210
100
AcDbSymbolTableRecord
100
AcDbLayerTableRecord
  2
INTF_8
 70
0
 62
7
  6
CONTINUOUS
370
-3
390
F
  0
LAYER
  5
211
100
AcDbSymbolTableRecord
100
AcDbLayerTableRecord
  2
NOTE
 70
0
 62
7
  6
CONTINUOUS
370
-3
390
F
  0
LAYER
  5
212
100
AcDbSymbolTableRecord
100
AcDbLayerTableRecord
  2
PIANI
 70
0
 62
7
  6
CONTINUOUS
370
-3
390
F
  0
LAYER
  5
213
100
AcDbSymbolTableRecord
100
AcDbLayerTableRecord
  2
PUNTI
 70
0
 62
7
  6
CONTINUOUS
370
-3
390
F
  0
LAYER
  5
214
100
AcDbSymbolTableRecord
100
AcDbLayerTableRecord
  2
RACCORDO
 70
0
 62
7
  6
CONTINUOUS
370
-3
390
F
  0
LAYER
  5
215
100
AcDbSymbolTableRecord
100
AcDbLayerTableRecord
  2
SIMBOLI
 70
0
 62
7
  6
CONTINUOUS
370
-3
390
F
  0
LAYER
  5
216
100
AcDbSymbolTableRecord
100
AcDbLayerTableRecord
  2
SMUSSO
 70
0
 62
7
  6
CONTINUOUS
370
-3
390
F
  0
LAYER
  5
217
100
AcDbSymbolTableRecord
100
AcDbLayerTableRecord
  2
SNAPLINE
 70
0
 62
7
  6
CONTINUOUS
370
-3
390
F
  0
LAYER
  5
218
100
AcDbSymbolTableRecord
100
AcDbLayerTableRecord
  2
SOLIDO
 70
0
 62
7
  6
CONTINUOUS
370
-3
390
F
  0
LAYER
  5
219
100
AcDbSymbolTableRecord
100
AcDbLayerTableRecord
  2
SUPERFICI
 70
0
 62
7
  6
CONTINUOUS
370
-3
390
F
  0
LAYER
  5
21A
100
AcDbSymbolTableRecord
100
AcDbLayerTableRecord
  2
SUPERFICI_SKEL
 70
0
 62
7
  6
CONTINUOUS
370
-3
390
F
  0
LAYER
  5
21B
100
AcDbSymbolTableRecord
100
AcDbLayerTableRecord
  2
TRASH
 70
0
 62
7
  6
CONTINUOUS
370
-3
390
F
  0
LAYER
  5
21C
100
AcDbSymbolTableRecord
100
AcDbLayerTableRecord
  2
___SHELL
 70
0
 62
7
  6
CONTINUOUS
370
-3
390
F
  0
ENDTAB
  0
TABLE
  2
STYLE
  5
3
100
AcDbSymbolTable
 70
1
  0
STYLE
  5
11
100
AcDbSymbolTableRecord
100
AcDbTextStyleTableRecord
  2
STANDARD
 70
0
 40
0.0
 41
0.8
 50
0.0
 71
0
 42
0.2
  3
txt
  4

  0
STYLE
  5
21D
100
AcDbSymbolTableRecord
100
AcDbTextStyleTableRecord
  2
TEXTSTYLE_1
 70
0
 40
0.0
 41
0.8
 50
0.0
 71
0
 42
0.2
  3
gdt
  4

  0
ENDTAB
  0
TABLE
  2
VIEW
  5
6
100
AcDbSymbolTable
 70
0
  0
ENDTAB
  0
TABLE
  2
UCS
  5
7
100
AcDbSymbolTable
 70
0
  0
ENDTAB
  0
TABLE
  2
APPID
  5
9
100
AcDbSymbolTable
 70
1
  0
APPID
  5
21E
100
AcDbSymbolTableRecord
100
AcDbRegAppTableRecord
  2
ACAD
 70
0
  0
ENDTAB
  0
TABLE
  2
BLOCK_RECORD
  5
1
100
AcDbSymbolTable
 70
0
  0
BLOCK_RECORD
  5
21F
100
AcDbSymbolTableRecord
100
AcDbBlockTableRecord
  2
*Model_Space
  0
BLOCK_RECORD
  5
220
100
AcDbSymbolTableRecord
100
AcDbBlockTableRecord
  2
*Paper_Space
  0
BLOCK_RECORD
  5
221
100
AcDbSymbolTableRecord
100
AcDbBlockTableRecord
  2
_FILLED
  0
BLOCK_RECORD
  5
222
100
AcDbSymbolTableRecord
100
AcDbBlockTableRecord
  2
*D0
  0
BLOCK_RECORD
  5
223
100
AcDbSymbolTableRecord
100
AcDbBlockTableRecord
  2
*D1
  0
BLOCK_RECORD
  5
224
100
AcDbSymbolTableRecord
100
AcDbBlockTableRecord
  2
*D2
  0
ENDTAB
  0
TABLE
  2
DIMSTYLE
  5
A
100
AcDbSymbolTable
 70
1
100
AcDbDimStyleTable
 71
0
  0
DIMSTYLE
105
225
100
AcDbSymbolTableRecord
100
AcDbDimStyleTableRecord
  2
STANDARD
 70
0
  3

  4

 40
1.0
 41
3.0
 42
0.0625
 43
0.38
 44
0.18
 45
0.0
 46
0.0
 47
0.01
 48
0.01
140
3.0
141
0.09
142
0.0
143
25.4
144
1.0
145
0.0
146
1.0
147
0.09
 71
1.0
 72
0.0
 73
0
 74
0
 75
0
 76
0
 77
1
 78
8
170
0
171
2
172
0
173
0
174
0
175
0
176
0
177
0
178
0
270
2
271
2
272
2
273
2
274
2
275
0
280
0
281
0
282
0
283
1
284
8
285
0
286
0
287
3
288
0
340
11
341
221
342
221
343
221
344
221
  0
DIMSTYLE
105
226
100
AcDbSymbolTableRecord
100
AcDbDimStyleTableRecord
  2
DIMSTYLE_1
 70
0
  3

  4

 40
1.0
 41
3.0
 42
0.0625
 43
0.38
 44
0.18
 45
0.0
 46
0.0
 47
0.0
 48
0.0
140
3.0
141
0.09
142
0.0
143
25.4
144
1.0
145
0.0
146
1.0
147
0.09
 71
0.0
 72
0.0
 73
0
 74
0
 75
0
 76
0
 77
1
 78
8
170
0
171
2
172
0
173
0
174
0
175
0
176
0
177
0
178
0
270
2
271
1
272
1
273
2
274
2
275
0
280
0
281
0
282
0
283
1
284
8
285
0
286
0
287
3
288
0
340
11
341
221
342
221
343
221
344
221
  0
DIMSTYLE
105
227
100
AcDbSymbolTableRecord
100
AcDbDimStyleTableRecord
  2
DIMSTYLE_2
 70
0
  3

  4

 40
1.0
 41
3.0
 42
0.0625
 43
0.38
 44
0.18
 45
0.0
 46
0.0
 47
0.0
 48
0.0
140
3.0
141
0.09
142
0.0
143
25.4
144
1.0
145
0.0
146
1.0
147
0.09
 71
0.0
 72
0.0
 73
0
 74
0
 75
0
 76
0
 77
1
 78
8
170
0
171
2
172
0
173
0
174
0
175
0
176
0
177
0
178
0
270
2
271
2
272
2
273
2
274
2
275
0
280
0
281
0
282
0
283
1
284
8
285
0
286
0
287
3
288
0
340
11
341
221
342
221
343
221
344
221
  0
ENDTAB
  0
ENDSEC
  0
SECTION
  2
BLOCKS
  0
BLOCK
  5
20
100
AcDbEntity
  8
0
100
AcDbBlockBegin
  2
*Model_Space
 70
0
 10
0.0
 20
0.0
 30
0.0
  3
*Model_Space
  1

  0
ENDBLK
  5
21
100
AcDbEntity
  8
0
100
AcDbBlockEnd
  0
BLOCK
  5
1C
100
AcDbEntity
  8
0
100
AcDbBlockBegin
  2
*Paper_Space
 70
0
 10
0.0
 20
0.0
 30
0.0
  3
*Paper_Space
  1

  0
ENDBLK
  5
1D
100
AcDbEntity
  8
0
100
AcDbBlockEnd
  0
BLOCK
  5
228
100
AcDbEntity
  8
0
100
AcDbBlockBegin
  2
_FILLED
 70
64
 10
0.0
 20
0.0
  3
_FILLED
  1

  0
SOLID
  5
229
100
AcDbEntity
  8
0
  6
BYBLOCK
 62
0
100
AcDbTrace
 10
0.0
 20
0.0
 11
-1.0
 21
0.3166666667
 12
-1.0
 22
-0.3166666667
 13
-1.0
 23
-0.3166666667
  0
ENDBLK
  5
22A
100
AcDbEntity
  8
0
  6
BYBLOCK
 62
0
100
AcDbBlockEnd
  0
BLOCK
  5
22B
100
AcDbEntity
  8
0
100
AcDbBlockBegin
 62
7
  6
CONTINUOUS
  2
*D0
 70
65
 10
0.0
 20
0.0
  3
*D0
  1

  0
MTEXT
  5
22C
100
AcDbEntity
  8
0
100
AcDbMText
 62
7
  6
CONTINUOUS
  7
STANDARD
 71
2
 72
1
 10
182.2474052356
 20
107.7785862786
 30
0.0
 11
0.0
 21
1.0
 31
0.0
 44
0.9
  1
44,3
 40
3.0
 41
8.5714285714
  0
LINE
  5
22D
100
AcDbEntity
  8
0
100
AcDbLine
 62
7
  6
CONTINUOUS
 10
172.8900720501
 20
85.621882002
 11
187.4974052356
 21
85.621882002
  0
LINE
  5
22E
100
AcDbEntity
  8
0
100
AcDbLine
 62
7
  6
CONTINUOUS
 10
172.8900720501
 20
129.9352905552
 11
187.4974052356
 21
129.9352905552
  0
LINE
  5
22F
100
AcDbEntity
  8
0
100
AcDbLine
 62
7
  6
CONTINUOUS
 10
185.9974052356
 20
85.621882002
 11
185.9974052356
 21
107.7785862786
  0
LINE
  5
230
100
AcDbEntity
  8
0
100
AcDbLine
 62
7
  6
CONTINUOUS
 10
185.9974052356
 20
129.9352905552
 11
185.9974052356
 21
107.7785862786
  0
INSERT
  5
231
100
AcDbEntity
  8
0
100
AcDbBlockReference
 62
7
  6
CONTINUOUS
  2
_FILLED
 10
185.9974052356
 20
85.621882002
 41
3.0
 42
3.0
 43
3.0
 50
270.0
  0
INSERT
  5
232
100
AcDbEntity
  8
0
100
AcDbBlockReference
 62
7
  6
CONTINUOUS
  2
_FILLED
 10
185.9974052356
 20
129.9352905552
 41
3.0
 42
3.0
 43
3.0
 50
90.0
  0
ENDBLK
  5
233
100
AcDbEntity
  8
0
  6
BYBLOCK
 62
0
100
AcDbBlockEnd
  0
BLOCK
  5
234
100
AcDbEntity
  8
0
100
AcDbBlockBegin
 62
7
  6
CONTINUOUS
  2
*D1
 70
65
 10
0.0
 20
0.0
  3
*D1
  1

  0
MTEXT
  5
235
100
AcDbEntity
  8
0
100
AcDbMText
 62
7
  6
CONTINUOUS
  7
STANDARD
 71
2
 72
1
 10
150.6611226611
 20
146.9222437882
 30
0.0
 11
1.0
 21
0.0
 31
0.0
 44
0.9
  1
44,5
 40
3.0
 41
8.5714285714
  0
LINE
  5
236
100
AcDbEntity
  8
0
100
AcDbLine
 62
7
  6
CONTINUOUS
 10
172.9103068631
 20
121.3785862786
 11
172.9103068631
 21
144.6722437882
  0
LINE
  5
237
100
AcDbEntity
  8
0
100
AcDbLine
 62
7
  6
CONTINUOUS
 10
128.4119384592
 20
121.3785862786
 11
128.4119384592
 21
144.6722437882
  0
LINE
  5
238
100
AcDbEntity
  8
0
100
AcDbLine
 62
7
  6
CONTINUOUS
 10
172.9103068631
 20
143.1722437882
 11
150.6611226611
 21
143.1722437882
  0
LINE
  5
239
100
AcDbEntity
  8
0
100
AcDbLine
 62
7
  6
CONTINUOUS
 10
128.4119384592
 20
143.1722437882
 11
150.6611226611
 21
143.1722437882
  0
INSERT
  5
23A
100
AcDbEntity
  8
0
100
AcDbBlockReference
 62
7
  6
CONTINUOUS
  2
_FILLED
 10
172.9103068631
 20
143.1722437882
 41
3.0
 42
3.0
 43
3.0
 50
0.0
  0
INSERT
  5
23B
100
AcDbEntity
  8
0
100
AcDbBlockReference
 62
7
  6
CONTINUOUS
  2
_FILLED
 10
128.4119384592
 20
143.1722437882
 41
3.0
 42
3.0
 43
3.0
 50
180.0
  0
ENDBLK
  5
23C
100
AcDbEntity
  8
0
  6
BYBLOCK
 62
0
100
AcDbBlockEnd
  0
BLOCK
  5
23D
100
AcDbEntity
  8
0
100
AcDbBlockBegin
 62
7
  6
CONTINUOUS
  2
*D2
 70
65
 10
0.0
 20
0.0
  3
*D2
  1

  0
MTEXT
  5
23E
100
AcDbEntity
  8
0
100
AcDbMText
 62
7
  6
CONTINUOUS
  7
STANDARD
 71
2
 72
1
 10
115.9327710594
 20
146.9222437882
 30
0.0
 11
1.0
 21
0.0
 31
0.0
 44
0.9
  1
5,3
 40
3.0
 41
6.0
  0
LINE
  5
23F
100
AcDbEntity
  8
0
100
AcDbLine
 62
7
  6
CONTINUOUS
 10
118.6073438536
 20
121.3785862786
 11
118.6073438536
 21
144.6722437882
  0
LINE
  5
240
100
AcDbEntity
  8
0
100
AcDbLine
 62
7
  6
CONTINUOUS
 10
113.2581982651
 20
109.0218517883
 11
113.2581982651
 21
144.6722437882
  0
LINE
  5
241
100
AcDbEntity
  8
0
100
AcDbLine
 62
7
  6
CONTINUOUS
 10
118.6073438536
 20
143.1722437882
 11
122.6073438536
 21
143.1722437882
  0
LINE
  5
242
100
AcDbEntity
  8
0
100
AcDbLine
 62
7
  6
CONTINUOUS
 10
122.6073438536
 20
143.1722437882
 11
115.9327710594
 21
143.1722437882
  0
LINE
  5
243
100
AcDbEntity
  8
0
100
AcDbLine
 62
7
  6
CONTINUOUS
 10
113.2581982651
 20
143.1722437882
 11
109.2581982651
 21
143.1722437882
  0
LINE
  5
244
100
AcDbEntity
  8
0
100
AcDbLine
 62
7
  6
CONTINUOUS
 10
109.2581982651
 20
143.1722437882
 11
115.9327710594
 21
143.1722437882
  0
INSERT
  5
245
100
AcDbEntity
  8
0
100
AcDbBlockReference
 62
7
  6
CONTINUOUS
  2
_FILLED
 10
118.6073438536
 20
143.1722437882
 41
3.0
 42
3.0
 43
3.0
 50
180.0
  0
INSERT
  5
246
100
AcDbEntity
  8
0
100
AcDbBlockReference
 62
7
  6
CONTINUOUS
  2
_FILLED
 10
113.2581982651
 20
143.1722437882
 41
3.0
 42
3.0
 43
3.0
  0
ENDBLK
  5
247
100
AcDbEntity
  8
0
  6
BYBLOCK
 62
0
100
AcDbBlockEnd
  0
ENDSEC
  0
SECTION
  2
ENTITIES
  0
DIMENSION
  5
248
100
AcDbEntity
  8
0
100
AcDbDimension
 62
7
  6
CONTINUOUS
  2
*D0
 10
185.9974052356
 20
129.9352905552
 11
185.6677207333
 21
103.947172006
 70
160
 71
2
 42
44.3134085533
  3
DIMSTYLE_1
100
AcDbAlignedDimension
 13
172.8900720501
 23
85.621882002
 14
172.8900720501
 24
129.9352905552
 50
90.0
100
AcDbRotatedDimension
  0
DIMENSION
  5
249
100
AcDbEntity
  8
0
100
AcDbDimension
 62
7
  6
CONTINUOUS
  2
*D1
 10
128.4119384592
 20
143.1722437882
 11
146.3754083754
 21
145.4222437882
 70
160
 71
2
 42
44.4983684039
  3
DIMSTYLE_2
100
AcDbAlignedDimension
 13
172.9103068631
 23
121.3785862786
 14
128.4119384592
 24
121.3785862786
 50
180.0
100
AcDbRotatedDimension
  0
DIMENSION
  5
24A
100
AcDbEntity
  8
0
100
AcDbDimension
 62
7
  6
CONTINUOUS
  2
*D2
 10
113.2581982651
 20
143.1722437882
 11
112.9327710594
 21
145.4222437882
 70
160
 71
2
 42
5.3491455885
  3
DIMSTYLE_1
100
AcDbAlignedDimension
 13
118.6073438536
 23
121.3785862786
 14
113.2581982651
 24
109.0218517883
 50
180.0
100
AcDbRotatedDimension
  0
LWPOLYLINE
  5
24B
100
AcDbEntity
  8
0
100
AcDbPolyline
 62
253
  6
CONTINUOUS
 90
7
 70
0
 10
128.9982848264
 20
129.8029767188
 10
128.9972347578
 20
129.7955906953
 10
128.9961428998
 20
129.7823148323
 10
128.9950371108
 20
129.763217759
 10
128.9939659979
 20
129.7383977132
 10
128.9929354893
 20
129.707979744
 10
128.9909092418
 20
129.6309737067
  0
LWPOLYLINE
  5
24C
100
AcDbEntity
  8
ASSI
100
AcDbPolyline
 62
253
  6
CONTINUOUS
 90
7
 70
0
 10
128.9982848264
 20
129.8029767188
 10
128.9972347578
 20
129.7955906953
 10
128.9961428998
 20
129.7823148323
 10
128.9950371108
 20
129.763217759
 10
128.9939659979
 20
129.7383977132
 10
128.9929354893
 20
129.707979744
 10
128.9909092418
 20
129.6309737067
  0
LINE
  5
24D
100
AcDbEntity
  8
0
100
AcDbLine
 62
7
  6
CONTINUOUS
 10
165.3025659122
 20
85.621882002
 11
165.6533876342
 21
85.6537271198
  0
LINE
  5
24E
100
AcDbEntity
  8
ASSI
100
AcDbLine
 62
7
  6
CONTINUOUS
 10
165.3025659122
 20
85.621882002
 11
165.6533876342
 21
85.6537271198
  0
LWPOLYLINE
  5
24F
100
AcDbEntity
  8
0
100
AcDbPolyline
 62
253
  6
CONTINUOUS
 90
16
 70
0
 10
172.3239604958
 20
85.7541958384
 10
172.3761621223
 20
85.7569978836
 10
172.4277927338
 20
85.765230473
 10
172.4782876306
 20
85.7788035434
 10
172.5270945524
 20
85.7975686278
 10
172.5736796739
 20
85.8213204638
 10
172.6175334507
 20
85.849799224
 10
172.658176255
 20
85.8826933926
 10
172.6951635996
 20
85.919643177
 10
172.7280909632
 20
85.9602444121
 10
172.7565982428
 20
86.0040530035
 10
172.780373695
 20
86.0505898005
 10
172.7991573293
 20
86.0993458254
 10
172.8127437459
 20
86.1497878284
 10
172.8209843855
 20
86.2013641175
 10
172.8237891583
 20
86.2535106058
  0
LWPOLYLINE
  5
250
100
AcDbEntity
  8
ASSI
100
AcDbPolyline
 62
253
  6
CONTINUOUS
 90
16
 70
0
 10
172.3239604958
 20
85.7541958384
 10
172.3761621223
 20
85.7569978836
 10
172.4277927338
 20
85.765230473
 10
172.4782876306
 20
85.7788035434
 10
172.5270945524
 20
85.7975686278
 10
172.5736796739
 20
85.8213204638
 10
172.6175334507
 20
85.849799224
 10
172.658176255
 20
85.8826933926
 10
172.6951635996
 20
85.919643177
 10
172.7280909632
 20
85.9602444121
 10
172.7565982428
 20
86.0040530035
 10
172.780373695
 20
86.0505898005
 10
172.7991573293
 20
86.0993458254
 10
172.8127437459
 20
86.1497878284
 10
172.8209843855
 20
86.2013641175
 10
172.8237891583
 20
86.2535106058
  0
LWPOLYLINE
  5
251
100
AcDbEntity
  8
0
100
AcDbPolyline
 62
253
  6
CONTINUOUS
 90
16
 70
0
 10
128.9982848245
 20
85.7541958345
 10
128.9460838545
 20
85.7569978098
 10
128.8944538129
 20
85.7652302068
 10
128.843959384
 20
85.7788029871
 10
128.7951528316
 20
85.7975677032
 10
128.7485679589
 20
85.8213191233
 10
128.7047142705
 20
85.8497974751
 10
128.6640713996
 20
85.8826912873
 10
128.6270838622
 20
85.9196407963
 10
128.5941561958
 20
85.9602418805
 10
128.5656485341
 20
86.0040504811
 10
128.5418726691
 20
86.0505874579
 10
128.5230886403
 20
86.0993438302
 10
128.509501891
 20
86.1497863436
 10
128.5012610211
 20
86.201363302
 10
128.498456162
 20
86.2535106019
  0
LWPOLYLINE
  5
252
100
AcDbEntity
  8
ASSI
100
AcDbPolyline
 62
253
  6
CONTINUOUS
 90
16
 70
0
 10
128.9982848245
 20
85.7541958345
 10
128.9460838545
 20
85.7569978098
 10
128.8944538129
 20
85.7652302068
 10
128.843959384
 20
85.7788029871
 10
128.7951528316
 20
85.7975677032
 10
128.7485679589
 20
85.8213191233
 10
128.7047142705
 20
85.8497974751
 10
128.6640713996
 20
85.8826912873
 10
128.6270838622
 20
85.9196407963
 10
128.5941561958
 20
85.9602418805
 10
128.5656485341
 20
86.0040504811
 10
128.5418726691
 20
86.0505874579
 10
128.5230886403
 20
86.0993438302
 10
128.509501891
 20
86.1497863436
 10
128.5012610211
 20
86.201363302
 10
128.498456162
 20
86.2535106019
  0
LINE
  5
253
100
AcDbEntity
  8
0
100
AcDbLine
 62
7
  6
CONTINUOUS
 10
136.01967941
 20
85.621882002
 11
135.668857688
 21
85.6537271198
  0
LINE
  5
254
100
AcDbEntity
  8
ASSI
100
AcDbLine
 62
7
  6
CONTINUOUS
 10
136.01967941
 20
85.621882002
 11
135.668857688
 21
85.6537271198
  0
LWPOLYLINE
  5
255
100
AcDbEntity
  8
0
100
AcDbPolyline
 62
253
  6
CONTINUOUS
 90
8
 70
0
 10
128.9989659195
 20
108.1473548279
 10
129.0025894303
 20
108.1142563453
 10
129.0065036655
 20
108.0856140086
 10
129.0101355279
 20
108.0616917389
 10
129.0143892968
 20
108.0426524632
 10
129.0192629178
 20
108.028753597
 10
129.0237812115
 20
108.0202075624
 10
129.0274567229
 20
108.0170655033
  0
LWPOLYLINE
  5
256
100
AcDbEntity
  8
ASSI
100
AcDbPolyline
 62
253
  6
CONTINUOUS
 90
8
 70
0
 10
128.9989659195
 20
108.1473548279
 10
129.0025894303
 20
108.1142563453
 10
129.0065036655
 20
108.0856140086
 10
129.0101355279
 20
108.0616917389
 10
129.0143892968
 20
108.0426524632
 10
129.0192629178
 20
108.028753597
 10
129.0237812115
 20
108.0202075624
 10
129.0274567229
 20
108.0170655033
  0
LWPOLYLINE
  5
257
100
AcDbEntity
  8
0
100
AcDbPolyline
 62
253
  6
CONTINUOUS
 90
19
 70
0
 10
128.5276280604
 20
108.5170464649
 10
128.5294947789
 20
108.4739891681
 10
128.535082286
 20
108.4311320812
 10
128.5443799907
 20
108.3887994946
 10
128.5573569134
 20
108.3472938028
 10
128.5739409581
 20
108.3069619308
 10
128.5939996366
 20
108.2681848507
 10
128.6173905965
 20
108.2312656256
 10
128.6439468593
 20
108.1964917596
 10
128.6734285681
 20
108.1641845303
 10
128.7055814522
 20
108.1346097124
 10
128.7401784466
 20
108.1079643886
 10
128.7769819501
 20
108.0844316353
 10
128.8157303001
 20
108.0641869477
 10
128.8561138944
 20
108.0473998663
 10
128.8978034691
 20
108.0342088724
 10
128.9404721371
 20
108.0247148077
 10
128.9838003722
 20
108.0189862412
 10
129.0274567229
 20
108.0170655033
  0
LWPOLYLINE
  5
258
100
AcDbEntity
  8
ASSI
100
AcDbPolyline
 62
253
  6
CONTINUOUS
 90
19
 70
0
 10
128.5276280604
 20
108.5170464649
 10
128.5294947789
 20
108.4739891681
 10
128.535082286
 20
108.4311320812
 10
128.5443799907
 20
108.3887994946
 10
128.5573569134
 20
108.3472938028
 10
128.5739409581
 20
108.3069619308
 10
128.5939996366
 20
108.2681848507
 10
128.6173905965
 20
108.2312656256
 10
128.6439468593
 20
108.1964917596
 10
128.6734285681
 20
108.1641845303
 10
128.7055814522
 20
108.1346097124
 10
128.7401784466
 20
108.1079643886
 10
128.7769819501
 20
108.0844316353
 10
128.8157303001
 20
108.0641869477
 10
128.8561138944
 20
108.0473998663
 10
128.8978034691
 20
108.0342088724
 10
128.9404721371
 20
108.0247148077
 10
128.9838003722
 20
108.0189862412
 10
129.0274567229
 20
108.0170655033
  0
LWPOLYLINE
  5
259
100
AcDbEntity
  8
0
100
AcDbPolyline
 62
253
  6
CONTINUOUS
 90
4
 70
0
 10
128.9887068204
 20
108.3156125979
 10
128.9904984112
 20
108.2689016702
 10
128.9932017276
 20
108.2249314671
 10
128.9989659195
 20
108.1473548279
  0
LWPOLYLINE
  5
25A
100
AcDbEntity
  8
ASSI
100
AcDbPolyline
 62
253
  6
CONTINUOUS
 90
4
 70
0
 10
128.9887068204
 20
108.3156125979
 10
128.9904984112
 20
108.2689016702
 10
128.9932017276
 20
108.2249314671
 10
128.9989659195
 20
108.1473548279
  0
LWPOLYLINE
  5
25B
100
AcDbEntity
  8
0
100
AcDbPolyline
 62
253
  6
CONTINUOUS
 90
6
 70
0
 10
128.9929355271
 20
85.8491928098
 10
128.9939660283
 20
85.8187748413
 10
128.9950371335
 20
85.7939547956
 10
128.9961429146
 20
85.7748577219
 10
128.9972347644
 20
85.7615818584
 10
128.9982848245
 20
85.7541958345
  0
LWPOLYLINE
  5
25C
100
AcDbEntity
  8
ASSI
100
AcDbPolyline
 62
253
  6
CONTINUOUS
 90
6
 70
0
 10
128.9929355271
 20
85.8491928098
 10
128.9939660283
 20
85.8187748413
 10
128.9950371335
 20
85.7939547956
 10
128.9961429146
 20
85.7748577219
 10
128.9972347644
 20
85.7615818584
 10
128.9982848245
 20
85.7541958345
  0
LINE
  5
25D
100
AcDbEntity
  8
0
100
AcDbLine
 62
253
  6
CONTINUOUS
 10
128.5091382974
 20
129.1466021715
 11
128.511023982
 21
129.0790004639
  0
LINE
  5
25E
100
AcDbEntity
  8
ASSI
100
AcDbLine
 62
253
  6
CONTINUOUS
 10
128.5091382974
 20
129.1466021715
 11
128.511023982
 21
129.0790004639
  0
LINE
  5
25F
100
AcDbEntity
  8
0
100
AcDbLine
 62
253
  6
CONTINUOUS
 10
128.9909092935
 20
85.9261988456
 11
128.9929355271
 21
85.8491928098
  0
LINE
  5
260
100
AcDbEntity
  8
ASSI
100
AcDbLine
 62
253
  6
CONTINUOUS
 10
128.9909092935
 20
85.9261988456
 11
128.9929355271
 21
85.8491928098
  0
LINE
  5
261
100
AcDbEntity
  8
0
100
AcDbLine
 62
253
  6
CONTINUOUS
 10
128.511023982
 20
129.0790004639
 11
128.5126377966
 21
129.0022525014
  0
LINE
  5
262
100
AcDbEntity
  8
ASSI
100
AcDbLine
 62
253
  6
CONTINUOUS
 10
128.511023982
 20
129.0790004639
 11
128.5126377966
 21
129.0022525014
  0
LINE
  5
263
100
AcDbEntity
  8
0
100
AcDbLine
 62
253
  6
CONTINUOUS
 10
128.9890384774
 20
86.023445518
 11
128.9909092935
 21
85.9261988456
  0
LINE
  5
264
100
AcDbEntity
  8
ASSI
100
AcDbLine
 62
253
  6
CONTINUOUS
 10
128.9890384774
 20
86.023445518
 11
128.9909092935
 21
85.9261988456
  0
LINE
  5
265
100
AcDbEntity
  8
0
100
AcDbLine
 62
253
  6
CONTINUOUS
 10
128.5126377966
 20
129.0022525014
 11
128.5139560994
 21
128.9174991893
  0
LINE
  5
266
100
AcDbEntity
  8
ASSI
100
AcDbLine
 62
253
  6
CONTINUOUS
 10
128.5126377966
 20
129.0022525014
 11
128.5139560994
 21
128.9174991893
  0
LINE
  5
267
100
AcDbEntity
  8
0
100
AcDbLine
 62
253
  6
CONTINUOUS
 10
128.9865430286
 20
86.2029197977
 11
128.9890384774
 21
86.023445518
  0
LINE
  5
268
100
AcDbEntity
  8
ASSI
100
AcDbLine
 62
253
  6
CONTINUOUS
 10
128.9865430286
 20
86.2029197977
 11
128.9890384774
 21
86.023445518
  0
LINE
  5
269
100
AcDbEntity
  8
0
100
AcDbLine
 62
253
  6
CONTINUOUS
 10
128.5139560994
 20
128.9174991893
 11
128.5153145513
 21
128.7794890347
  0
LINE
  5
26A
100
AcDbEntity
  8
ASSI
100
AcDbLine
 62
253
  6
CONTINUOUS
 10
128.5139560994
 20
128.9174991893
 11
128.5153145513
 21
128.7794890347
  0
LINE
  5
26B
100
AcDbEntity
  8
0
100
AcDbLine
 62
253
  6
CONTINUOUS
 10
128.9839736932
 20
86.4921115081
 11
128.9865430286
 21
86.2029197977
  0
LINE
  5
26C
100
AcDbEntity
  8
ASSI
100
AcDbLine
 62
253
  6
CONTINUOUS
 10
128.9839736932
 20
86.4921115081
 11
128.9865430286
 21
86.2029197977
  0
LWPOLYLINE
  5
26D
100
AcDbEntity
  8
0
100
AcDbPolyline
 62
253
  6
CONTINUOUS
 90
3
 70
0
 10
128.9849829828
 20
107.0393683128
 10
128.9847565887
 20
107.0923567206
 10
128.9856060504
 20
107.1436063862
  0
LWPOLYLINE
  5
26E
100
AcDbEntity
  8
ASSI
100
AcDbPolyline
 62
253
  6
CONTINUOUS
 90
3
 70
0
 10
128.9849829828
 20
107.0393683128
 10
128.9847565887
 20
107.0923567206
 10
128.9856060504
 20
107.1436063862
  0
LINE
  5
26F
100
AcDbEntity
  8
0
100
AcDbLine
 62
7
  6
CONTINUOUS
 10
128.4315468506
 20
86.1196001563
 11
128.4119384592
 21
94.6785862786
  0
LINE
  5
270
100
AcDbEntity
  8
ASSI
100
AcDbLine
 62
7
  6
CONTINUOUS
 10
128.4315468506
 20
86.1196001563
 11
128.4119384592
 21
94.6785862786
  0
LINE
  5
271
100
AcDbEntity
  8
0
100
AcDbLine
 62
253
  6
CONTINUOUS
 10
128.9822486481
 20
86.9013349311
 11
128.9839736932
 21
86.4921115081
  0
LINE
  5
272
100
AcDbEntity
  8
ASSI
100
AcDbLine
 62
253
  6
CONTINUOUS
 10
128.9822486481
 20
86.9013349311
 11
128.9839736932
 21
86.4921115081
  0
LINE
  5
273
100
AcDbEntity
  8
0
100
AcDbLine
 62
253
  6
CONTINUOUS
 10
128.5153145513
 20
128.7794890347
 11
128.515882607
 21
128.63440275
  0
LINE
  5
274
100
AcDbEntity
  8
ASSI
100
AcDbLine
 62
253
  6
CONTINUOUS
 10
128.5153145513
 20
128.7794890347
 11
128.515882607
 21
128.63440275
  0
LINE
  5
275
100
AcDbEntity
  8
0
100
AcDbLine
 62
253
  6
CONTINUOUS
 10
128.515882607
 20
128.63440275
 11
128.5261015649
 21
115.3297885589
  0
LINE
  5
276
100
AcDbEntity
  8
ASSI
100
AcDbLine
 62
253
  6
CONTINUOUS
 10
128.515882607
 20
128.63440275
 11
128.5261015649
 21
115.3297885589
  0
LINE
  5
277
100
AcDbEntity
  8
0
100
AcDbLine
 62
7
  6
CONTINUOUS
 10
128.4119384592
 20
120.8785862786
 11
128.4119384592
 21
108.4784910964
  0
LINE
  5
278
100
AcDbEntity
  8
ASSI
100
AcDbLine
 62
7
  6
CONTINUOUS
 10
128.4119384592
 20
120.8785862786
 11
128.4119384592
 21
108.4784910964
  0
LINE
  5
279
100
AcDbEntity
  8
0
100
AcDbLine
 62
7
  6
CONTINUOUS
 10
128.4119384592
 20
94.6785862786
 11
128.4119384592
 21
107.0786814608
  0
LINE
  5
27A
100
AcDbEntity
  8
ASSI
100
AcDbLine
 62
7
  6
CONTINUOUS
 10
128.4119384592
 20
94.6785862786
 11
128.4119384592
 21
107.0786814608
  0
LINE
  5
27B
100
AcDbEntity
  8
0
100
AcDbLine
 62
253
  6
CONTINUOUS
 10
128.5261015649
 20
115.3297885589
 11
128.5276280604
 21
108.5170464649
  0
LINE
  5
27C
100
AcDbEntity
  8
ASSI
100
AcDbLine
 62
253
  6
CONTINUOUS
 10
128.5261015649
 20
115.3297885589
 11
128.5276280604
 21
108.5170464649
  0
LINE
  5
27D
100
AcDbEntity
  8
0
100
AcDbLine
 62
253
  6
CONTINUOUS
 10
128.9849830557
 20
107.0393683207
 11
128.9822486112
 21
86.901334927
  0
LINE
  5
27E
100
AcDbEntity
  8
ASSI
100
AcDbLine
 62
253
  6
CONTINUOUS
 10
128.9849830557
 20
107.0393683207
 11
128.9822486112
 21
86.901334927
  0
LINE
  5
27F
100
AcDbEntity
  8
0
100
AcDbLine
 62
253
  6
CONTINUOUS
 10
128.5276280586
 20
107.0401260929
 11
128.5253806478
 21
98.6169594206
  0
LINE
  5
280
100
AcDbEntity
  8
ASSI
100
AcDbLine
 62
253
  6
CONTINUOUS
 10
128.5276280586
 20
107.0401260929
 11
128.5253806478
 21
98.6169594206
  0
LINE
  5
281
100
AcDbEntity
  8
0
100
AcDbLine
 62
253
  6
CONTINUOUS
 10
128.5253806478
 20
98.6169594206
 11
128.5184869223
 21
89.4264244002
  0
LINE
  5
282
100
AcDbEntity
  8
ASSI
100
AcDbLine
 62
253
  6
CONTINUOUS
 10
128.5253806478
 20
98.6169594206
 11
128.5184869223
 21
89.4264244002
  0
LINE
  5
283
100
AcDbEntity
  8
0
100
AcDbLine
 62
7
  6
CONTINUOUS
 10
128.4315468506
 20
129.4375724009
 11
128.4119384592
 21
120.8785862786
  0
LINE
  5
284
100
AcDbEntity
  8
ASSI
100
AcDbLine
 62
7
  6
CONTINUOUS
 10
128.4315468506
 20
129.4375724009
 11
128.4119384592
 21
120.8785862786
  0
LINE
  5
285
100
AcDbEntity
  8
0
100
AcDbLine
 62
253
  6
CONTINUOUS
 10
128.9827213656
 20
128.823181711
 11
128.9849830579
 21
108.5178042331
  0
LINE
  5
286
100
AcDbEntity
  8
ASSI
100
AcDbLine
 62
253
  6
CONTINUOUS
 10
128.9827213656
 20
128.823181711
 11
128.9849830579
 21
108.5178042331
  0
LINE
  5
287
100
AcDbEntity
  8
0
100
AcDbLine
 62
253
  6
CONTINUOUS
 10
128.5184869223
 20
89.4264244002
 11
128.5155917229
 21
86.8252593746
  0
LINE
  5
288
100
AcDbEntity
  8
ASSI
100
AcDbLine
 62
253
  6
CONTINUOUS
 10
128.5184869223
 20
89.4264244002
 11
128.5155917229
 21
86.8252593746
  0
LWPOLYLINE
  5
289
100
AcDbEntity
  8
0
100
AcDbPolyline
 62
253
  6
CONTINUOUS
 90
4
 70
0
 10
128.9849829846
 20
108.5178042375
 10
128.9847567194
 20
108.4648178252
 10
128.9856061002
 20
108.4135698321
 10
128.9887068204
 20
108.3156125979
  0
LWPOLYLINE
  5
28A
100
AcDbEntity
  8
ASSI
100
AcDbPolyline
 62
253
  6
CONTINUOUS
 90
4
 70
0
 10
128.9849829846
 20
108.5178042375
 10
128.9847567194
 20
108.4648178252
 10
128.9856061002
 20
108.4135698321
 10
128.9887068204
 20
108.3156125979
  0
LINE
  5
28B
100
AcDbEntity
  8
0
100
AcDbLine
 62
253
  6
CONTINUOUS
 10
128.9851429954
 20
129.2156538004
 11
128.9827213656
 21
128.823181711
  0
LINE
  5
28C
100
AcDbEntity
  8
ASSI
100
AcDbLine
 62
253
  6
CONTINUOUS
 10
128.9851429954
 20
129.2156538004
 11
128.9827213656
 21
128.823181711
  0
LINE
  5
28D
100
AcDbEntity
  8
0
100
AcDbLine
 62
253
  6
CONTINUOUS
 10
128.5155917229
 20
86.8252593746
 11
128.5144923112
 21
86.6843928759
  0
LINE
  5
28E
100
AcDbEntity
  8
ASSI
100
AcDbLine
 62
253
  6
CONTINUOUS
 10
128.5155917229
 20
86.8252593746
 11
128.5144923112
 21
86.6843928759
  0
LINE
  5
28F
100
AcDbEntity
  8
0
100
AcDbLine
 62
253
  6
CONTINUOUS
 10
128.9873296622
 20
129.4181836163
 11
128.9851429954
 21
129.2156538004
  0
LINE
  5
290
100
AcDbEntity
  8
ASSI
100
AcDbLine
 62
253
  6
CONTINUOUS
 10
128.9873296622
 20
129.4181836163
 11
128.9851429954
 21
129.2156538004
  0
LINE
  5
291
100
AcDbEntity
  8
0
100
AcDbLine
 62
253
  6
CONTINUOUS
 10
128.5144923112
 20
86.6843928759
 11
128.5133375379
 21
86.5965303617
  0
LINE
  5
292
100
AcDbEntity
  8
ASSI
100
AcDbLine
 62
253
  6
CONTINUOUS
 10
128.5144923112
 20
86.6843928759
 11
128.5133375379
 21
86.5965303617
  0
LINE
  5
293
100
AcDbEntity
  8
0
100
AcDbLine
 62
253
  6
CONTINUOUS
 10
128.9890384132
 20
129.5337270329
 11
128.9873296622
 21
129.4181836163
  0
LINE
  5
294
100
AcDbEntity
  8
ASSI
100
AcDbLine
 62
253
  6
CONTINUOUS
 10
128.9890384132
 20
129.5337270329
 11
128.9873296622
 21
129.4181836163
  0
LINE
  5
295
100
AcDbEntity
  8
0
100
AcDbLine
 62
253
  6
CONTINUOUS
 10
128.5133375379
 20
86.5965303617
 11
128.5118669863
 21
86.5154573982
  0
LINE
  5
296
100
AcDbEntity
  8
ASSI
100
AcDbLine
 62
253
  6
CONTINUOUS
 10
128.5133375379
 20
86.5965303617
 11
128.5118669863
 21
86.5154573982
  0
LINE
  5
297
100
AcDbEntity
  8
0
100
AcDbLine
 62
253
  6
CONTINUOUS
 10
128.9909092418
 20
129.6309737067
 11
128.9890384132
 21
129.5337270329
  0
LINE
  5
298
100
AcDbEntity
  8
ASSI
100
AcDbLine
 62
253
  6
CONTINUOUS
 10
128.9909092418
 20
129.6309737067
 11
128.9890384132
 21
129.5337270329
  0
LWPOLYLINE
  5
299
100
AcDbEntity
  8
0
100
AcDbPolyline
 62
253
  6
CONTINUOUS
 90
12
 70
0
 10
128.5118669863
 20
86.5154573982
 10
128.5101099088
 20
86.4430344371
 10
128.5091382952
 20
86.4105703801
 10
128.5081082831
 20
86.3808215659
 10
128.5070207283
 20
86.3537463449
 10
128.5058917199
 20
86.3297457012
 10
128.504720071
 20
86.308864382
 10
128.5035069685
 20
86.2910576399
 10
128.5022720614
 20
86.2765922167
 10
128.5010218995
 20
86.2655570263
 10
128.4997499331
 20
86.2578631547
 10
128.498456162
 20
86.2535106019
  0
LWPOLYLINE
  5
29A
100
AcDbEntity
  8
ASSI
100
AcDbPolyline
 62
253
  6
CONTINUOUS
 90
12
 70
0
 10
128.5118669863
 20
86.5154573982
 10
128.5101099088
 20
86.4430344371
 10
128.5091382952
 20
86.4105703801
 10
128.5081082831
 20
86.3808215659
 10
128.5070207283
 20
86.3537463449
 10
128.5058917199
 20
86.3297457012
 10
128.504720071
 20
86.308864382
 10
128.5035069685
 20
86.2910576399
 10
128.5022720614
 20
86.2765922167
 10
128.5010218995
 20
86.2655570263
 10
128.4997499331
 20
86.2578631547
 10
128.498456162
 20
86.2535106019
  0
LWPOLYLINE
  5
29B
100
AcDbEntity
  8
0
100
AcDbPolyline
 62
253
  6
CONTINUOUS
 90
4
 70
0
 10
128.9856060504
 20
107.1436063862
 10
128.9887070676
 20
107.2415659566
 10
128.990498697
 20
107.2882775431
 10
128.9932021506
 20
107.3322479631
  0
LWPOLYLINE
  5
29C
100
AcDbEntity
  8
ASSI
100
AcDbPolyline
 62
253
  6
CONTINUOUS
 90
4
 70
0
 10
128.9856060504
 20
107.1436063862
 10
128.9887070676
 20
107.2415659566
 10
128.990498697
 20
107.2882775431
 10
128.9932021506
 20
107.3322479631
  0
LWPOLYLINE
  5
29D
100
AcDbEntity
  8
0
100
AcDbPolyline
 62
253
  6
CONTINUOUS
 90
19
 70
0
 10
128.5276280586
 20
107.0401260929
 10
128.5294947802
 20
107.0831834249
 10
128.5350822956
 20
107.1260405419
 10
128.5443800128
 20
107.1683731532
 10
128.5573569519
 20
107.2098788663
 10
128.5739410149
 20
107.2502107534
 10
128.5939997084
 20
107.2889878352
 10
128.6173906719
 20
107.3259070429
 10
128.6439469278
 20
107.3606808822
 10
128.673428629
 20
107.3929880903
 10
128.705581512
 20
107.4225628971
 10
128.7401785077
 20
107.4492082133
 10
128.7769820101
 20
107.4727409583
 10
128.8157303542
 20
107.4929856362
 10
128.8561139398
 20
107.5097727087
 10
128.8978035043
 20
107.5229636953
 10
128.940472161
 20
107.5324577546
 10
128.9838003837
 20
107.5381863177
 10
129.0274567211
 20
107.5401070544
  0
LWPOLYLINE
  5
29E
100
AcDbEntity
  8
ASSI
100
AcDbPolyline
 62
253
  6
CONTINUOUS
 90
19
 70
0
 10
128.5276280586
 20
107.0401260929
 10
128.5294947802
 20
107.0831834249
 10
128.5350822956
 20
107.1260405419
 10
128.5443800128
 20
107.1683731532
 10
128.5573569519
 20
107.2098788663
 10
128.5739410149
 20
107.2502107534
 10
128.5939997084
 20
107.2889878352
 10
128.6173906719
 20
107.3259070429
 10
128.6439469278
 20
107.3606808822
 10
128.673428629
 20
107.3929880903
 10
128.705581512
 20
107.4225628971
 10
128.7401785077
 20
107.4492082133
 10
128.7769820101
 20
107.4727409583
 10
128.8157303542
 20
107.4929856362
 10
128.8561139398
 20
107.5097727087
 10
128.8978035043
 20
107.5229636953
 10
128.940472161
 20
107.5324577546
 10
128.9838003837
 20
107.5381863177
 10
129.0274567211
 20
107.5401070544
  0
LWPOLYLINE
  5
29F
100
AcDbEntity
  8
0
100
AcDbPolyline
 62
253
  6
CONTINUOUS
 90
9
 70
0
 10
128.9932021506
 20
107.3322479631
 10
128.9989664901
 20
107.4098236642
 10
129.0025900096
 20
107.4429212188
 10
129.0065042667
 20
107.4715624392
 10
129.0101360665
 20
107.4954835295
 10
129.014389715
 20
107.5145217384
 10
129.0192631899
 20
107.5284197521
 10
129.0237813304
 20
107.5369652132
 10
129.0274567215
 20
107.5401070544
  0
LWPOLYLINE
  5
2A0
100
AcDbEntity
  8
ASSI
100
AcDbPolyline
 62
253
  6
CONTINUOUS
 90
9
 70
0
 10
128.9932021506
 20
107.3322479631
 10
128.9989664901
 20
107.4098236642
 10
129.0025900096
 20
107.4429212188
 10
129.0065042667
 20
107.4715624392
 10
129.0101360665
 20
107.4954835295
 10
129.014389715
 20
107.5145217384
 10
129.0192631899
 20
107.5284197521
 10
129.0237813304
 20
107.5369652132
 10
129.0274567215
 20
107.5401070544
  0
LINE
  5
2A1
100
AcDbEntity
  8
0
100
AcDbLine
 62
7
  6
CONTINUOUS
 10
154.1025659122
 20
85.621882002
 11
154.4533876342
 21
85.6537271198
  0
LINE
  5
2A2
100
AcDbEntity
  8
ASSI
100
AcDbLine
 62
7
  6
CONTINUOUS
 10
154.1025659122
 20
85.621882002
 11
154.4533876342
 21
85.6537271198
  0
LINE
  5
2A3
100
AcDbEntity
  8
0
100
AcDbLine
 62
7
  6
CONTINUOUS
 10
142.8025659122
 20
85.621882002
 11
143.1533876342
 21
85.6537271198
  0
LINE
  5
2A4
100
AcDbEntity
  8
ASSI
100
AcDbLine
 62
7
  6
CONTINUOUS
 10
142.8025659122
 20
85.621882002
 11
143.1533876342
 21
85.6537271198
  0
LINE
  5
2A5
100
AcDbEntity
  8
0
100
AcDbLine
 62
7
  6
CONTINUOUS
 10
131.6025659122
 20
85.621882002
 11
131.9533876342
 21
85.6537271198
  0
LINE
  5
2A6
100
AcDbEntity
  8
ASSI
100
AcDbLine
 62
7
  6
CONTINUOUS
 10
131.6025659122
 20
85.621882002
 11
131.9533876342
 21
85.6537271198
  0
LWPOLYLINE
  5
2A7
100
AcDbEntity
  8
0
100
AcDbPolyline
 62
253
  6
CONTINUOUS
 90
14
 70
0
 10
172.4370047878
 20
86.9021415009
 10
172.4838443574
 20
86.9028472801
 10
172.5289646245
 20
86.9037462395
 10
172.571928077
 20
86.9048296623
 10
172.6123181169
 20
86.9060870431
 10
172.6497430989
 20
86.9075061896
 10
172.6838401291
 20
86.9090733409
 10
172.714278583
 20
86.910773301
 10
172.7407633119
 20
86.9125895861
 10
172.7630375048
 20
86.9145045845
 10
172.7808851782
 20
86.9164997273
 10
172.7941332708
 20
86.9185556685
 10
172.8026533216
 20
86.9206524724
 10
172.8063627153
 20
86.9227698072
  0
LWPOLYLINE
  5
2A8
100
AcDbEntity
  8
ASSI
100
AcDbPolyline
 62
253
  6
CONTINUOUS
 90
14
 70
0
 10
172.4370047878
 20
86.9021415009
 10
172.4838443574
 20
86.9028472801
 10
172.5289646245
 20
86.9037462395
 10
172.571928077
 20
86.9048296623
 10
172.6123181169
 20
86.9060870431
 10
172.6497430989
 20
86.9075061896
 10
172.6838401291
 20
86.9090733409
 10
172.714278583
 20
86.910773301
 10
172.7407633119
 20
86.9125895861
 10
172.7630375048
 20
86.9145045845
 10
172.7808851782
 20
86.9164997273
 10
172.7941332708
 20
86.9185556685
 10
172.8026533216
 20
86.9206524724
 10
172.8063627153
 20
86.9227698072
  0
LINE
  5
2A9
100
AcDbEntity
  8
0
100
AcDbLine
 62
253
  6
CONTINUOUS
 10
172.339996742
 20
86.9013349182
 11
172.4370047878
 21
86.9021415009
  0
LINE
  5
2AA
100
AcDbEntity
  8
ASSI
100
AcDbLine
 62
253
  6
CONTINUOUS
 10
172.339996742
 20
86.9013349182
 11
172.4370047878
 21
86.9021415009
  0
LINE
  5
2AB
100
AcDbEntity
  8
0
100
AcDbLine
 62
253
  6
CONTINUOUS
 10
128.9982848245
 20
85.7541958345
 11
132.2472023699
 21
85.7639117755
  0
LINE
  5
2AC
100
AcDbEntity
  8
ASSI
100
AcDbLine
 62
253
  6
CONTINUOUS
 10
128.9982848245
 20
85.7541958345
 11
132.2472023699
 21
85.7639117755
  0
LINE
  5
2AD
100
AcDbEntity
  8
0
100
AcDbLine
 62
253
  6
CONTINUOUS
 10
132.2472023699
 20
85.7639117755
 11
135.6500103428
 21
85.7702298206
  0
LINE
  5
2AE
100
AcDbEntity
  8
ASSI
100
AcDbLine
 62
253
  6
CONTINUOUS
 10
132.2472023699
 20
85.7639117755
 11
135.6500103428
 21
85.7702298206
  0
LINE
  5
2AF
100
AcDbEntity
  8
0
100
AcDbLine
 62
253
  6
CONTINUOUS
 10
128.9822486112
 20
86.901334927
 11
134.4749983167
 21
86.9072724945
  0
LINE
  5
2B0
100
AcDbEntity
  8
ASSI
100
AcDbLine
 62
253
  6
CONTINUOUS
 10
128.9822486112
 20
86.901334927
 11
134.4749983167
 21
86.9072724945
  0
LINE
  5
2B1
100
AcDbEntity
  8
0
100
AcDbLine
 62
253
  6
CONTINUOUS
 10
135.6500103428
 20
85.7702298206
 11
139.4115763656
 21
85.7726722798
  0
LINE
  5
2B2
100
AcDbEntity
  8
ASSI
100
AcDbLine
 62
253
  6
CONTINUOUS
 10
135.6500103428
 20
85.7702298206
 11
139.4115763656
 21
85.7726722798
  0
LINE
  5
2B3
100
AcDbEntity
  8
0
100
AcDbLine
 62
7
  6
CONTINUOUS
 10
128.9321732722
 20
85.621882002
 11
131.6025659122
 21
85.621882002
  0
LINE
  5
2B4
100
AcDbEntity
  8
ASSI
100
AcDbLine
 62
7
  6
CONTINUOUS
 10
128.9321732722
 20
85.621882002
 11
131.6025659122
 21
85.621882002
  0
LINE
  5
2B5
100
AcDbEntity
  8
0
100
AcDbLine
 62
7
  6
CONTINUOUS
 10
136.01967941
 20
85.621882002
 11
142.8025659122
 21
85.621882002
  0
LINE
  5
2B6
100
AcDbEntity
  8
ASSI
100
AcDbLine
 62
7
  6
CONTINUOUS
 10
136.01967941
 20
85.621882002
 11
142.8025659122
 21
85.621882002
  0
LINE
  5
2B7
100
AcDbEntity
  8
0
100
AcDbLine
 62
7
  6
CONTINUOUS
 10
147.21967941
 20
85.621882002
 11
154.1025659122
 21
85.621882002
  0
LINE
  5
2B8
100
AcDbEntity
  8
ASSI
100
AcDbLine
 62
7
  6
CONTINUOUS
 10
147.21967941
 20
85.621882002
 11
154.1025659122
 21
85.621882002
  0
LINE
  5
2B9
100
AcDbEntity
  8
0
100
AcDbLine
 62
7
  6
CONTINUOUS
 10
158.51967941
 20
85.621882002
 11
165.3025659122
 21
85.621882002
  0
LINE
  5
2BA
100
AcDbEntity
  8
ASSI
100
AcDbLine
 62
7
  6
CONTINUOUS
 10
158.51967941
 20
85.621882002
 11
165.3025659122
 21
85.621882002
  0
LINE
  5
2BB
100
AcDbEntity
  8
0
100
AcDbLine
 62
7
  6
CONTINUOUS
 10
169.71967941
 20
85.621882002
 11
172.3900720501
 21
85.621882002
  0
LINE
  5
2BC
100
AcDbEntity
  8
ASSI
100
AcDbLine
 62
7
  6
CONTINUOUS
 10
169.71967941
 20
85.621882002
 11
172.3900720501
 21
85.621882002
  0
LINE
  5
2BD
100
AcDbEntity
  8
0
100
AcDbLine
 62
7
  6
CONTINUOUS
 10
146.6956526073
 20
85.6589678978
 11
143.326592715
 21
85.6589678978
  0
LINE
  5
2BE
100
AcDbEntity
  8
ASSI
100
AcDbLine
 62
7
  6
CONTINUOUS
 10
146.6956526073
 20
85.6589678978
 11
143.326592715
 21
85.6589678978
  0
LINE
  5
2BF
100
AcDbEntity
  8
0
100
AcDbLine
 62
7
  6
CONTINUOUS
 10
135.4956526073
 20
85.6589678978
 11
132.126592715
 21
85.6589678978
  0
LINE
  5
2C0
100
AcDbEntity
  8
ASSI
100
AcDbLine
 62
7
  6
CONTINUOUS
 10
135.4956526073
 20
85.6589678978
 11
132.126592715
 21
85.6589678978
  0
LINE
  5
2C1
100
AcDbEntity
  8
0
100
AcDbLine
 62
7
  6
CONTINUOUS
 10
154.626592715
 20
85.6589678978
 11
157.9956526073
 21
85.6589678978
  0
LINE
  5
2C2
100
AcDbEntity
  8
ASSI
100
AcDbLine
 62
7
  6
CONTINUOUS
 10
154.626592715
 20
85.6589678978
 11
157.9956526073
 21
85.6589678978
  0
LINE
  5
2C3
100
AcDbEntity
  8
0
100
AcDbLine
 62
7
  6
CONTINUOUS
 10
165.826592715
 20
85.6589678978
 11
169.1956526073
 21
85.6589678978
  0
LINE
  5
2C4
100
AcDbEntity
  8
ASSI
100
AcDbLine
 62
7
  6
CONTINUOUS
 10
165.826592715
 20
85.6589678978
 11
169.1956526073
 21
85.6589678978
  0
LINE
  5
2C5
100
AcDbEntity
  8
0
100
AcDbLine
 62
253
  6
CONTINUOUS
 10
134.4749983167
 20
86.9072724945
 11
163.713906213
 21
86.9085272346
  0
LINE
  5
2C6
100
AcDbEntity
  8
ASSI
100
AcDbLine
 62
253
  6
CONTINUOUS
 10
134.4749983167
 20
86.9072724945
 11
163.713906213
 21
86.9085272346
  0
LINE
  5
2C7
100
AcDbEntity
  8
0
100
AcDbLine
 62
253
  6
CONTINUOUS
 10
139.4115763656
 20
85.7726722798
 11
164.588444624
 21
85.7714203961
  0
LINE
  5
2C8
100
AcDbEntity
  8
ASSI
100
AcDbLine
 62
253
  6
CONTINUOUS
 10
139.4115763656
 20
85.7726722798
 11
164.588444624
 21
85.7714203961
  0
LINE
  5
2C9
100
AcDbEntity
  8
0
100
AcDbLine
 62
253
  6
CONTINUOUS
 10
163.713906213
 20
86.9085272346
 11
167.991132649
 21
86.9063570431
  0
LINE
  5
2CA
100
AcDbEntity
  8
ASSI
100
AcDbLine
 62
253
  6
CONTINUOUS
 10
163.713906213
 20
86.9085272346
 11
167.991132649
 21
86.9063570431
  0
LINE
  5
2CB
100
AcDbEntity
  8
0
100
AcDbLine
 62
253
  6
CONTINUOUS
 10
167.991132649
 20
86.9063570431
 11
172.3399967421
 21
86.9013349302
  0
LINE
  5
2CC
100
AcDbEntity
  8
ASSI
100
AcDbLine
 62
253
  6
CONTINUOUS
 10
167.991132649
 20
86.9063570431
 11
172.3399967421
 21
86.9013349302
  0
LINE
  5
2CD
100
AcDbEntity
  8
0
100
AcDbLine
 62
253
  6
CONTINUOUS
 10
164.588444624
 20
85.7714203961
 11
167.9779248613
 21
85.7663849055
  0
LINE
  5
2CE
100
AcDbEntity
  8
ASSI
100
AcDbLine
 62
253
  6
CONTINUOUS
 10
164.588444624
 20
85.7714203961
 11
167.9779248613
 21
85.7663849055
  0
LWPOLYLINE
  5
2CF
100
AcDbEntity
  8
0
100
AcDbPolyline
 62
253
  6
CONTINUOUS
 90
3
 70
0
 10
167.9779248613
 20
85.7663849055
 10
171.427142881
 20
85.7572192452
 10
172.3239604958
 20
85.7541958384
  0
LWPOLYLINE
  5
2D0
100
AcDbEntity
  8
ASSI
100
AcDbPolyline
 62
253
  6
CONTINUOUS
 90
3
 70
0
 10
167.9779248613
 20
85.7663849055
 10
171.427142881
 20
85.7572192452
 10
172.3239604958
 20
85.7541958384
  0
LWPOLYLINE
  5
2D1
100
AcDbEntity
  8
0
100
AcDbPolyline
 62
253
  6
CONTINUOUS
 90
15
 70
0
 10
128.982249504
 20
86.9013354613
 10
128.88524236
 20
86.9021420177
 10
128.8384031808
 20
86.9028477749
 10
128.7932832465
 20
86.9037467068
 10
128.7503200573
 20
86.9048300972
 10
128.7099302007
 20
86.9060874412
 10
128.6725053121
 20
86.9075065474
 10
128.6384082776
 20
86.9090736553
 10
128.6079697152
 20
86.9107735699
 10
128.5814847687
 20
86.9125898079
 10
128.5592102463
 20
86.9145047586
 10
128.5413621303
 20
86.9164998538
 10
128.528113483
 20
86.9185557483
 10
128.5195927681
 20
86.9206525074
 10
128.5158826059
 20
86.9227698001
  0
LWPOLYLINE
  5
2D2
100
AcDbEntity
  8
ASSI
100
AcDbPolyline
 62
253
  6
CONTINUOUS
 90
15
 70
0
 10
128.982249504
 20
86.9013354613
 10
128.88524236
 20
86.9021420177
 10
128.8384031808
 20
86.9028477749
 10
128.7932832465
 20
86.9037467068
 10
128.7503200573
 20
86.9048300972
 10
128.7099302007
 20
86.9060874412
 10
128.6725053121
 20
86.9075065474
 10
128.6384082776
 20
86.9090736553
 10
128.6079697152
 20
86.9107735699
 10
128.5814847687
 20
86.9125898079
 10
128.5592102463
 20
86.9145047586
 10
128.5413621303
 20
86.9164998538
 10
128.528113483
 20
86.9185557483
 10
128.5195927681
 20
86.9206525074
 10
128.5158826059
 20
86.9227698001
  0
LINE
  5
2D3
100
AcDbEntity
  8
0
100
AcDbLine
 62
7
  6
CONTINUOUS
 10
147.21967941
 20
85.621882002
 11
146.868857688
 21
85.6537271198
  0
LINE
  5
2D4
100
AcDbEntity
  8
ASSI
100
AcDbLine
 62
7
  6
CONTINUOUS
 10
147.21967941
 20
85.621882002
 11
146.868857688
 21
85.6537271198
  0
LINE
  5
2D5
100
AcDbEntity
  8
0
100
AcDbLine
 62
7
  6
CONTINUOUS
 10
158.51967941
 20
85.621882002
 11
158.168857688
 21
85.6537271198
  0
LINE
  5
2D6
100
AcDbEntity
  8
ASSI
100
AcDbLine
 62
7
  6
CONTINUOUS
 10
158.51967941
 20
85.621882002
 11
158.168857688
 21
85.6537271198
  0
LINE
  5
2D7
100
AcDbEntity
  8
0
100
AcDbLine
 62
7
  6
CONTINUOUS
 10
169.71967941
 20
85.621882002
 11
169.368857688
 21
85.6537271198
  0
LINE
  5
2D8
100
AcDbEntity
  8
ASSI
100
AcDbLine
 62
7
  6
CONTINUOUS
 10
169.71967941
 20
85.621882002
 11
169.368857688
 21
85.6537271198
  0
LWPOLYLINE
  5
2D9
100
AcDbEntity
  8
0
100
AcDbPolyline
 62
253
  6
CONTINUOUS
 90
51
 70
0
 10
150.6905466611
 20
92.1555692786
 10
150.5576514981
 20
92.1577029211
 10
150.4246699667
 20
92.1641134262
 10
150.2916260674
 20
92.1748618217
 10
150.1585438008
 20
92.190009135
 10
150.0254471677
 20
92.2096163938
 10
149.8924399183
 20
92.2337120425
 10
149.7599448019
 20
92.2621941925
 10
149.6284643175
 20
92.2949283719
 10
149.498500964
 20
92.3317801088
 10
149.3705572404
 20
92.3726149315
 10
149.2450883476
 20
92.4172731353
 10
149.1223602944
 20
92.4654940839
 10
149.0025917918
 20
92.5169919085
 10
148.8860015506
 20
92.57148074
 10
148.7728082817
 20
92.6286747095
 10
148.6631686784
 20
92.6883234444
 10
148.5569913639
 20
92.7503185583
 10
148.4541229441
 20
92.8145871612
 10
148.3544100247
 20
92.8810563631
 10
148.2576992114
 20
92.949653274
 10
148.1638607872
 20
93.0203025443
 10
148.0728597443
 20
93.0929189859
 10
147.9846847519
 20
93.1674149509
 10
147.8993244793
 20
93.2437027915
 10
147.8167675959
 20
93.32169486
 10
147.736998385
 20
93.4013094934
 10
147.6599835855
 20
93.4824889677
 10
147.5856855504
 20
93.5651815437
 10
147.5140666327
 20
93.6493354823
 10
147.4450891854
 20
93.7348990442
 10
147.3625204861
 20
93.8437913605
 10
147.283922101
 20
93.9549107321
 10
147.2091958703
 20
94.0683625198
 10
147.1382436344
 20
94.1842520849
 10
147.0710004347
 20
94.302651066
 10
147.0075341181
 20
94.4234962119
 10
146.9479457327
 20
94.5466905493
 10
146.8923363267
 20
94.6721371046
 10
146.8408071378
 20
94.7997172685
 10
146.7934601632
 20
94.9292258887
 10
146.7503975899
 20
95.0604361774
 10
146.7117216045
 20
95.1931213464
 10
146.6775222915
 20
95.3270519307
 10
146.6478413244
 20
95.4619877572
 10
146.6227082742
 20
95.5976859758
 10
146.602152712
 20
95.7339037361
 10
146.5861953789
 20
95.8704180489
 10
146.5748216976
 20
96.0070853675
 10
146.5680082607
 20
96.143782006
 10
146.5657316611
 20
96.2803842786
  0
LWPOLYLINE
  5
2DA
100
AcDbEntity
  8
0
100
AcDbPolyline
 62
253
  6
CONTINUOUS
 90
55
 70
0
 10
150.6905456611
 20
92.7560500754
 10
150.5839442941
 20
92.7576394117
 10
150.4774214043
 20
92.7624241949
 10
150.3709841699
 20
92.7704457386
 10
150.2646397692
 20
92.7817453562
 10
150.1583953802
 20
92.7963643615
 10
150.0522581812
 20
92.8143440678
 10
149.9462966781
 20
92.8356959346
 10
149.8408246877
 20
92.8603120045
 10
149.7362173543
 20
92.888054466
 10
149.6328498226
 20
92.9187855073
 10
149.531097237
 20
92.9523673171
 10
149.4313347419
 20
92.9886620836
 10
149.3338815412
 20
93.0275264908
 10
149.2388330768
 20
93.0687952036
 10
149.1462288498
 20
93.1122973828
 10
149.0561083615
 20
93.1578621886
 10
148.9685111131
 20
93.2053187818
 10
148.8834766057
 20
93.2544963227
 10
148.8010242838
 20
93.3052442673
 10
148.7210933643
 20
93.3574932532
 10
148.6436030071
 20
93.4111942134
 10
148.5684723722
 20
93.466298081
 10
148.4956206198
 20
93.522755789
 10
148.4249669099
 20
93.5805182704
 10
148.3429876719
 20
93.6514851261
 10
148.2640232373
 20
93.724167392
 10
148.1880396378
 20
93.7984722612
 10
148.1150029053
 20
93.8743069266
 10
148.0448790715
 20
93.9515785812
 10
147.977628009
 20
94.0302109048
 10
147.9131849523
 20
94.110193524
 10
147.851478977
 20
94.1915325523
 10
147.7924391584
 20
94.2742341034
 10
147.7359945718
 20
94.3583042906
 10
147.6820854634
 20
94.4437539121
 10
147.6306967614
 20
94.5306125046
 10
147.5818245652
 20
94.6189142896
 10
147.5354649737
 20
94.7086934884
 10
147.491614086
 20
94.7999843224
 10
147.4502809179
 20
94.8927909632
 10
147.4115261514
 20
94.9869973825
 10
147.375423385
 20
95.0824575025
 10
147.3420462175
 20
95.179025245
 10
147.3114682475
 20
95.2765545322
 10
147.2837527195
 20
95.3749065926
 10
147.2589214612
 20
95.4739718815
 10
147.2369859463
 20
95.5736481604
 10
147.2179576486
 20
95.6738331913
 10
147.2018480416
 20
95.7744247358
 10
147.1886661648
 20
95.8753244314
 10
147.1784113204
 20
95.9764494179
 10
147.1710803763
 20
96.0777207109
 10
147.1666702006
 20
96.179059326
 10
147.1651776611
 20
96.2803862786
  0
LWPOLYLINE
  5
2DB
100
AcDbEntity
  8
0
100
AcDbPolyline
 62
253
  6
CONTINUOUS
 90
10
 70
0
 10
128.498456164
 20
129.3036619514
 10
128.499749935
 20
129.2993093984
 10
128.5010219015
 20
129.2916155266
 10
128.5022720635
 20
129.280580336
 10
128.5035069706
 20
129.2661149127
 10
128.5047200731
 20
129.2483081706
 10
128.505891722
 20
129.2274268512
 10
128.5070207305
 20
129.2034262072
 10
128.5081082853
 20
129.176350986
 10
128.5091382974
 20
129.1466021715
  0
LWPOLYLINE
  5
2DC
100
AcDbEntity
  8
ASSI
100
AcDbPolyline
 62
253
  6
CONTINUOUS
 90
10
 70
0
 10
128.498456164
 20
129.3036619514
 10
128.499749935
 20
129.2993093984
 10
128.5010219015
 20
129.2916155266
 10
128.5022720635
 20
129.280580336
 10
128.5035069706
 20
129.2661149127
 10
128.5047200731
 20
129.2483081706
 10
128.505891722
 20
129.2274268512
 10
128.5070207305
 20
129.2034262072
 10
128.5081082853
 20
129.176350986
 10
128.5091382974
 20
129.1466021715
  0
LWPOLYLINE
  5
2DD
100
AcDbEntity
  8
0
100
AcDbPolyline
 62
253
  6
CONTINUOUS
 90
3
 70
0
 10
139.4122563474
 20
108.0326762262
 10
139.4124035251
 20
108.0241113718
 10
139.4125523189
 20
108.0209422341
  0
LWPOLYLINE
  5
2DE
100
AcDbEntity
  8
ASSI
100
AcDbPolyline
 62
253
  6
CONTINUOUS
 90
3
 70
0
 10
139.4122563474
 20
108.0326762262
 10
139.4124035251
 20
108.0241113718
 10
139.4125523189
 20
108.0209422341
  0
LINE
  5
2DF
100
AcDbEntity
  8
0
100
AcDbLine
 62
253
  6
CONTINUOUS
 10
139.411973199
 20
108.0655634135
 11
139.4122563474
 21
108.0326762262
  0
LINE
  5
2E0
100
AcDbEntity
  8
ASSI
100
AcDbLine
 62
253
  6
CONTINUOUS
 10
139.411973199
 20
108.0655634135
 11
139.4122563474
 21
108.0326762262
  0
LINE
  5
2E1
100
AcDbEntity
  8
0
100
AcDbLine
 62
253
  6
CONTINUOUS
 10
139.4112491693
 20
108.3192412421
 11
139.411973199
 21
108.0655634135
  0
LINE
  5
2E2
100
AcDbEntity
  8
ASSI
100
AcDbLine
 62
253
  6
CONTINUOUS
 10
139.4112491693
 20
108.3192412421
 11
139.411973199
 21
108.0655634135
  0
LINE
  5
2E3
100
AcDbEntity
  8
0
100
AcDbLine
 62
253
  6
CONTINUOUS
 10
139.4112491693
 20
108.3192412421
 11
139.4111280395
 21
128.7460517708
  0
LINE
  5
2E4
100
AcDbEntity
  8
ASSI
100
AcDbLine
 62
253
  6
CONTINUOUS
 10
139.4112491693
 20
108.3192412421
 11
139.4111280395
 21
128.7460517708
  0
LINE
  5
2E5
100
AcDbEntity
  8
0
100
AcDbLine
 62
253
  6
CONTINUOUS
 10
139.4115763656
 20
85.7726722798
 11
139.4111314467
 21
107.0873622217
  0
LINE
  5
2E6
100
AcDbEntity
  8
ASSI
100
AcDbLine
 62
253
  6
CONTINUOUS
 10
139.4115763656
 20
85.7726722798
 11
139.4111314467
 21
107.0873622217
  0
LINE
  5
2E7
100
AcDbEntity
  8
0
100
AcDbLine
 62
253
  6
CONTINUOUS
 10
139.4111280395
 20
128.7460517708
 11
139.4115763656
 21
129.7845002773
  0
LINE
  5
2E8
100
AcDbEntity
  8
ASSI
100
AcDbLine
 62
253
  6
CONTINUOUS
 10
139.4111280395
 20
128.7460517708
 11
139.4115763656
 21
129.7845002773
  0
LINE
  5
2E9
100
AcDbEntity
  8
0
100
AcDbLine
 62
253
  6
CONTINUOUS
 10
139.4111314467
 20
107.0873622217
 11
139.4118403101
 21
107.4676439049
  0
LINE
  5
2EA
100
AcDbEntity
  8
ASSI
100
AcDbLine
 62
253
  6
CONTINUOUS
 10
139.4111314467
 20
107.0873622217
 11
139.4118403101
 21
107.4676439049
  0
LWPOLYLINE
  5
2EB
100
AcDbEntity
  8
0
100
AcDbPolyline
 62
253
  6
CONTINUOUS
 90
5
 70
0
 10
139.4118403101
 20
107.4676439049
 10
139.4121123884
 20
107.5106287182
 10
139.4122563503
 20
107.5244962859
 10
139.4124035266
 20
107.533061161
 10
139.4125523189
 20
107.5362303231
  0
LWPOLYLINE
  5
2EC
100
AcDbEntity
  8
ASSI
100
AcDbPolyline
 62
253
  6
CONTINUOUS
 90
5
 70
0
 10
139.4118403101
 20
107.4676439049
 10
139.4121123884
 20
107.5106287182
 10
139.4122563503
 20
107.5244962859
 10
139.4124035266
 20
107.533061161
 10
139.4125523189
 20
107.5362303231
  0
LINE
  5
2ED
100
AcDbEntity
  8
0
100
AcDbLine
 62
253
  6
CONTINUOUS
 10
128.498456162
 20
86.2535106019
 11
128.4315468506
 21
86.1196001563
  0
LINE
  5
2EE
100
AcDbEntity
  8
ASSI
100
AcDbLine
 62
253
  6
CONTINUOUS
 10
128.498456162
 20
86.2535106019
 11
128.4315468506
 21
86.1196001563
  0
LINE
  5
2EF
100
AcDbEntity
  8
0
100
AcDbLine
 62
253
  6
CONTINUOUS
 10
128.4315468506
 20
129.4375724009
 11
128.498456164
 21
129.3036619514
  0
LINE
  5
2F0
100
AcDbEntity
  8
ASSI
100
AcDbLine
 62
253
  6
CONTINUOUS
 10
128.4315468506
 20
129.4375724009
 11
128.498456164
 21
129.3036619514
  0
LINE
  5
2F1
100
AcDbEntity
  8
0
100
AcDbLine
 62
253
  6
CONTINUOUS
 10
128.9982848245
 20
85.7541958345
 11
128.9321732722
 21
85.621882002
  0
LINE
  5
2F2
100
AcDbEntity
  8
ASSI
100
AcDbLine
 62
253
  6
CONTINUOUS
 10
128.9982848245
 20
85.7541958345
 11
128.9321732722
 21
85.621882002
  0
LINE
  5
2F3
100
AcDbEntity
  8
0
100
AcDbLine
 62
253
  6
CONTINUOUS
 10
128.4119384592
 20
108.4784910964
 11
128.5276280604
 21
108.5170464649
  0
LINE
  5
2F4
100
AcDbEntity
  8
ASSI
100
AcDbLine
 62
253
  6
CONTINUOUS
 10
128.4119384592
 20
108.4784910964
 11
128.5276280604
 21
108.5170464649
  0
LWPOLYLINE
  5
2F5
100
AcDbEntity
  8
0
100
AcDbPolyline
 62
253
  6
CONTINUOUS
 90
55
 70
0
 10
150.6905456611
 20
99.8057542785
 10
150.7927062346
 20
99.8042860075
 10
150.8948832121
 20
99.7998591073
 10
150.9970149667
 20
99.7924585264
 10
151.0990398713
 20
99.7820692129
 10
151.2008962991
 20
99.7686761151
 10
151.302522623
 20
99.7522641812
 10
151.4038398287
 20
99.7328286236
 10
151.5046993519
 20
99.7104057114
 10
151.6049352408
 20
99.6850419776
 10
151.7043815439
 20
99.6567839553
 10
151.8028723094
 20
99.6256781776
 10
151.9002415856
 20
99.5917711776
 10
151.996346596
 20
99.5551070086
 10
152.0911372649
 20
99.5157198035
 10
152.1845866918
 20
99.4736412154
 10
152.2766679761
 20
99.4289028975
 10
152.3673542172
 20
99.3815365028
 10
152.4566185148
 20
99.3315736845
 10
152.5444299871
 20
99.279042446
 10
152.6307418285
 20
99.2239561924
 10
152.7155032521
 20
99.166324679
 10
152.7986634711
 20
99.1061576613
 10
152.8801716988
 20
99.0434648946
 10
152.9599771483
 20
98.9782561345
 10
153.0380163757
 20
98.9105610063
 10
153.1141753084
 20
98.8404886161
 10
153.188327217
 20
98.7681679401
 10
153.2603453716
 20
98.6937279542
 10
153.3301030428
 20
98.6172976346
 10
153.3974735009
 20
98.5390059574
 10
153.4623491732
 20
98.4589686659
 10
153.5246991157
 20
98.3772485718
 10
153.584511541
 20
98.2938952541
 10
153.641774662
 20
98.2089582918
 10
153.6964766915
 20
98.1224872636
 10
153.7486058423
 20
98.0345317486
 10
153.7981464885
 20
97.9451453444
 10
153.8450676488
 20
97.8543977232
 10
153.8893345036
 20
97.7623625758
 10
153.930912233
 20
97.6691135933
 10
153.969766017
 20
97.5747244664
 10
154.0058610359
 20
97.4792688862
 10
154.0391649368
 20
97.38282223
 10
154.0696552343
 20
97.2854666221
 10
154.0973119103
 20
97.1872858732
 10
154.1221149464
 20
97.0883637941
 10
154.1440443244
 20
96.9887841955
 10
154.163080026
 20
96.8886308882
 10
154.1792043877
 20
96.7879878205
 10
154.1924091657
 20
96.6869394911
 10
154.202688471
 20
96.585570536
 10
154.2100364147
 20
96.4839655914
 10
154.2144471077
 20
96.3822092936
 10
154.2159146611
 20
96.2803862786
  0
LINE
  5
2F6
100
AcDbEntity
  8
0
100
AcDbLine
 62
253
  6
CONTINUOUS
 10
128.5276280586
 20
107.0401260929
 11
128.4119384592
 21
107.0786814608
  0
LINE
  5
2F7
100
AcDbEntity
  8
ASSI
100
AcDbLine
 62
253
  6
CONTINUOUS
 10
128.5276280586
 20
107.0401260929
 11
128.4119384592
 21
107.0786814608
  0
LINE
  5
2F8
100
AcDbEntity
  8
0
100
AcDbLine
 62
253
  6
CONTINUOUS
 10
128.9321732722
 20
129.9352905552
 11
128.9982848264
 21
129.8029767188
  0
LINE
  5
2F9
100
AcDbEntity
  8
ASSI
100
AcDbLine
 62
253
  6
CONTINUOUS
 10
128.9321732722
 20
129.9352905552
 11
128.9982848264
 21
129.8029767188
  0
LINE
  5
2FA
100
AcDbEntity
  8
0
100
AcDbLine
 62
253
  6
CONTINUOUS
 10
128.9119955992
 20
107.9785862786
 11
129.0274567229
 21
108.0170655033
  0
LINE
  5
2FB
100
AcDbEntity
  8
ASSI
100
AcDbLine
 62
253
  6
CONTINUOUS
 10
128.9119955992
 20
107.9785862786
 11
129.0274567229
 21
108.0170655033
  0
LWPOLYLINE
  5
2FC
100
AcDbEntity
  8
SUPERFICI
100
AcDbPolyline
 62
7
  6
CONTINUOUS
 90
46
 70
0
 10
152.9112653877
 20
102.2969339433
 10
152.9799407494
 20
102.2993608566
 10
153.0477399361
 20
102.3064672597
 10
153.1146629476
 20
102.3182531575
 10
153.1810562019
 20
102.3348151614
 10
153.2465732811
 20
102.3560566768
 10
153.3101749322
 20
102.3816879022
 10
153.3718413104
 20
102.4118098356
 10
153.4315922605
 20
102.4463215068
 10
153.4884480634
 20
102.4846301625
 10
153.5422821809
 20
102.5267241542
 10
153.5932211511
 20
102.572615162
 10
153.6406648697
 20
102.6217454228
 10
153.6846422116
 20
102.6742556614
 10
153.7251243019
 20
102.7300051846
 10
153.7614244101
 20
102.7880140961
 10
153.7934111802
 20
102.8481693014
 10
153.8212159684
 20
102.9105839165
 10
153.8445461132
 20
102.9746173509
 10
153.8633952957
 20
103.0404719026
 10
153.8777698348
 20
103.1079452885
 10
153.8873960264
 20
103.1757900353
 10
153.8921838284
 20
103.2438333326
 10
153.8922232829
 20
103.3122479884
 10
153.8875108119
 20
103.3803049446
 10
153.8779589239
 20
103.4481724957
 10
153.8636551104
 20
103.5156823374
 10
153.8448582679
 20
103.5816005025
 10
153.8215450095
 20
103.6457519111
 10
153.793738722
 20
103.7083116204
 10
153.7617684633
 20
103.7685708593
 10
153.7255318994
 20
103.8265958103
 10
153.6851313642
 20
103.8823202662
 10
153.6412029176
 20
103.9348368655
 10
153.5937398575
 20
103.9840471301
 10
153.5427488861
 20
104.0300495116
 10
153.4888861694
 20
104.0722320396
 10
153.4320662451
 20
104.1105764337
 10
153.3723745755
 20
104.1451009519
 10
153.3107237138
 20
104.1752484305
 10
153.2470647487
 20
104.2009380203
 10
153.1814465914
 20
104.2222505544
 10
153.1149285292
 20
104.2388713937
 10
153.0478636577
 20
104.250695656
 10
152.9798988813
 20
104.2578282161
 10
152.9110341998
 20
104.2602690724
  0
LINE
  5
2FD
100
AcDbEntity
  8
SUPERFICI
100
AcDbLine
 62
7
  6
CONTINUOUS
 10
148.4109800523
 20
102.2969339433
 11
152.9112653877
 21
102.2969339433
  0
LINE
  5
2FE
100
AcDbEntity
  8
0
100
AcDbLine
 62
7
  6
CONTINUOUS
 10
152.9111348335
 20
102.296920262
 11
148.4111104703
 21
102.2969339424
  0
LINE
  5
2FF
100
AcDbEntity
  8
ASSI
100
AcDbLine
 62
7
  6
CONTINUOUS
 10
152.9111348335
 20
102.296920262
 11
148.4111104703
 21
102.2969339424
  0
LWPOLYLINE
  5
300
100
AcDbEntity
  8
0
100
AcDbPolyline
 62
253
  6
CONTINUOUS
 90
51
 70
0
 10
150.6905456612
 20
100.4062334625
 10
150.8195547046
 20
100.4042261871
 10
150.9486287429
 20
100.3981767573
 10
151.0776710171
 20
100.3880643073
 10
151.2065847681
 20
100.3738679713
 10
151.3352732367
 20
100.3555668833
 10
151.4636177572
 20
100.3331508963
 10
151.5914120372
 20
100.3066527382
 10
151.7184278775
 20
100.2761158556
 10
151.8444370789
 20
100.2415836954
 10
151.9692114423
 20
100.2030997043
 10
152.0925384812
 20
100.1607159605
 10
152.2142685593
 20
100.1145190696
 10
152.334267753
 20
100.0646042685
 10
152.4524021387
 20
100.0110667942
 10
152.5685377927
 20
99.9540018839
 10
152.6825684204
 20
99.8934833897
 10
152.7944982434
 20
99.8294996235
 10
152.9043591123
 20
99.7620175127
 10
153.0121828777
 20
99.6910039845
 10
153.1180013903
 20
99.6164259659
 10
153.2218069329
 20
99.5382772237
 10
153.323433518
 20
99.4566588833
 10
153.4226755901
 20
99.3716989092
 10
153.5193275941
 20
99.2835252663
 10
153.6131839745
 20
99.1922659194
 10
153.704053957
 20
99.098060222
 10
153.7918058907
 20
99.0010930823
 10
153.8763229057
 20
98.9015607976
 10
153.9574881318
 20
98.7996596647
 10
154.0351846992
 20
98.6955859809
 10
154.1093185562
 20
98.5895010342
 10
154.1798869244
 20
98.4814260772
 10
154.246909844
 20
98.3713473538
 10
154.3104073548
 20
98.2592511074
 10
154.370399497
 20
98.145123582
 10
154.4268882016
 20
98.028984968
 10
154.4798029642
 20
97.9109912438
 10
154.5290551714
 20
97.7913323348
 10
154.5745562097
 20
97.6701981662
 10
154.6162174658
 20
97.5477786634
 10
154.6539635408
 20
97.4242487739
 10
154.6877718938
 20
97.2997235349
 10
154.7176331983
 20
97.174303006
 10
154.7435381279
 20
97.0480872467
 10
154.7654773562
 20
96.9211763165
 10
154.7834415496
 20
96.7936757956
 10
154.797421346
 20
96.6657133474
 10
154.8074073762
 20
96.5374221558
 10
154.813390271
 20
96.4089354049
 10
154.8153606611
 20
96.2803862786
  0
LWPOLYLINE
  5
301
100
AcDbEntity
  8
0
100
AcDbPolyline
 62
7
  6
CONTINUOUS
 90
40
 70
0
 10
148.4111104703
 20
102.2969339424
 10
148.3318201718
 20
102.300233918
 10
148.2540166573
 20
102.3096143149
 10
148.1776999268
 20
102.3250751414
 10
148.102438423
 20
102.3467638784
 10
148.0286637032
 20
102.3745330728
 10
147.9576704396
 20
102.4079403357
 10
147.8894168814
 20
102.4471403976
 10
147.8239447793
 20
102.4919785734
 10
147.7626740571
 20
102.5415483496
 10
147.7057814797
 20
102.5958601599
 10
147.6530902822
 20
102.6549036197
 10
147.6054900943
 20
102.7177409813
 10
147.5629714023
 20
102.7845809262
 10
147.5255437199
 20
102.8552148174
 10
147.4941252172
 20
102.9280789134
 10
147.4689092669
 20
103.0030800577
 10
147.4497024963
 20
103.0803114294
 10
147.4368429586
 20
103.158488771
 10
147.4304398869
 20
103.2378033157
 10
147.430384048
 20
103.3180638345
 10
147.4366857959
 20
103.3974123544
 10
147.4494556016
 20
103.4756638245
 10
147.4685829941
 20
103.5530032731
 10
147.4937469144
 20
103.628127826
 10
147.5251510593
 20
103.701132292
 10
147.562591732
 20
103.7719218283
 10
147.6051367829
 20
103.8389090693
 10
147.6527715726
 20
103.9018813019
 10
147.7055107404
 20
103.9610511963
 10
147.7624660555
 20
104.015469452
 10
147.8238271376
 20
104.0651214625
 10
147.889404367
 20
104.1100217967
 10
147.9577406523
 20
104.1492649152
 10
148.0287819449
 20
104.1826915477
 10
148.1025822934
 20
104.2104609364
 10
148.1778467535
 20
104.2321453122
 10
148.2541436767
 20
104.247602081
 10
148.3319047114
 20
104.2569738237
 10
148.4111298575
 20
104.2602605375
  0
LWPOLYLINE
  5
302
100
AcDbEntity
  8
ASSI
100
AcDbPolyline
 62
7
  6
CONTINUOUS
 90
40
 70
0
 10
148.4111104703
 20
102.2969339424
 10
148.3318201718
 20
102.300233918
 10
148.2540166573
 20
102.3096143149
 10
148.1776999268
 20
102.3250751414
 10
148.102438423
 20
102.3467638784
 10
148.0286637032
 20
102.3745330728
 10
147.9576704396
 20
102.4079403357
 10
147.8894168814
 20
102.4471403976
 10
147.8239447793
 20
102.4919785734
 10
147.7626740571
 20
102.5415483496
 10
147.7057814797
 20
102.5958601599
 10
147.6530902822
 20
102.6549036197
 10
147.6054900943
 20
102.7177409813
 10
147.5629714023
 20
102.7845809262
 10
147.5255437199
 20
102.8552148174
 10
147.4941252172
 20
102.9280789134
 10
147.4689092669
 20
103.0030800577
 10
147.4497024963
 20
103.0803114294
 10
147.4368429586
 20
103.158488771
 10
147.4304398869
 20
103.2378033157
 10
147.430384048
 20
103.3180638345
 10
147.4366857959
 20
103.3974123544
 10
147.4494556016
 20
103.4756638245
 10
147.4685829941
 20
103.5530032731
 10
147.4937469144
 20
103.628127826
 10
147.5251510593
 20
103.701132292
 10
147.562591732
 20
103.7719218283
 10
147.6051367829
 20
103.8389090693
 10
147.6527715726
 20
103.9018813019
 10
147.7055107404
 20
103.9610511963
 10
147.7624660555
 20
104.015469452
 10
147.8238271376
 20
104.0651214625
 10
147.889404367
 20
104.1100217967
 10
147.9577406523
 20
104.1492649152
 10
148.0287819449
 20
104.1826915477
 10
148.1025822934
 20
104.2104609364
 10
148.1778467535
 20
104.2321453122
 10
148.2541436767
 20
104.247602081
 10
148.3319047114
 20
104.2569738237
 10
148.4111298575
 20
104.2602605375
  0
LWPOLYLINE
  5
303
100
AcDbEntity
  8
SUPERFICI
100
AcDbPolyline
 62
7
  6
CONTINUOUS
 90
3
 70
0
 10
148.2743172907
 20
102.3064926324
 10
148.342210296
 20
102.299366364
 10
148.4109800523
 20
102.2969339433
  0
LINE
  5
304
100
AcDbEntity
  8
0
100
AcDbLine
 62
253
  6
CONTINUOUS
 10
129.0274567221
 20
107.5401070541
 11
128.9119955992
 21
107.5785862786
  0
LINE
  5
305
100
AcDbEntity
  8
ASSI
100
AcDbLine
 62
253
  6
CONTINUOUS
 10
129.0274567221
 20
107.5401070541
 11
128.9119955992
 21
107.5785862786
  0
LWPOLYLINE
  5
306
100
AcDbEntity
  8
0
100
AcDbPolyline
 62
253
  6
CONTINUOUS
 90
55
 70
0
 10
147.1651796611
 20
96.2803862787
 10
147.166649379
 20
96.3822727212
 10
147.1710657755
 20
96.4840846121
 10
147.1784217644
 20
96.5857361857
 10
147.18871026
 20
96.6871416766
 10
147.2019241762
 20
96.7882153194
 10
147.218056427
 20
96.8888713486
 10
147.2370978615
 20
96.989024909
 10
147.2590310691
 20
97.0885947868
 10
147.283836574
 20
97.1875006785
 10
147.3114949007
 20
97.2856622806
 10
147.3419865734
 20
97.3829992896
 10
147.3752921166
 20
97.479431402
 10
147.4113897384
 20
97.5748794555
 10
147.4502483825
 20
97.6692688524
 10
147.4918346761
 20
97.7625261361
 10
147.5361152468
 20
97.8545778503
 10
147.583056722
 20
97.9453505382
 10
147.6326257291
 20
98.0347707435
 10
147.6847921034
 20
98.1227684076
 10
147.7395385111
 20
98.2092870639
 10
147.7968508265
 20
98.2942736436
 10
147.8567149238
 20
98.3776750782
 10
147.9191166772
 20
98.4594382989
 10
147.9840419608
 20
98.5395102372
 10
148.0514577877
 20
98.6178253791
 10
148.1212557255
 20
98.6942684301
 10
148.1933084811
 20
98.7687116502
 10
148.2674887611
 20
98.8410272997
 10
148.343669272
 20
98.9110876387
 10
148.4217227206
 20
98.9787649273
 10
148.5015350511
 20
99.0439513636
 10
148.5830451583
 20
99.1066188977
 10
148.6662051744
 20
99.1667594172
 10
148.7509672318
 20
99.2243648101
 10
148.837283463
 20
99.2794269643
 10
148.9251060001
 20
99.3319377676
 10
149.0143899949
 20
99.3818848944
 10
149.1051026756
 20
99.4292391656
 10
149.1972142897
 20
99.4739671884
 10
149.2906950849
 20
99.5160355702
 10
149.3855153085
 20
99.5554109183
 10
149.4816452083
 20
99.5920598401
 10
149.5790319742
 20
99.6259469053
 10
149.6775305662
 20
99.6570285331
 10
149.7769728869
 20
99.685259105
 10
149.8771908386
 20
99.7105930027
 10
149.9780163241
 20
99.7329846077
 10
150.0792812457
 20
99.7523883015
 10
150.1808353818
 20
99.7687688528
 10
150.2826000143
 20
99.7821325778
 10
150.3845143008
 20
99.7924961796
 10
150.486517399
 20
99.7998763616
 10
150.5885484665
 20
99.8042898268
 10
150.6905466611
 20
99.8057532786
  0
LWPOLYLINE
  5
307
100
AcDbEntity
  8
0
100
AcDbPolyline
 62
253
  6
CONTINUOUS
 90
55
 70
0
 10
147.1063306871
 20
119.2767882789
 10
147.1078023464
 20
119.377996445
 10
147.1121845124
 20
119.4792078998
 10
147.1194801516
 20
119.5803451941
 10
147.1296922306
 20
119.6813308788
 10
147.1428237159
 20
119.7820875047
 10
147.1588748066
 20
119.8825329964
 10
147.1778346325
 20
119.9825667732
 10
147.1996895558
 20
120.0820836283
 10
147.2244259389
 20
120.1809783545
 10
147.252030144
 20
120.2791457451
 10
147.2824791281
 20
120.3764753794
 10
147.3157122264
 20
120.4728359827
 10
147.3516593685
 20
120.5680910666
 10
147.3902504843
 20
120.6621041426
 10
147.4314155034
 20
120.7547387224
 10
147.4750974466
 20
120.845886997
 10
147.5212916981
 20
120.935555875
 10
147.5700067327
 20
121.0237809445
 10
147.6212510257
 20
121.1105977933
 10
147.6750330521
 20
121.1960420095
 10
147.7313715877
 20
121.2801434206
 10
147.7903266117
 20
121.3629088123
 10
147.8519684043
 20
121.4443392096
 10
147.9163672454
 20
121.5244356377
 10
147.983593415
 20
121.6031991217
 10
148.0537110402
 20
121.6806146277
 10
148.1267596355
 20
121.7566028855
 10
148.2027725623
 20
121.8310685658
 10
148.281783182
 20
121.9039163393
 10
148.3638248562
 20
121.9750508766
 10
148.4345423115
 20
122.0329529214
 10
148.5074667563
 20
122.0895484172
 10
148.5826771136
 20
122.1447867633
 10
148.6602523064
 20
122.1986173588
 10
148.7402712575
 20
122.2509896029
 10
148.8228128901
 20
122.3018528949
 10
148.9079363087
 20
122.351136667
 10
148.9956213446
 20
122.3986904836
 10
149.0858280107
 20
122.4443439423
 10
149.1785163199
 20
122.4879266406
 10
149.2736462851
 20
122.5292681759
 10
149.3711779193
 20
122.5681981457
 10
149.4710158337
 20
122.6045516438
 10
149.5728430336
 20
122.6381857484
 10
149.6762871226
 20
122.668963034
 10
149.780975704
 20
122.6967460751
 10
149.8865363817
 20
122.7213974463
 10
149.992596759
 20
122.742779722
 10
150.0988450931
 20
122.7607850866
 10
150.2052122547
 20
122.775424164
 10
150.3116897681
 20
122.7867371881
 10
150.4182691574
 20
122.7947643927
 10
150.524941947
 20
122.7995460116
 10
150.6316996611
 20
122.8011222786
  0
LWPOLYLINE
  5
308
100
AcDbEntity
  8
0
100
AcDbPolyline
 62
253
  6
CONTINUOUS
 90
51
 70
0
 10
146.5657306793
 20
96.2803862784
 10
146.5677236238
 20
96.4090050288
 10
146.573732076
 20
96.5375488142
 10
146.5837453749
 20
96.6658838171
 10
146.5977528593
 20
96.7938762202
 10
146.6157438681
 20
96.9213922059
 10
146.6377078362
 20
97.0483039582
 10
146.6636345812
 20
97.1745076664
 10
146.6935140168
 20
97.2999055216
 10
146.7273360565
 20
97.4243997146
 10
146.765090614
 20
97.5478924364
 10
146.8067551244
 20
97.6702714444
 10
146.852257109
 20
97.7913667627
 10
146.9015116107
 20
97.9109939819
 10
146.9544336725
 20
98.0289686926
 10
147.0109383371
 20
98.1451064856
 10
147.0709578532
 20
98.2592549822
 10
147.1344932929
 20
98.3713899269
 10
147.2015629338
 20
98.4815190949
 10
147.2721850537
 20
98.5896502617
 10
147.3463779303
 20
98.6957912023
 10
147.4241366679
 20
98.7999153364
 10
147.5053636772
 20
98.9018586609
 10
147.5899381956
 20
99.0014228172
 10
147.6777394603
 20
99.0984094463
 10
147.7686467087
 20
99.1926201897
 10
147.8625255404
 20
99.2838691326
 10
147.9591870054
 20
99.3720201368
 10
148.0584285159
 20
99.4569495083
 10
148.1600474841
 20
99.538533553
 10
148.2638413224
 20
99.6166485768
 10
148.3696471961
 20
99.6911970833
 10
148.4774612833
 20
99.7621863676
 10
148.5873195152
 20
99.8296499223
 10
148.6992578228
 20
99.8936212402
 10
148.8133121375
 20
99.954133814
 10
148.9294885026
 20
100.0111991081
 10
149.0476734114
 20
100.0647404725
 10
149.1677234693
 20
100.1146592292
 10
149.2894952817
 20
100.1608566998
 10
149.4128454542
 20
100.2032342062
 10
149.5376168502
 20
100.2417028046
 10
149.6635973645
 20
100.2762124902
 10
149.7905611501
 20
100.3067229923
 10
149.9182823598
 20
100.3331940407
 10
150.0465351466
 20
100.3555853648
 10
150.1751150918
 20
100.3738670832
 10
150.3039034913
 20
100.3880508703
 10
150.4328030698
 20
100.3981587897
 10
150.5617165515
 20
100.4042129046
 10
150.6905466611
 20
100.4062352786
  0
LWPOLYLINE
  5
309
100
AcDbEntity
  8
0
100
AcDbPolyline
 62
253
  6
CONTINUOUS
 90
51
 70
0
 10
146.5068836612
 20
119.2767862785
 10
146.5091277684
 20
119.4133197222
 10
146.5159039172
 20
119.5499315333
 10
146.5272341773
 20
119.6864992695
 10
146.543140618
 20
119.8229004889
 10
146.5636362924
 20
119.9589923736
 10
146.5886981879
 20
120.0945506036
 10
146.6182942754
 20
120.2293304832
 10
146.652392526
 20
120.3630873168
 10
146.690949349
 20
120.4955806305
 10
146.7338749067
 20
120.6265868376
 10
146.7810678001
 20
120.7558865733
 10
146.8324266298
 20
120.883260473
 10
146.8878515361
 20
121.008511365
 10
146.9472488159
 20
121.1315308509
 10
147.0105263055
 20
121.2522327254
 10
147.0775918413
 20
121.3705307834
 10
147.1483853099
 20
121.4863697972
 10
147.2229747994
 20
121.5998184495
 10
147.3014604482
 20
121.7109764006
 10
147.3839423945
 20
121.8199433108
 10
147.4528700917
 20
121.9055885673
 10
147.5244558556
 20
121.9898402019
 10
147.5987360342
 20
122.0726430765
 10
147.6757469752
 20
122.1539420529
 10
147.7555250263
 20
122.2336819927
 10
147.8381021961
 20
122.3118021478
 10
147.9234931352
 20
122.3882193296
 10
148.011708155
 20
122.4628447394
 10
148.1027575669
 20
122.5355895787
 10
148.1966516822
 20
122.6063650487
 10
148.2934249636
 20
122.675084984
 10
148.3932084783
 20
122.7416737514
 10
148.4961574449
 20
122.8060583506
 10
148.6024270818
 20
122.8681657816
 10
148.7121726076
 20
122.9279230441
 10
148.8254857139
 20
122.9852212778
 10
148.9422039842
 20
123.0398081814
 10
149.0621014753
 20
123.0913955932
 10
149.1849522439
 20
123.1396953515
 10
149.3105303465
 20
123.1844192949
 10
149.4385652186
 20
123.2253053025
 10
149.5686078096
 20
123.262195417
 10
149.7001644481
 20
123.2949577217
 10
149.8327414621
 20
123.3234603
 10
149.96584518
 20
123.3475712355
 10
150.0990596409
 20
123.3671903643
 10
150.2322797266
 20
123.3823445332
 10
150.3654780301
 20
123.3930923422
 10
150.498627144
 20
123.3994923907
 10
150.6316996611
 20
123.4016032786
  0
LWPOLYLINE
  5
30A
100
AcDbEntity
  8
SUPERFICI
100
AcDbPolyline
 62
7
  6
CONTINUOUS
 90
43
 70
0
 10
148.3424406827
 20
104.2578337005
 10
148.2745694749
 20
104.2507209695
 10
148.2075976495
 20
104.2389308808
 10
148.1411865404
 20
104.2223677019
 10
148.0756748136
 20
104.2011271728
 10
148.012078468
 20
104.1754965065
 10
147.9504094804
 20
104.1453738187
 10
147.890655874
 20
104.1108610099
 10
147.8337977167
 20
104.0725509716
 10
147.7799616168
 20
104.0304553401
 10
147.729020966
 20
103.9845625014
 10
147.6815760072
 20
103.9354304715
 10
147.6375979357
 20
103.882918514
 10
147.5971155563
 20
103.827167392
 10
147.5608155263
 20
103.769157367
 10
147.5288292947
 20
103.7090016967
 10
147.5010254125
 20
103.6465871477
 10
147.4776961911
 20
103.5825542387
 10
147.458847907
 20
103.5167008837
 10
147.4444742836
 20
103.4492291917
 10
147.4348488028
 20
103.3813859652
 10
147.4300613666
 20
103.3133438529
 10
147.430022073
 20
103.244930216
 10
147.4347346979
 20
103.1768739149
 10
147.4442867873
 20
103.109006449
 10
147.4585907951
 20
103.0414963215
 10
147.47738786
 20
102.9755778873
 10
147.5007014347
 20
102.9114262416
 10
147.5285080665
 20
102.8488662746
 10
147.5604785355
 20
102.7886070218
 10
147.5967151946
 20
102.730582357
 10
147.6371156909
 20
102.6748583841
 10
147.6810437456
 20
102.6223424742
 10
147.7285059865
 20
102.573133142
 10
147.7794957856
 20
102.5271318417
 10
147.8333569807
 20
102.4849503463
 10
147.8901749289
 20
102.4466069101
 10
147.9498642729
 20
102.4120832468
 10
148.0115127791
 20
102.3819363161
 10
148.0751771731
 20
102.3562460355
 10
148.1408007293
 20
102.3349324597
 10
148.2073010364
 20
102.3183127535
 10
148.2743172907
 20
102.3064926324
  0
LINE
  5
30B
100
AcDbEntity
  8
SUPERFICI
100
AcDbLine
 62
7
  6
CONTINUOUS
 10
148.4112112729
 20
104.2602690724
 11
148.3424406827
 21
104.2578337005
  0
LINE
  5
30C
100
AcDbEntity
  8
SUPERFICI
100
AcDbLine
 62
7
  6
CONTINUOUS
 10
152.9110341998
 20
104.2602690724
 11
148.4112112729
 21
104.2602690724
  0
LINE
  5
30D
100
AcDbEntity
  8
0
100
AcDbLine
 62
7
  6
CONTINUOUS
 10
148.4111298575
 20
104.2602605375
 11
152.9111154537
 21
104.2602690728
  0
LINE
  5
30E
100
AcDbEntity
  8
ASSI
100
AcDbLine
 62
7
  6
CONTINUOUS
 10
148.4111298575
 20
104.2602605375
 11
152.9111154537
 21
104.2602690728
  0
LWPOLYLINE
  5
30F
100
AcDbEntity
  8
0
100
AcDbPolyline
 62
7
  6
CONTINUOUS
 90
40
 70
0
 10
152.9111154537
 20
104.2602690728
 10
152.9904077834
 20
104.2569605187
 10
153.0682130605
 20
104.2475738635
 10
153.144531285
 20
104.2321091101
 10
153.219793987
 20
104.2104195854
 10
153.2935696364
 20
104.1826519756
 10
153.3645636423
 20
104.1492463259
 10
153.4328177635
 20
104.1100471135
 10
153.4982902413
 20
104.0652098891
 10
153.5595612089
 20
104.0156413089
 10
153.6164538143
 20
103.9613310823
 10
153.6691449095
 20
103.9022895373
 10
153.7167451844
 20
103.8394542562
 10
153.7592642023
 20
103.7726167095
 10
153.7966923997
 20
103.7019854694
 10
153.8281117759
 20
103.6291237608
 10
153.8533290693
 20
103.5541247274
 10
153.8725375414
 20
103.4768952596
 10
153.885398976
 20
103.3987191888
 10
153.8918042288
 20
103.3194051399
 10
153.8918624441
 20
103.2391445111
 10
153.8855628393
 20
103.1597952736
 10
153.8727948526
 20
103.0815423006
 10
153.8536690457
 20
103.0042007152
 10
153.8285063211
 20
102.9290738407
 10
153.797102873
 20
102.8560668043
 10
153.7596625072
 20
102.7852744566
 10
153.7171175428
 20
102.7182846852
 10
153.6694825606
 20
102.6553102634
 10
153.6167429798
 20
102.5961383732
 10
153.5597873768
 20
102.5417184994
 10
153.498426194
 20
102.4920653044
 10
153.432848989
 20
102.4471640765
 10
153.3645130117
 20
102.4079202318
 10
153.293472256
 20
102.3744930284
 10
153.219672728
 20
102.346723163
 10
153.144409695
 20
102.3250382084
 10
153.0681149128
 20
102.3095806793
 10
152.9903566256
 20
102.3002080333
 10
152.9111348335
 20
102.296920262
  0
LWPOLYLINE
  5
310
100
AcDbEntity
  8
ASSI
100
AcDbPolyline
 62
7
  6
CONTINUOUS
 90
40
 70
0
 10
152.9111154537
 20
104.2602690728
 10
152.9904077834
 20
104.2569605187
 10
153.0682130605
 20
104.2475738635
 10
153.144531285
 20
104.2321091101
 10
153.219793987
 20
104.2104195854
 10
153.2935696364
 20
104.1826519756
 10
153.3645636423
 20
104.1492463259
 10
153.4328177635
 20
104.1100471135
 10
153.4982902413
 20
104.0652098891
 10
153.5595612089
 20
104.0156413089
 10
153.6164538143
 20
103.9613310823
 10
153.6691449095
 20
103.9022895373
 10
153.7167451844
 20
103.8394542562
 10
153.7592642023
 20
103.7726167095
 10
153.7966923997
 20
103.7019854694
 10
153.8281117759
 20
103.6291237608
 10
153.8533290693
 20
103.5541247274
 10
153.8725375414
 20
103.4768952596
 10
153.885398976
 20
103.3987191888
 10
153.8918042288
 20
103.3194051399
 10
153.8918624441
 20
103.2391445111
 10
153.8855628393
 20
103.1597952736
 10
153.8727948526
 20
103.0815423006
 10
153.8536690457
 20
103.0042007152
 10
153.8285063211
 20
102.9290738407
 10
153.797102873
 20
102.8560668043
 10
153.7596625072
 20
102.7852744566
 10
153.7171175428
 20
102.7182846852
 10
153.6694825606
 20
102.6553102634
 10
153.6167429798
 20
102.5961383732
 10
153.5597873768
 20
102.5417184994
 10
153.498426194
 20
102.4920653044
 10
153.432848989
 20
102.4471640765
 10
153.3645130117
 20
102.4079202318
 10
153.293472256
 20
102.3744930284
 10
153.219672728
 20
102.346723163
 10
153.144409695
 20
102.3250382084
 10
153.0681149128
 20
102.3095806793
 10
152.9903566256
 20
102.3002080333
 10
152.9111348335
 20
102.296920262
  0
LWPOLYLINE
  5
311
100
AcDbEntity
  8
0
100
AcDbPolyline
 62
253
  6
CONTINUOUS
 90
85
 70
0
 10
150.3309423082
 20
117.456742065
 10
150.3311592247
 20
117.4452650551
 10
150.3318023835
 20
117.4338843028
 10
150.3328603987
 20
117.4225953827
 10
150.3343218843
 20
117.4113938694
 10
150.3361754541
 20
117.4002753372
 10
150.3384097224
 20
117.3892353609
 10
150.3410151259
 20
117.3782724393
 10
150.3439893932
 20
117.3673967697
 10
150.3473320758
 20
117.3566214735
 10
150.3510427252
 20
117.3459596722
 10
150.3551208929
 20
117.3354244874
 10
150.3595661303
 20
117.3250290407
 10
150.3643777778
 20
117.3147878094
 10
150.3695543315
 20
117.3047206945
 10
150.3750940765
 20
117.2948489527
 10
150.3809976681
 20
117.2851915729
 10
150.387275243
 20
117.2757584718
 10
150.3939393084
 20
117.2665572984
 10
150.4009989085
 20
117.2576016769
 10
150.4084492367
 20
117.2489291329
 10
150.4162820236
 20
117.2405831674
 10
150.4244892175
 20
117.2326013596
 10
150.4330636381
 20
117.2249976022
 10
150.4419983227
 20
117.2177798662
 10
150.4512820654
 20
117.2109561236
 10
150.460886688
 20
117.2045343492
 10
150.4707797686
 20
117.1985225189
 10
150.4809316966
 20
117.1929273635
 10
150.4913241043
 20
117.1877506339
 10
150.501941435
 20
117.1829928363
 10
150.5127636452
 20
117.1786540642
 10
150.5237527453
 20
117.1747327623
 10
150.5348662591
 20
117.1712269627
 10
150.5460617102
 20
117.1681346976
 10
150.5572966225
 20
117.1654539994
 10
150.5685285197
 20
117.1631829001
 10
150.5797236722
 20
117.1613169904
 10
150.5908833369
 20
117.1598420936
 10
150.6020175174
 20
117.1587415918
 10
150.6131265118
 20
117.158000228
 10
150.6241717962
 20
117.1576081911
 10
150.6351051411
 20
117.1575570311
 10
150.6458922196
 20
117.157838567
 10
150.6565543136
 20
117.1584456936
 10
150.6671266075
 20
117.1593715743
 10
150.6776452331
 20
117.1606136449
 10
150.6881501115
 20
117.1621864297
 10
150.6986821113
 20
117.1641087255
 10
150.7092653052
 20
117.1663961356
 10
150.7198565812
 20
117.1690514913
 10
150.7303960316
 20
117.1720744307
 10
150.7408333288
 20
117.1754663941
 10
150.7511564677
 20
117.179236031
 10
150.7613630235
 20
117.1833937932
 10
150.771445286
 20
117.1879483298
 10
150.7813744027
 20
117.1929010802
 10
150.7911162359
 20
117.1982516811
 10
150.8006373571
 20
117.203998592
 10
150.8099071761
 20
117.2101355626
 10
150.8188958125
 20
117.2166551653
 10
150.8275775569
 20
117.2235513915
 10
150.8359433852
 20
117.2308239102
 10
150.8439884442
 20
117.2384738092
 10
150.8517081815
 20
117.2464984078
 10
150.8590992463
 20
117.2548799501
 10
150.866158588
 20
117.2635969117
 10
150.8728830814
 20
117.2726281839
 10
150.8792693026
 20
117.2819543216
 10
150.8853137528
 20
117.2915562959
 10
150.8910128518
 20
117.3014164415
 10
150.8963626936
 20
117.311522549
 10
150.9013592904
 20
117.3218637727
 10
150.90599819
 20
117.332426399
 10
150.9102730812
 20
117.3431852418
 10
150.9141771879
 20
117.3541122471
 10
150.9177037344
 20
117.3651793606
 10
150.9208459446
 20
117.3763585283
 10
150.9235970426
 20
117.3876216959
 10
150.9259498453
 20
117.398947052
 10
150.9278955402
 20
117.4103377552
 10
150.9294249075
 20
117.4218032069
 10
150.9305287277
 20
117.4333528082
 10
150.9311977809
 20
117.4449959605
 10
150.9314228474
 20
117.456742065
  0
LWPOLYLINE
  5
312
100
AcDbEntity
  8
0
100
AcDbPolyline
 62
253
  6
CONTINUOUS
 90
85
 70
0
 10
150.991303014
 20
98.1004304922
 10
150.9910860975
 20
98.1119075021
 10
150.9904429387
 20
98.1232882543
 10
150.9893849235
 20
98.1345771744
 10
150.987923438
 20
98.1457786878
 10
150.9860698681
 20
98.15689722
 10
150.9838355999
 20
98.1679371963
 10
150.9812301964
 20
98.1789001178
 10
150.978255929
 20
98.1897757875
 10
150.9749132464
 20
98.2005510837
 10
150.971202597
 20
98.211212885
 10
150.9671244293
 20
98.2217480697
 10
150.962679192
 20
98.2321435165
 10
150.9578675445
 20
98.2423847477
 10
150.9526909907
 20
98.2524518627
 10
150.9471512458
 20
98.2623236045
 10
150.9412476542
 20
98.2719809843
 10
150.9349700792
 20
98.2814140854
 10
150.9283060138
 20
98.2906152588
 10
150.9212464137
 20
98.2995708803
 10
150.9137960855
 20
98.3082434243
 10
150.9059632987
 20
98.3165893898
 10
150.8977561047
 20
98.3245711976
 10
150.8891816842
 20
98.332174955
 10
150.8802469996
 20
98.3393926909
 10
150.8709632568
 20
98.3462164336
 10
150.8613586343
 20
98.3526382079
 10
150.8514655536
 20
98.3586500383
 10
150.8413136256
 20
98.3642451937
 10
150.8309212179
 20
98.3694219232
 10
150.8203038872
 20
98.3741797209
 10
150.809481677
 20
98.378518493
 10
150.7984925769
 20
98.3824397949
 10
150.7873790632
 20
98.3859455945
 10
150.776183612
 20
98.3890378595
 10
150.7649486997
 20
98.3917185578
 10
150.7537168026
 20
98.393989657
 10
150.7425216501
 20
98.3958555668
 10
150.7313619854
 20
98.3973304635
 10
150.7202278049
 20
98.3984309654
 10
150.7091188105
 20
98.3991723291
 10
150.6980735261
 20
98.3995643661
 10
150.6871401811
 20
98.3996155261
 10
150.6763531026
 20
98.3993339902
 10
150.6656910086
 20
98.3987268636
 10
150.6551187147
 20
98.3978009829
 10
150.6446000892
 20
98.3965589123
 10
150.6340952108
 20
98.3949861274
 10
150.6235632109
 20
98.3930638317
 10
150.6129800171
 20
98.3907764216
 10
150.602388741
 20
98.3881210659
 10
150.5918492907
 20
98.3850981265
 10
150.5814119934
 20
98.3817061631
 10
150.5710888546
 20
98.3779365261
 10
150.5608822988
 20
98.373778764
 10
150.5508000363
 20
98.3692242273
 10
150.5408709195
 20
98.364271477
 10
150.5311290863
 20
98.358920876
 10
150.5216079652
 20
98.3531739652
 10
150.5123381461
 20
98.3470369946
 10
150.5033495097
 20
98.3405173919
 10
150.4946677653
 20
98.3336211656
 10
150.4863019371
 20
98.326348647
 10
150.478256878
 20
98.318698748
 10
150.4705371407
 20
98.3106741494
 10
150.463146076
 20
98.302292607
 10
150.4560867343
 20
98.2935756455
 10
150.4493622408
 20
98.2845443733
 10
150.4429760197
 20
98.2752182355
 10
150.4369315695
 20
98.2656162613
 10
150.4312324704
 20
98.2557561157
 10
150.4258826287
 20
98.2456500082
 10
150.4208860318
 20
98.2353087845
 10
150.4162471322
 20
98.2247461582
 10
150.4119722411
 20
98.2139873153
 10
150.4080681343
 20
98.2030603101
 10
150.4045415879
 20
98.1919931966
 10
150.4013993776
 20
98.1808140289
 10
150.3986482796
 20
98.1695508612
 10
150.3962954769
 20
98.1582255051
 10
150.3943497821
 20
98.1468348019
 10
150.3928204147
 20
98.1353693503
 10
150.3917165946
 20
98.123819749
 10
150.3910475414
 20
98.1121765967
 10
150.3908224748
 20
98.1004304922
  0
LINE
  5
313
100
AcDbEntity
  8
0
100
AcDbLine
 62
253
  6
CONTINUOUS
 10
150.3309406611
 20
121.0957992786
 11
150.3309406611
 21
117.4567422786
  0
LINE
  5
314
100
AcDbEntity
  8
0
100
AcDbLine
 62
253
  6
CONTINUOUS
 10
150.3908216611
 20
98.1004302786
 11
150.3908216611
 21
94.4613732786
  0
LINE
  5
315
100
AcDbEntity
  8
0
100
AcDbLine
 62
253
  6
CONTINUOUS
 10
150.9314236611
 20
117.4567422786
 11
150.9314236611
 21
121.0957992786
  0
LINE
  5
316
100
AcDbEntity
  8
0
100
AcDbLine
 62
253
  6
CONTINUOUS
 10
150.9913046611
 20
94.4613732786
 11
150.9913046611
 21
98.1004302786
  0
LWPOLYLINE
  5
317
100
AcDbEntity
  8
0
100
AcDbPolyline
 62
253
  6
CONTINUOUS
 90
81
 70
0
 10
150.3309426611
 20
121.0957992786
 10
150.3311820764
 20
121.1075028773
 10
150.3318792096
 20
121.1191959284
 10
150.3330327966
 20
121.1308620207
 10
150.3346415733
 20
121.1424847428
 10
150.3367042754
 20
121.1540476836
 10
150.3392196388
 20
121.1655344319
 10
150.3421863993
 20
121.1769285764
 10
150.3456032926
 20
121.1882137058
 10
150.3494681293
 20
121.1993726381
 10
150.353775019
 20
121.2103851074
 10
150.3585171457
 20
121.221230077
 10
150.3636876936
 20
121.2318865102
 10
150.3692778174
 20
121.2423326466
 10
150.3752705526
 20
121.2525438316
 10
150.3816469055
 20
121.2624946867
 10
150.388387882
 20
121.2721598336
 10
150.3954766713
 20
121.2815179918
 10
150.402905194
 20
121.2905642729
 10
150.4106675542
 20
121.2992978861
 10
150.4187578555
 20
121.3077180409
 10
150.427171777
 20
121.3158232311
 10
150.435911298
 20
121.3236090885
 10
150.4449799735
 20
121.3310705293
 10
150.4543813578
 20
121.3382024698
 10
150.4641135571
 20
121.3449967482
 10
150.474152882
 20
121.3514328914
 10
150.4844701946
 20
121.3574873482
 10
150.4950363569
 20
121.3631365675
 10
150.50582365
 20
121.3683595536
 10
150.5168100309
 20
121.373145532
 10
150.5279748758
 20
121.3774862838
 10
150.5392975608
 20
121.3813735899
 10
150.5507574142
 20
121.3848004263
 10
150.5623335737
 20
121.3877645486
 10
150.574005129
 20
121.3902649071
 10
150.58575117
 20
121.3923004523
 10
150.5975507865
 20
121.3938701347
 10
150.6093830684
 20
121.3949729047
 10
150.6212271054
 20
121.3956077128
 10
150.6330619873
 20
121.3957735094
 10
150.6448677631
 20
121.3954702724
 10
150.6566283176
 20
121.3947020894
 10
150.6683284945
 20
121.3934740754
 10
150.6799531378
 20
121.3917913455
 10
150.6914870912
 20
121.3896590147
 10
150.7029151986
 20
121.3870821979
 10
150.7142223039
 20
121.3840660102
 10
150.7253932509
 20
121.3806155666
 10
150.7364132146
 20
121.3767360701
 10
150.7472686948
 20
121.3724330757
 10
150.7579465223
 20
121.3677122263
 10
150.768433528
 20
121.3625791648
 10
150.778716543
 20
121.3570395342
 10
150.7887823981
 20
121.3510989773
 10
150.7986179241
 20
121.3447631372
 10
150.8082099521
 20
121.3380376568
 10
150.8175449122
 20
121.3309295477
 10
150.8266076313
 20
121.3234512971
 10
150.8353825355
 20
121.3156167605
 10
150.8438540511
 20
121.3074397937
 10
150.8520066043
 20
121.2989342526
 10
150.8598246211
 20
121.2901139929
 10
150.8672925278
 20
121.2809928703
 10
150.8743947506
 20
121.2715847407
 10
150.8811170152
 20
121.2619040635
 10
150.8874502459
 20
121.2519677142
 10
150.8933866665
 20
121.2417931716
 10
150.8989185009
 20
121.2313979151
 10
150.9040379729
 20
121.2207994235
 10
150.9087373063
 20
121.2100151761
 10
150.913008725
 20
121.199062652
 10
150.9168444529
 20
121.1879593302
 10
150.9202377106
 20
121.1767226854
 10
150.9231857063
 20
121.1653701747
 10
150.9256866451
 20
121.1539192509
 10
150.927738732
 20
121.1423873666
 10
150.929340172
 20
121.1307919746
 10
150.9304891701
 20
121.1191505274
 10
150.9311839315
 20
121.1074804778
 10
150.9314226611
 20
121.0957992786
  0
LINE
  5
318
100
AcDbEntity
  8
0
100
AcDbLine
 62
7
  6
CONTINUOUS
 10
170.1611226611
 20
107.5524056752
 11
170.4235886517
 21
107.5785862786
  0
LINE
  5
319
100
AcDbEntity
  8
ASSI
100
AcDbLine
 62
7
  6
CONTINUOUS
 10
170.1611226611
 20
107.5524056752
 11
170.4235886517
 21
107.5785862786
  0
LINE
  5
31A
100
AcDbEntity
  8
0
100
AcDbLine
 62
253
  6
CONTINUOUS
 10
172.7946172619
 20
107.0401260923
 11
172.7909813472
 21
107.0400520158
  0
LINE
  5
31B
100
AcDbEntity
  8
ASSI
100
AcDbLine
 62
253
  6
CONTINUOUS
 10
172.7946172619
 20
107.0401260923
 11
172.7909813472
 21
107.0400520158
  0
LINE
  5
31C
100
AcDbEntity
  8
0
100
AcDbLine
 62
253
  6
CONTINUOUS
 10
172.7909813472
 20
107.0400520158
 11
172.7697053679
 21
107.0399066594
  0
LINE
  5
31D
100
AcDbEntity
  8
ASSI
100
AcDbLine
 62
253
  6
CONTINUOUS
 10
172.7909813472
 20
107.0400520158
 11
172.7697053679
 21
107.0399066594
  0
LINE
  5
31E
100
AcDbEntity
  8
0
100
AcDbLine
 62
253
  6
CONTINUOUS
 10
172.7697053679
 20
107.0399066594
 11
161.9111226611
 21
107.0353207688
  0
LINE
  5
31F
100
AcDbEntity
  8
ASSI
100
AcDbLine
 62
253
  6
CONTINUOUS
 10
172.7697053679
 20
107.0399066594
 11
161.9111226611
 21
107.0353207688
  0
LINE
  5
320
100
AcDbEntity
  8
0
100
AcDbLine
 62
253
  6
CONTINUOUS
 10
172.2947885993
 20
107.5401070538
 11
165.0425036442
 21
107.5366232026
  0
LINE
  5
321
100
AcDbEntity
  8
ASSI
100
AcDbLine
 62
253
  6
CONTINUOUS
 10
172.2947885993
 20
107.5401070538
 11
165.0425036442
 21
107.5366232026
  0
LINE
  5
322
100
AcDbEntity
  8
0
100
AcDbLine
 62
253
  6
CONTINUOUS
 10
129.0274567229
 20
108.0170655033
 11
137.3606260622
 21
108.0207696395
  0
LINE
  5
323
100
AcDbEntity
  8
ASSI
100
AcDbLine
 62
253
  6
CONTINUOUS
 10
129.0274567229
 20
108.0170655033
 11
137.3606260622
 21
108.0207696395
  0
LINE
  5
324
100
AcDbEntity
  8
0
100
AcDbLine
 62
253
  6
CONTINUOUS
 10
161.9111226611
 20
107.0353207688
 11
139.4111226611
 21
107.0353207688
  0
LINE
  5
325
100
AcDbEntity
  8
ASSI
100
AcDbLine
 62
253
  6
CONTINUOUS
 10
161.9111226611
 20
107.0353207688
 11
139.4111226611
 21
107.0353207688
  0
LINE
  5
326
100
AcDbEntity
  8
0
100
AcDbLine
 62
7
  6
CONTINUOUS
 10
170.1611226611
 20
107.5524056752
 11
131.1611226611
 21
107.5524056752
  0
LINE
  5
327
100
AcDbEntity
  8
ASSI
100
AcDbLine
 62
7
  6
CONTINUOUS
 10
170.1611226611
 20
107.5524056752
 11
131.1611226611
 21
107.5524056752
  0
LINE
  5
328
100
AcDbEntity
  8
0
100
AcDbLine
 62
7
  6
CONTINUOUS
 10
128.9119955992
 20
107.5785862786
 11
130.8986566705
 21
107.5785862786
  0
LINE
  5
329
100
AcDbEntity
  8
ASSI
100
AcDbLine
 62
7
  6
CONTINUOUS
 10
128.9119955992
 20
107.5785862786
 11
130.8986566705
 21
107.5785862786
  0
LINE
  5
32A
100
AcDbEntity
  8
0
100
AcDbLine
 62
7
  6
CONTINUOUS
 10
170.4235886517
 20
107.5785862786
 11
172.410249723
 21
107.5785862786
  0
LINE
  5
32B
100
AcDbEntity
  8
ASSI
100
AcDbLine
 62
7
  6
CONTINUOUS
 10
170.4235886517
 20
107.5785862786
 11
172.410249723
 21
107.5785862786
  0
LINE
  5
32C
100
AcDbEntity
  8
0
100
AcDbLine
 62
7
  6
CONTINUOUS
 10
172.410249723
 20
107.9785862786
 11
170.4235886517
 21
107.9785862786
  0
LINE
  5
32D
100
AcDbEntity
  8
ASSI
100
AcDbLine
 62
7
  6
CONTINUOUS
 10
172.410249723
 20
107.9785862786
 11
170.4235886517
 21
107.9785862786
  0
LINE
  5
32E
100
AcDbEntity
  8
0
100
AcDbLine
 62
7
  6
CONTINUOUS
 10
130.8986566705
 20
107.9785862786
 11
128.9119955992
 21
107.9785862786
  0
LINE
  5
32F
100
AcDbEntity
  8
ASSI
100
AcDbLine
 62
7
  6
CONTINUOUS
 10
130.8986566705
 20
107.9785862786
 11
128.9119955992
 21
107.9785862786
  0
LINE
  5
330
100
AcDbEntity
  8
0
100
AcDbLine
 62
7
  6
CONTINUOUS
 10
131.1611226611
 20
108.004766882
 11
170.1611226611
 21
108.004766882
  0
LINE
  5
331
100
AcDbEntity
  8
ASSI
100
AcDbLine
 62
7
  6
CONTINUOUS
 10
131.1611226611
 20
108.004766882
 11
170.1611226611
 21
108.004766882
  0
LINE
  5
332
100
AcDbEntity
  8
0
100
AcDbLine
 62
253
  6
CONTINUOUS
 10
165.0425036442
 20
107.5366232026
 11
136.2742795754
 21
107.536624448
  0
LINE
  5
333
100
AcDbEntity
  8
ASSI
100
AcDbLine
 62
253
  6
CONTINUOUS
 10
165.0425036442
 20
107.5366232026
 11
136.2742795754
 21
107.536624448
  0
LINE
  5
334
100
AcDbEntity
  8
0
100
AcDbLine
 62
253
  6
CONTINUOUS
 10
137.3606260622
 20
108.0207696395
 11
167.3203207051
 21
108.0198596246
  0
LINE
  5
335
100
AcDbEntity
  8
ASSI
100
AcDbLine
 62
253
  6
CONTINUOUS
 10
137.3606260622
 20
108.0207696395
 11
167.3203207051
 21
108.0198596246
  0
LINE
  5
336
100
AcDbEntity
  8
0
100
AcDbLine
 62
253
  6
CONTINUOUS
 10
139.4111226611
 20
107.0353207688
 11
128.843407428
 21
107.0394247207
  0
LINE
  5
337
100
AcDbEntity
  8
ASSI
100
AcDbLine
 62
253
  6
CONTINUOUS
 10
139.4111226611
 20
107.0353207688
 11
128.843407428
 21
107.0394247207
  0
LINE
  5
338
100
AcDbEntity
  8
0
100
AcDbLine
 62
253
  6
CONTINUOUS
 10
136.2742795754
 20
107.536624448
 11
129.0274567221
 21
107.5401070541
  0
LINE
  5
339
100
AcDbEntity
  8
ASSI
100
AcDbLine
 62
253
  6
CONTINUOUS
 10
136.2742795754
 20
107.536624448
 11
129.0274567221
 21
107.5401070541
  0
LINE
  5
33A
100
AcDbEntity
  8
0
100
AcDbLine
 62
253
  6
CONTINUOUS
 10
167.3203207051
 20
108.0198596246
 11
172.2947886002
 21
108.0170655031
  0
LINE
  5
33B
100
AcDbEntity
  8
ASSI
100
AcDbLine
 62
253
  6
CONTINUOUS
 10
167.3203207051
 20
108.0198596246
 11
172.2947886002
 21
108.0170655031
  0
LINE
  5
33C
100
AcDbEntity
  8
0
100
AcDbLine
 62
253
  6
CONTINUOUS
 10
128.843407428
 20
107.0394247207
 11
128.5525399526
 21
107.0399066569
  0
LINE
  5
33D
100
AcDbEntity
  8
ASSI
100
AcDbLine
 62
253
  6
CONTINUOUS
 10
128.843407428
 20
107.0394247207
 11
128.5525399526
 21
107.0399066569
  0
LWPOLYLINE
  5
33E
100
AcDbEntity
  8
0
100
AcDbPolyline
 62
253
  6
CONTINUOUS
 90
3
 70
0
 10
128.5525399526
 20
107.0399066569
 10
128.5312639734
 20
107.0400520154
 10
128.5276280586
 20
107.0401260929
  0
LWPOLYLINE
  5
33F
100
AcDbEntity
  8
ASSI
100
AcDbPolyline
 62
253
  6
CONTINUOUS
 90
3
 70
0
 10
128.5525399526
 20
107.0399066569
 10
128.5312639734
 20
107.0400520154
 10
128.5276280586
 20
107.0401260929
  0
LINE
  5
340
100
AcDbEntity
  8
0
100
AcDbLine
 62
7
  6
CONTINUOUS
 10
131.1611226611
 20
107.5524056752
 11
130.8986566705
 21
107.5785862786
  0
LINE
  5
341
100
AcDbEntity
  8
ASSI
100
AcDbLine
 62
7
  6
CONTINUOUS
 10
131.1611226611
 20
107.5524056752
 11
130.8986566705
 21
107.5785862786
  0
LWPOLYLINE
  5
342
100
AcDbEntity
  8
0
100
AcDbPolyline
 62
253
  6
CONTINUOUS
 90
81
 70
0
 10
150.9913026611
 20
94.4613732786
 10
150.9910632459
 20
94.4496696799
 10
150.9903661127
 20
94.4379766288
 10
150.9892125256
 20
94.4263105365
 10
150.9876037489
 20
94.4146878144
 10
150.9855410468
 20
94.4031248736
 10
150.9830256834
 20
94.3916381253
 10
150.980058923
 20
94.3802439808
 10
150.9766420297
 20
94.3689588514
 10
150.9727771929
 20
94.3577999191
 10
150.9684703033
 20
94.3467874498
 10
150.9637281766
 20
94.3359424802
 10
150.9585576286
 20
94.325286047
 10
150.9529675049
 20
94.3148399105
 10
150.9469747696
 20
94.3046287256
 10
150.9405984168
 20
94.2946778705
 10
150.9338574402
 20
94.2850127236
 10
150.926768651
 20
94.2756545654
 10
150.9193401282
 20
94.2666082843
 10
150.911577768
 20
94.2578746711
 10
150.9034874667
 20
94.2494545163
 10
150.8950735453
 20
94.2413493261
 10
150.8863340242
 20
94.2335634687
 10
150.8772653488
 20
94.2261020279
 10
150.8678639644
 20
94.2189700874
 10
150.8581317652
 20
94.212175809
 10
150.8480924402
 20
94.2057396658
 10
150.8377751276
 20
94.199685209
 10
150.8272089653
 20
94.1940359896
 10
150.8164216722
 20
94.1888130036
 10
150.8054352913
 20
94.1840270252
 10
150.7942704464
 20
94.1796862734
 10
150.7829477615
 20
94.1757989673
 10
150.771487908
 20
94.1723721308
 10
150.7599117485
 20
94.1694080086
 10
150.7482401932
 20
94.1669076501
 10
150.7364941522
 20
94.1648721049
 10
150.7246945357
 20
94.1633024225
 10
150.7128622539
 20
94.1621996525
 10
150.7010182169
 20
94.1615648444
 10
150.6891833349
 20
94.1613990478
 10
150.6773775591
 20
94.1617022848
 10
150.6656170047
 20
94.1624704678
 10
150.6539168278
 20
94.1636984817
 10
150.6422921845
 20
94.1653812117
 10
150.6307582311
 20
94.1675135425
 10
150.6193301236
 20
94.1700903593
 10
150.6080230183
 20
94.173106547
 10
150.5968520713
 20
94.1765569906
 10
150.5858321076
 20
94.1804364871
 10
150.5749766275
 20
94.1847394815
 10
150.5642988
 20
94.1894603309
 10
150.5538117942
 20
94.1945933924
 10
150.5435287792
 20
94.200133023
 10
150.5334629242
 20
94.2060735798
 10
150.5236273981
 20
94.2124094199
 10
150.5140353701
 20
94.2191349004
 10
150.5047004101
 20
94.2262430094
 10
150.495637691
 20
94.2337212601
 10
150.4868627867
 20
94.2415557967
 10
150.4783912711
 20
94.2497327634
 10
150.470238718
 20
94.2582383045
 10
150.4624207011
 20
94.2670585643
 10
150.4549527944
 20
94.2761796868
 10
150.4478505716
 20
94.2855878165
 10
150.441128307
 20
94.2952684936
 10
150.4347950763
 20
94.305204843
 10
150.4288586557
 20
94.3153793855
 10
150.4233268213
 20
94.3257746421
 10
150.4182073494
 20
94.3363731337
 10
150.4135080159
 20
94.347157381
 10
150.4092365972
 20
94.3581099052
 10
150.4054008694
 20
94.369213227
 10
150.4020076117
 20
94.3804498718
 10
150.3990596159
 20
94.3918023824
 10
150.3965586772
 20
94.4032533062
 10
150.3945065903
 20
94.4147851905
 10
150.3929051503
 20
94.4263805826
 10
150.3917561521
 20
94.4380220298
 10
150.3910613907
 20
94.4496920793
 10
150.3908226611
 20
94.4613732786
  0
LINE
  5
343
100
AcDbEntity
  8
0
100
AcDbLine
 62
7
  6
CONTINUOUS
 10
131.1611226611
 20
108.004766882
 11
130.8986566705
 21
107.9785862786
  0
LINE
  5
344
100
AcDbEntity
  8
ASSI
100
AcDbLine
 62
7
  6
CONTINUOUS
 10
131.1611226611
 20
108.004766882
 11
130.8986566705
 21
107.9785862786
  0
LINE
  5
345
100
AcDbEntity
  8
0
100
AcDbLine
 62
253
  6
CONTINUOUS
 10
128.5276280603
 20
108.5170464648
 11
128.5312639751
 21
108.5171205413
  0
LINE
  5
346
100
AcDbEntity
  8
ASSI
100
AcDbLine
 62
253
  6
CONTINUOUS
 10
128.5276280603
 20
108.5170464648
 11
128.5312639751
 21
108.5171205413
  0
LINE
  5
347
100
AcDbEntity
  8
0
100
AcDbLine
 62
253
  6
CONTINUOUS
 10
128.5312639751
 20
108.5171205413
 11
128.5525399543
 21
108.5172658977
  0
LINE
  5
348
100
AcDbEntity
  8
ASSI
100
AcDbLine
 62
253
  6
CONTINUOUS
 10
128.5312639751
 20
108.5171205413
 11
128.5525399543
 21
108.5172658977
  0
LINE
  5
349
100
AcDbEntity
  8
0
100
AcDbLine
 62
253
  6
CONTINUOUS
 10
128.5525399543
 20
108.5172658977
 11
139.4111226611
 21
108.5218517883
  0
LINE
  5
34A
100
AcDbEntity
  8
ASSI
100
AcDbLine
 62
253
  6
CONTINUOUS
 10
128.5525399543
 20
108.5172658977
 11
139.4111226611
 21
108.5218517883
  0
LINE
  5
34B
100
AcDbEntity
  8
0
100
AcDbLine
 62
253
  6
CONTINUOUS
 10
139.4111226611
 20
108.5218517883
 11
161.9111226611
 21
108.5218517883
  0
LINE
  5
34C
100
AcDbEntity
  8
ASSI
100
AcDbLine
 62
253
  6
CONTINUOUS
 10
139.4111226611
 20
108.5218517883
 11
161.9111226611
 21
108.5218517883
  0
LINE
  5
34D
100
AcDbEntity
  8
0
100
AcDbLine
 62
253
  6
CONTINUOUS
 10
161.9111226611
 20
108.5218517883
 11
172.6414828124
 21
108.517581866
  0
LINE
  5
34E
100
AcDbEntity
  8
ASSI
100
AcDbLine
 62
253
  6
CONTINUOUS
 10
161.9111226611
 20
108.5218517883
 11
172.6414828124
 21
108.517581866
  0
LWPOLYLINE
  5
34F
100
AcDbEntity
  8
0
100
AcDbPolyline
 62
253
  6
CONTINUOUS
 90
4
 70
0
 10
172.6414828124
 20
108.517581866
 10
172.7826511143
 20
108.5171939185
 10
172.7909813489
 20
108.5171205418
 10
172.7946172637
 20
108.5170464643
  0
LWPOLYLINE
  5
350
100
AcDbEntity
  8
ASSI
100
AcDbPolyline
 62
253
  6
CONTINUOUS
 90
4
 70
0
 10
172.6414828124
 20
108.517581866
 10
172.7826511143
 20
108.5171939185
 10
172.7909813489
 20
108.5171205418
 10
172.7946172637
 20
108.5170464643
  0
LINE
  5
351
100
AcDbEntity
  8
0
100
AcDbLine
 62
7
  6
CONTINUOUS
 10
170.1611226611
 20
108.004766882
 11
170.4235886517
 21
107.9785862786
  0
LINE
  5
352
100
AcDbEntity
  8
ASSI
100
AcDbLine
 62
7
  6
CONTINUOUS
 10
170.1611226611
 20
108.004766882
 11
170.4235886517
 21
107.9785862786
  0
LWPOLYLINE
  5
353
100
AcDbEntity
  8
0
100
AcDbPolyline
 62
253
  6
CONTINUOUS
 90
55
 70
0
 10
154.1570656611
 20
119.2767862785
 10
154.1555959432
 20
119.1748998359
 10
154.1511795468
 20
119.0730879451
 10
154.1438235578
 20
118.9714363715
 10
154.1335350622
 20
118.8700308805
 10
154.1203211461
 20
118.7689572377
 10
154.1041888952
 20
118.6683012086
 10
154.0851474607
 20
118.5681476482
 10
154.0632142531
 20
118.4685777704
 10
154.0384087482
 20
118.3696718787
 10
154.0107504215
 20
118.2715102766
 10
153.9802587488
 20
118.1741732676
 10
153.9469532056
 20
118.0777411552
 10
153.9108555838
 20
117.9822931017
 10
153.8719969398
 20
117.8879037048
 10
153.8304106461
 20
117.794646421
 10
153.7861300754
 20
117.7025947069
 10
153.7391886002
 20
117.6118220189
 10
153.6896195931
 20
117.5224018136
 10
153.6374532189
 20
117.4344041495
 10
153.5827068112
 20
117.3478854933
 10
153.5253944957
 20
117.2628989136
 10
153.4655303984
 20
117.179497479
 10
153.403128645
 20
117.0977342582
 10
153.3382033614
 20
117.01766232
 10
153.2707875346
 20
116.939347178
 10
153.2009895967
 20
116.8629041271
 10
153.1289368411
 20
116.7884609069
 10
153.0547565612
 20
116.7161452575
 10
152.9785760502
 20
116.6460849185
 10
152.9005226016
 20
116.5784076299
 10
152.8207102711
 20
116.5132211935
 10
152.739200164
 20
116.4505536595
 10
152.6560401479
 20
116.39041314
 10
152.5712780904
 20
116.3328077471
 10
152.4849618593
 20
116.2777455929
 10
152.3971393221
 20
116.2252347896
 10
152.3078553274
 20
116.1752876627
 10
152.2171426467
 20
116.1279333916
 10
152.1250310325
 20
116.0832053688
 10
152.0315502374
 20
116.041136987
 10
151.9367300137
 20
116.0017616388
 10
151.8406001139
 20
115.965112717
 10
151.743213348
 20
115.9312256519
 10
151.644714756
 20
115.9001440241
 10
151.5452724354
 20
115.8719134522
 10
151.4450544836
 20
115.8465795545
 10
151.3442289982
 20
115.8241879495
 10
151.2429640766
 20
115.8047842556
 10
151.1414099404
 20
115.7884037044
 10
151.039645308
 20
115.7750399794
 10
150.9377310215
 20
115.7646763775
 10
150.8357279233
 20
115.7572961956
 10
150.7336968557
 20
115.7528827303
 10
150.6316986611
 20
115.7514192786
  0
LWPOLYLINE
  5
354
100
AcDbEntity
  8
0
100
AcDbPolyline
 62
253
  6
CONTINUOUS
 90
55
 70
0
 10
154.2159146351
 20
96.2803842782
 10
154.2144429759
 20
96.1791761121
 10
154.2100608099
 20
96.0779646574
 10
154.2027651706
 20
95.9768273631
 10
154.1925530917
 20
95.8758416784
 10
154.1794216064
 20
95.7750850525
 10
154.1633705156
 20
95.6746395608
 10
154.1444106898
 20
95.5746057839
 10
154.1225557665
 20
95.4750889289
 10
154.0978193834
 20
95.3761942026
 10
154.0702151782
 20
95.2780268121
 10
154.0397661941
 20
95.1806971777
 10
154.0065330959
 20
95.0843365745
 10
153.9705859538
 20
94.9890814906
 10
153.931994838
 20
94.8950684146
 10
153.8908298188
 20
94.8024338348
 10
153.8471478756
 20
94.7112855602
 10
153.8009536242
 20
94.6216166821
 10
153.7522385895
 20
94.5333916127
 10
153.7009942965
 20
94.4465747639
 10
153.6472122702
 20
94.3611305477
 10
153.5908737346
 20
94.2770291365
 10
153.5319187105
 20
94.1942637449
 10
153.470276918
 20
94.1128333476
 10
153.4058780769
 20
94.0327369195
 10
153.3386519072
 20
93.9539734355
 10
153.268534282
 20
93.8765579294
 10
153.1954856867
 20
93.8005696716
 10
153.1194727599
 20
93.7261039914
 10
153.0404621402
 20
93.6532562179
 10
152.9584204661
 20
93.5821216806
 10
152.8877030108
 20
93.5242196358
 10
152.814778566
 20
93.4676241399
 10
152.7395682087
 20
93.4123857939
 10
152.6619930159
 20
93.3585551984
 10
152.5819740647
 20
93.3061829543
 10
152.4994324321
 20
93.2553196623
 10
152.4143090135
 20
93.2060358902
 10
152.3266239776
 20
93.1584820736
 10
152.2364173116
 20
93.1128286149
 10
152.1437290024
 20
93.0692459166
 10
152.0485990371
 20
93.0279043813
 10
151.951067403
 20
92.9889744114
 10
151.8512294885
 20
92.9526209134
 10
151.7494022886
 20
92.9189868088
 10
151.6459581997
 20
92.8882095232
 10
151.5412696182
 20
92.8604264821
 10
151.4357089406
 20
92.8357751109
 10
151.3296485632
 20
92.8143928352
 10
151.2234002292
 20
92.7963874706
 10
151.1170330675
 20
92.7817483932
 10
151.0105555542
 20
92.770435369
 10
150.9039761648
 20
92.7624081645
 10
150.7973033752
 20
92.7576265456
 10
150.6905456611
 20
92.7560502786
  0
LWPOLYLINE
  5
355
100
AcDbEntity
  8
0
100
AcDbPolyline
 62
253
  6
CONTINUOUS
 90
51
 70
0
 10
154.756514643
 20
119.2767862787
 10
154.7545216985
 20
119.1481675284
 10
154.7485132462
 20
119.019623743
 10
154.7384999474
 20
118.89128874
 10
154.724492463
 20
118.7632963369
 10
154.7065014541
 20
118.6357803512
 10
154.6845374861
 20
118.508868599
 10
154.6586107411
 20
118.3826648907
 10
154.6287313055
 20
118.2572670355
 10
154.5949092657
 20
118.1327728425
 10
154.5571547082
 20
118.0092801208
 10
154.5154901978
 20
117.8869011128
 10
154.4699882132
 20
117.7658057945
 10
154.4207337115
 20
117.6461785753
 10
154.3678116498
 20
117.5282038645
 10
154.3113069852
 20
117.4120660716
 10
154.251287469
 20
117.297917575
 10
154.1877520293
 20
117.1857826303
 10
154.1206823884
 20
117.0756534622
 10
154.0500602686
 20
116.9675222955
 10
153.975867392
 20
116.8613813549
 10
153.8981086544
 20
116.7572572208
 10
153.816881645
 20
116.6553138962
 10
153.7323071266
 20
116.55574974
 10
153.6445058619
 20
116.4587631108
 10
153.5535986136
 20
116.3645523675
 10
153.4597197818
 20
116.2733034246
 10
153.3630583168
 20
116.1851524203
 10
153.2638168063
 20
116.1002230488
 10
153.1621978381
 20
116.0186390041
 10
153.0584039998
 20
115.9405239804
 10
152.9525981261
 20
115.8659754739
 10
152.8447840389
 20
115.7949861896
 10
152.7349258071
 20
115.7275226349
 10
152.6229874994
 20
115.663551317
 10
152.5089331848
 20
115.6030387431
 10
152.3927568196
 20
115.5459734491
 10
152.2745719108
 20
115.4924320847
 10
152.154521853
 20
115.442513328
 10
152.0327500405
 20
115.3963158574
 10
151.909399868
 20
115.353938351
 10
151.7846284721
 20
115.3154697525
 10
151.6586479577
 20
115.280960067
 10
151.5316841721
 20
115.2504495649
 10
151.4039629624
 20
115.2239785165
 10
151.2757101757
 20
115.2015871924
 10
151.1471302305
 20
115.183305474
 10
151.0183418309
 20
115.1691216868
 10
150.8894422525
 20
115.1590137675
 10
150.7605287707
 20
115.1529596526
 10
150.6316986611
 20
115.1509372786
  0
LWPOLYLINE
  5
356
100
AcDbEntity
  8
0
100
AcDbPolyline
 62
253
  6
CONTINUOUS
 90
51
 70
0
 10
154.815361661
 20
96.2803862787
 10
154.8131175539
 20
96.1438528349
 10
154.806341405
 20
96.0072410239
 10
154.795011145
 20
95.8706732876
 10
154.7791047043
 20
95.7342720683
 10
154.7586090299
 20
95.5981801836
 10
154.7335471344
 20
95.4626219536
 10
154.7039510468
 20
95.3278420739
 10
154.6698527962
 20
95.1940852403
 10
154.6312959733
 20
95.0615919267
 10
154.5883704155
 20
94.9305857196
 10
154.5411775222
 20
94.8012859838
 10
154.4898186924
 20
94.6739120842
 10
154.4343937862
 20
94.5486611922
 10
154.3749965064
 20
94.4256417063
 10
154.3117190167
 20
94.3049398317
 10
154.2446534809
 20
94.1866417738
 10
154.1738600123
 20
94.07080276
 10
154.0992705228
 20
93.9573541077
 10
154.0207848741
 20
93.8461961566
 10
153.9383029277
 20
93.7372292463
 10
153.8693752306
 20
93.6515839899
 10
153.7977894666
 20
93.5673323553
 10
153.7235092881
 20
93.4845294807
 10
153.6464983471
 20
93.4032305043
 10
153.5667202959
 20
93.3234905644
 10
153.4841431262
 20
93.2453704093
 10
153.3987521871
 20
93.1689532276
 10
153.3105371672
 20
93.0943278177
 10
153.2194877553
 20
93.0215829785
 10
153.12559364
 20
92.9508075084
 10
153.0288203586
 20
92.8820875731
 10
152.9290368439
 20
92.8154988058
 10
152.8260878774
 20
92.7511142066
 10
152.7198182405
 20
92.6890067756
 10
152.6100727146
 20
92.6292495131
 10
152.4967596084
 20
92.5719512793
 10
152.380041338
 20
92.5173643758
 10
152.2601438469
 20
92.465776964
 10
152.1372930784
 20
92.4174772056
 10
152.0117149757
 20
92.3727532622
 10
151.8836801037
 20
92.3318672546
 10
151.7536375126
 20
92.2949771402
 10
151.6220808742
 20
92.2622148355
 10
151.4895038602
 20
92.2337122571
 10
151.3564001422
 20
92.2096013217
 10
151.2231856814
 20
92.1899821929
 10
151.0899655956
 20
92.1748280239
 10
150.9567672921
 20
92.164080215
 10
150.8236181782
 20
92.1576801665
 10
150.6905456611
 20
92.1555692786
  0
LWPOLYLINE
  5
357
100
AcDbEntity
  8
SUPERFICI
100
AcDbPolyline
 62
7
  6
CONTINUOUS
 90
43
 70
0
 10
152.9798046396
 20
111.2993388567
 10
153.0476758473
 20
111.3064515877
 10
153.1146476727
 20
111.3182416763
 10
153.1810587819
 20
111.3348048553
 10
153.2465705087
 20
111.3560453844
 10
153.3101668543
 20
111.3816760506
 10
153.3718358418
 20
111.4117987385
 10
153.4315894482
 20
111.4463115473
 10
153.4884476055
 20
111.4846215855
 10
153.5422837054
 20
111.5267172171
 10
153.5932243563
 20
111.5726100558
 10
153.640669315
 20
111.6217420857
 10
153.6846473865
 20
111.6742540432
 10
153.725129766
 20
111.7300051652
 10
153.7614297959
 20
111.7880151902
 10
153.7934160276
 20
111.8481708605
 10
153.8212199097
 20
111.9105854095
 10
153.8445491311
 20
111.9746183185
 10
153.8633974153
 20
112.0404716735
 10
153.8777710387
 20
112.1079433654
 10
153.8873965194
 20
112.1757865919
 10
153.8921839556
 20
112.2438287043
 10
153.8922232492
 20
112.3122423412
 10
153.8875106243
 20
112.3802986422
 10
153.877958535
 20
112.4481661082
 10
153.8636545271
 20
112.5156762357
 10
153.8448574622
 20
112.5815946699
 10
153.8215438875
 20
112.6457463156
 10
153.7937372557
 20
112.7083062825
 10
153.7617667868
 20
112.7685655354
 10
153.7255301276
 20
112.8265902002
 10
153.6851296313
 20
112.8823141731
 10
153.6412015766
 20
112.934830083
 10
153.5937393358
 20
112.9840394152
 10
153.5427495366
 20
113.0300407155
 10
153.4888883415
 20
113.0722222109
 10
153.4320703934
 20
113.1105656471
 10
153.3723810493
 20
113.1450893103
 10
153.3107325432
 20
113.1752362411
 10
153.2470681491
 20
113.2009265217
 10
153.181444593
 20
113.2222400974
 10
153.1149442859
 20
113.2388598037
 10
153.0479280315
 20
113.2506799248
  0
LINE
  5
358
100
AcDbEntity
  8
SUPERFICI
100
AcDbLine
 62
7
  6
CONTINUOUS
 10
152.9110340494
 20
111.2969034848
 11
152.9798046396
 21
111.2993388567
  0
LINE
  5
359
100
AcDbEntity
  8
0
100
AcDbLine
 62
7
  6
CONTINUOUS
 10
152.9111154648
 20
111.2969120197
 11
148.4111298686
 21
111.2969034844
  0
LINE
  5
35A
100
AcDbEntity
  8
ASSI
100
AcDbLine
 62
7
  6
CONTINUOUS
 10
152.9111154648
 20
111.2969120197
 11
148.4111298686
 21
111.2969034844
  0
LINE
  5
35B
100
AcDbEntity
  8
SUPERFICI
100
AcDbLine
 62
7
  6
CONTINUOUS
 10
148.4112111224
 20
111.2969034848
 11
152.9110340494
 21
111.2969034848
  0
LINE
  5
35C
100
AcDbEntity
  8
0
100
AcDbLine
 62
7
  6
CONTINUOUS
 10
148.4111104888
 20
113.2602522951
 11
152.9111348519
 21
113.2602386148
  0
LINE
  5
35D
100
AcDbEntity
  8
ASSI
100
AcDbLine
 62
7
  6
CONTINUOUS
 10
148.4111104888
 20
113.2602522951
 11
152.9111348519
 21
113.2602386148
  0
LINE
  5
35E
100
AcDbEntity
  8
SUPERFICI
100
AcDbLine
 62
7
  6
CONTINUOUS
 10
152.91126527
 20
113.2602386138
 11
148.4109799345
 21
113.2602386138
  0
LWPOLYLINE
  5
35F
100
AcDbEntity
  8
0
100
AcDbPolyline
 62
7
  6
CONTINUOUS
 90
40
 70
0
 10
148.4111298686
 20
111.2969034844
 10
148.3318375388
 20
111.3002120384
 10
148.2540322617
 20
111.3095986936
 10
148.1777140373
 20
111.3250634471
 10
148.1024513352
 20
111.3467529718
 10
148.0286756859
 20
111.3745205816
 10
147.9576816799
 20
111.4079262313
 10
147.8894275587
 20
111.4471254437
 10
147.823955081
 20
111.4919626681
 10
147.7626841133
 20
111.5415312483
 10
147.705791508
 20
111.5958414749
 10
147.6531004127
 20
111.6548830198
 10
147.6055001379
 20
111.717718301
 10
147.56298112
 20
111.7845558476
 10
147.5255529225
 20
111.8551870878
 10
147.4941335463
 20
111.9280487963
 10
147.468916253
 20
112.0030478297
 10
147.4497077809
 20
112.0802772975
 10
147.4368463462
 20
112.1584533684
 10
147.4304410935
 20
112.2377674173
 10
147.4303828781
 20
112.3180280461
 10
147.4366824829
 20
112.3973772836
 10
147.4494504696
 20
112.4756302565
 10
147.4685762765
 20
112.552971842
 10
147.4937390012
 20
112.6280987165
 10
147.5251424492
 20
112.7011057528
 10
147.562582815
 20
112.7718981006
 10
147.6051277794
 20
112.838887872
 10
147.6527627616
 20
112.9018622938
 10
147.7055023425
 20
112.961034184
 10
147.7624579454
 20
113.0154540578
 10
147.8238191283
 20
113.0651072528
 10
147.8893963332
 20
113.1100084807
 10
147.9577323106
 20
113.1492523254
 10
148.0287730662
 20
113.1826795287
 10
148.1025725943
 20
113.2104493942
 10
148.1778356273
 20
113.2321343488
 10
148.2541304095
 20
113.2475918779
 10
148.3318886966
 20
113.2569645239
 10
148.4111104888
 20
113.2602522951
  0
LWPOLYLINE
  5
360
100
AcDbEntity
  8
ASSI
100
AcDbPolyline
 62
7
  6
CONTINUOUS
 90
40
 70
0
 10
148.4111298686
 20
111.2969034844
 10
148.3318375388
 20
111.3002120384
 10
148.2540322617
 20
111.3095986936
 10
148.1777140373
 20
111.3250634471
 10
148.1024513352
 20
111.3467529718
 10
148.0286756859
 20
111.3745205816
 10
147.9576816799
 20
111.4079262313
 10
147.8894275587
 20
111.4471254437
 10
147.823955081
 20
111.4919626681
 10
147.7626841133
 20
111.5415312483
 10
147.705791508
 20
111.5958414749
 10
147.6531004127
 20
111.6548830198
 10
147.6055001379
 20
111.717718301
 10
147.56298112
 20
111.7845558476
 10
147.5255529225
 20
111.8551870878
 10
147.4941335463
 20
111.9280487963
 10
147.468916253
 20
112.0030478297
 10
147.4497077809
 20
112.0802772975
 10
147.4368463462
 20
112.1584533684
 10
147.4304410935
 20
112.2377674173
 10
147.4303828781
 20
112.3180280461
 10
147.4366824829
 20
112.3973772836
 10
147.4494504696
 20
112.4756302565
 10
147.4685762765
 20
112.552971842
 10
147.4937390012
 20
112.6280987165
 10
147.5251424492
 20
112.7011057528
 10
147.562582815
 20
112.7718981006
 10
147.6051277794
 20
112.838887872
 10
147.6527627616
 20
112.9018622938
 10
147.7055023425
 20
112.961034184
 10
147.7624579454
 20
113.0154540578
 10
147.8238191283
 20
113.0651072528
 10
147.8893963332
 20
113.1100084807
 10
147.9577323106
 20
113.1492523254
 10
148.0287730662
 20
113.1826795287
 10
148.1025725943
 20
113.2104493942
 10
148.1778356273
 20
113.2321343488
 10
148.2541304095
 20
113.2475918779
 10
148.3318886966
 20
113.2569645239
 10
148.4111104888
 20
113.2602522951
  0
LINE
  5
361
100
AcDbEntity
  8
0
100
AcDbLine
 62
253
  6
CONTINUOUS
 10
172.410249723
 20
107.5785862786
 11
172.2947885993
 21
107.5401070538
  0
LINE
  5
362
100
AcDbEntity
  8
ASSI
100
AcDbLine
 62
253
  6
CONTINUOUS
 10
172.410249723
 20
107.5785862786
 11
172.2947885993
 21
107.5401070538
  0
LINE
  5
363
100
AcDbEntity
  8
0
100
AcDbLine
 62
253
  6
CONTINUOUS
 10
172.9103068631
 20
107.0786814608
 11
172.7946172619
 21
107.0401260923
  0
LINE
  5
364
100
AcDbEntity
  8
ASSI
100
AcDbLine
 62
253
  6
CONTINUOUS
 10
172.9103068631
 20
107.0786814608
 11
172.7946172619
 21
107.0401260923
  0
LWPOLYLINE
  5
365
100
AcDbEntity
  8
SUPERFICI
100
AcDbPolyline
 62
7
  6
CONTINUOUS
 90
46
 70
0
 10
148.4109799345
 20
113.2602386138
 10
148.3423045728
 20
113.2578117006
 10
148.2745053862
 20
113.2507052975
 10
148.2075823746
 20
113.2389193997
 10
148.1411891203
 20
113.2223573958
 10
148.0756720411
 20
113.2011158804
 10
148.0120703901
 20
113.1754846549
 10
147.9504040118
 20
113.1453627215
 10
147.8906530618
 20
113.1108510504
 10
147.8337972589
 20
113.0725423946
 10
147.7799631414
 20
113.030448403
 10
147.7290241711
 20
112.9845573952
 10
147.6815804526
 20
112.9354271343
 10
147.6376031106
 20
112.8829168958
 10
147.5971210204
 20
112.8271673725
 10
147.5608209121
 20
112.7691584611
 10
147.528834142
 20
112.7090032558
 10
147.5010293538
 20
112.6465886407
 10
147.477699209
 20
112.5825552062
 10
147.4588500266
 20
112.5167006546
 10
147.4444754875
 20
112.4492272687
 10
147.4348492959
 20
112.3813825219
 10
147.4300614938
 20
112.3133392246
 10
147.4300220393
 20
112.2449245688
 10
147.4347345103
 20
112.1768676126
 10
147.4442863983
 20
112.1090000615
 10
147.4585902118
 20
112.0414902197
 10
147.4773870543
 20
111.9755720547
 10
147.5007003128
 20
111.9114206461
 10
147.5285066002
 20
111.8488609368
 10
147.5604768589
 20
111.7886016979
 10
147.5967134229
 20
111.7305767469
 10
147.6371139581
 20
111.674852291
 10
147.6810424046
 20
111.6223356917
 10
147.7285054647
 20
111.5731254271
 10
147.7794964362
 20
111.5271230456
 10
147.8333591529
 20
111.4849405176
 10
147.8901790772
 20
111.4465961235
 10
147.9498707467
 20
111.4120716053
 10
148.0115216084
 20
111.3819241267
 10
148.0751805736
 20
111.3562345369
 10
148.1407987308
 20
111.3349220028
 10
148.207316793
 20
111.3183011635
 10
148.2743816645
 20
111.3064769012
 10
148.342346441
 20
111.2993443411
 10
148.4112111224
 20
111.2969034848
  0
LWPOLYLINE
  5
366
100
AcDbEntity
  8
0
100
AcDbPolyline
 62
253
  6
CONTINUOUS
 90
55
 70
0
 10
150.6316996612
 20
115.7514182786
 10
150.5295390877
 20
115.7528865497
 10
150.4273621101
 20
115.7573134498
 10
150.3252303556
 20
115.7647140308
 10
150.2232054509
 20
115.7751033443
 10
150.1213490232
 20
115.7884964421
 10
150.0197226992
 20
115.804908376
 10
149.9184054936
 20
115.8243439335
 10
149.8175459704
 20
115.8467668458
 10
149.7173100814
 20
115.8721305796
 10
149.6178637783
 20
115.9003886019
 10
149.5193730128
 20
115.9314943796
 10
149.4220037366
 20
115.9654013795
 10
149.3258987262
 20
116.0020655486
 10
149.2311080573
 20
116.0414527537
 10
149.1376586305
 20
116.0835313418
 10
149.0455773462
 20
116.1282696597
 10
148.954891105
 20
116.1756360543
 10
148.8656268075
 20
116.2255988727
 10
148.7778153351
 20
116.2781301111
 10
148.6915034938
 20
116.3332163648
 10
148.6067420701
 20
116.3908478782
 10
148.5235818511
 20
116.4510148959
 10
148.4420736234
 20
116.5137076625
 10
148.3622681739
 20
116.5789164227
 10
148.2842289466
 20
116.6466115509
 10
148.2080700138
 20
116.716683941
 10
148.1339181053
 20
116.7890046171
 10
148.0618999506
 20
116.863444603
 10
147.9921422794
 20
116.9398749226
 10
147.9247718214
 20
117.0181665997
 10
147.859896149
 20
117.0982038913
 10
147.7975462065
 20
117.1799239853
 10
147.7377337812
 20
117.263277303
 10
147.6804706602
 20
117.3482142654
 10
147.6257686307
 20
117.4346852936
 10
147.5736394799
 20
117.5226408086
 10
147.5240988338
 20
117.6120272128
 10
147.4771776734
 20
117.702774834
 10
147.4329108186
 20
117.7948099813
 10
147.3913330893
 20
117.8880589639
 10
147.3524793052
 20
117.9824480907
 10
147.3163842863
 20
118.077903671
 10
147.2830803855
 20
118.1743503271
 10
147.2525900879
 20
118.271705935
 10
147.2249334119
 20
118.3698866839
 10
147.2001303758
 20
118.4688087631
 10
147.1782009978
 20
118.5683883617
 10
147.1591652963
 20
118.668541669
 10
147.1430409346
 20
118.7691847366
 10
147.1298361565
 20
118.8702330661
 10
147.1195568512
 20
118.9716020212
 10
147.1122089075
 20
119.0732069657
 10
147.1077982145
 20
119.1749632636
 10
147.1063306611
 20
119.2767862786
  0
LWPOLYLINE
  5
367
100
AcDbEntity
  8
0
100
AcDbPolyline
 62
253
  6
CONTINUOUS
 90
51
 70
0
 10
150.631699661
 20
115.1509390947
 10
150.5026906177
 20
115.1529463701
 10
150.3736165793
 20
115.1589957999
 10
150.2445743051
 20
115.1691082499
 10
150.1156605542
 20
115.1833045859
 10
149.9869720855
 20
115.2016056739
 10
149.858627565
 20
115.2240216609
 10
149.730833285
 20
115.250519819
 10
149.6038174448
 20
115.2810567015
 10
149.4778082434
 20
115.3155888617
 10
149.35303388
 20
115.3540728529
 10
149.2297068411
 20
115.3964565966
 10
149.107976763
 20
115.4426534876
 10
148.9879775693
 20
115.4925682887
 10
148.8698431836
 20
115.5461057629
 10
148.7537075296
 20
115.6031706732
 10
148.6396769019
 20
115.6636891675
 10
148.5277470789
 20
115.7276729336
 10
148.4178862099
 20
115.7951550444
 10
148.3100624445
 20
115.8661685727
 10
148.204243932
 20
115.9407465913
 10
148.1004383893
 20
116.0188953334
 10
147.9988118043
 20
116.1005136739
 10
147.8995697321
 20
116.185473648
 10
147.8029177282
 20
116.2736472908
 10
147.7090613477
 20
116.3649066377
 10
147.6181913652
 20
116.4591123352
 10
147.5304394315
 20
116.5560794748
 10
147.4459224166
 20
116.6556117596
 10
147.3647571904
 20
116.7575128925
 10
147.2870606231
 20
116.8615865763
 10
147.2129267661
 20
116.967671523
 10
147.1423583978
 20
117.0757464799
 10
147.0753354783
 20
117.1858252034
 10
147.0118379674
 20
117.2979214497
 10
146.9518458253
 20
117.4120489752
 10
146.8953571206
 20
117.5281875892
 10
146.842442358
 20
117.6461813133
 10
146.7931901509
 20
117.7658402224
 10
146.7476891125
 20
117.8869743909
 10
146.7060278564
 20
118.0093938938
 10
146.6682817814
 20
118.1329237833
 10
146.6344734284
 20
118.2574490223
 10
146.6046121239
 20
118.3828695512
 10
146.5787071943
 20
118.5090853105
 10
146.5567679661
 20
118.6359962407
 10
146.5388037727
 20
118.7634967616
 10
146.5248239763
 20
118.8914592098
 10
146.5148379461
 20
119.0197504014
 10
146.5088550513
 20
119.1482371523
 10
146.5068846611
 20
119.2767862786
  0
LWPOLYLINE
  5
368
100
AcDbEntity
  8
0
100
AcDbPolyline
 62
7
  6
CONTINUOUS
 90
40
 70
0
 10
152.9111348519
 20
113.2602386148
 10
152.9904251505
 20
113.2569386391
 10
153.0682286649
 20
113.2475582422
 10
153.1445453954
 20
113.2320974158
 10
153.2198068992
 20
113.2104086788
 10
153.293581619
 20
113.1826394844
 10
153.3645748827
 20
113.1492322215
 10
153.4328284409
 20
113.1100321595
 10
153.498300543
 20
113.0651939838
 10
153.5595712651
 20
113.0156242076
 10
153.6164638425
 20
112.9613123973
 10
153.66915504
 20
112.9022689375
 10
153.7167552279
 20
112.8394315759
 10
153.7592739199
 20
112.772591631
 10
153.7967016024
 20
112.7019577398
 10
153.828120105
 20
112.6290936438
 10
153.8533360554
 20
112.5540924995
 10
153.8725428259
 20
112.4768611277
 10
153.8854023636
 20
112.3986837862
 10
153.8918054354
 20
112.3193692415
 10
153.8918612743
 20
112.2391087227
 10
153.8855595264
 20
112.1597602028
 10
153.8727897207
 20
112.0815087326
 10
153.8536623281
 20
112.0041692841
 10
153.8284984078
 20
111.9290447312
 10
153.7970942629
 20
111.8560402652
 10
153.7596535902
 20
111.7852507288
 10
153.7171085393
 20
111.7182634879
 10
153.6694737497
 20
111.6552912552
 10
153.6167345818
 20
111.5961213609
 10
153.5597792668
 20
111.5417031052
 10
153.4984181846
 20
111.4920510947
 10
153.4328409553
 20
111.4471507604
 10
153.3645046699
 20
111.4079076419
 10
153.2934633774
 20
111.3744810095
 10
153.2196630288
 20
111.3467116208
 10
153.1443985688
 20
111.325027245
 10
153.0681016455
 20
111.3095704762
 10
152.9903406109
 20
111.3001987335
 10
152.9111154648
 20
111.2969120197
  0
LWPOLYLINE
  5
369
100
AcDbEntity
  8
ASSI
100
AcDbPolyline
 62
7
  6
CONTINUOUS
 90
40
 70
0
 10
152.9111348519
 20
113.2602386148
 10
152.9904251505
 20
113.2569386391
 10
153.0682286649
 20
113.2475582422
 10
153.1445453954
 20
113.2320974158
 10
153.2198068992
 20
113.2104086788
 10
153.293581619
 20
113.1826394844
 10
153.3645748827
 20
113.1492322215
 10
153.4328284409
 20
113.1100321595
 10
153.498300543
 20
113.0651939838
 10
153.5595712651
 20
113.0156242076
 10
153.6164638425
 20
112.9613123973
 10
153.66915504
 20
112.9022689375
 10
153.7167552279
 20
112.8394315759
 10
153.7592739199
 20
112.772591631
 10
153.7967016024
 20
112.7019577398
 10
153.828120105
 20
112.6290936438
 10
153.8533360554
 20
112.5540924995
 10
153.8725428259
 20
112.4768611277
 10
153.8854023636
 20
112.3986837862
 10
153.8918054354
 20
112.3193692415
 10
153.8918612743
 20
112.2391087227
 10
153.8855595264
 20
112.1597602028
 10
153.8727897207
 20
112.0815087326
 10
153.8536623281
 20
112.0041692841
 10
153.8284984078
 20
111.9290447312
 10
153.7970942629
 20
111.8560402652
 10
153.7596535902
 20
111.7852507288
 10
153.7171085393
 20
111.7182634879
 10
153.6694737497
 20
111.6552912552
 10
153.6167345818
 20
111.5961213609
 10
153.5597792668
 20
111.5417031052
 10
153.4984181846
 20
111.4920510947
 10
153.4328409553
 20
111.4471507604
 10
153.3645046699
 20
111.4079076419
 10
153.2934633774
 20
111.3744810095
 10
153.2196630288
 20
111.3467116208
 10
153.1443985688
 20
111.325027245
 10
153.0681016455
 20
111.3095704762
 10
152.9903406109
 20
111.3001987335
 10
152.9111154648
 20
111.2969120197
  0
LWPOLYLINE
  5
36A
100
AcDbEntity
  8
SUPERFICI
100
AcDbPolyline
 62
7
  6
CONTINUOUS
 90
3
 70
0
 10
153.0479280315
 20
113.2506799248
 10
152.9800350262
 20
113.2578061932
 10
152.91126527
 20
113.2602386138
  0
LINE
  5
36B
100
AcDbEntity
  8
0
100
AcDbLine
 62
253
  6
CONTINUOUS
 10
172.2947886002
 20
108.0170655031
 11
172.410249723
 21
107.9785862786
  0
LINE
  5
36C
100
AcDbEntity
  8
ASSI
100
AcDbLine
 62
253
  6
CONTINUOUS
 10
172.2947886002
 20
108.0170655031
 11
172.410249723
 21
107.9785862786
  0
LINE
  5
36D
100
AcDbEntity
  8
0
100
AcDbLine
 62
253
  6
CONTINUOUS
 10
172.7946172636
 20
108.5170464643
 11
172.9103068631
 21
108.4784910964
  0
LINE
  5
36E
100
AcDbEntity
  8
ASSI
100
AcDbLine
 62
253
  6
CONTINUOUS
 10
172.7946172636
 20
108.5170464643
 11
172.9103068631
 21
108.4784910964
  0
LINE
  5
36F
100
AcDbEntity
  8
0
100
AcDbLine
 62
253
  6
CONTINUOUS
 10
172.3239604977
 20
129.8029767226
 11
172.3900720501
 21
129.9352905552
  0
LINE
  5
370
100
AcDbEntity
  8
ASSI
100
AcDbLine
 62
253
  6
CONTINUOUS
 10
172.3239604977
 20
129.8029767226
 11
172.3900720501
 21
129.9352905552
  0
LINE
  5
371
100
AcDbEntity
  8
0
100
AcDbLine
 62
253
  6
CONTINUOUS
 10
172.8237891602
 20
129.3036619553
 11
172.8906984717
 21
129.4375724009
  0
LINE
  5
372
100
AcDbEntity
  8
ASSI
100
AcDbLine
 62
253
  6
CONTINUOUS
 10
172.8237891602
 20
129.3036619553
 11
172.8906984717
 21
129.4375724009
  0
LINE
  5
373
100
AcDbEntity
  8
0
100
AcDbLine
 62
253
  6
CONTINUOUS
 10
172.3900720501
 20
85.621882002
 11
172.3239604958
 21
85.7541958384
  0
LINE
  5
374
100
AcDbEntity
  8
ASSI
100
AcDbLine
 62
253
  6
CONTINUOUS
 10
172.3900720501
 20
85.621882002
 11
172.3239604958
 21
85.7541958384
  0
LINE
  5
375
100
AcDbEntity
  8
0
100
AcDbLine
 62
253
  6
CONTINUOUS
 10
172.8906984717
 20
86.1196001563
 11
172.8237891583
 21
86.2535106058
  0
LINE
  5
376
100
AcDbEntity
  8
ASSI
100
AcDbLine
 62
253
  6
CONTINUOUS
 10
172.8906984717
 20
86.1196001563
 11
172.8237891583
 21
86.2535106058
  0
LWPOLYLINE
  5
377
100
AcDbEntity
  8
0
100
AcDbPolyline
 62
253
  6
CONTINUOUS
 90
3
 70
0
 10
161.9099889748
 20
107.5244963309
 10
161.9098417971
 20
107.5330611854
 10
161.9096930034
 20
107.5362303231
  0
LWPOLYLINE
  5
378
100
AcDbEntity
  8
ASSI
100
AcDbPolyline
 62
253
  6
CONTINUOUS
 90
3
 70
0
 10
161.9099889748
 20
107.5244963309
 10
161.9098417971
 20
107.5330611854
 10
161.9096930034
 20
107.5362303231
  0
LINE
  5
379
100
AcDbEntity
  8
0
100
AcDbLine
 62
253
  6
CONTINUOUS
 10
161.9102721232
 20
107.4916091436
 11
161.9099889748
 21
107.5244963309
  0
LINE
  5
37A
100
AcDbEntity
  8
ASSI
100
AcDbLine
 62
253
  6
CONTINUOUS
 10
161.9102721232
 20
107.4916091436
 11
161.9099889748
 21
107.5244963309
  0
LINE
  5
37B
100
AcDbEntity
  8
0
100
AcDbLine
 62
253
  6
CONTINUOUS
 10
161.9109961529
 20
107.2379313151
 11
161.9102721232
 21
107.4916091436
  0
LINE
  5
37C
100
AcDbEntity
  8
ASSI
100
AcDbLine
 62
253
  6
CONTINUOUS
 10
161.9109961529
 20
107.2379313151
 11
161.9102721232
 21
107.4916091436
  0
LINE
  5
37D
100
AcDbEntity
  8
0
100
AcDbLine
 62
253
  6
CONTINUOUS
 10
161.9109961529
 20
107.2379313151
 11
161.9111172827
 21
86.8111207864
  0
LINE
  5
37E
100
AcDbEntity
  8
ASSI
100
AcDbLine
 62
253
  6
CONTINUOUS
 10
161.9109961529
 20
107.2379313151
 11
161.9111172827
 21
86.8111207864
  0
LINE
  5
37F
100
AcDbEntity
  8
0
100
AcDbLine
 62
253
  6
CONTINUOUS
 10
161.9106689566
 20
129.7845002773
 11
161.9105301736
 21
108.1181790537
  0
LINE
  5
380
100
AcDbEntity
  8
ASSI
100
AcDbLine
 62
253
  6
CONTINUOUS
 10
161.9106689566
 20
129.7845002773
 11
161.9105301736
 21
108.1181790537
  0
LINE
  5
381
100
AcDbEntity
  8
0
100
AcDbLine
 62
253
  6
CONTINUOUS
 10
161.9111172827
 20
86.8111207864
 11
161.9106689566
 21
85.7726722798
  0
LINE
  5
382
100
AcDbEntity
  8
ASSI
100
AcDbLine
 62
253
  6
CONTINUOUS
 10
161.9111172827
 20
86.8111207864
 11
161.9106689566
 21
85.7726722798
  0
LWPOLYLINE
  5
383
100
AcDbEntity
  8
0
100
AcDbPolyline
 62
253
  6
CONTINUOUS
 90
5
 70
0
 10
161.9105301736
 20
108.1181790537
 10
161.9101329339
 20
108.046543839
 10
161.909988972
 20
108.0326762713
 10
161.9098417957
 20
108.0241113962
 10
161.9096930034
 20
108.0209422341
  0
LWPOLYLINE
  5
384
100
AcDbEntity
  8
ASSI
100
AcDbPolyline
 62
253
  6
CONTINUOUS
 90
5
 70
0
 10
161.9105301736
 20
108.1181790537
 10
161.9101329339
 20
108.046543839
 10
161.909988972
 20
108.0326762713
 10
161.9098417957
 20
108.0241113962
 10
161.9096930034
 20
108.0209422341
  0
LWPOLYLINE
  5
385
100
AcDbEntity
  8
0
100
AcDbPolyline
 62
253
  6
CONTINUOUS
 90
55
 70
0
 10
150.6316996611
 20
122.8011224817
 10
150.7383010281
 20
122.7995331454
 10
150.8448239179
 20
122.7947483623
 10
150.9512611523
 20
122.7867268186
 10
151.0576055531
 20
122.7754272009
 10
151.1638499421
 20
122.7608081957
 10
151.269987141
 20
122.7428284894
 10
151.3759486441
 20
122.7214766226
 10
151.4814206346
 20
122.6968605526
 10
151.5860279679
 20
122.6691180912
 10
151.6893954996
 20
122.6383870498
 10
151.7911480853
 20
122.6048052401
 10
151.8909105804
 20
122.5685104735
 10
151.988363781
 20
122.5296460664
 10
152.0834122454
 20
122.4883773535
 10
152.1760164724
 20
122.4448751744
 10
152.2661369607
 20
122.3993103685
 10
152.3537342092
 20
122.3518537754
 10
152.4387687165
 20
122.3026762345
 10
152.5212210384
 20
122.2519282899
 10
152.601151958
 20
122.199679304
 10
152.6786423152
 20
122.1459783438
 10
152.75377295
 20
122.0908744762
 10
152.8266247024
 20
122.0344167682
 10
152.8972784123
 20
121.9766542868
 10
152.9792576503
 20
121.9056874311
 10
153.058222085
 20
121.8330051652
 10
153.1342056845
 20
121.758700296
 10
153.207242417
 20
121.6828656306
 10
153.2773662507
 20
121.6055939759
 10
153.3446173133
 20
121.5269616524
 10
153.4090603699
 20
121.4469790332
 10
153.4707663452
 20
121.3656400048
 10
153.5298061639
 20
121.2829384538
 10
153.5862507504
 20
121.1988682666
 10
153.6401598589
 20
121.1134186451
 10
153.6915485608
 20
121.0265600525
 10
153.7404207571
 20
120.9382582676
 10
153.7867803486
 20
120.8484790688
 10
153.8306312362
 20
120.7571882348
 10
153.8719644044
 20
120.664381594
 10
153.9107191709
 20
120.5701751747
 10
153.9468219372
 20
120.4747150547
 10
153.9801991047
 20
120.3781473121
 10
154.0107770747
 20
120.280618025
 10
154.0384926028
 20
120.1822659645
 10
154.0633238611
 20
120.0832006757
 10
154.0852593759
 20
119.9835243968
 10
154.1042876737
 20
119.8833393659
 10
154.1203972806
 20
119.7827478214
 10
154.1335791575
 20
119.6818481258
 10
154.1438340019
 20
119.5807231393
 10
154.1511649459
 20
119.4794518463
 10
154.1555751217
 20
119.3781132312
 10
154.1570676611
 20
119.2767862786
  0
LWPOLYLINE
  5
386
100
AcDbEntity
  8
0
100
AcDbPolyline
 62
253
  6
CONTINUOUS
 90
51
 70
0
 10
150.6316986611
 20
123.4016032786
 10
150.7645938241
 20
123.3994696361
 10
150.8975753556
 20
123.3930591309
 10
151.0306192549
 20
123.3823107355
 10
151.1637015214
 20
123.3671634222
 10
151.2967981546
 20
123.3475561633
 10
151.4298054039
 20
123.3234605146
 10
151.5623005203
 20
123.2949783647
 10
151.6937810047
 20
123.2622441853
 10
151.8237443582
 20
123.2253924483
 10
151.9516880818
 20
123.1845576256
 10
152.0771569747
 20
123.1398994219
 10
152.1998850278
 20
123.0916784732
 10
152.3196535304
 20
123.0401806486
 10
152.4362437716
 20
122.9856918171
 10
152.5494370406
 20
122.9284978477
 10
152.6590766439
 20
122.8688491127
 10
152.7652539583
 20
122.8068539988
 10
152.8681223782
 20
122.742585396
 10
152.9678352976
 20
122.6761161941
 10
153.0645461109
 20
122.6075192832
 10
153.158384535
 20
122.5368700129
 10
153.249385578
 20
122.4642535713
 10
153.3375605704
 20
122.3897576063
 10
153.4229208429
 20
122.3134697657
 10
153.5054777263
 20
122.2354776971
 10
153.5852469373
 20
122.1558630638
 10
153.6622617368
 20
122.0746835895
 10
153.7365597719
 20
121.9919910135
 10
153.8081786895
 20
121.9078370749
 10
153.8771561368
 20
121.822273513
 10
153.9597248362
 20
121.7133811966
 10
154.0383232213
 20
121.6022618251
 10
154.1130494519
 20
121.4888100374
 10
154.1840016879
 20
121.3729204723
 10
154.2512448875
 20
121.2545214912
 10
154.3147112041
 20
121.1336763452
 10
154.3742995895
 20
121.0104820079
 10
154.4299089956
 20
120.8850354526
 10
154.4814381844
 20
120.7574552887
 10
154.528785159
 20
120.6279466684
 10
154.5718477324
 20
120.4967363798
 10
154.6105237177
 20
120.3640512108
 10
154.6447230307
 20
120.2301206264
 10
154.6744039978
 20
120.0951847999
 10
154.699537048
 20
119.9594865814
 10
154.7200926103
 20
119.8232688211
 10
154.7360499433
 20
119.6867545083
 10
154.7474236247
 20
119.5500871897
 10
154.7542370615
 20
119.4133905512
 10
154.7565136611
 20
119.2767882786
  0
LWPOLYLINE
  5
387
100
AcDbEntity
  8
0
100
AcDbPolyline
 62
253
  6
CONTINUOUS
 90
10
 70
0
 10
172.8237891583
 20
86.2535106058
 10
172.8224953872
 20
86.2578631587
 10
172.8212234207
 20
86.2655570305
 10
172.8199732588
 20
86.2765922212
 10
172.8187383517
 20
86.2910576445
 10
172.8175252491
 20
86.3088643866
 10
172.8163536002
 20
86.329745706
 10
172.8152245918
 20
86.35374635
 10
172.814137037
 20
86.3808215712
 10
172.8131070249
 20
86.4105703857
  0
LWPOLYLINE
  5
388
100
AcDbEntity
  8
ASSI
100
AcDbPolyline
 62
253
  6
CONTINUOUS
 90
10
 70
0
 10
172.8237891583
 20
86.2535106058
 10
172.8224953872
 20
86.2578631587
 10
172.8212234207
 20
86.2655570305
 10
172.8199732588
 20
86.2765922212
 10
172.8187383517
 20
86.2910576445
 10
172.8175252491
 20
86.3088643866
 10
172.8163536002
 20
86.329745706
 10
172.8152245918
 20
86.35374635
 10
172.814137037
 20
86.3808215712
 10
172.8131070249
 20
86.4105703857
  0
LINE
  5
389
100
AcDbEntity
  8
0
100
AcDbLine
 62
7
  6
CONTINUOUS
 10
169.71967941
 20
129.9352905552
 11
169.368857688
 21
129.9034454374
  0
LINE
  5
38A
100
AcDbEntity
  8
ASSI
100
AcDbLine
 62
7
  6
CONTINUOUS
 10
169.71967941
 20
129.9352905552
 11
169.368857688
 21
129.9034454374
  0
LINE
  5
38B
100
AcDbEntity
  8
0
100
AcDbLine
 62
253
  6
CONTINUOUS
 10
172.3399967111
 20
128.6558376302
 11
166.8472470055
 21
128.6499000626
  0
LINE
  5
38C
100
AcDbEntity
  8
ASSI
100
AcDbLine
 62
253
  6
CONTINUOUS
 10
172.3399967111
 20
128.6558376302
 11
166.8472470055
 21
128.6499000626
  0
LINE
  5
38D
100
AcDbEntity
  8
0
100
AcDbLine
 62
253
  6
CONTINUOUS
 10
166.8472470055
 20
128.6499000626
 11
137.6083391093
 21
128.6486453226
  0
LINE
  5
38E
100
AcDbEntity
  8
ASSI
100
AcDbLine
 62
253
  6
CONTINUOUS
 10
166.8472470055
 20
128.6499000626
 11
137.6083391093
 21
128.6486453226
  0
LINE
  5
38F
100
AcDbEntity
  8
0
100
AcDbLine
 62
253
  6
CONTINUOUS
 10
137.6083391093
 20
128.6486453226
 11
133.3311126732
 21
128.6508155141
  0
LINE
  5
390
100
AcDbEntity
  8
ASSI
100
AcDbLine
 62
253
  6
CONTINUOUS
 10
137.6083391093
 20
128.6486453226
 11
133.3311126732
 21
128.6508155141
  0
LINE
  5
391
100
AcDbEntity
  8
0
100
AcDbLine
 62
253
  6
CONTINUOUS
 10
133.3311126732
 20
128.6508155141
 11
128.9822485801
 21
128.655837627
  0
LINE
  5
392
100
AcDbEntity
  8
ASSI
100
AcDbLine
 62
253
  6
CONTINUOUS
 10
133.3311126732
 20
128.6508155141
 11
128.9822485801
 21
128.655837627
  0
LINE
  5
393
100
AcDbEntity
  8
0
100
AcDbLine
 62
7
  6
CONTINUOUS
 10
131.6025659122
 20
129.9352905552
 11
131.9533876342
 21
129.9034454374
  0
LINE
  5
394
100
AcDbEntity
  8
ASSI
100
AcDbLine
 62
7
  6
CONTINUOUS
 10
131.6025659122
 20
129.9352905552
 11
131.9533876342
 21
129.9034454374
  0
LWPOLYLINE
  5
395
100
AcDbEntity
  8
0
100
AcDbPolyline
 62
253
  6
CONTINUOUS
 90
8
 70
0
 10
172.3232794027
 20
107.4098177293
 10
172.319655892
 20
107.4429162119
 10
172.3157416567
 20
107.4715585486
 10
172.3121097944
 20
107.4954808183
 10
172.3078560255
 20
107.5145200939
 10
172.3029824044
 20
107.5284189602
 10
172.2984641107
 20
107.5369649948
 10
172.2947885994
 20
107.5401070539
  0
LWPOLYLINE
  5
396
100
AcDbEntity
  8
ASSI
100
AcDbPolyline
 62
253
  6
CONTINUOUS
 90
8
 70
0
 10
172.3232794027
 20
107.4098177293
 10
172.319655892
 20
107.4429162119
 10
172.3157416567
 20
107.4715585486
 10
172.3121097944
 20
107.4954808183
 10
172.3078560255
 20
107.5145200939
 10
172.3029824044
 20
107.5284189602
 10
172.2984641107
 20
107.5369649948
 10
172.2947885994
 20
107.5401070539
  0
LWPOLYLINE
  5
397
100
AcDbEntity
  8
0
100
AcDbPolyline
 62
253
  6
CONTINUOUS
 90
19
 70
0
 10
172.7946172619
 20
107.0401260923
 10
172.7927505434
 20
107.0831833891
 10
172.7871630363
 20
107.1260404759
 10
172.7778653316
 20
107.1683730626
 10
172.7648884088
 20
107.2098787544
 10
172.7483043642
 20
107.2502106263
 10
172.7282456856
 20
107.2889877064
 10
172.7048547257
 20
107.3259069315
 10
172.6782984629
 20
107.3606807975
 10
172.6488167541
 20
107.3929880268
 10
172.61666387
 20
107.4225628448
 10
172.5820668756
 20
107.4492081685
 10
172.5452633721
 20
107.4727409219
 10
172.5065150222
 20
107.4929856095
 10
172.4661314279
 20
107.5097726909
 10
172.4244418532
 20
107.5229636848
 10
172.3817731852
 20
107.5324577495
 10
172.3384449501
 20
107.538186316
 10
172.2947885994
 20
107.5401070539
  0
LWPOLYLINE
  5
398
100
AcDbEntity
  8
ASSI
100
AcDbPolyline
 62
253
  6
CONTINUOUS
 90
19
 70
0
 10
172.7946172619
 20
107.0401260923
 10
172.7927505434
 20
107.0831833891
 10
172.7871630363
 20
107.1260404759
 10
172.7778653316
 20
107.1683730626
 10
172.7648884088
 20
107.2098787544
 10
172.7483043642
 20
107.2502106263
 10
172.7282456856
 20
107.2889877064
 10
172.7048547257
 20
107.3259069315
 10
172.6782984629
 20
107.3606807975
 10
172.6488167541
 20
107.3929880268
 10
172.61666387
 20
107.4225628448
 10
172.5820668756
 20
107.4492081685
 10
172.5452633721
 20
107.4727409219
 10
172.5065150222
 20
107.4929856095
 10
172.4661314279
 20
107.5097726909
 10
172.4244418532
 20
107.5229636848
 10
172.3817731852
 20
107.5324577495
 10
172.3384449501
 20
107.538186316
 10
172.2947885994
 20
107.5401070539
  0
LWPOLYLINE
  5
399
100
AcDbEntity
  8
0
100
AcDbPolyline
 62
253
  6
CONTINUOUS
 90
4
 70
0
 10
172.3335385019
 20
107.2415599593
 10
172.3317469111
 20
107.2882708869
 10
172.3290435946
 20
107.33224109
 10
172.3232794027
 20
107.4098177293
  0
LWPOLYLINE
  5
39A
100
AcDbEntity
  8
ASSI
100
AcDbPolyline
 62
253
  6
CONTINUOUS
 90
4
 70
0
 10
172.3335385019
 20
107.2415599593
 10
172.3317469111
 20
107.2882708869
 10
172.3290435946
 20
107.33224109
 10
172.3232794027
 20
107.4098177293
  0
LWPOLYLINE
  5
39B
100
AcDbEntity
  8
0
100
AcDbPolyline
 62
253
  6
CONTINUOUS
 90
6
 70
0
 10
172.3293097951
 20
129.7079797474
 10
172.3282792939
 20
129.7383977159
 10
172.3272081887
 20
129.7632177616
 10
172.3261024076
 20
129.7823148353
 10
172.3250105578
 20
129.7955906988
 10
172.3239604977
 20
129.8029767226
  0
LWPOLYLINE
  5
39C
100
AcDbEntity
  8
ASSI
100
AcDbPolyline
 62
253
  6
CONTINUOUS
 90
6
 70
0
 10
172.3293097951
 20
129.7079797474
 10
172.3282792939
 20
129.7383977159
 10
172.3272081887
 20
129.7632177616
 10
172.3261024076
 20
129.7823148353
 10
172.3250105578
 20
129.7955906988
 10
172.3239604977
 20
129.8029767226
  0
LINE
  5
39D
100
AcDbEntity
  8
0
100
AcDbLine
 62
253
  6
CONTINUOUS
 10
172.8131070249
 20
86.4105703857
 11
172.8112213402
 21
86.4781720933
  0
LINE
  5
39E
100
AcDbEntity
  8
ASSI
100
AcDbLine
 62
253
  6
CONTINUOUS
 10
172.8131070249
 20
86.4105703857
 11
172.8112213402
 21
86.4781720933
  0
LINE
  5
39F
100
AcDbEntity
  8
0
100
AcDbLine
 62
253
  6
CONTINUOUS
 10
172.3313360287
 20
129.6309737116
 11
172.3293097951
 21
129.7079797474
  0
LINE
  5
3A0
100
AcDbEntity
  8
ASSI
100
AcDbLine
 62
253
  6
CONTINUOUS
 10
172.3313360287
 20
129.6309737116
 11
172.3293097951
 21
129.7079797474
  0
LINE
  5
3A1
100
AcDbEntity
  8
0
100
AcDbLine
 62
253
  6
CONTINUOUS
 10
172.8112213402
 20
86.4781720933
 11
172.8096075256
 21
86.5549200558
  0
LINE
  5
3A2
100
AcDbEntity
  8
ASSI
100
AcDbLine
 62
253
  6
CONTINUOUS
 10
172.8112213402
 20
86.4781720933
 11
172.8096075256
 21
86.5549200558
  0
LINE
  5
3A3
100
AcDbEntity
  8
0
100
AcDbLine
 62
253
  6
CONTINUOUS
 10
172.3332068449
 20
129.5337270392
 11
172.3313360287
 21
129.6309737116
  0
LINE
  5
3A4
100
AcDbEntity
  8
ASSI
100
AcDbLine
 62
253
  6
CONTINUOUS
 10
172.3332068449
 20
129.5337270392
 11
172.3313360287
 21
129.6309737116
  0
LINE
  5
3A5
100
AcDbEntity
  8
0
100
AcDbLine
 62
253
  6
CONTINUOUS
 10
172.8096075256
 20
86.5549200558
 11
172.8082892228
 21
86.6396733678
  0
LINE
  5
3A6
100
AcDbEntity
  8
ASSI
100
AcDbLine
 62
253
  6
CONTINUOUS
 10
172.8096075256
 20
86.5549200558
 11
172.8082892228
 21
86.6396733678
  0
LINE
  5
3A7
100
AcDbEntity
  8
0
100
AcDbLine
 62
253
  6
CONTINUOUS
 10
172.3357022936
 20
129.3542527595
 11
172.3332068449
 21
129.5337270392
  0
LINE
  5
3A8
100
AcDbEntity
  8
ASSI
100
AcDbLine
 62
253
  6
CONTINUOUS
 10
172.3357022936
 20
129.3542527595
 11
172.3332068449
 21
129.5337270392
  0
LINE
  5
3A9
100
AcDbEntity
  8
0
100
AcDbLine
 62
253
  6
CONTINUOUS
 10
172.8082892228
 20
86.6396733678
 11
172.806930771
 21
86.7776835225
  0
LINE
  5
3AA
100
AcDbEntity
  8
ASSI
100
AcDbLine
 62
253
  6
CONTINUOUS
 10
172.8082892228
 20
86.6396733678
 11
172.806930771
 21
86.7776835225
  0
LINE
  5
3AB
100
AcDbEntity
  8
0
100
AcDbLine
 62
253
  6
CONTINUOUS
 10
172.338271629
 20
129.0650610491
 11
172.3357022936
 21
129.3542527595
  0
LINE
  5
3AC
100
AcDbEntity
  8
ASSI
100
AcDbLine
 62
253
  6
CONTINUOUS
 10
172.338271629
 20
129.0650610491
 11
172.3357022936
 21
129.3542527595
  0
LWPOLYLINE
  5
3AD
100
AcDbEntity
  8
0
100
AcDbPolyline
 62
253
  6
CONTINUOUS
 90
3
 70
0
 10
172.3372623395
 20
108.5178042444
 10
172.3374887336
 20
108.4648158365
 10
172.3366392718
 20
108.413566171
  0
LWPOLYLINE
  5
3AE
100
AcDbEntity
  8
ASSI
100
AcDbPolyline
 62
253
  6
CONTINUOUS
 90
3
 70
0
 10
172.3372623395
 20
108.5178042444
 10
172.3374887336
 20
108.4648158365
 10
172.3366392718
 20
108.413566171
  0
LINE
  5
3AF
100
AcDbEntity
  8
0
100
AcDbLine
 62
253
  6
CONTINUOUS
 10
172.3399966741
 20
128.6558376261
 11
172.338271629
 21
129.0650610491
  0
LINE
  5
3B0
100
AcDbEntity
  8
ASSI
100
AcDbLine
 62
253
  6
CONTINUOUS
 10
172.3399966741
 20
128.6558376261
 11
172.338271629
 21
129.0650610491
  0
LINE
  5
3B1
100
AcDbEntity
  8
0
100
AcDbLine
 62
7
  6
CONTINUOUS
 10
172.8906984717
 20
129.4375724009
 11
172.9103068631
 21
120.8785862786
  0
LINE
  5
3B2
100
AcDbEntity
  8
ASSI
100
AcDbLine
 62
7
  6
CONTINUOUS
 10
172.8906984717
 20
129.4375724009
 11
172.9103068631
 21
120.8785862786
  0
LINE
  5
3B3
100
AcDbEntity
  8
0
100
AcDbLine
 62
253
  6
CONTINUOUS
 10
172.806930771
 20
86.7776835225
 11
172.8063627153
 21
86.9227698072
  0
LINE
  5
3B4
100
AcDbEntity
  8
ASSI
100
AcDbLine
 62
253
  6
CONTINUOUS
 10
172.806930771
 20
86.7776835225
 11
172.8063627153
 21
86.9227698072
  0
LINE
  5
3B5
100
AcDbEntity
  8
0
100
AcDbLine
 62
253
  6
CONTINUOUS
 10
172.8063627153
 20
86.9227698072
 11
172.7983835598
 21
95.9210391766
  0
LINE
  5
3B6
100
AcDbEntity
  8
ASSI
100
AcDbLine
 62
253
  6
CONTINUOUS
 10
172.8063627153
 20
86.9227698072
 11
172.7983835598
 21
95.9210391766
  0
LWPOLYLINE
  5
3B7
100
AcDbEntity
  8
0
100
AcDbPolyline
 62
253
  6
CONTINUOUS
 90
3
 70
0
 10
172.7983835598
 20
95.9210391766
 10
172.7948756721
 20
104.7321761483
 10
172.7946172619
 20
107.0401260923
  0
LWPOLYLINE
  5
3B8
100
AcDbEntity
  8
ASSI
100
AcDbPolyline
 62
253
  6
CONTINUOUS
 90
3
 70
0
 10
172.7983835598
 20
95.9210391766
 10
172.7948756721
 20
104.7321761483
 10
172.7946172619
 20
107.0401260923
  0
LINE
  5
3B9
100
AcDbEntity
  8
0
100
AcDbLine
 62
7
  6
CONTINUOUS
 10
172.9103068631
 20
120.8785862786
 11
172.9103068631
 21
108.4784910964
  0
LINE
  5
3BA
100
AcDbEntity
  8
ASSI
100
AcDbLine
 62
7
  6
CONTINUOUS
 10
172.9103068631
 20
120.8785862786
 11
172.9103068631
 21
108.4784910964
  0
LINE
  5
3BB
100
AcDbEntity
  8
0
100
AcDbLine
 62
7
  6
CONTINUOUS
 10
172.9103068631
 20
94.6785862786
 11
172.9103068631
 21
107.0786814608
  0
LINE
  5
3BC
100
AcDbEntity
  8
ASSI
100
AcDbLine
 62
7
  6
CONTINUOUS
 10
172.9103068631
 20
94.6785862786
 11
172.9103068631
 21
107.0786814608
  0
LINE
  5
3BD
100
AcDbEntity
  8
0
100
AcDbLine
 62
253
  6
CONTINUOUS
 10
172.3372622666
 20
108.5178042365
 11
172.3399967111
 21
128.6558376302
  0
LINE
  5
3BE
100
AcDbEntity
  8
ASSI
100
AcDbLine
 62
253
  6
CONTINUOUS
 10
172.3372622666
 20
108.5178042365
 11
172.3399967111
 21
128.6558376302
  0
LINE
  5
3BF
100
AcDbEntity
  8
0
100
AcDbLine
 62
253
  6
CONTINUOUS
 10
172.7946172636
 20
108.5170464643
 11
172.7980537774
 21
119.1110111972
  0
LINE
  5
3C0
100
AcDbEntity
  8
ASSI
100
AcDbLine
 62
253
  6
CONTINUOUS
 10
172.7946172636
 20
108.5170464643
 11
172.7980537774
 21
119.1110111972
  0
LINE
  5
3C1
100
AcDbEntity
  8
0
100
AcDbLine
 62
7
  6
CONTINUOUS
 10
172.8906984717
 20
86.1196001563
 11
172.9103068631
 21
94.6785862786
  0
LINE
  5
3C2
100
AcDbEntity
  8
ASSI
100
AcDbLine
 62
7
  6
CONTINUOUS
 10
172.8906984717
 20
86.1196001563
 11
172.9103068631
 21
94.6785862786
  0
LINE
  5
3C3
100
AcDbEntity
  8
0
100
AcDbLine
 62
253
  6
CONTINUOUS
 10
172.3395239566
 20
86.7339908462
 11
172.3372622643
 21
107.039368324
  0
LINE
  5
3C4
100
AcDbEntity
  8
ASSI
100
AcDbLine
 62
253
  6
CONTINUOUS
 10
172.3395239566
 20
86.7339908462
 11
172.3372622643
 21
107.039368324
  0
LINE
  5
3C5
100
AcDbEntity
  8
0
100
AcDbLine
 62
253
  6
CONTINUOUS
 10
172.7980537774
 20
119.1110111972
 11
172.8066535994
 21
128.7319131826
  0
LINE
  5
3C6
100
AcDbEntity
  8
ASSI
100
AcDbLine
 62
253
  6
CONTINUOUS
 10
172.7980537774
 20
119.1110111972
 11
172.8066535994
 21
128.7319131826
  0
LWPOLYLINE
  5
3C7
100
AcDbEntity
  8
0
100
AcDbPolyline
 62
253
  6
CONTINUOUS
 90
4
 70
0
 10
172.3372623377
 20
107.0393683197
 10
172.3374886029
 20
107.092354732
 10
172.3366392221
 20
107.1436027251
 10
172.3335385019
 20
107.2415599593
  0
LWPOLYLINE
  5
3C8
100
AcDbEntity
  8
ASSI
100
AcDbPolyline
 62
253
  6
CONTINUOUS
 90
4
 70
0
 10
172.3372623377
 20
107.0393683197
 10
172.3374886029
 20
107.092354732
 10
172.3366392221
 20
107.1436027251
 10
172.3335385019
 20
107.2415599593
  0
LINE
  5
3C9
100
AcDbEntity
  8
0
100
AcDbLine
 62
253
  6
CONTINUOUS
 10
172.3371023269
 20
86.3415187568
 11
172.3395239566
 21
86.7339908462
  0
LINE
  5
3CA
100
AcDbEntity
  8
ASSI
100
AcDbLine
 62
253
  6
CONTINUOUS
 10
172.3371023269
 20
86.3415187568
 11
172.3395239566
 21
86.7339908462
  0
LINE
  5
3CB
100
AcDbEntity
  8
0
100
AcDbLine
 62
253
  6
CONTINUOUS
 10
172.8066535994
 20
128.7319131826
 11
172.8077530111
 21
128.8727796813
  0
LINE
  5
3CC
100
AcDbEntity
  8
ASSI
100
AcDbLine
 62
253
  6
CONTINUOUS
 10
172.8066535994
 20
128.7319131826
 11
172.8077530111
 21
128.8727796813
  0
LINE
  5
3CD
100
AcDbEntity
  8
0
100
AcDbLine
 62
253
  6
CONTINUOUS
 10
172.33491566
 20
86.1389889409
 11
172.3371023269
 21
86.3415187568
  0
LINE
  5
3CE
100
AcDbEntity
  8
ASSI
100
AcDbLine
 62
253
  6
CONTINUOUS
 10
172.33491566
 20
86.1389889409
 11
172.3371023269
 21
86.3415187568
  0
LINE
  5
3CF
100
AcDbEntity
  8
0
100
AcDbLine
 62
253
  6
CONTINUOUS
 10
172.8077530111
 20
128.8727796813
 11
172.8089077844
 21
128.9606421955
  0
LINE
  5
3D0
100
AcDbEntity
  8
ASSI
100
AcDbLine
 62
253
  6
CONTINUOUS
 10
172.8077530111
 20
128.8727796813
 11
172.8089077844
 21
128.9606421955
  0
LINE
  5
3D1
100
AcDbEntity
  8
0
100
AcDbLine
 62
253
  6
CONTINUOUS
 10
172.3332069091
 20
86.0234455242
 11
172.33491566
 21
86.1389889409
  0
LINE
  5
3D2
100
AcDbEntity
  8
ASSI
100
AcDbLine
 62
253
  6
CONTINUOUS
 10
172.3332069091
 20
86.0234455242
 11
172.33491566
 21
86.1389889409
  0
LINE
  5
3D3
100
AcDbEntity
  8
0
100
AcDbLine
 62
253
  6
CONTINUOUS
 10
172.8089077844
 20
128.9606421955
 11
172.810378336
 21
129.041715159
  0
LINE
  5
3D4
100
AcDbEntity
  8
ASSI
100
AcDbLine
 62
253
  6
CONTINUOUS
 10
172.8089077844
 20
128.9606421955
 11
172.810378336
 21
129.041715159
  0
LINE
  5
3D5
100
AcDbEntity
  8
0
100
AcDbLine
 62
253
  6
CONTINUOUS
 10
172.3313360804
 20
85.9261988505
 11
172.3332069091
 21
86.0234455242
  0
LINE
  5
3D6
100
AcDbEntity
  8
ASSI
100
AcDbLine
 62
253
  6
CONTINUOUS
 10
172.3313360804
 20
85.9261988505
 11
172.3332069091
 21
86.0234455242
  0
LWPOLYLINE
  5
3D7
100
AcDbEntity
  8
0
100
AcDbPolyline
 62
253
  6
CONTINUOUS
 90
12
 70
0
 10
172.810378336
 20
129.041715159
 10
172.8121354134
 20
129.1141381201
 10
172.8131070271
 20
129.1466021771
 10
172.8141370392
 20
129.1763509913
 10
172.8152245939
 20
129.2034262122
 10
172.8163536024
 20
129.227426856
 10
172.8175252512
 20
129.2483081752
 10
172.8187383537
 20
129.2661149172
 10
172.8199732608
 20
129.2805803404
 10
172.8212234227
 20
129.2916155309
 10
172.8224953892
 20
129.2993094025
 10
172.8237891602
 20
129.3036619553
  0
LWPOLYLINE
  5
3D8
100
AcDbEntity
  8
ASSI
100
AcDbPolyline
 62
253
  6
CONTINUOUS
 90
12
 70
0
 10
172.810378336
 20
129.041715159
 10
172.8121354134
 20
129.1141381201
 10
172.8131070271
 20
129.1466021771
 10
172.8141370392
 20
129.1763509913
 10
172.8152245939
 20
129.2034262122
 10
172.8163536024
 20
129.227426856
 10
172.8175252512
 20
129.2483081752
 10
172.8187383537
 20
129.2661149172
 10
172.8199732608
 20
129.2805803404
 10
172.8212234227
 20
129.2916155309
 10
172.8224953892
 20
129.2993094025
 10
172.8237891602
 20
129.3036619553
  0
LWPOLYLINE
  5
3D9
100
AcDbEntity
  8
0
100
AcDbPolyline
 62
253
  6
CONTINUOUS
 90
4
 70
0
 10
172.3366392718
 20
108.413566171
 10
172.3335382547
 20
108.3156066006
 10
172.3317466252
 20
108.2688950141
 10
172.3290431717
 20
108.224924594
  0
LWPOLYLINE
  5
3DA
100
AcDbEntity
  8
ASSI
100
AcDbPolyline
 62
253
  6
CONTINUOUS
 90
4
 70
0
 10
172.3366392718
 20
108.413566171
 10
172.3335382547
 20
108.3156066006
 10
172.3317466252
 20
108.2688950141
 10
172.3290431717
 20
108.224924594
  0
LWPOLYLINE
  5
3DB
100
AcDbEntity
  8
0
100
AcDbPolyline
 62
253
  6
CONTINUOUS
 90
19
 70
0
 10
172.7946172636
 20
108.5170464643
 10
172.7927505421
 20
108.4739891323
 10
172.7871630266
 20
108.4311320153
 10
172.7778653094
 20
108.388799404
 10
172.7648883704
 20
108.3472936908
 10
172.7483043074
 20
108.3069618038
 10
172.7282456138
 20
108.268184722
 10
172.7048546503
 20
108.2312655143
 10
172.6782983945
 20
108.196491675
 10
172.6488166933
 20
108.1641844669
 10
172.6166638103
 20
108.13460966
 10
172.5820668146
 20
108.1079643439
 10
172.5452633121
 20
108.0844315989
 10
172.506514968
 20
108.064186921
 10
172.4661313824
 20
108.0473998485
 10
172.424441818
 20
108.0342088618
 10
172.3817731612
 20
108.0247148026
 10
172.3384449386
 20
108.0189862395
 10
172.2947886011
 20
108.0170655027
  0
LWPOLYLINE
  5
3DC
100
AcDbEntity
  8
ASSI
100
AcDbPolyline
 62
253
  6
CONTINUOUS
 90
19
 70
0
 10
172.7946172636
 20
108.5170464643
 10
172.7927505421
 20
108.4739891323
 10
172.7871630266
 20
108.4311320153
 10
172.7778653094
 20
108.388799404
 10
172.7648883704
 20
108.3472936908
 10
172.7483043074
 20
108.3069618038
 10
172.7282456138
 20
108.268184722
 10
172.7048546503
 20
108.2312655143
 10
172.6782983945
 20
108.196491675
 10
172.6488166933
 20
108.1641844669
 10
172.6166638103
 20
108.13460966
 10
172.5820668146
 20
108.1079643439
 10
172.5452633121
 20
108.0844315989
 10
172.506514968
 20
108.064186921
 10
172.4661313824
 20
108.0473998485
 10
172.424441818
 20
108.0342088618
 10
172.3817731612
 20
108.0247148026
 10
172.3384449386
 20
108.0189862395
 10
172.2947886011
 20
108.0170655027
  0
LWPOLYLINE
  5
3DD
100
AcDbEntity
  8
0
100
AcDbPolyline
 62
253
  6
CONTINUOUS
 90
9
 70
0
 10
172.3290431717
 20
108.224924594
 10
172.3232788322
 20
108.147348893
 10
172.3196553127
 20
108.1142513383
 10
172.3157410556
 20
108.0856101179
 10
172.3121092557
 20
108.0616890277
 10
172.3078556073
 20
108.0426508188
 10
172.3029821323
 20
108.0287528051
 10
172.2984639919
 20
108.0202073439
 10
172.2947886007
 20
108.0170655027
  0
LWPOLYLINE
  5
3DE
100
AcDbEntity
  8
ASSI
100
AcDbPolyline
 62
253
  6
CONTINUOUS
 90
9
 70
0
 10
172.3290431717
 20
108.224924594
 10
172.3232788322
 20
108.147348893
 10
172.3196553127
 20
108.1142513383
 10
172.3157410556
 20
108.0856101179
 10
172.3121092557
 20
108.0616890277
 10
172.3078556073
 20
108.0426508188
 10
172.3029821323
 20
108.0287528051
 10
172.2984639919
 20
108.0202073439
 10
172.2947886007
 20
108.0170655027
  0
LINE
  5
3DF
100
AcDbEntity
  8
0
100
AcDbLine
 62
7
  6
CONTINUOUS
 10
158.51967941
 20
129.9352905552
 11
158.168857688
 21
129.9034454374
  0
LINE
  5
3E0
100
AcDbEntity
  8
ASSI
100
AcDbLine
 62
7
  6
CONTINUOUS
 10
158.51967941
 20
129.9352905552
 11
158.168857688
 21
129.9034454374
  0
LINE
  5
3E1
100
AcDbEntity
  8
0
100
AcDbLine
 62
7
  6
CONTINUOUS
 10
147.21967941
 20
129.9352905552
 11
146.868857688
 21
129.9034454374
  0
LINE
  5
3E2
100
AcDbEntity
  8
ASSI
100
AcDbLine
 62
7
  6
CONTINUOUS
 10
147.21967941
 20
129.9352905552
 11
146.868857688
 21
129.9034454374
  0
LINE
  5
3E3
100
AcDbEntity
  8
0
100
AcDbLine
 62
7
  6
CONTINUOUS
 10
136.01967941
 20
129.9352905552
 11
135.668857688
 21
129.9034454374
  0
LINE
  5
3E4
100
AcDbEntity
  8
ASSI
100
AcDbLine
 62
7
  6
CONTINUOUS
 10
136.01967941
 20
129.9352905552
 11
135.668857688
 21
129.9034454374
  0
LWPOLYLINE
  5
3E5
100
AcDbEntity
  8
0
100
AcDbPolyline
 62
253
  6
CONTINUOUS
 90
16
 70
0
 10
128.9982848264
 20
129.8029767188
 10
128.9460832
 20
129.8001746736
 10
128.8944525884
 20
129.7919420841
 10
128.8439576917
 20
129.7783690138
 10
128.7951507699
 20
129.7596039294
 10
128.7485656483
 20
129.7358520934
 10
128.7047118716
 20
129.7073733332
 10
128.6640690673
 20
129.6744791645
 10
128.6270817226
 20
129.6375293802
 10
128.5941543591
 20
129.596928145
 10
128.5656470795
 20
129.5531195537
 10
128.5418716272
 20
129.5065827567
 10
128.5230879929
 20
129.4578267318
 10
128.5095015764
 20
129.4073847288
 10
128.5012609367
 20
129.3558084397
 10
128.498456164
 20
129.3036619514
  0
LWPOLYLINE
  5
3E6
100
AcDbEntity
  8
ASSI
100
AcDbPolyline
 62
253
  6
CONTINUOUS
 90
16
 70
0
 10
128.9982848264
 20
129.8029767188
 10
128.9460832
 20
129.8001746736
 10
128.8944525884
 20
129.7919420841
 10
128.8439576917
 20
129.7783690138
 10
128.7951507699
 20
129.7596039294
 10
128.7485656483
 20
129.7358520934
 10
128.7047118716
 20
129.7073733332
 10
128.6640690673
 20
129.6744791645
 10
128.6270817226
 20
129.6375293802
 10
128.5941543591
 20
129.596928145
 10
128.5656470795
 20
129.5531195537
 10
128.5418716272
 20
129.5065827567
 10
128.5230879929
 20
129.4578267318
 10
128.5095015764
 20
129.4073847288
 10
128.5012609367
 20
129.3558084397
 10
128.498456164
 20
129.3036619514
  0
LWPOLYLINE
  5
3E7
100
AcDbEntity
  8
0
100
AcDbPolyline
 62
253
  6
CONTINUOUS
 90
14
 70
0
 10
128.8852405344
 20
128.6550310563
 10
128.8384009649
 20
128.6543252771
 10
128.7932806978
 20
128.6534263177
 10
128.7503172452
 20
128.6523428948
 10
128.7099272054
 20
128.651085514
 10
128.6725022233
 20
128.6496663676
 10
128.6384051932
 20
128.6480992163
 10
128.6079667393
 20
128.6463992562
 10
128.5814820103
 20
128.6445829711
 10
128.5592078175
 20
128.6426679726
 10
128.5413601441
 20
128.6406728298
 10
128.5281120514
 20
128.6386168887
 10
128.5195920006
 20
128.6365200848
 10
128.515882607
 20
128.63440275
  0
LWPOLYLINE
  5
3E8
100
AcDbEntity
  8
ASSI
100
AcDbPolyline
 62
253
  6
CONTINUOUS
 90
14
 70
0
 10
128.8852405344
 20
128.6550310563
 10
128.8384009649
 20
128.6543252771
 10
128.7932806978
 20
128.6534263177
 10
128.7503172452
 20
128.6523428948
 10
128.7099272054
 20
128.651085514
 10
128.6725022233
 20
128.6496663676
 10
128.6384051932
 20
128.6480992163
 10
128.6079667393
 20
128.6463992562
 10
128.5814820103
 20
128.6445829711
 10
128.5592078175
 20
128.6426679726
 10
128.5413601441
 20
128.6406728298
 10
128.5281120514
 20
128.6386168887
 10
128.5195920006
 20
128.6365200848
 10
128.515882607
 20
128.63440275
  0
LINE
  5
3E9
100
AcDbEntity
  8
0
100
AcDbLine
 62
253
  6
CONTINUOUS
 10
128.9822485803
 20
128.6558376389
 11
128.8852405344
 21
128.6550310563
  0
LINE
  5
3EA
100
AcDbEntity
  8
ASSI
100
AcDbLine
 62
253
  6
CONTINUOUS
 10
128.9822485803
 20
128.6558376389
 11
128.8852405344
 21
128.6550310563
  0
LINE
  5
3EB
100
AcDbEntity
  8
0
100
AcDbLine
 62
253
  6
CONTINUOUS
 10
172.3239604977
 20
129.8029767226
 11
169.0750429523
 21
129.7932607817
  0
LINE
  5
3EC
100
AcDbEntity
  8
ASSI
100
AcDbLine
 62
253
  6
CONTINUOUS
 10
172.3239604977
 20
129.8029767226
 11
169.0750429523
 21
129.7932607817
  0
LINE
  5
3ED
100
AcDbEntity
  8
0
100
AcDbLine
 62
253
  6
CONTINUOUS
 10
169.0750429523
 20
129.7932607817
 11
165.6722349794
 21
129.7869427366
  0
LINE
  5
3EE
100
AcDbEntity
  8
ASSI
100
AcDbLine
 62
253
  6
CONTINUOUS
 10
169.0750429523
 20
129.7932607817
 11
165.6722349794
 21
129.7869427366
  0
LINE
  5
3EF
100
AcDbEntity
  8
0
100
AcDbLine
 62
253
  6
CONTINUOUS
 10
165.6722349794
 20
129.7869427366
 11
161.9106689566
 21
129.7845002773
  0
LINE
  5
3F0
100
AcDbEntity
  8
ASSI
100
AcDbLine
 62
253
  6
CONTINUOUS
 10
165.6722349794
 20
129.7869427366
 11
161.9106689566
 21
129.7845002773
  0
LINE
  5
3F1
100
AcDbEntity
  8
0
100
AcDbLine
 62
7
  6
CONTINUOUS
 10
146.6956526073
 20
129.8982046594
 11
143.326592715
 21
129.8982046594
  0
LINE
  5
3F2
100
AcDbEntity
  8
ASSI
100
AcDbLine
 62
7
  6
CONTINUOUS
 10
146.6956526073
 20
129.8982046594
 11
143.326592715
 21
129.8982046594
  0
LINE
  5
3F3
100
AcDbEntity
  8
0
100
AcDbLine
 62
7
  6
CONTINUOUS
 10
135.4956526073
 20
129.8982046594
 11
132.126592715
 21
129.8982046594
  0
LINE
  5
3F4
100
AcDbEntity
  8
ASSI
100
AcDbLine
 62
7
  6
CONTINUOUS
 10
135.4956526073
 20
129.8982046594
 11
132.126592715
 21
129.8982046594
  0
LINE
  5
3F5
100
AcDbEntity
  8
0
100
AcDbLine
 62
7
  6
CONTINUOUS
 10
154.626592715
 20
129.8982046594
 11
157.9956526073
 21
129.8982046594
  0
LINE
  5
3F6
100
AcDbEntity
  8
ASSI
100
AcDbLine
 62
7
  6
CONTINUOUS
 10
154.626592715
 20
129.8982046594
 11
157.9956526073
 21
129.8982046594
  0
LINE
  5
3F7
100
AcDbEntity
  8
0
100
AcDbLine
 62
7
  6
CONTINUOUS
 10
165.826592715
 20
129.8982046594
 11
169.1956526073
 21
129.8982046594
  0
LINE
  5
3F8
100
AcDbEntity
  8
ASSI
100
AcDbLine
 62
7
  6
CONTINUOUS
 10
165.826592715
 20
129.8982046594
 11
169.1956526073
 21
129.8982046594
  0
LINE
  5
3F9
100
AcDbEntity
  8
0
100
AcDbLine
 62
7
  6
CONTINUOUS
 10
172.3900720501
 20
129.9352905552
 11
169.71967941
 21
129.9352905552
  0
LINE
  5
3FA
100
AcDbEntity
  8
ASSI
100
AcDbLine
 62
7
  6
CONTINUOUS
 10
172.3900720501
 20
129.9352905552
 11
169.71967941
 21
129.9352905552
  0
LINE
  5
3FB
100
AcDbEntity
  8
0
100
AcDbLine
 62
7
  6
CONTINUOUS
 10
165.3025659122
 20
129.9352905552
 11
158.51967941
 21
129.9352905552
  0
LINE
  5
3FC
100
AcDbEntity
  8
ASSI
100
AcDbLine
 62
7
  6
CONTINUOUS
 10
165.3025659122
 20
129.9352905552
 11
158.51967941
 21
129.9352905552
  0
LINE
  5
3FD
100
AcDbEntity
  8
0
100
AcDbLine
 62
7
  6
CONTINUOUS
 10
154.1025659122
 20
129.9352905552
 11
147.21967941
 21
129.9352905552
  0
LINE
  5
3FE
100
AcDbEntity
  8
ASSI
100
AcDbLine
 62
7
  6
CONTINUOUS
 10
154.1025659122
 20
129.9352905552
 11
147.21967941
 21
129.9352905552
  0
LINE
  5
3FF
100
AcDbEntity
  8
0
100
AcDbLine
 62
7
  6
CONTINUOUS
 10
142.8025659122
 20
129.9352905552
 11
136.01967941
 21
129.9352905552
  0
LINE
  5
400
100
AcDbEntity
  8
ASSI
100
AcDbLine
 62
7
  6
CONTINUOUS
 10
142.8025659122
 20
129.9352905552
 11
136.01967941
 21
129.9352905552
  0
LINE
  5
401
100
AcDbEntity
  8
0
100
AcDbLine
 62
7
  6
CONTINUOUS
 10
131.6025659122
 20
129.9352905552
 11
128.9321732722
 21
129.9352905552
  0
LINE
  5
402
100
AcDbEntity
  8
ASSI
100
AcDbLine
 62
7
  6
CONTINUOUS
 10
131.6025659122
 20
129.9352905552
 11
128.9321732722
 21
129.9352905552
  0
LINE
  5
403
100
AcDbEntity
  8
0
100
AcDbLine
 62
253
  6
CONTINUOUS
 10
161.9106689566
 20
129.7845002773
 11
136.7338006982
 21
129.7857521611
  0
LINE
  5
404
100
AcDbEntity
  8
ASSI
100
AcDbLine
 62
253
  6
CONTINUOUS
 10
161.9106689566
 20
129.7845002773
 11
136.7338006982
 21
129.7857521611
  0
LINE
  5
405
100
AcDbEntity
  8
0
100
AcDbLine
 62
253
  6
CONTINUOUS
 10
136.7338006982
 20
129.7857521611
 11
133.3443204609
 21
129.7907876517
  0
LINE
  5
406
100
AcDbEntity
  8
ASSI
100
AcDbLine
 62
253
  6
CONTINUOUS
 10
136.7338006982
 20
129.7857521611
 11
133.3443204609
 21
129.7907876517
  0
LWPOLYLINE
  5
407
100
AcDbEntity
  8
0
100
AcDbPolyline
 62
253
  6
CONTINUOUS
 90
3
 70
0
 10
133.3443204609
 20
129.7907876517
 10
129.8951024413
 20
129.7999533119
 10
128.9982848264
 20
129.8029767188
  0
LWPOLYLINE
  5
408
100
AcDbEntity
  8
ASSI
100
AcDbPolyline
 62
253
  6
CONTINUOUS
 90
3
 70
0
 10
133.3443204609
 20
129.7907876517
 10
129.8951024413
 20
129.7999533119
 10
128.9982848264
 20
129.8029767188
  0
LWPOLYLINE
  5
409
100
AcDbEntity
  8
0
100
AcDbPolyline
 62
253
  6
CONTINUOUS
 90
15
 70
0
 10
172.3399958183
 20
128.6558370958
 10
172.4370029623
 20
128.6550305395
 10
172.4838421414
 20
128.6543247823
 10
172.5289620757
 20
128.6534258503
 10
172.5719252649
 20
128.65234246
 10
172.6123151216
 20
128.6510851159
 10
172.6497400101
 20
128.6496660098
 10
172.6838370446
 20
128.6480989018
 10
172.7142756071
 20
128.6463989873
 10
172.7407605536
 20
128.6445827492
 10
172.7630350759
 20
128.6426677985
 10
172.7808831919
 20
128.6406727033
 10
172.7941318393
 20
128.6386168088
 10
172.8026525542
 20
128.6365200497
 10
172.8063627164
 20
128.634402757
  0
LWPOLYLINE
  5
40A
100
AcDbEntity
  8
ASSI
100
AcDbPolyline
 62
253
  6
CONTINUOUS
 90
15
 70
0
 10
172.3399958183
 20
128.6558370958
 10
172.4370029623
 20
128.6550305395
 10
172.4838421414
 20
128.6543247823
 10
172.5289620757
 20
128.6534258503
 10
172.5719252649
 20
128.65234246
 10
172.6123151216
 20
128.6510851159
 10
172.6497400101
 20
128.6496660098
 10
172.6838370446
 20
128.6480989018
 10
172.7142756071
 20
128.6463989873
 10
172.7407605536
 20
128.6445827492
 10
172.7630350759
 20
128.6426677985
 10
172.7808831919
 20
128.6406727033
 10
172.7941318393
 20
128.6386168088
 10
172.8026525542
 20
128.6365200497
 10
172.8063627164
 20
128.634402757
  0
LWPOLYLINE
  5
40B
100
AcDbEntity
  8
0
100
AcDbPolyline
 62
253
  6
CONTINUOUS
 90
16
 70
0
 10
172.3239604977
 20
129.8029767226
 10
172.3761614678
 20
129.8001747474
 10
172.4277915093
 20
129.7919423503
 10
172.4782859382
 20
129.7783695701
 10
172.5270924907
 20
129.7596048539
 10
172.5736773633
 20
129.7358534338
 10
172.6175310517
 20
129.707375082
 10
172.6581739227
 20
129.6744812698
 10
172.69516146
 20
129.6375317609
 10
172.7280891265
 20
129.5969306766
 10
172.7565967881
 20
129.553122076
 10
172.7803726531
 20
129.5065850993
 10
172.7991566819
 20
129.4578287269
 10
172.8127434312
 20
129.4073862136
 10
172.8209843012
 20
129.3558092551
 10
172.8237891602
 20
129.3036619553
  0
LWPOLYLINE
  5
40C
100
AcDbEntity
  8
ASSI
100
AcDbPolyline
 62
253
  6
CONTINUOUS
 90
16
 70
0
 10
172.3239604977
 20
129.8029767226
 10
172.3761614678
 20
129.8001747474
 10
172.4277915093
 20
129.7919423503
 10
172.4782859382
 20
129.7783695701
 10
172.5270924907
 20
129.7596048539
 10
172.5736773633
 20
129.7358534338
 10
172.6175310517
 20
129.707375082
 10
172.6581739227
 20
129.6744812698
 10
172.69516146
 20
129.6375317609
 10
172.7280891265
 20
129.5969306766
 10
172.7565967881
 20
129.553122076
 10
172.7803726531
 20
129.5065850993
 10
172.7991566819
 20
129.4578287269
 10
172.8127434312
 20
129.4073862136
 10
172.8209843012
 20
129.3558092551
 10
172.8237891602
 20
129.3036619553
  0
LINE
  5
40D
100
AcDbEntity
  8
0
100
AcDbLine
 62
7
  6
CONTINUOUS
 10
142.8025659122
 20
129.9352905552
 11
143.1533876342
 21
129.9034454374
  0
LINE
  5
40E
100
AcDbEntity
  8
ASSI
100
AcDbLine
 62
7
  6
CONTINUOUS
 10
142.8025659122
 20
129.9352905552
 11
143.1533876342
 21
129.9034454374
  0
LINE
  5
40F
100
AcDbEntity
  8
0
100
AcDbLine
 62
7
  6
CONTINUOUS
 10
154.1025659122
 20
129.9352905552
 11
154.4533876342
 21
129.9034454374
  0
LINE
  5
410
100
AcDbEntity
  8
ASSI
100
AcDbLine
 62
7
  6
CONTINUOUS
 10
154.1025659122
 20
129.9352905552
 11
154.4533876342
 21
129.9034454374
  0
LINE
  5
411
100
AcDbEntity
  8
0
100
AcDbLine
 62
7
  6
CONTINUOUS
 10
165.3025659122
 20
129.9352905552
 11
165.6533876342
 21
129.9034454374
  0
LINE
  5
412
100
AcDbEntity
  8
ASSI
100
AcDbLine
 62
7
  6
CONTINUOUS
 10
165.3025659122
 20
129.9352905552
 11
165.6533876342
 21
129.9034454374
  0
LWPOLYLINE
  5
413
100
AcDbEntity
  8
0
100
AcDbPolyline
 62
253
  6
CONTINUOUS
 90
7
 70
0
 10
172.3239604958
 20
85.7541958384
 10
172.3250105644
 20
85.7615818619
 10
172.3261024224
 20
85.7748577249
 10
172.3272082115
 20
85.7939547982
 10
172.3282793244
 20
85.8187748439
 10
172.3293098329
 20
85.8491928131
 10
172.3313360804
 20
85.9261988505
  0
LWPOLYLINE
  5
414
100
AcDbEntity
  8
ASSI
100
AcDbPolyline
 62
253
  6
CONTINUOUS
 90
7
 70
0
 10
172.3239604958
 20
85.7541958384
 10
172.3250105644
 20
85.7615818619
 10
172.3261024224
 20
85.7748577249
 10
172.3272082115
 20
85.7939547982
 10
172.3282793244
 20
85.8187748439
 10
172.3293098329
 20
85.8491928131
 10
172.3313360804
 20
85.9261988505
  0
LINE
  5
415
100
AcDbEntity
  8
0
100
AcDbLine
 62
7
  6
CONTINUOUS
 10
117.8149849005
 20
85.621882002
 11
114.9377349971
 21
85.7726722798
  0
LINE
  5
416
100
AcDbEntity
  8
ASSI
100
AcDbLine
 62
7
  6
CONTINUOUS
 10
117.8149849005
 20
85.621882002
 11
114.9377349971
 21
85.7726722798
  0
LWPOLYLINE
  5
417
100
AcDbEntity
  8
0
100
AcDbPolyline
 62
253
  6
CONTINUOUS
 90
5
 70
0
 10
115.2902865019
 20
85.7541958384
 10
115.206077694
 20
85.7615818619
 10
115.1226140044
 20
85.7748577249
 10
115.04030625
 20
85.7939547982
 10
114.9595605649
 20
85.8187748439
  0
LWPOLYLINE
  5
418
100
AcDbEntity
  8
ASSI
100
AcDbPolyline
 62
253
  6
CONTINUOUS
 90
5
 70
0
 10
115.2902865019
 20
85.7541958384
 10
115.206077694
 20
85.7615818619
 10
115.1226140044
 20
85.7748577249
 10
115.04030625
 20
85.7939547982
 10
114.9595605649
 20
85.8187748439
  0
LWPOLYLINE
  5
419
100
AcDbEntity
  8
0
100
AcDbPolyline
 62
253
  6
CONTINUOUS
 90
5
 70
0
 10
114.9595606369
 20
129.7383977159
 10
115.0403063201
 20
129.7632177616
 10
115.1226140744
 20
129.7823148353
 10
115.2060777651
 20
129.7955906988
 10
115.2902865753
 20
129.8029767226
  0
LWPOLYLINE
  5
41A
100
AcDbEntity
  8
ASSI
100
AcDbPolyline
 62
253
  6
CONTINUOUS
 90
5
 70
0
 10
114.9595606369
 20
129.7383977159
 10
115.0403063201
 20
129.7632177616
 10
115.1226140744
 20
129.7823148353
 10
115.2060777651
 20
129.7955906988
 10
115.2902865753
 20
129.8029767226
  0
LINE
  5
41B
100
AcDbEntity
  8
0
100
AcDbLine
 62
253
  6
CONTINUOUS
 10
114.1525471799
 20
86.9013349182
 11
114.1582493409
 21
86.9016357456
  0
LINE
  5
41C
100
AcDbEntity
  8
ASSI
100
AcDbLine
 62
253
  6
CONTINUOUS
 10
114.1525471799
 20
86.9013349182
 11
114.1582493409
 21
86.9016357456
  0
LINE
  5
41D
100
AcDbEntity
  8
0
100
AcDbLine
 62
253
  6
CONTINUOUS
 10
114.1582493409
 20
86.9016357456
 11
114.3618279927
 21
86.910773301
  0
LINE
  5
41E
100
AcDbEntity
  8
ASSI
100
AcDbLine
 62
253
  6
CONTINUOUS
 10
114.1582493409
 20
86.9016357456
 11
114.3618279927
 21
86.910773301
  0
LINE
  5
41F
100
AcDbEntity
  8
0
100
AcDbLine
 62
253
  6
CONTINUOUS
 10
114.3618279927
 20
86.910773301
 11
114.6378769959
 21
86.9227698072
  0
LINE
  5
420
100
AcDbEntity
  8
ASSI
100
AcDbLine
 62
253
  6
CONTINUOUS
 10
114.3618279927
 20
86.910773301
 11
114.6378769959
 21
86.9227698072
  0
LWPOLYLINE
  5
421
100
AcDbEntity
  8
0
100
AcDbPolyline
 62
253
  6
CONTINUOUS
 90
4
 70
0
 10
113.802172482
 20
86.9084215486
 10
113.8051114254
 20
86.9085456926
 10
113.8131007877
 20
86.9085272346
 10
113.8259107119
 20
86.9083663818
  0
LWPOLYLINE
  5
422
100
AcDbEntity
  8
ASSI
100
AcDbPolyline
 62
253
  6
CONTINUOUS
 90
4
 70
0
 10
113.802172482
 20
86.9084215486
 10
113.8051114254
 20
86.9085456926
 10
113.8131007877
 20
86.9085272346
 10
113.8259107119
 20
86.9083663818
  0
LINE
  5
423
100
AcDbEntity
  8
0
100
AcDbLine
 62
253
  6
CONTINUOUS
 10
113.8259107119
 20
86.9083663818
 11
114.1525471778
 21
86.9013349302
  0
LINE
  5
424
100
AcDbEntity
  8
ASSI
100
AcDbLine
 62
253
  6
CONTINUOUS
 10
113.8259107119
 20
86.9083663818
 11
114.1525471778
 21
86.9013349302
  0
LINE
  5
425
100
AcDbEntity
  8
0
100
AcDbLine
 62
253
  6
CONTINUOUS
 10
117.8585295966
 20
86.1196001563
 11
115.3033660058
 21
86.2535106058
  0
LINE
  5
426
100
AcDbEntity
  8
ASSI
100
AcDbLine
 62
253
  6
CONTINUOUS
 10
117.8585295966
 20
86.1196001563
 11
115.3033660058
 21
86.2535106058
  0
LWPOLYLINE
  5
427
100
AcDbEntity
  8
0
100
AcDbPolyline
 62
253
  6
CONTINUOUS
 90
22
 70
0
 10
115.3033660058
 20
86.2535106058
 10
115.2539588823
 20
86.2578631587
 10
115.2053844411
 20
86.2655570305
 10
115.1576426822
 20
86.2765922212
 10
115.1104834823
 20
86.2910576445
 10
115.0641569648
 20
86.3088643866
 10
115.0194134997
 20
86.329745706
 10
114.9762984055
 20
86.35374635
 10
114.9347663636
 20
86.3808215712
 10
114.8954317884
 20
86.4105703857
 10
114.858327359
 20
86.4430344429
 10
114.8234203962
 20
86.4781720933
 10
114.7912272765
 20
86.5154574042
 10
114.7617913046
 20
86.5549200558
 10
114.7350691758
 20
86.5965303678
 10
114.7114473516
 20
86.6396733678
 10
114.6909701611
 20
86.6843928819
 10
114.6735932752
 20
86.7306450839
 10
114.6595701683
 20
86.7776835225
 10
114.6489853318
 20
86.8252593807
 10
114.6417542744
 20
86.8736214756
 10
114.6378769959
 20
86.9227698072
  0
LWPOLYLINE
  5
428
100
AcDbEntity
  8
ASSI
100
AcDbPolyline
 62
253
  6
CONTINUOUS
 90
22
 70
0
 10
115.3033660058
 20
86.2535106058
 10
115.2539588823
 20
86.2578631587
 10
115.2053844411
 20
86.2655570305
 10
115.1576426822
 20
86.2765922212
 10
115.1104834823
 20
86.2910576445
 10
115.0641569648
 20
86.3088643866
 10
115.0194134997
 20
86.329745706
 10
114.9762984055
 20
86.35374635
 10
114.9347663636
 20
86.3808215712
 10
114.8954317884
 20
86.4105703857
 10
114.858327359
 20
86.4430344429
 10
114.8234203962
 20
86.4781720933
 10
114.7912272765
 20
86.5154574042
 10
114.7617913046
 20
86.5549200558
 10
114.7350691758
 20
86.5965303678
 10
114.7114473516
 20
86.6396733678
 10
114.6909701611
 20
86.6843928819
 10
114.6735932752
 20
86.7306450839
 10
114.6595701683
 20
86.7776835225
 10
114.6489853318
 20
86.8252593807
 10
114.6417542744
 20
86.8736214756
 10
114.6378769959
 20
86.9227698072
  0
LWPOLYLINE
  5
429
100
AcDbEntity
  8
0
100
AcDbPolyline
 62
253
  6
CONTINUOUS
 90
18
 70
0
 10
114.9595605649
 20
85.8187748439
 10
114.8807721792
 20
85.8491928131
 10
114.804324214
 20
85.885059429
 10
114.7305885884
 20
85.9261988505
 10
114.6599317128
 20
85.9724050559
 10
114.5927083655
 20
86.0234455242
 10
114.5292494649
 20
86.0790651935
 10
114.4698638714
 20
86.1389889409
 10
114.4148448194
 20
86.2029198067
 10
114.3644610437
 20
86.2705414833
 10
114.3189585948
 20
86.3415187568
 10
114.2785622749
 20
86.4154993358
 10
114.243471118
 20
86.4921115217
 10
114.2138517481
 20
86.5709822425
 10
114.1898445337
 20
86.6517392595
 10
114.1715680979
 20
86.7339908462
 10
114.1591148196
 20
86.8173262792
 10
114.1525471773
 20
86.9013349304
  0
LWPOLYLINE
  5
42A
100
AcDbEntity
  8
ASSI
100
AcDbPolyline
 62
253
  6
CONTINUOUS
 90
18
 70
0
 10
114.9595605649
 20
85.8187748439
 10
114.8807721792
 20
85.8491928131
 10
114.804324214
 20
85.885059429
 10
114.7305885884
 20
85.9261988505
 10
114.6599317128
 20
85.9724050559
 10
114.5927083655
 20
86.0234455242
 10
114.5292494649
 20
86.0790651935
 10
114.4698638714
 20
86.1389889409
 10
114.4148448194
 20
86.2029198067
 10
114.3644610437
 20
86.2705414833
 10
114.3189585948
 20
86.3415187568
 10
114.2785622749
 20
86.4154993358
 10
114.243471118
 20
86.4921115217
 10
114.2138517481
 20
86.5709822425
 10
114.1898445337
 20
86.6517392595
 10
114.1715680979
 20
86.7339908462
 10
114.1591148196
 20
86.8173262792
 10
114.1525471773
 20
86.9013349304
  0
LINE
  5
42B
100
AcDbEntity
  8
ASSI
100
AcDbLine
 62
7
  6
CONTINUOUS
 10
113.8015980291
 20
128.6489337002
 11
113.8015502967
 21
128.6489033168
  0
LINE
  5
42C
100
AcDbEntity
  8
0
100
AcDbLine
 62
7
  6
CONTINUOUS
 10
113.8015504282
 20
86.9082752897
 11
113.802172482
 21
86.9084215486
  0
LINE
  5
42D
100
AcDbEntity
  8
ASSI
100
AcDbLine
 62
7
  6
CONTINUOUS
 10
113.8015504282
 20
86.9082752897
 11
113.802172482
 21
86.9084215486
  0
LINE
  5
42E
100
AcDbEntity
  8
0
100
AcDbLine
 62
253
  6
CONTINUOUS
 10
118.2073438536
 20
89.8450946774
 11
118.1844681333
 21
89.8450946776
  0
LINE
  5
42F
100
AcDbEntity
  8
ASSI
100
AcDbLine
 62
253
  6
CONTINUOUS
 10
118.2073438536
 20
89.8450946774
 11
118.1844681333
 21
89.8450946776
  0
LWPOLYLINE
  5
430
100
AcDbEntity
  8
0
100
AcDbPolyline
 62
253
  6
CONTINUOUS
 90
11
 70
0
 10
115.2902865753
 20
129.8029767226
 10
115.2890664913
 20
129.8001747474
 10
115.2881459535
 20
129.7919423503
 10
115.2875350301
 20
129.7783695701
 10
115.2872404027
 20
129.7596048539
 10
115.2872652937
 20
129.7358534338
 10
115.2876094312
 20
129.707375082
 10
115.2882690515
 20
129.6744812698
 10
115.2892369402
 20
129.6375317609
 10
115.2905025113
 20
129.5969306766
 10
115.2938682295
 20
129.5065850993
  0
LWPOLYLINE
  5
431
100
AcDbEntity
  8
ASSI
100
AcDbPolyline
 62
253
  6
CONTINUOUS
 90
11
 70
0
 10
115.2902865753
 20
129.8029767226
 10
115.2890664913
 20
129.8001747474
 10
115.2881459535
 20
129.7919423503
 10
115.2875350301
 20
129.7783695701
 10
115.2872404027
 20
129.7596048539
 10
115.2872652937
 20
129.7358534338
 10
115.2876094312
 20
129.707375082
 10
115.2882690515
 20
129.6744812698
 10
115.2892369402
 20
129.6375317609
 10
115.2905025113
 20
129.5969306766
 10
115.2938682295
 20
129.5065850993
  0
LWPOLYLINE
  5
432
100
AcDbEntity
  8
0
100
AcDbPolyline
 62
253
  6
CONTINUOUS
 90
9
 70
0
 10
115.2902865019
 20
85.7541958384
 10
115.2890663999
 20
85.7569978836
 10
115.2881458535
 20
85.765230473
 10
115.2875349298
 20
85.7788035434
 10
115.2872403094
 20
85.7975686278
 10
115.2872652136
 20
85.8213204638
 10
115.287609369
 20
85.849799224
 10
115.2882690091
 20
85.8826933926
 10
115.2892369173
 20
85.919643177
  0
LWPOLYLINE
  5
433
100
AcDbEntity
  8
ASSI
100
AcDbPolyline
 62
253
  6
CONTINUOUS
 90
9
 70
0
 10
115.2902865019
 20
85.7541958384
 10
115.2890663999
 20
85.7569978836
 10
115.2881458535
 20
85.765230473
 10
115.2875349298
 20
85.7788035434
 10
115.2872403094
 20
85.7975686278
 10
115.2872652136
 20
85.8213204638
 10
115.287609369
 20
85.849799224
 10
115.2882690091
 20
85.8826933926
 10
115.2892369173
 20
85.919643177
  0
LWPOLYLINE
  5
434
100
AcDbEntity
  8
0
100
AcDbPolyline
 62
253
  6
CONTINUOUS
 90
3
 70
0
 10
113.5937935984
 20
91.3768084654
 10
113.6917388684
 20
89.1422009861
 10
113.802172482
 20
86.9084215486
  0
LINE
  5
435
100
AcDbEntity
  8
0
100
AcDbLine
 62
253
  6
CONTINUOUS
 10
113.4785429459
 20
94.4465747639
 11
113.5937935984
 21
91.3768084654
  0
LINE
  5
436
100
AcDbEntity
  8
0
100
AcDbLine
 62
253
  6
CONTINUOUS
 10
113.4771639575
 20
121.0809842848
 11
113.5206235332
 21
122.3118021478
  0
LINE
  5
437
100
AcDbEntity
  8
0
100
AcDbLine
 62
253
  6
CONTINUOUS
 10
113.5178388253
 20
122.2354776971
 11
113.5577061144
 21
123.2791007903
  0
LWPOLYLINE
  5
438
100
AcDbEntity
  8
CURVE
100
AcDbPolyline
 62
7
  6
CONTINUOUS
 90
7
 70
0
 10
113.8015649537
 20
128.649197123
 10
113.6929397509
 20
126.471756979
 10
113.5932135004
 20
124.2198977044
 10
113.5062727717
 20
121.9673355377
 10
113.4321205195
 20
119.7141427647
 10
113.370759709
 20
117.4603920053
 10
113.3221933082
 20
115.206156214
  0
LWPOLYLINE
  5
439
100
AcDbEntity
  8
ASSI
100
AcDbPolyline
 62
7
  6
CONTINUOUS
 90
7
 70
0
 10
113.8015649537
 20
128.649197123
 10
113.6929397509
 20
126.471756979
 10
113.5932135004
 20
124.2198977044
 10
113.5062727717
 20
121.9673355377
 10
113.4321205195
 20
119.7141427647
 10
113.370759709
 20
117.4603920053
 10
113.3221933082
 20
115.206156214
  0
LWPOLYLINE
  5
43A
100
AcDbEntity
  8
0
100
AcDbPolyline
 62
253
  6
CONTINUOUS
 90
18
 70
0
 10
114.1525472611
 20
128.6558376261
 10
114.159114903
 20
128.7398462856
 10
114.1715681817
 20
128.8231817243
 10
114.1898446185
 20
128.9054333142
 10
114.2138518333
 20
128.9861903309
 10
114.2434712029
 20
129.0650610491
 10
114.2785623594
 20
129.1416732327
 10
114.318958679
 20
129.2156538108
 10
114.3644611277
 20
129.2866310836
 10
114.4148449031
 20
129.3542527595
 10
114.4698639544
 20
129.4181836244
 10
114.5292495471
 20
129.4781073708
 10
114.5927084466
 20
129.5337270392
 10
114.6599317929
 20
129.5847675068
 10
114.7305886673
 20
129.6309737116
 10
114.8043242912
 20
129.6721131323
 10
114.880772254
 20
129.7079797474
 10
114.9595606369
 20
129.7383977159
  0
LWPOLYLINE
  5
43B
100
AcDbEntity
  8
ASSI
100
AcDbPolyline
 62
253
  6
CONTINUOUS
 90
18
 70
0
 10
114.1525472611
 20
128.6558376261
 10
114.159114903
 20
128.7398462856
 10
114.1715681817
 20
128.8231817243
 10
114.1898446185
 20
128.9054333142
 10
114.2138518333
 20
128.9861903309
 10
114.2434712029
 20
129.0650610491
 10
114.2785623594
 20
129.1416732327
 10
114.318958679
 20
129.2156538108
 10
114.3644611277
 20
129.2866310836
 10
114.4148449031
 20
129.3542527595
 10
114.4698639544
 20
129.4181836244
 10
114.5292495471
 20
129.4781073708
 10
114.5927084466
 20
129.5337270392
 10
114.6599317929
 20
129.5847675068
 10
114.7305886673
 20
129.6309737116
 10
114.8043242912
 20
129.6721131323
 10
114.880772254
 20
129.7079797474
 10
114.9595606369
 20
129.7383977159
  0
LWPOLYLINE
  5
43C
100
AcDbEntity
  8
0
100
AcDbPolyline
 62
253
  6
CONTINUOUS
 90
22
 70
0
 10
114.6378770406
 20
128.634402757
 10
114.6417543386
 20
128.6835510881
 10
114.6489854106
 20
128.7319131826
 10
114.6595702567
 20
128.7794890406
 10
114.6735933668
 20
128.8265274792
 10
114.690970251
 20
128.8727796813
 10
114.7114474397
 20
128.9174991955
 10
114.7350692635
 20
128.9606421955
 10
114.7617913918
 20
129.0022525075
 10
114.7912273631
 20
129.041715159
 10
114.8234204822
 20
129.0790004698
 10
114.8583274443
 20
129.1141381201
 10
114.8954318728
 20
129.1466021771
 10
114.9347664472
 20
129.1763509913
 10
114.976298488
 20
129.2034262122
 10
115.0194135811
 20
129.227426856
 10
115.064157045
 20
129.2483081752
 10
115.1104835612
 20
129.2661149172
 10
115.1576427598
 20
129.2805803404
 10
115.2053845173
 20
129.2916155309
 10
115.2539589571
 20
129.2993094025
 10
115.3033660792
 20
129.3036619553
  0
LWPOLYLINE
  5
43D
100
AcDbEntity
  8
ASSI
100
AcDbPolyline
 62
253
  6
CONTINUOUS
 90
22
 70
0
 10
114.6378770406
 20
128.634402757
 10
114.6417543386
 20
128.6835510881
 10
114.6489854106
 20
128.7319131826
 10
114.6595702567
 20
128.7794890406
 10
114.6735933668
 20
128.8265274792
 10
114.690970251
 20
128.8727796813
 10
114.7114474397
 20
128.9174991955
 10
114.7350692635
 20
128.9606421955
 10
114.7617913918
 20
129.0022525075
 10
114.7912273631
 20
129.041715159
 10
114.8234204822
 20
129.0790004698
 10
114.8583274443
 20
129.1141381201
 10
114.8954318728
 20
129.1466021771
 10
114.9347664472
 20
129.1763509913
 10
114.976298488
 20
129.2034262122
 10
115.0194135811
 20
129.227426856
 10
115.064157045
 20
129.2483081752
 10
115.1104835612
 20
129.2661149172
 10
115.1576427598
 20
129.2805803404
 10
115.2053845173
 20
129.2916155309
 10
115.2539589571
 20
129.2993094025
 10
115.3033660792
 20
129.3036619553
  0
LWPOLYLINE
  5
43E
100
AcDbEntity
  8
0
100
AcDbPolyline
 62
253
  6
CONTINUOUS
 90
16
 70
0
 10
113.7042326294
 20
108.5178042444
 10
113.7069970136
 20
108.4648158365
 10
113.7150436544
 20
108.413566171
 10
113.7281549455
 20
108.3639371863
 10
113.7464418239
 20
108.3156066006
 10
113.7699262572
 20
108.2688950141
 10
113.7980840243
 20
108.224924594
 10
113.8304629062
 20
108.1843846653
 10
113.866996665
 20
108.147348893
 10
113.907233757
 20
108.1142513383
 10
113.9505841964
 20
108.0856101179
 10
113.9966345843
 20
108.0616890277
 10
114.0450143973
 20
108.0426508188
 10
114.0951766055
 20
108.0287528051
 10
114.1464124482
 20
108.0202073439
 10
114.1980615005
 20
108.0170655027
  0
LWPOLYLINE
  5
43F
100
AcDbEntity
  8
ASSI
100
AcDbPolyline
 62
253
  6
CONTINUOUS
 90
16
 70
0
 10
113.7042326294
 20
108.5178042444
 10
113.7069970136
 20
108.4648158365
 10
113.7150436544
 20
108.413566171
 10
113.7281549455
 20
108.3639371863
 10
113.7464418239
 20
108.3156066006
 10
113.7699262572
 20
108.2688950141
 10
113.7980840243
 20
108.224924594
 10
113.8304629062
 20
108.1843846653
 10
113.866996665
 20
108.147348893
 10
113.907233757
 20
108.1142513383
 10
113.9505841964
 20
108.0856101179
 10
113.9966345843
 20
108.0616890277
 10
114.0450143973
 20
108.0426508188
 10
114.0951766055
 20
108.0287528051
 10
114.1464124482
 20
108.0202073439
 10
114.1980615005
 20
108.0170655027
  0
LWPOLYLINE
  5
440
100
AcDbEntity
  8
0
100
AcDbPolyline
 62
253
  6
CONTINUOUS
 90
16
 70
0
 10
113.2581982606
 20
108.5218517883
 10
113.2608167696
 20
108.4698103355
 10
113.2688371471
 20
108.418324003
 10
113.2821722866
 20
108.3679519672
 10
113.3006773593
 20
108.3192413027
 10
113.3241513875
 20
108.2727210403
 10
113.3523394275
 20
108.2288964215
 10
113.384935338
 20
108.1882434115
 10
113.4215851053
 20
108.1512035295
 10
113.4618906882
 20
108.1181790537
 10
113.5054143405
 20
108.0895286523
 10
113.5516833661
 20
108.0655634881
 10
113.6001952518
 20
108.046543839
 10
113.6504231258
 20
108.0326762713
 10
113.7018214792
 20
108.0241113962
 10
113.7538320912
 20
108.0209422341
  0
LWPOLYLINE
  5
441
100
AcDbEntity
  8
ASSI
100
AcDbPolyline
 62
253
  6
CONTINUOUS
 90
16
 70
0
 10
113.2581982606
 20
108.5218517883
 10
113.2608167696
 20
108.4698103355
 10
113.2688371471
 20
108.418324003
 10
113.2821722866
 20
108.3679519672
 10
113.3006773593
 20
108.3192413027
 10
113.3241513875
 20
108.2727210403
 10
113.3523394275
 20
108.2288964215
 10
113.384935338
 20
108.1882434115
 10
113.4215851053
 20
108.1512035295
 10
113.4618906882
 20
108.1181790537
 10
113.5054143405
 20
108.0895286523
 10
113.5516833661
 20
108.0655634881
 10
113.6001952518
 20
108.046543839
 10
113.6504231258
 20
108.0326762713
 10
113.7018214792
 20
108.0241113962
 10
113.7538320912
 20
108.0209422341
  0
LWPOLYLINE
  5
442
100
AcDbEntity
  8
0
100
AcDbPolyline
 62
253
  6
CONTINUOUS
 90
10
 70
0
 10
114.1525471778
 20
86.9013349302
 10
114.0584512048
 20
89.2171053958
 10
113.9767060385
 20
91.4945447272
 10
113.9067676195
 20
93.7335828501
 10
113.8487168061
 20
95.9089307513
 10
113.8011885683
 20
98.0457481534
 10
113.7624880505
 20
100.2196682371
 10
113.7328340022
 20
102.4558863785
 10
113.7132427193
 20
104.7291349425
 10
113.70423255
 20
107.039368324
  0
LWPOLYLINE
  5
443
100
AcDbEntity
  8
ASSI
100
AcDbPolyline
 62
253
  6
CONTINUOUS
 90
10
 70
0
 10
114.1525471778
 20
86.9013349302
 10
114.0584512048
 20
89.2171053958
 10
113.9767060385
 20
91.4945447272
 10
113.9067676195
 20
93.7335828501
 10
113.8487168061
 20
95.9089307513
 10
113.8011885683
 20
98.0457481534
 10
113.7624880505
 20
100.2196682371
 10
113.7328340022
 20
102.4558863785
 10
113.7132427193
 20
104.7291349425
 10
113.70423255
 20
107.039368324
  0
LWPOLYLINE
  5
444
100
AcDbEntity
  8
0
100
AcDbPolyline
 62
253
  6
CONTINUOUS
 90
10
 70
0
 10
114.6378769959
 20
86.9227698072
 10
114.5446361283
 20
89.2362545145
 10
114.4626751905
 20
91.5113196183
 10
114.3919941827
 20
93.7479651186
 10
114.3331653431
 20
95.9210391766
 10
114.2856164335
 20
98.0556936311
 10
114.2476307386
 20
100.2273839983
 10
114.21863602
 20
102.4612621169
 10
114.1992045162
 20
104.7321761483
 10
114.1887816594
 20
107.1260404759
  0
LWPOLYLINE
  5
445
100
AcDbEntity
  8
ASSI
100
AcDbPolyline
 62
253
  6
CONTINUOUS
 90
10
 70
0
 10
114.6378769959
 20
86.9227698072
 10
114.5446361283
 20
89.2362545145
 10
114.4626751905
 20
91.5113196183
 10
114.3919941827
 20
93.7479651186
 10
114.3331653431
 20
95.9210391766
 10
114.2856164335
 20
98.0556936311
 10
114.2476307386
 20
100.2273839983
 10
114.21863602
 20
102.4612621169
 10
114.1992045162
 20
104.7321761483
 10
114.1887816594
 20
107.1260404759
  0
LINE
  5
446
100
AcDbEntity
  8
SUPERFICI
100
AcDbLine
 62
7
  6
CONTINUOUS
 10
113.2940823618
 20
102.2969339433
 11
113.2939968643
 21
102.2993608566
  0
LINE
  5
447
100
AcDbEntity
  8
0
100
AcDbLine
 62
7
  6
CONTINUOUS
 10
113.2939772509
 20
102.3002080333
 11
113.2940826479
 21
102.296920262
  0
LINE
  5
448
100
AcDbEntity
  8
ASSI
100
AcDbLine
 62
7
  6
CONTINUOUS
 10
113.2939772509
 20
102.3002080333
 11
113.2940826479
 21
102.296920262
  0
LINE
  5
449
100
AcDbEntity
  8
0
100
AcDbLine
 62
253
  6
CONTINUOUS
 10
113.4144375768
 20
96.4990440864
 11
113.5083407898
 21
93.6121742475
  0
LINE
  5
44A
100
AcDbEntity
  8
0
100
AcDbLine
 62
253
  6
CONTINUOUS
 10
113.3715607541
 20
98.145123582
 11
113.4353833893
 21
95.8482678376
  0
LINE
  5
44B
100
AcDbEntity
  8
0
100
AcDbLine
 62
253
  6
CONTINUOUS
 10
113.3269783201
 20
100.3221233257
 11
113.3749271272
 21
98.0849801256
  0
LWPOLYLINE
  5
44C
100
AcDbEntity
  8
0
100
AcDbPolyline
 62
253
  6
CONTINUOUS
 90
10
 70
0
 10
114.1900748365
 20
108.1641844669
 10
114.190658694
 20
108.13460966
 10
114.1913321181
 20
108.1079643439
 10
114.1920904845
 20
108.0844315989
 10
114.192928473
 20
108.064186921
 10
114.1938394559
 20
108.0473998485
 10
114.1948160195
 20
108.0342088618
 10
114.1958504842
 20
108.0247148026
 10
114.1969350811
 20
108.0189862395
 10
114.1980615005
 20
108.0170655027
  0
LWPOLYLINE
  5
44D
100
AcDbEntity
  8
ASSI
100
AcDbPolyline
 62
253
  6
CONTINUOUS
 90
10
 70
0
 10
114.1900748365
 20
108.1641844669
 10
114.190658694
 20
108.13460966
 10
114.1913321181
 20
108.1079643439
 10
114.1920904845
 20
108.0844315989
 10
114.192928473
 20
108.064186921
 10
114.1938394559
 20
108.0473998485
 10
114.1948160195
 20
108.0342088618
 10
114.1958504842
 20
108.0247148026
 10
114.1969350811
 20
108.0189862395
 10
114.1980615005
 20
108.0170655027
  0
LINE
  5
44E
100
AcDbEntity
  8
0
100
AcDbLine
 62
253
  6
CONTINUOUS
 10
113.3382696534
 20
99.6910039845
 11
113.3726255521
 21
98.1224872636
  0
LINE
  5
44F
100
AcDbEntity
  8
0
100
AcDbLine
 62
253
  6
CONTINUOUS
 10
113.3403047258
 20
99.6256781776
 11
113.3409545507
 21
99.5917711776
  0
LINE
  5
450
100
AcDbEntity
  8
0
100
AcDbLine
 62
253
  6
CONTINUOUS
 10
113.3333327514
 20
99.9540018839
 11
113.3382696534
 21
99.6910039845
  0
LINE
  5
451
100
AcDbEntity
  8
SUPERFICI
100
AcDbLine
 62
7
  6
CONTINUOUS
 10
113.2939968643
 20
102.2993608566
 11
113.2933543248
 21
102.3348151614
  0
LINE
  5
452
100
AcDbEntity
  8
0
100
AcDbLine
 62
7
  6
CONTINUOUS
 10
113.2931611134
 20
102.346723163
 11
113.2939772509
 21
102.3002080333
  0
LINE
  5
453
100
AcDbEntity
  8
ASSI
100
AcDbLine
 62
7
  6
CONTINUOUS
 10
113.2931611134
 20
102.346723163
 11
113.2939772509
 21
102.3002080333
  0
LINE
  5
454
100
AcDbEntity
  8
0
100
AcDbLine
 62
253
  6
CONTINUOUS
 10
113.2902725411
 20
102.5417184994
 11
113.3270870538
 21
100.3066527382
  0
LWPOLYLINE
  5
455
100
AcDbEntity
  8
ASSI
100
AcDbPolyline
 62
253
  6
CONTINUOUS
 90
8
 70
0
 10
113.2931611134
 20
102.346723163
 10
113.3269783201
 20
100.3221233257
 10
113.3749271272
 20
98.0849801256
 10
113.4353833893
 20
95.8482678376
 10
113.5083407898
 20
93.6121742475
 10
113.5937935984
 20
91.3768084654
 10
113.6917388684
 20
89.1422009861
 10
113.6929397509
 20
89.0854155782
  0
LWPOLYLINE
  5
456
100
AcDbEntity
  8
0
100
AcDbPolyline
 62
7
  6
CONTINUOUS
 90
18
 70
0
 10
113.2534299451
 20
108.5219004944
 10
113.2536433653
 20
108.5063275162
 10
113.2573544739
 20
108.4584348335
 10
113.2656400847
 20
108.4111380802
 10
113.2784183367
 20
108.3648724983
 10
113.2955661482
 20
108.3200629607
 10
113.3169205846
 20
108.2771198755
 10
113.3422801533
 20
108.2364361125
 10
113.3714065634
 20
108.1983833206
 10
113.4040263476
 20
108.1633088975
 10
113.4398370563
 20
108.1315292386
 10
113.4785107466
 20
108.1033286862
 10
113.5196966675
 20
108.0789589488
 10
113.5630099228
 20
108.058643962
 10
113.6080369919
 20
108.0425704514
 10
113.6543580417
 20
108.0308781335
 10
113.7015529244
 20
108.0236632065
 10
113.7490658093
 20
108.0209838288
  0
LWPOLYLINE
  5
457
100
AcDbEntity
  8
ASSI
100
AcDbPolyline
 62
7
  6
CONTINUOUS
 90
18
 70
0
 10
113.2534299451
 20
108.5219004944
 10
113.2536433653
 20
108.5063275162
 10
113.2573544739
 20
108.4584348335
 10
113.2656400847
 20
108.4111380802
 10
113.2784183367
 20
108.3648724983
 10
113.2955661482
 20
108.3200629607
 10
113.3169205846
 20
108.2771198755
 10
113.3422801533
 20
108.2364361125
 10
113.3714065634
 20
108.1983833206
 10
113.4040263476
 20
108.1633088975
 10
113.4398370563
 20
108.1315292386
 10
113.4785107466
 20
108.1033286862
 10
113.5196966675
 20
108.0789589488
 10
113.5630099228
 20
108.058643962
 10
113.6080369919
 20
108.0425704514
 10
113.6543580417
 20
108.0308781335
 10
113.7015529244
 20
108.0236632065
 10
113.7490658093
 20
108.0209838288
  0
LINE
  5
458
100
AcDbEntity
  8
SUPERFICI
100
AcDbLine
 62
7
  6
CONTINUOUS
 10
113.2933543248
 20
102.3348151614
 11
113.2821681616
 21
103.1757900353
  0
LINE
  5
459
100
AcDbEntity
  8
0
100
AcDbLine
 62
7
  6
CONTINUOUS
 10
113.2814382924
 20
103.2391445111
 11
113.2931611134
 21
102.346723163
  0
LINE
  5
45A
100
AcDbEntity
  8
ASSI
100
AcDbLine
 62
7
  6
CONTINUOUS
 10
113.2814382924
 20
103.2391445111
 11
113.2931611134
 21
102.346723163
  0
LINE
  5
45B
100
AcDbEntity
  8
0
100
AcDbLine
 62
253
  6
CONTINUOUS
 10
114.1891928384
 20
108.2312655143
 11
114.1900748365
 21
108.1641844669
  0
LINE
  5
45C
100
AcDbEntity
  8
ASSI
100
AcDbLine
 62
253
  6
CONTINUOUS
 10
114.1891928384
 20
108.2312655143
 11
114.1900748365
 21
108.1641844669
  0
LINE
  5
45D
100
AcDbEntity
  8
SUPERFICI
100
AcDbLine
 62
7
  6
CONTINUOUS
 10
113.2821681616
 20
103.1757900353
 11
113.2726202948
 21
104.1451009519
  0
LINE
  5
45E
100
AcDbEntity
  8
0
100
AcDbLine
 62
7
  6
CONTINUOUS
 10
113.2723475495
 20
104.1826519756
 11
113.2814382924
 21
103.2391445111
  0
LINE
  5
45F
100
AcDbEntity
  8
0
100
AcDbLine
 62
253
  6
CONTINUOUS
 10
114.1887156606
 20
108.3069618038
 11
114.1891928384
 21
108.2312655143
  0
LINE
  5
460
100
AcDbEntity
  8
ASSI
100
AcDbLine
 62
253
  6
CONTINUOUS
 10
114.1887156606
 20
108.3069618038
 11
114.1891928384
 21
108.2312655143
  0
LWPOLYLINE
  5
461
100
AcDbEntity
  8
CURVE
100
AcDbPolyline
 62
7
  6
CONTINUOUS
 90
10
 70
0
 10
113.2534328027
 20
107.0352720684
 10
113.2634555457
 20
104.8606525398
 10
113.2864242709
 20
102.6056644792
 10
113.3221933082
 20
100.3510163432
 10
113.370759709
 20
98.0967805518
 10
113.4321205195
 20
95.8430297925
 10
113.5062727717
 20
93.5898370195
 10
113.5932135004
 20
91.3372748528
 10
113.6929397509
 20
89.0854155782
 10
113.8015649537
 20
86.9079754341
  0
LWPOLYLINE
  5
462
100
AcDbEntity
  8
ASSI
100
AcDbPolyline
 62
7
  6
CONTINUOUS
 90
10
 70
0
 10
113.2534328027
 20
107.0352720684
 10
113.2634555457
 20
104.8606525398
 10
113.2864242709
 20
102.6056644792
 10
113.3221933082
 20
100.3510163432
 10
113.370759709
 20
98.0967805518
 10
113.4321205195
 20
95.8430297925
 10
113.5062727717
 20
93.5898370195
 10
113.5932135004
 20
91.3372748528
 10
113.6929397509
 20
89.0854155782
 10
113.8015649537
 20
86.9079754341
  0
LWPOLYLINE
  5
463
100
AcDbEntity
  8
0
100
AcDbPolyline
 62
253
  6
CONTINUOUS
 90
3
 70
0
 10
113.2581982651
 20
107.0353207688
 10
113.2686122234
 20
104.7973439899
 10
113.2915396224
 20
102.5595881745
  0
LWPOLYLINE
  5
464
100
AcDbEntity
  8
ASSI
100
AcDbPolyline
 62
253
  6
CONTINUOUS
 90
3
 70
0
 10
113.2581982651
 20
107.0353207688
 10
113.2686122234
 20
104.7973439899
 10
113.2915396224
 20
102.5595881745
  0
LWPOLYLINE
  5
465
100
AcDbEntity
  8
SUPERFICI
100
AcDbPolyline
 62
7
  6
CONTINUOUS
 90
4
 70
0
 10
113.2726202948
 20
104.1451009519
 10
113.2719441647
 20
104.250695656
 10
113.2719357053
 20
104.2578282161
 10
113.2719685008
 20
104.2602690724
  0
LINE
  5
466
100
AcDbEntity
  8
0
100
AcDbLine
 62
253
  6
CONTINUOUS
 10
114.1887816594
 20
107.1260404759
 11
114.1886332955
 21
107.2098787544
  0
LINE
  5
467
100
AcDbEntity
  8
ASSI
100
AcDbLine
 62
253
  6
CONTINUOUS
 10
114.1887816594
 20
107.1260404759
 11
114.1886332955
 21
107.2098787544
  0
LINE
  5
468
100
AcDbEntity
  8
0
100
AcDbLine
 62
253
  6
CONTINUOUS
 10
114.1886557645
 20
108.388799404
 11
114.1887156606
 21
108.3069618038
  0
LINE
  5
469
100
AcDbEntity
  8
ASSI
100
AcDbLine
 62
253
  6
CONTINUOUS
 10
114.1886557645
 20
108.388799404
 11
114.1887156606
 21
108.3069618038
  0
LWPOLYLINE
  5
46A
100
AcDbEntity
  8
0
100
AcDbPolyline
 62
253
  6
CONTINUOUS
 90
10
 70
0
 10
113.7042325501
 20
108.5178042365
 10
113.7117675652
 20
110.5833794779
 10
113.7283986729
 20
112.679926691
 10
113.7545271544
 20
114.8074033729
 10
113.7902536555
 20
116.9495699418
 10
113.8361520897
 20
119.1225731542
 10
113.893996487
 20
121.3749305079
 10
113.9654245883
 20
123.7227522212
 10
114.0512109471
 20
126.1497557505
 10
114.1525471758
 20
128.6558376302
  0
LWPOLYLINE
  5
46B
100
AcDbEntity
  8
ASSI
100
AcDbPolyline
 62
253
  6
CONTINUOUS
 90
10
 70
0
 10
113.7042325501
 20
108.5178042365
 10
113.7117675652
 20
110.5833794779
 10
113.7283986729
 20
112.679926691
 10
113.7545271544
 20
114.8074033729
 10
113.7902536555
 20
116.9495699418
 10
113.8361520897
 20
119.1225731542
 10
113.893996487
 20
121.3749305079
 10
113.9654245883
 20
123.7227522212
 10
114.0512109471
 20
126.1497557505
 10
114.1525471758
 20
128.6558376302
  0
LINE
  5
46C
100
AcDbEntity
  8
CURVE
100
AcDbLine
 62
7
  6
CONTINUOUS
 10
113.2634555457
 20
110.6965200174
 11
113.2534328027
 21
108.5219004888
  0
LINE
  5
46D
100
AcDbEntity
  8
ASSI
100
AcDbLine
 62
7
  6
CONTINUOUS
 10
113.2634555457
 20
110.6965200174
 11
113.2534328027
 21
108.5219004888
  0
LWPOLYLINE
  5
46E
100
AcDbEntity
  8
0
100
AcDbPolyline
 62
253
  6
CONTINUOUS
 90
3
 70
0
 10
113.2581982651
 20
108.5218517883
 10
113.2686121242
 20
110.759815249
 10
113.2915392884
 20
112.9975587757
  0
LWPOLYLINE
  5
46F
100
AcDbEntity
  8
ASSI
100
AcDbPolyline
 62
253
  6
CONTINUOUS
 90
10
 70
0
 10
113.2581982651
 20
108.5218517883
 10
113.2686121242
 20
110.759815249
 10
113.2915392884
 20
112.9975587757
 10
113.3269776331
 20
115.2350123666
 10
113.3749259118
 20
117.4721422726
 10
113.4353815274
 20
119.7088422995
 10
113.5083385066
 20
121.944933862
 10
113.5937914164
 20
124.1803109105
 10
113.6917373903
 20
126.4149398756
 10
113.6929397509
 20
126.471756979
  0
LINE
  5
470
100
AcDbEntity
  8
0
100
AcDbLine
 62
253
  6
CONTINUOUS
 10
114.1886332955
 20
107.2098787544
 11
114.1889024456
 21
107.2889877064
  0
LINE
  5
471
100
AcDbEntity
  8
ASSI
100
AcDbLine
 62
253
  6
CONTINUOUS
 10
114.1886332955
 20
107.2098787544
 11
114.1889024456
 21
107.2889877064
  0
LINE
  5
472
100
AcDbEntity
  8
0
100
AcDbLine
 62
253
  6
CONTINUOUS
 10
114.1961989588
 20
110.5806111093
 11
114.1886557645
 21
108.388799404
  0
LINE
  5
473
100
AcDbEntity
  8
ASSI
100
AcDbLine
 62
253
  6
CONTINUOUS
 10
114.1961989588
 20
110.5806111093
 11
114.1886557645
 21
108.388799404
  0
LWPOLYLINE
  5
474
100
AcDbEntity
  8
0
100
AcDbPolyline
 62
253
  6
CONTINUOUS
 90
9
 70
0
 10
114.1961989588
 20
110.5806111093
 10
114.2129752001
 20
112.6750130927
 10
114.2396650182
 20
114.8002524142
 10
114.2751614499
 20
116.9402131366
 10
114.3205714583
 20
119.1110111972
 10
114.3792159327
 20
121.3609944083
 10
114.452201836
 20
123.7062787074
 10
114.5384222054
 20
126.1307481569
 10
114.6378770406
 20
128.634402757
  0
LWPOLYLINE
  5
475
100
AcDbEntity
  8
ASSI
100
AcDbPolyline
 62
253
  6
CONTINUOUS
 90
9
 70
0
 10
114.1961989588
 20
110.5806111093
 10
114.2129752001
 20
112.6750130927
 10
114.2396650182
 20
114.8002524142
 10
114.2751614499
 20
116.9402131366
 10
114.3205714583
 20
119.1110111972
 10
114.3792159327
 20
121.3609944083
 10
114.452201836
 20
123.7062787074
 10
114.5384222054
 20
126.1307481569
 10
114.6378770406
 20
128.634402757
  0
LWPOLYLINE
  5
476
100
AcDbEntity
  8
0
100
AcDbPolyline
 62
7
  6
CONTINUOUS
 90
4
 70
0
 10
113.2719684373
 20
104.2602690728
 10
113.2719349873
 20
104.2569605187
 10
113.2719552771
 20
104.2475738635
 10
113.2723475495
 20
104.1826519756
  0
LWPOLYLINE
  5
477
100
AcDbEntity
  8
ASSI
100
AcDbPolyline
 62
7
  6
CONTINUOUS
 90
4
 70
0
 10
113.2719684373
 20
104.2602690728
 10
113.2719349873
 20
104.2569605187
 10
113.2719552771
 20
104.2475738635
 10
113.2736568456
 20
104.0156413089
  0
LWPOLYLINE
  5
478
100
AcDbEntity
  8
0
100
AcDbPolyline
 62
253
  6
CONTINUOUS
 90
12
 70
0
 10
114.1889024456
 20
107.2889877064
 10
114.1895847035
 20
107.3606807975
 10
114.1900747683
 20
107.3929880268
 10
114.1906586257
 20
107.4225628448
 10
114.1913320497
 20
107.4492081685
 10
114.1920904161
 20
107.4727409219
 10
114.1929284046
 20
107.4929856095
 10
114.1938393876
 20
107.5097726909
 10
114.1948159515
 20
107.5229636848
 10
114.1958504164
 20
107.5324577495
 10
114.1969350138
 20
107.538186316
 10
114.1980614335
 20
107.5401070539
  0
LWPOLYLINE
  5
479
100
AcDbEntity
  8
ASSI
100
AcDbPolyline
 62
253
  6
CONTINUOUS
 90
12
 70
0
 10
114.1889024456
 20
107.2889877064
 10
114.1895847035
 20
107.3606807975
 10
114.1900747683
 20
107.3929880268
 10
114.1906586257
 20
107.4225628448
 10
114.1913320497
 20
107.4492081685
 10
114.1920904161
 20
107.4727409219
 10
114.1929284046
 20
107.4929856095
 10
114.1938393876
 20
107.5097726909
 10
114.1948159515
 20
107.5229636848
 10
114.1958504164
 20
107.5324577495
 10
114.1969350138
 20
107.538186316
 10
114.1980614335
 20
107.5401070539
  0
LWPOLYLINE
  5
47A
100
AcDbEntity
  8
CURVE
100
AcDbPolyline
 62
7
  6
CONTINUOUS
 90
3
 70
0
 10
113.3221933082
 20
115.206156214
 10
113.2864242709
 20
112.951508078
 10
113.2634555457
 20
110.6965200174
  0
LWPOLYLINE
  5
47B
100
AcDbEntity
  8
ASSI
100
AcDbPolyline
 62
7
  6
CONTINUOUS
 90
3
 70
0
 10
113.3221933082
 20
115.206156214
 10
113.2864242709
 20
112.951508078
 10
113.2634555457
 20
110.6965200174
  0
LINE
  5
47C
100
AcDbEntity
  8
0
100
AcDbLine
 62
253
  6
CONTINUOUS
 10
113.3743876943
 20
117.5282038645
 11
113.2915392884
 21
112.9975587757
  0
LINE
  5
47D
100
AcDbEntity
  8
0
100
AcDbLine
 62
253
  6
CONTINUOUS
 10
113.3961036691
 20
118.3696718787
 11
113.3269776331
 21
115.2350123666
  0
LINE
  5
47E
100
AcDbEntity
  8
0
100
AcDbLine
 62
253
  6
CONTINUOUS
 10
113.4369045825
 20
119.8232688211
 11
113.3894644963
 21
118.1327728425
  0
LINE
  5
47F
100
AcDbEntity
  8
0
100
AcDbLine
 62
253
  6
CONTINUOUS
 10
113.4499360841
 20
120.2450558858
 11
113.3749259118
 21
117.4721422726
  0
LWPOLYLINE
  5
480
100
AcDbEntity
  8
0
100
AcDbPolyline
 62
253
  6
CONTINUOUS
 90
5
 70
0
 10
113.4353815274
 20
119.7088422995
 10
113.5083385066
 20
121.944933862
 10
113.5937914164
 20
124.1803109105
 10
113.6917373903
 20
126.4149398756
 10
113.802172482
 20
128.6487510085
  0
LINE
  5
481
100
AcDbEntity
  8
0
100
AcDbLine
 62
253
  6
CONTINUOUS
 10
113.4499360841
 20
120.2450558858
 11
113.4786488435
 21
121.1260649796
  0
LWPOLYLINE
  5
482
100
AcDbEntity
  8
0
100
AcDbPolyline
 62
253
  6
CONTINUOUS
 90
16
 70
0
 10
113.2581980082
 20
107.0353207684
 10
113.2608165191
 20
107.0873622378
 10
113.268836902
 20
107.1388485865
 10
113.2821720501
 20
107.1892206372
 10
113.3006771345
 20
107.2379313151
 10
113.3241511775
 20
107.2844515888
 10
113.3523392347
 20
107.3282762163
 10
113.3849351646
 20
107.3689292322
 10
113.4215849531
 20
107.4059691168
 10
113.4618905583
 20
107.4389935916
 10
113.5054142338
 20
107.4676439882
 10
113.5516832827
 20
107.4916091436
 10
113.6001951914
 20
107.51062878
 10
113.6504230872
 20
107.5244963309
 10
113.701821461
 20
107.5330611854
 10
113.7538320912
 20
107.5362303231
  0
LWPOLYLINE
  5
483
100
AcDbEntity
  8
ASSI
100
AcDbPolyline
 62
253
  6
CONTINUOUS
 90
16
 70
0
 10
113.2581980082
 20
107.0353207684
 10
113.2608165191
 20
107.0873622378
 10
113.268836902
 20
107.1388485865
 10
113.2821720501
 20
107.1892206372
 10
113.3006771345
 20
107.2379313151
 10
113.3241511775
 20
107.2844515888
 10
113.3523392347
 20
107.3282762163
 10
113.3849351646
 20
107.3689292322
 10
113.4215849531
 20
107.4059691168
 10
113.4618905583
 20
107.4389935916
 10
113.5054142338
 20
107.4676439882
 10
113.5516832827
 20
107.4916091436
 10
113.6001951914
 20
107.51062878
 10
113.6504230872
 20
107.5244963309
 10
113.701821461
 20
107.5330611854
 10
113.7538320912
 20
107.5362303231
  0
LWPOLYLINE
  5
484
100
AcDbEntity
  8
0
100
AcDbPolyline
 62
253
  6
CONTINUOUS
 90
16
 70
0
 10
113.7042325623
 20
107.0393683197
 10
113.7069967258
 20
107.092354732
 10
113.715042806
 20
107.1436027251
 10
113.7281532789
 20
107.193230379
 10
113.7464391288
 20
107.2415599593
 10
113.7699223959
 20
107.2882708869
 10
113.7980790281
 20
107.33224109
 10
113.830456985
 20
107.3727812925
 10
113.866990106
 20
107.4098177293
 10
113.9072269077
 20
107.4429162119
 10
113.9505775153
 20
107.4715585486
 10
113.9966285648
 20
107.4954808183
 10
114.045009411
 20
107.5145200939
 10
114.0951729565
 20
107.5284189602
 10
114.1464104563
 20
107.5369649948
 10
114.1980614335
 20
107.5401070539
  0
LWPOLYLINE
  5
485
100
AcDbEntity
  8
ASSI
100
AcDbPolyline
 62
253
  6
CONTINUOUS
 90
16
 70
0
 10
113.7042325623
 20
107.0393683197
 10
113.7069967258
 20
107.092354732
 10
113.715042806
 20
107.1436027251
 10
113.7281532789
 20
107.193230379
 10
113.7464391288
 20
107.2415599593
 10
113.7699223959
 20
107.2882708869
 10
113.7980790281
 20
107.33224109
 10
113.830456985
 20
107.3727812925
 10
113.866990106
 20
107.4098177293
 10
113.9072269077
 20
107.4429162119
 10
113.9505775153
 20
107.4715585486
 10
113.9966285648
 20
107.4954808183
 10
114.045009411
 20
107.5145200939
 10
114.0951729565
 20
107.5284189602
 10
114.1464104563
 20
107.5369649948
 10
114.1980614335
 20
107.5401070539
  0
LINE
  5
486
100
AcDbEntity
  8
ASSI
100
AcDbLine
 62
7
  6
CONTINUOUS
 10
113.2727322327
 20
104.2602614671
 11
113.2726297164
 21
104.2602623262
  0
LINE
  5
487
100
AcDbEntity
  8
SUPERFICI
100
AcDbLine
 62
7
  6
CONTINUOUS
 10
113.2726292352
 20
104.2602623254
 11
113.2727322327
 21
104.260261465
  0
LINE
  5
488
100
AcDbEntity
  8
0
100
AcDbLine
 62
253
  6
CONTINUOUS
 10
115.2982193639
 20
129.4073862136
 11
115.3033660792
 21
129.3036619553
  0
LINE
  5
489
100
AcDbEntity
  8
ASSI
100
AcDbLine
 62
253
  6
CONTINUOUS
 10
115.2982193639
 20
129.4073862136
 11
115.3033660792
 21
129.3036619553
  0
LINE
  5
48A
100
AcDbEntity
  8
0
100
AcDbLine
 62
253
  6
CONTINUOUS
 10
115.2938682295
 20
129.5065850993
 11
115.2982193639
 21
129.4073862136
  0
LINE
  5
48B
100
AcDbEntity
  8
ASSI
100
AcDbLine
 62
253
  6
CONTINUOUS
 10
115.2938682295
 20
129.5065850993
 11
115.2982193639
 21
129.4073862136
  0
LINE
  5
48C
100
AcDbEntity
  8
0
100
AcDbLine
 62
253
  6
CONTINUOUS
 10
115.2892369173
 20
85.919643177
 11
115.2920519277
 21
86.0040530035
  0
LINE
  5
48D
100
AcDbEntity
  8
ASSI
100
AcDbLine
 62
253
  6
CONTINUOUS
 10
115.2892369173
 20
85.919643177
 11
115.2920519277
 21
86.0040530035
  0
LINE
  5
48E
100
AcDbEntity
  8
0
100
AcDbLine
 62
253
  6
CONTINUOUS
 10
115.2920519277
 20
86.0040530035
 11
115.2959315683
 21
86.0993458254
  0
LINE
  5
48F
100
AcDbEntity
  8
ASSI
100
AcDbLine
 62
253
  6
CONTINUOUS
 10
115.2920519277
 20
86.0040530035
 11
115.2959315683
 21
86.0993458254
  0
LWPOLYLINE
  5
490
100
AcDbEntity
  8
0
100
AcDbPolyline
 62
253
  6
CONTINUOUS
 90
3
 70
0
 10
115.2959315683
 20
86.0993458254
 10
115.3007065655
 20
86.2013641175
 10
115.3033660058
 20
86.2535106058
  0
LWPOLYLINE
  5
491
100
AcDbEntity
  8
ASSI
100
AcDbPolyline
 62
253
  6
CONTINUOUS
 90
3
 70
0
 10
115.2959315683
 20
86.0993458254
 10
115.3007065655
 20
86.2013641175
 10
115.3033660058
 20
86.2535106058
  0
LINE
  5
492
100
AcDbEntity
  8
0
100
AcDbLine
 62
7
  6
CONTINUOUS
 10
118.2073438536
 20
125.7120778798
 11
118.2073438536
 21
125.4506071997
  0
LINE
  5
493
100
AcDbEntity
  8
ASSI
100
AcDbLine
 62
7
  6
CONTINUOUS
 10
118.2073438536
 20
125.7120778798
 11
118.2073438536
 21
125.4506071997
  0
LINE
  5
494
100
AcDbEntity
  8
0
100
AcDbLine
 62
7
  6
CONTINUOUS
 10
118.2073438536
 20
90.1065653575
 11
118.2073438536
 21
89.8450946774
  0
LINE
  5
495
100
AcDbEntity
  8
ASSI
100
AcDbLine
 62
7
  6
CONTINUOUS
 10
118.2073438536
 20
90.1065653575
 11
118.2073438536
 21
89.8450946774
  0
LINE
  5
496
100
AcDbEntity
  8
0
100
AcDbLine
 62
7
  6
CONTINUOUS
 10
113.7490658093
 20
107.5361887284
 11
113.7302637079
 21
107.535128428
  0
LINE
  5
497
100
AcDbEntity
  8
ASSI
100
AcDbLine
 62
7
  6
CONTINUOUS
 10
113.7490658093
 20
107.5361887284
 11
113.7302637079
 21
107.535128428
  0
LINE
  5
498
100
AcDbEntity
  8
0
100
AcDbLine
 62
7
  6
CONTINUOUS
 10
113.2581982651
 20
107.0353207688
 11
113.2534328038
 21
107.0352714554
  0
LINE
  5
499
100
AcDbEntity
  8
ASSI
100
AcDbLine
 62
7
  6
CONTINUOUS
 10
113.2581982651
 20
107.0353207688
 11
113.2534328038
 21
107.0352714554
  0
LINE
  5
49A
100
AcDbEntity
  8
0
100
AcDbLine
 62
253
  6
CONTINUOUS
 10
113.70423255
 20
107.039368324
 11
113.2581982651
 21
107.0353207688
  0
LINE
  5
49B
100
AcDbEntity
  8
ASSI
100
AcDbLine
 62
253
  6
CONTINUOUS
 10
113.70423255
 20
107.039368324
 11
113.2581982651
 21
107.0353207688
  0
LINE
  5
49C
100
AcDbEntity
  8
0
100
AcDbLine
 62
253
  6
CONTINUOUS
 10
118.6073438536
 20
107.0786814608
 11
114.1893362271
 21
107.0401260923
  0
LINE
  5
49D
100
AcDbEntity
  8
ASSI
100
AcDbLine
 62
253
  6
CONTINUOUS
 10
118.6073438536
 20
107.0786814608
 11
114.1893362271
 21
107.0401260923
  0
LINE
  5
49E
100
AcDbEntity
  8
0
100
AcDbLine
 62
7
  6
CONTINUOUS
 10
118.6073438536
 20
107.5785862786
 11
113.7491452127
 21
107.5361894213
  0
LINE
  5
49F
100
AcDbEntity
  8
ASSI
100
AcDbLine
 62
7
  6
CONTINUOUS
 10
118.6073438536
 20
107.5785862786
 11
113.7491452127
 21
107.5361894213
  0
LINE
  5
4A0
100
AcDbEntity
  8
0
100
AcDbLine
 62
253
  6
CONTINUOUS
 10
114.1893362283
 20
107.0401260923
 11
113.7042325623
 21
107.0393683197
  0
LINE
  5
4A1
100
AcDbEntity
  8
ASSI
100
AcDbLine
 62
253
  6
CONTINUOUS
 10
114.1893362283
 20
107.0401260923
 11
113.7042325623
 21
107.0393683197
  0
LINE
  5
4A2
100
AcDbEntity
  8
0
100
AcDbLine
 62
7
  6
CONTINUOUS
 10
113.7490658093
 20
108.0209838288
 11
118.6073438536
 21
107.9785862786
  0
LINE
  5
4A3
100
AcDbEntity
  8
ASSI
100
AcDbLine
 62
7
  6
CONTINUOUS
 10
113.7490658093
 20
108.0209838288
 11
118.6073438536
 21
107.9785862786
  0
LINE
  5
4A4
100
AcDbEntity
  8
0
100
AcDbLine
 62
7
  6
CONTINUOUS
 10
117.8149849005
 20
129.9352905552
 11
118.6073438536
 21
120.8785862786
  0
LINE
  5
4A5
100
AcDbEntity
  8
ASSI
100
AcDbLine
 62
7
  6
CONTINUOUS
 10
117.8149849005
 20
129.9352905552
 11
118.6073438536
 21
120.8785862786
  0
LINE
  5
4A6
100
AcDbEntity
  8
0
100
AcDbLine
 62
7
  6
CONTINUOUS
 10
118.6073438536
 20
120.8785862786
 11
118.6073438536
 21
107.9785862786
  0
LINE
  5
4A7
100
AcDbEntity
  8
ASSI
100
AcDbLine
 62
7
  6
CONTINUOUS
 10
118.6073438536
 20
120.8785862786
 11
118.6073438536
 21
107.9785862786
  0
LINE
  5
4A8
100
AcDbEntity
  8
0
100
AcDbLine
 62
7
  6
CONTINUOUS
 10
118.6073438536
 20
94.6785862786
 11
118.6073438536
 21
107.5785862786
  0
LINE
  5
4A9
100
AcDbEntity
  8
ASSI
100
AcDbLine
 62
7
  6
CONTINUOUS
 10
118.6073438536
 20
94.6785862786
 11
118.6073438536
 21
107.5785862786
  0
LINE
  5
4AA
100
AcDbEntity
  8
0
100
AcDbLine
 62
7
  6
CONTINUOUS
 10
117.8149849005
 20
85.621882002
 11
118.6073438536
 21
94.6785862786
  0
LINE
  5
4AB
100
AcDbEntity
  8
ASSI
100
AcDbLine
 62
7
  6
CONTINUOUS
 10
117.8149849005
 20
85.621882002
 11
118.6073438536
 21
94.6785862786
  0
LINE
  5
4AC
100
AcDbEntity
  8
0
100
AcDbLine
 62
253
  6
CONTINUOUS
 10
113.7042326294
 20
108.5178042444
 11
114.1893362953
 21
108.5170464643
  0
LINE
  5
4AD
100
AcDbEntity
  8
ASSI
100
AcDbLine
 62
253
  6
CONTINUOUS
 10
113.7042326294
 20
108.5178042444
 11
114.1893362953
 21
108.5170464643
  0
LINE
  5
4AE
100
AcDbEntity
  8
0
100
AcDbLine
 62
253
  6
CONTINUOUS
 10
114.1893362941
 20
108.5170464643
 11
118.6073438536
 21
108.4784910964
  0
LINE
  5
4AF
100
AcDbEntity
  8
ASSI
100
AcDbLine
 62
253
  6
CONTINUOUS
 10
114.1893362941
 20
108.5170464643
 11
118.6073438536
 21
108.4784910964
  0
LINE
  5
4B0
100
AcDbEntity
  8
0
100
AcDbLine
 62
253
  6
CONTINUOUS
 10
113.2581982651
 20
108.5218517883
 11
113.7042325501
 21
108.5178042365
  0
LINE
  5
4B1
100
AcDbEntity
  8
ASSI
100
AcDbLine
 62
253
  6
CONTINUOUS
 10
113.2581982651
 20
108.5218517883
 11
113.7042325501
 21
108.5178042365
  0
LINE
  5
4B2
100
AcDbEntity
  8
0
100
AcDbLine
 62
7
  6
CONTINUOUS
 10
113.2581297326
 20
108.5218541246
 11
113.2534328367
 21
108.521901107
  0
LINE
  5
4B3
100
AcDbEntity
  8
ASSI
100
AcDbLine
 62
7
  6
CONTINUOUS
 10
113.2581297326
 20
108.5218541246
 11
113.2534328367
 21
108.521901107
  0
LINE
  5
4B4
100
AcDbEntity
  8
0
100
AcDbLine
 62
253
  6
CONTINUOUS
 10
118.2073438536
 20
125.7120778798
 11
118.1844681333
 21
125.7120778798
  0
LINE
  5
4B5
100
AcDbEntity
  8
ASSI
100
AcDbLine
 62
253
  6
CONTINUOUS
 10
118.2073438536
 20
125.7120778798
 11
118.1844681333
 21
125.7120778798
  0
LWPOLYLINE
  5
4B6
100
AcDbEntity
  8
0
100
AcDbPolyline
 62
253
  6
CONTINUOUS
 90
4
 70
0
 10
114.1525600115
 20
128.6558370958
 10
114.1582619082
 20
128.6555362786
 10
114.1687413306
 20
128.6550305395
 10
114.6378770406
 20
128.634402757
  0
LWPOLYLINE
  5
4B7
100
AcDbEntity
  8
ASSI
100
AcDbPolyline
 62
253
  6
CONTINUOUS
 90
4
 70
0
 10
114.1525600115
 20
128.6558370958
 10
114.1582619082
 20
128.6555362786
 10
114.1687413306
 20
128.6550305395
 10
114.6378770406
 20
128.634402757
  0
LINE
  5
4B8
100
AcDbEntity
  8
0
100
AcDbLine
 62
7
  6
CONTINUOUS
 10
113.802172482
 20
128.6487510085
 11
113.8015504502
 21
128.6488978948
  0
LINE
  5
4B9
100
AcDbEntity
  8
ASSI
100
AcDbLine
 62
7
  6
CONTINUOUS
 10
113.802172482
 20
128.6487510085
 11
113.8015504502
 21
128.6488978948
  0
LINE
  5
4BA
100
AcDbEntity
  8
0
100
AcDbLine
 62
7
  6
CONTINUOUS
 10
114.9371259908
 20
129.7844683607
 11
114.8500977841
 21
129.7767192028
  0
LINE
  5
4BB
100
AcDbEntity
  8
ASSI
100
AcDbLine
 62
7
  6
CONTINUOUS
 10
114.9371259908
 20
129.7844683607
 11
114.8500977841
 21
129.7767192028
  0
LINE
  5
4BC
100
AcDbEntity
  8
0
100
AcDbLine
 62
253
  6
CONTINUOUS
 10
115.3033660792
 20
129.3036619553
 11
117.8585295966
 21
129.4375724009
  0
LINE
  5
4BD
100
AcDbEntity
  8
ASSI
100
AcDbLine
 62
253
  6
CONTINUOUS
 10
115.3033660792
 20
129.3036619553
 11
117.8585295966
 21
129.4375724009
  0
LINE
  5
4BE
100
AcDbEntity
  8
0
100
AcDbLine
 62
7
  6
CONTINUOUS
 10
114.9377349971
 20
129.7845002773
 11
117.8149849005
 21
129.9352905552
  0
LINE
  5
4BF
100
AcDbEntity
  8
ASSI
100
AcDbLine
 62
7
  6
CONTINUOUS
 10
114.9377349971
 20
129.7845002773
 11
117.8149849005
 21
129.9352905552
  0
LWPOLYLINE
  5
4C0
100
AcDbEntity
  8
0
100
AcDbPolyline
 62
253
  6
CONTINUOUS
 90
5
 70
0
 10
114.1525471758
 20
128.6558376302
 10
113.8484724194
 20
128.6492330231
 10
113.8236866333
 20
128.6488337528
 10
113.8079495905
 20
128.6486729776
 10
113.802172482
 20
128.6487510085
  0
LWPOLYLINE
  5
4C1
100
AcDbEntity
  8
ASSI
100
AcDbPolyline
 62
253
  6
CONTINUOUS
 90
5
 70
0
 10
114.1525471758
 20
128.6558376302
 10
113.8484724194
 20
128.6492330231
 10
113.8236866333
 20
128.6488337528
 10
113.8079495905
 20
128.6486729776
 10
113.802172482
 20
128.6487510085
  0
ARC
  5
4C2
100
AcDbEntity
  8
0
100
AcDbCircle
 62
7
  6
CONTINUOUS
 10
115.000538152
 20
86.9710277212
 40
1.2
100
AcDbArc
 50
182.9905824671
 51
267.0000000773
  0
ARC
  5
4C3
100
AcDbEntity
  8
ASSI
100
AcDbCircle
 62
7
  6
CONTINUOUS
 10
115.000538152
 20
86.9710277212
 40
1.2
100
AcDbArc
 50
182.9905824671
 51
267.0000000773
  0
ARC
  5
4C4
100
AcDbEntity
  8
0
100
AcDbCircle
 62
7
  6
CONTINUOUS
 10
113.7534290902
 20
107.036207767
 40
0.5
100
AcDbArc
 50
90.5575989706
 51
180.1072238528
  0
ARC
  5
4C5
100
AcDbEntity
  8
ASSI
100
AcDbCircle
 62
7
  6
CONTINUOUS
 10
113.7534290902
 20
107.036207767
 40
0.5
100
AcDbArc
 50
90.5575989706
 51
180.1072238528
  0
ARC
  5
4C6
100
AcDbEntity
  8
0
100
AcDbCircle
 62
7
  6
CONTINUOUS
 10
115.0005371663
 20
128.5861447844
 40
1.2
100
AcDbArc
 50
92.9999527971
 51
177.0094126144
  0
ARC
  5
4C7
100
AcDbEntity
  8
ASSI
100
AcDbCircle
 62
7
  6
CONTINUOUS
 10
115.0005371663
 20
128.5861447844
 40
1.2
100
AcDbArc
 50
92.9999527971
 51
177.0094126144
  0
ARC
  5
4C8
100
AcDbEntity
  8
0
100
AcDbCircle
 62
7
  6
CONTINUOUS
 10
113.7534290902
 20
108.5209647902
 40
0.5
100
AcDbArc
 50
267.3411443881
 51
269.4424010294
  0
ARC
  5
4C9
100
AcDbEntity
  8
ASSI
100
AcDbCircle
 62
7
  6
CONTINUOUS
 10
113.7534290902
 20
108.5209647902
 40
0.5
100
AcDbArc
 50
267.3411443881
 51
269.4424010294
  0
ARC
  5
4CA
100
AcDbEntity
  8
0
100
AcDbCircle
 62
7
  6
CONTINUOUS
 10
117.9073438536
 20
89.8450946774
 40
0.3
100
AcDbArc
 50
334.999934893
 51
0.0004327973
  0
ARC
  5
4CB
100
AcDbEntity
  8
ASSI
100
AcDbCircle
 62
7
  6
CONTINUOUS
 10
117.9073438536
 20
89.8450946774
 40
0.3
100
AcDbArc
 50
334.999934893
 51
0.0004327973
  0
ARC
  5
4CC
100
AcDbEntity
  8
0
100
AcDbCircle
 62
7
  6
CONTINUOUS
 10
117.9073438536
 20
125.7120778798
 40
0.3
100
AcDbArc
 50
359.9995672027
 51
25.0000856102
  0
ARC
  5
4CD
100
AcDbEntity
  8
ASSI
100
AcDbCircle
 62
7
  6
CONTINUOUS
 10
117.9073438536
 20
125.7120778798
 40
0.3
100
AcDbArc
 50
359.9995672027
 51
25.0000856102
  0
ELLIPSE
  5
4CE
100
AcDbEntity
  8
0
100
AcDbEllipse
 62
7
  6
CONTINUOUS
 10
132.126592715
 20
85.6484863419
 30
0.0
 11
0.2
 21
0.0
 31
0.0
 40
0.0524077793
 41
1.5707963268
 42
2.617993878
  0
ELLIPSE
  5
4CF
100
AcDbEntity
  8
0
100
AcDbEllipse
 62
7
  6
CONTINUOUS
 10
135.4956526073
 20
85.6484863419
 30
0.0
 11
0.2
 21
-0.0
 31
0.0
 40
0.0524077793
 41
0.5235987756
 42
1.5707963268
  0
ELLIPSE
  5
4D0
100
AcDbEntity
  8
0
100
AcDbEllipse
 62
7
  6
CONTINUOUS
 10
143.326592715
 20
85.6484863419
 30
0.0
 11
0.2
 21
0.0
 31
0.0
 40
0.0524077793
 41
1.5707963268
 42
2.617993878
  0
ELLIPSE
  5
4D1
100
AcDbEntity
  8
0
100
AcDbEllipse
 62
7
  6
CONTINUOUS
 10
146.6956526073
 20
85.6484863419
 30
0.0
 11
0.2
 21
0.0
 31
0.0
 40
0.0524077793
 41
0.5235987756
 42
1.5707963268
  0
ELLIPSE
  5
4D2
100
AcDbEntity
  8
0
100
AcDbEllipse
 62
7
  6
CONTINUOUS
 10
157.9956526073
 20
85.6484863419
 30
0.0
 11
0.2
 21
0.0
 31
0.0
 40
0.0524077793
 41
0.5235987756
 42
1.5707963268
  0
ELLIPSE
  5
4D3
100
AcDbEntity
  8
0
100
AcDbEllipse
 62
7
  6
CONTINUOUS
 10
154.626592715
 20
85.6484863419
 30
0.0
 11
0.2
 21
-0.0
 31
0.0
 40
0.0524077793
 41
1.5707963268
 42
2.617993878
  0
ELLIPSE
  5
4D4
100
AcDbEntity
  8
0
100
AcDbEllipse
 62
7
  6
CONTINUOUS
 10
165.826592715
 20
85.6484863419
 30
0.0
 11
0.2
 21
-0.0
 31
0.0
 40
0.0524077793
 41
1.5707963268
 42
2.617993878
  0
ELLIPSE
  5
4D5
100
AcDbEntity
  8
0
100
AcDbEllipse
 62
7
  6
CONTINUOUS
 10
169.1956526073
 20
85.6484863419
 30
0.0
 11
0.2
 21
0.0
 31
0.0
 40
0.0524077793
 41
0.5235987756
 42
1.5707963268
  0
ELLIPSE
  5
4D6
100
AcDbEntity
  8
0
100
AcDbEllipse
 62
7
  6
CONTINUOUS
 10
172.4101354668
 20
107.0785672394
 30
0.0
 11
0.4745319423
 21
0.1581451893
 31
0.0
 40
0.9996192872
 41
-0.3215754254
 42
1.2489924674
  0
ELLIPSE
  5
4D7
100
AcDbEntity
  8
0
100
AcDbEllipse
 62
7
  6
CONTINUOUS
 10
128.9121098554
 20
107.0785672394
 30
0.0
 11
0.4745319423
 21
-0.1581451893
 31
0.0
 40
0.9996192872
 41
1.8926001863
 42
3.463168079
  0
ELLIPSE
  5
4D8
100
AcDbEntity
  8
0
100
AcDbEllipse
 62
7
  6
CONTINUOUS
 10
172.3905286397
 20
86.1202829634
 30
0.0
 11
0.4962344879
 21
0.0628595572
 31
0.0
 40
0.9963456432
 41
-1.6972555761
 42
-0.1278292453
  0
ELLIPSE
  5
4D9
100
AcDbEntity
  8
0
100
AcDbEllipse
 62
7
  6
CONTINUOUS
 10
128.9317166825
 20
86.1202829634
 30
0.0
 11
0.4962344879
 21
-0.0628595572
 31
0.0
 40
0.9963456432
 41
-3.0137634083
 42
-1.4443370775
  0
ELLIPSE
  5
4DA
100
AcDbEntity
  8
ASSI
100
AcDbEllipse
 62
7
  6
CONTINUOUS
 10
132.126592715
 20
85.6484863419
 30
0.0
 11
0.2
 21
0.0
 31
0.0
 40
0.0524077793
 41
1.5707963268
 42
2.617993878
  0
ELLIPSE
  5
4DB
100
AcDbEntity
  8
ASSI
100
AcDbEllipse
 62
7
  6
CONTINUOUS
 10
135.4956526073
 20
85.6484863419
 30
0.0
 11
0.2
 21
-0.0
 31
0.0
 40
0.0524077793
 41
0.5235987756
 42
1.5707963268
  0
ELLIPSE
  5
4DC
100
AcDbEntity
  8
ASSI
100
AcDbEllipse
 62
7
  6
CONTINUOUS
 10
143.326592715
 20
85.6484863419
 30
0.0
 11
0.2
 21
0.0
 31
0.0
 40
0.0524077793
 41
1.5707963268
 42
2.617993878
  0
ELLIPSE
  5
4DD
100
AcDbEntity
  8
ASSI
100
AcDbEllipse
 62
7
  6
CONTINUOUS
 10
146.6956526073
 20
85.6484863419
 30
0.0
 11
0.2
 21
0.0
 31
0.0
 40
0.0524077793
 41
0.5235987756
 42
1.5707963268
  0
ELLIPSE
  5
4DE
100
AcDbEntity
  8
ASSI
100
AcDbEllipse
 62
7
  6
CONTINUOUS
 10
157.9956526073
 20
85.6484863419
 30
0.0
 11
0.2
 21
0.0
 31
0.0
 40
0.0524077793
 41
0.5235987756
 42
1.5707963268
  0
ELLIPSE
  5
4DF
100
AcDbEntity
  8
ASSI
100
AcDbEllipse
 62
7
  6
CONTINUOUS
 10
154.626592715
 20
85.6484863419
 30
0.0
 11
0.2
 21
-0.0
 31
0.0
 40
0.0524077793
 41
1.5707963268
 42
2.617993878
  0
ELLIPSE
  5
4E0
100
AcDbEntity
  8
ASSI
100
AcDbEllipse
 62
7
  6
CONTINUOUS
 10
165.826592715
 20
85.6484863419
 30
0.0
 11
0.2
 21
-0.0
 31
0.0
 40
0.0524077793
 41
1.5707963268
 42
2.617993878
  0
ELLIPSE
  5
4E1
100
AcDbEntity
  8
ASSI
100
AcDbEllipse
 62
7
  6
CONTINUOUS
 10
169.1956526073
 20
85.6484863419
 30
0.0
 11
0.2
 21
0.0
 31
0.0
 40
0.0524077793
 41
0.5235987756
 42
1.5707963268
  0
ELLIPSE
  5
4E2
100
AcDbEntity
  8
ASSI
100
AcDbEllipse
 62
7
  6
CONTINUOUS
 10
172.4101354668
 20
107.0785672394
 30
0.0
 11
0.4745319423
 21
0.1581451893
 31
0.0
 40
0.9996192872
 41
-0.3215754254
 42
1.2489924674
  0
ELLIPSE
  5
4E3
100
AcDbEntity
  8
ASSI
100
AcDbEllipse
 62
7
  6
CONTINUOUS
 10
128.9121098554
 20
107.0785672394
 30
0.0
 11
0.4745319423
 21
-0.1581451893
 31
0.0
 40
0.9996192872
 41
1.8926001863
 42
3.463168079
  0
ELLIPSE
  5
4E4
100
AcDbEntity
  8
ASSI
100
AcDbEllipse
 62
7
  6
CONTINUOUS
 10
172.3905286397
 20
86.1202829634
 30
0.0
 11
0.4962344879
 21
0.0628595572
 31
0.0
 40
0.9963456432
 41
-1.6972555761
 42
-0.1278292453
  0
ELLIPSE
  5
4E5
100
AcDbEntity
  8
ASSI
100
AcDbEllipse
 62
7
  6
CONTINUOUS
 10
128.9317166825
 20
86.1202829634
 30
0.0
 11
0.4962344879
 21
-0.0628595572
 31
0.0
 40
0.9963456432
 41
-3.0137634083
 42
-1.4443370775
  0
ELLIPSE
  5
4E6
100
AcDbEntity
  8
0
100
AcDbEllipse
 62
7
  6
CONTINUOUS
 10
169.1956526073
 20
129.9086862153
 30
0.0
 11
0.2
 21
0.0
 31
0.0
 40
0.0524077793
 41
-1.5707963268
 42
-0.5235987756
  0
ELLIPSE
  5
4E7
100
AcDbEntity
  8
0
100
AcDbEllipse
 62
7
  6
CONTINUOUS
 10
165.826592715
 20
129.9086862153
 30
0.0
 11
0.2
 21
0.0
 31
0.0
 40
0.0524077793
 41
-2.617993878
 42
-1.5707963268
  0
ELLIPSE
  5
4E8
100
AcDbEntity
  8
0
100
AcDbEllipse
 62
7
  6
CONTINUOUS
 10
157.9956526073
 20
129.9086862153
 30
0.0
 11
0.2
 21
0.0
 31
0.0
 40
0.0524077793
 41
-1.5707963268
 42
-0.5235987756
  0
ELLIPSE
  5
4E9
100
AcDbEntity
  8
0
100
AcDbEllipse
 62
7
  6
CONTINUOUS
 10
154.626592715
 20
129.9086862153
 30
0.0
 11
0.2
 21
0.0
 31
0.0
 40
0.0524077793
 41
-2.617993878
 42
-1.5707963268
  0
ELLIPSE
  5
4EA
100
AcDbEntity
  8
0
100
AcDbEllipse
 62
7
  6
CONTINUOUS
 10
143.326592715
 20
129.9086862153
 30
0.0
 11
0.2
 21
0.0
 31
0.0
 40
0.0524077793
 41
-2.617993878
 42
-1.5707963268
  0
ELLIPSE
  5
4EB
100
AcDbEntity
  8
0
100
AcDbEllipse
 62
7
  6
CONTINUOUS
 10
146.6956526073
 20
129.9086862153
 30
0.0
 11
0.2
 21
-0.0
 31
0.0
 40
0.0524077793
 41
-1.5707963268
 42
-0.5235987756
  0
ELLIPSE
  5
4EC
100
AcDbEntity
  8
0
100
AcDbEllipse
 62
7
  6
CONTINUOUS
 10
135.4956526073
 20
129.9086862153
 30
0.0
 11
0.2
 21
0.0
 31
0.0
 40
0.0524077793
 41
-1.5707963268
 42
-0.5235987756
  0
ELLIPSE
  5
4ED
100
AcDbEntity
  8
0
100
AcDbEllipse
 62
7
  6
CONTINUOUS
 10
132.126592715
 20
129.9086862153
 30
0.0
 11
0.2
 21
0.0
 31
0.0
 40
0.0524077793
 41
-2.617993878
 42
-1.5707963268
  0
ELLIPSE
  5
4EE
100
AcDbEntity
  8
0
100
AcDbEllipse
 62
7
  6
CONTINUOUS
 10
128.9121098554
 20
108.4786053178
 30
0.0
 11
0.4745319423
 21
0.1581451893
 31
0.0
 40
0.9996192872
 41
2.8200172282
 42
4.3905851209
  0
ELLIPSE
  5
4EF
100
AcDbEntity
  8
0
100
AcDbEllipse
 62
7
  6
CONTINUOUS
 10
172.4101354668
 20
108.4786053178
 30
0.0
 11
0.4745319423
 21
-0.1581451893
 31
0.0
 40
0.9996192872
 41
-1.2489924673
 42
0.3215754255
  0
ELLIPSE
  5
4F0
100
AcDbEntity
  8
0
100
AcDbEllipse
 62
7
  6
CONTINUOUS
 10
128.9317166825
 20
129.4368895938
 30
0.0
 11
0.4962344879
 21
0.0628595572
 31
0.0
 40
0.9963456432
 41
1.4443370775
 42
3.0137634083
  0
ELLIPSE
  5
4F1
100
AcDbEntity
  8
0
100
AcDbEllipse
 62
7
  6
CONTINUOUS
 10
172.3905286397
 20
129.4368895938
 30
0.0
 11
0.4962344879
 21
-0.0628595572
 31
0.0
 40
0.9963456432
 41
0.1278292453
 42
1.6972555761
  0
ELLIPSE
  5
4F2
100
AcDbEntity
  8
ASSI
100
AcDbEllipse
 62
7
  6
CONTINUOUS
 10
169.1956526073
 20
129.9086862153
 30
0.0
 11
0.2
 21
0.0
 31
0.0
 40
0.0524077793
 41
-1.5707963268
 42
-0.5235987756
  0
ELLIPSE
  5
4F3
100
AcDbEntity
  8
ASSI
100
AcDbEllipse
 62
7
  6
CONTINUOUS
 10
165.826592715
 20
129.9086862153
 30
0.0
 11
0.2
 21
0.0
 31
0.0
 40
0.0524077793
 41
-2.617993878
 42
-1.5707963268
  0
ELLIPSE
  5
4F4
100
AcDbEntity
  8
ASSI
100
AcDbEllipse
 62
7
  6
CONTINUOUS
 10
157.9956526073
 20
129.9086862153
 30
0.0
 11
0.2
 21
0.0
 31
0.0
 40
0.0524077793
 41
-1.5707963268
 42
-0.5235987756
  0
ELLIPSE
  5
4F5
100
AcDbEntity
  8
ASSI
100
AcDbEllipse
 62
7
  6
CONTINUOUS
 10
154.626592715
 20
129.9086862153
 30
0.0
 11
0.2
 21
0.0
 31
0.0
 40
0.0524077793
 41
-2.617993878
 42
-1.5707963268
  0
ELLIPSE
  5
4F6
100
AcDbEntity
  8
ASSI
100
AcDbEllipse
 62
7
  6
CONTINUOUS
 10
143.326592715
 20
129.9086862153
 30
0.0
 11
0.2
 21
0.0
 31
0.0
 40
0.0524077793
 41
-2.617993878
 42
-1.5707963268
  0
ELLIPSE
  5
4F7
100
AcDbEntity
  8
ASSI
100
AcDbEllipse
 62
7
  6
CONTINUOUS
 10
146.6956526073
 20
129.9086862153
 30
0.0
 11
0.2
 21
-0.0
 31
0.0
 40
0.0524077793
 41
-1.5707963268
 42
-0.5235987756
  0
ELLIPSE
  5
4F8
100
AcDbEntity
  8
ASSI
100
AcDbEllipse
 62
7
  6
CONTINUOUS
 10
135.4956526073
 20
129.9086862153
 30
0.0
 11
0.2
 21
0.0
 31
0.0
 40
0.0524077793
 41
-1.5707963268
 42
-0.5235987756
  0
ELLIPSE
  5
4F9
100
AcDbEntity
  8
ASSI
100
AcDbEllipse
 62
7
  6
CONTINUOUS
 10
132.126592715
 20
129.9086862153
 30
0.0
 11
0.2
 21
0.0
 31
0.0
 40
0.0524077793
 41
-2.617993878
 42
-1.5707963268
  0
ELLIPSE
  5
4FA
100
AcDbEntity
  8
ASSI
100
AcDbEllipse
 62
7
  6
CONTINUOUS
 10
128.9121098554
 20
108.4786053178
 30
0.0
 11
0.4745319423
 21
0.1581451893
 31
0.0
 40
0.9996192872
 41
2.8200172282
 42
4.3905851209
  0
ELLIPSE
  5
4FB
100
AcDbEntity
  8
ASSI
100
AcDbEllipse
 62
7
  6
CONTINUOUS
 10
172.4101354668
 20
108.4786053178
 30
0.0
 11
0.4745319423
 21
-0.1581451893
 31
0.0
 40
0.9996192872
 41
-1.2489924673
 42
0.3215754255
  0
ELLIPSE
  5
4FC
100
AcDbEntity
  8
ASSI
100
AcDbEllipse
 62
7
  6
CONTINUOUS
 10
128.9317166825
 20
129.4368895938
 30
0.0
 11
0.4962344879
 21
0.0628595572
 31
0.0
 40
0.9963456432
 41
1.4443370775
 42
3.0137634083
  0
ELLIPSE
  5
4FD
100
AcDbEntity
  8
ASSI
100
AcDbEllipse
 62
7
  6
CONTINUOUS
 10
172.3905286397
 20
129.4368895938
 30
0.0
 11
0.4962344879
 21
-0.0628595572
 31
0.0
 40
0.9963456432
 41
0.1278292453
 42
1.6972555761
  0
ENDSEC
  0
SECTION
  2
OBJECTS
  0
DICTIONARY
  5
C
100
AcDbDictionary
280
0
281
1
  3
ACAD_GROUP
350
D
  3
ACAD_MLINESTYLE
350
17
  3
ACAD_LAYOUT
350
1A
  3
ACAD_PLOTSETTINGS
350
19
  3
ACAD_PLOTSTYLENAME
350
E
  0
DICTIONARY
  5
D
102
{ACAD_REACTORS
330
C
102
}
100
AcDbDictionary
280
0
281
1
  0
ACDBDICTIONARYWDFLT
  5
E
102
{ACAD_REACTORS
330
C
102
}
100
AcDbDictionary
281
1
  3
Normal
350
F
100
AcDbDictionaryWithDefault
340
F
  0
DICTIONARY
  5
17
102
{ACAD_REACTORS
330
C
102
}
100
AcDbDictionary
280
0
281
1
  3
Standard
350
18
  0
DICTIONARY
  5
19
102
{ACAD_REACTORS
330
C
102
}
100
AcDbDictionary
281
1
  0
DICTIONARY
  5
1A
102
{ACAD_REACTORS
330
C
102
}
100
AcDbDictionary
281
1
  3
Model
350
4FE
  3
Layout1
350
4FF
  0
ACDBPLACEHOLDER
  5
F
102
{ACAD_REACTORS
330
E
102
}
  0
MLINESTYLE
  5
18
102
{ACAD_REACTORS
330
17
102
}
100
AcDbMlineStyle
  2
STANDARD
 70
0
  3

 62
256
 51
90.0
 52
90.0
 71
2
 49
0.5
 62
256
  6
BYLAYER
 49
-0.5
 62
256
  6
BYLAYER
  0
LAYOUT
  5
4FE
102
{ACAD_REACTORS
330
1A
102
}
100
AcDbPlotSettings
  1

  2
none_device
  4
ISO_A4_(297.00_x_210.00_MM)
  6

 40
0.0
 41
0.0
 42
0.0
 43
0.0
 44
297.0
 45
210.0
 46
0.0
 47
0.0
 48
0.0
 49
0.0
140
0.0
141
0.0
142
1.0
143
1.0
 70
1024
 72
1
 73
0
 74
0
  7

 75
0
147
1.0
148
0.0
149
0.0
100
AcDbLayout
  1
Model
 70
0
 71
0
 10
0.0
 20
0.0
 11
297.0
 21
210.0
 12
0.0
 22
0.0
 32
0.0
 14
0.0
 24
0.0
 34
0.0
 15
0.0
 25
0.0
 35
0.0
146
0.0
 13
0.0
 23
0.0
 33
0.0
 16
1.0
 26
0.0
 36
0.0
 17
0.0
 27
1.0
 37
0.0
 76
0
330
21F
345
0
346
0
  0
LAYOUT
  5
4FF
102
{ACAD_REACTORS
330
1A
102
}
100
AcDbPlotSettings
  1

  2
none_device
  4
ISO_A4_(297.00_x_210.00_MM)
  6

 40
0.0
 41
0.0
 42
0.0
 43
0.0
 44
297.0
 45
210.0
 46
0.0
 47
0.0
 48
0.0
 49
0.0
140
0.0
141
0.0
142
1.0
143
1.0
 70
0
 72
1
 73
0
 74
0
  7

 75
0
147
1.0
148
0.0
149
0.0
100
AcDbLayout
  1
Layout1
 70
0
 71
1
 10
0.0
 20
0.0
 11
297.0
 21
210.0
 12
0.0
 22
0.0
 32
0.0
 14
0.0
 24
0.0
 34
0.0
 15
0.0
 25
0.0
 35
0.0
146
0.0
 13
0.0
 23
0.0
 33
0.0
 16
1.0
 26
0.0
 36
0.0
 17
0.0
 27
1.0
 37
0.0
 76
0
330
220
345
0
346
0
  0
ENDSEC
  0
EOF
