  0
SECTION
  2
HEADER
  9
$ACADVER
  1
AC1021
  9
$DWGCODEPAGE
  3
ANSI_1252
  9
$EXTMAX
 10
297.0
 20
210.0
 30
0.0
  9
$EXTMIN
 10
0.0
 20
0.0
 30
0.0
  9
$LIMMIN
 10
0.0
 20
0.0
  9
$LIMMAX
 10
297.0
 20
210.0
  9
$VIEWCTR
 10
148.5
 20
105.0
  9
$VIEWSIZE
 40
210.0
  9
$CLAYER
  8
0
  9
$LTSCALE
 40
16.335
  9
$CELTYPE
  6
BYLAYER
  9
$DIMSCALE
 40
1.0
  9
$DIMASZ
 40
3.0
  9
$DIMEXO
 40
1.85625
  9
$DIMDLI
 40
11.286
  9
$DIMEXE
 40
5.346
  9
$DIMCEN
 40
2.673
  9
$DIMLFAC
 40
1.0
  9
$DIMBLK
  1
_FILLED
  9
$DIMTXT
 40
3.0
  9
$DIMTOL
 70
1
  9
$DIMLIM
 70
0
  9
$DIMTFAC
 40
1.0
  9
$DIMTP
 40
0.01
  9
$DIMTM
 40
0.01
  9
$PDMODE
 70
3
  9
$PDSIZE
 40
3.0
  9
$HANDSEED
  5
4EF
  9
$TILEMODE
 70
1
  9
$MEASUREMENT
 70
1
  9
$INSUNITS
 70
4
  0
ENDSEC
  0
SECTION
  2
CLASSES
  0
CLASS
  1
ACDBDICTIONARYWDFLT
  2
AcDbDictionaryWithDefault
  3
AutoCAD 2000
 90
0
 91
1
280
0
281
0
  0
CLASS
  1
ACDBPLACEHOLDER
  2
AcDbPlaceHolder
  3
AutoCAD 2000
 90
0
 91
1
280
0
281
0
  0
CLASS
  1
LAYOUT
  2
AcDbLayout
  3
AutoCAD 2000
 90
0
 91
0
280
0
281
0
  0
ENDSEC
  0
SECTION
  2
TABLES
  0
TABLE
  2
VPORT
  5
8
100
AcDbSymbolTable
 70
2
  0
VPORT
  5
1F4
100
AcDbSymbolTableRecord
100
AcDbViewportTableRecord
  2
*ACTIVE
 70
0
 10
0.0
 20
0.0
 11
1.0
 21
1.0
 12
148.5
 22
105.0
 13
0.0
 23
0.0
 14
1.0
 24
1.0
 15
0.0
 25
0.0
 16
0.0
 26
0.0
 36
1.0
 17
0.0
 27
0.0
 37
0.0
 40
210.0
 41
1.4142857143
 42
50.0
 43
0.0
 44
0.0
 50
0.0
 51
0.0
 71
0
 72
100
 73
1
 74
1
 75
0
 76
0
 77
0
 78
0
  0
ENDTAB
  0
TABLE
  2
LTYPE
  5
5
100
AcDbSymbolTable
 70
6
  0
LTYPE
  5
14
100
AcDbSymbolTableRecord
100
AcDbLinetypeTableRecord
  2
BYBLOCK
 70
0
  3

 72
65
 73
0
 40
0.0
  0
LTYPE
  5
15
100
AcDbSymbolTableRecord
100
AcDbLinetypeTableRecord
  2
BYLAYER
 70
0
  3

 72
65
 73
0
 40
0.0
  0
LTYPE
  5
16
100
AcDbSymbolTableRecord
100
AcDbLinetypeTableRecord
  2
CONTINUOUS
 70
64
  3
Solid line
 72
65
 73
0
 40
0.0
  0
LTYPE
  5
1F5
100
AcDbSymbolTableRecord
100
AcDbLinetypeTableRecord
  2
CENTER
 70
64
  3
____ _ ____ _ ____ _ ____ _ ____ _ ____ _ ____
 72
65
 73
4
 40
0.6
 49
0.375
 74
0
 49
-0.075
 74
0
 49
0.075
 74
0
 49
-0.075
 74
0
  0
LTYPE
  5
1F6
100
AcDbSymbolTableRecord
100
AcDbLinetypeTableRecord
  2
HIDDEN
 70
64
  3
- - - - - - - - - - - - - - - - - - - -
 72
65
 73
2
 40
0.2
 49
0.1
 74
0
 49
-0.1
 74
0
  0
LTYPE
  5
1F7
100
AcDbSymbolTableRecord
100
AcDbLinetypeTableRecord
  2
PHANTOM
 70
64
  3
_____ _ _ _____ _ _ _____ _ _ _____
 72
65
 73
6
 40
0.8
 49
0.45
 74
0
 49
-0.05
 74
0
 49
0.1
 74
0
 49
-0.05
 74
0
 49
0.1
 74
0
 49
-0.05
 74
0
  0
LTYPE
  5
1F8
100
AcDbSymbolTableRecord
100
AcDbLinetypeTableRecord
  2
DOT
 70
64
  3
. . . . . . . . . . . . . . . . . . . .
 72
65
 73
2
 40
0.2
 49
0.1
 74
0
 49
-0.1
 74
0
  0
LTYPE
  5
1F9
100
AcDbSymbolTableRecord
100
AcDbLinetypeTableRecord
  2
DASHED
 70
64
  3
- - - - - - - - - - - - - - - - - - - -
 72
65
 73
2
 40
0.2
 49
0.1
 74
0
 49
-0.1
 74
0
  0
ENDTAB
  0
TABLE
  2
LAYER
  5
2
100
AcDbSymbolTable
 70
36
  0
LAYER
  5
10
100
AcDbSymbolTableRecord
100
AcDbLayerTableRecord
  2
0
 70
0
 62
7
  6
CONTINUOUS
370
-3
390
F
  0
LAYER
  5
1FA
100
AcDbSymbolTableRecord
100
AcDbLayerTableRecord
  2
DEFAULT_1
 70
0
 62
7
  6
CENTER
370
-3
390
F
  0
LAYER
  5
1FB
100
AcDbSymbolTableRecord
100
AcDbLayerTableRecord
  2
DEFAULT_2
 70
0
 62
7
  6
HIDDEN
370
-3
390
F
  0
LAYER
  5
1FC
100
AcDbSymbolTableRecord
100
AcDbLayerTableRecord
  2
DEFAULT_3
 70
0
 62
7
  6
PHANTOM
370
-3
390
F
  0
LAYER
  5
1FD
100
AcDbSymbolTableRecord
100
AcDbLayerTableRecord
  2
ASSI
 70
0
 62
7
  6
CONTINUOUS
370
-3
390
F
  0
LAYER
  5
1FE
100
AcDbSymbolTableRecord
100
AcDbLayerTableRecord
  2
COLOR3
 70
0
 62
7
  6
CONTINUOUS
370
-3
390
F
  0
LAYER
  5
1FF
100
AcDbSymbolTableRecord
100
AcDbLayerTableRecord
  2
COORDINATE
 70
0
 62
7
  6
CONTINUOUS
370
-3
390
F
  0
LAYER
  5
200
100
AcDbSymbolTableRecord
100
AcDbLayerTableRecord
  2
COPY_PUBLISH
 70
0
 62
7
  6
CONTINUOUS
370
-3
390
F
  0
LAYER
  5
201
100
AcDbSymbolTableRecord
100
AcDbLayerTableRecord
  2
COSMETIC
 70
0
 62
7
  6
CONTINUOUS
370
-3
390
F
  0
LAYER
  5
202
100
AcDbSymbolTableRecord
100
AcDbLayerTableRecord
  2
COSMETICI
 70
0
 62
7
  6
CONTINUOUS
370
-3
390
F
  0
LAYER
  5
203
100
AcDbSymbolTableRecord
100
AcDbLayerTableRecord
  2
CURVE
 70
0
 62
7
  6
CONTINUOUS
370
-3
390
F
  0
LAYER
  5
204
100
AcDbSymbolTableRecord
100
AcDbLayerTableRecord
  2
DRAFT
 70
0
 62
7
  6
CONTINUOUS
370
-3
390
F
  0
LAYER
  5
205
100
AcDbSymbolTableRecord
100
AcDbLayerTableRecord
  2
IMPORT_IGES
 70
0
 62
7
  6
CONTINUOUS
370
-3
390
F
  0
LAYER
  5
206
100
AcDbSymbolTableRecord
100
AcDbLayerTableRecord
  2
INTFCLR_1
 70
0
 62
7
  6
CONTINUOUS
370
-3
390
F
  0
LAYER
  5
207
100
AcDbSymbolTableRecord
100
AcDbLayerTableRecord
  2
INTF_1
 70
0
 62
7
  6
CONTINUOUS
370
-3
390
F
  0
LAYER
  5
208
100
AcDbSymbolTableRecord
100
AcDbLayerTableRecord
  2
INTF_10
 70
0
 62
7
  6
CONTINUOUS
370
-3
390
F
  0
LAYER
  5
209
100
AcDbSymbolTableRecord
100
AcDbLayerTableRecord
  2
INTF_13
 70
0
 62
7
  6
CONTINUOUS
370
-3
390
F
  0
LAYER
  5
20A
100
AcDbSymbolTableRecord
100
AcDbLayerTableRecord
  2
INTF_15
 70
0
 62
7
  6
CONTINUOUS
370
-3
390
F
  0
LAYER
  5
20B
100
AcDbSymbolTableRecord
100
AcDbLayerTableRecord
  2
INTF_16
 70
0
 62
7
  6
CONTINUOUS
370
-3
390
F
  0
LAYER
  5
20C
100
AcDbSymbolTableRecord
100
AcDbLayerTableRecord
  2
INTF_18
 70
0
 62
7
  6
CONTINUOUS
370
-3
390
F
  0
LAYER
  5
20D
100
AcDbSymbolTableRecord
100
AcDbLayerTableRecord
  2
INTF_20
 70
0
 62
7
  6
CONTINUOUS
370
-3
390
F
  0
LAYER
  5
20E
100
AcDbSymbolTableRecord
100
AcDbLayerTableRecord
  2
INTF_3
 70
0
 62
7
  6
CONTINUOUS
370
-3
390
F
  0
LAYER
  5
20F
100
AcDbSymbolTableRecord
100
AcDbLayerTableRecord
  2
INTF_5
 70
0
 62
7
  6
CONTINUOUS
370
-3
390
F
  0
LAYER
  5
210
100
AcDbSymbolTableRecord
100
AcDbLayerTableRecord
  2
INTF_8
 70
0
 62
7
  6
CONTINUOUS
370
-3
390
F
  0
LAYER
  5
211
100
AcDbSymbolTableRecord
100
AcDbLayerTableRecord
  2
NOTE
 70
0
 62
7
  6
CONTINUOUS
370
-3
390
F
  0
LAYER
  5
212
100
AcDbSymbolTableRecord
100
AcDbLayerTableRecord
  2
PIANI
 70
0
 62
7
  6
CONTINUOUS
370
-3
390
F
  0
LAYER
  5
213
100
AcDbSymbolTableRecord
100
AcDbLayerTableRecord
  2
PUNTI
 70
0
 62
7
  6
CONTINUOUS
370
-3
390
F
  0
LAYER
  5
214
100
AcDbSymbolTableRecord
100
AcDbLayerTableRecord
  2
RACCORDO
 70
0
 62
7
  6
CONTINUOUS
370
-3
390
F
  0
LAYER
  5
215
100
AcDbSymbolTableRecord
100
AcDbLayerTableRecord
  2
SIMBOLI
 70
0
 62
7
  6
CONTINUOUS
370
-3
390
F
  0
LAYER
  5
216
100
AcDbSymbolTableRecord
100
AcDbLayerTableRecord
  2
SMUSSO
 70
0
 62
7
  6
CONTINUOUS
370
-3
390
F
  0
LAYER
  5
217
100
AcDbSymbolTableRecord
100
AcDbLayerTableRecord
  2
SNAPLINE
 70
0
 62
7
  6
CONTINUOUS
370
-3
390
F
  0
LAYER
  5
218
100
AcDbSymbolTableRecord
100
AcDbLayerTableRecord
  2
SOLIDO
 70
0
 62
7
  6
CONTINUOUS
370
-3
390
F
  0
LAYER
  5
219
100
AcDbSymbolTableRecord
100
AcDbLayerTableRecord
  2
SUPERFICI
 70
0
 62
7
  6
CONTINUOUS
370
-3
390
F
  0
LAYER
  5
21A
100
AcDbSymbolTableRecord
100
AcDbLayerTableRecord
  2
SUPERFICI_SKEL
 70
0
 62
7
  6
CONTINUOUS
370
-3
390
F
  0
LAYER
  5
21B
100
AcDbSymbolTableRecord
100
AcDbLayerTableRecord
  2
TRASH
 70
0
 62
7
  6
CONTINUOUS
370
-3
390
F
  0
LAYER
  5
21C
100
AcDbSymbolTableRecord
100
AcDbLayerTableRecord
  2
___SHELL
 70
0
 62
7
  6
CONTINUOUS
370
-3
390
F
  0
ENDTAB
  0
TABLE
  2
STYLE
  5
3
100
AcDbSymbolTable
 70
1
  0
STYLE
  5
11
100
AcDbSymbolTableRecord
100
AcDbTextStyleTableRecord
  2
STANDARD
 70
0
 40
0.0
 41
0.8
 50
0.0
 71
0
 42
0.2
  3
txt
  4

  0
STYLE
  5
21D
100
AcDbSymbolTableRecord
100
AcDbTextStyleTableRecord
  2
TEXTSTYLE_1
 70
0
 40
0.0
 41
0.8
 50
0.0
 71
0
 42
0.2
  3
gdt
  4

  0
ENDTAB
  0
TABLE
  2
VIEW
  5
6
100
AcDbSymbolTable
 70
0
  0
ENDTAB
  0
TABLE
  2
UCS
  5
7
100
AcDbSymbolTable
 70
0
  0
ENDTAB
  0
TABLE
  2
APPID
  5
9
100
AcDbSymbolTable
 70
1
  0
APPID
  5
21E
100
AcDbSymbolTableRecord
100
AcDbRegAppTableRecord
  2
ACAD
 70
0
  0
ENDTAB
  0
TABLE
  2
BLOCK_RECORD
  5
1
100
AcDbSymbolTable
 70
0
  0
BLOCK_RECORD
  5
21F
100
AcDbSymbolTableRecord
100
AcDbBlockTableRecord
  2
*Model_Space
  0
BLOCK_RECORD
  5
220
100
AcDbSymbolTableRecord
100
AcDbBlockTableRecord
  2
*Paper_Space
  0
BLOCK_RECORD
  5
221
100
AcDbSymbolTableRecord
100
AcDbBlockTableRecord
  2
_FILLED
  0
BLOCK_RECORD
  5
222
100
AcDbSymbolTableRecord
100
AcDbBlockTableRecord
  2
*D0
  0
BLOCK_RECORD
  5
223
100
AcDbSymbolTableRecord
100
AcDbBlockTableRecord
  2
*D1
  0
BLOCK_RECORD
  5
224
100
AcDbSymbolTableRecord
100
AcDbBlockTableRecord
  2
*D2
  0
ENDTAB
  0
TABLE
  2
DIMSTYLE
  5
A
100
AcDbSymbolTable
 70
1
100
AcDbDimStyleTable
 71
0
  0
DIMSTYLE
105
225
100
AcDbSymbolTableRecord
100
AcDbDimStyleTableRecord
  2
STANDARD
 70
0
  3

  4

 40
1.0
 41
3.0
 42
0.0625
 43
0.38
 44
0.18
 45
0.0
 46
0.0
 47
0.01
 48
0.01
140
3.0
141
0.09
142
0.0
143
25.4
144
1.0
145
0.0
146
1.0
147
0.09
 71
1.0
 72
0.0
 73
0
 74
0
 75
0
 76
0
 77
1
 78
8
170
0
171
2
172
0
173
0
174
0
175
0
176
0
177
0
178
0
270
2
271
2
272
2
273
2
274
2
275
0
280
0
281
0
282
0
283
1
284
8
285
0
286
0
287
3
288
0
340
11
341
221
342
221
343
221
344
221
  0
DIMSTYLE
105
226
100
AcDbSymbolTableRecord
100
AcDbDimStyleTableRecord
  2
DIMSTYLE_1
 70
0
  3

  4

 40
1.0
 41
3.0
 42
0.0625
 43
0.38
 44
0.18
 45
0.0
 46
0.0
 47
0.0
 48
0.0
140
3.0
141
0.09
142
0.0
143
25.4
144
1.0
145
0.0
146
1.0
147
0.09
 71
0.0
 72
0.0
 73
0
 74
0
 75
0
 76
0
 77
1
 78
8
170
0
171
2
172
0
173
0
174
0
175
0
176
0
177
0
178
0
270
2
271
1
272
1
273
2
274
2
275
0
280
0
281
0
282
0
283
1
284
8
285
0
286
0
287
3
288
0
340
11
341
221
342
221
343
221
344
221
  0
DIMSTYLE
105
227
100
AcDbSymbolTableRecord
100
AcDbDimStyleTableRecord
  2
DIMSTYLE_2
 70
0
  3

  4

 40
1.0
 41
3.0
 42
0.0625
 43
0.38
 44
0.18
 45
0.0
 46
0.0
 47
0.0
 48
0.0
140
3.0
141
0.09
142
0.0
143
25.4
144
1.0
145
0.0
146
1.0
147
0.09
 71
0.0
 72
0.0
 73
0
 74
0
 75
0
 76
0
 77
1
 78
8
170
0
171
2
172
0
173
0
174
0
175
0
176
0
177
0
178
0
270
2
271
2
272
2
273
2
274
2
275
0
280
0
281
0
282
0
283
1
284
8
285
0
286
0
287
3
288
0
340
11
341
221
342
221
343
221
344
221
  0
ENDTAB
  0
ENDSEC
  0
SECTION
  2
BLOCKS
  0
BLOCK
  5
20
100
AcDbEntity
  8
0
100
AcDbBlockBegin
  2
*Model_Space
 70
0
 10
0.0
 20
0.0
 30
0.0
  3
*Model_Space
  1

  0
ENDBLK
  5
21
100
AcDbEntity
  8
0
100
AcDbBlockEnd
  0
BLOCK
  5
1C
100
AcDbEntity
  8
0
100
AcDbBlockBegin
  2
*Paper_Space
 70
0
 10
0.0
 20
0.0
 30
0.0
  3
*Paper_Space
  1

  0
ENDBLK
  5
1D
100
AcDbEntity
  8
0
100
AcDbBlockEnd
  0
BLOCK
  5
228
100
AcDbEntity
  8
0
100
AcDbBlockBegin
  2
_FILLED
 70
64
 10
0.0
 20
0.0
  3
_FILLED
  1

  0
SOLID
  5
229
100
AcDbEntity
  8
0
  6
BYBLOCK
 62
0
100
AcDbTrace
 10
0.0
 20
0.0
 11
-1.0
 21
0.3166666667
 12
-1.0
 22
-0.3166666667
 13
-1.0
 23
-0.3166666667
  0
ENDBLK
  5
22A
100
AcDbEntity
  8
0
  6
BYBLOCK
 62
0
100
AcDbBlockEnd
  0
BLOCK
  5
22B
100
AcDbEntity
  8
0
100
AcDbBlockBegin
 62
7
  6
CONTINUOUS
  2
*D0
 70
65
 10
0.0
 20
0.0
  3
*D0
  1

  0
MTEXT
  5
22C
100
AcDbEntity
  8
0
100
AcDbMText
 62
7
  6
CONTINUOUS
  7
STANDARD
 71
2
 72
1
 10
183.2822742584
 20
106.5199638773
 30
0.0
 11
0.0
 21
1.0
 31
0.0
 44
0.9
  1
44,3
 40
3.0
 41
8.5714285714
  0
LINE
  5
22D
100
AcDbEntity
  8
0
100
AcDbLine
 62
7
  6
CONTINUOUS
 10
173.9249410729
 20
84.3632596007
 11
188.5322742584
 21
84.3632596007
  0
LINE
  5
22E
100
AcDbEntity
  8
0
100
AcDbLine
 62
7
  6
CONTINUOUS
 10
173.9249410729
 20
128.676668154
 11
188.5322742584
 21
128.676668154
  0
LINE
  5
22F
100
AcDbEntity
  8
0
100
AcDbLine
 62
7
  6
CONTINUOUS
 10
187.0322742584
 20
84.3632596007
 11
187.0322742584
 21
106.5199638773
  0
LINE
  5
230
100
AcDbEntity
  8
0
100
AcDbLine
 62
7
  6
CONTINUOUS
 10
187.0322742584
 20
128.676668154
 11
187.0322742584
 21
106.5199638773
  0
INSERT
  5
231
100
AcDbEntity
  8
0
100
AcDbBlockReference
 62
7
  6
CONTINUOUS
  2
_FILLED
 10
187.0322742584
 20
84.3632596007
 41
3.0
 42
3.0
 43
3.0
 50
270.0
  0
INSERT
  5
232
100
AcDbEntity
  8
0
100
AcDbBlockReference
 62
7
  6
CONTINUOUS
  2
_FILLED
 10
187.0322742584
 20
128.676668154
 41
3.0
 42
3.0
 43
3.0
 50
90.0
  0
ENDBLK
  5
233
100
AcDbEntity
  8
0
  6
BYBLOCK
 62
0
100
AcDbBlockEnd
  0
BLOCK
  5
234
100
AcDbEntity
  8
0
100
AcDbBlockBegin
 62
7
  6
CONTINUOUS
  2
*D1
 70
65
 10
0.0
 20
0.0
  3
*D1
  1

  0
MTEXT
  5
235
100
AcDbEntity
  8
0
100
AcDbMText
 62
7
  6
CONTINUOUS
  7
STANDARD
 71
2
 72
1
 10
151.695991684
 20
145.6636213869
 30
0.0
 11
1.0
 21
0.0
 31
0.0
 44
0.9
  1
44,5
 40
3.0
 41
8.5714285714
  0
LINE
  5
236
100
AcDbEntity
  8
0
100
AcDbLine
 62
7
  6
CONTINUOUS
 10
173.945175886
 20
120.1199638773
 11
173.945175886
 21
143.4136213869
  0
LINE
  5
237
100
AcDbEntity
  8
0
100
AcDbLine
 62
7
  6
CONTINUOUS
 10
129.446807482
 20
120.1199638773
 11
129.446807482
 21
143.4136213869
  0
LINE
  5
238
100
AcDbEntity
  8
0
100
AcDbLine
 62
7
  6
CONTINUOUS
 10
173.945175886
 20
141.9136213869
 11
151.695991684
 21
141.9136213869
  0
LINE
  5
239
100
AcDbEntity
  8
0
100
AcDbLine
 62
7
  6
CONTINUOUS
 10
129.446807482
 20
141.9136213869
 11
151.695991684
 21
141.9136213869
  0
INSERT
  5
23A
100
AcDbEntity
  8
0
100
AcDbBlockReference
 62
7
  6
CONTINUOUS
  2
_FILLED
 10
173.945175886
 20
141.9136213869
 41
3.0
 42
3.0
 43
3.0
  0
INSERT
  5
23B
100
AcDbEntity
  8
0
100
AcDbBlockReference
 62
7
  6
CONTINUOUS
  2
_FILLED
 10
129.446807482
 20
141.9136213869
 41
3.0
 42
3.0
 43
3.0
 50
180.0
  0
ENDBLK
  5
23C
100
AcDbEntity
  8
0
  6
BYBLOCK
 62
0
100
AcDbBlockEnd
  0
BLOCK
  5
23D
100
AcDbEntity
  8
0
100
AcDbBlockBegin
 62
7
  6
CONTINUOUS
  2
*D2
 70
65
 10
0.0
 20
0.0
  3
*D2
  1

  0
MTEXT
  5
23E
100
AcDbEntity
  8
0
100
AcDbMText
 62
7
  6
CONTINUOUS
  7
STANDARD
 71
2
 72
1
 10
117.5394957573
 20
145.6636213869
 30
0.0
 11
1.0
 21
0.0
 31
0.0
 44
0.9
  1
5,3
 40
3.0
 41
6.0
  0
LINE
  5
23F
100
AcDbEntity
  8
0
100
AcDbLine
 62
7
  6
CONTINUOUS
 10
120.2140685515
 20
120.1199638773
 11
120.2140685515
 21
143.4136213869
  0
LINE
  5
240
100
AcDbEntity
  8
0
100
AcDbLine
 62
7
  6
CONTINUOUS
 10
114.864922963
 20
107.7632293871
 11
114.864922963
 21
143.4136213869
  0
LINE
  5
241
100
AcDbEntity
  8
0
100
AcDbLine
 62
7
  6
CONTINUOUS
 10
120.2140685515
 20
141.9136213869
 11
124.2140685515
 21
141.9136213869
  0
LINE
  5
242
100
AcDbEntity
  8
0
100
AcDbLine
 62
7
  6
CONTINUOUS
 10
124.2140685515
 20
141.9136213869
 11
117.5394957573
 21
141.9136213869
  0
LINE
  5
243
100
AcDbEntity
  8
0
100
AcDbLine
 62
7
  6
CONTINUOUS
 10
114.864922963
 20
141.9136213869
 11
110.864922963
 21
141.9136213869
  0
LINE
  5
244
100
AcDbEntity
  8
0
100
AcDbLine
 62
7
  6
CONTINUOUS
 10
110.864922963
 20
141.9136213869
 11
117.5394957573
 21
141.9136213869
  0
INSERT
  5
245
100
AcDbEntity
  8
0
100
AcDbBlockReference
 62
7
  6
CONTINUOUS
  2
_FILLED
 10
120.2140685515
 20
141.9136213869
 41
3.0
 42
3.0
 43
3.0
 50
180.0
  0
INSERT
  5
246
100
AcDbEntity
  8
0
100
AcDbBlockReference
 62
7
  6
CONTINUOUS
  2
_FILLED
 10
114.864922963
 20
141.9136213869
 41
3.0
 42
3.0
 43
3.0
  0
ENDBLK
  5
247
100
AcDbEntity
  8
0
  6
BYBLOCK
 62
0
100
AcDbBlockEnd
  0
ENDSEC
  0
SECTION
  2
ENTITIES
  0
DIMENSION
  5
248
100
AcDbEntity
  8
0
100
AcDbDimension
 62
7
  6
CONTINUOUS
  2
*D0
 10
187.0322742584
 20
128.676668154
 11
186.7025897561
 21
102.6885496048
 70
160
 71
2
 42
44.3134085533
  3
DIMSTYLE_1
100
AcDbAlignedDimension
 13
173.9249410729
 23
84.3632596007
 14
173.9249410729
 24
128.676668154
 50
90.0
100
AcDbRotatedDimension
  0
DIMENSION
  5
249
100
AcDbEntity
  8
0
100
AcDbDimension
 62
7
  6
CONTINUOUS
  2
*D1
 10
129.446807482
 20
141.9136213869
 11
147.4102773983
 21
144.1636213869
 70
160
 71
2
 42
44.4983684039
  3
DIMSTYLE_2
100
AcDbAlignedDimension
 13
173.945175886
 23
120.1199638773
 14
129.446807482
 24
120.1199638773
 50
180.0
100
AcDbRotatedDimension
  0
DIMENSION
  5
24A
100
AcDbEntity
  8
0
100
AcDbDimension
 62
7
  6
CONTINUOUS
  2
*D2
 10
114.864922963
 20
141.9136213869
 11
114.5394957573
 21
144.1636213869
 70
160
 71
2
 42
5.3491455885
  3
DIMSTYLE_1
100
AcDbAlignedDimension
 13
120.2140685515
 23
120.1199638773
 14
114.864922963
 24
107.7632293871
 50
180.0
100
AcDbRotatedDimension
  0
LWPOLYLINE
  5
24B
100
AcDbEntity
  8
0
100
AcDbPolyline
 62
253
  6
CONTINUOUS
 90
7
 70
0
 10
130.0331538493
 20
128.5443543175
 10
130.0321037807
 20
128.536968294
 10
130.0310119227
 20
128.523692431
 10
130.0299061337
 20
128.5045953577
 10
130.0288350208
 20
128.479775312
 10
130.0278045122
 20
128.4493573428
 10
130.0257782647
 20
128.3723513055
  0
LWPOLYLINE
  5
24C
100
AcDbEntity
  8
ASSI
100
AcDbPolyline
 62
253
  6
CONTINUOUS
 90
7
 70
0
 10
130.0331538493
 20
128.5443543175
 10
130.0321037807
 20
128.536968294
 10
130.0310119227
 20
128.523692431
 10
130.0299061337
 20
128.5045953577
 10
130.0288350208
 20
128.479775312
 10
130.0278045122
 20
128.4493573428
 10
130.0257782647
 20
128.3723513055
  0
LINE
  5
24D
100
AcDbEntity
  8
0
100
AcDbLine
 62
7
  6
CONTINUOUS
 10
166.3374349351
 20
84.3632596007
 11
166.6882566571
 21
84.3951047186
  0
LINE
  5
24E
100
AcDbEntity
  8
ASSI
100
AcDbLine
 62
7
  6
CONTINUOUS
 10
166.3374349351
 20
84.3632596007
 11
166.6882566571
 21
84.3951047186
  0
LWPOLYLINE
  5
24F
100
AcDbEntity
  8
0
100
AcDbPolyline
 62
253
  6
CONTINUOUS
 90
16
 70
0
 10
173.3588295187
 20
84.4955734371
 10
173.4110311451
 20
84.4983754824
 10
173.4626617567
 20
84.5066080718
 10
173.5131566535
 20
84.5201811421
 10
173.5619635752
 20
84.5389462265
 10
173.6085486968
 20
84.5626980625
 10
173.6524024735
 20
84.5911768228
 10
173.6930452778
 20
84.6240709914
 10
173.7300326225
 20
84.6610207757
 10
173.7629599861
 20
84.7016220109
 10
173.7914672657
 20
84.7454306023
 10
173.8152427179
 20
84.7919673992
 10
173.8340263522
 20
84.8407234242
 10
173.8476127688
 20
84.8911654272
 10
173.8558534084
 20
84.9427417163
 10
173.8586581812
 20
84.9948882045
  0
LWPOLYLINE
  5
250
100
AcDbEntity
  8
ASSI
100
AcDbPolyline
 62
253
  6
CONTINUOUS
 90
16
 70
0
 10
173.3588295187
 20
84.4955734371
 10
173.4110311451
 20
84.4983754824
 10
173.4626617567
 20
84.5066080718
 10
173.5131566535
 20
84.5201811421
 10
173.5619635752
 20
84.5389462265
 10
173.6085486968
 20
84.5626980625
 10
173.6524024735
 20
84.5911768228
 10
173.6930452778
 20
84.6240709914
 10
173.7300326225
 20
84.6610207757
 10
173.7629599861
 20
84.7016220109
 10
173.7914672657
 20
84.7454306023
 10
173.8152427179
 20
84.7919673992
 10
173.8340263522
 20
84.8407234242
 10
173.8476127688
 20
84.8911654272
 10
173.8558534084
 20
84.9427417163
 10
173.8586581812
 20
84.9948882045
  0
LWPOLYLINE
  5
251
100
AcDbEntity
  8
0
100
AcDbPolyline
 62
253
  6
CONTINUOUS
 90
16
 70
0
 10
130.0331538474
 20
84.4955734333
 10
129.9809528774
 20
84.4983754085
 10
129.9293228358
 20
84.5066078056
 10
129.8788284069
 20
84.5201805858
 10
129.8300218545
 20
84.538945302
 10
129.7834369818
 20
84.5626967221
 10
129.7395832934
 20
84.5911750739
 10
129.6989404224
 20
84.6240688861
 10
129.6619528851
 20
84.661018395
 10
129.6290252186
 20
84.7016194793
 10
129.600517557
 20
84.7454280799
 10
129.576741692
 20
84.7919650567
 10
129.5579576632
 20
84.840721429
 10
129.5443709139
 20
84.8911639424
 10
129.536130044
 20
84.9427409008
 10
129.5333251849
 20
84.9948882007
  0
LWPOLYLINE
  5
252
100
AcDbEntity
  8
ASSI
100
AcDbPolyline
 62
253
  6
CONTINUOUS
 90
16
 70
0
 10
130.0331538474
 20
84.4955734333
 10
129.9809528774
 20
84.4983754085
 10
129.9293228358
 20
84.5066078056
 10
129.8788284069
 20
84.5201805858
 10
129.8300218545
 20
84.538945302
 10
129.7834369818
 20
84.5626967221
 10
129.7395832934
 20
84.5911750739
 10
129.6989404224
 20
84.6240688861
 10
129.6619528851
 20
84.661018395
 10
129.6290252186
 20
84.7016194793
 10
129.600517557
 20
84.7454280799
 10
129.576741692
 20
84.7919650567
 10
129.5579576632
 20
84.840721429
 10
129.5443709139
 20
84.8911639424
 10
129.536130044
 20
84.9427409008
 10
129.5333251849
 20
84.9948882007
  0
LINE
  5
253
100
AcDbEntity
  8
0
100
AcDbLine
 62
7
  6
CONTINUOUS
 10
137.0545484329
 20
84.3632596007
 11
136.7037267109
 21
84.3951047186
  0
LINE
  5
254
100
AcDbEntity
  8
ASSI
100
AcDbLine
 62
7
  6
CONTINUOUS
 10
137.0545484329
 20
84.3632596007
 11
136.7037267109
 21
84.3951047186
  0
LWPOLYLINE
  5
255
100
AcDbEntity
  8
0
100
AcDbPolyline
 62
253
  6
CONTINUOUS
 90
8
 70
0
 10
130.0338349424
 20
106.8887324267
 10
130.0374584531
 20
106.855633944
 10
130.0413726884
 20
106.8269916073
 10
130.0450045507
 20
106.8030693377
 10
130.0492583196
 20
106.784030062
 10
130.0541319407
 20
106.7701311958
 10
130.0586502344
 20
106.7615851612
 10
130.0623257458
 20
106.7584431021
  0
LWPOLYLINE
  5
256
100
AcDbEntity
  8
ASSI
100
AcDbPolyline
 62
253
  6
CONTINUOUS
 90
8
 70
0
 10
130.0338349424
 20
106.8887324267
 10
130.0374584531
 20
106.855633944
 10
130.0413726884
 20
106.8269916073
 10
130.0450045507
 20
106.8030693377
 10
130.0492583196
 20
106.784030062
 10
130.0541319407
 20
106.7701311958
 10
130.0586502344
 20
106.7615851612
 10
130.0623257458
 20
106.7584431021
  0
LWPOLYLINE
  5
257
100
AcDbEntity
  8
0
100
AcDbPolyline
 62
253
  6
CONTINUOUS
 90
19
 70
0
 10
129.5624970832
 20
107.2584240636
 10
129.5643638018
 20
107.2153667668
 10
129.5699513088
 20
107.17250968
 10
129.5792490136
 20
107.1301770933
 10
129.5922259363
 20
107.0886714015
 10
129.6088099809
 20
107.0483395296
 10
129.6288686595
 20
107.0095624495
 10
129.6522596194
 20
106.9726432244
 10
129.6788158822
 20
106.9378693584
 10
129.708297591
 20
106.9055621291
 10
129.7404504751
 20
106.8759873112
 10
129.7750474695
 20
106.8493419874
 10
129.811850973
 20
106.825809234
 10
129.850599323
 20
106.8055645465
 10
129.8909829173
 20
106.7887774651
 10
129.932672492
 20
106.7755864711
 10
129.97534116
 20
106.7660924065
 10
130.018669395
 20
106.76036384
 10
130.0623257457
 20
106.7584431021
  0
LWPOLYLINE
  5
258
100
AcDbEntity
  8
ASSI
100
AcDbPolyline
 62
253
  6
CONTINUOUS
 90
19
 70
0
 10
129.5624970832
 20
107.2584240636
 10
129.5643638018
 20
107.2153667668
 10
129.5699513088
 20
107.17250968
 10
129.5792490136
 20
107.1301770933
 10
129.5922259363
 20
107.0886714015
 10
129.6088099809
 20
107.0483395296
 10
129.6288686595
 20
107.0095624495
 10
129.6522596194
 20
106.9726432244
 10
129.6788158822
 20
106.9378693584
 10
129.708297591
 20
106.9055621291
 10
129.7404504751
 20
106.8759873112
 10
129.7750474695
 20
106.8493419874
 10
129.811850973
 20
106.825809234
 10
129.850599323
 20
106.8055645465
 10
129.8909829173
 20
106.7887774651
 10
129.932672492
 20
106.7755864711
 10
129.97534116
 20
106.7660924065
 10
130.018669395
 20
106.76036384
 10
130.0623257457
 20
106.7584431021
  0
LWPOLYLINE
  5
259
100
AcDbEntity
  8
0
100
AcDbPolyline
 62
253
  6
CONTINUOUS
 90
4
 70
0
 10
130.0235758432
 20
107.0569901966
 10
130.0253674341
 20
107.010279269
 10
130.0280707505
 20
106.9663090659
 10
130.0338349424
 20
106.8887324267
  0
LWPOLYLINE
  5
25A
100
AcDbEntity
  8
ASSI
100
AcDbPolyline
 62
253
  6
CONTINUOUS
 90
4
 70
0
 10
130.0235758432
 20
107.0569901966
 10
130.0253674341
 20
107.010279269
 10
130.0280707505
 20
106.9663090659
 10
130.0338349424
 20
106.8887324267
  0
LWPOLYLINE
  5
25B
100
AcDbEntity
  8
0
100
AcDbPolyline
 62
253
  6
CONTINUOUS
 90
6
 70
0
 10
130.02780455
 20
84.5905704086
 10
130.0288350512
 20
84.56015244
 10
130.0299061564
 20
84.5353323944
 10
130.0310119375
 20
84.5162353206
 10
130.0321037873
 20
84.5029594571
 10
130.0331538474
 20
84.4955734333
  0
LWPOLYLINE
  5
25C
100
AcDbEntity
  8
ASSI
100
AcDbPolyline
 62
253
  6
CONTINUOUS
 90
6
 70
0
 10
130.02780455
 20
84.5905704086
 10
130.0288350512
 20
84.56015244
 10
130.0299061564
 20
84.5353323944
 10
130.0310119375
 20
84.5162353206
 10
130.0321037873
 20
84.5029594571
 10
130.0331538474
 20
84.4955734333
  0
LINE
  5
25D
100
AcDbEntity
  8
0
100
AcDbLine
 62
253
  6
CONTINUOUS
 10
129.5440073202
 20
127.8879797703
 11
129.5458930049
 21
127.8203780627
  0
LINE
  5
25E
100
AcDbEntity
  8
ASSI
100
AcDbLine
 62
253
  6
CONTINUOUS
 10
129.5440073202
 20
127.8879797703
 11
129.5458930049
 21
127.8203780627
  0
LINE
  5
25F
100
AcDbEntity
  8
0
100
AcDbLine
 62
253
  6
CONTINUOUS
 10
130.0257783164
 20
84.6675764443
 11
130.02780455
 21
84.5905704086
  0
LINE
  5
260
100
AcDbEntity
  8
ASSI
100
AcDbLine
 62
253
  6
CONTINUOUS
 10
130.0257783164
 20
84.6675764443
 11
130.02780455
 21
84.5905704086
  0
LINE
  5
261
100
AcDbEntity
  8
0
100
AcDbLine
 62
253
  6
CONTINUOUS
 10
129.5458930049
 20
127.8203780627
 11
129.5475068195
 21
127.7436301002
  0
LINE
  5
262
100
AcDbEntity
  8
ASSI
100
AcDbLine
 62
253
  6
CONTINUOUS
 10
129.5458930049
 20
127.8203780627
 11
129.5475068195
 21
127.7436301002
  0
LINE
  5
263
100
AcDbEntity
  8
0
100
AcDbLine
 62
253
  6
CONTINUOUS
 10
130.0239075003
 20
84.7648231167
 11
130.0257783164
 21
84.6675764443
  0
LINE
  5
264
100
AcDbEntity
  8
ASSI
100
AcDbLine
 62
253
  6
CONTINUOUS
 10
130.0239075003
 20
84.7648231167
 11
130.0257783164
 21
84.6675764443
  0
LINE
  5
265
100
AcDbEntity
  8
0
100
AcDbLine
 62
253
  6
CONTINUOUS
 10
129.5475068195
 20
127.7436301002
 11
129.5488251223
 21
127.6588767881
  0
LINE
  5
266
100
AcDbEntity
  8
ASSI
100
AcDbLine
 62
253
  6
CONTINUOUS
 10
129.5475068195
 20
127.7436301002
 11
129.5488251223
 21
127.6588767881
  0
LINE
  5
267
100
AcDbEntity
  8
0
100
AcDbLine
 62
253
  6
CONTINUOUS
 10
130.0214120515
 20
84.9442973964
 11
130.0239075003
 21
84.7648231167
  0
LINE
  5
268
100
AcDbEntity
  8
ASSI
100
AcDbLine
 62
253
  6
CONTINUOUS
 10
130.0214120515
 20
84.9442973964
 11
130.0239075003
 21
84.7648231167
  0
LINE
  5
269
100
AcDbEntity
  8
0
100
AcDbLine
 62
253
  6
CONTINUOUS
 10
129.5488251223
 20
127.6588767881
 11
129.5501835741
 21
127.5208666334
  0
LINE
  5
26A
100
AcDbEntity
  8
ASSI
100
AcDbLine
 62
253
  6
CONTINUOUS
 10
129.5488251223
 20
127.6588767881
 11
129.5501835741
 21
127.5208666334
  0
LINE
  5
26B
100
AcDbEntity
  8
0
100
AcDbLine
 62
253
  6
CONTINUOUS
 10
130.0188427161
 20
85.2334891069
 11
130.0214120515
 21
84.9442973964
  0
LINE
  5
26C
100
AcDbEntity
  8
ASSI
100
AcDbLine
 62
253
  6
CONTINUOUS
 10
130.0188427161
 20
85.2334891069
 11
130.0214120515
 21
84.9442973964
  0
LWPOLYLINE
  5
26D
100
AcDbEntity
  8
0
100
AcDbPolyline
 62
253
  6
CONTINUOUS
 90
3
 70
0
 10
130.0198520056
 20
105.7807459115
 10
130.0196256115
 20
105.8337343194
 10
130.0204750733
 20
105.8849839849
  0
LWPOLYLINE
  5
26E
100
AcDbEntity
  8
ASSI
100
AcDbPolyline
 62
253
  6
CONTINUOUS
 90
3
 70
0
 10
130.0198520056
 20
105.7807459115
 10
130.0196256115
 20
105.8337343194
 10
130.0204750733
 20
105.8849839849
  0
LINE
  5
26F
100
AcDbEntity
  8
0
100
AcDbLine
 62
7
  6
CONTINUOUS
 10
129.4664158734
 20
84.860977755
 11
129.446807482
 21
93.4199638773
  0
LINE
  5
270
100
AcDbEntity
  8
ASSI
100
AcDbLine
 62
7
  6
CONTINUOUS
 10
129.4664158734
 20
84.860977755
 11
129.446807482
 21
93.4199638773
  0
LINE
  5
271
100
AcDbEntity
  8
0
100
AcDbLine
 62
253
  6
CONTINUOUS
 10
130.017117671
 20
85.6427125298
 11
130.0188427161
 21
85.2334891069
  0
LINE
  5
272
100
AcDbEntity
  8
ASSI
100
AcDbLine
 62
253
  6
CONTINUOUS
 10
130.017117671
 20
85.6427125298
 11
130.0188427161
 21
85.2334891069
  0
LINE
  5
273
100
AcDbEntity
  8
0
100
AcDbLine
 62
253
  6
CONTINUOUS
 10
129.5501835741
 20
127.5208666334
 11
129.5507516298
 21
127.3757803487
  0
LINE
  5
274
100
AcDbEntity
  8
ASSI
100
AcDbLine
 62
253
  6
CONTINUOUS
 10
129.5501835741
 20
127.5208666334
 11
129.5507516298
 21
127.3757803487
  0
LINE
  5
275
100
AcDbEntity
  8
0
100
AcDbLine
 62
253
  6
CONTINUOUS
 10
129.5507516298
 20
127.3757803487
 11
129.5609705877
 21
114.0711661577
  0
LINE
  5
276
100
AcDbEntity
  8
ASSI
100
AcDbLine
 62
253
  6
CONTINUOUS
 10
129.5507516298
 20
127.3757803487
 11
129.5609705877
 21
114.0711661577
  0
LINE
  5
277
100
AcDbEntity
  8
0
100
AcDbLine
 62
7
  6
CONTINUOUS
 10
129.446807482
 20
119.6199638773
 11
129.446807482
 21
107.2198686951
  0
LINE
  5
278
100
AcDbEntity
  8
ASSI
100
AcDbLine
 62
7
  6
CONTINUOUS
 10
129.446807482
 20
119.6199638773
 11
129.446807482
 21
107.2198686951
  0
LINE
  5
279
100
AcDbEntity
  8
0
100
AcDbLine
 62
7
  6
CONTINUOUS
 10
129.446807482
 20
93.4199638773
 11
129.446807482
 21
105.8200590595
  0
LINE
  5
27A
100
AcDbEntity
  8
ASSI
100
AcDbLine
 62
7
  6
CONTINUOUS
 10
129.446807482
 20
93.4199638773
 11
129.446807482
 21
105.8200590595
  0
LINE
  5
27B
100
AcDbEntity
  8
0
100
AcDbLine
 62
253
  6
CONTINUOUS
 10
129.5609705877
 20
114.0711661577
 11
129.5624970832
 21
107.2584240636
  0
LINE
  5
27C
100
AcDbEntity
  8
ASSI
100
AcDbLine
 62
253
  6
CONTINUOUS
 10
129.5609705877
 20
114.0711661577
 11
129.5624970832
 21
107.2584240636
  0
LINE
  5
27D
100
AcDbEntity
  8
0
100
AcDbLine
 62
253
  6
CONTINUOUS
 10
130.0198520786
 20
105.7807459194
 11
130.0171176341
 21
85.6427125257
  0
LINE
  5
27E
100
AcDbEntity
  8
ASSI
100
AcDbLine
 62
253
  6
CONTINUOUS
 10
130.0198520786
 20
105.7807459194
 11
130.0171176341
 21
85.6427125257
  0
LINE
  5
27F
100
AcDbEntity
  8
0
100
AcDbLine
 62
253
  6
CONTINUOUS
 10
129.5624970815
 20
105.7815036917
 11
129.5602496707
 21
97.3583370193
  0
LINE
  5
280
100
AcDbEntity
  8
ASSI
100
AcDbLine
 62
253
  6
CONTINUOUS
 10
129.5624970815
 20
105.7815036917
 11
129.5602496707
 21
97.3583370193
  0
LINE
  5
281
100
AcDbEntity
  8
0
100
AcDbLine
 62
253
  6
CONTINUOUS
 10
129.5602496707
 20
97.3583370193
 11
129.5533559452
 21
88.167801999
  0
LINE
  5
282
100
AcDbEntity
  8
ASSI
100
AcDbLine
 62
253
  6
CONTINUOUS
 10
129.5602496707
 20
97.3583370193
 11
129.5533559452
 21
88.167801999
  0
LINE
  5
283
100
AcDbEntity
  8
0
100
AcDbLine
 62
7
  6
CONTINUOUS
 10
129.4664158734
 20
128.1789499997
 11
129.446807482
 21
119.6199638773
  0
LINE
  5
284
100
AcDbEntity
  8
ASSI
100
AcDbLine
 62
7
  6
CONTINUOUS
 10
129.4664158734
 20
128.1789499997
 11
129.446807482
 21
119.6199638773
  0
LINE
  5
285
100
AcDbEntity
  8
0
100
AcDbLine
 62
253
  6
CONTINUOUS
 10
130.0175903885
 20
127.5645593097
 11
130.0198520808
 21
107.2591818319
  0
LINE
  5
286
100
AcDbEntity
  8
ASSI
100
AcDbLine
 62
253
  6
CONTINUOUS
 10
130.0175903885
 20
127.5645593097
 11
130.0198520808
 21
107.2591818319
  0
LINE
  5
287
100
AcDbEntity
  8
0
100
AcDbLine
 62
253
  6
CONTINUOUS
 10
129.5533559452
 20
88.167801999
 11
129.5504607458
 21
85.5666369733
  0
LINE
  5
288
100
AcDbEntity
  8
ASSI
100
AcDbLine
 62
253
  6
CONTINUOUS
 10
129.5533559452
 20
88.167801999
 11
129.5504607458
 21
85.5666369733
  0
LWPOLYLINE
  5
289
100
AcDbEntity
  8
0
100
AcDbPolyline
 62
253
  6
CONTINUOUS
 90
4
 70
0
 10
130.0198520074
 20
107.2591818362
 10
130.0196257422
 20
107.2061954239
 10
130.020475123
 20
107.1549474309
 10
130.0235758432
 20
107.0569901966
  0
LWPOLYLINE
  5
28A
100
AcDbEntity
  8
ASSI
100
AcDbPolyline
 62
253
  6
CONTINUOUS
 90
4
 70
0
 10
130.0198520074
 20
107.2591818362
 10
130.0196257422
 20
107.2061954239
 10
130.020475123
 20
107.1549474309
 10
130.0235758432
 20
107.0569901966
  0
LINE
  5
28B
100
AcDbEntity
  8
0
100
AcDbLine
 62
253
  6
CONTINUOUS
 10
130.0200120182
 20
127.9570313991
 11
130.0175903885
 21
127.5645593097
  0
LINE
  5
28C
100
AcDbEntity
  8
ASSI
100
AcDbLine
 62
253
  6
CONTINUOUS
 10
130.0200120182
 20
127.9570313991
 11
130.0175903885
 21
127.5645593097
  0
LINE
  5
28D
100
AcDbEntity
  8
0
100
AcDbLine
 62
253
  6
CONTINUOUS
 10
129.5504607458
 20
85.5666369733
 11
129.549361334
 21
85.4257704746
  0
LINE
  5
28E
100
AcDbEntity
  8
ASSI
100
AcDbLine
 62
253
  6
CONTINUOUS
 10
129.5504607458
 20
85.5666369733
 11
129.549361334
 21
85.4257704746
  0
LINE
  5
28F
100
AcDbEntity
  8
0
100
AcDbLine
 62
253
  6
CONTINUOUS
 10
130.0221986851
 20
128.159561215
 11
130.0200120182
 21
127.9570313991
  0
LINE
  5
290
100
AcDbEntity
  8
ASSI
100
AcDbLine
 62
253
  6
CONTINUOUS
 10
130.0221986851
 20
128.159561215
 11
130.0200120182
 21
127.9570313991
  0
LINE
  5
291
100
AcDbEntity
  8
0
100
AcDbLine
 62
253
  6
CONTINUOUS
 10
129.549361334
 20
85.4257704746
 11
129.5482065607
 21
85.3379079605
  0
LINE
  5
292
100
AcDbEntity
  8
ASSI
100
AcDbLine
 62
253
  6
CONTINUOUS
 10
129.549361334
 20
85.4257704746
 11
129.5482065607
 21
85.3379079605
  0
LINE
  5
293
100
AcDbEntity
  8
0
100
AcDbLine
 62
253
  6
CONTINUOUS
 10
130.0239074361
 20
128.2751046317
 11
130.0221986851
 21
128.159561215
  0
LINE
  5
294
100
AcDbEntity
  8
ASSI
100
AcDbLine
 62
253
  6
CONTINUOUS
 10
130.0239074361
 20
128.2751046317
 11
130.0221986851
 21
128.159561215
  0
LINE
  5
295
100
AcDbEntity
  8
0
100
AcDbLine
 62
253
  6
CONTINUOUS
 10
129.5482065607
 20
85.3379079605
 11
129.5467360092
 21
85.2568349969
  0
LINE
  5
296
100
AcDbEntity
  8
ASSI
100
AcDbLine
 62
253
  6
CONTINUOUS
 10
129.5482065607
 20
85.3379079605
 11
129.5467360092
 21
85.2568349969
  0
LINE
  5
297
100
AcDbEntity
  8
0
100
AcDbLine
 62
253
  6
CONTINUOUS
 10
130.0257782647
 20
128.3723513055
 11
130.0239074361
 21
128.2751046317
  0
LINE
  5
298
100
AcDbEntity
  8
ASSI
100
AcDbLine
 62
253
  6
CONTINUOUS
 10
130.0257782647
 20
128.3723513055
 11
130.0239074361
 21
128.2751046317
  0
LWPOLYLINE
  5
299
100
AcDbEntity
  8
0
100
AcDbPolyline
 62
253
  6
CONTINUOUS
 90
12
 70
0
 10
129.5467360092
 20
85.2568349969
 10
129.5449789317
 20
85.1844120358
 10
129.544007318
 20
85.1519479788
 10
129.542977306
 20
85.1221991647
 10
129.5418897512
 20
85.0951239437
 10
129.5407607427
 20
85.0711232999
 10
129.5395890939
 20
85.0502419807
 10
129.5383759914
 20
85.0324352387
 10
129.5371410843
 20
85.0179698155
 10
129.5358909224
 20
85.006934625
 10
129.5346189559
 20
84.9992407534
 10
129.5333251849
 20
84.9948882007
  0
LWPOLYLINE
  5
29A
100
AcDbEntity
  8
ASSI
100
AcDbPolyline
 62
253
  6
CONTINUOUS
 90
12
 70
0
 10
129.5467360092
 20
85.2568349969
 10
129.5449789317
 20
85.1844120358
 10
129.544007318
 20
85.1519479788
 10
129.542977306
 20
85.1221991647
 10
129.5418897512
 20
85.0951239437
 10
129.5407607427
 20
85.0711232999
 10
129.5395890939
 20
85.0502419807
 10
129.5383759914
 20
85.0324352387
 10
129.5371410843
 20
85.0179698155
 10
129.5358909224
 20
85.006934625
 10
129.5346189559
 20
84.9992407534
 10
129.5333251849
 20
84.9948882007
  0
LWPOLYLINE
  5
29B
100
AcDbEntity
  8
0
100
AcDbPolyline
 62
253
  6
CONTINUOUS
 90
4
 70
0
 10
130.0204750733
 20
105.8849839849
 10
130.0235760904
 20
105.9829435554
 10
130.0253677199
 20
106.0296551419
 10
130.0280711734
 20
106.0736255619
  0
LWPOLYLINE
  5
29C
100
AcDbEntity
  8
ASSI
100
AcDbPolyline
 62
253
  6
CONTINUOUS
 90
4
 70
0
 10
130.0204750733
 20
105.8849839849
 10
130.0235760904
 20
105.9829435554
 10
130.0253677199
 20
106.0296551419
 10
130.0280711734
 20
106.0736255619
  0
LWPOLYLINE
  5
29D
100
AcDbEntity
  8
0
100
AcDbPolyline
 62
253
  6
CONTINUOUS
 90
19
 70
0
 10
129.5624970815
 20
105.7815036917
 10
129.564363803
 20
105.8245610236
 10
129.5699513185
 20
105.8674181406
 10
129.5792490357
 20
105.9097507519
 10
129.5922259747
 20
105.9512564651
 10
129.6088100377
 20
105.9915883522
 10
129.6288687313
 20
106.0303654339
 10
129.6522596948
 20
106.0672846416
 10
129.6788159506
 20
106.1020584809
 10
129.7082976519
 20
106.134365689
 10
129.7404505348
 20
106.1639404959
 10
129.7750475305
 20
106.190585812
 10
129.811851033
 20
106.214118557
 10
129.8505993771
 20
106.2343632349
 10
129.8909829627
 20
106.2511503074
 10
129.9326725271
 20
106.2643412941
 10
129.9753411839
 20
106.2738353533
 10
130.0186694065
 20
106.2795639165
 10
130.062325744
 20
106.2814846532
  0
LWPOLYLINE
  5
29E
100
AcDbEntity
  8
ASSI
100
AcDbPolyline
 62
253
  6
CONTINUOUS
 90
19
 70
0
 10
129.5624970815
 20
105.7815036917
 10
129.564363803
 20
105.8245610236
 10
129.5699513185
 20
105.8674181406
 10
129.5792490357
 20
105.9097507519
 10
129.5922259747
 20
105.9512564651
 10
129.6088100377
 20
105.9915883522
 10
129.6288687313
 20
106.0303654339
 10
129.6522596948
 20
106.0672846416
 10
129.6788159506
 20
106.1020584809
 10
129.7082976519
 20
106.134365689
 10
129.7404505348
 20
106.1639404959
 10
129.7750475305
 20
106.190585812
 10
129.811851033
 20
106.214118557
 10
129.8505993771
 20
106.2343632349
 10
129.8909829627
 20
106.2511503074
 10
129.9326725271
 20
106.2643412941
 10
129.9753411839
 20
106.2738353533
 10
130.0186694065
 20
106.2795639165
 10
130.062325744
 20
106.2814846532
  0
LWPOLYLINE
  5
29F
100
AcDbEntity
  8
0
100
AcDbPolyline
 62
253
  6
CONTINUOUS
 90
9
 70
0
 10
130.0280711734
 20
106.0736255619
 10
130.033835513
 20
106.1512012629
 10
130.0374590324
 20
106.1842988176
 10
130.0413732896
 20
106.212940038
 10
130.0450050894
 20
106.2368611282
 10
130.0492587378
 20
106.2558993371
 10
130.0541322128
 20
106.2697973508
 10
130.0586503532
 20
106.278342812
 10
130.0623257444
 20
106.2814846532
  0
LWPOLYLINE
  5
2A0
100
AcDbEntity
  8
ASSI
100
AcDbPolyline
 62
253
  6
CONTINUOUS
 90
9
 70
0
 10
130.0280711734
 20
106.0736255619
 10
130.033835513
 20
106.1512012629
 10
130.0374590324
 20
106.1842988176
 10
130.0413732896
 20
106.212940038
 10
130.0450050894
 20
106.2368611282
 10
130.0492587378
 20
106.2558993371
 10
130.0541322128
 20
106.2697973508
 10
130.0586503532
 20
106.278342812
 10
130.0623257444
 20
106.2814846532
  0
LINE
  5
2A1
100
AcDbEntity
  8
0
100
AcDbLine
 62
7
  6
CONTINUOUS
 10
155.1374349351
 20
84.3632596007
 11
155.4882566571
 21
84.3951047186
  0
LINE
  5
2A2
100
AcDbEntity
  8
ASSI
100
AcDbLine
 62
7
  6
CONTINUOUS
 10
155.1374349351
 20
84.3632596007
 11
155.4882566571
 21
84.3951047186
  0
LINE
  5
2A3
100
AcDbEntity
  8
0
100
AcDbLine
 62
7
  6
CONTINUOUS
 10
143.8374349351
 20
84.3632596007
 11
144.1882566571
 21
84.3951047186
  0
LINE
  5
2A4
100
AcDbEntity
  8
ASSI
100
AcDbLine
 62
7
  6
CONTINUOUS
 10
143.8374349351
 20
84.3632596007
 11
144.1882566571
 21
84.3951047186
  0
LINE
  5
2A5
100
AcDbEntity
  8
0
100
AcDbLine
 62
7
  6
CONTINUOUS
 10
132.6374349351
 20
84.3632596007
 11
132.9882566571
 21
84.3951047186
  0
LINE
  5
2A6
100
AcDbEntity
  8
ASSI
100
AcDbLine
 62
7
  6
CONTINUOUS
 10
132.6374349351
 20
84.3632596007
 11
132.9882566571
 21
84.3951047186
  0
LWPOLYLINE
  5
2A7
100
AcDbEntity
  8
0
100
AcDbPolyline
 62
253
  6
CONTINUOUS
 90
14
 70
0
 10
173.4718738107
 20
85.6435190996
 10
173.5187133803
 20
85.6442248788
 10
173.5638336473
 20
85.6451238382
 10
173.6067970999
 20
85.6462072611
 10
173.6471871397
 20
85.6474646419
 10
173.6846121218
 20
85.6488837884
 10
173.7187091519
 20
85.6504509396
 10
173.7491476058
 20
85.6521508997
 10
173.7756323348
 20
85.6539671849
 10
173.7979065276
 20
85.6558821833
 10
173.815754201
 20
85.6578773261
 10
173.8290022937
 20
85.6599332672
 10
173.8375223445
 20
85.6620300711
 10
173.8412317381
 20
85.664147406
  0
LWPOLYLINE
  5
2A8
100
AcDbEntity
  8
ASSI
100
AcDbPolyline
 62
253
  6
CONTINUOUS
 90
14
 70
0
 10
173.4718738107
 20
85.6435190996
 10
173.5187133803
 20
85.6442248788
 10
173.5638336473
 20
85.6451238382
 10
173.6067970999
 20
85.6462072611
 10
173.6471871397
 20
85.6474646419
 10
173.6846121218
 20
85.6488837884
 10
173.7187091519
 20
85.6504509396
 10
173.7491476058
 20
85.6521508997
 10
173.7756323348
 20
85.6539671849
 10
173.7979065276
 20
85.6558821833
 10
173.815754201
 20
85.6578773261
 10
173.8290022937
 20
85.6599332672
 10
173.8375223445
 20
85.6620300711
 10
173.8412317381
 20
85.664147406
  0
LINE
  5
2A9
100
AcDbEntity
  8
0
100
AcDbLine
 62
253
  6
CONTINUOUS
 10
173.3748657649
 20
85.642712517
 11
173.4718738107
 21
85.6435190996
  0
LINE
  5
2AA
100
AcDbEntity
  8
ASSI
100
AcDbLine
 62
253
  6
CONTINUOUS
 10
173.3748657649
 20
85.642712517
 11
173.4718738107
 21
85.6435190996
  0
LINE
  5
2AB
100
AcDbEntity
  8
0
100
AcDbLine
 62
253
  6
CONTINUOUS
 10
130.0331538474
 20
84.4955734333
 11
133.2820713928
 21
84.5052893742
  0
LINE
  5
2AC
100
AcDbEntity
  8
ASSI
100
AcDbLine
 62
253
  6
CONTINUOUS
 10
130.0331538474
 20
84.4955734333
 11
133.2820713928
 21
84.5052893742
  0
LINE
  5
2AD
100
AcDbEntity
  8
0
100
AcDbLine
 62
253
  6
CONTINUOUS
 10
133.2820713928
 20
84.5052893742
 11
136.6848793657
 21
84.5116074193
  0
LINE
  5
2AE
100
AcDbEntity
  8
ASSI
100
AcDbLine
 62
253
  6
CONTINUOUS
 10
133.2820713928
 20
84.5052893742
 11
136.6848793657
 21
84.5116074193
  0
LINE
  5
2AF
100
AcDbEntity
  8
0
100
AcDbLine
 62
253
  6
CONTINUOUS
 10
130.0171176341
 20
85.6427125257
 11
135.5098673396
 21
85.6486500933
  0
LINE
  5
2B0
100
AcDbEntity
  8
ASSI
100
AcDbLine
 62
253
  6
CONTINUOUS
 10
130.0171176341
 20
85.6427125257
 11
135.5098673396
 21
85.6486500933
  0
LINE
  5
2B1
100
AcDbEntity
  8
0
100
AcDbLine
 62
253
  6
CONTINUOUS
 10
136.6848793657
 20
84.5116074193
 11
140.4464453885
 21
84.5140498786
  0
LINE
  5
2B2
100
AcDbEntity
  8
ASSI
100
AcDbLine
 62
253
  6
CONTINUOUS
 10
136.6848793657
 20
84.5116074193
 11
140.4464453885
 21
84.5140498786
  0
LINE
  5
2B3
100
AcDbEntity
  8
0
100
AcDbLine
 62
7
  6
CONTINUOUS
 10
129.9670422951
 20
84.3632596007
 11
132.6374349351
 21
84.3632596007
  0
LINE
  5
2B4
100
AcDbEntity
  8
ASSI
100
AcDbLine
 62
7
  6
CONTINUOUS
 10
129.9670422951
 20
84.3632596007
 11
132.6374349351
 21
84.3632596007
  0
LINE
  5
2B5
100
AcDbEntity
  8
0
100
AcDbLine
 62
7
  6
CONTINUOUS
 10
137.0545484329
 20
84.3632596007
 11
143.8374349351
 21
84.3632596007
  0
LINE
  5
2B6
100
AcDbEntity
  8
ASSI
100
AcDbLine
 62
7
  6
CONTINUOUS
 10
137.0545484329
 20
84.3632596007
 11
143.8374349351
 21
84.3632596007
  0
LINE
  5
2B7
100
AcDbEntity
  8
0
100
AcDbLine
 62
7
  6
CONTINUOUS
 10
148.2545484329
 20
84.3632596007
 11
155.1374349351
 21
84.3632596007
  0
LINE
  5
2B8
100
AcDbEntity
  8
ASSI
100
AcDbLine
 62
7
  6
CONTINUOUS
 10
148.2545484329
 20
84.3632596007
 11
155.1374349351
 21
84.3632596007
  0
LINE
  5
2B9
100
AcDbEntity
  8
0
100
AcDbLine
 62
7
  6
CONTINUOUS
 10
159.5545484329
 20
84.3632596007
 11
166.3374349351
 21
84.3632596007
  0
LINE
  5
2BA
100
AcDbEntity
  8
ASSI
100
AcDbLine
 62
7
  6
CONTINUOUS
 10
159.5545484329
 20
84.3632596007
 11
166.3374349351
 21
84.3632596007
  0
LINE
  5
2BB
100
AcDbEntity
  8
0
100
AcDbLine
 62
7
  6
CONTINUOUS
 10
170.7545484329
 20
84.3632596007
 11
173.4249410729
 21
84.3632596007
  0
LINE
  5
2BC
100
AcDbEntity
  8
ASSI
100
AcDbLine
 62
7
  6
CONTINUOUS
 10
170.7545484329
 20
84.3632596007
 11
173.4249410729
 21
84.3632596007
  0
LINE
  5
2BD
100
AcDbEntity
  8
0
100
AcDbLine
 62
7
  6
CONTINUOUS
 10
147.7305216302
 20
84.4003454965
 11
144.3614617378
 21
84.4003454965
  0
LINE
  5
2BE
100
AcDbEntity
  8
ASSI
100
AcDbLine
 62
7
  6
CONTINUOUS
 10
147.7305216302
 20
84.4003454965
 11
144.3614617378
 21
84.4003454965
  0
LINE
  5
2BF
100
AcDbEntity
  8
0
100
AcDbLine
 62
7
  6
CONTINUOUS
 10
136.5305216302
 20
84.4003454965
 11
133.1614617378
 21
84.4003454965
  0
LINE
  5
2C0
100
AcDbEntity
  8
ASSI
100
AcDbLine
 62
7
  6
CONTINUOUS
 10
136.5305216302
 20
84.4003454965
 11
133.1614617378
 21
84.4003454965
  0
LINE
  5
2C1
100
AcDbEntity
  8
0
100
AcDbLine
 62
7
  6
CONTINUOUS
 10
155.6614617378
 20
84.4003454965
 11
159.0305216302
 21
84.4003454965
  0
LINE
  5
2C2
100
AcDbEntity
  8
ASSI
100
AcDbLine
 62
7
  6
CONTINUOUS
 10
155.6614617378
 20
84.4003454965
 11
159.0305216302
 21
84.4003454965
  0
LINE
  5
2C3
100
AcDbEntity
  8
0
100
AcDbLine
 62
7
  6
CONTINUOUS
 10
166.8614617378
 20
84.4003454965
 11
170.2305216302
 21
84.4003454965
  0
LINE
  5
2C4
100
AcDbEntity
  8
ASSI
100
AcDbLine
 62
7
  6
CONTINUOUS
 10
166.8614617378
 20
84.4003454965
 11
170.2305216302
 21
84.4003454965
  0
LINE
  5
2C5
100
AcDbEntity
  8
0
100
AcDbLine
 62
253
  6
CONTINUOUS
 10
135.5098673396
 20
85.6486500933
 11
164.7487752358
 21
85.6499048334
  0
LINE
  5
2C6
100
AcDbEntity
  8
ASSI
100
AcDbLine
 62
253
  6
CONTINUOUS
 10
135.5098673396
 20
85.6486500933
 11
164.7487752358
 21
85.6499048334
  0
LINE
  5
2C7
100
AcDbEntity
  8
0
100
AcDbLine
 62
253
  6
CONTINUOUS
 10
140.4464453885
 20
84.5140498786
 11
165.6233136469
 21
84.5127979948
  0
LINE
  5
2C8
100
AcDbEntity
  8
ASSI
100
AcDbLine
 62
253
  6
CONTINUOUS
 10
140.4464453885
 20
84.5140498786
 11
165.6233136469
 21
84.5127979948
  0
LINE
  5
2C9
100
AcDbEntity
  8
0
100
AcDbLine
 62
253
  6
CONTINUOUS
 10
164.7487752358
 20
85.6499048334
 11
169.0260016719
 21
85.6477346418
  0
LINE
  5
2CA
100
AcDbEntity
  8
ASSI
100
AcDbLine
 62
253
  6
CONTINUOUS
 10
164.7487752358
 20
85.6499048334
 11
169.0260016719
 21
85.6477346418
  0
LINE
  5
2CB
100
AcDbEntity
  8
0
100
AcDbLine
 62
253
  6
CONTINUOUS
 10
169.0260016719
 20
85.6477346418
 11
173.374865765
 21
85.6427125289
  0
LINE
  5
2CC
100
AcDbEntity
  8
ASSI
100
AcDbLine
 62
253
  6
CONTINUOUS
 10
169.0260016719
 20
85.6477346418
 11
173.374865765
 21
85.6427125289
  0
LINE
  5
2CD
100
AcDbEntity
  8
0
100
AcDbLine
 62
253
  6
CONTINUOUS
 10
165.6233136469
 20
84.5127979948
 11
169.0127938842
 21
84.5077625042
  0
LINE
  5
2CE
100
AcDbEntity
  8
ASSI
100
AcDbLine
 62
253
  6
CONTINUOUS
 10
165.6233136469
 20
84.5127979948
 11
169.0127938842
 21
84.5077625042
  0
LWPOLYLINE
  5
2CF
100
AcDbEntity
  8
0
100
AcDbPolyline
 62
253
  6
CONTINUOUS
 90
3
 70
0
 10
169.0127938842
 20
84.5077625042
 10
172.4620119038
 20
84.498596844
 10
173.3588295187
 20
84.4955734371
  0
LWPOLYLINE
  5
2D0
100
AcDbEntity
  8
ASSI
100
AcDbPolyline
 62
253
  6
CONTINUOUS
 90
3
 70
0
 10
169.0127938842
 20
84.5077625042
 10
172.4620119038
 20
84.498596844
 10
173.3588295187
 20
84.4955734371
  0
LWPOLYLINE
  5
2D1
100
AcDbEntity
  8
0
100
AcDbPolyline
 62
253
  6
CONTINUOUS
 90
15
 70
0
 10
130.0171185268
 20
85.6427130601
 10
129.9201113828
 20
85.6435196165
 10
129.8732722037
 20
85.6442253737
 10
129.8281522694
 20
85.6451243056
 10
129.7851890802
 20
85.6462076959
 10
129.7447992235
 20
85.64746504
 10
129.707374335
 20
85.6488841461
 10
129.6732773005
 20
85.6504512541
 10
129.6428387381
 20
85.6521511686
 10
129.6163537916
 20
85.6539674067
 10
129.5940792692
 20
85.6558823574
 10
129.5762311532
 20
85.6578774526
 10
129.5629825058
 20
85.6599333471
 10
129.554461791
 20
85.6620301062
 10
129.5507516287
 20
85.6641473989
  0
LWPOLYLINE
  5
2D2
100
AcDbEntity
  8
ASSI
100
AcDbPolyline
 62
253
  6
CONTINUOUS
 90
15
 70
0
 10
130.0171185268
 20
85.6427130601
 10
129.9201113828
 20
85.6435196165
 10
129.8732722037
 20
85.6442253737
 10
129.8281522694
 20
85.6451243056
 10
129.7851890802
 20
85.6462076959
 10
129.7447992235
 20
85.64746504
 10
129.707374335
 20
85.6488841461
 10
129.6732773005
 20
85.6504512541
 10
129.6428387381
 20
85.6521511686
 10
129.6163537916
 20
85.6539674067
 10
129.5940792692
 20
85.6558823574
 10
129.5762311532
 20
85.6578774526
 10
129.5629825058
 20
85.6599333471
 10
129.554461791
 20
85.6620301062
 10
129.5507516287
 20
85.6641473989
  0
LINE
  5
2D3
100
AcDbEntity
  8
0
100
AcDbLine
 62
7
  6
CONTINUOUS
 10
148.2545484329
 20
84.3632596007
 11
147.9037267109
 21
84.3951047186
  0
LINE
  5
2D4
100
AcDbEntity
  8
ASSI
100
AcDbLine
 62
7
  6
CONTINUOUS
 10
148.2545484329
 20
84.3632596007
 11
147.9037267109
 21
84.3951047186
  0
LINE
  5
2D5
100
AcDbEntity
  8
0
100
AcDbLine
 62
7
  6
CONTINUOUS
 10
159.5545484329
 20
84.3632596007
 11
159.2037267109
 21
84.3951047186
  0
LINE
  5
2D6
100
AcDbEntity
  8
ASSI
100
AcDbLine
 62
7
  6
CONTINUOUS
 10
159.5545484329
 20
84.3632596007
 11
159.2037267109
 21
84.3951047186
  0
LINE
  5
2D7
100
AcDbEntity
  8
0
100
AcDbLine
 62
7
  6
CONTINUOUS
 10
170.7545484329
 20
84.3632596007
 11
170.4037267109
 21
84.3951047186
  0
LINE
  5
2D8
100
AcDbEntity
  8
ASSI
100
AcDbLine
 62
7
  6
CONTINUOUS
 10
170.7545484329
 20
84.3632596007
 11
170.4037267109
 21
84.3951047186
  0
LINE
  5
2D9
100
AcDbEntity
  8
0
100
AcDbLine
 62
253
  6
CONTINUOUS
 10
151.570991684
 20
92.3535058272
 11
151.820991684
 21
92.3535058272
  0
LWPOLYLINE
  5
2DA
100
AcDbEntity
  8
0
100
AcDbPolyline
 62
253
  6
CONTINUOUS
 90
51
 70
0
 10
151.570991684
 20
92.3535058773
 10
151.5631641495
 20
92.3536286137
 10
151.5553422142
 20
92.3539965207
 10
151.5475330624
 20
92.3546091453
 10
151.5397438783
 20
92.3554660347
 10
151.5319818459
 20
92.3565667356
 10
151.5242541495
 20
92.3579107952
 10
151.5165679732
 20
92.3594977605
 10
151.5089305012
 20
92.3613271784
 10
151.5013489178
 20
92.3633985959
 10
151.4938304069
 20
92.3657115601
 10
151.4863823985
 20
92.3682649192
 10
151.4790133041
 20
92.3710547272
 10
151.4717317813
 20
92.3740763394
 10
151.4645464873
 20
92.3773251109
 10
151.4574660795
 20
92.380796397
 10
151.4504992151
 20
92.3844855529
 10
151.4436545516
 20
92.388387934
 10
151.4369407463
 20
92.3924988954
 10
151.4303664564
 20
92.3968137924
 10
151.4239403394
 20
92.4013279803
 10
151.4176701235
 20
92.4060368082
 10
151.4115598202
 20
92.4109356011
 10
151.4056125121
 20
92.4160196779
 10
151.3998312819
 20
92.4212843575
 10
151.3942192119
 20
92.4267249589
 10
151.3887794543
 20
92.432337224
 10
151.383515439
 20
92.4381185868
 10
151.3784306654
 20
92.4440669045
 10
151.373528633
 20
92.4501800342
 10
151.3688128412
 20
92.4564558331
 10
151.3642873631
 20
92.4628909139
 10
151.3599585664
 20
92.4694769123
 10
151.3558333921
 20
92.4762042196
 10
151.3519187817
 20
92.4830632271
 10
151.3482216762
 20
92.4900443259
 10
151.344748375
 20
92.4971379922
 10
151.3415026093
 20
92.5043350407
 10
151.3384874684
 20
92.5116263708
 10
151.3357060417
 20
92.519002882
 10
151.3331614183
 20
92.5264554736
 10
151.3308562603
 20
92.5339753873
 10
151.3287915203
 20
92.5415552336
 10
151.3269677236
 20
92.5491879648
 10
151.3253853955
 20
92.5568665336
 10
151.3240450613
 20
92.5645838925
 10
151.3229472462
 20
92.572332994
 10
151.3220924757
 20
92.5801067908
 10
151.321481275
 20
92.5878982352
 10
151.3211141693
 20
92.5957002799
 10
151.320991684
 20
92.6035058773
  0
LWPOLYLINE
  5
2DB
100
AcDbEntity
  8
0
100
AcDbPolyline
 62
253
  6
CONTINUOUS
 90
10
 70
0
 10
129.5333251868
 20
128.0450395502
 10
129.5346189579
 20
128.0406869972
 10
129.5358909244
 20
128.0329931254
 10
129.5371410863
 20
128.0219579348
 10
129.5383759935
 20
128.0074925115
 10
129.539589096
 20
127.9896857693
 10
129.5407607449
 20
127.96880445
 10
129.5418897534
 20
127.9448038059
 10
129.5429773081
 20
127.9177285847
 10
129.5440073202
 20
127.8879797703
  0
LWPOLYLINE
  5
2DC
100
AcDbEntity
  8
ASSI
100
AcDbPolyline
 62
253
  6
CONTINUOUS
 90
10
 70
0
 10
129.5333251868
 20
128.0450395502
 10
129.5346189579
 20
128.0406869972
 10
129.5358909244
 20
128.0329931254
 10
129.5371410863
 20
128.0219579348
 10
129.5383759935
 20
128.0074925115
 10
129.539589096
 20
127.9896857693
 10
129.5407607449
 20
127.96880445
 10
129.5418897534
 20
127.9448038059
 10
129.5429773081
 20
127.9177285847
 10
129.5440073202
 20
127.8879797703
  0
LWPOLYLINE
  5
2DD
100
AcDbEntity
  8
0
100
AcDbPolyline
 62
253
  6
CONTINUOUS
 90
3
 70
0
 10
140.4471253703
 20
106.774053825
 10
140.447272548
 20
106.7654889706
 10
140.4474213417
 20
106.7623198328
  0
LWPOLYLINE
  5
2DE
100
AcDbEntity
  8
ASSI
100
AcDbPolyline
 62
253
  6
CONTINUOUS
 90
3
 70
0
 10
140.4471253703
 20
106.774053825
 10
140.447272548
 20
106.7654889706
 10
140.4474213417
 20
106.7623198328
  0
LINE
  5
2DF
100
AcDbEntity
  8
0
100
AcDbLine
 62
253
  6
CONTINUOUS
 10
140.4468422219
 20
106.8069410123
 11
140.4471253703
 21
106.774053825
  0
LINE
  5
2E0
100
AcDbEntity
  8
ASSI
100
AcDbLine
 62
253
  6
CONTINUOUS
 10
140.4468422219
 20
106.8069410123
 11
140.4471253703
 21
106.774053825
  0
LINE
  5
2E1
100
AcDbEntity
  8
0
100
AcDbLine
 62
253
  6
CONTINUOUS
 10
140.4461181922
 20
107.0606188408
 11
140.4468422219
 21
106.8069410123
  0
LINE
  5
2E2
100
AcDbEntity
  8
ASSI
100
AcDbLine
 62
253
  6
CONTINUOUS
 10
140.4461181922
 20
107.0606188408
 11
140.4468422219
 21
106.8069410123
  0
LINE
  5
2E3
100
AcDbEntity
  8
0
100
AcDbLine
 62
253
  6
CONTINUOUS
 10
140.4461181922
 20
107.0606188408
 11
140.4459970624
 21
127.4874293695
  0
LINE
  5
2E4
100
AcDbEntity
  8
ASSI
100
AcDbLine
 62
253
  6
CONTINUOUS
 10
140.4461181922
 20
107.0606188408
 11
140.4459970624
 21
127.4874293695
  0
LINE
  5
2E5
100
AcDbEntity
  8
0
100
AcDbLine
 62
253
  6
CONTINUOUS
 10
140.4464453885
 20
84.5140498786
 11
140.4460004696
 21
105.8287398204
  0
LINE
  5
2E6
100
AcDbEntity
  8
ASSI
100
AcDbLine
 62
253
  6
CONTINUOUS
 10
140.4464453885
 20
84.5140498786
 11
140.4460004696
 21
105.8287398204
  0
LINE
  5
2E7
100
AcDbEntity
  8
0
100
AcDbLine
 62
253
  6
CONTINUOUS
 10
140.4459970624
 20
127.4874293695
 11
140.4464453885
 21
128.5258778761
  0
LINE
  5
2E8
100
AcDbEntity
  8
ASSI
100
AcDbLine
 62
253
  6
CONTINUOUS
 10
140.4459970624
 20
127.4874293695
 11
140.4464453885
 21
128.5258778761
  0
LINE
  5
2E9
100
AcDbEntity
  8
0
100
AcDbLine
 62
253
  6
CONTINUOUS
 10
140.4460004696
 20
105.8287398204
 11
140.446709333
 21
106.2090215037
  0
LINE
  5
2EA
100
AcDbEntity
  8
ASSI
100
AcDbLine
 62
253
  6
CONTINUOUS
 10
140.4460004696
 20
105.8287398204
 11
140.446709333
 21
106.2090215037
  0
LWPOLYLINE
  5
2EB
100
AcDbEntity
  8
0
100
AcDbPolyline
 62
253
  6
CONTINUOUS
 90
5
 70
0
 10
140.446709333
 20
106.2090215037
 10
140.4469814113
 20
106.252006317
 10
140.4471253731
 20
106.2658738846
 10
140.4472725494
 20
106.2744387597
 10
140.4474213417
 20
106.2776079219
  0
LWPOLYLINE
  5
2EC
100
AcDbEntity
  8
ASSI
100
AcDbPolyline
 62
253
  6
CONTINUOUS
 90
5
 70
0
 10
140.446709333
 20
106.2090215037
 10
140.4469814113
 20
106.252006317
 10
140.4471253731
 20
106.2658738846
 10
140.4472725494
 20
106.2744387597
 10
140.4474213417
 20
106.2776079219
  0
LINE
  5
2ED
100
AcDbEntity
  8
0
100
AcDbLine
 62
253
  6
CONTINUOUS
 10
129.5333251849
 20
84.9948882007
 11
129.4664158734
 21
84.860977755
  0
LINE
  5
2EE
100
AcDbEntity
  8
ASSI
100
AcDbLine
 62
253
  6
CONTINUOUS
 10
129.5333251849
 20
84.9948882007
 11
129.4664158734
 21
84.860977755
  0
LINE
  5
2EF
100
AcDbEntity
  8
0
100
AcDbLine
 62
253
  6
CONTINUOUS
 10
129.4664158734
 20
128.1789499997
 11
129.5333251868
 21
128.0450395502
  0
LINE
  5
2F0
100
AcDbEntity
  8
ASSI
100
AcDbLine
 62
253
  6
CONTINUOUS
 10
129.4664158734
 20
128.1789499997
 11
129.5333251868
 21
128.0450395502
  0
LINE
  5
2F1
100
AcDbEntity
  8
0
100
AcDbLine
 62
253
  6
CONTINUOUS
 10
130.0331538474
 20
84.4955734333
 11
129.9670422951
 21
84.3632596007
  0
LINE
  5
2F2
100
AcDbEntity
  8
ASSI
100
AcDbLine
 62
253
  6
CONTINUOUS
 10
130.0331538474
 20
84.4955734333
 11
129.9670422951
 21
84.3632596007
  0
LINE
  5
2F3
100
AcDbEntity
  8
0
100
AcDbLine
 62
253
  6
CONTINUOUS
 10
129.446807482
 20
107.2198686951
 11
129.5624970832
 21
107.2584240636
  0
LINE
  5
2F4
100
AcDbEntity
  8
ASSI
100
AcDbLine
 62
253
  6
CONTINUOUS
 10
129.446807482
 20
107.2198686951
 11
129.5624970832
 21
107.2584240636
  0
LINE
  5
2F5
100
AcDbEntity
  8
0
100
AcDbLine
 62
253
  6
CONTINUOUS
 10
151.820991684
 20
97.6864218333
 11
151.570991684
 21
97.6864218333
  0
LWPOLYLINE
  5
2F6
100
AcDbEntity
  8
0
100
AcDbPolyline
 62
253
  6
CONTINUOUS
 90
51
 70
0
 10
151.820991684
 20
97.6864218773
 10
151.8288206182
 20
97.6862991
 10
151.8366439021
 20
97.6859310713
 10
151.8444543512
 20
97.6853182465
 10
151.8522447809
 20
97.6844610807
 10
151.8600080067
 20
97.683360029
 10
151.8677368441
 20
97.6820155465
 10
151.8754241085
 20
97.6804280884
 10
151.8830626153
 20
97.6785981098
 10
151.8906451801
 20
97.6765260658
 10
151.8981646182
 20
97.6742124117
 10
151.9056134983
 20
97.6716583027
 10
151.9129834018
 20
97.6688676954
 10
151.9202656633
 20
97.6658452465
 10
151.9274516172
 20
97.6625956128
 10
151.9345325983
 20
97.659123451
 10
151.941499941
 20
97.6554334178
 10
151.9483449798
 20
97.65153017
 10
151.9550590495
 20
97.6474183643
 10
151.9616334844
 20
97.6431026575
 10
151.9680596193
 20
97.6385877063
 10
151.9743297218
 20
97.6338781717
 10
151.9804397929
 20
97.6289787312
 10
151.9863867667
 20
97.6238940667
 10
151.9921675773
 20
97.6186288599
 10
151.9977791587
 20
97.6131877926
 10
152.0032183729
 20
97.6075751253
 10
152.0084817922
 20
97.6017934337
 10
152.0135659168
 20
97.5958448721
 10
152.018467247
 20
97.5897315951
 10
152.0231822828
 20
97.5834557569
 10
152.0277069535
 20
97.5770207533
 10
152.0320349045
 20
97.5704349453
 10
152.0361592103
 20
97.5637079351
 10
152.0400729453
 20
97.5568493251
 10
152.0437691839
 20
97.5498687175
 10
152.0472416409
 20
97.5427756291
 10
152.050486592
 20
97.5355792347
 10
152.0535009532
 20
97.5282886234
 10
152.0562816404
 20
97.5209128843
 10
152.0588255696
 20
97.5134611066
 10
152.0611300838
 20
97.5059420406
 10
152.063194234
 20
97.4983630806
 10
152.065017498
 20
97.4907312823
 10
152.0665993539
 20
97.4830537009
 10
152.0679392796
 20
97.4753373921
 10
152.0690367531
 20
97.4675894112
 10
152.0698912523
 20
97.4598168139
 10
152.0705022552
 20
97.4520266554
 10
152.0708692398
 20
97.4442259914
 10
152.070991684
 20
97.4364218773
  0
LINE
  5
2F7
100
AcDbEntity
  8
0
100
AcDbLine
 62
253
  6
CONTINUOUS
 10
129.5624970815
 20
105.7815036917
 11
129.446807482
 21
105.8200590595
  0
LINE
  5
2F8
100
AcDbEntity
  8
ASSI
100
AcDbLine
 62
253
  6
CONTINUOUS
 10
129.5624970815
 20
105.7815036917
 11
129.446807482
 21
105.8200590595
  0
LINE
  5
2F9
100
AcDbEntity
  8
0
100
AcDbLine
 62
253
  6
CONTINUOUS
 10
129.9670422951
 20
128.676668154
 11
130.0331538493
 21
128.5443543175
  0
LINE
  5
2FA
100
AcDbEntity
  8
ASSI
100
AcDbLine
 62
253
  6
CONTINUOUS
 10
129.9670422951
 20
128.676668154
 11
130.0331538493
 21
128.5443543175
  0
LINE
  5
2FB
100
AcDbEntity
  8
0
100
AcDbLine
 62
253
  6
CONTINUOUS
 10
129.9468646221
 20
106.7199638773
 11
130.0623257458
 21
106.7584431021
  0
LINE
  5
2FC
100
AcDbEntity
  8
ASSI
100
AcDbLine
 62
253
  6
CONTINUOUS
 10
129.9468646221
 20
106.7199638773
 11
130.0623257458
 21
106.7584431021
  0
LWPOLYLINE
  5
2FD
100
AcDbEntity
  8
SUPERFICI
100
AcDbPolyline
 62
7
  6
CONTINUOUS
 90
46
 70
0
 10
153.9461344106
 20
101.0383115421
 10
154.0148097723
 20
101.0407384554
 10
154.0826089589
 20
101.0478448584
 10
154.1495319705
 20
101.0596307562
 10
154.2159252248
 20
101.0761927602
 10
154.281442304
 20
101.0974342755
 10
154.3450439551
 20
101.123065501
 10
154.4067103333
 20
101.1531874344
 10
154.4664612834
 20
101.1876991056
 10
154.5233170862
 20
101.2260077613
 10
154.5771512037
 20
101.2681017529
 10
154.628090174
 20
101.3139927607
 10
154.6755338925
 20
101.3631230216
 10
154.7195112345
 20
101.4156332601
 10
154.7599933247
 20
101.4713827834
 10
154.796293433
 20
101.5293916948
 10
154.8282802031
 20
101.5895469002
 10
154.8560849913
 20
101.6519615153
 10
154.8794151361
 20
101.7159949497
 10
154.8982643185
 20
101.7818495013
 10
154.9126388576
 20
101.8493228872
 10
154.9222650492
 20
101.917167634
 10
154.9270528513
 20
101.9852109314
 10
154.9270923058
 20
102.0536255871
 10
154.9223798348
 20
102.1216825433
 10
154.9128279468
 20
102.1895500945
 10
154.8985241333
 20
102.2570599362
 10
154.8797272908
 20
102.3229781012
 10
154.8564140323
 20
102.3871295099
 10
154.8286077449
 20
102.4496892191
 10
154.7966374862
 20
102.509948458
 10
154.7604009223
 20
102.5679734091
 10
154.7200003871
 20
102.6236978649
 10
154.6760719405
 20
102.6762144642
 10
154.6286088804
 20
102.7254247288
 10
154.577617909
 20
102.7714271103
 10
154.5237551922
 20
102.8136096383
 10
154.4669352679
 20
102.8519540325
 10
154.4072435984
 20
102.8864785506
 10
154.3455927367
 20
102.9166260292
 10
154.2819337716
 20
102.942315619
 10
154.2163156143
 20
102.9636281531
 10
154.1497975521
 20
102.9802489924
 10
154.0827326806
 20
102.9920732548
 10
154.0147679041
 20
102.9992058149
 10
153.9459032227
 20
103.0016466712
  0
LINE
  5
2FE
100
AcDbEntity
  8
SUPERFICI
100
AcDbLine
 62
7
  6
CONTINUOUS
 10
149.4458490751
 20
101.0383115421
 11
153.9461344106
 21
101.0383115421
  0
LINE
  5
2FF
100
AcDbEntity
  8
0
100
AcDbLine
 62
7
  6
CONTINUOUS
 10
153.9460038563
 20
101.0382978608
 11
149.4459794932
 21
101.0383115411
  0
LINE
  5
300
100
AcDbEntity
  8
ASSI
100
AcDbLine
 62
7
  6
CONTINUOUS
 10
153.9460038563
 20
101.0382978608
 11
149.4459794932
 21
101.0383115411
  0
LWPOLYLINE
  5
301
100
AcDbEntity
  8
0
100
AcDbPolyline
 62
7
  6
CONTINUOUS
 90
40
 70
0
 10
149.4459794932
 20
101.0383115411
 10
149.3666891947
 20
101.0416115168
 10
149.2888856802
 20
101.0509919137
 10
149.2125689497
 20
101.0664527401
 10
149.1373074459
 20
101.0881414771
 10
149.0635327261
 20
101.1159106715
 10
148.9925394624
 20
101.1493179345
 10
148.9242859042
 20
101.1885179964
 10
148.8588138021
 20
101.2333561721
 10
148.79754308
 20
101.2829259484
 10
148.7406505026
 20
101.3372377586
 10
148.6879593051
 20
101.3962812185
 10
148.6403591172
 20
101.45911858
 10
148.5978404252
 20
101.5259585249
 10
148.5604127427
 20
101.5965924161
 10
148.5289942401
 20
101.6694565122
 10
148.5037782897
 20
101.7444576565
 10
148.4845715192
 20
101.8216890282
 10
148.4717119815
 20
101.8998663698
 10
148.4653089097
 20
101.9791809144
 10
148.4652530708
 20
102.0594414332
 10
148.4715548187
 20
102.1387899532
 10
148.4843246245
 20
102.2170414233
 10
148.503452017
 20
102.2943808719
 10
148.5286159373
 20
102.3695054248
 10
148.5600200822
 20
102.4425098907
 10
148.5974607549
 20
102.5132994271
 10
148.6400058058
 20
102.5802866681
 10
148.6876405954
 20
102.6432589007
 10
148.7403797633
 20
102.702428795
 10
148.7973350783
 20
102.7568470508
 10
148.8586961605
 20
102.8064990612
 10
148.9242733898
 20
102.8513993955
 10
148.9926096752
 20
102.890642514
 10
149.0636509677
 20
102.9240691464
 10
149.1374513163
 20
102.9518385351
 10
149.2127157763
 20
102.973522911
 10
149.2890126996
 20
102.9889796797
 10
149.3667737342
 20
102.9983514224
 10
149.4459988804
 20
103.0016381362
  0
LWPOLYLINE
  5
302
100
AcDbEntity
  8
ASSI
100
AcDbPolyline
 62
7
  6
CONTINUOUS
 90
40
 70
0
 10
149.4459794932
 20
101.0383115411
 10
149.3666891947
 20
101.0416115168
 10
149.2888856802
 20
101.0509919137
 10
149.2125689497
 20
101.0664527401
 10
149.1373074459
 20
101.0881414771
 10
149.0635327261
 20
101.1159106715
 10
148.9925394624
 20
101.1493179345
 10
148.9242859042
 20
101.1885179964
 10
148.8588138021
 20
101.2333561721
 10
148.79754308
 20
101.2829259484
 10
148.7406505026
 20
101.3372377586
 10
148.6879593051
 20
101.3962812185
 10
148.6403591172
 20
101.45911858
 10
148.5978404252
 20
101.5259585249
 10
148.5604127427
 20
101.5965924161
 10
148.5289942401
 20
101.6694565122
 10
148.5037782897
 20
101.7444576565
 10
148.4845715192
 20
101.8216890282
 10
148.4717119815
 20
101.8998663698
 10
148.4653089097
 20
101.9791809144
 10
148.4652530708
 20
102.0594414332
 10
148.4715548187
 20
102.1387899532
 10
148.4843246245
 20
102.2170414233
 10
148.503452017
 20
102.2943808719
 10
148.5286159373
 20
102.3695054248
 10
148.5600200822
 20
102.4425098907
 10
148.5974607549
 20
102.5132994271
 10
148.6400058058
 20
102.5802866681
 10
148.6876405954
 20
102.6432589007
 10
148.7403797633
 20
102.702428795
 10
148.7973350783
 20
102.7568470508
 10
148.8586961605
 20
102.8064990612
 10
148.9242733898
 20
102.8513993955
 10
148.9926096752
 20
102.890642514
 10
149.0636509677
 20
102.9240691464
 10
149.1374513163
 20
102.9518385351
 10
149.2127157763
 20
102.973522911
 10
149.2890126996
 20
102.9889796797
 10
149.3667737342
 20
102.9983514224
 10
149.4459988804
 20
103.0016381362
  0
LWPOLYLINE
  5
303
100
AcDbEntity
  8
SUPERFICI
100
AcDbPolyline
 62
7
  6
CONTINUOUS
 90
3
 70
0
 10
149.3091863136
 20
101.0478702311
 10
149.3770793189
 20
101.0407439628
 10
149.4458490751
 20
101.0383115421
  0
LINE
  5
304
100
AcDbEntity
  8
0
100
AcDbLine
 62
253
  6
CONTINUOUS
 10
130.0623257449
 20
106.2814846529
 11
129.9468646221
 21
106.3199638773
  0
LINE
  5
305
100
AcDbEntity
  8
ASSI
100
AcDbLine
 62
253
  6
CONTINUOUS
 10
130.0623257449
 20
106.2814846529
 11
129.9468646221
 21
106.3199638773
  0
LWPOLYLINE
  5
306
100
AcDbEntity
  8
SUPERFICI
100
AcDbPolyline
 62
7
  6
CONTINUOUS
 90
43
 70
0
 10
149.3773097055
 20
102.9992112992
 10
149.3094384978
 20
102.9920985682
 10
149.2424666724
 20
102.9803084796
 10
149.1760555632
 20
102.9637453006
 10
149.1105438365
 20
102.9425047716
 10
149.0469474908
 20
102.9168741053
 10
148.9852785033
 20
102.8867514174
 10
148.9255248969
 20
102.8522386086
 10
148.8686667396
 20
102.8139285704
 10
148.8148306397
 20
102.7718329389
 10
148.7638899888
 20
102.7259401002
 10
148.7164450301
 20
102.6768080702
 10
148.6724669586
 20
102.6242961127
 10
148.6319845791
 20
102.5685449907
 10
148.5956845492
 20
102.5105349657
 10
148.5636983175
 20
102.4503792955
 10
148.5358944354
 20
102.3879647464
 10
148.512565214
 20
102.3239318374
 10
148.4937169298
 20
102.2580784825
 10
148.4793433065
 20
102.1906067905
 10
148.4697178257
 20
102.122763564
 10
148.4649303895
 20
102.0547214517
 10
148.4648910959
 20
101.9863078148
 10
148.4696037208
 20
101.9182515137
 10
148.4791558101
 20
101.8503840477
 10
148.493459818
 20
101.7828739202
 10
148.5122568829
 20
101.716955486
 10
148.5355704576
 20
101.6528038403
 10
148.5633770894
 20
101.5902438734
 10
148.5953475583
 20
101.5299846206
 10
148.6315842175
 20
101.4719599558
 10
148.6719847138
 20
101.4162359828
 10
148.7159127685
 20
101.3637200729
 10
148.7633750093
 20
101.3145107408
 10
148.8143648085
 20
101.2685094404
 10
148.8682260036
 20
101.2263279451
 10
148.9250439517
 20
101.1879845088
 10
148.9847332958
 20
101.1534608456
 10
149.0463818019
 20
101.1233139148
 10
149.110046196
 20
101.0976236342
 10
149.1756697521
 20
101.0763100585
 10
149.2421700593
 20
101.0596903522
 10
149.3091863136
 20
101.0478702311
  0
LINE
  5
307
100
AcDbEntity
  8
SUPERFICI
100
AcDbLine
 62
7
  6
CONTINUOUS
 10
149.4460802957
 20
103.0016466712
 11
149.3773097055
 21
102.9992112992
  0
LINE
  5
308
100
AcDbEntity
  8
SUPERFICI
100
AcDbLine
 62
7
  6
CONTINUOUS
 10
153.9459032227
 20
103.0016466712
 11
149.4460802957
 21
103.0016466712
  0
LINE
  5
309
100
AcDbEntity
  8
0
100
AcDbLine
 62
7
  6
CONTINUOUS
 10
149.4459988804
 20
103.0016381362
 11
153.9459844765
 21
103.0016466715
  0
LINE
  5
30A
100
AcDbEntity
  8
ASSI
100
AcDbLine
 62
7
  6
CONTINUOUS
 10
149.4459988804
 20
103.0016381362
 11
153.9459844765
 21
103.0016466715
  0
LWPOLYLINE
  5
30B
100
AcDbEntity
  8
0
100
AcDbPolyline
 62
7
  6
CONTINUOUS
 90
40
 70
0
 10
153.9459844765
 20
103.0016466715
 10
154.0252768063
 20
102.9983381175
 10
154.1030820834
 20
102.9889514623
 10
154.1794003079
 20
102.9734867088
 10
154.2546630099
 20
102.9517971841
 10
154.3284386593
 20
102.9240295743
 10
154.3994326652
 20
102.8906239246
 10
154.4676867864
 20
102.8514247122
 10
154.5331592641
 20
102.8065874878
 10
154.5944302318
 20
102.7570189077
 10
154.6513228372
 20
102.702708681
 10
154.7040139324
 20
102.6436671361
 10
154.7516142072
 20
102.5808318549
 10
154.7941332251
 20
102.5139943083
 10
154.8315614226
 20
102.4433630681
 10
154.8629807988
 20
102.3705013596
 10
154.8881980921
 20
102.2955023262
 10
154.9074065642
 20
102.2182728584
 10
154.9202679989
 20
102.1400967875
 10
154.9266732517
 20
102.0607827386
 10
154.926731467
 20
101.9805221099
 10
154.9204318622
 20
101.9011728723
 10
154.9076638755
 20
101.8229198994
 10
154.8885380686
 20
101.7455783139
 10
154.8633753439
 20
101.6704514394
 10
154.8319718959
 20
101.5974444031
 10
154.7945315301
 20
101.5266520554
 10
154.7519865657
 20
101.4596622839
 10
154.7043515835
 20
101.3966878621
 10
154.6516120026
 20
101.3375159719
 10
154.5946563997
 20
101.2830960982
 10
154.5332952169
 20
101.2334429032
 10
154.4677180119
 20
101.1885416752
 10
154.3993820346
 20
101.1492978306
 10
154.3283412789
 20
101.1158706272
 10
154.2545417509
 20
101.0881007617
 10
154.1792787178
 20
101.0664158071
 10
154.1029839356
 20
101.0509582781
 10
154.0252256485
 20
101.0415856321
 10
153.9460038563
 20
101.0382978608
  0
LWPOLYLINE
  5
30C
100
AcDbEntity
  8
ASSI
100
AcDbPolyline
 62
7
  6
CONTINUOUS
 90
40
 70
0
 10
153.9459844765
 20
103.0016466715
 10
154.0252768063
 20
102.9983381175
 10
154.1030820834
 20
102.9889514623
 10
154.1794003079
 20
102.9734867088
 10
154.2546630099
 20
102.9517971841
 10
154.3284386593
 20
102.9240295743
 10
154.3994326652
 20
102.8906239246
 10
154.4676867864
 20
102.8514247122
 10
154.5331592641
 20
102.8065874878
 10
154.5944302318
 20
102.7570189077
 10
154.6513228372
 20
102.702708681
 10
154.7040139324
 20
102.6436671361
 10
154.7516142072
 20
102.5808318549
 10
154.7941332251
 20
102.5139943083
 10
154.8315614226
 20
102.4433630681
 10
154.8629807988
 20
102.3705013596
 10
154.8881980921
 20
102.2955023262
 10
154.9074065642
 20
102.2182728584
 10
154.9202679989
 20
102.1400967875
 10
154.9266732517
 20
102.0607827386
 10
154.926731467
 20
101.9805221099
 10
154.9204318622
 20
101.9011728723
 10
154.9076638755
 20
101.8229198994
 10
154.8885380686
 20
101.7455783139
 10
154.8633753439
 20
101.6704514394
 10
154.8319718959
 20
101.5974444031
 10
154.7945315301
 20
101.5266520554
 10
154.7519865657
 20
101.4596622839
 10
154.7043515835
 20
101.3966878621
 10
154.6516120026
 20
101.3375159719
 10
154.5946563997
 20
101.2830960982
 10
154.5332952169
 20
101.2334429032
 10
154.4677180119
 20
101.1885416752
 10
154.3993820346
 20
101.1492978306
 10
154.3283412789
 20
101.1158706272
 10
154.2545417509
 20
101.0881007617
 10
154.1792787178
 20
101.0664158071
 10
154.1029839356
 20
101.0509582781
 10
154.0252256485
 20
101.0415856321
 10
153.9460038563
 20
101.0382978608
  0
LINE
  5
30D
100
AcDbEntity
  8
0
100
AcDbLine
 62
253
  6
CONTINUOUS
 10
151.320991684
 20
120.4364218773
 11
151.320991684
 21
115.6035058773
  0
LINE
  5
30E
100
AcDbEntity
  8
0
100
AcDbLine
 62
253
  6
CONTINUOUS
 10
151.320991684
 20
97.4364218773
 11
151.320991684
 21
92.6035058773
  0
LWPOLYLINE
  5
30F
100
AcDbEntity
  8
0
100
AcDbPolyline
 62
253
  6
CONTINUOUS
 90
51
 70
0
 10
151.320991684
 20
97.4364218773
 10
151.3211145145
 20
97.444252732
 10
151.3214827009
 20
97.4520778319
 10
151.3220957853
 20
97.4598899976
 10
151.3229533098
 20
97.4676820499
 10
151.3240548165
 20
97.4754468092
 10
151.3253998476
 20
97.4831770963
 10
151.3269879452
 20
97.4908657317
 10
151.3288186514
 20
97.4985055361
 10
151.3308915083
 20
97.5060893301
 10
151.3332060581
 20
97.5136099342
 10
151.3357611405
 20
97.5210599196
 10
151.3385527858
 20
97.5284308581
 10
151.3415763216
 20
97.5357140725
 10
151.3448270759
 20
97.542900885
 10
151.3483003765
 20
97.5499826182
 10
151.3519915511
 20
97.5569505946
 10
151.3558959276
 20
97.5637961365
 10
151.3600088338
 20
97.5705105666
 10
151.3643255976
 20
97.5770852071
 10
151.3688415467
 20
97.5835113806
 10
151.3735520071
 20
97.5897813486
 10
151.378452298
 20
97.5958911285
 10
151.3835377366
 20
97.6018376768
 10
151.38880364
 20
97.6076179499
 10
151.3942453256
 20
97.6132289044
 10
151.3998585296
 20
97.6186674205
 10
151.4056406635
 20
97.6239300738
 10
151.4115895579
 20
97.6290133638
 10
151.4177030433
 20
97.63391379
 10
151.4239789502
 20
97.6386278518
 10
151.430413872
 20
97.6431514812
 10
151.4369994525
 20
97.6474783401
 10
151.4437260985
 20
97.6516015233
 10
151.4505842168
 20
97.6555141251
 10
151.4575642139
 20
97.6592092402
 10
151.4646565822
 20
97.662680601
 10
151.4718521564
 20
97.6659244923
 10
151.4791418564
 20
97.6689378368
 10
151.4865166024
 20
97.6717175571
 10
151.4939673146
 20
97.6742605759
 10
151.5014852498
 20
97.6765642426
 10
151.5090630116
 20
97.6786276133
 10
151.51669354
 20
97.6804501711
 10
151.5243697754
 20
97.6820313989
 10
151.5320846579
 20
97.6833707794
 10
151.5398311277
 20
97.6844677958
 10
151.547602125
 20
97.6853219308
 10
151.55539059
 20
97.6859326675
 10
151.5631894629
 20
97.6862994887
 10
151.570991684
 20
97.6864218773
  0
LWPOLYLINE
  5
310
100
AcDbEntity
  8
0
100
AcDbPolyline
 62
253
  6
CONTINUOUS
 90
51
 70
0
 10
152.070991684
 20
115.6035058773
 10
152.0708688534
 20
115.5956750227
 10
152.070500667
 20
115.5878499228
 10
152.0698875827
 20
115.5800377571
 10
152.0690300582
 20
115.5722457048
 10
152.0679285514
 20
115.5644809455
 10
152.0665835204
 20
115.5567506584
 10
152.0649954228
 20
115.549062023
 10
152.0631647166
 20
115.5414222186
 10
152.0610918597
 20
115.5338384246
 10
152.0587773099
 20
115.5263178204
 10
152.0562222274
 20
115.5188678351
 10
152.0534305822
 20
115.5114968965
 10
152.0504070464
 20
115.5042136822
 10
152.0471562921
 20
115.4970268697
 10
152.0436829915
 20
115.4899451364
 10
152.0399918169
 20
115.4829771601
 10
152.0360874404
 20
115.4761316181
 10
152.0319745341
 20
115.4694171881
 10
152.0276577704
 20
115.4628425476
 10
152.0231418213
 20
115.456416374
 10
152.0184313608
 20
115.4501464061
 10
152.01353107
 20
115.4440366262
 10
152.0084456314
 20
115.4380900779
 10
152.003179728
 20
115.4323098048
 10
151.9977380423
 20
115.4266988503
 10
151.9921248384
 20
115.4212603342
 10
151.9863427045
 20
115.4159976809
 10
151.9803938101
 20
115.4109143909
 10
151.9742803247
 20
115.4060139647
 10
151.9680044178
 20
115.4012999029
 10
151.961569496
 20
115.3967762735
 10
151.9549839155
 20
115.3924494145
 10
151.9482572695
 20
115.3883262314
 10
151.9413991512
 20
115.3844136296
 10
151.9344191541
 20
115.3807185145
 10
151.9273267857
 20
115.3772471537
 10
151.9201312116
 20
115.3740032623
 10
151.9128415116
 20
115.3709899179
 10
151.9054667656
 20
115.3682101976
 10
151.8980160534
 20
115.3656671788
 10
151.8904981182
 20
115.3633635121
 10
151.8829203564
 20
115.3613001414
 10
151.875289828
 20
115.3594775836
 10
151.8676135926
 20
115.3578963558
 10
151.8598987101
 20
115.3565569752
 10
151.8521522403
 20
115.3554599589
 10
151.844381243
 20
115.3546058238
 10
151.836592778
 20
115.3539950872
 10
151.828793905
 20
115.353628266
 10
151.820991684
 20
115.3535058773
  0
LWPOLYLINE
  5
311
100
AcDbEntity
  8
0
100
AcDbPolyline
 62
253
  6
CONTINUOUS
 90
51
 70
0
 10
151.320991684
 20
120.4364218773
 10
151.321115123
 20
120.4442543535
 10
151.3214848808
 20
120.4520811193
 10
151.3221001186
 20
120.4598949388
 10
151.3229599977
 20
120.4676885763
 10
151.3240636794
 20
120.4754547957
 10
151.3254103249
 20
120.4831863613
 10
151.3269990954
 20
120.4908760371
 10
151.3288291522
 20
120.4985165873
 10
151.3308996566
 20
120.5061007759
 10
151.3332097697
 20
120.5136213672
 10
151.3357582694
 20
120.5210709269
 10
151.3385423993
 20
120.5284412279
 10
151.3415590197
 20
120.5357238448
 10
151.3448049908
 20
120.5429103522
 10
151.3482771728
 20
120.5499923247
 10
151.3519718827
 20
120.5569612444
 10
151.3558832641
 20
120.5638082242
 10
151.3600049175
 20
120.5705242843
 10
151.3643304433
 20
120.5771004453
 10
151.3688534419
 20
120.5835277273
 10
151.3735679428
 20
120.5897981675
 10
151.3784696915
 20
120.5959078692
 10
151.3835548626
 20
120.6018539524
 10
151.3888196308
 20
120.6076335371
 10
151.3942601708
 20
120.6132437431
 10
151.3998728927
 20
120.6186815806
 10
151.40565515
 20
120.6239436191
 10
151.4116045316
 20
120.6290263182
 10
151.4177186265
 20
120.6339261376
 10
151.4239950237
 20
120.638639537
 10
151.4304301266
 20
120.6431624193
 10
151.4370155964
 20
120.6474884614
 10
151.4437419086
 20
120.6516107835
 10
151.450599539
 20
120.6555225059
 10
151.4575789631
 20
120.6592167488
 10
151.4646707286
 20
120.6626872665
 10
151.471865672
 20
120.6659303501
 10
151.4791547018
 20
120.6689429248
 10
151.4865287263
 20
120.6717219156
 10
151.4939786541
 20
120.6742642479
 10
151.501495733
 20
120.6765672737
 10
151.5090725674
 20
120.6786300532
 10
151.516702101
 20
120.6804520735
 10
151.5243772775
 20
120.6820328218
 10
151.5320910406
 20
120.6833717851
 10
151.5398363339
 20
120.6844684507
 10
151.5476061012
 20
120.6853223055
 10
151.5553932862
 20
120.6859328368
 10
151.5631908326
 20
120.6862995317
 10
151.570991684
 20
120.6864218773
  0
LINE
  5
312
100
AcDbEntity
  8
0
100
AcDbLine
 62
7
  6
CONTINUOUS
 10
171.195991684
 20
106.293783274
 11
171.4584576746
 21
106.3199638773
  0
LINE
  5
313
100
AcDbEntity
  8
ASSI
100
AcDbLine
 62
7
  6
CONTINUOUS
 10
171.195991684
 20
106.293783274
 11
171.4584576746
 21
106.3199638773
  0
LINE
  5
314
100
AcDbEntity
  8
0
100
AcDbLine
 62
253
  6
CONTINUOUS
 10
173.8294862848
 20
105.7815036911
 11
173.82585037
 21
105.7814296146
  0
LINE
  5
315
100
AcDbEntity
  8
ASSI
100
AcDbLine
 62
253
  6
CONTINUOUS
 10
173.8294862848
 20
105.7815036911
 11
173.82585037
 21
105.7814296146
  0
LINE
  5
316
100
AcDbEntity
  8
0
100
AcDbLine
 62
253
  6
CONTINUOUS
 10
173.82585037
 20
105.7814296146
 11
173.8045743908
 21
105.7812842582
  0
LINE
  5
317
100
AcDbEntity
  8
ASSI
100
AcDbLine
 62
253
  6
CONTINUOUS
 10
173.82585037
 20
105.7814296146
 11
173.8045743908
 21
105.7812842582
  0
LINE
  5
318
100
AcDbEntity
  8
0
100
AcDbLine
 62
253
  6
CONTINUOUS
 10
173.8045743908
 20
105.7812842582
 11
162.945991684
 21
105.7766983676
  0
LINE
  5
319
100
AcDbEntity
  8
ASSI
100
AcDbLine
 62
253
  6
CONTINUOUS
 10
173.8045743908
 20
105.7812842582
 11
162.945991684
 21
105.7766983676
  0
LINE
  5
31A
100
AcDbEntity
  8
0
100
AcDbLine
 62
253
  6
CONTINUOUS
 10
173.3296576222
 20
106.2814846526
 11
166.077372667
 21
106.2780008014
  0
LINE
  5
31B
100
AcDbEntity
  8
ASSI
100
AcDbLine
 62
253
  6
CONTINUOUS
 10
173.3296576222
 20
106.2814846526
 11
166.077372667
 21
106.2780008014
  0
LINE
  5
31C
100
AcDbEntity
  8
0
100
AcDbLine
 62
253
  6
CONTINUOUS
 10
130.0623257458
 20
106.7584431021
 11
138.395495085
 21
106.7621472383
  0
LINE
  5
31D
100
AcDbEntity
  8
ASSI
100
AcDbLine
 62
253
  6
CONTINUOUS
 10
130.0623257458
 20
106.7584431021
 11
138.395495085
 21
106.7621472383
  0
LINE
  5
31E
100
AcDbEntity
  8
0
100
AcDbLine
 62
253
  6
CONTINUOUS
 10
162.945991684
 20
105.7766983676
 11
140.445991684
 21
105.7766983676
  0
LINE
  5
31F
100
AcDbEntity
  8
ASSI
100
AcDbLine
 62
253
  6
CONTINUOUS
 10
162.945991684
 20
105.7766983676
 11
140.445991684
 21
105.7766983676
  0
LINE
  5
320
100
AcDbEntity
  8
0
100
AcDbLine
 62
7
  6
CONTINUOUS
 10
171.195991684
 20
106.293783274
 11
132.195991684
 21
106.293783274
  0
LINE
  5
321
100
AcDbEntity
  8
ASSI
100
AcDbLine
 62
7
  6
CONTINUOUS
 10
171.195991684
 20
106.293783274
 11
132.195991684
 21
106.293783274
  0
LINE
  5
322
100
AcDbEntity
  8
0
100
AcDbLine
 62
7
  6
CONTINUOUS
 10
129.9468646221
 20
106.3199638773
 11
131.9335256934
 21
106.3199638773
  0
LINE
  5
323
100
AcDbEntity
  8
ASSI
100
AcDbLine
 62
7
  6
CONTINUOUS
 10
129.9468646221
 20
106.3199638773
 11
131.9335256934
 21
106.3199638773
  0
LINE
  5
324
100
AcDbEntity
  8
0
100
AcDbLine
 62
7
  6
CONTINUOUS
 10
171.4584576746
 20
106.3199638773
 11
173.4451187459
 21
106.3199638773
  0
LINE
  5
325
100
AcDbEntity
  8
ASSI
100
AcDbLine
 62
7
  6
CONTINUOUS
 10
171.4584576746
 20
106.3199638773
 11
173.4451187459
 21
106.3199638773
  0
LINE
  5
326
100
AcDbEntity
  8
0
100
AcDbLine
 62
7
  6
CONTINUOUS
 10
173.4451187459
 20
106.7199638773
 11
171.4584576746
 21
106.7199638773
  0
LINE
  5
327
100
AcDbEntity
  8
ASSI
100
AcDbLine
 62
7
  6
CONTINUOUS
 10
173.4451187459
 20
106.7199638773
 11
171.4584576746
 21
106.7199638773
  0
LINE
  5
328
100
AcDbEntity
  8
0
100
AcDbLine
 62
7
  6
CONTINUOUS
 10
131.9335256934
 20
106.7199638773
 11
129.9468646221
 21
106.7199638773
  0
LINE
  5
329
100
AcDbEntity
  8
ASSI
100
AcDbLine
 62
7
  6
CONTINUOUS
 10
131.9335256934
 20
106.7199638773
 11
129.9468646221
 21
106.7199638773
  0
LINE
  5
32A
100
AcDbEntity
  8
0
100
AcDbLine
 62
7
  6
CONTINUOUS
 10
132.195991684
 20
106.7461444807
 11
171.195991684
 21
106.7461444807
  0
LINE
  5
32B
100
AcDbEntity
  8
ASSI
100
AcDbLine
 62
7
  6
CONTINUOUS
 10
132.195991684
 20
106.7461444807
 11
171.195991684
 21
106.7461444807
  0
LINE
  5
32C
100
AcDbEntity
  8
0
100
AcDbLine
 62
253
  6
CONTINUOUS
 10
166.077372667
 20
106.2780008014
 11
137.3091485983
 21
106.2780020468
  0
LINE
  5
32D
100
AcDbEntity
  8
ASSI
100
AcDbLine
 62
253
  6
CONTINUOUS
 10
166.077372667
 20
106.2780008014
 11
137.3091485983
 21
106.2780020468
  0
LINE
  5
32E
100
AcDbEntity
  8
0
100
AcDbLine
 62
253
  6
CONTINUOUS
 10
138.395495085
 20
106.7621472383
 11
168.3551897279
 21
106.7612372233
  0
LINE
  5
32F
100
AcDbEntity
  8
ASSI
100
AcDbLine
 62
253
  6
CONTINUOUS
 10
138.395495085
 20
106.7621472383
 11
168.3551897279
 21
106.7612372233
  0
LINE
  5
330
100
AcDbEntity
  8
0
100
AcDbLine
 62
253
  6
CONTINUOUS
 10
140.445991684
 20
105.7766983676
 11
129.8782764508
 21
105.7808023195
  0
LINE
  5
331
100
AcDbEntity
  8
ASSI
100
AcDbLine
 62
253
  6
CONTINUOUS
 10
140.445991684
 20
105.7766983676
 11
129.8782764508
 21
105.7808023195
  0
LINE
  5
332
100
AcDbEntity
  8
0
100
AcDbLine
 62
253
  6
CONTINUOUS
 10
137.3091485983
 20
106.2780020468
 11
130.0623257449
 21
106.2814846529
  0
LINE
  5
333
100
AcDbEntity
  8
ASSI
100
AcDbLine
 62
253
  6
CONTINUOUS
 10
137.3091485983
 20
106.2780020468
 11
130.0623257449
 21
106.2814846529
  0
LINE
  5
334
100
AcDbEntity
  8
0
100
AcDbLine
 62
253
  6
CONTINUOUS
 10
168.3551897279
 20
106.7612372233
 11
173.3296576231
 21
106.7584431018
  0
LINE
  5
335
100
AcDbEntity
  8
ASSI
100
AcDbLine
 62
253
  6
CONTINUOUS
 10
168.3551897279
 20
106.7612372233
 11
173.3296576231
 21
106.7584431018
  0
LINE
  5
336
100
AcDbEntity
  8
0
100
AcDbLine
 62
253
  6
CONTINUOUS
 10
129.8782764508
 20
105.7808023195
 11
129.5874089755
 21
105.7812842556
  0
LINE
  5
337
100
AcDbEntity
  8
ASSI
100
AcDbLine
 62
253
  6
CONTINUOUS
 10
129.8782764508
 20
105.7808023195
 11
129.5874089755
 21
105.7812842556
  0
LWPOLYLINE
  5
338
100
AcDbEntity
  8
0
100
AcDbPolyline
 62
253
  6
CONTINUOUS
 90
3
 70
0
 10
129.5874089755
 20
105.7812842556
 10
129.5661329962
 20
105.7814296141
 10
129.5624970815
 20
105.7815036917
  0
LWPOLYLINE
  5
339
100
AcDbEntity
  8
ASSI
100
AcDbPolyline
 62
253
  6
CONTINUOUS
 90
3
 70
0
 10
129.5874089755
 20
105.7812842556
 10
129.5661329962
 20
105.7814296141
 10
129.5624970815
 20
105.7815036917
  0
LINE
  5
33A
100
AcDbEntity
  8
0
100
AcDbLine
 62
7
  6
CONTINUOUS
 10
132.195991684
 20
106.293783274
 11
131.9335256934
 21
106.3199638773
  0
LINE
  5
33B
100
AcDbEntity
  8
ASSI
100
AcDbLine
 62
7
  6
CONTINUOUS
 10
132.195991684
 20
106.293783274
 11
131.9335256934
 21
106.3199638773
  0
LINE
  5
33C
100
AcDbEntity
  8
0
100
AcDbLine
 62
253
  6
CONTINUOUS
 10
152.070991684
 20
92.6035058773
 11
152.070991684
 21
97.4364218773
  0
LINE
  5
33D
100
AcDbEntity
  8
0
100
AcDbLine
 62
253
  6
CONTINUOUS
 10
152.070991684
 20
115.6035058773
 11
152.070991684
 21
120.4364218773
  0
LWPOLYLINE
  5
33E
100
AcDbEntity
  8
0
100
AcDbPolyline
 62
253
  6
CONTINUOUS
 90
51
 70
0
 10
152.070991684
 20
92.6035058773
 10
152.070868245
 20
92.5956734012
 10
152.0704984872
 20
92.5878466354
 10
152.0698832494
 20
92.5800328158
 10
152.0690233702
 20
92.5722391784
 10
152.0679196886
 20
92.564472959
 10
152.0665730431
 20
92.5567413934
 10
152.0649842726
 20
92.5490517176
 10
152.0631542158
 20
92.5414111674
 10
152.0610837114
 20
92.5338269787
 10
152.0587735983
 20
92.5263063875
 10
152.0562250986
 20
92.5188568278
 10
152.0534409687
 20
92.5114865267
 10
152.0504243483
 20
92.5042039098
 10
152.0471783772
 20
92.4970174024
 10
152.0437061952
 20
92.48993543
 10
152.0400114853
 20
92.4829665103
 10
152.0361001039
 20
92.4761195305
 10
152.0319784504
 20
92.4694034704
 10
152.0276529246
 20
92.4628273094
 10
152.023129926
 20
92.4564000273
 10
152.0184154252
 20
92.4501295871
 10
152.0135136765
 20
92.4440198854
 10
152.0084285054
 20
92.4380738023
 10
152.0031637372
 20
92.4322942176
 10
151.9977231972
 20
92.4266840115
 10
151.9921104752
 20
92.4212461741
 10
151.9863282179
 20
92.4159841356
 10
151.9803788363
 20
92.4109014365
 10
151.9742647414
 20
92.4060016171
 10
151.9679883443
 20
92.4012882177
 10
151.9615532414
 20
92.3967653354
 10
151.9549677716
 20
92.3924392933
 10
151.9482414593
 20
92.3883169711
 10
151.941383829
 20
92.3844052488
 10
151.9344044049
 20
92.3807110059
 10
151.9273126393
 20
92.3772404882
 10
151.9201176959
 20
92.3739974046
 10
151.9128286662
 20
92.3709848299
 10
151.9054546417
 20
92.368205839
 10
151.8980047138
 20
92.3656635068
 10
151.890487635
 20
92.363360481
 10
151.8829108006
 20
92.3612977015
 10
151.875281267
 20
92.3594756811
 10
151.8676060905
 20
92.3578949329
 10
151.8598923274
 20
92.3565559695
 10
151.8521470341
 20
92.355459304
 10
151.8443772667
 20
92.3546054491
 10
151.8365900817
 20
92.3539949178
 10
151.8287925354
 20
92.3536282229
 10
151.820991684
 20
92.3535058773
  0
LINE
  5
33F
100
AcDbEntity
  8
0
100
AcDbLine
 62
7
  6
CONTINUOUS
 10
132.195991684
 20
106.7461444807
 11
131.9335256934
 21
106.7199638773
  0
LINE
  5
340
100
AcDbEntity
  8
ASSI
100
AcDbLine
 62
7
  6
CONTINUOUS
 10
132.195991684
 20
106.7461444807
 11
131.9335256934
 21
106.7199638773
  0
LINE
  5
341
100
AcDbEntity
  8
0
100
AcDbLine
 62
253
  6
CONTINUOUS
 10
129.5624970832
 20
107.2584240636
 11
129.566132998
 21
107.2584981401
  0
LINE
  5
342
100
AcDbEntity
  8
ASSI
100
AcDbLine
 62
253
  6
CONTINUOUS
 10
129.5624970832
 20
107.2584240636
 11
129.566132998
 21
107.2584981401
  0
LINE
  5
343
100
AcDbEntity
  8
0
100
AcDbLine
 62
253
  6
CONTINUOUS
 10
129.566132998
 20
107.2584981401
 11
129.5874089772
 21
107.2586434965
  0
LINE
  5
344
100
AcDbEntity
  8
ASSI
100
AcDbLine
 62
253
  6
CONTINUOUS
 10
129.566132998
 20
107.2584981401
 11
129.5874089772
 21
107.2586434965
  0
LINE
  5
345
100
AcDbEntity
  8
0
100
AcDbLine
 62
253
  6
CONTINUOUS
 10
129.5874089772
 20
107.2586434965
 11
140.445991684
 21
107.2632293871
  0
LINE
  5
346
100
AcDbEntity
  8
ASSI
100
AcDbLine
 62
253
  6
CONTINUOUS
 10
129.5874089772
 20
107.2586434965
 11
140.445991684
 21
107.2632293871
  0
LINE
  5
347
100
AcDbEntity
  8
0
100
AcDbLine
 62
253
  6
CONTINUOUS
 10
140.445991684
 20
107.2632293871
 11
162.945991684
 21
107.2632293871
  0
LINE
  5
348
100
AcDbEntity
  8
ASSI
100
AcDbLine
 62
253
  6
CONTINUOUS
 10
140.445991684
 20
107.2632293871
 11
162.945991684
 21
107.2632293871
  0
LINE
  5
349
100
AcDbEntity
  8
0
100
AcDbLine
 62
253
  6
CONTINUOUS
 10
162.945991684
 20
107.2632293871
 11
173.6763518352
 21
107.2589594648
  0
LINE
  5
34A
100
AcDbEntity
  8
ASSI
100
AcDbLine
 62
253
  6
CONTINUOUS
 10
162.945991684
 20
107.2632293871
 11
173.6763518352
 21
107.2589594648
  0
LWPOLYLINE
  5
34B
100
AcDbEntity
  8
0
100
AcDbPolyline
 62
253
  6
CONTINUOUS
 90
4
 70
0
 10
173.6763518352
 20
107.2589594648
 10
173.8175201372
 20
107.2585715173
 10
173.8258503717
 20
107.2584981405
 10
173.8294862865
 20
107.258424063
  0
LWPOLYLINE
  5
34C
100
AcDbEntity
  8
ASSI
100
AcDbPolyline
 62
253
  6
CONTINUOUS
 90
4
 70
0
 10
173.6763518352
 20
107.2589594648
 10
173.8175201372
 20
107.2585715173
 10
173.8258503717
 20
107.2584981405
 10
173.8294862865
 20
107.258424063
  0
LINE
  5
34D
100
AcDbEntity
  8
0
100
AcDbLine
 62
7
  6
CONTINUOUS
 10
171.195991684
 20
106.7461444807
 11
171.4584576746
 21
106.7199638773
  0
LINE
  5
34E
100
AcDbEntity
  8
ASSI
100
AcDbLine
 62
7
  6
CONTINUOUS
 10
171.195991684
 20
106.7461444807
 11
171.4584576746
 21
106.7199638773
  0
LWPOLYLINE
  5
34F
100
AcDbEntity
  8
SUPERFICI
100
AcDbPolyline
 62
7
  6
CONTINUOUS
 90
43
 70
0
 10
154.0146736624
 20
110.0407164554
 10
154.0825448702
 20
110.0478291865
 10
154.1495166956
 20
110.0596192751
 10
154.2159278048
 20
110.076182454
 10
154.2814395315
 20
110.0974229831
 10
154.3450358772
 20
110.1230536494
 10
154.4067048647
 20
110.1531763372
 10
154.4664584711
 20
110.187689146
 10
154.5233166284
 20
110.2259991843
 10
154.5771527283
 20
110.2680948158
 10
154.6280933791
 20
110.3139876545
 10
154.6755383379
 20
110.3631196844
 10
154.7195164094
 20
110.4156316419
 10
154.7599987889
 20
110.4713827639
 10
154.7962988188
 20
110.529392789
 10
154.8282850505
 20
110.5895484592
 10
154.8560889326
 20
110.6519630082
 10
154.879418154
 20
110.7159959172
 10
154.8982664381
 20
110.7818492722
 10
154.9126400615
 20
110.8493209642
 10
154.9222655423
 20
110.9171641907
 10
154.9270529785
 20
110.985206303
 10
154.9270922721
 20
111.0536199399
 10
154.9223796472
 20
111.121676241
 10
154.9128275579
 20
111.189543707
 10
154.89852355
 20
111.2570538344
 10
154.8797264851
 20
111.3229722687
 10
154.8564129104
 20
111.3871239144
 10
154.8286062786
 20
111.4496838813
 10
154.7966358097
 20
111.5099431341
 10
154.7603991505
 20
111.5679677989
 10
154.7199986542
 20
111.6236917719
 10
154.6760705995
 20
111.6762076818
 10
154.6286083587
 20
111.7254170139
 10
154.5776185595
 20
111.7714183142
 10
154.5237573644
 20
111.8135998096
 10
154.4669394163
 20
111.8519432459
 10
154.4072500722
 20
111.8864669091
 10
154.3456015661
 20
111.9166138399
 10
154.281937172
 20
111.9423041204
 10
154.2163136158
 20
111.9636176962
 10
154.1498133087
 20
111.9802374025
 10
154.0827970544
 20
111.9920575235
  0
LINE
  5
350
100
AcDbEntity
  8
SUPERFICI
100
AcDbLine
 62
7
  6
CONTINUOUS
 10
153.9459030723
 20
110.0382810835
 11
154.0146736624
 21
110.0407164554
  0
LINE
  5
351
100
AcDbEntity
  8
0
100
AcDbLine
 62
7
  6
CONTINUOUS
 10
153.9459844876
 20
110.0382896184
 11
149.4459988915
 21
110.0382810831
  0
LINE
  5
352
100
AcDbEntity
  8
ASSI
100
AcDbLine
 62
7
  6
CONTINUOUS
 10
153.9459844876
 20
110.0382896184
 11
149.4459988915
 21
110.0382810831
  0
LINE
  5
353
100
AcDbEntity
  8
SUPERFICI
100
AcDbLine
 62
7
  6
CONTINUOUS
 10
149.4460801453
 20
110.0382810835
 11
153.9459030723
 21
110.0382810835
  0
LINE
  5
354
100
AcDbEntity
  8
0
100
AcDbLine
 62
7
  6
CONTINUOUS
 10
149.4459795117
 20
112.0016298939
 11
153.9460038748
 21
112.0016162136
  0
LINE
  5
355
100
AcDbEntity
  8
ASSI
100
AcDbLine
 62
7
  6
CONTINUOUS
 10
149.4459795117
 20
112.0016298939
 11
153.9460038748
 21
112.0016162136
  0
LINE
  5
356
100
AcDbEntity
  8
SUPERFICI
100
AcDbLine
 62
7
  6
CONTINUOUS
 10
153.9461342929
 20
112.0016162126
 11
149.4458489574
 21
112.0016162126
  0
LWPOLYLINE
  5
357
100
AcDbEntity
  8
0
100
AcDbPolyline
 62
7
  6
CONTINUOUS
 90
40
 70
0
 10
149.4459988915
 20
110.0382810831
 10
149.3667065617
 20
110.0415896372
 10
149.2889012846
 20
110.0509762924
 10
149.2125830601
 20
110.0664410458
 10
149.1373203581
 20
110.0881305706
 10
149.0635447087
 20
110.1158981803
 10
148.9925507028
 20
110.1493038301
 10
148.9242965816
 20
110.1885030424
 10
148.8588241038
 20
110.2333402669
 10
148.7975531362
 20
110.282908847
 10
148.7406605308
 20
110.3372190736
 10
148.6879694356
 20
110.3962606186
 10
148.6403691608
 20
110.4590958998
 10
148.5978501429
 20
110.5259334464
 10
148.5604219454
 20
110.5965646865
 10
148.5290025692
 20
110.6694263951
 10
148.5037852758
 20
110.7444254285
 10
148.4845768038
 20
110.8216548963
 10
148.4717153691
 20
110.8998309671
 10
148.4653101163
 20
110.979145016
 10
148.465251901
 20
111.0594056448
 10
148.4715515058
 20
111.1387548823
 10
148.4843194925
 20
111.2170078553
 10
148.5034452994
 20
111.2943494407
 10
148.5286080241
 20
111.3694763153
 10
148.5600114721
 20
111.4424833516
 10
148.5974518379
 20
111.5132756993
 10
148.6399968023
 20
111.5802654708
 10
148.6876317845
 20
111.6432398925
 10
148.7403713653
 20
111.7024117827
 10
148.7973269683
 20
111.7568316565
 10
148.8586881511
 20
111.8064848515
 10
148.9242653561
 20
111.8513860795
 10
148.9926013334
 20
111.8906299241
 10
149.0636420891
 20
111.9240571275
 10
149.1374416171
 20
111.951826993
 10
149.2127046502
 20
111.9735119476
 10
149.2889994323
 20
111.9889694766
 10
149.3667577195
 20
111.9983421226
 10
149.4459795117
 20
112.0016298939
  0
LWPOLYLINE
  5
358
100
AcDbEntity
  8
ASSI
100
AcDbPolyline
 62
7
  6
CONTINUOUS
 90
40
 70
0
 10
149.4459988915
 20
110.0382810831
 10
149.3667065617
 20
110.0415896372
 10
149.2889012846
 20
110.0509762924
 10
149.2125830601
 20
110.0664410458
 10
149.1373203581
 20
110.0881305706
 10
149.0635447087
 20
110.1158981803
 10
148.9925507028
 20
110.1493038301
 10
148.9242965816
 20
110.1885030424
 10
148.8588241038
 20
110.2333402669
 10
148.7975531362
 20
110.282908847
 10
148.7406605308
 20
110.3372190736
 10
148.6879694356
 20
110.3962606186
 10
148.6403691608
 20
110.4590958998
 10
148.5978501429
 20
110.5259334464
 10
148.5604219454
 20
110.5965646865
 10
148.5290025692
 20
110.6694263951
 10
148.5037852758
 20
110.7444254285
 10
148.4845768038
 20
110.8216548963
 10
148.4717153691
 20
110.8998309671
 10
148.4653101163
 20
110.979145016
 10
148.465251901
 20
111.0594056448
 10
148.4715515058
 20
111.1387548823
 10
148.4843194925
 20
111.2170078553
 10
148.5034452994
 20
111.2943494407
 10
148.5286080241
 20
111.3694763153
 10
148.5600114721
 20
111.4424833516
 10
148.5974518379
 20
111.5132756993
 10
148.6399968023
 20
111.5802654708
 10
148.6876317845
 20
111.6432398925
 10
148.7403713653
 20
111.7024117827
 10
148.7973269683
 20
111.7568316565
 10
148.8586881511
 20
111.8064848515
 10
148.9242653561
 20
111.8513860795
 10
148.9926013334
 20
111.8906299241
 10
149.0636420891
 20
111.9240571275
 10
149.1374416171
 20
111.951826993
 10
149.2127046502
 20
111.9735119476
 10
149.2889994323
 20
111.9889694766
 10
149.3667577195
 20
111.9983421226
 10
149.4459795117
 20
112.0016298939
  0
LINE
  5
359
100
AcDbEntity
  8
0
100
AcDbLine
 62
253
  6
CONTINUOUS
 10
173.4451187459
 20
106.3199638773
 11
173.3296576222
 21
106.2814846526
  0
LINE
  5
35A
100
AcDbEntity
  8
ASSI
100
AcDbLine
 62
253
  6
CONTINUOUS
 10
173.4451187459
 20
106.3199638773
 11
173.3296576222
 21
106.2814846526
  0
LINE
  5
35B
100
AcDbEntity
  8
0
100
AcDbLine
 62
253
  6
CONTINUOUS
 10
173.945175886
 20
105.8200590595
 11
173.8294862848
 21
105.7815036911
  0
LINE
  5
35C
100
AcDbEntity
  8
ASSI
100
AcDbLine
 62
253
  6
CONTINUOUS
 10
173.945175886
 20
105.8200590595
 11
173.8294862848
 21
105.7815036911
  0
LWPOLYLINE
  5
35D
100
AcDbEntity
  8
SUPERFICI
100
AcDbPolyline
 62
7
  6
CONTINUOUS
 90
46
 70
0
 10
149.4458489574
 20
112.0016162126
 10
149.3771735957
 20
111.9991892993
 10
149.3093744091
 20
111.9920828963
 10
149.2424513975
 20
111.9802969984
 10
149.1760581432
 20
111.9637349945
 10
149.110541064
 20
111.9424934792
 10
149.0469394129
 20
111.9168622537
 10
148.9852730347
 20
111.8867403203
 10
148.9255220846
 20
111.8522286491
 10
148.8686662818
 20
111.8139199934
 10
148.8148321643
 20
111.7718260018
 10
148.763893194
 20
111.725934994
 10
148.7164494755
 20
111.6768047331
 10
148.6724721335
 20
111.6242944946
 10
148.6319900433
 20
111.5685449713
 10
148.595689935
 20
111.5105360598
 10
148.5637031649
 20
111.4503808545
 10
148.5358983767
 20
111.3879662394
 10
148.5125682319
 20
111.323932805
 10
148.4937190494
 20
111.2580782533
 10
148.4793445103
 20
111.1906048675
 10
148.4697183187
 20
111.1227601207
 10
148.4649305167
 20
111.0547168233
 10
148.4648910622
 20
110.9863021675
 10
148.4696035332
 20
110.9182452114
 10
148.4791554212
 20
110.8503776602
 10
148.4934592347
 20
110.7828678185
 10
148.5122560772
 20
110.7169496534
 10
148.5355693357
 20
110.6527982448
 10
148.5633756231
 20
110.5902385355
 10
148.5953458818
 20
110.5299792967
 10
148.6315824457
 20
110.4719543456
 10
148.6719829809
 20
110.4162298897
 10
148.7159114275
 20
110.3637132905
 10
148.7633744876
 20
110.3145030259
 10
148.814365459
 20
110.2685006444
 10
148.8682281757
 20
110.2263181163
 10
148.9250481
 20
110.1879737222
 10
148.9847397696
 20
110.1534492041
 10
149.0463906313
 20
110.1233017255
 10
149.1100495964
 20
110.0976121356
 10
149.1756677537
 20
110.0762996016
 10
149.2421858159
 20
110.0596787623
 10
149.3092506874
 20
110.0478544999
 10
149.3772154639
 20
110.0407219398
 10
149.4460801453
 20
110.0382810835
  0
LWPOLYLINE
  5
35E
100
AcDbEntity
  8
0
100
AcDbPolyline
 62
7
  6
CONTINUOUS
 90
40
 70
0
 10
153.9460038748
 20
112.0016162136
 10
154.0252941733
 20
111.9983162379
 10
154.1030976878
 20
111.988935841
 10
154.1794144183
 20
111.9734750146
 10
154.2546759221
 20
111.9517862776
 10
154.3284506419
 20
111.9240170832
 10
154.3994439056
 20
111.8906098202
 10
154.4676974637
 20
111.8514097583
 10
154.5331695658
 20
111.8065715826
 10
154.594440288
 20
111.7570018063
 10
154.6513328654
 20
111.702689996
 10
154.7040240629
 20
111.6436465362
 10
154.7516242508
 20
111.5808091747
 10
154.7941429428
 20
111.5139692297
 10
154.8315706252
 20
111.4433353386
 10
154.8629891279
 20
111.3704712425
 10
154.8882050782
 20
111.2954700982
 10
154.9074118488
 20
111.2182387265
 10
154.9202713865
 20
111.1400613849
 10
154.9266744582
 20
111.0607468402
 10
154.9267302972
 20
110.9804863215
 10
154.9204285492
 20
110.9011378015
 10
154.9076587435
 20
110.8228863314
 10
154.888531351
 20
110.7455468828
 10
154.8633674307
 20
110.6704223299
 10
154.8319632858
 20
110.597417864
 10
154.7945226131
 20
110.5266283276
 10
154.7519775622
 20
110.4596410866
 10
154.7043427726
 20
110.396668854
 10
154.6516036047
 20
110.3374989596
 10
154.5946482897
 20
110.2830807039
 10
154.5332872075
 20
110.2334286934
 10
154.4677099782
 20
110.1885283592
 10
154.3993736928
 20
110.1492852407
 10
154.3283324003
 20
110.1158586083
 10
154.2545320517
 20
110.0880892196
 10
154.1792675917
 20
110.0664048437
 10
154.1029706684
 20
110.0509480749
 10
154.0252096337
 20
110.0415763322
 10
153.9459844876
 20
110.0382896184
  0
LWPOLYLINE
  5
35F
100
AcDbEntity
  8
ASSI
100
AcDbPolyline
 62
7
  6
CONTINUOUS
 90
40
 70
0
 10
153.9460038748
 20
112.0016162136
 10
154.0252941733
 20
111.9983162379
 10
154.1030976878
 20
111.988935841
 10
154.1794144183
 20
111.9734750146
 10
154.2546759221
 20
111.9517862776
 10
154.3284506419
 20
111.9240170832
 10
154.3994439056
 20
111.8906098202
 10
154.4676974637
 20
111.8514097583
 10
154.5331695658
 20
111.8065715826
 10
154.594440288
 20
111.7570018063
 10
154.6513328654
 20
111.702689996
 10
154.7040240629
 20
111.6436465362
 10
154.7516242508
 20
111.5808091747
 10
154.7941429428
 20
111.5139692297
 10
154.8315706252
 20
111.4433353386
 10
154.8629891279
 20
111.3704712425
 10
154.8882050782
 20
111.2954700982
 10
154.9074118488
 20
111.2182387265
 10
154.9202713865
 20
111.1400613849
 10
154.9266744582
 20
111.0607468402
 10
154.9267302972
 20
110.9804863215
 10
154.9204285492
 20
110.9011378015
 10
154.9076587435
 20
110.8228863314
 10
154.888531351
 20
110.7455468828
 10
154.8633674307
 20
110.6704223299
 10
154.8319632858
 20
110.597417864
 10
154.7945226131
 20
110.5266283276
 10
154.7519775622
 20
110.4596410866
 10
154.7043427726
 20
110.396668854
 10
154.6516036047
 20
110.3374989596
 10
154.5946482897
 20
110.2830807039
 10
154.5332872075
 20
110.2334286934
 10
154.4677099782
 20
110.1885283592
 10
154.3993736928
 20
110.1492852407
 10
154.3283324003
 20
110.1158586083
 10
154.2545320517
 20
110.0880892196
 10
154.1792675917
 20
110.0664048437
 10
154.1029706684
 20
110.0509480749
 10
154.0252096337
 20
110.0415763322
 10
153.9459844876
 20
110.0382896184
  0
LWPOLYLINE
  5
360
100
AcDbEntity
  8
SUPERFICI
100
AcDbPolyline
 62
7
  6
CONTINUOUS
 90
3
 70
0
 10
154.0827970544
 20
111.9920575235
 10
154.0149040491
 20
111.9991837919
 10
153.9461342929
 20
112.0016162126
  0
LINE
  5
361
100
AcDbEntity
  8
0
100
AcDbLine
 62
253
  6
CONTINUOUS
 10
173.3296576231
 20
106.7584431018
 11
173.4451187459
 21
106.7199638773
  0
LINE
  5
362
100
AcDbEntity
  8
ASSI
100
AcDbLine
 62
253
  6
CONTINUOUS
 10
173.3296576231
 20
106.7584431018
 11
173.4451187459
 21
106.7199638773
  0
LINE
  5
363
100
AcDbEntity
  8
0
100
AcDbLine
 62
253
  6
CONTINUOUS
 10
173.8294862865
 20
107.258424063
 11
173.945175886
 21
107.2198686951
  0
LINE
  5
364
100
AcDbEntity
  8
ASSI
100
AcDbLine
 62
253
  6
CONTINUOUS
 10
173.8294862865
 20
107.258424063
 11
173.945175886
 21
107.2198686951
  0
LINE
  5
365
100
AcDbEntity
  8
0
100
AcDbLine
 62
253
  6
CONTINUOUS
 10
173.3588295206
 20
128.5443543214
 11
173.4249410729
 21
128.676668154
  0
LINE
  5
366
100
AcDbEntity
  8
ASSI
100
AcDbLine
 62
253
  6
CONTINUOUS
 10
173.3588295206
 20
128.5443543214
 11
173.4249410729
 21
128.676668154
  0
LINE
  5
367
100
AcDbEntity
  8
0
100
AcDbLine
 62
253
  6
CONTINUOUS
 10
173.8586581831
 20
128.045039554
 11
173.9255674945
 21
128.1789499997
  0
LINE
  5
368
100
AcDbEntity
  8
ASSI
100
AcDbLine
 62
253
  6
CONTINUOUS
 10
173.8586581831
 20
128.045039554
 11
173.9255674945
 21
128.1789499997
  0
LINE
  5
369
100
AcDbEntity
  8
0
100
AcDbLine
 62
253
  6
CONTINUOUS
 10
151.570991684
 20
115.3535059214
 11
151.820991684
 21
115.3535059214
  0
LWPOLYLINE
  5
36A
100
AcDbEntity
  8
0
100
AcDbPolyline
 62
253
  6
CONTINUOUS
 90
51
 70
0
 10
151.570991684
 20
115.3535058773
 10
151.5631627498
 20
115.3536286547
 10
151.5553394659
 20
115.3539966834
 10
151.5475290168
 20
115.3546095082
 10
151.5397385871
 20
115.355466674
 10
151.5319753612
 20
115.3565677257
 10
151.5242465239
 20
115.3579122082
 10
151.5165592595
 20
115.3594996663
 10
151.5089207527
 20
115.3613296449
 10
151.5013381879
 20
115.3634016888
 10
151.4938187498
 20
115.365715343
 10
151.4863698697
 20
115.368269452
 10
151.4789999662
 20
115.3710600593
 10
151.4717177047
 20
115.3740825081
 10
151.4645317507
 20
115.3773321419
 10
151.4574507697
 20
115.3808043037
 10
151.450483427
 20
115.3844943369
 10
151.4436383881
 20
115.3883975847
 10
151.4369243185
 20
115.3925093904
 10
151.4303498836
 20
115.3968250972
 10
151.4239237487
 20
115.4013400483
 10
151.4176536462
 20
115.406049583
 10
151.4115435751
 20
115.4109490234
 10
151.4055966013
 20
115.416033688
 10
151.3998157907
 20
115.4212988948
 10
151.3942042093
 20
115.4267399621
 10
151.3887649951
 20
115.4323526294
 10
151.3835015758
 20
115.438134321
 10
151.3784174511
 20
115.4440828825
 10
151.373516121
 20
115.4501961596
 10
151.3688010851
 20
115.4564719978
 10
151.3642764144
 20
115.4629070014
 10
151.3599484634
 20
115.4694928094
 10
151.3558241577
 20
115.4762198196
 10
151.3519104227
 20
115.4830784296
 10
151.3482141841
 20
115.4900590372
 10
151.3447417271
 20
115.4971521255
 10
151.341496776
 20
115.50434852
 10
151.3384824148
 20
115.5116391313
 10
151.3357017276
 20
115.5190148704
 10
151.3331577984
 20
115.5264666481
 10
151.3308532842
 20
115.5339857141
 10
151.328789134
 20
115.541564674
 10
151.32696587
 20
115.5491964724
 10
151.3253840141
 20
115.5568740538
 10
151.3240440884
 20
115.5645903626
 10
151.3229466149
 20
115.5723383434
 10
151.3220921157
 20
115.5801109408
 10
151.3214811128
 20
115.5879010992
 10
151.3211141282
 20
115.5957017632
 10
151.320991684
 20
115.6035058773
  0
LINE
  5
36B
100
AcDbEntity
  8
0
100
AcDbLine
 62
253
  6
CONTINUOUS
 10
173.4249410729
 20
84.3632596007
 11
173.3588295187
 21
84.4955734371
  0
LINE
  5
36C
100
AcDbEntity
  8
ASSI
100
AcDbLine
 62
253
  6
CONTINUOUS
 10
173.4249410729
 20
84.3632596007
 11
173.3588295187
 21
84.4955734371
  0
LINE
  5
36D
100
AcDbEntity
  8
0
100
AcDbLine
 62
253
  6
CONTINUOUS
 10
173.9255674945
 20
84.860977755
 11
173.8586581812
 21
84.9948882045
  0
LINE
  5
36E
100
AcDbEntity
  8
ASSI
100
AcDbLine
 62
253
  6
CONTINUOUS
 10
173.9255674945
 20
84.860977755
 11
173.8586581812
 21
84.9948882045
  0
LWPOLYLINE
  5
36F
100
AcDbEntity
  8
0
100
AcDbPolyline
 62
253
  6
CONTINUOUS
 90
3
 70
0
 10
162.9448579977
 20
106.2658739297
 10
162.94471082
 20
106.2744387841
 10
162.9445620263
 20
106.2776079219
  0
LWPOLYLINE
  5
370
100
AcDbEntity
  8
ASSI
100
AcDbPolyline
 62
253
  6
CONTINUOUS
 90
3
 70
0
 10
162.9448579977
 20
106.2658739297
 10
162.94471082
 20
106.2744387841
 10
162.9445620263
 20
106.2776079219
  0
LINE
  5
371
100
AcDbEntity
  8
0
100
AcDbLine
 62
253
  6
CONTINUOUS
 10
162.9451411461
 20
106.2329867424
 11
162.9448579977
 21
106.2658739297
  0
LINE
  5
372
100
AcDbEntity
  8
ASSI
100
AcDbLine
 62
253
  6
CONTINUOUS
 10
162.9451411461
 20
106.2329867424
 11
162.9448579977
 21
106.2658739297
  0
LINE
  5
373
100
AcDbEntity
  8
0
100
AcDbLine
 62
253
  6
CONTINUOUS
 10
162.9458651758
 20
105.9793089138
 11
162.9451411461
 21
106.2329867424
  0
LINE
  5
374
100
AcDbEntity
  8
ASSI
100
AcDbLine
 62
253
  6
CONTINUOUS
 10
162.9458651758
 20
105.9793089138
 11
162.9451411461
 21
106.2329867424
  0
LINE
  5
375
100
AcDbEntity
  8
0
100
AcDbLine
 62
253
  6
CONTINUOUS
 10
162.9458651758
 20
105.9793089138
 11
162.9459863056
 21
85.5524983851
  0
LINE
  5
376
100
AcDbEntity
  8
ASSI
100
AcDbLine
 62
253
  6
CONTINUOUS
 10
162.9458651758
 20
105.9793089138
 11
162.9459863056
 21
85.5524983851
  0
LINE
  5
377
100
AcDbEntity
  8
0
100
AcDbLine
 62
253
  6
CONTINUOUS
 10
162.9455379795
 20
128.5258778761
 11
162.9453991965
 21
106.8595566524
  0
LINE
  5
378
100
AcDbEntity
  8
ASSI
100
AcDbLine
 62
253
  6
CONTINUOUS
 10
162.9455379795
 20
128.5258778761
 11
162.9453991965
 21
106.8595566524
  0
LINE
  5
379
100
AcDbEntity
  8
0
100
AcDbLine
 62
253
  6
CONTINUOUS
 10
162.9459863056
 20
85.5524983851
 11
162.9455379795
 21
84.5140498786
  0
LINE
  5
37A
100
AcDbEntity
  8
ASSI
100
AcDbLine
 62
253
  6
CONTINUOUS
 10
162.9459863056
 20
85.5524983851
 11
162.9455379795
 21
84.5140498786
  0
LWPOLYLINE
  5
37B
100
AcDbEntity
  8
0
100
AcDbPolyline
 62
253
  6
CONTINUOUS
 90
5
 70
0
 10
162.9453991965
 20
106.8595566524
 10
162.9450019567
 20
106.7879214377
 10
162.9448579948
 20
106.77405387
 10
162.9447108185
 20
106.765488995
 10
162.9445620263
 20
106.7623198328
  0
LWPOLYLINE
  5
37C
100
AcDbEntity
  8
ASSI
100
AcDbPolyline
 62
253
  6
CONTINUOUS
 90
5
 70
0
 10
162.9453991965
 20
106.8595566524
 10
162.9450019567
 20
106.7879214377
 10
162.9448579948
 20
106.77405387
 10
162.9447108185
 20
106.765488995
 10
162.9445620263
 20
106.7623198328
  0
LINE
  5
37D
100
AcDbEntity
  8
0
100
AcDbLine
 62
253
  6
CONTINUOUS
 10
151.820991684
 20
120.6864219275
 11
151.570991684
 21
120.6864219275
  0
LWPOLYLINE
  5
37E
100
AcDbEntity
  8
0
100
AcDbPolyline
 62
253
  6
CONTINUOUS
 90
51
 70
0
 10
151.820991684
 20
120.6864218773
 10
151.8288192185
 20
120.686299141
 10
151.8366411538
 20
120.685931234
 10
151.8444503055
 20
120.6853186093
 10
151.8522394897
 20
120.68446172
 10
151.8600015221
 20
120.683361019
 10
151.8677292185
 20
120.6820169594
 10
151.8754153948
 20
120.6804299942
 10
151.8830528667
 20
120.6786005763
 10
151.8906344502
 20
120.6765291588
 10
151.898152961
 20
120.6742161946
 10
151.9056009695
 20
120.6716628355
 10
151.9129700638
 20
120.6688730274
 10
151.9202515867
 20
120.6658514153
 10
151.9274368807
 20
120.6626026438
 10
151.9345172885
 20
120.6591313577
 10
151.9414841528
 20
120.6554422018
 10
151.9483288164
 20
120.6515398207
 10
151.9550426217
 20
120.6474288593
 10
151.9616169115
 20
120.6431139623
 10
151.9680430286
 20
120.6385997744
 10
151.9743132445
 20
120.6338909465
 10
151.9804235478
 20
120.6289921536
 10
151.9863708558
 20
120.6239080768
 10
151.9921520861
 20
120.6186433971
 10
151.9977641561
 20
120.6132027958
 10
152.0032039137
 20
120.6075905307
 10
152.008467929
 20
120.6018091679
 10
152.0135527026
 20
120.5958608502
 10
152.018454735
 20
120.5897477205
 10
152.0231705268
 20
120.5834719216
 10
152.0276960049
 20
120.5770368408
 10
152.0320248016
 20
120.5704508423
 10
152.0361499758
 20
120.5637235351
 10
152.0400645863
 20
120.5568645276
 10
152.0437616917
 20
120.5498834287
 10
152.047234993
 20
120.5427897624
 10
152.0504807587
 20
120.535592714
 10
152.0534958995
 20
120.5283013839
 10
152.0562773263
 20
120.5209248727
 10
152.0588219497
 20
120.5134722811
 10
152.0611271077
 20
120.5059523673
 10
152.0631918477
 20
120.4983725211
 10
152.0650156444
 20
120.4907397899
 10
152.0665979725
 20
120.4830612211
 10
152.0679383067
 20
120.4753438622
 10
152.0690361217
 20
120.4675947606
 10
152.0698908923
 20
120.4598209639
 10
152.070502093
 20
120.4520295195
 10
152.0708691987
 20
120.4442274748
 10
152.070991684
 20
120.4364218773
  0
LWPOLYLINE
  5
37F
100
AcDbEntity
  8
0
100
AcDbPolyline
 62
253
  6
CONTINUOUS
 90
10
 70
0
 10
173.8586581812
 20
84.9948882045
 10
173.8573644101
 20
84.9992407575
 10
173.8560924436
 20
85.0069346293
 10
173.8548422816
 20
85.0179698199
 10
173.8536073745
 20
85.0324352432
 10
173.852394272
 20
85.0502419854
 10
173.8512226231
 20
85.0711233047
 10
173.8500936146
 20
85.0951239487
 10
173.8490060598
 20
85.12219917
 10
173.8479760477
 20
85.1519479844
  0
LWPOLYLINE
  5
380
100
AcDbEntity
  8
ASSI
100
AcDbPolyline
 62
253
  6
CONTINUOUS
 90
10
 70
0
 10
173.8586581812
 20
84.9948882045
 10
173.8573644101
 20
84.9992407575
 10
173.8560924436
 20
85.0069346293
 10
173.8548422816
 20
85.0179698199
 10
173.8536073745
 20
85.0324352432
 10
173.852394272
 20
85.0502419854
 10
173.8512226231
 20
85.0711233047
 10
173.8500936146
 20
85.0951239487
 10
173.8490060598
 20
85.12219917
 10
173.8479760477
 20
85.1519479844
  0
LINE
  5
381
100
AcDbEntity
  8
0
100
AcDbLine
 62
7
  6
CONTINUOUS
 10
170.7545484329
 20
128.676668154
 11
170.4037267109
 21
128.6448230361
  0
LINE
  5
382
100
AcDbEntity
  8
ASSI
100
AcDbLine
 62
7
  6
CONTINUOUS
 10
170.7545484329
 20
128.676668154
 11
170.4037267109
 21
128.6448230361
  0
LINE
  5
383
100
AcDbEntity
  8
0
100
AcDbLine
 62
253
  6
CONTINUOUS
 10
173.3748657339
 20
127.397215229
 11
167.8821160284
 21
127.3912776614
  0
LINE
  5
384
100
AcDbEntity
  8
ASSI
100
AcDbLine
 62
253
  6
CONTINUOUS
 10
173.3748657339
 20
127.397215229
 11
167.8821160284
 21
127.3912776614
  0
LINE
  5
385
100
AcDbEntity
  8
0
100
AcDbLine
 62
253
  6
CONTINUOUS
 10
167.8821160284
 20
127.3912776614
 11
138.6432081322
 21
127.3900229213
  0
LINE
  5
386
100
AcDbEntity
  8
ASSI
100
AcDbLine
 62
253
  6
CONTINUOUS
 10
167.8821160284
 20
127.3912776614
 11
138.6432081322
 21
127.3900229213
  0
LINE
  5
387
100
AcDbEntity
  8
0
100
AcDbLine
 62
253
  6
CONTINUOUS
 10
138.6432081322
 20
127.3900229213
 11
134.3659816961
 21
127.3921931129
  0
LINE
  5
388
100
AcDbEntity
  8
ASSI
100
AcDbLine
 62
253
  6
CONTINUOUS
 10
138.6432081322
 20
127.3900229213
 11
134.3659816961
 21
127.3921931129
  0
LINE
  5
389
100
AcDbEntity
  8
0
100
AcDbLine
 62
253
  6
CONTINUOUS
 10
134.3659816961
 20
127.3921931129
 11
130.017117603
 21
127.3972152258
  0
LINE
  5
38A
100
AcDbEntity
  8
ASSI
100
AcDbLine
 62
253
  6
CONTINUOUS
 10
134.3659816961
 20
127.3921931129
 11
130.017117603
 21
127.3972152258
  0
LINE
  5
38B
100
AcDbEntity
  8
0
100
AcDbLine
 62
7
  6
CONTINUOUS
 10
132.6374349351
 20
128.676668154
 11
132.9882566571
 21
128.6448230361
  0
LINE
  5
38C
100
AcDbEntity
  8
ASSI
100
AcDbLine
 62
7
  6
CONTINUOUS
 10
132.6374349351
 20
128.676668154
 11
132.9882566571
 21
128.6448230361
  0
LWPOLYLINE
  5
38D
100
AcDbEntity
  8
0
100
AcDbPolyline
 62
253
  6
CONTINUOUS
 90
8
 70
0
 10
173.3581484256
 20
106.151195328
 10
173.3545249149
 20
106.1842938107
 10
173.3506106796
 20
106.2129361473
 10
173.3469788172
 20
106.236858417
 10
173.3427250484
 20
106.2558976927
 10
173.3378514273
 20
106.2697965589
 10
173.3333331336
 20
106.2783425935
 10
173.3296576222
 20
106.2814846526
  0
LWPOLYLINE
  5
38E
100
AcDbEntity
  8
ASSI
100
AcDbPolyline
 62
253
  6
CONTINUOUS
 90
8
 70
0
 10
173.3581484256
 20
106.151195328
 10
173.3545249149
 20
106.1842938107
 10
173.3506106796
 20
106.2129361473
 10
173.3469788172
 20
106.236858417
 10
173.3427250484
 20
106.2558976927
 10
173.3378514273
 20
106.2697965589
 10
173.3333331336
 20
106.2783425935
 10
173.3296576222
 20
106.2814846526
  0
LWPOLYLINE
  5
38F
100
AcDbEntity
  8
0
100
AcDbPolyline
 62
253
  6
CONTINUOUS
 90
19
 70
0
 10
173.8294862848
 20
105.7815036911
 10
173.8276195662
 20
105.8245609879
 10
173.8220320591
 20
105.8674180747
 10
173.8127343544
 20
105.9097506613
 10
173.7997574317
 20
105.9512563532
 10
173.7831733871
 20
105.9915882251
 10
173.7631147085
 20
106.0303653052
 10
173.7397237486
 20
106.0672845303
 10
173.7131674858
 20
106.1020583963
 10
173.683685777
 20
106.1343656256
 10
173.6515328929
 20
106.1639404435
 10
173.6169358985
 20
106.1905857673
 10
173.580132395
 20
106.2141185207
 10
173.541384045
 20
106.2343632082
 10
173.5010004507
 20
106.2511502896
 10
173.459310876
 20
106.2643412836
 10
173.416642208
 20
106.2738353482
 10
173.373313973
 20
106.2795639147
 10
173.3296576223
 20
106.2814846526
  0
LWPOLYLINE
  5
390
100
AcDbEntity
  8
ASSI
100
AcDbPolyline
 62
253
  6
CONTINUOUS
 90
19
 70
0
 10
173.8294862848
 20
105.7815036911
 10
173.8276195662
 20
105.8245609879
 10
173.8220320591
 20
105.8674180747
 10
173.8127343544
 20
105.9097506613
 10
173.7997574317
 20
105.9512563532
 10
173.7831733871
 20
105.9915882251
 10
173.7631147085
 20
106.0303653052
 10
173.7397237486
 20
106.0672845303
 10
173.7131674858
 20
106.1020583963
 10
173.683685777
 20
106.1343656256
 10
173.6515328929
 20
106.1639404435
 10
173.6169358985
 20
106.1905857673
 10
173.580132395
 20
106.2141185207
 10
173.541384045
 20
106.2343632082
 10
173.5010004507
 20
106.2511502896
 10
173.459310876
 20
106.2643412836
 10
173.416642208
 20
106.2738353482
 10
173.373313973
 20
106.2795639147
 10
173.3296576223
 20
106.2814846526
  0
LWPOLYLINE
  5
391
100
AcDbEntity
  8
0
100
AcDbPolyline
 62
253
  6
CONTINUOUS
 90
4
 70
0
 10
173.3684075248
 20
105.9829375581
 10
173.3666159339
 20
106.0296484857
 10
173.3639126175
 20
106.0736186888
 10
173.3581484256
 20
106.151195328
  0
LWPOLYLINE
  5
392
100
AcDbEntity
  8
ASSI
100
AcDbPolyline
 62
253
  6
CONTINUOUS
 90
4
 70
0
 10
173.3684075248
 20
105.9829375581
 10
173.3666159339
 20
106.0296484857
 10
173.3639126175
 20
106.0736186888
 10
173.3581484256
 20
106.151195328
  0
LWPOLYLINE
  5
393
100
AcDbEntity
  8
0
100
AcDbPolyline
 62
253
  6
CONTINUOUS
 90
6
 70
0
 10
173.364178818
 20
128.4493573461
 10
173.3631483168
 20
128.4797753146
 10
173.3620772116
 20
128.5045953603
 10
173.3609714305
 20
128.5236924341
 10
173.3598795807
 20
128.5369682975
 10
173.3588295206
 20
128.5443543214
  0
LWPOLYLINE
  5
394
100
AcDbEntity
  8
ASSI
100
AcDbPolyline
 62
253
  6
CONTINUOUS
 90
6
 70
0
 10
173.364178818
 20
128.4493573461
 10
173.3631483168
 20
128.4797753146
 10
173.3620772116
 20
128.5045953603
 10
173.3609714305
 20
128.5236924341
 10
173.3598795807
 20
128.5369682975
 10
173.3588295206
 20
128.5443543214
  0
LINE
  5
395
100
AcDbEntity
  8
0
100
AcDbLine
 62
253
  6
CONTINUOUS
 10
173.8479760477
 20
85.1519479844
 11
173.8460903631
 21
85.219549692
  0
LINE
  5
396
100
AcDbEntity
  8
ASSI
100
AcDbLine
 62
253
  6
CONTINUOUS
 10
173.8479760477
 20
85.1519479844
 11
173.8460903631
 21
85.219549692
  0
LINE
  5
397
100
AcDbEntity
  8
0
100
AcDbLine
 62
253
  6
CONTINUOUS
 10
173.3662050516
 20
128.3723513103
 11
173.364178818
 21
128.4493573461
  0
LINE
  5
398
100
AcDbEntity
  8
ASSI
100
AcDbLine
 62
253
  6
CONTINUOUS
 10
173.3662050516
 20
128.3723513103
 11
173.364178818
 21
128.4493573461
  0
LINE
  5
399
100
AcDbEntity
  8
0
100
AcDbLine
 62
253
  6
CONTINUOUS
 10
173.8460903631
 20
85.219549692
 11
173.8444765485
 21
85.2962976545
  0
LINE
  5
39A
100
AcDbEntity
  8
ASSI
100
AcDbLine
 62
253
  6
CONTINUOUS
 10
173.8460903631
 20
85.219549692
 11
173.8444765485
 21
85.2962976545
  0
LINE
  5
39B
100
AcDbEntity
  8
0
100
AcDbLine
 62
253
  6
CONTINUOUS
 10
173.3680758677
 20
128.275104638
 11
173.3662050516
 21
128.3723513103
  0
LINE
  5
39C
100
AcDbEntity
  8
ASSI
100
AcDbLine
 62
253
  6
CONTINUOUS
 10
173.3680758677
 20
128.275104638
 11
173.3662050516
 21
128.3723513103
  0
LINE
  5
39D
100
AcDbEntity
  8
0
100
AcDbLine
 62
253
  6
CONTINUOUS
 10
173.8444765485
 20
85.2962976545
 11
173.8431582457
 21
85.3810509666
  0
LINE
  5
39E
100
AcDbEntity
  8
ASSI
100
AcDbLine
 62
253
  6
CONTINUOUS
 10
173.8444765485
 20
85.2962976545
 11
173.8431582457
 21
85.3810509666
  0
LINE
  5
39F
100
AcDbEntity
  8
0
100
AcDbLine
 62
253
  6
CONTINUOUS
 10
173.3705713165
 20
128.0956303583
 11
173.3680758677
 21
128.275104638
  0
LINE
  5
3A0
100
AcDbEntity
  8
ASSI
100
AcDbLine
 62
253
  6
CONTINUOUS
 10
173.3705713165
 20
128.0956303583
 11
173.3680758677
 21
128.275104638
  0
LINE
  5
3A1
100
AcDbEntity
  8
0
100
AcDbLine
 62
253
  6
CONTINUOUS
 10
173.8431582457
 20
85.3810509666
 11
173.8417997939
 21
85.5190611213
  0
LINE
  5
3A2
100
AcDbEntity
  8
ASSI
100
AcDbLine
 62
253
  6
CONTINUOUS
 10
173.8431582457
 20
85.3810509666
 11
173.8417997939
 21
85.5190611213
  0
LINE
  5
3A3
100
AcDbEntity
  8
0
100
AcDbLine
 62
253
  6
CONTINUOUS
 10
173.3731406519
 20
127.8064386478
 11
173.3705713165
 21
128.0956303583
  0
LINE
  5
3A4
100
AcDbEntity
  8
ASSI
100
AcDbLine
 62
253
  6
CONTINUOUS
 10
173.3731406519
 20
127.8064386478
 11
173.3705713165
 21
128.0956303583
  0
LWPOLYLINE
  5
3A5
100
AcDbEntity
  8
0
100
AcDbPolyline
 62
253
  6
CONTINUOUS
 90
3
 70
0
 10
173.3721313624
 20
107.2591818432
 10
173.3723577564
 20
107.2061934353
 10
173.3715082947
 20
107.1549437697
  0
LWPOLYLINE
  5
3A6
100
AcDbEntity
  8
ASSI
100
AcDbPolyline
 62
253
  6
CONTINUOUS
 90
3
 70
0
 10
173.3721313624
 20
107.2591818432
 10
173.3723577564
 20
107.2061934353
 10
173.3715082947
 20
107.1549437697
  0
LINE
  5
3A7
100
AcDbEntity
  8
0
100
AcDbLine
 62
253
  6
CONTINUOUS
 10
173.374865697
 20
127.3972152248
 11
173.3731406519
 21
127.8064386478
  0
LINE
  5
3A8
100
AcDbEntity
  8
ASSI
100
AcDbLine
 62
253
  6
CONTINUOUS
 10
173.374865697
 20
127.3972152248
 11
173.3731406519
 21
127.8064386478
  0
LINE
  5
3A9
100
AcDbEntity
  8
0
100
AcDbLine
 62
7
  6
CONTINUOUS
 10
173.9255674945
 20
128.1789499997
 11
173.945175886
 21
119.6199638773
  0
LINE
  5
3AA
100
AcDbEntity
  8
ASSI
100
AcDbLine
 62
7
  6
CONTINUOUS
 10
173.9255674945
 20
128.1789499997
 11
173.945175886
 21
119.6199638773
  0
LINE
  5
3AB
100
AcDbEntity
  8
0
100
AcDbLine
 62
253
  6
CONTINUOUS
 10
173.8417997939
 20
85.5190611213
 11
173.8412317381
 21
85.664147406
  0
LINE
  5
3AC
100
AcDbEntity
  8
ASSI
100
AcDbLine
 62
253
  6
CONTINUOUS
 10
173.8417997939
 20
85.5190611213
 11
173.8412317381
 21
85.664147406
  0
LINE
  5
3AD
100
AcDbEntity
  8
0
100
AcDbLine
 62
253
  6
CONTINUOUS
 10
173.8412317381
 20
85.664147406
 11
173.8332525827
 21
94.6624167753
  0
LINE
  5
3AE
100
AcDbEntity
  8
ASSI
100
AcDbLine
 62
253
  6
CONTINUOUS
 10
173.8412317381
 20
85.664147406
 11
173.8332525827
 21
94.6624167753
  0
LWPOLYLINE
  5
3AF
100
AcDbEntity
  8
0
100
AcDbPolyline
 62
253
  6
CONTINUOUS
 90
3
 70
0
 10
173.8332525827
 20
94.6624167753
 10
173.829744695
 20
103.473553747
 10
173.8294862848
 20
105.7815036911
  0
LWPOLYLINE
  5
3B0
100
AcDbEntity
  8
ASSI
100
AcDbPolyline
 62
253
  6
CONTINUOUS
 90
3
 70
0
 10
173.8332525827
 20
94.6624167753
 10
173.829744695
 20
103.473553747
 10
173.8294862848
 20
105.7815036911
  0
LINE
  5
3B1
100
AcDbEntity
  8
0
100
AcDbLine
 62
7
  6
CONTINUOUS
 10
173.945175886
 20
119.6199638773
 11
173.945175886
 21
107.2198686951
  0
LINE
  5
3B2
100
AcDbEntity
  8
ASSI
100
AcDbLine
 62
7
  6
CONTINUOUS
 10
173.945175886
 20
119.6199638773
 11
173.945175886
 21
107.2198686951
  0
LINE
  5
3B3
100
AcDbEntity
  8
0
100
AcDbLine
 62
7
  6
CONTINUOUS
 10
173.945175886
 20
93.4199638773
 11
173.945175886
 21
105.8200590595
  0
LINE
  5
3B4
100
AcDbEntity
  8
ASSI
100
AcDbLine
 62
7
  6
CONTINUOUS
 10
173.945175886
 20
93.4199638773
 11
173.945175886
 21
105.8200590595
  0
LINE
  5
3B5
100
AcDbEntity
  8
0
100
AcDbLine
 62
253
  6
CONTINUOUS
 10
173.3721312894
 20
107.2591818353
 11
173.3748657339
 21
127.397215229
  0
LINE
  5
3B6
100
AcDbEntity
  8
ASSI
100
AcDbLine
 62
253
  6
CONTINUOUS
 10
173.3721312894
 20
107.2591818353
 11
173.3748657339
 21
127.397215229
  0
LINE
  5
3B7
100
AcDbEntity
  8
0
100
AcDbLine
 62
253
  6
CONTINUOUS
 10
173.8294862865
 20
107.258424063
 11
173.8329228002
 21
117.8523887959
  0
LINE
  5
3B8
100
AcDbEntity
  8
ASSI
100
AcDbLine
 62
253
  6
CONTINUOUS
 10
173.8294862865
 20
107.258424063
 11
173.8329228002
 21
117.8523887959
  0
LINE
  5
3B9
100
AcDbEntity
  8
0
100
AcDbLine
 62
7
  6
CONTINUOUS
 10
173.9255674945
 20
84.860977755
 11
173.945175886
 21
93.4199638773
  0
LINE
  5
3BA
100
AcDbEntity
  8
ASSI
100
AcDbLine
 62
7
  6
CONTINUOUS
 10
173.9255674945
 20
84.860977755
 11
173.945175886
 21
93.4199638773
  0
LINE
  5
3BB
100
AcDbEntity
  8
0
100
AcDbLine
 62
253
  6
CONTINUOUS
 10
173.3743929795
 20
85.475368445
 11
173.3721312872
 21
105.7807459228
  0
LINE
  5
3BC
100
AcDbEntity
  8
ASSI
100
AcDbLine
 62
253
  6
CONTINUOUS
 10
173.3743929795
 20
85.475368445
 11
173.3721312872
 21
105.7807459228
  0
LINE
  5
3BD
100
AcDbEntity
  8
0
100
AcDbLine
 62
253
  6
CONTINUOUS
 10
173.8329228002
 20
117.8523887959
 11
173.8415226222
 21
127.4732907813
  0
LINE
  5
3BE
100
AcDbEntity
  8
ASSI
100
AcDbLine
 62
253
  6
CONTINUOUS
 10
173.8329228002
 20
117.8523887959
 11
173.8415226222
 21
127.4732907813
  0
LWPOLYLINE
  5
3BF
100
AcDbEntity
  8
0
100
AcDbPolyline
 62
253
  6
CONTINUOUS
 90
4
 70
0
 10
173.3721313606
 20
105.7807459184
 10
173.3723576258
 20
105.8337323308
 10
173.3715082449
 20
105.8849803238
 10
173.3684075248
 20
105.9829375581
  0
LWPOLYLINE
  5
3C0
100
AcDbEntity
  8
ASSI
100
AcDbPolyline
 62
253
  6
CONTINUOUS
 90
4
 70
0
 10
173.3721313606
 20
105.7807459184
 10
173.3723576258
 20
105.8337323308
 10
173.3715082449
 20
105.8849803238
 10
173.3684075248
 20
105.9829375581
  0
LINE
  5
3C1
100
AcDbEntity
  8
0
100
AcDbLine
 62
253
  6
CONTINUOUS
 10
173.3719713497
 20
85.0828963556
 11
173.3743929795
 21
85.475368445
  0
LINE
  5
3C2
100
AcDbEntity
  8
ASSI
100
AcDbLine
 62
253
  6
CONTINUOUS
 10
173.3719713497
 20
85.0828963556
 11
173.3743929795
 21
85.475368445
  0
LINE
  5
3C3
100
AcDbEntity
  8
0
100
AcDbLine
 62
253
  6
CONTINUOUS
 10
173.8415226222
 20
127.4732907813
 11
173.842622034
 21
127.61415728
  0
LINE
  5
3C4
100
AcDbEntity
  8
ASSI
100
AcDbLine
 62
253
  6
CONTINUOUS
 10
173.8415226222
 20
127.4732907813
 11
173.842622034
 21
127.61415728
  0
LINE
  5
3C5
100
AcDbEntity
  8
0
100
AcDbLine
 62
253
  6
CONTINUOUS
 10
173.3697846829
 20
84.8803665396
 11
173.3719713497
 21
85.0828963556
  0
LINE
  5
3C6
100
AcDbEntity
  8
ASSI
100
AcDbLine
 62
253
  6
CONTINUOUS
 10
173.3697846829
 20
84.8803665396
 11
173.3719713497
 21
85.0828963556
  0
LINE
  5
3C7
100
AcDbEntity
  8
0
100
AcDbLine
 62
253
  6
CONTINUOUS
 10
173.842622034
 20
127.61415728
 11
173.8437768072
 21
127.7020197942
  0
LINE
  5
3C8
100
AcDbEntity
  8
ASSI
100
AcDbLine
 62
253
  6
CONTINUOUS
 10
173.842622034
 20
127.61415728
 11
173.8437768072
 21
127.7020197942
  0
LINE
  5
3C9
100
AcDbEntity
  8
0
100
AcDbLine
 62
253
  6
CONTINUOUS
 10
173.3680759319
 20
84.764823123
 11
173.3697846829
 21
84.8803665396
  0
LINE
  5
3CA
100
AcDbEntity
  8
ASSI
100
AcDbLine
 62
253
  6
CONTINUOUS
 10
173.3680759319
 20
84.764823123
 11
173.3697846829
 21
84.8803665396
  0
LINE
  5
3CB
100
AcDbEntity
  8
0
100
AcDbLine
 62
253
  6
CONTINUOUS
 10
173.8437768072
 20
127.7020197942
 11
173.8452473588
 21
127.7830927578
  0
LINE
  5
3CC
100
AcDbEntity
  8
ASSI
100
AcDbLine
 62
253
  6
CONTINUOUS
 10
173.8437768072
 20
127.7020197942
 11
173.8452473588
 21
127.7830927578
  0
LINE
  5
3CD
100
AcDbEntity
  8
0
100
AcDbLine
 62
253
  6
CONTINUOUS
 10
173.3662051033
 20
84.6675764492
 11
173.3680759319
 21
84.764823123
  0
LINE
  5
3CE
100
AcDbEntity
  8
ASSI
100
AcDbLine
 62
253
  6
CONTINUOUS
 10
173.3662051033
 20
84.6675764492
 11
173.3680759319
 21
84.764823123
  0
LWPOLYLINE
  5
3CF
100
AcDbEntity
  8
0
100
AcDbPolyline
 62
253
  6
CONTINUOUS
 90
12
 70
0
 10
173.8452473588
 20
127.7830927578
 10
173.8470044363
 20
127.8555157188
 10
173.8479760499
 20
127.8879797758
 10
173.849006062
 20
127.91772859
 10
173.8500936168
 20
127.944803811
 10
173.8512226252
 20
127.9688044548
 10
173.8523942741
 20
127.989685774
 10
173.8536073766
 20
128.007492516
 10
173.8548422837
 20
128.0219579392
 10
173.8560924456
 20
128.0329931296
 10
173.8573644121
 20
128.0406870012
 10
173.8586581831
 20
128.045039554
  0
LWPOLYLINE
  5
3D0
100
AcDbEntity
  8
ASSI
100
AcDbPolyline
 62
253
  6
CONTINUOUS
 90
12
 70
0
 10
173.8452473588
 20
127.7830927578
 10
173.8470044363
 20
127.8555157188
 10
173.8479760499
 20
127.8879797758
 10
173.849006062
 20
127.91772859
 10
173.8500936168
 20
127.944803811
 10
173.8512226252
 20
127.9688044548
 10
173.8523942741
 20
127.989685774
 10
173.8536073766
 20
128.007492516
 10
173.8548422837
 20
128.0219579392
 10
173.8560924456
 20
128.0329931296
 10
173.8573644121
 20
128.0406870012
 10
173.8586581831
 20
128.045039554
  0
LWPOLYLINE
  5
3D1
100
AcDbEntity
  8
0
100
AcDbPolyline
 62
253
  6
CONTINUOUS
 90
4
 70
0
 10
173.3715082947
 20
107.1549437697
 10
173.3684072775
 20
107.0569841993
 10
173.3666156481
 20
107.0102726128
 10
173.3639121945
 20
106.9663021928
  0
LWPOLYLINE
  5
3D2
100
AcDbEntity
  8
ASSI
100
AcDbPolyline
 62
253
  6
CONTINUOUS
 90
4
 70
0
 10
173.3715082947
 20
107.1549437697
 10
173.3684072775
 20
107.0569841993
 10
173.3666156481
 20
107.0102726128
 10
173.3639121945
 20
106.9663021928
  0
LWPOLYLINE
  5
3D3
100
AcDbEntity
  8
0
100
AcDbPolyline
 62
253
  6
CONTINUOUS
 90
19
 70
0
 10
173.8294862865
 20
107.258424063
 10
173.8276195649
 20
107.215366731
 10
173.8220320495
 20
107.1725096141
 10
173.8127343323
 20
107.1301770028
 10
173.7997573933
 20
107.0886712896
 10
173.7831733302
 20
107.0483394025
 10
173.7631146367
 20
107.0095623207
 10
173.7397236732
 20
106.9726431131
 10
173.7131674173
 20
106.9378692738
 10
173.6836857161
 20
106.9055620657
 10
173.6515328332
 20
106.8759872588
 10
173.6169358374
 20
106.8493419427
 10
173.580132335
 20
106.8258091977
 10
173.5413839909
 20
106.8055645197
 10
173.5010004053
 20
106.7887774472
 10
173.4593108408
 20
106.7755864606
 10
173.4166421841
 20
106.7660924013
 10
173.3733139614
 20
106.7603638382
 10
173.329657624
 20
106.7584431015
  0
LWPOLYLINE
  5
3D4
100
AcDbEntity
  8
ASSI
100
AcDbPolyline
 62
253
  6
CONTINUOUS
 90
19
 70
0
 10
173.8294862865
 20
107.258424063
 10
173.8276195649
 20
107.215366731
 10
173.8220320495
 20
107.1725096141
 10
173.8127343323
 20
107.1301770028
 10
173.7997573933
 20
107.0886712896
 10
173.7831733302
 20
107.0483394025
 10
173.7631146367
 20
107.0095623207
 10
173.7397236732
 20
106.9726431131
 10
173.7131674173
 20
106.9378692738
 10
173.6836857161
 20
106.9055620657
 10
173.6515328332
 20
106.8759872588
 10
173.6169358374
 20
106.8493419427
 10
173.580132335
 20
106.8258091977
 10
173.5413839909
 20
106.8055645197
 10
173.5010004053
 20
106.7887774472
 10
173.4593108408
 20
106.7755864606
 10
173.4166421841
 20
106.7660924013
 10
173.3733139614
 20
106.7603638382
 10
173.329657624
 20
106.7584431015
  0
LWPOLYLINE
  5
3D5
100
AcDbEntity
  8
0
100
AcDbPolyline
 62
253
  6
CONTINUOUS
 90
9
 70
0
 10
173.3639121945
 20
106.9663021928
 10
173.358147855
 20
106.8887264918
 10
173.3545243356
 20
106.8556289371
 10
173.3506100784
 20
106.8269877167
 10
173.3469782786
 20
106.8030666264
 10
173.3427246302
 20
106.7840284176
 10
173.3378511552
 20
106.7701304038
 10
173.3333330147
 20
106.7615849427
 10
173.3296576236
 20
106.7584431015
  0
LWPOLYLINE
  5
3D6
100
AcDbEntity
  8
ASSI
100
AcDbPolyline
 62
253
  6
CONTINUOUS
 90
9
 70
0
 10
173.3639121945
 20
106.9663021928
 10
173.358147855
 20
106.8887264918
 10
173.3545243356
 20
106.8556289371
 10
173.3506100784
 20
106.8269877167
 10
173.3469782786
 20
106.8030666264
 10
173.3427246302
 20
106.7840284176
 10
173.3378511552
 20
106.7701304038
 10
173.3333330147
 20
106.7615849427
 10
173.3296576236
 20
106.7584431015
  0
LINE
  5
3D7
100
AcDbEntity
  8
0
100
AcDbLine
 62
7
  6
CONTINUOUS
 10
159.5545484329
 20
128.676668154
 11
159.2037267109
 21
128.6448230361
  0
LINE
  5
3D8
100
AcDbEntity
  8
ASSI
100
AcDbLine
 62
7
  6
CONTINUOUS
 10
159.5545484329
 20
128.676668154
 11
159.2037267109
 21
128.6448230361
  0
LINE
  5
3D9
100
AcDbEntity
  8
0
100
AcDbLine
 62
7
  6
CONTINUOUS
 10
148.2545484329
 20
128.676668154
 11
147.9037267109
 21
128.6448230361
  0
LINE
  5
3DA
100
AcDbEntity
  8
ASSI
100
AcDbLine
 62
7
  6
CONTINUOUS
 10
148.2545484329
 20
128.676668154
 11
147.9037267109
 21
128.6448230361
  0
LINE
  5
3DB
100
AcDbEntity
  8
0
100
AcDbLine
 62
7
  6
CONTINUOUS
 10
137.0545484329
 20
128.676668154
 11
136.7037267109
 21
128.6448230361
  0
LINE
  5
3DC
100
AcDbEntity
  8
ASSI
100
AcDbLine
 62
7
  6
CONTINUOUS
 10
137.0545484329
 20
128.676668154
 11
136.7037267109
 21
128.6448230361
  0
LWPOLYLINE
  5
3DD
100
AcDbEntity
  8
0
100
AcDbPolyline
 62
253
  6
CONTINUOUS
 90
16
 70
0
 10
130.0331538493
 20
128.5443543175
 10
129.9809522229
 20
128.5415522723
 10
129.9293216113
 20
128.5333196829
 10
129.8788267145
 20
128.5197466126
 10
129.8300197927
 20
128.5009815282
 10
129.7834346712
 20
128.4772296921
 10
129.7395808945
 20
128.4487509319
 10
129.6989380901
 20
128.4158567633
 10
129.6619507455
 20
128.3789069789
 10
129.6290233819
 20
128.3383057438
 10
129.6005161023
 20
128.2944971524
 10
129.5767406501
 20
128.2479603555
 10
129.5579570158
 20
128.1992043305
 10
129.5443705992
 20
128.1487623275
 10
129.5361299596
 20
128.0971860384
 10
129.5333251868
 20
128.0450395502
  0
LWPOLYLINE
  5
3DE
100
AcDbEntity
  8
ASSI
100
AcDbPolyline
 62
253
  6
CONTINUOUS
 90
16
 70
0
 10
130.0331538493
 20
128.5443543175
 10
129.9809522229
 20
128.5415522723
 10
129.9293216113
 20
128.5333196829
 10
129.8788267145
 20
128.5197466126
 10
129.8300197927
 20
128.5009815282
 10
129.7834346712
 20
128.4772296921
 10
129.7395808945
 20
128.4487509319
 10
129.6989380901
 20
128.4158567633
 10
129.6619507455
 20
128.3789069789
 10
129.6290233819
 20
128.3383057438
 10
129.6005161023
 20
128.2944971524
 10
129.5767406501
 20
128.2479603555
 10
129.5579570158
 20
128.1992043305
 10
129.5443705992
 20
128.1487623275
 10
129.5361299596
 20
128.0971860384
 10
129.5333251868
 20
128.0450395502
  0
LWPOLYLINE
  5
3DF
100
AcDbEntity
  8
0
100
AcDbPolyline
 62
253
  6
CONTINUOUS
 90
14
 70
0
 10
129.9201095573
 20
127.3964086551
 10
129.8732699877
 20
127.3957028759
 10
129.8281497207
 20
127.3948039164
 10
129.7851862681
 20
127.3937204936
 10
129.7447962283
 20
127.3924631128
 10
129.7073712462
 20
127.3910439663
 10
129.673274216
 20
127.3894768151
 10
129.6428357621
 20
127.387776855
 10
129.6163510332
 20
127.3859605698
 10
129.5940768403
 20
127.3840455714
 10
129.5762291669
 20
127.3820504286
 10
129.5629810743
 20
127.3799944874
 10
129.5544610235
 20
127.3778976835
 10
129.5507516298
 20
127.3757803487
  0
LWPOLYLINE
  5
3E0
100
AcDbEntity
  8
ASSI
100
AcDbPolyline
 62
253
  6
CONTINUOUS
 90
14
 70
0
 10
129.9201095573
 20
127.3964086551
 10
129.8732699877
 20
127.3957028759
 10
129.8281497207
 20
127.3948039164
 10
129.7851862681
 20
127.3937204936
 10
129.7447962283
 20
127.3924631128
 10
129.7073712462
 20
127.3910439663
 10
129.673274216
 20
127.3894768151
 10
129.6428357621
 20
127.387776855
 10
129.6163510332
 20
127.3859605698
 10
129.5940768403
 20
127.3840455714
 10
129.5762291669
 20
127.3820504286
 10
129.5629810743
 20
127.3799944874
 10
129.5544610235
 20
127.3778976835
 10
129.5507516298
 20
127.3757803487
  0
LINE
  5
3E1
100
AcDbEntity
  8
0
100
AcDbLine
 62
253
  6
CONTINUOUS
 10
130.0171176031
 20
127.3972152377
 11
129.9201095573
 21
127.3964086551
  0
LINE
  5
3E2
100
AcDbEntity
  8
ASSI
100
AcDbLine
 62
253
  6
CONTINUOUS
 10
130.0171176031
 20
127.3972152377
 11
129.9201095573
 21
127.3964086551
  0
LINE
  5
3E3
100
AcDbEntity
  8
0
100
AcDbLine
 62
253
  6
CONTINUOUS
 10
173.3588295206
 20
128.5443543214
 11
170.1099119752
 21
128.5346383805
  0
LINE
  5
3E4
100
AcDbEntity
  8
ASSI
100
AcDbLine
 62
253
  6
CONTINUOUS
 10
173.3588295206
 20
128.5443543214
 11
170.1099119752
 21
128.5346383805
  0
LINE
  5
3E5
100
AcDbEntity
  8
0
100
AcDbLine
 62
253
  6
CONTINUOUS
 10
170.1099119752
 20
128.5346383805
 11
166.7071040023
 21
128.5283203354
  0
LINE
  5
3E6
100
AcDbEntity
  8
ASSI
100
AcDbLine
 62
253
  6
CONTINUOUS
 10
170.1099119752
 20
128.5346383805
 11
166.7071040023
 21
128.5283203354
  0
LINE
  5
3E7
100
AcDbEntity
  8
0
100
AcDbLine
 62
253
  6
CONTINUOUS
 10
166.7071040023
 20
128.5283203354
 11
162.9455379795
 21
128.5258778761
  0
LINE
  5
3E8
100
AcDbEntity
  8
ASSI
100
AcDbLine
 62
253
  6
CONTINUOUS
 10
166.7071040023
 20
128.5283203354
 11
162.9455379795
 21
128.5258778761
  0
LINE
  5
3E9
100
AcDbEntity
  8
0
100
AcDbLine
 62
7
  6
CONTINUOUS
 10
147.7305216302
 20
128.6395822582
 11
144.3614617378
 21
128.6395822582
  0
LINE
  5
3EA
100
AcDbEntity
  8
ASSI
100
AcDbLine
 62
7
  6
CONTINUOUS
 10
147.7305216302
 20
128.6395822582
 11
144.3614617378
 21
128.6395822582
  0
LINE
  5
3EB
100
AcDbEntity
  8
0
100
AcDbLine
 62
7
  6
CONTINUOUS
 10
136.5305216302
 20
128.6395822582
 11
133.1614617378
 21
128.6395822582
  0
LINE
  5
3EC
100
AcDbEntity
  8
ASSI
100
AcDbLine
 62
7
  6
CONTINUOUS
 10
136.5305216302
 20
128.6395822582
 11
133.1614617378
 21
128.6395822582
  0
LINE
  5
3ED
100
AcDbEntity
  8
0
100
AcDbLine
 62
7
  6
CONTINUOUS
 10
155.6614617378
 20
128.6395822582
 11
159.0305216302
 21
128.6395822582
  0
LINE
  5
3EE
100
AcDbEntity
  8
ASSI
100
AcDbLine
 62
7
  6
CONTINUOUS
 10
155.6614617378
 20
128.6395822582
 11
159.0305216302
 21
128.6395822582
  0
LINE
  5
3EF
100
AcDbEntity
  8
0
100
AcDbLine
 62
7
  6
CONTINUOUS
 10
166.8614617378
 20
128.6395822582
 11
170.2305216302
 21
128.6395822582
  0
LINE
  5
3F0
100
AcDbEntity
  8
ASSI
100
AcDbLine
 62
7
  6
CONTINUOUS
 10
166.8614617378
 20
128.6395822582
 11
170.2305216302
 21
128.6395822582
  0
LINE
  5
3F1
100
AcDbEntity
  8
0
100
AcDbLine
 62
7
  6
CONTINUOUS
 10
173.4249410729
 20
128.676668154
 11
170.7545484329
 21
128.676668154
  0
LINE
  5
3F2
100
AcDbEntity
  8
ASSI
100
AcDbLine
 62
7
  6
CONTINUOUS
 10
173.4249410729
 20
128.676668154
 11
170.7545484329
 21
128.676668154
  0
LINE
  5
3F3
100
AcDbEntity
  8
0
100
AcDbLine
 62
7
  6
CONTINUOUS
 10
166.3374349351
 20
128.676668154
 11
159.5545484329
 21
128.676668154
  0
LINE
  5
3F4
100
AcDbEntity
  8
ASSI
100
AcDbLine
 62
7
  6
CONTINUOUS
 10
166.3374349351
 20
128.676668154
 11
159.5545484329
 21
128.676668154
  0
LINE
  5
3F5
100
AcDbEntity
  8
0
100
AcDbLine
 62
7
  6
CONTINUOUS
 10
155.1374349351
 20
128.676668154
 11
148.2545484329
 21
128.676668154
  0
LINE
  5
3F6
100
AcDbEntity
  8
ASSI
100
AcDbLine
 62
7
  6
CONTINUOUS
 10
155.1374349351
 20
128.676668154
 11
148.2545484329
 21
128.676668154
  0
LINE
  5
3F7
100
AcDbEntity
  8
0
100
AcDbLine
 62
7
  6
CONTINUOUS
 10
143.8374349351
 20
128.676668154
 11
137.0545484329
 21
128.676668154
  0
LINE
  5
3F8
100
AcDbEntity
  8
ASSI
100
AcDbLine
 62
7
  6
CONTINUOUS
 10
143.8374349351
 20
128.676668154
 11
137.0545484329
 21
128.676668154
  0
LINE
  5
3F9
100
AcDbEntity
  8
0
100
AcDbLine
 62
7
  6
CONTINUOUS
 10
132.6374349351
 20
128.676668154
 11
129.9670422951
 21
128.676668154
  0
LINE
  5
3FA
100
AcDbEntity
  8
ASSI
100
AcDbLine
 62
7
  6
CONTINUOUS
 10
132.6374349351
 20
128.676668154
 11
129.9670422951
 21
128.676668154
  0
LINE
  5
3FB
100
AcDbEntity
  8
0
100
AcDbLine
 62
253
  6
CONTINUOUS
 10
162.9455379795
 20
128.5258778761
 11
137.7686697211
 21
128.5271297599
  0
LINE
  5
3FC
100
AcDbEntity
  8
ASSI
100
AcDbLine
 62
253
  6
CONTINUOUS
 10
162.9455379795
 20
128.5258778761
 11
137.7686697211
 21
128.5271297599
  0
LINE
  5
3FD
100
AcDbEntity
  8
0
100
AcDbLine
 62
253
  6
CONTINUOUS
 10
137.7686697211
 20
128.5271297599
 11
134.3791894838
 21
128.5321652505
  0
LINE
  5
3FE
100
AcDbEntity
  8
ASSI
100
AcDbLine
 62
253
  6
CONTINUOUS
 10
137.7686697211
 20
128.5271297599
 11
134.3791894838
 21
128.5321652505
  0
LWPOLYLINE
  5
3FF
100
AcDbEntity
  8
0
100
AcDbPolyline
 62
253
  6
CONTINUOUS
 90
3
 70
0
 10
134.3791894838
 20
128.5321652505
 10
130.9299714642
 20
128.5413309107
 10
130.0331538493
 20
128.5443543175
  0
LWPOLYLINE
  5
400
100
AcDbEntity
  8
ASSI
100
AcDbPolyline
 62
253
  6
CONTINUOUS
 90
3
 70
0
 10
134.3791894838
 20
128.5321652505
 10
130.9299714642
 20
128.5413309107
 10
130.0331538493
 20
128.5443543175
  0
LWPOLYLINE
  5
401
100
AcDbEntity
  8
0
100
AcDbPolyline
 62
253
  6
CONTINUOUS
 90
15
 70
0
 10
173.3748648411
 20
127.3972146946
 10
173.4718719851
 20
127.3964081382
 10
173.5187111643
 20
127.395702381
 10
173.5638310986
 20
127.3948034491
 10
173.6067942878
 20
127.3937200587
 10
173.6471841444
 20
127.3924627147
 10
173.684609033
 20
127.3910436085
 10
173.7187060675
 20
127.3894765006
 10
173.7491446299
 20
127.387776586
 10
173.7756295764
 20
127.385960348
 10
173.7979040988
 20
127.3840453973
 10
173.8157522148
 20
127.3820503021
 10
173.8290008622
 20
127.3799944076
 10
173.837521577
 20
127.3778976485
 10
173.8412317392
 20
127.3757803558
  0
LWPOLYLINE
  5
402
100
AcDbEntity
  8
ASSI
100
AcDbPolyline
 62
253
  6
CONTINUOUS
 90
15
 70
0
 10
173.3748648411
 20
127.3972146946
 10
173.4718719851
 20
127.3964081382
 10
173.5187111643
 20
127.395702381
 10
173.5638310986
 20
127.3948034491
 10
173.6067942878
 20
127.3937200587
 10
173.6471841444
 20
127.3924627147
 10
173.684609033
 20
127.3910436085
 10
173.7187060675
 20
127.3894765006
 10
173.7491446299
 20
127.387776586
 10
173.7756295764
 20
127.385960348
 10
173.7979040988
 20
127.3840453973
 10
173.8157522148
 20
127.3820503021
 10
173.8290008622
 20
127.3799944076
 10
173.837521577
 20
127.3778976485
 10
173.8412317392
 20
127.3757803558
  0
LWPOLYLINE
  5
403
100
AcDbEntity
  8
0
100
AcDbPolyline
 62
253
  6
CONTINUOUS
 90
16
 70
0
 10
173.3588295206
 20
128.5443543214
 10
173.4110304906
 20
128.5415523462
 10
173.4626605322
 20
128.5333199491
 10
173.5131549611
 20
128.5197471689
 10
173.5619615135
 20
128.5009824527
 10
173.6085463862
 20
128.4772310326
 10
173.6524000746
 20
128.4487526808
 10
173.6930429455
 20
128.4158588686
 10
173.7300304829
 20
128.3789093597
 10
173.7629581493
 20
128.3383082754
 10
173.791465811
 20
128.2944996748
 10
173.815241676
 20
128.247962698
 10
173.8340257048
 20
128.1992063257
 10
173.8476124541
 20
128.1487638123
 10
173.855853324
 20
128.0971868539
 10
173.8586581831
 20
128.045039554
  0
LWPOLYLINE
  5
404
100
AcDbEntity
  8
ASSI
100
AcDbPolyline
 62
253
  6
CONTINUOUS
 90
16
 70
0
 10
173.3588295206
 20
128.5443543214
 10
173.4110304906
 20
128.5415523462
 10
173.4626605322
 20
128.5333199491
 10
173.5131549611
 20
128.5197471689
 10
173.5619615135
 20
128.5009824527
 10
173.6085463862
 20
128.4772310326
 10
173.6524000746
 20
128.4487526808
 10
173.6930429455
 20
128.4158588686
 10
173.7300304829
 20
128.3789093597
 10
173.7629581493
 20
128.3383082754
 10
173.791465811
 20
128.2944996748
 10
173.815241676
 20
128.247962698
 10
173.8340257048
 20
128.1992063257
 10
173.8476124541
 20
128.1487638123
 10
173.855853324
 20
128.0971868539
 10
173.8586581831
 20
128.045039554
  0
LINE
  5
405
100
AcDbEntity
  8
0
100
AcDbLine
 62
7
  6
CONTINUOUS
 10
143.8374349351
 20
128.676668154
 11
144.1882566571
 21
128.6448230361
  0
LINE
  5
406
100
AcDbEntity
  8
ASSI
100
AcDbLine
 62
7
  6
CONTINUOUS
 10
143.8374349351
 20
128.676668154
 11
144.1882566571
 21
128.6448230361
  0
LINE
  5
407
100
AcDbEntity
  8
0
100
AcDbLine
 62
7
  6
CONTINUOUS
 10
155.1374349351
 20
128.676668154
 11
155.4882566571
 21
128.6448230361
  0
LINE
  5
408
100
AcDbEntity
  8
ASSI
100
AcDbLine
 62
7
  6
CONTINUOUS
 10
155.1374349351
 20
128.676668154
 11
155.4882566571
 21
128.6448230361
  0
LINE
  5
409
100
AcDbEntity
  8
0
100
AcDbLine
 62
7
  6
CONTINUOUS
 10
166.3374349351
 20
128.676668154
 11
166.6882566571
 21
128.6448230361
  0
LINE
  5
40A
100
AcDbEntity
  8
ASSI
100
AcDbLine
 62
7
  6
CONTINUOUS
 10
166.3374349351
 20
128.676668154
 11
166.6882566571
 21
128.6448230361
  0
LWPOLYLINE
  5
40B
100
AcDbEntity
  8
0
100
AcDbPolyline
 62
253
  6
CONTINUOUS
 90
7
 70
0
 10
173.3588295187
 20
84.4955734371
 10
173.3598795873
 20
84.5029594607
 10
173.3609714453
 20
84.5162353236
 10
173.3620772343
 20
84.535332397
 10
173.3631483472
 20
84.5601524427
 10
173.3641788558
 20
84.5905704119
 10
173.3662051033
 20
84.6675764492
  0
LWPOLYLINE
  5
40C
100
AcDbEntity
  8
ASSI
100
AcDbPolyline
 62
253
  6
CONTINUOUS
 90
7
 70
0
 10
173.3588295187
 20
84.4955734371
 10
173.3598795873
 20
84.5029594607
 10
173.3609714453
 20
84.5162353236
 10
173.3620772343
 20
84.535332397
 10
173.3631483472
 20
84.5601524427
 10
173.3641788558
 20
84.5905704119
 10
173.3662051033
 20
84.6675764492
  0
LINE
  5
40D
100
AcDbEntity
  8
0
100
AcDbLine
 62
7
  6
CONTINUOUS
 10
119.4217095984
 20
84.3632596007
 11
116.5444596951
 21
84.5140498786
  0
LINE
  5
40E
100
AcDbEntity
  8
ASSI
100
AcDbLine
 62
7
  6
CONTINUOUS
 10
119.4217095984
 20
84.3632596007
 11
116.5444596951
 21
84.5140498786
  0
LWPOLYLINE
  5
40F
100
AcDbEntity
  8
0
100
AcDbPolyline
 62
253
  6
CONTINUOUS
 90
5
 70
0
 10
116.8970111998
 20
84.4955734371
 10
116.8128023919
 20
84.5029594607
 10
116.7293387023
 20
84.5162353236
 10
116.6470309479
 20
84.535332397
 10
116.5662852628
 20
84.5601524427
  0
LWPOLYLINE
  5
410
100
AcDbEntity
  8
ASSI
100
AcDbPolyline
 62
253
  6
CONTINUOUS
 90
5
 70
0
 10
116.8970111998
 20
84.4955734371
 10
116.8128023919
 20
84.5029594607
 10
116.7293387023
 20
84.5162353236
 10
116.6470309479
 20
84.535332397
 10
116.5662852628
 20
84.5601524427
  0
LWPOLYLINE
  5
411
100
AcDbEntity
  8
0
100
AcDbPolyline
 62
253
  6
CONTINUOUS
 90
5
 70
0
 10
116.5662853348
 20
128.4797753146
 10
116.6470310181
 20
128.5045953603
 10
116.7293387723
 20
128.5236924341
 10
116.812802463
 20
128.5369682975
 10
116.8970112732
 20
128.5443543214
  0
LWPOLYLINE
  5
412
100
AcDbEntity
  8
ASSI
100
AcDbPolyline
 62
253
  6
CONTINUOUS
 90
5
 70
0
 10
116.5662853348
 20
128.4797753146
 10
116.6470310181
 20
128.5045953603
 10
116.7293387723
 20
128.5236924341
 10
116.812802463
 20
128.5369682975
 10
116.8970112732
 20
128.5443543214
  0
LINE
  5
413
100
AcDbEntity
  8
0
100
AcDbLine
 62
253
  6
CONTINUOUS
 10
115.7592718778
 20
85.642712517
 11
115.7649740389
 21
85.6430133443
  0
LINE
  5
414
100
AcDbEntity
  8
ASSI
100
AcDbLine
 62
253
  6
CONTINUOUS
 10
115.7592718778
 20
85.642712517
 11
115.7649740389
 21
85.6430133443
  0
LINE
  5
415
100
AcDbEntity
  8
0
100
AcDbLine
 62
253
  6
CONTINUOUS
 10
115.7649740389
 20
85.6430133443
 11
115.9685526906
 21
85.6521508997
  0
LINE
  5
416
100
AcDbEntity
  8
ASSI
100
AcDbLine
 62
253
  6
CONTINUOUS
 10
115.7649740389
 20
85.6430133443
 11
115.9685526906
 21
85.6521508997
  0
LINE
  5
417
100
AcDbEntity
  8
0
100
AcDbLine
 62
253
  6
CONTINUOUS
 10
115.9685526906
 20
85.6521508997
 11
116.2446016938
 21
85.664147406
  0
LINE
  5
418
100
AcDbEntity
  8
ASSI
100
AcDbLine
 62
253
  6
CONTINUOUS
 10
115.9685526906
 20
85.6521508997
 11
116.2446016938
 21
85.664147406
  0
LWPOLYLINE
  5
419
100
AcDbEntity
  8
0
100
AcDbPolyline
 62
253
  6
CONTINUOUS
 90
4
 70
0
 10
115.40889718
 20
85.6497991474
 10
115.4118361233
 20
85.6499232914
 10
115.4198254857
 20
85.6499048334
 10
115.4326354098
 20
85.6497439806
  0
LWPOLYLINE
  5
41A
100
AcDbEntity
  8
ASSI
100
AcDbPolyline
 62
253
  6
CONTINUOUS
 90
4
 70
0
 10
115.40889718
 20
85.6497991474
 10
115.4118361233
 20
85.6499232914
 10
115.4198254857
 20
85.6499048334
 10
115.4326354098
 20
85.6497439806
  0
LINE
  5
41B
100
AcDbEntity
  8
0
100
AcDbLine
 62
253
  6
CONTINUOUS
 10
115.4326354098
 20
85.6497439806
 11
115.7592718757
 21
85.6427125289
  0
LINE
  5
41C
100
AcDbEntity
  8
ASSI
100
AcDbLine
 62
253
  6
CONTINUOUS
 10
115.4326354098
 20
85.6497439806
 11
115.7592718757
 21
85.6427125289
  0
LINE
  5
41D
100
AcDbEntity
  8
0
100
AcDbLine
 62
253
  6
CONTINUOUS
 10
119.4652542946
 20
84.860977755
 11
116.9100907038
 21
84.9948882045
  0
LINE
  5
41E
100
AcDbEntity
  8
ASSI
100
AcDbLine
 62
253
  6
CONTINUOUS
 10
119.4652542946
 20
84.860977755
 11
116.9100907038
 21
84.9948882045
  0
LWPOLYLINE
  5
41F
100
AcDbEntity
  8
0
100
AcDbPolyline
 62
253
  6
CONTINUOUS
 90
22
 70
0
 10
116.9100907038
 20
84.9948882045
 10
116.8606835802
 20
84.9992407575
 10
116.812109139
 20
85.0069346293
 10
116.7643673801
 20
85.0179698199
 10
116.7172081803
 20
85.0324352432
 10
116.6708816627
 20
85.0502419854
 10
116.6261381976
 20
85.0711233047
 10
116.5830231034
 20
85.0951239487
 10
116.5414910616
 20
85.12219917
 10
116.5021564863
 20
85.1519479844
 10
116.465052057
 20
85.1844120416
 10
116.4301450942
 20
85.219549692
 10
116.3979519744
 20
85.256835003
 10
116.3685160026
 20
85.2962976545
 10
116.3417938737
 20
85.3379079666
 10
116.3181720495
 20
85.3810509666
 10
116.297694859
 20
85.4257704806
 10
116.2803179731
 20
85.4720226826
 10
116.2662948662
 20
85.5190611213
 10
116.2557100298
 20
85.5666369795
 10
116.2484789723
 20
85.6149990744
 10
116.2446016938
 20
85.664147406
  0
LWPOLYLINE
  5
420
100
AcDbEntity
  8
ASSI
100
AcDbPolyline
 62
253
  6
CONTINUOUS
 90
22
 70
0
 10
116.9100907038
 20
84.9948882045
 10
116.8606835802
 20
84.9992407575
 10
116.812109139
 20
85.0069346293
 10
116.7643673801
 20
85.0179698199
 10
116.7172081803
 20
85.0324352432
 10
116.6708816627
 20
85.0502419854
 10
116.6261381976
 20
85.0711233047
 10
116.5830231034
 20
85.0951239487
 10
116.5414910616
 20
85.12219917
 10
116.5021564863
 20
85.1519479844
 10
116.465052057
 20
85.1844120416
 10
116.4301450942
 20
85.219549692
 10
116.3979519744
 20
85.256835003
 10
116.3685160026
 20
85.2962976545
 10
116.3417938737
 20
85.3379079666
 10
116.3181720495
 20
85.3810509666
 10
116.297694859
 20
85.4257704806
 10
116.2803179731
 20
85.4720226826
 10
116.2662948662
 20
85.5190611213
 10
116.2557100298
 20
85.5666369795
 10
116.2484789723
 20
85.6149990744
 10
116.2446016938
 20
85.664147406
  0
LWPOLYLINE
  5
421
100
AcDbEntity
  8
0
100
AcDbPolyline
 62
253
  6
CONTINUOUS
 90
18
 70
0
 10
116.5662852628
 20
84.5601524427
 10
116.4874968772
 20
84.5905704119
 10
116.4110489119
 20
84.6264370278
 10
116.3373132864
 20
84.6675764492
 10
116.2666564108
 20
84.7137826547
 10
116.1994330634
 20
84.764823123
 10
116.1359741629
 20
84.8204427922
 10
116.0765885693
 20
84.8803665396
 10
116.0215695173
 20
84.9442974054
 10
115.9711857416
 20
85.011919082
 10
115.9256832927
 20
85.0828963556
 10
115.8852869729
 20
85.1568769346
 10
115.8501958159
 20
85.2334891204
 10
115.820576446
 20
85.3123598412
 10
115.7965692317
 20
85.3931168582
 10
115.7782927958
 20
85.475368445
 10
115.7658395175
 20
85.5587038779
 10
115.7592718752
 20
85.6427125291
  0
LWPOLYLINE
  5
422
100
AcDbEntity
  8
ASSI
100
AcDbPolyline
 62
253
  6
CONTINUOUS
 90
18
 70
0
 10
116.5662852628
 20
84.5601524427
 10
116.4874968772
 20
84.5905704119
 10
116.4110489119
 20
84.6264370278
 10
116.3373132864
 20
84.6675764492
 10
116.2666564108
 20
84.7137826547
 10
116.1994330634
 20
84.764823123
 10
116.1359741629
 20
84.8204427922
 10
116.0765885693
 20
84.8803665396
 10
116.0215695173
 20
84.9442974054
 10
115.9711857416
 20
85.011919082
 10
115.9256832927
 20
85.0828963556
 10
115.8852869729
 20
85.1568769346
 10
115.8501958159
 20
85.2334891204
 10
115.820576446
 20
85.3123598412
 10
115.7965692317
 20
85.3931168582
 10
115.7782927958
 20
85.475368445
 10
115.7658395175
 20
85.5587038779
 10
115.7592718752
 20
85.6427125291
  0
LINE
  5
423
100
AcDbEntity
  8
ASSI
100
AcDbLine
 62
7
  6
CONTINUOUS
 10
115.408322727
 20
127.3903112989
 11
115.4082749946
 21
127.3902809155
  0
LINE
  5
424
100
AcDbEntity
  8
0
100
AcDbLine
 62
7
  6
CONTINUOUS
 10
115.4082751261
 20
85.6496528885
 11
115.40889718
 21
85.6497991474
  0
LINE
  5
425
100
AcDbEntity
  8
ASSI
100
AcDbLine
 62
7
  6
CONTINUOUS
 10
115.4082751261
 20
85.6496528885
 11
115.40889718
 21
85.6497991474
  0
LINE
  5
426
100
AcDbEntity
  8
0
100
AcDbLine
 62
253
  6
CONTINUOUS
 10
119.8140685515
 20
88.5864722761
 11
119.7911928312
 21
88.5864722763
  0
LINE
  5
427
100
AcDbEntity
  8
ASSI
100
AcDbLine
 62
253
  6
CONTINUOUS
 10
119.8140685515
 20
88.5864722761
 11
119.7911928312
 21
88.5864722763
  0
LWPOLYLINE
  5
428
100
AcDbEntity
  8
0
100
AcDbPolyline
 62
253
  6
CONTINUOUS
 90
11
 70
0
 10
116.8970112732
 20
128.5443543214
 10
116.8957911892
 20
128.5415523462
 10
116.8948706515
 20
128.5333199491
 10
116.8942597281
 20
128.5197471689
 10
116.8939651006
 20
128.5009824527
 10
116.8939899916
 20
128.4772310326
 10
116.8943341291
 20
128.4487526808
 10
116.8949937495
 20
128.4158588686
 10
116.8959616381
 20
128.3789093597
 10
116.8972272092
 20
128.3383082754
 10
116.9005929275
 20
128.247962698
  0
LWPOLYLINE
  5
429
100
AcDbEntity
  8
ASSI
100
AcDbPolyline
 62
253
  6
CONTINUOUS
 90
11
 70
0
 10
116.8970112732
 20
128.5443543214
 10
116.8957911892
 20
128.5415523462
 10
116.8948706515
 20
128.5333199491
 10
116.8942597281
 20
128.5197471689
 10
116.8939651006
 20
128.5009824527
 10
116.8939899916
 20
128.4772310326
 10
116.8943341291
 20
128.4487526808
 10
116.8949937495
 20
128.4158588686
 10
116.8959616381
 20
128.3789093597
 10
116.8972272092
 20
128.3383082754
 10
116.9005929275
 20
128.247962698
  0
LWPOLYLINE
  5
42A
100
AcDbEntity
  8
0
100
AcDbPolyline
 62
253
  6
CONTINUOUS
 90
9
 70
0
 10
116.8970111998
 20
84.4955734371
 10
116.8957910978
 20
84.4983754824
 10
116.8948705514
 20
84.5066080718
 10
116.8942596278
 20
84.5201811421
 10
116.8939650073
 20
84.5389462265
 10
116.8939899116
 20
84.5626980625
 10
116.8943340669
 20
84.5911768228
 10
116.894993707
 20
84.6240709914
 10
116.8959616152
 20
84.6610207757
  0
LWPOLYLINE
  5
42B
100
AcDbEntity
  8
ASSI
100
AcDbPolyline
 62
253
  6
CONTINUOUS
 90
9
 70
0
 10
116.8970111998
 20
84.4955734371
 10
116.8957910978
 20
84.4983754824
 10
116.8948705514
 20
84.5066080718
 10
116.8942596278
 20
84.5201811421
 10
116.8939650073
 20
84.5389462265
 10
116.8939899116
 20
84.5626980625
 10
116.8943340669
 20
84.5911768228
 10
116.894993707
 20
84.6240709914
 10
116.8959616152
 20
84.6610207757
  0
LWPOLYLINE
  5
42C
100
AcDbEntity
  8
0
100
AcDbPolyline
 62
253
  6
CONTINUOUS
 90
4
 70
0
 10
115.1150654877
 20
92.3535518462
 10
115.2005182963
 20
90.1181860642
 10
115.2984635664
 20
87.8835785848
 10
115.40889718
 20
85.6497991474
  0
LWPOLYLINE
  5
42D
100
AcDbEntity
  8
0
100
AcDbPolyline
 62
253
  6
CONTINUOUS
 90
4
 70
0
 10
115.1062673207
 20
120.4364218773
 10
115.2005161143
 20
122.9216885093
 10
115.2984620883
 20
125.1563174744
 10
115.40889718
 20
127.3901286073
  0
LWPOLYLINE
  5
42E
100
AcDbEntity
  8
CURVE
100
AcDbPolyline
 62
7
  6
CONTINUOUS
 90
7
 70
0
 10
115.4082896516
 20
127.3905747218
 10
115.2996644488
 20
125.2131345777
 10
115.1999381983
 20
122.9612753031
 10
115.1129974697
 20
120.7087131365
 10
115.0388452174
 20
118.4555203635
 10
114.9774844069
 20
116.2017696041
 10
114.9289180061
 20
113.9475338127
  0
LWPOLYLINE
  5
42F
100
AcDbEntity
  8
ASSI
100
AcDbPolyline
 62
7
  6
CONTINUOUS
 90
7
 70
0
 10
115.4082896516
 20
127.3905747218
 10
115.2996644488
 20
125.2131345777
 10
115.1999381983
 20
122.9612753031
 10
115.1129974697
 20
120.7087131365
 10
115.0388452174
 20
118.4555203635
 10
114.9774844069
 20
116.2017696041
 10
114.9289180061
 20
113.9475338127
  0
LWPOLYLINE
  5
430
100
AcDbEntity
  8
0
100
AcDbPolyline
 62
253
  6
CONTINUOUS
 90
18
 70
0
 10
115.759271959
 20
127.3972152248
 10
115.7658396009
 20
127.4812238844
 10
115.7782928797
 20
127.5645593231
 10
115.7965693164
 20
127.6468109129
 10
115.8205765313
 20
127.7275679296
 10
115.8501959008
 20
127.8064386478
 10
115.8852870573
 20
127.8830508315
 10
115.9256833769
 20
127.9570314095
 10
115.9711858256
 20
128.0280086824
 10
116.0215696011
 20
128.0956303583
 10
116.0765886524
 20
128.1595612231
 10
116.135974245
 20
128.2194849696
 10
116.1994331445
 20
128.275104638
 10
116.2666564908
 20
128.3261451055
 10
116.3373133652
 20
128.3723513103
 10
116.4110489892
 20
128.4134907311
 10
116.487496952
 20
128.4493573461
 10
116.5662853348
 20
128.4797753146
  0
LWPOLYLINE
  5
431
100
AcDbEntity
  8
ASSI
100
AcDbPolyline
 62
253
  6
CONTINUOUS
 90
18
 70
0
 10
115.759271959
 20
127.3972152248
 10
115.7658396009
 20
127.4812238844
 10
115.7782928797
 20
127.5645593231
 10
115.7965693164
 20
127.6468109129
 10
115.8205765313
 20
127.7275679296
 10
115.8501959008
 20
127.8064386478
 10
115.8852870573
 20
127.8830508315
 10
115.9256833769
 20
127.9570314095
 10
115.9711858256
 20
128.0280086824
 10
116.0215696011
 20
128.0956303583
 10
116.0765886524
 20
128.1595612231
 10
116.135974245
 20
128.2194849696
 10
116.1994331445
 20
128.275104638
 10
116.2666564908
 20
128.3261451055
 10
116.3373133652
 20
128.3723513103
 10
116.4110489892
 20
128.4134907311
 10
116.487496952
 20
128.4493573461
 10
116.5662853348
 20
128.4797753146
  0
LWPOLYLINE
  5
432
100
AcDbEntity
  8
0
100
AcDbPolyline
 62
253
  6
CONTINUOUS
 90
22
 70
0
 10
116.2446017385
 20
127.3757803558
 10
116.2484790365
 20
127.4249286868
 10
116.2557101085
 20
127.4732907813
 10
116.2662949547
 20
127.5208666393
 10
116.2803180647
 20
127.5679050779
 10
116.2976949489
 20
127.61415728
 10
116.3181721376
 20
127.6588767942
 10
116.3417939614
 20
127.7020197942
 10
116.3685160897
 20
127.7436301063
 10
116.397952061
 20
127.7830927578
 10
116.4301451801
 20
127.8203780686
 10
116.4650521422
 20
127.8555157188
 10
116.5021565708
 20
127.8879797758
 10
116.5414911451
 20
127.91772859
 10
116.5830231859
 20
127.944803811
 10
116.626138279
 20
127.9688044548
 10
116.670881743
 20
127.989685774
 10
116.7172082592
 20
128.007492516
 10
116.7643674577
 20
128.0219579392
 10
116.8121092152
 20
128.0329931296
 10
116.860683655
 20
128.0406870012
 10
116.9100907772
 20
128.045039554
  0
LWPOLYLINE
  5
433
100
AcDbEntity
  8
ASSI
100
AcDbPolyline
 62
253
  6
CONTINUOUS
 90
22
 70
0
 10
116.2446017385
 20
127.3757803558
 10
116.2484790365
 20
127.4249286868
 10
116.2557101085
 20
127.4732907813
 10
116.2662949547
 20
127.5208666393
 10
116.2803180647
 20
127.5679050779
 10
116.2976949489
 20
127.61415728
 10
116.3181721376
 20
127.6588767942
 10
116.3417939614
 20
127.7020197942
 10
116.3685160897
 20
127.7436301063
 10
116.397952061
 20
127.7830927578
 10
116.4301451801
 20
127.8203780686
 10
116.4650521422
 20
127.8555157188
 10
116.5021565708
 20
127.8879797758
 10
116.5414911451
 20
127.91772859
 10
116.5830231859
 20
127.944803811
 10
116.626138279
 20
127.9688044548
 10
116.670881743
 20
127.989685774
 10
116.7172082592
 20
128.007492516
 10
116.7643674577
 20
128.0219579392
 10
116.8121092152
 20
128.0329931296
 10
116.860683655
 20
128.0406870012
 10
116.9100907772
 20
128.045039554
  0
LWPOLYLINE
  5
434
100
AcDbEntity
  8
0
100
AcDbPolyline
 62
253
  6
CONTINUOUS
 90
16
 70
0
 10
115.3109573274
 20
107.2591818432
 10
115.3137217115
 20
107.2061934353
 10
115.3217683523
 20
107.1549437697
 10
115.3348796434
 20
107.105314785
 10
115.3531665218
 20
107.0569841993
 10
115.3766509551
 20
107.0102726128
 10
115.4048087222
 20
106.9663021928
 10
115.4371876042
 20
106.925762264
 10
115.4737213629
 20
106.8887264918
 10
115.513958455
 20
106.8556289371
 10
115.5573088943
 20
106.8269877167
 10
115.6033592822
 20
106.8030666264
 10
115.6517390952
 20
106.7840284176
 10
115.7019013034
 20
106.7701304038
 10
115.7531371462
 20
106.7615849427
 10
115.8047861984
 20
106.7584431015
  0
LWPOLYLINE
  5
435
100
AcDbEntity
  8
ASSI
100
AcDbPolyline
 62
253
  6
CONTINUOUS
 90
16
 70
0
 10
115.3109573274
 20
107.2591818432
 10
115.3137217115
 20
107.2061934353
 10
115.3217683523
 20
107.1549437697
 10
115.3348796434
 20
107.105314785
 10
115.3531665218
 20
107.0569841993
 10
115.3766509551
 20
107.0102726128
 10
115.4048087222
 20
106.9663021928
 10
115.4371876042
 20
106.925762264
 10
115.4737213629
 20
106.8887264918
 10
115.513958455
 20
106.8556289371
 10
115.5573088943
 20
106.8269877167
 10
115.6033592822
 20
106.8030666264
 10
115.6517390952
 20
106.7840284176
 10
115.7019013034
 20
106.7701304038
 10
115.7531371462
 20
106.7615849427
 10
115.8047861984
 20
106.7584431015
  0
LWPOLYLINE
  5
436
100
AcDbEntity
  8
0
100
AcDbPolyline
 62
253
  6
CONTINUOUS
 90
16
 70
0
 10
114.8649229586
 20
107.2632293871
 10
114.8675414675
 20
107.2111879343
 10
114.8755618451
 20
107.1597016017
 10
114.8888969845
 20
107.109329566
 10
114.9074020572
 20
107.0606189015
 10
114.9308760855
 20
107.014098639
 10
114.9590641255
 20
106.9702740203
 10
114.991660036
 20
106.9296210103
 10
115.0283098033
 20
106.8925811282
 10
115.0686153861
 20
106.8595566524
 10
115.1121390385
 20
106.830906251
 10
115.158408064
 20
106.8069410868
 10
115.2069199497
 20
106.7879214377
 10
115.2571478237
 20
106.77405387
 10
115.3085461772
 20
106.765488995
 10
115.3605567891
 20
106.7623198328
  0
LWPOLYLINE
  5
437
100
AcDbEntity
  8
ASSI
100
AcDbPolyline
 62
253
  6
CONTINUOUS
 90
16
 70
0
 10
114.8649229586
 20
107.2632293871
 10
114.8675414675
 20
107.2111879343
 10
114.8755618451
 20
107.1597016017
 10
114.8888969845
 20
107.109329566
 10
114.9074020572
 20
107.0606189015
 10
114.9308760855
 20
107.014098639
 10
114.9590641255
 20
106.9702740203
 10
114.991660036
 20
106.9296210103
 10
115.0283098033
 20
106.8925811282
 10
115.0686153861
 20
106.8595566524
 10
115.1121390385
 20
106.830906251
 10
115.158408064
 20
106.8069410868
 10
115.2069199497
 20
106.7879214377
 10
115.2571478237
 20
106.77405387
 10
115.3085461772
 20
106.765488995
 10
115.3605567891
 20
106.7623198328
  0
LWPOLYLINE
  5
438
100
AcDbEntity
  8
0
100
AcDbPolyline
 62
253
  6
CONTINUOUS
 90
10
 70
0
 10
115.7592718757
 20
85.6427125289
 10
115.6651759027
 20
87.9584829946
 10
115.5834307364
 20
90.2359223259
 10
115.5134923175
 20
92.4749604488
 10
115.4554415041
 20
94.65030835
 10
115.4079132662
 20
96.7871257522
 10
115.3692127484
 20
98.9610458359
 10
115.3395587001
 20
101.1972639773
 10
115.3199674172
 20
103.4705125412
 10
115.3109572479
 20
105.7807459228
  0
LWPOLYLINE
  5
439
100
AcDbEntity
  8
ASSI
100
AcDbPolyline
 62
253
  6
CONTINUOUS
 90
10
 70
0
 10
115.7592718757
 20
85.6427125289
 10
115.6651759027
 20
87.9584829946
 10
115.5834307364
 20
90.2359223259
 10
115.5134923175
 20
92.4749604488
 10
115.4554415041
 20
94.65030835
 10
115.4079132662
 20
96.7871257522
 10
115.3692127484
 20
98.9610458359
 10
115.3395587001
 20
101.1972639773
 10
115.3199674172
 20
103.4705125412
 10
115.3109572479
 20
105.7807459228
  0
LWPOLYLINE
  5
43A
100
AcDbEntity
  8
0
100
AcDbPolyline
 62
253
  6
CONTINUOUS
 90
10
 70
0
 10
116.2446016938
 20
85.664147406
 10
116.1513608262
 20
87.9776321133
 10
116.0693998884
 20
90.2526972171
 10
115.9987188806
 20
92.4893427173
 10
115.939890041
 20
94.6624167753
 10
115.8923411314
 20
96.7970712298
 10
115.8543554365
 20
98.968761597
 10
115.825360718
 20
101.2026397157
 10
115.8059292141
 20
103.473553747
 10
115.7955063573
 20
105.8674180747
  0
LWPOLYLINE
  5
43B
100
AcDbEntity
  8
ASSI
100
AcDbPolyline
 62
253
  6
CONTINUOUS
 90
10
 70
0
 10
116.2446016938
 20
85.664147406
 10
116.1513608262
 20
87.9776321133
 10
116.0693998884
 20
90.2526972171
 10
115.9987188806
 20
92.4893427173
 10
115.939890041
 20
94.6624167753
 10
115.8923411314
 20
96.7970712298
 10
115.8543554365
 20
98.968761597
 10
115.825360718
 20
101.2026397157
 10
115.8059292141
 20
103.473553747
 10
115.7955063573
 20
105.8674180747
  0
LINE
  5
43C
100
AcDbEntity
  8
SUPERFICI
100
AcDbLine
 62
7
  6
CONTINUOUS
 10
114.9008070597
 20
101.0383115421
 11
114.9007215622
 21
101.0407384554
  0
LINE
  5
43D
100
AcDbEntity
  8
0
100
AcDbLine
 62
7
  6
CONTINUOUS
 10
114.9007019488
 20
101.0415856321
 11
114.9008073458
 21
101.0382978608
  0
LINE
  5
43E
100
AcDbEntity
  8
ASSI
100
AcDbLine
 62
7
  6
CONTINUOUS
 10
114.9007019488
 20
101.0415856321
 11
114.9008073458
 21
101.0382978608
  0
LINE
  5
43F
100
AcDbEntity
  8
0
100
AcDbLine
 62
253
  6
CONTINUOUS
 10
115.1150654877
 20
92.3535518462
 11
115.0294848937
 21
95.0197538648
  0
LINE
  5
440
100
AcDbEntity
  8
0
100
AcDbLine
 62
253
  6
CONTINUOUS
 10
114.9617336155
 20
97.6864218773
 11
114.9965700259
 21
96.2280408855
  0
LWPOLYLINE
  5
441
100
AcDbEntity
  8
0
100
AcDbPolyline
 62
253
  6
CONTINUOUS
 90
10
 70
0
 10
115.7967995345
 20
106.9055620657
 10
115.7973833919
 20
106.8759872588
 10
115.798056816
 20
106.8493419427
 10
115.7988151825
 20
106.8258091977
 10
115.7996531709
 20
106.8055645197
 10
115.8005641538
 20
106.7887774472
 10
115.8015407174
 20
106.7755864606
 10
115.8025751821
 20
106.7660924013
 10
115.8036597791
 20
106.7603638382
 10
115.8047861984
 20
106.7584431015
  0
LWPOLYLINE
  5
442
100
AcDbEntity
  8
ASSI
100
AcDbPolyline
 62
253
  6
CONTINUOUS
 90
10
 70
0
 10
115.7967995345
 20
106.9055620657
 10
115.7973833919
 20
106.8759872588
 10
115.798056816
 20
106.8493419427
 10
115.7988151825
 20
106.8258091977
 10
115.7996531709
 20
106.8055645197
 10
115.8005641538
 20
106.7887774472
 10
115.8015407174
 20
106.7755864606
 10
115.8025751821
 20
106.7660924013
 10
115.8036597791
 20
106.7603638382
 10
115.8047861984
 20
106.7584431015
  0
LINE
  5
443
100
AcDbEntity
  8
SUPERFICI
100
AcDbLine
 62
7
  6
CONTINUOUS
 10
114.9007215622
 20
101.0407384554
 11
114.9000790227
 21
101.0761927602
  0
LINE
  5
444
100
AcDbEntity
  8
0
100
AcDbLine
 62
7
  6
CONTINUOUS
 10
114.8998858113
 20
101.0881007617
 11
114.9007019488
 21
101.0415856321
  0
LINE
  5
445
100
AcDbEntity
  8
ASSI
100
AcDbLine
 62
7
  6
CONTINUOUS
 10
114.8998858113
 20
101.0881007617
 11
114.9007019488
 21
101.0415856321
  0
LWPOLYLINE
  5
446
100
AcDbEntity
  8
0
100
AcDbPolyline
 62
253
  6
CONTINUOUS
 90
4
 70
0
 10
114.8998858113
 20
101.0881007617
 10
114.9337030181
 20
99.0635009245
 10
114.9816518251
 20
96.8263577243
 10
115.0421080872
 20
94.5896454364
  0
LWPOLYLINE
  5
447
100
AcDbEntity
  8
ASSI
100
AcDbPolyline
 62
253
  6
CONTINUOUS
 90
8
 70
0
 10
114.8998858113
 20
101.0881007617
 10
114.9337030181
 20
99.0635009245
 10
114.9816518251
 20
96.8263577243
 10
115.0421080872
 20
94.5896454364
 10
115.1150654877
 20
92.3535518462
 10
115.2005182963
 20
90.1181860642
 10
115.2984635664
 20
87.8835785848
 10
115.2996644488
 20
87.826793177
  0
LWPOLYLINE
  5
448
100
AcDbEntity
  8
0
100
AcDbPolyline
 62
7
  6
CONTINUOUS
 90
18
 70
0
 10
114.860154643
 20
107.2632780932
 10
114.8603680632
 20
107.2477051149
 10
114.8640791718
 20
107.1998124322
 10
114.8723647827
 20
107.1525156789
 10
114.8851430346
 20
107.1062500971
 10
114.9022908461
 20
107.0614405595
 10
114.9236452826
 20
107.0184974743
 10
114.9490048512
 20
106.9778137112
 10
114.9781312613
 20
106.9397609194
 10
115.0107510455
 20
106.9046864963
 10
115.0465617542
 20
106.8729068373
 10
115.0852354445
 20
106.844706285
 10
115.1264213654
 20
106.8203365475
 10
115.1697346207
 20
106.8000215608
 10
115.2147616898
 20
106.7839480501
 10
115.2610827397
 20
106.7722557322
 10
115.3082776223
 20
106.7650408053
 10
115.3557905072
 20
106.7623614275
  0
LWPOLYLINE
  5
449
100
AcDbEntity
  8
ASSI
100
AcDbPolyline
 62
7
  6
CONTINUOUS
 90
18
 70
0
 10
114.860154643
 20
107.2632780932
 10
114.8603680632
 20
107.2477051149
 10
114.8640791718
 20
107.1998124322
 10
114.8723647827
 20
107.1525156789
 10
114.8851430346
 20
107.1062500971
 10
114.9022908461
 20
107.0614405595
 10
114.9236452826
 20
107.0184974743
 10
114.9490048512
 20
106.9778137112
 10
114.9781312613
 20
106.9397609194
 10
115.0107510455
 20
106.9046864963
 10
115.0465617542
 20
106.8729068373
 10
115.0852354445
 20
106.844706285
 10
115.1264213654
 20
106.8203365475
 10
115.1697346207
 20
106.8000215608
 10
115.2147616898
 20
106.7839480501
 10
115.2610827397
 20
106.7722557322
 10
115.3082776223
 20
106.7650408053
 10
115.3557905072
 20
106.7623614275
  0
LINE
  5
44A
100
AcDbEntity
  8
SUPERFICI
100
AcDbLine
 62
7
  6
CONTINUOUS
 10
114.9000790227
 20
101.0761927602
 11
114.8888928595
 21
101.917167634
  0
LINE
  5
44B
100
AcDbEntity
  8
0
100
AcDbLine
 62
7
  6
CONTINUOUS
 10
114.8881629903
 20
101.9805221099
 11
114.8998858113
 21
101.0881007617
  0
LINE
  5
44C
100
AcDbEntity
  8
ASSI
100
AcDbLine
 62
7
  6
CONTINUOUS
 10
114.8881629903
 20
101.9805221099
 11
114.8998858113
 21
101.0881007617
  0
LINE
  5
44D
100
AcDbEntity
  8
0
100
AcDbLine
 62
253
  6
CONTINUOUS
 10
115.7959175364
 20
106.9726431131
 11
115.7967995345
 21
106.9055620657
  0
LINE
  5
44E
100
AcDbEntity
  8
ASSI
100
AcDbLine
 62
253
  6
CONTINUOUS
 10
115.7959175364
 20
106.9726431131
 11
115.7967995345
 21
106.9055620657
  0
LINE
  5
44F
100
AcDbEntity
  8
SUPERFICI
100
AcDbLine
 62
7
  6
CONTINUOUS
 10
114.8888928595
 20
101.917167634
 11
114.8793449927
 21
102.8864785506
  0
LINE
  5
450
100
AcDbEntity
  8
0
100
AcDbLine
 62
7
  6
CONTINUOUS
 10
114.8790722474
 20
102.9240295743
 11
114.8881629903
 21
101.9805221099
  0
LINE
  5
451
100
AcDbEntity
  8
0
100
AcDbLine
 62
253
  6
CONTINUOUS
 10
115.7954403586
 20
107.0483394025
 11
115.7959175364
 21
106.9726431131
  0
LINE
  5
452
100
AcDbEntity
  8
ASSI
100
AcDbLine
 62
253
  6
CONTINUOUS
 10
115.7954403586
 20
107.0483394025
 11
115.7959175364
 21
106.9726431131
  0
LWPOLYLINE
  5
453
100
AcDbEntity
  8
CURVE
100
AcDbPolyline
 62
7
  6
CONTINUOUS
 90
10
 70
0
 10
114.8601575006
 20
105.7766496671
 10
114.8701802436
 20
103.6020301386
 10
114.8931489688
 20
101.347042078
 10
114.9289180061
 20
99.092393942
 10
114.9774844069
 20
96.8381581506
 10
115.0388452174
 20
94.5844073912
 10
115.1129974697
 20
92.3312146182
 10
115.1999381983
 20
90.0786524515
 10
115.2996644488
 20
87.826793177
 10
115.4082896516
 20
85.6493530329
  0
LWPOLYLINE
  5
454
100
AcDbEntity
  8
ASSI
100
AcDbPolyline
 62
7
  6
CONTINUOUS
 90
10
 70
0
 10
114.8601575006
 20
105.7766496671
 10
114.8701802436
 20
103.6020301386
 10
114.8931489688
 20
101.347042078
 10
114.9289180061
 20
99.092393942
 10
114.9774844069
 20
96.8381581506
 10
115.0388452174
 20
94.5844073912
 10
115.1129974697
 20
92.3312146182
 10
115.1999381983
 20
90.0786524515
 10
115.2996644488
 20
87.826793177
 10
115.4082896516
 20
85.6493530329
  0
LWPOLYLINE
  5
455
100
AcDbEntity
  8
0
100
AcDbPolyline
 62
253
  6
CONTINUOUS
 90
3
 70
0
 10
114.864922963
 20
105.7766983676
 10
114.8753369214
 20
103.5387215886
 10
114.8982643203
 20
101.3009657733
  0
LWPOLYLINE
  5
456
100
AcDbEntity
  8
ASSI
100
AcDbPolyline
 62
253
  6
CONTINUOUS
 90
3
 70
0
 10
114.864922963
 20
105.7766983676
 10
114.8753369214
 20
103.5387215886
 10
114.8982643203
 20
101.3009657733
  0
LWPOLYLINE
  5
457
100
AcDbEntity
  8
SUPERFICI
100
AcDbPolyline
 62
7
  6
CONTINUOUS
 90
4
 70
0
 10
114.8793449927
 20
102.8864785506
 10
114.8786688626
 20
102.9920732548
 10
114.8786604032
 20
102.9992058149
 10
114.8786931987
 20
103.0016466712
  0
LINE
  5
458
100
AcDbEntity
  8
0
100
AcDbLine
 62
253
  6
CONTINUOUS
 10
115.7955063573
 20
105.8674180747
 11
115.7953579934
 21
105.9512563532
  0
LINE
  5
459
100
AcDbEntity
  8
ASSI
100
AcDbLine
 62
253
  6
CONTINUOUS
 10
115.7955063573
 20
105.8674180747
 11
115.7953579934
 21
105.9512563532
  0
LINE
  5
45A
100
AcDbEntity
  8
0
100
AcDbLine
 62
253
  6
CONTINUOUS
 10
115.7953804624
 20
107.1301770028
 11
115.7954403586
 21
107.0483394025
  0
LINE
  5
45B
100
AcDbEntity
  8
ASSI
100
AcDbLine
 62
253
  6
CONTINUOUS
 10
115.7953804624
 20
107.1301770028
 11
115.7954403586
 21
107.0483394025
  0
LWPOLYLINE
  5
45C
100
AcDbEntity
  8
0
100
AcDbPolyline
 62
253
  6
CONTINUOUS
 90
10
 70
0
 10
115.3109572481
 20
107.2591818353
 10
115.3184922631
 20
109.3247570766
 10
115.3351233709
 20
111.4213042898
 10
115.3612518523
 20
113.5487809716
 10
115.3969783534
 20
115.6909475405
 10
115.4428767877
 20
117.8639507529
 10
115.500721185
 20
120.1163081067
 10
115.5721492862
 20
122.46412982
 10
115.6579356451
 20
124.8911333493
 10
115.7592718737
 20
127.397215229
  0
LWPOLYLINE
  5
45D
100
AcDbEntity
  8
ASSI
100
AcDbPolyline
 62
253
  6
CONTINUOUS
 90
10
 70
0
 10
115.3109572481
 20
107.2591818353
 10
115.3184922631
 20
109.3247570766
 10
115.3351233709
 20
111.4213042898
 10
115.3612518523
 20
113.5487809716
 10
115.3969783534
 20
115.6909475405
 10
115.4428767877
 20
117.8639507529
 10
115.500721185
 20
120.1163081067
 10
115.5721492862
 20
122.46412982
 10
115.6579356451
 20
124.8911333493
 10
115.7592718737
 20
127.397215229
  0
LINE
  5
45E
100
AcDbEntity
  8
CURVE
100
AcDbLine
 62
7
  6
CONTINUOUS
 10
114.8701802436
 20
109.4378976161
 11
114.8601575006
 21
107.2632780875
  0
LINE
  5
45F
100
AcDbEntity
  8
ASSI
100
AcDbLine
 62
7
  6
CONTINUOUS
 10
114.8701802436
 20
109.4378976161
 11
114.8601575006
 21
107.2632780875
  0
LWPOLYLINE
  5
460
100
AcDbEntity
  8
0
100
AcDbPolyline
 62
253
  6
CONTINUOUS
 90
6
 70
0
 10
114.864922963
 20
107.2632293871
 10
114.8753368221
 20
109.5011928478
 10
114.8982639863
 20
111.7389363745
 10
114.9337023311
 20
113.9763899654
 10
114.9816506097
 20
116.2135198714
 10
115.0421062254
 20
118.4502198982
  0
LWPOLYLINE
  5
461
100
AcDbEntity
  8
ASSI
100
AcDbPolyline
 62
253
  6
CONTINUOUS
 90
10
 70
0
 10
114.864922963
 20
107.2632293871
 10
114.8753368221
 20
109.5011928478
 10
114.8982639863
 20
111.7389363745
 10
114.9337023311
 20
113.9763899654
 10
114.9816506097
 20
116.2135198714
 10
115.0421062254
 20
118.4502198982
 10
115.1150632046
 20
120.6863114608
 10
115.2005161143
 20
122.9216885093
 10
115.2984620883
 20
125.1563174744
 10
115.2996644488
 20
125.2131345777
  0
LINE
  5
462
100
AcDbEntity
  8
0
100
AcDbLine
 62
253
  6
CONTINUOUS
 10
115.7953579934
 20
105.9512563532
 11
115.7956271435
 21
106.0303653052
  0
LINE
  5
463
100
AcDbEntity
  8
ASSI
100
AcDbLine
 62
253
  6
CONTINUOUS
 10
115.7953579934
 20
105.9512563532
 11
115.7956271435
 21
106.0303653052
  0
LINE
  5
464
100
AcDbEntity
  8
0
100
AcDbLine
 62
253
  6
CONTINUOUS
 10
115.8029236567
 20
109.3219887081
 11
115.7953804624
 21
107.1301770028
  0
LINE
  5
465
100
AcDbEntity
  8
ASSI
100
AcDbLine
 62
253
  6
CONTINUOUS
 10
115.8029236567
 20
109.3219887081
 11
115.7953804624
 21
107.1301770028
  0
LWPOLYLINE
  5
466
100
AcDbEntity
  8
0
100
AcDbPolyline
 62
253
  6
CONTINUOUS
 90
9
 70
0
 10
115.8029236567
 20
109.3219887081
 10
115.8196998981
 20
111.4163906914
 10
115.8463897161
 20
113.541630013
 10
115.8818861478
 20
115.6815907353
 10
115.9272961562
 20
117.8523887959
 10
115.9859406306
 20
120.102372007
 10
116.058926534
 20
122.4476563061
 10
116.1451469033
 20
124.8721257557
 10
116.2446017385
 20
127.3757803558
  0
LWPOLYLINE
  5
467
100
AcDbEntity
  8
ASSI
100
AcDbPolyline
 62
253
  6
CONTINUOUS
 90
9
 70
0
 10
115.8029236567
 20
109.3219887081
 10
115.8196998981
 20
111.4163906914
 10
115.8463897161
 20
113.541630013
 10
115.8818861478
 20
115.6815907353
 10
115.9272961562
 20
117.8523887959
 10
115.9859406306
 20
120.102372007
 10
116.058926534
 20
122.4476563061
 10
116.1451469033
 20
124.8721257557
 10
116.2446017385
 20
127.3757803558
  0
LWPOLYLINE
  5
468
100
AcDbEntity
  8
0
100
AcDbPolyline
 62
7
  6
CONTINUOUS
 90
4
 70
0
 10
114.8786931352
 20
103.0016466715
 10
114.8786596853
 20
102.9983381175
 10
114.878679975
 20
102.9889514623
 10
114.8790722474
 20
102.9240295743
  0
LWPOLYLINE
  5
469
100
AcDbEntity
  8
ASSI
100
AcDbPolyline
 62
7
  6
CONTINUOUS
 90
4
 70
0
 10
114.8786931352
 20
103.0016466715
 10
114.8786596853
 20
102.9983381175
 10
114.878679975
 20
102.9889514623
 10
114.8803815435
 20
102.7570189077
  0
LWPOLYLINE
  5
46A
100
AcDbEntity
  8
0
100
AcDbPolyline
 62
253
  6
CONTINUOUS
 90
12
 70
0
 10
115.7956271435
 20
106.0303653052
 10
115.7963094015
 20
106.1020583963
 10
115.7967994662
 20
106.1343656256
 10
115.7973833236
 20
106.1639404435
 10
115.7980567476
 20
106.1905857673
 10
115.798815114
 20
106.2141185207
 10
115.7996531026
 20
106.2343632082
 10
115.8005640855
 20
106.2511502896
 10
115.8015406494
 20
106.2643412836
 10
115.8025751144
 20
106.2738353482
 10
115.8036597117
 20
106.2795639147
 10
115.8047861314
 20
106.2814846526
  0
LWPOLYLINE
  5
46B
100
AcDbEntity
  8
ASSI
100
AcDbPolyline
 62
253
  6
CONTINUOUS
 90
12
 70
0
 10
115.7956271435
 20
106.0303653052
 10
115.7963094015
 20
106.1020583963
 10
115.7967994662
 20
106.1343656256
 10
115.7973833236
 20
106.1639404435
 10
115.7980567476
 20
106.1905857673
 10
115.798815114
 20
106.2141185207
 10
115.7996531026
 20
106.2343632082
 10
115.8005640855
 20
106.2511502896
 10
115.8015406494
 20
106.2643412836
 10
115.8025751144
 20
106.2738353482
 10
115.8036597117
 20
106.2795639147
 10
115.8047861314
 20
106.2814846526
  0
LWPOLYLINE
  5
46C
100
AcDbEntity
  8
CURVE
100
AcDbPolyline
 62
7
  6
CONTINUOUS
 90
3
 70
0
 10
114.9289180061
 20
113.9475338127
 10
114.8931489688
 20
111.6928856767
 10
114.8701802436
 20
109.4378976161
  0
LWPOLYLINE
  5
46D
100
AcDbEntity
  8
ASSI
100
AcDbPolyline
 62
7
  6
CONTINUOUS
 90
3
 70
0
 10
114.9289180061
 20
113.9475338127
 10
114.8931489688
 20
111.6928856767
 10
114.8701802436
 20
109.4378976161
  0
LINE
  5
46E
100
AcDbEntity
  8
0
100
AcDbLine
 62
253
  6
CONTINUOUS
 10
114.9673060552
 20
115.6035058773
 11
114.9965700259
 21
116.8118868692
  0
LINE
  5
46F
100
AcDbEntity
  8
0
100
AcDbLine
 62
253
  6
CONTINUOUS
 10
115.0294848937
 20
118.0201738899
 11
115.1150632046
 21
120.6863114608
  0
LINE
  5
470
100
AcDbEntity
  8
0
100
AcDbLine
 62
253
  6
CONTINUOUS
 10
115.0660506586
 20
119.2283559044
 11
115.1062673207
 21
120.4364218773
  0
LWPOLYLINE
  5
471
100
AcDbEntity
  8
0
100
AcDbPolyline
 62
253
  6
CONTINUOUS
 90
16
 70
0
 10
114.8649227061
 20
105.7766983671
 10
114.867541217
 20
105.8287398366
 10
114.8755615999
 20
105.8802261852
 10
114.888896748
 20
105.9305982359
 10
114.9074018325
 20
105.9793089138
 10
114.9308758754
 20
106.0258291876
 10
114.9590639327
 20
106.0696538151
 10
114.9916598626
 20
106.1103068309
 10
115.028309651
 20
106.1473467155
 10
115.0686152563
 20
106.1803711903
 10
115.1121389318
 20
106.2090215869
 10
115.1584079806
 20
106.2329867424
 10
115.2069198893
 20
106.2520063787
 10
115.2571477852
 20
106.2658739297
 10
115.308546159
 20
106.2744387841
 10
115.3605567891
 20
106.2776079219
  0
LWPOLYLINE
  5
472
100
AcDbEntity
  8
ASSI
100
AcDbPolyline
 62
253
  6
CONTINUOUS
 90
16
 70
0
 10
114.8649227061
 20
105.7766983671
 10
114.867541217
 20
105.8287398366
 10
114.8755615999
 20
105.8802261852
 10
114.888896748
 20
105.9305982359
 10
114.9074018325
 20
105.9793089138
 10
114.9308758754
 20
106.0258291876
 10
114.9590639327
 20
106.0696538151
 10
114.9916598626
 20
106.1103068309
 10
115.028309651
 20
106.1473467155
 10
115.0686152563
 20
106.1803711903
 10
115.1121389318
 20
106.2090215869
 10
115.1584079806
 20
106.2329867424
 10
115.2069198893
 20
106.2520063787
 10
115.2571477852
 20
106.2658739297
 10
115.308546159
 20
106.2744387841
 10
115.3605567891
 20
106.2776079219
  0
LWPOLYLINE
  5
473
100
AcDbEntity
  8
0
100
AcDbPolyline
 62
253
  6
CONTINUOUS
 90
16
 70
0
 10
115.3109572602
 20
105.7807459184
 10
115.3137214237
 20
105.8337323308
 10
115.3217675039
 20
105.8849803238
 10
115.3348779768
 20
105.9346079777
 10
115.3531638267
 20
105.9829375581
 10
115.3766470939
 20
106.0296484857
 10
115.404803726
 20
106.0736186888
 10
115.437181683
 20
106.1141588913
 10
115.4737148039
 20
106.151195328
 10
115.5139516056
 20
106.1842938107
 10
115.5573022132
 20
106.2129361473
 10
115.6033532627
 20
106.236858417
 10
115.651734109
 20
106.2558976927
 10
115.7018976544
 20
106.2697965589
 10
115.7531351543
 20
106.2783425935
 10
115.8047861314
 20
106.2814846526
  0
LWPOLYLINE
  5
474
100
AcDbEntity
  8
ASSI
100
AcDbPolyline
 62
253
  6
CONTINUOUS
 90
16
 70
0
 10
115.3109572602
 20
105.7807459184
 10
115.3137214237
 20
105.8337323308
 10
115.3217675039
 20
105.8849803238
 10
115.3348779768
 20
105.9346079777
 10
115.3531638267
 20
105.9829375581
 10
115.3766470939
 20
106.0296484857
 10
115.404803726
 20
106.0736186888
 10
115.437181683
 20
106.1141588913
 10
115.4737148039
 20
106.151195328
 10
115.5139516056
 20
106.1842938107
 10
115.5573022132
 20
106.2129361473
 10
115.6033532627
 20
106.236858417
 10
115.651734109
 20
106.2558976927
 10
115.7018976544
 20
106.2697965589
 10
115.7531351543
 20
106.2783425935
 10
115.8047861314
 20
106.2814846526
  0
LINE
  5
475
100
AcDbEntity
  8
ASSI
100
AcDbLine
 62
7
  6
CONTINUOUS
 10
114.8794569306
 20
103.0016390658
 11
114.8793544144
 21
103.0016399249
  0
LINE
  5
476
100
AcDbEntity
  8
SUPERFICI
100
AcDbLine
 62
7
  6
CONTINUOUS
 10
114.8793539332
 20
103.0016399242
 11
114.8794569306
 21
103.0016390637
  0
LINE
  5
477
100
AcDbEntity
  8
0
100
AcDbLine
 62
253
  6
CONTINUOUS
 10
116.9049440618
 20
128.1487638123
 11
116.9100907772
 21
128.045039554
  0
LINE
  5
478
100
AcDbEntity
  8
ASSI
100
AcDbLine
 62
253
  6
CONTINUOUS
 10
116.9049440618
 20
128.1487638123
 11
116.9100907772
 21
128.045039554
  0
LINE
  5
479
100
AcDbEntity
  8
0
100
AcDbLine
 62
253
  6
CONTINUOUS
 10
116.9005929275
 20
128.247962698
 11
116.9049440618
 21
128.1487638123
  0
LINE
  5
47A
100
AcDbEntity
  8
ASSI
100
AcDbLine
 62
253
  6
CONTINUOUS
 10
116.9005929275
 20
128.247962698
 11
116.9049440618
 21
128.1487638123
  0
LINE
  5
47B
100
AcDbEntity
  8
0
100
AcDbLine
 62
253
  6
CONTINUOUS
 10
116.8959616152
 20
84.6610207757
 11
116.8987766257
 21
84.7454306023
  0
LINE
  5
47C
100
AcDbEntity
  8
ASSI
100
AcDbLine
 62
253
  6
CONTINUOUS
 10
116.8959616152
 20
84.6610207757
 11
116.8987766257
 21
84.7454306023
  0
LINE
  5
47D
100
AcDbEntity
  8
0
100
AcDbLine
 62
253
  6
CONTINUOUS
 10
116.8987766257
 20
84.7454306023
 11
116.9026562663
 21
84.8407234242
  0
LINE
  5
47E
100
AcDbEntity
  8
ASSI
100
AcDbLine
 62
253
  6
CONTINUOUS
 10
116.8987766257
 20
84.7454306023
 11
116.9026562663
 21
84.8407234242
  0
LWPOLYLINE
  5
47F
100
AcDbEntity
  8
0
100
AcDbPolyline
 62
253
  6
CONTINUOUS
 90
3
 70
0
 10
116.9026562663
 20
84.8407234242
 10
116.9074312635
 20
84.9427417163
 10
116.9100907038
 20
84.9948882045
  0
LWPOLYLINE
  5
480
100
AcDbEntity
  8
ASSI
100
AcDbPolyline
 62
253
  6
CONTINUOUS
 90
3
 70
0
 10
116.9026562663
 20
84.8407234242
 10
116.9074312635
 20
84.9427417163
 10
116.9100907038
 20
84.9948882045
  0
LINE
  5
481
100
AcDbEntity
  8
0
100
AcDbLine
 62
7
  6
CONTINUOUS
 10
119.8140685515
 20
124.4534554785
 11
119.8140685515
 21
124.1919847984
  0
LINE
  5
482
100
AcDbEntity
  8
ASSI
100
AcDbLine
 62
7
  6
CONTINUOUS
 10
119.8140685515
 20
124.4534554785
 11
119.8140685515
 21
124.1919847984
  0
LINE
  5
483
100
AcDbEntity
  8
0
100
AcDbLine
 62
7
  6
CONTINUOUS
 10
119.8140685515
 20
88.8479429562
 11
119.8140685515
 21
88.5864722761
  0
LINE
  5
484
100
AcDbEntity
  8
ASSI
100
AcDbLine
 62
7
  6
CONTINUOUS
 10
119.8140685515
 20
88.8479429562
 11
119.8140685515
 21
88.5864722761
  0
LINE
  5
485
100
AcDbEntity
  8
0
100
AcDbLine
 62
7
  6
CONTINUOUS
 10
115.3557905072
 20
106.2775663272
 11
115.3369884058
 21
106.2765060267
  0
LINE
  5
486
100
AcDbEntity
  8
ASSI
100
AcDbLine
 62
7
  6
CONTINUOUS
 10
115.3557905072
 20
106.2775663272
 11
115.3369884058
 21
106.2765060267
  0
LINE
  5
487
100
AcDbEntity
  8
0
100
AcDbLine
 62
7
  6
CONTINUOUS
 10
114.864922963
 20
105.7766983676
 11
114.8601575018
 21
105.7766490542
  0
LINE
  5
488
100
AcDbEntity
  8
ASSI
100
AcDbLine
 62
7
  6
CONTINUOUS
 10
114.864922963
 20
105.7766983676
 11
114.8601575018
 21
105.7766490542
  0
LINE
  5
489
100
AcDbEntity
  8
0
100
AcDbLine
 62
253
  6
CONTINUOUS
 10
115.3109572479
 20
105.7807459228
 11
114.864922963
 21
105.7766983676
  0
LINE
  5
48A
100
AcDbEntity
  8
ASSI
100
AcDbLine
 62
253
  6
CONTINUOUS
 10
115.3109572479
 20
105.7807459228
 11
114.864922963
 21
105.7766983676
  0
LINE
  5
48B
100
AcDbEntity
  8
0
100
AcDbLine
 62
253
  6
CONTINUOUS
 10
120.2140685515
 20
105.8200590595
 11
115.796060925
 21
105.7815036911
  0
LINE
  5
48C
100
AcDbEntity
  8
ASSI
100
AcDbLine
 62
253
  6
CONTINUOUS
 10
120.2140685515
 20
105.8200590595
 11
115.796060925
 21
105.7815036911
  0
LINE
  5
48D
100
AcDbEntity
  8
0
100
AcDbLine
 62
7
  6
CONTINUOUS
 10
120.2140685515
 20
106.3199638773
 11
115.3558699106
 21
106.2775670201
  0
LINE
  5
48E
100
AcDbEntity
  8
ASSI
100
AcDbLine
 62
7
  6
CONTINUOUS
 10
120.2140685515
 20
106.3199638773
 11
115.3558699106
 21
106.2775670201
  0
LINE
  5
48F
100
AcDbEntity
  8
0
100
AcDbLine
 62
253
  6
CONTINUOUS
 10
115.7960609263
 20
105.7815036911
 11
115.3109572602
 21
105.7807459184
  0
LINE
  5
490
100
AcDbEntity
  8
ASSI
100
AcDbLine
 62
253
  6
CONTINUOUS
 10
115.7960609263
 20
105.7815036911
 11
115.3109572602
 21
105.7807459184
  0
LINE
  5
491
100
AcDbEntity
  8
0
100
AcDbLine
 62
7
  6
CONTINUOUS
 10
115.3557905072
 20
106.7623614275
 11
120.2140685515
 21
106.7199638773
  0
LINE
  5
492
100
AcDbEntity
  8
ASSI
100
AcDbLine
 62
7
  6
CONTINUOUS
 10
115.3557905072
 20
106.7623614275
 11
120.2140685515
 21
106.7199638773
  0
LINE
  5
493
100
AcDbEntity
  8
0
100
AcDbLine
 62
7
  6
CONTINUOUS
 10
119.4217095984
 20
128.676668154
 11
120.2140685515
 21
119.6199638773
  0
LINE
  5
494
100
AcDbEntity
  8
ASSI
100
AcDbLine
 62
7
  6
CONTINUOUS
 10
119.4217095984
 20
128.676668154
 11
120.2140685515
 21
119.6199638773
  0
LINE
  5
495
100
AcDbEntity
  8
0
100
AcDbLine
 62
7
  6
CONTINUOUS
 10
120.2140685515
 20
119.6199638773
 11
120.2140685515
 21
106.7199638773
  0
LINE
  5
496
100
AcDbEntity
  8
ASSI
100
AcDbLine
 62
7
  6
CONTINUOUS
 10
120.2140685515
 20
119.6199638773
 11
120.2140685515
 21
106.7199638773
  0
LINE
  5
497
100
AcDbEntity
  8
0
100
AcDbLine
 62
7
  6
CONTINUOUS
 10
120.2140685515
 20
93.4199638773
 11
120.2140685515
 21
106.3199638773
  0
LINE
  5
498
100
AcDbEntity
  8
ASSI
100
AcDbLine
 62
7
  6
CONTINUOUS
 10
120.2140685515
 20
93.4199638773
 11
120.2140685515
 21
106.3199638773
  0
LINE
  5
499
100
AcDbEntity
  8
0
100
AcDbLine
 62
7
  6
CONTINUOUS
 10
119.4217095984
 20
84.3632596007
 11
120.2140685515
 21
93.4199638773
  0
LINE
  5
49A
100
AcDbEntity
  8
ASSI
100
AcDbLine
 62
7
  6
CONTINUOUS
 10
119.4217095984
 20
84.3632596007
 11
120.2140685515
 21
93.4199638773
  0
LINE
  5
49B
100
AcDbEntity
  8
0
100
AcDbLine
 62
253
  6
CONTINUOUS
 10
115.3109573274
 20
107.2591818432
 11
115.7960609932
 21
107.258424063
  0
LINE
  5
49C
100
AcDbEntity
  8
ASSI
100
AcDbLine
 62
253
  6
CONTINUOUS
 10
115.3109573274
 20
107.2591818432
 11
115.7960609932
 21
107.258424063
  0
LINE
  5
49D
100
AcDbEntity
  8
0
100
AcDbLine
 62
253
  6
CONTINUOUS
 10
115.796060992
 20
107.258424063
 11
120.2140685515
 21
107.2198686951
  0
LINE
  5
49E
100
AcDbEntity
  8
ASSI
100
AcDbLine
 62
253
  6
CONTINUOUS
 10
115.796060992
 20
107.258424063
 11
120.2140685515
 21
107.2198686951
  0
LINE
  5
49F
100
AcDbEntity
  8
0
100
AcDbLine
 62
253
  6
CONTINUOUS
 10
114.864922963
 20
107.2632293871
 11
115.3109572481
 21
107.2591818353
  0
LINE
  5
4A0
100
AcDbEntity
  8
ASSI
100
AcDbLine
 62
253
  6
CONTINUOUS
 10
114.864922963
 20
107.2632293871
 11
115.3109572481
 21
107.2591818353
  0
LINE
  5
4A1
100
AcDbEntity
  8
0
100
AcDbLine
 62
7
  6
CONTINUOUS
 10
114.8648544305
 20
107.2632317233
 11
114.8601575347
 21
107.2632787057
  0
LINE
  5
4A2
100
AcDbEntity
  8
ASSI
100
AcDbLine
 62
7
  6
CONTINUOUS
 10
114.8648544305
 20
107.2632317233
 11
114.8601575347
 21
107.2632787057
  0
LINE
  5
4A3
100
AcDbEntity
  8
0
100
AcDbLine
 62
253
  6
CONTINUOUS
 10
119.8140685515
 20
124.4534554785
 11
119.7911928312
 21
124.4534554785
  0
LINE
  5
4A4
100
AcDbEntity
  8
ASSI
100
AcDbLine
 62
253
  6
CONTINUOUS
 10
119.8140685515
 20
124.4534554785
 11
119.7911928312
 21
124.4534554785
  0
LWPOLYLINE
  5
4A5
100
AcDbEntity
  8
0
100
AcDbPolyline
 62
253
  6
CONTINUOUS
 90
4
 70
0
 10
115.7592847094
 20
127.3972146946
 10
115.7649866062
 20
127.3969138774
 10
115.7754660285
 20
127.3964081382
 10
116.2446017385
 20
127.3757803558
  0
LWPOLYLINE
  5
4A6
100
AcDbEntity
  8
ASSI
100
AcDbPolyline
 62
253
  6
CONTINUOUS
 90
4
 70
0
 10
115.7592847094
 20
127.3972146946
 10
115.7649866062
 20
127.3969138774
 10
115.7754660285
 20
127.3964081382
 10
116.2446017385
 20
127.3757803558
  0
LINE
  5
4A7
100
AcDbEntity
  8
0
100
AcDbLine
 62
7
  6
CONTINUOUS
 10
115.40889718
 20
127.3901286073
 11
115.4082751481
 21
127.3902754936
  0
LINE
  5
4A8
100
AcDbEntity
  8
ASSI
100
AcDbLine
 62
7
  6
CONTINUOUS
 10
115.40889718
 20
127.3901286073
 11
115.4082751481
 21
127.3902754936
  0
LINE
  5
4A9
100
AcDbEntity
  8
0
100
AcDbLine
 62
7
  6
CONTINUOUS
 10
116.5438506887
 20
128.5258459594
 11
116.456822482
 21
128.5180968016
  0
LINE
  5
4AA
100
AcDbEntity
  8
ASSI
100
AcDbLine
 62
7
  6
CONTINUOUS
 10
116.5438506887
 20
128.5258459594
 11
116.456822482
 21
128.5180968016
  0
LINE
  5
4AB
100
AcDbEntity
  8
0
100
AcDbLine
 62
253
  6
CONTINUOUS
 10
116.9100907772
 20
128.045039554
 11
119.4652542946
 21
128.1789499997
  0
LINE
  5
4AC
100
AcDbEntity
  8
ASSI
100
AcDbLine
 62
253
  6
CONTINUOUS
 10
116.9100907772
 20
128.045039554
 11
119.4652542946
 21
128.1789499997
  0
LINE
  5
4AD
100
AcDbEntity
  8
0
100
AcDbLine
 62
7
  6
CONTINUOUS
 10
116.5444596951
 20
128.5258778761
 11
119.4217095984
 21
128.676668154
  0
LINE
  5
4AE
100
AcDbEntity
  8
ASSI
100
AcDbLine
 62
7
  6
CONTINUOUS
 10
116.5444596951
 20
128.5258778761
 11
119.4217095984
 21
128.676668154
  0
LWPOLYLINE
  5
4AF
100
AcDbEntity
  8
0
100
AcDbPolyline
 62
253
  6
CONTINUOUS
 90
5
 70
0
 10
115.7592718737
 20
127.397215229
 10
115.4551971174
 20
127.3906106219
 10
115.4304113313
 20
127.3902113516
 10
115.4146742884
 20
127.3900505763
 10
115.40889718
 20
127.3901286073
  0
LWPOLYLINE
  5
4B0
100
AcDbEntity
  8
ASSI
100
AcDbPolyline
 62
253
  6
CONTINUOUS
 90
5
 70
0
 10
115.7592718737
 20
127.397215229
 10
115.4551971174
 20
127.3906106219
 10
115.4304113313
 20
127.3902113516
 10
115.4146742884
 20
127.3900505763
 10
115.40889718
 20
127.3901286073
  0
ARC
  5
4B1
100
AcDbEntity
  8
0
100
AcDbCircle
 62
7
  6
CONTINUOUS
 10
116.6072628499
 20
85.7124053199
 40
1.2
100
AcDbArc
 50
182.9905824671
 51
267.0000000773
  0
ARC
  5
4B2
100
AcDbEntity
  8
ASSI
100
AcDbCircle
 62
7
  6
CONTINUOUS
 10
116.6072628499
 20
85.7124053199
 40
1.2
100
AcDbArc
 50
182.9905824671
 51
267.0000000773
  0
ARC
  5
4B3
100
AcDbEntity
  8
0
100
AcDbCircle
 62
7
  6
CONTINUOUS
 10
115.3601537881
 20
105.7775853657
 40
0.5
100
AcDbArc
 50
90.5575989706
 51
180.1072238528
  0
ARC
  5
4B4
100
AcDbEntity
  8
ASSI
100
AcDbCircle
 62
7
  6
CONTINUOUS
 10
115.3601537881
 20
105.7775853657
 40
0.5
100
AcDbArc
 50
90.5575989706
 51
180.1072238528
  0
ARC
  5
4B5
100
AcDbEntity
  8
0
100
AcDbCircle
 62
7
  6
CONTINUOUS
 10
116.6072618643
 20
127.3275223831
 40
1.2
100
AcDbArc
 50
92.9999527971
 51
177.0094126144
  0
ARC
  5
4B6
100
AcDbEntity
  8
ASSI
100
AcDbCircle
 62
7
  6
CONTINUOUS
 10
116.6072618643
 20
127.3275223831
 40
1.2
100
AcDbArc
 50
92.9999527971
 51
177.0094126144
  0
ARC
  5
4B7
100
AcDbEntity
  8
0
100
AcDbCircle
 62
7
  6
CONTINUOUS
 10
115.3601537881
 20
107.2623423889
 40
0.5
100
AcDbArc
 50
267.3411443881
 51
269.4424010294
  0
ARC
  5
4B8
100
AcDbEntity
  8
ASSI
100
AcDbCircle
 62
7
  6
CONTINUOUS
 10
115.3601537881
 20
107.2623423889
 40
0.5
100
AcDbArc
 50
267.3411443881
 51
269.4424010294
  0
ARC
  5
4B9
100
AcDbEntity
  8
0
100
AcDbCircle
 62
7
  6
CONTINUOUS
 10
119.5140685515
 20
88.5864722761
 40
0.3
100
AcDbArc
 50
334.999934893
 51
0.0004327973
  0
ARC
  5
4BA
100
AcDbEntity
  8
ASSI
100
AcDbCircle
 62
7
  6
CONTINUOUS
 10
119.5140685515
 20
88.5864722761
 40
0.3
100
AcDbArc
 50
334.999934893
 51
0.0004327973
  0
ARC
  5
4BB
100
AcDbEntity
  8
0
100
AcDbCircle
 62
7
  6
CONTINUOUS
 10
119.5140685515
 20
124.4534554785
 40
0.3
100
AcDbArc
 50
359.9995672027
 51
25.0000856102
  0
ARC
  5
4BC
100
AcDbEntity
  8
ASSI
100
AcDbCircle
 62
7
  6
CONTINUOUS
 10
119.5140685515
 20
124.4534554785
 40
0.3
100
AcDbArc
 50
359.9995672027
 51
25.0000856102
  0
ELLIPSE
  5
4BD
100
AcDbEntity
  8
0
100
AcDbEllipse
 62
7
  6
CONTINUOUS
 10
170.2305216302
 20
128.650063814
 30
0.0
 11
0.2
 21
-0.0
 31
0.0
 40
0.0524077793
 41
-1.5707963268
 42
-0.5235987756
  0
ELLIPSE
  5
4BE
100
AcDbEntity
  8
0
100
AcDbEllipse
 62
7
  6
CONTINUOUS
 10
166.8614617378
 20
128.650063814
 30
0.0
 11
0.2
 21
-0.0
 31
0.0
 40
0.0524077793
 41
-2.617993878
 42
-1.5707963268
  0
ELLIPSE
  5
4BF
100
AcDbEntity
  8
0
100
AcDbEllipse
 62
7
  6
CONTINUOUS
 10
159.0305216302
 20
128.650063814
 30
0.0
 11
0.2
 21
0.0
 31
0.0
 40
0.0524077793
 41
-1.5707963268
 42
-0.5235987756
  0
ELLIPSE
  5
4C0
100
AcDbEntity
  8
0
100
AcDbEllipse
 62
7
  6
CONTINUOUS
 10
155.6614617378
 20
128.650063814
 30
0.0
 11
0.2
 21
-0.0
 31
0.0
 40
0.0524077793
 41
-2.617993878
 42
-1.5707963268
  0
ELLIPSE
  5
4C1
100
AcDbEntity
  8
0
100
AcDbEllipse
 62
7
  6
CONTINUOUS
 10
144.3614617378
 20
128.650063814
 30
0.0
 11
0.2
 21
0.0
 31
0.0
 40
0.0524077793
 41
-2.617993878
 42
-1.5707963268
  0
ELLIPSE
  5
4C2
100
AcDbEntity
  8
0
100
AcDbEllipse
 62
7
  6
CONTINUOUS
 10
147.7305216302
 20
128.650063814
 30
0.0
 11
0.2
 21
0.0
 31
0.0
 40
0.0524077793
 41
-1.5707963268
 42
-0.5235987756
  0
ELLIPSE
  5
4C3
100
AcDbEntity
  8
0
100
AcDbEllipse
 62
7
  6
CONTINUOUS
 10
136.5305216302
 20
128.650063814
 30
0.0
 11
0.2
 21
0.0
 31
0.0
 40
0.0524077793
 41
-1.5707963268
 42
-0.5235987756
  0
ELLIPSE
  5
4C4
100
AcDbEntity
  8
0
100
AcDbEllipse
 62
7
  6
CONTINUOUS
 10
133.1614617378
 20
128.650063814
 30
0.0
 11
0.2
 21
-0.0
 31
0.0
 40
0.0524077793
 41
-2.617993878
 42
-1.5707963268
  0
ELLIPSE
  5
4C5
100
AcDbEntity
  8
0
100
AcDbEllipse
 62
7
  6
CONTINUOUS
 10
129.9469788783
 20
107.2199829165
 30
0.0
 11
0.4745319423
 21
0.1581451893
 31
0.0
 40
0.9996192872
 41
2.8200172282
 42
4.3905851209
  0
ELLIPSE
  5
4C6
100
AcDbEntity
  8
0
100
AcDbEllipse
 62
7
  6
CONTINUOUS
 10
173.4450044897
 20
107.2199829165
 30
0.0
 11
0.4745319423
 21
-0.1581451893
 31
0.0
 40
0.9996192872
 41
-1.2489924674
 42
0.3215754254
  0
ELLIPSE
  5
4C7
100
AcDbEntity
  8
0
100
AcDbEllipse
 62
7
  6
CONTINUOUS
 10
129.9665857054
 20
128.1782671925
 30
0.0
 11
0.4962344879
 21
0.0628595572
 31
0.0
 40
0.9963456432
 41
1.4443370775
 42
3.0137634083
  0
ELLIPSE
  5
4C8
100
AcDbEntity
  8
0
100
AcDbEllipse
 62
7
  6
CONTINUOUS
 10
173.4253976626
 20
128.1782671925
 30
0.0
 11
0.4962344879
 21
-0.0628595572
 31
0.0
 40
0.9963456432
 41
0.1278292453
 42
1.6972555761
  0
ELLIPSE
  5
4C9
100
AcDbEntity
  8
ASSI
100
AcDbEllipse
 62
7
  6
CONTINUOUS
 10
170.2305216302
 20
128.650063814
 30
0.0
 11
0.2
 21
-0.0
 31
0.0
 40
0.0524077793
 41
-1.5707963268
 42
-0.5235987756
  0
ELLIPSE
  5
4CA
100
AcDbEntity
  8
ASSI
100
AcDbEllipse
 62
7
  6
CONTINUOUS
 10
166.8614617378
 20
128.650063814
 30
0.0
 11
0.2
 21
-0.0
 31
0.0
 40
0.0524077793
 41
-2.617993878
 42
-1.5707963268
  0
ELLIPSE
  5
4CB
100
AcDbEntity
  8
ASSI
100
AcDbEllipse
 62
7
  6
CONTINUOUS
 10
159.0305216302
 20
128.650063814
 30
0.0
 11
0.2
 21
0.0
 31
0.0
 40
0.0524077793
 41
-1.5707963268
 42
-0.5235987756
  0
ELLIPSE
  5
4CC
100
AcDbEntity
  8
ASSI
100
AcDbEllipse
 62
7
  6
CONTINUOUS
 10
155.6614617378
 20
128.650063814
 30
0.0
 11
0.2
 21
-0.0
 31
0.0
 40
0.0524077793
 41
-2.617993878
 42
-1.5707963268
  0
ELLIPSE
  5
4CD
100
AcDbEntity
  8
ASSI
100
AcDbEllipse
 62
7
  6
CONTINUOUS
 10
144.3614617378
 20
128.650063814
 30
0.0
 11
0.2
 21
0.0
 31
0.0
 40
0.0524077793
 41
-2.617993878
 42
-1.5707963268
  0
ELLIPSE
  5
4CE
100
AcDbEntity
  8
ASSI
100
AcDbEllipse
 62
7
  6
CONTINUOUS
 10
147.7305216302
 20
128.650063814
 30
0.0
 11
0.2
 21
0.0
 31
0.0
 40
0.0524077793
 41
-1.5707963268
 42
-0.5235987756
  0
ELLIPSE
  5
4CF
100
AcDbEntity
  8
ASSI
100
AcDbEllipse
 62
7
  6
CONTINUOUS
 10
136.5305216302
 20
128.650063814
 30
0.0
 11
0.2
 21
0.0
 31
0.0
 40
0.0524077793
 41
-1.5707963268
 42
-0.5235987756
  0
ELLIPSE
  5
4D0
100
AcDbEntity
  8
ASSI
100
AcDbEllipse
 62
7
  6
CONTINUOUS
 10
133.1614617378
 20
128.650063814
 30
0.0
 11
0.2
 21
-0.0
 31
0.0
 40
0.0524077793
 41
-2.617993878
 42
-1.5707963268
  0
ELLIPSE
  5
4D1
100
AcDbEntity
  8
ASSI
100
AcDbEllipse
 62
7
  6
CONTINUOUS
 10
129.9469788783
 20
107.2199829165
 30
0.0
 11
0.4745319423
 21
0.1581451893
 31
0.0
 40
0.9996192872
 41
2.8200172282
 42
4.3905851209
  0
ELLIPSE
  5
4D2
100
AcDbEntity
  8
ASSI
100
AcDbEllipse
 62
7
  6
CONTINUOUS
 10
173.4450044897
 20
107.2199829165
 30
0.0
 11
0.4745319423
 21
-0.1581451893
 31
0.0
 40
0.9996192872
 41
-1.2489924674
 42
0.3215754254
  0
ELLIPSE
  5
4D3
100
AcDbEntity
  8
ASSI
100
AcDbEllipse
 62
7
  6
CONTINUOUS
 10
129.9665857054
 20
128.1782671925
 30
0.0
 11
0.4962344879
 21
0.0628595572
 31
0.0
 40
0.9963456432
 41
1.4443370775
 42
3.0137634083
  0
ELLIPSE
  5
4D4
100
AcDbEntity
  8
ASSI
100
AcDbEllipse
 62
7
  6
CONTINUOUS
 10
173.4253976626
 20
128.1782671925
 30
0.0
 11
0.4962344879
 21
-0.0628595572
 31
0.0
 40
0.9963456432
 41
0.1278292453
 42
1.6972555761
  0
ELLIPSE
  5
4D5
100
AcDbEntity
  8
0
100
AcDbEllipse
 62
7
  6
CONTINUOUS
 10
133.1614617378
 20
84.3898639406
 30
0.0
 11
0.2
 21
-0.0
 31
0.0
 40
0.0524077793
 41
1.5707963268
 42
2.617993878
  0
ELLIPSE
  5
4D6
100
AcDbEntity
  8
0
100
AcDbEllipse
 62
7
  6
CONTINUOUS
 10
136.5305216302
 20
84.3898639406
 30
0.0
 11
0.2
 21
0.0
 31
0.0
 40
0.0524077793
 41
0.5235987756
 42
1.5707963268
  0
ELLIPSE
  5
4D7
100
AcDbEntity
  8
0
100
AcDbEllipse
 62
7
  6
CONTINUOUS
 10
144.3614617378
 20
84.3898639406
 30
0.0
 11
0.2
 21
0.0
 31
0.0
 40
0.0524077793
 41
1.5707963268
 42
2.617993878
  0
ELLIPSE
  5
4D8
100
AcDbEntity
  8
0
100
AcDbEllipse
 62
7
  6
CONTINUOUS
 10
147.7305216302
 20
84.3898639406
 30
0.0
 11
0.2
 21
0.0
 31
0.0
 40
0.0524077793
 41
0.5235987756
 42
1.5707963268
  0
ELLIPSE
  5
4D9
100
AcDbEntity
  8
0
100
AcDbEllipse
 62
7
  6
CONTINUOUS
 10
159.0305216302
 20
84.3898639406
 30
0.0
 11
0.2
 21
-0.0
 31
0.0
 40
0.0524077793
 41
0.5235987756
 42
1.5707963268
  0
ELLIPSE
  5
4DA
100
AcDbEntity
  8
0
100
AcDbEllipse
 62
7
  6
CONTINUOUS
 10
155.6614617378
 20
84.3898639406
 30
0.0
 11
0.2
 21
-0.0
 31
0.0
 40
0.0524077793
 41
1.5707963268
 42
2.617993878
  0
ELLIPSE
  5
4DB
100
AcDbEntity
  8
0
100
AcDbEllipse
 62
7
  6
CONTINUOUS
 10
166.8614617378
 20
84.3898639406
 30
0.0
 11
0.2
 21
-0.0
 31
0.0
 40
0.0524077793
 41
1.5707963268
 42
2.617993878
  0
ELLIPSE
  5
4DC
100
AcDbEntity
  8
0
100
AcDbEllipse
 62
7
  6
CONTINUOUS
 10
170.2305216302
 20
84.3898639406
 30
0.0
 11
0.2
 21
-0.0
 31
0.0
 40
0.0524077793
 41
0.5235987756
 42
1.5707963268
  0
ELLIPSE
  5
4DD
100
AcDbEntity
  8
0
100
AcDbEllipse
 62
7
  6
CONTINUOUS
 10
173.4450044897
 20
105.8199448381
 30
0.0
 11
0.4745319423
 21
0.1581451893
 31
0.0
 40
0.9996192872
 41
-0.3215754254
 42
1.2489924673
  0
ELLIPSE
  5
4DE
100
AcDbEntity
  8
0
100
AcDbEllipse
 62
7
  6
CONTINUOUS
 10
129.9469788783
 20
105.8199448381
 30
0.0
 11
0.4745319423
 21
-0.1581451893
 31
0.0
 40
0.9996192872
 41
1.8926001863
 42
3.463168079
  0
ELLIPSE
  5
4DF
100
AcDbEntity
  8
0
100
AcDbEllipse
 62
7
  6
CONTINUOUS
 10
173.4253976626
 20
84.8616605622
 30
0.0
 11
0.4962344879
 21
0.0628595572
 31
0.0
 40
0.9963456432
 41
-1.6972555761
 42
-0.1278292453
  0
ELLIPSE
  5
4E0
100
AcDbEntity
  8
0
100
AcDbEllipse
 62
7
  6
CONTINUOUS
 10
129.9665857054
 20
84.8616605622
 30
0.0
 11
0.4962344879
 21
-0.0628595572
 31
0.0
 40
0.9963456432
 41
-3.0137634083
 42
-1.4443370775
  0
ELLIPSE
  5
4E1
100
AcDbEntity
  8
ASSI
100
AcDbEllipse
 62
7
  6
CONTINUOUS
 10
133.1614617378
 20
84.3898639406
 30
0.0
 11
0.2
 21
-0.0
 31
0.0
 40
0.0524077793
 41
1.5707963268
 42
2.617993878
  0
ELLIPSE
  5
4E2
100
AcDbEntity
  8
ASSI
100
AcDbEllipse
 62
7
  6
CONTINUOUS
 10
136.5305216302
 20
84.3898639406
 30
0.0
 11
0.2
 21
0.0
 31
0.0
 40
0.0524077793
 41
0.5235987756
 42
1.5707963268
  0
ELLIPSE
  5
4E3
100
AcDbEntity
  8
ASSI
100
AcDbEllipse
 62
7
  6
CONTINUOUS
 10
144.3614617378
 20
84.3898639406
 30
0.0
 11
0.2
 21
0.0
 31
0.0
 40
0.0524077793
 41
1.5707963268
 42
2.617993878
  0
ELLIPSE
  5
4E4
100
AcDbEntity
  8
ASSI
100
AcDbEllipse
 62
7
  6
CONTINUOUS
 10
147.7305216302
 20
84.3898639406
 30
0.0
 11
0.2
 21
0.0
 31
0.0
 40
0.0524077793
 41
0.5235987756
 42
1.5707963268
  0
ELLIPSE
  5
4E5
100
AcDbEntity
  8
ASSI
100
AcDbEllipse
 62
7
  6
CONTINUOUS
 10
159.0305216302
 20
84.3898639406
 30
0.0
 11
0.2
 21
-0.0
 31
0.0
 40
0.0524077793
 41
0.5235987756
 42
1.5707963268
  0
ELLIPSE
  5
4E6
100
AcDbEntity
  8
ASSI
100
AcDbEllipse
 62
7
  6
CONTINUOUS
 10
155.6614617378
 20
84.3898639406
 30
0.0
 11
0.2
 21
-0.0
 31
0.0
 40
0.0524077793
 41
1.5707963268
 42
2.617993878
  0
ELLIPSE
  5
4E7
100
AcDbEntity
  8
ASSI
100
AcDbEllipse
 62
7
  6
CONTINUOUS
 10
166.8614617378
 20
84.3898639406
 30
0.0
 11
0.2
 21
-0.0
 31
0.0
 40
0.0524077793
 41
1.5707963268
 42
2.617993878
  0
ELLIPSE
  5
4E8
100
AcDbEntity
  8
ASSI
100
AcDbEllipse
 62
7
  6
CONTINUOUS
 10
170.2305216302
 20
84.3898639406
 30
0.0
 11
0.2
 21
-0.0
 31
0.0
 40
0.0524077793
 41
0.5235987756
 42
1.5707963268
  0
ELLIPSE
  5
4E9
100
AcDbEntity
  8
ASSI
100
AcDbEllipse
 62
7
  6
CONTINUOUS
 10
173.4450044897
 20
105.8199448381
 30
0.0
 11
0.4745319423
 21
0.1581451893
 31
0.0
 40
0.9996192872
 41
-0.3215754254
 42
1.2489924673
  0
ELLIPSE
  5
4EA
100
AcDbEntity
  8
ASSI
100
AcDbEllipse
 62
7
  6
CONTINUOUS
 10
129.9469788783
 20
105.8199448381
 30
0.0
 11
0.4745319423
 21
-0.1581451893
 31
0.0
 40
0.9996192872
 41
1.8926001863
 42
3.463168079
  0
ELLIPSE
  5
4EB
100
AcDbEntity
  8
ASSI
100
AcDbEllipse
 62
7
  6
CONTINUOUS
 10
173.4253976626
 20
84.8616605622
 30
0.0
 11
0.4962344879
 21
0.0628595572
 31
0.0
 40
0.9963456432
 41
-1.6972555761
 42
-0.1278292453
  0
ELLIPSE
  5
4EC
100
AcDbEntity
  8
ASSI
100
AcDbEllipse
 62
7
  6
CONTINUOUS
 10
129.9665857054
 20
84.8616605622
 30
0.0
 11
0.4962344879
 21
-0.0628595572
 31
0.0
 40
0.9963456432
 41
-3.0137634083
 42
-1.4443370775
  0
ENDSEC
  0
SECTION
  2
OBJECTS
  0
DICTIONARY
  5
C
100
AcDbDictionary
280
0
281
1
  3
ACAD_GROUP
350
D
  3
ACAD_MLINESTYLE
350
17
  3
ACAD_LAYOUT
350
1A
  3
ACAD_PLOTSETTINGS
350
19
  3
ACAD_PLOTSTYLENAME
350
E
  0
DICTIONARY
  5
D
102
{ACAD_REACTORS
330
C
102
}
100
AcDbDictionary
280
0
281
1
  0
ACDBDICTIONARYWDFLT
  5
E
102
{ACAD_REACTORS
330
C
102
}
100
AcDbDictionary
281
1
  3
Normal
350
F
100
AcDbDictionaryWithDefault
340
F
  0
DICTIONARY
  5
17
102
{ACAD_REACTORS
330
C
102
}
100
AcDbDictionary
280
0
281
1
  3
Standard
350
18
  0
DICTIONARY
  5
19
102
{ACAD_REACTORS
330
C
102
}
100
AcDbDictionary
281
1
  0
DICTIONARY
  5
1A
102
{ACAD_REACTORS
330
C
102
}
100
AcDbDictionary
281
1
  3
Model
350
4ED
  3
Layout1
350
4EE
  0
ACDBPLACEHOLDER
  5
F
102
{ACAD_REACTORS
330
E
102
}
  0
MLINESTYLE
  5
18
102
{ACAD_REACTORS
330
17
102
}
100
AcDbMlineStyle
  2
STANDARD
 70
0
  3

 62
256
 51
90.0
 52
90.0
 71
2
 49
0.5
 62
256
  6
BYLAYER
 49
-0.5
 62
256
  6
BYLAYER
  0
LAYOUT
  5
4ED
102
{ACAD_REACTORS
330
1A
102
}
100
AcDbPlotSettings
  1

  2
none_device
  4
ISO_A4_(297.00_x_210.00_MM)
  6

 40
0.0
 41
0.0
 42
0.0
 43
0.0
 44
297.0
 45
210.0
 46
0.0
 47
0.0
 48
0.0
 49
0.0
140
0.0
141
0.0
142
1.0
143
1.0
 70
1024
 72
1
 73
0
 74
0
  7

 75
0
147
1.0
148
0.0
149
0.0
100
AcDbLayout
  1
Model
 70
0
 71
0
 10
0.0
 20
0.0
 11
297.0
 21
210.0
 12
0.0
 22
0.0
 32
0.0
 14
0.0
 24
0.0
 34
0.0
 15
0.0
 25
0.0
 35
0.0
146
0.0
 13
0.0
 23
0.0
 33
0.0
 16
1.0
 26
0.0
 36
0.0
 17
0.0
 27
1.0
 37
0.0
 76
0
330
21F
345
0
346
0
  0
LAYOUT
  5
4EE
102
{ACAD_REACTORS
330
1A
102
}
100
AcDbPlotSettings
  1

  2
none_device
  4
ISO_A4_(297.00_x_210.00_MM)
  6

 40
0.0
 41
0.0
 42
0.0
 43
0.0
 44
297.0
 45
210.0
 46
0.0
 47
0.0
 48
0.0
 49
0.0
140
0.0
141
0.0
142
1.0
143
1.0
 70
0
 72
1
 73
0
 74
0
  7

 75
0
147
1.0
148
0.0
149
0.0
100
AcDbLayout
  1
Layout1
 70
0
 71
1
 10
0.0
 20
0.0
 11
297.0
 21
210.0
 12
0.0
 22
0.0
 32
0.0
 14
0.0
 24
0.0
 34
0.0
 15
0.0
 25
0.0
 35
0.0
146
0.0
 13
0.0
 23
0.0
 33
0.0
 16
1.0
 26
0.0
 36
0.0
 17
0.0
 27
1.0
 37
0.0
 76
0
330
220
345
0
346
0
  0
ENDSEC
  0
EOF
