  0
SECTION
  2
HEADER
  9
$ACADVER
  1
AC1021
  9
$DWGCODEPAGE
  3
ANSI_1252
  9
$EXTMAX
 10
297.0
 20
210.0
 30
0.0
  9
$EXTMIN
 10
0.0
 20
0.0
 30
0.0
  9
$LIMMIN
 10
0.0
 20
0.0
  9
$LIMMAX
 10
297.0
 20
210.0
  9
$VIEWCTR
 10
148.5
 20
105.0
  9
$VIEWSIZE
 40
210.0
  9
$CLAYER
  8
0
  9
$LTSCALE
 40
16.335
  9
$CELTYPE
  6
BYLAYER
  9
$DIMSCALE
 40
1.0
  9
$DIMASZ
 40
3.0
  9
$DIMEXO
 40
0.5
  9
$DIMDLI
 40
11.286
  9
$DIMEXE
 40
1.5
  9
$DIMCEN
 40
2.673
  9
$DIMLFAC
 40
1.0
  9
$DIMBLK
  1
_FILLED
  9
$DIMALT
 70
0
  9
$DIMALTF
 40
25.4
  9
$DIMTXT
 40
3.0
  9
$DIMTOL
 70
1
  9
$DIMLIM
 70
0
  9
$DIMTFAC
 40
1.0
  9
$DIMTP
 40
0.01
  9
$DIMTM
 40
0.01
  9
$DIMGAP
 40
0.625
  9
$DIMDSEP
 70
44
  9
$AUNITS
 70
0
  9
$PDMODE
 70
3
  9
$PDSIZE
 40
3.0
  9
$HANDSEED
  5
410
  9
$TILEMODE
 70
1
  9
$MEASUREMENT
 70
1
  9
$INSUNITS
 70
4
  0
ENDSEC
  0
SECTION
  2
CLASSES
  0
CLASS
  1
ACDBDICTIONARYWDFLT
  2
AcDbDictionaryWithDefault
  3
AutoCAD 2000
 90
0
 91
1
280
0
281
0
  0
CLASS
  1
ACDBPLACEHOLDER
  2
AcDbPlaceHolder
  3
AutoCAD 2000
 90
0
 91
1
280
0
281
0
  0
CLASS
  1
LAYOUT
  2
AcDbLayout
  3
AutoCAD 2000
 90
0
 91
0
280
0
281
0
  0
ENDSEC
  0
SECTION
  2
TABLES
  0
TABLE
  2
VPORT
  5
8
100
AcDbSymbolTable
 70
2
  0
VPORT
  5
1F4
100
AcDbSymbolTableRecord
100
AcDbViewportTableRecord
  2
*ACTIVE
 70
0
 10
0.0
 20
0.0
 11
1.0
 21
1.0
 12
148.5
 22
105.0
 13
0.0
 23
0.0
 14
1.0
 24
1.0
 15
0.0
 25
0.0
 16
0.0
 26
0.0
 36
1.0
 17
0.0
 27
0.0
 37
0.0
 40
210.0
 41
1.4142857143
 42
50.0
 43
0.0
 44
0.0
 50
0.0
 51
0.0
 71
0
 72
100
 73
1
 74
1
 75
0
 76
0
 77
0
 78
0
  0
ENDTAB
  0
TABLE
  2
LTYPE
  5
5
100
AcDbSymbolTable
 70
6
  0
LTYPE
  5
14
100
AcDbSymbolTableRecord
100
AcDbLinetypeTableRecord
  2
BYBLOCK
 70
0
  3

 72
65
 73
0
 40
0.0
  0
LTYPE
  5
15
100
AcDbSymbolTableRecord
100
AcDbLinetypeTableRecord
  2
BYLAYER
 70
0
  3

 72
65
 73
0
 40
0.0
  0
LTYPE
  5
16
100
AcDbSymbolTableRecord
100
AcDbLinetypeTableRecord
  2
CONTINUOUS
 70
64
  3
Solid line
 72
65
 73
0
 40
0.0
  0
LTYPE
  5
1F5
100
AcDbSymbolTableRecord
100
AcDbLinetypeTableRecord
  2
CENTER
 70
64
  3
____ _ ____ _ ____ _ ____ _ ____ _ ____ _ ____
 72
65
 73
4
 40
0.6
 49
0.375
 74
0
 49
-0.075
 74
0
 49
0.075
 74
0
 49
-0.075
 74
0
  0
LTYPE
  5
1F6
100
AcDbSymbolTableRecord
100
AcDbLinetypeTableRecord
  2
HIDDEN
 70
64
  3
- - - - - - - - - - - - - - - - - - - -
 72
65
 73
2
 40
0.2
 49
0.1
 74
0
 49
-0.1
 74
0
  0
LTYPE
  5
1F7
100
AcDbSymbolTableRecord
100
AcDbLinetypeTableRecord
  2
PHANTOM
 70
64
  3
_____ _ _ _____ _ _ _____ _ _ _____
 72
65
 73
6
 40
0.8
 49
0.45
 74
0
 49
-0.05
 74
0
 49
0.1
 74
0
 49
-0.05
 74
0
 49
0.1
 74
0
 49
-0.05
 74
0
  0
LTYPE
  5
1F8
100
AcDbSymbolTableRecord
100
AcDbLinetypeTableRecord
  2
DOT
 70
64
  3
. . . . . . . . . . . . . . . . . . . .
 72
65
 73
2
 40
0.2
 49
0.1
 74
0
 49
-0.1
 74
0
  0
LTYPE
  5
1F9
100
AcDbSymbolTableRecord
100
AcDbLinetypeTableRecord
  2
DASHED
 70
64
  3
- - - - - - - - - - - - - - - - - - - -
 72
65
 73
2
 40
0.2
 49
0.1
 74
0
 49
-0.1
 74
0
  0
ENDTAB
  0
TABLE
  2
LAYER
  5
2
100
AcDbSymbolTable
 70
36
  0
LAYER
  5
10
100
AcDbSymbolTableRecord
100
AcDbLayerTableRecord
  2
0
 70
0
 62
7
  6
CONTINUOUS
370
-3
390
F
  0
LAYER
  5
1FA
100
AcDbSymbolTableRecord
100
AcDbLayerTableRecord
  2
DEFAULT_1
 70
0
 62
7
  6
CENTER
370
-3
390
F
  0
LAYER
  5
1FB
100
AcDbSymbolTableRecord
100
AcDbLayerTableRecord
  2
DEFAULT_2
 70
0
 62
7
  6
HIDDEN
370
-3
390
F
  0
LAYER
  5
1FC
100
AcDbSymbolTableRecord
100
AcDbLayerTableRecord
  2
DEFAULT_3
 70
0
 62
7
  6
PHANTOM
370
-3
390
F
  0
LAYER
  5
1FD
100
AcDbSymbolTableRecord
100
AcDbLayerTableRecord
  2
ASSI
 70
0
 62
7
  6
CONTINUOUS
370
-3
390
F
  0
LAYER
  5
1FE
100
AcDbSymbolTableRecord
100
AcDbLayerTableRecord
  2
COLOR3
 70
0
 62
7
  6
CONTINUOUS
370
-3
390
F
  0
LAYER
  5
1FF
100
AcDbSymbolTableRecord
100
AcDbLayerTableRecord
  2
COORDINATE
 70
0
 62
7
  6
CONTINUOUS
370
-3
390
F
  0
LAYER
  5
200
100
AcDbSymbolTableRecord
100
AcDbLayerTableRecord
  2
COPY_PUBLISH
 70
0
 62
7
  6
CONTINUOUS
370
-3
390
F
  0
LAYER
  5
201
100
AcDbSymbolTableRecord
100
AcDbLayerTableRecord
  2
COSMETIC
 70
0
 62
7
  6
CONTINUOUS
370
-3
390
F
  0
LAYER
  5
202
100
AcDbSymbolTableRecord
100
AcDbLayerTableRecord
  2
COSMETICI
 70
0
 62
7
  6
CONTINUOUS
370
-3
390
F
  0
LAYER
  5
203
100
AcDbSymbolTableRecord
100
AcDbLayerTableRecord
  2
CURVE
 70
0
 62
7
  6
CONTINUOUS
370
-3
390
F
  0
LAYER
  5
204
100
AcDbSymbolTableRecord
100
AcDbLayerTableRecord
  2
DRAFT
 70
0
 62
7
  6
CONTINUOUS
370
-3
390
F
  0
LAYER
  5
205
100
AcDbSymbolTableRecord
100
AcDbLayerTableRecord
  2
IMPORT_IGES
 70
0
 62
7
  6
CONTINUOUS
370
-3
390
F
  0
LAYER
  5
206
100
AcDbSymbolTableRecord
100
AcDbLayerTableRecord
  2
INTFCLR_1
 70
0
 62
7
  6
CONTINUOUS
370
-3
390
F
  0
LAYER
  5
207
100
AcDbSymbolTableRecord
100
AcDbLayerTableRecord
  2
INTF_10
 70
0
 62
7
  6
CONTINUOUS
370
-3
390
F
  0
LAYER
  5
208
100
AcDbSymbolTableRecord
100
AcDbLayerTableRecord
  2
INTF_13
 70
0
 62
7
  6
CONTINUOUS
370
-3
390
F
  0
LAYER
  5
209
100
AcDbSymbolTableRecord
100
AcDbLayerTableRecord
  2
INTF_15
 70
0
 62
7
  6
CONTINUOUS
370
-3
390
F
  0
LAYER
  5
20A
100
AcDbSymbolTableRecord
100
AcDbLayerTableRecord
  2
INTF_16
 70
0
 62
7
  6
CONTINUOUS
370
-3
390
F
  0
LAYER
  5
20B
100
AcDbSymbolTableRecord
100
AcDbLayerTableRecord
  2
INTF_18
 70
0
 62
7
  6
CONTINUOUS
370
-3
390
F
  0
LAYER
  5
20C
100
AcDbSymbolTableRecord
100
AcDbLayerTableRecord
  2
INTF_20
 70
0
 62
7
  6
CONTINUOUS
370
-3
390
F
  0
LAYER
  5
20D
100
AcDbSymbolTableRecord
100
AcDbLayerTableRecord
  2
INTF_3
 70
0
 62
7
  6
CONTINUOUS
370
-3
390
F
  0
LAYER
  5
20E
100
AcDbSymbolTableRecord
100
AcDbLayerTableRecord
  2
INTF_5
 70
0
 62
7
  6
CONTINUOUS
370
-3
390
F
  0
LAYER
  5
20F
100
AcDbSymbolTableRecord
100
AcDbLayerTableRecord
  2
INTF_8
 70
0
 62
7
  6
CONTINUOUS
370
-3
390
F
  0
LAYER
  5
210
100
AcDbSymbolTableRecord
100
AcDbLayerTableRecord
  2
LIVELLO_1
 70
0
 62
7
  6
CONTINUOUS
370
-3
390
F
  0
LAYER
  5
211
100
AcDbSymbolTableRecord
100
AcDbLayerTableRecord
  2
NOTE
 70
0
 62
7
  6
CONTINUOUS
370
-3
390
F
  0
LAYER
  5
212
100
AcDbSymbolTableRecord
100
AcDbLayerTableRecord
  2
PIANI
 70
0
 62
7
  6
CONTINUOUS
370
-3
390
F
  0
LAYER
  5
213
100
AcDbSymbolTableRecord
100
AcDbLayerTableRecord
  2
PUNTI
 70
0
 62
7
  6
CONTINUOUS
370
-3
390
F
  0
LAYER
  5
214
100
AcDbSymbolTableRecord
100
AcDbLayerTableRecord
  2
RACCORDO
 70
0
 62
7
  6
CONTINUOUS
370
-3
390
F
  0
LAYER
  5
215
100
AcDbSymbolTableRecord
100
AcDbLayerTableRecord
  2
SIMBOLI
 70
0
 62
7
  6
CONTINUOUS
370
-3
390
F
  0
LAYER
  5
216
100
AcDbSymbolTableRecord
100
AcDbLayerTableRecord
  2
SMUSSO
 70
0
 62
7
  6
CONTINUOUS
370
-3
390
F
  0
LAYER
  5
217
100
AcDbSymbolTableRecord
100
AcDbLayerTableRecord
  2
SNAPLINE
 70
0
 62
7
  6
CONTINUOUS
370
-3
390
F
  0
LAYER
  5
218
100
AcDbSymbolTableRecord
100
AcDbLayerTableRecord
  2
SOLIDO
 70
0
 62
7
  6
CONTINUOUS
370
-3
390
F
  0
LAYER
  5
219
100
AcDbSymbolTableRecord
100
AcDbLayerTableRecord
  2
SUPERFICI
 70
0
 62
7
  6
CONTINUOUS
370
-3
390
F
  0
LAYER
  5
21A
100
AcDbSymbolTableRecord
100
AcDbLayerTableRecord
  2
SUPERFICI_SKEL
 70
0
 62
7
  6
CONTINUOUS
370
-3
390
F
  0
LAYER
  5
21B
100
AcDbSymbolTableRecord
100
AcDbLayerTableRecord
  2
TRASH
 70
0
 62
7
  6
CONTINUOUS
370
-3
390
F
  0
LAYER
  5
21C
100
AcDbSymbolTableRecord
100
AcDbLayerTableRecord
  2
WHITE
 70
0
 62
7
  6
CONTINUOUS
370
-3
390
F
  0
LAYER
  5
21D
100
AcDbSymbolTableRecord
100
AcDbLayerTableRecord
  2
___SHELL
 70
0
 62
7
  6
CONTINUOUS
370
-3
390
F
  0
ENDTAB
  0
TABLE
  2
STYLE
  5
3
100
AcDbSymbolTable
 70
1
  0
STYLE
  5
11
100
AcDbSymbolTableRecord
100
AcDbTextStyleTableRecord
  2
STANDARD
 70
0
 40
0.0
 41
0.8
 50
0.0
 71
0
 42
0.2
  3
txt
  4

  0
STYLE
  5
21E
100
AcDbSymbolTableRecord
100
AcDbTextStyleTableRecord
  2
TEXTSTYLE_1
 70
0
 40
0.0
 41
0.8
 50
0.0
 71
0
 42
0.2
  3
gdt
  4

  0
ENDTAB
  0
TABLE
  2
VIEW
  5
6
100
AcDbSymbolTable
 70
0
  0
ENDTAB
  0
TABLE
  2
UCS
  5
7
100
AcDbSymbolTable
 70
0
  0
ENDTAB
  0
TABLE
  2
APPID
  5
9
100
AcDbSymbolTable
 70
1
  0
APPID
  5
21F
100
AcDbSymbolTableRecord
100
AcDbRegAppTableRecord
  2
ACAD
 70
0
  0
ENDTAB
  0
TABLE
  2
BLOCK_RECORD
  5
1
100
AcDbSymbolTable
 70
0
  0
BLOCK_RECORD
  5
220
100
AcDbSymbolTableRecord
100
AcDbBlockTableRecord
  2
*Model_Space
  0
BLOCK_RECORD
  5
221
100
AcDbSymbolTableRecord
100
AcDbBlockTableRecord
  2
*Paper_Space
  0
BLOCK_RECORD
  5
222
100
AcDbSymbolTableRecord
100
AcDbBlockTableRecord
  2
_FILLED
  0
BLOCK_RECORD
  5
223
100
AcDbSymbolTableRecord
100
AcDbBlockTableRecord
  2
*D0
  0
BLOCK_RECORD
  5
224
100
AcDbSymbolTableRecord
100
AcDbBlockTableRecord
  2
*D1
  0
BLOCK_RECORD
  5
225
100
AcDbSymbolTableRecord
100
AcDbBlockTableRecord
  2
*D2
  0
ENDTAB
  0
TABLE
  2
DIMSTYLE
  5
A
100
AcDbSymbolTable
 70
1
100
AcDbDimStyleTable
 71
0
  0
DIMSTYLE
105
226
100
AcDbSymbolTableRecord
100
AcDbDimStyleTableRecord
  2
STANDARD
 70
0
  3

  4

 40
1.0
 41
3.0
 42
0.5
 43
0.38
 44
1.5
 45
0.0
 46
0.0
 47
0.01
 48
0.01
140
3.0
141
0.09
142
0.0
143
25.4
144
1.0
145
0.0
146
1.0
147
0.625
 71
1.0
 72
0.0
 73
0
 74
0
 75
0
 76
0
 77
1
 78
8
170
0
171
1
172
0
173
0
174
0
175
0
176
0
177
0
178
0
270
2
271
2
272
2
273
2
274
2
275
0
280
0
281
0
282
0
283
1
284
8
285
0
286
0
287
3
288
0
340
11
278
44
341
222
342
222
343
222
344
222
  0
DIMSTYLE
105
227
100
AcDbSymbolTableRecord
100
AcDbDimStyleTableRecord
  2
DIMSTYLE_1
 70
0
  3

  4

 40
1.0
 41
3.0
 42
0.5
 43
0.38
 44
1.5
 45
0.0
 46
0.0
 47
0.0
 48
0.0
140
3.0
141
0.09
142
0.0
143
25.4
144
1.0
145
0.0
146
1.0
147
0.75
 71
0.0
 72
0.0
 73
0
 74
0
 75
0
 76
0
 77
1
 78
8
170
0
171
1
172
0
173
0
174
0
175
0
176
0
177
0
178
0
270
2
271
2
272
2
273
2
274
2
275
0
280
0
281
0
282
0
283
1
284
8
285
0
286
0
287
3
288
0
340
11
278
44
341
222
342
222
343
222
344
222
  0
DIMSTYLE
105
228
100
AcDbSymbolTableRecord
100
AcDbDimStyleTableRecord
  2
DIMSTYLE_2
 70
0
  3

  4

 40
1.0
 41
3.0
 42
0.5
 43
0.38
 44
1.5
 45
0.0
 46
0.0
 47
0.0
 48
0.0
140
3.0
141
0.09
142
0.0
143
25.4
144
1.0
145
0.0
146
1.0
147
0.75
 71
0.0
 72
0.0
 73
0
 74
0
 75
0
 76
0
 77
1
 78
8
170
0
171
1
172
0
173
0
174
0
175
0
176
0
177
0
178
0
270
2
271
1
272
1
273
2
274
2
275
0
280
0
281
0
282
0
283
1
284
8
285
0
286
0
287
3
288
0
340
11
278
44
341
222
342
222
343
222
344
222
  0
ENDTAB
  0
ENDSEC
  0
SECTION
  2
BLOCKS
  0
BLOCK
  5
20
100
AcDbEntity
  8
0
100
AcDbBlockBegin
  2
*Model_Space
 70
0
 10
0.0
 20
0.0
 30
0.0
  3
*Model_Space
  1

  0
ENDBLK
  5
21
100
AcDbEntity
  8
0
100
AcDbBlockEnd
  0
BLOCK
  5
1C
100
AcDbEntity
  8
0
100
AcDbBlockBegin
  2
*Paper_Space
 70
0
 10
0.0
 20
0.0
 30
0.0
  3
*Paper_Space
  1

  0
ENDBLK
  5
1D
100
AcDbEntity
  8
0
100
AcDbBlockEnd
  0
BLOCK
  5
229
100
AcDbEntity
  8
0
100
AcDbBlockBegin
  2
_FILLED
 70
64
 10
0.0
 20
0.0
  3
_FILLED
  1

  0
SOLID
  5
22A
100
AcDbEntity
  8
0
  6
BYBLOCK
 62
0
100
AcDbTrace
 10
0.0
 20
0.0
 11
-1.0
 21
0.3166666667
 12
-1.0
 22
-0.3166666667
 13
-1.0
 23
-0.3166666667
  0
ENDBLK
  5
22B
100
AcDbEntity
  8
0
  6
BYBLOCK
 62
0
100
AcDbBlockEnd
  0
BLOCK
  5
22C
100
AcDbEntity
  8
0
100
AcDbBlockBegin
 62
7
  6
CONTINUOUS
  2
*D0
 70
65
 10
0.0
 20
0.0
  3
*D0
  1

  0
MTEXT
  5
22D
100
AcDbEntity
  8
0
100
AcDbMText
 62
7
  6
CONTINUOUS
  7
STANDARD
 71
2
 72
1
 10
-0.3876831359
 20
39.1565487757
 30
0.0
 11
1.0
 21
0.0
 31
0.0
 44
0.9
  1
22,05
 40
3.0
 41
16.3928571429
  0
LINE
  5
22E
100
AcDbEntity
  8
0
100
AcDbLine
 62
7
  6
CONTINUOUS
 10
-11.4130532594
 20
13.6130922693
 11
-11.4130532594
 21
36.9065487757
  0
LINE
  5
22F
100
AcDbEntity
  8
0
100
AcDbLine
 62
7
  6
CONTINUOUS
 10
10.6376869876
 20
13.6130922693
 11
10.6376869876
 21
36.9065487757
  0
LINE
  5
230
100
AcDbEntity
  8
0
100
AcDbLine
 62
7
  6
CONTINUOUS
 10
-11.4130532594
 20
35.4065487757
 11
-0.3876831359
 21
35.4065487757
  0
LINE
  5
231
100
AcDbEntity
  8
0
100
AcDbLine
 62
7
  6
CONTINUOUS
 10
10.6376869876
 20
35.4065487757
 11
-0.3876831359
 21
35.4065487757
  0
INSERT
  5
232
100
AcDbEntity
  8
0
100
AcDbBlockReference
 62
7
  6
CONTINUOUS
  2
_FILLED
 10
-11.4130532594
 20
35.4065487757
 41
3.0
 42
3.0
 43
3.0
 50
180.0
  0
INSERT
  5
233
100
AcDbEntity
  8
0
100
AcDbBlockReference
 62
7
  6
CONTINUOUS
  2
_FILLED
 10
10.6376869876
 20
35.4065487757
 41
3.0
 42
3.0
 43
3.0
  0
ENDBLK
  5
234
100
AcDbEntity
  8
0
  6
BYBLOCK
 62
0
100
AcDbBlockEnd
  0
BLOCK
  5
235
100
AcDbEntity
  8
0
100
AcDbBlockBegin
 62
7
  6
CONTINUOUS
  2
*D1
 70
65
 10
0.0
 20
0.0
  3
*D1
  1

  0
MTEXT
  5
236
100
AcDbEntity
  8
0
100
AcDbMText
 62
7
  6
CONTINUOUS
  7
STANDARD
 71
2
 72
1
 10
19.9482991282
 20
0.0130922693
 30
0.0
 11
0.0
 21
1.0
 31
0.0
 44
0.9
  1
44,4
 40
3.0
 41
13.1785714286
  0
LINE
  5
237
100
AcDbEntity
  8
0
100
AcDbLine
 62
7
  6
CONTINUOUS
 10
10.6173326579
 20
22.2219651278
 11
25.1982991282
 21
22.2219651278
  0
LINE
  5
238
100
AcDbEntity
  8
0
100
AcDbLine
 62
7
  6
CONTINUOUS
 10
10.6173326579
 20
-22.1957805891
 11
25.1982991282
 21
-22.1957805891
  0
LINE
  5
239
100
AcDbEntity
  8
0
100
AcDbLine
 62
7
  6
CONTINUOUS
 10
23.6982991282
 20
22.2219651278
 11
23.6982991282
 21
0.0130922693
  0
LINE
  5
23A
100
AcDbEntity
  8
0
100
AcDbLine
 62
7
  6
CONTINUOUS
 10
23.6982991282
 20
-22.1957805891
 11
23.6982991282
 21
0.0130922693
  0
INSERT
  5
23B
100
AcDbEntity
  8
0
100
AcDbBlockReference
 62
7
  6
CONTINUOUS
  2
_FILLED
 10
23.6982991282
 20
22.2219651278
 41
3.0
 42
3.0
 43
3.0
 50
90.0
  0
INSERT
  5
23C
100
AcDbEntity
  8
0
100
AcDbBlockReference
 62
7
  6
CONTINUOUS
  2
_FILLED
 10
23.6982991282
 20
-22.1957805891
 41
3.0
 42
3.0
 43
3.0
 50
270.0
  0
ENDBLK
  5
23D
100
AcDbEntity
  8
0
  6
BYBLOCK
 62
0
100
AcDbBlockEnd
  0
BLOCK
  5
23E
100
AcDbEntity
  8
0
100
AcDbBlockBegin
 62
7
  6
CONTINUOUS
  2
*D2
 70
65
 10
0.0
 20
0.0
  3
*D2
  1

  0
MTEXT
  5
23F
100
AcDbEntity
  8
0
100
AcDbMText
 62
7
  6
CONTINUOUS
  7
STANDARD
 71
1
 72
1
 10
-27.0442836679
 20
39.1565487757
 30
0.0
 11
1.0
 21
0.0
 31
0.0
 44
0.9
  1
6,35
 40
3.0
 41
12.5357142857
  0
LINE
  5
240
100
AcDbEntity
  8
0
100
AcDbLine
 62
7
  6
CONTINUOUS
 10
-31.6711169774
 20
13.6130922693
 11
-31.6711169774
 21
36.9065487757
  0
LINE
  5
241
100
AcDbEntity
  8
0
100
AcDbLine
 62
7
  6
CONTINUOUS
 10
-38.0204235487
 20
1.2650974473
 11
-38.0204235487
 21
36.9065487757
  0
LINE
  5
242
100
AcDbEntity
  8
0
100
AcDbLine
 62
7
  6
CONTINUOUS
 10
-31.6711169774
 20
35.4065487757
 11
-18.6871408108
 21
35.4065487757
  0
LINE
  5
243
100
AcDbEntity
  8
0
100
AcDbLine
 62
7
  6
CONTINUOUS
 10
-18.6871408108
 20
35.4065487757
 11
-34.8457702631
 21
35.4065487757
  0
LINE
  5
244
100
AcDbEntity
  8
0
100
AcDbLine
 62
7
  6
CONTINUOUS
 10
-38.0204235487
 20
35.4065487757
 11
-42.0204235487
 21
35.4065487757
  0
LINE
  5
245
100
AcDbEntity
  8
0
100
AcDbLine
 62
7
  6
CONTINUOUS
 10
-42.0204235487
 20
35.4065487757
 11
-34.8457702631
 21
35.4065487757
  0
INSERT
  5
246
100
AcDbEntity
  8
0
100
AcDbBlockReference
 62
7
  6
CONTINUOUS
  2
_FILLED
 10
-31.6711169774
 20
35.4065487757
 41
3.0
 42
3.0
 43
3.0
 50
180.0
  0
INSERT
  5
247
100
AcDbEntity
  8
0
100
AcDbBlockReference
 62
7
  6
CONTINUOUS
  2
_FILLED
 10
-38.0204235487
 20
35.4065487757
 41
3.0
 42
3.0
 43
3.0
  0
ENDBLK
  5
248
100
AcDbEntity
  8
0
  6
BYBLOCK
 62
0
100
AcDbBlockEnd
  0
ENDSEC
  0
SECTION
  2
ENTITIES
  0
DIMENSION
  5
249
100
AcDbEntity
  8
0
100
AcDbDimension
 62
7
  6
CONTINUOUS
  2
*D0
 10
10.6376869876
 20
35.4065487757
 11
-0.8162544694
 21
35.4065487757
 70
160
 71
2
 42
22.0507402471
  3
DIMSTYLE_1
100
AcDbAlignedDimension
 13
-11.4130532594
 23
13.1130922693
 14
10.6376869876
 24
13.1130922693
100
AcDbRotatedDimension
  0
DIMENSION
  5
24A
100
AcDbEntity
  8
0
100
AcDbDimension
 62
7
  6
CONTINUOUS
  2
*D1
 10
23.6982991282
 20
-22.1957805891
 11
23.6982991282
 21
-0.41547988
 70
160
 71
2
 42
44.4177457169
  3
DIMSTYLE_2
100
AcDbAlignedDimension
 13
10.1173326579
 23
22.2219651278
 14
10.1173326579
 24
-22.1957805891
 50
270.0
100
AcDbRotatedDimension
  0
DIMENSION
  5
24B
100
AcDbEntity
  8
0
100
AcDbDimension
 62
7
  6
CONTINUOUS
  2
*D2
 10
-38.0204235487
 20
35.4065487757
 11
-23.2942845039
 21
35.4065487757
 70
160
 71
1
 42
6.3493065714
  3
DIMSTYLE_1
100
AcDbAlignedDimension
 13
-31.6711169774
 23
13.1130922693
 14
-38.0204235487
 24
0.7650974473
 50
180.0
100
AcDbRotatedDimension
  0
LINE
  5
24C
100
AcDbEntity
  8
0
100
AcDbLine
 62
7
  6
CONTINUOUS
 10
3.0063952339
 20
-22.1957805891
 11
3.3545818372
 21
-22.1641746687
  0
LINE
  5
24D
100
AcDbEntity
  8
0
100
AcDbLine
 62
7
  6
CONTINUOUS
 10
-8.1936047661
 20
-22.1957805891
 11
-7.8454181628
 21
-22.1641746687
  0
LWPOLYLINE
  5
24E
100
AcDbEntity
  8
0
100
AcDbPolyline
 62
253
  6
CONTINUOUS
 90
16
 70
0
 10
10.0251541998
 20
-22.0112971723
 10
10.0773558262
 20
-22.0084951271
 10
10.1289864378
 20
-22.0002625377
 10
10.1794813345
 20
-21.9866894674
 10
10.2282882563
 20
-21.967924383
 10
10.2748733778
 20
-21.944172547
 10
10.3187271546
 20
-21.9156937868
 10
10.3593699589
 20
-21.8827996182
 10
10.3963573035
 20
-21.8458498338
 10
10.4292846671
 20
-21.8052485987
 10
10.4577919467
 20
-21.7614400073
 10
10.481567399
 20
-21.7149032103
 10
10.5003510333
 20
-21.6661471854
 10
10.5139374499
 20
-21.6157051823
 10
10.5221780895
 20
-21.5641288932
 10
10.5249828623
 20
-21.5119824049
  0
LWPOLYLINE
  5
24F
100
AcDbEntity
  8
0
100
AcDbPolyline
 62
253
  6
CONTINUOUS
 90
14
 70
0
 10
10.1382194381
 20
-20.8633682162
 10
10.1850567813
 20
-20.8626621346
 10
10.2301747567
 20
-20.8617628228
 10
10.2731359041
 20
-20.8606790002
 10
10.3135236759
 20
-20.8594211757
 10
10.3509464758
 20
-20.8580015448
 10
10.3850414553
 20
-20.8564338722
 10
10.4154780326
 20
-20.854733358
 10
10.4419610971
 20
-20.8529164901
 10
10.4642338712
 20
-20.8510008848
 10
10.4820804001
 20
-20.8490051156
 10
10.4953276454
 20
-20.8469485333
 10
10.5038471627
 20
-20.8448510783
 10
10.5075563478
 20
-20.8427330875
  0
LINE
  5
250
100
AcDbEntity
  8
0
100
AcDbLine
 62
253
  6
CONTINUOUS
 10
10.0412154393
 20
-20.8641752437
 11
10.1382194381
 21
-20.8633682162
  0
LINE
  5
251
100
AcDbEntity
  8
0
100
AcDbLine
 62
253
  6
CONTINUOUS
 10
-10.8005204723
 20
-22.0112971735
 11
-7.430954903
 21
-22.0012710373
  0
LINE
  5
252
100
AcDbEntity
  8
0
100
AcDbLine
 62
253
  6
CONTINUOUS
 10
-7.430954903
 20
-22.0012710373
 11
-4.0589088487
 21
-21.9951168716
  0
LINE
  5
253
100
AcDbEntity
  8
0
100
AcDbLine
 62
253
  6
CONTINUOUS
 10
-4.0589088487
 20
-21.9951168716
 11
-0.6852517543
 21
-21.9928366622
  0
LINE
  5
254
100
AcDbEntity
  8
0
100
AcDbLine
 62
7
  6
CONTINUOUS
 10
-10.8926989297
 20
-22.1957805891
 11
-8.1936047661
 21
-22.1957805891
  0
LINE
  5
255
100
AcDbEntity
  8
0
100
AcDbLine
 62
7
  6
CONTINUOUS
 10
-3.7817615057
 20
-22.1957805891
 11
3.0063952339
 21
-22.1957805891
  0
LINE
  5
256
100
AcDbEntity
  8
0
100
AcDbLine
 62
7
  6
CONTINUOUS
 10
7.4182384943
 20
-22.1957805891
 11
10.1173326579
 21
-22.1957805891
  0
LINE
  5
257
100
AcDbEntity
  8
0
100
AcDbLine
 62
7
  6
CONTINUOUS
 10
-7.6722130821
 20
-22.1589338908
 11
-4.3031531897
 21
-22.1589338908
  0
LINE
  5
258
100
AcDbEntity
  8
0
100
AcDbLine
 62
7
  6
CONTINUOUS
 10
3.5277869179
 20
-22.1589338908
 11
6.8968468103
 21
-22.1589338908
  0
LINE
  5
259
100
AcDbEntity
  8
0
100
AcDbLine
 62
253
  6
CONTINUOUS
 10
-0.6852517543
 20
-21.9928366622
 11
2.6824759027
 21
-21.9944235968
  0
LINE
  5
25A
100
AcDbEntity
  8
0
100
AcDbLine
 62
253
  6
CONTINUOUS
 10
2.6824759027
 20
-21.9944235968
 11
6.1534895444
 21
-22.0001091403
  0
LWPOLYLINE
  5
25B
100
AcDbEntity
  8
0
100
AcDbPolyline
 62
253
  6
CONTINUOUS
 90
3
 70
0
 10
6.1534895444
 20
-22.0001091403
 10
9.2075757854
 20
-22.0085362664
 10
10.0251541998
 20
-22.0112971723
  0
LWPOLYLINE
  5
25C
100
AcDbEntity
  8
0
100
AcDbPolyline
 62
253
  6
CONTINUOUS
 90
15
 70
0
 10
-10.8165808613
 20
-20.8641746971
 10
-10.9135839509
 20
-20.8633676953
 10
-10.9604208993
 20
-20.8626616356
 10
-11.0055385369
 20
-20.861762351
 10
-11.0484994156
 20
-20.8606785608
 10
-11.0888869987
 20
-20.8594207728
 10
-11.1263096993
 20
-20.8580011822
 10
-11.1604046774
 20
-20.8564335528
 10
-11.1908413574
 20
-20.8547330841
 10
-11.2173246338
 20
-20.8529162632
 10
-11.239597732
 20
-20.8510007056
 10
-11.2574446983
 20
-20.8490049841
 10
-11.2706924934
 20
-20.8469484484
 10
-11.2792126703
 20
-20.8448510383
 10
-11.2829226198
 20
-20.8427330897
  0
LWPOLYLINE
  5
25D
100
AcDbEntity
  8
0
100
AcDbPolyline
 62
253
  6
CONTINUOUS
 90
16
 70
0
 10
-10.8005204723
 20
-22.0112971735
 10
-10.8527214423
 20
-22.0084951983
 10
-10.9043514838
 20
-22.0002628012
 10
-10.9548459128
 20
-21.986690021
 10
-11.0036524652
 20
-21.9679253048
 10
-11.0502373379
 20
-21.9441738847
 10
-11.0940910263
 20
-21.9156955329
 10
-11.1347338972
 20
-21.8828017207
 10
-11.1717214345
 20
-21.8458522118
 10
-11.204649101
 20
-21.8052511275
 10
-11.2331567627
 20
-21.7614425269
 10
-11.2569326277
 20
-21.7149055502
 10
-11.2757166565
 20
-21.6661491778
 10
-11.2893034058
 20
-21.6157066645
 10
-11.2975442757
 20
-21.5641297061
 10
-11.3003491348
 20
-21.5119824062
  0
LINE
  5
25E
100
AcDbEntity
  8
0
100
AcDbLine
 62
7
  6
CONTINUOUS
 10
-3.7817615057
 20
-22.1957805891
 11
-4.129948109
 21
-22.1641746687
  0
LINE
  5
25F
100
AcDbEntity
  8
0
100
AcDbLine
 62
7
  6
CONTINUOUS
 10
7.4182384943
 20
-22.1957805891
 11
7.070051891
 21
-22.1641746687
  0
LINE
  5
260
100
AcDbEntity
  8
0
100
AcDbLine
 62
253
  6
CONTINUOUS
 10
-10.8165817127
 20
-20.8641752122
 11
-5.4137613106
 21
-20.8587231661
  0
LINE
  5
261
100
AcDbEntity
  8
0
100
AcDbLine
 62
253
  6
CONTINUOUS
 10
-5.4137613106
 20
-20.8587231661
 11
6.1690322715
 21
-20.8598792555
  0
LINE
  5
262
100
AcDbEntity
  8
0
100
AcDbLine
 62
253
  6
CONTINUOUS
 10
6.1690322715
 20
-20.8598792555
 11
10.0412154394
 21
-20.8641752298
  0
LWPOLYLINE
  5
263
100
AcDbEntity
  8
0
100
AcDbPolyline
 62
253
  6
CONTINUOUS
 90
7
 70
0
 10
-10.8005204717
 20
22.037481711
 10
-10.801572168
 20
22.0300957738
 10
-10.8026656865
 20
22.0168201025
 10
-10.8037731481
 20
21.9977233244
 10
-10.804845913
 20
21.9729036741
 10
-10.8058780442
 20
21.9424861973
 10
-10.8079074713
 20
21.8654814253
  0
LWPOLYLINE
  5
264
100
AcDbEntity
  8
0
100
AcDbPolyline
 62
253
  6
CONTINUOUS
 90
29
 70
0
 10
-2.3595440684
 20
-12.5932471032
 10
-2.3614532463
 20
-12.5932287066
 10
-2.3633541786
 20
-12.5931736213
 10
-2.365247048
 20
-12.5930820034
 10
-2.367132037
 20
-12.5929540094
 10
-2.369009328
 20
-12.5927897955
 10
-2.3708791036
 20
-12.5925895182
 10
-2.3727415463
 20
-12.5923533337
 10
-2.3745968387
 20
-12.5920813984
 10
-2.3764451631
 20
-12.5917738687
 10
-2.3782867022
 20
-12.5914309008
 10
-2.3801216384
 20
-12.5910526511
 10
-2.3819501544
 20
-12.590639276
 10
-2.3837724324
 20
-12.5901909318
 10
-2.3853467564
 20
-12.5897740869
 10
-2.3869161763
 20
-12.5893305078
 10
-2.3884803363
 20
-12.5888596088
 10
-2.3900388805
 20
-12.5883608039
 10
-2.3915914532
 20
-12.5878335072
 10
-2.3931376984
 20
-12.5872771329
 10
-2.3946772603
 20
-12.5866910952
 10
-2.3962097832
 20
-12.5860748081
 10
-2.397734911
 20
-12.5854276857
 10
-2.399252288
 20
-12.5847491423
 10
-2.4007615583
 20
-12.5840385919
 10
-2.4022623662
 20
-12.5832954486
 10
-2.4037543556
 20
-12.5825191267
 10
-2.4052371709
 20
-12.5817090402
 10
-2.4067104561
 20
-12.5808646032
  0
LWPOLYLINE
  5
265
100
AcDbEntity
  8
0
100
AcDbPolyline
 62
253
  6
CONTINUOUS
 90
29
 70
0
 10
-0.6513588342
 20
-12.5932471032
 10
-0.6532642105
 20
-12.5932287088
 10
-0.6551616491
 20
-12.593173629
 10
-0.6570513316
 20
-12.5930820193
 10
-0.6589334395
 20
-12.5929540348
 10
-0.6608081543
 20
-12.5927898307
 10
-0.6626756574
 20
-12.5925895625
 10
-0.6645361305
 20
-12.5923533852
 10
-0.6663897551
 20
-12.5920814543
 10
-0.6682367126
 20
-12.5917739249
 10
-0.6700771845
 20
-12.5914309523
 10
-0.6719113525
 20
-12.5910526918
 10
-0.6737393979
 20
-12.5906392987
 10
-0.6755615024
 20
-12.5901909283
 10
-0.6771359157
 20
-12.5897740536
 10
-0.6787056489
 20
-12.5893304399
 10
-0.6802703481
 20
-12.5888595034
 10
-0.6818296592
 20
-12.5883606604
 10
-0.6833832283
 20
-12.5878333271
 10
-0.6849307013
 20
-12.5872769198
 10
-0.6864717242
 20
-12.5866908547
 10
-0.688005943
 20
-12.586074548
 10
-0.6895330037
 20
-12.5854274161
 10
-0.6910525522
 20
-12.5847488751
 10
-0.6925642345
 20
-12.5840383413
 10
-0.6940676967
 20
-12.583295231
 10
-0.6955625847
 20
-12.5825189604
 10
-0.6970485444
 20
-12.5817089457
 10
-0.6985252219
 20
-12.5808646032
  0
LWPOLYLINE
  5
266
100
AcDbEntity
  8
0
100
AcDbPolyline
 62
253
  6
CONTINUOUS
 90
55
 70
0
 10
1.1817802857
 20
-12.7172132143
 10
1.1752293759
 20
-12.7171082515
 10
1.1687381779
 20
-12.716795398
 10
1.1622900138
 20
-12.7162777063
 10
1.1558682058
 20
-12.7155582287
 10
1.1494560762
 20
-12.7146400179
 10
1.1430403207
 20
-12.7135252501
 10
1.1366211303
 20
-12.7122125981
 10
1.1302020697
 20
-12.7106998585
 10
1.1237867034
 20
-12.7089848279
 10
1.1173785961
 20
-12.7070653029
 10
1.1109824696
 20
-12.704939414
 10
1.1046076742
 20
-12.7026066263
 10
1.0982647174
 20
-12.7000667385
 10
1.0919641066
 20
-12.6973195495
 10
1.0857163493
 20
-12.694364858
 10
1.0805595981
 20
-12.6917453791
 10
1.0754634785
 20
-12.6889900523
 10
1.0704446215
 20
-12.6861072685
 10
1.06551529
 20
-12.6831026134
 10
1.0606702749
 20
-12.6799704521
 10
1.0558999992
 20
-12.6767023446
 10
1.0511980614
 20
-12.6732917876
 10
1.0465707631
 20
-12.6697400235
 10
1.0420275815
 20
-12.6660502314
 10
1.0375779939
 20
-12.6622255902
 10
1.0332314775
 20
-12.658269279
 10
1.0289975094
 20
-12.6541844768
 10
1.024884522
 20
-12.6499752693
 10
1.0208967683
 20
-12.6456493686
 10
1.017037456
 20
-12.6412153935
 10
1.0133097933
 20
-12.6366819629
 10
1.009716988
 20
-12.6320576955
 10
1.006262248
 20
-12.6273512101
 10
1.0029469077
 20
-12.6225680445
 10
0.9997648062
 20
-12.6177014116
 10
0.9967079091
 20
-12.6127414432
 10
0.993771181
 20
-12.6076830163
 10
0.9909615837
 20
-12.6025399885
 10
0.9882890781
 20
-12.5973309623
 10
0.9852741942
 20
-12.5910158309
 10
0.9824711007
 20
-12.5846443473
 10
0.9798798325
 20
-12.5782284091
 10
0.9775004243
 20
-12.5717799139
 10
0.9753329111
 20
-12.5653107596
 10
0.9733768834
 20
-12.5588313404
 10
0.9716301541
 20
-12.5523460377
 10
0.970090092
 20
-12.5458577297
 10
0.968754066
 20
-12.5393692946
 10
0.9676194446
 20
-12.5328836105
 10
0.9666845809
 20
-12.5264002527
 10
0.965951765
 20
-12.5199055846
 10
0.9654242711
 20
-12.5133826669
 10
0.9651053736
 20
-12.5068145603
 10
0.9649983468
 20
-12.5001843255
  0
LWPOLYLINE
  5
267
100
AcDbEntity
  8
0
100
AcDbPolyline
 62
253
  6
CONTINUOUS
 90
8
 70
0
 10
-10.7999620253
 20
0.3905926971
 10
-10.7963228698
 20
0.3574935149
 10
-10.7923918933
 20
0.3288505584
 10
-10.7887420259
 20
0.3049277248
 10
-10.7844694492
 20
0.2858880108
 10
-10.779576496
 20
0.2719888387
 10
-10.7750383635
 20
0.263442614
 10
-10.7713426825
 20
0.260300492
  0
LWPOLYLINE
  5
268
100
AcDbEntity
  8
0
100
AcDbPolyline
 62
253
  6
CONTINUOUS
 90
16
 70
0
 10
-11.271171345
 20
0.7602814535
 10
-11.2684858084
 20
0.7086355219
 10
-11.2604456396
 20
0.6573715351
 10
-11.247084029
 20
0.6070500259
 10
-11.2284701081
 20
0.5581777844
 10
-11.2047684855
 20
0.5113653407
 10
-11.1762928944
 20
0.4672931986
 10
-11.1433980587
 20
0.4264931458
 10
-11.1064142276
 20
0.389359909
 10
-11.0657369806
 20
0.3562940991
 10
-11.0218028776
 20
0.3276581768
 10
-10.9750996606
 20
0.3037770808
 10
-10.9261529476
 20
0.2849221105
 10
-10.8755062466
 20
0.2713018797
 10
-10.8237127745
 20
0.2630644349
 10
-10.7713426825
 20
0.260300492
  0
LWPOLYLINE
  5
269
100
AcDbEntity
  8
0
100
AcDbPolyline
 62
253
  6
CONTINUOUS
 90
4
 70
0
 10
-10.8102682164
 20
0.5588536432
 10
-10.8084672732
 20
0.5121419129
 10
-10.8057531169
 20
0.4681709972
 10
-10.7999620253
 20
0.3905926971
  0
LWPOLYLINE
  5
26A
100
AcDbEntity
  8
0
100
AcDbPolyline
 62
253
  6
CONTINUOUS
 90
6
 70
0
 10
-10.805878045
 20
-21.9163016587
 10
-10.8048459137
 20
-21.946719135
 10
-10.8037731487
 20
-21.9715387854
 10
-10.8026656871
 20
-21.990635564
 10
-10.8015721686
 20
-22.003911236
 10
-10.8005204723
 20
-22.0112971735
  0
LINE
  5
26B
100
AcDbEntity
  8
0
100
AcDbLine
 62
253
  6
CONTINUOUS
 10
-10.8079074722
 20
-21.8392968878
 11
-10.805878045
 21
-21.9163016587
  0
LINE
  5
26C
100
AcDbEntity
  8
0
100
AcDbLine
 62
253
  6
CONTINUOUS
 10
-11.2886954187
 20
21.348646058
 11
-11.2869383364
 21
21.2762242546
  0
LINE
  5
26D
100
AcDbEntity
  8
0
100
AcDbLine
 62
253
  6
CONTINUOUS
 10
-10.8097812876
 20
-21.7420518199
 11
-10.8079074722
 21
-21.8392968878
  0
LINE
  5
26E
100
AcDbEntity
  8
0
100
AcDbLine
 62
253
  6
CONTINUOUS
 10
-11.2869383364
 20
21.2762242546
 11
-11.2854677743
 21
21.1951525662
  0
LINE
  5
26F
100
AcDbEntity
  8
0
100
AcDbLine
 62
253
  6
CONTINUOUS
 10
-10.8122807472
 20
-21.5625804683
 11
-10.8097812876
 21
-21.7420518199
  0
LINE
  5
270
100
AcDbEntity
  8
0
100
AcDbLine
 62
253
  6
CONTINUOUS
 10
-11.2854677743
 20
21.1951525662
 11
-11.2843129841
 21
21.1072913768
  0
LINE
  5
271
100
AcDbEntity
  8
0
100
AcDbLine
 62
253
  6
CONTINUOUS
 10
-10.8148541753
 20
-21.2733932446
 11
-10.8122807472
 21
-21.5625804683
  0
LINE
  5
272
100
AcDbEntity
  8
0
100
AcDbLine
 62
253
  6
CONTINUOUS
 10
-11.2843129841
 20
21.1072913768
 11
-11.283213535
 21
20.9664268389
  0
LWPOLYLINE
  5
273
100
AcDbEntity
  8
0
100
AcDbPolyline
 62
253
  6
CONTINUOUS
 90
3
 70
0
 10
-10.8140087991
 20
-0.7348641024
 10
-10.8142336663
 20
-0.6818755076
 10
-10.8133810947
 20
-0.6306249465
  0
LINE
  5
274
100
AcDbEntity
  8
0
100
AcDbLine
 62
7
  6
CONTINUOUS
 10
-11.3933253513
 20
-21.6980624348
 11
-11.4130532594
 21
-13.0869077307
  0
LINE
  5
275
100
AcDbEntity
  8
0
100
AcDbLine
 62
253
  6
CONTINUOUS
 10
-10.8165817179
 20
-20.8641752113
 11
-10.8148541753
 21
-21.2733932446
  0
LINE
  5
276
100
AcDbEntity
  8
0
100
AcDbLine
 62
253
  6
CONTINUOUS
 10
-11.283213535
 20
20.9664268389
 11
-11.2727018579
 21
7.5725148415
  0
LINE
  5
277
100
AcDbEntity
  8
0
100
AcDbLine
 62
7
  6
CONTINUOUS
 10
-11.4130532594
 20
13.1130922693
 11
-11.4130532594
 21
0.7129970871
  0
LINE
  5
278
100
AcDbEntity
  8
0
100
AcDbLine
 62
7
  6
CONTINUOUS
 10
-11.4130532594
 20
-13.0869077307
 11
-11.4130532594
 21
-0.6868125485
  0
LINE
  5
279
100
AcDbEntity
  8
0
100
AcDbLine
 62
253
  6
CONTINUOUS
 10
-11.2727018579
 20
7.5725148415
 11
-11.271171345
 21
0.7602814535
  0
LINE
  5
27A
100
AcDbEntity
  8
0
100
AcDbLine
 62
253
  6
CONTINUOUS
 10
-10.8140085832
 20
-0.734864106
 11
-10.8165817127
 21
-20.8641752122
  0
LINE
  5
27B
100
AcDbEntity
  8
0
100
AcDbLine
 62
253
  6
CONTINUOUS
 10
-11.2711713424
 20
-0.7340969157
 11
-11.2734231217
 21
-9.1551326796
  0
LINE
  5
27C
100
AcDbEntity
  8
0
100
AcDbLine
 62
253
  6
CONTINUOUS
 10
-11.2734231217
 20
-9.1551326796
 11
-11.2803185765
 21
-18.3405402695
  0
LINE
  5
27D
100
AcDbEntity
  8
0
100
AcDbLine
 62
7
  6
CONTINUOUS
 10
-11.3933253513
 20
21.7242469735
 11
-11.4130532594
 21
13.1130922693
  0
LINE
  5
27E
100
AcDbEntity
  8
0
100
AcDbLine
 62
253
  6
CONTINUOUS
 10
-10.8161082977
 20
21.0577018194
 11
-10.8140085948
 21
0.7610486501
  0
LINE
  5
27F
100
AcDbEntity
  8
0
100
AcDbLine
 62
253
  6
CONTINUOUS
 10
-11.2803185765
 20
-18.3405402695
 11
-11.2832135356
 21
-20.9402423023
  0
LWPOLYLINE
  5
280
100
AcDbEntity
  8
0
100
AcDbPolyline
 62
253
  6
CONTINUOUS
 90
4
 70
0
 10
-10.8140088018
 20
0.7610486523
 10
-10.8142335403
 20
0.7080620546
 10
-10.8133810499
 20
0.6568131672
 10
-10.8102682164
 20
0.5588536432
  0
LINE
  5
281
100
AcDbEntity
  8
0
100
AcDbLine
 62
253
  6
CONTINUOUS
 10
-10.8136829376
 20
21.4501682498
 11
-10.8161082977
 21
21.0577018194
  0
LINE
  5
282
100
AcDbEntity
  8
0
100
AcDbLine
 62
253
  6
CONTINUOUS
 10
-11.2832135356
 20
-20.9402423023
 11
-11.2843129848
 21
-21.0811068402
  0
LINE
  5
283
100
AcDbEntity
  8
0
100
AcDbLine
 62
253
  6
CONTINUOUS
 10
-10.8114927753
 20
21.6526948337
 11
-10.8136829376
 21
21.4501682498
  0
LINE
  5
284
100
AcDbEntity
  8
0
100
AcDbLine
 62
253
  6
CONTINUOUS
 10
-11.2843129848
 20
-21.0811068402
 11
-11.285467775
 21
-21.1689680297
  0
LINE
  5
285
100
AcDbEntity
  8
0
100
AcDbLine
 62
253
  6
CONTINUOUS
 10
-10.8097812867
 20
21.7682363565
 11
-10.8114927753
 21
21.6526948337
  0
LINE
  5
286
100
AcDbEntity
  8
0
100
AcDbLine
 62
253
  6
CONTINUOUS
 10
-11.285467775
 20
-21.1689680297
 11
-11.286938337
 21
-21.2500397181
  0
LINE
  5
287
100
AcDbEntity
  8
0
100
AcDbLine
 62
253
  6
CONTINUOUS
 10
-10.8079074713
 20
21.8654814253
 11
-10.8097812867
 21
21.7682363565
  0
LWPOLYLINE
  5
288
100
AcDbEntity
  8
0
100
AcDbPolyline
 62
253
  6
CONTINUOUS
 90
12
 70
0
 10
-11.286938337
 20
-21.2500397181
 10
-11.2886954193
 20
-21.3224615213
 10
-11.2896670336
 20
-21.3549250564
 10
-11.2906970453
 20
-21.3846733935
 10
-11.2917845985
 20
-21.4117481804
 10
-11.2929136046
 20
-21.4357484416
 10
-11.2940852502
 20
-21.4566294307
 10
-11.2952983487
 20
-21.4744358941
 10
-11.2965332513
 20
-21.4889010969
 10
-11.2977834084
 20
-21.4999361274
 10
-11.2990553695
 20
-21.5076298971
 10
-11.3003491348
 20
-21.5119824062
  0
LWPOLYLINE
  5
289
100
AcDbEntity
  8
0
100
AcDbPolyline
 62
253
  6
CONTINUOUS
 90
4
 70
0
 10
-10.8133810947
 20
-0.6306249465
 10
-10.8102679632
 20
-0.5326630845
 10
-10.8084669806
 20
-0.4859506948
 10
-10.8057526866
 20
-0.4419795617
  0
LWPOLYLINE
  5
28A
100
AcDbEntity
  8
0
100
AcDbPolyline
 62
253
  6
CONTINUOUS
 90
16
 70
0
 10
-11.2711713424
 20
-0.7340969157
 10
-11.2684858008
 20
-0.6824509361
 10
-11.2604456195
 20
-0.6311869137
 10
-11.2470839922
 20
-0.5808653816
 10
-11.2284700546
 20
-0.5319931315
 10
-11.2047684186
 20
-0.4851806909
 10
-11.1762928182
 20
-0.441108559
 10
-11.14339798
 20
-0.4003085231
 10
-11.106414154
 20
-0.363175307
 10
-11.0657369143
 20
-0.3301095147
 10
-11.0218028168
 20
-0.3014736052
 10
-10.9750996057
 20
-0.2775925196
 10
-10.9261529015
 20
-0.2587375585
 10
-10.8755062129
 20
-0.2451173353
 10
-10.8237127554
 20
-0.2368798954
 10
-10.77134268
 20
-0.2341159542
  0
LWPOLYLINE
  5
28B
100
AcDbEntity
  8
0
100
AcDbPolyline
 62
253
  6
CONTINUOUS
 90
9
 70
0
 10
-10.8057526866
 20
-0.4419795617
 10
-10.799961446
 20
-0.3644021994
 10
-10.796322281
 20
-0.3313039455
 10
-10.7923912822
 20
-0.3026621049
 10
-10.7887414768
 20
-0.2787404517
 10
-10.7844690201
 20
-0.2597018102
 10
-10.779576214
 20
-0.2458034991
 10
-10.7750382374
 20
-0.237257855
 10
-10.7713426804
 20
-0.2341159542
  0
LWPOLYLINE
  5
28C
100
AcDbEntity
  8
0
100
AcDbPolyline
 62
253
  6
CONTINUOUS
 90
32
 70
0
 10
-3.0945417021
 20
11.0685802622
 10
-3.0794116856
 20
11.0771530562
 10
-3.0642431684
 20
11.0854219228
 10
-3.0490373373
 20
11.0933918396
 10
-3.033795379
 20
11.1010677842
 10
-3.0185184802
 20
11.1084547342
 10
-2.9993765077
 20
11.1172883762
 10
-2.9801929825
 20
11.125680583
 10
-2.9609790924
 20
11.1336336961
 10
-2.941746025
 20
11.1411500569
 10
-2.9225020094
 20
11.1482325342
 10
-2.9032434401
 20
11.154886107
 10
-2.8839637533
 20
11.161116282
 10
-2.8646563848
 20
11.1669285658
 10
-2.8453160356
 20
11.1723272581
 10
-2.8259424662
 20
11.1773118307
 10
-2.806536702
 20
11.1818805484
 10
-2.7870997685
 20
11.1860316763
 10
-2.7676323291
 20
11.1897631501
 10
-2.7481335989
 20
11.1930715896
 10
-2.7286024312
 20
11.1959532854
 10
-2.7090376792
 20
11.1984045282
 10
-2.6933612081
 20
11.2000525181
 10
-2.6776636126
 20
11.2014172325
 10
-2.6619459965
 20
11.2024932597
 10
-2.6462094635
 20
11.2032751883
 10
-2.630455117
 20
11.2037576065
 10
-2.6146839448
 20
11.2039346927
 10
-2.5988964707
 20
11.2037989847
 10
-2.5830931022
 20
11.2033426104
 10
-2.5672742472
 20
11.2025576973
 10
-2.5514403134
 20
11.2014363733
  0
LWPOLYLINE
  5
28D
100
AcDbEntity
  8
0
100
AcDbPolyline
 62
253
  6
CONTINUOUS
 90
44
 70
0
 10
-2.4067104561
 20
-12.5808646032
 10
-2.4085587501
 20
-12.5797633187
 10
-2.4103619177
 20
-12.5786171579
 10
-2.4121235693
 20
-12.5774254138
 10
-2.4138473152
 20
-12.5761873796
 10
-2.4155367658
 20
-12.5749023483
 10
-2.4171955316
 20
-12.5735696132
 10
-2.4188272229
 20
-12.5721884672
 10
-2.4204347275
 20
-12.5707583618
 10
-2.4220180418
 20
-12.5692793814
 10
-2.4235764398
 20
-12.5677517687
 10
-2.4251091955
 20
-12.5661757664
 10
-2.4266155826
 20
-12.5645516173
 10
-2.4280948752
 20
-12.5628795639
 10
-2.429546347
 20
-12.5611598492
 10
-2.4309690911
 20
-12.5593929979
 10
-2.4323614767
 20
-12.557580664
 10
-2.4337216921
 20
-12.5557247835
 10
-2.4350479256
 20
-12.5538272926
 10
-2.4363383656
 20
-12.5518901273
 10
-2.4375912004
 20
-12.5499152237
 10
-2.4388046182
 20
-12.547904518
 10
-2.4399768689
 20
-12.5458599451
 10
-2.4411064482
 20
-12.5437834365
 10
-2.4421919133
 20
-12.5416769222
 10
-2.4432318214
 20
-12.5395423326
 10
-2.4442247296
 20
-12.5373815979
 10
-2.4451691951
 20
-12.5351966483
 10
-2.4460637752
 20
-12.5329894141
 10
-2.4469070899
 20
-12.5307616917
 10
-2.4476980108
 20
-12.5285147415
 10
-2.4484354725
 20
-12.5262496904
 10
-2.4491184094
 20
-12.5239676648
 10
-2.4497457561
 20
-12.5216697916
 10
-2.450316447
 20
-12.5193571973
 10
-2.4508294167
 20
-12.5170310086
 10
-2.4512298679
 20
-12.5149847859
 10
-2.451583335
 20
-12.512926522
 10
-2.4518878425
 20
-12.5108537214
 10
-2.452141415
 20
-12.5087638887
 10
-2.4523420768
 20
-12.5066545283
 10
-2.4524878526
 20
-12.5045231446
 10
-2.4525767668
 20
-12.5023672422
 10
-2.4526068438
 20
-12.5001843255
  0
LWPOLYLINE
  5
28E
100
AcDbEntity
  8
0
100
AcDbPolyline
 62
253
  6
CONTINUOUS
 90
42
 70
0
 10
-0.6985252219
 20
-12.5808646032
 10
-0.7003600203
 20
-12.5797261709
 10
-0.7021508682
 20
-12.5785463557
 10
-0.7039013548
 20
-12.5773242305
 10
-0.7056150698
 20
-12.576058868
 10
-0.7072956025
 20
-12.574749341
 10
-0.7089465424
 20
-12.5733947223
 10
-0.7105714789
 20
-12.5719940847
 10
-0.7124379931
 20
-12.5703009274
 10
-0.7142726898
 20
-12.5685443166
 10
-0.7160742593
 20
-12.5667246978
 10
-0.7178413921
 20
-12.5648425165
 10
-0.7195727784
 20
-12.5628982182
 10
-0.7212671087
 20
-12.5608922482
 10
-0.722922823
 20
-12.5588254458
 10
-0.7245373597
 20
-12.5567002247
 10
-0.7261079071
 20
-12.5545193921
 10
-0.7276316533
 20
-12.5522857556
 10
-0.7291057864
 20
-12.5500021226
 10
-0.7305274946
 20
-12.5476713003
 10
-0.7317022929
 20
-12.5456380106
 10
-0.7328350306
 20
-12.5435738134
 10
-0.733924229
 20
-12.5414804082
 10
-0.7349684097
 20
-12.5393594947
 10
-0.7359660941
 20
-12.5372127723
 10
-0.7369158036
 20
-12.5350419407
 10
-0.7378160597
 20
-12.5328486993
 10
-0.7386654293
 20
-12.5306346365
 10
-0.7394626615
 20
-12.528400896
 10
-0.7402065508
 20
-12.5261485102
 10
-0.7408958916
 20
-12.5238785114
 10
-0.7415294785
 20
-12.5215919322
 10
-0.7421061061
 20
-12.519289805
 10
-0.7426245687
 20
-12.5169731621
 10
-0.7430293626
 20
-12.5149345106
 10
-0.7433866944
 20
-12.5128832671
 10
-0.7436945575
 20
-12.510817163
 10
-0.7439509452
 20
-12.5087339295
 10
-0.7441538509
 20
-12.5066312978
 10
-0.744301268
 20
-12.5045069991
 10
-0.7443911898
 20
-12.5023587646
 10
-0.7444216096
 20
-12.5001843255
  0
LWPOLYLINE
  5
28F
100
AcDbEntity
  8
0
100
AcDbPolyline
 62
253
  6
CONTINUOUS
 90
53
 70
0
 10
-1.430913172
 20
11.4503210955
 10
-1.4321958614
 20
11.4495267655
 10
-1.4334942702
 20
11.4487885656
 10
-1.4348084559
 20
11.4481040611
 10
-1.436138476
 20
11.4474708176
 10
-1.4374843881
 20
11.4468864006
 10
-1.4388462496
 20
11.4463483756
 10
-1.440224118
 20
11.4458543081
 10
-1.441618051
 20
11.4454017636
 10
-1.4432307557
 20
11.4449327829
 10
-1.444863967
 20
11.4445141715
 10
-1.4465171342
 20
11.4441452443
 10
-1.4481897066
 20
11.443825316
 10
-1.4498811333
 20
11.4435537017
 10
-1.4515908638
 20
11.4433297162
 10
-1.4533183472
 20
11.4431526743
 10
-1.4553548853
 20
11.443004594
 10
-1.4574105892
 20
11.4429186947
 10
-1.4594812104
 20
11.4428941944
 10
-1.4615625006
 20
11.4429303109
 10
-1.4636502113
 20
11.4430262623
 10
-1.4657400941
 20
11.4431812665
 10
-1.46782799
 20
11.44339438
 10
-1.4699100968
 20
11.4436640135
 10
-1.4719827018
 20
11.4439884159
 10
-1.4740420922
 20
11.4443658364
 10
-1.4760845551
 20
11.4447945241
 10
-1.4781063778
 20
11.4452727282
 10
-1.480104378
 20
11.4457988973
 10
-1.4820774946
 20
11.4463722784
 10
-1.4840251971
 20
11.4469923179
 10
-1.485946955
 20
11.4476584623
 10
-1.4878422378
 20
11.448370158
 10
-1.4897105148
 20
11.4491268517
 10
-1.4915508731
 20
11.4499279213
 10
-1.4933608691
 20
11.4507724713
 10
-1.4951376767
 20
11.4516595376
 10
-1.4968784699
 20
11.4525881563
 10
-1.4985804226
 20
11.4535573635
 10
-1.5002407088
 20
11.454566195
 10
-1.5018567542
 20
11.4556137794
 10
-1.5034269923
 20
11.4566996149
 10
-1.5049501084
 20
11.457823292
 10
-1.5064247876
 20
11.4589844016
 10
-1.5078497154
 20
11.4601825342
 10
-1.5092235769
 20
11.4614172804
 10
-1.5103596339
 20
11.4625050121
 10
-1.5114569952
 20
11.4636223636
 10
-1.5125154486
 20
11.464772356
 10
-1.5135347825
 20
11.4659580101
 10
-1.5145147849
 20
11.4671823467
 10
-1.5154552439
 20
11.4684483868
 10
-1.5163559476
 20
11.469759151
  0
LWPOLYLINE
  5
290
100
AcDbEntity
  8
0
100
AcDbPolyline
 62
253
  6
CONTINUOUS
 90
31
 70
0
 10
-2.5654808689
 20
10.1554502624
 10
-2.5825753779
 20
10.1457833806
 10
-2.5996368659
 20
10.1364898094
 10
-2.6166654614
 20
10.1275646992
 10
-2.633661293
 20
10.1190032007
 10
-2.6506244894
 20
10.1108004644
 10
-2.6675551791
 20
10.102951641
 10
-2.6844534907
 20
10.0954518809
 10
-2.7013195529
 20
10.0882963348
 10
-2.7181534941
 20
10.0814801532
 10
-2.7349554431
 20
10.0749984868
 10
-2.7517239203
 20
10.0688470516
 10
-2.7684510136
 20
10.0630238264
 10
-2.785127203
 20
10.0575273556
 10
-2.8017429684
 20
10.0523561834
 10
-2.8182887896
 20
10.0475088543
 10
-2.8347551465
 20
10.0429839124
 10
-2.851132519
 20
10.0387799022
 10
-2.867411387
 20
10.034895368
 10
-2.8835822303
 20
10.0313288541
 10
-2.8996355289
 20
10.0280789049
 10
-2.9155638788
 20
10.0251441108
 10
-2.9313683408
 20
10.0225232469
 10
-2.9470520919
 20
10.0202151345
 10
-2.9626183091
 20
10.0182185948
 10
-2.9780701695
 20
10.0165324491
 10
-2.99341085
 20
10.0151555186
 10
-3.0086435276
 20
10.0140866245
 10
-3.0237713793
 20
10.0133245882
 10
-3.0387975822
 20
10.0128682308
 10
-3.0537253132
 20
10.0127163736
  0
LWPOLYLINE
  5
291
100
AcDbEntity
  8
0
100
AcDbPolyline
 62
253
  6
CONTINUOUS
 90
55
 70
0
 10
1.1817802857
 20
-10.2368326594
 10
1.1883398692
 20
-10.2369372602
 10
1.1948390492
 20
-10.2372490353
 10
1.2012945833
 20
-10.2377649437
 10
1.2077232292
 20
-10.2384819445
 10
1.2141417444
 20
-10.2393969966
 10
1.2205634952
 20
-10.2405079376
 10
1.2269882834
 20
-10.2418161182
 10
1.2334125191
 20
-10.2433237676
 10
1.2398326127
 20
-10.2450331149
 10
1.2462449747
 20
-10.2469463893
 10
1.2526448558
 20
-10.2490654883
 10
1.2590228694
 20
-10.251390982
 10
1.2653684693
 20
-10.2539231091
 10
1.2716711094
 20
-10.256662108
 10
1.2779202436
 20
-10.2596082172
 10
1.2830776122
 20
-10.2622202705
 10
1.288173825
 20
-10.2649679402
 10
1.2931922066
 20
-10.2678428505
 10
1.2981204545
 20
-10.2708394254
 10
1.3029637564
 20
-10.2739632891
 10
1.3077316731
 20
-10.2772228655
 10
1.3124306008
 20
-10.2806246507
 10
1.3170542777
 20
-10.2841674283
 10
1.321593278
 20
-10.2878480539
 10
1.3260381756
 20
-10.291663383
 10
1.3303795445
 20
-10.2956102713
 10
1.3346079587
 20
-10.2996855743
 10
1.3387150343
 20
-10.3038852217
 10
1.3426965552
 20
-10.308201439
 10
1.3465493479
 20
-10.3126255259
 10
1.3502702384
 20
-10.3171487819
 10
1.3538560529
 20
-10.3217625067
 10
1.3573036176
 20
-10.3264579999
 10
1.3606116317
 20
-10.331229646
 10
1.3637862864
 20
-10.3360841693
 10
1.3668356461
 20
-10.341031379
 10
1.369764793
 20
-10.3460763731
 10
1.3725668813
 20
-10.351205405
 10
1.3752320831
 20
-10.3564000168
 10
1.378238627
 20
-10.3626974746
 10
1.3810338964
 20
-10.3690509729
 10
1.3836178854
 20
-10.3754486966
 10
1.3859905884
 20
-10.3818788304
 10
1.3881519993
 20
-10.3883295589
 10
1.3901025486
 20
-10.3947905429
 10
1.3918444111
 20
-10.4012573479
 10
1.3933801978
 20
-10.4077270151
 10
1.3947125198
 20
-10.4141965859
 10
1.395843988
 20
-10.4206631018
 10
1.3967762357
 20
-10.4271269283
 10
1.3975069848
 20
-10.4336017276
 10
1.3980329795
 20
-10.4401044861
 10
1.398350964
 20
-10.4466521901
 10
1.3984576823
 20
-10.453261826
  0
LWPOLYLINE
  5
292
100
AcDbEntity
  8
0
100
AcDbPolyline
 62
253
  6
CONTINUOUS
 90
31
 70
0
 10
-2.2008859302
 20
10.5047708179
 10
-2.2084298316
 20
10.4920401811
 10
-2.2162735688
 20
10.4793654839
 10
-2.2244229
 20
10.466744974
 10
-2.2328835832
 20
10.4541768992
 10
-2.2416613767
 20
10.441659507
 10
-2.2507620386
 20
10.4291910454
 10
-2.260191327
 20
10.4167697619
 10
-2.2699550002
 20
10.4043939043
 10
-2.2800588162
 20
10.3920617204
 10
-2.2905085332
 20
10.3797714579
 10
-2.3013076827
 20
10.3675234596
 10
-2.3124508887
 20
10.3553264493
 10
-2.3239305486
 20
10.3431912459
 10
-2.33573906
 20
10.3311286681
 10
-2.3478688202
 20
10.319149535
 10
-2.3603122265
 20
10.3072646654
 10
-2.3730616765
 20
10.2954848782
 10
-2.3861095675
 20
10.2838209923
 10
-2.3994482968
 20
10.2722838264
 10
-2.413070262
 20
10.2608841997
 10
-2.4269701459
 20
10.2496315483
 10
-2.4411517739
 20
10.2385297789
 10
-2.4556212565
 20
10.2275814156
 10
-2.4703847045
 20
10.2167889823
 10
-2.4854482288
 20
10.2061550033
 10
-2.50081794
 20
10.1956820024
 10
-2.5164999488
 20
10.1853725038
 10
-2.5325003661
 20
10.1752290316
 10
-2.5488253025
 20
10.1652541098
 10
-2.5654808689
 20
10.1554502624
  0
LWPOLYLINE
  5
293
100
AcDbEntity
  8
0
100
AcDbPolyline
 62
253
  6
CONTINUOUS
 90
43
 70
0
 10
1.4513174634
 20
13.1964299839
 10
1.4524912996
 20
13.1980631505
 10
1.4537035332
 20
13.199653578
 10
1.4549544356
 20
13.2012040967
 10
1.4562442783
 20
13.2027175369
 10
1.4575733327
 20
13.2041967288
 10
1.4589418701
 20
13.2056445028
 10
1.4606364127
 20
13.2073434984
 10
1.4623874582
 20
13.2090011394
 10
1.4641942632
 20
13.2106172374
 10
1.4660560842
 20
13.2121916042
 10
1.4679721779
 20
13.2137240514
 10
1.4699412976
 20
13.2152140665
 10
1.4719601847
 20
13.2166598404
 10
1.4740250775
 20
13.21805924
 10
1.4761322144
 20
13.2194101322
 10
1.4782778337
 20
13.2207103837
 10
1.4804583729
 20
13.2219580877
 10
1.4826710669
 20
13.223152242
 10
1.4849133498
 20
13.2242920711
 10
1.4871826559
 20
13.2253767991
 10
1.4894764191
 20
13.2264056503
 10
1.4917921621
 20
13.2273778448
 10
1.4941277605
 20
13.2282925857
 10
1.4964811783
 20
13.229149072
 10
1.4988503796
 20
13.2299465027
 10
1.5012333285
 20
13.2306840768
 10
1.503627647
 20
13.2313609662
 10
1.5060295895
 20
13.2319762346
 10
1.5084350684
 20
13.2325289187
 10
1.5108399962
 20
13.2330180552
 10
1.5132402853
 20
13.2334426805
 10
1.5156324187
 20
13.2338019872
 10
1.5180151623
 20
13.2340957903
 10
1.5203878526
 20
13.2343240606
 10
1.5227498261
 20
13.234486769
 10
1.5251004191
 20
13.2345838864
 10
1.5270505367
 20
13.2346144677
 10
1.5289946785
 20
13.2345981155
 10
1.5309352329
 20
13.234533466
 10
1.5328745879
 20
13.2344191553
 10
1.5348151316
 20
13.2342538196
 10
1.5367592523
 20
13.234036095
  0
LINE
  5
294
100
AcDbEntity
  8
0
100
AcDbLine
 62
253
  6
CONTINUOUS
 10
1.258840926
 20
12.931317484
 11
1.4513174634
 21
13.1964299839
  0
LINE
  5
295
100
AcDbEntity
  8
0
100
AcDbLine
 62
253
  6
CONTINUOUS
 10
0.7833670493
 20
12.2786433175
 11
0.9873078774
 21
12.558431373
  0
LINE
  5
296
100
AcDbEntity
  8
0
100
AcDbLine
 62
253
  6
CONTINUOUS
 10
-11.4130532594
 20
0.7129970871
 11
-11.271171345
 21
0.7602814535
  0
LINE
  5
297
100
AcDbEntity
  8
0
100
AcDbLine
 62
253
  6
CONTINUOUS
 10
-11.2711713424
 20
-0.7340969157
 11
-11.4130532594
 21
-0.6868125485
  0
LWPOLYLINE
  5
298
100
AcDbEntity
  8
0
100
AcDbPolyline
 62
253
  6
CONTINUOUS
 90
11
 70
0
 10
-11.3003491341
 20
21.5381669436
 10
-11.2990553689
 20
21.5338144344
 10
-11.2977834078
 20
21.5261206645
 10
-11.2965332507
 20
21.5150856341
 10
-11.2952983481
 20
21.5006204312
 10
-11.2940852496
 20
21.4828139678
 10
-11.2929136039
 20
21.4619329787
 10
-11.2917845978
 20
21.4379327174
 10
-11.2906970446
 20
21.4108579304
 10
-11.289667033
 20
21.3811095931
 10
-11.2886954187
 20
21.348646058
  0
LINE
  5
299
100
AcDbEntity
  8
0
100
AcDbLine
 62
253
  6
CONTINUOUS
 10
-2.5514403134
 20
11.2014363733
 11
-2.5514403134
 21
13.4794283172
  0
LINE
  5
29A
100
AcDbEntity
  8
0
100
AcDbLine
 62
253
  6
CONTINUOUS
 10
-2.4526068438
 20
-12.5001843255
 11
-2.4526068438
 21
-10.453261826
  0
LWPOLYLINE
  5
29B
100
AcDbEntity
  8
0
100
AcDbPolyline
 62
253
  6
CONTINUOUS
 90
30
 70
0
 10
-2.1218284322
 20
10.7826891512
 10
-2.1219205634
 20
10.7731508055
 10
-2.1221978421
 20
10.7636257712
 10
-2.1226615965
 20
10.7540999266
 10
-2.1233131545
 20
10.7445591498
 10
-2.1241538441
 20
10.7349893191
 10
-2.1251849932
 20
10.7253763126
 10
-2.1264079298
 20
10.7157060085
 10
-2.1278242382
 20
10.7059676291
 10
-2.1294365278
 20
10.6961637729
 10
-2.1312476642
 20
10.6863003827
 10
-2.1332605131
 20
10.6763834012
 10
-2.1354779403
 20
10.666418771
 10
-2.1379028113
 20
10.6564124349
 10
-2.1405379919
 20
10.6463703354
 10
-2.1433861919
 20
10.6362984906
 10
-2.1464494982
 20
10.6262032193
 10
-2.1497298418
 20
10.6160909155
 10
-2.1532291539
 20
10.6059679733
 10
-2.1569493654
 20
10.5958407869
 10
-2.1608924075
 20
10.5857157503
 10
-2.1650602112
 20
10.5755992576
 10
-2.1688933142
 20
10.56675782
 10
-2.1729035642
 20
10.557922853
 10
-2.1770945465
 20
10.5490893902
 10
-2.1814698464
 20
10.5402524653
 10
-2.1860330494
 20
10.531407112
 10
-2.1907877408
 20
10.5225483638
 10
-2.195737506
 20
10.5136712546
 10
-2.2008859302
 20
10.5047708179
  0
LWPOLYLINE
  5
29C
100
AcDbEntity
  8
0
100
AcDbPolyline
 62
253
  6
CONTINUOUS
 90
42
 70
0
 10
-2.4526068438
 20
-10.453261826
 10
-2.4525766048
 20
-10.451096204
 10
-2.4524866986
 20
-10.4489491034
 10
-2.4523383412
 20
-10.4468166957
 10
-2.4521327485
 20
-10.4446951527
 10
-2.4518711367
 20
-10.4425806459
 10
-2.4515547217
 20
-10.440469347
 10
-2.4511847195
 20
-10.4383574276
 10
-2.450686576
 20
-10.4358888875
 10
-2.4501168693
 20
-10.4334157578
 10
-2.4494753195
 20
-10.4309395043
 10
-2.4487616462
 20
-10.4284615928
 10
-2.4479755693
 20
-10.4259834889
 10
-2.4471168086
 20
-10.4235066586
 10
-2.4461853069
 20
-10.4210330123
 10
-2.4451818983
 20
-10.4185662391
 10
-2.4441076397
 20
-10.4161104731
 10
-2.4429635883
 20
-10.4136698481
 10
-2.441750801
 20
-10.411248498
 10
-2.4404703349
 20
-10.4088505568
 10
-2.4393197478
 20
-10.4068168918
 10
-2.4381210048
 20
-10.4048057545
 10
-2.4368748967
 20
-10.402819437
 10
-2.4355822144
 20
-10.4008602315
 10
-2.4342437485
 20
-10.39893043
 10
-2.4328602899
 20
-10.3970323249
 10
-2.4314326293
 20
-10.3951682081
 10
-2.42996146
 20
-10.3933402506
 10
-2.4284470846
 20
-10.3915501377
 10
-2.4268897084
 20
-10.3897994335
 10
-2.4252895364
 20
-10.3880897021
 10
-2.4236467738
 20
-10.3864225075
 10
-2.4219616258
 20
-10.3847994138
 10
-2.4202342975
 20
-10.3832219852
 10
-2.4186879205
 20
-10.3818803838
 10
-2.4171063947
 20
-10.380575748
 10
-2.4154867082
 20
-10.3793088832
 10
-2.4138258493
 20
-10.3780805953
 10
-2.4121208064
 20
-10.3768916899
 10
-2.4103685677
 20
-10.3757429728
 10
-2.4085661215
 20
-10.3746352496
 10
-2.4067104561
 20
-10.373569326
  0
LWPOLYLINE
  5
29D
100
AcDbEntity
  8
0
100
AcDbPolyline
 62
253
  6
CONTINUOUS
 90
55
 70
0
 10
-2.5514403134
 20
13.4794283172
 10
-2.5513358546
 20
13.4859528729
 10
-2.5510244858
 20
13.4924182001
 10
-2.5505092182
 20
13.4988409529
 10
-2.5497930631
 20
13.5052377854
 10
-2.5488790315
 20
13.5116253516
 10
-2.5477692654
 20
13.5180169309
 10
-2.5464624287
 20
13.5244123027
 10
-2.5449563159
 20
13.5308078719
 10
-2.5432487215
 20
13.5372000432
 10
-2.5413374399
 20
13.5435852213
 10
-2.5392205931
 20
13.5499586705
 10
-2.5368976132
 20
13.556311094
 10
-2.5343682596
 20
13.5626320546
 10
-2.5316322918
 20
13.5689111148
 10
-2.5286894692
 20
13.5751378374
 10
-2.5260803315
 20
13.5802775187
 10
-2.5233356501
 20
13.5853571012
 10
-2.5204636973
 20
13.5903600796
 10
-2.5174699561
 20
13.5952742882
 10
-2.5143487513
 20
13.6001049183
 10
-2.5110916183
 20
13.6048615006
 10
-2.5076920271
 20
13.6095503889
 10
-2.504151187
 20
13.6141652304
 10
-2.5004722418
 20
13.6186964952
 10
-2.4966583352
 20
13.6231346537
 10
-2.4927126112
 20
13.627470176
 10
-2.4886382136
 20
13.6316935325
 10
-2.4844391914
 20
13.6357962486
 10
-2.480123215
 20
13.6397740696
 10
-2.4756988595
 20
13.6436237961
 10
-2.4711747006
 20
13.6473422288
 10
-2.4665593135
 20
13.6509261682
 10
-2.4618612737
 20
13.6543724148
 10
-2.4570860874
 20
13.6576796373
 10
-2.452226984
 20
13.6608539765
 10
-2.4472741237
 20
13.6639034414
 10
-2.4422224037
 20
13.6668330499
 10
-2.4370856696
 20
13.6696358563
 10
-2.431882504
 20
13.672301924
 10
-2.4255738094
 20
13.6753095763
 10
-2.419208098
 20
13.6781059862
 10
-2.4127972553
 20
13.6806911236
 10
-2.406353167
 20
13.6830649585
 10
-2.3998877183
 20
13.6852274609
 10
-2.393411301
 20
13.6871790413
 10
-2.3869283303
 20
13.6889218717
 10
-2.3804417276
 20
13.6904585649
 10
-2.3739544144
 20
13.6917917337
 10
-2.367469312
 20
13.6929239906
 10
-2.3609860218
 20
13.6938569639
 10
-2.3544908648
 20
13.694588344
 10
-2.3479668419
 20
13.6951148367
 10
-2.3413969541
 20
13.695433148
 10
-2.3347642023
 20
13.6955399838
  0
LWPOLYLINE
  5
29E
100
AcDbEntity
  8
0
100
AcDbPolyline
 62
253
  6
CONTINUOUS
 90
46
 70
0
 10
2.1078369077
 20
10.9053852623
 10
2.0921200689
 20
10.8714641001
 10
2.0757917748
 20
10.8384530798
 10
2.0588964067
 20
10.8063399016
 10
2.0414783457
 20
10.7751122657
 10
2.0235819731
 20
10.7447578723
 10
2.0052516699
 20
10.7152644217
 10
1.9865318175
 20
10.686619614
 10
1.9674667971
 20
10.6588111494
 10
1.9453034657
 20
10.6280343886
 10
1.9227594345
 20
10.5982917259
 10
1.8998468685
 20
10.5695409583
 10
1.8765779322
 20
10.5417398822
 10
1.8529647905
 20
10.5148462946
 10
1.8290196081
 20
10.4888179921
 10
1.8047545498
 20
10.4636127714
 10
1.7760492894
 20
10.4351956582
 10
1.7468967133
 20
10.4078043744
 10
1.7172683349
 20
10.3814018867
 10
1.6871356675
 20
10.3559511619
 10
1.6564702247
 20
10.3314151668
 10
1.6252435196
 20
10.3077568683
 10
1.5934301315
 20
10.2849457484
 10
1.5610169032
 20
10.2629773504
 10
1.527993743
 20
10.2418537329
 10
1.4943505595
 20
10.2215769544
 10
1.4600772611
 20
10.2021490736
 10
1.4251637565
 20
10.183572149
 10
1.3896102112
 20
10.1658521515
 10
1.3534578199
 20
10.1490107018
 10
1.3167580343
 20
10.1330733327
 10
1.2795623064
 20
10.1180655774
 10
1.2419220878
 20
10.1040129687
 10
1.2038888303
 20
10.0909410396
 10
1.1655143568
 20
10.0788723556
 10
1.1268519733
 20
10.0678176129
 10
1.087955357
 20
10.0577845398
 10
1.0488781851
 20
10.048780865
 10
1.0096741346
 20
10.0408143171
 10
0.9703968827
 20
10.0338926245
 10
0.9310881775
 20
10.0280229795
 10
0.8917420508
 20
10.0232104288
 10
0.8523406053
 20
10.0194594826
 10
0.8128659438
 20
10.0167746511
 10
0.7733001691
 20
10.0151604447
 10
0.7336253839
 20
10.0146213736
  0
LWPOLYLINE
  5
29F
100
AcDbEntity
  8
0
100
AcDbPolyline
 62
253
  6
CONTINUOUS
 90
54
 70
0
 10
1.7153848874
 20
11.0880919261
 10
1.7182797348
 20
11.0938502149
 10
1.7213429461
 20
11.0994887801
 10
1.7245786778
 20
11.105024051
 10
1.7279910862
 20
11.1104724568
 10
1.7315837242
 20
11.1158469706
 10
1.7353577319
 20
11.1211467389
 10
1.739313646
 20
11.1263674521
 10
1.7434520032
 20
11.1315048006
 10
1.7477733401
 20
11.1365544745
 10
1.7522774619
 20
11.1415112904
 10
1.756961247
 20
11.1463665692
 10
1.7618208423
 20
11.1511107583
 10
1.7668523946
 20
11.1557343047
 10
1.7720520509
 20
11.1602276557
 10
1.776508806
 20
11.1638647627
 10
1.7810658466
 20
11.167393261
 10
1.7857093951
 20
11.1708015892
 10
1.7904298679
 20
11.1740809474
 10
1.7952344571
 20
11.1772335806
 10
1.8001345489
 20
11.1802644953
 10
1.8051385339
 20
11.1831766045
 10
1.8102428206
 20
11.1859644482
 10
1.8154408219
 20
11.1886204728
 10
1.8207259506
 20
11.1911371248
 10
1.8260916198
 20
11.1935068508
 10
1.8315312423
 20
11.1957220973
 10
1.8370378927
 20
11.1977766491
 10
1.8426032926
 20
11.1996696448
 10
1.8482188254
 20
11.2014015611
 10
1.8538758743
 20
11.2029728749
 10
1.8595658227
 20
11.204384063
 10
1.8652800537
 20
11.2056356023
 10
1.8710133775
 20
11.2067283964
 10
1.8767743104
 20
11.2076650556
 10
1.8825747956
 20
11.2084486173
 10
1.888421165
 20
11.2090813311
 10
1.8942973045
 20
11.2095622974
 10
1.9001814892
 20
11.2098898287
 10
1.9072269118
 20
11.2100792604
 10
1.9142413179
 20
11.2100502239
 10
1.9212133902
 20
11.2098076268
 10
1.9281318116
 20
11.2093563767
 10
1.9349852649
 20
11.2087013814
 10
1.9417640723
 20
11.207847333
 10
1.9484651133
 20
11.2067980613
 10
1.9550869069
 20
11.2055571807
 10
1.9616279719
 20
11.2041283054
 10
1.9680868272
 20
11.2025150499
 10
1.9744646411
 20
11.2007187384
 10
1.9807731795
 20
11.1987315352
 10
1.9870268579
 20
11.1965433146
 10
1.9932400916
 20
11.1941439507
 10
1.999427296
 20
11.1915233177
  0
LINE
  5
2A0
100
AcDbEntity
  8
0
100
AcDbLine
 62
253
  6
CONTINUOUS
 10
-10.9129961194
 20
0.2130922693
 11
-10.7713426825
 21
0.260300492
  0
LINE
  5
2A1
100
AcDbEntity
  8
0
100
AcDbLine
 62
253
  6
CONTINUOUS
 10
-10.7713426812
 20
-0.2341159538
 11
-10.9129961194
 21
-0.1869077307
  0
LWPOLYLINE
  5
2A2
100
AcDbEntity
  8
0
100
AcDbPolyline
 62
253
  6
CONTINUOUS
 90
57
 70
0
 10
-0.3384662555
 20
11.5204180399
 10
-0.338051957
 20
11.491723063
 10
-0.3368141335
 20
11.4631089412
 10
-0.334760393
 20
11.4345236006
 10
-0.3318983435
 20
11.4059149668
 10
-0.3282320702
 20
11.3772386365
 10
-0.3237515683
 20
11.3484808887
 10
-0.31844331
 20
11.319635673
 10
-0.3122937677
 20
11.2906969391
 10
-0.3052930856
 20
11.2616717536
 10
-0.2974460944
 20
11.2326196507
 10
-0.2887612969
 20
11.2036132815
 10
-0.2792471955
 20
11.1747252972
 10
-0.2689143319
 20
11.1460247114
 10
-0.2577814029
 20
11.117565988
 10
-0.2458691442
 20
11.0893999533
 10
-0.2331982916
 20
11.0615774337
 10
-0.219786297
 20
11.0341421645
 10
-0.2056374761
 20
11.0071095172
 10
-0.1907528609
 20
10.9804877721
 10
-0.1751334832
 20
10.9542852097
 10
-0.1587801151
 20
10.9285123463
 10
-0.1416924891
 20
10.9031886425
 10
-0.123870078
 20
10.8783357946
 10
-0.1053123546
 20
10.8539754992
 10
-0.0860215749
 20
10.8301326348
 10
-0.0660111284
 20
10.8068448092
 10
-0.045297188
 20
10.784152812
 10
-0.0238959263
 20
10.762097433
 10
-0.0018282166
 20
10.7407155535
 10
0.0208662665
 20
10.7200284197
 10
0.0441431482
 20
10.7000533693
 10
0.0679580536
 20
10.6808077399
 10
0.0922710032
 20
10.6623052655
 10
0.1170596005
 20
10.6445452648
 10
0.142305844
 20
10.627523453
 10
0.1679917328
 20
10.611235545
 10
0.1941006328
 20
10.5956782183
 10
0.2206213794
 20
10.5808520004
 10
0.2475441752
 20
10.566758381
 10
0.274859223
 20
10.5533988499
 10
0.3025507327
 20
10.5407777092
 10
0.3305789441
 20
10.5289105098
 10
0.3588981043
 20
10.5178156149
 10
0.3874624603
 20
10.5075113877
 10
0.416223279
 20
10.498014586
 10
0.4451199063
 20
10.4893355466
 10
0.4740887077
 20
10.4814830009
 10
0.5030660486
 20
10.4744656804
 10
0.5319990676
 20
10.4682892519
 10
0.5608779947
 20
10.4629471235
 10
0.589703833
 20
10.4584296388
 10
0.6184775853
 20
10.4547271413
 10
0.6472089046
 20
10.451833186
 10
0.6759420428
 20
10.4497541738
 10
0.7047299019
 20
10.4484997173
 10
0.7336253839
 20
10.448079429
  0
LINE
  5
2A3
100
AcDbEntity
  8
0
100
AcDbLine
 62
253
  6
CONTINUOUS
 10
-2.1192884322
 20
12.4213772063
 11
-2.1192884322
 21
10.7960594289
  0
LINE
  5
2A4
100
AcDbEntity
  8
0
100
AcDbLine
 62
253
  6
CONTINUOUS
 10
-1.4015964248
 20
12.314908873
 11
-1.4015964248
 21
11.5029202621
  0
LINE
  5
2A5
100
AcDbEntity
  8
0
100
AcDbLine
 62
253
  6
CONTINUOUS
 10
-0.7444216096
 20
-12.5001843255
 11
-0.7444216096
 21
-11.7044234923
  0
LINE
  5
2A6
100
AcDbEntity
  8
0
100
AcDbLine
 62
253
  6
CONTINUOUS
 10
-0.7444216096
 20
-11.2489873813
 11
-0.7444216096
 21
-10.453261826
  0
LWPOLYLINE
  5
2A7
100
AcDbEntity
  8
0
100
AcDbPolyline
 62
253
  6
CONTINUOUS
 90
41
 70
0
 10
-1.4015964248
 20
11.5029202621
 10
-1.401613634
 20
11.5016008898
 10
-1.4016646847
 20
11.5002934711
 10
-1.4017487115
 20
11.498996667
 10
-1.4018648491
 20
11.4977091385
 10
-1.4020122322
 20
11.4964295466
 10
-1.4021899955
 20
11.4951565521
 10
-1.4023972735
 20
11.493888816
 10
-1.402633201
 20
11.4926249994
 10
-1.4029369746
 20
11.4911841107
 10
-1.4032767729
 20
11.489746944
 10
-1.4036523313
 20
11.4883138506
 10
-1.404063385
 20
11.4868851823
 10
-1.4045096694
 20
11.4854612907
 10
-1.4049909197
 20
11.4840425273
 10
-1.4055068712
 20
11.4826292437
 10
-1.4061521745
 20
11.4809881296
 10
-1.4068430565
 20
11.4793574421
 10
-1.4075782239
 20
11.4777396705
 10
-1.4083563835
 20
11.4761373041
 10
-1.4091762421
 20
11.4745528323
 10
-1.4100365063
 20
11.4729887444
 10
-1.4109357858
 20
11.4714474872
 10
-1.4118723019
 20
11.4699313371
 10
-1.4128441786
 20
11.468442528
 10
-1.4138495399
 20
11.4669832936
 10
-1.41488651
 20
11.465555868
 10
-1.4159532129
 20
11.4641624849
 10
-1.4170479836
 20
11.4628050597
 10
-1.4181700003
 20
11.4614842336
 10
-1.419318652
 20
11.4602003294
 10
-1.4204933278
 20
11.4589536698
 10
-1.4216934167
 20
11.4577445775
 10
-1.4229183078
 20
11.4565733754
 10
-1.4239879551
 20
11.4555997767
 10
-1.4250777702
 20
11.4546537767
 10
-1.4261901476
 20
11.4537348993
 10
-1.4273274818
 20
11.4528426685
 10
-1.4284921676
 20
11.4519766084
 10
-1.4296865995
 20
11.4511362427
 10
-1.430913172
 20
11.4503210955
  0
LWPOLYLINE
  5
2A8
100
AcDbEntity
  8
0
100
AcDbPolyline
 62
253
  6
CONTINUOUS
 90
44
 70
0
 10
-0.7444216096
 20
-10.453261826
 10
-0.7443916229
 20
-10.4511247586
 10
-0.7443024072
 20
-10.4490042028
 10
-0.7441550792
 20
-10.4468965975
 10
-0.7439507555
 20
-10.4447983818
 10
-0.7436905528
 20
-10.4427059947
 10
-0.7433755876
 20
-10.4406158753
 10
-0.7430069767
 20
-10.4385244626
 10
-0.7425856123
 20
-10.4364289153
 10
-0.7421114898
 20
-10.4343292707
 10
-0.7415843803
 20
-10.432226286
 10
-0.7410040546
 20
-10.4301207183
 10
-0.7403702838
 20
-10.4280133245
 10
-0.739682839
 20
-10.4259048617
 10
-0.7389414911
 20
-10.4237960871
 10
-0.7381461656
 20
-10.4216880682
 10
-0.7372974054
 20
-10.4195831151
 10
-0.7363959081
 20
-10.4174838484
 10
-0.7354423711
 20
-10.4153928886
 10
-0.7344374917
 20
-10.4133128564
 10
-0.7333819675
 20
-10.4112463723
 10
-0.7322764959
 20
-10.4091960569
 10
-0.7311218086
 20
-10.4071644733
 10
-0.7299187755
 20
-10.4051539535
 10
-0.7286683005
 20
-10.4031667723
 10
-0.7273712876
 20
-10.4012052042
 10
-0.726028641
 20
-10.3992715238
 10
-0.7246412647
 20
-10.3973680058
 10
-0.7232100627
 20
-10.3954969246
 10
-0.7217358384
 20
-10.3936604172
 10
-0.7202189919
 20
-10.3918600703
 10
-0.7186598229
 20
-10.3900973326
 10
-0.7170586307
 20
-10.3883736531
 10
-0.7154157149
 20
-10.3866904806
 10
-0.713731375
 20
-10.3850492642
 10
-0.7120059104
 20
-10.3834514527
 10
-0.71046209
 20
-10.3820900448
 10
-0.7088839779
 20
-10.3807635445
 10
-0.7072685391
 20
-10.3794725184
 10
-0.7056127387
 20
-10.3782175329
 10
-0.7039135417
 20
-10.3769991544
 10
-0.7021679132
 20
-10.3758179494
 10
-0.7003728183
 20
-10.3746744845
 10
-0.6985252219
 20
-10.373569326
  0
LWPOLYLINE
  5
2A9
100
AcDbEntity
  8
0
100
AcDbPolyline
 62
253
  6
CONTINUOUS
 90
51
 70
0
 10
-0.7719243
 20
11.5204180399
 10
-0.7711197828
 20
11.5676674018
 10
-0.7687186974
 20
11.614821403
 10
-0.764739743
 20
11.6619927697
 10
-0.7591945545
 20
11.7092781453
 10
-0.7520665106
 20
11.7567098422
 10
-0.7433319253
 20
11.8043040901
 10
-0.7329745307
 20
11.8520469743
 10
-0.7210077289
 20
11.8998040018
 10
-0.7074523399
 20
11.9474105357
 10
-0.6923330266
 20
11.9947117837
 10
-0.6756898253
 20
12.0415923341
 10
-0.6575666153
 20
12.08794662
 10
-0.6380013363
 20
12.1336808403
 10
-0.6170081684
 20
12.1787482558
 10
-0.5945953519
 20
12.223113893
 10
-0.5707711269
 20
12.2667427782
 10
-0.5455437338
 20
12.3095999379
 10
-0.5189214129
 20
12.3516503985
 10
-0.4949989057
 20
12.3870216564
 10
-0.4700665616
 20
12.4217320184
 10
-0.4441333347
 20
12.45573896
 10
-0.4172081788
 20
12.4889999571
 10
-0.3893000481
 20
12.5214724855
 10
-0.3604178965
 20
12.5531140208
 10
-0.330570678
 20
12.5838820388
 10
-0.299775167
 20
12.6137377795
 10
-0.2680794198
 20
12.6426575392
 10
-0.235539313
 20
12.6706213786
 10
-0.2022107231
 20
12.6976093582
 10
-0.1681495269
 20
12.7236015386
 10
-0.133411601
 20
12.7485779803
 10
-0.0980528219
 20
12.772518744
 10
-0.0560786932
 20
12.7991204003
 10
-0.0133518439
 20
12.8242916732
 10
0.0301114509
 20
12.8480389917
 10
0.0742949159
 20
12.8703687851
 10
0.119182276
 20
12.8912874825
 10
0.1647572561
 20
12.9108015131
 10
0.2109878248
 20
12.9289072676
 10
0.2577789265
 20
12.9455609825
 10
0.3050197492
 20
12.960708856
 10
0.352593093
 20
12.9743026846
 10
0.4003562053
 20
12.9863166591
 10
0.4481599451
 20
12.9967305689
 10
0.4958813844
 20
13.0055302757
 10
0.5435024452
 20
13.0127259302
 10
0.5910312623
 20
13.0183337557
 10
0.6384937402
 20
13.0223634009
 10
0.6859868628
 20
13.0247982178
 10
0.7336253839
 20
13.0256149839
  0
LINE
  5
2AA
100
AcDbEntity
  8
0
100
AcDbLine
 62
253
  6
CONTINUOUS
 10
10.0251542004
 20
22.0374817122
 11
10.1173326579
 21
22.2219651278
  0
LINE
  5
2AB
100
AcDbEntity
  8
0
100
AcDbLine
 62
253
  6
CONTINUOUS
 10
-11.3003491348
 20
-21.5119824062
 11
-11.3933253513
 21
-21.6980624348
  0
LINE
  5
2AC
100
AcDbEntity
  8
0
100
AcDbLine
 62
253
  6
CONTINUOUS
 10
10.5249828629
 20
21.5381669448
 11
10.6179590795
 21
21.7242469735
  0
LINE
  5
2AD
100
AcDbEntity
  8
0
100
AcDbLine
 62
7
  6
CONTINUOUS
 10
7.8623168641
 20
-0.2218152018
 11
8.2122715182
 21
-0.1869077307
  0
LINE
  5
2AE
100
AcDbEntity
  8
0
100
AcDbLine
 62
253
  6
CONTINUOUS
 10
10.4958050732
 20
-0.7340969148
 11
10.4921707438
 21
-0.7341718961
  0
LINE
  5
2AF
100
AcDbEntity
  8
0
100
AcDbLine
 62
253
  6
CONTINUOUS
 10
10.4921707438
 20
-0.7341718961
 11
10.4709052554
 21
-0.7343190292
  0
LINE
  5
2B0
100
AcDbEntity
  8
0
100
AcDbLine
 62
253
  6
CONTINUOUS
 10
9.9959764107
 20
-0.2341159533
 11
3.0750227413
 21
-0.2375613519
  0
LINE
  5
2B1
100
AcDbEntity
  8
0
100
AcDbLine
 62
253
  6
CONTINUOUS
 10
-10.7713426825
 20
0.260300492
 11
-3.8503890131
 21
0.2637458906
  0
LINE
  5
2B2
100
AcDbEntity
  8
0
100
AcDbLine
 62
253
  6
CONTINUOUS
 10
10.4709052554
 20
-0.7343190292
 11
3.0892479415
 21
-0.7384629861
  0
LINE
  5
2B3
100
AcDbEntity
  8
0
100
AcDbLine
 62
7
  6
CONTINUOUS
 10
7.8623168641
 20
-0.2218152018
 11
-8.6376831359
 21
-0.2218152018
  0
LINE
  5
2B4
100
AcDbEntity
  8
0
100
AcDbLine
 62
7
  6
CONTINUOUS
 10
10.1376298476
 20
-0.1869077307
 11
8.2122715182
 21
-0.1869077307
  0
LINE
  5
2B5
100
AcDbEntity
  8
0
100
AcDbLine
 62
7
  6
CONTINUOUS
 10
-8.98763779
 20
-0.1869077307
 11
-10.9129961194
 21
-0.1869077307
  0
LINE
  5
2B6
100
AcDbEntity
  8
0
100
AcDbLine
 62
7
  6
CONTINUOUS
 10
-10.9129961194
 20
0.2130922693
 11
-8.98763779
 21
0.2130922693
  0
LINE
  5
2B7
100
AcDbEntity
  8
0
100
AcDbLine
 62
7
  6
CONTINUOUS
 10
8.2122715182
 20
0.2130922693
 11
10.1376298476
 21
0.2130922693
  0
LINE
  5
2B8
100
AcDbEntity
  8
0
100
AcDbLine
 62
7
  6
CONTINUOUS
 10
-8.6376831359
 20
0.2479997405
 11
7.8623168641
 21
0.2479997405
  0
LINE
  5
2B9
100
AcDbEntity
  8
0
100
AcDbLine
 62
253
  6
CONTINUOUS
 10
3.0892479415
 20
-0.7384629861
 11
-3.864611069
 21
-0.738462987
  0
LINE
  5
2BA
100
AcDbEntity
  8
0
100
AcDbLine
 62
253
  6
CONTINUOUS
 10
3.0750227413
 20
-0.2375613519
 11
-3.8503916079
 21
-0.2375613513
  0
LINE
  5
2BB
100
AcDbEntity
  8
0
100
AcDbLine
 62
253
  6
CONTINUOUS
 10
-3.8503890131
 20
0.2637458906
 11
3.0750253361
 21
0.26374589
  0
LINE
  5
2BC
100
AcDbEntity
  8
0
100
AcDbLine
 62
253
  6
CONTINUOUS
 10
-3.8503916079
 20
-0.2375613513
 11
-10.7713426812
 21
-0.2341159538
  0
LINE
  5
2BD
100
AcDbEntity
  8
0
100
AcDbLine
 62
253
  6
CONTINUOUS
 10
3.0750253361
 20
0.26374589
 11
9.9959764094
 21
0.2603004924
  0
LINE
  5
2BE
100
AcDbEntity
  8
0
100
AcDbLine
 62
253
  6
CONTINUOUS
 10
-3.864611069
 20
-0.738462987
 11
-11.2462715249
 21
-0.734319025
  0
LWPOLYLINE
  5
2BF
100
AcDbEntity
  8
0
100
AcDbPolyline
 62
253
  6
CONTINUOUS
 90
3
 70
0
 10
-11.2462715249
 20
-0.734319025
 10
-11.2675370132
 20
-0.7341718952
 10
-11.2711713425
 20
-0.7340969157
  0
LINE
  5
2C0
100
AcDbEntity
  8
0
100
AcDbLine
 62
7
  6
CONTINUOUS
 10
-8.6376831359
 20
-0.2218152018
 11
-8.98763779
 21
-0.1869077307
  0
LINE
  5
2C1
100
AcDbEntity
  8
0
100
AcDbLine
 62
253
  6
CONTINUOUS
 10
10.1173326579
 20
-22.1957805891
 11
10.0251541998
 21
-22.0112971723
  0
LINE
  5
2C2
100
AcDbEntity
  8
0
100
AcDbLine
 62
253
  6
CONTINUOUS
 10
-11.3933253513
 20
21.7242469735
 11
-11.3003491341
 21
21.5381669436
  0
LINE
  5
2C3
100
AcDbEntity
  8
0
100
AcDbLine
 62
253
  6
CONTINUOUS
 10
10.6179590795
 20
-21.6980624348
 11
10.5249828623
 21
-21.5119824049
  0
LINE
  5
2C4
100
AcDbEntity
  8
0
100
AcDbLine
 62
253
  6
CONTINUOUS
 10
0.9649983468
 20
-12.5001843255
 11
0.9649983468
 21
-11.7041059923
  0
LINE
  5
2C5
100
AcDbEntity
  8
0
100
AcDbLine
 62
253
  6
CONTINUOUS
 10
0.9649983468
 20
-11.2496576591
 11
0.9649983468
 21
-10.453261826
  0
LINE
  5
2C6
100
AcDbEntity
  8
0
100
AcDbLine
 62
253
  6
CONTINUOUS
 10
1.3984576823
 20
-10.453261826
 11
1.3984576823
 21
-12.5001843255
  0
LWPOLYLINE
  5
2C7
100
AcDbEntity
  8
0
100
AcDbPolyline
 62
253
  6
CONTINUOUS
 90
53
 70
0
 10
2.156272292
 20
11.9115074842
 10
2.1562287071
 20
11.9086349662
 10
2.1560989006
 20
11.9058066624
 10
2.1558842948
 20
11.9030128356
 10
2.1555863123
 20
11.900243749
 10
2.1552063752
 20
11.8974896655
 10
2.154745906
 20
11.8947408482
 10
2.1542058379
 20
11.8919896641
 10
2.1535851475
 20
11.8892368962
 10
2.1528823222
 20
11.8864854313
 10
2.1520958495
 20
11.8837381564
 10
2.1512242169
 20
11.8809979586
 10
2.1502659117
 20
11.8782677246
 10
2.1492196585
 20
11.8755507884
 10
2.1480851301
 20
11.8728522715
 10
2.1468622361
 20
11.8701777423
 10
2.1455508865
 20
11.8675327691
 10
2.1441509911
 20
11.8649229203
 10
2.1426624595
 20
11.8623537644
 10
2.1413158952
 20
11.8601882143
 10
2.1399036993
 20
11.8580600047
 10
2.1384254272
 20
11.8559724883
 10
2.1368806338
 20
11.8539290177
 10
2.1352688745
 20
11.8519329456
 10
2.1335897043
 20
11.8499876247
 10
2.1318426784
 20
11.8480964076
 10
2.1300276283
 20
11.8462620803
 10
2.1281454911
 20
11.8444851621
 10
2.1261974801
 20
11.8427656058
 10
2.1241848087
 20
11.8411033641
 10
2.1221086902
 20
11.8394983896
 10
2.1199703381
 20
11.837950635
 10
2.1177709656
 20
11.836460053
 10
2.1155118978
 20
11.8350266244
 10
2.1131949064
 20
11.8336504432
 10
2.1108218745
 20
11.8323316311
 10
2.1083946856
 20
11.8310703103
 10
2.1059152228
 20
11.8298666027
 10
2.1033853695
 20
11.8287206302
 10
2.1008070089
 20
11.8276325149
 10
2.0977404226
 20
11.8264362716
 10
2.0946151443
 20
11.82531876
 10
2.0914359425
 20
11.8242797953
 10
2.0882075858
 20
11.8233191933
 10
2.0849348425
 20
11.8224367694
 10
2.0816224812
 20
11.8216323391
 10
2.0787537952
 20
11.8210047975
 10
2.0758529027
 20
11.8204345052
 10
2.0729132006
 20
11.8199215459
 10
2.069928086
 20
11.8194660028
 10
2.0668909561
 20
11.8190679596
 10
2.0637952081
 20
11.8187274997
 10
2.0606342389
 20
11.8184447065
  0
LWPOLYLINE
  5
2C8
100
AcDbEntity
  8
0
100
AcDbPolyline
 62
253
  6
CONTINUOUS
 90
55
 70
0
 10
0.9649983468
 20
-10.453261826
 10
0.9651027859
 20
-10.4467250104
 10
0.9654141009
 20
-10.4402476861
 10
0.965929288
 20
-10.4338131392
 10
0.9666453437
 20
-10.427404656
 10
0.9675592643
 20
-10.4210055228
 10
0.9686689167
 20
-10.4146024142
 10
0.9699756502
 20
-10.4081955584
 10
0.9714816846
 20
-10.401788572
 10
0.9731892398
 20
-10.3953850716
 10
0.9751005356
 20
-10.3889886737
 10
0.9772174649
 20
-10.3826041356
 10
0.9795406132
 20
-10.3762407782
 10
0.9820702391
 20
-10.3699090627
 10
0.9848066009
 20
-10.3636194506
 10
0.9877499573
 20
-10.3573824035
 10
0.9903596586
 20
-10.3522343131
 10
0.9931050174
 20
-10.3471465307
 10
0.9959777655
 20
-10.3421355963
 10
0.9989724255
 20
-10.3372137017
 10
1.0020946835
 20
-10.3323756462
 10
1.0053530168
 20
-10.3276118812
 10
1.0087539673
 20
-10.3229160403
 10
1.0122963368
 20
-10.3182944853
 10
1.015976992
 20
-10.3137567602
 10
1.0197927994
 20
-10.3093124088
 10
1.0237406259
 20
-10.3049709751
 10
1.0278173379
 20
-10.3007420031
 10
1.0320188891
 20
-10.2966339794
 10
1.03633758
 20
-10.2926511613
 10
1.0407647983
 20
-10.2887967491
 10
1.0452919314
 20
-10.2850739426
 10
1.0499103669
 20
-10.2814859421
 10
1.0546114922
 20
-10.2780359477
 10
1.0593897696
 20
-10.2747252858
 10
1.0642519607
 20
-10.2715477888
 10
1.0692079016
 20
-10.2684954157
 10
1.0742626932
 20
-10.2655631186
 10
1.0794024953
 20
-10.2627578225
 10
1.0846087321
 20
-10.2600894458
 10
1.0909211242
 20
-10.257079239
 10
1.0972905469
 20
-10.2542804969
 10
1.1037051137
 20
-10.251693238
 10
1.1101529381
 20
-10.2493174807
 10
1.1166221335
 20
-10.2471532434
 10
1.1231023027
 20
-10.2452001056
 10
1.1295890048
 20
-10.2434558908
 10
1.1360792882
 20
-10.241917984
 10
1.1425702011
 20
-10.2405837699
 10
1.1490587919
 20
-10.2394506331
 10
1.1555454423
 20
-10.2385169432
 10
1.1620438679
 20
-10.2377850081
 10
1.1685711177
 20
-10.2372581206
 10
1.1751442406
 20
-10.2369395735
 10
1.1817802857
 20
-10.2368326594
  0
LWPOLYLINE
  5
2C9
100
AcDbEntity
  8
0
100
AcDbPolyline
 62
253
  6
CONTINUOUS
 90
55
 70
0
 10
1.3984576823
 20
-12.5001843255
 10
1.3983524664
 20
-12.5067603743
 10
1.3980388922
 20
-12.5132757033
 10
1.3975200695
 20
-12.5197470098
 10
1.3967991082
 20
-12.526190991
 10
1.3958791184
 20
-12.5326243445
 10
1.3947623245
 20
-12.5390603975
 10
1.3934474097
 20
-12.5454989971
 10
1.3919321715
 20
-12.5519366207
 10
1.3902144076
 20
-12.5583697453
 10
1.3882919157
 20
-12.5647948482
 10
1.386162832
 20
-12.5712072283
 10
1.3838266462
 20
-12.5775974717
 10
1.3812831868
 20
-12.5839549863
 10
1.3785322819
 20
-12.5902691799
 10
1.37557376
 20
-12.5965294605
 10
1.3729510396
 20
-12.6016957622
 10
1.3701925306
 20
-12.6068004974
 10
1.3673067425
 20
-12.6118268951
 10
1.3642993715
 20
-12.6167625759
 10
1.3611648616
 20
-12.6216127286
 10
1.3578948442
 20
-12.6263869337
 10
1.3544828756
 20
-12.6310916182
 10
1.3509302125
 20
-12.6357205951
 10
1.347240037
 20
-12.6402645237
 10
1.3434155311
 20
-12.6447140635
 10
1.3394598768
 20
-12.6490598739
 10
1.335376256
 20
-12.6532926142
 10
1.3311687721
 20
-12.6574039699
 10
1.326845214
 20
-12.6613897298
 10
1.3224142918
 20
-12.665246709
 10
1.3178847156
 20
-12.6689717226
 10
1.3132651956
 20
-12.6725615853
 10
1.3085644421
 20
-12.6760131123
 10
1.3037880768
 20
-12.6793249915
 10
1.2989293691
 20
-12.682503403
 10
1.2939784998
 20
-12.6855564002
 10
1.2889303617
 20
-12.6884890532
 10
1.2837986945
 20
-12.6912945013
 10
1.2786019499
 20
-12.6939629006
 10
1.2723025889
 20
-12.6969730473
 10
1.2659478995
 20
-12.6997716498
 10
1.2595496947
 20
-12.7023586891
 10
1.2531197872
 20
-12.7047341461
 10
1.24666999
 20
-12.7068980019
 10
1.240210632
 20
-12.7088506782
 10
1.2337461064
 20
-12.7105943601
 10
1.2272793229
 20
-12.7121316733
 10
1.2208131907
 20
-12.7134652435
 10
1.2143506193
 20
-12.7145976964
 10
1.2078912164
 20
-12.7155306829
 10
1.2014213827
 20
-12.7162619529
 10
1.194924217
 20
-12.7167882814
 10
1.1883828184
 20
-12.7171064436
 10
1.1817802857
 20
-12.7172132143
  0
LINE
  5
2CA
100
AcDbEntity
  8
0
100
AcDbLine
 62
253
  6
CONTINUOUS
 10
-10.8005204723
 20
-22.0112971735
 11
-10.8926989297
 21
-22.1957805891
  0
LINE
  5
2CB
100
AcDbEntity
  8
0
100
AcDbLine
 62
7
  6
CONTINUOUS
 10
-8.6376831359
 20
0.2479997405
 11
-8.98763779
 21
0.2130922693
  0
LINE
  5
2CC
100
AcDbEntity
  8
0
100
AcDbLine
 62
253
  6
CONTINUOUS
 10
-11.271171345
 20
0.7602814535
 11
-11.2675370156
 21
0.7603564347
  0
LINE
  5
2CD
100
AcDbEntity
  8
0
100
AcDbLine
 62
253
  6
CONTINUOUS
 10
-11.2675370156
 20
0.7603564347
 11
-11.2462715272
 21
0.7605035679
  0
LINE
  5
2CE
100
AcDbEntity
  8
0
100
AcDbLine
 62
253
  6
CONTINUOUS
 10
-11.2462715272
 20
0.7605035679
 11
-3.8646142134
 21
0.7646475248
  0
LINE
  5
2CF
100
AcDbEntity
  8
0
100
AcDbLine
 62
253
  6
CONTINUOUS
 10
-3.8646142134
 20
0.7646475248
 11
3.0892447972
 21
0.7646475256
  0
LINE
  5
2D0
100
AcDbEntity
  8
0
100
AcDbLine
 62
253
  6
CONTINUOUS
 10
3.0892447972
 20
0.7646475256
 11
10.2244458606
 21
0.760958666
  0
LINE
  5
2D1
100
AcDbEntity
  8
0
100
AcDbLine
 62
253
  6
CONTINUOUS
 10
10.2244458606
 20
0.760958666
 11
10.470905253
 21
0.7605035636
  0
LWPOLYLINE
  5
2D2
100
AcDbEntity
  8
0
100
AcDbPolyline
 62
253
  6
CONTINUOUS
 90
3
 70
0
 10
10.470905253
 20
0.7605035636
 10
10.4921707413
 20
0.7603564339
 10
10.4958050707
 20
0.7602814543
  0
LINE
  5
2D3
100
AcDbEntity
  8
0
100
AcDbLine
 62
7
  6
CONTINUOUS
 10
7.8623168641
 20
0.2479997405
 11
8.2122715182
 21
0.2130922693
  0
LWPOLYLINE
  5
2D4
100
AcDbEntity
  8
0
100
AcDbPolyline
 62
253
  6
CONTINUOUS
 90
55
 70
0
 10
-3.4871128131
 20
10.2322852624
 10
-3.4947001496
 20
10.2460513773
 10
-3.5016784451
 20
10.26003758
 10
-3.5080915826
 20
10.2743189331
 10
-3.5139834451
 20
10.2889704995
 10
-3.5193859711
 20
10.3040528838
 10
-3.5242833213
 20
10.3195688583
 10
-3.5286477121
 20
10.3355067375
 10
-3.5324513597
 20
10.3518548359
 10
-3.5350711615
 20
10.3652181532
 10
-3.5372958178
 20
10.3788145501
 10
-3.5391068403
 20
10.392622045
 10
-3.5404857407
 20
10.4066186559
 10
-3.5414140306
 20
10.420782401
 10
-3.5418757758
 20
10.4350919915
 10
-3.5418652579
 20
10.4495289101
 10
-3.5413793125
 20
10.4640753323
 10
-3.5404147754
 20
10.4787134337
 10
-3.5389684821
 20
10.4934253899
 10
-3.5370380613
 20
10.5081965354
 10
-3.5346243135
 20
10.5230248405
 10
-3.5317288321
 20
10.5379114346
 10
-3.5283532107
 20
10.5528574468
 10
-3.5244990427
 20
10.5678640066
 10
-3.5190116602
 20
10.5867055472
 10
-3.5127872879
 20
10.6056245168
 10
-3.5058341749
 20
10.6246019745
 10
-3.4981605707
 20
10.6436189794
 10
-3.4907395217
 20
10.6605414827
 10
-3.4827502308
 20
10.6774706304
 10
-3.4741872152
 20
10.6943967853
 10
-3.465044992
 20
10.7113103102
 10
-3.4553180785
 20
10.728201568
 10
-3.4450009918
 20
10.7450609215
 10
-3.434088249
 20
10.7618787336
 10
-3.4225743675
 20
10.778645367
 10
-3.4104538643
 20
10.7953511847
 10
-3.3977237433
 20
10.8119852337
 10
-3.3843909551
 20
10.8285312985
 10
-3.3704649366
 20
10.8449718477
 10
-3.3559551253
 20
10.8612893498
 10
-3.3408709581
 20
10.8774662736
 10
-3.3252218724
 20
10.8934850876
 10
-3.3090173051
 20
10.9093282606
 10
-3.2922666936
 20
10.9249782611
 10
-3.2749794749
 20
10.9404175578
 10
-3.2571619826
 20
10.9556307914
 10
-3.2388081351
 20
10.9706112903
 10
-3.2199087472
 20
10.9853545553
 10
-3.2004546338
 20
10.9998560868
 10
-3.1804366097
 20
11.0141113854
 10
-3.1598454897
 20
11.0281159516
 10
-3.1386720885
 20
11.0418652862
 10
-3.1169072211
 20
11.0553548895
 10
-3.0945417021
 20
11.0685802622
  0
LINE
  5
2D5
100
AcDbEntity
  8
0
100
AcDbLine
 62
253
  6
CONTINUOUS
 10
-10.8926989297
 20
22.2219651278
 11
-10.8005204717
 21
22.037481711
  0
LINE
  5
2D6
100
AcDbEntity
  8
0
100
AcDbLine
 62
253
  6
CONTINUOUS
 10
10.1376298476
 20
-0.1869077307
 11
9.9959764107
 21
-0.2341159533
  0
LINE
  5
2D7
100
AcDbEntity
  8
0
100
AcDbLine
 62
253
  6
CONTINUOUS
 10
10.6376869876
 20
-0.6868125485
 11
10.4958050732
 21
-0.7340969149
  0
LINE
  5
2D8
100
AcDbEntity
  8
0
100
AcDbLine
 62
253
  6
CONTINUOUS
 10
9.9959764094
 20
0.2603004924
 11
10.1376298476
 21
0.2130922693
  0
LINE
  5
2D9
100
AcDbEntity
  8
0
100
AcDbLine
 62
253
  6
CONTINUOUS
 10
10.4958050706
 20
0.7602814544
 11
10.6376869876
 21
0.7129970871
  0
LWPOLYLINE
  5
2DA
100
AcDbEntity
  8
0
100
AcDbPolyline
 62
253
  6
CONTINUOUS
 90
10
 70
0
 10
10.5249828623
 20
-21.5119824049
 10
10.5236890971
 20
-21.5076298957
 10
10.5224171359
 20
-21.4999361259
 10
10.5211669789
 20
-21.4889010954
 10
10.5199320763
 20
-21.4744358926
 10
10.5187189778
 20
-21.4566294291
 10
10.5175473321
 20
-21.4357484401
 10
10.516418326
 20
-21.4117481787
 10
10.5153307728
 20
-21.3846733918
 10
10.5143007611
 20
-21.3549250545
  0
LWPOLYLINE
  5
2DB
100
AcDbEntity
  8
0
100
AcDbPolyline
 62
253
  6
CONTINUOUS
 90
31
 70
0
 10
-1.4372984496
 20
12.4261397063
 10
-1.4350263668
 20
12.4226614841
 10
-1.4328214638
 20
12.419143813
 10
-1.4306834073
 20
12.415586158
 10
-1.4286118638
 20
12.4119879846
 10
-1.4266064998
 20
12.4083487581
 10
-1.4246669819
 20
12.4046679435
 10
-1.4227929767
 20
12.4009450063
 10
-1.4209845093
 20
12.3971796772
 10
-1.4192430396
 20
12.3933727493
 10
-1.4175703859
 20
12.3895252811
 10
-1.4159683666
 20
12.3856383313
 10
-1.4144388001
 20
12.3817129583
 10
-1.4129835049
 20
12.3777502209
 10
-1.4116042992
 20
12.3737511775
 10
-1.4104614027
 20
12.370223195
 10
-1.4093797422
 20
12.3666697186
 10
-1.4083609055
 20
12.3630922408
 10
-1.4074064802
 20
12.3594922539
 10
-1.4065180541
 20
12.3558712503
 10
-1.4056972149
 20
12.3522307224
 10
-1.4049455503
 20
12.3485721626
 10
-1.404264648
 20
12.3448970632
 10
-1.4036561759
 20
12.3412065827
 10
-1.4031221222
 20
12.3375005428
 10
-1.4026645556
 20
12.3337784313
 10
-1.4022855445
 20
12.330039736
 10
-1.4019871574
 20
12.3262839448
 10
-1.4017714627
 20
12.3225105454
 10
-1.401640529
 20
12.3187190255
 10
-1.4015964248
 20
12.314908873
  0
LINE
  5
2DC
100
AcDbEntity
  8
0
100
AcDbLine
 62
253
  6
CONTINUOUS
 10
-1.5163559476
 20
11.469759151
 11
-2.1192884322
 21
12.4213772063
  0
LINE
  5
2DD
100
AcDbEntity
  8
0
100
AcDbLine
 62
253
  6
CONTINUOUS
 10
-2.1511442648
 20
13.5928816505
 11
-1.4347575359
 21
12.4280799841
  0
LWPOLYLINE
  5
2DE
100
AcDbEntity
  8
0
100
AcDbPolyline
 62
253
  6
CONTINUOUS
 90
41
 70
0
 10
0.7718674636
 20
12.1928830397
 10
0.7712130911
 20
12.1948236418
 10
0.7706102505
 20
12.1967663938
 10
0.7700570998
 20
12.198714011
 10
0.7695517969
 20
12.2006692084
 10
0.7690924998
 20
12.2026347011
 10
0.7686773664
 20
12.2046132043
 10
0.7683045548
 20
12.2066074329
 10
0.7679212378
 20
12.2089566172
 10
0.7675936773
 20
12.2113297324
 10
0.7673225324
 20
12.2137256097
 10
0.7671084621
 20
12.2161430803
 10
0.7669521257
 20
12.2185809753
 10
0.7668541822
 20
12.2210381259
 10
0.7668152605
 20
12.2235130169
 10
0.7668358683
 20
12.2260027472
 10
0.7669164832
 20
12.2285040693
 10
0.7670575829
 20
12.2310137357
 10
0.7672596448
 20
12.2335284989
 10
0.7675231465
 20
12.2360451115
 10
0.7678485293
 20
12.2385603715
 10
0.7682360892
 20
12.2410712591
 10
0.768686086
 20
12.2435748002
 10
0.7691987795
 20
12.2460680206
 10
0.7697744293
 20
12.2485479461
 10
0.7704132953
 20
12.2510116025
 10
0.7710114374
 20
12.2531082164
 10
0.7716565643
 20
12.2551894902
 10
0.7723490254
 20
12.2572542214
 10
0.77308917
 20
12.2593012079
 10
0.7738773476
 20
12.2613292473
 10
0.7747139076
 20
12.2633371374
 10
0.7755991993
 20
12.2653236759
 10
0.7764144252
 20
12.267043657
 10
0.7772695367
 20
12.2687468857
 10
0.7781668419
 20
12.2704338773
 10
0.7791086486
 20
12.2721051472
 10
0.7800972648
 20
12.2737612107
 10
0.7811349984
 20
12.2754025834
 10
0.7822241572
 20
12.2770297805
 10
0.7833670493
 20
12.2786433175
  0
LWPOLYLINE
  5
2DF
100
AcDbEntity
  8
0
100
AcDbPolyline
 62
253
  6
CONTINUOUS
 90
42
 70
0
 10
-2.4067104561
 20
-10.373569326
 10
-2.4048584013
 20
-10.3724889273
 10
-2.4029907542
 20
-10.3714691909
 10
-2.4011049055
 20
-10.3705071488
 10
-2.3991982458
 20
-10.3695998333
 10
-2.3972681654
 20
-10.3687442766
 10
-2.3953120551
 20
-10.3679375109
 10
-2.3933273053
 20
-10.3671765684
 10
-2.3909729781
 20
-10.3663437059
 10
-2.3885773294
 20
-10.3655701481
 10
-2.3861415709
 20
-10.3648568687
 10
-2.3836669142
 20
-10.3642048417
 10
-2.3811545711
 20
-10.3636150406
 10
-2.3786057533
 20
-10.3630884392
 10
-2.3760221121
 20
-10.3626260359
 10
-2.3734070584
 20
-10.3622289271
 10
-2.3707644426
 20
-10.3618982337
 10
-2.3680981151
 20
-10.3616350767
 10
-2.3654119264
 20
-10.3614405769
 10
-2.362709727
 20
-10.3613158553
 10
-2.3603836938
 20
-10.361265315
 10
-2.3580509243
 20
-10.3612674282
 10
-2.3557136164
 20
-10.3613227594
 10
-2.3533739678
 20
-10.3614318729
 10
-2.3510341763
 20
-10.3615953331
 10
-2.3486964398
 20
-10.3618137044
 10
-2.346362956
 20
-10.3620875513
 10
-2.344035832
 20
-10.362417454
 10
-2.3417168119
 20
-10.3628040575
 10
-2.339407549
 20
-10.3632480226
 10
-2.3371096967
 20
-10.3637500102
 10
-2.3348249084
 20
-10.364310681
 10
-2.3325548374
 20
-10.3649306961
 10
-2.330301137
 20
-10.3656107162
 10
-2.3283435469
 20
-10.3662559216
 10
-2.3263988774
 20
-10.3669506901
 10
-2.3244662492
 20
-10.3676981373
 10
-2.3225447832
 20
-10.368501379
 10
-2.3206336003
 20
-10.3693635307
 10
-2.3187318213
 20
-10.3702877083
 10
-2.3168385671
 20
-10.3712770274
 10
-0.7444216096
 20
-11.2489873813
  0
LINE
  5
2E0
100
AcDbEntity
  8
0
100
AcDbLine
 62
253
  6
CONTINUOUS
 10
1.6097594616
 20
13.1808536628
 11
2.134611737
 21
11.9710916509
  0
LWPOLYLINE
  5
2E1
100
AcDbEntity
  8
0
100
AcDbPolyline
 62
253
  6
CONTINUOUS
 90
8
 70
0
 10
10.0245957535
 20
-0.3644081584
 10
10.0209565979
 20
-0.3313089763
 10
10.0170256215
 20
-0.3026660198
 10
10.0133757541
 20
-0.2787431861
 10
10.0091031773
 20
-0.2597034722
 10
10.0042102242
 20
-0.2458043001
 10
9.9996720917
 20
-0.2372580753
 10
9.9959764107
 20
-0.2341159533
  0
LWPOLYLINE
  5
2E2
100
AcDbEntity
  8
0
100
AcDbPolyline
 62
253
  6
CONTINUOUS
 90
16
 70
0
 10
10.4958050732
 20
-0.7340969149
 10
10.4931195365
 20
-0.6824509832
 10
10.4850793678
 20
-0.6311869964
 10
10.4717177572
 20
-0.5808654872
 10
10.4531038363
 20
-0.5319932458
 10
10.4294022136
 20
-0.485180802
 10
10.4009266226
 20
-0.4411086599
 10
10.3680317869
 20
-0.4003086072
 10
10.3310479558
 20
-0.3631753704
 10
10.2903707088
 20
-0.3301095604
 10
10.2464366058
 20
-0.3014736381
 10
10.1997333887
 20
-0.2775925421
 10
10.1507866758
 20
-0.2587375719
 10
10.1001399748
 20
-0.2451173411
 10
10.0483465027
 20
-0.2368798963
 10
9.9959764107
 20
-0.2341159533
  0
LWPOLYLINE
  5
2E3
100
AcDbEntity
  8
0
100
AcDbPolyline
 62
253
  6
CONTINUOUS
 90
4
 70
0
 10
10.0349019446
 20
-0.5326691045
 10
10.0331010013
 20
-0.4859573742
 10
10.0303868451
 20
-0.4419864585
 10
10.0245957535
 20
-0.3644081584
  0
LINE
  5
2E4
100
AcDbEntity
  8
0
100
AcDbLine
 62
253
  6
CONTINUOUS
 10
10.5143007611
 20
-21.3549250545
 11
10.5124150742
 21
-21.2873244338
  0
LINE
  5
2E5
100
AcDbEntity
  8
0
100
AcDbLine
 62
253
  6
CONTINUOUS
 10
10.5124150742
 20
-21.2873244338
 11
10.510801252
 21
-21.210577688
  0
LINE
  5
2E6
100
AcDbEntity
  8
0
100
AcDbLine
 62
253
  6
CONTINUOUS
 10
10.0344150158
 20
21.7682363585
 11
10.0325412004
 21
21.8654814264
  0
LINE
  5
2E7
100
AcDbEntity
  8
0
100
AcDbLine
 62
253
  6
CONTINUOUS
 10
10.510801252
 20
-21.210577688
 11
10.5094829357
 21
-21.1258256861
  0
LINE
  5
2E8
100
AcDbEntity
  8
0
100
AcDbLine
 62
253
  6
CONTINUOUS
 10
10.0369144753
 20
21.5887650069
 11
10.0344150158
 21
21.7682363585
  0
LINE
  5
2E9
100
AcDbEntity
  8
0
100
AcDbLine
 62
253
  6
CONTINUOUS
 10
10.5094829357
 20
-21.1258256861
 11
10.5081244511
 21
-20.9878175267
  0
LINE
  5
2EA
100
AcDbEntity
  8
0
100
AcDbLine
 62
253
  6
CONTINUOUS
 10
10.0394879035
 20
21.2995777833
 11
10.0369144753
 21
21.5887650069
  0
LWPOLYLINE
  5
2EB
100
AcDbEntity
  8
0
100
AcDbPolyline
 62
253
  6
CONTINUOUS
 90
3
 70
0
 10
10.0386425273
 20
0.761048641
 10
10.0388673945
 20
0.7080600463
 10
10.0380148229
 20
0.6568094851
  0
LINE
  5
2EC
100
AcDbEntity
  8
0
100
AcDbLine
 62
253
  6
CONTINUOUS
 10
10.0412154461
 20
20.8903597499
 11
10.0394879035
 21
21.2995777833
  0
LINE
  5
2ED
100
AcDbEntity
  8
0
100
AcDbLine
 62
253
  6
CONTINUOUS
 10
10.5081244511
 20
-20.9878175267
 11
10.5075563478
 21
-20.8427330875
  0
LINE
  5
2EE
100
AcDbEntity
  8
0
100
AcDbLine
 62
253
  6
CONTINUOUS
 10
10.5075563478
 20
-20.8427330875
 11
10.5051156694
 21
-18.5313683667
  0
LINE
  5
2EF
100
AcDbEntity
  8
0
100
AcDbLine
 62
253
  6
CONTINUOUS
 10
10.0386423114
 20
0.7610486446
 11
10.0412154409
 21
20.8903597509
  0
LINE
  5
2F0
100
AcDbEntity
  8
0
100
AcDbLine
 62
253
  6
CONTINUOUS
 10
10.0407420259
 20
-21.0315172808
 11
10.038642323
 21
-0.7348641115
  0
LWPOLYLINE
  5
2F1
100
AcDbEntity
  8
0
100
AcDbPolyline
 62
253
  6
CONTINUOUS
 90
4
 70
0
 10
10.0386425299
 20
-0.7348641136
 10
10.0388672684
 20
-0.6818775159
 10
10.0380147781
 20
-0.6306286286
 10
10.0349019446
 20
-0.5326691045
  0
LINE
  5
2F2
100
AcDbEntity
  8
0
100
AcDbLine
 62
253
  6
CONTINUOUS
 10
10.5075563481
 20
20.8689176283
 11
10.5081244518
 21
21.0140020674
  0
LINE
  5
2F3
100
AcDbEntity
  8
0
100
AcDbLine
 62
253
  6
CONTINUOUS
 10
10.0383166657
 20
-21.4239837112
 11
10.0407420259
 21
-21.0315172808
  0
LINE
  5
2F4
100
AcDbEntity
  8
0
100
AcDbLine
 62
253
  6
CONTINUOUS
 10
10.5081244518
 20
21.0140020674
 11
10.5094829363
 21
21.1520102268
  0
LINE
  5
2F5
100
AcDbEntity
  8
0
100
AcDbLine
 62
253
  6
CONTINUOUS
 10
10.0361265035
 20
-21.6265102951
 11
10.0383166657
 21
-21.4239837112
  0
LINE
  5
2F6
100
AcDbEntity
  8
0
100
AcDbLine
 62
253
  6
CONTINUOUS
 10
10.0344150149
 20
-21.7420518178
 11
10.0361265035
 21
-21.6265102951
  0
LINE
  5
2F7
100
AcDbEntity
  8
0
100
AcDbLine
 62
253
  6
CONTINUOUS
 10
10.5094829363
 20
21.1520102268
 11
10.5108012526
 21
21.2367622287
  0
LINE
  5
2F8
100
AcDbEntity
  8
0
100
AcDbLine
 62
253
  6
CONTINUOUS
 10
10.0325411995
 20
-21.8392968867
 11
10.0344150149
 21
-21.7420518178
  0
LINE
  5
2F9
100
AcDbEntity
  8
0
100
AcDbLine
 62
253
  6
CONTINUOUS
 10
10.5108012526
 20
21.2367622287
 11
10.5124150748
 21
21.3135089746
  0
LWPOLYLINE
  5
2FA
100
AcDbEntity
  8
0
100
AcDbPolyline
 62
253
  6
CONTINUOUS
 90
11
 70
0
 10
10.5124150748
 20
21.3135089746
 10
10.5143007618
 20
21.381109595
 10
10.5153307734
 20
21.4108579322
 10
10.5164183267
 20
21.437932719
 10
10.5175473328
 20
21.4619329803
 10
10.5187189784
 20
21.4828139693
 10
10.5199320769
 20
21.5006204328
 10
10.5211669795
 20
21.5150856356
 10
10.5224171366
 20
21.526120666
 10
10.5236890977
 20
21.5338144358
 10
10.5249828629
 20
21.5381669448
  0
LWPOLYLINE
  5
2FB
100
AcDbEntity
  8
0
100
AcDbPolyline
 62
253
  6
CONTINUOUS
 90
4
 70
0
 10
10.0380148229
 20
0.6568094851
 10
10.0349016914
 20
0.5588476231
 10
10.0331007088
 20
0.5121352335
 10
10.0303864148
 20
0.4681641004
  0
LWPOLYLINE
  5
2FC
100
AcDbEntity
  8
0
100
AcDbPolyline
 62
253
  6
CONTINUOUS
 90
16
 70
0
 10
10.4958050706
 20
0.7602814544
 10
10.493119529
 20
0.7086354748
 10
10.4850793476
 20
0.6573714523
 10
10.4717177203
 20
0.6070499203
 10
10.4531037828
 20
0.5581776701
 10
10.4294021468
 20
0.5113652296
 10
10.4009265464
 20
0.4672930977
 10
10.3680317082
 20
0.4264930618
 10
10.3310478822
 20
0.3893598457
 10
10.2903706425
 20
0.3562940534
 10
10.246436545
 20
0.3276581439
 10
10.1997333339
 20
0.3037770582
 10
10.1507866297
 20
0.2849220972
 10
10.100139941
 20
0.2713018739
 10
10.0483464836
 20
0.263064434
 10
9.9959764081
 20
0.2603004928
  0
LWPOLYLINE
  5
2FD
100
AcDbEntity
  8
0
100
AcDbPolyline
 62
253
  6
CONTINUOUS
 90
9
 70
0
 10
10.0303864148
 20
0.4681641004
 10
10.0245951742
 20
0.390586738
 10
10.0209560092
 20
0.3574884842
 10
10.0170250104
 20
0.3288466436
 10
10.0133752049
 20
0.3049249904
 10
10.0091027483
 20
0.2858863489
 10
10.0042099422
 20
0.2719880377
 10
9.9996719655
 20
0.2634423937
 10
9.9959764086
 20
0.2603004928
  0
LWPOLYLINE
  5
2FE
100
AcDbEntity
  8
0
100
AcDbPolyline
 62
253
  6
CONTINUOUS
 90
42
 70
0
 10
-0.6985252219
 20
-10.373569326
 10
-0.6966732243
 20
-10.3724889591
 10
-0.6948056382
 20
-10.3714692517
 10
-0.6929198518
 20
-10.3705072354
 10
-0.6910132537
 20
-10.3695999421
 10
-0.6890832322
 20
-10.3687444034
 10
-0.6871271758
 20
-10.3679376512
 10
-0.6851424728
 20
-10.3671767172
 10
-0.6827881892
 20
-10.366343858
 10
-0.680392573
 20
-10.3655702975
 10
-0.6779568372
 20
-10.3648570104
 10
-0.6754821949
 20
-10.3642049718
 10
-0.6729698593
 20
-10.3636151568
 10
-0.6704210434
 20
-10.3630885403
 10
-0.6678373999
 20
-10.3626261216
 10
-0.6652223397
 20
-10.3622289976
 10
-0.6625797133
 20
-10.3618982893
 10
-0.6599133711
 20
-10.3616351179
 10
-0.6572271636
 20
-10.3614406044
 10
-0.6545249412
 20
-10.3613158701
 10
-0.6521988851
 20
-10.3612653196
 10
-0.64986609
 20
-10.3612674236
 10
-0.647528754
 20
-10.3613227466
 10
-0.6451890753
 20
-10.3614318532
 10
-0.6428492521
 20
-10.3615953079
 10
-0.6405114824
 20
-10.3618136753
 10
-0.6381779645
 20
-10.3620875199
 10
-0.6358508056
 20
-10.3624174222
 10
-0.6335317508
 20
-10.3628040269
 10
-0.6312224539
 20
-10.3632479946
 10
-0.6289245691
 20
-10.363749986
 10
-0.6266397505
 20
-10.3643106616
 10
-0.6243696523
 20
-10.3649306821
 10
-0.6221159284
 20
-10.365610708
 10
-0.6201583213
 20
-10.3662559188
 10
-0.6182136382
 20
-10.3669506924
 10
-0.6162810004
 20
-10.3676981439
 10
-0.6143595286
 20
-10.3685013886
 10
-0.6124483442
 20
-10.3693635417
 10
-0.6105465679
 20
-10.3702877184
 10
-0.6086533209
 20
-10.371277034
 10
0.9649983468
 20
-11.2496576591
  0
LWPOLYLINE
  5
2FF
100
AcDbEntity
  8
0
100
AcDbPolyline
 62
253
  6
CONTINUOUS
 90
29
 70
0
 10
-0.7444216096
 20
-11.7044234923
 10
-2.3165282658
 20
-12.5819866054
 10
-2.3181142559
 20
-12.582828748
 10
-2.3197110034
 20
-12.583638165
 10
-2.3213185833
 20
-12.584415046
 10
-2.3229370702
 20
-12.5851595806
 10
-2.324566539
 20
-12.5858719581
 10
-2.3262070645
 20
-12.5865523683
 10
-2.3278587215
 20
-12.5872010005
 10
-2.3295215847
 20
-12.5878180443
 10
-2.3311957289
 20
-12.5884036893
 10
-2.332881229
 20
-12.5889581249
 10
-2.3345781597
 20
-12.5894815407
 10
-2.3362865958
 20
-12.5899741263
 10
-2.3377765949
 20
-12.5903761201
 10
-2.3392752818
 20
-12.5907544915
 10
-2.3407826459
 20
-12.5911086326
 10
-2.3422986769
 20
-12.5914379355
 10
-2.3438233645
 20
-12.5917417924
 10
-2.3453566982
 20
-12.5920195955
 10
-2.3468986678
 20
-12.5922707368
 10
-2.3484492627
 20
-12.5924946085
 10
-2.3500084727
 20
-12.5926906028
 10
-2.3515762874
 20
-12.5928581119
 10
-2.3531526965
 20
-12.5929965278
 10
-2.3547376895
 20
-12.5931052428
 10
-2.356331256
 20
-12.5931836489
 10
-2.3579333858
 20
-12.5932311383
 10
-2.3595440684
 20
-12.5932471032
  0
LWPOLYLINE
  5
300
100
AcDbEntity
  8
0
100
AcDbPolyline
 62
253
  6
CONTINUOUS
 90
43
 70
0
 10
0.7336253839
 20
10.448079429
 10
0.7614993223
 20
10.4484461615
 10
0.7893892575
 20
10.4495539879
 10
0.8173165209
 20
10.4514143513
 10
0.8453024437
 20
10.4540386953
 10
0.8733683575
 20
10.457438463
 10
0.9015355935
 20
10.4616250978
 10
0.9298254832
 20
10.4666100429
 10
0.9582451455
 20
10.4724019711
 10
0.9867448503
 20
10.478998473
 10
1.0152606551
 20
10.4863943684
 10
1.0437286173
 20
10.4945844773
 10
1.0720847944
 20
10.5035636197
 10
1.1002652439
 20
10.5133266154
 10
1.1282060232
 20
10.5238682845
 10
1.1558499994
 20
10.5351829776
 10
1.183167278
 20
10.5472631682
 10
1.2101347741
 20
10.5601008607
 10
1.2367294028
 20
10.5736880592
 10
1.2629280791
 20
10.5880167682
 10
1.2887077182
 20
10.6030789918
 10
1.3140452352
 20
10.6188667343
 10
1.3389188424
 20
10.6353705052
 10
1.3633119416
 20
10.6525748341
 10
1.3872092319
 20
10.6704627559
 10
1.4105954122
 20
10.6890173053
 10
1.4334551816
 20
10.7082215172
 10
1.4557732392
 20
10.7280584264
 10
1.477534284
 20
10.7485110677
 10
1.4987214415
 20
10.7695584891
 10
1.5193115428
 20
10.7911637916
 10
1.5392798454
 20
10.8132860893
 10
1.558601607
 20
10.8358844965
 10
1.577252085
 20
10.8589181272
 10
1.5952065371
 20
10.8823460956
 10
1.6124402207
 20
10.9061275159
 10
1.6289337525
 20
10.9302306503
 10
1.6446891848
 20
10.9546603533
 10
1.6597139287
 20
10.9794306274
 10
1.6740153957
 20
11.004555475
 10
1.687600997
 20
11.0300488987
 10
1.700478144
 20
11.055924901
 10
1.7153848874
 20
11.0880919261
  0
LWPOLYLINE
  5
301
100
AcDbEntity
  8
0
100
AcDbPolyline
 62
253
  6
CONTINUOUS
 90
42
 70
0
 10
-3.0537253132
 20
10.0127163736
 10
-3.0678106599
 20
10.012852277
 10
-3.0818528873
 20
10.0132643961
 10
-3.0958559549
 20
10.0139593446
 10
-3.1098238222
 20
10.014943736
 10
-3.1237604486
 20
10.0162241838
 10
-3.1376697936
 20
10.0178073016
 10
-3.1515531882
 20
10.0196999054
 10
-3.1654014499
 20
10.0219096201
 10
-3.1792027679
 20
10.0244442729
 10
-3.1929453312
 20
10.0273116914
 10
-3.2066173291
 20
10.0305197027
 10
-3.2202069505
 20
10.0340761343
 10
-3.2317807521
 20
10.037407885
 10
-3.2432783513
 20
10.0410070996
 10
-3.2546927446
 20
10.0448795088
 10
-3.2660169283
 20
10.0490308435
 10
-3.2772438989
 20
10.0534668346
 10
-3.2883666529
 20
10.058193213
 10
-3.2993781865
 20
10.0632157096
 10
-3.3102709619
 20
10.0685385368
 10
-3.3210353037
 20
10.0741598331
 10
-3.3316610019
 20
10.0800762187
 10
-3.3421378469
 20
10.0862843136
 10
-3.3524556287
 20
10.0927807379
 10
-3.3626041375
 20
10.0995621117
 10
-3.3725731635
 20
10.1066250551
 10
-3.3823522057
 20
10.113965538
 10
-3.3919295986
 20
10.12157693
 10
-3.4012933854
 20
10.1294519504
 10
-3.4104316093
 20
10.1375833185
 10
-3.4193323136
 20
10.1459637537
 10
-3.4279835415
 20
10.1545859753
 10
-3.4363733364
 20
10.1634427028
 10
-3.4434912056
 20
10.1713807238
 10
-3.4503956811
 20
10.1794982766
 10
-3.4570826835
 20
10.1878009237
 10
-3.4635481331
 20
10.1962942277
 10
-3.4697879504
 20
10.204983751
 10
-3.4757980559
 20
10.2138750562
 10
-3.48157437
 20
10.2229737058
 10
-3.4871128131
 20
10.2322852624
  0
LWPOLYLINE
  5
302
100
AcDbEntity
  8
0
100
AcDbPolyline
 62
253
  6
CONTINUOUS
 90
58
 70
0
 10
0.7336253839
 20
10.0146213736
 10
0.6870030828
 20
10.0154045237
 10
0.6404119781
 20
10.0177454938
 10
0.5937432112
 20
10.0216315634
 10
0.5469015317
 20
10.0270575066
 10
0.499846123
 20
10.0340480754
 10
0.4525497765
 20
10.0426355163
 10
0.4050198046
 20
10.0528437178
 10
0.3574016034
 20
10.0646631359
 10
0.3098750898
 20
10.0780758685
 10
0.2626115876
 20
10.0930587454
 10
0.215748048
 20
10.1095675238
 10
0.1694128294
 20
10.127552693
 10
0.1237145062
 20
10.1469726194
 10
0.0786825186
 20
10.1678171783
 10
0.0343265231
 20
10.1900841221
 10
-0.0093369713
 20
10.213770255
 10
-0.0522640464
 20
10.2388685864
 10
-0.0944039316
 20
10.2653711773
 10
-0.1254599159
 20
10.2861640171
 10
-0.1560123606
 20
10.3077337004
 10
-0.186029079
 20
10.3300716403
 10
-0.2154778841
 20
10.3531692502
 10
-0.2443212495
 20
10.3770100716
 10
-0.2725002889
 20
10.4015461601
 10
-0.2999507764
 20
10.4267216997
 10
-0.3266084861
 20
10.4524808743
 10
-0.3524281882
 20
10.4787808423
 10
-0.3774406373
 20
10.505630659
 10
-0.401695584
 20
10.533052354
 10
-0.4252427793
 20
10.5610679571
 10
-0.448128275
 20
10.5897061889
 10
-0.4703833284
 20
10.6190225335
 10
-0.4920354978
 20
10.6490791663
 10
-0.5131123416
 20
10.6799382625
 10
-0.533624961
 20
10.7116343252
 10
-0.5535186271
 20
10.7440911698
 10
-0.5727221539
 20
10.7772049395
 10
-0.5911643553
 20
10.8108717778
 10
-0.6087892085
 20
10.8450167497
 10
-0.6256013437
 20
10.8796806087
 10
-0.6416205546
 20
10.91493303
 10
-0.6568666346
 20
10.9508436888
 10
-0.6713432046
 20
10.9874427545
 10
-0.6849891943
 20
11.0246023718
 10
-0.6977273605
 20
11.0621551797
 10
-0.7094804601
 20
11.0999338168
 10
-0.720183352
 20
11.137761402
 10
-0.7298193027
 20
11.1754229738
 10
-0.7383836807
 20
11.2126940504
 10
-0.7458718547
 20
11.2493501504
 10
-0.7522908507
 20
11.2852208078
 10
-0.7576943256
 20
11.3203516194
 10
-0.7621475939
 20
11.3548421978
 10
-0.7657159699
 20
11.3887921555
 10
-0.7691908416
 20
11.4333618221
 10
-0.7712473852
 20
11.4772147062
 10
-0.7719243
 20
11.5204180399
  0
LWPOLYLINE
  5
303
100
AcDbEntity
  8
0
100
AcDbPolyline
 62
253
  6
CONTINUOUS
 90
34
 70
0
 10
2.134611737
 20
11.9710916509
 10
2.1357571255
 20
11.9697309736
 10
2.1368659176
 20
11.9683522244
 10
2.1379399271
 20
11.9669543706
 10
2.1389809679
 20
11.9655363791
 10
2.1399908538
 20
11.9640972171
 10
2.1409713988
 20
11.9626358516
 10
2.1419240725
 20
11.9611515375
 10
2.1428489683
 20
11.9596446813
 10
2.1437458353
 20
11.958115977
 10
2.1446144225
 20
11.9565661189
 10
2.1454544791
 20
11.9549958012
 10
2.1462657543
 20
11.9534057182
 10
2.1472009223
 20
11.9514725737
 10
2.1480937462
 20
11.9495135754
 10
2.1489436885
 20
11.9475303318
 10
2.1497502118
 20
11.9455244516
 10
2.1505127785
 20
11.9434975434
 10
2.1512308391
 20
11.9414512076
 10
2.151903795
 20
11.9393870126
 10
2.1525310357
 20
11.9373065183
 10
2.1531119506
 20
11.9352112849
 10
2.153645929
 20
11.9331028725
 10
2.1541323795
 20
11.9309828207
 10
2.1545707875
 20
11.9288525868
 10
2.1549606574
 20
11.9267136079
 10
2.1553014938
 20
11.9245673208
 10
2.1555928013
 20
11.9224151626
 10
2.1557972877
 20
11.920617744
 10
2.1559662824
 20
11.9188150467
 10
2.1560990327
 20
11.9170048714
 10
2.1561947862
 20
11.9151850188
 10
2.1562527901
 20
11.9133532895
 10
2.156272292
 20
11.9115074842
  0
LWPOLYLINE
  5
304
100
AcDbEntity
  8
0
100
AcDbPolyline
 62
253
  6
CONTINUOUS
 90
6
 70
0
 10
10.0305117732
 20
21.9424861973
 10
10.0294796418
 20
21.9729036737
 10
10.0284068769
 20
21.9977233241
 10
10.0272994153
 20
22.0168201027
 10
10.0262058968
 20
22.0300957747
 10
10.0251542004
 20
22.0374817122
  0
LINE
  5
305
100
AcDbEntity
  8
0
100
AcDbLine
 62
253
  6
CONTINUOUS
 10
10.0325412004
 20
21.8654814264
 11
10.0305117732
 21
21.9424861973
  0
LINE
  5
306
100
AcDbEntity
  8
0
100
AcDbLine
 62
7
  6
CONTINUOUS
 10
10.6179590795
 20
21.7242469735
 11
10.6376869876
 21
13.1130922693
  0
LINE
  5
307
100
AcDbEntity
  8
0
100
AcDbLine
 62
253
  6
CONTINUOUS
 10
10.5051156694
 20
-18.5313683667
 11
10.4983315402
 21
-9.7173693978
  0
LINE
  5
308
100
AcDbEntity
  8
0
100
AcDbLine
 62
253
  6
CONTINUOUS
 10
10.4983315402
 20
-9.7173693978
 11
10.4958050732
 21
-0.7340969149
  0
LINE
  5
309
100
AcDbEntity
  8
0
100
AcDbLine
 62
7
  6
CONTINUOUS
 10
10.6376869876
 20
13.1130922693
 11
10.6376869876
 21
0.7129970871
  0
LINE
  5
30A
100
AcDbEntity
  8
0
100
AcDbLine
 62
7
  6
CONTINUOUS
 10
10.6376869876
 20
-13.0869077307
 11
10.6376869876
 21
-0.6868125485
  0
LINE
  5
30B
100
AcDbEntity
  8
0
100
AcDbLine
 62
253
  6
CONTINUOUS
 10
10.4958050706
 20
0.7602814544
 11
10.4992468193
 21
11.350930585
  0
LINE
  5
30C
100
AcDbEntity
  8
0
100
AcDbLine
 62
253
  6
CONTINUOUS
 10
10.4992468193
 20
11.350930585
 11
10.5075563481
 21
20.8689176283
  0
LINE
  5
30D
100
AcDbEntity
  8
0
100
AcDbLine
 62
7
  6
CONTINUOUS
 10
10.6179590795
 20
-21.6980624348
 11
10.6376869876
 21
-13.0869077307
  0
LWPOLYLINE
  5
30E
100
AcDbEntity
  8
0
100
AcDbPolyline
 62
253
  6
CONTINUOUS
 90
29
 70
0
 10
0.9649983468
 20
-11.7041059923
 10
-0.6083431721
 20
-12.5819866123
 10
-0.6099292909
 20
-12.5828287617
 10
-0.6115261557
 20
-12.5836381853
 10
-0.6131338415
 20
-12.5844150725
 10
-0.6147524231
 20
-12.5851596127
 10
-0.6163819754
 20
-12.5858719954
 10
-0.6180225734
 20
-12.58655241
 10
-0.6196742919
 20
-12.587201046
 10
-0.6213372059
 20
-12.5878180928
 10
-0.6230113903
 20
-12.5884037398
 10
-0.6246969199
 20
-12.5889581766
 10
-0.6263938698
 20
-12.5894815924
 10
-0.6281023148
 20
-12.5899741768
 10
-0.6295923134
 20
-12.5903761687
 10
-0.6310909917
 20
-12.5907545373
 10
-0.6325983391
 20
-12.5911086749
 10
-0.6341143451
 20
-12.5914379739
 10
-0.635638999
 20
-12.5917418265
 10
-0.6371722901
 20
-12.5920196249
 10
-0.6387142078
 20
-12.5922707615
 10
-0.6402647416
 20
-12.5924946286
 10
-0.6418238808
 20
-12.5926906184
 10
-0.6433916147
 20
-12.5928581233
 10
-0.6449679328
 20
-12.5929965355
 10
-0.6465528244
 20
-12.5931052473
 10
-0.6481462789
 20
-12.593183651
 10
-0.6497482857
 20
-12.5932311388
 10
-0.6513588342
 20
-12.5932471032
  0
LWPOLYLINE
  5
30F
100
AcDbEntity
  8
0
100
AcDbPolyline
 62
253
  6
CONTINUOUS
 90
57
 70
0
 10
0.7336253839
 20
12.5921922063
 10
0.7047618817
 20
12.5917798073
 10
0.6763398772
 20
12.5905659205
 10
0.6483540568
 20
12.5885855112
 10
0.6207991065
 20
12.585873545
 10
0.5936697126
 20
12.582464987
 10
0.5669605614
 20
12.5783948027
 10
0.5406663391
 20
12.5736979576
 10
0.5147817318
 20
12.5684094168
 10
0.4856989502
 20
12.56168413
 10
0.4571655464
 20
12.5542744667
 10
0.4292028312
 20
12.5462232081
 10
0.4018321154
 20
12.5375731356
 10
0.3750747099
 20
12.5283670305
 10
0.3489519255
 20
12.5186476739
 10
0.323485073
 20
12.5084578472
 10
0.2946175863
 20
12.4960232419
 10
0.2666240555
 20
12.4830208781
 10
0.2394566335
 20
12.4694651293
 10
0.2130674738
 20
12.4553703691
 10
0.1874087294
 20
12.440750971
 10
0.1624325535
 20
12.4256213085
 10
0.1333108619
 20
12.4068130461
 10
0.1051170739
 20
12.3873194
 10
0.0778650938
 20
12.367169069
 10
0.051568826
 20
12.3463907524
 10
0.0262421746
 20
12.3250131492
 10
0.001894861
 20
12.3030669344
 10
-0.0214801262
 20
12.2805906881
 10
-0.0438939817
 20
12.2576249664
 10
-0.0653579
 20
12.2342103253
 10
-0.0858830756
 20
12.210387321
 10
-0.1054838677
 20
12.1861918992
 10
-0.1241872945
 20
12.1616415653
 10
-0.1420235388
 20
12.136749214
 10
-0.1590227836
 20
12.1115277402
 10
-0.1752152117
 20
12.085990039
 10
-0.1906277694
 20
12.0601464135
 10
-0.205274456
 20
12.0339967994
 10
-0.2191660347
 20
12.0075385411
 10
-0.2323132682
 20
11.9807689824
 10
-0.2447269194
 20
11.9536854677
 10
-0.2564143946
 20
11.9262887611
 10
-0.2673696725
 20
11.8985933079
 10
-0.2775833754
 20
11.8706169737
 10
-0.2870461254
 20
11.8423776238
 10
-0.2957485448
 20
11.8138931238
 10
-0.3036809158
 20
11.7851830428
 10
-0.3108321614
 20
11.7562737656
 10
-0.3171908648
 20
11.7271933807
 10
-0.322745609
 20
11.6979699765
 10
-0.3274849772
 20
11.6686316415
 10
-0.3313968699
 20
11.6392002157
 10
-0.3344664569
 20
11.6096725451
 10
-0.3366782254
 20
11.5800392273
 10
-0.3380166625
 20
11.5502908597
 10
-0.3384662555
 20
11.5204180399
  0
LWPOLYLINE
  5
310
100
AcDbEntity
  8
0
100
AcDbPolyline
 62
253
  6
CONTINUOUS
 90
25
 70
0
 10
2.0593289611
 20
11.8184447065
 10
2.058343103
 20
11.8184485659
 10
2.057346342
 20
11.8184606305
 10
2.0563383799
 20
11.8184816301
 10
2.0553189181
 20
11.8185122946
 10
2.0542876585
 20
11.8185533537
 10
2.0532443025
 20
11.8186055373
 10
2.0521885519
 20
11.8186695751
 10
2.0512544989
 20
11.818735921
 10
2.0503113133
 20
11.8188124799
 10
2.0493595807
 20
11.8188998299
 10
2.0483998865
 20
11.8189985493
 10
2.0474328163
 20
11.8191092164
 10
2.0464589555
 20
11.8192324095
 10
2.0454788897
 20
11.8193687067
 10
2.0444932043
 20
11.8195186863
 10
2.0436127377
 20
11.8196639852
 10
2.0427283592
 20
11.8198211368
 10
2.0418401343
 20
11.819990726
 10
2.0409481286
 20
11.8201733376
 10
2.0400524078
 20
11.8203695567
 10
2.0391530373
 20
11.8205799682
 10
2.0382500828
 20
11.8208051571
 10
2.0373436099
 20
11.8210457082
 10
2.036433684
 20
11.8213022065
  0
LWPOLYLINE
  5
311
100
AcDbEntity
  8
0
100
AcDbPolyline
 62
253
  6
CONTINUOUS
 90
21
 70
0
 10
0.9873078774
 20
12.558431373
 10
0.9739726638
 20
12.5615948191
 10
0.9607099923
 20
12.5646168481
 10
0.9475190345
 20
12.5674950735
 10
0.9343989624
 20
12.5702271087
 10
0.9213489476
 20
12.5728105668
 10
0.908368162
 20
12.5752430614
 10
0.8954557774
 20
12.5775222057
 10
0.8826109656
 20
12.579645613
 10
0.8698328984
 20
12.5816108967
 10
0.8571207475
 20
12.5834156701
 10
0.8444738677
 20
12.5850576286
 10
0.8318923455
 20
12.586534795
 10
0.8193764506
 20
12.5878452744
 10
0.8069264522
 20
12.5889871717
 10
0.79454262
 20
12.5899585917
 10
0.7822252235
 20
12.5907576394
 10
0.7699745321
 20
12.5913824198
 10
0.7577908154
 20
12.5918310378
 10
0.7456743428
 20
12.5921015984
 10
0.7336253839
 20
12.5921922063
  0
LINE
  5
312
100
AcDbEntity
  8
0
100
AcDbLine
 62
253
  6
CONTINUOUS
 10
2.036433684
 20
11.8213022065
 11
0.835578159
 21
12.1342513731
  0
LWPOLYLINE
  5
313
100
AcDbEntity
  8
0
100
AcDbPolyline
 62
253
  6
CONTINUOUS
 90
41
 70
0
 10
0.835578159
 20
12.1342513731
 10
0.8336338148
 20
12.1348063436
 10
0.8317158005
 20
12.1354059607
 10
0.8298209617
 20
12.1360502426
 10
0.8279461438
 20
12.1367392072
 10
0.8260881923
 20
12.1374728726
 10
0.8242439527
 20
12.1382512568
 10
0.8224102703
 20
12.1390743777
 10
0.8202811438
 20
12.1400912422
 10
0.8181632921
 20
12.1411689935
 10
0.8160579141
 20
12.142307602
 10
0.8139662087
 20
12.1435070383
 10
0.8118893747
 20
12.1447672728
 10
0.8098286109
 20
12.1460882761
 10
0.8077854173
 20
12.1474697679
 10
0.8057624985
 20
12.1489104656
 10
0.8037628602
 20
12.1504088359
 10
0.8017895081
 20
12.1519633454
 10
0.799845448
 20
12.1535724608
 10
0.7979336855
 20
12.1552346488
 10
0.796057159
 20
12.1569483643
 10
0.7942185364
 20
12.1587120157
 10
0.7924204186
 20
12.1605239993
 10
0.7906654062
 20
12.1623827119
 10
0.7889560998
 20
12.16428655
 10
0.7872951001
 20
12.1662339101
 10
0.7859117272
 20
12.1679365905
 10
0.784566923
 20
12.1696695988
 10
0.7832618545
 20
12.1714324657
 10
0.7819976891
 20
12.1732247218
 10
0.7807755941
 20
12.1750458977
 10
0.7795967367
 20
12.1768955239
 10
0.7784622841
 20
12.1787731311
 10
0.7775069912
 20
12.1804390563
 10
0.7765874297
 20
12.1821283395
 10
0.7757044394
 20
12.183843275
 10
0.7748588608
 20
12.1855861571
 10
0.7740515337
 20
12.1873592803
 10
0.7732832984
 20
12.1891649389
 10
0.772554995
 20
12.1910054272
 10
0.7718674636
 20
12.1928830397
  0
LWPOLYLINE
  5
314
100
AcDbEntity
  8
0
100
AcDbPolyline
 62
253
  6
CONTINUOUS
 90
53
 70
0
 10
1.999427296
 20
11.1915233177
 10
2.0053832902
 20
11.1887287675
 10
2.011197151
 20
11.1857684375
 10
2.0168854001
 20
11.1826384226
 10
2.0224645595
 20
11.1793348179
 10
2.0279511509
 20
11.1758537184
 10
2.033358271
 20
11.1721917729
 10
2.0386853163
 20
11.1683478453
 10
2.0439282582
 20
11.1643213537
 10
2.0490830681
 20
11.1601117159
 10
2.0541457175
 20
11.1557183497
 10
2.0591112164
 20
11.1511414924
 10
2.0639707301
 20
11.1463846588
 10
2.0687144628
 20
11.1414521828
 10
2.0733326184
 20
11.1363483986
 10
2.077815401
 20
11.1310776402
 10
2.0814395496
 20
11.1265629758
 10
2.0849510596
 20
11.1219502178
 10
2.0883381042
 20
11.1172542171
 10
2.0915916921
 20
11.1124854871
 10
2.0947141738
 20
11.107637191
 10
2.0977107354
 20
11.1026981542
 10
2.1011442182
 20
11.0966409
 10
2.1043919329
 20
11.090448186
 10
2.1074419685
 20
11.0841313102
 10
2.1102824139
 20
11.0777015705
 10
2.112901358
 20
11.0711702648
 10
2.1152890782
 20
11.0645493698
 10
2.1174446062
 20
11.057853578
 10
2.1193691621
 20
11.0510982604
 10
2.121063966
 20
11.0442987882
 10
2.1225302382
 20
11.0374705325
 10
2.1235788254
 20
11.031765946
 10
2.1244725818
 20
11.026040087
 10
2.1252145317
 20
11.0202809971
 10
2.1258069507
 20
11.0144822588
 10
2.1262491193
 20
11.0086596173
 10
2.1265395691
 20
11.0028343591
 10
2.1266870131
 20
10.9958662788
 10
2.1266187739
 20
10.9889361418
 10
2.1263397577
 20
10.9820550078
 10
2.1258548709
 20
10.9752339361
 10
2.1251690198
 20
10.9684839862
 10
2.1242868919
 20
10.961814591
 10
2.123212299
 20
10.9552286769
 10
2.1219488339
 20
10.9487275439
 10
2.1205000896
 20
10.9423124916
 10
2.118869659
 20
10.93598482
 10
2.1170588866
 20
10.9297432897
 10
2.115060123
 20
10.9235765043
 10
2.1128634705
 20
10.9174705283
 10
2.1104590314
 20
10.9114114261
 10
2.1078369077
 20
10.9053852623
  0
LWPOLYLINE
  5
315
100
AcDbEntity
  8
0
100
AcDbPolyline
 62
253
  6
CONTINUOUS
 90
7
 70
0
 10
10.0251541998
 20
-22.0112971723
 10
10.0262058962
 20
-22.0039112352
 10
10.0272994147
 20
-21.9906355638
 10
10.0284068763
 20
-21.9715387857
 10
10.0294796412
 20
-21.9467191354
 10
10.0305117724
 20
-21.9163016586
 10
10.0325411995
 20
-21.8392968867
  0
LWPOLYLINE
  5
316
100
AcDbEntity
  8
0
100
AcDbPolyline
 62
253
  6
CONTINUOUS
 90
25
 70
0
 10
0.7336253839
 20
13.0256149839
 10
0.7556940954
 20
13.0254496996
 10
0.7777522078
 20
13.0249540251
 10
0.7998036082
 20
13.0241282285
 10
0.8218521839
 20
13.0229725776
 10
0.843901822
 20
13.0214873404
 10
0.8659564096
 20
13.0196727848
 10
0.8880198339
 20
13.0175291787
 10
0.9100959819
 20
13.0150567901
 10
0.9321861492
 20
13.0122560574
 10
0.9542812644
 20
13.0091281011
 10
0.9763696645
 20
13.0056742124
 10
0.9984396863
 20
13.0018956822
 10
1.0204796669
 20
12.9977938018
 10
1.0424779431
 20
12.9933698621
 10
1.064422852
 20
12.9886251542
 10
1.0863027304
 20
12.9835609693
 10
1.1081083368
 20
12.9781778487
 10
1.129840116
 20
12.9724733361
 10
1.1515009341
 20
12.9664442252
 10
1.1730936573
 20
12.96008731
 10
1.1946211519
 20
12.9533993844
 10
1.2160862841
 20
12.9463772423
 10
1.23749192
 20
12.9390176775
 10
1.258840926
 20
12.931317484
  0
LWPOLYLINE
  5
317
100
AcDbEntity
  8
0
100
AcDbPolyline
 62
253
  6
CONTINUOUS
 90
42
 70
0
 10
-2.3347642023
 20
13.6955399838
 10
-2.3302510307
 20
13.6954778899
 10
-2.3257655869
 20
13.6952935872
 10
-2.3213031854
 20
13.6949900442
 10
-2.3168591403
 20
13.6945702295
 10
-2.312428766
 20
13.6940371116
 10
-2.3080073768
 20
13.6933936591
 10
-2.3027084799
 20
13.6924794375
 10
-2.2974167218
 20
13.6914120377
 10
-2.2921330501
 20
13.690192889
 10
-2.2868584124
 20
13.6888234202
 10
-2.2815937563
 20
13.6873050605
 10
-2.2763411552
 20
13.6856396865
 10
-2.2711071841
 20
13.6838309648
 10
-2.2658995439
 20
13.6818830099
 10
-2.2607259354
 20
13.6797999359
 10
-2.2555940592
 20
13.6775858572
 10
-2.2505109574
 20
13.6752447781
 10
-2.2454810357
 20
13.6727802637
 10
-2.2405080414
 20
13.670195769
 10
-2.2355957215
 20
13.667494749
 10
-2.2307478231
 20
13.6646806589
 10
-2.2259681262
 20
13.6617568888
 10
-2.2212605424
 20
13.6587265693
 10
-2.2166290163
 20
13.6555927664
 10
-2.2120774926
 20
13.6523585459
 10
-2.2076099159
 20
13.6490269735
 10
-2.2032306675
 20
13.6456016928
 10
-2.1989458766
 20
13.6420886573
 10
-2.1947621089
 20
13.6384943983
 10
-2.1906859304
 20
13.6348254471
 10
-2.1867239068
 20
13.6310883349
 10
-2.1828815176
 20
13.6272887158
 10
-2.1791598965
 20
13.6234287351
 10
-2.1755590907
 20
13.619509661
 10
-2.1720791477
 20
13.6155327615
 10
-2.1687201145
 20
13.6114993048
 10
-2.1654815907
 20
13.6074087857
 10
-2.1623613839
 20
13.6032536052
 10
-2.1593568541
 20
13.599024391
 10
-2.156465361
 20
13.594711771
 10
-2.1536842647
 20
13.5903063727
  0
LWPOLYLINE
  5
318
100
AcDbEntity
  8
0
100
AcDbPolyline
 62
253
  6
CONTINUOUS
 90
41
 70
0
 10
1.5367592523
 20
13.234036095
 10
1.5388863116
 20
13.2337606812
 10
1.5409894011
 20
13.2334277714
 10
1.5430723069
 20
13.2330380896
 10
1.5451388151
 20
13.2325923598
 10
1.5471927118
 20
13.2320913062
 10
1.5492377833
 20
13.2315356526
 10
1.5512778157
 20
13.2309261232
 10
1.5536552898
 20
13.2301476733
 10
1.5560295948
 20
13.2292967976
 10
1.5583992669
 20
13.2283734154
 10
1.5607628424
 20
13.2273774466
 10
1.5631188577
 20
13.2263088106
 10
1.5654658489
 20
13.2251674271
 10
1.56780197
 20
13.2239534754
 10
1.5701238452
 20
13.2226681734
 10
1.5724277163
 20
13.2213129988
 10
1.574709825
 20
13.2198894291
 10
1.5769664131
 20
13.2183989421
 10
1.5791937224
 20
13.2168430153
 10
1.58107674
 20
13.2154584008
 10
1.5829334043
 20
13.2140277344
 10
1.584761634
 20
13.2125519565
 10
1.586559348
 20
13.2110320078
 10
1.588324465
 20
13.2094688289
 10
1.5900549037
 20
13.2078633604
 10
1.591748583
 20
13.206216543
 10
1.5934034926
 20
13.2045292448
 10
1.5950179071
 20
13.2028020458
 10
1.5965901719
 20
13.2010354531
 10
1.5981186325
 20
13.1992299744
 10
1.5996016345
 20
13.197386117
 10
1.6010375233
 20
13.1955043884
 10
1.6024246445
 20
13.193585296
 10
1.603597072
 20
13.1918752797
 10
1.6047297971
 20
13.1901340284
 10
1.605821722
 20
13.1883585256
 10
1.6068717488
 20
13.1865457543
 10
1.6078787796
 20
13.1846926979
 10
1.6088417165
 20
13.1827963397
 10
1.6097594616
 20
13.1808536628
  0
LINE
  5
319
100
AcDbEntity
  8
0
100
AcDbLine
 62
7
  6
CONTINUOUS
 10
7.4182384943
 20
22.2219651278
 11
7.070051891
 21
22.1903592074
  0
LWPOLYLINE
  5
31A
100
AcDbEntity
  8
0
100
AcDbPolyline
 62
253
  6
CONTINUOUS
 90
14
 70
0
 10
-10.9135857099
 20
20.8895527548
 10
-10.9604230532
 20
20.8888466733
 10
-11.0055410285
 20
20.8879473614
 10
-11.0485021759
 20
20.8868635389
 10
-11.0888899477
 20
20.8856057143
 10
-11.1263127476
 20
20.8841860834
 10
-11.1604077271
 20
20.8826184109
 10
-11.1908443044
 20
20.8809178966
 10
-11.2173273689
 20
20.8791010287
 10
-11.239600143
 20
20.8771854234
 10
-11.257446672
 20
20.8751896542
 10
-11.2706939172
 20
20.8731330719
 10
-11.2792134346
 20
20.871035617
 10
-11.2829226196
 20
20.8689176262
  0
LINE
  5
31B
100
AcDbEntity
  8
0
100
AcDbLine
 62
253
  6
CONTINUOUS
 10
-10.8165817111
 20
20.8903597823
 11
-10.9135857099
 21
20.8895527548
  0
LINE
  5
31C
100
AcDbEntity
  8
0
100
AcDbLine
 62
253
  6
CONTINUOUS
 10
10.0412154409
 20
20.8903597509
 11
5.3143094911
 21
20.8853805147
  0
LINE
  5
31D
100
AcDbEntity
  8
0
100
AcDbLine
 62
253
  6
CONTINUOUS
 10
5.3143094911
 20
20.8853805147
 11
0.5818853751
 21
20.8833226417
  0
LINE
  5
31E
100
AcDbEntity
  8
0
100
AcDbLine
 62
253
  6
CONTINUOUS
 10
0.5818853751
 20
20.8833226417
 11
-6.2270152701
 21
20.8854838351
  0
LINE
  5
31F
100
AcDbEntity
  8
0
100
AcDbLine
 62
253
  6
CONTINUOUS
 10
-6.2270152701
 20
20.8854838351
 11
-10.8165817112
 21
20.8903597685
  0
LWPOLYLINE
  5
320
100
AcDbEntity
  8
0
100
AcDbPolyline
 62
253
  6
CONTINUOUS
 90
15
 70
0
 10
10.0412145895
 20
20.8903592358
 10
10.1382176791
 20
20.889552234
 10
10.1850546275
 20
20.8888461742
 10
10.230172265
 20
20.8879468897
 10
10.2731331438
 20
20.8868630995
 10
10.3135207269
 20
20.8856053115
 10
10.3509434275
 20
20.8841857208
 10
10.3850384056
 20
20.8826180915
 10
10.4154750856
 20
20.8809176227
 10
10.441958362
 20
20.8791008019
 10
10.4642314602
 20
20.8771852443
 10
10.4820784265
 20
20.8751895227
 10
10.4953262216
 20
20.8731329871
 10
10.5038463985
 20
20.871035577
 10
10.507556348
 20
20.8689176283
  0
LINE
  5
321
100
AcDbEntity
  8
0
100
AcDbLine
 62
7
  6
CONTINUOUS
 10
-8.1936047661
 20
22.2219651278
 11
-7.8454181628
 21
22.1903592074
  0
LINE
  5
322
100
AcDbEntity
  8
0
100
AcDbLine
 62
7
  6
CONTINUOUS
 10
-3.7817615057
 20
22.2219651278
 11
-4.129948109
 21
22.1903592074
  0
LWPOLYLINE
  5
323
100
AcDbEntity
  8
0
100
AcDbPolyline
 62
253
  6
CONTINUOUS
 90
16
 70
0
 10
-10.8005204717
 20
22.037481711
 10
-10.8527220981
 20
22.0346796657
 10
-10.9043527096
 20
22.0264470763
 10
-10.9548476063
 20
22.012874006
 10
-11.0036545281
 20
21.9941089216
 10
-11.0502396496
 20
21.9703570856
 10
-11.0940934264
 20
21.9418783254
 10
-11.1347362307
 20
21.9089841568
 10
-11.1717235754
 20
21.8720343725
 10
-11.2046509389
 20
21.8314331373
 10
-11.2331582186
 20
21.787624546
 10
-11.2569336708
 20
21.741087749
 10
-11.2757173051
 20
21.692331724
 10
-11.2893037217
 20
21.641889721
 10
-11.2975443614
 20
21.5903134319
 10
-11.3003491341
 20
21.5381669436
  0
LINE
  5
324
100
AcDbEntity
  8
0
100
AcDbLine
 62
253
  6
CONTINUOUS
 10
10.0251542004
 20
22.0374817122
 11
6.6555886312
 21
22.0274555759
  0
LINE
  5
325
100
AcDbEntity
  8
0
100
AcDbLine
 62
253
  6
CONTINUOUS
 10
6.6555886312
 20
22.0274555759
 11
3.2835425769
 21
22.0213014103
  0
LINE
  5
326
100
AcDbEntity
  8
0
100
AcDbLine
 62
253
  6
CONTINUOUS
 10
3.2835425769
 20
22.0213014103
 11
-0.0901145175
 21
22.0190212008
  0
LINE
  5
327
100
AcDbEntity
  8
0
100
AcDbLine
 62
7
  6
CONTINUOUS
 10
6.8968468103
 20
22.1851184294
 11
3.5277869179
 21
22.1851184294
  0
LINE
  5
328
100
AcDbEntity
  8
0
100
AcDbLine
 62
7
  6
CONTINUOUS
 10
-4.3031531897
 20
22.1851184294
 11
-7.6722130821
 21
22.1851184294
  0
LINE
  5
329
100
AcDbEntity
  8
0
100
AcDbLine
 62
7
  6
CONTINUOUS
 10
10.1173326579
 20
22.2219651278
 11
7.4182384943
 21
22.2219651278
  0
LINE
  5
32A
100
AcDbEntity
  8
0
100
AcDbLine
 62
7
  6
CONTINUOUS
 10
3.0063952339
 20
22.2219651278
 11
-3.7817615057
 21
22.2219651278
  0
LINE
  5
32B
100
AcDbEntity
  8
0
100
AcDbLine
 62
7
  6
CONTINUOUS
 10
-8.1936047661
 20
22.2219651278
 11
-10.8926989297
 21
22.2219651278
  0
LINE
  5
32C
100
AcDbEntity
  8
0
100
AcDbLine
 62
253
  6
CONTINUOUS
 10
-0.0901145175
 20
22.0190212008
 11
-3.4578421745
 21
22.0206081354
  0
LINE
  5
32D
100
AcDbEntity
  8
0
100
AcDbLine
 62
253
  6
CONTINUOUS
 10
-3.4578421745
 20
22.0206081354
 11
-6.9288558162
 21
22.0262936789
  0
LWPOLYLINE
  5
32E
100
AcDbEntity
  8
0
100
AcDbPolyline
 62
253
  6
CONTINUOUS
 90
3
 70
0
 10
-6.9288558162
 20
22.0262936789
 10
-9.9829420572
 20
22.034720805
 10
-10.8005204717
 20
22.037481711
  0
LWPOLYLINE
  5
32F
100
AcDbEntity
  8
0
100
AcDbPolyline
 62
253
  6
CONTINUOUS
 90
16
 70
0
 10
10.0251542004
 20
22.0374817122
 10
10.0773551705
 20
22.034679737
 10
10.128985212
 20
22.0264473399
 10
10.1794796409
 20
22.0128745597
 10
10.2282861934
 20
21.9941098435
 10
10.2748710661
 20
21.9703584234
 10
10.3187247545
 20
21.9418800716
 10
10.3593676254
 20
21.9089862594
 10
10.3963551627
 20
21.8720367505
 10
10.4292828292
 20
21.8314356662
 10
10.4577904908
 20
21.7876270656
 10
10.4815663559
 20
21.7410900888
 10
10.5003503846
 20
21.6923337165
 10
10.513937134
 20
21.6418912031
 10
10.5221780039
 20
21.5903142447
 10
10.5249828629
 20
21.5381669448
  0
LINE
  5
330
100
AcDbEntity
  8
0
100
AcDbLine
 62
7
  6
CONTINUOUS
 10
3.0063952339
 20
22.2219651278
 11
3.3545818372
 21
22.1903592074
  0
LINE
  5
331
100
AcDbEntity
  8
0
100
AcDbLine
 62
7
  6
CONTINUOUS
 10
-32.46804009
 20
-22.1957805891
 11
-36.3407323703
 21
-21.9928213869
  0
LWPOLYLINE
  5
332
100
AcDbEntity
  8
0
100
AcDbPolyline
 62
253
  6
CONTINUOUS
 90
22
 70
0
 10
-35.988193383
 20
-22.0112971723
 10
-36.0724015534
 20
-22.0039112352
 10
-36.1558646151
 20
-21.9906355638
 10
-36.2381717633
 20
-21.9715387857
 10
-36.3189168799
 20
-21.9467191354
 10
-36.3977047431
 20
-21.9163016586
 10
-36.4741522335
 20
-21.88043563
 10
-36.5478874426
 20
-21.8392968867
 10
-36.6185439727
 20
-21.7930914439
 10
-36.6857670492
 20
-21.7420518178
 10
-36.7492257636
 20
-21.6864330635
 10
-36.8086112661
 20
-21.6265102951
 10
-36.8636303267
 20
-21.562580464
 10
-36.9140142182
 20
-21.4949598684
 10
-36.9595168984
 20
-21.4239837112
 10
-36.9999135688
 20
-21.350004271
 10
-37.0350051997
 20
-21.2733932352
 10
-37.0646251718
 20
-21.1945236622
 10
-37.0886331182
 20
-21.1137677736
 10
-37.1069104161
 20
-21.0315172808
 10
-37.119364686
 20
-20.9481828948
 10
-37.1259334473
 20
-20.8641752299
  0
LINE
  5
333
100
AcDbEntity
  8
0
100
AcDbLine
 62
253
  6
CONTINUOUS
 10
-37.125933437
 20
-20.8641752437
 11
-37.1202291021
 21
-20.8638742212
  0
LINE
  5
334
100
AcDbEntity
  8
0
100
AcDbLine
 62
253
  6
CONTINUOUS
 10
-37.1202291021
 20
-20.8638742212
 11
-36.9166462607
 21
-20.854733358
  0
LINE
  5
335
100
AcDbEntity
  8
0
100
AcDbLine
 62
253
  6
CONTINUOUS
 10
-36.9166462607
 20
-20.854733358
 11
-36.640605621
 21
-20.8427330875
  0
LINE
  5
336
100
AcDbEntity
  8
0
100
AcDbLine
 62
253
  6
CONTINUOUS
 10
-37.4762910421
 20
-20.8570766809
 11
-37.1259334395
 21
-20.8641752298
  0
LINE
  5
337
100
AcDbEntity
  8
0
100
AcDbLine
 62
253
  6
CONTINUOUS
 10
-32.4244953939
 20
-21.6980624348
 11
-35.975113879
 21
-21.5119824049
  0
LWPOLYLINE
  5
338
100
AcDbEntity
  8
0
100
AcDbPolyline
 62
253
  6
CONTINUOUS
 90
22
 70
0
 10
-35.975113879
 20
-21.5119824049
 10
-36.0245207795
 20
-21.5076298957
 10
-36.0730950161
 20
-21.4999361259
 10
-36.1208365886
 20
-21.4889010954
 10
-36.1679956162
 20
-21.4744358926
 10
-36.2143219798
 20
-21.4566294291
 10
-36.2590653222
 20
-21.4357484401
 10
-36.3021803255
 20
-21.4117481787
 10
-36.3437123075
 20
-21.3846733918
 10
-36.3830468648
 20
-21.3549250545
 10
-36.4201513177
 20
-21.3224615193
 10
-36.4550583459
 20
-21.2873244338
 10
-36.4872515844
 20
-21.250039716
 10
-36.5166877292
 20
-21.210577688
 10
-36.5434100844
 20
-21.1689680276
 10
-36.5670321974
 20
-21.1258256861
 10
-36.5875097418
 20
-21.0811068381
 10
-36.6048870441
 20
-21.0348553091
 10
-36.6189106305
 20
-20.9878175267
 10
-36.6294960098
 20
-20.9402423003
 10
-36.6367276733
 20
-20.8918808206
 10
-36.640605621
 20
-20.8427330875
  0
LINE
  5
339
100
AcDbEntity
  8
0
100
AcDbLine
 62
253
  6
CONTINUOUS
 10
-32.0711169774
 20
-17.9203993319
 11
-32.0939926977
 21
-17.9203993317
  0
LWPOLYLINE
  5
33A
100
AcDbEntity
  8
0
100
AcDbPolyline
 62
253
  6
CONTINUOUS
 90
11
 70
0
 10
-35.9881933595
 20
22.0374817122
 10
-35.9894134435
 20
22.034679737
 10
-35.9903339812
 20
22.0264473399
 10
-35.9909449046
 20
22.0128745597
 10
-35.9912395321
 20
21.9941098435
 10
-35.9912146411
 20
21.9703584234
 10
-35.9908705035
 20
21.9418800716
 10
-35.9902108832
 20
21.9089862594
 10
-35.9892429946
 20
21.8720367505
 10
-35.9879774235
 20
21.8314356662
 10
-35.9846117052
 20
21.7410900888
  0
LWPOLYLINE
  5
33B
100
AcDbEntity
  8
0
100
AcDbPolyline
 62
253
  6
CONTINUOUS
 90
10
 70
0
 10
-37.8092083319
 20
-12.7172132143
 10
-37.8092890465
 20
-12.7171082515
 10
-37.8093753319
 20
-12.716795398
 10
-37.8094672903
 20
-12.7162777063
 10
-37.8095650241
 20
-12.7155582287
 10
-37.8096686356
 20
-12.7146400179
 10
-37.8097782142
 20
-12.7135252501
 10
-37.8098937991
 20
-12.7122125981
 10
-37.8100154164
 20
-12.7106998585
 10
-37.8101430924
 20
-12.7089848279
  0
LWPOLYLINE
  5
33C
100
AcDbEntity
  8
0
100
AcDbPolyline
 62
253
  6
CONTINUOUS
 90
9
 70
0
 10
-35.988193383
 20
-22.0112971723
 10
-35.9894134849
 20
-22.0084951271
 10
-35.9903340313
 20
-22.0002625377
 10
-35.990944955
 20
-21.9866894674
 10
-35.9912395754
 20
-21.967924383
 10
-35.9912146712
 20
-21.944172547
 10
-35.9908705159
 20
-21.9156937868
 10
-35.9902108757
 20
-21.8827996182
 10
-35.9892429675
 20
-21.8458498338
  0
LWPOLYLINE
  5
33D
100
AcDbEntity
  8
0
100
AcDbPolyline
 62
253
  6
CONTINUOUS
 90
11
 70
0
 10
-37.8185323553
 20
12.5921922063
 10
-37.8187868017
 20
12.5917798073
 10
-37.8190566192
 20
12.5905659205
 10
-37.8193409914
 20
12.5885855112
 10
-37.8196391017
 20
12.585873545
 10
-37.8199501337
 20
12.582464987
 10
-37.8202732709
 20
12.5783948027
 10
-37.8206076969
 20
12.5736979576
 10
-37.8209525952
 20
12.5684094168
 10
-37.8213585563
 20
12.56168413
 10
-37.8222038162
 20
12.5462232081
  0
LWPOLYLINE
  5
33E
100
AcDbEntity
  8
0
100
AcDbPolyline
 62
253
  6
CONTINUOUS
 90
10
 70
0
 10
-37.8801171792
 20
10.448079429
 10
-37.8798622161
 20
10.4484461615
 10
-37.8795818611
 20
10.4495539879
 10
-37.8792755212
 20
10.4514143513
 10
-37.8789426037
 20
10.4540386953
 10
-37.8785825157
 20
10.457438463
 10
-37.8781946644
 20
10.4616250978
 10
-37.877778457
 20
10.4666100429
 10
-37.8773335392
 20
10.4724019711
 10
-37.8763602135
 20
10.4863943684
  0
LWPOLYLINE
  5
33F
100
AcDbEntity
  8
0
100
AcDbPolyline
 62
253
  6
CONTINUOUS
 90
10
 70
0
 10
-37.880207483
 20
-10.2368326594
 10
-37.8801246215
 20
-10.2369372602
 10
-37.8800368807
 20
-10.2372490353
 10
-37.8799441354
 20
-10.2377649437
 10
-37.8798462606
 20
-10.2384819445
 10
-37.8797431312
 20
-10.2393969966
 10
-37.8796346405
 20
-10.2405079376
 10
-37.8795207556
 20
-10.2418161182
 10
-37.879401462
 20
-10.2433237676
 10
-37.8792767452
 20
-10.2450331149
  0
LINE
  5
340
100
AcDbEntity
  8
0
100
AcDbLine
 62
253
  6
CONTINUOUS
 10
-37.8101430924
 20
-12.7089848279
 11
-37.8104167031
 21
-12.704939414
  0
LINE
  5
341
100
AcDbEntity
  8
0
100
AcDbLine
 62
253
  6
CONTINUOUS
 10
-37.8792767452
 20
-10.2450331149
 11
-37.8790110082
 21
-10.2490654883
  0
LINE
  5
342
100
AcDbEntity
  8
0
100
AcDbLine
 62
253
  6
CONTINUOUS
 10
-37.8104167031
 20
-12.704939414
 11
-37.8107142963
 21
-12.7000667385
  0
LINE
  5
343
100
AcDbEntity
  8
0
100
AcDbLine
 62
253
  6
CONTINUOUS
 10
-37.8790110082
 20
-10.2490654883
 11
-37.8787240111
 21
-10.2539231091
  0
LINE
  5
344
100
AcDbEntity
  8
0
100
AcDbLine
 62
253
  6
CONTINUOUS
 10
-37.8107142963
 20
-12.7000667385
 11
-37.8111752005
 21
-12.6917453791
  0
LINE
  5
345
100
AcDbEntity
  8
0
100
AcDbLine
 62
253
  6
CONTINUOUS
 10
-37.8787240111
 20
-10.2539231091
 11
-37.8782831023
 21
-10.2622202705
  0
LINE
  5
346
100
AcDbEntity
  8
0
100
AcDbLine
 62
253
  6
CONTINUOUS
 10
-37.8111752005
 20
-12.6917453791
 11
-37.8117667964
 21
-12.6799704521
  0
LINE
  5
347
100
AcDbEntity
  8
0
100
AcDbLine
 62
253
  6
CONTINUOUS
 10
-37.8782831023
 20
-10.2622202705
 11
-37.8777228173
 21
-10.2739632891
  0
LINE
  5
348
100
AcDbEntity
  8
0
100
AcDbLine
 62
253
  6
CONTINUOUS
 10
-37.8117667964
 20
-12.6799704521
 11
-37.8127500129
 21
-12.658269279
  0
LINE
  5
349
100
AcDbEntity
  8
0
100
AcDbLine
 62
253
  6
CONTINUOUS
 10
-37.8777228173
 20
-10.2739632891
 11
-37.8769640069
 21
-10.291663383
  0
LINE
  5
34A
100
AcDbEntity
  8
0
100
AcDbLine
 62
253
  6
CONTINUOUS
 10
-37.8127500129
 20
-12.658269279
 11
-37.8143845058
 21
-12.6177014116
  0
LWPOLYLINE
  5
34B
100
AcDbEntity
  8
0
100
AcDbPolyline
 62
253
  6
CONTINUOUS
 90
3
 70
0
 10
-37.8734638082
 20
-10.8094328184
 10
-37.8680712283
 20
-10.9558077346
 10
-37.8555029692
 20
-11.2496576591
  0
LINE
  5
34C
100
AcDbEntity
  8
0
100
AcDbLine
 62
253
  6
CONTINUOUS
 10
-37.8769640069
 20
-10.291663383
 11
-37.875817616
 21
-10.3217625067
  0
LINE
  5
34D
100
AcDbEntity
  8
0
100
AcDbLine
 62
253
  6
CONTINUOUS
 10
-37.8143845058
 20
-12.6177014116
 11
-37.8165084389
 21
-12.5588313404
  0
LINE
  5
34E
100
AcDbEntity
  8
0
100
AcDbLine
 62
253
  6
CONTINUOUS
 10
-37.8192350797
 20
12.7150493536
 11
-37.8144944704
 21
12.8480389917
  0
LINE
  5
34F
100
AcDbEntity
  8
0
100
AcDbLine
 62
253
  6
CONTINUOUS
 10
-37.8268497417
 20
12.4386204961
 11
-37.8315752054
 21
12.3067625399
  0
LWPOLYLINE
  5
350
100
AcDbEntity
  8
0
100
AcDbPolyline
 62
253
  6
CONTINUOUS
 90
3
 70
0
 10
-37.8284362314
 20
12.2613292473
 10
-37.8199038864
 20
12.4883784408
 10
-37.8171969511
 20
12.558431373
  0
LINE
  5
351
100
AcDbEntity
  8
0
100
AcDbLine
 62
253
  6
CONTINUOUS
 10
-37.8505406064
 20
11.0938502149
 11
-37.8493018466
 21
11.1263674521
  0
LINE
  5
352
100
AcDbEntity
  8
0
100
AcDbLine
 62
253
  6
CONTINUOUS
 10
-37.8618404359
 20
10.7911637916
 11
-37.8536989838
 21
11.004555475
  0
LINE
  5
353
100
AcDbEntity
  8
0
100
AcDbLine
 62
253
  6
CONTINUOUS
 10
-37.8204420661
 20
11.8809979586
 11
-37.8211548806
 21
11.8623537644
  0
LINE
  5
354
100
AcDbEntity
  8
0
100
AcDbLine
 62
253
  6
CONTINUOUS
 10
-37.8511773661
 20
10.8384530798
 11
-37.8626726048
 21
10.5417398822
  0
LINE
  5
355
100
AcDbEntity
  8
0
100
AcDbLine
 62
253
  6
CONTINUOUS
 10
-37.8144944704
 20
12.8480389917
 11
-37.8119832399
 21
12.9108015131
  0
LINE
  5
356
100
AcDbEntity
  8
0
100
AcDbLine
 62
253
  6
CONTINUOUS
 10
-37.8244591751
 20
12.49783471
 11
-37.8268497417
 21
12.4386204961
  0
LINE
  5
357
100
AcDbEntity
  8
0
100
AcDbLine
 62
253
  6
CONTINUOUS
 10
-37.8493018466
 20
11.1263674521
 11
-37.8482479727
 21
11.1511107583
  0
LINE
  5
358
100
AcDbEntity
  8
0
100
AcDbLine
 62
253
  6
CONTINUOUS
 10
-37.8022720106
 20
12.931317484
 11
-37.7908669639
 21
13.2027175369
  0
LINE
  5
359
100
AcDbEntity
  8
0
100
AcDbLine
 62
253
  6
CONTINUOUS
 10
-37.8677390797
 20
10.6525748341
 11
-37.8618404359
 21
10.7911637916
  0
LINE
  5
35A
100
AcDbEntity
  8
0
100
AcDbLine
 62
253
  6
CONTINUOUS
 10
-37.8211548806
 20
11.8623537644
 11
-37.8216029523
 21
11.8519329456
  0
LINE
  5
35B
100
AcDbEntity
  8
0
100
AcDbLine
 62
253
  6
CONTINUOUS
 10
-37.8626726048
 20
10.5417398822
 11
-37.8717931883
 21
10.3314151668
  0
LINE
  5
35C
100
AcDbEntity
  8
0
100
AcDbLine
 62
253
  6
CONTINUOUS
 10
-37.8119832399
 20
12.9108015131
 11
-37.8102570258
 21
12.9494912252
  0
LINE
  5
35D
100
AcDbEntity
  8
0
100
AcDbLine
 62
253
  6
CONTINUOUS
 10
-37.8230860306
 20
12.5283670305
 11
-37.8244591751
 21
12.49783471
  0
LINE
  5
35E
100
AcDbEntity
  8
0
100
AcDbLine
 62
253
  6
CONTINUOUS
 10
-37.8482479727
 20
11.1511107583
 11
-37.8474777009
 21
11.167393261
  0
LWPOLYLINE
  5
35F
100
AcDbEntity
  8
0
100
AcDbPolyline
 62
7
  6
CONTINUOUS
 90
4
 70
0
 10
-37.4762910376
 20
20.8832613067
 10
-37.5834800402
 20
18.7192013425
 10
-37.6825820441
 20
16.4665158947
 10
-37.7689847797
 20
14.2133132975
  0
LINE
  5
360
100
AcDbEntity
  8
0
100
AcDbLine
 62
253
  6
CONTINUOUS
 10
-37.8216029523
 20
11.8519329456
 11
-37.8219581182
 21
11.8444851621
  0
LINE
  5
361
100
AcDbEntity
  8
0
100
AcDbLine
 62
253
  6
CONTINUOUS
 10
-37.871475241
 20
10.5736880592
 11
-37.8677390797
 21
10.6525748341
  0
LINE
  5
362
100
AcDbEntity
  8
0
100
AcDbLine
 62
253
  6
CONTINUOUS
 10
-37.8717931883
 20
10.3314151668
 11
-37.8770686556
 21
10.2215769544
  0
LINE
  5
363
100
AcDbEntity
  8
0
100
AcDbLine
 62
253
  6
CONTINUOUS
 10
-37.7908000547
 20
13.2041967288
 11
-37.7903431215
 21
13.2137240514
  0
LINE
  5
364
100
AcDbEntity
  8
0
100
AcDbLine
 62
253
  6
CONTINUOUS
 10
-37.8222038162
 20
12.5462232081
 11
-37.8230860306
 21
12.5283670305
  0
LINE
  5
365
100
AcDbEntity
  8
0
100
AcDbLine
 62
253
  6
CONTINUOUS
 10
-37.8102570258
 20
12.9494912252
 11
-37.8091887754
 21
12.9710515493
  0
LINE
  5
366
100
AcDbEntity
  8
0
100
AcDbLine
 62
253
  6
CONTINUOUS
 10
-37.8474777009
 20
11.167393261
 11
-37.8469679501
 21
11.1772335806
  0
LINE
  5
367
100
AcDbEntity
  8
0
100
AcDbLine
 62
253
  6
CONTINUOUS
 10
-37.7903431215
 20
13.2137240514
 11
-37.7901164527
 21
13.21805924
  0
LINE
  5
368
100
AcDbEntity
  8
0
100
AcDbLine
 62
253
  6
CONTINUOUS
 10
-37.8734790126
 20
10.5351829776
 11
-37.871475241
 21
10.5736880592
  0
LINE
  5
369
100
AcDbEntity
  8
0
100
AcDbLine
 62
253
  6
CONTINUOUS
 10
-37.8219581182
 20
11.8444851621
 11
-37.8222199274
 21
11.8394983896
  0
LINE
  5
36A
100
AcDbEntity
  8
0
100
AcDbLine
 62
253
  6
CONTINUOUS
 10
-37.8770686556
 20
10.2215769544
 11
-37.8808902136
 21
10.1490107018
  0
LWPOLYLINE
  5
36B
100
AcDbEntity
  8
0
100
AcDbPolyline
 62
253
  6
CONTINUOUS
 90
11
 70
0
 10
-37.8091887754
 20
12.9710515493
 10
-37.8081933247
 20
12.9890709321
 10
-37.8077245509
 20
12.9967305689
 10
-37.8072758205
 20
13.0034813626
 10
-37.8068471195
 20
13.0093275956
 10
-37.8064382993
 20
13.0142761118
 10
-37.8060492115
 20
13.0183337557
 10
-37.8056797165
 20
13.0215045976
 10
-37.8053297122
 20
13.0237816143
 10
-37.8049991052
 20
13.0251550087
 10
-37.8046878024
 20
13.0256149839
  0
LINE
  5
36C
100
AcDbEntity
  8
0
100
AcDbLine
 62
253
  6
CONTINUOUS
 10
-37.8469679501
 20
11.1772335806
 11
-37.8464730248
 21
11.1859644482
  0
LINE
  5
36D
100
AcDbEntity
  8
0
100
AcDbLine
 62
253
  6
CONTINUOUS
 10
-37.7900426714
 20
13.2194101322
 11
-37.7898282649
 21
13.223152242
  0
LINE
  5
36E
100
AcDbEntity
  8
0
100
AcDbLine
 62
253
  6
CONTINUOUS
 10
-37.8752811624
 20
10.5035636197
 11
-37.8734790126
 21
10.5351829776
  0
LWPOLYLINE
  5
36F
100
AcDbEntity
  8
0
100
AcDbPolyline
 62
253
  6
CONTINUOUS
 90
3
 70
0
 10
-37.8222199274
 20
11.8394983896
 10
-37.8224770388
 20
11.8350266244
 10
-37.8225615667
 20
11.8336504432
  0
LINE
  5
370
100
AcDbEntity
  8
0
100
AcDbLine
 62
253
  6
CONTINUOUS
 10
-37.8808902136
 20
10.1490107018
 11
-37.8834866662
 21
10.1040129687
  0
LINE
  5
371
100
AcDbEntity
  8
0
100
AcDbLine
 62
253
  6
CONTINUOUS
 10
-37.8464730248
 20
11.1859644482
 11
-37.8461519003
 21
11.1911371248
  0
LINE
  5
372
100
AcDbEntity
  8
0
100
AcDbLine
 62
253
  6
CONTINUOUS
 10
-37.8834866662
 20
10.1040129687
 11
-37.8850646222
 21
10.0788723556
  0
LWPOLYLINE
  5
373
100
AcDbEntity
  8
0
100
AcDbPolyline
 62
253
  6
CONTINUOUS
 90
3
 70
0
 10
-37.7898282649
 20
13.223152242
 10
-37.7896258267
 20
13.2264056503
 10
-37.7895612904
 20
13.2273778448
  0
LINE
  5
374
100
AcDbEntity
  8
0
100
AcDbLine
 62
253
  6
CONTINUOUS
 10
-37.8763602135
 20
10.4863943684
 11
-37.8752811624
 21
10.5035636197
  0
LINE
  5
375
100
AcDbEntity
  8
0
100
AcDbLine
 62
253
  6
CONTINUOUS
 10
-37.8226454404
 20
11.8323316311
 11
-37.822728618
 21
11.8310703103
  0
LWPOLYLINE
  5
376
100
AcDbEntity
  8
0
100
AcDbPolyline
 62
253
  6
CONTINUOUS
 90
27
 70
0
 10
-37.8461519003
 20
11.1911371248
 10
-37.8458406942
 20
11.1957220973
 10
-37.8456895612
 20
11.1977766491
 10
-37.8455416642
 20
11.1996696448
 10
-37.8453971346
 20
11.2014015611
 10
-37.8452561039
 20
11.2029728749
 10
-37.8451187037
 20
11.204384063
 10
-37.8449850655
 20
11.2056356023
 10
-37.8448552498
 20
11.2067283964
 10
-37.8447290323
 20
11.2076650556
 10
-37.8446061177
 20
11.2084486173
 10
-37.8444863307
 20
11.2090813311
 10
-37.8443699749
 20
11.2095622974
 10
-37.8442574741
 20
11.2098898287
 10
-37.844128048
 20
11.2100792604
 10
-37.8440048544
 20
11.2100502239
 10
-37.8438879647
 20
11.2098076268
 10
-37.8437774502
 20
11.2093563767
 10
-37.8436733824
 20
11.2087013814
 10
-37.8435758103
 20
11.207847333
 10
-37.8434846936
 20
11.2067980613
 10
-37.8433999699
 20
11.2055571807
 10
-37.8433215764
 20
11.2041283054
 10
-37.8432494507
 20
11.2025150499
 10
-37.8431835442
 20
11.2007187384
 10
-37.8431238644
 20
11.1987315352
 10
-37.8430704325
 20
11.1965433146
  0
LWPOLYLINE
  5
377
100
AcDbEntity
  8
0
100
AcDbPolyline
 62
253
  6
CONTINUOUS
 90
11
 70
0
 10
-37.8850646222
 20
10.0788723556
 10
-37.8865076166
 20
10.0577845398
 10
-37.8871762302
 20
10.048780865
 10
-37.8878084024
 20
10.0408143171
 10
-37.8884032442
 20
10.0338926245
 10
-37.888960021
 20
10.0280229795
 10
-37.8894786165
 20
10.0232104288
 10
-37.8899590692
 20
10.0194594826
 10
-37.8904014173
 20
10.0167746511
 10
-37.8908056993
 20
10.0151604447
 10
-37.8911719536
 20
10.0146213736
  0
LINE
  5
378
100
AcDbEntity
  8
0
100
AcDbLine
 62
253
  6
CONTINUOUS
 10
-37.8228110572
 20
11.8298666027
 11
-37.8228927161
 21
11.8287206302
  0
LINE
  5
379
100
AcDbEntity
  8
0
100
AcDbLine
 62
253
  6
CONTINUOUS
 10
-37.7894983211
 20
13.2282925857
 11
-37.7894369729
 21
13.229149072
  0
LINE
  5
37A
100
AcDbEntity
  8
0
100
AcDbLine
 62
253
  6
CONTINUOUS
 10
-37.8229735524
 20
11.8276325149
 11
-37.8230667624
 21
11.8264362716
  0
LWPOLYLINE
  5
37B
100
AcDbEntity
  8
0
100
AcDbPolyline
 62
253
  6
CONTINUOUS
 90
22
 70
0
 10
-37.1259334222
 20
20.8903597499
 10
-37.1193646606
 20
20.9743674293
 10
-37.1069103893
 20
21.0577018255
 10
-37.0886330895
 20
21.1399523244
 10
-37.0646251421
 20
21.2207082136
 10
-37.0350051705
 20
21.2995777833
 10
-36.9999135404
 20
21.3761888162
 10
-36.9595168703
 20
21.4501682555
 10
-36.9140141902
 20
21.5211444121
 10
-36.8636302989
 20
21.5887650069
 10
-36.8086112388
 20
21.6526948373
 10
-36.7492257369
 20
21.7126176049
 10
-36.6857670233
 20
21.7682363585
 10
-36.6185439475
 20
21.8192759841
 10
-36.5478874183
 20
21.8654814264
 10
-36.4741522101
 20
21.9066201694
 10
-36.3977047216
 20
21.9424861973
 10
-36.3189168606
 20
21.9729036737
 10
-36.2381717452
 20
21.9977233241
 10
-36.1558645964
 20
22.0168201027
 10
-36.0724015329
 20
22.0300957747
 10
-35.9881933595
 20
22.0374817122
  0
LWPOLYLINE
  5
37C
100
AcDbEntity
  8
0
100
AcDbPolyline
 62
253
  6
CONTINUOUS
 90
18
 70
0
 10
-37.7893773005
 20
13.2299465027
 10
-37.7893193581
 20
13.2306840768
 10
-37.7892632061
 20
13.2313609662
 10
-37.7892089283
 20
13.2319762346
 10
-37.7891566146
 20
13.2325289187
 10
-37.7891063547
 20
13.2330180552
 10
-37.7890582384
 20
13.2334426805
 10
-37.7890123425
 20
13.2338019872
 10
-37.788968691
 20
13.2340957903
 10
-37.7889272954
 20
13.2343240606
 10
-37.7888881666
 20
13.234486769
 10
-37.7888513158
 20
13.2345838864
 10
-37.7888223558
 20
13.2346144677
 10
-37.7887949961
 20
13.2345981155
 10
-37.7887692472
 20
13.234533466
 10
-37.7887451195
 20
13.2344191553
 10
-37.7887226238
 20
13.2342538196
 10
-37.7887017704
 20
13.234036095
  0
LWPOLYLINE
  5
37D
100
AcDbEntity
  8
0
100
AcDbPolyline
 62
253
  6
CONTINUOUS
 90
22
 70
0
 10
-36.640605608
 20
20.8689176283
 10
-36.6367276547
 20
20.9180653613
 10
-36.629495987
 20
20.966426841
 10
-36.6189106047
 20
21.0140020674
 10
-36.6048870173
 20
21.0610398497
 10
-36.5875097153
 20
21.1072913788
 10
-36.5670321712
 20
21.1520102268
 10
-36.5434100583
 20
21.1951525683
 10
-36.5166877032
 20
21.2367622287
 10
-36.4872515585
 20
21.2762242568
 10
-36.45505832
 20
21.3135089746
 10
-36.4201512919
 20
21.34864606
 10
-36.3830468391
 20
21.381109595
 10
-36.3437122819
 20
21.4108579322
 10
-36.3021803
 20
21.437932719
 10
-36.259065297
 20
21.4619329803
 10
-36.2143219548
 20
21.4828139693
 10
-36.1679955915
 20
21.5006204328
 10
-36.1208365642
 20
21.5150856356
 10
-36.073094992
 20
21.526120666
 10
-36.0245207557
 20
21.5338144358
 10
-35.9751138555
 20
21.5381669448
  0
LWPOLYLINE
  5
37E
100
AcDbEntity
  8
0
100
AcDbPolyline
 62
253
  6
CONTINUOUS
 90
12
 70
0
 10
-37.823158708
 20
11.82531876
 10
-37.8232493016
 20
11.8242797953
 10
-37.8233384556
 20
11.8233191933
 10
-37.8234260824
 20
11.8224367694
 10
-37.8235120945
 20
11.8216323391
 10
-37.8235844964
 20
11.8210047975
 10
-37.8236557663
 20
11.8204345052
 10
-37.8237260227
 20
11.8199215459
 10
-37.8237953845
 20
11.8194660028
 10
-37.8238639701
 20
11.8190679596
 10
-37.8239318983
 20
11.8187274997
 10
-37.8239992878
 20
11.8184447065
  0
LWPOLYLINE
  5
37F
100
AcDbEntity
  8
0
100
AcDbPolyline
 62
253
  6
CONTINUOUS
 90
8
 70
0
 10
-37.7887017704
 20
13.234036095
 10
-37.7886801457
 20
13.2337606812
 10
-37.7886607233
 20
13.2334277714
 10
-37.788643425
 20
13.2330380896
 10
-37.7886281726
 20
13.2325923598
 10
-37.7886148877
 20
13.2320913062
 10
-37.7886034921
 20
13.2315356526
 10
-37.7885939075
 20
13.2309261232
  0
LWPOLYLINE
  5
380
100
AcDbEntity
  8
0
100
AcDbPolyline
 62
253
  6
CONTINUOUS
 90
16
 70
0
 10
-37.5744560015
 20
0.761048641
 10
-37.5716925562
 20
0.7080600463
 10
-37.5636470395
 20
0.6568094851
 10
-37.5505368616
 20
0.6071793037
 10
-37.5322509662
 20
0.5588476231
 10
-37.5087675866
 20
0.5121352335
 10
-37.4806111247
 20
0.4681641004
 10
-37.4482334073
 20
0.4276233342
 10
-37.4117006238
 20
0.390586738
 10
-37.3714647374
 20
0.3574884842
 10
-37.3281155008
 20
0.3288466436
 10
-37.2820660603
 20
0.3049249904
 10
-37.2336873777
 20
0.2858863489
 10
-37.1835265195
 20
0.2719880377
 10
-37.1322918383
 20
0.2634423937
 10
-37.080643583
 20
0.2603004928
  0
LWPOLYLINE
  5
381
100
AcDbEntity
  8
0
100
AcDbPolyline
 62
253
  6
CONTINUOUS
 90
10
 70
0
 10
-37.1259334395
 20
-20.8641752298
 10
-37.2199815374
 20
-18.5505271135
 10
-37.3017100077
 20
-16.274909356
 10
-37.371656496
 20
-14.0373917669
 10
-37.4297337591
 20
-11.8632459027
 10
-37.4773011479
 20
-9.7273291162
 10
-37.5160493098
 20
-7.5540598213
 10
-37.5457551596
 20
-5.3182597786
 10
-37.5653980773
 20
-3.0451793399
 10
-37.5744559216
 20
-0.7348641115
  0
LWPOLYLINE
  5
382
100
AcDbEntity
  8
0
100
AcDbPolyline
 62
253
  6
CONTINUOUS
 90
10
 70
0
 10
-36.640605621
 20
-20.8427330875
 10
-36.7338113668
 20
-18.5313683667
 10
-36.8157558236
 20
-16.2581226819
 10
-36.8864389914
 20
-14.0229960332
 10
-36.9452935455
 20
-11.8511231975
 10
-36.9928868106
 20
-9.7173693978
 10
-37.0309207605
 20
-7.5463303028
 10
-37.0599627198
 20
-5.3128711355
 10
-37.0794453639
 20
-3.0421266728
 10
-37.0899859116
 20
-0.6311869964
  0
LWPOLYLINE
  5
383
100
AcDbEntity
  8
0
100
AcDbPolyline
 62
253
  6
CONTINUOUS
 90
7
 70
0
 10
-37.8243467308
 20
11.8208051571
 10
-37.826380897
 20
11.8733383515
 10
-37.8280820479
 20
11.9254234113
 10
-37.829468967
 20
11.9775574144
 10
-37.8305413557
 20
12.0297401677
 10
-37.8312989203
 20
12.081971478
 10
-37.8317413827
 20
12.1342513731
  0
LWPOLYLINE
  5
384
100
AcDbEntity
  8
0
100
AcDbPolyline
 62
253
  6
CONTINUOUS
 90
12
 70
0
 10
-37.8176399146
 20
12.5816108967
 10
-37.81770353
 20
12.5834156701
 10
-37.8177704123
 20
12.5850576286
 10
-37.8178406438
 20
12.586534795
 10
-37.8179143018
 20
12.5878452744
 10
-37.8179914639
 20
12.5889871717
 10
-37.8180722073
 20
12.5899585917
 10
-37.8181566096
 20
12.5907576394
 10
-37.8182447481
 20
12.5913824198
 10
-37.8183367003
 20
12.5918310378
 10
-37.8184325435
 20
12.5921015984
 10
-37.8185323553
 20
12.5921922063
  0
LWPOLYLINE
  5
385
100
AcDbEntity
  8
0
100
AcDbPolyline
 62
7
  6
CONTINUOUS
 90
5
 70
0
 10
-37.8426853329
 20
-11.9334805895
 10
-37.7689847797
 20
-14.1871287589
 10
-37.6825820441
 20
-16.4403313561
 10
-37.5834800402
 20
-18.6930168038
 10
-37.4762910376
 20
-20.857076768
  0
LINE
  5
386
100
AcDbEntity
  8
0
100
AcDbLine
 62
253
  6
CONTINUOUS
 10
-37.875817616
 20
-10.3217625067
 11
-37.8740274539
 21
-10.3754486966
  0
LWPOLYLINE
  5
387
100
AcDbEntity
  8
0
100
AcDbPolyline
 62
253
  6
CONTINUOUS
 90
3
 70
0
 10
-37.8165084389
 20
-12.5588313404
 10
-37.8306527308
 20
-12.1021511309
 10
-37.8424814994
 20
-11.7041059923
  0
LINE
  5
388
100
AcDbEntity
  8
0
100
AcDbLine
 62
253
  6
CONTINUOUS
 10
-37.8830895839
 20
-10.4946224964
 11
-37.8734638082
 21
-10.8094328184
  0
LINE
  5
389
100
AcDbEntity
  8
0
100
AcDbLine
 62
253
  6
CONTINUOUS
 10
-37.853455163
 20
-11.1356021475
 11
-37.8119369854
 21
-12.5454989971
  0
LINE
  5
38A
100
AcDbEntity
  8
0
100
AcDbLine
 62
7
  6
CONTINUOUS
 10
-37.9036807893
 20
-9.6794584423
 11
-37.8426853329
 21
-11.9334805895
  0
LINE
  5
38B
100
AcDbEntity
  8
0
100
AcDbLine
 62
253
  6
CONTINUOUS
 10
-37.817522071
 20
12.5775222057
 11
-37.8176399146
 21
12.5816108967
  0
LINE
  5
38C
100
AcDbEntity
  8
0
100
AcDbLine
 62
253
  6
CONTINUOUS
 10
-37.8740274539
 20
-10.3754486966
 11
-37.853455163
 21
-11.1356021475
  0
LINE
  5
38D
100
AcDbEntity
  8
0
100
AcDbLine
 62
253
  6
CONTINUOUS
 10
-37.8351981258
 20
-12.1409549166
 11
-37.8292195502
 21
-12.3730251243
  0
LINE
  5
38E
100
AcDbEntity
  8
0
100
AcDbLine
 62
253
  6
CONTINUOUS
 10
-37.8030680005
 20
13.0056742124
 11
-37.8028637537
 21
12.9977938018
  0
LINE
  5
38F
100
AcDbEntity
  8
0
100
AcDbLine
 62
253
  6
CONTINUOUS
 10
-37.8119369854
 20
-12.5454989971
 11
-37.810207709
 21
-12.6118268951
  0
LINE
  5
390
100
AcDbEntity
  8
0
100
AcDbLine
 62
253
  6
CONTINUOUS
 10
-37.8555029692
 20
-11.2496576591
 11
-37.8783513033
 21
-10.401788572
  0
LINE
  5
391
100
AcDbEntity
  8
0
100
AcDbLine
 62
253
  6
CONTINUOUS
 10
-37.8174160305
 20
12.5728105668
 11
-37.817522071
 21
12.5775222057
  0
LINE
  5
392
100
AcDbEntity
  8
0
100
AcDbLine
 62
253
  6
CONTINUOUS
 10
-37.810207709
 20
-12.6118268951
 11
-37.8094020573
 21
-12.6490598739
  0
LINE
  5
393
100
AcDbEntity
  8
0
100
AcDbLine
 62
253
  6
CONTINUOUS
 10
-37.8783513033
 20
-10.401788572
 11
-37.8798211937
 21
-10.3323756462
  0
LINE
  5
394
100
AcDbEntity
  8
0
100
AcDbLine
 62
253
  6
CONTINUOUS
 10
-37.8028637537
 20
12.9977938018
 11
-37.8026882413
 21
12.9886251542
  0
LWPOLYLINE
  5
395
100
AcDbEntity
  8
0
100
AcDbPolyline
 62
253
  6
CONTINUOUS
 90
9
 70
0
 10
-37.088935854
 20
0.4264930618
 10
-37.0882914551
 20
0.3893598457
 10
-37.0875148449
 20
0.3562940534
 10
-37.0866142919
 20
0.3276581439
 10
-37.0855997323
 20
0.3037770582
 10
-37.0844825625
 20
0.2849220972
 10
-37.083275194
 20
0.2713018739
 10
-37.0819908214
 20
0.263064434
 10
-37.0806435829
 20
0.2603004928
  0
LINE
  5
396
100
AcDbEntity
  8
0
100
AcDbLine
 62
253
  6
CONTINUOUS
 10
-37.8430704325
 20
11.1965433146
 11
-37.8429823983
 21
11.1915233177
  0
LINE
  5
397
100
AcDbEntity
  8
0
100
AcDbLine
 62
253
  6
CONTINUOUS
 10
-37.8172772284
 20
12.5646168481
 11
-37.8174160305
 21
12.5728105668
  0
LINE
  5
398
100
AcDbEntity
  8
0
100
AcDbLine
 62
253
  6
CONTINUOUS
 10
-37.8094020573
 20
-12.6490598739
 11
-37.8089994387
 21
-12.6725615853
  0
LINE
  5
399
100
AcDbEntity
  8
0
100
AcDbLine
 62
253
  6
CONTINUOUS
 10
-37.8798211937
 20
-10.3323756462
 11
-37.8804149361
 21
-10.2966339794
  0
LWPOLYLINE
  5
39A
100
AcDbEntity
  8
0
100
AcDbPolyline
 62
253
  6
CONTINUOUS
 90
3
 70
0
 10
-37.8424814994
 20
-11.7041059923
 10
-37.8406387221
 20
-11.8493536394
 10
-37.8351981258
 20
-12.1409549166
  0
LINE
  5
39B
100
AcDbEntity
  8
0
100
AcDbLine
 62
253
  6
CONTINUOUS
 10
-37.8171969511
 20
12.558431373
 11
-37.8172772284
 21
12.5646168481
  0
LINE
  5
39C
100
AcDbEntity
  8
0
100
AcDbLine
 62
253
  6
CONTINUOUS
 10
-37.8026882413
 20
12.9886251542
 11
-37.80248028
 21
12.9724733361
  0
LINE
  5
39D
100
AcDbEntity
  8
0
100
AcDbLine
 62
253
  6
CONTINUOUS
 10
-37.8089994387
 20
-12.6725615853
 11
-37.8088061651
 21
-12.6884890532
  0
LINE
  5
39E
100
AcDbEntity
  8
0
100
AcDbLine
 62
253
  6
CONTINUOUS
 10
-37.8804149361
 20
-10.2966339794
 11
-37.8806725569
 21
-10.2747252858
  0
LINE
  5
39F
100
AcDbEntity
  8
0
100
AcDbLine
 62
253
  6
CONTINUOUS
 10
-37.8429823983
 20
11.1915233177
 11
-37.8429250907
 21
11.1857684375
  0
LINE
  5
3A0
100
AcDbEntity
  8
0
100
AcDbLine
 62
253
  6
CONTINUOUS
 10
-37.0898022273
 20
0.5113652296
 11
-37.088935854
 21
0.4264930618
  0
LINE
  5
3A1
100
AcDbEntity
  8
0
100
AcDbLine
 62
253
  6
CONTINUOUS
 10
-37.7885849344
 20
13.2301476733
 11
-37.7885783433
 21
13.2292967976
  0
LWPOLYLINE
  5
3A2
100
AcDbEntity
  8
0
100
AcDbPolyline
 62
253
  6
CONTINUOUS
 90
9
 70
0
 10
-37.8812279817
 20
10.4744656804
 10
-37.8811862102
 20
10.4682892519
 10
-37.8811164215
 20
10.4629471235
 10
-37.8810189535
 20
10.4584296388
 10
-37.8808941439
 20
10.4547271413
 10
-37.8807421576
 20
10.451833186
 10
-37.8805624677
 20
10.4497541738
 10
-37.8803543748
 20
10.4484997173
 10
-37.8801171792
 20
10.448079429
  0
LINE
  5
3A3
100
AcDbEntity
  8
0
100
AcDbLine
 62
253
  6
CONTINUOUS
 10
-37.80248028
 20
12.9724733361
 11
-37.8023407463
 21
12.9533993844
  0
LINE
  5
3A4
100
AcDbEntity
  8
0
100
AcDbLine
 62
253
  6
CONTINUOUS
 10
-37.8088061651
 20
-12.6884890532
 11
-37.8087470324
 21
-12.6969730473
  0
LINE
  5
3A5
100
AcDbEntity
  8
0
100
AcDbLine
 62
253
  6
CONTINUOUS
 10
-37.8806725569
 20
-10.2747252858
 11
-37.8807526416
 21
-10.2627578225
  0
LWPOLYLINE
  5
3A6
100
AcDbEntity
  8
0
100
AcDbPolyline
 62
7
  6
CONTINUOUS
 90
5
 70
0
 10
-38.0204283142
 20
-0.7389129176
 10
-38.0104115324
 20
-2.9158642885
 10
-37.9875452763
 20
-5.1705786579
 10
-37.9519682339
 20
-7.4251339286
 10
-37.9036807893
 20
-9.6794584423
  0
LINE
  5
3A7
100
AcDbEntity
  8
0
100
AcDbLine
 62
253
  6
CONTINUOUS
 10
-37.8317413827
 20
12.1342513731
 11
-37.8317426677
 21
12.1348063436
  0
LINE
  5
3A8
100
AcDbEntity
  8
0
100
AcDbLine
 62
253
  6
CONTINUOUS
 10
-37.8023407463
 20
12.9533993844
 11
-37.8022720106
 21
12.931317484
  0
LINE
  5
3A9
100
AcDbEntity
  8
0
100
AcDbLine
 62
253
  6
CONTINUOUS
 10
-37.7885741574
 20
13.2283734154
 11
-37.7885724003
 21
13.2273774466
  0
LINE
  5
3AA
100
AcDbEntity
  8
0
100
AcDbLine
 62
253
  6
CONTINUOUS
 10
-37.8429250907
 20
11.1857684375
 11
-37.8428891147
 21
11.1758537184
  0
LINE
  5
3AB
100
AcDbEntity
  8
0
100
AcDbLine
 62
253
  6
CONTINUOUS
 10
-37.0900752719
 20
0.6070499203
 11
-37.0898022273
 21
0.5113652296
  0
LINE
  5
3AC
100
AcDbEntity
  8
0
100
AcDbLine
 62
253
  6
CONTINUOUS
 10
-37.8087470324
 20
-12.6969730473
 11
-37.8087356177
 21
-12.7023586891
  0
LINE
  5
3AD
100
AcDbEntity
  8
0
100
AcDbLine
 62
253
  6
CONTINUOUS
 10
-37.8807526416
 20
-10.2627578225
 11
-37.8807644525
 21
-10.2542804969
  0
LINE
  5
3AE
100
AcDbEntity
  8
0
100
AcDbLine
 62
253
  6
CONTINUOUS
 10
-37.0899859116
 20
-0.6311869964
 11
-37.0900142536
 21
-0.5319932458
  0
LINE
  5
3AF
100
AcDbEntity
  8
0
100
AcDbLine
 62
253
  6
CONTINUOUS
 10
-37.8812263103
 20
10.4893355466
 11
-37.8812279817
 21
10.4744656804
  0
LINE
  5
3B0
100
AcDbEntity
  8
0
100
AcDbLine
 62
253
  6
CONTINUOUS
 10
-37.8926596917
 20
10.0501399166
 11
-37.8926424882
 21
10.0678676451
  0
LINE
  5
3B1
100
AcDbEntity
  8
0
100
AcDbLine
 62
253
  6
CONTINUOUS
 10
-37.8317423286
 20
12.1354059607
 11
-37.8317403947
 21
12.1360502426
  0
LINE
  5
3B2
100
AcDbEntity
  8
0
100
AcDbLine
 62
253
  6
CONTINUOUS
 10
-37.8428891147
 20
11.1758537184
 11
-37.8429098947
 21
11.1643213537
  0
LWPOLYLINE
  5
3B3
100
AcDbEntity
  8
0
100
AcDbPolyline
 62
253
  6
CONTINUOUS
 90
10
 70
0
 10
-37.5744559226
 20
0.7610486446
 10
-37.5668798961
 20
2.8264729307
 10
-37.5502053766
 20
4.9226241592
 10
-37.5240340582
 20
7.0494598204
 10
-37.4882698918
 20
9.190686505
 10
-37.4423422769
 20
11.3625049125
 10
-37.3844764088
 20
13.6135941787
 10
-37.3130355735
 20
15.9601184375
 10
-37.227250438
 20
18.3857414069
 10
-37.1259334401
 20
20.8903597509
  0
LWPOLYLINE
  5
3B4
100
AcDbEntity
  8
0
100
AcDbPolyline
 62
253
  6
CONTINUOUS
 90
12
 70
0
 10
-37.8087356177
 20
-12.7023586891
 10
-37.8087512621
 20
-12.7068980019
 10
-37.8087688698
 20
-12.7088506782
 10
-37.8087928343
 20
-12.7105943601
 10
-37.8088230411
 20
-12.7121316733
 10
-37.8088593758
 20
-12.7134652435
 10
-37.808901724
 20
-12.7145976964
 10
-37.8089500405
 20
-12.7155306829
 10
-37.8090045579
 20
-12.7162619529
 10
-37.8090655777
 20
-12.7167882814
 10
-37.8091334018
 20
-12.7171064436
 10
-37.8092083319
 20
-12.7172132143
  0
LINE
  5
3B5
100
AcDbEntity
  8
0
100
AcDbLine
 62
253
  6
CONTINUOUS
 10
-37.8807644525
 20
-10.2542804969
 11
-37.8807423147
 21
-10.2493174807
  0
LINE
  5
3B6
100
AcDbEntity
  8
0
100
AcDbLine
 62
253
  6
CONTINUOUS
 10
-37.7885730954
 20
13.2263088106
 11
-37.7885901068
 21
13.2226681734
  0
LINE
  5
3B7
100
AcDbEntity
  8
0
100
AcDbLine
 62
253
  6
CONTINUOUS
 10
-37.0824588315
 20
2.8236937628
 11
-37.0900752719
 21
0.6070499203
  0
LINE
  5
3B8
100
AcDbEntity
  8
0
100
AcDbLine
 62
253
  6
CONTINUOUS
 10
-37.881109644
 20
10.5075113877
 11
-37.8812263103
 21
10.4893355466
  0
LWPOLYLINE
  5
3B9
100
AcDbEntity
  8
0
100
AcDbPolyline
 62
253
  6
CONTINUOUS
 90
9
 70
0
 10
-37.0824588315
 20
2.8236937628
 10
-37.0656393708
 20
4.9176988072
 10
-37.0389104075
 20
7.0422965874
 10
-37.0033768107
 20
9.1813172183
 10
-36.9579337114
 20
11.350930585
 10
-36.8992665022
 20
13.5996463438
 10
-36.826270314
 20
15.94363438
 10
-36.7400500159
 20
18.3667248081
 10
-36.640605608
 20
20.8689176283
  0
LINE
  5
3BA
100
AcDbEntity
  8
0
100
AcDbLine
 62
253
  6
CONTINUOUS
 10
-37.8926424882
 20
10.0678676451
 11
-37.8924931298
 21
10.0891680389
  0
LWPOLYLINE
  5
3BB
100
AcDbEntity
  8
0
100
AcDbPolyline
 62
253
  6
CONTINUOUS
 90
11
 70
0
 10
-37.0900142536
 20
-0.5319932458
 10
-37.0894410829
 20
-0.4411086599
 10
-37.088935758
 20
-0.4003086072
 10
-37.0882913592
 20
-0.3631753704
 10
-37.0875147489
 20
-0.3301095604
 10
-37.0866141959
 20
-0.3014736381
 10
-37.0855996362
 20
-0.2775925421
 10
-37.0844824663
 20
-0.2587375719
 10
-37.0832750977
 20
-0.2451173411
 10
-37.081990725
 20
-0.2368798963
 10
-37.0806434865
 20
-0.2341159533
  0
LINE
  5
3BC
100
AcDbEntity
  8
0
100
AcDbLine
 62
253
  6
CONTINUOUS
 10
-37.8429098947
 20
11.1643213537
 11
-37.8430283041
 21
11.1463846588
  0
LINE
  5
3BD
100
AcDbEntity
  8
0
100
AcDbLine
 62
253
  6
CONTINUOUS
 10
-37.7885901068
 20
13.2226681734
 11
-37.7886297336
 21
13.2183989421
  0
LINE
  5
3BE
100
AcDbEntity
  8
0
100
AcDbLine
 62
253
  6
CONTINUOUS
 10
-37.8317318583
 20
12.1374728726
 11
-37.8317060915
 21
12.1400912422
  0
LINE
  5
3BF
100
AcDbEntity
  8
0
100
AcDbLine
 62
253
  6
CONTINUOUS
 10
-37.8807181076
 20
10.5407777092
 11
-37.881109644
 21
10.5075113877
  0
LWPOLYLINE
  5
3C0
100
AcDbEntity
  8
0
100
AcDbPolyline
 62
253
  6
CONTINUOUS
 90
11
 70
0
 10
-37.8807423147
 20
-10.2493174807
 10
-37.8806961782
 20
-10.2452001056
 10
-37.8806644195
 20
-10.2434558908
 10
-37.8806270099
 20
-10.241917984
 10
-37.8805840549
 20
-10.2405837699
 10
-37.8805356602
 20
-10.2394506331
 10
-37.8804818651
 20
-10.2385169432
 10
-37.8804224429
 20
-10.2377850081
 10
-37.8803571006
 20
-10.2372581206
 10
-37.880285545
 20
-10.2369395735
 10
-37.880207483
 20
-10.2368326594
  0
LINE
  5
3C1
100
AcDbEntity
  8
0
100
AcDbLine
 62
253
  6
CONTINUOUS
 10
-37.8430283041
 20
11.1463846588
 11
-37.8433682431
 21
11.1172542171
  0
LINE
  5
3C2
100
AcDbEntity
  8
0
100
AcDbLine
 62
253
  6
CONTINUOUS
 10
-37.8924931298
 20
10.0891680389
 11
-37.8920228781
 21
10.127552693
  0
LINE
  5
3C3
100
AcDbEntity
  8
0
100
AcDbLine
 62
253
  6
CONTINUOUS
 10
-37.7886480015
 20
13.2168430153
 11
-37.7887550842
 21
13.2094688289
  0
LINE
  5
3C4
100
AcDbEntity
  8
0
100
AcDbLine
 62
253
  6
CONTINUOUS
 10
-37.8316929087
 20
12.1411689935
 11
-37.8315968968
 21
12.1474697679
  0
LINE
  5
3C5
100
AcDbEntity
  8
0
100
AcDbLine
 62
253
  6
CONTINUOUS
 10
-37.8181059055
 20
11.9710916509
 11
-37.8182592656
 21
11.9611515375
  0
LINE
  5
3C6
100
AcDbEntity
  8
0
100
AcDbLine
 62
253
  6
CONTINUOUS
 10
-37.8433682431
 20
11.1172542171
 11
-37.8439119019
 21
11.0841313102
  0
LINE
  5
3C7
100
AcDbEntity
  8
0
100
AcDbLine
 62
253
  6
CONTINUOUS
 10
-37.8795073202
 20
10.611235545
 11
-37.8807181076
 21
10.5407777092
  0
LINE
  5
3C8
100
AcDbEntity
  8
0
100
AcDbLine
 62
253
  6
CONTINUOUS
 10
-37.8920228781
 20
10.127552693
 11
-37.8906059255
 21
10.2077160181
  0
LINE
  5
3C9
100
AcDbEntity
  8
0
100
AcDbLine
 62
253
  6
CONTINUOUS
 10
-37.7887821092
 20
13.2078633604
 11
-37.7890240154
 21
13.1955043884
  0
LINE
  5
3CA
100
AcDbEntity
  8
0
100
AcDbLine
 62
253
  6
CONTINUOUS
 10
-37.8315716364
 20
12.1489104656
 11
-37.8312570495
 21
12.16428655
  0
LINE
  5
3CB
100
AcDbEntity
  8
0
100
AcDbLine
 62
253
  6
CONTINUOUS
 10
-37.8182859948
 20
11.9596446813
 11
-37.8186151115
 21
11.9434975434
  0
LINE
  5
3CC
100
AcDbEntity
  8
0
100
AcDbLine
 62
253
  6
CONTINUOUS
 10
-37.8439119019
 20
11.0841313102
 11
-37.8448971858
 21
11.0374705325
  0
LINE
  5
3CD
100
AcDbEntity
  8
0
100
AcDbLine
 62
253
  6
CONTINUOUS
 10
-37.8761640364
 20
10.762097433
 11
-37.8795073202
 21
10.611235545
  0
LINE
  5
3CE
100
AcDbEntity
  8
0
100
AcDbLine
 62
253
  6
CONTINUOUS
 10
-37.8906059255
 20
10.2077160181
 11
-37.8864008742
 21
10.3916518649
  0
LINE
  5
3CF
100
AcDbEntity
  8
0
100
AcDbLine
 62
253
  6
CONTINUOUS
 10
-37.7890240154
 20
13.1955043884
 11
-37.8181059055
 21
11.9710916509
  0
LINE
  5
3D0
100
AcDbEntity
  8
0
100
AcDbLine
 62
253
  6
CONTINUOUS
 10
-37.8312570495
 20
12.16428655
 11
-37.8305914979
 21
12.1910054272
  0
LINE
  5
3D1
100
AcDbEntity
  8
0
100
AcDbLine
 62
253
  6
CONTINUOUS
 10
-37.8186151115
 20
11.9434975434
 11
-37.8191386993
 21
11.9224151626
  0
LWPOLYLINE
  5
3D2
100
AcDbEntity
  8
0
100
AcDbPolyline
 62
7
  6
CONTINUOUS
 90
6
 70
0
 10
-37.8426853329
 20
11.9596651282
 10
-37.9036807893
 20
9.705642981
 10
-37.9519682339
 20
7.4513184672
 10
-37.9875452763
 20
5.1967631966
 10
-38.0104115324
 20
2.9420488271
 10
-38.0204283142
 20
0.7650974562
  0
LINE
  5
3D3
100
AcDbEntity
  8
0
100
AcDbLine
 62
253
  6
CONTINUOUS
 10
-37.8448971858
 20
11.0374705325
 11
-37.8463319549
 21
10.9820550078
  0
LINE
  5
3D4
100
AcDbEntity
  8
0
100
AcDbLine
 62
253
  6
CONTINUOUS
 10
-37.8305914979
 20
12.1910054272
 11
-37.8292642549
 21
12.2360451115
  0
LINE
  5
3D5
100
AcDbEntity
  8
0
100
AcDbLine
 62
253
  6
CONTINUOUS
 10
-37.8191386993
 20
11.9224151626
 11
-37.8197917393
 21
11.900243749
  0
LINE
  5
3D6
100
AcDbEntity
  8
0
100
AcDbLine
 62
253
  6
CONTINUOUS
 10
-37.8463319549
 20
10.9820550078
 11
-37.8479287175
 21
10.9297432897
  0
LINE
  5
3D7
100
AcDbEntity
  8
0
100
AcDbLine
 62
7
  6
CONTINUOUS
 10
-37.7689847797
 20
14.2133132975
 11
-37.8426853329
 21
11.9596651282
  0
LINE
  5
3D8
100
AcDbEntity
  8
0
100
AcDbLine
 62
253
  6
CONTINUOUS
 10
-37.8292642549
 20
12.2360451115
 11
-37.8284362314
 21
12.2613292473
  0
LINE
  5
3D9
100
AcDbEntity
  8
0
100
AcDbLine
 62
253
  6
CONTINUOUS
 10
-37.8197917393
 20
11.900243749
 11
-37.8204420661
 21
11.8809979586
  0
LINE
  5
3DA
100
AcDbEntity
  8
0
100
AcDbLine
 62
253
  6
CONTINUOUS
 10
-37.8536989838
 20
11.004555475
 11
-37.8505406064
 21
11.0938502149
  0
LINE
  5
3DB
100
AcDbEntity
  8
0
100
AcDbLine
 62
253
  6
CONTINUOUS
 10
-37.8479287175
 20
10.9297432897
 11
-37.8511773661
 21
10.8384530798
  0
LWPOLYLINE
  5
3DC
100
AcDbEntity
  8
0
100
AcDbPolyline
 62
253
  6
CONTINUOUS
 90
16
 70
0
 10
-37.5744559042
 20
-0.7348641136
 10
-37.5716926819
 20
-0.6818775159
 10
-37.5636477283
 20
-0.6306286286
 10
-37.5505383712
 20
-0.580999779
 10
-37.5322535074
 20
-0.5326691045
 10
-37.5087712974
 20
-0.4859573742
 10
-37.4806159744
 20
-0.4419864585
 10
-37.4482391866
 20
-0.401445419
 10
-37.4117070462
 20
-0.3644081584
 10
-37.3714714563
 20
-0.3313089763
 10
-37.3281220609
 20
-0.3026660198
 10
-37.2820719691
 20
-0.2787431861
 10
-37.2336922561
 20
-0.2597034722
 10
-37.1835300516
 20
-0.2458043001
 10
-37.1322936947
 20
-0.2372580753
 10
-37.0806434865
 20
-0.2341159533
  0
LINE
  5
3DD
100
AcDbEntity
  8
0
100
AcDbLine
 62
253
  6
CONTINUOUS
 10
-35.9802605708
 20
21.6418912031
 11
-35.9751138555
 21
21.5381669448
  0
LINE
  5
3DE
100
AcDbEntity
  8
0
100
AcDbLine
 62
253
  6
CONTINUOUS
 10
-35.9846117052
 20
21.7410900888
 11
-35.9802605708
 21
21.6418912031
  0
LINE
  5
3DF
100
AcDbEntity
  8
0
100
AcDbLine
 62
253
  6
CONTINUOUS
 10
-35.9892429675
 20
-21.8458498338
 11
-35.9864279571
 21
-21.7614400073
  0
LINE
  5
3E0
100
AcDbEntity
  8
0
100
AcDbLine
 62
253
  6
CONTINUOUS
 10
-35.9864279571
 20
-21.7614400073
 11
-35.9825483165
 21
-21.6661471854
  0
LWPOLYLINE
  5
3E1
100
AcDbEntity
  8
0
100
AcDbPolyline
 62
253
  6
CONTINUOUS
 90
3
 70
0
 10
-35.9825483165
 20
-21.6661471854
 10
-35.9777733193
 20
-21.5641288932
 10
-35.975113879
 20
-21.5119824049
  0
LINE
  5
3E2
100
AcDbEntity
  8
0
100
AcDbLine
 62
253
  6
CONTINUOUS
 10
-37.5744559216
 20
-0.7348641115
 11
-38.0204283143
 21
-0.7389129128
  0
LINE
  5
3E3
100
AcDbEntity
  8
0
100
AcDbLine
 62
253
  6
CONTINUOUS
 10
-31.6711169774
 20
-0.6868125485
 11
-37.0893686929
 21
-0.7340969149
  0
LINE
  5
3E4
100
AcDbEntity
  8
0
100
AcDbLine
 62
7
  6
CONTINUOUS
 10
-31.6711169774
 20
-0.1869077307
 11
-37.5247974679
 21
-0.2379920264
  0
LINE
  5
3E5
100
AcDbEntity
  8
0
100
AcDbLine
 62
253
  6
CONTINUOUS
 10
-37.0893686916
 20
-0.7340969148
 11
-37.5744559042
 21
-0.7348641136
  0
LINE
  5
3E6
100
AcDbEntity
  8
0
100
AcDbLine
 62
7
  6
CONTINUOUS
 10
-37.5247974679
 20
0.2641765651
 11
-31.6711169774
 21
0.2130922693
  0
LINE
  5
3E7
100
AcDbEntity
  8
0
100
AcDbLine
 62
7
  6
CONTINUOUS
 10
-32.0711169774
 20
17.9465816368
 11
-32.0711169774
 21
17.6851131904
  0
LINE
  5
3E8
100
AcDbEntity
  8
0
100
AcDbLine
 62
7
  6
CONTINUOUS
 10
-32.0711169774
 20
-17.6589286518
 11
-32.0711169774
 21
-17.9203970545
  0
LINE
  5
3E9
100
AcDbEntity
  8
0
100
AcDbLine
 62
7
  6
CONTINUOUS
 10
-31.6711169774
 20
13.1130922693
 11
-31.6711169774
 21
0.2130922693
  0
LINE
  5
3EA
100
AcDbEntity
  8
0
100
AcDbLine
 62
7
  6
CONTINUOUS
 10
-31.6711169774
 20
-13.0869077307
 11
-31.6711169774
 21
-0.1869077307
  0
LINE
  5
3EB
100
AcDbEntity
  8
0
100
AcDbLine
 62
253
  6
CONTINUOUS
 10
-37.5744560015
 20
0.761048641
 11
-37.0893687881
 21
0.7602814543
  0
LINE
  5
3EC
100
AcDbEntity
  8
0
100
AcDbLine
 62
253
  6
CONTINUOUS
 10
-37.0893687897
 20
0.7602814544
 11
-31.6711169774
 21
0.7129970871
  0
LINE
  5
3ED
100
AcDbEntity
  8
0
100
AcDbLine
 62
253
  6
CONTINUOUS
 10
-38.0204283143
 20
0.7650974515
 11
-37.5744559226
 21
0.7610486446
  0
LWPOLYLINE
  5
3EE
100
AcDbEntity
  8
0
100
AcDbPolyline
 62
253
  6
CONTINUOUS
 90
10
 70
0
 10
-37.8911719536
 20
10.0146213736
 10
-37.8914618463
 20
10.0150621937
 10
-37.8917200029
 20
10.0163810763
 10
-37.891946902
 20
10.018572655
 10
-37.8921430219
 20
10.0216315634
 10
-37.8923086892
 20
10.0255555968
 10
-37.8924436222
 20
10.0303551974
 10
-37.892547387
 20
10.0360439692
 10
-37.8926195498
 20
10.0426355163
 10
-37.8926596917
 20
10.0501399166
  0
LWPOLYLINE
  5
3EF
100
AcDbEntity
  8
0
100
AcDbPolyline
 62
253
  6
CONTINUOUS
 90
20
 70
0
 10
-37.8240784346
 20
11.8184816301
 10
-37.8240965559
 20
11.8185122946
 10
-37.8241145853
 20
11.8185533537
 10
-37.8241325065
 20
11.8186055373
 10
-37.8241503035
 20
11.8186695751
 10
-37.8241657585
 20
11.818735921
 10
-37.8241810782
 20
11.8188124799
 10
-37.8241962345
 20
11.8188998299
 10
-37.8242111994
 20
11.8189985493
 10
-37.8242259451
 20
11.8191092164
 10
-37.8242404434
 20
11.8192324095
 10
-37.8242546664
 20
11.8193687067
 10
-37.8242685862
 20
11.8195186863
 10
-37.8242806823
 20
11.8196639852
 10
-37.8242924982
 20
11.8198211368
 10
-37.8243040156
 20
11.819990726
 10
-37.8243152159
 20
11.8201733376
 10
-37.8243260809
 20
11.8203695567
 10
-37.824336592
 20
11.8205799682
 10
-37.8243467308
 20
11.8208051571
  0
LINE
  5
3F0
100
AcDbEntity
  8
0
100
AcDbLine
 62
7
  6
CONTINUOUS
 10
-32.46804009
 20
22.2219651278
 11
-31.6711169774
 21
13.1130922693
  0
LINE
  5
3F1
100
AcDbEntity
  8
0
100
AcDbLine
 62
7
  6
CONTINUOUS
 10
-31.6711169774
 20
-13.0869077307
 11
-32.46804009
 21
-22.1957805891
  0
LWPOLYLINE
  5
3F2
100
AcDbEntity
  8
0
100
AcDbPolyline
 62
253
  6
CONTINUOUS
 90
12
 70
0
 10
-37.8046878024
 20
13.0256149839
 10
-37.8045054496
 20
13.0254496996
 10
-37.8043302781
 20
13.0249540251
 10
-37.8041622303
 20
13.0241282285
 10
-37.8040012484
 20
13.0229725776
 10
-37.8038472747
 20
13.0214873404
 10
-37.8037002517
 20
13.0196727848
 10
-37.8035601214
 20
13.0175291787
 10
-37.8034268264
 20
13.0150567901
 10
-37.803300332
 20
13.0122560574
 10
-37.8031806963
 20
13.0091281011
 10
-37.8030680005
 20
13.0056742124
  0
LINE
  5
3F3
100
AcDbEntity
  8
0
100
AcDbLine
 62
253
  6
CONTINUOUS
 10
-32.0711169774
 20
17.9465838705
 11
-32.0939926977
 21
17.9465838705
  0
LWPOLYLINE
  5
3F4
100
AcDbEntity
  8
0
100
AcDbPolyline
 62
253
  6
CONTINUOUS
 90
4
 70
0
 10
-37.1259206687
 20
20.8903592358
 10
-37.1202165911
 20
20.8900582232
 10
-37.1097353536
 20
20.889552234
 10
-36.640605608
 20
20.8689176283
  0
LINE
  5
3F5
100
AcDbEntity
  8
0
100
AcDbLine
 62
253
  6
CONTINUOUS
 10
-35.9751138555
 20
21.5381669448
 11
-32.4244953939
 21
21.7242469735
  0
LINE
  5
3F6
100
AcDbEntity
  8
0
100
AcDbLine
 62
7
  6
CONTINUOUS
 10
-36.3407323703
 20
22.0190059255
 11
-32.46804009
 21
22.2219651278
  0
LINE
  5
3F7
100
AcDbEntity
  8
0
100
AcDbLine
 62
253
  6
CONTINUOUS
 10
-37.1259334401
 20
20.8903597509
 11
-37.4762910421
 21
20.8832612196
  0
ARC
  5
3F8
100
AcDbEntity
  8
0
100
AcDbCircle
 62
7
  6
CONTINUOUS
 10
-36.2779254307
 20
20.8206506825
 40
1.2
100
AcDbArc
 50
93.0
 51
177.0092051173
  0
ARC
  5
3F9
100
AcDbEntity
  8
0
100
AcDbCircle
 62
7
  6
CONTINUOUS
 10
-36.2779254307
 20
-20.7944661439
 40
1.2
100
AcDbArc
 50
182.9907948827
 51
267.0
  0
ARC
  5
3FA
100
AcDbEntity
  8
0
100
AcDbCircle
 62
7
  6
CONTINUOUS
 10
-37.5204244324
 20
0.7641574413
 40
0.5
100
AcDbArc
 50
179.8922831945
 51
269.5
  0
ARC
  5
3FB
100
AcDbEntity
  8
0
100
AcDbCircle
 62
7
  6
CONTINUOUS
 10
-37.5204244324
 20
-0.7379729027
 40
0.5
100
AcDbArc
 50
90.5
 51
180.1077168055
  0
ARC
  5
3FC
100
AcDbEntity
  8
0
100
AcDbCircle
 62
7
  6
CONTINUOUS
 10
-32.3711169774
 20
17.9465838705
 40
0.3
100
AcDbArc
 50
359.9995650467
 51
25.0000767071
  0
ARC
  5
3FD
100
AcDbEntity
  8
0
100
AcDbCircle
 62
7
  6
CONTINUOUS
 10
-32.3711169774
 20
-17.9203993319
 40
0.3
100
AcDbArc
 50
334.9999285842
 51
0.0004349533
  0
ELLIPSE
  5
3FE
100
AcDbEntity
  8
0
100
AcDbEllipse
 62
7
  6
CONTINUOUS
 10
3.5277869179
 20
22.1955999853
 30
0.0
 11
0.2
 21
0.0
 31
0.0
 40
0.0524077793
 41
-2.617993878
 42
-1.5707963268
  0
ELLIPSE
  5
3FF
100
AcDbEntity
  8
0
100
AcDbEllipse
 62
7
  6
CONTINUOUS
 10
6.8968468103
 20
22.1955999853
 30
0.0
 11
0.2
 21
0.0
 31
0.0
 40
0.0524077793
 41
-1.5707963268
 42
-0.5235987756
  0
ELLIPSE
  5
400
100
AcDbEntity
  8
0
100
AcDbEllipse
 62
7
  6
CONTINUOUS
 10
-4.3031531897
 20
22.1955999853
 30
0.0
 11
0.2
 21
-0.0
 31
0.0
 40
0.0524077793
 41
-1.5707963268
 42
-0.5235987756
  0
ELLIPSE
  5
401
100
AcDbEntity
  8
0
100
AcDbEllipse
 62
7
  6
CONTINUOUS
 10
-7.6722130821
 20
22.1955999853
 30
0.0
 11
0.2
 21
-0.0
 31
0.0
 40
0.0524077793
 41
-2.617993878
 42
-1.5707963268
  0
ELLIPSE
  5
402
100
AcDbEntity
  8
0
100
AcDbEllipse
 62
7
  6
CONTINUOUS
 10
-10.9128818632
 20
0.7131113085
 30
0.0
 11
0.4745319423
 21
0.1581451893
 31
0.0
 40
0.9996192872
 41
2.8200172282
 42
4.3905851209
  0
ELLIPSE
  5
403
100
AcDbEntity
  8
0
100
AcDbEllipse
 62
7
  6
CONTINUOUS
 10
10.1375155914
 20
0.7131113085
 30
0.0
 11
0.4745319423
 21
-0.1581451893
 31
0.0
 40
0.9996192872
 41
-1.2489924673
 42
0.3215754254
  0
ELLIPSE
  5
404
100
AcDbEntity
  8
0
100
AcDbEllipse
 62
7
  6
CONTINUOUS
 10
-10.8931555194
 20
21.7235641663
 30
0.0
 11
0.4962344879
 21
0.0628595572
 31
0.0
 40
0.9963456432
 41
1.4443370775
 42
3.0137634083
  0
ELLIPSE
  5
405
100
AcDbEntity
  8
0
100
AcDbEllipse
 62
7
  6
CONTINUOUS
 10
10.1177892475
 20
21.7235641663
 30
0.0
 11
0.4962344879
 21
-0.0628595572
 31
0.0
 40
0.9963456432
 41
0.1278292453
 42
1.6972555761
  0
ELLIPSE
  5
406
100
AcDbEntity
  8
0
100
AcDbEllipse
 62
7
  6
CONTINUOUS
 10
-4.3031531897
 20
-22.1694154466
 30
0.0
 11
0.2
 21
0.0
 31
0.0
 40
0.0524077793
 41
0.5235987756
 42
1.5707963268
  0
ELLIPSE
  5
407
100
AcDbEntity
  8
0
100
AcDbEllipse
 62
7
  6
CONTINUOUS
 10
-7.6722130821
 20
-22.1694154466
 30
0.0
 11
0.2
 21
0.0
 31
0.0
 40
0.0524077793
 41
1.5707963268
 42
2.617993878
  0
ELLIPSE
  5
408
100
AcDbEntity
  8
0
100
AcDbEllipse
 62
7
  6
CONTINUOUS
 10
3.5277869179
 20
-22.1694154466
 30
0.0
 11
0.2
 21
0.0
 31
0.0
 40
0.0524077793
 41
1.5707963268
 42
2.617993878
  0
ELLIPSE
  5
409
100
AcDbEntity
  8
0
100
AcDbEllipse
 62
7
  6
CONTINUOUS
 10
6.8968468103
 20
-22.1694154466
 30
0.0
 11
0.2
 21
0.0
 31
0.0
 40
0.0524077793
 41
0.5235987756
 42
1.5707963268
  0
ELLIPSE
  5
40A
100
AcDbEntity
  8
0
100
AcDbEllipse
 62
7
  6
CONTINUOUS
 10
10.1375155914
 20
-0.6869267699
 30
0.0
 11
0.4745319423
 21
0.1581451893
 31
0.0
 40
0.9996192872
 41
-0.3215754254
 42
1.2489924673
  0
ELLIPSE
  5
40B
100
AcDbEntity
  8
0
100
AcDbEllipse
 62
7
  6
CONTINUOUS
 10
-10.9128818632
 20
-0.6869267699
 30
0.0
 11
0.4745319423
 21
-0.1581451893
 31
0.0
 40
0.9996192872
 41
1.8926001863
 42
3.463168079
  0
ELLIPSE
  5
40C
100
AcDbEntity
  8
0
100
AcDbEllipse
 62
7
  6
CONTINUOUS
 10
10.1177892475
 20
-21.6973796277
 30
0.0
 11
0.4962344879
 21
0.0628595572
 31
0.0
 40
0.9963456432
 41
-1.6972555761
 42
-0.1278292453
  0
ELLIPSE
  5
40D
100
AcDbEntity
  8
0
100
AcDbEllipse
 62
7
  6
CONTINUOUS
 10
-10.8931555194
 20
-21.6973796277
 30
0.0
 11
0.4962344879
 21
-0.0628595572
 31
0.0
 40
0.9963456432
 41
-3.0137634083
 42
-1.4443370775
  0
ENDSEC
  0
SECTION
  2
OBJECTS
  0
DICTIONARY
  5
C
100
AcDbDictionary
280
0
281
1
  3
ACAD_GROUP
350
D
  3
ACAD_MLINESTYLE
350
17
  3
ACAD_LAYOUT
350
1A
  3
ACAD_PLOTSETTINGS
350
19
  3
ACAD_PLOTSTYLENAME
350
E
  0
DICTIONARY
  5
D
102
{ACAD_REACTORS
330
C
102
}
100
AcDbDictionary
280
0
281
1
  0
ACDBDICTIONARYWDFLT
  5
E
102
{ACAD_REACTORS
330
C
102
}
100
AcDbDictionary
281
1
  3
Normal
350
F
100
AcDbDictionaryWithDefault
340
F
  0
DICTIONARY
  5
17
102
{ACAD_REACTORS
330
C
102
}
100
AcDbDictionary
280
0
281
1
  3
Standard
350
18
  0
DICTIONARY
  5
19
102
{ACAD_REACTORS
330
C
102
}
100
AcDbDictionary
281
1
  0
DICTIONARY
  5
1A
102
{ACAD_REACTORS
330
C
102
}
100
AcDbDictionary
281
1
  3
Model
350
40E
  3
Layout1
350
40F
  0
ACDBPLACEHOLDER
  5
F
102
{ACAD_REACTORS
330
E
102
}
  0
MLINESTYLE
  5
18
102
{ACAD_REACTORS
330
17
102
}
100
AcDbMlineStyle
  2
STANDARD
 70
0
  3

 62
256
 51
90.0
 52
90.0
 71
2
 49
0.5
 62
256
  6
BYLAYER
 49
-0.5
 62
256
  6
BYLAYER
  0
LAYOUT
  5
40E
102
{ACAD_REACTORS
330
1A
102
}
100
AcDbPlotSettings
  1

  2
none_device
  4
ISO_A4_(297.00_x_210.00_MM)
  6

 40
0.0
 41
0.0
 42
0.0
 43
0.0
 44
297.0
 45
210.0
 46
0.0
 47
0.0
 48
0.0
 49
0.0
140
0.0
141
0.0
142
1.0
143
1.0
 70
1024
 72
1
 73
0
 74
0
  7

 75
0
147
1.0
148
0.0
149
0.0
100
AcDbLayout
  1
Model
 70
0
 71
0
 10
0.0
 20
0.0
 11
297.0
 21
210.0
 12
0.0
 22
0.0
 32
0.0
 14
0.0
 24
0.0
 34
0.0
 15
0.0
 25
0.0
 35
0.0
146
0.0
 13
0.0
 23
0.0
 33
0.0
 16
1.0
 26
0.0
 36
0.0
 17
0.0
 27
1.0
 37
0.0
 76
0
330
220
345
0
346
0
  0
LAYOUT
  5
40F
102
{ACAD_REACTORS
330
1A
102
}
100
AcDbPlotSettings
  1

  2
none_device
  4
ISO_A4_(297.00_x_210.00_MM)
  6

 40
0.0
 41
0.0
 42
0.0
 43
0.0
 44
297.0
 45
210.0
 46
0.0
 47
0.0
 48
0.0
 49
0.0
140
0.0
141
0.0
142
1.0
143
1.0
 70
0
 72
1
 73
0
 74
0
  7

 75
0
147
1.0
148
0.0
149
0.0
100
AcDbLayout
  1
Layout1
 70
0
 71
1
 10
0.0
 20
0.0
 11
297.0
 21
210.0
 12
0.0
 22
0.0
 32
0.0
 14
0.0
 24
0.0
 34
0.0
 15
0.0
 25
0.0
 35
0.0
146
0.0
 13
0.0
 23
0.0
 33
0.0
 16
1.0
 26
0.0
 36
0.0
 17
0.0
 27
1.0
 37
0.0
 76
0
330
221
345
0
346
0
  0
ENDSEC
  0
EOF
