  0
SECTION
  2
HEADER
  9
$ACADVER
  1
AC1021
  9
$DWGCODEPAGE
  3
ANSI_1252
  9
$EXTMAX
 10
297.0
 20
210.0
 30
0.0
  9
$EXTMIN
 10
0.0
 20
0.0
 30
0.0
  9
$LIMMIN
 10
0.0
 20
0.0
  9
$LIMMAX
 10
297.0
 20
210.0
  9
$VIEWCTR
 10
148.5
 20
105.0
  9
$VIEWSIZE
 40
210.0
  9
$CLAYER
  8
0
  9
$LTSCALE
 40
16.335
  9
$CELTYPE
  6
BYLAYER
  9
$DIMSCALE
 40
1.0
  9
$DIMASZ
 40
3.0
  9
$DIMEXO
 40
0.5
  9
$DIMDLI
 40
11.286
  9
$DIMEXE
 40
1.5
  9
$DIMCEN
 40
2.673
  9
$DIMLFAC
 40
1.0
  9
$DIMBLK
  1
_FILLED
  9
$DIMALT
 70
0
  9
$DIMALTF
 40
25.4
  9
$DIMTXT
 40
3.0
  9
$DIMTOL
 70
1
  9
$DIMLIM
 70
0
  9
$DIMTFAC
 40
1.0
  9
$DIMTP
 40
0.01
  9
$DIMTM
 40
0.01
  9
$DIMGAP
 40
0.625
  9
$DIMDSEP
 70
44
  9
$AUNITS
 70
0
  9
$PDMODE
 70
3
  9
$PDSIZE
 40
3.0
  9
$HANDSEED
  5
354
  9
$TILEMODE
 70
1
  9
$MEASUREMENT
 70
1
  9
$INSUNITS
 70
4
  0
ENDSEC
  0
SECTION
  2
CLASSES
  0
CLASS
  1
ACDBDICTIONARYWDFLT
  2
AcDbDictionaryWithDefault
  3
AutoCAD 2000
 90
0
 91
1
280
0
281
0
  0
CLASS
  1
ACDBPLACEHOLDER
  2
AcDbPlaceHolder
  3
AutoCAD 2000
 90
0
 91
1
280
0
281
0
  0
CLASS
  1
LAYOUT
  2
AcDbLayout
  3
AutoCAD 2000
 90
0
 91
0
280
0
281
0
  0
ENDSEC
  0
SECTION
  2
TABLES
  0
TABLE
  2
VPORT
  5
8
100
AcDbSymbolTable
 70
2
  0
VPORT
  5
1F4
100
AcDbSymbolTableRecord
100
AcDbViewportTableRecord
  2
*ACTIVE
 70
0
 10
0.0
 20
0.0
 11
1.0
 21
1.0
 12
148.5
 22
105.0
 13
0.0
 23
0.0
 14
1.0
 24
1.0
 15
0.0
 25
0.0
 16
0.0
 26
0.0
 36
1.0
 17
0.0
 27
0.0
 37
0.0
 40
210.0
 41
1.4142857143
 42
50.0
 43
0.0
 44
0.0
 50
0.0
 51
0.0
 71
0
 72
100
 73
1
 74
1
 75
0
 76
0
 77
0
 78
0
  0
ENDTAB
  0
TABLE
  2
LTYPE
  5
5
100
AcDbSymbolTable
 70
6
  0
LTYPE
  5
14
100
AcDbSymbolTableRecord
100
AcDbLinetypeTableRecord
  2
BYBLOCK
 70
0
  3

 72
65
 73
0
 40
0.0
  0
LTYPE
  5
15
100
AcDbSymbolTableRecord
100
AcDbLinetypeTableRecord
  2
BYLAYER
 70
0
  3

 72
65
 73
0
 40
0.0
  0
LTYPE
  5
16
100
AcDbSymbolTableRecord
100
AcDbLinetypeTableRecord
  2
CONTINUOUS
 70
64
  3
Solid line
 72
65
 73
0
 40
0.0
  0
LTYPE
  5
1F5
100
AcDbSymbolTableRecord
100
AcDbLinetypeTableRecord
  2
CENTER
 70
64
  3
____ _ ____ _ ____ _ ____ _ ____ _ ____ _ ____
 72
65
 73
4
 40
0.6
 49
0.375
 74
0
 49
-0.075
 74
0
 49
0.075
 74
0
 49
-0.075
 74
0
  0
LTYPE
  5
1F6
100
AcDbSymbolTableRecord
100
AcDbLinetypeTableRecord
  2
HIDDEN
 70
64
  3
- - - - - - - - - - - - - - - - - - - -
 72
65
 73
2
 40
0.2
 49
0.1
 74
0
 49
-0.1
 74
0
  0
LTYPE
  5
1F7
100
AcDbSymbolTableRecord
100
AcDbLinetypeTableRecord
  2
PHANTOM
 70
64
  3
_____ _ _ _____ _ _ _____ _ _ _____
 72
65
 73
6
 40
0.8
 49
0.45
 74
0
 49
-0.05
 74
0
 49
0.1
 74
0
 49
-0.05
 74
0
 49
0.1
 74
0
 49
-0.05
 74
0
  0
LTYPE
  5
1F8
100
AcDbSymbolTableRecord
100
AcDbLinetypeTableRecord
  2
DOT
 70
64
  3
. . . . . . . . . . . . . . . . . . . .
 72
65
 73
2
 40
0.2
 49
0.1
 74
0
 49
-0.1
 74
0
  0
LTYPE
  5
1F9
100
AcDbSymbolTableRecord
100
AcDbLinetypeTableRecord
  2
DASHED
 70
64
  3
- - - - - - - - - - - - - - - - - - - -
 72
65
 73
2
 40
0.2
 49
0.1
 74
0
 49
-0.1
 74
0
  0
ENDTAB
  0
TABLE
  2
LAYER
  5
2
100
AcDbSymbolTable
 70
36
  0
LAYER
  5
10
100
AcDbSymbolTableRecord
100
AcDbLayerTableRecord
  2
0
 70
0
 62
7
  6
CONTINUOUS
370
-3
390
F
  0
LAYER
  5
1FA
100
AcDbSymbolTableRecord
100
AcDbLayerTableRecord
  2
DEFAULT_1
 70
0
 62
7
  6
CENTER
370
-3
390
F
  0
LAYER
  5
1FB
100
AcDbSymbolTableRecord
100
AcDbLayerTableRecord
  2
DEFAULT_2
 70
0
 62
7
  6
HIDDEN
370
-3
390
F
  0
LAYER
  5
1FC
100
AcDbSymbolTableRecord
100
AcDbLayerTableRecord
  2
DEFAULT_3
 70
0
 62
7
  6
PHANTOM
370
-3
390
F
  0
LAYER
  5
1FD
100
AcDbSymbolTableRecord
100
AcDbLayerTableRecord
  2
ASSI
 70
0
 62
7
  6
CONTINUOUS
370
-3
390
F
  0
LAYER
  5
1FE
100
AcDbSymbolTableRecord
100
AcDbLayerTableRecord
  2
COLOR3
 70
0
 62
7
  6
CONTINUOUS
370
-3
390
F
  0
LAYER
  5
1FF
100
AcDbSymbolTableRecord
100
AcDbLayerTableRecord
  2
COORDINATE
 70
0
 62
7
  6
CONTINUOUS
370
-3
390
F
  0
LAYER
  5
200
100
AcDbSymbolTableRecord
100
AcDbLayerTableRecord
  2
COPY_PUBLISH
 70
0
 62
7
  6
CONTINUOUS
370
-3
390
F
  0
LAYER
  5
201
100
AcDbSymbolTableRecord
100
AcDbLayerTableRecord
  2
COSMETIC
 70
0
 62
7
  6
CONTINUOUS
370
-3
390
F
  0
LAYER
  5
202
100
AcDbSymbolTableRecord
100
AcDbLayerTableRecord
  2
COSMETICI
 70
0
 62
7
  6
CONTINUOUS
370
-3
390
F
  0
LAYER
  5
203
100
AcDbSymbolTableRecord
100
AcDbLayerTableRecord
  2
CURVE
 70
0
 62
7
  6
CONTINUOUS
370
-3
390
F
  0
LAYER
  5
204
100
AcDbSymbolTableRecord
100
AcDbLayerTableRecord
  2
DRAFT
 70
0
 62
7
  6
CONTINUOUS
370
-3
390
F
  0
LAYER
  5
205
100
AcDbSymbolTableRecord
100
AcDbLayerTableRecord
  2
IMPORT_IGES
 70
0
 62
7
  6
CONTINUOUS
370
-3
390
F
  0
LAYER
  5
206
100
AcDbSymbolTableRecord
100
AcDbLayerTableRecord
  2
INTFCLR_1
 70
0
 62
7
  6
CONTINUOUS
370
-3
390
F
  0
LAYER
  5
207
100
AcDbSymbolTableRecord
100
AcDbLayerTableRecord
  2
INTF_10
 70
0
 62
7
  6
CONTINUOUS
370
-3
390
F
  0
LAYER
  5
208
100
AcDbSymbolTableRecord
100
AcDbLayerTableRecord
  2
INTF_13
 70
0
 62
7
  6
CONTINUOUS
370
-3
390
F
  0
LAYER
  5
209
100
AcDbSymbolTableRecord
100
AcDbLayerTableRecord
  2
INTF_15
 70
0
 62
7
  6
CONTINUOUS
370
-3
390
F
  0
LAYER
  5
20A
100
AcDbSymbolTableRecord
100
AcDbLayerTableRecord
  2
INTF_16
 70
0
 62
7
  6
CONTINUOUS
370
-3
390
F
  0
LAYER
  5
20B
100
AcDbSymbolTableRecord
100
AcDbLayerTableRecord
  2
INTF_18
 70
0
 62
7
  6
CONTINUOUS
370
-3
390
F
  0
LAYER
  5
20C
100
AcDbSymbolTableRecord
100
AcDbLayerTableRecord
  2
INTF_20
 70
0
 62
7
  6
CONTINUOUS
370
-3
390
F
  0
LAYER
  5
20D
100
AcDbSymbolTableRecord
100
AcDbLayerTableRecord
  2
INTF_3
 70
0
 62
7
  6
CONTINUOUS
370
-3
390
F
  0
LAYER
  5
20E
100
AcDbSymbolTableRecord
100
AcDbLayerTableRecord
  2
INTF_5
 70
0
 62
7
  6
CONTINUOUS
370
-3
390
F
  0
LAYER
  5
20F
100
AcDbSymbolTableRecord
100
AcDbLayerTableRecord
  2
INTF_8
 70
0
 62
7
  6
CONTINUOUS
370
-3
390
F
  0
LAYER
  5
210
100
AcDbSymbolTableRecord
100
AcDbLayerTableRecord
  2
NOTE
 70
0
 62
7
  6
CONTINUOUS
370
-3
390
F
  0
LAYER
  5
211
100
AcDbSymbolTableRecord
100
AcDbLayerTableRecord
  2
PIANI
 70
0
 62
7
  6
CONTINUOUS
370
-3
390
F
  0
LAYER
  5
212
100
AcDbSymbolTableRecord
100
AcDbLayerTableRecord
  2
PUNTI
 70
0
 62
7
  6
CONTINUOUS
370
-3
390
F
  0
LAYER
  5
213
100
AcDbSymbolTableRecord
100
AcDbLayerTableRecord
  2
RACCORDO
 70
0
 62
7
  6
CONTINUOUS
370
-3
390
F
  0
LAYER
  5
214
100
AcDbSymbolTableRecord
100
AcDbLayerTableRecord
  2
SIMBOLI
 70
0
 62
7
  6
CONTINUOUS
370
-3
390
F
  0
LAYER
  5
215
100
AcDbSymbolTableRecord
100
AcDbLayerTableRecord
  2
SMUSSO
 70
0
 62
7
  6
CONTINUOUS
370
-3
390
F
  0
LAYER
  5
216
100
AcDbSymbolTableRecord
100
AcDbLayerTableRecord
  2
SNAPLINE
 70
0
 62
7
  6
CONTINUOUS
370
-3
390
F
  0
LAYER
  5
217
100
AcDbSymbolTableRecord
100
AcDbLayerTableRecord
  2
SOLIDO
 70
0
 62
7
  6
CONTINUOUS
370
-3
390
F
  0
LAYER
  5
218
100
AcDbSymbolTableRecord
100
AcDbLayerTableRecord
  2
SUPERFICI
 70
0
 62
7
  6
CONTINUOUS
370
-3
390
F
  0
LAYER
  5
219
100
AcDbSymbolTableRecord
100
AcDbLayerTableRecord
  2
SUPERFICI_SKEL
 70
0
 62
7
  6
CONTINUOUS
370
-3
390
F
  0
LAYER
  5
21A
100
AcDbSymbolTableRecord
100
AcDbLayerTableRecord
  2
TRASH
 70
0
 62
7
  6
CONTINUOUS
370
-3
390
F
  0
LAYER
  5
21B
100
AcDbSymbolTableRecord
100
AcDbLayerTableRecord
  2
___SHELL
 70
0
 62
7
  6
CONTINUOUS
370
-3
390
F
  0
ENDTAB
  0
TABLE
  2
STYLE
  5
3
100
AcDbSymbolTable
 70
1
  0
STYLE
  5
11
100
AcDbSymbolTableRecord
100
AcDbTextStyleTableRecord
  2
STANDARD
 70
0
 40
0.0
 41
0.8
 50
0.0
 71
0
 42
0.2
  3
txt
  4

  0
STYLE
  5
21C
100
AcDbSymbolTableRecord
100
AcDbTextStyleTableRecord
  2
TEXTSTYLE_1
 70
0
 40
0.0
 41
0.8
 50
0.0
 71
0
 42
0.2
  3
gdt
  4

  0
ENDTAB
  0
TABLE
  2
VIEW
  5
6
100
AcDbSymbolTable
 70
0
  0
ENDTAB
  0
TABLE
  2
UCS
  5
7
100
AcDbSymbolTable
 70
0
  0
ENDTAB
  0
TABLE
  2
APPID
  5
9
100
AcDbSymbolTable
 70
1
  0
APPID
  5
21D
100
AcDbSymbolTableRecord
100
AcDbRegAppTableRecord
  2
ACAD
 70
0
  0
ENDTAB
  0
TABLE
  2
BLOCK_RECORD
  5
1
100
AcDbSymbolTable
 70
0
  0
BLOCK_RECORD
  5
21E
100
AcDbSymbolTableRecord
100
AcDbBlockTableRecord
  2
*Model_Space
  0
BLOCK_RECORD
  5
21F
100
AcDbSymbolTableRecord
100
AcDbBlockTableRecord
  2
*Paper_Space
  0
BLOCK_RECORD
  5
220
100
AcDbSymbolTableRecord
100
AcDbBlockTableRecord
  2
_FILLED
  0
BLOCK_RECORD
  5
221
100
AcDbSymbolTableRecord
100
AcDbBlockTableRecord
  2
*D0
  0
BLOCK_RECORD
  5
222
100
AcDbSymbolTableRecord
100
AcDbBlockTableRecord
  2
*D1
  0
BLOCK_RECORD
  5
223
100
AcDbSymbolTableRecord
100
AcDbBlockTableRecord
  2
*D2
  0
ENDTAB
  0
TABLE
  2
DIMSTYLE
  5
A
100
AcDbSymbolTable
 70
1
100
AcDbDimStyleTable
 71
0
  0
DIMSTYLE
105
224
100
AcDbSymbolTableRecord
100
AcDbDimStyleTableRecord
  2
STANDARD
 70
0
  3

  4

 40
1.0
 41
3.0
 42
0.5
 43
0.38
 44
1.5
 45
0.0
 46
0.0
 47
0.01
 48
0.01
140
3.0
141
0.09
142
0.0
143
25.4
144
1.0
145
0.0
146
1.0
147
0.625
 71
1.0
 72
0.0
 73
0
 74
0
 75
0
 76
0
 77
1
 78
8
170
0
171
1
172
0
173
0
174
0
175
0
176
0
177
0
178
0
270
2
271
2
272
2
273
2
274
2
275
0
280
0
281
0
282
0
283
1
284
8
285
0
286
0
287
3
288
0
340
11
278
44
341
220
342
220
343
220
344
220
  0
DIMSTYLE
105
225
100
AcDbSymbolTableRecord
100
AcDbDimStyleTableRecord
  2
DIMSTYLE_1
 70
0
  3

  4

 40
1.0
 41
3.0
 42
0.5
 43
0.38
 44
1.5
 45
0.0
 46
0.0
 47
0.0
 48
0.0
140
3.0
141
0.09
142
0.0
143
25.4
144
1.0
145
0.0
146
1.0
147
0.75
 71
0.0
 72
0.0
 73
0
 74
0
 75
0
 76
0
 77
1
 78
8
170
0
171
1
172
0
173
0
174
0
175
0
176
0
177
0
178
0
270
2
271
2
272
2
273
2
274
2
275
0
280
0
281
0
282
0
283
1
284
8
285
0
286
0
287
3
288
0
340
11
278
44
341
220
342
220
343
220
344
220
  0
DIMSTYLE
105
226
100
AcDbSymbolTableRecord
100
AcDbDimStyleTableRecord
  2
DIMSTYLE_2
 70
0
  3

  4

 40
1.0
 41
3.0
 42
0.5
 43
0.38
 44
1.5
 45
0.0
 46
0.0
 47
0.0
 48
0.0
140
3.0
141
0.09
142
0.0
143
25.4
144
1.0
145
0.0
146
1.0
147
0.75
 71
0.0
 72
0.0
 73
0
 74
0
 75
0
 76
0
 77
1
 78
8
170
0
171
1
172
0
173
0
174
0
175
0
176
0
177
0
178
0
270
2
271
1
272
1
273
2
274
2
275
0
280
0
281
0
282
0
283
1
284
8
285
0
286
0
287
3
288
0
340
11
278
44
341
220
342
220
343
220
344
220
  0
ENDTAB
  0
ENDSEC
  0
SECTION
  2
BLOCKS
  0
BLOCK
  5
20
100
AcDbEntity
  8
0
100
AcDbBlockBegin
  2
*Model_Space
 70
0
 10
0.0
 20
0.0
 30
0.0
  3
*Model_Space
  1

  0
ENDBLK
  5
21
100
AcDbEntity
  8
0
100
AcDbBlockEnd
  0
BLOCK
  5
1C
100
AcDbEntity
  8
0
100
AcDbBlockBegin
  2
*Paper_Space
 70
0
 10
0.0
 20
0.0
 30
0.0
  3
*Paper_Space
  1

  0
ENDBLK
  5
1D
100
AcDbEntity
  8
0
100
AcDbBlockEnd
  0
BLOCK
  5
227
100
AcDbEntity
  8
0
100
AcDbBlockBegin
  2
_FILLED
 70
64
 10
0.0
 20
0.0
  3
_FILLED
  1

  0
SOLID
  5
228
100
AcDbEntity
  8
0
  6
BYBLOCK
 62
0
100
AcDbTrace
 10
0.0
 20
0.0
 11
-1.0
 21
0.3166666667
 12
-1.0
 22
-0.3166666667
 13
-1.0
 23
-0.3166666667
  0
ENDBLK
  5
229
100
AcDbEntity
  8
0
  6
BYBLOCK
 62
0
100
AcDbBlockEnd
  0
BLOCK
  5
22A
100
AcDbEntity
  8
0
100
AcDbBlockBegin
 62
7
  6
CONTINUOUS
  2
*D0
 70
65
 10
0.0
 20
0.0
  3
*D0
  1

  0
MTEXT
  5
22B
100
AcDbEntity
  8
0
100
AcDbMText
 62
7
  6
CONTINUOUS
  7
STANDARD
 71
2
 72
1
 10
-0.4499800547
 20
39.0980795045
 30
0.0
 11
1.0
 21
0.0
 31
0.0
 44
0.9
  1
22,05
 40
3.0
 41
16.3928571429
  0
LINE
  5
22C
100
AcDbEntity
  8
0
100
AcDbLine
 62
7
  6
CONTINUOUS
 10
-11.4753501783
 20
13.5546229982
 11
-11.4753501783
 21
36.8480795045
  0
LINE
  5
22D
100
AcDbEntity
  8
0
100
AcDbLine
 62
7
  6
CONTINUOUS
 10
10.5753900688
 20
13.5546229982
 11
10.5753900688
 21
36.8480795045
  0
LINE
  5
22E
100
AcDbEntity
  8
0
100
AcDbLine
 62
7
  6
CONTINUOUS
 10
-11.4753501783
 20
35.3480795045
 11
-0.4499800547
 21
35.3480795045
  0
LINE
  5
22F
100
AcDbEntity
  8
0
100
AcDbLine
 62
7
  6
CONTINUOUS
 10
10.5753900688
 20
35.3480795045
 11
-0.4499800547
 21
35.3480795045
  0
INSERT
  5
230
100
AcDbEntity
  8
0
100
AcDbBlockReference
 62
7
  6
CONTINUOUS
  2
_FILLED
 10
-11.4753501783
 20
35.3480795045
 41
3.0
 42
3.0
 43
3.0
 50
180.0
  0
INSERT
  5
231
100
AcDbEntity
  8
0
100
AcDbBlockReference
 62
7
  6
CONTINUOUS
  2
_FILLED
 10
10.5753900688
 20
35.3480795045
 41
3.0
 42
3.0
 43
3.0
  0
ENDBLK
  5
232
100
AcDbEntity
  8
0
  6
BYBLOCK
 62
0
100
AcDbBlockEnd
  0
BLOCK
  5
233
100
AcDbEntity
  8
0
100
AcDbBlockBegin
 62
7
  6
CONTINUOUS
  2
*D1
 70
65
 10
0.0
 20
0.0
  3
*D1
  1

  0
MTEXT
  5
234
100
AcDbEntity
  8
0
100
AcDbMText
 62
7
  6
CONTINUOUS
  7
STANDARD
 71
2
 72
1
 10
19.8860022094
 20
-0.0453770018
 30
0.0
 11
0.0
 21
1.0
 31
0.0
 44
0.9
  1
44,4
 40
3.0
 41
13.1785714286
  0
LINE
  5
235
100
AcDbEntity
  8
0
100
AcDbLine
 62
7
  6
CONTINUOUS
 10
10.555035739
 20
22.1634958566
 11
25.1360022094
 21
22.1634958566
  0
LINE
  5
236
100
AcDbEntity
  8
0
100
AcDbLine
 62
7
  6
CONTINUOUS
 10
10.555035739
 20
-22.2542498603
 11
25.1360022094
 21
-22.2542498603
  0
LINE
  5
237
100
AcDbEntity
  8
0
100
AcDbLine
 62
7
  6
CONTINUOUS
 10
23.6360022094
 20
22.1634958566
 11
23.6360022094
 21
-0.0453770018
  0
LINE
  5
238
100
AcDbEntity
  8
0
100
AcDbLine
 62
7
  6
CONTINUOUS
 10
23.6360022094
 20
-22.2542498603
 11
23.6360022094
 21
-0.0453770018
  0
INSERT
  5
239
100
AcDbEntity
  8
0
100
AcDbBlockReference
 62
7
  6
CONTINUOUS
  2
_FILLED
 10
23.6360022094
 20
22.1634958566
 41
3.0
 42
3.0
 43
3.0
 50
90.0
  0
INSERT
  5
23A
100
AcDbEntity
  8
0
100
AcDbBlockReference
 62
7
  6
CONTINUOUS
  2
_FILLED
 10
23.6360022094
 20
-22.2542498603
 41
3.0
 42
3.0
 43
3.0
 50
270.0
  0
ENDBLK
  5
23B
100
AcDbEntity
  8
0
  6
BYBLOCK
 62
0
100
AcDbBlockEnd
  0
BLOCK
  5
23C
100
AcDbEntity
  8
0
100
AcDbBlockBegin
 62
7
  6
CONTINUOUS
  2
*D2
 70
65
 10
0.0
 20
0.0
  3
*D2
  1

  0
MTEXT
  5
23D
100
AcDbEntity
  8
0
100
AcDbMText
 62
7
  6
CONTINUOUS
  7
STANDARD
 71
1
 72
1
 10
-26.1959200441
 20
39.0980795045
 30
0.0
 11
1.0
 21
0.0
 31
0.0
 44
0.9
  1
6,35
 40
3.0
 41
12.5357142857
  0
LINE
  5
23E
100
AcDbEntity
  8
0
100
AcDbLine
 62
7
  6
CONTINUOUS
 10
-31.4459497441
 20
13.5546229982
 11
-31.4459497441
 21
36.8480795045
  0
LINE
  5
23F
100
AcDbEntity
  8
0
100
AcDbLine
 62
7
  6
CONTINUOUS
 10
-37.795261081
 20
1.2066281851
 11
-37.795261081
 21
36.8480795045
  0
LINE
  5
240
100
AcDbEntity
  8
0
100
AcDbLine
 62
7
  6
CONTINUOUS
 10
-31.4459497441
 20
35.3480795045
 11
-17.838777187
 21
35.3480795045
  0
LINE
  5
241
100
AcDbEntity
  8
0
100
AcDbLine
 62
7
  6
CONTINUOUS
 10
-17.838777187
 20
35.3480795045
 11
-34.6206054125
 21
35.3480795045
  0
LINE
  5
242
100
AcDbEntity
  8
0
100
AcDbLine
 62
7
  6
CONTINUOUS
 10
-37.795261081
 20
35.3480795045
 11
-41.795261081
 21
35.3480795045
  0
LINE
  5
243
100
AcDbEntity
  8
0
100
AcDbLine
 62
7
  6
CONTINUOUS
 10
-41.795261081
 20
35.3480795045
 11
-34.6206054125
 21
35.3480795045
  0
INSERT
  5
244
100
AcDbEntity
  8
0
100
AcDbBlockReference
 62
7
  6
CONTINUOUS
  2
_FILLED
 10
-31.4459497441
 20
35.3480795045
 41
3.0
 42
3.0
 43
3.0
 50
180.0
  0
INSERT
  5
245
100
AcDbEntity
  8
0
100
AcDbBlockReference
 62
7
  6
CONTINUOUS
  2
_FILLED
 10
-37.795261081
 20
35.3480795045
 41
3.0
 42
3.0
 43
3.0
  0
ENDBLK
  5
246
100
AcDbEntity
  8
0
  6
BYBLOCK
 62
0
100
AcDbBlockEnd
  0
ENDSEC
  0
SECTION
  2
ENTITIES
  0
DIMENSION
  5
247
100
AcDbEntity
  8
0
100
AcDbDimension
 62
7
  6
CONTINUOUS
  2
*D0
 10
10.5753900688
 20
35.3480795045
 11
-0.8785515461
 21
35.3480795045
 70
160
 71
2
 42
22.0507402471
  3
DIMSTYLE_1
100
AcDbAlignedDimension
 13
-11.4753501783
 23
13.0546229982
 14
10.5753900688
 24
13.0546229982
100
AcDbRotatedDimension
  0
DIMENSION
  5
248
100
AcDbEntity
  8
0
100
AcDbDimension
 62
7
  6
CONTINUOUS
  2
*D1
 10
23.6360022094
 20
-22.2542498603
 11
23.6360022094
 21
-0.4739494507
 70
160
 71
2
 42
44.4177457169
  3
DIMSTYLE_2
100
AcDbAlignedDimension
 13
10.055035739
 23
22.1634958566
 14
10.055035739
 24
-22.2542498603
 50
270.0
100
AcDbRotatedDimension
  0
DIMENSION
  5
249
100
AcDbEntity
  8
0
100
AcDbDimension
 62
7
  6
CONTINUOUS
  2
*D2
 10
-37.795261081
 20
35.3480795045
 11
-22.4459202461
 21
35.3480795045
 70
160
 71
1
 42
6.3493113369
  3
DIMSTYLE_1
100
AcDbAlignedDimension
 13
-31.4459497441
 23
13.0546229982
 14
-37.795261081
 24
0.7066281851
 50
180.0
100
AcDbRotatedDimension
  0
LINE
  5
24A
100
AcDbEntity
  8
0
100
AcDbLine
 62
7
  6
CONTINUOUS
 10
2.9440983151
 20
-22.2542498603
 11
3.2922849183
 21
-22.2226439399
  0
LINE
  5
24B
100
AcDbEntity
  8
0
100
AcDbLine
 62
7
  6
CONTINUOUS
 10
-8.2559016849
 20
-22.2542498603
 11
-7.9077150817
 21
-22.2226439399
  0
LWPOLYLINE
  5
24C
100
AcDbEntity
  8
0
100
AcDbPolyline
 62
253
  6
CONTINUOUS
 90
16
 70
0
 10
9.962857281
 20
-22.0697664435
 10
10.0150589074
 20
-22.0669643982
 10
10.066689519
 20
-22.0587318088
 10
10.1171844157
 20
-22.0451587385
 10
10.1659913374
 20
-22.0263936541
 10
10.212576459
 20
-22.0026418181
 10
10.2564302357
 20
-21.9741630579
 10
10.29707304
 20
-21.9412688893
 10
10.3340603847
 20
-21.904319105
 10
10.3669877483
 20
-21.8637178698
 10
10.3954950279
 20
-21.8199092785
 10
10.4192704802
 20
-21.7733724815
 10
10.4380541145
 20
-21.7246164565
 10
10.4516405311
 20
-21.6741744535
 10
10.4598811707
 20
-21.6225981644
 10
10.4626859435
 20
-21.5704516761
  0
LWPOLYLINE
  5
24D
100
AcDbEntity
  8
0
100
AcDbPolyline
 62
253
  6
CONTINUOUS
 90
14
 70
0
 10
10.0759225193
 20
-20.9218374873
 10
10.1227598625
 20
-20.9211314058
 10
10.1678778379
 20
-20.9202320939
 10
10.2108389853
 20
-20.9191482714
 10
10.2512267571
 20
-20.9178904468
 10
10.2886495569
 20
-20.9164708159
 10
10.3227445365
 20
-20.9149031434
 10
10.3531811137
 20
-20.9132026291
 10
10.3796641782
 20
-20.9113857612
 10
10.4019369524
 20
-20.9094701559
 10
10.4197834813
 20
-20.9074743867
 10
10.4330307265
 20
-20.9054178044
 10
10.4415502439
 20
-20.9033203495
 10
10.4452594289
 20
-20.9012023587
  0
LINE
  5
24E
100
AcDbEntity
  8
0
100
AcDbLine
 62
253
  6
CONTINUOUS
 10
9.9789185204
 20
-20.9226445148
 11
10.0759225193
 21
-20.9218374873
  0
LINE
  5
24F
100
AcDbEntity
  8
0
100
AcDbLine
 62
253
  6
CONTINUOUS
 10
-10.8628173911
 20
-22.0697664447
 11
-7.4932518218
 21
-22.0597403084
  0
LINE
  5
250
100
AcDbEntity
  8
0
100
AcDbLine
 62
253
  6
CONTINUOUS
 10
-7.4932518218
 20
-22.0597403084
 11
-4.1212057676
 21
-22.0535861428
  0
LINE
  5
251
100
AcDbEntity
  8
0
100
AcDbLine
 62
253
  6
CONTINUOUS
 10
-4.1212057676
 20
-22.0535861428
 11
-0.7475486731
 21
-22.0513059333
  0
LINE
  5
252
100
AcDbEntity
  8
0
100
AcDbLine
 62
7
  6
CONTINUOUS
 10
-10.9549958485
 20
-22.2542498603
 11
-8.2559016849
 21
-22.2542498603
  0
LINE
  5
253
100
AcDbEntity
  8
0
100
AcDbLine
 62
7
  6
CONTINUOUS
 10
-3.8440584246
 20
-22.2542498603
 11
2.9440983151
 21
-22.2542498603
  0
LINE
  5
254
100
AcDbEntity
  8
0
100
AcDbLine
 62
7
  6
CONTINUOUS
 10
7.3559415754
 20
-22.2542498603
 11
10.055035739
 21
-22.2542498603
  0
LINE
  5
255
100
AcDbEntity
  8
0
100
AcDbLine
 62
7
  6
CONTINUOUS
 10
-7.7345100009
 20
-22.217403162
 11
-4.3654501086
 21
-22.217403162
  0
LINE
  5
256
100
AcDbEntity
  8
0
100
AcDbLine
 62
7
  6
CONTINUOUS
 10
3.4654899991
 20
-22.217403162
 11
6.8345498914
 21
-22.217403162
  0
LINE
  5
257
100
AcDbEntity
  8
0
100
AcDbLine
 62
253
  6
CONTINUOUS
 10
-0.7475486731
 20
-22.0513059333
 11
2.6201789838
 21
-22.0528928679
  0
LINE
  5
258
100
AcDbEntity
  8
0
100
AcDbLine
 62
253
  6
CONTINUOUS
 10
2.6201789838
 20
-22.0528928679
 11
6.0911926255
 21
-22.0585784114
  0
LWPOLYLINE
  5
259
100
AcDbEntity
  8
0
100
AcDbPolyline
 62
253
  6
CONTINUOUS
 90
3
 70
0
 10
6.0911926255
 20
-22.0585784114
 10
9.1452788666
 20
-22.0670055375
 10
9.962857281
 20
-22.0697664435
  0
LWPOLYLINE
  5
25A
100
AcDbEntity
  8
0
100
AcDbPolyline
 62
253
  6
CONTINUOUS
 90
15
 70
0
 10
-10.8788777801
 20
-20.9226439683
 10
-10.9758808698
 20
-20.9218369665
 10
-11.0227178181
 20
-20.9211309067
 10
-11.0678354557
 20
-20.9202316222
 10
-11.1107963344
 20
-20.919147832
 10
-11.1511839175
 20
-20.917890044
 10
-11.1886066182
 20
-20.9164704533
 10
-11.2227015962
 20
-20.914902824
 10
-11.2531382763
 20
-20.9132023552
 10
-11.2796215527
 20
-20.9113855344
 10
-11.3018946509
 20
-20.9094699768
 10
-11.3197416171
 20
-20.9074742552
 10
-11.3329894122
 20
-20.9054177196
 10
-11.3415095892
 20
-20.9033203095
 10
-11.3452195387
 20
-20.9012023608
  0
LWPOLYLINE
  5
25B
100
AcDbEntity
  8
0
100
AcDbPolyline
 62
253
  6
CONTINUOUS
 90
16
 70
0
 10
-10.8628173911
 20
-22.0697664447
 10
-10.9150183611
 20
-22.0669644695
 10
-10.9666484027
 20
-22.0587320724
 10
-11.0171428316
 20
-22.0451592922
 10
-11.065949384
 20
-22.026394576
 10
-11.1125342567
 20
-22.0026431559
 10
-11.1563879451
 20
-21.9741648041
 10
-11.197030816
 20
-21.9412709919
 10
-11.2340183534
 20
-21.904321483
 10
-11.2669460199
 20
-21.8637203987
 10
-11.2954536815
 20
-21.8199117981
 10
-11.3192295465
 20
-21.7733748213
 10
-11.3380135753
 20
-21.724618449
 10
-11.3516003246
 20
-21.6741759356
 10
-11.3598411945
 20
-21.6225989772
 10
-11.3626460536
 20
-21.5704516773
  0
LINE
  5
25C
100
AcDbEntity
  8
0
100
AcDbLine
 62
7
  6
CONTINUOUS
 10
-3.8440584246
 20
-22.2542498603
 11
-4.1922450278
 21
-22.2226439399
  0
LINE
  5
25D
100
AcDbEntity
  8
0
100
AcDbLine
 62
7
  6
CONTINUOUS
 10
7.3559415754
 20
-22.2542498603
 11
7.0077549722
 21
-22.2226439399
  0
LINE
  5
25E
100
AcDbEntity
  8
0
100
AcDbLine
 62
253
  6
CONTINUOUS
 10
-10.8788786315
 20
-20.9226444834
 11
-5.4760582295
 21
-20.9171924372
  0
LINE
  5
25F
100
AcDbEntity
  8
0
100
AcDbLine
 62
253
  6
CONTINUOUS
 10
-5.4760582295
 20
-20.9171924372
 11
6.1067353526
 21
-20.9183485267
  0
LINE
  5
260
100
AcDbEntity
  8
0
100
AcDbLine
 62
253
  6
CONTINUOUS
 10
6.1067353526
 20
-20.9183485267
 11
9.9789185206
 21
-20.922644501
  0
LWPOLYLINE
  5
261
100
AcDbEntity
  8
0
100
AcDbPolyline
 62
253
  6
CONTINUOUS
 90
7
 70
0
 10
-10.8628173905
 20
21.9790124398
 10
-10.8638690868
 20
21.9716265026
 10
-10.8649626053
 20
21.9583508313
 10
-10.8660700669
 20
21.9392540532
 10
-10.8671428318
 20
21.9144344029
 10
-10.8681749631
 20
21.8840169261
 10
-10.8702043902
 20
21.8070121542
  0
LWPOLYLINE
  5
262
100
AcDbEntity
  8
0
100
AcDbPolyline
 62
253
  6
CONTINUOUS
 90
8
 70
0
 10
-10.8622589442
 20
0.3321234259
 10
-10.8586197886
 20
0.2990242438
 10
-10.8546888122
 20
0.2703812873
 10
-10.8510389448
 20
0.2464584536
 10
-10.846766368
 20
0.2274187397
 10
-10.8418734148
 20
0.2135195676
 10
-10.8373352824
 20
0.2049733428
 10
-10.8336396013
 20
0.2018312208
  0
LWPOLYLINE
  5
263
100
AcDbEntity
  8
0
100
AcDbPolyline
 62
253
  6
CONTINUOUS
 90
16
 70
0
 10
-11.3334682638
 20
0.7018121824
 10
-11.3307827272
 20
0.6501662507
 10
-11.3227425584
 20
0.5989022639
 10
-11.3093809478
 20
0.5485807547
 10
-11.2907670269
 20
0.4997085133
 10
-11.2670654043
 20
0.4528960695
 10
-11.2385898132
 20
0.4088239274
 10
-11.2056949775
 20
0.3680238747
 10
-11.1687111465
 20
0.3308906379
 10
-11.1280338995
 20
0.2978248279
 10
-11.0840997965
 20
0.2691889056
 10
-11.0373965794
 20
0.2453078096
 10
-10.9884498664
 20
0.2264528394
 10
-10.9378031655
 20
0.2128326086
 10
-10.8860096934
 20
0.2045951638
 10
-10.8336396013
 20
0.2018312208
  0
LWPOLYLINE
  5
264
100
AcDbEntity
  8
0
100
AcDbPolyline
 62
253
  6
CONTINUOUS
 90
4
 70
0
 10
-10.8725651352
 20
0.500384372
 10
-10.870764192
 20
0.4536726417
 10
-10.8680500357
 20
0.409701726
 10
-10.8622589442
 20
0.3321234259
  0
LWPOLYLINE
  5
265
100
AcDbEntity
  8
0
100
AcDbPolyline
 62
253
  6
CONTINUOUS
 90
6
 70
0
 10
-10.8681749639
 20
-21.9747709298
 10
-10.8671428325
 20
-22.0051884062
 10
-10.8660700675
 20
-22.0300080566
 10
-10.864962606
 20
-22.0491048352
 10
-10.8638690875
 20
-22.0623805072
 10
-10.8628173911
 20
-22.0697664447
  0
LINE
  5
266
100
AcDbEntity
  8
0
100
AcDbLine
 62
253
  6
CONTINUOUS
 10
-10.870204391
 20
-21.8977661589
 11
-10.8681749639
 21
-21.9747709298
  0
LINE
  5
267
100
AcDbEntity
  8
0
100
AcDbLine
 62
253
  6
CONTINUOUS
 10
-11.3509923375
 20
21.2901767868
 11
-11.3492352552
 21
21.2177549835
  0
LINE
  5
268
100
AcDbEntity
  8
0
100
AcDbLine
 62
253
  6
CONTINUOUS
 10
-10.8720782064
 20
-21.800521091
 11
-10.870204391
 21
-21.8977661589
  0
LINE
  5
269
100
AcDbEntity
  8
0
100
AcDbLine
 62
253
  6
CONTINUOUS
 10
-11.3492352552
 20
21.2177549835
 11
-11.3477646931
 21
21.1366832951
  0
LINE
  5
26A
100
AcDbEntity
  8
0
100
AcDbLine
 62
253
  6
CONTINUOUS
 10
-10.874577666
 20
-21.6210497395
 11
-10.8720782064
 21
-21.800521091
  0
LINE
  5
26B
100
AcDbEntity
  8
0
100
AcDbLine
 62
253
  6
CONTINUOUS
 10
-11.3477646931
 20
21.1366832951
 11
-11.3466099029
 21
21.0488221056
  0
LINE
  5
26C
100
AcDbEntity
  8
0
100
AcDbLine
 62
253
  6
CONTINUOUS
 10
-10.8771510941
 20
-21.3318625158
 11
-10.874577666
 21
-21.6210497395
  0
LINE
  5
26D
100
AcDbEntity
  8
0
100
AcDbLine
 62
253
  6
CONTINUOUS
 10
-11.3466099029
 20
21.0488221056
 11
-11.3455104538
 21
20.9079575678
  0
LWPOLYLINE
  5
26E
100
AcDbEntity
  8
0
100
AcDbPolyline
 62
253
  6
CONTINUOUS
 90
3
 70
0
 10
-10.8763057179
 20
-0.7933333736
 10
-10.8765305851
 20
-0.7403447788
 10
-10.8756780135
 20
-0.6890942176
  0
LINE
  5
26F
100
AcDbEntity
  8
0
100
AcDbLine
 62
7
  6
CONTINUOUS
 10
-11.4556222701
 20
-21.756531706
 11
-11.4753501783
 21
-13.1453770018
  0
LINE
  5
270
100
AcDbEntity
  8
0
100
AcDbLine
 62
253
  6
CONTINUOUS
 10
-10.8788786367
 20
-20.9226444824
 11
-10.8771510941
 21
-21.3318625158
  0
LINE
  5
271
100
AcDbEntity
  8
0
100
AcDbLine
 62
253
  6
CONTINUOUS
 10
-11.3455104538
 20
20.9079575678
 11
-11.3349987768
 21
7.5140455703
  0
LINE
  5
272
100
AcDbEntity
  8
0
100
AcDbLine
 62
7
  6
CONTINUOUS
 10
-11.4753501783
 20
13.0546229982
 11
-11.4753501783
 21
0.654527816
  0
LINE
  5
273
100
AcDbEntity
  8
0
100
AcDbLine
 62
7
  6
CONTINUOUS
 10
-11.4753501783
 20
-13.1453770018
 11
-11.4753501783
 21
-0.7452818196
  0
LINE
  5
274
100
AcDbEntity
  8
0
100
AcDbLine
 62
253
  6
CONTINUOUS
 10
-11.3349987768
 20
7.5140455703
 11
-11.3334682638
 21
0.7018121824
  0
LINE
  5
275
100
AcDbEntity
  8
0
100
AcDbLine
 62
253
  6
CONTINUOUS
 10
-10.8763055021
 20
-0.7933333771
 11
-10.8788786315
 21
-20.9226444834
  0
LINE
  5
276
100
AcDbEntity
  8
0
100
AcDbLine
 62
253
  6
CONTINUOUS
 10
-11.3334682613
 20
-0.7925661869
 11
-11.3357200405
 21
-9.2136019508
  0
LINE
  5
277
100
AcDbEntity
  8
0
100
AcDbLine
 62
253
  6
CONTINUOUS
 10
-11.3357200405
 20
-9.2136019508
 11
-11.3426154953
 21
-18.3990095406
  0
LINE
  5
278
100
AcDbEntity
  8
0
100
AcDbLine
 62
7
  6
CONTINUOUS
 10
-11.4556222701
 20
21.6657777023
 11
-11.4753501783
 21
13.0546229982
  0
LINE
  5
279
100
AcDbEntity
  8
0
100
AcDbLine
 62
253
  6
CONTINUOUS
 10
-10.8784052166
 20
20.9992325483
 11
-10.8763055136
 21
0.702579379
  0
LINE
  5
27A
100
AcDbEntity
  8
0
100
AcDbLine
 62
253
  6
CONTINUOUS
 10
-11.3426154953
 20
-18.3990095406
 11
-11.3455104544
 21
-20.9987115735
  0
LWPOLYLINE
  5
27B
100
AcDbEntity
  8
0
100
AcDbPolyline
 62
253
  6
CONTINUOUS
 90
4
 70
0
 10
-10.8763057206
 20
0.7025793811
 10
-10.8765304591
 20
0.6495927834
 10
-10.8756779688
 20
0.5983438961
 10
-10.8725651352
 20
0.500384372
  0
LINE
  5
27C
100
AcDbEntity
  8
0
100
AcDbLine
 62
253
  6
CONTINUOUS
 10
-10.8759798564
 20
21.3916989787
 11
-10.8784052166
 21
20.9992325483
  0
LINE
  5
27D
100
AcDbEntity
  8
0
100
AcDbLine
 62
253
  6
CONTINUOUS
 10
-11.3455104544
 20
-20.9987115735
 11
-11.3466099036
 21
-21.1395761113
  0
LINE
  5
27E
100
AcDbEntity
  8
0
100
AcDbLine
 62
253
  6
CONTINUOUS
 10
-10.8737896941
 20
21.5942255626
 11
-10.8759798564
 21
21.3916989787
  0
LINE
  5
27F
100
AcDbEntity
  8
0
100
AcDbLine
 62
253
  6
CONTINUOUS
 10
-11.3466099036
 20
-21.1395761113
 11
-11.3477646938
 21
-21.2274373008
  0
LINE
  5
280
100
AcDbEntity
  8
0
100
AcDbLine
 62
253
  6
CONTINUOUS
 10
-10.8720782055
 20
21.7097670853
 11
-10.8737896941
 21
21.5942255626
  0
LINE
  5
281
100
AcDbEntity
  8
0
100
AcDbLine
 62
253
  6
CONTINUOUS
 10
-11.3477646938
 20
-21.2274373008
 11
-11.3492352559
 21
-21.3085089893
  0
LINE
  5
282
100
AcDbEntity
  8
0
100
AcDbLine
 62
253
  6
CONTINUOUS
 10
-10.8702043902
 20
21.8070121542
 11
-10.8720782055
 21
21.7097670853
  0
LWPOLYLINE
  5
283
100
AcDbEntity
  8
0
100
AcDbPolyline
 62
253
  6
CONTINUOUS
 90
12
 70
0
 10
-11.3492352559
 20
-21.3085089893
 10
-11.3509923382
 20
-21.3809307925
 10
-11.3519639525
 20
-21.4133943275
 10
-11.3529939641
 20
-21.4431426647
 10
-11.3540815173
 20
-21.4702174515
 10
-11.3552105234
 20
-21.4942177128
 10
-11.3563821691
 20
-21.5150987018
 10
-11.3575952676
 20
-21.5329051653
 10
-11.3588301702
 20
-21.5473703681
 10
-11.3600803272
 20
-21.5584053985
 10
-11.3613522884
 20
-21.5660991683
 10
-11.3626460536
 20
-21.5704516773
  0
LWPOLYLINE
  5
284
100
AcDbEntity
  8
0
100
AcDbPolyline
 62
253
  6
CONTINUOUS
 90
4
 70
0
 10
-10.8756780135
 20
-0.6890942176
 10
-10.872564882
 20
-0.5911323556
 10
-10.8707638995
 20
-0.544419966
 10
-10.8680496054
 20
-0.5004488329
  0
LWPOLYLINE
  5
285
100
AcDbEntity
  8
0
100
AcDbPolyline
 62
253
  6
CONTINUOUS
 90
16
 70
0
 10
-11.3334682613
 20
-0.7925661869
 10
-11.3307827197
 20
-0.7409202073
 10
-11.3227425383
 20
-0.6896561848
 10
-11.309380911
 20
-0.6393346528
 10
-11.2907669735
 20
-0.5904624026
 10
-11.2670653375
 20
-0.5436499621
 10
-11.2385897371
 20
-0.4995778302
 10
-11.2056948989
 20
-0.4587777943
 10
-11.1687110729
 20
-0.4216445782
 10
-11.1280338331
 20
-0.3885787859
 10
-11.0840997356
 20
-0.3599428764
 10
-11.0373965245
 20
-0.3360617907
 10
-10.9884498204
 20
-0.3172068297
 10
-10.9378031317
 20
-0.3035866064
 10
-10.8860096743
 20
-0.2953491665
 10
-10.8336395988
 20
-0.2925852253
  0
LWPOLYLINE
  5
286
100
AcDbEntity
  8
0
100
AcDbPolyline
 62
253
  6
CONTINUOUS
 90
9
 70
0
 10
-10.8680496054
 20
-0.5004488329
 10
-10.8622583649
 20
-0.4228714705
 10
-10.8586191998
 20
-0.3897732167
 10
-10.854688201
 20
-0.3611313761
 10
-10.8510383956
 20
-0.3372097229
 10
-10.846765939
 20
-0.3181710814
 10
-10.8418731329
 20
-0.3042727702
 10
-10.8373351562
 20
-0.2957271262
 10
-10.8336395992
 20
-0.2925852253
  0
LINE
  5
287
100
AcDbEntity
  8
0
100
AcDbLine
 62
253
  6
CONTINUOUS
 10
-11.4753501783
 20
0.654527816
 11
-11.3334682638
 21
0.7018121824
  0
LINE
  5
288
100
AcDbEntity
  8
0
100
AcDbLine
 62
253
  6
CONTINUOUS
 10
-11.3334682613
 20
-0.7925661869
 11
-11.4753501783
 21
-0.7452818196
  0
LWPOLYLINE
  5
289
100
AcDbEntity
  8
0
100
AcDbPolyline
 62
253
  6
CONTINUOUS
 90
11
 70
0
 10
-11.362646053
 20
21.4796976724
 10
-11.3613522878
 20
21.4753451632
 10
-11.3600803266
 20
21.4676513934
 10
-11.3588301695
 20
21.4566163629
 10
-11.3575952669
 20
21.4421511601
 10
-11.3563821684
 20
21.4243446966
 10
-11.3552105228
 20
21.4034637076
 10
-11.3540815167
 20
21.3794634462
 10
-11.3529939634
 20
21.3523886593
 10
-11.3519639518
 20
21.322640322
 10
-11.3509923375
 20
21.2901767868
  0
LINE
  5
28A
100
AcDbEntity
  8
0
100
AcDbLine
 62
253
  6
CONTINUOUS
 10
-10.9752930382
 20
0.1546229982
 11
-10.8336396013
 21
0.2018312208
  0
LINE
  5
28B
100
AcDbEntity
  8
0
100
AcDbLine
 62
253
  6
CONTINUOUS
 10
-10.8336396001
 20
-0.2925852249
 11
-10.9752930382
 21
-0.2453770018
  0
LINE
  5
28C
100
AcDbEntity
  8
0
100
AcDbLine
 62
253
  6
CONTINUOUS
 10
-1.1999800547
 20
-12.7953770018
 11
-1.1999800547
 21
-10.2953770018
  0
LINE
  5
28D
100
AcDbEntity
  8
0
100
AcDbLine
 62
253
  6
CONTINUOUS
 10
-1.1999800547
 20
10.2046229982
 11
-1.1999800547
 21
12.7046229982
  0
LWPOLYLINE
  5
28E
100
AcDbEntity
  8
0
100
AcDbPolyline
 62
253
  6
CONTINUOUS
 90
87
 70
0
 10
-1.1999800547
 20
12.7046229982
 10
-1.1993564436
 20
12.7351418325
 10
-1.197488464
 20
12.7656219842
 10
-1.194380397
 20
12.7960168017
 10
-1.1900365234
 20
12.8262796334
 10
-1.1844611242
 20
12.8563638276
 10
-1.1776584802
 20
12.8862227328
 10
-1.1696328725
 20
12.9158096972
 10
-1.1616122129
 20
12.9414372117
 10
-1.1526709324
 20
12.9667815789
 10
-1.1428214641
 20
12.9918035736
 10
-1.1320762414
 20
13.0164639707
 10
-1.1204507713
 20
13.0407223333
 10
-1.1079728566
 20
13.0645333767
 10
-1.0946733743
 20
13.0878506045
 10
-1.080583201
 20
13.1106275202
 10
-1.0657302462
 20
13.1328242364
 10
-1.0501305485
 20
13.1544273028
 10
-1.0337971794
 20
13.1754298781
 10
-1.0167432102
 20
13.1958251212
 10
-0.9989794582
 20
13.21560569
 10
-0.9805077255
 20
13.2347622392
 10
-0.96132756
 20
13.2532849227
 10
-0.9414385099
 20
13.2711638942
 10
-0.9208476423
 20
13.2883837248
 10
-0.8995921013
 20
13.3049066541
 10
-0.8777165498
 20
13.3206893385
 10
-0.8552656509
 20
13.335688435
 10
-0.8322870706
 20
13.3498638141
 10
-0.8088404858
 20
13.3631882032
 10
-0.7849885766
 20
13.3756375437
 10
-0.7607940228
 20
13.3871877769
 10
-0.7363098421
 20
13.397820194
 10
-0.7115504025
 20
13.407537485
 10
-0.6865204097
 20
13.4163476894
 10
-0.6612245694
 20
13.4242588471
 10
-0.6356663701
 20
13.431276135
 10
-0.6098444318
 20
13.4373932794
 10
-0.5837561572
 20
13.4426011439
 10
-0.557398949
 20
13.4468905922
 10
-0.5307819565
 20
13.4502515739
 10
-0.5039613159
 20
13.4526703824
 10
-0.4770049101
 20
13.4541323973
 10
-0.4499806218
 20
13.4546229982
 10
-0.4229563342
 20
13.454132438
 10
-0.3959999306
 20
13.4526704641
 10
-0.3691792948
 20
13.4502516974
 10
-0.3425623104
 20
13.4468907586
 10
-0.316205114
 20
13.4426013546
 10
-0.2901168545
 20
13.4373935362
 10
-0.2642949336
 20
13.4312764401
 10
-0.2387367531
 20
13.4242592032
 10
-0.2134409319
 20
13.4163480991
 10
-0.1884109563
 20
13.4075379501
 10
-0.1636515294
 20
13.3978207155
 10
-0.1391673547
 20
13.3871883544
 10
-0.1149727983
 20
13.3756381758
 10
-0.0911208792
 20
13.3631888883
 10
-0.067674279
 20
13.3498645499
 10
-0.0446956795
 20
13.3356892191
 10
-0.022244761
 20
13.3206901699
 10
-0.000369197
 20
13.3049075401
 10
0.0208863402
 20
13.2883846836
 10
0.0414771786
 20
13.2711649541
 10
0.0613661692
 20
13.2532861193
 10
0.0805462552
 20
13.2347636032
 10
0.0990179027
 20
13.2156072434
 10
0.1167815781
 20
13.1958268779
 10
0.1338354932
 20
13.1754318402
 10
0.1501688419
 20
13.1544294466
 10
0.1657685637
 20
13.132826509
 10
0.1806215984
 20
13.1106298394
 10
0.194711912
 20
13.0878528679
 10
0.2080115783
 20
13.0645354968
 10
0.2204896974
 20
13.0407242467
 10
0.2321153697
 20
13.0164656378
 10
0.2428607732
 20
12.9918049771
 10
0.2527103966
 20
12.9667827175
 10
0.2616518063
 20
12.9414380982
 10
0.2696725689
 20
12.9158103588
 10
0.2776982627
 20
12.8862231841
 10
0.2845009636
 20
12.8563641169
 10
0.2900763966
 20
12.8262798031
 10
0.2944202864
 20
12.7960168885
 10
0.2975283579
 20
12.7656220189
 10
0.2993963359
 20
12.7351418402
 10
0.3000199453
 20
12.7046229982
  0
LWPOLYLINE
  5
28F
100
AcDbEntity
  8
0
100
AcDbPolyline
 62
253
  6
CONTINUOUS
 90
87
 70
0
 10
-1.1999800547
 20
-10.2953770018
 10
-1.1993565753
 20
-10.2648614094
 10
-1.1974889705
 20
-10.2343842262
 10
-1.1943814905
 20
-10.2039921011
 10
-1.1900383854
 20
-10.1737316834
 10
-1.1844639053
 20
-10.1436496222
 10
-1.1776623004
 20
-10.1137925666
 10
-1.1696378208
 20
-10.0842071657
 10
-1.1616181989
 20
-10.0585807859
 10
-1.1526779898
 20
-10.0332373502
 10
-1.1428296159
 20
-10.0082161009
 10
-1.1320854996
 20
-9.9835562807
 10
-1.1204611369
 20
-9.959298342
 10
-1.1079843195
 20
-9.9354875769
 10
-1.0946859129
 20
-9.9121704874
 10
-1.0805967826
 20
-9.8893935753
 10
-1.0657448269
 20
-9.8671967337
 10
-1.0501460765
 20
-9.8455934196
 10
-1.0338135946
 20
-9.8245904808
 10
-1.0167604448
 20
-9.8041947653
 10
-0.9989974352
 20
-9.7844136212
 10
-0.9805263534
 20
-9.765256397
 10
-0.9613467317
 20
-9.7467329412
 10
-0.9414581025
 20
-9.7288531024
 10
-0.9208675206
 20
-9.7116323151
 10
-0.899612131
 20
-9.6951083563
 10
-0.8777366012
 20
-9.679324589
 10
-0.8552855986
 20
-9.6643243764
 10
-0.8323067901
 20
-9.6501478649
 10
-0.8088598403
 20
-9.6368223362
 10
-0.7850074133
 20
-9.6243718555
 10
-0.7608121729
 20
-9.6128204882
 10
-0.7363271271
 20
-9.6021869517
 10
-0.7115666592
 20
-9.5924685727
 10
-0.686535496
 20
-9.58365733
 10
-0.6612383647
 20
-9.5757452026
 10
-0.6356787714
 20
-9.5687270301
 10
-0.6098553387
 20
-9.5626090949
 10
-0.5837654683
 20
-9.5574005403
 10
-0.557406562
 20
-9.5531105096
 10
-0.5307877726
 20
-9.5497490601
 10
-0.5039652576
 20
-9.5473299064
 10
-0.4770069255
 20
-9.5458676774
 10
-0.4499806851
 20
-9.5453770018
 10
-0.422954445
 20
-9.5458676322
 10
-0.3959961149
 20
-9.5473298157
 10
-0.3691736047
 20
-9.549748923
 10
-0.342554824
 20
-9.5531103248
 10
-0.3161959313
 20
-9.5574003063
 10
-0.2901060784
 20
-9.5626088095
 10
-0.2642826657
 20
-9.5687266908
 10
-0.2387230936
 20
-9.5757448066
 10
-0.213425983
 20
-9.5836568744
 10
-0.188394837
 20
-9.592468056
 10
-0.1636343793
 20
-9.6021863742
 10
-0.1391493335
 20
-9.6128198521
 10
-0.1149540804
 20
-9.6243711644
 10
-0.09110163
 20
-9.636821594
 10
-0.0676546494
 20
-9.6501470759
 10
-0.0446758058
 20
-9.6643235447
 10
-0.0222247681
 20
-9.6793237171
 10
-0.0003492116
 20
-9.6951074372
 10
0.0209061864
 20
-9.7116313306
 10
0.0414967489
 20
-9.7288520231
 10
0.0613853253
 20
-9.7467317296
 10
0.0805648718
 20
-9.7652550213
 10
0.099035871
 20
-9.7844120581
 10
0.1167988057
 20
-9.8041930003
 10
0.1338519027
 20
-9.8245885116
 10
0.1501843654
 20
-9.8455912698
 10
0.1657831411
 20
-9.8671944562
 10
0.1806351773
 20
-9.889391252
 10
0.1947244489
 20
-9.9121682208
 10
0.20802304
 20
-9.9354854544
 10
0.2205000623
 20
-9.9592964269
 10
0.2321246274
 20
-9.9835546124
 10
0.2428689247
 20
-10.0082146965
 10
0.2527174538
 20
-10.0332362108
 10
0.2616577921
 20
-10.0585798988
 10
0.2696775171
 20
-10.0842065035
 10
0.2777020827
 20
-10.1137921148
 10
0.2845037446
 20
-10.1436493325
 10
0.2900782585
 20
-10.1737315135
 10
0.2944213799
 20
-10.2039920143
 10
0.2975288644
 20
-10.2343841916
 10
0.2993964676
 20
-10.2648614019
 10
0.3000199453
 20
-10.2953770018
  0
LINE
  5
290
100
AcDbEntity
  8
0
100
AcDbLine
 62
253
  6
CONTINUOUS
 10
9.9628572816
 20
21.979012441
 11
10.055035739
 21
22.1634958566
  0
LINE
  5
291
100
AcDbEntity
  8
0
100
AcDbLine
 62
253
  6
CONTINUOUS
 10
-11.3626460536
 20
-21.5704516773
 11
-11.4556222701
 21
-21.756531706
  0
LINE
  5
292
100
AcDbEntity
  8
0
100
AcDbLine
 62
253
  6
CONTINUOUS
 10
10.4626859441
 20
21.4796976737
 11
10.5556621607
 21
21.6657777023
  0
LINE
  5
293
100
AcDbEntity
  8
0
100
AcDbLine
 62
7
  6
CONTINUOUS
 10
7.8000199453
 20
-0.280284473
 11
8.1499745994
 21
-0.2453770018
  0
LINE
  5
294
100
AcDbEntity
  8
0
100
AcDbLine
 62
253
  6
CONTINUOUS
 10
10.4335081543
 20
-0.792566186
 11
10.4298738249
 21
-0.7926411672
  0
LINE
  5
295
100
AcDbEntity
  8
0
100
AcDbLine
 62
253
  6
CONTINUOUS
 10
10.4298738249
 20
-0.7926411672
 11
10.4086083365
 21
-0.7927883004
  0
LINE
  5
296
100
AcDbEntity
  8
0
100
AcDbLine
 62
253
  6
CONTINUOUS
 10
9.9336794918
 20
-0.2925852245
 11
3.0127258224
 21
-0.2960306231
  0
LINE
  5
297
100
AcDbEntity
  8
0
100
AcDbLine
 62
253
  6
CONTINUOUS
 10
-10.8336396013
 20
0.2018312208
 11
-3.9126859319
 21
0.2052766194
  0
LINE
  5
298
100
AcDbEntity
  8
0
100
AcDbLine
 62
253
  6
CONTINUOUS
 10
10.4086083365
 20
-0.7927883004
 11
3.0269510227
 21
-0.7969322573
  0
LINE
  5
299
100
AcDbEntity
  8
0
100
AcDbLine
 62
7
  6
CONTINUOUS
 10
7.8000199453
 20
-0.280284473
 11
-8.6999800547
 21
-0.280284473
  0
LINE
  5
29A
100
AcDbEntity
  8
0
100
AcDbLine
 62
7
  6
CONTINUOUS
 10
10.0753329287
 20
-0.2453770018
 11
8.1499745994
 21
-0.2453770018
  0
LINE
  5
29B
100
AcDbEntity
  8
0
100
AcDbLine
 62
7
  6
CONTINUOUS
 10
-9.0499347088
 20
-0.2453770018
 11
-10.9752930382
 21
-0.2453770018
  0
LINE
  5
29C
100
AcDbEntity
  8
0
100
AcDbLine
 62
7
  6
CONTINUOUS
 10
-10.9752930382
 20
0.1546229982
 11
-9.0499347088
 21
0.1546229982
  0
LINE
  5
29D
100
AcDbEntity
  8
0
100
AcDbLine
 62
7
  6
CONTINUOUS
 10
8.1499745994
 20
0.1546229982
 11
10.0753329287
 21
0.1546229982
  0
LINE
  5
29E
100
AcDbEntity
  8
0
100
AcDbLine
 62
7
  6
CONTINUOUS
 10
-8.6999800547
 20
0.1895304693
 11
7.8000199453
 21
0.1895304693
  0
LINE
  5
29F
100
AcDbEntity
  8
0
100
AcDbLine
 62
253
  6
CONTINUOUS
 10
3.0269510227
 20
-0.7969322573
 11
-3.9269079878
 21
-0.7969322581
  0
LINE
  5
2A0
100
AcDbEntity
  8
0
100
AcDbLine
 62
253
  6
CONTINUOUS
 10
3.0127258224
 20
-0.2960306231
 11
-3.9126885268
 21
-0.2960306225
  0
LINE
  5
2A1
100
AcDbEntity
  8
0
100
AcDbLine
 62
253
  6
CONTINUOUS
 10
-3.9126859319
 20
0.2052766194
 11
3.0127284173
 21
0.2052766188
  0
LINE
  5
2A2
100
AcDbEntity
  8
0
100
AcDbLine
 62
253
  6
CONTINUOUS
 10
-3.9126885268
 20
-0.2960306225
 11
-10.8336396001
 21
-0.2925852249
  0
LINE
  5
2A3
100
AcDbEntity
  8
0
100
AcDbLine
 62
253
  6
CONTINUOUS
 10
3.0127284173
 20
0.2052766188
 11
9.9336794906
 21
0.2018312212
  0
LINE
  5
2A4
100
AcDbEntity
  8
0
100
AcDbLine
 62
253
  6
CONTINUOUS
 10
-3.9269079878
 20
-0.7969322581
 11
-11.3085684437
 21
-0.7927882961
  0
LWPOLYLINE
  5
2A5
100
AcDbEntity
  8
0
100
AcDbPolyline
 62
253
  6
CONTINUOUS
 90
3
 70
0
 10
-11.3085684437
 20
-0.7927882961
 10
-11.329833932
 20
-0.7926411664
 10
-11.3334682614
 20
-0.7925661868
  0
LINE
  5
2A6
100
AcDbEntity
  8
0
100
AcDbLine
 62
7
  6
CONTINUOUS
 10
-8.6999800547
 20
-0.280284473
 11
-9.0499347088
 21
-0.2453770018
  0
LINE
  5
2A7
100
AcDbEntity
  8
0
100
AcDbLine
 62
253
  6
CONTINUOUS
 10
10.055035739
 20
-22.2542498603
 11
9.962857281
 21
-22.0697664435
  0
LINE
  5
2A8
100
AcDbEntity
  8
0
100
AcDbLine
 62
253
  6
CONTINUOUS
 10
-11.4556222701
 20
21.6657777023
 11
-11.362646053
 21
21.4796976724
  0
LINE
  5
2A9
100
AcDbEntity
  8
0
100
AcDbLine
 62
253
  6
CONTINUOUS
 10
10.5556621607
 20
-21.756531706
 11
10.4626859435
 21
-21.5704516761
  0
LINE
  5
2AA
100
AcDbEntity
  8
0
100
AcDbLine
 62
253
  6
CONTINUOUS
 10
0.3000199453
 20
12.7046229982
 11
0.3000199453
 21
10.2046229982
  0
LINE
  5
2AB
100
AcDbEntity
  8
0
100
AcDbLine
 62
253
  6
CONTINUOUS
 10
0.3000199453
 20
-10.2953770018
 11
0.3000199453
 21
-12.7953770018
  0
LWPOLYLINE
  5
2AC
100
AcDbEntity
  8
0
100
AcDbPolyline
 62
253
  6
CONTINUOUS
 90
87
 70
0
 10
0.3000199453
 20
10.2046229982
 10
0.2993964658
 20
10.1741074058
 10
0.2975288611
 20
10.1436302225
 10
0.294421381
 20
10.1132380974
 10
0.2900782759
 20
10.0829776797
 10
0.2845037958
 20
10.0528956185
 10
0.2777021909
 20
10.0230385629
 10
0.2696777113
 20
9.993453162
 10
0.2616580894
 20
9.9678267823
 10
0.2527178803
 20
9.9424833465
 10
0.2428695064
 20
9.9174620972
 10
0.2321253901
 20
9.892802277
 10
0.2205010274
 20
9.8685443384
 10
0.20802421
 20
9.8447335733
 10
0.1947258034
 20
9.8214164837
 10
0.1806366731
 20
9.7986395717
 10
0.1657847174
 20
9.7764427301
 10
0.150185967
 20
9.7548394159
 10
0.1338534851
 20
9.7338364771
 10
0.1168003353
 20
9.7134407616
 10
0.0990373257
 20
9.6936596175
 10
0.0805662439
 20
9.6745023933
 10
0.0613866222
 20
9.6559789375
 10
0.041497993
 20
9.6380990988
 10
0.0209074111
 20
9.6208783114
 10
-0.0003479784
 20
9.6043543526
 10
-0.0222235083
 20
9.5885705854
 10
-0.0446745109
 20
9.5735703727
 10
-0.0676533194
 20
9.5593938612
 10
-0.0911002692
 20
9.5460683325
 10
-0.1149526962
 20
9.5336178519
 10
-0.1391479366
 20
9.5220664845
 10
-0.1636329823
 20
9.511432948
 10
-0.1883934503
 20
9.501714569
 10
-0.2134246135
 20
9.4929033263
 10
-0.2387217448
 20
9.4849911989
 10
-0.2642813381
 20
9.4779730264
 10
-0.2901047708
 20
9.4718550913
 10
-0.3161946412
 20
9.4666465367
 10
-0.3425535475
 20
9.4623565059
 10
-0.3691723369
 20
9.4589950564
 10
-0.3959948519
 20
9.4565759027
 10
-0.422953184
 20
9.4551136737
 10
-0.4499794244
 20
9.4546229982
 10
-0.4770056645
 20
9.4551136286
 10
-0.5039639946
 20
9.456575812
 10
-0.5307865048
 20
9.4589949193
 10
-0.5574052855
 20
9.4623563212
 10
-0.5837641782
 20
9.4666463026
 10
-0.6098540311
 20
9.4718548058
 10
-0.6356774438
 20
9.4779726872
 10
-0.6612370159
 20
9.484990803
 10
-0.6865341265
 20
9.4929028707
 10
-0.7115652724
 20
9.5017140523
 10
-0.7363257302
 20
9.5114323706
 10
-0.760810776
 20
9.5220658484
 10
-0.7850060291
 20
9.5336171607
 10
-0.8088584795
 20
9.5460675904
 10
-0.8323054601
 20
9.5593930722
 10
-0.8552843037
 20
9.573569541
 10
-0.8777353414
 20
9.5885697135
 10
-0.8996108979
 20
9.6043534335
 10
-0.9208662959
 20
9.6208773269
 10
-0.9414568584
 20
9.6380980195
 10
-0.9613454348
 20
9.655977726
 10
-0.9805249813
 20
9.6745010176
 10
-0.9989959805
 20
9.6936580544
 10
-1.0167589152
 20
9.7134389967
 10
-1.0338120122
 20
9.733834508
 10
-1.0501444749
 20
9.7548372662
 10
-1.0657432506
 20
9.7764404525
 10
-1.0805952868
 20
9.7986372483
 10
-1.0946845584
 20
9.8214142171
 10
-1.1079831495
 20
9.8447314507
 10
-1.1204601718
 20
9.8685424232
 10
-1.1320847369
 20
9.8928006087
 10
-1.1428290342
 20
9.9174606928
 10
-1.1526775633
 20
9.9424822072
 10
-1.1616179016
 20
9.9678258951
 10
-1.1696376265
 20
9.9934524999
 10
-1.1776621922
 20
10.0230381111
 10
-1.1844638541
 20
10.0528953289
 10
-1.190038368
 20
10.0829775099
 10
-1.1943814894
 20
10.1132380107
 10
-1.1974889739
 20
10.1436301879
 10
-1.1993565771
 20
10.1741073982
 10
-1.1999800547
 20
10.2046229982
  0
LWPOLYLINE
  5
2AD
100
AcDbEntity
  8
0
100
AcDbPolyline
 62
253
  6
CONTINUOUS
 90
87
 70
0
 10
0.3000199453
 20
-12.7953770018
 10
0.2993963341
 20
-12.8258958361
 10
0.2975283545
 20
-12.8563759878
 10
0.2944202875
 20
-12.8867708054
 10
0.2900764139
 20
-12.917033637
 10
0.2845010147
 20
-12.9471178313
 10
0.2776983707
 20
-12.9769767364
 10
0.269672763
 20
-13.0065637009
 10
0.2616521034
 20
-13.0321912154
 10
0.2527108229
 20
-13.0575355825
 10
0.2428613547
 20
-13.0825575772
 10
0.2321161319
 20
-13.1072179744
 10
0.2204906618
 20
-13.131476337
 10
0.2080127471
 20
-13.1552873804
 10
0.1947132648
 20
-13.1786046082
 10
0.1806230915
 20
-13.2013815238
 10
0.1657701367
 20
-13.2235782401
 10
0.150170439
 20
-13.2451813064
 10
0.1338370699
 20
-13.2661838818
 10
0.1167831007
 20
-13.2865791248
 10
0.0990193487
 20
-13.3063596937
 10
0.080547616
 20
-13.3255162429
 10
0.0613674505
 20
-13.3440389263
 10
0.0414784004
 20
-13.3619178979
 10
0.0208875329
 20
-13.3791377285
 10
-0.0003680082
 20
-13.3956606577
 10
-0.0222435597
 20
-13.4114433422
 10
-0.0446944586
 20
-13.4264424386
 10
-0.0676730389
 20
-13.4406178178
 10
-0.0911196237
 20
-13.4539422069
 10
-0.1149715329
 20
-13.4663915474
 10
-0.1391660866
 20
-13.4779417806
 10
-0.1636502674
 20
-13.4885741977
 10
-0.188409707
 20
-13.4982914886
 10
-0.2134396998
 20
-13.5071016931
 10
-0.2387355401
 20
-13.5150128508
 10
-0.2642937394
 20
-13.5220301386
 10
-0.2901156777
 20
-13.528147283
 10
-0.3162039523
 20
-13.5333551476
 10
-0.3425611605
 20
-13.5376445959
 10
-0.369178153
 20
-13.5410055775
 10
-0.3959987936
 20
-13.543424386
 10
-0.4229551994
 20
-13.544886401
 10
-0.4499794876
 20
-13.5453770018
 10
-0.4770037753
 20
-13.5448864417
 10
-0.5039601788
 20
-13.5434244678
 10
-0.5307808147
 20
-13.5410057011
 10
-0.5573977991
 20
-13.5376447623
 10
-0.5837549955
 20
-13.5333553583
 10
-0.609843255
 20
-13.5281475399
 10
-0.6356651759
 20
-13.5220304438
 10
-0.6612233563
 20
-13.5150132068
 10
-0.6865191776
 20
-13.5071021028
 10
-0.7115491532
 20
-13.4982919538
 10
-0.7363085801
 20
-13.4885747191
 10
-0.7607927548
 20
-13.477942358
 10
-0.7849873111
 20
-13.4663921795
 10
-0.8088392303
 20
-13.4539428919
 10
-0.8322858305
 20
-13.4406185536
 10
-0.85526443
 20
-13.4264432228
 10
-0.8777153485
 20
-13.4114441735
 10
-0.8995909125
 20
-13.3956615438
 10
-0.9208464497
 20
-13.3791386872
 10
-0.9414372881
 20
-13.3619189577
 10
-0.9613262787
 20
-13.344040123
 10
-0.9805063647
 20
-13.3255176068
 10
-0.9989780122
 20
-13.3063612471
 10
-1.0167416876
 20
-13.2865808816
 10
-1.0337956027
 20
-13.2661858439
 10
-1.0501289514
 20
-13.2451834502
 10
-1.0657286732
 20
-13.2235805126
 10
-1.0805817078
 20
-13.201383843
 10
-1.0946720215
 20
-13.1786068716
 10
-1.1079716878
 20
-13.1552895005
 10
-1.1204498069
 20
-13.1314782503
 10
-1.1320754792
 20
-13.1072196415
 10
-1.1428208827
 20
-13.0825589808
 10
-1.1526705061
 20
-13.0575367211
 10
-1.1616119158
 20
-13.0321921019
 10
-1.1696326784
 20
-13.0065643624
 10
-1.1776583722
 20
-12.9769771878
 10
-1.1844610731
 20
-12.9471181206
 10
-1.1900365061
 20
-12.9170338068
 10
-1.1943803959
 20
-12.8867708921
 10
-1.1974884674
 20
-12.8563760226
 10
-1.1993564454
 20
-12.8258958438
 10
-1.1999800547
 20
-12.7953770018
  0
LINE
  5
2AE
100
AcDbEntity
  8
0
100
AcDbLine
 62
253
  6
CONTINUOUS
 10
-10.8628173911
 20
-22.0697664447
 11
-10.9549958485
 21
-22.2542498603
  0
LINE
  5
2AF
100
AcDbEntity
  8
0
100
AcDbLine
 62
7
  6
CONTINUOUS
 10
-8.6999800547
 20
0.1895304693
 11
-9.0499347088
 21
0.1546229982
  0
LINE
  5
2B0
100
AcDbEntity
  8
0
100
AcDbLine
 62
253
  6
CONTINUOUS
 10
-11.3334682638
 20
0.7018121823
 11
-11.3298339344
 21
0.7018871636
  0
LINE
  5
2B1
100
AcDbEntity
  8
0
100
AcDbLine
 62
253
  6
CONTINUOUS
 10
-11.3298339344
 20
0.7018871636
 11
-11.308568446
 21
0.7020342967
  0
LINE
  5
2B2
100
AcDbEntity
  8
0
100
AcDbLine
 62
253
  6
CONTINUOUS
 10
-11.308568446
 20
0.7020342967
 11
-3.9269111322
 21
0.7061782536
  0
LINE
  5
2B3
100
AcDbEntity
  8
0
100
AcDbLine
 62
253
  6
CONTINUOUS
 10
-3.9269111322
 20
0.7061782536
 11
3.0269478784
 21
0.7061782545
  0
LINE
  5
2B4
100
AcDbEntity
  8
0
100
AcDbLine
 62
253
  6
CONTINUOUS
 10
3.0269478784
 20
0.7061782545
 11
10.1621489417
 21
0.7024893948
  0
LINE
  5
2B5
100
AcDbEntity
  8
0
100
AcDbLine
 62
253
  6
CONTINUOUS
 10
10.1621489417
 20
0.7024893948
 11
10.4086083342
 21
0.7020342925
  0
LWPOLYLINE
  5
2B6
100
AcDbEntity
  8
0
100
AcDbPolyline
 62
253
  6
CONTINUOUS
 90
3
 70
0
 10
10.4086083342
 20
0.7020342925
 10
10.4298738225
 20
0.7018871627
 10
10.4335081519
 20
0.7018121832
  0
LINE
  5
2B7
100
AcDbEntity
  8
0
100
AcDbLine
 62
7
  6
CONTINUOUS
 10
7.8000199453
 20
0.1895304693
 11
8.1499745994
 21
0.1546229982
  0
LINE
  5
2B8
100
AcDbEntity
  8
0
100
AcDbLine
 62
253
  6
CONTINUOUS
 10
-10.9549958485
 20
22.1634958566
 11
-10.8628173905
 21
21.9790124398
  0
LINE
  5
2B9
100
AcDbEntity
  8
0
100
AcDbLine
 62
253
  6
CONTINUOUS
 10
10.0753329287
 20
-0.2453770018
 11
9.9336794918
 21
-0.2925852245
  0
LINE
  5
2BA
100
AcDbEntity
  8
0
100
AcDbLine
 62
253
  6
CONTINUOUS
 10
10.5753900688
 20
-0.7452818196
 11
10.4335081543
 21
-0.792566186
  0
LINE
  5
2BB
100
AcDbEntity
  8
0
100
AcDbLine
 62
253
  6
CONTINUOUS
 10
9.9336794906
 20
0.2018312212
 11
10.0753329287
 21
0.1546229982
  0
LINE
  5
2BC
100
AcDbEntity
  8
0
100
AcDbLine
 62
253
  6
CONTINUOUS
 10
10.4335081518
 20
0.7018121832
 11
10.5753900688
 21
0.654527816
  0
LWPOLYLINE
  5
2BD
100
AcDbEntity
  8
0
100
AcDbPolyline
 62
253
  6
CONTINUOUS
 90
10
 70
0
 10
10.4626859435
 20
-21.5704516761
 10
10.4613921783
 20
-21.5660991669
 10
10.4601202171
 20
-21.558405397
 10
10.45887006
 20
-21.5473703666
 10
10.4576351574
 20
-21.5329051637
 10
10.4564220589
 20
-21.5150987003
 10
10.4552504133
 20
-21.4942177112
 10
10.4541214072
 20
-21.4702174499
 10
10.4530338539
 20
-21.4431426629
 10
10.4520038423
 20
-21.4133943256
  0
LWPOLYLINE
  5
2BE
100
AcDbEntity
  8
0
100
AcDbPolyline
 62
253
  6
CONTINUOUS
 90
8
 70
0
 10
9.9622988347
 20
-0.4228774296
 10
9.9586596791
 20
-0.3897782474
 10
9.9547287027
 20
-0.3611352909
 10
9.9510788353
 20
-0.3372124573
 10
9.9468062585
 20
-0.3181727433
 10
9.9419133054
 20
-0.3042735712
 10
9.9373751729
 20
-0.2957273465
 10
9.9336794918
 20
-0.2925852245
  0
LWPOLYLINE
  5
2BF
100
AcDbEntity
  8
0
100
AcDbPolyline
 62
253
  6
CONTINUOUS
 90
16
 70
0
 10
10.4335081543
 20
-0.792566186
 10
10.4308226177
 20
-0.7409202544
 10
10.422782449
 20
-0.6896562676
 10
10.4094208383
 20
-0.6393347584
 10
10.3908069174
 20
-0.590462517
 10
10.3671052948
 20
-0.5436500732
 10
10.3386297037
 20
-0.4995779311
 10
10.305734868
 20
-0.4587778783
 10
10.268751037
 20
-0.4216446416
 10
10.22807379
 20
-0.3885788316
 10
10.184139687
 20
-0.3599429093
 10
10.1374364699
 20
-0.3360618133
 10
10.088489757
 20
-0.3172068431
 10
10.037843056
 20
-0.3035866122
 10
9.9860495839
 20
-0.2953491674
 10
9.9336794918
 20
-0.2925852245
  0
LWPOLYLINE
  5
2C0
100
AcDbEntity
  8
0
100
AcDbPolyline
 62
253
  6
CONTINUOUS
 90
4
 70
0
 10
9.9726050257
 20
-0.5911383757
 10
9.9708040825
 20
-0.5444266454
 10
9.9680899262
 20
-0.5004557297
 10
9.9622988347
 20
-0.4228774296
  0
LINE
  5
2C1
100
AcDbEntity
  8
0
100
AcDbLine
 62
253
  6
CONTINUOUS
 10
10.4520038423
 20
-21.4133943256
 11
10.4501181553
 21
-21.345793705
  0
LINE
  5
2C2
100
AcDbEntity
  8
0
100
AcDbLine
 62
253
  6
CONTINUOUS
 10
10.4501181553
 20
-21.345793705
 11
10.4485043331
 21
-21.2690469591
  0
LINE
  5
2C3
100
AcDbEntity
  8
0
100
AcDbLine
 62
253
  6
CONTINUOUS
 10
9.9721180969
 20
21.7097670874
 11
9.9702442816
 21
21.8070121553
  0
LINE
  5
2C4
100
AcDbEntity
  8
0
100
AcDbLine
 62
253
  6
CONTINUOUS
 10
10.4485043331
 20
-21.2690469591
 11
10.4471860168
 21
-21.1842949573
  0
LINE
  5
2C5
100
AcDbEntity
  8
0
100
AcDbLine
 62
253
  6
CONTINUOUS
 10
9.9746175565
 20
21.5302957358
 11
9.9721180969
 21
21.7097670874
  0
LINE
  5
2C6
100
AcDbEntity
  8
0
100
AcDbLine
 62
253
  6
CONTINUOUS
 10
10.4471860168
 20
-21.1842949573
 11
10.4458275322
 21
-21.0462867979
  0
LINE
  5
2C7
100
AcDbEntity
  8
0
100
AcDbLine
 62
253
  6
CONTINUOUS
 10
9.9771909846
 20
21.2411085121
 11
9.9746175565
 21
21.5302957358
  0
LWPOLYLINE
  5
2C8
100
AcDbEntity
  8
0
100
AcDbPolyline
 62
253
  6
CONTINUOUS
 90
3
 70
0
 10
9.9763456085
 20
0.7025793699
 10
9.9765704756
 20
0.6495907751
 10
9.975717904
 20
0.598340214
  0
LINE
  5
2C9
100
AcDbEntity
  8
0
100
AcDbLine
 62
253
  6
CONTINUOUS
 10
9.9789185272
 20
20.8318904788
 11
9.9771909846
 21
21.2411085121
  0
LINE
  5
2CA
100
AcDbEntity
  8
0
100
AcDbLine
 62
253
  6
CONTINUOUS
 10
10.4458275322
 20
-21.0462867979
 11
10.4452594289
 21
-20.9012023587
  0
LINE
  5
2CB
100
AcDbEntity
  8
0
100
AcDbLine
 62
253
  6
CONTINUOUS
 10
10.4452594289
 20
-20.9012023587
 11
10.4428187506
 21
-18.5898376379
  0
LINE
  5
2CC
100
AcDbEntity
  8
0
100
AcDbLine
 62
253
  6
CONTINUOUS
 10
9.9763453926
 20
0.7025793735
 11
9.978918522
 21
20.8318904797
  0
LINE
  5
2CD
100
AcDbEntity
  8
0
100
AcDbLine
 62
253
  6
CONTINUOUS
 10
9.9784451071
 20
-21.0899865519
 11
9.9763454041
 21
-0.7933333826
  0
LWPOLYLINE
  5
2CE
100
AcDbEntity
  8
0
100
AcDbPolyline
 62
253
  6
CONTINUOUS
 90
4
 70
0
 10
9.9763456111
 20
-0.7933333848
 10
9.9765703496
 20
-0.7403467871
 10
9.9757178593
 20
-0.6890978997
 10
9.9726050257
 20
-0.5911383757
  0
LINE
  5
2CF
100
AcDbEntity
  8
0
100
AcDbLine
 62
253
  6
CONTINUOUS
 10
10.4452594293
 20
20.8104483572
 11
10.4458275329
 21
20.9555327962
  0
LINE
  5
2D0
100
AcDbEntity
  8
0
100
AcDbLine
 62
253
  6
CONTINUOUS
 10
9.9760197469
 20
-21.4824529823
 11
9.9784451071
 21
-21.0899865519
  0
LINE
  5
2D1
100
AcDbEntity
  8
0
100
AcDbLine
 62
253
  6
CONTINUOUS
 10
10.4458275329
 20
20.9555327962
 11
10.4471860175
 21
21.0935409557
  0
LINE
  5
2D2
100
AcDbEntity
  8
0
100
AcDbLine
 62
253
  6
CONTINUOUS
 10
9.9738295846
 20
-21.6849795662
 11
9.9760197469
 21
-21.4824529823
  0
LINE
  5
2D3
100
AcDbEntity
  8
0
100
AcDbLine
 62
253
  6
CONTINUOUS
 10
9.972118096
 20
-21.800521089
 11
9.9738295846
 21
-21.6849795662
  0
LINE
  5
2D4
100
AcDbEntity
  8
0
100
AcDbLine
 62
253
  6
CONTINUOUS
 10
10.4471860175
 20
21.0935409557
 11
10.4485043338
 21
21.1782929576
  0
LINE
  5
2D5
100
AcDbEntity
  8
0
100
AcDbLine
 62
253
  6
CONTINUOUS
 10
9.9702442807
 20
-21.8977661578
 11
9.972118096
 21
-21.800521089
  0
LINE
  5
2D6
100
AcDbEntity
  8
0
100
AcDbLine
 62
253
  6
CONTINUOUS
 10
10.4485043338
 20
21.1782929576
 11
10.450118156
 21
21.2550397034
  0
LWPOLYLINE
  5
2D7
100
AcDbEntity
  8
0
100
AcDbPolyline
 62
253
  6
CONTINUOUS
 90
11
 70
0
 10
10.450118156
 20
21.2550397034
 10
10.452003843
 20
21.3226403239
 10
10.4530338546
 20
21.352388661
 10
10.4541214078
 20
21.3794634479
 10
10.4552504139
 20
21.4034637091
 10
10.4564220596
 20
21.4243446982
 10
10.4576351581
 20
21.4421511616
 10
10.4588700607
 20
21.4566163644
 10
10.4601202177
 20
21.4676513949
 10
10.4613921789
 20
21.4753451646
 10
10.4626859441
 20
21.4796976737
  0
LWPOLYLINE
  5
2D8
100
AcDbEntity
  8
0
100
AcDbPolyline
 62
253
  6
CONTINUOUS
 90
4
 70
0
 10
9.975717904
 20
0.598340214
 10
9.9726047725
 20
0.500378352
 10
9.97080379
 20
0.4536659623
 10
9.9680894959
 20
0.4096948292
  0
LWPOLYLINE
  5
2D9
100
AcDbEntity
  8
0
100
AcDbPolyline
 62
253
  6
CONTINUOUS
 90
16
 70
0
 10
10.4335081518
 20
0.7018121832
 10
10.4308226102
 20
0.6501662036
 10
10.4227824288
 20
0.5989021811
 10
10.4094208015
 20
0.5485806491
 10
10.390806864
 20
0.499708399
 10
10.367105228
 20
0.4528959584
 10
10.3386296276
 20
0.4088238265
 10
10.3057347894
 20
0.3680237906
 10
10.2687509634
 20
0.3308905745
 10
10.2280737236
 20
0.2978247822
 10
10.1841396261
 20
0.2691888727
 10
10.137436415
 20
0.2453077871
 10
10.0884897109
 20
0.226452826
 10
10.0378430222
 20
0.2128326028
 10
9.9860495648
 20
0.2045951629
 10
9.9336794893
 20
0.2018312217
  0
LWPOLYLINE
  5
2DA
100
AcDbEntity
  8
0
100
AcDbPolyline
 62
253
  6
CONTINUOUS
 90
9
 70
0
 10
9.9680894959
 20
0.4096948292
 10
9.9622982554
 20
0.3321174669
 10
9.9586590903
 20
0.299019213
 10
9.9547280915
 20
0.2703773724
 10
9.9510782861
 20
0.2464557192
 10
9.9468058295
 20
0.2274170777
 10
9.9419130234
 20
0.2135187666
 10
9.9373750467
 20
0.2049731225
 10
9.9336794898
 20
0.2018312217
  0
LWPOLYLINE
  5
2DB
100
AcDbEntity
  8
0
100
AcDbPolyline
 62
253
  6
CONTINUOUS
 90
6
 70
0
 10
9.9682148544
 20
21.8840169262
 10
9.967182723
 20
21.9144344025
 10
9.966109958
 20
21.9392540529
 10
9.9650024965
 20
21.9583508315
 10
9.963908978
 20
21.9716265035
 10
9.9628572816
 20
21.979012441
  0
LINE
  5
2DC
100
AcDbEntity
  8
0
100
AcDbLine
 62
253
  6
CONTINUOUS
 10
9.9702442816
 20
21.8070121553
 11
9.9682148544
 21
21.8840169262
  0
LINE
  5
2DD
100
AcDbEntity
  8
0
100
AcDbLine
 62
7
  6
CONTINUOUS
 10
10.5556621607
 20
21.6657777023
 11
10.5753900688
 21
13.0546229982
  0
LINE
  5
2DE
100
AcDbEntity
  8
0
100
AcDbLine
 62
253
  6
CONTINUOUS
 10
10.4428187506
 20
-18.5898376379
 11
10.4360346213
 21
-9.775838669
  0
LINE
  5
2DF
100
AcDbEntity
  8
0
100
AcDbLine
 62
253
  6
CONTINUOUS
 10
10.4360346213
 20
-9.775838669
 11
10.4335081543
 21
-0.792566186
  0
LINE
  5
2E0
100
AcDbEntity
  8
0
100
AcDbLine
 62
7
  6
CONTINUOUS
 10
10.5753900688
 20
13.0546229982
 11
10.5753900688
 21
0.654527816
  0
LINE
  5
2E1
100
AcDbEntity
  8
0
100
AcDbLine
 62
7
  6
CONTINUOUS
 10
10.5753900688
 20
-13.1453770018
 11
10.5753900688
 21
-0.7452818196
  0
LINE
  5
2E2
100
AcDbEntity
  8
0
100
AcDbLine
 62
253
  6
CONTINUOUS
 10
10.4335081518
 20
0.7018121832
 11
10.4369499004
 21
11.2924613139
  0
LINE
  5
2E3
100
AcDbEntity
  8
0
100
AcDbLine
 62
253
  6
CONTINUOUS
 10
10.4369499004
 20
11.2924613139
 11
10.4452594293
 21
20.8104483572
  0
LINE
  5
2E4
100
AcDbEntity
  8
0
100
AcDbLine
 62
7
  6
CONTINUOUS
 10
10.5556621607
 20
-21.756531706
 11
10.5753900688
 21
-13.1453770018
  0
LWPOLYLINE
  5
2E5
100
AcDbEntity
  8
0
100
AcDbPolyline
 62
253
  6
CONTINUOUS
 90
7
 70
0
 10
9.962857281
 20
-22.0697664435
 10
9.9639089773
 20
-22.0623805063
 10
9.9650024959
 20
-22.049104835
 10
9.9661099574
 20
-22.0300080569
 10
9.9671827223
 20
-22.0051884066
 10
9.9682148536
 20
-21.9747709298
 10
9.9702442807
 20
-21.8977661578
  0
LINE
  5
2E6
100
AcDbEntity
  8
0
100
AcDbLine
 62
7
  6
CONTINUOUS
 10
7.3559415754
 20
22.1634958566
 11
7.0077549722
 21
22.1318899362
  0
LWPOLYLINE
  5
2E7
100
AcDbEntity
  8
0
100
AcDbPolyline
 62
253
  6
CONTINUOUS
 90
14
 70
0
 10
-10.9758826288
 20
20.8310834837
 10
-11.022719972
 20
20.8303774021
 10
-11.0678379473
 20
20.8294780903
 10
-11.1107990948
 20
20.8283942677
 10
-11.1511868666
 20
20.8271364432
 10
-11.1886096664
 20
20.8257168123
 10
-11.222704646
 20
20.8241491397
 10
-11.2531412232
 20
20.8224486255
 10
-11.2796242877
 20
20.8206317576
 10
-11.3018970619
 20
20.8187161523
 10
-11.3197435908
 20
20.8167203831
 10
-11.332990836
 20
20.8146638008
 10
-11.3415103534
 20
20.8125663458
 10
-11.3452195384
 20
20.810448355
  0
LINE
  5
2E8
100
AcDbEntity
  8
0
100
AcDbLine
 62
253
  6
CONTINUOUS
 10
-10.8788786299
 20
20.8318905112
 11
-10.9758826288
 21
20.8310834837
  0
LINE
  5
2E9
100
AcDbEntity
  8
0
100
AcDbLine
 62
253
  6
CONTINUOUS
 10
9.978918522
 20
20.8318904797
 11
5.2520125723
 21
20.8269112435
  0
LINE
  5
2EA
100
AcDbEntity
  8
0
100
AcDbLine
 62
253
  6
CONTINUOUS
 10
5.2520125723
 20
20.8269112435
 11
0.5195884562
 21
20.8248533705
  0
LINE
  5
2EB
100
AcDbEntity
  8
0
100
AcDbLine
 62
253
  6
CONTINUOUS
 10
0.5195884562
 20
20.8248533705
 11
-6.289312189
 21
20.8270145639
  0
LINE
  5
2EC
100
AcDbEntity
  8
0
100
AcDbLine
 62
253
  6
CONTINUOUS
 10
-6.289312189
 20
20.8270145639
 11
-10.87887863
 21
20.8318904973
  0
LWPOLYLINE
  5
2ED
100
AcDbEntity
  8
0
100
AcDbPolyline
 62
253
  6
CONTINUOUS
 90
15
 70
0
 10
9.9789176706
 20
20.8318899646
 10
10.0759207603
 20
20.8310829628
 10
10.1227577086
 20
20.8303769031
 10
10.1678753462
 20
20.8294776185
 10
10.2108362249
 20
20.8283938283
 10
10.251223808
 20
20.8271360403
 10
10.2886465087
 20
20.8257164497
 10
10.3227414868
 20
20.8241488203
 10
10.3531781668
 20
20.8224483516
 10
10.3796614432
 20
20.8206315307
 10
10.4019345414
 20
20.8187159731
 10
10.4197815076
 20
20.8167202515
 10
10.4330293027
 20
20.8146637159
 10
10.4415494797
 20
20.8125663058
 10
10.4452594292
 20
20.8104483572
  0
LINE
  5
2EE
100
AcDbEntity
  8
0
100
AcDbLine
 62
7
  6
CONTINUOUS
 10
-8.2559016849
 20
22.1634958566
 11
-7.9077150817
 21
22.1318899362
  0
LINE
  5
2EF
100
AcDbEntity
  8
0
100
AcDbLine
 62
7
  6
CONTINUOUS
 10
-3.8440584246
 20
22.1634958566
 11
-4.1922450278
 21
22.1318899362
  0
LWPOLYLINE
  5
2F0
100
AcDbEntity
  8
0
100
AcDbPolyline
 62
253
  6
CONTINUOUS
 90
16
 70
0
 10
-10.8628173905
 20
21.9790124398
 10
-10.9150190169
 20
21.9762103946
 10
-10.9666496284
 20
21.9679778052
 10
-11.0171445252
 20
21.9544047349
 10
-11.0659514469
 20
21.9356396505
 10
-11.1125365685
 20
21.9118878145
 10
-11.1563903452
 20
21.8834090543
 10
-11.1970331495
 20
21.8505148857
 10
-11.2340204942
 20
21.8135651013
 10
-11.2669478578
 20
21.7729638662
 10
-11.2954551374
 20
21.7291552748
 10
-11.3192305897
 20
21.6826184778
 10
-11.338014224
 20
21.6338624529
 10
-11.3516006406
 20
21.5834204498
 10
-11.3598412802
 20
21.5318441607
 10
-11.362646053
 20
21.4796976724
  0
LINE
  5
2F1
100
AcDbEntity
  8
0
100
AcDbLine
 62
253
  6
CONTINUOUS
 10
9.9628572816
 20
21.979012441
 11
6.5932917123
 21
21.9689863048
  0
LINE
  5
2F2
100
AcDbEntity
  8
0
100
AcDbLine
 62
253
  6
CONTINUOUS
 10
6.5932917123
 20
21.9689863048
 11
3.2212456581
 21
21.9628321391
  0
LINE
  5
2F3
100
AcDbEntity
  8
0
100
AcDbLine
 62
253
  6
CONTINUOUS
 10
3.2212456581
 20
21.9628321391
 11
-0.1524114364
 21
21.9605519296
  0
LINE
  5
2F4
100
AcDbEntity
  8
0
100
AcDbLine
 62
7
  6
CONTINUOUS
 10
6.8345498914
 20
22.1266491583
 11
3.4654899991
 21
22.1266491583
  0
LINE
  5
2F5
100
AcDbEntity
  8
0
100
AcDbLine
 62
7
  6
CONTINUOUS
 10
-4.3654501086
 20
22.1266491583
 11
-7.7345100009
 21
22.1266491583
  0
LINE
  5
2F6
100
AcDbEntity
  8
0
100
AcDbLine
 62
7
  6
CONTINUOUS
 10
10.055035739
 20
22.1634958566
 11
7.3559415754
 21
22.1634958566
  0
LINE
  5
2F7
100
AcDbEntity
  8
0
100
AcDbLine
 62
7
  6
CONTINUOUS
 10
2.9440983151
 20
22.1634958566
 11
-3.8440584246
 21
22.1634958566
  0
LINE
  5
2F8
100
AcDbEntity
  8
0
100
AcDbLine
 62
7
  6
CONTINUOUS
 10
-8.2559016849
 20
22.1634958566
 11
-10.9549958485
 21
22.1634958566
  0
LINE
  5
2F9
100
AcDbEntity
  8
0
100
AcDbLine
 62
253
  6
CONTINUOUS
 10
-0.1524114364
 20
21.9605519296
 11
-3.5201390933
 21
21.9621388643
  0
LINE
  5
2FA
100
AcDbEntity
  8
0
100
AcDbLine
 62
253
  6
CONTINUOUS
 10
-3.5201390933
 20
21.9621388643
 11
-6.991152735
 21
21.9678244078
  0
LWPOLYLINE
  5
2FB
100
AcDbEntity
  8
0
100
AcDbPolyline
 62
253
  6
CONTINUOUS
 90
3
 70
0
 10
-6.991152735
 20
21.9678244078
 10
-10.0452389761
 20
21.9762515339
 10
-10.8628173905
 20
21.9790124398
  0
LWPOLYLINE
  5
2FC
100
AcDbEntity
  8
0
100
AcDbPolyline
 62
253
  6
CONTINUOUS
 90
16
 70
0
 10
9.9628572816
 20
21.979012441
 10
10.0150582516
 20
21.9762104658
 10
10.0666882932
 20
21.9679780687
 10
10.1171827221
 20
21.9544052885
 10
10.1659892745
 20
21.9356405723
 10
10.2125741472
 20
21.9118891522
 10
10.2564278356
 20
21.8834108004
 10
10.2970707066
 20
21.8505169882
 10
10.3340582439
 20
21.8135674793
 10
10.3669859104
 20
21.772966395
 10
10.395493572
 20
21.7291577944
 10
10.419269437
 20
21.6826208177
 10
10.4380534658
 20
21.6338644453
 10
10.4516402151
 20
21.583421932
 10
10.459881085
 20
21.5318449735
 10
10.4626859441
 20
21.4796976737
  0
LINE
  5
2FD
100
AcDbEntity
  8
0
100
AcDbLine
 62
7
  6
CONTINUOUS
 10
2.9440983151
 20
22.1634958566
 11
3.2922849183
 21
22.1318899362
  0
LINE
  5
2FE
100
AcDbEntity
  8
0
100
AcDbLine
 62
7
  6
CONTINUOUS
 10
-32.2428728567
 20
-22.2542498603
 11
-36.115565137
 21
-22.051290658
  0
LWPOLYLINE
  5
2FF
100
AcDbEntity
  8
0
100
AcDbPolyline
 62
253
  6
CONTINUOUS
 90
22
 70
0
 10
-35.7630261497
 20
-22.0697664435
 10
-35.8472343201
 20
-22.0623805063
 10
-35.9306973818
 20
-22.049104835
 10
-36.01300453
 20
-22.0300080569
 10
-36.0937496466
 20
-22.0051884066
 10
-36.1725375098
 20
-21.9747709298
 10
-36.2489850002
 20
-21.9389049012
 10
-36.3227202094
 20
-21.8977661578
 10
-36.3933767394
 20
-21.851560715
 10
-36.4605998159
 20
-21.800521089
 10
-36.5240585303
 20
-21.7449023346
 10
-36.5834440328
 20
-21.6849795662
 10
-36.6384630934
 20
-21.6210497351
 10
-36.6888469849
 20
-21.5534291396
 10
-36.7343496652
 20
-21.4824529823
 10
-36.7747463355
 20
-21.4084735421
 10
-36.8098379664
 20
-21.3318625063
 10
-36.8394579385
 20
-21.2529929333
 10
-36.8634658849
 20
-21.1722370447
 10
-36.8817431828
 20
-21.0899865519
 10
-36.8941974527
 20
-21.006652166
 10
-36.900766214
 20
-20.9226445011
  0
LINE
  5
300
100
AcDbEntity
  8
0
100
AcDbLine
 62
253
  6
CONTINUOUS
 10
-36.9007662038
 20
-20.9226445148
 11
-36.8950618688
 21
-20.9223434924
  0
LINE
  5
301
100
AcDbEntity
  8
0
100
AcDbLine
 62
253
  6
CONTINUOUS
 10
-36.8950618688
 20
-20.9223434924
 11
-36.6914790274
 21
-20.9132026291
  0
LINE
  5
302
100
AcDbEntity
  8
0
100
AcDbLine
 62
253
  6
CONTINUOUS
 10
-36.6914790274
 20
-20.9132026291
 11
-36.4154383877
 21
-20.9012023587
  0
LINE
  5
303
100
AcDbEntity
  8
0
100
AcDbLine
 62
253
  6
CONTINUOUS
 10
-37.2511238088
 20
-20.9155459521
 11
-36.9007662062
 21
-20.922644501
  0
LINE
  5
304
100
AcDbEntity
  8
0
100
AcDbLine
 62
253
  6
CONTINUOUS
 10
-32.1993281606
 20
-21.756531706
 11
-35.7499466457
 21
-21.5704516761
  0
LWPOLYLINE
  5
305
100
AcDbEntity
  8
0
100
AcDbPolyline
 62
253
  6
CONTINUOUS
 90
22
 70
0
 10
-35.7499466457
 20
-21.5704516761
 10
-35.7993535462
 20
-21.5660991669
 10
-35.8479277828
 20
-21.558405397
 10
-35.8956693553
 20
-21.5473703666
 10
-35.9428283829
 20
-21.5329051637
 10
-35.9891547465
 20
-21.5150987003
 10
-36.0338980889
 20
-21.4942177112
 10
-36.0770130922
 20
-21.4702174499
 10
-36.1185450742
 20
-21.4431426629
 10
-36.1578796315
 20
-21.4133943256
 10
-36.1949840845
 20
-21.3809307905
 10
-36.2298911126
 20
-21.345793705
 10
-36.2620843511
 20
-21.3085089871
 10
-36.2915204959
 20
-21.2690469591
 10
-36.3182428511
 20
-21.2274372987
 10
-36.3418649641
 20
-21.1842949573
 10
-36.3623425085
 20
-21.1395761093
 10
-36.3797198108
 20
-21.0933245802
 10
-36.3937433972
 20
-21.0462867979
 10
-36.4043287766
 20
-20.9987115715
 10
-36.4115604401
 20
-20.9503500917
 10
-36.4154383877
 20
-20.9012023587
  0
LINE
  5
306
100
AcDbEntity
  8
0
100
AcDbLine
 62
253
  6
CONTINUOUS
 10
-31.8459497441
 20
-17.978868603
 11
-31.8688254644
 21
-17.9788686029
  0
LWPOLYLINE
  5
307
100
AcDbEntity
  8
0
100
AcDbPolyline
 62
253
  6
CONTINUOUS
 90
11
 70
0
 10
-35.7630261262
 20
21.979012441
 10
-35.7642462102
 20
21.9762104658
 10
-35.7651667479
 20
21.9679780687
 10
-35.7657776713
 20
21.9544052885
 10
-35.7660722988
 20
21.9356405723
 10
-35.7660474078
 20
21.9118891522
 10
-35.7657032702
 20
21.8834108004
 10
-35.7650436499
 20
21.8505169882
 10
-35.7640757613
 20
21.8135674793
 10
-35.7628101902
 20
21.772966395
 10
-35.7594444719
 20
21.6826208177
  0
LWPOLYLINE
  5
308
100
AcDbEntity
  8
0
100
AcDbPolyline
 62
253
  6
CONTINUOUS
 90
9
 70
0
 10
-35.7630261497
 20
-22.0697664435
 10
-35.7642462516
 20
-22.0669643982
 10
-35.765166798
 20
-22.0587318088
 10
-35.7657777217
 20
-22.0451587385
 10
-35.7660723422
 20
-22.0263936541
 10
-35.7660474379
 20
-22.0026418181
 10
-35.7657032826
 20
-21.9741630579
 10
-35.7650436424
 20
-21.9412688893
 10
-35.7640757342
 20
-21.904319105
  0
LWPOLYLINE
  5
309
100
AcDbEntity
  8
0
100
AcDbPolyline
 62
7
  6
CONTINUOUS
 90
4
 70
0
 10
-37.2511238043
 20
20.8247920355
 10
-37.3583128069
 20
18.6607320713
 10
-37.4574148108
 20
16.4080466236
 10
-37.5438175464
 20
14.1548440264
  0
LWPOLYLINE
  5
30A
100
AcDbEntity
  8
0
100
AcDbPolyline
 62
253
  6
CONTINUOUS
 90
22
 70
0
 10
-36.9007661889
 20
20.8318904788
 10
-36.8941974274
 20
20.9158981582
 10
-36.881743156
 20
20.9992325544
 10
-36.8634658562
 20
21.0814830533
 10
-36.8394579088
 20
21.1622389424
 10
-36.8098379372
 20
21.2411085121
 10
-36.7747463072
 20
21.3177195451
 10
-36.734349637
 20
21.3916989843
 10
-36.6888469569
 20
21.4626751409
 10
-36.6384630656
 20
21.5302957358
 10
-36.5834440055
 20
21.5942255661
 10
-36.5240585036
 20
21.6541483337
 10
-36.46059979
 20
21.7097670874
 10
-36.3933767143
 20
21.7608067129
 10
-36.322720185
 20
21.8070121553
 10
-36.2489849768
 20
21.8481508982
 10
-36.1725374883
 20
21.8840169262
 10
-36.0937496273
 20
21.9144344025
 10
-36.0130045119
 20
21.9392540529
 10
-35.9306973631
 20
21.9583508315
 10
-35.8472342997
 20
21.9716265035
 10
-35.7630261262
 20
21.979012441
  0
LWPOLYLINE
  5
30B
100
AcDbEntity
  8
0
100
AcDbPolyline
 62
253
  6
CONTINUOUS
 90
22
 70
0
 10
-36.4154383747
 20
20.8104483572
 10
-36.4115604214
 20
20.8595960901
 10
-36.4043287537
 20
20.9079575698
 10
-36.3937433715
 20
20.9555327962
 10
-36.379719784
 20
21.0025705786
 10
-36.362342482
 20
21.0488221076
 10
-36.3418649379
 20
21.0935409557
 10
-36.318242825
 20
21.1366832972
 10
-36.2915204699
 20
21.1782929576
 10
-36.2620843252
 20
21.2177549856
 10
-36.2298910867
 20
21.2550397034
 10
-36.1949840587
 20
21.2901767888
 10
-36.1578796058
 20
21.3226403239
 10
-36.1185450487
 20
21.352388661
 10
-36.0770130668
 20
21.3794634479
 10
-36.0338980637
 20
21.4034637091
 10
-35.9891547216
 20
21.4243446982
 10
-35.9428283583
 20
21.4421511616
 10
-35.8956693309
 20
21.4566163644
 10
-35.8479277587
 20
21.4676513949
 10
-35.7993535225
 20
21.4753451646
 10
-35.7499466222
 20
21.4796976737
  0
LWPOLYLINE
  5
30C
100
AcDbEntity
  8
0
100
AcDbPolyline
 62
253
  6
CONTINUOUS
 90
16
 70
0
 10
-37.3492887682
 20
0.7025793699
 10
-37.3465253229
 20
0.6495907751
 10
-37.3384798062
 20
0.598340214
 10
-37.3253696283
 20
0.5487100326
 10
-37.3070837329
 20
0.500378352
 10
-37.2836003534
 20
0.4536659623
 10
-37.2554438914
 20
0.4096948292
 10
-37.223066174
 20
0.3691540631
 10
-37.1865333905
 20
0.3321174669
 10
-37.1462975041
 20
0.299019213
 10
-37.1029482675
 20
0.2703773724
 10
-37.056898827
 20
0.2464557192
 10
-37.0085201444
 20
0.2274170777
 10
-36.9583592862
 20
0.2135187666
 10
-36.907124605
 20
0.2049731225
 10
-36.8554763497
 20
0.2018312217
  0
LWPOLYLINE
  5
30D
100
AcDbEntity
  8
0
100
AcDbPolyline
 62
253
  6
CONTINUOUS
 90
10
 70
0
 10
-36.9007662062
 20
-20.922644501
 10
-36.9948143041
 20
-18.6089963847
 10
-37.0765427744
 20
-16.3333786271
 10
-37.1464892627
 20
-14.095861038
 10
-37.2045665258
 20
-11.9217151739
 10
-37.2521339146
 20
-9.7857983873
 10
-37.2908820765
 20
-7.6125290925
 10
-37.3205879263
 20
-5.3767290498
 10
-37.340230844
 20
-3.1036486111
 10
-37.3492886883
 20
-0.7933333826
  0
LWPOLYLINE
  5
30E
100
AcDbEntity
  8
0
100
AcDbPolyline
 62
253
  6
CONTINUOUS
 90
10
 70
0
 10
-36.4154383877
 20
-20.9012023587
 10
-36.5086441336
 20
-18.5898376379
 10
-36.5905885903
 20
-16.3165919531
 10
-36.6612717581
 20
-14.0814653043
 10
-36.7201263122
 20
-11.9095924686
 10
-36.7677195773
 20
-9.775838669
 10
-36.8057535272
 20
-7.604799574
 10
-36.8347954865
 20
-5.3713404066
 10
-36.8542781306
 20
-3.100595944
 10
-36.8648186783
 20
-0.6896562676
  0
LWPOLYLINE
  5
30F
100
AcDbEntity
  8
0
100
AcDbPolyline
 62
7
  6
CONTINUOUS
 90
5
 70
0
 10
-37.6175180997
 20
-11.9919498607
 10
-37.5438175464
 20
-14.24559803
 10
-37.4574148108
 20
-16.4988006272
 10
-37.3583128069
 20
-18.751486075
 10
-37.2511238043
 20
-20.9155460392
  0
LWPOLYLINE
  5
310
100
AcDbEntity
  8
0
100
AcDbPolyline
 62
253
  6
CONTINUOUS
 90
3
 70
0
 10
-37.640213037
 20
-11.1287596091
 10
-37.6162649866
 20
-11.9620941464
 10
-37.5905817787
 20
-12.7953770018
  0
LINE
  5
311
100
AcDbEntity
  8
0
100
AcDbLine
 62
253
  6
CONTINUOUS
 10
-37.5691135895
 20
-13.5087555911
 11
-37.5680874028
 21
-13.5450627153
  0
LINE
  5
312
100
AcDbEntity
  8
0
100
AcDbLine
 62
253
  6
CONTINUOUS
 10
-37.6831346387
 20
-9.5453770018
 11
-37.678513556
 21
-9.7379277135
  0
LINE
  5
313
100
AcDbEntity
  8
0
100
AcDbLine
 62
7
  6
CONTINUOUS
 10
-37.678513556
 20
-9.7379277135
 11
-37.6175180997
 21
-11.9919498607
  0
LWPOLYLINE
  5
314
100
AcDbEntity
  8
0
100
AcDbPolyline
 62
253
  6
CONTINUOUS
 90
9
 70
0
 10
-36.8637686207
 20
0.3680237906
 10
-36.8631242218
 20
0.3308905745
 10
-36.8623476116
 20
0.2978247822
 10
-36.8614470586
 20
0.2691888727
 10
-36.860432499
 20
0.2453077871
 10
-36.8593153292
 20
0.226452826
 10
-36.8581079607
 20
0.2128326028
 10
-36.8568235881
 20
0.2045951629
 10
-36.8554763497
 20
0.2018312217
  0
LINE
  5
315
100
AcDbEntity
  8
0
100
AcDbLine
 62
253
  6
CONTINUOUS
 10
-36.864634994
 20
0.4528959584
 11
-36.8637686207
 21
0.3680237906
  0
LWPOLYLINE
  5
316
100
AcDbEntity
  8
0
100
AcDbPolyline
 62
7
  6
CONTINUOUS
 90
5
 70
0
 10
-37.795261081
 20
-0.7973821887
 10
-37.7852442991
 20
-2.9743335596
 10
-37.7623780431
 20
-5.2290479291
 10
-37.7268010006
 20
-7.4836031997
 10
-37.678513556
 20
-9.7379277135
  0
LINE
  5
317
100
AcDbEntity
  8
0
100
AcDbLine
 62
253
  6
CONTINUOUS
 10
-36.8649080386
 20
0.5485806491
 11
-36.864634994
 21
0.4528959584
  0
LINE
  5
318
100
AcDbEntity
  8
0
100
AcDbLine
 62
253
  6
CONTINUOUS
 10
-36.8648186783
 20
-0.6896562676
 11
-36.8648470203
 21
-0.590462517
  0
LWPOLYLINE
  5
319
100
AcDbEntity
  8
0
100
AcDbPolyline
 62
253
  6
CONTINUOUS
 90
10
 70
0
 10
-37.3492886893
 20
0.7025793735
 10
-37.3417126629
 20
2.7680036595
 10
-37.3250381433
 20
4.864154888
 10
-37.2988668249
 20
6.9909905492
 10
-37.2631026585
 20
9.1322172338
 10
-37.2171750436
 20
11.3040356414
 10
-37.1593091755
 20
13.5551249075
 10
-37.0878683402
 20
15.9016491664
 10
-37.0020832047
 20
18.3272721358
 10
-36.9007662068
 20
20.8318904797
  0
LINE
  5
31A
100
AcDbEntity
  8
0
100
AcDbLine
 62
253
  6
CONTINUOUS
 10
-36.8572915982
 20
2.7652244916
 11
-36.8649080386
 21
0.5485806491
  0
LWPOLYLINE
  5
31B
100
AcDbEntity
  8
0
100
AcDbPolyline
 62
253
  6
CONTINUOUS
 90
9
 70
0
 10
-36.8572915982
 20
2.7652244916
 10
-36.8404721375
 20
4.859229536
 10
-36.8137431742
 20
6.9838273163
 10
-36.7782095774
 20
9.1228479471
 10
-36.7327664781
 20
11.2924613139
 10
-36.6740992689
 20
13.5411770726
 10
-36.6011030807
 20
15.8851651088
 10
-36.5148827826
 20
18.308255537
 10
-36.4154383747
 20
20.8104483572
  0
LWPOLYLINE
  5
31C
100
AcDbEntity
  8
0
100
AcDbPolyline
 62
253
  6
CONTINUOUS
 90
11
 70
0
 10
-36.8648470203
 20
-0.590462517
 10
-36.8642738497
 20
-0.4995779311
 10
-36.8637685247
 20
-0.4587778783
 10
-36.8631241259
 20
-0.4216446416
 10
-36.8623475156
 20
-0.3885788316
 10
-36.8614469626
 20
-0.3599429093
 10
-36.860432403
 20
-0.3360618133
 10
-36.859315233
 20
-0.3172068431
 10
-36.8581078644
 20
-0.3035866122
 10
-36.8568234917
 20
-0.2953491674
 10
-36.8554762532
 20
-0.2925852245
  0
LWPOLYLINE
  5
31D
100
AcDbEntity
  8
0
100
AcDbPolyline
 62
7
  6
CONTINUOUS
 90
6
 70
0
 10
-37.6175180997
 20
11.901195857
 10
-37.678513556
 20
9.6471737098
 10
-37.7268010006
 20
7.3928491961
 10
-37.7623780431
 20
5.1382939254
 10
-37.7852442991
 20
2.883579556
 10
-37.795261081
 20
0.7066281851
  0
LINE
  5
31E
100
AcDbEntity
  8
0
100
AcDbLine
 62
253
  6
CONTINUOUS
 10
-37.6162649866
 20
11.8713401428
 11
-37.640213037
 21
11.0380056055
  0
LINE
  5
31F
100
AcDbEntity
  8
0
100
AcDbLine
 62
253
  6
CONTINUOUS
 10
-37.678513556
 20
9.6471737098
 11
-37.6830514826
 21
9.4574295308
  0
LINE
  5
320
100
AcDbEntity
  8
0
100
AcDbLine
 62
253
  6
CONTINUOUS
 10
-37.5680874026
 20
13.4543087179
 11
-37.5912430939
 21
12.704644625
  0
LINE
  5
321
100
AcDbEntity
  8
0
100
AcDbLine
 62
253
  6
CONTINUOUS
 10
-37.6175180997
 20
11.901195857
 11
-37.6162649866
 21
11.8713401428
  0
LINE
  5
322
100
AcDbEntity
  8
0
100
AcDbLine
 62
7
  6
CONTINUOUS
 10
-37.5438175464
 20
14.1548440264
 11
-37.6175180997
 21
11.901195857
  0
LWPOLYLINE
  5
323
100
AcDbEntity
  8
0
100
AcDbPolyline
 62
253
  6
CONTINUOUS
 90
16
 70
0
 10
-37.349288671
 20
-0.7933333848
 10
-37.3465254486
 20
-0.7403467871
 10
-37.338480495
 20
-0.6890978997
 10
-37.325371138
 20
-0.6394690502
 10
-37.3070862741
 20
-0.5911383757
 10
-37.2836040641
 20
-0.5444266454
 10
-37.2554487411
 20
-0.5004557297
 10
-37.2230719533
 20
-0.4599146902
 10
-37.1865398129
 20
-0.4228774296
 10
-37.146304223
 20
-0.3897782474
 10
-37.1029548276
 20
-0.3611352909
 10
-37.0569047359
 20
-0.3372124573
 10
-37.0085250228
 20
-0.3181727433
 10
-36.9583628183
 20
-0.3042735712
 10
-36.9071264614
 20
-0.2957273465
 10
-36.8554762532
 20
-0.2925852245
  0
LINE
  5
324
100
AcDbEntity
  8
0
100
AcDbLine
 62
253
  6
CONTINUOUS
 10
-35.7550933375
 20
21.583421932
 11
-35.7499466222
 21
21.4796976737
  0
LINE
  5
325
100
AcDbEntity
  8
0
100
AcDbLine
 62
253
  6
CONTINUOUS
 10
-35.7594444719
 20
21.6826208177
 11
-35.7550933375
 21
21.583421932
  0
LINE
  5
326
100
AcDbEntity
  8
0
100
AcDbLine
 62
253
  6
CONTINUOUS
 10
-35.7640757342
 20
-21.904319105
 11
-35.7612607238
 21
-21.8199092785
  0
LINE
  5
327
100
AcDbEntity
  8
0
100
AcDbLine
 62
253
  6
CONTINUOUS
 10
-35.7612607238
 20
-21.8199092785
 11
-35.7573810832
 21
-21.7246164565
  0
LWPOLYLINE
  5
328
100
AcDbEntity
  8
0
100
AcDbPolyline
 62
253
  6
CONTINUOUS
 90
3
 70
0
 10
-35.7573810832
 20
-21.7246164565
 10
-35.752606086
 20
-21.6225981644
 10
-35.7499466457
 20
-21.5704516761
  0
LINE
  5
329
100
AcDbEntity
  8
0
100
AcDbLine
 62
253
  6
CONTINUOUS
 10
-37.3492886883
 20
-0.7933333826
 11
-37.795261081
 21
-0.797382184
  0
LINE
  5
32A
100
AcDbEntity
  8
0
100
AcDbLine
 62
253
  6
CONTINUOUS
 10
-31.4459497441
 20
-0.7452818196
 11
-36.8642014596
 21
-0.792566186
  0
LINE
  5
32B
100
AcDbEntity
  8
0
100
AcDbLine
 62
7
  6
CONTINUOUS
 10
-31.4459497441
 20
-0.2453770018
 11
-37.2996302346
 21
-0.2964612976
  0
LINE
  5
32C
100
AcDbEntity
  8
0
100
AcDbLine
 62
253
  6
CONTINUOUS
 10
-36.8642014583
 20
-0.792566186
 11
-37.349288671
 21
-0.7933333848
  0
LINE
  5
32D
100
AcDbEntity
  8
0
100
AcDbLine
 62
7
  6
CONTINUOUS
 10
-37.2996302346
 20
0.2057072939
 11
-31.4459497441
 21
0.1546229982
  0
LINE
  5
32E
100
AcDbEntity
  8
0
100
AcDbLine
 62
7
  6
CONTINUOUS
 10
-31.8459497441
 20
17.8881123656
 11
-31.8459497441
 21
17.6266439193
  0
LINE
  5
32F
100
AcDbEntity
  8
0
100
AcDbLine
 62
7
  6
CONTINUOUS
 10
-31.8459497441
 20
-17.7173979229
 11
-31.8459497441
 21
-17.9788663256
  0
LINE
  5
330
100
AcDbEntity
  8
0
100
AcDbLine
 62
7
  6
CONTINUOUS
 10
-31.4459497441
 20
13.0546229982
 11
-31.4459497441
 21
0.1546229982
  0
LINE
  5
331
100
AcDbEntity
  8
0
100
AcDbLine
 62
7
  6
CONTINUOUS
 10
-31.4459497441
 20
-13.1453770018
 11
-31.4459497441
 21
-0.2453770018
  0
LINE
  5
332
100
AcDbEntity
  8
0
100
AcDbLine
 62
253
  6
CONTINUOUS
 10
-37.3492887682
 20
0.7025793699
 11
-36.8642015548
 21
0.7018121832
  0
LINE
  5
333
100
AcDbEntity
  8
0
100
AcDbLine
 62
253
  6
CONTINUOUS
 10
-36.8642015564
 20
0.7018121832
 11
-31.4459497441
 21
0.654527816
  0
LINE
  5
334
100
AcDbEntity
  8
0
100
AcDbLine
 62
253
  6
CONTINUOUS
 10
-37.795261081
 20
0.7066281803
 11
-37.3492886893
 21
0.7025793735
  0
LINE
  5
335
100
AcDbEntity
  8
0
100
AcDbLine
 62
7
  6
CONTINUOUS
 10
-32.2428728567
 20
22.1634958566
 11
-31.4459497441
 21
13.0546229982
  0
LINE
  5
336
100
AcDbEntity
  8
0
100
AcDbLine
 62
7
  6
CONTINUOUS
 10
-31.4459497441
 20
-13.1453770018
 11
-32.2428728567
 21
-22.2542498603
  0
LINE
  5
337
100
AcDbEntity
  8
0
100
AcDbLine
 62
253
  6
CONTINUOUS
 10
-31.8459497441
 20
17.8881145994
 11
-31.8688254645
 21
17.8881145994
  0
LWPOLYLINE
  5
338
100
AcDbEntity
  8
0
100
AcDbPolyline
 62
253
  6
CONTINUOUS
 90
4
 70
0
 10
-36.9007534354
 20
20.8318899646
 10
-36.8950493578
 20
20.831588952
 10
-36.8845681203
 20
20.8310829628
 10
-36.4154383747
 20
20.8104483572
  0
LINE
  5
339
100
AcDbEntity
  8
0
100
AcDbLine
 62
253
  6
CONTINUOUS
 10
-35.7499466222
 20
21.4796976737
 11
-32.1993281606
 21
21.6657777023
  0
LINE
  5
33A
100
AcDbEntity
  8
0
100
AcDbLine
 62
7
  6
CONTINUOUS
 10
-36.115565137
 20
21.9605366544
 11
-32.2428728567
 21
22.1634958566
  0
LINE
  5
33B
100
AcDbEntity
  8
0
100
AcDbLine
 62
253
  6
CONTINUOUS
 10
-36.9007662068
 20
20.8318904797
 11
-37.2511238088
 21
20.8247919484
  0
ARC
  5
33C
100
AcDbEntity
  8
0
100
AcDbCircle
 62
7
  6
CONTINUOUS
 10
-36.0527581975
 20
-20.8529354151
 40
1.2
100
AcDbArc
 50
182.9907948827
 51
267.0
  0
ARC
  5
33D
100
AcDbEntity
  8
0
100
AcDbCircle
 62
7
  6
CONTINUOUS
 10
-36.0527581975
 20
20.7621814114
 40
1.2
100
AcDbArc
 50
93.0
 51
177.0092051173
  0
ARC
  5
33E
100
AcDbEntity
  8
0
100
AcDbCircle
 62
7
  6
CONTINUOUS
 10
-37.2952571991
 20
-0.7964421739
 40
0.5
100
AcDbArc
 50
90.5
 51
180.1077168055
  0
ARC
  5
33F
100
AcDbEntity
  8
0
100
AcDbCircle
 62
7
  6
CONTINUOUS
 10
-37.2952571991
 20
0.7056881702
 40
0.5
100
AcDbArc
 50
179.8922831945
 51
269.5
  0
ARC
  5
340
100
AcDbEntity
  8
0
100
AcDbCircle
 62
7
  6
CONTINUOUS
 10
-32.1459497441
 20
-17.978868603
 40
0.3
100
AcDbArc
 50
334.9999285842
 51
0.0004349533
  0
ARC
  5
341
100
AcDbEntity
  8
0
100
AcDbCircle
 62
7
  6
CONTINUOUS
 10
-32.1459497441
 20
17.8881145994
 40
0.3
100
AcDbArc
 50
359.9995650467
 51
25.0000767071
  0
ELLIPSE
  5
342
100
AcDbEntity
  8
0
100
AcDbEllipse
 62
7
  6
CONTINUOUS
 10
3.4654899991
 20
22.1371307141
 30
0.0
 11
0.2
 21
0.0
 31
0.0
 40
0.0524077793
 41
-2.617993878
 42
-1.5707963268
  0
ELLIPSE
  5
343
100
AcDbEntity
  8
0
100
AcDbEllipse
 62
7
  6
CONTINUOUS
 10
6.8345498914
 20
22.1371307141
 30
0.0
 11
0.2
 21
-0.0
 31
0.0
 40
0.0524077793
 41
-1.5707963268
 42
-0.5235987756
  0
ELLIPSE
  5
344
100
AcDbEntity
  8
0
100
AcDbEllipse
 62
7
  6
CONTINUOUS
 10
-4.3654501086
 20
22.1371307141
 30
0.0
 11
0.2
 21
0.0
 31
0.0
 40
0.0524077793
 41
-1.5707963268
 42
-0.5235987756
  0
ELLIPSE
  5
345
100
AcDbEntity
  8
0
100
AcDbEllipse
 62
7
  6
CONTINUOUS
 10
-7.7345100009
 20
22.1371307141
 30
0.0
 11
0.2
 21
-0.0
 31
0.0
 40
0.0524077793
 41
-2.617993878
 42
-1.5707963268
  0
ELLIPSE
  5
346
100
AcDbEntity
  8
0
100
AcDbEllipse
 62
7
  6
CONTINUOUS
 10
-10.975178782
 20
0.6546420374
 30
0.0
 11
0.4745319423
 21
0.1581451893
 31
0.0
 40
0.9996192872
 41
2.8200172282
 42
4.3905851209
  0
ELLIPSE
  5
347
100
AcDbEntity
  8
0
100
AcDbEllipse
 62
7
  6
CONTINUOUS
 10
10.0752186725
 20
0.6546420374
 30
0.0
 11
0.4745319423
 21
-0.1581451893
 31
0.0
 40
0.9996192872
 41
-1.2489924673
 42
0.3215754254
  0
ELLIPSE
  5
348
100
AcDbEntity
  8
0
100
AcDbEllipse
 62
7
  6
CONTINUOUS
 10
-10.9554524382
 20
21.6650948952
 30
0.0
 11
0.4962344879
 21
0.0628595572
 31
0.0
 40
0.9963456432
 41
1.4443370775
 42
3.0137634083
  0
ELLIPSE
  5
349
100
AcDbEntity
  8
0
100
AcDbEllipse
 62
7
  6
CONTINUOUS
 10
10.0554923287
 20
21.6650948952
 30
0.0
 11
0.4962344879
 21
-0.0628595572
 31
0.0
 40
0.9963456432
 41
0.1278292453
 42
1.6972555761
  0
ELLIPSE
  5
34A
100
AcDbEntity
  8
0
100
AcDbEllipse
 62
7
  6
CONTINUOUS
 10
-4.3654501086
 20
-22.2278847178
 30
0.0
 11
0.2
 21
-0.0
 31
0.0
 40
0.0524077793
 41
0.5235987756
 42
1.5707963268
  0
ELLIPSE
  5
34B
100
AcDbEntity
  8
0
100
AcDbEllipse
 62
7
  6
CONTINUOUS
 10
-7.7345100009
 20
-22.2278847178
 30
0.0
 11
0.2
 21
0.0
 31
0.0
 40
0.0524077793
 41
1.5707963268
 42
2.617993878
  0
ELLIPSE
  5
34C
100
AcDbEntity
  8
0
100
AcDbEllipse
 62
7
  6
CONTINUOUS
 10
3.4654899991
 20
-22.2278847178
 30
0.0
 11
0.2
 21
0.0
 31
0.0
 40
0.0524077793
 41
1.5707963268
 42
2.617993878
  0
ELLIPSE
  5
34D
100
AcDbEntity
  8
0
100
AcDbEllipse
 62
7
  6
CONTINUOUS
 10
6.8345498914
 20
-22.2278847178
 30
0.0
 11
0.2
 21
0.0
 31
0.0
 40
0.0524077793
 41
0.5235987756
 42
1.5707963268
  0
ELLIPSE
  5
34E
100
AcDbEntity
  8
0
100
AcDbEllipse
 62
7
  6
CONTINUOUS
 10
10.0752186725
 20
-0.745396041
 30
0.0
 11
0.4745319423
 21
0.1581451893
 31
0.0
 40
0.9996192872
 41
-0.3215754254
 42
1.2489924673
  0
ELLIPSE
  5
34F
100
AcDbEntity
  8
0
100
AcDbEllipse
 62
7
  6
CONTINUOUS
 10
-10.975178782
 20
-0.745396041
 30
0.0
 11
0.4745319423
 21
-0.1581451893
 31
0.0
 40
0.9996192872
 41
1.8926001863
 42
3.463168079
  0
ELLIPSE
  5
350
100
AcDbEntity
  8
0
100
AcDbEllipse
 62
7
  6
CONTINUOUS
 10
10.0554923287
 20
-21.7558488988
 30
0.0
 11
0.4962344879
 21
0.0628595572
 31
0.0
 40
0.9963456432
 41
-1.6972555761
 42
-0.1278292453
  0
ELLIPSE
  5
351
100
AcDbEntity
  8
0
100
AcDbEllipse
 62
7
  6
CONTINUOUS
 10
-10.9554524382
 20
-21.7558488988
 30
0.0
 11
0.4962344879
 21
-0.0628595572
 31
0.0
 40
0.9963456432
 41
-3.0137634083
 42
-1.4443370775
  0
ENDSEC
  0
SECTION
  2
OBJECTS
  0
DICTIONARY
  5
C
100
AcDbDictionary
280
0
281
1
  3
ACAD_GROUP
350
D
  3
ACAD_MLINESTYLE
350
17
  3
ACAD_LAYOUT
350
1A
  3
ACAD_PLOTSETTINGS
350
19
  3
ACAD_PLOTSTYLENAME
350
E
  0
DICTIONARY
  5
D
102
{ACAD_REACTORS
330
C
102
}
100
AcDbDictionary
280
0
281
1
  0
ACDBDICTIONARYWDFLT
  5
E
102
{ACAD_REACTORS
330
C
102
}
100
AcDbDictionary
281
1
  3
Normal
350
F
100
AcDbDictionaryWithDefault
340
F
  0
DICTIONARY
  5
17
102
{ACAD_REACTORS
330
C
102
}
100
AcDbDictionary
280
0
281
1
  3
Standard
350
18
  0
DICTIONARY
  5
19
102
{ACAD_REACTORS
330
C
102
}
100
AcDbDictionary
281
1
  0
DICTIONARY
  5
1A
102
{ACAD_REACTORS
330
C
102
}
100
AcDbDictionary
281
1
  3
Model
350
352
  3
Layout1
350
353
  0
ACDBPLACEHOLDER
  5
F
102
{ACAD_REACTORS
330
E
102
}
  0
MLINESTYLE
  5
18
102
{ACAD_REACTORS
330
17
102
}
100
AcDbMlineStyle
  2
STANDARD
 70
0
  3

 62
256
 51
90.0
 52
90.0
 71
2
 49
0.5
 62
256
  6
BYLAYER
 49
-0.5
 62
256
  6
BYLAYER
  0
LAYOUT
  5
352
102
{ACAD_REACTORS
330
1A
102
}
100
AcDbPlotSettings
  1

  2
none_device
  4
ISO_A4_(297.00_x_210.00_MM)
  6

 40
0.0
 41
0.0
 42
0.0
 43
0.0
 44
297.0
 45
210.0
 46
0.0
 47
0.0
 48
0.0
 49
0.0
140
0.0
141
0.0
142
1.0
143
1.0
 70
1024
 72
1
 73
0
 74
0
  7

 75
0
147
1.0
148
0.0
149
0.0
100
AcDbLayout
  1
Model
 70
0
 71
0
 10
0.0
 20
0.0
 11
297.0
 21
210.0
 12
0.0
 22
0.0
 32
0.0
 14
0.0
 24
0.0
 34
0.0
 15
0.0
 25
0.0
 35
0.0
146
0.0
 13
0.0
 23
0.0
 33
0.0
 16
1.0
 26
0.0
 36
0.0
 17
0.0
 27
1.0
 37
0.0
 76
0
330
21E
345
0
346
0
  0
LAYOUT
  5
353
102
{ACAD_REACTORS
330
1A
102
}
100
AcDbPlotSettings
  1

  2
none_device
  4
ISO_A4_(297.00_x_210.00_MM)
  6

 40
0.0
 41
0.0
 42
0.0
 43
0.0
 44
297.0
 45
210.0
 46
0.0
 47
0.0
 48
0.0
 49
0.0
140
0.0
141
0.0
142
1.0
143
1.0
 70
0
 72
1
 73
0
 74
0
  7

 75
0
147
1.0
148
0.0
149
0.0
100
AcDbLayout
  1
Layout1
 70
0
 71
1
 10
0.0
 20
0.0
 11
297.0
 21
210.0
 12
0.0
 22
0.0
 32
0.0
 14
0.0
 24
0.0
 34
0.0
 15
0.0
 25
0.0
 35
0.0
146
0.0
 13
0.0
 23
0.0
 33
0.0
 16
1.0
 26
0.0
 36
0.0
 17
0.0
 27
1.0
 37
0.0
 76
0
330
21F
345
0
346
0
  0
ENDSEC
  0
EOF
