  0
SECTION
  2
HEADER
  9
$ACADVER
  1
AC1024
  9
$DWGCODEPAGE
  3
ANSI_1252
  9
$EXTMAX
 10
420.0
 20
297.0
 30
0.0
  9
$EXTMIN
 10
0.0
 20
0.0
 30
0.0
  9
$LIMMIN
 10
0.0
 20
0.0
  9
$LIMMAX
 10
420.0
 20
297.0
  9
$VIEWCTR
 10
210.0
 20
148.5
  9
$VIEWSIZE
 40
297.0
  9
$CLAYER
  8
0
  9
$LTSCALE
 40
23.1
  9
$CELTYPE
  6
BYLAYER
  9
$DIMSCALE
 40
1.0
  9
$DIMASZ
 40
3.0
  9
$DIMEXO
 40
0.5
  9
$DIMDLI
 40
15.96
  9
$DIMEXE
 40
1.5
  9
$DIMCEN
 40
3.78
  9
$DIMLFAC
 40
1.0
  9
$DIMBLK
  1
_FILLED
  9
$DIMALT
 70
0
  9
$DIMALTF
 40
0.0393700787
  9
$DIMTXT
 40
3.0
  9
$DIMTOL
 70
1
  9
$DIMLIM
 70
0
  9
$DIMTFAC
 40
1.0
  9
$DIMTP
 40
0.01
  9
$DIMTM
 40
0.01
  9
$DIMGAP
 40
0.625
  9
$DIMDSEP
 70
44
  9
$AUNITS
 70
0
  9
$PDMODE
 70
3
  9
$PDSIZE
 40
3.0
  9
$HANDSEED
  5
456
  9
$TILEMODE
 70
1
  9
$MEASUREMENT
 70
1
  9
$INSUNITS
 70
4
  0
ENDSEC
  0
SECTION
  2
CLASSES
  0
CLASS
  1
ACDBDICTIONARYWDFLT
  2
AcDbDictionaryWithDefault
  3
AutoCAD 2000
 90
0
 91
1
280
0
281
0
  0
CLASS
  1
ACDBPLACEHOLDER
  2
AcDbPlaceHolder
  3
AutoCAD 2000
 90
0
 91
1
280
0
281
0
  0
CLASS
  1
LAYOUT
  2
AcDbLayout
  3
AutoCAD 2000
 90
0
 91
0
280
0
281
0
  0
ENDSEC
  0
SECTION
  2
TABLES
  0
TABLE
  2
VPORT
  5
8
100
AcDbSymbolTable
 70
2
  0
VPORT
  5
1F4
100
AcDbSymbolTableRecord
100
AcDbViewportTableRecord
  2
*ACTIVE
 70
0
 10
0.0
 20
0.0
 11
1.0
 21
1.0
 12
210.0
 22
148.5
 13
0.0
 23
0.0
 14
1.0
 24
1.0
 15
0.0
 25
0.0
 16
0.0
 26
0.0
 36
1.0
 17
0.0
 27
0.0
 37
0.0
 40
297.0
 41
1.4141414141
 42
50.0
 43
0.0
 44
0.0
 50
0.0
 51
0.0
 71
0
 72
100
 73
1
 74
1
 75
0
 76
0
 77
0
 78
0
  0
ENDTAB
  0
TABLE
  2
LTYPE
  5
5
100
AcDbSymbolTable
 70
6
  0
LTYPE
  5
14
100
AcDbSymbolTableRecord
100
AcDbLinetypeTableRecord
  2
BYBLOCK
 70
0
  3

 72
65
 73
0
 40
0.0
  0
LTYPE
  5
15
100
AcDbSymbolTableRecord
100
AcDbLinetypeTableRecord
  2
BYLAYER
 70
0
  3

 72
65
 73
0
 40
0.0
  0
LTYPE
  5
16
100
AcDbSymbolTableRecord
100
AcDbLinetypeTableRecord
  2
CONTINUOUS
 70
64
  3
Solid line
 72
65
 73
0
 40
0.0
  0
LTYPE
  5
1F5
100
AcDbSymbolTableRecord
100
AcDbLinetypeTableRecord
  2
CENTER
 70
64
  3
____ _ ____ _ ____ _ ____ _ ____ _ ____ _ ____
 72
65
 73
4
 40
0.6
 49
0.375
 74
0
 49
-0.075
 74
0
 49
0.075
 74
0
 49
-0.075
 74
0
  0
LTYPE
  5
1F6
100
AcDbSymbolTableRecord
100
AcDbLinetypeTableRecord
  2
HIDDEN
 70
64
  3
- - - - - - - - - - - - - - - - - - - -
 72
65
 73
2
 40
0.2
 49
0.1
 74
0
 49
-0.1
 74
0
  0
LTYPE
  5
1F7
100
AcDbSymbolTableRecord
100
AcDbLinetypeTableRecord
  2
PHANTOM
 70
64
  3
_____ _ _ _____ _ _ _____ _ _ _____
 72
65
 73
6
 40
0.8
 49
0.45
 74
0
 49
-0.05
 74
0
 49
0.1
 74
0
 49
-0.05
 74
0
 49
0.1
 74
0
 49
-0.05
 74
0
  0
LTYPE
  5
1F8
100
AcDbSymbolTableRecord
100
AcDbLinetypeTableRecord
  2
DOT
 70
64
  3
. . . . . . . . . . . . . . . . . . . .
 72
65
 73
2
 40
0.2
 49
0.1
 74
0
 49
-0.1
 74
0
  0
LTYPE
  5
1F9
100
AcDbSymbolTableRecord
100
AcDbLinetypeTableRecord
  2
DASHED
 70
64
  3
- - - - - - - - - - - - - - - - - - - -
 72
65
 73
2
 40
0.2
 49
0.1
 74
0
 49
-0.1
 74
0
  0
ENDTAB
  0
TABLE
  2
LAYER
  5
2
100
AcDbSymbolTable
 70
36
  0
LAYER
  5
10
100
AcDbSymbolTableRecord
100
AcDbLayerTableRecord
  2
0
 70
0
 62
7
  6
CONTINUOUS
370
-3
390
F
  0
LAYER
  5
1FA
100
AcDbSymbolTableRecord
100
AcDbLayerTableRecord
  2
DEFAULT_1
 70
0
 62
7
  6
CENTER
370
-3
390
F
  0
LAYER
  5
1FB
100
AcDbSymbolTableRecord
100
AcDbLayerTableRecord
  2
DEFAULT_2
 70
0
 62
7
  6
HIDDEN
370
-3
390
F
  0
LAYER
  5
1FC
100
AcDbSymbolTableRecord
100
AcDbLayerTableRecord
  2
DEFAULT_3
 70
0
 62
7
  6
PHANTOM
370
-3
390
F
  0
LAYER
  5
1FD
100
AcDbSymbolTableRecord
100
AcDbLayerTableRecord
  2
ASSI
 70
0
 62
7
  6
CONTINUOUS
370
-3
390
F
  0
LAYER
  5
1FE
100
AcDbSymbolTableRecord
100
AcDbLayerTableRecord
  2
COORDINATE
 70
0
 62
7
  6
CONTINUOUS
370
-3
390
F
  0
LAYER
  5
1FF
100
AcDbSymbolTableRecord
100
AcDbLayerTableRecord
  2
COPY_PUBLISH
 70
0
 62
7
  6
CONTINUOUS
370
-3
390
F
  0
LAYER
  5
200
100
AcDbSymbolTableRecord
100
AcDbLayerTableRecord
  2
COSMETIC
 70
0
 62
7
  6
CONTINUOUS
370
-3
390
F
  0
LAYER
  5
201
100
AcDbSymbolTableRecord
100
AcDbLayerTableRecord
  2
COSMETICI
 70
0
 62
7
  6
CONTINUOUS
370
-3
390
F
  0
LAYER
  5
202
100
AcDbSymbolTableRecord
100
AcDbLayerTableRecord
  2
CURVE
 70
0
 62
7
  6
CONTINUOUS
370
-3
390
F
  0
LAYER
  5
203
100
AcDbSymbolTableRecord
100
AcDbLayerTableRecord
  2
CURVE_VERN
 70
0
 62
7
  6
CONTINUOUS
370
-3
390
F
  0
LAYER
  5
204
100
AcDbSymbolTableRecord
100
AcDbLayerTableRecord
  2
DRAFT
 70
0
 62
7
  6
CONTINUOUS
370
-3
390
F
  0
LAYER
  5
205
100
AcDbSymbolTableRecord
100
AcDbLayerTableRecord
  2
IMPORT_IGES
 70
0
 62
7
  6
CONTINUOUS
370
-3
390
F
  0
LAYER
  5
206
100
AcDbSymbolTableRecord
100
AcDbLayerTableRecord
  2
INTFCLR_1
 70
0
 62
7
  6
CONTINUOUS
370
-3
390
F
  0
LAYER
  5
207
100
AcDbSymbolTableRecord
100
AcDbLayerTableRecord
  2
INTF_1
 70
0
 62
7
  6
CONTINUOUS
370
-3
390
F
  0
LAYER
  5
208
100
AcDbSymbolTableRecord
100
AcDbLayerTableRecord
  2
NOTE
 70
0
 62
7
  6
CONTINUOUS
370
-3
390
F
  0
LAYER
  5
209
100
AcDbSymbolTableRecord
100
AcDbLayerTableRecord
  2
PIANI
 70
0
 62
7
  6
CONTINUOUS
370
-3
390
F
  0
LAYER
  5
20A
100
AcDbSymbolTableRecord
100
AcDbLayerTableRecord
  2
PUNTI
 70
0
 62
7
  6
CONTINUOUS
370
-3
390
F
  0
LAYER
  5
20B
100
AcDbSymbolTableRecord
100
AcDbLayerTableRecord
  2
RACCORDO
 70
0
 62
7
  6
CONTINUOUS
370
-3
390
F
  0
LAYER
  5
20C
100
AcDbSymbolTableRecord
100
AcDbLayerTableRecord
  2
RGB____0____0____0__
 70
0
 62
7
  6
CONTINUOUS
370
-3
390
F
  0
LAYER
  5
20D
100
AcDbSymbolTableRecord
100
AcDbLayerTableRecord
  2
SIMBOLI
 70
0
 62
7
  6
CONTINUOUS
370
-3
390
F
  0
LAYER
  5
20E
100
AcDbSymbolTableRecord
100
AcDbLayerTableRecord
  2
SMUSSO
 70
0
 62
7
  6
CONTINUOUS
370
-3
390
F
  0
LAYER
  5
20F
100
AcDbSymbolTableRecord
100
AcDbLayerTableRecord
  2
SNAPLINE
 70
0
 62
7
  6
CONTINUOUS
370
-3
390
F
  0
LAYER
  5
210
100
AcDbSymbolTableRecord
100
AcDbLayerTableRecord
  2
SUPERFICI
 70
0
 62
7
  6
CONTINUOUS
370
-3
390
F
  0
LAYER
  5
211
100
AcDbSymbolTableRecord
100
AcDbLayerTableRecord
  2
TRASH
 70
0
 62
7
  6
CONTINUOUS
370
-3
390
F
  0
LAYER
  5
212
100
AcDbSymbolTableRecord
100
AcDbLayerTableRecord
  2
XSEC_DATUMS
 70
0
 62
7
  6
CONTINUOUS
370
-3
390
F
  0
ENDTAB
  0
TABLE
  2
STYLE
  5
3
100
AcDbSymbolTable
 70
1
  0
STYLE
  5
11
100
AcDbSymbolTableRecord
100
AcDbTextStyleTableRecord
  2
STANDARD
 70
0
 40
0.0
 41
0.8
 50
0.0
 71
0
 42
0.2
  3
txt
  4

  0
STYLE
  5
213
100
AcDbSymbolTableRecord
100
AcDbTextStyleTableRecord
  2
TEXTSTYLE_1
 70
0
 40
0.0
 41
0.8
 50
0.0
 71
0
 42
0.2
  3
gdt
  4

  0
ENDTAB
  0
TABLE
  2
VIEW
  5
6
100
AcDbSymbolTable
 70
0
  0
ENDTAB
  0
TABLE
  2
UCS
  5
7
100
AcDbSymbolTable
 70
0
  0
ENDTAB
  0
TABLE
  2
APPID
  5
9
100
AcDbSymbolTable
 70
1
  0
APPID
  5
214
100
AcDbSymbolTableRecord
100
AcDbRegAppTableRecord
  2
ACAD
 70
0
  0
ENDTAB
  0
TABLE
  2
BLOCK_RECORD
  5
1
100
AcDbSymbolTable
 70
0
  0
BLOCK_RECORD
  5
215
100
AcDbSymbolTableRecord
100
AcDbBlockTableRecord
  2
*Model_Space
  0
BLOCK_RECORD
  5
216
100
AcDbSymbolTableRecord
100
AcDbBlockTableRecord
  2
*Paper_Space
  0
BLOCK_RECORD
  5
217
100
AcDbSymbolTableRecord
100
AcDbBlockTableRecord
  2
_FILLED
  0
BLOCK_RECORD
  5
218
100
AcDbSymbolTableRecord
100
AcDbBlockTableRecord
  2
*D0
  0
BLOCK_RECORD
  5
219
100
AcDbSymbolTableRecord
100
AcDbBlockTableRecord
  2
*D1
  0
BLOCK_RECORD
  5
21A
100
AcDbSymbolTableRecord
100
AcDbBlockTableRecord
  2
*D2
  0
ENDTAB
  0
TABLE
  2
DIMSTYLE
  5
A
100
AcDbSymbolTable
 70
1
100
AcDbDimStyleTable
 71
0
  0
DIMSTYLE
105
21B
100
AcDbSymbolTableRecord
100
AcDbDimStyleTableRecord
  2
STANDARD
 70
0
  3

  4

 40
1.0
 41
3.0
 42
0.5
 43
0.38
 44
1.5
 45
0.0
 46
0.0
 47
0.01
 48
0.01
140
3.0
141
0.09
142
0.0
143
25.4
144
1.0
145
0.0
146
1.0
147
0.625
 71
1.0
 72
0.0
 73
0
 74
0
 75
0
 76
0
 77
1
 78
8
 79
2
170
0
171
1
172
0
173
0
174
0
175
0
176
0
177
0
178
0
270
2
179
2
271
2
272
2
273
2
274
2
275
0
280
0
281
0
282
0
283
1
284
8
285
0
286
0
287
3
288
0
340
11
278
44
341
217
342
217
343
217
344
217
  0
DIMSTYLE
105
21C
100
AcDbSymbolTableRecord
100
AcDbDimStyleTableRecord
  2
DIMSTYLE_1
 70
0
  3

  4

 40
1.0
 41
3.0
 42
0.5
 43
0.38
 44
1.5
 45
0.0
 46
0.0
 47
0.0
 48
0.0
140
3.0
141
0.09
142
0.0
143
25.4
144
1.0
145
0.0
146
1.0
147
0.75
 71
0.0
 72
0.0
 73
0
 74
0
 75
0
 76
0
 77
1
 78
8
 79
2
170
0
171
1
172
0
173
0
174
0
175
0
176
0
177
0
178
0
270
2
179
2
271
2
272
2
273
2
274
2
275
0
280
0
281
0
282
0
283
1
284
8
285
0
286
0
287
3
288
0
340
11
278
44
341
217
342
217
343
217
344
217
  0
DIMSTYLE
105
21D
100
AcDbSymbolTableRecord
100
AcDbDimStyleTableRecord
  2
DIMSTYLE_2
 70
0
  3

  4

 40
1.0
 41
3.0
 42
0.5
 43
0.38
 44
1.5
 45
0.0
 46
0.0
 47
0.0
 48
0.0
140
3.0
141
0.09
142
0.0
143
25.4
144
1.0
145
0.0
146
1.0
147
0.75
 71
0.0
 72
0.0
 73
0
 74
0
 75
0
 76
0
 77
1
 78
8
 79
2
170
0
171
1
172
0
173
0
174
0
175
0
176
0
177
0
178
0
270
2
179
2
271
1
272
1
273
2
274
2
275
0
280
0
281
0
282
0
283
1
284
8
285
0
286
0
287
3
288
0
340
11
278
44
341
217
342
217
343
217
344
217
  0
ENDTAB
  0
ENDSEC
  0
SECTION
  2
BLOCKS
  0
BLOCK
  5
20
100
AcDbEntity
  8
0
100
AcDbBlockBegin
  2
*Model_Space
 70
0
 10
0.0
 20
0.0
 30
0.0
  3
*Model_Space
  1

  0
ENDBLK
  5
21
100
AcDbEntity
  8
0
100
AcDbBlockEnd
  0
BLOCK
  5
1C
100
AcDbEntity
  8
0
100
AcDbBlockBegin
  2
*Paper_Space
 70
0
 10
0.0
 20
0.0
 30
0.0
  3
*Paper_Space
  1

  0
ENDBLK
  5
1D
100
AcDbEntity
  8
0
100
AcDbBlockEnd
  0
BLOCK
  5
21E
100
AcDbEntity
  8
0
100
AcDbBlockBegin
  2
_FILLED
 70
64
 10
0.0
 20
0.0
  3
_FILLED
  1

  0
SOLID
  5
21F
100
AcDbEntity
  8
0
  6
BYBLOCK
 62
0
100
AcDbTrace
 10
0.0
 20
0.0
 11
-1.0
 21
0.3166666667
 12
-1.0
 22
-0.3166666667
 13
-1.0
 23
-0.3166666667
  0
ENDBLK
  5
220
100
AcDbEntity
  8
0
  6
BYBLOCK
 62
0
100
AcDbBlockEnd
  0
BLOCK
  5
221
100
AcDbEntity
  8
0
100
AcDbBlockBegin
 62
7
  6
CONTINUOUS
  2
*D0
 70
65
 10
0.0
 20
0.0
  3
*D0
  1

  0
LINE
  5
222
100
AcDbEntity
  8
0
100
AcDbLine
 62
7
  6
CONTINUOUS
 10
86.5492475329
 20
204.6211402021
 11
86.5492475329
 21
221.6197697368
  0
LINE
  5
223
100
AcDbEntity
  8
0
100
AcDbLine
 62
7
  6
CONTINUOUS
 10
389.5492475329
 20
204.6211402021
 11
389.5492475329
 21
221.6197697368
  0
LINE
  5
224
100
AcDbEntity
  8
0
100
AcDbLine
 62
7
  6
CONTINUOUS
 10
86.5492475329
 20
220.1197697368
 11
238.0492475329
 21
220.1197697368
  0
LINE
  5
225
100
AcDbEntity
  8
0
100
AcDbLine
 62
7
  6
CONTINUOUS
 10
389.5492475329
 20
220.1197697368
 11
238.0492475329
 21
220.1197697368
  0
INSERT
  5
226
100
AcDbEntity
  8
0
100
AcDbBlockReference
 62
7
  6
CONTINUOUS
  2
_FILLED
 10
86.5492475329
 20
220.1197697368
 41
3.0
 42
3.0
 43
3.0
 50
180.0
  0
INSERT
  5
227
100
AcDbEntity
  8
0
100
AcDbBlockReference
 62
7
  6
CONTINUOUS
  2
_FILLED
 10
389.5492475329
 20
220.1197697368
 41
3.0
 42
3.0
 43
3.0
  0
ENDBLK
  5
228
100
AcDbEntity
  8
0
  6
BYBLOCK
 62
0
100
AcDbBlockEnd
  0
BLOCK
  5
229
100
AcDbEntity
  8
0
100
AcDbBlockBegin
 62
7
  6
CONTINUOUS
  2
*D1
 70
65
 10
0.0
 20
0.0
  3
*D1
  1

  0
LINE
  5
22A
100
AcDbEntity
  8
0
100
AcDbLine
 62
7
  6
CONTINUOUS
 10
389.0506179981
 20
205.1197697368
 11
409.5492475329
 21
205.1197697368
  0
LINE
  5
22B
100
AcDbEntity
  8
0
100
AcDbLine
 62
7
  6
CONTINUOUS
 10
389.0506179981
 20
115.1197697368
 11
409.5492475329
 21
115.1197697368
  0
LINE
  5
22C
100
AcDbEntity
  8
0
100
AcDbLine
 62
7
  6
CONTINUOUS
 10
408.0492475329
 20
205.1197697368
 11
408.0492475329
 21
160.1197697368
  0
LINE
  5
22D
100
AcDbEntity
  8
0
100
AcDbLine
 62
7
  6
CONTINUOUS
 10
408.0492475329
 20
115.1197697368
 11
408.0492475329
 21
160.1197697368
  0
INSERT
  5
22E
100
AcDbEntity
  8
0
100
AcDbBlockReference
 62
7
  6
CONTINUOUS
  2
_FILLED
 10
408.0492475329
 20
205.1197697368
 41
3.0
 42
3.0
 43
3.0
 50
90.0
  0
INSERT
  5
22F
100
AcDbEntity
  8
0
100
AcDbBlockReference
 62
7
  6
CONTINUOUS
  2
_FILLED
 10
408.0492475329
 20
115.1197697368
 41
3.0
 42
3.0
 43
3.0
 50
270.0
  0
ENDBLK
  5
230
100
AcDbEntity
  8
0
  6
BYBLOCK
 62
0
100
AcDbBlockEnd
  0
BLOCK
  5
231
100
AcDbEntity
  8
0
100
AcDbBlockBegin
 62
7
  6
CONTINUOUS
  2
*D2
 70
65
 10
0.0
 20
0.0
  3
*D2
  1

  0
LINE
  5
232
100
AcDbEntity
  8
0
100
AcDbLine
 62
7
  6
CONTINUOUS
 10
53.2271425156
 20
203.7168451002
 11
53.227142524
 21
221.6197697348
  0
LINE
  5
233
100
AcDbEntity
  8
0
100
AcDbLine
 62
7
  6
CONTINUOUS
 10
44.6558633806
 20
160.6197699472
 11
44.6558634092
 21
221.6197697388
  0
LINE
  5
234
100
AcDbEntity
  8
0
100
AcDbLine
 62
7
  6
CONTINUOUS
 10
53.2271425233
 20
220.1197697348
 11
57.2271425233
 21
220.119769733
  0
LINE
  5
235
100
AcDbEntity
  8
0
100
AcDbLine
 62
7
  6
CONTINUOUS
 10
57.2271425233
 20
220.119769733
 11
48.9415029659
 21
220.1197697368
  0
LINE
  5
236
100
AcDbEntity
  8
0
100
AcDbLine
 62
7
  6
CONTINUOUS
 10
44.6558634085
 20
220.1197697388
 11
40.6558634085
 21
220.1197697407
  0
LINE
  5
237
100
AcDbEntity
  8
0
100
AcDbLine
 62
7
  6
CONTINUOUS
 10
40.6558634085
 20
220.1197697407
 11
48.9415029659
 21
220.1197697368
  0
INSERT
  5
238
100
AcDbEntity
  8
0
100
AcDbBlockReference
 62
7
  6
CONTINUOUS
  2
_FILLED
 10
53.2271425233
 20
220.1197697348
 41
3.0
 42
3.0
 43
3.0
 50
179.9999999732
  0
INSERT
  5
239
100
AcDbEntity
  8
0
100
AcDbBlockReference
 62
7
  6
CONTINUOUS
  2
_FILLED
 10
44.6558634085
 20
220.1197697388
 41
3.0
 42
3.0
 43
3.0
 50
359.9999999732
  0
ENDBLK
  5
23A
100
AcDbEntity
  8
0
  6
BYBLOCK
 62
0
100
AcDbBlockEnd
  0
ENDSEC
  0
SECTION
  2
ENTITIES
  0
DIMENSION
  5
23B
100
AcDbEntity
  8
0
100
AcDbDimension
 62
7
  6
CONTINUOUS
  2
*D0
 10
389.5492475329
 20
220.1197697368
 11
234.7278189615
 21
220.1197697368
 70
160
 71
2
 72
2
 41
0.9
 42
303.0
  3
DIMSTYLE_1
100
AcDbAlignedDimension
 13
86.5492475329
 23
204.1211402021
 14
389.5492475329
 24
204.1211402021
100
AcDbRotatedDimension
  0
DIMENSION
  5
23C
100
AcDbEntity
  8
0
100
AcDbDimension
 62
7
  6
CONTINUOUS
  2
*D1
 10
408.0492475329
 20
115.1197697368
 11
408.0492475329
 21
157.7626268797
 70
160
 71
2
 72
2
 41
0.9
 42
90.0
  3
DIMSTYLE_1
100
AcDbAlignedDimension
 13
388.5506179981
 23
205.1197697368
 14
388.5506179981
 24
115.1197697368
 50
270.0
100
AcDbRotatedDimension
  0
DIMENSION
  5
23D
100
AcDbEntity
  8
0
100
AcDbDimension
 62
7
  6
CONTINUOUS
  2
*D2
 10
44.6558634085
 20
220.1197697388
 11
45.7272172523
 21
220.1197697383
 70
160
 71
2
 72
2
 41
0.9
 42
8.5712791148
  3
DIMSTYLE_2
100
AcDbAlignedDimension
 13
53.2271425154
 23
203.2168451002
 14
44.6558633804
 24
160.1197699472
 50
179.9999999732
100
AcDbRotatedDimension
  0
LWPOLYLINE
  5
23E
100
AcDbEntity
  8
RACCORDO
100
AcDbPolyline
 62
250
  6
CONTINUOUS
 90
31
 70
0
 10
86.6791889743
 20
116.248340713
 10
86.6802690725
 20
116.1952416611
 10
86.6841283079
 20
116.1423233297
 10
86.6907506899
 20
116.0897311965
 10
86.7001117088
 20
116.0376071657
 10
86.7121812813
 20
115.9860962178
 10
86.7269232478
 20
115.9353458709
 10
86.744292831
 20
115.8854904275
 10
86.7642354344
 20
115.8366689253
 10
86.7866866941
 20
115.7890306534
 10
86.8115749606
 20
115.7427074086
 10
86.8388264825
 20
115.6978175259
 10
86.8683618016
 20
115.6544829334
 10
86.9000926739
 20
115.612818495
 10
86.9339261838
 20
115.5729320277
 10
86.9697677003
 20
115.5349275694
 10
87.0075123207
 20
115.498905141
 10
87.047053359
 20
115.4649553938
 10
87.088287694
 20
115.4331610751
 10
87.1310986881
 20
115.403604694
 10
87.1753676963
 20
115.3763605592
 10
87.2209848614
 20
115.3514926308
 10
87.2678268974
 20
115.3290644359
 10
87.3157636039
 20
115.3091342911
 10
87.3646717896
 20
115.2917512299
 10
87.4144176945
 20
115.2769606182
 10
87.4648672279
 20
115.2647997971
 10
87.5158944845
 20
115.2552980008
 10
87.5673653833
 20
115.2484802242
 10
87.6191376094
 20
115.2443653526
 10
87.671071656
 20
115.2429643252
  0
LWPOLYLINE
  5
23F
100
AcDbEntity
  8
RACCORDO
100
AcDbPolyline
 62
250
  6
CONTINUOUS
 90
31
 70
0
 10
86.9787778347
 20
116.1951416304
 10
86.9794209794
 20
116.1576362608
 10
86.9819819924
 20
116.1204514514
 10
86.9864608738
 20
116.0835871648
 10
86.9928838042
 20
116.0469392252
 10
87.0012246031
 20
116.0106117434
 10
87.011404728
 20
115.9749170756
 10
87.0234411528
 20
115.9398627596
 10
87.0373169038
 20
115.9054411126
 10
87.052902517
 20
115.871941592
 10
87.0702111824
 20
115.8393764092
 10
87.0892297101
 20
115.8077331526
 10
87.1097890668
 20
115.7772642895
 10
87.1319005658
 20
115.7479808537
 10
87.1555528938
 20
115.7198715791
 10
87.1805430781
 20
115.6931554428
 10
87.2068795062
 20
115.6678450586
 10
87.2345537907
 20
115.6439275712
 10
87.2633377968
 20
115.6215837278
 10
87.2932380547
 20
115.6008259056
 10
87.3242480342
 20
115.5816415005
 10
87.3561200106
 20
115.5641737762
 10
87.3888609925
 20
115.5484350092
 10
87.4224639712
 20
115.5344127317
 10
87.4566601956
 20
115.5222130916
 10
87.4914595834
 20
115.511849662
 10
87.5268522169
 20
115.5033087315
 10
87.5625395913
 20
115.4966555312
 10
87.5984222052
 20
115.4919117799
 10
87.6345995601
 20
115.4890556862
 10
87.671071656
 20
115.488087232
  0
LWPOLYLINE
  5
240
100
AcDbEntity
  8
RACCORDO
100
AcDbPolyline
 62
250
  6
CONTINUOUS
 90
9
 70
0
 10
86.6791889743
 20
203.9911987607
 10
86.7003938571
 20
201.6503709993
 10
86.7198468963
 20
199.304976172
 10
86.7375480918
 20
196.9550142787
 10
86.753500336
 20
194.60000279
 10
86.7677007366
 20
192.2404242354
 10
86.7801406164
 20
189.877726203
 10
86.7908170831
 20
187.5123912222
 10
86.7997330291
 20
185.1439367636
  0
LWPOLYLINE
  5
241
100
AcDbEntity
  8
RACCORDO
100
AcDbPolyline
 62
250
  6
CONTINUOUS
 90
9
 70
0
 10
86.9787778347
 20
204.0443978433
 10
86.999983111
 20
201.7001063327
 10
87.0194363921
 20
199.3503095224
 10
87.037137678
 20
196.9954819263
 10
87.0530897822
 20
194.636104187
 10
87.0672898912
 20
192.2726476096
 10
87.0797295646
 20
189.9055739822
 10
87.0904059888
 20
187.5353560298
 10
87.0993219775
 20
185.1624774016
  0
LINE
  5
242
100
AcDbEntity
  8
RACCORDO
100
AcDbLine
 62
250
  6
CONTINUOUS
 10
86.7997330291
 20
185.1439367636
 11
86.816029411
 21
178.9992741815
  0
LINE
  5
243
100
AcDbEntity
  8
RACCORDO
100
AcDbLine
 62
250
  6
CONTINUOUS
 10
87.0993219775
 20
185.1624774016
 11
87.1156183445
 21
179.0122736868
  0
LINE
  5
244
100
AcDbEntity
  8
RACCORDO
100
AcDbLine
 62
250
  6
CONTINUOUS
 10
86.816029411
 20
178.9992741815
 11
86.8293260784
 21
171.4502847482
  0
LINE
  5
245
100
AcDbEntity
  8
RACCORDO
100
AcDbLine
 62
250
  6
CONTINUOUS
 10
87.1156183445
 20
179.0122736868
 11
87.1289149563
 21
171.4578302051
  0
LINE
  5
246
100
AcDbEntity
  8
RACCORDO
100
AcDbLine
 62
250
  6
CONTINUOUS
 10
86.8293260784
 20
171.4502847482
 11
86.8359763462
 21
163.8969208469
  0
LINE
  5
247
100
AcDbEntity
  8
RACCORDO
100
AcDbLine
 62
250
  6
CONTINUOUS
 10
87.1289149563
 20
171.4578302051
 11
87.1355652072
 21
163.8995256686
  0
LINE
  5
248
100
AcDbEntity
  8
RACCORDO
100
AcDbLine
 62
7
  6
CONTINUOUS
 10
86.5492475329
 20
116.1183992716
 11
86.5492475329
 21
204.1211402021
  0
LINE
  5
249
100
AcDbEntity
  8
RACCORDO
100
AcDbLine
 62
250
  6
CONTINUOUS
 10
87.671071656
 20
115.488087232
 11
87.671071656
 21
115.2429643252
  0
LINE
  5
24A
100
AcDbEntity
  8
RACCORDO
100
AcDbLine
 62
250
  6
CONTINUOUS
 10
87.671071656
 20
204.7514522417
 11
87.6710716558
 21
204.9965751485
  0
LINE
  5
24B
100
AcDbEntity
  8
RACCORDO
100
AcDbLine
 62
250
  6
CONTINUOUS
 10
86.8359763462
 20
163.8969208469
 11
86.8359763469
 21
156.3426197678
  0
LINE
  5
24C
100
AcDbEntity
  8
RACCORDO
100
AcDbLine
 62
250
  6
CONTINUOUS
 10
87.1355652072
 20
163.8995256686
 11
87.1355652067
 21
156.3400127711
  0
LINE
  5
24D
100
AcDbEntity
  8
RACCORDO
100
AcDbLine
 62
250
  6
CONTINUOUS
 10
86.8359763469
 20
156.3426197678
 11
86.8293260801
 21
148.7892560831
  0
LINE
  5
24E
100
AcDbEntity
  8
RACCORDO
100
AcDbLine
 62
250
  6
CONTINUOUS
 10
87.1355652067
 20
156.3400127711
 11
87.1289149553
 21
148.7817085407
  0
LINE
  5
24F
100
AcDbEntity
  8
RACCORDO
100
AcDbLine
 62
250
  6
CONTINUOUS
 10
86.8293260801
 20
148.7892560831
 11
86.816029412
 21
141.2402659337
  0
LINE
  5
250
100
AcDbEntity
  8
RACCORDO
100
AcDbLine
 62
250
  6
CONTINUOUS
 10
87.1289149553
 20
148.7817085407
 11
87.1156183439
 21
141.2272655121
  0
LWPOLYLINE
  5
251
100
AcDbEntity
  8
RACCORDO
100
AcDbPolyline
 62
250
  6
CONTINUOUS
 90
10
 70
0
 10
87.1156183439
 20
141.2272655121
 10
87.0993219763
 20
135.0770619586
 10
87.0904059873
 20
132.7041833034
 10
87.0797295636
 20
130.3339654259
 10
87.0672898926
 20
127.9668920684
 10
87.053089787
 20
125.6034358616
 10
87.0371376846
 20
123.244058314
 10
87.0194363981
 20
120.8892306385
 10
86.9999831148
 20
118.5394335722
 10
86.9787778347
 20
116.1951416304
  0
LWPOLYLINE
  5
252
100
AcDbEntity
  8
RACCORDO
100
AcDbPolyline
 62
250
  6
CONTINUOUS
 90
10
 70
0
 10
86.816029412
 20
141.2402659337
 10
86.7997330166
 20
135.0955993172
 10
86.7908170546
 20
132.72714163
 10
86.7801405684
 20
130.3618035849
 10
86.767700657
 20
127.9991017404
 10
86.7535002214
 20
125.639519538
 10
86.737547965
 20
123.2845073016
 10
86.7198467889
 20
120.9345484727
 10
86.700393792
 20
118.5891596098
 10
86.6791889743
 20
116.248340713
  0
LINE
  5
253
100
AcDbEntity
  8
RACCORDO
100
AcDbLine
 62
250
  6
CONTINUOUS
 10
108.2054700135
 20
138.0496882999
 11
108.1897214464
 21
145.4031014095
  0
LINE
  5
254
100
AcDbEntity
  8
RACCORDO
100
AcDbLine
 62
250
  6
CONTINUOUS
 10
108.7047847994
 20
138.074201038
 11
108.6890362326
 21
145.4197667595
  0
LINE
  5
255
100
AcDbEntity
  8
RACCORDO
100
AcDbLine
 62
250
  6
CONTINUOUS
 10
108.1897214464
 20
145.4031014095
 11
108.1802715792
 21
152.7604511999
  0
LINE
  5
256
100
AcDbEntity
  8
RACCORDO
100
AcDbLine
 62
250
  6
CONTINUOUS
 10
108.6890362326
 20
145.4197667595
 11
108.679586357
 21
152.7685378162
  0
LINE
  5
257
100
AcDbEntity
  8
RACCORDO
100
AcDbLine
 62
250
  6
CONTINUOUS
 10
108.1802715792
 20
152.7604511999
 11
108.177120886
 21
160.1197696976
  0
LINE
  5
258
100
AcDbEntity
  8
RACCORDO
100
AcDbLine
 62
250
  6
CONTINUOUS
 10
108.679586357
 20
152.7685378162
 11
108.6764356534
 21
160.1197745076
  0
LINE
  5
259
100
AcDbEntity
  8
0
100
AcDbLine
 62
7
  6
CONTINUOUS
 10
108.8492475329
 20
138.2186733646
 11
108.8492475329
 21
182.020866109
  0
LINE
  5
25A
100
AcDbEntity
  8
RACCORDO
100
AcDbLine
 62
250
  6
CONTINUOUS
 10
109.5071666497
 20
183.4873453532
 11
109.5071666497
 21
182.9607542479
  0
LINE
  5
25B
100
AcDbEntity
  8
RACCORDO
100
AcDbLine
 62
250
  6
CONTINUOUS
 10
109.5071666497
 20
136.7521941205
 11
109.5071666496
 21
137.2787852258
  0
LINE
  5
25C
100
AcDbEntity
  8
RACCORDO
100
AcDbLine
 62
250
  6
CONTINUOUS
 10
108.177120886
 20
160.1197696976
 11
108.180271579
 21
167.4790882028
  0
LINE
  5
25D
100
AcDbEntity
  8
RACCORDO
100
AcDbLine
 62
250
  6
CONTINUOUS
 10
108.6764356534
 20
160.1197745076
 11
108.6795863663
 21
167.4710116213
  0
LINE
  5
25E
100
AcDbEntity
  8
RACCORDO
100
AcDbLine
 62
250
  6
CONTINUOUS
 10
108.180271579
 20
167.4790882028
 11
108.1897214461
 21
174.8364380191
  0
LINE
  5
25F
100
AcDbEntity
  8
RACCORDO
100
AcDbLine
 62
250
  6
CONTINUOUS
 10
108.6795863663
 20
167.4710116213
 11
108.6890362445
 21
174.819780757
  0
LINE
  5
260
100
AcDbEntity
  8
RACCORDO
100
AcDbLine
 62
250
  6
CONTINUOUS
 10
108.1897214461
 20
174.8364380191
 11
108.2054700135
 21
182.1898511737
  0
LINE
  5
261
100
AcDbEntity
  8
RACCORDO
100
AcDbLine
 62
250
  6
CONTINUOUS
 10
108.6890362445
 20
174.819780757
 11
108.7047848053
 21
182.1653415314
  0
LWPOLYLINE
  5
262
100
AcDbEntity
  8
RACCORDO
100
AcDbPolyline
 62
250
  6
CONTINUOUS
 90
10
 70
0
 10
108.704784817
 20
182.1653415198
 10
108.7060208745
 20
182.2077358759
 10
108.7095168382
 20
182.2500209576
 10
108.7152661649
 20
182.292077249
 10
108.7232600142
 20
182.3338033473
 10
108.7334769753
 20
182.3750624717
 10
108.745873626
 20
182.4156851127
 10
108.7604029893
 20
182.4555409599
 10
108.7770241549
 20
182.4945368987
 10
108.7956855202
 20
182.532565097
  0
LWPOLYLINE
  5
263
100
AcDbEntity
  8
RACCORDO
100
AcDbPolyline
 62
250
  6
CONTINUOUS
 90
10
 70
0
 10
108.2054700135
 20
182.1898511737
 10
108.207507644
 20
182.2591016263
 10
108.2131799032
 20
182.3278192093
 10
108.222486791
 20
182.3960039333
 10
108.2354902392
 20
182.4638946392
 10
108.2521283161
 20
182.5312525032
 10
108.2722152268
 20
182.5973610551
 10
108.2956890399
 20
182.6619814955
 10
108.3226116868
 20
182.7253526789
 10
108.3529831676
 20
182.7874746305
  0
LWPOLYLINE
  5
264
100
AcDbEntity
  8
RACCORDO
100
AcDbPolyline
 62
250
  6
CONTINUOUS
 90
22
 70
0
 10
108.3529831676
 20
182.7874746305
 10
108.3854552654
 20
182.8461062649
 10
108.420862346
 20
182.9028634464
 10
108.4592044092
 20
182.9577462657
 10
108.5006063519
 20
183.0109400607
 10
108.5449432773
 20
183.062259663
 10
108.5918404952
 20
183.1111494268
 10
108.6413249337
 20
183.1575682963
 10
108.6933696647
 20
183.2015575384
 10
108.7475192127
 20
183.2426850296
 10
108.8038012878
 20
183.2809160316
 10
108.8621881799
 20
183.3162854956
 10
108.9221412833
 20
183.3484658524
 10
108.9836939586
 20
183.3774191056
 10
109.0468128451
 20
183.4031834384
 10
109.1108592549
 20
183.4255455533
 10
109.1758488727
 20
183.4444530255
 10
109.2417660137
 20
183.4599584166
 10
109.3079249361
 20
183.472005898
 10
109.3740970593
 20
183.4805768838
 10
109.4405109638
 20
183.4856900298
 10
109.5071666497
 20
183.4873453532
  0
LWPOLYLINE
  5
265
100
AcDbEntity
  8
RACCORDO
100
AcDbPolyline
 62
250
  6
CONTINUOUS
 90
22
 70
0
 10
108.7956855202
 20
182.532565097
 10
108.8156750932
 20
182.5684169391
 10
108.8375548625
 20
182.6032943217
 10
108.861282518
 20
182.6370948322
 10
108.8868207517
 20
182.6697297107
 10
108.9141064053
 20
182.7010866086
 10
108.943044136
 20
182.7310354143
 10
108.9735629396
 20
182.7594862369
 10
109.0055883098
 20
182.7863543816
 10
109.0390019625
 20
182.8115329189
 10
109.0737155161
 20
182.8349496273
 10
109.1096364418
 20
182.856536882
 10
109.1466262647
 20
182.8762130502
 10
109.184591285
 20
182.8939304901
 10
109.2234186121
 20
182.9096387489
 10
109.2629293758
 20
182.9232769495
 10
109.3030157395
 20
182.9348225517
 10
109.3435617211
 20
182.9442565619
 10
109.3843683458
 20
182.9515560937
 10
109.4252929787
 20
182.956726363
 10
109.466253029
 20
182.9597860517
 10
109.5071395059
 20
182.9607542936
  0
LWPOLYLINE
  5
266
100
AcDbEntity
  8
RACCORDO
100
AcDbPolyline
 62
250
  6
CONTINUOUS
 90
13
 70
0
 10
108.7956855202
 20
137.7069743766
 10
108.7815297595
 20
137.735339088
 10
108.7684990784
 20
137.764283978
 10
108.7566187848
 20
137.7937654354
 10
108.7459064333
 20
137.823756582
 10
108.7363914776
 20
137.8541941027
 10
108.7281079992
 20
137.8849760833
 10
108.7210730627
 20
137.9160272877
 10
108.7152889496
 20
137.9473233431
 10
108.710760718
 20
137.9788365581
 10
108.7074961277
 20
138.0105244895
 10
108.7055027068
 20
138.0423294919
 10
108.7047848073
 20
138.0742010458
  0
LWPOLYLINE
  5
267
100
AcDbEntity
  8
RACCORDO
100
AcDbPolyline
 62
250
  6
CONTINUOUS
 90
13
 70
0
 10
108.3529831676
 20
137.4520648431
 10
108.3299854676
 20
137.4982845688
 10
108.3088795748
 20
137.5453222672
 10
108.2896654891
 20
137.5931779509
 10
108.272303101
 20
137.6419647655
 10
108.25683252
 20
137.6915695918
 10
108.2433740747
 20
137.7416530397
 10
108.2319548707
 20
137.792170056
 10
108.2225478023
 20
137.843165708
 10
108.2151918812
 20
137.8944357774
 10
108.2099001113
 20
137.9459121924
 10
108.2066594888
 20
137.9976630319
 10
108.2054700135
 20
138.0496882999
  0
LINE
  5
268
100
AcDbEntity
  8
RACCORDO
100
AcDbLine
 62
250
  6
CONTINUOUS
 10
154.3937102642
 20
182.1653395988
 11
154.4094588327
 21
174.8197729763
  0
LINE
  5
269
100
AcDbEntity
  8
RACCORDO
100
AcDbLine
 62
250
  6
CONTINUOUS
 10
154.8930250523
 20
182.1898511737
 11
154.9087736194
 21
174.8364380678
  0
LINE
  5
26A
100
AcDbEntity
  8
RACCORDO
100
AcDbLine
 62
250
  6
CONTINUOUS
 10
154.4094588327
 20
174.8197729763
 11
154.418908709
 21
167.4710015767
  0
LINE
  5
26B
100
AcDbEntity
  8
RACCORDO
100
AcDbLine
 62
250
  6
CONTINUOUS
 10
154.9087736194
 20
174.8364380678
 11
154.9182234866
 21
167.4790882792
  0
LINE
  5
26C
100
AcDbEntity
  8
RACCORDO
100
AcDbLine
 62
250
  6
CONTINUOUS
 10
154.418908709
 20
167.4710015767
 11
154.4220594124
 21
160.1197649716
  0
LINE
  5
26D
100
AcDbEntity
  8
RACCORDO
100
AcDbLine
 62
250
  6
CONTINUOUS
 10
154.9182234866
 20
167.4790882792
 11
154.9213741798
 21
160.1197697817
  0
LINE
  5
26E
100
AcDbEntity
  8
RACCORDO
100
AcDbLine
 62
250
  6
CONTINUOUS
 10
153.5913284161
 20
183.4873453532
 11
153.5913284162
 21
182.9607542479
  0
LINE
  5
26F
100
AcDbEntity
  8
RACCORDO
100
AcDbLine
 62
250
  6
CONTINUOUS
 10
153.5913284161
 20
136.7521941205
 11
153.5913284161
 21
137.2787852258
  0
LINE
  5
270
100
AcDbEntity
  8
0
100
AcDbLine
 62
7
  6
CONTINUOUS
 10
154.2492475329
 20
182.020866109
 11
154.2492475329
 21
138.2186733646
  0
LINE
  5
271
100
AcDbEntity
  8
RACCORDO
100
AcDbLine
 62
250
  6
CONTINUOUS
 10
154.4220594124
 20
160.1197649716
 11
154.4189086995
 21
152.768527882
  0
LINE
  5
272
100
AcDbEntity
  8
RACCORDO
100
AcDbLine
 62
250
  6
CONTINUOUS
 10
154.9213741798
 20
160.1197697817
 11
154.9182234868
 21
152.7604512763
  0
LINE
  5
273
100
AcDbEntity
  8
RACCORDO
100
AcDbLine
 62
250
  6
CONTINUOUS
 10
154.4189086995
 20
152.768527882
 11
154.4094588211
 21
145.4197586478
  0
LINE
  5
274
100
AcDbEntity
  8
RACCORDO
100
AcDbLine
 62
250
  6
CONTINUOUS
 10
154.9182234868
 20
152.7604512763
 11
154.9087736197
 21
145.4031014582
  0
LINE
  5
275
100
AcDbEntity
  8
RACCORDO
100
AcDbLine
 62
250
  6
CONTINUOUS
 10
154.4094588211
 20
145.4197586478
 11
154.3937102598
 21
138.0741976159
  0
LINE
  5
276
100
AcDbEntity
  8
RACCORDO
100
AcDbLine
 62
250
  6
CONTINUOUS
 10
154.9087736197
 20
145.4031014582
 11
154.8930250523
 21
138.0496882999
  0
LWPOLYLINE
  5
277
100
AcDbEntity
  8
RACCORDO
100
AcDbPolyline
 62
250
  6
CONTINUOUS
 90
10
 70
0
 10
154.3937102478
 20
138.0741976278
 10
154.3924740488
 20
138.0318010656
 10
154.3889777929
 20
137.9895145576
 10
154.3832281461
 20
137.9474576225
 10
154.3752341286
 20
137.9057319171
 10
154.3650172417
 20
137.8644739274
 10
154.3526207679
 20
137.823852353
 10
154.3380915752
 20
137.7839972452
 10
154.3214706366
 20
137.7450019766
 10
154.3028095456
 20
137.7069743766
  0
LWPOLYLINE
  5
278
100
AcDbEntity
  8
RACCORDO
100
AcDbPolyline
 62
250
  6
CONTINUOUS
 90
10
 70
0
 10
154.8930250523
 20
138.0496882999
 10
154.8909862822
 20
137.9804296979
 10
154.8853131379
 20
137.911706593
 10
154.8760056196
 20
137.8435189747
 10
154.8630017551
 20
137.775628789
 10
154.8463635164
 20
137.7082740726
 10
154.8262768198
 20
137.6421689352
 10
154.8028036372
 20
137.5775513891
 10
154.7758819967
 20
137.5141833668
 10
154.7455118982
 20
137.4520648431
  0
LINE
  5
279
100
AcDbEntity
  8
RACCORDO
100
AcDbLine
 62
250
  6
CONTINUOUS
 10
86.6791889743
 20
116.248340713
 11
86.5492475329
 21
116.1183992716
  0
LINE
  5
27A
100
AcDbEntity
  8
0
100
AcDbLine
 62
250
  6
CONTINUOUS
 10
108.7047847994
 20
138.074201038
 11
108.8492475329
 21
138.2186733646
  0
LINE
  5
27B
100
AcDbEntity
  8
0
100
AcDbLine
 62
250
  6
CONTINUOUS
 10
153.5913413165
 20
182.9607542479
 11
153.4503439051
 21
182.8197697368
  0
LINE
  5
27C
100
AcDbEntity
  8
0
100
AcDbLine
 62
250
  6
CONTINUOUS
 10
154.3937102642
 20
182.1653395988
 11
154.2492475329
 21
182.020866109
  0
LINE
  5
27D
100
AcDbEntity
  8
0
100
AcDbLine
 62
250
  6
CONTINUOUS
 10
109.5071537493
 20
137.2787852258
 11
109.6481511607
 21
137.4197697368
  0
LINE
  5
27E
100
AcDbEntity
  8
RACCORDO
100
AcDbLine
 62
250
  6
CONTINUOUS
 10
87.671071656
 20
115.2429643252
 11
87.5478770676
 21
115.1197697368
  0
LINE
  5
27F
100
AcDbEntity
  8
RACCORDO
100
AcDbLine
 62
250
  6
CONTINUOUS
 10
86.6791889743
 20
203.9911987607
 11
86.5492475329
 21
204.1211402021
  0
LINE
  5
280
100
AcDbEntity
  8
0
100
AcDbLine
 62
250
  6
CONTINUOUS
 10
108.7047848053
 20
182.1653415314
 11
108.8492475329
 21
182.020866109
  0
LINE
  5
281
100
AcDbEntity
  8
0
100
AcDbLine
 62
250
  6
CONTINUOUS
 10
153.5913555137
 20
137.2787852258
 11
153.4503439051
 21
137.4197697368
  0
LINE
  5
282
100
AcDbEntity
  8
0
100
AcDbLine
 62
250
  6
CONTINUOUS
 10
154.3937102598
 20
138.0741976159
 11
154.2492475329
 21
138.2186733646
  0
LINE
  5
283
100
AcDbEntity
  8
0
100
AcDbLine
 62
250
  6
CONTINUOUS
 10
109.5071395521
 20
182.9607542479
 11
109.6481511607
 21
182.8197697368
  0
LINE
  5
284
100
AcDbEntity
  8
RACCORDO
100
AcDbLine
 62
250
  6
CONTINUOUS
 10
87.671071656
 20
204.9965751485
 11
87.5478770676
 21
205.1197697368
  0
LINE
  5
285
100
AcDbEntity
  8
RACCORDO
100
AcDbLine
 62
250
  6
CONTINUOUS
 10
179.2054700135
 20
138.0496882999
 11
179.1897214464
 21
145.4031014095
  0
LINE
  5
286
100
AcDbEntity
  8
RACCORDO
100
AcDbLine
 62
250
  6
CONTINUOUS
 10
179.7047847994
 20
138.074201038
 11
179.6890362326
 21
145.4197667595
  0
LINE
  5
287
100
AcDbEntity
  8
RACCORDO
100
AcDbLine
 62
250
  6
CONTINUOUS
 10
179.1897214464
 20
145.4031014095
 11
179.1802715792
 21
152.7604511999
  0
LINE
  5
288
100
AcDbEntity
  8
RACCORDO
100
AcDbLine
 62
250
  6
CONTINUOUS
 10
179.6890362326
 20
145.4197667595
 11
179.679586357
 21
152.7685378162
  0
LINE
  5
289
100
AcDbEntity
  8
RACCORDO
100
AcDbLine
 62
250
  6
CONTINUOUS
 10
179.1802715792
 20
152.7604511999
 11
179.177120886
 21
160.1197696976
  0
LINE
  5
28A
100
AcDbEntity
  8
RACCORDO
100
AcDbLine
 62
250
  6
CONTINUOUS
 10
179.679586357
 20
152.7685378162
 11
179.6764356534
 21
160.1197745076
  0
LINE
  5
28B
100
AcDbEntity
  8
0
100
AcDbLine
 62
7
  6
CONTINUOUS
 10
179.8492475329
 20
138.2186733646
 11
179.8492475329
 21
182.020866109
  0
LINE
  5
28C
100
AcDbEntity
  8
RACCORDO
100
AcDbLine
 62
250
  6
CONTINUOUS
 10
180.5071666497
 20
183.4873453532
 11
180.5071666497
 21
182.9607542479
  0
LINE
  5
28D
100
AcDbEntity
  8
RACCORDO
100
AcDbLine
 62
250
  6
CONTINUOUS
 10
180.5071666497
 20
136.7521941205
 11
180.5071666496
 21
137.2787852258
  0
LINE
  5
28E
100
AcDbEntity
  8
RACCORDO
100
AcDbLine
 62
250
  6
CONTINUOUS
 10
179.177120886
 20
160.1197696976
 11
179.180271579
 21
167.4790882028
  0
LINE
  5
28F
100
AcDbEntity
  8
RACCORDO
100
AcDbLine
 62
250
  6
CONTINUOUS
 10
179.6764356534
 20
160.1197745076
 11
179.6795863663
 21
167.4710116213
  0
LINE
  5
290
100
AcDbEntity
  8
RACCORDO
100
AcDbLine
 62
250
  6
CONTINUOUS
 10
179.180271579
 20
167.4790882028
 11
179.1897214461
 21
174.8364380191
  0
LINE
  5
291
100
AcDbEntity
  8
RACCORDO
100
AcDbLine
 62
250
  6
CONTINUOUS
 10
179.6795863663
 20
167.4710116213
 11
179.6890362445
 21
174.819780757
  0
LINE
  5
292
100
AcDbEntity
  8
RACCORDO
100
AcDbLine
 62
250
  6
CONTINUOUS
 10
179.1897214461
 20
174.8364380191
 11
179.2054700135
 21
182.1898511737
  0
LINE
  5
293
100
AcDbEntity
  8
RACCORDO
100
AcDbLine
 62
250
  6
CONTINUOUS
 10
179.6890362445
 20
174.819780757
 11
179.7047848053
 21
182.1653415314
  0
LWPOLYLINE
  5
294
100
AcDbEntity
  8
RACCORDO
100
AcDbPolyline
 62
250
  6
CONTINUOUS
 90
10
 70
0
 10
179.704784817
 20
182.1653415198
 10
179.7060208745
 20
182.2077358759
 10
179.7095168382
 20
182.2500209576
 10
179.7152661649
 20
182.292077249
 10
179.7232600142
 20
182.3338033473
 10
179.7334769753
 20
182.3750624717
 10
179.745873626
 20
182.4156851127
 10
179.7604029893
 20
182.4555409599
 10
179.7770241549
 20
182.4945368987
 10
179.7956855202
 20
182.532565097
  0
LWPOLYLINE
  5
295
100
AcDbEntity
  8
RACCORDO
100
AcDbPolyline
 62
250
  6
CONTINUOUS
 90
10
 70
0
 10
179.2054700135
 20
182.1898511737
 10
179.207507644
 20
182.2591016263
 10
179.2131799032
 20
182.3278192093
 10
179.222486791
 20
182.3960039333
 10
179.2354902392
 20
182.4638946392
 10
179.2521283161
 20
182.5312525032
 10
179.2722152268
 20
182.5973610551
 10
179.2956890399
 20
182.6619814955
 10
179.3226116868
 20
182.7253526789
 10
179.3529831676
 20
182.7874746305
  0
LWPOLYLINE
  5
296
100
AcDbEntity
  8
RACCORDO
100
AcDbPolyline
 62
250
  6
CONTINUOUS
 90
22
 70
0
 10
179.3529831676
 20
182.7874746305
 10
179.3854552654
 20
182.8461062649
 10
179.420862346
 20
182.9028634464
 10
179.4592044092
 20
182.9577462657
 10
179.5006063519
 20
183.0109400607
 10
179.5449432773
 20
183.062259663
 10
179.5918404952
 20
183.1111494268
 10
179.6413249337
 20
183.1575682963
 10
179.6933696647
 20
183.2015575384
 10
179.7475192127
 20
183.2426850296
 10
179.8038012878
 20
183.2809160316
 10
179.8621881799
 20
183.3162854956
 10
179.9221412833
 20
183.3484658524
 10
179.9836939586
 20
183.3774191056
 10
180.0468128451
 20
183.4031834384
 10
180.1108592549
 20
183.4255455533
 10
180.1758488727
 20
183.4444530255
 10
180.2417660137
 20
183.4599584166
 10
180.3079249361
 20
183.472005898
 10
180.3740970593
 20
183.4805768838
 10
180.4405109638
 20
183.4856900298
 10
180.5071666497
 20
183.4873453532
  0
LWPOLYLINE
  5
297
100
AcDbEntity
  8
RACCORDO
100
AcDbPolyline
 62
250
  6
CONTINUOUS
 90
22
 70
0
 10
154.7455118982
 20
137.4520648431
 10
154.7130398004
 20
137.3934332088
 10
154.6776327198
 20
137.3366760274
 10
154.6392906566
 20
137.2817932081
 10
154.597888714
 20
137.2285994131
 10
154.5535517887
 20
137.177279811
 10
154.506654571
 20
137.1283900472
 10
154.4571701325
 20
137.0819711777
 10
154.4051254017
 20
137.0379819357
 10
154.3509758538
 20
136.9968544445
 10
154.2946937787
 20
136.9586234426
 10
154.2363068867
 20
136.9232539785
 10
154.1763537833
 20
136.8910736217
 10
154.114801108
 20
136.8621203685
 10
154.0516822215
 20
136.8363560356
 10
153.9876358117
 20
136.8139939207
 10
153.9226461938
 20
136.7950864484
 10
153.8567290526
 20
136.7795810572
 10
153.7905701301
 20
136.7675335758
 10
153.7243980068
 20
136.7589625899
 10
153.6579841021
 20
136.7538494439
 10
153.5913284161
 20
136.7521941205
  0
LWPOLYLINE
  5
298
100
AcDbEntity
  8
RACCORDO
100
AcDbPolyline
 62
250
  6
CONTINUOUS
 90
22
 70
0
 10
154.3028095456
 20
137.7069743766
 10
154.2828199726
 20
137.6711225346
 10
154.2609402033
 20
137.6362451519
 10
154.2372125478
 20
137.6024446415
 10
154.2116743141
 20
137.569809763
 10
154.1843886606
 20
137.5384528652
 10
154.15545093
 20
137.5085040596
 10
154.1249321264
 20
137.480053237
 10
154.0929067564
 20
137.4531850924
 10
154.0594931037
 20
137.428006555
 10
154.0247795501
 20
137.4045898467
 10
153.9888586245
 20
137.3830025919
 10
153.9518688016
 20
137.3633264237
 10
153.9139037813
 20
137.3456089838
 10
153.8750764542
 20
137.329900725
 10
153.8355656905
 20
137.3162625243
 10
153.7954793267
 20
137.3047169221
 10
153.7549333451
 20
137.2952829119
 10
153.7141267203
 20
137.28798338
 10
153.6732020872
 20
137.2828131107
 10
153.6322420369
 20
137.279753422
 10
153.5913555598
 20
137.2787851801
  0
LWPOLYLINE
  5
299
100
AcDbEntity
  8
RACCORDO
100
AcDbPolyline
 62
250
  6
CONTINUOUS
 90
22
 70
0
 10
179.7956855202
 20
182.532565097
 10
179.8156750932
 20
182.5684169391
 10
179.8375548625
 20
182.6032943217
 10
179.861282518
 20
182.6370948322
 10
179.8868207517
 20
182.6697297107
 10
179.9141064053
 20
182.7010866086
 10
179.943044136
 20
182.7310354143
 10
179.9735629397
 20
182.7594862369
 10
180.0055883098
 20
182.7863543816
 10
180.0390019625
 20
182.8115329189
 10
180.0737155161
 20
182.8349496273
 10
180.1096364418
 20
182.856536882
 10
180.1466262647
 20
182.8762130502
 10
180.184591285
 20
182.8939304901
 10
180.2234186121
 20
182.9096387489
 10
180.2629293758
 20
182.9232769495
 10
180.3030157395
 20
182.9348225517
 10
180.3435617211
 20
182.9442565619
 10
180.3843683458
 20
182.9515560937
 10
180.4252929787
 20
182.956726363
 10
180.466253029
 20
182.9597860517
 10
180.5071395059
 20
182.9607542936
  0
LWPOLYLINE
  5
29A
100
AcDbEntity
  8
0
100
AcDbPolyline
 62
7
  6
CONTINUOUS
 90
5
 70
0
 43
0.3499999917
 10
235.5849572754
 20
222.5840625
 10
235.9421008301
 20
222.7983435059
 10
235.9421008301
 20
223.4411865234
 10
235.5849572754
 20
223.8697741699
 10
234.7278076172
 20
223.8697741699
  0
LWPOLYLINE
  5
29B
100
AcDbEntity
  8
RACCORDO
100
AcDbPolyline
 62
250
  6
CONTINUOUS
 90
14
 70
0
 10
154.5024829464
 20
182.6565865619
 10
154.4762573918
 20
182.6418508386
 10
154.4514483993
 20
182.6277487423
 10
154.4281864916
 20
182.6143544655
 10
154.4065940518
 20
182.6017384767
 10
154.3867846799
 20
182.5899671499
 10
154.3688625951
 20
182.5791024153
 10
154.3529220871
 20
182.5692014333
 10
154.3390470207
 20
182.5603162939
 10
154.3273103938
 20
182.5524937427
 10
154.317773954
 20
182.545774935
 10
154.3104878736
 20
182.5401952191
 10
154.3054904853
 20
182.5357839503
 10
154.3028080808
 20
182.5325643369
  0
LINE
  5
29C
100
AcDbEntity
  8
RACCORDO
100
AcDbLine
 62
250
  6
CONTINUOUS
 10
154.5586251143
 20
182.687645859
 11
154.5024829464
 21
182.6565865619
  0
LINE
  5
29D
100
AcDbEntity
  8
RACCORDO
100
AcDbLine
 62
250
  6
CONTINUOUS
 10
154.618694979
 20
182.7202738691
 11
154.5586251143
 21
182.687645859
  0
LINE
  5
29E
100
AcDbEntity
  8
RACCORDO
100
AcDbLine
 62
250
  6
CONTINUOUS
 10
154.6814300688
 20
182.7537848587
 11
154.618694979
 21
182.7202738691
  0
LINE
  5
29F
100
AcDbEntity
  8
RACCORDO
100
AcDbLine
 62
250
  6
CONTINUOUS
 10
154.7455118982
 20
182.7874745366
 11
154.6814300688
 21
182.7537848587
  0
LINE
  5
2A0
100
AcDbEntity
  8
RACCORDO
100
AcDbLine
 62
250
  6
CONTINUOUS
 10
154.7455118982
 20
137.4520650035
 11
154.6814299942
 21
137.4857547111
  0
LINE
  5
2A1
100
AcDbEntity
  8
RACCORDO
100
AcDbLine
 62
250
  6
CONTINUOUS
 10
154.6814299942
 20
137.4857547111
 11
154.6186948004
 21
137.5192657459
  0
LINE
  5
2A2
100
AcDbEntity
  8
RACCORDO
100
AcDbLine
 62
250
  6
CONTINUOUS
 10
154.6186948004
 20
137.5192657459
 11
154.5586248112
 21
137.5518938125
  0
LWPOLYLINE
  5
2A3
100
AcDbEntity
  8
RACCORDO
100
AcDbPolyline
 62
250
  6
CONTINUOUS
 90
15
 70
0
 10
154.5586248112
 20
137.5518938125
 10
154.502482507
 20
137.5829531727
 10
154.4762568826
 20
137.5976889287
 10
154.4514478206
 20
137.6117910577
 10
154.4281858447
 20
137.6251853668
 10
154.4065933389
 20
137.6378013869
 10
154.3867839043
 20
137.6495727435
 10
154.3688617607
 20
137.660437506
 10
154.3529211988
 20
137.6703385135
 10
154.3390460839
 20
137.6792236758
 10
154.3273094147
 20
137.6870462467
 10
154.3177729393
 20
137.6937650709
 10
154.3104868303
 20
137.6993447997
 10
154.3054894208
 20
137.7037560776
 10
154.3028070029
 20
137.7069756962
  0
LWPOLYLINE
  5
2A4
100
AcDbEntity
  8
RACCORDO
100
AcDbPolyline
 62
250
  6
CONTINUOUS
 90
13
 70
0
 10
154.3028095456
 20
182.532565097
 10
154.3169671403
 20
182.5041965158
 10
154.3299987398
 20
182.4752490373
 10
154.3418791985
 20
182.4457663593
 10
154.3525908702
 20
182.4157762104
 10
154.3621047991
 20
182.385341208
 10
154.370387677
 20
182.354560924
 10
154.3774226287
 20
182.3235091369
 10
154.3832068602
 20
182.2922115921
 10
154.3877349723
 20
182.26069785
 10
154.3909992686
 20
182.2290110021
 10
154.3929924409
 20
182.1972080766
 10
154.3937102553
 20
182.16533959
  0
LWPOLYLINE
  5
2A5
100
AcDbEntity
  8
RACCORDO
100
AcDbPolyline
 62
250
  6
CONTINUOUS
 90
13
 70
0
 10
179.7956855202
 20
137.7069743766
 10
179.7815297595
 20
137.735339088
 10
179.7684990784
 20
137.764283978
 10
179.7566187848
 20
137.7937654354
 10
179.7459064333
 20
137.823756582
 10
179.7363914776
 20
137.8541941027
 10
179.7281079992
 20
137.8849760833
 10
179.7210730627
 20
137.9160272877
 10
179.7152889496
 20
137.9473233431
 10
179.710760718
 20
137.9788365581
 10
179.7074961277
 20
138.0105244895
 10
179.7055027068
 20
138.0423294919
 10
179.7047848073
 20
138.0742010458
  0
LWPOLYLINE
  5
2A6
100
AcDbEntity
  8
RACCORDO
100
AcDbPolyline
 62
250
  6
CONTINUOUS
 90
13
 70
0
 10
154.7455218699
 20
182.7874524068
 10
154.7685191513
 20
182.7412322101
 10
154.7896242292
 20
182.6941952518
 10
154.8088371038
 20
182.6463415194
 10
154.8261975514
 20
182.5975587817
 10
154.8416657955
 20
182.5479592434
 10
154.8551225068
 20
182.4978795517
 10
154.8665411264
 20
182.4473630304
 10
154.8759482132
 20
182.3963663413
 10
154.8833041144
 20
182.3450961477
 10
154.8885956126
 20
182.2936213361
 10
154.8918359252
 20
182.2418730127
 10
154.8930250523
 20
182.1898511737
  0
LWPOLYLINE
  5
2A7
100
AcDbEntity
  8
RACCORDO
100
AcDbPolyline
 62
250
  6
CONTINUOUS
 90
13
 70
0
 10
179.3529831676
 20
137.4520648431
 10
179.3299854676
 20
137.4982845688
 10
179.3088795748
 20
137.5453222672
 10
179.2896654891
 20
137.5931779509
 10
179.272303101
 20
137.6419647655
 10
179.25683252
 20
137.6915695918
 10
179.2433740747
 20
137.7416530397
 10
179.2319548707
 20
137.792170056
 10
179.2225478023
 20
137.843165708
 10
179.2151918812
 20
137.8944357774
 10
179.2099001113
 20
137.9459121924
 10
179.2066594888
 20
137.9976630319
 10
179.2054700135
 20
138.0496882999
  0
LWPOLYLINE
  5
2A8
100
AcDbEntity
  8
0
100
AcDbPolyline
 62
7
  6
CONTINUOUS
 90
5
 70
0
 43
0.3499999917
 10
240.0849609375
 20
222.5840625
 10
240.4421044922
 20
222.7983435059
 10
240.4421044922
 20
223.4411865234
 10
240.0849609375
 20
223.8697741699
 10
239.2278112793
 20
223.8697741699
  0
LWPOLYLINE
  5
2A9
100
AcDbEntity
  8
RACCORDO
100
AcDbPolyline
 62
250
  6
CONTINUOUS
 90
15
 70
0
 10
108.5685079575
 20
137.5676610752
 10
108.5960120954
 20
137.5829528975
 10
108.6222376463
 20
137.597688619
 10
108.647046635
 20
137.6117907136
 10
108.6703085392
 20
137.6251849888
 10
108.6919009755
 20
137.637800976
 10
108.7117103441
 20
137.6495723012
 10
108.7296324259
 20
137.6604370344
 10
108.7455729311
 20
137.6703380152
 10
108.7594479951
 20
137.6792231534
 10
108.7711846199
 20
137.6870457036
 10
108.7807210579
 20
137.6937645105
 10
108.788007137
 20
137.6993442258
 10
108.7930045244
 20
137.7037554941
 10
108.7956869284
 20
137.7069751074
  0
LWPOLYLINE
  5
2AA
100
AcDbEntity
  8
RACCORDO
100
AcDbPolyline
 62
250
  6
CONTINUOUS
 90
31
 70
0
 10
388.4274234098
 20
115.2429643252
 10
388.4793113028
 20
115.2443628785
 10
388.5310446595
 20
115.2484712045
 10
388.582484205
 20
115.2552794711
 10
388.6334867731
 20
115.2647696879
 10
388.6839192806
 20
115.2769180935
 10
388.7336585501
 20
115.2916975221
 10
388.7825743542
 20
115.3090737954
 10
388.8305280007
 20
115.329001827
 10
388.8773861201
 20
115.3514291831
 10
388.9230149933
 20
115.3762954379
 10
388.9672949458
 20
115.403538567
 10
389.0101171764
 20
115.4330952758
 10
389.0513634146
 20
115.4648917179
 10
389.0909163399
 20
115.4988450706
 10
389.1286722473
 20
115.5348721742
 10
389.1645243653
 20
115.5728823214
 10
389.1983677229
 20
115.6127754387
 10
389.2301072691
 20
115.6544469371
 10
389.2596494253
 20
115.6977878284
 10
389.2869067518
 20
115.7426841143
 10
389.31180124
 20
115.7890165736
 10
389.3342625213
 20
115.8366756254
 10
389.3542138395
 20
115.8855212877
 10
389.3715827462
 20
115.9353802478
 10
389.3863114349
 20
115.9860872819
 10
389.3983677253
 20
116.0375315677
 10
389.4077269302
 20
116.0896170012
 10
389.4143561775
 20
116.1422171217
 10
389.4182227899
 20
116.1951735008
 10
389.4193060915
 20
116.248340713
  0
LWPOLYLINE
  5
2AB
100
AcDbEntity
  8
RACCORDO
100
AcDbPolyline
 62
250
  6
CONTINUOUS
 90
31
 70
0
 10
388.4274234098
 20
115.488087232
 10
388.4639010843
 20
115.4890571601
 10
388.5000796321
 20
115.4919134122
 10
388.5359590532
 20
115.4966560064
 10
388.5716351924
 20
115.5033056458
 10
388.607012205
 20
115.5118416997
 10
388.6418025569
 20
115.5222022019
 10
388.676002427
 20
115.5344024463
 10
388.7096156364
 20
115.5484272774
 10
388.7423661147
 20
115.5641690648
 10
388.7742442117
 20
115.5816396521
 10
388.8052595777
 20
115.6008273872
 10
388.8351650919
 20
115.6215893961
 10
388.8639546019
 20
115.6439385269
 10
388.8916342603
 20
115.6678621586
 10
388.9179754047
 20
115.6931792032
 10
388.9429695699
 20
115.7199025862
 10
388.9666252211
 20
115.7480196237
 10
388.9887390927
 20
115.777310788
 10
389.0092995257
 20
115.8077865496
 10
389.0283181791
 20
115.8394366702
 10
389.0456267639
 20
115.8720105193
 10
389.0612134533
 20
115.9055269463
 10
389.0750900741
 20
115.9399673027
 10
389.0871238182
 20
115.9750246538
 10
389.0972942316
 20
116.0106920247
 10
389.1056217683
 20
116.0469765304
 10
389.1120349812
 20
116.0835923032
 10
389.1165100548
 20
116.1204440639
 10
389.1190708048
 20
116.1576271602
 10
389.1197172311
 20
116.1951416304
  0
LWPOLYLINE
  5
2AC
100
AcDbEntity
  8
RACCORDO
100
AcDbPolyline
 62
250
  6
CONTINUOUS
 90
19
 70
0
 10
389.1197172311
 20
116.1951416426
 10
389.1450071985
 20
116.1955623319
 10
389.1701171075
 20
116.1963587905
 10
389.1948681816
 20
116.197525348
 10
389.2190841992
 20
116.1990536987
 10
389.242592748
 20
116.2009329611
 10
389.2652264528
 20
116.2031497553
 10
389.2868241672
 20
116.2056882983
 10
389.3072321206
 20
116.2085305163
 10
389.3263050134
 20
116.2116561733
 10
389.3439070511
 20
116.2150430155
 10
389.3599129115
 20
116.2186669293
 10
389.3742086369
 20
116.2225021133
 10
389.3866924449
 20
116.2265212621
 10
389.397275454
 20
116.2306957601
 10
389.4058823157
 20
116.234995886
 10
389.4124517512
 20
116.239391024
 10
389.4169369877
 20
116.2438498816
 10
389.4193060915
 20
116.248340713
  0
LINE
  5
2AD
100
AcDbEntity
  8
RACCORDO
100
AcDbLine
 62
7
  6
CONTINUOUS
 10
87.5478770676
 20
115.1197697368
 11
388.5506179981
 21
115.1197697368
  0
LINE
  5
2AE
100
AcDbEntity
  8
RACCORDO
100
AcDbLine
 62
250
  6
CONTINUOUS
 10
87.671071656
 20
115.2429643252
 11
388.4274234098
 21
115.2429643252
  0
LINE
  5
2AF
100
AcDbEntity
  8
RACCORDO
100
AcDbLine
 62
250
  6
CONTINUOUS
 10
87.671071656
 20
115.488087232
 11
388.4274234098
 21
115.488087232
  0
LWPOLYLINE
  5
2B0
100
AcDbEntity
  8
RACCORDO
100
AcDbPolyline
 62
250
  6
CONTINUOUS
 90
19
 70
0
 10
86.9787778347
 20
116.1951416343
 10
86.9534880257
 20
116.1955623516
 10
86.9283782876
 20
116.1963588349
 10
86.9036273944
 20
116.1975254133
 10
86.8794115648
 20
116.1990537812
 10
86.8559032081
 20
116.2009330571
 10
86.8332696968
 20
116.2031498611
 10
86.8116721746
 20
116.2056884102
 10
86.7912644093
 20
116.2085306308
 10
86.7721916981
 20
116.2116562871
 10
86.7545898327
 20
116.2150431254
 10
86.7385841333
 20
116.2186670324
 10
86.7242885555
 20
116.2225022069
 10
86.7118048794
 20
116.2265213438
 10
86.7012219852
 20
116.230695828
 10
86.6926152197
 20
116.2349959385
 10
86.6860458606
 20
116.2393910596
 10
86.6815606796
 20
116.2438498996
 10
86.67919161
 20
116.2483407129
  0
LINE
  5
2B1
100
AcDbEntity
  8
RACCORDO
100
AcDbLine
 62
250
  6
CONTINUOUS
 10
108.5102486944
 20
137.5357334375
 11
108.5685079575
 21
137.5676610752
  0
LINE
  5
2B2
100
AcDbEntity
  8
RACCORDO
100
AcDbLine
 62
250
  6
CONTINUOUS
 10
108.4486842752
 20
137.5025767199
 11
108.5102486944
 21
137.5357334375
  0
LWPOLYLINE
  5
2B3
100
AcDbEntity
  8
RACCORDO
100
AcDbPolyline
 62
250
  6
CONTINUOUS
 90
3
 70
0
 10
108.3529831676
 20
137.4520649329
 10
108.3851085816
 20
137.4688877676
 10
108.4486842752
 20
137.5025767199
  0
LINE
  5
2B4
100
AcDbEntity
  8
RACCORDO
100
AcDbLine
 62
250
  6
CONTINUOUS
 10
108.3529831676
 20
182.7874744702
 11
108.4170650716
 21
182.7537847626
  0
LINE
  5
2B5
100
AcDbEntity
  8
RACCORDO
100
AcDbLine
 62
250
  6
CONTINUOUS
 10
108.4170650716
 20
182.7537847626
 11
108.4798002654
 21
182.7202737278
  0
LWPOLYLINE
  5
2B6
100
AcDbEntity
  8
RACCORDO
100
AcDbPolyline
 62
250
  6
CONTINUOUS
 90
17
 70
0
 10
108.4798002654
 20
182.7202737278
 10
108.5398702546
 20
182.6876456612
 10
108.5685083482
 20
182.6718781571
 10
108.5960125588
 20
182.656586301
 10
108.6222381832
 20
182.641850545
 10
108.6470472452
 20
182.627748416
 10
108.6703092211
 20
182.6143541069
 10
108.6919017268
 20
182.6017380868
 10
108.7117111615
 20
182.5899667302
 10
108.729633305
 20
182.5791019677
 10
108.745573867
 20
182.5692009601
 10
108.7594489819
 20
182.5603157979
 10
108.7711856511
 20
182.552493227
 10
108.7807221265
 20
182.5457744028
 10
108.7880082355
 20
182.540194674
 10
108.7930056449
 20
182.5357833961
 10
108.7956880628
 20
182.5325637775
  0
LINE
  5
2B7
100
AcDbEntity
  8
0
100
AcDbLine
 62
250
  6
CONTINUOUS
 10
179.7047847994
 20
138.074201038
 11
179.8492475329
 21
138.2186733646
  0
LINE
  5
2B8
100
AcDbEntity
  8
0
100
AcDbLine
 62
250
  6
CONTINUOUS
 10
224.5913413165
 20
182.9607542479
 11
224.4503439051
 21
182.8197697368
  0
LINE
  5
2B9
100
AcDbEntity
  8
0
100
AcDbLine
 62
250
  6
CONTINUOUS
 10
225.3937102642
 20
182.1653395988
 11
225.2492475329
 21
182.020866109
  0
LINE
  5
2BA
100
AcDbEntity
  8
0
100
AcDbLine
 62
250
  6
CONTINUOUS
 10
180.5071537493
 20
137.2787852258
 11
180.6481511607
 21
137.4197697368
  0
LWPOLYLINE
  5
2BB
100
AcDbEntity
  8
RACCORDO
100
AcDbPolyline
 62
250
  6
CONTINUOUS
 90
14
 70
0
 10
225.5024829464
 20
182.6565865619
 10
225.4762573918
 20
182.6418508386
 10
225.4514483993
 20
182.6277487423
 10
225.4281864916
 20
182.6143544655
 10
225.4065940518
 20
182.6017384767
 10
225.3867846799
 20
182.5899671499
 10
225.3688625951
 20
182.5791024153
 10
225.3529220871
 20
182.5692014333
 10
225.3390470207
 20
182.5603162939
 10
225.3273103938
 20
182.5524937427
 10
225.317773954
 20
182.545774935
 10
225.3104878736
 20
182.5401952191
 10
225.3054904853
 20
182.5357839503
 10
225.3028080808
 20
182.5325643369
  0
LINE
  5
2BC
100
AcDbEntity
  8
RACCORDO
100
AcDbLine
 62
250
  6
CONTINUOUS
 10
225.5586251143
 20
182.687645859
 11
225.5024829464
 21
182.6565865619
  0
LINE
  5
2BD
100
AcDbEntity
  8
RACCORDO
100
AcDbLine
 62
250
  6
CONTINUOUS
 10
225.618694979
 20
182.7202738691
 11
225.5586251143
 21
182.687645859
  0
LINE
  5
2BE
100
AcDbEntity
  8
RACCORDO
100
AcDbLine
 62
250
  6
CONTINUOUS
 10
225.6814300688
 20
182.7537848587
 11
225.618694979
 21
182.7202738691
  0
LINE
  5
2BF
100
AcDbEntity
  8
RACCORDO
100
AcDbLine
 62
250
  6
CONTINUOUS
 10
225.7455118982
 20
182.7874745366
 11
225.6814300688
 21
182.7537848587
  0
LWPOLYLINE
  5
2C0
100
AcDbEntity
  8
RACCORDO
100
AcDbPolyline
 62
250
  6
CONTINUOUS
 90
15
 70
0
 10
321.4478832125
 20
138.0533854948
 10
321.478843375
 20
138.0543799691
 10
321.5083747829
 20
138.0554780859
 10
321.5363230936
 20
138.0566741062
 10
321.5625422384
 20
138.057961779
 10
321.586895186
 20
138.0593343745
 10
321.6092546584
 20
138.0607847189
 10
321.6295037965
 20
138.0623052323
 10
321.6475367704
 20
138.0638879678
 10
321.6632593329
 20
138.0655246534
 10
321.6765893117
 20
138.0672067351
 10
321.6874570393
 20
138.0689254219
 10
321.6958057167
 20
138.0706717311
 10
321.7015917105
 20
138.0724365359
 10
321.7047847809
 20
138.0742106126
  0
LWPOLYLINE
  5
2C1
100
AcDbEntity
  8
RACCORDO
100
AcDbPolyline
 62
250
  6
CONTINUOUS
 90
15
 70
0
 10
250.4478832125
 20
138.0533854948
 10
250.478843375
 20
138.0543799691
 10
250.5083747829
 20
138.0554780859
 10
250.5363230936
 20
138.0566741062
 10
250.5625422384
 20
138.057961779
 10
250.586895186
 20
138.0593343745
 10
250.6092546584
 20
138.0607847189
 10
250.6295037965
 20
138.0623052323
 10
250.6475367704
 20
138.0638879678
 10
250.6632593329
 20
138.0655246534
 10
250.6765893117
 20
138.0672067351
 10
250.6874570393
 20
138.0689254219
 10
250.6958057167
 20
138.0706717311
 10
250.7015917105
 20
138.0724365359
 10
250.7047847809
 20
138.0742106126
  0
LINE
  5
2C2
100
AcDbEntity
  8
RACCORDO
100
AcDbLine
 62
250
  6
CONTINUOUS
 10
321.3823304839
 20
138.0517276953
 11
321.4478832125
 21
138.0533854948
  0
LINE
  5
2C3
100
AcDbEntity
  8
RACCORDO
100
AcDbLine
 62
250
  6
CONTINUOUS
 10
250.3823304839
 20
138.0517276953
 11
250.4478832125
 21
138.0533854948
  0
LINE
  5
2C4
100
AcDbEntity
  8
RACCORDO
100
AcDbLine
 62
250
  6
CONTINUOUS
 10
321.3130852221
 20
138.0505392993
 11
321.3823304839
 21
138.0517276953
  0
LINE
  5
2C5
100
AcDbEntity
  8
RACCORDO
100
AcDbLine
 62
250
  6
CONTINUOUS
 10
250.3130852221
 20
138.0505392993
 11
250.3823304839
 21
138.0517276953
  0
LINE
  5
2C6
100
AcDbEntity
  8
RACCORDO
100
AcDbLine
 62
250
  6
CONTINUOUS
 10
179.3130852221
 20
138.0505392993
 11
179.3823304839
 21
138.0517276953
  0
LWPOLYLINE
  5
2C7
100
AcDbEntity
  8
RACCORDO
100
AcDbPolyline
 62
250
  6
CONTINUOUS
 90
17
 70
0
 10
389.0423945282
 20
137.4524122518
 10
389.0671347094
 20
137.4527442832
 10
389.0913406135
 20
137.4531789663
 10
389.1148400732
 20
137.4537132094
 10
389.1374659463
 20
137.4543432126
 10
389.1590573038
 20
137.4550644949
 10
389.179460575
 20
137.4558719262
 10
389.1985306395
 20
137.4567597634
 10
389.2161318594
 20
137.4577216919
 10
389.2321390441
 20
137.4587508697
 10
389.246438341
 20
137.4598399768
 10
389.2589280447
 20
137.4609812667
 10
389.269519321
 20
137.4621666218
 10
389.2781368382
 20
137.4633876113
 10
389.2847193034
 20
137.4646355508
 10
389.2892198981
 20
137.465901564
 10
389.2916066114
 20
137.4671766464
  0
LINE
  5
2C8
100
AcDbEntity
  8
RACCORDO
100
AcDbLine
 62
250
  6
CONTINUOUS
 10
388.992017751
 20
137.4520648437
 11
389.0423945282
 21
137.4524122518
  0
LWPOLYLINE
  5
2C9
100
AcDbEntity
  8
RACCORDO
100
AcDbPolyline
 62
250
  6
CONTINUOUS
 90
3
 70
0
 10
321.2054700135
 20
138.0496883006
 10
321.2415931454
 20
138.0498451184
 10
321.3130852221
 20
138.0505392993
  0
LWPOLYLINE
  5
2CA
100
AcDbEntity
  8
RACCORDO
100
AcDbPolyline
 62
250
  6
CONTINUOUS
 90
3
 70
0
 10
250.2054700135
 20
138.0496883006
 10
250.2415931454
 20
138.0498451184
 10
250.3130852221
 20
138.0505392993
  0
LWPOLYLINE
  5
2CB
100
AcDbEntity
  8
RACCORDO
100
AcDbPolyline
 62
250
  6
CONTINUOUS
 90
3
 70
0
 10
179.2054700135
 20
138.0496883006
 10
179.2415931454
 20
138.0498451184
 10
179.3130852221
 20
138.0505392993
  0
LINE
  5
2CC
100
AcDbEntity
  8
RACCORDO
100
AcDbLine
 62
250
  6
CONTINUOUS
 10
108.2054700135
 20
138.0496883006
 11
108.2775274838
 21
138.0501292797
  0
LINE
  5
2CD
100
AcDbEntity
  8
RACCORDO
100
AcDbLine
 62
250
  6
CONTINUOUS
 10
366.5913284161
 20
136.7521941205
 11
322.5071666497
 21
136.7521941205
  0
LINE
  5
2CE
100
AcDbEntity
  8
RACCORDO
100
AcDbLine
 62
250
  6
CONTINUOUS
 10
295.5913284161
 20
136.7521941205
 11
251.5071666497
 21
136.7521941205
  0
LINE
  5
2CF
100
AcDbEntity
  8
RACCORDO
100
AcDbLine
 62
250
  6
CONTINUOUS
 10
224.5913284161
 20
136.7521941205
 11
180.5071666497
 21
136.7521941205
  0
LINE
  5
2D0
100
AcDbEntity
  8
RACCORDO
100
AcDbLine
 62
250
  6
CONTINUOUS
 10
153.5913284161
 20
136.7521941205
 11
109.5071666497
 21
136.7521941205
  0
LINE
  5
2D1
100
AcDbEntity
  8
RACCORDO
100
AcDbLine
 62
250
  6
CONTINUOUS
 10
366.5913555137
 20
137.2787852258
 11
322.5071537493
 21
137.2787852258
  0
LINE
  5
2D2
100
AcDbEntity
  8
RACCORDO
100
AcDbLine
 62
250
  6
CONTINUOUS
 10
295.5913555137
 20
137.2787852258
 11
251.5071537493
 21
137.2787852258
  0
LINE
  5
2D3
100
AcDbEntity
  8
RACCORDO
100
AcDbLine
 62
250
  6
CONTINUOUS
 10
224.5913555137
 20
137.2787852258
 11
180.5071537493
 21
137.2787852258
  0
LINE
  5
2D4
100
AcDbEntity
  8
RACCORDO
100
AcDbLine
 62
250
  6
CONTINUOUS
 10
153.5913555137
 20
137.2787852258
 11
109.5071537493
 21
137.2787852258
  0
LINE
  5
2D5
100
AcDbEntity
  8
0
100
AcDbLine
 62
7
  6
CONTINUOUS
 10
366.4503439051
 20
137.4197697368
 11
322.6481511607
 21
137.4197697368
  0
LINE
  5
2D6
100
AcDbEntity
  8
0
100
AcDbLine
 62
7
  6
CONTINUOUS
 10
295.4503439051
 20
137.4197697368
 11
251.6481511607
 21
137.4197697368
  0
LINE
  5
2D7
100
AcDbEntity
  8
0
100
AcDbLine
 62
7
  6
CONTINUOUS
 10
224.4503439051
 20
137.4197697368
 11
180.6481511607
 21
137.4197697368
  0
LINE
  5
2D8
100
AcDbEntity
  8
0
100
AcDbLine
 62
7
  6
CONTINUOUS
 10
153.4503439051
 20
137.4197697368
 11
109.6481511607
 21
137.4197697368
  0
LINE
  5
2D9
100
AcDbEntity
  8
RACCORDO
100
AcDbLine
 62
250
  6
CONTINUOUS
 10
87.1064775306
 20
137.4521223431
 11
108.3529831676
 21
137.4520648431
  0
LINE
  5
2DA
100
AcDbEntity
  8
RACCORDO
100
AcDbLine
 62
250
  6
CONTINUOUS
 10
367.7455118982
 20
137.4520648432
 11
388.9920175357
 21
137.4521221953
  0
LINE
  5
2DB
100
AcDbEntity
  8
RACCORDO
100
AcDbLine
 62
250
  6
CONTINUOUS
 10
154.7455118982
 20
137.4520648431
 11
179.3529831676
 21
137.4520648431
  0
LINE
  5
2DC
100
AcDbEntity
  8
RACCORDO
100
AcDbLine
 62
250
  6
CONTINUOUS
 10
225.7455118982
 20
137.4520648431
 11
250.3529831676
 21
137.4520648431
  0
LINE
  5
2DD
100
AcDbEntity
  8
RACCORDO
100
AcDbLine
 62
250
  6
CONTINUOUS
 10
296.7455118982
 20
137.4520648431
 11
321.3529831676
 21
137.4520648431
  0
LINE
  5
2DE
100
AcDbEntity
  8
RACCORDO
100
AcDbLine
 62
250
  6
CONTINUOUS
 10
154.8930250522
 20
138.049688464
 11
154.8209673619
 21
138.0501294096
  0
LINE
  5
2DF
100
AcDbEntity
  8
RACCORDO
100
AcDbLine
 62
250
  6
CONTINUOUS
 10
225.8930250522
 20
138.049688464
 11
225.8209673619
 21
138.0501294096
  0
LINE
  5
2E0
100
AcDbEntity
  8
RACCORDO
100
AcDbLine
 62
250
  6
CONTINUOUS
 10
296.8930250522
 20
138.049688464
 11
296.8209673619
 21
138.0501294096
  0
LINE
  5
2E1
100
AcDbEntity
  8
RACCORDO
100
AcDbLine
 62
250
  6
CONTINUOUS
 10
367.8930250522
 20
138.049688464
 11
367.8209673619
 21
138.0501294096
  0
LWPOLYLINE
  5
2E2
100
AcDbEntity
  8
RACCORDO
100
AcDbPolyline
 62
250
  6
CONTINUOUS
 90
18
 70
0
 10
87.1064773148
 20
137.452064844
 10
87.0561005382
 20
137.4524122521
 10
87.0313603572
 20
137.4527442835
 10
87.0071544534
 20
137.4531789666
 10
86.9836549939
 20
137.4537132096
 10
86.961029121
 20
137.4543432128
 10
86.9394377636
 20
137.4550644951
 10
86.9190344925
 20
137.4558719263
 10
86.8999644281
 20
137.4567597636
 10
86.8823632083
 20
137.4577216921
 10
86.8663560235
 20
137.4587508699
 10
86.8520567265
 20
137.4598399769
 10
86.8395670226
 20
137.4609812668
 10
86.8289757462
 20
137.4621666219
 10
86.8203582287
 20
137.4633876114
 10
86.8137757632
 20
137.4646355508
 10
86.8092751681
 20
137.465901564
 10
86.8068884544
 20
137.4671766464
  0
LINE
  5
2E3
100
AcDbEntity
  8
RACCORDO
100
AcDbLine
 62
250
  6
CONTINUOUS
 10
154.8209673619
 20
138.0501294096
 11
154.7504140257
 21
138.0510731345
  0
LINE
  5
2E4
100
AcDbEntity
  8
RACCORDO
100
AcDbLine
 62
250
  6
CONTINUOUS
 10
225.8209673619
 20
138.0501294096
 11
225.7504140257
 21
138.0510731345
  0
LWPOLYLINE
  5
2E5
100
AcDbEntity
  8
RACCORDO
100
AcDbPolyline
 62
250
  6
CONTINUOUS
 90
3
 70
0
 10
296.8209673619
 20
138.0501294096
 10
296.7504140257
 20
138.0510731345
 10
296.7161638928
 20
138.0517277821
  0
LWPOLYLINE
  5
2E6
100
AcDbEntity
  8
RACCORDO
100
AcDbPolyline
 62
250
  6
CONTINUOUS
 90
17
 70
0
 10
154.7504140257
 20
138.0510731345
 10
154.6828380904
 20
138.0524999352
 10
154.6506107944
 20
138.0533855582
 10
154.619650439
 20
138.0543800223
 10
154.5901188371
 20
138.0554781301
 10
154.5621703339
 20
138.0566741423
 10
154.535951001
 20
138.0579618082
 10
154.5115978724
 20
138.0593343976
 10
154.4892382286
 20
138.0607847369
 10
154.468988931
 20
138.062305246
 10
154.4509558116
 20
138.0638879779
 10
154.4352331196
 20
138.0655246606
 10
154.4219030288
 20
138.0672067401
 10
154.4110352084
 20
138.0689254251
 10
154.4026864584
 20
138.070671733
 10
154.3969004132
 20
138.0724365367
 10
154.3937073132
 20
138.0742106125
  0
LWPOLYLINE
  5
2E7
100
AcDbEntity
  8
RACCORDO
100
AcDbPolyline
 62
250
  6
CONTINUOUS
 90
17
 70
0
 10
225.7504140257
 20
138.0510731345
 10
225.6828380904
 20
138.0524999352
 10
225.6506107944
 20
138.0533855582
 10
225.619650439
 20
138.0543800223
 10
225.5901188371
 20
138.0554781301
 10
225.5621703339
 20
138.0566741423
 10
225.535951001
 20
138.0579618082
 10
225.5115978724
 20
138.0593343976
 10
225.4892382286
 20
138.0607847369
 10
225.468988931
 20
138.062305246
 10
225.4509558116
 20
138.0638879779
 10
225.4352331196
 20
138.0655246606
 10
225.4219030288
 20
138.0672067401
 10
225.4110352084
 20
138.0689254251
 10
225.4026864584
 20
138.070671733
 10
225.3969004132
 20
138.0724365367
 10
225.3937073132
 20
138.0742106125
  0
LWPOLYLINE
  5
2E8
100
AcDbEntity
  8
RACCORDO
100
AcDbPolyline
 62
250
  6
CONTINUOUS
 90
22
 70
0
 10
109.5071537273
 20
137.2787852039
 10
109.4663984115
 20
137.2797463046
 10
109.4255691924
 20
137.2827854411
 10
109.384774013
 20
137.2879216558
 10
109.3441097154
 20
137.2951704553
 10
109.3037021578
 20
137.3045386938
 10
109.2637043785
 20
137.316017825
 10
109.2242069544
 20
137.3296059518
 10
109.1853473725
 20
137.3452803731
 10
109.1473416806
 20
137.3629699927
 10
109.1103132914
 20
137.382619997
 10
109.0743464024
 20
137.4041882992
 10
109.0395841891
 20
137.4275916533
 10
109.0061229694
 20
137.4527602257
 10
108.9740482288
 20
137.4796243283
 10
108.9434733849
 20
137.5080827459
 10
108.9144746869
 20
137.5380515454
 10
108.8871244797
 20
137.5694419782
 10
108.8615146028
 20
137.6021317885
 10
108.8377094871
 20
137.6360124201
 10
108.8157513151
 20
137.6709938486
 10
108.7956855202
 20
137.7069743766
  0
LWPOLYLINE
  5
2E9
100
AcDbEntity
  8
RACCORDO
100
AcDbPolyline
 62
250
  6
CONTINUOUS
 90
22
 70
0
 10
180.5071537273
 20
137.2787852039
 10
180.4663984115
 20
137.2797463046
 10
180.4255691924
 20
137.2827854411
 10
180.384774013
 20
137.2879216558
 10
180.3441097154
 20
137.2951704553
 10
180.3037021578
 20
137.3045386938
 10
180.2637043785
 20
137.316017825
 10
180.2242069544
 20
137.3296059518
 10
180.1853473725
 20
137.3452803731
 10
180.1473416806
 20
137.3629699927
 10
180.1103132914
 20
137.382619997
 10
180.0743464024
 20
137.4041882992
 10
180.0395841891
 20
137.4275916533
 10
180.0061229694
 20
137.4527602257
 10
179.9740482288
 20
137.4796243283
 10
179.9434733849
 20
137.5080827459
 10
179.9144746869
 20
137.5380515454
 10
179.8871244797
 20
137.5694419782
 10
179.8615146028
 20
137.6021317885
 10
179.8377094871
 20
137.6360124201
 10
179.8157513151
 20
137.6709938486
 10
179.7956855202
 20
137.7069743766
  0
LWPOLYLINE
  5
2EA
100
AcDbEntity
  8
RACCORDO
100
AcDbPolyline
 62
250
  6
CONTINUOUS
 90
22
 70
0
 10
251.5071537273
 20
137.2787852039
 10
251.4663984115
 20
137.2797463046
 10
251.4255691924
 20
137.2827854411
 10
251.384774013
 20
137.2879216558
 10
251.3441097154
 20
137.2951704553
 10
251.3037021578
 20
137.3045386938
 10
251.2637043785
 20
137.316017825
 10
251.2242069544
 20
137.3296059518
 10
251.1853473725
 20
137.3452803731
 10
251.1473416806
 20
137.3629699927
 10
251.1103132914
 20
137.382619997
 10
251.0743464024
 20
137.4041882992
 10
251.0395841891
 20
137.4275916533
 10
251.0061229694
 20
137.4527602257
 10
250.9740482288
 20
137.4796243283
 10
250.9434733849
 20
137.5080827459
 10
250.9144746869
 20
137.5380515454
 10
250.8871244797
 20
137.5694419782
 10
250.8615146028
 20
137.6021317885
 10
250.8377094871
 20
137.6360124201
 10
250.8157513151
 20
137.6709938486
 10
250.7956855202
 20
137.7069743766
  0
LWPOLYLINE
  5
2EB
100
AcDbEntity
  8
RACCORDO
100
AcDbPolyline
 62
250
  6
CONTINUOUS
 90
22
 70
0
 10
109.5071666497
 20
136.7521941205
 10
109.4408073176
 20
136.7538292434
 10
109.3746644926
 20
136.7589005916
 10
109.3087381749
 20
136.7674081821
 10
109.2428173689
 20
136.7793589835
 10
109.1771130701
 20
136.794746096
 10
109.1122582651
 20
136.8135487506
 10
109.0482297189
 20
136.8358321132
 10
108.9850506666
 20
136.8615311549
 10
108.9234237994
 20
136.8904298258
 10
108.8634004142
 20
136.9225654526
 10
108.8049292143
 20
136.9579008958
 10
108.7485590009
 20
136.9961084037
 10
108.6943221973
 20
137.0372190578
 10
108.6421863803
 20
137.0812019902
 10
108.5926030817
 20
137.1276365064
 10
108.5455978519
 20
137.1765611783
 10
108.5011451406
 20
137.2279376469
 10
108.4596198284
 20
137.2812297844
 10
108.4211468756
 20
137.33625893
 10
108.385601322
 20
137.3932039185
 10
108.3529831676
 20
137.4520648431
  0
LWPOLYLINE
  5
2EC
100
AcDbEntity
  8
RACCORDO
100
AcDbPolyline
 62
250
  6
CONTINUOUS
 90
22
 70
0
 10
180.5071666497
 20
136.7521941205
 10
180.4408073176
 20
136.7538292434
 10
180.3746644926
 20
136.7589005916
 10
180.3087381749
 20
136.7674081821
 10
180.2428173689
 20
136.7793589835
 10
180.1771130701
 20
136.794746096
 10
180.1122582651
 20
136.8135487506
 10
180.0482297189
 20
136.8358321132
 10
179.9850506666
 20
136.8615311549
 10
179.9234237994
 20
136.8904298258
 10
179.8634004142
 20
136.9225654526
 10
179.8049292143
 20
136.9579008958
 10
179.7485590009
 20
136.9961084037
 10
179.6943221973
 20
137.0372190578
 10
179.6421863803
 20
137.0812019902
 10
179.5926030817
 20
137.1276365064
 10
179.5455978519
 20
137.1765611783
 10
179.5011451406
 20
137.2279376469
 10
179.4596198284
 20
137.2812297844
 10
179.4211468756
 20
137.33625893
 10
179.385601322
 20
137.3932039185
 10
179.3529831676
 20
137.4520648431
  0
LWPOLYLINE
  5
2ED
100
AcDbEntity
  8
RACCORDO
100
AcDbPolyline
 62
250
  6
CONTINUOUS
 90
22
 70
0
 10
251.5071666497
 20
136.7521941205
 10
251.4408073176
 20
136.7538292434
 10
251.3746644926
 20
136.7589005916
 10
251.3087381749
 20
136.7674081821
 10
251.2428173689
 20
136.7793589835
 10
251.1771130701
 20
136.794746096
 10
251.1122582651
 20
136.8135487506
 10
251.0482297189
 20
136.8358321132
 10
250.9850506666
 20
136.8615311549
 10
250.9234237994
 20
136.8904298258
 10
250.8634004142
 20
136.9225654526
 10
250.8049292143
 20
136.9579008958
 10
250.7485590009
 20
136.9961084037
 10
250.6943221973
 20
137.0372190578
 10
250.6421863803
 20
137.0812019902
 10
250.5926030817
 20
137.1276365064
 10
250.5455978519
 20
137.1765611783
 10
250.5011451406
 20
137.2279376469
 10
250.4596198284
 20
137.2812297844
 10
250.4211468756
 20
137.33625893
 10
250.385601322
 20
137.3932039185
 10
250.3529831676
 20
137.4520648431
  0
LWPOLYLINE
  5
2EE
100
AcDbEntity
  8
RACCORDO
100
AcDbPolyline
 62
250
  6
CONTINUOUS
 90
22
 70
0
 10
322.5071666497
 20
136.7521941205
 10
322.4408073176
 20
136.7538292434
 10
322.3746644926
 20
136.7589005916
 10
322.3087381749
 20
136.7674081821
 10
322.2428173689
 20
136.7793589835
 10
322.1771130701
 20
136.794746096
 10
322.1122582651
 20
136.8135487506
 10
322.0482297189
 20
136.8358321132
 10
321.9850506666
 20
136.8615311549
 10
321.9234237994
 20
136.8904298258
 10
321.8634004142
 20
136.9225654526
 10
321.8049292143
 20
136.9579008958
 10
321.7485590009
 20
136.9961084037
 10
321.6943221973
 20
137.0372190578
 10
321.6421863803
 20
137.0812019902
 10
321.5926030817
 20
137.1276365064
 10
321.5455978519
 20
137.1765611783
 10
321.5011451406
 20
137.2279376469
 10
321.4596198284
 20
137.2812297844
 10
321.4211468756
 20
137.33625893
 10
321.385601322
 20
137.3932039185
 10
321.3529831676
 20
137.4520648431
  0
LINE
  5
2EF
100
AcDbEntity
  8
RACCORDO
100
AcDbLine
 62
250
  6
CONTINUOUS
 10
225.7455118982
 20
137.4520650035
 11
225.6814299942
 21
137.4857547111
  0
LINE
  5
2F0
100
AcDbEntity
  8
RACCORDO
100
AcDbLine
 62
250
  6
CONTINUOUS
 10
225.6814299942
 20
137.4857547111
 11
225.6186948004
 21
137.5192657459
  0
LINE
  5
2F1
100
AcDbEntity
  8
RACCORDO
100
AcDbLine
 62
250
  6
CONTINUOUS
 10
225.6186948004
 20
137.5192657459
 11
225.5586248112
 21
137.5518938125
  0
LWPOLYLINE
  5
2F2
100
AcDbEntity
  8
RACCORDO
100
AcDbPolyline
 62
250
  6
CONTINUOUS
 90
15
 70
0
 10
225.5586248112
 20
137.5518938125
 10
225.502482507
 20
137.5829531727
 10
225.4762568826
 20
137.5976889287
 10
225.4514478206
 20
137.6117910577
 10
225.4281858447
 20
137.6251853668
 10
225.4065933389
 20
137.6378013869
 10
225.3867839043
 20
137.6495727435
 10
225.3688617607
 20
137.660437506
 10
225.3529211988
 20
137.6703385135
 10
225.3390460839
 20
137.6792236758
 10
225.3273094147
 20
137.6870462467
 10
225.3177729393
 20
137.6937650709
 10
225.3104868303
 20
137.6993447997
 10
225.3054894208
 20
137.7037560776
 10
225.3028070029
 20
137.7069756962
  0
LINE
  5
2F3
100
AcDbEntity
  8
0
100
AcDbLine
 62
250
  6
CONTINUOUS
 10
179.7047848053
 20
182.1653415314
 11
179.8492475329
 21
182.020866109
  0
LINE
  5
2F4
100
AcDbEntity
  8
0
100
AcDbLine
 62
250
  6
CONTINUOUS
 10
224.5913555137
 20
137.2787852258
 11
224.4503439051
 21
137.4197697368
  0
LINE
  5
2F5
100
AcDbEntity
  8
0
100
AcDbLine
 62
250
  6
CONTINUOUS
 10
225.3937102598
 20
138.0741976159
 11
225.2492475329
 21
138.2186733646
  0
LINE
  5
2F6
100
AcDbEntity
  8
0
100
AcDbLine
 62
250
  6
CONTINUOUS
 10
180.5071395521
 20
182.9607542479
 11
180.6481511607
 21
182.8197697368
  0
LINE
  5
2F7
100
AcDbEntity
  8
RACCORDO
100
AcDbLine
 62
250
  6
CONTINUOUS
 10
225.3937102642
 20
182.1653395988
 11
225.4094588327
 21
174.8197729763
  0
LINE
  5
2F8
100
AcDbEntity
  8
RACCORDO
100
AcDbLine
 62
250
  6
CONTINUOUS
 10
225.8930250523
 20
182.1898511737
 11
225.9087736194
 21
174.8364380678
  0
LINE
  5
2F9
100
AcDbEntity
  8
RACCORDO
100
AcDbLine
 62
250
  6
CONTINUOUS
 10
225.4094588327
 20
174.8197729763
 11
225.418908709
 21
167.4710015767
  0
LINE
  5
2FA
100
AcDbEntity
  8
RACCORDO
100
AcDbLine
 62
250
  6
CONTINUOUS
 10
225.9087736194
 20
174.8364380678
 11
225.9182234866
 21
167.4790882792
  0
LINE
  5
2FB
100
AcDbEntity
  8
RACCORDO
100
AcDbLine
 62
250
  6
CONTINUOUS
 10
225.418908709
 20
167.4710015767
 11
225.4220594124
 21
160.1197649716
  0
LINE
  5
2FC
100
AcDbEntity
  8
RACCORDO
100
AcDbLine
 62
250
  6
CONTINUOUS
 10
225.9182234866
 20
167.4790882792
 11
225.9213741798
 21
160.1197697817
  0
LINE
  5
2FD
100
AcDbEntity
  8
RACCORDO
100
AcDbLine
 62
250
  6
CONTINUOUS
 10
224.5913284161
 20
183.4873453532
 11
224.5913284162
 21
182.9607542479
  0
LINE
  5
2FE
100
AcDbEntity
  8
RACCORDO
100
AcDbLine
 62
250
  6
CONTINUOUS
 10
224.5913284161
 20
136.7521941205
 11
224.5913284161
 21
137.2787852258
  0
LINE
  5
2FF
100
AcDbEntity
  8
0
100
AcDbLine
 62
7
  6
CONTINUOUS
 10
225.2492475329
 20
182.020866109
 11
225.2492475329
 21
138.2186733646
  0
LINE
  5
300
100
AcDbEntity
  8
RACCORDO
100
AcDbLine
 62
250
  6
CONTINUOUS
 10
225.4220594124
 20
160.1197649716
 11
225.4189086995
 21
152.768527882
  0
LINE
  5
301
100
AcDbEntity
  8
RACCORDO
100
AcDbLine
 62
250
  6
CONTINUOUS
 10
225.9213741798
 20
160.1197697817
 11
225.9182234868
 21
152.7604512763
  0
LINE
  5
302
100
AcDbEntity
  8
RACCORDO
100
AcDbLine
 62
250
  6
CONTINUOUS
 10
225.4189086995
 20
152.768527882
 11
225.4094588211
 21
145.4197586478
  0
LINE
  5
303
100
AcDbEntity
  8
RACCORDO
100
AcDbLine
 62
250
  6
CONTINUOUS
 10
225.9182234868
 20
152.7604512763
 11
225.9087736197
 21
145.4031014582
  0
LINE
  5
304
100
AcDbEntity
  8
RACCORDO
100
AcDbLine
 62
250
  6
CONTINUOUS
 10
225.4094588211
 20
145.4197586478
 11
225.3937102598
 21
138.0741976159
  0
LINE
  5
305
100
AcDbEntity
  8
RACCORDO
100
AcDbLine
 62
250
  6
CONTINUOUS
 10
225.9087736197
 20
145.4031014582
 11
225.8930250523
 21
138.0496882999
  0
LWPOLYLINE
  5
306
100
AcDbEntity
  8
RACCORDO
100
AcDbPolyline
 62
250
  6
CONTINUOUS
 90
10
 70
0
 10
225.3937102478
 20
138.0741976278
 10
225.3924740488
 20
138.0318010656
 10
225.3889777929
 20
137.9895145576
 10
225.3832281461
 20
137.9474576225
 10
225.3752341286
 20
137.9057319171
 10
225.3650172417
 20
137.8644739274
 10
225.3526207679
 20
137.823852353
 10
225.3380915752
 20
137.7839972452
 10
225.3214706366
 20
137.7450019766
 10
225.3028095456
 20
137.7069743766
  0
LWPOLYLINE
  5
307
100
AcDbEntity
  8
RACCORDO
100
AcDbPolyline
 62
250
  6
CONTINUOUS
 90
10
 70
0
 10
225.8930250523
 20
138.0496882999
 10
225.8909862822
 20
137.9804296979
 10
225.8853131379
 20
137.911706593
 10
225.8760056196
 20
137.8435189747
 10
225.8630017551
 20
137.775628789
 10
225.8463635164
 20
137.7082740726
 10
225.8262768198
 20
137.6421689352
 10
225.8028036372
 20
137.5775513891
 10
225.7758819967
 20
137.5141833668
 10
225.7455118982
 20
137.4520648431
  0
LWPOLYLINE
  5
308
100
AcDbEntity
  8
RACCORDO
100
AcDbPolyline
 62
250
  6
CONTINUOUS
 90
15
 70
0
 10
179.4478832125
 20
138.0533854948
 10
179.478843375
 20
138.0543799691
 10
179.5083747829
 20
138.0554780859
 10
179.5363230936
 20
138.0566741062
 10
179.5625422384
 20
138.057961779
 10
179.586895186
 20
138.0593343745
 10
179.6092546584
 20
138.0607847189
 10
179.6295037965
 20
138.0623052323
 10
179.6475367704
 20
138.0638879678
 10
179.6632593329
 20
138.0655246534
 10
179.6765893117
 20
138.0672067351
 10
179.6874570393
 20
138.0689254219
 10
179.6958057167
 20
138.0706717311
 10
179.7015917105
 20
138.0724365359
 10
179.7047847809
 20
138.0742106126
  0
LWPOLYLINE
  5
309
100
AcDbEntity
  8
RACCORDO
100
AcDbPolyline
 62
250
  6
CONTINUOUS
 90
15
 70
0
 10
108.4478832125
 20
138.0533854948
 10
108.478843375
 20
138.0543799691
 10
108.5083747829
 20
138.0554780859
 10
108.5363230936
 20
138.0566741062
 10
108.5625422384
 20
138.057961779
 10
108.586895186
 20
138.0593343745
 10
108.6092546584
 20
138.0607847189
 10
108.6295037965
 20
138.0623052323
 10
108.6475367704
 20
138.0638879678
 10
108.6632593329
 20
138.0655246534
 10
108.6765893117
 20
138.0672067351
 10
108.6874570393
 20
138.0689254219
 10
108.6958057167
 20
138.0706717311
 10
108.7015917105
 20
138.0724365359
 10
108.7047847809
 20
138.0742106126
  0
LINE
  5
30A
100
AcDbEntity
  8
RACCORDO
100
AcDbLine
 62
250
  6
CONTINUOUS
 10
179.3823304839
 20
138.0517276953
 11
179.4478832125
 21
138.0533854948
  0
LINE
  5
30B
100
AcDbEntity
  8
RACCORDO
100
AcDbLine
 62
250
  6
CONTINUOUS
 10
108.3823304839
 20
138.0517276953
 11
108.4478832125
 21
138.0533854948
  0
LWPOLYLINE
  5
30C
100
AcDbEntity
  8
RACCORDO
100
AcDbPolyline
 62
250
  6
CONTINUOUS
 90
3
 70
0
 10
108.2775274838
 20
138.0501292797
 10
108.3130852221
 20
138.0505392993
 10
108.3823304839
 20
138.0517276953
  0
LINE
  5
30D
100
AcDbEntity
  8
RACCORDO
100
AcDbLine
 62
250
  6
CONTINUOUS
 10
367.8209673619
 20
138.0501294096
 11
367.7504140257
 21
138.0510731345
  0
LWPOLYLINE
  5
30E
100
AcDbEntity
  8
RACCORDO
100
AcDbPolyline
 62
250
  6
CONTINUOUS
 90
17
 70
0
 10
367.7504140257
 20
138.0510731345
 10
367.6828380904
 20
138.0524999352
 10
367.6506107944
 20
138.0533855582
 10
367.619650439
 20
138.0543800223
 10
367.5901188371
 20
138.0554781301
 10
367.5621703339
 20
138.0566741423
 10
367.535951001
 20
138.0579618082
 10
367.5115978724
 20
138.0593343976
 10
367.4892382286
 20
138.0607847369
 10
367.468988931
 20
138.062305246
 10
367.4509558116
 20
138.0638879779
 10
367.4352331196
 20
138.0655246606
 10
367.4219030288
 20
138.0672067401
 10
367.4110352084
 20
138.0689254251
 10
367.4026864584
 20
138.070671733
 10
367.3969004132
 20
138.0724365367
 10
367.3937073132
 20
138.0742106125
  0
LWPOLYLINE
  5
30F
100
AcDbEntity
  8
RACCORDO
100
AcDbPolyline
 62
250
  6
CONTINUOUS
 90
22
 70
0
 10
322.5071537273
 20
137.2787852039
 10
322.4663984115
 20
137.2797463046
 10
322.4255691924
 20
137.2827854411
 10
322.384774013
 20
137.2879216558
 10
322.3441097154
 20
137.2951704553
 10
322.3037021578
 20
137.3045386938
 10
322.2637043785
 20
137.316017825
 10
322.2242069544
 20
137.3296059518
 10
322.1853473725
 20
137.3452803731
 10
322.1473416806
 20
137.3629699927
 10
322.1103132914
 20
137.382619997
 10
322.0743464024
 20
137.4041882992
 10
322.0395841891
 20
137.4275916533
 10
322.0061229694
 20
137.4527602257
 10
321.9740482288
 20
137.4796243283
 10
321.9434733849
 20
137.5080827459
 10
321.9144746869
 20
137.5380515454
 10
321.8871244797
 20
137.5694419782
 10
321.8615146028
 20
137.6021317885
 10
321.8377094871
 20
137.6360124201
 10
321.8157513151
 20
137.6709938486
 10
321.7956855202
 20
137.7069743766
  0
LWPOLYLINE
  5
310
100
AcDbEntity
  8
RACCORDO
100
AcDbPolyline
 62
250
  6
CONTINUOUS
 90
16
 70
0
 10
296.7161638928
 20
138.0517277821
 10
296.6506107944
 20
138.0533855582
 10
296.619650439
 20
138.0543800223
 10
296.5901188371
 20
138.0554781301
 10
296.5621703339
 20
138.0566741423
 10
296.535951001
 20
138.0579618082
 10
296.5115978724
 20
138.0593343976
 10
296.4892382286
 20
138.0607847369
 10
296.468988931
 20
138.062305246
 10
296.4509558116
 20
138.0638879779
 10
296.4352331196
 20
138.0655246606
 10
296.4219030288
 20
138.0672067401
 10
296.4110352084
 20
138.0689254251
 10
296.4026864584
 20
138.070671733
 10
296.3969004132
 20
138.0724365367
 10
296.3937073132
 20
138.0742106125
  0
LWPOLYLINE
  5
311
100
AcDbEntity
  8
0
100
AcDbPolyline
 62
7
  6
CONTINUOUS
 90
13
 70
0
 43
0.3499999917
 10
236.8706689453
 20
221.7269128418
 10
236.8706689453
 20
223.0126245117
 10
237.0849499512
 20
223.4411865234
 10
237.5135375977
 20
223.8697741699
 10
237.7278186035
 20
223.8697741699
 10
238.1563806152
 20
223.4411865234
 10
238.3706872559
 20
223.0126245117
 10
238.3706872559
 20
221.7269128418
 10
238.1563806152
 20
221.2983508301
 10
237.7278186035
 20
220.8697631836
 10
237.5135375977
 20
220.8697631836
 10
237.0849499512
 20
221.2983508301
 10
236.8706689453
 20
221.7269128418
  0
LWPOLYLINE
  5
312
100
AcDbEntity
  8
RACCORDO
100
AcDbPolyline
 62
250
  6
CONTINUOUS
 90
22
 70
0
 10
250.3529831676
 20
182.7874746305
 10
250.3854552654
 20
182.8461062649
 10
250.420862346
 20
182.9028634464
 10
250.4592044092
 20
182.9577462657
 10
250.5006063519
 20
183.0109400607
 10
250.5449432773
 20
183.062259663
 10
250.5918404952
 20
183.1111494268
 10
250.6413249337
 20
183.1575682963
 10
250.6933696647
 20
183.2015575384
 10
250.7475192127
 20
183.2426850296
 10
250.8038012878
 20
183.2809160316
 10
250.8621881799
 20
183.3162854956
 10
250.9221412833
 20
183.3484658524
 10
250.9836939586
 20
183.3774191056
 10
251.0468128451
 20
183.4031834384
 10
251.1108592549
 20
183.4255455533
 10
251.1758488727
 20
183.4444530255
 10
251.2417660137
 20
183.4599584166
 10
251.3079249361
 20
183.472005898
 10
251.3740970593
 20
183.4805768838
 10
251.4405109638
 20
183.4856900298
 10
251.5071666497
 20
183.4873453532
  0
LWPOLYLINE
  5
313
100
AcDbEntity
  8
RACCORDO
100
AcDbPolyline
 62
250
  6
CONTINUOUS
 90
22
 70
0
 10
225.7455118982
 20
137.4520648431
 10
225.7130398004
 20
137.3934332088
 10
225.6776327198
 20
137.3366760274
 10
225.6392906566
 20
137.2817932081
 10
225.597888714
 20
137.2285994131
 10
225.5535517887
 20
137.177279811
 10
225.506654571
 20
137.1283900472
 10
225.4571701325
 20
137.0819711777
 10
225.4051254017
 20
137.0379819357
 10
225.3509758538
 20
136.9968544445
 10
225.2946937787
 20
136.9586234426
 10
225.2363068867
 20
136.9232539785
 10
225.1763537833
 20
136.8910736217
 10
225.114801108
 20
136.8621203685
 10
225.0516822215
 20
136.8363560356
 10
224.9876358117
 20
136.8139939207
 10
224.9226461938
 20
136.7950864484
 10
224.8567290526
 20
136.7795810572
 10
224.7905701301
 20
136.7675335758
 10
224.7243980068
 20
136.7589625899
 10
224.6579841021
 20
136.7538494439
 10
224.5913284161
 20
136.7521941205
  0
LWPOLYLINE
  5
314
100
AcDbEntity
  8
RACCORDO
100
AcDbPolyline
 62
250
  6
CONTINUOUS
 90
22
 70
0
 10
225.3028095456
 20
137.7069743766
 10
225.2828199726
 20
137.6711225346
 10
225.2609402033
 20
137.6362451519
 10
225.2372125478
 20
137.6024446415
 10
225.2116743141
 20
137.569809763
 10
225.1843886606
 20
137.5384528652
 10
225.15545093
 20
137.5085040596
 10
225.1249321264
 20
137.480053237
 10
225.0929067564
 20
137.4531850924
 10
225.0594931037
 20
137.428006555
 10
225.0247795501
 20
137.4045898467
 10
224.9888586245
 20
137.3830025919
 10
224.9518688016
 20
137.3633264237
 10
224.9139037813
 20
137.3456089838
 10
224.8750764542
 20
137.329900725
 10
224.8355656905
 20
137.3162625243
 10
224.7954793267
 20
137.3047169221
 10
224.7549333451
 20
137.2952829119
 10
224.7141267203
 20
137.28798338
 10
224.6732020872
 20
137.2828131107
 10
224.6322420369
 20
137.279753422
 10
224.5913555598
 20
137.2787851801
  0
LWPOLYLINE
  5
315
100
AcDbEntity
  8
RACCORDO
100
AcDbPolyline
 62
250
  6
CONTINUOUS
 90
22
 70
0
 10
250.7956855202
 20
182.532565097
 10
250.8156750932
 20
182.5684169391
 10
250.8375548625
 20
182.6032943217
 10
250.861282518
 20
182.6370948322
 10
250.8868207517
 20
182.6697297107
 10
250.9141064053
 20
182.7010866086
 10
250.943044136
 20
182.7310354143
 10
250.9735629396
 20
182.7594862369
 10
251.0055883098
 20
182.7863543816
 10
251.0390019625
 20
182.8115329189
 10
251.0737155161
 20
182.8349496273
 10
251.1096364418
 20
182.856536882
 10
251.1466262647
 20
182.8762130502
 10
251.184591285
 20
182.8939304901
 10
251.2234186121
 20
182.9096387489
 10
251.2629293758
 20
182.9232769495
 10
251.3030157395
 20
182.9348225517
 10
251.3435617211
 20
182.9442565619
 10
251.3843683458
 20
182.9515560937
 10
251.4252929787
 20
182.956726363
 10
251.466253029
 20
182.9597860517
 10
251.5071395059
 20
182.9607542936
  0
LWPOLYLINE
  5
316
100
AcDbEntity
  8
RACCORDO
100
AcDbPolyline
 62
250
  6
CONTINUOUS
 90
14
 70
0
 10
179.5960120954
 20
137.5829528975
 10
179.6222376463
 20
137.597688619
 10
179.647046635
 20
137.6117907136
 10
179.6703085392
 20
137.6251849888
 10
179.6919009755
 20
137.637800976
 10
179.7117103441
 20
137.6495723012
 10
179.7296324259
 20
137.6604370344
 10
179.7455729311
 20
137.6703380152
 10
179.7594479951
 20
137.6792231534
 10
179.7711846199
 20
137.6870457036
 10
179.7807210579
 20
137.6937645105
 10
179.788007137
 20
137.6993442258
 10
179.7930045244
 20
137.7037554941
 10
179.7956869284
 20
137.7069751074
  0
LINE
  5
317
100
AcDbEntity
  8
RACCORDO
100
AcDbLine
 62
250
  6
CONTINUOUS
 10
179.5398699347
 20
137.5518936038
 11
179.5960120954
 21
137.5829528975
  0
LINE
  5
318
100
AcDbEntity
  8
RACCORDO
100
AcDbLine
 62
250
  6
CONTINUOUS
 10
179.4798000768
 20
137.5192655965
 11
179.5398699347
 21
137.5518936038
  0
LINE
  5
319
100
AcDbEntity
  8
RACCORDO
100
AcDbLine
 62
250
  6
CONTINUOUS
 10
179.4170649927
 20
137.4857546093
 11
179.4798000768
 21
137.5192655965
  0
LINE
  5
31A
100
AcDbEntity
  8
RACCORDO
100
AcDbLine
 62
250
  6
CONTINUOUS
 10
179.3529831676
 20
137.4520649329
 11
179.4170649927
 21
137.4857546093
  0
LWPOLYLINE
  5
31B
100
AcDbEntity
  8
0
100
AcDbPolyline
 62
7
  6
CONTINUOUS
 90
13
 70
0
 43
0.3499999917
 10
406.4421057129
 20
160.1197650146
 10
405.156394043
 20
160.1197650146
 10
404.7278063965
 20
160.3340588379
 10
404.2992443848
 20
160.7626208496
 10
404.2992443848
 20
160.9769146729
 10
404.7278063965
 20
161.405489502
 10
405.156394043
 20
161.6197705078
 10
406.4421057129
 20
161.6197705078
 10
406.8706677246
 20
161.405489502
 10
407.2992553711
 20
160.9769146729
 10
407.2992553711
 20
160.7626208496
 10
406.8706677246
 20
160.3340588379
 10
406.4421057129
 20
160.1197650146
  0
LINE
  5
31C
100
AcDbEntity
  8
RACCORDO
100
AcDbLine
 62
250
  6
CONTINUOUS
 10
179.3529831676
 20
182.7874744702
 11
179.4170650716
 21
182.7537847626
  0
LINE
  5
31D
100
AcDbEntity
  8
RACCORDO
100
AcDbLine
 62
250
  6
CONTINUOUS
 10
179.4170650716
 20
182.7537847626
 11
179.4798002654
 21
182.7202737278
  0
LINE
  5
31E
100
AcDbEntity
  8
RACCORDO
100
AcDbLine
 62
250
  6
CONTINUOUS
 10
179.4798002654
 20
182.7202737278
 11
179.5398702546
 21
182.6876456612
  0
LWPOLYLINE
  5
31F
100
AcDbEntity
  8
RACCORDO
100
AcDbPolyline
 62
250
  6
CONTINUOUS
 90
15
 70
0
 10
179.5398702546
 20
182.6876456612
 10
179.5960125588
 20
182.656586301
 10
179.6222381832
 20
182.641850545
 10
179.6470472452
 20
182.627748416
 10
179.6703092211
 20
182.6143541069
 10
179.6919017268
 20
182.6017380868
 10
179.7117111615
 20
182.5899667302
 10
179.729633305
 20
182.5791019677
 10
179.745573867
 20
182.5692009601
 10
179.7594489819
 20
182.5603157979
 10
179.7711856511
 20
182.552493227
 10
179.7807221265
 20
182.5457744028
 10
179.7880082355
 20
182.540194674
 10
179.7930056449
 20
182.5357833961
 10
179.7956880628
 20
182.5325637775
  0
LWPOLYLINE
  5
320
100
AcDbEntity
  8
RACCORDO
100
AcDbPolyline
 62
250
  6
CONTINUOUS
 90
13
 70
0
 10
225.3028095456
 20
182.532565097
 10
225.3169671403
 20
182.5041965158
 10
225.3299987398
 20
182.4752490373
 10
225.3418791985
 20
182.4457663593
 10
225.3525908702
 20
182.4157762104
 10
225.3621047991
 20
182.385341208
 10
225.370387677
 20
182.354560924
 10
225.3774226287
 20
182.3235091369
 10
225.3832068602
 20
182.2922115921
 10
225.3877349723
 20
182.26069785
 10
225.3909992686
 20
182.2290110021
 10
225.3929924409
 20
182.1972080766
 10
225.3937102553
 20
182.16533959
  0
LWPOLYLINE
  5
321
100
AcDbEntity
  8
RACCORDO
100
AcDbPolyline
 62
250
  6
CONTINUOUS
 90
13
 70
0
 10
250.7956855202
 20
137.7069743766
 10
250.7815297595
 20
137.735339088
 10
250.7684990784
 20
137.764283978
 10
250.7566187848
 20
137.7937654354
 10
250.7459064333
 20
137.823756582
 10
250.7363914776
 20
137.8541941027
 10
250.7281079992
 20
137.8849760833
 10
250.7210730627
 20
137.9160272877
 10
250.7152889496
 20
137.9473233431
 10
250.710760718
 20
137.9788365581
 10
250.7074961277
 20
138.0105244895
 10
250.7055027068
 20
138.0423294919
 10
250.7047848073
 20
138.0742010458
  0
LWPOLYLINE
  5
322
100
AcDbEntity
  8
RACCORDO
100
AcDbPolyline
 62
250
  6
CONTINUOUS
 90
13
 70
0
 10
225.7455218699
 20
182.7874524068
 10
225.7685191513
 20
182.7412322101
 10
225.7896242292
 20
182.6941952518
 10
225.8088371038
 20
182.6463415194
 10
225.8261975514
 20
182.5975587817
 10
225.8416657955
 20
182.5479592434
 10
225.8551225068
 20
182.4978795517
 10
225.8665411264
 20
182.4473630304
 10
225.8759482132
 20
182.3963663413
 10
225.8833041144
 20
182.3450961477
 10
225.8885956126
 20
182.2936213361
 10
225.8918359252
 20
182.2418730127
 10
225.8930250523
 20
182.1898511737
  0
LWPOLYLINE
  5
323
100
AcDbEntity
  8
RACCORDO
100
AcDbPolyline
 62
250
  6
CONTINUOUS
 90
13
 70
0
 10
250.3529831676
 20
137.4520648431
 10
250.3299854676
 20
137.4982845688
 10
250.3088795748
 20
137.5453222672
 10
250.2896654891
 20
137.5931779509
 10
250.272303101
 20
137.6419647655
 10
250.25683252
 20
137.6915695918
 10
250.2433740747
 20
137.7416530397
 10
250.2319548707
 20
137.7921700559
 10
250.2225478023
 20
137.843165708
 10
250.2151918812
 20
137.8944357774
 10
250.2099001113
 20
137.9459121924
 10
250.2066594888
 20
137.9976630319
 10
250.2054700135
 20
138.0496882999
  0
LINE
  5
324
100
AcDbEntity
  8
RACCORDO
100
AcDbLine
 62
250
  6
CONTINUOUS
 10
250.2054700135
 20
138.0496882999
 11
250.1897214464
 21
145.4031014095
  0
LINE
  5
325
100
AcDbEntity
  8
RACCORDO
100
AcDbLine
 62
250
  6
CONTINUOUS
 10
250.7047847994
 20
138.074201038
 11
250.6890362326
 21
145.4197667595
  0
LINE
  5
326
100
AcDbEntity
  8
RACCORDO
100
AcDbLine
 62
250
  6
CONTINUOUS
 10
250.1897214464
 20
145.4031014095
 11
250.1802715792
 21
152.7604511999
  0
LINE
  5
327
100
AcDbEntity
  8
RACCORDO
100
AcDbLine
 62
250
  6
CONTINUOUS
 10
250.6890362326
 20
145.4197667595
 11
250.679586357
 21
152.7685378162
  0
LINE
  5
328
100
AcDbEntity
  8
RACCORDO
100
AcDbLine
 62
250
  6
CONTINUOUS
 10
250.1802715792
 20
152.7604511999
 11
250.177120886
 21
160.1197696976
  0
LINE
  5
329
100
AcDbEntity
  8
RACCORDO
100
AcDbLine
 62
250
  6
CONTINUOUS
 10
250.679586357
 20
152.7685378162
 11
250.6764356534
 21
160.1197745076
  0
LINE
  5
32A
100
AcDbEntity
  8
RACCORDO
100
AcDbLine
 62
250
  6
CONTINUOUS
 10
250.177120886
 20
160.1197696976
 11
250.180271579
 21
167.4790882028
  0
LINE
  5
32B
100
AcDbEntity
  8
RACCORDO
100
AcDbLine
 62
250
  6
CONTINUOUS
 10
250.6764356534
 20
160.1197745076
 11
250.6795863663
 21
167.4710116213
  0
LINE
  5
32C
100
AcDbEntity
  8
RACCORDO
100
AcDbLine
 62
250
  6
CONTINUOUS
 10
250.180271579
 20
167.4790882028
 11
250.1897214461
 21
174.8364380191
  0
LINE
  5
32D
100
AcDbEntity
  8
RACCORDO
100
AcDbLine
 62
250
  6
CONTINUOUS
 10
250.6795863663
 20
167.4710116213
 11
250.6890362445
 21
174.819780757
  0
LINE
  5
32E
100
AcDbEntity
  8
RACCORDO
100
AcDbLine
 62
250
  6
CONTINUOUS
 10
250.1897214461
 20
174.8364380191
 11
250.2054700135
 21
182.1898511737
  0
LINE
  5
32F
100
AcDbEntity
  8
RACCORDO
100
AcDbLine
 62
250
  6
CONTINUOUS
 10
250.6890362445
 20
174.819780757
 11
250.7047848053
 21
182.1653415314
  0
LWPOLYLINE
  5
330
100
AcDbEntity
  8
RACCORDO
100
AcDbPolyline
 62
250
  6
CONTINUOUS
 90
10
 70
0
 10
250.704784817
 20
182.1653415198
 10
250.7060208745
 20
182.2077358759
 10
250.7095168382
 20
182.2500209576
 10
250.7152661649
 20
182.292077249
 10
250.7232600142
 20
182.3338033473
 10
250.7334769753
 20
182.3750624717
 10
250.745873626
 20
182.4156851127
 10
250.7604029893
 20
182.4555409599
 10
250.7770241549
 20
182.4945368987
 10
250.7956855202
 20
182.532565097
  0
LWPOLYLINE
  5
331
100
AcDbEntity
  8
RACCORDO
100
AcDbPolyline
 62
250
  6
CONTINUOUS
 90
10
 70
0
 10
250.2054700135
 20
182.1898511737
 10
250.207507644
 20
182.2591016263
 10
250.2131799032
 20
182.3278192093
 10
250.222486791
 20
182.3960039333
 10
250.2354902392
 20
182.4638946392
 10
250.2521283161
 20
182.5312525032
 10
250.2722152268
 20
182.5973610551
 10
250.2956890399
 20
182.6619814955
 10
250.3226116868
 20
182.7253526789
 10
250.3529831676
 20
182.7874746305
  0
LWPOLYLINE
  5
332
100
AcDbEntity
  8
RACCORDO
100
AcDbPolyline
 62
250
  6
CONTINUOUS
 90
14
 70
0
 10
296.5024829464
 20
182.6565865619
 10
296.4762573918
 20
182.6418508386
 10
296.4514483993
 20
182.6277487423
 10
296.4281864916
 20
182.6143544655
 10
296.4065940518
 20
182.6017384767
 10
296.3867846799
 20
182.5899671499
 10
296.3688625951
 20
182.5791024153
 10
296.3529220871
 20
182.5692014333
 10
296.3390470207
 20
182.5603162939
 10
296.3273103938
 20
182.5524937427
 10
296.317773954
 20
182.545774935
 10
296.3104878736
 20
182.5401952191
 10
296.3054904853
 20
182.5357839503
 10
296.3028080808
 20
182.5325643369
  0
LINE
  5
333
100
AcDbEntity
  8
RACCORDO
100
AcDbLine
 62
250
  6
CONTINUOUS
 10
296.5586251143
 20
182.687645859
 11
296.5024829464
 21
182.6565865619
  0
LINE
  5
334
100
AcDbEntity
  8
RACCORDO
100
AcDbLine
 62
250
  6
CONTINUOUS
 10
296.618694979
 20
182.7202738691
 11
296.5586251143
 21
182.687645859
  0
LINE
  5
335
100
AcDbEntity
  8
RACCORDO
100
AcDbLine
 62
250
  6
CONTINUOUS
 10
296.6814300688
 20
182.7537848587
 11
296.618694979
 21
182.7202738691
  0
LINE
  5
336
100
AcDbEntity
  8
RACCORDO
100
AcDbLine
 62
250
  6
CONTINUOUS
 10
296.7455118982
 20
182.7874745366
 11
296.6814300688
 21
182.7537848587
  0
LINE
  5
337
100
AcDbEntity
  8
RACCORDO
100
AcDbLine
 62
250
  6
CONTINUOUS
 10
296.7455118982
 20
137.4520650035
 11
296.6814299942
 21
137.4857547111
  0
LINE
  5
338
100
AcDbEntity
  8
RACCORDO
100
AcDbLine
 62
250
  6
CONTINUOUS
 10
296.6814299942
 20
137.4857547111
 11
296.6186948004
 21
137.5192657459
  0
LINE
  5
339
100
AcDbEntity
  8
RACCORDO
100
AcDbLine
 62
250
  6
CONTINUOUS
 10
296.6186948004
 20
137.5192657459
 11
296.5586248112
 21
137.5518938125
  0
LWPOLYLINE
  5
33A
100
AcDbEntity
  8
RACCORDO
100
AcDbPolyline
 62
250
  6
CONTINUOUS
 90
15
 70
0
 10
296.5586248112
 20
137.5518938125
 10
296.502482507
 20
137.5829531727
 10
296.4762568826
 20
137.5976889287
 10
296.4514478206
 20
137.6117910577
 10
296.4281858447
 20
137.6251853668
 10
296.4065933389
 20
137.6378013869
 10
296.3867839043
 20
137.6495727435
 10
296.3688617607
 20
137.660437506
 10
296.3529211988
 20
137.6703385135
 10
296.3390460839
 20
137.6792236758
 10
296.3273094147
 20
137.6870462467
 10
296.3177729393
 20
137.6937650709
 10
296.3104868303
 20
137.6993447997
 10
296.3054894208
 20
137.7037560776
 10
296.3028070029
 20
137.7069756962
  0
LINE
  5
33B
100
AcDbEntity
  8
0
100
AcDbLine
 62
7
  6
CONTINUOUS
 10
250.8492475329
 20
138.2186733646
 11
250.8492475329
 21
182.020866109
  0
LINE
  5
33C
100
AcDbEntity
  8
RACCORDO
100
AcDbLine
 62
250
  6
CONTINUOUS
 10
251.5071666497
 20
183.4873453532
 11
251.5071666497
 21
182.9607542479
  0
LINE
  5
33D
100
AcDbEntity
  8
RACCORDO
100
AcDbLine
 62
250
  6
CONTINUOUS
 10
251.5071666497
 20
136.7521941205
 11
251.5071666496
 21
137.2787852258
  0
LWPOLYLINE
  5
33E
100
AcDbEntity
  8
RACCORDO
100
AcDbPolyline
 62
250
  6
CONTINUOUS
 90
15
 70
0
 10
367.6506118533
 20
182.1861539788
 10
367.6196516908
 20
182.1851595046
 10
367.5901202829
 20
182.1840613878
 10
367.5621719722
 20
182.1828653675
 10
367.5359528274
 20
182.1815776947
 10
367.5115998798
 20
182.1802050992
 10
367.4892404074
 20
182.1787547548
 10
367.4689912693
 20
182.1772342414
 10
367.4509582954
 20
182.1756515059
 10
367.4352357329
 20
182.1740148203
 10
367.4219057541
 20
182.1723327385
 10
367.4110380265
 20
182.1706140518
 10
367.4026893491
 20
182.1688677426
 10
367.3969033553
 20
182.1671029378
 10
367.3937102849
 20
182.165328861
  0
LWPOLYLINE
  5
33F
100
AcDbEntity
  8
RACCORDO
100
AcDbPolyline
 62
250
  6
CONTINUOUS
 90
15
 70
0
 10
296.6506118533
 20
182.1861539788
 10
296.6196516908
 20
182.1851595046
 10
296.5901202829
 20
182.1840613878
 10
296.5621719722
 20
182.1828653675
 10
296.5359528274
 20
182.1815776947
 10
296.5115998798
 20
182.1802050992
 10
296.4892404074
 20
182.1787547548
 10
296.4689912693
 20
182.1772342414
 10
296.4509582954
 20
182.1756515059
 10
296.4352357329
 20
182.1740148203
 10
296.4219057541
 20
182.1723327385
 10
296.4110380265
 20
182.1706140518
 10
296.4026893491
 20
182.1688677426
 10
296.3969033553
 20
182.1671029378
 10
296.3937102849
 20
182.165328861
  0
LWPOLYLINE
  5
340
100
AcDbEntity
  8
RACCORDO
100
AcDbPolyline
 62
250
  6
CONTINUOUS
 90
15
 70
0
 10
225.6506118533
 20
182.1861539788
 10
225.6196516908
 20
182.1851595046
 10
225.5901202829
 20
182.1840613878
 10
225.5621719722
 20
182.1828653675
 10
225.5359528274
 20
182.1815776947
 10
225.5115998798
 20
182.1802050992
 10
225.4892404074
 20
182.1787547548
 10
225.4689912693
 20
182.1772342414
 10
225.4509582954
 20
182.1756515059
 10
225.4352357329
 20
182.1740148203
 10
225.4219057541
 20
182.1723327385
 10
225.4110380265
 20
182.1706140518
 10
225.4026893491
 20
182.1688677426
 10
225.3969033553
 20
182.1671029378
 10
225.3937102849
 20
182.165328861
  0
LINE
  5
341
100
AcDbEntity
  8
RACCORDO
100
AcDbLine
 62
250
  6
CONTINUOUS
 10
367.7161645819
 20
182.1878117783
 11
367.6506118533
 21
182.1861539788
  0
LINE
  5
342
100
AcDbEntity
  8
RACCORDO
100
AcDbLine
 62
250
  6
CONTINUOUS
 10
296.7161645819
 20
182.1878117783
 11
296.6506118533
 21
182.1861539788
  0
LINE
  5
343
100
AcDbEntity
  8
RACCORDO
100
AcDbLine
 62
250
  6
CONTINUOUS
 10
225.7161645819
 20
182.1878117783
 11
225.6506118533
 21
182.1861539788
  0
LINE
  5
344
100
AcDbEntity
  8
RACCORDO
100
AcDbLine
 62
250
  6
CONTINUOUS
 10
367.7854098437
 20
182.1890001744
 11
367.7161645819
 21
182.1878117783
  0
LINE
  5
345
100
AcDbEntity
  8
RACCORDO
100
AcDbLine
 62
250
  6
CONTINUOUS
 10
296.7854098437
 20
182.1890001744
 11
296.7161645819
 21
182.1878117783
  0
LINE
  5
346
100
AcDbEntity
  8
RACCORDO
100
AcDbLine
 62
250
  6
CONTINUOUS
 10
225.7854098437
 20
182.1890001744
 11
225.7161645819
 21
182.1878117783
  0
LINE
  5
347
100
AcDbEntity
  8
RACCORDO
100
AcDbLine
 62
250
  6
CONTINUOUS
 10
154.7854098437
 20
182.1890001744
 11
154.7161645819
 21
182.1878117783
  0
LWPOLYLINE
  5
348
100
AcDbEntity
  8
RACCORDO
100
AcDbPolyline
 62
250
  6
CONTINUOUS
 90
19
 70
0
 10
87.1064773148
 20
182.78747463
 10
87.081199029
 20
182.7873542399
 10
87.0561005377
 20
182.7871272218
 10
87.0313603565
 20
182.7867951904
 10
87.0071544525
 20
182.7863605073
 10
86.9836549928
 20
182.7858262643
 10
86.9610291198
 20
182.7851962611
 10
86.9394377623
 20
182.7844749788
 10
86.9190344911
 20
182.7836675475
 10
86.8999644266
 20
182.7827797102
 10
86.8823632068
 20
182.7818177818
 10
86.866356022
 20
182.7807886039
 10
86.8520567251
 20
182.7796994969
 10
86.8395670214
 20
182.778558207
 10
86.8289757451
 20
182.7773728518
 10
86.8203582278
 20
182.7761518623
 10
86.8137757625
 20
182.7749039229
 10
86.8092751677
 20
182.7736379097
 10
86.8068884544
 20
182.7723628273
  0
LWPOLYLINE
  5
349
100
AcDbEntity
  8
RACCORDO
100
AcDbPolyline
 62
250
  6
CONTINUOUS
 90
3
 70
0
 10
367.8930250523
 20
182.1898511731
 10
367.8569019204
 20
182.1896943553
 10
367.7854098437
 20
182.1890001744
  0
LWPOLYLINE
  5
34A
100
AcDbEntity
  8
RACCORDO
100
AcDbPolyline
 62
250
  6
CONTINUOUS
 90
3
 70
0
 10
296.8930250523
 20
182.1898511731
 10
296.8569019204
 20
182.1896943553
 10
296.7854098437
 20
182.1890001744
  0
LWPOLYLINE
  5
34B
100
AcDbEntity
  8
RACCORDO
100
AcDbPolyline
 62
250
  6
CONTINUOUS
 90
3
 70
0
 10
225.8930250523
 20
182.1898511731
 10
225.8569019204
 20
182.1896943553
 10
225.7854098437
 20
182.1890001744
  0
LWPOLYLINE
  5
34C
100
AcDbEntity
  8
RACCORDO
100
AcDbPolyline
 62
250
  6
CONTINUOUS
 90
3
 70
0
 10
154.8930250523
 20
182.1898511731
 10
154.8569019204
 20
182.1896943553
 10
154.7854098437
 20
182.1890001744
  0
LINE
  5
34D
100
AcDbEntity
  8
RACCORDO
100
AcDbLine
 62
250
  6
CONTINUOUS
 10
321.3529831676
 20
182.7874746305
 11
296.7455257701
 21
182.7874524069
  0
LINE
  5
34E
100
AcDbEntity
  8
RACCORDO
100
AcDbLine
 62
250
  6
CONTINUOUS
 10
250.3529831676
 20
182.7874746305
 11
225.7455257701
 21
182.7874524068
  0
LINE
  5
34F
100
AcDbEntity
  8
RACCORDO
100
AcDbLine
 62
250
  6
CONTINUOUS
 10
179.3529831676
 20
182.7874746305
 11
154.7455257701
 21
182.7874524068
  0
LINE
  5
350
100
AcDbEntity
  8
RACCORDO
100
AcDbLine
 62
250
  6
CONTINUOUS
 10
388.9920175347
 20
182.7874169987
 11
367.7455257701
 21
182.7874524068
  0
LINE
  5
351
100
AcDbEntity
  8
RACCORDO
100
AcDbLine
 62
250
  6
CONTINUOUS
 10
108.3529831676
 20
182.7874746305
 11
87.1064775305
 21
182.7874171465
  0
LINE
  5
352
100
AcDbEntity
  8
0
100
AcDbLine
 62
7
  6
CONTINUOUS
 10
109.6481511607
 20
182.8197697368
 11
153.4503439051
 21
182.8197697368
  0
LINE
  5
353
100
AcDbEntity
  8
0
100
AcDbLine
 62
7
  6
CONTINUOUS
 10
180.6481511607
 20
182.8197697368
 11
224.4503439051
 21
182.8197697368
  0
LINE
  5
354
100
AcDbEntity
  8
0
100
AcDbLine
 62
7
  6
CONTINUOUS
 10
251.6481511607
 20
182.8197697368
 11
295.4503439051
 21
182.8197697368
  0
LINE
  5
355
100
AcDbEntity
  8
0
100
AcDbLine
 62
7
  6
CONTINUOUS
 10
322.6481511607
 20
182.8197697368
 11
366.4503439051
 21
182.8197697368
  0
LINE
  5
356
100
AcDbEntity
  8
RACCORDO
100
AcDbLine
 62
250
  6
CONTINUOUS
 10
109.5071395521
 20
182.9607542479
 11
153.5913413165
 21
182.9607542479
  0
LINE
  5
357
100
AcDbEntity
  8
RACCORDO
100
AcDbLine
 62
250
  6
CONTINUOUS
 10
180.5071395521
 20
182.9607542479
 11
224.5913413165
 21
182.9607542479
  0
LINE
  5
358
100
AcDbEntity
  8
RACCORDO
100
AcDbLine
 62
250
  6
CONTINUOUS
 10
251.5071395521
 20
182.9607542479
 11
295.5913413165
 21
182.9607542479
  0
LINE
  5
359
100
AcDbEntity
  8
RACCORDO
100
AcDbLine
 62
250
  6
CONTINUOUS
 10
322.5071395521
 20
182.9607542479
 11
366.5913413165
 21
182.9607542479
  0
LINE
  5
35A
100
AcDbEntity
  8
RACCORDO
100
AcDbLine
 62
250
  6
CONTINUOUS
 10
109.5071666497
 20
183.4873453532
 11
153.5913284161
 21
183.4873453532
  0
LINE
  5
35B
100
AcDbEntity
  8
RACCORDO
100
AcDbLine
 62
250
  6
CONTINUOUS
 10
180.5071666497
 20
183.4873453532
 11
224.5913284161
 21
183.4873453532
  0
LINE
  5
35C
100
AcDbEntity
  8
RACCORDO
100
AcDbLine
 62
250
  6
CONTINUOUS
 10
251.5071666497
 20
183.4873453532
 11
295.5913284161
 21
183.4873453532
  0
LINE
  5
35D
100
AcDbEntity
  8
RACCORDO
100
AcDbLine
 62
250
  6
CONTINUOUS
 10
322.5071666497
 20
183.4873453532
 11
366.5913284161
 21
183.4873453532
  0
LWPOLYLINE
  5
35E
100
AcDbEntity
  8
RACCORDO
100
AcDbPolyline
 62
250
  6
CONTINUOUS
 90
19
 70
0
 10
388.992017751
 20
182.7874746297
 10
389.0172960365
 20
182.7873542397
 10
389.0423945276
 20
182.7871272216
 10
389.0671347086
 20
182.7867951902
 10
389.0913406124
 20
182.7863605071
 10
389.1148400719
 20
182.7858262641
 10
389.1374659448
 20
182.7851962609
 10
389.1590573022
 20
182.7844749786
 10
389.1794605733
 20
182.7836675473
 10
389.1985306377
 20
182.7827797101
 10
389.2161318575
 20
182.7818177816
 10
389.2321390423
 20
182.7807886038
 10
389.2464383393
 20
182.7796994968
 10
389.2589280432
 20
182.7785582069
 10
389.2695193196
 20
182.7773728518
 10
389.2781368371
 20
182.7761518623
 10
389.2847193026
 20
182.7749039229
 10
389.2892198977
 20
182.7736379097
 10
389.2916066114
 20
182.7723628273
  0
LINE
  5
35F
100
AcDbEntity
  8
RACCORDO
100
AcDbLine
 62
250
  6
CONTINUOUS
 10
108.2054700136
 20
182.1898510021
 11
108.2775277141
 21
182.1894100581
  0
LINE
  5
360
100
AcDbEntity
  8
RACCORDO
100
AcDbLine
 62
250
  6
CONTINUOUS
 10
179.2054700136
 20
182.1898510021
 11
179.2775277141
 21
182.1894100581
  0
LINE
  5
361
100
AcDbEntity
  8
RACCORDO
100
AcDbLine
 62
250
  6
CONTINUOUS
 10
250.2054700136
 20
182.1898510021
 11
250.2775277141
 21
182.1894100581
  0
LINE
  5
362
100
AcDbEntity
  8
RACCORDO
100
AcDbLine
 62
250
  6
CONTINUOUS
 10
321.2054700136
 20
182.1898510021
 11
321.2775277141
 21
182.1894100581
  0
LINE
  5
363
100
AcDbEntity
  8
RACCORDO
100
AcDbLine
 62
250
  6
CONTINUOUS
 10
108.2775277141
 20
182.1894100581
 11
108.348081064
 21
182.1884663346
  0
LINE
  5
364
100
AcDbEntity
  8
RACCORDO
100
AcDbLine
 62
250
  6
CONTINUOUS
 10
179.2775277141
 20
182.1894100581
 11
179.348081064
 21
182.1884663346
  0
LINE
  5
365
100
AcDbEntity
  8
RACCORDO
100
AcDbLine
 62
250
  6
CONTINUOUS
 10
250.2775277141
 20
182.1894100581
 11
250.348081064
 21
182.1884663346
  0
LWPOLYLINE
  5
366
100
AcDbEntity
  8
RACCORDO
100
AcDbPolyline
 62
250
  6
CONTINUOUS
 90
3
 70
0
 10
321.2775277141
 20
182.1894100581
 10
321.348081064
 20
182.1884663346
 10
321.3823312049
 20
182.1878116875
  0
LWPOLYLINE
  5
367
100
AcDbEntity
  8
RACCORDO
100
AcDbPolyline
 62
250
  6
CONTINUOUS
 90
17
 70
0
 10
108.348081064
 20
182.1884663346
 10
108.4156570157
 20
182.187039535
 10
108.4478843204
 20
182.1861539126
 10
108.4788446847
 20
182.1851594489
 10
108.5083762957
 20
182.1840613416
 10
108.5363248078
 20
182.1828653297
 10
108.5625441495
 20
182.1815776642
 10
108.5868972865
 20
182.180205075
 10
108.6092569383
 20
182.178754736
 10
108.6295062433
 20
182.1772342271
 10
108.6475393695
 20
182.1756514953
 10
108.6632620676
 20
182.1740148127
 10
108.6765921635
 20
182.1723327333
 10
108.6874599883
 20
182.1706140484
 10
108.6958087417
 20
182.1688677406
 10
108.7015947894
 20
182.167102937
 10
108.7047878908
 20
182.1653288611
  0
LWPOLYLINE
  5
368
100
AcDbEntity
  8
RACCORDO
100
AcDbPolyline
 62
250
  6
CONTINUOUS
 90
17
 70
0
 10
179.348081064
 20
182.1884663346
 10
179.4156570157
 20
182.187039535
 10
179.4478843204
 20
182.1861539126
 10
179.4788446847
 20
182.1851594489
 10
179.5083762957
 20
182.1840613416
 10
179.5363248078
 20
182.1828653297
 10
179.5625441495
 20
182.1815776642
 10
179.5868972865
 20
182.180205075
 10
179.6092569383
 20
182.178754736
 10
179.6295062433
 20
182.1772342271
 10
179.6475393695
 20
182.1756514953
 10
179.6632620676
 20
182.1740148127
 10
179.6765921635
 20
182.1723327333
 10
179.6874599883
 20
182.1706140484
 10
179.6958087417
 20
182.1688677406
 10
179.7015947894
 20
182.167102937
 10
179.7047878908
 20
182.1653288611
  0
LWPOLYLINE
  5
369
100
AcDbEntity
  8
RACCORDO
100
AcDbPolyline
 62
250
  6
CONTINUOUS
 90
17
 70
0
 10
250.348081064
 20
182.1884663346
 10
250.4156570157
 20
182.187039535
 10
250.4478843204
 20
182.1861539126
 10
250.4788446847
 20
182.1851594489
 10
250.5083762957
 20
182.1840613416
 10
250.5363248078
 20
182.1828653297
 10
250.5625441495
 20
182.1815776642
 10
250.5868972865
 20
182.180205075
 10
250.6092569383
 20
182.178754736
 10
250.6295062433
 20
182.1772342271
 10
250.6475393695
 20
182.1756514953
 10
250.6632620676
 20
182.1740148127
 10
250.6765921635
 20
182.1723327333
 10
250.6874599883
 20
182.1706140484
 10
250.6958087417
 20
182.1688677406
 10
250.7015947894
 20
182.167102937
 10
250.7047878908
 20
182.1653288611
  0
LWPOLYLINE
  5
36A
100
AcDbEntity
  8
RACCORDO
100
AcDbPolyline
 62
250
  6
CONTINUOUS
 90
22
 70
0
 10
153.5913413385
 20
182.9607542697
 10
153.6320966543
 20
182.959793169
 10
153.6729258733
 20
182.9567540326
 10
153.7137210527
 20
182.9516178179
 10
153.7543853501
 20
182.9443690185
 10
153.7947929075
 20
182.93500078
 10
153.8347906868
 20
182.9235216489
 10
153.8742881108
 20
182.9099335221
 10
153.9131476927
 20
182.8942591008
 10
153.9511533846
 20
182.8765694813
 10
153.9881817739
 20
182.856919477
 10
154.0241486629
 20
182.8353511749
 10
154.0589108762
 20
182.8119478207
 10
154.092372096
 20
182.7867792483
 10
154.1244468367
 20
182.7599151457
 10
154.1550216807
 20
182.731456728
 10
154.1840203787
 20
182.7014879285
 10
154.211370586
 20
182.6700974956
 10
154.236980463
 20
182.6374076852
 10
154.2607855787
 20
182.6035270536
 10
154.2827437507
 20
182.5685456251
 10
154.3028095456
 20
182.532565097
  0
LWPOLYLINE
  5
36B
100
AcDbEntity
  8
RACCORDO
100
AcDbPolyline
 62
250
  6
CONTINUOUS
 90
22
 70
0
 10
224.5913413385
 20
182.9607542697
 10
224.6320966543
 20
182.959793169
 10
224.6729258733
 20
182.9567540326
 10
224.7137210527
 20
182.9516178179
 10
224.7543853501
 20
182.9443690185
 10
224.7947929075
 20
182.93500078
 10
224.8347906868
 20
182.9235216489
 10
224.8742881108
 20
182.9099335221
 10
224.9131476927
 20
182.8942591008
 10
224.9511533846
 20
182.8765694813
 10
224.9881817739
 20
182.856919477
 10
225.0241486629
 20
182.8353511749
 10
225.0589108762
 20
182.8119478207
 10
225.092372096
 20
182.7867792483
 10
225.1244468367
 20
182.7599151457
 10
225.1550216807
 20
182.731456728
 10
225.1840203787
 20
182.7014879285
 10
225.211370586
 20
182.6700974956
 10
225.236980463
 20
182.6374076852
 10
225.2607855787
 20
182.6035270536
 10
225.2827437507
 20
182.5685456251
 10
225.3028095456
 20
182.532565097
  0
LWPOLYLINE
  5
36C
100
AcDbEntity
  8
RACCORDO
100
AcDbPolyline
 62
250
  6
CONTINUOUS
 90
22
 70
0
 10
153.5913284161
 20
183.4873453532
 10
153.6576877482
 20
183.4857102302
 10
153.723830573
 20
183.4806388821
 10
153.7897568906
 20
183.4721312916
 10
153.8556776964
 20
183.4601804903
 10
153.9213819949
 20
183.4447933779
 10
153.9862367997
 20
183.4259907234
 10
154.0502653458
 20
183.4037073608
 10
154.1134443982
 20
183.3780083193
 10
154.1750712653
 20
183.3491096484
 10
154.2350946506
 20
183.3169740217
 10
154.2935658506
 20
183.2816385785
 10
154.349936064
 20
183.2434310706
 10
154.4041728678
 20
183.2023204164
 10
154.4563086849
 20
183.158337484
 10
154.5058919837
 20
183.1119029678
 10
154.5528966998
 20
183.0629791188
 10
154.5973488975
 20
183.0116034731
 10
154.6388752373
 20
182.9583096895
 10
154.6773512727
 20
182.9032756054
 10
154.7129014503
 20
182.8463232089
 10
154.7455257701
 20
182.7874524068
  0
LWPOLYLINE
  5
36D
100
AcDbEntity
  8
RACCORDO
100
AcDbPolyline
 62
250
  6
CONTINUOUS
 90
22
 70
0
 10
224.5913284161
 20
183.4873453532
 10
224.6576877482
 20
183.4857102302
 10
224.723830573
 20
183.4806388821
 10
224.7897568906
 20
183.4721312916
 10
224.8556776964
 20
183.4601804903
 10
224.9213819949
 20
183.4447933779
 10
224.9862367997
 20
183.4259907234
 10
225.0502653458
 20
183.4037073608
 10
225.1134443982
 20
183.3780083193
 10
225.1750712653
 20
183.3491096484
 10
225.2350946506
 20
183.3169740217
 10
225.2935658506
 20
183.2816385785
 10
225.349936064
 20
183.2434310706
 10
225.4041728678
 20
183.2023204164
 10
225.4563086849
 20
183.158337484
 10
225.5058919837
 20
183.1119029678
 10
225.5528966998
 20
183.0629791188
 10
225.5973488975
 20
183.0116034731
 10
225.6388752373
 20
182.9583096895
 10
225.6773512727
 20
182.9032756054
 10
225.7129014503
 20
182.8463232089
 10
225.7455257701
 20
182.7874524068
  0
LINE
  5
36E
100
AcDbEntity
  8
0
100
AcDbLine
 62
250
  6
CONTINUOUS
 10
295.5913413165
 20
182.9607542479
 11
295.4503439051
 21
182.8197697368
  0
LINE
  5
36F
100
AcDbEntity
  8
0
100
AcDbLine
 62
250
  6
CONTINUOUS
 10
250.7047847994
 20
138.074201038
 11
250.8492475329
 21
138.2186733646
  0
LINE
  5
370
100
AcDbEntity
  8
0
100
AcDbLine
 62
250
  6
CONTINUOUS
 10
251.5071537493
 20
137.2787852258
 11
251.6481511607
 21
137.4197697368
  0
LINE
  5
371
100
AcDbEntity
  8
0
100
AcDbLine
 62
250
  6
CONTINUOUS
 10
296.3937102642
 20
182.1653395988
 11
296.2492475329
 21
182.020866109
  0
LWPOLYLINE
  5
372
100
AcDbEntity
  8
RACCORDO
100
AcDbPolyline
 62
250
  6
CONTINUOUS
 90
14
 70
0
 10
250.5960120954
 20
137.5829528975
 10
250.6222376463
 20
137.597688619
 10
250.647046635
 20
137.6117907136
 10
250.6703085392
 20
137.6251849888
 10
250.6919009755
 20
137.637800976
 10
250.7117103441
 20
137.6495723012
 10
250.7296324259
 20
137.6604370344
 10
250.7455729311
 20
137.6703380152
 10
250.7594479951
 20
137.6792231534
 10
250.7711846199
 20
137.6870457036
 10
250.7807210579
 20
137.6937645105
 10
250.788007137
 20
137.6993442258
 10
250.7930045244
 20
137.7037554941
 10
250.7956869284
 20
137.7069751074
  0
LINE
  5
373
100
AcDbEntity
  8
RACCORDO
100
AcDbLine
 62
250
  6
CONTINUOUS
 10
250.5398699347
 20
137.5518936038
 11
250.5960120954
 21
137.5829528975
  0
LINE
  5
374
100
AcDbEntity
  8
RACCORDO
100
AcDbLine
 62
250
  6
CONTINUOUS
 10
250.4798000768
 20
137.5192655965
 11
250.5398699347
 21
137.5518936038
  0
LINE
  5
375
100
AcDbEntity
  8
RACCORDO
100
AcDbLine
 62
250
  6
CONTINUOUS
 10
250.4170649927
 20
137.4857546093
 11
250.4798000768
 21
137.5192655965
  0
LINE
  5
376
100
AcDbEntity
  8
RACCORDO
100
AcDbLine
 62
250
  6
CONTINUOUS
 10
250.3529831676
 20
137.4520649329
 11
250.4170649927
 21
137.4857546093
  0
LWPOLYLINE
  5
377
100
AcDbEntity
  8
RACCORDO
100
AcDbPolyline
 62
250
  6
CONTINUOUS
 90
15
 70
0
 10
154.6506118533
 20
182.1861539788
 10
154.6196516908
 20
182.1851595046
 10
154.5901202829
 20
182.1840613878
 10
154.5621719722
 20
182.1828653675
 10
154.5359528274
 20
182.1815776947
 10
154.5115998798
 20
182.1802050992
 10
154.4892404074
 20
182.1787547548
 10
154.4689912693
 20
182.1772342414
 10
154.4509582954
 20
182.1756515059
 10
154.4352357329
 20
182.1740148203
 10
154.4219057541
 20
182.1723327385
 10
154.4110380265
 20
182.1706140518
 10
154.4026893491
 20
182.1688677426
 10
154.3969033553
 20
182.1671029378
 10
154.3937102849
 20
182.165328861
  0
LINE
  5
378
100
AcDbEntity
  8
RACCORDO
100
AcDbLine
 62
250
  6
CONTINUOUS
 10
154.7161645819
 20
182.1878117783
 11
154.6506118533
 21
182.1861539788
  0
LWPOLYLINE
  5
379
100
AcDbEntity
  8
RACCORDO
100
AcDbPolyline
 62
250
  6
CONTINUOUS
 90
22
 70
0
 10
295.5913413385
 20
182.9607542697
 10
295.6320966543
 20
182.959793169
 10
295.6729258733
 20
182.9567540326
 10
295.7137210527
 20
182.9516178179
 10
295.7543853501
 20
182.9443690185
 10
295.7947929075
 20
182.93500078
 10
295.8347906868
 20
182.9235216489
 10
295.8742881108
 20
182.9099335221
 10
295.9131476927
 20
182.8942591008
 10
295.9511533846
 20
182.8765694813
 10
295.9881817739
 20
182.856919477
 10
296.0241486629
 20
182.8353511749
 10
296.0589108762
 20
182.8119478207
 10
296.092372096
 20
182.7867792483
 10
296.1244468367
 20
182.7599151457
 10
296.1550216807
 20
182.731456728
 10
296.1840203787
 20
182.7014879285
 10
296.211370586
 20
182.6700974956
 10
296.236980463
 20
182.6374076852
 10
296.2607855787
 20
182.6035270536
 10
296.2827437507
 20
182.5685456251
 10
296.3028095456
 20
182.532565097
  0
LWPOLYLINE
  5
37A
100
AcDbEntity
  8
RACCORDO
100
AcDbPolyline
 62
250
  6
CONTINUOUS
 90
22
 70
0
 10
366.5913413385
 20
182.9607542697
 10
366.6320966543
 20
182.959793169
 10
366.6729258733
 20
182.9567540326
 10
366.7137210527
 20
182.9516178179
 10
366.7543853501
 20
182.9443690185
 10
366.7947929075
 20
182.93500078
 10
366.8347906868
 20
182.9235216489
 10
366.8742881108
 20
182.9099335221
 10
366.9131476927
 20
182.8942591008
 10
366.9511533846
 20
182.8765694813
 10
366.9881817739
 20
182.856919477
 10
367.0241486629
 20
182.8353511749
 10
367.0589108762
 20
182.8119478207
 10
367.092372096
 20
182.7867792483
 10
367.1244468367
 20
182.7599151457
 10
367.1550216807
 20
182.731456728
 10
367.1840203787
 20
182.7014879285
 10
367.211370586
 20
182.6700974956
 10
367.236980463
 20
182.6374076852
 10
367.2607855787
 20
182.6035270536
 10
367.2827437507
 20
182.5685456251
 10
367.3028095456
 20
182.532565097
  0
LWPOLYLINE
  5
37B
100
AcDbEntity
  8
RACCORDO
100
AcDbPolyline
 62
250
  6
CONTINUOUS
 90
22
 70
0
 10
295.5913284161
 20
183.4873453532
 10
295.6576877482
 20
183.4857102302
 10
295.723830573
 20
183.4806388821
 10
295.7897568906
 20
183.4721312916
 10
295.8556776964
 20
183.4601804903
 10
295.9213819949
 20
183.4447933779
 10
295.9862367997
 20
183.4259907234
 10
296.0502653458
 20
183.4037073608
 10
296.1134443982
 20
183.3780083193
 10
296.1750712653
 20
183.3491096484
 10
296.2350946506
 20
183.3169740217
 10
296.2935658506
 20
183.2816385785
 10
296.349936064
 20
183.2434310706
 10
296.4041728678
 20
183.2023204164
 10
296.4563086849
 20
183.158337484
 10
296.5058919837
 20
183.1119029678
 10
296.5528966998
 20
183.0629791188
 10
296.5973488975
 20
183.0116034731
 10
296.6388752373
 20
182.9583096895
 10
296.6773512727
 20
182.9032756054
 10
296.7129014503
 20
182.8463232089
 10
296.7455257701
 20
182.7874524069
  0
LWPOLYLINE
  5
37C
100
AcDbEntity
  8
RACCORDO
100
AcDbPolyline
 62
250
  6
CONTINUOUS
 90
22
 70
0
 10
366.5913284161
 20
183.4873453532
 10
366.6576877482
 20
183.4857102302
 10
366.723830573
 20
183.4806388821
 10
366.7897568906
 20
183.4721312916
 10
366.8556776964
 20
183.4601804903
 10
366.9213819949
 20
183.4447933779
 10
366.9862367997
 20
183.4259907234
 10
367.0502653458
 20
183.4037073608
 10
367.1134443982
 20
183.3780083193
 10
367.1750712653
 20
183.3491096484
 10
367.2350946506
 20
183.3169740217
 10
367.2935658506
 20
183.2816385785
 10
367.349936064
 20
183.2434310706
 10
367.4041728678
 20
183.2023204164
 10
367.4563086849
 20
183.158337484
 10
367.5058919837
 20
183.1119029678
 10
367.5528966998
 20
183.0629791188
 10
367.5973488975
 20
183.0116034731
 10
367.6388752373
 20
182.9583096895
 10
367.6773512727
 20
182.9032756054
 10
367.7129014503
 20
182.8463232089
 10
367.7455257701
 20
182.7874524068
  0
LWPOLYLINE
  5
37D
100
AcDbEntity
  8
RACCORDO
100
AcDbPolyline
 62
250
  6
CONTINUOUS
 90
16
 70
0
 10
321.3823312049
 20
182.1878116875
 10
321.4478843204
 20
182.1861539126
 10
321.4788446847
 20
182.1851594489
 10
321.5083762957
 20
182.1840613416
 10
321.5363248078
 20
182.1828653297
 10
321.5625441495
 20
182.1815776642
 10
321.5868972865
 20
182.180205075
 10
321.6092569383
 20
182.178754736
 10
321.6295062433
 20
182.1772342271
 10
321.6475393695
 20
182.1756514953
 10
321.6632620676
 20
182.1740148127
 10
321.6765921635
 20
182.1723327333
 10
321.6874599883
 20
182.1706140484
 10
321.6958087417
 20
182.1688677406
 10
321.7015947894
 20
182.167102937
 10
321.7047878908
 20
182.1653288611
  0
LINE
  5
37E
100
AcDbEntity
  8
RACCORDO
100
AcDbLine
 62
250
  6
CONTINUOUS
 10
250.3529831676
 20
182.7874744702
 11
250.4170650716
 21
182.7537847626
  0
LINE
  5
37F
100
AcDbEntity
  8
RACCORDO
100
AcDbLine
 62
250
  6
CONTINUOUS
 10
250.4170650716
 20
182.7537847626
 11
250.4798002654
 21
182.7202737278
  0
LINE
  5
380
100
AcDbEntity
  8
RACCORDO
100
AcDbLine
 62
250
  6
CONTINUOUS
 10
250.4798002654
 20
182.7202737278
 11
250.5398702546
 21
182.6876456612
  0
LWPOLYLINE
  5
381
100
AcDbEntity
  8
RACCORDO
100
AcDbPolyline
 62
250
  6
CONTINUOUS
 90
15
 70
0
 10
250.5398702546
 20
182.6876456612
 10
250.5960125588
 20
182.656586301
 10
250.6222381832
 20
182.641850545
 10
250.6470472452
 20
182.627748416
 10
250.6703092211
 20
182.6143541069
 10
250.6919017268
 20
182.6017380868
 10
250.7117111615
 20
182.5899667302
 10
250.729633305
 20
182.5791019677
 10
250.745573867
 20
182.5692009601
 10
250.7594489819
 20
182.5603157979
 10
250.7711856511
 20
182.552493227
 10
250.7807221265
 20
182.5457744028
 10
250.7880082355
 20
182.540194674
 10
250.7930056449
 20
182.5357833961
 10
250.7956880628
 20
182.5325637775
  0
LINE
  5
382
100
AcDbEntity
  8
0
100
AcDbLine
 62
250
  6
CONTINUOUS
 10
295.5913555137
 20
137.2787852258
 11
295.4503439051
 21
137.4197697368
  0
LINE
  5
383
100
AcDbEntity
  8
0
100
AcDbLine
 62
250
  6
CONTINUOUS
 10
250.7047848053
 20
182.1653415314
 11
250.8492475329
 21
182.020866109
  0
LINE
  5
384
100
AcDbEntity
  8
0
100
AcDbLine
 62
250
  6
CONTINUOUS
 10
251.5071395521
 20
182.9607542479
 11
251.6481511607
 21
182.8197697368
  0
LINE
  5
385
100
AcDbEntity
  8
0
100
AcDbLine
 62
250
  6
CONTINUOUS
 10
296.3937102598
 20
138.0741976159
 11
296.2492475329
 21
138.2186733646
  0
LWPOLYLINE
  5
386
100
AcDbEntity
  8
RACCORDO
100
AcDbPolyline
 62
250
  6
CONTINUOUS
 90
14
 70
0
 10
367.5024829464
 20
182.6565865619
 10
367.4762573918
 20
182.6418508386
 10
367.4514483993
 20
182.6277487423
 10
367.4281864916
 20
182.6143544655
 10
367.4065940518
 20
182.6017384767
 10
367.3867846799
 20
182.5899671499
 10
367.3688625951
 20
182.5791024153
 10
367.3529220871
 20
182.5692014333
 10
367.3390470207
 20
182.5603162939
 10
367.3273103938
 20
182.5524937427
 10
367.317773954
 20
182.545774935
 10
367.3104878736
 20
182.5401952191
 10
367.3054904853
 20
182.5357839503
 10
367.3028080808
 20
182.5325643369
  0
LINE
  5
387
100
AcDbEntity
  8
RACCORDO
100
AcDbLine
 62
250
  6
CONTINUOUS
 10
367.5586251143
 20
182.687645859
 11
367.5024829464
 21
182.6565865619
  0
LINE
  5
388
100
AcDbEntity
  8
RACCORDO
100
AcDbLine
 62
250
  6
CONTINUOUS
 10
367.618694979
 20
182.7202738691
 11
367.5586251143
 21
182.687645859
  0
LINE
  5
389
100
AcDbEntity
  8
RACCORDO
100
AcDbLine
 62
250
  6
CONTINUOUS
 10
367.6814300688
 20
182.7537848587
 11
367.618694979
 21
182.7202738691
  0
LINE
  5
38A
100
AcDbEntity
  8
RACCORDO
100
AcDbLine
 62
250
  6
CONTINUOUS
 10
367.7455118982
 20
182.7874745366
 11
367.6814300688
 21
182.7537848587
  0
LINE
  5
38B
100
AcDbEntity
  8
RACCORDO
100
AcDbLine
 62
250
  6
CONTINUOUS
 10
388.4274234098
 20
204.7514522417
 11
87.671071656
 21
204.7514522417
  0
LINE
  5
38C
100
AcDbEntity
  8
RACCORDO
100
AcDbLine
 62
250
  6
CONTINUOUS
 10
388.4274234098
 20
204.9965751485
 11
87.671071656
 21
204.9965751485
  0
LINE
  5
38D
100
AcDbEntity
  8
RACCORDO
100
AcDbLine
 62
7
  6
CONTINUOUS
 10
87.5478770676
 20
205.1197697368
 11
388.5506179981
 21
205.1197697368
  0
LINE
  5
38E
100
AcDbEntity
  8
RACCORDO
100
AcDbLine
 62
250
  6
CONTINUOUS
 10
367.7455118982
 20
137.4520650035
 11
367.6814299942
 21
137.4857547111
  0
LINE
  5
38F
100
AcDbEntity
  8
RACCORDO
100
AcDbLine
 62
250
  6
CONTINUOUS
 10
367.6814299942
 20
137.4857547111
 11
367.6186948004
 21
137.5192657459
  0
LINE
  5
390
100
AcDbEntity
  8
RACCORDO
100
AcDbLine
 62
250
  6
CONTINUOUS
 10
367.6186948004
 20
137.5192657459
 11
367.5586248112
 21
137.5518938125
  0
LWPOLYLINE
  5
391
100
AcDbEntity
  8
RACCORDO
100
AcDbPolyline
 62
250
  6
CONTINUOUS
 90
15
 70
0
 10
367.5586248112
 20
137.5518938125
 10
367.502482507
 20
137.5829531727
 10
367.4762568826
 20
137.5976889287
 10
367.4514478206
 20
137.6117910577
 10
367.4281858447
 20
137.6251853668
 10
367.4065933389
 20
137.6378013869
 10
367.3867839043
 20
137.6495727435
 10
367.3688617607
 20
137.660437506
 10
367.3529211988
 20
137.6703385135
 10
367.3390460839
 20
137.6792236758
 10
367.3273094147
 20
137.6870462467
 10
367.3177729393
 20
137.6937650709
 10
367.3104868303
 20
137.6993447997
 10
367.3054894208
 20
137.7037560776
 10
367.3028070029
 20
137.7069756962
  0
LWPOLYLINE
  5
392
100
AcDbEntity
  8
RACCORDO
100
AcDbPolyline
 62
250
  6
CONTINUOUS
 90
31
 70
0
 10
87.671071656
 20
204.9965751485
 10
87.619183763
 20
204.9951765952
 10
87.5674504063
 20
204.9910682692
 10
87.5160108608
 20
204.9842600026
 10
87.4650082927
 20
204.9747697858
 10
87.4145757851
 20
204.9626213802
 10
87.3648365157
 20
204.9478419516
 10
87.3159207115
 20
204.9304656783
 10
87.2679670651
 20
204.9105376467
 10
87.2211089457
 20
204.8881102906
 10
87.1754800725
 20
204.8632440358
 10
87.13120012
 20
204.8360009067
 10
87.0883778894
 20
204.8064441979
 10
87.0471316512
 20
204.7746477557
 10
87.0075787259
 20
204.7406944031
 10
86.9698228185
 20
204.7046672995
 10
86.9339707005
 20
204.6666571522
 10
86.9001273429
 20
204.626764035
 10
86.8683877967
 20
204.5850925366
 10
86.8388456405
 20
204.5417516452
 10
86.811588314
 20
204.4968553593
 10
86.7866938258
 20
204.4505229001
 10
86.7642325445
 20
204.4028638483
 10
86.7442812262
 20
204.354018186
 10
86.7269123196
 20
204.3041592259
 10
86.7121836309
 20
204.2534521918
 10
86.7001273405
 20
204.202007906
 10
86.6907681355
 20
204.1499224725
 10
86.6841388883
 20
204.097322352
 10
86.6802722759
 20
204.0443659729
 10
86.6791889743
 20
203.9911987607
  0
LWPOLYLINE
  5
393
100
AcDbEntity
  8
RACCORDO
100
AcDbPolyline
 62
250
  6
CONTINUOUS
 90
31
 70
0
 10
87.671071656
 20
204.7514522417
 10
87.6345939815
 20
204.7504823136
 10
87.5984154337
 20
204.7476260615
 10
87.5625360126
 20
204.7428834673
 10
87.5268598734
 20
204.7362338279
 10
87.4914828608
 20
204.7276977739
 10
87.4566925089
 20
204.7173372717
 10
87.4224926388
 20
204.7051370274
 10
87.3888794294
 20
204.6911121963
 10
87.3561289511
 20
204.6753704089
 10
87.324250854
 20
204.6578998216
 10
87.2932354881
 20
204.6387120865
 10
87.2633299738
 20
204.6179500775
 10
87.2345404639
 20
204.5956009468
 10
87.2068608055
 20
204.5716773151
 10
87.180519661
 20
204.5463602705
 10
87.1555254959
 20
204.5196368875
 10
87.1318698447
 20
204.49151985
 10
87.1097559731
 20
204.4622286857
 10
87.0891955401
 20
204.4317529241
 10
87.0701768867
 20
204.4001028035
 10
87.0528683019
 20
204.3675289544
 10
87.0372816125
 20
204.3340125274
 10
87.0234049916
 20
204.2995721709
 10
87.0113712476
 20
204.2645148199
 10
87.0012008342
 20
204.228847449
 10
86.9928732975
 20
204.1925629433
 10
86.9864600846
 20
204.1559471705
 10
86.9819850109
 20
204.1190954098
 10
86.979424261
 20
204.0819123135
 10
86.9787778347
 20
204.0443978433
  0
LWPOLYLINE
  5
394
100
AcDbEntity
  8
RACCORDO
100
AcDbPolyline
 62
250
  6
CONTINUOUS
 90
19
 70
0
 10
86.9787778347
 20
204.0443978311
 10
86.9534878673
 20
204.0439771418
 10
86.9283779583
 20
204.0431806832
 10
86.9036268841
 20
204.0420141257
 10
86.8794108666
 20
204.040485775
 10
86.8559023178
 20
204.0386065126
 10
86.833268613
 20
204.0363897184
 10
86.8116708986
 20
204.0338511754
 10
86.7912629452
 20
204.0310089574
 10
86.7721900524
 20
204.0278833004
 10
86.7545880147
 20
204.0244964582
 10
86.7385821542
 20
204.0208725444
 10
86.7242864289
 20
204.0170373603
 10
86.7118026209
 20
204.0130182116
 10
86.7012196118
 20
204.0088437136
 10
86.6926127501
 20
204.0045435877
 10
86.6860433146
 20
204.0001484497
 10
86.681558078
 20
203.9956895921
 10
86.6791889743
 20
203.9911987607
  0
LWPOLYLINE
  5
395
100
AcDbEntity
  8
RACCORDO
100
AcDbPolyline
 62
250
  6
CONTINUOUS
 90
19
 70
0
 10
389.1197172311
 20
204.0443978394
 10
389.1450070401
 20
204.0439771221
 10
389.1701167781
 20
204.0431806388
 10
389.1948676714
 20
204.0420140604
 10
389.219083501
 20
204.0404856925
 10
389.2425918577
 20
204.0386064166
 10
389.265225369
 20
204.0363896126
 10
389.2868228912
 20
204.0338510634
 10
389.3072306564
 20
204.0310088429
 10
389.3263033677
 20
204.0278831866
 10
389.343905233
 20
204.0244963483
 10
389.3599109325
 20
204.0208724413
 10
389.3742065103
 20
204.0170372667
 10
389.3866901864
 20
204.0130181298
 10
389.3972730806
 20
204.0088436457
 10
389.4058798461
 20
204.0045435352
 10
389.4124492052
 20
204.000148414
 10
389.4169343862
 20
203.995689574
 10
389.4193034558
 20
203.9911987608
  0
LINE
  5
396
100
AcDbEntity
  8
RACCORDO
100
AcDbLine
 62
250
  6
CONTINUOUS
 10
296.3937102642
 20
182.1653395988
 11
296.4094588327
 21
174.8197729763
  0
LINE
  5
397
100
AcDbEntity
  8
RACCORDO
100
AcDbLine
 62
250
  6
CONTINUOUS
 10
296.8930250523
 20
182.1898511737
 11
296.9087736194
 21
174.8364380678
  0
LINE
  5
398
100
AcDbEntity
  8
RACCORDO
100
AcDbLine
 62
250
  6
CONTINUOUS
 10
296.4094588327
 20
174.8197729763
 11
296.418908709
 21
167.4710015767
  0
LINE
  5
399
100
AcDbEntity
  8
RACCORDO
100
AcDbLine
 62
250
  6
CONTINUOUS
 10
296.9087736194
 20
174.8364380678
 11
296.9182234866
 21
167.4790882792
  0
LINE
  5
39A
100
AcDbEntity
  8
RACCORDO
100
AcDbLine
 62
250
  6
CONTINUOUS
 10
296.418908709
 20
167.4710015767
 11
296.4220594124
 21
160.1197649716
  0
LINE
  5
39B
100
AcDbEntity
  8
RACCORDO
100
AcDbLine
 62
250
  6
CONTINUOUS
 10
296.9182234866
 20
167.4790882792
 11
296.9213741798
 21
160.1197697817
  0
LINE
  5
39C
100
AcDbEntity
  8
RACCORDO
100
AcDbLine
 62
250
  6
CONTINUOUS
 10
295.5913284161
 20
183.4873453532
 11
295.5913284162
 21
182.9607542479
  0
LINE
  5
39D
100
AcDbEntity
  8
RACCORDO
100
AcDbLine
 62
250
  6
CONTINUOUS
 10
295.5913284161
 20
136.7521941205
 11
295.5913284161
 21
137.2787852258
  0
LINE
  5
39E
100
AcDbEntity
  8
0
100
AcDbLine
 62
7
  6
CONTINUOUS
 10
296.2492475329
 20
182.020866109
 11
296.2492475329
 21
138.2186733646
  0
LINE
  5
39F
100
AcDbEntity
  8
RACCORDO
100
AcDbLine
 62
250
  6
CONTINUOUS
 10
296.4220594124
 20
160.1197649716
 11
296.4189086995
 21
152.768527882
  0
LINE
  5
3A0
100
AcDbEntity
  8
RACCORDO
100
AcDbLine
 62
250
  6
CONTINUOUS
 10
296.9213741798
 20
160.1197697817
 11
296.9182234868
 21
152.7604512763
  0
LINE
  5
3A1
100
AcDbEntity
  8
RACCORDO
100
AcDbLine
 62
250
  6
CONTINUOUS
 10
296.4189086995
 20
152.768527882
 11
296.4094588211
 21
145.4197586478
  0
LINE
  5
3A2
100
AcDbEntity
  8
RACCORDO
100
AcDbLine
 62
250
  6
CONTINUOUS
 10
296.9182234868
 20
152.7604512763
 11
296.9087736197
 21
145.4031014582
  0
LINE
  5
3A3
100
AcDbEntity
  8
RACCORDO
100
AcDbLine
 62
250
  6
CONTINUOUS
 10
296.4094588211
 20
145.4197586478
 11
296.3937102598
 21
138.0741976159
  0
LINE
  5
3A4
100
AcDbEntity
  8
RACCORDO
100
AcDbLine
 62
250
  6
CONTINUOUS
 10
296.9087736197
 20
145.4031014582
 11
296.8930250523
 21
138.0496882999
  0
LWPOLYLINE
  5
3A5
100
AcDbEntity
  8
RACCORDO
100
AcDbPolyline
 62
250
  6
CONTINUOUS
 90
10
 70
0
 10
296.3937102478
 20
138.0741976278
 10
296.3924740488
 20
138.0318010656
 10
296.3889777929
 20
137.9895145576
 10
296.3832281461
 20
137.9474576225
 10
296.3752341286
 20
137.9057319171
 10
296.3650172417
 20
137.8644739274
 10
296.3526207679
 20
137.823852353
 10
296.3380915752
 20
137.7839972452
 10
296.3214706366
 20
137.7450019766
 10
296.3028095456
 20
137.7069743766
  0
LWPOLYLINE
  5
3A6
100
AcDbEntity
  8
RACCORDO
100
AcDbPolyline
 62
250
  6
CONTINUOUS
 90
10
 70
0
 10
296.8930250523
 20
138.0496882999
 10
296.8909862822
 20
137.9804296979
 10
296.8853131379
 20
137.911706593
 10
296.8760056196
 20
137.8435189747
 10
296.8630017551
 20
137.775628789
 10
296.8463635164
 20
137.7082740726
 10
296.8262768198
 20
137.6421689352
 10
296.8028036372
 20
137.5775513891
 10
296.7758819967
 20
137.5141833668
 10
296.7455118982
 20
137.4520648431
  0
LWPOLYLINE
  5
3A7
100
AcDbEntity
  8
RACCORDO
100
AcDbPolyline
 62
250
  6
CONTINUOUS
 90
22
 70
0
 10
321.3529831676
 20
182.7874746305
 10
321.3854552654
 20
182.8461062649
 10
321.420862346
 20
182.9028634464
 10
321.4592044092
 20
182.9577462657
 10
321.5006063519
 20
183.0109400607
 10
321.5449432773
 20
183.062259663
 10
321.5918404952
 20
183.1111494268
 10
321.6413249337
 20
183.1575682963
 10
321.6933696647
 20
183.2015575384
 10
321.7475192127
 20
183.2426850296
 10
321.8038012878
 20
183.2809160316
 10
321.8621881799
 20
183.3162854956
 10
321.9221412833
 20
183.3484658524
 10
321.9836939586
 20
183.3774191056
 10
322.0468128451
 20
183.4031834384
 10
322.1108592549
 20
183.4255455533
 10
322.1758488727
 20
183.4444530255
 10
322.2417660137
 20
183.4599584166
 10
322.3079249361
 20
183.472005898
 10
322.3740970593
 20
183.4805768838
 10
322.4405109638
 20
183.4856900298
 10
322.5071666497
 20
183.4873453532
  0
LWPOLYLINE
  5
3A8
100
AcDbEntity
  8
RACCORDO
100
AcDbPolyline
 62
250
  6
CONTINUOUS
 90
22
 70
0
 10
296.7455118982
 20
137.4520648431
 10
296.7130398004
 20
137.3934332088
 10
296.6776327198
 20
137.3366760274
 10
296.6392906566
 20
137.2817932081
 10
296.597888714
 20
137.2285994131
 10
296.5535517887
 20
137.177279811
 10
296.506654571
 20
137.1283900472
 10
296.4571701325
 20
137.0819711777
 10
296.4051254017
 20
137.0379819357
 10
296.3509758538
 20
136.9968544445
 10
296.2946937787
 20
136.9586234426
 10
296.2363068867
 20
136.9232539785
 10
296.1763537833
 20
136.8910736217
 10
296.114801108
 20
136.8621203685
 10
296.0516822215
 20
136.8363560356
 10
295.9876358117
 20
136.8139939207
 10
295.9226461938
 20
136.7950864484
 10
295.8567290526
 20
136.7795810572
 10
295.7905701301
 20
136.7675335758
 10
295.7243980068
 20
136.7589625899
 10
295.6579841021
 20
136.7538494439
 10
295.5913284161
 20
136.7521941205
  0
LWPOLYLINE
  5
3A9
100
AcDbEntity
  8
RACCORDO
100
AcDbPolyline
 62
250
  6
CONTINUOUS
 90
22
 70
0
 10
296.3028095456
 20
137.7069743766
 10
296.2828199726
 20
137.6711225346
 10
296.2609402033
 20
137.6362451519
 10
296.2372125478
 20
137.6024446415
 10
296.2116743141
 20
137.569809763
 10
296.1843886606
 20
137.5384528652
 10
296.15545093
 20
137.5085040596
 10
296.1249321264
 20
137.480053237
 10
296.0929067564
 20
137.4531850924
 10
296.0594931037
 20
137.428006555
 10
296.0247795501
 20
137.4045898467
 10
295.9888586245
 20
137.3830025919
 10
295.9518688016
 20
137.3633264237
 10
295.9139037813
 20
137.3456089838
 10
295.8750764542
 20
137.329900725
 10
295.8355656905
 20
137.3162625243
 10
295.7954793267
 20
137.3047169221
 10
295.7549333451
 20
137.2952829119
 10
295.7141267203
 20
137.28798338
 10
295.6732020872
 20
137.2828131107
 10
295.6322420369
 20
137.279753422
 10
295.5913555598
 20
137.2787851801
  0
LWPOLYLINE
  5
3AA
100
AcDbEntity
  8
RACCORDO
100
AcDbPolyline
 62
250
  6
CONTINUOUS
 90
22
 70
0
 10
321.7956855202
 20
182.532565097
 10
321.8156750932
 20
182.5684169391
 10
321.8375548625
 20
182.6032943217
 10
321.861282518
 20
182.6370948322
 10
321.8868207517
 20
182.6697297107
 10
321.9141064053
 20
182.7010866086
 10
321.943044136
 20
182.7310354143
 10
321.9735629396
 20
182.7594862369
 10
322.0055883098
 20
182.7863543816
 10
322.0390019625
 20
182.8115329189
 10
322.0737155161
 20
182.8349496273
 10
322.1096364418
 20
182.856536882
 10
322.1466262647
 20
182.8762130502
 10
322.184591285
 20
182.8939304901
 10
322.2234186121
 20
182.9096387489
 10
322.2629293758
 20
182.9232769495
 10
322.3030157395
 20
182.9348225517
 10
322.3435617211
 20
182.9442565619
 10
322.3843683458
 20
182.9515560937
 10
322.4252929787
 20
182.956726363
 10
322.466253029
 20
182.9597860517
 10
322.5071395059
 20
182.9607542936
  0
LWPOLYLINE
  5
3AB
100
AcDbEntity
  8
RACCORDO
100
AcDbPolyline
 62
250
  6
CONTINUOUS
 90
14
 70
0
 10
321.5960120954
 20
137.5829528975
 10
321.6222376463
 20
137.597688619
 10
321.647046635
 20
137.6117907136
 10
321.6703085392
 20
137.6251849888
 10
321.6919009755
 20
137.637800976
 10
321.7117103441
 20
137.6495723012
 10
321.7296324259
 20
137.6604370344
 10
321.7455729311
 20
137.6703380152
 10
321.7594479951
 20
137.6792231534
 10
321.7711846199
 20
137.6870457036
 10
321.7807210579
 20
137.6937645105
 10
321.788007137
 20
137.6993442258
 10
321.7930045244
 20
137.7037554941
 10
321.7956869284
 20
137.7069751074
  0
LINE
  5
3AC
100
AcDbEntity
  8
RACCORDO
100
AcDbLine
 62
250
  6
CONTINUOUS
 10
321.5398699347
 20
137.5518936038
 11
321.5960120954
 21
137.5829528975
  0
LINE
  5
3AD
100
AcDbEntity
  8
RACCORDO
100
AcDbLine
 62
250
  6
CONTINUOUS
 10
321.4798000768
 20
137.5192655965
 11
321.5398699347
 21
137.5518936038
  0
LINE
  5
3AE
100
AcDbEntity
  8
RACCORDO
100
AcDbLine
 62
250
  6
CONTINUOUS
 10
321.4170649927
 20
137.4857546093
 11
321.4798000768
 21
137.5192655965
  0
LINE
  5
3AF
100
AcDbEntity
  8
RACCORDO
100
AcDbLine
 62
250
  6
CONTINUOUS
 10
321.3529831676
 20
137.4520649329
 11
321.4170649927
 21
137.4857546093
  0
LWPOLYLINE
  5
3B0
100
AcDbEntity
  8
0
100
AcDbPolyline
 62
7
  6
CONTINUOUS
 90
6
 70
0
 43
0.3499999917
 10
234.7278076172
 20
220.8697631836
 10
235.7992382812
 20
220.8697631836
 10
236.0135449219
 20
221.0840441895
 10
236.0135449219
 20
222.1554748535
 10
235.5849572754
 20
222.5840625
 10
235.1563952637
 20
222.5840625
  0
LWPOLYLINE
  5
3B1
100
AcDbEntity
  8
0
100
AcDbPolyline
 62
7
  6
CONTINUOUS
 90
6
 70
0
 43
0.3499999917
 10
239.2278112793
 20
220.8697631836
 10
240.2992419434
 20
220.8697631836
 10
240.5135229492
 20
221.0840441895
 10
240.5135229492
 20
222.1554748535
 10
240.0849609375
 20
222.5840625
 10
239.6563989258
 20
222.5840625
  0
LINE
  5
3B2
100
AcDbEntity
  8
RACCORDO
100
AcDbLine
 62
250
  6
CONTINUOUS
 10
321.3529831676
 20
182.7874744702
 11
321.4170650716
 21
182.7537847626
  0
LINE
  5
3B3
100
AcDbEntity
  8
RACCORDO
100
AcDbLine
 62
250
  6
CONTINUOUS
 10
321.4170650716
 20
182.7537847626
 11
321.4798002654
 21
182.7202737278
  0
LINE
  5
3B4
100
AcDbEntity
  8
RACCORDO
100
AcDbLine
 62
250
  6
CONTINUOUS
 10
321.4798002654
 20
182.7202737278
 11
321.5398702546
 21
182.6876456612
  0
LWPOLYLINE
  5
3B5
100
AcDbEntity
  8
RACCORDO
100
AcDbPolyline
 62
250
  6
CONTINUOUS
 90
15
 70
0
 10
321.5398702546
 20
182.6876456612
 10
321.5960125588
 20
182.656586301
 10
321.6222381832
 20
182.641850545
 10
321.6470472452
 20
182.627748416
 10
321.6703092211
 20
182.6143541069
 10
321.6919017268
 20
182.6017380868
 10
321.7117111615
 20
182.5899667302
 10
321.729633305
 20
182.5791019677
 10
321.745573867
 20
182.5692009601
 10
321.7594489819
 20
182.5603157979
 10
321.7711856511
 20
182.552493227
 10
321.7807221265
 20
182.5457744028
 10
321.7880082355
 20
182.540194674
 10
321.7930056449
 20
182.5357833961
 10
321.7956880628
 20
182.5325637775
  0
LWPOLYLINE
  5
3B6
100
AcDbEntity
  8
RACCORDO
100
AcDbPolyline
 62
250
  6
CONTINUOUS
 90
13
 70
0
 10
296.3028095456
 20
182.532565097
 10
296.3169671403
 20
182.5041965158
 10
296.3299987398
 20
182.4752490373
 10
296.3418791985
 20
182.4457663593
 10
296.3525908702
 20
182.4157762104
 10
296.3621047991
 20
182.385341208
 10
296.370387677
 20
182.354560924
 10
296.3774226287
 20
182.3235091369
 10
296.3832068602
 20
182.2922115921
 10
296.3877349723
 20
182.26069785
 10
296.3909992686
 20
182.2290110021
 10
296.3929924409
 20
182.1972080766
 10
296.3937102553
 20
182.16533959
  0
LWPOLYLINE
  5
3B7
100
AcDbEntity
  8
RACCORDO
100
AcDbPolyline
 62
250
  6
CONTINUOUS
 90
13
 70
0
 10
321.7956855202
 20
137.7069743766
 10
321.7815297595
 20
137.735339088
 10
321.7684990784
 20
137.764283978
 10
321.7566187848
 20
137.7937654354
 10
321.7459064333
 20
137.823756582
 10
321.7363914776
 20
137.8541941027
 10
321.7281079992
 20
137.8849760833
 10
321.7210730627
 20
137.9160272877
 10
321.7152889496
 20
137.9473233431
 10
321.710760718
 20
137.9788365581
 10
321.7074961277
 20
138.0105244895
 10
321.7055027068
 20
138.0423294919
 10
321.7047848073
 20
138.0742010458
  0
LWPOLYLINE
  5
3B8
100
AcDbEntity
  8
RACCORDO
100
AcDbPolyline
 62
250
  6
CONTINUOUS
 90
13
 70
0
 10
296.7455218699
 20
182.7874524069
 10
296.7685191513
 20
182.7412322101
 10
296.7896242292
 20
182.6941952518
 10
296.8088371038
 20
182.6463415194
 10
296.8261975514
 20
182.5975587817
 10
296.8416657955
 20
182.5479592434
 10
296.8551225068
 20
182.4978795517
 10
296.8665411264
 20
182.4473630304
 10
296.8759482132
 20
182.3963663413
 10
296.8833041144
 20
182.3450961477
 10
296.8885956126
 20
182.2936213361
 10
296.8918359252
 20
182.2418730127
 10
296.8930250523
 20
182.1898511737
  0
LWPOLYLINE
  5
3B9
100
AcDbEntity
  8
RACCORDO
100
AcDbPolyline
 62
250
  6
CONTINUOUS
 90
13
 70
0
 10
321.3529831676
 20
137.4520648431
 10
321.3299854676
 20
137.4982845688
 10
321.3088795748
 20
137.5453222672
 10
321.2896654891
 20
137.5931779509
 10
321.272303101
 20
137.6419647655
 10
321.25683252
 20
137.6915695918
 10
321.2433740747
 20
137.7416530397
 10
321.2319548707
 20
137.792170056
 10
321.2225478023
 20
137.843165708
 10
321.2151918812
 20
137.8944357774
 10
321.2099001113
 20
137.9459121924
 10
321.2066594888
 20
137.9976630319
 10
321.2054700135
 20
138.0496882999
  0
LINE
  5
3BA
100
AcDbEntity
  8
RACCORDO
100
AcDbLine
 62
250
  6
CONTINUOUS
 10
388.4274234098
 20
204.9965751485
 11
388.5506179981
 21
205.1197697368
  0
LINE
  5
3BB
100
AcDbEntity
  8
0
100
AcDbLine
 62
250
  6
CONTINUOUS
 10
366.5913413165
 20
182.9607542479
 11
366.4503439051
 21
182.8197697368
  0
LINE
  5
3BC
100
AcDbEntity
  8
0
100
AcDbLine
 62
250
  6
CONTINUOUS
 10
321.7047847994
 20
138.074201038
 11
321.8492475329
 21
138.2186733646
  0
LINE
  5
3BD
100
AcDbEntity
  8
0
100
AcDbLine
 62
250
  6
CONTINUOUS
 10
322.5071537493
 20
137.2787852258
 11
322.6481511607
 21
137.4197697368
  0
LINE
  5
3BE
100
AcDbEntity
  8
0
100
AcDbLine
 62
250
  6
CONTINUOUS
 10
367.3937102642
 20
182.1653395988
 11
367.2492475329
 21
182.020866109
  0
LINE
  5
3BF
100
AcDbEntity
  8
RACCORDO
100
AcDbLine
 62
250
  6
CONTINUOUS
 10
389.4193060915
 20
203.9911987607
 11
389.5492475329
 21
204.1211402021
  0
LINE
  5
3C0
100
AcDbEntity
  8
RACCORDO
100
AcDbLine
 62
250
  6
CONTINUOUS
 10
388.4274234098
 20
115.2429643252
 11
388.5506179981
 21
115.1197697368
  0
LINE
  5
3C1
100
AcDbEntity
  8
0
100
AcDbLine
 62
250
  6
CONTINUOUS
 10
366.5913555137
 20
137.2787852258
 11
366.4503439051
 21
137.4197697368
  0
LINE
  5
3C2
100
AcDbEntity
  8
0
100
AcDbLine
 62
250
  6
CONTINUOUS
 10
321.7047848053
 20
182.1653415314
 11
321.8492475329
 21
182.020866109
  0
LINE
  5
3C3
100
AcDbEntity
  8
0
100
AcDbLine
 62
250
  6
CONTINUOUS
 10
322.5071395521
 20
182.9607542479
 11
322.6481511607
 21
182.8197697368
  0
LINE
  5
3C4
100
AcDbEntity
  8
0
100
AcDbLine
 62
250
  6
CONTINUOUS
 10
367.3937102598
 20
138.0741976159
 11
367.2492475329
 21
138.2186733646
  0
LINE
  5
3C5
100
AcDbEntity
  8
RACCORDO
100
AcDbLine
 62
250
  6
CONTINUOUS
 10
389.4193060915
 20
116.248340713
 11
389.5492475329
 21
116.1183992716
  0
LINE
  5
3C6
100
AcDbEntity
  8
RACCORDO
100
AcDbLine
 62
250
  6
CONTINUOUS
 10
321.2054700135
 20
138.0496882999
 11
321.1897214464
 21
145.4031014095
  0
LINE
  5
3C7
100
AcDbEntity
  8
RACCORDO
100
AcDbLine
 62
250
  6
CONTINUOUS
 10
321.7047847994
 20
138.074201038
 11
321.6890362326
 21
145.4197667595
  0
LINE
  5
3C8
100
AcDbEntity
  8
RACCORDO
100
AcDbLine
 62
250
  6
CONTINUOUS
 10
321.1897214464
 20
145.4031014095
 11
321.1802715792
 21
152.7604511999
  0
LINE
  5
3C9
100
AcDbEntity
  8
RACCORDO
100
AcDbLine
 62
250
  6
CONTINUOUS
 10
321.6890362326
 20
145.4197667595
 11
321.679586357
 21
152.7685378162
  0
LINE
  5
3CA
100
AcDbEntity
  8
RACCORDO
100
AcDbLine
 62
250
  6
CONTINUOUS
 10
321.1802715792
 20
152.7604511999
 11
321.177120886
 21
160.1197696976
  0
LINE
  5
3CB
100
AcDbEntity
  8
RACCORDO
100
AcDbLine
 62
250
  6
CONTINUOUS
 10
321.679586357
 20
152.7685378162
 11
321.6764356534
 21
160.1197745076
  0
LINE
  5
3CC
100
AcDbEntity
  8
0
100
AcDbLine
 62
7
  6
CONTINUOUS
 10
321.8492475329
 20
138.2186733646
 11
321.8492475329
 21
182.020866109
  0
LINE
  5
3CD
100
AcDbEntity
  8
RACCORDO
100
AcDbLine
 62
250
  6
CONTINUOUS
 10
322.5071666497
 20
183.4873453532
 11
322.5071666497
 21
182.9607542479
  0
LINE
  5
3CE
100
AcDbEntity
  8
RACCORDO
100
AcDbLine
 62
250
  6
CONTINUOUS
 10
322.5071666497
 20
136.7521941205
 11
322.5071666496
 21
137.2787852258
  0
LINE
  5
3CF
100
AcDbEntity
  8
RACCORDO
100
AcDbLine
 62
250
  6
CONTINUOUS
 10
321.177120886
 20
160.1197696976
 11
321.180271579
 21
167.4790882028
  0
LINE
  5
3D0
100
AcDbEntity
  8
RACCORDO
100
AcDbLine
 62
250
  6
CONTINUOUS
 10
321.6764356534
 20
160.1197745076
 11
321.6795863663
 21
167.4710116213
  0
LINE
  5
3D1
100
AcDbEntity
  8
RACCORDO
100
AcDbLine
 62
250
  6
CONTINUOUS
 10
321.180271579
 20
167.4790882028
 11
321.1897214461
 21
174.8364380191
  0
LINE
  5
3D2
100
AcDbEntity
  8
RACCORDO
100
AcDbLine
 62
250
  6
CONTINUOUS
 10
321.6795863663
 20
167.4710116213
 11
321.6890362445
 21
174.819780757
  0
LINE
  5
3D3
100
AcDbEntity
  8
RACCORDO
100
AcDbLine
 62
250
  6
CONTINUOUS
 10
321.1897214461
 20
174.8364380191
 11
321.2054700135
 21
182.1898511737
  0
LINE
  5
3D4
100
AcDbEntity
  8
RACCORDO
100
AcDbLine
 62
250
  6
CONTINUOUS
 10
321.6890362445
 20
174.819780757
 11
321.7047848053
 21
182.1653415314
  0
LWPOLYLINE
  5
3D5
100
AcDbEntity
  8
RACCORDO
100
AcDbPolyline
 62
250
  6
CONTINUOUS
 90
10
 70
0
 10
321.704784817
 20
182.1653415198
 10
321.7060208745
 20
182.2077358759
 10
321.7095168382
 20
182.2500209576
 10
321.7152661649
 20
182.292077249
 10
321.7232600142
 20
182.3338033473
 10
321.7334769753
 20
182.3750624717
 10
321.745873626
 20
182.4156851127
 10
321.7604029893
 20
182.4555409599
 10
321.7770241549
 20
182.4945368987
 10
321.7956855202
 20
182.532565097
  0
LWPOLYLINE
  5
3D6
100
AcDbEntity
  8
RACCORDO
100
AcDbPolyline
 62
250
  6
CONTINUOUS
 90
10
 70
0
 10
321.2054700135
 20
182.1898511737
 10
321.207507644
 20
182.2591016263
 10
321.2131799032
 20
182.3278192093
 10
321.222486791
 20
182.3960039333
 10
321.2354902392
 20
182.4638946392
 10
321.2521283161
 20
182.5312525032
 10
321.2722152268
 20
182.5973610551
 10
321.2956890399
 20
182.6619814955
 10
321.3226116868
 20
182.7253526789
 10
321.3529831676
 20
182.7874746305
  0
LWPOLYLINE
  5
3D7
100
AcDbEntity
  8
RACCORDO
100
AcDbPolyline
 62
250
  6
CONTINUOUS
 90
22
 70
0
 10
367.3028095456
 20
137.7069743766
 10
367.2828199726
 20
137.6711225346
 10
367.2609402033
 20
137.6362451519
 10
367.2372125478
 20
137.6024446415
 10
367.2116743141
 20
137.569809763
 10
367.1843886606
 20
137.5384528652
 10
367.15545093
 20
137.5085040596
 10
367.1249321264
 20
137.480053237
 10
367.0929067564
 20
137.4531850924
 10
367.0594931037
 20
137.428006555
 10
367.0247795501
 20
137.4045898467
 10
366.9888586245
 20
137.3830025919
 10
366.9518688016
 20
137.3633264237
 10
366.9139037813
 20
137.3456089838
 10
366.8750764542
 20
137.329900725
 10
366.8355656905
 20
137.3162625243
 10
366.7954793267
 20
137.3047169221
 10
366.7549333451
 20
137.2952829119
 10
366.7141267203
 20
137.28798338
 10
366.6732020872
 20
137.2828131107
 10
366.6322420369
 20
137.279753422
 10
366.5913555598
 20
137.2787851801
  0
LWPOLYLINE
  5
3D8
100
AcDbEntity
  8
0
100
AcDbPolyline
 62
7
  6
CONTINUOUS
 90
10
 70
0
 43
0.3499999917
 10
407.2992553711
 20
158.1911975098
 10
406.4421057129
 20
159.048347168
 10
405.5849560547
 20
159.2626281738
 10
404.7278063965
 20
159.2626281738
 10
404.2992443848
 20
158.8340533447
 10
404.2992443848
 20
158.1911975098
 10
404.7278063965
 20
157.7626226807
 10
405.5849560547
 20
157.7626226807
 10
406.0135437012
 20
158.1911975098
 10
406.0135437012
 20
159.119765625
  0
LINE
  5
3D9
100
AcDbEntity
  8
RACCORDO
100
AcDbLine
 62
250
  6
CONTINUOUS
 10
367.3937102642
 20
182.1653395988
 11
367.4094588327
 21
174.8197729763
  0
LINE
  5
3DA
100
AcDbEntity
  8
RACCORDO
100
AcDbLine
 62
250
  6
CONTINUOUS
 10
367.8930250523
 20
182.1898511737
 11
367.9087736194
 21
174.8364380678
  0
LINE
  5
3DB
100
AcDbEntity
  8
RACCORDO
100
AcDbLine
 62
250
  6
CONTINUOUS
 10
367.4094588327
 20
174.8197729763
 11
367.418908709
 21
167.4710015767
  0
LINE
  5
3DC
100
AcDbEntity
  8
RACCORDO
100
AcDbLine
 62
250
  6
CONTINUOUS
 10
367.9087736194
 20
174.8364380678
 11
367.9182234866
 21
167.4790882792
  0
LINE
  5
3DD
100
AcDbEntity
  8
RACCORDO
100
AcDbLine
 62
250
  6
CONTINUOUS
 10
367.418908709
 20
167.4710015767
 11
367.4220594124
 21
160.1197649716
  0
LINE
  5
3DE
100
AcDbEntity
  8
RACCORDO
100
AcDbLine
 62
250
  6
CONTINUOUS
 10
367.9182234866
 20
167.4790882792
 11
367.9213741798
 21
160.1197697817
  0
LINE
  5
3DF
100
AcDbEntity
  8
RACCORDO
100
AcDbLine
 62
250
  6
CONTINUOUS
 10
366.5913284161
 20
183.4873453532
 11
366.5913284162
 21
182.9607542479
  0
LINE
  5
3E0
100
AcDbEntity
  8
RACCORDO
100
AcDbLine
 62
250
  6
CONTINUOUS
 10
366.5913284161
 20
136.7521941205
 11
366.5913284161
 21
137.2787852258
  0
LINE
  5
3E1
100
AcDbEntity
  8
0
100
AcDbLine
 62
7
  6
CONTINUOUS
 10
367.2492475329
 20
182.020866109
 11
367.2492475329
 21
138.2186733646
  0
LINE
  5
3E2
100
AcDbEntity
  8
RACCORDO
100
AcDbLine
 62
250
  6
CONTINUOUS
 10
367.4220594124
 20
160.1197649716
 11
367.4189086995
 21
152.768527882
  0
LINE
  5
3E3
100
AcDbEntity
  8
RACCORDO
100
AcDbLine
 62
250
  6
CONTINUOUS
 10
367.9213741798
 20
160.1197697817
 11
367.9182234868
 21
152.7604512763
  0
LINE
  5
3E4
100
AcDbEntity
  8
RACCORDO
100
AcDbLine
 62
250
  6
CONTINUOUS
 10
367.4189086995
 20
152.768527882
 11
367.4094588211
 21
145.4197586478
  0
LINE
  5
3E5
100
AcDbEntity
  8
RACCORDO
100
AcDbLine
 62
250
  6
CONTINUOUS
 10
367.9182234868
 20
152.7604512763
 11
367.9087736197
 21
145.4031014582
  0
LINE
  5
3E6
100
AcDbEntity
  8
RACCORDO
100
AcDbLine
 62
250
  6
CONTINUOUS
 10
367.4094588211
 20
145.4197586478
 11
367.3937102598
 21
138.0741976159
  0
LINE
  5
3E7
100
AcDbEntity
  8
RACCORDO
100
AcDbLine
 62
250
  6
CONTINUOUS
 10
367.9087736197
 20
145.4031014582
 11
367.8930250523
 21
138.0496882999
  0
LWPOLYLINE
  5
3E8
100
AcDbEntity
  8
RACCORDO
100
AcDbPolyline
 62
250
  6
CONTINUOUS
 90
10
 70
0
 10
367.3937102478
 20
138.0741976278
 10
367.3924740488
 20
138.0318010656
 10
367.3889777929
 20
137.9895145576
 10
367.3832281461
 20
137.9474576225
 10
367.3752341286
 20
137.9057319171
 10
367.3650172417
 20
137.8644739274
 10
367.3526207679
 20
137.823852353
 10
367.3380915752
 20
137.7839972452
 10
367.3214706366
 20
137.7450019766
 10
367.3028095456
 20
137.7069743766
  0
LWPOLYLINE
  5
3E9
100
AcDbEntity
  8
RACCORDO
100
AcDbPolyline
 62
250
  6
CONTINUOUS
 90
10
 70
0
 10
367.8930250523
 20
138.0496882999
 10
367.8909862822
 20
137.9804296979
 10
367.8853131379
 20
137.911706593
 10
367.8760056196
 20
137.8435189747
 10
367.8630017551
 20
137.775628789
 10
367.8463635164
 20
137.7082740726
 10
367.8262768198
 20
137.6421689352
 10
367.8028036372
 20
137.5775513891
 10
367.7758819967
 20
137.5141833668
 10
367.7455118982
 20
137.4520648432
  0
LWPOLYLINE
  5
3EA
100
AcDbEntity
  8
RACCORDO
100
AcDbPolyline
 62
250
  6
CONTINUOUS
 90
22
 70
0
 10
367.7455118982
 20
137.4520648432
 10
367.7130398004
 20
137.3934332088
 10
367.6776327198
 20
137.3366760274
 10
367.6392906566
 20
137.2817932081
 10
367.597888714
 20
137.2285994131
 10
367.5535517887
 20
137.177279811
 10
367.506654571
 20
137.1283900472
 10
367.4571701325
 20
137.0819711777
 10
367.4051254017
 20
137.0379819357
 10
367.3509758538
 20
136.9968544445
 10
367.2946937787
 20
136.9586234426
 10
367.2363068867
 20
136.9232539785
 10
367.1763537833
 20
136.8910736217
 10
367.114801108
 20
136.8621203685
 10
367.0516822215
 20
136.8363560356
 10
366.9876358117
 20
136.8139939207
 10
366.9226461938
 20
136.7950864484
 10
366.8567290526
 20
136.7795810572
 10
366.7905701301
 20
136.7675335758
 10
366.7243980068
 20
136.7589625899
 10
366.6579841021
 20
136.7538494439
 10
366.5913284161
 20
136.7521941205
  0
LWPOLYLINE
  5
3EB
100
AcDbEntity
  8
RACCORDO
100
AcDbPolyline
 62
250
  6
CONTINUOUS
 90
13
 70
0
 10
367.3028095456
 20
182.532565097
 10
367.3169671403
 20
182.5041965158
 10
367.3299987398
 20
182.4752490373
 10
367.3418791985
 20
182.4457663593
 10
367.3525908702
 20
182.4157762104
 10
367.3621047991
 20
182.385341208
 10
367.370387677
 20
182.354560924
 10
367.3774226287
 20
182.3235091369
 10
367.3832068602
 20
182.2922115921
 10
367.3877349723
 20
182.26069785
 10
367.3909992686
 20
182.2290110021
 10
367.3929924409
 20
182.1972080766
 10
367.3937102553
 20
182.16533959
  0
LWPOLYLINE
  5
3EC
100
AcDbEntity
  8
RACCORDO
100
AcDbPolyline
 62
250
  6
CONTINUOUS
 90
13
 70
0
 10
367.7455218699
 20
182.7874524068
 10
367.7685191513
 20
182.7412322101
 10
367.7896242292
 20
182.6941952518
 10
367.8088371038
 20
182.6463415194
 10
367.8261975514
 20
182.5975587817
 10
367.8416657955
 20
182.5479592434
 10
367.8551225068
 20
182.4978795517
 10
367.8665411264
 20
182.4473630304
 10
367.8759482132
 20
182.3963663413
 10
367.8833041144
 20
182.3450961477
 10
367.8885956126
 20
182.2936213361
 10
367.8918359252
 20
182.2418730127
 10
367.8930250523
 20
182.1898511737
  0
LWPOLYLINE
  5
3ED
100
AcDbEntity
  8
RACCORDO
100
AcDbPolyline
 62
250
  6
CONTINUOUS
 90
31
 70
0
 10
389.4193060915
 20
203.9911987607
 10
389.4182259933
 20
204.0442978126
 10
389.4143667579
 20
204.097216144
 10
389.4077443759
 20
204.1498082772
 10
389.3983833569
 20
204.201932308
 10
389.3863137845
 20
204.2534432559
 10
389.371571818
 20
204.3041936028
 10
389.3542022348
 20
204.3540490461
 10
389.3342596314
 20
204.4028705483
 10
389.3118083717
 20
204.4505088203
 10
389.2869201052
 20
204.4968320651
 10
389.2596685833
 20
204.5417219477
 10
389.2301332642
 20
204.5850565403
 10
389.1984023919
 20
204.6267209787
 10
389.164568882
 20
204.666607446
 10
389.1287273655
 20
204.7046119043
 10
389.0909827451
 20
204.7406343327
 10
389.0514417068
 20
204.7745840799
 10
389.0102073718
 20
204.8063783985
 10
388.9673963777
 20
204.8359347797
 10
388.9231273695
 20
204.8631789145
 10
388.8775102044
 20
204.8880468429
 10
388.8306681684
 20
204.9104750378
 10
388.7827314618
 20
204.9304051826
 10
388.7338232762
 20
204.9477882438
 10
388.6840773713
 20
204.9625788555
 10
388.6336278378
 20
204.9747396766
 10
388.5826005813
 20
204.9842414729
 10
388.5311296825
 20
204.9910592495
 10
388.4793574564
 20
204.9951741211
 10
388.4274234098
 20
204.9965751485
  0
LWPOLYLINE
  5
3EE
100
AcDbEntity
  8
RACCORDO
100
AcDbPolyline
 62
250
  6
CONTINUOUS
 90
31
 70
0
 10
389.1197172311
 20
204.0443978433
 10
389.1190740864
 20
204.0819032129
 10
389.1165130734
 20
204.1190880223
 10
389.112034192
 20
204.1559523088
 10
389.1056112615
 20
204.1926002485
 10
389.0972704627
 20
204.2289277303
 10
389.0870903378
 20
204.2646223981
 10
389.0750539129
 20
204.2996767141
 10
389.061178162
 20
204.334098361
 10
389.0455925488
 20
204.3675978816
 10
389.0282838834
 20
204.4001630645
 10
389.0092653557
 20
204.4318063211
 10
388.988705999
 20
204.4622751842
 10
388.9665945
 20
204.49155862
 10
388.942942172
 20
204.5196678945
 10
388.9179519876
 20
204.5463840309
 10
388.8916155596
 20
204.5716944151
 10
388.8639412751
 20
204.5956119024
 10
388.835157269
 20
204.6179557458
 10
388.8052570111
 20
204.6387135681
 10
388.7742470316
 20
204.6578979732
 10
388.7423750552
 20
204.6753656975
 10
388.7096340733
 20
204.6911044645
 10
388.6760310945
 20
204.705126742
 10
388.6418348702
 20
204.717326382
 10
388.6070354824
 20
204.7276898116
 10
388.5716428489
 20
204.7362307422
 10
388.5359554745
 20
204.7428839425
 10
388.5000728606
 20
204.7476276938
 10
388.4638955057
 20
204.7504837875
 10
388.4274234098
 20
204.7514522417
  0
LWPOLYLINE
  5
3EF
100
AcDbEntity
  8
RACCORDO
100
AcDbPolyline
 62
250
  6
CONTINUOUS
 90
9
 70
0
 10
389.1197172311
 20
116.1951416304
 10
389.0985119548
 20
118.539433141
 10
389.0790586737
 20
120.8892299513
 10
389.0613573878
 20
123.2440575474
 10
389.0454052836
 20
125.6034352916
 10
389.0312051746
 20
127.9668918738
 10
389.0187655012
 20
130.3339654915
 10
389.0080890771
 20
132.7041834147
 10
388.9991730886
 20
135.0770619989
  0
LWPOLYLINE
  5
3F0
100
AcDbEntity
  8
RACCORDO
100
AcDbPolyline
 62
250
  6
CONTINUOUS
 90
9
 70
0
 10
389.4193060915
 20
116.248340713
 10
389.3981012087
 20
118.5891684744
 10
389.3786481695
 20
120.9345633017
 10
389.360946974
 20
123.284525195
 10
389.3449947298
 20
125.6395366836
 10
389.3307943292
 20
127.9991152383
 10
389.3183544494
 20
130.3618132707
 10
389.3076779826
 20
132.7271482515
 10
389.2987620367
 20
135.09560271
  0
LINE
  5
3F1
100
AcDbEntity
  8
RACCORDO
100
AcDbLine
 62
250
  6
CONTINUOUS
 10
388.9991730886
 20
135.0770619989
 11
388.982876722
 21
141.22726543
  0
LINE
  5
3F2
100
AcDbEntity
  8
RACCORDO
100
AcDbLine
 62
250
  6
CONTINUOUS
 10
389.2987620367
 20
135.09560271
 11
389.2824656538
 21
141.2402659337
  0
LINE
  5
3F3
100
AcDbEntity
  8
RACCORDO
100
AcDbLine
 62
250
  6
CONTINUOUS
 10
388.982876722
 20
141.22726543
 11
388.9695801105
 21
148.7817085407
  0
LINE
  5
3F4
100
AcDbEntity
  8
RACCORDO
100
AcDbLine
 62
250
  6
CONTINUOUS
 10
389.2824656538
 20
141.2402659337
 11
389.2691689857
 21
148.7892560831
  0
LINE
  5
3F5
100
AcDbEntity
  8
RACCORDO
100
AcDbLine
 62
250
  6
CONTINUOUS
 10
388.9695801105
 20
148.7817085407
 11
388.962929859
 21
156.3400127766
  0
LINE
  5
3F6
100
AcDbEntity
  8
RACCORDO
100
AcDbLine
 62
250
  6
CONTINUOUS
 10
389.2691689857
 20
148.7892560831
 11
389.2625187189
 21
156.3426197678
  0
LINE
  5
3F7
100
AcDbEntity
  8
RACCORDO
100
AcDbLine
 62
250
  6
CONTINUOUS
 10
388.4274234098
 20
115.488087232
 11
388.42742341
 21
115.2429643252
  0
LINE
  5
3F8
100
AcDbEntity
  8
RACCORDO
100
AcDbLine
 62
250
  6
CONTINUOUS
 10
388.4274234098
 20
204.7514522417
 11
388.4274234098
 21
204.9965751485
  0
LINE
  5
3F9
100
AcDbEntity
  8
RACCORDO
100
AcDbLine
 62
7
  6
CONTINUOUS
 10
389.5492475329
 20
116.1183992716
 11
389.5492475329
 21
204.1211402021
  0
LINE
  5
3FA
100
AcDbEntity
  8
RACCORDO
100
AcDbLine
 62
250
  6
CONTINUOUS
 10
388.962929859
 20
156.3400127766
 11
388.9629298586
 21
163.899525674
  0
LINE
  5
3FB
100
AcDbEntity
  8
RACCORDO
100
AcDbLine
 62
250
  6
CONTINUOUS
 10
389.2625187189
 20
156.3426197678
 11
389.2625187196
 21
163.8969208469
  0
LINE
  5
3FC
100
AcDbEntity
  8
RACCORDO
100
AcDbLine
 62
250
  6
CONTINUOUS
 10
388.9629298586
 20
163.899525674
 11
388.9695801095
 21
171.4578302051
  0
LINE
  5
3FD
100
AcDbEntity
  8
RACCORDO
100
AcDbLine
 62
250
  6
CONTINUOUS
 10
389.2625187196
 20
163.8969208469
 11
389.2691689874
 21
171.4502847482
  0
LINE
  5
3FE
100
AcDbEntity
  8
RACCORDO
100
AcDbLine
 62
250
  6
CONTINUOUS
 10
388.9695801095
 20
171.4578302051
 11
388.9828767212
 21
179.0122736047
  0
LINE
  5
3FF
100
AcDbEntity
  8
RACCORDO
100
AcDbLine
 62
250
  6
CONTINUOUS
 10
389.2691689874
 20
171.4502847482
 11
389.2824656548
 21
178.9992741815
  0
LWPOLYLINE
  5
400
100
AcDbEntity
  8
RACCORDO
100
AcDbPolyline
 62
250
  6
CONTINUOUS
 90
10
 70
0
 10
388.9828767212
 20
179.0122736047
 10
388.9991730893
 20
185.1624774419
 10
389.0080890784
 20
187.5353561411
 10
389.0187655022
 20
189.9055740478
 10
389.0312051732
 20
192.272647415
 10
389.0454052788
 20
194.6361036169
 10
389.0613573812
 20
196.9954811597
 10
389.0790586677
 20
199.3503088351
 10
389.098511951
 20
201.7001059015
 10
389.1197172311
 20
204.0443978433
  0
LWPOLYLINE
  5
401
100
AcDbEntity
  8
RACCORDO
100
AcDbPolyline
 62
250
  6
CONTINUOUS
 90
10
 70
0
 10
389.2824656548
 20
178.9992741815
 10
389.2987620492
 20
185.1439401565
 10
389.3076780112
 20
187.5123978437
 10
389.3183544974
 20
189.8777358888
 10
389.3307944088
 20
192.2404377333
 10
389.3449948444
 20
194.6000199357
 10
389.3609471008
 20
196.9550321721
 10
389.3786482769
 20
199.304991001
 10
389.3981012738
 20
201.6503798639
 10
389.4193060915
 20
203.9911987607
  0
LWPOLYLINE
  5
402
100
AcDbEntity
  8
0
100
AcDbPolyline
 62
7
  6
CONTINUOUS
 90
10
 70
0
 43
0.3499999917
 10
50.8700743103
 20
223.8697741699
 10
50.2272184753
 20
223.2269055176
 10
49.7986468506
 20
222.3697814941
 10
49.7986468506
 20
221.2983508301
 10
50.2272184753
 20
220.8697631836
 10
50.8700743103
 20
220.8697631836
 10
51.2986459351
 20
221.2983508301
 10
51.2986459351
 20
222.1554748535
 10
50.8700743103
 20
222.5840625
 10
49.9415029907
 20
222.5840625
  0
LINE
  5
403
100
AcDbEntity
  8
RACCORDO
100
AcDbLine
 62
7
  6
CONTINUOUS
 10
48.0764497179
 20
115.2429643252
 11
50.4271424971
 21
115.1197697368
  0
LINE
  5
404
100
AcDbEntity
  8
RACCORDO
100
AcDbLine
 62
250
  6
CONTINUOUS
 10
47.9477120922
 20
116.248340713
 11
50.4271424971
 21
116.1183992716
  0
LINE
  5
405
100
AcDbEntity
  8
RACCORDO
100
AcDbLine
 62
250
  6
CONTINUOUS
 10
47.6938686795
 20
116.2009329611
 11
47.7179418823
 21
116.2056882983
  0
LINE
  5
406
100
AcDbEntity
  8
RACCORDO
100
AcDbLine
 62
250
  6
CONTINUOUS
 10
47.7179418823
 20
116.2056882983
 11
47.7668673067
 21
116.2150430155
  0
LINE
  5
407
100
AcDbEntity
  8
RACCORDO
100
AcDbLine
 62
250
  6
CONTINUOUS
 10
47.7668673067
 20
116.2150430155
 11
47.8743541931
 21
116.234995886
  0
LINE
  5
408
100
AcDbEntity
  8
RACCORDO
100
AcDbLine
 62
250
  6
CONTINUOUS
 10
47.8743541931
 20
116.234995886
 11
47.9477120922
 21
116.248340713
  0
LWPOLYLINE
  5
409
100
AcDbEntity
  8
RACCORDO
100
AcDbPolyline
 62
250
  6
CONTINUOUS
 90
9
 70
0
 10
48.0764497179
 20
115.2429643252
 10
48.075486221
 20
115.2443628785
 10
48.0742108651
 20
115.2484712045
 10
48.072630434
 20
115.2552794711
 10
48.0707511389
 20
115.2647696879
 10
48.068579058
 20
115.2769180935
 10
48.0661202704
 20
115.2916975221
 10
48.0633760764
 20
115.3090737954
 10
48.0603551149
 20
115.329001827
  0
LWPOLYLINE
  5
40A
100
AcDbEntity
  8
0
100
AcDbPolyline
 62
7
  6
CONTINUOUS
 90
3
 70
0
 43
0.3499999917
 10
48.7986442566
 20
221.1554882813
 10
48.7272161865
 20
220.9412072754
 10
48.5843600464
 20
220.6554821777
  0
LWPOLYLINE
  5
40B
100
AcDbEntity
  8
RACCORDO
100
AcDbPolyline
 62
250
  6
CONTINUOUS
 90
3
 70
0
 10
45.2271425078
 20
137.4520648437
 10
45.2282046826
 20
137.4521852338
 10
45.2313903751
 20
137.4524122518
  0
LINE
  5
40C
100
AcDbEntity
  8
RACCORDO
100
AcDbLine
 62
250
  6
CONTINUOUS
 10
45.2313903751
 20
137.4524122518
 11
45.2440267368
 21
137.4531789663
  0
LINE
  5
40D
100
AcDbEntity
  8
RACCORDO
100
AcDbLine
 62
250
  6
CONTINUOUS
 10
45.2440267368
 20
137.4531789663
 11
45.3275545505
 21
137.4577216919
  0
LINE
  5
40E
100
AcDbEntity
  8
RACCORDO
100
AcDbLine
 62
250
  6
CONTINUOUS
 10
45.3275545505
 20
137.4577216919
 11
45.5110608574
 21
137.4671766464
  0
LWPOLYLINE
  5
40F
100
AcDbEntity
  8
RACCORDO
100
AcDbPolyline
 62
250
  6
CONTINUOUS
 90
10
 70
0
 10
47.9477120922
 20
116.248340713
 10
47.5430988245
 20
118.5891684744
 10
47.1719127251
 20
120.9345633017
 10
46.8341537939
 20
123.284525195
 10
46.5297668416
 20
125.6395366836
 10
46.2588070575
 20
127.9991152383
 10
46.0214400102
 20
130.3618132707
 10
45.8177208892
 20
132.7271482515
 10
45.6475945049
 20
135.09560271
 10
45.5110608574
 20
137.4671766464
  0
LWPOLYLINE
  5
410
100
AcDbEntity
  8
RACCORDO
100
AcDbPolyline
 62
250
  6
CONTINUOUS
 90
10
 70
0
 10
45.5110608574
 20
182.7723628273
 10
45.6475947449
 20
185.1439401565
 10
45.8177214345
 20
187.5123978437
 10
46.0214409262
 20
189.8777358888
 10
46.2588085766
 20
192.2404377333
 10
46.5297690292
 20
194.6000199357
 10
46.834156214
 20
196.9550321721
 10
47.1719147745
 20
199.304991001
 10
47.5431000672
 20
201.6503798639
 10
47.9477120922
 20
203.9911987607
  0
LINE
  5
411
100
AcDbEntity
  8
RACCORDO
100
AcDbLine
 62
250
  6
CONTINUOUS
 10
47.9477120922
 20
203.9911987607
 11
47.9833926491
 21
204.3041936028
  0
LINE
  5
412
100
AcDbEntity
  8
RACCORDO
100
AcDbLine
 62
250
  6
CONTINUOUS
 10
47.9833926491
 20
204.3041936028
 11
48.0063567645
 21
204.4968320651
  0
LINE
  5
413
100
AcDbEntity
  8
RACCORDO
100
AcDbLine
 62
250
  6
CONTINUOUS
 10
48.0063567645
 20
204.4968320651
 11
48.0274506238
 21
204.666607446
  0
LINE
  5
414
100
AcDbEntity
  8
RACCORDO
100
AcDbLine
 62
250
  6
CONTINUOUS
 10
48.0274506238
 20
204.666607446
 11
48.0414545393
 21
204.7745840799
  0
LINE
  5
415
100
AcDbEntity
  8
RACCORDO
100
AcDbLine
 62
250
  6
CONTINUOUS
 10
48.0414545393
 20
204.7745840799
 11
48.0497294561
 21
204.8359347797
  0
LWPOLYLINE
  5
416
100
AcDbEntity
  8
RACCORDO
100
AcDbPolyline
 62
250
  6
CONTINUOUS
 90
11
 70
0
 10
48.0497294561
 20
204.8359347797
 10
48.0570648902
 20
204.8880468429
 10
48.060346058
 20
204.9104750378
 10
48.0633669948
 20
204.9304051826
 10
48.0661115311
 20
204.9477882438
 10
48.0685715178
 20
204.9625788555
 10
48.070745401
 20
204.9747396766
 10
48.0726263805
 20
204.9842414729
 10
48.0742081616
 20
204.9910592495
 10
48.0754848533
 20
204.9951741211
 10
48.0764497179
 20
204.9965751485
  0
LINE
  5
417
100
AcDbEntity
  8
RACCORDO
100
AcDbLine
 62
250
  6
CONTINUOUS
 10
48.0603551149
 20
115.329001827
 11
48.0535327886
 21
115.3762954379
  0
LINE
  5
418
100
AcDbEntity
  8
RACCORDO
100
AcDbLine
 62
250
  6
CONTINUOUS
 10
48.0535327886
 20
115.3762954379
 11
48.0457152309
 21
115.4330952758
  0
LINE
  5
419
100
AcDbEntity
  8
RACCORDO
100
AcDbLine
 62
250
  6
CONTINUOUS
 10
48.0457152309
 20
115.4330952758
 11
48.0323176966
 21
115.5348721742
  0
LINE
  5
41A
100
AcDbEntity
  8
RACCORDO
100
AcDbLine
 62
250
  6
CONTINUOUS
 10
48.0323176966
 20
115.5348721742
 11
48.0172072928
 21
115.6544469371
  0
LINE
  5
41B
100
AcDbEntity
  8
RACCORDO
100
AcDbLine
 62
250
  6
CONTINUOUS
 10
48.0172072928
 20
115.6544469371
 11
47.9950545977
 21
115.8366756254
  0
LINE
  5
41C
100
AcDbEntity
  8
RACCORDO
100
AcDbLine
 62
250
  6
CONTINUOUS
 10
47.9950545977
 20
115.8366756254
 11
47.9715276359
 21
116.0375315677
  0
LINE
  5
41D
100
AcDbEntity
  8
RACCORDO
100
AcDbLine
 62
250
  6
CONTINUOUS
 10
47.9715276359
 20
116.0375315677
 11
47.9477120922
 21
116.248340713
  0
LWPOLYLINE
  5
41E
100
AcDbEntity
  8
RACCORDO
100
AcDbPolyline
 62
250
  6
CONTINUOUS
 90
13
 70
0
 10
45.5110608574
 20
137.4671766464
 10
45.3366409959
 20
141.2402659337
 10
45.1939291947
 20
145.0142924126
 10
45.0829254538
 20
148.7892560831
 10
45.0036240989
 20
152.5654693297
 10
44.9560308043
 20
156.3426197678
 10
44.9401625935
 20
160.1197702441
 10
44.9560308179
 20
163.8969208469
 10
45.0036241261
 20
167.6740714878
 10
45.0829254872
 20
171.4502847482
 10
45.1939292243
 20
175.2252481551
 10
45.3366410144
 20
178.9992741815
 10
45.5110608574
 20
182.7723628273
  0
LWPOLYLINE
  5
41F
100
AcDbEntity
  8
0
100
AcDbPolyline
 62
7
  6
CONTINUOUS
 90
4
 70
0
 43
0.3499999917
 10
45.7272180176
 20
221.2983508301
 10
45.7272180176
 20
222.1554748535
 10
46.1557896423
 20
222.5840625
 10
46.7986454773
 20
222.5840625
  0
LINE
  5
420
100
AcDbEntity
  8
0
100
AcDbLine
 62
7
  6
CONTINUOUS
 10
53.2271424971
 20
156.2671157754
 11
51.3924128615
 21
156.5906281125
  0
LINE
  5
421
100
AcDbEntity
  8
RACCORDO
100
AcDbLine
 62
7
  6
CONTINUOUS
 10
50.4271424971
 20
115.1197697368
 11
50.4271424971
 21
205.1197697368
  0
LINE
  5
422
100
AcDbEntity
  8
0
100
AcDbLine
 62
7
  6
CONTINUOUS
 10
51.2271424971
 20
163.4519498106
 11
51.2271424971
 21
156.7875896631
  0
LINE
  5
423
100
AcDbEntity
  8
RACCORDO
100
AcDbLine
 62
7
  6
CONTINUOUS
 10
53.2271424971
 20
203.6197697073
 11
53.2271424971
 21
203.2168452469
  0
LINE
  5
424
100
AcDbEntity
  8
DRAFT
100
AcDbLine
 62
7
  6
CONTINUOUS
 10
53.2271424971
 20
203.2168452469
 11
53.2271424971
 21
163.9724236983
  0
LINE
  5
425
100
AcDbEntity
  8
DRAFT
100
AcDbLine
 62
7
  6
CONTINUOUS
 10
53.2271424971
 20
156.2671157754
 11
53.2271424971
 21
117.0226949507
  0
LINE
  5
426
100
AcDbEntity
  8
RACCORDO
100
AcDbLine
 62
7
  6
CONTINUOUS
 10
53.2271424971
 20
117.0226949507
 11
53.2271424971
 21
116.6197697109
  0
LINE
  5
427
100
AcDbEntity
  8
0
100
AcDbLine
 62
7
  6
CONTINUOUS
 10
53.2271424971
 20
163.9724236983
 11
51.3924128615
 21
163.6489113612
  0
LINE
  5
428
100
AcDbEntity
  8
RACCORDO
100
AcDbLine
 62
250
  6
CONTINUOUS
 10
45.2646927266
 20
182.7851962609
 11
45.5110608574
 21
182.7723628273
  0
LWPOLYLINE
  5
429
100
AcDbEntity
  8
RACCORDO
100
AcDbPolyline
 62
250
  6
CONTINUOUS
 90
5
 70
0
 10
45.2271425132
 20
182.7874746297
 10
45.2282046879
 20
182.7873542397
 10
45.2313903804
 20
182.7871272216
 10
45.236676932
 20
182.7867951902
 10
45.2646927266
 20
182.7851962609
  0
LWPOLYLINE
  5
42A
100
AcDbEntity
  8
0
100
AcDbPolyline
 62
7
  6
CONTINUOUS
 90
10
 70
0
 43
0.3499999917
 10
48.7272161865
 20
221.3697692871
 10
48.7986442566
 20
221.2269067383
 10
48.7986442566
 20
221.1554882813
 10
48.6557881165
 20
221.0126257324
 10
48.5843600464
 20
221.0126257324
 10
48.5129319763
 20
221.0840441895
 10
48.5129319763
 20
221.1554882813
 10
48.5843600464
 20
221.2983508301
 10
48.6557881165
 20
221.3697692871
 10
48.7272161865
 20
221.3697692871
  0
LWPOLYLINE
  5
42B
100
AcDbEntity
  8
RACCORDO
100
AcDbPolyline
 62
250
  6
CONTINUOUS
 90
13
 70
0
 10
53.2271424172
 20
117.0226943118
 10
53.1153457784
 20
116.9505821677
 10
53.0027273727
 20
116.8818268848
 10
52.8894305514
 20
116.8164284632
 10
52.7757739353
 20
116.754512793
 10
52.6617172303
 20
116.695953984
 10
52.5468351381
 20
116.6403743657
 10
52.4310647617
 20
116.5876772364
 10
52.3146702449
 20
116.5379592978
 10
52.1976879264
 20
116.4911329848
 10
52.0801918672
 20
116.447169109
 10
51.9622962351
 20
116.4060968587
 10
51.8440922013
 20
116.3679162339
  0
LWPOLYLINE
  5
42C
100
AcDbEntity
  8
RACCORDO
100
AcDbPolyline
 62
250
  6
CONTINUOUS
 90
6
 70
0
 10
47.6681675277
 20
116.1951416426
 10
47.6691768871
 20
116.1955623319
 10
47.6722811361
 20
116.1963587905
 10
47.6774581732
 20
116.197525348
 10
47.6846711392
 20
116.1990536987
 10
47.6938686795
 20
116.2009329611
  0
LWPOLYLINE
  5
42D
100
AcDbEntity
  8
RACCORDO
100
AcDbPolyline
 62
250
  6
CONTINUOUS
 90
7
 70
0
 10
47.6681674815
 20
204.0443978394
 10
47.6691770105
 20
204.0439771221
 10
47.6722814098
 20
204.0431806388
 10
47.6774585771
 20
204.0420140604
 10
47.6846716526
 20
204.0404856925
 10
47.6938692812
 20
204.0386064166
 10
47.7179425976
 20
204.0338510634
  0
LWPOLYLINE
  5
42E
100
AcDbEntity
  8
RACCORDO
100
AcDbPolyline
 62
250
  6
CONTINUOUS
 90
13
 70
0
 10
51.8440922013
 20
116.3679162339
 10
51.7293299526
 20
116.3335913989
 10
51.6142276068
 20
116.3017961825
 10
51.4988580433
 20
116.2725305846
 10
51.3835902424
 20
116.245848788
 10
51.2682002599
 20
116.2216966099
 10
51.1518554119
 20
116.1999115029
 10
51.0346013896
 20
116.1804207568
 10
50.9165053066
 20
116.1632970817
 10
50.7967448621
 20
116.1485960606
 10
50.6750786794
 20
116.1363362211
 10
50.5518572
 20
116.1264990357
 10
50.4271424971
 20
116.1190845042
  0
LINE
  5
42F
100
AcDbEntity
  8
RACCORDO
100
AcDbLine
 62
250
  6
CONTINUOUS
 10
47.9477120922
 20
203.9911987607
 11
50.4271424971
 21
204.1211402021
  0
LWPOLYLINE
  5
430
100
AcDbEntity
  8
RACCORDO
100
AcDbPolyline
 62
250
  6
CONTINUOUS
 90
13
 70
0
 10
50.4271425178
 20
204.1204549678
 10
50.5456306754
 20
204.113607483
 10
50.6639469422
 20
204.1043162225
 10
50.7820291054
 20
204.0925811866
 10
50.89957966
 20
204.0784506937
 10
51.0167735156
 20
204.0618764252
 10
51.1342496062
 20
204.0427134253
 10
51.2520967437
 20
204.0209678128
 10
51.3700796037
 20
203.9966334687
 10
51.4883366833
 20
203.9695470804
 10
51.6068567901
 20
203.9396542104
 10
51.7254828911
 20
203.9070092961
 10
51.8441269854
 20
203.8716123377
  0
LINE
  5
431
100
AcDbEntity
  8
RACCORDO
100
AcDbLine
 62
250
  6
CONTINUOUS
 10
47.828327837
 20
204.0130181298
 11
47.9477122304
 21
203.9911987608
  0
LINE
  5
432
100
AcDbEntity
  8
RACCORDO
100
AcDbLine
 62
250
  6
CONTINUOUS
 10
47.7489941677
 20
204.0278831866
 11
47.828327837
 21
204.0130181298
  0
LINE
  5
433
100
AcDbEntity
  8
RACCORDO
100
AcDbLine
 62
250
  6
CONTINUOUS
 10
47.7179425976
 20
204.0338510634
 11
47.7489941677
 21
204.0278831866
  0
LWPOLYLINE
  5
434
100
AcDbEntity
  8
RACCORDO
100
AcDbPolyline
 62
250
  6
CONTINUOUS
 90
13
 70
0
 10
51.8441269854
 20
203.8716123377
 10
51.9598088486
 20
203.8342980911
 10
52.0754146443
 20
203.7941094166
 10
52.1908525516
 20
203.7510463141
 10
52.3058049165
 20
203.7052560003
 10
52.4204024468
 20
203.6565912586
 10
52.5351987554
 20
203.604610439
 10
52.6500636141
 20
203.5493648245
 10
52.7648651539
 20
203.4908031322
 10
52.8800952322
 20
203.4283298635
 10
52.9957842432
 20
203.3617465188
 10
53.111531955
 20
203.2912515977
 10
53.2271425154
 20
203.2168451002
  0
LINE
  5
435
100
AcDbEntity
  8
RACCORDO
100
AcDbLine
 62
7
  6
CONTINUOUS
 10
48.0764497179
 20
204.9965751485
 11
50.4271424971
 21
205.1197697368
  0
LWPOLYLINE
  5
436
100
AcDbEntity
  8
0
100
AcDbPolyline
 62
7
  6
CONTINUOUS
 90
13
 70
0
 43
0.3499999917
 10
46.1557896423
 20
222.5840625
 10
45.8700741577
 20
222.7983435059
 10
45.8700741577
 20
223.4411865234
 10
46.1557896423
 20
223.8697741699
 10
46.7986454773
 20
223.8697741699
 10
47.0843609619
 20
223.4411865234
 10
47.0843609619
 20
222.7983435059
 10
46.7986454773
 20
222.5840625
 10
47.2272171021
 20
222.1554748535
 10
47.2272171021
 20
221.2983508301
 10
46.7986454773
 20
220.8697631836
 10
46.1557896423
 20
220.8697631836
 10
45.7272180176
 20
221.2983508301
  0
ARC
  5
437
100
AcDbEntity
  8
RACCORDO
100
AcDbCircle
 62
7
  6
CONTINUOUS
 10
212.4478342646
 20
145.8861259455
 40
167.4332498099
100
AcDbArc
 50
182.8873441233
 51
190.4602411505
  0
ARC
  5
438
100
AcDbEntity
  8
RACCORDO
100
AcDbCircle
 62
7
  6
CONTINUOUS
 10
50.1556626806
 20
120.799913223
 40
5.1872524353
100
AcDbArc
 50
273.0
 51
306.3076471048
  0
ARC
  5
439
100
AcDbEntity
  8
RACCORDO
100
AcDbCircle
 62
7
  6
CONTINUOUS
 10
48.0921500572
 20
115.5425555469
 40
0.3
100
AcDbArc
 50
190.4607001548
 51
267.0001089524
  0
ARC
  5
43A
100
AcDbEntity
  8
0
100
AcDbCircle
 62
7
  6
CONTINUOUS
 10
51.4271424971
 20
156.7875896631
 40
0.2
100
AcDbArc
 50
180.0
 51
260.0
  0
ARC
  5
43B
100
AcDbEntity
  8
RACCORDO
100
AcDbCircle
 62
7
  6
CONTINUOUS
 10
212.4478342646
 20
174.3534135281
 40
167.4332498099
100
AcDbArc
 50
169.5397588495
 51
177.1126559725
  0
ARC
  5
43C
100
AcDbEntity
  8
RACCORDO
100
AcDbCircle
 62
7
  6
CONTINUOUS
 10
50.1556626806
 20
199.4396262507
 40
5.1872524353
100
AcDbArc
 50
53.6923513329
 51
86.9999997702
  0
ARC
  5
43D
100
AcDbEntity
  8
RACCORDO
100
AcDbCircle
 62
7
  6
CONTINUOUS
 10
48.0921505047
 20
204.6969862881
 40
0.3
100
AcDbArc
 50
93.0
 51
169.5397588495
  0
ARC
  5
43E
100
AcDbEntity
  8
0
100
AcDbCircle
 62
7
  6
CONTINUOUS
 10
51.4271424971
 20
163.4519498106
 40
0.2
100
AcDbArc
 50
100.0
 51
180.0
  0
ARC
  5
43F
100
AcDbEntity
  8
RACCORDO
100
AcDbCircle
 62
7
  6
CONTINUOUS
 10
494.6558633804
 20
160.1197697368
 40
450.0
100
AcDbArc
 50
177.112643573
 51
182.8873564627
  0
ELLIPSE
  5
440
100
AcDbEntity
  8
RACCORDO
100
AcDbEllipse
 62
7
  6
CONTINUOUS
 10
87.5506198789
 20
116.1211420828
 30
0.0
 11
0.7090462434
 21
0.7090462434
 31
0.0
 40
0.9972646886
 41
-3.9256212891
 42
-2.3575640181
  0
ELLIPSE
  5
441
100
AcDbEntity
  8
RACCORDO
100
AcDbEllipse
 62
7
  6
CONTINUOUS
 10
388.5478751869
 20
116.1211420828
 30
0.0
 11
-0.7090462434
 21
0.7090462434
 31
0.0
 40
0.9972646886
 41
-3.9256212891
 42
-2.3575640181
  0
ELLIPSE
  5
442
100
AcDbEntity
  8
RACCORDO
100
AcDbEllipse
 62
7
  6
CONTINUOUS
 10
388.5478751869
 20
204.1183973908
 30
0.0
 11
0.7090462434
 21
0.7090462434
 31
0.0
 40
0.9972646886
 41
-0.7840286355
 42
0.7840286355
  0
ELLIPSE
  5
443
100
AcDbEntity
  8
RACCORDO
100
AcDbEllipse
 62
7
  6
CONTINUOUS
 10
87.5506198789
 20
204.1183973908
 30
0.0
 11
-0.7090462434
 21
0.7090462434
 31
0.0
 40
0.9972646886
 41
-0.7840286355
 42
0.7840286355
  0
ELLIPSE
  5
444
100
AcDbEntity
  8
0
100
AcDbEllipse
 62
7
  6
CONTINUOUS
 10
366.4481496561
 20
138.2208676136
 30
0.0
 11
0.5672369947
 21
-0.5672369947
 31
0.0
 40
0.9972646886
 41
-0.7840286355
 42
0.7840286355
  0
ELLIPSE
  5
445
100
AcDbEntity
  8
0
100
AcDbEllipse
 62
7
  6
CONTINUOUS
 10
366.4481496561
 20
182.01867186
 30
0.0
 11
0.5672369947
 21
0.5672369947
 31
0.0
 40
0.9972646886
 41
-0.7840286355
 42
0.7840286355
  0
ELLIPSE
  5
446
100
AcDbEntity
  8
0
100
AcDbEllipse
 62
7
  6
CONTINUOUS
 10
322.6503454097
 20
182.01867186
 30
0.0
 11
0.5672369947
 21
-0.5672369947
 31
0.0
 40
0.9972646886
 41
2.3575640181
 42
3.9256212891
  0
ELLIPSE
  5
447
100
AcDbEntity
  8
0
100
AcDbEllipse
 62
7
  6
CONTINUOUS
 10
322.6503454097
 20
138.2208676136
 30
0.0
 11
0.5672369947
 21
0.5672369947
 31
0.0
 40
0.9972646886
 41
-3.9256212891
 42
-2.3575640181
  0
ELLIPSE
  5
448
100
AcDbEntity
  8
0
100
AcDbEllipse
 62
7
  6
CONTINUOUS
 10
295.4481496561
 20
182.01867186
 30
0.0
 11
0.5672369947
 21
0.5672369947
 31
0.0
 40
0.9972646886
 41
-0.7840286355
 42
0.7840286355
  0
ELLIPSE
  5
449
100
AcDbEntity
  8
0
100
AcDbEllipse
 62
7
  6
CONTINUOUS
 10
295.4481496561
 20
138.2208676136
 30
0.0
 11
-0.5672369947
 21
0.5672369947
 31
0.0
 40
0.9972646886
 41
-3.9256212891
 42
-2.3575640181
  0
ELLIPSE
  5
44A
100
AcDbEntity
  8
0
100
AcDbEllipse
 62
7
  6
CONTINUOUS
 10
251.6503454097
 20
138.2208676136
 30
0.0
 11
0.5672369947
 21
0.5672369947
 31
0.0
 40
0.9972646886
 41
2.3575640181
 42
3.9256212891
  0
ELLIPSE
  5
44B
100
AcDbEntity
  8
0
100
AcDbEllipse
 62
7
  6
CONTINUOUS
 10
251.6503454097
 20
182.01867186
 30
0.0
 11
0.5672369947
 21
-0.5672369947
 31
0.0
 40
0.9972646886
 41
2.3575640181
 42
3.9256212891
  0
ELLIPSE
  5
44C
100
AcDbEntity
  8
0
100
AcDbEllipse
 62
7
  6
CONTINUOUS
 10
224.4481496561
 20
182.01867186
 30
0.0
 11
0.5672369947
 21
0.5672369947
 31
0.0
 40
0.9972646886
 41
-0.7840286355
 42
0.7840286355
  0
ELLIPSE
  5
44D
100
AcDbEntity
  8
0
100
AcDbEllipse
 62
7
  6
CONTINUOUS
 10
180.6503454097
 20
182.01867186
 30
0.0
 11
0.5672369947
 21
-0.5672369947
 31
0.0
 40
0.9972646886
 41
2.3575640181
 42
3.9256212891
  0
ELLIPSE
  5
44E
100
AcDbEntity
  8
0
100
AcDbEllipse
 62
7
  6
CONTINUOUS
 10
180.6503454097
 20
138.2208676136
 30
0.0
 11
0.5672369947
 21
0.5672369947
 31
0.0
 40
0.9972646886
 41
-3.9256212891
 42
-2.3575640181
  0
ELLIPSE
  5
44F
100
AcDbEntity
  8
0
100
AcDbEllipse
 62
7
  6
CONTINUOUS
 10
224.4481496561
 20
138.2208676136
 30
0.0
 11
0.5672369947
 21
-0.5672369947
 31
0.0
 40
0.9972646886
 41
-0.7840286355
 42
0.7840286355
  0
ELLIPSE
  5
450
100
AcDbEntity
  8
0
100
AcDbEllipse
 62
7
  6
CONTINUOUS
 10
109.6503454097
 20
138.2208676136
 30
0.0
 11
0.5672369947
 21
0.5672369947
 31
0.0
 40
0.9972646886
 41
-3.9256212891
 42
-2.3575640181
  0
ELLIPSE
  5
451
100
AcDbEntity
  8
0
100
AcDbEllipse
 62
7
  6
CONTINUOUS
 10
109.6503454097
 20
182.01867186
 30
0.0
 11
-0.5672369947
 21
0.5672369947
 31
0.0
 40
0.9972646886
 41
-0.7840286355
 42
0.7840286355
  0
ELLIPSE
  5
452
100
AcDbEntity
  8
0
100
AcDbEllipse
 62
7
  6
CONTINUOUS
 10
153.4481496561
 20
182.01867186
 30
0.0
 11
0.5672369947
 21
0.5672369947
 31
0.0
 40
0.9972646886
 41
-0.7840286355
 42
0.7840286355
  0
ELLIPSE
  5
453
100
AcDbEntity
  8
0
100
AcDbEllipse
 62
7
  6
CONTINUOUS
 10
153.4481496561
 20
138.2208676136
 30
0.0
 11
0.5672369947
 21
-0.5672369947
 31
0.0
 40
0.9972646886
 41
-0.7840286355
 42
0.7840286355
  0
ENDSEC
  0
SECTION
  2
OBJECTS
  0
DICTIONARY
  5
C
100
AcDbDictionary
280
0
281
1
  3
ACAD_GROUP
350
D
  3
ACAD_MLINESTYLE
350
17
  3
ACAD_LAYOUT
350
1A
  3
ACAD_PLOTSETTINGS
350
19
  3
ACAD_PLOTSTYLENAME
350
E
  0
DICTIONARY
  5
D
102
{ACAD_REACTORS
330
C
102
}
100
AcDbDictionary
280
0
281
1
  0
ACDBDICTIONARYWDFLT
  5
E
102
{ACAD_REACTORS
330
C
102
}
100
AcDbDictionary
281
1
  3
Normal
350
F
100
AcDbDictionaryWithDefault
340
F
  0
DICTIONARY
  5
17
102
{ACAD_REACTORS
330
C
102
}
100
AcDbDictionary
280
0
281
1
  3
Standard
350
18
  0
DICTIONARY
  5
19
102
{ACAD_REACTORS
330
C
102
}
100
AcDbDictionary
281
1
  0
DICTIONARY
  5
1A
102
{ACAD_REACTORS
330
C
102
}
100
AcDbDictionary
281
1
  3
Model
350
454
  3
Layout1
350
455
  0
ACDBPLACEHOLDER
  5
F
102
{ACAD_REACTORS
330
E
102
}
  0
MLINESTYLE
  5
18
102
{ACAD_REACTORS
330
17
102
}
100
AcDbMlineStyle
  2
STANDARD
 70
0
  3

 62
256
 51
90.0
 52
90.0
 71
2
 49
0.5
 62
256
  6
BYLAYER
 49
-0.5
 62
256
  6
BYLAYER
  0
LAYOUT
  5
454
102
{ACAD_REACTORS
330
1A
102
}
100
AcDbPlotSettings
  1

  2
none_device
  4
ISO_A3_(420.00_x_297.00_MM)
  6

 40
0.0
 41
0.0
 42
0.0
 43
0.0
 44
420.0
 45
297.0
 46
0.0
 47
0.0
 48
0.0
 49
0.0
140
0.0
141
0.0
142
1.0
143
1.0
 70
1024
 72
1
 73
0
 74
0
  7

 75
0
147
1.0
148
0.0
149
0.0
100
AcDbLayout
  1
Model
 70
0
 71
0
 10
0.0
 20
0.0
 11
420.0
 21
297.0
 12
0.0
 22
0.0
 32
0.0
 14
0.0
 24
0.0
 34
0.0
 15
0.0
 25
0.0
 35
0.0
146
0.0
 13
0.0
 23
0.0
 33
0.0
 16
1.0
 26
0.0
 36
0.0
 17
0.0
 27
1.0
 37
0.0
 76
0
330
215
345
0
346
0
  0
LAYOUT
  5
455
102
{ACAD_REACTORS
330
1A
102
}
100
AcDbPlotSettings
  1

  2
none_device
  4
ISO_A3_(420.00_x_297.00_MM)
  6

 40
0.0
 41
0.0
 42
0.0
 43
0.0
 44
420.0
 45
297.0
 46
0.0
 47
0.0
 48
0.0
 49
0.0
140
0.0
141
0.0
142
1.0
143
1.0
 70
0
 72
1
 73
0
 74
0
  7

 75
0
147
1.0
148
0.0
149
0.0
100
AcDbLayout
  1
Layout1
 70
0
 71
1
 10
0.0
 20
0.0
 11
420.0
 21
297.0
 12
0.0
 22
0.0
 32
0.0
 14
0.0
 24
0.0
 34
0.0
 15
0.0
 25
0.0
 35
0.0
146
0.0
 13
0.0
 23
0.0
 33
0.0
 16
1.0
 26
0.0
 36
0.0
 17
0.0
 27
1.0
 37
0.0
 76
0
330
216
345
0
346
0
  0
ENDSEC
  0
EOF
