  0
SECTION
  2
HEADER
  9
$ACADVER
  1
AC1024
  9
$DWGCODEPAGE
  3
ANSI_1252
  9
$EXTMAX
 10
420.0
 20
297.0
 30
0.0
  9
$EXTMIN
 10
0.0
 20
0.0
 30
0.0
  9
$LIMMIN
 10
0.0
 20
0.0
  9
$LIMMAX
 10
420.0
 20
297.0
  9
$VIEWCTR
 10
210.0
 20
148.5
  9
$VIEWSIZE
 40
297.0
  9
$CLAYER
  8
0
  9
$LTSCALE
 40
23.1
  9
$CELTYPE
  6
BYLAYER
  9
$DIMSCALE
 40
1.0
  9
$DIMASZ
 40
3.0
  9
$DIMEXO
 40
0.5
  9
$DIMDLI
 40
15.96
  9
$DIMEXE
 40
1.5
  9
$DIMCEN
 40
3.78
  9
$DIMLFAC
 40
1.0
  9
$DIMBLK
  1
_FILLED
  9
$DIMALT
 70
0
  9
$DIMALTF
 40
0.0393700787
  9
$DIMTXT
 40
3.0
  9
$DIMTOL
 70
1
  9
$DIMLIM
 70
0
  9
$DIMTFAC
 40
1.0
  9
$DIMTP
 40
0.01
  9
$DIMTM
 40
0.01
  9
$DIMGAP
 40
0.625
  9
$DIMDSEP
 70
44
  9
$AUNITS
 70
0
  9
$PDMODE
 70
3
  9
$PDSIZE
 40
3.0
  9
$HANDSEED
  5
412
  9
$TILEMODE
 70
1
  9
$MEASUREMENT
 70
1
  9
$INSUNITS
 70
4
  0
ENDSEC
  0
SECTION
  2
CLASSES
  0
CLASS
  1
ACDBDICTIONARYWDFLT
  2
AcDbDictionaryWithDefault
  3
AutoCAD 2000
 90
0
 91
1
280
0
281
0
  0
CLASS
  1
ACDBPLACEHOLDER
  2
AcDbPlaceHolder
  3
AutoCAD 2000
 90
0
 91
1
280
0
281
0
  0
CLASS
  1
LAYOUT
  2
AcDbLayout
  3
AutoCAD 2000
 90
0
 91
0
280
0
281
0
  0
ENDSEC
  0
SECTION
  2
TABLES
  0
TABLE
  2
VPORT
  5
8
100
AcDbSymbolTable
 70
2
  0
VPORT
  5
1F4
100
AcDbSymbolTableRecord
100
AcDbViewportTableRecord
  2
*ACTIVE
 70
0
 10
0.0
 20
0.0
 11
1.0
 21
1.0
 12
210.0
 22
148.5
 13
0.0
 23
0.0
 14
1.0
 24
1.0
 15
0.0
 25
0.0
 16
0.0
 26
0.0
 36
1.0
 17
0.0
 27
0.0
 37
0.0
 40
297.0
 41
1.4141414141
 42
50.0
 43
0.0
 44
0.0
 50
0.0
 51
0.0
 71
0
 72
100
 73
1
 74
1
 75
0
 76
0
 77
0
 78
0
  0
ENDTAB
  0
TABLE
  2
LTYPE
  5
5
100
AcDbSymbolTable
 70
6
  0
LTYPE
  5
14
100
AcDbSymbolTableRecord
100
AcDbLinetypeTableRecord
  2
BYBLOCK
 70
0
  3

 72
65
 73
0
 40
0.0
  0
LTYPE
  5
15
100
AcDbSymbolTableRecord
100
AcDbLinetypeTableRecord
  2
BYLAYER
 70
0
  3

 72
65
 73
0
 40
0.0
  0
LTYPE
  5
16
100
AcDbSymbolTableRecord
100
AcDbLinetypeTableRecord
  2
CONTINUOUS
 70
64
  3
Solid line
 72
65
 73
0
 40
0.0
  0
LTYPE
  5
1F5
100
AcDbSymbolTableRecord
100
AcDbLinetypeTableRecord
  2
CENTER
 70
64
  3
____ _ ____ _ ____ _ ____ _ ____ _ ____ _ ____
 72
65
 73
4
 40
0.6
 49
0.375
 74
0
 49
-0.075
 74
0
 49
0.075
 74
0
 49
-0.075
 74
0
  0
LTYPE
  5
1F6
100
AcDbSymbolTableRecord
100
AcDbLinetypeTableRecord
  2
HIDDEN
 70
64
  3
- - - - - - - - - - - - - - - - - - - -
 72
65
 73
2
 40
0.2
 49
0.1
 74
0
 49
-0.1
 74
0
  0
LTYPE
  5
1F7
100
AcDbSymbolTableRecord
100
AcDbLinetypeTableRecord
  2
PHANTOM
 70
64
  3
_____ _ _ _____ _ _ _____ _ _ _____
 72
65
 73
6
 40
0.8
 49
0.45
 74
0
 49
-0.05
 74
0
 49
0.1
 74
0
 49
-0.05
 74
0
 49
0.1
 74
0
 49
-0.05
 74
0
  0
LTYPE
  5
1F8
100
AcDbSymbolTableRecord
100
AcDbLinetypeTableRecord
  2
DOT
 70
64
  3
. . . . . . . . . . . . . . . . . . . .
 72
65
 73
2
 40
0.2
 49
0.1
 74
0
 49
-0.1
 74
0
  0
LTYPE
  5
1F9
100
AcDbSymbolTableRecord
100
AcDbLinetypeTableRecord
  2
DASHED
 70
64
  3
- - - - - - - - - - - - - - - - - - - -
 72
65
 73
2
 40
0.2
 49
0.1
 74
0
 49
-0.1
 74
0
  0
ENDTAB
  0
TABLE
  2
LAYER
  5
2
100
AcDbSymbolTable
 70
36
  0
LAYER
  5
10
100
AcDbSymbolTableRecord
100
AcDbLayerTableRecord
  2
0
 70
0
 62
7
  6
CONTINUOUS
370
-3
390
F
  0
LAYER
  5
1FA
100
AcDbSymbolTableRecord
100
AcDbLayerTableRecord
  2
DEFAULT_1
 70
0
 62
7
  6
CENTER
370
-3
390
F
  0
LAYER
  5
1FB
100
AcDbSymbolTableRecord
100
AcDbLayerTableRecord
  2
DEFAULT_2
 70
0
 62
7
  6
HIDDEN
370
-3
390
F
  0
LAYER
  5
1FC
100
AcDbSymbolTableRecord
100
AcDbLayerTableRecord
  2
DEFAULT_3
 70
0
 62
7
  6
PHANTOM
370
-3
390
F
  0
LAYER
  5
1FD
100
AcDbSymbolTableRecord
100
AcDbLayerTableRecord
  2
ASSI
 70
0
 62
7
  6
CONTINUOUS
370
-3
390
F
  0
LAYER
  5
1FE
100
AcDbSymbolTableRecord
100
AcDbLayerTableRecord
  2
COORDINATE
 70
0
 62
7
  6
CONTINUOUS
370
-3
390
F
  0
LAYER
  5
1FF
100
AcDbSymbolTableRecord
100
AcDbLayerTableRecord
  2
COPY_PUBLISH
 70
0
 62
7
  6
CONTINUOUS
370
-3
390
F
  0
LAYER
  5
200
100
AcDbSymbolTableRecord
100
AcDbLayerTableRecord
  2
COSMETICI
 70
0
 62
7
  6
CONTINUOUS
370
-3
390
F
  0
LAYER
  5
201
100
AcDbSymbolTableRecord
100
AcDbLayerTableRecord
  2
COSTOLE_APPOGGIO
 70
0
 62
7
  6
CONTINUOUS
370
-3
390
F
  0
LAYER
  5
202
100
AcDbSymbolTableRecord
100
AcDbLayerTableRecord
  2
CURVE
 70
0
 62
7
  6
CONTINUOUS
370
-3
390
F
  0
LAYER
  5
203
100
AcDbSymbolTableRecord
100
AcDbLayerTableRecord
  2
DRAFT
 70
0
 62
7
  6
CONTINUOUS
370
-3
390
F
  0
LAYER
  5
204
100
AcDbSymbolTableRecord
100
AcDbLayerTableRecord
  2
IMPORT_IGES
 70
0
 62
7
  6
CONTINUOUS
370
-3
390
F
  0
LAYER
  5
205
100
AcDbSymbolTableRecord
100
AcDbLayerTableRecord
  2
INTF_1
 70
0
 62
7
  6
CONTINUOUS
370
-3
390
F
  0
LAYER
  5
206
100
AcDbSymbolTableRecord
100
AcDbLayerTableRecord
  2
NOTE
 70
0
 62
7
  6
CONTINUOUS
370
-3
390
F
  0
LAYER
  5
207
100
AcDbSymbolTableRecord
100
AcDbLayerTableRecord
  2
PIANI
 70
0
 62
7
  6
CONTINUOUS
370
-3
390
F
  0
LAYER
  5
208
100
AcDbSymbolTableRecord
100
AcDbLayerTableRecord
  2
PUNTI
 70
0
 62
7
  6
CONTINUOUS
370
-3
390
F
  0
LAYER
  5
209
100
AcDbSymbolTableRecord
100
AcDbLayerTableRecord
  2
RACCORDO
 70
0
 62
7
  6
CONTINUOUS
370
-3
390
F
  0
LAYER
  5
20A
100
AcDbSymbolTableRecord
100
AcDbLayerTableRecord
  2
RGB____0____0____0__
 70
0
 62
7
  6
CONTINUOUS
370
-3
390
F
  0
LAYER
  5
20B
100
AcDbSymbolTableRecord
100
AcDbLayerTableRecord
  2
SIMBOLI
 70
0
 62
7
  6
CONTINUOUS
370
-3
390
F
  0
LAYER
  5
20C
100
AcDbSymbolTableRecord
100
AcDbLayerTableRecord
  2
SMUSSO
 70
0
 62
7
  6
CONTINUOUS
370
-3
390
F
  0
LAYER
  5
20D
100
AcDbSymbolTableRecord
100
AcDbLayerTableRecord
  2
SNAPLINE
 70
0
 62
7
  6
CONTINUOUS
370
-3
390
F
  0
LAYER
  5
20E
100
AcDbSymbolTableRecord
100
AcDbLayerTableRecord
  2
SUPERFICI
 70
0
 62
7
  6
CONTINUOUS
370
-3
390
F
  0
LAYER
  5
20F
100
AcDbSymbolTableRecord
100
AcDbLayerTableRecord
  2
TRASH
 70
0
 62
7
  6
CONTINUOUS
370
-3
390
F
  0
LAYER
  5
210
100
AcDbSymbolTableRecord
100
AcDbLayerTableRecord
  2
XSEC_DATUMS
 70
0
 62
7
  6
CONTINUOUS
370
-3
390
F
  0
ENDTAB
  0
TABLE
  2
STYLE
  5
3
100
AcDbSymbolTable
 70
1
  0
STYLE
  5
11
100
AcDbSymbolTableRecord
100
AcDbTextStyleTableRecord
  2
STANDARD
 70
0
 40
0.0
 41
0.8
 50
0.0
 71
0
 42
0.2
  3
txt
  4

  0
STYLE
  5
211
100
AcDbSymbolTableRecord
100
AcDbTextStyleTableRecord
  2
TEXTSTYLE_1
 70
0
 40
0.0
 41
0.8
 50
0.0
 71
0
 42
0.2
  3
gdt
  4

  0
ENDTAB
  0
TABLE
  2
VIEW
  5
6
100
AcDbSymbolTable
 70
0
  0
ENDTAB
  0
TABLE
  2
UCS
  5
7
100
AcDbSymbolTable
 70
0
  0
ENDTAB
  0
TABLE
  2
APPID
  5
9
100
AcDbSymbolTable
 70
1
  0
APPID
  5
212
100
AcDbSymbolTableRecord
100
AcDbRegAppTableRecord
  2
ACAD
 70
0
  0
ENDTAB
  0
TABLE
  2
BLOCK_RECORD
  5
1
100
AcDbSymbolTable
 70
0
  0
BLOCK_RECORD
  5
213
100
AcDbSymbolTableRecord
100
AcDbBlockTableRecord
  2
*Model_Space
  0
BLOCK_RECORD
  5
214
100
AcDbSymbolTableRecord
100
AcDbBlockTableRecord
  2
*Paper_Space
  0
BLOCK_RECORD
  5
215
100
AcDbSymbolTableRecord
100
AcDbBlockTableRecord
  2
_FILLED
  0
BLOCK_RECORD
  5
216
100
AcDbSymbolTableRecord
100
AcDbBlockTableRecord
  2
*D0
  0
BLOCK_RECORD
  5
217
100
AcDbSymbolTableRecord
100
AcDbBlockTableRecord
  2
*D1
  0
BLOCK_RECORD
  5
218
100
AcDbSymbolTableRecord
100
AcDbBlockTableRecord
  2
*D2
  0
ENDTAB
  0
TABLE
  2
DIMSTYLE
  5
A
100
AcDbSymbolTable
 70
1
100
AcDbDimStyleTable
 71
0
  0
DIMSTYLE
105
219
100
AcDbSymbolTableRecord
100
AcDbDimStyleTableRecord
  2
STANDARD
 70
0
  3

  4

 40
1.0
 41
3.0
 42
0.5
 43
0.38
 44
1.5
 45
0.0
 46
0.0
 47
0.01
 48
0.01
140
3.0
141
0.09
142
0.0
143
25.4
144
1.0
145
0.0
146
1.0
147
0.625
 71
1.0
 72
0.0
 73
0
 74
0
 75
0
 76
0
 77
1
 78
8
 79
2
170
0
171
1
172
0
173
0
174
0
175
0
176
0
177
0
178
0
270
2
179
2
271
2
272
2
273
2
274
2
275
0
280
0
281
0
282
0
283
1
284
8
285
0
286
0
287
3
288
0
340
11
278
44
341
215
342
215
343
215
344
215
  0
DIMSTYLE
105
21A
100
AcDbSymbolTableRecord
100
AcDbDimStyleTableRecord
  2
DIMSTYLE_1
 70
0
  3

  4

 40
1.0
 41
3.0
 42
0.5
 43
0.38
 44
1.5
 45
0.0
 46
0.0
 47
0.0
 48
0.0
140
3.0
141
0.09
142
0.0
143
25.4
144
1.0
145
0.0
146
1.0
147
0.75
 71
0.0
 72
0.0
 73
0
 74
0
 75
0
 76
0
 77
1
 78
8
 79
2
170
0
171
1
172
0
173
0
174
0
175
0
176
0
177
0
178
0
270
2
179
2
271
2
272
2
273
2
274
2
275
0
280
0
281
0
282
0
283
1
284
8
285
0
286
0
287
3
288
0
340
11
278
44
341
215
342
215
343
215
344
215
  0
DIMSTYLE
105
21B
100
AcDbSymbolTableRecord
100
AcDbDimStyleTableRecord
  2
DIMSTYLE_2
 70
0
  3

  4

 40
1.0
 41
3.0
 42
0.5
 43
0.38
 44
1.5
 45
0.0
 46
0.0
 47
0.0
 48
0.0
140
3.0
141
0.09
142
0.0
143
25.4
144
1.0
145
0.0
146
1.0
147
0.75
 71
0.0
 72
0.0
 73
0
 74
0
 75
0
 76
0
 77
1
 78
8
 79
2
170
0
171
1
172
0
173
0
174
0
175
0
176
0
177
0
178
0
270
2
179
2
271
1
272
1
273
2
274
2
275
0
280
0
281
0
282
0
283
1
284
8
285
0
286
0
287
3
288
0
340
11
278
44
341
215
342
215
343
215
344
215
  0
ENDTAB
  0
ENDSEC
  0
SECTION
  2
BLOCKS
  0
BLOCK
  5
20
100
AcDbEntity
  8
0
100
AcDbBlockBegin
  2
*Model_Space
 70
0
 10
0.0
 20
0.0
 30
0.0
  3
*Model_Space
  1

  0
ENDBLK
  5
21
100
AcDbEntity
  8
0
100
AcDbBlockEnd
  0
BLOCK
  5
1C
100
AcDbEntity
  8
0
100
AcDbBlockBegin
  2
*Paper_Space
 70
0
 10
0.0
 20
0.0
 30
0.0
  3
*Paper_Space
  1

  0
ENDBLK
  5
1D
100
AcDbEntity
  8
0
100
AcDbBlockEnd
  0
BLOCK
  5
21C
100
AcDbEntity
  8
0
100
AcDbBlockBegin
  2
_FILLED
 70
64
 10
0.0
 20
0.0
  3
_FILLED
  1

  0
SOLID
  5
21D
100
AcDbEntity
  8
0
  6
BYBLOCK
 62
0
100
AcDbTrace
 10
0.0
 20
0.0
 11
-1.0
 21
0.1333333333
 12
-1.0
 22
-0.1333333333
 13
-1.0
 23
-0.1333333333
  0
ENDBLK
  5
21E
100
AcDbEntity
  8
0
  6
BYBLOCK
 62
0
100
AcDbBlockEnd
  0
BLOCK
  5
21F
100
AcDbEntity
  8
0
100
AcDbBlockBegin
 62
7
  6
CONTINUOUS
  2
*D0
 70
65
 10
0.0
 20
0.0
  3
*D0
  1

  0
LINE
  5
220
100
AcDbEntity
  8
0
100
AcDbLine
 62
7
  6
CONTINUOUS
 10
82.6835109302
 20
195.9976973684
 11
82.6835109302
 21
217.6033591892
  0
LINE
  5
221
100
AcDbEntity
  8
0
100
AcDbLine
 62
7
  6
CONTINUOUS
 10
385.6835109302
 20
195.9976973684
 11
385.6835109302
 21
217.6033591892
  0
LINE
  5
222
100
AcDbEntity
  8
0
100
AcDbLine
 62
7
  6
CONTINUOUS
 10
82.6835109302
 20
216.1033591892
 11
234.1835109302
 21
216.1033591892
  0
LINE
  5
223
100
AcDbEntity
  8
0
100
AcDbLine
 62
7
  6
CONTINUOUS
 10
385.6835109302
 20
216.1033591892
 11
234.1835109302
 21
216.1033591892
  0
INSERT
  5
224
100
AcDbEntity
  8
0
100
AcDbBlockReference
 62
7
  6
CONTINUOUS
  2
_FILLED
 10
82.6835109302
 20
216.1033591892
 41
3.0
 42
3.0
 43
3.0
 50
180.0
  0
INSERT
  5
225
100
AcDbEntity
  8
0
100
AcDbBlockReference
 62
7
  6
CONTINUOUS
  2
_FILLED
 10
385.6835109302
 20
216.1033591892
 41
3.0
 42
3.0
 43
3.0
  0
ENDBLK
  5
226
100
AcDbEntity
  8
0
  6
BYBLOCK
 62
0
100
AcDbBlockEnd
  0
BLOCK
  5
227
100
AcDbEntity
  8
0
100
AcDbBlockBegin
 62
7
  6
CONTINUOUS
  2
*D1
 70
65
 10
0.0
 20
0.0
  3
*D1
  1

  0
LINE
  5
228
100
AcDbEntity
  8
0
100
AcDbLine
 62
7
  6
CONTINUOUS
 10
385.3835109302
 20
196.2976973684
 11
401.5093344646
 21
196.2976973684
  0
LINE
  5
229
100
AcDbEntity
  8
0
100
AcDbLine
 62
7
  6
CONTINUOUS
 10
385.3835109302
 20
106.2976973684
 11
401.5093344646
 21
106.2976973684
  0
LINE
  5
22A
100
AcDbEntity
  8
0
100
AcDbLine
 62
7
  6
CONTINUOUS
 10
400.0093344646
 20
196.2976973684
 11
400.0093344646
 21
151.2976973684
  0
LINE
  5
22B
100
AcDbEntity
  8
0
100
AcDbLine
 62
7
  6
CONTINUOUS
 10
400.0093344646
 20
106.2976973684
 11
400.0093344646
 21
151.2976973684
  0
INSERT
  5
22C
100
AcDbEntity
  8
0
100
AcDbBlockReference
 62
7
  6
CONTINUOUS
  2
_FILLED
 10
400.0093344646
 20
196.2976973684
 41
3.0
 42
3.0
 43
3.0
 50
90.0
  0
INSERT
  5
22D
100
AcDbEntity
  8
0
100
AcDbBlockReference
 62
7
  6
CONTINUOUS
  2
_FILLED
 10
400.0093344646
 20
106.2976973684
 41
3.0
 42
3.0
 43
3.0
 50
270.0
  0
ENDBLK
  5
22E
100
AcDbEntity
  8
0
  6
BYBLOCK
 62
0
100
AcDbBlockEnd
  0
BLOCK
  5
22F
100
AcDbEntity
  8
0
100
AcDbBlockBegin
 62
7
  6
CONTINUOUS
  2
*D2
 70
65
 10
0.0
 20
0.0
  3
*D2
  1

  0
LINE
  5
230
100
AcDbEntity
  8
0
100
AcDbLine
 62
7
  6
CONTINUOUS
 10
56.5198473885
 20
174.1711016735
 11
56.5198473885
 21
217.6033591892
  0
LINE
  5
231
100
AcDbEntity
  8
0
100
AcDbLine
 62
7
  6
CONTINUOUS
 10
47.9517357916
 20
151.7976973684
 11
47.9517357916
 21
217.6033591892
  0
LINE
  5
232
100
AcDbEntity
  8
0
100
AcDbLine
 62
7
  6
CONTINUOUS
 10
56.5198473885
 20
216.1033591892
 11
60.5198473885
 21
216.1033591892
  0
LINE
  5
233
100
AcDbEntity
  8
0
100
AcDbLine
 62
7
  6
CONTINUOUS
 10
60.5198473885
 20
216.1033591892
 11
52.23579159
 21
216.1033591892
  0
LINE
  5
234
100
AcDbEntity
  8
0
100
AcDbLine
 62
7
  6
CONTINUOUS
 10
47.9517357916
 20
216.1033591892
 11
43.9517357916
 21
216.1033591892
  0
LINE
  5
235
100
AcDbEntity
  8
0
100
AcDbLine
 62
7
  6
CONTINUOUS
 10
43.9517357916
 20
216.1033591892
 11
52.23579159
 21
216.1033591892
  0
INSERT
  5
236
100
AcDbEntity
  8
0
100
AcDbBlockReference
 62
7
  6
CONTINUOUS
  2
_FILLED
 10
56.5198473885
 20
216.1033591892
 41
3.0
 42
3.0
 43
3.0
 50
180.0
  0
INSERT
  5
237
100
AcDbEntity
  8
0
100
AcDbBlockReference
 62
7
  6
CONTINUOUS
  2
_FILLED
 10
47.9517357916
 20
216.1033591892
 41
3.0
 42
3.0
 43
3.0
  0
ENDBLK
  5
238
100
AcDbEntity
  8
0
  6
BYBLOCK
 62
0
100
AcDbBlockEnd
  0
ENDSEC
  0
SECTION
  2
ENTITIES
  0
DIMENSION
  5
239
100
AcDbEntity
  8
0
100
AcDbDimension
 62
7
  6
CONTINUOUS
  2
*D0
 10
385.6835109302
 20
216.1033591892
 11
230.8620823587
 21
216.1033591892
 70
160
 71
2
 72
2
 41
0.9
 42
303.0
  3
DIMSTYLE_1
100
AcDbAlignedDimension
 13
82.6835109302
 23
195.4976973684
 14
385.6835109302
 24
195.4976973684
100
AcDbRotatedDimension
  0
DIMENSION
  5
23A
100
AcDbEntity
  8
0
100
AcDbDimension
 62
7
  6
CONTINUOUS
  2
*D1
 10
400.0093344646
 20
106.2976973684
 11
400.0093344646
 21
148.9405545113
 70
160
 71
2
 72
2
 41
0.9
 42
90.0
  3
DIMSTYLE_1
100
AcDbAlignedDimension
 13
384.8835109302
 23
196.2976973684
 14
384.8835109302
 24
106.2976973684
 50
270.0
100
AcDbRotatedDimension
  0
DIMENSION
  5
23B
100
AcDbEntity
  8
0
100
AcDbDimension
 62
7
  6
CONTINUOUS
  2
*D2
 10
47.9517357916
 20
216.1033591892
 11
49.0215058758
 21
216.1033591892
 70
160
 71
2
 72
2
 41
0.9
 42
8.5681115969
  3
DIMSTYLE_2
100
AcDbAlignedDimension
 13
56.5198473885
 23
173.6711016735
 14
47.9517357916
 24
151.2976973684
 50
180.0
100
AcDbRotatedDimension
  0
LWPOLYLINE
  5
23C
100
AcDbEntity
  8
RACCORDO
100
AcDbPolyline
 62
250
  6
CONTINUOUS
 90
28
 70
0
 10
83.2921978342
 20
195.469346275
 10
83.2927092048
 20
195.4870369698
 10
83.2941969885
 20
195.5045331017
 10
83.2966611852
 20
195.5218346817
 10
83.3001165692
 20
195.5389982854
 10
83.3045483662
 20
195.5559673567
 10
83.3099122541
 20
195.5725722187
 10
83.3162184368
 20
195.5888097343
 10
83.3234567104
 20
195.6046830798
 10
83.3315521405
 20
195.6200320652
 10
83.340512456
 20
195.6348491752
 10
83.350329928
 20
195.6491419774
 10
83.3609064361
 20
195.66277292
 10
83.3722490375
 20
195.6757355247
 10
83.3843506751
 20
195.6880363281
 10
83.3970920567
 20
195.6995573093
 10
83.4104788022
 20
195.7102908497
 10
83.4245052918
 20
195.7202446257
 10
83.4390353739
 20
195.7293235641
 10
83.4540765668
 20
195.7375199561
 10
83.4696213522
 20
195.7448415608
 10
83.4855110247
 20
195.7512165086
 10
83.5017463135
 20
195.7566341402
 10
83.5183264893
 20
195.7611051521
 10
83.5350906583
 20
195.7645897055
 10
83.5519851892
 20
195.7670745278
 10
83.5690637132
 20
195.7685729112
 10
83.5863262304
 20
195.7690848608
  0
LWPOLYLINE
  5
23D
100
AcDbEntity
  8
RACCORDO
100
AcDbPolyline
 62
250
  6
CONTINUOUS
 90
28
 70
0
 10
82.7941637052
 20
195.3880549916
 10
82.7961576224
 20
195.4342520949
 10
82.8007880931
 20
195.4802221435
 10
82.8080348004
 20
195.5258149064
 10
82.817866104
 20
195.5708764334
 10
82.8302467492
 20
195.6152655949
 10
82.8451416637
 20
195.6588535298
 10
82.8625052783
 20
195.7015085842
 10
82.8822753239
 20
195.7430802463
 10
82.9043805056
 20
195.7834162162
 10
82.9287410945
 20
195.8223805695
 10
82.9552762897
 20
195.8598535551
 10
82.9839004995
 20
195.8957149164
 10
83.0145173974
 20
195.9298490042
 10
83.0470237564
 20
195.9621461515
 10
83.0813150759
 20
195.9925029429
 10
83.1172765163
 20
196.0208208787
 10
83.1547892121
 20
196.0470099894
 10
83.1937357633
 20
196.0709883798
 10
83.2339956283
 20
196.0926818967
 10
83.275429102
 20
196.1120159943
 10
83.3178831547
 20
196.1289212831
 10
83.3611998822
 20
196.1433405348
 10
83.4052533613
 20
196.1552378213
 10
83.4499351516
 20
196.1645846634
 10
83.4951121584
 20
196.171349491
 10
83.5406253136
 20
196.1755045566
 10
83.5863262304
 20
196.1770334686
  0
LINE
  5
23E
100
AcDbEntity
  8
RACCORDO
100
AcDbLine
 62
7
  6
CONTINUOUS
 10
82.6835109302
 20
107.0976973684
 11
82.6835109302
 21
128.7782777797
  0
LINE
  5
23F
100
AcDbEntity
  8
DRAFT
100
AcDbLine
 62
7
  6
CONTINUOUS
 10
82.6835109302
 20
128.7782777797
 11
82.6835109302
 21
173.8171169571
  0
LINE
  5
240
100
AcDbEntity
  8
RACCORDO
100
AcDbLine
 62
7
  6
CONTINUOUS
 10
82.6835109302
 20
173.8171169571
 11
82.6835109302
 21
195.4976973684
  0
LINE
  5
241
100
AcDbEntity
  8
RACCORDO
100
AcDbLine
 62
250
  6
CONTINUOUS
 10
82.7941634468
 20
107.2074690777
 11
82.7923334705
 21
143.7884326111
  0
LINE
  5
242
100
AcDbEntity
  8
RACCORDO
100
AcDbLine
 62
250
  6
CONTINUOUS
 10
83.2921978342
 20
107.1260484619
 11
83.2904302801
 21
143.7808093122
  0
LINE
  5
243
100
AcDbEntity
  8
RACCORDO
100
AcDbLine
 62
250
  6
CONTINUOUS
 10
83.5863262304
 20
196.1770334686
 11
83.5863262304
 21
195.7690848608
  0
LINE
  5
244
100
AcDbEntity
  8
RACCORDO
100
AcDbLine
 62
250
  6
CONTINUOUS
 10
83.5863262304
 20
106.4183612683
 11
83.5863262304
 21
106.826309876
  0
LWPOLYLINE
  5
245
100
AcDbEntity
  8
RACCORDO
100
AcDbPolyline
 62
250
  6
CONTINUOUS
 90
3
 70
0
 10
82.7923334705
 20
143.7884326111
 10
82.7926653928
 20
178.6840753218
 10
82.7941637053
 20
195.3880549914
  0
LWPOLYLINE
  5
246
100
AcDbEntity
  8
RACCORDO
100
AcDbPolyline
 62
250
  6
CONTINUOUS
 90
3
 70
0
 10
83.2904302801
 20
143.7808093122
 10
83.2907573593
 20
178.7200413485
 10
83.2921978342
 20
195.469346275
  0
LWPOLYLINE
  5
247
100
AcDbEntity
  8
RACCORDO
100
AcDbPolyline
 62
250
  6
CONTINUOUS
 90
22
 70
0
 10
82.7941664351
 20
195.3880549579
 10
82.7985297458
 20
195.3943041907
 10
82.8053509653
 20
195.4004826472
 10
82.8145961319
 20
195.4065595655
 10
82.8262192151
 20
195.4125046895
 10
82.8401623453
 20
195.4182884193
 10
82.8563561017
 20
195.4238819584
 10
82.8747198581
 20
195.4292574574
 10
82.8951621839
 20
195.4343881523
 10
82.9175812998
 20
195.4392484983
 10
82.9418655843
 20
195.4438142961
 10
82.9678941296
 20
195.4480628135
 10
82.9955373432
 20
195.4519728976
 10
83.0246575938
 20
195.4555250805
 10
83.0551098958
 20
195.4587016766
 10
83.0867426317
 20
195.46148687
 10
83.1193983067
 20
195.4638667935
 10
83.1529143331
 20
195.465829598
 10
83.1871238394
 20
195.4673655108
 10
83.2218565015
 20
195.468466885
 10
83.2569393907
 20
195.4691282368
 10
83.2921978342
 20
195.4693462737
  0
LWPOLYLINE
  5
248
100
AcDbEntity
  8
RACCORDO
100
AcDbPolyline
 62
250
  6
CONTINUOUS
 90
22
 70
0
 10
82.7941637084
 20
107.2073397354
 10
82.7985270588
 20
107.2010905085
 10
82.8053483323
 20
107.1949120575
 10
82.8145935664
 20
107.1888351442
 10
82.8262167304
 20
107.1828900248
 10
82.8401599541
 20
107.1771062991
 10
82.856353816
 20
107.1715127637
 10
82.8747176888
 20
107.1661372681
 10
82.8951601413
 20
107.1610065761
 10
82.9175793931
 20
107.1561462327
 10
82.9418638217
 20
107.1515804371
 10
82.967892518
 20
107.1473319217
 10
82.9955358886
 20
107.1434218393
 10
83.0246563006
 20
107.1398696577
 10
83.0551087674
 20
107.1366930627
 10
83.0867416699
 20
107.1339078703
 10
83.1193975121
 20
107.1315279476
 10
83.1529137047
 20
107.1295651438
 10
83.1871233751
 20
107.1280292315
 10
83.2218561975
 20
107.1269278578
 10
83.2569392419
 20
107.1262665063
 10
83.2921978342
 20
107.1260484699
  0
LWPOLYLINE
  5
249
100
AcDbEntity
  8
RACCORDO
100
AcDbPolyline
 62
7
  6
CONTINUOUS
 90
25
 70
0
 10
104.8835109222
 20
128.8971398338
 10
104.8843920407
 20
128.8709336417
 10
104.8869371222
 20
128.8450575531
 10
104.8911461666
 20
128.8195115652
 10
104.8970481975
 20
128.7941949955
 10
104.9046141914
 20
128.7692085216
 10
104.9137570774
 20
128.7448541783
 10
104.9244800139
 20
128.7211507983
 10
104.9367798426
 20
128.6980795387
 10
104.950560017
 20
128.6758859175
 10
104.9658680446
 20
128.654538791
 10
104.982656418
 20
128.6340692902
 10
105.0006860685
 20
128.6148163412
 10
105.0199976831
 20
128.5968043428
 10
105.040550575
 20
128.5800088808
 10
105.0619836148
 20
128.5646956584
 10
105.08425998
 20
128.5509214796
 10
105.1074164933
 20
128.5386295257
 10
105.1312024937
 20
128.5279150656
 10
105.1556313183
 20
128.5187820217
 10
105.18068963
 20
128.511226461
 10
105.2060867562
 20
128.5053318691
 10
105.2317258063
 20
128.5011260729
 10
105.2577036709
 20
128.4985812398
 10
105.2840203502
 20
128.4976973684
  0
LWPOLYLINE
  5
24A
100
AcDbEntity
  8
RACCORDO
100
AcDbPolyline
 62
250
  6
CONTINUOUS
 90
7
 70
0
 10
104.3303495988
 20
173.7756234859
 10
104.33060674
 20
173.7969417752
 10
104.3313613669
 20
173.8181920443
 10
104.3326134794
 20
173.8393742936
 10
104.3343630775
 20
173.8604885235
 10
104.3366101613
 20
173.8815347345
 10
104.3393547307
 20
173.902512927
  0
LWPOLYLINE
  5
24B
100
AcDbEntity
  8
RACCORDO
100
AcDbPolyline
 62
250
  6
CONTINUOUS
 90
28
 70
0
 10
104.3393547307
 20
173.902512927
 10
104.3473151939
 20
173.949522733
 10
104.3577085572
 20
173.9958758777
 10
104.3705348204
 20
174.0415723851
 10
104.3858550324
 20
174.0867771479
 10
104.4036081443
 20
174.1313253166
 10
104.4236110099
 20
174.1747223221
 10
104.4458650089
 20
174.2169043252
 10
104.4703687615
 20
174.2579352526
 10
104.4969349819
 20
174.2975122141
 10
104.5255891388
 20
174.3356401152
 10
104.5563057636
 20
174.3723141523
 10
104.5888211642
 20
174.4072168928
 10
104.6231498913
 20
174.4403305209
 10
104.6592773943
 20
174.4716729646
 10
104.6968963294
 20
174.5009804224
 10
104.7360214743
 20
174.5282355653
 10
104.7766380513
 20
174.5534558318
 10
104.8183943831
 20
174.5764295786
 10
104.861291449
 20
174.5971344192
 10
104.9053282696
 20
174.615592835
 10
104.95015023
 20
174.6316604856
 10
104.9957605975
 20
174.6453203904
 10
105.0421561049
 20
174.6565895992
 10
105.0889723351
 20
174.6653748134
 10
105.1360878158
 20
174.671644946
 10
105.1836240193
 20
174.6754311207
 10
105.2315809456
 20
174.6767333467
  0
LWPOLYLINE
  5
24C
100
AcDbEntity
  8
RACCORDO
100
AcDbPolyline
 62
250
  6
CONTINUOUS
 90
25
 70
0
 10
104.833670376
 20
173.8082869548
 10
104.8377413264
 20
173.8316888482
 10
104.8432102175
 20
173.8548184715
 10
104.8500605382
 20
173.8775931471
 10
104.8582747405
 20
173.8999399402
 10
104.8678236668
 20
173.9217691258
 10
104.8786612831
 20
173.9429767841
 10
104.890739534
 20
173.9634759555
 10
104.9040198816
 20
173.9832080857
 10
104.9184614744
 20
174.0021164883
 10
104.9340173789
 20
174.0201377317
 10
104.9506296249
 20
174.0372030854
 10
104.9682367724
 20
174.0532514513
 10
104.9867768672
 20
174.0682257897
 10
105.0061842315
 20
174.0820726957
 10
105.026386364
 20
174.0947429016
 10
105.0473103091
 20
174.1061909202
 10
105.0688833891
 20
174.1163773402
 10
105.0910296596
 20
174.1252686085
 10
105.1136672929
 20
174.1328319803
 10
105.1367201929
 20
174.1390421498
 10
105.160119266
 20
174.1438810567
 10
105.1837866631
 20
174.1473301031
 10
105.2076353405
 20
174.1493728789
 10
105.231581369
 20
174.1499995458
  0
LWPOLYLINE
  5
24D
100
AcDbEntity
  8
RACCORDO
100
AcDbPolyline
 62
250
  6
CONTINUOUS
 90
7
 70
0
 10
104.833670376
 20
128.787107782
 10
104.8324469115
 20
128.7964373806
 10
104.8314447241
 20
128.8057971957
 10
104.8306646003
 20
128.8151820507
 10
104.8301072051
 20
128.824586747
 10
104.8297730811
 20
128.8340060663
 10
104.8296626479
 20
128.843434774
  0
LWPOLYLINE
  5
24E
100
AcDbEntity
  8
RACCORDO
100
AcDbPolyline
 62
250
  6
CONTINUOUS
 90
7
 70
0
 10
104.3393547307
 20
128.6928818099
 10
104.3366088957
 20
128.7138875232
 10
104.3343610526
 20
128.7349502468
 10
104.3326112014
 20
128.756069981
 10
104.331359342
 20
128.7772467262
 10
104.3306054745
 20
128.7984804827
 10
104.3303495988
 20
128.819771251
  0
LINE
  5
24F
100
AcDbEntity
  8
RACCORDO
100
AcDbLine
 62
250
  6
CONTINUOUS
 10
104.3303495988
 20
128.819771251
 11
104.3303495988
 21
173.7756234859
  0
LINE
  5
250
100
AcDbEntity
  8
RACCORDO
100
AcDbLine
 62
250
  6
CONTINUOUS
 10
104.8296626478
 20
128.8434347739
 11
104.829662648
 21
173.7519596452
  0
LINE
  5
251
100
AcDbEntity
  8
RACCORDO
100
AcDbLine
 62
7
  6
CONTINUOUS
 10
104.8835109222
 20
173.698254903
 11
104.8835109222
 21
128.8971398338
  0
LINE
  5
252
100
AcDbEntity
  8
RACCORDO
100
AcDbLine
 62
250
  6
CONTINUOUS
 10
105.2315809456
 20
174.6767333467
 11
105.2315809456
 21
174.1499995473
  0
LINE
  5
253
100
AcDbEntity
  8
RACCORDO
100
AcDbLine
 62
250
  6
CONTINUOUS
 10
105.2315809456
 20
127.9186613902
 11
105.2315809456
 21
128.4453951896
  0
LWPOLYLINE
  5
254
100
AcDbEntity
  8
RACCORDO
100
AcDbPolyline
 62
250
  6
CONTINUOUS
 90
7
 70
0
 10
104.8296626479
 20
173.7519596453
 10
104.829773011
 20
173.7613857384
 10
104.8301069924
 20
173.7708035136
 10
104.8306642479
 20
173.7802077362
 10
104.8314443105
 20
173.7895931847
 10
104.8324465905
 20
173.7989546532
 10
104.833670376
 20
173.8082869548
  0
LWPOLYLINE
  5
255
100
AcDbEntity
  8
RACCORDO
100
AcDbPolyline
 62
7
  6
CONTINUOUS
 90
25
 70
0
 10
150.4835109381
 20
173.698254903
 10
150.4826286829
 20
173.7244593605
 10
150.48008463
 20
173.7503302702
 10
150.4758787795
 20
173.7758676348
 10
150.4699838799
 20
173.8011680695
 10
150.4624271826
 20
173.8261349641
 10
150.4532904416
 20
173.850478486
 10
150.4425701551
 20
173.8741849276
 10
150.430269825
 20
173.8972680065
 10
150.4164817104
 20
173.9194790325
 10
150.4011487146
 20
173.9408556493
 10
150.3843279345
 20
173.9613602258
 10
150.3662829204
 20
173.9806311638
 10
150.3469885951
 20
173.9986284159
 10
150.3264700359
 20
174.0153920452
 10
150.3050660248
 20
174.0306806225
 10
150.2828071102
 20
174.044446767
 10
150.2596627438
 20
174.0567378742
 10
150.2358800617
 20
174.0674546795
 10
150.2114404099
 20
174.0765937107
 10
150.1863624425
 20
174.0841584507
 10
150.1609492589
 20
174.0900600671
 10
150.1353018922
 20
174.0942689514
 10
150.1093193093
 20
174.0968147181
 10
150.0830015102
 20
174.0976973684
  0
LINE
  5
256
100
AcDbEntity
  8
RACCORDO
100
AcDbLine
 62
250
  6
CONTINUOUS
 10
150.1354409148
 20
174.6767333467
 11
150.1354409148
 21
174.1499995473
  0
LINE
  5
257
100
AcDbEntity
  8
RACCORDO
100
AcDbLine
 62
250
  6
CONTINUOUS
 10
150.1354409148
 20
127.9186613902
 11
150.1354409148
 21
128.4453951896
  0
LINE
  5
258
100
AcDbEntity
  8
RACCORDO
100
AcDbLine
 62
7
  6
CONTINUOUS
 10
150.4835109381
 20
128.8971398338
 11
150.4835109381
 21
173.698254903
  0
LINE
  5
259
100
AcDbEntity
  8
RACCORDO
100
AcDbLine
 62
250
  6
CONTINUOUS
 10
150.5373592124
 20
173.7519596488
 11
150.5373592123
 21
128.8434351109
  0
LINE
  5
25A
100
AcDbEntity
  8
RACCORDO
100
AcDbLine
 62
250
  6
CONTINUOUS
 10
151.0366722615
 20
173.7756234859
 11
151.0366722615
 21
128.819771251
  0
LWPOLYLINE
  5
25B
100
AcDbEntity
  8
RACCORDO
100
AcDbPolyline
 62
250
  6
CONTINUOUS
 90
7
 70
0
 10
150.5373592124
 20
128.8434351109
 10
150.5372488307
 20
128.8340082223
 10
150.5369148084
 20
128.8245899696
 10
150.5363575118
 20
128.8151855874
 10
150.5355774305
 20
128.8058002962
 10
150.5345751767
 20
128.7964392997
 10
150.5333514843
 20
128.787107782
  0
LWPOLYLINE
  5
25C
100
AcDbEntity
  8
RACCORDO
100
AcDbPolyline
 62
250
  6
CONTINUOUS
 90
7
 70
0
 10
151.0366722615
 20
128.819771251
 10
151.03641527
 20
128.7984557687
 10
151.035660733
 20
128.7772071839
 10
151.0344086504
 20
128.756025496
 10
151.0326590224
 20
128.7349107047
 10
151.0304118488
 20
128.7138628094
 10
151.0276671296
 20
128.6928818099
  0
LWPOLYLINE
  5
25D
100
AcDbEntity
  8
RACCORDO
100
AcDbPolyline
 62
250
  6
CONTINUOUS
 90
25
 70
0
 10
151.0276671296
 20
128.6928818099
 10
151.0184901464
 20
128.639869076
 10
151.0062646677
 20
128.5877911148
 10
150.9909906937
 20
128.5366478871
 10
150.9725824151
 20
128.4862326001
 10
150.9511256411
 20
128.4367519755
 10
150.9268777992
 20
128.388826218
 10
150.899823035
 20
128.342513844
 10
150.8699772028
 20
128.2977562065
 10
150.8376452933
 20
128.2549977202
 10
150.8027962401
 20
128.2142490329
 10
150.7654611097
 20
128.1754993441
 10
150.7260380924
 20
128.139160866
 10
150.6845035958
 20
128.1052594759
 10
150.6408812123
 20
128.0737691371
 10
150.5956399097
 20
128.0450241729
 10
150.5487660258
 20
128.0190559439
 10
150.5002732227
 20
127.9958329452
 10
150.4506714537
 20
127.9755951968
 10
150.3999585383
 20
127.958373594
 10
150.348136657
 20
127.9441371326
 10
150.2957223046
 20
127.9330329891
 10
150.2428876458
 20
127.9251102018
 10
150.1894605159
 20
127.9203196738
 10
150.1354409148
 20
127.9186613902
  0
LWPOLYLINE
  5
25E
100
AcDbEntity
  8
RACCORDO
100
AcDbPolyline
 62
250
  6
CONTINUOUS
 90
25
 70
0
 10
150.5333514843
 20
128.787107782
 10
150.5292797283
 20
128.7637019772
 10
150.5238099018
 20
128.7405697944
 10
150.5169587472
 20
128.7177938869
 10
150.5087442604
 20
128.6954476941
 10
150.4991956608
 20
128.6736202798
 10
150.4883583267
 20
128.6524138784
 10
150.4762797518
 20
128.6319147184
 10
150.4629987796
 20
128.6121822106
 10
150.4485567529
 20
128.5932737911
 10
150.4330010005
 20
128.575253222
 10
150.4163892499
 20
128.558188776
 10
150.3987825215
 20
128.5421410967
 10
150.3802424753
 20
128.527167048
 10
150.3608349984
 20
128.5133202923
 10
150.3406328926
 20
128.500650319
 10
150.3197093155
 20
128.4892026878
 10
150.2981367775
 20
128.4790166656
 10
150.2759909854
 20
128.470125689
 10
150.2533536509
 20
128.4625624869
 10
150.2303009594
 20
128.4563524249
 10
150.2069020609
 20
128.4515135917
 10
150.1832348222
 20
128.4480645943
 10
150.1593862632
 20
128.4460218457
 10
150.1354403113
 20
128.4453951916
  0
LINE
  5
25F
100
AcDbEntity
  8
RACCORDO
100
AcDbLine
 62
250
  6
CONTINUOUS
 10
83.5863262304
 20
106.4183612683
 11
83.4677494747
 21
106.2978526482
  0
LINE
  5
260
100
AcDbEntity
  8
RACCORDO
100
AcDbLine
 62
250
  6
CONTINUOUS
 10
82.7941634468
 20
107.2074690777
 11
82.6835136514
 21
107.0948371471
  0
LINE
  5
261
100
AcDbEntity
  8
RACCORDO
100
AcDbLine
 62
250
  6
CONTINUOUS
 10
150.0830015102
 20
174.0976973684
 11
150.1354404921
 21
174.1499995473
  0
LINE
  5
262
100
AcDbEntity
  8
RACCORDO
100
AcDbLine
 62
250
  6
CONTINUOUS
 10
104.8296626478
 20
128.8434347739
 11
104.8835109222
 21
128.8971398338
  0
LWPOLYLINE
  5
263
100
AcDbEntity
  8
RACCORDO
100
AcDbPolyline
 62
250
  6
CONTINUOUS
 90
15
 70
0
 10
82.7924533194
 20
173.879604705
 10
82.7967751644
 20
173.8813650594
 10
82.8035598335
 20
173.8831056192
 10
82.8127734864
 20
173.884817703
 10
82.8243701673
 20
173.8864927711
 10
82.8382920342
 20
173.8881224688
 10
82.854469648
 20
173.8896986675
 10
82.872822318
 20
173.8912135053
 10
82.8932585049
 20
173.8926594267
 10
82.9156762775
 20
173.8940292196
 10
82.9399638205
 20
173.8953160518
 10
82.9659999928
 20
173.8965135049
 10
82.9936549314
 20
173.8976156062
 10
83.0227906993
 20
173.8986168586
 10
83.0532619735
 20
173.8995122682
  0
LWPOLYLINE
  5
264
100
AcDbEntity
  8
RACCORDO
100
AcDbPolyline
 62
250
  6
CONTINUOUS
 90
15
 70
0
 10
82.7924518327
 20
173.8171169571
 10
82.7967736245
 20
173.8188725328
 10
82.8035582468
 20
173.8206084198
 10
82.8127718592
 20
173.8223159599
 10
82.8243685061
 20
173.8239866362
 10
82.8382903457
 20
173.8256121157
 10
82.8544679386
 20
173.8271842908
 10
82.8728205942
 20
173.8286953198
 10
82.8932567732
 20
173.8301376661
 10
82.9156745438
 20
173.8315041354
 10
82.9399620907
 20
173.8327879121
 10
82.9659982725
 20
173.833982593
 10
82.9936532259
 20
173.8350822193
 10
83.0227890134
 20
173.8360813062
 10
83.0532603116
 20
173.8369748704
  0
LWPOLYLINE
  5
265
100
AcDbEntity
  8
RACCORDO
100
AcDbPolyline
 62
250
  6
CONTINUOUS
 90
17
 70
0
 10
82.7924518332
 20
128.7782777797
 10
82.7967736253
 20
128.7765222041
 10
82.803558248
 20
128.774786317
 10
82.8127718607
 20
128.773078777
 10
82.8243685078
 20
128.7714081007
 10
82.8382903475
 20
128.7697826212
 10
82.8544679406
 20
128.7682104462
 10
82.8728205963
 20
128.7666994171
 10
82.8932567753
 20
128.7652570709
 10
82.9156745459
 20
128.7638906016
 10
82.9399620928
 20
128.7626068249
 10
82.9659982746
 20
128.761412144
 10
82.9936532279
 20
128.7603125178
 10
83.0227890153
 20
128.7593134309
 10
83.0532603133
 20
128.7584198666
 10
83.0849151371
 20
128.7576362819
 10
83.1511386947
 20
128.7564141165
  0
LWPOLYLINE
  5
266
100
AcDbEntity
  8
RACCORDO
100
AcDbPolyline
 62
250
  6
CONTINUOUS
 90
16
 70
0
 10
82.7924533176
 20
128.7157900318
 10
82.796775161
 20
128.7140296774
 10
82.8035598288
 20
128.7122891175
 10
82.8127734804
 20
128.7105770337
 10
82.8243701602
 20
128.7089019654
 10
82.8382920264
 20
128.7072722676
 10
82.8544696395
 20
128.7056960689
 10
82.872822309
 20
128.7041812309
 10
82.8932584957
 20
128.7027353095
 10
82.9156762682
 20
128.7013655165
 10
82.9399638113
 20
128.7000786842
 10
82.9659999839
 20
128.6988812311
 10
82.9936549229
 20
128.6977791297
 10
83.0227906914
 20
128.6967778772
 10
83.0532619662
 20
128.6958824676
 10
83.1175971944
 20
128.6944264912
  0
LINE
  5
267
100
AcDbEntity
  8
RACCORDO
100
AcDbLine
 62
250
  6
CONTINUOUS
 10
150.1354403133
 20
128.4453951896
 11
150.0830015102
 21
128.4976973684
  0
LINE
  5
268
100
AcDbEntity
  8
RACCORDO
100
AcDbLine
 62
250
  6
CONTINUOUS
 10
104.829662648
 20
173.7519596452
 11
104.8835109222
 21
173.698254903
  0
LINE
  5
269
100
AcDbEntity
  8
RACCORDO
100
AcDbLine
 62
250
  6
CONTINUOUS
 10
83.5863262304
 20
196.1770334686
 11
83.4677494747
 21
196.2975420887
  0
LINE
  5
26A
100
AcDbEntity
  8
RACCORDO
100
AcDbLine
 62
250
  6
CONTINUOUS
 10
82.7941637053
 20
195.3880549914
 11
82.6835136514
 21
195.5005575897
  0
LWPOLYLINE
  5
26B
100
AcDbEntity
  8
RACCORDO
100
AcDbPolyline
 62
250
  6
CONTINUOUS
 90
7
 70
0
 10
150.5333514843
 20
173.8082869548
 10
150.5345751979
 20
173.7989552586
 10
150.5355774576
 20
173.7895941559
 10
150.5363575345
 20
173.7802088314
 10
150.5369148216
 20
173.7708044892
 10
150.5372488347
 20
173.7613863502
 10
150.5373592124
 20
173.7519596489
  0
LWPOLYLINE
  5
26C
100
AcDbEntity
  8
RACCORDO
100
AcDbPolyline
 62
250
  6
CONTINUOUS
 90
7
 70
0
 10
151.0276671296
 20
173.902512927
 10
151.0304116016
 20
173.881536118
 10
151.0326586269
 20
173.8604907371
 10
151.0344082055
 20
173.8393767839
 10
151.0356603375
 20
173.8181942579
 10
151.0364150229
 20
173.7969431587
 10
151.0366722615
 20
173.7756234859
  0
LINE
  5
26D
100
AcDbEntity
  8
RACCORDO
100
AcDbLine
 62
250
  6
CONTINUOUS
 10
150.4835109381
 20
173.698254903
 11
150.5373592124
 21
173.7519596488
  0
LINE
  5
26E
100
AcDbEntity
  8
RACCORDO
100
AcDbLine
 62
250
  6
CONTINUOUS
 10
105.2315812653
 20
128.4453951896
 11
105.2840203502
 21
128.4976973684
  0
LINE
  5
26F
100
AcDbEntity
  8
RACCORDO
100
AcDbLine
 62
250
  6
CONTINUOUS
 10
150.5373592123
 20
128.8434351109
 11
150.4835109381
 21
128.8971398338
  0
LINE
  5
270
100
AcDbEntity
  8
RACCORDO
100
AcDbLine
 62
250
  6
CONTINUOUS
 10
105.2315813676
 20
174.1499995473
 11
105.2840203502
 21
174.0976973684
  0
LWPOLYLINE
  5
271
100
AcDbEntity
  8
RACCORDO
100
AcDbPolyline
 62
7
  6
CONTINUOUS
 90
25
 70
0
 10
175.8835109222
 20
128.8971398338
 10
175.8843920407
 20
128.8709336417
 10
175.8869371222
 20
128.8450575531
 10
175.8911461666
 20
128.8195115652
 10
175.8970481975
 20
128.7941949955
 10
175.9046141914
 20
128.7692085216
 10
175.9137570774
 20
128.7448541783
 10
175.9244800139
 20
128.7211507983
 10
175.9367798426
 20
128.6980795387
 10
175.950560017
 20
128.6758859175
 10
175.9658680446
 20
128.654538791
 10
175.982656418
 20
128.6340692902
 10
176.0006860685
 20
128.6148163412
 10
176.0199976831
 20
128.5968043428
 10
176.040550575
 20
128.5800088808
 10
176.0619836148
 20
128.5646956584
 10
176.08425998
 20
128.5509214796
 10
176.1074164933
 20
128.5386295257
 10
176.1312024937
 20
128.5279150656
 10
176.1556313183
 20
128.5187820217
 10
176.18068963
 20
128.511226461
 10
176.2060867562
 20
128.5053318691
 10
176.2317258063
 20
128.5011260729
 10
176.2577036709
 20
128.4985812398
 10
176.2840203502
 20
128.4976973684
  0
LINE
  5
272
100
AcDbEntity
  8
RACCORDO
100
AcDbLine
 62
250
  6
CONTINUOUS
 10
175.3303495988
 20
128.819771251
 11
175.3303495988
 21
173.7756234859
  0
LINE
  5
273
100
AcDbEntity
  8
RACCORDO
100
AcDbLine
 62
250
  6
CONTINUOUS
 10
175.8296626478
 20
128.8434347739
 11
175.829662648
 21
173.7519596452
  0
LINE
  5
274
100
AcDbEntity
  8
RACCORDO
100
AcDbLine
 62
7
  6
CONTINUOUS
 10
175.8835109222
 20
173.698254903
 11
175.8835109222
 21
128.8971398338
  0
LINE
  5
275
100
AcDbEntity
  8
RACCORDO
100
AcDbLine
 62
250
  6
CONTINUOUS
 10
176.2315809456
 20
174.6767333467
 11
176.2315809456
 21
174.1499995473
  0
LINE
  5
276
100
AcDbEntity
  8
RACCORDO
100
AcDbLine
 62
250
  6
CONTINUOUS
 10
176.2315809456
 20
127.9186613902
 11
176.2315809456
 21
128.4453951896
  0
LWPOLYLINE
  5
277
100
AcDbEntity
  8
RACCORDO
100
AcDbPolyline
 62
250
  6
CONTINUOUS
 90
7
 70
0
 10
175.8296626479
 20
173.7519596453
 10
175.829773011
 20
173.7613857384
 10
175.8301069924
 20
173.7708035136
 10
175.8306642479
 20
173.7802077362
 10
175.8314443105
 20
173.7895931847
 10
175.8324465905
 20
173.7989546532
 10
175.833670376
 20
173.8082869548
  0
LWPOLYLINE
  5
278
100
AcDbEntity
  8
RACCORDO
100
AcDbPolyline
 62
250
  6
CONTINUOUS
 90
7
 70
0
 10
175.3303495988
 20
173.7756234859
 10
175.33060674
 20
173.7969417752
 10
175.3313613669
 20
173.8181920443
 10
175.3326134794
 20
173.8393742936
 10
175.3343630775
 20
173.8604885235
 10
175.3366101613
 20
173.8815347345
 10
175.3393547307
 20
173.902512927
  0
LWPOLYLINE
  5
279
100
AcDbEntity
  8
RACCORDO
100
AcDbPolyline
 62
250
  6
CONTINUOUS
 90
28
 70
0
 10
175.3393547307
 20
173.902512927
 10
175.3473151939
 20
173.949522733
 10
175.3577085572
 20
173.9958758777
 10
175.3705348204
 20
174.0415723851
 10
175.3858550324
 20
174.0867771479
 10
175.4036081443
 20
174.1313253166
 10
175.4236110099
 20
174.1747223221
 10
175.4458650089
 20
174.2169043252
 10
175.4703687615
 20
174.2579352526
 10
175.4969349819
 20
174.2975122141
 10
175.5255891388
 20
174.3356401152
 10
175.5563057636
 20
174.3723141523
 10
175.5888211642
 20
174.4072168928
 10
175.6231498913
 20
174.4403305209
 10
175.6592773943
 20
174.4716729646
 10
175.6968963294
 20
174.5009804224
 10
175.7360214743
 20
174.5282355653
 10
175.7766380513
 20
174.5534558318
 10
175.8183943831
 20
174.5764295786
 10
175.861291449
 20
174.5971344192
 10
175.9053282696
 20
174.615592835
 10
175.95015023
 20
174.6316604856
 10
175.9957605975
 20
174.6453203904
 10
176.0421561049
 20
174.6565895992
 10
176.0889723351
 20
174.6653748134
 10
176.1360878158
 20
174.671644946
 10
176.1836240193
 20
174.6754311207
 10
176.2315809456
 20
174.6767333467
  0
LWPOLYLINE
  5
27A
100
AcDbEntity
  8
RACCORDO
100
AcDbPolyline
 62
250
  6
CONTINUOUS
 90
25
 70
0
 10
175.833670376
 20
173.8082869548
 10
175.8377413264
 20
173.8316888482
 10
175.8432102175
 20
173.8548184715
 10
175.8500605382
 20
173.8775931471
 10
175.8582747405
 20
173.8999399402
 10
175.8678236668
 20
173.9217691258
 10
175.8786612831
 20
173.9429767841
 10
175.890739534
 20
173.9634759555
 10
175.9040198816
 20
173.9832080857
 10
175.9184614744
 20
174.0021164883
 10
175.9340173789
 20
174.0201377317
 10
175.9506296249
 20
174.0372030854
 10
175.9682367724
 20
174.0532514513
 10
175.9867768672
 20
174.0682257897
 10
176.0061842315
 20
174.0820726957
 10
176.026386364
 20
174.0947429016
 10
176.0473103091
 20
174.1061909202
 10
176.0688833891
 20
174.1163773402
 10
176.0910296596
 20
174.1252686085
 10
176.1136672929
 20
174.1328319803
 10
176.1367201929
 20
174.1390421498
 10
176.160119266
 20
174.1438810567
 10
176.1837866631
 20
174.1473301031
 10
176.2076353405
 20
174.1493728789
 10
176.231581369
 20
174.1499995458
  0
LWPOLYLINE
  5
27B
100
AcDbEntity
  8
0
100
AcDbPolyline
 62
7
  6
CONTINUOUS
 90
5
 70
0
 43
0.3499999917
 10
231.7192346191
 20
218.5676330566
 10
232.0763781738
 20
218.7819396973
 10
232.0763781738
 20
219.4247827148
 10
231.7192346191
 20
219.8533703613
 10
230.8620849609
 20
219.8533703613
  0
LWPOLYLINE
  5
27C
100
AcDbEntity
  8
0
100
AcDbPolyline
 62
7
  6
CONTINUOUS
 90
5
 70
0
 43
0.3499999917
 10
236.2192126465
 20
218.5676330566
 10
236.5763562012
 20
218.7819396973
 10
236.5763562012
 20
219.4247827148
 10
236.2192126465
 20
219.8533703613
 10
235.362088623
 20
219.8533703613
  0
LWPOLYLINE
  5
27D
100
AcDbEntity
  8
RACCORDO
100
AcDbPolyline
 62
250
  6
CONTINUOUS
 90
7
 70
0
 10
175.833670376
 20
128.787107782
 10
175.8324469115
 20
128.7964373806
 10
175.8314447241
 20
128.8057971957
 10
175.8306646003
 20
128.8151820507
 10
175.8301072051
 20
128.824586747
 10
175.8297730811
 20
128.8340060663
 10
175.8296626479
 20
128.843434774
  0
LWPOLYLINE
  5
27E
100
AcDbEntity
  8
RACCORDO
100
AcDbPolyline
 62
250
  6
CONTINUOUS
 90
7
 70
0
 10
175.3393547307
 20
128.6928818099
 10
175.3366088957
 20
128.7138875232
 10
175.3343610526
 20
128.7349502468
 10
175.3326112014
 20
128.756069981
 10
175.331359342
 20
128.7772467262
 10
175.3306054745
 20
128.7984804827
 10
175.3303495988
 20
128.819771251
  0
LINE
  5
27F
100
AcDbEntity
  8
RACCORDO
100
AcDbLine
 62
7
  6
CONTINUOUS
 10
384.8835109302
 20
106.2976973684
 11
83.4835109302
 21
106.2976973684
  0
LINE
  5
280
100
AcDbEntity
  8
RACCORDO
100
AcDbLine
 62
250
  6
CONTINUOUS
 10
384.7806956299
 20
106.4183612683
 11
83.5863262304
 21
106.4183612683
  0
LINE
  5
281
100
AcDbEntity
  8
RACCORDO
100
AcDbLine
 62
250
  6
CONTINUOUS
 10
384.7806956299
 20
106.826309876
 11
83.5863262304
 21
106.826309876
  0
LWPOLYLINE
  5
282
100
AcDbEntity
  8
RACCORDO
100
AcDbPolyline
 62
250
  6
CONTINUOUS
 90
28
 70
0
 10
83.5863262304
 20
106.826309876
 10
83.5690630687
 20
106.8268216211
 10
83.5519831296
 20
106.8283202569
 10
83.5350864131
 20
106.8308057883
 10
83.5183185233
 20
106.8342917698
 10
83.5017338562
 20
106.8387646667
 10
83.4854955995
 20
106.8441838538
 10
83.4696057814
 20
106.8505596558
 10
83.4540623738
 20
106.8578817854
 10
83.4390224799
 20
106.8660787017
 10
83.424493052
 20
106.8751582827
 10
83.4104671377
 20
106.8851127007
 10
83.3970809827
 20
106.8958468553
 10
83.3843402347
 20
106.907368421
 10
83.3722392459
 20
106.9196697808
 10
83.3608973183
 20
106.9326328929
 10
83.3503215307
 20
106.9462642427
 10
83.3405048044
 20
106.9605574029
 10
83.3315452048
 20
106.9753749539
 10
83.3234503428
 20
106.9907249859
 10
83.3162126075
 20
107.006599461
 10
83.3099072315
 20
107.0228367526
 10
83.3045447424
 20
107.0394388761
 10
83.3001146126
 20
107.0564038552
 10
83.2966604919
 20
107.0735640585
 10
83.2941969302
 20
107.0908636121
 10
83.2927093777
 20
107.1083584095
 10
83.2921978342
 20
107.1260484619
  0
LWPOLYLINE
  5
283
100
AcDbEntity
  8
RACCORDO
100
AcDbPolyline
 62
250
  6
CONTINUOUS
 90
28
 70
0
 10
83.5863262304
 20
106.4183612683
 10
83.5406380027
 20
106.419889364
 10
83.4951315464
 20
106.4240428827
 10
83.449955269
 20
106.4308064493
 10
83.4052651287
 20
106.4401540989
 10
83.3611978126
 20
106.452054833
 10
83.3178715684
 20
106.4664776875
 10
83.2754166323
 20
106.4833841342
 10
83.2339860443
 20
106.5027176746
 10
83.193728644
 20
106.5244105036
 10
83.1547828117
 20
106.5483890026
 10
83.1172705346
 20
106.5745783649
 10
83.0813094753
 20
106.6028965537
 10
83.0470185599
 20
106.6332535546
 10
83.0145125699
 20
106.6655509206
 10
82.9838960545
 20
106.6996851905
 10
82.9552723291
 20
106.7355465711
 10
82.9287376107
 20
106.7730195266
 10
82.9043772891
 20
106.8119841471
 10
82.8822715651
 20
106.8523220117
 10
82.8625010299
 20
106.8938959981
 10
82.8451384217
 20
106.9365500964
 10
82.8302481077
 20
106.9801249205
 10
82.8178714071
 20
107.0244970363
 10
82.8080384773
 20
107.0695603948
 10
82.800786856
 20
107.1151822433
 10
82.7961534004
 20
107.1612013701
 10
82.7941618154
 20
107.2074674052
  0
LWPOLYLINE
  5
284
100
AcDbEntity
  8
RACCORDO
100
AcDbPolyline
 62
250
  6
CONTINUOUS
 90
15
 70
0
 10
317.5793545396
 20
128.7302219383
 10
317.6100060406
 20
128.7355258002
 10
317.6392428353
 20
128.7407380465
 10
317.6669120993
 20
128.7458314323
 10
317.6928692021
 20
128.7507793337
 10
317.7169784625
 20
128.7555558876
 10
317.7391138585
 20
128.7601361261
 10
317.7591596857
 20
128.764496108
 10
317.7770111619
 20
128.7686130429
 10
317.7925749752
 20
128.7724654113
 10
317.8057697718
 20
128.7760330762
 10
317.8165265808
 20
128.779297389
 10
317.8247891749
 20
128.7822412868
 10
317.8305143646
 20
128.7848493816
 10
317.8336722235
 20
128.7871080403
  0
LINE
  5
285
100
AcDbEntity
  8
RACCORDO
100
AcDbLine
 62
250
  6
CONTINUOUS
 10
317.5144548531
 20
128.7194505978
 11
317.5793545396
 21
128.7302219383
  0
LINE
  5
286
100
AcDbEntity
  8
RACCORDO
100
AcDbLine
 62
250
  6
CONTINUOUS
 10
317.4458989574
 20
128.7086489431
 11
317.5144548531
 21
128.7194505978
  0
LWPOLYLINE
  5
287
100
AcDbEntity
  8
RACCORDO
100
AcDbPolyline
 62
250
  6
CONTINUOUS
 90
3
 70
0
 10
317.3393547308
 20
128.6928820281
 10
317.3751183802
 20
128.6980425255
 10
317.4458989574
 20
128.7086489431
  0
LINE
  5
288
100
AcDbEntity
  8
RACCORDO
100
AcDbLine
 62
250
  6
CONTINUOUS
 10
151.0276671296
 20
128.6928820885
 11
150.9563267267
 21
128.703307392
  0
LINE
  5
289
100
AcDbEntity
  8
RACCORDO
100
AcDbLine
 62
250
  6
CONTINUOUS
 10
150.9563267267
 20
128.703307392
 11
150.8864758856
 21
128.7140394752
  0
LWPOLYLINE
  5
28A
100
AcDbEntity
  8
RACCORDO
100
AcDbPolyline
 62
250
  6
CONTINUOUS
 90
17
 70
0
 10
150.8864758856
 20
128.7140394752
 10
150.8195731787
 20
128.7248542389
 10
150.7876671556
 20
128.7302219937
 10
150.7570156175
 20
128.7355258574
 10
150.7277787846
 20
128.7407381059
 10
150.7001094817
 20
128.7458314942
 10
150.6741523403
 20
128.7507793982
 10
150.650043042
 20
128.7555559547
 10
150.6279076095
 20
128.7601361959
 10
150.6078617478
 20
128.7644961803
 10
150.5900102395
 20
128.7686131176
 10
150.574446397
 20
128.772465488
 10
150.5612515746
 20
128.7760331546
 10
150.5504947436
 20
128.7792974688
 10
150.5422321314
 20
128.7822413675
 10
150.5365069279
 20
128.7848494625
 10
150.5333490595
 20
128.7871081211
  0
LINE
  5
28B
100
AcDbEntity
  8
RACCORDO
100
AcDbLine
 62
250
  6
CONTINUOUS
 10
221.0830015102
 20
174.0976973684
 11
221.1354404921
 21
174.1499995473
  0
LINE
  5
28C
100
AcDbEntity
  8
RACCORDO
100
AcDbLine
 62
250
  6
CONTINUOUS
 10
175.8296626478
 20
128.8434347739
 11
175.8835109222
 21
128.8971398338
  0
LINE
  5
28D
100
AcDbEntity
  8
RACCORDO
100
AcDbLine
 62
250
  6
CONTINUOUS
 10
221.4835109381
 20
173.698254903
 11
221.5373592124
 21
173.7519596488
  0
LINE
  5
28E
100
AcDbEntity
  8
RACCORDO
100
AcDbLine
 62
250
  6
CONTINUOUS
 10
176.2315812653
 20
128.4453951896
 11
176.2840203502
 21
128.4976973684
  0
LWPOLYLINE
  5
28F
100
AcDbEntity
  8
RACCORDO
100
AcDbPolyline
 62
250
  6
CONTINUOUS
 90
15
 70
0
 10
246.5793545396
 20
128.7302219383
 10
246.6100060406
 20
128.7355258002
 10
246.6392428353
 20
128.7407380465
 10
246.6669120993
 20
128.7458314323
 10
246.6928692021
 20
128.7507793337
 10
246.7169784625
 20
128.7555558876
 10
246.7391138585
 20
128.7601361261
 10
246.7591596857
 20
128.764496108
 10
246.7770111619
 20
128.7686130429
 10
246.7925749752
 20
128.7724654113
 10
246.8057697718
 20
128.7760330762
 10
246.8165265808
 20
128.779297389
 10
246.8247891749
 20
128.7822412868
 10
246.8305143646
 20
128.7848493816
 10
246.8336722235
 20
128.7871080403
  0
LINE
  5
290
100
AcDbEntity
  8
RACCORDO
100
AcDbLine
 62
250
  6
CONTINUOUS
 10
246.5144548531
 20
128.7194505978
 11
246.5793545396
 21
128.7302219383
  0
LINE
  5
291
100
AcDbEntity
  8
RACCORDO
100
AcDbLine
 62
250
  6
CONTINUOUS
 10
246.4458989574
 20
128.7086489431
 11
246.5144548531
 21
128.7194505978
  0
LWPOLYLINE
  5
292
100
AcDbEntity
  8
RACCORDO
100
AcDbPolyline
 62
250
  6
CONTINUOUS
 90
3
 70
0
 10
246.3393547308
 20
128.6928820281
 10
246.3751183802
 20
128.6980425255
 10
246.4458989574
 20
128.7086489431
  0
LWPOLYLINE
  5
293
100
AcDbEntity
  8
RACCORDO
100
AcDbPolyline
 62
7
  6
CONTINUOUS
 90
25
 70
0
 10
363.0830015102
 20
128.4976973684
 10
363.1093193132
 20
128.4985800203
 10
363.1353018963
 20
128.501125787
 10
363.1609492596
 20
128.5053346698
 10
363.1863624332
 20
128.5112362824
 10
363.2114403869
 20
128.5188010169
 10
363.2358800304
 20
128.5279400444
 10
363.259662713
 20
128.538656848
 10
363.2828070853
 20
128.5509479552
 10
363.305066009
 20
128.5647141038
 10
363.326470036
 20
128.5800026946
 10
363.3469886143
 20
128.5967663415
 10
363.3662829493
 20
128.6147636018
 10
363.3843279551
 20
128.6340345302
 10
363.4011487177
 20
128.6545390878
 10
363.4164816998
 20
128.6759156883
 10
363.4302698097
 20
128.6981267044
 10
363.4425701391
 20
128.721209776
 10
363.4532904267
 20
128.7449162146
 10
363.4624271706
 20
128.76925974
 10
363.4699838726
 20
128.7942266424
 10
363.475878776
 20
128.8195270847
 10
363.4800846286
 20
128.8450644552
 10
363.4826286826
 20
128.8709353707
 10
363.4835109381
 20
128.8971398338
  0
LWPOLYLINE
  5
294
100
AcDbEntity
  8
RACCORDO
100
AcDbPolyline
 62
7
  6
CONTINUOUS
 90
25
 70
0
 10
292.0830015102
 20
128.4976973684
 10
292.1093193132
 20
128.4985800203
 10
292.1353018963
 20
128.501125787
 10
292.1609492596
 20
128.5053346698
 10
292.1863624332
 20
128.5112362824
 10
292.2114403869
 20
128.5188010169
 10
292.2358800304
 20
128.5279400444
 10
292.259662713
 20
128.538656848
 10
292.2828070853
 20
128.5509479552
 10
292.305066009
 20
128.5647141038
 10
292.326470036
 20
128.5800026946
 10
292.3469886143
 20
128.5967663415
 10
292.3662829493
 20
128.6147636018
 10
292.3843279551
 20
128.6340345302
 10
292.4011487177
 20
128.6545390878
 10
292.4164816998
 20
128.6759156883
 10
292.4302698097
 20
128.6981267044
 10
292.4425701391
 20
128.721209776
 10
292.4532904267
 20
128.7449162146
 10
292.4624271706
 20
128.76925974
 10
292.4699838726
 20
128.7942266424
 10
292.475878776
 20
128.8195270847
 10
292.4800846286
 20
128.8450644552
 10
292.4826286826
 20
128.8709353707
 10
292.4835109381
 20
128.8971398338
  0
LWPOLYLINE
  5
295
100
AcDbEntity
  8
RACCORDO
100
AcDbPolyline
 62
7
  6
CONTINUOUS
 90
25
 70
0
 10
221.0830015102
 20
128.4976973684
 10
221.1093193132
 20
128.4985800203
 10
221.1353018963
 20
128.501125787
 10
221.1609492596
 20
128.5053346698
 10
221.1863624332
 20
128.5112362824
 10
221.2114403869
 20
128.5188010169
 10
221.2358800304
 20
128.5279400444
 10
221.259662713
 20
128.538656848
 10
221.2828070853
 20
128.5509479552
 10
221.305066009
 20
128.5647141038
 10
221.326470036
 20
128.5800026946
 10
221.3469886143
 20
128.5967663415
 10
221.3662829493
 20
128.6147636018
 10
221.3843279551
 20
128.6340345302
 10
221.4011487177
 20
128.6545390878
 10
221.4164816998
 20
128.6759156883
 10
221.4302698097
 20
128.6981267044
 10
221.4425701391
 20
128.721209776
 10
221.4532904267
 20
128.7449162146
 10
221.4624271706
 20
128.76925974
 10
221.4699838726
 20
128.7942266424
 10
221.475878776
 20
128.8195270847
 10
221.4800846286
 20
128.8450644552
 10
221.4826286826
 20
128.8709353707
 10
221.4835109381
 20
128.8971398338
  0
LWPOLYLINE
  5
296
100
AcDbEntity
  8
RACCORDO
100
AcDbPolyline
 62
250
  6
CONTINUOUS
 90
16
 70
0
 10
317.5405197045
 20
128.8220835616
 10
317.5727448406
 20
128.8229009731
 10
317.6037033401
 20
128.8238325396
 10
317.6332334296
 20
128.8248733932
 10
317.6611807995
 20
128.8260180948
 10
317.6873994107
 20
128.827260663
 10
317.711752258
 20
128.8285946046
 10
317.7341120855
 20
128.830012949
 10
317.7543620519
 20
128.8315082849
 10
317.772396341
 20
128.8330727982
 10
317.7881207146
 20
128.8346983136
 10
317.8014530051
 20
128.836376337
 10
317.8123235444
 20
128.8380980999
 10
317.8206755287
 20
128.8398546051
 10
317.8264653145
 20
128.8416366741
 10
317.8296626474
 20
128.8434349947
  0
LWPOLYLINE
  5
297
100
AcDbEntity
  8
RACCORDO
100
AcDbPolyline
 62
250
  6
CONTINUOUS
 90
16
 70
0
 10
246.5405197045
 20
128.8220835616
 10
246.5727448406
 20
128.8229009731
 10
246.6037033401
 20
128.8238325396
 10
246.6332334296
 20
128.8248733932
 10
246.6611807995
 20
128.8260180948
 10
246.6873994107
 20
128.827260663
 10
246.711752258
 20
128.8285946046
 10
246.7341120855
 20
128.830012949
 10
246.7543620519
 20
128.8315082849
 10
246.772396341
 20
128.8330727982
 10
246.7881207146
 20
128.8346983136
 10
246.8014530051
 20
128.836376337
 10
246.8123235444
 20
128.8380980999
 10
246.8206755287
 20
128.8398546051
 10
246.8264653145
 20
128.8416366741
 10
246.8296626474
 20
128.8434349947
  0
LWPOLYLINE
  5
298
100
AcDbEntity
  8
RACCORDO
100
AcDbPolyline
 62
250
  6
CONTINUOUS
 90
16
 70
0
 10
175.5405197045
 20
128.8220835616
 10
175.5727448406
 20
128.8229009731
 10
175.6037033401
 20
128.8238325396
 10
175.6332334296
 20
128.8248733932
 10
175.6611807995
 20
128.8260180948
 10
175.6873994107
 20
128.827260663
 10
175.711752258
 20
128.8285946046
 10
175.7341120855
 20
128.830012949
 10
175.7543620519
 20
128.8315082849
 10
175.772396341
 20
128.8330727982
 10
175.7881207146
 20
128.8346983136
 10
175.8014530051
 20
128.836376337
 10
175.8123235444
 20
128.8380980999
 10
175.8206755287
 20
128.8398546051
 10
175.8264653145
 20
128.8416366741
 10
175.8296626474
 20
128.8434349947
  0
LINE
  5
299
100
AcDbEntity
  8
RACCORDO
100
AcDbLine
 62
250
  6
CONTINUOUS
 10
385.3137598892
 20
128.6958824683
 11
385.2494246621
 21
128.694426492
  0
LINE
  5
29A
100
AcDbEntity
  8
RACCORDO
100
AcDbLine
 62
250
  6
CONTINUOUS
 10
385.3137615487
 20
128.7584198664
 11
385.2494262628
 21
128.7569665848
  0
LINE
  5
29B
100
AcDbEntity
  8
RACCORDO
100
AcDbLine
 62
250
  6
CONTINUOUS
 10
317.4729488318
 20
128.8208076703
 11
317.5405197045
 21
128.8220835616
  0
LINE
  5
29C
100
AcDbEntity
  8
RACCORDO
100
AcDbLine
 62
250
  6
CONTINUOUS
 10
246.4729488318
 20
128.8208076703
 11
246.5405197045
 21
128.8220835616
  0
LINE
  5
29D
100
AcDbEntity
  8
RACCORDO
100
AcDbLine
 62
250
  6
CONTINUOUS
 10
175.4729488318
 20
128.8208076703
 11
175.5405197045
 21
128.8220835616
  0
LINE
  5
29E
100
AcDbEntity
  8
RACCORDO
100
AcDbLine
 62
250
  6
CONTINUOUS
 10
385.2494246621
 20
128.694426492
 11
385.1816432123
 21
128.6934402136
  0
LINE
  5
29F
100
AcDbEntity
  8
RACCORDO
100
AcDbLine
 62
250
  6
CONTINUOUS
 10
385.2494262628
 20
128.7569665848
 11
385.1816447426
 21
128.7559816314
  0
LINE
  5
2A0
100
AcDbEntity
  8
RACCORDO
100
AcDbLine
 62
250
  6
CONTINUOUS
 10
317.4024012434
 20
128.8200314994
 11
317.4729488318
 21
128.8208076703
  0
LINE
  5
2A1
100
AcDbEntity
  8
RACCORDO
100
AcDbLine
 62
250
  6
CONTINUOUS
 10
246.4024012434
 20
128.8200314994
 11
246.4729488318
 21
128.8208076703
  0
LINE
  5
2A2
100
AcDbEntity
  8
RACCORDO
100
AcDbLine
 62
250
  6
CONTINUOUS
 10
175.4024012434
 20
128.8200314994
 11
175.4729488318
 21
128.8208076703
  0
LINE
  5
2A3
100
AcDbEntity
  8
RACCORDO
100
AcDbLine
 62
250
  6
CONTINUOUS
 10
104.4024012434
 20
128.8200314994
 11
104.4729488318
 21
128.8208076703
  0
LINE
  5
2A4
100
AcDbEntity
  8
RACCORDO
100
AcDbLine
 62
250
  6
CONTINUOUS
 10
385.1816432123
 20
128.6934402136
 11
385.111766172
 21
128.692943286
  0
LWPOLYLINE
  5
2A5
100
AcDbEntity
  8
RACCORDO
100
AcDbPolyline
 62
250
  6
CONTINUOUS
 90
3
 70
0
 10
385.1816447426
 20
128.7559816314
 10
385.1117676248
 20
128.7554846327
 10
385.0764774643
 20
128.7554225977
  0
LINE
  5
2A6
100
AcDbEntity
  8
RACCORDO
100
AcDbLine
 62
250
  6
CONTINUOUS
 10
317.3303495988
 20
128.8197712514
 11
317.4024012434
 21
128.8200314994
  0
LINE
  5
2A7
100
AcDbEntity
  8
RACCORDO
100
AcDbLine
 62
250
  6
CONTINUOUS
 10
246.3303495988
 20
128.8197712514
 11
246.4024012434
 21
128.8200314994
  0
LINE
  5
2A8
100
AcDbEntity
  8
RACCORDO
100
AcDbLine
 62
250
  6
CONTINUOUS
 10
175.3303495988
 20
128.8197712514
 11
175.4024012434
 21
128.8200314994
  0
LINE
  5
2A9
100
AcDbEntity
  8
RACCORDO
100
AcDbLine
 62
250
  6
CONTINUOUS
 10
104.3303495988
 20
128.8197712514
 11
104.4024012434
 21
128.8200314994
  0
LINE
  5
2AA
100
AcDbEntity
  8
RACCORDO
100
AcDbLine
 62
250
  6
CONTINUOUS
 10
363.1354409148
 20
127.9186613902
 11
318.2315809456
 21
127.9186613902
  0
LINE
  5
2AB
100
AcDbEntity
  8
RACCORDO
100
AcDbLine
 62
250
  6
CONTINUOUS
 10
292.1354409148
 20
127.9186613902
 11
247.2315809456
 21
127.9186613902
  0
LINE
  5
2AC
100
AcDbEntity
  8
RACCORDO
100
AcDbLine
 62
250
  6
CONTINUOUS
 10
221.1354409148
 20
127.9186613902
 11
176.2315809456
 21
127.9186613902
  0
LINE
  5
2AD
100
AcDbEntity
  8
RACCORDO
100
AcDbLine
 62
250
  6
CONTINUOUS
 10
150.1354409148
 20
127.9186613902
 11
105.2315809456
 21
127.9186613902
  0
LINE
  5
2AE
100
AcDbEntity
  8
RACCORDO
100
AcDbLine
 62
250
  6
CONTINUOUS
 10
363.1354403133
 20
128.4453951896
 11
318.2315812653
 21
128.4453951896
  0
LINE
  5
2AF
100
AcDbEntity
  8
RACCORDO
100
AcDbLine
 62
250
  6
CONTINUOUS
 10
292.1354403133
 20
128.4453951896
 11
247.2315812653
 21
128.4453951896
  0
LINE
  5
2B0
100
AcDbEntity
  8
RACCORDO
100
AcDbLine
 62
250
  6
CONTINUOUS
 10
221.1354403133
 20
128.4453951896
 11
176.2315812653
 21
128.4453951896
  0
LINE
  5
2B1
100
AcDbEntity
  8
RACCORDO
100
AcDbLine
 62
250
  6
CONTINUOUS
 10
150.1354403133
 20
128.4453951896
 11
105.2315812653
 21
128.4453951896
  0
LINE
  5
2B2
100
AcDbEntity
  8
RACCORDO
100
AcDbLine
 62
7
  6
CONTINUOUS
 10
105.2840203502
 20
128.4976973684
 11
150.0830015102
 21
128.4976973684
  0
LINE
  5
2B3
100
AcDbEntity
  8
RACCORDO
100
AcDbLine
 62
7
  6
CONTINUOUS
 10
176.2840203502
 20
128.4976973684
 11
221.0830015102
 21
128.4976973684
  0
LINE
  5
2B4
100
AcDbEntity
  8
RACCORDO
100
AcDbLine
 62
7
  6
CONTINUOUS
 10
247.2840203502
 20
128.4976973684
 11
292.0830015102
 21
128.4976973684
  0
LINE
  5
2B5
100
AcDbEntity
  8
RACCORDO
100
AcDbLine
 62
7
  6
CONTINUOUS
 10
318.2840203502
 20
128.4976973684
 11
363.0830015102
 21
128.4976973684
  0
LINE
  5
2B6
100
AcDbEntity
  8
RACCORDO
100
AcDbLine
 62
250
  6
CONTINUOUS
 10
364.0276671296
 20
128.6928818099
 11
385.111766172
 21
128.692943286
  0
LINE
  5
2B7
100
AcDbEntity
  8
RACCORDO
100
AcDbLine
 62
250
  6
CONTINUOUS
 10
151.0276671296
 20
128.6928818099
 11
175.3393547307
 21
128.6928818099
  0
LINE
  5
2B8
100
AcDbEntity
  8
RACCORDO
100
AcDbLine
 62
250
  6
CONTINUOUS
 10
222.0276671296
 20
128.6928818099
 11
246.3393547307
 21
128.6928818099
  0
LINE
  5
2B9
100
AcDbEntity
  8
RACCORDO
100
AcDbLine
 62
250
  6
CONTINUOUS
 10
293.0276671296
 20
128.6928818099
 11
317.3393547307
 21
128.6928818099
  0
LINE
  5
2BA
100
AcDbEntity
  8
RACCORDO
100
AcDbLine
 62
250
  6
CONTINUOUS
 10
385.6835109302
 20
128.7782777797
 11
385.5745700277
 21
128.7782777797
  0
LINE
  5
2BB
100
AcDbEntity
  8
RACCORDO
100
AcDbLine
 62
250
  6
CONTINUOUS
 10
82.6835109302
 20
128.7782777797
 11
82.7924518327
 21
128.7782777797
  0
LINE
  5
2BC
100
AcDbEntity
  8
RACCORDO
100
AcDbLine
 62
250
  6
CONTINUOUS
 10
83.2552556875
 20
128.6929432851
 11
104.3393547307
 21
128.6928818099
  0
LINE
  5
2BD
100
AcDbEntity
  8
RACCORDO
100
AcDbLine
 62
250
  6
CONTINUOUS
 10
83.2201400958
 20
128.7556712879
 11
83.290544396
 21
128.755422598
  0
LINE
  5
2BE
100
AcDbEntity
  8
RACCORDO
100
AcDbLine
 62
250
  6
CONTINUOUS
 10
151.0366722615
 20
128.8197712295
 11
150.9646206267
 21
128.8200314811
  0
LINE
  5
2BF
100
AcDbEntity
  8
RACCORDO
100
AcDbLine
 62
250
  6
CONTINUOUS
 10
222.0366722615
 20
128.8197712295
 11
221.9646206267
 21
128.8200314811
  0
LINE
  5
2C0
100
AcDbEntity
  8
RACCORDO
100
AcDbLine
 62
250
  6
CONTINUOUS
 10
293.0366722615
 20
128.8197712295
 11
292.9646206267
 21
128.8200314811
  0
LINE
  5
2C1
100
AcDbEntity
  8
RACCORDO
100
AcDbLine
 62
250
  6
CONTINUOUS
 10
364.0366722615
 20
128.8197712295
 11
363.9646206267
 21
128.8200314811
  0
LINE
  5
2C2
100
AcDbEntity
  8
RACCORDO
100
AcDbLine
 62
250
  6
CONTINUOUS
 10
83.1853786456
 20
128.6934402127
 11
83.2552556875
 21
128.6929432851
  0
LINE
  5
2C3
100
AcDbEntity
  8
RACCORDO
100
AcDbLine
 62
250
  6
CONTINUOUS
 10
83.1511386947
 20
128.7564141165
 11
83.2201400958
 21
128.7556712879
  0
LINE
  5
2C4
100
AcDbEntity
  8
RACCORDO
100
AcDbLine
 62
250
  6
CONTINUOUS
 10
150.9646206267
 20
128.8200314811
 11
150.8940730561
 21
128.8208076553
  0
LINE
  5
2C5
100
AcDbEntity
  8
RACCORDO
100
AcDbLine
 62
250
  6
CONTINUOUS
 10
221.9646206267
 20
128.8200314811
 11
221.8940730561
 21
128.8208076553
  0
LINE
  5
2C6
100
AcDbEntity
  8
RACCORDO
100
AcDbLine
 62
250
  6
CONTINUOUS
 10
292.9646206267
 20
128.8200314811
 11
292.8940730561
 21
128.8208076553
  0
LINE
  5
2C7
100
AcDbEntity
  8
RACCORDO
100
AcDbLine
 62
250
  6
CONTINUOUS
 10
363.9646206267
 20
128.8200314811
 11
363.8940730561
 21
128.8208076553
  0
LINE
  5
2C8
100
AcDbEntity
  8
RACCORDO
100
AcDbLine
 62
250
  6
CONTINUOUS
 10
83.1175971944
 20
128.6944264912
 11
83.1853786456
 21
128.6934402127
  0
LWPOLYLINE
  5
2C9
100
AcDbEntity
  8
RACCORDO
100
AcDbPolyline
 62
250
  6
CONTINUOUS
 90
17
 70
0
 10
150.8940730561
 20
128.8208076553
 10
150.826502207
 20
128.8220835496
 10
150.7942770843
 20
128.8229009625
 10
150.7633185987
 20
128.8238325302
 10
150.7337885235
 20
128.824873385
 10
150.7058411681
 20
128.8260180878
 10
150.6796225712
 20
128.827260657
 10
150.6552697378
 20
128.8285945995
 10
150.6329099237
 20
128.8300129448
 10
150.6126599698
 20
128.8315082814
 10
150.5946256921
 20
128.8330727955
 10
150.5789013288
 20
128.8346983115
 10
150.5655690473
 20
128.8363763355
 10
150.5546985155
 20
128.8380980989
 10
150.5463465372
 20
128.8398546047
 10
150.5405567556
 20
128.8416366742
 10
150.5373594252
 20
128.8434349953
  0
LWPOLYLINE
  5
2CA
100
AcDbEntity
  8
RACCORDO
100
AcDbPolyline
 62
250
  6
CONTINUOUS
 90
17
 70
0
 10
221.8940730561
 20
128.8208076553
 10
221.826502207
 20
128.8220835496
 10
221.7942770843
 20
128.8229009625
 10
221.7633185987
 20
128.8238325302
 10
221.7337885235
 20
128.824873385
 10
221.7058411681
 20
128.8260180878
 10
221.6796225712
 20
128.827260657
 10
221.6552697378
 20
128.8285945995
 10
221.6329099237
 20
128.8300129448
 10
221.6126599698
 20
128.8315082814
 10
221.5946256921
 20
128.8330727955
 10
221.5789013288
 20
128.8346983115
 10
221.5655690473
 20
128.8363763355
 10
221.5546985155
 20
128.8380980989
 10
221.5463465372
 20
128.8398546047
 10
221.5405567556
 20
128.8416366742
 10
221.5373594252
 20
128.8434349953
  0
LWPOLYLINE
  5
2CB
100
AcDbEntity
  8
RACCORDO
100
AcDbPolyline
 62
250
  6
CONTINUOUS
 90
17
 70
0
 10
292.8940730561
 20
128.8208076553
 10
292.826502207
 20
128.8220835496
 10
292.7942770843
 20
128.8229009625
 10
292.7633185987
 20
128.8238325302
 10
292.7337885235
 20
128.824873385
 10
292.7058411681
 20
128.8260180878
 10
292.6796225712
 20
128.827260657
 10
292.6552697378
 20
128.8285945995
 10
292.6329099237
 20
128.8300129448
 10
292.6126599698
 20
128.8315082814
 10
292.5946256921
 20
128.8330727955
 10
292.5789013288
 20
128.8346983115
 10
292.5655690473
 20
128.8363763355
 10
292.5546985155
 20
128.8380980989
 10
292.5463465372
 20
128.8398546047
 10
292.5405567556
 20
128.8416366742
 10
292.5373594252
 20
128.8434349953
  0
LWPOLYLINE
  5
2CC
100
AcDbEntity
  8
RACCORDO
100
AcDbPolyline
 62
250
  6
CONTINUOUS
 90
28
 70
0
 10
105.2315812664
 20
128.4453951907
 10
105.2102908908
 20
128.4458825523
 10
105.1890680578
 20
128.447489743
 10
105.1679718529
 20
128.4502107238
 10
105.1470603803
 20
128.4540359831
 10
105.1263921818
 20
128.4589536715
 10
105.1060260579
 20
128.4649495729
 10
105.0860232182
 20
128.4720035088
 10
105.0664336866
 20
128.4800956072
 10
105.0472987647
 20
128.4892099108
 10
105.0286654282
 20
128.4993255685
 10
105.0105931283
 20
128.5104118472
 10
104.9931401938
 20
128.5224349224
 10
104.9763581899
 20
128.5353584016
 10
104.960290526
 20
128.5491478557
 10
104.9449802505
 20
128.5637680426
 10
104.9304682222
 20
128.5791806433
 10
104.9167976428
 20
128.5953403573
 10
104.9040114417
 20
128.6121979559
 10
104.8921477557
 20
128.629701427
 10
104.881235973
 20
128.6478053238
 10
104.871302592
 20
128.6664677582
 10
104.8623737988
 20
128.6856426524
 10
104.8544785367
 20
128.7052709678
 10
104.847643198
 20
128.7252893603
 10
104.841887425
 20
128.7456385309
 10
104.8372256138
 20
128.7662640007
 10
104.833670376
 20
128.787107782
  0
LWPOLYLINE
  5
2CD
100
AcDbEntity
  8
RACCORDO
100
AcDbPolyline
 62
250
  6
CONTINUOUS
 90
28
 70
0
 10
176.2315812664
 20
128.4453951907
 10
176.2102908908
 20
128.4458825523
 10
176.1890680578
 20
128.447489743
 10
176.1679718529
 20
128.4502107238
 10
176.1470603803
 20
128.4540359831
 10
176.1263921818
 20
128.4589536715
 10
176.1060260579
 20
128.4649495729
 10
176.0860232182
 20
128.4720035088
 10
176.0664336866
 20
128.4800956072
 10
176.0472987647
 20
128.4892099108
 10
176.0286654282
 20
128.4993255685
 10
176.0105931283
 20
128.5104118472
 10
175.9931401938
 20
128.5224349224
 10
175.9763581899
 20
128.5353584016
 10
175.960290526
 20
128.5491478557
 10
175.9449802505
 20
128.5637680426
 10
175.9304682222
 20
128.5791806433
 10
175.9167976428
 20
128.5953403573
 10
175.9040114417
 20
128.6121979559
 10
175.8921477557
 20
128.629701427
 10
175.881235973
 20
128.6478053238
 10
175.871302592
 20
128.6664677582
 10
175.8623737988
 20
128.6856426524
 10
175.8544785367
 20
128.7052709678
 10
175.847643198
 20
128.7252893603
 10
175.841887425
 20
128.7456385309
 10
175.8372256138
 20
128.7662640007
 10
175.833670376
 20
128.787107782
  0
LWPOLYLINE
  5
2CE
100
AcDbEntity
  8
RACCORDO
100
AcDbPolyline
 62
250
  6
CONTINUOUS
 90
28
 70
0
 10
247.2315812664
 20
128.4453951907
 10
247.2102908908
 20
128.4458825523
 10
247.1890680578
 20
128.447489743
 10
247.1679718529
 20
128.4502107238
 10
247.1470603803
 20
128.4540359831
 10
247.1263921818
 20
128.4589536715
 10
247.1060260579
 20
128.4649495729
 10
247.0860232182
 20
128.4720035088
 10
247.0664336866
 20
128.4800956072
 10
247.0472987647
 20
128.4892099108
 10
247.0286654282
 20
128.4993255685
 10
247.0105931283
 20
128.5104118472
 10
246.9931401938
 20
128.5224349224
 10
246.9763581899
 20
128.5353584016
 10
246.960290526
 20
128.5491478557
 10
246.9449802505
 20
128.5637680426
 10
246.9304682222
 20
128.5791806433
 10
246.9167976428
 20
128.5953403573
 10
246.9040114417
 20
128.6121979559
 10
246.8921477557
 20
128.629701427
 10
246.881235973
 20
128.6478053238
 10
246.871302592
 20
128.6664677582
 10
246.8623737988
 20
128.6856426524
 10
246.8544785367
 20
128.7052709678
 10
246.847643198
 20
128.7252893603
 10
246.841887425
 20
128.7456385309
 10
246.8372256138
 20
128.7662640007
 10
246.833670376
 20
128.787107782
  0
LWPOLYLINE
  5
2CF
100
AcDbEntity
  8
RACCORDO
100
AcDbPolyline
 62
250
  6
CONTINUOUS
 90
28
 70
0
 10
318.2315812664
 20
128.4453951907
 10
318.2102908908
 20
128.4458825523
 10
318.1890680578
 20
128.447489743
 10
318.1679718529
 20
128.4502107238
 10
318.1470603803
 20
128.4540359831
 10
318.1263921818
 20
128.4589536715
 10
318.1060260579
 20
128.4649495729
 10
318.0860232182
 20
128.4720035088
 10
318.0664336866
 20
128.4800956072
 10
318.0472987647
 20
128.4892099108
 10
318.0286654282
 20
128.4993255685
 10
318.0105931283
 20
128.5104118472
 10
317.9931401938
 20
128.5224349224
 10
317.9763581899
 20
128.5353584016
 10
317.960290526
 20
128.5491478557
 10
317.9449802505
 20
128.5637680426
 10
317.9304682222
 20
128.5791806433
 10
317.9167976428
 20
128.5953403573
 10
317.9040114417
 20
128.6121979559
 10
317.8921477557
 20
128.629701427
 10
317.881235973
 20
128.6478053238
 10
317.871302592
 20
128.6664677582
 10
317.8623737988
 20
128.6856426524
 10
317.8544785367
 20
128.7052709678
 10
317.847643198
 20
128.7252893603
 10
317.841887425
 20
128.7456385309
 10
317.8372256138
 20
128.7662640007
 10
317.833670376
 20
128.787107782
  0
LWPOLYLINE
  5
2D0
100
AcDbEntity
  8
RACCORDO
100
AcDbPolyline
 62
250
  6
CONTINUOUS
 90
28
 70
0
 10
105.2315809456
 20
127.9186613902
 10
105.1836063084
 20
127.9199610088
 10
105.1360450841
 20
127.9237502459
 10
105.0888972726
 20
127.9300291107
 10
105.0420326746
 20
127.9388318865
 10
104.9955814894
 20
127.950124327
 10
104.949934315
 20
127.9638036552
 10
104.9051088125
 20
127.9798831193
 10
104.8610873207
 20
127.9983495404
 10
104.8182074545
 20
128.0190605052
 10
104.7764632163
 20
128.0420410291
 10
104.7358606036
 20
128.0672661915
 10
104.6967552235
 20
128.094518675
 10
104.6591669183
 20
128.1238112434
 10
104.6230758456
 20
128.1551312417
 10
104.5887780852
 20
128.1882232169
 10
104.5562837683
 20
128.2231076887
 10
104.5255827638
 20
128.2597642497
 10
104.4969407575
 20
128.2978760418
 10
104.4703813298
 20
128.3374451486
 10
104.4458809004
 20
128.3784695886
 10
104.4236344141
 20
128.4206263855
 10
104.4036521659
 20
128.4639494159
 10
104.3859238609
 20
128.5084048882
 10
104.3706135589
 20
128.5535682945
 10
104.3577759465
 20
128.599298142
 10
104.3473563371
 20
128.6457359717
 10
104.3393547307
 20
128.6928818099
  0
LWPOLYLINE
  5
2D1
100
AcDbEntity
  8
RACCORDO
100
AcDbPolyline
 62
250
  6
CONTINUOUS
 90
28
 70
0
 10
176.2315809456
 20
127.9186613902
 10
176.1836063084
 20
127.9199610088
 10
176.1360450841
 20
127.9237502459
 10
176.0888972726
 20
127.9300291107
 10
176.0420326746
 20
127.9388318865
 10
175.9955814894
 20
127.950124327
 10
175.949934315
 20
127.9638036552
 10
175.9051088125
 20
127.9798831193
 10
175.8610873207
 20
127.9983495404
 10
175.8182074545
 20
128.0190605052
 10
175.7764632163
 20
128.0420410291
 10
175.7358606036
 20
128.0672661915
 10
175.6967552235
 20
128.094518675
 10
175.6591669183
 20
128.1238112434
 10
175.6230758456
 20
128.1551312417
 10
175.5887780852
 20
128.1882232169
 10
175.5562837683
 20
128.2231076887
 10
175.5255827638
 20
128.2597642497
 10
175.4969407575
 20
128.2978760418
 10
175.4703813298
 20
128.3374451486
 10
175.4458809004
 20
128.3784695886
 10
175.4236344141
 20
128.4206263855
 10
175.4036521659
 20
128.4639494159
 10
175.3859238609
 20
128.5084048882
 10
175.3706135589
 20
128.5535682945
 10
175.3577759465
 20
128.599298142
 10
175.3473563371
 20
128.6457359717
 10
175.3393547307
 20
128.6928818099
  0
LWPOLYLINE
  5
2D2
100
AcDbEntity
  8
RACCORDO
100
AcDbPolyline
 62
250
  6
CONTINUOUS
 90
28
 70
0
 10
247.2315809456
 20
127.9186613902
 10
247.1836063084
 20
127.9199610088
 10
247.1360450841
 20
127.9237502459
 10
247.0888972726
 20
127.9300291107
 10
247.0420326746
 20
127.9388318865
 10
246.9955814894
 20
127.950124327
 10
246.949934315
 20
127.9638036552
 10
246.9051088125
 20
127.9798831193
 10
246.8610873207
 20
127.9983495404
 10
246.8182074545
 20
128.0190605052
 10
246.7764632163
 20
128.0420410291
 10
246.7358606036
 20
128.0672661915
 10
246.6967552235
 20
128.094518675
 10
246.6591669183
 20
128.1238112434
 10
246.6230758456
 20
128.1551312417
 10
246.5887780852
 20
128.1882232169
 10
246.5562837683
 20
128.2231076887
 10
246.5255827638
 20
128.2597642497
 10
246.4969407575
 20
128.2978760418
 10
246.4703813298
 20
128.3374451486
 10
246.4458809004
 20
128.3784695886
 10
246.4236344141
 20
128.4206263855
 10
246.4036521659
 20
128.4639494159
 10
246.3859238609
 20
128.5084048882
 10
246.3706135589
 20
128.5535682945
 10
246.3577759465
 20
128.599298142
 10
246.3473563371
 20
128.6457359717
 10
246.3393547307
 20
128.6928818099
  0
LWPOLYLINE
  5
2D3
100
AcDbEntity
  8
RACCORDO
100
AcDbPolyline
 62
250
  6
CONTINUOUS
 90
28
 70
0
 10
318.2315809456
 20
127.9186613902
 10
318.1836063084
 20
127.9199610088
 10
318.1360450841
 20
127.9237502459
 10
318.0888972726
 20
127.9300291107
 10
318.0420326746
 20
127.9388318865
 10
317.9955814894
 20
127.950124327
 10
317.949934315
 20
127.9638036552
 10
317.9051088125
 20
127.9798831193
 10
317.8610873207
 20
127.9983495404
 10
317.8182074545
 20
128.0190605052
 10
317.7764632163
 20
128.0420410291
 10
317.7358606036
 20
128.0672661915
 10
317.6967552235
 20
128.094518675
 10
317.6591669183
 20
128.1238112434
 10
317.6230758456
 20
128.1551312417
 10
317.5887780852
 20
128.1882232169
 10
317.5562837683
 20
128.2231076887
 10
317.5255827638
 20
128.2597642497
 10
317.4969407575
 20
128.2978760418
 10
317.4703813298
 20
128.3374451486
 10
317.4458809004
 20
128.3784695886
 10
317.4236344141
 20
128.4206263855
 10
317.4036521659
 20
128.4639494159
 10
317.3859238609
 20
128.5084048882
 10
317.3706135589
 20
128.5535682945
 10
317.3577759465
 20
128.599298142
 10
317.3473563371
 20
128.6457359717
 10
317.3393547307
 20
128.6928818099
  0
LINE
  5
2D4
100
AcDbEntity
  8
RACCORDO
100
AcDbLine
 62
250
  6
CONTINUOUS
 10
222.0276671296
 20
128.6928820885
 11
221.9563267267
 21
128.703307392
  0
LINE
  5
2D5
100
AcDbEntity
  8
RACCORDO
100
AcDbLine
 62
250
  6
CONTINUOUS
 10
221.9563267267
 20
128.703307392
 11
221.8864758856
 21
128.7140394752
  0
LWPOLYLINE
  5
2D6
100
AcDbEntity
  8
RACCORDO
100
AcDbPolyline
 62
250
  6
CONTINUOUS
 90
17
 70
0
 10
221.8864758856
 20
128.7140394752
 10
221.8195731787
 20
128.7248542389
 10
221.7876671556
 20
128.7302219937
 10
221.7570156175
 20
128.7355258574
 10
221.7277787846
 20
128.7407381059
 10
221.7001094817
 20
128.7458314942
 10
221.6741523403
 20
128.7507793982
 10
221.650043042
 20
128.7555559547
 10
221.6279076095
 20
128.7601361959
 10
221.6078617478
 20
128.7644961803
 10
221.5900102395
 20
128.7686131176
 10
221.574446397
 20
128.772465488
 10
221.5612515746
 20
128.7760331546
 10
221.5504947436
 20
128.7792974688
 10
221.5422321314
 20
128.7822413675
 10
221.5365069279
 20
128.7848494625
 10
221.5333490595
 20
128.7871081211
  0
LINE
  5
2D7
100
AcDbEntity
  8
RACCORDO
100
AcDbLine
 62
250
  6
CONTINUOUS
 10
221.1354403133
 20
128.4453951896
 11
221.0830015102
 21
128.4976973684
  0
LINE
  5
2D8
100
AcDbEntity
  8
RACCORDO
100
AcDbLine
 62
250
  6
CONTINUOUS
 10
175.829662648
 20
173.7519596452
 11
175.8835109222
 21
173.698254903
  0
LINE
  5
2D9
100
AcDbEntity
  8
RACCORDO
100
AcDbLine
 62
250
  6
CONTINUOUS
 10
221.5373592123
 20
128.8434351109
 11
221.4835109381
 21
128.8971398338
  0
LINE
  5
2DA
100
AcDbEntity
  8
RACCORDO
100
AcDbLine
 62
250
  6
CONTINUOUS
 10
176.2315813676
 20
174.1499995473
 11
176.2840203502
 21
174.0976973684
  0
LWPOLYLINE
  5
2DB
100
AcDbEntity
  8
RACCORDO
100
AcDbPolyline
 62
7
  6
CONTINUOUS
 90
25
 70
0
 10
221.4835109381
 20
173.698254903
 10
221.4826286829
 20
173.7244593605
 10
221.48008463
 20
173.7503302702
 10
221.4758787795
 20
173.7758676348
 10
221.4699838799
 20
173.8011680695
 10
221.4624271826
 20
173.8261349641
 10
221.4532904416
 20
173.850478486
 10
221.4425701551
 20
173.8741849276
 10
221.430269825
 20
173.8972680065
 10
221.4164817104
 20
173.9194790325
 10
221.4011487146
 20
173.9408556493
 10
221.3843279345
 20
173.9613602258
 10
221.3662829204
 20
173.9806311638
 10
221.3469885951
 20
173.9986284159
 10
221.3264700359
 20
174.0153920452
 10
221.3050660248
 20
174.0306806225
 10
221.2828071102
 20
174.044446767
 10
221.2596627438
 20
174.0567378742
 10
221.2358800617
 20
174.0674546795
 10
221.2114404099
 20
174.0765937107
 10
221.1863624425
 20
174.0841584507
 10
221.1609492589
 20
174.0900600671
 10
221.1353018922
 20
174.0942689514
 10
221.1093193093
 20
174.0968147181
 10
221.0830015102
 20
174.0976973684
  0
LINE
  5
2DC
100
AcDbEntity
  8
RACCORDO
100
AcDbLine
 62
250
  6
CONTINUOUS
 10
221.1354409148
 20
174.6767333467
 11
221.1354409148
 21
174.1499995473
  0
LINE
  5
2DD
100
AcDbEntity
  8
RACCORDO
100
AcDbLine
 62
250
  6
CONTINUOUS
 10
221.1354409148
 20
127.9186613902
 11
221.1354409148
 21
128.4453951896
  0
LINE
  5
2DE
100
AcDbEntity
  8
RACCORDO
100
AcDbLine
 62
7
  6
CONTINUOUS
 10
221.4835109381
 20
128.8971398338
 11
221.4835109381
 21
173.698254903
  0
LINE
  5
2DF
100
AcDbEntity
  8
RACCORDO
100
AcDbLine
 62
250
  6
CONTINUOUS
 10
221.5373592124
 20
173.7519596488
 11
221.5373592123
 21
128.8434351109
  0
LINE
  5
2E0
100
AcDbEntity
  8
RACCORDO
100
AcDbLine
 62
250
  6
CONTINUOUS
 10
222.0366722615
 20
173.7756234859
 11
222.0366722615
 21
128.819771251
  0
LWPOLYLINE
  5
2E1
100
AcDbEntity
  8
RACCORDO
100
AcDbPolyline
 62
250
  6
CONTINUOUS
 90
7
 70
0
 10
221.5373592124
 20
128.8434351109
 10
221.5372488307
 20
128.8340082223
 10
221.5369148084
 20
128.8245899696
 10
221.5363575118
 20
128.8151855874
 10
221.5355774305
 20
128.8058002962
 10
221.5345751767
 20
128.7964392997
 10
221.5333514843
 20
128.787107782
  0
LWPOLYLINE
  5
2E2
100
AcDbEntity
  8
RACCORDO
100
AcDbPolyline
 62
250
  6
CONTINUOUS
 90
7
 70
0
 10
222.0366722615
 20
128.819771251
 10
222.03641527
 20
128.7984557687
 10
222.035660733
 20
128.7772071839
 10
222.0344086504
 20
128.756025496
 10
222.0326590224
 20
128.7349107047
 10
222.0304118488
 20
128.7138628094
 10
222.0276671296
 20
128.6928818099
  0
LWPOLYLINE
  5
2E3
100
AcDbEntity
  8
RACCORDO
100
AcDbPolyline
 62
250
  6
CONTINUOUS
 90
15
 70
0
 10
175.5793545396
 20
128.7302219383
 10
175.6100060406
 20
128.7355258002
 10
175.6392428353
 20
128.7407380465
 10
175.6669120993
 20
128.7458314323
 10
175.6928692021
 20
128.7507793337
 10
175.7169784625
 20
128.7555558876
 10
175.7391138585
 20
128.7601361261
 10
175.7591596857
 20
128.764496108
 10
175.7770111619
 20
128.7686130429
 10
175.7925749752
 20
128.7724654113
 10
175.8057697718
 20
128.7760330762
 10
175.8165265808
 20
128.779297389
 10
175.8247891749
 20
128.7822412868
 10
175.8305143646
 20
128.7848493816
 10
175.8336722235
 20
128.7871080403
  0
LINE
  5
2E4
100
AcDbEntity
  8
RACCORDO
100
AcDbLine
 62
250
  6
CONTINUOUS
 10
175.5144548531
 20
128.7194505978
 11
175.5793545396
 21
128.7302219383
  0
LINE
  5
2E5
100
AcDbEntity
  8
RACCORDO
100
AcDbLine
 62
250
  6
CONTINUOUS
 10
175.4458989574
 20
128.7086489431
 11
175.5144548531
 21
128.7194505978
  0
LWPOLYLINE
  5
2E6
100
AcDbEntity
  8
RACCORDO
100
AcDbPolyline
 62
250
  6
CONTINUOUS
 90
3
 70
0
 10
175.3393547308
 20
128.6928820281
 10
175.3751183802
 20
128.6980425255
 10
175.4458989574
 20
128.7086489431
  0
LWPOLYLINE
  5
2E7
100
AcDbEntity
  8
RACCORDO
100
AcDbPolyline
 62
7
  6
CONTINUOUS
 90
25
 70
0
 10
150.0830015102
 20
128.4976973684
 10
150.1093193132
 20
128.4985800203
 10
150.1353018963
 20
128.501125787
 10
150.1609492596
 20
128.5053346698
 10
150.1863624332
 20
128.5112362824
 10
150.2114403869
 20
128.5188010169
 10
150.2358800304
 20
128.5279400444
 10
150.259662713
 20
128.538656848
 10
150.2828070853
 20
128.5509479552
 10
150.305066009
 20
128.5647141038
 10
150.326470036
 20
128.5800026946
 10
150.3469886143
 20
128.5967663415
 10
150.3662829493
 20
128.6147636018
 10
150.3843279551
 20
128.6340345302
 10
150.4011487177
 20
128.6545390878
 10
150.4164816998
 20
128.6759156883
 10
150.4302698097
 20
128.6981267044
 10
150.4425701391
 20
128.721209776
 10
150.4532904267
 20
128.7449162146
 10
150.4624271706
 20
128.76925974
 10
150.4699838726
 20
128.7942266424
 10
150.475878776
 20
128.8195270847
 10
150.4800846286
 20
128.8450644552
 10
150.4826286826
 20
128.8709353707
 10
150.4835109381
 20
128.8971398338
  0
LWPOLYLINE
  5
2E8
100
AcDbEntity
  8
RACCORDO
100
AcDbPolyline
 62
250
  6
CONTINUOUS
 90
16
 70
0
 10
104.5405197045
 20
128.8220835616
 10
104.5727448406
 20
128.8229009731
 10
104.6037033401
 20
128.8238325396
 10
104.6332334296
 20
128.8248733932
 10
104.6611807995
 20
128.8260180948
 10
104.6873994107
 20
128.827260663
 10
104.711752258
 20
128.8285946046
 10
104.7341120855
 20
128.830012949
 10
104.7543620519
 20
128.8315082849
 10
104.772396341
 20
128.8330727982
 10
104.7881207146
 20
128.8346983136
 10
104.8014530051
 20
128.836376337
 10
104.8123235444
 20
128.8380980999
 10
104.8206755287
 20
128.8398546051
 10
104.8264653145
 20
128.8416366741
 10
104.8296626474
 20
128.8434349947
  0
LINE
  5
2E9
100
AcDbEntity
  8
RACCORDO
100
AcDbLine
 62
250
  6
CONTINUOUS
 10
104.4729488318
 20
128.8208076703
 11
104.5405197045
 21
128.8220835616
  0
LWPOLYLINE
  5
2EA
100
AcDbEntity
  8
RACCORDO
100
AcDbPolyline
 62
250
  6
CONTINUOUS
 90
17
 70
0
 10
363.8940730561
 20
128.8208076553
 10
363.826502207
 20
128.8220835496
 10
363.7942770843
 20
128.8229009625
 10
363.7633185987
 20
128.8238325302
 10
363.7337885235
 20
128.824873385
 10
363.7058411681
 20
128.8260180878
 10
363.6796225712
 20
128.827260657
 10
363.6552697378
 20
128.8285945995
 10
363.6329099237
 20
128.8300129448
 10
363.6126599698
 20
128.8315082814
 10
363.5946256921
 20
128.8330727955
 10
363.5789013288
 20
128.8346983115
 10
363.5655690473
 20
128.8363763355
 10
363.5546985155
 20
128.8380980989
 10
363.5463465372
 20
128.8398546047
 10
363.5405567556
 20
128.8416366742
 10
363.5373594252
 20
128.8434349953
  0
LINE
  5
2EB
100
AcDbEntity
  8
RACCORDO
100
AcDbLine
 62
250
  6
CONTINUOUS
 10
293.0276671296
 20
128.6928820885
 11
292.9563267267
 21
128.703307392
  0
LINE
  5
2EC
100
AcDbEntity
  8
RACCORDO
100
AcDbLine
 62
250
  6
CONTINUOUS
 10
292.9563267267
 20
128.703307392
 11
292.8864758856
 21
128.7140394752
  0
LWPOLYLINE
  5
2ED
100
AcDbEntity
  8
RACCORDO
100
AcDbPolyline
 62
250
  6
CONTINUOUS
 90
17
 70
0
 10
292.8864758856
 20
128.7140394752
 10
292.8195731787
 20
128.7248542389
 10
292.7876671556
 20
128.7302219937
 10
292.7570156175
 20
128.7355258574
 10
292.7277787846
 20
128.7407381059
 10
292.7001094817
 20
128.7458314942
 10
292.6741523403
 20
128.7507793982
 10
292.650043042
 20
128.7555559547
 10
292.6279076095
 20
128.7601361959
 10
292.6078617478
 20
128.7644961803
 10
292.5900102395
 20
128.7686131176
 10
292.574446397
 20
128.772465488
 10
292.5612515746
 20
128.7760331546
 10
292.5504947436
 20
128.7792974688
 10
292.5422321314
 20
128.7822413675
 10
292.5365069279
 20
128.7848494625
 10
292.5333490595
 20
128.7871081211
  0
LWPOLYLINE
  5
2EE
100
AcDbEntity
  8
RACCORDO
100
AcDbPolyline
 62
250
  6
CONTINUOUS
 90
7
 70
0
 10
221.5333514843
 20
173.8082869548
 10
221.5345751979
 20
173.7989552586
 10
221.5355774576
 20
173.7895941559
 10
221.5363575345
 20
173.7802088314
 10
221.5369148216
 20
173.7708044892
 10
221.5372488347
 20
173.7613863502
 10
221.5373592124
 20
173.7519596489
  0
LWPOLYLINE
  5
2EF
100
AcDbEntity
  8
RACCORDO
100
AcDbPolyline
 62
250
  6
CONTINUOUS
 90
7
 70
0
 10
222.0276671296
 20
173.902512927
 10
222.0304116016
 20
173.881536118
 10
222.0326586269
 20
173.8604907371
 10
222.0344082055
 20
173.8393767839
 10
222.0356603375
 20
173.8181942579
 10
222.0364150229
 20
173.7969431587
 10
222.0366722615
 20
173.7756234859
  0
LWPOLYLINE
  5
2F0
100
AcDbEntity
  8
0
100
AcDbPolyline
 62
7
  6
CONTINUOUS
 90
13
 70
0
 43
0.3499999917
 10
233.0049462891
 20
217.7105090332
 10
233.0049462891
 20
218.9962207031
 10
233.2192272949
 20
219.4247827148
 10
233.6477893066
 20
219.8533703613
 10
233.8620703125
 20
219.8533703613
 10
234.290657959
 20
219.4247827148
 10
234.5049389648
 20
218.9962207031
 10
234.5049389648
 20
217.7105090332
 10
234.290657959
 20
217.2819213867
 10
233.8620703125
 20
216.853359375
 10
233.6477893066
 20
216.853359375
 10
233.2192272949
 20
217.2819213867
 10
233.0049462891
 20
217.7105090332
  0
LWPOLYLINE
  5
2F1
100
AcDbEntity
  8
RACCORDO
100
AcDbPolyline
 62
250
  6
CONTINUOUS
 90
25
 70
0
 10
222.0276671296
 20
128.6928818099
 10
222.0184901464
 20
128.639869076
 10
222.0062646677
 20
128.5877911148
 10
221.9909906937
 20
128.5366478871
 10
221.9725824151
 20
128.4862326001
 10
221.9511256411
 20
128.4367519755
 10
221.9268777992
 20
128.388826218
 10
221.899823035
 20
128.342513844
 10
221.8699772028
 20
128.2977562065
 10
221.8376452933
 20
128.2549977202
 10
221.8027962401
 20
128.2142490329
 10
221.7654611097
 20
128.1754993441
 10
221.7260380924
 20
128.139160866
 10
221.6845035958
 20
128.1052594759
 10
221.6408812123
 20
128.0737691371
 10
221.5956399097
 20
128.0450241729
 10
221.5487660258
 20
128.0190559439
 10
221.5002732227
 20
127.9958329452
 10
221.4506714537
 20
127.9755951968
 10
221.3999585383
 20
127.958373594
 10
221.348136657
 20
127.9441371326
 10
221.2957223046
 20
127.9330329891
 10
221.2428876458
 20
127.9251102018
 10
221.1894605159
 20
127.9203196738
 10
221.1354409148
 20
127.9186613902
  0
LWPOLYLINE
  5
2F2
100
AcDbEntity
  8
RACCORDO
100
AcDbPolyline
 62
250
  6
CONTINUOUS
 90
25
 70
0
 10
221.5333514843
 20
128.787107782
 10
221.5292797283
 20
128.7637019772
 10
221.5238099018
 20
128.7405697944
 10
221.5169587472
 20
128.7177938869
 10
221.5087442604
 20
128.6954476941
 10
221.4991956608
 20
128.6736202798
 10
221.4883583267
 20
128.6524138784
 10
221.4762797518
 20
128.6319147184
 10
221.4629987796
 20
128.6121822106
 10
221.4485567529
 20
128.5932737911
 10
221.4330010005
 20
128.575253222
 10
221.4163892499
 20
128.558188776
 10
221.3987825215
 20
128.5421410967
 10
221.3802424753
 20
128.527167048
 10
221.3608349984
 20
128.5133202923
 10
221.3406328926
 20
128.500650319
 10
221.3197093155
 20
128.4892026878
 10
221.2981367775
 20
128.4790166656
 10
221.2759909854
 20
128.470125689
 10
221.2533536509
 20
128.4625624869
 10
221.2303009594
 20
128.4563524249
 10
221.2069020609
 20
128.4515135917
 10
221.1832348222
 20
128.4480645943
 10
221.1593862632
 20
128.4460218457
 10
221.1354403113
 20
128.4453951916
  0
LWPOLYLINE
  5
2F3
100
AcDbEntity
  8
RACCORDO
100
AcDbPolyline
 62
250
  6
CONTINUOUS
 90
15
 70
0
 10
104.5793545396
 20
128.7302219383
 10
104.6100060406
 20
128.7355258002
 10
104.6392428353
 20
128.7407380465
 10
104.6669120993
 20
128.7458314323
 10
104.6928692021
 20
128.7507793337
 10
104.7169784625
 20
128.7555558876
 10
104.7391138585
 20
128.7601361261
 10
104.7591596857
 20
128.764496108
 10
104.7770111619
 20
128.7686130429
 10
104.7925749752
 20
128.7724654113
 10
104.8057697718
 20
128.7760330762
 10
104.8165265808
 20
128.779297389
 10
104.8247891749
 20
128.7822412868
 10
104.8305143646
 20
128.7848493816
 10
104.8336722235
 20
128.7871080403
  0
LWPOLYLINE
  5
2F4
100
AcDbEntity
  8
RACCORDO
100
AcDbPolyline
 62
250
  6
CONTINUOUS
 90
15
 70
0
 10
363.7876676132
 20
173.8651729
 10
363.7570161747
 20
173.8598690408
 10
363.727779444
 20
173.8546567978
 10
363.7001102442
 20
173.8495634156
 10
363.674153205
 20
173.8446155179
 10
363.6500440063
 20
173.8398389679
 10
363.6279086691
 20
173.835258733
 10
363.607862897
 20
173.8308987546
 10
363.5900114712
 20
173.8267818227
 10
363.5744477027
 20
173.8229294568
 10
363.561252945
 20
173.8193617937
 10
363.5504961682
 20
173.8160974818
 10
363.542233599
 20
173.8131535841
 10
363.5365084268
 20
173.8105454886
 10
363.5333505774
 20
173.808286828
  0
LINE
  5
2F5
100
AcDbEntity
  8
RACCORDO
100
AcDbLine
 62
250
  6
CONTINUOUS
 10
104.5144548531
 20
128.7194505978
 11
104.5793545396
 21
128.7302219383
  0
LINE
  5
2F6
100
AcDbEntity
  8
RACCORDO
100
AcDbLine
 62
250
  6
CONTINUOUS
 10
363.8525671842
 20
173.8759442372
 11
363.7876676132
 21
173.8651729
  0
LINE
  5
2F7
100
AcDbEntity
  8
RACCORDO
100
AcDbLine
 62
250
  6
CONTINUOUS
 10
104.4458989574
 20
128.7086489431
 11
104.5144548531
 21
128.7194505978
  0
LWPOLYLINE
  5
2F8
100
AcDbEntity
  8
RACCORDO
100
AcDbPolyline
 62
250
  6
CONTINUOUS
 90
3
 70
0
 10
104.3393547308
 20
128.6928820281
 10
104.3751183802
 20
128.6980425255
 10
104.4458989574
 20
128.7086489431
  0
LWPOLYLINE
  5
2F9
100
AcDbEntity
  8
0
100
AcDbPolyline
 62
7
  6
CONTINUOUS
 90
13
 70
0
 43
0.3499999917
 10
398.4021972656
 20
151.297701416
 10
397.1164855957
 20
151.297701416
 10
396.6878979492
 20
151.5119824219
 10
396.2593359375
 20
151.940557251
 10
396.2593359375
 20
152.1548382568
 10
396.6878979492
 20
152.5834130859
 10
397.1164855957
 20
152.7976940918
 10
398.4021972656
 20
152.7976940918
 10
398.8307592773
 20
152.5834130859
 10
399.2593469238
 20
152.1548382568
 10
399.2593469238
 20
151.940557251
 10
398.8307592773
 20
151.5119824219
 10
398.4021972656
 20
151.297701416
  0
LINE
  5
2FA
100
AcDbEntity
  8
RACCORDO
100
AcDbLine
 62
250
  6
CONTINUOUS
 10
364.0276671296
 20
128.6928820885
 11
363.9563267267
 21
128.703307392
  0
LINE
  5
2FB
100
AcDbEntity
  8
RACCORDO
100
AcDbLine
 62
250
  6
CONTINUOUS
 10
363.9563267267
 20
128.703307392
 11
363.8864758856
 21
128.7140394752
  0
LWPOLYLINE
  5
2FC
100
AcDbEntity
  8
RACCORDO
100
AcDbPolyline
 62
250
  6
CONTINUOUS
 90
17
 70
0
 10
363.8864758856
 20
128.7140394752
 10
363.8195731787
 20
128.7248542389
 10
363.7876671556
 20
128.7302219937
 10
363.7570156175
 20
128.7355258574
 10
363.7277787846
 20
128.7407381059
 10
363.7001094817
 20
128.7458314942
 10
363.6741523403
 20
128.7507793982
 10
363.650043042
 20
128.7555559547
 10
363.6279076095
 20
128.7601361959
 10
363.6078617478
 20
128.7644961803
 10
363.5900102395
 20
128.7686131176
 10
363.574446397
 20
128.772465488
 10
363.5612515746
 20
128.7760331546
 10
363.5504947436
 20
128.7792974688
 10
363.5422321314
 20
128.7822413675
 10
363.5365069279
 20
128.7848494625
 10
363.5333490595
 20
128.7871081211
  0
LWPOLYLINE
  5
2FD
100
AcDbEntity
  8
RACCORDO
100
AcDbPolyline
 62
250
  6
CONTINUOUS
 90
16
 70
0
 10
104.5144549377
 20
173.8759440942
 10
104.5793546834
 20
173.8651727515
 10
104.6100062169
 20
173.859868888
 10
104.6392430452
 20
173.8546566396
 10
104.6669123434
 20
173.8495632515
 10
104.6928694802
 20
173.8446153477
 10
104.716978774
 20
173.8398387914
 10
104.7391142023
 20
173.8352585504
 10
104.7591600599
 20
173.8308985661
 10
104.7770115646
 20
173.826781629
 10
104.7925754039
 20
173.8229292587
 10
104.8057702234
 20
173.8193615921
 10
104.8165270522
 20
173.8160972779
 10
104.8247896626
 20
173.8131533792
 10
104.8305148649
 20
173.810545284
 10
104.8336727326
 20
173.8082866253
  0
LWPOLYLINE
  5
2FE
100
AcDbEntity
  8
RACCORDO
100
AcDbPolyline
 62
7
  6
CONTINUOUS
 90
25
 70
0
 10
246.8835109222
 20
128.8971398338
 10
246.8843920407
 20
128.8709336417
 10
246.8869371222
 20
128.8450575531
 10
246.8911461666
 20
128.8195115652
 10
246.8970481975
 20
128.7941949955
 10
246.9046141914
 20
128.7692085216
 10
246.9137570774
 20
128.7448541783
 10
246.9244800139
 20
128.7211507983
 10
246.9367798426
 20
128.6980795387
 10
246.950560017
 20
128.6758859175
 10
246.9658680446
 20
128.654538791
 10
246.982656418
 20
128.6340692902
 10
247.0006860685
 20
128.6148163412
 10
247.0199976831
 20
128.5968043428
 10
247.040550575
 20
128.5800088808
 10
247.0619836148
 20
128.5646956584
 10
247.08425998
 20
128.5509214796
 10
247.1074164933
 20
128.5386295257
 10
247.1312024937
 20
128.5279150656
 10
247.1556313183
 20
128.5187820217
 10
247.18068963
 20
128.511226461
 10
247.2060867562
 20
128.5053318691
 10
247.2317258063
 20
128.5011260729
 10
247.2577036709
 20
128.4985812398
 10
247.2840203502
 20
128.4976973684
  0
LINE
  5
2FF
100
AcDbEntity
  8
RACCORDO
100
AcDbLine
 62
250
  6
CONTINUOUS
 10
246.3303495988
 20
128.819771251
 11
246.3303495988
 21
173.7756234859
  0
LINE
  5
300
100
AcDbEntity
  8
RACCORDO
100
AcDbLine
 62
250
  6
CONTINUOUS
 10
246.8296626478
 20
128.8434347739
 11
246.829662648
 21
173.7519596452
  0
LINE
  5
301
100
AcDbEntity
  8
RACCORDO
100
AcDbLine
 62
7
  6
CONTINUOUS
 10
246.8835109222
 20
173.698254903
 11
246.8835109222
 21
128.8971398338
  0
LWPOLYLINE
  5
302
100
AcDbEntity
  8
RACCORDO
100
AcDbPolyline
 62
250
  6
CONTINUOUS
 90
7
 70
0
 10
246.8296626479
 20
173.7519596453
 10
246.829773011
 20
173.7613857384
 10
246.8301069924
 20
173.7708035136
 10
246.8306642479
 20
173.7802077362
 10
246.8314443105
 20
173.7895931847
 10
246.8324465905
 20
173.7989546532
 10
246.833670376
 20
173.8082869548
  0
LWPOLYLINE
  5
303
100
AcDbEntity
  8
RACCORDO
100
AcDbPolyline
 62
250
  6
CONTINUOUS
 90
7
 70
0
 10
246.3303495988
 20
173.7756234859
 10
246.33060674
 20
173.7969417752
 10
246.3313613669
 20
173.8181920443
 10
246.3326134794
 20
173.8393742936
 10
246.3343630775
 20
173.8604885235
 10
246.3366101613
 20
173.8815347345
 10
246.3393547307
 20
173.902512927
  0
LWPOLYLINE
  5
304
100
AcDbEntity
  8
RACCORDO
100
AcDbPolyline
 62
250
  6
CONTINUOUS
 90
28
 70
0
 10
246.3393547307
 20
173.902512927
 10
246.3473151939
 20
173.949522733
 10
246.3577085572
 20
173.9958758777
 10
246.3705348204
 20
174.0415723851
 10
246.3858550324
 20
174.0867771479
 10
246.4036081443
 20
174.1313253166
 10
246.4236110099
 20
174.1747223221
 10
246.4458650089
 20
174.2169043252
 10
246.4703687615
 20
174.2579352526
 10
246.4969349819
 20
174.2975122141
 10
246.5255891388
 20
174.3356401152
 10
246.5563057636
 20
174.3723141523
 10
246.5888211642
 20
174.4072168928
 10
246.6231498913
 20
174.4403305209
 10
246.6592773943
 20
174.4716729646
 10
246.6968963294
 20
174.5009804224
 10
246.7360214743
 20
174.5282355653
 10
246.7766380513
 20
174.5534558318
 10
246.8183943831
 20
174.5764295786
 10
246.861291449
 20
174.5971344192
 10
246.9053282696
 20
174.615592835
 10
246.95015023
 20
174.6316604856
 10
246.9957605975
 20
174.6453203904
 10
247.0421561049
 20
174.6565895992
 10
247.0889723351
 20
174.6653748134
 10
247.1360878158
 20
174.671644946
 10
247.1836240193
 20
174.6754311207
 10
247.2315809456
 20
174.6767333467
  0
LWPOLYLINE
  5
305
100
AcDbEntity
  8
RACCORDO
100
AcDbPolyline
 62
250
  6
CONTINUOUS
 90
25
 70
0
 10
246.833670376
 20
173.8082869548
 10
246.8377413264
 20
173.8316888482
 10
246.8432102175
 20
173.8548184715
 10
246.8500605382
 20
173.8775931471
 10
246.8582747405
 20
173.8999399402
 10
246.8678236668
 20
173.9217691258
 10
246.8786612831
 20
173.9429767841
 10
246.890739534
 20
173.9634759555
 10
246.9040198816
 20
173.9832080857
 10
246.9184614744
 20
174.0021164883
 10
246.9340173789
 20
174.0201377317
 10
246.9506296249
 20
174.0372030854
 10
246.9682367724
 20
174.0532514513
 10
246.9867768672
 20
174.0682257897
 10
247.0061842315
 20
174.0820726957
 10
247.026386364
 20
174.0947429016
 10
247.0473103091
 20
174.1061909202
 10
247.0688833891
 20
174.1163773402
 10
247.0910296596
 20
174.1252686085
 10
247.1136672929
 20
174.1328319803
 10
247.1367201929
 20
174.1390421498
 10
247.160119266
 20
174.1438810567
 10
247.1837866631
 20
174.1473301031
 10
247.2076353405
 20
174.1493728789
 10
247.231581369
 20
174.1499995458
  0
LWPOLYLINE
  5
306
100
AcDbEntity
  8
RACCORDO
100
AcDbPolyline
 62
250
  6
CONTINUOUS
 90
15
 70
0
 10
292.7876676132
 20
173.8651729
 10
292.7570161747
 20
173.8598690408
 10
292.727779444
 20
173.8546567978
 10
292.7001102442
 20
173.8495634156
 10
292.674153205
 20
173.8446155179
 10
292.6500440063
 20
173.8398389679
 10
292.6279086691
 20
173.835258733
 10
292.607862897
 20
173.8308987546
 10
292.5900114712
 20
173.8267818227
 10
292.5744477027
 20
173.8229294568
 10
292.561252945
 20
173.8193617937
 10
292.5504961682
 20
173.8160974818
 10
292.542233599
 20
173.8131535841
 10
292.5365084268
 20
173.8105454886
 10
292.5333505774
 20
173.808286828
  0
LINE
  5
307
100
AcDbEntity
  8
RACCORDO
100
AcDbLine
 62
250
  6
CONTINUOUS
 10
363.921122985
 20
173.8867458925
 11
363.8525671842
 21
173.8759442372
  0
LWPOLYLINE
  5
308
100
AcDbEntity
  8
RACCORDO
100
AcDbPolyline
 62
250
  6
CONTINUOUS
 90
3
 70
0
 10
364.0276671296
 20
173.9025128185
 10
363.9919034979
 20
173.8973523159
 10
363.921122985
 20
173.8867458925
  0
LINE
  5
309
100
AcDbEntity
  8
RACCORDO
100
AcDbLine
 62
250
  6
CONTINUOUS
 10
104.3393547307
 20
173.9025126579
 11
104.4106951303
 21
173.8920873536
  0
LWPOLYLINE
  5
30A
100
AcDbEntity
  8
RACCORDO
100
AcDbPolyline
 62
250
  6
CONTINUOUS
 90
3
 70
0
 10
104.4106951303
 20
173.8920873536
 10
104.4805459654
 20
173.88135527
 10
104.5144549377
 20
173.8759440942
  0
LWPOLYLINE
  5
30B
100
AcDbEntity
  8
RACCORDO
100
AcDbPolyline
 62
250
  6
CONTINUOUS
 90
7
 70
0
 10
246.833670376
 20
128.787107782
 10
246.8324469115
 20
128.7964373806
 10
246.8314447241
 20
128.8057971957
 10
246.8306646003
 20
128.8151820507
 10
246.8301072051
 20
128.824586747
 10
246.8297730811
 20
128.8340060663
 10
246.8296626479
 20
128.843434774
  0
LWPOLYLINE
  5
30C
100
AcDbEntity
  8
RACCORDO
100
AcDbPolyline
 62
250
  6
CONTINUOUS
 90
7
 70
0
 10
246.3393547307
 20
128.6928818099
 10
246.3366088957
 20
128.7138875232
 10
246.3343610526
 20
128.7349502468
 10
246.3326112014
 20
128.756069981
 10
246.331359342
 20
128.7772467262
 10
246.3306054745
 20
128.7984804827
 10
246.3303495988
 20
128.819771251
  0
LINE
  5
30D
100
AcDbEntity
  8
RACCORDO
100
AcDbLine
 62
250
  6
CONTINUOUS
 10
247.2315809456
 20
174.6767333467
 11
247.2315809456
 21
174.1499995473
  0
LINE
  5
30E
100
AcDbEntity
  8
RACCORDO
100
AcDbLine
 62
250
  6
CONTINUOUS
 10
247.2315809456
 20
127.9186613902
 11
247.2315809456
 21
128.4453951896
  0
LINE
  5
30F
100
AcDbEntity
  8
RACCORDO
100
AcDbLine
 62
250
  6
CONTINUOUS
 10
292.8525671842
 20
173.8759442372
 11
292.7876676132
 21
173.8651729
  0
LINE
  5
310
100
AcDbEntity
  8
RACCORDO
100
AcDbLine
 62
250
  6
CONTINUOUS
 10
292.921122985
 20
173.8867458925
 11
292.8525671842
 21
173.8759442372
  0
LWPOLYLINE
  5
311
100
AcDbEntity
  8
RACCORDO
100
AcDbPolyline
 62
250
  6
CONTINUOUS
 90
3
 70
0
 10
293.0276671296
 20
173.9025128185
 10
292.9919034979
 20
173.8973523159
 10
292.921122985
 20
173.8867458925
  0
LWPOLYLINE
  5
312
100
AcDbEntity
  8
RACCORDO
100
AcDbPolyline
 62
7
  6
CONTINUOUS
 90
25
 70
0
 10
318.2840203502
 20
174.0976973684
 10
318.2577025471
 20
174.0968147165
 10
318.231719964
 20
174.0942689499
 10
318.2060726007
 20
174.090060067
 10
318.1806594271
 20
174.0841584545
 10
318.1555814734
 20
174.0765937199
 10
318.13114183
 20
174.0674546925
 10
318.1073591474
 20
174.0567378888
 10
318.084214775
 20
174.0444467816
 10
318.0619558513
 20
174.030680633
 10
318.0405518243
 20
174.0153920422
 10
318.020033246
 20
173.9986283953
 10
318.000738911
 20
173.980631135
 10
317.9826939052
 20
173.9613602066
 10
317.9658731427
 20
173.9408556491
 10
317.9505401605
 20
173.9194790485
 10
317.9367520507
 20
173.8972680325
 10
317.9244517212
 20
173.8741849608
 10
317.9137314337
 20
173.8504785222
 10
317.9045946897
 20
173.8261349969
 10
317.8970379877
 20
173.8011680945
 10
317.8911430843
 20
173.7758676522
 10
317.8869372317
 20
173.7503302816
 10
317.8843931777
 20
173.7244593662
 10
317.8835109222
 20
173.698254903
  0
LWPOLYLINE
  5
313
100
AcDbEntity
  8
RACCORDO
100
AcDbPolyline
 62
7
  6
CONTINUOUS
 90
25
 70
0
 10
247.2840203502
 20
174.0976973684
 10
247.2577025471
 20
174.0968147165
 10
247.231719964
 20
174.0942689499
 10
247.2060726007
 20
174.090060067
 10
247.1806594271
 20
174.0841584545
 10
247.1555814734
 20
174.0765937199
 10
247.13114183
 20
174.0674546925
 10
247.1073591474
 20
174.0567378888
 10
247.084214775
 20
174.0444467816
 10
247.0619558513
 20
174.030680633
 10
247.0405518243
 20
174.0153920422
 10
247.020033246
 20
173.9986283953
 10
247.000738911
 20
173.980631135
 10
246.9826939052
 20
173.9613602066
 10
246.9658731427
 20
173.9408556491
 10
246.9505401605
 20
173.9194790485
 10
246.9367520507
 20
173.8972680325
 10
246.9244517212
 20
173.8741849608
 10
246.9137314337
 20
173.8504785222
 10
246.9045946897
 20
173.8261349969
 10
246.8970379877
 20
173.8011680945
 10
246.8911430843
 20
173.7758676522
 10
246.8869372317
 20
173.7503302816
 10
246.8843931777
 20
173.7244593662
 10
246.8835109222
 20
173.698254903
  0
LWPOLYLINE
  5
314
100
AcDbEntity
  8
RACCORDO
100
AcDbPolyline
 62
250
  6
CONTINUOUS
 90
16
 70
0
 10
363.8265021558
 20
173.7733111752
 10
363.7942770198
 20
173.7724937637
 10
363.7633185202
 20
173.7715621972
 10
363.7337884307
 20
173.7705213437
 10
363.7058410609
 20
173.769376642
 10
363.6796224496
 20
173.7681340739
 10
363.6552696023
 20
173.7668001323
 10
363.6329097749
 20
173.7653817878
 10
363.6126598085
 20
173.763886452
 10
363.5946255193
 20
173.7623219387
 10
363.5789011457
 20
173.7606964232
 10
363.5655688553
 20
173.7590183999
 10
363.5546983159
 20
173.757296637
 10
363.5463463317
 20
173.7555401317
 10
363.5405565458
 20
173.7537580627
 10
363.5373592129
 20
173.7519597421
  0
LWPOLYLINE
  5
315
100
AcDbEntity
  8
RACCORDO
100
AcDbPolyline
 62
250
  6
CONTINUOUS
 90
16
 70
0
 10
292.8265021558
 20
173.7733111752
 10
292.7942770198
 20
173.7724937637
 10
292.7633185202
 20
173.7715621972
 10
292.7337884307
 20
173.7705213437
 10
292.7058410609
 20
173.769376642
 10
292.6796224496
 20
173.7681340739
 10
292.6552696023
 20
173.7668001323
 10
292.6329097749
 20
173.7653817878
 10
292.6126598085
 20
173.763886452
 10
292.5946255193
 20
173.7623219387
 10
292.5789011457
 20
173.7606964232
 10
292.5655688553
 20
173.7590183999
 10
292.5546983159
 20
173.757296637
 10
292.5463463317
 20
173.7555401317
 10
292.5405565458
 20
173.7537580627
 10
292.5373592129
 20
173.7519597421
  0
LWPOLYLINE
  5
316
100
AcDbEntity
  8
RACCORDO
100
AcDbPolyline
 62
250
  6
CONTINUOUS
 90
16
 70
0
 10
221.8265021558
 20
173.7733111752
 10
221.7942770198
 20
173.7724937637
 10
221.7633185202
 20
173.7715621972
 10
221.7337884307
 20
173.7705213437
 10
221.7058410609
 20
173.769376642
 10
221.6796224496
 20
173.7681340739
 10
221.6552696023
 20
173.7668001323
 10
221.6329097749
 20
173.7653817878
 10
221.6126598085
 20
173.763886452
 10
221.5946255193
 20
173.7623219387
 10
221.5789011457
 20
173.7606964232
 10
221.5655688553
 20
173.7590183999
 10
221.5546983159
 20
173.757296637
 10
221.5463463317
 20
173.7555401317
 10
221.5405565458
 20
173.7537580627
 10
221.5373592129
 20
173.7519597421
  0
LINE
  5
317
100
AcDbEntity
  8
RACCORDO
100
AcDbLine
 62
250
  6
CONTINUOUS
 10
363.8940730285
 20
173.7745870666
 11
363.8265021558
 21
173.7733111752
  0
LINE
  5
318
100
AcDbEntity
  8
RACCORDO
100
AcDbLine
 62
250
  6
CONTINUOUS
 10
292.8940730285
 20
173.7745870666
 11
292.8265021558
 21
173.7733111752
  0
LINE
  5
319
100
AcDbEntity
  8
RACCORDO
100
AcDbLine
 62
250
  6
CONTINUOUS
 10
221.8940730285
 20
173.7745870666
 11
221.8265021558
 21
173.7733111752
  0
LINE
  5
31A
100
AcDbEntity
  8
RACCORDO
100
AcDbLine
 62
250
  6
CONTINUOUS
 10
363.9646206169
 20
173.7753632374
 11
363.8940730285
 21
173.7745870666
  0
LINE
  5
31B
100
AcDbEntity
  8
RACCORDO
100
AcDbLine
 62
250
  6
CONTINUOUS
 10
292.9646206169
 20
173.7753632374
 11
292.8940730285
 21
173.7745870666
  0
LINE
  5
31C
100
AcDbEntity
  8
RACCORDO
100
AcDbLine
 62
250
  6
CONTINUOUS
 10
221.9646206169
 20
173.7753632374
 11
221.8940730285
 21
173.7745870666
  0
LINE
  5
31D
100
AcDbEntity
  8
RACCORDO
100
AcDbLine
 62
250
  6
CONTINUOUS
 10
364.0366722615
 20
173.7756234854
 11
363.9646206169
 21
173.7753632374
  0
LINE
  5
31E
100
AcDbEntity
  8
RACCORDO
100
AcDbLine
 62
250
  6
CONTINUOUS
 10
293.0366722615
 20
173.7756234854
 11
292.9646206169
 21
173.7753632374
  0
LINE
  5
31F
100
AcDbEntity
  8
RACCORDO
100
AcDbLine
 62
250
  6
CONTINUOUS
 10
222.0366722615
 20
173.7756234854
 11
221.9646206169
 21
173.7753632374
  0
LWPOLYLINE
  5
320
100
AcDbEntity
  8
RACCORDO
100
AcDbPolyline
 62
250
  6
CONTINUOUS
 90
3
 70
0
 10
151.0366722615
 20
173.7756234854
 10
151.0005520662
 20
173.7755584462
 10
150.9290656736
 20
173.7750388792
  0
LINE
  5
321
100
AcDbEntity
  8
RACCORDO
100
AcDbLine
 62
250
  6
CONTINUOUS
 10
83.2201400953
 20
173.8397234492
 11
83.290544396
 21
173.8399721392
  0
LINE
  5
322
100
AcDbEntity
  8
RACCORDO
100
AcDbLine
 62
250
  6
CONTINUOUS
 10
83.2201415882
 20
173.9022650062
 11
83.2905458089
 21
173.9025129257
  0
LINE
  5
323
100
AcDbEntity
  8
RACCORDO
100
AcDbLine
 62
250
  6
CONTINUOUS
 10
385.6835109302
 20
173.8171169571
 11
385.5745700277
 21
173.8171169571
  0
LINE
  5
324
100
AcDbEntity
  8
RACCORDO
100
AcDbLine
 62
250
  6
CONTINUOUS
 10
82.6835109302
 20
173.8171169571
 11
82.7924518327
 21
173.8171169571
  0
LINE
  5
325
100
AcDbEntity
  8
RACCORDO
100
AcDbLine
 62
250
  6
CONTINUOUS
 10
317.3393547307
 20
173.902512927
 11
293.0276671296
 21
173.902512927
  0
LINE
  5
326
100
AcDbEntity
  8
RACCORDO
100
AcDbLine
 62
250
  6
CONTINUOUS
 10
246.3393547307
 20
173.902512927
 11
222.0276671296
 21
173.902512927
  0
LINE
  5
327
100
AcDbEntity
  8
RACCORDO
100
AcDbLine
 62
250
  6
CONTINUOUS
 10
175.3393547307
 20
173.902512927
 11
151.0276671296
 21
173.902512927
  0
LINE
  5
328
100
AcDbEntity
  8
RACCORDO
100
AcDbLine
 62
250
  6
CONTINUOUS
 10
104.3393547307
 20
173.902512927
 11
83.2905458067
 21
173.9024685891
  0
LINE
  5
329
100
AcDbEntity
  8
RACCORDO
100
AcDbLine
 62
7
  6
CONTINUOUS
 10
363.0830015102
 20
174.0976973684
 11
318.2840203502
 21
174.0976973684
  0
LINE
  5
32A
100
AcDbEntity
  8
RACCORDO
100
AcDbLine
 62
7
  6
CONTINUOUS
 10
292.0830015102
 20
174.0976973684
 11
247.2840203502
 21
174.0976973684
  0
LINE
  5
32B
100
AcDbEntity
  8
RACCORDO
100
AcDbLine
 62
7
  6
CONTINUOUS
 10
221.0830015102
 20
174.0976973684
 11
176.2840203502
 21
174.0976973684
  0
LINE
  5
32C
100
AcDbEntity
  8
RACCORDO
100
AcDbLine
 62
7
  6
CONTINUOUS
 10
150.0830015102
 20
174.0976973684
 11
105.2840203502
 21
174.0976973684
  0
LINE
  5
32D
100
AcDbEntity
  8
RACCORDO
100
AcDbLine
 62
250
  6
CONTINUOUS
 10
105.2315813676
 20
174.1499995473
 11
150.1354404921
 21
174.1499995473
  0
LINE
  5
32E
100
AcDbEntity
  8
RACCORDO
100
AcDbLine
 62
250
  6
CONTINUOUS
 10
176.2315813676
 20
174.1499995473
 11
221.1354404921
 21
174.1499995473
  0
LINE
  5
32F
100
AcDbEntity
  8
RACCORDO
100
AcDbLine
 62
250
  6
CONTINUOUS
 10
247.2315813676
 20
174.1499995473
 11
292.1354404921
 21
174.1499995473
  0
LINE
  5
330
100
AcDbEntity
  8
RACCORDO
100
AcDbLine
 62
250
  6
CONTINUOUS
 10
318.2315813676
 20
174.1499995473
 11
363.1354404921
 21
174.1499995473
  0
LINE
  5
331
100
AcDbEntity
  8
RACCORDO
100
AcDbLine
 62
250
  6
CONTINUOUS
 10
105.2315809456
 20
174.6767333467
 11
150.1354409148
 21
174.6767333467
  0
LINE
  5
332
100
AcDbEntity
  8
RACCORDO
100
AcDbLine
 62
250
  6
CONTINUOUS
 10
176.2315809456
 20
174.6767333467
 11
221.1354409148
 21
174.6767333467
  0
LINE
  5
333
100
AcDbEntity
  8
RACCORDO
100
AcDbLine
 62
250
  6
CONTINUOUS
 10
247.2315809456
 20
174.6767333467
 11
292.1354409148
 21
174.6767333467
  0
LINE
  5
334
100
AcDbEntity
  8
RACCORDO
100
AcDbLine
 62
250
  6
CONTINUOUS
 10
318.2315809456
 20
174.6767333467
 11
363.1354409148
 21
174.6767333467
  0
LINE
  5
335
100
AcDbEntity
  8
RACCORDO
100
AcDbLine
 62
250
  6
CONTINUOUS
 10
104.3303495988
 20
173.7756235091
 11
104.4024012328
 21
173.7753632573
  0
LINE
  5
336
100
AcDbEntity
  8
RACCORDO
100
AcDbLine
 62
250
  6
CONTINUOUS
 10
175.3303495988
 20
173.7756235091
 11
175.4024012328
 21
173.7753632573
  0
LINE
  5
337
100
AcDbEntity
  8
RACCORDO
100
AcDbLine
 62
250
  6
CONTINUOUS
 10
246.3303495988
 20
173.7756235091
 11
246.4024012328
 21
173.7753632573
  0
LWPOLYLINE
  5
338
100
AcDbEntity
  8
RACCORDO
100
AcDbPolyline
 62
250
  6
CONTINUOUS
 90
3
 70
0
 10
317.3303495988
 20
173.7756235091
 10
317.4024012328
 20
173.7753632573
 10
317.4379561675
 20
173.7750388973
  0
LINE
  5
339
100
AcDbEntity
  8
RACCORDO
100
AcDbLine
 62
250
  6
CONTINUOUS
 10
385.1468817645
 20
173.8397234489
 11
385.0764774643
 21
173.8399721389
  0
LWPOLYLINE
  5
33A
100
AcDbEntity
  8
RACCORDO
100
AcDbPolyline
 62
250
  6
CONTINUOUS
 90
3
 70
0
 10
385.1468802745
 20
173.9022650075
 10
385.1117661728
 20
173.9024514517
 10
364.0276671296
 20
173.902512927
  0
LINE
  5
33B
100
AcDbEntity
  8
RACCORDO
100
AcDbLine
 62
250
  6
CONTINUOUS
 10
104.4024012328
 20
173.7753632573
 11
104.472948802
 21
173.7745870828
  0
LINE
  5
33C
100
AcDbEntity
  8
RACCORDO
100
AcDbLine
 62
250
  6
CONTINUOUS
 10
175.4024012328
 20
173.7753632573
 11
175.472948802
 21
173.7745870828
  0
LINE
  5
33D
100
AcDbEntity
  8
RACCORDO
100
AcDbLine
 62
250
  6
CONTINUOUS
 10
246.4024012328
 20
173.7753632573
 11
246.472948802
 21
173.7745870828
  0
LWPOLYLINE
  5
33E
100
AcDbEntity
  8
RACCORDO
100
AcDbPolyline
 62
250
  6
CONTINUOUS
 90
17
 70
0
 10
104.472948802
 20
173.7745870828
 10
104.5405196492
 20
173.7733111883
 10
104.5727447709
 20
173.7724937753
 10
104.6037032554
 20
173.7715622074
 10
104.6332333294
 20
173.7705213525
 10
104.6611806837
 20
173.7693766497
 10
104.6873992796
 20
173.7681340804
 10
104.7117521118
 20
173.7668001378
 10
104.734111925
 20
173.7653817924
 10
104.7543618779
 20
173.7638864557
 10
104.7723961547
 20
173.7623219416
 10
104.7881205172
 20
173.7606964255
 10
104.8014527981
 20
173.7590184014
 10
104.8123233294
 20
173.757296638
 10
104.8206753073
 20
173.7555401322
 10
104.8264650886
 20
173.7537580626
 10
104.8296624188
 20
173.7519597415
  0
LWPOLYLINE
  5
33F
100
AcDbEntity
  8
RACCORDO
100
AcDbPolyline
 62
250
  6
CONTINUOUS
 90
17
 70
0
 10
175.472948802
 20
173.7745870828
 10
175.5405196492
 20
173.7733111883
 10
175.5727447709
 20
173.7724937753
 10
175.6037032554
 20
173.7715622074
 10
175.6332333294
 20
173.7705213525
 10
175.6611806837
 20
173.7693766497
 10
175.6873992796
 20
173.7681340804
 10
175.7117521118
 20
173.7668001378
 10
175.734111925
 20
173.7653817924
 10
175.7543618779
 20
173.7638864557
 10
175.7723961547
 20
173.7623219416
 10
175.7881205172
 20
173.7606964255
 10
175.8014527981
 20
173.7590184014
 10
175.8123233294
 20
173.757296638
 10
175.8206753073
 20
173.7555401322
 10
175.8264650886
 20
173.7537580626
 10
175.8296624188
 20
173.7519597415
  0
LWPOLYLINE
  5
340
100
AcDbEntity
  8
RACCORDO
100
AcDbPolyline
 62
250
  6
CONTINUOUS
 90
17
 70
0
 10
246.472948802
 20
173.7745870828
 10
246.5405196492
 20
173.7733111883
 10
246.5727447709
 20
173.7724937753
 10
246.6037032554
 20
173.7715622074
 10
246.6332333294
 20
173.7705213525
 10
246.6611806837
 20
173.7693766497
 10
246.6873992796
 20
173.7681340804
 10
246.7117521118
 20
173.7668001378
 10
246.734111925
 20
173.7653817924
 10
246.7543618779
 20
173.7638864557
 10
246.7723961547
 20
173.7623219416
 10
246.7881205172
 20
173.7606964255
 10
246.8014527981
 20
173.7590184014
 10
246.8123233294
 20
173.757296638
 10
246.8206753073
 20
173.7555401322
 10
246.8264650886
 20
173.7537580626
 10
246.8296624188
 20
173.7519597415
  0
LWPOLYLINE
  5
341
100
AcDbEntity
  8
RACCORDO
100
AcDbPolyline
 62
250
  6
CONTINUOUS
 90
25
 70
0
 10
150.1354404906
 20
174.1499995458
 10
150.159386516
 20
174.1493728791
 10
150.1832351918
 20
174.1473301038
 10
150.2069025887
 20
174.1438810577
 10
150.230301664
 20
174.1390421506
 10
150.2533545676
 20
174.1328319803
 10
150.2759922037
 20
174.1252686074
 10
150.2981384754
 20
174.1163773384
 10
150.3197115559
 20
174.1061909178
 10
150.3406355017
 20
174.0947428985
 10
150.3608376351
 20
174.0820726915
 10
150.3802450003
 20
174.0682257842
 10
150.3987850961
 20
174.0532514443
 10
150.4163922445
 20
174.0372030766
 10
150.4330044914
 20
174.0201377208
 10
150.4485603962
 20
174.0021164756
 10
150.4630019886
 20
173.983208072
 10
150.4762823354
 20
173.9634759411
 10
150.4883605859
 20
173.9429767682
 10
150.4991982034
 20
173.921769105
 10
150.5087471306
 20
173.8999399133
 10
150.5169613318
 20
173.8775931183
 10
150.5238116493
 20
173.8548184474
 10
150.5292805369
 20
173.8316888337
 10
150.5333514843
 20
173.8082869548
  0
LWPOLYLINE
  5
342
100
AcDbEntity
  8
RACCORDO
100
AcDbPolyline
 62
250
  6
CONTINUOUS
 90
25
 70
0
 10
221.1354404906
 20
174.1499995458
 10
221.159386516
 20
174.1493728791
 10
221.1832351918
 20
174.1473301038
 10
221.2069025887
 20
174.1438810577
 10
221.230301664
 20
174.1390421506
 10
221.2533545676
 20
174.1328319803
 10
221.2759922037
 20
174.1252686074
 10
221.2981384754
 20
174.1163773384
 10
221.3197115559
 20
174.1061909178
 10
221.3406355017
 20
174.0947428985
 10
221.3608376351
 20
174.0820726915
 10
221.3802450003
 20
174.0682257842
 10
221.3987850961
 20
174.0532514443
 10
221.4163922445
 20
174.0372030766
 10
221.4330044914
 20
174.0201377208
 10
221.4485603962
 20
174.0021164756
 10
221.4630019886
 20
173.983208072
 10
221.4762823354
 20
173.9634759411
 10
221.4883605859
 20
173.9429767682
 10
221.4991982034
 20
173.921769105
 10
221.5087471306
 20
173.8999399133
 10
221.5169613318
 20
173.8775931183
 10
221.5238116493
 20
173.8548184474
 10
221.5292805369
 20
173.8316888337
 10
221.5333514843
 20
173.8082869548
  0
LWPOLYLINE
  5
343
100
AcDbEntity
  8
RACCORDO
100
AcDbPolyline
 62
250
  6
CONTINUOUS
 90
28
 70
0
 10
150.1354409148
 20
174.6767333467
 10
150.1833978429
 20
174.6754311193
 10
150.230934048
 20
174.6716449437
 10
150.2780495301
 20
174.6653748107
 10
150.3248657616
 20
174.6565895967
 10
150.3712612702
 20
174.6453203884
 10
150.4168716384
 20
174.631660484
 10
150.4616935984
 20
174.615592833
 10
150.5057304182
 20
174.5971344165
 10
150.5486274834
 20
174.5764295752
 10
150.5903838153
 20
174.5534558278
 10
150.6310003928
 20
174.5282355608
 10
150.6701255379
 20
174.5009804175
 10
150.7077444724
 20
174.4716729595
 10
150.7438719747
 20
174.4403305158
 10
150.7782007008
 20
174.4072168881
 10
150.8107161003
 20
174.3723141481
 10
150.8414327238
 20
174.3356401117
 10
150.8700868796
 20
174.2975122119
 10
150.8966530994
 20
174.2579352521
 10
150.9211568515
 20
174.216904327
 10
150.9434108497
 20
174.1747223262
 10
150.9634137135
 20
174.1313253239
 10
150.9811668234
 20
174.0867771584
 10
150.9964870344
 20
174.0415723968
 10
151.0093132983
 20
173.9958758876
 10
151.0197066634
 20
173.949522739
 10
151.0276671296
 20
173.902512927
  0
LWPOLYLINE
  5
344
100
AcDbEntity
  8
RACCORDO
100
AcDbPolyline
 62
250
  6
CONTINUOUS
 90
28
 70
0
 10
221.1354409148
 20
174.6767333467
 10
221.1833978429
 20
174.6754311193
 10
221.230934048
 20
174.6716449437
 10
221.2780495301
 20
174.6653748107
 10
221.3248657616
 20
174.6565895967
 10
221.3712612702
 20
174.6453203884
 10
221.4168716384
 20
174.631660484
 10
221.4616935984
 20
174.615592833
 10
221.5057304182
 20
174.5971344165
 10
221.5486274834
 20
174.5764295752
 10
221.5903838153
 20
174.5534558278
 10
221.6310003928
 20
174.5282355608
 10
221.6701255379
 20
174.5009804175
 10
221.7077444724
 20
174.4716729595
 10
221.7438719747
 20
174.4403305158
 10
221.7782007008
 20
174.4072168881
 10
221.8107161003
 20
174.3723141481
 10
221.8414327238
 20
174.3356401117
 10
221.8700868796
 20
174.2975122119
 10
221.8966530994
 20
174.2579352521
 10
221.9211568515
 20
174.216904327
 10
221.9434108497
 20
174.1747223262
 10
221.9634137135
 20
174.1313253239
 10
221.9811668234
 20
174.0867771584
 10
221.9964870344
 20
174.0415723968
 10
222.0093132983
 20
173.9958758876
 10
222.0197066634
 20
173.949522739
 10
222.0276671296
 20
173.902512927
  0
LINE
  5
345
100
AcDbEntity
  8
RACCORDO
100
AcDbLine
 62
250
  6
CONTINUOUS
 10
175.3393547307
 20
173.9025126579
 11
175.4106951303
 21
173.8920873536
  0
LINE
  5
346
100
AcDbEntity
  8
RACCORDO
100
AcDbLine
 62
250
  6
CONTINUOUS
 10
175.4106951303
 20
173.8920873536
 11
175.4805459654
 21
173.88135527
  0
LWPOLYLINE
  5
347
100
AcDbEntity
  8
RACCORDO
100
AcDbPolyline
 62
250
  6
CONTINUOUS
 90
17
 70
0
 10
175.4805459654
 20
173.88135527
 10
175.5474486646
 20
173.8705405063
 10
175.5793546834
 20
173.8651727515
 10
175.6100062169
 20
173.859868888
 10
175.6392430452
 20
173.8546566396
 10
175.6669123434
 20
173.8495632515
 10
175.6928694802
 20
173.8446153477
 10
175.716978774
 20
173.8398387914
 10
175.7391142023
 20
173.8352585504
 10
175.7591600599
 20
173.8308985661
 10
175.7770115646
 20
173.826781629
 10
175.7925754039
 20
173.8229292587
 10
175.8057702234
 20
173.8193615921
 10
175.8165270522
 20
173.8160972779
 10
175.8247896626
 20
173.8131533792
 10
175.8305148649
 20
173.810545284
 10
175.8336727326
 20
173.8082866253
  0
LINE
  5
348
100
AcDbEntity
  8
RACCORDO
100
AcDbLine
 62
250
  6
CONTINUOUS
 10
292.0830015102
 20
174.0976973684
 11
292.1354404921
 21
174.1499995473
  0
LINE
  5
349
100
AcDbEntity
  8
RACCORDO
100
AcDbLine
 62
250
  6
CONTINUOUS
 10
246.8296626478
 20
128.8434347739
 11
246.8835109222
 21
128.8971398338
  0
LINE
  5
34A
100
AcDbEntity
  8
RACCORDO
100
AcDbLine
 62
250
  6
CONTINUOUS
 10
292.4835109381
 20
173.698254903
 11
292.5373592124
 21
173.7519596488
  0
LINE
  5
34B
100
AcDbEntity
  8
RACCORDO
100
AcDbLine
 62
250
  6
CONTINUOUS
 10
247.2315812653
 20
128.4453951896
 11
247.2840203502
 21
128.4976973684
  0
LWPOLYLINE
  5
34C
100
AcDbEntity
  8
RACCORDO
100
AcDbPolyline
 62
250
  6
CONTINUOUS
 90
15
 70
0
 10
221.7876676132
 20
173.8651729
 10
221.7570161747
 20
173.8598690408
 10
221.727779444
 20
173.8546567978
 10
221.7001102442
 20
173.8495634156
 10
221.674153205
 20
173.8446155179
 10
221.6500440063
 20
173.8398389679
 10
221.6279086691
 20
173.835258733
 10
221.607862897
 20
173.8308987546
 10
221.5900114712
 20
173.8267818227
 10
221.5744477027
 20
173.8229294568
 10
221.561252945
 20
173.8193617937
 10
221.5504961682
 20
173.8160974818
 10
221.542233599
 20
173.8131535841
 10
221.5365084268
 20
173.8105454886
 10
221.5333505774
 20
173.808286828
  0
LINE
  5
34D
100
AcDbEntity
  8
RACCORDO
100
AcDbLine
 62
250
  6
CONTINUOUS
 10
221.8525671842
 20
173.8759442372
 11
221.7876676132
 21
173.8651729
  0
LINE
  5
34E
100
AcDbEntity
  8
RACCORDO
100
AcDbLine
 62
250
  6
CONTINUOUS
 10
221.921122985
 20
173.8867458925
 11
221.8525671842
 21
173.8759442372
  0
LWPOLYLINE
  5
34F
100
AcDbEntity
  8
RACCORDO
100
AcDbPolyline
 62
250
  6
CONTINUOUS
 90
3
 70
0
 10
222.0276671296
 20
173.9025128185
 10
221.9919034979
 20
173.8973523159
 10
221.921122985
 20
173.8867458925
  0
LWPOLYLINE
  5
350
100
AcDbEntity
  8
RACCORDO
100
AcDbPolyline
 62
250
  6
CONTINUOUS
 90
3
 70
0
 10
151.0276671296
 20
173.9025128185
 10
150.9919034979
 20
173.8973523159
 10
150.921122985
 20
173.8867458925
  0
LWPOLYLINE
  5
351
100
AcDbEntity
  8
RACCORDO
100
AcDbPolyline
 62
7
  6
CONTINUOUS
 90
25
 70
0
 10
176.2840203502
 20
174.0976973684
 10
176.2577025471
 20
174.0968147165
 10
176.231719964
 20
174.0942689499
 10
176.2060726007
 20
174.090060067
 10
176.1806594271
 20
174.0841584545
 10
176.1555814734
 20
174.0765937199
 10
176.13114183
 20
174.0674546925
 10
176.1073591474
 20
174.0567378888
 10
176.084214775
 20
174.0444467816
 10
176.0619558513
 20
174.030680633
 10
176.0405518243
 20
174.0153920422
 10
176.020033246
 20
173.9986283953
 10
176.000738911
 20
173.980631135
 10
175.9826939052
 20
173.9613602066
 10
175.9658731427
 20
173.9408556491
 10
175.9505401605
 20
173.9194790485
 10
175.9367520507
 20
173.8972680325
 10
175.9244517212
 20
173.8741849608
 10
175.9137314337
 20
173.8504785222
 10
175.9045946897
 20
173.8261349969
 10
175.8970379877
 20
173.8011680945
 10
175.8911430843
 20
173.7758676522
 10
175.8869372317
 20
173.7503302816
 10
175.8843931777
 20
173.7244593662
 10
175.8835109222
 20
173.698254903
  0
LWPOLYLINE
  5
352
100
AcDbEntity
  8
RACCORDO
100
AcDbPolyline
 62
7
  6
CONTINUOUS
 90
25
 70
0
 10
105.2840203502
 20
174.0976973684
 10
105.2577025471
 20
174.0968147165
 10
105.231719964
 20
174.0942689499
 10
105.2060726007
 20
174.090060067
 10
105.1806594271
 20
174.0841584545
 10
105.1555814734
 20
174.0765937199
 10
105.13114183
 20
174.0674546925
 10
105.1073591474
 20
174.0567378888
 10
105.084214775
 20
174.0444467816
 10
105.0619558513
 20
174.030680633
 10
105.0405518243
 20
174.0153920422
 10
105.020033246
 20
173.9986283953
 10
105.000738911
 20
173.980631135
 10
104.9826939052
 20
173.9613602066
 10
104.9658731427
 20
173.9408556491
 10
104.9505401605
 20
173.9194790485
 10
104.9367520507
 20
173.8972680325
 10
104.9244517212
 20
173.8741849608
 10
104.9137314337
 20
173.8504785222
 10
104.9045946897
 20
173.8261349969
 10
104.8970379877
 20
173.8011680945
 10
104.8911430843
 20
173.7758676522
 10
104.8869372317
 20
173.7503302816
 10
104.8843931777
 20
173.7244593662
 10
104.8835109222
 20
173.698254903
  0
LWPOLYLINE
  5
353
100
AcDbEntity
  8
RACCORDO
100
AcDbPolyline
 62
250
  6
CONTINUOUS
 90
16
 70
0
 10
150.8265021558
 20
173.7733111752
 10
150.7942770198
 20
173.7724937637
 10
150.7633185202
 20
173.7715621972
 10
150.7337884307
 20
173.7705213437
 10
150.7058410609
 20
173.769376642
 10
150.6796224496
 20
173.7681340739
 10
150.6552696023
 20
173.7668001323
 10
150.6329097749
 20
173.7653817878
 10
150.6126598085
 20
173.763886452
 10
150.5946255193
 20
173.7623219387
 10
150.5789011457
 20
173.7606964232
 10
150.5655688553
 20
173.7590183999
 10
150.5546983159
 20
173.757296637
 10
150.5463463317
 20
173.7555401317
 10
150.5405565458
 20
173.7537580627
 10
150.5373592129
 20
173.7519597421
  0
LINE
  5
354
100
AcDbEntity
  8
RACCORDO
100
AcDbLine
 62
250
  6
CONTINUOUS
 10
83.0532603116
 20
173.8369748704
 11
83.1175955975
 21
173.838428152
  0
LINE
  5
355
100
AcDbEntity
  8
RACCORDO
100
AcDbLine
 62
250
  6
CONTINUOUS
 10
83.0532619735
 20
173.8995122682
 11
83.1175972
 21
173.9009682445
  0
LWPOLYLINE
  5
356
100
AcDbEntity
  8
RACCORDO
100
AcDbPolyline
 62
250
  6
CONTINUOUS
 90
3
 70
0
 10
150.9290656736
 20
173.7750388792
 10
150.8940730285
 20
173.7745870666
 10
150.8265021558
 20
173.7733111752
  0
LWPOLYLINE
  5
357
100
AcDbEntity
  8
RACCORDO
100
AcDbPolyline
 62
250
  6
CONTINUOUS
 90
3
 70
0
 10
83.1175955975
 20
173.838428152
 10
83.1853771177
 20
173.8394131054
 10
83.2201400953
 20
173.8397234492
  0
LWPOLYLINE
  5
358
100
AcDbEntity
  8
RACCORDO
100
AcDbPolyline
 62
250
  6
CONTINUOUS
 90
3
 70
0
 10
83.1175972
 20
173.9009682445
 10
83.1853786491
 20
173.9019545229
 10
83.2201415882
 20
173.9022650062
  0
LINE
  5
359
100
AcDbEntity
  8
RACCORDO
100
AcDbLine
 62
250
  6
CONTINUOUS
 10
385.2158831656
 20
173.8389806203
 11
385.1468817645
 21
173.8397234489
  0
LINE
  5
35A
100
AcDbEntity
  8
RACCORDO
100
AcDbLine
 62
250
  6
CONTINUOUS
 10
385.2158816031
 20
173.9015215503
 11
385.1468802745
 21
173.9022650075
  0
LWPOLYLINE
  5
35B
100
AcDbEntity
  8
RACCORDO
100
AcDbPolyline
 62
250
  6
CONTINUOUS
 90
18
 70
0
 10
317.4379561675
 20
173.7750388973
 10
317.5071962826
 20
173.774010175
 10
317.5405196492
 20
173.7733111883
 10
317.5727447709
 20
173.7724937753
 10
317.6037032554
 20
173.7715622074
 10
317.6332333294
 20
173.7705213525
 10
317.6611806837
 20
173.7693766497
 10
317.6873992796
 20
173.7681340804
 10
317.7117521118
 20
173.7668001378
 10
317.734111925
 20
173.7653817924
 10
317.7543618779
 20
173.7638864557
 10
317.7723961547
 20
173.7623219416
 10
317.7881205172
 20
173.7606964255
 10
317.8014527981
 20
173.7590184014
 10
317.8123233294
 20
173.757296638
 10
317.8206753073
 20
173.7555401322
 10
317.8264650886
 20
173.7537580626
 10
317.8296624188
 20
173.7519597415
  0
LWPOLYLINE
  5
35C
100
AcDbEntity
  8
RACCORDO
100
AcDbPolyline
 62
250
  6
CONTINUOUS
 90
25
 70
0
 10
292.1354404906
 20
174.1499995458
 10
292.159386516
 20
174.1493728791
 10
292.1832351918
 20
174.1473301038
 10
292.2069025887
 20
174.1438810577
 10
292.230301664
 20
174.1390421506
 10
292.2533545676
 20
174.1328319803
 10
292.2759922037
 20
174.1252686074
 10
292.2981384754
 20
174.1163773384
 10
292.3197115559
 20
174.1061909178
 10
292.3406355017
 20
174.0947428985
 10
292.3608376351
 20
174.0820726915
 10
292.3802450003
 20
174.0682257842
 10
292.3987850961
 20
174.0532514443
 10
292.4163922445
 20
174.0372030766
 10
292.4330044914
 20
174.0201377208
 10
292.4485603962
 20
174.0021164756
 10
292.4630019886
 20
173.983208072
 10
292.4762823354
 20
173.9634759411
 10
292.4883605859
 20
173.9429767682
 10
292.4991982034
 20
173.921769105
 10
292.5087471306
 20
173.8999399133
 10
292.5169613318
 20
173.8775931183
 10
292.5238116493
 20
173.8548184474
 10
292.5292805369
 20
173.8316888337
 10
292.5333514843
 20
173.8082869548
  0
LWPOLYLINE
  5
35D
100
AcDbEntity
  8
RACCORDO
100
AcDbPolyline
 62
250
  6
CONTINUOUS
 90
25
 70
0
 10
363.1354404906
 20
174.1499995458
 10
363.159386516
 20
174.1493728791
 10
363.1832351918
 20
174.1473301038
 10
363.2069025887
 20
174.1438810577
 10
363.230301664
 20
174.1390421506
 10
363.2533545676
 20
174.1328319803
 10
363.2759922037
 20
174.1252686074
 10
363.2981384754
 20
174.1163773384
 10
363.3197115559
 20
174.1061909178
 10
363.3406355017
 20
174.0947428985
 10
363.3608376351
 20
174.0820726915
 10
363.3802450003
 20
174.0682257842
 10
363.3987850961
 20
174.0532514443
 10
363.4163922445
 20
174.0372030766
 10
363.4330044914
 20
174.0201377208
 10
363.4485603962
 20
174.0021164756
 10
363.4630019886
 20
173.983208072
 10
363.4762823354
 20
173.9634759411
 10
363.4883605859
 20
173.9429767682
 10
363.4991982034
 20
173.921769105
 10
363.5087471306
 20
173.8999399133
 10
363.5169613318
 20
173.8775931183
 10
363.5238116493
 20
173.8548184474
 10
363.5292805369
 20
173.8316888337
 10
363.5333514843
 20
173.8082869548
  0
LWPOLYLINE
  5
35E
100
AcDbEntity
  8
RACCORDO
100
AcDbPolyline
 62
250
  6
CONTINUOUS
 90
28
 70
0
 10
292.1354409148
 20
174.6767333467
 10
292.1833978429
 20
174.6754311193
 10
292.230934048
 20
174.6716449437
 10
292.2780495301
 20
174.6653748107
 10
292.3248657616
 20
174.6565895967
 10
292.3712612702
 20
174.6453203884
 10
292.4168716384
 20
174.631660484
 10
292.4616935984
 20
174.615592833
 10
292.5057304182
 20
174.5971344165
 10
292.5486274834
 20
174.5764295752
 10
292.5903838153
 20
174.5534558278
 10
292.6310003928
 20
174.5282355608
 10
292.6701255379
 20
174.5009804175
 10
292.7077444724
 20
174.4716729595
 10
292.7438719747
 20
174.4403305158
 10
292.7782007008
 20
174.4072168881
 10
292.8107161003
 20
174.3723141481
 10
292.8414327238
 20
174.3356401117
 10
292.8700868796
 20
174.2975122119
 10
292.8966530994
 20
174.2579352521
 10
292.9211568515
 20
174.216904327
 10
292.9434108497
 20
174.1747223262
 10
292.9634137135
 20
174.1313253239
 10
292.9811668234
 20
174.0867771584
 10
292.9964870344
 20
174.0415723968
 10
293.0093132983
 20
173.9958758876
 10
293.0197066634
 20
173.949522739
 10
293.0276671296
 20
173.902512927
  0
LWPOLYLINE
  5
35F
100
AcDbEntity
  8
RACCORDO
100
AcDbPolyline
 62
250
  6
CONTINUOUS
 90
28
 70
0
 10
363.1354409148
 20
174.6767333467
 10
363.1833978429
 20
174.6754311193
 10
363.230934048
 20
174.6716449437
 10
363.2780495301
 20
174.6653748107
 10
363.3248657616
 20
174.6565895967
 10
363.3712612702
 20
174.6453203884
 10
363.4168716384
 20
174.631660484
 10
363.4616935984
 20
174.615592833
 10
363.5057304182
 20
174.5971344165
 10
363.5486274834
 20
174.5764295752
 10
363.5903838153
 20
174.5534558278
 10
363.6310003928
 20
174.5282355608
 10
363.6701255379
 20
174.5009804175
 10
363.7077444724
 20
174.4716729595
 10
363.7438719747
 20
174.4403305158
 10
363.7782007008
 20
174.4072168881
 10
363.8107161003
 20
174.3723141481
 10
363.8414327238
 20
174.3356401117
 10
363.8700868796
 20
174.2975122119
 10
363.8966530994
 20
174.2579352521
 10
363.9211568515
 20
174.216904327
 10
363.9434108497
 20
174.1747223262
 10
363.9634137135
 20
174.1313253239
 10
363.9811668234
 20
174.0867771584
 10
363.9964870344
 20
174.0415723968
 10
364.0093132983
 20
173.9958758876
 10
364.0197066634
 20
173.949522739
 10
364.0276671296
 20
173.902512927
  0
LINE
  5
360
100
AcDbEntity
  8
RACCORDO
100
AcDbLine
 62
250
  6
CONTINUOUS
 10
317.3393547307
 20
173.9025126579
 11
317.3751183874
 21
173.8973521633
  0
LINE
  5
361
100
AcDbEntity
  8
RACCORDO
100
AcDbLine
 62
250
  6
CONTINUOUS
 10
246.3393547307
 20
173.9025126579
 11
246.4106951303
 21
173.8920873536
  0
LINE
  5
362
100
AcDbEntity
  8
RACCORDO
100
AcDbLine
 62
250
  6
CONTINUOUS
 10
246.4106951303
 20
173.8920873536
 11
246.4805459654
 21
173.88135527
  0
LWPOLYLINE
  5
363
100
AcDbEntity
  8
RACCORDO
100
AcDbPolyline
 62
250
  6
CONTINUOUS
 90
17
 70
0
 10
246.4805459654
 20
173.88135527
 10
246.5474486646
 20
173.8705405063
 10
246.5793546834
 20
173.8651727515
 10
246.6100062169
 20
173.859868888
 10
246.6392430452
 20
173.8546566396
 10
246.6669123434
 20
173.8495632515
 10
246.6928694802
 20
173.8446153477
 10
246.716978774
 20
173.8398387914
 10
246.7391142023
 20
173.8352585504
 10
246.7591600599
 20
173.8308985661
 10
246.7770115646
 20
173.826781629
 10
246.7925754039
 20
173.8229292587
 10
246.8057702234
 20
173.8193615921
 10
246.8165270522
 20
173.8160972779
 10
246.8247896626
 20
173.8131533792
 10
246.8305148649
 20
173.810545284
 10
246.8336727326
 20
173.8082866253
  0
LINE
  5
364
100
AcDbEntity
  8
RACCORDO
100
AcDbLine
 62
250
  6
CONTINUOUS
 10
292.1354403133
 20
128.4453951896
 11
292.0830015102
 21
128.4976973684
  0
LINE
  5
365
100
AcDbEntity
  8
RACCORDO
100
AcDbLine
 62
250
  6
CONTINUOUS
 10
246.829662648
 20
173.7519596452
 11
246.8835109222
 21
173.698254903
  0
LINE
  5
366
100
AcDbEntity
  8
RACCORDO
100
AcDbLine
 62
250
  6
CONTINUOUS
 10
292.5373592123
 20
128.8434351109
 11
292.4835109381
 21
128.8971398338
  0
LINE
  5
367
100
AcDbEntity
  8
RACCORDO
100
AcDbLine
 62
250
  6
CONTINUOUS
 10
247.2315813676
 20
174.1499995473
 11
247.2840203502
 21
174.0976973684
  0
LWPOLYLINE
  5
368
100
AcDbEntity
  8
RACCORDO
100
AcDbPolyline
 62
250
  6
CONTINUOUS
 90
15
 70
0
 10
150.7876676132
 20
173.8651729
 10
150.7570161747
 20
173.8598690408
 10
150.727779444
 20
173.8546567978
 10
150.7001102442
 20
173.8495634156
 10
150.674153205
 20
173.8446155179
 10
150.6500440063
 20
173.8398389679
 10
150.6279086691
 20
173.835258733
 10
150.607862897
 20
173.8308987546
 10
150.5900114712
 20
173.8267818227
 10
150.5744477027
 20
173.8229294568
 10
150.561252945
 20
173.8193617937
 10
150.5504961682
 20
173.8160974818
 10
150.542233599
 20
173.8131535841
 10
150.5365084268
 20
173.8105454886
 10
150.5333505774
 20
173.808286828
  0
LINE
  5
369
100
AcDbEntity
  8
RACCORDO
100
AcDbLine
 62
250
  6
CONTINUOUS
 10
150.8525671842
 20
173.8759442372
 11
150.7876676132
 21
173.8651729
  0
LINE
  5
36A
100
AcDbEntity
  8
RACCORDO
100
AcDbLine
 62
250
  6
CONTINUOUS
 10
150.921122985
 20
173.8867458925
 11
150.8525671842
 21
173.8759442372
  0
LINE
  5
36B
100
AcDbEntity
  8
RACCORDO
100
AcDbLine
 62
250
  6
CONTINUOUS
 10
83.5863262304
 20
195.7690848608
 11
384.7806956299
 21
195.7690848608
  0
LINE
  5
36C
100
AcDbEntity
  8
RACCORDO
100
AcDbLine
 62
250
  6
CONTINUOUS
 10
83.5863262304
 20
196.1770334686
 11
384.7806956299
 21
196.1770334686
  0
LINE
  5
36D
100
AcDbEntity
  8
RACCORDO
100
AcDbLine
 62
7
  6
CONTINUOUS
 10
83.4835109302
 20
196.2976973684
 11
384.8835109302
 21
196.2976973684
  0
LINE
  5
36E
100
AcDbEntity
  8
RACCORDO
100
AcDbLine
 62
250
  6
CONTINUOUS
 10
317.3751183874
 20
173.8973521633
 11
317.4458989948
 21
173.8867457488
  0
LINE
  5
36F
100
AcDbEntity
  8
RACCORDO
100
AcDbLine
 62
250
  6
CONTINUOUS
 10
317.4458989948
 20
173.8867457488
 11
317.5144549377
 21
173.8759440942
  0
LWPOLYLINE
  5
370
100
AcDbEntity
  8
RACCORDO
100
AcDbPolyline
 62
250
  6
CONTINUOUS
 90
16
 70
0
 10
317.5144549377
 20
173.8759440942
 10
317.5793546834
 20
173.8651727515
 10
317.6100062169
 20
173.859868888
 10
317.6392430452
 20
173.8546566396
 10
317.6669123434
 20
173.8495632515
 10
317.6928694802
 20
173.8446153477
 10
317.716978774
 20
173.8398387914
 10
317.7391142023
 20
173.8352585504
 10
317.7591600599
 20
173.8308985661
 10
317.7770115646
 20
173.826781629
 10
317.7925754039
 20
173.8229292587
 10
317.8057702234
 20
173.8193615921
 10
317.8165270522
 20
173.8160972779
 10
317.8247896626
 20
173.8131533792
 10
317.8305148649
 20
173.810545284
 10
317.8336727326
 20
173.8082866253
  0
LWPOLYLINE
  5
371
100
AcDbEntity
  8
RACCORDO
100
AcDbPolyline
 62
250
  6
CONTINUOUS
 90
28
 70
0
 10
384.7806956299
 20
195.7690848608
 10
384.7979587917
 20
195.7685731157
 10
384.8150387308
 20
195.76707448
 10
384.8319354472
 20
195.7645889486
 10
384.848703337
 20
195.761102967
 10
384.8652880042
 20
195.7566300702
 10
384.8815262608
 20
195.751210883
 10
384.8974160789
 20
195.744835081
 10
384.9129594865
 20
195.7375129514
 10
384.9279993805
 20
195.7293160351
 10
384.9425288083
 20
195.7202364541
 10
384.9565547226
 20
195.7102820361
 10
384.9699408776
 20
195.6995478815
 10
384.9826816256
 20
195.6880263159
 10
384.9947826144
 20
195.675724956
 10
385.006124542
 20
195.6627618439
 10
385.0167003296
 20
195.6491304942
 10
385.0265170559
 20
195.6348373339
 10
385.0354766556
 20
195.620019783
 10
385.0435715175
 20
195.6046697509
 10
385.0508092528
 20
195.5887952758
 10
385.0571146288
 20
195.5725579842
 10
385.0624771179
 20
195.5559558607
 10
385.0669072477
 20
195.5389908816
 10
385.0703613684
 20
195.5218306783
 10
385.0728249301
 20
195.5045311248
 10
385.0743124827
 20
195.4870363273
 10
385.0748240261
 20
195.469346275
  0
LWPOLYLINE
  5
372
100
AcDbEntity
  8
RACCORDO
100
AcDbPolyline
 62
250
  6
CONTINUOUS
 90
28
 70
0
 10
384.7806956299
 20
196.1770334686
 10
384.8263838576
 20
196.1755053728
 10
384.8718903139
 20
196.1713518541
 10
384.9170665914
 20
196.1645882875
 10
384.9617567316
 20
196.1552406379
 10
385.0058240477
 20
196.1433399039
 10
385.0491502919
 20
196.1289170494
 10
385.091605228
 20
196.1120106026
 10
385.133035816
 20
196.0926770623
 10
385.1732932164
 20
196.0709842333
 10
385.2122390486
 20
196.0470057342
 10
385.2497513257
 20
196.020816372
 10
385.2857123851
 20
195.9924981831
 10
385.3200033004
 20
195.9621411822
 10
385.3525092904
 20
195.9298438162
 10
385.3831258058
 20
195.8957095463
 10
385.4117495312
 20
195.8598481658
 10
385.4382842496
 20
195.8223752102
 10
385.4626445712
 20
195.7834105898
 10
385.4847502952
 20
195.7430727251
 10
385.5045208305
 20
195.7014987388
 10
385.5218834386
 20
195.6588446405
 10
385.5367737526
 20
195.6152698163
 10
385.5491504533
 20
195.5708977006
 10
385.5589833831
 20
195.525834342
 10
385.5662350043
 20
195.4802124935
 10
385.5708684599
 20
195.4341933667
 10
385.5728600449
 20
195.3879273317
  0
LWPOLYLINE
  5
373
100
AcDbEntity
  8
RACCORDO
100
AcDbPolyline
 62
7
  6
CONTINUOUS
 90
25
 70
0
 10
292.4835109381
 20
173.698254903
 10
292.4826286829
 20
173.7244593605
 10
292.48008463
 20
173.7503302702
 10
292.4758787795
 20
173.7758676348
 10
292.4699838799
 20
173.8011680695
 10
292.4624271826
 20
173.8261349641
 10
292.4532904416
 20
173.850478486
 10
292.4425701551
 20
173.8741849276
 10
292.430269825
 20
173.8972680065
 10
292.4164817104
 20
173.9194790325
 10
292.4011487146
 20
173.9408556493
 10
292.3843279345
 20
173.9613602258
 10
292.3662829204
 20
173.9806311638
 10
292.3469885951
 20
173.9986284159
 10
292.3264700359
 20
174.0153920452
 10
292.3050660248
 20
174.0306806225
 10
292.2828071102
 20
174.044446767
 10
292.2596627438
 20
174.0567378742
 10
292.2358800617
 20
174.0674546795
 10
292.2114404099
 20
174.0765937107
 10
292.1863624425
 20
174.0841584507
 10
292.1609492589
 20
174.0900600671
 10
292.1353018922
 20
174.0942689514
 10
292.1093193093
 20
174.0968147181
 10
292.0830015102
 20
174.0976973684
  0
LINE
  5
374
100
AcDbEntity
  8
RACCORDO
100
AcDbLine
 62
250
  6
CONTINUOUS
 10
292.1354409148
 20
174.6767333467
 11
292.1354409148
 21
174.1499995473
  0
LINE
  5
375
100
AcDbEntity
  8
RACCORDO
100
AcDbLine
 62
250
  6
CONTINUOUS
 10
292.1354409148
 20
127.9186613902
 11
292.1354409148
 21
128.4453951896
  0
LINE
  5
376
100
AcDbEntity
  8
RACCORDO
100
AcDbLine
 62
7
  6
CONTINUOUS
 10
292.4835109381
 20
128.8971398338
 11
292.4835109381
 21
173.698254903
  0
LINE
  5
377
100
AcDbEntity
  8
RACCORDO
100
AcDbLine
 62
250
  6
CONTINUOUS
 10
292.5373592124
 20
173.7519596488
 11
292.5373592123
 21
128.8434351109
  0
LINE
  5
378
100
AcDbEntity
  8
RACCORDO
100
AcDbLine
 62
250
  6
CONTINUOUS
 10
293.0366722615
 20
173.7756234859
 11
293.0366722615
 21
128.819771251
  0
LWPOLYLINE
  5
379
100
AcDbEntity
  8
RACCORDO
100
AcDbPolyline
 62
250
  6
CONTINUOUS
 90
7
 70
0
 10
292.5373592124
 20
128.8434351109
 10
292.5372488307
 20
128.8340082223
 10
292.5369148084
 20
128.8245899696
 10
292.5363575118
 20
128.8151855874
 10
292.5355774305
 20
128.8058002962
 10
292.5345751767
 20
128.7964392997
 10
292.5333514843
 20
128.787107782
  0
LWPOLYLINE
  5
37A
100
AcDbEntity
  8
RACCORDO
100
AcDbPolyline
 62
250
  6
CONTINUOUS
 90
7
 70
0
 10
293.0366722615
 20
128.819771251
 10
293.03641527
 20
128.7984557687
 10
293.035660733
 20
128.7772071839
 10
293.0344086505
 20
128.756025496
 10
293.0326590224
 20
128.7349107047
 10
293.0304118488
 20
128.7138628094
 10
293.0276671296
 20
128.6928818099
  0
LWPOLYLINE
  5
37B
100
AcDbEntity
  8
RACCORDO
100
AcDbPolyline
 62
250
  6
CONTINUOUS
 90
25
 70
0
 10
293.0276671296
 20
128.6928818099
 10
293.0184901464
 20
128.639869076
 10
293.0062646677
 20
128.5877911148
 10
292.9909906937
 20
128.5366478871
 10
292.9725824151
 20
128.4862326001
 10
292.9511256411
 20
128.4367519755
 10
292.9268777992
 20
128.388826218
 10
292.899823035
 20
128.342513844
 10
292.8699772028
 20
128.2977562065
 10
292.8376452933
 20
128.2549977202
 10
292.8027962401
 20
128.2142490329
 10
292.7654611097
 20
128.1754993441
 10
292.7260380924
 20
128.139160866
 10
292.6845035958
 20
128.1052594759
 10
292.6408812123
 20
128.0737691371
 10
292.5956399097
 20
128.0450241729
 10
292.5487660258
 20
128.0190559439
 10
292.5002732227
 20
127.9958329452
 10
292.4506714537
 20
127.9755951968
 10
292.3999585383
 20
127.958373594
 10
292.348136657
 20
127.9441371326
 10
292.2957223046
 20
127.9330329891
 10
292.2428876458
 20
127.9251102018
 10
292.1894605159
 20
127.9203196738
 10
292.1354409148
 20
127.9186613902
  0
LWPOLYLINE
  5
37C
100
AcDbEntity
  8
RACCORDO
100
AcDbPolyline
 62
250
  6
CONTINUOUS
 90
25
 70
0
 10
292.5333514843
 20
128.787107782
 10
292.5292797283
 20
128.7637019772
 10
292.5238099018
 20
128.7405697944
 10
292.5169587472
 20
128.7177938869
 10
292.5087442604
 20
128.6954476941
 10
292.4991956608
 20
128.6736202798
 10
292.4883583267
 20
128.6524138784
 10
292.4762797518
 20
128.6319147184
 10
292.4629987796
 20
128.6121822106
 10
292.4485567529
 20
128.5932737911
 10
292.4330010005
 20
128.575253222
 10
292.4163892499
 20
128.558188776
 10
292.3987825215
 20
128.5421410967
 10
292.3802424753
 20
128.527167048
 10
292.3608349984
 20
128.5133202923
 10
292.3406328926
 20
128.500650319
 10
292.3197093155
 20
128.4892026878
 10
292.2981367775
 20
128.4790166656
 10
292.2759909854
 20
128.470125689
 10
292.2533536509
 20
128.4625624869
 10
292.2303009594
 20
128.4563524249
 10
292.2069020609
 20
128.4515135917
 10
292.1832348222
 20
128.4480645943
 10
292.1593862632
 20
128.4460218457
 10
292.1354403113
 20
128.4453951916
  0
LWPOLYLINE
  5
37D
100
AcDbEntity
  8
0
100
AcDbPolyline
 62
7
  6
CONTINUOUS
 90
6
 70
0
 43
0.3499999917
 10
230.8620849609
 20
216.853359375
 10
231.933515625
 20
216.853359375
 10
232.1477966309
 20
217.0676403809
 10
232.1477966309
 20
218.1390710449
 10
231.7192346191
 20
218.5676330566
 10
231.2906469727
 20
218.5676330566
  0
LWPOLYLINE
  5
37E
100
AcDbEntity
  8
0
100
AcDbPolyline
 62
7
  6
CONTINUOUS
 90
6
 70
0
 43
0.3499999917
 10
235.362088623
 20
216.853359375
 10
236.4335192871
 20
216.853359375
 10
236.647800293
 20
217.0676403809
 10
236.647800293
 20
218.1390710449
 10
236.2192126465
 20
218.5676330566
 10
235.7906506348
 20
218.5676330566
  0
LWPOLYLINE
  5
37F
100
AcDbEntity
  8
RACCORDO
100
AcDbPolyline
 62
250
  6
CONTINUOUS
 90
7
 70
0
 10
292.5333514843
 20
173.8082869548
 10
292.5345751979
 20
173.7989552586
 10
292.5355774576
 20
173.7895941559
 10
292.5363575345
 20
173.7802088314
 10
292.5369148216
 20
173.7708044892
 10
292.5372488347
 20
173.7613863502
 10
292.5373592124
 20
173.7519596489
  0
LWPOLYLINE
  5
380
100
AcDbEntity
  8
RACCORDO
100
AcDbPolyline
 62
250
  6
CONTINUOUS
 90
7
 70
0
 10
293.0276671296
 20
173.902512927
 10
293.0304116016
 20
173.881536118
 10
293.0326586269
 20
173.8604907371
 10
293.0344082055
 20
173.8393767839
 10
293.0356603375
 20
173.8181942579
 10
293.0364150229
 20
173.7969431587
 10
293.0366722615
 20
173.7756234859
  0
LWPOLYLINE
  5
381
100
AcDbEntity
  8
RACCORDO
100
AcDbPolyline
 62
250
  6
CONTINUOUS
 90
28
 70
0
 10
317.3393547307
 20
173.902512927
 10
317.3473151939
 20
173.949522733
 10
317.3577085572
 20
173.9958758777
 10
317.3705348204
 20
174.0415723851
 10
317.3858550324
 20
174.0867771479
 10
317.4036081443
 20
174.1313253166
 10
317.4236110099
 20
174.1747223221
 10
317.4458650089
 20
174.2169043252
 10
317.4703687615
 20
174.2579352526
 10
317.4969349819
 20
174.2975122141
 10
317.5255891388
 20
174.3356401152
 10
317.5563057636
 20
174.3723141523
 10
317.5888211642
 20
174.4072168928
 10
317.6231498913
 20
174.4403305209
 10
317.6592773943
 20
174.4716729646
 10
317.6968963294
 20
174.5009804224
 10
317.7360214743
 20
174.5282355653
 10
317.7766380513
 20
174.5534558318
 10
317.8183943831
 20
174.5764295786
 10
317.861291449
 20
174.5971344192
 10
317.9053282696
 20
174.615592835
 10
317.95015023
 20
174.6316604856
 10
317.9957605975
 20
174.6453203904
 10
318.0421561049
 20
174.6565895992
 10
318.0889723351
 20
174.6653748134
 10
318.1360878158
 20
174.671644946
 10
318.1836240193
 20
174.6754311207
 10
318.2315809456
 20
174.6767333467
  0
LWPOLYLINE
  5
382
100
AcDbEntity
  8
RACCORDO
100
AcDbPolyline
 62
250
  6
CONTINUOUS
 90
25
 70
0
 10
317.833670376
 20
173.8082869548
 10
317.8377413264
 20
173.8316888482
 10
317.8432102175
 20
173.8548184715
 10
317.8500605382
 20
173.8775931471
 10
317.8582747405
 20
173.8999399402
 10
317.8678236668
 20
173.9217691258
 10
317.8786612831
 20
173.9429767841
 10
317.890739534
 20
173.9634759555
 10
317.9040198816
 20
173.9832080857
 10
317.9184614744
 20
174.0021164883
 10
317.9340173789
 20
174.0201377317
 10
317.9506296249
 20
174.0372030854
 10
317.9682367724
 20
174.0532514513
 10
317.9867768672
 20
174.0682257897
 10
318.0061842315
 20
174.0820726957
 10
318.026386364
 20
174.0947429016
 10
318.0473103091
 20
174.1061909202
 10
318.0688833891
 20
174.1163773402
 10
318.0910296596
 20
174.1252686085
 10
318.1136672929
 20
174.1328319803
 10
318.1367201929
 20
174.1390421498
 10
318.160119266
 20
174.1438810567
 10
318.1837866631
 20
174.1473301031
 10
318.2076353405
 20
174.1493728789
 10
318.231581369
 20
174.1499995458
  0
LINE
  5
383
100
AcDbEntity
  8
RACCORDO
100
AcDbLine
 62
250
  6
CONTINUOUS
 10
384.7806956299
 20
196.1770334686
 11
384.8992723856
 21
196.2975420887
  0
LINE
  5
384
100
AcDbEntity
  8
RACCORDO
100
AcDbLine
 62
250
  6
CONTINUOUS
 10
385.5728584136
 20
195.3879256591
 11
385.6835082089
 21
195.5005575897
  0
LINE
  5
385
100
AcDbEntity
  8
RACCORDO
100
AcDbLine
 62
250
  6
CONTINUOUS
 10
363.0830015102
 20
174.0976973684
 11
363.1354404921
 21
174.1499995473
  0
LINE
  5
386
100
AcDbEntity
  8
RACCORDO
100
AcDbLine
 62
250
  6
CONTINUOUS
 10
317.8296626478
 20
128.8434347739
 11
317.8835109222
 21
128.8971398338
  0
LINE
  5
387
100
AcDbEntity
  8
RACCORDO
100
AcDbLine
 62
250
  6
CONTINUOUS
 10
363.4835109381
 20
173.698254903
 11
363.5373592124
 21
173.7519596488
  0
LINE
  5
388
100
AcDbEntity
  8
RACCORDO
100
AcDbLine
 62
250
  6
CONTINUOUS
 10
318.2315812653
 20
128.4453951896
 11
318.2840203502
 21
128.4976973684
  0
LWPOLYLINE
  5
389
100
AcDbEntity
  8
RACCORDO
100
AcDbPolyline
 62
250
  6
CONTINUOUS
 90
15
 70
0
 10
385.5745685415
 20
128.7157900318
 10
385.570246697
 20
128.7140296775
 10
385.5634620283
 20
128.7122891176
 10
385.5542483758
 20
128.7105770338
 10
385.5426516953
 20
128.7089019656
 10
385.5287298286
 20
128.7072722679
 10
385.512552215
 20
128.7056960692
 10
385.4941995452
 20
128.7041812313
 10
385.4737633583
 20
128.7027353099
 10
385.4513455858
 20
128.701365517
 10
385.4270580427
 20
128.7000786848
 10
385.4010218704
 20
128.6988812317
 10
385.3733669316
 20
128.6977791304
 10
385.3442311635
 20
128.6967778779
 10
385.3137598892
 20
128.6958824683
  0
LWPOLYLINE
  5
38A
100
AcDbEntity
  8
RACCORDO
100
AcDbPolyline
 62
250
  6
CONTINUOUS
 90
15
 70
0
 10
385.5745700277
 20
128.7782777797
 10
385.5702482358
 20
128.776522204
 10
385.5634636135
 20
128.774786317
 10
385.5542500011
 20
128.7730787769
 10
385.5426533542
 20
128.7714081006
 10
385.5287315146
 20
128.7697826212
 10
385.5125539217
 20
128.768210446
 10
385.4942012661
 20
128.766699417
 10
385.4737650872
 20
128.7652570708
 10
385.4513473165
 20
128.7638906014
 10
385.4270597696
 20
128.7626068247
 10
385.4010235878
 20
128.7614121438
 10
385.3733686344
 20
128.7603125176
 10
385.3442328469
 20
128.7593134307
 10
385.3137615487
 20
128.7584198664
  0
LWPOLYLINE
  5
38B
100
AcDbEntity
  8
RACCORDO
100
AcDbPolyline
 62
250
  6
CONTINUOUS
 90
17
 70
0
 10
385.5745700272
 20
173.8171169571
 10
385.570248235
 20
173.8188725328
 10
385.5634636124
 20
173.8206084198
 10
385.5542499997
 20
173.8223159599
 10
385.5426533525
 20
173.8239866361
 10
385.5287315128
 20
173.8256121156
 10
385.5125539197
 20
173.8271842907
 10
385.494201264
 20
173.8286953197
 10
385.473765085
 20
173.8301376659
 10
385.4513473144
 20
173.8315041352
 10
385.4270597675
 20
173.832787912
 10
385.4010235857
 20
173.8339825928
 10
385.3733686325
 20
173.8350822191
 10
385.3442328451
 20
173.8360813059
 10
385.3137615471
 20
173.8369748702
 10
385.2821067232
 20
173.8377584549
 10
385.2158831656
 20
173.8389806203
  0
LWPOLYLINE
  5
38C
100
AcDbEntity
  8
RACCORDO
100
AcDbPolyline
 62
250
  6
CONTINUOUS
 90
17
 70
0
 10
385.5745685427
 20
173.879604705
 10
385.5702466993
 20
173.8813650594
 10
385.5634620316
 20
173.8831056193
 10
385.5542483799
 20
173.8848177032
 10
385.5426517001
 20
173.8864927714
 10
385.528729834
 20
173.8881224692
 10
385.5125522208
 20
173.889698668
 10
385.4941995513
 20
173.8912135059
 10
385.4737633646
 20
173.8926594273
 10
385.4513455921
 20
173.8940292203
 10
385.427058049
 20
173.8953160526
 10
385.4010218765
 20
173.8965135057
 10
385.3733669374
 20
173.8976156071
 10
385.344231169
 20
173.8986168596
 10
385.3137598941
 20
173.8995122693
 10
385.2821050973
 20
173.9002973699
 10
385.2158816031
 20
173.9015215503
  0
LINE
  5
38D
100
AcDbEntity
  8
RACCORDO
100
AcDbLine
 62
250
  6
CONTINUOUS
 10
363.1354403133
 20
128.4453951896
 11
363.0830015102
 21
128.4976973684
  0
LINE
  5
38E
100
AcDbEntity
  8
RACCORDO
100
AcDbLine
 62
250
  6
CONTINUOUS
 10
317.829662648
 20
173.7519596452
 11
317.8835109222
 21
173.698254903
  0
LINE
  5
38F
100
AcDbEntity
  8
RACCORDO
100
AcDbLine
 62
250
  6
CONTINUOUS
 10
363.5373592123
 20
128.8434351109
 11
363.4835109381
 21
128.8971398338
  0
LINE
  5
390
100
AcDbEntity
  8
RACCORDO
100
AcDbLine
 62
250
  6
CONTINUOUS
 10
318.2315813676
 20
174.1499995473
 11
318.2840203502
 21
174.0976973684
  0
LINE
  5
391
100
AcDbEntity
  8
RACCORDO
100
AcDbLine
 62
250
  6
CONTINUOUS
 10
384.7806956299
 20
106.4183612683
 11
384.8992723856
 21
106.2978526482
  0
LINE
  5
392
100
AcDbEntity
  8
RACCORDO
100
AcDbLine
 62
250
  6
CONTINUOUS
 10
385.572858155
 20
107.2073397454
 11
385.6835082089
 21
107.0948371471
  0
LWPOLYLINE
  5
393
100
AcDbEntity
  8
RACCORDO
100
AcDbPolyline
 62
7
  6
CONTINUOUS
 90
25
 70
0
 10
317.8835109222
 20
128.8971398338
 10
317.8843920407
 20
128.8709336417
 10
317.8869371222
 20
128.8450575531
 10
317.8911461666
 20
128.8195115652
 10
317.8970481975
 20
128.7941949955
 10
317.9046141914
 20
128.7692085216
 10
317.9137570774
 20
128.7448541783
 10
317.9244800139
 20
128.7211507983
 10
317.9367798426
 20
128.6980795387
 10
317.950560017
 20
128.6758859175
 10
317.9658680446
 20
128.654538791
 10
317.982656418
 20
128.6340692902
 10
318.0006860685
 20
128.6148163412
 10
318.0199976831
 20
128.5968043428
 10
318.040550575
 20
128.5800088808
 10
318.0619836148
 20
128.5646956584
 10
318.08425998
 20
128.5509214796
 10
318.1074164933
 20
128.5386295257
 10
318.1312024937
 20
128.5279150656
 10
318.1556313183
 20
128.5187820217
 10
318.18068963
 20
128.511226461
 10
318.2060867562
 20
128.5053318691
 10
318.2317258063
 20
128.5011260729
 10
318.2577036709
 20
128.4985812398
 10
318.2840203502
 20
128.4976973684
  0
LINE
  5
394
100
AcDbEntity
  8
RACCORDO
100
AcDbLine
 62
250
  6
CONTINUOUS
 10
317.3303495988
 20
128.819771251
 11
317.3303495988
 21
173.7756234859
  0
LINE
  5
395
100
AcDbEntity
  8
RACCORDO
100
AcDbLine
 62
250
  6
CONTINUOUS
 10
317.8296626478
 20
128.8434347739
 11
317.829662648
 21
173.7519596452
  0
LINE
  5
396
100
AcDbEntity
  8
RACCORDO
100
AcDbLine
 62
7
  6
CONTINUOUS
 10
317.8835109222
 20
173.698254903
 11
317.8835109222
 21
128.8971398338
  0
LINE
  5
397
100
AcDbEntity
  8
RACCORDO
100
AcDbLine
 62
250
  6
CONTINUOUS
 10
318.2315809456
 20
174.6767333467
 11
318.2315809456
 21
174.1499995473
  0
LINE
  5
398
100
AcDbEntity
  8
RACCORDO
100
AcDbLine
 62
250
  6
CONTINUOUS
 10
318.2315809456
 20
127.9186613902
 11
318.2315809456
 21
128.4453951896
  0
LWPOLYLINE
  5
399
100
AcDbEntity
  8
RACCORDO
100
AcDbPolyline
 62
250
  6
CONTINUOUS
 90
7
 70
0
 10
317.8296626479
 20
173.7519596453
 10
317.829773011
 20
173.7613857384
 10
317.8301069924
 20
173.7708035136
 10
317.8306642479
 20
173.7802077362
 10
317.8314443105
 20
173.7895931847
 10
317.8324465905
 20
173.7989546532
 10
317.833670376
 20
173.8082869548
  0
LWPOLYLINE
  5
39A
100
AcDbEntity
  8
RACCORDO
100
AcDbPolyline
 62
250
  6
CONTINUOUS
 90
7
 70
0
 10
317.3303495988
 20
173.7756234859
 10
317.33060674
 20
173.7969417752
 10
317.3313613669
 20
173.8181920443
 10
317.3326134794
 20
173.8393742936
 10
317.3343630775
 20
173.8604885235
 10
317.3366101613
 20
173.8815347345
 10
317.3393547307
 20
173.902512927
  0
LWPOLYLINE
  5
39B
100
AcDbEntity
  8
RACCORDO
100
AcDbPolyline
 62
250
  6
CONTINUOUS
 90
7
 70
0
 10
317.833670376
 20
128.787107782
 10
317.8324469115
 20
128.7964373806
 10
317.8314447241
 20
128.8057971957
 10
317.8306646003
 20
128.8151820507
 10
317.8301072051
 20
128.824586747
 10
317.8297730811
 20
128.8340060663
 10
317.8296626479
 20
128.843434774
  0
LWPOLYLINE
  5
39C
100
AcDbEntity
  8
RACCORDO
100
AcDbPolyline
 62
250
  6
CONTINUOUS
 90
7
 70
0
 10
317.3393547307
 20
128.6928818099
 10
317.3366088957
 20
128.7138875232
 10
317.3343610526
 20
128.7349502468
 10
317.3326112014
 20
128.756069981
 10
317.331359342
 20
128.7772467262
 10
317.3306054745
 20
128.7984804827
 10
317.3303495988
 20
128.819771251
  0
LWPOLYLINE
  5
39D
100
AcDbEntity
  8
0
100
AcDbPolyline
 62
7
  6
CONTINUOUS
 90
10
 70
0
 43
0.3499999917
 10
399.2593469238
 20
149.3691210937
 10
398.4021972656
 20
150.226270752
 10
397.5450476074
 20
150.4405517578
 10
396.6878979492
 20
150.4405517578
 10
396.2593359375
 20
150.0119769287
 10
396.2593359375
 20
149.3691210937
 10
396.6878979492
 20
148.940559082
 10
397.5450476074
 20
148.940559082
 10
397.9736096191
 20
149.3691210937
 10
397.9736096191
 20
150.2977020264
  0
LWPOLYLINE
  5
39E
100
AcDbEntity
  8
RACCORDO
100
AcDbPolyline
 62
7
  6
CONTINUOUS
 90
25
 70
0
 10
363.4835109381
 20
173.698254903
 10
363.4826286829
 20
173.7244593605
 10
363.48008463
 20
173.7503302702
 10
363.4758787795
 20
173.7758676348
 10
363.4699838799
 20
173.8011680695
 10
363.4624271826
 20
173.8261349641
 10
363.4532904416
 20
173.850478486
 10
363.4425701551
 20
173.8741849276
 10
363.430269825
 20
173.8972680065
 10
363.4164817104
 20
173.9194790325
 10
363.4011487146
 20
173.9408556493
 10
363.3843279345
 20
173.9613602258
 10
363.3662829204
 20
173.9806311638
 10
363.3469885951
 20
173.9986284159
 10
363.3264700359
 20
174.0153920452
 10
363.3050660248
 20
174.0306806225
 10
363.2828071102
 20
174.044446767
 10
363.2596627438
 20
174.0567378742
 10
363.2358800617
 20
174.0674546795
 10
363.2114404099
 20
174.0765937107
 10
363.1863624425
 20
174.0841584507
 10
363.1609492589
 20
174.0900600671
 10
363.1353018922
 20
174.0942689514
 10
363.1093193093
 20
174.0968147181
 10
363.0830015102
 20
174.0976973684
  0
LINE
  5
39F
100
AcDbEntity
  8
RACCORDO
100
AcDbLine
 62
250
  6
CONTINUOUS
 10
363.1354409148
 20
174.6767333467
 11
363.1354409148
 21
174.1499995473
  0
LINE
  5
3A0
100
AcDbEntity
  8
RACCORDO
100
AcDbLine
 62
250
  6
CONTINUOUS
 10
363.1354409148
 20
127.9186613902
 11
363.1354409148
 21
128.4453951896
  0
LINE
  5
3A1
100
AcDbEntity
  8
RACCORDO
100
AcDbLine
 62
7
  6
CONTINUOUS
 10
363.4835109381
 20
128.8971398338
 11
363.4835109381
 21
173.698254903
  0
LINE
  5
3A2
100
AcDbEntity
  8
RACCORDO
100
AcDbLine
 62
250
  6
CONTINUOUS
 10
363.5373592124
 20
173.7519596488
 11
363.5373592123
 21
128.8434351109
  0
LINE
  5
3A3
100
AcDbEntity
  8
RACCORDO
100
AcDbLine
 62
250
  6
CONTINUOUS
 10
364.0366722615
 20
173.7756234859
 11
364.0366722615
 21
128.819771251
  0
LWPOLYLINE
  5
3A4
100
AcDbEntity
  8
RACCORDO
100
AcDbPolyline
 62
250
  6
CONTINUOUS
 90
7
 70
0
 10
363.5373592124
 20
128.8434351109
 10
363.5372488307
 20
128.8340082223
 10
363.5369148084
 20
128.8245899696
 10
363.5363575118
 20
128.8151855874
 10
363.5355774305
 20
128.8058002962
 10
363.5345751767
 20
128.7964392997
 10
363.5333514843
 20
128.787107782
  0
LWPOLYLINE
  5
3A5
100
AcDbEntity
  8
RACCORDO
100
AcDbPolyline
 62
250
  6
CONTINUOUS
 90
7
 70
0
 10
364.0366722615
 20
128.819771251
 10
364.03641527
 20
128.7984557687
 10
364.035660733
 20
128.7772071839
 10
364.0344086505
 20
128.756025496
 10
364.0326590224
 20
128.7349107047
 10
364.0304118488
 20
128.7138628094
 10
364.0276671296
 20
128.6928818099
  0
LWPOLYLINE
  5
3A6
100
AcDbEntity
  8
RACCORDO
100
AcDbPolyline
 62
250
  6
CONTINUOUS
 90
25
 70
0
 10
364.0276671296
 20
128.6928818099
 10
364.0184901464
 20
128.639869076
 10
364.0062646677
 20
128.5877911148
 10
363.9909906937
 20
128.5366478871
 10
363.9725824151
 20
128.4862326001
 10
363.9511256411
 20
128.4367519755
 10
363.9268777992
 20
128.388826218
 10
363.899823035
 20
128.342513844
 10
363.8699772028
 20
128.2977562065
 10
363.8376452933
 20
128.2549977202
 10
363.8027962401
 20
128.2142490329
 10
363.7654611097
 20
128.1754993441
 10
363.7260380924
 20
128.139160866
 10
363.6845035958
 20
128.1052594759
 10
363.6408812123
 20
128.0737691371
 10
363.5956399097
 20
128.0450241729
 10
363.5487660258
 20
128.0190559439
 10
363.5002732227
 20
127.9958329452
 10
363.4506714537
 20
127.9755951968
 10
363.3999585383
 20
127.958373594
 10
363.348136657
 20
127.9441371326
 10
363.2957223046
 20
127.9330329891
 10
363.2428876458
 20
127.9251102018
 10
363.1894605159
 20
127.9203196738
 10
363.1354409148
 20
127.9186613902
  0
LWPOLYLINE
  5
3A7
100
AcDbEntity
  8
RACCORDO
100
AcDbPolyline
 62
250
  6
CONTINUOUS
 90
25
 70
0
 10
363.5333514843
 20
128.787107782
 10
363.5292797283
 20
128.7637019772
 10
363.5238099018
 20
128.7405697944
 10
363.5169587472
 20
128.7177938869
 10
363.5087442604
 20
128.6954476941
 10
363.4991956608
 20
128.6736202798
 10
363.4883583267
 20
128.6524138784
 10
363.4762797518
 20
128.6319147184
 10
363.4629987796
 20
128.6121822106
 10
363.4485567529
 20
128.5932737911
 10
363.4330010005
 20
128.575253222
 10
363.4163892499
 20
128.558188776
 10
363.3987825215
 20
128.5421410967
 10
363.3802424753
 20
128.527167048
 10
363.3608349984
 20
128.5133202923
 10
363.3406328926
 20
128.500650319
 10
363.3197093155
 20
128.4892026878
 10
363.2981367775
 20
128.4790166656
 10
363.2759909854
 20
128.470125689
 10
363.2533536509
 20
128.4625624869
 10
363.2303009594
 20
128.4563524249
 10
363.2069020609
 20
128.4515135917
 10
363.1832348222
 20
128.4480645943
 10
363.1593862632
 20
128.4460218457
 10
363.1354403113
 20
128.4453951916
  0
LWPOLYLINE
  5
3A8
100
AcDbEntity
  8
RACCORDO
100
AcDbPolyline
 62
250
  6
CONTINUOUS
 90
7
 70
0
 10
363.5333514843
 20
173.8082869548
 10
363.5345751979
 20
173.7989552586
 10
363.5355774576
 20
173.7895941559
 10
363.5363575345
 20
173.7802088314
 10
363.5369148216
 20
173.7708044892
 10
363.5372488347
 20
173.7613863502
 10
363.5373592124
 20
173.7519596489
  0
LWPOLYLINE
  5
3A9
100
AcDbEntity
  8
RACCORDO
100
AcDbPolyline
 62
250
  6
CONTINUOUS
 90
7
 70
0
 10
364.0276671296
 20
173.902512927
 10
364.0304116016
 20
173.881536118
 10
364.0326586269
 20
173.8604907371
 10
364.0344082055
 20
173.8393767839
 10
364.0356603375
 20
173.8181942579
 10
364.0364150229
 20
173.7969431587
 10
364.0366722615
 20
173.7756234859
  0
LINE
  5
3AA
100
AcDbEntity
  8
RACCORDO
100
AcDbLine
 62
250
  6
CONTINUOUS
 10
384.7806956299
 20
196.1770334686
 11
384.7806956299
 21
195.7690848608
  0
LINE
  5
3AB
100
AcDbEntity
  8
RACCORDO
100
AcDbLine
 62
250
  6
CONTINUOUS
 10
384.7806956299
 20
106.4183612683
 11
384.7806956299
 21
106.826309876
  0
LINE
  5
3AC
100
AcDbEntity
  8
RACCORDO
100
AcDbLine
 62
7
  6
CONTINUOUS
 10
385.6835109302
 20
195.4976973684
 11
385.6835109302
 21
173.8171169571
  0
LINE
  5
3AD
100
AcDbEntity
  8
DRAFT
100
AcDbLine
 62
7
  6
CONTINUOUS
 10
385.6835109302
 20
173.8171169571
 11
385.6835109302
 21
128.7782777797
  0
LINE
  5
3AE
100
AcDbEntity
  8
RACCORDO
100
AcDbLine
 62
7
  6
CONTINUOUS
 10
385.6835109302
 20
128.7782777797
 11
385.6835109302
 21
107.0976973684
  0
LINE
  5
3AF
100
AcDbEntity
  8
RACCORDO
100
AcDbLine
 62
250
  6
CONTINUOUS
 10
385.0748240261
 20
195.469346275
 11
385.0748240261
 21
107.1260484619
  0
LINE
  5
3B0
100
AcDbEntity
  8
RACCORDO
100
AcDbLine
 62
250
  6
CONTINUOUS
 10
385.5728584136
 20
195.3879256591
 11
385.572858155
 21
107.2073397454
  0
LWPOLYLINE
  5
3B1
100
AcDbEntity
  8
RACCORDO
100
AcDbPolyline
 62
250
  6
CONTINUOUS
 90
28
 70
0
 10
385.0748240261
 20
107.1260484619
 10
385.0743126555
 20
107.1083577671
 10
385.0728248718
 20
107.0908616352
 10
385.0703606751
 20
107.0735600551
 10
385.0669052911
 20
107.0563964515
 10
385.0624734941
 20
107.0394273801
 10
385.0571096063
 20
107.0228225182
 10
385.0508034235
 20
107.0065850026
 10
385.0435651499
 20
106.9907116571
 10
385.0354697198
 20
106.9753626717
 10
385.0265094044
 20
106.9605455617
 10
385.0166919324
 20
106.9462527594
 10
385.0061154242
 20
106.9326218169
 10
384.9947728228
 20
106.9196592121
 10
384.9826711852
 20
106.9073584088
 10
384.9699298036
 20
106.8958374275
 10
384.9565430581
 20
106.8851038871
 10
384.9425165686
 20
106.8751501111
 10
384.9279864864
 20
106.8660711727
 10
384.9129452936
 20
106.8578747807
 10
384.8974005081
 20
106.850553176
 10
384.8815108357
 20
106.8441782283
 10
384.8652755468
 20
106.8387605966
 10
384.848695371
 20
106.8342895848
 10
384.831931202
 20
106.8308050313
 10
384.8150366712
 20
106.8283202091
 10
384.7979581471
 20
106.8268218256
 10
384.7806956299
 20
106.826309876
  0
LWPOLYLINE
  5
3B2
100
AcDbEntity
  8
RACCORDO
100
AcDbPolyline
 62
250
  6
CONTINUOUS
 90
28
 70
0
 10
385.5728581551
 20
107.2073397452
 10
385.5708642379
 20
107.161142642
 10
385.5662337672
 20
107.1151725933
 10
385.5589870599
 20
107.0695798304
 10
385.5491557563
 20
107.0245183035
 10
385.5367751112
 20
106.9801291419
 10
385.5218801966
 20
106.9365412071
 10
385.504516582
 20
106.8938861527
 10
385.4847465365
 20
106.8523144906
 10
385.4626413548
 20
106.8119785207
 10
385.4382807658
 20
106.7730141673
 10
385.4117455706
 20
106.7355411817
 10
385.3831213608
 20
106.6996798204
 10
385.352504463
 20
106.6655457327
 10
385.3199981039
 20
106.6332485854
 10
385.2857067845
 20
106.6028917939
 10
385.249745344
 20
106.5745738582
 10
385.2122326482
 20
106.5483847474
 10
385.1732860971
 20
106.524406357
 10
385.1330262321
 20
106.5027128402
 10
385.0915927583
 20
106.4833787426
 10
385.0491387057
 20
106.4664734538
 10
385.0058219781
 20
106.4520542021
 10
384.961768499
 20
106.4401569155
 10
384.9170867087
 20
106.4308100734
 10
384.871909702
 20
106.4240452458
 10
384.8263965467
 20
106.4198901802
 10
384.7806956299
 20
106.4183612683
  0
LWPOLYLINE
  5
3B3
100
AcDbEntity
  8
RACCORDO
100
AcDbPolyline
 62
250
  6
CONTINUOUS
 90
22
 70
0
 10
385.5728554252
 20
107.207339779
 10
385.5684921145
 20
107.2010905461
 10
385.561670895
 20
107.1949120897
 10
385.5524257285
 20
107.1888351714
 10
385.5408026453
 20
107.1828900473
 10
385.526859515
 20
107.1771063176
 10
385.5106657586
 20
107.1715127785
 10
385.4923020022
 20
107.1661372795
 10
385.4718596764
 20
107.1610065845
 10
385.4494405605
 20
107.1561462386
 10
385.425156276
 20
107.1515804407
 10
385.3991277307
 20
107.1473319233
 10
385.3714845171
 20
107.1434218393
 10
385.3423642665
 20
107.1398696563
 10
385.3119119645
 20
107.1366930602
 10
385.2802792286
 20
107.1339078669
 10
385.2476235536
 20
107.1315279433
 10
385.2141075272
 20
107.1295651389
 10
385.1798980209
 20
107.128029226
 10
385.1451653588
 20
107.1269278519
 10
385.1100824697
 20
107.1262665
 10
385.0748240261
 20
107.1260484631
  0
LWPOLYLINE
  5
3B4
100
AcDbEntity
  8
RACCORDO
100
AcDbPolyline
 62
250
  6
CONTINUOUS
 90
22
 70
0
 10
385.572858152
 20
195.3880550014
 10
385.5684948015
 20
195.3943042284
 10
385.561673528
 20
195.4004826793
 10
385.5524282939
 20
195.4065595926
 10
385.5408051299
 20
195.4125047121
 10
385.5268619062
 20
195.4182884377
 10
385.5106680443
 20
195.4238819731
 10
385.4923041715
 20
195.4292574688
 10
385.471861719
 20
195.4343881608
 10
385.4494424672
 20
195.4392485041
 10
385.4251580386
 20
195.4438142997
 10
385.3991293422
 20
195.4480628152
 10
385.3714859717
 20
195.4519728976
 10
385.3423655596
 20
195.4555250792
 10
385.3119130929
 20
195.4587016741
 10
385.2802801904
 20
195.4614868665
 10
385.2476243482
 20
195.4638667893
 10
385.2141081556
 20
195.4658295931
 10
385.1798984852
 20
195.4673655053
 10
385.1451656628
 20
195.468466879
 10
385.1100826184
 20
195.4691282305
 10
385.0748240261
 20
195.4693462669
  0
LWPOLYLINE
  5
3B5
100
AcDbEntity
  8
0
100
AcDbPolyline
 62
7
  6
CONTINUOUS
 90
10
 70
0
 43
0.3499999917
 10
54.164362793
 20
219.8533703613
 10
53.521506958
 20
219.210501709
 10
53.0929353333
 20
218.3533520508
 10
53.0929353333
 20
217.2819213867
 10
53.521506958
 20
216.853359375
 10
54.164362793
 20
216.853359375
 10
54.5929376221
 20
217.2819213867
 10
54.5929376221
 20
218.1390710449
 10
54.164362793
 20
218.5676330566
 10
53.2357914734
 20
218.5676330566
  0
LINE
  5
3B6
100
AcDbEntity
  8
RACCORDO
100
AcDbLine
 62
7
  6
CONTINUOUS
 10
52.8901666172
 20
106.2976973684
 11
53.7043375487
 21
106.2976973684
  0
LINE
  5
3B7
100
AcDbEntity
  8
RACCORDO
100
AcDbLine
 62
250
  6
CONTINUOUS
 10
52.7413606232
 20
107.0976973684
 11
53.5547523746
 21
107.0976973684
  0
LINE
  5
3B8
100
AcDbEntity
  8
RACCORDO
100
AcDbLine
 62
7
  6
CONTINUOUS
 10
51.5109719309
 20
106.4183612683
 11
52.8901666172
 21
106.2976973684
  0
LINE
  5
3B9
100
AcDbEntity
  8
RACCORDO
100
AcDbLine
 62
250
  6
CONTINUOUS
 10
51.4564782084
 20
107.2073397454
 11
52.7418221872
 21
107.0948371471
  0
LINE
  5
3BA
100
AcDbEntity
  8
0
100
AcDbLine
 62
7
  6
CONTINUOUS
 10
54.007993296
 20
107.3976973684
 11
53.4914636292
 21
107.4428878586
  0
LINE
  5
3BB
100
AcDbEntity
  8
RACCORDO
100
AcDbLine
 62
250
  6
CONTINUOUS
 10
51.4564784488
 20
107.207339779
 11
51.0080819265
 21
107.1260484631
  0
LWPOLYLINE
  5
3BC
100
AcDbEntity
  8
RACCORDO
100
AcDbPolyline
 62
250
  6
CONTINUOUS
 90
16
 70
0
 10
53.9731807269
 20
107.5884505487
 10
54.0948754026
 20
107.606497828
 10
54.2164211678
 20
107.6272603552
 10
54.3377471533
 20
107.6507426444
 10
54.4585875057
 20
107.6768427427
 10
54.579057548
 20
107.7056715994
 10
54.6996443697
 20
107.7375538846
 10
54.8200849762
 20
107.7723595699
 10
54.940445173
 20
107.8102294587
 10
55.0616633389
 20
107.8518970951
 10
55.1838127163
 20
107.8972940578
 10
55.3065040863
 20
107.9465040472
 10
55.4299399925
 20
108.0004928142
 10
55.5540747525
 20
108.0595899521
 10
55.6786098814
 20
108.1234866509
 10
55.8033582386
 20
108.1921933192
  0
LINE
  5
3BD
100
AcDbEntity
  8
RACCORDO
100
AcDbLine
 62
250
  6
CONTINUOUS
 10
55.8033582386
 20
108.1921933192
 11
53.8666062502
 21
108.1804891934
  0
LINE
  5
3BE
100
AcDbEntity
  8
0
100
AcDbLine
 62
250
  6
CONTINUOUS
 10
53.8286865629
 20
108.3941756519
 11
53.3130094975
 21
108.4393165135
  0
LWPOLYLINE
  5
3BF
100
AcDbEntity
  8
RACCORDO
100
AcDbPolyline
 62
250
  6
CONTINUOUS
 90
19
 70
0
 10
51.5109719309
 20
196.1770334686
 10
51.5085216488
 20
196.1755053728
 10
51.506033898
 20
196.1713518541
 10
51.5035201094
 20
196.1645882875
 10
51.5009920343
 20
196.1552406379
 10
51.4984581311
 20
196.1433399039
 10
51.4959240792
 20
196.1289170494
 10
51.4933951321
 20
196.1120106026
 10
51.4908821093
 20
196.0926770623
 10
51.4883978643
 20
196.0709842333
 10
51.48594506
 20
196.0470057342
 10
51.4835304625
 20
196.020816372
 10
51.4811714229
 20
195.9924981831
 10
51.4788677928
 20
195.9621411822
 10
51.4766233519
 20
195.9298438162
 10
51.474459982
 20
195.8957095463
 10
51.4723746297
 20
195.8598481658
 10
51.4703678122
 20
195.8223752102
 10
51.466660995
 20
195.7430727251
  0
LWPOLYLINE
  5
3C0
100
AcDbEntity
  8
0
100
AcDbPolyline
 62
7
  6
CONTINUOUS
 90
3
 70
0
 43
0.3499999917
 10
52.0929359436
 20
217.1390844727
 10
52.0215046692
 20
216.924777832
 10
51.8786485291
 20
216.6390783691
  0
LINE
  5
3C1
100
AcDbEntity
  8
RACCORDO
100
AcDbLine
 62
250
  6
CONTINUOUS
 10
48.9756387071
 20
128.7157900318
 11
48.5198474057
 21
128.6928818107
  0
LINE
  5
3C2
100
AcDbEntity
  8
RACCORDO
100
AcDbLine
 62
250
  6
CONTINUOUS
 10
48.9725009756
 20
128.7782777797
 11
48.5167061731
 21
128.7554225977
  0
LINE
  5
3C3
100
AcDbEntity
  8
0
100
AcDbLine
 62
250
  6
CONTINUOUS
 10
56.5198473885
 20
128.9242930634
 11
54.0715639598
 21
128.8834460587
  0
LINE
  5
3C4
100
AcDbEntity
  8
0
100
AcDbLine
 62
250
  6
CONTINUOUS
 10
54.0715639598
 20
128.8834460587
 11
51.5160599779
 21
128.8435805802
  0
LINE
  5
3C5
100
AcDbEntity
  8
RACCORDO
100
AcDbLine
 62
250
  6
CONTINUOUS
 10
50.2177011891
 20
128.7782777797
 11
48.9725009756
 21
128.7782777797
  0
LINE
  5
3C6
100
AcDbEntity
  8
0
100
AcDbLine
 62
250
  6
CONTINUOUS
 10
51.5160599779
 20
128.8435805802
 11
51.0154286523
 21
128.8435805802
  0
LWPOLYLINE
  5
3C7
100
AcDbEntity
  8
RACCORDO
100
AcDbPolyline
 62
250
  6
CONTINUOUS
 90
22
 70
0
 10
55.803358094
 20
108.1921933097
 10
55.8225001762
 20
108.1512306861
 10
55.8399022491
 20
108.1103019842
 10
55.8555033807
 20
108.0695505133
 10
55.8692489443
 20
108.0291189624
 10
55.8810908108
 20
107.9891488999
 10
55.8909875167
 20
107.9497802779
 10
55.8989044093
 20
107.9111509434
 10
55.9048137678
 20
107.8733961545
 10
55.9086949009
 20
107.8366481072
 10
55.910534219
 20
107.8010354726
 10
55.9103252815
 20
107.7666829462
 10
55.9080688199
 20
107.7337108114
 10
55.9037727347
 20
107.7022345182
 10
55.8974520682
 20
107.6723642792
 10
55.8891289517
 20
107.6442046835
 10
55.8788325278
 20
107.6178543304
 10
55.8665988487
 20
107.5934054844
 10
55.8524707495
 20
107.5709437521
 10
55.8364976989
 20
107.550547782
 10
55.8187356254
 20
107.5322889899
 10
55.7992467217
 20
107.516231308
  0
LWPOLYLINE
  5
3C8
100
AcDbEntity
  8
RACCORDO
100
AcDbPolyline
 62
250
  6
CONTINUOUS
 90
10
 70
0
 10
51.456457519
 20
195.3879256591
 10
51.0437282873
 20
193.0162822032
 10
50.6652260685
 20
190.6389322905
 10
50.3209512933
 20
188.2563766192
 10
50.0108475197
 20
185.8691211765
 10
49.7349720496
 20
183.4776611477
 10
49.4934959349
 20
181.0824808266
 10
49.2864764858
 20
178.684075131
 10
49.1138572647
 20
176.2829496927
 10
48.975638707
 20
173.879604705
  0
LWPOLYLINE
  5
3C9
100
AcDbEntity
  8
RACCORDO
100
AcDbPolyline
 62
7
  6
CONTINUOUS
 90
10
 70
0
 10
52.7413606232
 20
195.4976973684
 10
52.3208044132
 20
193.1080517499
 10
51.9352076163
 20
190.7129372376
 10
51.5845702325
 20
188.3123538314
 10
51.2687882773
 20
185.905445593
 10
50.9879657352
 20
183.4930684608
 10
50.74241456
 20
181.0777902496
 10
50.5322387362
 20
178.6604668977
 10
50.3573342792
 20
176.2402424669
 10
50.2177011891
 20
173.8171169571
  0
LWPOLYLINE
  5
3CA
100
AcDbEntity
  8
RACCORDO
100
AcDbPolyline
 62
7
  6
CONTINUOUS
 90
5
 70
0
 10
52.7413283685
 20
107.0976973684
 10
52.7473830222
 20
107.0515756644
 10
52.7530223908
 20
107.0056576151
 10
52.7582464743
 20
106.9600948802
 10
52.762963909
 20
106.9150745894
  0
LINE
  5
3CB
100
AcDbEntity
  8
RACCORDO
100
AcDbLine
 62
7
  6
CONTINUOUS
 10
52.78333681
 20
106.701456886
 11
52.7912883918
 21
106.623608978
  0
LINE
  5
3CC
100
AcDbEntity
  8
RACCORDO
100
AcDbLine
 62
7
  6
CONTINUOUS
 10
52.762963909
 20
106.9150745894
 11
52.78333681
 21
106.701456886
  0
LWPOLYLINE
  5
3CD
100
AcDbEntity
  8
RACCORDO
100
AcDbPolyline
 62
7
  6
CONTINUOUS
 90
10
 70
0
 10
50.2177011891
 20
128.7782777797
 10
50.3573342792
 20
126.35515227
 10
50.5322387362
 20
123.9349278391
 10
50.74241456
 20
121.5176044873
 10
50.9879657352
 20
119.1023262761
 10
51.2687882773
 20
116.6899491438
 10
51.5845702325
 20
114.2830409055
 10
51.9352076163
 20
111.8824574993
 10
52.3208044132
 20
109.4873429869
 10
52.7413606232
 20
107.0976973684
  0
LWPOLYLINE
  5
3CE
100
AcDbEntity
  8
RACCORDO
100
AcDbPolyline
 62
250
  6
CONTINUOUS
 90
10
 70
0
 10
48.975638707
 20
128.7157900318
 10
49.1138572334
 20
126.3124454841
 10
49.2864764344
 20
123.9113203167
 10
49.4934958744
 20
121.512914723
 10
49.7349712319
 20
119.1177390988
 10
50.010845955
 20
116.7262835834
 10
50.3209512726
 20
114.33901823
 10
50.6652306481
 20
111.9564335758
 10
51.0437397687
 20
109.5790404724
 10
51.4564782084
 20
107.2073397454
  0
LWPOLYLINE
  5
3CF
100
AcDbEntity
  8
RACCORDO
100
AcDbPolyline
 62
250
  6
CONTINUOUS
 90
18
 70
0
 10
51.470368671
 20
106.7730141673
 10
51.4723755404
 20
106.7355411817
 10
51.4744609293
 20
106.6996798204
 10
51.4766242961
 20
106.6655457327
 10
51.4788687157
 20
106.6332485854
 10
51.4811723135
 20
106.6028917939
 10
51.4835313108
 20
106.5745738582
 10
51.485945856
 20
106.5483847474
 10
51.4883986112
 20
106.524406357
 10
51.4908828582
 20
106.5027128402
 10
51.4933959205
 20
106.4833787426
 10
51.495924784
 20
106.4664734538
 10
51.498458318
 20
106.4520542021
 10
51.5009913691
 20
106.4401569155
 10
51.5035188153
 20
106.4308100734
 10
51.5060325343
 20
106.4240452458
 10
51.5085206863
 20
106.4198901802
 10
51.5109719309
 20
106.4183612683
  0
LINE
  5
3D0
100
AcDbEntity
  8
RACCORDO
100
AcDbLine
 62
250
  6
CONTINUOUS
 10
51.4666619759
 20
106.8523144906
 11
51.470368671
 21
106.7730141673
  0
LINE
  5
3D1
100
AcDbEntity
  8
RACCORDO
100
AcDbLine
 62
250
  6
CONTINUOUS
 10
51.4633707611
 20
106.9365412071
 11
51.4666619759
 21
106.8523144906
  0
LINE
  5
3D2
100
AcDbEntity
  8
RACCORDO
100
AcDbLine
 62
250
  6
CONTINUOUS
 10
51.4605489942
 20
107.0245183035
 11
51.4633707611
 21
106.9365412071
  0
LINE
  5
3D3
100
AcDbEntity
  8
RACCORDO
100
AcDbLine
 62
250
  6
CONTINUOUS
 10
51.4582649559
 20
107.1151725933
 11
51.4605489942
 21
107.0245183035
  0
LINE
  5
3D4
100
AcDbEntity
  8
RACCORDO
100
AcDbLine
 62
250
  6
CONTINUOUS
 10
51.4564782098
 20
107.2073397452
 11
51.4582649559
 21
107.1151725933
  0
LWPOLYLINE
  5
3D5
100
AcDbEntity
  8
0
100
AcDbPolyline
 62
7
  6
CONTINUOUS
 90
4
 70
0
 43
0.3499999917
 10
49.0215065002
 20
217.2819213867
 10
49.0215065002
 20
218.1390710449
 10
49.450078125
 20
218.5676330566
 10
50.09293396
 20
218.5676330566
  0
LINE
  5
3D6
100
AcDbEntity
  8
RACCORDO
100
AcDbLine
 62
250
  6
CONTINUOUS
 10
51.4582645917
 20
195.4802124935
 11
51.4564765869
 21
195.3879273317
  0
LINE
  5
3D7
100
AcDbEntity
  8
RACCORDO
100
AcDbLine
 62
250
  6
CONTINUOUS
 10
51.4605494068
 20
195.5708977006
 11
51.4582645917
 21
195.4802124935
  0
LINE
  5
3D8
100
AcDbEntity
  8
RACCORDO
100
AcDbLine
 62
250
  6
CONTINUOUS
 10
51.4633697514
 20
195.6588446405
 11
51.4605494068
 21
195.5708977006
  0
LWPOLYLINE
  5
3D9
100
AcDbEntity
  8
RACCORDO
100
AcDbPolyline
 62
250
  6
CONTINUOUS
 90
12
 70
0
 10
48.800075112
 20
170.0662824592
 10
48.6589967248
 20
166.3141359913
 10
48.5492658128
 20
162.5609409008
 10
48.4708790965
 20
158.806962116
 10
48.4238398536
 20
155.0524613978
 10
48.4081579202
 20
151.2976973369
 10
48.4238398547
 20
147.5429332667
 10
48.4708790987
 20
143.7884325331
 10
48.5492658155
 20
140.034453746
 10
48.6589967272
 20
136.2812586725
 10
48.8000751135
 20
132.5291122346
 10
48.975638707
 20
128.7157900318
  0
LINE
  5
3DA
100
AcDbEntity
  8
RACCORDO
100
AcDbLine
 62
250
  6
CONTINUOUS
 10
51.466660995
 20
195.7430727251
 11
51.4633697514
 21
195.6588446405
  0
LWPOLYLINE
  5
3DB
100
AcDbEntity
  8
DRAFT
100
AcDbPolyline
 62
7
  6
CONTINUOUS
 90
13
 70
0
 10
50.2177011891
 20
173.8171169571
 10
50.0448275723
 20
170.0668049478
 10
49.9033803168
 20
166.3153231029
 10
49.7933594225
 20
162.5626714226
 10
49.7147585273
 20
158.8084599615
 10
49.6675839935
 20
155.053078665
 10
49.6518549074
 20
151.2976973684
 10
49.6675839935
 20
147.5423160719
 10
49.7147585273
 20
143.7869347753
 10
49.7933594225
 20
140.0327233143
 10
49.9033803168
 20
136.2800716339
 10
50.0448275723
 20
132.5285897891
 10
50.2177011891
 20
128.7782777797
  0
LINE
  5
3DC
100
AcDbEntity
  8
RACCORDO
100
AcDbLine
 62
250
  6
CONTINUOUS
 10
48.975638707
 20
173.879604705
 11
48.800075112
 21
170.0662824592
  0
LWPOLYLINE
  5
3DD
100
AcDbEntity
  8
RACCORDO
100
AcDbPolyline
 62
7
  6
CONTINUOUS
 90
6
 70
0
 10
52.7833368078
 20
195.8939378285
 10
52.7629642301
 20
195.6803233463
 10
52.7582467175
 20
195.635302136
 10
52.753022563
 20
195.5897386731
 10
52.7473831133
 20
195.5438198616
 10
52.7413283685
 20
195.4976973684
  0
LINE
  5
3DE
100
AcDbEntity
  8
RACCORDO
100
AcDbLine
 62
7
  6
CONTINUOUS
 10
56.5198473885
 20
147.445043407
 11
54.685117753
 21
147.7685557441
  0
LWPOLYLINE
  5
3DF
100
AcDbEntity
  8
RACCORDO
100
AcDbPolyline
 62
7
  6
CONTINUOUS
 90
17
 70
0
 10
52.7912883918
 20
106.623608978
 10
52.7953792225
 20
106.5870352346
 10
52.7995745397
 20
106.5523062928
 10
52.8038775291
 20
106.5194504521
 10
52.8083906857
 20
106.4884886967
 10
52.8131239691
 20
106.4594656526
 10
52.8180674197
 20
106.4325601007
 10
52.8232936537
 20
106.4079714448
 10
52.8287828899
 20
106.3858002339
 10
52.8345549094
 20
106.366047566
 10
52.8407416723
 20
106.348731788
 10
52.8473295364
 20
106.3338717409
 10
52.854332144
 20
106.3215351492
 10
52.8619223816
 20
106.3117815161
 10
52.8701578782
 20
106.3046060885
 10
52.8789810049
 20
106.2999730356
 10
52.8883917616
 20
106.2978526482
  0
LINE
  5
3E0
100
AcDbEntity
  8
0
100
AcDbLine
 62
250
  6
CONTINUOUS
 10
54.5198473885
 20
151.2976973684
 11
50.9517357916
 21
151.2976973684
  0
LINE
  5
3E1
100
AcDbEntity
  8
RACCORDO
100
AcDbLine
 62
7
  6
CONTINUOUS
 10
54.5198473885
 20
147.9655172947
 11
54.5198473885
 21
154.6298774422
  0
LINE
  5
3E2
100
AcDbEntity
  8
RACCORDO
100
AcDbLine
 62
7
  6
CONTINUOUS
 10
56.5198473885
 20
108.197696968
 11
56.5198473885
 21
128.9242930634
  0
LINE
  5
3E3
100
AcDbEntity
  8
DRAFT
100
AcDbLine
 62
7
  6
CONTINUOUS
 10
56.5198473885
 20
128.9242930634
 11
56.5198473885
 21
147.445043407
  0
LINE
  5
3E4
100
AcDbEntity
  8
DRAFT
100
AcDbLine
 62
7
  6
CONTINUOUS
 10
56.5198473885
 20
155.1503513298
 11
56.5198473885
 21
173.6711016735
  0
LINE
  5
3E5
100
AcDbEntity
  8
RACCORDO
100
AcDbLine
 62
7
  6
CONTINUOUS
 10
56.5198473885
 20
173.6711016735
 11
56.5198473885
 21
194.3976977063
  0
LINE
  5
3E6
100
AcDbEntity
  8
RACCORDO
100
AcDbLine
 62
7
  6
CONTINUOUS
 10
54.685117753
 20
154.8268389928
 11
56.5198473885
 21
155.1503513298
  0
LINE
  5
3E7
100
AcDbEntity
  8
0
100
AcDbLine
 62
250
  6
CONTINUOUS
 10
51.5160599779
 20
173.7518141566
 11
51.0154286523
 21
173.7518141566
  0
LINE
  5
3E8
100
AcDbEntity
  8
RACCORDO
100
AcDbLine
 62
250
  6
CONTINUOUS
 10
50.2177011891
 20
173.8171169571
 11
48.9725009756
 21
173.8171169571
  0
LINE
  5
3E9
100
AcDbEntity
  8
0
100
AcDbLine
 62
250
  6
CONTINUOUS
 10
56.5198473885
 20
173.6711016735
 11
51.5160599779
 21
173.7518141566
  0
LINE
  5
3EA
100
AcDbEntity
  8
RACCORDO
100
AcDbLine
 62
250
  6
CONTINUOUS
 10
48.9725009756
 20
173.8171169571
 11
48.5167061787
 21
173.8399721389
  0
LINE
  5
3EB
100
AcDbEntity
  8
RACCORDO
100
AcDbLine
 62
250
  6
CONTINUOUS
 10
48.975638707
 20
173.879604705
 11
48.5198473885
 21
173.902512927
  0
LWPOLYLINE
  5
3EC
100
AcDbEntity
  8
0
100
AcDbPolyline
 62
7
  6
CONTINUOUS
 90
10
 70
0
 43
0.3499999917
 10
52.0215046692
 20
217.3533654785
 10
52.0929359436
 20
217.2105029297
 10
52.0929359436
 20
217.1390844727
 10
51.9500765991
 20
216.9962219238
 10
51.8786485291
 20
216.9962219238
 10
51.807220459
 20
217.0676403809
 10
51.807220459
 20
217.1390844727
 10
51.8786485291
 20
217.2819213867
 10
51.9500765991
 20
217.3533654785
 10
52.0215046692
 20
217.3533654785
  0
LWPOLYLINE
  5
3ED
100
AcDbEntity
  8
RACCORDO
100
AcDbPolyline
 62
250
  6
CONTINUOUS
 90
22
 70
0
 10
55.7992476625
 20
195.0791647094
 10
55.8187365298
 20
195.0631069653
 10
55.8364985631
 20
195.0448481079
 10
55.8524715701
 20
195.0244520703
 10
55.8665996226
 20
195.0019902684
 10
55.8788332525
 20
194.9775413517
 10
55.8891296249
 20
194.9511909274
 10
55.8974526881
 20
194.9230312605
 10
55.9037733
 20
194.893160951
 10
55.9080693299
 20
194.8616845883
 10
55.9103257361
 20
194.8287123856
 10
55.9105346185
 20
194.7943597933
 10
55.9086952463
 20
194.7587470949
 10
55.9048140603
 20
194.7219989863
 10
55.8989046508
 20
194.6842441389
 10
55.8909877094
 20
194.6456147482
 10
55.8810909572
 20
194.6062460728
 10
55.8692490472
 20
194.5662759595
 10
55.8555034431
 20
194.52584436
 10
55.8399022742
 20
194.4850928424
 10
55.822500167
 20
194.4441640959
 10
55.803358054
 20
194.4032014298
  0
LWPOLYLINE
  5
3EE
100
AcDbEntity
  8
RACCORDO
100
AcDbPolyline
 62
250
  6
CONTINUOUS
 90
10
 70
0
 10
55.8033582386
 20
108.1921933192
 10
55.8965233975
 20
108.2480209211
 10
55.9858061241
 20
108.3047642873
 10
56.0713024972
 20
108.3624222137
 10
56.152744701
 20
108.4207212192
 10
56.2306165821
 20
108.4799317554
 10
56.3060984832
 20
108.5408703737
 10
56.3796034532
 20
108.6038104081
 10
56.4508314313
 20
108.6684798091
 10
56.5198473822
 20
108.7348788641
  0
LWPOLYLINE
  5
3EF
100
AcDbEntity
  8
RACCORDO
100
AcDbPolyline
 62
250
  6
CONTINUOUS
 90
10
 70
0
 10
55.8033582386
 20
194.4032014177
 10
55.8968643685
 20
194.3471760015
 10
55.9865433881
 20
194.2901574777
 10
56.0724890185
 20
194.2321469002
 10
56.1546250635
 20
194.1732487143
 10
56.2332338217
 20
194.1133609752
 10
56.308927818
 20
194.0521744176
 10
56.3819566266
 20
193.9895859421
 10
56.4522340054
 20
193.9256995426
 10
56.5198473793
 20
193.8605158755
  0
LWPOLYLINE
  5
3F0
100
AcDbEntity
  8
RACCORDO
100
AcDbPolyline
 62
7
  6
CONTINUOUS
 90
18
 70
0
 10
52.8883917616
 20
196.2975420887
 10
52.8789809669
 20
196.2954216983
 10
52.8701577399
 20
196.2907885671
 10
52.8619220808
 20
196.2836128953
 10
52.8543315461
 20
196.2738586328
 10
52.8473285792
 20
196.2615210095
 10
52.8407405104
 20
196.2466600099
 10
52.8345538254
 20
196.2293438892
 10
52.8287820384
 20
196.2095913981
 10
52.8232930228
 20
196.1874205313
 10
52.8180669544
 20
196.1628322925
 10
52.8131236573
 20
196.1359273127
 10
52.8083904771
 20
196.1069046811
 10
52.8038773337
 20
196.0759428177
 10
52.7995743072
 20
196.043086551
 10
52.7953789828
 20
196.0083574315
 10
52.7912882054
 20
195.9717840589
 10
52.7833368078
 20
195.8939378285
  0
LINE
  5
3F1
100
AcDbEntity
  8
0
100
AcDbLine
 62
250
  6
CONTINUOUS
 10
53.3130094975
 20
194.1560782233
 11
53.8286865629
 21
194.2012190849
  0
LINE
  5
3F2
100
AcDbEntity
  8
0
100
AcDbLine
 62
7
  6
CONTINUOUS
 10
54.007993296
 20
195.1976973684
 11
53.4914636292
 21
195.1525068782
  0
LINE
  5
3F3
100
AcDbEntity
  8
RACCORDO
100
AcDbLine
 62
250
  6
CONTINUOUS
 10
51.456457519
 20
195.3879256591
 11
52.7418221872
 21
195.5005575897
  0
LINE
  5
3F4
100
AcDbEntity
  8
RACCORDO
100
AcDbLine
 62
250
  6
CONTINUOUS
 10
52.7413606232
 20
195.4976973684
 11
53.5547523746
 21
195.4976973684
  0
LINE
  5
3F5
100
AcDbEntity
  8
RACCORDO
100
AcDbLine
 62
250
  6
CONTINUOUS
 10
55.8033582386
 20
194.4032014177
 11
53.8666062502
 21
194.4149055434
  0
LWPOLYLINE
  5
3F6
100
AcDbEntity
  8
RACCORDO
100
AcDbPolyline
 62
250
  6
CONTINUOUS
 90
16
 70
0
 10
53.9731807489
 20
195.0069441844
 10
54.0950442084
 20
194.9888600002
 10
54.2166671181
 20
194.9680814413
 10
54.3379795713
 20
194.9446040475
 10
54.4586969875
 20
194.9185307357
 10
54.5789570418
 20
194.8897497254
 10
54.6993086488
 20
194.8579336931
 10
54.8195192897
 20
194.8232050031
 10
54.9396262011
 20
194.7854306052
 10
55.0605405486
 20
194.7438974607
 10
55.1821732622
 20
194.6987573153
 10
55.3043072211
 20
194.6498435563
 10
55.4276033229
 20
194.5959609436
 10
55.5521481909
 20
194.5367026257
 10
55.6774698766
 20
194.4724531726
 10
55.8033582386
 20
194.4032014177
  0
LINE
  5
3F7
100
AcDbEntity
  8
RACCORDO
100
AcDbLine
 62
250
  6
CONTINUOUS
 10
51.4564782102
 20
195.3880550014
 11
51.0080819637
 21
195.4693462669
  0
LINE
  5
3F8
100
AcDbEntity
  8
RACCORDO
100
AcDbLine
 62
7
  6
CONTINUOUS
 10
51.5109719309
 20
196.1770334686
 11
52.8901666172
 21
196.2976973684
  0
LINE
  5
3F9
100
AcDbEntity
  8
RACCORDO
100
AcDbLine
 62
7
  6
CONTINUOUS
 10
52.8901666172
 20
196.2976973684
 11
53.7043375487
 21
196.2976973684
  0
LWPOLYLINE
  5
3FA
100
AcDbEntity
  8
0
100
AcDbPolyline
 62
7
  6
CONTINUOUS
 90
13
 70
0
 43
0.3499999917
 10
49.450078125
 20
218.5676330566
 10
49.1643626404
 20
218.7819396973
 10
49.1643626404
 20
219.4247827148
 10
49.450078125
 20
219.8533703613
 10
50.09293396
 20
219.8533703613
 10
50.3786494446
 20
219.4247827148
 10
50.3786494446
 20
218.7819396973
 10
50.09293396
 20
218.5676330566
 10
50.5215055847
 20
218.1390710449
 10
50.5215055847
 20
217.2819213867
 10
50.09293396
 20
216.853359375
 10
49.450078125
 20
216.853359375
 10
49.0215065002
 20
217.2819213867
  0
ARC
  5
3FB
100
AcDbEntity
  8
RACCORDO
100
AcDbCircle
 62
7
  6
CONTINUOUS
 10
384.8835109302
 20
107.0976973684
 40
0.8
100
AcDbArc
 50
270.0
 51
360.0
  0
ARC
  5
3FC
100
AcDbEntity
  8
RACCORDO
100
AcDbCircle
 62
7
  6
CONTINUOUS
 10
384.8835109302
 20
195.4976973684
 40
0.8
100
AcDbArc
 50
0.0
 51
90.0
  0
ARC
  5
3FD
100
AcDbEntity
  8
RACCORDO
100
AcDbCircle
 62
7
  6
CONTINUOUS
 10
83.4835109302
 20
107.0976973684
 40
0.8
100
AcDbArc
 50
180.0
 51
270.0
  0
ARC
  5
3FE
100
AcDbEntity
  8
RACCORDO
100
AcDbCircle
 62
7
  6
CONTINUOUS
 10
83.4835109302
 20
195.4976973684
 40
0.8
100
AcDbArc
 50
90.0
 51
180.0
  0
ARC
  5
3FF
100
AcDbEntity
  8
RACCORDO
100
AcDbCircle
 62
7
  6
CONTINUOUS
 10
216.4285088606
 20
137.1380865699
 40
168.1209091124
100
AcDbArc
 50
182.8793331589
 51
190.3870878027
  0
ARC
  5
400
100
AcDbEntity
  8
RACCORDO
100
AcDbCircle
 62
7
  6
CONTINUOUS
 10
216.4285088606
 20
137.1380865699
 40
165.6209091124
100
AcDbArc
 50
182.8793463054
 51
190.7317283603
  0
ARC
  5
401
100
AcDbEntity
  8
0
100
AcDbCircle
 62
7
  6
CONTINUOUS
 10
216.4285088606
 20
137.1380865699
 40
165.1209091124
100
AcDbArc
 50
182.8793463054
 51
190.1003116182
  0
ARC
  5
402
100
AcDbEntity
  8
RACCORDO
100
AcDbCircle
 62
7
  6
CONTINUOUS
 10
216.4285088606
 20
137.1380865699
 40
165.1209091124
100
AcDbArc
 50
190.1003116182
 51
190.5880594174
  0
ARC
  5
403
100
AcDbEntity
  8
RACCORDO
100
AcDbCircle
 62
7
  6
CONTINUOUS
 10
53.4217554648
 20
110.7519895915
 40
4.0152935545
100
AcDbArc
 50
279.9999997875
 51
320.4953425521
  0
ARC
  5
404
100
AcDbEntity
  8
RACCORDO
100
AcDbCircle
 62
7
  6
CONTINUOUS
 10
51.5545498023
 20
106.9164586173
 40
0.5
100
AcDbArc
 50
190.3870878027
 51
265.0
  0
ARC
  5
405
100
AcDbEntity
  8
RACCORDO
100
AcDbCircle
 62
7
  6
CONTINUOUS
 10
54.7198473885
 20
147.9655172947
 40
0.2
100
AcDbArc
 50
180.0
 51
260.0
  0
ARC
  5
406
100
AcDbEntity
  8
RACCORDO
100
AcDbCircle
 62
7
  6
CONTINUOUS
 10
216.4285088606
 20
165.4573081669
 40
168.1209091124
100
AcDbArc
 50
169.6129121973
 51
177.1206685792
  0
ARC
  5
407
100
AcDbEntity
  8
RACCORDO
100
AcDbCircle
 62
7
  6
CONTINUOUS
 10
216.4285088606
 20
165.4573081669
 40
165.6209091124
100
AcDbArc
 50
169.2682716397
 51
177.1206536946
  0
ARC
  5
408
100
AcDbEntity
  8
0
100
AcDbCircle
 62
7
  6
CONTINUOUS
 10
216.4285088606
 20
165.4573081669
 40
165.1209091124
100
AcDbArc
 50
169.8996883914
 51
177.1206536946
  0
ARC
  5
409
100
AcDbEntity
  8
RACCORDO
100
AcDbCircle
 62
7
  6
CONTINUOUS
 10
216.4285088606
 20
165.4573081669
 40
165.1209091124
100
AcDbArc
 50
169.4119405825
 51
169.8996883914
  0
ARC
  5
40A
100
AcDbEntity
  8
RACCORDO
100
AcDbCircle
 62
7
  6
CONTINUOUS
 10
53.4217554648
 20
191.8434051453
 40
4.0152935545
100
AcDbArc
 50
39.5046562915
 51
79.9999999988
  0
ARC
  5
40B
100
AcDbEntity
  8
RACCORDO
100
AcDbCircle
 62
7
  6
CONTINUOUS
 10
51.5545498023
 20
195.6789361195
 40
0.5
100
AcDbArc
 50
95.0
 51
169.6129121973
  0
ARC
  5
40C
100
AcDbEntity
  8
RACCORDO
100
AcDbCircle
 62
7
  6
CONTINUOUS
 10
54.7198473885
 20
154.6298774422
 40
0.2
100
AcDbArc
 50
100.0
 51
180.0
  0
ARC
  5
40D
100
AcDbEntity
  8
RACCORDO
100
AcDbCircle
 62
7
  6
CONTINUOUS
 10
497.9517357916
 20
151.2976973684
 40
450.0
100
AcDbArc
 50
177.1206592555
 51
182.8793413938
  0
ARC
  5
40E
100
AcDbEntity
  8
DRAFT
100
AcDbCircle
 62
7
  6
CONTINUOUS
 10
497.9517357916
 20
151.2976973684
 40
447.5
100
AcDbArc
 50
177.1206536946
 51
182.8793463054
  0
ARC
  5
40F
100
AcDbEntity
  8
0
100
AcDbCircle
 62
7
  6
CONTINUOUS
 10
497.9517357916
 20
151.2976973684
 40
447.0
100
AcDbArc
 50
177.1206536946
 51
182.8793463054
  0
ENDSEC
  0
SECTION
  2
OBJECTS
  0
DICTIONARY
  5
C
100
AcDbDictionary
280
0
281
1
  3
ACAD_GROUP
350
D
  3
ACAD_MLINESTYLE
350
17
  3
ACAD_LAYOUT
350
1A
  3
ACAD_PLOTSETTINGS
350
19
  3
ACAD_PLOTSTYLENAME
350
E
  0
DICTIONARY
  5
D
102
{ACAD_REACTORS
330
C
102
}
100
AcDbDictionary
280
0
281
1
  0
ACDBDICTIONARYWDFLT
  5
E
102
{ACAD_REACTORS
330
C
102
}
100
AcDbDictionary
281
1
  3
Normal
350
F
100
AcDbDictionaryWithDefault
340
F
  0
DICTIONARY
  5
17
102
{ACAD_REACTORS
330
C
102
}
100
AcDbDictionary
280
0
281
1
  3
Standard
350
18
  0
DICTIONARY
  5
19
102
{ACAD_REACTORS
330
C
102
}
100
AcDbDictionary
281
1
  0
DICTIONARY
  5
1A
102
{ACAD_REACTORS
330
C
102
}
100
AcDbDictionary
281
1
  3
Model
350
410
  3
Layout1
350
411
  0
ACDBPLACEHOLDER
  5
F
102
{ACAD_REACTORS
330
E
102
}
  0
MLINESTYLE
  5
18
102
{ACAD_REACTORS
330
17
102
}
100
AcDbMlineStyle
  2
STANDARD
 70
0
  3

 62
256
 51
90.0
 52
90.0
 71
2
 49
0.5
 62
256
  6
BYLAYER
 49
-0.5
 62
256
  6
BYLAYER
  0
LAYOUT
  5
410
102
{ACAD_REACTORS
330
1A
102
}
100
AcDbPlotSettings
  1

  2
none_device
  4
ISO_A3_(420.00_x_297.00_MM)
  6

 40
0.0
 41
0.0
 42
0.0
 43
0.0
 44
420.0
 45
297.0
 46
0.0
 47
0.0
 48
0.0
 49
0.0
140
0.0
141
0.0
142
1.0
143
1.0
 70
1024
 72
1
 73
0
 74
0
  7

 75
0
147
1.0
148
0.0
149
0.0
100
AcDbLayout
  1
Model
 70
0
 71
0
 10
0.0
 20
0.0
 11
420.0
 21
297.0
 12
0.0
 22
0.0
 32
0.0
 14
0.0
 24
0.0
 34
0.0
 15
0.0
 25
0.0
 35
0.0
146
0.0
 13
0.0
 23
0.0
 33
0.0
 16
1.0
 26
0.0
 36
0.0
 17
0.0
 27
1.0
 37
0.0
 76
0
330
213
345
0
346
0
  0
LAYOUT
  5
411
102
{ACAD_REACTORS
330
1A
102
}
100
AcDbPlotSettings
  1

  2
none_device
  4
ISO_A3_(420.00_x_297.00_MM)
  6

 40
0.0
 41
0.0
 42
0.0
 43
0.0
 44
420.0
 45
297.0
 46
0.0
 47
0.0
 48
0.0
 49
0.0
140
0.0
141
0.0
142
1.0
143
1.0
 70
0
 72
1
 73
0
 74
0
  7

 75
0
147
1.0
148
0.0
149
0.0
100
AcDbLayout
  1
Layout1
 70
0
 71
1
 10
0.0
 20
0.0
 11
420.0
 21
297.0
 12
0.0
 22
0.0
 32
0.0
 14
0.0
 24
0.0
 34
0.0
 15
0.0
 25
0.0
 35
0.0
146
0.0
 13
0.0
 23
0.0
 33
0.0
 16
1.0
 26
0.0
 36
0.0
 17
0.0
 27
1.0
 37
0.0
 76
0
330
214
345
0
346
0
  0
ENDSEC
  0
EOF
