  0
SECTION
  2
HEADER
  9
$ACADVER
  1
AC1015
  9
$DWGCODEPAGE
  3
ANSI_1252
  9
$EXTMAX
 10
297.0
 20
210.0
 30
0.0
  9
$EXTMIN
 10
0.0
 20
0.0
 30
0.0
  9
$LIMMIN
 10
0.0
 20
0.0
  9
$LIMMAX
 10
297.0
 20
210.0
  9
$VIEWCTR
 10
148.5
 20
105.0
  9
$VIEWSIZE
 40
210.0
  9
$CLAYER
  8
0
  9
$LTSCALE
 40
16.335
  9
$CELTYPE
  6
BYLAYER
  9
$DIMSCALE
 40
1.0
  9
$DIMASZ
 40
3.0
  9
$DIMEXO
 40
1.85625
  9
$DIMDLI
 40
11.286
  9
$DIMEXE
 40
5.346
  9
$DIMCEN
 40
2.673
  9
$DIMLFAC
 40
1.0
  9
$DIMBLK
  1
_FILLED
  9
$DIMTXT
 40
3.0
  9
$DIMTOL
 70
1
  9
$DIMLIM
 70
0
  9
$DIMTFAC
 40
1.0
  9
$DIMTP
 40
0.01
  9
$DIMTM
 40
0.01
  9
$PDMODE
 70
3
  9
$PDSIZE
 40
3.0
  9
$HANDSEED
  5
46D
  9
$TILEMODE
 70
1
  9
$MEASUREMENT
 70
1
  9
$INSUNITS
 70
4
  0
ENDSEC
  0
SECTION
  2
CLASSES
  0
CLASS
  1
ACDBDICTIONARYWDFLT
  2
AcDbDictionaryWithDefault
  3
AutoCAD 2000
 90
0
280
0
281
0
  0
CLASS
  1
ACDBPLACEHOLDER
  2
AcDbPlaceHolder
  3
AutoCAD 2000
 90
0
280
0
281
0
  0
CLASS
  1
LAYOUT
  2
AcDbLayout
  3
AutoCAD 2000
 90
0
280
0
281
0
  0
ENDSEC
  0
SECTION
  2
TABLES
  0
TABLE
  2
VPORT
  5
8
100
AcDbSymbolTable
 70
2
  0
VPORT
  5
1F4
100
AcDbSymbolTableRecord
100
AcDbViewportTableRecord
  2
*ACTIVE
 70
0
 10
0.0
 20
0.0
 11
1.0
 21
1.0
 12
148.5
 22
105.0
 13
0.0
 23
0.0
 14
1.0
 24
1.0
 15
0.0
 25
0.0
 16
0.0
 26
0.0
 36
1.0
 17
0.0
 27
0.0
 37
0.0
 40
210.0
 41
1.4142857143
 42
50.0
 43
0.0
 44
0.0
 50
0.0
 51
0.0
 71
0
 72
100
 73
1
 74
1
 75
0
 76
0
 77
0
 78
0
  0
ENDTAB
  0
TABLE
  2
LTYPE
  5
5
100
AcDbSymbolTable
 70
6
  0
LTYPE
  5
14
100
AcDbSymbolTableRecord
100
AcDbLinetypeTableRecord
  2
BYBLOCK
 70
0
  3

 72
65
 73
0
 40
0.0
  0
LTYPE
  5
15
100
AcDbSymbolTableRecord
100
AcDbLinetypeTableRecord
  2
BYLAYER
 70
0
  3

 72
65
 73
0
 40
0.0
  0
LTYPE
  5
16
100
AcDbSymbolTableRecord
100
AcDbLinetypeTableRecord
  2
CONTINUOUS
 70
64
  3
Solid line
 72
65
 73
0
 40
0.0
  0
LTYPE
  5
1F5
100
AcDbSymbolTableRecord
100
AcDbLinetypeTableRecord
  2
CENTER
 70
64
  3
____ _ ____ _ ____ _ ____ _ ____ _ ____ _ ____
 72
65
 73
4
 40
0.6
 49
0.375
 74
0
 49
-0.075
 74
0
 49
0.075
 74
0
 49
-0.075
 74
0
  0
LTYPE
  5
1F6
100
AcDbSymbolTableRecord
100
AcDbLinetypeTableRecord
  2
HIDDEN
 70
64
  3
- - - - - - - - - - - - - - - - - - - -
 72
65
 73
2
 40
0.2
 49
0.1
 74
0
 49
-0.1
 74
0
  0
LTYPE
  5
1F7
100
AcDbSymbolTableRecord
100
AcDbLinetypeTableRecord
  2
PHANTOM
 70
64
  3
_____ _ _ _____ _ _ _____ _ _ _____
 72
65
 73
6
 40
0.8
 49
0.45
 74
0
 49
-0.05
 74
0
 49
0.1
 74
0
 49
-0.05
 74
0
 49
0.1
 74
0
 49
-0.05
 74
0
  0
LTYPE
  5
1F8
100
AcDbSymbolTableRecord
100
AcDbLinetypeTableRecord
  2
DOT
 70
64
  3
. . . . . . . . . . . . . . . . . . . .
 72
65
 73
2
 40
0.2
 49
0.1
 74
0
 49
-0.1
 74
0
  0
LTYPE
  5
1F9
100
AcDbSymbolTableRecord
100
AcDbLinetypeTableRecord
  2
DASHED
 70
64
  3
- - - - - - - - - - - - - - - - - - - -
 72
65
 73
2
 40
0.2
 49
0.1
 74
0
 49
-0.1
 74
0
  0
ENDTAB
  0
TABLE
  2
LAYER
  5
2
100
AcDbSymbolTable
 70
36
  0
LAYER
  5
10
100
AcDbSymbolTableRecord
100
AcDbLayerTableRecord
  2
0
 70
0
 62
7
  6
CONTINUOUS
370
-3
390
F
  0
LAYER
  5
1FA
100
AcDbSymbolTableRecord
100
AcDbLayerTableRecord
  2
DEFAULT_1
 70
0
 62
7
  6
CENTER
370
-3
390
F
  0
LAYER
  5
1FB
100
AcDbSymbolTableRecord
100
AcDbLayerTableRecord
  2
DEFAULT_2
 70
0
 62
7
  6
HIDDEN
370
-3
390
F
  0
LAYER
  5
1FC
100
AcDbSymbolTableRecord
100
AcDbLayerTableRecord
  2
DEFAULT_3
 70
0
 62
7
  6
PHANTOM
370
-3
390
F
  0
LAYER
  5
1FD
100
AcDbSymbolTableRecord
100
AcDbLayerTableRecord
  2
ASSI
 70
0
 62
7
  6
CONTINUOUS
370
-3
390
F
  0
LAYER
  5
1FE
100
AcDbSymbolTableRecord
100
AcDbLayerTableRecord
  2
COORDINATE
 70
0
 62
7
  6
CONTINUOUS
370
-3
390
F
  0
LAYER
  5
1FF
100
AcDbSymbolTableRecord
100
AcDbLayerTableRecord
  2
COPY_PUBLISH
 70
0
 62
7
  6
CONTINUOUS
370
-3
390
F
  0
LAYER
  5
200
100
AcDbSymbolTableRecord
100
AcDbLayerTableRecord
  2
COSMETICI
 70
0
 62
7
  6
CONTINUOUS
370
-3
390
F
  0
LAYER
  5
201
100
AcDbSymbolTableRecord
100
AcDbLayerTableRecord
  2
CURVA_VERN
 70
0
 62
7
  6
CONTINUOUS
370
-3
390
F
  0
LAYER
  5
202
100
AcDbSymbolTableRecord
100
AcDbLayerTableRecord
  2
CURVE
 70
0
 62
7
  6
CONTINUOUS
370
-3
390
F
  0
LAYER
  5
203
100
AcDbSymbolTableRecord
100
AcDbLayerTableRecord
  2
DRAFT
 70
0
 62
7
  6
CONTINUOUS
370
-3
390
F
  0
LAYER
  5
204
100
AcDbSymbolTableRecord
100
AcDbLayerTableRecord
  2
IMPORT_IGES
 70
0
 62
7
  6
CONTINUOUS
370
-3
390
F
  0
LAYER
  5
205
100
AcDbSymbolTableRecord
100
AcDbLayerTableRecord
  2
INTF_1
 70
0
 62
7
  6
CONTINUOUS
370
-3
390
F
  0
LAYER
  5
206
100
AcDbSymbolTableRecord
100
AcDbLayerTableRecord
  2
NOTE
 70
0
 62
7
  6
CONTINUOUS
370
-3
390
F
  0
LAYER
  5
207
100
AcDbSymbolTableRecord
100
AcDbLayerTableRecord
  2
PIANI
 70
0
 62
7
  6
CONTINUOUS
370
-3
390
F
  0
LAYER
  5
208
100
AcDbSymbolTableRecord
100
AcDbLayerTableRecord
  2
PUNTI
 70
0
 62
7
  6
CONTINUOUS
370
-3
390
F
  0
LAYER
  5
209
100
AcDbSymbolTableRecord
100
AcDbLayerTableRecord
  2
RACCORDO
 70
0
 62
7
  6
CONTINUOUS
370
-3
390
F
  0
LAYER
  5
20A
100
AcDbSymbolTableRecord
100
AcDbLayerTableRecord
  2
SCRITTE
 70
0
 62
7
  6
CONTINUOUS
370
-3
390
F
  0
LAYER
  5
20B
100
AcDbSymbolTableRecord
100
AcDbLayerTableRecord
  2
SIMBOLI
 70
0
 62
7
  6
CONTINUOUS
370
-3
390
F
  0
LAYER
  5
20C
100
AcDbSymbolTableRecord
100
AcDbLayerTableRecord
  2
SMUSSO
 70
0
 62
7
  6
CONTINUOUS
370
-3
390
F
  0
LAYER
  5
20D
100
AcDbSymbolTableRecord
100
AcDbLayerTableRecord
  2
SNAPLINE
 70
0
 62
7
  6
CONTINUOUS
370
-3
390
F
  0
LAYER
  5
20E
100
AcDbSymbolTableRecord
100
AcDbLayerTableRecord
  2
SUPERFICI
 70
0
 62
7
  6
CONTINUOUS
370
-3
390
F
  0
LAYER
  5
20F
100
AcDbSymbolTableRecord
100
AcDbLayerTableRecord
  2
TRASH
 70
0
 62
7
  6
CONTINUOUS
370
-3
390
F
  0
ENDTAB
  0
TABLE
  2
STYLE
  5
3
100
AcDbSymbolTable
 70
1
  0
STYLE
  5
11
100
AcDbSymbolTableRecord
100
AcDbTextStyleTableRecord
  2
STANDARD
 70
0
 40
0.0
 41
0.8
 50
0.0
 71
0
 42
0.2
  3
txt
  4

  0
STYLE
  5
210
100
AcDbSymbolTableRecord
100
AcDbTextStyleTableRecord
  2
TEXTSTYLE_1
 70
0
 40
0.0
 41
0.8
 50
0.0
 71
0
 42
0.2
  3
gdt
  4

  0
ENDTAB
  0
TABLE
  2
VIEW
  5
6
100
AcDbSymbolTable
 70
0
  0
ENDTAB
  0
TABLE
  2
UCS
  5
7
100
AcDbSymbolTable
 70
0
  0
ENDTAB
  0
TABLE
  2
APPID
  5
9
100
AcDbSymbolTable
 70
1
  0
APPID
  5
211
100
AcDbSymbolTableRecord
100
AcDbRegAppTableRecord
  2
ACAD
 70
0
  0
ENDTAB
  0
TABLE
  2
BLOCK_RECORD
  5
1
100
AcDbSymbolTable
 70
0
  0
BLOCK_RECORD
  5
212
100
AcDbSymbolTableRecord
100
AcDbBlockTableRecord
  2
*Model_Space
  0
BLOCK_RECORD
  5
213
100
AcDbSymbolTableRecord
100
AcDbBlockTableRecord
  2
*Paper_Space
  0
BLOCK_RECORD
  5
214
100
AcDbSymbolTableRecord
100
AcDbBlockTableRecord
  2
_FILLED
  0
BLOCK_RECORD
  5
215
100
AcDbSymbolTableRecord
100
AcDbBlockTableRecord
  2
*D0
  0
BLOCK_RECORD
  5
216
100
AcDbSymbolTableRecord
100
AcDbBlockTableRecord
  2
*D1
  0
BLOCK_RECORD
  5
217
100
AcDbSymbolTableRecord
100
AcDbBlockTableRecord
  2
*D2
  0
BLOCK_RECORD
  5
218
100
AcDbSymbolTableRecord
100
AcDbBlockTableRecord
  2
*D3
  0
BLOCK_RECORD
  5
219
100
AcDbSymbolTableRecord
100
AcDbBlockTableRecord
  2
*D4
  0
ENDTAB
  0
TABLE
  2
DIMSTYLE
  5
A
100
AcDbSymbolTable
 70
1
100
AcDbDimStyleTable
 71
0
  0
DIMSTYLE
105
21A
100
AcDbSymbolTableRecord
100
AcDbDimStyleTableRecord
  2
STANDARD
 70
0
  3

  4

 40
1.0
 41
3.0
 42
0.0625
 43
0.38
 44
0.18
 45
0.0
 46
0.0
 47
0.01
 48
0.01
140
3.0
141
0.09
142
0.0
143
25.4
144
1.0
145
0.0
146
1.0
147
0.09
 71
1.0
 72
0.0
 73
0
 74
0
 75
0
 76
0
 77
1
 78
8
170
0
171
2
172
0
173
0
174
0
175
0
176
0
177
0
178
0
270
2
271
2
272
2
273
2
274
2
275
0
280
0
281
0
282
0
283
1
284
8
285
0
286
0
287
3
288
0
340
11
341
214
342
214
343
214
344
214
  0
DIMSTYLE
105
21B
100
AcDbSymbolTableRecord
100
AcDbDimStyleTableRecord
  2
DIMSTYLE_1
 70
0
  3

  4

 40
1.0
 41
3.0
 42
0.0625
 43
0.38
 44
0.18
 45
0.0
 46
0.0
 47
0.0
 48
0.0
140
3.0
141
0.09
142
0.0
143
25.4
144
1.0
145
0.0
146
1.0
147
0.09
 71
0.0
 72
0.0
 73
0
 74
0
 75
0
 76
0
 77
1
 78
8
170
0
171
2
172
0
173
0
174
0
175
0
176
0
177
0
178
0
270
2
271
1
272
1
273
2
274
2
275
0
280
0
281
0
282
0
283
1
284
8
285
0
286
0
287
3
288
0
340
11
341
214
342
214
343
214
344
214
  0
DIMSTYLE
105
21C
100
AcDbSymbolTableRecord
100
AcDbDimStyleTableRecord
  2
DIMSTYLE_2
 70
0
  3

  4

 40
1.0
 41
3.0
 42
0.0625
 43
0.38
 44
0.18
 45
0.0
 46
0.0
 47
0.0
 48
0.0
140
3.0
141
0.09
142
0.0
143
25.4
144
1.0
145
0.0
146
1.0
147
0.09
 71
0.0
 72
0.0
 73
0
 74
0
 75
0
 76
0
 77
1
 78
8
170
0
171
2
172
0
173
0
174
0
175
0
176
0
177
0
178
0
270
2
271
2
272
2
273
2
274
2
275
0
280
0
281
0
282
0
283
1
284
8
285
0
286
0
287
3
288
0
340
11
341
214
342
214
343
214
344
214
  0
ENDTAB
  0
ENDSEC
  0
SECTION
  2
BLOCKS
  0
BLOCK
  5
20
100
AcDbEntity
  8
0
100
AcDbBlockBegin
  2
*Model_Space
 70
0
 10
0.0
 20
0.0
 30
0.0
  3
*Model_Space
  1

  0
ENDBLK
  5
21
100
AcDbEntity
  8
0
100
AcDbBlockEnd
  0
BLOCK
  5
1C
100
AcDbEntity
  8
0
100
AcDbBlockBegin
  2
*Paper_Space
 70
0
 10
0.0
 20
0.0
 30
0.0
  3
*Paper_Space
  1

  0
ENDBLK
  5
1D
100
AcDbEntity
  8
0
100
AcDbBlockEnd
  0
BLOCK
  5
21D
100
AcDbEntity
  8
0
100
AcDbBlockBegin
  2
_FILLED
 70
64
 10
0.0
 20
0.0
  3
_FILLED
  1

  0
SOLID
  5
21E
100
AcDbEntity
  8
0
  6
BYBLOCK
 62
0
100
AcDbTrace
 10
0.0
 20
0.0
 11
-1.0
 21
0.3166666667
 12
-1.0
 22
-0.3166666667
 13
-1.0
 23
-0.3166666667
  0
ENDBLK
  5
21F
100
AcDbEntity
  8
0
  6
BYBLOCK
 62
0
100
AcDbBlockEnd
  0
BLOCK
  5
220
100
AcDbEntity
  8
0
100
AcDbBlockBegin
 62
7
  6
CONTINUOUS
  2
*D0
 70
65
 10
0.0
 20
0.0
  3
*D0
  1

  0
LINE
  5
221
100
AcDbEntity
  8
0
100
AcDbLine
 62
7
  6
CONTINUOUS
 10
60.7207143831
 20
173.5398751177
 11
60.7207144089
 21
193.2866302151
  0
LINE
  5
222
100
AcDbEntity
  8
0
100
AcDbLine
 62
7
  6
CONTINUOUS
 10
51.4006240928
 20
130.1796274475
 11
51.4006241753
 21
193.2866302273
  0
LINE
  5
223
100
AcDbEntity
  8
0
100
AcDbLine
 62
7
  6
CONTINUOUS
 10
60.7207144069
 20
191.7866302151
 11
64.7207144069
 21
191.7866302099
  0
LINE
  5
224
100
AcDbEntity
  8
0
100
AcDbLine
 62
7
  6
CONTINUOUS
 10
64.7207144069
 20
191.7866302099
 11
56.0606692901
 21
191.7866302212
  0
LINE
  5
225
100
AcDbEntity
  8
0
100
AcDbLine
 62
7
  6
CONTINUOUS
 10
51.4006241733
 20
191.7866302273
 11
47.4006241733
 21
191.7866302326
  0
LINE
  5
226
100
AcDbEntity
  8
0
100
AcDbLine
 62
7
  6
CONTINUOUS
 10
47.4006241733
 20
191.7866302326
 11
56.0606692901
 21
191.7866302212
  0
INSERT
  5
227
100
AcDbEntity
  8
0
100
AcDbBlockReference
 62
7
  6
CONTINUOUS
  2
_FILLED
 10
60.7207144069
 20
191.7866302151
 41
3.0
 42
3.0
 43
3.0
 50
179.9999999251
  0
INSERT
  5
228
100
AcDbEntity
  8
0
100
AcDbBlockReference
 62
7
  6
CONTINUOUS
  2
_FILLED
 10
51.4006241733
 20
191.7866302273
 41
3.0
 42
3.0
 43
3.0
 50
359.9999999251
  0
ENDBLK
  5
229
100
AcDbEntity
  8
0
  6
BYBLOCK
 62
0
100
AcDbBlockEnd
  0
BLOCK
  5
22A
100
AcDbEntity
  8
0
100
AcDbBlockBegin
 62
7
  6
CONTINUOUS
  2
*D1
 70
65
 10
0.0
 20
0.0
  3
*D1
  1

  0
LINE
  5
22B
100
AcDbEntity
  8
0
100
AcDbLine
 62
7
  6
CONTINUOUS
 10
95.9003067485
 20
175.3796274475
 11
95.9003067485
 21
203.2866302212
  0
LINE
  5
22C
100
AcDbEntity
  8
0
100
AcDbLine
 62
7
  6
CONTINUOUS
 10
242.4003067485
 20
175.3796274475
 11
242.4003067485
 21
203.2866302212
  0
LINE
  5
22D
100
AcDbEntity
  8
0
100
AcDbLine
 62
7
  6
CONTINUOUS
 10
95.9003067485
 20
201.7866302212
 11
169.1503067485
 21
201.7866302212
  0
LINE
  5
22E
100
AcDbEntity
  8
0
100
AcDbLine
 62
7
  6
CONTINUOUS
 10
242.4003067485
 20
201.7866302212
 11
169.1503067485
 21
201.7866302212
  0
INSERT
  5
22F
100
AcDbEntity
  8
0
100
AcDbBlockReference
 62
7
  6
CONTINUOUS
  2
_FILLED
 10
95.9003067485
 20
201.7866302212
 41
3.0
 42
3.0
 43
3.0
 50
180.0
  0
INSERT
  5
230
100
AcDbEntity
  8
0
100
AcDbBlockReference
 62
7
  6
CONTINUOUS
  2
_FILLED
 10
242.4003067485
 20
201.7866302212
 41
3.0
 42
3.0
 43
3.0
 50
360.0
  0
ENDBLK
  5
231
100
AcDbEntity
  8
0
  6
BYBLOCK
 62
0
100
AcDbBlockEnd
  0
BLOCK
  5
232
100
AcDbEntity
  8
0
100
AcDbBlockBegin
 62
7
  6
CONTINUOUS
  2
*D2
 70
65
 10
0.0
 20
0.0
  3
*D2
  1

  0
LINE
  5
233
100
AcDbEntity
  8
0
100
AcDbLine
 62
7
  6
CONTINUOUS
 10
242.1003067485
 20
175.6796274475
 11
268.7946481123
 21
175.6796274475
  0
LINE
  5
234
100
AcDbEntity
  8
0
100
AcDbLine
 62
7
  6
CONTINUOUS
 10
242.1003067485
 20
12.6796274475
 11
268.7946481123
 21
12.6796274475
  0
LINE
  5
235
100
AcDbEntity
  8
0
100
AcDbLine
 62
7
  6
CONTINUOUS
 10
267.2946481123
 20
175.6796274475
 11
267.2946481123
 21
94.1796274475
  0
LINE
  5
236
100
AcDbEntity
  8
0
100
AcDbLine
 62
7
  6
CONTINUOUS
 10
267.2946481123
 20
12.6796274475
 11
267.2946481123
 21
94.1796274475
  0
INSERT
  5
237
100
AcDbEntity
  8
0
100
AcDbBlockReference
 62
7
  6
CONTINUOUS
  2
_FILLED
 10
267.2946481123
 20
175.6796274475
 41
3.0
 42
3.0
 43
3.0
 50
90.0
  0
INSERT
  5
238
100
AcDbEntity
  8
0
100
AcDbBlockReference
 62
7
  6
CONTINUOUS
  2
_FILLED
 10
267.2946481123
 20
12.6796274475
 41
3.0
 42
3.0
 43
3.0
 50
270.0
  0
ENDBLK
  5
239
100
AcDbEntity
  8
0
  6
BYBLOCK
 62
0
100
AcDbBlockEnd
  0
BLOCK
  5
23A
100
AcDbEntity
  8
0
100
AcDbBlockBegin
 62
7
  6
CONTINUOUS
  2
*D3
 70
65
 10
0.0
 20
0.0
  3
*D3
  1

  0
LINE
  5
23B
100
AcDbEntity
  8
0
100
AcDbLine
 62
7
  6
CONTINUOUS
 10
123.850306436
 20
152.4801863903
 11
123.850306436
 21
193.2866302212
  0
LINE
  5
23C
100
AcDbEntity
  8
0
100
AcDbLine
 62
7
  6
CONTINUOUS
 10
214.4503070609
 20
152.4801863903
 11
214.4503070609
 21
193.2866302212
  0
LINE
  5
23D
100
AcDbEntity
  8
0
100
AcDbLine
 62
7
  6
CONTINUOUS
 10
123.850306436
 20
191.7866302212
 11
169.1503067485
 21
191.7866302212
  0
LINE
  5
23E
100
AcDbEntity
  8
0
100
AcDbLine
 62
7
  6
CONTINUOUS
 10
214.4503070609
 20
191.7866302212
 11
169.1503067485
 21
191.7866302212
  0
INSERT
  5
23F
100
AcDbEntity
  8
0
100
AcDbBlockReference
 62
7
  6
CONTINUOUS
  2
_FILLED
 10
123.850306436
 20
191.7866302212
 41
3.0
 42
3.0
 43
3.0
 50
180.0
  0
INSERT
  5
240
100
AcDbEntity
  8
0
100
AcDbBlockReference
 62
7
  6
CONTINUOUS
  2
_FILLED
 10
214.4503070609
 20
191.7866302212
 41
3.0
 42
3.0
 43
3.0
  0
ENDBLK
  5
241
100
AcDbEntity
  8
0
  6
BYBLOCK
 62
0
100
AcDbBlockEnd
  0
BLOCK
  5
242
100
AcDbEntity
  8
0
100
AcDbBlockBegin
 62
7
  6
CONTINUOUS
  2
*D4
 70
65
 10
0.0
 20
0.0
  3
*D4
  1

  0
LINE
  5
243
100
AcDbEntity
  8
0
100
AcDbLine
 62
7
  6
CONTINUOUS
 10
214.5498005937
 20
152.3796274475
 11
258.7946481123
 21
152.3796274475
  0
LINE
  5
244
100
AcDbEntity
  8
0
100
AcDbLine
 62
7
  6
CONTINUOUS
 10
214.5498005937
 20
35.9796274475
 11
258.7946481123
 21
35.9796274475
  0
LINE
  5
245
100
AcDbEntity
  8
0
100
AcDbLine
 62
7
  6
CONTINUOUS
 10
257.2946481123
 20
152.3796274475
 11
257.2946481123
 21
94.1796274475
  0
LINE
  5
246
100
AcDbEntity
  8
0
100
AcDbLine
 62
7
  6
CONTINUOUS
 10
257.2946481123
 20
35.9796274475
 11
257.2946481123
 21
94.1796274475
  0
INSERT
  5
247
100
AcDbEntity
  8
0
100
AcDbBlockReference
 62
7
  6
CONTINUOUS
  2
_FILLED
 10
257.2946481123
 20
152.3796274475
 41
3.0
 42
3.0
 43
3.0
 50
90.0
  0
INSERT
  5
248
100
AcDbEntity
  8
0
100
AcDbBlockReference
 62
7
  6
CONTINUOUS
  2
_FILLED
 10
257.2946481123
 20
35.9796274475
 41
3.0
 42
3.0
 43
3.0
 50
270.0
  0
ENDBLK
  5
249
100
AcDbEntity
  8
0
  6
BYBLOCK
 62
0
100
AcDbBlockEnd
  0
ENDSEC
  0
SECTION
  2
ENTITIES
  0
DIMENSION
  5
24A
100
AcDbEntity
  8
0
100
AcDbDimension
 62
7
  6
CONTINUOUS
  2
*D0
 10
51.4006241733
 20
191.7866302273
 11
52.953526433
 21
192.5366302212
 70
160
 71
2
 42
9.3200902336
  3
DIMSTYLE_1
100
AcDbAlignedDimension
 13
60.7207143831
 23
173.5398751177
 14
51.4006240928
 24
130.1796274475
 50
179.9999999251
100
AcDbRotatedDimension
  0
DIMENSION
  5
24B
100
AcDbEntity
  8
0
100
AcDbDimension
 62
7
  6
CONTINUOUS
  2
*D1
 10
242.4003067485
 20
201.7866302212
 11
164.0074496056
 21
202.5366302212
 70
160
 71
2
 42
146.5
  3
DIMSTYLE_2
100
AcDbAlignedDimension
 13
95.9003067485
 23
175.3796274475
 14
242.4003067485
 24
175.3796274475
 50
360.0
100
AcDbRotatedDimension
  0
DIMENSION
  5
24C
100
AcDbEntity
  8
0
100
AcDbDimension
 62
7
  6
CONTINUOUS
  2
*D2
 10
267.2946481123
 20
12.6796274475
 11
266.5446481123
 21
91.0724845903
 70
160
 71
2
 42
163.0
  3
DIMSTYLE_2
100
AcDbAlignedDimension
 13
242.1003067485
 23
175.6796274475
 14
242.1003067485
 24
12.6796274475
 50
270.0
100
AcDbRotatedDimension
  0
DIMENSION
  5
24D
100
AcDbEntity
  8
0
100
AcDbDimension
 62
7
  6
CONTINUOUS
  2
*D3
 10
214.4503070609
 20
191.7866302212
 11
164.7574496056
 21
192.5366302212
 70
160
 71
2
 42
90.6000006249
  3
DIMSTYLE_2
100
AcDbAlignedDimension
 13
123.850306436
 23
152.4801863903
 14
214.4503070609
 24
152.4801863903
100
AcDbRotatedDimension
  0
DIMENSION
  5
24E
100
AcDbEntity
  8
0
100
AcDbDimension
 62
7
  6
CONTINUOUS
  2
*D4
 10
257.2946481123
 20
35.9796274475
 11
256.5446481123
 21
89.2510560189
 70
160
 71
2
 42
116.4
  3
DIMSTYLE_2
100
AcDbAlignedDimension
 13
214.5498005937
 23
152.3796274475
 14
214.5498005937
 24
35.9796274475
 50
270.0
100
AcDbRotatedDimension
  0
LWPOLYLINE
  5
24F
100
AcDbEntity
  8
RACCORDO
100
AcDbPolyline
 62
253
  6
CONTINUOUS
 90
19
 70
0
 10
96.0107876268
 20
13.5889810999
 10
96.0161130864
 20
13.5820306563
 10
96.0247776768
 20
13.5751787009
 10
96.036722678
 20
13.5684716693
 10
96.0518671387
 20
13.5619550153
 10
96.0701084247
 20
13.5556729022
 10
96.0913229148
 20
13.5496679039
 10
96.1153668381
 20
13.5439807165
 10
96.1420772488
 20
13.5386498819
 10
96.1712731302
 20
13.5337115274
 10
96.2027566215
 20
13.5291991201
 10
96.236314359
 20
13.5251432407
 10
96.2717189216
 20
13.5215713759
 10
96.3087303722
 20
13.5185077323
 10
96.347097884
 20
13.5159730723
 10
96.3865614401
 20
13.5139845731
 10
96.4268535955
 20
13.512555711
 10
96.4677012901
 20
13.5116961692
 10
96.5088276986
 20
13.511411773
  0
LWPOLYLINE
  5
250
100
AcDbEntity
  8
ASSI
100
AcDbPolyline
 62
253
  6
CONTINUOUS
 90
19
 70
0
 10
96.0107876268
 20
13.5889810999
 10
96.0161130864
 20
13.5820306563
 10
96.0247776768
 20
13.5751787009
 10
96.036722678
 20
13.5684716693
 10
96.0518671387
 20
13.5619550153
 10
96.0701084247
 20
13.5556729022
 10
96.0913229148
 20
13.5496679039
 10
96.1153668381
 20
13.5439807165
 10
96.1420772488
 20
13.5386498819
 10
96.1712731302
 20
13.5337115274
 10
96.2027566215
 20
13.5291991201
 10
96.236314359
 20
13.5251432407
 10
96.2717189216
 20
13.5215713759
 10
96.3087303722
 20
13.5185077323
 10
96.347097884
 20
13.5159730723
 10
96.3865614401
 20
13.5139845731
 10
96.4268535955
 20
13.512555711
 10
96.4677012901
 20
13.5116961692
 10
96.5088276986
 20
13.511411773
  0
LWPOLYLINE
  5
251
100
AcDbEntity
  8
RACCORDO
100
AcDbPolyline
 62
253
  6
CONTINUOUS
 90
19
 70
0
 10
96.0107919598
 20
174.770273729
 10
96.016117346
 20
174.7772241863
 10
96.0247818324
 20
174.7840761542
 10
96.0367267
 20
174.7907831969
 10
96.0518709988
 20
174.7972998609
 10
96.0701120963
 20
174.8035819826
 10
96.0913263731
 20
174.8095869882
 10
96.1153700607
 20
174.8152741818
 10
96.1420802159
 20
174.8206050213
 10
96.1712758245
 20
174.8255433796
 10
96.202759029
 20
174.8300557896
 10
96.2363164684
 20
174.8341116705
 10
96.2717207251
 20
174.8376835359
 10
96.3087318655
 20
174.8407471791
 10
96.3470990662
 20
174.843281838
 10
96.3865623138
 20
174.8452703353
 10
96.426854167
 20
174.8466991948
 10
96.4677015692
 20
174.8475587335
 10
96.5088276986
 20
174.8478431261
  0
LWPOLYLINE
  5
252
100
AcDbEntity
  8
ASSI
100
AcDbPolyline
 62
253
  6
CONTINUOUS
 90
19
 70
0
 10
96.0107919598
 20
174.770273729
 10
96.016117346
 20
174.7772241863
 10
96.0247818324
 20
174.7840761542
 10
96.0367267
 20
174.7907831969
 10
96.0518709988
 20
174.7972998609
 10
96.0701120963
 20
174.8035819826
 10
96.0913263731
 20
174.8095869882
 10
96.1153700607
 20
174.8152741818
 10
96.1420802159
 20
174.8206050213
 10
96.1712758245
 20
174.8255433796
 10
96.202759029
 20
174.8300557896
 10
96.2363164684
 20
174.8341116705
 10
96.2717207251
 20
174.8376835359
 10
96.3087318655
 20
174.8407471791
 10
96.3470990662
 20
174.843281838
 10
96.3865623138
 20
174.8452703353
 10
96.426854167
 20
174.8466991948
 10
96.4677015692
 20
174.8475587335
 10
96.5088276986
 20
174.8478431261
  0
LINE
  5
253
100
AcDbEntity
  8
RACCORDO
100
AcDbLine
 62
7
  6
CONTINUOUS
 10
96.7003067485
 20
12.6796274475
 11
241.6003067485
 21
12.6796274475
  0
LINE
  5
254
100
AcDbEntity
  8
ASSI
100
AcDbLine
 62
7
  6
CONTINUOUS
 10
96.7003067485
 20
12.6796274475
 11
241.6003067485
 21
12.6796274475
  0
LWPOLYLINE
  5
255
100
AcDbEntity
  8
RACCORDO
100
AcDbPolyline
 62
253
  6
CONTINUOUS
 90
28
 70
0
 10
96.8031800471
 20
13.2117637775
 10
96.7859182359
 20
13.2122749715
 10
96.7688393232
 20
13.2137715699
 10
96.751943309
 20
13.2162535767
 10
96.7351775141
 20
13.2197336715
 10
96.7185946177
 20
13.2241991915
 10
96.7023526573
 20
13.2296121316
 10
96.6864503475
 20
13.2359837489
 10
96.6708889738
 20
13.243302818
 10
96.6558304293
 20
13.2514976117
 10
96.6412832448
 20
13.2605755707
 10
96.6272388895
 20
13.2705292971
 10
96.6138336647
 20
13.2812648049
 10
96.6010721659
 20
13.2927911191
 10
96.5889497975
 20
13.305099264
 10
96.5775890739
 20
13.3180682478
 10
96.5669981754
 20
13.3317041805
 10
96.5571689218
 20
13.3460010018
 10
96.5481992868
 20
13.3608194566
 10
96.5400976661
 20
13.3761649616
 10
96.532855664
 20
13.3920321442
 10
96.5265460675
 20
13.4082655545
 10
96.5211778383
 20
13.4248739345
 10
96.5167420147
 20
13.4418485759
 10
96.5132844987
 20
13.4590078377
 10
96.510820591
 20
13.4762911751
 10
96.509334991
 20
13.4937591486
 10
96.5088276986
 20
13.5114117671
  0
LWPOLYLINE
  5
256
100
AcDbEntity
  8
ASSI
100
AcDbPolyline
 62
253
  6
CONTINUOUS
 90
28
 70
0
 10
96.8031800471
 20
13.2117637775
 10
96.7859182359
 20
13.2122749715
 10
96.7688393232
 20
13.2137715699
 10
96.751943309
 20
13.2162535767
 10
96.7351775141
 20
13.2197336715
 10
96.7185946177
 20
13.2241991915
 10
96.7023526573
 20
13.2296121316
 10
96.6864503475
 20
13.2359837489
 10
96.6708889738
 20
13.243302818
 10
96.6558304293
 20
13.2514976117
 10
96.6412832448
 20
13.2605755707
 10
96.6272388895
 20
13.2705292971
 10
96.6138336647
 20
13.2812648049
 10
96.6010721659
 20
13.2927911191
 10
96.5889497975
 20
13.305099264
 10
96.5775890739
 20
13.3180682478
 10
96.5669981754
 20
13.3317041805
 10
96.5571689218
 20
13.3460010018
 10
96.5481992868
 20
13.3608194566
 10
96.5400976661
 20
13.3761649616
 10
96.532855664
 20
13.3920321442
 10
96.5265460675
 20
13.4082655545
 10
96.5211778383
 20
13.4248739345
 10
96.5167420147
 20
13.4418485759
 10
96.5132844987
 20
13.4590078377
 10
96.510820591
 20
13.4762911751
 10
96.509334991
 20
13.4937591486
 10
96.5088276986
 20
13.5114117671
  0
LWPOLYLINE
  5
257
100
AcDbEntity
  8
RACCORDO
100
AcDbPolyline
 62
253
  6
CONTINUOUS
 90
28
 70
0
 10
96.8031800471
 20
12.7996160939
 10
96.7574238012
 20
12.8011482683
 10
96.7118681556
 20
12.8053105314
 10
96.6666617121
 20
12.8120841989
 10
96.6219700574
 20
12.8214376515
 10
96.5779192247
 20
12.8333379088
 10
96.5345979998
 20
12.8477612843
 10
96.4921236903
 20
12.864676828
 10
96.4506642093
 20
12.8840255482
 10
96.4103812953
 20
12.9057345874
 10
96.3714177085
 20
12.9297269905
 10
96.333890753
 20
12.9559298001
 10
96.297916551
 20
12.9842618961
 10
96.2636134305
 20
13.0146337551
 10
96.2310969906
 20
13.0469461464
 10
96.2004724317
 20
13.08109478
 10
96.171842986
 20
13.1169695154
 10
96.1453047739
 20
13.1544545849
 10
96.1209435661
 20
13.1934292565
 10
96.0988419218
 20
13.2337696882
 10
96.0790769231
 20
13.2753432923
 10
96.0617152688
 20
13.3180093587
 10
96.0468182803
 20
13.3616262949
 10
96.0344369484
 20
13.4060546667
 10
96.0246110144
 20
13.4511521237
 10
96.0173759146
 20
13.4967724289
 10
96.0127615405
 20
13.5427656313
 10
96.0107876244
 20
13.5889811078
  0
LWPOLYLINE
  5
258
100
AcDbEntity
  8
ASSI
100
AcDbPolyline
 62
253
  6
CONTINUOUS
 90
28
 70
0
 10
96.8031800471
 20
12.7996160939
 10
96.7574238012
 20
12.8011482683
 10
96.7118681556
 20
12.8053105314
 10
96.6666617121
 20
12.8120841989
 10
96.6219700574
 20
12.8214376515
 10
96.5779192247
 20
12.8333379088
 10
96.5345979998
 20
12.8477612843
 10
96.4921236903
 20
12.864676828
 10
96.4506642093
 20
12.8840255482
 10
96.4103812953
 20
12.9057345874
 10
96.3714177085
 20
12.9297269905
 10
96.333890753
 20
12.9559298001
 10
96.297916551
 20
12.9842618961
 10
96.2636134305
 20
13.0146337551
 10
96.2310969906
 20
13.0469461464
 10
96.2004724317
 20
13.08109478
 10
96.171842986
 20
13.1169695154
 10
96.1453047739
 20
13.1544545849
 10
96.1209435661
 20
13.1934292565
 10
96.0988419218
 20
13.2337696882
 10
96.0790769231
 20
13.2753432923
 10
96.0617152688
 20
13.3180093587
 10
96.0468182803
 20
13.3616262949
 10
96.0344369484
 20
13.4060546667
 10
96.0246110144
 20
13.4511521237
 10
96.0173759146
 20
13.4967724289
 10
96.0127615405
 20
13.5427656313
 10
96.0107876244
 20
13.5889811078
  0
LINE
  5
259
100
AcDbEntity
  8
RACCORDO
100
AcDbLine
 62
253
  6
CONTINUOUS
 10
241.4974334499
 20
12.7996160939
 11
96.8031800471
 21
12.7996160939
  0
LINE
  5
25A
100
AcDbEntity
  8
ASSI
100
AcDbLine
 62
253
  6
CONTINUOUS
 10
241.4974334499
 20
12.7996160939
 11
96.8031800471
 21
12.7996160939
  0
LINE
  5
25B
100
AcDbEntity
  8
RACCORDO
100
AcDbLine
 62
253
  6
CONTINUOUS
 10
241.4974334499
 20
13.2117637775
 11
96.8031800471
 21
13.2117637775
  0
LINE
  5
25C
100
AcDbEntity
  8
ASSI
100
AcDbLine
 62
253
  6
CONTINUOUS
 10
241.4974334499
 20
13.2117637775
 11
96.8031800471
 21
13.2117637775
  0
LWPOLYLINE
  5
25D
100
AcDbEntity
  8
RACCORDO
100
AcDbPolyline
 62
253
  6
CONTINUOUS
 90
18
 70
0
 10
96.009248146
 20
36.121050513
 10
96.0145304548
 20
36.1190004624
 10
96.0231579244
 20
36.1169792311
 10
96.0350719922
 20
36.1150005389
 10
96.0501917862
 20
36.1130778172
 10
96.0684146744
 20
36.1112241172
 10
96.0896169612
 20
36.1094520218
 10
96.1136547269
 20
36.1077735597
 10
96.1403648049
 20
36.1062001243
 10
96.1695658891
 20
36.104742396
 10
96.2010597646
 20
36.1034102696
 10
96.2346326532
 20
36.1022127876
 10
96.2700566645
 20
36.1011580783
 10
96.307091343
 20
36.1002533012
 10
96.3454852997
 20
36.0995045977
 10
96.3849779194
 20
36.09891705
 10
96.4253011288
 20
36.0984946463
 10
96.5073406926
 20
36.0981555994
  0
LWPOLYLINE
  5
25E
100
AcDbEntity
  8
ASSI
100
AcDbPolyline
 62
253
  6
CONTINUOUS
 90
18
 70
0
 10
96.009248146
 20
36.121050513
 10
96.0145304548
 20
36.1190004624
 10
96.0231579244
 20
36.1169792311
 10
96.0350719922
 20
36.1150005389
 10
96.0501917862
 20
36.1130778172
 10
96.0684146744
 20
36.1112241172
 10
96.0896169612
 20
36.1094520218
 10
96.1136547269
 20
36.1077735597
 10
96.1403648049
 20
36.1062001243
 10
96.1695658891
 20
36.104742396
 10
96.2010597646
 20
36.1034102696
 10
96.2346326532
 20
36.1022127876
 10
96.2700566645
 20
36.1011580783
 10
96.307091343
 20
36.1002533012
 10
96.3454852997
 20
36.0995045977
 10
96.3849779194
 20
36.09891705
 10
96.4253011288
 20
36.0984946463
 10
96.5073406926
 20
36.0981555994
  0
LWPOLYLINE
  5
25F
100
AcDbEntity
  8
RACCORDO
100
AcDbPolyline
 62
253
  6
CONTINUOUS
 90
17
 70
0
 10
96.0092495191
 20
36.0584558402
 10
96.0145318813
 20
36.0564001957
 10
96.0231593969
 20
36.0543735084
 10
96.0350735029
 20
36.0523895353
 10
96.0501933275
 20
36.0504617434
 10
96.0684162385
 20
36.0486032185
 10
96.0896185404
 20
36.0468265759
 10
96.1136563138
 20
36.0451438755
 10
96.1403663922
 20
36.0435665392
 10
96.16956747
 20
36.0421052739
 10
96.2010613326
 20
36.0407699986
 10
96.2346342025
 20
36.0395697769
 10
96.2700581898
 20
36.0385127558
 10
96.3070928395
 20
36.0376061104
 10
96.3454867635
 20
36.0368559948
 10
96.3849793472
 20
36.0362675008
 10
96.4661825663
 20
36.035590232
  0
LWPOLYLINE
  5
260
100
AcDbEntity
  8
ASSI
100
AcDbPolyline
 62
253
  6
CONTINUOUS
 90
17
 70
0
 10
96.0092495191
 20
36.0584558402
 10
96.0145318813
 20
36.0564001957
 10
96.0231593969
 20
36.0543735084
 10
96.0350735029
 20
36.0523895353
 10
96.0501933275
 20
36.0504617434
 10
96.0684162385
 20
36.0486032185
 10
96.0896185404
 20
36.0468265759
 10
96.1136563138
 20
36.0451438755
 10
96.1403663922
 20
36.0435665392
 10
96.16956747
 20
36.0421052739
 10
96.2010613326
 20
36.0407699986
 10
96.2346342025
 20
36.0395697769
 10
96.2700581898
 20
36.0385127558
 10
96.3070928395
 20
36.0376061104
 10
96.3454867635
 20
36.0368559948
 10
96.3849793472
 20
36.0362675008
 10
96.4661825663
 20
36.035590232
  0
LINE
  5
261
100
AcDbEntity
  8
RACCORDO
100
AcDbLine
 62
7
  6
CONTINUOUS
 10
95.9003067485
 20
174.8796274475
 11
95.9003067485
 21
152.2382043819
  0
LINE
  5
262
100
AcDbEntity
  8
DRAFT
100
AcDbLine
 62
7
  6
CONTINUOUS
 10
95.9003067485
 20
152.2382043819
 11
95.9003067485
 21
36.121050513
  0
LINE
  5
263
100
AcDbEntity
  8
RACCORDO
100
AcDbLine
 62
7
  6
CONTINUOUS
 10
95.9003067485
 20
36.121050513
 11
95.9003067485
 21
13.4796274475
  0
LINE
  5
264
100
AcDbEntity
  8
ASSI
100
AcDbLine
 62
7
  6
CONTINUOUS
 10
95.9003067485
 20
174.8796274475
 11
95.9003067485
 21
13.4796274475
  0
LINE
  5
265
100
AcDbEntity
  8
RACCORDO
100
AcDbLine
 62
253
  6
CONTINUOUS
 10
96.0107876245
 20
13.5889811079
 11
96.0094447132
 21
157.3174598115
  0
LINE
  5
266
100
AcDbEntity
  8
ASSI
100
AcDbLine
 62
253
  6
CONTINUOUS
 10
96.0107876245
 20
13.5889811079
 11
96.0094447132
 21
157.3174598115
  0
LINE
  5
267
100
AcDbEntity
  8
RACCORDO
100
AcDbLine
 62
253
  6
CONTINUOUS
 10
96.5088276986
 20
13.5114117671
 11
96.5072030635
 21
129.6796229453
  0
LINE
  5
268
100
AcDbEntity
  8
ASSI
100
AcDbLine
 62
253
  6
CONTINUOUS
 10
96.5088276986
 20
13.5114117671
 11
96.5072030635
 21
129.6796229453
  0
LINE
  5
269
100
AcDbEntity
  8
RACCORDO
100
AcDbLine
 62
253
  6
CONTINUOUS
 10
96.0094447132
 20
157.3174598115
 11
96.0107876245
 21
174.770273787
  0
LINE
  5
26A
100
AcDbEntity
  8
ASSI
100
AcDbLine
 62
253
  6
CONTINUOUS
 10
96.0094447132
 20
157.3174598115
 11
96.0107876245
 21
174.770273787
  0
LINE
  5
26B
100
AcDbEntity
  8
RACCORDO
100
AcDbLine
 62
253
  6
CONTINUOUS
 10
96.5072030635
 20
129.6796229453
 11
96.5088276986
 21
174.8478431279
  0
LINE
  5
26C
100
AcDbEntity
  8
ASSI
100
AcDbLine
 62
253
  6
CONTINUOUS
 10
96.5072030635
 20
129.6796229453
 11
96.5088276986
 21
174.8478431279
  0
LWPOLYLINE
  5
26D
100
AcDbEntity
  8
RACCORDO
100
AcDbPolyline
 62
253
  6
CONTINUOUS
 90
28
 70
0
 10
96.5088276986
 20
174.8478431279
 10
96.5093378827
 20
174.8655044098
 10
96.5108235935
 20
174.8829729787
 10
96.5132848311
 20
174.900248844
 10
96.5167354697
 20
174.9173870353
 10
96.5211616351
 20
174.9343325395
 10
96.5265217044
 20
174.950920309
 10
96.5328267202
 20
174.9671501833
 10
96.54006564
 20
174.9830223558
 10
96.5481637132
 20
174.9983723242
 10
96.5571283264
 20
175.0131911915
 10
96.5669520932
 20
175.0274878992
 10
96.5775381033
 20
175.0411247151
 10
96.5888947845
 20
175.0540962272
 10
96.6010137091
 20
175.066407897
 10
96.6137726843
 20
175.0779383113
 10
96.6271769227
 20
175.0886787048
 10
96.6412212116
 20
175.098637892
 10
96.6557677203
 20
175.1077208329
 10
96.6708213057
 20
175.1159190652
 10
96.6863771109
 20
175.1232410942
 10
96.7022827338
 20
175.1296173318
 10
96.7185458108
 20
175.1350388005
 10
96.7351587055
 20
175.1395145096
 10
96.7519461075
 20
175.1430018495
 10
96.7688495801
 20
175.1454866231
 10
96.7859275599
 20
175.1469830443
 10
96.8031800471
 20
175.1474911174
  0
LWPOLYLINE
  5
26E
100
AcDbEntity
  8
ASSI
100
AcDbPolyline
 62
253
  6
CONTINUOUS
 90
28
 70
0
 10
96.5088276986
 20
174.8478431279
 10
96.5093378827
 20
174.8655044098
 10
96.5108235935
 20
174.8829729787
 10
96.5132848311
 20
174.900248844
 10
96.5167354697
 20
174.9173870353
 10
96.5211616351
 20
174.9343325395
 10
96.5265217044
 20
174.950920309
 10
96.5328267202
 20
174.9671501833
 10
96.54006564
 20
174.9830223558
 10
96.5481637132
 20
174.9983723242
 10
96.5571283264
 20
175.0131911915
 10
96.5669520932
 20
175.0274878992
 10
96.5775381033
 20
175.0411247151
 10
96.5888947845
 20
175.0540962272
 10
96.6010137091
 20
175.066407897
 10
96.6137726843
 20
175.0779383113
 10
96.6271769227
 20
175.0886787048
 10
96.6412212116
 20
175.098637892
 10
96.6557677203
 20
175.1077208329
 10
96.6708213057
 20
175.1159190652
 10
96.6863771109
 20
175.1232410942
 10
96.7022827338
 20
175.1296173318
 10
96.7185458108
 20
175.1350388005
 10
96.7351587055
 20
175.1395145096
 10
96.7519461075
 20
175.1430018495
 10
96.7688495801
 20
175.1454866231
 10
96.7859275599
 20
175.1469830443
 10
96.8031800471
 20
175.1474911174
  0
LWPOLYLINE
  5
26F
100
AcDbEntity
  8
RACCORDO
100
AcDbPolyline
 62
253
  6
CONTINUOUS
 90
28
 70
0
 10
96.0107876244
 20
174.7702737871
 10
96.012762321
 20
174.8164998804
 10
96.0173762878
 20
174.8624852611
 10
96.0246066563
 20
174.9080797033
 10
96.0344171364
 20
174.9531206179
 10
96.046771141
 20
174.9974766917
 10
96.0616406109
 20
175.0410459231
 10
96.0789873436
 20
175.0837083059
 10
96.0987471687
 20
175.125299732
 10
96.120844375
 20
175.1656562026
 10
96.1451966439
 20
175.2046377256
 10
96.1717252117
 20
175.2421285668
 10
96.2003453123
 20
175.2780096654
 10
96.2309613128
 20
175.3121657281
 10
96.2634696153
 20
175.3444860497
 10
96.2977650024
 20
175.3748662664
 10
96.3337324457
 20
175.4032075366
 10
96.371253129
 20
175.4294198462
 10
96.4102091109
 20
175.4534209871
 10
96.4504744005
 20
175.4751340419
 10
96.4919141923
 20
175.4944876125
 10
96.5343916259
 20
175.5114182454
 10
96.5777626416
 20
175.5258697575
 10
96.6218891949
 20
175.5377978179
 10
96.6666397925
 20
175.5471667559
 10
96.7118727028
 20
175.5539449471
 10
96.7574357745
 20
175.5581074199
 10
96.8031800471
 20
175.5596388011
  0
LWPOLYLINE
  5
270
100
AcDbEntity
  8
ASSI
100
AcDbPolyline
 62
253
  6
CONTINUOUS
 90
28
 70
0
 10
96.0107876244
 20
174.7702737871
 10
96.012762321
 20
174.8164998804
 10
96.0173762878
 20
174.8624852611
 10
96.0246066563
 20
174.9080797033
 10
96.0344171364
 20
174.9531206179
 10
96.046771141
 20
174.9974766917
 10
96.0616406109
 20
175.0410459231
 10
96.0789873436
 20
175.0837083059
 10
96.0987471687
 20
175.125299732
 10
96.120844375
 20
175.1656562026
 10
96.1451966439
 20
175.2046377256
 10
96.1717252117
 20
175.2421285668
 10
96.2003453123
 20
175.2780096654
 10
96.2309613128
 20
175.3121657281
 10
96.2634696153
 20
175.3444860497
 10
96.2977650024
 20
175.3748662664
 10
96.3337324457
 20
175.4032075366
 10
96.371253129
 20
175.4294198462
 10
96.4102091109
 20
175.4534209871
 10
96.4504744005
 20
175.4751340419
 10
96.4919141923
 20
175.4944876125
 10
96.5343916259
 20
175.5114182454
 10
96.5777626416
 20
175.5258697575
 10
96.6218891949
 20
175.5377978179
 10
96.6666397925
 20
175.5471667559
 10
96.7118727028
 20
175.5539449471
 10
96.7574357745
 20
175.5581074199
 10
96.8031800471
 20
175.5596388011
  0
LWPOLYLINE
  5
271
100
AcDbEntity
  8
0
100
AcDbPolyline
 62
7
  6
CONTINUOUS
 90
3
 70
0
 43
0.3500000006
 10
164.0074460449
 20
204.6794829712
 10
164.8645839844
 20
205.5366390381
 10
164.8645839844
 20
202.5366381226
  0
LWPOLYLINE
  5
272
100
AcDbEntity
  8
0
100
AcDbPolyline
 62
7
  6
CONTINUOUS
 90
10
 70
0
 43
0.3500000006
 10
169.1503099365
 20
205.5366390381
 10
168.5074564819
 20
204.8937674561
 10
168.0788693848
 20
204.0366295166
 10
168.0788693848
 20
202.9652070923
 10
168.5074564819
 20
202.5366381226
 10
169.1503099365
 20
202.5366381226
 10
169.5788789063
 20
202.9652070923
 10
169.5788789063
 20
203.8223450317
 10
169.1503099365
 20
204.2509140015
 10
168.2217317505
 20
204.2509140015
  0
LWPOLYLINE
  5
273
100
AcDbEntity
  8
RACCORDO
100
AcDbPolyline
 62
253
  6
CONTINUOUS
 90
16
 70
0
 10
96.0092495205
 20
152.3007990548
 10
96.0145318841
 20
152.3028546992
 10
96.0231594009
 20
152.3048813864
 10
96.035073508
 20
152.3068653594
 10
96.0501933333
 20
152.3087931512
 10
96.068416245
 20
152.3106516761
 10
96.0896185473
 20
152.3124283186
 10
96.1136563209
 20
152.3141110189
 10
96.1403663993
 20
152.3156883551
 10
96.169567477
 20
152.3171496204
 10
96.2010613393
 20
152.3184848957
 10
96.2346342087
 20
152.3196851173
 10
96.2700581954
 20
152.3207421383
 10
96.3070928444
 20
152.3216487837
 10
96.3454867676
 20
152.3223988992
 10
96.3849793503
 20
152.3229873932
  0
LWPOLYLINE
  5
274
100
AcDbEntity
  8
ASSI
100
AcDbPolyline
 62
253
  6
CONTINUOUS
 90
16
 70
0
 10
96.0092495205
 20
152.3007990548
 10
96.0145318841
 20
152.3028546992
 10
96.0231594009
 20
152.3048813864
 10
96.035073508
 20
152.3068653594
 10
96.0501933333
 20
152.3087931512
 10
96.068416245
 20
152.3106516761
 10
96.0896185473
 20
152.3124283186
 10
96.1136563209
 20
152.3141110189
 10
96.1403663993
 20
152.3156883551
 10
96.169567477
 20
152.3171496204
 10
96.2010613393
 20
152.3184848957
 10
96.2346342087
 20
152.3196851173
 10
96.2700581954
 20
152.3207421383
 10
96.3070928444
 20
152.3216487837
 10
96.3454867676
 20
152.3223988992
 10
96.3849793503
 20
152.3229873932
  0
LWPOLYLINE
  5
275
100
AcDbEntity
  8
RACCORDO
100
AcDbPolyline
 62
253
  6
CONTINUOUS
 90
16
 70
0
 10
96.009248146
 20
152.2382043819
 10
96.0145304547
 20
152.2402544325
 10
96.0231579243
 20
152.2422756639
 10
96.035071992
 20
152.244254356
 10
96.050191786
 20
152.2461770777
 10
96.0684146742
 20
152.2480307777
 10
96.089616961
 20
152.2498028732
 10
96.1136547267
 20
152.2514813352
 10
96.1403648047
 20
152.2530547706
 10
96.1695658889
 20
152.254512499
 10
96.2010597644
 20
152.2558446254
 10
96.234632653
 20
152.2570421074
 10
96.2700566644
 20
152.2580968166
 10
96.3070913428
 20
152.2590015938
 10
96.3454852996
 20
152.2597502973
 10
96.3849779193
 20
152.260337845
  0
LWPOLYLINE
  5
276
100
AcDbEntity
  8
ASSI
100
AcDbPolyline
 62
253
  6
CONTINUOUS
 90
16
 70
0
 10
96.009248146
 20
152.2382043819
 10
96.0145304547
 20
152.2402544325
 10
96.0231579243
 20
152.2422756639
 10
96.035071992
 20
152.244254356
 10
96.050191786
 20
152.2461770777
 10
96.0684146742
 20
152.2480307777
 10
96.089616961
 20
152.2498028732
 10
96.1136547267
 20
152.2514813352
 10
96.1403648047
 20
152.2530547706
 10
96.1695658889
 20
152.254512499
 10
96.2010597644
 20
152.2558446254
 10
96.234632653
 20
152.2570421074
 10
96.2700566644
 20
152.2580968166
 10
96.3070913428
 20
152.2590015938
 10
96.3454852996
 20
152.2597502973
 10
96.3849779193
 20
152.260337845
  0
LWPOLYLINE
  5
277
100
AcDbEntity
  8
RACCORDO
100
AcDbPolyline
 62
7
  6
CONTINUOUS
 90
13
 70
0
 10
123.9538988788
 20
36.1109864591
 10
123.9734631658
 20
36.090928328
 10
123.9941578291
 20
36.072428526
 10
124.0159828687
 20
36.0554870299
 10
124.0390504639
 20
36.0400381581
 10
124.0632484354
 20
36.0261475516
 10
124.0882402454
 20
36.0140121724
 10
124.1140387417
 20
36.0036541576
 10
124.1406310765
 20
35.9950513376
 10
124.1676421682
 20
35.9883342141
 10
124.1949469896
 20
35.9835462815
 10
124.222670568
 20
35.9806440274
 10
124.2508129032
 20
35.9796274475
  0
LWPOLYLINE
  5
278
100
AcDbEntity
  8
ASSI
100
AcDbPolyline
 62
7
  6
CONTINUOUS
 90
13
 70
0
 10
123.9538988788
 20
36.1109864591
 10
123.9734631658
 20
36.090928328
 10
123.9941578291
 20
36.072428526
 10
124.0159828687
 20
36.0554870299
 10
124.0390504639
 20
36.0400381581
 10
124.0632484354
 20
36.0261475516
 10
124.0882402454
 20
36.0140121724
 10
124.1140387417
 20
36.0036541576
 10
124.1406310765
 20
35.9950513376
 10
124.1676421682
 20
35.9883342141
 10
124.1949469896
 20
35.9835462815
 10
124.222670568
 20
35.9806440274
 10
124.2508129032
 20
35.9796274475
  0
LINE
  5
279
100
AcDbEntity
  8
RACCORDO
100
AcDbLine
 62
253
  6
CONTINUOUS
 10
96.8031800471
 20
175.5596388011
 11
96.8031800471
 21
175.1474911174
  0
LINE
  5
27A
100
AcDbEntity
  8
ASSI
100
AcDbLine
 62
253
  6
CONTINUOUS
 10
96.8031800471
 20
175.5596388011
 11
96.8031800471
 21
175.1474911174
  0
LINE
  5
27B
100
AcDbEntity
  8
RACCORDO
100
AcDbLine
 62
253
  6
CONTINUOUS
 10
96.8031800471
 20
12.7996160939
 11
96.8031800471
 21
13.2117637775
  0
LINE
  5
27C
100
AcDbEntity
  8
ASSI
100
AcDbLine
 62
253
  6
CONTINUOUS
 10
96.8031800471
 20
12.7996160939
 11
96.8031800471
 21
13.2117637775
  0
LWPOLYLINE
  5
27D
100
AcDbEntity
  8
RACCORDO
100
AcDbPolyline
 62
7
  6
CONTINUOUS
 90
13
 70
0
 10
123.9538988788
 20
152.2482684359
 10
123.93791379
 20
152.2295039759
 10
123.9232068522
 20
152.2099604302
 10
123.9097780654
 20
152.1896377936
 10
123.8975892103
 20
152.1684622503
 10
123.8866785061
 20
152.146507605
 10
123.8771606107
 20
152.1239952849
 10
123.8690450319
 20
152.1009052627
 10
123.8623222617
 20
152.0772575571
 10
123.8570784348
 20
152.0533336685
 10
123.8533422625
 20
152.0292274299
 10
123.8510850335
 20
152.0048450046
 10
123.8503067476
 20
151.9801863903
  0
LWPOLYLINE
  5
27E
100
AcDbEntity
  8
ASSI
100
AcDbPolyline
 62
7
  6
CONTINUOUS
 90
13
 70
0
 10
123.9538988788
 20
152.2482684359
 10
123.93791379
 20
152.2295039759
 10
123.9232068522
 20
152.2099604302
 10
123.9097780654
 20
152.1896377936
 10
123.8975892103
 20
152.1684622503
 10
123.8866785061
 20
152.146507605
 10
123.8771606107
 20
152.1239952849
 10
123.8690450319
 20
152.1009052627
 10
123.8623222617
 20
152.0772575571
 10
123.8570784348
 20
152.0533336685
 10
123.8533422625
 20
152.0292274299
 10
123.8510850335
 20
152.0048450046
 10
123.8503067476
 20
151.9801863903
  0
LWPOLYLINE
  5
27F
100
AcDbEntity
  8
0
100
AcDbPolyline
 62
7
  6
CONTINUOUS
 90
10
 70
0
 43
0.3500000006
 10
165.1860197754
 20
192.5366350708
 10
166.0431577148
 20
193.3937730103
 10
166.2574421997
 20
194.2509109497
 10
166.2574421997
 20
195.1080670166
 10
165.82887323
 20
195.5366359863
 10
165.1860197754
 20
195.5366359863
 10
164.7574508057
 20
195.1080670166
 10
164.7574508057
 20
194.2509109497
 10
165.1860197754
 20
193.82234198
 10
166.1145979614
 20
193.82234198
  0
LWPOLYLINE
  5
280
100
AcDbEntity
  8
SCRITTE
100
AcDbPolyline
 62
253
  6
CONTINUOUS
 90
33
 70
0
 10
172.4703255508
 20
32.5688201065
 10
172.5314626788
 20
32.5776250548
 10
172.591684023
 20
32.5858950676
 10
172.650991785
 20
32.5935982492
 10
172.7093881667
 20
32.600702704
 10
172.7668753699
 20
32.6071765365
 10
172.8234568313
 20
32.6129910568
 10
172.8791409271
 20
32.6181303978
 10
172.9339372686
 20
32.6225818983
 10
172.9878554669
 20
32.6263328972
 10
173.0409051333
 20
32.629370733
 10
173.0930921897
 20
32.6316858829
 10
173.1444078009
 20
32.6332813769
 10
173.1948394425
 20
32.6341633834
 10
173.2443745901
 20
32.6343380707
 10
173.2930007191
 20
32.6338116072
 10
173.3407105353
 20
32.6325897025
 10
173.3875176642
 20
32.6306762312
 10
173.4334409616
 20
32.6280746091
 10
173.4784992832
 20
32.624788252
 10
173.5227114847
 20
32.6208205757
 10
173.5589157927
 20
32.616992866
 10
173.594517794
 20
32.612676417
 10
173.6294896712
 20
32.6078532557
 10
173.6638036067
 20
32.6025054091
 10
173.6974317832
 20
32.5966149039
 10
173.730346383
 20
32.5901637672
 10
173.762525441
 20
32.5831371111
 10
173.7939704008
 20
32.5755323878
 10
173.8246885585
 20
32.567350135
 10
173.85468721
 20
32.5585908901
 10
173.8839736513
 20
32.5492551906
 10
173.9125551782
 20
32.539343574
  0
LWPOLYLINE
  5
281
100
AcDbEntity
  8
RACCORDO
100
AcDbPolyline
 62
7
  6
CONTINUOUS
 90
13
 70
0
 10
214.0498005937
 20
35.9796274475
 10
214.0779103393
 20
35.9806360222
 10
214.1056172373
 20
35.983534746
 10
214.1329212878
 20
35.9883236235
 10
214.159957871
 20
35.9950494681
 10
214.1865916067
 20
36.0036654843
 10
214.2124163542
 20
36.0140312672
 10
214.2374022584
 20
36.0261631631
 10
214.2615791744
 20
36.0400448579
 10
214.284630526
 20
36.0554869562
 10
214.3064507878
 20
36.0724263387
 10
214.3271454851
 20
36.0909261653
 10
214.3467146181
 20
36.1109864591
  0
LWPOLYLINE
  5
282
100
AcDbEntity
  8
ASSI
100
AcDbPolyline
 62
7
  6
CONTINUOUS
 90
13
 70
0
 10
214.0498005937
 20
35.9796274475
 10
214.0779103393
 20
35.9806360222
 10
214.1056172373
 20
35.983534746
 10
214.1329212878
 20
35.9883236235
 10
214.159957871
 20
35.9950494681
 10
214.1865916067
 20
36.0036654843
 10
214.2124163542
 20
36.0140312672
 10
214.2374022584
 20
36.0261631631
 10
214.2615791744
 20
36.0400448579
 10
214.284630526
 20
36.0554869562
 10
214.3064507878
 20
36.0724263387
 10
214.3271454851
 20
36.0909261653
 10
214.3467146181
 20
36.1109864591
  0
LWPOLYLINE
  5
283
100
AcDbEntity
  8
SCRITTE
100
AcDbPolyline
 62
253
  6
CONTINUOUS
 90
54
 70
0
 10
173.3669873916
 20
31.3559993609
 10
173.383275932
 20
31.3565040416
 10
173.3996742289
 20
31.3573105478
 10
173.4162043831
 20
31.3584458415
 10
173.4328884952
 20
31.3599368847
 10
173.449733612
 20
31.3618103857
 10
173.4666865638
 20
31.3640920375
 10
173.483679127
 20
31.3668072798
 10
173.5006430779
 20
31.3699815519
 10
173.51414669
 20
31.3728667159
 10
173.5275467868
 20
31.3760638623
 10
173.5408018283
 20
31.3795749132
 10
173.5538702742
 20
31.3834017905
 10
173.5667105842
 20
31.3875464164
 10
173.5792857363
 20
31.3920100892
 10
173.5915767803
 20
31.3967916128
 10
173.6035692844
 20
31.4018891677
 10
173.6152488165
 20
31.4073009342
 10
173.6266009448
 20
31.4130250927
 10
173.6376137059
 20
31.4190620643
 10
173.6482850105
 20
31.4254212341
 10
173.658615238
 20
31.4321142275
 10
173.6686047679
 20
31.4391526705
 10
173.6782539795
 20
31.4465481887
 10
173.6875637723
 20
31.454308298
 10
173.6965371261
 20
31.4624240748
 10
173.7051775407
 20
31.4708824856
 10
173.713488516
 20
31.4796704968
 10
173.7214735518
 20
31.4887750752
 10
173.7291372479
 20
31.4981853278
 10
173.7364886035
 20
31.5078989249
 10
173.7435377176
 20
31.5179156776
 10
173.7502946894
 20
31.5282353968
 10
173.7567696178
 20
31.5388578936
 10
173.7629700867
 20
31.5497819598
 10
173.7688936183
 20
31.5610023116
 10
173.7745352197
 20
31.5725126459
 10
173.779889898
 20
31.5843066595
 10
173.7849526601
 20
31.5963780495
 10
173.7897174876
 20
31.6087157414
 10
173.7941742598
 20
31.6212895752
 10
173.7983118309
 20
31.6340646192
 10
173.8021190547
 20
31.6470059421
 10
173.8055847852
 20
31.6600786122
 10
173.8086997808
 20
31.6732472216
 10
173.8114624175
 20
31.686474456
 10
173.8138729758
 20
31.6997225249
 10
173.8159317362
 20
31.7129536375
 10
173.8176389791
 20
31.7261300032
 10
173.818995349
 20
31.7392222357
 10
173.8200029454
 20
31.7522345663
 10
173.8206642319
 20
31.7651796308
 10
173.8209816721
 20
31.7780700651
 10
173.8209577296
 20
31.7909185049
  0
LINE
  5
284
100
AcDbEntity
  8
RACCORDO
100
AcDbLine
 62
253
  6
CONTINUOUS
 10
123.4397453099
 20
36.3028370903
 11
123.5073162056
 21
36.3041072985
  0
LINE
  5
285
100
AcDbEntity
  8
ASSI
100
AcDbLine
 62
253
  6
CONTINUOUS
 10
123.4397453099
 20
36.3028370903
 11
123.5073162056
 21
36.3041072985
  0
LINE
  5
286
100
AcDbEntity
  8
RACCORDO
100
AcDbLine
 62
253
  6
CONTINUOUS
 10
123.3691976951
 20
36.3020643775
 11
123.4397453099
 21
36.3028370903
  0
LINE
  5
287
100
AcDbEntity
  8
ASSI
100
AcDbLine
 62
253
  6
CONTINUOUS
 10
123.3691976951
 20
36.3020643775
 11
123.4397453099
 21
36.3028370903
  0
LINE
  5
288
100
AcDbEntity
  8
RACCORDO
100
AcDbLine
 62
253
  6
CONTINUOUS
 10
241.9156341475
 20
36.0362675015
 11
241.8344309299
 21
36.0355902327
  0
LINE
  5
289
100
AcDbEntity
  8
ASSI
100
AcDbLine
 62
253
  6
CONTINUOUS
 10
241.9156341475
 20
36.0362675015
 11
241.8344309299
 21
36.0355902327
  0
LWPOLYLINE
  5
28A
100
AcDbEntity
  8
RACCORDO
100
AcDbPolyline
 62
253
  6
CONTINUOUS
 90
3
 70
0
 10
241.9156355777
 20
36.0989170499
 10
241.8344322801
 20
36.0982402538
 10
241.7932728043
 20
36.0981555994
  0
LWPOLYLINE
  5
28B
100
AcDbEntity
  8
ASSI
100
AcDbPolyline
 62
253
  6
CONTINUOUS
 90
3
 70
0
 10
241.9156355777
 20
36.0989170499
 10
241.8344322801
 20
36.0982402538
 10
241.7932728043
 20
36.0981555994
  0
LINE
  5
28C
100
AcDbEntity
  8
RACCORDO
100
AcDbLine
 62
253
  6
CONTINUOUS
 10
123.2971460224
 20
36.3018052903
 11
123.3691976951
 21
36.3020643775
  0
LINE
  5
28D
100
AcDbEntity
  8
ASSI
100
AcDbLine
 62
253
  6
CONTINUOUS
 10
123.2971460224
 20
36.3018052903
 11
123.3691976951
 21
36.3020643775
  0
LINE
  5
28E
100
AcDbEntity
  8
SCRITTE
100
AcDbLine
 62
253
  6
CONTINUOUS
 10
174.5094549604
 20
29.8018260931
 11
173.9473223703
 21
29.8018260931
  0
LINE
  5
28F
100
AcDbEntity
  8
SCRITTE
100
AcDbLine
 62
253
  6
CONTINUOUS
 10
173.0523820933
 20
29.8018260931
 11
172.4703255508
 21
29.8018260931
  0
LINE
  5
290
100
AcDbEntity
  8
SCRITTE
100
AcDbLine
 62
253
  6
CONTINUOUS
 10
166.7504297485
 20
29.8018264475
 11
166.1660217485
 21
29.8018264475
  0
LINE
  5
291
100
AcDbEntity
  8
SCRITTE
100
AcDbLine
 62
253
  6
CONTINUOUS
 10
164.5341997485
 20
29.8018264475
 11
165.0492097485
 21
29.8018264475
  0
LINE
  5
292
100
AcDbEntity
  8
SCRITTE
100
AcDbLine
 62
253
  6
CONTINUOUS
 10
167.0650347485
 20
29.8018264475
 11
167.6241237485
 21
29.8018264475
  0
LINE
  5
293
100
AcDbEntity
  8
SCRITTE
100
AcDbLine
 62
253
  6
CONTINUOUS
 10
168.4358197485
 20
29.8018264475
 11
168.5177827485
 21
29.8018264475
  0
LINE
  5
294
100
AcDbEntity
  8
SCRITTE
100
AcDbLine
 62
253
  6
CONTINUOUS
 10
169.3327127485
 20
29.8018264475
 11
169.9044187485
 21
29.8018264475
  0
LINE
  5
295
100
AcDbEntity
  8
SCRITTE
100
AcDbLine
 62
253
  6
CONTINUOUS
 10
169.9961867485
 20
29.8018264475
 11
170.5742537485
 21
29.8018264475
  0
LINE
  5
296
100
AcDbEntity
  8
SCRITTE
100
AcDbLine
 62
253
  6
CONTINUOUS
 10
171.6827727485
 20
29.8018264475
 11
172.2987147485
 21
29.8018264475
  0
LINE
  5
297
100
AcDbEntity
  8
SCRITTE
100
AcDbLine
 62
253
  6
CONTINUOUS
 10
170.7355137485
 20
30.3607464475
 11
171.5313807485
 21
30.3607464475
  0
LINE
  5
298
100
AcDbEntity
  8
SCRITTE
100
AcDbLine
 62
253
  6
CONTINUOUS
 10
171.4145867485
 20
30.7932364475
 11
170.8550577485
 21
30.7932364475
  0
LINE
  5
299
100
AcDbEntity
  8
SCRITTE
100
AcDbLine
 62
253
  6
CONTINUOUS
 10
173.3657277108
 20
30.8974755227
 11
173.0523820933
 21
30.8974755227
  0
LINE
  5
29A
100
AcDbEntity
  8
SCRITTE
100
AcDbLine
 62
253
  6
CONTINUOUS
 10
173.0330040026
 20
31.3559993609
 11
173.3669873916
 21
31.3559993609
  0
LINE
  5
29B
100
AcDbEntity
  8
SCRITTE
100
AcDbLine
 62
253
  6
CONTINUOUS
 10
171.4396967485
 20
32.6015294475
 11
170.8743517485
 21
32.6015294475
  0
LINE
  5
29C
100
AcDbEntity
  8
SCRITTE
100
AcDbLine
 62
253
  6
CONTINUOUS
 10
169.6426147485
 20
32.6015294475
 11
169.0644007485
 21
32.6015294475
  0
LINE
  5
29D
100
AcDbEntity
  8
SCRITTE
100
AcDbLine
 62
253
  6
CONTINUOUS
 10
167.9017567485
 20
32.6015294475
 11
167.3178317485
 21
32.6015294475
  0
LINE
  5
29E
100
AcDbEntity
  8
SCRITTE
100
AcDbLine
 62
253
  6
CONTINUOUS
 10
165.9491467485
 20
32.6015294475
 11
165.3651377485
 21
32.6015294475
  0
LINE
  5
29F
100
AcDbEntity
  8
SCRITTE
100
AcDbLine
 62
253
  6
CONTINUOUS
 10
164.2814867485
 20
32.6015294475
 11
163.6466387485
 21
32.6015294475
  0
LINE
  5
2A0
100
AcDbEntity
  8
SCRITTE
100
AcDbLine
 62
253
  6
CONTINUOUS
 10
166.1660217485
 20
32.6016974475
 11
166.7504297485
 21
32.6016974475
  0
LINE
  5
2A1
100
AcDbEntity
  8
RACCORDO
100
AcDbLine
 62
253
  6
CONTINUOUS
 10
214.1022725046
 20
35.4011277099
 11
124.1983409923
 21
35.4011277099
  0
LINE
  5
2A2
100
AcDbEntity
  8
ASSI
100
AcDbLine
 62
253
  6
CONTINUOUS
 10
214.1022725046
 20
35.4011277099
 11
124.1983409923
 21
35.4011277099
  0
LINE
  5
2A3
100
AcDbEntity
  8
RACCORDO
100
AcDbLine
 62
253
  6
CONTINUOUS
 10
214.10227125
 20
35.927292237
 11
124.1983265678
 21
35.927292237
  0
LINE
  5
2A4
100
AcDbEntity
  8
ASSI
100
AcDbLine
 62
253
  6
CONTINUOUS
 10
214.10227125
 20
35.927292237
 11
124.1983265678
 21
35.927292237
  0
LINE
  5
2A5
100
AcDbEntity
  8
RACCORDO
100
AcDbLine
 62
7
  6
CONTINUOUS
 10
124.2508129032
 20
35.9796274475
 11
214.0498005937
 21
35.9796274475
  0
LINE
  5
2A6
100
AcDbEntity
  8
ASSI
100
AcDbLine
 62
7
  6
CONTINUOUS
 10
124.2508129032
 20
35.9796274475
 11
214.0498005937
 21
35.9796274475
  0
LINE
  5
2A7
100
AcDbEntity
  8
RACCORDO
100
AcDbLine
 62
253
  6
CONTINUOUS
 10
241.8344309299
 20
36.0355902327
 11
214.9630967778
 21
36.0355060545
  0
LINE
  5
2A8
100
AcDbEntity
  8
ASSI
100
AcDbLine
 62
253
  6
CONTINUOUS
 10
241.8344309299
 20
36.0355902327
 11
214.9630967778
 21
36.0355060545
  0
LINE
  5
2A9
100
AcDbEntity
  8
RACCORDO
100
AcDbLine
 62
253
  6
CONTINUOUS
 10
96.009248146
 20
36.121050513
 11
95.9003067485
 21
36.121050513
  0
LINE
  5
2AA
100
AcDbEntity
  8
ASSI
100
AcDbLine
 62
253
  6
CONTINUOUS
 10
96.009248146
 20
36.121050513
 11
95.9003067485
 21
36.121050513
  0
LINE
  5
2AB
100
AcDbEntity
  8
RACCORDO
100
AcDbLine
 62
253
  6
CONTINUOUS
 10
242.291365351
 20
36.121050513
 11
242.4003067485
 21
36.121050513
  0
LINE
  5
2AC
100
AcDbEntity
  8
ASSI
100
AcDbLine
 62
253
  6
CONTINUOUS
 10
242.291365351
 20
36.121050513
 11
242.4003067485
 21
36.121050513
  0
LINE
  5
2AD
100
AcDbEntity
  8
RACCORDO
100
AcDbLine
 62
253
  6
CONTINUOUS
 10
96.4661825663
 20
36.035590232
 11
123.3375167191
 21
36.0355060545
  0
LINE
  5
2AE
100
AcDbEntity
  8
ASSI
100
AcDbLine
 62
253
  6
CONTINUOUS
 10
96.4661825663
 20
36.035590232
 11
123.3375167191
 21
36.0355060545
  0
LINE
  5
2AF
100
AcDbEntity
  8
RACCORDO
100
AcDbLine
 62
253
  6
CONTINUOUS
 10
215.0034674746
 20
36.3018052909
 11
214.9314158014
 21
36.302064378
  0
LINE
  5
2B0
100
AcDbEntity
  8
ASSI
100
AcDbLine
 62
253
  6
CONTINUOUS
 10
215.0034674746
 20
36.3018052909
 11
214.9314158014
 21
36.302064378
  0
LINE
  5
2B1
100
AcDbEntity
  8
RACCORDO
100
AcDbLine
 62
253
  6
CONTINUOUS
 10
214.9314158014
 20
36.302064378
 11
214.860868186
 21
36.3028370907
  0
LINE
  5
2B2
100
AcDbEntity
  8
ASSI
100
AcDbLine
 62
253
  6
CONTINUOUS
 10
214.9314158014
 20
36.302064378
 11
214.860868186
 21
36.3028370907
  0
LWPOLYLINE
  5
2B3
100
AcDbEntity
  8
RACCORDO
100
AcDbPolyline
 62
253
  6
CONTINUOUS
 90
17
 70
0
 10
214.860868186
 20
36.3028370907
 10
214.7932972895
 20
36.3041072989
 10
214.7610721434
 20
36.3049210697
 10
214.7301136352
 20
36.3058484873
 10
214.7005835387
 20
36.3068847054
 10
214.6726361636
 20
36.3080243092
 10
214.6464175491
 20
36.3092613438
 10
214.6220647006
 20
36.3105893449
 10
214.599704874
 20
36.3120013732
 10
214.5794549108
 20
36.31349005
 10
214.5614206273
 20
36.3150475963
 10
214.5456962615
 20
36.3166658731
 10
214.5323639814
 20
36.3183364241
 10
214.5214934549
 20
36.3200505198
 10
214.5131414858
 20
36.3217992033
 10
214.5073517174
 20
36.3235733366
 10
214.5041544043
 20
36.3253636492
  0
LWPOLYLINE
  5
2B4
100
AcDbEntity
  8
ASSI
100
AcDbPolyline
 62
253
  6
CONTINUOUS
 90
17
 70
0
 10
214.860868186
 20
36.3028370907
 10
214.7932972895
 20
36.3041072989
 10
214.7610721434
 20
36.3049210697
 10
214.7301136352
 20
36.3058484873
 10
214.7005835387
 20
36.3068847054
 10
214.6726361636
 20
36.3080243092
 10
214.6464175491
 20
36.3092613438
 10
214.6220647006
 20
36.3105893449
 10
214.599704874
 20
36.3120013732
 10
214.5794549108
 20
36.31349005
 10
214.5614206273
 20
36.3150475963
 10
214.5456962615
 20
36.3166658731
 10
214.5323639814
 20
36.3183364241
 10
214.5214934549
 20
36.3200505198
 10
214.5131414858
 20
36.3217992033
 10
214.5073517174
 20
36.3235733366
 10
214.5041544043
 20
36.3253636492
  0
LWPOLYLINE
  5
2B5
100
AcDbEntity
  8
RACCORDO
100
AcDbPolyline
 62
253
  6
CONTINUOUS
 90
22
 70
0
 10
124.1983265186
 20
35.9272921881
 10
124.1739716832
 20
35.9279428967
 10
124.1497217902
 20
35.9300583225
 10
124.12566506
 20
35.9336275289
 10
124.1018945498
 20
35.9386321664
 10
124.0784902141
 20
35.9450521541
 10
124.0555196583
 20
35.95286958
 10
124.033057049
 20
35.9620605209
 10
124.0111945413
 20
35.9725885345
 10
123.9900240402
 20
35.9844108716
 10
123.9696332946
 20
35.9974749794
 10
123.950083497
 20
36.011737908
 10
123.9314245572
 20
36.0271668867
 10
123.9137151611
 20
36.0437199011
 10
123.8970357786
 20
36.0613284195
 10
123.881464578
 20
36.0799150754
 10
123.8670471499
 20
36.0994283379
 10
123.8538499983
 20
36.1197806304
 10
123.841960955
 20
36.1408248745
 10
123.8314220899
 20
36.1624519428
 10
123.8222437242
 20
36.1845999839
 10
123.8144452812
 20
36.2071834878
  0
LWPOLYLINE
  5
2B6
100
AcDbEntity
  8
ASSI
100
AcDbPolyline
 62
253
  6
CONTINUOUS
 90
22
 70
0
 10
124.1983265186
 20
35.9272921881
 10
124.1739716832
 20
35.9279428967
 10
124.1497217902
 20
35.9300583225
 10
124.12566506
 20
35.9336275289
 10
124.1018945498
 20
35.9386321664
 10
124.0784902141
 20
35.9450521541
 10
124.0555196583
 20
35.95286958
 10
124.033057049
 20
35.9620605209
 10
124.0111945413
 20
35.9725885345
 10
123.9900240402
 20
35.9844108716
 10
123.9696332946
 20
35.9974749794
 10
123.950083497
 20
36.011737908
 10
123.9314245572
 20
36.0271668867
 10
123.9137151611
 20
36.0437199011
 10
123.8970357786
 20
36.0613284195
 10
123.881464578
 20
36.0799150754
 10
123.8670471499
 20
36.0994283379
 10
123.8538499983
 20
36.1197806304
 10
123.841960955
 20
36.1408248745
 10
123.8314220899
 20
36.1624519428
 10
123.8222437242
 20
36.1845999839
 10
123.8144452812
 20
36.2071834878
  0
LWPOLYLINE
  5
2B7
100
AcDbEntity
  8
RACCORDO
100
AcDbPolyline
 62
253
  6
CONTINUOUS
 90
22
 70
0
 10
124.1983409923
 20
35.4011277099
 10
124.1433461832
 20
35.4028487361
 10
124.0889859146
 20
35.4078070994
 10
124.0352601865
 20
35.4160028139
 10
123.9819928605
 20
35.4274880585
 10
123.9293600751
 20
35.4422107092
 10
123.8778902458
 20
35.4600143357
 10
123.8275732368
 20
35.480938574
 10
123.778419184
 20
35.5049438901
 10
123.7309869107
 20
35.5317551038
 10
123.6853179729
 20
35.5613837663
 10
123.6413708146
 20
35.5938184597
 10
123.5995795921
 20
35.6287495457
 10
123.5599388033
 20
35.6662277626
 10
123.5224539501
 20
35.7062025225
 10
123.4875756948
 20
35.7482121808
 10
123.4553220109
 20
35.7923464901
 10
123.4256749248
 20
35.8385158411
 10
123.3990311784
 20
35.8859895079
 10
123.375523019
 20
35.9345239347
 10
123.3550181992
 20
35.9843627672
 10
123.3375167191
 20
36.0355060545
  0
LWPOLYLINE
  5
2B8
100
AcDbEntity
  8
ASSI
100
AcDbPolyline
 62
253
  6
CONTINUOUS
 90
22
 70
0
 10
124.1983409923
 20
35.4011277099
 10
124.1433461832
 20
35.4028487361
 10
124.0889859146
 20
35.4078070994
 10
124.0352601865
 20
35.4160028139
 10
123.9819928605
 20
35.4274880585
 10
123.9293600751
 20
35.4422107092
 10
123.8778902458
 20
35.4600143357
 10
123.8275732368
 20
35.480938574
 10
123.778419184
 20
35.5049438901
 10
123.7309869107
 20
35.5317551038
 10
123.6853179729
 20
35.5613837663
 10
123.6413708146
 20
35.5938184597
 10
123.5995795921
 20
35.6287495457
 10
123.5599388033
 20
35.6662277626
 10
123.5224539501
 20
35.7062025225
 10
123.4875756948
 20
35.7482121808
 10
123.4553220109
 20
35.7923464901
 10
123.4256749248
 20
35.8385158411
 10
123.3990311784
 20
35.8859895079
 10
123.375523019
 20
35.9345239347
 10
123.3550181992
 20
35.9843627672
 10
123.3375167191
 20
36.0355060545
  0
LWPOLYLINE
  5
2B9
100
AcDbEntity
  8
SCRITTE
100
AcDbPolyline
 62
253
  6
CONTINUOUS
 90
24
 70
0
 10
173.490815231
 20
32.1410557727
 10
173.4693286957
 20
32.1433907971
 10
173.4478167249
 20
32.1454122095
 10
173.426283317
 20
32.1471207414
 10
173.4047324702
 20
32.1485171244
 10
173.383168183
 20
32.1496020898
 10
173.3615944536
 20
32.1503763694
 10
173.3400152805
 20
32.1508406944
 10
173.3211305208
 20
32.1509932211
 10
173.3022373682
 20
32.1509090488
 10
173.2833285361
 20
32.1505882274
 10
173.2643967383
 20
32.1500308069
 10
173.2454337978
 20
32.1492357411
 10
173.2264279753
 20
32.1481975999
 10
173.2073666411
 20
32.1469098571
 10
173.1882371654
 20
32.1453659866
 10
173.1690309095
 20
32.143562279
 10
173.1497551999
 20
32.1415062921
 10
173.1304213542
 20
32.1392084004
 10
173.1110406902
 20
32.1366789785
 10
173.0916202724
 20
32.1339302628
 10
173.0721501526
 20
32.1309819384
 10
173.0526161298
 20
32.1278555523
 10
173.0330040026
 20
32.1245726515
  0
LWPOLYLINE
  5
2BA
100
AcDbEntity
  8
RACCORDO
100
AcDbPolyline
 62
253
  6
CONTINUOUS
 90
25
 70
0
 10
123.3375167191
 20
152.3237488405
 10
123.3527667096
 20
152.3687807908
 10
123.3703254819
 20
152.4128104454
 10
123.3901930361
 20
152.4558378376
 10
123.4124577484
 20
152.4980251651
 10
123.4370312426
 20
152.5392102919
 10
123.4636483901
 20
152.5789067665
 10
123.4923033684
 20
152.6170469371
 10
123.5230020001
 20
152.6536985495
 10
123.5554966239
 20
152.6885782721
 10
123.5898016425
 20
152.7216762085
 10
123.6259026533
 20
152.7530023537
 10
123.6635087875
 20
152.782303225
 10
123.7026461458
 20
152.8095694868
 10
123.7432886276
 20
152.8348105704
 10
123.7850670623
 20
152.8578011495
 10
123.8279754422
 20
152.878513193
 10
123.872019775
 20
152.8969748154
 10
123.916848914
 20
152.9130449096
 10
123.9624666026
 20
152.9267074025
 10
124.0088690974
 20
152.937978428
 10
124.0556940215
 20
152.9467651853
 10
124.1028205825
 20
152.9530367518
 10
124.1503695728
 20
152.9568240824
 10
124.1983409923
 20
152.9581271851
  0
LWPOLYLINE
  5
2BB
100
AcDbEntity
  8
ASSI
100
AcDbPolyline
 62
253
  6
CONTINUOUS
 90
25
 70
0
 10
123.3375167191
 20
152.3237488405
 10
123.3527667096
 20
152.3687807908
 10
123.3703254819
 20
152.4128104454
 10
123.3901930361
 20
152.4558378376
 10
123.4124577484
 20
152.4980251651
 10
123.4370312426
 20
152.5392102919
 10
123.4636483901
 20
152.5789067665
 10
123.4923033684
 20
152.6170469371
 10
123.5230020001
 20
152.6536985495
 10
123.5554966239
 20
152.6885782721
 10
123.5898016425
 20
152.7216762085
 10
123.6259026533
 20
152.7530023537
 10
123.6635087875
 20
152.782303225
 10
123.7026461458
 20
152.8095694868
 10
123.7432886276
 20
152.8348105704
 10
123.7850670623
 20
152.8578011495
 10
123.8279754422
 20
152.878513193
 10
123.872019775
 20
152.8969748154
 10
123.916848914
 20
152.9130449096
 10
123.9624666026
 20
152.9267074025
 10
124.0088690974
 20
152.937978428
 10
124.0556940215
 20
152.9467651853
 10
124.1028205825
 20
152.9530367518
 10
124.1503695728
 20
152.9568240824
 10
124.1983409923
 20
152.9581271851
  0
LWPOLYLINE
  5
2BC
100
AcDbEntity
  8
RACCORDO
100
AcDbPolyline
 62
253
  6
CONTINUOUS
 90
25
 70
0
 10
123.8144452812
 20
152.1520714071
 10
123.8212433181
 20
152.1719895537
 10
123.8291029769
 20
152.1915519106
 10
123.838007601
 20
152.2107018082
 10
123.8479459069
 20
152.2293975902
 10
123.858888166
 20
152.2475688818
 10
123.8707786187
 20
152.2651212875
 10
123.8835695499
 20
152.2819908324
 10
123.8972340519
 20
152.2981483674
 10
123.9117383044
 20
152.3135578431
 10
123.9270411108
 20
152.3281762035
 10
123.943099495
 20
152.3419631628
 10
123.959876046
 20
152.3548879038
 10
123.9773312619
 20
152.3669175511
 10
123.9954108908
 20
152.3780124667
 10
124.0140525667
 20
152.3881357927
 10
124.0331973242
 20
152.397256947
 10
124.0527975936
 20
152.4053547012
 10
124.0728055798
 20
152.4124109255
 10
124.0931652581
 20
152.4184052116
 10
124.1138205897
 20
152.4233204367
 10
124.1347231748
 20
152.4271450042
 10
124.1558181999
 20
152.4298667839
 10
124.1770441742
 20
152.431474899
 10
124.1983420356
 20
152.4319626544
  0
LWPOLYLINE
  5
2BD
100
AcDbEntity
  8
ASSI
100
AcDbPolyline
 62
253
  6
CONTINUOUS
 90
25
 70
0
 10
123.8144452812
 20
152.1520714071
 10
123.8212433181
 20
152.1719895537
 10
123.8291029769
 20
152.1915519106
 10
123.838007601
 20
152.2107018082
 10
123.8479459069
 20
152.2293975902
 10
123.858888166
 20
152.2475688818
 10
123.8707786187
 20
152.2651212875
 10
123.8835695499
 20
152.2819908324
 10
123.8972340519
 20
152.2981483674
 10
123.9117383044
 20
152.3135578431
 10
123.9270411108
 20
152.3281762035
 10
123.943099495
 20
152.3419631628
 10
123.959876046
 20
152.3548879038
 10
123.9773312619
 20
152.3669175511
 10
123.9954108908
 20
152.3780124667
 10
124.0140525667
 20
152.3881357927
 10
124.0331973242
 20
152.397256947
 10
124.0527975936
 20
152.4053547012
 10
124.0728055798
 20
152.4124109255
 10
124.0931652581
 20
152.4184052116
 10
124.1138205897
 20
152.4233204367
 10
124.1347231748
 20
152.4271450042
 10
124.1558181999
 20
152.4298667839
 10
124.1770441742
 20
152.431474899
 10
124.1983420356
 20
152.4319626544
  0
LWPOLYLINE
  5
2BE
100
AcDbEntity
  8
0
100
AcDbPolyline
 62
7
  6
CONTINUOUS
 90
10
 70
0
 43
0.3500000006
 10
172.2574440308
 20
195.5366359863
 10
171.6145905762
 20
194.8937644043
 10
171.1860216064
 20
194.0366264648
 10
171.1860216064
 20
192.9652040405
 10
171.6145905762
 20
192.5366350708
 10
172.2574440308
 20
192.5366350708
 10
172.6860130005
 20
192.9652040405
 10
172.6860130005
 20
193.82234198
 10
172.2574440308
 20
194.2509109497
 10
171.3288839722
 20
194.2509109497
  0
LWPOLYLINE
  5
2BF
100
AcDbEntity
  8
RACCORDO
100
AcDbPolyline
 62
253
  6
CONTINUOUS
 90
16
 70
0
 10
123.5073162056
 20
36.3041072985
 10
123.5395413512
 20
36.3049210695
 10
123.570499859
 20
36.3058484871
 10
123.6000299551
 20
36.3068847052
 10
123.6279773297
 20
36.308024309
 10
123.6541959439
 20
36.3092613436
 10
123.678548792
 20
36.3105893448
 10
123.7009086181
 20
36.3120013731
 10
123.721158581
 20
36.3134900499
 10
123.7391928643
 20
36.3150475962
 10
123.7549172298
 20
36.316665873
 10
123.7682495097
 20
36.3183364241
 10
123.7791200361
 20
36.3200505198
 10
123.7874720052
 20
36.3217992032
 10
123.7932617735
 20
36.3235733366
 10
123.7964590867
 20
36.3253636492
  0
LWPOLYLINE
  5
2C0
100
AcDbEntity
  8
ASSI
100
AcDbPolyline
 62
253
  6
CONTINUOUS
 90
16
 70
0
 10
123.5073162056
 20
36.3041072985
 10
123.5395413512
 20
36.3049210695
 10
123.570499859
 20
36.3058484871
 10
123.6000299551
 20
36.3068847052
 10
123.6279773297
 20
36.308024309
 10
123.6541959439
 20
36.3092613436
 10
123.678548792
 20
36.3105893448
 10
123.7009086181
 20
36.3120013731
 10
123.721158581
 20
36.3134900499
 10
123.7391928643
 20
36.3150475962
 10
123.7549172298
 20
36.316665873
 10
123.7682495097
 20
36.3183364241
 10
123.7791200361
 20
36.3200505198
 10
123.7874720052
 20
36.3217992032
 10
123.7932617735
 20
36.3235733366
 10
123.7964590867
 20
36.3253636492
  0
LWPOLYLINE
  5
2C1
100
AcDbEntity
  8
SCRITTE
100
AcDbPolyline
 62
253
  6
CONTINUOUS
 90
87
 70
0
 10
173.9125551782
 20
32.539343574
 10
173.9275417325
 20
32.533630194
 10
173.9427722632
 20
32.5271987838
 10
173.9582694321
 20
32.520016929
 10
173.9740559007
 20
32.5120522153
 10
173.9901543306
 20
32.5032722281
 10
174.0065873835
 20
32.493644553
 10
174.0233583157
 20
32.4831462569
 10
174.0403927626
 20
32.4717923317
 10
174.0575969543
 20
32.4596072506
 10
174.074877121
 20
32.4466154867
 10
174.0921394928
 20
32.4328415133
 10
174.1092902999
 20
32.4183098034
 10
174.1262434596
 20
32.403041505
 10
174.1429436387
 20
32.387044464
 10
174.1593431913
 20
32.3703232011
 10
174.1753944715
 20
32.3528822372
 10
174.1910498332
 20
32.3347260929
 10
174.2062616306
 20
32.3158592888
 10
174.2209813853
 20
32.2962980173
 10
174.2351572898
 20
32.2761051572
 10
174.2487367039
 20
32.2553552588
 10
174.2616669878
 20
32.2341228725
 10
174.2738955014
 20
32.2124825487
 10
174.2853696047
 20
32.1905088376
 10
174.2960467889
 20
32.1682704894
 10
174.3059250696
 20
32.1458130529
 10
174.3150125937
 20
32.1231762764
 10
174.3233175081
 20
32.1003999085
 10
174.3308479595
 20
32.0775236975
 10
174.3376120947
 20
32.054587392
 10
174.3447359497
 20
32.0270475777
 10
174.3508238734
 20
31.9995898174
 10
174.3559316986
 20
31.9723254638
 10
174.3601152577
 20
31.9453658691
 10
174.3634303835
 20
31.918822386
 10
174.3659320196
 20
31.8927917548
 10
174.3676715544
 20
31.8673122674
 10
174.3686994876
 20
31.8424076038
 10
174.3690663187
 20
31.8181014437
 10
174.3688225472
 20
31.7944174672
 10
174.3680152359
 20
31.7713728681
 10
174.3666776999
 20
31.7489588965
 10
174.3648398176
 20
31.7271603167
 10
174.3625314674
 20
31.7059618929
 10
174.3597825276
 20
31.6853483893
 10
174.3557693262
 20
31.6603781855
 10
174.351154953
 20
31.636252411
 10
174.3459799725
 20
31.612925363
 10
174.3402849489
 20
31.590351339
 10
174.3341105707
 20
31.5684916952
 10
174.3274980211
 20
31.5473360233
 10
174.3204886073
 20
31.5268809743
 10
174.3131236365
 20
31.5071231986
 10
174.3054433219
 20
31.4880583977
 10
174.2974835009
 20
31.4696784749
 10
174.2892789172
 20
31.4519743843
 10
174.2808643143
 20
31.4349370797
 10
174.2722717143
 20
31.4185555582
 10
174.2635222536
 20
31.4028109892
 10
174.254634347
 20
31.387682585
 10
174.2456264093
 20
31.3731495579
 10
174.2334599868
 20
31.3546664847
 10
174.2211508504
 20
31.3371801305
 10
174.2087369374
 20
31.3206657218
 10
174.1962571781
 20
31.3050910493
 10
174.1837544757
 20
31.2903941612
 10
174.1712727265
 20
31.2765056699
 10
174.1588558457
 20
31.2633588764
 10
174.1465478251
 20
31.2508978359
 10
174.1343926754
 20
31.2390692923
 10
174.1224302851
 20
31.2278214626
 10
174.1106840534
 20
31.2171084556
 10
174.0991732573
 20
31.2068858532
 10
174.0823759826
 20
31.1923765093
 10
174.0661517144
 20
31.1787373837
 10
174.0505335943
 20
31.1659004936
 10
174.0428865349
 20
31.1598244227
 10
174.035237951
 20
31.1540101056
 10
174.0275055647
 20
31.1484985167
 10
174.0197114803
 20
31.143392366
 10
174.0118988693
 20
31.1387994995
 10
174.0040907896
 20
31.1347865723
 10
173.9962971959
 20
31.1314033611
 10
173.9884957436
 20
31.1286733183
 10
173.9806638042
 20
31.12661414
 10
173.9728099134
 20
31.1252468194
  0
LWPOLYLINE
  5
2C2
100
AcDbEntity
  8
SCRITTE
100
AcDbPolyline
 62
253
  6
CONTINUOUS
 90
42
 70
0
 10
173.9728099134
 20
31.1087030106
 10
173.98192426
 20
31.104901202
 10
173.9909973286
 20
31.1007762406
 10
174.0000344739
 20
31.0963189616
 10
174.0090410506
 20
31.0915202
 10
174.0180217649
 20
31.0863702671
 10
174.0269787298
 20
31.0808573797
 10
174.0359134096
 20
31.0749692308
 10
174.0448272687
 20
31.0686935132
 10
174.053718278
 20
31.062021183
 10
174.0625704346
 20
31.0549562473
 10
174.0713642419
 20
31.0475059764
 10
174.0800802033
 20
31.0396776405
 10
174.0886999902
 20
31.0314798906
 10
174.0972099449
 20
31.022926901
 10
174.1055975774
 20
31.0140342269
 10
174.1138503978
 20
31.0048174235
 10
174.1219590973
 20
30.9952886447
 10
174.1299270907
 20
30.9854464398
 10
174.137760974
 20
30.9752859569
 10
174.145467343
 20
30.9648023441
 10
174.1530510421
 20
30.9539929258
 10
174.1605099095
 20
30.9428637316
 10
174.167840032
 20
30.9314229673
 10
174.1750374964
 20
30.9196788386
 10
174.1830967683
 20
30.9058949311
 10
174.1909781602
 20
30.8917311226
 10
174.1986821711
 20
30.8771930252
 10
174.2062093
 20
30.8622862509
 10
174.213560046
 20
30.8470164117
 10
174.220734908
 20
30.8313891198
 10
174.2277343851
 20
30.8154099872
 10
174.2345588539
 20
30.7990852526
 10
174.2412082024
 20
30.7824236604
 10
174.2476821962
 20
30.7654345818
 10
174.2539806011
 20
30.7481273879
 10
174.2601031825
 20
30.7305114498
 10
174.2660497062
 20
30.7125961386
 10
174.2718199379
 20
30.6943908253
 10
174.2783399996
 20
30.6727968319
 10
174.2846869225
 20
30.6508331516
 10
174.29092784
 20
30.6285120673
  0
LWPOLYLINE
  5
2C3
100
AcDbEntity
  8
RACCORDO
100
AcDbPolyline
 62
253
  6
CONTINUOUS
 90
7
 70
0
 10
123.8144452812
 20
36.2071834878
 10
123.8089805815
 20
36.2263937649
 10
123.8044885697
 20
36.2458637137
 10
123.8009816618
 20
36.2655448135
 10
123.798469844
 20
36.2853879277
 10
123.7969606405
 20
36.3053434257
 10
123.7964590875
 20
36.3253613064
  0
LWPOLYLINE
  5
2C4
100
AcDbEntity
  8
ASSI
100
AcDbPolyline
 62
253
  6
CONTINUOUS
 90
7
 70
0
 10
123.8144452812
 20
36.2071834878
 10
123.8089805815
 20
36.2263937649
 10
123.8044885697
 20
36.2458637137
 10
123.8009816618
 20
36.2655448135
 10
123.798469844
 20
36.2853879277
 10
123.7969606405
 20
36.3053434257
 10
123.7964590875
 20
36.3253613064
  0
LWPOLYLINE
  5
2C5
100
AcDbEntity
  8
RACCORDO
100
AcDbPolyline
 62
253
  6
CONTINUOUS
 90
7
 70
0
 10
123.3375167191
 20
36.0355060545
 10
123.3252321263
 20
36.0789208912
 10
123.3151699908
 20
36.1227230686
 10
123.3073303127
 20
36.1669125919
 10
123.3017130919
 20
36.2114894664
 10
123.2983183285
 20
36.2564536974
 10
123.2971460224
 20
36.3018052902
  0
LWPOLYLINE
  5
2C6
100
AcDbEntity
  8
ASSI
100
AcDbPolyline
 62
253
  6
CONTINUOUS
 90
7
 70
0
 10
123.3375167191
 20
36.0355060545
 10
123.3252321263
 20
36.0789208912
 10
123.3151699908
 20
36.1227230686
 10
123.3073303127
 20
36.1669125919
 10
123.3017130919
 20
36.2114894664
 10
123.2983183285
 20
36.2564536974
 10
123.2971460224
 20
36.3018052902
  0
LINE
  5
2C7
100
AcDbEntity
  8
RACCORDO
100
AcDbLine
 62
253
  6
CONTINUOUS
 10
214.9630967778
 20
36.0355063451
 11
214.8942023914
 21
36.0571186573
  0
LINE
  5
2C8
100
AcDbEntity
  8
ASSI
100
AcDbLine
 62
253
  6
CONTINUOUS
 10
214.9630967778
 20
36.0355063451
 11
214.8942023914
 21
36.0571186573
  0
LWPOLYLINE
  5
2C9
100
AcDbEntity
  8
RACCORDO
100
AcDbPolyline
 62
253
  6
CONTINUOUS
 90
3
 70
0
 10
214.8942023914
 20
36.0571186573
 10
214.8267493801
 20
36.0788052299
 10
214.7940064241
 20
36.0895343667
  0
LWPOLYLINE
  5
2CA
100
AcDbEntity
  8
ASSI
100
AcDbPolyline
 62
253
  6
CONTINUOUS
 90
3
 70
0
 10
214.8942023914
 20
36.0571186573
 10
214.8267493801
 20
36.0788052299
 10
214.7940064241
 20
36.0895343667
  0
LWPOLYLINE
  5
2CB
100
AcDbEntity
  8
RACCORDO
100
AcDbPolyline
 62
7
  6
CONTINUOUS
 90
13
 70
0
 10
123.8503067476
 20
36.3790685047
 10
123.8510751156
 20
36.3544604336
 10
123.853326956
 20
36.3301068815
 10
123.8570622687
 20
36.3060078465
 10
123.86231085
 20
36.2820601153
 10
123.8690429036
 20
36.2583668978
 10
123.8771690405
 20
36.2352378239
 10
123.8867010919
 20
36.2126999122
 10
123.8976272265
 20
36.1907261354
 10
123.9098225609
 20
36.1695450512
 10
123.9232454671
 20
36.149232841
 10
123.9379375731
 20
36.129713312
 10
123.9538988788
 20
36.1109864591
  0
LWPOLYLINE
  5
2CC
100
AcDbEntity
  8
ASSI
100
AcDbPolyline
 62
7
  6
CONTINUOUS
 90
13
 70
0
 10
123.8503067476
 20
36.3790685047
 10
123.8510751156
 20
36.3544604336
 10
123.853326956
 20
36.3301068815
 10
123.8570622687
 20
36.3060078465
 10
123.86231085
 20
36.2820601153
 10
123.8690429036
 20
36.2583668978
 10
123.8771690405
 20
36.2352378239
 10
123.8867010919
 20
36.2126999122
 10
123.8976272265
 20
36.1907261354
 10
123.9098225609
 20
36.1695450512
 10
123.9232454671
 20
36.149232841
 10
123.9379375731
 20
36.129713312
 10
123.9538988788
 20
36.1109864591
  0
LINE
  5
2CD
100
AcDbEntity
  8
RACCORDO
100
AcDbLine
 62
253
  6
CONTINUOUS
 10
123.2971460224
 20
36.3018052902
 11
123.2971460224
 21
152.0574496047
  0
LINE
  5
2CE
100
AcDbEntity
  8
ASSI
100
AcDbLine
 62
253
  6
CONTINUOUS
 10
123.2971460224
 20
36.3018052902
 11
123.2971460224
 21
152.0574496047
  0
LINE
  5
2CF
100
AcDbEntity
  8
RACCORDO
100
AcDbLine
 62
253
  6
CONTINUOUS
 10
123.796459086
 20
36.3253613049
 11
123.7964590796
 21
152.0339124861
  0
LINE
  5
2D0
100
AcDbEntity
  8
ASSI
100
AcDbLine
 62
253
  6
CONTINUOUS
 10
123.796459086
 20
36.3253613049
 11
123.7964590796
 21
152.0339124861
  0
LINE
  5
2D1
100
AcDbEntity
  8
RACCORDO
100
AcDbLine
 62
7
  6
CONTINUOUS
 10
123.8503067476
 20
151.9801863903
 11
123.8503067485
 21
129.6796274475
  0
LINE
  5
2D2
100
AcDbEntity
  8
DRAFT
100
AcDbLine
 62
7
  6
CONTINUOUS
 10
123.8503067485
 20
129.6796274475
 11
123.8503067485
 21
58.6796274475
  0
LINE
  5
2D3
100
AcDbEntity
  8
RACCORDO
100
AcDbLine
 62
7
  6
CONTINUOUS
 10
123.8503067485
 20
58.6796274475
 11
123.8503067476
 21
36.3790685047
  0
LINE
  5
2D4
100
AcDbEntity
  8
ASSI
100
AcDbLine
 62
7
  6
CONTINUOUS
 10
123.8503067476
 20
151.9801863903
 11
123.8503067476
 21
36.3790685047
  0
LINE
  5
2D5
100
AcDbEntity
  8
RACCORDO
100
AcDbLine
 62
253
  6
CONTINUOUS
 10
124.1983409923
 20
152.9581271851
 11
124.1983409923
 21
152.431962658
  0
LINE
  5
2D6
100
AcDbEntity
  8
ASSI
100
AcDbLine
 62
253
  6
CONTINUOUS
 10
124.1983409923
 20
152.9581271851
 11
124.1983409923
 21
152.431962658
  0
LINE
  5
2D7
100
AcDbEntity
  8
RACCORDO
100
AcDbLine
 62
253
  6
CONTINUOUS
 10
124.1983409923
 20
35.4011277099
 11
124.1983409923
 21
35.927292237
  0
LINE
  5
2D8
100
AcDbEntity
  8
ASSI
100
AcDbLine
 62
253
  6
CONTINUOUS
 10
124.1983409923
 20
35.4011277099
 11
124.1983409923
 21
35.927292237
  0
LWPOLYLINE
  5
2D9
100
AcDbEntity
  8
RACCORDO
100
AcDbPolyline
 62
253
  6
CONTINUOUS
 90
7
 70
0
 10
123.7964590938
 20
152.0339124725
 10
123.796956353
 20
152.053827446
 10
123.7984550042
 20
152.0737204879
 10
123.8009560317
 20
152.0935416354
 10
123.8044578999
 20
152.1132406963
 10
123.8089565298
 20
152.1327673761
 10
123.8144452812
 20
152.1520714071
  0
LWPOLYLINE
  5
2DA
100
AcDbEntity
  8
ASSI
100
AcDbPolyline
 62
253
  6
CONTINUOUS
 90
7
 70
0
 10
123.7964590938
 20
152.0339124725
 10
123.796956353
 20
152.053827446
 10
123.7984550042
 20
152.0737204879
 10
123.8009560317
 20
152.0935416354
 10
123.8044578999
 20
152.1132406963
 10
123.8089565298
 20
152.1327673761
 10
123.8144452812
 20
152.1520714071
  0
LWPOLYLINE
  5
2DB
100
AcDbEntity
  8
RACCORDO
100
AcDbPolyline
 62
253
  6
CONTINUOUS
 90
7
 70
0
 10
123.2971460224
 20
152.0574496047
 10
123.2983011436
 20
152.102698426
 10
123.3016855962
 20
152.1476009949
 10
123.30729938
 20
152.1921573161
 10
123.3151424951
 20
152.2363673943
 10
123.3252149415
 20
152.2802312342
 10
123.3375167191
 20
152.3237488405
  0
LWPOLYLINE
  5
2DC
100
AcDbEntity
  8
ASSI
100
AcDbPolyline
 62
253
  6
CONTINUOUS
 90
7
 70
0
 10
123.2971460224
 20
152.0574496047
 10
123.2983011436
 20
152.102698426
 10
123.3016855962
 20
152.1476009949
 10
123.30729938
 20
152.1921573161
 10
123.3151424951
 20
152.2363673943
 10
123.3252149415
 20
152.2802312342
 10
123.3375167191
 20
152.3237488405
  0
LINE
  5
2DD
100
AcDbEntity
  8
RACCORDO
100
AcDbLine
 62
253
  6
CONTINUOUS
 10
95.9003067485
 20
58.6796274475
 11
123.8503067485
 21
58.6796274475
  0
LINE
  5
2DE
100
AcDbEntity
  8
ASSI
100
AcDbLine
 62
253
  6
CONTINUOUS
 10
95.9003067485
 20
58.6796274475
 11
123.8503067485
 21
58.6796274475
  0
LINE
  5
2DF
100
AcDbEntity
  8
RACCORDO
100
AcDbLine
 62
253
  6
CONTINUOUS
 10
214.4503067485
 20
58.6796274475
 11
242.4003067485
 21
58.6796274475
  0
LINE
  5
2E0
100
AcDbEntity
  8
ASSI
100
AcDbLine
 62
253
  6
CONTINUOUS
 10
214.4503067485
 20
58.6796274475
 11
242.4003067485
 21
58.6796274475
  0
LWPOLYLINE
  5
2E1
100
AcDbEntity
  8
RACCORDO
100
AcDbPolyline
 62
253
  6
CONTINUOUS
 90
16
 70
0
 10
214.7940064241
 20
36.0895343667
 10
214.731344195
 20
36.1104836579
 10
214.7017531251
 20
36.1205940872
 10
214.6735308547
 20
36.1303906435
 10
214.6468252024
 20
36.1398220158
 10
214.6217760433
 20
36.1488388058
 10
214.5985145761
 20
36.1573937867
 10
214.5771626365
 20
36.1654421504
 10
214.5578320587
 20
36.1729417424
 10
214.5406240896
 20
36.1798532825
 10
214.5256288587
 20
36.1861405703
 10
214.5129249057
 20
36.1917706752
 10
214.5025787697
 20
36.1967141087
 10
214.4946446403
 20
36.2009449788
 10
214.4891640735
 20
36.2044411256
 10
214.4861657749
 20
36.2071842377
  0
LWPOLYLINE
  5
2E2
100
AcDbEntity
  8
ASSI
100
AcDbPolyline
 62
253
  6
CONTINUOUS
 90
16
 70
0
 10
214.7940064241
 20
36.0895343667
 10
214.731344195
 20
36.1104836579
 10
214.7017531251
 20
36.1205940872
 10
214.6735308547
 20
36.1303906435
 10
214.6468252024
 20
36.1398220158
 10
214.6217760433
 20
36.1488388058
 10
214.5985145761
 20
36.1573937867
 10
214.5771626365
 20
36.1654421504
 10
214.5578320587
 20
36.1729417424
 10
214.5406240896
 20
36.1798532825
 10
214.5256288587
 20
36.1861405703
 10
214.5129249057
 20
36.1917706752
 10
214.5025787697
 20
36.1967141087
 10
214.4946446403
 20
36.2009449788
 10
214.4891640735
 20
36.2044411256
 10
214.4861657749
 20
36.2071842377
  0
LWPOLYLINE
  5
2E3
100
AcDbEntity
  8
RACCORDO
100
AcDbPolyline
 62
253
  6
CONTINUOUS
 90
15
 70
0
 10
214.7313438844
 20
152.2487710742
 10
214.70175275
 20
152.2386606318
 10
214.6735304137
 20
152.2288640617
 10
214.6468246955
 20
152.2194326752
 10
214.6217754715
 20
152.210415871
 10
214.5985139417
 20
152.2018608763
 10
214.5771619428
 20
152.1938124994
 10
214.5578313099
 20
152.1863128952
 10
214.5406232907
 20
152.1794013443
 10
214.5256280157
 20
152.1731140472
 10
214.5129240252
 20
152.1674839347
 10
214.5025778589
 20
152.1625404957
 10
214.4946437067
 20
152.1583096224
 10
214.4891631253
 20
152.1548134746
 10
214.4861648202
 20
152.1520703641
  0
LWPOLYLINE
  5
2E4
100
AcDbEntity
  8
ASSI
100
AcDbPolyline
 62
253
  6
CONTINUOUS
 90
15
 70
0
 10
214.7313438844
 20
152.2487710742
 10
214.70175275
 20
152.2386606318
 10
214.6735304137
 20
152.2288640617
 10
214.6468246955
 20
152.2194326752
 10
214.6217754715
 20
152.210415871
 10
214.5985139417
 20
152.2018608763
 10
214.5771619428
 20
152.1938124994
 10
214.5578313099
 20
152.1863128952
 10
214.5406232907
 20
152.1794013443
 10
214.5256280157
 20
152.1731140472
 10
214.5129240252
 20
152.1674839347
 10
214.5025778589
 20
152.1625404957
 10
214.4946437067
 20
152.1583096224
 10
214.4891631253
 20
152.1548134746
 10
214.4861648202
 20
152.1520703641
  0
LINE
  5
2E5
100
AcDbEntity
  8
RACCORDO
100
AcDbLine
 62
253
  6
CONTINUOUS
 10
214.794006234
 20
152.2697203878
 11
214.7313438844
 21
152.2487710742
  0
LINE
  5
2E6
100
AcDbEntity
  8
ASSI
100
AcDbLine
 62
253
  6
CONTINUOUS
 10
214.794006234
 20
152.2697203878
 11
214.7313438844
 21
152.2487710742
  0
LINE
  5
2E7
100
AcDbEntity
  8
RACCORDO
100
AcDbLine
 62
253
  6
CONTINUOUS
 10
214.8602063581
 20
152.2912736736
 11
214.794006234
 21
152.2697203878
  0
LINE
  5
2E8
100
AcDbEntity
  8
ASSI
100
AcDbLine
 62
253
  6
CONTINUOUS
 10
214.8602063581
 20
152.2912736736
 11
214.794006234
 21
152.2697203878
  0
LWPOLYLINE
  5
2E9
100
AcDbEntity
  8
RACCORDO
100
AcDbPolyline
 62
253
  6
CONTINUOUS
 90
3
 70
0
 10
214.9630967776
 20
152.3237484258
 10
214.9285591305
 20
152.3129799653
 10
214.8602063581
 20
152.2912736736
  0
LWPOLYLINE
  5
2EA
100
AcDbEntity
  8
ASSI
100
AcDbPolyline
 62
253
  6
CONTINUOUS
 90
3
 70
0
 10
214.9630967776
 20
152.3237484258
 10
214.9285591305
 20
152.3129799653
 10
214.8602063581
 20
152.2912736736
  0
LWPOLYLINE
  5
2EB
100
AcDbEntity
  8
0
100
AcDbPolyline
 62
7
  6
CONTINUOUS
 90
3
 70
0
 43
0.3500000006
 10
171.1503105469
 20
202.8223447266
 10
171.0788703003
 20
202.6080602417
 10
170.936026062
 20
202.3223355103
  0
LWPOLYLINE
  5
2EC
100
AcDbEntity
  8
0
100
AcDbPolyline
 62
7
  6
CONTINUOUS
 90
3
 70
0
 43
0.3500000006
 10
170.1860213013
 20
192.8223416748
 10
170.1145991821
 20
192.6080571899
 10
169.9717368164
 20
192.3223505859
  0
LINE
  5
2ED
100
AcDbEntity
  8
SCRITTE
100
AcDbLine
 62
253
  6
CONTINUOUS
 10
167.7502387485
 20
31.6299804475
 11
168.4358197485
 21
29.8018264475
  0
LINE
  5
2EE
100
AcDbEntity
  8
SCRITTE
100
AcDbLine
 62
253
  6
CONTINUOUS
 10
168.4799927485
 20
31.0471254475
 11
167.9017567485
 21
32.6015294475
  0
LINE
  5
2EF
100
AcDbEntity
  8
SCRITTE
100
AcDbLine
 62
253
  6
CONTINUOUS
 10
163.6466387485
 20
32.6015294475
 11
164.5341997485
 21
29.8018264475
  0
LWPOLYLINE
  5
2F0
100
AcDbEntity
  8
SCRITTE
100
AcDbPolyline
 62
253
  6
CONTINUOUS
 90
47
 70
0
 10
173.6916868648
 20
30.6510229572
 10
173.6877471397
 20
30.6611367379
 10
173.6836294529
 20
30.6710093615
 10
173.6793427856
 20
30.6806433494
 10
173.674896119
 20
30.6900412231
 10
173.6702984344
 20
30.6992055039
 10
173.665558713
 20
30.7081387133
 10
173.6606859361
 20
30.7168433726
 10
173.6556890847
 20
30.7253220032
 10
173.6505771403
 20
30.7335771266
 10
173.645359084
 20
30.7416112642
 10
173.6394457539
 20
30.7502820768
 10
173.6334130623
 20
30.7586872827
 10
173.6272615622
 20
30.7668309844
 10
173.6209918064
 20
30.7747172843
 10
173.6146043478
 20
30.7823502848
 10
173.6080997393
 20
30.7897340885
 10
173.6014785339
 20
30.7968727978
 10
173.5947412844
 20
30.8037705151
 10
173.5878885438
 20
30.810431343
 10
173.5809211633
 20
30.8168580706
 10
173.5738411871
 20
30.8230482339
 10
173.5666509578
 20
30.8289980559
 10
173.5593528181
 20
30.8347037594
 10
173.5519491104
 20
30.840161567
 10
173.5444421774
 20
30.8453677018
 10
173.5368343616
 20
30.8503183863
 10
173.5291280057
 20
30.8550098436
 10
173.5213254522
 20
30.8594382964
 10
173.5134288393
 20
30.8636014249
 10
173.5054394882
 20
30.8675027394
 10
173.4973585154
 20
30.8711472075
 10
173.4891870378
 20
30.8745397968
 10
173.4809261719
 20
30.8776854751
 10
173.4725770345
 20
30.8805892099
 10
173.4641407424
 20
30.8832559689
 10
173.4556184121
 20
30.8856907197
 10
173.4470111605
 20
30.8878984301
 10
173.4383198559
 20
30.8898828397
 10
173.4295443738
 20
30.8916427767
 10
173.4206843414
 20
30.8931758414
 10
173.4117393858
 20
30.8944796339
 10
173.4027091341
 20
30.8955517545
 10
173.3935932136
 20
30.8963898034
 10
173.3843912515
 20
30.896991381
 10
173.3751028748
 20
30.8973540873
 10
173.3657277108
 20
30.8974755227
  0
LINE
  5
2F1
100
AcDbEntity
  8
SCRITTE
100
AcDbLine
 62
253
  6
CONTINUOUS
 10
172.2987147485
 20
29.8018264475
 11
171.4396967485
 21
32.6015294475
  0
LWPOLYLINE
  5
2F2
100
AcDbEntity
  8
SCRITTE
100
AcDbPolyline
 62
253
  6
CONTINUOUS
 90
9
 70
0
 10
173.7908515645
 20
30.3429764117
 10
173.7775090362
 20
30.3889582234
 10
173.7659512082
 20
30.4278803084
 10
173.7542306911
 20
30.4663306309
 10
173.7423058624
 20
30.5042920389
 10
173.7301350992
 20
30.5417473802
 10
173.7176767791
 20
30.5786795027
 10
173.7048892793
 20
30.6150712544
 10
173.6917309771
 20
30.650905483
  0
LINE
  5
2F3
100
AcDbEntity
  8
SCRITTE
100
AcDbLine
 62
253
  6
CONTINUOUS
 10
173.9473223703
 20
29.8018260931
 11
173.8588402017
 21
30.1047902254
  0
LINE
  5
2F4
100
AcDbEntity
  8
SCRITTE
100
AcDbLine
 62
253
  6
CONTINUOUS
 10
173.8588402017
 20
30.1047902254
 11
173.8448111436
 21
30.153459457
  0
LINE
  5
2F5
100
AcDbEntity
  8
SCRITTE
100
AcDbLine
 62
253
  6
CONTINUOUS
 10
164.8151607485
 20
30.6744074475
 11
164.2814867485
 21
32.6015294475
  0
LINE
  5
2F6
100
AcDbEntity
  8
SCRITTE
100
AcDbLine
 62
253
  6
CONTINUOUS
 10
171.5313807485
 20
30.3607464475
 11
171.6827727485
 21
29.8018264475
  0
LINE
  5
2F7
100
AcDbEntity
  8
SCRITTE
100
AcDbLine
 62
253
  6
CONTINUOUS
 10
171.1460437485
 20
31.8322424475
 11
171.4145867485
 21
30.7932364475
  0
LINE
  5
2F8
100
AcDbEntity
  8
RACCORDO
100
AcDbLine
 62
253
  6
CONTINUOUS
 10
214.10227125
 20
35.927292237
 11
214.0498005937
 21
35.9796274475
  0
LINE
  5
2F9
100
AcDbEntity
  8
ASSI
100
AcDbLine
 62
253
  6
CONTINUOUS
 10
214.10227125
 20
35.927292237
 11
214.0498005937
 21
35.9796274475
  0
LINE
  5
2FA
100
AcDbEntity
  8
RACCORDO
100
AcDbLine
 62
253
  6
CONTINUOUS
 10
214.5041544165
 20
36.3253448175
 11
214.4503067493
 21
36.3790685047
  0
LINE
  5
2FB
100
AcDbEntity
  8
ASSI
100
AcDbLine
 62
253
  6
CONTINUOUS
 10
214.5041544165
 20
36.3253448175
 11
214.4503067493
 21
36.3790685047
  0
LINE
  5
2FC
100
AcDbEntity
  8
RACCORDO
100
AcDbLine
 62
253
  6
CONTINUOUS
 10
241.4974334499
 20
12.7996160939
 11
241.6154504028
 21
12.6797707917
  0
LINE
  5
2FD
100
AcDbEntity
  8
ASSI
100
AcDbLine
 62
253
  6
CONTINUOUS
 10
241.4974334499
 20
12.7996160939
 11
241.6154504028
 21
12.6797707917
  0
LINE
  5
2FE
100
AcDbEntity
  8
RACCORDO
100
AcDbLine
 62
253
  6
CONTINUOUS
 10
242.2898258725
 20
13.588981108
 11
242.4003041902
 21
13.4767469866
  0
LINE
  5
2FF
100
AcDbEntity
  8
ASSI
100
AcDbLine
 62
253
  6
CONTINUOUS
 10
242.2898258725
 20
13.588981108
 11
242.4003041902
 21
13.4767469866
  0
LINE
  5
300
100
AcDbEntity
  8
SCRITTE
100
AcDbLine
 62
253
  6
CONTINUOUS
 10
173.8448111436
 20
30.153459457
 11
173.7908515645
 21
30.3429764117
  0
LINE
  5
301
100
AcDbEntity
  8
SCRITTE
100
AcDbLine
 62
253
  6
CONTINUOUS
 10
174.29092784
 20
30.6285120673
 11
174.3096858936
 21
30.5595272194
  0
LINE
  5
302
100
AcDbEntity
  8
SCRITTE
100
AcDbLine
 62
253
  6
CONTINUOUS
 10
174.309685894
 20
30.5595272195
 11
174.3448605674
 21
30.4288689698
  0
LINE
  5
303
100
AcDbEntity
  8
SCRITTE
100
AcDbLine
 62
253
  6
CONTINUOUS
 10
174.477016469
 20
29.9235727561
 11
174.5094549604
 21
29.8018260931
  0
LINE
  5
304
100
AcDbEntity
  8
SCRITTE
100
AcDbLine
 62
253
  6
CONTINUOUS
 10
174.3448605674
 20
30.4288689698
 11
174.4121927541
 21
30.1726983883
  0
LINE
  5
305
100
AcDbEntity
  8
SCRITTE
100
AcDbLine
 62
253
  6
CONTINUOUS
 10
174.4121927541
 20
30.1726983883
 11
174.477016469
 21
29.9235727561
  0
LINE
  5
306
100
AcDbEntity
  8
SCRITTE
100
AcDbLine
 62
253
  6
CONTINUOUS
 10
169.9044187485
 20
29.8018264475
 11
169.6426147485
 21
32.6015294475
  0
LINE
  5
307
100
AcDbEntity
  8
SCRITTE
100
AcDbLine
 62
253
  6
CONTINUOUS
 10
169.2126437485
 20
31.6223584475
 11
169.3327127485
 21
29.8018264475
  0
LINE
  5
308
100
AcDbEntity
  8
SCRITTE
100
AcDbLine
 62
253
  6
CONTINUOUS
 10
166.1660217485
 20
29.8018264475
 11
166.1660217485
 21
32.6016975212
  0
LWPOLYLINE
  5
309
100
AcDbEntity
  8
0
100
AcDbPolyline
 62
7
  6
CONTINUOUS
 90
2
 70
0
 43
0.3500000006
 10
166.7217403564
 20
202.5366381226
 10
166.7217403564
 20
204.0366295166
  0
LINE
  5
30A
100
AcDbEntity
  8
SCRITTE
100
AcDbLine
 62
253
  6
CONTINUOUS
 10
166.7504297485
 20
32.6016974475
 11
166.7504297485
 21
29.8018263738
  0
LWPOLYLINE
  5
30B
100
AcDbEntity
  8
0
100
AcDbPolyline
 62
7
  6
CONTINUOUS
 90
13
 70
0
 43
0.3500000006
 10
167.1145982666
 20
193.3937730103
 10
167.1145982666
 20
194.6794799194
 10
167.3288827515
 20
195.1080670166
 10
167.7574517212
 20
195.5366359863
 10
167.9717362061
 20
195.5366359863
 10
168.4003051758
 20
195.1080670166
 10
168.6145896606
 20
194.6794799194
 10
168.6145896606
 20
193.3937730103
 10
168.4003051758
 20
192.9652040405
 10
167.9717362061
 20
192.5366350708
 10
167.7574517212
 20
192.5366350708
 10
167.3288827515
 20
192.9652040405
 10
167.1145982666
 20
193.3937730103
  0
LINE
  5
30C
100
AcDbEntity
  8
RACCORDO
100
AcDbLine
 62
253
  6
CONTINUOUS
 10
242.2898258725
 20
174.770273787
 11
242.4003041902
 21
174.8825079083
  0
LINE
  5
30D
100
AcDbEntity
  8
ASSI
100
AcDbLine
 62
253
  6
CONTINUOUS
 10
242.2898258725
 20
174.770273787
 11
242.4003041902
 21
174.8825079083
  0
LINE
  5
30E
100
AcDbEntity
  8
RACCORDO
100
AcDbLine
 62
253
  6
CONTINUOUS
 10
241.4974334499
 20
175.5596388011
 11
241.6154504028
 21
175.6794841032
  0
LINE
  5
30F
100
AcDbEntity
  8
ASSI
100
AcDbLine
 62
253
  6
CONTINUOUS
 10
241.4974334499
 20
175.5596388011
 11
241.6154504028
 21
175.6794841032
  0
LINE
  5
310
100
AcDbEntity
  8
RACCORDO
100
AcDbLine
 62
253
  6
CONTINUOUS
 10
214.4503067493
 20
151.9801863903
 11
214.5041544174
 21
152.0339129288
  0
LINE
  5
311
100
AcDbEntity
  8
ASSI
100
AcDbLine
 62
253
  6
CONTINUOUS
 10
214.4503067493
 20
151.9801863903
 11
214.5041544174
 21
152.0339129288
  0
LINE
  5
312
100
AcDbEntity
  8
RACCORDO
100
AcDbLine
 62
253
  6
CONTINUOUS
 10
214.0498005937
 20
152.3796274475
 11
214.1022714655
 21
152.431962658
  0
LINE
  5
313
100
AcDbEntity
  8
ASSI
100
AcDbLine
 62
253
  6
CONTINUOUS
 10
214.0498005937
 20
152.3796274475
 11
214.1022714655
 21
152.431962658
  0
LWPOLYLINE
  5
314
100
AcDbEntity
  8
0
100
AcDbPolyline
 62
7
  6
CONTINUOUS
 90
2
 70
0
 43
0.3500000006
 10
256.5446445923
 20
97.7510537109
 10
255.0446531982
 20
97.7510537109
  0
LINE
  5
315
100
AcDbEntity
  8
RACCORDO
100
AcDbLine
 62
253
  6
CONTINUOUS
 10
96.8031800471
 20
175.5596388011
 11
96.6851630941
 21
175.6794841032
  0
LINE
  5
316
100
AcDbEntity
  8
ASSI
100
AcDbLine
 62
253
  6
CONTINUOUS
 10
96.8031800471
 20
175.5596388011
 11
96.6851630941
 21
175.6794841032
  0
LINE
  5
317
100
AcDbEntity
  8
RACCORDO
100
AcDbLine
 62
253
  6
CONTINUOUS
 10
96.0107876245
 20
174.770273787
 11
95.9003093067
 21
174.8825079083
  0
LINE
  5
318
100
AcDbEntity
  8
ASSI
100
AcDbLine
 62
253
  6
CONTINUOUS
 10
96.0107876245
 20
174.770273787
 11
95.9003093067
 21
174.8825079083
  0
LWPOLYLINE
  5
319
100
AcDbEntity
  8
SCRITTE
100
AcDbPolyline
 62
253
  6
CONTINUOUS
 90
49
 70
0
 10
173.8209600465
 20
31.7907648761
 10
173.8206444859
 20
31.8012627801
 10
173.8200095808
 20
31.811702957
 10
173.8190584473
 20
31.8220892258
 10
173.8177942015
 20
31.8324254055
 10
173.8162199597
 20
31.8427153148
 10
173.8143388379
 20
31.8529627729
 10
173.8121539523
 20
31.8631715986
 10
173.809668419
 20
31.8733456107
 10
173.8068848269
 20
31.8834861083
 10
173.8038036549
 20
31.8935843099
 10
173.8004248545
 20
31.9036289139
 10
173.7967483774
 20
31.9136086189
 10
173.7927741753
 20
31.9235121234
 10
173.7885021996
 20
31.9333281259
 10
173.7839324019
 20
31.9430453249
 10
173.7790647339
 20
31.9526524189
 10
173.7738991282
 20
31.9621376053
 10
173.7684354414
 20
31.9714870771
 10
173.7626735111
 20
31.9806865259
 10
173.7566131751
 20
31.9897216436
 10
173.7502542709
 20
31.998578122
 10
173.7435966362
 20
32.0072416528
 10
173.7366401088
 20
32.015697928
 10
173.7293845261
 20
32.0239326391
 10
173.72183168
 20
32.0319329497
 10
173.7139911785
 20
32.0396919091
 10
173.7058745839
 20
32.0472040385
 10
173.6974934581
 20
32.0544638588
 10
173.6888593635
 20
32.0614658911
 10
173.6799838621
 20
32.0682046565
 10
173.6708785161
 20
32.074674676
 10
173.6615548877
 20
32.0808704706
 10
173.6520245515
 20
32.0867873071
 10
173.6422991319
 20
32.0924234356
 10
173.6323902657
 20
32.0977778515
 10
173.6223095899
 20
32.1028495508
 10
173.6120687413
 20
32.1076375289
 10
173.6016793568
 20
32.1121407817
 10
173.5911530733
 20
32.1163583048
 10
173.5805015276
 20
32.120289094
 10
173.569733689
 20
32.1239316837
 10
173.5588478557
 20
32.1272827637
 10
173.5478396584
 20
32.1303385628
 10
173.5367047278
 20
32.1330953096
 10
173.5254386945
 20
32.1355492328
 10
173.5140371891
 20
32.1376965609
 10
173.5024958423
 20
32.1395335227
 10
173.4908102847
 20
32.1410563469
  0
LINE
  5
31A
100
AcDbEntity
  8
SCRITTE
100
AcDbLine
 62
253
  6
CONTINUOUS
 10
172.4703255508
 20
29.8018260931
 11
172.4703255508
 21
32.5688200402
  0
LINE
  5
31B
100
AcDbEntity
  8
SCRITTE
100
AcDbLine
 62
253
  6
CONTINUOUS
 10
173.0330040026
 20
32.1245726515
 11
173.0330040026
 21
31.3559993892
  0
LINE
  5
31C
100
AcDbEntity
  8
SCRITTE
100
AcDbLine
 62
253
  6
CONTINUOUS
 10
173.0523820933
 20
30.8974755227
 11
173.0523820933
 21
29.8018261259
  0
LINE
  5
31D
100
AcDbEntity
  8
SCRITTE
100
AcDbLine
 62
253
  6
CONTINUOUS
 10
173.9728099134
 20
31.1252468194
 11
173.9728099134
 21
31.108703011
  0
LINE
  5
31E
100
AcDbEntity
  8
SCRITTE
100
AcDbLine
 62
253
  6
CONTINUOUS
 10
167.6241237485
 20
29.8018264475
 11
167.7502387485
 21
31.6299804475
  0
LINE
  5
31F
100
AcDbEntity
  8
SCRITTE
100
AcDbLine
 62
253
  6
CONTINUOUS
 10
167.3178317485
 20
32.6015294475
 11
167.0650347485
 21
29.8018264475
  0
LINE
  5
320
100
AcDbEntity
  8
RACCORDO
100
AcDbLine
 62
253
  6
CONTINUOUS
 10
124.1983420321
 20
152.431962658
 11
124.2508129032
 21
152.3796274475
  0
LINE
  5
321
100
AcDbEntity
  8
ASSI
100
AcDbLine
 62
253
  6
CONTINUOUS
 10
124.1983420321
 20
152.431962658
 11
124.2508129032
 21
152.3796274475
  0
LINE
  5
322
100
AcDbEntity
  8
RACCORDO
100
AcDbLine
 62
253
  6
CONTINUOUS
 10
123.7964590796
 20
152.0339124861
 11
123.8503067476
 21
151.9801863903
  0
LINE
  5
323
100
AcDbEntity
  8
ASSI
100
AcDbLine
 62
253
  6
CONTINUOUS
 10
123.7964590796
 20
152.0339124861
 11
123.8503067476
 21
151.9801863903
  0
LINE
  5
324
100
AcDbEntity
  8
SCRITTE
100
AcDbLine
 62
253
  6
CONTINUOUS
 10
165.3651377485
 20
32.6015294475
 11
164.8151607485
 21
30.6744074475
  0
LINE
  5
325
100
AcDbEntity
  8
RACCORDO
100
AcDbLine
 62
253
  6
CONTINUOUS
 10
96.0107876245
 20
13.5889811079
 11
95.9003093067
 21
13.4767469866
  0
LINE
  5
326
100
AcDbEntity
  8
ASSI
100
AcDbLine
 62
253
  6
CONTINUOUS
 10
96.0107876245
 20
13.5889811079
 11
95.9003093067
 21
13.4767469866
  0
LINE
  5
327
100
AcDbEntity
  8
RACCORDO
100
AcDbLine
 62
253
  6
CONTINUOUS
 10
96.8031800471
 20
12.7996160939
 11
96.6851630941
 21
12.6797707917
  0
LINE
  5
328
100
AcDbEntity
  8
ASSI
100
AcDbLine
 62
253
  6
CONTINUOUS
 10
96.8031800471
 20
12.7996160939
 11
96.6851630941
 21
12.6797707917
  0
LINE
  5
329
100
AcDbEntity
  8
RACCORDO
100
AcDbLine
 62
253
  6
CONTINUOUS
 10
123.796459086
 20
36.3253613049
 11
123.8503067476
 21
36.3790685047
  0
LINE
  5
32A
100
AcDbEntity
  8
ASSI
100
AcDbLine
 62
253
  6
CONTINUOUS
 10
123.796459086
 20
36.3253613049
 11
123.8503067476
 21
36.3790685047
  0
LINE
  5
32B
100
AcDbEntity
  8
RACCORDO
100
AcDbLine
 62
253
  6
CONTINUOUS
 10
124.1983265678
 20
35.927292237
 11
124.2508129032
 21
35.9796274475
  0
LINE
  5
32C
100
AcDbEntity
  8
ASSI
100
AcDbLine
 62
253
  6
CONTINUOUS
 10
124.1983265678
 20
35.927292237
 11
124.2508129032
 21
35.9796274475
  0
LINE
  5
32D
100
AcDbEntity
  8
SCRITTE
100
AcDbLine
 62
253
  6
CONTINUOUS
 10
170.8550577485
 20
30.7932364475
 11
171.1460437485
 21
31.8322424475
  0
LINE
  5
32E
100
AcDbEntity
  8
SCRITTE
100
AcDbLine
 62
253
  6
CONTINUOUS
 10
170.5742537485
 20
29.8018264475
 11
170.7355137485
 21
30.3607464475
  0
LINE
  5
32F
100
AcDbEntity
  8
SCRITTE
100
AcDbLine
 62
253
  6
CONTINUOUS
 10
170.8743517485
 20
32.6015294475
 11
169.9961867485
 21
29.8018264475
  0
LINE
  5
330
100
AcDbEntity
  8
SCRITTE
100
AcDbLine
 62
253
  6
CONTINUOUS
 10
165.0492097485
 20
29.8018264475
 11
165.9491467485
 21
32.6015294475
  0
LINE
  5
331
100
AcDbEntity
  8
SCRITTE
100
AcDbLine
 62
253
  6
CONTINUOUS
 10
169.0644007485
 20
32.6015294475
 11
168.4799927485
 21
31.0471254475
  0
LINE
  5
332
100
AcDbEntity
  8
SCRITTE
100
AcDbLine
 62
253
  6
CONTINUOUS
 10
168.5177827485
 20
29.8018264475
 11
169.2126437485
 21
31.6223584475
  0
LWPOLYLINE
  5
333
100
AcDbEntity
  8
0
100
AcDbPolyline
 62
7
  6
CONTINUOUS
 90
3
 70
0
 43
0.3500000006
 10
256.2589379883
 20
95.7510531006
 10
256.4732224731
 20
95.6796309814
 10
256.7589290771
 20
95.5367686157
  0
LINE
  5
334
100
AcDbEntity
  8
RACCORDO
100
AcDbLine
 62
253
  6
CONTINUOUS
 10
95.9003067485
 20
129.6796274475
 11
123.8503067485
 21
129.6796274475
  0
LINE
  5
335
100
AcDbEntity
  8
ASSI
100
AcDbLine
 62
253
  6
CONTINUOUS
 10
95.9003067485
 20
129.6796274475
 11
123.8503067485
 21
129.6796274475
  0
LINE
  5
336
100
AcDbEntity
  8
RACCORDO
100
AcDbLine
 62
253
  6
CONTINUOUS
 10
214.4503067485
 20
129.6796274475
 11
242.4003067485
 21
129.6796274475
  0
LINE
  5
337
100
AcDbEntity
  8
ASSI
100
AcDbLine
 62
253
  6
CONTINUOUS
 10
214.4503067485
 20
129.6796274475
 11
242.4003067485
 21
129.6796274475
  0
LWPOLYLINE
  5
338
100
AcDbEntity
  8
RACCORDO
100
AcDbPolyline
 62
253
  6
CONTINUOUS
 90
17
 70
0
 10
123.4738641085
 20
152.2804496746
 10
123.5384644053
 20
152.259142595
 10
123.5692692828
 20
152.2487712483
 10
123.5988603486
 20
152.2386608198
 10
123.6270826149
 20
152.2288642643
 10
123.653788263
 20
152.2194328928
 10
123.678837418
 20
152.2104161037
 10
123.7020988812
 20
152.2018611236
 10
123.723450817
 20
152.1938127606
 10
123.7427813912
 20
152.1863131693
 10
123.7599893571
 20
152.1794016299
 10
123.7749845851
 20
152.1731143426
 10
123.7876885356
 20
152.1674842381
 10
123.7980346695
 20
152.1625408049
 10
123.8059687974
 20
152.158309935
 10
123.8114493631
 20
152.1548137881
 10
123.8144476611
 20
152.152070676
  0
LWPOLYLINE
  5
339
100
AcDbEntity
  8
ASSI
100
AcDbPolyline
 62
253
  6
CONTINUOUS
 90
17
 70
0
 10
123.4738641085
 20
152.2804496746
 10
123.5384644053
 20
152.259142595
 10
123.5692692828
 20
152.2487712483
 10
123.5988603486
 20
152.2386608198
 10
123.6270826149
 20
152.2288642643
 10
123.653788263
 20
152.2194328928
 10
123.678837418
 20
152.2104161037
 10
123.7020988812
 20
152.2018611236
 10
123.723450817
 20
152.1938127606
 10
123.7427813912
 20
152.1863131693
 10
123.7599893571
 20
152.1794016299
 10
123.7749845851
 20
152.1731143426
 10
123.7876885356
 20
152.1674842381
 10
123.7980346695
 20
152.1625408049
 10
123.8059687974
 20
152.158309935
 10
123.8114493631
 20
152.1548137881
 10
123.8144476611
 20
152.152070676
  0
LINE
  5
33A
100
AcDbEntity
  8
RACCORDO
100
AcDbLine
 62
253
  6
CONTINUOUS
 10
123.3375167191
 20
152.3237485589
 11
123.4064111025
 21
152.3021362466
  0
LINE
  5
33B
100
AcDbEntity
  8
ASSI
100
AcDbLine
 62
253
  6
CONTINUOUS
 10
123.3375167191
 20
152.3237485589
 11
123.4064111025
 21
152.3021362466
  0
LINE
  5
33C
100
AcDbEntity
  8
RACCORDO
100
AcDbLine
 62
253
  6
CONTINUOUS
 10
123.4064111025
 20
152.3021362466
 11
123.4738641085
 21
152.2804496746
  0
LINE
  5
33D
100
AcDbEntity
  8
ASSI
100
AcDbLine
 62
253
  6
CONTINUOUS
 10
123.4064111025
 20
152.3021362466
 11
123.4738641085
 21
152.2804496746
  0
LWPOLYLINE
  5
33E
100
AcDbEntity
  8
0
100
AcDbPolyline
 62
7
  6
CONTINUOUS
 90
10
 70
0
 43
0.3500000006
 10
170.1145991821
 20
193.0366261597
 10
170.1860213013
 20
192.8937819214
 10
170.1860213013
 20
192.8223416748
 10
170.0431589355
 20
192.6794793091
 10
169.9717368164
 20
192.6794793091
 10
169.9003146973
 20
192.7509195557
 10
169.9003146973
 20
192.8223416748
 10
169.9717368164
 20
192.9652040405
 10
170.0431589355
 20
193.0366261597
 10
170.1145991821
 20
193.0366261597
  0
LWPOLYLINE
  5
33F
100
AcDbEntity
  8
RACCORDO
100
AcDbPolyline
 62
7
  6
CONTINUOUS
 90
13
 70
0
 10
214.4503067493
 20
151.9801863903
 10
214.4495284635
 20
152.0048450046
 10
214.4472712344
 20
152.0292274299
 10
214.4435350621
 20
152.0533336685
 10
214.4382912352
 20
152.0772575571
 10
214.4315684651
 20
152.1009052627
 10
214.4234528862
 20
152.1239952849
 10
214.4139349908
 20
152.146507605
 10
214.4030242867
 20
152.1684622503
 10
214.3908354315
 20
152.1896377936
 10
214.3774066447
 20
152.2099604302
 10
214.3626997069
 20
152.2295039759
 10
214.3467146181
 20
152.2482684359
  0
LWPOLYLINE
  5
340
100
AcDbEntity
  8
ASSI
100
AcDbPolyline
 62
7
  6
CONTINUOUS
 90
13
 70
0
 10
214.4503067493
 20
151.9801863903
 10
214.4495284635
 20
152.0048450046
 10
214.4472712344
 20
152.0292274299
 10
214.4435350621
 20
152.0533336685
 10
214.4382912352
 20
152.0772575571
 10
214.4315684651
 20
152.1009052627
 10
214.4234528862
 20
152.1239952849
 10
214.4139349908
 20
152.146507605
 10
214.4030242867
 20
152.1684622503
 10
214.3908354315
 20
152.1896377936
 10
214.3774066447
 20
152.2099604302
 10
214.3626997069
 20
152.2295039759
 10
214.3467146181
 20
152.2482684359
  0
LINE
  5
341
100
AcDbEntity
  8
RACCORDO
100
AcDbLine
 62
253
  6
CONTINUOUS
 10
214.1022725046
 20
152.9581271851
 11
214.1022725046
 21
152.431962658
  0
LINE
  5
342
100
AcDbEntity
  8
ASSI
100
AcDbLine
 62
253
  6
CONTINUOUS
 10
214.1022725046
 20
152.9581271851
 11
214.1022725046
 21
152.431962658
  0
LINE
  5
343
100
AcDbEntity
  8
RACCORDO
100
AcDbLine
 62
253
  6
CONTINUOUS
 10
214.1022725046
 20
35.4011277099
 11
214.1022725046
 21
35.927292237
  0
LINE
  5
344
100
AcDbEntity
  8
ASSI
100
AcDbLine
 62
253
  6
CONTINUOUS
 10
214.1022725046
 20
35.4011277099
 11
214.1022725046
 21
35.927292237
  0
LINE
  5
345
100
AcDbEntity
  8
DRAFT
100
AcDbLine
 62
7
  6
CONTINUOUS
 10
214.4503067485
 20
129.6796274475
 11
214.4503067485
 21
58.6796274475
  0
LINE
  5
346
100
AcDbEntity
  8
RACCORDO
100
AcDbLine
 62
7
  6
CONTINUOUS
 10
214.4503067493
 20
36.3790685047
 11
214.4503067485
 21
58.6796274475
  0
LINE
  5
347
100
AcDbEntity
  8
RACCORDO
100
AcDbLine
 62
7
  6
CONTINUOUS
 10
214.4503067485
 20
129.6796274475
 11
214.4503067493
 21
151.9801863903
  0
LINE
  5
348
100
AcDbEntity
  8
ASSI
100
AcDbLine
 62
7
  6
CONTINUOUS
 10
214.4503067493
 20
36.3790685047
 11
214.4503067493
 21
151.9801863903
  0
LINE
  5
349
100
AcDbEntity
  8
RACCORDO
100
AcDbLine
 62
253
  6
CONTINUOUS
 10
214.5041544174
 20
152.0339129288
 11
214.5041544165
 21
36.3253448175
  0
LINE
  5
34A
100
AcDbEntity
  8
ASSI
100
AcDbLine
 62
253
  6
CONTINUOUS
 10
214.5041544174
 20
152.0339129288
 11
214.5041544165
 21
36.3253448175
  0
LINE
  5
34B
100
AcDbEntity
  8
RACCORDO
100
AcDbLine
 62
253
  6
CONTINUOUS
 10
215.0034674746
 20
152.0574496047
 11
215.0034674746
 21
36.3018052902
  0
LINE
  5
34C
100
AcDbEntity
  8
ASSI
100
AcDbLine
 62
253
  6
CONTINUOUS
 10
215.0034674746
 20
152.0574496047
 11
215.0034674746
 21
36.3018052902
  0
LWPOLYLINE
  5
34D
100
AcDbEntity
  8
RACCORDO
100
AcDbPolyline
 62
253
  6
CONTINUOUS
 90
7
 70
0
 10
214.504154404
 20
36.3253448295
 10
214.5036567885
 20
36.3054204587
 10
214.5021572053
 20
36.2855216658
 10
214.4996552116
 20
36.2656984183
 10
214.4961528822
 20
36.2460008588
 10
214.4916548295
 20
36.2264791785
 10
214.4861682157
 20
36.2071834878
  0
LWPOLYLINE
  5
34E
100
AcDbEntity
  8
ASSI
100
AcDbPolyline
 62
253
  6
CONTINUOUS
 90
7
 70
0
 10
214.504154404
 20
36.3253448295
 10
214.5036567885
 20
36.3054204587
 10
214.5021572053
 20
36.2855216658
 10
214.4996552116
 20
36.2656984183
 10
214.4961528822
 20
36.2460008588
 10
214.4916548295
 20
36.2264791785
 10
214.4861682157
 20
36.2071834878
  0
LWPOLYLINE
  5
34F
100
AcDbEntity
  8
RACCORDO
100
AcDbPolyline
 62
253
  6
CONTINUOUS
 90
7
 70
0
 10
215.0034674746
 20
36.3018052902
 10
215.0023095474
 20
36.2565385355
 10
214.9989234113
 20
36.2116252067
 10
214.9933090663
 20
36.167065299
 10
214.9854665124
 20
36.1228588076
 10
214.9753957496
 20
36.0790057277
 10
214.9630967778
 20
36.0355060545
  0
LWPOLYLINE
  5
350
100
AcDbEntity
  8
ASSI
100
AcDbPolyline
 62
253
  6
CONTINUOUS
 90
7
 70
0
 10
215.0034674746
 20
36.3018052902
 10
215.0023095474
 20
36.2565385355
 10
214.9989234113
 20
36.2116252067
 10
214.9933090663
 20
36.167065299
 10
214.9854665124
 20
36.1228588076
 10
214.9753957496
 20
36.0790057277
 10
214.9630967778
 20
36.0355060545
  0
LWPOLYLINE
  5
351
100
AcDbEntity
  8
0
100
AcDbPolyline
 62
7
  6
CONTINUOUS
 90
10
 70
0
 43
0.3500000006
 10
256.0446535034
 20
95.6796309814
 10
256.1874977417
 20
95.7510531006
 10
256.2589379883
 20
95.7510531006
 10
256.4017822266
 20
95.6081997986
 10
256.4017822266
 20
95.5367686157
 10
256.3303601074
 20
95.4653374329
 10
256.2589379883
 20
95.4653374329
 10
256.1160756226
 20
95.5367686157
 10
256.0446535034
 20
95.6081997986
 10
256.0446535034
 20
95.6796309814
  0
LWPOLYLINE
  5
352
100
AcDbEntity
  8
RACCORDO
100
AcDbPolyline
 62
253
  6
CONTINUOUS
 90
15
 70
0
 10
123.5692690889
 20
36.1104835356
 10
123.5988601118
 20
36.1205939551
 10
123.6270823338
 20
36.130390501
 10
123.6537879372
 20
36.1398218627
 10
123.6788370479
 20
36.1488386422
 10
123.7020984677
 20
36.1573936128
 10
123.7234503619
 20
36.1654419668
 10
123.7427808969
 20
36.1729415497
 10
123.7599888266
 20
36.1798530817
 10
123.774984022
 20
36.1861403625
 10
123.7876879438
 20
36.1917704616
 10
123.7980340535
 20
36.1967138908
 10
123.805968162
 20
36.2009447582
 10
123.8114487132
 20
36.2044409039
 10
123.8144470021
 20
36.2071840165
  0
LWPOLYLINE
  5
353
100
AcDbEntity
  8
ASSI
100
AcDbPolyline
 62
253
  6
CONTINUOUS
 90
15
 70
0
 10
123.5692690889
 20
36.1104835356
 10
123.5988601118
 20
36.1205939551
 10
123.6270823338
 20
36.130390501
 10
123.6537879372
 20
36.1398218627
 10
123.6788370479
 20
36.1488386422
 10
123.7020984677
 20
36.1573936128
 10
123.7234503619
 20
36.1654419668
 10
123.7427808969
 20
36.1729415497
 10
123.7599888266
 20
36.1798530817
 10
123.774984022
 20
36.1861403625
 10
123.7876879438
 20
36.1917704616
 10
123.7980340535
 20
36.1967138908
 10
123.805968162
 20
36.2009447582
 10
123.8114487132
 20
36.2044409039
 10
123.8144470021
 20
36.2071840165
  0
LINE
  5
354
100
AcDbEntity
  8
RACCORDO
100
AcDbLine
 62
253
  6
CONTINUOUS
 10
123.5066069459
 20
36.0895342615
 11
123.5692690889
 21
36.1104835356
  0
LINE
  5
355
100
AcDbEntity
  8
ASSI
100
AcDbLine
 62
253
  6
CONTINUOUS
 10
123.5066069459
 20
36.0895342615
 11
123.5692690889
 21
36.1104835356
  0
LINE
  5
356
100
AcDbEntity
  8
RACCORDO
100
AcDbLine
 62
253
  6
CONTINUOUS
 10
123.4404069915
 20
36.0679810024
 11
123.5066069459
 21
36.0895342615
  0
LINE
  5
357
100
AcDbEntity
  8
ASSI
100
AcDbLine
 62
253
  6
CONTINUOUS
 10
123.4404069915
 20
36.0679810024
 11
123.5066069459
 21
36.0895342615
  0
LWPOLYLINE
  5
358
100
AcDbEntity
  8
RACCORDO
100
AcDbPolyline
 62
253
  6
CONTINUOUS
 90
3
 70
0
 10
123.3375167191
 20
36.0355062553
 10
123.3720543343
 20
36.0462747196
 10
123.4404069915
 20
36.0679810024
  0
LWPOLYLINE
  5
359
100
AcDbEntity
  8
ASSI
100
AcDbPolyline
 62
253
  6
CONTINUOUS
 90
3
 70
0
 10
123.3375167191
 20
36.0355062553
 10
123.3720543343
 20
36.0462747196
 10
123.4404069915
 20
36.0679810024
  0
LWPOLYLINE
  5
35A
100
AcDbEntity
  8
RACCORDO
100
AcDbPolyline
 62
253
  6
CONTINUOUS
 90
16
 70
0
 10
214.7932972914
 20
152.0551475964
 10
214.7610721457
 20
152.0543338255
 10
214.7301136379
 20
152.0534064079
 10
214.7005835419
 20
152.0523701898
 10
214.6726361672
 20
152.0512305859
 10
214.6464175531
 20
152.0499935513
 10
214.622064705
 20
152.0486655502
 10
214.5997048788
 20
152.0472535219
 10
214.5794549159
 20
152.045764845
 10
214.5614206326
 20
152.0442072987
 10
214.5456962672
 20
152.0425890219
 10
214.5323639873
 20
152.0409184709
 10
214.5214934608
 20
152.0392043751
 10
214.5131414918
 20
152.0374556917
 10
214.5073517234
 20
152.0356815583
 10
214.5041544103
 20
152.0338912457
  0
LWPOLYLINE
  5
35B
100
AcDbEntity
  8
ASSI
100
AcDbPolyline
 62
253
  6
CONTINUOUS
 90
16
 70
0
 10
214.7932972914
 20
152.0551475964
 10
214.7610721457
 20
152.0543338255
 10
214.7301136379
 20
152.0534064079
 10
214.7005835419
 20
152.0523701898
 10
214.6726361672
 20
152.0512305859
 10
214.6464175531
 20
152.0499935513
 10
214.622064705
 20
152.0486655502
 10
214.5997048788
 20
152.0472535219
 10
214.5794549159
 20
152.045764845
 10
214.5614206326
 20
152.0442072987
 10
214.5456962672
 20
152.0425890219
 10
214.5323639873
 20
152.0409184709
 10
214.5214934608
 20
152.0392043751
 10
214.5131414918
 20
152.0374556917
 10
214.5073517234
 20
152.0356815583
 10
214.5041544103
 20
152.0338912457
  0
LINE
  5
35C
100
AcDbEntity
  8
RACCORDO
100
AcDbLine
 62
253
  6
CONTINUOUS
 10
214.860868187
 20
152.0564178047
 11
214.7932972914
 21
152.0551475964
  0
LINE
  5
35D
100
AcDbEntity
  8
ASSI
100
AcDbLine
 62
253
  6
CONTINUOUS
 10
214.860868187
 20
152.0564178047
 11
214.7932972914
 21
152.0551475964
  0
LINE
  5
35E
100
AcDbEntity
  8
RACCORDO
100
AcDbLine
 62
253
  6
CONTINUOUS
 10
123.3332662342
 20
152.057384844
 11
123.4047526622
 21
152.0568675945
  0
LINE
  5
35F
100
AcDbEntity
  8
ASSI
100
AcDbLine
 62
253
  6
CONTINUOUS
 10
123.3332662342
 20
152.057384844
 11
123.4047526622
 21
152.0568675945
  0
LWPOLYLINE
  5
360
100
AcDbEntity
  8
RACCORDO
100
AcDbPolyline
 62
253
  6
CONTINUOUS
 90
18
 70
0
 10
123.4047526622
 20
152.0568675945
 10
123.4739928365
 20
152.0558434599
 10
123.5073162343
 20
152.0551475889
 10
123.5395413872
 20
152.0543338187
 10
123.5704999026
 20
152.0534064019
 10
123.6000300064
 20
152.0523701845
 10
123.6279773889
 20
152.0512305813
 10
123.6541960107
 20
152.0499935473
 10
123.6785488663
 20
152.0486655467
 10
123.7009086995
 20
152.047253519
 10
123.721158669
 20
152.0457648426
 10
123.7391929583
 20
152.0442072968
 10
123.7549173292
 20
152.0425890204
 10
123.7682496137
 20
152.0409184698
 10
123.7791201439
 20
152.0392043744
 10
123.7874721158
 20
152.0374556913
 10
123.7932618861
 20
152.0356815583
 10
123.7964592003
 20
152.033891246
  0
LWPOLYLINE
  5
361
100
AcDbEntity
  8
ASSI
100
AcDbPolyline
 62
253
  6
CONTINUOUS
 90
18
 70
0
 10
123.4047526622
 20
152.0568675945
 10
123.4739928365
 20
152.0558434599
 10
123.5073162343
 20
152.0551475889
 10
123.5395413872
 20
152.0543338187
 10
123.5704999026
 20
152.0534064019
 10
123.6000300064
 20
152.0523701845
 10
123.6279773889
 20
152.0512305813
 10
123.6541960107
 20
152.0499935473
 10
123.6785488663
 20
152.0486655467
 10
123.7009086995
 20
152.047253519
 10
123.721158669
 20
152.0457648426
 10
123.7391929583
 20
152.0442072968
 10
123.7549173292
 20
152.0425890204
 10
123.7682496137
 20
152.0409184698
 10
123.7791201439
 20
152.0392043744
 10
123.7874721158
 20
152.0374556913
 10
123.7932618861
 20
152.0356815583
 10
123.7964592003
 20
152.033891246
  0
LWPOLYLINE
  5
362
100
AcDbEntity
  8
0
100
AcDbPolyline
 62
7
  6
CONTINUOUS
 90
10
 70
0
 43
0.3500000006
 10
171.0788703003
 20
203.0366292114
 10
171.1503105469
 20
202.8937668457
 10
171.1503105469
 20
202.8223447266
 10
171.0074481812
 20
202.6794823608
 10
170.936026062
 20
202.6794823608
 10
170.8645858154
 20
202.7509226074
 10
170.8645858154
 20
202.8223447266
 10
170.936026062
 20
202.9652070923
 10
171.0074481812
 20
203.0366292114
 10
171.0788703003
 20
203.0366292114
  0
LWPOLYLINE
  5
363
100
AcDbEntity
  8
RACCORDO
100
AcDbPolyline
 62
7
  6
CONTINUOUS
 90
13
 70
0
 10
124.2508129032
 20
152.3796274475
 10
124.2227031576
 20
152.3786188728
 10
124.1949962596
 20
152.3757201489
 10
124.1676922091
 20
152.3709312714
 10
124.1406556259
 20
152.3642054269
 10
124.1140218902
 20
152.3555894106
 10
124.0881971428
 20
152.3452236278
 10
124.0632112385
 20
152.3330917319
 10
124.0390343225
 20
152.3192100371
 10
124.015982971
 20
152.3037679388
 10
123.9941627092
 20
152.2868285562
 10
123.9734680118
 20
152.2683287297
 10
123.9538988788
 20
152.2482684359
  0
LWPOLYLINE
  5
364
100
AcDbEntity
  8
ASSI
100
AcDbPolyline
 62
7
  6
CONTINUOUS
 90
13
 70
0
 10
124.2508129032
 20
152.3796274475
 10
124.2227031576
 20
152.3786188728
 10
124.1949962596
 20
152.3757201489
 10
124.1676922091
 20
152.3709312714
 10
124.1406556259
 20
152.3642054269
 10
124.1140218902
 20
152.3555894106
 10
124.0881971428
 20
152.3452236278
 10
124.0632112385
 20
152.3330917319
 10
124.0390343225
 20
152.3192100371
 10
124.015982971
 20
152.3037679388
 10
123.9941627092
 20
152.2868285562
 10
123.9734680118
 20
152.2683287297
 10
123.9538988788
 20
152.2482684359
  0
LWPOLYLINE
  5
365
100
AcDbEntity
  8
RACCORDO
100
AcDbPolyline
 62
253
  6
CONTINUOUS
 90
3
 70
0
 10
96.3849779193
 20
152.260337845
 10
96.4661812169
 20
152.2610146412
 10
96.5073406926
 20
152.2610992955
  0
LWPOLYLINE
  5
366
100
AcDbEntity
  8
ASSI
100
AcDbPolyline
 62
253
  6
CONTINUOUS
 90
3
 70
0
 10
96.3849779193
 20
152.260337845
 10
96.4661812169
 20
152.2610146412
 10
96.5073406926
 20
152.2610992955
  0
LINE
  5
367
100
AcDbEntity
  8
RACCORDO
100
AcDbLine
 62
253
  6
CONTINUOUS
 10
96.3849793503
 20
152.3229873932
 11
96.4661825673
 21
152.3236646619
  0
LINE
  5
368
100
AcDbEntity
  8
ASSI
100
AcDbLine
 62
253
  6
CONTINUOUS
 10
96.3849793503
 20
152.3229873932
 11
96.4661825673
 21
152.3236646619
  0
LWPOLYLINE
  5
369
100
AcDbEntity
  8
RACCORDO
100
AcDbPolyline
 62
253
  6
CONTINUOUS
 90
4
 70
0
 10
215.0034674746
 20
152.0574496046
 10
214.967347265
 20
152.057384856
 10
214.9314158018
 20
152.0571905175
 10
214.860868187
 20
152.0564178047
  0
LWPOLYLINE
  5
36A
100
AcDbEntity
  8
ASSI
100
AcDbPolyline
 62
253
  6
CONTINUOUS
 90
4
 70
0
 10
215.0034674746
 20
152.0574496046
 10
214.967347265
 20
152.057384856
 10
214.9314158018
 20
152.0571905175
 10
214.860868187
 20
152.0564178047
  0
LINE
  5
36B
100
AcDbEntity
  8
RACCORDO
100
AcDbLine
 62
253
  6
CONTINUOUS
 10
96.009248146
 20
152.2382043819
 11
95.9003067485
 21
152.2382043819
  0
LINE
  5
36C
100
AcDbEntity
  8
ASSI
100
AcDbLine
 62
253
  6
CONTINUOUS
 10
96.009248146
 20
152.2382043819
 11
95.9003067485
 21
152.2382043819
  0
LINE
  5
36D
100
AcDbEntity
  8
RACCORDO
100
AcDbLine
 62
253
  6
CONTINUOUS
 10
242.291365351
 20
152.2382043819
 11
242.4003067485
 21
152.2382043819
  0
LINE
  5
36E
100
AcDbEntity
  8
ASSI
100
AcDbLine
 62
253
  6
CONTINUOUS
 10
242.291365351
 20
152.2382043819
 11
242.4003067485
 21
152.2382043819
  0
LINE
  5
36F
100
AcDbEntity
  8
RACCORDO
100
AcDbLine
 62
253
  6
CONTINUOUS
 10
96.4661825673
 20
152.3236646619
 11
123.3375167191
 21
152.3237488405
  0
LINE
  5
370
100
AcDbEntity
  8
ASSI
100
AcDbLine
 62
253
  6
CONTINUOUS
 10
96.4661825673
 20
152.3236646619
 11
123.3375167191
 21
152.3237488405
  0
LINE
  5
371
100
AcDbEntity
  8
RACCORDO
100
AcDbLine
 62
7
  6
CONTINUOUS
 10
214.0498005937
 20
152.3796274475
 11
124.2508129032
 21
152.3796274475
  0
LINE
  5
372
100
AcDbEntity
  8
ASSI
100
AcDbLine
 62
7
  6
CONTINUOUS
 10
214.0498005937
 20
152.3796274475
 11
124.2508129032
 21
152.3796274475
  0
LINE
  5
373
100
AcDbEntity
  8
RACCORDO
100
AcDbLine
 62
253
  6
CONTINUOUS
 10
124.1983420321
 20
152.431962658
 11
214.1022714655
 21
152.431962658
  0
LINE
  5
374
100
AcDbEntity
  8
ASSI
100
AcDbLine
 62
253
  6
CONTINUOUS
 10
124.1983420321
 20
152.431962658
 11
214.1022714655
 21
152.431962658
  0
LINE
  5
375
100
AcDbEntity
  8
RACCORDO
100
AcDbLine
 62
253
  6
CONTINUOUS
 10
124.1983409923
 20
152.9581271851
 11
214.1022725046
 21
152.9581271851
  0
LINE
  5
376
100
AcDbEntity
  8
ASSI
100
AcDbLine
 62
253
  6
CONTINUOUS
 10
124.1983409923
 20
152.9581271851
 11
214.1022725046
 21
152.9581271851
  0
LINE
  5
377
100
AcDbEntity
  8
RACCORDO
100
AcDbLine
 62
253
  6
CONTINUOUS
 10
123.2971460224
 20
152.0574495916
 11
123.3332662342
 21
152.057384844
  0
LINE
  5
378
100
AcDbEntity
  8
ASSI
100
AcDbLine
 62
253
  6
CONTINUOUS
 10
123.2971460224
 20
152.0574495916
 11
123.3332662342
 21
152.057384844
  0
LINE
  5
379
100
AcDbEntity
  8
RACCORDO
100
AcDbLine
 62
253
  6
CONTINUOUS
 10
241.8344309307
 20
152.3236646629
 11
214.9630967778
 21
152.3237488405
  0
LINE
  5
37A
100
AcDbEntity
  8
ASSI
100
AcDbLine
 62
253
  6
CONTINUOUS
 10
241.8344309307
 20
152.3236646629
 11
214.9630967778
 21
152.3237488405
  0
LWPOLYLINE
  5
37B
100
AcDbEntity
  8
RACCORDO
100
AcDbPolyline
 62
253
  6
CONTINUOUS
 90
25
 70
0
 10
214.102271462
 20
152.4319626544
 10
214.1235693186
 20
152.4314748992
 10
214.1447952902
 20
152.4298667846
 10
214.1658903147
 20
152.4271450053
 10
214.1867929023
 20
152.4233204377
 10
214.2074482384
 20
152.4184052117
 10
214.2278079205
 20
152.4124109244
 10
214.2478159088
 20
152.4053546992
 10
214.2674161797
 20
152.3972569439
 10
214.2865609387
 20
152.3881357884
 10
214.3052026164
 20
152.3780124607
 10
214.323282247
 20
152.3669175432
 10
214.3407374645
 20
152.3548878939
 10
214.357514017
 20
152.3419631506
 10
214.3735724023
 20
152.3281761888
 10
214.3888752095
 20
152.3135578261
 10
214.4033794616
 20
152.2981483488
 10
214.4170439629
 20
152.2819908126
 10
214.4298348945
 20
152.2651212647
 10
214.4417253506
 20
152.247568851
 10
214.4526676133
 20
152.229397549
 10
214.4626059182
 20
152.2107017633
 10
214.4715105365
 20
152.1915518726
 10
214.4793701874
 20
152.1719895306
 10
214.4861682157
 20
152.1520714071
  0
LWPOLYLINE
  5
37C
100
AcDbEntity
  8
ASSI
100
AcDbPolyline
 62
253
  6
CONTINUOUS
 90
25
 70
0
 10
214.102271462
 20
152.4319626544
 10
214.1235693186
 20
152.4314748992
 10
214.1447952902
 20
152.4298667846
 10
214.1658903147
 20
152.4271450053
 10
214.1867929023
 20
152.4233204377
 10
214.2074482384
 20
152.4184052117
 10
214.2278079205
 20
152.4124109244
 10
214.2478159088
 20
152.4053546992
 10
214.2674161797
 20
152.3972569439
 10
214.2865609387
 20
152.3881357884
 10
214.3052026164
 20
152.3780124607
 10
214.323282247
 20
152.3669175432
 10
214.3407374645
 20
152.3548878939
 10
214.357514017
 20
152.3419631506
 10
214.3735724023
 20
152.3281761888
 10
214.3888752095
 20
152.3135578261
 10
214.4033794616
 20
152.2981483488
 10
214.4170439629
 20
152.2819908126
 10
214.4298348945
 20
152.2651212647
 10
214.4417253506
 20
152.247568851
 10
214.4526676133
 20
152.229397549
 10
214.4626059182
 20
152.2107017633
 10
214.4715105365
 20
152.1915518726
 10
214.4793701874
 20
152.1719895306
 10
214.4861682157
 20
152.1520714071
  0
LWPOLYLINE
  5
37D
100
AcDbEntity
  8
RACCORDO
100
AcDbPolyline
 62
253
  6
CONTINUOUS
 90
25
 70
0
 10
214.1022725046
 20
152.9581271851
 10
214.1502439239
 20
152.9568240812
 10
214.1977929141
 20
152.9530367499
 10
214.2449194751
 20
152.9467651832
 10
214.2917443993
 20
152.9379784266
 10
214.3381468944
 20
152.9267074024
 10
214.3837645832
 20
152.9130449103
 10
214.4285937221
 20
152.8969748161
 10
214.4726380548
 20
152.8785131932
 10
214.5155464346
 20
152.8578011494
 10
214.5573248693
 20
152.8348105703
 10
214.5979673511
 20
152.8095694868
 10
214.6371047094
 20
152.782303225
 10
214.6747108435
 20
152.7530023536
 10
214.7108118541
 20
152.7216762082
 10
214.7451168727
 20
152.6885782718
 10
214.7776114972
 20
152.6536985497
 10
214.8083101297
 20
152.6170469378
 10
214.8369651082
 20
152.5789067675
 10
214.8635822546
 20
152.5392102922
 10
214.888155747
 20
152.4980251645
 10
214.9104204582
 20
152.4558378364
 10
214.9302880126
 20
152.4128104442
 10
214.9478467858
 20
152.36878079
 10
214.9630967778
 20
152.3237488405
  0
LWPOLYLINE
  5
37E
100
AcDbEntity
  8
ASSI
100
AcDbPolyline
 62
253
  6
CONTINUOUS
 90
25
 70
0
 10
214.1022725046
 20
152.9581271851
 10
214.1502439239
 20
152.9568240812
 10
214.1977929141
 20
152.9530367499
 10
214.2449194751
 20
152.9467651832
 10
214.2917443993
 20
152.9379784266
 10
214.3381468944
 20
152.9267074024
 10
214.3837645832
 20
152.9130449103
 10
214.4285937221
 20
152.8969748161
 10
214.4726380548
 20
152.8785131932
 10
214.5155464346
 20
152.8578011494
 10
214.5573248693
 20
152.8348105703
 10
214.5979673511
 20
152.8095694868
 10
214.6371047094
 20
152.782303225
 10
214.6747108435
 20
152.7530023536
 10
214.7108118541
 20
152.7216762082
 10
214.7451168727
 20
152.6885782718
 10
214.7776114972
 20
152.6536985497
 10
214.8083101297
 20
152.6170469378
 10
214.8369651082
 20
152.5789067675
 10
214.8635822546
 20
152.5392102922
 10
214.888155747
 20
152.4980251645
 10
214.9104204582
 20
152.4558378364
 10
214.9302880126
 20
152.4128104442
 10
214.9478467858
 20
152.36878079
 10
214.9630967778
 20
152.3237488405
  0
LWPOLYLINE
  5
37F
100
AcDbEntity
  8
0
100
AcDbPolyline
 62
7
  6
CONTINUOUS
 90
3
 70
0
 43
0.3500000006
 10
254.4017997437
 20
89.2510601807
 10
253.5446436768
 20
90.1081981201
 10
256.5446445923
 20
90.1081981201
  0
LWPOLYLINE
  5
380
100
AcDbEntity
  8
0
100
AcDbPolyline
 62
7
  6
CONTINUOUS
 90
3
 70
0
 43
0.3500000006
 10
254.4017997437
 20
90.9653451233
 10
253.5446436768
 20
91.8224830627
 10
256.5446445923
 20
91.8224830627
  0
LWPOLYLINE
  5
381
100
AcDbEntity
  8
0
100
AcDbPolyline
 62
7
  6
CONTINUOUS
 90
10
 70
0
 43
0.3500000006
 10
253.5446436768
 20
93.7510524902
 10
254.1874971313
 20
93.1081990356
 10
255.0446531982
 20
92.6796300659
 10
256.1160756226
 20
92.6796300659
 10
256.5446445923
 20
93.1081990356
 10
256.5446445923
 20
93.7510524902
 10
256.1160756226
 20
94.1796305237
 10
255.2589376831
 20
94.1796305237
 10
254.8303687134
 20
93.7510524902
 10
254.8303687134
 20
92.8224833679
  0
LWPOLYLINE
  5
382
100
AcDbEntity
  8
RACCORDO
100
AcDbPolyline
 62
253
  6
CONTINUOUS
 90
7
 70
0
 10
214.4861682157
 20
152.1520714071
 10
214.4916287128
 20
152.1328775323
 10
214.4961192663
 20
152.1134189874
 10
214.4996266767
 20
152.0937440275
 10
214.5021401525
 20
152.0739016028
 10
214.5036513493
 20
152.0539412391
 10
214.504154403
 20
152.033912915
  0
LWPOLYLINE
  5
383
100
AcDbEntity
  8
ASSI
100
AcDbPolyline
 62
253
  6
CONTINUOUS
 90
7
 70
0
 10
214.4861682157
 20
152.1520714071
 10
214.4916287128
 20
152.1328775323
 10
214.4961192663
 20
152.1134189874
 10
214.4996266767
 20
152.0937440275
 10
214.5021401525
 20
152.0739016028
 10
214.5036513493
 20
152.0539412391
 10
214.504154403
 20
152.033912915
  0
LWPOLYLINE
  5
384
100
AcDbEntity
  8
RACCORDO
100
AcDbPolyline
 62
253
  6
CONTINUOUS
 90
7
 70
0
 10
214.9630967778
 20
152.3237488405
 10
214.975360441
 20
152.2804816382
 10
214.9854100187
 20
152.2367680426
 10
214.9932455109
 20
152.1926080477
 10
214.9988669176
 20
152.1480016472
 10
215.0022742388
 20
152.102948835
 10
215.0034674746
 20
152.0574496047
  0
LWPOLYLINE
  5
385
100
AcDbEntity
  8
ASSI
100
AcDbPolyline
 62
253
  6
CONTINUOUS
 90
7
 70
0
 10
214.9630967778
 20
152.3237488405
 10
214.975360441
 20
152.2804816382
 10
214.9854100187
 20
152.2367680426
 10
214.9932455109
 20
152.1926080477
 10
214.9988669176
 20
152.1480016472
 10
215.0022742388
 20
152.102948835
 10
215.0034674746
 20
152.0574496047
  0
LWPOLYLINE
  5
386
100
AcDbEntity
  8
RACCORDO
100
AcDbPolyline
 62
253
  6
CONTINUOUS
 90
22
 70
0
 10
214.9630967778
 20
36.0355060545
 10
214.9453899511
 20
35.983927875
 10
214.9247230346
 20
35.9337782382
 10
214.9010960283
 20
35.8850570893
 10
214.8743808071
 20
35.8375544671
 10
214.8447054961
 20
35.7914802322
 10
214.8124544712
 20
35.7474640403
 10
214.7776254559
 20
35.7055814365
 10
214.7402207267
 20
35.6657567316
 10
214.7006314888
 20
35.6283926976
 10
214.6588270765
 20
35.5935053695
 10
214.6148381553
 20
35.5610785652
 10
214.5691479272
 20
35.5314667153
 10
214.5217370263
 20
35.5047009517
 10
214.4726248183
 20
35.4807500086
 10
214.4223526024
 20
35.459874714
 10
214.3709218941
 20
35.4421102379
 10
214.3183311779
 20
35.4274213088
 10
214.2651172056
 20
35.4159630979
 10
214.2114588946
 20
35.4077873097
 10
214.1571773276
 20
35.402842185
 10
214.1022725046
 20
35.4011277099
  0
LWPOLYLINE
  5
387
100
AcDbEntity
  8
ASSI
100
AcDbPolyline
 62
253
  6
CONTINUOUS
 90
22
 70
0
 10
214.9630967778
 20
36.0355060545
 10
214.9453899511
 20
35.983927875
 10
214.9247230346
 20
35.9337782382
 10
214.9010960283
 20
35.8850570893
 10
214.8743808071
 20
35.8375544671
 10
214.8447054961
 20
35.7914802322
 10
214.8124544712
 20
35.7474640403
 10
214.7776254559
 20
35.7055814365
 10
214.7402207267
 20
35.6657567316
 10
214.7006314888
 20
35.6283926976
 10
214.6588270765
 20
35.5935053695
 10
214.6148381553
 20
35.5610785652
 10
214.5691479272
 20
35.5314667153
 10
214.5217370263
 20
35.5047009517
 10
214.4726248183
 20
35.4807500086
 10
214.4223526024
 20
35.459874714
 10
214.3709218941
 20
35.4421102379
 10
214.3183311779
 20
35.4274213088
 10
214.2651172056
 20
35.4159630979
 10
214.2114588946
 20
35.4077873097
 10
214.1571773276
 20
35.402842185
 10
214.1022725046
 20
35.4011277099
  0
LWPOLYLINE
  5
388
100
AcDbEntity
  8
RACCORDO
100
AcDbPolyline
 62
253
  6
CONTINUOUS
 90
22
 70
0
 10
214.4861682157
 20
36.2071834878
 10
214.4783024681
 20
36.184423082
 10
214.4690570221
 20
36.1621541137
 10
214.4584605314
 20
36.1404599372
 10
214.4465386322
 20
36.1194098793
 10
214.4333367153
 20
36.0990972465
 10
214.4189274526
 20
36.0796341155
 10
214.4033791123
 20
36.0611057738
 10
214.3867390385
 20
36.0435618353
 10
214.3690593009
 20
36.0270530745
 10
214.3503995996
 20
36.0116367859
 10
214.3308318647
 20
35.9973736903
 10
214.3104298698
 20
35.9843154959
 10
214.2892676175
 20
35.9725101127
 10
214.2674223939
 20
35.9620010691
 10
214.2449773005
 20
35.952826127
 10
214.2220200741
 20
35.9450205835
 10
214.1986285385
 20
35.9386103131
 10
214.1748730096
 20
35.9336140039
 10
214.1508343155
 20
35.9300515524
 10
214.126604386
 20
35.9279407509
 10
214.1022712457
 20
35.9272922412
  0
LWPOLYLINE
  5
389
100
AcDbEntity
  8
ASSI
100
AcDbPolyline
 62
253
  6
CONTINUOUS
 90
22
 70
0
 10
214.4861682157
 20
36.2071834878
 10
214.4783024681
 20
36.184423082
 10
214.4690570221
 20
36.1621541137
 10
214.4584605314
 20
36.1404599372
 10
214.4465386322
 20
36.1194098793
 10
214.4333367153
 20
36.0990972465
 10
214.4189274526
 20
36.0796341155
 10
214.4033791123
 20
36.0611057738
 10
214.3867390385
 20
36.0435618353
 10
214.3690593009
 20
36.0270530745
 10
214.3503995996
 20
36.0116367859
 10
214.3308318647
 20
35.9973736903
 10
214.3104298698
 20
35.9843154959
 10
214.2892676175
 20
35.9725101127
 10
214.2674223939
 20
35.9620010691
 10
214.2449773005
 20
35.952826127
 10
214.2220200741
 20
35.9450205835
 10
214.1986285385
 20
35.9386103131
 10
214.1748730096
 20
35.9336140039
 10
214.1508343155
 20
35.9300515524
 10
214.126604386
 20
35.9279407509
 10
214.1022712457
 20
35.9272922412
  0
LWPOLYLINE
  5
38A
100
AcDbEntity
  8
0
100
AcDbPolyline
 62
7
  6
CONTINUOUS
 90
3
 70
0
 43
0.3500000006
 10
264.401784668
 20
91.0724873657
 10
263.5446467285
 20
91.9296253052
 10
266.544647644
 20
91.9296253052
  0
LWPOLYLINE
  5
38B
100
AcDbEntity
  8
0
100
AcDbPolyline
 62
7
  6
CONTINUOUS
 90
10
 70
0
 43
0.3500000006
 10
263.5446467285
 20
93.8581947327
 10
264.1875001831
 20
93.2153412781
 10
265.04465625
 20
92.7867723083
 10
266.1160786743
 20
92.7867723083
 10
266.544647644
 20
93.2153412781
 10
266.544647644
 20
93.8581947327
 10
266.1160786743
 20
94.2867727661
 10
265.2589407349
 20
94.2867727661
 10
264.8303536377
 20
93.8581947327
 10
264.8303536377
 20
92.9296256104
  0
LINE
  5
38C
100
AcDbEntity
  8
RACCORDO
100
AcDbLine
 62
253
  6
CONTINUOUS
 10
241.4974334499
 20
175.5596388011
 11
241.4974334499
 21
175.1474911174
  0
LINE
  5
38D
100
AcDbEntity
  8
ASSI
100
AcDbLine
 62
253
  6
CONTINUOUS
 10
241.4974334499
 20
175.5596388011
 11
241.4974334499
 21
175.1474911174
  0
LINE
  5
38E
100
AcDbEntity
  8
RACCORDO
100
AcDbLine
 62
253
  6
CONTINUOUS
 10
241.4974334499
 20
12.7996160939
 11
241.4974334499
 21
13.2117637775
  0
LINE
  5
38F
100
AcDbEntity
  8
ASSI
100
AcDbLine
 62
253
  6
CONTINUOUS
 10
241.4974334499
 20
12.7996160939
 11
241.4974334499
 21
13.2117637775
  0
LINE
  5
390
100
AcDbEntity
  8
RACCORDO
100
AcDbLine
 62
253
  6
CONTINUOUS
 10
242.2898258725
 20
174.770273787
 11
242.2911687843
 21
31.041795659
  0
LINE
  5
391
100
AcDbEntity
  8
ASSI
100
AcDbLine
 62
253
  6
CONTINUOUS
 10
242.2898258725
 20
174.770273787
 11
242.2911687843
 21
31.041795659
  0
LINE
  5
392
100
AcDbEntity
  8
RACCORDO
100
AcDbLine
 62
7
  6
CONTINUOUS
 10
242.4003067485
 20
13.4796274475
 11
242.4003067485
 21
36.121050513
  0
LINE
  5
393
100
AcDbEntity
  8
DRAFT
100
AcDbLine
 62
7
  6
CONTINUOUS
 10
242.4003067485
 20
36.121050513
 11
242.4003067485
 21
152.2382043819
  0
LINE
  5
394
100
AcDbEntity
  8
RACCORDO
100
AcDbLine
 62
7
  6
CONTINUOUS
 10
242.4003067485
 20
152.2382043819
 11
242.4003067485
 21
174.8796274475
  0
LINE
  5
395
100
AcDbEntity
  8
ASSI
100
AcDbLine
 62
7
  6
CONTINUOUS
 10
242.4003067485
 20
13.4796274475
 11
242.4003067485
 21
174.8796274475
  0
LINE
  5
396
100
AcDbEntity
  8
RACCORDO
100
AcDbLine
 62
253
  6
CONTINUOUS
 10
241.7917857983
 20
174.8478431278
 11
241.7917857983
 21
13.5114117671
  0
LINE
  5
397
100
AcDbEntity
  8
ASSI
100
AcDbLine
 62
253
  6
CONTINUOUS
 10
241.7917857983
 20
174.8478431278
 11
241.7917857983
 21
13.5114117671
  0
LINE
  5
398
100
AcDbEntity
  8
RACCORDO
100
AcDbLine
 62
253
  6
CONTINUOUS
 10
242.2911687843
 20
31.041795659
 11
242.2898258725
 21
13.588981108
  0
LINE
  5
399
100
AcDbEntity
  8
ASSI
100
AcDbLine
 62
253
  6
CONTINUOUS
 10
242.2911687843
 20
31.041795659
 11
242.2898258725
 21
13.588981108
  0
LINE
  5
39A
100
AcDbEntity
  8
RACCORDO
100
AcDbLine
 62
253
  6
CONTINUOUS
 10
96.8031800471
 20
175.1474911174
 11
241.4974334499
 21
175.1474911174
  0
LINE
  5
39B
100
AcDbEntity
  8
ASSI
100
AcDbLine
 62
253
  6
CONTINUOUS
 10
96.8031800471
 20
175.1474911174
 11
241.4974334499
 21
175.1474911174
  0
LINE
  5
39C
100
AcDbEntity
  8
RACCORDO
100
AcDbLine
 62
253
  6
CONTINUOUS
 10
96.8031800471
 20
175.5596388011
 11
241.4974334499
 21
175.5596388011
  0
LINE
  5
39D
100
AcDbEntity
  8
ASSI
100
AcDbLine
 62
253
  6
CONTINUOUS
 10
96.8031800471
 20
175.5596388011
 11
241.4974334499
 21
175.5596388011
  0
LINE
  5
39E
100
AcDbEntity
  8
RACCORDO
100
AcDbLine
 62
7
  6
CONTINUOUS
 10
241.6003067485
 20
175.6796274475
 11
96.7003067485
 21
175.6796274475
  0
LINE
  5
39F
100
AcDbEntity
  8
ASSI
100
AcDbLine
 62
7
  6
CONTINUOUS
 10
241.6003067485
 20
175.6796274475
 11
96.7003067485
 21
175.6796274475
  0
LWPOLYLINE
  5
3A0
100
AcDbEntity
  8
RACCORDO
100
AcDbPolyline
 62
253
  6
CONTINUOUS
 90
18
 70
0
 10
242.2913653509
 20
152.2382043819
 10
242.2860830421
 20
152.2402544325
 10
242.2774555725
 20
152.2422756639
 10
242.2655415048
 20
152.244254356
 10
242.2504217107
 20
152.2461770777
 10
242.2321988225
 20
152.2480307777
 10
242.2109965357
 20
152.2498028731
 10
242.18695877
 20
152.2514813352
 10
242.160248692
 20
152.2530547706
 10
242.1310476078
 20
152.254512499
 10
242.0995537323
 20
152.2558446254
 10
242.0659808437
 20
152.2570421074
 10
242.0305568324
 20
152.2580968166
 10
241.993522154
 20
152.2590015938
 10
241.9551281972
 20
152.2597502973
 10
241.9156355776
 20
152.260337845
 10
241.8753123682
 20
152.2607602487
 10
241.7932728043
 20
152.2610992955
  0
LWPOLYLINE
  5
3A1
100
AcDbEntity
  8
ASSI
100
AcDbPolyline
 62
253
  6
CONTINUOUS
 90
18
 70
0
 10
242.2913653509
 20
152.2382043819
 10
242.2860830421
 20
152.2402544325
 10
242.2774555725
 20
152.2422756639
 10
242.2655415048
 20
152.244254356
 10
242.2504217107
 20
152.2461770777
 10
242.2321988225
 20
152.2480307777
 10
242.2109965357
 20
152.2498028731
 10
242.18695877
 20
152.2514813352
 10
242.160248692
 20
152.2530547706
 10
242.1310476078
 20
152.254512499
 10
242.0995537323
 20
152.2558446254
 10
242.0659808437
 20
152.2570421074
 10
242.0305568324
 20
152.2580968166
 10
241.993522154
 20
152.2590015938
 10
241.9551281972
 20
152.2597502973
 10
241.9156355776
 20
152.260337845
 10
241.8753123682
 20
152.2607602487
 10
241.7932728043
 20
152.2610992955
  0
LWPOLYLINE
  5
3A2
100
AcDbEntity
  8
RACCORDO
100
AcDbPolyline
 62
253
  6
CONTINUOUS
 90
17
 70
0
 10
242.2913639778
 20
152.3007990548
 10
242.2860816156
 20
152.3028546993
 10
242.2774541001
 20
152.3048813865
 10
242.265539994
 20
152.3068653596
 10
242.2504201695
 20
152.3087931515
 10
242.2321972584
 20
152.3106516765
 10
242.2109949565
 20
152.312428319
 10
242.1869571832
 20
152.3141110194
 10
242.1602471047
 20
152.3156883557
 10
242.131046027
 20
152.317149621
 10
242.0995521643
 20
152.3184848964
 10
242.0659792944
 20
152.3196851181
 10
242.0305553071
 20
152.3207421391
 10
241.9935206574
 20
152.3216487846
 10
241.9551267334
 20
152.3223989001
 10
241.9156341497
 20
152.3229873941
 10
241.8344309307
 20
152.3236646629
  0
LWPOLYLINE
  5
3A3
100
AcDbEntity
  8
ASSI
100
AcDbPolyline
 62
253
  6
CONTINUOUS
 90
17
 70
0
 10
242.2913639778
 20
152.3007990548
 10
242.2860816156
 20
152.3028546993
 10
242.2774541001
 20
152.3048813865
 10
242.265539994
 20
152.3068653596
 10
242.2504201695
 20
152.3087931515
 10
242.2321972584
 20
152.3106516765
 10
242.2109949565
 20
152.312428319
 10
242.1869571832
 20
152.3141110194
 10
242.1602471047
 20
152.3156883557
 10
242.131046027
 20
152.317149621
 10
242.0995521643
 20
152.3184848964
 10
242.0659792944
 20
152.3196851181
 10
242.0305553071
 20
152.3207421391
 10
241.9935206574
 20
152.3216487846
 10
241.9551267334
 20
152.3223989001
 10
241.9156341497
 20
152.3229873941
 10
241.8344309307
 20
152.3236646629
  0
LWPOLYLINE
  5
3A4
100
AcDbEntity
  8
RACCORDO
100
AcDbPolyline
 62
7
  6
CONTINUOUS
 90
13
 70
0
 10
214.3467146181
 20
152.2482684359
 10
214.3271454851
 20
152.2683287297
 10
214.3064507878
 20
152.2868285562
 10
214.284630526
 20
152.3037679388
 10
214.2615791744
 20
152.3192100371
 10
214.2374022584
 20
152.3330917319
 10
214.2124163542
 20
152.3452236278
 10
214.1865916067
 20
152.3555894106
 10
214.159957871
 20
152.3642054269
 10
214.1329212878
 20
152.3709312714
 10
214.1056172373
 20
152.3757201489
 10
214.0779103393
 20
152.3786188728
 10
214.0498005937
 20
152.3796274475
  0
LWPOLYLINE
  5
3A5
100
AcDbEntity
  8
ASSI
100
AcDbPolyline
 62
7
  6
CONTINUOUS
 90
13
 70
0
 10
214.3467146181
 20
152.2482684359
 10
214.3271454851
 20
152.2683287297
 10
214.3064507878
 20
152.2868285562
 10
214.284630526
 20
152.3037679388
 10
214.2615791744
 20
152.3192100371
 10
214.2374022584
 20
152.3330917319
 10
214.2124163542
 20
152.3452236278
 10
214.1865916067
 20
152.3555894106
 10
214.159957871
 20
152.3642054269
 10
214.1329212878
 20
152.3709312714
 10
214.1056172373
 20
152.3757201489
 10
214.0779103393
 20
152.3786188728
 10
214.0498005937
 20
152.3796274475
  0
LWPOLYLINE
  5
3A6
100
AcDbEntity
  8
RACCORDO
100
AcDbPolyline
 62
253
  6
CONTINUOUS
 90
28
 70
0
 10
241.7917857983
 20
13.5114117671
 10
241.7912756142
 20
13.4937504852
 10
241.7897899034
 20
13.4762819162
 10
241.7873286658
 20
13.459006051
 10
241.7838780272
 20
13.4418678596
 10
241.7794518619
 20
13.4249223555
 10
241.7740917926
 20
13.408334586
 10
241.7677867767
 20
13.3921047116
 10
241.760547857
 20
13.3762325392
 10
241.7524497837
 20
13.3608825707
 10
241.7434851705
 20
13.3460637035
 10
241.7336614038
 20
13.3317669958
 10
241.7230753936
 20
13.3181301798
 10
241.7117187124
 20
13.3051586678
 10
241.6995997878
 20
13.2928469979
 10
241.6868408127
 20
13.2813165837
 10
241.6734365743
 20
13.2705761901
 10
241.6593922853
 20
13.260617003
 10
241.6448457766
 20
13.2515340621
 10
241.6297921912
 20
13.2433358297
 10
241.614236386
 20
13.2360138008
 10
241.5983307631
 20
13.2296375631
 10
241.5820676862
 20
13.2242160944
 10
241.5654547914
 20
13.2197403854
 10
241.5486673894
 20
13.2162530454
 10
241.5317639169
 20
13.2137682719
 10
241.514685937
 20
13.2122718507
 10
241.4974334499
 20
13.2117637775
  0
LWPOLYLINE
  5
3A7
100
AcDbEntity
  8
ASSI
100
AcDbPolyline
 62
253
  6
CONTINUOUS
 90
28
 70
0
 10
241.7917857983
 20
13.5114117671
 10
241.7912756142
 20
13.4937504852
 10
241.7897899034
 20
13.4762819162
 10
241.7873286658
 20
13.459006051
 10
241.7838780272
 20
13.4418678596
 10
241.7794518619
 20
13.4249223555
 10
241.7740917926
 20
13.408334586
 10
241.7677867767
 20
13.3921047116
 10
241.760547857
 20
13.3762325392
 10
241.7524497837
 20
13.3608825707
 10
241.7434851705
 20
13.3460637035
 10
241.7336614038
 20
13.3317669958
 10
241.7230753936
 20
13.3181301798
 10
241.7117187124
 20
13.3051586678
 10
241.6995997878
 20
13.2928469979
 10
241.6868408127
 20
13.2813165837
 10
241.6734365743
 20
13.2705761901
 10
241.6593922853
 20
13.260617003
 10
241.6448457766
 20
13.2515340621
 10
241.6297921912
 20
13.2433358297
 10
241.614236386
 20
13.2360138008
 10
241.5983307631
 20
13.2296375631
 10
241.5820676862
 20
13.2242160944
 10
241.5654547914
 20
13.2197403854
 10
241.5486673894
 20
13.2162530454
 10
241.5317639169
 20
13.2137682719
 10
241.514685937
 20
13.2122718507
 10
241.4974334499
 20
13.2117637775
  0
LWPOLYLINE
  5
3A8
100
AcDbEntity
  8
RACCORDO
100
AcDbPolyline
 62
253
  6
CONTINUOUS
 90
28
 70
0
 10
242.2898258726
 20
13.5889811079
 10
242.2878511759
 20
13.5427550145
 10
242.2832372091
 20
13.4967696339
 10
242.2760068406
 20
13.4511751916
 10
242.2661963605
 20
13.4061342771
 10
242.2538423559
 20
13.3617782033
 10
242.2389728861
 20
13.3182089719
 10
242.2216261534
 20
13.275546589
 10
242.2018663282
 20
13.233955163
 10
242.179769122
 20
13.1935986923
 10
242.155416853
 20
13.1546171693
 10
242.1288882852
 20
13.1171263281
 10
242.1002681847
 20
13.0812452296
 10
242.0696521841
 20
13.0470891669
 10
242.0371438816
 20
13.0147688452
 10
242.0028484945
 20
12.9843886286
 10
241.9668810512
 20
12.9560473584
 10
241.9293603679
 20
12.9298350488
 10
241.890404386
 20
12.9058339079
 10
241.8501390964
 20
12.884120853
 10
241.8086993047
 20
12.8647672824
 10
241.7662218711
 20
12.8478366496
 10
241.7228508553
 20
12.8333851374
 10
241.6787243021
 20
12.8214570771
 10
241.6339737044
 20
12.812088139
 10
241.5887407941
 20
12.8053099478
 10
241.5431777225
 20
12.801147475
 10
241.4974334499
 20
12.7996160939
  0
LWPOLYLINE
  5
3A9
100
AcDbEntity
  8
ASSI
100
AcDbPolyline
 62
253
  6
CONTINUOUS
 90
28
 70
0
 10
242.2898258726
 20
13.5889811079
 10
242.2878511759
 20
13.5427550145
 10
242.2832372091
 20
13.4967696339
 10
242.2760068406
 20
13.4511751916
 10
242.2661963605
 20
13.4061342771
 10
242.2538423559
 20
13.3617782033
 10
242.2389728861
 20
13.3182089719
 10
242.2216261534
 20
13.275546589
 10
242.2018663282
 20
13.233955163
 10
242.179769122
 20
13.1935986923
 10
242.155416853
 20
13.1546171693
 10
242.1288882852
 20
13.1171263281
 10
242.1002681847
 20
13.0812452296
 10
242.0696521841
 20
13.0470891669
 10
242.0371438816
 20
13.0147688452
 10
242.0028484945
 20
12.9843886286
 10
241.9668810512
 20
12.9560473584
 10
241.9293603679
 20
12.9298350488
 10
241.890404386
 20
12.9058339079
 10
241.8501390964
 20
12.884120853
 10
241.8086993047
 20
12.8647672824
 10
241.7662218711
 20
12.8478366496
 10
241.7228508553
 20
12.8333851374
 10
241.6787243021
 20
12.8214570771
 10
241.6339737044
 20
12.812088139
 10
241.5887407941
 20
12.8053099478
 10
241.5431777225
 20
12.801147475
 10
241.4974334499
 20
12.7996160939
  0
LWPOLYLINE
  5
3AA
100
AcDbEntity
  8
RACCORDO
100
AcDbPolyline
 62
7
  6
CONTINUOUS
 90
13
 70
0
 10
214.3467146181
 20
36.1109864591
 10
214.3626997069
 20
36.1297509191
 10
214.3774066447
 20
36.1492944648
 10
214.3908354315
 20
36.1696171014
 10
214.4030242867
 20
36.1907926447
 10
214.4139349908
 20
36.2127472899
 10
214.4234528862
 20
36.23525961
 10
214.4315684651
 20
36.2583496323
 10
214.4382912352
 20
36.2819973379
 10
214.4435350621
 20
36.3059212264
 10
214.4472712344
 20
36.330027465
 10
214.4495284635
 20
36.3544098904
 10
214.4503067493
 20
36.3790685047
  0
LWPOLYLINE
  5
3AB
100
AcDbEntity
  8
ASSI
100
AcDbPolyline
 62
7
  6
CONTINUOUS
 90
13
 70
0
 10
214.3467146181
 20
36.1109864591
 10
214.3626997069
 20
36.1297509191
 10
214.3774066447
 20
36.1492944648
 10
214.3908354315
 20
36.1696171014
 10
214.4030242867
 20
36.1907926447
 10
214.4139349908
 20
36.2127472899
 10
214.4234528862
 20
36.23525961
 10
214.4315684651
 20
36.2583496323
 10
214.4382912352
 20
36.2819973379
 10
214.4435350621
 20
36.3059212264
 10
214.4472712344
 20
36.330027465
 10
214.4495284635
 20
36.3544098904
 10
214.4503067493
 20
36.3790685047
  0
LWPOLYLINE
  5
3AC
100
AcDbEntity
  8
RACCORDO
100
AcDbPolyline
 62
253
  6
CONTINUOUS
 90
28
 70
0
 10
241.4974334499
 20
175.1474911174
 10
241.5146952611
 20
175.1469799234
 10
241.5317741738
 20
175.1454833251
 10
241.548670188
 20
175.1430013182
 10
241.5654359829
 20
175.1395212234
 10
241.5820188792
 20
175.1350557034
 10
241.5982608397
 20
175.1296427633
 10
241.6141631494
 20
175.123271146
 10
241.6297245232
 20
175.1159520769
 10
241.6447830677
 20
175.1077572833
 10
241.6593302522
 20
175.0986793243
 10
241.6733746074
 20
175.0887255979
 10
241.6867798322
 20
175.0779900901
 10
241.699541331
 20
175.0664637758
 10
241.7116636995
 20
175.054155631
 10
241.723024423
 20
175.0411866471
 10
241.7336153215
 20
175.0275507144
 10
241.7434445751
 20
175.0132538931
 10
241.7524142101
 20
174.9984354383
 10
241.7605158309
 20
174.9830899334
 10
241.7677578329
 20
174.9672227507
 10
241.7740674294
 20
174.9509893404
 10
241.7794356586
 20
174.9343809605
 10
241.7838714823
 20
174.9174063191
 10
241.7873289982
 20
174.9002470572
 10
241.7897929059
 20
174.8829637198
 10
241.7912785059
 20
174.8654957463
 10
241.7917857983
 20
174.8478431278
  0
LWPOLYLINE
  5
3AD
100
AcDbEntity
  8
ASSI
100
AcDbPolyline
 62
253
  6
CONTINUOUS
 90
28
 70
0
 10
241.4974334499
 20
175.1474911174
 10
241.5146952611
 20
175.1469799234
 10
241.5317741738
 20
175.1454833251
 10
241.548670188
 20
175.1430013182
 10
241.5654359829
 20
175.1395212234
 10
241.5820188792
 20
175.1350557034
 10
241.5982608397
 20
175.1296427633
 10
241.6141631494
 20
175.123271146
 10
241.6297245232
 20
175.1159520769
 10
241.6447830677
 20
175.1077572833
 10
241.6593302522
 20
175.0986793243
 10
241.6733746074
 20
175.0887255979
 10
241.6867798322
 20
175.0779900901
 10
241.699541331
 20
175.0664637758
 10
241.7116636995
 20
175.054155631
 10
241.723024423
 20
175.0411866471
 10
241.7336153215
 20
175.0275507144
 10
241.7434445751
 20
175.0132538931
 10
241.7524142101
 20
174.9984354383
 10
241.7605158309
 20
174.9830899334
 10
241.7677578329
 20
174.9672227507
 10
241.7740674294
 20
174.9509893404
 10
241.7794356586
 20
174.9343809605
 10
241.7838714823
 20
174.9174063191
 10
241.7873289982
 20
174.9002470572
 10
241.7897929059
 20
174.8829637198
 10
241.7912785059
 20
174.8654957463
 10
241.7917857983
 20
174.8478431278
  0
LWPOLYLINE
  5
3AE
100
AcDbEntity
  8
RACCORDO
100
AcDbPolyline
 62
253
  6
CONTINUOUS
 90
28
 70
0
 10
241.4974334499
 20
175.5596388011
 10
241.5431896957
 20
175.5581066267
 10
241.5887453414
 20
175.5539443636
 10
241.6339517848
 20
175.5471706961
 10
241.6786434395
 20
175.5378172434
 10
241.7226942723
 20
175.5259169862
 10
241.7660154971
 20
175.5114936107
 10
241.8084898066
 20
175.494578067
 10
241.8499492876
 20
175.4752293467
 10
241.8902322016
 20
175.4535203076
 10
241.9291957884
 20
175.4295279045
 10
241.9667227439
 20
175.4033250948
 10
242.0026969459
 20
175.3749929988
 10
242.0370000664
 20
175.3446211399
 10
242.0695165064
 20
175.3123087485
 10
242.1001410652
 20
175.2781601149
 10
242.128770511
 20
175.2422853795
 10
242.155308723
 20
175.20480031
 10
242.1796699308
 20
175.1658256384
 10
242.2017715751
 20
175.1254852068
 10
242.2215365738
 20
175.0839116026
 10
242.2388982281
 20
175.0412455363
 10
242.2537952166
 20
174.9976286001
 10
242.2661765485
 20
174.9532002282
 10
242.2760024826
 20
174.9081027713
 10
242.2832375824
 20
174.862482466
 10
242.2878519564
 20
174.8164892636
 10
242.2898258726
 20
174.7702737871
  0
LWPOLYLINE
  5
3AF
100
AcDbEntity
  8
ASSI
100
AcDbPolyline
 62
253
  6
CONTINUOUS
 90
28
 70
0
 10
241.4974334499
 20
175.5596388011
 10
241.5431896957
 20
175.5581066267
 10
241.5887453414
 20
175.5539443636
 10
241.6339517848
 20
175.5471706961
 10
241.6786434395
 20
175.5378172434
 10
241.7226942723
 20
175.5259169862
 10
241.7660154971
 20
175.5114936107
 10
241.8084898066
 20
175.494578067
 10
241.8499492876
 20
175.4752293467
 10
241.8902322016
 20
175.4535203076
 10
241.9291957884
 20
175.4295279045
 10
241.9667227439
 20
175.4033250948
 10
242.0026969459
 20
175.3749929988
 10
242.0370000664
 20
175.3446211399
 10
242.0695165064
 20
175.3123087485
 10
242.1001410652
 20
175.2781601149
 10
242.128770511
 20
175.2422853795
 10
242.155308723
 20
175.20480031
 10
242.1796699308
 20
175.1658256384
 10
242.2017715751
 20
175.1254852068
 10
242.2215365738
 20
175.0839116026
 10
242.2388982281
 20
175.0412455363
 10
242.2537952166
 20
174.9976286001
 10
242.2661765485
 20
174.9532002282
 10
242.2760024826
 20
174.9081027713
 10
242.2832375824
 20
174.862482466
 10
242.2878519564
 20
174.8164892636
 10
242.2898258726
 20
174.7702737871
  0
LWPOLYLINE
  5
3B0
100
AcDbEntity
  8
0
100
AcDbPolyline
 62
7
  6
CONTINUOUS
 90
5
 70
0
 43
0.3500000006
 10
264.8303536377
 20
96.0010577087
 10
264.6160691528
 20
96.3581954956
 10
263.9732156982
 20
96.3581954956
 10
263.5446467285
 20
96.0010577087
 10
263.5446467285
 20
95.1439107056
  0
LWPOLYLINE
  5
3B1
100
AcDbEntity
  8
0
100
AcDbPolyline
 62
7
  6
CONTINUOUS
 90
3
 70
0
 43
0.3500000006
 10
255.9017911377
 20
98.2510538635
 10
255.9017911377
 20
96.7510534058
 10
253.5446436768
 20
97.3939159241
  0
LWPOLYLINE
  5
3B2
100
AcDbEntity
  8
RACCORDO
100
AcDbPolyline
 62
253
  6
CONTINUOUS
 90
16
 70
0
 10
242.2913639768
 20
36.0584558402
 10
242.2860816136
 20
36.0564001957
 10
242.2774540972
 20
36.0543735085
 10
242.2655399904
 20
36.0523895354
 10
242.2504201653
 20
36.0504617436
 10
242.2321972538
 20
36.0486032187
 10
242.2109949516
 20
36.0468265762
 10
242.1869571781
 20
36.0451438759
 10
242.1602470996
 20
36.0435665396
 10
242.131046022
 20
36.0421052744
 10
242.0995521596
 20
36.0407699991
 10
242.06597929
 20
36.0395697774
 10
242.0305553032
 20
36.0385127564
 10
241.993520654
 20
36.037606111
 10
241.9551267305
 20
36.0368559955
 10
241.9156341475
 20
36.0362675015
  0
LWPOLYLINE
  5
3B3
100
AcDbEntity
  8
ASSI
100
AcDbPolyline
 62
253
  6
CONTINUOUS
 90
16
 70
0
 10
242.2913639768
 20
36.0584558402
 10
242.2860816136
 20
36.0564001957
 10
242.2774540972
 20
36.0543735085
 10
242.2655399904
 20
36.0523895354
 10
242.2504201653
 20
36.0504617436
 10
242.2321972538
 20
36.0486032187
 10
242.2109949516
 20
36.0468265762
 10
242.1869571781
 20
36.0451438759
 10
242.1602470996
 20
36.0435665396
 10
242.131046022
 20
36.0421052744
 10
242.0995521596
 20
36.0407699991
 10
242.06597929
 20
36.0395697774
 10
242.0305553032
 20
36.0385127564
 10
241.993520654
 20
36.037606111
 10
241.9551267305
 20
36.0368559955
 10
241.9156341475
 20
36.0362675015
  0
LWPOLYLINE
  5
3B4
100
AcDbEntity
  8
RACCORDO
100
AcDbPolyline
 62
253
  6
CONTINUOUS
 90
16
 70
0
 10
242.291365351
 20
36.121050513
 10
242.2860830422
 20
36.1190004624
 10
242.2774555727
 20
36.1169792311
 10
242.265541505
 20
36.1150005389
 10
242.250421711
 20
36.1130778172
 10
242.2321988227
 20
36.1112241172
 10
242.210996536
 20
36.1094520218
 10
242.1869587703
 20
36.1077735597
 10
242.1602486923
 20
36.1062001243
 10
242.1310476081
 20
36.104742396
 10
242.0995537326
 20
36.1034102696
 10
242.065980844
 20
36.1022127876
 10
242.0305568326
 20
36.1011580783
 10
241.9935221541
 20
36.1002533012
 10
241.9551281973
 20
36.0995045977
 10
241.9156355777
 20
36.0989170499
  0
LWPOLYLINE
  5
3B5
100
AcDbEntity
  8
ASSI
100
AcDbPolyline
 62
253
  6
CONTINUOUS
 90
16
 70
0
 10
242.291365351
 20
36.121050513
 10
242.2860830422
 20
36.1190004624
 10
242.2774555727
 20
36.1169792311
 10
242.265541505
 20
36.1150005389
 10
242.250421711
 20
36.1130778172
 10
242.2321988227
 20
36.1112241172
 10
242.210996536
 20
36.1094520218
 10
242.1869587703
 20
36.1077735597
 10
242.1602486923
 20
36.1062001243
 10
242.1310476081
 20
36.104742396
 10
242.0995537326
 20
36.1034102696
 10
242.065980844
 20
36.1022127876
 10
242.0305568326
 20
36.1011580783
 10
241.9935221541
 20
36.1002533012
 10
241.9551281973
 20
36.0995045977
 10
241.9156355777
 20
36.0989170499
  0
LWPOLYLINE
  5
3B6
100
AcDbEntity
  8
0
100
AcDbPolyline
 62
7
  6
CONTINUOUS
 90
6
 70
0
 43
0.3500000006
 10
266.544647644
 20
95.1439107056
 10
266.544647644
 20
96.2153421936
 10
266.3303631592
 20
96.4296266785
 10
265.2589407349
 20
96.4296266785
 10
264.8303536377
 20
96.0010577087
 10
264.8303536377
 20
95.572488739
  0
LWPOLYLINE
  5
3B7
100
AcDbEntity
  8
0
100
AcDbPolyline
 62
7
  6
CONTINUOUS
 90
8
 70
0
 43
0.3500000006
 10
172.1503108521
 20
202.5366381226
 10
173.0074487915
 20
202.5366381226
 10
173.4360177612
 20
202.9652070923
 10
173.4360177612
 20
203.8223450317
 10
173.0074487915
 20
204.2509140015
 10
172.1503108521
 20
204.2509140015
 10
172.1503108521
 20
205.5366390381
 10
173.4360177612
 20
205.5366390381
  0
LWPOLYLINE
  5
3B8
100
AcDbEntity
  8
0
100
AcDbPolyline
 62
7
  6
CONTINUOUS
 90
3
 70
0
 43
0.3500000006
 10
167.2217314453
 20
203.1794915771
 10
165.7217400513
 20
203.1794915771
 10
166.3645935059
 20
205.5366390381
  0
LWPOLYLINE
  5
3B9
100
AcDbEntity
  8
RACCORDO
100
AcDbPolyline
 62
253
  6
CONTINUOUS
 90
19
 70
0
 10
242.2898258701
 20
174.770273795
 10
242.2845004106
 20
174.7772242386
 10
242.2758358202
 20
174.7840761941
 10
242.2638908189
 20
174.7907832256
 10
242.2487463582
 20
174.7972998797
 10
242.2305050722
 20
174.8035819928
 10
242.2092905821
 20
174.809586991
 10
242.1852466588
 20
174.8152741785
 10
242.1585362481
 20
174.820605013
 10
242.1293403667
 20
174.8255433676
 10
242.0978568754
 20
174.8300557748
 10
242.0642991379
 20
174.8341116542
 10
242.0288945753
 20
174.837683519
 10
241.9918831247
 20
174.8407471626
 10
241.9535156129
 20
174.8432818227
 10
241.9140520569
 20
174.8452703218
 10
241.8737599014
 20
174.846699184
 10
241.8329122069
 20
174.8475587257
 10
241.7917857983
 20
174.8478431219
  0
LWPOLYLINE
  5
3BA
100
AcDbEntity
  8
ASSI
100
AcDbPolyline
 62
253
  6
CONTINUOUS
 90
19
 70
0
 10
242.2898258701
 20
174.770273795
 10
242.2845004106
 20
174.7772242386
 10
242.2758358202
 20
174.7840761941
 10
242.2638908189
 20
174.7907832256
 10
242.2487463582
 20
174.7972998797
 10
242.2305050722
 20
174.8035819928
 10
242.2092905821
 20
174.809586991
 10
242.1852466588
 20
174.8152741785
 10
242.1585362481
 20
174.820605013
 10
242.1293403667
 20
174.8255433676
 10
242.0978568754
 20
174.8300557748
 10
242.0642991379
 20
174.8341116542
 10
242.0288945753
 20
174.837683519
 10
241.9918831247
 20
174.8407471626
 10
241.9535156129
 20
174.8432818227
 10
241.9140520569
 20
174.8452703218
 10
241.8737599014
 20
174.846699184
 10
241.8329122069
 20
174.8475587257
 10
241.7917857983
 20
174.8478431219
  0
LWPOLYLINE
  5
3BB
100
AcDbEntity
  8
RACCORDO
100
AcDbPolyline
 62
253
  6
CONTINUOUS
 90
19
 70
0
 10
242.2898215372
 20
13.5889811659
 10
242.2844961509
 20
13.5820307086
 10
242.2758316645
 20
13.5751787407
 10
242.2638867969
 20
13.568471698
 10
242.2487424982
 20
13.5619550341
 10
242.2305014007
 20
13.5556729123
 10
242.2092871238
 20
13.5496679067
 10
242.1852434362
 20
13.5439807131
 10
242.1585332811
 20
13.5386498736
 10
242.1293376724
 20
13.5337115153
 10
242.097854468
 20
13.5291991054
 10
242.0642970285
 20
13.5251432244
 10
242.0288927718
 20
13.5215713591
 10
241.9918816314
 20
13.5185077158
 10
241.9535144307
 20
13.5159730569
 10
241.9140511832
 20
13.5139845597
 10
241.8737593299
 20
13.5125557001
 10
241.8329119278
 20
13.5116961615
 10
241.7917857983
 20
13.5114117688
  0
LWPOLYLINE
  5
3BC
100
AcDbEntity
  8
ASSI
100
AcDbPolyline
 62
253
  6
CONTINUOUS
 90
19
 70
0
 10
242.2898215372
 20
13.5889811659
 10
242.2844961509
 20
13.5820307086
 10
242.2758316645
 20
13.5751787407
 10
242.2638867969
 20
13.568471698
 10
242.2487424982
 20
13.5619550341
 10
242.2305014007
 20
13.5556729123
 10
242.2092871238
 20
13.5496679067
 10
242.1852434362
 20
13.5439807131
 10
242.1585332811
 20
13.5386498736
 10
242.1293376724
 20
13.5337115153
 10
242.097854468
 20
13.5291991054
 10
242.0642970285
 20
13.5251432244
 10
242.0288927718
 20
13.5215713591
 10
241.9918816314
 20
13.5185077158
 10
241.9535144307
 20
13.5159730569
 10
241.9140511832
 20
13.5139845597
 10
241.8737593299
 20
13.5125557001
 10
241.8329119278
 20
13.5116961615
 10
241.7917857983
 20
13.5114117688
  0
LINE
  5
3BD
100
AcDbEntity
  8
RACCORDO
100
AcDbLine
 62
253
  6
CONTINUOUS
 10
54.9243890998
 20
13.5889811659
 11
54.4752657318
 21
13.5114117688
  0
LINE
  5
3BE
100
AcDbEntity
  8
ASSI
100
AcDbLine
 62
253
  6
CONTINUOUS
 10
54.9243890998
 20
13.5889811659
 11
54.4752657318
 21
13.5114117688
  0
LWPOLYLINE
  5
3BF
100
AcDbEntity
  8
RACCORDO
100
AcDbPolyline
 62
253
  6
CONTINUOUS
 90
13
 70
0
 10
57.4407017702
 20
13.9687836171
 10
57.6232906317
 20
13.9979277806
 10
57.8063163428
 20
14.0317766532
 10
57.9897492122
 20
14.0703403811
 10
58.1730189368
 20
14.113255153
 10
58.356621402
 20
14.1609046952
 10
58.5421160404
 20
14.2144238699
 10
58.7299177461
 20
14.2737763654
 10
58.9194737921
 20
14.3390268401
 10
59.1109010416
 20
14.4114683098
 10
59.3042010051
 20
14.4915451384
 10
59.4992262356
 20
14.5788496006
 10
59.6958774824
 20
14.6733999878
  0
LINE
  5
3C0
100
AcDbEntity
  8
RACCORDO
100
AcDbLine
 62
253
  6
CONTINUOUS
 10
57.3222609145
 20
14.6607145533
 11
59.6958774824
 21
14.6733999878
  0
LINE
  5
3C1
100
AcDbEntity
  8
RACCORDO
100
AcDbLine
 62
7
  6
CONTINUOUS
 10
56.3477591486
 20
12.6796274475
 11
57.1605502395
 21
12.6796274475
  0
LINE
  5
3C2
100
AcDbEntity
  8
ASSI
100
AcDbLine
 62
7
  6
CONTINUOUS
 10
56.3477591486
 20
12.6796274475
 11
57.1605502395
 21
12.6796274475
  0
LINE
  5
3C3
100
AcDbEntity
  8
RACCORDO
100
AcDbLine
 62
253
  6
CONTINUOUS
 10
56.2062837554
 20
13.4796274475
 11
57.0184119216
 21
13.4796274475
  0
LINE
  5
3C4
100
AcDbEntity
  8
ASSI
100
AcDbLine
 62
253
  6
CONTINUOUS
 10
56.2062837554
 20
13.4796274475
 11
57.0184119216
 21
13.4796274475
  0
LINE
  5
3C5
100
AcDbEntity
  8
RACCORDO
100
AcDbLine
 62
7
  6
CONTINUOUS
 10
54.9762826444
 20
12.7996160939
 11
56.3461207162
 21
12.6797707917
  0
LINE
  5
3C6
100
AcDbEntity
  8
ASSI
100
AcDbLine
 62
7
  6
CONTINUOUS
 10
54.9762826444
 20
12.7996160939
 11
56.3461207162
 21
12.6797707917
  0
LINE
  5
3C7
100
AcDbEntity
  8
RACCORDO
100
AcDbLine
 62
253
  6
CONTINUOUS
 10
54.9243887193
 20
13.588981108
 11
56.206727302
 21
13.4767469866
  0
LINE
  5
3C8
100
AcDbEntity
  8
ASSI
100
AcDbLine
 62
253
  6
CONTINUOUS
 10
54.9243887193
 20
13.588981108
 11
56.206727302
 21
13.4767469866
  0
LINE
  5
3C9
100
AcDbEntity
  8
0
100
AcDbLine
 62
7
  6
CONTINUOUS
 10
57.4735517794
 20
13.7796274475
 11
56.958216259
 21
13.8247134634
  0
LINE
  5
3CA
100
AcDbEntity
  8
0
100
AcDbLine
 62
253
  6
CONTINUOUS
 10
57.3027774058
 20
14.7760742461
 11
56.7881766592
 21
14.8211181511
  0
LWPOLYLINE
  5
3CB
100
AcDbEntity
  8
0
100
AcDbPolyline
 62
7
  6
CONTINUOUS
 90
5
 70
0
 43
0.3500000006
 10
57.8820986938
 20
194.2509109497
 10
58.2392410126
 20
194.4651954346
 10
58.2392410126
 20
195.1080670166
 10
57.8820986938
 20
195.5366359863
 10
57.0249562225
 20
195.5366359863
  0
LWPOLYLINE
  5
3CC
100
AcDbEntity
  8
0
100
AcDbPolyline
 62
7
  6
CONTINUOUS
 90
10
 70
0
 43
0.3500000006
 10
53.3820973206
 20
192.5366350708
 10
54.2392397919
 20
193.3937730103
 10
54.4535242767
 20
194.2509109497
 10
54.4535242767
 20
195.1080670166
 10
54.024955307
 20
195.5366359863
 10
53.3820973206
 20
195.5366359863
 10
52.9535283508
 20
195.1080670166
 10
52.9535283508
 20
194.2509109497
 10
53.3820973206
 20
193.82234198
 10
54.3106709747
 20
193.82234198
  0
LWPOLYLINE
  5
3CD
100
AcDbEntity
  8
RACCORDO
100
AcDbPolyline
 62
253
  6
CONTINUOUS
 90
19
 70
0
 10
54.9762826444
 20
175.5596388011
 10
54.9738303794
 20
175.5581066267
 10
54.9713512695
 20
175.5539443636
 10
54.9688564829
 20
175.5471706961
 10
54.9663581489
 20
175.5378172434
 10
54.9638636112
 20
175.5259169862
 10
54.9613765582
 20
175.5114936107
 10
54.9589021295
 20
175.494578067
 10
54.9564518901
 20
175.4752293467
 10
54.9540382906
 20
175.4535203076
 10
54.9516641114
 20
175.4295279045
 10
54.9493358623
 20
175.4033250948
 10
54.9470697002
 20
175.3749929988
 10
54.944865206
 20
175.3446211399
 10
54.942726439
 20
175.3123087485
 10
54.9406749326
 20
175.2781601149
 10
54.9387079233
 20
175.2422853795
 10
54.9368255856
 20
175.20480031
 10
54.9333822045
 20
175.1254852068
  0
LWPOLYLINE
  5
3CE
100
AcDbEntity
  8
ASSI
100
AcDbPolyline
 62
253
  6
CONTINUOUS
 90
19
 70
0
 10
54.9762826444
 20
175.5596388011
 10
54.9738303794
 20
175.5581066267
 10
54.9713512695
 20
175.5539443636
 10
54.9688564829
 20
175.5471706961
 10
54.9663581489
 20
175.5378172434
 10
54.9638636112
 20
175.5259169862
 10
54.9613765582
 20
175.5114936107
 10
54.9589021295
 20
175.494578067
 10
54.9564518901
 20
175.4752293467
 10
54.9540382906
 20
175.4535203076
 10
54.9516641114
 20
175.4295279045
 10
54.9493358623
 20
175.4033250948
 10
54.9470697002
 20
175.3749929988
 10
54.944865206
 20
175.3446211399
 10
54.942726439
 20
175.3123087485
 10
54.9406749326
 20
175.2781601149
 10
54.9387079233
 20
175.2422853795
 10
54.9368255856
 20
175.20480031
 10
54.9333822045
 20
175.1254852068
  0
LINE
  5
3CF
100
AcDbEntity
  8
RACCORDO
100
AcDbLine
 62
253
  6
CONTINUOUS
 10
52.4265034759
 20
36.0584558402
 11
51.9707143688
 21
36.0355060551
  0
LINE
  5
3D0
100
AcDbEntity
  8
ASSI
100
AcDbLine
 62
253
  6
CONTINUOUS
 10
52.4265034759
 20
36.0584558402
 11
51.9707143688
 21
36.0355060551
  0
LINE
  5
3D1
100
AcDbEntity
  8
RACCORDO
100
AcDbLine
 62
253
  6
CONTINUOUS
 10
52.4233548093
 20
36.121050513
 11
51.9675621917
 21
36.0981555994
  0
LINE
  5
3D2
100
AcDbEntity
  8
ASSI
100
AcDbLine
 62
253
  6
CONTINUOUS
 10
52.4233548093
 20
36.121050513
 11
51.9675621917
 21
36.0981555994
  0
LINE
  5
3D3
100
AcDbEntity
  8
0
100
AcDbLine
 62
253
  6
CONTINUOUS
 10
54.9669137532
 20
36.1864668637
 11
60.720714355
 21
36.3002292081
  0
LINE
  5
3D4
100
AcDbEntity
  8
RACCORDO
100
AcDbLine
 62
253
  6
CONTINUOUS
 10
52.4233548093
 20
36.121050513
 11
53.6685606807
 21
36.121050513
  0
LINE
  5
3D5
100
AcDbEntity
  8
ASSI
100
AcDbLine
 62
253
  6
CONTINUOUS
 10
52.4233548093
 20
36.121050513
 11
53.6685606807
 21
36.121050513
  0
LINE
  5
3D6
100
AcDbEntity
  8
0
100
AcDbLine
 62
253
  6
CONTINUOUS
 10
54.4662802261
 20
36.1864668637
 11
54.9669137532
 21
36.1864668637
  0
LINE
  5
3D7
100
AcDbEntity
  8
RACCORDO
100
AcDbLine
 62
7
  6
CONTINUOUS
 10
60.720714355
 20
38.3269734861
 11
58.8859847194
 21
38.6504858231
  0
LINE
  5
3D8
100
AcDbEntity
  8
RACCORDO
100
AcDbLine
 62
7
  6
CONTINUOUS
 10
58.8859847194
 20
45.7087690718
 11
60.720714355
 21
46.0322814089
  0
LINE
  5
3D9
100
AcDbEntity
  8
0
100
AcDbLine
 62
253
  6
CONTINUOUS
 10
54.4006240921
 20
58.6796274475
 11
60.720714355
 21
58.7550711386
  0
LINE
  5
3DA
100
AcDbEntity
  8
RACCORDO
100
AcDbLine
 62
253
  6
CONTINUOUS
 10
51.4006240921
 20
58.6796274475
 11
53.1006240921
 21
58.6796274475
  0
LINE
  5
3DB
100
AcDbEntity
  8
ASSI
100
AcDbLine
 62
253
  6
CONTINUOUS
 10
51.4006240921
 20
58.6796274475
 11
53.1006240921
 21
58.6796274475
  0
LINE
  5
3DC
100
AcDbEntity
  8
0
100
AcDbLine
 62
253
  6
CONTINUOUS
 10
53.9006240921
 20
58.6796274475
 11
54.4006240921
 21
58.6796274475
  0
LWPOLYLINE
  5
3DD
100
AcDbEntity
  8
RACCORDO
100
AcDbPolyline
 62
253
  6
CONTINUOUS
 90
22
 70
0
 10
59.6958770121
 20
14.6733999602
 10
59.7160650676
 20
14.6274113437
 10
59.7345772293
 20
14.5815202019
 10
59.7513367295
 20
14.5359168399
 10
59.7662740685
 20
14.4907903697
 10
59.7793273028
 20
14.4463279253
 10
59.7904423025
 20
14.4027138863
 10
59.7995729748
 20
14.3601291151
 10
59.8066814556
 20
14.3187502059
 10
59.8117382667
 20
14.2787487519
 10
59.8147224379
 20
14.2402906345
 10
59.815621594
 20
14.2035353355
 10
59.8144320058
 20
14.1686352748
 10
59.811158606
 20
14.1357351794
 10
59.8058149689
 20
14.1049714826
 10
59.7984232535
 20
14.0764717583
 10
59.789014112
 20
14.0503541921
 10
59.7776265629
 20
14.0267270911
 10
59.7643078286
 20
14.0056884348
 10
59.7491131403
 20
13.9873254688
 10
59.7321055085
 20
13.9717143425
 10
59.7133554615
 20
13.9589197942
  0
LWPOLYLINE
  5
3DE
100
AcDbEntity
  8
0
100
AcDbPolyline
 62
7
  6
CONTINUOUS
 90
3
 70
0
 43
0.3500000006
 10
56.0249559174
 20
192.8223416748
 10
55.9535247345
 20
192.6080571899
 10
55.8106714325
 20
192.3223505859
  0
LWPOLYLINE
  5
3DF
100
AcDbEntity
  8
RACCORDO
100
AcDbPolyline
 62
253
  6
CONTINUOUS
 90
10
 70
0
 10
54.9243887193
 20
174.770273787
 10
54.5129566669
 20
172.2906712873
 10
54.1349588575
 20
169.8057582028
 10
53.7903956677
 20
167.3159908598
 10
53.4792178908
 20
164.8218326586
 10
53.2014754851
 20
162.3237326674
 10
52.9573175817
 20
159.8221255147
 10
52.7467941491
 20
157.317460004
 10
52.5698559861
 20
154.8101992213
 10
52.4265034758
 20
152.3007990548
  0
LWPOLYLINE
  5
3E0
100
AcDbEntity
  8
ASSI
100
AcDbPolyline
 62
253
  6
CONTINUOUS
 90
10
 70
0
 10
54.9243887193
 20
174.770273787
 10
54.5129566669
 20
172.2906712873
 10
54.1349588575
 20
169.8057582028
 10
53.7903956677
 20
167.3159908598
 10
53.4792178908
 20
164.8218326586
 10
53.2014754851
 20
162.3237326674
 10
52.9573175817
 20
159.8221255147
 10
52.7467941491
 20
157.317460004
 10
52.5698559861
 20
154.8101992213
 10
52.4265034758
 20
152.3007990548
  0
LWPOLYLINE
  5
3E1
100
AcDbEntity
  8
RACCORDO
100
AcDbPolyline
 62
7
  6
CONTINUOUS
 90
10
 70
0
 10
56.2062837554
 20
13.4796274475
 10
55.7876230099
 20
15.9772553098
 10
55.403066407
 20
18.4799921767
 10
55.0526139467
 20
20.9878380483
 10
54.7361739809
 20
23.5015763269
 10
54.4538381577
 20
26.0204236101
 10
54.2058814217
 20
28.542029691
 10
53.9923954209
 20
31.0656111673
 10
53.8132885072
 20
33.5919514413
 10
53.6685606807
 20
36.121050513
  0
LWPOLYLINE
  5
3E2
100
AcDbEntity
  8
ASSI
100
AcDbPolyline
 62
7
  6
CONTINUOUS
 90
10
 70
0
 10
56.2062837554
 20
13.4796274475
 10
55.7876230099
 20
15.9772553098
 10
55.403066407
 20
18.4799921767
 10
55.0526139467
 20
20.9878380483
 10
54.7361739809
 20
23.5015763269
 10
54.4538381577
 20
26.0204236101
 10
54.2058814217
 20
28.542029691
 10
53.9923954209
 20
31.0656111673
 10
53.8132885072
 20
33.5919514413
 10
53.6685606807
 20
36.121050513
  0
LWPOLYLINE
  5
3E3
100
AcDbEntity
  8
RACCORDO
100
AcDbPolyline
 62
7
  6
CONTINUOUS
 90
17
 70
0
 10
56.2455721547
 20
13.0831695669
 10
56.249762121
 20
13.0387741411
 10
56.254039123
 20
12.9962496301
 10
56.2583876179
 20
12.9557600728
 10
56.2629384338
 20
12.9175030568
 10
56.2676962977
 20
12.8816328079
 10
56.2726564826
 20
12.8483074851
 10
56.2779356359
 20
12.8177017785
 10
56.2835247202
 20
12.7899322289
 10
56.2894327728
 20
12.765105412
 10
56.2958035536
 20
12.7433405594
 10
56.3026076615
 20
12.7246982295
 10
56.3098744975
 20
12.7092371627
 10
56.3178360248
 20
12.6970192069
 10
56.3265695641
 20
12.6880514612
 10
56.3359977946
 20
12.6823107191
 10
56.3461207162
 20
12.6797707917
  0
LWPOLYLINE
  5
3E4
100
AcDbEntity
  8
ASSI
100
AcDbPolyline
 62
7
  6
CONTINUOUS
 90
17
 70
0
 10
56.2455721547
 20
13.0831695669
 10
56.249762121
 20
13.0387741411
 10
56.254039123
 20
12.9962496301
 10
56.2583876179
 20
12.9557600728
 10
56.2629384338
 20
12.9175030568
 10
56.2676962977
 20
12.8816328079
 10
56.2726564826
 20
12.8483074851
 10
56.2779356359
 20
12.8177017785
 10
56.2835247202
 20
12.7899322289
 10
56.2894327728
 20
12.765105412
 10
56.2958035536
 20
12.7433405594
 10
56.3026076615
 20
12.7246982295
 10
56.3098744975
 20
12.7092371627
 10
56.3178360248
 20
12.6970192069
 10
56.3265695641
 20
12.6880514612
 10
56.3359977946
 20
12.6823107191
 10
56.3461207162
 20
12.6797707917
  0
LINE
  5
3E5
100
AcDbEntity
  8
RACCORDO
100
AcDbLine
 62
7
  6
CONTINUOUS
 10
56.2285700274
 20
13.2746482998
 11
56.2455721547
 21
13.0831695669
  0
LINE
  5
3E6
100
AcDbEntity
  8
ASSI
100
AcDbLine
 62
7
  6
CONTINUOUS
 10
56.2285700274
 20
13.2746482998
 11
56.2455721547
 21
13.0831695669
  0
LWPOLYLINE
  5
3E7
100
AcDbEntity
  8
RACCORDO
100
AcDbPolyline
 62
253
  6
CONTINUOUS
 90
10
 70
0
 10
52.4265034758
 20
36.0584558402
 10
52.5698559562
 20
33.5490561375
 10
52.7467940971
 20
31.041795659
 10
52.9573175155
 20
28.5371302931
 10
53.2014754132
 20
26.0355230692
 10
53.4792178209
 20
23.5374228487
 10
53.7903956063
 20
21.0432644317
 10
54.1349588103
 20
18.5534969432
 10
54.5129566402
 20
16.0685837265
 10
54.9243887193
 20
13.588981108
  0
LWPOLYLINE
  5
3E8
100
AcDbEntity
  8
ASSI
100
AcDbPolyline
 62
253
  6
CONTINUOUS
 90
10
 70
0
 10
52.4265034758
 20
36.0584558402
 10
52.5698559562
 20
33.5490561375
 10
52.7467940971
 20
31.041795659
 10
52.9573175155
 20
28.5371302931
 10
53.2014754132
 20
26.0355230692
 10
53.4792178209
 20
23.5374228487
 10
53.7903956063
 20
21.0432644317
 10
54.1349588103
 20
18.5534969432
 10
54.5129566402
 20
16.0685837265
 10
54.9243887193
 20
13.588981108
  0
LWPOLYLINE
  5
3E9
100
AcDbEntity
  8
RACCORDO
100
AcDbPolyline
 62
253
  6
CONTINUOUS
 90
12
 70
0
 10
52.3326567234
 20
150.3535535431
 10
52.249890799
 20
148.46967581
 10
52.1750569333
 20
146.5866051677
 10
52.1081683199
 20
144.7043866866
 10
52.0492115588
 20
142.8230429062
 10
51.9981466608
 20
140.9425738203
 10
51.9549733753
 20
139.0630128355
 10
51.9196917539
 20
137.1843934097
 10
51.8922622667
 20
135.3067154171
 10
51.8726716742
 20
133.4300008656
 10
51.8609330242
 20
131.5542939055
 10
51.8570462208
 20
129.6796274475
  0
LWPOLYLINE
  5
3EA
100
AcDbEntity
  8
ASSI
100
AcDbPolyline
 62
253
  6
CONTINUOUS
 90
12
 70
0
 10
52.3326567234
 20
150.3535535431
 10
52.249890799
 20
148.46967581
 10
52.1750569333
 20
146.5866051677
 10
52.1081683199
 20
144.7043866866
 10
52.0492115588
 20
142.8230429062
 10
51.9981466608
 20
140.9425738203
 10
51.9549733753
 20
139.0630128355
 10
51.9196917539
 20
137.1843934097
 10
51.8922622667
 20
135.3067154171
 10
51.8726716742
 20
133.4300008656
 10
51.8609330242
 20
131.5542939055
 10
51.8570462208
 20
129.6796274475
  0
LINE
  5
3EB
100
AcDbEntity
  8
RACCORDO
100
AcDbLine
 62
253
  6
CONTINUOUS
 10
52.4265034758
 20
152.3007990548
 11
52.3326567234
 21
150.3535535431
  0
LINE
  5
3EC
100
AcDbEntity
  8
ASSI
100
AcDbLine
 62
253
  6
CONTINUOUS
 10
52.4265034758
 20
152.3007990548
 11
52.3326567234
 21
150.3535535431
  0
LWPOLYLINE
  5
3ED
100
AcDbEntity
  8
RACCORDO
100
AcDbPolyline
 62
7
  6
CONTINUOUS
 90
5
 70
0
 10
56.2285703505
 20
175.0846101243
 10
56.2237429276
 20
175.0342369496
 10
56.218357864
 20
174.9831127467
 10
56.2125280578
 20
174.9315042894
 10
56.2062535091
 20
174.8796274475
  0
LWPOLYLINE
  5
3EE
100
AcDbEntity
  8
ASSI
100
AcDbPolyline
 62
7
  6
CONTINUOUS
 90
5
 70
0
 10
56.2285703505
 20
175.0846101243
 10
56.2237429276
 20
175.0342369496
 10
56.218357864
 20
174.9831127467
 10
56.2125280578
 20
174.9315042894
 10
56.2062535091
 20
174.8796274475
  0
LINE
  5
3EF
100
AcDbEntity
  8
0
100
AcDbLine
 62
253
  6
CONTINUOUS
 10
60.720714355
 20
94.1796274475
 11
54.4006240921
 21
94.1796274475
  0
LWPOLYLINE
  5
3F0
100
AcDbEntity
  8
RACCORDO
100
AcDbPolyline
 62
7
  6
CONTINUOUS
 90
5
 70
0
 10
56.2062535091
 20
13.4796274475
 10
56.2125279773
 20
13.4277513644
 10
56.2183577072
 20
13.3761436949
 10
56.2237426989
 20
13.325020298
 10
56.2285700274
 20
13.2746482998
  0
LWPOLYLINE
  5
3F1
100
AcDbEntity
  8
ASSI
100
AcDbPolyline
 62
7
  6
CONTINUOUS
 90
5
 70
0
 10
56.2062535091
 20
13.4796274475
 10
56.2125279773
 20
13.4277513644
 10
56.2183577072
 20
13.3761436949
 10
56.2237426989
 20
13.325020298
 10
56.2285700274
 20
13.2746482998
  0
LWPOLYLINE
  5
3F2
100
AcDbEntity
  8
RACCORDO
100
AcDbPolyline
 62
253
  6
CONTINUOUS
 90
18
 70
0
 10
54.9368172862
 20
13.1546171693
 10
54.9386988905
 20
13.1171263281
 10
54.9406652966
 20
13.0812452296
 10
54.9427164437
 20
13.0470891669
 10
54.944855
 20
13.0147688452
 10
54.9470593589
 20
12.9843886286
 10
54.9493254899
 20
12.9560473584
 10
54.9516537992
 20
12.9298350488
 10
54.9540279489
 20
12.9058339079
 10
54.9564410901
 20
12.884120853
 10
54.9588905785
 20
12.8647672824
 10
54.9613649761
 20
12.8478366496
 10
54.963854342
 20
12.8333851374
 10
54.9663531061
 20
12.8214570771
 10
54.9688551973
 20
12.812088139
 10
54.9713518836
 20
12.8053099478
 10
54.973831529
 20
12.801147475
 10
54.9762826444
 20
12.7996160939
  0
LWPOLYLINE
  5
3F3
100
AcDbEntity
  8
ASSI
100
AcDbPolyline
 62
253
  6
CONTINUOUS
 90
18
 70
0
 10
54.9368172862
 20
13.1546171693
 10
54.9386988905
 20
13.1171263281
 10
54.9406652966
 20
13.0812452296
 10
54.9427164437
 20
13.0470891669
 10
54.944855
 20
13.0147688452
 10
54.9470593589
 20
12.9843886286
 10
54.9493254899
 20
12.9560473584
 10
54.9516537992
 20
12.9298350488
 10
54.9540279489
 20
12.9058339079
 10
54.9564410901
 20
12.884120853
 10
54.9588905785
 20
12.8647672824
 10
54.9613649761
 20
12.8478366496
 10
54.963854342
 20
12.8333851374
 10
54.9663531061
 20
12.8214570771
 10
54.9688551973
 20
12.812088139
 10
54.9713518836
 20
12.8053099478
 10
54.973831529
 20
12.801147475
 10
54.9762826444
 20
12.7996160939
  0
LWPOLYLINE
  5
3F4
100
AcDbEntity
  8
DRAFT
100
AcDbPolyline
 62
7
  6
CONTINUOUS
 90
10
 70
0
 10
53.6685606807
 20
36.121050513
 10
53.5493855012
 20
38.6257943087
 10
53.4442258793
 20
41.1310675099
 10
53.3530818149
 20
43.6368701167
 10
53.2759503467
 20
46.1433197524
 10
53.212834436
 20
48.6502987936
 10
53.1637429668
 20
51.1574543707
 10
53.1286789004
 20
53.6646688605
 10
53.1076392755
 20
56.172059886
 10
53.1006240921
 20
58.6796274475
  0
LWPOLYLINE
  5
3F5
100
AcDbEntity
  8
ASSI
100
AcDbPolyline
 62
7
  6
CONTINUOUS
 90
10
 70
0
 10
53.6685606807
 20
36.121050513
 10
53.5493855012
 20
38.6257943087
 10
53.4442258793
 20
41.1310675099
 10
53.3530818149
 20
43.6368701167
 10
53.2759503467
 20
46.1433197524
 10
53.212834436
 20
48.6502987936
 10
53.1637429668
 20
51.1574543707
 10
53.1286789004
 20
53.6646688605
 10
53.1076392755
 20
56.172059886
 10
53.1006240921
 20
58.6796274475
  0
LINE
  5
3F6
100
AcDbEntity
  8
RACCORDO
100
AcDbLine
 62
253
  6
CONTINUOUS
 10
54.9333747487
 20
13.233955163
 11
54.9368172862
 21
13.1546171693
  0
LINE
  5
3F7
100
AcDbEntity
  8
ASSI
100
AcDbLine
 62
253
  6
CONTINUOUS
 10
54.9333747487
 20
13.233955163
 11
54.9368172862
 21
13.1546171693
  0
LINE
  5
3F8
100
AcDbEntity
  8
RACCORDO
100
AcDbLine
 62
253
  6
CONTINUOUS
 10
54.9303657871
 20
13.3182089719
 11
54.9333747487
 21
13.233955163
  0
LINE
  5
3F9
100
AcDbEntity
  8
ASSI
100
AcDbLine
 62
253
  6
CONTINUOUS
 10
54.9303657871
 20
13.3182089719
 11
54.9333747487
 21
13.233955163
  0
LINE
  5
3FA
100
AcDbEntity
  8
RACCORDO
100
AcDbLine
 62
253
  6
CONTINUOUS
 10
54.9278444127
 20
13.4061342771
 11
54.9303657871
 21
13.3182089719
  0
LINE
  5
3FB
100
AcDbEntity
  8
ASSI
100
AcDbLine
 62
253
  6
CONTINUOUS
 10
54.9278444127
 20
13.4061342771
 11
54.9303657871
 21
13.3182089719
  0
LINE
  5
3FC
100
AcDbEntity
  8
RACCORDO
100
AcDbLine
 62
253
  6
CONTINUOUS
 10
54.9258658597
 20
13.4967696339
 11
54.9278444127
 21
13.4061342771
  0
LINE
  5
3FD
100
AcDbEntity
  8
ASSI
100
AcDbLine
 62
253
  6
CONTINUOUS
 10
54.9258658597
 20
13.4967696339
 11
54.9278444127
 21
13.4061342771
  0
LINE
  5
3FE
100
AcDbEntity
  8
RACCORDO
100
AcDbLine
 62
253
  6
CONTINUOUS
 10
54.9243887205
 20
13.5889811079
 11
54.9258658597
 21
13.4967696339
  0
LINE
  5
3FF
100
AcDbEntity
  8
ASSI
100
AcDbLine
 62
253
  6
CONTINUOUS
 10
54.9243887205
 20
13.5889811079
 11
54.9258658597
 21
13.4967696339
  0
LWPOLYLINE
  5
400
100
AcDbEntity
  8
RACCORDO
100
AcDbPolyline
 62
253
  6
CONTINUOUS
 90
13
 70
0
 10
51.8570462208
 20
58.6796274475
 10
51.8608976314
 20
56.8094306639
 10
51.8725905289
 20
54.9373804538
 10
51.8921250865
 20
53.0635095997
 10
51.9194782392
 20
51.1878621568
 10
51.9546733982
 20
49.3104602264
 10
51.9977804547
 20
47.4313039657
 10
52.0487993898
 20
45.5504271467
 10
52.1077305764
 20
43.6678633742
 10
52.1746444998
 20
41.7836128797
 10
52.249564777
 20
39.897698626
 10
52.3324681531
 20
38.0101662928
 10
52.4265034758
 20
36.0584558402
  0
LWPOLYLINE
  5
401
100
AcDbEntity
  8
ASSI
100
AcDbPolyline
 62
253
  6
CONTINUOUS
 90
13
 70
0
 10
51.8570462208
 20
58.6796274475
 10
51.8608976314
 20
56.8094306639
 10
51.8725905289
 20
54.9373804538
 10
51.8921250865
 20
53.0635095997
 10
51.9194782392
 20
51.1878621568
 10
51.9546733982
 20
49.3104602264
 10
51.9977804547
 20
47.4313039657
 10
52.0487993898
 20
45.5504271467
 10
52.1077305764
 20
43.6678633742
 10
52.1746444998
 20
41.7836128797
 10
52.249564777
 20
39.897698626
 10
52.3324681531
 20
38.0101662928
 10
52.4265034758
 20
36.0584558402
  0
LINE
  5
402
100
AcDbEntity
  8
RACCORDO
100
AcDbLine
 62
7
  6
CONTINUOUS
 10
51.4006240921
 20
129.6796228885
 11
51.4006240921
 21
58.6796319356
  0
LINE
  5
403
100
AcDbEntity
  8
ASSI
100
AcDbLine
 62
7
  6
CONTINUOUS
 10
51.4006240921
 20
129.6796228885
 11
51.4006240921
 21
58.6796319356
  0
LINE
  5
404
100
AcDbEntity
  8
RACCORDO
100
AcDbLine
 62
253
  6
CONTINUOUS
 10
51.8570462208
 20
129.6796274475
 11
51.8570462208
 21
58.6796274475
  0
LINE
  5
405
100
AcDbEntity
  8
ASSI
100
AcDbLine
 62
253
  6
CONTINUOUS
 10
51.8570462208
 20
129.6796274475
 11
51.8570462208
 21
58.6796274475
  0
LINE
  5
406
100
AcDbEntity
  8
DRAFT
100
AcDbLine
 62
7
  6
CONTINUOUS
 10
53.1006240921
 20
58.6796274475
 11
53.1006240921
 21
129.6796274475
  0
LINE
  5
407
100
AcDbEntity
  8
ASSI
100
AcDbLine
 62
7
  6
CONTINUOUS
 10
53.1006240921
 20
58.6796274475
 11
53.1006240921
 21
129.6796274475
  0
LINE
  5
408
100
AcDbEntity
  8
DRAFT
100
AcDbLine
 62
7
  6
CONTINUOUS
 10
53.9006240921
 20
129.6796274475
 11
53.9006240921
 21
58.6796274475
  0
LINE
  5
409
100
AcDbEntity
  8
ASSI
100
AcDbLine
 62
7
  6
CONTINUOUS
 10
53.9006240921
 20
129.6796274475
 11
53.9006240921
 21
58.6796274475
  0
LINE
  5
40A
100
AcDbEntity
  8
0
100
AcDbLine
 62
7
  6
CONTINUOUS
 10
54.4006240921
 20
58.6796274475
 11
54.4006240921
 21
129.6796274475
  0
LWPOLYLINE
  5
40B
100
AcDbEntity
  8
DRAFT
100
AcDbPolyline
 62
7
  6
CONTINUOUS
 90
10
 70
0
 10
53.1006240921
 20
129.6796274475
 10
53.1076795526
 20
132.1942879907
 10
53.1288380353
 20
134.7087512911
 10
53.16409954
 20
137.2230173488
 10
53.213585228
 20
139.7395405051
 10
53.2771739381
 20
142.2558664186
 10
53.3545021868
 20
144.7646320655
 10
53.4454488129
 20
147.2633831043
 10
53.5501349775
 20
149.7545738764
 10
53.6685606807
 20
152.2382043819
  0
LWPOLYLINE
  5
40C
100
AcDbEntity
  8
ASSI
100
AcDbPolyline
 62
7
  6
CONTINUOUS
 90
10
 70
0
 10
53.1006240921
 20
129.6796274475
 10
53.1076795526
 20
132.1942879907
 10
53.1288380353
 20
134.7087512911
 10
53.16409954
 20
137.2230173488
 10
53.213585228
 20
139.7395405051
 10
53.2771739381
 20
142.2558664186
 10
53.3545021868
 20
144.7646320655
 10
53.4454488129
 20
147.2633831043
 10
53.5501349775
 20
149.7545738764
 10
53.6685606807
 20
152.2382043819
  0
LINE
  5
40D
100
AcDbEntity
  8
RACCORDO
100
AcDbLine
 62
253
  6
CONTINUOUS
 10
54.9258659268
 20
174.862482466
 11
54.9243887205
 21
174.7702737871
  0
LINE
  5
40E
100
AcDbEntity
  8
ASSI
100
AcDbLine
 62
253
  6
CONTINUOUS
 10
54.9258659268
 20
174.862482466
 11
54.9243887205
 21
174.7702737871
  0
LINE
  5
40F
100
AcDbEntity
  8
RACCORDO
100
AcDbLine
 62
253
  6
CONTINUOUS
 10
54.9278458043
 20
174.9532002282
 11
54.9258659268
 21
174.862482466
  0
LINE
  5
410
100
AcDbEntity
  8
ASSI
100
AcDbLine
 62
253
  6
CONTINUOUS
 10
54.9278458043
 20
174.9532002282
 11
54.9258659268
 21
174.862482466
  0
LINE
  5
411
100
AcDbEntity
  8
RACCORDO
100
AcDbLine
 62
253
  6
CONTINUOUS
 10
54.9303716922
 20
175.0412455363
 11
54.9278458043
 21
174.9532002282
  0
LINE
  5
412
100
AcDbEntity
  8
ASSI
100
AcDbLine
 62
253
  6
CONTINUOUS
 10
54.9303716922
 20
175.0412455363
 11
54.9278458043
 21
174.9532002282
  0
LINE
  5
413
100
AcDbEntity
  8
RACCORDO
100
AcDbLine
 62
253
  6
CONTINUOUS
 10
54.9333822045
 20
175.1254852068
 11
54.9303716922
 21
175.0412455363
  0
LINE
  5
414
100
AcDbEntity
  8
ASSI
100
AcDbLine
 62
253
  6
CONTINUOUS
 10
54.9333822045
 20
175.1254852068
 11
54.9303716922
 21
175.0412455363
  0
LWPOLYLINE
  5
415
100
AcDbEntity
  8
RACCORDO
100
AcDbPolyline
 62
7
  6
CONTINUOUS
 90
10
 70
0
 10
53.6685606807
 20
152.2382043819
 10
53.8132885072
 20
154.7673034536
 10
53.9923954209
 20
157.2936437276
 10
54.2058814217
 20
159.8172252039
 10
54.4538381577
 20
162.3388312848
 10
54.7361739809
 20
164.8576785681
 10
55.0526139467
 20
167.3714168466
 10
55.403066407
 20
169.8792627182
 10
55.7876230099
 20
172.3819995852
 10
56.2062837554
 20
174.8796274475
  0
LWPOLYLINE
  5
416
100
AcDbEntity
  8
ASSI
100
AcDbPolyline
 62
7
  6
CONTINUOUS
 90
10
 70
0
 10
53.6685606807
 20
152.2382043819
 10
53.8132885072
 20
154.7673034536
 10
53.9923954209
 20
157.2936437276
 10
54.2058814217
 20
159.8172252039
 10
54.4538381577
 20
162.3388312848
 10
54.7361739809
 20
164.8576785681
 10
55.0526139467
 20
167.3714168466
 10
55.403066407
 20
169.8792627182
 10
55.7876230099
 20
172.3819995852
 10
56.2062837554
 20
174.8796274475
  0
LINE
  5
417
100
AcDbEntity
  8
RACCORDO
100
AcDbLine
 62
7
  6
CONTINUOUS
 10
58.720714355
 20
38.8474473737
 11
58.720714355
 21
45.5118075212
  0
LINE
  5
418
100
AcDbEntity
  8
RACCORDO
100
AcDbLine
 62
7
  6
CONTINUOUS
 10
58.720714355
 20
142.8474473737
 11
58.720714355
 21
149.5118075212
  0
LINE
  5
419
100
AcDbEntity
  8
RACCORDO
100
AcDbLine
 62
7
  6
CONTINUOUS
 10
60.720714355
 20
173.6796277233
 11
60.720714355
 21
152.0590256869
  0
LINE
  5
41A
100
AcDbEntity
  8
RACCORDO
100
AcDbLine
 62
7
  6
CONTINUOUS
 10
60.720714355
 20
36.3002292081
 11
60.720714355
 21
14.6796271766
  0
LINE
  5
41B
100
AcDbEntity
  8
DRAFT
100
AcDbLine
 62
7
  6
CONTINUOUS
 10
60.720714355
 20
36.3002292081
 11
60.720714355
 21
38.3269734861
  0
LINE
  5
41C
100
AcDbEntity
  8
DRAFT
100
AcDbLine
 62
7
  6
CONTINUOUS
 10
60.720714355
 20
46.0322814089
 11
60.720714355
 21
58.7550711386
  0
LINE
  5
41D
100
AcDbEntity
  8
0
100
AcDbLine
 62
7
  6
CONTINUOUS
 10
60.720714355
 20
58.7550711386
 11
60.720714355
 21
129.6041837564
  0
LINE
  5
41E
100
AcDbEntity
  8
DRAFT
100
AcDbLine
 62
7
  6
CONTINUOUS
 10
60.720714355
 20
129.6041837564
 11
60.720714355
 21
142.3269734861
  0
LINE
  5
41F
100
AcDbEntity
  8
DRAFT
100
AcDbLine
 62
7
  6
CONTINUOUS
 10
60.720714355
 20
150.0322814089
 11
60.720714355
 21
152.0590256869
  0
LINE
  5
420
100
AcDbEntity
  8
RACCORDO
100
AcDbLine
 62
253
  6
CONTINUOUS
 10
51.4006240921
 20
129.6796274475
 11
53.1006240921
 21
129.6796274475
  0
LINE
  5
421
100
AcDbEntity
  8
ASSI
100
AcDbLine
 62
253
  6
CONTINUOUS
 10
51.4006240921
 20
129.6796274475
 11
53.1006240921
 21
129.6796274475
  0
LINE
  5
422
100
AcDbEntity
  8
0
100
AcDbLine
 62
253
  6
CONTINUOUS
 10
53.9006240921
 20
129.6796274475
 11
54.4006240921
 21
129.6796274475
  0
LINE
  5
423
100
AcDbEntity
  8
0
100
AcDbLine
 62
253
  6
CONTINUOUS
 10
60.720714355
 20
129.6041837564
 11
54.4006240921
 21
129.6796274475
  0
LINE
  5
424
100
AcDbEntity
  8
RACCORDO
100
AcDbLine
 62
7
  6
CONTINUOUS
 10
60.720714355
 20
142.3269734861
 11
58.8859847194
 21
142.6504858231
  0
LWPOLYLINE
  5
425
100
AcDbEntity
  8
0
100
AcDbPolyline
 62
7
  6
CONTINUOUS
 90
10
 70
0
 43
0.3500000006
 10
55.9535247345
 20
193.0366261597
 10
56.0249559174
 20
192.8937819214
 10
56.0249559174
 20
192.8223416748
 10
55.8820980835
 20
192.6794793091
 10
55.8106714325
 20
192.6794793091
 10
55.7392402496
 20
192.7509195557
 10
55.7392402496
 20
192.8223416748
 10
55.8106714325
 20
192.9652040405
 10
55.8820980835
 20
193.0366261597
 10
55.9535247345
 20
193.0366261597
  0
LINE
  5
426
100
AcDbEntity
  8
RACCORDO
100
AcDbLine
 62
7
  6
CONTINUOUS
 10
58.8859847194
 20
149.7087690718
 11
60.720714355
 21
150.0322814089
  0
LINE
  5
427
100
AcDbEntity
  8
0
100
AcDbLine
 62
253
  6
CONTINUOUS
 10
54.4662802261
 20
152.1727880312
 11
54.9669137532
 21
152.1727880312
  0
LINE
  5
428
100
AcDbEntity
  8
RACCORDO
100
AcDbLine
 62
253
  6
CONTINUOUS
 10
52.4233548093
 20
152.2382043819
 11
53.6685606807
 21
152.2382043819
  0
LINE
  5
429
100
AcDbEntity
  8
ASSI
100
AcDbLine
 62
253
  6
CONTINUOUS
 10
52.4233548093
 20
152.2382043819
 11
53.6685606807
 21
152.2382043819
  0
LINE
  5
42A
100
AcDbEntity
  8
0
100
AcDbLine
 62
253
  6
CONTINUOUS
 10
60.720714355
 20
152.0590256869
 11
54.9669137532
 21
152.1727880312
  0
LINE
  5
42B
100
AcDbEntity
  8
RACCORDO
100
AcDbLine
 62
253
  6
CONTINUOUS
 10
52.4233548093
 20
152.2382043819
 11
51.9675621924
 21
152.2610992955
  0
LINE
  5
42C
100
AcDbEntity
  8
ASSI
100
AcDbLine
 62
253
  6
CONTINUOUS
 10
52.4233548093
 20
152.2382043819
 11
51.9675621924
 21
152.2610992955
  0
LINE
  5
42D
100
AcDbEntity
  8
RACCORDO
100
AcDbLine
 62
253
  6
CONTINUOUS
 10
52.4265034758
 20
152.3007990548
 11
51.970714355
 21
152.3237488405
  0
LINE
  5
42E
100
AcDbEntity
  8
ASSI
100
AcDbLine
 62
253
  6
CONTINUOUS
 10
52.4265034758
 20
152.3007990548
 11
51.970714355
 21
152.3237488405
  0
LWPOLYLINE
  5
42F
100
AcDbEntity
  8
RACCORDO
100
AcDbPolyline
 62
253
  6
CONTINUOUS
 90
22
 70
0
 10
59.7133555735
 20
174.4003352937
 10
59.7321055828
 20
174.3875407024
 10
59.7491131756
 20
174.3719295338
 10
59.7643078238
 20
174.353566527
 10
59.7776265175
 20
174.3325278319
 10
59.7890140262
 20
174.3089006947
 10
59.7984231277
 20
174.2827830956
 10
59.8058148042
 20
174.2542833426
 10
59.811158404
 20
174.2235196214
 10
59.8144317688
 20
174.1906195064
 10
59.8156213249
 20
174.1557194315
 10
59.8147221402
 20
174.1189641237
 10
59.8117379443
 20
174.0805060029
 10
59.8066811128
 20
174.0405045509
 10
59.7995726165
 20
173.999125649
 10
59.7904419337
 20
173.9565408897
 10
59.7793269288
 20
173.912926867
 10
59.7662736946
 20
173.8684644429
 10
59.7513363612
 20
173.8233379956
 10
59.7345768715
 20
173.7777346582
 10
59.7160647254
 20
173.7318435427
 10
59.6958766905
 20
173.6858549535
  0
LWPOLYLINE
  5
430
100
AcDbEntity
  8
RACCORDO
100
AcDbPolyline
 62
253
  6
CONTINUOUS
 90
10
 70
0
 10
59.6958774824
 20
173.6858549072
 10
59.8183386575
 20
173.6223673688
 10
59.9385561968
 20
173.5568402878
 10
60.0565578646
 20
173.489272397
 10
60.1723399056
 20
173.4197022303
 10
60.2859674973
 20
173.3480890888
 10
60.3975739703
 20
173.2743127785
 10
60.5072267647
 20
173.198332447
 10
60.6149279789
 20
173.1201868469
 10
60.7207143824
 20
173.0398751177
  0
LWPOLYLINE
  5
431
100
AcDbEntity
  8
RACCORDO
100
AcDbPolyline
 62
7
  6
CONTINUOUS
 90
18
 70
0
 10
56.3461207162
 20
175.6794841032
 10
56.3359977289
 20
175.6769441641
 10
56.3265693639
 20
175.671203292
 10
56.3178356213
 20
175.6622351684
 10
56.3098737236
 20
175.6500162374
 10
56.3026064484
 20
175.6345535955
 10
56.2958021275
 20
175.6159099431
 10
56.2894315646
 20
175.5941450874
 10
56.2835239561
 20
175.5693193533
 10
56.2779352231
 20
175.5415508903
 10
56.2726561943
 20
175.5109455281
 10
56.267696041
 20
175.4776202104
 10
56.262938198
 20
175.4417499518
 10
56.2583873978
 20
175.4034928582
 10
56.2540389081
 20
175.3630031847
 10
56.249761966
 20
175.3204791525
 10
56.2455721826
 20
175.2760856146
 10
56.2285703505
 20
175.0846101243
  0
LWPOLYLINE
  5
432
100
AcDbEntity
  8
ASSI
100
AcDbPolyline
 62
7
  6
CONTINUOUS
 90
18
 70
0
 10
56.3461207162
 20
175.6794841032
 10
56.3359977289
 20
175.6769441641
 10
56.3265693639
 20
175.671203292
 10
56.3178356213
 20
175.6622351684
 10
56.3098737236
 20
175.6500162374
 10
56.3026064484
 20
175.6345535955
 10
56.2958021275
 20
175.6159099431
 10
56.2894315646
 20
175.5941450874
 10
56.2835239561
 20
175.5693193533
 10
56.2779352231
 20
175.5415508903
 10
56.2726561943
 20
175.5109455281
 10
56.267696041
 20
175.4776202104
 10
56.262938198
 20
175.4417499518
 10
56.2583873978
 20
175.4034928582
 10
56.2540389081
 20
175.3630031847
 10
56.249761966
 20
175.3204791525
 10
56.2455721826
 20
175.2760856146
 10
56.2285703505
 20
175.0846101243
  0
LINE
  5
433
100
AcDbEntity
  8
0
100
AcDbLine
 62
253
  6
CONTINUOUS
 10
56.7881766592
 20
173.5381367438
 11
57.3027774058
 21
173.5831806488
  0
LINE
  5
434
100
AcDbEntity
  8
0
100
AcDbLine
 62
7
  6
CONTINUOUS
 10
56.958216259
 20
174.5345414315
 11
57.4735517794
 21
174.5796274475
  0
LINE
  5
435
100
AcDbEntity
  8
RACCORDO
100
AcDbLine
 62
253
  6
CONTINUOUS
 10
54.9243887193
 20
174.770273787
 11
56.206727302
 21
174.8825079083
  0
LINE
  5
436
100
AcDbEntity
  8
ASSI
100
AcDbLine
 62
253
  6
CONTINUOUS
 10
54.9243887193
 20
174.770273787
 11
56.206727302
 21
174.8825079083
  0
LINE
  5
437
100
AcDbEntity
  8
RACCORDO
100
AcDbLine
 62
7
  6
CONTINUOUS
 10
54.9762826444
 20
175.5596388011
 11
56.3461207162
 21
175.6794841032
  0
LINE
  5
438
100
AcDbEntity
  8
ASSI
100
AcDbLine
 62
7
  6
CONTINUOUS
 10
54.9762826444
 20
175.5596388011
 11
56.3461207162
 21
175.6794841032
  0
LINE
  5
439
100
AcDbEntity
  8
RACCORDO
100
AcDbLine
 62
253
  6
CONTINUOUS
 10
56.2062837554
 20
174.8796274475
 11
57.0184119216
 21
174.8796274475
  0
LINE
  5
43A
100
AcDbEntity
  8
ASSI
100
AcDbLine
 62
253
  6
CONTINUOUS
 10
56.2062837554
 20
174.8796274475
 11
57.0184119216
 21
174.8796274475
  0
LINE
  5
43B
100
AcDbEntity
  8
RACCORDO
100
AcDbLine
 62
7
  6
CONTINUOUS
 10
56.3477591486
 20
175.6796274475
 11
57.1605502395
 21
175.6796274475
  0
LINE
  5
43C
100
AcDbEntity
  8
ASSI
100
AcDbLine
 62
7
  6
CONTINUOUS
 10
56.3477591486
 20
175.6796274475
 11
57.1605502395
 21
175.6796274475
  0
LINE
  5
43D
100
AcDbEntity
  8
RACCORDO
100
AcDbLine
 62
253
  6
CONTINUOUS
 10
59.6958774824
 20
173.6858549072
 11
57.3222609145
 21
173.6985403417
  0
LWPOLYLINE
  5
43E
100
AcDbEntity
  8
RACCORDO
100
AcDbPolyline
 62
253
  6
CONTINUOUS
 90
13
 70
0
 10
57.440701772
 20
174.3904712776
 10
57.6230757499
 20
174.3613377413
 10
57.8056787485
 20
174.3275824898
 10
57.9884825798
 20
174.289195649
 10
58.1707779053
 20
174.246576385
 10
58.3532060553
 20
174.1993063235
 10
58.5377504973
 20
174.1461454888
 10
58.724784068
 20
174.0871979375
 10
58.9137910408
 20
174.0223311643
 10
59.105418741
 20
173.9499421304
 10
59.2998334869
 20
173.8694816992
 10
59.4966928996
 20
173.7814592623
 10
59.6958774824
 20
173.6858549072
  0
LINE
  5
43F
100
AcDbEntity
  8
RACCORDO
100
AcDbLine
 62
253
  6
CONTINUOUS
 10
54.9243887208
 20
174.770273795
 11
54.4752657561
 21
174.8478431219
  0
LINE
  5
440
100
AcDbEntity
  8
ASSI
100
AcDbLine
 62
253
  6
CONTINUOUS
 10
54.9243887208
 20
174.770273795
 11
54.4752657561
 21
174.8478431219
  0
LWPOLYLINE
  5
441
100
AcDbEntity
  8
RACCORDO
100
AcDbPolyline
 62
253
  6
CONTINUOUS
 90
10
 70
0
 10
59.6958774824
 20
14.6733999878
 10
59.8175454218
 20
14.7364893472
 10
59.9368220043
 20
14.8014655124
 10
60.0537367034
 20
14.8683294238
 10
60.1678204635
 20
14.9367061903
 10
60.2796119439
 20
15.0069716967
 10
60.3906349752
 20
15.0802555171
 10
60.5013987282
 20
15.1569374336
 10
60.6114200843
 20
15.2366445196
 10
60.7207143813
 20
15.3193797765
  0
LWPOLYLINE
  5
442
100
AcDbEntity
  8
0
100
AcDbPolyline
 62
7
  6
CONTINUOUS
 90
6
 70
0
 43
0.3500000006
 10
57.0249562225
 20
192.5366350708
 10
58.0963831787
 20
192.5366350708
 10
58.3106676636
 20
192.7509195557
 10
58.3106676636
 20
193.82234198
 10
57.8820986938
 20
194.2509109497
 10
57.4535251923
 20
194.2509109497
  0
ARC
  5
443
100
AcDbEntity
  8
RACCORDO
100
AcDbCircle
 62
7
  6
CONTINUOUS
 10
241.6003067485
 20
13.4796274475
 40
0.8
100
AcDbArc
 50
270.0
 51
360.0
  0
ARC
  5
444
100
AcDbEntity
  8
RACCORDO
100
AcDbCircle
 62
7
  6
CONTINUOUS
 10
241.6003067485
 20
174.8796274475
 40
0.8
100
AcDbArc
 50
0.0
 51
90.0
  0
ARC
  5
445
100
AcDbEntity
  8
RACCORDO
100
AcDbCircle
 62
7
  6
CONTINUOUS
 10
96.7003067485
 20
13.4796274475
 40
0.8
100
AcDbArc
 50
180.0
 51
270.0
  0
ARC
  5
446
100
AcDbEntity
  8
RACCORDO
100
AcDbCircle
 62
7
  6
CONTINUOUS
 10
96.7003067485
 20
174.8796274475
 40
0.8
100
AcDbArc
 50
90.0
 51
180.0
  0
ARC
  5
447
100
AcDbEntity
  8
ASSI
100
AcDbCircle
 62
7
  6
CONTINUOUS
 10
241.6003067485
 20
13.4796274475
 40
0.8
100
AcDbArc
 50
270.0
 51
360.0
  0
ARC
  5
448
100
AcDbEntity
  8
ASSI
100
AcDbCircle
 62
7
  6
CONTINUOUS
 10
241.6003067485
 20
174.8796274475
 40
0.8
100
AcDbArc
 50
0.0
 51
90.0
  0
ARC
  5
449
100
AcDbEntity
  8
ASSI
100
AcDbCircle
 62
7
  6
CONTINUOUS
 10
96.7003067485
 20
13.4796274475
 40
0.8
100
AcDbArc
 50
180.0
 51
270.0
  0
ARC
  5
44A
100
AcDbEntity
  8
ASSI
100
AcDbCircle
 62
7
  6
CONTINUOUS
 10
96.7003067485
 20
174.8796274475
 40
0.8
100
AcDbArc
 50
90.0
 51
180.0
  0
ARC
  5
44B
100
AcDbEntity
  8
RACCORDO
100
AcDbCircle
 62
7
  6
CONTINUOUS
 10
239.4604632654
 20
45.4820082616
 40
187.7275748271
100
AcDbArc
 50
182.8843458947
 51
189.8982685562
  0
ARC
  5
44C
100
AcDbEntity
  8
ASSI
100
AcDbCircle
 62
7
  6
CONTINUOUS
 10
239.4604632654
 20
45.4820082616
 40
187.7275748271
100
AcDbArc
 50
182.8843458947
 51
189.8982685562
  0
ARC
  5
44D
100
AcDbEntity
  8
RACCORDO
100
AcDbCircle
 62
7
  6
CONTINUOUS
 10
239.4604632654
 20
45.4820082616
 40
185.2275748271
100
AcDbArc
 50
182.8843572168
 51
190.2004412138
  0
ARC
  5
44E
100
AcDbEntity
  8
ASSI
100
AcDbCircle
 62
7
  6
CONTINUOUS
 10
239.4604632654
 20
45.4820082616
 40
185.2275748271
100
AcDbArc
 50
182.8843572168
 51
190.2004412138
  0
ARC
  5
44F
100
AcDbEntity
  8
RACCORDO
100
AcDbCircle
 62
7
  6
CONTINUOUS
 10
239.4604632654
 20
45.4820082616
 40
184.7275748271
100
AcDbArc
 50
189.6045636607
 51
190.0707999745
  0
ARC
  5
450
100
AcDbEntity
  8
0
100
AcDbCircle
 62
7
  6
CONTINUOUS
 10
239.4604632654
 20
45.4820082616
 40
184.7275748271
100
AcDbArc
 50
182.8843572168
 51
189.6045636607
  0
ARC
  5
451
100
AcDbEntity
  8
RACCORDO
100
AcDbCircle
 62
7
  6
CONTINUOUS
 10
56.4496319591
 20
19.5851154857
 40
6.5043030162
100
AcDbArc
 50
279.9999999923
 51
311.045248441
  0
ARC
  5
452
100
AcDbEntity
  8
RACCORDO
100
AcDbCircle
 62
7
  6
CONTINUOUS
 10
55.0198605158
 20
13.2977134429
 40
0.5
100
AcDbArc
 50
189.8982685562
 51
265.0
  0
ARC
  5
453
100
AcDbEntity
  8
ASSI
100
AcDbCircle
 62
7
  6
CONTINUOUS
 10
55.0198605158
 20
13.2977134429
 40
0.5
100
AcDbArc
 50
189.8982685562
 51
265.0
  0
ARC
  5
454
100
AcDbEntity
  8
RACCORDO
100
AcDbCircle
 62
7
  6
CONTINUOUS
 10
58.920714355
 20
45.5118075212
 40
0.2
100
AcDbArc
 50
100.0
 51
180.0
  0
ARC
  5
455
100
AcDbEntity
  8
RACCORDO
100
AcDbCircle
 62
7
  6
CONTINUOUS
 10
58.920714355
 20
38.8474473737
 40
0.2
100
AcDbArc
 50
180.0
 51
260.0
  0
ARC
  5
456
100
AcDbEntity
  8
RACCORDO
100
AcDbCircle
 62
7
  6
CONTINUOUS
 10
239.4604632654
 20
142.8772466334
 40
187.7275748271
100
AcDbArc
 50
170.1023534952
 51
177.115655777
  0
ARC
  5
457
100
AcDbEntity
  8
ASSI
100
AcDbCircle
 62
7
  6
CONTINUOUS
 10
239.4604632654
 20
142.8772466334
 40
187.7275748271
100
AcDbArc
 50
170.1023534952
 51
177.115655777
  0
ARC
  5
458
100
AcDbEntity
  8
RACCORDO
100
AcDbCircle
 62
7
  6
CONTINUOUS
 10
239.4604632654
 20
142.8772466334
 40
185.2275748271
100
AcDbArc
 50
169.7999756205
 51
177.1156427832
  0
ARC
  5
459
100
AcDbEntity
  8
ASSI
100
AcDbCircle
 62
7
  6
CONTINUOUS
 10
239.4604632654
 20
142.8772466334
 40
185.2275748271
100
AcDbArc
 50
169.7999756205
 51
177.1156427832
  0
ARC
  5
45A
100
AcDbEntity
  8
0
100
AcDbCircle
 62
7
  6
CONTINUOUS
 10
239.4604632654
 20
142.8772466334
 40
184.7275748271
100
AcDbArc
 50
170.3954363393
 51
177.1156427832
  0
ARC
  5
45B
100
AcDbEntity
  8
RACCORDO
100
AcDbCircle
 62
7
  6
CONTINUOUS
 10
239.4604632654
 20
142.8772466334
 40
184.7275748271
100
AcDbArc
 50
169.9292000255
 51
170.3954363393
  0
ARC
  5
45C
100
AcDbEntity
  8
RACCORDO
100
AcDbCircle
 62
7
  6
CONTINUOUS
 10
56.4496319591
 20
168.7741394092
 40
6.5043030162
100
AcDbArc
 50
48.9547516255
 51
80.0000000015
  0
ARC
  5
45D
100
AcDbEntity
  8
RACCORDO
100
AcDbCircle
 62
7
  6
CONTINUOUS
 10
55.0198600359
 20
175.0615387353
 40
0.5
100
AcDbArc
 50
94.9999180922
 51
170.1014153156
  0
ARC
  5
45E
100
AcDbEntity
  8
ASSI
100
AcDbCircle
 62
7
  6
CONTINUOUS
 10
55.0198600359
 20
175.0615387353
 40
0.5
100
AcDbArc
 50
94.9999180922
 51
170.1014153156
  0
ARC
  5
45F
100
AcDbEntity
  8
RACCORDO
100
AcDbCircle
 62
7
  6
CONTINUOUS
 10
58.920714355
 20
142.8474473737
 40
0.2
100
AcDbArc
 50
180.0
 51
260.0
  0
ARC
  5
460
100
AcDbEntity
  8
RACCORDO
100
AcDbCircle
 62
7
  6
CONTINUOUS
 10
58.920714355
 20
149.5118075212
 40
0.2
100
AcDbArc
 50
100.0
 51
180.0
  0
ARC
  5
461
100
AcDbEntity
  8
RACCORDO
100
AcDbCircle
 62
7
  6
CONTINUOUS
 10
501.4006240921
 20
58.6796274475
 40
450.0
100
AcDbArc
 50
179.9999994286
 51
182.8843524935
  0
ARC
  5
462
100
AcDbEntity
  8
ASSI
100
AcDbCircle
 62
7
  6
CONTINUOUS
 10
501.4006240921
 20
58.6796274475
 40
450.0
100
AcDbArc
 50
179.9999994286
 51
182.8843524935
  0
ARC
  5
463
100
AcDbEntity
  8
DRAFT
100
AcDbCircle
 62
7
  6
CONTINUOUS
 10
501.4006240921
 20
58.6796274475
 40
447.5
100
AcDbArc
 50
180.0
 51
182.8843572168
  0
ARC
  5
464
100
AcDbEntity
  8
ASSI
100
AcDbCircle
 62
7
  6
CONTINUOUS
 10
501.4006240921
 20
58.6796274475
 40
447.5
100
AcDbArc
 50
180.0
 51
182.8843572168
  0
ARC
  5
465
100
AcDbEntity
  8
0
100
AcDbCircle
 62
7
  6
CONTINUOUS
 10
501.4006240921
 20
58.6796274475
 40
447.0
100
AcDbArc
 50
180.0
 51
182.8843572168
  0
ARC
  5
466
100
AcDbEntity
  8
RACCORDO
100
AcDbCircle
 62
7
  6
CONTINUOUS
 10
501.4006240921
 20
129.6796274475
 40
450.0
100
AcDbArc
 50
177.1156482038
 51
180.0000005805
  0
ARC
  5
467
100
AcDbEntity
  8
ASSI
100
AcDbCircle
 62
7
  6
CONTINUOUS
 10
501.4006240921
 20
129.6796274475
 40
450.0
100
AcDbArc
 50
177.1156482038
 51
180.0000005805
  0
ARC
  5
468
100
AcDbEntity
  8
DRAFT
100
AcDbCircle
 62
7
  6
CONTINUOUS
 10
501.4006240921
 20
129.6796274475
 40
447.5
100
AcDbArc
 50
177.1156427832
 51
180.0
  0
ARC
  5
469
100
AcDbEntity
  8
ASSI
100
AcDbCircle
 62
7
  6
CONTINUOUS
 10
501.4006240921
 20
129.6796274475
 40
447.5
100
AcDbArc
 50
177.1156427832
 51
180.0
  0
ARC
  5
46A
100
AcDbEntity
  8
0
100
AcDbCircle
 62
7
  6
CONTINUOUS
 10
501.4006240921
 20
129.6796274475
 40
447.0
100
AcDbArc
 50
177.1156427832
 51
180.0
  0
ENDSEC
  0
SECTION
  2
OBJECTS
  0
DICTIONARY
  5
C
100
AcDbDictionary
280
0
281
1
  3
ACAD_GROUP
350
D
  3
ACAD_MLINESTYLE
350
17
  3
ACAD_LAYOUT
350
1A
  3
ACAD_PLOTSETTINGS
350
19
  3
ACAD_PLOTSTYLENAME
350
E
  0
DICTIONARY
  5
D
102
{ACAD_REACTORS
330
C
102
}
100
AcDbDictionary
280
0
281
1
  0
ACDBDICTIONARYWDFLT
  5
E
102
{ACAD_REACTORS
330
C
102
}
100
AcDbDictionary
281
1
  3
Normal
350
F
100
AcDbDictionaryWithDefault
340
F
  0
DICTIONARY
  5
17
102
{ACAD_REACTORS
330
C
102
}
100
AcDbDictionary
280
0
281
1
  3
Standard
350
18
  0
DICTIONARY
  5
19
102
{ACAD_REACTORS
330
C
102
}
100
AcDbDictionary
281
1
  0
DICTIONARY
  5
1A
102
{ACAD_REACTORS
330
C
102
}
100
AcDbDictionary
281
1
  3
Model
350
46B
  3
Layout1
350
46C
  0
ACDBPLACEHOLDER
  5
F
102
{ACAD_REACTORS
330
E
102
}
  0
MLINESTYLE
  5
18
102
{ACAD_REACTORS
330
17
102
}
100
AcDbMlineStyle
  2
STANDARD
 70
0
  3

 62
256
 51
90.0
 52
90.0
 71
2
 49
0.5
 62
256
  6
BYLAYER
 49
-0.5
 62
256
  6
BYLAYER
  0
LAYOUT
  5
46B
102
{ACAD_REACTORS
330
1A
102
}
100
AcDbPlotSettings
  1

  2
none_device
  4
ISO_A4_(297.00_x_210.00_MM)
  6

 40
0.0
 41
0.0
 42
0.0
 43
0.0
 44
297.0
 45
210.0
 46
0.0
 47
0.0
 48
0.0
 49
0.0
140
0.0
141
0.0
142
1.0
143
1.0
 70
1024
 72
1
 73
0
 74
0
  7

 75
0
147
1.0
148
0.0
149
0.0
100
AcDbLayout
  1
Model
 70
0
 71
0
 10
0.0
 20
0.0
 11
297.0
 21
210.0
 12
0.0
 22
0.0
 32
0.0
 14
0.0
 24
0.0
 34
0.0
 15
0.0
 25
0.0
 35
0.0
146
0.0
 13
0.0
 23
0.0
 33
0.0
 16
1.0
 26
0.0
 36
0.0
 17
0.0
 27
1.0
 37
0.0
 76
0
330
212
345
0
346
0
  0
LAYOUT
  5
46C
102
{ACAD_REACTORS
330
1A
102
}
100
AcDbPlotSettings
  1

  2
none_device
  4
ISO_A4_(297.00_x_210.00_MM)
  6

 40
0.0
 41
0.0
 42
0.0
 43
0.0
 44
297.0
 45
210.0
 46
0.0
 47
0.0
 48
0.0
 49
0.0
140
0.0
141
0.0
142
1.0
143
1.0
 70
0
 72
1
 73
0
 74
0
  7

 75
0
147
1.0
148
0.0
149
0.0
100
AcDbLayout
  1
Layout1
 70
0
 71
1
 10
0.0
 20
0.0
 11
297.0
 21
210.0
 12
0.0
 22
0.0
 32
0.0
 14
0.0
 24
0.0
 34
0.0
 15
0.0
 25
0.0
 35
0.0
146
0.0
 13
0.0
 23
0.0
 33
0.0
 16
1.0
 26
0.0
 36
0.0
 17
0.0
 27
1.0
 37
0.0
 76
0
330
213
345
0
346
0
  0
ENDSEC
  0
EOF
