  0
SECTION
  2
HEADER
  9
$ACADVER
  1
AC1021
  9
$DWGCODEPAGE
  3
ANSI_1252
  9
$EXTMAX
 10
297.0
 20
210.0
 30
0.0
  9
$EXTMIN
 10
0.0
 20
0.0
 30
0.0
  9
$LIMMIN
 10
0.0
 20
0.0
  9
$LIMMAX
 10
297.0
 20
210.0
  9
$VIEWCTR
 10
148.5
 20
105.0
  9
$VIEWSIZE
 40
210.0
  9
$CLAYER
  8
0
  9
$LTSCALE
 40
16.335
  9
$CELTYPE
  6
BYLAYER
  9
$DIMSCALE
 40
1.0
  9
$DIMASZ
 40
3.0
  9
$DIMEXO
 40
1.85625
  9
$DIMDLI
 40
11.286
  9
$DIMEXE
 40
5.346
  9
$DIMCEN
 40
2.673
  9
$DIMLFAC
 40
1.0
  9
$DIMBLK
  1
_FILLED
  9
$DIMTXT
 40
3.0
  9
$DIMTOL
 70
1
  9
$DIMLIM
 70
0
  9
$DIMTFAC
 40
1.0
  9
$DIMTP
 40
0.01
  9
$DIMTM
 40
0.01
  9
$PDMODE
 70
3
  9
$PDSIZE
 40
3.0
  9
$HANDSEED
  5
456
  9
$TILEMODE
 70
1
  9
$MEASUREMENT
 70
1
  9
$INSUNITS
 70
4
  0
ENDSEC
  0
SECTION
  2
CLASSES
  0
CLASS
  1
ACDBDICTIONARYWDFLT
  2
AcDbDictionaryWithDefault
  3
AutoCAD 2000
 90
0
 91
1
280
0
281
0
  0
CLASS
  1
ACDBPLACEHOLDER
  2
AcDbPlaceHolder
  3
AutoCAD 2000
 90
0
 91
1
280
0
281
0
  0
CLASS
  1
LAYOUT
  2
AcDbLayout
  3
AutoCAD 2000
 90
0
 91
0
280
0
281
0
  0
ENDSEC
  0
SECTION
  2
TABLES
  0
TABLE
  2
VPORT
  5
8
100
AcDbSymbolTable
 70
2
  0
VPORT
  5
1F4
100
AcDbSymbolTableRecord
100
AcDbViewportTableRecord
  2
*ACTIVE
 70
0
 10
0.0
 20
0.0
 11
1.0
 21
1.0
 12
148.5
 22
105.0
 13
0.0
 23
0.0
 14
1.0
 24
1.0
 15
0.0
 25
0.0
 16
0.0
 26
0.0
 36
1.0
 17
0.0
 27
0.0
 37
0.0
 40
210.0
 41
1.4142857143
 42
50.0
 43
0.0
 44
0.0
 50
0.0
 51
0.0
 71
0
 72
100
 73
1
 74
1
 75
0
 76
0
 77
0
 78
0
  0
ENDTAB
  0
TABLE
  2
LTYPE
  5
5
100
AcDbSymbolTable
 70
6
  0
LTYPE
  5
14
100
AcDbSymbolTableRecord
100
AcDbLinetypeTableRecord
  2
BYBLOCK
 70
0
  3

 72
65
 73
0
 40
0.0
  0
LTYPE
  5
15
100
AcDbSymbolTableRecord
100
AcDbLinetypeTableRecord
  2
BYLAYER
 70
0
  3

 72
65
 73
0
 40
0.0
  0
LTYPE
  5
16
100
AcDbSymbolTableRecord
100
AcDbLinetypeTableRecord
  2
CONTINUOUS
 70
64
  3
Solid line
 72
65
 73
0
 40
0.0
  0
LTYPE
  5
1F5
100
AcDbSymbolTableRecord
100
AcDbLinetypeTableRecord
  2
CENTER
 70
64
  3
____ _ ____ _ ____ _ ____ _ ____ _ ____ _ ____
 72
65
 73
4
 40
0.6
 49
0.375
 74
0
 49
-0.075
 74
0
 49
0.075
 74
0
 49
-0.075
 74
0
  0
LTYPE
  5
1F6
100
AcDbSymbolTableRecord
100
AcDbLinetypeTableRecord
  2
HIDDEN
 70
64
  3
- - - - - - - - - - - - - - - - - - - -
 72
65
 73
2
 40
0.2
 49
0.1
 74
0
 49
-0.1
 74
0
  0
LTYPE
  5
1F7
100
AcDbSymbolTableRecord
100
AcDbLinetypeTableRecord
  2
PHANTOM
 70
64
  3
_____ _ _ _____ _ _ _____ _ _ _____
 72
65
 73
6
 40
0.8
 49
0.45
 74
0
 49
-0.05
 74
0
 49
0.1
 74
0
 49
-0.05
 74
0
 49
0.1
 74
0
 49
-0.05
 74
0
  0
LTYPE
  5
1F8
100
AcDbSymbolTableRecord
100
AcDbLinetypeTableRecord
  2
DOT
 70
64
  3
. . . . . . . . . . . . . . . . . . . .
 72
65
 73
2
 40
0.2
 49
0.1
 74
0
 49
-0.1
 74
0
  0
LTYPE
  5
1F9
100
AcDbSymbolTableRecord
100
AcDbLinetypeTableRecord
  2
DASHED
 70
64
  3
- - - - - - - - - - - - - - - - - - - -
 72
65
 73
2
 40
0.2
 49
0.1
 74
0
 49
-0.1
 74
0
  0
ENDTAB
  0
TABLE
  2
LAYER
  5
2
100
AcDbSymbolTable
 70
36
  0
LAYER
  5
10
100
AcDbSymbolTableRecord
100
AcDbLayerTableRecord
  2
0
 70
0
 62
7
  6
CONTINUOUS
370
-3
390
F
  0
LAYER
  5
1FA
100
AcDbSymbolTableRecord
100
AcDbLayerTableRecord
  2
DEFAULT_1
 70
0
 62
7
  6
CENTER
370
-3
390
F
  0
LAYER
  5
1FB
100
AcDbSymbolTableRecord
100
AcDbLayerTableRecord
  2
DEFAULT_2
 70
0
 62
7
  6
HIDDEN
370
-3
390
F
  0
LAYER
  5
1FC
100
AcDbSymbolTableRecord
100
AcDbLayerTableRecord
  2
DEFAULT_3
 70
0
 62
7
  6
PHANTOM
370
-3
390
F
  0
LAYER
  5
1FD
100
AcDbSymbolTableRecord
100
AcDbLayerTableRecord
  2
ASSI
 70
0
 62
7
  6
CONTINUOUS
370
-3
390
F
  0
LAYER
  5
1FE
100
AcDbSymbolTableRecord
100
AcDbLayerTableRecord
  2
COORDINATE
 70
0
 62
7
  6
CONTINUOUS
370
-3
390
F
  0
LAYER
  5
1FF
100
AcDbSymbolTableRecord
100
AcDbLayerTableRecord
  2
COPY_PUBLISH
 70
0
 62
7
  6
CONTINUOUS
370
-3
390
F
  0
LAYER
  5
200
100
AcDbSymbolTableRecord
100
AcDbLayerTableRecord
  2
COSMETICI
 70
0
 62
7
  6
CONTINUOUS
370
-3
390
F
  0
LAYER
  5
201
100
AcDbSymbolTableRecord
100
AcDbLayerTableRecord
  2
CURVE
 70
0
 62
7
  6
CONTINUOUS
370
-3
390
F
  0
LAYER
  5
202
100
AcDbSymbolTableRecord
100
AcDbLayerTableRecord
  2
DRAFT
 70
0
 62
7
  6
CONTINUOUS
370
-3
390
F
  0
LAYER
  5
203
100
AcDbSymbolTableRecord
100
AcDbLayerTableRecord
  2
IMPORT_IGES
 70
0
 62
7
  6
CONTINUOUS
370
-3
390
F
  0
LAYER
  5
204
100
AcDbSymbolTableRecord
100
AcDbLayerTableRecord
  2
INTF_1
 70
0
 62
7
  6
CONTINUOUS
370
-3
390
F
  0
LAYER
  5
205
100
AcDbSymbolTableRecord
100
AcDbLayerTableRecord
  2
NOTE
 70
0
 62
7
  6
CONTINUOUS
370
-3
390
F
  0
LAYER
  5
206
100
AcDbSymbolTableRecord
100
AcDbLayerTableRecord
  2
PIANI
 70
0
 62
7
  6
CONTINUOUS
370
-3
390
F
  0
LAYER
  5
207
100
AcDbSymbolTableRecord
100
AcDbLayerTableRecord
  2
PUNTI
 70
0
 62
7
  6
CONTINUOUS
370
-3
390
F
  0
LAYER
  5
208
100
AcDbSymbolTableRecord
100
AcDbLayerTableRecord
  2
RACCORDO
 70
0
 62
7
  6
CONTINUOUS
370
-3
390
F
  0
LAYER
  5
209
100
AcDbSymbolTableRecord
100
AcDbLayerTableRecord
  2
SCRITTE
 70
0
 62
7
  6
CONTINUOUS
370
-3
390
F
  0
LAYER
  5
20A
100
AcDbSymbolTableRecord
100
AcDbLayerTableRecord
  2
SIMBOLI
 70
0
 62
7
  6
CONTINUOUS
370
-3
390
F
  0
LAYER
  5
20B
100
AcDbSymbolTableRecord
100
AcDbLayerTableRecord
  2
SMUSSO
 70
0
 62
7
  6
CONTINUOUS
370
-3
390
F
  0
LAYER
  5
20C
100
AcDbSymbolTableRecord
100
AcDbLayerTableRecord
  2
SNAPLINE
 70
0
 62
7
  6
CONTINUOUS
370
-3
390
F
  0
LAYER
  5
20D
100
AcDbSymbolTableRecord
100
AcDbLayerTableRecord
  2
SUPERFICI
 70
0
 62
7
  6
CONTINUOUS
370
-3
390
F
  0
LAYER
  5
20E
100
AcDbSymbolTableRecord
100
AcDbLayerTableRecord
  2
TRASH
 70
0
 62
7
  6
CONTINUOUS
370
-3
390
F
  0
ENDTAB
  0
TABLE
  2
STYLE
  5
3
100
AcDbSymbolTable
 70
1
  0
STYLE
  5
11
100
AcDbSymbolTableRecord
100
AcDbTextStyleTableRecord
  2
STANDARD
 70
0
 40
0.0
 41
0.8
 50
0.0
 71
0
 42
0.2
  3
txt
  4

  0
STYLE
  5
20F
100
AcDbSymbolTableRecord
100
AcDbTextStyleTableRecord
  2
TEXTSTYLE_1
 70
0
 40
0.0
 41
0.8
 50
0.0
 71
0
 42
0.2
  3
gdt
  4

  0
ENDTAB
  0
TABLE
  2
VIEW
  5
6
100
AcDbSymbolTable
 70
0
  0
ENDTAB
  0
TABLE
  2
UCS
  5
7
100
AcDbSymbolTable
 70
0
  0
ENDTAB
  0
TABLE
  2
APPID
  5
9
100
AcDbSymbolTable
 70
1
  0
APPID
  5
210
100
AcDbSymbolTableRecord
100
AcDbRegAppTableRecord
  2
ACAD
 70
0
  0
ENDTAB
  0
TABLE
  2
BLOCK_RECORD
  5
1
100
AcDbSymbolTable
 70
0
  0
BLOCK_RECORD
  5
211
100
AcDbSymbolTableRecord
100
AcDbBlockTableRecord
  2
*Model_Space
  0
BLOCK_RECORD
  5
212
100
AcDbSymbolTableRecord
100
AcDbBlockTableRecord
  2
*Paper_Space
  0
BLOCK_RECORD
  5
213
100
AcDbSymbolTableRecord
100
AcDbBlockTableRecord
  2
_FILLED
  0
BLOCK_RECORD
  5
214
100
AcDbSymbolTableRecord
100
AcDbBlockTableRecord
  2
*D0
  0
BLOCK_RECORD
  5
215
100
AcDbSymbolTableRecord
100
AcDbBlockTableRecord
  2
*D1
  0
BLOCK_RECORD
  5
216
100
AcDbSymbolTableRecord
100
AcDbBlockTableRecord
  2
*D2
  0
BLOCK_RECORD
  5
217
100
AcDbSymbolTableRecord
100
AcDbBlockTableRecord
  2
*D3
  0
BLOCK_RECORD
  5
218
100
AcDbSymbolTableRecord
100
AcDbBlockTableRecord
  2
*D4
  0
ENDTAB
  0
TABLE
  2
DIMSTYLE
  5
A
100
AcDbSymbolTable
 70
1
100
AcDbDimStyleTable
 71
0
  0
DIMSTYLE
105
219
100
AcDbSymbolTableRecord
100
AcDbDimStyleTableRecord
  2
STANDARD
 70
0
  3

  4

 40
1.0
 41
3.0
 42
0.0625
 43
0.38
 44
0.18
 45
0.0
 46
0.0
 47
0.01
 48
0.01
140
3.0
141
0.09
142
0.0
143
25.4
144
1.0
145
0.0
146
1.0
147
0.09
 71
1.0
 72
0.0
 73
0
 74
0
 75
0
 76
0
 77
1
 78
8
170
0
171
2
172
0
173
0
174
0
175
0
176
0
177
0
178
0
270
2
271
2
272
2
273
2
274
2
275
0
280
0
281
0
282
0
283
1
284
8
285
0
286
0
287
3
288
0
340
11
341
213
342
213
343
213
344
213
  0
DIMSTYLE
105
21A
100
AcDbSymbolTableRecord
100
AcDbDimStyleTableRecord
  2
DIMSTYLE_1
 70
0
  3

  4

 40
1.0
 41
3.0
 42
0.0625
 43
0.38
 44
0.18
 45
0.0
 46
0.0
 47
0.0
 48
0.0
140
3.0
141
0.09
142
0.0
143
25.4
144
1.0
145
0.0
146
1.0
147
0.09
 71
0.0
 72
0.0
 73
0
 74
0
 75
0
 76
0
 77
1
 78
8
170
0
171
2
172
0
173
0
174
0
175
0
176
0
177
0
178
0
270
2
271
2
272
2
273
2
274
2
275
0
280
0
281
0
282
0
283
1
284
8
285
0
286
0
287
3
288
0
340
11
341
213
342
213
343
213
344
213
  0
DIMSTYLE
105
21B
100
AcDbSymbolTableRecord
100
AcDbDimStyleTableRecord
  2
DIMSTYLE_2
 70
0
  3

  4

 40
1.0
 41
3.0
 42
0.0625
 43
0.38
 44
0.18
 45
0.0
 46
0.0
 47
0.0
 48
0.0
140
3.0
141
0.09
142
0.0
143
25.4
144
1.0
145
0.0
146
1.0
147
0.09
 71
0.0
 72
0.0
 73
0
 74
0
 75
0
 76
0
 77
1
 78
8
170
0
171
2
172
0
173
0
174
0
175
0
176
0
177
0
178
0
270
2
271
1
272
1
273
2
274
2
275
0
280
0
281
0
282
0
283
1
284
8
285
0
286
0
287
3
288
0
340
11
341
213
342
213
343
213
344
213
  0
ENDTAB
  0
ENDSEC
  0
SECTION
  2
BLOCKS
  0
BLOCK
  5
20
100
AcDbEntity
  8
0
100
AcDbBlockBegin
  2
*Model_Space
 70
0
 10
0.0
 20
0.0
 30
0.0
  3
*Model_Space
  1

  0
ENDBLK
  5
21
100
AcDbEntity
  8
0
100
AcDbBlockEnd
  0
BLOCK
  5
1C
100
AcDbEntity
  8
0
100
AcDbBlockBegin
  2
*Paper_Space
 70
0
 10
0.0
 20
0.0
 30
0.0
  3
*Paper_Space
  1

  0
ENDBLK
  5
1D
100
AcDbEntity
  8
0
100
AcDbBlockEnd
  0
BLOCK
  5
21C
100
AcDbEntity
  8
0
100
AcDbBlockBegin
  2
_FILLED
 70
64
 10
0.0
 20
0.0
  3
_FILLED
  1

  0
SOLID
  5
21D
100
AcDbEntity
  8
0
  6
BYBLOCK
 62
0
100
AcDbTrace
 10
0.0
 20
0.0
 11
-1.0
 21
0.3166666667
 12
-1.0
 22
-0.3166666667
 13
-1.0
 23
-0.3166666667
  0
ENDBLK
  5
21E
100
AcDbEntity
  8
0
  6
BYBLOCK
 62
0
100
AcDbBlockEnd
  0
BLOCK
  5
21F
100
AcDbEntity
  8
0
100
AcDbBlockBegin
 62
7
  6
CONTINUOUS
  2
*D0
 70
65
 10
0.0
 20
0.0
  3
*D0
  1

  0
MTEXT
  5
220
100
AcDbEntity
  8
0
100
AcDbMText
 62
7
  6
CONTINUOUS
  7
STANDARD
 71
2
 72
1
 10
245.984378882
 20
110.9953416149
 30
0.0
 11
0.0
 21
1.0
 31
0.0
 44
0.9
  1
90
 40
3.0
 41
4.7142857143
  0
LINE
  5
221
100
AcDbEntity
  8
0
100
AcDbLine
 62
7
  6
CONTINUOUS
 10
222.9842979816
 20
155.9953416149
 11
251.234378882
 21
155.9953416149
  0
LINE
  5
222
100
AcDbEntity
  8
0
100
AcDbLine
 62
7
  6
CONTINUOUS
 10
222.9842979816
 20
65.9953416149
 11
251.234378882
 21
65.9953416149
  0
LINE
  5
223
100
AcDbEntity
  8
0
100
AcDbLine
 62
7
  6
CONTINUOUS
 10
249.734378882
 20
155.9953416149
 11
249.734378882
 21
110.9953416149
  0
LINE
  5
224
100
AcDbEntity
  8
0
100
AcDbLine
 62
7
  6
CONTINUOUS
 10
249.734378882
 20
65.9953416149
 11
249.734378882
 21
110.9953416149
  0
INSERT
  5
225
100
AcDbEntity
  8
0
100
AcDbBlockReference
 62
7
  6
CONTINUOUS
  2
_FILLED
 10
249.734378882
 20
155.9953416149
 41
3.0
 42
3.0
 43
3.0
 50
90.0
  0
INSERT
  5
226
100
AcDbEntity
  8
0
100
AcDbBlockReference
 62
7
  6
CONTINUOUS
  2
_FILLED
 10
249.734378882
 20
65.9953416149
 41
3.0
 42
3.0
 43
3.0
 50
270.0
  0
ENDBLK
  5
227
100
AcDbEntity
  8
0
  6
BYBLOCK
 62
0
100
AcDbBlockEnd
  0
BLOCK
  5
228
100
AcDbEntity
  8
0
100
AcDbBlockBegin
 62
7
  6
CONTINUOUS
  2
*D1
 70
65
 10
0.0
 20
0.0
  3
*D1
  1

  0
MTEXT
  5
229
100
AcDbEntity
  8
0
100
AcDbMText
 62
7
  6
CONTINUOUS
  7
STANDARD
 71
2
 72
1
 10
235.984378882
 20
110.9953416149
 30
0.0
 11
0.0
 21
1.0
 31
0.0
 44
0.9
  1
45,1
 40
3.0
 41
7.9285714286
  0
LINE
  5
22A
100
AcDbEntity
  8
0
100
AcDbLine
 62
7
  6
CONTINUOUS
 10
184.8133985262
 20
133.5453416149
 11
241.234378882
 21
133.5453416149
  0
LINE
  5
22B
100
AcDbEntity
  8
0
100
AcDbLine
 62
7
  6
CONTINUOUS
 10
184.8133985262
 20
88.4453416149
 11
241.234378882
 21
88.4453416149
  0
LINE
  5
22C
100
AcDbEntity
  8
0
100
AcDbLine
 62
7
  6
CONTINUOUS
 10
239.734378882
 20
133.5453416149
 11
239.734378882
 21
110.9953416149
  0
LINE
  5
22D
100
AcDbEntity
  8
0
100
AcDbLine
 62
7
  6
CONTINUOUS
 10
239.734378882
 20
88.4453416149
 11
239.734378882
 21
110.9953416149
  0
INSERT
  5
22E
100
AcDbEntity
  8
0
100
AcDbBlockReference
 62
7
  6
CONTINUOUS
  2
_FILLED
 10
239.734378882
 20
133.5453416149
 41
3.0
 42
3.0
 43
3.0
 50
90.0
  0
INSERT
  5
22F
100
AcDbEntity
  8
0
100
AcDbBlockReference
 62
7
  6
CONTINUOUS
  2
_FILLED
 10
239.734378882
 20
88.4453416149
 41
3.0
 42
3.0
 43
3.0
 50
270.0
  0
ENDBLK
  5
230
100
AcDbEntity
  8
0
  6
BYBLOCK
 62
0
100
AcDbBlockEnd
  0
BLOCK
  5
231
100
AcDbEntity
  8
0
100
AcDbBlockBegin
 62
7
  6
CONTINUOUS
  2
*D2
 70
65
 10
0.0
 20
0.0
  3
*D2
  1

  0
MTEXT
  5
232
100
AcDbEntity
  8
0
100
AcDbMText
 62
7
  6
CONTINUOUS
  7
STANDARD
 71
2
 72
1
 10
162.464378882
 20
181.5509882483
 30
0.0
 11
1.0
 21
0.0
 31
0.0
 44
0.9
  1
122
 40
3.0
 41
6.4285714286
  0
LINE
  5
233
100
AcDbEntity
  8
0
100
AcDbLine
 62
7
  6
CONTINUOUS
 10
101.4643896659
 20
155.4988627158
 11
101.4643896659
 21
179.3009882483
  0
LINE
  5
234
100
AcDbEntity
  8
0
100
AcDbLine
 62
7
  6
CONTINUOUS
 10
223.4643680981
 20
155.4988627158
 11
223.4643680981
 21
179.3009882483
  0
LINE
  5
235
100
AcDbEntity
  8
0
100
AcDbLine
 62
7
  6
CONTINUOUS
 10
101.4643896659
 20
177.8009882483
 11
162.464378882
 21
177.8009882483
  0
LINE
  5
236
100
AcDbEntity
  8
0
100
AcDbLine
 62
7
  6
CONTINUOUS
 10
223.4643680981
 20
177.8009882483
 11
162.464378882
 21
177.8009882483
  0
INSERT
  5
237
100
AcDbEntity
  8
0
100
AcDbBlockReference
 62
7
  6
CONTINUOUS
  2
_FILLED
 10
101.4643896659
 20
177.8009882483
 41
3.0
 42
3.0
 43
3.0
 50
180.0
  0
INSERT
  5
238
100
AcDbEntity
  8
0
100
AcDbBlockReference
 62
7
  6
CONTINUOUS
  2
_FILLED
 10
223.4643680981
 20
177.8009882483
 41
3.0
 42
3.0
 43
3.0
  0
ENDBLK
  5
239
100
AcDbEntity
  8
0
  6
BYBLOCK
 62
0
100
AcDbBlockEnd
  0
BLOCK
  5
23A
100
AcDbEntity
  8
0
100
AcDbBlockBegin
 62
7
  6
CONTINUOUS
  2
*D3
 70
65
 10
0.0
 20
0.0
  3
*D3
  1

  0
MTEXT
  5
23B
100
AcDbEntity
  8
0
100
AcDbMText
 62
7
  6
CONTINUOUS
  7
STANDARD
 71
2
 72
1
 10
162.464378882
 20
171.5509882483
 30
0.0
 11
1.0
 21
0.0
 31
0.0
 44
0.9
  1
45,3
 40
3.0
 41
8.3571428571
  0
LINE
  5
23C
100
AcDbEntity
  8
0
100
AcDbLine
 62
7
  6
CONTINUOUS
 10
185.1143834008
 20
133.2464757689
 11
185.1143834008
 21
169.3009882483
  0
LINE
  5
23D
100
AcDbEntity
  8
0
100
AcDbLine
 62
7
  6
CONTINUOUS
 10
139.8143743632
 20
133.2464757689
 11
139.8143743632
 21
169.3009882483
  0
LINE
  5
23E
100
AcDbEntity
  8
0
100
AcDbLine
 62
7
  6
CONTINUOUS
 10
185.1143834008
 20
167.8009882483
 11
162.464378882
 21
167.8009882483
  0
LINE
  5
23F
100
AcDbEntity
  8
0
100
AcDbLine
 62
7
  6
CONTINUOUS
 10
139.8143743632
 20
167.8009882483
 11
162.464378882
 21
167.8009882483
  0
INSERT
  5
240
100
AcDbEntity
  8
0
100
AcDbBlockReference
 62
7
  6
CONTINUOUS
  2
_FILLED
 10
185.1143834008
 20
167.8009882483
 41
3.0
 42
3.0
 43
3.0
  0
INSERT
  5
241
100
AcDbEntity
  8
0
100
AcDbBlockReference
 62
7
  6
CONTINUOUS
  2
_FILLED
 10
139.8143743632
 20
167.8009882483
 41
3.0
 42
3.0
 43
3.0
 50
180.0
  0
ENDBLK
  5
242
100
AcDbEntity
  8
0
  6
BYBLOCK
 62
0
100
AcDbBlockEnd
  0
BLOCK
  5
243
100
AcDbEntity
  8
0
100
AcDbBlockBegin
 62
7
  6
CONTINUOUS
  2
*D4
 70
65
 10
0.0
 20
0.0
  3
*D4
  1

  0
MTEXT
  5
244
100
AcDbEntity
  8
0
100
AcDbMText
 62
7
  6
CONTINUOUS
  7
STANDARD
 71
1
 72
1
 10
80.5829668306
 20
171.5509882483
 30
0.0
 11
1.0
 21
0.0
 31
0.0
 44
0.9
  1
8,6
 40
3.0
 41
6.4285714286
  0
LINE
  5
245
100
AcDbEntity
  8
0
100
AcDbLine
 62
7
  6
CONTINUOUS
 10
76.5009291396
 20
154.0578717523
 11
76.500929114
 21
169.3009882414
  0
LINE
  5
246
100
AcDbEntity
  8
0
100
AcDbLine
 62
7
  6
CONTINUOUS
 10
67.9328175766
 20
111.4953408587
 11
67.9328174795
 21
169.300988227
  0
LINE
  5
247
100
AcDbEntity
  8
0
100
AcDbLine
 62
7
  6
CONTINUOUS
 10
76.5009291165
 20
167.8009882414
 11
87.0115382592
 21
167.8009882483
  0
LINE
  5
248
100
AcDbEntity
  8
0
100
AcDbLine
 62
7
  6
CONTINUOUS
 10
87.0115382592
 20
167.8009882483
 11
72.2168732993
 21
167.8009882342
  0
LINE
  5
249
100
AcDbEntity
  8
0
100
AcDbLine
 62
7
  6
CONTINUOUS
 10
67.932817482
 20
167.800988227
 11
63.932817482
 21
167.8009882203
  0
LINE
  5
24A
100
AcDbEntity
  8
0
100
AcDbLine
 62
7
  6
CONTINUOUS
 10
63.932817482
 20
167.8009882203
 11
72.2168732993
 21
167.8009882342
  0
INSERT
  5
24B
100
AcDbEntity
  8
0
100
AcDbBlockReference
 62
7
  6
CONTINUOUS
  2
_FILLED
 10
76.5009291165
 20
167.8009882414
 41
3.0
 42
3.0
 43
3.0
 50
180.0000000374
  0
INSERT
  5
24C
100
AcDbEntity
  8
0
100
AcDbBlockReference
 62
7
  6
CONTINUOUS
  2
_FILLED
 10
67.932817482
 20
167.800988227
 41
3.0
 42
3.0
 43
3.0
 50
0.0000000963
  0
ENDBLK
  5
24D
100
AcDbEntity
  8
0
  6
BYBLOCK
 62
0
100
AcDbBlockEnd
  0
ENDSEC
  0
SECTION
  2
ENTITIES
  0
DIMENSION
  5
24E
100
AcDbEntity
  8
0
100
AcDbDimension
 62
7
  6
CONTINUOUS
  2
*D0
 10
249.734378882
 20
65.9953416149
 11
248.5405524057
 21
108.888063765
 70
160
 71
2
 42
90.0
  3
DIMSTYLE_1
100
AcDbAlignedDimension
 13
222.9842979816
 23
155.9953416149
 14
222.9842979816
 24
65.9953416149
 50
270.0
100
AcDbRotatedDimension
  0
DIMENSION
  5
24F
100
AcDbEntity
  8
0
100
AcDbDimension
 62
7
  6
CONTINUOUS
  2
*D1
 10
239.734378882
 20
88.4453416149
 11
239.2606707174
 21
107.4512834128
 70
160
 71
2
 42
45.1
  3
DIMSTYLE_1
100
AcDbAlignedDimension
 13
184.8133985262
 23
133.5453416149
 14
184.8133985262
 24
88.4453416149
 50
270.0
100
AcDbRotatedDimension
  0
DIMENSION
  5
250
100
AcDbEntity
  8
0
100
AcDbDimension
 62
7
  6
CONTINUOUS
  2
*D2
 10
223.4643680981
 20
177.8009882483
 11
159.2500931677
 21
180.0509882483
 70
160
 71
2
 42
121.9999784322
  3
DIMSTYLE_1
100
AcDbAlignedDimension
 13
101.4643896659
 23
155.4988627158
 14
223.4643680981
 24
155.4988627158
100
AcDbRotatedDimension
  0
DIMENSION
  5
251
100
AcDbEntity
  8
0
100
AcDbDimension
 62
7
  6
CONTINUOUS
  2
*D3
 10
139.8143743632
 20
167.8009882483
 11
158.2858074534
 21
170.0509882483
 70
160
 71
2
 42
45.3000090376
  3
DIMSTYLE_1
100
AcDbAlignedDimension
 13
185.1143834008
 23
133.2464757689
 14
139.8143743632
 24
133.2464757689
 50
180.0
100
AcDbRotatedDimension
  0
DIMENSION
  5
252
100
AcDbEntity
  8
0
100
AcDbDimension
 62
7
  6
CONTINUOUS
  2
*D4
 10
67.932817482
 20
167.800988227
 11
83.7972525449
 21
170.0509882483
 70
160
 71
1
 42
8.5681116345
  3
DIMSTYLE_2
100
AcDbAlignedDimension
 13
76.5009291396
 23
154.0578717523
 14
67.9328175766
 24
111.4953408587
 50
180.0000000963
100
AcDbRotatedDimension
  0
LWPOLYLINE
  5
253
100
AcDbEntity
  8
RACCORDO
100
AcDbPolyline
 62
253
  6
CONTINUOUS
 90
28
 70
0
 10
101.646133435
 20
67.176629266
 10
101.64847316
 20
67.1185217205
 10
101.6541312799
 20
67.0607387884
 10
101.6630763583
 20
67.0034692427
 10
101.6752592493
 20
66.9469180495
 10
101.6906320211
 20
66.8912486023
 10
101.7091599029
 20
66.8365854454
 10
101.7307950168
 20
66.7830742831
 10
101.7554536229
 20
66.7309246837
 10
101.7830356484
 20
66.6803509909
 10
101.8134326402
 20
66.631530374
 10
101.8465448151
 20
66.5846018472
 10
101.8822663616
 20
66.5397108937
 10
101.9204753838
 20
66.4969998186
 10
101.9610404178
 20
66.4566043517
 10
102.003831901
 20
66.4186507522
 10
102.0487044429
 20
66.3832608315
 10
102.0955091414
 20
66.3505441724
 10
102.1441037478
 20
66.3205986687
 10
102.1943324881
 20
66.2935181716
 10
102.2460256512
 20
66.2693910961
 10
102.2990138487
 20
66.2482950776
 10
102.353115448
 20
66.2302996963
 10
102.408160834
 20
66.2154579002
 10
102.4639947123
 20
66.2038114497
 10
102.5204439341
 20
66.1953996457
 10
102.5773168674
 20
66.1902545584
 10
102.6344285051
 20
66.1883957112
  0
LWPOLYLINE
  5
254
100
AcDbEntity
  8
ASSI
100
AcDbPolyline
 62
253
  6
CONTINUOUS
 90
28
 70
0
 10
101.646133435
 20
67.176629266
 10
101.64847316
 20
67.1185217205
 10
101.6541312799
 20
67.0607387884
 10
101.6630763583
 20
67.0034692427
 10
101.6752592493
 20
66.9469180495
 10
101.6906320211
 20
66.8912486023
 10
101.7091599029
 20
66.8365854454
 10
101.7307950168
 20
66.7830742831
 10
101.7554536229
 20
66.7309246837
 10
101.7830356484
 20
66.6803509909
 10
101.8134326402
 20
66.631530374
 10
101.8465448151
 20
66.5846018472
 10
101.8822663616
 20
66.5397108937
 10
101.9204753838
 20
66.4969998186
 10
101.9610404178
 20
66.4566043517
 10
102.003831901
 20
66.4186507522
 10
102.0487044429
 20
66.3832608315
 10
102.0955091414
 20
66.3505441724
 10
102.1441037478
 20
66.3205986687
 10
102.1943324881
 20
66.2935181716
 10
102.2460256512
 20
66.2693910961
 10
102.2990138487
 20
66.2482950776
 10
102.353115448
 20
66.2302996963
 10
102.408160834
 20
66.2154579002
 10
102.4639947123
 20
66.2038114497
 10
102.5204439341
 20
66.1953996457
 10
102.5773168674
 20
66.1902545584
 10
102.6344285051
 20
66.1883957112
  0
LWPOLYLINE
  5
255
100
AcDbEntity
  8
RACCORDO
100
AcDbPolyline
 62
253
  6
CONTINUOUS
 90
28
 70
0
 10
102.1441681245
 20
67.096112781
 10
102.14502917
 20
67.0665652937
 10
102.1475204242
 20
67.0373527741
 10
102.1516418871
 20
67.0084751913
 10
102.1574177772
 20
66.9798422982
 10
102.164823876
 20
66.9515442865
 10
102.1737875279
 20
66.9238517587
 10
102.1843280985
 20
66.8967623682
 10
102.1964262221
 20
66.8702783546
 10
102.2099511464
 20
66.8446771522
 10
102.2249141343
 20
66.819976142
 10
102.241303923
 20
66.7961577974
 10
102.2589559707
 20
66.7734471531
 10
102.2778823262
 20
66.751854012
 10
102.2980709407
 20
66.7313684098
 10
102.3193211265
 20
66.7121857061
 10
102.341642819
 20
66.6943185556
 10
102.3650260827
 20
66.6777541441
 10
102.3892404233
 20
66.6626496138
 10
102.4142934856
 20
66.6490193226
 10
102.4401776248
 20
66.6368487736
 10
102.4666394125
 20
66.626251824
 10
102.4936908686
 20
66.6172434553
 10
102.5213199733
 20
66.6098085836
 10
102.5492372382
 20
66.6040159742
 10
102.577346167
 20
66.5998885303
 10
102.605743256
 20
66.5974032945
 10
102.6344285051
 20
66.5965602532
  0
LWPOLYLINE
  5
256
100
AcDbEntity
  8
ASSI
100
AcDbPolyline
 62
253
  6
CONTINUOUS
 90
28
 70
0
 10
102.1441681245
 20
67.096112781
 10
102.14502917
 20
67.0665652937
 10
102.1475204242
 20
67.0373527741
 10
102.1516418871
 20
67.0084751913
 10
102.1574177772
 20
66.9798422982
 10
102.164823876
 20
66.9515442865
 10
102.1737875279
 20
66.9238517587
 10
102.1843280985
 20
66.8967623682
 10
102.1964262221
 20
66.8702783546
 10
102.2099511464
 20
66.8446771522
 10
102.2249141343
 20
66.819976142
 10
102.241303923
 20
66.7961577974
 10
102.2589559707
 20
66.7734471531
 10
102.2778823262
 20
66.751854012
 10
102.2980709407
 20
66.7313684098
 10
102.3193211265
 20
66.7121857061
 10
102.341642819
 20
66.6943185556
 10
102.3650260827
 20
66.6777541441
 10
102.3892404233
 20
66.6626496138
 10
102.4142934856
 20
66.6490193226
 10
102.4401776248
 20
66.6368487736
 10
102.4666394125
 20
66.626251824
 10
102.4936908686
 20
66.6172434553
 10
102.5213199733
 20
66.6098085836
 10
102.5492372382
 20
66.6040159742
 10
102.577346167
 20
66.5998885303
 10
102.605743256
 20
66.5974032945
 10
102.6344285051
 20
66.5965602532
  0
LINE
  5
257
100
AcDbEntity
  8
RACCORDO
100
AcDbLine
 62
7
  6
CONTINUOUS
 10
101.4643792755
 20
66.991820514
 11
101.464378882
 21
88.516108365
  0
LINE
  5
258
100
AcDbEntity
  8
DRAFT
100
AcDbLine
 62
7
  6
CONTINUOUS
 10
101.464378882
 20
88.516108365
 11
101.464378882
 21
133.4745748648
  0
LINE
  5
259
100
AcDbEntity
  8
RACCORDO
100
AcDbLine
 62
7
  6
CONTINUOUS
 10
101.464378882
 20
133.4745748648
 11
101.4643792755
 21
154.9988627158
  0
LINE
  5
25A
100
AcDbEntity
  8
ASSI
100
AcDbLine
 62
7
  6
CONTINUOUS
 10
101.4643792755
 20
66.991820514
 11
101.4643792755
 21
154.9988627158
  0
LINE
  5
25B
100
AcDbEntity
  8
RACCORDO
100
AcDbLine
 62
253
  6
CONTINUOUS
 10
101.6431791815
 20
110.9953417467
 11
101.6461334351
 21
67.1766292661
  0
LINE
  5
25C
100
AcDbEntity
  8
ASSI
100
AcDbLine
 62
253
  6
CONTINUOUS
 10
101.6431791815
 20
110.9953417467
 11
101.6461334351
 21
67.1766292661
  0
LWPOLYLINE
  5
25D
100
AcDbEntity
  8
RACCORDO
100
AcDbPolyline
 62
253
  6
CONTINUOUS
 90
3
 70
0
 10
101.6461334351
 20
154.8140539641
 10
101.6435492023
 20
135.9499879975
 10
101.6431791815
 20
110.9953417467
  0
LWPOLYLINE
  5
25E
100
AcDbEntity
  8
ASSI
100
AcDbPolyline
 62
253
  6
CONTINUOUS
 90
3
 70
0
 10
101.6461334351
 20
154.8140539641
 10
101.6435492023
 20
135.9499879975
 10
101.6431791815
 20
110.9953417467
  0
LWPOLYLINE
  5
25F
100
AcDbEntity
  8
RACCORDO
100
AcDbPolyline
 62
7
  6
CONTINUOUS
 90
28
 70
0
 10
101.4643792755
 20
154.9988627158
 10
101.4661276053
 20
155.0585764934
 10
101.471231625
 20
155.1176231358
 10
101.4796913346
 20
155.1760027678
 10
101.4915985223
 20
155.2339843397
 10
101.5068613999
 20
155.2912991128
 10
101.5252046028
 20
155.3471408344
 10
101.5466113114
 20
155.4013453443
 10
101.5710983454
 20
155.454077363
 10
101.5984407985
 20
155.5050241617
 10
101.6286548927
 20
155.5542149539
 10
101.661724406
 20
155.6016211264
 10
101.697375767
 20
155.6468433165
 10
101.7357456822
 20
155.6899474144
 10
101.776697445
 20
155.7308681819
 10
101.8195473643
 20
155.7690096908
 10
101.8641787925
 20
155.8042123324
 10
101.9107083772
 20
155.8366364314
 10
101.9588023708
 20
155.8661660178
 10
102.0084693897
 20
155.8928176201
 10
102.0597008175
 20
155.9165752724
 10
102.1121370565
 20
155.9372742477
 10
102.1659129277
 20
155.9549180934
 10
102.2208936102
 20
155.9695036701
 10
102.276315043
 20
155.9808561944
 10
102.3319225391
 20
155.9889174818
 10
102.3879707856
 20
155.9937459371
 10
102.4444597824
 20
155.9953416149
  0
LWPOLYLINE
  5
260
100
AcDbEntity
  8
ASSI
100
AcDbPolyline
 62
7
  6
CONTINUOUS
 90
28
 70
0
 10
101.4643792755
 20
154.9988627158
 10
101.4661276053
 20
155.0585764934
 10
101.471231625
 20
155.1176231358
 10
101.4796913346
 20
155.1760027678
 10
101.4915985223
 20
155.2339843397
 10
101.5068613999
 20
155.2912991128
 10
101.5252046028
 20
155.3471408344
 10
101.5466113114
 20
155.4013453443
 10
101.5710983454
 20
155.454077363
 10
101.5984407985
 20
155.5050241617
 10
101.6286548927
 20
155.5542149539
 10
101.661724406
 20
155.6016211264
 10
101.697375767
 20
155.6468433165
 10
101.7357456822
 20
155.6899474144
 10
101.776697445
 20
155.7308681819
 10
101.8195473643
 20
155.7690096908
 10
101.8641787925
 20
155.8042123324
 10
101.9107083772
 20
155.8366364314
 10
101.9588023708
 20
155.8661660178
 10
102.0084693897
 20
155.8928176201
 10
102.0597008175
 20
155.9165752724
 10
102.1121370565
 20
155.9372742477
 10
102.1659129277
 20
155.9549180934
 10
102.2208936102
 20
155.9695036701
 10
102.276315043
 20
155.9808561944
 10
102.3319225391
 20
155.9889174818
 10
102.3879707856
 20
155.9937459371
 10
102.4444597824
 20
155.9953416149
  0
LINE
  5
261
100
AcDbEntity
  8
RACCORDO
100
AcDbLine
 62
253
  6
CONTINUOUS
 10
102.1412765305
 20
110.995341618
 11
102.1441681245
 21
67.096112781
  0
LINE
  5
262
100
AcDbEntity
  8
ASSI
100
AcDbLine
 62
253
  6
CONTINUOUS
 10
102.1412765305
 20
110.995341618
 11
102.1441681245
 21
67.096112781
  0
LINE
  5
263
100
AcDbEntity
  8
RACCORDO
100
AcDbLine
 62
253
  6
CONTINUOUS
 10
102.6344285051
 20
66.5965602532
 11
102.6344285051
 21
66.1883957112
  0
LINE
  5
264
100
AcDbEntity
  8
ASSI
100
AcDbLine
 62
253
  6
CONTINUOUS
 10
102.6344285051
 20
66.5965602532
 11
102.6344285051
 21
66.1883957112
  0
LINE
  5
265
100
AcDbEntity
  8
RACCORDO
100
AcDbLine
 62
253
  6
CONTINUOUS
 10
102.6344285051
 20
155.3941229766
 11
102.6344285048
 21
155.8022875186
  0
LINE
  5
266
100
AcDbEntity
  8
ASSI
100
AcDbLine
 62
253
  6
CONTINUOUS
 10
102.6344285051
 20
155.3941229766
 11
102.6344285048
 21
155.8022875186
  0
LWPOLYLINE
  5
267
100
AcDbEntity
  8
RACCORDO
100
AcDbPolyline
 62
253
  6
CONTINUOUS
 90
3
 70
0
 10
102.1441681245
 20
154.8945704488
 10
102.1416463949
 20
135.9793309392
 10
102.1412765305
 20
110.995341618
  0
LWPOLYLINE
  5
268
100
AcDbEntity
  8
ASSI
100
AcDbPolyline
 62
253
  6
CONTINUOUS
 90
3
 70
0
 10
102.1441681245
 20
154.8945704488
 10
102.1416463949
 20
135.9793309392
 10
102.1412765305
 20
110.995341618
  0
LWPOLYLINE
  5
269
100
AcDbEntity
  8
RACCORDO
100
AcDbPolyline
 62
253
  6
CONTINUOUS
 90
28
 70
0
 10
222.2943292589
 20
66.1883957112
 10
222.3514338861
 20
66.1902542058
 10
222.4082775802
 20
66.1953953796
 10
222.4646759499
 20
66.2037959104
 10
222.5204193896
 20
66.2154154643
 10
222.5753558057
 20
66.2302135607
 10
222.629387151
 20
66.2481651105
 10
222.6823729028
 20
66.2692362807
 10
222.7340977444
 20
66.2933538907
 10
222.7843546574
 20
66.3204260453
 10
222.8329618732
 20
66.350355831
 10
222.8797768684
 20
66.383055328
 10
222.9246603381
 20
66.4184283473
 10
222.9674641103
 20
66.4563659615
 10
223.0080420386
 20
66.4967457871
 10
223.046264893
 20
66.5394419729
 10
223.0820018027
 20
66.5843197367
 10
223.1151300917
 20
66.6312360207
 10
223.1455425352
 20
66.6800429834
 10
223.1731335066
 20
66.7305891846
 10
223.19780253
 20
66.7827088827
 10
223.21946336
 20
66.8362237945
 10
223.2380359653
 20
66.890957275
 10
223.2534535144
 20
66.9467354824
 10
223.2656643306
 20
67.0033774969
 10
223.2746214617
 20
67.0606990479
 10
223.2802840282
 20
67.1185127928
 10
223.282624329
 20
67.1766292656
  0
LWPOLYLINE
  5
26A
100
AcDbEntity
  8
ASSI
100
AcDbPolyline
 62
253
  6
CONTINUOUS
 90
28
 70
0
 10
222.2943292589
 20
66.1883957112
 10
222.3514338861
 20
66.1902542058
 10
222.4082775802
 20
66.1953953796
 10
222.4646759499
 20
66.2037959104
 10
222.5204193896
 20
66.2154154643
 10
222.5753558057
 20
66.2302135607
 10
222.629387151
 20
66.2481651105
 10
222.6823729028
 20
66.2692362807
 10
222.7340977444
 20
66.2933538907
 10
222.7843546574
 20
66.3204260453
 10
222.8329618732
 20
66.350355831
 10
222.8797768684
 20
66.383055328
 10
222.9246603381
 20
66.4184283473
 10
222.9674641103
 20
66.4563659615
 10
223.0080420386
 20
66.4967457871
 10
223.046264893
 20
66.5394419729
 10
223.0820018027
 20
66.5843197367
 10
223.1151300917
 20
66.6312360207
 10
223.1455425352
 20
66.6800429834
 10
223.1731335066
 20
66.7305891846
 10
223.19780253
 20
66.7827088827
 10
223.21946336
 20
66.8362237945
 10
223.2380359653
 20
66.890957275
 10
223.2534535144
 20
66.9467354824
 10
223.2656643306
 20
67.0033774969
 10
223.2746214617
 20
67.0606990479
 10
223.2802840282
 20
67.1185127928
 10
223.282624329
 20
67.1766292656
  0
LWPOLYLINE
  5
26B
100
AcDbEntity
  8
RACCORDO
100
AcDbPolyline
 62
253
  6
CONTINUOUS
 90
28
 70
0
 10
222.2943292589
 20
66.5965602532
 10
222.3230398883
 20
66.5974108391
 10
222.3514427645
 20
66.5998972326
 10
222.3795378875
 20
66.604019447
 10
222.407409586
 20
66.609797607
 10
222.4349735313
 20
66.6172116418
 10
222.4619767368
 20
66.6262012845
 10
222.4884254409
 20
66.6367859386
 10
222.5143134051
 20
66.648946303
 10
222.5393689277
 20
66.6625640602
 10
222.5635761827
 20
66.6776505246
 10
222.5869509962
 20
66.6941945202
 10
222.6092691444
 20
66.7120439918
 10
222.6305233569
 20
66.7312126313
 10
222.6507209043
 20
66.7516869065
 10
222.6696593746
 20
66.7732739126
 10
222.6873278525
 20
66.795986442
 10
222.7037372534
 20
66.8198118647
 10
222.7187179124
 20
66.8445191166
 10
222.7322555364
 20
66.8701177741
 10
222.7443644185
 20
66.8965984059
 10
222.7549177729
 20
66.9237014004
 10
222.763900323
 20
66.9514424475
 10
222.7713273452
 20
66.9798059683
 10
222.7771178837
 20
67.0084853984
 10
222.7812449528
 20
67.0373785559
 10
222.7837355381
 20
67.0665876738
 10
222.7845896395
 20
67.096112781
  0
LWPOLYLINE
  5
26C
100
AcDbEntity
  8
ASSI
100
AcDbPolyline
 62
253
  6
CONTINUOUS
 90
28
 70
0
 10
222.2943292589
 20
66.5965602532
 10
222.3230398883
 20
66.5974108391
 10
222.3514427645
 20
66.5998972326
 10
222.3795378875
 20
66.604019447
 10
222.407409586
 20
66.609797607
 10
222.4349735313
 20
66.6172116418
 10
222.4619767368
 20
66.6262012845
 10
222.4884254409
 20
66.6367859386
 10
222.5143134051
 20
66.648946303
 10
222.5393689277
 20
66.6625640602
 10
222.5635761827
 20
66.6776505246
 10
222.5869509962
 20
66.6941945202
 10
222.6092691444
 20
66.7120439918
 10
222.6305233569
 20
66.7312126313
 10
222.6507209043
 20
66.7516869065
 10
222.6696593746
 20
66.7732739126
 10
222.6873278525
 20
66.795986442
 10
222.7037372534
 20
66.8198118647
 10
222.7187179124
 20
66.8445191166
 10
222.7322555364
 20
66.8701177741
 10
222.7443644185
 20
66.8965984059
 10
222.7549177729
 20
66.9237014004
 10
222.763900323
 20
66.9514424475
 10
222.7713273452
 20
66.9798059683
 10
222.7771178837
 20
67.0084853984
 10
222.7812449528
 20
67.0373785559
 10
222.7837355381
 20
67.0665876738
 10
222.7845896395
 20
67.096112781
  0
LWPOLYLINE
  5
26D
100
AcDbEntity
  8
RACCORDO
100
AcDbPolyline
 62
253
  6
CONTINUOUS
 90
19
 70
0
 10
222.7845896395
 20
67.0961127946
 10
222.8257126814
 20
67.096404495
 10
222.8665570778
 20
67.0972935274
 10
222.9068460714
 20
67.0987738677
 10
222.946306668
 20
67.1008354854
 10
222.9846714867
 20
67.1034644112
 10
223.0216805715
 20
67.1066428317
 10
223.0570831527
 20
67.1103492102
 10
223.0906393459
 20
67.1145584327
 10
223.122121778
 20
67.119241978
 10
223.1513171271
 20
67.1243681109
 10
223.1780275687
 20
67.1299020971
 10
223.2020721154
 20
67.1358064391
 10
223.2232878441
 20
67.1420411295
 10
223.241530999
 20
67.1485639227
 10
223.2566779665
 20
67.1553306211
 10
223.2686261122
 20
67.162295374
 10
223.2772944767
 20
67.1694109891
 10
223.2826243242
 20
67.1766292518
  0
LWPOLYLINE
  5
26E
100
AcDbEntity
  8
ASSI
100
AcDbPolyline
 62
253
  6
CONTINUOUS
 90
19
 70
0
 10
222.7845896395
 20
67.0961127946
 10
222.8257126814
 20
67.096404495
 10
222.8665570778
 20
67.0972935274
 10
222.9068460714
 20
67.0987738677
 10
222.946306668
 20
67.1008354854
 10
222.9846714867
 20
67.1034644112
 10
223.0216805715
 20
67.1066428317
 10
223.0570831527
 20
67.1103492102
 10
223.0906393459
 20
67.1145584327
 10
223.122121778
 20
67.119241978
 10
223.1513171271
 20
67.1243681109
 10
223.1780275687
 20
67.1299020971
 10
223.2020721154
 20
67.1358064391
 10
223.2232878441
 20
67.1420411295
 10
223.241530999
 20
67.1485639227
 10
223.2566779665
 20
67.1553306211
 10
223.2686261122
 20
67.162295374
 10
223.2772944767
 20
67.1694109891
 10
223.2826243242
 20
67.1766292518
  0
LINE
  5
26F
100
AcDbEntity
  8
RACCORDO
100
AcDbLine
 62
7
  6
CONTINUOUS
 10
102.4444597824
 20
65.9953416149
 11
222.4842979816
 21
65.9953416149
  0
LINE
  5
270
100
AcDbEntity
  8
ASSI
100
AcDbLine
 62
7
  6
CONTINUOUS
 10
102.4444597824
 20
65.9953416149
 11
222.4842979816
 21
65.9953416149
  0
LINE
  5
271
100
AcDbEntity
  8
RACCORDO
100
AcDbLine
 62
253
  6
CONTINUOUS
 10
102.6344285051
 20
66.1883957112
 11
222.2943292589
 21
66.1883957112
  0
LINE
  5
272
100
AcDbEntity
  8
ASSI
100
AcDbLine
 62
253
  6
CONTINUOUS
 10
102.6344285051
 20
66.1883957112
 11
222.2943292589
 21
66.1883957112
  0
LINE
  5
273
100
AcDbEntity
  8
RACCORDO
100
AcDbLine
 62
253
  6
CONTINUOUS
 10
102.6344285051
 20
66.5965602532
 11
222.2943292589
 21
66.5965602532
  0
LINE
  5
274
100
AcDbEntity
  8
ASSI
100
AcDbLine
 62
253
  6
CONTINUOUS
 10
102.6344285051
 20
66.5965602532
 11
222.2943292589
 21
66.5965602532
  0
LWPOLYLINE
  5
275
100
AcDbEntity
  8
RACCORDO
100
AcDbPolyline
 62
253
  6
CONTINUOUS
 90
19
 70
0
 10
102.1441681245
 20
67.0961127864
 10
102.1030454232
 20
67.0964045137
 10
102.062201389
 20
67.0972935697
 10
102.0219127745
 20
67.0987739306
 10
101.9824525685
 20
67.1008355657
 10
101.9440881469
 20
67.1034645057
 10
101.9070794608
 20
67.1066429374
 10
101.8716772748
 20
67.1103493243
 10
101.8381214685
 20
67.1145585525
 10
101.8066394103
 20
67.119242101
 10
101.7774444176
 20
67.1243682347
 10
101.7507343108
 20
67.12990222
 10
101.7266900731
 20
67.1358065592
 10
101.7054746244
 20
67.1420412456
 10
101.6872317171
 20
67.1485640338
 10
101.672084962
 20
67.1553307265
 10
101.6601369912
 20
67.1622954735
 10
101.651468762
 20
67.1694110829
 10
101.6461390091
 20
67.1766293404
  0
LWPOLYLINE
  5
276
100
AcDbEntity
  8
ASSI
100
AcDbPolyline
 62
253
  6
CONTINUOUS
 90
19
 70
0
 10
102.1441681245
 20
67.0961127864
 10
102.1030454232
 20
67.0964045137
 10
102.062201389
 20
67.0972935697
 10
102.0219127745
 20
67.0987739306
 10
101.9824525685
 20
67.1008355657
 10
101.9440881469
 20
67.1034645057
 10
101.9070794608
 20
67.1066429374
 10
101.8716772748
 20
67.1103493243
 10
101.8381214685
 20
67.1145585525
 10
101.8066394103
 20
67.119242101
 10
101.7774444176
 20
67.1243682347
 10
101.7507343108
 20
67.12990222
 10
101.7266900731
 20
67.1358065592
 10
101.7054746244
 20
67.1420412456
 10
101.6872317171
 20
67.1485640338
 10
101.672084962
 20
67.1553307265
 10
101.6601369912
 20
67.1622954735
 10
101.651468762
 20
67.1694110829
 10
101.6461390091
 20
67.1766293404
  0
LWPOLYLINE
  5
277
100
AcDbEntity
  8
RACCORDO
100
AcDbPolyline
 62
7
  6
CONTINUOUS
 90
28
 70
0
 10
102.4444597824
 20
65.9953416149
 10
102.3879473932
 20
65.9969435727
 10
102.3318921864
 20
66.0017732385
 10
102.2762941619
 20
66.0098306668
 10
102.2209073971
 20
66.0211726677
 10
102.1659778148
 20
66.0357426509
 10
102.1122431825
 20
66.0533706161
 10
102.0598294321
 20
66.0740532133
 10
102.0086106317
 20
66.0977942003
 10
101.9589467542
 20
66.1244342655
 10
101.9108424734
 20
66.1539613034
 10
101.8642931154
 20
66.1863879832
 10
101.8196446304
 20
66.2215921718
 10
101.7767847626
 20
66.2597325646
 10
101.7358257679
 20
66.3006511816
 10
101.6974503639
 20
66.3437508173
 10
101.661796254
 20
66.3889637792
 10
101.6287257348
 20
66.4363584106
 10
101.598508414
 20
66.4855414338
 10
101.5711589745
 20
66.5364834748
 10
101.5466627334
 20
66.5892145089
 10
101.5252452491
 20
66.6434301779
 10
101.5068878588
 20
66.6993063853
 10
101.4916092253
 20
66.7566677941
 10
101.4796908955
 20
66.8146829776
 10
101.4712267184
 20
66.8730748021
 10
101.4661228451
 20
66.9321206069
 10
101.4643792755
 20
66.991820514
  0
LWPOLYLINE
  5
278
100
AcDbEntity
  8
ASSI
100
AcDbPolyline
 62
7
  6
CONTINUOUS
 90
28
 70
0
 10
102.4444597824
 20
65.9953416149
 10
102.3879473932
 20
65.9969435727
 10
102.3318921864
 20
66.0017732385
 10
102.2762941619
 20
66.0098306668
 10
102.2209073971
 20
66.0211726677
 10
102.1659778148
 20
66.0357426509
 10
102.1122431825
 20
66.0533706161
 10
102.0598294321
 20
66.0740532133
 10
102.0086106317
 20
66.0977942003
 10
101.9589467542
 20
66.1244342655
 10
101.9108424734
 20
66.1539613034
 10
101.8642931154
 20
66.1863879832
 10
101.8196446304
 20
66.2215921718
 10
101.7767847626
 20
66.2597325646
 10
101.7358257679
 20
66.3006511816
 10
101.6974503639
 20
66.3437508173
 10
101.661796254
 20
66.3889637792
 10
101.6287257348
 20
66.4363584106
 10
101.598508414
 20
66.4855414338
 10
101.5711589745
 20
66.5364834748
 10
101.5466627334
 20
66.5892145089
 10
101.5252452491
 20
66.6434301779
 10
101.5068878588
 20
66.6993063853
 10
101.4916092253
 20
66.7566677941
 10
101.4796908955
 20
66.8146829776
 10
101.4712267184
 20
66.8730748021
 10
101.4661228451
 20
66.9321206069
 10
101.4643792755
 20
66.991820514
  0
LWPOLYLINE
  5
279
100
AcDbEntity
  8
RACCORDO
100
AcDbPolyline
 62
253
  6
CONTINUOUS
 90
19
 70
0
 10
139.4518805908
 20
133.6001571735
 10
139.4930106851
 20
133.6565581076
 10
139.5369527051
 20
133.7104823626
 10
139.5837066508
 20
133.761930054
 10
139.6334294611
 20
133.8110664055
 10
139.6859641972
 20
133.8577264074
 10
139.7408400421
 20
133.9014148403
 10
139.7980861021
 20
133.9420948365
 10
139.857673271
 20
133.9798034926
 10
139.9190434132
 20
134.0141565602
 10
139.9822496018
 20
134.0451175734
 10
140.0472387637
 20
134.0727232028
 10
140.1132935436
 20
134.0966989111
 10
140.1804353655
 20
134.1169805724
 10
140.2486428054
 20
134.1336324655
 10
140.3171342357
 20
134.1465726507
 10
140.3856491141
 20
134.1557738414
 10
140.4544479828
 20
134.1612634029
 10
140.5235308421
 20
134.1630413547
  0
LWPOLYLINE
  5
27A
100
AcDbEntity
  8
ASSI
100
AcDbPolyline
 62
253
  6
CONTINUOUS
 90
19
 70
0
 10
139.4518805908
 20
133.6001571735
 10
139.4930106851
 20
133.6565581076
 10
139.5369527051
 20
133.7104823626
 10
139.5837066508
 20
133.761930054
 10
139.6334294611
 20
133.8110664055
 10
139.6859641972
 20
133.8577264074
 10
139.7408400421
 20
133.9014148403
 10
139.7980861021
 20
133.9420948365
 10
139.857673271
 20
133.9798034926
 10
139.9190434132
 20
134.0141565602
 10
139.9822496018
 20
134.0451175734
 10
140.0472387637
 20
134.0727232028
 10
140.1132935436
 20
134.0966989111
 10
140.1804353655
 20
134.1169805724
 10
140.2486428054
 20
134.1336324655
 10
140.3171342357
 20
134.1465726507
 10
140.3856491141
 20
134.1557738414
 10
140.4544479828
 20
134.1612634029
 10
140.5235308421
 20
134.1630413547
  0
LWPOLYLINE
  5
27B
100
AcDbEntity
  8
RACCORDO
100
AcDbPolyline
 62
253
  6
CONTINUOUS
 90
19
 70
0
 10
139.8629269867
 20
133.2926998975
 10
139.888230934
 20
133.3271840125
 10
139.9153961391
 20
133.3603172446
 10
139.9443530697
 20
133.3919975482
 10
139.9750299217
 20
133.4221285589
 10
140.0073427061
 20
133.4506128461
 10
140.0411939895
 20
133.4773538521
 10
140.0764991643
 20
133.502271933
 10
140.1131534823
 20
133.5252810711
 10
140.1510173321
 20
133.546289349
 10
140.1899985383
 20
133.5652407074
 10
140.2299684136
 20
133.5820679382
 10
140.270717961
 20
133.5966911093
 10
140.3121276274
 20
133.6090805825
 10
140.3540704827
 20
133.6192114254
 10
140.3963151895
 20
133.6270519644
 10
140.4386994363
 20
133.6326059735
 10
140.4811348244
 20
133.6358939472
 10
140.5235000787
 20
133.6369361315
  0
LWPOLYLINE
  5
27C
100
AcDbEntity
  8
ASSI
100
AcDbPolyline
 62
253
  6
CONTINUOUS
 90
19
 70
0
 10
139.8629269867
 20
133.2926998975
 10
139.888230934
 20
133.3271840125
 10
139.9153961391
 20
133.3603172446
 10
139.9443530697
 20
133.3919975482
 10
139.9750299217
 20
133.4221285589
 10
140.0073427061
 20
133.4506128461
 10
140.0411939895
 20
133.4773538521
 10
140.0764991643
 20
133.502271933
 10
140.1131534823
 20
133.5252810711
 10
140.1510173321
 20
133.546289349
 10
140.1899985383
 20
133.5652407074
 10
140.2299684136
 20
133.5820679382
 10
140.270717961
 20
133.5966911093
 10
140.3121276274
 20
133.6090805825
 10
140.3540704827
 20
133.6192114254
 10
140.3963151895
 20
133.6270519644
 10
140.4386994363
 20
133.6326059735
 10
140.4811348244
 20
133.6358939472
 10
140.5235000787
 20
133.6369361315
  0
LWPOLYLINE
  5
27D
100
AcDbEntity
  8
RACCORDO
100
AcDbPolyline
 62
253
  6
CONTINUOUS
 90
13
 70
0
 10
139.8629269867
 20
88.6979833323
 10
139.8409828151
 20
88.7313979332
 10
139.8206590845
 20
88.7660259482
 10
139.8020304413
 20
88.8017934749
 10
139.785133961
 20
88.8387018896
 10
139.770080642
 20
88.8765908953
 10
139.7570137143
 20
88.9151223808
 10
139.7459568554
 20
88.9541877334
 10
139.736924607
 20
88.9936871691
 10
139.7299646122
 20
89.0332724257
 10
139.7250539322
 20
89.0727530852
 10
139.7221400222
 20
89.1121059323
 10
139.7211816809
 20
89.1512315347
  0
LWPOLYLINE
  5
27E
100
AcDbEntity
  8
ASSI
100
AcDbPolyline
 62
253
  6
CONTINUOUS
 90
13
 70
0
 10
139.8629269867
 20
88.6979833323
 10
139.8409828151
 20
88.7313979332
 10
139.8206590845
 20
88.7660259482
 10
139.8020304413
 20
88.8017934749
 10
139.785133961
 20
88.8387018896
 10
139.770080642
 20
88.8765908953
 10
139.7570137143
 20
88.9151223808
 10
139.7459568554
 20
88.9541877334
 10
139.736924607
 20
88.9936871691
 10
139.7299646122
 20
89.0332724257
 10
139.7250539322
 20
89.0727530852
 10
139.7221400222
 20
89.1121059323
 10
139.7211816809
 20
89.1512315347
  0
LWPOLYLINE
  5
27F
100
AcDbEntity
  8
RACCORDO
100
AcDbPolyline
 62
253
  6
CONTINUOUS
 90
13
 70
0
 10
139.4518805908
 20
88.3905260563
 10
139.4161601553
 20
88.4450113622
 10
139.3832765965
 20
88.5012546223
 10
139.3532299145
 20
88.5592558687
 10
139.3258856354
 20
88.619311263
 10
139.301378233
 20
88.6811247146
 10
139.2801111287
 20
88.7438078609
 10
139.2622000211
 20
88.8073666707
 10
139.2475292116
 20
88.8717952089
 10
139.236155026
 20
88.9361872203
 10
139.2280962397
 20
89.0002406096
 10
139.2233340775
 20
89.0642574637
 10
139.2218685391
 20
89.1282377803
  0
LWPOLYLINE
  5
280
100
AcDbEntity
  8
ASSI
100
AcDbPolyline
 62
253
  6
CONTINUOUS
 90
13
 70
0
 10
139.4518805908
 20
88.3905260563
 10
139.4161601553
 20
88.4450113622
 10
139.3832765965
 20
88.5012546223
 10
139.3532299145
 20
88.5592558687
 10
139.3258856354
 20
88.619311263
 10
139.301378233
 20
88.6811247146
 10
139.2801111287
 20
88.7438078609
 10
139.2622000211
 20
88.8073666707
 10
139.2475292116
 20
88.8717952089
 10
139.236155026
 20
88.9361872203
 10
139.2280962397
 20
89.0002406096
 10
139.2233340775
 20
89.0642574637
 10
139.2218685391
 20
89.1282377803
  0
LWPOLYLINE
  5
281
100
AcDbEntity
  8
RACCORDO
100
AcDbPolyline
 62
253
  6
CONTINUOUS
 90
13
 70
0
 10
139.2218685391
 20
132.8624454495
 10
139.2232794736
 20
132.925806376
 10
139.2279654011
 20
132.9893108763
 10
139.2359263215
 20
133.0529589462
 10
139.2471589881
 20
133.1170403082
 10
139.2616666477
 20
133.1812652273
 10
139.2794590405
 20
133.2447645306
 10
139.3006628092
 20
133.3075680684
 10
139.3251513112
 20
133.3696460178
 10
139.352554359
 20
133.4300397346
 10
139.382748557
 20
133.488429701
 10
139.4158573009
 20
133.5451355036
 10
139.4518805908
 20
133.6001571735
  0
LWPOLYLINE
  5
282
100
AcDbEntity
  8
ASSI
100
AcDbPolyline
 62
253
  6
CONTINUOUS
 90
13
 70
0
 10
139.2218685391
 20
132.8624454495
 10
139.2232794736
 20
132.925806376
 10
139.2279654011
 20
132.9893108763
 10
139.2359263215
 20
133.0529589462
 10
139.2471589881
 20
133.1170403082
 10
139.2616666477
 20
133.1812652273
 10
139.2794590405
 20
133.2447645306
 10
139.3006628092
 20
133.3075680684
 10
139.3251513112
 20
133.3696460178
 10
139.352554359
 20
133.4300397346
 10
139.382748557
 20
133.488429701
 10
139.4158573009
 20
133.5451355036
 10
139.4518805908
 20
133.6001571735
  0
LWPOLYLINE
  5
283
100
AcDbEntity
  8
RACCORDO
100
AcDbPolyline
 62
7
  6
CONTINUOUS
 90
19
 70
0
 10
140.3151943002
 20
133.4871330957
 10
140.2671498094
 20
133.4659712982
 10
140.220783192
 20
133.441763261
 10
140.176094448
 20
133.4145089593
 10
140.132814264
 20
133.3840249242
 10
140.0912119534
 20
133.3504945645
 10
140.0520954567
 20
133.3144681733
 10
140.0155609697
 20
133.275887965
 10
139.9815122966
 20
133.2348116629
 10
139.9504687912
 20
133.1919628373
 10
139.9225506855
 20
133.1474598428
 10
139.8976377474
 20
133.1011842752
 10
139.8758886347
 20
133.0535045808
 10
139.8572737428
 20
133.0042546717
 10
139.8418226763
 20
132.9536005902
 10
139.8297829072
 20
132.9024089977
 10
139.821236926
 20
132.8509687821
 10
139.8161022422
 20
132.798991042
 10
139.8143788558
 20
132.7464757689
  0
LWPOLYLINE
  5
284
100
AcDbEntity
  8
ASSI
100
AcDbPolyline
 62
7
  6
CONTINUOUS
 90
19
 70
0
 10
140.3151943002
 20
133.4871330957
 10
140.2671498094
 20
133.4659712982
 10
140.220783192
 20
133.441763261
 10
140.176094448
 20
133.4145089593
 10
140.132814264
 20
133.3840249242
 10
140.0912119534
 20
133.3504945645
 10
140.0520954567
 20
133.3144681733
 10
140.0155609697
 20
133.275887965
 10
139.9815122966
 20
133.2348116629
 10
139.9504687912
 20
133.1919628373
 10
139.9225506855
 20
133.1474598428
 10
139.8976377474
 20
133.1011842752
 10
139.8758886347
 20
133.0535045808
 10
139.8572737428
 20
133.0042546717
 10
139.8418226763
 20
132.9536005902
 10
139.8297829072
 20
132.9024089977
 10
139.821236926
 20
132.8509687821
 10
139.8161022422
 20
132.798991042
 10
139.8143788558
 20
132.7464757689
  0
LWPOLYLINE
  5
285
100
AcDbEntity
  8
RACCORDO
100
AcDbPolyline
 62
7
  6
CONTINUOUS
 90
7
 70
0
 10
140.3151943002
 20
88.5035501341
 10
140.3638899903
 20
88.4857944459
 10
140.4131184002
 20
88.4712605126
 10
140.4628795299
 20
88.4599482913
 10
140.5131733794
 20
88.451857749
 10
140.5639999487
 20
88.4469888616
 10
140.6153592378
 20
88.4453416149
  0
LWPOLYLINE
  5
286
100
AcDbEntity
  8
ASSI
100
AcDbPolyline
 62
7
  6
CONTINUOUS
 90
7
 70
0
 10
140.3151943002
 20
88.5035501341
 10
140.3638899903
 20
88.4857944459
 10
140.4131184002
 20
88.4712605126
 10
140.4628795299
 20
88.4599482913
 10
140.5131733794
 20
88.451857749
 10
140.5639999487
 20
88.4469888616
 10
140.6153592378
 20
88.4453416149
  0
LWPOLYLINE
  5
287
100
AcDbEntity
  8
RACCORDO
100
AcDbPolyline
 62
7
  6
CONTINUOUS
 90
19
 70
0
 10
139.8143788558
 20
89.2442074609
 10
139.8160933692
 20
89.1917289893
 10
139.8212244898
 20
89.1397691118
 10
139.8297722175
 20
89.0883278202
 10
139.841822981
 20
89.0371035028
 10
139.8572903516
 20
88.9863977585
 10
139.8759150435
 20
88.9371153809
 10
139.8976611373
 20
88.8894429214
 10
139.9225645525
 20
88.8431937821
 10
139.9504737619
 20
88.7987130126
 10
139.9815113528
 20
88.7558735797
 10
140.015554738
 20
88.7148024672
 10
140.0520846292
 20
88.6762257374
 10
140.0911963644
 20
88.6402019666
 10
140.1327946057
 20
88.6066725161
 10
140.1760740502
 20
88.5761876121
 10
140.2207662636
 20
88.5489306412
 10
140.2671396803
 20
88.5247181568
 10
140.3151943002
 20
88.5035501341
  0
LWPOLYLINE
  5
288
100
AcDbEntity
  8
ASSI
100
AcDbPolyline
 62
7
  6
CONTINUOUS
 90
19
 70
0
 10
139.8143788558
 20
89.2442074609
 10
139.8160933692
 20
89.1917289893
 10
139.8212244898
 20
89.1397691118
 10
139.8297722175
 20
89.0883278202
 10
139.841822981
 20
89.0371035028
 10
139.8572903516
 20
88.9863977585
 10
139.8759150435
 20
88.9371153809
 10
139.8976611373
 20
88.8894429214
 10
139.9225645525
 20
88.8431937821
 10
139.9504737619
 20
88.7987130126
 10
139.9815113528
 20
88.7558735797
 10
140.015554738
 20
88.7148024672
 10
140.0520846292
 20
88.6762257374
 10
140.0911963644
 20
88.6402019666
 10
140.1327946057
 20
88.6066725161
 10
140.1760740502
 20
88.5761876121
 10
140.2207662636
 20
88.5489306412
 10
140.2671396803
 20
88.5247181568
 10
140.3151943002
 20
88.5035501341
  0
LINE
  5
289
100
AcDbEntity
  8
RACCORDO
100
AcDbLine
 62
253
  6
CONTINUOUS
 10
139.2218685391
 20
89.1282377803
 11
139.2218685391
 21
132.8624454495
  0
LINE
  5
28A
100
AcDbEntity
  8
ASSI
100
AcDbLine
 62
253
  6
CONTINUOUS
 10
139.2218685391
 20
89.1282377803
 11
139.2218685391
 21
132.8624454495
  0
LINE
  5
28B
100
AcDbEntity
  8
RACCORDO
100
AcDbLine
 62
253
  6
CONTINUOUS
 10
139.7211816591
 20
89.1512315132
 11
139.7211816667
 21
132.8394398314
  0
LINE
  5
28C
100
AcDbEntity
  8
ASSI
100
AcDbLine
 62
253
  6
CONTINUOUS
 10
139.7211816591
 20
89.1512315132
 11
139.7211816667
 21
132.8394398314
  0
LINE
  5
28D
100
AcDbEntity
  8
RACCORDO
100
AcDbLine
 62
7
  6
CONTINUOUS
 10
139.8143788558
 20
132.7464757689
 11
139.8143788558
 21
89.2442074609
  0
LINE
  5
28E
100
AcDbEntity
  8
ASSI
100
AcDbLine
 62
7
  6
CONTINUOUS
 10
139.8143788558
 20
132.7464757689
 11
139.8143788558
 21
89.2442074609
  0
LINE
  5
28F
100
AcDbEntity
  8
RACCORDO
100
AcDbLine
 62
253
  6
CONTINUOUS
 10
140.5235308421
 20
134.1630413547
 11
140.5235308421
 21
133.6369360799
  0
LINE
  5
290
100
AcDbEntity
  8
ASSI
100
AcDbLine
 62
253
  6
CONTINUOUS
 10
140.5235308421
 20
134.1630413547
 11
140.5235308421
 21
133.6369360799
  0
LINE
  5
291
100
AcDbEntity
  8
RACCORDO
100
AcDbLine
 62
253
  6
CONTINUOUS
 10
140.5235308421
 20
87.8276418751
 11
140.5235308421
 21
88.3537471499
  0
LINE
  5
292
100
AcDbEntity
  8
ASSI
100
AcDbLine
 62
253
  6
CONTINUOUS
 10
140.5235308421
 20
87.8276418751
 11
140.5235308421
 21
88.3537471499
  0
LWPOLYLINE
  5
293
100
AcDbEntity
  8
RACCORDO
100
AcDbPolyline
 62
253
  6
CONTINUOUS
 90
13
 70
0
 10
139.721181678
 20
132.8394398202
 10
139.7221233838
 20
132.8782384285
 10
139.7249931198
 20
132.9173141856
 10
139.7298389505
 20
132.9565692366
 10
139.7367176179
 20
132.9959679023
 10
139.7456607247
 20
133.0353337004
 10
139.7566405874
 20
133.0743570766
 10
139.769664754
 20
133.1129591412
 10
139.7847161601
 20
133.1510017222
 10
139.8016487907
 20
133.1881082717
 10
139.8203527653
 20
133.2241032268
 10
139.8408018022
 20
133.2589937035
 10
139.8629269867
 20
133.2926998975
  0
LWPOLYLINE
  5
294
100
AcDbEntity
  8
ASSI
100
AcDbPolyline
 62
253
  6
CONTINUOUS
 90
13
 70
0
 10
139.721181678
 20
132.8394398202
 10
139.7221233838
 20
132.8782384285
 10
139.7249931198
 20
132.9173141856
 10
139.7298389505
 20
132.9565692366
 10
139.7367176179
 20
132.9959679023
 10
139.7456607247
 20
133.0353337004
 10
139.7566405874
 20
133.0743570766
 10
139.769664754
 20
133.1129591412
 10
139.7847161601
 20
133.1510017222
 10
139.8016487907
 20
133.1881082717
 10
139.8203527653
 20
133.2241032268
 10
139.8408018022
 20
133.2589937035
 10
139.8629269867
 20
133.2926998975
  0
LWPOLYLINE
  5
295
100
AcDbEntity
  8
SCRITTE
100
AcDbPolyline
 62
253
  6
CONTINUOUS
 90
36
 70
0
 10
165.7843976843
 20
84.8845342739
 10
165.8281652029
 20
84.8908775377
 10
165.8712515511
 20
84.8969239434
 10
165.9136391111
 20
84.9026629802
 10
165.9553102652
 20
84.9080841372
 10
165.9962473955
 20
84.9131769034
 10
166.0364453234
 20
84.9179331032
 10
166.0759486259
 20
84.9223539016
 10
166.1148143189
 20
84.9264427988
 10
166.1530994186
 20
84.9302032949
 10
166.1908609408
 20
84.9336388901
 10
166.2374055112
 20
84.9374804596
 10
166.2832849663
 20
84.9408184873
 10
166.328563193
 20
84.94365162
 10
166.3733040782
 20
84.9459785043
 10
166.4175748448
 20
84.9477961519
 10
166.46145606
 20
84.9490950341
 10
166.5050316268
 20
84.9498639868
 10
166.5483854485
 20
84.9500918463
 10
166.6059658723
 20
84.9495341778
 10
166.6633516092
 20
84.9479653479
 10
166.7205930247
 20
84.9453559855
 10
166.7634552616
 20
84.9426916807
 10
166.8062594257
 20
84.9393725735
 10
166.8490002942
 20
84.9353456824
 10
166.8916726444
 20
84.9305580256
 10
166.9257541787
 20
84.9261411339
 10
166.9597648266
 20
84.9211558498
 10
166.993680896
 20
84.9155545793
 10
167.0274786946
 20
84.9092897283
 10
167.0611345302
 20
84.9023137026
 10
167.0946260889
 20
84.8945785689
 10
167.1279365694
 20
84.8860350362
 10
167.1610505487
 20
84.8766334743
 10
167.1939526038
 20
84.8663242528
 10
167.2266273117
 20
84.8550577414
  0
LWPOLYLINE
  5
296
100
AcDbEntity
  8
SCRITTE
100
AcDbPolyline
 62
253
  6
CONTINUOUS
 90
56
 70
0
 10
166.6810595252
 20
83.6717135283
 10
166.6973064401
 20
83.6722166525
 10
166.7136574233
 20
83.673019745
 10
166.7301338347
 20
83.6741490366
 10
166.746757034
 20
83.6756307579
 10
166.7635338267
 20
83.6774909564
 10
166.7804128009
 20
83.679754948
 10
166.7973279905
 20
83.6824478655
 10
166.8142134292
 20
83.6855948419
 10
166.827654956
 20
83.6884544079
 10
166.8409950034
 20
83.6916225639
 10
166.8541933508
 20
83.6951012173
 10
166.8672097776
 20
83.6988922754
 10
166.8800040634
 20
83.7029976455
 10
166.8925402608
 20
83.7074189099
 10
166.904799515
 20
83.71215635
 10
166.9167672444
 20
83.7172099221
 10
166.9284288676
 20
83.7225795824
 10
166.939769803
 20
83.7282652873
 10
166.9489669427
 20
83.7332456226
 10
166.9579339183
 20
83.7384505159
 10
166.9666733915
 20
83.7438850806
 10
166.9751870941
 20
83.7495548247
 10
166.9834730381
 20
83.7554668358
 10
166.9915283058
 20
83.7616285967
 10
166.9993504646
 20
83.7680456624
 10
167.0069390233
 20
83.7747158783
 10
167.0142939758
 20
83.7816351621
 10
167.0214159604
 20
83.7887982248
 10
167.0283081922
 20
83.7961949488
 10
167.0349745304
 20
83.8038140097
 10
167.0426817378
 20
83.8132376989
 10
167.0500779675
 20
83.8229653367
 10
167.0571719714
 20
83.8329970136
 10
167.0639725013
 20
83.8433328203
 10
167.070488309
 20
83.8539728476
 10
167.0767259454
 20
83.8649161012
 10
167.0826831588
 20
83.8761572463
 10
167.0883554964
 20
83.8876898633
 10
167.0937385055
 20
83.8995075325
 10
167.0988277336
 20
83.9116038343
 10
167.1036175938
 20
83.9239675875
 10
167.1080979634
 20
83.9365685649
 10
167.1122575852
 20
83.9493717778
 10
167.1160852024
 20
83.9623422376
 10
167.119569558
 20
83.9754449556
 10
167.1227013248
 20
83.9886444765
 10
167.125478895
 20
84.0019034786
 10
167.1279025904
 20
84.0151841735
 10
167.1299727329
 20
84.0284487728
 10
167.1316896445
 20
84.0416594882
 10
167.1330539899
 20
84.054786935
 10
167.1340678054
 20
84.0678353431
 10
167.13473347
 20
84.0808173462
 10
167.1350533629
 20
84.0937455781
 10
167.1350298631
 20
84.1066326723
  0
LINE
  5
297
100
AcDbEntity
  8
SCRITTE
100
AcDbLine
 62
253
  6
CONTINUOUS
 10
167.8235270939
 20
82.1175402605
 11
167.2613945039
 21
82.1175402605
  0
LINE
  5
298
100
AcDbEntity
  8
SCRITTE
100
AcDbLine
 62
253
  6
CONTINUOUS
 10
166.3664542269
 20
82.1175402605
 11
165.7843976843
 21
82.1175402605
  0
LINE
  5
299
100
AcDbEntity
  8
SCRITTE
100
AcDbLine
 62
253
  6
CONTINUOUS
 10
160.064501882
 20
82.1175406149
 11
159.480093882
 21
82.1175406149
  0
LINE
  5
29A
100
AcDbEntity
  8
SCRITTE
100
AcDbLine
 62
253
  6
CONTINUOUS
 10
157.848271882
 20
82.1175406149
 11
158.363281882
 21
82.1175406149
  0
LINE
  5
29B
100
AcDbEntity
  8
SCRITTE
100
AcDbLine
 62
253
  6
CONTINUOUS
 10
160.379106882
 20
82.1175406149
 11
160.938195882
 21
82.1175406149
  0
LINE
  5
29C
100
AcDbEntity
  8
SCRITTE
100
AcDbLine
 62
253
  6
CONTINUOUS
 10
161.749891882
 20
82.1175406149
 11
161.831854882
 21
82.1175406149
  0
LINE
  5
29D
100
AcDbEntity
  8
SCRITTE
100
AcDbLine
 62
253
  6
CONTINUOUS
 10
162.646784882
 20
82.1175406149
 11
163.218490882
 21
82.1175406149
  0
LINE
  5
29E
100
AcDbEntity
  8
SCRITTE
100
AcDbLine
 62
253
  6
CONTINUOUS
 10
163.310258882
 20
82.1175406149
 11
163.888325882
 21
82.1175406149
  0
LINE
  5
29F
100
AcDbEntity
  8
SCRITTE
100
AcDbLine
 62
253
  6
CONTINUOUS
 10
164.996844882
 20
82.1175406149
 11
165.612786882
 21
82.1175406149
  0
LINE
  5
2A0
100
AcDbEntity
  8
SCRITTE
100
AcDbLine
 62
253
  6
CONTINUOUS
 10
164.049585882
 20
82.6764606149
 11
164.845452882
 21
82.6764606149
  0
LINE
  5
2A1
100
AcDbEntity
  8
SCRITTE
100
AcDbLine
 62
253
  6
CONTINUOUS
 10
164.728658882
 20
83.1089506149
 11
164.169129882
 21
83.1089506149
  0
LINE
  5
2A2
100
AcDbEntity
  8
SCRITTE
100
AcDbLine
 62
253
  6
CONTINUOUS
 10
166.6797998443
 20
83.2131896901
 11
166.3664542269
 21
83.2131896901
  0
LINE
  5
2A3
100
AcDbEntity
  8
SCRITTE
100
AcDbLine
 62
253
  6
CONTINUOUS
 10
166.3470761361
 20
83.6717135283
 11
166.6810595252
 21
83.6717135283
  0
LINE
  5
2A4
100
AcDbEntity
  8
SCRITTE
100
AcDbLine
 62
253
  6
CONTINUOUS
 10
164.753768882
 20
84.9172436149
 11
164.188423882
 21
84.9172436149
  0
LINE
  5
2A5
100
AcDbEntity
  8
SCRITTE
100
AcDbLine
 62
253
  6
CONTINUOUS
 10
162.956686882
 20
84.9172436149
 11
162.378472882
 21
84.9172436149
  0
LINE
  5
2A6
100
AcDbEntity
  8
SCRITTE
100
AcDbLine
 62
253
  6
CONTINUOUS
 10
161.215828882
 20
84.9172436149
 11
160.631903882
 21
84.9172436149
  0
LINE
  5
2A7
100
AcDbEntity
  8
SCRITTE
100
AcDbLine
 62
253
  6
CONTINUOUS
 10
159.263218882
 20
84.9172436149
 11
158.679209882
 21
84.9172436149
  0
LINE
  5
2A8
100
AcDbEntity
  8
SCRITTE
100
AcDbLine
 62
253
  6
CONTINUOUS
 10
157.595558882
 20
84.9172436149
 11
156.960710882
 21
84.9172436149
  0
LINE
  5
2A9
100
AcDbEntity
  8
SCRITTE
100
AcDbLine
 62
253
  6
CONTINUOUS
 10
159.480093882
 20
84.9174116149
 11
160.064501882
 21
84.9174116149
  0
LWPOLYLINE
  5
2AA
100
AcDbEntity
  8
RACCORDO
100
AcDbPolyline
 62
253
  6
CONTINUOUS
 90
19
 70
0
 10
140.5235308421
 20
87.8276418751
 10
140.4545783829
 20
87.8294328501
 10
140.3859770202
 20
87.8348907873
 10
140.3177267539
 20
87.844015706
 10
140.2496552131
 20
87.8568032716
 10
140.1819347688
 20
87.8732578953
 10
140.1150825338
 20
87.8933927342
 10
140.0489692644
 20
87.9173106391
 10
139.9837242044
 20
87.9449089141
 10
139.9202521984
 20
87.9758924066
 10
139.8586539722
 20
88.0103011419
 10
139.7988287999
 20
88.0480953017
 10
139.7413793488
 20
88.0888599602
 10
139.6863545644
 20
88.1326227479
 10
139.633705501
 20
88.1793562633
 10
139.583887989
 20
88.228563007
 10
139.5370539716
 20
88.2800772094
 10
139.4930515056
 20
88.334064854
 10
139.4518805908
 20
88.3905260563
  0
LWPOLYLINE
  5
2AB
100
AcDbEntity
  8
ASSI
100
AcDbPolyline
 62
253
  6
CONTINUOUS
 90
19
 70
0
 10
140.5235308421
 20
87.8276418751
 10
140.4545783829
 20
87.8294328501
 10
140.3859770202
 20
87.8348907873
 10
140.3177267539
 20
87.844015706
 10
140.2496552131
 20
87.8568032716
 10
140.1819347688
 20
87.8732578953
 10
140.1150825338
 20
87.8933927342
 10
140.0489692644
 20
87.9173106391
 10
139.9837242044
 20
87.9449089141
 10
139.9202521984
 20
87.9758924066
 10
139.8586539722
 20
88.0103011419
 10
139.7988287999
 20
88.0480953017
 10
139.7413793488
 20
88.0888599602
 10
139.6863545644
 20
88.1326227479
 10
139.633705501
 20
88.1793562633
 10
139.583887989
 20
88.228563007
 10
139.5370539716
 20
88.2800772094
 10
139.4930515056
 20
88.334064854
 10
139.4518805908
 20
88.3905260563
  0
LWPOLYLINE
  5
2AC
100
AcDbEntity
  8
SCRITTE
100
AcDbPolyline
 62
253
  6
CONTINUOUS
 90
24
 70
0
 10
166.8048873645
 20
84.4567699401
 10
166.7833839826
 20
84.4591067437
 10
166.7618560393
 20
84.4611294313
 10
166.7403069116
 20
84.4628387306
 10
166.7187399763
 20
84.4642353695
 10
166.6971586104
 20
84.4653200759
 10
166.6755661909
 20
84.4660935775
 10
166.6539660948
 20
84.4665566021
 10
166.6350609783
 20
84.4667075541
 10
166.6161464933
 20
84.4666213706
 10
166.5972165633
 20
84.466298068
 10
166.5782651117
 20
84.4657376624
 10
166.5592852244
 20
84.4649391378
 10
166.540266638
 20
84.463897349
 10
166.5211982513
 20
84.4626061185
 10
166.5020689633
 20
84.4610592688
 10
166.482871235
 20
84.4592534131
 10
166.4636117756
 20
84.4571963273
 10
166.4443008565
 20
84.4548985781
 10
166.4249487488
 20
84.4523707319
 10
166.4055616971
 20
84.4496251853
 10
166.3861298379
 20
84.4466816539
 10
166.366639281
 20
84.4435616833
 10
166.3470761361
 20
84.440286819
  0
LWPOLYLINE
  5
2AD
100
AcDbEntity
  8
SCRITTE
100
AcDbPolyline
 62
253
  6
CONTINUOUS
 90
86
 70
0
 10
167.2266273117
 20
84.8550577414
 10
167.2422450967
 20
84.8490909212
 10
167.2580694001
 20
84.8423704153
 10
167.2741262189
 20
84.8348660171
 10
167.2904415501
 20
84.8265475205
 10
167.3070413906
 20
84.8173847189
 10
167.3239517376
 20
84.8073474059
 10
167.3411775772
 20
84.7964151787
 10
167.3586398529
 20
84.7846068477
 10
167.3762384973
 20
84.7719510271
 10
167.3938734432
 20
84.7584763308
 10
167.4114446234
 20
84.7442113729
 10
167.4288519704
 20
84.7291847674
 10
167.446004411
 20
84.7134219894
 10
167.4628468471
 20
84.696935959
 10
167.4793331748
 20
84.6797364571
 10
167.4954172901
 20
84.6618332648
 10
167.5110530889
 20
84.6432361632
 10
167.5261944672
 20
84.6239549334
 10
167.5407947201
 20
84.6040114584
 10
167.5548047391
 20
84.5834760289
 10
167.5681748147
 20
84.5624310376
 10
167.5808552375
 20
84.5409588771
 10
167.5927962981
 20
84.5191419401
 10
167.603948287
 20
84.4970626191
 10
167.6142726279
 20
84.4747961679
 10
167.6237752772
 20
84.4523892833
 10
167.6324733242
 20
84.4298815232
 10
167.6403838584
 20
84.4073124455
 10
167.6475239692
 20
84.3847216081
 10
167.6539107461
 20
84.3621485688
 10
167.6606097126
 20
84.3351434351
 10
167.6663090564
 20
84.3083091842
 10
167.6710693467
 20
84.2817341063
 10
167.6749511528
 20
84.2555064916
 10
167.678015044
 20
84.2297146302
 10
167.680319031
 20
84.2044347406
 10
167.6819108893
 20
84.1796947541
 10
167.6828358359
 20
84.1555105306
 10
167.6831390878
 20
84.1318979295
 10
167.6828658619
 20
84.1088728106
 10
167.6820583892
 20
84.0864460543
 10
167.680746957
 20
84.0646086235
 10
167.6789588669
 20
84.043346502
 10
167.6767214201
 20
84.0226456735
 10
167.6740619181
 20
84.0024921218
 10
167.6701827758
 20
83.978045793
 10
167.6657231033
 20
83.9543894436
 10
167.6607191731
 20
83.9314798338
 10
167.6552072578
 20
83.9092737234
 10
167.6492238806
 20
83.8877347779
 10
167.642806567
 20
83.8668542852
 10
167.635993093
 20
83.8466304384
 10
167.6288212347
 20
83.8270614308
 10
167.6213281189
 20
83.8081448712
 10
167.6135482747
 20
83.7898760308
 10
167.605515582
 20
83.7722495966
 10
167.5972639206
 20
83.7552602554
 10
167.5859732872
 20
83.7335841661
 10
167.5743957661
 20
83.7129857377
 10
167.5625735165
 20
83.6934194672
 10
167.5505477398
 20
83.674844
 10
167.5383558068
 20
83.6572345761
 10
167.5260341304
 20
83.6405705842
 10
167.5136199497
 20
83.6248243963
 10
167.5011538088
 20
83.6099403163
 10
167.488677078
 20
83.5958556317
 10
167.4762322458
 20
83.5825094616
 10
167.4638662748
 20
83.569848254
 10
167.4516272459
 20
83.5578202886
 10
167.4395587376
 20
83.5463750575
 10
167.4276863183
 20
83.5354669017
 10
167.4160310541
 20
83.5250513743
 10
167.3989863034
 20
83.510255476
 10
167.3824826945
 20
83.4963315796
 10
167.3665681725
 20
83.4832057116
 10
167.3587733652
 20
83.4769610669
 10
167.3509733135
 20
83.4709606555
 10
167.3430803536
 20
83.4652511802
 10
167.3351154814
 20
83.4599437584
 10
167.3271213991
 20
83.4551550168
 10
167.319118977
 20
83.450959205
 10
167.3111154492
 20
83.4474133351
 10
167.3030853392
 20
83.4445478467
 10
167.2950039041
 20
83.4423875097
 10
167.2868820469
 20
83.4409609869
  0
LWPOLYLINE
  5
2AE
100
AcDbEntity
  8
SCRITTE
100
AcDbPolyline
 62
253
  6
CONTINUOUS
 90
41
 70
0
 10
167.2868820469
 20
83.424417178
 10
167.2961989552
 20
83.4205269772
 10
167.3054605219
 20
83.4163047264
 10
167.3146720159
 20
83.4117423991
 10
167.3238387061
 20
83.4068319691
 10
167.3329653519
 20
83.4015647944
 10
167.3420546732
 20
83.3959297717
 10
167.3511088805
 20
83.3899151819
 10
167.3601301839
 20
83.383509306
 10
167.3691171915
 20
83.3767037886
 10
167.3780541019
 20
83.3695037278
 10
167.3869215113
 20
83.3619175848
 10
167.3957000158
 20
83.3539538214
 10
167.4043713772
 20
83.345622363
 10
167.4129220195
 20
83.336938992
 10
167.4213395319
 20
83.3279209546
 10
167.4296115038
 20
83.3185854973
 10
167.4377288679
 20
83.3089461915
 10
167.4456959285
 20
83.2990019092
 10
167.4535203335
 20
83.2887478471
 10
167.4612097305
 20
83.2781792024
 10
167.4687699254
 20
83.267293424
 10
167.4761993563
 20
83.2560969695
 10
167.4834946198
 20
83.2445985487
 10
167.4906523123
 20
83.2328068712
 10
167.498660716
 20
83.2189815992
 10
167.5064859338
 20
83.2047907628
 10
167.5141289096
 20
83.1902404506
 10
167.5215905876
 20
83.1753367514
 10
167.5288719119
 20
83.160085754
 10
167.5359738266
 20
83.144493547
 10
167.5428972757
 20
83.1285662192
 10
167.5507502251
 20
83.1095698007
 10
167.5583624066
 20
83.0901405792
 10
167.5657346792
 20
83.0702936009
 10
167.5728679013
 20
83.050043912
 10
167.5797629317
 20
83.0294065588
 10
167.586420629
 20
83.0083965873
 10
167.5928526258
 20
82.9870285208
 10
167.5991136491
 20
82.9653147902
 10
167.6052692
 20
82.9432673036
  0
LWPOLYLINE
  5
2AF
100
AcDbEntity
  8
RACCORDO
100
AcDbPolyline
 62
7
  6
CONTINUOUS
 90
7
 70
0
 10
184.3133985262
 20
88.4453416149
 10
184.3647332431
 20
88.4469841107
 10
184.4155450692
 20
88.4518501475
 10
184.4658340042
 20
88.4599397397
 10
184.5156000484
 20
88.4712529111
 10
184.5648432016
 20
88.485789695
 10
184.6135634638
 20
88.5035501341
  0
LWPOLYLINE
  5
2B0
100
AcDbEntity
  8
ASSI
100
AcDbPolyline
 62
7
  6
CONTINUOUS
 90
7
 70
0
 10
184.3133985262
 20
88.4453416149
 10
184.3647332431
 20
88.4469841107
 10
184.4155450692
 20
88.4518501475
 10
184.4658340042
 20
88.4599397397
 10
184.5156000484
 20
88.4712529111
 10
184.5648432016
 20
88.485789695
 10
184.6135634638
 20
88.5035501341
  0
LWPOLYLINE
  5
2B1
100
AcDbEntity
  8
RACCORDO
100
AcDbPolyline
 62
253
  6
CONTINUOUS
 90
16
 70
0
 10
222.9096254161
 20
88.3912831292
 10
222.9491179789
 20
88.3918696163
 10
222.9875118839
 20
88.3926174717
 10
223.0245465168
 20
88.393521619
 10
223.0599704901
 20
88.3945759208
 10
223.0935433491
 20
88.3957732208
 10
223.1250372043
 20
88.3971053917
 10
223.1542382783
 20
88.3985633909
 10
223.180948357
 20
88.4001373217
 10
223.2049861347
 20
88.4018165003
 10
223.2261884454
 20
88.4035895286
 10
223.2444113696
 20
88.4054443715
 10
223.2595312119
 20
88.4073684385
 10
223.2714453402
 20
88.4093486692
 10
223.2800728825
 20
88.4113716219
 10
223.2853552757
 20
88.413423565
  0
LWPOLYLINE
  5
2B2
100
AcDbEntity
  8
ASSI
100
AcDbPolyline
 62
253
  6
CONTINUOUS
 90
16
 70
0
 10
222.9096254161
 20
88.3912831292
 10
222.9491179789
 20
88.3918696163
 10
222.9875118839
 20
88.3926174717
 10
223.0245465168
 20
88.393521619
 10
223.0599704901
 20
88.3945759208
 10
223.0935433491
 20
88.3957732208
 10
223.1250372043
 20
88.3971053917
 10
223.1542382783
 20
88.3985633909
 10
223.180948357
 20
88.4001373217
 10
223.2049861347
 20
88.4018165003
 10
223.2261884454
 20
88.4035895286
 10
223.2444113696
 20
88.4054443715
 10
223.2595312119
 20
88.4073684385
 10
223.2714453402
 20
88.4093486692
 10
223.2800728825
 20
88.4113716219
 10
223.2853552757
 20
88.413423565
  0
LWPOLYLINE
  5
2B3
100
AcDbEntity
  8
RACCORDO
100
AcDbPolyline
 62
253
  6
CONTINUOUS
 90
16
 70
0
 10
222.9096294639
 20
88.494055696
 10
222.9491220927
 20
88.4946408672
 10
222.9875160577
 20
88.4953866361
 10
223.0245507434
 20
88.4962879404
 10
223.0599747609
 20
88.4973386621
 10
223.0935476542
 20
88.498531669
 10
223.125041533
 20
88.499858863
 10
223.1542426188
 20
88.5013112353
 10
223.1809526967
 20
88.5028789272
 10
223.2049904604
 20
88.5045512974
 10
223.2261927434
 20
88.5063169938
 10
223.2444156258
 20
88.5081640312
 10
223.2595354121
 20
88.5100798719
 10
223.2714494701
 20
88.5120515113
 10
223.280076928
 20
88.5140655661
 10
223.2853592233
 20
88.516108365
  0
LWPOLYLINE
  5
2B4
100
AcDbEntity
  8
ASSI
100
AcDbPolyline
 62
253
  6
CONTINUOUS
 90
16
 70
0
 10
222.9096294639
 20
88.494055696
 10
222.9491220927
 20
88.4946408672
 10
222.9875160577
 20
88.4953866361
 10
223.0245507434
 20
88.4962879404
 10
223.0599747609
 20
88.4973386621
 10
223.0935476542
 20
88.498531669
 10
223.125041533
 20
88.499858863
 10
223.1542426188
 20
88.5013112353
 10
223.1809526967
 20
88.5028789272
 10
223.2049904604
 20
88.5045512974
 10
223.2261927434
 20
88.5063169938
 10
223.2444156258
 20
88.5081640312
 10
223.2595354121
 20
88.5100798719
 10
223.2714494701
 20
88.5120515113
 10
223.280076928
 20
88.5140655661
 10
223.2853592233
 20
88.516108365
  0
LWPOLYLINE
  5
2B5
100
AcDbEntity
  8
RACCORDO
100
AcDbPolyline
 62
253
  6
CONTINUOUS
 90
16
 70
0
 10
139.3470535132
 20
89.1290103687
 10
139.387393714
 20
89.1296061369
 10
139.4265567993
 20
89.1303649583
 10
139.4642642647
 20
89.1312814366
 10
139.5002479574
 20
89.1323490543
 10
139.534251983
 20
89.1335602193
 10
139.5660345253
 20
89.1349063183
 10
139.595369566
 20
89.1363777789
 10
139.6220484919
 20
89.1379641367
 10
139.6458815785
 20
89.1396541107
 10
139.6666993392
 20
89.1414356828
 10
139.6843537307
 20
89.1432961834
 10
139.6987192054
 20
89.1452223817
 10
139.7096936049
 20
89.14720058
 10
139.7171988856
 20
89.1492167103
 10
139.7211816747
 20
89.1512564351
  0
LWPOLYLINE
  5
2B6
100
AcDbEntity
  8
ASSI
100
AcDbPolyline
 62
253
  6
CONTINUOUS
 90
16
 70
0
 10
139.3470535132
 20
89.1290103687
 10
139.387393714
 20
89.1296061369
 10
139.4265567993
 20
89.1303649583
 10
139.4642642647
 20
89.1312814366
 10
139.5002479574
 20
89.1323490543
 10
139.534251983
 20
89.1335602193
 10
139.5660345253
 20
89.1349063183
 10
139.595369566
 20
89.1363777789
 10
139.6220484919
 20
89.1379641367
 10
139.6458815785
 20
89.1396541107
 10
139.6666993392
 20
89.1414356828
 10
139.6843537307
 20
89.1432961834
 10
139.6987192054
 20
89.1452223817
 10
139.7096936049
 20
89.14720058
 10
139.7171988856
 20
89.1492167103
 10
139.7211816747
 20
89.1512564351
  0
LINE
  5
2B7
100
AcDbEntity
  8
RACCORDO
100
AcDbLine
 62
253
  6
CONTINUOUS
 10
222.8284222427
 20
88.3906090615
 11
222.9096254161
 21
88.3912831292
  0
LINE
  5
2B8
100
AcDbEntity
  8
ASSI
100
AcDbLine
 62
253
  6
CONTINUOUS
 10
222.8284222427
 20
88.3906090615
 11
222.9096254161
 21
88.3912831292
  0
LWPOLYLINE
  5
2B9
100
AcDbEntity
  8
RACCORDO
100
AcDbPolyline
 62
253
  6
CONTINUOUS
 90
3
 70
0
 10
222.7872666604
 20
88.4932978844
 10
222.8284261465
 20
88.4933819178
 10
222.9096294639
 20
88.494055696
  0
LWPOLYLINE
  5
2BA
100
AcDbEntity
  8
ASSI
100
AcDbPolyline
 62
253
  6
CONTINUOUS
 90
3
 70
0
 10
222.7872666604
 20
88.4932978844
 10
222.8284261465
 20
88.4933819178
 10
222.9096294639
 20
88.494055696
  0
LWPOLYLINE
  5
2BB
100
AcDbEntity
  8
RACCORDO
100
AcDbPolyline
 62
253
  6
CONTINUOUS
 90
3
 70
0
 10
139.2218685391
 20
89.1282377807
 10
139.2639955968
 20
89.1283237492
 10
139.3470535132
 20
89.1290103687
  0
LWPOLYLINE
  5
2BC
100
AcDbEntity
  8
ASSI
100
AcDbPolyline
 62
253
  6
CONTINUOUS
 90
3
 70
0
 10
139.2218685391
 20
89.1282377807
 10
139.2639955968
 20
89.1283237492
 10
139.3470535132
 20
89.1290103687
  0
LINE
  5
2BD
100
AcDbEntity
  8
RACCORDO
100
AcDbLine
 62
253
  6
CONTINUOUS
 10
184.4052269219
 20
87.8276418751
 11
140.5235308421
 21
87.8276418751
  0
LINE
  5
2BE
100
AcDbEntity
  8
ASSI
100
AcDbLine
 62
253
  6
CONTINUOUS
 10
184.4052269219
 20
87.8276418751
 11
140.5235308421
 21
87.8276418751
  0
LINE
  5
2BF
100
AcDbEntity
  8
RACCORDO
100
AcDbLine
 62
253
  6
CONTINUOUS
 10
184.405258093
 20
88.3537471499
 11
140.5235299518
 21
88.3537471499
  0
LINE
  5
2C0
100
AcDbEntity
  8
ASSI
100
AcDbLine
 62
253
  6
CONTINUOUS
 10
184.405258093
 20
88.3537471499
 11
140.5235299518
 21
88.3537471499
  0
LINE
  5
2C1
100
AcDbEntity
  8
RACCORDO
100
AcDbLine
 62
253
  6
CONTINUOUS
 10
185.4768771732
 20
88.3905260563
 11
222.8284222427
 21
88.3906090615
  0
LINE
  5
2C2
100
AcDbEntity
  8
ASSI
100
AcDbLine
 62
253
  6
CONTINUOUS
 10
185.4768771732
 20
88.3905260563
 11
222.8284222427
 21
88.3906090615
  0
LINE
  5
2C3
100
AcDbEntity
  8
RACCORDO
100
AcDbLine
 62
7
  6
CONTINUOUS
 10
140.6153592378
 20
88.4453416149
 11
184.3133985262
 21
88.4453416149
  0
LINE
  5
2C4
100
AcDbEntity
  8
ASSI
100
AcDbLine
 62
7
  6
CONTINUOUS
 10
140.6153592378
 20
88.4453416149
 11
184.3133985262
 21
88.4453416149
  0
LINE
  5
2C5
100
AcDbEntity
  8
RACCORDO
100
AcDbLine
 62
253
  6
CONTINUOUS
 10
101.6433985402
 20
88.516108365
 11
101.464378882
 21
88.516108365
  0
LINE
  5
2C6
100
AcDbEntity
  8
ASSI
100
AcDbLine
 62
253
  6
CONTINUOUS
 10
101.6433985402
 20
88.516108365
 11
101.464378882
 21
88.516108365
  0
LINE
  5
2C7
100
AcDbEntity
  8
RACCORDO
100
AcDbLine
 62
253
  6
CONTINUOUS
 10
223.2853592237
 20
88.516108365
 11
223.464378882
 21
88.516108365
  0
LINE
  5
2C8
100
AcDbEntity
  8
ASSI
100
AcDbLine
 62
253
  6
CONTINUOUS
 10
223.2853592237
 20
88.516108365
 11
223.464378882
 21
88.516108365
  0
LINE
  5
2C9
100
AcDbEntity
  8
RACCORDO
100
AcDbLine
 62
253
  6
CONTINUOUS
 10
139.4518805908
 20
88.3905260563
 11
102.1003355222
 21
88.3906090624
  0
LINE
  5
2CA
100
AcDbEntity
  8
ASSI
100
AcDbLine
 62
253
  6
CONTINUOUS
 10
139.4518805908
 20
88.3905260563
 11
102.1003355222
 21
88.3906090624
  0
LWPOLYLINE
  5
2CB
100
AcDbEntity
  8
RACCORDO
100
AcDbPolyline
 62
253
  6
CONTINUOUS
 90
18
 70
0
 10
102.1414911036
 20
88.4932978841
 10
102.0594515186
 20
88.4936350942
 10
102.0191282992
 20
88.4940556957
 10
101.9796356702
 20
88.494640867
 10
101.9412417049
 20
88.4953866358
 10
101.904207019
 20
88.4962879401
 10
101.8687830014
 20
88.4973386618
 10
101.8352101079
 20
88.4985316688
 10
101.8037162291
 20
88.4998588628
 10
101.7745151432
 20
88.5013112351
 10
101.7478050653
 20
88.5028789271
 10
101.7237673016
 20
88.5045512972
 10
101.7025650188
 20
88.5063169937
 10
101.6843421365
 20
88.5081640311
 10
101.6692223504
 20
88.5100798718
 10
101.6573082927
 20
88.5120515113
 10
101.6486808351
 20
88.5140655661
 10
101.6433985402
 20
88.516108365
  0
LWPOLYLINE
  5
2CC
100
AcDbEntity
  8
ASSI
100
AcDbPolyline
 62
253
  6
CONTINUOUS
 90
18
 70
0
 10
102.1414911036
 20
88.4932978841
 10
102.0594515186
 20
88.4936350942
 10
102.0191282992
 20
88.4940556957
 10
101.9796356702
 20
88.494640867
 10
101.9412417049
 20
88.4953866358
 10
101.904207019
 20
88.4962879401
 10
101.8687830014
 20
88.4973386618
 10
101.8352101079
 20
88.4985316688
 10
101.8037162291
 20
88.4998588628
 10
101.7745151432
 20
88.5013112351
 10
101.7478050653
 20
88.5028789271
 10
101.7237673016
 20
88.5045512972
 10
101.7025650188
 20
88.5063169937
 10
101.6843421365
 20
88.5081640311
 10
101.6692223504
 20
88.5100798718
 10
101.6573082927
 20
88.5120515113
 10
101.6486808351
 20
88.5140655661
 10
101.6433985402
 20
88.516108365
  0
LWPOLYLINE
  5
2CD
100
AcDbEntity
  8
RACCORDO
100
AcDbPolyline
 62
253
  6
CONTINUOUS
 90
18
 70
0
 10
185.7068892248
 20
89.1282378924
 10
185.6229345129
 20
89.1285819755
 10
185.5817039552
 20
89.1290104417
 10
185.5413636239
 20
89.1296061987
 10
185.5022003977
 20
89.1303650098
 10
185.4644927842
 20
89.1312814788
 10
185.4285089396
 20
89.1323490882
 10
185.3945047612
 20
89.1335602457
 10
185.3627220686
 20
89.1349063384
 10
185.3333868828
 20
89.1363777934
 10
185.30670782
 20
89.1379641466
 10
185.282874607
 20
89.1396541167
 10
185.2620567328
 20
89.1414356856
 10
185.2444022427
 20
89.1432961837
 10
185.2300366861
 20
89.1452223801
 10
185.2190622229
 20
89.1472005768
 10
185.2115568975
 20
89.149216706
 10
185.2075740837
 20
89.1512564299
  0
LWPOLYLINE
  5
2CE
100
AcDbEntity
  8
ASSI
100
AcDbPolyline
 62
253
  6
CONTINUOUS
 90
18
 70
0
 10
185.7068892248
 20
89.1282378924
 10
185.6229345129
 20
89.1285819755
 10
185.5817039552
 20
89.1290104417
 10
185.5413636239
 20
89.1296061987
 10
185.5022003977
 20
89.1303650098
 10
185.4644927842
 20
89.1312814788
 10
185.4285089396
 20
89.1323490882
 10
185.3945047612
 20
89.1335602457
 10
185.3627220686
 20
89.1349063384
 10
185.3333868828
 20
89.1363777934
 10
185.30670782
 20
89.1379641466
 10
185.282874607
 20
89.1396541167
 10
185.2620567328
 20
89.1414356856
 10
185.2444022427
 20
89.1432961837
 10
185.2300366861
 20
89.1452223801
 10
185.2190622229
 20
89.1472005768
 10
185.2115568975
 20
89.149216706
 10
185.2075740837
 20
89.1512564299
  0
LWPOLYLINE
  5
2CF
100
AcDbEntity
  8
RACCORDO
100
AcDbPolyline
 62
253
  6
CONTINUOUS
 90
17
 70
0
 10
102.1003355222
 20
88.3906090624
 10
102.0191323507
 20
88.3912831301
 10
101.9796397888
 20
88.3918696172
 10
101.9412458846
 20
88.3926174725
 10
101.9042112523
 20
88.3935216197
 10
101.8687872795
 20
88.3945759215
 10
101.835214421
 20
88.3957732214
 10
101.8037205661
 20
88.3971053923
 10
101.7745194922
 20
88.3985633915
 10
101.7478094135
 20
88.4001373222
 10
101.7237716356
 20
88.4018165007
 10
101.7025693245
 20
88.4035895289
 10
101.6843463997
 20
88.4054443718
 10
101.6692265567
 20
88.4073684387
 10
101.6573124275
 20
88.4093486693
 10
101.6486848841
 20
88.4113716219
 10
101.6434024896
 20
88.4134235651
  0
LWPOLYLINE
  5
2D0
100
AcDbEntity
  8
ASSI
100
AcDbPolyline
 62
253
  6
CONTINUOUS
 90
17
 70
0
 10
102.1003355222
 20
88.3906090624
 10
102.0191323507
 20
88.3912831301
 10
101.9796397888
 20
88.3918696172
 10
101.9412458846
 20
88.3926174725
 10
101.9042112523
 20
88.3935216197
 10
101.8687872795
 20
88.3945759215
 10
101.835214421
 20
88.3957732214
 10
101.8037205661
 20
88.3971053923
 10
101.7745194922
 20
88.3985633915
 10
101.7478094135
 20
88.4001373222
 10
101.7237716356
 20
88.4018165007
 10
101.7025693245
 20
88.4035895289
 10
101.6843463997
 20
88.4054443718
 10
101.6692265567
 20
88.4073684387
 10
101.6573124275
 20
88.4093486693
 10
101.6486848841
 20
88.4113716219
 10
101.6434024896
 20
88.4134235651
  0
LWPOLYLINE
  5
2D1
100
AcDbEntity
  8
RACCORDO
100
AcDbPolyline
 62
253
  6
CONTINUOUS
 90
19
 70
0
 10
140.5235299503
 20
88.3537471484
 10
140.4810898614
 20
88.3547915993
 10
140.4386667271
 20
88.358080697
 10
140.3963806259
 20
88.363620954
 10
140.3543832169
 20
88.3714051818
 10
140.3127650336
 20
88.3814308129
 10
140.2715591371
 20
88.3937162473
 10
140.2307982314
 20
88.4082926997
 10
140.1907093864
 20
88.4251209087
 10
140.151609439
 20
88.4440863605
 10
140.1136568195
 20
88.4651051285
 10
140.0769143612
 20
88.4881349327
 10
140.0415327483
 20
88.5130764193
 10
140.0076252001
 20
88.5398346384
 10
139.9752662254
 20
88.5683348037
 10
139.9445374693
 20
88.598494587
 10
139.9155199243
 20
88.6302230757
 10
139.8882925903
 20
88.6634197965
 10
139.8629269867
 20
88.6979833323
  0
LWPOLYLINE
  5
2D2
100
AcDbEntity
  8
ASSI
100
AcDbPolyline
 62
253
  6
CONTINUOUS
 90
19
 70
0
 10
140.5235299503
 20
88.3537471484
 10
140.4810898614
 20
88.3547915993
 10
140.4386667271
 20
88.358080697
 10
140.3963806259
 20
88.363620954
 10
140.3543832169
 20
88.3714051818
 10
140.3127650336
 20
88.3814308129
 10
140.2715591371
 20
88.3937162473
 10
140.2307982314
 20
88.4082926997
 10
140.1907093864
 20
88.4251209087
 10
140.151609439
 20
88.4440863605
 10
140.1136568195
 20
88.4651051285
 10
140.0769143612
 20
88.4881349327
 10
140.0415327483
 20
88.5130764193
 10
140.0076252001
 20
88.5398346384
 10
139.9752662254
 20
88.5683348037
 10
139.9445374693
 20
88.598494587
 10
139.9155199243
 20
88.6302230757
 10
139.8882925903
 20
88.6634197965
 10
139.8629269867
 20
88.6979833323
  0
LINE
  5
2D3
100
AcDbEntity
  8
SCRITTE
100
AcDbLine
 62
253
  6
CONTINUOUS
 10
156.960710882
 20
84.9172436149
 11
157.848271882
 21
82.1175406149
  0
LINE
  5
2D4
100
AcDbEntity
  8
SCRITTE
100
AcDbLine
 62
253
  6
CONTINUOUS
 10
158.129232882
 20
82.9901216149
 11
157.595558882
 21
84.9172436149
  0
LINE
  5
2D5
100
AcDbEntity
  8
RACCORDO
100
AcDbLine
 62
253
  6
CONTINUOUS
 10
101.6461334351
 20
67.1766292661
 11
101.4643792755
 21
66.991820514
  0
LINE
  5
2D6
100
AcDbEntity
  8
ASSI
100
AcDbLine
 62
253
  6
CONTINUOUS
 10
101.6461334351
 20
67.1766292661
 11
101.4643792755
 21
66.991820514
  0
LINE
  5
2D7
100
AcDbEntity
  8
RACCORDO
100
AcDbLine
 62
253
  6
CONTINUOUS
 10
102.6344285051
 20
66.1883957112
 11
102.4444597824
 21
65.9953416149
  0
LINE
  5
2D8
100
AcDbEntity
  8
ASSI
100
AcDbLine
 62
253
  6
CONTINUOUS
 10
102.6344285051
 20
66.1883957112
 11
102.4444597824
 21
65.9953416149
  0
LINE
  5
2D9
100
AcDbEntity
  8
RACCORDO
100
AcDbLine
 62
253
  6
CONTINUOUS
 10
102.6344285051
 20
155.8022875186
 11
102.4444597824
 21
155.9953416149
  0
LINE
  5
2DA
100
AcDbEntity
  8
ASSI
100
AcDbLine
 62
253
  6
CONTINUOUS
 10
102.6344285051
 20
155.8022875186
 11
102.4444597824
 21
155.9953416149
  0
LINE
  5
2DB
100
AcDbEntity
  8
RACCORDO
100
AcDbLine
 62
253
  6
CONTINUOUS
 10
101.6461334351
 20
154.8140539641
 11
101.4643792755
 21
154.9988627158
  0
LINE
  5
2DC
100
AcDbEntity
  8
ASSI
100
AcDbLine
 62
253
  6
CONTINUOUS
 10
101.6461334351
 20
154.8140539641
 11
101.4643792755
 21
154.9988627158
  0
LWPOLYLINE
  5
2DD
100
AcDbEntity
  8
SCRITTE
100
AcDbPolyline
 62
253
  6
CONTINUOUS
 90
47
 70
0
 10
167.0057589983
 20
82.9667371246
 10
167.0018272644
 20
82.9768309022
 10
166.997718624
 20
82.9866833986
 10
166.9934421858
 20
82.996297059
 10
166.9890070581
 20
83.0056743289
 10
166.9844223497
 20
83.0148176537
 10
166.9796971691
 20
83.0237294787
 10
166.9748406248
 20
83.0324122493
 10
166.9698618254
 20
83.0408684109
 10
166.9647698794
 20
83.0491004088
 10
166.9595738954
 20
83.0571106885
 10
166.9536876231
 20
83.0657541338
 10
166.9476845567
 20
83.0741314268
 10
166.9415650988
 20
83.0822471227
 10
166.9353296522
 20
83.0901057765
 10
166.9289786195
 20
83.0977119431
 10
166.9225124035
 20
83.1050701777
 10
166.9159314068
 20
83.1121850354
 10
166.9092360321
 20
83.119061071
 10
166.9024266823
 20
83.1257028397
 10
166.8955039646
 20
83.1321135346
 10
166.8884693055
 20
83.1382909009
 10
166.8813243361
 20
83.1442313223
 10
166.8740706875
 20
83.1499311819
 10
166.8667099909
 20
83.1553868634
 10
166.8592438773
 20
83.16059475
 10
166.851673978
 20
83.1655512251
 10
166.8440019239
 20
83.1702526723
 10
166.8362293463
 20
83.1746954749
 10
166.8283576853
 20
83.1788773511
 10
166.8203876167
 20
83.1828013576
 10
166.8123196253
 20
83.1864718861
 10
166.8041541961
 20
83.1898933281
 10
166.7958918139
 20
83.1930700751
 10
166.7875329636
 20
83.1960065189
 10
166.77907813
 20
83.1987070508
 10
166.770527798
 20
83.2011760625
 10
166.7618824524
 20
83.2034179456
 10
166.75314247
 20
83.2054358446
 10
166.7443077944
 20
83.2072279164
 10
166.7353782612
 20
83.2087910709
 10
166.7263537059
 20
83.2101222181
 10
166.7172339643
 20
83.2112182678
 10
166.7080188717
 20
83.2120761299
 10
166.6987082638
 20
83.2126927144
 10
166.6893019762
 20
83.2130649312
 10
166.6797998443
 20
83.2131896901
  0
LINE
  5
2DE
100
AcDbEntity
  8
SCRITTE
100
AcDbLine
 62
253
  6
CONTINUOUS
 10
161.064310882
 20
83.9456946149
 11
161.749891882
 21
82.1175406149
  0
LINE
  5
2DF
100
AcDbEntity
  8
SCRITTE
100
AcDbLine
 62
253
  6
CONTINUOUS
 10
161.794064882
 20
83.3628396149
 11
161.215828882
 21
84.9172436149
  0
LINE
  5
2E0
100
AcDbEntity
  8
SCRITTE
100
AcDbLine
 62
253
  6
CONTINUOUS
 10
165.612786882
 20
82.1175406149
 11
164.753768882
 21
84.9172436149
  0
LINE
  5
2E1
100
AcDbEntity
  8
SCRITTE
100
AcDbLine
 62
253
  6
CONTINUOUS
 10
163.218490882
 20
82.1175406149
 11
162.956686882
 21
84.9172436149
  0
LINE
  5
2E2
100
AcDbEntity
  8
SCRITTE
100
AcDbLine
 62
253
  6
CONTINUOUS
 10
162.526715882
 20
83.9380726149
 11
162.646784882
 21
82.1175406149
  0
LINE
  5
2E3
100
AcDbEntity
  8
SCRITTE
100
AcDbLine
 62
253
  6
CONTINUOUS
 10
159.480093882
 20
82.1175406149
 11
159.480093882
 21
84.9174115164
  0
LINE
  5
2E4
100
AcDbEntity
  8
SCRITTE
100
AcDbLine
 62
253
  6
CONTINUOUS
 10
160.064501882
 20
84.9174116149
 11
160.064501882
 21
82.1175407133
  0
LINE
  5
2E5
100
AcDbEntity
  8
SCRITTE
100
AcDbLine
 62
253
  6
CONTINUOUS
 10
160.938195882
 20
82.1175406149
 11
161.064310882
 21
83.9456946149
  0
LINE
  5
2E6
100
AcDbEntity
  8
SCRITTE
100
AcDbLine
 62
253
  6
CONTINUOUS
 10
160.631903882
 20
84.9172436149
 11
160.379106882
 21
82.1175406149
  0
LWPOLYLINE
  5
2E7
100
AcDbEntity
  8
RACCORDO
100
AcDbPolyline
 62
253
  6
CONTINUOUS
 90
13
 70
0
 10
185.2764401532
 20
133.4587556432
 10
185.2467246345
 20
133.4371489036
 10
185.2186632619
 20
133.4165332135
 10
185.1924577213
 20
133.3970567445
 10
185.1682963601
 20
133.3788594799
 10
185.1463528335
 20
133.3620722091
 10
185.1267848566
 20
133.3468155875
 10
185.1097330704
 20
133.3331992691
 10
185.0953200316
 20
133.3213211188
 10
185.0836493311
 20
133.3112665084
 10
185.07480485
 20
133.3031077036
 10
185.0688501562
 20
133.2969033442
 10
185.065828048
 20
133.2926980229
  0
LWPOLYLINE
  5
2E8
100
AcDbEntity
  8
ASSI
100
AcDbPolyline
 62
253
  6
CONTINUOUS
 90
13
 70
0
 10
185.2764401532
 20
133.4587556432
 10
185.2467246345
 20
133.4371489036
 10
185.2186632619
 20
133.4165332135
 10
185.1924577213
 20
133.3970567445
 10
185.1682963601
 20
133.3788594799
 10
185.1463528335
 20
133.3620722091
 10
185.1267848566
 20
133.3468155875
 10
185.1097330704
 20
133.3331992691
 10
185.0953200316
 20
133.3213211188
 10
185.0836493311
 20
133.3112665084
 10
185.07480485
 20
133.3031077036
 10
185.0688501562
 20
133.2969033442
 10
185.065828048
 20
133.2926980229
  0
LINE
  5
2E9
100
AcDbEntity
  8
RACCORDO
100
AcDbLine
 62
253
  6
CONTINUOUS
 10
185.3399689763
 20
133.5043150869
 11
185.2764401532
 21
133.4587556432
  0
LINE
  5
2EA
100
AcDbEntity
  8
ASSI
100
AcDbLine
 62
253
  6
CONTINUOUS
 10
185.3399689763
 20
133.5043150869
 11
185.2764401532
 21
133.4587556432
  0
LINE
  5
2EB
100
AcDbEntity
  8
RACCORDO
100
AcDbLine
 62
253
  6
CONTINUOUS
 10
185.4074266068
 20
133.5519040985
 11
185.3399689763
 21
133.5043150869
  0
LINE
  5
2EC
100
AcDbEntity
  8
ASSI
100
AcDbLine
 62
253
  6
CONTINUOUS
 10
185.4074266068
 20
133.5519040985
 11
185.3399689763
 21
133.5043150869
  0
LINE
  5
2ED
100
AcDbEntity
  8
RACCORDO
100
AcDbLine
 62
253
  6
CONTINUOUS
 10
185.4768771731
 20
133.600156988
 11
185.4074266068
 21
133.5519040985
  0
LINE
  5
2EE
100
AcDbEntity
  8
ASSI
100
AcDbLine
 62
253
  6
CONTINUOUS
 10
185.4768771731
 20
133.600156988
 11
185.4074266068
 21
133.5519040985
  0
LINE
  5
2EF
100
AcDbEntity
  8
RACCORDO
100
AcDbLine
 62
253
  6
CONTINUOUS
 10
185.4768771732
 20
88.3905262628
 11
185.4074265868
 21
88.4387791686
  0
LINE
  5
2F0
100
AcDbEntity
  8
ASSI
100
AcDbLine
 62
253
  6
CONTINUOUS
 10
185.4768771732
 20
88.3905262628
 11
185.4074265868
 21
88.4387791686
  0
LINE
  5
2F1
100
AcDbEntity
  8
RACCORDO
100
AcDbLine
 62
253
  6
CONTINUOUS
 10
185.4074265868
 20
88.4387791686
 11
185.3399689246
 21
88.4863682029
  0
LINE
  5
2F2
100
AcDbEntity
  8
ASSI
100
AcDbLine
 62
253
  6
CONTINUOUS
 10
185.4074265868
 20
88.4387791686
 11
185.3399689246
 21
88.4863682029
  0
LWPOLYLINE
  5
2F3
100
AcDbEntity
  8
RACCORDO
100
AcDbPolyline
 62
253
  6
CONTINUOUS
 90
14
 70
0
 10
185.3399689246
 20
88.4863682029
 10
185.2764400618
 20
88.5319276734
 10
185.2467245214
 20
88.5535344271
 10
185.2186631266
 20
88.5741501313
 10
185.1924575636
 20
88.5936266144
 10
185.1682961803
 20
88.6118238925
 10
185.1463526324
 20
88.6286111761
 10
185.1267846353
 20
88.6438678095
 10
185.1097328304
 20
88.6574841384
 10
185.0953197747
 20
88.6693622979
 10
185.0836490594
 20
88.679416916
 10
185.0748045657
 20
88.6875757268
 10
185.068849862
 20
88.6937800905
 10
185.0658277465
 20
88.6979854142
  0
LWPOLYLINE
  5
2F4
100
AcDbEntity
  8
ASSI
100
AcDbPolyline
 62
253
  6
CONTINUOUS
 90
14
 70
0
 10
185.3399689246
 20
88.4863682029
 10
185.2764400618
 20
88.5319276734
 10
185.2467245214
 20
88.5535344271
 10
185.2186631266
 20
88.5741501313
 10
185.1924575636
 20
88.5936266144
 10
185.1682961803
 20
88.6118238925
 10
185.1463526324
 20
88.6286111761
 10
185.1267846353
 20
88.6438678095
 10
185.1097328304
 20
88.6574841384
 10
185.0953197747
 20
88.6693622979
 10
185.0836490594
 20
88.679416916
 10
185.0748045657
 20
88.6875757268
 10
185.068849862
 20
88.6937800905
 10
185.0658277465
 20
88.6979854142
  0
LWPOLYLINE
  5
2F5
100
AcDbEntity
  8
SCRITTE
100
AcDbPolyline
 62
253
  6
CONTINUOUS
 90
8
 70
0
 10
167.0919522251
 20
82.7034079844
 10
167.0803712333
 20
82.7424382913
 10
167.06862016
 20
82.7810216382
 10
167.0566558492
 20
82.8191404731
 10
167.0444351448
 20
82.8567772437
 10
167.0319148909
 20
82.8939143982
 10
167.0190519315
 20
82.9305343845
 10
167.0058031106
 20
82.9666196504
  0
LINE
  5
2F6
100
AcDbEntity
  8
SCRITTE
100
AcDbLine
 62
253
  6
CONTINUOUS
 10
167.246486857
 20
82.1691062791
 11
167.1732875452
 21
82.4192127678
  0
LINE
  5
2F7
100
AcDbEntity
  8
SCRITTE
100
AcDbLine
 62
253
  6
CONTINUOUS
 10
167.2613945039
 20
82.1175402605
 11
167.246486857
 21
82.1691062791
  0
LWPOLYLINE
  5
2F8
100
AcDbEntity
  8
SCRITTE
100
AcDbPolyline
 62
253
  6
CONTINUOUS
 90
4
 70
0
 10
167.1732875452
 20
82.4192127678
 10
167.1319901682
 20
82.5635539445
 10
167.1186209525
 20
82.6107031481
 10
167.0919522251
 20
82.7034079844
  0
LINE
  5
2F9
100
AcDbEntity
  8
SCRITTE
100
AcDbLine
 62
253
  6
CONTINUOUS
 10
164.845452882
 20
82.6764606149
 11
164.996844882
 21
82.1175406149
  0
LINE
  5
2FA
100
AcDbEntity
  8
SCRITTE
100
AcDbLine
 62
253
  6
CONTINUOUS
 10
167.6052692
 20
82.9432673036
 11
167.6588492168
 21
82.7448961337
  0
LINE
  5
2FB
100
AcDbEntity
  8
SCRITTE
100
AcDbLine
 62
253
  6
CONTINUOUS
 10
167.7910092279
 20
82.2395871097
 11
167.8235270939
 21
82.1175402605
  0
LINE
  5
2FC
100
AcDbEntity
  8
SCRITTE
100
AcDbLine
 62
253
  6
CONTINUOUS
 10
167.6588492168
 20
82.7448961337
 11
167.7261211438
 21
82.4889651372
  0
LINE
  5
2FD
100
AcDbEntity
  8
SCRITTE
100
AcDbLine
 62
253
  6
CONTINUOUS
 10
167.7261211438
 20
82.4889651372
 11
167.7910092279
 21
82.2395871097
  0
LINE
  5
2FE
100
AcDbEntity
  8
SCRITTE
100
AcDbLine
 62
253
  6
CONTINUOUS
 10
164.460115882
 20
84.1479566149
 11
164.728658882
 21
83.1089506149
  0
LWPOLYLINE
  5
2FF
100
AcDbEntity
  8
SCRITTE
100
AcDbPolyline
 62
253
  6
CONTINUOUS
 90
49
 70
0
 10
167.1350321801
 20
84.1064790436
 10
167.1346944016
 20
84.1174081633
 10
167.1340077092
 20
84.1282697105
 10
167.1329782702
 20
84.1390677743
 10
167.131612252
 20
84.1498064438
 10
167.1299158219
 20
84.1604898083
 10
167.1278951473
 20
84.1711219567
 10
167.1255559094
 20
84.1817043153
 10
167.1229018455
 20
84.1922276584
 10
167.1199362071
 20
84.2026800971
 10
167.1166622455
 20
84.2130497428
 10
167.1130832119
 20
84.2233247068
 10
167.1092023577
 20
84.2334931003
 10
167.1050228846
 20
84.2435432813
 10
167.1005477956
 20
84.253464595
 10
167.0957800439
 20
84.2632466332
 10
167.0907225827
 20
84.2728789879
 10
167.0853783655
 20
84.2823512508
 10
167.0797503454
 20
84.2916530138
 10
167.0738411805
 20
84.3007736576
 10
167.0676523474
 20
84.3097017175
 10
167.0611850273
 20
84.3184255176
 10
167.0544404016
 20
84.3269333819
 10
167.0474196515
 20
84.3352136346
 10
167.0401239585
 20
84.3432545998
 10
167.0325561603
 20
84.3510461359
 10
167.0247257214
 20
84.3585842387
 10
167.0166437627
 20
84.3658664384
 10
167.0083214053
 20
84.3728902652
 10
166.9997697702
 20
84.3796532494
 10
166.9909999782
 20
84.3861529211
 10
166.982022697
 20
84.392387161
 10
166.9728467802
 20
84.3983552514
 10
166.9634806277
 20
84.4040568252
 10
166.9539326396
 20
84.4094915152
 10
166.9442112162
 20
84.4146589542
 10
166.9343247574
 20
84.4195587752
 10
166.9242812756
 20
84.4241903611
 10
166.9140872323
 20
84.4285520966
 10
166.9037487012
 20
84.4326421165
 10
166.8932717562
 20
84.4364585555
 10
166.8826624709
 20
84.4399995486
 10
166.8719269191
 20
84.4432632304
 10
166.8610696945
 20
84.4462470562
 10
166.8500894696
 20
84.448945762
 10
166.838983437
 20
84.4513534043
 10
166.8277487893
 20
84.4534640395
 10
166.8163827188
 20
84.455271724
 10
166.8048824182
 20
84.4567705143
  0
LINE
  5
300
100
AcDbEntity
  8
SCRITTE
100
AcDbLine
 62
253
  6
CONTINUOUS
 10
165.7843976843
 20
82.1175402605
 11
165.7843976843
 21
84.8845343822
  0
LINE
  5
301
100
AcDbEntity
  8
SCRITTE
100
AcDbLine
 62
253
  6
CONTINUOUS
 10
166.3470761361
 20
84.440286819
 11
166.3470761361
 21
83.6717135119
  0
LINE
  5
302
100
AcDbEntity
  8
SCRITTE
100
AcDbLine
 62
253
  6
CONTINUOUS
 10
166.3664542269
 20
83.2131896901
 11
166.3664542269
 21
82.1175402286
  0
LINE
  5
303
100
AcDbEntity
  8
SCRITTE
100
AcDbLine
 62
253
  6
CONTINUOUS
 10
167.2868820469
 20
83.4409609869
 11
167.2868820469
 21
83.4244171775
  0
LINE
  5
304
100
AcDbEntity
  8
SCRITTE
100
AcDbLine
 62
253
  6
CONTINUOUS
 10
158.679209882
 20
84.9172436149
 11
158.129232882
 21
82.9901216149
  0
LINE
  5
305
100
AcDbEntity
  8
SCRITTE
100
AcDbLine
 62
253
  6
CONTINUOUS
 10
158.363281882
 20
82.1175406149
 11
159.263218882
 21
84.9172436149
  0
LINE
  5
306
100
AcDbEntity
  8
RACCORDO
100
AcDbLine
 62
253
  6
CONTINUOUS
 10
139.7211816591
 20
89.1512315132
 11
139.8143788558
 21
89.2442074609
  0
LINE
  5
307
100
AcDbEntity
  8
ASSI
100
AcDbLine
 62
253
  6
CONTINUOUS
 10
139.7211816591
 20
89.1512315132
 11
139.8143788558
 21
89.2442074609
  0
LINE
  5
308
100
AcDbEntity
  8
RACCORDO
100
AcDbLine
 62
253
  6
CONTINUOUS
 10
185.2075761055
 20
132.8394525759
 11
185.1143789082
 21
132.7464757689
  0
LINE
  5
309
100
AcDbEntity
  8
ASSI
100
AcDbLine
 62
253
  6
CONTINUOUS
 10
185.2075761055
 20
132.8394525759
 11
185.1143789082
 21
132.7464757689
  0
LINE
  5
30A
100
AcDbEntity
  8
RACCORDO
100
AcDbLine
 62
253
  6
CONTINUOUS
 10
184.4052283655
 20
133.6369360799
 11
184.3133985262
 21
133.5453416149
  0
LINE
  5
30B
100
AcDbEntity
  8
ASSI
100
AcDbLine
 62
253
  6
CONTINUOUS
 10
184.4052283655
 20
133.6369360799
 11
184.3133985262
 21
133.5453416149
  0
LINE
  5
30C
100
AcDbEntity
  8
RACCORDO
100
AcDbLine
 62
253
  6
CONTINUOUS
 10
140.5235299518
 20
88.3537471499
 11
140.6153592378
 21
88.4453416149
  0
LINE
  5
30D
100
AcDbEntity
  8
ASSI
100
AcDbLine
 62
253
  6
CONTINUOUS
 10
140.5235299518
 20
88.3537471499
 11
140.6153592378
 21
88.4453416149
  0
LINE
  5
30E
100
AcDbEntity
  8
RACCORDO
100
AcDbLine
 62
253
  6
CONTINUOUS
 10
184.405258093
 20
88.3537471499
 11
184.3133985262
 21
88.4453416149
  0
LINE
  5
30F
100
AcDbEntity
  8
ASSI
100
AcDbLine
 62
253
  6
CONTINUOUS
 10
184.405258093
 20
88.3537471499
 11
184.3133985262
 21
88.4453416149
  0
LINE
  5
310
100
AcDbEntity
  8
RACCORDO
100
AcDbLine
 62
253
  6
CONTINUOUS
 10
140.5235001311
 20
133.6369360799
 11
140.6153592378
 21
133.5453416149
  0
LINE
  5
311
100
AcDbEntity
  8
ASSI
100
AcDbLine
 62
253
  6
CONTINUOUS
 10
140.5235001311
 20
133.6369360799
 11
140.6153592378
 21
133.5453416149
  0
LINE
  5
312
100
AcDbEntity
  8
RACCORDO
100
AcDbLine
 62
253
  6
CONTINUOUS
 10
139.7211816667
 20
132.8394398314
 11
139.8143788558
 21
132.7464757689
  0
LINE
  5
313
100
AcDbEntity
  8
ASSI
100
AcDbLine
 62
253
  6
CONTINUOUS
 10
139.7211816667
 20
132.8394398314
 11
139.8143788558
 21
132.7464757689
  0
LINE
  5
314
100
AcDbEntity
  8
RACCORDO
100
AcDbLine
 62
253
  6
CONTINUOUS
 10
185.2075760973
 20
89.1512432506
 11
185.1143789082
 21
89.2442074609
  0
LINE
  5
315
100
AcDbEntity
  8
ASSI
100
AcDbLine
 62
253
  6
CONTINUOUS
 10
185.2075760973
 20
89.1512432506
 11
185.1143789082
 21
89.2442074609
  0
LINE
  5
316
100
AcDbEntity
  8
SCRITTE
100
AcDbLine
 62
253
  6
CONTINUOUS
 10
164.169129882
 20
83.1089506149
 11
164.460115882
 21
84.1479566149
  0
LINE
  5
317
100
AcDbEntity
  8
SCRITTE
100
AcDbLine
 62
253
  6
CONTINUOUS
 10
163.888325882
 20
82.1175406149
 11
164.049585882
 21
82.6764606149
  0
LINE
  5
318
100
AcDbEntity
  8
SCRITTE
100
AcDbLine
 62
253
  6
CONTINUOUS
 10
164.188423882
 20
84.9172436149
 11
163.310258882
 21
82.1175406149
  0
LINE
  5
319
100
AcDbEntity
  8
SCRITTE
100
AcDbLine
 62
253
  6
CONTINUOUS
 10
162.378472882
 20
84.9172436149
 11
161.794064882
 21
83.3628396149
  0
LINE
  5
31A
100
AcDbEntity
  8
SCRITTE
100
AcDbLine
 62
253
  6
CONTINUOUS
 10
161.831854882
 20
82.1175406149
 11
162.526715882
 21
83.9380726149
  0
LINE
  5
31B
100
AcDbEntity
  8
RACCORDO
100
AcDbLine
 62
253
  6
CONTINUOUS
 10
222.2943292589
 20
155.8022875186
 11
222.4842979816
 21
155.9953416149
  0
LINE
  5
31C
100
AcDbEntity
  8
ASSI
100
AcDbLine
 62
253
  6
CONTINUOUS
 10
222.2943292589
 20
155.8022875186
 11
222.4842979816
 21
155.9953416149
  0
LWPOLYLINE
  5
31D
100
AcDbEntity
  8
RACCORDO
100
AcDbPolyline
 62
253
  6
CONTINUOUS
 90
13
 70
0
 10
139.6523175565
 20
88.5319275438
 10
139.6820330636
 20
88.5535342763
 10
139.7100944247
 20
88.5741499591
 10
139.7362999539
 20
88.5936264209
 10
139.7604613041
 20
88.6118236786
 10
139.7824048204
 20
88.6286109428
 10
139.8019727878
 20
88.6438675583
 10
139.8190245655
 20
88.6574838712
 10
139.833437597
 20
88.6693620169
 10
139.8451082914
 20
88.6794166234
 10
139.8539527679
 20
88.6875754253
 10
139.8599074585
 20
88.6937797828
 10
139.862929565
 20
88.6979851032
  0
LWPOLYLINE
  5
31E
100
AcDbEntity
  8
ASSI
100
AcDbPolyline
 62
253
  6
CONTINUOUS
 90
13
 70
0
 10
139.6523175565
 20
88.5319275438
 10
139.6820330636
 20
88.5535342763
 10
139.7100944247
 20
88.5741499591
 10
139.7362999539
 20
88.5936264209
 10
139.7604613041
 20
88.6118236786
 10
139.7824048204
 20
88.6286109428
 10
139.8019727878
 20
88.6438675583
 10
139.8190245655
 20
88.6574838712
 10
139.833437597
 20
88.6693620169
 10
139.8451082914
 20
88.6794166234
 10
139.8539527679
 20
88.6875754253
 10
139.8599074585
 20
88.6937797828
 10
139.862929565
 20
88.6979851032
  0
LINE
  5
31F
100
AcDbEntity
  8
RACCORDO
100
AcDbLine
 62
253
  6
CONTINUOUS
 10
139.5887887554
 20
88.4863681134
 11
139.6523175565
 21
88.5319275438
  0
LINE
  5
320
100
AcDbEntity
  8
ASSI
100
AcDbLine
 62
253
  6
CONTINUOUS
 10
139.5887887554
 20
88.4863681134
 11
139.6523175565
 21
88.5319275438
  0
LINE
  5
321
100
AcDbEntity
  8
RACCORDO
100
AcDbLine
 62
253
  6
CONTINUOUS
 10
139.5213311436
 20
88.4387791127
 11
139.5887887554
 21
88.4863681134
  0
LINE
  5
322
100
AcDbEntity
  8
ASSI
100
AcDbLine
 62
253
  6
CONTINUOUS
 10
139.5213311436
 20
88.4387791127
 11
139.5887887554
 21
88.4863681134
  0
LINE
  5
323
100
AcDbEntity
  8
RACCORDO
100
AcDbLine
 62
253
  6
CONTINUOUS
 10
139.4518805909
 20
88.3905262303
 11
139.5213311436
 21
88.4387791127
  0
LINE
  5
324
100
AcDbEntity
  8
ASSI
100
AcDbLine
 62
253
  6
CONTINUOUS
 10
139.4518805909
 20
88.3905262303
 11
139.5213311436
 21
88.4387791127
  0
LINE
  5
325
100
AcDbEntity
  8
RACCORDO
100
AcDbLine
 62
253
  6
CONTINUOUS
 10
139.4518805908
 20
133.6001569808
 11
139.5213311617
 21
133.5519040834
  0
LINE
  5
326
100
AcDbEntity
  8
ASSI
100
AcDbLine
 62
253
  6
CONTINUOUS
 10
139.4518805908
 20
133.6001569808
 11
139.5213311617
 21
133.5519040834
  0
LINE
  5
327
100
AcDbEntity
  8
RACCORDO
100
AcDbLine
 62
253
  6
CONTINUOUS
 10
139.5213311617
 20
133.5519040834
 11
139.5887888022
 21
133.5043150619
  0
LINE
  5
328
100
AcDbEntity
  8
ASSI
100
AcDbLine
 62
253
  6
CONTINUOUS
 10
139.5213311617
 20
133.5519040834
 11
139.5887888022
 21
133.5043150619
  0
LWPOLYLINE
  5
329
100
AcDbEntity
  8
RACCORDO
100
AcDbPolyline
 62
253
  6
CONTINUOUS
 90
14
 70
0
 10
139.5887888022
 20
133.5043150619
 10
139.6523176394
 20
133.4587556071
 10
139.6820331662
 20
133.4371488618
 10
139.7100945475
 20
133.416533166
 10
139.736300097
 20
133.3970566914
 10
139.7604614674
 20
133.3788594215
 10
139.782405003
 20
133.3620721456
 10
139.8019729889
 20
133.3468155194
 10
139.8190247836
 20
133.3331991969
 10
139.8334378304
 20
133.3213210429
 10
139.8451085384
 20
133.3112664294
 10
139.8539530262
 20
133.303107622
 10
139.8599077259
 20
133.2969032607
 10
139.862929839
 20
133.2926979381
  0
LWPOLYLINE
  5
32A
100
AcDbEntity
  8
ASSI
100
AcDbPolyline
 62
253
  6
CONTINUOUS
 90
14
 70
0
 10
139.5887888022
 20
133.5043150619
 10
139.6523176394
 20
133.4587556071
 10
139.6820331662
 20
133.4371488618
 10
139.7100945475
 20
133.416533166
 10
139.736300097
 20
133.3970566914
 10
139.7604614674
 20
133.3788594215
 10
139.782405003
 20
133.3620721456
 10
139.8019729889
 20
133.3468155194
 10
139.8190247836
 20
133.3331991969
 10
139.8334378304
 20
133.3213210429
 10
139.8451085384
 20
133.3112664294
 10
139.8539530262
 20
133.303107622
 10
139.8599077259
 20
133.2969032607
 10
139.862929839
 20
133.2926979381
  0
LINE
  5
32B
100
AcDbEntity
  8
RACCORDO
100
AcDbLine
 62
253
  6
CONTINUOUS
 10
222.2943292589
 20
66.1883957112
 11
222.4842979816
 21
65.9953416149
  0
LINE
  5
32C
100
AcDbEntity
  8
ASSI
100
AcDbLine
 62
253
  6
CONTINUOUS
 10
222.2943292589
 20
66.1883957112
 11
222.4842979816
 21
65.9953416149
  0
LINE
  5
32D
100
AcDbEntity
  8
RACCORDO
100
AcDbLine
 62
253
  6
CONTINUOUS
 10
223.2826243289
 20
154.8140539637
 11
223.4643784885
 21
154.9988627158
  0
LINE
  5
32E
100
AcDbEntity
  8
ASSI
100
AcDbLine
 62
253
  6
CONTINUOUS
 10
223.2826243289
 20
154.8140539637
 11
223.4643784885
 21
154.9988627158
  0
LINE
  5
32F
100
AcDbEntity
  8
RACCORDO
100
AcDbLine
 62
253
  6
CONTINUOUS
 10
223.2826243289
 20
67.1766292657
 11
223.4643784885
 21
66.991820514
  0
LINE
  5
330
100
AcDbEntity
  8
ASSI
100
AcDbLine
 62
253
  6
CONTINUOUS
 10
223.2826243289
 20
67.1766292657
 11
223.4643784885
 21
66.991820514
  0
LWPOLYLINE
  5
331
100
AcDbEntity
  8
RACCORDO
100
AcDbPolyline
 62
7
  6
CONTINUOUS
 90
19
 70
0
 10
185.1143789082
 20
132.7464757689
 10
185.1126643948
 20
132.7989542405
 10
185.1075332742
 20
132.850914118
 10
185.0989855465
 20
132.9023554096
 10
185.086934783
 20
132.953579727
 10
185.0714674124
 20
133.0042854713
 10
185.0528427204
 20
133.0535678489
 10
185.0310966267
 20
133.1012403084
 10
185.0061932115
 20
133.1474894477
 10
184.978284002
 20
133.1919702172
 10
184.9472464112
 20
133.2348096501
 10
184.913203026
 20
133.2758807626
 10
184.8766731348
 20
133.3144574924
 10
184.8375613995
 20
133.3504812633
 10
184.7959631583
 20
133.3840107138
 10
184.7526837138
 20
133.4144956177
 10
184.7079915003
 20
133.4417525886
 10
184.6616180837
 20
133.465965073
 10
184.6135634638
 20
133.4871330957
  0
LWPOLYLINE
  5
332
100
AcDbEntity
  8
ASSI
100
AcDbPolyline
 62
7
  6
CONTINUOUS
 90
19
 70
0
 10
185.1143789082
 20
132.7464757689
 10
185.1126643948
 20
132.7989542405
 10
185.1075332742
 20
132.850914118
 10
185.0989855465
 20
132.9023554096
 10
185.086934783
 20
132.953579727
 10
185.0714674124
 20
133.0042854713
 10
185.0528427204
 20
133.0535678489
 10
185.0310966267
 20
133.1012403084
 10
185.0061932115
 20
133.1474894477
 10
184.978284002
 20
133.1919702172
 10
184.9472464112
 20
133.2348096501
 10
184.913203026
 20
133.2758807626
 10
184.8766731348
 20
133.3144574924
 10
184.8375613995
 20
133.3504812633
 10
184.7959631583
 20
133.3840107138
 10
184.7526837138
 20
133.4144956177
 10
184.7079915003
 20
133.4417525886
 10
184.6616180837
 20
133.465965073
 10
184.6135634638
 20
133.4871330957
  0
LINE
  5
333
100
AcDbEntity
  8
RACCORDO
100
AcDbLine
 62
253
  6
CONTINUOUS
 10
184.4052269219
 20
134.1630413547
 11
184.4052269219
 21
133.6369360799
  0
LINE
  5
334
100
AcDbEntity
  8
ASSI
100
AcDbLine
 62
253
  6
CONTINUOUS
 10
184.4052269219
 20
134.1630413547
 11
184.4052269219
 21
133.6369360799
  0
LINE
  5
335
100
AcDbEntity
  8
RACCORDO
100
AcDbLine
 62
253
  6
CONTINUOUS
 10
184.4052269219
 20
87.8276418751
 11
184.4052269219
 21
88.3537471499
  0
LINE
  5
336
100
AcDbEntity
  8
ASSI
100
AcDbLine
 62
253
  6
CONTINUOUS
 10
184.4052269219
 20
87.8276418751
 11
184.4052269219
 21
88.3537471499
  0
LINE
  5
337
100
AcDbEntity
  8
RACCORDO
100
AcDbLine
 62
7
  6
CONTINUOUS
 10
185.1143789082
 20
89.2442074609
 11
185.1143789082
 21
132.7464757689
  0
LINE
  5
338
100
AcDbEntity
  8
ASSI
100
AcDbLine
 62
7
  6
CONTINUOUS
 10
185.1143789082
 20
89.2442074609
 11
185.1143789082
 21
132.7464757689
  0
LINE
  5
339
100
AcDbEntity
  8
RACCORDO
100
AcDbLine
 62
253
  6
CONTINUOUS
 10
185.2075761055
 20
132.8394525759
 11
185.2075760973
 21
89.1512432506
  0
LINE
  5
33A
100
AcDbEntity
  8
ASSI
100
AcDbLine
 62
253
  6
CONTINUOUS
 10
185.2075761055
 20
132.8394525759
 11
185.2075760973
 21
89.1512432506
  0
LINE
  5
33B
100
AcDbEntity
  8
RACCORDO
100
AcDbLine
 62
253
  6
CONTINUOUS
 10
185.7068892248
 20
132.8624454495
 11
185.7068892248
 21
89.1282377803
  0
LINE
  5
33C
100
AcDbEntity
  8
ASSI
100
AcDbLine
 62
253
  6
CONTINUOUS
 10
185.7068892248
 20
132.8624454495
 11
185.7068892248
 21
89.1282377803
  0
LWPOLYLINE
  5
33D
100
AcDbEntity
  8
RACCORDO
100
AcDbPolyline
 62
253
  6
CONTINUOUS
 90
13
 70
0
 10
185.7068892248
 20
89.1282377803
 10
185.705478477
 20
89.064868972
 10
185.7007910967
 20
89.0013546193
 10
185.6928270839
 20
88.9376947267
 10
185.6815886958
 20
88.8735966551
 10
185.6670736752
 20
88.8093530563
 10
185.6492752504
 20
88.7458418521
 10
185.6280668122
 20
88.683036538
 10
185.6035749698
 20
88.6209635907
 10
185.5761727791
 20
88.5605803662
 10
185.5459845921
 20
88.5022059528
 10
185.5128860568
 20
88.4455211933
 10
185.4768771732
 20
88.3905260563
  0
LWPOLYLINE
  5
33E
100
AcDbEntity
  8
ASSI
100
AcDbPolyline
 62
253
  6
CONTINUOUS
 90
13
 70
0
 10
185.7068892248
 20
89.1282377803
 10
185.705478477
 20
89.064868972
 10
185.7007910967
 20
89.0013546193
 10
185.6928270839
 20
88.9376947267
 10
185.6815886958
 20
88.8735966551
 10
185.6670736752
 20
88.8093530563
 10
185.6492752504
 20
88.7458418521
 10
185.6280668122
 20
88.683036538
 10
185.6035749698
 20
88.6209635907
 10
185.5761727791
 20
88.5605803662
 10
185.5459845921
 20
88.5022059528
 10
185.5128860568
 20
88.4455211933
 10
185.4768771732
 20
88.3905260563
  0
LWPOLYLINE
  5
33F
100
AcDbEntity
  8
RACCORDO
100
AcDbPolyline
 62
253
  6
CONTINUOUS
 90
13
 70
0
 10
185.2075760859
 20
89.1512432619
 10
185.2066342747
 20
89.1124425841
 10
185.2037640328
 20
89.0733628
 10
185.1989170017
 20
89.0341018151
 10
185.1920357372
 20
88.994693371
 10
185.1830885483
 20
88.9553161268
 10
185.1721046707
 20
88.9162856979
 10
185.1590780296
 20
88.877683178
 10
185.1440257019
 20
88.8396441578
 10
185.1270937912
 20
88.8025438306
 10
185.1083923878
 20
88.7665571717
 10
185.0879482969
 20
88.7316771717
 10
185.0658307773
 20
88.6979833323
  0
LWPOLYLINE
  5
340
100
AcDbEntity
  8
ASSI
100
AcDbPolyline
 62
253
  6
CONTINUOUS
 90
13
 70
0
 10
185.2075760859
 20
89.1512432619
 10
185.2066342747
 20
89.1124425841
 10
185.2037640328
 20
89.0733628
 10
185.1989170017
 20
89.0341018151
 10
185.1920357372
 20
88.994693371
 10
185.1830885483
 20
88.9553161268
 10
185.1721046707
 20
88.9162856979
 10
185.1590780296
 20
88.877683178
 10
185.1440257019
 20
88.8396441578
 10
185.1270937912
 20
88.8025438306
 10
185.1083923878
 20
88.7665571717
 10
185.0879482969
 20
88.7316771717
 10
185.0658307773
 20
88.6979833323
  0
LWPOLYLINE
  5
341
100
AcDbEntity
  8
RACCORDO
100
AcDbPolyline
 62
7
  6
CONTINUOUS
 90
7
 70
0
 10
140.6153592378
 20
133.5453416149
 10
140.5640245208
 20
133.5436991191
 10
140.5132126948
 20
133.5388330823
 10
140.4629237597
 20
133.5307434901
 10
140.4131577156
 20
133.5194303187
 10
140.3639145624
 20
133.5048935348
 10
140.3151943002
 20
133.4871330957
  0
LWPOLYLINE
  5
342
100
AcDbEntity
  8
ASSI
100
AcDbPolyline
 62
7
  6
CONTINUOUS
 90
7
 70
0
 10
140.6153592378
 20
133.5453416149
 10
140.5640245208
 20
133.5436991191
 10
140.5132126948
 20
133.5388330823
 10
140.4629237597
 20
133.5307434901
 10
140.4131577156
 20
133.5194303187
 10
140.3639145624
 20
133.5048935348
 10
140.3151943002
 20
133.4871330957
  0
LWPOLYLINE
  5
343
100
AcDbEntity
  8
RACCORDO
100
AcDbPolyline
 62
253
  6
CONTINUOUS
 90
16
 70
0
 10
102.0191283001
 20
133.4966275338
 10
101.9796356713
 20
133.4960423626
 10
101.9412417063
 20
133.4952965937
 10
101.9042070206
 20
133.4943952895
 10
101.8687830031
 20
133.4933445678
 10
101.8352101098
 20
133.4921515609
 10
101.803716231
 20
133.4908243668
 10
101.7745151452
 20
133.4893719945
 10
101.7478050673
 20
133.4878043026
 10
101.7237673036
 20
133.4861319324
 10
101.7025650206
 20
133.484366236
 10
101.6843421382
 20
133.4825191986
 10
101.6692223519
 20
133.4806033579
 10
101.6573082939
 20
133.4786317185
 10
101.648680836
 20
133.4766176637
 10
101.6433985407
 20
133.4745748648
  0
LWPOLYLINE
  5
344
100
AcDbEntity
  8
ASSI
100
AcDbPolyline
 62
253
  6
CONTINUOUS
 90
16
 70
0
 10
102.0191283001
 20
133.4966275338
 10
101.9796356713
 20
133.4960423626
 10
101.9412417063
 20
133.4952965937
 10
101.9042070206
 20
133.4943952895
 10
101.8687830031
 20
133.4933445678
 10
101.8352101098
 20
133.4921515609
 10
101.803716231
 20
133.4908243668
 10
101.7745151452
 20
133.4893719945
 10
101.7478050673
 20
133.4878043026
 10
101.7237673036
 20
133.4861319324
 10
101.7025650206
 20
133.484366236
 10
101.6843421382
 20
133.4825191986
 10
101.6692223519
 20
133.4806033579
 10
101.6573082939
 20
133.4786317185
 10
101.648680836
 20
133.4766176637
 10
101.6433985407
 20
133.4745748648
  0
LWPOLYLINE
  5
345
100
AcDbEntity
  8
RACCORDO
100
AcDbPolyline
 62
253
  6
CONTINUOUS
 90
16
 70
0
 10
102.0191323479
 20
133.5994001006
 10
101.9796397851
 20
133.5988136135
 10
101.9412458801
 20
133.5980657581
 10
101.9042112471
 20
133.5971616109
 10
101.8687872738
 20
133.596107309
 10
101.8352144149
 20
133.594910009
 10
101.8037205597
 20
133.5935778381
 10
101.7745194857
 20
133.5921198389
 10
101.747809407
 20
133.5905459081
 10
101.7237716292
 20
133.5888667295
 10
101.7025693186
 20
133.5870937012
 10
101.6843463943
 20
133.5852388583
 10
101.669226552
 20
133.5833147913
 10
101.6573124238
 20
133.5813345607
 10
101.6486848815
 20
133.5793116079
 10
101.6434024883
 20
133.5772596648
  0
LWPOLYLINE
  5
346
100
AcDbEntity
  8
ASSI
100
AcDbPolyline
 62
253
  6
CONTINUOUS
 90
16
 70
0
 10
102.0191323479
 20
133.5994001006
 10
101.9796397851
 20
133.5988136135
 10
101.9412458801
 20
133.5980657581
 10
101.9042112471
 20
133.5971616109
 10
101.8687872738
 20
133.596107309
 10
101.8352144149
 20
133.594910009
 10
101.8037205597
 20
133.5935778381
 10
101.7745194857
 20
133.5921198389
 10
101.747809407
 20
133.5905459081
 10
101.7237716292
 20
133.5888667295
 10
101.7025693186
 20
133.5870937012
 10
101.6843463943
 20
133.5852388583
 10
101.669226552
 20
133.5833147913
 10
101.6573124238
 20
133.5813345607
 10
101.6486848815
 20
133.5793116079
 10
101.6434024883
 20
133.5772596648
  0
LWPOLYLINE
  5
347
100
AcDbEntity
  8
RACCORDO
100
AcDbPolyline
 62
253
  6
CONTINUOUS
 90
16
 70
0
 10
185.5817042508
 20
132.8616728611
 10
185.54136405
 20
132.8610770929
 10
185.5022009647
 20
132.8603182715
 10
185.4644934993
 20
132.8594017932
 10
185.4285098066
 20
132.8583341755
 10
185.394505781
 20
132.8571230106
 10
185.3627232386
 20
132.8557769115
 10
185.3333881979
 20
132.8543054509
 10
185.3067092721
 20
132.8527190931
 10
185.2828761855
 20
132.8510291191
 10
185.2620584247
 20
132.849247547
 10
185.2444040333
 20
132.8473870465
 10
185.2300385585
 20
132.8454608481
 10
185.2190641591
 20
132.8434826498
 10
185.2115588783
 20
132.8414665195
 10
185.2075760893
 20
132.8394267947
  0
LWPOLYLINE
  5
348
100
AcDbEntity
  8
ASSI
100
AcDbPolyline
 62
253
  6
CONTINUOUS
 90
16
 70
0
 10
185.5817042508
 20
132.8616728611
 10
185.54136405
 20
132.8610770929
 10
185.5022009647
 20
132.8603182715
 10
185.4644934993
 20
132.8594017932
 10
185.4285098066
 20
132.8583341755
 10
185.394505781
 20
132.8571230106
 10
185.3627232386
 20
132.8557769115
 10
185.3333881979
 20
132.8543054509
 10
185.3067092721
 20
132.8527190931
 10
185.2828761855
 20
132.8510291191
 10
185.2620584247
 20
132.849247547
 10
185.2444040333
 20
132.8473870465
 10
185.2300385585
 20
132.8454608481
 10
185.2190641591
 20
132.8434826498
 10
185.2115588783
 20
132.8414665195
 10
185.2075760893
 20
132.8394267947
  0
LINE
  5
349
100
AcDbEntity
  8
RACCORDO
100
AcDbLine
 62
253
  6
CONTINUOUS
 10
102.1003355213
 20
133.6000741683
 11
102.0191323479
 21
133.5994001006
  0
LINE
  5
34A
100
AcDbEntity
  8
ASSI
100
AcDbLine
 62
253
  6
CONTINUOUS
 10
102.1003355213
 20
133.6000741683
 11
102.0191323479
 21
133.5994001006
  0
LWPOLYLINE
  5
34B
100
AcDbEntity
  8
RACCORDO
100
AcDbPolyline
 62
253
  6
CONTINUOUS
 90
3
 70
0
 10
185.7068892248
 20
132.8624454491
 10
185.6647621672
 20
132.8623594806
 10
185.5817042508
 20
132.8616728611
  0
LWPOLYLINE
  5
34C
100
AcDbEntity
  8
ASSI
100
AcDbPolyline
 62
253
  6
CONTINUOUS
 90
3
 70
0
 10
185.7068892248
 20
132.8624454491
 10
185.6647621672
 20
132.8623594806
 10
185.5817042508
 20
132.8616728611
  0
LWPOLYLINE
  5
34D
100
AcDbEntity
  8
RACCORDO
100
AcDbPolyline
 62
253
  6
CONTINUOUS
 90
3
 70
0
 10
102.1414911036
 20
133.4973853454
 10
102.1003316175
 20
133.497301312
 10
102.0191283001
 20
133.4966275338
  0
LWPOLYLINE
  5
34E
100
AcDbEntity
  8
ASSI
100
AcDbPolyline
 62
253
  6
CONTINUOUS
 90
3
 70
0
 10
102.1414911036
 20
133.4973853454
 10
102.1003316175
 20
133.497301312
 10
102.0191283001
 20
133.4966275338
  0
LINE
  5
34F
100
AcDbEntity
  8
RACCORDO
100
AcDbLine
 62
253
  6
CONTINUOUS
 10
101.6433985402
 20
133.4745748648
 11
101.464378882
 21
133.4745748648
  0
LINE
  5
350
100
AcDbEntity
  8
ASSI
100
AcDbLine
 62
253
  6
CONTINUOUS
 10
101.6433985402
 20
133.4745748648
 11
101.464378882
 21
133.4745748648
  0
LINE
  5
351
100
AcDbEntity
  8
RACCORDO
100
AcDbLine
 62
253
  6
CONTINUOUS
 10
223.2853592237
 20
133.4745748648
 11
223.464378882
 21
133.4745748648
  0
LINE
  5
352
100
AcDbEntity
  8
ASSI
100
AcDbLine
 62
253
  6
CONTINUOUS
 10
223.2853592237
 20
133.4745748648
 11
223.464378882
 21
133.4745748648
  0
LINE
  5
353
100
AcDbEntity
  8
RACCORDO
100
AcDbLine
 62
7
  6
CONTINUOUS
 10
184.3133985262
 20
133.5453416149
 11
140.6153592378
 21
133.5453416149
  0
LINE
  5
354
100
AcDbEntity
  8
ASSI
100
AcDbLine
 62
7
  6
CONTINUOUS
 10
184.3133985262
 20
133.5453416149
 11
140.6153592378
 21
133.5453416149
  0
LINE
  5
355
100
AcDbEntity
  8
RACCORDO
100
AcDbLine
 62
253
  6
CONTINUOUS
 10
139.4518805908
 20
133.6001571735
 11
102.1003355213
 21
133.6000741683
  0
LINE
  5
356
100
AcDbEntity
  8
ASSI
100
AcDbLine
 62
253
  6
CONTINUOUS
 10
139.4518805908
 20
133.6001571735
 11
102.1003355213
 21
133.6000741683
  0
LINE
  5
357
100
AcDbEntity
  8
RACCORDO
100
AcDbLine
 62
253
  6
CONTINUOUS
 10
140.5235001311
 20
133.6369360799
 11
184.4052283655
 21
133.6369360799
  0
LINE
  5
358
100
AcDbEntity
  8
ASSI
100
AcDbLine
 62
253
  6
CONTINUOUS
 10
140.5235001311
 20
133.6369360799
 11
184.4052283655
 21
133.6369360799
  0
LINE
  5
359
100
AcDbEntity
  8
RACCORDO
100
AcDbLine
 62
253
  6
CONTINUOUS
 10
140.5235308421
 20
134.1630413547
 11
184.4052269219
 21
134.1630413547
  0
LINE
  5
35A
100
AcDbEntity
  8
ASSI
100
AcDbLine
 62
253
  6
CONTINUOUS
 10
140.5235308421
 20
134.1630413547
 11
184.4052269219
 21
134.1630413547
  0
LINE
  5
35B
100
AcDbEntity
  8
RACCORDO
100
AcDbLine
 62
253
  6
CONTINUOUS
 10
185.4768771732
 20
133.6001571735
 11
222.8284222418
 21
133.6000741675
  0
LINE
  5
35C
100
AcDbEntity
  8
ASSI
100
AcDbLine
 62
253
  6
CONTINUOUS
 10
185.4768771732
 20
133.6001571735
 11
222.8284222418
 21
133.6000741675
  0
LWPOLYLINE
  5
35D
100
AcDbEntity
  8
RACCORDO
100
AcDbPolyline
 62
253
  6
CONTINUOUS
 90
18
 70
0
 10
139.2218685392
 20
132.8624453322
 10
139.3058232593
 20
132.8621012503
 10
139.3470538225
 20
132.8616727847
 10
139.3873941598
 20
132.8610770282
 10
139.4265573925
 20
132.8603182176
 10
139.4642650128
 20
132.8594017491
 10
139.5002488646
 20
132.8583341401
 10
139.53425305
 20
132.8571229829
 10
139.5660357497
 20
132.8557768905
 10
139.5953709421
 20
132.8543054358
 10
139.6220500114
 20
132.8527190828
 10
139.6458832303
 20
132.8510291128
 10
139.6667011098
 20
132.8492475441
 10
139.6843556044
 20
132.8473870462
 10
139.6987211649
 20
132.8454608498
 10
139.7096956311
 20
132.8434826531
 10
139.7172009586
 20
132.841466524
 10
139.7211837735
 20
132.8394268001
  0
LWPOLYLINE
  5
35E
100
AcDbEntity
  8
ASSI
100
AcDbPolyline
 62
253
  6
CONTINUOUS
 90
18
 70
0
 10
139.2218685392
 20
132.8624453322
 10
139.3058232593
 20
132.8621012503
 10
139.3470538225
 20
132.8616727847
 10
139.3873941598
 20
132.8610770282
 10
139.4265573925
 20
132.8603182176
 10
139.4642650128
 20
132.8594017491
 10
139.5002488646
 20
132.8583341401
 10
139.53425305
 20
132.8571229829
 10
139.5660357497
 20
132.8557768905
 10
139.5953709421
 20
132.8543054358
 10
139.6220500114
 20
132.8527190828
 10
139.6458832303
 20
132.8510291128
 10
139.6667011098
 20
132.8492475441
 10
139.6843556044
 20
132.8473870462
 10
139.6987211649
 20
132.8454608498
 10
139.7096956311
 20
132.8434826531
 10
139.7172009586
 20
132.841466524
 10
139.7211837735
 20
132.8394268001
  0
LWPOLYLINE
  5
35F
100
AcDbEntity
  8
RACCORDO
100
AcDbPolyline
 62
253
  6
CONTINUOUS
 90
18
 70
0
 10
222.7872666604
 20
133.4973853457
 10
222.8693062453
 20
133.4970481356
 10
222.9096294648
 20
133.4966275341
 10
222.9491220938
 20
133.4960423629
 10
222.9875160591
 20
133.495296594
 10
223.024550745
 20
133.4943952897
 10
223.0599747626
 20
133.493344568
 10
223.0935476561
 20
133.4921515611
 10
223.1250415349
 20
133.490824367
 10
223.1542426208
 20
133.4893719947
 10
223.1809526987
 20
133.4878043028
 10
223.2049904624
 20
133.4861319326
 10
223.2261927452
 20
133.4843662361
 10
223.2444156275
 20
133.4825191987
 10
223.2595354135
 20
133.480603358
 10
223.2714494713
 20
133.4786317185
 10
223.2800769289
 20
133.4766176637
 10
223.2853592237
 20
133.4745748648
  0
LWPOLYLINE
  5
360
100
AcDbEntity
  8
ASSI
100
AcDbPolyline
 62
253
  6
CONTINUOUS
 90
18
 70
0
 10
222.7872666604
 20
133.4973853457
 10
222.8693062453
 20
133.4970481356
 10
222.9096294648
 20
133.4966275341
 10
222.9491220938
 20
133.4960423629
 10
222.9875160591
 20
133.495296594
 10
223.024550745
 20
133.4943952897
 10
223.0599747626
 20
133.493344568
 10
223.0935476561
 20
133.4921515611
 10
223.1250415349
 20
133.490824367
 10
223.1542426208
 20
133.4893719947
 10
223.1809526987
 20
133.4878043028
 10
223.2049904624
 20
133.4861319326
 10
223.2261927452
 20
133.4843662361
 10
223.2444156275
 20
133.4825191987
 10
223.2595354135
 20
133.480603358
 10
223.2714494713
 20
133.4786317185
 10
223.2800769289
 20
133.4766176637
 10
223.2853592237
 20
133.4745748648
  0
LWPOLYLINE
  5
361
100
AcDbEntity
  8
RACCORDO
100
AcDbPolyline
 62
253
  6
CONTINUOUS
 90
17
 70
0
 10
222.8284222418
 20
133.6000741675
 10
222.9096254136
 20
133.5994000998
 10
222.9491179756
 20
133.5988136127
 10
222.9875118799
 20
133.5980657574
 10
223.0245465123
 20
133.5971616102
 10
223.059970485
 20
133.5961073084
 10
223.0935433436
 20
133.5949100084
 10
223.1250371985
 20
133.5935778376
 10
223.1542382724
 20
133.5921198384
 10
223.1809483511
 20
133.5905459077
 10
223.2049861291
 20
133.5888667292
 10
223.2261884401
 20
133.5870937009
 10
223.2444113648
 20
133.5852388581
 10
223.2595312078
 20
133.5833147911
 10
223.2714453369
 20
133.5813345605
 10
223.2800728801
 20
133.5793116079
 10
223.2853552745
 20
133.5772596648
  0
LWPOLYLINE
  5
362
100
AcDbEntity
  8
ASSI
100
AcDbPolyline
 62
253
  6
CONTINUOUS
 90
17
 70
0
 10
222.8284222418
 20
133.6000741675
 10
222.9096254136
 20
133.5994000998
 10
222.9491179756
 20
133.5988136127
 10
222.9875118799
 20
133.5980657574
 10
223.0245465123
 20
133.5971616102
 10
223.059970485
 20
133.5961073084
 10
223.0935433436
 20
133.5949100084
 10
223.1250371985
 20
133.5935778376
 10
223.1542382724
 20
133.5921198384
 10
223.1809483511
 20
133.5905459077
 10
223.2049861291
 20
133.5888667292
 10
223.2261884401
 20
133.5870937009
 10
223.2444113648
 20
133.5852388581
 10
223.2595312078
 20
133.5833147911
 10
223.2714453369
 20
133.5813345605
 10
223.2800728801
 20
133.5793116079
 10
223.2853552745
 20
133.5772596648
  0
LWPOLYLINE
  5
363
100
AcDbEntity
  8
RACCORDO
100
AcDbPolyline
 62
253
  6
CONTINUOUS
 90
19
 70
0
 10
184.405228368
 20
133.6369360823
 10
184.4476667284
 20
133.6358916914
 10
184.4900914098
 20
133.6326024952
 10
184.5323822794
 20
133.6270614641
 10
184.5743895766
 20
133.6192748483
 10
184.616020544
 20
133.6092449293
 10
184.6572360308
 20
133.5969547341
 10
184.6980010309
 20
133.5823744153
 10
184.738091019
 20
133.5655430407
 10
184.7771905594
 20
133.5465749424
 10
184.8151420317
 20
133.5255538613
 10
184.8518819754
 20
133.5025226289
 10
184.8872589965
 20
133.4775814459
 10
184.9211588232
 20
133.4508266889
 10
184.9535086977
 20
133.4223324676
 10
184.9842301718
 20
133.3921784071
 10
185.0132430322
 20
133.3604541552
 10
185.0404671294
 20
133.3272609091
 10
185.0658307773
 20
133.2926998975
  0
LWPOLYLINE
  5
364
100
AcDbEntity
  8
ASSI
100
AcDbPolyline
 62
253
  6
CONTINUOUS
 90
19
 70
0
 10
184.405228368
 20
133.6369360823
 10
184.4476667284
 20
133.6358916914
 10
184.4900914098
 20
133.6326024952
 10
184.5323822794
 20
133.6270614641
 10
184.5743895766
 20
133.6192748483
 10
184.616020544
 20
133.6092449293
 10
184.6572360308
 20
133.5969547341
 10
184.6980010309
 20
133.5823744153
 10
184.738091019
 20
133.5655430407
 10
184.7771905594
 20
133.5465749424
 10
184.8151420317
 20
133.5255538613
 10
184.8518819754
 20
133.5025226289
 10
184.8872589965
 20
133.4775814459
 10
184.9211588232
 20
133.4508266889
 10
184.9535086977
 20
133.4223324676
 10
184.9842301718
 20
133.3921784071
 10
185.0132430322
 20
133.3604541552
 10
185.0404671294
 20
133.3272609091
 10
185.0658307773
 20
133.2926998975
  0
LWPOLYLINE
  5
365
100
AcDbEntity
  8
RACCORDO
100
AcDbPolyline
 62
253
  6
CONTINUOUS
 90
19
 70
0
 10
184.4052269219
 20
134.1630413547
 10
184.4741829348
 20
134.1612510181
 10
184.5427907088
 20
134.1557920409
 10
184.6110502437
 20
134.146664404
 10
184.6791369381
 20
134.1338714518
 10
184.7468753934
 20
134.117409763
 10
184.8137394148
 20
134.0972691506
 10
184.8798534647
 20
134.07334782
 10
184.9450930808
 20
134.045747411
 10
185.0085586808
 20
134.0147628758
 10
185.0701512489
 20
133.9803539222
 10
185.129969801
 20
133.9425606355
 10
185.1874118034
 20
133.9017985424
 10
185.2424273015
 20
133.8580412275
 10
185.2950662498
 20
133.8113148773
 10
185.3448759782
 20
133.7621139462
 10
185.3917055965
 20
133.7106031888
 10
185.4357059948
 20
133.6566176364
 10
185.4768771732
 20
133.6001571735
  0
LWPOLYLINE
  5
366
100
AcDbEntity
  8
ASSI
100
AcDbPolyline
 62
253
  6
CONTINUOUS
 90
19
 70
0
 10
184.4052269219
 20
134.1630413547
 10
184.4741829348
 20
134.1612510181
 10
184.5427907088
 20
134.1557920409
 10
184.6110502437
 20
134.146664404
 10
184.6791369381
 20
134.1338714518
 10
184.7468753934
 20
134.117409763
 10
184.8137394148
 20
134.0972691506
 10
184.8798534647
 20
134.07334782
 10
184.9450930808
 20
134.045747411
 10
185.0085586808
 20
134.0147628758
 10
185.0701512489
 20
133.9803539222
 10
185.129969801
 20
133.9425606355
 10
185.1874118034
 20
133.9017985424
 10
185.2424273015
 20
133.8580412275
 10
185.2950662498
 20
133.8113148773
 10
185.3448759782
 20
133.7621139462
 10
185.3917055965
 20
133.7106031888
 10
185.4357059948
 20
133.6566176364
 10
185.4768771732
 20
133.6001571735
  0
LWPOLYLINE
  5
367
100
AcDbEntity
  8
RACCORDO
100
AcDbPolyline
 62
253
  6
CONTINUOUS
 90
19
 70
0
 10
185.4768771732
 20
88.3905260563
 10
185.435743604
 20
88.3341200632
 10
185.3917964324
 20
88.280190486
 10
185.3450356585
 20
88.2287372089
 10
185.2953034744
 20
88.1795942887
 10
185.2427576879
 20
88.1329274549
 10
185.1878717228
 20
88.0892340865
 10
185.1306166584
 20
88.0485518122
 10
185.0710214154
 20
88.0108427743
 10
185.0096461792
 20
87.9764910975
 10
184.9464385889
 20
87.9455337623
 10
184.8814510054
 20
87.9179335833
 10
184.8154006969
 20
87.8939634314
 10
184.748267095
 20
87.8736872973
 10
184.6800707681
 20
87.8570410375
 10
184.61159069
 20
87.844105331
 10
184.5430865185
 20
87.8349070441
 10
184.4742985958
 20
87.829419232
 10
184.4052269219
 20
87.8276418751
  0
LWPOLYLINE
  5
368
100
AcDbEntity
  8
ASSI
100
AcDbPolyline
 62
253
  6
CONTINUOUS
 90
19
 70
0
 10
185.4768771732
 20
88.3905260563
 10
185.435743604
 20
88.3341200632
 10
185.3917964324
 20
88.280190486
 10
185.3450356585
 20
88.2287372089
 10
185.2953034744
 20
88.1795942887
 10
185.2427576879
 20
88.1329274549
 10
185.1878717228
 20
88.0892340865
 10
185.1306166584
 20
88.0485518122
 10
185.0710214154
 20
88.0108427743
 10
185.0096461792
 20
87.9764910975
 10
184.9464385889
 20
87.9455337623
 10
184.8814510054
 20
87.9179335833
 10
184.8154006969
 20
87.8939634314
 10
184.748267095
 20
87.8736872973
 10
184.6800707681
 20
87.8570410375
 10
184.61159069
 20
87.844105331
 10
184.5430865185
 20
87.8349070441
 10
184.4742985958
 20
87.829419232
 10
184.4052269219
 20
87.8276418751
  0
LWPOLYLINE
  5
369
100
AcDbEntity
  8
RACCORDO
100
AcDbPolyline
 62
253
  6
CONTINUOUS
 90
19
 70
0
 10
185.0658307773
 20
88.6979833323
 10
185.0405258461
 20
88.663497947
 10
185.0133585469
 20
88.6303624296
 10
184.9843982436
 20
88.5986789972
 10
184.9537159637
 20
88.568543622
 10
184.9213961309
 20
88.5400545921
 10
184.88753813
 20
88.5133102265
 10
184.8522271684
 20
88.488390366
 10
184.8155677326
 20
88.4653805734
 10
184.7777004362
 20
88.444373085
 10
184.738718035
 20
88.4254238567
 10
184.6987489933
 20
88.4085995713
 10
184.6580021199
 20
88.3939797346
 10
184.6165975562
 20
88.3815938467
 10
184.5746617606
 20
88.3714663592
 10
184.5324241507
 20
88.363628352
 10
184.4900463226
 20
88.3580760064
 10
184.4476172483
 20
88.3547889928
 10
184.4052581462
 20
88.3537470975
  0
LWPOLYLINE
  5
36A
100
AcDbEntity
  8
ASSI
100
AcDbPolyline
 62
253
  6
CONTINUOUS
 90
19
 70
0
 10
185.0658307773
 20
88.6979833323
 10
185.0405258461
 20
88.663497947
 10
185.0133585469
 20
88.6303624296
 10
184.9843982436
 20
88.5986789972
 10
184.9537159637
 20
88.568543622
 10
184.9213961309
 20
88.5400545921
 10
184.88753813
 20
88.5133102265
 10
184.8522271684
 20
88.488390366
 10
184.8155677326
 20
88.4653805734
 10
184.7777004362
 20
88.444373085
 10
184.738718035
 20
88.4254238567
 10
184.6987489933
 20
88.4085995713
 10
184.6580021199
 20
88.3939797346
 10
184.6165975562
 20
88.3815938467
 10
184.5746617606
 20
88.3714663592
 10
184.5324241507
 20
88.363628352
 10
184.4900463226
 20
88.3580760064
 10
184.4476172483
 20
88.3547889928
 10
184.4052581462
 20
88.3537470975
  0
LWPOLYLINE
  5
36B
100
AcDbEntity
  8
RACCORDO
100
AcDbPolyline
 62
7
  6
CONTINUOUS
 90
19
 70
0
 10
184.6135634638
 20
88.5035501341
 10
184.6616079546
 20
88.5247119316
 10
184.707974572
 20
88.5489199688
 10
184.7526633159
 20
88.5761742705
 10
184.7959435
 20
88.6066583056
 10
184.8375458106
 20
88.6401886654
 10
184.8766623073
 20
88.6762150565
 10
184.9131967943
 20
88.7147952649
 10
184.9472454674
 20
88.7558715669
 10
184.9782889727
 20
88.7987203925
 10
185.0062070785
 20
88.843223387
 10
185.0311200166
 20
88.8894989546
 10
185.0528691293
 20
88.937178649
 10
185.0714840212
 20
88.9864285581
 10
185.0869350877
 20
89.0370826396
 10
185.0989748568
 20
89.0882742321
 10
185.1075208379
 20
89.1397144477
 10
185.1126555217
 20
89.1916921878
 10
185.1143789082
 20
89.2442074609
  0
LWPOLYLINE
  5
36C
100
AcDbEntity
  8
ASSI
100
AcDbPolyline
 62
7
  6
CONTINUOUS
 90
19
 70
0
 10
184.6135634638
 20
88.5035501341
 10
184.6616079546
 20
88.5247119316
 10
184.707974572
 20
88.5489199688
 10
184.7526633159
 20
88.5761742705
 10
184.7959435
 20
88.6066583056
 10
184.8375458106
 20
88.6401886654
 10
184.8766623073
 20
88.6762150565
 10
184.9131967943
 20
88.7147952649
 10
184.9472454674
 20
88.7558715669
 10
184.9782889727
 20
88.7987203925
 10
185.0062070785
 20
88.843223387
 10
185.0311200166
 20
88.8894989546
 10
185.0528691293
 20
88.937178649
 10
185.0714840212
 20
88.9864285581
 10
185.0869350877
 20
89.0370826396
 10
185.0989748568
 20
89.0882742321
 10
185.1075208379
 20
89.1397144477
 10
185.1126555217
 20
89.1916921878
 10
185.1143789082
 20
89.2442074609
  0
LWPOLYLINE
  5
36D
100
AcDbEntity
  8
RACCORDO
100
AcDbPolyline
 62
7
  6
CONTINUOUS
 90
7
 70
0
 10
184.6135634638
 20
133.4871330957
 10
184.5648677737
 20
133.5048887839
 10
184.5156393638
 20
133.5194227172
 10
184.4658782341
 20
133.5307349385
 10
184.4155843846
 20
133.5388254808
 10
184.3647578153
 20
133.5436943682
 10
184.3133985262
 20
133.5453416149
  0
LWPOLYLINE
  5
36E
100
AcDbEntity
  8
ASSI
100
AcDbPolyline
 62
7
  6
CONTINUOUS
 90
7
 70
0
 10
184.6135634638
 20
133.4871330957
 10
184.5648677737
 20
133.5048887839
 10
184.5156393638
 20
133.5194227172
 10
184.4658782341
 20
133.5307349385
 10
184.4155843846
 20
133.5388254808
 10
184.3647578153
 20
133.5436943682
 10
184.3133985262
 20
133.5453416149
  0
LWPOLYLINE
  5
36F
100
AcDbEntity
  8
RACCORDO
100
AcDbPolyline
 62
253
  6
CONTINUOUS
 90
13
 70
0
 10
185.0658307773
 20
133.2926998975
 10
185.0877830463
 20
133.2592722559
 10
185.1081119216
 20
133.2246333491
 10
185.1267431408
 20
133.1888574082
 10
185.1436399489
 20
133.1519435531
 10
185.1586919103
 20
133.1140521322
 10
185.171756491
 20
133.0755208165
 10
185.182810306
 20
133.0364587381
 10
185.1918393548
 20
132.9969653765
 10
185.1987966957
 20
132.9573871525
 10
185.2037054495
 20
132.9179138147
 10
185.2066181425
 20
132.8785691555
 10
185.2075760828
 20
132.8394525537
  0
LWPOLYLINE
  5
370
100
AcDbEntity
  8
ASSI
100
AcDbPolyline
 62
253
  6
CONTINUOUS
 90
13
 70
0
 10
185.0658307773
 20
133.2926998975
 10
185.0877830463
 20
133.2592722559
 10
185.1081119216
 20
133.2246333491
 10
185.1267431408
 20
133.1888574082
 10
185.1436399489
 20
133.1519435531
 10
185.1586919103
 20
133.1140521322
 10
185.171756491
 20
133.0755208165
 10
185.182810306
 20
133.0364587381
 10
185.1918393548
 20
132.9969653765
 10
185.1987966957
 20
132.9573871525
 10
185.2037054495
 20
132.9179138147
 10
185.2066181425
 20
132.8785691555
 10
185.2075760828
 20
132.8394525537
  0
LWPOLYLINE
  5
371
100
AcDbEntity
  8
RACCORDO
100
AcDbPolyline
 62
253
  6
CONTINUOUS
 90
13
 70
0
 10
185.4768771732
 20
133.6001571735
 10
185.512611956
 20
133.5456452319
 10
185.5455055517
 20
133.4893813064
 10
185.5755579603
 20
133.431365365
 10
185.6029024636
 20
133.3713018576
 10
185.6274057799
 20
133.3094862635
 10
185.6486680634
 20
133.2468051116
 10
185.6665742238
 20
133.1832527445
 10
185.6812393515
 20
133.1188347858
 10
185.6926088728
 20
133.0544547226
 10
185.7006645965
 20
132.990413727
 10
185.7054247139
 20
132.9264106353
 10
185.7068892248
 20
132.8624454495
  0
LWPOLYLINE
  5
372
100
AcDbEntity
  8
ASSI
100
AcDbPolyline
 62
253
  6
CONTINUOUS
 90
13
 70
0
 10
185.4768771732
 20
133.6001571735
 10
185.512611956
 20
133.5456452319
 10
185.5455055517
 20
133.4893813064
 10
185.5755579603
 20
133.431365365
 10
185.6029024636
 20
133.3713018576
 10
185.6274057799
 20
133.3094862635
 10
185.6486680634
 20
133.2468051116
 10
185.6665742238
 20
133.1832527445
 10
185.6812393515
 20
133.1188347858
 10
185.6926088728
 20
133.0544547226
 10
185.7006645965
 20
132.990413727
 10
185.7054247139
 20
132.9264106353
 10
185.7068892248
 20
132.8624454495
  0
LWPOLYLINE
  5
373
100
AcDbEntity
  8
RACCORDO
100
AcDbPolyline
 62
253
  6
CONTINUOUS
 90
28
 70
0
 10
102.6344285051
 20
155.8022875186
 10
102.5773238779
 20
155.800429024
 10
102.5204801837
 20
155.7952878502
 10
102.4640818141
 20
155.7868873194
 10
102.4083383744
 20
155.7752677655
 10
102.3534019583
 20
155.7604696691
 10
102.2993706129
 20
155.7425181193
 10
102.2463848612
 20
155.7214469491
 10
102.1946600196
 20
155.6973293391
 10
102.1444031066
 20
155.6702571845
 10
102.0957958908
 20
155.6403273988
 10
102.0489808956
 20
155.6076279018
 10
102.0040974259
 20
155.5722548825
 10
101.9612936536
 20
155.5343172683
 10
101.9207157254
 20
155.4939374427
 10
101.882492871
 20
155.4512412569
 10
101.8467559613
 20
155.4063634931
 10
101.8136276723
 20
155.3594472091
 10
101.7832152288
 20
155.3106402464
 10
101.7556242574
 20
155.2600940452
 10
101.7309552339
 20
155.2079743471
 10
101.7092944039
 20
155.1544594353
 10
101.6907217987
 20
155.0997259548
 10
101.6753042495
 20
155.0439477474
 10
101.6630934334
 20
154.987305733
 10
101.6541363023
 20
154.9299841819
 10
101.6484737358
 20
154.872170437
 10
101.646133435
 20
154.8140539643
  0
LWPOLYLINE
  5
374
100
AcDbEntity
  8
ASSI
100
AcDbPolyline
 62
253
  6
CONTINUOUS
 90
28
 70
0
 10
102.6344285051
 20
155.8022875186
 10
102.5773238779
 20
155.800429024
 10
102.5204801837
 20
155.7952878502
 10
102.4640818141
 20
155.7868873194
 10
102.4083383744
 20
155.7752677655
 10
102.3534019583
 20
155.7604696691
 10
102.2993706129
 20
155.7425181193
 10
102.2463848612
 20
155.7214469491
 10
102.1946600196
 20
155.6973293391
 10
102.1444031066
 20
155.6702571845
 10
102.0957958908
 20
155.6403273988
 10
102.0489808956
 20
155.6076279018
 10
102.0040974259
 20
155.5722548825
 10
101.9612936536
 20
155.5343172683
 10
101.9207157254
 20
155.4939374427
 10
101.882492871
 20
155.4512412569
 10
101.8467559613
 20
155.4063634931
 10
101.8136276723
 20
155.3594472091
 10
101.7832152288
 20
155.3106402464
 10
101.7556242574
 20
155.2600940452
 10
101.7309552339
 20
155.2079743471
 10
101.7092944039
 20
155.1544594353
 10
101.6907217987
 20
155.0997259548
 10
101.6753042495
 20
155.0439477474
 10
101.6630934334
 20
154.987305733
 10
101.6541363023
 20
154.9299841819
 10
101.6484737358
 20
154.872170437
 10
101.646133435
 20
154.8140539643
  0
LWPOLYLINE
  5
375
100
AcDbEntity
  8
RACCORDO
100
AcDbPolyline
 62
253
  6
CONTINUOUS
 90
28
 70
0
 10
102.6344285051
 20
155.3941229766
 10
102.6057178756
 20
155.3932723907
 10
102.5773149995
 20
155.3907859973
 10
102.5492198765
 20
155.3866637828
 10
102.521348178
 20
155.3808856229
 10
102.4937842327
 20
155.373471588
 10
102.4667810272
 20
155.3644819453
 10
102.4403323231
 20
155.3538972912
 10
102.4144443589
 20
155.3417369268
 10
102.3893888362
 20
155.3281191696
 10
102.3651815812
 20
155.3130327052
 10
102.3418067678
 20
155.2964887096
 10
102.3194886196
 20
155.278639238
 10
102.2982344071
 20
155.2594705985
 10
102.2780368597
 20
155.2389963233
 10
102.2590983893
 20
155.2174093172
 10
102.2414299115
 20
155.1946967878
 10
102.2250205106
 20
155.1708713651
 10
102.2100398516
 20
155.1461641132
 10
102.1965022276
 20
155.1205654558
 10
102.1843933454
 20
155.0940848239
 10
102.1738399911
 20
155.0669818295
 10
102.164857441
 20
155.0392407824
 10
102.1574304187
 20
155.0108772615
 10
102.1516398803
 20
154.9821978315
 10
102.1475128112
 20
154.9533046739
 10
102.1450222259
 20
154.9240955561
 10
102.1441681245
 20
154.8945704488
  0
LWPOLYLINE
  5
376
100
AcDbEntity
  8
ASSI
100
AcDbPolyline
 62
253
  6
CONTINUOUS
 90
28
 70
0
 10
102.6344285051
 20
155.3941229766
 10
102.6057178756
 20
155.3932723907
 10
102.5773149995
 20
155.3907859973
 10
102.5492198765
 20
155.3866637828
 10
102.521348178
 20
155.3808856229
 10
102.4937842327
 20
155.373471588
 10
102.4667810272
 20
155.3644819453
 10
102.4403323231
 20
155.3538972912
 10
102.4144443589
 20
155.3417369268
 10
102.3893888362
 20
155.3281191696
 10
102.3651815812
 20
155.3130327052
 10
102.3418067678
 20
155.2964887096
 10
102.3194886196
 20
155.278639238
 10
102.2982344071
 20
155.2594705985
 10
102.2780368597
 20
155.2389963233
 10
102.2590983893
 20
155.2174093172
 10
102.2414299115
 20
155.1946967878
 10
102.2250205106
 20
155.1708713651
 10
102.2100398516
 20
155.1461641132
 10
102.1965022276
 20
155.1205654558
 10
102.1843933454
 20
155.0940848239
 10
102.1738399911
 20
155.0669818295
 10
102.164857441
 20
155.0392407824
 10
102.1574304187
 20
155.0108772615
 10
102.1516398803
 20
154.9821978315
 10
102.1475128112
 20
154.9533046739
 10
102.1450222259
 20
154.9240955561
 10
102.1441681245
 20
154.8945704488
  0
LWPOLYLINE
  5
377
100
AcDbEntity
  8
RACCORDO
100
AcDbPolyline
 62
253
  6
CONTINUOUS
 90
19
 70
0
 10
102.1441681245
 20
154.8945704353
 10
102.1030450826
 20
154.8942787348
 10
102.0622006861
 20
154.8933897025
 10
102.0219116926
 20
154.8919093621
 10
101.982451096
 20
154.8898477444
 10
101.9440862772
 20
154.8872188186
 10
101.9070771924
 20
154.8840403982
 10
101.8716746113
 20
154.8803340196
 10
101.838118418
 20
154.8761247971
 10
101.806635986
 20
154.8714412518
 10
101.7774406369
 20
154.8663151189
 10
101.7507301953
 20
154.8607811327
 10
101.7266856485
 20
154.8548767907
 10
101.7054699199
 20
154.8486421003
 10
101.687226765
 20
154.8421193071
 10
101.6720797975
 20
154.8353526088
 10
101.6601316518
 20
154.8283878558
 10
101.6514632873
 20
154.8212722407
 10
101.6461334398
 20
154.814053978
  0
LWPOLYLINE
  5
378
100
AcDbEntity
  8
ASSI
100
AcDbPolyline
 62
253
  6
CONTINUOUS
 90
19
 70
0
 10
102.1441681245
 20
154.8945704353
 10
102.1030450826
 20
154.8942787348
 10
102.0622006861
 20
154.8933897025
 10
102.0219116926
 20
154.8919093621
 10
101.982451096
 20
154.8898477444
 10
101.9440862772
 20
154.8872188186
 10
101.9070771924
 20
154.8840403982
 10
101.8716746113
 20
154.8803340196
 10
101.838118418
 20
154.8761247971
 10
101.806635986
 20
154.8714412518
 10
101.7774406369
 20
154.8663151189
 10
101.7507301953
 20
154.8607811327
 10
101.7266856485
 20
154.8548767907
 10
101.7054699199
 20
154.8486421003
 10
101.687226765
 20
154.8421193071
 10
101.6720797975
 20
154.8353526088
 10
101.6601316518
 20
154.8283878558
 10
101.6514632873
 20
154.8212722407
 10
101.6461334398
 20
154.814053978
  0
LINE
  5
379
100
AcDbEntity
  8
RACCORDO
100
AcDbLine
 62
253
  6
CONTINUOUS
 10
222.2943292589
 20
155.3941229766
 11
102.6344285051
 21
155.3941229766
  0
LINE
  5
37A
100
AcDbEntity
  8
ASSI
100
AcDbLine
 62
253
  6
CONTINUOUS
 10
222.2943292589
 20
155.3941229766
 11
102.6344285051
 21
155.3941229766
  0
LINE
  5
37B
100
AcDbEntity
  8
RACCORDO
100
AcDbLine
 62
253
  6
CONTINUOUS
 10
222.2943292589
 20
155.8022875186
 11
102.6344285051
 21
155.8022875186
  0
LINE
  5
37C
100
AcDbEntity
  8
ASSI
100
AcDbLine
 62
253
  6
CONTINUOUS
 10
222.2943292589
 20
155.8022875186
 11
102.6344285051
 21
155.8022875186
  0
LINE
  5
37D
100
AcDbEntity
  8
RACCORDO
100
AcDbLine
 62
7
  6
CONTINUOUS
 10
222.4842979816
 20
155.9953416149
 11
102.4444597824
 21
155.9953416149
  0
LINE
  5
37E
100
AcDbEntity
  8
ASSI
100
AcDbLine
 62
7
  6
CONTINUOUS
 10
222.4842979816
 20
155.9953416149
 11
102.4444597824
 21
155.9953416149
  0
LWPOLYLINE
  5
37F
100
AcDbEntity
  8
RACCORDO
100
AcDbPolyline
 62
253
  6
CONTINUOUS
 90
19
 70
0
 10
222.7845896395
 20
154.8945704434
 10
222.8257123408
 20
154.8942787162
 10
222.8665563749
 20
154.8933896601
 10
222.9068449895
 20
154.8919092992
 10
222.9463051955
 20
154.8898476641
 10
222.9846696171
 20
154.8872187241
 10
223.0216783032
 20
154.8840402924
 10
223.0570804891
 20
154.8803339055
 10
223.0906362955
 20
154.8761246773
 10
223.1221183537
 20
154.8714411289
 10
223.1513133464
 20
154.8663149951
 10
223.1780234532
 20
154.8607810099
 10
223.2020676909
 20
154.8548766706
 10
223.2232831396
 20
154.8486419843
 10
223.2415260469
 20
154.842119196
 10
223.2566728019
 20
154.8353525033
 10
223.2686207728
 20
154.8283877563
 10
223.2772890019
 20
154.8212721469
 10
223.2826187549
 20
154.8140538894
  0
LWPOLYLINE
  5
380
100
AcDbEntity
  8
ASSI
100
AcDbPolyline
 62
253
  6
CONTINUOUS
 90
19
 70
0
 10
222.7845896395
 20
154.8945704434
 10
222.8257123408
 20
154.8942787162
 10
222.8665563749
 20
154.8933896601
 10
222.9068449895
 20
154.8919092992
 10
222.9463051955
 20
154.8898476641
 10
222.9846696171
 20
154.8872187241
 10
223.0216783032
 20
154.8840402924
 10
223.0570804891
 20
154.8803339055
 10
223.0906362955
 20
154.8761246773
 10
223.1221183537
 20
154.8714411289
 10
223.1513133464
 20
154.8663149951
 10
223.1780234532
 20
154.8607810099
 10
223.2020676909
 20
154.8548766706
 10
223.2232831396
 20
154.8486419843
 10
223.2415260469
 20
154.842119196
 10
223.2566728019
 20
154.8353525033
 10
223.2686207728
 20
154.8283877563
 10
223.2772890019
 20
154.8212721469
 10
223.2826187549
 20
154.8140538894
  0
LWPOLYLINE
  5
381
100
AcDbEntity
  8
RACCORDO
100
AcDbPolyline
 62
7
  6
CONTINUOUS
 90
28
 70
0
 10
222.4842979816
 20
155.9953416149
 10
222.5408103708
 20
155.9937396571
 10
222.5968655776
 20
155.9889099913
 10
222.6524636021
 20
155.980852563
 10
222.7078503668
 20
155.9695105621
 10
222.7627799492
 20
155.954940579
 10
222.8165145815
 20
155.9373126137
 10
222.8689283319
 20
155.9166300165
 10
222.9201471322
 20
155.8928890296
 10
222.9698110098
 20
155.8662489643
 10
223.0179152906
 20
155.8367219265
 10
223.0644646486
 20
155.8042952466
 10
223.1091131336
 20
155.769091058
 10
223.1519730013
 20
155.7309506652
 10
223.1929319961
 20
155.6900320482
 10
223.2313074001
 20
155.6469324126
 10
223.26696151
 20
155.6017194506
 10
223.3000320292
 20
155.5543248192
 10
223.33024935
 20
155.505141796
 10
223.3575987895
 20
155.454199755
 10
223.3820950306
 20
155.4014687209
 10
223.4035125149
 20
155.347253052
 10
223.4218699052
 20
155.2913768445
 10
223.4371485387
 20
155.2340154357
 10
223.4490668685
 20
155.1760002522
 10
223.4575310456
 20
155.1176084277
 10
223.4626349189
 20
155.0585626229
 10
223.4643784885
 20
154.9988627158
  0
LWPOLYLINE
  5
382
100
AcDbEntity
  8
ASSI
100
AcDbPolyline
 62
7
  6
CONTINUOUS
 90
28
 70
0
 10
222.4842979816
 20
155.9953416149
 10
222.5408103708
 20
155.9937396571
 10
222.5968655776
 20
155.9889099913
 10
222.6524636021
 20
155.980852563
 10
222.7078503668
 20
155.9695105621
 10
222.7627799492
 20
155.954940579
 10
222.8165145815
 20
155.9373126137
 10
222.8689283319
 20
155.9166300165
 10
222.9201471322
 20
155.8928890296
 10
222.9698110098
 20
155.8662489643
 10
223.0179152906
 20
155.8367219265
 10
223.0644646486
 20
155.8042952466
 10
223.1091131336
 20
155.769091058
 10
223.1519730013
 20
155.7309506652
 10
223.1929319961
 20
155.6900320482
 10
223.2313074001
 20
155.6469324126
 10
223.26696151
 20
155.6017194506
 10
223.3000320292
 20
155.5543248192
 10
223.33024935
 20
155.505141796
 10
223.3575987895
 20
155.454199755
 10
223.3820950306
 20
155.4014687209
 10
223.4035125149
 20
155.347253052
 10
223.4218699052
 20
155.2913768445
 10
223.4371485387
 20
155.2340154357
 10
223.4490668685
 20
155.1760002522
 10
223.4575310456
 20
155.1176084277
 10
223.4626349189
 20
155.0585626229
 10
223.4643784885
 20
154.9988627158
  0
LWPOLYLINE
  5
383
100
AcDbEntity
  8
RACCORDO
100
AcDbPolyline
 62
253
  6
CONTINUOUS
 90
28
 70
0
 10
223.282624329
 20
154.8140539638
 10
223.280284604
 20
154.8721615093
 10
223.2746264841
 20
154.9299444414
 10
223.2656814057
 20
154.9872139871
 10
223.2534985146
 20
155.0437651803
 10
223.2381257428
 20
155.0994346275
 10
223.2195978611
 20
155.1540977844
 10
223.1979627472
 20
155.2076089468
 10
223.1733041411
 20
155.2597585461
 10
223.1457221156
 20
155.3103322389
 10
223.1153251238
 20
155.3591528558
 10
223.0822129488
 20
155.4060813826
 10
223.0464914024
 20
155.4509723361
 10
223.0082823801
 20
155.4936834113
 10
222.9677173462
 20
155.5340788781
 10
222.924925863
 20
155.5720324776
 10
222.8800533211
 20
155.6074223983
 10
222.8332486226
 20
155.6401390574
 10
222.7846540161
 20
155.6700845611
 10
222.7344252759
 20
155.6971650582
 10
222.6827321128
 20
155.7212921337
 10
222.6297439153
 20
155.7423881522
 10
222.5756423159
 20
155.7603835335
 10
222.52059693
 20
155.7752253297
 10
222.4647630517
 20
155.7868717801
 10
222.4083138298
 20
155.7952835841
 10
222.3514408965
 20
155.8004286714
 10
222.2943292589
 20
155.8022875186
  0
LWPOLYLINE
  5
384
100
AcDbEntity
  8
ASSI
100
AcDbPolyline
 62
253
  6
CONTINUOUS
 90
28
 70
0
 10
223.282624329
 20
154.8140539638
 10
223.280284604
 20
154.8721615093
 10
223.2746264841
 20
154.9299444414
 10
223.2656814057
 20
154.9872139871
 10
223.2534985146
 20
155.0437651803
 10
223.2381257428
 20
155.0994346275
 10
223.2195978611
 20
155.1540977844
 10
223.1979627472
 20
155.2076089468
 10
223.1733041411
 20
155.2597585461
 10
223.1457221156
 20
155.3103322389
 10
223.1153251238
 20
155.3591528558
 10
223.0822129488
 20
155.4060813826
 10
223.0464914024
 20
155.4509723361
 10
223.0082823801
 20
155.4936834113
 10
222.9677173462
 20
155.5340788781
 10
222.924925863
 20
155.5720324776
 10
222.8800533211
 20
155.6074223983
 10
222.8332486226
 20
155.6401390574
 10
222.7846540161
 20
155.6700845611
 10
222.7344252759
 20
155.6971650582
 10
222.6827321128
 20
155.7212921337
 10
222.6297439153
 20
155.7423881522
 10
222.5756423159
 20
155.7603835335
 10
222.52059693
 20
155.7752253297
 10
222.4647630517
 20
155.7868717801
 10
222.4083138298
 20
155.7952835841
 10
222.3514408965
 20
155.8004286714
 10
222.2943292589
 20
155.8022875186
  0
LWPOLYLINE
  5
385
100
AcDbEntity
  8
RACCORDO
100
AcDbPolyline
 62
253
  6
CONTINUOUS
 90
28
 70
0
 10
222.7845896395
 20
154.8945704488
 10
222.783728594
 20
154.9241179361
 10
222.7812373398
 20
154.9533304557
 10
222.7771158769
 20
154.9822080386
 10
222.7713399867
 20
155.0108409316
 10
222.7639338879
 20
155.0391389433
 10
222.7549702361
 20
155.0668314711
 10
222.7444296655
 20
155.0939208616
 10
222.7323315419
 20
155.1204048752
 10
222.7188066176
 20
155.1460060776
 10
222.7038436296
 20
155.1707070878
 10
222.687453841
 20
155.1945254324
 10
222.6698017933
 20
155.2172360767
 10
222.6508754378
 20
155.2388292178
 10
222.6306868232
 20
155.25931482
 10
222.6094366375
 20
155.2784975237
 10
222.587114945
 20
155.2963646742
 10
222.5637316813
 20
155.3129290857
 10
222.5395173406
 20
155.328033616
 10
222.5144642784
 20
155.3416639072
 10
222.4885801392
 20
155.3538344562
 10
222.4621183515
 20
155.3644314058
 10
222.4350668953
 20
155.3734397745
 10
222.4074377906
 20
155.3808746462
 10
222.3795205258
 20
155.3866672556
 10
222.351411597
 20
155.3907946995
 10
222.323014508
 20
155.3932799353
 10
222.2943292589
 20
155.3941229766
  0
LWPOLYLINE
  5
386
100
AcDbEntity
  8
ASSI
100
AcDbPolyline
 62
253
  6
CONTINUOUS
 90
28
 70
0
 10
222.7845896395
 20
154.8945704488
 10
222.783728594
 20
154.9241179361
 10
222.7812373398
 20
154.9533304557
 10
222.7771158769
 20
154.9822080386
 10
222.7713399867
 20
155.0108409316
 10
222.7639338879
 20
155.0391389433
 10
222.7549702361
 20
155.0668314711
 10
222.7444296655
 20
155.0939208616
 10
222.7323315419
 20
155.1204048752
 10
222.7188066176
 20
155.1460060776
 10
222.7038436296
 20
155.1707070878
 10
222.687453841
 20
155.1945254324
 10
222.6698017933
 20
155.2172360767
 10
222.6508754378
 20
155.2388292178
 10
222.6306868232
 20
155.25931482
 10
222.6094366375
 20
155.2784975237
 10
222.587114945
 20
155.2963646742
 10
222.5637316813
 20
155.3129290857
 10
222.5395173406
 20
155.328033616
 10
222.5144642784
 20
155.3416639072
 10
222.4885801392
 20
155.3538344562
 10
222.4621183515
 20
155.3644314058
 10
222.4350668953
 20
155.3734397745
 10
222.4074377906
 20
155.3808746462
 10
222.3795205258
 20
155.3866672556
 10
222.351411597
 20
155.3907946995
 10
222.323014508
 20
155.3932799353
 10
222.2943292589
 20
155.3941229766
  0
LINE
  5
387
100
AcDbEntity
  8
RACCORDO
100
AcDbLine
 62
253
  6
CONTINUOUS
 10
222.2943292589
 20
66.5965602532
 11
222.2943292592
 21
66.1883957112
  0
LINE
  5
388
100
AcDbEntity
  8
ASSI
100
AcDbLine
 62
253
  6
CONTINUOUS
 10
222.2943292589
 20
66.5965602532
 11
222.2943292592
 21
66.1883957112
  0
LINE
  5
389
100
AcDbEntity
  8
RACCORDO
100
AcDbLine
 62
253
  6
CONTINUOUS
 10
222.2943292589
 20
155.3941229766
 11
222.2943292589
 21
155.8022875186
  0
LINE
  5
38A
100
AcDbEntity
  8
ASSI
100
AcDbLine
 62
253
  6
CONTINUOUS
 10
222.2943292589
 20
155.3941229766
 11
222.2943292589
 21
155.8022875186
  0
LINE
  5
38B
100
AcDbEntity
  8
RACCORDO
100
AcDbLine
 62
253
  6
CONTINUOUS
 10
222.7864395459
 20
143.1019704272
 11
222.7845896395
 21
154.8945704488
  0
LINE
  5
38C
100
AcDbEntity
  8
ASSI
100
AcDbLine
 62
253
  6
CONTINUOUS
 10
222.7864395459
 20
143.1019704272
 11
222.7845896395
 21
154.8945704488
  0
LINE
  5
38D
100
AcDbEntity
  8
RACCORDO
100
AcDbLine
 62
253
  6
CONTINUOUS
 10
223.2845128645
 20
143.053327617
 11
223.2826243289
 21
154.8140539637
  0
LINE
  5
38E
100
AcDbEntity
  8
ASSI
100
AcDbLine
 62
253
  6
CONTINUOUS
 10
223.2845128645
 20
143.053327617
 11
223.2826243289
 21
154.8140539637
  0
LINE
  5
38F
100
AcDbEntity
  8
RACCORDO
100
AcDbLine
 62
7
  6
CONTINUOUS
 10
223.4643784885
 20
154.9988627158
 11
223.464378882
 21
133.4745748648
  0
LINE
  5
390
100
AcDbEntity
  8
DRAFT
100
AcDbLine
 62
7
  6
CONTINUOUS
 10
223.464378882
 20
133.4745748648
 11
223.464378882
 21
88.516108365
  0
LINE
  5
391
100
AcDbEntity
  8
RACCORDO
100
AcDbLine
 62
7
  6
CONTINUOUS
 10
223.464378882
 20
88.516108365
 11
223.4643784885
 21
66.991820514
  0
LINE
  5
392
100
AcDbEntity
  8
ASSI
100
AcDbLine
 62
7
  6
CONTINUOUS
 10
223.4643784885
 20
154.9988627158
 11
223.4643784885
 21
66.991820514
  0
LINE
  5
393
100
AcDbEntity
  8
RACCORDO
100
AcDbLine
 62
253
  6
CONTINUOUS
 10
222.7845896395
 20
67.096112781
 11
222.7864395459
 21
143.1019704272
  0
LINE
  5
394
100
AcDbEntity
  8
ASSI
100
AcDbLine
 62
253
  6
CONTINUOUS
 10
222.7845896395
 20
67.096112781
 11
222.7864395459
 21
143.1019704272
  0
LINE
  5
395
100
AcDbEntity
  8
RACCORDO
100
AcDbLine
 62
253
  6
CONTINUOUS
 10
223.2826243289
 20
67.1766292657
 11
223.2845128645
 21
143.053327617
  0
LINE
  5
396
100
AcDbEntity
  8
ASSI
100
AcDbLine
 62
253
  6
CONTINUOUS
 10
223.2826243289
 20
67.1766292657
 11
223.2845128645
 21
143.053327617
  0
LWPOLYLINE
  5
397
100
AcDbEntity
  8
RACCORDO
100
AcDbPolyline
 62
7
  6
CONTINUOUS
 90
28
 70
0
 10
223.4643784885
 20
66.991820514
 10
223.4626301587
 20
66.9321067364
 10
223.4575261389
 20
66.873060094
 10
223.4490664293
 20
66.814680462
 10
223.4371592416
 20
66.7566988901
 10
223.4218963641
 20
66.699384117
 10
223.4035531612
 20
66.6435423954
 10
223.3821464525
 20
66.5893378855
 10
223.3576594186
 20
66.5366058668
 10
223.3303169655
 20
66.4856590681
 10
223.3001028713
 20
66.4364682759
 10
223.2670333579
 20
66.3890621035
 10
223.2313819969
 20
66.3438399133
 10
223.1930120818
 20
66.3007358154
 10
223.152060319
 20
66.2598150479
 10
223.1092103997
 20
66.221673539
 10
223.0645789715
 20
66.1864708974
 10
223.0180493867
 20
66.1540467984
 10
222.9699553932
 20
66.124517212
 10
222.9202883742
 20
66.0978656097
 10
222.8690569465
 20
66.0741079574
 10
222.8166207075
 20
66.0534089821
 10
222.7628448362
 20
66.0357651365
 10
222.7078641538
 20
66.0211795597
 10
222.652442721
 20
66.0098270355
 10
222.5968352249
 20
66.0017657481
 10
222.5407869784
 20
65.9969372927
 10
222.4842979816
 20
65.9953416149
  0
LWPOLYLINE
  5
398
100
AcDbEntity
  8
ASSI
100
AcDbPolyline
 62
7
  6
CONTINUOUS
 90
28
 70
0
 10
223.4643784885
 20
66.991820514
 10
223.4626301587
 20
66.9321067364
 10
223.4575261389
 20
66.873060094
 10
223.4490664293
 20
66.814680462
 10
223.4371592416
 20
66.7566988901
 10
223.4218963641
 20
66.699384117
 10
223.4035531612
 20
66.6435423954
 10
223.3821464525
 20
66.5893378855
 10
223.3576594186
 20
66.5366058668
 10
223.3303169655
 20
66.4856590681
 10
223.3001028713
 20
66.4364682759
 10
223.2670333579
 20
66.3890621035
 10
223.2313819969
 20
66.3438399133
 10
223.1930120818
 20
66.3007358154
 10
223.152060319
 20
66.2598150479
 10
223.1092103997
 20
66.221673539
 10
223.0645789715
 20
66.1864708974
 10
223.0180493867
 20
66.1540467984
 10
222.9699553932
 20
66.124517212
 10
222.9202883742
 20
66.0978656097
 10
222.8690569465
 20
66.0741079574
 10
222.8166207075
 20
66.0534089821
 10
222.7628448362
 20
66.0357651365
 10
222.7078641538
 20
66.0211795597
 10
222.652442721
 20
66.0098270355
 10
222.5968352249
 20
66.0017657481
 10
222.5407869784
 20
65.9969372927
 10
222.4842979816
 20
65.9953416149
  0
LINE
  5
399
100
AcDbEntity
  8
RACCORDO
100
AcDbLine
 62
7
  6
CONTINUOUS
 10
71.4788009168
 20
66.1883957112
 11
73.6854193346
 21
65.9953416149
  0
LINE
  5
39A
100
AcDbEntity
  8
ASSI
100
AcDbLine
 62
7
  6
CONTINUOUS
 10
71.4788009168
 20
66.1883957112
 11
73.6854193346
 21
65.9953416149
  0
LINE
  5
39B
100
AcDbEntity
  8
RACCORDO
100
AcDbLine
 62
253
  6
CONTINUOUS
 10
71.3885130168
 20
67.1766292657
 11
73.4997181614
 21
66.991820514
  0
LINE
  5
39C
100
AcDbEntity
  8
ASSI
100
AcDbLine
 62
253
  6
CONTINUOUS
 10
71.3885130168
 20
67.1766292657
 11
73.4997181614
 21
66.991820514
  0
LINE
  5
39D
100
AcDbEntity
  8
RACCORDO
100
AcDbLine
 62
253
  6
CONTINUOUS
 10
70.9399705496
 20
67.0961127946
 11
71.3885130194
 21
67.1766292518
  0
LINE
  5
39E
100
AcDbEntity
  8
ASSI
100
AcDbLine
 62
253
  6
CONTINUOUS
 10
70.9399705496
 20
67.0961127946
 11
71.3885130194
 21
67.1766292518
  0
LWPOLYLINE
  5
39F
100
AcDbEntity
  8
RACCORDO
100
AcDbPolyline
 62
253
  6
CONTINUOUS
 90
16
 70
0
 10
73.9527799161
 20
67.2860907568
 10
74.0764427429
 20
67.3044373685
 10
74.2001163366
 20
67.3256390936
 10
74.3237241708
 20
67.3497008027
 10
74.4471040007
 20
67.3765448104
 10
74.5702513062
 20
67.4062586098
 10
74.6933175494
 20
67.4390954406
 10
74.8162253173
 20
67.475032352
 10
74.9388486422
 20
67.5141035842
 10
75.0612553338
 20
67.5566494609
 10
75.183438351
 20
67.6026439507
 10
75.305156712
 20
67.6521261784
 10
75.4261346377
 20
67.7055356655
 10
75.5462258981
 20
67.7630240785
 10
75.6653864665
 20
67.8244544674
 10
75.7835176695
 20
67.8898340912
  0
LINE
  5
3A0
100
AcDbEntity
  8
RACCORDO
100
AcDbLine
 62
253
  6
CONTINUOUS
 10
75.7835176695
 20
67.8898340912
 11
73.8461932127
 21
67.8781301026
  0
LINE
  5
3A1
100
AcDbEntity
  8
RACCORDO
100
AcDbLine
 62
7
  6
CONTINUOUS
 10
73.4681811094
 20
68.5482784293
 11
73.729020501
 21
68.5437254608
  0
LWPOLYLINE
  5
3A2
100
AcDbEntity
  8
RACCORDO
100
AcDbPolyline
 62
253
  6
CONTINUOUS
 90
15
 70
0
 10
71.4788009168
 20
66.1883957112
 10
71.476293145
 20
66.1902542058
 10
71.4736261683
 20
66.1953953796
 10
71.4708138211
 20
66.2037959104
 10
71.4678714646
 20
66.2154154643
 10
71.4648078071
 20
66.2302135607
 10
71.4616265621
 20
66.2481651105
 10
71.4583329061
 20
66.2692362807
 10
71.4549429355
 20
66.2933538907
 10
71.4514757851
 20
66.3204260453
 10
71.4479340489
 20
66.350355831
 10
71.4443268815
 20
66.383055328
 10
71.4406809417
 20
66.4184283473
 10
71.4369951373
 20
66.4563659615
 10
71.4332756624
 20
66.4967457871
  0
LWPOLYLINE
  5
3A3
100
AcDbEntity
  8
ASSI
100
AcDbPolyline
 62
253
  6
CONTINUOUS
 90
15
 70
0
 10
71.4788009168
 20
66.1883957112
 10
71.476293145
 20
66.1902542058
 10
71.4736261683
 20
66.1953953796
 10
71.4708138211
 20
66.2037959104
 10
71.4678714646
 20
66.2154154643
 10
71.4648078071
 20
66.2302135607
 10
71.4616265621
 20
66.2481651105
 10
71.4583329061
 20
66.2692362807
 10
71.4549429355
 20
66.2933538907
 10
71.4514757851
 20
66.3204260453
 10
71.4479340489
 20
66.350355831
 10
71.4443268815
 20
66.383055328
 10
71.4406809417
 20
66.4184283473
 10
71.4369951373
 20
66.4563659615
 10
71.4332756624
 20
66.4967457871
  0
LINE
  5
3A4
100
AcDbEntity
  8
RACCORDO
100
AcDbLine
 62
7
  6
CONTINUOUS
 10
71.9338732573
 20
77.42812089
 11
72.4299737888
 21
77.4411117396
  0
LINE
  5
3A5
100
AcDbEntity
  8
RACCORDO
100
AcDbLine
 62
7
  6
CONTINUOUS
 10
72.034791631
 20
76.5599196992
 11
72.538248614
 21
76.5467362141
  0
LWPOLYLINE
  5
3A6
100
AcDbEntity
  8
0
100
AcDbPolyline
 62
7
  6
CONTINUOUS
 90
18
 70
0
 10
73.0047552685
 20
73.1039422799
 10
72.9526030857
 20
73.1263376963
 10
72.9001159738
 20
73.1525878983
 10
72.8493519446
 20
73.1818204566
 10
72.8002901046
 20
73.2141039276
 10
72.7529513473
 20
73.249369755
 10
72.7079340376
 20
73.2871935656
 10
72.6652946025
 20
73.3276011192
 10
72.624976615
 20
73.370566656
 10
72.5874091588
 20
73.4155885226
 10
72.5526504488
 20
73.4626386316
 10
72.52064227
 20
73.5117450704
 10
72.4916390611
 20
73.5624904482
 10
72.4656378388
 20
73.6149520905
 10
72.4426415863
 20
73.6690526718
 10
72.4229136923
 20
73.7241428255
 10
72.4065419529
 20
73.7800060962
 10
72.3982784298
 20
73.8158598035
  0
LINE
  5
3A7
100
AcDbEntity
  8
RACCORDO
100
AcDbLine
 62
253
  6
CONTINUOUS
 10
71.1895851288
 20
85.4120708626
 11
71.1867633689
 21
85.4118227288
  0
LINE
  5
3A8
100
AcDbEntity
  8
RACCORDO
100
AcDbLine
 62
253
  6
CONTINUOUS
 10
71.2141939056
 20
85.4140015449
 11
71.1895851288
 21
85.4120708626
  0
LINE
  5
3A9
100
AcDbEntity
  8
RACCORDO
100
AcDbLine
 62
253
  6
CONTINUOUS
 10
71.5105525528
 20
85.4353820723
 11
71.2141939056
 21
85.4140015449
  0
LINE
  5
3AA
100
AcDbEntity
  8
RACCORDO
100
AcDbLine
 62
253
  6
CONTINUOUS
 10
71.6836848301
 20
85.4475830211
 11
71.5105525528
 21
85.4353820723
  0
LWPOLYLINE
  5
3AB
100
AcDbEntity
  8
RACCORDO
100
AcDbPolyline
 62
253
  6
CONTINUOUS
 90
3
 70
0
 10
71.0038979313
 20
88.5214812657
 10
70.9977073164
 20
88.5210856274
 10
70.9975442393
 20
88.5210707341
  0
LINE
  5
3AC
100
AcDbEntity
  8
RACCORDO
100
AcDbLine
 62
253
  6
CONTINUOUS
 10
71.0468910544
 20
88.5238906406
 11
71.0038979313
 21
88.5214812657
  0
LINE
  5
3AD
100
AcDbEntity
  8
RACCORDO
100
AcDbLine
 62
253
  6
CONTINUOUS
 10
71.4949588007
 20
88.5471453133
 11
71.0468910544
 21
88.5238906406
  0
LINE
  5
3AE
100
AcDbEntity
  8
RACCORDO
100
AcDbLine
 62
253
  6
CONTINUOUS
 10
68.5009291744
 20
88.3905260563
 11
68.956720497
 21
88.413423565
  0
LINE
  5
3AF
100
AcDbEntity
  8
ASSI
100
AcDbLine
 62
253
  6
CONTINUOUS
 10
68.5009291744
 20
88.3905260563
 11
68.956720497
 21
88.413423565
  0
LINE
  5
3B0
100
AcDbEntity
  8
RACCORDO
100
AcDbLine
 62
253
  6
CONTINUOUS
 10
68.4957719046
 20
88.4932978844
 11
68.9515689418
 21
88.516108365
  0
LINE
  5
3B1
100
AcDbEntity
  8
ASSI
100
AcDbLine
 62
253
  6
CONTINUOUS
 10
68.4957719046
 20
88.4932978844
 11
68.9515689418
 21
88.516108365
  0
LINE
  5
3B2
100
AcDbEntity
  8
0
100
AcDbLine
 62
253
  6
CONTINUOUS
 10
76.5009291744
 20
88.6267324224
 11
73.7695198036
 21
88.5813793202
  0
LINE
  5
3B3
100
AcDbEntity
  8
0
100
AcDbLine
 62
253
  6
CONTINUOUS
 10
73.7695198036
 20
88.5813793202
 11
71.4950127957
 21
88.5460082815
  0
LINE
  5
3B4
100
AcDbEntity
  8
RACCORDO
100
AcDbLine
 62
253
  6
CONTINUOUS
 10
68.9515689418
 20
88.516108365
 11
70.9977729988
 21
88.516108365
  0
LINE
  5
3B5
100
AcDbEntity
  8
ASSI
100
AcDbLine
 62
253
  6
CONTINUOUS
 10
68.9515689418
 20
88.516108365
 11
70.9977729988
 21
88.516108365
  0
LINE
  5
3B6
100
AcDbEntity
  8
RACCORDO
100
AcDbLine
 62
253
  6
CONTINUOUS
 10
71.0114168022
 20
90.2659069672
 11
71.0125312772
 21
90.2659795943
  0
LINE
  5
3B7
100
AcDbEntity
  8
RACCORDO
100
AcDbLine
 62
253
  6
CONTINUOUS
 10
71.0125312772
 20
90.2659795943
 11
71.0388802896
 21
90.2672823849
  0
LINE
  5
3B8
100
AcDbEntity
  8
RACCORDO
100
AcDbLine
 62
253
  6
CONTINUOUS
 10
71.0388802896
 20
90.2672823849
 11
71.3058588574
 21
90.2798069018
  0
LWPOLYLINE
  5
3B9
100
AcDbEntity
  8
RACCORDO
100
AcDbPolyline
 62
7
  6
CONTINUOUS
 90
7
 70
0
 10
70.97260583
 20
90.0918388578
 10
70.9792881817
 20
90.0919017017
 10
70.9864077691
 20
90.0923158321
 10
70.993964708
 20
90.0930810738
 10
71.0019591114
 20
90.0941971227
 10
71.0103910904
 20
90.0956635463
 10
71.0192607533
 20
90.0974797833
  0
LINE
  5
3BA
100
AcDbEntity
  8
RACCORDO
100
AcDbLine
 62
253
  6
CONTINUOUS
 10
71.3058588587
 20
90.2798068731
 11
71.4127165238
 21
90.2790104481
  0
LINE
  5
3BB
100
AcDbEntity
  8
0
100
AcDbLine
 62
7
  6
CONTINUOUS
 10
70.97260583
 20
90.0918388578
 11
70.9250954097
 21
90.0926681553
  0
LINE
  5
3BC
100
AcDbEntity
  8
0
100
AcDbLine
 62
253
  6
CONTINUOUS
 10
70.8789664653
 20
91.0933210342
 11
71.269171704
 21
91.0865099764
  0
LINE
  5
3BD
100
AcDbEntity
  8
RACCORDO
100
AcDbLine
 62
7
  6
CONTINUOUS
 10
70.7445998439
 20
94.3969786697
 11
71.2387267372
 21
94.4099178377
  0
LINE
  5
3BE
100
AcDbEntity
  8
RACCORDO
100
AcDbLine
 62
7
  6
CONTINUOUS
 10
70.7749199747
 20
93.5929105996
 11
71.2703155938
 21
93.5799382087
  0
LWPOLYLINE
  5
3BF
100
AcDbEntity
  8
RACCORDO
100
AcDbPolyline
 62
253
  6
CONTINUOUS
 90
19
 70
0
 10
75.7835175208
 20
67.8898340814
 10
75.8056876985
 20
67.8420192558
 10
75.825474926
 20
67.7942833051
 10
75.8427848417
 20
67.7468538736
 10
75.8575348975
 20
67.6999571443
 10
75.8696547531
 20
67.6538167591
 10
75.879086611
 20
67.6086527529
 10
75.8857854922
 20
67.5646805049
 10
75.8897194508
 20
67.5221097112
 10
75.8908697262
 20
67.4811433843
 10
75.8892308328
 20
67.4419768855
 10
75.8848105857
 20
67.4047969935
 10
75.8776300642
 20
67.3697810126
 10
75.8677235106
 20
67.3370959283
 10
75.8551381672
 20
67.3068976106
 10
75.8399340512
 20
67.2793300703
 10
75.822183668
 20
67.2545247726
 10
75.8019716659
 20
67.2326000102
 10
75.7793944324
 20
67.2136603389
  0
LWPOLYLINE
  5
3C0
100
AcDbEntity
  8
RACCORDO
100
AcDbPolyline
 62
7
  6
CONTINUOUS
 90
4
 70
0
 10
71.0020806862
 20
123.2874546035
 10
71.0505053888
 20
123.3104328101
 10
71.0996555997
 20
123.3317788612
 10
71.1015798355
 20
123.3325439315
  0
LINE
  5
3C1
100
AcDbEntity
  8
RACCORDO
100
AcDbLine
 62
253
  6
CONTINUOUS
 10
70.7285247324
 20
97.6998748368
 11
70.7296404782
 21
97.699921427
  0
LINE
  5
3C2
100
AcDbEntity
  8
RACCORDO
100
AcDbLine
 62
253
  6
CONTINUOUS
 10
70.7296404782
 20
97.699921427
 11
71.0231563973
 21
97.7087899884
  0
LINE
  5
3C3
100
AcDbEntity
  8
0
100
AcDbLine
 62
253
  6
CONTINUOUS
 10
71.0479247958
 20
96.9003113743
 11
70.6531789602
 21
96.8934210601
  0
LINE
  5
3C4
100
AcDbEntity
  8
0
100
AcDbLine
 62
7
  6
CONTINUOUS
 10
70.6768011763
 20
97.8936810825
 11
70.6286005564
 21
97.8928397376
  0
LINE
  5
3C5
100
AcDbEntity
  8
RACCORDO
100
AcDbLine
 62
253
  6
CONTINUOUS
 10
71.1299412742
 20
97.7095807445
 11
71.0231564546
 21
97.7087899788
  0
LWPOLYLINE
  5
3C6
100
AcDbEntity
  8
RACCORDO
100
AcDbPolyline
 62
7
  6
CONTINUOUS
 90
7
 70
0
 10
70.7229618583
 20
97.888321777
 10
70.7141602817
 20
97.8900502696
 10
70.7058020922
 20
97.8914453352
 10
70.69788719
 20
97.8925063736
 10
70.6904154732
 20
97.8932329021
 10
70.6833868374
 20
97.8936245545
 10
70.6768011763
 20
97.8936810825
  0
LWPOLYLINE
  5
3C7
100
AcDbEntity
  8
RACCORDO
100
AcDbPolyline
 62
7
  6
CONTINUOUS
 90
4
 70
0
 10
71.1015798287
 20
98.6581394528
 10
71.099652637
 20
98.6589057016
 10
71.0505022333
 20
98.6802519224
 10
71.0020773839
 20
98.7032302902
  0
LWPOLYLINE
  5
3C8
100
AcDbEntity
  8
RACCORDO
100
AcDbPolyline
 62
7
  6
CONTINUOUS
 90
25
 70
0
 10
71.0020773839
 20
98.7032302902
 10
70.9752520372
 20
98.7144024619
 10
70.949744012
 20
98.7233007586
 10
70.9255347003
 20
98.7299242454
 10
70.9024947327
 20
98.7340769283
 10
70.8807139998
 20
98.735952956
 10
70.8604678534
 20
98.7361358053
 10
70.841785854
 20
98.7346699813
 10
70.8245117782
 20
98.731507174
 10
70.8086060733
 20
98.7270908442
 10
70.7940108564
 20
98.7214980099
 10
70.7806534705
 20
98.7146479814
 10
70.7684689928
 20
98.7067476684
 10
70.7573403198
 20
98.6978041481
 10
70.7472645373
 20
98.6878070581
 10
70.738334998
 20
98.676936854
 10
70.7304881302
 20
98.6652231242
 10
70.7236528727
 20
98.6526326889
 10
70.7178929892
 20
98.6392514001
 10
70.7131522769
 20
98.624950149
 10
70.7093714601
 20
98.6098550223
 10
70.7066053348
 20
98.5944345928
 10
70.7048468198
 20
98.5788444343
 10
70.7040341732
 20
98.5629272917
 10
70.7041512481
 20
98.5466828231
  0
LWPOLYLINE
  5
3C9
100
AcDbEntity
  8
0
100
AcDbPolyline
 62
7
  6
CONTINUOUS
 90
18
 70
0
 10
72.3982777762
 20
148.1748197248
 10
72.4065420457
 20
148.2106766717
 10
72.422913792
 20
148.2665399692
 10
72.4426416945
 20
148.3216301488
 10
72.4656379565
 20
148.3757307544
 10
72.4916391878
 20
148.4281924175
 10
72.5206424049
 20
148.4789378121
 10
72.5526505914
 20
148.5280442642
 10
72.5874093077
 20
148.5750943838
 10
72.6249767686
 20
148.620116258
 10
72.6652947595
 20
148.6630817996
 10
72.7079341972
 20
148.7034893566
 10
72.7529515097
 20
148.7413131695
 10
72.8002902691
 20
148.7765789977
 10
72.8493521087
 20
148.8088624673
 10
72.9001161345
 20
148.8380950215
 10
72.9526032406
 20
148.864345217
 10
73.0047552086
 20
148.8867405375
  0
LWPOLYLINE
  5
3CA
100
AcDbEntity
  8
RACCORDO
100
AcDbPolyline
 62
7
  6
CONTINUOUS
 90
19
 70
0
 10
71.0479247958
 20
96.9003113743
 10
71.0156998779
 20
96.9550213554
 10
70.985064127
 20
97.0079696053
 10
70.9560150794
 20
97.059023462
 10
70.9284940582
 20
97.1079731884
 10
70.9025534088
 20
97.1548449332
 10
70.8783576471
 20
97.1998866932
 10
70.8559268786
 20
97.2430900669
 10
70.8352353596
 20
97.2843784491
 10
70.8163800845
 20
97.3239020825
 10
70.7993726751
 20
97.3616569928
 10
70.7841961055
 20
97.3976261534
 10
70.7709052443
 20
97.4319391866
 10
70.7594925769
 20
97.4646531293
 10
70.7499607628
 20
97.4957263945
 10
70.742380174
 20
97.5251464991
 10
70.7367724366
 20
97.5529323007
 10
70.7331105812
 20
97.5791300005
 10
70.7313919777
 20
97.6037796778
  0
LWPOLYLINE
  5
3CB
100
AcDbEntity
  8
RACCORDO
100
AcDbPolyline
 62
253
  6
CONTINUOUS
 90
10
 70
0
 10
71.3885130168
 20
67.1766292657
 10
70.9846781733
 20
69.5187364759
 10
70.6142111256
 20
71.8663525707
 10
70.2771122746
 20
74.2189905051
 10
69.9733284458
 20
76.5761485783
 10
69.702913612
 20
78.9373548056
 10
69.4660289102
 20
81.3021671644
 10
69.2627283357
 20
83.6701142622
 10
69.0929587263
 20
86.0406950896
 10
68.956720497
 20
88.413423565
  0
LWPOLYLINE
  5
3CC
100
AcDbEntity
  8
ASSI
100
AcDbPolyline
 62
253
  6
CONTINUOUS
 90
10
 70
0
 10
71.3885130168
 20
67.1766292657
 10
70.9846781733
 20
69.5187364759
 10
70.6142111256
 20
71.8663525707
 10
70.2771122746
 20
74.2189905051
 10
69.9733284458
 20
76.5761485783
 10
69.702913612
 20
78.9373548056
 10
69.4660289102
 20
81.3021671644
 10
69.2627283357
 20
83.6701142622
 10
69.0929587263
 20
86.0406950896
 10
68.956720497
 20
88.413423565
  0
LINE
  5
3CD
100
AcDbEntity
  8
RACCORDO
100
AcDbLine
 62
253
  6
CONTINUOUS
 10
71.4332756624
 20
66.4967457871
 11
71.425839832
 21
66.5843197367
  0
LINE
  5
3CE
100
AcDbEntity
  8
ASSI
100
AcDbLine
 62
253
  6
CONTINUOUS
 10
71.4332756624
 20
66.4967457871
 11
71.425839832
 21
66.5843197367
  0
LINE
  5
3CF
100
AcDbEntity
  8
RACCORDO
100
AcDbLine
 62
253
  6
CONTINUOUS
 10
71.425839832
 20
66.5843197367
 11
71.4184459165
 21
66.6800429834
  0
LINE
  5
3D0
100
AcDbEntity
  8
ASSI
100
AcDbLine
 62
253
  6
CONTINUOUS
 10
71.425839832
 20
66.5843197367
 11
71.4184459165
 21
66.6800429834
  0
LWPOLYLINE
  5
3D1
100
AcDbEntity
  8
RACCORDO
100
AcDbPolyline
 62
7
  6
CONTINUOUS
 90
28
 70
0
 10
71.0514683231
 20
89.4197195095
 10
71.0525374087
 20
89.4049302191
 10
71.0542292796
 20
89.3906994926
 10
71.0565530075
 20
89.377027825
 10
71.0595414516
 20
89.3639115256
 10
71.0631978835
 20
89.3513561246
 10
71.0674935221
 20
89.3393762496
 10
71.0724518796
 20
89.327972751
 10
71.0781122082
 20
89.3171478613
 10
71.0844717556
 20
89.3069183838
 10
71.0915845403
 20
89.2972498442
 10
71.099480232
 20
89.2881807746
 10
71.1081166589
 20
89.2798373284
 10
71.1175495551
 20
89.2722124401
 10
71.1278125774
 20
89.2653174481
 10
71.138817593
 20
89.2593054559
 10
71.1505459963
 20
89.2541783412
 10
71.1630902996
 20
89.2499376696
 10
71.1765232189
 20
89.2467357541
 10
71.1909069733
 20
89.2445196285
 10
71.2062665775
 20
89.243346241
 10
71.2226218793
 20
89.2435328466
 10
71.2400752991
 20
89.2450515344
 10
71.2586113893
 20
89.2479339899
 10
71.2780565276
 20
89.2525859491
 10
71.2983617871
 20
89.2591428521
 10
71.3196193445
 20
89.267470676
 10
71.3418497469
 20
89.277570038
  0
LINE
  5
3D2
100
AcDbEntity
  8
RACCORDO
100
AcDbLine
 62
253
  6
CONTINUOUS
 10
71.4184459165
 20
66.6800429834
 11
71.4112002374
 21
66.7827088827
  0
LINE
  5
3D3
100
AcDbEntity
  8
ASSI
100
AcDbLine
 62
253
  6
CONTINUOUS
 10
71.4184459165
 20
66.6800429834
 11
71.4112002374
 21
66.7827088827
  0
LINE
  5
3D4
100
AcDbEntity
  8
RACCORDO
100
AcDbLine
 62
253
  6
CONTINUOUS
 10
71.4112002374
 20
66.7827088827
 11
71.4042349191
 21
66.890957275
  0
LINE
  5
3D5
100
AcDbEntity
  8
ASSI
100
AcDbLine
 62
253
  6
CONTINUOUS
 10
71.4112002374
 20
66.7827088827
 11
71.4042349191
 21
66.890957275
  0
LINE
  5
3D6
100
AcDbEntity
  8
RACCORDO
100
AcDbLine
 62
253
  6
CONTINUOUS
 10
71.4042349191
 20
66.890957275
 11
71.3976025894
 21
67.0033774969
  0
LINE
  5
3D7
100
AcDbEntity
  8
ASSI
100
AcDbLine
 62
253
  6
CONTINUOUS
 10
71.4042349191
 20
66.890957275
 11
71.3976025894
 21
67.0033774969
  0
LINE
  5
3D8
100
AcDbEntity
  8
RACCORDO
100
AcDbLine
 62
253
  6
CONTINUOUS
 10
71.3976025894
 20
67.0033774969
 11
71.3885130184
 21
67.1766292656
  0
LINE
  5
3D9
100
AcDbEntity
  8
ASSI
100
AcDbLine
 62
253
  6
CONTINUOUS
 10
71.3976025894
 20
67.0033774969
 11
71.3885130184
 21
67.1766292656
  0
LWPOLYLINE
  5
3DA
100
AcDbEntity
  8
RACCORDO
100
AcDbPolyline
 62
253
  6
CONTINUOUS
 90
12
 70
0
 10
68.956720497
 20
88.413423565
 10
68.779758326
 20
92.2602563581
 10
68.6391833428
 20
96.0057112
 10
68.5298439906
 20
99.7522100099
 10
68.4517370122
 20
103.4994874069
 10
68.4048656617
 20
107.247283019
 10
68.3892397061
 20
110.9953414852
 10
68.4048656569
 20
114.7433999081
 10
68.4517370026
 20
118.4911954479
 10
68.5298439787
 20
122.2384728305
 10
68.6391833322
 20
125.9849717126
 10
68.7797583194
 20
129.7304266843
  0
LWPOLYLINE
  5
3DB
100
AcDbEntity
  8
ASSI
100
AcDbPolyline
 62
253
  6
CONTINUOUS
 90
12
 70
0
 10
68.956720497
 20
88.413423565
 10
68.779758326
 20
92.2602563581
 10
68.6391833428
 20
96.0057112
 10
68.5298439906
 20
99.7522100099
 10
68.4517370122
 20
103.4994874069
 10
68.4048656617
 20
107.247283019
 10
68.3892397061
 20
110.9953414852
 10
68.4048656569
 20
114.7433999081
 10
68.4517370026
 20
118.4911954479
 10
68.5298439787
 20
122.2384728305
 10
68.6391833322
 20
125.9849717126
 10
68.7797583194
 20
129.7304266843
  0
LINE
  5
3DC
100
AcDbEntity
  8
RACCORDO
100
AcDbLine
 62
253
  6
CONTINUOUS
 10
68.7797583194
 20
129.7304266843
 11
68.956720497
 21
133.5772596648
  0
LINE
  5
3DD
100
AcDbEntity
  8
ASSI
100
AcDbLine
 62
253
  6
CONTINUOUS
 10
68.7797583194
 20
129.7304266843
 11
68.956720497
 21
133.5772596648
  0
LINE
  5
3DE
100
AcDbEntity
  8
RACCORDO
100
AcDbLine
 62
253
  6
CONTINUOUS
 10
71.3885130183
 20
154.8140539638
 11
71.3975978088
 21
154.9872139871
  0
LINE
  5
3DF
100
AcDbEntity
  8
ASSI
100
AcDbLine
 62
253
  6
CONTINUOUS
 10
71.3885130183
 20
154.8140539638
 11
71.3975978088
 21
154.9872139871
  0
LWPOLYLINE
  5
3E0
100
AcDbEntity
  8
RACCORDO
100
AcDbPolyline
 62
253
  6
CONTINUOUS
 90
10
 70
0
 10
68.956720497
 20
133.5772596648
 10
69.0929587125
 20
135.949987866
 10
69.2627283048
 20
138.3205684712
 10
69.4660288591
 20
140.6885153989
 10
69.7029135287
 20
143.053327617
 10
69.9733283271
 20
145.4145337554
 10
70.277112144
 20
147.771691859
 10
70.614211015
 20
150.1243299646
 10
70.9846781063
 20
152.4719463481
 10
71.3885130167
 20
154.8140539637
  0
LWPOLYLINE
  5
3E1
100
AcDbEntity
  8
ASSI
100
AcDbPolyline
 62
253
  6
CONTINUOUS
 90
10
 70
0
 10
68.956720497
 20
133.5772596648
 10
69.0929587125
 20
135.949987866
 10
69.2627283048
 20
138.3205684712
 10
69.4660288591
 20
140.6885153989
 10
69.7029135287
 20
143.053327617
 10
69.9733283271
 20
145.4145337554
 10
70.277112144
 20
147.771691859
 10
70.614211015
 20
150.1243299646
 10
70.9846781063
 20
152.4719463481
 10
71.3885130167
 20
154.8140539637
  0
LINE
  5
3E2
100
AcDbEntity
  8
RACCORDO
100
AcDbLine
 62
253
  6
CONTINUOUS
 10
71.3975978088
 20
154.9872139871
 11
71.4042188445
 21
155.0994346275
  0
LINE
  5
3E3
100
AcDbEntity
  8
ASSI
100
AcDbLine
 62
253
  6
CONTINUOUS
 10
71.3975978088
 20
154.9872139871
 11
71.4042188445
 21
155.0994346275
  0
LINE
  5
3E4
100
AcDbEntity
  8
RACCORDO
100
AcDbLine
 62
253
  6
CONTINUOUS
 10
71.4042188445
 20
155.0994346275
 11
71.4111758869
 21
155.2076089468
  0
LINE
  5
3E5
100
AcDbEntity
  8
ASSI
100
AcDbLine
 62
253
  6
CONTINUOUS
 10
71.4042188445
 20
155.0994346275
 11
71.4111758869
 21
155.2076089468
  0
LINE
  5
3E6
100
AcDbEntity
  8
RACCORDO
100
AcDbLine
 62
253
  6
CONTINUOUS
 10
71.4111758869
 20
155.2076089468
 11
71.4184219896
 21
155.3103322389
  0
LINE
  5
3E7
100
AcDbEntity
  8
ASSI
100
AcDbLine
 62
253
  6
CONTINUOUS
 10
71.4111758869
 20
155.2076089468
 11
71.4184219896
 21
155.3103322389
  0
LINE
  5
3E8
100
AcDbEntity
  8
RACCORDO
100
AcDbLine
 62
253
  6
CONTINUOUS
 10
71.4184219896
 20
155.3103322389
 11
71.4258141869
 21
155.4060813826
  0
LINE
  5
3E9
100
AcDbEntity
  8
ASSI
100
AcDbLine
 62
253
  6
CONTINUOUS
 10
71.4184219896
 20
155.3103322389
 11
71.4258141869
 21
155.4060813826
  0
LWPOLYLINE
  5
3EA
100
AcDbEntity
  8
RACCORDO
100
AcDbPolyline
 62
253
  6
CONTINUOUS
 90
16
 70
0
 10
71.4258141869
 20
155.4060813826
 10
71.4332497583
 20
155.4936834113
 10
71.4369699075
 20
155.5340788781
 10
71.4406565825
 20
155.5720324776
 10
71.4443036215
 20
155.6074223983
 10
71.4479120937
 20
155.6401390574
 10
71.4514549212
 20
155.6700845611
 10
71.4549224329
 20
155.6971650582
 10
71.4583122238
 20
155.7212921337
 10
71.4616065192
 20
155.7423881522
 10
71.4647915014
 20
155.7603835335
 10
71.4678614677
 20
155.7752253297
 10
71.4708095214
 20
155.7868717801
 10
71.4736251335
 20
155.7952835841
 10
71.4762936719
 20
155.8004286714
 10
71.4788009168
 20
155.8022875186
  0
LWPOLYLINE
  5
3EB
100
AcDbEntity
  8
ASSI
100
AcDbPolyline
 62
253
  6
CONTINUOUS
 90
16
 70
0
 10
71.4258141869
 20
155.4060813826
 10
71.4332497583
 20
155.4936834113
 10
71.4369699075
 20
155.5340788781
 10
71.4406565825
 20
155.5720324776
 10
71.4443036215
 20
155.6074223983
 10
71.4479120937
 20
155.6401390574
 10
71.4514549212
 20
155.6700845611
 10
71.4549224329
 20
155.6971650582
 10
71.4583122238
 20
155.7212921337
 10
71.4616065192
 20
155.7423881522
 10
71.4647915014
 20
155.7603835335
 10
71.4678614677
 20
155.7752253297
 10
71.4708095214
 20
155.7868717801
 10
71.4736251335
 20
155.7952835841
 10
71.4762936719
 20
155.8004286714
 10
71.4788009168
 20
155.8022875186
  0
LWPOLYLINE
  5
3EC
100
AcDbEntity
  8
RACCORDO
100
AcDbPolyline
 62
253
  6
CONTINUOUS
 90
3
 70
0
 10
72.2239826641
 20
144.5549655576
 10
72.3124935511
 20
145.2897563674
 10
72.3308154761
 20
145.4385151878
  0
LWPOLYLINE
  5
3ED
100
AcDbEntity
  8
RACCORDO
100
AcDbPolyline
 62
253
  6
CONTINUOUS
 90
3
 70
0
 10
72.3308154761
 20
76.552168042
 10
72.2415996484
 20
77.2872470252
 10
72.2239826641
 20
77.4357176722
  0
LINE
  5
3EE
100
AcDbEntity
  8
RACCORDO
100
AcDbLine
 62
253
  6
CONTINUOUS
 10
71.3058588587
 20
90.2798068731
 11
71.269171704
 21
91.0865099764
  0
LINE
  5
3EF
100
AcDbEntity
  8
RACCORDO
100
AcDbLine
 62
253
  6
CONTINUOUS
 10
71.0647181863
 20
93.5853219663
 11
71.0335526923
 21
94.4045451663
  0
LINE
  5
3F0
100
AcDbEntity
  8
RACCORDO
100
AcDbLine
 62
253
  6
CONTINUOUS
 10
71.3418497469
 20
89.277570038
 11
71.3254358326
 21
89.7106785895
  0
LINE
  5
3F1
100
AcDbEntity
  8
RACCORDO
100
AcDbLine
 62
253
  6
CONTINUOUS
 10
71.3254358326
 20
89.7106785895
 11
71.3058586693
 21
90.2798068738
  0
LINE
  5
3F2
100
AcDbEntity
  8
RACCORDO
100
AcDbLine
 62
253
  6
CONTINUOUS
 10
71.0479247958
 20
96.9003113743
 11
71.0231564546
 21
97.7087899788
  0
LINE
  5
3F3
100
AcDbEntity
  8
RACCORDO
100
AcDbLine
 62
253
  6
CONTINUOUS
 10
71.0060108489
 20
98.4868094916
 11
71.0231563973
 21
97.7087899884
  0
LINE
  5
3F4
100
AcDbEntity
  8
RACCORDO
100
AcDbLine
 62
253
  6
CONTINUOUS
 10
71.002077409
 20
98.7032289787
 11
71.0060108489
 21
98.4868094916
  0
LWPOLYLINE
  5
3F5
100
AcDbEntity
  8
RACCORDO
100
AcDbPolyline
 62
7
  6
CONTINUOUS
 90
19
 70
0
 10
71.0060422744
 20
90.3821063167
 10
71.0058891188
 20
90.4067364979
 10
71.0075474687
 20
90.4329053059
 10
71.0110199197
 20
90.4606521088
 10
71.0163260464
 20
90.4900025987
 10
71.0234514989
 20
90.5209937927
 10
71.0323480864
 20
90.5536756803
 10
71.0430272882
 20
90.5880509473
 10
71.0554829385
 20
90.6241427841
 10
71.0696406528
 20
90.6620268885
 10
71.0855164502
 20
90.701671062
 10
71.1030996908
 20
90.7430853798
 10
71.1222766137
 20
90.7864053437
 10
71.1430694055
 20
90.8315448791
 10
71.1654614069
 20
90.8785030194
 10
71.1892818279
 20
90.9275381985
 10
71.2144762379
 20
90.9786800452
 10
71.24110538
 20
91.0317149213
 10
71.269171704
 20
91.0865099764
  0
LINE
  5
3F6
100
AcDbEntity
  8
RACCORDO
100
AcDbLine
 62
253
  6
CONTINUOUS
 10
70.7258733705
 20
110.5941949301
 11
70.7258733705
 21
111.3964882997
  0
LWPOLYLINE
  5
3F7
100
AcDbEntity
  8
RACCORDO
100
AcDbPolyline
 62
7
  6
CONTINUOUS
 90
28
 70
0
 10
70.7041512378
 20
123.4440000364
 10
70.7041080691
 20
123.4286918101
 10
70.7047681958
 20
123.4139311327
 10
70.7061418785
 20
123.3997177905
 10
70.7082647842
 20
123.3860497153
 10
70.7111419534
 20
123.3729279856
 10
70.7147450088
 20
123.3603568969
 10
70.7191017849
 20
123.348326323
 10
70.7242549697
 20
123.3368445603
 10
70.7302008288
 20
123.3259434616
 10
70.7369992334
 20
123.3155818629
 10
70.74468343
 20
123.3057984675
 10
70.7532048412
 20
123.2967450404
 10
70.7626125582
 20
123.2884170009
 10
70.7729526576
 20
123.2808163669
 10
70.7841573512
 20
123.2741051604
 10
70.7962083721
 20
123.2682765541
 10
70.8092038336
 20
123.2633351583
 10
70.8232459596
 20
123.259460232
 10
70.8384035749
 20
123.2565845588
 10
70.854703724
 20
123.2547726292
 10
70.8721894348
 20
123.2544010938
 10
70.8909806013
 20
123.2554335634
 10
70.9110511202
 20
123.2579035755
 10
70.9322023588
 20
123.2622931439
 10
70.9543727896
 20
123.2687625857
 10
70.9776599145
 20
123.2771500034
 10
71.0020806862
 20
123.2874546035
  0
LINE
  5
3F8
100
AcDbEntity
  8
RACCORDO
100
AcDbLine
 62
253
  6
CONTINUOUS
 10
71.0020806862
 20
123.2874546035
 11
71.0116233987
 21
123.7773215317
  0
LINE
  5
3F9
100
AcDbEntity
  8
RACCORDO
100
AcDbLine
 62
253
  6
CONTINUOUS
 10
71.0116233987
 20
123.7773215317
 11
71.0231561917
 21
124.2818928713
  0
LINE
  5
3FA
100
AcDbEntity
  8
RACCORDO
100
AcDbLine
 62
253
  6
CONTINUOUS
 10
71.0231564067
 20
124.2818928704
 11
71.0479247951
 21
125.0903718556
  0
LINE
  5
3FB
100
AcDbEntity
  8
RACCORDO
100
AcDbLine
 62
253
  6
CONTINUOUS
 10
71.3314979645
 20
132.4456523192
 11
71.305858855
 21
131.710876077
  0
LINE
  5
3FC
100
AcDbEntity
  8
RACCORDO
100
AcDbLine
 62
253
  6
CONTINUOUS
 10
71.0335526923
 20
127.5861380635
 11
71.0647181863
 21
128.4053612635
  0
LINE
  5
3FD
100
AcDbEntity
  8
RACCORDO
100
AcDbLine
 62
253
  6
CONTINUOUS
 10
71.3418494057
 20
132.7131124806
 11
71.3314979645
 21
132.4456523192
  0
LINE
  5
3FE
100
AcDbEntity
  8
RACCORDO
100
AcDbLine
 62
253
  6
CONTINUOUS
 10
71.2691717051
 20
130.9041732534
 11
71.3058588846
 21
131.7108760947
  0
LWPOLYLINE
  5
3FF
100
AcDbEntity
  8
RACCORDO
100
AcDbPolyline
 62
7
  6
CONTINUOUS
 90
19
 70
0
 10
70.7313919777
 20
124.386903552
 10
70.7331103119
 20
124.4115517224
 10
70.7367718639
 20
124.4377480996
 10
70.7423792647
 20
124.4655327914
 10
70.7499594285
 20
124.4949520215
 10
70.7594907863
 20
124.5260246806
 10
70.7709031358
 20
124.5587383316
 10
70.7841939364
 20
124.5930515921
 10
70.7993705865
 20
124.6290213554
 10
70.8163780328
 20
124.666776731
 10
70.8352331751
 20
124.7063003675
 10
70.8559245159
 20
124.7475885805
 10
70.8783552513
 20
124.7907920092
 10
70.9025512221
 20
124.8358342591
 10
70.9284922277
 20
124.8827067419
 10
70.9560136553
 20
124.931657265
 10
70.985063127
 20
124.9827119087
 10
71.0156993523
 20
125.0356609949
 10
71.0479247951
 20
125.0903718556
  0
LINE
  5
400
100
AcDbEntity
  8
RACCORDO
100
AcDbLine
 62
7
  6
CONTINUOUS
 10
70.4344655685
 20
111.3888575179
 11
70.9311140283
 21
111.4018627155
  0
LINE
  5
401
100
AcDbEntity
  8
0
100
AcDbLine
 62
253
  6
CONTINUOUS
 10
74.5009291744
 20
110.9953416149
 11
70.9309291744
 21
110.9953416149
  0
LINE
  5
402
100
AcDbEntity
  8
RACCORDO
100
AcDbLine
 62
7
  6
CONTINUOUS
 10
70.9311140283
 20
110.5888205143
 11
70.4344655685
 21
110.601825712
  0
LINE
  5
403
100
AcDbEntity
  8
RACCORDO
100
AcDbLine
 62
7
  6
CONTINUOUS
 10
76.5009291744
 20
107.1426876535
 11
74.6661995388
 21
107.4661999905
  0
LINE
  5
404
100
AcDbEntity
  8
RACCORDO
100
AcDbLine
 62
7
  6
CONTINUOUS
 10
74.5009291744
 20
107.6631615411
 11
74.5009291744
 21
114.3275216887
  0
LINE
  5
405
100
AcDbEntity
  8
RACCORDO
100
AcDbLine
 62
7
  6
CONTINUOUS
 10
76.5009291744
 20
67.8953411435
 11
76.5009291744
 21
88.6267324224
  0
LINE
  5
406
100
AcDbEntity
  8
DRAFT
100
AcDbLine
 62
7
  6
CONTINUOUS
 10
76.5009291744
 20
88.6267324224
 11
76.5009291744
 21
107.1426876535
  0
LINE
  5
407
100
AcDbEntity
  8
DRAFT
100
AcDbLine
 62
7
  6
CONTINUOUS
 10
76.5009291744
 20
114.8479955763
 11
76.5009291744
 21
133.3639508074
  0
LINE
  5
408
100
AcDbEntity
  8
RACCORDO
100
AcDbLine
 62
7
  6
CONTINUOUS
 10
76.5009291744
 20
133.3639508074
 11
76.5009291744
 21
154.0953420513
  0
LINE
  5
409
100
AcDbEntity
  8
RACCORDO
100
AcDbLine
 62
7
  6
CONTINUOUS
 10
74.6661995388
 20
114.5244832393
 11
76.5009291744
 21
114.8479955763
  0
LWPOLYLINE
  5
40A
100
AcDbEntity
  8
RACCORDO
100
AcDbPolyline
 62
7
  6
CONTINUOUS
 90
19
 70
0
 10
71.2691717051
 20
130.9041732534
 10
71.2409924806
 20
130.959185419
 10
71.2142615491
 20
131.0124276212
 10
71.1889764438
 20
131.0637654609
 10
71.165071451
 20
131.1129943966
 10
71.1426059417
 20
131.1601326676
 10
71.121765455
 20
131.2054079227
 10
71.1025741029
 20
131.2488101241
 10
71.0850019658
 20
131.2902650676
 10
71.0691546825
 20
131.3299105744
 10
71.0550446484
 20
131.367757529
 10
71.042653841
 20
131.4037777153
 10
71.0320429065
 20
131.4380539185
 10
71.0232187051
 20
131.4706145024
 10
71.0161688803
 20
131.5014619706
 10
71.0109255375
 20
131.5306454539
 10
71.0074975999
 20
131.5582037993
 10
71.0058707373
 20
131.5841668607
 10
71.0060422744
 20
131.6085769132
  0
LWPOLYLINE
  5
40B
100
AcDbEntity
  8
RACCORDO
100
AcDbPolyline
 62
7
  6
CONTINUOUS
 90
7
 70
0
 10
70.676800658
 20
124.0970021563
 10
70.6833863425
 20
124.0970586854
 10
70.6904150271
 20
124.0974503428
 10
70.6978868182
 20
124.0981768823
 10
70.70580182
 20
124.0992379402
 10
70.7141601346
 20
124.1006330358
 10
70.7229618618
 20
124.1023615713
  0
LINE
  5
40C
100
AcDbEntity
  8
RACCORDO
100
AcDbLine
 62
253
  6
CONTINUOUS
 10
71.0231564067
 20
124.2818928704
 11
71.1299412638
 21
124.2811021959
  0
LINE
  5
40D
100
AcDbEntity
  8
0
100
AcDbLine
 62
7
  6
CONTINUOUS
 10
70.676800658
 20
124.0970021563
 11
70.6286005564
 21
124.0978434922
  0
LINE
  5
40E
100
AcDbEntity
  8
0
100
AcDbLine
 62
253
  6
CONTINUOUS
 10
70.6531789602
 20
125.0972621697
 11
71.0479247951
 21
125.0903718556
  0
LWPOLYLINE
  5
40F
100
AcDbEntity
  8
RACCORDO
100
AcDbPolyline
 62
253
  6
CONTINUOUS
 90
3
 70
0
 10
70.7285246938
 20
124.2908080081
 10
70.7296404173
 20
124.2907614189
 10
71.0231564063
 20
124.2818928551
  0
LWPOLYLINE
  5
410
100
AcDbEntity
  8
RACCORDO
100
AcDbPolyline
 62
7
  6
CONTINUOUS
 90
4
 70
0
 10
71.3418497469
 20
89.277570038
 10
71.3889232181
 20
89.301448761
 10
71.4371632898
 20
89.3238148535
 10
71.4576636084
 20
89.3325107672
  0
LINE
  5
411
100
AcDbEntity
  8
RACCORDO
100
AcDbLine
 62
7
  6
CONTINUOUS
 10
70.7749199747
 20
128.3977726302
 11
71.2703155938
 21
128.4107450211
  0
LINE
  5
412
100
AcDbEntity
  8
RACCORDO
100
AcDbLine
 62
7
  6
CONTINUOUS
 10
70.7445998439
 20
127.5937045601
 11
71.2387267372
 21
127.5807653921
  0
LINE
  5
413
100
AcDbEntity
  8
0
100
AcDbLine
 62
253
  6
CONTINUOUS
 10
71.2691717051
 20
130.9041732534
 11
70.8789664653
 21
130.8973621956
  0
LINE
  5
414
100
AcDbEntity
  8
0
100
AcDbLine
 62
7
  6
CONTINUOUS
 10
70.9726057266
 20
131.8988443702
 11
70.9250954097
 21
131.8980150745
  0
LINE
  5
415
100
AcDbEntity
  8
RACCORDO
100
AcDbLine
 62
253
  6
CONTINUOUS
 10
71.4127165152
 20
131.7116726154
 11
71.3058588846
 21
131.7108760947
  0
LINE
  5
416
100
AcDbEntity
  8
RACCORDO
100
AcDbLine
 62
253
  6
CONTINUOUS
 10
68.9515689418
 20
133.4745748648
 11
70.9977729988
 21
133.4745748648
  0
LINE
  5
417
100
AcDbEntity
  8
ASSI
100
AcDbLine
 62
253
  6
CONTINUOUS
 10
68.9515689418
 20
133.4745748648
 11
70.9977729988
 21
133.4745748648
  0
LINE
  5
418
100
AcDbEntity
  8
0
100
AcDbLine
 62
253
  6
CONTINUOUS
 10
76.5009291744
 20
133.3639508074
 11
71.4950127957
 21
133.4446749483
  0
LINE
  5
419
100
AcDbEntity
  8
RACCORDO
100
AcDbLine
 62
253
  6
CONTINUOUS
 10
68.4957718993
 20
133.4973853457
 11
68.9515689418
 21
133.4745748648
  0
LINE
  5
41A
100
AcDbEntity
  8
ASSI
100
AcDbLine
 62
253
  6
CONTINUOUS
 10
68.4957718993
 20
133.4973853457
 11
68.9515689418
 21
133.4745748648
  0
LINE
  5
41B
100
AcDbEntity
  8
RACCORDO
100
AcDbLine
 62
253
  6
CONTINUOUS
 10
68.5009291903
 20
133.6001571727
 11
68.9567204971
 21
133.5772596648
  0
LINE
  5
41C
100
AcDbEntity
  8
ASSI
100
AcDbLine
 62
253
  6
CONTINUOUS
 10
68.5009291903
 20
133.6001571727
 11
68.9567204971
 21
133.5772596648
  0
LINE
  5
41D
100
AcDbEntity
  8
RACCORDO
100
AcDbLine
 62
253
  6
CONTINUOUS
 10
71.4949588007
 20
133.4435379166
 11
71.0285408297
 21
133.4677965473
  0
LWPOLYLINE
  5
41E
100
AcDbEntity
  8
RACCORDO
100
AcDbPolyline
 62
253
  6
CONTINUOUS
 90
4
 70
0
 10
71.0285408297
 20
133.4677965473
 10
71.00389794
 20
133.4692019637
 10
70.9977073252
 20
133.469597602
 10
70.9975442394
 20
133.469612496
  0
LWPOLYLINE
  5
41F
100
AcDbEntity
  8
RACCORDO
100
AcDbPolyline
 62
253
  6
CONTINUOUS
 90
4
 70
0
 10
71.0114168175
 20
131.7247760108
 10
71.0125312907
 20
131.7247033844
 10
71.0158678577
 20
131.7245278465
 10
71.305858855
 20
131.710876077
  0
LWPOLYLINE
  5
420
100
AcDbEntity
  8
RACCORDO
100
AcDbPolyline
 62
7
  6
CONTINUOUS
 90
7
 70
0
 10
71.0192607522
 20
131.8932034224
 10
71.0103911022
 20
131.8950196591
 10
71.0019591241
 20
131.8964860865
 10
70.9939647095
 20
131.8976021415
 10
70.9864077476
 20
131.8983673896
 10
70.9792881252
 20
131.8987815249
 10
70.9726057266
 20
131.8988443702
  0
LWPOLYLINE
  5
421
100
AcDbEntity
  8
RACCORDO
100
AcDbPolyline
 62
7
  6
CONTINUOUS
 90
4
 70
0
 10
71.4576636064
 20
132.6581724268
 10
71.4371629785
 20
132.6668684725
 10
71.3889228821
 20
132.6892345781
 10
71.3418493899
 20
132.7131133134
  0
LWPOLYLINE
  5
422
100
AcDbEntity
  8
RACCORDO
100
AcDbPolyline
 62
7
  6
CONTINUOUS
 90
25
 70
0
 10
71.3418493899
 20
132.7131133134
 10
71.3175599458
 20
132.724023276
 10
71.2943934007
 20
132.7328524667
 10
71.2723259569
 20
132.7396015597
 10
71.25123655
 20
132.744110182
 10
71.2311961589
 20
132.746540282
 10
71.212442612
 20
132.7473773982
 10
71.1949956356
 20
132.7466641186
 10
71.1787198743
 20
132.7443629213
 10
71.1635945395
 20
132.7408405739
 10
71.1495623222
 20
132.7361609573
 10
71.1365656583
 20
132.7302654742
 10
71.1245802466
 20
132.7233374158
 10
71.1135133931
 20
132.7153968871
 10
71.1033478517
 20
132.7064289675
 10
71.0941614184
 20
132.6965649957
 10
71.085898162
 20
132.6858538375
 10
71.0784964414
 20
132.6742522829
 10
71.0720117187
 20
132.6617542559
 10
71.0663689129
 20
132.6482517308
 10
71.0615424189
 20
132.6338576417
 10
71.0576555739
 20
132.6188977003
 10
71.0547245221
 20
132.6034817407
 10
71.0526673659
 20
132.5875032549
 10
71.0514682928
 20
132.5709630936
  0
LINE
  5
423
100
AcDbEntity
  8
RACCORDO
100
AcDbLine
 62
253
  6
CONTINUOUS
 10
71.6836848377
 20
136.5431003226
 11
71.2325205013
 21
136.5753025495
  0
LWPOLYLINE
  5
424
100
AcDbEntity
  8
RACCORDO
100
AcDbPolyline
 62
253
  6
CONTINUOUS
 90
4
 70
0
 10
71.2325205013
 20
136.5753025495
 10
71.1998622052
 20
136.5777865767
 10
71.1895850578
 20
136.5786124113
 10
71.1867634082
 20
136.5788605268
  0
LINE
  5
425
100
AcDbEntity
  8
RACCORDO
100
AcDbLine
 62
7
  6
CONTINUOUS
 10
72.0347916783
 20
145.4307635319
 11
72.538248614
 21
145.4439470157
  0
LINE
  5
426
100
AcDbEntity
  8
RACCORDO
100
AcDbLine
 62
7
  6
CONTINUOUS
 10
71.9338733321
 20
144.5625623379
 11
72.4299737888
 21
144.5495714902
  0
LWPOLYLINE
  5
427
100
AcDbEntity
  8
RACCORDO
100
AcDbPolyline
 62
253
  6
CONTINUOUS
 90
19
 70
0
 10
75.7793953552
 20
154.7770241483
 10
75.8019725451
 20
154.7580844065
 10
75.8221844989
 20
154.73615957
 10
75.8399348298
 20
154.7113541955
 10
75.8551388901
 20
154.6837865762
 10
75.867724175
 20
154.6535881784
 10
75.8776306679
 20
154.6209030139
 10
75.8848111273
 20
154.5858869534
 10
75.8892313115
 20
154.5487069831
 10
75.8908701422
 20
154.5095404079
 10
75.8897198049
 20
154.468574007
 10
75.885785786
 20
154.4260031424
 10
75.8790868467
 20
154.3820308262
 10
75.8696549334
 20
154.336866755
 10
75.8575350259
 20
154.2907263082
 10
75.8427849216
 20
154.24382952
 10
75.8254749612
 20
154.1964000321
 10
75.805687693
 20
154.1486640277
 10
75.783517479
 20
154.1008491511
  0
LWPOLYLINE
  5
428
100
AcDbEntity
  8
RACCORDO
100
AcDbPolyline
 62
253
  6
CONTINUOUS
 90
10
 70
0
 10
75.7835176695
 20
67.8898340912
 10
75.8752706564
 20
67.9447418458
 10
75.9632943196
 20
68.0005637342
 10
76.0476787794
 20
68.0572986719
 10
76.1278064287
 20
68.1143552003
 10
76.2045072005
 20
68.172321551
 10
76.2799586056
 20
68.2329700248
 10
76.3548551107
 20
68.2968948619
 10
76.4285073775
 20
68.3635078602
 10
76.5009291427
 20
68.4328114797
  0
LWPOLYLINE
  5
429
100
AcDbEntity
  8
RACCORDO
100
AcDbPolyline
 62
253
  6
CONTINUOUS
 90
10
 70
0
 10
75.7835176695
 20
154.1008491386
 10
75.874933637
 20
154.0461869147
 10
75.9628790796
 20
153.9904220894
 10
76.0474338058
 20
153.9335552902
 10
76.1281855615
 20
153.8760073551
 10
76.2057320103
 20
153.8173595441
 10
76.2816108142
 20
153.7563504208
 10
76.356327003
 20
153.6925570354
 10
76.4294222765
 20
153.6263980444
 10
76.5009291404
 20
153.5578717523
  0
LINE
  5
42A
100
AcDbEntity
  8
RACCORDO
100
AcDbLine
 62
253
  6
CONTINUOUS
 10
71.3885130167
 20
154.8140539637
 11
73.4997181614
 21
154.9988627158
  0
LINE
  5
42B
100
AcDbEntity
  8
ASSI
100
AcDbLine
 62
253
  6
CONTINUOUS
 10
71.3885130167
 20
154.8140539637
 11
73.4997181614
 21
154.9988627158
  0
LINE
  5
42C
100
AcDbEntity
  8
RACCORDO
100
AcDbLine
 62
7
  6
CONTINUOUS
 10
73.4681811094
 20
153.4424048005
 11
73.729020501
 21
153.446957769
  0
LINE
  5
42D
100
AcDbEntity
  8
RACCORDO
100
AcDbLine
 62
253
  6
CONTINUOUS
 10
75.7835176695
 20
154.1008491386
 11
73.8461932127
 21
154.1125531272
  0
LWPOLYLINE
  5
42E
100
AcDbEntity
  8
RACCORDO
100
AcDbPolyline
 62
253
  6
CONTINUOUS
 90
16
 70
0
 10
73.952779877
 20
154.7045924798
 10
74.0744353858
 20
154.6865977996
 10
74.196422324
 20
154.6657422824
 10
74.3186634504
 20
154.6420210397
 10
74.441009132
 20
154.6155259146
 10
74.5634360597
 20
154.5861551653
 10
74.6860476499
 20
154.5536128364
 10
74.8087310883
 20
154.5179317516
 10
74.931385755
 20
154.4790674756
 10
75.0541220021
 20
154.4366066294
 10
75.1769607131
 20
154.3905635871
 10
75.2996102678
 20
154.3409100457
 10
75.4217197029
 20
154.28716691
 10
75.5431106964
 20
154.2291689552
 10
75.6637474931
 20
154.1670656354
 10
75.7835176695
 20
154.1008491386
  0
LINE
  5
42F
100
AcDbEntity
  8
RACCORDO
100
AcDbLine
 62
253
  6
CONTINUOUS
 10
70.9399705041
 20
154.8945704434
 11
70.9810979642
 21
154.8872187241
  0
LINE
  5
430
100
AcDbEntity
  8
ASSI
100
AcDbLine
 62
253
  6
CONTINUOUS
 10
70.9399705041
 20
154.8945704434
 11
70.9810979642
 21
154.8872187241
  0
LINE
  5
431
100
AcDbEntity
  8
RACCORDO
100
AcDbLine
 62
253
  6
CONTINUOUS
 10
70.9810979642
 20
154.8872187241
 11
71.3885135066
 21
154.8140538894
  0
LINE
  5
432
100
AcDbEntity
  8
ASSI
100
AcDbLine
 62
253
  6
CONTINUOUS
 10
70.9810979642
 20
154.8872187241
 11
71.3885135066
 21
154.8140538894
  0
LINE
  5
433
100
AcDbEntity
  8
RACCORDO
100
AcDbLine
 62
7
  6
CONTINUOUS
 10
71.4788009168
 20
155.8022875186
 11
73.6854193346
 21
155.9953416149
  0
LINE
  5
434
100
AcDbEntity
  8
ASSI
100
AcDbLine
 62
7
  6
CONTINUOUS
 10
71.4788009168
 20
155.8022875186
 11
73.6854193346
 21
155.9953416149
  0
ARC
  5
435
100
AcDbEntity
  8
RACCORDO
100
AcDbCircle
 62
7
  6
CONTINUOUS
 10
236.4095906464
 20
96.8357308164
 40
168.1209091124
100
AcDbArc
 50
182.8793331648
 51
190.3616376217
  0
ARC
  5
436
100
AcDbEntity
  8
ASSI
100
AcDbCircle
 62
7
  6
CONTINUOUS
 10
236.4095906464
 20
96.8357308164
 40
168.1209091124
100
AcDbArc
 50
182.8793331648
 51
190.3616376217
  0
ARC
  5
437
100
AcDbEntity
  8
RACCORDO
100
AcDbCircle
 62
7
  6
CONTINUOUS
 10
236.4095906464
 20
96.8357308164
 40
165.6209091124
100
AcDbArc
 50
182.8793463054
 51
190.7317283603
  0
ARC
  5
438
100
AcDbEntity
  8
ASSI
100
AcDbCircle
 62
7
  6
CONTINUOUS
 10
236.4095906464
 20
96.8357308164
 40
165.6209091124
100
AcDbArc
 50
182.8793463054
 51
190.7317283603
  0
ARC
  5
439
100
AcDbEntity
  8
0
100
AcDbCircle
 62
7
  6
CONTINUOUS
 10
236.4066425774
 20
96.8387016149
 40
165.12
100
AcDbArc
 50
182.8787323946
 51
190.1014160686
  0
ARC
  5
43A
100
AcDbEntity
  8
RACCORDO
100
AcDbCircle
 62
7
  6
CONTINUOUS
 10
236.4066425774
 20
96.8387016149
 40
165.12
100
AcDbArc
 50
190.1014160686
 51
190.5891670949
  0
ARC
  5
43B
100
AcDbEntity
  8
RACCORDO
100
AcDbCircle
 62
7
  6
CONTINUOUS
 10
73.4005479797
 20
70.4542923521
 40
4.0200239337
100
AcDbArc
 50
279.9999998059
 51
320.4648679848
  0
ARC
  5
43C
100
AcDbEntity
  8
RACCORDO
100
AcDbCircle
 62
7
  6
CONTINUOUS
 10
71.5223787882
 20
66.6864930602
 40
0.5
100
AcDbArc
 50
190.3619323081
 51
265.0
  0
ARC
  5
43D
100
AcDbEntity
  8
ASSI
100
AcDbCircle
 62
7
  6
CONTINUOUS
 10
71.5223787882
 20
66.6864930602
 40
0.5
100
AcDbArc
 50
190.3619323081
 51
265.0
  0
ARC
  5
43E
100
AcDbEntity
  8
RACCORDO
100
AcDbCircle
 62
7
  6
CONTINUOUS
 10
73.4734168313
 20
68.8482327378
 40
0.3
100
AcDbArc
 50
199.8963087771
 51
269.0
  0
ARC
  5
43F
100
AcDbEntity
  8
RACCORDO
100
AcDbCircle
 62
7
  6
CONTINUOUS
 10
74.7009291744
 20
107.6631615411
 40
0.2
100
AcDbArc
 50
180.0
 51
260.0
  0
ARC
  5
440
100
AcDbEntity
  8
RACCORDO
100
AcDbCircle
 62
7
  6
CONTINUOUS
 10
74.7009291744
 20
114.3275216887
 40
0.2
100
AcDbArc
 50
100.0
 51
180.0
  0
ARC
  5
441
100
AcDbEntity
  8
RACCORDO
100
AcDbCircle
 62
7
  6
CONTINUOUS
 10
73.4005479797
 20
151.5363908777
 40
4.0200239337
100
AcDbArc
 50
39.5351313682
 51
80.0000000715
  0
ARC
  5
442
100
AcDbEntity
  8
RACCORDO
100
AcDbCircle
 62
7
  6
CONTINUOUS
 10
71.5223779572
 20
155.304185718
 40
0.5
100
AcDbArc
 50
94.9998606877
 51
169.637548776
  0
ARC
  5
443
100
AcDbEntity
  8
ASSI
100
AcDbCircle
 62
7
  6
CONTINUOUS
 10
71.5223779572
 20
155.304185718
 40
0.5
100
AcDbArc
 50
94.9998606877
 51
169.637548776
  0
ARC
  5
444
100
AcDbEntity
  8
RACCORDO
100
AcDbCircle
 62
7
  6
CONTINUOUS
 10
73.4734168313
 20
153.142450492
 40
0.3
100
AcDbArc
 50
91.0
 51
160.1037744874
  0
ARC
  5
445
100
AcDbEntity
  8
RACCORDO
100
AcDbCircle
 62
7
  6
CONTINUOUS
 10
236.4095906464
 20
125.1549524134
 40
168.1209091124
100
AcDbArc
 50
169.6380676919
 51
177.1206536946
  0
ARC
  5
446
100
AcDbEntity
  8
ASSI
100
AcDbCircle
 62
7
  6
CONTINUOUS
 10
236.4095906464
 20
125.1549524134
 40
168.1209091124
100
AcDbArc
 50
169.6380676919
 51
177.1206536946
  0
ARC
  5
447
100
AcDbEntity
  8
RACCORDO
100
AcDbCircle
 62
7
  6
CONTINUOUS
 10
236.4095906464
 20
125.1549524134
 40
165.6209091124
100
AcDbArc
 50
169.2682716397
 51
177.1206536946
  0
ARC
  5
448
100
AcDbEntity
  8
ASSI
100
AcDbCircle
 62
7
  6
CONTINUOUS
 10
236.4095906464
 20
125.1549524134
 40
165.6209091124
100
AcDbArc
 50
169.2682716397
 51
177.1206536946
  0
ARC
  5
449
100
AcDbEntity
  8
0
100
AcDbCircle
 62
7
  6
CONTINUOUS
 10
236.4066425774
 20
125.1519816149
 40
165.12
100
AcDbArc
 50
169.8985839314
 51
177.1212676054
  0
ARC
  5
44A
100
AcDbEntity
  8
RACCORDO
100
AcDbCircle
 62
7
  6
CONTINUOUS
 10
236.4066425774
 20
125.1519816149
 40
165.12
100
AcDbArc
 50
169.4108329051
 51
169.8985839314
  0
ARC
  5
44B
100
AcDbEntity
  8
RACCORDO
100
AcDbCircle
 62
7
  6
CONTINUOUS
 10
517.9328175775
 20
110.9953416149
 40
450.0
100
AcDbArc
 50
177.1206584177
 51
182.8793414056
  0
ARC
  5
44C
100
AcDbEntity
  8
ASSI
100
AcDbCircle
 62
7
  6
CONTINUOUS
 10
517.9328175775
 20
110.9953416149
 40
450.0
100
AcDbArc
 50
177.1206584177
 51
182.8793414056
  0
ARC
  5
44D
100
AcDbEntity
  8
DRAFT
100
AcDbCircle
 62
7
  6
CONTINUOUS
 10
517.9328175775
 20
110.9953416149
 40
447.5
100
AcDbArc
 50
177.1206536946
 51
182.8793463054
  0
ARC
  5
44E
100
AcDbEntity
  8
ASSI
100
AcDbCircle
 62
7
  6
CONTINUOUS
 10
517.9328175775
 20
110.9953416149
 40
447.5
100
AcDbArc
 50
177.1206536946
 51
182.8793463054
  0
ARC
  5
44F
100
AcDbEntity
  8
RACCORDO
100
AcDbCircle
 62
7
  6
CONTINUOUS
 10
517.9309291744
 20
110.9953416149
 40
447.4
100
AcDbArc
 50
182.6407457129
 51
182.7641299438
  0
ARC
  5
450
100
AcDbEntity
  8
RACCORDO
100
AcDbCircle
 62
7
  6
CONTINUOUS
 10
517.9309291744
 20
110.9953416149
 40
447.4
100
AcDbArc
 50
181.5944293143
 51
181.7152315532
  0
ARC
  5
451
100
AcDbEntity
  8
RACCORDO
100
AcDbCircle
 62
7
  6
CONTINUOUS
 10
517.9309291744
 20
110.9953416149
 40
447.4
100
AcDbArc
 50
178.2847684468
 51
178.4055707332
  0
ARC
  5
452
100
AcDbEntity
  8
RACCORDO
100
AcDbCircle
 62
7
  6
CONTINUOUS
 10
517.9309291744
 20
110.9953416149
 40
447.4
100
AcDbArc
 50
177.2358701366
 51
177.3592542871
  0
ARC
  5
453
100
AcDbEntity
  8
0
100
AcDbCircle
 62
7
  6
CONTINUOUS
 10
517.9309291744
 20
110.9953416149
 40
447.0
100
AcDbArc
 50
177.1212676054
 51
182.8787323946
  0
ENDSEC
  0
SECTION
  2
OBJECTS
  0
DICTIONARY
  5
C
100
AcDbDictionary
280
0
281
1
  3
ACAD_GROUP
350
D
  3
ACAD_MLINESTYLE
350
17
  3
ACAD_LAYOUT
350
1A
  3
ACAD_PLOTSETTINGS
350
19
  3
ACAD_PLOTSTYLENAME
350
E
  0
DICTIONARY
  5
D
102
{ACAD_REACTORS
330
C
102
}
100
AcDbDictionary
280
0
281
1
  0
ACDBDICTIONARYWDFLT
  5
E
102
{ACAD_REACTORS
330
C
102
}
100
AcDbDictionary
281
1
  3
Normal
350
F
100
AcDbDictionaryWithDefault
340
F
  0
DICTIONARY
  5
17
102
{ACAD_REACTORS
330
C
102
}
100
AcDbDictionary
280
0
281
1
  3
Standard
350
18
  0
DICTIONARY
  5
19
102
{ACAD_REACTORS
330
C
102
}
100
AcDbDictionary
281
1
  0
DICTIONARY
  5
1A
102
{ACAD_REACTORS
330
C
102
}
100
AcDbDictionary
281
1
  3
Model
350
454
  3
Layout1
350
455
  0
ACDBPLACEHOLDER
  5
F
102
{ACAD_REACTORS
330
E
102
}
  0
MLINESTYLE
  5
18
102
{ACAD_REACTORS
330
17
102
}
100
AcDbMlineStyle
  2
STANDARD
 70
0
  3

 62
256
 51
90.0
 52
90.0
 71
2
 49
0.5
 62
256
  6
BYLAYER
 49
-0.5
 62
256
  6
BYLAYER
  0
LAYOUT
  5
454
102
{ACAD_REACTORS
330
1A
102
}
100
AcDbPlotSettings
  1

  2
none_device
  4
ISO_A4_(297.00_x_210.00_MM)
  6

 40
0.0
 41
0.0
 42
0.0
 43
0.0
 44
297.0
 45
210.0
 46
0.0
 47
0.0
 48
0.0
 49
0.0
140
0.0
141
0.0
142
1.0
143
1.0
 70
1024
 72
1
 73
0
 74
0
  7

 75
0
147
1.0
148
0.0
149
0.0
100
AcDbLayout
  1
Model
 70
0
 71
0
 10
0.0
 20
0.0
 11
297.0
 21
210.0
 12
0.0
 22
0.0
 32
0.0
 14
0.0
 24
0.0
 34
0.0
 15
0.0
 25
0.0
 35
0.0
146
0.0
 13
0.0
 23
0.0
 33
0.0
 16
1.0
 26
0.0
 36
0.0
 17
0.0
 27
1.0
 37
0.0
 76
0
330
211
345
0
346
0
  0
LAYOUT
  5
455
102
{ACAD_REACTORS
330
1A
102
}
100
AcDbPlotSettings
  1

  2
none_device
  4
ISO_A4_(297.00_x_210.00_MM)
  6

 40
0.0
 41
0.0
 42
0.0
 43
0.0
 44
297.0
 45
210.0
 46
0.0
 47
0.0
 48
0.0
 49
0.0
140
0.0
141
0.0
142
1.0
143
1.0
 70
0
 72
1
 73
0
 74
0
  7

 75
0
147
1.0
148
0.0
149
0.0
100
AcDbLayout
  1
Layout1
 70
0
 71
1
 10
0.0
 20
0.0
 11
297.0
 21
210.0
 12
0.0
 22
0.0
 32
0.0
 14
0.0
 24
0.0
 34
0.0
 15
0.0
 25
0.0
 35
0.0
146
0.0
 13
0.0
 23
0.0
 33
0.0
 16
1.0
 26
0.0
 36
0.0
 17
0.0
 27
1.0
 37
0.0
 76
0
330
212
345
0
346
0
  0
ENDSEC
  0
EOF
