  0
SECTION
  2
HEADER
  9
$ACADVER
  1
AC1021
  9
$DWGCODEPAGE
  3
ANSI_1252
  9
$EXTMAX
 10
297.0
 20
210.0
 30
0.0
  9
$EXTMIN
 10
0.0
 20
0.0
 30
0.0
  9
$LIMMIN
 10
0.0
 20
0.0
  9
$LIMMAX
 10
297.0
 20
210.0
  9
$VIEWCTR
 10
148.5
 20
105.0
  9
$VIEWSIZE
 40
210.0
  9
$CLAYER
  8
0
  9
$LTSCALE
 40
16.335
  9
$CELTYPE
  6
BYLAYER
  9
$DIMSCALE
 40
1.0
  9
$DIMASZ
 40
3.0
  9
$DIMEXO
 40
0.5
  9
$DIMDLI
 40
11.286
  9
$DIMEXE
 40
1.5
  9
$DIMCEN
 40
2.673
  9
$DIMLFAC
 40
1.0
  9
$DIMBLK
  1
_FILLED
  9
$DIMALT
 70
0
  9
$DIMALTF
 40
25.4
  9
$DIMTXT
 40
3.0
  9
$DIMTOL
 70
1
  9
$DIMLIM
 70
0
  9
$DIMTFAC
 40
1.0
  9
$DIMTP
 40
0.01
  9
$DIMTM
 40
0.01
  9
$DIMGAP
 40
0.625
  9
$DIMDSEP
 70
44
  9
$AUNITS
 70
0
  9
$PDMODE
 70
3
  9
$PDSIZE
 40
3.0
  9
$HANDSEED
  5
427
  9
$TILEMODE
 70
1
  9
$MEASUREMENT
 70
1
  9
$INSUNITS
 70
4
  0
ENDSEC
  0
SECTION
  2
CLASSES
  0
CLASS
  1
ACDBDICTIONARYWDFLT
  2
AcDbDictionaryWithDefault
  3
AutoCAD 2000
 90
0
 91
1
280
0
281
0
  0
CLASS
  1
ACDBPLACEHOLDER
  2
AcDbPlaceHolder
  3
AutoCAD 2000
 90
0
 91
1
280
0
281
0
  0
CLASS
  1
LAYOUT
  2
AcDbLayout
  3
AutoCAD 2000
 90
0
 91
0
280
0
281
0
  0
ENDSEC
  0
SECTION
  2
TABLES
  0
TABLE
  2
VPORT
  5
8
100
AcDbSymbolTable
 70
2
  0
VPORT
  5
1F4
100
AcDbSymbolTableRecord
100
AcDbViewportTableRecord
  2
*ACTIVE
 70
0
 10
0.0
 20
0.0
 11
1.0
 21
1.0
 12
148.5
 22
105.0
 13
0.0
 23
0.0
 14
1.0
 24
1.0
 15
0.0
 25
0.0
 16
0.0
 26
0.0
 36
1.0
 17
0.0
 27
0.0
 37
0.0
 40
210.0
 41
1.4142857143
 42
50.0
 43
0.0
 44
0.0
 50
0.0
 51
0.0
 71
0
 72
100
 73
1
 74
1
 75
0
 76
0
 77
0
 78
0
  0
ENDTAB
  0
TABLE
  2
LTYPE
  5
5
100
AcDbSymbolTable
 70
6
  0
LTYPE
  5
14
100
AcDbSymbolTableRecord
100
AcDbLinetypeTableRecord
  2
BYBLOCK
 70
0
  3

 72
65
 73
0
 40
0.0
  0
LTYPE
  5
15
100
AcDbSymbolTableRecord
100
AcDbLinetypeTableRecord
  2
BYLAYER
 70
0
  3

 72
65
 73
0
 40
0.0
  0
LTYPE
  5
16
100
AcDbSymbolTableRecord
100
AcDbLinetypeTableRecord
  2
CONTINUOUS
 70
64
  3
Solid line
 72
65
 73
0
 40
0.0
  0
LTYPE
  5
1F5
100
AcDbSymbolTableRecord
100
AcDbLinetypeTableRecord
  2
CENTER
 70
64
  3
____ _ ____ _ ____ _ ____ _ ____ _ ____ _ ____
 72
65
 73
4
 40
0.6
 49
0.375
 74
0
 49
-0.075
 74
0
 49
0.075
 74
0
 49
-0.075
 74
0
  0
LTYPE
  5
1F6
100
AcDbSymbolTableRecord
100
AcDbLinetypeTableRecord
  2
HIDDEN
 70
64
  3
- - - - - - - - - - - - - - - - - - - -
 72
65
 73
2
 40
0.2
 49
0.1
 74
0
 49
-0.1
 74
0
  0
LTYPE
  5
1F7
100
AcDbSymbolTableRecord
100
AcDbLinetypeTableRecord
  2
PHANTOM
 70
64
  3
_____ _ _ _____ _ _ _____ _ _ _____
 72
65
 73
6
 40
0.8
 49
0.45
 74
0
 49
-0.05
 74
0
 49
0.1
 74
0
 49
-0.05
 74
0
 49
0.1
 74
0
 49
-0.05
 74
0
  0
LTYPE
  5
1F8
100
AcDbSymbolTableRecord
100
AcDbLinetypeTableRecord
  2
DOT
 70
64
  3
. . . . . . . . . . . . . . . . . . . .
 72
65
 73
2
 40
0.2
 49
0.1
 74
0
 49
-0.1
 74
0
  0
LTYPE
  5
1F9
100
AcDbSymbolTableRecord
100
AcDbLinetypeTableRecord
  2
DASHED
 70
64
  3
- - - - - - - - - - - - - - - - - - - -
 72
65
 73
2
 40
0.2
 49
0.1
 74
0
 49
-0.1
 74
0
  0
ENDTAB
  0
TABLE
  2
LAYER
  5
2
100
AcDbSymbolTable
 70
36
  0
LAYER
  5
10
100
AcDbSymbolTableRecord
100
AcDbLayerTableRecord
  2
0
 70
0
 62
7
  6
CONTINUOUS
370
-3
390
F
  0
LAYER
  5
1FA
100
AcDbSymbolTableRecord
100
AcDbLayerTableRecord
  2
DEFAULT_1
 70
0
 62
7
  6
CENTER
370
-3
390
F
  0
LAYER
  5
1FB
100
AcDbSymbolTableRecord
100
AcDbLayerTableRecord
  2
DEFAULT_2
 70
0
 62
7
  6
HIDDEN
370
-3
390
F
  0
LAYER
  5
1FC
100
AcDbSymbolTableRecord
100
AcDbLayerTableRecord
  2
DEFAULT_3
 70
0
 62
7
  6
PHANTOM
370
-3
390
F
  0
LAYER
  5
1FD
100
AcDbSymbolTableRecord
100
AcDbLayerTableRecord
  2
ASSI
 70
0
 62
7
  6
CONTINUOUS
370
-3
390
F
  0
LAYER
  5
1FE
100
AcDbSymbolTableRecord
100
AcDbLayerTableRecord
  2
COORDINATE
 70
0
 62
7
  6
CONTINUOUS
370
-3
390
F
  0
LAYER
  5
1FF
100
AcDbSymbolTableRecord
100
AcDbLayerTableRecord
  2
COPY_PUBLISH
 70
0
 62
7
  6
CONTINUOUS
370
-3
390
F
  0
LAYER
  5
200
100
AcDbSymbolTableRecord
100
AcDbLayerTableRecord
  2
COSMETICI
 70
0
 62
7
  6
CONTINUOUS
370
-3
390
F
  0
LAYER
  5
201
100
AcDbSymbolTableRecord
100
AcDbLayerTableRecord
  2
COSTOLE_APPOGGIO
 70
0
 62
7
  6
CONTINUOUS
370
-3
390
F
  0
LAYER
  5
202
100
AcDbSymbolTableRecord
100
AcDbLayerTableRecord
  2
CURVA_VERNICIATA
 70
0
 62
7
  6
CONTINUOUS
370
-3
390
F
  0
LAYER
  5
203
100
AcDbSymbolTableRecord
100
AcDbLayerTableRecord
  2
CURVA_VERNICIATO
 70
0
 62
7
  6
CONTINUOUS
370
-3
390
F
  0
LAYER
  5
204
100
AcDbSymbolTableRecord
100
AcDbLayerTableRecord
  2
CURVE
 70
0
 62
7
  6
CONTINUOUS
370
-3
390
F
  0
LAYER
  5
205
100
AcDbSymbolTableRecord
100
AcDbLayerTableRecord
  2
DRAFT
 70
0
 62
7
  6
CONTINUOUS
370
-3
390
F
  0
LAYER
  5
206
100
AcDbSymbolTableRecord
100
AcDbLayerTableRecord
  2
IMPORT_IGES
 70
0
 62
7
  6
CONTINUOUS
370
-3
390
F
  0
LAYER
  5
207
100
AcDbSymbolTableRecord
100
AcDbLayerTableRecord
  2
INTF_1
 70
0
 62
7
  6
CONTINUOUS
370
-3
390
F
  0
LAYER
  5
208
100
AcDbSymbolTableRecord
100
AcDbLayerTableRecord
  2
INTF_7
 70
0
 62
7
  6
CONTINUOUS
370
-3
390
F
  0
LAYER
  5
209
100
AcDbSymbolTableRecord
100
AcDbLayerTableRecord
  2
INTF_CYAN
 70
0
 62
7
  6
CONTINUOUS
370
-3
390
F
  0
LAYER
  5
20A
100
AcDbSymbolTableRecord
100
AcDbLayerTableRecord
  2
NOTE
 70
0
 62
7
  6
CONTINUOUS
370
-3
390
F
  0
LAYER
  5
20B
100
AcDbSymbolTableRecord
100
AcDbLayerTableRecord
  2
PIANI
 70
0
 62
7
  6
CONTINUOUS
370
-3
390
F
  0
LAYER
  5
20C
100
AcDbSymbolTableRecord
100
AcDbLayerTableRecord
  2
PUNTI
 70
0
 62
7
  6
CONTINUOUS
370
-3
390
F
  0
LAYER
  5
20D
100
AcDbSymbolTableRecord
100
AcDbLayerTableRecord
  2
RACCORDO
 70
0
 62
7
  6
CONTINUOUS
370
-3
390
F
  0
LAYER
  5
20E
100
AcDbSymbolTableRecord
100
AcDbLayerTableRecord
  2
RGB____0____0____0__
 70
0
 62
7
  6
CONTINUOUS
370
-3
390
F
  0
LAYER
  5
20F
100
AcDbSymbolTableRecord
100
AcDbLayerTableRecord
  2
SCRITTE
 70
0
 62
7
  6
CONTINUOUS
370
-3
390
F
  0
LAYER
  5
210
100
AcDbSymbolTableRecord
100
AcDbLayerTableRecord
  2
SIMBOLI
 70
0
 62
7
  6
CONTINUOUS
370
-3
390
F
  0
LAYER
  5
211
100
AcDbSymbolTableRecord
100
AcDbLayerTableRecord
  2
SMUSSO
 70
0
 62
7
  6
CONTINUOUS
370
-3
390
F
  0
LAYER
  5
212
100
AcDbSymbolTableRecord
100
AcDbLayerTableRecord
  2
SNAPLINE
 70
0
 62
7
  6
CONTINUOUS
370
-3
390
F
  0
LAYER
  5
213
100
AcDbSymbolTableRecord
100
AcDbLayerTableRecord
  2
SUPERFICI
 70
0
 62
7
  6
CONTINUOUS
370
-3
390
F
  0
LAYER
  5
214
100
AcDbSymbolTableRecord
100
AcDbLayerTableRecord
  2
SUP_SCRITTE
 70
0
 62
7
  6
CONTINUOUS
370
-3
390
F
  0
LAYER
  5
215
100
AcDbSymbolTableRecord
100
AcDbLayerTableRecord
  2
TRASH
 70
0
 62
7
  6
CONTINUOUS
370
-3
390
F
  0
ENDTAB
  0
TABLE
  2
STYLE
  5
3
100
AcDbSymbolTable
 70
1
  0
STYLE
  5
11
100
AcDbSymbolTableRecord
100
AcDbTextStyleTableRecord
  2
STANDARD
 70
0
 40
0.0
 41
0.8
 50
0.0
 71
0
 42
0.2
  3
txt
  4

  0
STYLE
  5
216
100
AcDbSymbolTableRecord
100
AcDbTextStyleTableRecord
  2
TEXTSTYLE_1
 70
0
 40
0.0
 41
0.8
 50
0.0
 71
0
 42
0.2
  3
gdt
  4

  0
ENDTAB
  0
TABLE
  2
VIEW
  5
6
100
AcDbSymbolTable
 70
0
  0
ENDTAB
  0
TABLE
  2
UCS
  5
7
100
AcDbSymbolTable
 70
0
  0
ENDTAB
  0
TABLE
  2
APPID
  5
9
100
AcDbSymbolTable
 70
1
  0
APPID
  5
217
100
AcDbSymbolTableRecord
100
AcDbRegAppTableRecord
  2
ACAD
 70
0
  0
ENDTAB
  0
TABLE
  2
BLOCK_RECORD
  5
1
100
AcDbSymbolTable
 70
0
  0
BLOCK_RECORD
  5
218
100
AcDbSymbolTableRecord
100
AcDbBlockTableRecord
  2
*Model_Space
  0
BLOCK_RECORD
  5
219
100
AcDbSymbolTableRecord
100
AcDbBlockTableRecord
  2
*Paper_Space
  0
BLOCK_RECORD
  5
21A
100
AcDbSymbolTableRecord
100
AcDbBlockTableRecord
  2
_FILLED
  0
BLOCK_RECORD
  5
21B
100
AcDbSymbolTableRecord
100
AcDbBlockTableRecord
  2
*D0
  0
BLOCK_RECORD
  5
21C
100
AcDbSymbolTableRecord
100
AcDbBlockTableRecord
  2
*D1
  0
BLOCK_RECORD
  5
21D
100
AcDbSymbolTableRecord
100
AcDbBlockTableRecord
  2
*D2
  0
BLOCK_RECORD
  5
21E
100
AcDbSymbolTableRecord
100
AcDbBlockTableRecord
  2
*D3
  0
BLOCK_RECORD
  5
21F
100
AcDbSymbolTableRecord
100
AcDbBlockTableRecord
  2
*D4
  0
ENDTAB
  0
TABLE
  2
DIMSTYLE
  5
A
100
AcDbSymbolTable
 70
1
100
AcDbDimStyleTable
 71
0
  0
DIMSTYLE
105
220
100
AcDbSymbolTableRecord
100
AcDbDimStyleTableRecord
  2
STANDARD
 70
0
  3

  4

 40
1.0
 41
3.0
 42
0.5
 43
0.38
 44
1.5
 45
0.0
 46
0.0
 47
0.01
 48
0.01
140
3.0
141
0.09
142
0.0
143
25.4
144
1.0
145
0.0
146
1.0
147
0.625
 71
1.0
 72
0.0
 73
0
 74
0
 75
0
 76
0
 77
1
 78
8
170
0
171
1
172
0
173
0
174
0
175
0
176
0
177
0
178
0
270
2
271
2
272
2
273
2
274
2
275
0
280
0
281
0
282
0
283
1
284
8
285
0
286
0
287
3
288
0
340
11
278
44
341
21A
342
21A
343
21A
344
21A
  0
DIMSTYLE
105
221
100
AcDbSymbolTableRecord
100
AcDbDimStyleTableRecord
  2
DIMSTYLE_1
 70
0
  3

  4

 40
1.0
 41
3.0
 42
0.5
 43
0.38
 44
1.5
 45
0.0
 46
0.0
 47
0.0
 48
0.0
140
3.0
141
0.09
142
0.0
143
25.4
144
1.0
145
0.0
146
1.0
147
0.75
 71
0.0
 72
0.0
 73
0
 74
0
 75
0
 76
0
 77
1
 78
8
170
0
171
1
172
0
173
0
174
0
175
0
176
0
177
0
178
0
270
2
271
2
272
2
273
2
274
2
275
0
280
0
281
0
282
0
283
1
284
8
285
0
286
0
287
3
288
0
340
11
278
44
341
21A
342
21A
343
21A
344
21A
  0
DIMSTYLE
105
222
100
AcDbSymbolTableRecord
100
AcDbDimStyleTableRecord
  2
DIMSTYLE_2
 70
0
  3

  4

 40
1.0
 41
3.0
 42
0.5
 43
0.38
 44
1.5
 45
0.0
 46
0.0
 47
0.0
 48
0.0
140
3.0
141
0.09
142
0.0
143
25.4
144
1.0
145
0.0
146
1.0
147
0.75
 71
0.0
 72
0.0
 73
0
 74
0
 75
0
 76
0
 77
1
 78
8
170
0
171
1
172
0
173
0
174
0
175
0
176
0
177
0
178
0
270
2
271
1
272
1
273
2
274
2
275
0
280
0
281
0
282
0
283
1
284
8
285
0
286
0
287
3
288
0
340
11
278
44
341
21A
342
21A
343
21A
344
21A
  0
ENDTAB
  0
ENDSEC
  0
SECTION
  2
BLOCKS
  0
BLOCK
  5
20
100
AcDbEntity
  8
0
100
AcDbBlockBegin
  2
*Model_Space
 70
0
 10
0.0
 20
0.0
 30
0.0
  3
*Model_Space
  1

  0
ENDBLK
  5
21
100
AcDbEntity
  8
0
100
AcDbBlockEnd
  0
BLOCK
  5
1C
100
AcDbEntity
  8
0
100
AcDbBlockBegin
  2
*Paper_Space
 70
0
 10
0.0
 20
0.0
 30
0.0
  3
*Paper_Space
  1

  0
ENDBLK
  5
1D
100
AcDbEntity
  8
0
100
AcDbBlockEnd
  0
BLOCK
  5
223
100
AcDbEntity
  8
0
100
AcDbBlockBegin
  2
_FILLED
 70
64
 10
0.0
 20
0.0
  3
_FILLED
  1

  0
SOLID
  5
224
100
AcDbEntity
  8
0
  6
BYBLOCK
 62
0
100
AcDbTrace
 10
0.0
 20
0.0
 11
-1.0
 21
0.3166666667
 12
-1.0
 22
-0.3166666667
 13
-1.0
 23
-0.3166666667
  0
ENDBLK
  5
225
100
AcDbEntity
  8
0
  6
BYBLOCK
 62
0
100
AcDbBlockEnd
  0
BLOCK
  5
226
100
AcDbEntity
  8
0
100
AcDbBlockBegin
 62
7
  6
CONTINUOUS
  2
*D0
 70
65
 10
0.0
 20
0.0
  3
*D0
  1

  0
MTEXT
  5
227
100
AcDbEntity
  8
0
100
AcDbMText
 62
7
  6
CONTINUOUS
  7
STANDARD
 71
2
 72
1
 10
0.0
 20
81.8035013869
 30
0.0
 11
1.0
 21
0.0
 31
0.0
 44
0.9
  1
155
 40
3.0
 41
9.0
  0
LINE
  5
228
100
AcDbEntity
  8
0
100
AcDbLine
 62
7
  6
CONTINUOUS
 10
-77.5
 20
17.9611208354
 11
-77.5
 21
79.5535013869
  0
LINE
  5
229
100
AcDbEntity
  8
0
100
AcDbLine
 62
7
  6
CONTINUOUS
 10
77.5
 20
17.9611208354
 11
77.5
 21
79.5535013869
  0
LINE
  5
22A
100
AcDbEntity
  8
0
100
AcDbLine
 62
7
  6
CONTINUOUS
 10
-77.5
 20
78.0535013869
 11
0.0
 21
78.0535013869
  0
LINE
  5
22B
100
AcDbEntity
  8
0
100
AcDbLine
 62
7
  6
CONTINUOUS
 10
77.5
 20
78.0535013869
 11
0.0
 21
78.0535013869
  0
INSERT
  5
22C
100
AcDbEntity
  8
0
100
AcDbBlockReference
 62
7
  6
CONTINUOUS
  2
_FILLED
 10
-77.5
 20
78.0535013869
 41
3.0
 42
3.0
 43
3.0
 50
180.0
  0
INSERT
  5
22D
100
AcDbEntity
  8
0
100
AcDbBlockReference
 62
7
  6
CONTINUOUS
  2
_FILLED
 10
77.5
 20
78.0535013869
 41
3.0
 42
3.0
 43
3.0
  0
ENDBLK
  5
22E
100
AcDbEntity
  8
0
  6
BYBLOCK
 62
0
100
AcDbBlockEnd
  0
BLOCK
  5
22F
100
AcDbEntity
  8
0
100
AcDbBlockBegin
 62
7
  6
CONTINUOUS
  2
*D1
 70
65
 10
0.0
 20
0.0
  3
*D1
  1

  0
MTEXT
  5
230
100
AcDbEntity
  8
0
100
AcDbMText
 62
7
  6
CONTINUOUS
  7
STANDARD
 71
2
 72
1
 10
0.0
 20
73.8035013869
 30
0.0
 11
1.0
 21
0.0
 31
0.0
 44
0.9
  1
113,1
 40
3.0
 41
13.5
  0
LINE
  5
231
100
AcDbEntity
  8
0
100
AcDbLine
 62
7
  6
CONTINUOUS
 10
56.5500046161
 20
17.7470561474
 11
56.5500046161
 21
71.5535013869
  0
LINE
  5
232
100
AcDbEntity
  8
0
100
AcDbLine
 62
7
  6
CONTINUOUS
 10
-56.5500046161
 20
17.7470561474
 11
-56.5500046161
 21
71.5535013869
  0
LINE
  5
233
100
AcDbEntity
  8
0
100
AcDbLine
 62
7
  6
CONTINUOUS
 10
56.5500046161
 20
70.0535013869
 11
0.0
 21
70.0535013869
  0
LINE
  5
234
100
AcDbEntity
  8
0
100
AcDbLine
 62
7
  6
CONTINUOUS
 10
-56.5500046161
 20
70.0535013869
 11
0.0
 21
70.0535013869
  0
INSERT
  5
235
100
AcDbEntity
  8
0
100
AcDbBlockReference
 62
7
  6
CONTINUOUS
  2
_FILLED
 10
56.5500046161
 20
70.0535013869
 41
3.0
 42
3.0
 43
3.0
  0
INSERT
  5
236
100
AcDbEntity
  8
0
100
AcDbBlockReference
 62
7
  6
CONTINUOUS
  2
_FILLED
 10
-56.5500046161
 20
70.0535013869
 41
3.0
 42
3.0
 43
3.0
 50
180.0
  0
ENDBLK
  5
237
100
AcDbEntity
  8
0
  6
BYBLOCK
 62
0
100
AcDbBlockEnd
  0
BLOCK
  5
238
100
AcDbEntity
  8
0
100
AcDbBlockBegin
 62
7
  6
CONTINUOUS
  2
*D2
 70
65
 10
0.0
 20
0.0
  3
*D2
  1

  0
MTEXT
  5
239
100
AcDbEntity
  8
0
100
AcDbMText
 62
7
  6
CONTINUOUS
  7
STANDARD
 71
2
 72
1
 10
99.25
 20
-5.0535013869
 30
0.0
 11
0.0
 21
1.0
 31
0.0
 44
0.9
  1
90
 40
3.0
 41
7.0714285714
  0
LINE
  5
23A
100
AcDbEntity
  8
0
100
AcDbLine
 62
7
  6
CONTINUOUS
 10
77.2
 20
39.9464986131
 11
104.5
 21
39.9464986131
  0
LINE
  5
23B
100
AcDbEntity
  8
0
100
AcDbLine
 62
7
  6
CONTINUOUS
 10
77.2
 20
-50.0535013869
 11
104.5
 21
-50.0535013869
  0
LINE
  5
23C
100
AcDbEntity
  8
0
100
AcDbLine
 62
7
  6
CONTINUOUS
 10
103.0
 20
39.9464986131
 11
103.0
 21
-5.0535013869
  0
LINE
  5
23D
100
AcDbEntity
  8
0
100
AcDbLine
 62
7
  6
CONTINUOUS
 10
103.0
 20
-50.0535013869
 11
103.0
 21
-5.0535013869
  0
INSERT
  5
23E
100
AcDbEntity
  8
0
100
AcDbBlockReference
 62
7
  6
CONTINUOUS
  2
_FILLED
 10
103.0
 20
39.9464986131
 41
3.0
 42
3.0
 43
3.0
 50
90.0
  0
INSERT
  5
23F
100
AcDbEntity
  8
0
100
AcDbBlockReference
 62
7
  6
CONTINUOUS
  2
_FILLED
 10
103.0
 20
-50.0535013869
 41
3.0
 42
3.0
 43
3.0
 50
270.0
  0
ENDBLK
  5
240
100
AcDbEntity
  8
0
  6
BYBLOCK
 62
0
100
AcDbBlockEnd
  0
BLOCK
  5
241
100
AcDbEntity
  8
0
100
AcDbBlockBegin
 62
7
  6
CONTINUOUS
  2
*D3
 70
65
 10
0.0
 20
0.0
  3
*D3
  1

  0
MTEXT
  5
242
100
AcDbEntity
  8
0
100
AcDbMText
 62
7
  6
CONTINUOUS
  7
STANDARD
 71
2
 72
1
 10
91.25
 20
-5.0535013869
 30
0.0
 11
0.0
 21
1.0
 31
0.0
 44
0.9
  1
45,4
 40
3.0
 41
12.8571428571
  0
LINE
  5
243
100
AcDbEntity
  8
0
100
AcDbLine
 62
7
  6
CONTINUOUS
 10
56.6494952776
 20
17.6464986131
 11
96.5
 21
17.6464986131
  0
LINE
  5
244
100
AcDbEntity
  8
0
100
AcDbLine
 62
7
  6
CONTINUOUS
 10
56.6494952776
 20
-27.7535013869
 11
96.5
 21
-27.7535013869
  0
LINE
  5
245
100
AcDbEntity
  8
0
100
AcDbLine
 62
7
  6
CONTINUOUS
 10
95.0
 20
17.6464986131
 11
95.0
 21
-5.0535013869
  0
LINE
  5
246
100
AcDbEntity
  8
0
100
AcDbLine
 62
7
  6
CONTINUOUS
 10
95.0
 20
-27.7535013869
 11
95.0
 21
-5.0535013869
  0
INSERT
  5
247
100
AcDbEntity
  8
0
100
AcDbBlockReference
 62
7
  6
CONTINUOUS
  2
_FILLED
 10
95.0
 20
17.6464986131
 41
3.0
 42
3.0
 43
3.0
 50
90.0
  0
INSERT
  5
248
100
AcDbEntity
  8
0
100
AcDbBlockReference
 62
7
  6
CONTINUOUS
  2
_FILLED
 10
95.0
 20
-27.7535013869
 41
3.0
 42
3.0
 43
3.0
 50
270.0
  0
ENDBLK
  5
249
100
AcDbEntity
  8
0
  6
BYBLOCK
 62
0
100
AcDbBlockEnd
  0
BLOCK
  5
24A
100
AcDbEntity
  8
0
100
AcDbBlockBegin
 62
7
  6
CONTINUOUS
  2
*D4
 70
65
 10
0.0
 20
0.0
  3
*D4
  1

  0
MTEXT
  5
24B
100
AcDbEntity
  8
0
100
AcDbMText
 62
7
  6
CONTINUOUS
  7
STANDARD
 71
2
 72
1
 10
-110.346338677
 20
73.8035013869
 30
0.0
 11
1.0
 21
0.0
 31
0.0
 44
0.9
  1
8,6
 40
3.0
 41
9.6428571429
  0
LINE
  5
24C
100
AcDbEntity
  8
0
100
AcDbLine
 62
7
  6
CONTINUOUS
 10
-106.061338677
 20
38.0132479116
 11
-106.061338677
 21
71.5535013869
  0
LINE
  5
24D
100
AcDbEntity
  8
0
100
AcDbLine
 62
7
  6
CONTINUOUS
 10
-114.631338677
 20
-4.5535013869
 11
-114.631338677
 21
71.5535013869
  0
LINE
  5
24E
100
AcDbEntity
  8
0
100
AcDbLine
 62
7
  6
CONTINUOUS
 10
-106.061338677
 20
70.0535013869
 11
-102.061338677
 21
70.0535013869
  0
LINE
  5
24F
100
AcDbEntity
  8
0
100
AcDbLine
 62
7
  6
CONTINUOUS
 10
-102.061338677
 20
70.0535013869
 11
-110.346338677
 21
70.0535013869
  0
LINE
  5
250
100
AcDbEntity
  8
0
100
AcDbLine
 62
7
  6
CONTINUOUS
 10
-114.631338677
 20
70.0535013869
 11
-118.631338677
 21
70.0535013869
  0
LINE
  5
251
100
AcDbEntity
  8
0
100
AcDbLine
 62
7
  6
CONTINUOUS
 10
-118.631338677
 20
70.0535013869
 11
-110.346338677
 21
70.0535013869
  0
INSERT
  5
252
100
AcDbEntity
  8
0
100
AcDbBlockReference
 62
7
  6
CONTINUOUS
  2
_FILLED
 10
-106.061338677
 20
70.0535013869
 41
3.0
 42
3.0
 43
3.0
 50
180.0
  0
INSERT
  5
253
100
AcDbEntity
  8
0
100
AcDbBlockReference
 62
7
  6
CONTINUOUS
  2
_FILLED
 10
-114.631338677
 20
70.0535013869
 41
3.0
 42
3.0
 43
3.0
  0
ENDBLK
  5
254
100
AcDbEntity
  8
0
  6
BYBLOCK
 62
0
100
AcDbBlockEnd
  0
ENDSEC
  0
SECTION
  2
ENTITIES
  0
DIMENSION
  5
255
100
AcDbEntity
  8
0
100
AcDbDimension
 62
7
  6
CONTINUOUS
  2
*D0
 10
77.5
 20
78.0535013869
 11
-0.4285714481
 21
78.0535013869
 70
160
 71
2
 42
155.0
  3
DIMSTYLE_1
100
AcDbAlignedDimension
 13
-77.5
 23
17.4611208354
 14
77.5
 24
17.4611208354
100
AcDbRotatedDimension
  0
DIMENSION
  5
256
100
AcDbEntity
  8
0
100
AcDbDimension
 62
7
  6
CONTINUOUS
  2
*D1
 10
-56.5500046161
 20
70.0535013869
 11
-0.4285713773
 21
70.0535013869
 70
160
 71
2
 42
113.1000092323
  3
DIMSTYLE_1
100
AcDbAlignedDimension
 13
56.5500046161
 23
17.2470561474
 14
-56.5500046161
 24
17.2470561474
 50
180.0
100
AcDbRotatedDimension
  0
DIMENSION
  5
257
100
AcDbEntity
  8
0
100
AcDbDimension
 62
7
  6
CONTINUOUS
  2
*D2
 10
103.0
 20
-50.0535013869
 11
103.0
 21
-5.4820753353
 70
160
 71
2
 42
90.0
  3
DIMSTYLE_1
100
AcDbAlignedDimension
 13
76.7
 23
39.9464986131
 14
76.7
 24
-50.0535013869
 50
270.0
100
AcDbRotatedDimension
  0
DIMENSION
  5
258
100
AcDbEntity
  8
0
100
AcDbDimension
 62
7
  6
CONTINUOUS
  2
*D3
 10
95.0
 20
-27.7535013869
 11
95.0
 21
-5.482075246
 70
160
 71
2
 42
45.4
  3
DIMSTYLE_1
100
AcDbAlignedDimension
 13
56.1494952776
 23
17.6464986131
 14
56.1494952776
 24
-27.7535013869
 50
270.0
100
AcDbRotatedDimension
  0
DIMENSION
  5
259
100
AcDbEntity
  8
0
100
AcDbDimension
 62
7
  6
CONTINUOUS
  2
*D4
 10
-114.631338677
 20
70.0535013869
 11
-110.7749091797
 21
70.0535013869
 70
160
 71
2
 42
8.57
  3
DIMSTYLE_2
100
AcDbAlignedDimension
 13
-106.061338677
 23
37.5132479116
 14
-114.631338677
 24
-5.0535013869
 50
180.0
100
AcDbRotatedDimension
  0
LWPOLYLINE
  5
25A
100
AcDbEntity
  8
RACCORDO
100
AcDbPolyline
 62
253
  6
CONTINUOUS
 90
19
 70
0
 10
-77.3893468237
 20
-49.1438584123
 10
-77.3840165058
 20
-49.1511438926
 10
-77.3753477366
 20
-49.1583260262
 10
-77.3633992537
 20
-49.1653561484
 10
-77.3482520174
 20
-49.1721866249
 10
-77.330008662
 20
-49.1787711738
 10
-77.3087928003
 20
-49.1850651796
 10
-77.2847481865
 20
-49.1910259956
 10
-77.2580377414
 20
-49.1966132325
 10
-77.228842449
 20
-49.2017890326
 10
-77.1973601302
 20
-49.2065183258
 10
-77.1638041022
 20
-49.2107690674
 10
-77.1284017331
 20
-49.2145124553
 10
-77.0913929015
 20
-49.2177231252
 10
-77.0530283711
 20
-49.2203793223
 10
-77.0135680913
 20
-49.2224630488
 10
-76.9732794363
 20
-49.2239601858
 10
-76.932435393
 20
-49.2248605891
 10
-76.8913127116
 20
-49.2251581577
  0
LWPOLYLINE
  5
25B
100
AcDbEntity
  8
ASSI
100
AcDbPolyline
 62
253
  6
CONTINUOUS
 90
19
 70
0
 10
-77.3893468237
 20
-49.1438584123
 10
-77.3840165058
 20
-49.1511438926
 10
-77.3753477366
 20
-49.1583260262
 10
-77.3633992537
 20
-49.1653561484
 10
-77.3482520174
 20
-49.1721866249
 10
-77.330008662
 20
-49.1787711738
 10
-77.3087928003
 20
-49.1850651796
 10
-77.2847481865
 20
-49.1910259956
 10
-77.2580377414
 20
-49.1966132325
 10
-77.228842449
 20
-49.2017890326
 10
-77.1973601302
 20
-49.2065183258
 10
-77.1638041022
 20
-49.2107690674
 10
-77.1284017331
 20
-49.2145124553
 10
-77.0913929015
 20
-49.2177231252
 10
-77.0530283711
 20
-49.2203793223
 10
-77.0135680913
 20
-49.2224630488
 10
-76.9732794363
 20
-49.2239601858
 10
-76.932435393
 20
-49.2248605891
 10
-76.8913127116
 20
-49.2251581577
  0
LWPOLYLINE
  5
25C
100
AcDbEntity
  8
RACCORDO
100
AcDbPolyline
 62
253
  6
CONTINUOUS
 90
19
 70
0
 10
-77.3893425984
 20
39.0368555709
 10
-77.3840123527
 20
39.0441410642
 10
-77.3753436856
 20
39.0513232095
 10
-77.3633953338
 20
39.0583533423
 10
-77.3482482561
 20
39.0651838281
 10
-77.3300050852
 20
39.0717683852
 10
-77.3087894321
 20
39.078062398
 10
-77.2847450486
 20
39.0840232199
 10
-77.2580348532
 20
39.0896104617
 10
-77.2288398271
 20
39.0947862656
 10
-77.1973577884
 20
39.0995155615
 10
-77.163802051
 20
39.103766305
 10
-77.1283999801
 20
39.107509694
 10
-77.0913914507
 20
39.1107203642
 10
-77.0530272232
 20
39.113376561
 10
-77.0135672434
 20
39.1154602865
 10
-76.9732788821
 20
39.116957422
 10
-76.9324351225
 20
39.1178578235
 10
-76.8913127116
 20
39.1181553899
  0
LWPOLYLINE
  5
25D
100
AcDbEntity
  8
ASSI
100
AcDbPolyline
 62
253
  6
CONTINUOUS
 90
19
 70
0
 10
-77.3893425984
 20
39.0368555709
 10
-77.3840123527
 20
39.0441410642
 10
-77.3753436856
 20
39.0513232095
 10
-77.3633953338
 20
39.0583533423
 10
-77.3482482561
 20
39.0651838281
 10
-77.3300050852
 20
39.0717683852
 10
-77.3087894321
 20
39.078062398
 10
-77.2847450486
 20
39.0840232199
 10
-77.2580348532
 20
39.0896104617
 10
-77.2288398271
 20
39.0947862656
 10
-77.1973577884
 20
39.0995155615
 10
-77.163802051
 20
39.103766305
 10
-77.1283999801
 20
39.107509694
 10
-77.0913914507
 20
39.1107203642
 10
-77.0530272232
 20
39.113376561
 10
-77.0135672434
 20
39.1154602865
 10
-76.9732788821
 20
39.116957422
 10
-76.9324351225
 20
39.1178578235
 10
-76.8913127116
 20
39.1181553899
  0
LINE
  5
25E
100
AcDbEntity
  8
RACCORDO
100
AcDbLine
 62
7
  6
CONTINUOUS
 10
-77.5
 20
-49.2535013869
 11
-77.5
 21
-27.5681236091
  0
LINE
  5
25F
100
AcDbEntity
  8
DRAFT
100
AcDbLine
 62
7
  6
CONTINUOUS
 10
-77.5
 20
-27.5681236091
 11
-77.5
 21
17.4611208354
  0
LINE
  5
260
100
AcDbEntity
  8
RACCORDO
100
AcDbLine
 62
7
  6
CONTINUOUS
 10
-77.5
 20
17.4611208354
 11
-77.5
 21
39.1464986131
  0
LINE
  5
261
100
AcDbEntity
  8
ASSI
100
AcDbLine
 62
7
  6
CONTINUOUS
 10
-77.5
 20
-49.2535013869
 11
-77.5
 21
39.1464986131
  0
LINE
  5
262
100
AcDbEntity
  8
RACCORDO
100
AcDbLine
 62
253
  6
CONTINUOUS
 10
-77.3893468268
 20
-49.1438584023
 11
-77.391177473
 21
-12.5611626597
  0
LINE
  5
263
100
AcDbEntity
  8
ASSI
100
AcDbLine
 62
253
  6
CONTINUOUS
 10
-77.3893468268
 20
-49.1438584023
 11
-77.391177473
 21
-12.5611626597
  0
LINE
  5
264
100
AcDbEntity
  8
RACCORDO
100
AcDbLine
 62
253
  6
CONTINUOUS
 10
-76.8913127116
 20
-49.2251581657
 11
-76.8930806632
 21
-12.5687843305
  0
LINE
  5
265
100
AcDbEntity
  8
ASSI
100
AcDbLine
 62
253
  6
CONTINUOUS
 10
-76.8913127116
 20
-49.2251581657
 11
-76.8930806632
 21
-12.5687843305
  0
LINE
  5
266
100
AcDbEntity
  8
RACCORDO
100
AcDbLine
 62
253
  6
CONTINUOUS
 10
-76.5971848203
 20
39.8258332403
 11
-76.5971848203
 21
39.4178939789
  0
LINE
  5
267
100
AcDbEntity
  8
ASSI
100
AcDbLine
 62
253
  6
CONTINUOUS
 10
-76.5971848203
 20
39.8258332403
 11
-76.5971848203
 21
39.4178939789
  0
LINE
  5
268
100
AcDbEntity
  8
RACCORDO
100
AcDbLine
 62
253
  6
CONTINUOUS
 10
-76.5971848203
 20
-49.9328360141
 11
-76.5971848203
 21
-49.5248967526
  0
LINE
  5
269
100
AcDbEntity
  8
ASSI
100
AcDbLine
 62
253
  6
CONTINUOUS
 10
-76.5971848203
 20
-49.9328360141
 11
-76.5971848203
 21
-49.5248967526
  0
LWPOLYLINE
  5
26A
100
AcDbEntity
  8
RACCORDO
100
AcDbPolyline
 62
253
  6
CONTINUOUS
 90
3
 70
0
 10
-77.391177473
 20
-12.5611626597
 10
-77.3908455727
 20
22.3291463923
 10
-77.3893468268
 20
39.0368556285
  0
LWPOLYLINE
  5
26B
100
AcDbEntity
  8
ASSI
100
AcDbPolyline
 62
253
  6
CONTINUOUS
 90
3
 70
0
 10
-77.391177473
 20
-12.5611626597
 10
-77.3908455727
 20
22.3291463923
 10
-77.3893468268
 20
39.0368556285
  0
LWPOLYLINE
  5
26C
100
AcDbEntity
  8
RACCORDO
100
AcDbPolyline
 62
253
  6
CONTINUOUS
 90
3
 70
0
 10
-76.8930806632
 20
-12.5687843305
 10
-76.8927536001
 20
22.3651105497
 10
-76.8913127116
 20
39.1181553919
  0
LWPOLYLINE
  5
26D
100
AcDbEntity
  8
ASSI
100
AcDbPolyline
 62
253
  6
CONTINUOUS
 90
3
 70
0
 10
-76.8930806632
 20
-12.5687843305
 10
-76.8927536001
 20
22.3651105497
 10
-76.8913127116
 20
39.1181553919
  0
LWPOLYLINE
  5
26E
100
AcDbEntity
  8
RACCORDO
100
AcDbPolyline
 62
253
  6
CONTINUOUS
 90
28
 70
0
 10
-76.8913127116
 20
39.1181553919
 10
-76.8908024181
 20
39.1358302101
 10
-76.8893172375
 20
39.1533112742
 10
-76.8868571696
 20
39.1705985951
 10
-76.8834082991
 20
39.187747218
 10
-76.8789845415
 20
39.2047021172
 10
-76.8736276423
 20
39.2212982064
 10
-76.8673265789
 20
39.2375352749
 10
-76.860092374
 20
39.253413572
 10
-76.8519998416
 20
39.2687687182
 10
-76.8430416177
 20
39.2835917985
 10
-76.8332250663
 20
39.2978917801
 10
-76.8226470934
 20
39.3115311208
 10
-76.8112993221
 20
39.3245043833
 10
-76.7991901293
 20
39.3368170631
 10
-76.7864415515
 20
39.348348026
 10
-76.7730484095
 20
39.3590885201
 10
-76.7590158825
 20
39.3690473553
 10
-76.7444815438
 20
39.3781297457
 10
-76.7294405464
 20
39.3863272529
 10
-76.7138977373
 20
39.3936483658
 10
-76.6980052308
 20
39.4000236902
 10
-76.6817554335
 20
39.4054442633
 10
-76.6651559387
 20
39.4099190853
 10
-76.6483816406
 20
39.4134057045
 10
-76.6314908372
 20
39.4158899773
 10
-76.6144252304
 20
39.4173860671
 10
-76.5971848203
 20
39.4178939789
  0
LWPOLYLINE
  5
26F
100
AcDbEntity
  8
ASSI
100
AcDbPolyline
 62
253
  6
CONTINUOUS
 90
28
 70
0
 10
-76.8913127116
 20
39.1181553919
 10
-76.8908024181
 20
39.1358302101
 10
-76.8893172375
 20
39.1533112742
 10
-76.8868571696
 20
39.1705985951
 10
-76.8834082991
 20
39.187747218
 10
-76.8789845415
 20
39.2047021172
 10
-76.8736276423
 20
39.2212982064
 10
-76.8673265789
 20
39.2375352749
 10
-76.860092374
 20
39.253413572
 10
-76.8519998416
 20
39.2687687182
 10
-76.8430416177
 20
39.2835917985
 10
-76.8332250663
 20
39.2978917801
 10
-76.8226470934
 20
39.3115311208
 10
-76.8112993221
 20
39.3245043833
 10
-76.7991901293
 20
39.3368170631
 10
-76.7864415515
 20
39.348348026
 10
-76.7730484095
 20
39.3590885201
 10
-76.7590158825
 20
39.3690473553
 10
-76.7444815438
 20
39.3781297457
 10
-76.7294405464
 20
39.3863272529
 10
-76.7138977373
 20
39.3936483658
 10
-76.6980052308
 20
39.4000236902
 10
-76.6817554335
 20
39.4054442633
 10
-76.6651559387
 20
39.4099190853
 10
-76.6483816406
 20
39.4134057045
 10
-76.6314908372
 20
39.4158899773
 10
-76.6144252304
 20
39.4173860671
 10
-76.5971848203
 20
39.4178939789
  0
LWPOLYLINE
  5
270
100
AcDbEntity
  8
RACCORDO
100
AcDbPolyline
 62
253
  6
CONTINUOUS
 90
28
 70
0
 10
-77.3893468269
 20
39.0368556287
 10
-77.3873508575
 20
39.0830805934
 10
-77.3827172033
 20
39.1290623045
 10
-77.3754689159
 20
39.174650694
 10
-77.365642466
 20
39.2196835258
 10
-77.3532745694
 20
39.2640294885
 10
-77.3383934458
 20
39.3075862467
 10
-77.3210375444
 20
39.3502338924
 10
-77.3012711824
 20
39.3918087093
 10
-77.2791701243
 20
39.432146853
 10
-77.2548168117
 20
39.4711086209
 10
-77.2282901188
 20
39.5085785758
 10
-77.1996748095
 20
39.5444378447
 10
-77.1690666244
 20
39.5785713965
 10
-77.1365691446
 20
39.6108689219
 10
-77.102287336
 20
39.641226433
 10
-77.0663361642
 20
39.6695453948
 10
-77.0288343772
 20
39.6957361008
 10
-76.9898995745
 20
39.7197166648
 10
-76.9496575569
 20
39.7414104478
 10
-76.9082430057
 20
39.7607462908
 10
-76.8657924822
 20
39.7776609514
 10
-76.8224498828
 20
39.7920984427
 10
-76.7783529734
 20
39.8040146665
 10
-76.7336327341
 20
39.8133741464
 10
-76.6884305376
 20
39.8201453852
 10
-76.6428983424
 20
39.8243035121
 10
-76.5971848203
 20
39.8258332403
  0
LWPOLYLINE
  5
271
100
AcDbEntity
  8
ASSI
100
AcDbPolyline
 62
253
  6
CONTINUOUS
 90
28
 70
0
 10
-77.3893468269
 20
39.0368556287
 10
-77.3873508575
 20
39.0830805934
 10
-77.3827172033
 20
39.1290623045
 10
-77.3754689159
 20
39.174650694
 10
-77.365642466
 20
39.2196835258
 10
-77.3532745694
 20
39.2640294885
 10
-77.3383934458
 20
39.3075862467
 10
-77.3210375444
 20
39.3502338924
 10
-77.3012711824
 20
39.3918087093
 10
-77.2791701243
 20
39.432146853
 10
-77.2548168117
 20
39.4711086209
 10
-77.2282901188
 20
39.5085785758
 10
-77.1996748095
 20
39.5444378447
 10
-77.1690666244
 20
39.5785713965
 10
-77.1365691446
 20
39.6108689219
 10
-77.102287336
 20
39.641226433
 10
-77.0663361642
 20
39.6695453948
 10
-77.0288343772
 20
39.6957361008
 10
-76.9898995745
 20
39.7197166648
 10
-76.9496575569
 20
39.7414104478
 10
-76.9082430057
 20
39.7607462908
 10
-76.8657924822
 20
39.7776609514
 10
-76.8224498828
 20
39.7920984427
 10
-76.7783529734
 20
39.8040146665
 10
-76.7336327341
 20
39.8133741464
 10
-76.6884305376
 20
39.8201453852
 10
-76.6428983424
 20
39.8243035121
 10
-76.5971848203
 20
39.8258332403
  0
LWPOLYLINE
  5
272
100
AcDbEntity
  8
RACCORDO
100
AcDbPolyline
 62
253
  6
CONTINUOUS
 90
7
 70
0
 10
-57.075256923
 20
-27.6535013869
 10
-57.0837295581
 20
-27.6172653327
 10
-57.0906733931
 20
-27.5807117557
 10
-57.0960884279
 20
-27.5438406522
 10
-57.0999746625
 20
-27.5066520188
 10
-57.1023320971
 20
-27.4691458515
 10
-57.1031607314
 20
-27.4313221468
  0
LWPOLYLINE
  5
273
100
AcDbEntity
  8
ASSI
100
AcDbPolyline
 62
253
  6
CONTINUOUS
 90
7
 70
0
 10
-57.075256923
 20
-27.6535013869
 10
-57.0837295581
 20
-27.6172653327
 10
-57.0906733931
 20
-27.5807117557
 10
-57.0960884279
 20
-27.5438406522
 10
-57.0999746625
 20
-27.5066520188
 10
-57.1023320971
 20
-27.4691458515
 10
-57.1031607314
 20
-27.4313221468
  0
LWPOLYLINE
  5
274
100
AcDbEntity
  8
RACCORDO
100
AcDbPolyline
 62
7
  6
CONTINUOUS
 90
22
 70
0
 10
-56.5500000078
 20
-27.3540589211
 10
-56.5488339641
 20
-27.3840648869
 10
-56.545514901
 20
-27.4135717269
 10
-56.5400428185
 20
-27.4425794459
 10
-56.5323792395
 20
-27.4712194438
 10
-56.5225626412
 20
-27.4993603293
 10
-56.5107084545
 20
-27.5266079237
 10
-56.4967832911
 20
-27.5529787673
 10
-56.4808205392
 20
-27.5784563357
 10
-56.4630357942
 20
-27.6025968593
 10
-56.4433469536
 20
-27.6254092241
 10
-56.4218361199
 20
-27.6468845651
 10
-56.3989651959
 20
-27.6665524931
 10
-56.3747288468
 20
-27.6843350446
 10
-56.3491324074
 20
-27.7003102062
 10
-56.322653785
 20
-27.7142415166
 10
-56.2953306799
 20
-27.7260847776
 10
-56.2671253919
 20
-27.7358842055
 10
-56.238402727
 20
-27.7435359602
 10
-56.2092842874
 20
-27.7490054318
 10
-56.1796484709
 20
-27.7523272399
 10
-56.1494952776
 20
-27.7535013869
  0
LWPOLYLINE
  5
275
100
AcDbEntity
  8
ASSI
100
AcDbPolyline
 62
7
  6
CONTINUOUS
 90
22
 70
0
 10
-56.5500000078
 20
-27.3540589211
 10
-56.5488339641
 20
-27.3840648869
 10
-56.545514901
 20
-27.4135717269
 10
-56.5400428185
 20
-27.4425794459
 10
-56.5323792395
 20
-27.4712194438
 10
-56.5225626412
 20
-27.4993603293
 10
-56.5107084545
 20
-27.5266079237
 10
-56.4967832911
 20
-27.5529787673
 10
-56.4808205392
 20
-27.5784563357
 10
-56.4630357942
 20
-27.6025968593
 10
-56.4433469536
 20
-27.6254092241
 10
-56.4218361199
 20
-27.6468845651
 10
-56.3989651959
 20
-27.6665524931
 10
-56.3747288468
 20
-27.6843350446
 10
-56.3491324074
 20
-27.7003102062
 10
-56.322653785
 20
-27.7142415166
 10
-56.2953306799
 20
-27.7260847776
 10
-56.2671253919
 20
-27.7358842055
 10
-56.238402727
 20
-27.7435359602
 10
-56.2092842874
 20
-27.7490054318
 10
-56.1796484709
 20
-27.7523272399
 10
-56.1494952776
 20
-27.7535013869
  0
LINE
  5
276
100
AcDbEntity
  8
RACCORDO
100
AcDbLine
 62
253
  6
CONTINUOUS
 10
-57.1031607314
 20
-27.4313221468
 11
-57.1031607314
 21
17.3243193731
  0
LINE
  5
277
100
AcDbEntity
  8
ASSI
100
AcDbLine
 62
253
  6
CONTINUOUS
 10
-57.1031607314
 20
-27.4313221468
 11
-57.1031607314
 21
17.3243193731
  0
LINE
  5
278
100
AcDbEntity
  8
RACCORDO
100
AcDbLine
 62
253
  6
CONTINUOUS
 10
-56.6038476666
 20
-27.407763189
 11
-56.6038476723
 21
17.3007691179
  0
LINE
  5
279
100
AcDbEntity
  8
ASSI
100
AcDbLine
 62
253
  6
CONTINUOUS
 10
-56.6038476666
 20
-27.407763189
 11
-56.6038476723
 21
17.3007691179
  0
LINE
  5
27A
100
AcDbEntity
  8
RACCORDO
100
AcDbLine
 62
7
  6
CONTINUOUS
 10
-56.5500000078
 20
17.2470561474
 11
-56.5500000078
 21
-27.3540589211
  0
LINE
  5
27B
100
AcDbEntity
  8
ASSI
100
AcDbLine
 62
7
  6
CONTINUOUS
 10
-56.5500000078
 20
17.2470561474
 11
-56.5500000078
 21
-27.3540589211
  0
LINE
  5
27C
100
AcDbEntity
  8
RACCORDO
100
AcDbLine
 62
253
  6
CONTINUOUS
 10
-56.201953503
 20
18.2252647494
 11
-56.201953503
 21
17.6988201755
  0
LINE
  5
27D
100
AcDbEntity
  8
ASSI
100
AcDbLine
 62
253
  6
CONTINUOUS
 10
-56.201953503
 20
18.2252647494
 11
-56.201953503
 21
17.6988201755
  0
LINE
  5
27E
100
AcDbEntity
  8
RACCORDO
100
AcDbLine
 62
253
  6
CONTINUOUS
 10
-56.201953503
 20
-28.3322675231
 11
-56.201953503
 21
-27.8058229492
  0
LINE
  5
27F
100
AcDbEntity
  8
ASSI
100
AcDbLine
 62
253
  6
CONTINUOUS
 10
-56.201953503
 20
-28.3322675231
 11
-56.201953503
 21
-27.8058229492
  0
LWPOLYLINE
  5
280
100
AcDbEntity
  8
RACCORDO
100
AcDbPolyline
 62
253
  6
CONTINUOUS
 90
7
 70
0
 10
-56.6038476651
 20
17.3007691108
 10
-56.6035033388
 20
17.3173638825
 10
-56.6024653828
 20
17.3339323002
 10
-56.6007349745
 20
17.3504457131
 10
-56.5983144834
 20
17.3668755152
 10
-56.5952074691
 20
17.3831931953
 10
-56.5914186775
 20
17.3993703863
  0
LWPOLYLINE
  5
281
100
AcDbEntity
  8
ASSI
100
AcDbPolyline
 62
253
  6
CONTINUOUS
 90
7
 70
0
 10
-56.6038476651
 20
17.3007691108
 10
-56.6035033388
 20
17.3173638825
 10
-56.6024653828
 20
17.3339323002
 10
-56.6007349745
 20
17.3504457131
 10
-56.5983144834
 20
17.3668755152
 10
-56.5952074691
 20
17.3831931953
 10
-56.5914186775
 20
17.3993703863
  0
LWPOLYLINE
  5
282
100
AcDbEntity
  8
RACCORDO
100
AcDbPolyline
 62
253
  6
CONTINUOUS
 90
7
 70
0
 10
-57.1031607314
 20
17.3243193731
 10
-57.1023545675
 20
17.3619675193
 10
-57.1000106153
 20
17.3993683527
 10
-57.0961288748
 20
17.4365218759
 10
-57.0907093459
 20
17.4734280919
 10
-57.0837520286
 20
17.5100870034
 10
-57.075256923
 20
17.5464986131
  0
LWPOLYLINE
  5
283
100
AcDbEntity
  8
ASSI
100
AcDbPolyline
 62
253
  6
CONTINUOUS
 90
7
 70
0
 10
-57.1031607314
 20
17.3243193731
 10
-57.1023545675
 20
17.3619675193
 10
-57.1000106153
 20
17.3993683527
 10
-57.0961288748
 20
17.4365218759
 10
-57.0907093459
 20
17.4734280919
 10
-57.0837520286
 20
17.5100870034
 10
-57.075256923
 20
17.5464986131
  0
LWPOLYLINE
  5
284
100
AcDbEntity
  8
RACCORDO
100
AcDbPolyline
 62
253
  6
CONTINUOUS
 90
25
 70
0
 10
-57.0752569231
 20
17.5464986131
 10
-57.061663231
 20
17.5942927927
 10
-57.0455570899
 20
17.6410398249
 10
-57.0269384998
 20
17.6867397505
 10
-57.0057303401
 20
17.7315429732
 10
-56.9820097313
 20
17.775299165
 10
-56.9560080354
 20
17.8175572867
 10
-56.9277123844
 20
17.8582831341
 10
-56.8971356463
 20
17.8975110224
 10
-56.8645477866
 20
17.9348927192
 10
-56.8299252024
 20
17.9704165889
 10
-56.7932914966
 20
18.0040943903
 10
-56.7549874434
 20
18.0356130013
 10
-56.714997426
 20
18.0649502845
 10
-56.6733370611
 20
18.0921285006
 10
-56.6303939738
 20
18.1169011348
 10
-56.5861615662
 20
18.1392435552
 10
-56.540646436
 20
18.1591805019
 10
-56.4942560015
 20
18.1765395195
 10
-56.4469924882
 20
18.1912983117
 10
-56.3988536704
 20
18.2034792547
 10
-56.3502402889
 20
18.2129768969
 10
-56.301285924
 20
18.2197561025
 10
-56.2518569954
 20
18.2238520497
 10
-56.201953503
 20
18.2252647494
  0
LWPOLYLINE
  5
285
100
AcDbEntity
  8
ASSI
100
AcDbPolyline
 62
253
  6
CONTINUOUS
 90
25
 70
0
 10
-57.0752569231
 20
17.5464986131
 10
-57.061663231
 20
17.5942927927
 10
-57.0455570899
 20
17.6410398249
 10
-57.0269384998
 20
17.6867397505
 10
-57.0057303401
 20
17.7315429732
 10
-56.9820097313
 20
17.775299165
 10
-56.9560080354
 20
17.8175572867
 10
-56.9277123844
 20
17.8582831341
 10
-56.8971356463
 20
17.8975110224
 10
-56.8645477866
 20
17.9348927192
 10
-56.8299252024
 20
17.9704165889
 10
-56.7932914966
 20
18.0040943903
 10
-56.7549874434
 20
18.0356130013
 10
-56.714997426
 20
18.0649502845
 10
-56.6733370611
 20
18.0921285006
 10
-56.6303939738
 20
18.1169011348
 10
-56.5861615662
 20
18.1392435552
 10
-56.540646436
 20
18.1591805019
 10
-56.4942560015
 20
18.1765395195
 10
-56.4469924882
 20
18.1912983117
 10
-56.3988536704
 20
18.2034792547
 10
-56.3502402889
 20
18.2129768969
 10
-56.301285924
 20
18.2197561025
 10
-56.2518569954
 20
18.2238520497
 10
-56.201953503
 20
18.2252647494
  0
LWPOLYLINE
  5
286
100
AcDbEntity
  8
RACCORDO
100
AcDbPolyline
 62
253
  6
CONTINUOUS
 90
25
 70
0
 10
-56.5914186775
 20
17.3993703863
 10
-56.5853679682
 20
17.4205097285
 10
-56.5781541049
 20
17.4412821647
 10
-56.5697987086
 20
17.4616245449
 10
-56.5603259896
 20
17.4814759456
 10
-56.5497651031
 20
17.5007749163
 10
-56.5381507152
 20
17.5194600151
 10
-56.5255195999
 20
17.5374726961
 10
-56.511909136
 20
17.5547605284
 10
-56.4973596431
 20
17.5712743289
 10
-56.4819137962
 20
17.586964836
 10
-56.4656191749
 20
17.6017831099
 10
-56.4485272832
 20
17.6156840656
 10
-56.4306896542
 20
17.6286255169
 10
-56.4121602819
 20
17.6405681576
 10
-56.3929980467
 20
17.6514760449
 10
-56.3732622032
 20
17.6613157176
 10
-56.3530111706
 20
17.6700583469
 10
-56.3323051067
 20
17.6776797104
 10
-56.3112102669
 20
17.6841554928
 10
-56.2897863099
 20
17.6894674699
 10
-56.2680844899
 20
17.6936030544
 10
-56.2461652395
 20
17.6965481521
 10
-56.2240986305
 20
17.6982898083
 10
-56.2019510409
 20
17.6988201671
  0
LWPOLYLINE
  5
287
100
AcDbEntity
  8
ASSI
100
AcDbPolyline
 62
253
  6
CONTINUOUS
 90
25
 70
0
 10
-56.5914186775
 20
17.3993703863
 10
-56.5853679682
 20
17.4205097285
 10
-56.5781541049
 20
17.4412821647
 10
-56.5697987086
 20
17.4616245449
 10
-56.5603259896
 20
17.4814759456
 10
-56.5497651031
 20
17.5007749163
 10
-56.5381507152
 20
17.5194600151
 10
-56.5255195999
 20
17.5374726961
 10
-56.511909136
 20
17.5547605284
 10
-56.4973596431
 20
17.5712743289
 10
-56.4819137962
 20
17.586964836
 10
-56.4656191749
 20
17.6017831099
 10
-56.4485272832
 20
17.6156840656
 10
-56.4306896542
 20
17.6286255169
 10
-56.4121602819
 20
17.6405681576
 10
-56.3929980467
 20
17.6514760449
 10
-56.3732622032
 20
17.6613157176
 10
-56.3530111706
 20
17.6700583469
 10
-56.3323051067
 20
17.6776797104
 10
-56.3112102669
 20
17.6841554928
 10
-56.2897863099
 20
17.6894674699
 10
-56.2680844899
 20
17.6936030544
 10
-56.2461652395
 20
17.6965481521
 10
-56.2240986305
 20
17.6982898083
 10
-56.2019510409
 20
17.6988201671
  0
LWPOLYLINE
  5
288
100
AcDbEntity
  8
RACCORDO
100
AcDbPolyline
 62
253
  6
CONTINUOUS
 90
7
 70
0
 10
-56.5914186775
 20
-27.5063731601
 10
-56.5951943963
 20
-27.49025777
 10
-56.5982977878
 20
-27.473977369
 10
-56.6007209756
 20
-27.4575595427
 10
-56.6024572157
 20
-27.4410322833
 10
-56.6035009182
 20
-27.4244239436
 10
-56.6038476671
 20
-27.4077631896
  0
LWPOLYLINE
  5
289
100
AcDbEntity
  8
ASSI
100
AcDbPolyline
 62
253
  6
CONTINUOUS
 90
7
 70
0
 10
-56.5914186775
 20
-27.5063731601
 10
-56.5951943963
 20
-27.49025777
 10
-56.5982977878
 20
-27.473977369
 10
-56.6007209756
 20
-27.4575595427
 10
-56.6024572157
 20
-27.4410322833
 10
-56.6035009182
 20
-27.4244239436
 10
-56.6038476671
 20
-27.4077631896
  0
LINE
  5
28A
100
AcDbEntity
  8
RACCORDO
100
AcDbLine
 62
7
  6
CONTINUOUS
 10
76.7
 20
-50.0535013869
 11
-76.7
 21
-50.0535013869
  0
LINE
  5
28B
100
AcDbEntity
  8
ASSI
100
AcDbLine
 62
7
  6
CONTINUOUS
 10
76.7
 20
-50.0535013869
 11
-76.7
 21
-50.0535013869
  0
LINE
  5
28C
100
AcDbEntity
  8
RACCORDO
100
AcDbLine
 62
253
  6
CONTINUOUS
 10
76.5971848203
 20
-49.9328360141
 11
-76.5971848203
 21
-49.9328360141
  0
LINE
  5
28D
100
AcDbEntity
  8
ASSI
100
AcDbLine
 62
253
  6
CONTINUOUS
 10
76.5971848203
 20
-49.9328360141
 11
-76.5971848203
 21
-49.9328360141
  0
LINE
  5
28E
100
AcDbEntity
  8
RACCORDO
100
AcDbLine
 62
253
  6
CONTINUOUS
 10
76.5971848203
 20
-49.5248967526
 11
-76.5971848203
 21
-49.5248967526
  0
LINE
  5
28F
100
AcDbEntity
  8
ASSI
100
AcDbLine
 62
253
  6
CONTINUOUS
 10
76.5971848203
 20
-49.5248967526
 11
-76.5971848203
 21
-49.5248967526
  0
LWPOLYLINE
  5
290
100
AcDbEntity
  8
RACCORDO
100
AcDbPolyline
 62
253
  6
CONTINUOUS
 90
28
 70
0
 10
-76.5971848203
 20
-49.5248967526
 10
-76.6144345758
 20
-49.524385713
 10
-76.6315011247
 20
-49.5228894443
 10
-76.648384467
 20
-49.5204079414
 10
-76.6651371339
 20
-49.5169285795
 10
-76.6817065941
 20
-49.5124639639
 10
-76.6979352543
 20
-49.5070519309
 10
-76.7138244584
 20
-49.5006812264
 10
-76.7293728625
 20
-49.4933630672
 10
-76.7444188411
 20
-49.4851689934
 10
-76.7589538663
 20
-49.476091583
 10
-76.772986466
 20
-49.4661382076
 10
-76.7863805982
 20
-49.4554025995
 10
-76.7991317004
 20
-49.4438757391
 10
-76.811244335
 20
-49.4315665881
 10
-76.8225961476
 20
-49.4185958546
 10
-76.8331790102
 20
-49.4049573935
 10
-76.8430010508
 20
-49.3906572916
 10
-76.8519642987
 20
-49.3758346149
 10
-76.8600603825
 20
-49.3604839158
 10
-76.8672976736
 20
-49.3446105897
 10
-76.8736033157
 20
-49.3283699803
 10
-76.8789683612
 20
-49.3117533042
 10
-76.8834017578
 20
-49.2947693048
 10
-76.8868574924
 20
-49.2775996334
 10
-76.8893202274
 20
-49.2603048381
 10
-76.8908053004
 20
-49.2428243523
 10
-76.8913127116
 20
-49.2251581657
  0
LWPOLYLINE
  5
291
100
AcDbEntity
  8
ASSI
100
AcDbPolyline
 62
253
  6
CONTINUOUS
 90
28
 70
0
 10
-76.5971848203
 20
-49.5248967526
 10
-76.6144345758
 20
-49.524385713
 10
-76.6315011247
 20
-49.5228894443
 10
-76.648384467
 20
-49.5204079414
 10
-76.6651371339
 20
-49.5169285795
 10
-76.6817065941
 20
-49.5124639639
 10
-76.6979352543
 20
-49.5070519309
 10
-76.7138244584
 20
-49.5006812264
 10
-76.7293728625
 20
-49.4933630672
 10
-76.7444188411
 20
-49.4851689934
 10
-76.7589538663
 20
-49.476091583
 10
-76.772986466
 20
-49.4661382076
 10
-76.7863805982
 20
-49.4554025995
 10
-76.7991317004
 20
-49.4438757391
 10
-76.811244335
 20
-49.4315665881
 10
-76.8225961476
 20
-49.4185958546
 10
-76.8331790102
 20
-49.4049573935
 10
-76.8430010508
 20
-49.3906572916
 10
-76.8519642987
 20
-49.3758346149
 10
-76.8600603825
 20
-49.3604839158
 10
-76.8672976736
 20
-49.3446105897
 10
-76.8736033157
 20
-49.3283699803
 10
-76.8789683612
 20
-49.3117533042
 10
-76.8834017578
 20
-49.2947693048
 10
-76.8868574924
 20
-49.2775996334
 10
-76.8893202274
 20
-49.2603048381
 10
-76.8908053004
 20
-49.2428243523
 10
-76.8913127116
 20
-49.2251581657
  0
LWPOLYLINE
  5
292
100
AcDbEntity
  8
RACCORDO
100
AcDbPolyline
 62
253
  6
CONTINUOUS
 90
28
 70
0
 10
-76.5971848203
 20
-49.9328360141
 10
-76.6429103455
 20
-49.9313054892
 10
-76.6884351155
 20
-49.9271475701
 10
-76.7336108173
 20
-49.9203808578
 10
-76.7782720316
 20
-49.9110368788
 10
-76.8222931098
 20
-49.8991484867
 10
-76.8655858553
 20
-49.8847391559
 10
-76.9080332824
 20
-49.8678395841
 10
-76.9494675951
 20
-49.8485085717
 10
-76.9897272962
 20
-49.8268187832
 10
-77.0286697293
 20
-49.8028469469
 10
-77.0661778027
 20
-49.7766657348
 10
-77.1021357446
 20
-49.7483559397
 10
-77.1364252967
 20
-49.7180067764
 10
-77.1689309212
 20
-49.6857171703
 10
-77.1995476724
 20
-49.6515910325
 10
-77.228172335
 20
-49.615738107
 10
-77.2547086799
 20
-49.5782738993
 10
-77.2790709398
 20
-49.5393189503
 10
-77.3011764527
 20
-49.4989967834
 10
-77.3209479997
 20
-49.4574397169
 10
-77.338318812
 20
-49.4147883705
 10
-77.3532274242
 20
-49.3711840022
 10
-77.3656226274
 20
-49.3267658936
 10
-77.3754645335
 20
-49.2816766232
 10
-77.3827175655
 20
-49.2360623902
 10
-77.3873516385
 20
-49.1900728276
 10
-77.3893468269
 20
-49.1438584024
  0
LWPOLYLINE
  5
293
100
AcDbEntity
  8
ASSI
100
AcDbPolyline
 62
253
  6
CONTINUOUS
 90
28
 70
0
 10
-76.5971848203
 20
-49.9328360141
 10
-76.6429103455
 20
-49.9313054892
 10
-76.6884351155
 20
-49.9271475701
 10
-76.7336108173
 20
-49.9203808578
 10
-76.7782720316
 20
-49.9110368788
 10
-76.8222931098
 20
-49.8991484867
 10
-76.8655858553
 20
-49.8847391559
 10
-76.9080332824
 20
-49.8678395841
 10
-76.9494675951
 20
-49.8485085717
 10
-76.9897272962
 20
-49.8268187832
 10
-77.0286697293
 20
-49.8028469469
 10
-77.0661778027
 20
-49.7766657348
 10
-77.1021357446
 20
-49.7483559397
 10
-77.1364252967
 20
-49.7180067764
 10
-77.1689309212
 20
-49.6857171703
 10
-77.1995476724
 20
-49.6515910325
 10
-77.228172335
 20
-49.615738107
 10
-77.2547086799
 20
-49.5782738993
 10
-77.2790709398
 20
-49.5393189503
 10
-77.3011764527
 20
-49.4989967834
 10
-77.3209479997
 20
-49.4574397169
 10
-77.338318812
 20
-49.4147883705
 10
-77.3532274242
 20
-49.3711840022
 10
-77.3656226274
 20
-49.3267658936
 10
-77.3754645335
 20
-49.2816766232
 10
-77.3827175655
 20
-49.2360623902
 10
-77.3873516385
 20
-49.1900728276
 10
-77.3893468269
 20
-49.1438584024
  0
LWPOLYLINE
  5
294
100
AcDbEntity
  8
RACCORDO
100
AcDbPolyline
 62
253
  6
CONTINUOUS
 90
18
 70
0
 10
-77.3910591576
 20
-27.5681236091
 10
-77.385776864
 20
-27.570169666
 10
-77.3771494074
 20
-27.5721869598
 10
-77.3652353506
 20
-27.5741617973
 10
-77.3501155652
 20
-27.5760807734
 10
-77.3318926835
 20
-27.5779308623
 10
-77.310690401
 20
-27.5796995057
 10
-77.2866526374
 20
-27.5813746981
 10
-77.2599425596
 20
-27.5829450685
 10
-77.2307414736
 20
-27.5843999573
 10
-77.1992475944
 20
-27.5857294887
 10
-77.1656747005
 20
-27.5869246381
 10
-77.1302506823
 20
-27.5879772929
 10
-77.0932159957
 20
-27.5888803076
 10
-77.0548220297
 20
-27.5896275527
 10
-77.0153293999
 20
-27.5902139559
 10
-76.9750061795
 20
-27.5906355368
 10
-76.8929665927
 20
-27.5909739232
  0
LWPOLYLINE
  5
295
100
AcDbEntity
  8
ASSI
100
AcDbPolyline
 62
253
  6
CONTINUOUS
 90
18
 70
0
 10
-77.3910591576
 20
-27.5681236091
 10
-77.385776864
 20
-27.570169666
 10
-77.3771494074
 20
-27.5721869598
 10
-77.3652353506
 20
-27.5741617973
 10
-77.3501155652
 20
-27.5760807734
 10
-77.3318926835
 20
-27.5779308623
 10
-77.310690401
 20
-27.5796995057
 10
-77.2866526374
 20
-27.5813746981
 10
-77.2599425596
 20
-27.5829450685
 10
-77.2307414736
 20
-27.5843999573
 10
-77.1992475944
 20
-27.5857294887
 10
-77.1656747005
 20
-27.5869246381
 10
-77.1302506823
 20
-27.5879772929
 10
-77.0932159957
 20
-27.5888803076
 10
-77.0548220297
 20
-27.5896275527
 10
-77.0153293999
 20
-27.5902139559
 10
-76.9750061795
 20
-27.5906355368
 10
-76.8929665927
 20
-27.5909739232
  0
LWPOLYLINE
  5
296
100
AcDbEntity
  8
RACCORDO
100
AcDbPolyline
 62
253
  6
CONTINUOUS
 90
17
 70
0
 10
-77.3910576738
 20
-27.6305980441
 10
-77.385775321
 20
-27.6326496652
 10
-77.3771478136
 20
-27.634672374
 10
-77.3652337144
 20
-27.6366524405
 10
-77.3501138952
 20
-27.638576424
 10
-77.3318909882
 20
-27.6404312648
 10
-77.310688689
 20
-27.6422043724
 10
-77.286650917
 20
-27.643883711
 10
-77.2599408386
 20
-27.6454578815
 10
-77.2307397597
 20
-27.6469161984
 10
-77.1992458948
 20
-27.6482487629
 10
-77.1656730216
 20
-27.6494465297
 10
-77.1302490301
 20
-27.6505013683
 10
-77.0932143753
 20
-27.6514061186
 10
-77.0548204455
 20
-27.6521546393
 10
-77.0153278554
 20
-27.6527418495
 10
-76.9341246225
 20
-27.6534175165
  0
LWPOLYLINE
  5
297
100
AcDbEntity
  8
ASSI
100
AcDbPolyline
 62
253
  6
CONTINUOUS
 90
17
 70
0
 10
-77.3910576738
 20
-27.6305980441
 10
-77.385775321
 20
-27.6326496652
 10
-77.3771478136
 20
-27.634672374
 10
-77.3652337144
 20
-27.6366524405
 10
-77.3501138952
 20
-27.638576424
 10
-77.3318909882
 20
-27.6404312648
 10
-77.310688689
 20
-27.6422043724
 10
-77.286650917
 20
-27.643883711
 10
-77.2599408386
 20
-27.6454578815
 10
-77.2307397597
 20
-27.6469161984
 10
-77.1992458948
 20
-27.6482487629
 10
-77.1656730216
 20
-27.6494465297
 10
-77.1302490301
 20
-27.6505013683
 10
-77.0932143753
 20
-27.6514061186
 10
-77.0548204455
 20
-27.6521546393
 10
-77.0153278554
 20
-27.6527418495
 10
-76.9341246225
 20
-27.6534175165
  0
LWPOLYLINE
  5
298
100
AcDbEntity
  8
RACCORDO
100
AcDbPolyline
 62
253
  6
CONTINUOUS
 90
16
 70
0
 10
-77.391057672
 20
17.5235952703
 10
-77.3857753174
 20
17.5256468914
 10
-77.3771478084
 20
17.5276696001
 10
-77.3652337078
 20
17.5296496664
 10
-77.3501138876
 20
17.5315736499
 10
-77.3318909798
 20
17.5334284906
 10
-77.31068868
 20
17.5352015981
 10
-77.2866509078
 20
17.5368809366
 10
-77.2599408294
 20
17.538455107
 10
-77.2307397507
 20
17.5399134238
 10
-77.1992458861
 20
17.5412459882
 10
-77.1656730136
 20
17.5424437549
 10
-77.1302490228
 20
17.5434985935
 10
-77.093214369
 20
17.5444033438
 10
-77.0548204402
 20
17.5451518644
 10
-77.0153278514
 20
17.5457390745
  0
LWPOLYLINE
  5
299
100
AcDbEntity
  8
ASSI
100
AcDbPolyline
 62
253
  6
CONTINUOUS
 90
16
 70
0
 10
-77.391057672
 20
17.5235952703
 10
-77.3857753174
 20
17.5256468914
 10
-77.3771478084
 20
17.5276696001
 10
-77.3652337078
 20
17.5296496664
 10
-77.3501138876
 20
17.5315736499
 10
-77.3318909798
 20
17.5334284906
 10
-77.31068868
 20
17.5352015981
 10
-77.2866509078
 20
17.5368809366
 10
-77.2599408294
 20
17.538455107
 10
-77.2307397507
 20
17.5399134238
 10
-77.1992458861
 20
17.5412459882
 10
-77.1656730136
 20
17.5424437549
 10
-77.1302490228
 20
17.5434985935
 10
-77.093214369
 20
17.5444033438
 10
-77.0548204402
 20
17.5451518644
 10
-77.0153278514
 20
17.5457390745
  0
LWPOLYLINE
  5
29A
100
AcDbEntity
  8
RACCORDO
100
AcDbPolyline
 62
253
  6
CONTINUOUS
 90
16
 70
0
 10
-77.391059158
 20
17.4611285594
 10
-77.3857768647
 20
17.463174617
 10
-77.3771494086
 20
17.4651919115
 10
-77.365235352
 20
17.4671667497
 10
-77.3501155669
 20
17.4690857265
 10
-77.3318926853
 20
17.470935816
 10
-77.3106904029
 20
17.47270446
 10
-77.2866526394
 20
17.4743796529
 10
-77.2599425616
 20
17.4759500238
 10
-77.2307414755
 20
17.4774049131
 10
-77.1992475963
 20
17.4787344449
 10
-77.1656747022
 20
17.4799295947
 10
-77.1302506838
 20
17.4809822497
 10
-77.093215997
 20
17.4818852647
 10
-77.0548220308
 20
17.48263251
 10
-77.0153294006
 20
17.4832189133
  0
LWPOLYLINE
  5
29B
100
AcDbEntity
  8
ASSI
100
AcDbPolyline
 62
253
  6
CONTINUOUS
 90
16
 70
0
 10
-77.391059158
 20
17.4611285594
 10
-77.3857768647
 20
17.463174617
 10
-77.3771494086
 20
17.4651919115
 10
-77.365235352
 20
17.4671667497
 10
-77.3501155669
 20
17.4690857265
 10
-77.3318926853
 20
17.470935816
 10
-77.3106904029
 20
17.47270446
 10
-77.2866526394
 20
17.4743796529
 10
-77.2599425616
 20
17.4759500238
 10
-77.2307414755
 20
17.4774049131
 10
-77.1992475963
 20
17.4787344449
 10
-77.1656747022
 20
17.4799295947
 10
-77.1302506838
 20
17.4809822497
 10
-77.093215997
 20
17.4818852647
 10
-77.0548220308
 20
17.48263251
 10
-77.0153294006
 20
17.4832189133
  0
LINE
  5
29C
100
AcDbEntity
  8
SCRITTE
100
AcDbLine
 62
253
  6
CONTINUOUS
 10
5.4291482119
 20
-33.9313027413
 11
4.8670156219
 21
-33.9313027413
  0
LINE
  5
29D
100
AcDbEntity
  8
SCRITTE
100
AcDbLine
 62
253
  6
CONTINUOUS
 10
-4.546107
 20
-33.9313023869
 11
-4.031097
 21
-33.9313023869
  0
LINE
  5
29E
100
AcDbEntity
  8
SCRITTE
100
AcDbLine
 62
253
  6
CONTINUOUS
 10
3.9720753449
 20
-33.9313027413
 11
3.3900188023
 21
-33.9313027413
  0
LINE
  5
29F
100
AcDbEntity
  8
SCRITTE
100
AcDbLine
 62
253
  6
CONTINUOUS
 10
-2.015272
 20
-33.9313023869
 11
-1.456183
 21
-33.9313023869
  0
LINE
  5
2A0
100
AcDbEntity
  8
SCRITTE
100
AcDbLine
 62
253
  6
CONTINUOUS
 10
-0.644487
 20
-33.9313023869
 11
-0.562524
 21
-33.9313023869
  0
LINE
  5
2A1
100
AcDbEntity
  8
SCRITTE
100
AcDbLine
 62
253
  6
CONTINUOUS
 10
0.252406
 20
-33.9313023869
 11
0.824112
 21
-33.9313023869
  0
LINE
  5
2A2
100
AcDbEntity
  8
SCRITTE
100
AcDbLine
 62
253
  6
CONTINUOUS
 10
0.91588
 20
-33.9313023869
 11
1.493947
 21
-33.9313023869
  0
LINE
  5
2A3
100
AcDbEntity
  8
SCRITTE
100
AcDbLine
 62
253
  6
CONTINUOUS
 10
2.602466
 20
-33.9313023869
 11
3.218408
 21
-33.9313023869
  0
LINE
  5
2A4
100
AcDbEntity
  8
SCRITTE
100
AcDbLine
 62
253
  6
CONTINUOUS
 10
-2.329877
 20
-33.9313023869
 11
-2.914285
 21
-33.9313023869
  0
LWPOLYLINE
  5
2A5
100
AcDbEntity
  8
SCRITTE
100
AcDbPolyline
 62
253
  6
CONTINUOUS
 90
36
 70
0
 10
3.3900188023
 20
-31.1643087279
 10
3.4339950552
 20
-31.157935753
 10
3.4772683139
 20
-31.1518646894
 10
3.5198201711
 20
-31.1461059366
 10
3.5616322194
 20
-31.1406698938
 10
3.6026860515
 20
-31.1355669604
 10
3.6429762017
 20
-31.1308051165
 10
3.6825489712
 20
-31.1263826649
 10
3.7214636026
 20
-31.1222954894
 10
3.7597793388
 20
-31.1185394736
 10
3.7975554225
 20
-31.1151105011
 10
3.8440987075
 20
-31.1112793644
 10
3.889957946
 20
-31.1079534329
 10
3.9351997315
 20
-31.1051333385
 10
3.9798906577
 20
-31.1028197131
 10
4.0241008219
 20
-31.1010148963
 10
4.0679143365
 20
-31.0997280583
 10
4.1114188175
 20
-31.0989700773
 10
4.1547018809
 20
-31.0987518312
 10
4.2121938396
 20
-31.0993199255
 10
4.2695008099
 20
-31.100896872
 10
4.3266756729
 20
-31.1035126553
 10
4.3694970001
 20
-31.106181012
 10
4.4122664555
 20
-31.1095037004
 10
4.4549767321
 20
-31.11353384
 10
4.497620523
 20
-31.1183245507
 10
4.5316793272
 20
-31.1227437641
 10
4.5656664722
 20
-31.1277309614
 10
4.5995575261
 20
-31.1333333647
 10
4.6333280569
 20
-31.1395981959
 10
4.6669536328
 20
-31.146572677
 10
4.7004113928
 20
-31.1543043712
 10
4.7336847592
 20
-31.1628422069
 10
4.7667587253
 20
-31.1722354539
 10
4.7996182844
 20
-31.1825333818
 10
4.8322484297
 20
-31.1937852603
  0
LWPOLYLINE
  5
2A6
100
AcDbEntity
  8
RACCORDO
100
AcDbPolyline
 62
7
  6
CONTINUOUS
 90
22
 70
0
 10
56.1494952776
 20
-27.7535013869
 10
56.1796269177
 20
-27.7523335433
 10
56.209253171
 20
-27.7490139061
 10
56.2383740375
 20
-27.7435424729
 10
56.2671219346
 20
-27.735879617
 10
56.295364445
 20
-27.7260649554
 10
56.3227043167
 20
-27.714217349
 10
56.3491572833
 20
-27.700303347
 10
56.3747076112
 20
-27.6843563824
 10
56.3989108484
 20
-27.6665956413
 10
56.4217751036
 20
-27.6469395055
 10
56.4432922681
 20
-27.6254695699
 10
56.4629935639
 20
-27.6026498438
 10
56.4808002827
 20
-27.5784759876
 10
56.4967911326
 20
-27.5529523195
 10
56.5107334604
 20
-27.5265558411
 10
56.5225831646
 20
-27.4993249087
 10
56.5323843466
 20
-27.4712211508
 10
56.5400366569
 20
-27.442606485
 10
56.5455066456
 20
-27.4136015488
 10
56.5488277626
 20
-27.3840856958
 10
56.5500000078
 20
-27.3540589211
  0
LWPOLYLINE
  5
2A7
100
AcDbEntity
  8
ASSI
100
AcDbPolyline
 62
7
  6
CONTINUOUS
 90
22
 70
0
 10
56.1494952776
 20
-27.7535013869
 10
56.1796269177
 20
-27.7523335433
 10
56.209253171
 20
-27.7490139061
 10
56.2383740375
 20
-27.7435424729
 10
56.2671219346
 20
-27.735879617
 10
56.295364445
 20
-27.7260649554
 10
56.3227043167
 20
-27.714217349
 10
56.3491572833
 20
-27.700303347
 10
56.3747076112
 20
-27.6843563824
 10
56.3989108484
 20
-27.6665956413
 10
56.4217751036
 20
-27.6469395055
 10
56.4432922681
 20
-27.6254695699
 10
56.4629935639
 20
-27.6026498438
 10
56.4808002827
 20
-27.5784759876
 10
56.4967911326
 20
-27.5529523195
 10
56.5107334604
 20
-27.5265558411
 10
56.5225831646
 20
-27.4993249087
 10
56.5323843466
 20
-27.4712211508
 10
56.5400366569
 20
-27.442606485
 10
56.5455066456
 20
-27.4136015488
 10
56.5488277626
 20
-27.3840856958
 10
56.5500000078
 20
-27.3540589211
  0
LWPOLYLINE
  5
2A8
100
AcDbEntity
  8
SCRITTE
100
AcDbPolyline
 62
253
  6
CONTINUOUS
 90
56
 70
0
 10
4.2866806432
 20
-32.3771294735
 10
4.304020346
 20
-32.3765793367
 10
4.3210153682
 20
-32.375713543
 10
4.3376631722
 20
-32.3745356413
 10
4.3539612206
 20
-32.3730491808
 10
4.3699069758
 20
-32.3712577104
 10
4.3854979004
 20
-32.369164779
 10
4.4007314567
 20
-32.3667739357
 10
4.415606826
 20
-32.3640875198
 10
4.4301300637
 20
-32.3611030315
 10
4.4443089441
 20
-32.3578167614
 10
4.4581512413
 20
-32.354225
 10
4.4716647295
 20
-32.3503240379
 10
4.484857183
 20
-32.3461101657
 10
4.4977363759
 20
-32.3415796739
 10
4.5087536528
 20
-32.3373523992
 10
4.5195353095
 20
-32.3328746799
 10
4.5300796135
 20
-32.3281413236
 10
4.5403848325
 20
-32.3231471376
 10
4.550449879
 20
-32.3178856057
 10
4.5602762439
 20
-32.3123449169
 10
4.5698660627
 20
-32.3065119368
 10
4.5792214712
 20
-32.3003735308
 10
4.588343023
 20
-32.293917933
 10
4.5972249444
 20
-32.2871388523
 10
4.6058598796
 20
-32.2800313666
 10
4.6142404731
 20
-32.2725905533
 10
4.6223627302
 20
-32.264811128
 10
4.6302361002
 20
-32.256686357
 10
4.6378733934
 20
-32.2482091445
 10
4.6452874204
 20
-32.2393723946
 10
4.6524867965
 20
-32.2301728256
 10
4.6594633581
 20
-32.2206224128
 10
4.6662047467
 20
-32.2107369459
 10
4.6726986039
 20
-32.2005322142
 10
4.6789347795
 20
-32.1900204782
 10
4.6849119562
 20
-32.1791998816
 10
4.690631025
 20
-32.168065039
 10
4.6960928771
 20
-32.156610565
 10
4.7012959516
 20
-32.1448356209
 10
4.706228881
 20
-32.1327575555
 10
4.7108778459
 20
-32.1203982646
 10
4.715229027
 20
-32.1077796437
 10
4.7192694509
 20
-32.0949231077
 10
4.7229895288
 20
-32.0818481483
 10
4.7263805178
 20
-32.0685737762
 10
4.7294336749
 20
-32.0551190024
 10
4.7321405081
 20
-32.0415027549
 10
4.7344935286
 20
-32.0277436315
 10
4.7364854983
 20
-32.0138601469
 10
4.7381091792
 20
-31.9998708161
 10
4.7391371261
 20
-31.9886099223
 10
4.7399152348
 20
-31.9772686448
 10
4.7404340043
 20
-31.965822492
 10
4.7406839337
 20
-31.9542469722
 10
4.740655522
 20
-31.9425175938
  0
LINE
  5
2A9
100
AcDbEntity
  8
RACCORDO
100
AcDbLine
 62
253
  6
CONTINUOUS
 10
77.0153278527
 20
-27.6527418487
 11
76.9341246215
 21
-27.6534175156
  0
LINE
  5
2AA
100
AcDbEntity
  8
ASSI
100
AcDbLine
 62
253
  6
CONTINUOUS
 10
77.0153278527
 20
-27.6527418487
 11
76.9341246215
 21
-27.6534175156
  0
LWPOLYLINE
  5
2AB
100
AcDbEntity
  8
RACCORDO
100
AcDbPolyline
 62
253
  6
CONTINUOUS
 90
3
 70
0
 10
77.0153294008
 20
-27.5902139562
 10
76.9341260803
 20
-27.590889434
 10
76.8929665927
 20
-27.5909739235
  0
LWPOLYLINE
  5
2AC
100
AcDbEntity
  8
ASSI
100
AcDbPolyline
 62
253
  6
CONTINUOUS
 90
3
 70
0
 10
77.0153294008
 20
-27.5902139562
 10
76.9341260803
 20
-27.590889434
 10
76.8929665927
 20
-27.5909739235
  0
LWPOLYLINE
  5
2AD
100
AcDbEntity
  8
RACCORDO
100
AcDbPolyline
 62
253
  6
CONTINUOUS
 90
3
 70
0
 10
-57.1031607314
 20
-27.4313221463
 10
-57.0610337496
 20
-27.4312339869
 10
-56.9779759784
 20
-27.4305309721
  0
LWPOLYLINE
  5
2AE
100
AcDbEntity
  8
ASSI
100
AcDbPolyline
 62
253
  6
CONTINUOUS
 90
3
 70
0
 10
-57.1031607314
 20
-27.4313221463
 10
-57.0610337496
 20
-27.4312339869
 10
-56.9779759784
 20
-27.4305309721
  0
LINE
  5
2AF
100
AcDbEntity
  8
SCRITTE
100
AcDbLine
 62
253
  6
CONTINUOUS
 10
1.655207
 20
-33.3723823869
 11
2.451074
 21
-33.3723823869
  0
LINE
  5
2B0
100
AcDbEntity
  8
SCRITTE
100
AcDbLine
 62
253
  6
CONTINUOUS
 10
2.33428
 20
-32.9398923869
 11
1.774751
 21
-32.9398923869
  0
LINE
  5
2B1
100
AcDbEntity
  8
SCRITTE
100
AcDbLine
 62
253
  6
CONTINUOUS
 10
4.2854209623
 20
-32.8356533116
 11
3.9720753449
 21
-32.8356533116
  0
LINE
  5
2B2
100
AcDbEntity
  8
SCRITTE
100
AcDbLine
 62
253
  6
CONTINUOUS
 10
3.9526972541
 20
-32.3771294735
 11
4.2866806432
 21
-32.3771294735
  0
LINE
  5
2B3
100
AcDbEntity
  8
SCRITTE
100
AcDbLine
 62
253
  6
CONTINUOUS
 10
2.35939
 20
-31.1315993869
 11
1.794045
 21
-31.1315993869
  0
LINE
  5
2B4
100
AcDbEntity
  8
SCRITTE
100
AcDbLine
 62
253
  6
CONTINUOUS
 10
0.562308
 20
-31.1315993869
 11
-0.015906
 21
-31.1315993869
  0
LINE
  5
2B5
100
AcDbEntity
  8
SCRITTE
100
AcDbLine
 62
253
  6
CONTINUOUS
 10
-1.17855
 20
-31.1315993869
 11
-1.762475
 21
-31.1315993869
  0
LINE
  5
2B6
100
AcDbEntity
  8
SCRITTE
100
AcDbLine
 62
253
  6
CONTINUOUS
 10
-3.13116
 20
-31.1315993869
 11
-3.715169
 21
-31.1315993869
  0
LINE
  5
2B7
100
AcDbEntity
  8
SCRITTE
100
AcDbLine
 62
253
  6
CONTINUOUS
 10
-4.79882
 20
-31.1315993869
 11
-5.433668
 21
-31.1315993869
  0
LINE
  5
2B8
100
AcDbEntity
  8
SCRITTE
100
AcDbLine
 62
253
  6
CONTINUOUS
 10
-2.914285
 20
-31.1314313869
 11
-2.329877
 21
-31.1314313869
  0
LINE
  5
2B9
100
AcDbEntity
  8
RACCORDO
100
AcDbLine
 62
253
  6
CONTINUOUS
 10
56.201953503
 20
-28.3322675231
 11
-56.201953503
 21
-28.3322675231
  0
LINE
  5
2BA
100
AcDbEntity
  8
ASSI
100
AcDbLine
 62
253
  6
CONTINUOUS
 10
56.201953503
 20
-28.3322675231
 11
-56.201953503
 21
-28.3322675231
  0
LINE
  5
2BB
100
AcDbEntity
  8
RACCORDO
100
AcDbLine
 62
253
  6
CONTINUOUS
 10
56.2019508277
 20
-27.8058229492
 11
-56.2019737359
 21
-27.8058229492
  0
LINE
  5
2BC
100
AcDbEntity
  8
ASSI
100
AcDbLine
 62
253
  6
CONTINUOUS
 10
56.2019508277
 20
-27.8058229492
 11
-56.2019737359
 21
-27.8058229492
  0
LINE
  5
2BD
100
AcDbEntity
  8
RACCORDO
100
AcDbLine
 62
7
  6
CONTINUOUS
 10
-56.1494952776
 20
-27.7535013869
 11
56.1494952776
 21
-27.7535013869
  0
LINE
  5
2BE
100
AcDbEntity
  8
ASSI
100
AcDbLine
 62
7
  6
CONTINUOUS
 10
-56.1494952776
 20
-27.7535013869
 11
56.1494952776
 21
-27.7535013869
  0
LINE
  5
2BF
100
AcDbEntity
  8
RACCORDO
100
AcDbLine
 62
253
  6
CONTINUOUS
 10
57.075256923
 20
-27.6535013869
 11
76.9341246215
 21
-27.6534175156
  0
LINE
  5
2C0
100
AcDbEntity
  8
ASSI
100
AcDbLine
 62
253
  6
CONTINUOUS
 10
57.075256923
 20
-27.6535013869
 11
76.9341246215
 21
-27.6534175156
  0
LINE
  5
2C1
100
AcDbEntity
  8
RACCORDO
100
AcDbLine
 62
253
  6
CONTINUOUS
 10
-77.5
 20
-27.5681236091
 11
-77.3910591581
 21
-27.5681236091
  0
LINE
  5
2C2
100
AcDbEntity
  8
RACCORDO
100
AcDbLine
 62
253
  6
CONTINUOUS
 10
77.5
 20
-27.5681236091
 11
77.3910591581
 21
-27.5681236091
  0
LINE
  5
2C3
100
AcDbEntity
  8
ASSI
100
AcDbLine
 62
253
  6
CONTINUOUS
 10
-77.5
 20
-27.5681236091
 11
-77.3910591581
 21
-27.5681236091
  0
LINE
  5
2C4
100
AcDbEntity
  8
ASSI
100
AcDbLine
 62
253
  6
CONTINUOUS
 10
77.5
 20
-27.5681236091
 11
77.3910591581
 21
-27.5681236091
  0
LINE
  5
2C5
100
AcDbEntity
  8
RACCORDO
100
AcDbLine
 62
253
  6
CONTINUOUS
 10
-76.9341246225
 20
-27.6534175165
 11
-57.0752569231
 21
-27.6535013869
  0
LINE
  5
2C6
100
AcDbEntity
  8
ASSI
100
AcDbLine
 62
253
  6
CONTINUOUS
 10
-76.9341246225
 20
-27.6534175165
 11
-57.0752569231
 21
-27.6535013869
  0
LWPOLYLINE
  5
2C7
100
AcDbEntity
  8
RACCORDO
100
AcDbPolyline
 62
253
  6
CONTINUOUS
 90
18
 70
0
 10
57.1031607314
 20
-27.4313221855
 10
57.0192063685
 20
-27.4309696678
 10
56.9779760151
 20
-27.4305310011
 10
56.9376359007
 20
-27.4299211419
 10
56.8984728983
 20
-27.4291444273
 10
56.8607655103
 20
-27.4282063806
 10
56.8247818873
 20
-27.4271136726
 10
56.7907779218
 20
-27.4258740741
 10
56.7589954283
 20
-27.4244964002
 10
56.7296604235
 20
-27.4229904481
 10
56.7029815191
 20
-27.421366927
 10
56.6791484384
 20
-27.4196373826
 10
56.658330667
 20
-27.4178141142
 10
56.6406762476
 20
-27.4159100876
 10
56.6263107271
 20
-27.4139388432
 10
56.6153362638
 20
-27.4119143991
 10
56.6078309012
 20
-27.4098511519
 10
56.6038480125
 20
-27.4077637741
  0
LWPOLYLINE
  5
2C8
100
AcDbEntity
  8
ASSI
100
AcDbPolyline
 62
253
  6
CONTINUOUS
 90
18
 70
0
 10
57.1031607314
 20
-27.4313221855
 10
57.0192063685
 20
-27.4309696678
 10
56.9779760151
 20
-27.4305310011
 10
56.9376359007
 20
-27.4299211419
 10
56.8984728983
 20
-27.4291444273
 10
56.8607655103
 20
-27.4282063806
 10
56.8247818873
 20
-27.4271136726
 10
56.7907779218
 20
-27.4258740741
 10
56.7589954283
 20
-27.4244964002
 10
56.7296604235
 20
-27.4229904481
 10
56.7029815191
 20
-27.421366927
 10
56.6791484384
 20
-27.4196373826
 10
56.658330667
 20
-27.4178141142
 10
56.6406762476
 20
-27.4159100876
 10
56.6263107271
 20
-27.4139388432
 10
56.6153362638
 20
-27.4119143991
 10
56.6078309012
 20
-27.4098511519
 10
56.6038480125
 20
-27.4077637741
  0
LWPOLYLINE
  5
2C9
100
AcDbEntity
  8
RACCORDO
100
AcDbPolyline
 62
253
  6
CONTINUOUS
 90
22
 70
0
 10
-56.2019738051
 20
-27.8058230177
 10
-56.2273063552
 20
-27.8051152744
 10
-56.2525230974
 20
-27.8028229017
 10
-56.2775247492
 20
-27.7989582733
 10
-56.3022070935
 20
-27.7935423082
 10
-56.3264797846
 20
-27.7865981599
 10
-56.3502655126
 20
-27.7781469374
 10
-56.3734804717
 20
-27.7682167373
 10
-56.3960220255
 20
-27.756849828
 10
-56.4177878864
 20
-27.7440958057
 10
-56.4386798657
 20
-27.7300161634
 10
-56.4586306451
 20
-27.7146604582
 10
-56.4775865166
 20
-27.6980651182
 10
-56.4954857099
 20
-27.6802747325
 10
-56.5122350097
 20
-27.6613721453
 10
-56.5277404805
 20
-27.6414581169
 10
-56.5419521493
 20
-27.620596827
 10
-56.5548027998
 20
-27.5988878942
 10
-56.5662013372
 20
-27.5765042463
 10
-56.5761083777
 20
-27.5535726416
 10
-56.5845188933
 20
-27.5301631221
 10
-56.5914186775
 20
-27.5063731601
  0
LWPOLYLINE
  5
2CA
100
AcDbEntity
  8
ASSI
100
AcDbPolyline
 62
253
  6
CONTINUOUS
 90
22
 70
0
 10
-56.2019738051
 20
-27.8058230177
 10
-56.2273063552
 20
-27.8051152744
 10
-56.2525230974
 20
-27.8028229017
 10
-56.2775247492
 20
-27.7989582733
 10
-56.3022070935
 20
-27.7935423082
 10
-56.3264797846
 20
-27.7865981599
 10
-56.3502655126
 20
-27.7781469374
 10
-56.3734804717
 20
-27.7682167373
 10
-56.3960220255
 20
-27.756849828
 10
-56.4177878864
 20
-27.7440958057
 10
-56.4386798657
 20
-27.7300161634
 10
-56.4586306451
 20
-27.7146604582
 10
-56.4775865166
 20
-27.6980651182
 10
-56.4954857099
 20
-27.6802747325
 10
-56.5122350097
 20
-27.6613721453
 10
-56.5277404805
 20
-27.6414581169
 10
-56.5419521493
 20
-27.620596827
 10
-56.5548027998
 20
-27.5988878942
 10
-56.5662013372
 20
-27.5765042463
 10
-56.5761083777
 20
-27.5535726416
 10
-56.5845188933
 20
-27.5301631221
 10
-56.5914186775
 20
-27.5063731601
  0
LWPOLYLINE
  5
2CB
100
AcDbEntity
  8
RACCORDO
100
AcDbPolyline
 62
253
  6
CONTINUOUS
 90
22
 70
0
 10
-56.201953503
 20
-28.3322675231
 10
-56.2591837688
 20
-28.330401189
 10
-56.3157058108
 20
-28.3250354802
 10
-56.3715196289
 20
-28.3161703785
 10
-56.426824023
 20
-28.3037452663
 10
-56.4814201933
 20
-28.2878206887
 10
-56.53471174
 20
-28.2685783567
 10
-56.5867076903
 20
-28.2459722502
 10
-56.6373990171
 20
-28.2200482554
 10
-56.6861622399
 20
-28.1911259383
 10
-56.7329490986
 20
-28.1591932202
 10
-56.7778078533
 20
-28.1242620071
 10
-56.8202598038
 20
-28.0866878501
 10
-56.8603148217
 20
-28.0464016898
 10
-56.8979630353
 20
-28.0034723937
 10
-56.9326961292
 20
-27.9584624292
 10
-56.9644781322
 20
-27.9112750959
 10
-56.9933450155
 20
-27.8620069199
 10
-57.0188963765
 20
-27.8115102642
 10
-57.0409987476
 20
-27.7600692322
 10
-57.0597855965
 20
-27.7073996242
 10
-57.0752569231
 20
-27.6535013869
  0
LWPOLYLINE
  5
2CC
100
AcDbEntity
  8
ASSI
100
AcDbPolyline
 62
253
  6
CONTINUOUS
 90
22
 70
0
 10
-56.201953503
 20
-28.3322675231
 10
-56.2591837688
 20
-28.330401189
 10
-56.3157058108
 20
-28.3250354802
 10
-56.3715196289
 20
-28.3161703785
 10
-56.426824023
 20
-28.3037452663
 10
-56.4814201933
 20
-28.2878206887
 10
-56.53471174
 20
-28.2685783567
 10
-56.5867076903
 20
-28.2459722502
 10
-56.6373990171
 20
-28.2200482554
 10
-56.6861622399
 20
-28.1911259383
 10
-56.7329490986
 20
-28.1591932202
 10
-56.7778078533
 20
-28.1242620071
 10
-56.8202598038
 20
-28.0866878501
 10
-56.8603148217
 20
-28.0464016898
 10
-56.8979630353
 20
-28.0034723937
 10
-56.9326961292
 20
-27.9584624292
 10
-56.9644781322
 20
-27.9112750959
 10
-56.9933450155
 20
-27.8620069199
 10
-57.0188963765
 20
-27.8115102642
 10
-57.0409987476
 20
-27.7600692322
 10
-57.0597855965
 20
-27.7073996242
 10
-57.0752569231
 20
-27.6535013869
  0
LWPOLYLINE
  5
2CD
100
AcDbEntity
  8
SCRITTE
100
AcDbPolyline
 62
253
  6
CONTINUOUS
 90
24
 70
0
 10
4.4105134288
 20
-31.5920736357
 10
4.3890175907
 20
-31.5897375567
 10
4.3674967867
 20
-31.5877153681
 10
4.3459546799
 20
-31.5860063405
 10
4.3243949336
 20
-31.5846097443
 10
4.3028212112
 20
-31.58352485
 10
4.2812371757
 20
-31.582750928
 10
4.2596464906
 20
-31.5822872488
 10
4.2407505514
 20
-31.5821355281
 10
4.2218456918
 20
-31.5822207467
 10
4.2029252778
 20
-31.5825428729
 10
4.1839826754
 20
-31.583101875
 10
4.1650103889
 20
-31.5838987829
 10
4.1459974747
 20
-31.5849388734
 10
4.1269321275
 20
-31.5862284847
 10
4.1078025421
 20
-31.5877739553
 10
4.088600673
 20
-31.5895788207
 10
4.0693335138
 20
-31.5916354055
 10
4.050011818
 20
-31.5939332318
 10
4.0306463392
 20
-31.5964618213
 10
4.0112436994
 20
-31.5992088511
 10
3.9917939952
 20
-31.6021546192
 10
3.9722831917
 20
-31.6052775788
 10
3.9526972541
 20
-31.6085561828
  0
LWPOLYLINE
  5
2CE
100
AcDbEntity
  8
SCRITTE
100
AcDbPolyline
 62
253
  6
CONTINUOUS
 90
86
 70
0
 10
4.8322484297
 20
-31.1937852603
 10
4.8474275416
 20
-31.1995757146
 10
4.8628523634
 20
-31.2061006196
 10
4.8785470511
 20
-31.2133937965
 10
4.8945357605
 20
-31.2214890663
 10
4.9108426474
 20
-31.2304202502
 10
4.9274918678
 20
-31.2402211693
 10
4.9444870381
 20
-31.2509156158
 10
4.9617496169
 20
-31.2624872656
 10
4.9791805236
 20
-31.2749097656
 10
4.9966806773
 20
-31.2881567627
 10
5.0141509973
 20
-31.302201904
 10
5.0314924029
 20
-31.3170188363
 10
5.0486142
 20
-31.3325843362
 10
5.0654592421
 20
-31.3488876991
 10
5.0819787691
 20
-31.3659213498
 10
5.0981240212
 20
-31.3836777133
 10
5.1138462386
 20
-31.4021492144
 10
5.1290966612
 20
-31.4213282781
 10
5.1438259454
 20
-31.4411951986
 10
5.1579824114
 20
-31.4616817468
 10
5.1715137957
 20
-31.4827075631
 10
5.1843678349
 20
-31.5041922875
 10
5.1964922652
 20
-31.5260555603
 10
5.2078348233
 20
-31.5482170218
 10
5.2183541935
 20
-31.5706029362
 10
5.2280528524
 20
-31.5931660632
 10
5.2369442247
 20
-31.6158657868
 10
5.2450417349
 20
-31.6386614908
 10
5.2523588076
 20
-31.661512559
 10
5.2589088675
 20
-31.6843783751
 10
5.2657814936
 20
-31.7117743483
 10
5.2716288072
 20
-31.7390311705
 10
5.2765106629
 20
-31.7660469409
 10
5.2804869151
 20
-31.7927197586
 10
5.2836174186
 20
-31.8189477227
 10
5.2859601841
 20
-31.8446426203
 10
5.2875658484
 20
-31.8697709892
 10
5.2884832043
 20
-31.8943130553
 10
5.2887610448
 20
-31.9182490443
 10
5.2884481629
 20
-31.941559182
 10
5.2875900869
 20
-31.964230064
 10
5.2862192873
 20
-31.9862737654
 10
5.28436497
 20
-32.007708731
 10
5.2820563409
 20
-32.0285534057
 10
5.2793226059
 20
-32.0488262346
 10
5.2753486787
 20
-32.0733934268
 10
5.2707925203
 20
-32.0971452443
 10
5.2656904931
 20
-32.1201310014
 10
5.2600789597
 20
-32.1424000124
 10
5.2539947423
 20
-32.1639934222
 10
5.247476502
 20
-32.1849196983
 10
5.2405633595
 20
-32.2051791385
 10
5.2332944357
 20
-32.2247720409
 10
5.2257080948
 20
-32.2436996128
 10
5.217839674
 20
-32.2619666984
 10
5.2097237544
 20
-32.2795790514
 10
5.2013949164
 20
-32.2965424254
 10
5.1900118012
 20
-32.3181663248
 10
5.1783542441
 20
-32.3386942254
 10
5.1664648479
 20
-32.3581736399
 10
5.154385173
 20
-32.3766480428
 10
5.1421526117
 20
-32.3941447543
 10
5.1298035142
 20
-32.410687056
 10
5.1173752484
 20
-32.4263053349
 10
5.1049092538
 20
-32.4410583996
 10
5.0924479876
 20
-32.4550121641
 10
5.080034475
 20
-32.4682302141
 10
5.0677140134
 20
-32.4807668222
 10
5.0555324678
 20
-32.4926739327
 10
5.0435314457
 20
-32.5040021684
 10
5.0317355236
 20
-32.5147968647
 10
5.02016502
 20
-32.5251020357
 10
5.0032613173
 20
-32.5397367451
 10
4.9869128384
 20
-32.5535033673
 10
4.9711604859
 20
-32.5664726614
 10
4.9634457556
 20
-32.5726273495
 10
4.9557272101
 20
-32.5785290663
 10
4.947920027
 20
-32.5841339734
 10
4.9400457497
 20
-32.5893354036
 10
4.9321472803
 20
-32.5940213927
 10
4.9242465902
 20
-32.5981216166
 10
4.9163522932
 20
-32.6015827656
 10
4.9084405045
 20
-32.6043779459
 10
4.9004875586
 20
-32.6064859644
 10
4.8925031649
 20
-32.6078820149
  0
LWPOLYLINE
  5
2CF
100
AcDbEntity
  8
SCRITTE
100
AcDbPolyline
 62
253
  6
CONTINUOUS
 90
42
 70
0
 10
4.8925031649
 20
-32.6244258237
 10
4.9017262763
 20
-32.6282750732
 10
4.9109005938
 20
-32.6324522308
 10
4.9200314244
 20
-32.6369658585
 10
4.9291240752
 20
-32.6418245182
 10
4.9381832794
 20
-32.647037345
 10
4.9472114754
 20
-32.6526157656
 10
4.9562105275
 20
-32.6585717797
 10
4.9651823002
 20
-32.6649173869
 10
4.9741251043
 20
-32.6716612683
 10
4.9830230358
 20
-32.6787988299
 10
4.9918566371
 20
-32.6863221587
 10
5.0006064504
 20
-32.6942233422
 10
5.009254186
 20
-32.7024930418
 10
5.0177862252
 20
-32.7111162172
 10
5.0261901172
 20
-32.720076402
 10
5.0344534109
 20
-32.7293571304
 10
5.0425669245
 20
-32.7389454842
 10
5.0505345513
 20
-32.7488427386
 10
5.0583634532
 20
-32.7590537165
 10
5.0660607925
 20
-32.7695832412
 10
5.073631931
 20
-32.7804339185
 10
5.0810750299
 20
-32.7915994855
 10
5.08838645
 20
-32.803071462
 10
5.0955625522
 20
-32.8148413676
 10
5.1035944768
 20
-32.8286477522
 10
5.1114456459
 20
-32.8428263202
 10
5.1191167991
 20
-32.857371199
 10
5.1266086759
 20
-32.8722765163
 10
5.1339220157
 20
-32.8875363996
 10
5.141057558
 20
-32.9031449764
 10
5.1480160423
 20
-32.9190963742
 10
5.1547981158
 20
-32.9353841281
 10
5.1614040565
 20
-32.9519994024
 10
5.1678340501
 20
-32.9689327689
 10
5.1740882823
 20
-32.9861747995
 10
5.1801669389
 20
-33.0037160658
 10
5.1860702055
 20
-33.0215471399
 10
5.1917982679
 20
-33.0396585933
 10
5.1982708098
 20
-33.061130895
 10
5.204571387
 20
-33.082959914
 10
5.2107662542
 20
-33.1051335729
  0
LINE
  5
2D0
100
AcDbEntity
  8
RACCORDO
100
AcDbLine
 62
253
  6
CONTINUOUS
 10
-56.6038476723
 20
17.3007691179
 11
-56.5500000078
 21
17.2470561474
  0
LINE
  5
2D1
100
AcDbEntity
  8
ASSI
100
AcDbLine
 62
253
  6
CONTINUOUS
 10
-56.6038476723
 20
17.3007691179
 11
-56.5500000078
 21
17.2470561474
  0
LINE
  5
2D2
100
AcDbEntity
  8
RACCORDO
100
AcDbLine
 62
253
  6
CONTINUOUS
 10
-56.2019510493
 20
17.6988201755
 11
-56.1494952776
 21
17.6464986131
  0
LINE
  5
2D3
100
AcDbEntity
  8
ASSI
100
AcDbLine
 62
253
  6
CONTINUOUS
 10
-56.2019510493
 20
17.6988201755
 11
-56.1494952776
 21
17.6464986131
  0
LINE
  5
2D4
100
AcDbEntity
  8
RACCORDO
100
AcDbLine
 62
253
  6
CONTINUOUS
 10
-77.3893468268
 20
39.0368556285
 11
-77.4999972781
 21
39.1493588298
  0
LINE
  5
2D5
100
AcDbEntity
  8
ASSI
100
AcDbLine
 62
253
  6
CONTINUOUS
 10
-77.3893468268
 20
39.0368556285
 11
-77.4999972781
 21
39.1493588298
  0
LINE
  5
2D6
100
AcDbEntity
  8
RACCORDO
100
AcDbLine
 62
253
  6
CONTINUOUS
 10
-77.3893468268
 20
-49.1438584023
 11
-77.4999972781
 21
-49.2563616035
  0
LINE
  5
2D7
100
AcDbEntity
  8
ASSI
100
AcDbLine
 62
253
  6
CONTINUOUS
 10
-77.3893468268
 20
-49.1438584023
 11
-77.4999972781
 21
-49.2563616035
  0
LINE
  5
2D8
100
AcDbEntity
  8
RACCORDO
100
AcDbLine
 62
253
  6
CONTINUOUS
 10
-56.6038476666
 20
-27.407763189
 11
-56.5500000078
 21
-27.3540589211
  0
LINE
  5
2D9
100
AcDbEntity
  8
ASSI
100
AcDbLine
 62
253
  6
CONTINUOUS
 10
-56.6038476666
 20
-27.407763189
 11
-56.5500000078
 21
-27.3540589211
  0
LINE
  5
2DA
100
AcDbEntity
  8
RACCORDO
100
AcDbLine
 62
253
  6
CONTINUOUS
 10
-56.2019737359
 20
-27.8058229492
 11
-56.1494952776
 21
-27.7535013869
  0
LINE
  5
2DB
100
AcDbEntity
  8
ASSI
100
AcDbLine
 62
253
  6
CONTINUOUS
 10
-56.2019737359
 20
-27.8058229492
 11
-56.1494952776
 21
-27.7535013869
  0
LWPOLYLINE
  5
2DC
100
AcDbEntity
  8
RACCORDO
100
AcDbPolyline
 62
253
  6
CONTINUOUS
 90
16
 70
0
 10
-56.9779759784
 20
-27.4305309721
 10
-56.9376358437
 20
-27.4299211161
 10
-56.8984728184
 20
-27.4291444044
 10
-56.8607654052
 20
-27.4282063605
 10
-56.8247817556
 20
-27.4271136551
 10
-56.7907777628
 20
-27.425874059
 10
-56.758995242
 20
-27.4244963874
 10
-56.7296602104
 20
-27.4229904373
 10
-56.7029812804
 20
-27.4213669182
 10
-56.6791481759
 20
-27.4196373755
 10
-56.658330383
 20
-27.4178141087
 10
-56.6406759447
 20
-27.4159100836
 10
-56.6263104084
 20
-27.4139388405
 10
-56.6153359327
 20
-27.4119143977
 10
-56.6078305613
 20
-27.4098511517
 10
-56.6038476676
 20
-27.407763775
  0
LWPOLYLINE
  5
2DD
100
AcDbEntity
  8
ASSI
100
AcDbPolyline
 62
253
  6
CONTINUOUS
 90
16
 70
0
 10
-56.9779759784
 20
-27.4305309721
 10
-56.9376358437
 20
-27.4299211161
 10
-56.8984728184
 20
-27.4291444044
 10
-56.8607654052
 20
-27.4282063605
 10
-56.8247817556
 20
-27.4271136551
 10
-56.7907777628
 20
-27.425874059
 10
-56.758995242
 20
-27.4244963874
 10
-56.7296602104
 20
-27.4229904373
 10
-56.7029812804
 20
-27.4213669182
 10
-56.6791481759
 20
-27.4196373755
 10
-56.658330383
 20
-27.4178141087
 10
-56.6406759447
 20
-27.4159100836
 10
-56.6263104084
 20
-27.4139388405
 10
-56.6153359327
 20
-27.4119143977
 10
-56.6078305613
 20
-27.4098511517
 10
-56.6038476676
 20
-27.407763775
  0
LINE
  5
2DE
100
AcDbEntity
  8
RACCORDO
100
AcDbLine
 62
253
  6
CONTINUOUS
 10
-76.5971848203
 20
39.8258332403
 11
-76.7157627907
 21
39.9463433071
  0
LINE
  5
2DF
100
AcDbEntity
  8
ASSI
100
AcDbLine
 62
253
  6
CONTINUOUS
 10
-76.5971848203
 20
39.8258332403
 11
-76.7157627907
 21
39.9463433071
  0
LINE
  5
2E0
100
AcDbEntity
  8
RACCORDO
100
AcDbLine
 62
253
  6
CONTINUOUS
 10
-76.5971848203
 20
-49.9328360141
 11
-76.7157627907
 21
-50.0533460808
  0
LINE
  5
2E1
100
AcDbEntity
  8
ASSI
100
AcDbLine
 62
253
  6
CONTINUOUS
 10
-76.5971848203
 20
-49.9328360141
 11
-76.7157627907
 21
-50.0533460808
  0
LINE
  5
2E2
100
AcDbEntity
  8
SCRITTE
100
AcDbLine
 62
253
  6
CONTINUOUS
 10
-5.433668
 20
-31.1315993869
 11
-4.546107
 21
-33.9313023869
  0
LWPOLYLINE
  5
2E3
100
AcDbEntity
  8
RACCORDO
100
AcDbPolyline
 62
253
  6
CONTINUOUS
 90
15
 70
0
 10
-56.9147585341
 20
-27.6111803889
 10
-56.8767878115
 20
-27.6007178795
 10
-56.8402304984
 20
-27.5904524342
 10
-56.805346951
 20
-27.580457162
 10
-56.7723856048
 20
-27.5708032477
 10
-56.7415812059
 20
-27.5615594452
 10
-56.7131531388
 20
-27.5527915875
 10
-56.6873038642
 20
-27.544562118
 10
-56.6642174771
 20
-27.5369296457
 10
-56.6440583952
 20
-27.5299485281
 10
-56.6269701888
 20
-27.5236684836
 10
-56.6130745577
 20
-27.5181342378
 10
-56.6024704646
 20
-27.5133852049
 10
-56.5952334302
 20
-27.5094552066
 10
-56.5914149959
 20
-27.5063722319
  0
LWPOLYLINE
  5
2E4
100
AcDbEntity
  8
ASSI
100
AcDbPolyline
 62
253
  6
CONTINUOUS
 90
15
 70
0
 10
-56.9147585341
 20
-27.6111803889
 10
-56.8767878115
 20
-27.6007178795
 10
-56.8402304984
 20
-27.5904524342
 10
-56.805346951
 20
-27.580457162
 10
-56.7723856048
 20
-27.5708032477
 10
-56.7415812059
 20
-27.5615594452
 10
-56.7131531388
 20
-27.5527915875
 10
-56.6873038642
 20
-27.544562118
 10
-56.6642174771
 20
-27.5369296457
 10
-56.6440583952
 20
-27.5299485281
 10
-56.6269701888
 20
-27.5236684836
 10
-56.6130745577
 20
-27.5181342378
 10
-56.6024704646
 20
-27.5133852049
 10
-56.5952334302
 20
-27.5094552066
 10
-56.5914149959
 20
-27.5063722319
  0
LINE
  5
2E5
100
AcDbEntity
  8
RACCORDO
100
AcDbLine
 62
253
  6
CONTINUOUS
 10
-56.9938503795
 20
-27.632397677
 11
-56.9147585341
 21
-27.6111803889
  0
LINE
  5
2E6
100
AcDbEntity
  8
ASSI
100
AcDbLine
 62
253
  6
CONTINUOUS
 10
-56.9938503795
 20
-27.632397677
 11
-56.9147585341
 21
-27.6111803889
  0
LINE
  5
2E7
100
AcDbEntity
  8
RACCORDO
100
AcDbLine
 62
253
  6
CONTINUOUS
 10
-57.0752569227
 20
-27.6535009487
 11
-56.9938503795
 21
-27.632397677
  0
LINE
  5
2E8
100
AcDbEntity
  8
ASSI
100
AcDbLine
 62
253
  6
CONTINUOUS
 10
-57.0752569227
 20
-27.6535009487
 11
-56.9938503795
 21
-27.632397677
  0
LINE
  5
2E9
100
AcDbEntity
  8
RACCORDO
100
AcDbLine
 62
253
  6
CONTINUOUS
 10
57.075256923
 20
-27.653501049
 11
56.9938504343
 21
-27.6323977735
  0
LINE
  5
2EA
100
AcDbEntity
  8
ASSI
100
AcDbLine
 62
253
  6
CONTINUOUS
 10
57.075256923
 20
-27.653501049
 11
56.9938504343
 21
-27.6323977735
  0
LWPOLYLINE
  5
2EB
100
AcDbEntity
  8
RACCORDO
100
AcDbPolyline
 62
253
  6
CONTINUOUS
 90
16
 70
0
 10
56.9938504343
 20
-27.6323977735
 10
56.9147586815
 20
-27.6111804927
 10
56.8767880153
 20
-27.6007179902
 10
56.8402307631
 20
-27.5904525534
 10
56.8053472791
 20
-27.5804572907
 10
56.7723859975
 20
-27.5708033867
 10
56.7415816626
 20
-27.5615595948
 10
56.7131536575
 20
-27.5527917476
 10
56.6873044414
 20
-27.5445622881
 10
56.6642181079
 20
-27.536929825
 10
56.6440590737
 20
-27.5299487154
 10
56.626970908
 20
-27.5236686775
 10
56.6130753096
 20
-27.5181344365
 10
56.6024712405
 20
-27.5133854064
 10
56.5952342211
 20
-27.5094554088
 10
56.5914157922
 20
-27.5063724324
  0
LWPOLYLINE
  5
2EC
100
AcDbEntity
  8
ASSI
100
AcDbPolyline
 62
253
  6
CONTINUOUS
 90
16
 70
0
 10
56.9938504343
 20
-27.6323977735
 10
56.9147586815
 20
-27.6111804927
 10
56.8767880153
 20
-27.6007179902
 10
56.8402307631
 20
-27.5904525534
 10
56.8053472791
 20
-27.5804572907
 10
56.7723859975
 20
-27.5708033867
 10
56.7415816626
 20
-27.5615595948
 10
56.7131536575
 20
-27.5527917476
 10
56.6873044414
 20
-27.5445622881
 10
56.6642181079
 20
-27.536929825
 10
56.6440590737
 20
-27.5299487154
 10
56.626970908
 20
-27.5236686775
 10
56.6130753096
 20
-27.5181344365
 10
56.6024712405
 20
-27.5133854064
 10
56.5952342211
 20
-27.5094554088
 10
56.5914157922
 20
-27.5063724324
  0
LWPOLYLINE
  5
2ED
100
AcDbEntity
  8
SCRITTE
100
AcDbPolyline
 62
253
  6
CONTINUOUS
 90
47
 70
0
 10
4.6113801163
 20
-33.0821058772
 10
4.6074444598
 20
-33.0720022856
 10
4.6033314078
 20
-33.0621399862
 10
4.5990500155
 20
-33.0525164987
 10
4.5946093381
 20
-33.0431293431
 10
4.590018431
 20
-33.0339760391
 10
4.5852863493
 20
-33.0250541065
 10
4.5804221482
 20
-33.0163610652
 10
4.5754348831
 20
-33.007894435
 10
4.5703336092
 20
-32.9996517357
 10
4.5651273817
 20
-32.9916304871
 10
4.5592286139
 20
-32.9829745397
 10
4.5532119308
 20
-32.9745845726
 10
4.5470778102
 20
-32.9664562321
 10
4.5408267299
 20
-32.9585851646
 10
4.5344591676
 20
-32.9509670163
 10
4.527975601
 20
-32.9435974336
 10
4.521376508
 20
-32.9364720628
 10
4.5146623662
 20
-32.9295865501
 10
4.5078336534
 20
-32.9229365419
 10
4.5008910914
 20
-32.9165190228
 10
4.4938363775
 20
-32.9103363309
 10
4.4866714531
 20
-32.9043921424
 10
4.4793982597
 20
-32.8986901337
 10
4.4720187387
 20
-32.8932339812
 10
4.4645348315
 20
-32.8880273612
 10
4.4569484793
 20
-32.8830739501
 10
4.4492616237
 20
-32.8783774241
 10
4.4414762061
 20
-32.8739414597
 10
4.4335939698
 20
-32.8697683458
 10
4.4256158665
 20
-32.8658548217
 10
4.4175426497
 20
-32.8621962394
 10
4.4093750732
 20
-32.8587879506
 10
4.4011138904
 20
-32.8556253075
 10
4.3927598551
 20
-32.8527036618
 10
4.3843137208
 20
-32.8500183655
 10
4.3757762412
 20
-32.8475647706
 10
4.3671481699
 20
-32.8453382288
 10
4.3584300928
 20
-32.8433353316
 10
4.3496219247
 20
-32.8415576277
 10
4.3407234129
 20
-32.8400079051
 10
4.3317343044
 20
-32.838688952
 10
4.3226543464
 20
-32.8376035564
 10
4.313483286
 20
-32.8367545065
 10
4.3042208704
 20
-32.8361445903
 10
4.2948668468
 20
-32.835776596
 10
4.2854209623
 20
-32.8356533116
  0
LINE
  5
2EE
100
AcDbEntity
  8
SCRITTE
100
AcDbLine
 62
253
  6
CONTINUOUS
 10
-1.330068
 20
-32.1031483869
 11
-0.644487
 21
-33.9313023869
  0
LINE
  5
2EF
100
AcDbEntity
  8
SCRITTE
100
AcDbLine
 62
253
  6
CONTINUOUS
 10
-0.600314
 20
-32.6860033869
 11
-1.17855
 21
-31.1315993869
  0
LINE
  5
2F0
100
AcDbEntity
  8
SCRITTE
100
AcDbLine
 62
253
  6
CONTINUOUS
 10
3.218408
 20
-33.9313023869
 11
2.35939
 21
-31.1315993869
  0
LINE
  5
2F1
100
AcDbEntity
  8
SCRITTE
100
AcDbLine
 62
253
  6
CONTINUOUS
 10
-4.265146
 20
-33.0587213869
 11
-4.79882
 21
-31.1315993869
  0
LINE
  5
2F2
100
AcDbEntity
  8
SCRITTE
100
AcDbLine
 62
253
  6
CONTINUOUS
 10
2.451074
 20
-33.3723823869
 11
2.602466
 21
-33.9313023869
  0
LINE
  5
2F3
100
AcDbEntity
  8
SCRITTE
100
AcDbLine
 62
253
  6
CONTINUOUS
 10
0.824112
 20
-33.9313023869
 11
0.562308
 21
-31.1315993869
  0
LINE
  5
2F4
100
AcDbEntity
  8
SCRITTE
100
AcDbLine
 62
253
  6
CONTINUOUS
 10
0.132337
 20
-32.1107703869
 11
0.252406
 21
-33.9313023869
  0
LINE
  5
2F5
100
AcDbEntity
  8
SCRITTE
100
AcDbLine
 62
253
  6
CONTINUOUS
 10
-2.914285
 20
-33.9313023869
 11
-2.914285
 21
-31.1314313126
  0
LINE
  5
2F6
100
AcDbEntity
  8
SCRITTE
100
AcDbLine
 62
253
  6
CONTINUOUS
 10
-2.329877
 20
-31.1314313869
 11
-2.329877
 21
-33.9313024611
  0
LINE
  5
2F7
100
AcDbEntity
  8
SCRITTE
100
AcDbLine
 62
253
  6
CONTINUOUS
 10
-1.456183
 20
-33.9313023869
 11
-1.330068
 21
-32.1031483869
  0
LWPOLYLINE
  5
2F8
100
AcDbEntity
  8
SCRITTE
100
AcDbPolyline
 62
253
  6
CONTINUOUS
 90
8
 70
0
 10
4.6974028235
 20
-33.3448538512
 10
4.6858324825
 20
-33.3058732938
 10
4.6740954546
 20
-33.2673511
 10
4.6621492889
 20
-33.2293046346
 10
4.6499515344
 20
-33.1917512623
 10
4.6374597402
 20
-33.1547083478
 10
4.6246314552
 20
-33.1181932559
 10
4.6114242287
 20
-33.0822233514
  0
LINE
  5
2F9
100
AcDbEntity
  8
SCRITTE
100
AcDbLine
 62
253
  6
CONTINUOUS
 10
4.8520670503
 20
-33.8795957935
 11
4.778736227
 21
-33.6290366748
  0
LINE
  5
2FA
100
AcDbEntity
  8
SCRITTE
100
AcDbLine
 62
253
  6
CONTINUOUS
 10
4.8670156219
 20
-33.9313027413
 11
4.8520670503
 21
-33.8795957935
  0
LWPOLYLINE
  5
2FB
100
AcDbEntity
  8
SCRITTE
100
AcDbPolyline
 62
253
  6
CONTINUOUS
 90
4
 70
0
 10
4.778736227
 20
-33.6290366748
 10
4.7374239071
 20
-33.484626534
 10
4.724057085
 20
-33.4374880814
 10
4.6974028235
 20
-33.3448538512
  0
LINE
  5
2FC
100
AcDbEntity
  8
SCRITTE
100
AcDbLine
 62
253
  6
CONTINUOUS
 10
5.2107662542
 20
-33.1051335729
 11
5.2645092932
 21
-33.3040929279
  0
LINE
  5
2FD
100
AcDbEntity
  8
SCRITTE
100
AcDbLine
 62
253
  6
CONTINUOUS
 10
5.3966673895
 20
-33.8093959881
 11
5.4291482119
 21
-33.9313027413
  0
LINE
  5
2FE
100
AcDbEntity
  8
SCRITTE
100
AcDbLine
 62
253
  6
CONTINUOUS
 10
5.2645092932
 20
-33.3040929279
 11
5.3318093475
 21
-33.5601357548
  0
LINE
  5
2FF
100
AcDbEntity
  8
SCRITTE
100
AcDbLine
 62
253
  6
CONTINUOUS
 10
5.3318093475
 20
-33.5601357548
 11
5.3966673895
 21
-33.8093959881
  0
LINE
  5
300
100
AcDbEntity
  8
SCRITTE
100
AcDbLine
 62
253
  6
CONTINUOUS
 10
2.065737
 20
-31.9008863869
 11
2.33428
 21
-32.9398923869
  0
LWPOLYLINE
  5
301
100
AcDbEntity
  8
SCRITTE
100
AcDbPolyline
 62
253
  6
CONTINUOUS
 90
49
 70
0
 10
4.740655522
 20
-31.9425175939
 10
4.7403446749
 20
-31.9320164581
 10
4.7397141894
 20
-31.9215729554
 10
4.7387671915
 20
-31.9111832641
 10
4.7375068075
 20
-31.900843562
 10
4.7359361636
 20
-31.8905500271
 10
4.7340583858
 20
-31.8802988376
 10
4.7318766004
 20
-31.8700861714
 10
4.7293939336
 20
-31.8599082065
 10
4.7266129832
 20
-31.8497636437
 10
4.7235342337
 20
-31.8396612751
 10
4.7201576413
 20
-31.8296124154
 10
4.7164831623
 20
-31.8196283795
 10
4.7125107528
 20
-31.8097204821
 10
4.708240369
 20
-31.7999000381
 10
4.7036719672
 20
-31.7901783623
 10
4.6988055035
 20
-31.7805667694
 10
4.6936409138
 20
-31.7710770752
 10
4.6881780517
 20
-31.7617230988
 10
4.6824167507
 20
-31.75251916
 10
4.6763568442
 20
-31.7434795789
 10
4.6699981655
 20
-31.7346186754
 10
4.6633405479
 20
-31.7259507696
 10
4.6563838248
 20
-31.7174901813
 10
4.6491278295
 20
-31.7092512305
 10
4.6415743525
 20
-31.7012467664
 10
4.6337330116
 20
-31.6934837555
 10
4.6256153819
 20
-31.6859676935
 10
4.6172330383
 20
-31.678704076
 10
4.6085975559
 20
-31.6716983988
 10
4.5997205095
 20
-31.6649561574
 10
4.5906134741
 20
-31.6584828477
 10
4.5812880248
 20
-31.6522839652
 10
4.5717557512
 20
-31.6463642561
 10
4.5620283022
 20
-31.6407254679
 10
4.5521173414
 20
-31.6353685985
 10
4.5420345323
 20
-31.6302946459
 10
4.5317915386
 20
-31.6255046081
 10
4.5214000239
 20
-31.6209994829
 10
4.5108716518
 20
-31.6167802683
 10
4.5002180858
 20
-31.6128479623
 10
4.4894483162
 20
-31.6092040231
 10
4.4785606395
 20
-31.6058517499
 10
4.467550679
 20
-31.6027949024
 10
4.4564140577
 20
-31.6000372402
 10
4.4451463988
 20
-31.5975825228
 10
4.4337433256
 20
-31.5954345098
 10
4.4222004612
 20
-31.5935969609
 10
4.4105134288
 20
-31.5920736355
  0
LINE
  5
302
100
AcDbEntity
  8
SCRITTE
100
AcDbLine
 62
253
  6
CONTINUOUS
 10
3.3900188023
 20
-33.9313027413
 11
3.3900188023
 21
-31.1643088513
  0
LINE
  5
303
100
AcDbEntity
  8
SCRITTE
100
AcDbLine
 62
253
  6
CONTINUOUS
 10
3.9526972541
 20
-31.6085561828
 11
3.9526972541
 21
-32.3771295012
  0
LINE
  5
304
100
AcDbEntity
  8
SCRITTE
100
AcDbLine
 62
253
  6
CONTINUOUS
 10
3.9720753449
 20
-32.8356533116
 11
3.9720753449
 21
-33.9313027291
  0
LINE
  5
305
100
AcDbEntity
  8
SCRITTE
100
AcDbLine
 62
253
  6
CONTINUOUS
 10
4.8925031649
 20
-32.6078820149
 11
4.8925031649
 21
-32.6244258242
  0
LINE
  5
306
100
AcDbEntity
  8
SCRITTE
100
AcDbLine
 62
253
  6
CONTINUOUS
 10
-1.762475
 20
-31.1315993869
 11
-2.015272
 21
-33.9313023869
  0
LINE
  5
307
100
AcDbEntity
  8
SCRITTE
100
AcDbLine
 62
253
  6
CONTINUOUS
 10
-3.715169
 20
-31.1315993869
 11
-4.265146
 21
-33.0587213869
  0
LINE
  5
308
100
AcDbEntity
  8
SCRITTE
100
AcDbLine
 62
253
  6
CONTINUOUS
 10
-4.031097
 20
-33.9313023869
 11
-3.13116
 21
-31.1315993869
  0
LWPOLYLINE
  5
309
100
AcDbEntity
  8
RACCORDO
100
AcDbPolyline
 62
253
  6
CONTINUOUS
 90
15
 70
0
 10
56.9147587475
 20
17.5041777695
 10
56.8767881103
 20
17.4937152714
 10
56.8402308904
 20
17.4834498398
 10
56.805347441
 20
17.4734545831
 10
56.7723861954
 20
17.4638006855
 10
56.741581897
 20
17.4545569001
 10
56.7131539281
 20
17.4457890595
 10
56.6873047471
 20
17.4375596064
 10
56.6642184468
 20
17.4299271493
 10
56.6440594434
 20
17.4229460452
 10
56.6269713054
 20
17.4166660121
 10
56.613075731
 20
17.411131775
 10
56.602471682
 20
17.4063827479
 10
56.5952346782
 20
17.4024527522
 10
56.5914162602
 20
17.3993697767
  0
LWPOLYLINE
  5
30A
100
AcDbEntity
  8
ASSI
100
AcDbPolyline
 62
253
  6
CONTINUOUS
 90
15
 70
0
 10
56.9147587475
 20
17.5041777695
 10
56.8767881103
 20
17.4937152714
 10
56.8402308904
 20
17.4834498398
 10
56.805347441
 20
17.4734545831
 10
56.7723861954
 20
17.4638006855
 10
56.741581897
 20
17.4545569001
 10
56.7131539281
 20
17.4457890595
 10
56.6873047471
 20
17.4375596064
 10
56.6642184468
 20
17.4299271493
 10
56.6440594434
 20
17.4229460452
 10
56.6269713054
 20
17.4166660121
 10
56.613075731
 20
17.411131775
 10
56.602471682
 20
17.4063827479
 10
56.5952346782
 20
17.4024527522
 10
56.5914162602
 20
17.3993697767
  0
LINE
  5
30B
100
AcDbEntity
  8
RACCORDO
100
AcDbLine
 62
253
  6
CONTINUOUS
 10
56.9938504555
 20
17.5253950449
 11
56.9147587475
 21
17.5041777695
  0
LINE
  5
30C
100
AcDbEntity
  8
ASSI
100
AcDbLine
 62
253
  6
CONTINUOUS
 10
56.9938504555
 20
17.5253950449
 11
56.9147587475
 21
17.5041777695
  0
LINE
  5
30D
100
AcDbEntity
  8
RACCORDO
100
AcDbLine
 62
253
  6
CONTINUOUS
 10
57.075256923
 20
17.546498321
 11
56.9938504555
 21
17.5253950449
  0
LINE
  5
30E
100
AcDbEntity
  8
ASSI
100
AcDbLine
 62
253
  6
CONTINUOUS
 10
57.075256923
 20
17.546498321
 11
56.9938504555
 21
17.5253950449
  0
LINE
  5
30F
100
AcDbEntity
  8
RACCORDO
100
AcDbLine
 62
253
  6
CONTINUOUS
 10
-57.075256923
 20
17.5464982903
 11
-56.9938504409
 21
17.5253950143
  0
LINE
  5
310
100
AcDbEntity
  8
ASSI
100
AcDbLine
 62
253
  6
CONTINUOUS
 10
-57.075256923
 20
17.5464982903
 11
-56.9938504409
 21
17.5253950143
  0
LWPOLYLINE
  5
311
100
AcDbEntity
  8
RACCORDO
100
AcDbPolyline
 62
253
  6
CONTINUOUS
 90
16
 70
0
 10
-56.9938504409
 20
17.5253950143
 10
-56.9147587001
 20
17.5041777344
 10
-56.8767880412
 20
17.4937152328
 10
-56.8402307971
 20
17.483449797
 10
-56.8053473216
 20
17.4734545355
 10
-56.7723860487
 20
17.4638006329
 10
-56.7415817226
 20
17.4545568423
 10
-56.713153726
 20
17.4457889964
 10
-56.687304518
 20
17.4375595382
 10
-56.664218192
 20
17.4299270763
 10
-56.6440591646
 20
17.4229459677
 10
-56.6269710047
 20
17.4166659306
 10
-56.6130754113
 20
17.4111316902
 10
-56.602471346
 20
17.4063826604
 10
-56.5952343293
 20
17.4024526628
 10
-56.5914159017
 20
17.3993696862
  0
LWPOLYLINE
  5
312
100
AcDbEntity
  8
ASSI
100
AcDbPolyline
 62
253
  6
CONTINUOUS
 90
16
 70
0
 10
-56.9938504409
 20
17.5253950143
 10
-56.9147587001
 20
17.5041777344
 10
-56.8767880412
 20
17.4937152328
 10
-56.8402307971
 20
17.483449797
 10
-56.8053473216
 20
17.4734545355
 10
-56.7723860487
 20
17.4638006329
 10
-56.7415817226
 20
17.4545568423
 10
-56.713153726
 20
17.4457889964
 10
-56.687304518
 20
17.4375595382
 10
-56.664218192
 20
17.4299270763
 10
-56.6440591646
 20
17.4229459677
 10
-56.6269710047
 20
17.4166659306
 10
-56.6130754113
 20
17.4111316902
 10
-56.602471346
 20
17.4063826604
 10
-56.5952343293
 20
17.4024526628
 10
-56.5914159017
 20
17.3993696862
  0
LINE
  5
313
100
AcDbEntity
  8
SCRITTE
100
AcDbLine
 62
253
  6
CONTINUOUS
 10
1.774751
 20
-32.9398923869
 11
2.065737
 21
-31.9008863869
  0
LINE
  5
314
100
AcDbEntity
  8
SCRITTE
100
AcDbLine
 62
253
  6
CONTINUOUS
 10
1.493947
 20
-33.9313023869
 11
1.655207
 21
-33.3723823869
  0
LINE
  5
315
100
AcDbEntity
  8
SCRITTE
100
AcDbLine
 62
253
  6
CONTINUOUS
 10
1.794045
 20
-31.1315993869
 11
0.91588
 21
-33.9313023869
  0
LINE
  5
316
100
AcDbEntity
  8
SCRITTE
100
AcDbLine
 62
253
  6
CONTINUOUS
 10
-0.015906
 20
-31.1315993869
 11
-0.600314
 21
-32.6860033869
  0
LINE
  5
317
100
AcDbEntity
  8
SCRITTE
100
AcDbLine
 62
253
  6
CONTINUOUS
 10
-0.562524
 20
-33.9313023869
 11
0.132337
 21
-32.1107703869
  0
LWPOLYLINE
  5
318
100
AcDbEntity
  8
RACCORDO
100
AcDbPolyline
 62
7
  6
CONTINUOUS
 90
22
 70
0
 10
-56.1494952776
 20
17.6464986131
 10
-56.1796269177
 20
17.6453307696
 10
-56.209253171
 20
17.6420111324
 10
-56.2383740375
 20
17.6365396991
 10
-56.2671219346
 20
17.6288768432
 10
-56.295364445
 20
17.6190621816
 10
-56.3227043167
 20
17.6072145753
 10
-56.3491572833
 20
17.5933005733
 10
-56.3747076112
 20
17.5773536086
 10
-56.3989108484
 20
17.5595928676
 10
-56.4217751036
 20
17.5399367317
 10
-56.4432922681
 20
17.5184667962
 10
-56.4629935639
 20
17.49564707
 10
-56.4808002827
 20
17.4714732138
 10
-56.4967911326
 20
17.4459495457
 10
-56.5107334604
 20
17.4195530674
 10
-56.5225831646
 20
17.392322135
 10
-56.5323843466
 20
17.3642183771
 10
-56.5400366569
 20
17.3356037112
 10
-56.5455066456
 20
17.306598775
 10
-56.5488277626
 20
17.277082922
 10
-56.5500000078
 20
17.2470561474
  0
LWPOLYLINE
  5
319
100
AcDbEntity
  8
ASSI
100
AcDbPolyline
 62
7
  6
CONTINUOUS
 90
22
 70
0
 10
-56.1494952776
 20
17.6464986131
 10
-56.1796269177
 20
17.6453307696
 10
-56.209253171
 20
17.6420111324
 10
-56.2383740375
 20
17.6365396991
 10
-56.2671219346
 20
17.6288768432
 10
-56.295364445
 20
17.6190621816
 10
-56.3227043167
 20
17.6072145753
 10
-56.3491572833
 20
17.5933005733
 10
-56.3747076112
 20
17.5773536086
 10
-56.3989108484
 20
17.5595928676
 10
-56.4217751036
 20
17.5399367317
 10
-56.4432922681
 20
17.5184667962
 10
-56.4629935639
 20
17.49564707
 10
-56.4808002827
 20
17.4714732138
 10
-56.4967911326
 20
17.4459495457
 10
-56.5107334604
 20
17.4195530674
 10
-56.5225831646
 20
17.392322135
 10
-56.5323843466
 20
17.3642183771
 10
-56.5400366569
 20
17.3356037112
 10
-56.5455066456
 20
17.306598775
 10
-56.5488277626
 20
17.277082922
 10
-56.5500000078
 20
17.2470561474
  0
LWPOLYLINE
  5
31A
100
AcDbEntity
  8
RACCORDO
100
AcDbPolyline
 62
253
  6
CONTINUOUS
 90
16
 70
0
 10
56.9779759784
 20
17.3235281984
 10
56.9376358437
 20
17.3229183423
 10
56.8984728184
 20
17.3221416306
 10
56.8607654052
 20
17.3212035867
 10
56.8247817556
 20
17.3201108814
 10
56.7907777628
 20
17.3188712853
 10
56.758995242
 20
17.3174936136
 10
56.7296602104
 20
17.3159876636
 10
56.7029812804
 20
17.3143641445
 10
56.6791481759
 20
17.3126346018
 10
56.658330383
 20
17.3108113349
 10
56.6406759447
 20
17.3089073098
 10
56.6263104084
 20
17.3069360668
 10
56.6153359327
 20
17.3049116239
 10
56.6078305613
 20
17.3028483779
 10
56.6038476676
 20
17.3007610012
  0
LWPOLYLINE
  5
31B
100
AcDbEntity
  8
ASSI
100
AcDbPolyline
 62
253
  6
CONTINUOUS
 90
16
 70
0
 10
56.9779759784
 20
17.3235281984
 10
56.9376358437
 20
17.3229183423
 10
56.8984728184
 20
17.3221416306
 10
56.8607654052
 20
17.3212035867
 10
56.8247817556
 20
17.3201108814
 10
56.7907777628
 20
17.3188712853
 10
56.758995242
 20
17.3174936136
 10
56.7296602104
 20
17.3159876636
 10
56.7029812804
 20
17.3143641445
 10
56.6791481759
 20
17.3126346018
 10
56.658330383
 20
17.3108113349
 10
56.6406759447
 20
17.3089073098
 10
56.6263104084
 20
17.3069360668
 10
56.6153359327
 20
17.3049116239
 10
56.6078305613
 20
17.3028483779
 10
56.6038476676
 20
17.3007610012
  0
LWPOLYLINE
  5
31C
100
AcDbEntity
  8
RACCORDO
100
AcDbPolyline
 62
253
  6
CONTINUOUS
 90
3
 70
0
 10
-77.0153294006
 20
17.4832189133
 10
-76.9341260802
 20
17.4838943912
 10
-76.8929665926
 20
17.4839788806
  0
LWPOLYLINE
  5
31D
100
AcDbEntity
  8
ASSI
100
AcDbPolyline
 62
253
  6
CONTINUOUS
 90
3
 70
0
 10
-77.0153294006
 20
17.4832189133
 10
-76.9341260802
 20
17.4838943912
 10
-76.8929665926
 20
17.4839788806
  0
LINE
  5
31E
100
AcDbEntity
  8
RACCORDO
100
AcDbLine
 62
253
  6
CONTINUOUS
 10
-77.0153278514
 20
17.5457390745
 11
-76.9341246211
 21
17.5464147414
  0
LINE
  5
31F
100
AcDbEntity
  8
ASSI
100
AcDbLine
 62
253
  6
CONTINUOUS
 10
-77.0153278514
 20
17.5457390745
 11
-76.9341246211
 21
17.5464147414
  0
LWPOLYLINE
  5
320
100
AcDbEntity
  8
RACCORDO
100
AcDbPolyline
 62
253
  6
CONTINUOUS
 90
3
 70
0
 10
57.1031607314
 20
17.3243193725
 10
57.0610337496
 20
17.3242312132
 10
56.9779759784
 20
17.3235281984
  0
LWPOLYLINE
  5
321
100
AcDbEntity
  8
ASSI
100
AcDbPolyline
 62
253
  6
CONTINUOUS
 90
3
 70
0
 10
57.1031607314
 20
17.3243193725
 10
57.0610337496
 20
17.3242312132
 10
56.9779759784
 20
17.3235281984
  0
LINE
  5
322
100
AcDbEntity
  8
RACCORDO
100
AcDbLine
 62
253
  6
CONTINUOUS
 10
77.5
 20
17.4611208354
 11
77.3910591581
 21
17.4611208354
  0
LINE
  5
323
100
AcDbEntity
  8
ASSI
100
AcDbLine
 62
253
  6
CONTINUOUS
 10
77.5
 20
17.4611208354
 11
77.3910591581
 21
17.4611208354
  0
LINE
  5
324
100
AcDbEntity
  8
RACCORDO
100
AcDbLine
 62
253
  6
CONTINUOUS
 10
-77.5
 20
17.4611208354
 11
-77.391059158
 21
17.4611285591
  0
LINE
  5
325
100
AcDbEntity
  8
ASSI
100
AcDbLine
 62
253
  6
CONTINUOUS
 10
-77.5
 20
17.4611208354
 11
-77.391059158
 21
17.4611285591
  0
LINE
  5
326
100
AcDbEntity
  8
RACCORDO
100
AcDbLine
 62
253
  6
CONTINUOUS
 10
-57.0752569231
 20
17.5464986131
 11
-76.9341246211
 21
17.5464147414
  0
LINE
  5
327
100
AcDbEntity
  8
ASSI
100
AcDbLine
 62
253
  6
CONTINUOUS
 10
-57.0752569231
 20
17.5464986131
 11
-76.9341246211
 21
17.5464147414
  0
LINE
  5
328
100
AcDbEntity
  8
RACCORDO
100
AcDbLine
 62
7
  6
CONTINUOUS
 10
56.1494952776
 20
17.6464986131
 11
-56.1494952776
 21
17.6464986131
  0
LINE
  5
329
100
AcDbEntity
  8
ASSI
100
AcDbLine
 62
7
  6
CONTINUOUS
 10
56.1494952776
 20
17.6464986131
 11
-56.1494952776
 21
17.6464986131
  0
LINE
  5
32A
100
AcDbEntity
  8
RACCORDO
100
AcDbLine
 62
253
  6
CONTINUOUS
 10
-56.2019510493
 20
17.6988201755
 11
56.2019510527
 21
17.6988201755
  0
LINE
  5
32B
100
AcDbEntity
  8
ASSI
100
AcDbLine
 62
253
  6
CONTINUOUS
 10
-56.2019510493
 20
17.6988201755
 11
56.2019510527
 21
17.6988201755
  0
LINE
  5
32C
100
AcDbEntity
  8
RACCORDO
100
AcDbLine
 62
253
  6
CONTINUOUS
 10
-56.201953503
 20
18.2252647494
 11
56.201953503
 21
18.2252647494
  0
LINE
  5
32D
100
AcDbEntity
  8
ASSI
100
AcDbLine
 62
253
  6
CONTINUOUS
 10
-56.201953503
 20
18.2252647494
 11
56.201953503
 21
18.2252647494
  0
LINE
  5
32E
100
AcDbEntity
  8
RACCORDO
100
AcDbLine
 62
253
  6
CONTINUOUS
 10
76.9341246225
 20
17.5464147427
 11
57.075256923
 21
17.5464986131
  0
LINE
  5
32F
100
AcDbEntity
  8
ASSI
100
AcDbLine
 62
253
  6
CONTINUOUS
 10
76.9341246225
 20
17.5464147427
 11
57.075256923
 21
17.5464986131
  0
LWPOLYLINE
  5
330
100
AcDbEntity
  8
RACCORDO
100
AcDbPolyline
 62
253
  6
CONTINUOUS
 90
18
 70
0
 10
-57.1031607314
 20
17.3243194095
 10
-57.0192063672
 20
17.3239668923
 10
-56.9779760126
 20
17.3235282257
 10
-56.9376358969
 20
17.3229183667
 10
-56.8984728931
 20
17.3221416522
 10
-56.8607655034
 20
17.3212036057
 10
-56.8247818787
 20
17.3201108979
 10
-56.7907779115
 20
17.3188712995
 10
-56.7589954162
 20
17.3174936258
 10
-56.7296604097
 20
17.3159876737
 10
-56.7029815037
 20
17.3143641529
 10
-56.6791484215
 20
17.3126346085
 10
-56.6583306488
 20
17.3108113401
 10
-56.6406762282
 20
17.3089073137
 10
-56.6263107068
 20
17.3069360693
 10
-56.6153362428
 20
17.3049116253
 10
-56.6078308796
 20
17.3028483781
 10
-56.6038479907
 20
17.3007610004
  0
LWPOLYLINE
  5
331
100
AcDbEntity
  8
ASSI
100
AcDbPolyline
 62
253
  6
CONTINUOUS
 90
18
 70
0
 10
-57.1031607314
 20
17.3243194095
 10
-57.0192063672
 20
17.3239668923
 10
-56.9779760126
 20
17.3235282257
 10
-56.9376358969
 20
17.3229183667
 10
-56.8984728931
 20
17.3221416522
 10
-56.8607655034
 20
17.3212036057
 10
-56.8247818787
 20
17.3201108979
 10
-56.7907779115
 20
17.3188712995
 10
-56.7589954162
 20
17.3174936258
 10
-56.7296604097
 20
17.3159876737
 10
-56.7029815037
 20
17.3143641529
 10
-56.6791484215
 20
17.3126346085
 10
-56.6583306488
 20
17.3108113401
 10
-56.6406762282
 20
17.3089073137
 10
-56.6263107068
 20
17.3069360693
 10
-56.6153362428
 20
17.3049116253
 10
-56.6078308796
 20
17.3028483781
 10
-56.6038479907
 20
17.3007610004
  0
LWPOLYLINE
  5
332
100
AcDbEntity
  8
RACCORDO
100
AcDbPolyline
 62
253
  6
CONTINUOUS
 90
25
 70
0
 10
56.2019510443
 20
17.6988201671
 10
56.2240986242
 20
17.6982898086
 10
56.2461652264
 20
17.6965481535
 10
56.2680844732
 20
17.6936030571
 10
56.2897862935
 20
17.6894674734
 10
56.3112102539
 20
17.6841554964
 10
56.3323050965
 20
17.6776797139
 10
56.3530111615
 20
17.6700583505
 10
56.3732621949
 20
17.6613157215
 10
56.3929980392
 20
17.6514760488
 10
56.4121602754
 20
17.6405681615
 10
56.4306896485
 20
17.6286255207
 10
56.4485272785
 20
17.6156840693
 10
56.4656191711
 20
17.6017831131
 10
56.4819137935
 20
17.5869648386
 10
56.4973596412
 20
17.5712743309
 10
56.5119091343
 20
17.5547605304
 10
56.5255195984
 20
17.5374726982
 10
56.5381507141
 20
17.5194600167
 10
56.5497651032
 20
17.5007749163
 10
56.5603259908
 20
17.4814759432
 10
56.5697987103
 20
17.4616245411
 10
56.5781541063
 20
17.441282161
 10
56.585367969
 20
17.4205097261
 10
56.5914186775
 20
17.3993703863
  0
LWPOLYLINE
  5
333
100
AcDbEntity
  8
ASSI
100
AcDbPolyline
 62
253
  6
CONTINUOUS
 90
25
 70
0
 10
56.2019510443
 20
17.6988201671
 10
56.2240986242
 20
17.6982898086
 10
56.2461652264
 20
17.6965481535
 10
56.2680844732
 20
17.6936030571
 10
56.2897862935
 20
17.6894674734
 10
56.3112102539
 20
17.6841554964
 10
56.3323050965
 20
17.6776797139
 10
56.3530111615
 20
17.6700583505
 10
56.3732621949
 20
17.6613157215
 10
56.3929980392
 20
17.6514760488
 10
56.4121602754
 20
17.6405681615
 10
56.4306896485
 20
17.6286255207
 10
56.4485272785
 20
17.6156840693
 10
56.4656191711
 20
17.6017831131
 10
56.4819137935
 20
17.5869648386
 10
56.4973596412
 20
17.5712743309
 10
56.5119091343
 20
17.5547605304
 10
56.5255195984
 20
17.5374726982
 10
56.5381507141
 20
17.5194600167
 10
56.5497651032
 20
17.5007749163
 10
56.5603259908
 20
17.4814759432
 10
56.5697987103
 20
17.4616245411
 10
56.5781541063
 20
17.441282161
 10
56.585367969
 20
17.4205097261
 10
56.5914186775
 20
17.3993703863
  0
LWPOLYLINE
  5
334
100
AcDbEntity
  8
RACCORDO
100
AcDbPolyline
 62
253
  6
CONTINUOUS
 90
25
 70
0
 10
56.201953503
 20
18.2252647494
 10
56.2518569921
 20
18.2238520486
 10
56.3012859182
 20
18.219756101
 10
56.3502402811
 20
18.2129768958
 10
56.3988536613
 20
18.2034792551
 10
56.4469924784
 20
18.1912983143
 10
56.4942559912
 20
18.1765395238
 10
56.5406464256
 20
18.1591805068
 10
56.5861615558
 20
18.1392435602
 10
56.6303939633
 20
18.1169011401
 10
56.6733370503
 20
18.0921285071
 10
56.7149974146
 20
18.0649502924
 10
56.7549874324
 20
18.0356130099
 10
56.7932914875
 20
18.004094398
 10
56.829925196
 20
17.9704165948
 10
56.8645477823
 20
17.9348927238
 10
56.897135643
 20
17.8975110268
 10
56.9277123814
 20
17.8582831387
 10
56.9560080329
 20
17.8175572908
 10
56.9820097299
 20
17.7752991673
 10
57.0057303398
 20
17.7315429729
 10
57.0269385004
 20
17.6867397486
 10
57.0455570907
 20
17.6410398228
 10
57.0616632316
 20
17.5942927912
 10
57.075256923
 20
17.5464986131
  0
LWPOLYLINE
  5
335
100
AcDbEntity
  8
ASSI
100
AcDbPolyline
 62
253
  6
CONTINUOUS
 90
25
 70
0
 10
56.201953503
 20
18.2252647494
 10
56.2518569921
 20
18.2238520486
 10
56.3012859182
 20
18.219756101
 10
56.3502402811
 20
18.2129768958
 10
56.3988536613
 20
18.2034792551
 10
56.4469924784
 20
18.1912983143
 10
56.4942559912
 20
18.1765395238
 10
56.5406464256
 20
18.1591805068
 10
56.5861615558
 20
18.1392435602
 10
56.6303939633
 20
18.1169011401
 10
56.6733370503
 20
18.0921285071
 10
56.7149974146
 20
18.0649502924
 10
56.7549874324
 20
18.0356130099
 10
56.7932914875
 20
18.004094398
 10
56.829925196
 20
17.9704165948
 10
56.8645477823
 20
17.9348927238
 10
56.897135643
 20
17.8975110268
 10
56.9277123814
 20
17.8582831387
 10
56.9560080329
 20
17.8175572908
 10
56.9820097299
 20
17.7752991673
 10
57.0057303398
 20
17.7315429729
 10
57.0269385004
 20
17.6867397486
 10
57.0455570907
 20
17.6410398228
 10
57.0616632316
 20
17.5942927912
 10
57.075256923
 20
17.5464986131
  0
LINE
  5
336
100
AcDbEntity
  8
RACCORDO
100
AcDbLine
 62
253
  6
CONTINUOUS
 10
56.2019508277
 20
-27.8058229492
 11
56.1494952776
 21
-27.7535013869
  0
LINE
  5
337
100
AcDbEntity
  8
ASSI
100
AcDbLine
 62
253
  6
CONTINUOUS
 10
56.2019508277
 20
-27.8058229492
 11
56.1494952776
 21
-27.7535013869
  0
LINE
  5
338
100
AcDbEntity
  8
RACCORDO
100
AcDbLine
 62
253
  6
CONTINUOUS
 10
56.6038476715
 20
-27.4077705652
 11
56.5500000078
 21
-27.3540589211
  0
LINE
  5
339
100
AcDbEntity
  8
ASSI
100
AcDbLine
 62
253
  6
CONTINUOUS
 10
56.6038476715
 20
-27.4077705652
 11
56.5500000078
 21
-27.3540589211
  0
LINE
  5
33A
100
AcDbEntity
  8
RACCORDO
100
AcDbLine
 62
253
  6
CONTINUOUS
 10
76.5971848203
 20
-49.9328360141
 11
76.7157627907
 21
-50.0533460808
  0
LINE
  5
33B
100
AcDbEntity
  8
ASSI
100
AcDbLine
 62
253
  6
CONTINUOUS
 10
76.5971848203
 20
-49.9328360141
 11
76.7157627907
 21
-50.0533460808
  0
LINE
  5
33C
100
AcDbEntity
  8
RACCORDO
100
AcDbLine
 62
253
  6
CONTINUOUS
 10
77.3893468268
 20
-49.1438584023
 11
77.4999972781
 21
-49.2563616035
  0
LINE
  5
33D
100
AcDbEntity
  8
ASSI
100
AcDbLine
 62
253
  6
CONTINUOUS
 10
77.3893468268
 20
-49.1438584023
 11
77.4999972781
 21
-49.2563616035
  0
LINE
  5
33E
100
AcDbEntity
  8
RACCORDO
100
AcDbLine
 62
253
  6
CONTINUOUS
 10
77.3893468268
 20
39.0368556285
 11
77.4999972781
 21
39.1493588298
  0
LINE
  5
33F
100
AcDbEntity
  8
ASSI
100
AcDbLine
 62
253
  6
CONTINUOUS
 10
77.3893468268
 20
39.0368556285
 11
77.4999972781
 21
39.1493588298
  0
LINE
  5
340
100
AcDbEntity
  8
RACCORDO
100
AcDbLine
 62
253
  6
CONTINUOUS
 10
76.5971848203
 20
39.8258332403
 11
76.7157627907
 21
39.9463433071
  0
LINE
  5
341
100
AcDbEntity
  8
ASSI
100
AcDbLine
 62
253
  6
CONTINUOUS
 10
76.5971848203
 20
39.8258332403
 11
76.7157627907
 21
39.9463433071
  0
LINE
  5
342
100
AcDbEntity
  8
RACCORDO
100
AcDbLine
 62
253
  6
CONTINUOUS
 10
56.5500000078
 20
17.2470561474
 11
56.6038476724
 21
17.3007692632
  0
LINE
  5
343
100
AcDbEntity
  8
ASSI
100
AcDbLine
 62
253
  6
CONTINUOUS
 10
56.5500000078
 20
17.2470561474
 11
56.6038476724
 21
17.3007692632
  0
LINE
  5
344
100
AcDbEntity
  8
RACCORDO
100
AcDbLine
 62
253
  6
CONTINUOUS
 10
56.1494952776
 20
17.6464986131
 11
56.2019510527
 21
17.6988201755
  0
LINE
  5
345
100
AcDbEntity
  8
ASSI
100
AcDbLine
 62
253
  6
CONTINUOUS
 10
56.1494952776
 20
17.6464986131
 11
56.2019510527
 21
17.6988201755
  0
LINE
  5
346
100
AcDbEntity
  8
RACCORDO
100
AcDbLine
 62
253
  6
CONTINUOUS
 10
-76.5971848203
 20
39.4178939789
 11
76.5971848203
 21
39.4178939789
  0
LINE
  5
347
100
AcDbEntity
  8
ASSI
100
AcDbLine
 62
253
  6
CONTINUOUS
 10
-76.5971848203
 20
39.4178939789
 11
76.5971848203
 21
39.4178939789
  0
LINE
  5
348
100
AcDbEntity
  8
RACCORDO
100
AcDbLine
 62
253
  6
CONTINUOUS
 10
-76.5971848203
 20
39.8258332403
 11
76.5971848203
 21
39.8258332403
  0
LINE
  5
349
100
AcDbEntity
  8
ASSI
100
AcDbLine
 62
253
  6
CONTINUOUS
 10
-76.5971848203
 20
39.8258332403
 11
76.5971848203
 21
39.8258332403
  0
LINE
  5
34A
100
AcDbEntity
  8
RACCORDO
100
AcDbLine
 62
7
  6
CONTINUOUS
 10
-76.7
 20
39.9464986131
 11
76.7
 21
39.9464986131
  0
LINE
  5
34B
100
AcDbEntity
  8
ASSI
100
AcDbLine
 62
7
  6
CONTINUOUS
 10
-76.7
 20
39.9464986131
 11
76.7
 21
39.9464986131
  0
LWPOLYLINE
  5
34C
100
AcDbEntity
  8
RACCORDO
100
AcDbPolyline
 62
253
  6
CONTINUOUS
 90
28
 70
0
 10
76.5971848203
 20
39.4178939789
 10
76.6144345758
 20
39.4173829393
 10
76.6315011247
 20
39.4158866705
 10
76.648384467
 20
39.4134051676
 10
76.6651371339
 20
39.4099258057
 10
76.6817065941
 20
39.4054611902
 10
76.6979352543
 20
39.4000491571
 10
76.7138244584
 20
39.3936784526
 10
76.7293728625
 20
39.3863602934
 10
76.7444188411
 20
39.3781662196
 10
76.7589538663
 20
39.3690888092
 10
76.772986466
 20
39.3591354339
 10
76.7863805982
 20
39.3483998257
 10
76.7991317004
 20
39.3368729654
 10
76.811244335
 20
39.3245638143
 10
76.8225961476
 20
39.3115930808
 10
76.8331790102
 20
39.2979546197
 10
76.8430010508
 20
39.2836545179
 10
76.8519642987
 20
39.2688318411
 10
76.8600603825
 20
39.253481142
 10
76.8672976736
 20
39.237607816
 10
76.8736033157
 20
39.2213672065
 10
76.8789683612
 20
39.2047505304
 10
76.8834017578
 20
39.187766531
 10
76.8868574924
 20
39.1705968597
 10
76.8893202274
 20
39.1533020643
 10
76.8908053004
 20
39.1358215786
 10
76.8913127116
 20
39.1181553919
  0
LWPOLYLINE
  5
34D
100
AcDbEntity
  8
ASSI
100
AcDbPolyline
 62
253
  6
CONTINUOUS
 90
28
 70
0
 10
76.5971848203
 20
39.4178939789
 10
76.6144345758
 20
39.4173829393
 10
76.6315011247
 20
39.4158866705
 10
76.648384467
 20
39.4134051676
 10
76.6651371339
 20
39.4099258057
 10
76.6817065941
 20
39.4054611902
 10
76.6979352543
 20
39.4000491571
 10
76.7138244584
 20
39.3936784526
 10
76.7293728625
 20
39.3863602934
 10
76.7444188411
 20
39.3781662196
 10
76.7589538663
 20
39.3690888092
 10
76.772986466
 20
39.3591354339
 10
76.7863805982
 20
39.3483998257
 10
76.7991317004
 20
39.3368729654
 10
76.811244335
 20
39.3245638143
 10
76.8225961476
 20
39.3115930808
 10
76.8331790102
 20
39.2979546197
 10
76.8430010508
 20
39.2836545179
 10
76.8519642987
 20
39.2688318411
 10
76.8600603825
 20
39.253481142
 10
76.8672976736
 20
39.237607816
 10
76.8736033157
 20
39.2213672065
 10
76.8789683612
 20
39.2047505304
 10
76.8834017578
 20
39.187766531
 10
76.8868574924
 20
39.1705968597
 10
76.8893202274
 20
39.1533020643
 10
76.8908053004
 20
39.1358215786
 10
76.8913127116
 20
39.1181553919
  0
LWPOLYLINE
  5
34E
100
AcDbEntity
  8
RACCORDO
100
AcDbPolyline
 62
253
  6
CONTINUOUS
 90
28
 70
0
 10
76.5971848203
 20
39.8258332403
 10
76.6429103455
 20
39.8243027154
 10
76.6884351155
 20
39.8201447964
 10
76.7336108173
 20
39.8133780841
 10
76.7782720316
 20
39.8040341051
 10
76.8222931098
 20
39.792145713
 10
76.8655858553
 20
39.7777363822
 10
76.9080332824
 20
39.7608368104
 10
76.9494675951
 20
39.7415057979
 10
76.9897272962
 20
39.7198160095
 10
77.0286697293
 20
39.6958441732
 10
77.0661778027
 20
39.669662961
 10
77.1021357446
 20
39.6413531659
 10
77.1364252967
 20
39.6110040026
 10
77.1689309212
 20
39.5787143966
 10
77.1995476724
 20
39.5445882587
 10
77.228172335
 20
39.5087353332
 10
77.2547086799
 20
39.4712711255
 10
77.2790709398
 20
39.4323161765
 10
77.3011764527
 20
39.3919940097
 10
77.3209479997
 20
39.3504369431
 10
77.338318812
 20
39.3077855967
 10
77.3532274242
 20
39.2641812285
 10
77.3656226274
 20
39.2197631199
 10
77.3754645335
 20
39.1746738494
 10
77.3827175655
 20
39.1290596164
 10
77.3873516385
 20
39.0830700539
 10
77.3893468269
 20
39.0368556286
  0
LWPOLYLINE
  5
34F
100
AcDbEntity
  8
ASSI
100
AcDbPolyline
 62
253
  6
CONTINUOUS
 90
28
 70
0
 10
76.5971848203
 20
39.8258332403
 10
76.6429103455
 20
39.8243027154
 10
76.6884351155
 20
39.8201447964
 10
76.7336108173
 20
39.8133780841
 10
76.7782720316
 20
39.8040341051
 10
76.8222931098
 20
39.792145713
 10
76.8655858553
 20
39.7777363822
 10
76.9080332824
 20
39.7608368104
 10
76.9494675951
 20
39.7415057979
 10
76.9897272962
 20
39.7198160095
 10
77.0286697293
 20
39.6958441732
 10
77.0661778027
 20
39.669662961
 10
77.1021357446
 20
39.6413531659
 10
77.1364252967
 20
39.6110040026
 10
77.1689309212
 20
39.5787143966
 10
77.1995476724
 20
39.5445882587
 10
77.228172335
 20
39.5087353332
 10
77.2547086799
 20
39.4712711255
 10
77.2790709398
 20
39.4323161765
 10
77.3011764527
 20
39.3919940097
 10
77.3209479997
 20
39.3504369431
 10
77.338318812
 20
39.3077855967
 10
77.3532274242
 20
39.2641812285
 10
77.3656226274
 20
39.2197631199
 10
77.3754645335
 20
39.1746738494
 10
77.3827175655
 20
39.1290596164
 10
77.3873516385
 20
39.0830700539
 10
77.3893468269
 20
39.0368556286
  0
LWPOLYLINE
  5
350
100
AcDbEntity
  8
RACCORDO
100
AcDbPolyline
 62
253
  6
CONTINUOUS
 90
18
 70
0
 10
77.3910591576
 20
17.4611208354
 10
77.385776864
 20
17.4631668922
 10
77.3771494074
 20
17.465184186
 10
77.3652353506
 20
17.4671590235
 10
77.3501155652
 20
17.4690779997
 10
77.3318926835
 20
17.4709280886
 10
77.310690401
 20
17.4726967319
 10
77.2866526374
 20
17.4743719244
 10
77.2599425596
 20
17.4759422947
 10
77.2307414736
 20
17.4773971835
 10
77.1992475944
 20
17.478726715
 10
77.1656747005
 20
17.4799218644
 10
77.1302506823
 20
17.4809745191
 10
77.0932159957
 20
17.4818775338
 10
77.0548220297
 20
17.4826247789
 10
77.0153293999
 20
17.4832111821
 10
76.9750061795
 20
17.483632763
 10
76.8929665927
 20
17.4839711494
  0
LWPOLYLINE
  5
351
100
AcDbEntity
  8
ASSI
100
AcDbPolyline
 62
253
  6
CONTINUOUS
 90
18
 70
0
 10
77.3910591576
 20
17.4611208354
 10
77.385776864
 20
17.4631668922
 10
77.3771494074
 20
17.465184186
 10
77.3652353506
 20
17.4671590235
 10
77.3501155652
 20
17.4690779997
 10
77.3318926835
 20
17.4709280886
 10
77.310690401
 20
17.4726967319
 10
77.2866526374
 20
17.4743719244
 10
77.2599425596
 20
17.4759422947
 10
77.2307414736
 20
17.4773971835
 10
77.1992475944
 20
17.478726715
 10
77.1656747005
 20
17.4799218644
 10
77.1302506823
 20
17.4809745191
 10
77.0932159957
 20
17.4818775338
 10
77.0548220297
 20
17.4826247789
 10
77.0153293999
 20
17.4832111821
 10
76.9750061795
 20
17.483632763
 10
76.8929665927
 20
17.4839711494
  0
LWPOLYLINE
  5
352
100
AcDbEntity
  8
RACCORDO
100
AcDbPolyline
 62
253
  6
CONTINUOUS
 90
17
 70
0
 10
77.3910576738
 20
17.5235952703
 10
77.385775321
 20
17.5256468915
 10
77.3771478136
 20
17.5276696003
 10
77.3652337144
 20
17.5296496667
 10
77.3501138952
 20
17.5315736503
 10
77.3318909882
 20
17.5334284911
 10
77.310688689
 20
17.5352015986
 10
77.286650917
 20
17.5368809373
 10
77.2599408386
 20
17.5384551077
 10
77.2307397597
 20
17.5399134247
 10
77.1992458948
 20
17.5412459892
 10
77.1656730216
 20
17.5424437559
 10
77.1302490301
 20
17.5434985945
 10
77.0932143753
 20
17.5444033449
 10
77.0548204455
 20
17.5451518656
 10
77.0153278554
 20
17.5457390757
 10
76.9341246225
 20
17.5464147427
  0
LWPOLYLINE
  5
353
100
AcDbEntity
  8
ASSI
100
AcDbPolyline
 62
253
  6
CONTINUOUS
 90
17
 70
0
 10
77.3910576738
 20
17.5235952703
 10
77.385775321
 20
17.5256468915
 10
77.3771478136
 20
17.5276696003
 10
77.3652337144
 20
17.5296496667
 10
77.3501138952
 20
17.5315736503
 10
77.3318909882
 20
17.5334284911
 10
77.310688689
 20
17.5352015986
 10
77.286650917
 20
17.5368809373
 10
77.2599408386
 20
17.5384551077
 10
77.2307397597
 20
17.5399134247
 10
77.1992458948
 20
17.5412459892
 10
77.1656730216
 20
17.5424437559
 10
77.1302490301
 20
17.5434985945
 10
77.0932143753
 20
17.5444033449
 10
77.0548204455
 20
17.5451518656
 10
77.0153278554
 20
17.5457390757
 10
76.9341246225
 20
17.5464147427
  0
LINE
  5
354
100
AcDbEntity
  8
RACCORDO
100
AcDbLine
 62
253
  6
CONTINUOUS
 10
56.201953503
 20
18.2252647494
 11
56.201953503
 21
17.6988201755
  0
LINE
  5
355
100
AcDbEntity
  8
ASSI
100
AcDbLine
 62
253
  6
CONTINUOUS
 10
56.201953503
 20
18.2252647494
 11
56.201953503
 21
17.6988201755
  0
LINE
  5
356
100
AcDbEntity
  8
RACCORDO
100
AcDbLine
 62
253
  6
CONTINUOUS
 10
56.201953503
 20
-28.3322675231
 11
56.201953503
 21
-27.8058229492
  0
LINE
  5
357
100
AcDbEntity
  8
ASSI
100
AcDbLine
 62
253
  6
CONTINUOUS
 10
56.201953503
 20
-28.3322675231
 11
56.201953503
 21
-27.8058229492
  0
LWPOLYLINE
  5
358
100
AcDbEntity
  8
RACCORDO
100
AcDbPolyline
 62
253
  6
CONTINUOUS
 90
16
 70
0
 10
77.3910576725
 20
-27.6305980441
 10
77.3857753185
 20
-27.6326496652
 10
77.37714781
 20
-27.6346723739
 10
77.3652337099
 20
-27.6366524403
 10
77.35011389
 20
-27.6385764238
 10
77.3318909825
 20
-27.6404312645
 10
77.3106886829
 20
-27.642204372
 10
77.2866509107
 20
-27.6438837106
 10
77.2599408323
 20
-27.645457881
 10
77.2307397536
 20
-27.6469161978
 10
77.1992458889
 20
-27.6482487623
 10
77.1656730161
 20
-27.649446529
 10
77.1302490251
 20
-27.6505013676
 10
77.093214371
 20
-27.6514061179
 10
77.0548204419
 20
-27.6521546385
 10
77.0153278527
 20
-27.6527418487
  0
LWPOLYLINE
  5
359
100
AcDbEntity
  8
ASSI
100
AcDbPolyline
 62
253
  6
CONTINUOUS
 90
16
 70
0
 10
77.3910576725
 20
-27.6305980441
 10
77.3857753185
 20
-27.6326496652
 10
77.37714781
 20
-27.6346723739
 10
77.3652337099
 20
-27.6366524403
 10
77.35011389
 20
-27.6385764238
 10
77.3318909825
 20
-27.6404312645
 10
77.3106886829
 20
-27.642204372
 10
77.2866509107
 20
-27.6438837106
 10
77.2599408323
 20
-27.645457881
 10
77.2307397536
 20
-27.6469161978
 10
77.1992458889
 20
-27.6482487623
 10
77.1656730161
 20
-27.649446529
 10
77.1302490251
 20
-27.6505013676
 10
77.093214371
 20
-27.6514061179
 10
77.0548204419
 20
-27.6521546385
 10
77.0153278527
 20
-27.6527418487
  0
LWPOLYLINE
  5
35A
100
AcDbEntity
  8
RACCORDO
100
AcDbPolyline
 62
253
  6
CONTINUOUS
 90
16
 70
0
 10
77.3910591581
 20
-27.5681236091
 10
77.3857768649
 20
-27.570169666
 10
77.3771494087
 20
-27.5721869598
 10
77.3652353521
 20
-27.5741617973
 10
77.350115567
 20
-27.5760807735
 10
77.3318926854
 20
-27.5779308624
 10
77.310690403
 20
-27.5796995058
 10
77.2866526396
 20
-27.5813746983
 10
77.2599425617
 20
-27.5829450687
 10
77.2307414756
 20
-27.5843999575
 10
77.1992475964
 20
-27.5857294889
 10
77.1656747023
 20
-27.5869246383
 10
77.130250684
 20
-27.5879772931
 10
77.0932159972
 20
-27.5888803078
 10
77.0548220309
 20
-27.5896275529
 10
77.0153294008
 20
-27.5902139562
  0
LWPOLYLINE
  5
35B
100
AcDbEntity
  8
ASSI
100
AcDbPolyline
 62
253
  6
CONTINUOUS
 90
16
 70
0
 10
77.3910591581
 20
-27.5681236091
 10
77.3857768649
 20
-27.570169666
 10
77.3771494087
 20
-27.5721869598
 10
77.3652353521
 20
-27.5741617973
 10
77.350115567
 20
-27.5760807735
 10
77.3318926854
 20
-27.5779308624
 10
77.310690403
 20
-27.5796995058
 10
77.2866526396
 20
-27.5813746983
 10
77.2599425617
 20
-27.5829450687
 10
77.2307414756
 20
-27.5843999575
 10
77.1992475964
 20
-27.5857294889
 10
77.1656747023
 20
-27.5869246383
 10
77.130250684
 20
-27.5879772931
 10
77.0932159972
 20
-27.5888803078
 10
77.0548220309
 20
-27.5896275529
 10
77.0153294008
 20
-27.5902139562
  0
LWPOLYLINE
  5
35C
100
AcDbEntity
  8
RACCORDO
100
AcDbPolyline
 62
7
  6
CONTINUOUS
 90
22
 70
0
 10
56.5500000078
 20
17.2470561474
 10
56.548827765
 20
17.2770829146
 10
56.5455066486
 20
17.3065987651
 10
56.5400366586
 20
17.3356037036
 10
56.5323843425
 20
17.3642183817
 10
56.5225831528
 20
17.3923221567
 10
56.5107334468
 20
17.4195530958
 10
56.4967911286
 20
17.4459495595
 10
56.480800294
 20
17.4714732025
 10
56.4629935872
 20
17.4956470407
 10
56.4432922982
 20
17.518466763
 10
56.421775137
 20
17.5399367017
 10
56.3989108779
 20
17.5595928441
 10
56.3747076222
 20
17.5773535973
 10
56.3491572686
 20
17.5933005774
 10
56.3227042885
 20
17.6072145888
 10
56.2953644284
 20
17.6190621922
 10
56.2671219418
 20
17.6288768446
 10
56.2383740603
 20
17.636539694
 10
56.2092531943
 20
17.6420111263
 10
56.1796269334
 20
17.6453307652
 10
56.1494952776
 20
17.6464986131
  0
LWPOLYLINE
  5
35D
100
AcDbEntity
  8
ASSI
100
AcDbPolyline
 62
7
  6
CONTINUOUS
 90
22
 70
0
 10
56.5500000078
 20
17.2470561474
 10
56.548827765
 20
17.2770829146
 10
56.5455066486
 20
17.3065987651
 10
56.5400366586
 20
17.3356037036
 10
56.5323843425
 20
17.3642183817
 10
56.5225831528
 20
17.3923221567
 10
56.5107334468
 20
17.4195530958
 10
56.4967911286
 20
17.4459495595
 10
56.480800294
 20
17.4714732025
 10
56.4629935872
 20
17.4956470407
 10
56.4432922982
 20
17.518466763
 10
56.421775137
 20
17.5399367017
 10
56.3989108779
 20
17.5595928441
 10
56.3747076222
 20
17.5773535973
 10
56.3491572686
 20
17.5933005774
 10
56.3227042885
 20
17.6072145888
 10
56.2953644284
 20
17.6190621922
 10
56.2671219418
 20
17.6288768446
 10
56.2383740603
 20
17.636539694
 10
56.2092531943
 20
17.6420111263
 10
56.1796269334
 20
17.6453307652
 10
56.1494952776
 20
17.6464986131
  0
LINE
  5
35E
100
AcDbEntity
  8
RACCORDO
100
AcDbLine
 62
7
  6
CONTINUOUS
 10
56.5500000078
 20
-27.3540589211
 11
56.5500000078
 21
17.2470561474
  0
LINE
  5
35F
100
AcDbEntity
  8
ASSI
100
AcDbLine
 62
7
  6
CONTINUOUS
 10
56.5500000078
 20
-27.3540589211
 11
56.5500000078
 21
17.2470561474
  0
LINE
  5
360
100
AcDbEntity
  8
RACCORDO
100
AcDbLine
 62
253
  6
CONTINUOUS
 10
56.6038476724
 20
17.3007692632
 11
56.6038476715
 21
-27.4077705652
  0
LINE
  5
361
100
AcDbEntity
  8
ASSI
100
AcDbLine
 62
253
  6
CONTINUOUS
 10
56.6038476724
 20
17.3007692632
 11
56.6038476715
 21
-27.4077705652
  0
LINE
  5
362
100
AcDbEntity
  8
RACCORDO
100
AcDbLine
 62
253
  6
CONTINUOUS
 10
57.1031607314
 20
17.3243193731
 11
57.1031607314
 21
-27.4313221468
  0
LINE
  5
363
100
AcDbEntity
  8
ASSI
100
AcDbLine
 62
253
  6
CONTINUOUS
 10
57.1031607314
 20
17.3243193731
 11
57.1031607314
 21
-27.4313221468
  0
LWPOLYLINE
  5
364
100
AcDbEntity
  8
RACCORDO
100
AcDbPolyline
 62
253
  6
CONTINUOUS
 90
7
 70
0
 10
56.6038476654
 20
-27.4077705592
 10
56.6035030978
 20
-27.4243723575
 10
56.6024645447
 20
-27.440945054
 10
56.6007335245
 20
-27.4574599959
 10
56.5983127459
 20
-27.4738886034
 10
56.5952061046
 20
-27.4902024198
 10
56.5914186775
 20
-27.5063731601
  0
LWPOLYLINE
  5
365
100
AcDbEntity
  8
ASSI
100
AcDbPolyline
 62
253
  6
CONTINUOUS
 90
7
 70
0
 10
56.6038476654
 20
-27.4077705592
 10
56.6035030978
 20
-27.4243723575
 10
56.6024645447
 20
-27.440945054
 10
56.6007335245
 20
-27.4574599959
 10
56.5983127459
 20
-27.4738886034
 10
56.5952061046
 20
-27.4902024198
 10
56.5914186775
 20
-27.5063731601
  0
LWPOLYLINE
  5
366
100
AcDbEntity
  8
RACCORDO
100
AcDbPolyline
 62
253
  6
CONTINUOUS
 90
7
 70
0
 10
57.1031607314
 20
-27.4313221468
 10
57.1023530342
 20
-27.4689819429
 10
57.1000081619
 20
-27.506389766
 10
57.0961261147
 20
-27.5435456191
 10
57.0907068925
 20
-27.5804495051
 10
57.0837504953
 20
-27.6171014267
 10
57.075256923
 20
-27.6535013869
  0
LWPOLYLINE
  5
367
100
AcDbEntity
  8
ASSI
100
AcDbPolyline
 62
253
  6
CONTINUOUS
 90
7
 70
0
 10
57.1031607314
 20
-27.4313221468
 10
57.1023530342
 20
-27.4689819429
 10
57.1000081619
 20
-27.506389766
 10
57.0961261147
 20
-27.5435456191
 10
57.0907068925
 20
-27.5804495051
 10
57.0837504953
 20
-27.6171014267
 10
57.075256923
 20
-27.6535013869
  0
LWPOLYLINE
  5
368
100
AcDbEntity
  8
RACCORDO
100
AcDbPolyline
 62
253
  6
CONTINUOUS
 90
25
 70
0
 10
57.075256923
 20
-27.6535013869
 10
57.0616602232
 20
-27.7013028679
 10
57.0455517952
 20
-27.7480549707
 10
57.026931639
 20
-27.7937577359
 10
57.0057223923
 20
-27.838561253
 10
56.9820014174
 20
-27.8823155085
 10
56.9560008013
 20
-27.9245704067
 10
56.9277085773
 20
-27.9652911755
 10
56.897136712
 20
-28.0045126981
 10
56.8645531931
 20
-28.0418893892
 10
56.8299341701
 20
-28.0774105088
 10
56.7933034934
 20
-28.11108692
 10
56.7550007012
 20
-28.1426054606
 10
56.7150091647
 20
-28.1719445695
 10
56.6733455127
 20
-28.199125931
 10
56.6303991705
 20
-28.2239012617
 10
56.5861637703
 20
-28.2462453607
 10
56.5406456799
 20
-28.2661835371
 10
56.4942534282
 20
-28.2835432747
 10
56.4469900839
 20
-28.2983020524
 10
56.3988525783
 20
-28.3104824713
 10
56.350240235
 20
-28.3199796934
 10
56.301286162
 20
-28.3267587873
 10
56.2518572513
 20
-28.330854727
 10
56.201953503
 20
-28.3322675231
  0
LWPOLYLINE
  5
369
100
AcDbEntity
  8
ASSI
100
AcDbPolyline
 62
253
  6
CONTINUOUS
 90
25
 70
0
 10
57.075256923
 20
-27.6535013869
 10
57.0616602232
 20
-27.7013028679
 10
57.0455517952
 20
-27.7480549707
 10
57.026931639
 20
-27.7937577359
 10
57.0057223923
 20
-27.838561253
 10
56.9820014174
 20
-27.8823155085
 10
56.9560008013
 20
-27.9245704067
 10
56.9277085773
 20
-27.9652911755
 10
56.897136712
 20
-28.0045126981
 10
56.8645531931
 20
-28.0418893892
 10
56.8299341701
 20
-28.0774105088
 10
56.7933034934
 20
-28.11108692
 10
56.7550007012
 20
-28.1426054606
 10
56.7150091647
 20
-28.1719445695
 10
56.6733455127
 20
-28.199125931
 10
56.6303991705
 20
-28.2239012617
 10
56.5861637703
 20
-28.2462453607
 10
56.5406456799
 20
-28.2661835371
 10
56.4942534282
 20
-28.2835432747
 10
56.4469900839
 20
-28.2983020524
 10
56.3988525783
 20
-28.3104824713
 10
56.350240235
 20
-28.3199796934
 10
56.301286162
 20
-28.3267587873
 10
56.2518572513
 20
-28.330854727
 10
56.201953503
 20
-28.3322675231
  0
LWPOLYLINE
  5
36A
100
AcDbEntity
  8
RACCORDO
100
AcDbPolyline
 62
253
  6
CONTINUOUS
 90
25
 70
0
 10
56.5914186775
 20
-27.5063731601
 10
56.5853677478
 20
-27.5275131972
 10
56.5781535653
 20
-27.5482863602
 10
56.5697977438
 20
-27.568629489
 10
56.5603243654
 20
-27.5884818846
 10
56.5497626762
 20
-27.6077818354
 10
56.5381477802
 20
-27.6264672225
 10
56.5255169629
 20
-27.6444790178
 10
56.5119073556
 20
-27.661765449
 10
56.4973585217
 20
-27.6782783224
 10
56.4819125823
 20
-27.6939687977
 10
56.4656174891
 20
-27.70878736
 10
56.4485253151
 20
-27.7226883795
 10
56.4306879847
 20
-27.7356294557
 10
56.4121591864
 20
-27.7475716099
 10
56.3929973572
 20
-27.7584791937
 10
56.3732614128
 20
-27.7683188618
 10
56.3530100521
 20
-27.7770615678
 10
56.3323039101
 20
-27.7846828858
 10
56.311209618
 20
-27.7911584424
 10
56.2897864965
 20
-27.7964701968
 10
56.2680852094
 20
-27.800605705
 10
56.2461659745
 20
-27.8035508422
 10
56.2240990521
 20
-27.8052925573
 10
56.2019508186
 20
-27.8058229401
  0
LWPOLYLINE
  5
36B
100
AcDbEntity
  8
ASSI
100
AcDbPolyline
 62
253
  6
CONTINUOUS
 90
25
 70
0
 10
56.5914186775
 20
-27.5063731601
 10
56.5853677478
 20
-27.5275131972
 10
56.5781535653
 20
-27.5482863602
 10
56.5697977438
 20
-27.568629489
 10
56.5603243654
 20
-27.5884818846
 10
56.5497626762
 20
-27.6077818354
 10
56.5381477802
 20
-27.6264672225
 10
56.5255169629
 20
-27.6444790178
 10
56.5119073556
 20
-27.661765449
 10
56.4973585217
 20
-27.6782783224
 10
56.4819125823
 20
-27.6939687977
 10
56.4656174891
 20
-27.70878736
 10
56.4485253151
 20
-27.7226883795
 10
56.4306879847
 20
-27.7356294557
 10
56.4121591864
 20
-27.7475716099
 10
56.3929973572
 20
-27.7584791937
 10
56.3732614128
 20
-27.7683188618
 10
56.3530100521
 20
-27.7770615678
 10
56.3323039101
 20
-27.7846828858
 10
56.311209618
 20
-27.7911584424
 10
56.2897864965
 20
-27.7964701968
 10
56.2680852094
 20
-27.800605705
 10
56.2461659745
 20
-27.8035508422
 10
56.2240990521
 20
-27.8052925573
 10
56.2019508186
 20
-27.8058229401
  0
LWPOLYLINE
  5
36C
100
AcDbEntity
  8
RACCORDO
100
AcDbPolyline
 62
253
  6
CONTINUOUS
 90
7
 70
0
 10
56.5914186775
 20
17.3993703863
 10
56.5952009819
 20
17.3832238539
 10
56.5983061499
 20
17.366924961
 10
56.6007279172
 20
17.3505016917
 10
56.6024611809
 20
17.3339823021
 10
56.6035020118
 20
17.3173952721
 10
56.6038476651
 20
17.300769256
  0
LWPOLYLINE
  5
36D
100
AcDbEntity
  8
ASSI
100
AcDbPolyline
 62
253
  6
CONTINUOUS
 90
7
 70
0
 10
56.5914186775
 20
17.3993703863
 10
56.5952009819
 20
17.3832238539
 10
56.5983061499
 20
17.366924961
 10
56.6007279172
 20
17.3505016917
 10
56.6024611809
 20
17.3339823021
 10
56.6035020118
 20
17.3173952721
 10
56.6038476651
 20
17.300769256
  0
LWPOLYLINE
  5
36E
100
AcDbEntity
  8
RACCORDO
100
AcDbPolyline
 62
253
  6
CONTINUOUS
 90
7
 70
0
 10
57.075256923
 20
17.5464986131
 10
57.0837433059
 20
17.5101561682
 10
57.0906953896
 20
17.473538756
 10
57.0961131739
 20
17.4366463736
 10
57.099996659
 20
17.3994790177
 10
57.1023458449
 20
17.3620366853
 10
57.1031607314
 20
17.3243193731
  0
LWPOLYLINE
  5
36F
100
AcDbEntity
  8
ASSI
100
AcDbPolyline
 62
253
  6
CONTINUOUS
 90
7
 70
0
 10
57.075256923
 20
17.5464986131
 10
57.0837433059
 20
17.5101561682
 10
57.0906953896
 20
17.473538756
 10
57.0961131739
 20
17.4366463736
 10
57.099996659
 20
17.3994790177
 10
57.1023458449
 20
17.3620366853
 10
57.1031607314
 20
17.3243193731
  0
LINE
  5
370
100
AcDbEntity
  8
RACCORDO
100
AcDbLine
 62
253
  6
CONTINUOUS
 10
76.5971848203
 20
39.8258332403
 11
76.5971848203
 21
39.4178939789
  0
LINE
  5
371
100
AcDbEntity
  8
ASSI
100
AcDbLine
 62
253
  6
CONTINUOUS
 10
76.5971848203
 20
39.8258332403
 11
76.5971848203
 21
39.4178939789
  0
LINE
  5
372
100
AcDbEntity
  8
RACCORDO
100
AcDbLine
 62
253
  6
CONTINUOUS
 10
76.5971848203
 20
-49.9328360141
 11
76.5971848203
 21
-49.5248967526
  0
LINE
  5
373
100
AcDbEntity
  8
ASSI
100
AcDbLine
 62
253
  6
CONTINUOUS
 10
76.5971848203
 20
-49.9328360141
 11
76.5971848203
 21
-49.5248967526
  0
LINE
  5
374
100
AcDbEntity
  8
RACCORDO
100
AcDbLine
 62
253
  6
CONTINUOUS
 10
76.8913127116
 20
39.1181553919
 11
76.8913127116
 21
-49.2251581657
  0
LINE
  5
375
100
AcDbEntity
  8
ASSI
100
AcDbLine
 62
253
  6
CONTINUOUS
 10
76.8913127116
 20
39.1181553919
 11
76.8913127116
 21
-49.2251581657
  0
LINE
  5
376
100
AcDbEntity
  8
RACCORDO
100
AcDbLine
 62
7
  6
CONTINUOUS
 10
77.5
 20
39.1464986131
 11
77.5
 21
17.4611208354
  0
LINE
  5
377
100
AcDbEntity
  8
DRAFT
100
AcDbLine
 62
7
  6
CONTINUOUS
 10
77.5
 20
17.4611208354
 11
77.5
 21
-27.5681236091
  0
LINE
  5
378
100
AcDbEntity
  8
RACCORDO
100
AcDbLine
 62
7
  6
CONTINUOUS
 10
77.5
 20
-27.5681236091
 11
77.5
 21
-49.2535013869
  0
LINE
  5
379
100
AcDbEntity
  8
ASSI
100
AcDbLine
 62
7
  6
CONTINUOUS
 10
77.5
 20
39.1464986131
 11
77.5
 21
-49.2535013869
  0
LINE
  5
37A
100
AcDbEntity
  8
RACCORDO
100
AcDbLine
 62
253
  6
CONTINUOUS
 10
77.3893468268
 20
39.0368556285
 11
77.3893468268
 21
-49.1438584023
  0
LINE
  5
37B
100
AcDbEntity
  8
ASSI
100
AcDbLine
 62
253
  6
CONTINUOUS
 10
77.3893468268
 20
39.0368556285
 11
77.3893468268
 21
-49.1438584023
  0
LWPOLYLINE
  5
37C
100
AcDbEntity
  8
RACCORDO
100
AcDbPolyline
 62
253
  6
CONTINUOUS
 90
28
 70
0
 10
76.8913127116
 20
-49.2251581657
 10
76.8908024181
 20
-49.2428329839
 10
76.8893172375
 20
-49.260314048
 10
76.8868571696
 20
-49.2776013689
 10
76.8834082991
 20
-49.2947499918
 10
76.8789845415
 20
-49.311704891
 10
76.8736276423
 20
-49.3283009802
 10
76.8673265789
 20
-49.3445380487
 10
76.860092374
 20
-49.3604163458
 10
76.8519998416
 20
-49.3757714919
 10
76.8430416177
 20
-49.3905945722
 10
76.8332250663
 20
-49.4048945539
 10
76.8226470934
 20
-49.4185338946
 10
76.8112993221
 20
-49.4315071571
 10
76.7991901293
 20
-49.4438198368
 10
76.7864415515
 20
-49.4553507998
 10
76.7730484095
 20
-49.4660912939
 10
76.7590158825
 20
-49.4760501291
 10
76.7444815438
 20
-49.4851325195
 10
76.7294405464
 20
-49.4933300267
 10
76.7138977373
 20
-49.5006511395
 10
76.6980052308
 20
-49.507026464
 10
76.6817554335
 20
-49.5124470371
 10
76.6651559387
 20
-49.516921859
 10
76.6483816406
 20
-49.5204084783
 10
76.6314908372
 20
-49.5228927511
 10
76.6144252304
 20
-49.5243888409
 10
76.5971848203
 20
-49.5248967526
  0
LWPOLYLINE
  5
37D
100
AcDbEntity
  8
ASSI
100
AcDbPolyline
 62
253
  6
CONTINUOUS
 90
28
 70
0
 10
76.8913127116
 20
-49.2251581657
 10
76.8908024181
 20
-49.2428329839
 10
76.8893172375
 20
-49.260314048
 10
76.8868571696
 20
-49.2776013689
 10
76.8834082991
 20
-49.2947499918
 10
76.8789845415
 20
-49.311704891
 10
76.8736276423
 20
-49.3283009802
 10
76.8673265789
 20
-49.3445380487
 10
76.860092374
 20
-49.3604163458
 10
76.8519998416
 20
-49.3757714919
 10
76.8430416177
 20
-49.3905945722
 10
76.8332250663
 20
-49.4048945539
 10
76.8226470934
 20
-49.4185338946
 10
76.8112993221
 20
-49.4315071571
 10
76.7991901293
 20
-49.4438198368
 10
76.7864415515
 20
-49.4553507998
 10
76.7730484095
 20
-49.4660912939
 10
76.7590158825
 20
-49.4760501291
 10
76.7444815438
 20
-49.4851325195
 10
76.7294405464
 20
-49.4933300267
 10
76.7138977373
 20
-49.5006511395
 10
76.6980052308
 20
-49.507026464
 10
76.6817554335
 20
-49.5124470371
 10
76.6651559387
 20
-49.516921859
 10
76.6483816406
 20
-49.5204084783
 10
76.6314908372
 20
-49.5228927511
 10
76.6144252304
 20
-49.5243888409
 10
76.5971848203
 20
-49.5248967526
  0
LWPOLYLINE
  5
37E
100
AcDbEntity
  8
RACCORDO
100
AcDbPolyline
 62
253
  6
CONTINUOUS
 90
28
 70
0
 10
77.3893468269
 20
-49.1438584025
 10
77.3873508575
 20
-49.1900833672
 10
77.3827172033
 20
-49.2360650783
 10
77.3754689159
 20
-49.2816534677
 10
77.365642466
 20
-49.3266862995
 10
77.3532745694
 20
-49.3710322623
 10
77.3383934458
 20
-49.4145890205
 10
77.3210375444
 20
-49.4572366661
 10
77.3012711824
 20
-49.4988114831
 10
77.2791701243
 20
-49.5391496268
 10
77.2548168117
 20
-49.5781113947
 10
77.2282901188
 20
-49.6155813496
 10
77.1996748095
 20
-49.6514406185
 10
77.1690666244
 20
-49.6855741703
 10
77.1365691446
 20
-49.7178716957
 10
77.102287336
 20
-49.7482292068
 10
77.0663361642
 20
-49.7765481686
 10
77.0288343772
 20
-49.8027388746
 10
76.9898995745
 20
-49.8267194385
 10
76.9496575569
 20
-49.8484132215
 10
76.9082430057
 20
-49.8677490646
 10
76.8657924822
 20
-49.8846637252
 10
76.8224498828
 20
-49.8991012165
 10
76.7783529734
 20
-49.9110174403
 10
76.7336327341
 20
-49.9203769202
 10
76.6884305376
 20
-49.9271481589
 10
76.6428983424
 20
-49.9313062859
 10
76.5971848203
 20
-49.9328360141
  0
LWPOLYLINE
  5
37F
100
AcDbEntity
  8
ASSI
100
AcDbPolyline
 62
253
  6
CONTINUOUS
 90
28
 70
0
 10
77.3893468269
 20
-49.1438584025
 10
77.3873508575
 20
-49.1900833672
 10
77.3827172033
 20
-49.2360650783
 10
77.3754689159
 20
-49.2816534677
 10
77.365642466
 20
-49.3266862995
 10
77.3532745694
 20
-49.3710322623
 10
77.3383934458
 20
-49.4145890205
 10
77.3210375444
 20
-49.4572366661
 10
77.3012711824
 20
-49.4988114831
 10
77.2791701243
 20
-49.5391496268
 10
77.2548168117
 20
-49.5781113947
 10
77.2282901188
 20
-49.6155813496
 10
77.1996748095
 20
-49.6514406185
 10
77.1690666244
 20
-49.6855741703
 10
77.1365691446
 20
-49.7178716957
 10
77.102287336
 20
-49.7482292068
 10
77.0663361642
 20
-49.7765481686
 10
77.0288343772
 20
-49.8027388746
 10
76.9898995745
 20
-49.8267194385
 10
76.9496575569
 20
-49.8484132215
 10
76.9082430057
 20
-49.8677490646
 10
76.8657924822
 20
-49.8846637252
 10
76.8224498828
 20
-49.8991012165
 10
76.7783529734
 20
-49.9110174403
 10
76.7336327341
 20
-49.9203769202
 10
76.6884305376
 20
-49.9271481589
 10
76.6428983424
 20
-49.9313062859
 10
76.5971848203
 20
-49.9328360141
  0
LWPOLYLINE
  5
380
100
AcDbEntity
  8
RACCORDO
100
AcDbPolyline
 62
253
  6
CONTINUOUS
 90
19
 70
0
 10
77.3893468237
 20
39.0368556385
 10
77.3840165058
 20
39.0441411188
 10
77.3753477366
 20
39.0513232524
 10
77.3633992537
 20
39.0583533747
 10
77.3482520173
 20
39.0651838511
 10
77.3300086619
 20
39.0717684
 10
77.3087928003
 20
39.0780624058
 10
77.2847481864
 20
39.0840232218
 10
77.2580377413
 20
39.0896104588
 10
77.228842449
 20
39.0947862589
 10
77.1973601302
 20
39.099515552
 10
77.1638041021
 20
39.1037662936
 10
77.1284017331
 20
39.1075096816
 10
77.0913929015
 20
39.1107203515
 10
77.0530283711
 20
39.1133765485
 10
77.0135680913
 20
39.115460275
 10
76.9732794363
 20
39.116957412
 10
76.932435393
 20
39.1178578153
 10
76.8913127116
 20
39.1181553839
  0
LWPOLYLINE
  5
381
100
AcDbEntity
  8
ASSI
100
AcDbPolyline
 62
253
  6
CONTINUOUS
 90
19
 70
0
 10
77.3893468237
 20
39.0368556385
 10
77.3840165058
 20
39.0441411188
 10
77.3753477366
 20
39.0513232524
 10
77.3633992537
 20
39.0583533747
 10
77.3482520173
 20
39.0651838511
 10
77.3300086619
 20
39.0717684
 10
77.3087928003
 20
39.0780624058
 10
77.2847481864
 20
39.0840232218
 10
77.2580377413
 20
39.0896104588
 10
77.228842449
 20
39.0947862589
 10
77.1973601302
 20
39.099515552
 10
77.1638041021
 20
39.1037662936
 10
77.1284017331
 20
39.1075096816
 10
77.0913929015
 20
39.1107203515
 10
77.0530283711
 20
39.1133765485
 10
77.0135680913
 20
39.115460275
 10
76.9732794363
 20
39.116957412
 10
76.932435393
 20
39.1178578153
 10
76.8913127116
 20
39.1181553839
  0
LWPOLYLINE
  5
382
100
AcDbEntity
  8
RACCORDO
100
AcDbPolyline
 62
253
  6
CONTINUOUS
 90
19
 70
0
 10
77.3893425984
 20
-49.1438583447
 10
77.3840123527
 20
-49.1511438379
 10
77.3753436856
 20
-49.1583259832
 10
77.3633953338
 20
-49.1653561161
 10
77.3482482561
 20
-49.1721866019
 10
77.3300050852
 20
-49.1787711589
 10
77.3087894321
 20
-49.1850651718
 10
77.2847450486
 20
-49.1910259936
 10
77.2580348532
 20
-49.1966132354
 10
77.2288398271
 20
-49.2017890393
 10
77.1973577884
 20
-49.2065183353
 10
77.163802051
 20
-49.2107690788
 10
77.1283999801
 20
-49.2145124678
 10
77.0913914507
 20
-49.217723138
 10
77.0530272232
 20
-49.2203793347
 10
77.0135672434
 20
-49.2224630602
 10
76.9732788821
 20
-49.2239601958
 10
76.9324351225
 20
-49.2248605972
 10
76.8913127116
 20
-49.2251581637
  0
LWPOLYLINE
  5
383
100
AcDbEntity
  8
ASSI
100
AcDbPolyline
 62
253
  6
CONTINUOUS
 90
19
 70
0
 10
77.3893425984
 20
-49.1438583447
 10
77.3840123527
 20
-49.1511438379
 10
77.3753436856
 20
-49.1583259832
 10
77.3633953338
 20
-49.1653561161
 10
77.3482482561
 20
-49.1721866019
 10
77.3300050852
 20
-49.1787711589
 10
77.3087894321
 20
-49.1850651718
 10
77.2847450486
 20
-49.1910259936
 10
77.2580348532
 20
-49.1966132354
 10
77.2288398271
 20
-49.2017890393
 10
77.1973577884
 20
-49.2065183353
 10
77.163802051
 20
-49.2107690788
 10
77.1283999801
 20
-49.2145124678
 10
77.0913914507
 20
-49.217723138
 10
77.0530272232
 20
-49.2203793347
 10
77.0135672434
 20
-49.2224630602
 10
76.9732788821
 20
-49.2239601958
 10
76.9324351225
 20
-49.2248605972
 10
76.8913127116
 20
-49.2251581637
  0
LINE
  5
384
100
AcDbEntity
  8
RACCORDO
100
AcDbLine
 62
253
  6
CONTINUOUS
 10
-111.1261928471
 20
-49.1438583447
 11
-111.5745878027
 21
-49.2251581637
  0
LINE
  5
385
100
AcDbEntity
  8
ASSI
100
AcDbLine
 62
253
  6
CONTINUOUS
 10
-111.1261928471
 20
-49.1438583447
 11
-111.5745878027
 21
-49.2251581637
  0
LWPOLYLINE
  5
386
100
AcDbEntity
  8
RACCORDO
100
AcDbPolyline
 62
253
  6
CONTINUOUS
 90
16
 70
0
 10
-108.6094651663
 20
-48.762878785
 10
-108.4866293439
 20
-48.7449041999
 10
-108.3641929
 20
-48.724219219
 10
-108.242224567
 20
-48.700819385
 10
-108.1210308554
 20
-48.6748049635
 10
-108.0004476703
 20
-48.6460668675
 10
-107.8798535017
 20
-48.6142857982
 10
-107.7594580513
 20
-48.5795799635
 10
-107.6392450016
 20
-48.5418205442
 10
-107.5182985371
 20
-48.5003151474
 10
-107.3968043535
 20
-48.4552637768
 10
-107.2748793454
 20
-48.4064519165
 10
-107.1515748491
 20
-48.3525603965
 10
-107.0267232194
 20
-48.2931406395
 10
-106.9009100449
 20
-48.2286181301
 10
-106.7743652859
 20
-48.1589812484
  0
LINE
  5
387
100
AcDbEntity
  8
RACCORDO
100
AcDbLine
 62
253
  6
CONTINUOUS
 10
-108.7160746387
 20
-48.1707128992
 11
-106.7743652859
 21
-48.1589812484
  0
LINE
  5
388
100
AcDbEntity
  8
RACCORDO
100
AcDbLine
 62
7
  6
CONTINUOUS
 10
-109.6924821103
 20
-50.0535013869
 11
-108.8783082161
 21
-50.0535013869
  0
LINE
  5
389
100
AcDbEntity
  8
ASSI
100
AcDbLine
 62
7
  6
CONTINUOUS
 10
-109.6924821103
 20
-50.0535013869
 11
-108.8783082161
 21
-50.0535013869
  0
LINE
  5
38A
100
AcDbEntity
  8
RACCORDO
100
AcDbLine
 62
253
  6
CONTINUOUS
 10
-109.8413039656
 20
-49.2535013869
 11
-109.0279093492
 21
-49.2535013869
  0
LINE
  5
38B
100
AcDbEntity
  8
ASSI
100
AcDbLine
 62
253
  6
CONTINUOUS
 10
-109.8413039656
 20
-49.2535013869
 11
-109.0279093492
 21
-49.2535013869
  0
LINE
  5
38C
100
AcDbEntity
  8
ASSI
100
AcDbLine
 62
7
  6
CONTINUOUS
 10
-109.2832270521
 20
-47.7715051137
 11
-109.2908416628
 21
-47.7713057181
  0
LINE
  5
38D
100
AcDbEntity
  8
RACCORDO
100
AcDbLine
 62
7
  6
CONTINUOUS
 10
-111.0716936322
 20
-49.9328360141
 11
-109.6942572666
 21
-50.0533460808
  0
LINE
  5
38E
100
AcDbEntity
  8
ASSI
100
AcDbLine
 62
7
  6
CONTINUOUS
 10
-111.0716936322
 20
-49.9328360141
 11
-109.6942572666
 21
-50.0533460808
  0
LINE
  5
38F
100
AcDbEntity
  8
RACCORDO
100
AcDbLine
 62
253
  6
CONTINUOUS
 10
-111.1261932186
 20
-49.1438584023
 11
-109.8408423605
 21
-49.2563616035
  0
LINE
  5
390
100
AcDbEntity
  8
ASSI
100
AcDbLine
 62
253
  6
CONTINUOUS
 10
-111.1261932186
 20
-49.1438584023
 11
-109.8408423605
 21
-49.2563616035
  0
LINE
  5
391
100
AcDbEntity
  8
0
100
AcDbLine
 62
7
  6
CONTINUOUS
 10
-109.0808755081
 20
-48.9092143714
 11
-108.5746726049
 21
-48.9535013869
  0
LINE
  5
392
100
AcDbEntity
  8
0
100
AcDbLine
 62
253
  6
CONTINUOUS
 10
-108.7539991647
 20
-47.9570230973
 11
-109.2593663873
 21
-47.9127847287
  0
LINE
  5
393
100
AcDbEntity
  8
RACCORDO
100
AcDbLine
 62
253
  6
CONTINUOUS
 10
-109.8610859447
 20
-44.3035013869
 11
-109.8497051099
 21
-44.3035013869
  0
LINE
  5
394
100
AcDbEntity
  8
0
100
AcDbLine
 62
7
  6
CONTINUOUS
 10
-110.3187749876
 20
-41.0535013869
 11
-110.3248367285
 21
-41.0535013869
  0
LWPOLYLINE
  5
395
100
AcDbEntity
  8
RACCORDO
100
AcDbPolyline
 62
253
  6
CONTINUOUS
 90
21
 70
0
 10
-111.0716936322
 20
39.8258332403
 10
-111.0741470631
 20
39.8243027154
 10
-111.0766360903
 20
39.8201447964
 10
-111.0791495735
 20
39.8133780841
 10
-111.0816755132
 20
39.8040341051
 10
-111.084206484
 20
39.792145713
 10
-111.0867384977
 20
39.7777363822
 10
-111.0892665286
 20
39.7608368104
 10
-111.0917789162
 20
39.7415057979
 10
-111.0942625862
 20
39.7198160095
 10
-111.0967148217
 20
39.6958441732
 10
-111.0991290493
 20
39.669662961
 10
-111.1014882883
 20
39.6413531659
 10
-111.1037930208
 20
39.6110040026
 10
-111.1060390978
 20
39.5787143966
 10
-111.108203922
 20
39.5445882587
 10
-111.1102902688
 20
39.5087353332
 10
-111.1122978997
 20
39.4712711255
 10
-111.1142011442
 20
39.4323161765
 10
-111.116006207
 20
39.3919940097
 10
-111.1192992106
 20
39.3077855967
  0
LWPOLYLINE
  5
396
100
AcDbEntity
  8
ASSI
100
AcDbPolyline
 62
253
  6
CONTINUOUS
 90
21
 70
0
 10
-111.0716936322
 20
39.8258332403
 10
-111.0741470631
 20
39.8243027154
 10
-111.0766360903
 20
39.8201447964
 10
-111.0791495735
 20
39.8133780841
 10
-111.0816755132
 20
39.8040341051
 10
-111.084206484
 20
39.792145713
 10
-111.0867384977
 20
39.7777363822
 10
-111.0892665286
 20
39.7608368104
 10
-111.0917789162
 20
39.7415057979
 10
-111.0942625862
 20
39.7198160095
 10
-111.0967148217
 20
39.6958441732
 10
-111.0991290493
 20
39.669662961
 10
-111.1014882883
 20
39.6413531659
 10
-111.1037930208
 20
39.6110040026
 10
-111.1060390978
 20
39.5787143966
 10
-111.108203922
 20
39.5445882587
 10
-111.1102902688
 20
39.5087353332
 10
-111.1122978997
 20
39.4712711255
 10
-111.1142011442
 20
39.4323161765
 10
-111.116006207
 20
39.3919940097
 10
-111.1192992106
 20
39.3077855967
  0
LINE
  5
397
100
AcDbEntity
  8
DRAFT
100
AcDbLine
 62
7
  6
CONTINUOUS
 10
-111.143500963
 20
-33.5514445219
 11
-111.1494227072
 21
-33.5515478864
  0
LINE
  5
398
100
AcDbEntity
  8
DRAFT
100
AcDbLine
 62
7
  6
CONTINUOUS
 10
-111.3768285549
 20
-30.5514855036
 11
-111.3844223581
 21
-30.5513529532
  0
LINE
  5
399
100
AcDbEntity
  8
RACCORDO
100
AcDbLine
 62
253
  6
CONTINUOUS
 10
-113.607677672
 20
-27.6305980441
 11
-114.0634692424
 21
-27.6535013861
  0
LINE
  5
39A
100
AcDbEntity
  8
ASSI
100
AcDbLine
 62
253
  6
CONTINUOUS
 10
-113.607677672
 20
-27.6305980441
 11
-114.0634692424
 21
-27.6535013861
  0
LINE
  5
39B
100
AcDbEntity
  8
RACCORDO
100
AcDbLine
 62
253
  6
CONTINUOUS
 10
-113.6108140651
 20
-27.5681236091
 11
-114.066609135
 21
-27.5909739235
  0
LINE
  5
39C
100
AcDbEntity
  8
ASSI
100
AcDbLine
 62
253
  6
CONTINUOUS
 10
-113.6108140651
 20
-27.5681236091
 11
-114.066609135
 21
-27.5909739235
  0
LINE
  5
39D
100
AcDbEntity
  8
0
100
AcDbLine
 62
253
  6
CONTINUOUS
 10
-106.061338677
 20
-27.4221105794
 11
-108.5015715784
 21
-27.46290515
  0
LINE
  5
39E
100
AcDbEntity
  8
0
100
AcDbLine
 62
253
  6
CONTINUOUS
 10
-108.5015715784
 20
-27.46290515
 11
-111.0672550557
 21
-27.5028347203
  0
LINE
  5
39F
100
AcDbEntity
  8
RACCORDO
100
AcDbLine
 62
253
  6
CONTINUOUS
 10
-112.365614544
 20
-27.5681236091
 11
-113.6108140651
 21
-27.5681236091
  0
LINE
  5
3A0
100
AcDbEntity
  8
ASSI
100
AcDbLine
 62
253
  6
CONTINUOUS
 10
-112.365614544
 20
-27.5681236091
 11
-113.6108140651
 21
-27.5681236091
  0
LINE
  5
3A1
100
AcDbEntity
  8
0
100
AcDbLine
 62
253
  6
CONTINUOUS
 10
-111.0672550557
 20
-27.5028347203
 11
-111.5578735044
 21
-27.5028347203
  0
LINE
  5
3A2
100
AcDbEntity
  8
DRAFT
100
AcDbLine
 62
7
  6
CONTINUOUS
 10
-111.7384197145
 20
-23.5618288674
 11
-111.7476812578
 21
-23.5619905282
  0
LWPOLYLINE
  5
3A3
100
AcDbEntity
  8
RACCORDO
100
AcDbPolyline
 62
253
  6
CONTINUOUS
 90
19
 70
0
 10
-106.774365425
 20
-48.1589812569
 10
-106.7523598833
 20
-48.2066343573
 10
-106.7327300105
 20
-48.2542009845
 10
-106.7155688272
 20
-48.3014557333
 10
-106.7009576555
 20
-48.3481746762
 10
-106.6889657337
 20
-48.3941364254
 10
-106.6796498882
 20
-48.4391231814
 10
-106.6730542644
 20
-48.4829217644
 10
-106.6692101175
 20
-48.5253246246
 10
-106.6681356638
 20
-48.5661308269
 10
-106.6698359955
 20
-48.6051470018
 10
-106.6743030552
 20
-48.6421882618
 10
-106.6815156754
 20
-48.6770790785
 10
-106.6914396776
 20
-48.7096541136
 10
-106.7040280351
 20
-48.7397590022
 10
-106.7192210953
 20
-48.7672510852
 10
-106.7369468629
 20
-48.7920000846
 10
-106.7571213405
 20
-48.813888721
 10
-106.779648927
 20
-48.8328132699
  0
LWPOLYLINE
  5
3A4
100
AcDbEntity
  8
RACCORDO
100
AcDbPolyline
 62
253
  6
CONTINUOUS
 90
10
 70
0
 10
-111.1261932186
 20
39.0368556285
 10
-111.5390654652
 20
36.6646297503
 10
-111.9176928839
 20
34.2867084344
 10
-112.2620750486
 20
31.9035928495
 10
-112.5722676821
 20
29.5157942741
 10
-112.8482142115
 20
27.1238035041
 10
-113.0897457576
 20
24.7280906813
 10
-113.296805732
 20
22.3291462013
 10
-113.4694498488
 20
19.927480886
 10
-113.6076776721
 20
17.5235952703
  0
LWPOLYLINE
  5
3A5
100
AcDbEntity
  8
ASSI
100
AcDbPolyline
 62
253
  6
CONTINUOUS
 90
10
 70
0
 10
-111.1261932186
 20
39.0368556285
 10
-111.5390654652
 20
36.6646297503
 10
-111.9176928839
 20
34.2867084344
 10
-112.2620750486
 20
31.9035928495
 10
-112.5722676821
 20
29.5157942741
 10
-112.8482142115
 20
27.1238035041
 10
-113.0897457576
 20
24.7280906813
 10
-113.296805732
 20
22.3291462013
 10
-113.4694498488
 20
19.927480886
 10
-113.6076776721
 20
17.5235952703
  0
LINE
  5
3A6
100
AcDbEntity
  8
RACCORDO
100
AcDbLine
 62
7
  6
CONTINUOUS
 10
-106.061338677
 20
-8.9061553483
 11
-107.8960683125
 21
-8.5826430112
  0
LWPOLYLINE
  5
3A7
100
AcDbEntity
  8
RACCORDO
100
AcDbPolyline
 62
7
  6
CONTINUOUS
 90
17
 70
0
 10
-109.7993185759
 20
-49.649850005
 10
-109.7948701647
 20
-49.6942516995
 10
-109.7903410044
 20
-49.736784001
 10
-109.7857472019
 20
-49.7772827114
 10
-109.7809513977
 20
-49.8155489621
 10
-109.7759485704
 20
-49.8514294786
 10
-109.7707437413
 20
-49.8847647635
 10
-109.7652146149
 20
-49.9153765118
 10
-109.759370625
 20
-49.9431490691
 10
-109.7532023377
 20
-49.9679768486
 10
-109.7465591565
 20
-49.9897392492
 10
-109.7394712095
 20
-50.0083784281
 10
-109.7319083685
 20
-50.0238372027
 10
-109.7236296519
 20
-50.0360537475
 10
-109.7145547324
 20
-50.04502475
 10
-109.7047639373
 20
-50.0507787174
 10
-109.6942572666
 20
-50.0533460808
  0
LWPOLYLINE
  5
3A8
100
AcDbEntity
  8
ASSI
100
AcDbPolyline
 62
7
  6
CONTINUOUS
 90
17
 70
0
 10
-109.7993185759
 20
-49.649850005
 10
-109.7948701647
 20
-49.6942516995
 10
-109.7903410044
 20
-49.736784001
 10
-109.7857472019
 20
-49.7772827114
 10
-109.7809513977
 20
-49.8155489621
 10
-109.7759485704
 20
-49.8514294786
 10
-109.7707437413
 20
-49.8847647635
 10
-109.7652146149
 20
-49.9153765118
 10
-109.759370625
 20
-49.9431490691
 10
-109.7532023377
 20
-49.9679768486
 10
-109.7465591565
 20
-49.9897392492
 10
-109.7394712095
 20
-50.0083784281
 10
-109.7319083685
 20
-50.0238372027
 10
-109.7236296519
 20
-50.0360537475
 10
-109.7145547324
 20
-50.04502475
 10
-109.7047639373
 20
-50.0507787174
 10
-109.6942572666
 20
-50.0533460808
  0
LINE
  5
3A9
100
AcDbEntity
  8
RACCORDO
100
AcDbLine
 62
7
  6
CONTINUOUS
 10
-109.8174675919
 20
-49.4583745813
 11
-109.7993185759
 21
-49.649850005
  0
LINE
  5
3AA
100
AcDbEntity
  8
ASSI
100
AcDbLine
 62
7
  6
CONTINUOUS
 10
-109.8174675919
 20
-49.4583745813
 11
-109.7993185759
 21
-49.649850005
  0
LINE
  5
3AB
100
AcDbEntity
  8
SCRITTE
100
AcDbLine
 62
253
  6
CONTINUOUS
 10
-113.6298674975
 20
-33.9313027413
 11
-113.6963171505
 21
-33.1547083478
  0
LINE
  5
3AC
100
AcDbEntity
  8
SCRITTE
100
AcDbLine
 62
253
  6
CONTINUOUS
 10
-113.7553490617
 20
-32.4263053349
 11
-113.6947436268
 21
-33.1736016149
  0
LINE
  5
3AD
100
AcDbEntity
  8
SCRITTE
100
AcDbLine
 62
253
  6
CONTINUOUS
 10
-113.8122022745
 20
-31.6843783751
 11
-113.7553490617
 21
-32.4263053349
  0
LINE
  5
3AE
100
AcDbEntity
  8
SCRITTE
100
AcDbLine
 62
253
  6
CONTINUOUS
 10
-113.8122022745
 20
-31.6843783751
 11
-113.8547467436
 21
-31.0987518312
  0
LWPOLYLINE
  5
3AF
100
AcDbEntity
  8
RACCORDO
100
AcDbPolyline
 62
7
  6
CONTINUOUS
 90
10
 70
0
 10
-112.365614544
 20
-27.5681236091
 10
-112.2259723657
 20
-29.9917885254
 10
-112.0510429541
 20
-32.4125511739
 10
-111.8408263093
 20
-34.8304115547
 10
-111.5952183786
 20
-37.2462261428
 10
-111.3143232147
 20
-39.6591384633
 10
-110.9984529757
 20
-42.0665790904
 10
-110.6477117141
 20
-44.4676915492
 10
-110.2619953775
 20
-46.8633323147
 10
-109.8413039656
 20
-49.2535013869
  0
LWPOLYLINE
  5
3B0
100
AcDbEntity
  8
ASSI
100
AcDbPolyline
 62
7
  6
CONTINUOUS
 90
10
 70
0
 10
-112.365614544
 20
-27.5681236091
 10
-112.2259723657
 20
-29.9917885254
 10
-112.0510429541
 20
-32.4125511739
 10
-111.8408263093
 20
-34.8304115547
 10
-111.5952183786
 20
-37.2462261428
 10
-111.3143232147
 20
-39.6591384633
 10
-110.9984529757
 20
-42.0665790904
 10
-110.6477117141
 20
-44.4676915492
 10
-110.2619953775
 20
-46.8633323147
 10
-109.8413039656
 20
-49.2535013869
  0
LWPOLYLINE
  5
3B1
100
AcDbEntity
  8
RACCORDO
100
AcDbPolyline
 62
253
  6
CONTINUOUS
 90
10
 70
0
 10
-113.6076776721
 20
-27.6305980441
 10
-113.46944988
 20
-30.0344832198
 10
-113.2968057833
 20
-32.4361482645
 10
-113.089745818
 20
-34.8350926425
 10
-112.8482142655
 20
-37.2308056094
 10
-112.5722677184
 20
-39.6227966905
 10
-112.2620750693
 20
-42.0105955112
 10
-111.9176928956
 20
-44.3937111984
 10
-111.5390654699
 20
-46.7716325516
 10
-111.1261932186
 20
-49.1438584023
  0
LWPOLYLINE
  5
3B2
100
AcDbEntity
  8
ASSI
100
AcDbPolyline
 62
253
  6
CONTINUOUS
 90
10
 70
0
 10
-113.6076776721
 20
-27.6305980441
 10
-113.46944988
 20
-30.0344832198
 10
-113.2968057833
 20
-32.4361482645
 10
-113.089745818
 20
-34.8350926425
 10
-112.8482142655
 20
-37.2308056094
 10
-112.5722677184
 20
-39.6227966905
 10
-112.2620750693
 20
-42.0105955112
 10
-111.9176928956
 20
-44.3937111984
 10
-111.5390654699
 20
-46.7716325516
 10
-111.1261932186
 20
-49.1438584023
  0
LWPOLYLINE
  5
3B3
100
AcDbEntity
  8
RACCORDO
100
AcDbPolyline
 62
253
  6
CONTINUOUS
 90
18
 70
0
 10
-111.1123067488
 20
-49.5781113947
 10
-111.1102998495
 20
-49.6155813496
 10
-111.108214099
 20
-49.6514406185
 10
-111.1060496186
 20
-49.6855741703
 10
-111.1038037316
 20
-49.7178716957
 10
-111.101499106
 20
-49.7482292068
 10
-111.0991398574
 20
-49.7765481686
 10
-111.0967255211
 20
-49.8027388746
 10
-111.0942732693
 20
-49.8267194385
 10
-111.0917900234
 20
-49.8484132215
 10
-111.0892783557
 20
-49.8677490646
 10
-111.0867503122
 20
-49.8846637252
 10
-111.084215911
 20
-49.8991012165
 10
-111.0816806255
 20
-49.9110174403
 10
-111.0791508643
 20
-49.9203769202
 10
-111.0766354547
 20
-49.9271481589
 10
-111.0741458902
 20
-49.9313062859
 10
-111.0716936322
 20
-49.9328360141
  0
LWPOLYLINE
  5
3B4
100
AcDbEntity
  8
ASSI
100
AcDbPolyline
 62
253
  6
CONTINUOUS
 90
18
 70
0
 10
-111.1123067488
 20
-49.5781113947
 10
-111.1102998495
 20
-49.6155813496
 10
-111.108214099
 20
-49.6514406185
 10
-111.1060496186
 20
-49.6855741703
 10
-111.1038037316
 20
-49.7178716957
 10
-111.101499106
 20
-49.7482292068
 10
-111.0991398574
 20
-49.7765481686
 10
-111.0967255211
 20
-49.8027388746
 10
-111.0942732693
 20
-49.8267194385
 10
-111.0917900234
 20
-49.8484132215
 10
-111.0892783557
 20
-49.8677490646
 10
-111.0867503122
 20
-49.8846637252
 10
-111.084215911
 20
-49.8991012165
 10
-111.0816806255
 20
-49.9110174403
 10
-111.0791508643
 20
-49.9203769202
 10
-111.0766354547
 20
-49.9271481589
 10
-111.0741458902
 20
-49.9313062859
 10
-111.0716936322
 20
-49.9328360141
  0
LWPOLYLINE
  5
3B5
100
AcDbEntity
  8
RACCORDO
100
AcDbPolyline
 62
253
  6
CONTINUOUS
 90
3
 70
0
 10
-111.1177233191
 20
-49.4572366661
 10
-111.1160142665
 20
-49.4988114831
 10
-111.1123067488
 20
-49.5781113947
  0
LWPOLYLINE
  5
3B6
100
AcDbEntity
  8
ASSI
100
AcDbPolyline
 62
253
  6
CONTINUOUS
 90
3
 70
0
 10
-111.1177233191
 20
-49.4572366661
 10
-111.1160142665
 20
-49.4988114831
 10
-111.1123067488
 20
-49.5781113947
  0
LWPOLYLINE
  5
3B7
100
AcDbEntity
  8
RACCORDO
100
AcDbPolyline
 62
253
  6
CONTINUOUS
 90
12
 70
0
 10
-113.783166431
 20
13.7110843626
 10
-113.9241846815
 20
9.9597367587
 10
-114.0338688176
 20
6.2073412026
 10
-114.1122221162
 20
2.4541624536
 10
-114.1592413024
 20
-1.2995378953
 10
-114.1749165484
 20
-5.0535014183
 10
-114.1592413013
 20
-8.8074649508
 10
-114.112222114
 20
-12.561165315
 10
-114.0338688149
 20
-16.3143440664
 10
-113.9241846791
 20
-20.0667396055
 10
-113.7831664295
 20
-23.8180871794
 10
-113.6076776721
 20
-27.6305980441
  0
LWPOLYLINE
  5
3B8
100
AcDbEntity
  8
ASSI
100
AcDbPolyline
 62
253
  6
CONTINUOUS
 90
12
 70
0
 10
-113.783166431
 20
13.7110843626
 10
-113.9241846815
 20
9.9597367587
 10
-114.0338688176
 20
6.2073412026
 10
-114.1122221162
 20
2.4541624536
 10
-114.1592413024
 20
-1.2995378953
 10
-114.1749165484
 20
-5.0535014183
 10
-114.1592413013
 20
-8.8074649508
 10
-114.112222114
 20
-12.561165315
 10
-114.0338688149
 20
-16.3143440664
 10
-113.9241846791
 20
-20.0667396055
 10
-113.7831664295
 20
-23.8180871794
 10
-113.6076776721
 20
-27.6305980441
  0
LWPOLYLINE
  5
3B9
100
AcDbEntity
  8
DRAFT
100
AcDbPolyline
 62
7
  6
CONTINUOUS
 90
13
 70
0
 10
-112.365614544
 20
17.4611208354
 10
-112.5384144925
 20
13.7116065178
 10
-112.6798014695
 20
9.9609231124
 10
-112.789775475
 20
6.2090706192
 10
-112.8683428658
 20
2.4556593424
 10
-112.9154972851
 20
-1.2989210223
 10
-112.9312196627
 20
-5.0535013869
 10
-112.9154972851
 20
-8.8080817515
 10
-112.8683428658
 20
-12.5626621161
 10
-112.789775475
 20
-16.316073393
 10
-112.6798014695
 20
-20.0679258861
 10
-112.5384144925
 20
-23.8186092915
 10
-112.365614544
 20
-27.5681236091
  0
LWPOLYLINE
  5
3BA
100
AcDbEntity
  8
ASSI
100
AcDbPolyline
 62
7
  6
CONTINUOUS
 90
13
 70
0
 10
-112.365614544
 20
17.4611208354
 10
-112.5384144925
 20
13.7116065178
 10
-112.6798014695
 20
9.9609231124
 10
-112.789775475
 20
6.2090706192
 10
-112.8683428658
 20
2.4556593424
 10
-112.9154972851
 20
-1.2989210223
 10
-112.9312196627
 20
-5.0535013869
 10
-112.9154972851
 20
-8.8080817515
 10
-112.8683428658
 20
-12.5626621161
 10
-112.789775475
 20
-16.316073393
 10
-112.6798014695
 20
-20.0679258861
 10
-112.5384144925
 20
-23.8186092915
 10
-112.365614544
 20
-27.5681236091
  0
LINE
  5
3BB
100
AcDbEntity
  8
RACCORDO
100
AcDbLine
 62
253
  6
CONTINUOUS
 10
-113.6076776721
 20
17.5235952703
 11
-113.783166431
 21
13.7110843626
  0
LINE
  5
3BC
100
AcDbEntity
  8
ASSI
100
AcDbLine
 62
253
  6
CONTINUOUS
 10
-113.6076776721
 20
17.5235952703
 11
-113.783166431
 21
13.7110843626
  0
LWPOLYLINE
  5
3BD
100
AcDbEntity
  8
RACCORDO
100
AcDbPolyline
 62
7
  6
CONTINUOUS
 90
5
 70
0
 10
-109.8174672315
 20
39.3513754843
 10
-109.8226332294
 20
39.3010162569
 10
-109.8283924003
 20
39.2499150092
 10
-109.8346267331
 20
39.1983372564
 10
-109.8413362278
 20
39.1464986131
  0
LWPOLYLINE
  5
3BE
100
AcDbEntity
  8
ASSI
100
AcDbPolyline
 62
7
  6
CONTINUOUS
 90
5
 70
0
 10
-109.8174672315
 20
39.3513754843
 10
-109.8226332294
 20
39.3010162569
 10
-109.8283924003
 20
39.2499150092
 10
-109.8346267331
 20
39.1983372564
 10
-109.8413362278
 20
39.1464986131
  0
LWPOLYLINE
  5
3BF
100
AcDbEntity
  8
RACCORDO
100
AcDbPolyline
 62
7
  6
CONTINUOUS
 90
10
 70
0
 10
-109.8413039656
 20
39.1464986131
 10
-110.2619953775
 20
36.7563295409
 10
-110.6477117141
 20
34.3606887754
 10
-110.9984529757
 20
31.9595763167
 10
-111.3143232147
 20
29.5521356895
 10
-111.5952183786
 20
27.1392233691
 10
-111.8408263093
 20
24.7234087809
 10
-112.0510429541
 20
22.3055484002
 10
-112.2259723657
 20
19.8847857516
 10
-112.365614544
 20
17.4611208354
  0
LWPOLYLINE
  5
3C0
100
AcDbEntity
  8
ASSI
100
AcDbPolyline
 62
7
  6
CONTINUOUS
 90
10
 70
0
 10
-109.8413039656
 20
39.1464986131
 10
-110.2619953775
 20
36.7563295409
 10
-110.6477117141
 20
34.3606887754
 10
-110.9984529757
 20
31.9595763167
 10
-111.3143232147
 20
29.5521356895
 10
-111.5952183786
 20
27.1392233691
 10
-111.8408263093
 20
24.7234087809
 10
-112.0510429541
 20
22.3055484002
 10
-112.2259723657
 20
19.8847857516
 10
-112.365614544
 20
17.4611208354
  0
LINE
  5
3C1
100
AcDbEntity
  8
0
100
AcDbLine
 62
253
  6
CONTINUOUS
 10
-108.061338677
 20
-5.0535013869
 11
-111.631338677
 21
-5.0535013869
  0
LWPOLYLINE
  5
3C2
100
AcDbEntity
  8
RACCORDO
100
AcDbPolyline
 62
7
  6
CONTINUOUS
 90
5
 70
0
 10
-109.8413362278
 20
-49.2535013869
 10
-109.8346268247
 20
-49.3053392238
 10
-109.8283925778
 20
-49.3569161475
 10
-109.8226334872
 20
-49.4080165547
 10
-109.8174675919
 20
-49.4583745813
  0
LWPOLYLINE
  5
3C3
100
AcDbEntity
  8
ASSI
100
AcDbPolyline
 62
7
  6
CONTINUOUS
 90
5
 70
0
 10
-109.8413362278
 20
-49.2535013869
 10
-109.8346268247
 20
-49.3053392238
 10
-109.8283925778
 20
-49.3569161475
 10
-109.8226334872
 20
-49.4080165547
 10
-109.8174675919
 20
-49.4583745813
  0
LINE
  5
3C4
100
AcDbEntity
  8
RACCORDO
100
AcDbLine
 62
253
  6
CONTINUOUS
 10
-111.1207694729
 20
-49.3710322623
 11
-111.1177233191
 21
-49.4572366661
  0
LINE
  5
3C5
100
AcDbEntity
  8
ASSI
100
AcDbLine
 62
253
  6
CONTINUOUS
 10
-111.1207694729
 20
-49.3710322623
 11
-111.1177233191
 21
-49.4572366661
  0
LINE
  5
3C6
100
AcDbEntity
  8
RACCORDO
100
AcDbLine
 62
253
  6
CONTINUOUS
 10
-111.1233356095
 20
-49.2816534677
 11
-111.1207694729
 21
-49.3710322623
  0
LINE
  5
3C7
100
AcDbEntity
  8
ASSI
100
AcDbLine
 62
253
  6
CONTINUOUS
 10
-111.1233356095
 20
-49.2816534677
 11
-111.1207694729
 21
-49.3710322623
  0
LWPOLYLINE
  5
3C8
100
AcDbEntity
  8
RACCORDO
100
AcDbPolyline
 62
253
  6
CONTINUOUS
 90
3
 70
0
 10
-111.1261932171
 20
-49.1438584025
 10
-111.1253538693
 20
-49.1900833672
 10
-111.1233356095
 20
-49.2816534677
  0
LWPOLYLINE
  5
3C9
100
AcDbEntity
  8
ASSI
100
AcDbPolyline
 62
253
  6
CONTINUOUS
 90
3
 70
0
 10
-111.1261932171
 20
-49.1438584025
 10
-111.1253538693
 20
-49.1900833672
 10
-111.1233356095
 20
-49.2816534677
  0
LINE
  5
3CA
100
AcDbEntity
  8
RACCORDO
100
AcDbLine
 62
7
  6
CONTINUOUS
 10
-111.057785827
 20
24.4907687185
 11
-111.0577873976
 21
24.3985309564
  0
LINE
  5
3CB
100
AcDbEntity
  8
SMUSSO
100
AcDbLine
 62
7
  6
CONTINUOUS
 10
-110.5613380513
 20
29.1025854703
 11
-110.561338677
 21
29.0388733442
  0
LINE
  5
3CC
100
AcDbEntity
  8
SMUSSO
100
AcDbLine
 62
7
  6
CONTINUOUS
 10
-110.561338677
 20
-39.1458761239
 11
-110.561338868
 21
-39.1948014294
  0
LINE
  5
3CD
100
AcDbEntity
  8
RACCORDO
100
AcDbLine
 62
7
  6
CONTINUOUS
 10
-110.261338677
 20
-41.5255901913
 11
-110.261338677
 21
-41.4809053231
  0
LINE
  5
3CE
100
AcDbEntity
  8
RACCORDO
100
AcDbLine
 62
7
  6
CONTINUOUS
 10
-110.261338677
 20
31.3739025625
 11
-110.261338677
 21
31.4257537038
  0
LINE
  5
3CF
100
AcDbEntity
  8
ASSI
100
AcDbLine
 62
253
  6
CONTINUOUS
 10
-109.4822802356
 20
-46.664656959
 11
-109.4822802356
 21
-46.5929060516
  0
LINE
  5
3D0
100
AcDbEntity
  8
RACCORDO
100
AcDbLine
 62
253
  6
CONTINUOUS
 10
-109.4822802356
 20
36.4859032736
 11
-109.4822802356
 21
36.5546915754
  0
LINE
  5
3D1
100
AcDbEntity
  8
RACCORDO
100
AcDbLine
 62
7
  6
CONTINUOUS
 10
-111.0577402425
 20
-34.5059478259
 11
-111.0577516697
 21
-34.5705786746
  0
LINE
  5
3D2
100
AcDbEntity
  8
RACCORDO
100
AcDbLine
 62
253
  6
CONTINUOUS
 10
-111.1244049705
 20
39.1290596164
 11
-111.1261932171
 21
39.0368556286
  0
LINE
  5
3D3
100
AcDbEntity
  8
ASSI
100
AcDbLine
 62
253
  6
CONTINUOUS
 10
-111.1244049705
 20
39.1290596164
 11
-111.1261932171
 21
39.0368556286
  0
LINE
  5
3D4
100
AcDbEntity
  8
RACCORDO
100
AcDbLine
 62
253
  6
CONTINUOUS
 10
-111.1221208814
 20
39.2197631199
 11
-111.1244049705
 21
39.1290596164
  0
LINE
  5
3D5
100
AcDbEntity
  8
ASSI
100
AcDbLine
 62
253
  6
CONTINUOUS
 10
-111.1221208814
 20
39.2197631199
 11
-111.1244049705
 21
39.1290596164
  0
LINE
  5
3D6
100
AcDbEntity
  8
RACCORDO
100
AcDbLine
 62
253
  6
CONTINUOUS
 10
-111.1192992106
 20
39.3077855967
 11
-111.1221208814
 21
39.2197631199
  0
LINE
  5
3D7
100
AcDbEntity
  8
ASSI
100
AcDbLine
 62
253
  6
CONTINUOUS
 10
-111.1192992106
 20
39.3077855967
 11
-111.1221208814
 21
39.2197631199
  0
LINE
  5
3D8
100
AcDbEntity
  8
RACCORDO
100
AcDbLine
 62
7
  6
CONTINUOUS
 10
-107.8960683125
 20
-1.5243597625
 11
-106.061338677
 21
-1.2008474255
  0
LINE
  5
3D9
100
AcDbEntity
  8
RACCORDO
100
AcDbLine
 62
7
  6
CONTINUOUS
 10
-108.061338677
 20
-8.3856814606
 11
-108.061338677
 21
-1.7213213131
  0
LINE
  5
3DA
100
AcDbEntity
  8
DRAFT
100
AcDbLine
 62
7
  6
CONTINUOUS
 10
-106.061338677
 20
-27.4221105794
 11
-106.061338677
 21
-8.9061553483
  0
LINE
  5
3DB
100
AcDbEntity
  8
RACCORDO
100
AcDbLine
 62
7
  6
CONTINUOUS
 10
-106.061338677
 20
-27.4221105794
 11
-106.061338677
 21
-48.1535018426
  0
LINE
  5
3DC
100
AcDbEntity
  8
DRAFT
100
AcDbLine
 62
7
  6
CONTINUOUS
 10
-106.061338677
 20
-1.2008474255
 11
-106.061338677
 21
17.3151078057
  0
LINE
  5
3DD
100
AcDbEntity
  8
RACCORDO
100
AcDbLine
 62
7
  6
CONTINUOUS
 10
-106.061338677
 20
17.3151078057
 11
-106.061338677
 21
38.0464988789
  0
LINE
  5
3DE
100
AcDbEntity
  8
DRAFT
100
AcDbLine
 62
7
  6
CONTINUOUS
 10
-111.7384197145
 20
13.4548260936
 11
-111.7476812605
 21
13.4549877545
  0
LINE
  5
3DF
100
AcDbEntity
  8
DRAFT
100
AcDbLine
 62
7
  6
CONTINUOUS
 10
-111.3768285549
 20
20.4444827298
 11
-111.3843061157
 21
20.4443522085
  0
LINE
  5
3E0
100
AcDbEntity
  8
0
100
AcDbLine
 62
253
  6
CONTINUOUS
 10
-111.0672550557
 20
17.3958319465
 11
-111.5578735044
 21
17.3958319465
  0
LINE
  5
3E1
100
AcDbEntity
  8
RACCORDO
100
AcDbLine
 62
253
  6
CONTINUOUS
 10
-112.365614544
 20
17.4611208354
 11
-113.6108140651
 21
17.4611208354
  0
LINE
  5
3E2
100
AcDbEntity
  8
ASSI
100
AcDbLine
 62
253
  6
CONTINUOUS
 10
-112.365614544
 20
17.4611208354
 11
-113.6108140651
 21
17.4611208354
  0
LWPOLYLINE
  5
3E3
100
AcDbEntity
  8
0
100
AcDbPolyline
 62
253
  6
CONTINUOUS
 90
3
 70
0
 10
-111.0672550557
 20
17.3958319465
 10
-106.4552426384
 20
17.3219768565
 10
-106.061338677
 20
17.3151078057
  0
LINE
  5
3E4
100
AcDbEntity
  8
RACCORDO
100
AcDbLine
 62
253
  6
CONTINUOUS
 10
-113.6108140651
 20
17.4611208354
 11
-114.0666091294
 21
17.4839711494
  0
LINE
  5
3E5
100
AcDbEntity
  8
ASSI
100
AcDbLine
 62
253
  6
CONTINUOUS
 10
-113.6108140651
 20
17.4611208354
 11
-114.0666091294
 21
17.4839711494
  0
LINE
  5
3E6
100
AcDbEntity
  8
RACCORDO
100
AcDbLine
 62
253
  6
CONTINUOUS
 10
-113.6076776721
 20
17.5235952703
 11
-114.0634692596
 21
17.5464986132
  0
LINE
  5
3E7
100
AcDbEntity
  8
ASSI
100
AcDbLine
 62
253
  6
CONTINUOUS
 10
-113.6076776721
 20
17.5235952703
 11
-114.0634692596
 21
17.5464986132
  0
LINE
  5
3E8
100
AcDbEntity
  8
DRAFT
100
AcDbLine
 62
7
  6
CONTINUOUS
 10
-111.143500963
 20
23.4444417482
 11
-111.1517878541
 21
23.4445863964
  0
LINE
  5
3E9
100
AcDbEntity
  8
0
100
AcDbLine
 62
7
  6
CONTINUOUS
 10
-110.3187749876
 20
30.9464986131
 11
-110.3264966138
 21
30.9464986131
  0
LWPOLYLINE
  5
3EA
100
AcDbEntity
  8
RACCORDO
100
AcDbPolyline
 62
253
  6
CONTINUOUS
 90
19
 70
0
 10
-106.779648473
 20
38.7258111136
 10
-106.7571209275
 20
38.7068865494
 10
-106.736946487
 20
38.6849978981
 10
-106.7192207527
 20
38.6602488836
 10
-106.7040277223
 20
38.6327567846
 10
-106.6914393915
 20
38.6026518783
 10
-106.6815154132
 20
38.5700768232
 10
-106.6743028146
 20
38.5351859834
 10
-106.6698357748
 20
38.4981446967
 10
-106.6681354619
 20
38.4591284915
 10
-106.6692099338
 20
38.4183222545
 10
-106.6730540991
 20
38.3759193551
 10
-106.6796497417
 20
38.3321207293
 10
-106.688965607
 20
38.2871339263
 10
-106.70095755
 20
38.2411721264
 10
-106.7155687443
 20
38.1944531301
 10
-106.7327299519
 20
38.1471983262
 10
-106.7523598507
 20
38.0996316419
 10
-106.7743654202
 20
38.0519784829
  0
LINE
  5
3EB
100
AcDbEntity
  8
RACCORDO
100
AcDbLine
 62
253
  6
CONTINUOUS
 10
-109.8613489048
 20
34.1964986131
 11
-109.8497051115
 21
34.1964986131
  0
LWPOLYLINE
  5
3EC
100
AcDbEntity
  8
RACCORDO
100
AcDbPolyline
 62
253
  6
CONTINUOUS
 90
13
 70
0
 10
-106.7743652859
 20
38.0519784746
 10
-106.6937949794
 20
38.0037015816
 10
-106.6176951106
 20
37.955986293
 10
-106.545949704
 20
37.908835839
 10
-106.4785803105
 20
37.8621949275
 10
-106.4153240982
 20
37.8161250685
 10
-106.3556587983
 20
37.7708044664
 10
-106.299579038
 20
37.7263631402
 10
-106.2468959949
 20
37.6826766461
 10
-106.1968609776
 20
37.6395406535
 10
-106.1491907878
 20
37.5968880557
 10
-106.1040388308
 20
37.5547896428
 10
-106.0613386333
 20
37.5132472446
  0
LWPOLYLINE
  5
3ED
100
AcDbEntity
  8
RACCORDO
100
AcDbPolyline
 62
7
  6
CONTINUOUS
 90
18
 70
0
 10
-109.6942572666
 20
39.9463433071
 10
-109.7047639911
 20
39.9437759381
 10
-109.7145549142
 20
39.9380218557
 10
-109.7236300359
 20
39.929050498
 10
-109.7319091314
 20
39.9168330087
 10
-109.7394724256
 20
39.901372696
 10
-109.746560593
 20
39.8827322306
 10
-109.7532035498
 20
39.8609698512
 10
-109.7593713799
 20
39.8361431676
 10
-109.7652150087
 20
39.8083717086
 10
-109.7707440079
 20
39.7777603221
 10
-109.7759488059
 20
39.7444250606
 10
-109.7809516133
 20
39.7085445494
 10
-109.7857474035
 20
39.6702782318
 10
-109.7903412031
 20
39.6297794115
 10
-109.7948703023
 20
39.5872475859
 10
-109.7993185216
 20
39.5428477611
 10
-109.8174672315
 20
39.3513754843
  0
LWPOLYLINE
  5
3EE
100
AcDbEntity
  8
ASSI
100
AcDbPolyline
 62
7
  6
CONTINUOUS
 90
18
 70
0
 10
-109.6942572666
 20
39.9463433071
 10
-109.7047639911
 20
39.9437759381
 10
-109.7145549142
 20
39.9380218557
 10
-109.7236300359
 20
39.929050498
 10
-109.7319091314
 20
39.9168330087
 10
-109.7394724256
 20
39.901372696
 10
-109.746560593
 20
39.8827322306
 10
-109.7532035498
 20
39.8609698512
 10
-109.7593713799
 20
39.8361431676
 10
-109.7652150087
 20
39.8083717086
 10
-109.7707440079
 20
39.7777603221
 10
-109.7759488059
 20
39.7444250606
 10
-109.7809516133
 20
39.7085445494
 10
-109.7857474035
 20
39.6702782318
 10
-109.7903412031
 20
39.6297794115
 10
-109.7948703023
 20
39.5872475859
 10
-109.7993185216
 20
39.5428477611
 10
-109.8174672315
 20
39.3513754843
  0
LINE
  5
3EF
100
AcDbEntity
  8
0
100
AcDbLine
 62
253
  6
CONTINUOUS
 10
-109.2593663873
 20
37.805781955
 11
-108.7539991647
 21
37.8500203235
  0
LINE
  5
3F0
100
AcDbEntity
  8
0
100
AcDbLine
 62
7
  6
CONTINUOUS
 10
-109.0808755081
 20
38.8022115976
 11
-108.5746726049
 21
38.8464986131
  0
LINE
  5
3F1
100
AcDbEntity
  8
RACCORDO
100
AcDbLine
 62
253
  6
CONTINUOUS
 10
-111.1261932186
 20
39.0368556285
 11
-109.8408423605
 21
39.1493588298
  0
LINE
  5
3F2
100
AcDbEntity
  8
ASSI
100
AcDbLine
 62
253
  6
CONTINUOUS
 10
-111.1261932186
 20
39.0368556285
 11
-109.8408423605
 21
39.1493588298
  0
LINE
  5
3F3
100
AcDbEntity
  8
RACCORDO
100
AcDbLine
 62
7
  6
CONTINUOUS
 10
-111.0716936322
 20
39.8258332403
 11
-109.6924821103
 21
39.9464986131
  0
LINE
  5
3F4
100
AcDbEntity
  8
ASSI
100
AcDbLine
 62
7
  6
CONTINUOUS
 10
-111.0716936322
 20
39.8258332403
 11
-109.6924821103
 21
39.9464986131
  0
LINE
  5
3F5
100
AcDbEntity
  8
RACCORDO
100
AcDbLine
 62
7
  6
CONTINUOUS
 10
-109.283227052
 20
37.66450234
 11
-109.2924042047
 21
37.6642620278
  0
LINE
  5
3F6
100
AcDbEntity
  8
RACCORDO
100
AcDbLine
 62
253
  6
CONTINUOUS
 10
-109.8413039656
 20
39.1464986131
 11
-109.0279093492
 21
39.1464986131
  0
LINE
  5
3F7
100
AcDbEntity
  8
ASSI
100
AcDbLine
 62
253
  6
CONTINUOUS
 10
-109.8413039656
 20
39.1464986131
 11
-109.0279093492
 21
39.1464986131
  0
LINE
  5
3F8
100
AcDbEntity
  8
RACCORDO
100
AcDbLine
 62
7
  6
CONTINUOUS
 10
-109.6924821103
 20
39.9464986131
 11
-108.8783082161
 21
39.9464986131
  0
LINE
  5
3F9
100
AcDbEntity
  8
ASSI
100
AcDbLine
 62
7
  6
CONTINUOUS
 10
-109.6924821103
 20
39.9464986131
 11
-108.8783082161
 21
39.9464986131
  0
LINE
  5
3FA
100
AcDbEntity
  8
RACCORDO
100
AcDbLine
 62
253
  6
CONTINUOUS
 10
-106.7743652859
 20
38.0519784746
 11
-108.7160746387
 21
38.0637101254
  0
LWPOLYLINE
  5
3FB
100
AcDbEntity
  8
RACCORDO
100
AcDbPolyline
 62
253
  6
CONTINUOUS
 90
16
 70
0
 10
-108.6094649888
 20
38.6558759814
 10
-108.4856026511
 20
38.6377927398
 10
-108.361667433
 20
38.6168023913
 10
-108.2377365875
 20
38.5928999733
 10
-108.1139402881
 20
38.5661553466
 10
-107.9903187248
 20
38.5364886286
 10
-107.8668214625
 20
38.5036697093
 10
-107.743567427
 20
38.4677281939
 10
-107.6206414303
 20
38.4286231741
 10
-107.4979517262
 20
38.3860175546
 10
-107.3755056727
 20
38.3399368678
 10
-107.2535490633
 20
38.2903425077
 10
-107.1323428634
 20
38.2367997086
 10
-107.0120316146
 20
38.1791583446
 10
-106.8926707817
 20
38.1175537146
 10
-106.7743652859
 20
38.0519784746
  0
LINE
  5
3FC
100
AcDbEntity
  8
RACCORDO
100
AcDbLine
 62
253
  6
CONTINUOUS
 10
-111.1261932167
 20
39.0368556385
 11
-111.5745877695
 21
39.1181553839
  0
LINE
  5
3FD
100
AcDbEntity
  8
ASSI
100
AcDbLine
 62
253
  6
CONTINUOUS
 10
-111.1261932167
 20
39.0368556385
 11
-111.5745877695
 21
39.1181553839
  0
LWPOLYLINE
  5
3FE
100
AcDbEntity
  8
RACCORDO
100
AcDbPolyline
 62
253
  6
CONTINUOUS
 90
10
 70
0
 10
-106.7743652859
 20
-48.1589812484
 10
-106.6833482167
 20
-48.1044626146
 10
-106.5959205893
 20
-48.0489931431
 10
-106.5120003251
 20
-47.9925737118
 10
-106.4321299462
 20
-47.9357187121
 10
-106.3555723136
 20
-47.8779164622
 10
-106.2804019419
 20
-47.8176253744
 10
-106.206004961
 20
-47.7543285241
 10
-106.13298844
 20
-47.6885374854
 10
-106.0613386992
 20
-47.6202500802
  0
ARC
  5
3FF
100
AcDbEntity
  8
RACCORDO
100
AcDbCircle
 62
7
  6
CONTINUOUS
 10
76.7
 20
-49.2535013869
 40
0.8
100
AcDbArc
 50
270.0
 51
360.0
  0
ARC
  5
400
100
AcDbEntity
  8
RACCORDO
100
AcDbCircle
 62
7
  6
CONTINUOUS
 10
76.7
 20
39.1464986131
 40
0.8
100
AcDbArc
 50
0.0
 51
90.0
  0
ARC
  5
401
100
AcDbEntity
  8
RACCORDO
100
AcDbCircle
 62
7
  6
CONTINUOUS
 10
-76.7
 20
-49.2535013869
 40
0.8
100
AcDbArc
 50
180.0
 51
270.0
  0
ARC
  5
402
100
AcDbEntity
  8
RACCORDO
100
AcDbCircle
 62
7
  6
CONTINUOUS
 10
-76.7
 20
39.1464986131
 40
0.8
100
AcDbArc
 50
90.0
 51
180.0
  0
ARC
  5
403
100
AcDbEntity
  8
ASSI
100
AcDbCircle
 62
7
  6
CONTINUOUS
 10
76.7
 20
-49.2535013869
 40
0.8
100
AcDbArc
 50
270.0
 51
360.0
  0
ARC
  5
404
100
AcDbEntity
  8
ASSI
100
AcDbCircle
 62
7
  6
CONTINUOUS
 10
76.7
 20
39.1464986131
 40
0.8
100
AcDbArc
 50
0.0
 51
90.0
  0
ARC
  5
405
100
AcDbEntity
  8
ASSI
100
AcDbCircle
 62
7
  6
CONTINUOUS
 10
-76.7
 20
-49.2535013869
 40
0.8
100
AcDbArc
 50
180.0
 51
270.0
  0
ARC
  5
406
100
AcDbEntity
  8
ASSI
100
AcDbCircle
 62
7
  6
CONTINUOUS
 10
-76.7
 20
39.1464986131
 40
0.8
100
AcDbArc
 50
90.0
 51
180.0
  0
ARC
  5
407
100
AcDbEntity
  8
RACCORDO
100
AcDbCircle
 62
7
  6
CONTINUOUS
 10
-109.1617198716
 20
-45.5945506497
 40
4.0200239337
100
AcDbArc
 50
279.9999998524
 51
320.4648682741
  0
ARC
  5
408
100
AcDbEntity
  8
RACCORDO
100
AcDbCircle
 62
7
  6
CONTINUOUS
 10
-111.0281162663
 20
-49.4347359432
 40
0.5
100
AcDbArc
 50
190.3884938804
 51
265.0000848831
  0
ARC
  5
409
100
AcDbEntity
  8
ASSI
100
AcDbCircle
 62
7
  6
CONTINUOUS
 10
-111.0281162663
 20
-49.4347359432
 40
0.5
100
AcDbArc
 50
190.3884938804
 51
265.0000848831
  0
ARC
  5
40A
100
AcDbEntity
  8
RACCORDO
100
AcDbCircle
 62
7
  6
CONTINUOUS
 10
-107.861338677
 20
-8.3856814606
 40
0.2
100
AcDbArc
 50
180.0
 51
260.0
  0
ARC
  5
40B
100
AcDbEntity
  8
RACCORDO
100
AcDbCircle
 62
7
  6
CONTINUOUS
 10
53.8443747261
 20
-19.2101413869
 40
168.12
100
AcDbArc
 50
182.8787323946
 51
190.3881766496
  0
ARC
  5
40C
100
AcDbEntity
  8
ASSI
100
AcDbCircle
 62
7
  6
CONTINUOUS
 10
53.8443747261
 20
-19.2101413869
 40
168.12
100
AcDbArc
 50
182.8787323946
 51
190.3881766496
  0
ARC
  5
40D
100
AcDbEntity
  8
SCRITTE
100
AcDbCircle
 62
253
  6
CONTINUOUS
 10
53.8443747261
 20
-19.2101413869
 40
168.12
100
AcDbArc
 50
184.066222377
 51
185.0234475517
  0
ARC
  5
40E
100
AcDbEntity
  8
RACCORDO
100
AcDbCircle
 62
7
  6
CONTINUOUS
 10
53.8443747261
 20
-19.2101413869
 40
165.62
100
AcDbArc
 50
182.8787323946
 51
190.7328340038
  0
ARC
  5
40F
100
AcDbEntity
  8
ASSI
100
AcDbCircle
 62
7
  6
CONTINUOUS
 10
53.8443747261
 20
-19.2101413869
 40
165.62
100
AcDbArc
 50
182.8787323946
 51
190.7328340038
  0
ARC
  5
410
100
AcDbEntity
  8
0
100
AcDbCircle
 62
7
  6
CONTINUOUS
 10
53.8443747261
 20
-19.2101413869
 40
165.61
100
AcDbArc
 50
182.8787323946
 51
190.330818118
  0
ARC
  5
411
100
AcDbEntity
  8
0
100
AcDbCircle
 62
7
  6
CONTINUOUS
 10
53.8443747261
 20
-19.2101413869
 40
165.12
100
AcDbArc
 50
182.8787323946
 51
190.1014160686
  0
ARC
  5
412
100
AcDbEntity
  8
RACCORDO
100
AcDbCircle
 62
7
  6
CONTINUOUS
 10
53.8443747261
 20
-19.2101413869
 40
165.12
100
AcDbArc
 50
190.1014160686
 51
190.5891670949
  0
ARC
  5
413
100
AcDbEntity
  8
RACCORDO
100
AcDbCircle
 62
7
  6
CONTINUOUS
 10
53.8443747261
 20
9.1031386131
 40
168.12
100
AcDbArc
 50
169.6125188462
 51
177.1212676054
  0
ARC
  5
414
100
AcDbEntity
  8
ASSI
100
AcDbCircle
 62
7
  6
CONTINUOUS
 10
53.8443747261
 20
9.1031386131
 40
168.12
100
AcDbArc
 50
169.6125188462
 51
177.1212676054
  0
ARC
  5
415
100
AcDbEntity
  8
RACCORDO
100
AcDbCircle
 62
7
  6
CONTINUOUS
 10
53.8443747261
 20
9.1031386131
 40
165.62
100
AcDbArc
 50
169.2676317374
 51
177.1212676054
  0
ARC
  5
416
100
AcDbEntity
  8
ASSI
100
AcDbCircle
 62
7
  6
CONTINUOUS
 10
53.8443747261
 20
9.1031386131
 40
165.62
100
AcDbArc
 50
169.2676317374
 51
177.1212676054
  0
ARC
  5
417
100
AcDbEntity
  8
0
100
AcDbCircle
 62
7
  6
CONTINUOUS
 10
53.8443747261
 20
9.1031386131
 40
165.61
100
AcDbArc
 50
169.669181882
 51
177.1212676054
  0
ARC
  5
418
100
AcDbEntity
  8
RACCORDO
100
AcDbCircle
 62
7
  6
CONTINUOUS
 10
53.8443747261
 20
9.1031386131
 40
165.12
100
AcDbArc
 50
169.4108329051
 51
169.8985839314
  0
ARC
  5
419
100
AcDbEntity
  8
0
100
AcDbCircle
 62
7
  6
CONTINUOUS
 10
53.8443747261
 20
9.1031386131
 40
165.12
100
AcDbArc
 50
169.8985839314
 51
177.1212676054
  0
ARC
  5
41A
100
AcDbEntity
  8
RACCORDO
100
AcDbCircle
 62
7
  6
CONTINUOUS
 10
-109.1617198716
 20
35.4875478759
 40
4.0200239337
100
AcDbArc
 50
39.5351282156
 51
80.0000000573
  0
ARC
  5
41B
100
AcDbEntity
  8
RACCORDO
100
AcDbCircle
 62
7
  6
CONTINUOUS
 10
-111.0281162663
 20
39.3277331695
 40
0.5
100
AcDbArc
 50
94.9999151169
 51
169.6115061196
  0
ARC
  5
41C
100
AcDbEntity
  8
ASSI
100
AcDbCircle
 62
7
  6
CONTINUOUS
 10
-111.0281162663
 20
39.3277331695
 40
0.5
100
AcDbArc
 50
94.9999151169
 51
169.6115061196
  0
ARC
  5
41D
100
AcDbEntity
  8
RACCORDO
100
AcDbCircle
 62
7
  6
CONTINUOUS
 10
-107.861338677
 20
-1.7213213131
 40
0.2
100
AcDbArc
 50
100.0
 51
180.0
  0
ARC
  5
41E
100
AcDbEntity
  8
RACCORDO
100
AcDbCircle
 62
7
  6
CONTINUOUS
 10
335.368661323
 20
-5.0535013869
 40
450.0
100
AcDbArc
 50
177.1212731691
 51
182.8787274802
  0
ARC
  5
41F
100
AcDbEntity
  8
ASSI
100
AcDbCircle
 62
7
  6
CONTINUOUS
 10
335.368661323
 20
-5.0535013869
 40
450.0
100
AcDbArc
 50
177.1212731691
 51
182.8787274802
  0
ARC
  5
420
100
AcDbEntity
  8
DRAFT
100
AcDbCircle
 62
7
  6
CONTINUOUS
 10
335.368661323
 20
-5.0535013869
 40
447.5
100
AcDbArc
 50
177.1212676054
 51
182.8787323946
  0
ARC
  5
421
100
AcDbEntity
  8
ASSI
100
AcDbCircle
 62
7
  6
CONTINUOUS
 10
335.368661323
 20
-5.0535013869
 40
447.5
100
AcDbArc
 50
177.1212676054
 51
182.8787323946
  0
ARC
  5
422
100
AcDbEntity
  8
0
100
AcDbCircle
 62
7
  6
CONTINUOUS
 10
335.368661323
 20
-5.0535013869
 40
447.49
100
AcDbArc
 50
177.1212676054
 51
182.8787323946
  0
ARC
  5
423
100
AcDbEntity
  8
0
100
AcDbCircle
 62
7
  6
CONTINUOUS
 10
335.368661323
 20
-5.0535013869
 40
447.0
100
AcDbArc
 50
177.1212676054
 51
182.8787323946
  0
ELLIPSE
  5
424
100
AcDbEntity
  8
SCRITTE
100
AcDbEllipse
 62
253
  6
CONTINUOUS
 10
53.8443747261
 20
-19.2101413869
 30
0.0
 11
-0.0
 21
168.12
 31
0.0
 40
1.0
 41
1.6417662972
 42
1.6584720243
  0
ENDSEC
  0
SECTION
  2
OBJECTS
  0
DICTIONARY
  5
C
100
AcDbDictionary
280
0
281
1
  3
ACAD_GROUP
350
D
  3
ACAD_MLINESTYLE
350
17
  3
ACAD_LAYOUT
350
1A
  3
ACAD_PLOTSETTINGS
350
19
  3
ACAD_PLOTSTYLENAME
350
E
  0
DICTIONARY
  5
D
102
{ACAD_REACTORS
330
C
102
}
100
AcDbDictionary
280
0
281
1
  0
ACDBDICTIONARYWDFLT
  5
E
102
{ACAD_REACTORS
330
C
102
}
100
AcDbDictionary
281
1
  3
Normal
350
F
100
AcDbDictionaryWithDefault
340
F
  0
DICTIONARY
  5
17
102
{ACAD_REACTORS
330
C
102
}
100
AcDbDictionary
280
0
281
1
  3
Standard
350
18
  0
DICTIONARY
  5
19
102
{ACAD_REACTORS
330
C
102
}
100
AcDbDictionary
281
1
  0
DICTIONARY
  5
1A
102
{ACAD_REACTORS
330
C
102
}
100
AcDbDictionary
281
1
  3
Model
350
425
  3
Layout1
350
426
  0
ACDBPLACEHOLDER
  5
F
102
{ACAD_REACTORS
330
E
102
}
  0
MLINESTYLE
  5
18
102
{ACAD_REACTORS
330
17
102
}
100
AcDbMlineStyle
  2
STANDARD
 70
0
  3

 62
256
 51
90.0
 52
90.0
 71
2
 49
0.5
 62
256
  6
BYLAYER
 49
-0.5
 62
256
  6
BYLAYER
  0
LAYOUT
  5
425
102
{ACAD_REACTORS
330
1A
102
}
100
AcDbPlotSettings
  1

  2
none_device
  4
ISO_A4_(297.00_x_210.00_MM)
  6

 40
0.0
 41
0.0
 42
0.0
 43
0.0
 44
297.0
 45
210.0
 46
0.0
 47
0.0
 48
0.0
 49
0.0
140
0.0
141
0.0
142
1.0
143
1.0
 70
1024
 72
1
 73
0
 74
0
  7

 75
0
147
1.0
148
0.0
149
0.0
100
AcDbLayout
  1
Model
 70
0
 71
0
 10
0.0
 20
0.0
 11
297.0
 21
210.0
 12
0.0
 22
0.0
 32
0.0
 14
0.0
 24
0.0
 34
0.0
 15
0.0
 25
0.0
 35
0.0
146
0.0
 13
0.0
 23
0.0
 33
0.0
 16
1.0
 26
0.0
 36
0.0
 17
0.0
 27
1.0
 37
0.0
 76
0
330
218
345
0
346
0
  0
LAYOUT
  5
426
102
{ACAD_REACTORS
330
1A
102
}
100
AcDbPlotSettings
  1

  2
none_device
  4
ISO_A4_(297.00_x_210.00_MM)
  6

 40
0.0
 41
0.0
 42
0.0
 43
0.0
 44
297.0
 45
210.0
 46
0.0
 47
0.0
 48
0.0
 49
0.0
140
0.0
141
0.0
142
1.0
143
1.0
 70
0
 72
1
 73
0
 74
0
  7

 75
0
147
1.0
148
0.0
149
0.0
100
AcDbLayout
  1
Layout1
 70
0
 71
1
 10
0.0
 20
0.0
 11
297.0
 21
210.0
 12
0.0
 22
0.0
 32
0.0
 14
0.0
 24
0.0
 34
0.0
 15
0.0
 25
0.0
 35
0.0
146
0.0
 13
0.0
 23
0.0
 33
0.0
 16
1.0
 26
0.0
 36
0.0
 17
0.0
 27
1.0
 37
0.0
 76
0
330
219
345
0
346
0
  0
ENDSEC
  0
EOF
