  0
SECTION
  2
HEADER
  9
$ACADVER
  1
AC1024
  9
$DWGCODEPAGE
  3
ANSI_1252
  9
$EXTMAX
 10
297.0
 20
210.0
 30
0.0
  9
$EXTMIN
 10
0.0
 20
0.0
 30
0.0
  9
$LIMMIN
 10
0.0
 20
0.0
  9
$LIMMAX
 10
297.0
 20
210.0
  9
$VIEWCTR
 10
148.5
 20
105.0
  9
$VIEWSIZE
 40
210.0
  9
$CLAYER
  8
0
  9
$LTSCALE
 40
16.335
  9
$CELTYPE
  6
BYLAYER
  9
$DIMSCALE
 40
1.0
  9
$DIMASZ
 40
3.0
  9
$DIMEXO
 40
0.5
  9
$DIMDLI
 40
11.286
  9
$DIMEXE
 40
1.5
  9
$DIMCEN
 40
2.673
  9
$DIMLFAC
 40
1.0
  9
$DIMBLK
  1
_FILLED
  9
$DIMALT
 70
0
  9
$DIMALTF
 40
0.0393700787
  9
$DIMTXT
 40
3.0
  9
$DIMTOL
 70
1
  9
$DIMLIM
 70
0
  9
$DIMTFAC
 40
1.0
  9
$DIMTP
 40
0.01
  9
$DIMTM
 40
0.01
  9
$DIMGAP
 40
0.625
  9
$DIMDSEP
 70
44
  9
$AUNITS
 70
0
  9
$PDMODE
 70
3
  9
$PDSIZE
 40
3.0
  9
$HANDSEED
  5
36F
  9
$TILEMODE
 70
1
  9
$MEASUREMENT
 70
1
  9
$INSUNITS
 70
4
  0
ENDSEC
  0
SECTION
  2
CLASSES
  0
CLASS
  1
ACDBDICTIONARYWDFLT
  2
AcDbDictionaryWithDefault
  3
AutoCAD 2000
 90
0
 91
1
280
0
281
0
  0
CLASS
  1
ACDBPLACEHOLDER
  2
AcDbPlaceHolder
  3
AutoCAD 2000
 90
0
 91
1
280
0
281
0
  0
CLASS
  1
LAYOUT
  2
AcDbLayout
  3
AutoCAD 2000
 90
0
 91
0
280
0
281
0
  0
ENDSEC
  0
SECTION
  2
TABLES
  0
TABLE
  2
VPORT
  5
8
100
AcDbSymbolTable
 70
2
  0
VPORT
  5
1F4
100
AcDbSymbolTableRecord
100
AcDbViewportTableRecord
  2
*ACTIVE
 70
0
 10
0.0
 20
0.0
 11
1.0
 21
1.0
 12
148.5
 22
105.0
 13
0.0
 23
0.0
 14
1.0
 24
1.0
 15
0.0
 25
0.0
 16
0.0
 26
0.0
 36
1.0
 17
0.0
 27
0.0
 37
0.0
 40
210.0
 41
1.4142857143
 42
50.0
 43
0.0
 44
0.0
 50
0.0
 51
0.0
 71
0
 72
100
 73
1
 74
1
 75
0
 76
0
 77
0
 78
0
  0
ENDTAB
  0
TABLE
  2
LTYPE
  5
5
100
AcDbSymbolTable
 70
6
  0
LTYPE
  5
14
100
AcDbSymbolTableRecord
100
AcDbLinetypeTableRecord
  2
BYBLOCK
 70
0
  3

 72
65
 73
0
 40
0.0
  0
LTYPE
  5
15
100
AcDbSymbolTableRecord
100
AcDbLinetypeTableRecord
  2
BYLAYER
 70
0
  3

 72
65
 73
0
 40
0.0
  0
LTYPE
  5
16
100
AcDbSymbolTableRecord
100
AcDbLinetypeTableRecord
  2
CONTINUOUS
 70
64
  3
Solid line
 72
65
 73
0
 40
0.0
  0
LTYPE
  5
1F5
100
AcDbSymbolTableRecord
100
AcDbLinetypeTableRecord
  2
CENTER
 70
64
  3
____ _ ____ _ ____ _ ____ _ ____ _ ____ _ ____
 72
65
 73
4
 40
0.6
 49
0.375
 74
0
 49
-0.075
 74
0
 49
0.075
 74
0
 49
-0.075
 74
0
  0
LTYPE
  5
1F6
100
AcDbSymbolTableRecord
100
AcDbLinetypeTableRecord
  2
HIDDEN
 70
64
  3
- - - - - - - - - - - - - - - - - - - -
 72
65
 73
2
 40
0.2
 49
0.1
 74
0
 49
-0.1
 74
0
  0
LTYPE
  5
1F7
100
AcDbSymbolTableRecord
100
AcDbLinetypeTableRecord
  2
PHANTOM
 70
64
  3
_____ _ _ _____ _ _ _____ _ _ _____
 72
65
 73
6
 40
0.8
 49
0.45
 74
0
 49
-0.05
 74
0
 49
0.1
 74
0
 49
-0.05
 74
0
 49
0.1
 74
0
 49
-0.05
 74
0
  0
LTYPE
  5
1F8
100
AcDbSymbolTableRecord
100
AcDbLinetypeTableRecord
  2
DOT
 70
64
  3
. . . . . . . . . . . . . . . . . . . .
 72
65
 73
2
 40
0.2
 49
0.1
 74
0
 49
-0.1
 74
0
  0
LTYPE
  5
1F9
100
AcDbSymbolTableRecord
100
AcDbLinetypeTableRecord
  2
DASHED
 70
64
  3
- - - - - - - - - - - - - - - - - - - -
 72
65
 73
2
 40
0.2
 49
0.1
 74
0
 49
-0.1
 74
0
  0
ENDTAB
  0
TABLE
  2
LAYER
  5
2
100
AcDbSymbolTable
 70
36
  0
LAYER
  5
10
100
AcDbSymbolTableRecord
100
AcDbLayerTableRecord
  2
0
 70
0
 62
7
  6
CONTINUOUS
370
-3
390
F
  0
LAYER
  5
1FA
100
AcDbSymbolTableRecord
100
AcDbLayerTableRecord
  2
DEFAULT_1
 70
0
 62
7
  6
CENTER
370
-3
390
F
  0
LAYER
  5
1FB
100
AcDbSymbolTableRecord
100
AcDbLayerTableRecord
  2
DEFAULT_2
 70
0
 62
7
  6
HIDDEN
370
-3
390
F
  0
LAYER
  5
1FC
100
AcDbSymbolTableRecord
100
AcDbLayerTableRecord
  2
DEFAULT_3
 70
0
 62
7
  6
PHANTOM
370
-3
390
F
  0
LAYER
  5
1FD
100
AcDbSymbolTableRecord
100
AcDbLayerTableRecord
  2
ASSI
 70
0
 62
7
  6
CONTINUOUS
370
-3
390
F
  0
LAYER
  5
1FE
100
AcDbSymbolTableRecord
100
AcDbLayerTableRecord
  2
COORDINATE
 70
0
 62
7
  6
CONTINUOUS
370
-3
390
F
  0
LAYER
  5
1FF
100
AcDbSymbolTableRecord
100
AcDbLayerTableRecord
  2
COPY_PUBLISH
 70
0
 62
7
  6
CONTINUOUS
370
-3
390
F
  0
LAYER
  5
200
100
AcDbSymbolTableRecord
100
AcDbLayerTableRecord
  2
COSMETIC
 70
0
 62
7
  6
CONTINUOUS
370
-3
390
F
  0
LAYER
  5
201
100
AcDbSymbolTableRecord
100
AcDbLayerTableRecord
  2
COSMETICI
 70
0
 62
7
  6
CONTINUOUS
370
-3
390
F
  0
LAYER
  5
202
100
AcDbSymbolTableRecord
100
AcDbLayerTableRecord
  2
CURVE
 70
0
 62
7
  6
CONTINUOUS
370
-3
390
F
  0
LAYER
  5
203
100
AcDbSymbolTableRecord
100
AcDbLayerTableRecord
  2
CURVE_VERN
 70
0
 62
7
  6
CONTINUOUS
370
-3
390
F
  0
LAYER
  5
204
100
AcDbSymbolTableRecord
100
AcDbLayerTableRecord
  2
DRAFT
 70
0
 62
7
  6
CONTINUOUS
370
-3
390
F
  0
LAYER
  5
205
100
AcDbSymbolTableRecord
100
AcDbLayerTableRecord
  2
IMPORT_IGES
 70
0
 62
7
  6
CONTINUOUS
370
-3
390
F
  0
LAYER
  5
206
100
AcDbSymbolTableRecord
100
AcDbLayerTableRecord
  2
INTFCLR_1
 70
0
 62
7
  6
CONTINUOUS
370
-3
390
F
  0
LAYER
  5
207
100
AcDbSymbolTableRecord
100
AcDbLayerTableRecord
  2
INTF_1
 70
0
 62
7
  6
CONTINUOUS
370
-3
390
F
  0
LAYER
  5
208
100
AcDbSymbolTableRecord
100
AcDbLayerTableRecord
  2
NOTE
 70
0
 62
7
  6
CONTINUOUS
370
-3
390
F
  0
LAYER
  5
209
100
AcDbSymbolTableRecord
100
AcDbLayerTableRecord
  2
PIANI
 70
0
 62
7
  6
CONTINUOUS
370
-3
390
F
  0
LAYER
  5
20A
100
AcDbSymbolTableRecord
100
AcDbLayerTableRecord
  2
PUNTI
 70
0
 62
7
  6
CONTINUOUS
370
-3
390
F
  0
LAYER
  5
20B
100
AcDbSymbolTableRecord
100
AcDbLayerTableRecord
  2
RACCORDO
 70
0
 62
7
  6
CONTINUOUS
370
-3
390
F
  0
LAYER
  5
20C
100
AcDbSymbolTableRecord
100
AcDbLayerTableRecord
  2
RGB____0____0____0__
 70
0
 62
7
  6
CONTINUOUS
370
-3
390
F
  0
LAYER
  5
20D
100
AcDbSymbolTableRecord
100
AcDbLayerTableRecord
  2
SIMBOLI
 70
0
 62
7
  6
CONTINUOUS
370
-3
390
F
  0
LAYER
  5
20E
100
AcDbSymbolTableRecord
100
AcDbLayerTableRecord
  2
SMUSSO
 70
0
 62
7
  6
CONTINUOUS
370
-3
390
F
  0
LAYER
  5
20F
100
AcDbSymbolTableRecord
100
AcDbLayerTableRecord
  2
SNAPLINE
 70
0
 62
7
  6
CONTINUOUS
370
-3
390
F
  0
LAYER
  5
210
100
AcDbSymbolTableRecord
100
AcDbLayerTableRecord
  2
SUPERFICI
 70
0
 62
7
  6
CONTINUOUS
370
-3
390
F
  0
LAYER
  5
211
100
AcDbSymbolTableRecord
100
AcDbLayerTableRecord
  2
TRASH
 70
0
 62
7
  6
CONTINUOUS
370
-3
390
F
  0
LAYER
  5
212
100
AcDbSymbolTableRecord
100
AcDbLayerTableRecord
  2
XSEC_DATUMS
 70
0
 62
7
  6
CONTINUOUS
370
-3
390
F
  0
ENDTAB
  0
TABLE
  2
STYLE
  5
3
100
AcDbSymbolTable
 70
1
  0
STYLE
  5
11
100
AcDbSymbolTableRecord
100
AcDbTextStyleTableRecord
  2
STANDARD
 70
0
 40
0.0
 41
0.8
 50
0.0
 71
0
 42
0.2
  3
txt
  4

  0
STYLE
  5
213
100
AcDbSymbolTableRecord
100
AcDbTextStyleTableRecord
  2
TEXTSTYLE_1
 70
0
 40
0.0
 41
0.8
 50
0.0
 71
0
 42
0.2
  3
gdt
  4

  0
ENDTAB
  0
TABLE
  2
VIEW
  5
6
100
AcDbSymbolTable
 70
0
  0
ENDTAB
  0
TABLE
  2
UCS
  5
7
100
AcDbSymbolTable
 70
0
  0
ENDTAB
  0
TABLE
  2
APPID
  5
9
100
AcDbSymbolTable
 70
1
  0
APPID
  5
214
100
AcDbSymbolTableRecord
100
AcDbRegAppTableRecord
  2
ACAD
 70
0
  0
ENDTAB
  0
TABLE
  2
BLOCK_RECORD
  5
1
100
AcDbSymbolTable
 70
0
  0
BLOCK_RECORD
  5
215
100
AcDbSymbolTableRecord
100
AcDbBlockTableRecord
  2
*Model_Space
  0
BLOCK_RECORD
  5
216
100
AcDbSymbolTableRecord
100
AcDbBlockTableRecord
  2
*Paper_Space
  0
BLOCK_RECORD
  5
217
100
AcDbSymbolTableRecord
100
AcDbBlockTableRecord
  2
_FILLED
  0
BLOCK_RECORD
  5
218
100
AcDbSymbolTableRecord
100
AcDbBlockTableRecord
  2
*D0
  0
BLOCK_RECORD
  5
219
100
AcDbSymbolTableRecord
100
AcDbBlockTableRecord
  2
*D1
  0
BLOCK_RECORD
  5
21A
100
AcDbSymbolTableRecord
100
AcDbBlockTableRecord
  2
*D2
  0
ENDTAB
  0
TABLE
  2
DIMSTYLE
  5
A
100
AcDbSymbolTable
 70
1
100
AcDbDimStyleTable
 71
0
  0
DIMSTYLE
105
21B
100
AcDbSymbolTableRecord
100
AcDbDimStyleTableRecord
  2
STANDARD
 70
0
  3

  4

 40
1.0
 41
3.0
 42
0.5
 43
0.38
 44
1.5
 45
0.0
 46
0.0
 47
0.01
 48
0.01
140
3.0
141
0.09
142
0.0
143
25.4
144
1.0
145
0.0
146
1.0
147
0.625
 71
1.0
 72
0.0
 73
0
 74
0
 75
0
 76
0
 77
1
 78
8
 79
2
170
0
171
1
172
0
173
0
174
0
175
0
176
0
177
0
178
0
270
2
179
2
271
2
272
2
273
2
274
2
275
0
280
0
281
0
282
0
283
1
284
8
285
0
286
0
287
3
288
0
340
11
278
44
341
217
342
217
343
217
344
217
  0
DIMSTYLE
105
21C
100
AcDbSymbolTableRecord
100
AcDbDimStyleTableRecord
  2
DIMSTYLE_1
 70
0
  3

  4

 40
1.0
 41
3.0
 42
0.5
 43
0.38
 44
1.5
 45
0.0
 46
0.0
 47
0.0
 48
0.0
140
3.0
141
0.09
142
0.0
143
25.4
144
1.0
145
0.0
146
1.0
147
0.75
 71
0.0
 72
0.0
 73
0
 74
0
 75
0
 76
0
 77
1
 78
8
 79
2
170
0
171
1
172
0
173
0
174
0
175
0
176
0
177
0
178
0
270
2
179
2
271
1
272
1
273
2
274
2
275
0
280
0
281
0
282
0
283
1
284
8
285
0
286
0
287
3
288
0
340
11
278
44
341
217
342
217
343
217
344
217
  0
DIMSTYLE
105
21D
100
AcDbSymbolTableRecord
100
AcDbDimStyleTableRecord
  2
DIMSTYLE_2
 70
0
  3

  4

 40
1.0
 41
3.0
 42
0.5
 43
0.38
 44
1.5
 45
0.0
 46
0.0
 47
0.0
 48
0.0
140
3.0
141
0.09
142
0.0
143
25.4
144
1.0
145
0.0
146
1.0
147
0.75
 71
0.0
 72
0.0
 73
0
 74
0
 75
0
 76
0
 77
1
 78
8
 79
2
170
0
171
1
172
0
173
0
174
0
175
0
176
0
177
0
178
0
270
2
179
2
271
2
272
2
273
2
274
2
275
0
280
0
281
0
282
0
283
1
284
8
285
0
286
0
287
3
288
0
340
11
278
44
341
217
342
217
343
217
344
217
  0
ENDTAB
  0
ENDSEC
  0
SECTION
  2
BLOCKS
  0
BLOCK
  5
20
100
AcDbEntity
  8
0
100
AcDbBlockBegin
  2
*Model_Space
 70
0
 10
0.0
 20
0.0
 30
0.0
  3
*Model_Space
  1

  0
ENDBLK
  5
21
100
AcDbEntity
  8
0
100
AcDbBlockEnd
  0
BLOCK
  5
1C
100
AcDbEntity
  8
0
100
AcDbBlockBegin
  2
*Paper_Space
 70
0
 10
0.0
 20
0.0
 30
0.0
  3
*Paper_Space
  1

  0
ENDBLK
  5
1D
100
AcDbEntity
  8
0
100
AcDbBlockEnd
  0
BLOCK
  5
21E
100
AcDbEntity
  8
0
100
AcDbBlockBegin
  2
_FILLED
 70
64
 10
0.0
 20
0.0
  3
_FILLED
  1

  0
SOLID
  5
21F
100
AcDbEntity
  8
0
  6
BYBLOCK
 62
0
100
AcDbTrace
 10
0.0
 20
0.0
 11
-1.0
 21
0.3166666667
 12
-1.0
 22
-0.3166666667
 13
-1.0
 23
-0.3166666667
  0
ENDBLK
  5
220
100
AcDbEntity
  8
0
  6
BYBLOCK
 62
0
100
AcDbBlockEnd
  0
BLOCK
  5
221
100
AcDbEntity
  8
0
100
AcDbBlockBegin
 62
7
  6
CONTINUOUS
  2
*D0
 70
65
 10
0.0
 20
0.0
  3
*D0
  1

  0
LINE
  5
222
100
AcDbEntity
  8
0
100
AcDbLine
 62
7
  6
CONTINUOUS
 10
61.3228807702
 20
156.1808335685
 11
61.3228807927
 21
174.251582684
  0
LINE
  5
223
100
AcDbEntity
  8
0
100
AcDbLine
 62
7
  6
CONTINUOUS
 10
52.7516016047
 20
113.0837587839
 11
52.7516016809
 21
174.2515826947
  0
LINE
  5
224
100
AcDbEntity
  8
0
100
AcDbLine
 62
7
  6
CONTINUOUS
 10
61.3228807908
 20
172.751582684
 11
57.0372412349
 21
172.7515826894
  0
LINE
  5
225
100
AcDbEntity
  8
0
100
AcDbLine
 62
7
  6
CONTINUOUS
 10
57.0372412349
 20
172.7515826894
 11
72.9166646963
 21
172.7515826776
  0
LINE
  5
226
100
AcDbEntity
  8
0
100
AcDbLine
 62
7
  6
CONTINUOUS
 10
52.751601679
 20
172.7515826947
 11
57.0372412349
 21
172.7515826894
  0
INSERT
  5
227
100
AcDbEntity
  8
0
100
AcDbBlockReference
 62
7
  6
CONTINUOUS
  2
_FILLED
 10
61.3228807908
 20
172.751582684
 41
3.0
 42
3.0
 43
3.0
 50
359.9999999287
  0
INSERT
  5
228
100
AcDbEntity
  8
0
100
AcDbBlockReference
 62
7
  6
CONTINUOUS
  2
_FILLED
 10
52.751601679
 20
172.7515826947
 41
3.0
 42
3.0
 43
3.0
 50
179.9999999287
  0
ENDBLK
  5
229
100
AcDbEntity
  8
0
  6
BYBLOCK
 62
0
100
AcDbBlockEnd
  0
BLOCK
  5
22A
100
AcDbEntity
  8
0
100
AcDbBlockBegin
 62
7
  6
CONTINUOUS
  2
*D1
 70
65
 10
0.0
 20
0.0
  3
*D1
  1

  0
LINE
  5
22B
100
AcDbEntity
  8
0
100
AcDbLine
 62
7
  6
CONTINUOUS
 10
102.7863692434
 20
157.0851286889
 11
102.7863692434
 21
174.0837582237
  0
LINE
  5
22C
100
AcDbEntity
  8
0
100
AcDbLine
 62
7
  6
CONTINUOUS
 10
263.7863692434
 20
157.0851286889
 11
263.7863692434
 21
174.0837582237
  0
LINE
  5
22D
100
AcDbEntity
  8
0
100
AcDbLine
 62
7
  6
CONTINUOUS
 10
102.7863692434
 20
172.5837582237
 11
183.2863692434
 21
172.5837582237
  0
LINE
  5
22E
100
AcDbEntity
  8
0
100
AcDbLine
 62
7
  6
CONTINUOUS
 10
263.7863692434
 20
172.5837582237
 11
183.2863692434
 21
172.5837582237
  0
INSERT
  5
22F
100
AcDbEntity
  8
0
100
AcDbBlockReference
 62
7
  6
CONTINUOUS
  2
_FILLED
 10
102.7863692434
 20
172.5837582237
 41
3.0
 42
3.0
 43
3.0
 50
180.0
  0
INSERT
  5
230
100
AcDbEntity
  8
0
100
AcDbBlockReference
 62
7
  6
CONTINUOUS
  2
_FILLED
 10
263.7863692434
 20
172.5837582237
 41
3.0
 42
3.0
 43
3.0
  0
ENDBLK
  5
231
100
AcDbEntity
  8
0
  6
BYBLOCK
 62
0
100
AcDbBlockEnd
  0
BLOCK
  5
232
100
AcDbEntity
  8
0
100
AcDbBlockBegin
 62
7
  6
CONTINUOUS
  2
*D2
 70
65
 10
0.0
 20
0.0
  3
*D2
  1

  0
LINE
  5
233
100
AcDbEntity
  8
0
100
AcDbLine
 62
7
  6
CONTINUOUS
 10
263.2877397087
 20
157.5837582237
 11
284.7863692434
 21
157.5837582237
  0
LINE
  5
234
100
AcDbEntity
  8
0
100
AcDbLine
 62
7
  6
CONTINUOUS
 10
263.2877397087
 20
67.5837582237
 11
284.7863692434
 21
67.5837582237
  0
LINE
  5
235
100
AcDbEntity
  8
0
100
AcDbLine
 62
7
  6
CONTINUOUS
 10
283.2863692434
 20
157.5837582237
 11
283.2863692434
 21
112.5837582237
  0
LINE
  5
236
100
AcDbEntity
  8
0
100
AcDbLine
 62
7
  6
CONTINUOUS
 10
283.2863692434
 20
67.5837582237
 11
283.2863692434
 21
112.5837582237
  0
INSERT
  5
237
100
AcDbEntity
  8
0
100
AcDbBlockReference
 62
7
  6
CONTINUOUS
  2
_FILLED
 10
283.2863692434
 20
157.5837582237
 41
3.0
 42
3.0
 43
3.0
 50
90.0
  0
INSERT
  5
238
100
AcDbEntity
  8
0
100
AcDbBlockReference
 62
7
  6
CONTINUOUS
  2
_FILLED
 10
283.2863692434
 20
67.5837582237
 41
3.0
 42
3.0
 43
3.0
 50
270.0
  0
ENDBLK
  5
239
100
AcDbEntity
  8
0
  6
BYBLOCK
 62
0
100
AcDbBlockEnd
  0
ENDSEC
  0
SECTION
  2
ENTITIES
  0
DIMENSION
  5
23A
100
AcDbEntity
  8
0
100
AcDbDimension
 62
7
  6
CONTINUOUS
  2
*D0
 10
52.751601679
 20
172.7515826947
 11
66.4880932668
 21
172.7515826776
 70
160
 71
1
 72
2
 41
0.9
 42
8.5712791118
  3
DIMSTYLE_1
100
AcDbAlignedDimension
 13
61.3228807696
 23
155.6808335685
 14
52.7516016041
 24
112.5837587839
 50
179.9999999287
100
AcDbRotatedDimension
  0
DIMENSION
  5
23B
100
AcDbEntity
  8
0
100
AcDbDimension
 62
7
  6
CONTINUOUS
  2
*D1
 10
263.7863692434
 20
172.5837582237
 11
180.3935121006
 21
172.5837582237
 70
160
 71
2
 72
2
 41
0.9
 42
161.0
  3
DIMSTYLE_2
100
AcDbAlignedDimension
 13
102.7863692434
 23
156.5851286889
 14
263.7863692434
 24
156.5851286889
100
AcDbRotatedDimension
  0
DIMENSION
  5
23C
100
AcDbEntity
  8
0
100
AcDbDimension
 62
7
  6
CONTINUOUS
  2
*D2
 10
283.2863692434
 20
67.5837582237
 11
283.2863692434
 21
110.2266153665
 70
160
 71
2
 72
2
 41
0.9
 42
90.0
  3
DIMSTYLE_2
100
AcDbAlignedDimension
 13
262.7877397087
 23
157.5837582237
 14
262.7877397087
 24
67.5837582237
 50
270.0
100
AcDbRotatedDimension
  0
LWPOLYLINE
  5
23D
100
AcDbEntity
  8
RACCORDO
100
AcDbPolyline
 62
250
  6
CONTINUOUS
 90
28
 70
0
 10
102.9163106848
 20
68.7123291998
 10
102.9176847748
 20
68.6532838471
 10
102.9224900681
 20
68.59452459
 10
102.9306955354
 20
68.5362502015
 10
102.9422513607
 20
68.4786800503
 10
102.957108343
 20
68.4219822794
 10
102.9752325413
 20
68.3662770504
 10
102.9965799259
 20
68.3117091833
 10
103.0210632788
 20
68.2585086574
 10
103.0485702741
 20
68.206916184
 10
103.0789832746
 20
68.1571218474
 10
103.1121995631
 20
68.1092650876
 10
103.1481064106
 20
68.0634965528
 10
103.1865750217
 20
68.0199638778
 10
103.2274673081
 20
67.9788070991
 10
103.2706469465
 20
67.9401552104
 10
103.3159606857
 20
67.904133603
 10
103.3632529439
 20
67.8708539805
 10
103.4123767621
 20
67.8404143678
 10
103.4631698019
 20
67.8129098603
 10
103.5154546437
 20
67.78843049
 10
103.5690558179
 20
67.7670542634
 10
103.6237855121
 20
67.7488503692
 10
103.6794662117
 20
67.7338716497
 10
103.7359340657
 20
67.7221596188
 10
103.793008581
 20
67.7137518142
 10
103.8504921136
 20
67.7086773964
 10
103.9081933665
 20
67.706952812
  0
LWPOLYLINE
  5
23E
100
AcDbEntity
  8
RACCORDO
100
AcDbPolyline
 62
250
  6
CONTINUOUS
 90
28
 70
0
 10
103.2158995453
 20
68.6591301172
 10
103.2167439822
 20
68.6174639337
 10
103.2199385138
 20
68.5762436492
 10
103.2254831401
 20
68.5354692061
 10
103.233412334
 20
68.4950125653
 10
103.2436916225
 20
68.4550016634
 10
103.2562175869
 20
68.415820356
 10
103.2710219371
 20
68.3774575054
 10
103.2880729632
 20
68.339924042
 10
103.3071721159
 20
68.3036368245
 10
103.3283351056
 20
68.2686264123
 10
103.351546222
 20
68.234861952
 10
103.3765597846
 20
68.2026681016
 10
103.4033929205
 20
68.1720597613
 10
103.4320285026
 20
68.1430217036
 10
103.4621694694
 20
68.1158333429
 10
103.4938289412
 20
68.0905137296
 10
103.5269937977
 20
68.0670434888
 10
103.5613276167
 20
68.0456443688
 10
103.5968416972
 20
68.0263367168
 10
103.6335247403
 20
68.0090999028
 10
103.671006426
 20
67.9940942043
 10
103.7093016118
 20
67.9813416161
 10
103.7483954403
 20
67.970819935
 10
103.7878730193
 20
67.9626231527
 10
103.8275960512
 20
67.9567825619
 10
103.8677028337
 20
67.9532667598
 10
103.9081933665
 20
67.9520757189
  0
LWPOLYLINE
  5
23F
100
AcDbEntity
  8
RACCORDO
100
AcDbPolyline
 62
250
  6
CONTINUOUS
 90
9
 70
0
 10
102.9163106848
 20
156.4551872475
 10
102.9375153082
 20
154.1143934427
 10
102.9569681701
 20
151.7690233934
 10
102.9746692706
 20
149.4190770995
 10
102.9906215254
 20
147.0640711124
 10
103.0048220187
 20
144.7044888808
 10
103.017262004
 20
142.3417807506
 10
103.0279385657
 20
139.9764301704
 10
103.0368546193
 20
137.6079536915
  0
LWPOLYLINE
  5
240
100
AcDbEntity
  8
RACCORDO
100
AcDbPolyline
 62
250
  6
CONTINUOUS
 90
9
 70
0
 10
103.2158995453
 20
156.5083863302
 10
103.237104562
 20
154.1641287258
 10
103.2565576659
 20
151.8143567625
 10
103.2742588569
 20
149.4595448774
 10
103.2902109715
 20
147.1001726885
 10
103.3044111733
 20
144.7367124016
 10
103.3168509521
 20
142.3696286454
 10
103.3275274714
 20
139.9993950864
 10
103.3364435677
 20
137.6264944
  0
LINE
  5
241
100
AcDbEntity
  8
RACCORDO
100
AcDbLine
 62
250
  6
CONTINUOUS
 10
103.0368546193
 20
137.6079536915
 11
103.0531511216
 21
131.4632626683
  0
LINE
  5
242
100
AcDbEntity
  8
RACCORDO
100
AcDbLine
 62
250
  6
CONTINUOUS
 10
103.3364435677
 20
137.6264944
 11
103.352740055
 21
131.476262171
  0
LINE
  5
243
100
AcDbEntity
  8
RACCORDO
100
AcDbLine
 62
250
  6
CONTINUOUS
 10
103.0531511216
 20
131.4632626683
 11
103.0664477889
 21
123.9142732351
  0
LINE
  5
244
100
AcDbEntity
  8
RACCORDO
100
AcDbLine
 62
250
  6
CONTINUOUS
 10
103.352740055
 20
131.476262171
 11
103.3660366668
 21
123.921818692
  0
LINE
  5
245
100
AcDbEntity
  8
RACCORDO
100
AcDbLine
 62
250
  6
CONTINUOUS
 10
103.0664477889
 20
123.9142732351
 11
103.0730980567
 21
116.3609093337
  0
LINE
  5
246
100
AcDbEntity
  8
RACCORDO
100
AcDbLine
 62
250
  6
CONTINUOUS
 10
103.3660366668
 20
123.921818692
 11
103.3726869177
 21
116.3635141556
  0
LINE
  5
247
100
AcDbEntity
  8
RACCORDO
100
AcDbLine
 62
7
  6
CONTINUOUS
 10
102.7863692434
 20
68.5823877584
 11
102.7863692434
 21
156.5851286889
  0
LINE
  5
248
100
AcDbEntity
  8
RACCORDO
100
AcDbLine
 62
250
  6
CONTINUOUS
 10
103.9081933665
 20
67.9520757189
 11
103.9081933665
 21
67.706952812
  0
LINE
  5
249
100
AcDbEntity
  8
RACCORDO
100
AcDbLine
 62
250
  6
CONTINUOUS
 10
103.9081933665
 20
157.2154407285
 11
103.9081933662
 21
157.4605636353
  0
LINE
  5
24A
100
AcDbEntity
  8
RACCORDO
100
AcDbLine
 62
250
  6
CONTINUOUS
 10
103.0730980567
 20
116.3609093337
 11
103.0730980574
 21
108.8066082546
  0
LINE
  5
24B
100
AcDbEntity
  8
RACCORDO
100
AcDbLine
 62
250
  6
CONTINUOUS
 10
103.3726869177
 20
116.3635141556
 11
103.3726869173
 21
108.8040012578
  0
LINE
  5
24C
100
AcDbEntity
  8
RACCORDO
100
AcDbLine
 62
250
  6
CONTINUOUS
 10
103.0730980574
 20
108.8066082546
 11
103.0664477907
 21
101.25324457
  0
LINE
  5
24D
100
AcDbEntity
  8
RACCORDO
100
AcDbLine
 62
250
  6
CONTINUOUS
 10
103.3726869173
 20
108.8040012578
 11
103.3660366658
 21
101.2456970275
  0
LINE
  5
24E
100
AcDbEntity
  8
RACCORDO
100
AcDbLine
 62
250
  6
CONTINUOUS
 10
103.0664477907
 20
101.25324457
 11
103.0531511225
 21
93.7042544206
  0
LINE
  5
24F
100
AcDbEntity
  8
RACCORDO
100
AcDbLine
 62
250
  6
CONTINUOUS
 10
103.3660366658
 20
101.2456970275
 11
103.3527400545
 21
93.6912540016
  0
LWPOLYLINE
  5
250
100
AcDbEntity
  8
RACCORDO
100
AcDbPolyline
 62
250
  6
CONTINUOUS
 90
10
 70
0
 10
103.3527400545
 20
93.6912540016
 10
103.3364435664
 20
87.5410219283
 10
103.3275274697
 20
85.168121209
 10
103.3168509511
 20
82.7978877191
 10
103.3044111746
 20
80.430804225
 10
103.2902109761
 20
78.0673443007
 10
103.2742588632
 20
75.7079723014
 10
103.2565576717
 20
73.3531603428
 10
103.2371045657
 20
71.0033881353
 10
103.2158995453
 20
68.6591301172
  0
LWPOLYLINE
  5
251
100
AcDbEntity
  8
RACCORDO
100
AcDbPolyline
 62
250
  6
CONTINUOUS
 90
10
 70
0
 10
103.0531511225
 20
93.7042544206
 10
103.0368546067
 20
87.5595593572
 10
103.027938537
 20
85.1910796439
 10
103.0172619559
 20
82.8257259935
 10
103.0048219389
 20
80.4630140433
 10
102.9906214105
 20
78.1034281559
 10
102.9746691436
 20
75.7484214191
 10
102.9569680625
 20
73.3984781955
 10
102.9375152429
 20
71.0531141224
 10
102.9163106848
 20
68.7123291998
  0
LWPOLYLINE
  5
252
100
AcDbEntity
  8
RACCORDO
100
AcDbPolyline
 62
250
  6
CONTINUOUS
 90
22
 70
0
 10
124.5901048781
 20
135.2514631174
 10
124.622576976
 20
135.3100947517
 10
124.6579840565
 20
135.3668519332
 10
124.6963261198
 20
135.4217347525
 10
124.7377280625
 20
135.4749285475
 10
124.7820649879
 20
135.5262481498
 10
124.8289622057
 20
135.5751379137
 10
124.8784466443
 20
135.6215567832
 10
124.9304913752
 20
135.6655460252
 10
124.9846409232
 20
135.7066735165
 10
125.0409229983
 20
135.7449045184
 10
125.0993098905
 20
135.7802739825
 10
125.1592629939
 20
135.8124543393
 10
125.2208156692
 20
135.8414075925
 10
125.2839345557
 20
135.8671719252
 10
125.3479809655
 20
135.8895340401
 10
125.4129705832
 20
135.9084415124
 10
125.4788877243
 20
135.9239469034
 10
125.5450466467
 20
135.9359943848
 10
125.6112187698
 20
135.9445653707
 10
125.6776326743
 20
135.9496785167
 10
125.7442883602
 20
135.9513338401
  0
LWPOLYLINE
  5
253
100
AcDbEntity
  8
RACCORDO
100
AcDbPolyline
 62
250
  6
CONTINUOUS
 90
22
 70
0
 10
125.0328072307
 20
134.9965535839
 10
125.0527968037
 20
135.0324054259
 10
125.074676573
 20
135.0672828086
 10
125.0984042285
 20
135.101083319
 10
125.1239424622
 20
135.1337181976
 10
125.1512281158
 20
135.1650750955
 10
125.1801658465
 20
135.1950239011
 10
125.2106846502
 20
135.2234747238
 10
125.2427100203
 20
135.2503428684
 10
125.276123673
 20
135.2755214058
 10
125.3108372266
 20
135.2989381142
 10
125.3467581523
 20
135.3205253689
 10
125.3837479753
 20
135.3402015371
 10
125.4217129955
 20
135.357918977
 10
125.4605403227
 20
135.3736272357
 10
125.5000510863
 20
135.3872654364
 10
125.54013745
 20
135.3988110386
 10
125.5806834316
 20
135.4082450487
 10
125.6214900563
 20
135.4155445806
 10
125.6624146893
 20
135.4207148498
 10
125.7033747395
 20
135.4237745385
 10
125.7442612165
 20
135.4247427804
  0
LWPOLYLINE
  5
254
100
AcDbEntity
  8
RACCORDO
100
AcDbPolyline
 62
250
  6
CONTINUOUS
 90
10
 70
0
 10
125.0328072307
 20
90.1709628635
 10
125.0141757238
 20
90.2089258031
 10
124.9975684981
 20
90.2478760915
 10
124.9830405537
 20
90.2877077648
 10
124.970633908
 20
90.32833809
 10
124.9604026789
 20
90.3696292188
 10
124.9523986561
 20
90.4113850047
 10
124.9466437942
 20
90.4534591515
 10
124.9431444332
 20
90.4957590307
 10
124.9419065893
 20
90.5381649565
  0
LWPOLYLINE
  5
255
100
AcDbEntity
  8
RACCORDO
100
AcDbPolyline
 62
250
  6
CONTINUOUS
 90
10
 70
0
 10
124.5901048781
 20
89.91605333
 10
124.5597913285
 20
89.9780158174
 10
124.532906234
 20
90.0412741763
 10
124.5094495945
 20
90.1058284329
 10
124.4893516171
 20
90.1719264769
 10
124.4726820949
 20
90.239320476
 10
124.4596504065
 20
90.3072668574
 10
124.4503263451
 20
90.3755177632
 10
124.4446401176
 20
90.4443210694
 10
124.442591724
 20
90.5136767868
  0
LINE
  5
256
100
AcDbEntity
  8
RACCORDO
100
AcDbLine
 62
250
  6
CONTINUOUS
 10
124.442591724
 20
90.5136767868
 11
124.4268431569
 21
97.8670898963
  0
LINE
  5
257
100
AcDbEntity
  8
RACCORDO
100
AcDbLine
 62
250
  6
CONTINUOUS
 10
124.9419065574
 20
90.5381649253
 11
124.9261579536
 21
97.8837497798
  0
LINE
  5
258
100
AcDbEntity
  8
RACCORDO
100
AcDbLine
 62
250
  6
CONTINUOUS
 10
124.4268431569
 20
97.8670898963
 11
124.4173932897
 21
105.2244396867
  0
LINE
  5
259
100
AcDbEntity
  8
RACCORDO
100
AcDbLine
 62
250
  6
CONTINUOUS
 10
124.9261579536
 20
97.8837497798
 11
124.916708064
 21
105.2325281252
  0
LINE
  5
25A
100
AcDbEntity
  8
RACCORDO
100
AcDbLine
 62
250
  6
CONTINUOUS
 10
124.4173932897
 20
105.2244396867
 11
124.4142425965
 21
112.5837581845
  0
LINE
  5
25B
100
AcDbEntity
  8
RACCORDO
100
AcDbLine
 62
250
  6
CONTINUOUS
 10
124.916708064
 20
105.2325281252
 11
124.9135573639
 21
112.5837629945
  0
LINE
  5
25C
100
AcDbEntity
  8
0
100
AcDbLine
 62
7
  6
CONTINUOUS
 10
125.0863692434
 20
90.6826618515
 11
125.0863692434
 21
134.4848545959
  0
LINE
  5
25D
100
AcDbEntity
  8
RACCORDO
100
AcDbLine
 62
250
  6
CONTINUOUS
 10
125.7442883602
 20
135.9513338401
 11
125.7442883602
 21
135.4247427347
  0
LINE
  5
25E
100
AcDbEntity
  8
RACCORDO
100
AcDbLine
 62
250
  6
CONTINUOUS
 10
125.7442883602
 20
89.2161826073
 11
125.7442883601
 21
89.7427737127
  0
LINE
  5
25F
100
AcDbEntity
  8
RACCORDO
100
AcDbLine
 62
250
  6
CONTINUOUS
 10
124.4142425965
 20
112.5837581845
 11
124.4173932895
 21
119.9430766896
  0
LINE
  5
260
100
AcDbEntity
  8
RACCORDO
100
AcDbLine
 62
250
  6
CONTINUOUS
 10
124.9135573639
 20
112.5837629945
 11
124.9167080768
 21
119.9350001081
  0
LINE
  5
261
100
AcDbEntity
  8
RACCORDO
100
AcDbLine
 62
250
  6
CONTINUOUS
 10
124.4173932895
 20
119.9430766896
 11
124.4268431567
 21
127.3004265059
  0
LINE
  5
262
100
AcDbEntity
  8
RACCORDO
100
AcDbLine
 62
250
  6
CONTINUOUS
 10
124.9167080768
 20
119.9350001081
 11
124.9261579551
 21
127.2837692438
  0
LINE
  5
263
100
AcDbEntity
  8
RACCORDO
100
AcDbLine
 62
250
  6
CONTINUOUS
 10
124.4268431567
 20
127.3004265059
 11
124.442591724
 21
134.6538396606
  0
LINE
  5
264
100
AcDbEntity
  8
RACCORDO
100
AcDbLine
 62
250
  6
CONTINUOUS
 10
124.9261579551
 20
127.2837692438
 11
124.9419065159
 21
134.6293300182
  0
LWPOLYLINE
  5
265
100
AcDbEntity
  8
RACCORDO
100
AcDbPolyline
 62
250
  6
CONTINUOUS
 90
10
 70
0
 10
124.9419065275
 20
134.6293300066
 10
124.943142585
 20
134.6717243627
 10
124.9466385487
 20
134.7140094444
 10
124.9523878754
 20
134.7560657358
 10
124.9603817247
 20
134.7977918341
 10
124.9705986858
 20
134.8390509585
 10
124.9829953365
 20
134.8796735995
 10
124.9975246998
 20
134.9195294467
 10
125.0141458655
 20
134.9585253855
 10
125.0328072307
 20
134.9965535839
  0
LWPOLYLINE
  5
266
100
AcDbEntity
  8
RACCORDO
100
AcDbPolyline
 62
250
  6
CONTINUOUS
 90
10
 70
0
 10
124.442591724
 20
134.6538396606
 10
124.4446293545
 20
134.7230901131
 10
124.4503016137
 20
134.7918076962
 10
124.4596085016
 20
134.8599924202
 10
124.4726119497
 20
134.927883126
 10
124.4892500266
 20
134.9952409901
 10
124.5093369373
 20
135.0613495419
 10
124.5328107504
 20
135.1259699823
 10
124.5597333973
 20
135.1893411657
 10
124.5901048781
 20
135.2514631174
  0
LWPOLYLINE
  5
267
100
AcDbEntity
  8
RACCORDO
100
AcDbPolyline
 62
250
  6
CONTINUOUS
 90
28
 70
0
 10
262.6645451203
 20
67.706952812
 10
262.7222483346
 20
67.7086776179
 10
262.779696632
 20
67.713747995
 10
262.8366996279
 20
67.7221410745
 10
262.8930312486
 20
67.7338142339
 10
262.9485443637
 20
67.7487275864
 10
263.003165694
 20
67.7668656266
 10
263.0567630445
 20
67.7882053232
 10
263.1090960738
 20
67.8126718147
 10
263.159931862
 20
67.8401652577
 10
263.2090744792
 20
67.8705824677
 10
263.2563819622
 20
67.903837514
 10
263.3017122618
 20
67.9398352825
 10
263.3449110275
 20
67.9784653141
 10
263.3858235793
 20
68.0196012518
 10
263.4243138842
 20
68.0631145723
 10
263.4602446713
 20
68.1088666336
 10
263.4934859288
 20
68.1567087269
 10
263.5239226911
 20
68.2064866
 10
263.5514442827
 20
68.2580434245
 10
263.5759440544
 20
68.3112050572
 10
263.597328161
 20
68.3657807695
 10
263.6155139401
 20
68.4215868158
 10
263.6304312073
 20
68.4784385877
 10
263.6420233939
 20
68.5361356467
 10
263.6502435127
 20
68.5944801832
 10
263.6550534398
 20
68.6532779239
 10
263.656427802
 20
68.7123291998
  0
LWPOLYLINE
  5
268
100
AcDbEntity
  8
0
100
AcDbPolyline
 62
7
  6
CONTINUOUS
 90
3
 70
0
 43
0.3500000006
 10
180.3935110474
 20
175.4766099243
 10
181.2506489868
 20
176.3337659912
 10
181.2506489868
 20
173.3337650757
  0
LWPOLYLINE
  5
269
100
AcDbEntity
  8
0
100
AcDbPolyline
 62
7
  6
CONTINUOUS
 90
10
 70
0
 43
0.3500000006
 10
183.179227478
 20
176.3337659912
 10
182.5363740234
 20
175.6908944092
 10
182.1078050537
 20
174.8337564697
 10
182.1078050537
 20
173.7623340454
 10
182.5363740234
 20
173.3337650757
 10
183.179227478
 20
173.3337650757
 10
183.6077964478
 20
173.7623340454
 10
183.6077964478
 20
174.6194719849
 10
183.179227478
 20
175.0480409546
 10
182.250649292
 20
175.0480409546
  0
LWPOLYLINE
  5
26A
100
AcDbEntity
  8
0
100
AcDbPolyline
 62
7
  6
CONTINUOUS
 90
3
 70
0
 43
0.3500000006
 10
184.4649343872
 20
175.4766099243
 10
185.3220904541
 20
176.3337659912
 10
185.3220904541
 20
173.3337650757
  0
LWPOLYLINE
  5
26B
100
AcDbEntity
  8
RACCORDO
100
AcDbPolyline
 62
250
  6
CONTINUOUS
 90
28
 70
0
 10
262.6645451203
 20
67.9520757189
 10
262.7050731177
 20
67.9532801401
 10
262.7451812367
 20
67.9567963607
 10
262.7848694773
 20
67.9626244078
 10
262.8242517144
 20
67.9707893692
 10
262.8632140732
 20
67.9812662662
 10
262.9014149286
 20
67.9939800516
 10
262.938877233
 20
68.0089624189
 10
262.9755780342
 20
68.0261818833
 10
263.0111068507
 20
68.0454686427
 10
263.0454356381
 20
68.0668376279
 10
263.0785924408
 20
68.0902741899
 10
263.1102509109
 20
68.1155641505
 10
263.1404020086
 20
68.1427281099
 10
263.1690547736
 20
68.1717457929
 10
263.195909977
 20
68.2023416824
 10
263.2209523533
 20
68.2345353943
 10
263.2441971679
 20
68.2683076419
 10
263.2653909884
 20
68.3033245023
 10
263.284513099
 20
68.3396021172
 10
263.3015842155
 20
68.3771246373
 10
263.3164130525
 20
68.4155100753
 10
263.328975726
 20
68.454781324
 10
263.33929612
 20
68.4949157096
 10
263.3472546018
 20
68.5354627905
 10
263.3528112939
 20
68.576272428
 10
263.3560060738
 20
68.6174948525
 10
263.3568389416
 20
68.6591301172
  0
LWPOLYLINE
  5
26C
100
AcDbEntity
  8
RACCORDO
100
AcDbPolyline
 62
250
  6
CONTINUOUS
 90
19
 70
0
 10
263.3568389416
 20
68.6591301294
 10
263.382128909
 20
68.6595508187
 10
263.4072388181
 20
68.6603472774
 10
263.4319898922
 20
68.6615138349
 10
263.4562059097
 20
68.6630421855
 10
263.4797144585
 20
68.6649214479
 10
263.5023481633
 20
68.6671382422
 10
263.5239458777
 20
68.6696767852
 10
263.5443538311
 20
68.6725190031
 10
263.5634267239
 20
68.6756446601
 10
263.5810287616
 20
68.6790315023
 10
263.5970346221
 20
68.6826554161
 10
263.6113303474
 20
68.6864906002
 10
263.6238141554
 20
68.6905097489
 10
263.6343971645
 20
68.6946842469
 10
263.6430040262
 20
68.6989843729
 10
263.6495734617
 20
68.7033795108
 10
263.6540586983
 20
68.7078383685
 10
263.656427802
 20
68.7123291998
  0
LINE
  5
26D
100
AcDbEntity
  8
RACCORDO
100
AcDbLine
 62
7
  6
CONTINUOUS
 10
103.7849987782
 20
67.5837582237
 11
262.7877397087
 21
67.5837582237
  0
LINE
  5
26E
100
AcDbEntity
  8
RACCORDO
100
AcDbLine
 62
250
  6
CONTINUOUS
 10
103.9081933665
 20
67.706952812
 11
262.6645451203
 21
67.706952812
  0
LINE
  5
26F
100
AcDbEntity
  8
RACCORDO
100
AcDbLine
 62
250
  6
CONTINUOUS
 10
103.9081933665
 20
67.9520757189
 11
262.6645451203
 21
67.9520757189
  0
LWPOLYLINE
  5
270
100
AcDbEntity
  8
RACCORDO
100
AcDbPolyline
 62
250
  6
CONTINUOUS
 90
19
 70
0
 10
103.2158995453
 20
68.6591301282
 10
103.1906100055
 20
68.6595508909
 10
103.165500558
 20
68.6603474134
 10
103.1407499718
 20
68.661514025
 10
103.116534461
 20
68.6630424198
 10
103.0930264299
 20
68.6649217163
 10
103.070393246
 20
68.6671385347
 10
103.0487960485
 20
68.6696770923
 10
103.0283886003
 20
68.6725193155
 10
103.0093161942
 20
68.6756449688
 10
102.9917146179
 20
68.6790317991
 10
102.9757091873
 20
68.6826556933
 10
102.9614138546
 20
68.6864908509
 10
102.9489303966
 20
68.6905099672
 10
102.9383476903
 20
68.6946844276
 10
102.9297410804
 20
68.6989845119
 10
102.9231718424
 20
68.7033796051
 10
102.9186867465
 20
68.707838416
 10
102.9163177248
 20
68.7123291997
  0
LINE
  5
271
100
AcDbEntity
  8
RACCORDO
100
AcDbLine
 62
250
  6
CONTINUOUS
 10
102.9163106848
 20
68.7123291998
 11
102.7863692434
 21
68.5823877584
  0
LINE
  5
272
100
AcDbEntity
  8
0
100
AcDbLine
 62
250
  6
CONTINUOUS
 10
124.9419065574
 20
90.5381649253
 11
125.0863692434
 21
90.6826618515
  0
LINE
  5
273
100
AcDbEntity
  8
0
100
AcDbLine
 62
250
  6
CONTINUOUS
 10
169.8284562336
 20
135.4247427347
 11
169.6874656156
 21
135.2837582237
  0
LINE
  5
274
100
AcDbEntity
  8
0
100
AcDbLine
 62
250
  6
CONTINUOUS
 10
170.630831928
 20
134.6293522798
 11
170.4863692434
 21
134.4848545959
  0
LINE
  5
275
100
AcDbEntity
  8
0
100
AcDbLine
 62
250
  6
CONTINUOUS
 10
125.7442822533
 20
89.7427737127
 11
125.8852728712
 21
89.8837582237
  0
LINE
  5
276
100
AcDbEntity
  8
RACCORDO
100
AcDbLine
 62
250
  6
CONTINUOUS
 10
103.9081933665
 20
67.706952812
 11
103.7849987782
 21
67.5837582237
  0
LWPOLYLINE
  5
277
100
AcDbEntity
  8
RACCORDO
100
AcDbPolyline
 62
250
  6
CONTINUOUS
 90
14
 70
0
 10
170.8006189952
 20
135.1543023543
 10
170.7671080745
 20
135.1358664494
 10
170.7351402487
 20
135.1180778498
 10
170.7049444032
 20
135.1010639198
 10
170.6767367367
 20
135.084946477
 10
170.6507192124
 20
135.0698409202
 10
170.6270781125
 20
135.0558554033
 10
170.6059827044
 20
135.0430900607
 10
170.5875840285
 20
135.0316362908
 10
170.572013817
 20
135.021576101
 10
170.5593835508
 20
135.0129815211
 10
170.5497836608
 20
135.0059140871
 10
170.5432828813
 20
135.000424401
 10
170.5399277568
 20
134.9965517682
  0
LINE
  5
278
100
AcDbEntity
  8
RACCORDO
100
AcDbLine
 62
250
  6
CONTINUOUS
 10
170.8713010545
 20
135.1925843961
 11
170.8006189952
 21
135.1543023543
  0
LWPOLYLINE
  5
279
100
AcDbEntity
  8
RACCORDO
100
AcDbPolyline
 62
250
  6
CONTINUOUS
 90
3
 70
0
 10
170.9826336086
 20
135.2514629021
 10
170.9451657515
 20
135.2318295594
 10
170.8713010545
 20
135.1925843961
  0
LWPOLYLINE
  5
27A
100
AcDbEntity
  8
RACCORDO
100
AcDbPolyline
 62
250
  6
CONTINUOUS
 90
16
 70
0
 10
195.5677863987
 20
90.5147793486
 10
195.6081294958
 20
90.515484724
 10
195.6472951935
 20
90.5163516571
 10
195.685004923
 20
90.5173739817
 10
195.720990471
 20
90.5185444264
 10
195.7549958877
 20
90.5198546665
 10
195.7867793071
 20
90.5212953826
 10
195.8161146674
 20
90.5228563277
 10
195.8427933187
 20
90.5245263994
 10
195.866625507
 20
90.5262937191
 10
195.8874417243
 20
90.5281457168
 10
195.9050939137
 20
90.5300692198
 10
195.9194565228
 20
90.5320505472
 10
195.9304273963
 20
90.5340756067
 10
195.9379285033
 20
90.5361299947
 10
195.9419064914
 20
90.5381990995
  0
LWPOLYLINE
  5
27B
100
AcDbEntity
  8
RACCORDO
100
AcDbPolyline
 62
250
  6
CONTINUOUS
 90
16
 70
0
 10
124.5677863987
 20
90.5147793486
 10
124.6081294958
 20
90.515484724
 10
124.6472951935
 20
90.5163516571
 10
124.685004923
 20
90.5173739817
 10
124.720990471
 20
90.5185444264
 10
124.7549958877
 20
90.5198546665
 10
124.7867793071
 20
90.5212953826
 10
124.8161146674
 20
90.5228563277
 10
124.8427933187
 20
90.5245263994
 10
124.866625507
 20
90.5262937191
 10
124.8874417243
 20
90.5281457168
 10
124.9050939138
 20
90.5300692198
 10
124.9194565228
 20
90.5320505472
 10
124.9304273963
 20
90.5340756067
 10
124.9379285033
 20
90.5361299947
 10
124.9419064914
 20
90.5381990995
  0
LWPOLYLINE
  5
27C
100
AcDbEntity
  8
RACCORDO
100
AcDbPolyline
 62
250
  6
CONTINUOUS
 90
17
 70
0
 10
263.2795162387
 20
89.9164007387
 10
263.30425642
 20
89.9167327701
 10
263.328462324
 20
89.9171674532
 10
263.3519617837
 20
89.9177016962
 10
263.3745876568
 20
89.9183316994
 10
263.3961790144
 20
89.9190529817
 10
263.4165822856
 20
89.919860413
 10
263.43565235
 20
89.9207482503
 10
263.4532535699
 20
89.9217101787
 10
263.4692607546
 20
89.9227393566
 10
263.4835600515
 20
89.9238284636
 10
263.4960497552
 20
89.9249697535
 10
263.5066410315
 20
89.9261551087
 10
263.5152585487
 20
89.9273760982
 10
263.521841014
 20
89.9286240376
 10
263.5263416087
 20
89.9298900508
 10
263.5287283219
 20
89.9311651332
  0
LINE
  5
27D
100
AcDbEntity
  8
RACCORDO
100
AcDbLine
 62
250
  6
CONTINUOUS
 10
263.2291394615
 20
89.9160533305
 11
263.2795162387
 21
89.9164007387
  0
LWPOLYLINE
  5
27E
100
AcDbEntity
  8
RACCORDO
100
AcDbPolyline
 62
250
  6
CONTINUOUS
 90
3
 70
0
 10
195.442591724
 20
90.5136767875
 10
195.4847221124
 20
90.5138721541
 10
195.5677863987
 20
90.5147793486
  0
LWPOLYLINE
  5
27F
100
AcDbEntity
  8
RACCORDO
100
AcDbPolyline
 62
250
  6
CONTINUOUS
 90
3
 70
0
 10
124.442591724
 20
90.5136767875
 10
124.4847221124
 20
90.5138721541
 10
124.5677863987
 20
90.5147793486
  0
LINE
  5
280
100
AcDbEntity
  8
RACCORDO
100
AcDbLine
 62
250
  6
CONTINUOUS
 10
240.8284501266
 20
89.2161826073
 11
196.7442883602
 21
89.2161826073
  0
LINE
  5
281
100
AcDbEntity
  8
RACCORDO
100
AcDbLine
 62
250
  6
CONTINUOUS
 10
169.8284501266
 20
89.2161826073
 11
125.7442883602
 21
89.2161826073
  0
LINE
  5
282
100
AcDbEntity
  8
RACCORDO
100
AcDbLine
 62
250
  6
CONTINUOUS
 10
240.8284772242
 20
89.7427737127
 11
196.7442822533
 21
89.7427737127
  0
LINE
  5
283
100
AcDbEntity
  8
RACCORDO
100
AcDbLine
 62
250
  6
CONTINUOUS
 10
169.8284772242
 20
89.7427737127
 11
125.7442822533
 21
89.7427737127
  0
LINE
  5
284
100
AcDbEntity
  8
0
100
AcDbLine
 62
7
  6
CONTINUOUS
 10
240.6874656156
 20
89.8837582237
 11
196.8852728712
 21
89.8837582237
  0
LINE
  5
285
100
AcDbEntity
  8
0
100
AcDbLine
 62
7
  6
CONTINUOUS
 10
169.6874656156
 20
89.8837582237
 11
125.8852728712
 21
89.8837582237
  0
LINE
  5
286
100
AcDbEntity
  8
RACCORDO
100
AcDbLine
 62
250
  6
CONTINUOUS
 10
103.3435992411
 20
89.9161108348
 11
124.5901048781
 21
89.91605333
  0
LINE
  5
287
100
AcDbEntity
  8
RACCORDO
100
AcDbLine
 62
250
  6
CONTINUOUS
 10
241.9826336087
 20
89.91605333
 11
263.2291392463
 21
89.916110687
  0
LINE
  5
288
100
AcDbEntity
  8
RACCORDO
100
AcDbLine
 62
250
  6
CONTINUOUS
 10
170.9826336087
 20
89.91605333
 11
195.5901048781
 21
89.91605333
  0
LWPOLYLINE
  5
289
100
AcDbEntity
  8
RACCORDO
100
AcDbPolyline
 62
250
  6
CONTINUOUS
 90
18
 70
0
 10
171.1301467628
 20
90.5136769509
 10
171.0461853765
 20
90.5142406725
 10
171.0049516505
 20
90.5147794558
 10
170.9646083602
 20
90.5154848152
 10
170.9254424538
 20
90.5163517336
 10
170.8877325049
 20
90.517374045
 10
170.8517467318
 20
90.5185444781
 10
170.8177410888
 20
90.5198547079
 10
170.7859574466
 20
90.5212954152
 10
170.7566218714
 20
90.5228563528
 10
170.7299430172
 20
90.5245264182
 10
170.7061106415
 20
90.5262937328
 10
170.685294256
 20
90.5281457264
 10
170.6676419204
 20
90.5300692263
 10
170.6532791899
 20
90.5320505513
 10
170.6423082217
 20
90.5340756089
 10
170.6348070486
 20
90.5361299957
 10
170.6308290237
 20
90.5381990994
  0
LWPOLYLINE
  5
28A
100
AcDbEntity
  8
RACCORDO
100
AcDbPolyline
 62
250
  6
CONTINUOUS
 90
18
 70
0
 10
242.1301467628
 20
90.5136769509
 10
242.0461853765
 20
90.5142406725
 10
242.0049516505
 20
90.5147794558
 10
241.9646083602
 20
90.5154848152
 10
241.9254424538
 20
90.5163517336
 10
241.8877325049
 20
90.517374045
 10
241.8517467318
 20
90.5185444781
 10
241.8177410888
 20
90.5198547079
 10
241.7859574466
 20
90.5212954152
 10
241.7566218714
 20
90.5228563528
 10
241.7299430172
 20
90.5245264182
 10
241.7061106415
 20
90.5262937328
 10
241.685294256
 20
90.5281457264
 10
241.6676419204
 20
90.5300692263
 10
241.6532791899
 20
90.5320505513
 10
241.6423082217
 20
90.5340756089
 10
241.6348070486
 20
90.5361299957
 10
241.6308290237
 20
90.5381990994
  0
LWPOLYLINE
  5
28B
100
AcDbEntity
  8
RACCORDO
100
AcDbPolyline
 62
250
  6
CONTINUOUS
 90
18
 70
0
 10
103.3435990254
 20
89.9160533308
 10
103.2932222487
 20
89.9164007389
 10
103.2684820677
 20
89.9167327703
 10
103.2442761639
 20
89.9171674534
 10
103.2207767044
 20
89.9177016965
 10
103.1981508315
 20
89.9183316996
 10
103.1765594741
 20
89.9190529819
 10
103.156156203
 20
89.9198604132
 10
103.1370861386
 20
89.9207482504
 10
103.1194849188
 20
89.9217101789
 10
103.103477734
 20
89.9227393567
 10
103.089178437
 20
89.9238284637
 10
103.0766887332
 20
89.9249697536
 10
103.0660974567
 20
89.9261551088
 10
103.0574799392
 20
89.9273760982
 10
103.0508974737
 20
89.9286240376
 10
103.0463968786
 20
89.9298900509
 10
103.0440101649
 20
89.9311651332
  0
LWPOLYLINE
  5
28C
100
AcDbEntity
  8
RACCORDO
100
AcDbPolyline
 62
250
  6
CONTINUOUS
 90
22
 70
0
 10
125.7442822429
 20
89.7427737023
 10
125.7034001253
 20
89.7437406795
 10
125.6625075653
 20
89.7467923028
 10
125.6217122764
 20
89.7519380474
 10
125.5811463057
 20
89.7591764096
 10
125.54089602
 20
89.7685085342
 10
125.5010046339
 20
89.7799501381
 10
125.4615133369
 20
89.7935256082
 10
125.4226143216
 20
89.8092059135
 10
125.3845720521
 20
89.826904475
 10
125.3475245991
 20
89.8465579575
 10
125.3115408927
 20
89.8681305737
 10
125.2767645645
 20
89.891538428
 10
125.2432927626
 20
89.9167105582
 10
125.2112098056
 20
89.9435775862
 10
125.1806267749
 20
89.9720401088
 10
125.1516186825
 20
90.0020157148
 10
125.1242595174
 20
90.0334143093
 10
125.0986430552
 20
90.066111179
 10
125.0748340337
 20
90.0999966298
 10
125.0528737151
 20
90.1349811648
 10
125.0328072307
 20
90.1709628635
  0
LWPOLYLINE
  5
28D
100
AcDbEntity
  8
RACCORDO
100
AcDbPolyline
 62
250
  6
CONTINUOUS
 90
22
 70
0
 10
196.7442822429
 20
89.7427737023
 10
196.7034001253
 20
89.7437406795
 10
196.6625075653
 20
89.7467923028
 10
196.6217122764
 20
89.7519380474
 10
196.5811463057
 20
89.7591764096
 10
196.54089602
 20
89.7685085342
 10
196.5010046339
 20
89.7799501381
 10
196.4615133369
 20
89.7935256082
 10
196.4226143216
 20
89.8092059135
 10
196.3845720521
 20
89.826904475
 10
196.3475245991
 20
89.8465579575
 10
196.3115408927
 20
89.8681305737
 10
196.2767645645
 20
89.891538428
 10
196.2432927626
 20
89.9167105582
 10
196.2112098056
 20
89.9435775862
 10
196.1806267749
 20
89.9720401088
 10
196.1516186825
 20
90.0020157148
 10
196.1242595174
 20
90.0334143093
 10
196.0986430552
 20
90.066111179
 10
196.0748340337
 20
90.0999966298
 10
196.0528737151
 20
90.1349811648
 10
196.0328072307
 20
90.1709628635
  0
LWPOLYLINE
  5
28E
100
AcDbEntity
  8
RACCORDO
100
AcDbPolyline
 62
250
  6
CONTINUOUS
 90
22
 70
0
 10
125.7442883602
 20
89.2161826073
 10
125.6778253476
 20
89.217842889
 10
125.6116545555
 20
89.2229185287
 10
125.5457759839
 20
89.2314095435
 10
125.4800319607
 20
89.2433100674
 10
125.414580158
 20
89.2586260344
 10
125.349893592
 20
89.2773751786
 10
125.2858691651
 20
89.2996382392
 10
125.2226099749
 20
89.3253346144
 10
125.1608983295
 20
89.3542400392
 10
125.1008094943
 20
89.3863899046
 10
125.0422682039
 20
89.4217490071
 10
124.9858309706
 20
89.4599871873
 10
124.9315300388
 20
89.5011378899
 10
124.879333164
 20
89.5451678844
 10
124.8297001245
 20
89.5916469795
 10
124.7826566651
 20
89.6406186669
 10
124.7381770411
 20
89.6920396681
 10
124.6966437959
 20
89.7453495988
 10
124.6581844444
 20
89.8003617113
 10
124.6226714718
 20
89.8572629245
 10
124.5901048781
 20
89.91605333
  0
LWPOLYLINE
  5
28F
100
AcDbEntity
  8
RACCORDO
100
AcDbPolyline
 62
250
  6
CONTINUOUS
 90
22
 70
0
 10
196.7442883602
 20
89.2161826073
 10
196.6778253476
 20
89.217842889
 10
196.6116545555
 20
89.2229185287
 10
196.5457759839
 20
89.2314095435
 10
196.4800319607
 20
89.2433100674
 10
196.414580158
 20
89.2586260344
 10
196.349893592
 20
89.2773751786
 10
196.2858691651
 20
89.2996382392
 10
196.2226099749
 20
89.3253346144
 10
196.1608983295
 20
89.3542400392
 10
196.1008094943
 20
89.3863899046
 10
196.0422682039
 20
89.4217490071
 10
195.9858309706
 20
89.4599871873
 10
195.9315300388
 20
89.5011378899
 10
195.879333164
 20
89.5451678844
 10
195.8297001245
 20
89.5916469795
 10
195.7826566651
 20
89.6406186669
 10
195.7381770411
 20
89.6920396681
 10
195.6966437959
 20
89.7453495988
 10
195.6581844444
 20
89.8003617113
 10
195.6226714718
 20
89.8572629245
 10
195.5901048781
 20
89.91605333
  0
LINE
  5
290
100
AcDbEntity
  8
RACCORDO
100
AcDbLine
 62
250
  6
CONTINUOUS
 10
170.9826336087
 20
89.9160534903
 11
170.9079662089
 21
89.955359925
  0
LWPOLYLINE
  5
291
100
AcDbEntity
  8
RACCORDO
100
AcDbPolyline
 62
250
  6
CONTINUOUS
 90
16
 70
0
 10
170.9079662089
 20
89.955359925
 10
170.8354332891
 20
89.9942627486
 10
170.8006192766
 20
90.0132139306
 10
170.7671084281
 20
90.0316498034
 10
170.735140676
 20
90.0494383691
 10
170.7049449042
 20
90.0664522644
 10
170.6767373099
 20
90.0825696726
 10
170.6507198548
 20
90.0976751956
 10
170.6270788199
 20
90.1116606803
 10
170.6059834713
 20
90.1244259928
 10
170.5875848483
 20
90.1358797355
 10
170.5720146821
 20
90.1459399016
 10
170.5593844528
 20
90.1545344617
 10
170.5497845908
 20
90.1616018803
 10
170.5432838295
 20
90.1670915558
 10
170.5399287135
 20
90.170964183
  0
LINE
  5
292
100
AcDbEntity
  8
RACCORDO
100
AcDbLine
 62
250
  6
CONTINUOUS
 10
102.9163106848
 20
156.4551872475
 11
102.7863692434
 21
156.5851286889
  0
LINE
  5
293
100
AcDbEntity
  8
0
100
AcDbLine
 62
250
  6
CONTINUOUS
 10
124.9419065159
 20
134.6293300182
 11
125.0863692434
 21
134.4848545959
  0
LINE
  5
294
100
AcDbEntity
  8
0
100
AcDbLine
 62
250
  6
CONTINUOUS
 10
169.8284772242
 20
89.7427737127
 11
169.6874656156
 21
89.8837582237
  0
LINE
  5
295
100
AcDbEntity
  8
0
100
AcDbLine
 62
250
  6
CONTINUOUS
 10
170.6308319703
 20
90.5381861028
 11
170.4863692434
 21
90.6826618515
  0
LINE
  5
296
100
AcDbEntity
  8
0
100
AcDbLine
 62
250
  6
CONTINUOUS
 10
125.7442612627
 20
135.4247427347
 11
125.8852728712
 21
135.2837582237
  0
LINE
  5
297
100
AcDbEntity
  8
RACCORDO
100
AcDbLine
 62
250
  6
CONTINUOUS
 10
103.9081933665
 20
157.4605636354
 11
103.7849987782
 21
157.5837582237
  0
LINE
  5
298
100
AcDbEntity
  8
RACCORDO
100
AcDbLine
 62
250
  6
CONTINUOUS
 10
169.8284501266
 20
135.9513338401
 11
169.8284501267
 21
135.4247427347
  0
LINE
  5
299
100
AcDbEntity
  8
RACCORDO
100
AcDbLine
 62
250
  6
CONTINUOUS
 10
169.8284501266
 20
89.2161826073
 11
169.8284501266
 21
89.7427737127
  0
LINE
  5
29A
100
AcDbEntity
  8
RACCORDO
100
AcDbLine
 62
250
  6
CONTINUOUS
 10
170.630831928
 20
134.6293522798
 11
170.6465805329
 21
127.2837668396
  0
LINE
  5
29B
100
AcDbEntity
  8
RACCORDO
100
AcDbLine
 62
250
  6
CONTINUOUS
 10
171.1301467628
 20
134.6538396606
 11
171.1458953299
 21
127.3004265546
  0
LINE
  5
29C
100
AcDbEntity
  8
RACCORDO
100
AcDbLine
 62
250
  6
CONTINUOUS
 10
170.6465805329
 20
127.2837668396
 11
170.6560304229
 21
119.9349882714
  0
LINE
  5
29D
100
AcDbEntity
  8
RACCORDO
100
AcDbLine
 62
250
  6
CONTINUOUS
 10
171.1458953299
 20
127.3004265546
 11
171.1553451971
 21
119.943076766
  0
LINE
  5
29E
100
AcDbEntity
  8
RACCORDO
100
AcDbLine
 62
250
  6
CONTINUOUS
 10
170.6560304229
 20
119.9349882714
 11
170.659181123
 21
112.5837534585
  0
LINE
  5
29F
100
AcDbEntity
  8
RACCORDO
100
AcDbLine
 62
250
  6
CONTINUOUS
 10
171.1553451971
 20
119.943076766
 11
171.1584958903
 21
112.5837582685
  0
LINE
  5
2A0
100
AcDbEntity
  8
0
100
AcDbLine
 62
7
  6
CONTINUOUS
 10
170.4863692434
 20
134.4848545959
 11
170.4863692434
 21
90.6826618515
  0
LINE
  5
2A1
100
AcDbEntity
  8
RACCORDO
100
AcDbLine
 62
250
  6
CONTINUOUS
 10
170.659181123
 20
112.5837534585
 11
170.6560304101
 21
105.2325163688
  0
LINE
  5
2A2
100
AcDbEntity
  8
RACCORDO
100
AcDbLine
 62
250
  6
CONTINUOUS
 10
171.1584958903
 20
112.5837582685
 11
171.1553451974
 21
105.2244397631
  0
LINE
  5
2A3
100
AcDbEntity
  8
RACCORDO
100
AcDbLine
 62
250
  6
CONTINUOUS
 10
170.6560304101
 20
105.2325163688
 11
170.6465805316
 21
97.8837471346
  0
LINE
  5
2A4
100
AcDbEntity
  8
RACCORDO
100
AcDbLine
 62
250
  6
CONTINUOUS
 10
171.1553451974
 20
105.2244397631
 11
171.1458953302
 21
97.867089945
  0
LINE
  5
2A5
100
AcDbEntity
  8
RACCORDO
100
AcDbLine
 62
250
  6
CONTINUOUS
 10
170.6465805316
 20
97.8837471346
 11
170.6308319703
 21
90.5381861028
  0
LINE
  5
2A6
100
AcDbEntity
  8
RACCORDO
100
AcDbLine
 62
250
  6
CONTINUOUS
 10
171.1458953302
 20
97.867089945
 11
171.1301467628
 21
90.5136767868
  0
LWPOLYLINE
  5
2A7
100
AcDbEntity
  8
RACCORDO
100
AcDbPolyline
 62
250
  6
CONTINUOUS
 90
10
 70
0
 10
170.6308319584
 20
90.5381861146
 10
170.6295957593
 20
90.4957895524
 10
170.6260995034
 20
90.4535030445
 10
170.6203498566
 20
90.4114461093
 10
170.6123558392
 20
90.3697204039
 10
170.6021389523
 20
90.3284624143
 10
170.5897424784
 20
90.2878408398
 10
170.5752132858
 20
90.247985732
 10
170.5585923472
 20
90.2089904635
 10
170.5399312562
 20
90.1709628635
  0
LWPOLYLINE
  5
2A8
100
AcDbEntity
  8
RACCORDO
100
AcDbPolyline
 62
250
  6
CONTINUOUS
 90
10
 70
0
 10
171.1301467628
 20
90.5136767868
 10
171.1281079927
 20
90.4444181847
 10
171.1224348485
 20
90.3756950798
 10
171.1131273301
 20
90.3075074616
 10
171.1001234656
 20
90.2396172759
 10
171.083485227
 20
90.1722625594
 10
171.0633985303
 20
90.106157422
 10
171.0399253478
 20
90.0415398759
 10
171.0130037072
 20
89.9781718537
 10
170.9826336087
 20
89.91605333
  0
LWPOLYLINE
  5
2A9
100
AcDbEntity
  8
RACCORDO
100
AcDbPolyline
 62
250
  6
CONTINUOUS
 90
14
 70
0
 10
124.7721194186
 20
90.0132140458
 10
124.8056303201
 20
90.0316499421
 10
124.8375981264
 20
90.0494385327
 10
124.8677939521
 20
90.0664524535
 10
124.8960015993
 20
90.0825698873
 10
124.922019105
 20
90.0976754353
 10
124.9456601872
 20
90.1116609438
 10
124.9667555791
 20
90.1244262786
 10
124.9851542404
 20
90.1358800415
 10
125.0007244393
 20
90.1459402253
 10
125.0133546951
 20
90.1545348002
 10
125.022954577
 20
90.1616022303
 10
125.029455351
 20
90.1670919139
 10
125.0328104724
 20
90.1709645455
  0
LINE
  5
2AA
100
AcDbEntity
  8
RACCORDO
100
AcDbLine
 62
250
  6
CONTINUOUS
 10
124.7014373942
 20
89.9749320191
 11
124.7721194186
 21
90.0132140458
  0
LWPOLYLINE
  5
2AB
100
AcDbEntity
  8
RACCORDO
100
AcDbPolyline
 62
250
  6
CONTINUOUS
 90
3
 70
0
 10
124.5901048782
 20
89.9160535277
 10
124.6275727252
 20
89.935686867
 10
124.7014373942
 20
89.9749320191
  0
LINE
  5
2AC
100
AcDbEntity
  8
RACCORDO
100
AcDbLine
 62
250
  6
CONTINUOUS
 10
124.5901048781
 20
135.251462957
 11
124.664772278
 21
135.2121565224
  0
LWPOLYLINE
  5
2AD
100
AcDbEntity
  8
RACCORDO
100
AcDbPolyline
 62
250
  6
CONTINUOUS
 90
16
 70
0
 10
124.664772278
 20
135.2121565224
 10
124.7373051977
 20
135.1732536987
 10
124.7721192102
 20
135.1543025168
 10
124.8056300587
 20
135.135866644
 10
124.8375978109
 20
135.1180780783
 10
124.8677935826
 20
135.1010641829
 10
124.896001177
 20
135.0849467747
 10
124.922018632
 20
135.0698412517
 10
124.9456596669
 20
135.0558557671
 10
124.9667550156
 20
135.0430904546
 10
124.9851536386
 20
135.0316367118
 10
125.0007238047
 20
135.0215765458
 10
125.013354034
 20
135.0129819857
 10
125.0229538961
 20
135.0059145671
 10
125.0294546573
 20
135.0004248916
 10
125.0328097734
 20
134.9965522643
  0
LWPOLYLINE
  5
2AE
100
AcDbEntity
  8
RACCORDO
100
AcDbPolyline
 62
250
  6
CONTINUOUS
 90
22
 70
0
 10
195.5901048781
 20
135.2514631174
 10
195.622576976
 20
135.3100947517
 10
195.6579840565
 20
135.3668519332
 10
195.6963261198
 20
135.4217347525
 10
195.7377280625
 20
135.4749285475
 10
195.7820649879
 20
135.5262481498
 10
195.8289622057
 20
135.5751379137
 10
195.8784466443
 20
135.6215567832
 10
195.9304913752
 20
135.6655460252
 10
195.9846409232
 20
135.7066735165
 10
196.0409229983
 20
135.7449045184
 10
196.0993098905
 20
135.7802739825
 10
196.1592629939
 20
135.8124543393
 10
196.2208156692
 20
135.8414075925
 10
196.2839345557
 20
135.8671719252
 10
196.3479809655
 20
135.8895340401
 10
196.4129705832
 20
135.9084415124
 10
196.4788877243
 20
135.9239469034
 10
196.5450466467
 20
135.9359943848
 10
196.6112187698
 20
135.9445653707
 10
196.6776326743
 20
135.9496785167
 10
196.7442883602
 20
135.9513338401
  0
LWPOLYLINE
  5
2AF
100
AcDbEntity
  8
RACCORDO
100
AcDbPolyline
 62
250
  6
CONTINUOUS
 90
22
 70
0
 10
170.9826336087
 20
89.91605333
 10
170.9501615109
 20
89.8574216957
 10
170.9147544304
 20
89.8006645142
 10
170.8764123671
 20
89.745781695
 10
170.8350104245
 20
89.6925879
 10
170.7906734992
 20
89.6412682978
 10
170.7437762815
 20
89.592378534
 10
170.694291843
 20
89.5459596646
 10
170.6422471122
 20
89.5019704226
 10
170.5880975643
 20
89.4608429313
 10
170.5318154892
 20
89.4226119294
 10
170.4734285971
 20
89.3872424654
 10
170.4134754938
 20
89.3550621085
 10
170.3519228185
 20
89.3261088553
 10
170.288803932
 20
89.3003445224
 10
170.2247575222
 20
89.2779824075
 10
170.1597679043
 20
89.2590749352
 10
170.0938507632
 20
89.2435695441
 10
170.0276918406
 20
89.2315220626
 10
169.9615197173
 20
89.2229510767
 10
169.8951058127
 20
89.2178379307
 10
169.8284501266
 20
89.2161826073
  0
LWPOLYLINE
  5
2B0
100
AcDbEntity
  8
RACCORDO
100
AcDbPolyline
 62
250
  6
CONTINUOUS
 90
22
 70
0
 10
170.5399312562
 20
90.1709628635
 10
170.5199416831
 20
90.1351110214
 10
170.4980619138
 20
90.1002336388
 10
170.4743342583
 20
90.0664331284
 10
170.4487960247
 20
90.0337982499
 10
170.4215103712
 20
90.002441352
 10
170.3925726405
 20
89.9724925464
 10
170.3620538369
 20
89.9440417238
 10
170.3300284669
 20
89.9171735792
 10
170.2966148142
 20
89.8919950418
 10
170.2619012607
 20
89.8685783335
 10
170.225980335
 20
89.8469910788
 10
170.1889905121
 20
89.8273149106
 10
170.1510254919
 20
89.8095974706
 10
170.1121981647
 20
89.7938892119
 10
170.072687401
 20
89.7802510111
 10
170.0326010372
 20
89.7687054089
 10
169.9920550556
 20
89.7592713987
 10
169.9512484308
 20
89.7519718668
 10
169.9103237977
 20
89.7468015976
 10
169.8693637474
 20
89.7437419089
 10
169.8284772704
 20
89.742773667
  0
LWPOLYLINE
  5
2B1
100
AcDbEntity
  8
RACCORDO
100
AcDbPolyline
 62
250
  6
CONTINUOUS
 90
22
 70
0
 10
196.0328072307
 20
134.9965535839
 10
196.0527968037
 20
135.0324054259
 10
196.074676573
 20
135.0672828086
 10
196.0984042285
 20
135.101083319
 10
196.1239424622
 20
135.1337181976
 10
196.1512281158
 20
135.1650750955
 10
196.1801658465
 20
135.1950239011
 10
196.2106846502
 20
135.2234747238
 10
196.2427100203
 20
135.2503428684
 10
196.276123673
 20
135.2755214058
 10
196.3108372266
 20
135.2989381142
 10
196.3467581523
 20
135.3205253689
 10
196.3837479753
 20
135.3402015371
 10
196.4217129955
 20
135.357918977
 10
196.4605403227
 20
135.3736272357
 10
196.5000510863
 20
135.3872654364
 10
196.54013745
 20
135.3988110386
 10
196.5806834316
 20
135.4082450487
 10
196.6214900563
 20
135.4155445806
 10
196.6624146893
 20
135.4207148498
 10
196.7033747395
 20
135.4237745385
 10
196.7442612165
 20
135.4247427804
  0
LWPOLYLINE
  5
2B2
100
AcDbEntity
  8
0
100
AcDbPolyline
 62
7
  6
CONTINUOUS
 90
13
 70
0
 43
0.3500000006
 10
281.6792303467
 20
112.5837601318
 10
280.3935053101
 20
112.5837601318
 10
279.9649363403
 20
112.7980446167
 10
279.5363673706
 20
113.2266135864
 10
279.5363673706
 20
113.4408980713
 10
279.9649363403
 20
113.8694761047
 10
280.3935053101
 20
114.0837605896
 10
281.6792303467
 20
114.0837605896
 10
282.1077993164
 20
113.8694761047
 10
282.5363682861
 20
113.4408980713
 10
282.5363682861
 20
113.2266135864
 10
282.1077993164
 20
112.7980446167
 10
281.6792303467
 20
112.5837601318
  0
LWPOLYLINE
  5
2B3
100
AcDbEntity
  8
RACCORDO
100
AcDbPolyline
 62
250
  6
CONTINUOUS
 90
10
 70
0
 10
170.5399312562
 20
134.9965535839
 10
170.5585632769
 20
134.9585895218
 10
170.5751708686
 20
134.9196381281
 10
170.5896990381
 20
134.8798053802
 10
170.6021058664
 20
134.8391736942
 10
170.6123371189
 20
134.7978812512
 10
170.620340851
 20
134.7561252229
 10
170.6260952436
 20
134.7140522793
 10
170.6295942051
 20
134.6717547277
 10
170.6308318953
 20
134.6293522478
  0
LWPOLYLINE
  5
2B4
100
AcDbEntity
  8
RACCORDO
100
AcDbPolyline
 62
250
  6
CONTINUOUS
 90
10
 70
0
 10
170.9826336087
 20
135.2514631174
 10
171.0129480934
 20
135.1894983177
 10
171.0398338935
 20
135.1262376419
 10
171.063291009
 20
135.0616810638
 10
171.0833892388
 20
134.9955799169
 10
171.100058784
 20
134.9281828104
 10
171.1130902486
 20
134.8602356475
 10
171.122413834
 20
134.791987063
 10
171.1280993387
 20
134.7231884043
 10
171.1301467628
 20
134.6538396606
  0
LWPOLYLINE
  5
2B5
100
AcDbEntity
  8
RACCORDO
100
AcDbPolyline
 62
250
  6
CONTINUOUS
 90
3
 70
0
 10
241.9826336086
 20
135.2514629021
 10
241.9451657515
 20
135.2318295594
 10
241.8713010545
 20
135.1925843961
  0
LWPOLYLINE
  5
2B6
100
AcDbEntity
  8
RACCORDO
100
AcDbPolyline
 62
250
  6
CONTINUOUS
 90
3
 70
0
 10
241.9826336087
 20
89.9160534903
 10
241.9079662089
 20
89.955359925
 10
241.8713012027
 20
89.9749319449
  0
LWPOLYLINE
  5
2B7
100
AcDbEntity
  8
RACCORDO
100
AcDbPolyline
 62
250
  6
CONTINUOUS
 90
10
 70
0
 10
196.0328072307
 20
90.1709628635
 10
196.0141757238
 20
90.2089258031
 10
195.9975684981
 20
90.2478760915
 10
195.9830405537
 20
90.2877077648
 10
195.970633908
 20
90.32833809
 10
195.9604026789
 20
90.3696292188
 10
195.9523986561
 20
90.4113850047
 10
195.9466437942
 20
90.4534591515
 10
195.9431444332
 20
90.4957590307
 10
195.9419065893
 20
90.5381649565
  0
LWPOLYLINE
  5
2B8
100
AcDbEntity
  8
RACCORDO
100
AcDbPolyline
 62
250
  6
CONTINUOUS
 90
10
 70
0
 10
195.5901048781
 20
89.91605333
 10
195.5597913285
 20
89.9780158174
 10
195.532906234
 20
90.0412741763
 10
195.5094495945
 20
90.1058284329
 10
195.4893516171
 20
90.1719264769
 10
195.4726820949
 20
90.239320476
 10
195.4596504065
 20
90.3072668574
 10
195.4503263451
 20
90.3755177632
 10
195.4446401176
 20
90.4443210694
 10
195.442591724
 20
90.5136767868
  0
LINE
  5
2B9
100
AcDbEntity
  8
RACCORDO
100
AcDbLine
 62
250
  6
CONTINUOUS
 10
195.442591724
 20
90.5136767868
 11
195.4268431569
 21
97.8670898963
  0
LINE
  5
2BA
100
AcDbEntity
  8
RACCORDO
100
AcDbLine
 62
250
  6
CONTINUOUS
 10
195.9419065574
 20
90.5381649253
 11
195.9261579536
 21
97.8837497798
  0
LINE
  5
2BB
100
AcDbEntity
  8
RACCORDO
100
AcDbLine
 62
250
  6
CONTINUOUS
 10
195.4268431569
 20
97.8670898963
 11
195.4173932897
 21
105.2244396867
  0
LINE
  5
2BC
100
AcDbEntity
  8
RACCORDO
100
AcDbLine
 62
250
  6
CONTINUOUS
 10
195.9261579536
 20
97.8837497798
 11
195.916708064
 21
105.2325281252
  0
LINE
  5
2BD
100
AcDbEntity
  8
RACCORDO
100
AcDbLine
 62
250
  6
CONTINUOUS
 10
195.4173932897
 20
105.2244396867
 11
195.4142425965
 21
112.5837581845
  0
LINE
  5
2BE
100
AcDbEntity
  8
RACCORDO
100
AcDbLine
 62
250
  6
CONTINUOUS
 10
195.916708064
 20
105.2325281252
 11
195.9135573639
 21
112.5837629945
  0
LINE
  5
2BF
100
AcDbEntity
  8
0
100
AcDbLine
 62
7
  6
CONTINUOUS
 10
196.0863692434
 20
90.6826618515
 11
196.0863692434
 21
134.4848545959
  0
LINE
  5
2C0
100
AcDbEntity
  8
RACCORDO
100
AcDbLine
 62
250
  6
CONTINUOUS
 10
196.7442883602
 20
135.9513338401
 11
196.7442883602
 21
135.4247427347
  0
LINE
  5
2C1
100
AcDbEntity
  8
RACCORDO
100
AcDbLine
 62
250
  6
CONTINUOUS
 10
196.7442883602
 20
89.2161826073
 11
196.7442883601
 21
89.7427737127
  0
LINE
  5
2C2
100
AcDbEntity
  8
RACCORDO
100
AcDbLine
 62
250
  6
CONTINUOUS
 10
195.4142425965
 20
112.5837581845
 11
195.4173932895
 21
119.9430766896
  0
LINE
  5
2C3
100
AcDbEntity
  8
RACCORDO
100
AcDbLine
 62
250
  6
CONTINUOUS
 10
195.9135573639
 20
112.5837629945
 11
195.9167080768
 21
119.9350001081
  0
LINE
  5
2C4
100
AcDbEntity
  8
RACCORDO
100
AcDbLine
 62
250
  6
CONTINUOUS
 10
195.4173932895
 20
119.9430766896
 11
195.4268431567
 21
127.3004265059
  0
LINE
  5
2C5
100
AcDbEntity
  8
RACCORDO
100
AcDbLine
 62
250
  6
CONTINUOUS
 10
195.9167080768
 20
119.9350001081
 11
195.9261579551
 21
127.2837692438
  0
LINE
  5
2C6
100
AcDbEntity
  8
RACCORDO
100
AcDbLine
 62
250
  6
CONTINUOUS
 10
195.4268431567
 20
127.3004265059
 11
195.442591724
 21
134.6538396606
  0
LINE
  5
2C7
100
AcDbEntity
  8
RACCORDO
100
AcDbLine
 62
250
  6
CONTINUOUS
 10
195.9261579551
 20
127.2837692438
 11
195.9419065159
 21
134.6293300182
  0
LWPOLYLINE
  5
2C8
100
AcDbEntity
  8
RACCORDO
100
AcDbPolyline
 62
250
  6
CONTINUOUS
 90
10
 70
0
 10
195.9419065275
 20
134.6293300066
 10
195.943142585
 20
134.6717243627
 10
195.9466385487
 20
134.7140094444
 10
195.9523878754
 20
134.7560657358
 10
195.9603817247
 20
134.7977918341
 10
195.9705986858
 20
134.8390509585
 10
195.9829953365
 20
134.8796735995
 10
195.9975246998
 20
134.9195294467
 10
196.0141458655
 20
134.9585253855
 10
196.0328072307
 20
134.9965535839
  0
LWPOLYLINE
  5
2C9
100
AcDbEntity
  8
RACCORDO
100
AcDbPolyline
 62
250
  6
CONTINUOUS
 90
10
 70
0
 10
195.442591724
 20
134.6538396606
 10
195.4446293545
 20
134.7230901131
 10
195.4503016137
 20
134.7918076962
 10
195.4596085016
 20
134.8599924202
 10
195.4726119497
 20
134.927883126
 10
195.4892500266
 20
134.9952409901
 10
195.5093369373
 20
135.0613495419
 10
195.5328107504
 20
135.1259699823
 10
195.5597333973
 20
135.1893411657
 10
195.5901048781
 20
135.2514631174
  0
LWPOLYLINE
  5
2CA
100
AcDbEntity
  8
RACCORDO
100
AcDbPolyline
 62
250
  6
CONTINUOUS
 90
14
 70
0
 10
241.8006189952
 20
135.1543023543
 10
241.7671080745
 20
135.1358664494
 10
241.7351402487
 20
135.1180778498
 10
241.7049444032
 20
135.1010639198
 10
241.6767367367
 20
135.084946477
 10
241.6507192124
 20
135.0698409202
 10
241.6270781125
 20
135.0558554033
 10
241.6059827044
 20
135.0430900607
 10
241.5875840285
 20
135.0316362908
 10
241.572013817
 20
135.021576101
 10
241.5593835508
 20
135.0129815211
 10
241.5497836608
 20
135.0059140871
 10
241.5432828813
 20
135.000424401
 10
241.5399277568
 20
134.9965517682
  0
LINE
  5
2CB
100
AcDbEntity
  8
RACCORDO
100
AcDbLine
 62
250
  6
CONTINUOUS
 10
241.8713010545
 20
135.1925843961
 11
241.8006189952
 21
135.1543023543
  0
LWPOLYLINE
  5
2CC
100
AcDbEntity
  8
RACCORDO
100
AcDbPolyline
 62
250
  6
CONTINUOUS
 90
15
 70
0
 10
241.8713012027
 20
89.9749319449
 10
241.8006192766
 20
90.0132139306
 10
241.7671084281
 20
90.0316498034
 10
241.735140676
 20
90.0494383691
 10
241.7049449042
 20
90.0664522644
 10
241.6767373099
 20
90.0825696726
 10
241.6507198548
 20
90.0976751956
 10
241.6270788199
 20
90.1116606803
 10
241.6059834713
 20
90.1244259928
 10
241.5875848483
 20
90.1358797355
 10
241.5720146821
 20
90.1459399016
 10
241.5593844528
 20
90.1545344617
 10
241.5497845908
 20
90.1616018803
 10
241.5432838295
 20
90.1670915558
 10
241.5399287135
 20
90.170964183
  0
LWPOLYLINE
  5
2CD
100
AcDbEntity
  8
RACCORDO
100
AcDbPolyline
 62
250
  6
CONTINUOUS
 90
17
 70
0
 10
242.0461856415
 20
134.6532758995
 10
242.0049520882
 20
134.6527370988
 10
241.964608991
 20
134.6520317233
 10
241.9254432933
 20
134.6511647903
 10
241.8877335638
 20
134.6501424657
 10
241.8517480158
 20
134.6489720209
 10
241.8177425991
 20
134.6476617809
 10
241.7859591797
 20
134.6462210647
 10
241.7566238194
 20
134.6446601196
 10
241.7299451682
 20
134.642990048
 10
241.7061129798
 20
134.6412227282
 10
241.6852967625
 20
134.6393707306
 10
241.6676445731
 20
134.6374472276
 10
241.6532819641
 20
134.6354659002
 10
241.6423110905
 20
134.6334408407
 10
241.6348099836
 20
134.6313864526
 10
241.6308319954
 20
134.6293173479
  0
LINE
  5
2CE
100
AcDbEntity
  8
RACCORDO
100
AcDbLine
 62
250
  6
CONTINUOUS
 10
262.6645451203
 20
157.4605636354
 11
262.7877397087
 21
157.5837582237
  0
LINE
  5
2CF
100
AcDbEntity
  8
0
100
AcDbLine
 62
250
  6
CONTINUOUS
 10
240.8284562336
 20
135.4247427347
 11
240.6874656156
 21
135.2837582237
  0
LINE
  5
2D0
100
AcDbEntity
  8
0
100
AcDbLine
 62
250
  6
CONTINUOUS
 10
195.9419065574
 20
90.5381649253
 11
196.0863692434
 21
90.6826618515
  0
LINE
  5
2D1
100
AcDbEntity
  8
0
100
AcDbLine
 62
250
  6
CONTINUOUS
 10
196.7442822533
 20
89.7427737127
 11
196.8852728712
 21
89.8837582237
  0
LINE
  5
2D2
100
AcDbEntity
  8
0
100
AcDbLine
 62
250
  6
CONTINUOUS
 10
241.630831928
 20
134.6293522798
 11
241.4863692434
 21
134.4848545959
  0
LINE
  5
2D3
100
AcDbEntity
  8
RACCORDO
100
AcDbLine
 62
250
  6
CONTINUOUS
 10
263.656427802
 20
156.4551872475
 11
263.7863692434
 21
156.5851286889
  0
LWPOLYLINE
  5
2D4
100
AcDbEntity
  8
RACCORDO
100
AcDbPolyline
 62
250
  6
CONTINUOUS
 90
14
 70
0
 10
195.7721194186
 20
90.0132140458
 10
195.8056303201
 20
90.0316499421
 10
195.8375981264
 20
90.0494385327
 10
195.8677939521
 20
90.0664524535
 10
195.8960015993
 20
90.0825698873
 10
195.922019105
 20
90.0976754353
 10
195.9456601872
 20
90.1116609438
 10
195.9667555791
 20
90.1244262786
 10
195.9851542404
 20
90.1358800415
 10
196.0007244393
 20
90.1459402253
 10
196.0133546951
 20
90.1545348002
 10
196.022954577
 20
90.1616022303
 10
196.029455351
 20
90.1670919139
 10
196.0328104724
 20
90.1709645455
  0
LINE
  5
2D5
100
AcDbEntity
  8
RACCORDO
100
AcDbLine
 62
250
  6
CONTINUOUS
 10
195.7014373942
 20
89.9749320191
 11
195.7721194186
 21
90.0132140458
  0
LWPOLYLINE
  5
2D6
100
AcDbEntity
  8
RACCORDO
100
AcDbPolyline
 62
250
  6
CONTINUOUS
 90
3
 70
0
 10
195.5901048782
 20
89.9160535277
 10
195.6275727252
 20
89.935686867
 10
195.7014373942
 20
89.9749320191
  0
LWPOLYLINE
  5
2D7
100
AcDbEntity
  8
RACCORDO
100
AcDbPolyline
 62
250
  6
CONTINUOUS
 90
16
 70
0
 10
171.0049520882
 20
134.6527370988
 10
170.964608991
 20
134.6520317233
 10
170.9254432933
 20
134.6511647903
 10
170.8877335638
 20
134.6501424657
 10
170.8517480158
 20
134.6489720209
 10
170.8177425991
 20
134.6476617809
 10
170.7859591797
 20
134.6462210647
 10
170.7566238194
 20
134.6446601196
 10
170.7299451682
 20
134.642990048
 10
170.7061129798
 20
134.6412227282
 10
170.6852967625
 20
134.6393707306
 10
170.6676445731
 20
134.6374472276
 10
170.6532819641
 20
134.6354659002
 10
170.6423110905
 20
134.6334408407
 10
170.6348099836
 20
134.6313864526
 10
170.6308319954
 20
134.6293173479
  0
LWPOLYLINE
  5
2D8
100
AcDbEntity
  8
RACCORDO
100
AcDbPolyline
 62
250
  6
CONTINUOUS
 90
17
 70
0
 10
103.2932222483
 20
135.2511157086
 10
103.268482067
 20
135.2507836773
 10
103.2442761631
 20
135.2503489942
 10
103.2207767034
 20
135.2498147511
 10
103.1981508303
 20
135.2491847479
 10
103.1765594728
 20
135.2484634656
 10
103.1561562016
 20
135.2476560343
 10
103.1370861372
 20
135.2467681971
 10
103.1194849173
 20
135.2458062686
 10
103.1034777325
 20
135.2447770908
 10
103.0891784356
 20
135.2436879837
 10
103.0766887319
 20
135.2425466938
 10
103.0660974556
 20
135.2413613387
 10
103.0574799383
 20
135.2401403492
 10
103.050897473
 20
135.2388924098
 10
103.0463968783
 20
135.2376263965
 10
103.0440101649
 20
135.2363513141
  0
LINE
  5
2D9
100
AcDbEntity
  8
RACCORDO
100
AcDbLine
 62
250
  6
CONTINUOUS
 10
103.3435990254
 20
135.2514631168
 11
103.2932222483
 21
135.2511157086
  0
LINE
  5
2DA
100
AcDbEntity
  8
RACCORDO
100
AcDbLine
 62
250
  6
CONTINUOUS
 10
242.1301467628
 20
134.6538396599
 11
242.0461856415
 21
134.6532758995
  0
LWPOLYLINE
  5
2DB
100
AcDbEntity
  8
RACCORDO
100
AcDbPolyline
 62
250
  6
CONTINUOUS
 90
3
 70
0
 10
171.1301467628
 20
134.6538396599
 10
171.0880163744
 20
134.6536442933
 10
171.0049520882
 20
134.6527370988
  0
LINE
  5
2DC
100
AcDbEntity
  8
RACCORDO
100
AcDbLine
 62
250
  6
CONTINUOUS
 10
195.5901048781
 20
135.2514631174
 11
170.9826336087
 21
135.2514631174
  0
LINE
  5
2DD
100
AcDbEntity
  8
RACCORDO
100
AcDbLine
 62
250
  6
CONTINUOUS
 10
263.2291392452
 20
135.2514054807
 11
241.9826336087
 21
135.2514631174
  0
LINE
  5
2DE
100
AcDbEntity
  8
RACCORDO
100
AcDbLine
 62
250
  6
CONTINUOUS
 10
124.5901048781
 20
135.2514631174
 11
103.3435992411
 21
135.2514056286
  0
LINE
  5
2DF
100
AcDbEntity
  8
0
100
AcDbLine
 62
7
  6
CONTINUOUS
 10
125.8852728712
 20
135.2837582237
 11
169.6874656156
 21
135.2837582237
  0
LINE
  5
2E0
100
AcDbEntity
  8
0
100
AcDbLine
 62
7
  6
CONTINUOUS
 10
196.8852728712
 20
135.2837582237
 11
240.6874656156
 21
135.2837582237
  0
LINE
  5
2E1
100
AcDbEntity
  8
RACCORDO
100
AcDbLine
 62
250
  6
CONTINUOUS
 10
125.7442612627
 20
135.4247427347
 11
169.8284562336
 21
135.4247427347
  0
LINE
  5
2E2
100
AcDbEntity
  8
RACCORDO
100
AcDbLine
 62
250
  6
CONTINUOUS
 10
196.7442612627
 20
135.4247427347
 11
240.8284562336
 21
135.4247427347
  0
LINE
  5
2E3
100
AcDbEntity
  8
RACCORDO
100
AcDbLine
 62
250
  6
CONTINUOUS
 10
125.7442883602
 20
135.9513338401
 11
169.8284501266
 21
135.9513338401
  0
LINE
  5
2E4
100
AcDbEntity
  8
RACCORDO
100
AcDbLine
 62
250
  6
CONTINUOUS
 10
196.7442883602
 20
135.9513338401
 11
240.8284501266
 21
135.9513338401
  0
LWPOLYLINE
  5
2E5
100
AcDbEntity
  8
RACCORDO
100
AcDbPolyline
 62
250
  6
CONTINUOUS
 90
18
 70
0
 10
124.4425917241
 20
134.6538394889
 10
124.5265531226
 20
134.6532757691
 10
124.5677868566
 20
134.6527369866
 10
124.6081301559
 20
134.652031628
 10
124.647296072
 20
134.6511647102
 10
124.6850060309
 20
134.6501423994
 10
124.7209918146
 20
134.6489719669
 10
124.754997468
 20
134.6476617376
 10
124.7867811206
 20
134.6462210307
 10
124.8161167058
 20
134.6446600935
 10
124.8427955695
 20
134.6429900283
 10
124.8666279539
 20
134.6412227139
 10
124.8874443473
 20
134.6393707206
 10
124.9050966896
 20
134.6374472208
 10
124.9194594258
 20
134.6354658959
 10
124.9304303984
 20
134.6334408383
 10
124.9379315748
 20
134.6313864516
 10
124.9419096014
 20
134.629317348
  0
LWPOLYLINE
  5
2E6
100
AcDbEntity
  8
RACCORDO
100
AcDbPolyline
 62
250
  6
CONTINUOUS
 90
18
 70
0
 10
195.4425917241
 20
134.6538394889
 10
195.5265531226
 20
134.6532757691
 10
195.5677868566
 20
134.6527369866
 10
195.6081301559
 20
134.652031628
 10
195.647296072
 20
134.6511647102
 10
195.6850060309
 20
134.6501423994
 10
195.7209918146
 20
134.6489719669
 10
195.754997468
 20
134.6476617376
 10
195.7867811206
 20
134.6462210307
 10
195.8161167058
 20
134.6446600935
 10
195.8427955695
 20
134.6429900283
 10
195.8666279539
 20
134.6412227139
 10
195.8874443473
 20
134.6393707206
 10
195.9050966896
 20
134.6374472208
 10
195.9194594258
 20
134.6354658959
 10
195.9304303984
 20
134.6334408383
 10
195.9379315748
 20
134.6313864516
 10
195.9419096014
 20
134.629317348
  0
LWPOLYLINE
  5
2E7
100
AcDbEntity
  8
RACCORDO
100
AcDbPolyline
 62
250
  6
CONTINUOUS
 90
18
 70
0
 10
263.2291394615
 20
135.2514631166
 10
263.2795162381
 20
135.2511157084
 10
263.3042564191
 20
135.250783677
 10
263.3284623229
 20
135.250348994
 10
263.3519617824
 20
135.2498147509
 10
263.3745876553
 20
135.2491847478
 10
263.3961790127
 20
135.2484634654
 10
263.4165822838
 20
135.2476560342
 10
263.4356523482
 20
135.2467681969
 10
263.4532535681
 20
135.2458062685
 10
263.4692607529
 20
135.2447770907
 10
263.4835600498
 20
135.2436879836
 10
263.4960497537
 20
135.2425466938
 10
263.5066410302
 20
135.2413613386
 10
263.5152585476
 20
135.2401403491
 10
263.5218410132
 20
135.2388924097
 10
263.5263416082
 20
135.2376263965
 10
263.5287283219
 20
135.2363513141
  0
LWPOLYLINE
  5
2E8
100
AcDbEntity
  8
RACCORDO
100
AcDbPolyline
 62
250
  6
CONTINUOUS
 90
22
 70
0
 10
169.828456244
 20
135.4247427451
 10
169.8693383616
 20
135.4237757679
 10
169.9102309215
 20
135.4207241445
 10
169.9510262104
 20
135.4155784
 10
169.991592181
 20
135.4083400378
 10
170.0318424665
 20
135.3990079132
 10
170.0717338524
 20
135.3875663094
 10
170.1112251494
 20
135.3739908394
 10
170.1501241647
 20
135.3583105341
 10
170.1881664342
 20
135.3406119727
 10
170.2252138872
 20
135.3209584902
 10
170.2611975937
 20
135.299385874
 10
170.2959739219
 20
135.2759780197
 10
170.3294457239
 20
135.2508058895
 10
170.361528681
 20
135.2239388614
 10
170.3921117118
 20
135.1954763388
 10
170.4211198042
 20
135.1655007327
 10
170.4484789694
 20
135.1341021382
 10
170.4740954316
 20
135.1014052683
 10
170.4979044531
 20
135.0675198176
 10
170.5198647718
 20
135.0325352825
 10
170.5399312562
 20
134.9965535839
  0
LWPOLYLINE
  5
2E9
100
AcDbEntity
  8
RACCORDO
100
AcDbPolyline
 62
250
  6
CONTINUOUS
 90
22
 70
0
 10
240.828456244
 20
135.4247427451
 10
240.8693383616
 20
135.4237757679
 10
240.9102309215
 20
135.4207241445
 10
240.9510262104
 20
135.4155784
 10
240.991592181
 20
135.4083400378
 10
241.0318424665
 20
135.3990079132
 10
241.0717338524
 20
135.3875663094
 10
241.1112251494
 20
135.3739908394
 10
241.1501241647
 20
135.3583105341
 10
241.1881664342
 20
135.3406119727
 10
241.2252138872
 20
135.3209584902
 10
241.2611975937
 20
135.299385874
 10
241.2959739219
 20
135.2759780197
 10
241.3294457239
 20
135.2508058895
 10
241.361528681
 20
135.2239388614
 10
241.3921117118
 20
135.1954763388
 10
241.4211198042
 20
135.1655007327
 10
241.4484789694
 20
135.1341021382
 10
241.4740954316
 20
135.1014052683
 10
241.4979044531
 20
135.0675198176
 10
241.5198647718
 20
135.0325352825
 10
241.5399312562
 20
134.9965535839
  0
LWPOLYLINE
  5
2EA
100
AcDbEntity
  8
RACCORDO
100
AcDbPolyline
 62
250
  6
CONTINUOUS
 90
22
 70
0
 10
169.8284501266
 20
135.9513338401
 10
169.8949131392
 20
135.9496735584
 10
169.9610839313
 20
135.9445979187
 10
170.0269625028
 20
135.9361069039
 10
170.0927065257
 20
135.9242063801
 10
170.1581583281
 20
135.9088904132
 10
170.222844894
 20
135.890141269
 10
170.2868693208
 20
135.8678782085
 10
170.3501285111
 20
135.8421818333
 10
170.4118401566
 20
135.8132764085
 10
170.4719289919
 20
135.7811265432
 10
170.5304702824
 20
135.7457674406
 10
170.5869075159
 20
135.7075292603
 10
170.6412084478
 20
135.6663785577
 10
170.6934053228
 20
135.6223485631
 10
170.7430383624
 20
135.5758694678
 10
170.7900818218
 20
135.5268977803
 10
170.8345614459
 20
135.4754767791
 10
170.876094691
 20
135.4221668484
 10
170.9145540426
 20
135.3671547359
 10
170.9500670152
 20
135.3102535228
 10
170.9826336087
 20
135.2514631174
  0
LWPOLYLINE
  5
2EB
100
AcDbEntity
  8
RACCORDO
100
AcDbPolyline
 62
250
  6
CONTINUOUS
 90
22
 70
0
 10
240.8284501266
 20
135.9513338401
 10
240.8949131392
 20
135.9496735584
 10
240.9610839313
 20
135.9445979187
 10
241.0269625028
 20
135.9361069039
 10
241.0927065257
 20
135.9242063801
 10
241.1581583281
 20
135.9088904132
 10
241.222844894
 20
135.890141269
 10
241.2868693208
 20
135.8678782085
 10
241.3501285111
 20
135.8421818333
 10
241.4118401566
 20
135.8132764085
 10
241.4719289919
 20
135.7811265432
 10
241.5304702824
 20
135.7457674406
 10
241.5869075159
 20
135.7075292603
 10
241.6412084478
 20
135.6663785577
 10
241.6934053228
 20
135.6223485631
 10
241.7430383624
 20
135.5758694678
 10
241.7900818218
 20
135.5268977803
 10
241.8345614459
 20
135.4754767791
 10
241.876094691
 20
135.4221668484
 10
241.9145540426
 20
135.3671547359
 10
241.9500670152
 20
135.3102535228
 10
241.9826336087
 20
135.2514631174
  0
LINE
  5
2EC
100
AcDbEntity
  8
RACCORDO
100
AcDbLine
 62
250
  6
CONTINUOUS
 10
195.5901048781
 20
135.251462957
 11
195.664772278
 21
135.2121565224
  0
LWPOLYLINE
  5
2ED
100
AcDbEntity
  8
RACCORDO
100
AcDbPolyline
 62
250
  6
CONTINUOUS
 90
16
 70
0
 10
195.664772278
 20
135.2121565224
 10
195.7373051977
 20
135.1732536987
 10
195.7721192102
 20
135.1543025168
 10
195.8056300587
 20
135.135866644
 10
195.8375978109
 20
135.1180780783
 10
195.8677935826
 20
135.1010641829
 10
195.896001177
 20
135.0849467747
 10
195.922018632
 20
135.0698412517
 10
195.9456596669
 20
135.0558557671
 10
195.9667550156
 20
135.0430904546
 10
195.9851536386
 20
135.0316367118
 10
196.0007238047
 20
135.0215765458
 10
196.013354034
 20
135.0129819857
 10
196.0229538961
 20
135.0059145671
 10
196.0294546573
 20
135.0004248916
 10
196.0328097734
 20
134.9965522643
  0
LINE
  5
2EE
100
AcDbEntity
  8
RACCORDO
100
AcDbLine
 62
250
  6
CONTINUOUS
 10
262.6645451203
 20
67.706952812
 11
262.7877397087
 21
67.5837582237
  0
LINE
  5
2EF
100
AcDbEntity
  8
0
100
AcDbLine
 62
250
  6
CONTINUOUS
 10
240.8284772242
 20
89.7427737127
 11
240.6874656156
 21
89.8837582237
  0
LINE
  5
2F0
100
AcDbEntity
  8
0
100
AcDbLine
 62
250
  6
CONTINUOUS
 10
195.9419065159
 20
134.6293300182
 11
196.0863692434
 21
134.4848545959
  0
LINE
  5
2F1
100
AcDbEntity
  8
0
100
AcDbLine
 62
250
  6
CONTINUOUS
 10
196.7442612627
 20
135.4247427347
 11
196.8852728712
 21
135.2837582237
  0
LINE
  5
2F2
100
AcDbEntity
  8
0
100
AcDbLine
 62
250
  6
CONTINUOUS
 10
241.6308319703
 20
90.5381861028
 11
241.4863692434
 21
90.6826618515
  0
LINE
  5
2F3
100
AcDbEntity
  8
RACCORDO
100
AcDbLine
 62
250
  6
CONTINUOUS
 10
263.656427802
 20
68.7123291998
 11
263.7863692434
 21
68.5823877584
  0
LWPOLYLINE
  5
2F4
100
AcDbEntity
  8
RACCORDO
100
AcDbPolyline
 62
250
  6
CONTINUOUS
 90
28
 70
0
 10
103.9081933665
 20
157.4605636354
 10
103.8504901522
 20
157.4588388295
 10
103.7930418549
 20
157.4537684524
 10
103.736038859
 20
157.4453753728
 10
103.6797072382
 20
157.4337022134
 10
103.6241941232
 20
157.418788861
 10
103.5695727929
 20
157.4006508207
 10
103.5159754424
 20
157.3793111241
 10
103.4636424131
 20
157.3548446326
 10
103.4128066249
 20
157.3273511897
 10
103.3636640077
 20
157.2969339796
 10
103.3163565246
 20
157.2636789333
 10
103.271026225
 20
157.2276811648
 10
103.2278274594
 20
157.1890511332
 10
103.1869149076
 20
157.1479151956
 10
103.1484246026
 20
157.1044018751
 10
103.1124938155
 20
157.0586498138
 10
103.079252558
 20
157.0108077204
 10
103.0488157957
 20
156.9610298474
 10
103.0212942041
 20
156.9094730229
 10
102.9967944325
 20
156.8563113902
 10
102.9754103258
 20
156.8017356779
 10
102.9572245467
 20
156.7459296316
 10
102.9423072795
 20
156.6890778597
 10
102.9307150929
 20
156.6313808007
 10
102.9224949741
 20
156.5730362642
 10
102.917685047
 20
156.5142385235
 10
102.9163106848
 20
156.4551872475
  0
LWPOLYLINE
  5
2F5
100
AcDbEntity
  8
RACCORDO
100
AcDbPolyline
 62
250
  6
CONTINUOUS
 90
28
 70
0
 10
103.9081933665
 20
157.2154407285
 10
103.8676653691
 20
157.2142363072
 10
103.8275572501
 20
157.2107200867
 10
103.7878690095
 20
157.2048920395
 10
103.7484867724
 20
157.1967270782
 10
103.7095244137
 20
157.1862501811
 10
103.6713235582
 20
157.1735363958
 10
103.6338612538
 20
157.1585540285
 10
103.5971604527
 20
157.141334564
 10
103.5616316362
 20
157.1220478047
 10
103.5273028488
 20
157.1006788194
 10
103.494146046
 20
157.0772422575
 10
103.462487576
 20
157.0519522968
 10
103.4323364783
 20
157.0247883374
 10
103.4036837132
 20
156.9957706544
 10
103.3768285098
 20
156.9651747649
 10
103.3517861336
 20
156.9329810531
 10
103.3285413189
 20
156.8992088055
 10
103.3073474984
 20
156.8641919451
 10
103.2882253878
 20
156.8279143302
 10
103.2711542714
 20
156.7903918101
 10
103.2563254343
 20
156.7520063721
 10
103.2437627609
 20
156.7127351233
 10
103.2334423669
 20
156.6726007377
 10
103.225483885
 20
156.6320536569
 10
103.2199271929
 20
156.5912440194
 10
103.216732413
 20
156.5500215949
 10
103.2158995453
 20
156.5083863302
  0
LWPOLYLINE
  5
2F6
100
AcDbEntity
  8
RACCORDO
100
AcDbPolyline
 62
250
  6
CONTINUOUS
 90
19
 70
0
 10
103.2158995453
 20
156.508386318
 10
103.1906095778
 20
156.5079656287
 10
103.1654996688
 20
156.50716917
 10
103.1407485947
 20
156.5060026125
 10
103.1165325771
 20
156.5044742618
 10
103.0930240284
 20
156.5025949994
 10
103.0703903235
 20
156.5003782052
 10
103.0487926091
 20
156.4978396622
 10
103.0283846557
 20
156.4949974443
 10
103.009311763
 20
156.4918717872
 10
102.9917097252
 20
156.4884849451
 10
102.9757038648
 20
156.4848610313
 10
102.9614081395
 20
156.4810258472
 10
102.9489243314
 20
156.4770066985
 10
102.9383413223
 20
156.4728322004
 10
102.9297344606
 20
156.4685320745
 10
102.9231650251
 20
156.4641369366
 10
102.9186797886
 20
156.4596780789
 10
102.9163106848
 20
156.4551872475
  0
LINE
  5
2F7
100
AcDbEntity
  8
RACCORDO
100
AcDbLine
 62
250
  6
CONTINUOUS
 10
262.6645451203
 20
157.2154407285
 11
103.9081933665
 21
157.2154407285
  0
LINE
  5
2F8
100
AcDbEntity
  8
RACCORDO
100
AcDbLine
 62
250
  6
CONTINUOUS
 10
262.6645451203
 20
157.4605636354
 11
103.9081933665
 21
157.4605636354
  0
LINE
  5
2F9
100
AcDbEntity
  8
RACCORDO
100
AcDbLine
 62
7
  6
CONTINUOUS
 10
103.7849987782
 20
157.5837582237
 11
262.7877397087
 21
157.5837582237
  0
LWPOLYLINE
  5
2FA
100
AcDbEntity
  8
RACCORDO
100
AcDbPolyline
 62
250
  6
CONTINUOUS
 90
19
 70
0
 10
263.3568389416
 20
156.5083863192
 10
263.3821284814
 20
156.5079655565
 10
263.4072379288
 20
156.507169034
 10
263.431988515
 20
156.5060024224
 10
263.4562040259
 20
156.5044740276
 10
263.479712057
 20
156.5025947311
 10
263.5023452408
 20
156.5003779126
 10
263.5239424384
 20
156.4978393551
 10
263.5443498865
 20
156.4949971319
 10
263.5634222926
 20
156.4918714785
 10
263.5810238689
 20
156.4884846483
 10
263.5970292995
 20
156.4848607541
 10
263.6113246323
 20
156.4810255965
 10
263.6238080903
 20
156.4770064802
 10
263.6343907965
 20
156.4728320197
 10
263.6429974064
 20
156.4685319355
 10
263.6495666444
 20
156.4641368423
 10
263.6540517403
 20
156.4596780314
 10
263.656420762
 20
156.4551872476
  0
LINE
  5
2FB
100
AcDbEntity
  8
RACCORDO
100
AcDbLine
 62
250
  6
CONTINUOUS
 10
241.630831928
 20
134.6293522798
 11
241.6465805329
 21
127.2837668396
  0
LINE
  5
2FC
100
AcDbEntity
  8
RACCORDO
100
AcDbLine
 62
250
  6
CONTINUOUS
 10
242.1301467628
 20
134.6538396606
 11
242.1458953299
 21
127.3004265546
  0
LINE
  5
2FD
100
AcDbEntity
  8
RACCORDO
100
AcDbLine
 62
250
  6
CONTINUOUS
 10
241.6465805329
 20
127.2837668396
 11
241.6560304229
 21
119.9349882714
  0
LINE
  5
2FE
100
AcDbEntity
  8
RACCORDO
100
AcDbLine
 62
250
  6
CONTINUOUS
 10
242.1458953299
 20
127.3004265546
 11
242.1553451971
 21
119.943076766
  0
LINE
  5
2FF
100
AcDbEntity
  8
RACCORDO
100
AcDbLine
 62
250
  6
CONTINUOUS
 10
241.6560304229
 20
119.9349882714
 11
241.659181123
 21
112.5837534585
  0
LINE
  5
300
100
AcDbEntity
  8
RACCORDO
100
AcDbLine
 62
250
  6
CONTINUOUS
 10
242.1553451971
 20
119.943076766
 11
242.1584958903
 21
112.5837582685
  0
LINE
  5
301
100
AcDbEntity
  8
RACCORDO
100
AcDbLine
 62
250
  6
CONTINUOUS
 10
240.8284501266
 20
135.9513338401
 11
240.8284501267
 21
135.4247427347
  0
LINE
  5
302
100
AcDbEntity
  8
RACCORDO
100
AcDbLine
 62
250
  6
CONTINUOUS
 10
240.8284501266
 20
89.2161826073
 11
240.8284501266
 21
89.7427737127
  0
LINE
  5
303
100
AcDbEntity
  8
0
100
AcDbLine
 62
7
  6
CONTINUOUS
 10
241.4863692434
 20
134.4848545959
 11
241.4863692434
 21
90.6826618515
  0
LINE
  5
304
100
AcDbEntity
  8
RACCORDO
100
AcDbLine
 62
250
  6
CONTINUOUS
 10
241.659181123
 20
112.5837534585
 11
241.6560304101
 21
105.2325163688
  0
LINE
  5
305
100
AcDbEntity
  8
RACCORDO
100
AcDbLine
 62
250
  6
CONTINUOUS
 10
242.1584958903
 20
112.5837582685
 11
242.1553451974
 21
105.2244397631
  0
LINE
  5
306
100
AcDbEntity
  8
RACCORDO
100
AcDbLine
 62
250
  6
CONTINUOUS
 10
241.6560304101
 20
105.2325163688
 11
241.6465805316
 21
97.8837471346
  0
LINE
  5
307
100
AcDbEntity
  8
RACCORDO
100
AcDbLine
 62
250
  6
CONTINUOUS
 10
242.1553451974
 20
105.2244397631
 11
242.1458953302
 21
97.867089945
  0
LINE
  5
308
100
AcDbEntity
  8
RACCORDO
100
AcDbLine
 62
250
  6
CONTINUOUS
 10
241.6465805316
 20
97.8837471346
 11
241.6308319703
 21
90.5381861028
  0
LINE
  5
309
100
AcDbEntity
  8
RACCORDO
100
AcDbLine
 62
250
  6
CONTINUOUS
 10
242.1458953302
 20
97.867089945
 11
242.1301467628
 21
90.5136767868
  0
LWPOLYLINE
  5
30A
100
AcDbEntity
  8
RACCORDO
100
AcDbPolyline
 62
250
  6
CONTINUOUS
 90
10
 70
0
 10
241.6308319584
 20
90.5381861146
 10
241.6295957593
 20
90.4957895524
 10
241.6260995034
 20
90.4535030445
 10
241.6203498566
 20
90.4114461093
 10
241.6123558392
 20
90.3697204039
 10
241.6021389523
 20
90.3284624143
 10
241.5897424784
 20
90.2878408398
 10
241.5752132858
 20
90.247985732
 10
241.5585923472
 20
90.2089904635
 10
241.5399312562
 20
90.1709628635
  0
LWPOLYLINE
  5
30B
100
AcDbEntity
  8
RACCORDO
100
AcDbPolyline
 62
250
  6
CONTINUOUS
 90
10
 70
0
 10
242.1301467628
 20
90.5136767868
 10
242.1281079927
 20
90.4444181847
 10
242.1224348485
 20
90.3756950798
 10
242.1131273301
 20
90.3075074616
 10
242.1001234656
 20
90.2396172759
 10
242.083485227
 20
90.1722625594
 10
242.0633985303
 20
90.106157422
 10
242.0399253478
 20
90.0415398759
 10
242.0130037072
 20
89.9781718537
 10
241.9826336087
 20
89.91605333
  0
LWPOLYLINE
  5
30C
100
AcDbEntity
  8
RACCORDO
100
AcDbPolyline
 62
250
  6
CONTINUOUS
 90
22
 70
0
 10
241.9826336087
 20
89.91605333
 10
241.9501615109
 20
89.8574216957
 10
241.9147544304
 20
89.8006645142
 10
241.8764123671
 20
89.745781695
 10
241.8350104245
 20
89.6925879
 10
241.7906734992
 20
89.6412682978
 10
241.7437762815
 20
89.592378534
 10
241.694291843
 20
89.5459596646
 10
241.6422471122
 20
89.5019704226
 10
241.5880975643
 20
89.4608429313
 10
241.5318154892
 20
89.4226119294
 10
241.4734285971
 20
89.3872424654
 10
241.4134754938
 20
89.3550621085
 10
241.3519228185
 20
89.3261088553
 10
241.288803932
 20
89.3003445224
 10
241.2247575222
 20
89.2779824075
 10
241.1597679043
 20
89.2590749352
 10
241.0938507631
 20
89.2435695441
 10
241.0276918406
 20
89.2315220626
 10
240.9615197173
 20
89.2229510767
 10
240.8951058127
 20
89.2178379307
 10
240.8284501266
 20
89.2161826073
  0
LWPOLYLINE
  5
30D
100
AcDbEntity
  8
RACCORDO
100
AcDbPolyline
 62
250
  6
CONTINUOUS
 90
22
 70
0
 10
241.5399312562
 20
90.1709628635
 10
241.5199416831
 20
90.1351110214
 10
241.4980619138
 20
90.1002336388
 10
241.4743342583
 20
90.0664331284
 10
241.4487960247
 20
90.0337982499
 10
241.4215103712
 20
90.002441352
 10
241.3925726405
 20
89.9724925464
 10
241.3620538369
 20
89.9440417238
 10
241.3300284669
 20
89.9171735792
 10
241.2966148142
 20
89.8919950418
 10
241.2619012607
 20
89.8685783335
 10
241.225980335
 20
89.8469910788
 10
241.1889905121
 20
89.8273149106
 10
241.1510254919
 20
89.8095974706
 10
241.1121981647
 20
89.7938892119
 10
241.072687401
 20
89.7802510111
 10
241.0326010372
 20
89.7687054089
 10
240.9920550556
 20
89.7592713987
 10
240.9512484308
 20
89.7519718668
 10
240.9103237977
 20
89.7468015976
 10
240.8693637474
 20
89.7437419089
 10
240.8284772704
 20
89.742773667
  0
LWPOLYLINE
  5
30E
100
AcDbEntity
  8
RACCORDO
100
AcDbPolyline
 62
250
  6
CONTINUOUS
 90
10
 70
0
 10
241.5399312562
 20
134.9965535839
 10
241.5585632769
 20
134.9585895218
 10
241.5751708686
 20
134.9196381281
 10
241.5896990381
 20
134.8798053802
 10
241.6021058664
 20
134.8391736942
 10
241.6123371189
 20
134.7978812512
 10
241.620340851
 20
134.7561252229
 10
241.6260952436
 20
134.7140522793
 10
241.6295942051
 20
134.6717547277
 10
241.6308318953
 20
134.6293522478
  0
LWPOLYLINE
  5
30F
100
AcDbEntity
  8
RACCORDO
100
AcDbPolyline
 62
250
  6
CONTINUOUS
 90
10
 70
0
 10
241.9826336087
 20
135.2514631174
 10
242.0129480934
 20
135.1894983177
 10
242.0398338935
 20
135.1262376419
 10
242.063291009
 20
135.0616810638
 10
242.0833892388
 20
134.9955799169
 10
242.100058784
 20
134.9281828104
 10
242.1130902486
 20
134.8602356475
 10
242.122413834
 20
134.791987063
 10
242.1280993387
 20
134.7231884043
 10
242.1301467628
 20
134.6538396606
  0
LWPOLYLINE
  5
310
100
AcDbEntity
  8
0
100
AcDbPolyline
 62
7
  6
CONTINUOUS
 90
10
 70
0
 43
0.3500000006
 10
282.5363682861
 20
110.6551907043
 10
281.6792303467
 20
111.5123286438
 10
280.8220924072
 20
111.7266131287
 10
279.9649363403
 20
111.7266131287
 10
279.5363673706
 20
111.2980441589
 10
279.5363673706
 20
110.6551907043
 10
279.9649363403
 20
110.2266126709
 10
280.8220924072
 20
110.2266126709
 10
281.250661377
 20
110.6551907043
 10
281.250661377
 20
111.5837598267
  0
LWPOLYLINE
  5
311
100
AcDbEntity
  8
RACCORDO
100
AcDbPolyline
 62
250
  6
CONTINUOUS
 90
28
 70
0
 10
263.656427802
 20
156.4551872475
 10
263.6550537121
 20
156.5142326003
 10
263.6502484187
 20
156.5729918574
 10
263.6420429514
 20
156.6312662459
 10
263.6304871261
 20
156.6888363971
 10
263.6156301438
 20
156.7455341679
 10
263.5975059456
 20
156.801239397
 10
263.5761585609
 20
156.8558072641
 10
263.5516752081
 20
156.90900779
 10
263.5241682127
 20
156.9606002634
 10
263.4937552123
 20
157.0103946
 10
263.4605389237
 20
157.0582513597
 10
263.4246320762
 20
157.1040198946
 10
263.3861634652
 20
157.1475525696
 10
263.3452711788
 20
157.1887093483
 10
263.3020915403
 20
157.2273612369
 10
263.2567778012
 20
157.2633828444
 10
263.2094855429
 20
157.2966624669
 10
263.1603617247
 20
157.3271020795
 10
263.1095686849
 20
157.3546065871
 10
263.0572838432
 20
157.3790859574
 10
263.003682669
 20
157.400462184
 10
262.9489529748
 20
157.4186660782
 10
262.8932722751
 20
157.4336447977
 10
262.8368044212
 20
157.4453568286
 10
262.7797299058
 20
157.4537646331
 10
262.7222463732
 20
157.458839051
 10
262.6645451203
 20
157.4605636354
  0
LWPOLYLINE
  5
312
100
AcDbEntity
  8
RACCORDO
100
AcDbPolyline
 62
250
  6
CONTINUOUS
 90
28
 70
0
 10
263.3568389416
 20
156.5083863302
 10
263.3559945047
 20
156.5500525136
 10
263.352799973
 20
156.5912727982
 10
263.3472553468
 20
156.6320472413
 10
263.3393261529
 20
156.6725038821
 10
263.3290468643
 20
156.7125147839
 10
263.3165209
 20
156.7516960913
 10
263.3017165497
 20
156.790058942
 10
263.2846655237
 20
156.8275924054
 10
263.265566371
 20
156.8638796229
 10
263.2444033812
 20
156.8988900351
 10
263.2211922649
 20
156.9326544954
 10
263.1961787022
 20
156.9648483458
 10
263.1693455664
 20
156.995456686
 10
263.1407099842
 20
157.0244947437
 10
263.1105690174
 20
157.0516831045
 10
263.0789095456
 20
157.0770027178
 10
263.0457446891
 20
157.1004729586
 10
263.0114108702
 20
157.1218720786
 10
262.9758967896
 20
157.1411797305
 10
262.9392137466
 20
157.1584165445
 10
262.9017320609
 20
157.1734222431
 10
262.863436875
 20
157.1861748312
 10
262.8243430465
 20
157.1966965124
 10
262.7848654676
 20
157.2048932947
 10
262.7451424356
 20
157.2107338855
 10
262.7050356532
 20
157.2142496876
 10
262.6645451203
 20
157.2154407285
  0
LWPOLYLINE
  5
313
100
AcDbEntity
  8
RACCORDO
100
AcDbPolyline
 62
250
  6
CONTINUOUS
 90
9
 70
0
 10
263.3568389416
 20
68.6591301172
 10
263.3356339248
 20
71.0033877216
 10
263.3161808209
 20
73.3531596848
 10
263.29847963
 20
75.70797157
 10
263.2825275153
 20
78.0673437637
 10
263.2683273135
 20
80.4308040555
 10
263.2558875347
 20
82.7978878019
 10
263.2452110156
 20
85.1681213317
 10
263.2362949194
 20
87.5410219742
  0
LWPOLYLINE
  5
314
100
AcDbEntity
  8
RACCORDO
100
AcDbPolyline
 62
250
  6
CONTINUOUS
 90
9
 70
0
 10
263.656427802
 20
68.7123291998
 10
263.6352231787
 20
71.0531230046
 10
263.6157703168
 20
73.398493054
 10
263.5980692162
 20
75.7484393479
 10
263.5821169615
 20
78.103445335
 10
263.5679164682
 20
80.4630275666
 10
263.5554764829
 20
82.8257356968
 10
263.5447999212
 20
85.191086277
 10
263.5358838675
 20
87.5595627558
  0
LINE
  5
315
100
AcDbEntity
  8
RACCORDO
100
AcDbLine
 62
250
  6
CONTINUOUS
 10
263.2362949194
 20
87.5410219742
 11
263.2199984325
 21
93.6912539195
  0
LINE
  5
316
100
AcDbEntity
  8
RACCORDO
100
AcDbLine
 62
250
  6
CONTINUOUS
 10
263.5358838675
 20
87.5595627558
 11
263.5195873643
 21
93.7042544206
  0
LINE
  5
317
100
AcDbEntity
  8
RACCORDO
100
AcDbLine
 62
250
  6
CONTINUOUS
 10
263.2199984325
 20
93.6912539195
 11
263.206701821
 21
101.2456970275
  0
LINE
  5
318
100
AcDbEntity
  8
RACCORDO
100
AcDbLine
 62
250
  6
CONTINUOUS
 10
263.5195873643
 20
93.7042544206
 11
263.5062906962
 21
101.25324457
  0
LINE
  5
319
100
AcDbEntity
  8
RACCORDO
100
AcDbLine
 62
250
  6
CONTINUOUS
 10
263.206701821
 20
101.2456970275
 11
263.2000515696
 21
108.8040012633
  0
LINE
  5
31A
100
AcDbEntity
  8
RACCORDO
100
AcDbLine
 62
250
  6
CONTINUOUS
 10
263.5062906962
 20
101.25324457
 11
263.4996404294
 21
108.8066082546
  0
LINE
  5
31B
100
AcDbEntity
  8
RACCORDO
100
AcDbLine
 62
250
  6
CONTINUOUS
 10
262.6645451203
 20
67.9520757189
 11
262.6645451206
 21
67.706952812
  0
LINE
  5
31C
100
AcDbEntity
  8
RACCORDO
100
AcDbLine
 62
250
  6
CONTINUOUS
 10
262.6645451203
 20
157.2154407285
 11
262.6645451203
 21
157.4605636354
  0
LINE
  5
31D
100
AcDbEntity
  8
RACCORDO
100
AcDbLine
 62
7
  6
CONTINUOUS
 10
263.7863692434
 20
68.5823877584
 11
263.7863692434
 21
156.5851286889
  0
LINE
  5
31E
100
AcDbEntity
  8
RACCORDO
100
AcDbLine
 62
250
  6
CONTINUOUS
 10
263.2000515696
 20
108.8040012633
 11
263.2000515692
 21
116.3635141611
  0
LINE
  5
31F
100
AcDbEntity
  8
RACCORDO
100
AcDbLine
 62
250
  6
CONTINUOUS
 10
263.4996404294
 20
108.8066082546
 11
263.4996404301
 21
116.3609093337
  0
LINE
  5
320
100
AcDbEntity
  8
RACCORDO
100
AcDbLine
 62
250
  6
CONTINUOUS
 10
263.2000515692
 20
116.3635141611
 11
263.20670182
 21
123.921818692
  0
LINE
  5
321
100
AcDbEntity
  8
RACCORDO
100
AcDbLine
 62
250
  6
CONTINUOUS
 10
263.4996404301
 20
116.3609093337
 11
263.5062906979
 21
123.9142732351
  0
LINE
  5
322
100
AcDbEntity
  8
RACCORDO
100
AcDbLine
 62
250
  6
CONTINUOUS
 10
263.20670182
 20
123.921818692
 11
263.2199984317
 21
131.4762620889
  0
LINE
  5
323
100
AcDbEntity
  8
RACCORDO
100
AcDbLine
 62
250
  6
CONTINUOUS
 10
263.5062906979
 20
123.9142732351
 11
263.5195873653
 21
131.4632626683
  0
LWPOLYLINE
  5
324
100
AcDbEntity
  8
RACCORDO
100
AcDbPolyline
 62
250
  6
CONTINUOUS
 90
10
 70
0
 10
263.2199984317
 20
131.4762620889
 10
263.2362949201
 20
137.6264944459
 10
263.245211017
 20
139.9993952091
 10
263.2558875358
 20
142.3696287282
 10
263.2683273123
 20
144.7367122321
 10
263.2825275107
 20
147.1001721515
 10
263.2984796236
 20
149.4595441459
 10
263.3161808152
 20
151.8143561045
 10
263.3356339211
 20
154.164128312
 10
263.3568389416
 20
156.5083863302
  0
LWPOLYLINE
  5
325
100
AcDbEntity
  8
RACCORDO
100
AcDbPolyline
 62
250
  6
CONTINUOUS
 90
10
 70
0
 10
263.5195873653
 20
131.4632626683
 10
263.5358838801
 20
137.6079570902
 10
263.5447999498
 20
139.9764368035
 10
263.555476531
 20
142.3417904539
 10
263.5679165479
 20
144.7045024041
 10
263.5821170764
 20
147.0640882915
 10
263.5980693433
 20
149.4190950283
 10
263.6157704244
 20
151.7690382519
 10
263.635223244
 20
154.114402325
 10
263.656427802
 20
156.4551872475
  0
LINE
  5
326
100
AcDbEntity
  8
RACCORDO
100
AcDbLine
 62
7
  6
CONTINUOUS
 10
56.1721879415
 20
67.706952812
 11
58.5228807207
 21
67.5837582237
  0
LINE
  5
327
100
AcDbEntity
  8
RACCORDO
100
AcDbLine
 62
250
  6
CONTINUOUS
 10
56.0434503159
 20
68.7123291998
 11
58.5228807207
 21
68.5823877584
  0
LINE
  5
328
100
AcDbEntity
  8
RACCORDO
100
AcDbLine
 62
250
  6
CONTINUOUS
 10
55.7896069032
 20
68.6649214479
 11
55.813680106
 21
68.6696767852
  0
LINE
  5
329
100
AcDbEntity
  8
RACCORDO
100
AcDbLine
 62
250
  6
CONTINUOUS
 10
55.813680106
 20
68.6696767852
 11
55.8626055304
 21
68.6790315023
  0
LINE
  5
32A
100
AcDbEntity
  8
RACCORDO
100
AcDbLine
 62
250
  6
CONTINUOUS
 10
55.8626055304
 20
68.6790315023
 11
55.9700924168
 21
68.6989843729
  0
LINE
  5
32B
100
AcDbEntity
  8
RACCORDO
100
AcDbLine
 62
250
  6
CONTINUOUS
 10
55.9700924168
 20
68.6989843729
 11
56.0434503159
 21
68.7123291998
  0
LWPOLYLINE
  5
32C
100
AcDbEntity
  8
0
100
AcDbPolyline
 62
7
  6
CONTINUOUS
 90
10
 70
0
 43
0.3500000006
 10
71.6309517975
 20
176.5015898438
 10
70.988093811
 20
175.8587182617
 10
70.5595203094
 20
175.0015803223
 10
70.5595203094
 20
173.9301578979
 10
70.988093811
 20
173.5015889282
 10
71.6309517975
 20
173.5015889282
 10
72.0595207672
 20
173.9301578979
 10
72.0595207672
 20
174.7872958374
 10
71.6309517975
 20
175.2158648071
 10
70.7023781433
 20
175.2158648071
  0
LWPOLYLINE
  5
32D
100
AcDbEntity
  8
RACCORDO
100
AcDbPolyline
 62
250
  6
CONTINUOUS
 90
9
 70
0
 10
56.1721879415
 20
67.706952812
 10
56.1710947892
 20
67.7086776179
 10
56.1696205683
 20
67.713747995
 10
56.1677740579
 20
67.7221410745
 10
56.165563881
 20
67.7338142339
 10
56.1629966494
 20
67.7487275864
 10
56.1600783645
 20
67.7668656266
 10
56.1568087994
 20
67.7882053232
 10
56.1532025745
 20
67.8126718147
  0
LWPOLYLINE
  5
32E
100
AcDbEntity
  8
RACCORDO
100
AcDbPolyline
 62
250
  6
CONTINUOUS
 90
3
 70
0
 10
53.3228807315
 20
89.9160533305
 10
53.3239429063
 20
89.9161737206
 10
53.3271285988
 20
89.9164007387
  0
LINE
  5
32F
100
AcDbEntity
  8
RACCORDO
100
AcDbLine
 62
250
  6
CONTINUOUS
 10
53.3271285988
 20
89.9164007387
 11
53.3397649604
 21
89.9171674532
  0
LINE
  5
330
100
AcDbEntity
  8
RACCORDO
100
AcDbLine
 62
250
  6
CONTINUOUS
 10
53.3397649604
 20
89.9171674532
 11
53.4232927742
 21
89.9217101787
  0
LINE
  5
331
100
AcDbEntity
  8
RACCORDO
100
AcDbLine
 62
250
  6
CONTINUOUS
 10
53.4232927742
 20
89.9217101787
 11
53.6067990811
 21
89.9311651332
  0
LWPOLYLINE
  5
332
100
AcDbEntity
  8
RACCORDO
100
AcDbPolyline
 62
250
  6
CONTINUOUS
 90
10
 70
0
 10
56.0434503159
 20
68.7123291998
 10
55.6388419998
 20
71.0531230046
 10
55.2676592822
 20
73.398493054
 10
54.9299021631
 20
75.7484393479
 10
54.6255150104
 20
78.103445335
 10
54.3545534563
 20
80.4630275666
 10
54.1171843966
 20
82.8257356968
 10
53.9134634636
 20
85.191086277
 10
53.7433350251
 20
87.5595627558
 10
53.6067990811
 20
89.9311651332
  0
LWPOLYLINE
  5
333
100
AcDbEntity
  8
RACCORDO
100
AcDbPolyline
 62
250
  6
CONTINUOUS
 90
10
 70
0
 10
53.6067990811
 20
135.2363513141
 10
53.7433352654
 20
137.6079570902
 10
53.9134640098
 20
139.9764368035
 10
54.1171853142
 20
142.3417904539
 10
54.3545549783
 20
144.7045024041
 10
54.6255172023
 20
147.0640882915
 10
54.929904588
 20
149.4190950283
 10
55.2676613357
 20
151.7690382519
 10
55.638843245
 20
154.114402325
 10
56.0434503159
 20
156.4551872475
  0
LINE
  5
334
100
AcDbEntity
  8
RACCORDO
100
AcDbLine
 62
250
  6
CONTINUOUS
 10
56.0434503159
 20
156.4551872475
 11
56.0764925542
 21
156.7455341679
  0
LINE
  5
335
100
AcDbEntity
  8
RACCORDO
100
AcDbLine
 62
250
  6
CONTINUOUS
 10
56.0764925542
 20
156.7455341679
 11
56.1020742828
 21
156.9606002634
  0
LINE
  5
336
100
AcDbEntity
  8
RACCORDO
100
AcDbLine
 62
250
  6
CONTINUOUS
 10
56.1020742828
 20
156.9606002634
 11
56.1198196166
 21
157.1040198946
  0
LINE
  5
337
100
AcDbEntity
  8
RACCORDO
100
AcDbLine
 62
250
  6
CONTINUOUS
 10
56.1198196166
 20
157.1040198946
 11
56.1357074618
 21
157.2273612369
  0
LINE
  5
338
100
AcDbEntity
  8
RACCORDO
100
AcDbLine
 62
250
  6
CONTINUOUS
 10
56.1357074618
 20
157.2273612369
 11
56.1450258322
 21
157.2966624669
  0
LWPOLYLINE
  5
339
100
AcDbEntity
  8
RACCORDO
100
AcDbPolyline
 62
250
  6
CONTINUOUS
 90
10
 70
0
 10
56.1450258322
 20
157.2966624669
 10
56.1531697889
 20
157.3546065871
 10
56.1567774854
 20
157.3790859574
 10
56.1600498408
 20
157.400462184
 10
56.162975098
 20
157.4186660782
 10
56.1655522636
 20
157.4336447977
 10
56.1677706217
 20
157.4453568286
 10
56.1696212455
 20
157.4537646331
 10
56.1710967399
 20
157.458839051
 10
56.1721879415
 20
157.4605636354
  0
LWPOLYLINE
  5
33A
100
AcDbEntity
  8
0
100
AcDbPolyline
 62
7
  6
CONTINUOUS
 90
3
 70
0
 43
0.3500000006
 10
69.5595200043
 20
173.7872955322
 10
69.4880933533
 20
173.5730110474
 10
69.3452355194
 20
173.2873044434
  0
LINE
  5
33B
100
AcDbEntity
  8
RACCORDO
100
AcDbLine
 62
250
  6
CONTINUOUS
 10
56.1532025745
 20
67.8126718147
 11
56.1450632005
 21
67.8705824677
  0
LINE
  5
33C
100
AcDbEntity
  8
RACCORDO
100
AcDbLine
 62
250
  6
CONTINUOUS
 10
56.1450632005
 20
67.8705824677
 11
56.1357502519
 21
67.9398352825
  0
LINE
  5
33D
100
AcDbEntity
  8
RACCORDO
100
AcDbLine
 62
250
  6
CONTINUOUS
 10
56.1357502519
 20
67.9398352825
 11
56.1198690077
 21
68.0631145723
  0
LINE
  5
33E
100
AcDbEntity
  8
RACCORDO
100
AcDbLine
 62
250
  6
CONTINUOUS
 10
56.1198690077
 20
68.0631145723
 11
56.0958981589
 21
68.2580434245
  0
LINE
  5
33F
100
AcDbEntity
  8
RACCORDO
100
AcDbLine
 62
250
  6
CONTINUOUS
 10
56.0958981589
 20
68.2580434245
 11
56.0699216386
 21
68.4784385877
  0
LINE
  5
340
100
AcDbEntity
  8
RACCORDO
100
AcDbLine
 62
250
  6
CONTINUOUS
 10
56.0699216386
 20
68.4784385877
 11
56.0434503159
 21
68.7123291998
  0
LWPOLYLINE
  5
341
100
AcDbEntity
  8
RACCORDO
100
AcDbPolyline
 62
250
  6
CONTINUOUS
 90
13
 70
0
 10
53.6067990811
 20
89.9311651332
 10
53.4323792196
 20
93.7042544206
 10
53.2896674184
 20
97.4782808995
 10
53.1786636775
 20
101.25324457
 10
53.0993623226
 20
105.0294578165
 10
53.051769028
 20
108.8066082546
 10
53.0359008172
 20
112.5837587309
 10
53.0517690416
 20
116.3609093337
 10
53.0993623498
 20
120.1380599747
 10
53.1786637109
 20
123.9142732351
 10
53.289667448
 20
127.689236642
 10
53.4323792381
 20
131.4632626683
 10
53.6067990811
 20
135.2363513141
  0
LINE
  5
342
100
AcDbEntity
  8
DRAFT
100
AcDbLine
 62
7
  6
CONTINUOUS
 10
61.3228807207
 20
108.7311042623
 11
59.3228807207
 21
109.0837582237
  0
LINE
  5
343
100
AcDbEntity
  8
RACCORDO
100
AcDbLine
 62
7
  6
CONTINUOUS
 10
58.5228807207
 20
67.5837582237
 11
58.5228807207
 21
157.5837582237
  0
LINE
  5
344
100
AcDbEntity
  8
DRAFT
100
AcDbLine
 62
7
  6
CONTINUOUS
 10
59.3228807207
 20
116.0837582237
 11
59.3228807207
 21
109.0837582237
  0
LINE
  5
345
100
AcDbEntity
  8
RACCORDO
100
AcDbLine
 62
7
  6
CONTINUOUS
 10
61.3228807207
 20
156.0837581589
 11
61.3228807207
 21
155.6808339615
  0
LINE
  5
346
100
AcDbEntity
  8
DRAFT
100
AcDbLine
 62
7
  6
CONTINUOUS
 10
61.3228807207
 20
155.6808339615
 11
61.3228807207
 21
116.4364121851
  0
LINE
  5
347
100
AcDbEntity
  8
DRAFT
100
AcDbLine
 62
7
  6
CONTINUOUS
 10
61.3228807207
 20
108.7311042623
 11
61.3228807207
 21
69.4866826902
  0
LINE
  5
348
100
AcDbEntity
  8
RACCORDO
100
AcDbLine
 62
7
  6
CONTINUOUS
 10
61.3228807207
 20
69.4866826902
 11
61.3228807207
 21
69.0837582399
  0
LINE
  5
349
100
AcDbEntity
  8
DRAFT
100
AcDbLine
 62
7
  6
CONTINUOUS
 10
61.3228807207
 20
116.4364121851
 11
59.3228807207
 21
116.0837582237
  0
LWPOLYLINE
  5
34A
100
AcDbEntity
  8
0
100
AcDbPolyline
 62
7
  6
CONTINUOUS
 90
4
 70
0
 43
0.3500000006
 10
66.4880924377
 20
173.9301578979
 10
66.4880924377
 20
174.7872958374
 10
66.9166659393
 20
175.2158648071
 10
67.5595239258
 20
175.2158648071
  0
LINE
  5
34B
100
AcDbEntity
  8
RACCORDO
100
AcDbLine
 62
250
  6
CONTINUOUS
 10
53.3604309503
 20
135.2491847478
 11
53.6067990811
 21
135.2363513141
  0
LWPOLYLINE
  5
34C
100
AcDbEntity
  8
RACCORDO
100
AcDbPolyline
 62
250
  6
CONTINUOUS
 90
5
 70
0
 10
53.3228807369
 20
135.2514631166
 10
53.3239429116
 20
135.2513427265
 10
53.3271286041
 20
135.2511157084
 10
53.3324151557
 20
135.250783677
 10
53.3604309503
 20
135.2491847478
  0
LWPOLYLINE
  5
34D
100
AcDbEntity
  8
0
100
AcDbPolyline
 62
7
  6
CONTINUOUS
 90
10
 70
0
 43
0.3500000006
 10
69.4880933533
 20
174.0015800171
 10
69.5595200043
 20
173.8587176514
 10
69.5595200043
 20
173.7872955322
 10
69.4166667023
 20
173.6444331665
 10
69.3452355194
 20
173.6444331665
 10
69.2738088684
 20
173.7158734131
 10
69.2738088684
 20
173.7872955322
 10
69.3452355194
 20
173.9301578979
 10
69.4166667023
 20
174.0015800171
 10
69.4880933533
 20
174.0015800171
  0
LWPOLYLINE
  5
34E
100
AcDbEntity
  8
RACCORDO
100
AcDbPolyline
 62
250
  6
CONTINUOUS
 90
13
 70
0
 10
61.3228807428
 20
69.4866828627
 10
61.2111242744
 20
69.4145964465
 10
61.0985522181
 20
69.345867166
 10
60.9853080562
 20
69.2804950213
 10
60.8717169088
 20
69.2186089581
 10
60.75773236
 20
69.1600800307
 10
60.6429094543
 20
69.1045214012
 10
60.5271885074
 20
69.0518358978
 10
60.4108291934
 20
69.0021206925
 10
60.2938348208
 20
68.9552804625
 10
60.1762670075
 20
68.9112834337
 10
60.0582493109
 20
68.8701613803
 10
59.9398717835
 20
68.8319143024
  0
LWPOLYLINE
  5
34F
100
AcDbEntity
  8
RACCORDO
100
AcDbPolyline
 62
250
  6
CONTINUOUS
 90
6
 70
0
 10
55.7639057513
 20
68.6591301294
 10
55.7649151108
 20
68.6595508187
 10
55.7680193598
 20
68.6603472774
 10
55.7731963969
 20
68.6615138349
 10
55.7804093629
 20
68.6630421855
 10
55.7896069032
 20
68.6649214479
  0
LWPOLYLINE
  5
350
100
AcDbEntity
  8
RACCORDO
100
AcDbPolyline
 62
250
  6
CONTINUOUS
 90
7
 70
0
 10
55.7639057446
 20
156.5083863192
 10
55.7649155611
 20
156.5079655565
 10
55.7680202142
 20
156.507169034
 10
55.7731976
 20
156.5060024224
 10
55.7804108577
 20
156.5044740276
 10
55.7896086317
 20
156.5025947311
 10
55.8136821287
 20
156.4978393551
  0
LWPOLYLINE
  5
351
100
AcDbEntity
  8
RACCORDO
100
AcDbPolyline
 62
250
  6
CONTINUOUS
 90
13
 70
0
 10
59.9398717835
 20
68.8319143024
 10
59.8132845344
 20
68.7943344519
 10
59.6873746598
 20
68.7599582766
 10
59.5622622037
 20
68.7287857765
 10
59.437713748
 20
68.7008801916
 10
59.3141798437
 20
68.676178282
 10
59.1928139514
 20
68.6544903278
 10
59.0738862663
 20
68.6359087645
 10
58.9573346329
 20
68.6203411567
 10
58.8438219674
 20
68.6073204783
 10
58.7336237322
 20
68.5966910539
 10
58.6266221631
 20
68.588608559
 10
58.5228807521
 20
68.5830729934
  0
LINE
  5
352
100
AcDbEntity
  8
RACCORDO
100
AcDbLine
 62
250
  6
CONTINUOUS
 10
56.0434503159
 20
156.4551872475
 11
58.5228807207
 21
156.5851286889
  0
LWPOLYLINE
  5
353
100
AcDbEntity
  8
RACCORDO
100
AcDbPolyline
 62
250
  6
CONTINUOUS
 90
13
 70
0
 10
58.5228807561
 20
156.5844434536
 10
58.6317653191
 20
156.5784986722
 10
58.7430838014
 20
156.5699633676
 10
58.8567703358
 20
156.5588375396
 10
58.973066994
 20
156.5451996012
 10
59.0915743534
 20
156.5289711395
 10
59.2112621946
 20
156.5099169161
 10
59.3320119096
 20
156.4879653356
 10
59.4537651647
 20
156.4631879934
 10
59.575597593
 20
156.4355644374
 10
59.6971495659
 20
156.40508785
 10
59.818611126
 20
156.3717650488
 10
59.9398924456
 20
156.3355960336
  0
LINE
  5
354
100
AcDbEntity
  8
RACCORDO
100
AcDbLine
 62
250
  6
CONTINUOUS
 10
55.9240671146
 20
156.4770064802
 11
56.0434506849
 21
156.4551872476
  0
LINE
  5
355
100
AcDbEntity
  8
RACCORDO
100
AcDbLine
 62
250
  6
CONTINUOUS
 10
55.8447337377
 20
156.4918714785
 11
55.9240671146
 21
156.4770064802
  0
LINE
  5
356
100
AcDbEntity
  8
RACCORDO
100
AcDbLine
 62
250
  6
CONTINUOUS
 10
55.8136821287
 20
156.4978393551
 11
55.8447337377
 21
156.4918714785
  0
LWPOLYLINE
  5
357
100
AcDbEntity
  8
RACCORDO
100
AcDbPolyline
 62
250
  6
CONTINUOUS
 90
10
 70
0
 10
59.9398924456
 20
156.3355960336
 10
60.0934749847
 20
156.2855530106
 10
60.2472719269
 20
156.2301670562
 10
60.4010483047
 20
156.1694381705
 10
60.5539728785
 20
156.103811899
 10
60.7063920581
 20
156.0328426961
 10
60.8597308317
 20
155.9551939253
 10
61.0141587654
 20
155.870420041
 10
61.168688647
 20
155.7789665887
 10
61.3228807696
 20
155.6808335685
  0
LINE
  5
358
100
AcDbEntity
  8
RACCORDO
100
AcDbLine
 62
7
  6
CONTINUOUS
 10
56.1721879415
 20
157.4605636354
 11
58.5228807207
 21
157.5837582237
  0
LWPOLYLINE
  5
359
100
AcDbEntity
  8
0
100
AcDbPolyline
 62
7
  6
CONTINUOUS
 90
13
 70
0
 43
0.3500000006
 10
66.9166659393
 20
175.2158648071
 10
66.6309502716
 20
175.430149292
 10
66.6309502716
 20
176.0730027466
 10
66.9166659393
 20
176.5015898438
 10
67.5595239258
 20
176.5015898438
 10
67.8452350616
 20
176.0730027466
 10
67.8452350616
 20
175.430149292
 10
67.5595239258
 20
175.2158648071
 10
67.9880928955
 20
174.7872958374
 10
67.9880928955
 20
173.9301578979
 10
67.5595239258
 20
173.5015889282
 10
66.9166659393
 20
173.5015889282
 10
66.4880924377
 20
173.9301578979
  0
ARC
  5
35A
100
AcDbEntity
  8
RACCORDO
100
AcDbCircle
 62
7
  6
CONTINUOUS
 10
220.5435724883
 20
98.3501144324
 40
167.4332498099
100
AcDbArc
 50
182.887344071
 51
190.4602411505
  0
ARC
  5
35B
100
AcDbEntity
  8
RACCORDO
100
AcDbCircle
 62
7
  6
CONTINUOUS
 10
58.2514009043
 20
73.2639017098
 40
5.1872524353
100
AcDbArc
 50
273.0000002146
 51
306.307648455
  0
ARC
  5
35C
100
AcDbEntity
  8
RACCORDO
100
AcDbCircle
 62
7
  6
CONTINUOUS
 10
56.1878874784
 20
68.0065482557
 40
0.3000000001
100
AcDbArc
 50
190.4615209044
 51
267.0003041861
  0
ARC
  5
35D
100
AcDbEntity
  8
RACCORDO
100
AcDbCircle
 62
7
  6
CONTINUOUS
 10
220.5435724883
 20
126.817402015
 40
167.4332498099
100
AcDbArc
 50
169.5397588495
 51
177.1126362258
  0
ARC
  5
35E
100
AcDbEntity
  8
RACCORDO
100
AcDbCircle
 62
7
  6
CONTINUOUS
 10
58.2514009043
 20
151.9036147376
 40
5.1872524353
100
AcDbArc
 50
53.6923506758
 51
86.9999996094
  0
ARC
  5
35F
100
AcDbEntity
  8
RACCORDO
100
AcDbCircle
 62
7
  6
CONTINUOUS
 10
56.1878887284
 20
157.1609747749
 40
0.3
100
AcDbArc
 50
93.0
 51
169.5397588495
  0
ARC
  5
360
100
AcDbEntity
  8
RACCORDO
100
AcDbCircle
 62
7
  6
CONTINUOUS
 10
502.7516016041
 20
112.5837582237
 40
450.0
100
AcDbArc
 50
177.1126435736
 51
182.8873564621
  0
ELLIPSE
  5
361
100
AcDbEntity
  8
RACCORDO
100
AcDbEllipse
 62
7
  6
CONTINUOUS
 10
103.7877415894
 20
68.5851305697
 30
0.0
 11
0.7090462434
 21
0.7090462434
 31
0.0
 40
0.9972646886
 41
-3.9256212891
 42
-2.3575640181
  0
ELLIPSE
  5
362
100
AcDbEntity
  8
RACCORDO
100
AcDbEllipse
 62
7
  6
CONTINUOUS
 10
262.7849968974
 20
68.5851305697
 30
0.0
 11
-0.7090462434
 21
0.7090462434
 31
0.0
 40
0.9972646886
 41
-3.9256212891
 42
-2.3575640181
  0
ELLIPSE
  5
363
100
AcDbEntity
  8
RACCORDO
100
AcDbEllipse
 62
7
  6
CONTINUOUS
 10
262.7849968974
 20
156.5823858777
 30
0.0
 11
0.7090462434
 21
0.7090462434
 31
0.0
 40
0.9972646886
 41
-0.7840286355
 42
0.7840286355
  0
ELLIPSE
  5
364
100
AcDbEntity
  8
RACCORDO
100
AcDbEllipse
 62
7
  6
CONTINUOUS
 10
103.7877415894
 20
156.5823858777
 30
0.0
 11
-0.7090462434
 21
0.7090462434
 31
0.0
 40
0.9972646886
 41
-0.7840286355
 42
0.7840286355
  0
ELLIPSE
  5
365
100
AcDbEntity
  8
0
100
AcDbEllipse
 62
7
  6
CONTINUOUS
 10
169.6852713666
 20
90.6848561005
 30
0.0
 11
0.5672369947
 21
-0.5672369947
 31
0.0
 40
0.9972646886
 41
-0.7840286355
 42
0.7840286355
  0
ELLIPSE
  5
366
100
AcDbEntity
  8
0
100
AcDbEllipse
 62
7
  6
CONTINUOUS
 10
169.6852713666
 20
134.4826603469
 30
0.0
 11
0.5672369947
 21
0.5672369947
 31
0.0
 40
0.9972646886
 41
-0.7840286355
 42
0.7840286355
  0
ELLIPSE
  5
367
100
AcDbEntity
  8
0
100
AcDbEllipse
 62
7
  6
CONTINUOUS
 10
125.8874671202
 20
134.4826603469
 30
0.0
 11
0.5672369947
 21
-0.5672369947
 31
0.0
 40
0.9972646886
 41
2.3575640181
 42
3.9256212891
  0
ELLIPSE
  5
368
100
AcDbEntity
  8
0
100
AcDbEllipse
 62
7
  6
CONTINUOUS
 10
125.8874671202
 20
90.6848561005
 30
0.0
 11
0.5672369947
 21
0.5672369947
 31
0.0
 40
0.9972646886
 41
-3.9256212891
 42
-2.3575640181
  0
ELLIPSE
  5
369
100
AcDbEntity
  8
0
100
AcDbEllipse
 62
7
  6
CONTINUOUS
 10
240.6852713666
 20
90.6848561005
 30
0.0
 11
0.5672369947
 21
-0.5672369947
 31
0.0
 40
0.9972646886
 41
-0.7840286355
 42
0.7840286355
  0
ELLIPSE
  5
36A
100
AcDbEntity
  8
0
100
AcDbEllipse
 62
7
  6
CONTINUOUS
 10
196.8874671202
 20
90.6848561005
 30
0.0
 11
0.5672369947
 21
0.5672369947
 31
0.0
 40
0.9972646886
 41
2.3575640181
 42
3.9256212891
  0
ELLIPSE
  5
36B
100
AcDbEntity
  8
0
100
AcDbEllipse
 62
7
  6
CONTINUOUS
 10
196.8874671202
 20
134.4826603469
 30
0.0
 11
0.5672369947
 21
-0.5672369947
 31
0.0
 40
0.9972646886
 41
2.3575640181
 42
3.9256212891
  0
ELLIPSE
  5
36C
100
AcDbEntity
  8
0
100
AcDbEllipse
 62
7
  6
CONTINUOUS
 10
240.6852713666
 20
134.4826603469
 30
0.0
 11
0.5672369947
 21
0.5672369947
 31
0.0
 40
0.9972646886
 41
-0.7840286355
 42
0.7840286355
  0
ENDSEC
  0
SECTION
  2
OBJECTS
  0
DICTIONARY
  5
C
100
AcDbDictionary
280
0
281
1
  3
ACAD_GROUP
350
D
  3
ACAD_MLINESTYLE
350
17
  3
ACAD_LAYOUT
350
1A
  3
ACAD_PLOTSETTINGS
350
19
  3
ACAD_PLOTSTYLENAME
350
E
  0
DICTIONARY
  5
D
102
{ACAD_REACTORS
330
C
102
}
100
AcDbDictionary
280
0
281
1
  0
ACDBDICTIONARYWDFLT
  5
E
102
{ACAD_REACTORS
330
C
102
}
100
AcDbDictionary
281
1
  3
Normal
350
F
100
AcDbDictionaryWithDefault
340
F
  0
DICTIONARY
  5
17
102
{ACAD_REACTORS
330
C
102
}
100
AcDbDictionary
280
0
281
1
  3
Standard
350
18
  0
DICTIONARY
  5
19
102
{ACAD_REACTORS
330
C
102
}
100
AcDbDictionary
281
1
  0
DICTIONARY
  5
1A
102
{ACAD_REACTORS
330
C
102
}
100
AcDbDictionary
281
1
  3
Model
350
36D
  3
Layout1
350
36E
  0
ACDBPLACEHOLDER
  5
F
102
{ACAD_REACTORS
330
E
102
}
  0
MLINESTYLE
  5
18
102
{ACAD_REACTORS
330
17
102
}
100
AcDbMlineStyle
  2
STANDARD
 70
0
  3

 62
256
 51
90.0
 52
90.0
 71
2
 49
0.5
 62
256
  6
BYLAYER
 49
-0.5
 62
256
  6
BYLAYER
  0
LAYOUT
  5
36D
102
{ACAD_REACTORS
330
1A
102
}
100
AcDbPlotSettings
  1

  2
none_device
  4
ISO_A4_(297.00_x_210.00_MM)
  6

 40
0.0
 41
0.0
 42
0.0
 43
0.0
 44
297.0
 45
210.0
 46
0.0
 47
0.0
 48
0.0
 49
0.0
140
0.0
141
0.0
142
1.0
143
1.0
 70
1024
 72
1
 73
0
 74
0
  7

 75
0
147
1.0
148
0.0
149
0.0
100
AcDbLayout
  1
Model
 70
0
 71
0
 10
0.0
 20
0.0
 11
297.0
 21
210.0
 12
0.0
 22
0.0
 32
0.0
 14
0.0
 24
0.0
 34
0.0
 15
0.0
 25
0.0
 35
0.0
146
0.0
 13
0.0
 23
0.0
 33
0.0
 16
1.0
 26
0.0
 36
0.0
 17
0.0
 27
1.0
 37
0.0
 76
0
330
215
345
0
346
0
  0
LAYOUT
  5
36E
102
{ACAD_REACTORS
330
1A
102
}
100
AcDbPlotSettings
  1

  2
none_device
  4
ISO_A4_(297.00_x_210.00_MM)
  6

 40
0.0
 41
0.0
 42
0.0
 43
0.0
 44
297.0
 45
210.0
 46
0.0
 47
0.0
 48
0.0
 49
0.0
140
0.0
141
0.0
142
1.0
143
1.0
 70
0
 72
1
 73
0
 74
0
  7

 75
0
147
1.0
148
0.0
149
0.0
100
AcDbLayout
  1
Layout1
 70
0
 71
1
 10
0.0
 20
0.0
 11
297.0
 21
210.0
 12
0.0
 22
0.0
 32
0.0
 14
0.0
 24
0.0
 34
0.0
 15
0.0
 25
0.0
 35
0.0
146
0.0
 13
0.0
 23
0.0
 33
0.0
 16
1.0
 26
0.0
 36
0.0
 17
0.0
 27
1.0
 37
0.0
 76
0
330
216
345
0
346
0
  0
ENDSEC
  0
EOF
