  0
SECTION
  2
HEADER
  9
$ACADVER
  1
AC1024
  9
$DWGCODEPAGE
  3
ANSI_1252
  9
$EXTMAX
 10
297.0
 20
210.0
 30
0.0
  9
$EXTMIN
 10
0.0
 20
0.0
 30
0.0
  9
$LIMMIN
 10
0.0
 20
0.0
  9
$LIMMAX
 10
297.0
 20
210.0
  9
$VIEWCTR
 10
148.5
 20
105.0
  9
$VIEWSIZE
 40
210.0
  9
$CLAYER
  8
0
  9
$LTSCALE
 40
16.335
  9
$CELTYPE
  6
BYLAYER
  9
$DIMSCALE
 40
1.0
  9
$DIMASZ
 40
3.0
  9
$DIMEXO
 40
0.5
  9
$DIMDLI
 40
11.286
  9
$DIMEXE
 40
1.5
  9
$DIMCEN
 40
2.673
  9
$DIMLFAC
 40
1.0
  9
$DIMBLK
  1
_FILLED
  9
$DIMALT
 70
0
  9
$DIMALTF
 40
0.0393700787
  9
$DIMTXT
 40
3.0
  9
$DIMTOL
 70
1
  9
$DIMLIM
 70
0
  9
$DIMTFAC
 40
1.0
  9
$DIMTP
 40
0.01
  9
$DIMTM
 40
0.01
  9
$DIMGAP
 40
0.625
  9
$DIMDSEP
 70
44
  9
$AUNITS
 70
0
  9
$PDMODE
 70
3
  9
$PDSIZE
 40
3.0
  9
$HANDSEED
  5
355
  9
$TILEMODE
 70
1
  9
$MEASUREMENT
 70
1
  9
$INSUNITS
 70
4
  0
ENDSEC
  0
SECTION
  2
CLASSES
  0
CLASS
  1
ACDBDICTIONARYWDFLT
  2
AcDbDictionaryWithDefault
  3
AutoCAD 2000
 90
0
 91
1
280
0
281
0
  0
CLASS
  1
ACDBPLACEHOLDER
  2
AcDbPlaceHolder
  3
AutoCAD 2000
 90
0
 91
1
280
0
281
0
  0
CLASS
  1
LAYOUT
  2
AcDbLayout
  3
AutoCAD 2000
 90
0
 91
0
280
0
281
0
  0
ENDSEC
  0
SECTION
  2
TABLES
  0
TABLE
  2
VPORT
  5
8
100
AcDbSymbolTable
 70
2
  0
VPORT
  5
1F4
100
AcDbSymbolTableRecord
100
AcDbViewportTableRecord
  2
*ACTIVE
 70
0
 10
0.0
 20
0.0
 11
1.0
 21
1.0
 12
148.5
 22
105.0
 13
0.0
 23
0.0
 14
1.0
 24
1.0
 15
0.0
 25
0.0
 16
0.0
 26
0.0
 36
1.0
 17
0.0
 27
0.0
 37
0.0
 40
210.0
 41
1.4142857143
 42
50.0
 43
0.0
 44
0.0
 50
0.0
 51
0.0
 71
0
 72
100
 73
1
 74
1
 75
0
 76
0
 77
0
 78
0
  0
ENDTAB
  0
TABLE
  2
LTYPE
  5
5
100
AcDbSymbolTable
 70
6
  0
LTYPE
  5
14
100
AcDbSymbolTableRecord
100
AcDbLinetypeTableRecord
  2
BYBLOCK
 70
0
  3

 72
65
 73
0
 40
0.0
  0
LTYPE
  5
15
100
AcDbSymbolTableRecord
100
AcDbLinetypeTableRecord
  2
BYLAYER
 70
0
  3

 72
65
 73
0
 40
0.0
  0
LTYPE
  5
16
100
AcDbSymbolTableRecord
100
AcDbLinetypeTableRecord
  2
CONTINUOUS
 70
64
  3
Solid line
 72
65
 73
0
 40
0.0
  0
LTYPE
  5
1F5
100
AcDbSymbolTableRecord
100
AcDbLinetypeTableRecord
  2
CENTER
 70
64
  3
____ _ ____ _ ____ _ ____ _ ____ _ ____ _ ____
 72
65
 73
4
 40
0.6
 49
0.375
 74
0
 49
-0.075
 74
0
 49
0.075
 74
0
 49
-0.075
 74
0
  0
LTYPE
  5
1F6
100
AcDbSymbolTableRecord
100
AcDbLinetypeTableRecord
  2
HIDDEN
 70
64
  3
- - - - - - - - - - - - - - - - - - - -
 72
65
 73
2
 40
0.2
 49
0.1
 74
0
 49
-0.1
 74
0
  0
LTYPE
  5
1F7
100
AcDbSymbolTableRecord
100
AcDbLinetypeTableRecord
  2
PHANTOM
 70
64
  3
_____ _ _ _____ _ _ _____ _ _ _____
 72
65
 73
6
 40
0.8
 49
0.45
 74
0
 49
-0.05
 74
0
 49
0.1
 74
0
 49
-0.05
 74
0
 49
0.1
 74
0
 49
-0.05
 74
0
  0
LTYPE
  5
1F8
100
AcDbSymbolTableRecord
100
AcDbLinetypeTableRecord
  2
DOT
 70
64
  3
. . . . . . . . . . . . . . . . . . . .
 72
65
 73
2
 40
0.2
 49
0.1
 74
0
 49
-0.1
 74
0
  0
LTYPE
  5
1F9
100
AcDbSymbolTableRecord
100
AcDbLinetypeTableRecord
  2
DASHED
 70
64
  3
- - - - - - - - - - - - - - - - - - - -
 72
65
 73
2
 40
0.2
 49
0.1
 74
0
 49
-0.1
 74
0
  0
ENDTAB
  0
TABLE
  2
LAYER
  5
2
100
AcDbSymbolTable
 70
36
  0
LAYER
  5
10
100
AcDbSymbolTableRecord
100
AcDbLayerTableRecord
  2
0
 70
0
 62
7
  6
CONTINUOUS
370
-3
390
F
  0
LAYER
  5
1FA
100
AcDbSymbolTableRecord
100
AcDbLayerTableRecord
  2
DEFAULT_1
 70
0
 62
7
  6
CENTER
370
-3
390
F
  0
LAYER
  5
1FB
100
AcDbSymbolTableRecord
100
AcDbLayerTableRecord
  2
DEFAULT_2
 70
0
 62
7
  6
HIDDEN
370
-3
390
F
  0
LAYER
  5
1FC
100
AcDbSymbolTableRecord
100
AcDbLayerTableRecord
  2
DEFAULT_3
 70
0
 62
7
  6
PHANTOM
370
-3
390
F
  0
LAYER
  5
1FD
100
AcDbSymbolTableRecord
100
AcDbLayerTableRecord
  2
ASSI
 70
0
 62
7
  6
CONTINUOUS
370
-3
390
F
  0
LAYER
  5
1FE
100
AcDbSymbolTableRecord
100
AcDbLayerTableRecord
  2
COORDINATE
 70
0
 62
7
  6
CONTINUOUS
370
-3
390
F
  0
LAYER
  5
1FF
100
AcDbSymbolTableRecord
100
AcDbLayerTableRecord
  2
COPY_PUBLISH
 70
0
 62
7
  6
CONTINUOUS
370
-3
390
F
  0
LAYER
  5
200
100
AcDbSymbolTableRecord
100
AcDbLayerTableRecord
  2
COSMETICI
 70
0
 62
7
  6
CONTINUOUS
370
-3
390
F
  0
LAYER
  5
201
100
AcDbSymbolTableRecord
100
AcDbLayerTableRecord
  2
COSTOLE_APPOGGIO
 70
0
 62
7
  6
CONTINUOUS
370
-3
390
F
  0
LAYER
  5
202
100
AcDbSymbolTableRecord
100
AcDbLayerTableRecord
  2
CURVE
 70
0
 62
7
  6
CONTINUOUS
370
-3
390
F
  0
LAYER
  5
203
100
AcDbSymbolTableRecord
100
AcDbLayerTableRecord
  2
DRAFT
 70
0
 62
7
  6
CONTINUOUS
370
-3
390
F
  0
LAYER
  5
204
100
AcDbSymbolTableRecord
100
AcDbLayerTableRecord
  2
IMPORT_IGES
 70
0
 62
7
  6
CONTINUOUS
370
-3
390
F
  0
LAYER
  5
205
100
AcDbSymbolTableRecord
100
AcDbLayerTableRecord
  2
INTF_1
 70
0
 62
7
  6
CONTINUOUS
370
-3
390
F
  0
LAYER
  5
206
100
AcDbSymbolTableRecord
100
AcDbLayerTableRecord
  2
NOTE
 70
0
 62
7
  6
CONTINUOUS
370
-3
390
F
  0
LAYER
  5
207
100
AcDbSymbolTableRecord
100
AcDbLayerTableRecord
  2
PIANI
 70
0
 62
7
  6
CONTINUOUS
370
-3
390
F
  0
LAYER
  5
208
100
AcDbSymbolTableRecord
100
AcDbLayerTableRecord
  2
PUNTI
 70
0
 62
7
  6
CONTINUOUS
370
-3
390
F
  0
LAYER
  5
209
100
AcDbSymbolTableRecord
100
AcDbLayerTableRecord
  2
RACCORDO
 70
0
 62
7
  6
CONTINUOUS
370
-3
390
F
  0
LAYER
  5
20A
100
AcDbSymbolTableRecord
100
AcDbLayerTableRecord
  2
RGB____0____0____0__
 70
0
 62
7
  6
CONTINUOUS
370
-3
390
F
  0
LAYER
  5
20B
100
AcDbSymbolTableRecord
100
AcDbLayerTableRecord
  2
SIMBOLI
 70
0
 62
7
  6
CONTINUOUS
370
-3
390
F
  0
LAYER
  5
20C
100
AcDbSymbolTableRecord
100
AcDbLayerTableRecord
  2
SMUSSO
 70
0
 62
7
  6
CONTINUOUS
370
-3
390
F
  0
LAYER
  5
20D
100
AcDbSymbolTableRecord
100
AcDbLayerTableRecord
  2
SNAPLINE
 70
0
 62
7
  6
CONTINUOUS
370
-3
390
F
  0
LAYER
  5
20E
100
AcDbSymbolTableRecord
100
AcDbLayerTableRecord
  2
SUPERFICI
 70
0
 62
7
  6
CONTINUOUS
370
-3
390
F
  0
LAYER
  5
20F
100
AcDbSymbolTableRecord
100
AcDbLayerTableRecord
  2
TRASH
 70
0
 62
7
  6
CONTINUOUS
370
-3
390
F
  0
LAYER
  5
210
100
AcDbSymbolTableRecord
100
AcDbLayerTableRecord
  2
XSEC_DATUMS
 70
0
 62
7
  6
CONTINUOUS
370
-3
390
F
  0
ENDTAB
  0
TABLE
  2
STYLE
  5
3
100
AcDbSymbolTable
 70
1
  0
STYLE
  5
11
100
AcDbSymbolTableRecord
100
AcDbTextStyleTableRecord
  2
STANDARD
 70
0
 40
0.0
 41
0.8
 50
0.0
 71
0
 42
0.2
  3
txt
  4

  0
STYLE
  5
211
100
AcDbSymbolTableRecord
100
AcDbTextStyleTableRecord
  2
TEXTSTYLE_1
 70
0
 40
0.0
 41
0.8
 50
0.0
 71
0
 42
0.2
  3
gdt
  4

  0
ENDTAB
  0
TABLE
  2
VIEW
  5
6
100
AcDbSymbolTable
 70
0
  0
ENDTAB
  0
TABLE
  2
UCS
  5
7
100
AcDbSymbolTable
 70
0
  0
ENDTAB
  0
TABLE
  2
APPID
  5
9
100
AcDbSymbolTable
 70
1
  0
APPID
  5
212
100
AcDbSymbolTableRecord
100
AcDbRegAppTableRecord
  2
ACAD
 70
0
  0
ENDTAB
  0
TABLE
  2
BLOCK_RECORD
  5
1
100
AcDbSymbolTable
 70
0
  0
BLOCK_RECORD
  5
213
100
AcDbSymbolTableRecord
100
AcDbBlockTableRecord
  2
*Model_Space
  0
BLOCK_RECORD
  5
214
100
AcDbSymbolTableRecord
100
AcDbBlockTableRecord
  2
*Paper_Space
  0
BLOCK_RECORD
  5
215
100
AcDbSymbolTableRecord
100
AcDbBlockTableRecord
  2
_FILLED
  0
BLOCK_RECORD
  5
216
100
AcDbSymbolTableRecord
100
AcDbBlockTableRecord
  2
*D0
  0
BLOCK_RECORD
  5
217
100
AcDbSymbolTableRecord
100
AcDbBlockTableRecord
  2
*D1
  0
BLOCK_RECORD
  5
218
100
AcDbSymbolTableRecord
100
AcDbBlockTableRecord
  2
*D2
  0
ENDTAB
  0
TABLE
  2
DIMSTYLE
  5
A
100
AcDbSymbolTable
 70
1
100
AcDbDimStyleTable
 71
0
  0
DIMSTYLE
105
219
100
AcDbSymbolTableRecord
100
AcDbDimStyleTableRecord
  2
STANDARD
 70
0
  3

  4

 40
1.0
 41
3.0
 42
0.5
 43
0.38
 44
1.5
 45
0.0
 46
0.0
 47
0.01
 48
0.01
140
3.0
141
0.09
142
0.0
143
25.4
144
1.0
145
0.0
146
1.0
147
0.625
 71
1.0
 72
0.0
 73
0
 74
0
 75
0
 76
0
 77
1
 78
8
 79
2
170
0
171
1
172
0
173
0
174
0
175
0
176
0
177
0
178
0
270
2
179
2
271
2
272
2
273
2
274
2
275
0
280
0
281
0
282
0
283
1
284
8
285
0
286
0
287
3
288
0
340
11
278
44
341
215
342
215
343
215
344
215
  0
DIMSTYLE
105
21A
100
AcDbSymbolTableRecord
100
AcDbDimStyleTableRecord
  2
DIMSTYLE_1
 70
0
  3

  4

 40
1.0
 41
3.0
 42
0.5
 43
0.38
 44
1.5
 45
0.0
 46
0.0
 47
0.0
 48
0.0
140
3.0
141
0.09
142
0.0
143
25.4
144
1.0
145
0.0
146
1.0
147
0.75
 71
0.0
 72
0.0
 73
0
 74
0
 75
0
 76
0
 77
1
 78
8
 79
2
170
0
171
1
172
0
173
0
174
0
175
0
176
0
177
0
178
0
270
2
179
2
271
1
272
1
273
2
274
2
275
0
280
0
281
0
282
0
283
1
284
8
285
0
286
0
287
3
288
0
340
11
278
44
341
215
342
215
343
215
344
215
  0
DIMSTYLE
105
21B
100
AcDbSymbolTableRecord
100
AcDbDimStyleTableRecord
  2
DIMSTYLE_2
 70
0
  3

  4

 40
1.0
 41
3.0
 42
0.5
 43
0.38
 44
1.5
 45
0.0
 46
0.0
 47
0.0
 48
0.0
140
3.0
141
0.09
142
0.0
143
25.4
144
1.0
145
0.0
146
1.0
147
0.75
 71
0.0
 72
0.0
 73
0
 74
0
 75
0
 76
0
 77
1
 78
8
 79
2
170
0
171
1
172
0
173
0
174
0
175
0
176
0
177
0
178
0
270
2
179
2
271
2
272
2
273
2
274
2
275
0
280
0
281
0
282
0
283
1
284
8
285
0
286
0
287
3
288
0
340
11
278
44
341
215
342
215
343
215
344
215
  0
ENDTAB
  0
ENDSEC
  0
SECTION
  2
BLOCKS
  0
BLOCK
  5
20
100
AcDbEntity
  8
0
100
AcDbBlockBegin
  2
*Model_Space
 70
0
 10
0.0
 20
0.0
 30
0.0
  3
*Model_Space
  1

  0
ENDBLK
  5
21
100
AcDbEntity
  8
0
100
AcDbBlockEnd
  0
BLOCK
  5
1C
100
AcDbEntity
  8
0
100
AcDbBlockBegin
  2
*Paper_Space
 70
0
 10
0.0
 20
0.0
 30
0.0
  3
*Paper_Space
  1

  0
ENDBLK
  5
1D
100
AcDbEntity
  8
0
100
AcDbBlockEnd
  0
BLOCK
  5
21C
100
AcDbEntity
  8
0
100
AcDbBlockBegin
  2
_FILLED
 70
64
 10
0.0
 20
0.0
  3
_FILLED
  1

  0
SOLID
  5
21D
100
AcDbEntity
  8
0
  6
BYBLOCK
 62
0
100
AcDbTrace
 10
0.0
 20
0.0
 11
-1.0
 21
0.3166666667
 12
-1.0
 22
-0.3166666667
 13
-1.0
 23
-0.3166666667
  0
ENDBLK
  5
21E
100
AcDbEntity
  8
0
  6
BYBLOCK
 62
0
100
AcDbBlockEnd
  0
BLOCK
  5
21F
100
AcDbEntity
  8
0
100
AcDbBlockBegin
 62
7
  6
CONTINUOUS
  2
*D0
 70
65
 10
0.0
 20
0.0
  3
*D0
  1

  0
LINE
  5
220
100
AcDbEntity
  8
0
100
AcDbLine
 62
7
  6
CONTINUOUS
 10
46.6370307767
 20
126.2247612129
 11
46.6370307767
 21
169.6570187287
  0
LINE
  5
221
100
AcDbEntity
  8
0
100
AcDbLine
 62
7
  6
CONTINUOUS
 10
38.0689191797
 20
103.8513569079
 11
38.0689191797
 21
169.6570187287
  0
LINE
  5
222
100
AcDbEntity
  8
0
100
AcDbLine
 62
7
  6
CONTINUOUS
 10
46.6370307767
 20
168.1570187287
 11
42.3529749782
 21
168.1570187287
  0
LINE
  5
223
100
AcDbEntity
  8
0
100
AcDbLine
 62
7
  6
CONTINUOUS
 10
42.3529749782
 20
168.1570187287
 11
62.8177011346
 21
168.1570187287
  0
LINE
  5
224
100
AcDbEntity
  8
0
100
AcDbLine
 62
7
  6
CONTINUOUS
 10
38.0689191797
 20
168.1570187287
 11
42.3529749782
 21
168.1570187287
  0
INSERT
  5
225
100
AcDbEntity
  8
0
100
AcDbBlockReference
 62
7
  6
CONTINUOUS
  2
_FILLED
 10
46.6370307767
 20
168.1570187287
 41
3.0
 42
3.0
 43
3.0
  0
INSERT
  5
226
100
AcDbEntity
  8
0
100
AcDbBlockReference
 62
7
  6
CONTINUOUS
  2
_FILLED
 10
38.0689191797
 20
168.1570187287
 41
3.0
 42
3.0
 43
3.0
 50
180.0
  0
ENDBLK
  5
227
100
AcDbEntity
  8
0
  6
BYBLOCK
 62
0
100
AcDbBlockEnd
  0
BLOCK
  5
228
100
AcDbEntity
  8
0
100
AcDbBlockBegin
 62
7
  6
CONTINUOUS
  2
*D1
 70
65
 10
0.0
 20
0.0
  3
*D1
  1

  0
LINE
  5
229
100
AcDbEntity
  8
0
100
AcDbLine
 62
7
  6
CONTINUOUS
 10
98.1701685855
 20
148.0513569079
 11
98.1701685855
 21
169.6570187287
  0
LINE
  5
22A
100
AcDbEntity
  8
0
100
AcDbLine
 62
7
  6
CONTINUOUS
 10
259.1701685855
 20
148.0513569079
 11
259.1701685855
 21
169.6570187287
  0
LINE
  5
22B
100
AcDbEntity
  8
0
100
AcDbLine
 62
7
  6
CONTINUOUS
 10
98.1701685855
 20
168.1570187287
 11
178.6701685855
 21
168.1570187287
  0
LINE
  5
22C
100
AcDbEntity
  8
0
100
AcDbLine
 62
7
  6
CONTINUOUS
 10
259.1701685855
 20
168.1570187287
 11
178.6701685855
 21
168.1570187287
  0
INSERT
  5
22D
100
AcDbEntity
  8
0
100
AcDbBlockReference
 62
7
  6
CONTINUOUS
  2
_FILLED
 10
98.1701685855
 20
168.1570187287
 41
3.0
 42
3.0
 43
3.0
 50
180.0
  0
INSERT
  5
22E
100
AcDbEntity
  8
0
100
AcDbBlockReference
 62
7
  6
CONTINUOUS
  2
_FILLED
 10
259.1701685855
 20
168.1570187287
 41
3.0
 42
3.0
 43
3.0
  0
ENDBLK
  5
22F
100
AcDbEntity
  8
0
  6
BYBLOCK
 62
0
100
AcDbBlockEnd
  0
BLOCK
  5
230
100
AcDbEntity
  8
0
100
AcDbBlockBegin
 62
7
  6
CONTINUOUS
  2
*D2
 70
65
 10
0.0
 20
0.0
  3
*D2
  1

  0
LINE
  5
231
100
AcDbEntity
  8
0
100
AcDbLine
 62
7
  6
CONTINUOUS
 10
258.8701685855
 20
148.3513569079
 11
280.1701685855
 21
148.3513569079
  0
LINE
  5
232
100
AcDbEntity
  8
0
100
AcDbLine
 62
7
  6
CONTINUOUS
 10
258.8701685855
 20
58.3513569079
 11
280.1701685855
 21
58.3513569079
  0
LINE
  5
233
100
AcDbEntity
  8
0
100
AcDbLine
 62
7
  6
CONTINUOUS
 10
278.6701685855
 20
148.3513569079
 11
278.6701685855
 21
103.3513569079
  0
LINE
  5
234
100
AcDbEntity
  8
0
100
AcDbLine
 62
7
  6
CONTINUOUS
 10
278.6701685855
 20
58.3513569079
 11
278.6701685855
 21
103.3513569079
  0
INSERT
  5
235
100
AcDbEntity
  8
0
100
AcDbBlockReference
 62
7
  6
CONTINUOUS
  2
_FILLED
 10
278.6701685855
 20
148.3513569079
 41
3.0
 42
3.0
 43
3.0
 50
90.0
  0
INSERT
  5
236
100
AcDbEntity
  8
0
100
AcDbBlockReference
 62
7
  6
CONTINUOUS
  2
_FILLED
 10
278.6701685855
 20
58.3513569079
 41
3.0
 42
3.0
 43
3.0
 50
270.0
  0
ENDBLK
  5
237
100
AcDbEntity
  8
0
  6
BYBLOCK
 62
0
100
AcDbBlockEnd
  0
ENDSEC
  0
SECTION
  2
ENTITIES
  0
DIMENSION
  5
238
100
AcDbEntity
  8
0
100
AcDbDimension
 62
7
  6
CONTINUOUS
  2
*D0
 10
38.0689191797
 20
168.1570187287
 11
56.3891297061
 21
168.1570187287
 70
160
 71
1
 72
2
 41
0.9
 42
8.5681115969
  3
DIMSTYLE_1
100
AcDbAlignedDimension
 13
46.6370307767
 23
125.7247612129
 14
38.0689191797
 24
103.3513569079
 50
180.0
100
AcDbRotatedDimension
  0
DIMENSION
  5
239
100
AcDbEntity
  8
0
100
AcDbDimension
 62
7
  6
CONTINUOUS
  2
*D1
 10
259.1701685855
 20
168.1570187287
 11
175.7773114427
 21
168.1570187287
 70
160
 71
2
 72
2
 41
0.9
 42
161.0
  3
DIMSTYLE_2
100
AcDbAlignedDimension
 13
98.1701685855
 23
147.5513569079
 14
259.1701685855
 24
147.5513569079
100
AcDbRotatedDimension
  0
DIMENSION
  5
23A
100
AcDbEntity
  8
0
100
AcDbDimension
 62
7
  6
CONTINUOUS
  2
*D2
 10
278.6701685855
 20
58.3513569079
 11
278.6701685855
 21
100.9942140508
 70
160
 71
2
 72
2
 41
0.9
 42
90.0
  3
DIMSTYLE_2
100
AcDbAlignedDimension
 13
258.3701685855
 23
148.3513569079
 14
258.3701685855
 24
58.3513569079
 50
270.0
100
AcDbRotatedDimension
  0
LWPOLYLINE
  5
23B
100
AcDbEntity
  8
RACCORDO
100
AcDbPolyline
 62
250
  6
CONTINUOUS
 90
19
 70
0
 10
98.2808255893
 20
147.4417144733
 10
98.2861558239
 20
147.448999206
 10
98.2948244814
 20
147.4561806016
 10
98.3067728252
 20
147.4632100008
 10
98.3219198966
 20
147.470039774
 10
98.3401630627
 20
147.4766236441
 10
98.3613787126
 20
147.4829170004
 10
98.3854230945
 20
147.4888772006
 10
98.4121332898
 20
147.4944638598
 10
98.4413283172
 20
147.499639124
 10
98.4728103586
 20
147.5043679269
 10
98.5063660999
 20
147.5086182273
 10
98.5417681758
 20
147.512361226
 10
98.5787767112
 20
147.5155715616
 10
98.6171409456
 20
147.5182274815
 10
98.6566009328
 20
147.5203109898
 10
98.6968893022
 20
147.5218079694
 10
98.7377330701
 20
147.522708277
 10
98.7788554896
 20
147.5230058124
  0
LWPOLYLINE
  5
23C
100
AcDbEntity
  8
RACCORDO
100
AcDbPolyline
 62
250
  6
CONTINUOUS
 90
19
 70
0
 10
98.2808213637
 20
59.2609992749
 10
98.2861516705
 20
59.2537145552
 10
98.2948204301
 20
59.2465331713
 10
98.306768905
 20
59.2395037826
 10
98.321916135
 20
59.2326740188
 10
98.3401594857
 20
59.2260901569
 10
98.3613753442
 20
59.2197968076
 10
98.3854199564
 20
59.2138366132
 10
98.4121304015
 20
59.2082499589
 10
98.4413256952
 20
59.2030746985
 10
98.4728080167
 20
59.1983458984
 10
98.5063640486
 20
59.1940955999
 10
98.5417664227
 20
59.1903526022
 10
98.5787752603
 20
59.187142267
 10
98.6171397976
 20
59.1844863467
 10
98.6566000848
 20
59.1824028374
 10
98.6968887479
 20
59.1809058564
 10
98.7377327996
 20
59.180005547
 10
98.7788554896
 20
59.1797080094
  0
LINE
  5
23D
100
AcDbEntity
  8
RACCORDO
100
AcDbLine
 62
7
  6
CONTINUOUS
 10
98.1701685855
 20
59.1513569079
 11
98.1701685855
 21
80.8319373192
  0
LINE
  5
23E
100
AcDbEntity
  8
DRAFT
100
AcDbLine
 62
7
  6
CONTINUOUS
 10
98.1701685855
 20
80.8319373192
 11
98.1701685855
 21
125.8707764966
  0
LINE
  5
23F
100
AcDbEntity
  8
RACCORDO
100
AcDbLine
 62
7
  6
CONTINUOUS
 10
98.1701685855
 20
125.8707764966
 11
98.1701685855
 21
147.5513569079
  0
LINE
  5
240
100
AcDbEntity
  8
RACCORDO
100
AcDbLine
 62
250
  6
CONTINUOUS
 10
98.2808213607
 20
59.2609992849
 11
98.2789911259
 21
95.8420935661
  0
LINE
  5
241
100
AcDbEntity
  8
RACCORDO
100
AcDbLine
 62
250
  6
CONTINUOUS
 10
98.7788554896
 20
59.1797080013
 11
98.7770879355
 21
95.8344702684
  0
LINE
  5
242
100
AcDbEntity
  8
RACCORDO
100
AcDbLine
 62
250
  6
CONTINUOUS
 10
99.0729838858
 20
148.230693008
 11
99.0729838858
 21
147.8227444003
  0
LINE
  5
243
100
AcDbEntity
  8
RACCORDO
100
AcDbLine
 62
250
  6
CONTINUOUS
 10
99.0729838858
 20
58.4720208077
 11
99.0729838858
 21
58.8799694155
  0
LWPOLYLINE
  5
244
100
AcDbEntity
  8
RACCORDO
100
AcDbPolyline
 62
250
  6
CONTINUOUS
 90
3
 70
0
 10
98.2789911259
 20
95.8420935661
 10
98.2793230481
 20
130.7377348613
 10
98.2808213607
 20
147.4417145309
  0
LWPOLYLINE
  5
245
100
AcDbEntity
  8
RACCORDO
100
AcDbPolyline
 62
250
  6
CONTINUOUS
 90
3
 70
0
 10
98.7770879355
 20
95.8344702684
 10
98.7774150147
 20
130.773700888
 10
98.7788554896
 20
147.5230058144
  0
LWPOLYLINE
  5
246
100
AcDbEntity
  8
RACCORDO
100
AcDbPolyline
 62
250
  6
CONTINUOUS
 90
28
 70
0
 10
98.7788554896
 20
147.5230058144
 10
98.7793657832
 20
147.5406806137
 10
98.7808509654
 20
147.5581616611
 10
98.7833110362
 20
147.5754489676
 10
98.7867599109
 20
147.5925975783
 10
98.7911836742
 20
147.6095524677
 10
98.7965405806
 20
147.6261485492
 10
98.802841653
 20
147.6423856124
 10
98.8100758686
 20
147.6582639064
 10
98.8181684134
 20
147.6736190513
 10
98.8271266517
 20
147.6884421322
 10
98.8369432192
 20
147.7027421162
 10
98.8475212102
 20
147.7163814606
 10
98.8588690014
 20
147.729354728
 10
98.8709782159
 20
147.741667414
 10
98.883726817
 20
147.7531983836
 10
98.8971199838
 20
147.763938885
 10
98.9111525372
 20
147.7738977279
 10
98.9256869032
 20
147.7829801258
 10
98.9407279287
 20
147.7911776404
 10
98.9562707669
 20
147.7984987604
 10
98.9721633028
 20
147.8048740913
 10
98.9884131299
 20
147.8102946702
 10
99.0050126547
 20
147.8147694973
 10
99.0217869822
 20
147.8182561206
 10
99.038677814
 20
147.8207403963
 10
99.0557434485
 20
147.8222364879
 10
99.0729838858
 20
147.8227444003
  0
LWPOLYLINE
  5
247
100
AcDbEntity
  8
RACCORDO
100
AcDbPolyline
 62
250
  6
CONTINUOUS
 90
28
 70
0
 10
98.2808213606
 20
147.4417145311
 10
98.2828172828
 20
147.4879394973
 10
98.2874508932
 20
147.5339212157
 10
98.2946991406
 20
147.5795096179
 10
98.3045255549
 20
147.6245424672
 10
98.3168934205
 20
147.668888452
 10
98.3317745181
 20
147.7124452378
 10
98.3491303989
 20
147.7550929161
 10
98.3688967463
 20
147.7966677701
 10
98.3909977957
 20
147.8370059546
 10
98.4153511059
 20
147.8759677667
 10
98.441877803
 20
147.9134377684
 10
98.470493123
 20
147.9492970864
 10
98.5011013256
 20
147.9834306887
 10
98.5335988295
 20
148.0157282654
 10
98.5678806686
 20
148.0460858275
 10
98.6038318768
 20
148.0744048395
 10
98.6413337063
 20
148.1005955942
 10
98.6802685565
 20
148.1245762045
 10
98.7205106262
 20
148.1462700309
 10
98.7619252341
 20
148.1656059139
 10
98.804375818
 20
148.1825206104
 10
98.8477184813
 20
148.1969581334
 10
98.8918154571
 20
148.2088743838
 10
98.9365357646
 20
148.218233885
 10
98.9817380301
 20
148.2250051394
 10
99.0272702946
 20
148.2291632761
 10
99.0729838858
 20
148.230693008
  0
LWPOLYLINE
  5
248
100
AcDbEntity
  8
RACCORDO
100
AcDbPolyline
 62
250
  6
CONTINUOUS
 90
22
 70
0
 10
119.8667672067
 20
125.9561724664
 10
119.8884665172
 20
126.019118394
 10
119.9137507521
 20
126.0802958433
 10
119.9426199114
 20
126.1397049045
 10
119.9752327556
 20
126.1975958411
 10
120.0114305241
 20
126.2537185566
 10
120.0507369349
 20
126.3073226377
 10
120.0931244876
 20
126.3582991276
 10
120.1386206825
 20
126.406757223
 10
120.1868317395
 20
126.4522737928
 10
120.2377829564
 20
126.494851402
 10
120.2914490352
 20
126.534487726
 10
120.3473603014
 20
126.5707523241
 10
120.4056384727
 20
126.6036514124
 10
120.4661618314
 20
126.6331789966
 10
120.5280955486
 20
126.6588863352
 10
120.5915005423
 20
126.6806838761
 10
120.6563158946
 20
126.6986613484
 10
120.7215240227
 20
126.7126389278
 10
120.7867857325
 20
126.7225567052
 10
120.852440218
 20
126.7284746836
 10
120.9184874795
 20
126.7303928861
  0
LWPOLYLINE
  5
249
100
AcDbEntity
  8
RACCORDO
100
AcDbPolyline
 62
250
  6
CONTINUOUS
 90
22
 70
0
 10
120.3435055701
 20
125.7839258751
 10
120.3553349426
 20
125.8180604724
 10
120.3692187408
 20
125.8514320402
 10
120.3851092574
 20
125.8839178492
 10
120.4029610609
 20
125.9154127314
 10
120.4227040024
 20
125.9457844729
 10
120.4442344533
 20
125.9748800169
 10
120.4674396104
 20
126.002563878
 10
120.4922555732
 20
126.0287758684
 10
120.5186458505
 20
126.0534795328
 10
120.5465273859
 20
126.0765847208
 10
120.575797735
 20
126.0979948338
 10
120.6063985361
 20
126.1176542454
 10
120.6382772638
 20
126.1355017882
 10
120.6712788642
 20
126.1514243348
 10
120.7051787278
 20
126.1653082174
 10
120.7398658618
 20
126.1771094588
 10
120.7751960527
 20
126.1867806086
 10
120.8108739517
 20
126.1942621347
 10
120.8467071635
 20
126.1995529769
 10
120.8826156274
 20
126.2026782852
 10
120.9184683293
 20
126.2036591299
  0
LWPOLYLINE
  5
24A
100
AcDbEntity
  8
RACCORDO
100
AcDbPolyline
 62
250
  6
CONTINUOUS
 90
7
 70
0
 10
119.8667672067
 20
80.7465413493
 10
119.8516894859
 20
80.7993897113
 10
119.8393256025
 20
80.852886402
 10
119.8296755562
 20
80.9070314324
 10
119.8227393472
 20
80.9618248133
 10
119.8185169754
 20
81.0172665558
 10
119.8170084408
 20
81.073356671
  0
LWPOLYLINE
  5
24B
100
AcDbEntity
  8
RACCORDO
100
AcDbPolyline
 62
7
  6
CONTINUOUS
 90
25
 70
0
 10
120.3701685679
 20
81.150513596
 10
120.371470111
 20
81.1112759207
 10
120.3752823888
 20
81.0724884224
 10
120.3816054011
 20
81.0341510958
 10
120.3904905341
 20
80.9960845402
 10
120.4018864016
 20
80.9584681467
 10
120.4156388455
 20
80.9218400905
 10
120.4317474203
 20
80.8862649183
 10
120.4502125715
 20
80.8516780594
 10
120.4708814775
 20
80.8184240019
 10
120.4938214479
 20
80.7864543125
 10
120.5189651731
 20
80.7558173959
 10
120.5459579026
 20
80.7270029893
 10
120.5748519316
 20
80.7000474051
 10
120.6055949651
 20
80.6749142965
 10
120.6376753677
 20
80.6519844049
 10
120.6710399188
 20
80.6313338837
 10
120.705741839
 20
80.6128865467
 10
120.7414291552
 20
80.5967946246
 10
120.7781555342
 20
80.5830589931
 10
120.8158673092
 20
80.5716787526
 10
120.8540515061
 20
80.5628034725
 10
120.8925371337
 20
80.5564830047
 10
120.9314951832
 20
80.5526674843
 10
120.9709256548
 20
80.5513569079
  0
LINE
  5
24C
100
AcDbEntity
  8
RACCORDO
100
AcDbLine
 62
250
  6
CONTINUOUS
 10
119.8170084408
 20
81.073356671
 11
119.8170084408
 21
125.6293571448
  0
LINE
  5
24D
100
AcDbEntity
  8
RACCORDO
100
AcDbLine
 62
250
  6
CONTINUOUS
 10
120.3163215041
 20
81.0967849007
 11
120.3163215053
 21
125.6059269428
  0
LINE
  5
24E
100
AcDbEntity
  8
RACCORDO
100
AcDbLine
 62
7
  6
CONTINUOUS
 10
120.3701685679
 20
125.5522002198
 11
120.3701685679
 21
81.150513596
  0
LINE
  5
24F
100
AcDbEntity
  8
RACCORDO
100
AcDbLine
 62
250
  6
CONTINUOUS
 10
120.9184874795
 20
126.7303928861
 11
120.9184874795
 21
126.2036590867
  0
LINE
  5
250
100
AcDbEntity
  8
RACCORDO
100
AcDbLine
 62
250
  6
CONTINUOUS
 10
120.9184874795
 20
79.9723209297
 11
120.9184874792
 21
80.4990547291
  0
LWPOLYLINE
  5
251
100
AcDbEntity
  8
RACCORDO
100
AcDbPolyline
 62
250
  6
CONTINUOUS
 90
7
 70
0
 10
120.3163215271
 20
125.6059269215
 10
120.3170820652
 20
125.636086041
 10
120.3193653591
 20
125.6661486593
 10
120.3231632113
 20
125.6960388434
 10
120.3284636344
 20
125.7256812795
 10
120.3352508955
 20
125.7550014612
 10
120.3435055701
 20
125.7839258751
  0
LWPOLYLINE
  5
252
100
AcDbEntity
  8
RACCORDO
100
AcDbPolyline
 62
250
  6
CONTINUOUS
 90
7
 70
0
 10
119.8170084408
 20
125.6293571448
 10
119.8184543752
 20
125.6850362534
 10
119.8226391868
 20
125.740231396
 10
119.8295628758
 20
125.7949425807
 10
119.8392254421
 20
125.8491698153
 10
119.8516268857
 20
125.9029131079
 10
119.8667672067
 20
125.9561724664
  0
LWPOLYLINE
  5
253
100
AcDbEntity
  8
RACCORDO
100
AcDbPolyline
 62
250
  6
CONTINUOUS
 90
7
 70
0
 10
120.3435055701
 20
80.9187879407
 10
120.3352914822
 20
80.9475548722
 10
120.3285158875
 20
80.9767775384
 10
120.3232075542
 20
81.0063853135
 10
120.319391818
 20
81.036305632
 10
120.3170904495
 20
81.0664641516
 10
120.3163215277
 20
81.0967849238
  0
LWPOLYLINE
  5
254
100
AcDbEntity
  8
0
100
AcDbPolyline
 62
7
  6
CONTINUOUS
 90
3
 70
0
 43
0.3500000006
 10
175.7773037109
 20
171.0498706055
 10
176.6344597778
 20
171.9070266724
 10
176.6344597778
 20
168.9070257568
  0
LWPOLYLINE
  5
255
100
AcDbEntity
  8
0
100
AcDbPolyline
 62
7
  6
CONTINUOUS
 90
10
 70
0
 43
0.3500000006
 10
178.5630201416
 20
171.9070266724
 10
177.920166687
 20
171.2641550903
 10
177.4915977173
 20
170.4070171509
 10
177.4915977173
 20
169.3355947266
 10
177.920166687
 20
168.9070257568
 10
178.5630201416
 20
168.9070257568
 10
178.9915891113
 20
169.3355947266
 10
178.9915891113
 20
170.192732666
 10
178.5630201416
 20
170.6213016357
 10
177.634460083
 20
170.6213016357
  0
LWPOLYLINE
  5
256
100
AcDbEntity
  8
RACCORDO
100
AcDbPolyline
 62
250
  6
CONTINUOUS
 90
16
 70
0
 10
98.2791109747
 20
125.9332642445
 10
98.2843933311
 20
125.9353163027
 10
98.2930208415
 20
125.9373394423
 10
98.3049349434
 20
125.9393199305
 10
98.3200547646
 20
125.9412443238
 10
98.3382776731
 20
125.9430995596
 10
98.3594799733
 20
125.9448730448
 10
98.3835177459
 20
125.9465527411
 10
98.4102278243
 20
125.9481272468
 10
98.4394289028
 20
125.9495858743
 10
98.4709227669
 20
125.9509187226
 10
98.5044956388
 20
125.9521167444
 10
98.5399196288
 20
125.9531718077
 10
98.5769542817
 20
125.9540767507
 10
98.6153482094
 20
125.9548254308
 10
98.6548407971
 20
125.955412766
  0
LWPOLYLINE
  5
257
100
AcDbEntity
  8
RACCORDO
100
AcDbPolyline
 62
250
  6
CONTINUOUS
 90
16
 70
0
 10
98.2791094881
 20
125.8707807387
 10
98.284391783
 20
125.8728272319
 10
98.2930192407
 20
125.8748449558
 10
98.3049332984
 20
125.8768202144
 10
98.3200530845
 20
125.8787395997
 10
98.3382759668
 20
125.8805900831
 10
98.3594782497
 20
125.8823591036
 10
98.3835160134
 20
125.8840346532
 10
98.4102260913
 20
125.8856053584
 10
98.4394271771
 20
125.8870605573
 10
98.470921056
 20
125.8883903722
 10
98.5044939494
 20
125.8895857764
 10
98.539917967
 20
125.8906386555
 10
98.5769526529
 20
125.8915418628
 10
98.6153466182
 20
125.8922892671
 10
98.6548392472
 20
125.8928757954
  0
LWPOLYLINE
  5
258
100
AcDbEntity
  8
RACCORDO
100
AcDbPolyline
 62
250
  6
CONTINUOUS
 90
18
 70
0
 10
98.2791094885
 20
80.8319373192
 10
98.2843917838
 20
80.8298908265
 10
98.2930192418
 20
80.8278731029
 10
98.3049332999
 20
80.8258978447
 10
98.3200530862
 20
80.8239784598
 10
98.3382759687
 20
80.8221279768
 10
98.3594782517
 20
80.8203589566
 10
98.3835160154
 20
80.8186834073
 10
98.4102260933
 20
80.8171127024
 10
98.4394271791
 20
80.8156575037
 10
98.4709210579
 20
80.8143276891
 10
98.5044939512
 20
80.8131322851
 10
98.5399179686
 20
80.8120794061
 10
98.5769526543
 20
80.811176199
 10
98.6153466193
 20
80.8104287948
 10
98.654839248
 20
80.8098422666
 10
98.6951624671
 20
80.8094205959
 10
98.7772020514
 20
80.8090821374
  0
LWPOLYLINE
  5
259
100
AcDbEntity
  8
RACCORDO
100
AcDbPolyline
 62
250
  6
CONTINUOUS
 90
17
 70
0
 10
98.279110973
 20
80.7694495713
 10
98.2843933275
 20
80.767397513
 10
98.2930208363
 20
80.7653743733
 10
98.3049349368
 20
80.7633938851
 10
98.320054757
 20
80.7614694916
 10
98.3382776647
 20
80.7596142557
 10
98.3594799644
 20
80.7578407704
 10
98.3835177366
 20
80.756161074
 10
98.410227815
 20
80.7545865683
 10
98.4394288937
 20
80.7531279406
 10
98.4709227582
 20
80.7517950923
 10
98.5044956308
 20
80.7505970704
 10
98.5399196216
 20
80.749542007
 10
98.5769542754
 20
80.748637064
 10
98.6153482042
 20
80.7478883838
 10
98.6548407931
 20
80.7473010486
 10
98.7360440235
 20
80.7466252376
  0
LWPOLYLINE
  5
25A
100
AcDbEntity
  8
0
100
AcDbPolyline
 62
7
  6
CONTINUOUS
 90
3
 70
0
 43
0.3500000006
 10
179.8487451782
 20
171.0498706055
 10
180.7058831177
 20
171.9070266724
 10
180.7058831177
 20
168.9070257568
  0
LINE
  5
25B
100
AcDbEntity
  8
RACCORDO
100
AcDbLine
 62
7
  6
CONTINUOUS
 10
258.3701685855
 20
58.3513569079
 11
98.9701685855
 21
58.3513569079
  0
LINE
  5
25C
100
AcDbEntity
  8
RACCORDO
100
AcDbLine
 62
250
  6
CONTINUOUS
 10
258.2673532853
 20
58.4720208077
 11
99.0729838858
 21
58.4720208077
  0
LINE
  5
25D
100
AcDbEntity
  8
RACCORDO
100
AcDbLine
 62
250
  6
CONTINUOUS
 10
258.2673532853
 20
58.8799694155
 11
99.0729838858
 21
58.8799694155
  0
LWPOLYLINE
  5
25E
100
AcDbEntity
  8
RACCORDO
100
AcDbPolyline
 62
250
  6
CONTINUOUS
 90
28
 70
0
 10
99.0729838858
 20
58.8799694155
 10
99.0557341032
 20
58.8804804558
 10
99.0386675265
 20
58.8819767263
 10
99.0217841558
 20
58.8844582321
 10
99.0050314596
 20
58.887937598
 10
98.9884619692
 20
58.8924022188
 10
98.9722332793
 20
58.8978142576
 10
98.9563440458
 20
58.9041849686
 10
98.9407956126
 20
58.911503135
 10
98.9257496059
 20
58.9196972161
 10
98.9112145534
 20
58.928774634
 10
98.8971819274
 20
58.9387280171
 10
98.8837877704
 20
58.9494636324
 10
98.871036645
 20
58.9609904995
 10
98.8589239886
 20
58.9732996568
 10
98.847572156
 20
58.9862703952
 10
98.8369892754
 20
58.99990886
 10
98.8271672186
 20
59.0142089642
 10
98.8182039563
 20
59.0290316415
 10
98.8101078601
 20
59.0443823393
 10
98.8028705584
 20
59.0602556622
 10
98.7965649073
 20
59.0764962664
 10
98.7911998545
 20
59.0931129349
 10
98.7867664523
 20
59.1100969245
 10
98.7833107134
 20
59.1272665838
 10
98.7808479755
 20
59.1445613647
 10
98.7793629009
 20
59.1620418337
 10
98.7788554896
 20
59.1797080013
  0
LWPOLYLINE
  5
25F
100
AcDbEntity
  8
RACCORDO
100
AcDbPolyline
 62
250
  6
CONTINUOUS
 90
28
 70
0
 10
99.0729838858
 20
58.4720208077
 10
99.0272582916
 20
58.4735513364
 10
98.9817334522
 20
58.4777092652
 10
98.9365576814
 20
58.4844759932
 10
98.8918963989
 20
58.4938199935
 10
98.8478752539
 20
58.5057084123
 10
98.8045824444
 20
58.5201177747
 10
98.762134957
 20
58.5370173825
 10
98.7207005878
 20
58.5563484348
 10
98.6804408346
 20
58.5780382666
 10
98.641498354
 20
58.6020101492
 10
98.6039902383
 20
58.62819141
 10
98.56803226
 20
58.6565012553
 10
98.5337426775
 20
58.6868504697
 10
98.5012370288
 20
58.7191401269
 10
98.4706202601
 20
58.7532663153
 10
98.4419955868
 20
58.7891192897
 10
98.4154592378
 20
58.8265835442
 10
98.3910969802
 20
58.8655385374
 10
98.3689914761
 20
58.905860745
 10
98.3492199438
 20
58.9474178484
 10
98.331849152
 20
58.9900692274
 10
98.3169405657
 20
59.0336736234
 10
98.3045453935
 20
59.0780917544
 10
98.294703523
 20
59.1231810426
 10
98.2874505309
 20
59.1687952884
 10
98.2828165018
 20
59.2147848582
 10
98.2808213606
 20
59.2609992848
  0
LINE
  5
260
100
AcDbEntity
  8
RACCORDO
100
AcDbLine
 62
250
  6
CONTINUOUS
 10
98.2808213607
 20
59.2609992849
 11
98.1701713068
 21
59.1484966866
  0
LINE
  5
261
100
AcDbEntity
  8
RACCORDO
100
AcDbLine
 62
250
  6
CONTINUOUS
 10
99.0729838858
 20
58.4720208077
 11
98.9544071301
 21
58.3515121876
  0
LINE
  5
262
100
AcDbEntity
  8
RACCORDO
100
AcDbLine
 62
250
  6
CONTINUOUS
 10
120.3163215041
 20
81.0967849007
 11
120.3701685679
 21
81.150513596
  0
LINE
  5
263
100
AcDbEntity
  8
RACCORDO
100
AcDbLine
 62
250
  6
CONTINUOUS
 10
165.9701686032
 20
125.5522002198
 11
166.0240156657
 21
125.6059269855
  0
LINE
  5
264
100
AcDbEntity
  8
RACCORDO
100
AcDbLine
 62
250
  6
CONTINUOUS
 10
165.3694115163
 20
126.1513569079
 11
165.4218688532
 21
126.2036590867
  0
LINE
  5
265
100
AcDbEntity
  8
RACCORDO
100
AcDbLine
 62
250
  6
CONTINUOUS
 10
120.9184626199
 20
80.4990547291
 11
120.9709256548
 21
80.5513569079
  0
LWPOLYLINE
  5
266
100
AcDbEntity
  8
RACCORDO
100
AcDbPolyline
 62
250
  6
CONTINUOUS
 90
15
 70
0
 10
166.3153676158
 20
125.9055065268
 10
166.277941935
 20
125.8930698295
 10
166.2419106206
 20
125.88090388
 10
166.2075304978
 20
125.869095395
 10
166.1750466219
 20
125.8577285434
 10
166.1446905325
 20
125.8468843461
 10
166.1166786025
 20
125.8366400986
 10
166.0912104961
 20
125.8270688201
 10
166.0684677456
 20
125.8182387331
 10
166.0486124572
 20
125.8102127768
 10
166.0317861562
 20
125.8030481589
 10
166.0181087774
 20
125.7967959476
 10
166.0076778108
 20
125.7915007074
 10
166.0005676065
 20
125.7872001819
 10
165.9968288449
 20
125.7839250246
  0
LINE
  5
267
100
AcDbEntity
  8
RACCORDO
100
AcDbLine
 62
250
  6
CONTINUOUS
 10
166.3933269846
 20
125.9308362803
 11
166.3153676158
 21
125.9055065268
  0
LINE
  5
268
100
AcDbEntity
  8
RACCORDO
100
AcDbLine
 62
250
  6
CONTINUOUS
 10
166.4735699643
 20
125.9561722431
 11
166.3933269846
 21
125.9308362803
  0
LWPOLYLINE
  5
269
100
AcDbEntity
  8
RACCORDO
100
AcDbPolyline
 62
7
  6
CONTINUOUS
 90
25
 70
0
 10
236.3694115163
 20
80.5513569079
 10
236.4088152961
 20
80.5526606813
 10
236.4477615942
 20
80.5564738778
 10
236.4862504107
 20
80.5627965008
 10
236.5244619498
 20
80.5716809158
 10
236.5622160072
 20
80.5830747703
 10
236.5989719704
 20
80.5968209929
 10
236.6346649439
 20
80.6129193692
 10
236.6693598231
 20
80.6313701373
 10
236.7027106812
 20
80.6520169064
 10
236.7347655476
 20
80.6749270808
 10
236.7654763928
 20
80.7000332888
 10
236.7943532017
 20
80.726976974
 10
236.8213583491
 20
80.7558091946
 10
236.8465294602
 20
80.7864789271
 10
236.8694893953
 20
80.8184744854
 10
236.8901618919
 20
80.8517420253
 10
236.9086232125
 20
80.8863354193
 10
236.9247250052
 20
80.9219045473
 10
236.9384667221
 20
80.9585029454
 10
236.9498489111
 20
80.9960771009
 10
236.9587248645
 20
81.0341163103
 10
236.9650456797
 20
81.0724503399
 10
236.9688602593
 20
81.1112494332
 10
236.9701686032
 20
81.150513596
  0
LWPOLYLINE
  5
26A
100
AcDbEntity
  8
RACCORDO
100
AcDbPolyline
 62
7
  6
CONTINUOUS
 90
25
 70
0
 10
165.3694115163
 20
80.5513569079
 10
165.4088152961
 20
80.5526606813
 10
165.4477615942
 20
80.5564738778
 10
165.4862504107
 20
80.5627965008
 10
165.5244619498
 20
80.5716809158
 10
165.5622160072
 20
80.5830747703
 10
165.5989719704
 20
80.5968209929
 10
165.6346649439
 20
80.6129193692
 10
165.6693598231
 20
80.6313701373
 10
165.7027106812
 20
80.6520169064
 10
165.7347655476
 20
80.6749270808
 10
165.7654763928
 20
80.7000332888
 10
165.7943532017
 20
80.726976974
 10
165.8213583491
 20
80.7558091946
 10
165.8465294602
 20
80.7864789271
 10
165.8694893953
 20
80.8184744854
 10
165.8901618919
 20
80.8517420253
 10
165.9086232125
 20
80.8863354193
 10
165.9247250052
 20
80.9219045473
 10
165.9384667221
 20
80.9585029454
 10
165.9498489111
 20
80.9960771009
 10
165.9587248645
 20
81.0341163103
 10
165.9650456797
 20
81.0724503399
 10
165.9688602593
 20
81.1112494332
 10
165.9701686032
 20
81.150513596
  0
LWPOLYLINE
  5
26B
100
AcDbEntity
  8
RACCORDO
100
AcDbPolyline
 62
250
  6
CONTINUOUS
 90
16
 70
0
 10
190.9421932411
 20
81.0741443194
 10
190.9825333899
 20
81.0747514563
 10
191.0216964281
 20
81.0755247047
 10
191.0594038525
 20
81.0764585657
 10
191.0953875113
 20
81.0775463983
 10
191.1293915111
 20
81.0787804665
 10
191.1611740365
 20
81.0801519944
 10
191.19050907
 20
81.0816512285
 10
191.2171879991
 20
81.0832675071
 10
191.2410210998
 20
81.0849893364
 10
191.2618388859
 20
81.0868044718
 10
191.2794933141
 20
81.0887000051
 10
191.2938588373
 20
81.0906624564
 10
191.3048332966
 20
81.0926778701
 10
191.3123386487
 20
81.0947319138
 10
191.31632152
 20
81.0968099803
  0
LWPOLYLINE
  5
26C
100
AcDbEntity
  8
RACCORDO
100
AcDbPolyline
 62
250
  6
CONTINUOUS
 90
16
 70
0
 10
119.9421932411
 20
81.0741443194
 10
119.9825333899
 20
81.0747514563
 10
120.0216964281
 20
81.0755247047
 10
120.0594038525
 20
81.0764585657
 10
120.0953875113
 20
81.0775463983
 10
120.1293915111
 20
81.0787804665
 10
120.1611740365
 20
81.0801519944
 10
120.19050907
 20
81.0816512285
 10
120.2171879991
 20
81.0832675071
 10
120.2410210998
 20
81.0849893364
 10
120.2618388859
 20
81.0868044718
 10
120.2794933141
 20
81.0887000051
 10
120.2938588373
 20
81.0906624564
 10
120.3048332966
 20
81.0926778701
 10
120.3123386487
 20
81.0947319138
 10
120.31632152
 20
81.0968099803
  0
LINE
  5
26D
100
AcDbEntity
  8
RACCORDO
100
AcDbLine
 62
250
  6
CONTINUOUS
 10
258.6854963752
 20
80.7473010494
 11
258.6042931466
 21
80.7466252385
  0
LWPOLYLINE
  5
26E
100
AcDbEntity
  8
RACCORDO
100
AcDbPolyline
 62
250
  6
CONTINUOUS
 90
3
 70
0
 10
258.685497924
 20
80.8098422663
 10
258.604294606
 20
80.8091666446
 10
258.5631351197
 20
80.8090821372
  0
LWPOLYLINE
  5
26F
100
AcDbEntity
  8
RACCORDO
100
AcDbPolyline
 62
250
  6
CONTINUOUS
 90
3
 70
0
 10
190.8170084408
 20
81.0733566714
 10
190.8591354388
 20
81.0734444384
 10
190.9421932411
 20
81.0741443194
  0
LWPOLYLINE
  5
270
100
AcDbEntity
  8
RACCORDO
100
AcDbPolyline
 62
250
  6
CONTINUOUS
 90
3
 70
0
 10
119.8170084408
 20
81.0733566714
 10
119.8591354388
 20
81.0734444384
 10
119.9421932411
 20
81.0741443194
  0
LINE
  5
271
100
AcDbEntity
  8
RACCORDO
100
AcDbLine
 62
250
  6
CONTINUOUS
 10
236.4218496916
 20
79.9723209297
 11
191.9184874795
 21
79.9723209297
  0
LINE
  5
272
100
AcDbEntity
  8
RACCORDO
100
AcDbLine
 62
250
  6
CONTINUOUS
 10
165.4218496916
 20
79.9723209297
 11
120.9184874795
 21
79.9723209297
  0
LINE
  5
273
100
AcDbEntity
  8
RACCORDO
100
AcDbLine
 62
250
  6
CONTINUOUS
 10
236.4218697651
 20
80.4990547291
 11
191.9184626199
 21
80.4990547291
  0
LINE
  5
274
100
AcDbEntity
  8
RACCORDO
100
AcDbLine
 62
250
  6
CONTINUOUS
 10
165.4218697651
 20
80.4990547291
 11
120.9184626199
 21
80.4990547291
  0
LINE
  5
275
100
AcDbEntity
  8
RACCORDO
100
AcDbLine
 62
7
  6
CONTINUOUS
 10
120.9709256548
 20
80.5513569079
 11
165.3694115163
 21
80.5513569079
  0
LINE
  5
276
100
AcDbEntity
  8
RACCORDO
100
AcDbLine
 62
7
  6
CONTINUOUS
 10
191.9709256548
 20
80.5513569079
 11
236.3694115163
 21
80.5513569079
  0
LINE
  5
277
100
AcDbEntity
  8
RACCORDO
100
AcDbLine
 62
250
  6
CONTINUOUS
 10
237.4735699644
 20
80.7465413493
 11
258.6042931466
 21
80.7466252385
  0
LINE
  5
278
100
AcDbEntity
  8
RACCORDO
100
AcDbLine
 62
250
  6
CONTINUOUS
 10
166.4735699644
 20
80.7465413493
 11
190.8667672067
 21
80.7465413493
  0
LINE
  5
279
100
AcDbEntity
  8
RACCORDO
100
AcDbLine
 62
250
  6
CONTINUOUS
 10
259.1701685855
 20
80.8319373192
 11
259.061227683
 21
80.8319373192
  0
LINE
  5
27A
100
AcDbEntity
  8
RACCORDO
100
AcDbLine
 62
250
  6
CONTINUOUS
 10
98.1701685855
 20
80.8319373192
 11
98.279109488
 21
80.8319373192
  0
LINE
  5
27B
100
AcDbEntity
  8
RACCORDO
100
AcDbLine
 62
250
  6
CONTINUOUS
 10
98.7360440235
 20
80.7466252376
 11
119.8667672067
 21
80.7465413493
  0
LWPOLYLINE
  5
27C
100
AcDbEntity
  8
RACCORDO
100
AcDbPolyline
 62
250
  6
CONTINUOUS
 90
18
 70
0
 10
166.5233287302
 20
81.0733568084
 10
166.4393741737
 20
81.0737077208
 10
166.3981436904
 20
81.0741444158
 10
166.3578034296
 20
81.0747515407
 10
166.3186402686
 20
81.0755247778
 10
166.2809327138
 20
81.0764586284
 10
166.24494892
 20
81.0775464515
 10
166.2109447837
 20
81.078780511
 10
166.1791621233
 20
81.080152031
 10
166.1498269592
 20
81.081651258
 10
166.1231479064
 20
81.0832675304
 10
166.0993146915
 20
81.0849893541
 10
166.0784968028
 20
81.0868044845
 10
166.0608422856
 20
81.0887000134
 10
166.0464766886
 20
81.090662461
 10
166.0355021721
 20
81.0926778713
 10
166.0279967806
 20
81.0947319119
 10
166.0240138881
 20
81.0968099756
  0
LWPOLYLINE
  5
27D
100
AcDbEntity
  8
RACCORDO
100
AcDbPolyline
 62
250
  6
CONTINUOUS
 90
18
 70
0
 10
237.5233287302
 20
81.0733568084
 10
237.4393741737
 20
81.0737077208
 10
237.3981436904
 20
81.0741444158
 10
237.3578034296
 20
81.0747515407
 10
237.3186402686
 20
81.0755247778
 10
237.2809327138
 20
81.0764586284
 10
237.24494892
 20
81.0775464515
 10
237.2109447837
 20
81.078780511
 10
237.1791621233
 20
81.080152031
 10
237.1498269592
 20
81.081651258
 10
237.1231479064
 20
81.0832675304
 10
237.0993146915
 20
81.0849893541
 10
237.0784968028
 20
81.0868044845
 10
237.0608422856
 20
81.0887000134
 10
237.0464766886
 20
81.090662461
 10
237.0355021721
 20
81.0926778713
 10
237.0279967806
 20
81.0947319119
 10
237.0240138881
 20
81.0968099756
  0
LWPOLYLINE
  5
27E
100
AcDbEntity
  8
RACCORDO
100
AcDbPolyline
 62
250
  6
CONTINUOUS
 90
22
 70
0
 10
120.9184625631
 20
80.499054673
 10
120.8828456541
 20
80.5000224549
 10
120.8471700883
 20
80.5031067912
 10
120.8115643591
 20
80.5083289117
 10
120.7761367507
 20
80.5157068711
 10
120.7410453363
 20
80.5252439411
 10
120.7064937881
 20
80.5369148964
 10
120.6726085211
 20
80.5506990313
 10
120.6395293899
 20
80.5665619911
 10
120.6074689339
 20
80.5844183749
 10
120.5765583859
 20
80.6041980864
 10
120.5469040859
 20
80.625835965
 10
120.5186622578
 20
80.6492198612
 10
120.4919297954
 20
80.6742623478
 10
120.4668068256
 20
80.7008615076
 10
120.4434295803
 20
80.7288575467
 10
120.4218712637
 20
80.7581322389
 10
120.4021933121
 20
80.788568311
 10
120.3844828204
 20
80.8199871121
 10
120.3687861987
 20
80.8522401353
 10
120.3551203684
 20
80.8852166605
 10
120.3435055701
 20
80.9187879407
  0
LWPOLYLINE
  5
27F
100
AcDbEntity
  8
RACCORDO
100
AcDbPolyline
 62
250
  6
CONTINUOUS
 90
22
 70
0
 10
191.9184625631
 20
80.499054673
 10
191.8828456541
 20
80.5000224549
 10
191.8471700883
 20
80.5031067912
 10
191.8115643591
 20
80.5083289117
 10
191.7761367507
 20
80.5157068711
 10
191.7410453363
 20
80.5252439411
 10
191.7064937881
 20
80.5369148964
 10
191.6726085211
 20
80.5506990313
 10
191.6395293899
 20
80.5665619911
 10
191.6074689339
 20
80.5844183749
 10
191.5765583859
 20
80.6041980864
 10
191.5469040859
 20
80.625835965
 10
191.5186622578
 20
80.6492198612
 10
191.4919297954
 20
80.6742623478
 10
191.4668068256
 20
80.7008615076
 10
191.4434295803
 20
80.7288575467
 10
191.4218712637
 20
80.7581322389
 10
191.4021933121
 20
80.788568311
 10
191.3844828204
 20
80.8199871121
 10
191.3687861987
 20
80.8522401353
 10
191.3551203684
 20
80.8852166605
 10
191.3435055701
 20
80.9187879407
  0
LWPOLYLINE
  5
280
100
AcDbEntity
  8
RACCORDO
100
AcDbPolyline
 62
250
  6
CONTINUOUS
 90
22
 70
0
 10
120.9184874795
 20
79.9723209297
 10
120.8529783588
 20
79.9741990417
 10
120.787821863
 20
79.9800270408
 10
120.723017992
 20
79.9898049495
 10
120.6582736856
 20
80.0035610318
 10
120.593882004
 20
80.0212671148
 10
120.5307221284
 20
80.0428385872
 10
120.4688047662
 20
80.0683582444
 10
120.4081192101
 20
80.0977434685
 10
120.3495125186
 20
80.130661538
 10
120.293039207
 20
80.1671705586
 10
120.2386447601
 20
80.2072126594
 10
120.1870126915
 20
80.2502811426
 10
120.138187643
 20
80.2964355995
 10
120.0921249728
 20
80.345616691
 10
120.0493742696
 20
80.3971392838
 10
120.0099984826
 20
80.4510543171
 10
119.9739346625
 20
80.5073110739
 10
119.9415435507
 20
80.5650718668
 10
119.9129453944
 20
80.6240574963
 10
119.8880199464
 20
80.6845472989
 10
119.8667672067
 20
80.7465413493
  0
LWPOLYLINE
  5
281
100
AcDbEntity
  8
RACCORDO
100
AcDbPolyline
 62
250
  6
CONTINUOUS
 90
22
 70
0
 10
191.9184874795
 20
79.9723209297
 10
191.8529783588
 20
79.9741990417
 10
191.787821863
 20
79.9800270408
 10
191.723017992
 20
79.9898049495
 10
191.6582736856
 20
80.0035610318
 10
191.593882004
 20
80.0212671148
 10
191.5307221284
 20
80.0428385872
 10
191.4688047662
 20
80.0683582444
 10
191.4081192101
 20
80.0977434685
 10
191.3495125186
 20
80.130661538
 10
191.293039207
 20
80.1671705586
 10
191.2386447601
 20
80.2072126594
 10
191.1870126915
 20
80.2502811426
 10
191.138187643
 20
80.2964355995
 10
191.0921249728
 20
80.345616691
 10
191.0493742696
 20
80.3971392838
 10
191.0099984826
 20
80.4510543171
 10
190.9739346625
 20
80.5073110739
 10
190.9415435507
 20
80.5650718668
 10
190.9129453944
 20
80.6240574963
 10
190.8880199464
 20
80.6845472989
 10
190.8667672067
 20
80.7465413493
  0
LINE
  5
282
100
AcDbEntity
  8
RACCORDO
100
AcDbLine
 62
250
  6
CONTINUOUS
 10
166.4735699644
 20
80.746541679
 11
166.3933268781
 21
80.7718776573
  0
LWPOLYLINE
  5
283
100
AcDbEntity
  8
RACCORDO
100
AcDbPolyline
 62
250
  6
CONTINUOUS
 90
16
 70
0
 10
166.3933268781
 20
80.7718776573
 10
166.3153673444
 20
80.7972074453
 10
166.2779415654
 20
80.8096441652
 10
166.2419101459
 20
80.8218101399
 10
166.2075299134
 20
80.8336186519
 10
166.1750459259
 20
80.8449855316
 10
166.1446897253
 20
80.8558297572
 10
166.1166776868
 20
80.8660740326
 10
166.0912094768
 20
80.8756453379
 10
166.0684666294
 20
80.88447545
 10
166.0486112531
 20
80.892501429
 10
166.0317848743
 20
80.8996660668
 10
166.0181074294
 20
80.9059182948
 10
166.0076764097
 20
80.9112135478
 10
166.0005661661
 20
80.915514082
 10
165.9968273795
 20
80.9187892438
  0
LINE
  5
284
100
AcDbEntity
  8
RACCORDO
100
AcDbLine
 62
250
  6
CONTINUOUS
 10
165.4218697651
 20
80.4990547291
 11
165.3694115163
 21
80.5513569079
  0
LINE
  5
285
100
AcDbEntity
  8
RACCORDO
100
AcDbLine
 62
250
  6
CONTINUOUS
 10
120.9184683729
 20
126.2036590867
 11
120.9709256548
 21
126.1513569079
  0
LINE
  5
286
100
AcDbEntity
  8
RACCORDO
100
AcDbLine
 62
250
  6
CONTINUOUS
 10
120.3163215053
 20
125.6059269428
 11
120.3701685679
 21
125.5522002198
  0
LINE
  5
287
100
AcDbEntity
  8
RACCORDO
100
AcDbLine
 62
250
  6
CONTINUOUS
 10
166.0240156655
 20
81.0967872017
 11
165.9701686032
 21
81.150513596
  0
LINE
  5
288
100
AcDbEntity
  8
RACCORDO
100
AcDbLine
 62
250
  6
CONTINUOUS
 10
99.0729838858
 20
148.230693008
 11
98.9544071301
 21
148.3512016282
  0
LINE
  5
289
100
AcDbEntity
  8
RACCORDO
100
AcDbLine
 62
250
  6
CONTINUOUS
 10
98.2808213607
 20
147.4417145309
 11
98.1701713068
 21
147.5542171292
  0
LINE
  5
28A
100
AcDbEntity
  8
RACCORDO
100
AcDbLine
 62
250
  6
CONTINUOUS
 10
165.4218496916
 20
126.7303928861
 11
165.4218496916
 21
126.2036590867
  0
LINE
  5
28B
100
AcDbEntity
  8
RACCORDO
100
AcDbLine
 62
250
  6
CONTINUOUS
 10
165.4218496916
 20
79.9723209297
 11
165.4218496916
 21
80.4990547291
  0
LWPOLYLINE
  5
28C
100
AcDbEntity
  8
RACCORDO
100
AcDbPolyline
 62
7
  6
CONTINUOUS
 90
25
 70
0
 10
165.9701686032
 20
125.5522002198
 10
165.9688602541
 20
125.5914644022
 10
165.9650456729
 20
125.6302635038
 10
165.9587248596
 20
125.6685975304
 10
165.9498489135
 20
125.7066367182
 10
165.9384667354
 20
125.7442108407
 10
165.924725027
 20
125.7808092158
 10
165.9086232395
 20
125.8163783395
 10
165.8901619217
 20
125.8509717393
 10
165.869489422
 20
125.8842392904
 10
165.8465294707
 20
125.9162348696
 10
165.8213583374
 20
125.9469046285
 10
165.7943531803
 20
125.9757368633
 10
165.7654763861
 20
126.0026805382
 10
165.7347655679
 20
126.0277867237
 10
165.7027107228
 20
126.0506968817
 10
165.6693598759
 20
126.0713436478
 10
165.6346650021
 20
126.0897944192
 10
165.5989720232
 20
126.1058928011
 10
165.5622160344
 20
126.1196390327
 10
165.5244619404
 20
126.1310328988
 10
165.4862503779
 20
126.1399173215
 10
165.4477615592
 20
126.1462399461
 10
165.408815272
 20
126.1500531405
 10
165.3694115163
 20
126.1513569079
  0
LINE
  5
28D
100
AcDbEntity
  8
RACCORDO
100
AcDbLine
 62
7
  6
CONTINUOUS
 10
165.9701686032
 20
81.150513596
 11
165.9701686032
 21
125.5522002198
  0
LINE
  5
28E
100
AcDbEntity
  8
RACCORDO
100
AcDbLine
 62
250
  6
CONTINUOUS
 10
166.0240156657
 20
125.6059269855
 11
166.0240156655
 21
81.0967872017
  0
LINE
  5
28F
100
AcDbEntity
  8
RACCORDO
100
AcDbLine
 62
250
  6
CONTINUOUS
 10
166.5233287302
 20
125.6293571448
 11
166.5233287302
 21
81.073356671
  0
LWPOLYLINE
  5
290
100
AcDbEntity
  8
RACCORDO
100
AcDbPolyline
 62
250
  6
CONTINUOUS
 90
7
 70
0
 10
166.024015644
 20
81.0967872227
 10
166.0232548557
 20
81.066622883
 10
166.0209709964
 20
81.0365571405
 10
166.0171725775
 20
81.0066659292
 10
166.0118718983
 20
80.9770245327
 10
166.0050849983
 20
80.947707396
 10
165.996831601
 20
80.9187879407
  0
LWPOLYLINE
  5
291
100
AcDbEntity
  8
RACCORDO
100
AcDbPolyline
 62
250
  6
CONTINUOUS
 90
7
 70
0
 10
166.5233287302
 20
81.073356671
 10
166.5218808265
 20
81.0176647912
 10
166.5176948332
 20
80.962461986
 10
166.5107707504
 20
80.9077482473
 10
166.5011085779
 20
80.853523567
 10
166.4887083159
 20
80.799787937
 10
166.4735699644
 20
80.7465413493
  0
LWPOLYLINE
  5
292
100
AcDbEntity
  8
RACCORDO
100
AcDbPolyline
 62
250
  6
CONTINUOUS
 90
22
 70
0
 10
166.4735699644
 20
80.7465413493
 10
166.4518641941
 20
80.6835805139
 10
166.4265735022
 20
80.622390859
 10
166.3976978887
 20
80.5629722942
 10
166.3650780922
 20
80.5050746424
 10
166.3288733741
 20
80.4489479135
 10
166.2895615189
 20
80.3953422614
 10
166.2471702868
 20
80.3443669468
 10
166.2016719175
 20
80.295912469
 10
166.1534609157
 20
80.2504007885
 10
166.1025127973
 20
80.2078296388
 10
166.0488520463
 20
80.1682010459
 10
165.9929466192
 20
80.1319433842
 10
165.9346749524
 20
80.0990498997
 10
165.8741586096
 20
80.0695271247
 10
165.8122302383
 20
80.0438233483
 10
165.7488274994
 20
80.022027607
 10
165.6840127322
 20
80.0040506872
 10
165.6188056013
 20
79.9900735079
 10
165.553545995
 20
79.980156343
 10
165.4878940251
 20
79.9742388246
 10
165.4218496916
 20
79.9723209297
  0
LWPOLYLINE
  5
293
100
AcDbEntity
  8
RACCORDO
100
AcDbPolyline
 62
250
  6
CONTINUOUS
 90
22
 70
0
 10
165.996831601
 20
80.9187879407
 10
165.9849990972
 20
80.8846451304
 10
165.9711116494
 20
80.8512667842
 10
165.9552171873
 20
80.8187756306
 10
165.937361294
 20
80.7872767072
 10
165.917614384
 20
80.7569022897
 10
165.8960805273
 20
80.7278056484
 10
165.8728729028
 20
80.7001222709
 10
165.8480555204
 20
80.6739120199
 10
165.8216649146
 20
80.649211021
 10
165.793784581
 20
80.6261094604
 10
165.7645168353
 20
80.6047034738
 10
165.7339190326
 20
80.5850477977
 10
165.7020435586
 20
80.5672035129
 10
165.6690455246
 20
80.5512837813
 10
165.6351486088
 20
80.5374019104
 10
165.6004629645
 20
80.5256017935
 10
165.5651334368
 20
80.5159313487
 10
165.5294566663
 20
80.5084505087
 10
165.4936255035
 20
80.503160309
 10
165.4577195539
 20
80.5000354158
 10
165.421869811
 20
80.4990546837
  0
LWPOLYLINE
  5
294
100
AcDbEntity
  8
RACCORDO
100
AcDbPolyline
 62
250
  6
CONTINUOUS
 90
15
 70
0
 10
237.3153676158
 20
125.9055065268
 10
237.277941935
 20
125.8930698295
 10
237.2419106206
 20
125.88090388
 10
237.2075304978
 20
125.869095395
 10
237.1750466219
 20
125.8577285434
 10
237.1446905325
 20
125.8468843461
 10
237.1166786025
 20
125.8366400986
 10
237.0912104961
 20
125.8270688201
 10
237.0684677456
 20
125.8182387331
 10
237.0486124572
 20
125.8102127768
 10
237.0317861562
 20
125.8030481589
 10
237.0181087774
 20
125.7967959476
 10
237.0076778108
 20
125.7915007074
 10
237.0005676065
 20
125.7872001819
 10
236.9968288449
 20
125.7839250246
  0
LINE
  5
295
100
AcDbEntity
  8
RACCORDO
100
AcDbLine
 62
250
  6
CONTINUOUS
 10
237.3933269846
 20
125.9308362803
 11
237.3153676158
 21
125.9055065268
  0
LINE
  5
296
100
AcDbEntity
  8
RACCORDO
100
AcDbLine
 62
250
  6
CONTINUOUS
 10
237.4735699643
 20
125.9561722431
 11
237.3933269846
 21
125.9308362803
  0
LWPOLYLINE
  5
297
100
AcDbEntity
  8
0
100
AcDbPolyline
 62
7
  6
CONTINUOUS
 90
13
 70
0
 43
0.3500000006
 10
277.0630230103
 20
103.3513545227
 10
275.7773161011
 20
103.3513545227
 10
275.3487471313
 20
103.5656390076
 10
274.9201600342
 20
103.994217041
 10
274.9201600342
 20
104.2085015259
 10
275.3487471313
 20
104.6370704956
 10
275.7773161011
 20
104.8513549805
 10
277.0630230103
 20
104.8513549805
 10
277.49159198
 20
104.6370704956
 10
277.9201609497
 20
104.2085015259
 10
277.9201609497
 20
103.994217041
 10
277.49159198
 20
103.5656390076
 10
277.0630230103
 20
103.3513545227
  0
LINE
  5
298
100
AcDbEntity
  8
RACCORDO
100
AcDbLine
 62
250
  6
CONTINUOUS
 10
237.4735699644
 20
80.746541679
 11
237.3933268781
 21
80.7718776573
  0
LWPOLYLINE
  5
299
100
AcDbEntity
  8
RACCORDO
100
AcDbPolyline
 62
250
  6
CONTINUOUS
 90
16
 70
0
 10
237.3933268781
 20
80.7718776573
 10
237.3153673444
 20
80.7972074453
 10
237.2779415654
 20
80.8096441652
 10
237.2419101459
 20
80.8218101399
 10
237.2075299134
 20
80.8336186519
 10
237.1750459259
 20
80.8449855316
 10
237.1446897253
 20
80.8558297572
 10
237.1166776868
 20
80.8660740326
 10
237.0912094768
 20
80.8756453379
 10
237.0684666294
 20
80.88447545
 10
237.0486112531
 20
80.892501429
 10
237.0317848743
 20
80.8996660668
 10
237.0181074294
 20
80.9059182948
 10
237.0076764097
 20
80.9112135478
 10
237.0005661661
 20
80.915514082
 10
236.9968273795
 20
80.9187892438
  0
LWPOLYLINE
  5
29A
100
AcDbEntity
  8
RACCORDO
100
AcDbPolyline
 62
250
  6
CONTINUOUS
 90
7
 70
0
 10
165.996831601
 20
125.7839258751
 10
166.0050862872
 20
125.7550014158
 10
166.0118735511
 20
125.7256812089
 10
166.0171739712
 20
125.6960387686
 10
166.0209718178
 20
125.6661486018
 10
166.0232551068
 20
125.6360860227
 10
166.0240156439
 20
125.6059269642
  0
LWPOLYLINE
  5
29B
100
AcDbEntity
  8
RACCORDO
100
AcDbPolyline
 62
250
  6
CONTINUOUS
 90
7
 70
0
 10
166.4735699644
 20
125.9561724665
 10
166.4887102806
 20
125.9029131294
 10
166.5011117214
 20
125.8491698496
 10
166.5107742868
 20
125.7949426192
 10
166.5176979767
 20
125.7402314303
 10
166.5218827912
 20
125.6850362749
 10
166.5233287302
 20
125.6293571448
  0
LWPOLYLINE
  5
29C
100
AcDbEntity
  8
RACCORDO
100
AcDbPolyline
 62
250
  6
CONTINUOUS
 90
22
 70
0
 10
190.8667672067
 20
125.9561724665
 10
190.8884665172
 20
126.019118394
 10
190.9137507521
 20
126.0802958433
 10
190.9426199114
 20
126.1397049045
 10
190.9752327556
 20
126.1975958411
 10
191.0114305241
 20
126.2537185566
 10
191.0507369349
 20
126.3073226377
 10
191.0931244876
 20
126.3582991276
 10
191.1386206825
 20
126.406757223
 10
191.1868317394
 20
126.4522737928
 10
191.2377829564
 20
126.494851402
 10
191.2914490352
 20
126.534487726
 10
191.3473603014
 20
126.5707523241
 10
191.4056384727
 20
126.6036514124
 10
191.4661618314
 20
126.6331789966
 10
191.5280955486
 20
126.6588863352
 10
191.5915005423
 20
126.6806838761
 10
191.6563158946
 20
126.6986613484
 10
191.7215240227
 20
126.7126389278
 10
191.7867857325
 20
126.7225567052
 10
191.852440218
 20
126.7284746836
 10
191.9184874795
 20
126.7303928861
  0
LWPOLYLINE
  5
29D
100
AcDbEntity
  8
RACCORDO
100
AcDbPolyline
 62
250
  6
CONTINUOUS
 90
22
 70
0
 10
191.3435055701
 20
125.7839258751
 10
191.3553349426
 20
125.8180604724
 10
191.3692187408
 20
125.8514320402
 10
191.3851092574
 20
125.8839178492
 10
191.4029610609
 20
125.9154127314
 10
191.4227040024
 20
125.9457844729
 10
191.4442344533
 20
125.9748800169
 10
191.4674396104
 20
126.002563878
 10
191.4922555732
 20
126.0287758684
 10
191.5186458505
 20
126.0534795328
 10
191.5465273859
 20
126.0765847208
 10
191.575797735
 20
126.0979948338
 10
191.6063985361
 20
126.1176542454
 10
191.6382772638
 20
126.1355017882
 10
191.6712788642
 20
126.1514243348
 10
191.7051787278
 20
126.1653082174
 10
191.7398658618
 20
126.1771094588
 10
191.7751960527
 20
126.1867806086
 10
191.8108739517
 20
126.1942621347
 10
191.8467071635
 20
126.1995529769
 10
191.8826156274
 20
126.2026782852
 10
191.9184683293
 20
126.2036591299
  0
LWPOLYLINE
  5
29E
100
AcDbEntity
  8
RACCORDO
100
AcDbPolyline
 62
250
  6
CONTINUOUS
 90
15
 70
0
 10
120.0249696962
 20
80.7972073665
 10
120.0623954266
 20
80.8096440747
 10
120.0984267937
 20
80.8218100365
 10
120.1328069712
 20
80.8336185347
 10
120.1652909024
 20
80.8449854001
 10
120.1956470465
 20
80.8558296114
 10
120.2236590296
 20
80.8660738726
 10
120.2491271864
 20
80.8756451642
 10
120.2718699835
 20
80.8844752634
 10
120.2917253138
 20
80.8925012307
 10
120.3085516514
 20
80.8996658582
 10
120.3222290606
 20
80.9059180775
 10
120.3326600509
 20
80.9112133237
 10
120.3397702718
 20
80.9155138531
 10
120.3435090426
 20
80.9187890121
  0
LINE
  5
29F
100
AcDbEntity
  8
RACCORDO
100
AcDbLine
 62
250
  6
CONTINUOUS
 10
119.947010243
 20
80.7718775965
 11
120.0249696962
 21
80.7972073665
  0
LINE
  5
2A0
100
AcDbEntity
  8
RACCORDO
100
AcDbLine
 62
250
  6
CONTINUOUS
 10
119.8667672068
 20
80.746541627
 11
119.947010243
 21
80.7718775965
  0
LINE
  5
2A1
100
AcDbEntity
  8
RACCORDO
100
AcDbLine
 62
250
  6
CONTINUOUS
 10
119.8667672066
 20
125.9561721624
 11
119.9470102702
 21
125.9308361869
  0
LWPOLYLINE
  5
2A2
100
AcDbEntity
  8
RACCORDO
100
AcDbPolyline
 62
250
  6
CONTINUOUS
 90
16
 70
0
 10
119.9470102702
 20
125.9308361869
 10
120.0249697697
 20
125.9055064055
 10
120.0623955286
 20
125.8930696899
 10
120.0984269266
 20
125.8809037201
 10
120.1328071369
 20
125.8690952133
 10
120.1652911018
 20
125.8577283391
 10
120.1956472801
 20
125.8468841189
 10
120.2236592969
 20
125.8366398488
 10
120.2491274863
 20
125.8270685486
 10
120.2718703146
 20
125.8182384413
 10
120.2917256737
 20
125.8102124665
 10
120.3085520375
 20
125.8030478324
 10
120.3222294698
 20
125.7967956074
 10
120.3326604797
 20
125.7915003566
 10
120.3397707163
 20
125.7871998236
 10
120.3435094989
 20
125.7839246622
  0
LWPOLYLINE
  5
2A3
100
AcDbEntity
  8
RACCORDO
100
AcDbPolyline
 62
250
  6
CONTINUOUS
 90
7
 70
0
 10
191.3435055701
 20
80.9187879407
 10
191.3352914822
 20
80.9475548722
 10
191.3285158875
 20
80.9767775384
 10
191.3232075542
 20
81.0063853135
 10
191.319391818
 20
81.036305632
 10
191.3170904495
 20
81.0664641516
 10
191.3163215277
 20
81.0967849238
  0
LWPOLYLINE
  5
2A4
100
AcDbEntity
  8
RACCORDO
100
AcDbPolyline
 62
250
  6
CONTINUOUS
 90
7
 70
0
 10
190.8667672067
 20
80.7465413493
 10
190.8516894859
 20
80.7993897113
 10
190.8393256025
 20
80.852886402
 10
190.8296755562
 20
80.9070314324
 10
190.8227393472
 20
80.9618248133
 10
190.8185169754
 20
81.0172665558
 10
190.8170084408
 20
81.073356671
  0
LWPOLYLINE
  5
2A5
100
AcDbEntity
  8
RACCORDO
100
AcDbPolyline
 62
7
  6
CONTINUOUS
 90
25
 70
0
 10
191.3701685679
 20
81.150513596
 10
191.371470111
 20
81.1112759207
 10
191.3752823888
 20
81.0724884224
 10
191.3816054011
 20
81.0341510958
 10
191.3904905341
 20
80.9960845402
 10
191.4018864016
 20
80.9584681467
 10
191.4156388455
 20
80.9218400905
 10
191.4317474203
 20
80.8862649183
 10
191.4502125715
 20
80.8516780594
 10
191.4708814775
 20
80.8184240019
 10
191.4938214479
 20
80.7864543125
 10
191.5189651731
 20
80.7558173959
 10
191.5459579026
 20
80.7270029893
 10
191.5748519316
 20
80.7000474051
 10
191.6055949651
 20
80.6749142965
 10
191.6376753677
 20
80.6519844049
 10
191.6710399188
 20
80.6313338837
 10
191.705741839
 20
80.6128865467
 10
191.7414291552
 20
80.5967946246
 10
191.7781555342
 20
80.5830589931
 10
191.8158673092
 20
80.5716787526
 10
191.8540515061
 20
80.5628034725
 10
191.8925371337
 20
80.5564830047
 10
191.9314951832
 20
80.5526674843
 10
191.9709256548
 20
80.5513569079
  0
LINE
  5
2A6
100
AcDbEntity
  8
RACCORDO
100
AcDbLine
 62
250
  6
CONTINUOUS
 10
190.8170084408
 20
81.073356671
 11
190.8170084408
 21
125.6293571448
  0
LINE
  5
2A7
100
AcDbEntity
  8
RACCORDO
100
AcDbLine
 62
250
  6
CONTINUOUS
 10
191.3163215041
 20
81.0967849007
 11
191.3163215053
 21
125.6059269428
  0
LINE
  5
2A8
100
AcDbEntity
  8
RACCORDO
100
AcDbLine
 62
7
  6
CONTINUOUS
 10
191.3701685679
 20
125.5522002198
 11
191.3701685679
 21
81.150513596
  0
LINE
  5
2A9
100
AcDbEntity
  8
RACCORDO
100
AcDbLine
 62
250
  6
CONTINUOUS
 10
191.9184874795
 20
126.7303928861
 11
191.9184874795
 21
126.2036590867
  0
LINE
  5
2AA
100
AcDbEntity
  8
RACCORDO
100
AcDbLine
 62
250
  6
CONTINUOUS
 10
191.9184874795
 20
79.9723209297
 11
191.9184874792
 21
80.4990547291
  0
LWPOLYLINE
  5
2AB
100
AcDbEntity
  8
RACCORDO
100
AcDbPolyline
 62
250
  6
CONTINUOUS
 90
7
 70
0
 10
191.3163215271
 20
125.6059269215
 10
191.3170820652
 20
125.636086041
 10
191.3193653591
 20
125.6661486593
 10
191.3231632113
 20
125.6960388434
 10
191.3284636344
 20
125.7256812795
 10
191.3352508955
 20
125.7550014612
 10
191.3435055701
 20
125.7839258751
  0
LWPOLYLINE
  5
2AC
100
AcDbEntity
  8
RACCORDO
100
AcDbPolyline
 62
250
  6
CONTINUOUS
 90
7
 70
0
 10
190.8170084408
 20
125.6293571448
 10
190.8184543752
 20
125.6850362534
 10
190.8226391868
 20
125.740231396
 10
190.8295628758
 20
125.7949425807
 10
190.8392254421
 20
125.8491698153
 10
190.8516268857
 20
125.9029131079
 10
190.8667672067
 20
125.9561724665
  0
LWPOLYLINE
  5
2AD
100
AcDbEntity
  8
RACCORDO
100
AcDbPolyline
 62
250
  6
CONTINUOUS
 90
16
 70
0
 10
237.3981439299
 20
125.6285694964
 10
237.3578037811
 20
125.6279623595
 10
237.3186407429
 20
125.6271891111
 10
237.2809333186
 20
125.6262552501
 10
237.2449496598
 20
125.6251674175
 10
237.21094566
 20
125.6239333493
 10
237.1791631345
 20
125.6225618214
 10
237.149828101
 20
125.6210625873
 10
237.1231491719
 20
125.6194463086
 10
237.0993160712
 20
125.6177244793
 10
237.0784982852
 20
125.615909344
 10
237.0608438569
 20
125.6140138107
 10
237.0464783338
 20
125.6120513594
 10
237.0355038744
 20
125.6100359457
 10
237.0279985224
 20
125.607981902
 10
237.0240156511
 20
125.6059038355
  0
LWPOLYLINE
  5
2AE
100
AcDbEntity
  8
RACCORDO
100
AcDbPolyline
 62
250
  6
CONTINUOUS
 90
17
 70
0
 10
119.8591355054
 20
125.6292692425
 10
119.942193504
 20
125.6285693905
 10
119.9825337757
 20
125.6279622668
 10
120.0216969486
 20
125.6271890308
 10
120.0594045162
 20
125.6262551812
 10
120.0953883232
 20
125.6251673591
 10
120.1293924728
 20
125.6239333004
 10
120.1611751465
 20
125.6225617812
 10
120.1905103234
 20
125.6210625549
 10
120.2171893883
 20
125.6194462831
 10
120.2410226144
 20
125.61772446
 10
120.2618405132
 20
125.61590933
 10
120.2794950392
 20
125.6140138015
 10
120.2938606434
 20
125.6120513544
 10
120.3048351656
 20
125.6100359444
 10
120.3123405611
 20
125.6079819041
 10
120.3163234557
 20
125.6059038407
  0
LINE
  5
2AF
100
AcDbEntity
  8
RACCORDO
100
AcDbLine
 62
250
  6
CONTINUOUS
 10
259.0595158104
 20
147.4417145308
 11
259.1701658643
 21
147.5542171292
  0
LINE
  5
2B0
100
AcDbEntity
  8
RACCORDO
100
AcDbLine
 62
250
  6
CONTINUOUS
 10
258.2673532853
 20
148.230693008
 11
258.3859300409
 21
148.3512016282
  0
LINE
  5
2B1
100
AcDbEntity
  8
RACCORDO
100
AcDbLine
 62
250
  6
CONTINUOUS
 10
191.3163215041
 20
81.0967849007
 11
191.3701685679
 21
81.150513596
  0
LINE
  5
2B2
100
AcDbEntity
  8
RACCORDO
100
AcDbLine
 62
250
  6
CONTINUOUS
 10
236.9701686032
 20
125.5522002198
 11
237.0240156657
 21
125.6059269855
  0
LINE
  5
2B3
100
AcDbEntity
  8
RACCORDO
100
AcDbLine
 62
250
  6
CONTINUOUS
 10
236.3694115163
 20
126.1513569079
 11
236.4218688532
 21
126.2036590867
  0
LINE
  5
2B4
100
AcDbEntity
  8
RACCORDO
100
AcDbLine
 62
250
  6
CONTINUOUS
 10
191.9184626199
 20
80.4990547291
 11
191.9709256548
 21
80.5513569079
  0
LWPOLYLINE
  5
2B5
100
AcDbEntity
  8
RACCORDO
100
AcDbPolyline
 62
250
  6
CONTINUOUS
 90
15
 70
0
 10
191.0249696962
 20
80.7972073665
 10
191.0623954266
 20
80.8096440747
 10
191.0984267937
 20
80.8218100365
 10
191.1328069712
 20
80.8336185347
 10
191.1652909024
 20
80.8449854001
 10
191.1956470465
 20
80.8558296114
 10
191.2236590296
 20
80.8660738726
 10
191.2491271864
 20
80.8756451642
 10
191.2718699835
 20
80.8844752634
 10
191.2917253138
 20
80.8925012307
 10
191.3085516514
 20
80.8996658582
 10
191.3222290606
 20
80.9059180775
 10
191.3326600509
 20
80.9112133237
 10
191.3397702718
 20
80.9155138531
 10
191.3435090426
 20
80.9187890121
  0
LINE
  5
2B6
100
AcDbEntity
  8
RACCORDO
100
AcDbLine
 62
250
  6
CONTINUOUS
 10
190.947010243
 20
80.7718775965
 11
191.0249696962
 21
80.7972073665
  0
LINE
  5
2B7
100
AcDbEntity
  8
RACCORDO
100
AcDbLine
 62
250
  6
CONTINUOUS
 10
190.8667672068
 20
80.746541627
 11
190.947010243
 21
80.7718775965
  0
LWPOLYLINE
  5
2B8
100
AcDbEntity
  8
RACCORDO
100
AcDbPolyline
 62
7
  6
CONTINUOUS
 90
25
 70
0
 10
191.9709256548
 20
126.1513569079
 10
191.931521875
 20
126.1500531345
 10
191.8925755768
 20
126.146239938
 10
191.8540867603
 20
126.139917315
 10
191.8158752213
 20
126.1310329
 10
191.7781211638
 20
126.1196390455
 10
191.7413652007
 20
126.1058928229
 10
191.7056722271
 20
126.0897944466
 10
191.6709773479
 20
126.0713436785
 10
191.6376264898
 20
126.0506969094
 10
191.6055716235
 20
126.027786735
 10
191.5748607782
 20
126.002680527
 10
191.5459839693
 20
125.9757368418
 10
191.5189788219
 20
125.9469046212
 10
191.4938077109
 20
125.9162348887
 10
191.4708477758
 20
125.8842393304
 10
191.4501752792
 20
125.8509717905
 10
191.4317139586
 20
125.8163783965
 10
191.4156121658
 20
125.7808092685
 10
191.401870449
 20
125.7442108704
 10
191.3904882599
 20
125.7066367149
 10
191.3816123065
 20
125.6685975055
 10
191.3752914914
 20
125.6302634759
 10
191.3714769118
 20
125.5914643826
 10
191.3701685679
 20
125.5522002198
  0
LWPOLYLINE
  5
2B9
100
AcDbEntity
  8
RACCORDO
100
AcDbPolyline
 62
7
  6
CONTINUOUS
 90
25
 70
0
 10
120.9709256548
 20
126.1513569079
 10
120.931521875
 20
126.1500531345
 10
120.8925755768
 20
126.146239938
 10
120.8540867603
 20
126.139917315
 10
120.8158752213
 20
126.1310329
 10
120.7781211638
 20
126.1196390455
 10
120.7413652007
 20
126.1058928229
 10
120.7056722271
 20
126.0897944466
 10
120.6709773479
 20
126.0713436785
 10
120.6376264898
 20
126.0506969094
 10
120.6055716235
 20
126.027786735
 10
120.5748607782
 20
126.002680527
 10
120.5459839693
 20
125.9757368418
 10
120.5189788219
 20
125.9469046212
 10
120.4938077109
 20
125.9162348887
 10
120.4708477758
 20
125.8842393304
 10
120.4501752792
 20
125.8509717905
 10
120.4317139586
 20
125.8163783965
 10
120.4156121658
 20
125.7808092685
 10
120.401870449
 20
125.7442108704
 10
120.3904882599
 20
125.7066367149
 10
120.3816123065
 20
125.6685975055
 10
120.3752914914
 20
125.6302634759
 10
120.3714769118
 20
125.5914643826
 10
120.3701685679
 20
125.5522002198
  0
LWPOLYLINE
  5
2BA
100
AcDbEntity
  8
RACCORDO
100
AcDbPolyline
 62
250
  6
CONTINUOUS
 90
16
 70
0
 10
166.3981439299
 20
125.6285694964
 10
166.3578037811
 20
125.6279623595
 10
166.3186407429
 20
125.6271891111
 10
166.2809333186
 20
125.6262552501
 10
166.2449496598
 20
125.6251674175
 10
166.21094566
 20
125.6239333493
 10
166.1791631345
 20
125.6225618214
 10
166.149828101
 20
125.6210625873
 10
166.1231491719
 20
125.6194463086
 10
166.0993160712
 20
125.6177244793
 10
166.0784982852
 20
125.615909344
 10
166.0608438569
 20
125.6140138107
 10
166.0464783338
 20
125.6120513594
 10
166.0355038744
 20
125.6100359457
 10
166.0279985224
 20
125.607981902
 10
166.0240156511
 20
125.6059038355
  0
LWPOLYLINE
  5
2BB
100
AcDbEntity
  8
RACCORDO
100
AcDbPolyline
 62
250
  6
CONTINUOUS
 90
3
 70
0
 10
98.6548392472
 20
125.8928757954
 10
98.7360425651
 20
125.8935514171
 10
98.7772020514
 20
125.8936359245
  0
LINE
  5
2BC
100
AcDbEntity
  8
RACCORDO
100
AcDbLine
 62
250
  6
CONTINUOUS
 10
98.6548407971
 20
125.955412766
 11
98.7360440249
 21
125.9560885769
  0
LWPOLYLINE
  5
2BD
100
AcDbEntity
  8
RACCORDO
100
AcDbPolyline
 62
250
  6
CONTINUOUS
 90
3
 70
0
 10
237.5233287302
 20
125.6293571444
 10
237.4812017322
 20
125.6292693774
 10
237.3981439299
 20
125.6285694964
  0
LWPOLYLINE
  5
2BE
100
AcDbEntity
  8
RACCORDO
100
AcDbPolyline
 62
250
  6
CONTINUOUS
 90
3
 70
0
 10
166.5233287302
 20
125.6293571444
 10
166.4812017322
 20
125.6292693774
 10
166.3981439299
 20
125.6285694964
  0
LINE
  5
2BF
100
AcDbEntity
  8
RACCORDO
100
AcDbLine
 62
250
  6
CONTINUOUS
 10
259.1701685855
 20
125.8707764966
 11
259.061227683
 21
125.8707764966
  0
LINE
  5
2C0
100
AcDbEntity
  8
RACCORDO
100
AcDbLine
 62
250
  6
CONTINUOUS
 10
98.1701685855
 20
125.8707764966
 11
98.2791094881
 21
125.8707807385
  0
LINE
  5
2C1
100
AcDbEntity
  8
RACCORDO
100
AcDbLine
 62
250
  6
CONTINUOUS
 10
190.8667672067
 20
125.9561724665
 11
166.4735699644
 21
125.9561724665
  0
LINE
  5
2C2
100
AcDbEntity
  8
RACCORDO
100
AcDbLine
 62
250
  6
CONTINUOUS
 10
119.8667672067
 20
125.9561724664
 11
98.7360440249
 21
125.9560885769
  0
LINE
  5
2C3
100
AcDbEntity
  8
RACCORDO
100
AcDbLine
 62
7
  6
CONTINUOUS
 10
236.3694115163
 20
126.1513569079
 11
191.9709256548
 21
126.1513569079
  0
LINE
  5
2C4
100
AcDbEntity
  8
RACCORDO
100
AcDbLine
 62
7
  6
CONTINUOUS
 10
165.3694115163
 20
126.1513569079
 11
120.9709256548
 21
126.1513569079
  0
LINE
  5
2C5
100
AcDbEntity
  8
RACCORDO
100
AcDbLine
 62
250
  6
CONTINUOUS
 10
120.9184683729
 20
126.2036590867
 11
165.4218688532
 21
126.2036590867
  0
LINE
  5
2C6
100
AcDbEntity
  8
RACCORDO
100
AcDbLine
 62
250
  6
CONTINUOUS
 10
191.9184683729
 20
126.2036590867
 11
236.4218688532
 21
126.2036590867
  0
LINE
  5
2C7
100
AcDbEntity
  8
RACCORDO
100
AcDbLine
 62
250
  6
CONTINUOUS
 10
120.9184874795
 20
126.7303928861
 11
165.4218496916
 21
126.7303928861
  0
LINE
  5
2C8
100
AcDbEntity
  8
RACCORDO
100
AcDbLine
 62
250
  6
CONTINUOUS
 10
191.9184874795
 20
126.7303928861
 11
236.4218496916
 21
126.7303928861
  0
LINE
  5
2C9
100
AcDbEntity
  8
RACCORDO
100
AcDbLine
 62
250
  6
CONTINUOUS
 10
119.8170084408
 20
125.6293569939
 11
119.8591355054
 21
125.6292692425
  0
LINE
  5
2CA
100
AcDbEntity
  8
RACCORDO
100
AcDbLine
 62
250
  6
CONTINUOUS
 10
258.6042931476
 20
125.9560885781
 11
237.4735699644
 21
125.9561724664
  0
LWPOLYLINE
  5
2CB
100
AcDbEntity
  8
RACCORDO
100
AcDbPolyline
 62
250
  6
CONTINUOUS
 90
18
 70
0
 10
190.8170084408
 20
125.6293569939
 10
190.9009630111
 20
125.6290060842
 10
190.942193504
 20
125.6285693905
 10
190.9825337757
 20
125.6279622668
 10
191.0216969486
 20
125.6271890308
 10
191.0594045162
 20
125.6262551812
 10
191.0953883232
 20
125.6251673591
 10
191.1293924728
 20
125.6239333004
 10
191.1611751465
 20
125.6225617812
 10
191.1905103234
 20
125.6210625549
 10
191.2171893883
 20
125.6194462831
 10
191.2410226144
 20
125.61772446
 10
191.2618405132
 20
125.61590933
 10
191.2794950392
 20
125.6140138015
 10
191.2938606434
 20
125.6120513544
 10
191.3048351656
 20
125.6100359444
 10
191.3123405611
 20
125.6079819041
 10
191.3163234557
 20
125.6059038407
  0
LWPOLYLINE
  5
2CC
100
AcDbEntity
  8
RACCORDO
100
AcDbPolyline
 62
250
  6
CONTINUOUS
 90
22
 70
0
 10
165.4218688969
 20
126.20365913
 10
165.457721558
 20
126.2026782843
 10
165.4936299904
 20
126.1995529787
 10
165.5294631803
 20
126.1942621414
 10
165.5651410685
 20
126.1867806205
 10
165.600471258
 20
126.1771094745
 10
165.6351583951
 20
126.1653082356
 10
165.6690582658
 20
126.1514243532
 10
165.7020598771
 20
126.1355018039
 10
165.7339386159
 20
126.1176542568
 10
165.7645394276
 20
126.0979948396
 10
165.793809787
 20
126.0765847194
 10
165.82169133
 20
126.0534795245
 10
165.848081611
 20
126.0287758553
 10
165.8728975754
 20
126.0025638614
 10
165.8961027337
 20
125.9748799966
 10
165.9176331871
 20
125.9457844464
 10
165.9373761302
 20
125.9154126983
 10
165.955227932
 20
125.8839178144
 10
165.9711184435
 20
125.851432011
 10
165.9850022353
 20
125.8180604547
 10
165.996831601
 20
125.7839258751
  0
LWPOLYLINE
  5
2CD
100
AcDbEntity
  8
RACCORDO
100
AcDbPolyline
 62
250
  6
CONTINUOUS
 90
22
 70
0
 10
236.4218688969
 20
126.20365913
 10
236.457721558
 20
126.2026782843
 10
236.4936299904
 20
126.1995529787
 10
236.5294631803
 20
126.1942621414
 10
236.5651410685
 20
126.1867806205
 10
236.600471258
 20
126.1771094745
 10
236.6351583951
 20
126.1653082356
 10
236.6690582658
 20
126.1514243532
 10
236.7020598771
 20
126.1355018039
 10
236.7339386159
 20
126.1176542568
 10
236.7645394276
 20
126.0979948396
 10
236.793809787
 20
126.0765847194
 10
236.82169133
 20
126.0534795245
 10
236.848081611
 20
126.0287758553
 10
236.8728975754
 20
126.0025638614
 10
236.8961027337
 20
125.9748799966
 10
236.9176331871
 20
125.9457844464
 10
236.9373761302
 20
125.9154126983
 10
236.955227932
 20
125.8839178144
 10
236.9711184435
 20
125.851432011
 10
236.9850022353
 20
125.8180604547
 10
236.996831601
 20
125.7839258751
  0
LWPOLYLINE
  5
2CE
100
AcDbEntity
  8
RACCORDO
100
AcDbPolyline
 62
250
  6
CONTINUOUS
 90
22
 70
0
 10
165.4218496916
 20
126.7303928861
 10
165.487896908
 20
126.7284746909
 10
165.5535513587
 20
126.7225567197
 10
165.6188130437
 20
126.7126389494
 10
165.6840211586
 20
126.6986613774
 10
165.7488365078
 20
126.6806839124
 10
165.8122415046
 20
126.6588863772
 10
165.8741752313
 20
126.6331790428
 10
165.9346986056
 20
126.6036514612
 10
165.9929767935
 20
126.5707523719
 10
166.0488880768
 20
126.5344877669
 10
166.1025541737
 20
126.4948514325
 10
166.1535054053
 20
126.4522738146
 10
166.2017164718
 20
126.4067572394
 10
166.2472126731
 20
126.3582991404
 10
166.2896002294
 20
126.3073226487
 10
166.3289066402
 20
126.2537185691
 10
166.365104406
 20
126.1975958572
 10
166.3977172491
 20
126.1397049215
 10
166.4265864103
 20
126.0802958572
 10
166.4518706487
 20
126.0191184022
 10
166.4735699644
 20
125.9561724665
  0
LWPOLYLINE
  5
2CF
100
AcDbEntity
  8
RACCORDO
100
AcDbPolyline
 62
250
  6
CONTINUOUS
 90
22
 70
0
 10
236.4218496916
 20
126.7303928861
 10
236.487896908
 20
126.7284746909
 10
236.5535513587
 20
126.7225567197
 10
236.6188130437
 20
126.7126389494
 10
236.6840211586
 20
126.6986613774
 10
236.7488365078
 20
126.6806839124
 10
236.8122415046
 20
126.6588863772
 10
236.8741752313
 20
126.6331790428
 10
236.9346986056
 20
126.6036514612
 10
236.9929767935
 20
126.5707523719
 10
237.0488880768
 20
126.5344877669
 10
237.1025541737
 20
126.4948514325
 10
237.1535054053
 20
126.4522738146
 10
237.2017164719
 20
126.4067572394
 10
237.2472126731
 20
126.3582991404
 10
237.2896002294
 20
126.3073226486
 10
237.3289066402
 20
126.2537185691
 10
237.365104406
 20
126.1975958572
 10
237.3977172491
 20
126.1397049215
 10
237.4265864103
 20
126.0802958572
 10
237.4518706487
 20
126.0191184022
 10
237.4735699644
 20
125.9561724664
  0
LINE
  5
2D0
100
AcDbEntity
  8
RACCORDO
100
AcDbLine
 62
250
  6
CONTINUOUS
 10
190.8667672066
 20
125.9561721624
 11
190.9470102702
 21
125.9308361869
  0
LWPOLYLINE
  5
2D1
100
AcDbEntity
  8
RACCORDO
100
AcDbPolyline
 62
250
  6
CONTINUOUS
 90
16
 70
0
 10
190.9470102702
 20
125.9308361869
 10
191.0249697697
 20
125.9055064055
 10
191.0623955286
 20
125.8930696899
 10
191.0984269266
 20
125.8809037201
 10
191.1328071369
 20
125.8690952133
 10
191.1652911018
 20
125.8577283391
 10
191.1956472801
 20
125.8468841189
 10
191.2236592969
 20
125.8366398488
 10
191.2491274863
 20
125.8270685486
 10
191.2718703146
 20
125.8182384413
 10
191.2917256737
 20
125.8102124665
 10
191.3085520375
 20
125.8030478324
 10
191.3222294698
 20
125.7967956074
 10
191.3326604797
 20
125.7915003566
 10
191.3397707163
 20
125.7871998236
 10
191.3435094989
 20
125.7839246622
  0
LINE
  5
2D2
100
AcDbEntity
  8
RACCORDO
100
AcDbLine
 62
250
  6
CONTINUOUS
 10
236.4218697651
 20
80.4990547291
 11
236.3694115163
 21
80.5513569079
  0
LINE
  5
2D3
100
AcDbEntity
  8
RACCORDO
100
AcDbLine
 62
250
  6
CONTINUOUS
 10
191.9184683729
 20
126.2036590867
 11
191.9709256548
 21
126.1513569079
  0
LINE
  5
2D4
100
AcDbEntity
  8
RACCORDO
100
AcDbLine
 62
250
  6
CONTINUOUS
 10
191.3163215053
 20
125.6059269428
 11
191.3701685679
 21
125.5522002198
  0
LINE
  5
2D5
100
AcDbEntity
  8
RACCORDO
100
AcDbLine
 62
250
  6
CONTINUOUS
 10
237.0240156655
 20
81.0967872017
 11
236.9701686032
 21
81.150513596
  0
LINE
  5
2D6
100
AcDbEntity
  8
RACCORDO
100
AcDbLine
 62
250
  6
CONTINUOUS
 10
258.2673532853
 20
58.4720208077
 11
258.3859300409
 21
58.3515121876
  0
LINE
  5
2D7
100
AcDbEntity
  8
RACCORDO
100
AcDbLine
 62
250
  6
CONTINUOUS
 10
259.0595158104
 20
59.2609992848
 11
259.1701658643
 21
59.1484966866
  0
LWPOLYLINE
  5
2D8
100
AcDbEntity
  8
RACCORDO
100
AcDbPolyline
 62
250
  6
CONTINUOUS
 90
16
 70
0
 10
259.061227683
 20
80.8319373192
 10
259.0559453881
 20
80.8298908265
 10
259.0473179305
 20
80.8278731029
 10
259.0354038727
 20
80.8258978447
 10
259.0202840866
 20
80.8239784597
 10
259.0020612043
 20
80.8221279767
 10
258.9808589214
 20
80.8203589565
 10
258.9568211577
 20
80.8186834072
 10
258.9301110798
 20
80.8171127023
 10
258.900909994
 20
80.8156575036
 10
258.8694161152
 20
80.8143276889
 10
258.8358432217
 20
80.8131322849
 10
258.8004192041
 20
80.8120794059
 10
258.7633845182
 20
80.8111761988
 10
258.7249905529
 20
80.8104287945
 10
258.685497924
 20
80.8098422663
  0
LINE
  5
2D9
100
AcDbEntity
  8
RACCORDO
100
AcDbLine
 62
250
  6
CONTINUOUS
 10
99.0729838858
 20
147.8227444003
 11
258.2673532853
 21
147.8227444003
  0
LINE
  5
2DA
100
AcDbEntity
  8
RACCORDO
100
AcDbLine
 62
250
  6
CONTINUOUS
 10
99.0729838858
 20
148.230693008
 11
258.2673532853
 21
148.230693008
  0
LINE
  5
2DB
100
AcDbEntity
  8
RACCORDO
100
AcDbLine
 62
7
  6
CONTINUOUS
 10
98.9701685855
 20
148.3513569079
 11
258.3701685855
 21
148.3513569079
  0
LWPOLYLINE
  5
2DC
100
AcDbEntity
  8
RACCORDO
100
AcDbPolyline
 62
250
  6
CONTINUOUS
 90
28
 70
0
 10
258.2673532853
 20
147.8227444003
 10
258.2846030679
 20
147.82223336
 10
258.3016696445
 20
147.8207370895
 10
258.3185530152
 20
147.8182555837
 10
258.3353057115
 20
147.8147762178
 10
258.3518752018
 20
147.810311597
 10
258.3681038918
 20
147.8048995582
 10
258.3839931253
 20
147.7985288472
 10
258.3995415584
 20
147.7912106808
 10
258.4145875651
 20
147.7830165997
 10
258.4291226176
 20
147.7739391817
 10
258.4431552437
 20
147.7639857987
 10
258.4565494007
 20
147.7532501834
 10
258.4693005261
 20
147.7417233163
 10
258.4814131825
 20
147.729414159
 10
258.492765015
 20
147.7164434206
 10
258.5033478957
 20
147.7028049558
 10
258.5131699524
 20
147.6885048516
 10
258.5221332147
 20
147.6736821743
 10
258.5302293109
 20
147.6583314765
 10
258.5374666127
 20
147.6424581536
 10
258.5437722638
 20
147.6262175494
 10
258.5491373166
 20
147.6096008809
 10
258.5535707188
 20
147.5926168913
 10
258.5570264576
 20
147.575447232
 10
258.5594891956
 20
147.5581524511
 10
258.5609742702
 20
147.5406719821
 10
258.5614816815
 20
147.5230058144
  0
LWPOLYLINE
  5
2DD
100
AcDbEntity
  8
RACCORDO
100
AcDbPolyline
 62
250
  6
CONTINUOUS
 90
28
 70
0
 10
258.2673532853
 20
148.230693008
 10
258.3130788795
 20
148.2291624794
 10
258.3586037188
 20
148.2250045506
 10
258.4037794897
 20
148.2182378226
 10
258.4484407722
 20
148.2088938223
 10
258.4924619172
 20
148.1970054035
 10
258.5357547266
 20
148.1825960411
 10
258.578202214
 20
148.1656964333
 10
258.6196365832
 20
148.146365381
 10
258.6598963365
 20
148.1246755491
 10
258.698838817
 20
148.1007036666
 10
258.7363469327
 20
148.0745224058
 10
258.7723049111
 20
148.0462125605
 10
258.8065944936
 20
148.0158633461
 10
258.8391001423
 20
147.9835736889
 10
258.869716911
 20
147.9494475005
 10
258.8983415843
 20
147.9135945261
 10
258.9248779333
 20
147.8761302716
 10
258.9492401908
 20
147.8371752784
 10
258.971345695
 20
147.7968530708
 10
258.9911172273
 20
147.7552959674
 10
259.0084880191
 20
147.7126445884
 10
259.0233966053
 20
147.6690401924
 10
259.0357917776
 20
147.6246220614
 10
259.0456336481
 20
147.5795327732
 10
259.0528866401
 20
147.5339185274
 10
259.0575206693
 20
147.4879289576
 10
259.0595158105
 20
147.441714531
  0
LWPOLYLINE
  5
2DE
100
AcDbEntity
  8
RACCORDO
100
AcDbPolyline
 62
250
  6
CONTINUOUS
 90
18
 70
0
 10
259.0612276825
 20
125.8707764966
 10
259.0559453872
 20
125.8728229893
 10
259.0473179292
 20
125.8748407129
 10
259.0354038711
 20
125.8768159711
 10
259.0202840848
 20
125.878735356
 10
259.0020612023
 20
125.880585839
 10
258.9808589194
 20
125.8823548592
 10
258.9568211556
 20
125.8840304085
 10
258.9301110777
 20
125.8856011134
 10
258.9009099919
 20
125.887056312
 10
258.8694161132
 20
125.8883861267
 10
258.8358432199
 20
125.8895815307
 10
258.8004192024
 20
125.8906344097
 10
258.7633845168
 20
125.8915376168
 10
258.7249905518
 20
125.892285021
 10
258.6854979231
 20
125.8928715492
 10
258.6451747039
 20
125.8932932199
 10
258.5631351197
 20
125.8936316783
  0
LWPOLYLINE
  5
2DF
100
AcDbEntity
  8
RACCORDO
100
AcDbPolyline
 62
250
  6
CONTINUOUS
 90
16
 70
0
 10
259.0612261968
 20
80.7694495713
 10
259.0559438411
 20
80.7673975131
 10
259.0473163311
 20
80.7653743734
 10
259.0354022298
 20
80.7633938852
 10
259.0202824089
 20
80.7614694919
 10
259.0020595006
 20
80.759614256
 10
258.9808572006
 20
80.7578407708
 10
258.9568194281
 20
80.7561610745
 10
258.9301093497
 20
80.7545865688
 10
258.9009082712
 20
80.7531279412
 10
258.869414407
 20
80.7517950929
 10
258.8358415348
 20
80.7505970711
 10
258.8004175445
 20
80.7495420078
 10
258.7633828913
 20
80.7486370647
 10
258.7249889633
 20
80.7478883846
 10
258.6854963752
 20
80.7473010494
  0
LWPOLYLINE
  5
2E0
100
AcDbEntity
  8
RACCORDO
100
AcDbPolyline
 62
250
  6
CONTINUOUS
 90
17
 70
0
 10
259.0612261981
 20
125.9332642445
 10
259.0559438436
 20
125.9353163028
 10
259.0473163347
 20
125.9373394425
 10
259.0354022342
 20
125.9393199307
 10
259.0202824141
 20
125.9412443241
 10
259.0020595064
 20
125.9430995601
 10
258.9808572067
 20
125.9448730454
 10
258.9568194344
 20
125.9465527417
 10
258.9301093561
 20
125.9481272475
 10
258.9009082774
 20
125.9495858751
 10
258.8694144129
 20
125.9509187235
 10
258.8358415403
 20
125.9521167454
 10
258.8004175495
 20
125.9531718087
 10
258.7633828956
 20
125.9540767518
 10
258.7249889669
 20
125.954825432
 10
258.685496378
 20
125.9554127672
 10
258.6042931476
 20
125.9560885781
  0
LWPOLYLINE
  5
2E1
100
AcDbEntity
  8
RACCORDO
100
AcDbPolyline
 62
7
  6
CONTINUOUS
 90
25
 70
0
 10
236.9701686032
 20
125.5522002198
 10
236.9688602541
 20
125.5914644022
 10
236.9650456729
 20
125.6302635038
 10
236.9587248596
 20
125.6685975304
 10
236.9498489135
 20
125.7066367182
 10
236.9384667354
 20
125.7442108407
 10
236.924725027
 20
125.7808092158
 10
236.9086232395
 20
125.8163783395
 10
236.8901619217
 20
125.8509717393
 10
236.869489422
 20
125.8842392904
 10
236.8465294707
 20
125.9162348696
 10
236.8213583374
 20
125.9469046285
 10
236.7943531803
 20
125.9757368633
 10
236.7654763861
 20
126.0026805382
 10
236.7347655679
 20
126.0277867237
 10
236.7027107228
 20
126.0506968817
 10
236.6693598759
 20
126.0713436478
 10
236.6346650021
 20
126.0897944192
 10
236.5989720232
 20
126.1058928011
 10
236.5622160344
 20
126.1196390327
 10
236.5244619404
 20
126.1310328988
 10
236.4862503779
 20
126.1399173215
 10
236.4477615592
 20
126.1462399461
 10
236.408815272
 20
126.1500531405
 10
236.3694115163
 20
126.1513569079
  0
LINE
  5
2E2
100
AcDbEntity
  8
RACCORDO
100
AcDbLine
 62
250
  6
CONTINUOUS
 10
236.4218496916
 20
126.7303928861
 11
236.4218496916
 21
126.2036590867
  0
LINE
  5
2E3
100
AcDbEntity
  8
RACCORDO
100
AcDbLine
 62
250
  6
CONTINUOUS
 10
236.4218496916
 20
79.9723209297
 11
236.4218496916
 21
80.4990547291
  0
LINE
  5
2E4
100
AcDbEntity
  8
RACCORDO
100
AcDbLine
 62
7
  6
CONTINUOUS
 10
236.9701686032
 20
81.150513596
 11
236.9701686032
 21
125.5522002198
  0
LINE
  5
2E5
100
AcDbEntity
  8
RACCORDO
100
AcDbLine
 62
250
  6
CONTINUOUS
 10
237.0240156657
 20
125.6059269855
 11
237.0240156655
 21
81.0967872017
  0
LINE
  5
2E6
100
AcDbEntity
  8
RACCORDO
100
AcDbLine
 62
250
  6
CONTINUOUS
 10
237.5233287302
 20
125.6293571448
 11
237.5233287302
 21
81.073356671
  0
LWPOLYLINE
  5
2E7
100
AcDbEntity
  8
RACCORDO
100
AcDbPolyline
 62
250
  6
CONTINUOUS
 90
7
 70
0
 10
237.024015644
 20
81.0967872227
 10
237.0232548557
 20
81.066622883
 10
237.0209709964
 20
81.0365571405
 10
237.0171725775
 20
81.0066659292
 10
237.0118718983
 20
80.9770245327
 10
237.0050849983
 20
80.947707396
 10
236.996831601
 20
80.9187879407
  0
LWPOLYLINE
  5
2E8
100
AcDbEntity
  8
RACCORDO
100
AcDbPolyline
 62
250
  6
CONTINUOUS
 90
7
 70
0
 10
237.5233287302
 20
81.073356671
 10
237.5218808265
 20
81.0176647912
 10
237.5176948332
 20
80.962461986
 10
237.5107707504
 20
80.9077482473
 10
237.5011085779
 20
80.853523567
 10
237.4887083159
 20
80.799787937
 10
237.4735699644
 20
80.7465413493
  0
LWPOLYLINE
  5
2E9
100
AcDbEntity
  8
RACCORDO
100
AcDbPolyline
 62
250
  6
CONTINUOUS
 90
22
 70
0
 10
237.4735699644
 20
80.7465413493
 10
237.4518641941
 20
80.6835805139
 10
237.4265735022
 20
80.622390859
 10
237.3976978887
 20
80.5629722942
 10
237.3650780922
 20
80.5050746424
 10
237.3288733741
 20
80.4489479135
 10
237.2895615189
 20
80.3953422614
 10
237.2471702868
 20
80.3443669468
 10
237.2016719175
 20
80.295912469
 10
237.1534609157
 20
80.2504007885
 10
237.1025127973
 20
80.2078296388
 10
237.0488520463
 20
80.1682010459
 10
236.9929466192
 20
80.1319433842
 10
236.9346749524
 20
80.0990498997
 10
236.8741586096
 20
80.0695271247
 10
236.8122302383
 20
80.0438233483
 10
236.7488274994
 20
80.022027607
 10
236.6840127322
 20
80.0040506872
 10
236.6188056013
 20
79.9900735079
 10
236.553545995
 20
79.980156343
 10
236.4878940251
 20
79.9742388246
 10
236.4218496916
 20
79.9723209297
  0
LWPOLYLINE
  5
2EA
100
AcDbEntity
  8
RACCORDO
100
AcDbPolyline
 62
250
  6
CONTINUOUS
 90
22
 70
0
 10
236.996831601
 20
80.9187879407
 10
236.9849990972
 20
80.8846451304
 10
236.9711116494
 20
80.8512667842
 10
236.9552171873
 20
80.8187756306
 10
236.937361294
 20
80.7872767072
 10
236.917614384
 20
80.7569022897
 10
236.8960805273
 20
80.7278056484
 10
236.8728729028
 20
80.7001222709
 10
236.8480555204
 20
80.6739120199
 10
236.8216649146
 20
80.649211021
 10
236.793784581
 20
80.6261094604
 10
236.7645168353
 20
80.6047034738
 10
236.7339190326
 20
80.5850477977
 10
236.7020435586
 20
80.5672035129
 10
236.6690455246
 20
80.5512837813
 10
236.6351486088
 20
80.5374019104
 10
236.6004629645
 20
80.5256017935
 10
236.5651334368
 20
80.5159313487
 10
236.5294566663
 20
80.5084505087
 10
236.4936255035
 20
80.503160309
 10
236.4577195539
 20
80.5000354158
 10
236.421869811
 20
80.4990546837
  0
LWPOLYLINE
  5
2EB
100
AcDbEntity
  8
RACCORDO
100
AcDbPolyline
 62
250
  6
CONTINUOUS
 90
7
 70
0
 10
236.996831601
 20
125.7839258751
 10
237.0050862872
 20
125.7550014158
 10
237.0118735511
 20
125.7256812089
 10
237.0171739712
 20
125.6960387686
 10
237.0209718178
 20
125.6661486018
 10
237.0232551068
 20
125.6360860227
 10
237.0240156439
 20
125.6059269642
  0
LWPOLYLINE
  5
2EC
100
AcDbEntity
  8
RACCORDO
100
AcDbPolyline
 62
250
  6
CONTINUOUS
 90
7
 70
0
 10
237.4735699644
 20
125.9561724664
 10
237.4887102806
 20
125.9029131293
 10
237.5011117214
 20
125.8491698496
 10
237.5107742868
 20
125.7949426192
 10
237.5176979767
 20
125.7402314303
 10
237.5218827912
 20
125.6850362749
 10
237.5233287302
 20
125.6293571448
  0
LWPOLYLINE
  5
2ED
100
AcDbEntity
  8
0
100
AcDbPolyline
 62
7
  6
CONTINUOUS
 90
10
 70
0
 43
0.3500000006
 10
277.9201609497
 20
101.4227850952
 10
277.0630230103
 20
102.2799320984
 10
276.2058850708
 20
102.4942165833
 10
275.3487471313
 20
102.4942165833
 10
274.9201600342
 20
102.0656385498
 10
274.9201600342
 20
101.4227850952
 10
275.3487471313
 20
100.9942161255
 10
276.2058850708
 20
100.9942161255
 10
276.6344540405
 20
101.4227850952
 10
276.6344540405
 20
102.3513542175
  0
LINE
  5
2EE
100
AcDbEntity
  8
RACCORDO
100
AcDbLine
 62
250
  6
CONTINUOUS
 10
258.2673532853
 20
148.230693008
 11
258.2673532853
 21
147.8227444003
  0
LINE
  5
2EF
100
AcDbEntity
  8
RACCORDO
100
AcDbLine
 62
250
  6
CONTINUOUS
 10
258.2673532853
 20
58.4720208077
 11
258.2673532853
 21
58.8799694155
  0
LINE
  5
2F0
100
AcDbEntity
  8
RACCORDO
100
AcDbLine
 62
7
  6
CONTINUOUS
 10
259.1701685855
 20
147.5513569079
 11
259.1701685855
 21
125.8707764966
  0
LINE
  5
2F1
100
AcDbEntity
  8
DRAFT
100
AcDbLine
 62
7
  6
CONTINUOUS
 10
259.1701685855
 20
125.8707764966
 11
259.1701685855
 21
80.8319373192
  0
LINE
  5
2F2
100
AcDbEntity
  8
RACCORDO
100
AcDbLine
 62
7
  6
CONTINUOUS
 10
259.1701685855
 20
80.8319373192
 11
259.1701685855
 21
59.1513569079
  0
LINE
  5
2F3
100
AcDbEntity
  8
RACCORDO
100
AcDbLine
 62
250
  6
CONTINUOUS
 10
258.5614816815
 20
147.5230058144
 11
258.5614816815
 21
59.1797080013
  0
LINE
  5
2F4
100
AcDbEntity
  8
RACCORDO
100
AcDbLine
 62
250
  6
CONTINUOUS
 10
259.0595158104
 20
147.4417145308
 11
259.0595158104
 21
59.2609992848
  0
LWPOLYLINE
  5
2F5
100
AcDbEntity
  8
RACCORDO
100
AcDbPolyline
 62
250
  6
CONTINUOUS
 90
28
 70
0
 10
258.5614816815
 20
59.1797080013
 10
258.5609713879
 20
59.1620332021
 10
258.5594862057
 20
59.1445521547
 10
258.5570261348
 20
59.1272648482
 10
258.5535772602
 20
59.1101162374
 10
258.5491534969
 20
59.0931613481
 10
258.5437965904
 20
59.0765652666
 10
258.537495518
 20
59.0603282034
 10
258.5302613025
 20
59.0444499094
 10
258.5221687576
 20
59.0290947645
 10
258.5132105194
 20
59.0142716836
 10
258.5033939518
 20
58.9999716996
 10
258.4928159609
 20
58.9863323552
 10
258.4814681697
 20
58.9733590878
 10
258.4693589551
 20
58.9610464018
 10
258.456610354
 20
58.9495154321
 10
258.4432171872
 20
58.9387749308
 10
258.4291846339
 20
58.9288160879
 10
258.4146502679
 20
58.9197336899
 10
258.3996092423
 20
58.9115361754
 10
258.3840664041
 20
58.9042150554
 10
258.3681738682
 20
58.8978397245
 10
258.3519240412
 20
58.8924191456
 10
258.3353245164
 20
58.8879443185
 10
258.3185501889
 20
58.8844576952
 10
258.3016593571
 20
58.8819734195
 10
258.2845937225
 20
58.8804773279
 10
258.2673532853
 20
58.8799694155
  0
LWPOLYLINE
  5
2F6
100
AcDbEntity
  8
RACCORDO
100
AcDbPolyline
 62
250
  6
CONTINUOUS
 90
28
 70
0
 10
259.0595158105
 20
59.2609992847
 10
259.0575198883
 20
59.2147743185
 10
259.0528862779
 20
59.1687926001
 10
259.0456380304
 20
59.1232041979
 10
259.0358116162
 20
59.0781713486
 10
259.0234437506
 20
59.0338253638
 10
259.0085626529
 20
58.990268578
 10
258.9912067721
 20
58.9476208997
 10
258.9714404247
 20
58.9060460457
 10
258.9493393753
 20
58.8657078612
 10
258.9249860651
 20
58.8267460491
 10
258.898459368
 20
58.7892760474
 10
258.869844048
 20
58.7534167294
 10
258.8392358455
 20
58.7192831271
 10
258.8067383415
 20
58.6869855504
 10
258.7724565025
 20
58.6566279883
 10
258.7365052942
 20
58.6283089763
 10
258.6990034648
 20
58.6021182216
 10
258.6600686146
 20
58.5781376113
 10
258.6198265448
 20
58.5564437849
 10
258.5784119369
 20
58.5371079019
 10
258.535961353
 20
58.5201932054
 10
258.4926186898
 20
58.5057556824
 10
258.4485217139
 20
58.493839432
 10
258.4038014064
 20
58.4844799308
 10
258.3585991409
 20
58.4777086764
 10
258.3130668765
 20
58.4735505397
 10
258.2673532853
 20
58.4720208077
  0
LWPOLYLINE
  5
2F7
100
AcDbEntity
  8
RACCORDO
100
AcDbPolyline
 62
250
  6
CONTINUOUS
 90
19
 70
0
 10
259.0595115818
 20
59.2609993425
 10
259.0541813472
 20
59.2537146098
 10
259.0455126897
 20
59.2465332142
 10
259.0335643458
 20
59.239503815
 10
259.0184172745
 20
59.2326740418
 10
259.0001741084
 20
59.2260901717
 10
258.9789584585
 20
59.2197968154
 10
258.9549140766
 20
59.2138366152
 10
258.9282038812
 20
59.208249956
 10
258.8990088538
 20
59.2030746918
 10
258.8675268124
 20
59.1983458889
 10
258.8339710712
 20
59.1940955885
 10
258.7985689952
 20
59.1903525897
 10
258.7615604599
 20
59.1871422542
 10
258.7231962255
 20
59.1844863343
 10
258.6837362382
 20
59.182402826
 10
258.6434478688
 20
59.1809058464
 10
258.602604101
 20
59.1800055388
 10
258.5614816815
 20
59.1797080034
  0
LWPOLYLINE
  5
2F8
100
AcDbEntity
  8
RACCORDO
100
AcDbPolyline
 62
250
  6
CONTINUOUS
 90
19
 70
0
 10
259.0595158073
 20
147.4417145409
 10
259.0541855006
 20
147.4489992606
 10
259.0455167409
 20
147.4561806445
 10
259.033568266
 20
147.4632100332
 10
259.018421036
 20
147.470039797
 10
259.0001776853
 20
147.4766236589
 10
258.9789618269
 20
147.4829170082
 10
258.9549172146
 20
147.4888772025
 10
258.9282067695
 20
147.4944638569
 10
258.8990114758
 20
147.4996391173
 10
258.8675291543
 20
147.5043679174
 10
258.8339731224
 20
147.5086182159
 10
258.7985707483
 20
147.5123612136
 10
258.7615619107
 20
147.5155715488
 10
258.7231973735
 20
147.518227469
 10
258.6837370862
 20
147.5203109784
 10
258.6434484231
 20
147.5218079594
 10
258.6026043715
 20
147.5227082688
 10
258.5614816815
 20
147.5230058064
  0
LINE
  5
2F9
100
AcDbEntity
  8
RACCORDO
100
AcDbLine
 62
7
  6
CONTINUOUS
 10
43.0073500054
 20
58.3513569079
 11
43.8215209369
 21
58.3513569079
  0
LINE
  5
2FA
100
AcDbEntity
  8
RACCORDO
100
AcDbLine
 62
250
  6
CONTINUOUS
 10
42.8585440114
 20
59.1513569079
 11
43.6719357628
 21
59.1513569079
  0
LINE
  5
2FB
100
AcDbEntity
  8
RACCORDO
100
AcDbLine
 62
7
  6
CONTINUOUS
 10
41.628155319
 20
58.4720208077
 11
43.0073500054
 21
58.3513569079
  0
LINE
  5
2FC
100
AcDbEntity
  8
RACCORDO
100
AcDbLine
 62
250
  6
CONTINUOUS
 10
41.5736615965
 20
59.2609992848
 11
42.8590055753
 21
59.1484966866
  0
LINE
  5
2FD
100
AcDbEntity
  8
0
100
AcDbLine
 62
7
  6
CONTINUOUS
 10
44.1251766842
 20
59.4513569079
 11
43.6086470174
 21
59.4965473981
  0
LINE
  5
2FE
100
AcDbEntity
  8
RACCORDO
100
AcDbLine
 62
250
  6
CONTINUOUS
 10
41.5736619681
 20
59.2609993425
 11
41.1252653187
 21
59.1797080034
  0
LWPOLYLINE
  5
2FF
100
AcDbEntity
  8
RACCORDO
100
AcDbPolyline
 62
250
  6
CONTINUOUS
 90
16
 70
0
 10
44.0903641572
 20
59.6421100953
 10
44.2116184151
 20
59.6600779381
 10
44.3328181023
 20
59.6807698479
 10
44.4538918415
 20
59.7041903624
 10
44.5746038109
 20
59.7302422125
 10
44.695036509
 20
59.7590317437
 10
44.8155836609
 20
59.7908696721
 10
44.9360205262
 20
59.8256510479
 10
45.0563745078
 20
59.8634916117
 10
45.177383232
 20
59.9050354323
 10
45.2987859895
 20
59.9500570344
 10
45.4205516795
 20
59.998796238
 10
45.5436967369
 20
60.0525999863
 10
45.6684137156
 20
60.1119261451
 10
45.7941026759
 20
60.1763399182
 10
45.9205416268
 20
60.2458528587
  0
LINE
  5
300
100
AcDbEntity
  8
RACCORDO
100
AcDbLine
 62
250
  6
CONTINUOUS
 10
45.9205416268
 20
60.2458528587
 11
43.9837896384
 21
60.2341487329
  0
LINE
  5
301
100
AcDbEntity
  8
0
100
AcDbLine
 62
250
  6
CONTINUOUS
 10
43.945869951
 20
60.4478351914
 11
43.4301928856
 21
60.492976053
  0
LWPOLYLINE
  5
302
100
AcDbEntity
  8
RACCORDO
100
AcDbPolyline
 62
250
  6
CONTINUOUS
 90
19
 70
0
 10
41.628155319
 20
148.230693008
 10
41.6257018907
 20
148.2291624794
 10
41.6232128855
 20
148.2250045506
 10
41.6206994439
 20
148.2182378226
 10
41.6181735655
 20
148.2088938223
 10
41.6156426758
 20
148.1970054035
 10
41.6131107623
 20
148.1825960411
 10
41.6105828507
 20
148.1656964333
 10
41.6080706016
 20
148.146365381
 10
41.6055870879
 20
148.1246755491
 10
41.6031350266
 20
148.1007036666
 10
41.6007209911
 20
148.0745224058
 10
41.5983619601
 20
148.0462125605
 10
41.596057452
 20
148.0158633461
 10
41.5938116153
 20
147.9835736889
 10
41.5916470451
 20
147.9494475005
 10
41.5895609661
 20
147.9135945261
 10
41.5875536167
 20
147.8761302716
 10
41.5838459055
 20
147.7968530708
  0
LWPOLYLINE
  5
303
100
AcDbEntity
  8
0
100
AcDbPolyline
 62
7
  6
CONTINUOUS
 90
10
 70
0
 43
0.3500000006
 10
61.5319865112
 20
171.9070266724
 10
60.8891285248
 20
171.2641550903
 10
60.4605595551
 20
170.4070171509
 10
60.4605595551
 20
169.3355947266
 10
60.8891285248
 20
168.9070257568
 10
61.5319865112
 20
168.9070257568
 10
61.9605600128
 20
169.3355947266
 10
61.9605600128
 20
170.192732666
 10
61.5319865112
 20
170.6213016357
 10
60.6034173889
 20
170.6213016357
  0
LINE
  5
304
100
AcDbEntity
  8
RACCORDO
100
AcDbLine
 62
250
  6
CONTINUOUS
 10
39.0928220953
 20
80.7694495713
 11
38.6370307938
 21
80.7465413502
  0
LINE
  5
305
100
AcDbEntity
  8
RACCORDO
100
AcDbLine
 62
250
  6
CONTINUOUS
 10
39.0896843637
 20
80.8319373192
 11
38.6338895613
 21
80.8090821372
  0
LINE
  5
306
100
AcDbEntity
  8
0
100
AcDbLine
 62
250
  6
CONTINUOUS
 10
46.6370307767
 20
80.9779526029
 11
43.9068582066
 21
80.9326054996
  0
LINE
  5
307
100
AcDbEntity
  8
0
100
AcDbLine
 62
250
  6
CONTINUOUS
 10
43.9068582066
 20
80.9326054996
 11
41.633243366
 21
80.8972401197
  0
LINE
  5
308
100
AcDbEntity
  8
RACCORDO
100
AcDbLine
 62
250
  6
CONTINUOUS
 10
40.3348845773
 20
80.8319373192
 11
39.0896843637
 21
80.8319373192
  0
LINE
  5
309
100
AcDbEntity
  8
0
100
AcDbLine
 62
250
  6
CONTINUOUS
 10
41.633243366
 20
80.8972401197
 11
41.1326120405
 21
80.8972401197
  0
LWPOLYLINE
  5
30A
100
AcDbEntity
  8
RACCORDO
100
AcDbPolyline
 62
250
  6
CONTINUOUS
 90
19
 70
0
 10
45.9205414773
 20
60.2458528489
 10
45.9427064614
 20
60.1980625436
 10
45.962488944
 20
60.1503509409
 10
45.9797946548
 20
60.1029454031
 10
45.994541126
 20
60.0560718341
 10
46.0066580857
 20
60.0099536023
 10
46.0160877925
 20
59.9648104765
 10
46.0227853104
 20
59.9208575791
 10
46.0267187232
 20
59.8783043611
 10
46.0278692866
 20
59.837353603
 10
46.0262315176
 20
59.7982004495
 10
46.0218132204
 20
59.7610314791
 10
46.0146354494
 20
59.7260238149
 10
46.0047324088
 20
59.693344281
 10
45.9921512898
 20
59.6631486071
 10
45.9769520455
 20
59.6355806863
 10
45.9592071053
 20
59.6107718899
 10
45.9390010298
 20
59.5888404408
 10
45.9164301078
 20
59.5698908504
  0
LWPOLYLINE
  5
30B
100
AcDbEntity
  8
RACCORDO
100
AcDbPolyline
 62
250
  6
CONTINUOUS
 90
10
 70
0
 10
41.5736615965
 20
147.4417145308
 10
41.1609231616
 20
145.0700137766
 10
40.7824140479
 20
142.6926207105
 10
40.4381346815
 20
140.3100361587
 10
40.1280293795
 20
137.9227710506
 10
39.8521546741
 20
135.5313158464
 10
39.6106793231
 20
133.1361403661
 10
39.403659874
 20
130.7377346704
 10
39.2310406528
 20
128.3366092322
 10
39.0928220952
 20
125.9332642445
  0
LWPOLYLINE
  5
30C
100
AcDbEntity
  8
RACCORDO
100
AcDbPolyline
 62
7
  6
CONTINUOUS
 90
10
 70
0
 10
42.8585440114
 20
147.5513569079
 10
42.4379878013
 20
145.1617112894
 10
42.0523910044
 20
142.7665967771
 10
41.7017536207
 20
140.3660133708
 10
41.3859716654
 20
137.9591051325
 10
41.1051491234
 20
135.5467280002
 10
40.8595979481
 20
133.131449789
 10
40.6494221243
 20
130.7141264372
 10
40.4745176674
 20
128.2939020064
 10
40.3348845773
 20
125.8707764966
  0
LWPOLYLINE
  5
30D
100
AcDbEntity
  8
RACCORDO
100
AcDbPolyline
 62
7
  6
CONTINUOUS
 90
5
 70
0
 10
42.8585117567
 20
59.1513569079
 10
42.8652202199
 20
59.0995189894
 10
42.8714535927
 20
59.0479419995
 10
42.8772118751
 20
58.9968415422
 10
42.882377039
 20
58.9464834839
  0
LWPOLYLINE
  5
30E
100
AcDbEntity
  8
RACCORDO
100
AcDbPolyline
 62
7
  6
CONTINUOUS
 90
17
 70
0
 10
42.9005235775
 20
58.7550080505
 10
42.9049714302
 20
58.7106063705
 10
42.9095000457
 20
58.6680740867
 10
42.914093318
 20
58.627575397
 10
42.9188885929
 20
58.5893091669
 10
42.9238908909
 20
58.5534286733
 10
42.9290951914
 20
58.5200934106
 10
42.9346237778
 20
58.4894816758
 10
42.9404672171
 20
58.4617091252
 10
42.9466349423
 20
58.4368813479
 10
42.9532775355
 20
58.4151189419
 10
42.9603648698
 20
58.3964797559
 10
42.9679270721
 20
58.381020976
 10
42.976205105
 20
58.3688044277
 10
42.9852792894
 20
58.3598334316
 10
42.9950693043
 20
58.3540794923
 10
43.0055751498
 20
58.3515121876
  0
LINE
  5
30F
100
AcDbEntity
  8
RACCORDO
100
AcDbLine
 62
7
  6
CONTINUOUS
 10
42.882377039
 20
58.9464834839
 11
42.9005235775
 21
58.7550080505
  0
LWPOLYLINE
  5
310
100
AcDbEntity
  8
RACCORDO
100
AcDbPolyline
 62
7
  6
CONTINUOUS
 90
10
 70
0
 10
40.3348845773
 20
80.8319373192
 10
40.4745176674
 20
78.4088118094
 10
40.6494221243
 20
75.9885873786
 10
40.8595979481
 20
73.5712640268
 10
41.1051491234
 20
71.1559858156
 10
41.3859716654
 20
68.7436086833
 10
41.7017536207
 20
66.3367004449
 10
42.0523910044
 20
63.9361170387
 10
42.4379878013
 20
61.5410025264
 10
42.8585440114
 20
59.1513569079
  0
LWPOLYLINE
  5
311
100
AcDbEntity
  8
RACCORDO
100
AcDbPolyline
 62
250
  6
CONTINUOUS
 90
10
 70
0
 10
39.0928220952
 20
80.7694495713
 10
39.2310406216
 20
78.3661050236
 10
39.4036598226
 20
75.9649798562
 10
39.6106792625
 20
73.5665742625
 10
39.8521546201
 20
71.1713986383
 10
40.1280293432
 20
68.7799431229
 10
40.4381346607
 20
66.3926777694
 10
40.7824140362
 20
64.0100931153
 10
41.1609231568
 20
61.6327000118
 10
41.5736615965
 20
59.2609992848
  0
LWPOLYLINE
  5
312
100
AcDbEntity
  8
RACCORDO
100
AcDbPolyline
 62
250
  6
CONTINUOUS
 90
18
 70
0
 10
41.5875447688
 20
58.8267460491
 10
41.5895513866
 20
58.7892760474
 10
41.5916368693
 20
58.7534167294
 10
41.5938010956
 20
58.7192831271
 10
41.5960467423
 20
58.6869855504
 10
41.5983511435
 20
58.6566279883
 10
41.600710184
 20
58.6283089763
 10
41.6031243281
 20
58.6021182216
 10
41.6055764056
 20
58.5781376113
 10
41.6080594951
 20
58.5564437849
 10
41.6105710242
 20
58.5371079019
 10
41.6130989483
 20
58.5201932054
 10
41.6156332491
 20
58.5057556824
 10
41.6181684535
 20
58.493839432
 10
41.6206981531
 20
58.4844799308
 10
41.6232135211
 20
58.4777086764
 10
41.6257030635
 20
58.4735505397
 10
41.628155319
 20
58.4720208077
  0
LINE
  5
313
100
AcDbEntity
  8
RACCORDO
100
AcDbLine
 62
250
  6
CONTINUOUS
 10
41.5838378474
 20
58.9060460457
 11
41.5875447688
 21
58.8267460491
  0
LINE
  5
314
100
AcDbEntity
  8
RACCORDO
100
AcDbLine
 62
250
  6
CONTINUOUS
 10
41.5805469942
 20
58.990268578
 11
41.5838378474
 21
58.9060460457
  0
LINE
  5
315
100
AcDbEntity
  8
RACCORDO
100
AcDbLine
 62
250
  6
CONTINUOUS
 10
41.5777308783
 20
59.0781713486
 11
41.5805469942
 21
58.990268578
  0
LINE
  5
316
100
AcDbEntity
  8
RACCORDO
100
AcDbLine
 62
250
  6
CONTINUOUS
 10
41.5754490599
 20
59.1687926001
 11
41.5777308783
 21
59.0781713486
  0
LINE
  5
317
100
AcDbEntity
  8
RACCORDO
100
AcDbLine
 62
250
  6
CONTINUOUS
 10
41.573661598
 20
59.2609992847
 11
41.5754490599
 21
59.1687926001
  0
LINE
  5
318
100
AcDbEntity
  8
RACCORDO
100
AcDbLine
 62
250
  6
CONTINUOUS
 10
41.5754491377
 20
147.5339185274
 11
41.573661598
 21
147.441714531
  0
LINE
  5
319
100
AcDbEntity
  8
RACCORDO
100
AcDbLine
 62
250
  6
CONTINUOUS
 10
41.5777325371
 20
147.6246220614
 11
41.5754491377
 21
147.5339185274
  0
LINE
  5
31A
100
AcDbEntity
  8
RACCORDO
100
AcDbLine
 62
250
  6
CONTINUOUS
 10
41.5805535391
 20
147.7126445884
 11
41.5777325371
 21
147.6246220614
  0
LWPOLYLINE
  5
31B
100
AcDbEntity
  8
RACCORDO
100
AcDbPolyline
 62
250
  6
CONTINUOUS
 90
12
 70
0
 10
38.9172585002
 20
122.1199419987
 10
38.7761801129
 20
118.3677955308
 10
38.666449201
 20
114.6146004402
 10
38.5880624847
 20
110.8606216555
 10
38.5410232418
 20
107.1061209372
 10
38.5253413084
 20
103.3513568764
 10
38.5410232428
 20
99.5965928062
 10
38.5880624869
 20
95.8420920726
 10
38.6664492037
 20
92.0881132855
 10
38.7761801153
 20
88.3349182119
 10
38.9172585017
 20
84.5827717741
 10
39.0928220952
 20
80.7694495713
  0
LINE
  5
31C
100
AcDbEntity
  8
RACCORDO
100
AcDbLine
 62
250
  6
CONTINUOUS
 10
41.5838459055
 20
147.7968530708
 11
41.5805535391
 21
147.7126445884
  0
LWPOLYLINE
  5
31D
100
AcDbEntity
  8
DRAFT
100
AcDbPolyline
 62
7
  6
CONTINUOUS
 90
13
 70
0
 10
40.3348845773
 20
125.8707764966
 10
40.1620109605
 20
122.1204644872
 10
40.0205637049
 20
118.3689826424
 10
39.9105428106
 20
114.616330962
 10
39.8319419155
 20
110.862119501
 10
39.7847673816
 20
107.1067382044
 10
39.7690382956
 20
103.3513569079
 10
39.7847673816
 20
99.5959756113
 10
39.8319419155
 20
95.8405943148
 10
39.9105428106
 20
92.0863828538
 10
40.0205637049
 20
88.3337311734
 10
40.1620109605
 20
84.5822493286
 10
40.3348845773
 20
80.8319373192
  0
LINE
  5
31E
100
AcDbEntity
  8
RACCORDO
100
AcDbLine
 62
250
  6
CONTINUOUS
 10
39.0928220952
 20
125.9332642445
 11
38.9172585002
 21
122.1199419987
  0
LWPOLYLINE
  5
31F
100
AcDbEntity
  8
RACCORDO
100
AcDbPolyline
 62
7
  6
CONTINUOUS
 90
5
 70
0
 10
42.8823773993
 20
147.7562340083
 10
42.8772121328
 20
147.7058747492
 10
42.8714537702
 20
147.6547734515
 10
42.8652203115
 20
147.6031956327
 10
42.8585117567
 20
147.5513569079
  0
LWPOLYLINE
  5
320
100
AcDbEntity
  8
0
100
AcDbPolyline
 62
7
  6
CONTINUOUS
 90
3
 70
0
 43
0.3500000006
 10
59.4605592499
 20
169.1927323608
 10
59.389128067
 20
168.978447876
 10
59.246274765
 20
168.692741272
  0
LINE
  5
321
100
AcDbEntity
  8
RACCORDO
100
AcDbLine
 62
7
  6
CONTINUOUS
 10
46.6370307767
 20
99.4987029465
 11
44.8023011411
 21
99.8222152835
  0
LINE
  5
322
100
AcDbEntity
  8
0
100
AcDbLine
 62
250
  6
CONTINUOUS
 10
44.6370307767
 20
103.3513569079
 11
41.0689191797
 21
103.3513569079
  0
LINE
  5
323
100
AcDbEntity
  8
RACCORDO
100
AcDbLine
 62
7
  6
CONTINUOUS
 10
44.6370307767
 20
100.0191768341
 11
44.6370307767
 21
106.6835369817
  0
LINE
  5
324
100
AcDbEntity
  8
RACCORDO
100
AcDbLine
 62
7
  6
CONTINUOUS
 10
46.6370307767
 20
60.2513564385
 11
46.6370307767
 21
80.9779526029
  0
LINE
  5
325
100
AcDbEntity
  8
DRAFT
100
AcDbLine
 62
7
  6
CONTINUOUS
 10
46.6370307767
 20
80.9779526029
 11
46.6370307767
 21
99.4987029465
  0
LINE
  5
326
100
AcDbEntity
  8
DRAFT
100
AcDbLine
 62
7
  6
CONTINUOUS
 10
46.6370307767
 20
107.2040108693
 11
46.6370307767
 21
125.7247612129
  0
LINE
  5
327
100
AcDbEntity
  8
RACCORDO
100
AcDbLine
 62
7
  6
CONTINUOUS
 10
46.6370307767
 20
125.7247612129
 11
46.6370307767
 21
146.451357315
  0
LINE
  5
328
100
AcDbEntity
  8
RACCORDO
100
AcDbLine
 62
7
  6
CONTINUOUS
 10
44.8023011411
 20
106.8804985323
 11
46.6370307767
 21
107.2040108693
  0
LWPOLYLINE
  5
329
100
AcDbEntity
  8
0
100
AcDbPolyline
 62
7
  6
CONTINUOUS
 90
4
 70
0
 43
0.3500000006
 10
56.3891316833
 20
169.3355947266
 10
56.3891316833
 20
170.192732666
 10
56.8177006531
 20
170.6213016357
 10
57.4605586395
 20
170.6213016357
  0
LINE
  5
32A
100
AcDbEntity
  8
0
100
AcDbLine
 62
250
  6
CONTINUOUS
 10
41.633243366
 20
125.8054736961
 11
41.1326120405
 21
125.8054736961
  0
LINE
  5
32B
100
AcDbEntity
  8
RACCORDO
100
AcDbLine
 62
250
  6
CONTINUOUS
 10
40.3348845773
 20
125.8707764966
 11
39.0896843637
 21
125.8707764966
  0
LINE
  5
32C
100
AcDbEntity
  8
0
100
AcDbLine
 62
250
  6
CONTINUOUS
 10
46.6370307767
 20
125.7247612129
 11
41.633243366
 21
125.8054736961
  0
LINE
  5
32D
100
AcDbEntity
  8
RACCORDO
100
AcDbLine
 62
250
  6
CONTINUOUS
 10
39.0896843638
 20
125.8707764966
 11
38.6338895669
 21
125.8936316783
  0
LINE
  5
32E
100
AcDbEntity
  8
RACCORDO
100
AcDbLine
 62
250
  6
CONTINUOUS
 10
39.0928220952
 20
125.9332642445
 11
38.6370307767
 21
125.9561724665
  0
LWPOLYLINE
  5
32F
100
AcDbEntity
  8
RACCORDO
100
AcDbPolyline
 62
250
  6
CONTINUOUS
 90
19
 70
0
 10
45.9164310487
 20
147.1328242463
 10
45.939001927
 20
147.1138745836
 10
45.9592079539
 20
147.0919430585
 10
45.9769528411
 20
147.0671341832
 10
45.9921520289
 20
147.0395661815
 10
46.0047330883
 20
147.0093704254
 10
46.014636067
 20
146.9766908092
 10
46.0218137745
 20
146.9416830636
 10
46.0262320075
 20
146.9045140132
 10
46.0278697124
 20
146.8653607815
 10
46.0267190857
 20
146.824409948
 10
46.0227856112
 20
146.7818566578
 10
46.0160880339
 20
146.7379036912
 10
46.0066582706
 20
146.6927604995
 10
45.9945412578
 20
146.6466422055
 10
45.9797947372
 20
146.5997685771
 10
45.9624889809
 20
146.5523629825
 10
45.942706457
 20
146.504651326
 10
45.920541436
 20
146.4568609696
  0
LWPOLYLINE
  5
330
100
AcDbEntity
  8
RACCORDO
100
AcDbPolyline
 62
250
  6
CONTINUOUS
 90
10
 70
0
 10
45.9205416268
 20
60.2458528587
 10
46.0126661089
 20
60.3010364563
 10
46.1009827872
 20
60.3571072364
 10
46.1855849573
 20
60.4140640165
 10
46.2659262238
 20
60.4713815352
 10
46.342770219
 20
60.5295817243
 10
46.4180989534
 20
60.5902376422
 10
46.4925528096
 20
60.6538765941
 10
46.5655214135
 20
60.7199761975
 10
46.6370307532
 20
60.7885383876
  0
LWPOLYLINE
  5
331
100
AcDbEntity
  8
RACCORDO
100
AcDbPolyline
 62
250
  6
CONTINUOUS
 90
10
 70
0
 10
45.9205416268
 20
146.4568609571
 10
46.012795788
 20
146.401623402
 10
46.1013960262
 20
146.3453573684
 10
46.1864293593
 20
146.2880637257
 10
46.2675894625
 20
146.2300608792
 10
46.345380605
 20
146.1710328576
 10
46.4210598274
 20
146.1100268802
 10
46.4950564803
 20
146.0467237312
 10
46.5670292593
 20
145.9814401908
 10
46.6370307535
 20
145.914175428
  0
LWPOLYLINE
  5
332
100
AcDbEntity
  8
RACCORDO
100
AcDbPolyline
 62
7
  6
CONTINUOUS
 90
18
 70
0
 10
43.0055751498
 20
148.3512016282
 10
42.9950692505
 20
148.348634318
 10
42.9852791076
 20
148.3428802636
 10
42.976204721
 20
148.3339089123
 10
42.9679263092
 20
148.3216914194
 10
42.9603636537
 20
148.3062311013
 10
42.953276099
 20
148.2875906288
 10
42.9466337303
 20
148.265828244
 10
42.9404664622
 20
148.2410015625
 10
42.934623384
 20
148.2132301102
 10
42.9290949248
 20
148.1826187372
 10
42.9238906553
 20
148.1492834978
 10
42.9188883772
 20
148.1134030094
 10
42.9140931164
 20
148.0751367125
 10
42.9094998469
 20
148.0346379128
 10
42.9049712926
 20
147.9921061049
 10
42.9005236317
 20
147.9477062946
 10
42.8823773993
 20
147.7562340083
  0
LINE
  5
333
100
AcDbEntity
  8
0
100
AcDbLine
 62
250
  6
CONTINUOUS
 10
43.4301928856
 20
146.2097377628
 11
43.945869951
 21
146.2548786244
  0
LINE
  5
334
100
AcDbEntity
  8
0
100
AcDbLine
 62
7
  6
CONTINUOUS
 10
44.1251766842
 20
147.2513569079
 11
43.6086470174
 21
147.2061664177
  0
LINE
  5
335
100
AcDbEntity
  8
RACCORDO
100
AcDbLine
 62
250
  6
CONTINUOUS
 10
41.5736615965
 20
147.4417145308
 11
42.8590055753
 21
147.5542171292
  0
LINE
  5
336
100
AcDbEntity
  8
RACCORDO
100
AcDbLine
 62
250
  6
CONTINUOUS
 10
42.8585440114
 20
147.5513569079
 11
43.6719357628
 21
147.5513569079
  0
LINE
  5
337
100
AcDbEntity
  8
RACCORDO
100
AcDbLine
 62
250
  6
CONTINUOUS
 10
45.9205416268
 20
146.4568609571
 11
43.9837896384
 21
146.4685650829
  0
LWPOLYLINE
  5
338
100
AcDbEntity
  8
RACCORDO
100
AcDbPolyline
 62
250
  6
CONTINUOUS
 90
16
 70
0
 10
44.0903646734
 20
147.0606036327
 10
44.2139260081
 20
147.0422817418
 10
44.3375315346
 20
147.0210963029
 10
44.4611042025
 20
146.9970424244
 10
44.5845028647
 20
146.9701925802
 10
44.7076999821
 20
146.940464428
 10
44.8307814209
 20
146.9076202967
 10
44.9536357967
 20
146.8716915327
 10
45.0761727923
 20
146.8326355704
 10
45.1984994756
 20
146.7901025936
 10
45.3206176279
 20
146.7441178443
 10
45.4422762235
 20
146.6946429683
 10
45.5632087992
 20
146.6412312352
 10
45.6832714215
 20
146.5837285463
 10
45.8024156503
 20
146.5222742178
 10
45.9205416268
 20
146.4568609571
  0
LINE
  5
339
100
AcDbEntity
  8
RACCORDO
100
AcDbLine
 62
250
  6
CONTINUOUS
 10
41.5736615984
 20
147.4417145409
 11
41.1252653518
 21
147.5230058064
  0
LWPOLYLINE
  5
33A
100
AcDbEntity
  8
0
100
AcDbPolyline
 62
7
  6
CONTINUOUS
 90
10
 70
0
 43
0.3500000006
 10
59.389128067
 20
169.4070168457
 10
59.4605592499
 20
169.26415448
 10
59.4605592499
 20
169.1927323608
 10
59.317701416
 20
169.0498699951
 10
59.246274765
 20
169.0498699951
 10
59.1748435822
 20
169.1213102417
 10
59.1748435822
 20
169.1927323608
 10
59.246274765
 20
169.3355947266
 10
59.317701416
 20
169.4070168457
 10
59.389128067
 20
169.4070168457
  0
LINE
  5
33B
100
AcDbEntity
  8
RACCORDO
100
AcDbLine
 62
7
  6
CONTINUOUS
 10
41.628155319
 20
148.230693008
 11
43.0073500054
 21
148.3513569079
  0
LINE
  5
33C
100
AcDbEntity
  8
RACCORDO
100
AcDbLine
 62
7
  6
CONTINUOUS
 10
43.0073500054
 20
148.3513569079
 11
43.8215209369
 21
148.3513569079
  0
LWPOLYLINE
  5
33D
100
AcDbEntity
  8
0
100
AcDbPolyline
 62
7
  6
CONTINUOUS
 90
13
 70
0
 43
0.3500000006
 10
56.8177006531
 20
170.6213016357
 10
56.5319849854
 20
170.8355861206
 10
56.5319849854
 20
171.4784395752
 10
56.8177006531
 20
171.9070266724
 10
57.4605586395
 20
171.9070266724
 10
57.7462743073
 20
171.4784395752
 10
57.7462743073
 20
170.8355861206
 10
57.4605586395
 20
170.6213016357
 10
57.8891276093
 20
170.192732666
 10
57.8891276093
 20
169.3355947266
 10
57.4605586395
 20
168.9070257568
 10
56.8177006531
 20
168.9070257568
 10
56.3891316833
 20
169.3355947266
  0
ARC
  5
33E
100
AcDbEntity
  8
RACCORDO
100
AcDbCircle
 62
7
  6
CONTINUOUS
 10
258.3701685855
 20
59.1513569079
 40
0.8
100
AcDbArc
 50
270.0
 51
360.0
  0
ARC
  5
33F
100
AcDbEntity
  8
RACCORDO
100
AcDbCircle
 62
7
  6
CONTINUOUS
 10
258.3701685855
 20
147.5513569079
 40
0.8
100
AcDbArc
 50
0.0
 51
90.0
  0
ARC
  5
340
100
AcDbEntity
  8
RACCORDO
100
AcDbCircle
 62
7
  6
CONTINUOUS
 10
98.9701685855
 20
59.1513569079
 40
0.8
100
AcDbArc
 50
180.0
 51
270.0
  0
ARC
  5
341
100
AcDbEntity
  8
RACCORDO
100
AcDbCircle
 62
7
  6
CONTINUOUS
 10
98.9701685855
 20
147.5513569079
 40
0.8
100
AcDbArc
 50
90.0
 51
180.0
  0
ARC
  5
342
100
AcDbEntity
  8
RACCORDO
100
AcDbCircle
 62
7
  6
CONTINUOUS
 10
206.5456922487
 20
89.1917461094
 40
168.1209091124
100
AcDbArc
 50
182.8793463054
 51
190.3870878027
  0
ARC
  5
343
100
AcDbEntity
  8
RACCORDO
100
AcDbCircle
 62
7
  6
CONTINUOUS
 10
206.5456922487
 20
89.1917461094
 40
165.6209091124
100
AcDbArc
 50
182.8793463054
 51
190.7317283603
  0
ARC
  5
344
100
AcDbEntity
  8
0
100
AcDbCircle
 62
7
  6
CONTINUOUS
 10
206.5456922487
 20
89.1917461094
 40
165.1209091124
100
AcDbArc
 50
182.8793463054
 51
190.1003116182
  0
ARC
  5
345
100
AcDbEntity
  8
RACCORDO
100
AcDbCircle
 62
7
  6
CONTINUOUS
 10
206.5456922487
 20
89.1917461094
 40
165.1209091124
100
AcDbArc
 50
190.1003116182
 51
190.5880594175
  0
ARC
  5
346
100
AcDbEntity
  8
RACCORDO
100
AcDbCircle
 62
7
  6
CONTINUOUS
 10
43.5389388529
 20
62.805649131
 40
4.0152935545
100
AcDbArc
 50
279.9999998442
 51
320.4953412761
  0
ARC
  5
347
100
AcDbEntity
  8
RACCORDO
100
AcDbCircle
 62
7
  6
CONTINUOUS
 10
41.6717331904
 20
58.9701181568
 40
0.5
100
AcDbArc
 50
190.3870878027
 51
265.0
  0
ARC
  5
348
100
AcDbEntity
  8
RACCORDO
100
AcDbCircle
 62
7
  6
CONTINUOUS
 10
44.8370307767
 20
100.0191768341
 40
0.2
100
AcDbArc
 50
180.0
 51
260.0
  0
ARC
  5
349
100
AcDbEntity
  8
RACCORDO
100
AcDbCircle
 62
7
  6
CONTINUOUS
 10
206.5456922487
 20
117.5109677064
 40
168.1209091124
100
AcDbArc
 50
169.6129121973
 51
177.1206685792
  0
ARC
  5
34A
100
AcDbEntity
  8
RACCORDO
100
AcDbCircle
 62
7
  6
CONTINUOUS
 10
206.5456922487
 20
117.5109677064
 40
165.6209091124
100
AcDbArc
 50
169.2682716397
 51
177.1206536946
  0
ARC
  5
34B
100
AcDbEntity
  8
0
100
AcDbCircle
 62
7
  6
CONTINUOUS
 10
206.5456922487
 20
117.5109677064
 40
165.1209091124
100
AcDbArc
 50
169.8996883818
 51
177.1206536946
  0
ARC
  5
34C
100
AcDbEntity
  8
RACCORDO
100
AcDbCircle
 62
7
  6
CONTINUOUS
 10
206.5456922487
 20
117.5109677064
 40
165.1209091124
100
AcDbArc
 50
169.4119405825
 51
169.8996883818
  0
ARC
  5
34D
100
AcDbEntity
  8
RACCORDO
100
AcDbCircle
 62
7
  6
CONTINUOUS
 10
43.5389388529
 20
143.8970646848
 40
4.0152935545
100
AcDbArc
 50
39.5046575717
 51
80.0000002021
  0
ARC
  5
34E
100
AcDbEntity
  8
RACCORDO
100
AcDbCircle
 62
7
  6
CONTINUOUS
 10
41.6717331904
 20
147.732595659
 40
0.5
100
AcDbArc
 50
95.0
 51
169.6129121973
  0
ARC
  5
34F
100
AcDbEntity
  8
RACCORDO
100
AcDbCircle
 62
7
  6
CONTINUOUS
 10
44.8370307767
 20
106.6835369817
 40
0.2
100
AcDbArc
 50
100.0
 51
180.0
  0
ARC
  5
350
100
AcDbEntity
  8
RACCORDO
100
AcDbCircle
 62
7
  6
CONTINUOUS
 10
488.0689191797
 20
103.3513569079
 40
450.0
100
AcDbArc
 50
177.1206592555
 51
182.8793413938
  0
ARC
  5
351
100
AcDbEntity
  8
DRAFT
100
AcDbCircle
 62
7
  6
CONTINUOUS
 10
488.0689191797
 20
103.3513569079
 40
447.5
100
AcDbArc
 50
177.1206536946
 51
182.8793463054
  0
ARC
  5
352
100
AcDbEntity
  8
0
100
AcDbCircle
 62
7
  6
CONTINUOUS
 10
488.0689191797
 20
103.3513569079
 40
447.0
100
AcDbArc
 50
177.1206536946
 51
182.8793463054
  0
ENDSEC
  0
SECTION
  2
OBJECTS
  0
DICTIONARY
  5
C
100
AcDbDictionary
280
0
281
1
  3
ACAD_GROUP
350
D
  3
ACAD_MLINESTYLE
350
17
  3
ACAD_LAYOUT
350
1A
  3
ACAD_PLOTSETTINGS
350
19
  3
ACAD_PLOTSTYLENAME
350
E
  0
DICTIONARY
  5
D
102
{ACAD_REACTORS
330
C
102
}
100
AcDbDictionary
280
0
281
1
  0
ACDBDICTIONARYWDFLT
  5
E
102
{ACAD_REACTORS
330
C
102
}
100
AcDbDictionary
281
1
  3
Normal
350
F
100
AcDbDictionaryWithDefault
340
F
  0
DICTIONARY
  5
17
102
{ACAD_REACTORS
330
C
102
}
100
AcDbDictionary
280
0
281
1
  3
Standard
350
18
  0
DICTIONARY
  5
19
102
{ACAD_REACTORS
330
C
102
}
100
AcDbDictionary
281
1
  0
DICTIONARY
  5
1A
102
{ACAD_REACTORS
330
C
102
}
100
AcDbDictionary
281
1
  3
Model
350
353
  3
Layout1
350
354
  0
ACDBPLACEHOLDER
  5
F
102
{ACAD_REACTORS
330
E
102
}
  0
MLINESTYLE
  5
18
102
{ACAD_REACTORS
330
17
102
}
100
AcDbMlineStyle
  2
STANDARD
 70
0
  3

 62
256
 51
90.0
 52
90.0
 71
2
 49
0.5
 62
256
  6
BYLAYER
 49
-0.5
 62
256
  6
BYLAYER
  0
LAYOUT
  5
353
102
{ACAD_REACTORS
330
1A
102
}
100
AcDbPlotSettings
  1

  2
none_device
  4
ISO_A4_(297.00_x_210.00_MM)
  6

 40
0.0
 41
0.0
 42
0.0
 43
0.0
 44
297.0
 45
210.0
 46
0.0
 47
0.0
 48
0.0
 49
0.0
140
0.0
141
0.0
142
1.0
143
1.0
 70
1024
 72
1
 73
0
 74
0
  7

 75
0
147
1.0
148
0.0
149
0.0
100
AcDbLayout
  1
Model
 70
0
 71
0
 10
0.0
 20
0.0
 11
297.0
 21
210.0
 12
0.0
 22
0.0
 32
0.0
 14
0.0
 24
0.0
 34
0.0
 15
0.0
 25
0.0
 35
0.0
146
0.0
 13
0.0
 23
0.0
 33
0.0
 16
1.0
 26
0.0
 36
0.0
 17
0.0
 27
1.0
 37
0.0
 76
0
330
213
345
0
346
0
  0
LAYOUT
  5
354
102
{ACAD_REACTORS
330
1A
102
}
100
AcDbPlotSettings
  1

  2
none_device
  4
ISO_A4_(297.00_x_210.00_MM)
  6

 40
0.0
 41
0.0
 42
0.0
 43
0.0
 44
297.0
 45
210.0
 46
0.0
 47
0.0
 48
0.0
 49
0.0
140
0.0
141
0.0
142
1.0
143
1.0
 70
0
 72
1
 73
0
 74
0
  7

 75
0
147
1.0
148
0.0
149
0.0
100
AcDbLayout
  1
Layout1
 70
0
 71
1
 10
0.0
 20
0.0
 11
297.0
 21
210.0
 12
0.0
 22
0.0
 32
0.0
 14
0.0
 24
0.0
 34
0.0
 15
0.0
 25
0.0
 35
0.0
146
0.0
 13
0.0
 23
0.0
 33
0.0
 16
1.0
 26
0.0
 36
0.0
 17
0.0
 27
1.0
 37
0.0
 76
0
330
214
345
0
346
0
  0
ENDSEC
  0
EOF
