  0
SECTION
  2
HEADER
  9
$ACADVER
  1
AC1021
  9
$DWGCODEPAGE
  3
ANSI_1252
  9
$EXTMAX
 10
297.0
 20
210.0
 30
0.0
  9
$EXTMIN
 10
0.0
 20
0.0
 30
0.0
  9
$LIMMIN
 10
0.0
 20
0.0
  9
$LIMMAX
 10
297.0
 20
210.0
  9
$VIEWCTR
 10
148.5
 20
105.0
  9
$VIEWSIZE
 40
210.0
  9
$CLAYER
  8
0
  9
$LTSCALE
 40
16.335
  9
$CELTYPE
  6
BYLAYER
  9
$DIMSCALE
 40
1.0
  9
$DIMASZ
 40
3.0
  9
$DIMEXO
 40
1.85625
  9
$DIMDLI
 40
11.286
  9
$DIMEXE
 40
5.346
  9
$DIMCEN
 40
2.673
  9
$DIMLFAC
 40
1.0
  9
$DIMBLK
  1
_FILLED
  9
$DIMTXT
 40
3.0
  9
$DIMTOL
 70
1
  9
$DIMLIM
 70
0
  9
$DIMTFAC
 40
1.0
  9
$DIMTP
 40
0.01
  9
$DIMTM
 40
0.01
  9
$PDMODE
 70
3
  9
$PDSIZE
 40
3.0
  9
$HANDSEED
  5
445
  9
$TILEMODE
 70
1
  9
$MEASUREMENT
 70
1
  9
$INSUNITS
 70
4
  0
ENDSEC
  0
SECTION
  2
CLASSES
  0
CLASS
  1
ACDBDICTIONARYWDFLT
  2
AcDbDictionaryWithDefault
  3
AutoCAD 2000
 90
0
 91
1
280
0
281
0
  0
CLASS
  1
ACDBPLACEHOLDER
  2
AcDbPlaceHolder
  3
AutoCAD 2000
 90
0
 91
1
280
0
281
0
  0
CLASS
  1
LAYOUT
  2
AcDbLayout
  3
AutoCAD 2000
 90
0
 91
0
280
0
281
0
  0
ENDSEC
  0
SECTION
  2
TABLES
  0
TABLE
  2
VPORT
  5
8
100
AcDbSymbolTable
 70
2
  0
VPORT
  5
1F4
100
AcDbSymbolTableRecord
100
AcDbViewportTableRecord
  2
*ACTIVE
 70
0
 10
0.0
 20
0.0
 11
1.0
 21
1.0
 12
148.5
 22
105.0
 13
0.0
 23
0.0
 14
1.0
 24
1.0
 15
0.0
 25
0.0
 16
0.0
 26
0.0
 36
1.0
 17
0.0
 27
0.0
 37
0.0
 40
210.0
 41
1.4142857143
 42
50.0
 43
0.0
 44
0.0
 50
0.0
 51
0.0
 71
0
 72
100
 73
1
 74
1
 75
0
 76
0
 77
0
 78
0
  0
ENDTAB
  0
TABLE
  2
LTYPE
  5
5
100
AcDbSymbolTable
 70
6
  0
LTYPE
  5
14
100
AcDbSymbolTableRecord
100
AcDbLinetypeTableRecord
  2
BYBLOCK
 70
0
  3

 72
65
 73
0
 40
0.0
  0
LTYPE
  5
15
100
AcDbSymbolTableRecord
100
AcDbLinetypeTableRecord
  2
BYLAYER
 70
0
  3

 72
65
 73
0
 40
0.0
  0
LTYPE
  5
16
100
AcDbSymbolTableRecord
100
AcDbLinetypeTableRecord
  2
CONTINUOUS
 70
64
  3
Solid line
 72
65
 73
0
 40
0.0
  0
LTYPE
  5
1F5
100
AcDbSymbolTableRecord
100
AcDbLinetypeTableRecord
  2
CENTER
 70
64
  3
____ _ ____ _ ____ _ ____ _ ____ _ ____ _ ____
 72
65
 73
4
 40
0.6
 49
0.375
 74
0
 49
-0.075
 74
0
 49
0.075
 74
0
 49
-0.075
 74
0
  0
LTYPE
  5
1F6
100
AcDbSymbolTableRecord
100
AcDbLinetypeTableRecord
  2
HIDDEN
 70
64
  3
- - - - - - - - - - - - - - - - - - - -
 72
65
 73
2
 40
0.2
 49
0.1
 74
0
 49
-0.1
 74
0
  0
LTYPE
  5
1F7
100
AcDbSymbolTableRecord
100
AcDbLinetypeTableRecord
  2
PHANTOM
 70
64
  3
_____ _ _ _____ _ _ _____ _ _ _____
 72
65
 73
6
 40
0.8
 49
0.45
 74
0
 49
-0.05
 74
0
 49
0.1
 74
0
 49
-0.05
 74
0
 49
0.1
 74
0
 49
-0.05
 74
0
  0
LTYPE
  5
1F8
100
AcDbSymbolTableRecord
100
AcDbLinetypeTableRecord
  2
DOT
 70
64
  3
. . . . . . . . . . . . . . . . . . . .
 72
65
 73
2
 40
0.2
 49
0.1
 74
0
 49
-0.1
 74
0
  0
LTYPE
  5
1F9
100
AcDbSymbolTableRecord
100
AcDbLinetypeTableRecord
  2
DASHED
 70
64
  3
- - - - - - - - - - - - - - - - - - - -
 72
65
 73
2
 40
0.2
 49
0.1
 74
0
 49
-0.1
 74
0
  0
ENDTAB
  0
TABLE
  2
LAYER
  5
2
100
AcDbSymbolTable
 70
36
  0
LAYER
  5
10
100
AcDbSymbolTableRecord
100
AcDbLayerTableRecord
  2
0
 70
0
 62
7
  6
CONTINUOUS
370
-3
390
F
  0
LAYER
  5
1FA
100
AcDbSymbolTableRecord
100
AcDbLayerTableRecord
  2
DEFAULT_1
 70
0
 62
7
  6
CENTER
370
-3
390
F
  0
LAYER
  5
1FB
100
AcDbSymbolTableRecord
100
AcDbLayerTableRecord
  2
DEFAULT_2
 70
0
 62
7
  6
HIDDEN
370
-3
390
F
  0
LAYER
  5
1FC
100
AcDbSymbolTableRecord
100
AcDbLayerTableRecord
  2
DEFAULT_3
 70
0
 62
7
  6
PHANTOM
370
-3
390
F
  0
LAYER
  5
1FD
100
AcDbSymbolTableRecord
100
AcDbLayerTableRecord
  2
ASSI
 70
0
 62
7
  6
CONTINUOUS
370
-3
390
F
  0
LAYER
  5
1FE
100
AcDbSymbolTableRecord
100
AcDbLayerTableRecord
  2
COORDINATE
 70
0
 62
7
  6
CONTINUOUS
370
-3
390
F
  0
LAYER
  5
1FF
100
AcDbSymbolTableRecord
100
AcDbLayerTableRecord
  2
COPY_PUBLISH
 70
0
 62
7
  6
CONTINUOUS
370
-3
390
F
  0
LAYER
  5
200
100
AcDbSymbolTableRecord
100
AcDbLayerTableRecord
  2
COSMETICI
 70
0
 62
7
  6
CONTINUOUS
370
-3
390
F
  0
LAYER
  5
201
100
AcDbSymbolTableRecord
100
AcDbLayerTableRecord
  2
CURVE
 70
0
 62
7
  6
CONTINUOUS
370
-3
390
F
  0
LAYER
  5
202
100
AcDbSymbolTableRecord
100
AcDbLayerTableRecord
  2
DRAFT
 70
0
 62
7
  6
CONTINUOUS
370
-3
390
F
  0
LAYER
  5
203
100
AcDbSymbolTableRecord
100
AcDbLayerTableRecord
  2
IMPORT_IGES
 70
0
 62
7
  6
CONTINUOUS
370
-3
390
F
  0
LAYER
  5
204
100
AcDbSymbolTableRecord
100
AcDbLayerTableRecord
  2
INTF_1
 70
0
 62
7
  6
CONTINUOUS
370
-3
390
F
  0
LAYER
  5
205
100
AcDbSymbolTableRecord
100
AcDbLayerTableRecord
  2
NOTE
 70
0
 62
7
  6
CONTINUOUS
370
-3
390
F
  0
LAYER
  5
206
100
AcDbSymbolTableRecord
100
AcDbLayerTableRecord
  2
PIANI
 70
0
 62
7
  6
CONTINUOUS
370
-3
390
F
  0
LAYER
  5
207
100
AcDbSymbolTableRecord
100
AcDbLayerTableRecord
  2
PUNTI
 70
0
 62
7
  6
CONTINUOUS
370
-3
390
F
  0
LAYER
  5
208
100
AcDbSymbolTableRecord
100
AcDbLayerTableRecord
  2
RACCORDO
 70
0
 62
7
  6
CONTINUOUS
370
-3
390
F
  0
LAYER
  5
209
100
AcDbSymbolTableRecord
100
AcDbLayerTableRecord
  2
SCRITTE
 70
0
 62
7
  6
CONTINUOUS
370
-3
390
F
  0
LAYER
  5
20A
100
AcDbSymbolTableRecord
100
AcDbLayerTableRecord
  2
SIMBOLI
 70
0
 62
7
  6
CONTINUOUS
370
-3
390
F
  0
LAYER
  5
20B
100
AcDbSymbolTableRecord
100
AcDbLayerTableRecord
  2
SMUSSO
 70
0
 62
7
  6
CONTINUOUS
370
-3
390
F
  0
LAYER
  5
20C
100
AcDbSymbolTableRecord
100
AcDbLayerTableRecord
  2
SNAPLINE
 70
0
 62
7
  6
CONTINUOUS
370
-3
390
F
  0
LAYER
  5
20D
100
AcDbSymbolTableRecord
100
AcDbLayerTableRecord
  2
SUPERFICI
 70
0
 62
7
  6
CONTINUOUS
370
-3
390
F
  0
LAYER
  5
20E
100
AcDbSymbolTableRecord
100
AcDbLayerTableRecord
  2
TRASH
 70
0
 62
7
  6
CONTINUOUS
370
-3
390
F
  0
ENDTAB
  0
TABLE
  2
STYLE
  5
3
100
AcDbSymbolTable
 70
1
  0
STYLE
  5
11
100
AcDbSymbolTableRecord
100
AcDbTextStyleTableRecord
  2
STANDARD
 70
0
 40
0.0
 41
0.8
 50
0.0
 71
0
 42
0.2
  3
txt
  4

  0
STYLE
  5
20F
100
AcDbSymbolTableRecord
100
AcDbTextStyleTableRecord
  2
TEXTSTYLE_1
 70
0
 40
0.0
 41
0.8
 50
0.0
 71
0
 42
0.2
  3
gdt
  4

  0
ENDTAB
  0
TABLE
  2
VIEW
  5
6
100
AcDbSymbolTable
 70
0
  0
ENDTAB
  0
TABLE
  2
UCS
  5
7
100
AcDbSymbolTable
 70
0
  0
ENDTAB
  0
TABLE
  2
APPID
  5
9
100
AcDbSymbolTable
 70
1
  0
APPID
  5
210
100
AcDbSymbolTableRecord
100
AcDbRegAppTableRecord
  2
ACAD
 70
0
  0
ENDTAB
  0
TABLE
  2
BLOCK_RECORD
  5
1
100
AcDbSymbolTable
 70
0
  0
BLOCK_RECORD
  5
211
100
AcDbSymbolTableRecord
100
AcDbBlockTableRecord
  2
*Model_Space
  0
BLOCK_RECORD
  5
212
100
AcDbSymbolTableRecord
100
AcDbBlockTableRecord
  2
*Paper_Space
  0
BLOCK_RECORD
  5
213
100
AcDbSymbolTableRecord
100
AcDbBlockTableRecord
  2
_FILLED
  0
BLOCK_RECORD
  5
214
100
AcDbSymbolTableRecord
100
AcDbBlockTableRecord
  2
*D0
  0
BLOCK_RECORD
  5
215
100
AcDbSymbolTableRecord
100
AcDbBlockTableRecord
  2
*D1
  0
BLOCK_RECORD
  5
216
100
AcDbSymbolTableRecord
100
AcDbBlockTableRecord
  2
*D2
  0
BLOCK_RECORD
  5
217
100
AcDbSymbolTableRecord
100
AcDbBlockTableRecord
  2
*D3
  0
BLOCK_RECORD
  5
218
100
AcDbSymbolTableRecord
100
AcDbBlockTableRecord
  2
*D4
  0
ENDTAB
  0
TABLE
  2
DIMSTYLE
  5
A
100
AcDbSymbolTable
 70
1
100
AcDbDimStyleTable
 71
0
  0
DIMSTYLE
105
219
100
AcDbSymbolTableRecord
100
AcDbDimStyleTableRecord
  2
STANDARD
 70
0
  3

  4

 40
1.0
 41
3.0
 42
0.0625
 43
0.38
 44
0.18
 45
0.0
 46
0.0
 47
0.01
 48
0.01
140
3.0
141
0.09
142
0.0
143
25.4
144
1.0
145
0.0
146
1.0
147
0.09
 71
1.0
 72
0.0
 73
0
 74
0
 75
0
 76
0
 77
1
 78
8
170
0
171
2
172
0
173
0
174
0
175
0
176
0
177
0
178
0
270
2
271
2
272
2
273
2
274
2
275
0
280
0
281
0
282
0
283
1
284
8
285
0
286
0
287
3
288
0
340
11
341
213
342
213
343
213
344
213
  0
DIMSTYLE
105
21A
100
AcDbSymbolTableRecord
100
AcDbDimStyleTableRecord
  2
DIMSTYLE_1
 70
0
  3

  4

 40
1.0
 41
3.0
 42
0.0625
 43
0.38
 44
0.18
 45
0.0
 46
0.0
 47
0.0
 48
0.0
140
3.0
141
0.09
142
0.0
143
25.4
144
1.0
145
0.0
146
1.0
147
0.09
 71
0.0
 72
0.0
 73
0
 74
0
 75
0
 76
0
 77
1
 78
8
170
0
171
2
172
0
173
0
174
0
175
0
176
0
177
0
178
0
270
2
271
2
272
2
273
2
274
2
275
0
280
0
281
0
282
0
283
1
284
8
285
0
286
0
287
3
288
0
340
11
341
213
342
213
343
213
344
213
  0
DIMSTYLE
105
21B
100
AcDbSymbolTableRecord
100
AcDbDimStyleTableRecord
  2
DIMSTYLE_2
 70
0
  3

  4

 40
1.0
 41
3.0
 42
0.0625
 43
0.38
 44
0.18
 45
0.0
 46
0.0
 47
0.0
 48
0.0
140
3.0
141
0.09
142
0.0
143
25.4
144
1.0
145
0.0
146
1.0
147
0.09
 71
0.0
 72
0.0
 73
0
 74
0
 75
0
 76
0
 77
1
 78
8
170
0
171
2
172
0
173
0
174
0
175
0
176
0
177
0
178
0
270
2
271
1
272
1
273
2
274
2
275
0
280
0
281
0
282
0
283
1
284
8
285
0
286
0
287
3
288
0
340
11
341
213
342
213
343
213
344
213
  0
ENDTAB
  0
ENDSEC
  0
SECTION
  2
BLOCKS
  0
BLOCK
  5
20
100
AcDbEntity
  8
0
100
AcDbBlockBegin
  2
*Model_Space
 70
0
 10
0.0
 20
0.0
 30
0.0
  3
*Model_Space
  1

  0
ENDBLK
  5
21
100
AcDbEntity
  8
0
100
AcDbBlockEnd
  0
BLOCK
  5
1C
100
AcDbEntity
  8
0
100
AcDbBlockBegin
  2
*Paper_Space
 70
0
 10
0.0
 20
0.0
 30
0.0
  3
*Paper_Space
  1

  0
ENDBLK
  5
1D
100
AcDbEntity
  8
0
100
AcDbBlockEnd
  0
BLOCK
  5
21C
100
AcDbEntity
  8
0
100
AcDbBlockBegin
  2
_FILLED
 70
64
 10
0.0
 20
0.0
  3
_FILLED
  1

  0
SOLID
  5
21D
100
AcDbEntity
  8
0
  6
BYBLOCK
 62
0
100
AcDbTrace
 10
0.0
 20
0.0
 11
-1.0
 21
0.3166666667
 12
-1.0
 22
-0.3166666667
 13
-1.0
 23
-0.3166666667
  0
ENDBLK
  5
21E
100
AcDbEntity
  8
0
  6
BYBLOCK
 62
0
100
AcDbBlockEnd
  0
BLOCK
  5
21F
100
AcDbEntity
  8
0
100
AcDbBlockBegin
 62
7
  6
CONTINUOUS
  2
*D0
 70
65
 10
0.0
 20
0.0
  3
*D0
  1

  0
MTEXT
  5
220
100
AcDbEntity
  8
0
100
AcDbMText
 62
7
  6
CONTINUOUS
  7
STANDARD
 71
2
 72
1
 10
68.25
 20
-1.9395336683
 30
0.0
 11
0.0
 21
1.0
 31
0.0
 44
0.9
  1
90
 40
3.0
 41
4.7142857143
  0
LINE
  5
221
100
AcDbEntity
  8
0
100
AcDbLine
 62
7
  6
CONTINUOUS
 10
44.5199190996
 20
43.0604663317
 11
73.5
 21
43.0604663317
  0
LINE
  5
222
100
AcDbEntity
  8
0
100
AcDbLine
 62
7
  6
CONTINUOUS
 10
44.5199190996
 20
-46.9395336683
 11
73.5
 21
-46.9395336683
  0
LINE
  5
223
100
AcDbEntity
  8
0
100
AcDbLine
 62
7
  6
CONTINUOUS
 10
72.0
 20
43.0604663317
 11
72.0
 21
-1.9395336683
  0
LINE
  5
224
100
AcDbEntity
  8
0
100
AcDbLine
 62
7
  6
CONTINUOUS
 10
72.0
 20
-46.9395336683
 11
72.0
 21
-1.9395336683
  0
INSERT
  5
225
100
AcDbEntity
  8
0
100
AcDbBlockReference
 62
7
  6
CONTINUOUS
  2
_FILLED
 10
72.0
 20
43.0604663317
 41
3.0
 42
3.0
 43
3.0
 50
90.0
  0
INSERT
  5
226
100
AcDbEntity
  8
0
100
AcDbBlockReference
 62
7
  6
CONTINUOUS
  2
_FILLED
 10
72.0
 20
-46.9395336683
 41
3.0
 42
3.0
 43
3.0
 50
270.0
  0
ENDBLK
  5
227
100
AcDbEntity
  8
0
  6
BYBLOCK
 62
0
100
AcDbBlockEnd
  0
BLOCK
  5
228
100
AcDbEntity
  8
0
100
AcDbBlockBegin
 62
7
  6
CONTINUOUS
  2
*D1
 70
65
 10
0.0
 20
0.0
  3
*D1
  1

  0
MTEXT
  5
229
100
AcDbEntity
  8
0
100
AcDbMText
 62
7
  6
CONTINUOUS
  7
STANDARD
 71
2
 72
1
 10
0.0
 20
72.4951803017
 30
0.0
 11
1.0
 21
0.0
 31
0.0
 44
0.9
  1
90
 40
3.0
 41
4.7142857143
  0
LINE
  5
22A
100
AcDbEntity
  8
0
100
AcDbLine
 62
7
  6
CONTINUOUS
 10
-44.9999892161
 20
42.5639874326
 11
-44.9999892161
 21
70.2451803017
  0
LINE
  5
22B
100
AcDbEntity
  8
0
100
AcDbLine
 62
7
  6
CONTINUOUS
 10
44.9999892161
 20
42.5639874326
 11
44.9999892161
 21
70.2451803017
  0
LINE
  5
22C
100
AcDbEntity
  8
0
100
AcDbLine
 62
7
  6
CONTINUOUS
 10
-44.9999892161
 20
68.7451803017
 11
0.0
 21
68.7451803017
  0
LINE
  5
22D
100
AcDbEntity
  8
0
100
AcDbLine
 62
7
  6
CONTINUOUS
 10
44.9999892161
 20
68.7451803017
 11
0.0
 21
68.7451803017
  0
INSERT
  5
22E
100
AcDbEntity
  8
0
100
AcDbBlockReference
 62
7
  6
CONTINUOUS
  2
_FILLED
 10
-44.9999892161
 20
68.7451803017
 41
3.0
 42
3.0
 43
3.0
 50
180.0
  0
INSERT
  5
22F
100
AcDbEntity
  8
0
100
AcDbBlockReference
 62
7
  6
CONTINUOUS
  2
_FILLED
 10
44.9999892161
 20
68.7451803017
 41
3.0
 42
3.0
 43
3.0
  0
ENDBLK
  5
230
100
AcDbEntity
  8
0
  6
BYBLOCK
 62
0
100
AcDbBlockEnd
  0
BLOCK
  5
231
100
AcDbEntity
  8
0
100
AcDbBlockBegin
 62
7
  6
CONTINUOUS
  2
*D2
 70
65
 10
0.0
 20
0.0
  3
*D2
  1

  0
MTEXT
  5
232
100
AcDbEntity
  8
0
100
AcDbMText
 62
7
  6
CONTINUOUS
  7
STANDARD
 71
2
 72
1
 10
0.0
 20
62.4951803017
 30
0.0
 11
1.0
 21
0.0
 31
0.0
 44
0.9
  1
22,8
 40
3.0
 41
8.7857142857
  0
LINE
  5
233
100
AcDbEntity
  8
0
100
AcDbLine
 62
7
  6
CONTINUOUS
 10
-11.4000045188
 20
20.3116004857
 11
-11.4000045188
 21
60.2451803017
  0
LINE
  5
234
100
AcDbEntity
  8
0
100
AcDbLine
 62
7
  6
CONTINUOUS
 10
11.4000045188
 20
20.3116004857
 11
11.4000045188
 21
60.2451803017
  0
LINE
  5
235
100
AcDbEntity
  8
0
100
AcDbLine
 62
7
  6
CONTINUOUS
 10
-11.4000045188
 20
58.7451803017
 11
-0.0
 21
58.7451803017
  0
LINE
  5
236
100
AcDbEntity
  8
0
100
AcDbLine
 62
7
  6
CONTINUOUS
 10
11.4000045188
 20
58.7451803017
 11
-0.0
 21
58.7451803017
  0
INSERT
  5
237
100
AcDbEntity
  8
0
100
AcDbBlockReference
 62
7
  6
CONTINUOUS
  2
_FILLED
 10
-11.4000045188
 20
58.7451803017
 41
3.0
 42
3.0
 43
3.0
 50
180.0
  0
INSERT
  5
238
100
AcDbEntity
  8
0
100
AcDbBlockReference
 62
7
  6
CONTINUOUS
  2
_FILLED
 10
11.4000045188
 20
58.7451803017
 41
3.0
 42
3.0
 43
3.0
  0
ENDBLK
  5
239
100
AcDbEntity
  8
0
  6
BYBLOCK
 62
0
100
AcDbBlockEnd
  0
BLOCK
  5
23A
100
AcDbEntity
  8
0
100
AcDbBlockBegin
 62
7
  6
CONTINUOUS
  2
*D3
 70
65
 10
0.0
 20
0.0
  3
*D3
  1

  0
MTEXT
  5
23B
100
AcDbEntity
  8
0
100
AcDbMText
 62
7
  6
CONTINUOUS
  7
STANDARD
 71
2
 72
1
 10
58.25
 20
-1.9395336683
 30
0.0
 11
0.0
 21
1.0
 31
0.0
 44
0.9
  1
45,1
 40
3.0
 41
7.9285714286
  0
LINE
  5
23C
100
AcDbEntity
  8
0
100
AcDbLine
 62
7
  6
CONTINUOUS
 10
11.0990196442
 20
20.6104663317
 11
63.5
 21
20.6104663317
  0
LINE
  5
23D
100
AcDbEntity
  8
0
100
AcDbLine
 62
7
  6
CONTINUOUS
 10
11.0990196442
 20
-24.4895336683
 11
63.5
 21
-24.4895336683
  0
LINE
  5
23E
100
AcDbEntity
  8
0
100
AcDbLine
 62
7
  6
CONTINUOUS
 10
62.0
 20
20.6104663317
 11
62.0
 21
-1.9395336683
  0
LINE
  5
23F
100
AcDbEntity
  8
0
100
AcDbLine
 62
7
  6
CONTINUOUS
 10
62.0
 20
-24.4895336683
 11
62.0
 21
-1.9395336683
  0
INSERT
  5
240
100
AcDbEntity
  8
0
100
AcDbBlockReference
 62
7
  6
CONTINUOUS
  2
_FILLED
 10
62.0
 20
20.6104663317
 41
3.0
 42
3.0
 43
3.0
 50
90.0
  0
INSERT
  5
241
100
AcDbEntity
  8
0
100
AcDbBlockReference
 62
7
  6
CONTINUOUS
  2
_FILLED
 10
62.0
 20
-24.4895336683
 41
3.0
 42
3.0
 43
3.0
 50
270.0
  0
ENDBLK
  5
242
100
AcDbEntity
  8
0
  6
BYBLOCK
 62
0
100
AcDbBlockEnd
  0
BLOCK
  5
243
100
AcDbEntity
  8
0
100
AcDbBlockBegin
 62
7
  6
CONTINUOUS
  2
*D4
 70
65
 10
0.0
 20
0.0
  3
*D4
  1

  0
MTEXT
  5
244
100
AcDbEntity
  8
0
100
AcDbMText
 62
7
  6
CONTINUOUS
  7
STANDARD
 71
1
 72
1
 10
-64.3711682189
 20
62.4951803017
 30
0.0
 11
1.0
 21
0.0
 31
0.0
 44
0.9
  1
8,6
 40
3.0
 41
6.4285714286
  0
LINE
  5
245
100
AcDbEntity
  8
0
100
AcDbLine
 62
7
  6
CONTINUOUS
 10
-68.2621775746
 20
41.1229964389
 11
-68.2621775759
 21
60.2451803014
  0
LINE
  5
246
100
AcDbEntity
  8
0
100
AcDbLine
 62
7
  6
CONTINUOUS
 10
-76.8302891701
 20
-1.4395336993
 11
-76.8302891743
 21
60.2451803008
  0
LINE
  5
247
100
AcDbEntity
  8
0
100
AcDbLine
 62
7
  6
CONTINUOUS
 10
-68.2621775758
 20
58.7451803014
 11
-57.9425967903
 21
58.7451803017
  0
LINE
  5
248
100
AcDbEntity
  8
0
100
AcDbLine
 62
7
  6
CONTINUOUS
 10
-57.9425967903
 20
58.7451803017
 11
-72.546233375
 21
58.7451803011
  0
LINE
  5
249
100
AcDbEntity
  8
0
100
AcDbLine
 62
7
  6
CONTINUOUS
 10
-76.8302891742
 20
58.7451803008
 11
-80.8302891742
 21
58.7451803005
  0
LINE
  5
24A
100
AcDbEntity
  8
0
100
AcDbLine
 62
7
  6
CONTINUOUS
 10
-80.8302891742
 20
58.7451803005
 11
-72.546233375
 21
58.7451803011
  0
INSERT
  5
24B
100
AcDbEntity
  8
0
100
AcDbBlockReference
 62
7
  6
CONTINUOUS
  2
_FILLED
 10
-68.2621775758
 20
58.7451803014
 41
3.0
 42
3.0
 43
3.0
 50
180.0000000015
  0
INSERT
  5
24C
100
AcDbEntity
  8
0
100
AcDbBlockReference
 62
7
  6
CONTINUOUS
  2
_FILLED
 10
-76.8302891742
 20
58.7451803008
 41
3.0
 42
3.0
 43
3.0
 50
0.0000000039
  0
ENDBLK
  5
24D
100
AcDbEntity
  8
0
  6
BYBLOCK
 62
0
100
AcDbBlockEnd
  0
ENDSEC
  0
SECTION
  2
ENTITIES
  0
DIMENSION
  5
24E
100
AcDbEntity
  8
0
100
AcDbDimension
 62
7
  6
CONTINUOUS
  2
*D0
 10
72.0
 20
-46.9395336683
 11
70.8061735237
 21
-4.0468115182
 70
160
 71
2
 42
90.0
  3
DIMSTYLE_1
100
AcDbAlignedDimension
 13
44.5199190996
 23
43.0604663317
 14
44.5199190996
 24
-46.9395336683
 50
270.0
100
AcDbRotatedDimension
  0
DIMENSION
  5
24F
100
AcDbEntity
  8
0
100
AcDbDimension
 62
7
  6
CONTINUOUS
  2
*D1
 10
44.9999892161
 20
68.7451803017
 11
-2.3571428571
 21
70.9951803017
 70
160
 71
2
 42
89.9999784322
  3
DIMSTYLE_1
100
AcDbAlignedDimension
 13
-44.9999892161
 23
42.5639874326
 14
44.9999892161
 24
42.5639874326
100
AcDbRotatedDimension
  0
DIMENSION
  5
250
100
AcDbEntity
  8
0
100
AcDbDimension
 62
7
  6
CONTINUOUS
  2
*D2
 10
11.4000045188
 20
58.7451803017
 11
-4.3928571429
 21
60.9951803017
 70
160
 71
2
 42
22.8000090376
  3
DIMSTYLE_1
100
AcDbAlignedDimension
 13
-11.4000045188
 23
20.3116004857
 14
11.4000045188
 24
20.3116004857
100
AcDbRotatedDimension
  0
DIMENSION
  5
251
100
AcDbEntity
  8
0
100
AcDbDimension
 62
7
  6
CONTINUOUS
  2
*D3
 10
62.0
 20
-24.4895336683
 11
61.5262918354
 21
-5.4835918704
 70
160
 71
2
 42
45.1
  3
DIMSTYLE_1
100
AcDbAlignedDimension
 13
11.0990196442
 23
20.6104663317
 14
11.0990196442
 24
-24.4895336683
 50
270.0
100
AcDbRotatedDimension
  0
DIMENSION
  5
252
100
AcDbEntity
  8
0
100
AcDbDimension
 62
7
  6
CONTINUOUS
  2
*D4
 10
-76.8302891742
 20
58.7451803008
 11
-61.1568825046
 21
60.9951803017
 70
160
 71
1
 42
8.5681115985
  3
DIMSTYLE_2
100
AcDbAlignedDimension
 13
-68.2621775746
 23
41.1229964389
 14
-76.8302891701
 24
-1.4395336993
 50
180.0000000039
100
AcDbRotatedDimension
  0
LWPOLYLINE
  5
253
100
AcDbEntity
  8
RACCORDO
100
AcDbPolyline
 62
253
  6
CONTINUOUS
 90
28
 70
0
 10
-44.818245447
 20
-45.7582460172
 10
-44.815905722
 20
-45.8163535627
 10
-44.8102476021
 20
-45.8741364948
 10
-44.8013025237
 20
-45.9314060405
 10
-44.7891196327
 20
-45.9879572337
 10
-44.7737468608
 20
-46.0436266809
 10
-44.7552189791
 20
-46.0982898378
 10
-44.7335838652
 20
-46.1518010001
 10
-44.7089252591
 20
-46.2039505995
 10
-44.6813432336
 20
-46.2545242923
 10
-44.6509462418
 20
-46.3033449092
 10
-44.6178340669
 20
-46.350273436
 10
-44.5821125204
 20
-46.3951643895
 10
-44.5439034982
 20
-46.4378754646
 10
-44.5033384642
 20
-46.4782709315
 10
-44.460546981
 20
-46.516224531
 10
-44.4156744391
 20
-46.5516144517
 10
-44.3688697406
 20
-46.5843311108
 10
-44.3202751342
 20
-46.6142766145
 10
-44.2700463939
 20
-46.6413571116
 10
-44.2183532308
 20
-46.6654841871
 10
-44.1653650333
 20
-46.6865802056
 10
-44.111263434
 20
-46.7045755869
 10
-44.056218048
 20
-46.719417383
 10
-44.0003841697
 20
-46.7310638335
 10
-43.9439349479
 20
-46.7394756375
 10
-43.8870620146
 20
-46.7446207248
 10
-43.8299503769
 20
-46.746479572
  0
LWPOLYLINE
  5
254
100
AcDbEntity
  8
ASSI
100
AcDbPolyline
 62
253
  6
CONTINUOUS
 90
28
 70
0
 10
-44.818245447
 20
-45.7582460172
 10
-44.815905722
 20
-45.8163535627
 10
-44.8102476021
 20
-45.8741364948
 10
-44.8013025237
 20
-45.9314060405
 10
-44.7891196327
 20
-45.9879572337
 10
-44.7737468608
 20
-46.0436266809
 10
-44.7552189791
 20
-46.0982898378
 10
-44.7335838652
 20
-46.1518010001
 10
-44.7089252591
 20
-46.2039505995
 10
-44.6813432336
 20
-46.2545242923
 10
-44.6509462418
 20
-46.3033449092
 10
-44.6178340669
 20
-46.350273436
 10
-44.5821125204
 20
-46.3951643895
 10
-44.5439034982
 20
-46.4378754646
 10
-44.5033384642
 20
-46.4782709315
 10
-44.460546981
 20
-46.516224531
 10
-44.4156744391
 20
-46.5516144517
 10
-44.3688697406
 20
-46.5843311108
 10
-44.3202751342
 20
-46.6142766145
 10
-44.2700463939
 20
-46.6413571116
 10
-44.2183532308
 20
-46.6654841871
 10
-44.1653650333
 20
-46.6865802056
 10
-44.111263434
 20
-46.7045755869
 10
-44.056218048
 20
-46.719417383
 10
-44.0003841697
 20
-46.7310638335
 10
-43.9439349479
 20
-46.7394756375
 10
-43.8870620146
 20
-46.7446207248
 10
-43.8299503769
 20
-46.746479572
  0
LWPOLYLINE
  5
255
100
AcDbEntity
  8
RACCORDO
100
AcDbPolyline
 62
253
  6
CONTINUOUS
 90
28
 70
0
 10
43.8299503769
 20
-46.746479572
 10
43.8870550041
 20
-46.7446210774
 10
43.9438986983
 20
-46.7394799036
 10
44.0002970679
 20
-46.7310793728
 10
44.0560405076
 20
-46.7194598189
 10
44.1109769237
 20
-46.7046617225
 10
44.1650082691
 20
-46.6867101727
 10
44.2179940208
 20
-46.6656390025
 10
44.2697188624
 20
-46.6415213925
 10
44.3199757754
 20
-46.6144492379
 10
44.3685829912
 20
-46.5845194522
 10
44.4153979864
 20
-46.5518199552
 10
44.4602814561
 20
-46.5164469359
 10
44.5030852283
 20
-46.4785093217
 10
44.5436631566
 20
-46.4381294961
 10
44.581886011
 20
-46.3954333103
 10
44.6176229207
 20
-46.3505555465
 10
44.6507512097
 20
-46.3036392625
 10
44.6811636532
 20
-46.2548322998
 10
44.7087546246
 20
-46.2042860986
 10
44.733423648
 20
-46.1521664005
 10
44.7550844781
 20
-46.0986514887
 10
44.7736570833
 20
-46.0439180082
 10
44.7890746325
 20
-45.9881398008
 10
44.8012854486
 20
-45.9314977863
 10
44.8102425797
 20
-45.8741762353
 10
44.8159051462
 20
-45.8163624904
 10
44.818245447
 20
-45.7582460177
  0
LWPOLYLINE
  5
256
100
AcDbEntity
  8
ASSI
100
AcDbPolyline
 62
253
  6
CONTINUOUS
 90
28
 70
0
 10
43.8299503769
 20
-46.746479572
 10
43.8870550041
 20
-46.7446210774
 10
43.9438986983
 20
-46.7394799036
 10
44.0002970679
 20
-46.7310793728
 10
44.0560405076
 20
-46.7194598189
 10
44.1109769237
 20
-46.7046617225
 10
44.1650082691
 20
-46.6867101727
 10
44.2179940208
 20
-46.6656390025
 10
44.2697188624
 20
-46.6415213925
 10
44.3199757754
 20
-46.6144492379
 10
44.3685829912
 20
-46.5845194522
 10
44.4153979864
 20
-46.5518199552
 10
44.4602814561
 20
-46.5164469359
 10
44.5030852283
 20
-46.4785093217
 10
44.5436631566
 20
-46.4381294961
 10
44.581886011
 20
-46.3954333103
 10
44.6176229207
 20
-46.3505555465
 10
44.6507512097
 20
-46.3036392625
 10
44.6811636532
 20
-46.2548322998
 10
44.7087546246
 20
-46.2042860986
 10
44.733423648
 20
-46.1521664005
 10
44.7550844781
 20
-46.0986514887
 10
44.7736570833
 20
-46.0439180082
 10
44.7890746325
 20
-45.9881398008
 10
44.8012854486
 20
-45.9314977863
 10
44.8102425797
 20
-45.8741762353
 10
44.8159051462
 20
-45.8163624904
 10
44.818245447
 20
-45.7582460177
  0
LWPOLYLINE
  5
257
100
AcDbEntity
  8
RACCORDO
100
AcDbPolyline
 62
253
  6
CONTINUOUS
 90
28
 70
0
 10
43.8299503769
 20
-46.33831503
 10
43.8586610063
 20
-46.3374644441
 10
43.8870638825
 20
-46.3349780506
 10
43.9151590055
 20
-46.3308558362
 10
43.943030704
 20
-46.3250776763
 10
43.9705946493
 20
-46.3176636414
 10
43.9975978548
 20
-46.3086739987
 10
44.0240465589
 20
-46.2980893446
 10
44.0499345231
 20
-46.2859289802
 10
44.0749900458
 20
-46.272311223
 10
44.0991973008
 20
-46.2572247586
 10
44.1225721142
 20
-46.240680763
 10
44.1448902624
 20
-46.2228312914
 10
44.1661444749
 20
-46.2036626519
 10
44.1863420223
 20
-46.1831883767
 10
44.2052804927
 20
-46.1616013706
 10
44.2229489705
 20
-46.1388888412
 10
44.2393583714
 20
-46.1150634185
 10
44.2543390304
 20
-46.0903561666
 10
44.2678766544
 20
-46.0647575092
 10
44.2799855366
 20
-46.0382768773
 10
44.2905388909
 20
-46.0111738828
 10
44.299521441
 20
-45.9834328357
 10
44.3069484633
 20
-45.9550693149
 10
44.3127390017
 20
-45.9263898848
 10
44.3168660708
 20
-45.8974967273
 10
44.3193566561
 20
-45.8682876094
 10
44.3202107575
 20
-45.8387625022
  0
LWPOLYLINE
  5
258
100
AcDbEntity
  8
ASSI
100
AcDbPolyline
 62
253
  6
CONTINUOUS
 90
28
 70
0
 10
43.8299503769
 20
-46.33831503
 10
43.8586610063
 20
-46.3374644441
 10
43.8870638825
 20
-46.3349780506
 10
43.9151590055
 20
-46.3308558362
 10
43.943030704
 20
-46.3250776763
 10
43.9705946493
 20
-46.3176636414
 10
43.9975978548
 20
-46.3086739987
 10
44.0240465589
 20
-46.2980893446
 10
44.0499345231
 20
-46.2859289802
 10
44.0749900458
 20
-46.272311223
 10
44.0991973008
 20
-46.2572247586
 10
44.1225721142
 20
-46.240680763
 10
44.1448902624
 20
-46.2228312914
 10
44.1661444749
 20
-46.2036626519
 10
44.1863420223
 20
-46.1831883767
 10
44.2052804927
 20
-46.1616013706
 10
44.2229489705
 20
-46.1388888412
 10
44.2393583714
 20
-46.1150634185
 10
44.2543390304
 20
-46.0903561666
 10
44.2678766544
 20
-46.0647575092
 10
44.2799855366
 20
-46.0382768773
 10
44.2905388909
 20
-46.0111738828
 10
44.299521441
 20
-45.9834328357
 10
44.3069484633
 20
-45.9550693149
 10
44.3127390017
 20
-45.9263898848
 10
44.3168660708
 20
-45.8974967273
 10
44.3193566561
 20
-45.8682876094
 10
44.3202107575
 20
-45.8387625022
  0
LINE
  5
259
100
AcDbEntity
  8
RACCORDO
100
AcDbLine
 62
7
  6
CONTINUOUS
 10
-44.0199190996
 20
-46.9395336683
 11
44.0199190996
 21
-46.9395336683
  0
LINE
  5
25A
100
AcDbEntity
  8
ASSI
100
AcDbLine
 62
7
  6
CONTINUOUS
 10
-44.0199190996
 20
-46.9395336683
 11
44.0199190996
 21
-46.9395336683
  0
LINE
  5
25B
100
AcDbEntity
  8
RACCORDO
100
AcDbLine
 62
253
  6
CONTINUOUS
 10
-43.8299503769
 20
-46.746479572
 11
43.8299503769
 21
-46.746479572
  0
LINE
  5
25C
100
AcDbEntity
  8
ASSI
100
AcDbLine
 62
253
  6
CONTINUOUS
 10
-43.8299503769
 20
-46.746479572
 11
43.8299503769
 21
-46.746479572
  0
LWPOLYLINE
  5
25D
100
AcDbEntity
  8
RACCORDO
100
AcDbPolyline
 62
7
  6
CONTINUOUS
 90
28
 70
0
 10
-44.0199190996
 20
-46.9395336683
 10
-44.0764314888
 20
-46.9379317105
 10
-44.1324866956
 20
-46.9331020447
 10
-44.1880847201
 20
-46.9250446164
 10
-44.2434714848
 20
-46.9137026155
 10
-44.2984010672
 20
-46.8991326323
 10
-44.3521356995
 20
-46.8815046671
 10
-44.4045494499
 20
-46.8608220699
 10
-44.4557682502
 20
-46.837081083
 10
-44.5054321278
 20
-46.8104410177
 10
-44.5535364086
 20
-46.7809139798
 10
-44.6000857666
 20
-46.7484873
 10
-44.6447342516
 20
-46.7132831114
 10
-44.6875941193
 20
-46.6751427186
 10
-44.7285531141
 20
-46.6342241016
 10
-44.7669285181
 20
-46.5911244659
 10
-44.802582628
 20
-46.545911504
 10
-44.8356531472
 20
-46.4985168726
 10
-44.865870468
 20
-46.4493338494
 10
-44.8932199075
 20
-46.3983918084
 10
-44.9177161486
 20
-46.3456607743
 10
-44.9391336329
 20
-46.2914451053
 10
-44.9574910232
 20
-46.2355688979
 10
-44.9727696567
 20
-46.1782074891
 10
-44.9846879865
 20
-46.1201923056
 10
-44.9931521636
 20
-46.0618004811
 10
-44.9982560369
 20
-46.0027546763
 10
-44.9999996065
 20
-45.9430547692
  0
LWPOLYLINE
  5
25E
100
AcDbEntity
  8
ASSI
100
AcDbPolyline
 62
7
  6
CONTINUOUS
 90
28
 70
0
 10
-44.0199190996
 20
-46.9395336683
 10
-44.0764314888
 20
-46.9379317105
 10
-44.1324866956
 20
-46.9331020447
 10
-44.1880847201
 20
-46.9250446164
 10
-44.2434714848
 20
-46.9137026155
 10
-44.2984010672
 20
-46.8991326323
 10
-44.3521356995
 20
-46.8815046671
 10
-44.4045494499
 20
-46.8608220699
 10
-44.4557682502
 20
-46.837081083
 10
-44.5054321278
 20
-46.8104410177
 10
-44.5535364086
 20
-46.7809139798
 10
-44.6000857666
 20
-46.7484873
 10
-44.6447342516
 20
-46.7132831114
 10
-44.6875941193
 20
-46.6751427186
 10
-44.7285531141
 20
-46.6342241016
 10
-44.7669285181
 20
-46.5911244659
 10
-44.802582628
 20
-46.545911504
 10
-44.8356531472
 20
-46.4985168726
 10
-44.865870468
 20
-46.4493338494
 10
-44.8932199075
 20
-46.3983918084
 10
-44.9177161486
 20
-46.3456607743
 10
-44.9391336329
 20
-46.2914451053
 10
-44.9574910232
 20
-46.2355688979
 10
-44.9727696567
 20
-46.1782074891
 10
-44.9846879865
 20
-46.1201923056
 10
-44.9931521636
 20
-46.0618004811
 10
-44.9982560369
 20
-46.0027546763
 10
-44.9999996065
 20
-45.9430547692
  0
LWPOLYLINE
  5
25F
100
AcDbEntity
  8
RACCORDO
100
AcDbPolyline
 62
253
  6
CONTINUOUS
 90
28
 70
0
 10
-44.3202107575
 20
-45.8387625022
 10
-44.319349712
 20
-45.8683099895
 10
-44.3168584578
 20
-45.8975225091
 10
-44.3127369949
 20
-45.9264000919
 10
-44.3069611048
 20
-45.955032985
 10
-44.2995550059
 20
-45.9833309967
 10
-44.2905913541
 20
-46.0110235245
 10
-44.2800507835
 20
-46.038112915
 10
-44.2679526599
 20
-46.0645969286
 10
-44.2544277356
 20
-46.090198131
 10
-44.2394647476
 20
-46.1148991412
 10
-44.223074959
 20
-46.1387174858
 10
-44.2054229113
 20
-46.1614281301
 10
-44.1864965558
 20
-46.1830212712
 10
-44.1663079412
 20
-46.2035068734
 10
-44.1450577555
 20
-46.2226895771
 10
-44.122736063
 20
-46.2405567276
 10
-44.0993527993
 20
-46.2571211391
 10
-44.0751384586
 20
-46.2722256694
 10
-44.0500853964
 20
-46.2858559606
 10
-44.0242012572
 20
-46.2980265096
 10
-43.9977394695
 20
-46.3086234592
 10
-43.9706880133
 20
-46.3176318279
 10
-43.9430589086
 20
-46.3250666996
 10
-43.9151416438
 20
-46.330859309
 10
-43.887032715
 20
-46.3349867529
 10
-43.858635626
 20
-46.3374719887
 10
-43.8299503769
 20
-46.33831503
  0
LWPOLYLINE
  5
260
100
AcDbEntity
  8
ASSI
100
AcDbPolyline
 62
253
  6
CONTINUOUS
 90
28
 70
0
 10
-44.3202107575
 20
-45.8387625022
 10
-44.319349712
 20
-45.8683099895
 10
-44.3168584578
 20
-45.8975225091
 10
-44.3127369949
 20
-45.9264000919
 10
-44.3069611048
 20
-45.955032985
 10
-44.2995550059
 20
-45.9833309967
 10
-44.2905913541
 20
-46.0110235245
 10
-44.2800507835
 20
-46.038112915
 10
-44.2679526599
 20
-46.0645969286
 10
-44.2544277356
 20
-46.090198131
 10
-44.2394647476
 20
-46.1148991412
 10
-44.223074959
 20
-46.1387174858
 10
-44.2054229113
 20
-46.1614281301
 10
-44.1864965558
 20
-46.1830212712
 10
-44.1663079412
 20
-46.2035068734
 10
-44.1450577555
 20
-46.2226895771
 10
-44.122736063
 20
-46.2405567276
 10
-44.0993527993
 20
-46.2571211391
 10
-44.0751384586
 20
-46.2722256694
 10
-44.0500853964
 20
-46.2858559606
 10
-44.0242012572
 20
-46.2980265096
 10
-43.9977394695
 20
-46.3086234592
 10
-43.9706880133
 20
-46.3176318279
 10
-43.9430589086
 20
-46.3250666996
 10
-43.9151416438
 20
-46.330859309
 10
-43.887032715
 20
-46.3349867529
 10
-43.858635626
 20
-46.3374719887
 10
-43.8299503769
 20
-46.33831503
  0
LINE
  5
261
100
AcDbEntity
  8
RACCORDO
100
AcDbLine
 62
7
  6
CONTINUOUS
 10
-44.9999996065
 20
-45.9430547692
 11
-45.0
 21
-24.4187669182
  0
LINE
  5
262
100
AcDbEntity
  8
DRAFT
100
AcDbLine
 62
7
  6
CONTINUOUS
 10
-45.0
 20
-24.4187669182
 11
-45.0
 21
20.5396995816
  0
LINE
  5
263
100
AcDbEntity
  8
RACCORDO
100
AcDbLine
 62
7
  6
CONTINUOUS
 10
-45.0
 20
20.5396995816
 11
-44.9999996065
 21
42.0639874326
  0
LINE
  5
264
100
AcDbEntity
  8
ASSI
100
AcDbLine
 62
7
  6
CONTINUOUS
 10
-44.9999996065
 20
-45.9430547692
 11
-44.9999996065
 21
42.0639874326
  0
LINE
  5
265
100
AcDbEntity
  8
RACCORDO
100
AcDbLine
 62
253
  6
CONTINUOUS
 10
-44.8211997005
 20
-1.9395335365
 11
-44.8182454469
 21
-45.7582460171
  0
LINE
  5
266
100
AcDbEntity
  8
ASSI
100
AcDbLine
 62
253
  6
CONTINUOUS
 10
-44.8211997005
 20
-1.9395335365
 11
-44.8182454469
 21
-45.7582460171
  0
LINE
  5
267
100
AcDbEntity
  8
RACCORDO
100
AcDbLine
 62
253
  6
CONTINUOUS
 10
-44.3231023515
 20
-1.9395336652
 11
-44.3202107575
 21
-45.8387625022
  0
LINE
  5
268
100
AcDbEntity
  8
ASSI
100
AcDbLine
 62
253
  6
CONTINUOUS
 10
-44.3231023515
 20
-1.9395336652
 11
-44.3202107575
 21
-45.8387625022
  0
LINE
  5
269
100
AcDbEntity
  8
RACCORDO
100
AcDbLine
 62
253
  6
CONTINUOUS
 10
-43.8299503769
 20
-46.33831503
 11
-43.8299503769
 21
-46.746479572
  0
LINE
  5
26A
100
AcDbEntity
  8
ASSI
100
AcDbLine
 62
253
  6
CONTINUOUS
 10
-43.8299503769
 20
-46.33831503
 11
-43.8299503769
 21
-46.746479572
  0
LINE
  5
26B
100
AcDbEntity
  8
RACCORDO
100
AcDbLine
 62
253
  6
CONTINUOUS
 10
-43.8299503769
 20
42.4592476934
 11
-43.8299503772
 21
42.8674122354
  0
LINE
  5
26C
100
AcDbEntity
  8
ASSI
100
AcDbLine
 62
253
  6
CONTINUOUS
 10
-43.8299503769
 20
42.4592476934
 11
-43.8299503772
 21
42.8674122354
  0
LWPOLYLINE
  5
26D
100
AcDbEntity
  8
RACCORDO
100
AcDbPolyline
 62
253
  6
CONTINUOUS
 90
3
 70
0
 10
-44.8182454469
 20
41.8791786809
 10
-44.8208296797
 20
23.0151127143
 10
-44.8211997005
 20
-1.9395335365
  0
LWPOLYLINE
  5
26E
100
AcDbEntity
  8
ASSI
100
AcDbPolyline
 62
253
  6
CONTINUOUS
 90
3
 70
0
 10
-44.8182454469
 20
41.8791786809
 10
-44.8208296797
 20
23.0151127143
 10
-44.8211997005
 20
-1.9395335365
  0
LWPOLYLINE
  5
26F
100
AcDbEntity
  8
RACCORDO
100
AcDbPolyline
 62
253
  6
CONTINUOUS
 90
3
 70
0
 10
-44.3202107575
 20
41.9596951656
 10
-44.3227324871
 20
23.0444556561
 10
-44.3231023515
 20
-1.9395336652
  0
LWPOLYLINE
  5
270
100
AcDbEntity
  8
ASSI
100
AcDbPolyline
 62
253
  6
CONTINUOUS
 90
3
 70
0
 10
-44.3202107575
 20
41.9596951656
 10
-44.3227324871
 20
23.0444556561
 10
-44.3231023515
 20
-1.9395336652
  0
LWPOLYLINE
  5
271
100
AcDbEntity
  8
RACCORDO
100
AcDbPolyline
 62
7
  6
CONTINUOUS
 90
28
 70
0
 10
-44.9999996065
 20
42.0639874326
 10
-44.9982512767
 20
42.1237012102
 10
-44.993147257
 20
42.1827478526
 10
-44.9846875473
 20
42.2411274846
 10
-44.9727803597
 20
42.2991090565
 10
-44.9575174821
 20
42.3564238296
 10
-44.9391742792
 20
42.4122655512
 10
-44.9177675706
 20
42.4664700611
 10
-44.8932805366
 20
42.5192020798
 10
-44.8659380835
 20
42.5701488785
 10
-44.8357239893
 20
42.6193396707
 10
-44.802654476
 20
42.6667458432
 10
-44.7670031149
 20
42.7119680333
 10
-44.7286331998
 20
42.7550721312
 10
-44.687681437
 20
42.7959928987
 10
-44.6448315177
 20
42.8341344076
 10
-44.6002000895
 20
42.8693370492
 10
-44.5536705048
 20
42.9017611482
 10
-44.5055765112
 20
42.9312907346
 10
-44.4559094922
 20
42.9579423369
 10
-44.4046780645
 20
42.9816999892
 10
-44.3522418255
 20
43.0023989645
 10
-44.2984659543
 20
43.0200428102
 10
-44.2434852718
 20
43.0346283869
 10
-44.188063839
 20
43.0459809112
 10
-44.1324563429
 20
43.0540421986
 10
-44.0764080964
 20
43.0588706539
 10
-44.0199190996
 20
43.0604663317
  0
LWPOLYLINE
  5
272
100
AcDbEntity
  8
ASSI
100
AcDbPolyline
 62
7
  6
CONTINUOUS
 90
28
 70
0
 10
-44.9999996065
 20
42.0639874326
 10
-44.9982512767
 20
42.1237012102
 10
-44.993147257
 20
42.1827478526
 10
-44.9846875473
 20
42.2411274846
 10
-44.9727803597
 20
42.2991090565
 10
-44.9575174821
 20
42.3564238296
 10
-44.9391742792
 20
42.4122655512
 10
-44.9177675706
 20
42.4664700611
 10
-44.8932805366
 20
42.5192020798
 10
-44.8659380835
 20
42.5701488785
 10
-44.8357239893
 20
42.6193396707
 10
-44.802654476
 20
42.6667458432
 10
-44.7670031149
 20
42.7119680333
 10
-44.7286331998
 20
42.7550721312
 10
-44.687681437
 20
42.7959928987
 10
-44.6448315177
 20
42.8341344076
 10
-44.6002000895
 20
42.8693370492
 10
-44.5536705048
 20
42.9017611482
 10
-44.5055765112
 20
42.9312907346
 10
-44.4559094922
 20
42.9579423369
 10
-44.4046780645
 20
42.9816999892
 10
-44.3522418255
 20
43.0023989645
 10
-44.2984659543
 20
43.0200428102
 10
-44.2434852718
 20
43.0346283869
 10
-44.188063839
 20
43.0459809112
 10
-44.1324563429
 20
43.0540421986
 10
-44.0764080964
 20
43.0588706539
 10
-44.0199190996
 20
43.0604663317
  0
LWPOLYLINE
  5
273
100
AcDbEntity
  8
RACCORDO
100
AcDbPolyline
 62
253
  6
CONTINUOUS
 90
19
 70
0
 10
44.3202107575
 20
-45.8387624886
 10
44.3613337994
 20
-45.8384707882
 10
44.4021781958
 20
-45.8375817558
 10
44.4424671894
 20
-45.8361014155
 10
44.481927786
 20
-45.8340397978
 10
44.5202926047
 20
-45.831410872
 10
44.5573016895
 20
-45.8282324515
 10
44.5927042707
 20
-45.824526073
 10
44.6262604639
 20
-45.8203168505
 10
44.657742896
 20
-45.8156333052
 10
44.6869382451
 20
-45.8105071723
 10
44.7136486867
 20
-45.8049731861
 10
44.7376932334
 20
-45.7990688441
 10
44.7589089621
 20
-45.7928341537
 10
44.777152117
 20
-45.7863113605
 10
44.7922990845
 20
-45.7795446621
 10
44.8042472302
 20
-45.7725799092
 10
44.8129155947
 20
-45.7654642941
 10
44.8182454422
 20
-45.7582460314
  0
LWPOLYLINE
  5
274
100
AcDbEntity
  8
ASSI
100
AcDbPolyline
 62
253
  6
CONTINUOUS
 90
19
 70
0
 10
44.3202107575
 20
-45.8387624886
 10
44.3613337994
 20
-45.8384707882
 10
44.4021781958
 20
-45.8375817558
 10
44.4424671894
 20
-45.8361014155
 10
44.481927786
 20
-45.8340397978
 10
44.5202926047
 20
-45.831410872
 10
44.5573016895
 20
-45.8282324515
 10
44.5927042707
 20
-45.824526073
 10
44.6262604639
 20
-45.8203168505
 10
44.657742896
 20
-45.8156333052
 10
44.6869382451
 20
-45.8105071723
 10
44.7136486867
 20
-45.8049731861
 10
44.7376932334
 20
-45.7990688441
 10
44.7589089621
 20
-45.7928341537
 10
44.777152117
 20
-45.7863113605
 10
44.7922990845
 20
-45.7795446621
 10
44.8042472302
 20
-45.7725799092
 10
44.8129155947
 20
-45.7654642941
 10
44.8182454422
 20
-45.7582460314
  0
LINE
  5
275
100
AcDbEntity
  8
RACCORDO
100
AcDbLine
 62
253
  6
CONTINUOUS
 10
-43.8299503769
 20
-46.33831503
 11
43.8299503769
 21
-46.33831503
  0
LINE
  5
276
100
AcDbEntity
  8
ASSI
100
AcDbLine
 62
253
  6
CONTINUOUS
 10
-43.8299503769
 20
-46.33831503
 11
43.8299503769
 21
-46.33831503
  0
LWPOLYLINE
  5
277
100
AcDbEntity
  8
RACCORDO
100
AcDbPolyline
 62
253
  6
CONTINUOUS
 90
19
 70
0
 10
-44.3202107575
 20
-45.8387624968
 10
-44.3613334588
 20
-45.8384707695
 10
-44.4021774929
 20
-45.8375817135
 10
-44.4424661075
 20
-45.8361013526
 10
-44.4819263135
 20
-45.8340397175
 10
-44.5202907351
 20
-45.8314107775
 10
-44.5572994212
 20
-45.8282323458
 10
-44.5927016072
 20
-45.8245259589
 10
-44.6262574135
 20
-45.8203167307
 10
-44.6577394717
 20
-45.8156331822
 10
-44.6869344644
 20
-45.8105070485
 10
-44.7136445712
 20
-45.8049730632
 10
-44.7376888089
 20
-45.799068724
 10
-44.7589042576
 20
-45.7928340376
 10
-44.7771471649
 20
-45.7863112494
 10
-44.7922939199
 20
-45.7795445567
 10
-44.8042418908
 20
-45.7725798097
 10
-44.8129101199
 20
-45.7654642003
 10
-44.8182398729
 20
-45.7582459428
  0
LWPOLYLINE
  5
278
100
AcDbEntity
  8
ASSI
100
AcDbPolyline
 62
253
  6
CONTINUOUS
 90
19
 70
0
 10
-44.3202107575
 20
-45.8387624968
 10
-44.3613334588
 20
-45.8384707695
 10
-44.4021774929
 20
-45.8375817135
 10
-44.4424661075
 20
-45.8361013526
 10
-44.4819263135
 20
-45.8340397175
 10
-44.5202907351
 20
-45.8314107775
 10
-44.5572994212
 20
-45.8282323458
 10
-44.5927016072
 20
-45.8245259589
 10
-44.6262574135
 20
-45.8203167307
 10
-44.6577394717
 20
-45.8156331822
 10
-44.6869344644
 20
-45.8105070485
 10
-44.7136445712
 20
-45.8049730632
 10
-44.7376888089
 20
-45.799068724
 10
-44.7589042576
 20
-45.7928340376
 10
-44.7771471649
 20
-45.7863112494
 10
-44.7922939199
 20
-45.7795445567
 10
-44.8042418908
 20
-45.7725798097
 10
-44.8129101199
 20
-45.7654642003
 10
-44.8182398729
 20
-45.7582459428
  0
LWPOLYLINE
  5
279
100
AcDbEntity
  8
SCRITTE
100
AcDbPolyline
 62
253
  6
CONTINUOUS
 90
56
 70
0
 10
4.2166806432
 20
-29.2631617549
 10
4.2329290021
 20
-29.2626585745
 10
4.2492814959
 20
-29.2618553681
 10
4.2657594967
 20
-29.2607258928
 10
4.2823843765
 20
-29.2592439057
 10
4.2991629449
 20
-29.2573833472
 10
4.3160437607
 20
-29.2551188915
 10
4.3329608201
 20
-29.2524253961
 10
4.3498481195
 20
-29.2492777185
 10
4.3632911029
 20
-29.2464174975
 10
4.3766325579
 20
-29.2432486042
 10
4.3898322446
 20
-29.239769134
 10
4.4028499235
 20
-29.2359771823
 10
4.4156453548
 20
-29.2318708446
 10
4.4281825733
 20
-29.2274485431
 10
4.4404427113
 20
-29.2227100071
 10
4.4524111756
 20
-29.217655293
 10
4.4640733728
 20
-29.2122844567
 10
4.4754147097
 20
-29.2065975545
 10
4.484612046
 20
-29.2016162137
 10
4.4935790967
 20
-29.1964103125
 10
4.5023185299
 20
-29.1909747419
 10
4.510832082
 20
-29.1853039994
 10
4.5191177624
 20
-29.1793910086
 10
4.5271726486
 20
-29.1732282999
 10
4.5349943085
 20
-29.1668103317
 10
4.5425822702
 20
-29.1601392755
 10
4.5499365521
 20
-29.153219231
 10
4.5570578129
 20
-29.1460555028
 10
4.5639492738
 20
-29.1386582148
 10
4.5706147961
 20
-29.1310386957
 10
4.5783209692
 20
-29.1216146012
 10
4.5857161142
 20
-29.1118867188
 10
4.5928089935
 20
-29.1018549599
 10
4.59960837
 20
-29.0915192357
 10
4.6061230064
 20
-29.0808794577
 10
4.6123594649
 20
-29.0699366202
 10
4.618315505
 20
-29.0586960486
 10
4.6239866858
 20
-29.0471641514
 10
4.6293685664
 20
-29.0353473371
 10
4.6344567058
 20
-29.023252014
 10
4.6392455282
 20
-29.0108893514
 10
4.643724918
 20
-28.998289562
 10
4.6478836245
 20
-28.9854876194
 10
4.6517103973
 20
-28.9725184971
 10
4.6551939858
 20
-28.9594171686
 10
4.6583250681
 20
-28.9462190733
 10
4.6611020365
 20
-28.9329615136
 10
4.663525212
 20
-28.9196822578
 10
4.6655949157
 20
-28.9064190742
 10
4.6673114685
 20
-28.8932097309
 10
4.6686755336
 20
-28.8800835971
 10
4.6696891431
 20
-28.8670364451
 10
4.6703546713
 20
-28.854055648
 10
4.6706744925
 20
-28.8411285789
 10
4.6706509811
 20
-28.8282426109
  0
LINE
  5
27A
100
AcDbEntity
  8
SCRITTE
100
AcDbLine
 62
253
  6
CONTINUOUS
 10
5.3591482119
 20
-30.8173350227
 11
4.7970156219
 21
-30.8173350227
  0
LINE
  5
27B
100
AcDbEntity
  8
SCRITTE
100
AcDbLine
 62
253
  6
CONTINUOUS
 10
-4.616107
 20
-30.8173346683
 11
-4.101097
 21
-30.8173346683
  0
LINE
  5
27C
100
AcDbEntity
  8
SCRITTE
100
AcDbLine
 62
253
  6
CONTINUOUS
 10
3.9020753449
 20
-30.8173350227
 11
3.3200188023
 21
-30.8173350227
  0
LINE
  5
27D
100
AcDbEntity
  8
SCRITTE
100
AcDbLine
 62
253
  6
CONTINUOUS
 10
-2.085272
 20
-30.8173346683
 11
-1.526183
 21
-30.8173346683
  0
LINE
  5
27E
100
AcDbEntity
  8
SCRITTE
100
AcDbLine
 62
253
  6
CONTINUOUS
 10
-0.714487
 20
-30.8173346683
 11
-0.632524
 21
-30.8173346683
  0
LINE
  5
27F
100
AcDbEntity
  8
SCRITTE
100
AcDbLine
 62
253
  6
CONTINUOUS
 10
0.182406
 20
-30.8173346683
 11
0.754112
 21
-30.8173346683
  0
LINE
  5
280
100
AcDbEntity
  8
SCRITTE
100
AcDbLine
 62
253
  6
CONTINUOUS
 10
0.84588
 20
-30.8173346683
 11
1.423947
 21
-30.8173346683
  0
LINE
  5
281
100
AcDbEntity
  8
SCRITTE
100
AcDbLine
 62
253
  6
CONTINUOUS
 10
2.532466
 20
-30.8173346683
 11
3.148408
 21
-30.8173346683
  0
LINE
  5
282
100
AcDbEntity
  8
SCRITTE
100
AcDbLine
 62
253
  6
CONTINUOUS
 10
-2.399877
 20
-30.8173346683
 11
-2.984285
 21
-30.8173346683
  0
LINE
  5
283
100
AcDbEntity
  8
SCRITTE
100
AcDbLine
 62
253
  6
CONTINUOUS
 10
1.585207
 20
-30.2584146683
 11
2.381074
 21
-30.2584146683
  0
LINE
  5
284
100
AcDbEntity
  8
SCRITTE
100
AcDbLine
 62
253
  6
CONTINUOUS
 10
2.26428
 20
-29.8259246683
 11
1.704751
 21
-29.8259246683
  0
LINE
  5
285
100
AcDbEntity
  8
SCRITTE
100
AcDbLine
 62
253
  6
CONTINUOUS
 10
4.2154209623
 20
-29.7216855931
 11
3.9020753449
 21
-29.7216855931
  0
LINE
  5
286
100
AcDbEntity
  8
SCRITTE
100
AcDbLine
 62
253
  6
CONTINUOUS
 10
3.8826972541
 20
-29.2631617549
 11
4.2166806432
 21
-29.2631617549
  0
LWPOLYLINE
  5
287
100
AcDbEntity
  8
RACCORDO
100
AcDbPolyline
 62
7
  6
CONTINUOUS
 90
19
 70
0
 10
-10.8991845818
 20
20.5522578125
 10
-10.9472290726
 20
20.531096015
 10
-10.99359569
 20
20.5068879778
 10
-11.0382844339
 20
20.4796336761
 10
-11.081564618
 20
20.449149641
 10
-11.1231669286
 20
20.4156192813
 10
-11.1622834253
 20
20.3795928901
 10
-11.1988179123
 20
20.3410126818
 10
-11.2328665854
 20
20.2999363797
 10
-11.2639100908
 20
20.2570875541
 10
-11.2918281965
 20
20.2125845596
 10
-11.3167411346
 20
20.166308992
 10
-11.3384902473
 20
20.1186292976
 10
-11.3571051392
 20
20.0693793885
 10
-11.3725562057
 20
20.018725307
 10
-11.3845959748
 20
19.9675337145
 10
-11.3931419559
 20
19.9160934989
 10
-11.3982766397
 20
19.8641157588
 10
-11.4000000262
 20
19.8116004857
  0
LWPOLYLINE
  5
288
100
AcDbEntity
  8
ASSI
100
AcDbPolyline
 62
7
  6
CONTINUOUS
 90
19
 70
0
 10
-10.8991845818
 20
20.5522578125
 10
-10.9472290726
 20
20.531096015
 10
-10.99359569
 20
20.5068879778
 10
-11.0382844339
 20
20.4796336761
 10
-11.081564618
 20
20.449149641
 10
-11.1231669286
 20
20.4156192813
 10
-11.1622834253
 20
20.3795928901
 10
-11.1988179123
 20
20.3410126818
 10
-11.2328665854
 20
20.2999363797
 10
-11.2639100908
 20
20.2570875541
 10
-11.2918281965
 20
20.2125845596
 10
-11.3167411346
 20
20.166308992
 10
-11.3384902473
 20
20.1186292976
 10
-11.3571051392
 20
20.0693793885
 10
-11.3725562057
 20
20.018725307
 10
-11.3845959748
 20
19.9675337145
 10
-11.3931419559
 20
19.9160934989
 10
-11.3982766397
 20
19.8641157588
 10
-11.4000000262
 20
19.8116004857
  0
LWPOLYLINE
  5
289
100
AcDbEntity
  8
SCRITTE
100
AcDbPolyline
 62
253
  6
CONTINUOUS
 90
36
 70
0
 10
3.3200188023
 20
-28.0503410093
 10
3.3637863209
 20
-28.0439977455
 10
3.4068726691
 20
-28.0379513398
 10
3.4492602291
 20
-28.032212303
 10
3.4909313832
 20
-28.026791146
 10
3.5318685136
 20
-28.0216983798
 10
3.5720664414
 20
-28.01694218
 10
3.6115697439
 20
-28.0125213816
 10
3.6504354369
 20
-28.0084324844
 10
3.6887205366
 20
-28.0046719883
 10
3.7264820588
 20
-28.0012363931
 10
3.7730266292
 20
-27.9973948236
 10
3.8189060843
 20
-27.9940567959
 10
3.864184311
 20
-27.9912236632
 10
3.9089251962
 20
-27.9888967789
 10
3.9531959628
 20
-27.9870791313
 10
3.997077178
 20
-27.9857802491
 10
4.0406527448
 20
-27.9850112964
 10
4.0840065665
 20
-27.9847834369
 10
4.1415869903
 20
-27.9853411054
 10
4.1989727272
 20
-27.9869099353
 10
4.2562141427
 20
-27.9895192977
 10
4.2990763796
 20
-27.9921836025
 10
4.3418805437
 20
-27.9955027097
 10
4.3846214122
 20
-27.9995296008
 10
4.4272937624
 20
-28.0043172576
 10
4.4613752967
 20
-28.0087341493
 10
4.4953859446
 20
-28.0137194334
 10
4.529302014
 20
-28.0193207039
 10
4.5630998126
 20
-28.0255855549
 10
4.5967556482
 20
-28.0325615806
 10
4.6302472069
 20
-28.0402967143
 10
4.6635576874
 20
-28.048840247
 10
4.6966716667
 20
-28.0582418089
 10
4.7295737219
 20
-28.0685510304
 10
4.7622484297
 20
-28.0798175418
  0
LWPOLYLINE
  5
28A
100
AcDbEntity
  8
RACCORDO
100
AcDbPolyline
 62
7
  6
CONTINUOUS
 90
7
 70
0
 10
10.5990196442
 20
-24.4895336683
 10
10.6503543612
 20
-24.4878911725
 10
10.7011661872
 20
-24.4830251357
 10
10.7514551223
 20
-24.4749355435
 10
10.8012211664
 20
-24.4636223721
 10
10.8504643196
 20
-24.4490855882
 10
10.8991845818
 20
-24.4313251491
  0
LWPOLYLINE
  5
28B
100
AcDbEntity
  8
ASSI
100
AcDbPolyline
 62
7
  6
CONTINUOUS
 90
7
 70
0
 10
10.5990196442
 20
-24.4895336683
 10
10.6503543612
 20
-24.4878911725
 10
10.7011661872
 20
-24.4830251357
 10
10.7514551223
 20
-24.4749355435
 10
10.8012211664
 20
-24.4636223721
 10
10.8504643196
 20
-24.4490855882
 10
10.8991845818
 20
-24.4313251491
  0
LWPOLYLINE
  5
28C
100
AcDbEntity
  8
RACCORDO
100
AcDbPolyline
 62
253
  6
CONTINUOUS
 90
16
 70
0
 10
44.4452465341
 20
-24.543592154
 10
44.4847390969
 20
-24.5430056669
 10
44.5231330019
 20
-24.5422578115
 10
44.5601676349
 20
-24.5413536642
 10
44.5955916082
 20
-24.5402993624
 10
44.6291644671
 20
-24.5391020624
 10
44.6606583223
 20
-24.5377698915
 10
44.6898593963
 20
-24.5363118923
 10
44.716569475
 20
-24.5347379615
 10
44.7406072527
 20
-24.5330587829
 10
44.7618095634
 20
-24.5312857546
 10
44.7800324877
 20
-24.5294309117
 10
44.79515233
 20
-24.5275068447
 10
44.8070664582
 20
-24.525526614
 10
44.8156940005
 20
-24.5235036613
 10
44.8209763937
 20
-24.5214517182
  0
LWPOLYLINE
  5
28D
100
AcDbEntity
  8
ASSI
100
AcDbPolyline
 62
253
  6
CONTINUOUS
 90
16
 70
0
 10
44.4452465341
 20
-24.543592154
 10
44.4847390969
 20
-24.5430056669
 10
44.5231330019
 20
-24.5422578115
 10
44.5601676349
 20
-24.5413536642
 10
44.5955916082
 20
-24.5402993624
 10
44.6291644671
 20
-24.5391020624
 10
44.6606583223
 20
-24.5377698915
 10
44.6898593963
 20
-24.5363118923
 10
44.716569475
 20
-24.5347379615
 10
44.7406072527
 20
-24.5330587829
 10
44.7618095634
 20
-24.5312857546
 10
44.7800324877
 20
-24.5294309117
 10
44.79515233
 20
-24.5275068447
 10
44.8070664582
 20
-24.525526614
 10
44.8156940005
 20
-24.5235036613
 10
44.8209763937
 20
-24.5214517182
  0
LWPOLYLINE
  5
28E
100
AcDbEntity
  8
RACCORDO
100
AcDbPolyline
 62
253
  6
CONTINUOUS
 90
16
 70
0
 10
44.4452505819
 20
-24.4408195872
 10
44.4847432107
 20
-24.440234416
 10
44.5231371757
 20
-24.4394886471
 10
44.5601718614
 20
-24.4385873428
 10
44.5955958789
 20
-24.4375366211
 10
44.6291687722
 20
-24.4363436142
 10
44.660662651
 20
-24.4350164202
 10
44.6898637368
 20
-24.4335640479
 10
44.7165738147
 20
-24.431996356
 10
44.7406115784
 20
-24.4303239858
 10
44.7618138614
 20
-24.4285582894
 10
44.7800367438
 20
-24.426711252
 10
44.7951565301
 20
-24.4247954113
 10
44.8070705881
 20
-24.4228237719
 10
44.815698046
 20
-24.4208097171
 10
44.8209803413
 20
-24.4187669182
  0
LWPOLYLINE
  5
28F
100
AcDbEntity
  8
ASSI
100
AcDbPolyline
 62
253
  6
CONTINUOUS
 90
16
 70
0
 10
44.4452505819
 20
-24.4408195872
 10
44.4847432107
 20
-24.440234416
 10
44.5231371757
 20
-24.4394886471
 10
44.5601718614
 20
-24.4385873428
 10
44.5955958789
 20
-24.4375366211
 10
44.6291687722
 20
-24.4363436142
 10
44.660662651
 20
-24.4350164202
 10
44.6898637368
 20
-24.4335640479
 10
44.7165738147
 20
-24.431996356
 10
44.7406115784
 20
-24.4303239858
 10
44.7618138614
 20
-24.4285582894
 10
44.7800367438
 20
-24.426711252
 10
44.7951565301
 20
-24.4247954113
 10
44.8070705881
 20
-24.4228237719
 10
44.815698046
 20
-24.4208097171
 10
44.8209803413
 20
-24.4187669182
  0
LWPOLYLINE
  5
290
100
AcDbEntity
  8
RACCORDO
100
AcDbPolyline
 62
253
  6
CONTINUOUS
 90
16
 70
0
 10
-11.8673253688
 20
-23.8058649145
 10
-11.826985168
 20
-23.8052691463
 10
-11.7878220827
 20
-23.8045103249
 10
-11.7501146173
 20
-23.8035938466
 10
-11.7141309246
 20
-23.8025262289
 10
-11.680126899
 20
-23.8013150639
 10
-11.6483443567
 20
-23.7999689649
 10
-11.619009316
 20
-23.7984975043
 10
-11.5923303901
 20
-23.7969111465
 10
-11.5684973035
 20
-23.7952211725
 10
-11.5476795428
 20
-23.7934396004
 10
-11.5300251513
 20
-23.7915790999
 10
-11.5156596766
 20
-23.7896529015
 10
-11.5046852771
 20
-23.7876747032
 10
-11.4971799963
 20
-23.7856585729
 10
-11.4931972073
 20
-23.7836188481
  0
LWPOLYLINE
  5
291
100
AcDbEntity
  8
ASSI
100
AcDbPolyline
 62
253
  6
CONTINUOUS
 90
16
 70
0
 10
-11.8673253688
 20
-23.8058649145
 10
-11.826985168
 20
-23.8052691463
 10
-11.7878220827
 20
-23.8045103249
 10
-11.7501146173
 20
-23.8035938466
 10
-11.7141309246
 20
-23.8025262289
 10
-11.680126899
 20
-23.8013150639
 10
-11.6483443567
 20
-23.7999689649
 10
-11.619009316
 20
-23.7984975043
 10
-11.5923303901
 20
-23.7969111465
 10
-11.5684973035
 20
-23.7952211725
 10
-11.5476795428
 20
-23.7934396004
 10
-11.5300251513
 20
-23.7915790999
 10
-11.5156596766
 20
-23.7896529015
 10
-11.5046852771
 20
-23.7876747032
 10
-11.4971799963
 20
-23.7856585729
 10
-11.4931972073
 20
-23.7836188481
  0
LINE
  5
292
100
AcDbEntity
  8
RACCORDO
100
AcDbLine
 62
253
  6
CONTINUOUS
 10
44.3640433607
 20
-24.5442662217
 11
44.4452465341
 21
-24.543592154
  0
LINE
  5
293
100
AcDbEntity
  8
ASSI
100
AcDbLine
 62
253
  6
CONTINUOUS
 10
44.3640433607
 20
-24.5442662217
 11
44.4452465341
 21
-24.543592154
  0
LWPOLYLINE
  5
294
100
AcDbEntity
  8
RACCORDO
100
AcDbPolyline
 62
253
  6
CONTINUOUS
 90
3
 70
0
 10
44.3228877784
 20
-24.4415773988
 10
44.3640472645
 20
-24.4414933654
 10
44.4452505819
 20
-24.4408195872
  0
LWPOLYLINE
  5
295
100
AcDbEntity
  8
ASSI
100
AcDbPolyline
 62
253
  6
CONTINUOUS
 90
3
 70
0
 10
44.3228877784
 20
-24.4415773988
 10
44.3640472645
 20
-24.4414933654
 10
44.4452505819
 20
-24.4408195872
  0
LWPOLYLINE
  5
296
100
AcDbEntity
  8
RACCORDO
100
AcDbPolyline
 62
253
  6
CONTINUOUS
 90
3
 70
0
 10
-11.9925103428
 20
-23.8066375025
 10
-11.9503832852
 20
-23.806551534
 10
-11.8673253688
 20
-23.8058649145
  0
LWPOLYLINE
  5
297
100
AcDbEntity
  8
ASSI
100
AcDbPolyline
 62
253
  6
CONTINUOUS
 90
3
 70
0
 10
-11.9925103428
 20
-23.8066375025
 10
-11.9503832852
 20
-23.806551534
 10
-11.8673253688
 20
-23.8058649145
  0
LINE
  5
298
100
AcDbEntity
  8
SCRITTE
100
AcDbLine
 62
253
  6
CONTINUOUS
 10
2.28939
 20
-28.0176316683
 11
1.724045
 21
-28.0176316683
  0
LINE
  5
299
100
AcDbEntity
  8
SCRITTE
100
AcDbLine
 62
253
  6
CONTINUOUS
 10
0.492308
 20
-28.0176316683
 11
-0.085906
 21
-28.0176316683
  0
LINE
  5
29A
100
AcDbEntity
  8
SCRITTE
100
AcDbLine
 62
253
  6
CONTINUOUS
 10
-1.24855
 20
-28.0176316683
 11
-1.832475
 21
-28.0176316683
  0
LINE
  5
29B
100
AcDbEntity
  8
SCRITTE
100
AcDbLine
 62
253
  6
CONTINUOUS
 10
-3.20116
 20
-28.0176316683
 11
-3.785169
 21
-28.0176316683
  0
LINE
  5
29C
100
AcDbEntity
  8
SCRITTE
100
AcDbLine
 62
253
  6
CONTINUOUS
 10
-4.86882
 20
-28.0176316683
 11
-5.503668
 21
-28.0176316683
  0
LINE
  5
29D
100
AcDbEntity
  8
SCRITTE
100
AcDbLine
 62
253
  6
CONTINUOUS
 10
-2.984285
 20
-28.0174636683
 11
-2.399877
 21
-28.0174636683
  0
LINE
  5
29E
100
AcDbEntity
  8
RACCORDO
100
AcDbLine
 62
253
  6
CONTINUOUS
 10
10.6908480399
 20
-25.1072334081
 11
-10.6908480399
 21
-25.1072334081
  0
LINE
  5
29F
100
AcDbEntity
  8
ASSI
100
AcDbLine
 62
253
  6
CONTINUOUS
 10
10.6908480399
 20
-25.1072334081
 11
-10.6908480399
 21
-25.1072334081
  0
LINE
  5
2A0
100
AcDbEntity
  8
RACCORDO
100
AcDbLine
 62
253
  6
CONTINUOUS
 10
10.6908792111
 20
-24.5811281333
 11
-10.6908489302
 21
-24.5811281333
  0
LINE
  5
2A1
100
AcDbEntity
  8
ASSI
100
AcDbLine
 62
253
  6
CONTINUOUS
 10
10.6908792111
 20
-24.5811281333
 11
-10.6908489302
 21
-24.5811281333
  0
LINE
  5
2A2
100
AcDbEntity
  8
RACCORDO
100
AcDbLine
 62
253
  6
CONTINUOUS
 10
11.7624982912
 20
-24.5443492269
 11
44.3640433607
 21
-24.5442662217
  0
LINE
  5
2A3
100
AcDbEntity
  8
ASSI
100
AcDbLine
 62
253
  6
CONTINUOUS
 10
11.7624982912
 20
-24.5443492269
 11
44.3640433607
 21
-24.5442662217
  0
LINE
  5
2A4
100
AcDbEntity
  8
RACCORDO
100
AcDbLine
 62
7
  6
CONTINUOUS
 10
-10.5990196442
 20
-24.4895336683
 11
10.5990196442
 21
-24.4895336683
  0
LINE
  5
2A5
100
AcDbEntity
  8
ASSI
100
AcDbLine
 62
7
  6
CONTINUOUS
 10
-10.5990196442
 20
-24.4895336683
 11
10.5990196442
 21
-24.4895336683
  0
LINE
  5
2A6
100
AcDbEntity
  8
RACCORDO
100
AcDbLine
 62
253
  6
CONTINUOUS
 10
44.8209803417
 20
-24.4187669182
 11
45.0
 21
-24.4187669182
  0
LINE
  5
2A7
100
AcDbEntity
  8
ASSI
100
AcDbLine
 62
253
  6
CONTINUOUS
 10
44.8209803417
 20
-24.4187669182
 11
45.0
 21
-24.4187669182
  0
LINE
  5
2A8
100
AcDbEntity
  8
RACCORDO
100
AcDbLine
 62
253
  6
CONTINUOUS
 10
-44.8209803417
 20
-24.4187669182
 11
-45.0
 21
-24.4187669182
  0
LINE
  5
2A9
100
AcDbEntity
  8
ASSI
100
AcDbLine
 62
253
  6
CONTINUOUS
 10
-44.8209803417
 20
-24.4187669182
 11
-45.0
 21
-24.4187669182
  0
LINE
  5
2AA
100
AcDbEntity
  8
RACCORDO
100
AcDbLine
 62
253
  6
CONTINUOUS
 10
-11.7624982912
 20
-24.5443492269
 11
-44.3640433597
 21
-24.5442662208
  0
LINE
  5
2AB
100
AcDbEntity
  8
ASSI
100
AcDbLine
 62
253
  6
CONTINUOUS
 10
-11.7624982912
 20
-24.5443492269
 11
-44.3640433597
 21
-24.5442662208
  0
LWPOLYLINE
  5
2AC
100
AcDbEntity
  8
RACCORDO
100
AcDbPolyline
 62
253
  6
CONTINUOUS
 90
18
 70
0
 10
-44.3228877784
 20
-24.4415773991
 10
-44.4049273634
 20
-24.441240189
 10
-44.4452505828
 20
-24.4408195875
 10
-44.4847432118
 20
-24.4402344162
 10
-44.5231371771
 20
-24.4394886474
 10
-44.560171863
 20
-24.4385873431
 10
-44.5955958806
 20
-24.4375366214
 10
-44.6291687741
 20
-24.4363436144
 10
-44.6606626529
 20
-24.4350164204
 10
-44.6898637388
 20
-24.4335640481
 10
-44.7165738167
 20
-24.4319963561
 10
-44.7406115804
 20
-24.430323986
 10
-44.7618138632
 20
-24.4285582895
 10
-44.7800367455
 20
-24.4267112521
 10
-44.7951565315
 20
-24.4247954114
 10
-44.8070705893
 20
-24.4228237719
 10
-44.8156980469
 20
-24.4208097171
 10
-44.8209803417
 20
-24.4187669182
  0
LWPOLYLINE
  5
2AD
100
AcDbEntity
  8
ASSI
100
AcDbPolyline
 62
253
  6
CONTINUOUS
 90
18
 70
0
 10
-44.3228877784
 20
-24.4415773991
 10
-44.4049273634
 20
-24.441240189
 10
-44.4452505828
 20
-24.4408195875
 10
-44.4847432118
 20
-24.4402344162
 10
-44.5231371771
 20
-24.4394886474
 10
-44.560171863
 20
-24.4385873431
 10
-44.5955958806
 20
-24.4375366214
 10
-44.6291687741
 20
-24.4363436144
 10
-44.6606626529
 20
-24.4350164204
 10
-44.6898637388
 20
-24.4335640481
 10
-44.7165738167
 20
-24.4319963561
 10
-44.7406115804
 20
-24.430323986
 10
-44.7618138632
 20
-24.4285582895
 10
-44.7800367455
 20
-24.4267112521
 10
-44.7951565315
 20
-24.4247954114
 10
-44.8070705893
 20
-24.4228237719
 10
-44.8156980469
 20
-24.4208097171
 10
-44.8209803417
 20
-24.4187669182
  0
LWPOLYLINE
  5
2AE
100
AcDbEntity
  8
RACCORDO
100
AcDbPolyline
 62
253
  6
CONTINUOUS
 90
18
 70
0
 10
11.9925103428
 20
-23.8066373908
 10
11.9085556309
 20
-23.8062933077
 10
11.8673250732
 20
-23.8058648415
 10
11.8269847419
 20
-23.8052690845
 10
11.7878215157
 20
-23.8045102734
 10
11.7501139023
 20
-23.8035938044
 10
11.7141300576
 20
-23.802526195
 10
11.6801258792
 20
-23.8013150375
 10
11.6483431866
 20
-23.7999689448
 10
11.6190080008
 20
-23.7984974898
 10
11.592328938
 20
-23.7969111366
 10
11.568495725
 20
-23.7952211665
 10
11.5476778508
 20
-23.7934395976
 10
11.5300233608
 20
-23.7915790996
 10
11.5156578041
 20
-23.7896529031
 10
11.5046833409
 20
-23.7876747064
 10
11.4971780155
 20
-23.7856585772
 10
11.4931952018
 20
-23.7836188533
  0
LWPOLYLINE
  5
2AF
100
AcDbEntity
  8
ASSI
100
AcDbPolyline
 62
253
  6
CONTINUOUS
 90
18
 70
0
 10
11.9925103428
 20
-23.8066373908
 10
11.9085556309
 20
-23.8062933077
 10
11.8673250732
 20
-23.8058648415
 10
11.8269847419
 20
-23.8052690845
 10
11.7878215157
 20
-23.8045102734
 10
11.7501139023
 20
-23.8035938044
 10
11.7141300576
 20
-23.802526195
 10
11.6801258792
 20
-23.8013150375
 10
11.6483431866
 20
-23.7999689448
 10
11.6190080008
 20
-23.7984974898
 10
11.592328938
 20
-23.7969111366
 10
11.568495725
 20
-23.7952211665
 10
11.5476778508
 20
-23.7934395976
 10
11.5300233608
 20
-23.7915790996
 10
11.5156578041
 20
-23.7896529031
 10
11.5046833409
 20
-23.7876747064
 10
11.4971780155
 20
-23.7856585772
 10
11.4931952018
 20
-23.7836188533
  0
LWPOLYLINE
  5
2B0
100
AcDbEntity
  8
RACCORDO
100
AcDbPolyline
 62
253
  6
CONTINUOUS
 90
17
 70
0
 10
-44.3640433597
 20
-24.5442662208
 10
-44.4452465313
 20
-24.5435921531
 10
-44.4847390932
 20
-24.543005666
 10
-44.5231329974
 20
-24.5422578107
 10
-44.5601676297
 20
-24.5413536635
 10
-44.5955916025
 20
-24.5402993617
 10
-44.629164461
 20
-24.5391020618
 10
-44.6606583159
 20
-24.5377698909
 10
-44.6898593898
 20
-24.5363118917
 10
-44.7165694684
 20
-24.534737961
 10
-44.7406072464
 20
-24.5330587825
 10
-44.7618095575
 20
-24.5312857543
 10
-44.7800324823
 20
-24.5294309114
 10
-44.7951523253
 20
-24.5275068445
 10
-44.8070664545
 20
-24.5255266139
 10
-44.8156939979
 20
-24.5235036613
 10
-44.8209763924
 20
-24.5214517181
  0
LWPOLYLINE
  5
2B1
100
AcDbEntity
  8
ASSI
100
AcDbPolyline
 62
253
  6
CONTINUOUS
 90
17
 70
0
 10
-44.3640433597
 20
-24.5442662208
 10
-44.4452465313
 20
-24.5435921531
 10
-44.4847390932
 20
-24.543005666
 10
-44.5231329974
 20
-24.5422578107
 10
-44.5601676297
 20
-24.5413536635
 10
-44.5955916025
 20
-24.5402993617
 10
-44.629164461
 20
-24.5391020618
 10
-44.6606583159
 20
-24.5377698909
 10
-44.6898593898
 20
-24.5363118917
 10
-44.7165694684
 20
-24.534737961
 10
-44.7406072464
 20
-24.5330587825
 10
-44.7618095575
 20
-24.5312857543
 10
-44.7800324823
 20
-24.5294309114
 10
-44.7951523253
 20
-24.5275068445
 10
-44.8070664545
 20
-24.5255266139
 10
-44.8156939979
 20
-24.5235036613
 10
-44.8209763924
 20
-24.5214517181
  0
LWPOLYLINE
  5
2B2
100
AcDbEntity
  8
RACCORDO
100
AcDbPolyline
 62
253
  6
CONTINUOUS
 90
19
 70
0
 10
-10.6908489317
 20
-24.5811281348
 10
-10.7332890205
 20
-24.5800836839
 10
-10.7757121549
 20
-24.5767945862
 10
-10.8179982561
 20
-24.5712543292
 10
-10.8599956651
 20
-24.5634701014
 10
-10.9016138484
 20
-24.5534444703
 10
-10.9428197449
 20
-24.5411590359
 10
-10.9835806506
 20
-24.5265825835
 10
-11.0236694956
 20
-24.5097543745
 10
-11.0627694429
 20
-24.4907889227
 10
-11.1007220625
 20
-24.4697701547
 10
-11.1374645208
 20
-24.4467403505
 10
-11.1728461337
 20
-24.4217988639
 10
-11.2067536819
 20
-24.3950406448
 10
-11.2391126566
 20
-24.3665404795
 10
-11.2698414127
 20
-24.3363806962
 10
-11.2988589577
 20
-24.3046522075
 10
-11.3260862917
 20
-24.2714554867
 10
-11.3514518953
 20
-24.2368919509
  0
LWPOLYLINE
  5
2B3
100
AcDbEntity
  8
ASSI
100
AcDbPolyline
 62
253
  6
CONTINUOUS
 90
19
 70
0
 10
-10.6908489317
 20
-24.5811281348
 10
-10.7332890205
 20
-24.5800836839
 10
-10.7757121549
 20
-24.5767945862
 10
-10.8179982561
 20
-24.5712543292
 10
-10.8599956651
 20
-24.5634701014
 10
-10.9016138484
 20
-24.5534444703
 10
-10.9428197449
 20
-24.5411590359
 10
-10.9835806506
 20
-24.5265825835
 10
-11.0236694956
 20
-24.5097543745
 10
-11.0627694429
 20
-24.4907889227
 10
-11.1007220625
 20
-24.4697701547
 10
-11.1374645208
 20
-24.4467403505
 10
-11.1728461337
 20
-24.4217988639
 10
-11.2067536819
 20
-24.3950406448
 10
-11.2391126566
 20
-24.3665404795
 10
-11.2698414127
 20
-24.3363806962
 10
-11.2988589577
 20
-24.3046522075
 10
-11.3260862917
 20
-24.2714554867
 10
-11.3514518953
 20
-24.2368919509
  0
LWPOLYLINE
  5
2B4
100
AcDbEntity
  8
RACCORDO
100
AcDbPolyline
 62
253
  6
CONTINUOUS
 90
19
 70
0
 10
-10.6908480399
 20
-25.1072334081
 10
-10.7598004991
 20
-25.1054424331
 10
-10.8284018618
 20
-25.0999844959
 10
-10.896652128
 20
-25.0908595772
 10
-10.9647236689
 20
-25.0780720116
 10
-11.0324441132
 20
-25.0616173879
 10
-11.0992963482
 20
-25.041482549
 10
-11.1654096176
 20
-25.0175646441
 10
-11.2306546776
 20
-24.9899663691
 10
-11.2941266836
 20
-24.9589828767
 10
-11.3557249098
 20
-24.9245741413
 10
-11.415550082
 20
-24.8867799815
 10
-11.4729995332
 20
-24.846015323
 10
-11.5280243176
 20
-24.8022525353
 10
-11.580673381
 20
-24.7555190199
 10
-11.630490893
 20
-24.7063122762
 10
-11.6773249104
 20
-24.6547980738
 10
-11.7213273764
 20
-24.6008104292
 10
-11.7624982912
 20
-24.5443492269
  0
LWPOLYLINE
  5
2B5
100
AcDbEntity
  8
ASSI
100
AcDbPolyline
 62
253
  6
CONTINUOUS
 90
19
 70
0
 10
-10.6908480399
 20
-25.1072334081
 10
-10.7598004991
 20
-25.1054424331
 10
-10.8284018618
 20
-25.0999844959
 10
-10.896652128
 20
-25.0908595772
 10
-10.9647236689
 20
-25.0780720116
 10
-11.0324441132
 20
-25.0616173879
 10
-11.0992963482
 20
-25.041482549
 10
-11.1654096176
 20
-25.0175646441
 10
-11.2306546776
 20
-24.9899663691
 10
-11.2941266836
 20
-24.9589828767
 10
-11.3557249098
 20
-24.9245741413
 10
-11.415550082
 20
-24.8867799815
 10
-11.4729995332
 20
-24.846015323
 10
-11.5280243176
 20
-24.8022525353
 10
-11.580673381
 20
-24.7555190199
 10
-11.630490893
 20
-24.7063122762
 10
-11.6773249104
 20
-24.6547980738
 10
-11.7213273764
 20
-24.6008104292
 10
-11.7624982912
 20
-24.5443492269
  0
LWPOLYLINE
  5
2B6
100
AcDbEntity
  8
SCRITTE
100
AcDbPolyline
 62
253
  6
CONTINUOUS
 90
24
 70
0
 10
4.3405084825
 20
-28.4781053431
 10
4.3190051006
 20
-28.4757685395
 10
4.2974771573
 20
-28.4737458519
 10
4.2759280296
 20
-28.4720365526
 10
4.2543610943
 20
-28.4706399137
 10
4.2327797284
 20
-28.4695552073
 10
4.2111873089
 20
-28.4687817057
 10
4.1895872128
 20
-28.4683186811
 10
4.1706820963
 20
-28.4681677291
 10
4.1517676113
 20
-28.4682539126
 10
4.1328376813
 20
-28.4685772152
 10
4.1138862297
 20
-28.4691376208
 10
4.0949063425
 20
-28.4699361454
 10
4.075887756
 20
-28.4709779342
 10
4.0568193693
 20
-28.4722691647
 10
4.0376900813
 20
-28.4738160144
 10
4.018492353
 20
-28.4756218701
 10
3.9992328936
 20
-28.4776789559
 10
3.9799219745
 20
-28.4799767051
 10
3.9605698669
 20
-28.4825045513
 10
3.9411828151
 20
-28.4852500979
 10
3.9217509559
 20
-28.4881936293
 10
3.902260399
 20
-28.4913135999
 10
3.8826972541
 20
-28.4945884642
  0
LWPOLYLINE
  5
2B7
100
AcDbEntity
  8
RACCORDO
100
AcDbPolyline
 62
7
  6
CONTINUOUS
 90
7
 70
0
 10
-10.8991845818
 20
-24.4313251491
 10
-10.8504888917
 20
-24.4490808373
 10
-10.8012604818
 20
-24.4636147706
 10
-10.7514993521
 20
-24.4749269919
 10
-10.7012055026
 20
-24.4830175342
 10
-10.6503789333
 20
-24.4878864216
 10
-10.5990196442
 20
-24.4895336683
  0
LWPOLYLINE
  5
2B8
100
AcDbEntity
  8
ASSI
100
AcDbPolyline
 62
7
  6
CONTINUOUS
 90
7
 70
0
 10
-10.8991845818
 20
-24.4313251491
 10
-10.8504888917
 20
-24.4490808373
 10
-10.8012604818
 20
-24.4636147706
 10
-10.7514993521
 20
-24.4749269919
 10
-10.7012055026
 20
-24.4830175342
 10
-10.6503789333
 20
-24.4878864216
 10
-10.5990196442
 20
-24.4895336683
  0
LWPOLYLINE
  5
2B9
100
AcDbEntity
  8
SCRITTE
100
AcDbPolyline
 62
253
  6
CONTINUOUS
 90
86
 70
0
 10
4.7622484297
 20
-28.0798175418
 10
4.7778662147
 20
-28.085784362
 10
4.7936905181
 20
-28.0925048679
 10
4.8097473369
 20
-28.1000092661
 10
4.8260626681
 20
-28.1083277627
 10
4.8426625086
 20
-28.1174905643
 10
4.8595728556
 20
-28.1275278773
 10
4.8767986952
 20
-28.1384601045
 10
4.8942609709
 20
-28.1502684355
 10
4.9118596153
 20
-28.1629242561
 10
4.9294945613
 20
-28.1763989524
 10
4.9470657414
 20
-28.1906639103
 10
4.9644730884
 20
-28.2056905158
 10
4.981625529
 20
-28.2214532938
 10
4.9984679651
 20
-28.2379393242
 10
5.0149542928
 20
-28.2551388261
 10
5.0310384081
 20
-28.2730420184
 10
5.0466742069
 20
-28.29163912
 10
5.0618155852
 20
-28.3109203498
 10
5.0764158381
 20
-28.3308638248
 10
5.0904258571
 20
-28.3513992543
 10
5.1037959327
 20
-28.3724442456
 10
5.1164763556
 20
-28.3939164061
 10
5.1284174161
 20
-28.4157333431
 10
5.139569405
 20
-28.4378126641
 10
5.1498937459
 20
-28.4600791153
 10
5.1593963952
 20
-28.4824859999
 10
5.1680944422
 20
-28.50499376
 10
5.1760049764
 20
-28.5275628377
 10
5.1831450872
 20
-28.5501536751
 10
5.1895318641
 20
-28.5727267144
 10
5.1962308306
 20
-28.5997318481
 10
5.2019301744
 20
-28.626566099
 10
5.2066904647
 20
-28.6531411769
 10
5.2105722708
 20
-28.6793687916
 10
5.213636162
 20
-28.705160653
 10
5.215940149
 20
-28.7304405426
 10
5.2175320073
 20
-28.7551805291
 10
5.2184569539
 20
-28.7793647526
 10
5.2187602058
 20
-28.8029773537
 10
5.2184869799
 20
-28.8260024726
 10
5.2176795072
 20
-28.8484292289
 10
5.216368075
 20
-28.8702666597
 10
5.2145799849
 20
-28.8915287812
 10
5.2123425381
 20
-28.9122296097
 10
5.2096830361
 20
-28.9323831614
 10
5.2058038938
 20
-28.9568294902
 10
5.2013442213
 20
-28.9804858396
 10
5.1963402911
 20
-29.0033954494
 10
5.1908283759
 20
-29.0256015598
 10
5.1848449986
 20
-29.0471405053
 10
5.178427685
 20
-29.068020998
 10
5.171614211
 20
-29.0882448448
 10
5.1644423527
 20
-29.1078138524
 10
5.1569492369
 20
-29.126730412
 10
5.1491693927
 20
-29.1449992524
 10
5.1411367
 20
-29.1626256866
 10
5.1328850387
 20
-29.1796150278
 10
5.1215944052
 20
-29.2012911171
 10
5.1100168841
 20
-29.2218895455
 10
5.0981946345
 20
-29.241455816
 10
5.0861688579
 20
-29.2600312832
 10
5.0739769248
 20
-29.2776407071
 10
5.0616552484
 20
-29.294304699
 10
5.0492410677
 20
-29.3100508869
 10
5.0367749268
 20
-29.3249349669
 10
5.024298196
 20
-29.3390196515
 10
5.0118533638
 20
-29.3523658216
 10
4.9994873928
 20
-29.3650270292
 10
4.9872483639
 20
-29.3770549946
 10
4.9751798556
 20
-29.3885002257
 10
4.9633074363
 20
-29.3994083815
 10
4.9516521722
 20
-29.4098239089
 10
4.9346074214
 20
-29.4246198072
 10
4.9181038125
 20
-29.4385437036
 10
4.9021892905
 20
-29.4516695716
 10
4.8943944832
 20
-29.4579142163
 10
4.8865944315
 20
-29.4639146277
 10
4.8787014716
 20
-29.469624103
 10
4.8707365994
 20
-29.4749315248
 10
4.8627425171
 20
-29.4797202664
 10
4.854740095
 20
-29.4839160782
 10
4.8467365672
 20
-29.4874619481
 10
4.8387064572
 20
-29.4903274365
 10
4.8306250221
 20
-29.4924877735
 10
4.8225031649
 20
-29.4939142963
  0
LWPOLYLINE
  5
2BA
100
AcDbEntity
  8
SCRITTE
100
AcDbPolyline
 62
253
  6
CONTINUOUS
 90
41
 70
0
 10
4.8225031649
 20
-29.5104581052
 10
4.8318200732
 20
-29.514348306
 10
4.8410816399
 20
-29.5185705568
 10
4.8502931339
 20
-29.5231328841
 10
4.8594598241
 20
-29.5280433141
 10
4.8685864699
 20
-29.5333104888
 10
4.8776757912
 20
-29.5389455115
 10
4.8867299985
 20
-29.5449601013
 10
4.8957513019
 20
-29.5513659772
 10
4.9047383096
 20
-29.5581714946
 10
4.9136752199
 20
-29.5653715555
 10
4.9225426293
 20
-29.5729576984
 10
4.9313211338
 20
-29.5809214618
 10
4.9399924952
 20
-29.5892529202
 10
4.9485431375
 20
-29.5979362912
 10
4.9569606499
 20
-29.6069543286
 10
4.9652326219
 20
-29.6162897859
 10
4.9733499859
 20
-29.6259290917
 10
4.9813170465
 20
-29.635873374
 10
4.9891414515
 20
-29.6461274361
 10
4.9968308486
 20
-29.6566960808
 10
5.0043910434
 20
-29.6675818592
 10
5.0118204743
 20
-29.6787783137
 10
5.0191157378
 20
-29.6902767345
 10
5.0262734303
 20
-29.702068412
 10
5.034281834
 20
-29.715893684
 10
5.0421070518
 20
-29.7300845204
 10
5.0497500276
 20
-29.7446348326
 10
5.0572117056
 20
-29.7595385318
 10
5.0644930299
 20
-29.7747895292
 10
5.0715949446
 20
-29.7903817362
 10
5.0785183937
 20
-29.806309064
 10
5.0863713431
 20
-29.8253054825
 10
5.0939835247
 20
-29.844734704
 10
5.1013557972
 20
-29.8645816823
 10
5.1084890193
 20
-29.8848313712
 10
5.1153840497
 20
-29.9054687244
 10
5.122041747
 20
-29.9264786959
 10
5.1284737438
 20
-29.9478467624
 10
5.1347347671
 20
-29.969560493
 10
5.140890318
 20
-29.9916079797
  0
LWPOLYLINE
  5
2BB
100
AcDbEntity
  8
RACCORDO
100
AcDbPolyline
 62
253
  6
CONTINUOUS
 90
13
 70
0
 10
-11.7624982912
 20
-24.5443492269
 10
-11.7982187267
 20
-24.489863921
 10
-11.8311022854
 20
-24.4336206609
 10
-11.8611489675
 20
-24.3756194145
 10
-11.8884932466
 20
-24.3155640202
 10
-11.913000649
 20
-24.2537505686
 10
-11.9342677533
 20
-24.1910674223
 10
-11.9521788609
 20
-24.1275086125
 10
-11.9668496704
 20
-24.0630800743
 10
-11.978223856
 20
-23.9986880629
 10
-11.9862826422
 20
-23.9346346736
 10
-11.9910448045
 20
-23.8706178195
 10
-11.9925103428
 20
-23.8066375029
  0
LWPOLYLINE
  5
2BC
100
AcDbEntity
  8
ASSI
100
AcDbPolyline
 62
253
  6
CONTINUOUS
 90
13
 70
0
 10
-11.7624982912
 20
-24.5443492269
 10
-11.7982187267
 20
-24.489863921
 10
-11.8311022854
 20
-24.4336206609
 10
-11.8611489675
 20
-24.3756194145
 10
-11.8884932466
 20
-24.3155640202
 10
-11.913000649
 20
-24.2537505686
 10
-11.9342677533
 20
-24.1910674223
 10
-11.9521788609
 20
-24.1275086125
 10
-11.9668496704
 20
-24.0630800743
 10
-11.978223856
 20
-23.9986880629
 10
-11.9862826422
 20
-23.9346346736
 10
-11.9910448045
 20
-23.8706178195
 10
-11.9925103428
 20
-23.8066375029
  0
LWPOLYLINE
  5
2BD
100
AcDbEntity
  8
RACCORDO
100
AcDbPolyline
 62
253
  6
CONTINUOUS
 90
19
 70
0
 10
-11.7624982912
 20
20.6652818903
 10
-11.7213681969
 20
20.7216828244
 10
-11.6774261769
 20
20.7756070794
 10
-11.6306722312
 20
20.8270547708
 10
-11.5809494209
 20
20.8761911223
 10
-11.5284146848
 20
20.9228511242
 10
-11.4735388399
 20
20.9665395571
 10
-11.4162927799
 20
21.0072195533
 10
-11.356705611
 20
21.0449282094
 10
-11.2953354688
 20
21.079281277
 10
-11.2321292802
 20
21.1102422902
 10
-11.1671401183
 20
21.1378479196
 10
-11.1010853384
 20
21.1618236279
 10
-11.0339435165
 20
21.1821052892
 10
-10.9657360766
 20
21.1987571823
 10
-10.8972446462
 20
21.2116973675
 10
-10.8287297679
 20
21.2208985582
 10
-10.7599308991
 20
21.2263881197
 10
-10.6908480399
 20
21.2281660715
  0
LWPOLYLINE
  5
2BE
100
AcDbEntity
  8
ASSI
100
AcDbPolyline
 62
253
  6
CONTINUOUS
 90
19
 70
0
 10
-11.7624982912
 20
20.6652818903
 10
-11.7213681969
 20
20.7216828244
 10
-11.6774261769
 20
20.7756070794
 10
-11.6306722312
 20
20.8270547708
 10
-11.5809494209
 20
20.8761911223
 10
-11.5284146848
 20
20.9228511242
 10
-11.4735388399
 20
20.9665395571
 10
-11.4162927799
 20
21.0072195533
 10
-11.356705611
 20
21.0449282094
 10
-11.2953354688
 20
21.079281277
 10
-11.2321292802
 20
21.1102422902
 10
-11.1671401183
 20
21.1378479196
 10
-11.1010853384
 20
21.1618236279
 10
-11.0339435165
 20
21.1821052892
 10
-10.9657360766
 20
21.1987571823
 10
-10.8972446462
 20
21.2116973675
 10
-10.8287297679
 20
21.2208985582
 10
-10.7599308991
 20
21.2263881197
 10
-10.6908480399
 20
21.2281660715
  0
LWPOLYLINE
  5
2BF
100
AcDbEntity
  8
RACCORDO
100
AcDbPolyline
 62
253
  6
CONTINUOUS
 90
19
 70
0
 10
-11.3514518953
 20
20.3578246143
 10
-11.326147948
 20
20.3923087293
 10
-11.2989827429
 20
20.4254419614
 10
-11.2700258123
 20
20.457122265
 10
-11.2393489603
 20
20.4872532757
 10
-11.2070361759
 20
20.5157375629
 10
-11.1731848924
 20
20.5424785689
 10
-11.1378797177
 20
20.5673966498
 10
-11.1012253996
 20
20.5904057879
 10
-11.0633615499
 20
20.6114140658
 10
-11.0243803437
 20
20.6303654242
 10
-10.9844104684
 20
20.647192655
 10
-10.943660921
 20
20.6618158261
 10
-10.9022512546
 20
20.6742052993
 10
-10.8603083993
 20
20.6843361422
 10
-10.8180636925
 20
20.6921766812
 10
-10.7756794457
 20
20.6977306903
 10
-10.7332440576
 20
20.701018664
 10
-10.6908788033
 20
20.7020608483
  0
LWPOLYLINE
  5
2C0
100
AcDbEntity
  8
ASSI
100
AcDbPolyline
 62
253
  6
CONTINUOUS
 90
19
 70
0
 10
-11.3514518953
 20
20.3578246143
 10
-11.326147948
 20
20.3923087293
 10
-11.2989827429
 20
20.4254419614
 10
-11.2700258123
 20
20.457122265
 10
-11.2393489603
 20
20.4872532757
 10
-11.2070361759
 20
20.5157375629
 10
-11.1731848924
 20
20.5424785689
 10
-11.1378797177
 20
20.5673966498
 10
-11.1012253996
 20
20.5904057879
 10
-11.0633615499
 20
20.6114140658
 10
-11.0243803437
 20
20.6303654242
 10
-10.9844104684
 20
20.647192655
 10
-10.943660921
 20
20.6618158261
 10
-10.9022512546
 20
20.6742052993
 10
-10.8603083993
 20
20.6843361422
 10
-10.8180636925
 20
20.6921766812
 10
-10.7756794457
 20
20.6977306903
 10
-10.7332440576
 20
20.701018664
 10
-10.6908788033
 20
20.7020608483
  0
LWPOLYLINE
  5
2C1
100
AcDbEntity
  8
RACCORDO
100
AcDbPolyline
 62
253
  6
CONTINUOUS
 90
13
 70
0
 10
-11.3514518953
 20
-24.2368919509
 10
-11.3733960669
 20
-24.20347735
 10
-11.3937197975
 20
-24.168849335
 10
-11.4123484407
 20
-24.1330818083
 10
-11.429244921
 20
-24.0961733936
 10
-11.44429824
 20
-24.0582843879
 10
-11.4573651677
 20
-24.0197529025
 10
-11.4684220266
 20
-23.9806875498
 10
-11.477454275
 20
-23.9411881141
 10
-11.4844142697
 20
-23.9016028575
 10
-11.4893249498
 20
-23.862122198
 10
-11.4922388598
 20
-23.8227693509
 10
-11.493197201
 20
-23.7836437485
  0
LWPOLYLINE
  5
2C2
100
AcDbEntity
  8
ASSI
100
AcDbPolyline
 62
253
  6
CONTINUOUS
 90
13
 70
0
 10
-11.3514518953
 20
-24.2368919509
 10
-11.3733960669
 20
-24.20347735
 10
-11.3937197975
 20
-24.168849335
 10
-11.4123484407
 20
-24.1330818083
 10
-11.429244921
 20
-24.0961733936
 10
-11.44429824
 20
-24.0582843879
 10
-11.4573651677
 20
-24.0197529025
 10
-11.4684220266
 20
-23.9806875498
 10
-11.477454275
 20
-23.9411881141
 10
-11.4844142697
 20
-23.9016028575
 10
-11.4893249498
 20
-23.862122198
 10
-11.4922388598
 20
-23.8227693509
 10
-11.493197201
 20
-23.7836437485
  0
LWPOLYLINE
  5
2C3
100
AcDbEntity
  8
RACCORDO
100
AcDbPolyline
 62
7
  6
CONTINUOUS
 90
19
 70
0
 10
-11.4000000262
 20
-23.6906678223
 10
-11.3982855128
 20
-23.7431462939
 10
-11.3931543922
 20
-23.7951061714
 10
-11.3846066645
 20
-23.846547463
 10
-11.372555901
 20
-23.8977717804
 10
-11.3570885304
 20
-23.9484775247
 10
-11.3384638385
 20
-23.9977599023
 10
-11.3167177447
 20
-24.0454323618
 10
-11.2918143295
 20
-24.0916815011
 10
-11.2639051201
 20
-24.1361622706
 10
-11.2328675292
 20
-24.1790017035
 10
-11.198824144
 20
-24.220072816
 10
-11.1622942528
 20
-24.2586495458
 10
-11.1231825175
 20
-24.2946733166
 10
-11.0815842763
 20
-24.3282027671
 10
-11.0383048318
 20
-24.3586876711
 10
-10.9936126183
 20
-24.385944642
 10
-10.9472392017
 20
-24.4101571264
 10
-10.8991845818
 20
-24.4313251491
  0
LWPOLYLINE
  5
2C4
100
AcDbEntity
  8
ASSI
100
AcDbPolyline
 62
7
  6
CONTINUOUS
 90
19
 70
0
 10
-11.4000000262
 20
-23.6906678223
 10
-11.3982855128
 20
-23.7431462939
 10
-11.3931543922
 20
-23.7951061714
 10
-11.3846066645
 20
-23.846547463
 10
-11.372555901
 20
-23.8977717804
 10
-11.3570885304
 20
-23.9484775247
 10
-11.3384638385
 20
-23.9977599023
 10
-11.3167177447
 20
-24.0454323618
 10
-11.2918143295
 20
-24.0916815011
 10
-11.2639051201
 20
-24.1361622706
 10
-11.2328675292
 20
-24.1790017035
 10
-11.198824144
 20
-24.220072816
 10
-11.1622942528
 20
-24.2586495458
 10
-11.1231825175
 20
-24.2946733166
 10
-11.0815842763
 20
-24.3282027671
 10
-11.0383048318
 20
-24.3586876711
 10
-10.9936126183
 20
-24.385944642
 10
-10.9472392017
 20
-24.4101571264
 10
-10.8991845818
 20
-24.4313251491
  0
LINE
  5
2C5
100
AcDbEntity
  8
RACCORDO
100
AcDbLine
 62
253
  6
CONTINUOUS
 10
-11.9925103428
 20
-23.8066375029
 11
-11.9925103428
 21
19.9275701663
  0
LINE
  5
2C6
100
AcDbEntity
  8
ASSI
100
AcDbLine
 62
253
  6
CONTINUOUS
 10
-11.9925103428
 20
-23.8066375029
 11
-11.9925103428
 21
19.9275701663
  0
LINE
  5
2C7
100
AcDbEntity
  8
RACCORDO
100
AcDbLine
 62
253
  6
CONTINUOUS
 10
-11.4931972229
 20
-23.78364377
 11
-11.4931972153
 21
19.9045645482
  0
LINE
  5
2C8
100
AcDbEntity
  8
ASSI
100
AcDbLine
 62
253
  6
CONTINUOUS
 10
-11.4931972229
 20
-23.78364377
 11
-11.4931972153
 21
19.9045645482
  0
LINE
  5
2C9
100
AcDbEntity
  8
RACCORDO
100
AcDbLine
 62
7
  6
CONTINUOUS
 10
-11.4000000262
 20
19.8116004857
 11
-11.4000000262
 21
-23.6906678223
  0
LINE
  5
2CA
100
AcDbEntity
  8
ASSI
100
AcDbLine
 62
7
  6
CONTINUOUS
 10
-11.4000000262
 20
19.8116004857
 11
-11.4000000262
 21
-23.6906678223
  0
LWPOLYLINE
  5
2CB
100
AcDbEntity
  8
RACCORDO
100
AcDbPolyline
 62
253
  6
CONTINUOUS
 90
13
 70
0
 10
-11.9925103428
 20
19.9275701663
 10
-11.9910994083
 20
19.9909310928
 10
-11.9864134809
 20
20.0544355931
 10
-11.9784525605
 20
20.118083663
 10
-11.9672198939
 20
20.182165025
 10
-11.9527122343
 20
20.2463899441
 10
-11.9349198415
 20
20.3098892474
 10
-11.9137160728
 20
20.3726927852
 10
-11.8892275708
 20
20.4347707346
 10
-11.861824523
 20
20.4951644514
 10
-11.831630325
 20
20.5535544178
 10
-11.798521581
 20
20.6102602204
 10
-11.7624982912
 20
20.6652818903
  0
LWPOLYLINE
  5
2CC
100
AcDbEntity
  8
ASSI
100
AcDbPolyline
 62
253
  6
CONTINUOUS
 90
13
 70
0
 10
-11.9925103428
 20
19.9275701663
 10
-11.9910994083
 20
19.9909310928
 10
-11.9864134809
 20
20.0544355931
 10
-11.9784525605
 20
20.118083663
 10
-11.9672198939
 20
20.182165025
 10
-11.9527122343
 20
20.2463899441
 10
-11.9349198415
 20
20.3098892474
 10
-11.9137160728
 20
20.3726927852
 10
-11.8892275708
 20
20.4347707346
 10
-11.861824523
 20
20.4951644514
 10
-11.831630325
 20
20.5535544178
 10
-11.798521581
 20
20.6102602204
 10
-11.7624982912
 20
20.6652818903
  0
LWPOLYLINE
  5
2CD
100
AcDbEntity
  8
RACCORDO
100
AcDbPolyline
 62
253
  6
CONTINUOUS
 90
13
 70
0
 10
-11.4931972039
 20
19.904564537
 10
-11.4922554982
 20
19.9433631453
 10
-11.4893857622
 20
19.9824389024
 10
-11.4845399315
 20
20.0216939534
 10
-11.4776612641
 20
20.0610926191
 10
-11.4687181573
 20
20.1004584172
 10
-11.4577382946
 20
20.1394817934
 10
-11.444714128
 20
20.178083858
 10
-11.4296627219
 20
20.216126439
 10
-11.4127300913
 20
20.2532329885
 10
-11.3940261167
 20
20.2892279436
 10
-11.3735770797
 20
20.3241184203
 10
-11.3514518953
 20
20.3578246143
  0
LWPOLYLINE
  5
2CE
100
AcDbEntity
  8
ASSI
100
AcDbPolyline
 62
253
  6
CONTINUOUS
 90
13
 70
0
 10
-11.4931972039
 20
19.904564537
 10
-11.4922554982
 20
19.9433631453
 10
-11.4893857622
 20
19.9824389024
 10
-11.4845399315
 20
20.0216939534
 10
-11.4776612641
 20
20.0610926191
 10
-11.4687181573
 20
20.1004584172
 10
-11.4577382946
 20
20.1394817934
 10
-11.444714128
 20
20.178083858
 10
-11.4296627219
 20
20.216126439
 10
-11.4127300913
 20
20.2532329885
 10
-11.3940261167
 20
20.2892279436
 10
-11.3735770797
 20
20.3241184203
 10
-11.3514518953
 20
20.3578246143
  0
LINE
  5
2CF
100
AcDbEntity
  8
RACCORDO
100
AcDbLine
 62
253
  6
CONTINUOUS
 10
11.7624982912
 20
-24.5443490204
 11
11.6930477048
 21
-24.4960961146
  0
LINE
  5
2D0
100
AcDbEntity
  8
ASSI
100
AcDbLine
 62
253
  6
CONTINUOUS
 10
11.7624982912
 20
-24.5443490204
 11
11.6930477048
 21
-24.4960961146
  0
LINE
  5
2D1
100
AcDbEntity
  8
RACCORDO
100
AcDbLine
 62
253
  6
CONTINUOUS
 10
11.6930477048
 20
-24.4960961146
 11
11.6255900426
 21
-24.4485070803
  0
LINE
  5
2D2
100
AcDbEntity
  8
ASSI
100
AcDbLine
 62
253
  6
CONTINUOUS
 10
11.6930477048
 20
-24.4960961146
 11
11.6255900426
 21
-24.4485070803
  0
LWPOLYLINE
  5
2D3
100
AcDbEntity
  8
RACCORDO
100
AcDbPolyline
 62
253
  6
CONTINUOUS
 90
14
 70
0
 10
11.6255900426
 20
-24.4485070803
 10
11.5620611798
 20
-24.4029476098
 10
11.5323456395
 20
-24.3813408561
 10
11.5042842446
 20
-24.3607251519
 10
11.4780786816
 20
-24.3412486688
 10
11.4539172983
 20
-24.3230513907
 10
11.4319737504
 20
-24.3062641071
 10
11.4124057533
 20
-24.2910074737
 10
11.3953539484
 20
-24.2773911448
 10
11.3809408927
 20
-24.2655129853
 10
11.3692701774
 20
-24.2554583672
 10
11.3604256837
 20
-24.2472995564
 10
11.35447098
 20
-24.2410951927
 10
11.3514488646
 20
-24.236889869
  0
LWPOLYLINE
  5
2D4
100
AcDbEntity
  8
ASSI
100
AcDbPolyline
 62
253
  6
CONTINUOUS
 90
14
 70
0
 10
11.6255900426
 20
-24.4485070803
 10
11.5620611798
 20
-24.4029476098
 10
11.5323456395
 20
-24.3813408561
 10
11.5042842446
 20
-24.3607251519
 10
11.4780786816
 20
-24.3412486688
 10
11.4539172983
 20
-24.3230513907
 10
11.4319737504
 20
-24.3062641071
 10
11.4124057533
 20
-24.2910074737
 10
11.3953539484
 20
-24.2773911448
 10
11.3809408927
 20
-24.2655129853
 10
11.3692701774
 20
-24.2554583672
 10
11.3604256837
 20
-24.2472995564
 10
11.35447098
 20
-24.2410951927
 10
11.3514488646
 20
-24.236889869
  0
LINE
  5
2D5
100
AcDbEntity
  8
SCRITTE
100
AcDbLine
 62
253
  6
CONTINUOUS
 10
-1.400068
 20
-28.9891806683
 11
-0.714487
 21
-30.8173346683
  0
LINE
  5
2D6
100
AcDbEntity
  8
SCRITTE
100
AcDbLine
 62
253
  6
CONTINUOUS
 10
-5.503668
 20
-28.0176316683
 11
-4.616107
 21
-30.8173346683
  0
LINE
  5
2D7
100
AcDbEntity
  8
SCRITTE
100
AcDbLine
 62
253
  6
CONTINUOUS
 10
-4.335146
 20
-29.9447536683
 11
-4.86882
 21
-28.0176316683
  0
LINE
  5
2D8
100
AcDbEntity
  8
RACCORDO
100
AcDbLine
 62
253
  6
CONTINUOUS
 10
-10.6908480399
 20
21.2281660715
 11
-10.6908480399
 21
20.7020607967
  0
LINE
  5
2D9
100
AcDbEntity
  8
ASSI
100
AcDbLine
 62
253
  6
CONTINUOUS
 10
-10.6908480399
 20
21.2281660715
 11
-10.6908480399
 21
20.7020607967
  0
LINE
  5
2DA
100
AcDbEntity
  8
RACCORDO
100
AcDbLine
 62
253
  6
CONTINUOUS
 10
-10.6908480399
 20
-25.1072334081
 11
-10.6908480399
 21
-24.5811281333
  0
LINE
  5
2DB
100
AcDbEntity
  8
ASSI
100
AcDbLine
 62
253
  6
CONTINUOUS
 10
-10.6908480399
 20
-25.1072334081
 11
-10.6908480399
 21
-24.5811281333
  0
LINE
  5
2DC
100
AcDbEntity
  8
RACCORDO
100
AcDbLine
 62
253
  6
CONTINUOUS
 10
11.4931972235
 20
19.9045772927
 11
11.4000000262
 21
19.8116004857
  0
LINE
  5
2DD
100
AcDbEntity
  8
ASSI
100
AcDbLine
 62
253
  6
CONTINUOUS
 10
11.4931972235
 20
19.9045772927
 11
11.4000000262
 21
19.8116004857
  0
LINE
  5
2DE
100
AcDbEntity
  8
RACCORDO
100
AcDbLine
 62
253
  6
CONTINUOUS
 10
10.6908494835
 20
20.7020607967
 11
10.5990196442
 21
20.6104663317
  0
LINE
  5
2DF
100
AcDbEntity
  8
ASSI
100
AcDbLine
 62
253
  6
CONTINUOUS
 10
10.6908494835
 20
20.7020607967
 11
10.5990196442
 21
20.6104663317
  0
LWPOLYLINE
  5
2E0
100
AcDbEntity
  8
RACCORDO
100
AcDbPolyline
 62
253
  6
CONTINUOUS
 90
13
 70
0
 10
11.5620612712
 20
20.52388036
 10
11.5323457525
 20
20.5022736204
 10
11.5042843799
 20
20.4816579303
 10
11.4780788393
 20
20.4621814613
 10
11.4539174781
 20
20.4439841967
 10
11.4319739515
 20
20.4271969259
 10
11.4124059746
 20
20.4119403043
 10
11.3953541884
 20
20.3983239859
 10
11.3809411496
 20
20.3864458356
 10
11.3692704491
 20
20.3763912252
 10
11.360425968
 20
20.3682324204
 10
11.3544712742
 20
20.362028061
 10
11.351449166
 20
20.3578227397
  0
LWPOLYLINE
  5
2E1
100
AcDbEntity
  8
ASSI
100
AcDbPolyline
 62
253
  6
CONTINUOUS
 90
13
 70
0
 10
11.5620612712
 20
20.52388036
 10
11.5323457525
 20
20.5022736204
 10
11.5042843799
 20
20.4816579303
 10
11.4780788393
 20
20.4621814613
 10
11.4539174781
 20
20.4439841967
 10
11.4319739515
 20
20.4271969259
 10
11.4124059746
 20
20.4119403043
 10
11.3953541884
 20
20.3983239859
 10
11.3809411496
 20
20.3864458356
 10
11.3692704491
 20
20.3763912252
 10
11.360425968
 20
20.3682324204
 10
11.3544712742
 20
20.362028061
 10
11.351449166
 20
20.3578227397
  0
LINE
  5
2E2
100
AcDbEntity
  8
RACCORDO
100
AcDbLine
 62
253
  6
CONTINUOUS
 10
11.6255900943
 20
20.5694398037
 11
11.5620612712
 21
20.52388036
  0
LINE
  5
2E3
100
AcDbEntity
  8
ASSI
100
AcDbLine
 62
253
  6
CONTINUOUS
 10
11.6255900943
 20
20.5694398037
 11
11.5620612712
 21
20.52388036
  0
LINE
  5
2E4
100
AcDbEntity
  8
RACCORDO
100
AcDbLine
 62
253
  6
CONTINUOUS
 10
11.6930477248
 20
20.6170288153
 11
11.6255900943
 21
20.5694398037
  0
LINE
  5
2E5
100
AcDbEntity
  8
ASSI
100
AcDbLine
 62
253
  6
CONTINUOUS
 10
11.6930477248
 20
20.6170288153
 11
11.6255900943
 21
20.5694398037
  0
LINE
  5
2E6
100
AcDbEntity
  8
RACCORDO
100
AcDbLine
 62
253
  6
CONTINUOUS
 10
11.7624982911
 20
20.6652817048
 11
11.6930477248
 21
20.6170288153
  0
LINE
  5
2E7
100
AcDbEntity
  8
ASSI
100
AcDbLine
 62
253
  6
CONTINUOUS
 10
11.7624982911
 20
20.6652817048
 11
11.6930477248
 21
20.6170288153
  0
LINE
  5
2E8
100
AcDbEntity
  8
RACCORDO
100
AcDbLine
 62
253
  6
CONTINUOUS
 10
10.6908792111
 20
-24.5811281333
 11
10.5990196442
 21
-24.4895336683
  0
LINE
  5
2E9
100
AcDbEntity
  8
ASSI
100
AcDbLine
 62
253
  6
CONTINUOUS
 10
10.6908792111
 20
-24.5811281333
 11
10.5990196442
 21
-24.4895336683
  0
LINE
  5
2EA
100
AcDbEntity
  8
RACCORDO
100
AcDbLine
 62
253
  6
CONTINUOUS
 10
11.4931972154
 20
-23.7836320326
 11
11.4000000262
 21
-23.6906678223
  0
LINE
  5
2EB
100
AcDbEntity
  8
ASSI
100
AcDbLine
 62
253
  6
CONTINUOUS
 10
11.4931972154
 20
-23.7836320326
 11
11.4000000262
 21
-23.6906678223
  0
LWPOLYLINE
  5
2EC
100
AcDbEntity
  8
SCRITTE
100
AcDbPolyline
 62
253
  6
CONTINUOUS
 90
47
 70
0
 10
4.5413801163
 20
-29.9681381586
 10
4.5374483824
 20
-29.958044381
 10
4.533339742
 20
-29.9481918846
 10
4.5290633038
 20
-29.9385782242
 10
4.5246281762
 20
-29.9292009543
 10
4.5200434678
 20
-29.9200576295
 10
4.5153182871
 20
-29.9111458045
 10
4.5104617428
 20
-29.9024630339
 10
4.5054829434
 20
-29.8940068723
 10
4.5003909974
 20
-29.8857748744
 10
4.4951950134
 20
-29.8777645947
 10
4.4893087411
 20
-29.8691211494
 10
4.4833056747
 20
-29.8607438564
 10
4.4771862168
 20
-29.8526281605
 10
4.4709507702
 20
-29.8447695067
 10
4.4645997375
 20
-29.8371633401
 10
4.4581335215
 20
-29.8298051055
 10
4.4515525248
 20
-29.8226902478
 10
4.4448571501
 20
-29.8158142122
 10
4.4380478003
 20
-29.8091724435
 10
4.4311250826
 20
-29.8027617486
 10
4.4240904235
 20
-29.7965843823
 10
4.4169454541
 20
-29.7906439609
 10
4.4096918055
 20
-29.7849441013
 10
4.4023311089
 20
-29.7794884198
 10
4.3948649953
 20
-29.7742805332
 10
4.387295096
 20
-29.7693240581
 10
4.3796230419
 20
-29.7646226109
 10
4.3718504644
 20
-29.7601798083
 10
4.3639788033
 20
-29.7559979321
 10
4.3560087347
 20
-29.7520739256
 10
4.3479407433
 20
-29.7484033971
 10
4.3397753141
 20
-29.7449819551
 10
4.331512932
 20
-29.7418052081
 10
4.3231540816
 20
-29.7388687643
 10
4.314699248
 20
-29.7361682324
 10
4.306148916
 20
-29.7336992207
 10
4.2975035705
 20
-29.7314573376
 10
4.288763588
 20
-29.7294394386
 10
4.2799289124
 20
-29.7276473668
 10
4.2709993792
 20
-29.7260842123
 10
4.261974824
 20
-29.7247530651
 10
4.2528550823
 20
-29.7236570154
 10
4.2436399897
 20
-29.7227991533
 10
4.2343293818
 20
-29.7221825688
 10
4.2249230942
 20
-29.721810352
 10
4.2154209623
 20
-29.7216855931
  0
LINE
  5
2ED
100
AcDbEntity
  8
SCRITTE
100
AcDbLine
 62
253
  6
CONTINUOUS
 10
-0.670314
 20
-29.5720356683
 11
-1.24855
 21
-28.0176316683
  0
LINE
  5
2EE
100
AcDbEntity
  8
SCRITTE
100
AcDbLine
 62
253
  6
CONTINUOUS
 10
3.148408
 20
-30.8173346683
 11
2.28939
 21
-28.0176316683
  0
LINE
  5
2EF
100
AcDbEntity
  8
SCRITTE
100
AcDbLine
 62
253
  6
CONTINUOUS
 10
2.381074
 20
-30.2584146683
 11
2.532466
 21
-30.8173346683
  0
LINE
  5
2F0
100
AcDbEntity
  8
SCRITTE
100
AcDbLine
 62
253
  6
CONTINUOUS
 10
1.995737
 20
-28.7869186683
 11
2.26428
 21
-29.8259246683
  0
LINE
  5
2F1
100
AcDbEntity
  8
SCRITTE
100
AcDbLine
 62
253
  6
CONTINUOUS
 10
0.754112
 20
-30.8173346683
 11
0.492308
 21
-28.0176316683
  0
LINE
  5
2F2
100
AcDbEntity
  8
SCRITTE
100
AcDbLine
 62
253
  6
CONTINUOUS
 10
0.062337
 20
-28.9968026683
 11
0.182406
 21
-30.8173346683
  0
LINE
  5
2F3
100
AcDbEntity
  8
SCRITTE
100
AcDbLine
 62
253
  6
CONTINUOUS
 10
-2.984285
 20
-30.8173346683
 11
-2.984285
 21
-28.0174637668
  0
LINE
  5
2F4
100
AcDbEntity
  8
SCRITTE
100
AcDbLine
 62
253
  6
CONTINUOUS
 10
-2.399877
 20
-28.0174636683
 11
-2.399877
 21
-30.81733457
  0
LINE
  5
2F5
100
AcDbEntity
  8
SCRITTE
100
AcDbLine
 62
253
  6
CONTINUOUS
 10
-1.526183
 20
-30.8173346683
 11
-1.400068
 21
-28.9891806683
  0
LINE
  5
2F6
100
AcDbEntity
  8
SCRITTE
100
AcDbLine
 62
253
  6
CONTINUOUS
 10
-1.832475
 20
-28.0176316683
 11
-2.085272
 21
-30.8173346683
  0
LINE
  5
2F7
100
AcDbEntity
  8
RACCORDO
100
AcDbLine
 62
253
  6
CONTINUOUS
 10
-44.8182454469
 20
-45.7582460171
 11
-44.9999996065
 21
-45.9430547692
  0
LINE
  5
2F8
100
AcDbEntity
  8
ASSI
100
AcDbLine
 62
253
  6
CONTINUOUS
 10
-44.8182454469
 20
-45.7582460171
 11
-44.9999996065
 21
-45.9430547692
  0
LINE
  5
2F9
100
AcDbEntity
  8
RACCORDO
100
AcDbLine
 62
253
  6
CONTINUOUS
 10
43.8299503769
 20
-46.746479572
 11
44.0199190996
 21
-46.9395336683
  0
LINE
  5
2FA
100
AcDbEntity
  8
ASSI
100
AcDbLine
 62
253
  6
CONTINUOUS
 10
43.8299503769
 20
-46.746479572
 11
44.0199190996
 21
-46.9395336683
  0
LINE
  5
2FB
100
AcDbEntity
  8
RACCORDO
100
AcDbLine
 62
253
  6
CONTINUOUS
 10
-43.8299503769
 20
42.8674122354
 11
-44.0199190996
 21
43.0604663317
  0
LINE
  5
2FC
100
AcDbEntity
  8
ASSI
100
AcDbLine
 62
253
  6
CONTINUOUS
 10
-43.8299503769
 20
42.8674122354
 11
-44.0199190996
 21
43.0604663317
  0
LINE
  5
2FD
100
AcDbEntity
  8
RACCORDO
100
AcDbLine
 62
253
  6
CONTINUOUS
 10
-44.8182454469
 20
41.8791786809
 11
-44.9999996065
 21
42.0639874326
  0
LINE
  5
2FE
100
AcDbEntity
  8
ASSI
100
AcDbLine
 62
253
  6
CONTINUOUS
 10
-44.8182454469
 20
41.8791786809
 11
-44.9999996065
 21
42.0639874326
  0
LINE
  5
2FF
100
AcDbEntity
  8
RACCORDO
100
AcDbLine
 62
253
  6
CONTINUOUS
 10
44.8182454469
 20
-45.7582460175
 11
44.9999996065
 21
-45.9430547692
  0
LINE
  5
300
100
AcDbEntity
  8
ASSI
100
AcDbLine
 62
253
  6
CONTINUOUS
 10
44.8182454469
 20
-45.7582460175
 11
44.9999996065
 21
-45.9430547692
  0
LWPOLYLINE
  5
301
100
AcDbEntity
  8
SCRITTE
100
AcDbPolyline
 62
253
  6
CONTINUOUS
 90
8
 70
0
 10
4.6275733431
 20
-30.2314672988
 10
4.6159923513
 20
-30.1924369919
 10
4.604241278
 20
-30.153853645
 10
4.5922769672
 20
-30.1157348101
 10
4.5800562628
 20
-30.0780980395
 10
4.5675360089
 20
-30.040960885
 10
4.5546730495
 20
-30.0043408987
 10
4.5414242286
 20
-29.9682556328
  0
LINE
  5
302
100
AcDbEntity
  8
SCRITTE
100
AcDbLine
 62
253
  6
CONTINUOUS
 10
4.782107975
 20
-30.7657690041
 11
4.7089086632
 21
-30.5156625154
  0
LINE
  5
303
100
AcDbEntity
  8
SCRITTE
100
AcDbLine
 62
253
  6
CONTINUOUS
 10
4.7970156219
 20
-30.8173350227
 11
4.782107975
 21
-30.7657690041
  0
LWPOLYLINE
  5
304
100
AcDbEntity
  8
SCRITTE
100
AcDbPolyline
 62
253
  6
CONTINUOUS
 90
4
 70
0
 10
4.7089086632
 20
-30.5156625154
 10
4.6676112862
 20
-30.3713213387
 10
4.6542420705
 20
-30.3241721351
 10
4.6275733431
 20
-30.2314672988
  0
LINE
  5
305
100
AcDbEntity
  8
SCRITTE
100
AcDbLine
 62
253
  6
CONTINUOUS
 10
5.140890318
 20
-29.9916079797
 11
5.1944703348
 21
-30.1899791495
  0
LINE
  5
306
100
AcDbEntity
  8
SCRITTE
100
AcDbLine
 62
253
  6
CONTINUOUS
 10
5.3266303459
 20
-30.6952881735
 11
5.3591482119
 21
-30.8173350227
  0
LINE
  5
307
100
AcDbEntity
  8
SCRITTE
100
AcDbLine
 62
253
  6
CONTINUOUS
 10
5.1944703348
 20
-30.1899791495
 11
5.2617422618
 21
-30.445910146
  0
LINE
  5
308
100
AcDbEntity
  8
SCRITTE
100
AcDbLine
 62
253
  6
CONTINUOUS
 10
5.2617422618
 20
-30.445910146
 11
5.3266303459
 21
-30.6952881735
  0
LWPOLYLINE
  5
309
100
AcDbEntity
  8
SCRITTE
100
AcDbPolyline
 62
253
  6
CONTINUOUS
 90
49
 70
0
 10
4.6706532981
 20
-28.8283962396
 10
4.6703155196
 20
-28.8174671199
 10
4.6696288272
 20
-28.8066055727
 10
4.6685993882
 20
-28.7958075089
 10
4.66723337
 20
-28.7850688394
 10
4.66553694
 20
-28.774385475
 10
4.6635162653
 20
-28.7637533265
 10
4.6611770274
 20
-28.7531709679
 10
4.6585229636
 20
-28.7426476248
 10
4.6555573251
 20
-28.7321951861
 10
4.6522833635
 20
-28.7218255404
 10
4.6487043299
 20
-28.7115505764
 10
4.6448234757
 20
-28.7013821829
 10
4.6406440027
 20
-28.6913320019
 10
4.6361689136
 20
-28.6814106882
 10
4.6314011619
 20
-28.67162865
 10
4.6263437007
 20
-28.6619962954
 10
4.6209994835
 20
-28.6525240324
 10
4.6153714634
 20
-28.6432222694
 10
4.6094622985
 20
-28.6341016256
 10
4.6032734654
 20
-28.6251735657
 10
4.5968061453
 20
-28.6164497656
 10
4.5900615196
 20
-28.6079419013
 10
4.5830407696
 20
-28.5996616486
 10
4.5757450765
 20
-28.5916206834
 10
4.5681772783
 20
-28.5838291473
 10
4.5603468394
 20
-28.5762910445
 10
4.5522648808
 20
-28.5690088448
 10
4.5439425234
 20
-28.561985018
 10
4.5353908882
 20
-28.5552220338
 10
4.5266210963
 20
-28.5487223621
 10
4.5176438151
 20
-28.5424881222
 10
4.5084678982
 20
-28.5365200318
 10
4.4991017457
 20
-28.530818458
 10
4.4895537576
 20
-28.525383768
 10
4.4798323342
 20
-28.520216329
 10
4.4699458754
 20
-28.515316508
 10
4.4599023936
 20
-28.5106849221
 10
4.4497083503
 20
-28.5063231866
 10
4.4393698192
 20
-28.5022331667
 10
4.4288928742
 20
-28.4984167277
 10
4.4182835889
 20
-28.4948757346
 10
4.4075480372
 20
-28.4916120528
 10
4.3966908125
 20
-28.488628227
 10
4.3857105876
 20
-28.4859295212
 10
4.3746045551
 20
-28.4835218789
 10
4.3633699073
 20
-28.4814112437
 10
4.3520038368
 20
-28.4796035592
 10
4.3405035362
 20
-28.4781047689
  0
LINE
  5
30A
100
AcDbEntity
  8
SCRITTE
100
AcDbLine
 62
253
  6
CONTINUOUS
 10
3.3200188023
 20
-30.8173350227
 11
3.3200188023
 21
-28.050340901
  0
LINE
  5
30B
100
AcDbEntity
  8
SCRITTE
100
AcDbLine
 62
253
  6
CONTINUOUS
 10
3.8826972541
 20
-28.4945884642
 11
3.8826972541
 21
-29.2631617713
  0
LINE
  5
30C
100
AcDbEntity
  8
SCRITTE
100
AcDbLine
 62
253
  6
CONTINUOUS
 10
3.9020753449
 20
-29.7216855931
 11
3.9020753449
 21
-30.8173350546
  0
LINE
  5
30D
100
AcDbEntity
  8
SCRITTE
100
AcDbLine
 62
253
  6
CONTINUOUS
 10
4.8225031649
 20
-29.4939142963
 11
4.8225031649
 21
-29.5104581057
  0
LINE
  5
30E
100
AcDbEntity
  8
SCRITTE
100
AcDbLine
 62
253
  6
CONTINUOUS
 10
-3.785169
 20
-28.0176316683
 11
-4.335146
 21
-29.9447536683
  0
LINE
  5
30F
100
AcDbEntity
  8
SCRITTE
100
AcDbLine
 62
253
  6
CONTINUOUS
 10
-4.101097
 20
-30.8173346683
 11
-3.20116
 21
-28.0176316683
  0
LINE
  5
310
100
AcDbEntity
  8
RACCORDO
100
AcDbLine
 62
253
  6
CONTINUOUS
 10
44.8182454469
 20
41.8791786805
 11
44.9999996065
 21
42.0639874326
  0
LINE
  5
311
100
AcDbEntity
  8
ASSI
100
AcDbLine
 62
253
  6
CONTINUOUS
 10
44.8182454469
 20
41.8791786805
 11
44.9999996065
 21
42.0639874326
  0
LINE
  5
312
100
AcDbEntity
  8
RACCORDO
100
AcDbLine
 62
253
  6
CONTINUOUS
 10
43.8299503769
 20
42.8674122354
 11
44.0199190996
 21
43.0604663317
  0
LINE
  5
313
100
AcDbEntity
  8
ASSI
100
AcDbLine
 62
253
  6
CONTINUOUS
 10
43.8299503769
 20
42.8674122354
 11
44.0199190996
 21
43.0604663317
  0
LINE
  5
314
100
AcDbEntity
  8
RACCORDO
100
AcDbLine
 62
253
  6
CONTINUOUS
 10
-43.8299503769
 20
-46.746479572
 11
-44.0199190996
 21
-46.9395336683
  0
LINE
  5
315
100
AcDbEntity
  8
ASSI
100
AcDbLine
 62
253
  6
CONTINUOUS
 10
-43.8299503769
 20
-46.746479572
 11
-44.0199190996
 21
-46.9395336683
  0
LINE
  5
316
100
AcDbEntity
  8
RACCORDO
100
AcDbLine
 62
253
  6
CONTINUOUS
 10
-11.4931972153
 20
19.9045645482
 11
-11.4000000262
 21
19.8116004857
  0
LINE
  5
317
100
AcDbEntity
  8
ASSI
100
AcDbLine
 62
253
  6
CONTINUOUS
 10
-11.4931972153
 20
19.9045645482
 11
-11.4000000262
 21
19.8116004857
  0
LWPOLYLINE
  5
318
100
AcDbEntity
  8
RACCORDO
100
AcDbPolyline
 62
7
  6
CONTINUOUS
 90
19
 70
0
 10
11.4000000262
 20
19.8116004857
 10
11.3982855128
 20
19.8640789573
 10
11.3931543922
 20
19.9160388348
 10
11.3846066645
 20
19.9674801264
 10
11.372555901
 20
20.0187044438
 10
11.3570885304
 20
20.0694101881
 10
11.3384638385
 20
20.1186925657
 10
11.3167177447
 20
20.1663650252
 10
11.2918143295
 20
20.2126141645
 10
11.2639051201
 20
20.257094934
 10
11.2328675292
 20
20.2999343669
 10
11.198824144
 20
20.3410054794
 10
11.1622942528
 20
20.3795822092
 10
11.1231825175
 20
20.4156059801
 10
11.0815842763
 20
20.4491354306
 10
11.0383048318
 20
20.4796203345
 10
10.9936126183
 20
20.5068773054
 10
10.9472392017
 20
20.5310897898
 10
10.8991845818
 20
20.5522578125
  0
LWPOLYLINE
  5
319
100
AcDbEntity
  8
ASSI
100
AcDbPolyline
 62
7
  6
CONTINUOUS
 90
19
 70
0
 10
11.4000000262
 20
19.8116004857
 10
11.3982855128
 20
19.8640789573
 10
11.3931543922
 20
19.9160388348
 10
11.3846066645
 20
19.9674801264
 10
11.372555901
 20
20.0187044438
 10
11.3570885304
 20
20.0694101881
 10
11.3384638385
 20
20.1186925657
 10
11.3167177447
 20
20.1663650252
 10
11.2918143295
 20
20.2126141645
 10
11.2639051201
 20
20.257094934
 10
11.2328675292
 20
20.2999343669
 10
11.198824144
 20
20.3410054794
 10
11.1622942528
 20
20.3795822092
 10
11.1231825175
 20
20.4156059801
 10
11.0815842763
 20
20.4491354306
 10
11.0383048318
 20
20.4796203345
 10
10.9936126183
 20
20.5068773054
 10
10.9472392017
 20
20.5310897898
 10
10.8991845818
 20
20.5522578125
  0
LINE
  5
31A
100
AcDbEntity
  8
RACCORDO
100
AcDbLine
 62
253
  6
CONTINUOUS
 10
10.6908480399
 20
21.2281660715
 11
10.6908480399
 21
20.7020607967
  0
LINE
  5
31B
100
AcDbEntity
  8
ASSI
100
AcDbLine
 62
253
  6
CONTINUOUS
 10
10.6908480399
 20
21.2281660715
 11
10.6908480399
 21
20.7020607967
  0
LINE
  5
31C
100
AcDbEntity
  8
RACCORDO
100
AcDbLine
 62
253
  6
CONTINUOUS
 10
10.6908480399
 20
-25.1072334081
 11
10.6908480399
 21
-24.5811281333
  0
LINE
  5
31D
100
AcDbEntity
  8
ASSI
100
AcDbLine
 62
253
  6
CONTINUOUS
 10
10.6908480399
 20
-25.1072334081
 11
10.6908480399
 21
-24.5811281333
  0
LINE
  5
31E
100
AcDbEntity
  8
RACCORDO
100
AcDbLine
 62
7
  6
CONTINUOUS
 10
11.4000000262
 20
-23.6906678223
 11
11.4000000262
 21
19.8116004857
  0
LINE
  5
31F
100
AcDbEntity
  8
ASSI
100
AcDbLine
 62
7
  6
CONTINUOUS
 10
11.4000000262
 20
-23.6906678223
 11
11.4000000262
 21
19.8116004857
  0
LINE
  5
320
100
AcDbEntity
  8
RACCORDO
100
AcDbLine
 62
253
  6
CONTINUOUS
 10
11.4931972235
 20
19.9045772927
 11
11.4931972154
 21
-23.7836320326
  0
LINE
  5
321
100
AcDbEntity
  8
ASSI
100
AcDbLine
 62
253
  6
CONTINUOUS
 10
11.4931972235
 20
19.9045772927
 11
11.4931972154
 21
-23.7836320326
  0
LINE
  5
322
100
AcDbEntity
  8
RACCORDO
100
AcDbLine
 62
253
  6
CONTINUOUS
 10
11.9925103428
 20
19.9275701663
 11
11.9925103428
 21
-23.8066375029
  0
LINE
  5
323
100
AcDbEntity
  8
ASSI
100
AcDbLine
 62
253
  6
CONTINUOUS
 10
11.9925103428
 20
19.9275701663
 11
11.9925103428
 21
-23.8066375029
  0
LWPOLYLINE
  5
324
100
AcDbEntity
  8
RACCORDO
100
AcDbPolyline
 62
253
  6
CONTINUOUS
 90
13
 70
0
 10
11.9925103428
 20
-23.8066375029
 10
11.991099595
 20
-23.8700063112
 10
11.9864122147
 20
-23.9335206639
 10
11.9784482019
 20
-23.9971805565
 10
11.9672098138
 20
-24.0612786281
 10
11.9526947932
 20
-24.1255222269
 10
11.9348963685
 20
-24.1890334311
 10
11.9136879302
 20
-24.2518387452
 10
11.8891960878
 20
-24.3139116925
 10
11.8617938971
 20
-24.374294917
 10
11.8316057101
 20
-24.4326693304
 10
11.7985071748
 20
-24.4893540899
 10
11.7624982912
 20
-24.5443492269
  0
LWPOLYLINE
  5
325
100
AcDbEntity
  8
ASSI
100
AcDbPolyline
 62
253
  6
CONTINUOUS
 90
13
 70
0
 10
11.9925103428
 20
-23.8066375029
 10
11.991099595
 20
-23.8700063112
 10
11.9864122147
 20
-23.9335206639
 10
11.9784482019
 20
-23.9971805565
 10
11.9672098138
 20
-24.0612786281
 10
11.9526947932
 20
-24.1255222269
 10
11.9348963685
 20
-24.1890334311
 10
11.9136879302
 20
-24.2518387452
 10
11.8891960878
 20
-24.3139116925
 10
11.8617938971
 20
-24.374294917
 10
11.8316057101
 20
-24.4326693304
 10
11.7985071748
 20
-24.4893540899
 10
11.7624982912
 20
-24.5443492269
  0
LWPOLYLINE
  5
326
100
AcDbEntity
  8
RACCORDO
100
AcDbPolyline
 62
253
  6
CONTINUOUS
 90
13
 70
0
 10
11.4931972039
 20
-23.7836320213
 10
11.4922553927
 20
-23.8224326991
 10
11.4893851508
 20
-23.8615124832
 10
11.4845381197
 20
-23.9007734681
 10
11.4776568552
 20
-23.9401819122
 10
11.4687096664
 20
-23.9795591564
 10
11.4577257887
 20
-24.0185895853
 10
11.4446991476
 20
-24.0571921052
 10
11.4296468199
 20
-24.0952311254
 10
11.4127149092
 20
-24.1323314526
 10
11.3940135058
 20
-24.1683181115
 10
11.3735694149
 20
-24.2031981115
 10
11.3514518953
 20
-24.2368919509
  0
LWPOLYLINE
  5
327
100
AcDbEntity
  8
ASSI
100
AcDbPolyline
 62
253
  6
CONTINUOUS
 90
13
 70
0
 10
11.4931972039
 20
-23.7836320213
 10
11.4922553927
 20
-23.8224326991
 10
11.4893851508
 20
-23.8615124832
 10
11.4845381197
 20
-23.9007734681
 10
11.4776568552
 20
-23.9401819122
 10
11.4687096664
 20
-23.9795591564
 10
11.4577257887
 20
-24.0185895853
 10
11.4446991476
 20
-24.0571921052
 10
11.4296468199
 20
-24.0952311254
 10
11.4127149092
 20
-24.1323314526
 10
11.3940135058
 20
-24.1683181115
 10
11.3735694149
 20
-24.2031981115
 10
11.3514518953
 20
-24.2368919509
  0
LINE
  5
328
100
AcDbEntity
  8
SCRITTE
100
AcDbLine
 62
253
  6
CONTINUOUS
 10
1.704751
 20
-29.8259246683
 11
1.995737
 21
-28.7869186683
  0
LINE
  5
329
100
AcDbEntity
  8
SCRITTE
100
AcDbLine
 62
253
  6
CONTINUOUS
 10
1.423947
 20
-30.8173346683
 11
1.585207
 21
-30.2584146683
  0
LINE
  5
32A
100
AcDbEntity
  8
SCRITTE
100
AcDbLine
 62
253
  6
CONTINUOUS
 10
1.724045
 20
-28.0176316683
 11
0.84588
 21
-30.8173346683
  0
LINE
  5
32B
100
AcDbEntity
  8
SCRITTE
100
AcDbLine
 62
253
  6
CONTINUOUS
 10
-0.085906
 20
-28.0176316683
 11
-0.670314
 21
-29.5720356683
  0
LINE
  5
32C
100
AcDbEntity
  8
SCRITTE
100
AcDbLine
 62
253
  6
CONTINUOUS
 10
-0.632524
 20
-30.8173346683
 11
0.062337
 21
-28.9968026683
  0
LINE
  5
32D
100
AcDbEntity
  8
RACCORDO
100
AcDbLine
 62
253
  6
CONTINUOUS
 10
-11.4931972229
 20
-23.78364377
 11
-11.4000000262
 21
-23.6906678223
  0
LINE
  5
32E
100
AcDbEntity
  8
ASSI
100
AcDbLine
 62
253
  6
CONTINUOUS
 10
-11.4931972229
 20
-23.78364377
 11
-11.4000000262
 21
-23.6906678223
  0
LINE
  5
32F
100
AcDbEntity
  8
RACCORDO
100
AcDbLine
 62
253
  6
CONTINUOUS
 10
-10.6908489302
 20
-24.5811281333
 11
-10.5990196442
 21
-24.4895336683
  0
LINE
  5
330
100
AcDbEntity
  8
ASSI
100
AcDbLine
 62
253
  6
CONTINUOUS
 10
-10.6908489302
 20
-24.5811281333
 11
-10.5990196442
 21
-24.4895336683
  0
LINE
  5
331
100
AcDbEntity
  8
RACCORDO
100
AcDbLine
 62
253
  6
CONTINUOUS
 10
-11.7624982912
 20
20.6652816976
 11
-11.6930477203
 21
20.6170288002
  0
LINE
  5
332
100
AcDbEntity
  8
ASSI
100
AcDbLine
 62
253
  6
CONTINUOUS
 10
-11.7624982912
 20
20.6652816976
 11
-11.6930477203
 21
20.6170288002
  0
LINE
  5
333
100
AcDbEntity
  8
RACCORDO
100
AcDbLine
 62
253
  6
CONTINUOUS
 10
-11.6930477203
 20
20.6170288002
 11
-11.6255900798
 21
20.5694397787
  0
LINE
  5
334
100
AcDbEntity
  8
ASSI
100
AcDbLine
 62
253
  6
CONTINUOUS
 10
-11.6930477203
 20
20.6170288002
 11
-11.6255900798
 21
20.5694397787
  0
LWPOLYLINE
  5
335
100
AcDbEntity
  8
RACCORDO
100
AcDbPolyline
 62
253
  6
CONTINUOUS
 90
14
 70
0
 10
-11.6255900798
 20
20.5694397787
 10
-11.5620612426
 20
20.5238803239
 10
-11.5323457158
 20
20.5022735786
 10
-11.5042843345
 20
20.4816578828
 10
-11.4780787849
 20
20.4621814082
 10
-11.4539174146
 20
20.4439841383
 10
-11.431973879
 20
20.4271968624
 10
-11.4124058931
 20
20.4119402362
 10
-11.3953540984
 20
20.3983239137
 10
-11.3809410516
 20
20.3864457597
 10
-11.3692703436
 20
20.3763911462
 10
-11.3604258558
 20
20.3682323388
 10
-11.3544711561
 20
20.3620279775
 10
-11.3514490429
 20
20.3578226549
  0
LWPOLYLINE
  5
336
100
AcDbEntity
  8
ASSI
100
AcDbPolyline
 62
253
  6
CONTINUOUS
 90
14
 70
0
 10
-11.6255900798
 20
20.5694397787
 10
-11.5620612426
 20
20.5238803239
 10
-11.5323457158
 20
20.5022735786
 10
-11.5042843345
 20
20.4816578828
 10
-11.4780787849
 20
20.4621814082
 10
-11.4539174146
 20
20.4439841383
 10
-11.431973879
 20
20.4271968624
 10
-11.4124058931
 20
20.4119402362
 10
-11.3953540984
 20
20.3983239137
 10
-11.3809410516
 20
20.3864457597
 10
-11.3692703436
 20
20.3763911462
 10
-11.3604258558
 20
20.3682323388
 10
-11.3544711561
 20
20.3620279775
 10
-11.3514490429
 20
20.3578226549
  0
LINE
  5
337
100
AcDbEntity
  8
RACCORDO
100
AcDbLine
 62
253
  6
CONTINUOUS
 10
-10.6908787509
 20
20.7020607967
 11
-10.5990196442
 21
20.6104663317
  0
LINE
  5
338
100
AcDbEntity
  8
ASSI
100
AcDbLine
 62
253
  6
CONTINUOUS
 10
-10.6908787509
 20
20.7020607967
 11
-10.5990196442
 21
20.6104663317
  0
LWPOLYLINE
  5
339
100
AcDbEntity
  8
RACCORDO
100
AcDbPolyline
 62
253
  6
CONTINUOUS
 90
13
 70
0
 10
-11.5620613255
 20
-24.4029477394
 10
-11.5323458183
 20
-24.3813410069
 10
-11.5042844573
 20
-24.3607253241
 10
-11.4780789281
 20
-24.3412488623
 10
-11.4539175778
 20
-24.3230516046
 10
-11.4319740616
 20
-24.3062643404
 10
-11.4124060941
 20
-24.2910077249
 10
-11.3953543165
 20
-24.277391412
 10
-11.380941285
 20
-24.2655132663
 10
-11.3692705906
 20
-24.2554586598
 10
-11.3604261141
 20
-24.2472998579
 10
-11.3544714235
 20
-24.2410955004
 10
-11.351449317
 20
-24.23689018
  0
LWPOLYLINE
  5
33A
100
AcDbEntity
  8
ASSI
100
AcDbPolyline
 62
253
  6
CONTINUOUS
 90
13
 70
0
 10
-11.5620613255
 20
-24.4029477394
 10
-11.5323458183
 20
-24.3813410069
 10
-11.5042844573
 20
-24.3607253241
 10
-11.4780789281
 20
-24.3412488623
 10
-11.4539175778
 20
-24.3230516046
 10
-11.4319740616
 20
-24.3062643404
 10
-11.4124060941
 20
-24.2910077249
 10
-11.3953543165
 20
-24.277391412
 10
-11.380941285
 20
-24.2655132663
 10
-11.3692705906
 20
-24.2554586598
 10
-11.3604261141
 20
-24.2472998579
 10
-11.3544714235
 20
-24.2410955004
 10
-11.351449317
 20
-24.23689018
  0
LINE
  5
33B
100
AcDbEntity
  8
RACCORDO
100
AcDbLine
 62
253
  6
CONTINUOUS
 10
-11.6255901266
 20
-24.4485071698
 11
-11.5620613255
 21
-24.4029477394
  0
LINE
  5
33C
100
AcDbEntity
  8
ASSI
100
AcDbLine
 62
253
  6
CONTINUOUS
 10
-11.6255901266
 20
-24.4485071698
 11
-11.5620613255
 21
-24.4029477394
  0
LINE
  5
33D
100
AcDbEntity
  8
RACCORDO
100
AcDbLine
 62
253
  6
CONTINUOUS
 10
-11.6930477383
 20
-24.4960961705
 11
-11.6255901266
 21
-24.4485071698
  0
LINE
  5
33E
100
AcDbEntity
  8
ASSI
100
AcDbLine
 62
253
  6
CONTINUOUS
 10
-11.6930477383
 20
-24.4960961705
 11
-11.6255901266
 21
-24.4485071698
  0
LINE
  5
33F
100
AcDbEntity
  8
RACCORDO
100
AcDbLine
 62
253
  6
CONTINUOUS
 10
-11.7624982911
 20
-24.5443490529
 11
-11.6930477383
 21
-24.4960961705
  0
LINE
  5
340
100
AcDbEntity
  8
ASSI
100
AcDbLine
 62
253
  6
CONTINUOUS
 10
-11.7624982911
 20
-24.5443490529
 11
-11.6930477383
 21
-24.4960961705
  0
LWPOLYLINE
  5
341
100
AcDbEntity
  8
RACCORDO
100
AcDbPolyline
 62
253
  6
CONTINUOUS
 90
19
 70
0
 10
11.7624982912
 20
-24.5443492269
 10
11.721364722
 20
-24.60075522
 10
11.6774175505
 20
-24.6546847972
 10
11.6306567766
 20
-24.7061380743
 10
11.5809245924
 20
-24.7552809945
 10
11.528378806
 20
-24.8019478283
 10
11.4734928408
 20
-24.8456411967
 10
11.4162377764
 20
-24.886323471
 10
11.3566425334
 20
-24.9240325089
 10
11.2952672972
 20
-24.9583841857
 10
11.2320597069
 20
-24.9893415209
 10
11.1670721234
 20
-25.0169416999
 10
11.1010218149
 20
-25.0409118518
 10
11.033888213
 20
-25.0611879859
 10
10.9656918861
 20
-25.0778342457
 10
10.897211808
 20
-25.0907699522
 10
10.8287076366
 20
-25.0999682391
 10
10.7599197138
 20
-25.1054560512
 10
10.6908480399
 20
-25.1072334081
  0
LWPOLYLINE
  5
342
100
AcDbEntity
  8
ASSI
100
AcDbPolyline
 62
253
  6
CONTINUOUS
 90
19
 70
0
 10
11.7624982912
 20
-24.5443492269
 10
11.721364722
 20
-24.60075522
 10
11.6774175505
 20
-24.6546847972
 10
11.6306567766
 20
-24.7061380743
 10
11.5809245924
 20
-24.7552809945
 10
11.528378806
 20
-24.8019478283
 10
11.4734928408
 20
-24.8456411967
 10
11.4162377764
 20
-24.886323471
 10
11.3566425334
 20
-24.9240325089
 10
11.2952672972
 20
-24.9583841857
 10
11.2320597069
 20
-24.9893415209
 10
11.1670721234
 20
-25.0169416999
 10
11.1010218149
 20
-25.0409118518
 10
11.033888213
 20
-25.0611879859
 10
10.9656918861
 20
-25.0778342457
 10
10.897211808
 20
-25.0907699522
 10
10.8287076366
 20
-25.0999682391
 10
10.7599197138
 20
-25.1054560512
 10
10.6908480399
 20
-25.1072334081
  0
LWPOLYLINE
  5
343
100
AcDbEntity
  8
RACCORDO
100
AcDbPolyline
 62
253
  6
CONTINUOUS
 90
19
 70
0
 10
11.3514518953
 20
-24.2368919509
 10
11.3261469641
 20
-24.2713773362
 10
11.2989796649
 20
-24.3045128536
 10
11.2700193616
 20
-24.336196286
 10
11.2393370817
 20
-24.3663316612
 10
11.2070172489
 20
-24.3948206911
 10
11.173159248
 20
-24.4215650567
 10
11.1378482864
 20
-24.4464849172
 10
11.1011888506
 20
-24.4694947098
 10
11.0633215543
 20
-24.4905021982
 10
11.024339153
 20
-24.5094514265
 10
10.9843701113
 20
-24.5262757119
 10
10.9436232379
 20
-24.5408955486
 10
10.9022186743
 20
-24.5532814365
 10
10.8602828786
 20
-24.563408924
 10
10.8180452687
 20
-24.5712469312
 10
10.7756674406
 20
-24.5767992768
 10
10.7332383663
 20
-24.5800862904
 10
10.6908792642
 20
-24.5811281857
  0
LWPOLYLINE
  5
344
100
AcDbEntity
  8
ASSI
100
AcDbPolyline
 62
253
  6
CONTINUOUS
 90
19
 70
0
 10
11.3514518953
 20
-24.2368919509
 10
11.3261469641
 20
-24.2713773362
 10
11.2989796649
 20
-24.3045128536
 10
11.2700193616
 20
-24.336196286
 10
11.2393370817
 20
-24.3663316612
 10
11.2070172489
 20
-24.3948206911
 10
11.173159248
 20
-24.4215650567
 10
11.1378482864
 20
-24.4464849172
 10
11.1011888506
 20
-24.4694947098
 10
11.0633215543
 20
-24.4905021982
 10
11.024339153
 20
-24.5094514265
 10
10.9843701113
 20
-24.5262757119
 10
10.9436232379
 20
-24.5408955486
 10
10.9022186743
 20
-24.5532814365
 10
10.8602828786
 20
-24.563408924
 10
10.8180452687
 20
-24.5712469312
 10
10.7756674406
 20
-24.5767992768
 10
10.7332383663
 20
-24.5800862904
 10
10.6908792642
 20
-24.5811281857
  0
LWPOLYLINE
  5
345
100
AcDbEntity
  8
RACCORDO
100
AcDbPolyline
 62
7
  6
CONTINUOUS
 90
7
 70
0
 10
-10.5990196442
 20
20.6104663317
 10
-10.6503543612
 20
20.6088238359
 10
-10.7011661872
 20
20.6039577991
 10
-10.7514551223
 20
20.5958682069
 10
-10.8012211664
 20
20.5845550355
 10
-10.8504643196
 20
20.5700182516
 10
-10.8991845818
 20
20.5522578125
  0
LWPOLYLINE
  5
346
100
AcDbEntity
  8
ASSI
100
AcDbPolyline
 62
7
  6
CONTINUOUS
 90
7
 70
0
 10
-10.5990196442
 20
20.6104663317
 10
-10.6503543612
 20
20.6088238359
 10
-10.7011661872
 20
20.6039577991
 10
-10.7514551223
 20
20.5958682069
 10
-10.8012211664
 20
20.5845550355
 10
-10.8504643196
 20
20.5700182516
 10
-10.8991845818
 20
20.5522578125
  0
LWPOLYLINE
  5
347
100
AcDbEntity
  8
RACCORDO
100
AcDbPolyline
 62
253
  6
CONTINUOUS
 90
16
 70
0
 10
-44.4452505819
 20
20.5617522506
 10
-44.4847432107
 20
20.5611670794
 10
-44.5231371757
 20
20.5604213105
 10
-44.5601718614
 20
20.5595200063
 10
-44.5955958789
 20
20.5584692845
 10
-44.6291687722
 20
20.5572762777
 10
-44.660662651
 20
20.5559490836
 10
-44.6898637368
 20
20.5544967113
 10
-44.7165738147
 20
20.5529290194
 10
-44.7406115784
 20
20.5512566492
 10
-44.7618138614
 20
20.5494909528
 10
-44.7800367438
 20
20.5476439154
 10
-44.7951565301
 20
20.5457280747
 10
-44.8070705881
 20
20.5437564353
 10
-44.815698046
 20
20.5417423805
 10
-44.8209803413
 20
20.5396995816
  0
LWPOLYLINE
  5
348
100
AcDbEntity
  8
ASSI
100
AcDbPolyline
 62
253
  6
CONTINUOUS
 90
16
 70
0
 10
-44.4452505819
 20
20.5617522506
 10
-44.4847432107
 20
20.5611670794
 10
-44.5231371757
 20
20.5604213105
 10
-44.5601718614
 20
20.5595200063
 10
-44.5955958789
 20
20.5584692845
 10
-44.6291687722
 20
20.5572762777
 10
-44.660662651
 20
20.5559490836
 10
-44.6898637368
 20
20.5544967113
 10
-44.7165738147
 20
20.5529290194
 10
-44.7406115784
 20
20.5512566492
 10
-44.7618138614
 20
20.5494909528
 10
-44.7800367438
 20
20.5476439154
 10
-44.7951565301
 20
20.5457280747
 10
-44.8070705881
 20
20.5437564353
 10
-44.815698046
 20
20.5417423805
 10
-44.8209803413
 20
20.5396995816
  0
LWPOLYLINE
  5
349
100
AcDbEntity
  8
RACCORDO
100
AcDbPolyline
 62
253
  6
CONTINUOUS
 90
16
 70
0
 10
-44.4452465341
 20
20.6645248174
 10
-44.4847390969
 20
20.6639383303
 10
-44.5231330019
 20
20.6631904749
 10
-44.5601676349
 20
20.6622863277
 10
-44.5955916082
 20
20.6612320258
 10
-44.6291644671
 20
20.6600347258
 10
-44.6606583223
 20
20.6587025549
 10
-44.6898593963
 20
20.6572445557
 10
-44.716569475
 20
20.6556706249
 10
-44.7406072527
 20
20.6539914463
 10
-44.7618095634
 20
20.652218418
 10
-44.7800324877
 20
20.6503635751
 10
-44.79515233
 20
20.6484395081
 10
-44.8070664582
 20
20.6464592775
 10
-44.8156940005
 20
20.6444363247
 10
-44.8209763937
 20
20.6423843816
  0
LWPOLYLINE
  5
34A
100
AcDbEntity
  8
ASSI
100
AcDbPolyline
 62
253
  6
CONTINUOUS
 90
16
 70
0
 10
-44.4452465341
 20
20.6645248174
 10
-44.4847390969
 20
20.6639383303
 10
-44.5231330019
 20
20.6631904749
 10
-44.5601676349
 20
20.6622863277
 10
-44.5955916082
 20
20.6612320258
 10
-44.6291644671
 20
20.6600347258
 10
-44.6606583223
 20
20.6587025549
 10
-44.6898593963
 20
20.6572445557
 10
-44.716569475
 20
20.6556706249
 10
-44.7406072527
 20
20.6539914463
 10
-44.7618095634
 20
20.652218418
 10
-44.7800324877
 20
20.6503635751
 10
-44.79515233
 20
20.6484395081
 10
-44.8070664582
 20
20.6464592775
 10
-44.8156940005
 20
20.6444363247
 10
-44.8209763937
 20
20.6423843816
  0
LWPOLYLINE
  5
34B
100
AcDbEntity
  8
RACCORDO
100
AcDbPolyline
 62
253
  6
CONTINUOUS
 90
16
 70
0
 10
11.8673253688
 20
19.9267975779
 10
11.826985168
 20
19.9262018097
 10
11.7878220827
 20
19.9254429883
 10
11.7501146173
 20
19.92452651
 10
11.7141309246
 20
19.9234588923
 10
11.680126899
 20
19.9222477274
 10
11.6483443567
 20
19.9209016283
 10
11.619009316
 20
19.9194301677
 10
11.5923303901
 20
19.9178438099
 10
11.5684973035
 20
19.9161538359
 10
11.5476795428
 20
19.9143722638
 10
11.5300251513
 20
19.9125117633
 10
11.5156596766
 20
19.9105855649
 10
11.5046852771
 20
19.9086073666
 10
11.4971799963
 20
19.9065912363
 10
11.4931972073
 20
19.9045515115
  0
LWPOLYLINE
  5
34C
100
AcDbEntity
  8
ASSI
100
AcDbPolyline
 62
253
  6
CONTINUOUS
 90
16
 70
0
 10
11.8673253688
 20
19.9267975779
 10
11.826985168
 20
19.9262018097
 10
11.7878220827
 20
19.9254429883
 10
11.7501146173
 20
19.92452651
 10
11.7141309246
 20
19.9234588923
 10
11.680126899
 20
19.9222477274
 10
11.6483443567
 20
19.9209016283
 10
11.619009316
 20
19.9194301677
 10
11.5923303901
 20
19.9178438099
 10
11.5684973035
 20
19.9161538359
 10
11.5476795428
 20
19.9143722638
 10
11.5300251513
 20
19.9125117633
 10
11.5156596766
 20
19.9105855649
 10
11.5046852771
 20
19.9086073666
 10
11.4971799963
 20
19.9065912363
 10
11.4931972073
 20
19.9045515115
  0
LINE
  5
34D
100
AcDbEntity
  8
RACCORDO
100
AcDbLine
 62
253
  6
CONTINUOUS
 10
-44.3640433607
 20
20.6651988851
 11
-44.4452465341
 21
20.6645248174
  0
LINE
  5
34E
100
AcDbEntity
  8
ASSI
100
AcDbLine
 62
253
  6
CONTINUOUS
 10
-44.3640433607
 20
20.6651988851
 11
-44.4452465341
 21
20.6645248174
  0
LWPOLYLINE
  5
34F
100
AcDbEntity
  8
RACCORDO
100
AcDbPolyline
 62
253
  6
CONTINUOUS
 90
3
 70
0
 10
11.9925103428
 20
19.9275701659
 10
11.9503832852
 20
19.9274841974
 10
11.8673253688
 20
19.9267975779
  0
LWPOLYLINE
  5
350
100
AcDbEntity
  8
ASSI
100
AcDbPolyline
 62
253
  6
CONTINUOUS
 90
3
 70
0
 10
11.9925103428
 20
19.9275701659
 10
11.9503832852
 20
19.9274841974
 10
11.8673253688
 20
19.9267975779
  0
LWPOLYLINE
  5
351
100
AcDbEntity
  8
RACCORDO
100
AcDbPolyline
 62
253
  6
CONTINUOUS
 90
3
 70
0
 10
-44.3228877784
 20
20.5625100622
 10
-44.3640472645
 20
20.5624260288
 10
-44.4452505819
 20
20.5617522506
  0
LWPOLYLINE
  5
352
100
AcDbEntity
  8
ASSI
100
AcDbPolyline
 62
253
  6
CONTINUOUS
 90
3
 70
0
 10
-44.3228877784
 20
20.5625100622
 10
-44.3640472645
 20
20.5624260288
 10
-44.4452505819
 20
20.5617522506
  0
LINE
  5
353
100
AcDbEntity
  8
RACCORDO
100
AcDbLine
 62
253
  6
CONTINUOUS
 10
44.8209803417
 20
20.5396995816
 11
45.0
 21
20.5396995816
  0
LINE
  5
354
100
AcDbEntity
  8
ASSI
100
AcDbLine
 62
253
  6
CONTINUOUS
 10
44.8209803417
 20
20.5396995816
 11
45.0
 21
20.5396995816
  0
LINE
  5
355
100
AcDbEntity
  8
RACCORDO
100
AcDbLine
 62
253
  6
CONTINUOUS
 10
-44.8209803417
 20
20.5396995816
 11
-45.0
 21
20.5396995816
  0
LINE
  5
356
100
AcDbEntity
  8
ASSI
100
AcDbLine
 62
253
  6
CONTINUOUS
 10
-44.8209803417
 20
20.5396995816
 11
-45.0
 21
20.5396995816
  0
LINE
  5
357
100
AcDbEntity
  8
RACCORDO
100
AcDbLine
 62
7
  6
CONTINUOUS
 10
10.5990196442
 20
20.6104663317
 11
-10.5990196442
 21
20.6104663317
  0
LINE
  5
358
100
AcDbEntity
  8
ASSI
100
AcDbLine
 62
7
  6
CONTINUOUS
 10
10.5990196442
 20
20.6104663317
 11
-10.5990196442
 21
20.6104663317
  0
LINE
  5
359
100
AcDbEntity
  8
RACCORDO
100
AcDbLine
 62
253
  6
CONTINUOUS
 10
-11.7624982912
 20
20.6652818903
 11
-44.3640433607
 21
20.6651988851
  0
LINE
  5
35A
100
AcDbEntity
  8
ASSI
100
AcDbLine
 62
253
  6
CONTINUOUS
 10
-11.7624982912
 20
20.6652818903
 11
-44.3640433607
 21
20.6651988851
  0
LINE
  5
35B
100
AcDbEntity
  8
RACCORDO
100
AcDbLine
 62
253
  6
CONTINUOUS
 10
-10.6908787509
 20
20.7020607967
 11
10.6908494835
 21
20.7020607967
  0
LINE
  5
35C
100
AcDbEntity
  8
ASSI
100
AcDbLine
 62
253
  6
CONTINUOUS
 10
-10.6908787509
 20
20.7020607967
 11
10.6908494835
 21
20.7020607967
  0
LINE
  5
35D
100
AcDbEntity
  8
RACCORDO
100
AcDbLine
 62
253
  6
CONTINUOUS
 10
-10.6908480399
 20
21.2281660715
 11
10.6908480399
 21
21.2281660715
  0
LINE
  5
35E
100
AcDbEntity
  8
ASSI
100
AcDbLine
 62
253
  6
CONTINUOUS
 10
-10.6908480399
 20
21.2281660715
 11
10.6908480399
 21
21.2281660715
  0
LINE
  5
35F
100
AcDbEntity
  8
RACCORDO
100
AcDbLine
 62
253
  6
CONTINUOUS
 10
11.7624982912
 20
20.6652818903
 11
44.3640433598
 21
20.6651988843
  0
LINE
  5
360
100
AcDbEntity
  8
ASSI
100
AcDbLine
 62
253
  6
CONTINUOUS
 10
11.7624982912
 20
20.6652818903
 11
44.3640433598
 21
20.6651988843
  0
LWPOLYLINE
  5
361
100
AcDbEntity
  8
RACCORDO
100
AcDbPolyline
 62
253
  6
CONTINUOUS
 90
18
 70
0
 10
-11.9925103428
 20
19.927570049
 10
-11.9085556227
 20
19.9272259671
 10
-11.8673250595
 20
19.9267975015
 10
-11.8269847222
 20
19.926201745
 10
-11.7878214895
 20
19.9254429344
 10
-11.7501138691
 20
19.9245264659
 10
-11.7141300174
 20
19.9234588569
 10
-11.680125832
 20
19.9222476997
 10
-11.6483431323
 20
19.9209016073
 10
-11.6190079398
 20
19.9194301526
 10
-11.5923288706
 20
19.9178437996
 10
-11.5684956517
 20
19.9161538296
 10
-11.5476777722
 20
19.9143722609
 10
-11.5300232776
 20
19.912511763
 10
-11.5156577171
 20
19.9105855666
 10
-11.5046832509
 20
19.9086073699
 10
-11.4971779234
 20
19.9065912408
 10
-11.4931951085
 20
19.9045515169
  0
LWPOLYLINE
  5
362
100
AcDbEntity
  8
ASSI
100
AcDbPolyline
 62
253
  6
CONTINUOUS
 90
18
 70
0
 10
-11.9925103428
 20
19.927570049
 10
-11.9085556227
 20
19.9272259671
 10
-11.8673250595
 20
19.9267975015
 10
-11.8269847222
 20
19.926201745
 10
-11.7878214895
 20
19.9254429344
 10
-11.7501138691
 20
19.9245264659
 10
-11.7141300174
 20
19.9234588569
 10
-11.680125832
 20
19.9222476997
 10
-11.6483431323
 20
19.9209016073
 10
-11.6190079398
 20
19.9194301526
 10
-11.5923288706
 20
19.9178437996
 10
-11.5684956517
 20
19.9161538296
 10
-11.5476777722
 20
19.9143722609
 10
-11.5300232776
 20
19.912511763
 10
-11.5156577171
 20
19.9105855666
 10
-11.5046832509
 20
19.9086073699
 10
-11.4971779234
 20
19.9065912408
 10
-11.4931951085
 20
19.9045515169
  0
LWPOLYLINE
  5
363
100
AcDbEntity
  8
RACCORDO
100
AcDbPolyline
 62
253
  6
CONTINUOUS
 90
18
 70
0
 10
44.3228877784
 20
20.5625100625
 10
44.4049273634
 20
20.5621728524
 10
44.4452505828
 20
20.5617522509
 10
44.4847432118
 20
20.5611670796
 10
44.5231371771
 20
20.5604213108
 10
44.560171863
 20
20.5595200065
 10
44.5955958806
 20
20.5584692848
 10
44.6291687741
 20
20.5572762778
 10
44.6606626529
 20
20.5559490838
 10
44.6898637388
 20
20.5544967115
 10
44.7165738167
 20
20.5529290196
 10
44.7406115804
 20
20.5512566494
 10
44.7618138632
 20
20.5494909529
 10
44.7800367455
 20
20.5476439155
 10
44.7951565315
 20
20.5457280748
 10
44.8070705893
 20
20.5437564353
 10
44.8156980469
 20
20.5417423805
 10
44.8209803417
 20
20.5396995816
  0
LWPOLYLINE
  5
364
100
AcDbEntity
  8
ASSI
100
AcDbPolyline
 62
253
  6
CONTINUOUS
 90
18
 70
0
 10
44.3228877784
 20
20.5625100625
 10
44.4049273634
 20
20.5621728524
 10
44.4452505828
 20
20.5617522509
 10
44.4847432118
 20
20.5611670796
 10
44.5231371771
 20
20.5604213108
 10
44.560171863
 20
20.5595200065
 10
44.5955958806
 20
20.5584692848
 10
44.6291687741
 20
20.5572762778
 10
44.6606626529
 20
20.5559490838
 10
44.6898637388
 20
20.5544967115
 10
44.7165738167
 20
20.5529290196
 10
44.7406115804
 20
20.5512566494
 10
44.7618138632
 20
20.5494909529
 10
44.7800367455
 20
20.5476439155
 10
44.7951565315
 20
20.5457280748
 10
44.8070705893
 20
20.5437564353
 10
44.8156980469
 20
20.5417423805
 10
44.8209803417
 20
20.5396995816
  0
LWPOLYLINE
  5
365
100
AcDbEntity
  8
RACCORDO
100
AcDbPolyline
 62
253
  6
CONTINUOUS
 90
17
 70
0
 10
44.3640433598
 20
20.6651988843
 10
44.4452465316
 20
20.6645248166
 10
44.4847390936
 20
20.6639383295
 10
44.5231329979
 20
20.6631904742
 10
44.5601676303
 20
20.662286327
 10
44.5955916031
 20
20.6612320252
 10
44.6291644616
 20
20.6600347252
 10
44.6606583166
 20
20.6587025544
 10
44.6898593904
 20
20.6572445552
 10
44.7165694691
 20
20.6556706245
 10
44.7406072471
 20
20.653991446
 10
44.7618095581
 20
20.6522184177
 10
44.7800324828
 20
20.6503635749
 10
44.7951523258
 20
20.6484395079
 10
44.8070664549
 20
20.6464592773
 10
44.8156939981
 20
20.6444363247
 10
44.8209763925
 20
20.6423843816
  0
LWPOLYLINE
  5
366
100
AcDbEntity
  8
ASSI
100
AcDbPolyline
 62
253
  6
CONTINUOUS
 90
17
 70
0
 10
44.3640433598
 20
20.6651988843
 10
44.4452465316
 20
20.6645248166
 10
44.4847390936
 20
20.6639383295
 10
44.5231329979
 20
20.6631904742
 10
44.5601676303
 20
20.662286327
 10
44.5955916031
 20
20.6612320252
 10
44.6291644616
 20
20.6600347252
 10
44.6606583166
 20
20.6587025544
 10
44.6898593904
 20
20.6572445552
 10
44.7165694691
 20
20.6556706245
 10
44.7406072471
 20
20.653991446
 10
44.7618095581
 20
20.6522184177
 10
44.7800324828
 20
20.6503635749
 10
44.7951523258
 20
20.6484395079
 10
44.8070664549
 20
20.6464592773
 10
44.8156939981
 20
20.6444363247
 10
44.8209763925
 20
20.6423843816
  0
LWPOLYLINE
  5
367
100
AcDbEntity
  8
RACCORDO
100
AcDbPolyline
 62
253
  6
CONTINUOUS
 90
19
 70
0
 10
10.690849486
 20
20.7020607991
 10
10.7332878464
 20
20.7010164082
 10
10.7757125278
 20
20.697727212
 10
10.8180033974
 20
20.6921861809
 10
10.8600106947
 20
20.6843995651
 10
10.901641662
 20
20.6743696461
 10
10.9428571489
 20
20.6620794509
 10
10.983622149
 20
20.6474991321
 10
11.023712137
 20
20.6306677575
 10
11.0628116775
 20
20.6116996592
 10
11.1007631497
 20
20.5906785781
 10
11.1375030934
 20
20.5676473457
 10
11.1728801145
 20
20.5427061627
 10
11.2067799413
 20
20.5159514057
 10
11.2391298157
 20
20.4874571844
 10
11.2698512899
 20
20.4573031239
 10
11.2988641502
 20
20.425578872
 10
11.3260882474
 20
20.3923856259
 10
11.3514518953
 20
20.3578246143
  0
LWPOLYLINE
  5
368
100
AcDbEntity
  8
ASSI
100
AcDbPolyline
 62
253
  6
CONTINUOUS
 90
19
 70
0
 10
10.690849486
 20
20.7020607991
 10
10.7332878464
 20
20.7010164082
 10
10.7757125278
 20
20.697727212
 10
10.8180033974
 20
20.6921861809
 10
10.8600106947
 20
20.6843995651
 10
10.901641662
 20
20.6743696461
 10
10.9428571489
 20
20.6620794509
 10
10.983622149
 20
20.6474991321
 10
11.023712137
 20
20.6306677575
 10
11.0628116775
 20
20.6116996592
 10
11.1007631497
 20
20.5906785781
 10
11.1375030934
 20
20.5676473457
 10
11.1728801145
 20
20.5427061627
 10
11.2067799413
 20
20.5159514057
 10
11.2391298157
 20
20.4874571844
 10
11.2698512899
 20
20.4573031239
 10
11.2988641502
 20
20.425578872
 10
11.3260882474
 20
20.3923856259
 10
11.3514518953
 20
20.3578246143
  0
LWPOLYLINE
  5
369
100
AcDbEntity
  8
RACCORDO
100
AcDbPolyline
 62
253
  6
CONTINUOUS
 90
19
 70
0
 10
10.6908480399
 20
21.2281660715
 10
10.7598040528
 20
21.2263757349
 10
10.8284118268
 20
21.2209167577
 10
10.8966713618
 20
21.2117891208
 10
10.9647580561
 20
21.1989961686
 10
11.0324965114
 20
21.1825344798
 10
11.0993605328
 20
21.1623938674
 10
11.1654745828
 20
21.1384725368
 10
11.2307141988
 20
21.1108721278
 10
11.2941797989
 20
21.0798875926
 10
11.3557723669
 20
21.045478639
 10
11.4155909191
 20
21.0076853523
 10
11.4730329214
 20
20.9669232592
 10
11.5280484195
 20
20.9231659443
 10
11.5806873679
 20
20.8764395941
 10
11.6304970962
 20
20.827238663
 10
11.6773267145
 20
20.7757279056
 10
11.7213271128
 20
20.7217423532
 10
11.7624982912
 20
20.6652818903
  0
LWPOLYLINE
  5
36A
100
AcDbEntity
  8
ASSI
100
AcDbPolyline
 62
253
  6
CONTINUOUS
 90
19
 70
0
 10
10.6908480399
 20
21.2281660715
 10
10.7598040528
 20
21.2263757349
 10
10.8284118268
 20
21.2209167577
 10
10.8966713618
 20
21.2117891208
 10
10.9647580561
 20
21.1989961686
 10
11.0324965114
 20
21.1825344798
 10
11.0993605328
 20
21.1623938674
 10
11.1654745828
 20
21.1384725368
 10
11.2307141988
 20
21.1108721278
 10
11.2941797989
 20
21.0798875926
 10
11.3557723669
 20
21.045478639
 10
11.4155909191
 20
21.0076853523
 10
11.4730329214
 20
20.9669232592
 10
11.5280484195
 20
20.9231659443
 10
11.5806873679
 20
20.8764395941
 10
11.6304970962
 20
20.827238663
 10
11.6773267145
 20
20.7757279056
 10
11.7213271128
 20
20.7217423532
 10
11.7624982912
 20
20.6652818903
  0
LWPOLYLINE
  5
36B
100
AcDbEntity
  8
RACCORDO
100
AcDbPolyline
 62
7
  6
CONTINUOUS
 90
7
 70
0
 10
10.8991845818
 20
20.5522578125
 10
10.8504888917
 20
20.5700135007
 10
10.8012604818
 20
20.584547434
 10
10.7514993521
 20
20.5958596553
 10
10.7012055026
 20
20.6039501976
 10
10.6503789333
 20
20.608819085
 10
10.5990196442
 20
20.6104663317
  0
LWPOLYLINE
  5
36C
100
AcDbEntity
  8
ASSI
100
AcDbPolyline
 62
7
  6
CONTINUOUS
 90
7
 70
0
 10
10.8991845818
 20
20.5522578125
 10
10.8504888917
 20
20.5700135007
 10
10.8012604818
 20
20.584547434
 10
10.7514993521
 20
20.5958596553
 10
10.7012055026
 20
20.6039501976
 10
10.6503789333
 20
20.608819085
 10
10.5990196442
 20
20.6104663317
  0
LWPOLYLINE
  5
36D
100
AcDbEntity
  8
RACCORDO
100
AcDbPolyline
 62
253
  6
CONTINUOUS
 90
13
 70
0
 10
11.3514518953
 20
20.3578246143
 10
11.3734041643
 20
20.3243969727
 10
11.3937330396
 20
20.2897580659
 10
11.4123642588
 20
20.253982125
 10
11.4292610669
 20
20.2170682699
 10
11.4443130283
 20
20.179176849
 10
11.457377609
 20
20.1406455333
 10
11.468431424
 20
20.1015834549
 10
11.4774604728
 20
20.0620900933
 10
11.4844178137
 20
20.0225118693
 10
11.4893265675
 20
19.9830385315
 10
11.4922392605
 20
19.9436938723
 10
11.4931972008
 20
19.9045772705
  0
LWPOLYLINE
  5
36E
100
AcDbEntity
  8
ASSI
100
AcDbPolyline
 62
253
  6
CONTINUOUS
 90
13
 70
0
 10
11.3514518953
 20
20.3578246143
 10
11.3734041643
 20
20.3243969727
 10
11.3937330396
 20
20.2897580659
 10
11.4123642588
 20
20.253982125
 10
11.4292610669
 20
20.2170682699
 10
11.4443130283
 20
20.179176849
 10
11.457377609
 20
20.1406455333
 10
11.468431424
 20
20.1015834549
 10
11.4774604728
 20
20.0620900933
 10
11.4844178137
 20
20.0225118693
 10
11.4893265675
 20
19.9830385315
 10
11.4922392605
 20
19.9436938723
 10
11.4931972008
 20
19.9045772705
  0
LWPOLYLINE
  5
36F
100
AcDbEntity
  8
RACCORDO
100
AcDbPolyline
 62
253
  6
CONTINUOUS
 90
13
 70
0
 10
11.7624982912
 20
20.6652818903
 10
11.798233074
 20
20.6107699486
 10
11.8311266697
 20
20.5545060232
 10
11.8611790783
 20
20.4964900818
 10
11.8885235817
 20
20.4364265744
 10
11.9130268979
 20
20.3746109803
 10
11.9342891814
 20
20.3119298284
 10
11.9521953418
 20
20.2483774613
 10
11.9668604695
 20
20.1839595026
 10
11.9782299908
 20
20.1195794394
 10
11.9862857145
 20
20.0555384438
 10
11.9910458319
 20
19.9915353521
 10
11.9925103428
 20
19.9275701663
  0
LWPOLYLINE
  5
370
100
AcDbEntity
  8
ASSI
100
AcDbPolyline
 62
253
  6
CONTINUOUS
 90
13
 70
0
 10
11.7624982912
 20
20.6652818903
 10
11.798233074
 20
20.6107699486
 10
11.8311266697
 20
20.5545060232
 10
11.8611790783
 20
20.4964900818
 10
11.8885235817
 20
20.4364265744
 10
11.9130268979
 20
20.3746109803
 10
11.9342891814
 20
20.3119298284
 10
11.9521953418
 20
20.2483774613
 10
11.9668604695
 20
20.1839595026
 10
11.9782299908
 20
20.1195794394
 10
11.9862857145
 20
20.0555384438
 10
11.9910458319
 20
19.9915353521
 10
11.9925103428
 20
19.9275701663
  0
LWPOLYLINE
  5
371
100
AcDbEntity
  8
RACCORDO
100
AcDbPolyline
 62
7
  6
CONTINUOUS
 90
19
 70
0
 10
10.8991845818
 20
-24.4313251491
 10
10.9472290726
 20
-24.4101633516
 10
10.99359569
 20
-24.3859553144
 10
11.0382844339
 20
-24.3587010127
 10
11.081564618
 20
-24.3282169776
 10
11.1231669286
 20
-24.2946866178
 10
11.1622834253
 20
-24.2586602267
 10
11.1988179123
 20
-24.2200800184
 10
11.2328665854
 20
-24.1790037163
 10
11.2639100908
 20
-24.1361548907
 10
11.2918281965
 20
-24.0916518962
 10
11.3167411346
 20
-24.0453763286
 10
11.3384902473
 20
-23.9976966342
 10
11.3571051392
 20
-23.9484467251
 10
11.3725562057
 20
-23.8977926436
 10
11.3845959748
 20
-23.8466010511
 10
11.3931419559
 20
-23.7951608355
 10
11.3982766397
 20
-23.7431830954
 10
11.4000000262
 20
-23.6906678223
  0
LWPOLYLINE
  5
372
100
AcDbEntity
  8
ASSI
100
AcDbPolyline
 62
7
  6
CONTINUOUS
 90
19
 70
0
 10
10.8991845818
 20
-24.4313251491
 10
10.9472290726
 20
-24.4101633516
 10
10.99359569
 20
-24.3859553144
 10
11.0382844339
 20
-24.3587010127
 10
11.081564618
 20
-24.3282169776
 10
11.1231669286
 20
-24.2946866178
 10
11.1622834253
 20
-24.2586602267
 10
11.1988179123
 20
-24.2200800184
 10
11.2328665854
 20
-24.1790037163
 10
11.2639100908
 20
-24.1361548907
 10
11.2918281965
 20
-24.0916518962
 10
11.3167411346
 20
-24.0453763286
 10
11.3384902473
 20
-23.9976966342
 10
11.3571051392
 20
-23.9484467251
 10
11.3725562057
 20
-23.8977926436
 10
11.3845959748
 20
-23.8466010511
 10
11.3931419559
 20
-23.7951608355
 10
11.3982766397
 20
-23.7431830954
 10
11.4000000262
 20
-23.6906678223
  0
LWPOLYLINE
  5
373
100
AcDbEntity
  8
RACCORDO
100
AcDbPolyline
 62
253
  6
CONTINUOUS
 90
28
 70
0
 10
44.818245447
 20
41.8791786806
 10
44.815905722
 20
41.9372862261
 10
44.8102476021
 20
41.9950691582
 10
44.8013025237
 20
42.0523387039
 10
44.7891196327
 20
42.1088898971
 10
44.7737468608
 20
42.1645593443
 10
44.7552189791
 20
42.2192225012
 10
44.7335838652
 20
42.2727336636
 10
44.7089252591
 20
42.3248832629
 10
44.6813432336
 20
42.3754569557
 10
44.6509462418
 20
42.4242775726
 10
44.6178340669
 20
42.4712060994
 10
44.5821125204
 20
42.5160970529
 10
44.5439034982
 20
42.5588081281
 10
44.5033384642
 20
42.5992035949
 10
44.460546981
 20
42.6371571944
 10
44.4156744391
 20
42.6725471151
 10
44.3688697406
 20
42.7052637742
 10
44.3202751342
 20
42.7352092779
 10
44.2700463939
 20
42.762289775
 10
44.2183532308
 20
42.7864168505
 10
44.1653650333
 20
42.807512869
 10
44.111263434
 20
42.8255082503
 10
44.056218048
 20
42.8403500464
 10
44.0003841697
 20
42.8519964969
 10
43.9439349479
 20
42.8604083009
 10
43.8870620146
 20
42.8655533882
 10
43.8299503769
 20
42.8674122354
  0
LWPOLYLINE
  5
374
100
AcDbEntity
  8
ASSI
100
AcDbPolyline
 62
253
  6
CONTINUOUS
 90
28
 70
0
 10
44.818245447
 20
41.8791786806
 10
44.815905722
 20
41.9372862261
 10
44.8102476021
 20
41.9950691582
 10
44.8013025237
 20
42.0523387039
 10
44.7891196327
 20
42.1088898971
 10
44.7737468608
 20
42.1645593443
 10
44.7552189791
 20
42.2192225012
 10
44.7335838652
 20
42.2727336636
 10
44.7089252591
 20
42.3248832629
 10
44.6813432336
 20
42.3754569557
 10
44.6509462418
 20
42.4242775726
 10
44.6178340669
 20
42.4712060994
 10
44.5821125204
 20
42.5160970529
 10
44.5439034982
 20
42.5588081281
 10
44.5033384642
 20
42.5992035949
 10
44.460546981
 20
42.6371571944
 10
44.4156744391
 20
42.6725471151
 10
44.3688697406
 20
42.7052637742
 10
44.3202751342
 20
42.7352092779
 10
44.2700463939
 20
42.762289775
 10
44.2183532308
 20
42.7864168505
 10
44.1653650333
 20
42.807512869
 10
44.111263434
 20
42.8255082503
 10
44.056218048
 20
42.8403500464
 10
44.0003841697
 20
42.8519964969
 10
43.9439349479
 20
42.8604083009
 10
43.8870620146
 20
42.8655533882
 10
43.8299503769
 20
42.8674122354
  0
LWPOLYLINE
  5
375
100
AcDbEntity
  8
RACCORDO
100
AcDbPolyline
 62
253
  6
CONTINUOUS
 90
28
 70
0
 10
44.3202107575
 20
41.9596951656
 10
44.319349712
 20
41.9892426529
 10
44.3168584578
 20
42.0184551725
 10
44.3127369949
 20
42.0473327554
 10
44.3069611048
 20
42.0759656484
 10
44.2995550059
 20
42.1042636601
 10
44.2905913541
 20
42.1319561879
 10
44.2800507835
 20
42.1590455784
 10
44.2679526599
 20
42.185529592
 10
44.2544277356
 20
42.2111307944
 10
44.2394647476
 20
42.2358318046
 10
44.223074959
 20
42.2596501492
 10
44.2054229113
 20
42.2823607935
 10
44.1864965558
 20
42.3039539346
 10
44.1663079412
 20
42.3244395368
 10
44.1450577555
 20
42.3436222405
 10
44.122736063
 20
42.361489391
 10
44.0993527993
 20
42.3780538025
 10
44.0751384586
 20
42.3931583328
 10
44.0500853964
 20
42.406788624
 10
44.0242012572
 20
42.418959173
 10
43.9977394695
 20
42.4295561226
 10
43.9706880133
 20
42.4385644913
 10
43.9430589086
 20
42.445999363
 10
43.9151416438
 20
42.4517919724
 10
43.887032715
 20
42.4559194163
 10
43.858635626
 20
42.4584046521
 10
43.8299503769
 20
42.4592476934
  0
LWPOLYLINE
  5
376
100
AcDbEntity
  8
ASSI
100
AcDbPolyline
 62
253
  6
CONTINUOUS
 90
28
 70
0
 10
44.3202107575
 20
41.9596951656
 10
44.319349712
 20
41.9892426529
 10
44.3168584578
 20
42.0184551725
 10
44.3127369949
 20
42.0473327554
 10
44.3069611048
 20
42.0759656484
 10
44.2995550059
 20
42.1042636601
 10
44.2905913541
 20
42.1319561879
 10
44.2800507835
 20
42.1590455784
 10
44.2679526599
 20
42.185529592
 10
44.2544277356
 20
42.2111307944
 10
44.2394647476
 20
42.2358318046
 10
44.223074959
 20
42.2596501492
 10
44.2054229113
 20
42.2823607935
 10
44.1864965558
 20
42.3039539346
 10
44.1663079412
 20
42.3244395368
 10
44.1450577555
 20
42.3436222405
 10
44.122736063
 20
42.361489391
 10
44.0993527993
 20
42.3780538025
 10
44.0751384586
 20
42.3931583328
 10
44.0500853964
 20
42.406788624
 10
44.0242012572
 20
42.418959173
 10
43.9977394695
 20
42.4295561226
 10
43.9706880133
 20
42.4385644913
 10
43.9430589086
 20
42.445999363
 10
43.9151416438
 20
42.4517919724
 10
43.887032715
 20
42.4559194163
 10
43.858635626
 20
42.4584046521
 10
43.8299503769
 20
42.4592476934
  0
LINE
  5
377
100
AcDbEntity
  8
RACCORDO
100
AcDbLine
 62
253
  6
CONTINUOUS
 10
43.8299503769
 20
-46.33831503
 11
43.8299503772
 21
-46.746479572
  0
LINE
  5
378
100
AcDbEntity
  8
ASSI
100
AcDbLine
 62
253
  6
CONTINUOUS
 10
43.8299503769
 20
-46.33831503
 11
43.8299503772
 21
-46.746479572
  0
LINE
  5
379
100
AcDbEntity
  8
RACCORDO
100
AcDbLine
 62
253
  6
CONTINUOUS
 10
43.8299503769
 20
42.4592476934
 11
43.8299503769
 21
42.8674122354
  0
LINE
  5
37A
100
AcDbEntity
  8
ASSI
100
AcDbLine
 62
253
  6
CONTINUOUS
 10
43.8299503769
 20
42.4592476934
 11
43.8299503769
 21
42.8674122354
  0
LINE
  5
37B
100
AcDbEntity
  8
RACCORDO
100
AcDbLine
 62
253
  6
CONTINUOUS
 10
44.3220606639
 20
30.167095144
 11
44.3202107575
 21
41.9596951656
  0
LINE
  5
37C
100
AcDbEntity
  8
ASSI
100
AcDbLine
 62
253
  6
CONTINUOUS
 10
44.3220606639
 20
30.167095144
 11
44.3202107575
 21
41.9596951656
  0
LINE
  5
37D
100
AcDbEntity
  8
RACCORDO
100
AcDbLine
 62
253
  6
CONTINUOUS
 10
44.8201339825
 20
30.1184523338
 11
44.8182454469
 21
41.8791786805
  0
LINE
  5
37E
100
AcDbEntity
  8
ASSI
100
AcDbLine
 62
253
  6
CONTINUOUS
 10
44.8201339825
 20
30.1184523338
 11
44.8182454469
 21
41.8791786805
  0
LINE
  5
37F
100
AcDbEntity
  8
RACCORDO
100
AcDbLine
 62
7
  6
CONTINUOUS
 10
44.9999996065
 20
42.0639874326
 11
45.0
 21
20.5396995816
  0
LINE
  5
380
100
AcDbEntity
  8
DRAFT
100
AcDbLine
 62
7
  6
CONTINUOUS
 10
45.0
 20
20.5396995816
 11
45.0
 21
-24.4187669182
  0
LINE
  5
381
100
AcDbEntity
  8
RACCORDO
100
AcDbLine
 62
7
  6
CONTINUOUS
 10
45.0
 20
-24.4187669182
 11
44.9999996065
 21
-45.9430547692
  0
LINE
  5
382
100
AcDbEntity
  8
ASSI
100
AcDbLine
 62
7
  6
CONTINUOUS
 10
44.9999996065
 20
42.0639874326
 11
44.9999996065
 21
-45.9430547692
  0
LINE
  5
383
100
AcDbEntity
  8
RACCORDO
100
AcDbLine
 62
253
  6
CONTINUOUS
 10
44.3202107575
 20
-45.8387625022
 11
44.3220606639
 21
30.167095144
  0
LINE
  5
384
100
AcDbEntity
  8
ASSI
100
AcDbLine
 62
253
  6
CONTINUOUS
 10
44.3202107575
 20
-45.8387625022
 11
44.3220606639
 21
30.167095144
  0
LINE
  5
385
100
AcDbEntity
  8
RACCORDO
100
AcDbLine
 62
253
  6
CONTINUOUS
 10
44.8182454469
 20
-45.7582460175
 11
44.8201339825
 21
30.1184523338
  0
LINE
  5
386
100
AcDbEntity
  8
ASSI
100
AcDbLine
 62
253
  6
CONTINUOUS
 10
44.8182454469
 20
-45.7582460175
 11
44.8201339825
 21
30.1184523338
  0
LWPOLYLINE
  5
387
100
AcDbEntity
  8
RACCORDO
100
AcDbPolyline
 62
7
  6
CONTINUOUS
 90
28
 70
0
 10
44.9999996065
 20
-45.9430547692
 10
44.9982512767
 20
-46.0027685468
 10
44.993147257
 20
-46.0618151892
 10
44.9846875473
 20
-46.1201948212
 10
44.9727803597
 20
-46.1781763931
 10
44.9575174821
 20
-46.2354911662
 10
44.9391742792
 20
-46.2913328878
 10
44.9177675706
 20
-46.3455373977
 10
44.8932805366
 20
-46.3982694164
 10
44.8659380835
 20
-46.4492162151
 10
44.8357239893
 20
-46.4984070073
 10
44.802654476
 20
-46.5458131797
 10
44.7670031149
 20
-46.5910353699
 10
44.7286331998
 20
-46.6341394678
 10
44.687681437
 20
-46.6750602353
 10
44.6448315177
 20
-46.7132017442
 10
44.6002000895
 20
-46.7484043858
 10
44.5536705048
 20
-46.7808284848
 10
44.5055765112
 20
-46.8103580712
 10
44.4559094922
 20
-46.8370096735
 10
44.4046780645
 20
-46.8607673258
 10
44.3522418255
 20
-46.8814663011
 10
44.2984659543
 20
-46.8991101467
 10
44.2434852718
 20
-46.9136957235
 10
44.188063839
 20
-46.9250482477
 10
44.1324563429
 20
-46.9331095352
 10
44.0764080964
 20
-46.9379379905
 10
44.0199190996
 20
-46.9395336683
  0
LWPOLYLINE
  5
388
100
AcDbEntity
  8
ASSI
100
AcDbPolyline
 62
7
  6
CONTINUOUS
 90
28
 70
0
 10
44.9999996065
 20
-45.9430547692
 10
44.9982512767
 20
-46.0027685468
 10
44.993147257
 20
-46.0618151892
 10
44.9846875473
 20
-46.1201948212
 10
44.9727803597
 20
-46.1781763931
 10
44.9575174821
 20
-46.2354911662
 10
44.9391742792
 20
-46.2913328878
 10
44.9177675706
 20
-46.3455373977
 10
44.8932805366
 20
-46.3982694164
 10
44.8659380835
 20
-46.4492162151
 10
44.8357239893
 20
-46.4984070073
 10
44.802654476
 20
-46.5458131797
 10
44.7670031149
 20
-46.5910353699
 10
44.7286331998
 20
-46.6341394678
 10
44.687681437
 20
-46.6750602353
 10
44.6448315177
 20
-46.7132017442
 10
44.6002000895
 20
-46.7484043858
 10
44.5536705048
 20
-46.7808284848
 10
44.5055765112
 20
-46.8103580712
 10
44.4559094922
 20
-46.8370096735
 10
44.4046780645
 20
-46.8607673258
 10
44.3522418255
 20
-46.8814663011
 10
44.2984659543
 20
-46.8991101467
 10
44.2434852718
 20
-46.9136957235
 10
44.188063839
 20
-46.9250482477
 10
44.1324563429
 20
-46.9331095352
 10
44.0764080964
 20
-46.9379379905
 10
44.0199190996
 20
-46.9395336683
  0
LWPOLYLINE
  5
389
100
AcDbEntity
  8
RACCORDO
100
AcDbPolyline
 62
253
  6
CONTINUOUS
 90
28
 70
0
 10
-43.8299503769
 20
42.8674122354
 10
-43.8870550041
 20
42.8655537408
 10
-43.9438986983
 20
42.860412567
 10
-44.0002970679
 20
42.8520120362
 10
-44.0560405076
 20
42.8403924823
 10
-44.1109769237
 20
42.8255943859
 10
-44.1650082691
 20
42.8076428361
 10
-44.2179940208
 20
42.7865716659
 10
-44.2697188624
 20
42.7624540559
 10
-44.3199757754
 20
42.7353819013
 10
-44.3685829912
 20
42.7054521156
 10
-44.4153979864
 20
42.6727526186
 10
-44.4602814561
 20
42.6373795993
 10
-44.5030852283
 20
42.5994419851
 10
-44.5436631566
 20
42.5590621595
 10
-44.581886011
 20
42.5163659737
 10
-44.6176229207
 20
42.4714882099
 10
-44.6507512097
 20
42.4245719259
 10
-44.6811636532
 20
42.3757649632
 10
-44.7087546246
 20
42.325218762
 10
-44.733423648
 20
42.2730990639
 10
-44.7550844781
 20
42.2195841521
 10
-44.7736570833
 20
42.1648506716
 10
-44.7890746325
 20
42.1090724642
 10
-44.8012854486
 20
42.0524304497
 10
-44.8102425797
 20
41.9951088987
 10
-44.8159051462
 20
41.9372951538
 10
-44.818245447
 20
41.8791786811
  0
LWPOLYLINE
  5
38A
100
AcDbEntity
  8
ASSI
100
AcDbPolyline
 62
253
  6
CONTINUOUS
 90
28
 70
0
 10
-43.8299503769
 20
42.8674122354
 10
-43.8870550041
 20
42.8655537408
 10
-43.9438986983
 20
42.860412567
 10
-44.0002970679
 20
42.8520120362
 10
-44.0560405076
 20
42.8403924823
 10
-44.1109769237
 20
42.8255943859
 10
-44.1650082691
 20
42.8076428361
 10
-44.2179940208
 20
42.7865716659
 10
-44.2697188624
 20
42.7624540559
 10
-44.3199757754
 20
42.7353819013
 10
-44.3685829912
 20
42.7054521156
 10
-44.4153979864
 20
42.6727526186
 10
-44.4602814561
 20
42.6373795993
 10
-44.5030852283
 20
42.5994419851
 10
-44.5436631566
 20
42.5590621595
 10
-44.581886011
 20
42.5163659737
 10
-44.6176229207
 20
42.4714882099
 10
-44.6507512097
 20
42.4245719259
 10
-44.6811636532
 20
42.3757649632
 10
-44.7087546246
 20
42.325218762
 10
-44.733423648
 20
42.2730990639
 10
-44.7550844781
 20
42.2195841521
 10
-44.7736570833
 20
42.1648506716
 10
-44.7890746325
 20
42.1090724642
 10
-44.8012854486
 20
42.0524304497
 10
-44.8102425797
 20
41.9951088987
 10
-44.8159051462
 20
41.9372951538
 10
-44.818245447
 20
41.8791786811
  0
LWPOLYLINE
  5
38B
100
AcDbEntity
  8
RACCORDO
100
AcDbPolyline
 62
253
  6
CONTINUOUS
 90
28
 70
0
 10
-43.8299503769
 20
42.4592476934
 10
-43.8586610063
 20
42.4583971075
 10
-43.8870638825
 20
42.4559107141
 10
-43.9151590055
 20
42.4517884996
 10
-43.943030704
 20
42.4460103397
 10
-43.9705946493
 20
42.4385963048
 10
-43.9975978548
 20
42.4296066621
 10
-44.0240465589
 20
42.419022008
 10
-44.0499345231
 20
42.4068616436
 10
-44.0749900458
 20
42.3932438864
 10
-44.0991973008
 20
42.378157422
 10
-44.1225721142
 20
42.3616134264
 10
-44.1448902624
 20
42.3437639548
 10
-44.1661444749
 20
42.3245953153
 10
-44.1863420223
 20
42.3041210401
 10
-44.2052804927
 20
42.282534034
 10
-44.2229489705
 20
42.2598215046
 10
-44.2393583714
 20
42.2359960819
 10
-44.2543390304
 20
42.21128883
 10
-44.2678766544
 20
42.1856901726
 10
-44.2799855366
 20
42.1592095407
 10
-44.2905388909
 20
42.1321065463
 10
-44.299521441
 20
42.1043654991
 10
-44.3069484633
 20
42.0760019783
 10
-44.3127390017
 20
42.0473225482
 10
-44.3168660708
 20
42.0184293907
 10
-44.3193566561
 20
41.9892202729
 10
-44.3202107575
 20
41.9596951656
  0
LWPOLYLINE
  5
38C
100
AcDbEntity
  8
ASSI
100
AcDbPolyline
 62
253
  6
CONTINUOUS
 90
28
 70
0
 10
-43.8299503769
 20
42.4592476934
 10
-43.8586610063
 20
42.4583971075
 10
-43.8870638825
 20
42.4559107141
 10
-43.9151590055
 20
42.4517884996
 10
-43.943030704
 20
42.4460103397
 10
-43.9705946493
 20
42.4385963048
 10
-43.9975978548
 20
42.4296066621
 10
-44.0240465589
 20
42.419022008
 10
-44.0499345231
 20
42.4068616436
 10
-44.0749900458
 20
42.3932438864
 10
-44.0991973008
 20
42.378157422
 10
-44.1225721142
 20
42.3616134264
 10
-44.1448902624
 20
42.3437639548
 10
-44.1661444749
 20
42.3245953153
 10
-44.1863420223
 20
42.3041210401
 10
-44.2052804927
 20
42.282534034
 10
-44.2229489705
 20
42.2598215046
 10
-44.2393583714
 20
42.2359960819
 10
-44.2543390304
 20
42.21128883
 10
-44.2678766544
 20
42.1856901726
 10
-44.2799855366
 20
42.1592095407
 10
-44.2905388909
 20
42.1321065463
 10
-44.299521441
 20
42.1043654991
 10
-44.3069484633
 20
42.0760019783
 10
-44.3127390017
 20
42.0473225482
 10
-44.3168660708
 20
42.0184293907
 10
-44.3193566561
 20
41.9892202729
 10
-44.3202107575
 20
41.9596951656
  0
LWPOLYLINE
  5
38D
100
AcDbEntity
  8
RACCORDO
100
AcDbPolyline
 62
253
  6
CONTINUOUS
 90
19
 70
0
 10
-44.3202107575
 20
41.9596951521
 10
-44.3613337994
 20
41.9594034516
 10
-44.4021781958
 20
41.9585144193
 10
-44.4424671894
 20
41.9570340789
 10
-44.481927786
 20
41.9549724612
 10
-44.5202926047
 20
41.9523435354
 10
-44.5573016896
 20
41.949165115
 10
-44.5927042707
 20
41.9454587364
 10
-44.6262604639
 20
41.9412495139
 10
-44.657742896
 20
41.9365659686
 10
-44.6869382451
 20
41.9314398357
 10
-44.7136486867
 20
41.9259058495
 10
-44.7376932335
 20
41.9200015075
 10
-44.7589089621
 20
41.9137668171
 10
-44.777152117
 20
41.9072440239
 10
-44.7922990845
 20
41.9004773256
 10
-44.8042472302
 20
41.8935125726
 10
-44.8129155947
 20
41.8863969575
 10
-44.8182454422
 20
41.8791786948
  0
LWPOLYLINE
  5
38E
100
AcDbEntity
  8
ASSI
100
AcDbPolyline
 62
253
  6
CONTINUOUS
 90
19
 70
0
 10
-44.3202107575
 20
41.9596951521
 10
-44.3613337994
 20
41.9594034516
 10
-44.4021781958
 20
41.9585144193
 10
-44.4424671894
 20
41.9570340789
 10
-44.481927786
 20
41.9549724612
 10
-44.5202926047
 20
41.9523435354
 10
-44.5573016896
 20
41.949165115
 10
-44.5927042707
 20
41.9454587364
 10
-44.6262604639
 20
41.9412495139
 10
-44.657742896
 20
41.9365659686
 10
-44.6869382451
 20
41.9314398357
 10
-44.7136486867
 20
41.9259058495
 10
-44.7376932335
 20
41.9200015075
 10
-44.7589089621
 20
41.9137668171
 10
-44.777152117
 20
41.9072440239
 10
-44.7922990845
 20
41.9004773256
 10
-44.8042472302
 20
41.8935125726
 10
-44.8129155947
 20
41.8863969575
 10
-44.8182454422
 20
41.8791786948
  0
LINE
  5
38F
100
AcDbEntity
  8
RACCORDO
100
AcDbLine
 62
253
  6
CONTINUOUS
 10
43.8299503769
 20
42.4592476934
 11
-43.8299503769
 21
42.4592476934
  0
LINE
  5
390
100
AcDbEntity
  8
ASSI
100
AcDbLine
 62
253
  6
CONTINUOUS
 10
43.8299503769
 20
42.4592476934
 11
-43.8299503769
 21
42.4592476934
  0
LINE
  5
391
100
AcDbEntity
  8
RACCORDO
100
AcDbLine
 62
253
  6
CONTINUOUS
 10
43.8299503769
 20
42.8674122354
 11
-43.8299503769
 21
42.8674122354
  0
LINE
  5
392
100
AcDbEntity
  8
ASSI
100
AcDbLine
 62
253
  6
CONTINUOUS
 10
43.8299503769
 20
42.8674122354
 11
-43.8299503769
 21
42.8674122354
  0
LINE
  5
393
100
AcDbEntity
  8
RACCORDO
100
AcDbLine
 62
7
  6
CONTINUOUS
 10
44.0199190996
 20
43.0604663317
 11
-44.0199190996
 21
43.0604663317
  0
LINE
  5
394
100
AcDbEntity
  8
ASSI
100
AcDbLine
 62
7
  6
CONTINUOUS
 10
44.0199190996
 20
43.0604663317
 11
-44.0199190996
 21
43.0604663317
  0
LWPOLYLINE
  5
395
100
AcDbEntity
  8
RACCORDO
100
AcDbPolyline
 62
253
  6
CONTINUOUS
 90
19
 70
0
 10
44.3202107575
 20
41.9596951602
 10
44.3613334588
 20
41.959403433
 10
44.4021774929
 20
41.9585143769
 10
44.4424661075
 20
41.957034016
 10
44.4819263135
 20
41.9549723809
 10
44.5202907351
 20
41.9523434409
 10
44.5572994212
 20
41.9491650092
 10
44.5927016072
 20
41.9454586223
 10
44.6262574135
 20
41.9412493941
 10
44.6577394717
 20
41.9365658457
 10
44.6869344644
 20
41.9314397119
 10
44.7136445712
 20
41.9259057267
 10
44.7376888089
 20
41.9200013874
 10
44.7589042576
 20
41.9137667011
 10
44.7771471649
 20
41.9072439128
 10
44.7922939199
 20
41.9004772201
 10
44.8042418908
 20
41.8935124731
 10
44.8129101199
 20
41.8863968637
 10
44.8182398729
 20
41.8791786062
  0
LWPOLYLINE
  5
396
100
AcDbEntity
  8
ASSI
100
AcDbPolyline
 62
253
  6
CONTINUOUS
 90
19
 70
0
 10
44.3202107575
 20
41.9596951602
 10
44.3613334588
 20
41.959403433
 10
44.4021774929
 20
41.9585143769
 10
44.4424661075
 20
41.957034016
 10
44.4819263135
 20
41.9549723809
 10
44.5202907351
 20
41.9523434409
 10
44.5572994212
 20
41.9491650092
 10
44.5927016072
 20
41.9454586223
 10
44.6262574135
 20
41.9412493941
 10
44.6577394717
 20
41.9365658457
 10
44.6869344644
 20
41.9314397119
 10
44.7136445712
 20
41.9259057267
 10
44.7376888089
 20
41.9200013874
 10
44.7589042576
 20
41.9137667011
 10
44.7771471649
 20
41.9072439128
 10
44.7922939199
 20
41.9004772201
 10
44.8042418908
 20
41.8935124731
 10
44.8129101199
 20
41.8863968637
 10
44.8182398729
 20
41.8791786062
  0
LWPOLYLINE
  5
397
100
AcDbEntity
  8
RACCORDO
100
AcDbPolyline
 62
7
  6
CONTINUOUS
 90
28
 70
0
 10
44.0199190996
 20
43.0604663317
 10
44.0764314888
 20
43.0588643739
 10
44.1324866956
 20
43.0540347081
 10
44.1880847201
 20
43.0459772798
 10
44.2434714848
 20
43.0346352789
 10
44.2984010672
 20
43.0200652958
 10
44.3521356995
 20
43.0024373305
 10
44.4045494499
 20
42.9817547333
 10
44.4557682502
 20
42.9580137464
 10
44.5054321278
 20
42.9313736811
 10
44.5535364086
 20
42.9018466433
 10
44.6000857666
 20
42.8694199634
 10
44.6447342516
 20
42.8342157748
 10
44.6875941193
 20
42.796075382
 10
44.7285531141
 20
42.755156765
 10
44.7669285181
 20
42.7120571293
 10
44.802582628
 20
42.6668441674
 10
44.8356531472
 20
42.619449536
 10
44.865870468
 20
42.5702665128
 10
44.8932199075
 20
42.5193244718
 10
44.9177161486
 20
42.4665934377
 10
44.9391336329
 20
42.4123777688
 10
44.9574910232
 20
42.3565015613
 10
44.9727696567
 20
42.2991401525
 10
44.9846879865
 20
42.241124969
 10
44.9931521636
 20
42.1827331445
 10
44.9982560369
 20
42.1236873397
 10
44.9999996065
 20
42.0639874326
  0
LWPOLYLINE
  5
398
100
AcDbEntity
  8
ASSI
100
AcDbPolyline
 62
7
  6
CONTINUOUS
 90
28
 70
0
 10
44.0199190996
 20
43.0604663317
 10
44.0764314888
 20
43.0588643739
 10
44.1324866956
 20
43.0540347081
 10
44.1880847201
 20
43.0459772798
 10
44.2434714848
 20
43.0346352789
 10
44.2984010672
 20
43.0200652958
 10
44.3521356995
 20
43.0024373305
 10
44.4045494499
 20
42.9817547333
 10
44.4557682502
 20
42.9580137464
 10
44.5054321278
 20
42.9313736811
 10
44.5535364086
 20
42.9018466433
 10
44.6000857666
 20
42.8694199634
 10
44.6447342516
 20
42.8342157748
 10
44.6875941193
 20
42.796075382
 10
44.7285531141
 20
42.755156765
 10
44.7669285181
 20
42.7120571293
 10
44.802582628
 20
42.6668441674
 10
44.8356531472
 20
42.619449536
 10
44.865870468
 20
42.5702665128
 10
44.8932199075
 20
42.5193244718
 10
44.9177161486
 20
42.4665934377
 10
44.9391336329
 20
42.4123777688
 10
44.9574910232
 20
42.3565015613
 10
44.9727696567
 20
42.2991401525
 10
44.9846879865
 20
42.241124969
 10
44.9931521636
 20
42.1827331445
 10
44.9982560369
 20
42.1236873397
 10
44.9999996065
 20
42.0639874326
  0
LINE
  5
399
100
AcDbEntity
  8
RACCORDO
100
AcDbLine
 62
7
  6
CONTINUOUS
 10
-73.2843058307
 20
-46.746479572
 11
-71.0776874129
 21
-46.9395336683
  0
LINE
  5
39A
100
AcDbEntity
  8
ASSI
100
AcDbLine
 62
7
  6
CONTINUOUS
 10
-73.2843058307
 20
-46.746479572
 11
-71.0776874129
 21
-46.9395336683
  0
LINE
  5
39B
100
AcDbEntity
  8
RACCORDO
100
AcDbLine
 62
253
  6
CONTINUOUS
 10
-73.3745937308
 20
-45.7582460175
 11
-71.2633885861
 21
-45.9430547692
  0
LINE
  5
39C
100
AcDbEntity
  8
ASSI
100
AcDbLine
 62
253
  6
CONTINUOUS
 10
-73.3745937308
 20
-45.7582460175
 11
-71.2633885861
 21
-45.9430547692
  0
LINE
  5
39D
100
AcDbEntity
  8
RACCORDO
100
AcDbLine
 62
253
  6
CONTINUOUS
 10
-73.8231361979
 20
-45.8387624886
 11
-73.3745937281
 21
-45.7582460314
  0
LINE
  5
39E
100
AcDbEntity
  8
ASSI
100
AcDbLine
 62
253
  6
CONTINUOUS
 10
-73.8231361979
 20
-45.8387624886
 11
-73.3745937281
 21
-45.7582460314
  0
LWPOLYLINE
  5
39F
100
AcDbEntity
  8
RACCORDO
100
AcDbPolyline
 62
253
  6
CONTINUOUS
 90
13
 70
0
 10
-70.8103270907
 20
-45.6487845702
 10
-70.6556678656
 20
-45.6254779833
 10
-70.5010077308
 20
-45.5976350361
 10
-70.3464985325
 20
-45.5652460044
 10
-70.192482807
 20
-45.5284892559
 10
-70.0389553298
 20
-45.4871668718
 10
-69.8855700328
 20
-45.4407029916
 10
-69.7323595903
 20
-45.3891589333
 10
-69.5797346239
 20
-45.3324496171
 10
-69.4279284199
 20
-45.2697760543
 10
-69.2771664124
 20
-45.2008617352
 10
-69.1276520667
 20
-45.1259547667
 10
-68.979589078
 20
-45.045041192
  0
LINE
  5
3A0
100
AcDbEntity
  8
RACCORDO
100
AcDbLine
 62
253
  6
CONTINUOUS
 10
-68.979589078
 20
-45.045041192
 11
-70.9169135348
 21
-45.0567451806
  0
LINE
  5
3A1
100
AcDbEntity
  8
RACCORDO
100
AcDbLine
 62
7
  6
CONTINUOUS
 10
-71.2949256381
 20
-44.3865968539
 11
-71.0340862465
 21
-44.3911498224
  0
LINE
  5
3A2
100
AcDbEntity
  8
DRAFT
100
AcDbLine
 62
7
  6
CONTINUOUS
 10
-71.0326665403
 20
-44.3795757463
 11
-71.0656680544
 21
-44.3789997028
  0
LWPOLYLINE
  5
3A3
100
AcDbEntity
  8
RACCORDO
100
AcDbPolyline
 62
253
  6
CONTINUOUS
 90
3
 70
0
 10
-72.3253036118
 20
-39.2515272097
 10
-72.3385850586
 20
-39.2536702435
 10
-72.3450265284
 20
-39.2547980574
  0
LINE
  5
3A4
100
AcDbEntity
  8
RACCORDO
100
AcDbLine
 62
253
  6
CONTINUOUS
 10
-72.2831599733
 20
-39.2450553402
 11
-72.3253036118
 21
-39.2515272097
  0
LINE
  5
3A5
100
AcDbEntity
  8
RACCORDO
100
AcDbLine
 62
253
  6
CONTINUOUS
 10
-72.0934839799
 20
-39.2171168826
 11
-72.2831599733
 21
-39.2450553402
  0
LINE
  5
3A6
100
AcDbEntity
  8
RACCORDO
100
AcDbLine
 62
253
  6
CONTINUOUS
 10
-71.8506400454
 20
-39.1820947651
 11
-72.0934839799
 21
-39.2171168826
  0
LWPOLYLINE
  5
3A7
100
AcDbEntity
  8
RACCORDO
100
AcDbPolyline
 62
253
  6
CONTINUOUS
 90
15
 70
0
 10
-73.2843058307
 20
-46.746479572
 10
-73.2868136025
 20
-46.7446210774
 10
-73.2894805792
 20
-46.7394799036
 10
-73.2922929264
 20
-46.7310793728
 10
-73.2952352829
 20
-46.7194598189
 10
-73.2982989404
 20
-46.7046617225
 10
-73.3014801855
 20
-46.6867101727
 10
-73.3047738414
 20
-46.6656390025
 10
-73.308163812
 20
-46.6415213925
 10
-73.3116309624
 20
-46.6144492379
 10
-73.3151726986
 20
-46.5845194522
 10
-73.318779866
 20
-46.5518199552
 10
-73.3224258058
 20
-46.5164469359
 10
-73.3261116102
 20
-46.4785093217
 10
-73.3298310851
 20
-46.4381294961
  0
LWPOLYLINE
  5
3A8
100
AcDbEntity
  8
ASSI
100
AcDbPolyline
 62
253
  6
CONTINUOUS
 90
15
 70
0
 10
-73.2843058307
 20
-46.746479572
 10
-73.2868136025
 20
-46.7446210774
 10
-73.2894805792
 20
-46.7394799036
 10
-73.2922929264
 20
-46.7310793728
 10
-73.2952352829
 20
-46.7194598189
 10
-73.2982989404
 20
-46.7046617225
 10
-73.3014801855
 20
-46.6867101727
 10
-73.3047738414
 20
-46.6656390025
 10
-73.308163812
 20
-46.6415213925
 10
-73.3116309624
 20
-46.6144492379
 10
-73.3151726986
 20
-46.5845194522
 10
-73.318779866
 20
-46.5518199552
 10
-73.3224258058
 20
-46.5164469359
 10
-73.3261116102
 20
-46.4785093217
 10
-73.3298310851
 20
-46.4381294961
  0
LINE
  5
3A9
100
AcDbEntity
  8
RACCORDO
100
AcDbLine
 62
7
  6
CONTINUOUS
 10
-72.8298404052
 20
-35.5015331015
 11
-72.3337504933
 21
-35.48854253
  0
LINE
  5
3AA
100
AcDbEntity
  8
RACCORDO
100
AcDbLine
 62
7
  6
CONTINUOUS
 10
-72.2242074129
 20
-36.3933932931
 11
-72.7277044956
 21
-36.380208758
  0
LWPOLYLINE
  5
3AB
100
AcDbEntity
  8
RACCORDO
100
AcDbPolyline
 62
253
  6
CONTINUOUS
 90
3
 70
0
 10
-73.7667537695
 20
-23.0557344903
 10
-73.7906072392
 20
-23.0570557099
 10
-73.8093140676
 20
-23.0579721147
  0
LINE
  5
3AC
100
AcDbEntity
  8
RACCORDO
100
AcDbLine
 62
253
  6
CONTINUOUS
 10
-76.2621775731
 20
-24.5443492269
 11
-75.8063862505
 21
-24.5214517182
  0
LINE
  5
3AD
100
AcDbEntity
  8
ASSI
100
AcDbLine
 62
253
  6
CONTINUOUS
 10
-76.2621775731
 20
-24.5443492269
 11
-75.8063862505
 21
-24.5214517182
  0
LINE
  5
3AE
100
AcDbEntity
  8
RACCORDO
100
AcDbLine
 62
253
  6
CONTINUOUS
 10
-76.2673348429
 20
-24.4415773988
 11
-75.8115378057
 21
-24.4187669182
  0
LINE
  5
3AF
100
AcDbEntity
  8
ASSI
100
AcDbLine
 62
253
  6
CONTINUOUS
 10
-76.2673348429
 20
-24.4415773988
 11
-75.8115378057
 21
-24.4187669182
  0
LINE
  5
3B0
100
AcDbEntity
  8
RACCORDO
100
AcDbLine
 62
253
  6
CONTINUOUS
 10
-73.6225630917
 20
-23.0486586209
 11
-73.7667537695
 21
-23.0557344903
  0
LINE
  5
3B1
100
AcDbEntity
  8
RACCORDO
100
AcDbLine
 62
253
  6
CONTINUOUS
 10
-73.3324040585
 20
-23.0346190928
 11
-73.6225630917
 21
-23.0486586209
  0
LWPOLYLINE
  5
3B2
100
AcDbEntity
  8
RACCORDO
100
AcDbPolyline
 62
253
  6
CONTINUOUS
 90
3
 70
0
 10
-73.8093140676
 20
-23.0579721147
 10
-73.8227614564
 20
-23.0584784998
 10
-73.8280289241
 20
-23.0587508017
  0
LINE
  5
3B3
100
AcDbEntity
  8
0
100
AcDbLine
 62
253
  6
CONTINUOUS
 10
-68.2621775731
 20
-24.3081428608
 11
-70.9935869439
 21
-24.353495963
  0
LINE
  5
3B4
100
AcDbEntity
  8
0
100
AcDbLine
 62
253
  6
CONTINUOUS
 10
-70.9935869439
 20
-24.353495963
 11
-73.2680939518
 21
-24.3888670017
  0
LINE
  5
3B5
100
AcDbEntity
  8
RACCORDO
100
AcDbLine
 62
253
  6
CONTINUOUS
 10
-75.8115378057
 20
-24.4187669182
 11
-73.7653337487
 21
-24.4187669182
  0
LINE
  5
3B6
100
AcDbEntity
  8
ASSI
100
AcDbLine
 62
253
  6
CONTINUOUS
 10
-75.8115378057
 20
-24.4187669182
 11
-73.7653337487
 21
-24.4187669182
  0
LWPOLYLINE
  5
3B7
100
AcDbEntity
  8
RACCORDO
100
AcDbPolyline
 62
7
  6
CONTINUOUS
 90
3
 70
0
 10
-73.2619852855
 20
-24.4954567517
 10
-73.2632395794
 20
-24.4952299263
 10
-73.2816198207
 20
-24.491696535
  0
LWPOLYLINE
  5
3B8
100
AcDbEntity
  8
RACCORDO
100
AcDbPolyline
 62
7
  6
CONTINUOUS
 90
19
 70
0
 10
-73.2816198207
 20
-24.491696535
 10
-73.2997474152
 20
-24.4880022692
 10
-73.3176161958
 20
-24.4841454893
 10
-73.3352192373
 20
-24.4801307891
 10
-73.3525498149
 20
-24.47596269
 10
-73.3696022791
 20
-24.4716395171
 10
-73.386370211
 20
-24.4671660767
 10
-73.4028473963
 20
-24.4625471159
 10
-73.4190287063
 20
-24.457780931
 10
-73.4349082334
 20
-24.4528725143
 10
-73.4504802757
 20
-24.4478268127
 10
-73.4657402222
 20
-24.4426421015
 10
-73.4806826788
 20
-24.4373235331
 10
-73.4953024551
 20
-24.4318762291
 10
-73.5095954503
 20
-24.4262984536
 10
-73.5235567827
 20
-24.4205954942
 10
-73.5371817713
 20
-24.4147726232
 10
-73.550466813
 20
-24.4088281067
 10
-73.5621775731
 20
-24.4033433935
  0
LWPOLYLINE
  5
3B9
100
AcDbEntity
  8
RACCORDO
100
AcDbPolyline
 62
253
  6
CONTINUOUS
 90
13
 70
0
 10
-73.3033423725
 20
19.7675353142
 10
-73.3460630636
 20
19.7519985291
 10
-73.4060573561
 20
19.726072574
 10
-73.4631358298
 20
19.697120953
 10
-73.5170072278
 20
19.665291399
 10
-73.5673966578
 20
19.6307463301
 10
-73.6140469952
 20
19.5936620213
 10
-73.6567201951
 20
19.5542277043
 10
-73.6951985068
 20
19.5126446027
 10
-73.7292855853
 20
19.4691249045
 10
-73.7588074926
 20
19.4238906798
 10
-73.7836135859
 20
19.3771727475
 10
-73.8035772859
 20
19.3292094975
  0
LINE
  5
3BA
100
AcDbEntity
  8
RACCORDO
100
AcDbLine
 62
7
  6
CONTINUOUS
 10
-73.4925867151
 20
-19.3601796122
 11
-73.9879890917
 21
-19.3472070444
  0
LWPOLYLINE
  5
3BB
100
AcDbEntity
  8
RACCORDO
100
AcDbPolyline
 62
253
  6
CONTINUOUS
 90
4
 70
0
 10
-73.8346632589
 20
-14.8943651009
 10
-73.7211465273
 20
-14.8911793956
 10
-73.6596246198
 20
-14.8891540848
 10
-73.6435033298
 20
-14.8887087719
  0
LWPOLYLINE
  5
3BC
100
AcDbEntity
  8
RACCORDO
100
AcDbPolyline
 62
253
  6
CONTINUOUS
 90
3
 70
0
 10
-73.9762514687
 20
-14.8986178502
 10
-73.8859093355
 20
-14.8961152881
 10
-73.8346632589
 20
-14.8943651009
  0
LINE
  5
3BD
100
AcDbEntity
  8
RACCORDO
100
AcDbLine
 62
7
  6
CONTINUOUS
 10
-74.0187041947
 20
-18.5326645955
 11
-73.5245742444
 21
-18.5197253473
  0
LWPOLYLINE
  5
3BE
100
AcDbEntity
  8
RACCORDO
100
AcDbPolyline
 62
253
  6
CONTINUOUS
 90
8
 70
0
 10
-74.1385939214
 20
-14.9026333129
 10
-74.1336126712
 20
-14.9025989117
 10
-74.1201110892
 20
-14.9030991889
 10
-74.101366715
 20
-14.9028536648
 10
-74.0775221818
 20
-14.9017080283
 10
-74.0485804612
 20
-14.9008680999
 10
-74.0147298404
 20
-14.9000666503
 10
-73.9762514687
 20
-14.8986178502
  0
LWPOLYLINE
  5
3BF
100
AcDbEntity
  8
RACCORDO
100
AcDbPolyline
 62
253
  6
CONTINUOUS
 90
19
 70
0
 10
-68.9795891854
 20
-45.045041199
 10
-68.9574190113
 20
-45.0928560293
 10
-68.9376317905
 20
-45.1405919824
 10
-68.9203218848
 20
-45.1880214139
 10
-68.905571842
 20
-45.2349181411
 10
-68.8934520021
 20
-45.2810585214
 10
-68.8840201625
 20
-45.326222519
 10
-68.8773213017
 20
-45.3701947547
 10
-68.8733873651
 20
-45.4127655325
 10
-68.8722371128
 20
-45.4537318398
 10
-68.8738760297
 20
-45.4928983154
 10
-68.8782962999
 20
-45.5300781814
 10
-68.8854768436
 20
-45.5650941335
 10
-68.8953834177
 20
-45.5977791869
 10
-68.9079687793
 20
-45.6279774726
 10
-68.9231729106
 20
-45.6555449804
 10
-68.9409233058
 20
-45.680350246
 10
-68.961135316
 20
-45.7022749774
 10
-68.9837125535
 20
-45.7212146196
  0
LWPOLYLINE
  5
3C0
100
AcDbEntity
  8
RACCORDO
100
AcDbPolyline
 62
253
  6
CONTINUOUS
 90
3
 70
0
 10
-73.8035772859
 20
19.3292094975
 10
-73.818596723
 20
19.2802456741
 10
-73.8248194441
 20
19.2493051617
  0
LWPOLYLINE
  5
3C1
100
AcDbEntity
  8
RACCORDO
100
AcDbPolyline
 62
253
  6
CONTINUOUS
 90
14
 70
0
 10
-73.8185980754
 20
-23.1594178217
 10
-73.8035772859
 20
-23.2082768341
 10
-73.7836087872
 20
-23.2562178191
 10
-73.7588039039
 20
-23.3029908047
 10
-73.7292855853
 20
-23.3481922411
 10
-73.6951906375
 20
-23.3916871497
 10
-73.6567072868
 20
-23.4333295558
 10
-73.6140469952
 20
-23.4727293579
 10
-73.5673900122
 20
-23.509784719
 10
-73.5169795502
 20
-23.544389718
 10
-73.4631358298
 20
-23.5761882896
 10
-73.4060594256
 20
-23.6051073168
 10
-73.3460205371
 20
-23.6310858793
 10
-73.3033423023
 20
-23.6466041216
  0
LINE
  5
3C2
100
AcDbEntity
  8
RACCORDO
100
AcDbLine
 62
253
  6
CONTINUOUS
 10
-73.8248124636
 20
-23.1285239229
 11
-73.8185980754
 21
-23.1594178217
  0
LWPOLYLINE
  5
3C3
100
AcDbEntity
  8
RACCORDO
100
AcDbPolyline
 62
253
  6
CONTINUOUS
 90
10
 70
0
 10
-73.3745937308
 20
-45.7582460175
 10
-73.7784285742
 20
-43.4161388073
 10
-74.1488956219
 20
-41.0685227125
 10
-74.4859944729
 20
-38.7158847781
 10
-74.7897783017
 20
-36.3587267049
 10
-75.0601931355
 20
-33.9975204776
 10
-75.2970778373
 20
-31.6327081188
 10
-75.5003784118
 20
-29.264761021
 10
-75.6701480212
 20
-26.8941801936
 10
-75.8063862505
 20
-24.5214517182
  0
LWPOLYLINE
  5
3C4
100
AcDbEntity
  8
ASSI
100
AcDbPolyline
 62
253
  6
CONTINUOUS
 90
10
 70
0
 10
-73.3745937308
 20
-45.7582460175
 10
-73.7784285742
 20
-43.4161388073
 10
-74.1488956219
 20
-41.0685227125
 10
-74.4859944729
 20
-38.7158847781
 10
-74.7897783017
 20
-36.3587267049
 10
-75.0601931355
 20
-33.9975204776
 10
-75.2970778373
 20
-31.6327081188
 10
-75.5003784118
 20
-29.264761021
 10
-75.6701480212
 20
-26.8941801936
 10
-75.8063862505
 20
-24.5214517182
  0
LINE
  5
3C5
100
AcDbEntity
  8
RACCORDO
100
AcDbLine
 62
253
  6
CONTINUOUS
 10
-73.3298310851
 20
-46.4381294961
 11
-73.3372669155
 21
-46.3505555465
  0
LINE
  5
3C6
100
AcDbEntity
  8
ASSI
100
AcDbLine
 62
253
  6
CONTINUOUS
 10
-73.3298310851
 20
-46.4381294961
 11
-73.3372669155
 21
-46.3505555465
  0
LINE
  5
3C7
100
AcDbEntity
  8
RACCORDO
100
AcDbLine
 62
253
  6
CONTINUOUS
 10
-73.3372669155
 20
-46.3505555465
 11
-73.344660831
 21
-46.2548322998
  0
LINE
  5
3C8
100
AcDbEntity
  8
ASSI
100
AcDbLine
 62
253
  6
CONTINUOUS
 10
-73.3372669155
 20
-46.3505555465
 11
-73.344660831
 21
-46.2548322998
  0
LINE
  5
3C9
100
AcDbEntity
  8
RACCORDO
100
AcDbLine
 62
253
  6
CONTINUOUS
 10
-73.344660831
 20
-46.2548322998
 11
-73.3519065101
 21
-46.1521664005
  0
LINE
  5
3CA
100
AcDbEntity
  8
ASSI
100
AcDbLine
 62
253
  6
CONTINUOUS
 10
-73.344660831
 20
-46.2548322998
 11
-73.3519065101
 21
-46.1521664005
  0
LINE
  5
3CB
100
AcDbEntity
  8
RACCORDO
100
AcDbLine
 62
253
  6
CONTINUOUS
 10
-73.3519065101
 20
-46.1521664005
 11
-73.3588718284
 21
-46.0439180082
  0
LINE
  5
3CC
100
AcDbEntity
  8
ASSI
100
AcDbLine
 62
253
  6
CONTINUOUS
 10
-73.3519065101
 20
-46.1521664005
 11
-73.3588718284
 21
-46.0439180082
  0
LINE
  5
3CD
100
AcDbEntity
  8
RACCORDO
100
AcDbLine
 62
253
  6
CONTINUOUS
 10
-73.3588718284
 20
-46.0439180082
 11
-73.3655041581
 21
-45.9314977863
  0
LINE
  5
3CE
100
AcDbEntity
  8
ASSI
100
AcDbLine
 62
253
  6
CONTINUOUS
 10
-73.3588718284
 20
-46.0439180082
 11
-73.3655041581
 21
-45.9314977863
  0
LINE
  5
3CF
100
AcDbEntity
  8
RACCORDO
100
AcDbLine
 62
253
  6
CONTINUOUS
 10
-73.3655041581
 20
-45.9314977863
 11
-73.3745937291
 21
-45.7582460177
  0
LINE
  5
3D0
100
AcDbEntity
  8
ASSI
100
AcDbLine
 62
253
  6
CONTINUOUS
 10
-73.3655041581
 20
-45.9314977863
 11
-73.3745937291
 21
-45.7582460177
  0
LWPOLYLINE
  5
3D1
100
AcDbEntity
  8
RACCORDO
100
AcDbPolyline
 62
253
  6
CONTINUOUS
 90
12
 70
0
 10
-75.8063862505
 20
-24.5214517182
 10
-75.9833484215
 20
-20.6746189251
 10
-76.1239234047
 20
-16.9291640832
 10
-76.2332627569
 20
-13.1826652733
 10
-76.3113697353
 20
-9.4353878763
 10
-76.3582410858
 20
-5.6875922642
 10
-76.3738670414
 20
-1.939533798
 10
-76.3582410906
 20
1.8085246249
 10
-76.3113697449
 20
5.5563201647
 10
-76.2332627688
 20
9.3035975473
 10
-76.1239234153
 20
13.0500964294
 10
-75.9833484281
 20
16.7955514011
  0
LWPOLYLINE
  5
3D2
100
AcDbEntity
  8
ASSI
100
AcDbPolyline
 62
253
  6
CONTINUOUS
 90
12
 70
0
 10
-75.8063862505
 20
-24.5214517182
 10
-75.9833484215
 20
-20.6746189251
 10
-76.1239234047
 20
-16.9291640832
 10
-76.2332627569
 20
-13.1826652733
 10
-76.3113697353
 20
-9.4353878763
 10
-76.3582410858
 20
-5.6875922642
 10
-76.3738670414
 20
-1.939533798
 10
-76.3582410906
 20
1.8085246249
 10
-76.3113697449
 20
5.5563201647
 10
-76.2332627688
 20
9.3035975473
 10
-76.1239234153
 20
13.0500964294
 10
-75.9833484281
 20
16.7955514011
  0
LINE
  5
3D3
100
AcDbEntity
  8
RACCORDO
100
AcDbLine
 62
253
  6
CONTINUOUS
 10
-73.6981842776
 20
-19.3547958505
 11
-73.7297482654
 21
-18.5250980182
  0
LINE
  5
3D4
100
AcDbEntity
  8
RACCORDO
100
AcDbLine
 62
253
  6
CONTINUOUS
 10
-73.7297482654
 20
14.6460306816
 11
-73.6981842776
 21
15.4757285139
  0
LINE
  5
3D5
100
AcDbEntity
  8
RACCORDO
100
AcDbLine
 62
253
  6
CONTINUOUS
 10
-75.9833484281
 20
16.7955514011
 11
-75.8063862505
 21
20.6423843816
  0
LINE
  5
3D6
100
AcDbEntity
  8
ASSI
100
AcDbLine
 62
253
  6
CONTINUOUS
 10
-75.9833484281
 20
16.7955514011
 11
-75.8063862505
 21
20.6423843816
  0
LINE
  5
3D7
100
AcDbEntity
  8
RACCORDO
100
AcDbLine
 62
253
  6
CONTINUOUS
 10
-73.3745937292
 20
41.8791786806
 11
-73.3655089387
 21
42.0523387039
  0
LINE
  5
3D8
100
AcDbEntity
  8
ASSI
100
AcDbLine
 62
253
  6
CONTINUOUS
 10
-73.3745937292
 20
41.8791786806
 11
-73.3655089387
 21
42.0523387039
  0
LWPOLYLINE
  5
3D9
100
AcDbEntity
  8
RACCORDO
100
AcDbPolyline
 62
253
  6
CONTINUOUS
 90
10
 70
0
 10
-75.8063862505
 20
20.6423843816
 10
-75.670148035
 20
23.0151125828
 10
-75.5003784427
 20
25.385693188
 10
-75.2970778884
 20
27.7536401157
 10
-75.0601932188
 20
30.1184523338
 10
-74.7897784204
 20
32.4796584722
 10
-74.4859946035
 20
34.8368165758
 10
-74.1488957325
 20
37.1894546814
 10
-73.7784286412
 20
39.5370710649
 10
-73.3745937308
 20
41.8791786805
  0
LWPOLYLINE
  5
3DA
100
AcDbEntity
  8
ASSI
100
AcDbPolyline
 62
253
  6
CONTINUOUS
 90
10
 70
0
 10
-75.8063862505
 20
20.6423843816
 10
-75.670148035
 20
23.0151125828
 10
-75.5003784427
 20
25.385693188
 10
-75.2970778884
 20
27.7536401157
 10
-75.0601932188
 20
30.1184523338
 10
-74.7897784204
 20
32.4796584722
 10
-74.4859946035
 20
34.8368165758
 10
-74.1488957325
 20
37.1894546814
 10
-73.7784286412
 20
39.5370710649
 10
-73.3745937308
 20
41.8791786805
  0
LINE
  5
3DB
100
AcDbEntity
  8
RACCORDO
100
AcDbLine
 62
253
  6
CONTINUOUS
 10
-73.3655089387
 20
42.0523387039
 11
-73.358887903
 21
42.1645593443
  0
LINE
  5
3DC
100
AcDbEntity
  8
ASSI
100
AcDbLine
 62
253
  6
CONTINUOUS
 10
-73.3655089387
 20
42.0523387039
 11
-73.358887903
 21
42.1645593443
  0
LINE
  5
3DD
100
AcDbEntity
  8
RACCORDO
100
AcDbLine
 62
253
  6
CONTINUOUS
 10
-73.358887903
 20
42.1645593443
 11
-73.3519308606
 21
42.2727336636
  0
LINE
  5
3DE
100
AcDbEntity
  8
ASSI
100
AcDbLine
 62
253
  6
CONTINUOUS
 10
-73.358887903
 20
42.1645593443
 11
-73.3519308606
 21
42.2727336636
  0
LINE
  5
3DF
100
AcDbEntity
  8
RACCORDO
100
AcDbLine
 62
253
  6
CONTINUOUS
 10
-73.3519308606
 20
42.2727336636
 11
-73.3446847579
 21
42.3754569557
  0
LINE
  5
3E0
100
AcDbEntity
  8
ASSI
100
AcDbLine
 62
253
  6
CONTINUOUS
 10
-73.3519308606
 20
42.2727336636
 11
-73.3446847579
 21
42.3754569557
  0
LINE
  5
3E1
100
AcDbEntity
  8
RACCORDO
100
AcDbLine
 62
253
  6
CONTINUOUS
 10
-73.3446847579
 20
42.3754569557
 11
-73.3372925606
 21
42.4712060994
  0
LINE
  5
3E2
100
AcDbEntity
  8
ASSI
100
AcDbLine
 62
253
  6
CONTINUOUS
 10
-73.3446847579
 20
42.3754569557
 11
-73.3372925606
 21
42.4712060994
  0
LWPOLYLINE
  5
3E3
100
AcDbEntity
  8
RACCORDO
100
AcDbPolyline
 62
253
  6
CONTINUOUS
 90
16
 70
0
 10
-73.3372925606
 20
42.4712060994
 10
-73.3298569892
 20
42.5588081281
 10
-73.32613684
 20
42.5992035949
 10
-73.322450165
 20
42.6371571944
 10
-73.318803126
 20
42.6725471151
 10
-73.3151946538
 20
42.7052637742
 10
-73.3116518263
 20
42.7352092779
 10
-73.3081843146
 20
42.762289775
 10
-73.3047945237
 20
42.7864168505
 10
-73.3015002283
 20
42.807512869
 10
-73.2983152461
 20
42.8255082503
 10
-73.2952452798
 20
42.8403500464
 10
-73.2922972261
 20
42.8519964969
 10
-73.289481614
 20
42.8604083009
 10
-73.2868130756
 20
42.8655533882
 10
-73.2843058307
 20
42.8674122354
  0
LWPOLYLINE
  5
3E4
100
AcDbEntity
  8
ASSI
100
AcDbPolyline
 62
253
  6
CONTINUOUS
 90
16
 70
0
 10
-73.3372925606
 20
42.4712060994
 10
-73.3298569892
 20
42.5588081281
 10
-73.32613684
 20
42.5992035949
 10
-73.322450165
 20
42.6371571944
 10
-73.318803126
 20
42.6725471151
 10
-73.3151946538
 20
42.7052637742
 10
-73.3116518263
 20
42.7352092779
 10
-73.3081843146
 20
42.762289775
 10
-73.3047945237
 20
42.7864168505
 10
-73.3015002283
 20
42.807512869
 10
-73.2983152461
 20
42.8255082503
 10
-73.2952452798
 20
42.8403500464
 10
-73.2922972261
 20
42.8519964969
 10
-73.289481614
 20
42.8604083009
 10
-73.2868130756
 20
42.8655533882
 10
-73.2843058307
 20
42.8674122354
  0
LWPOLYLINE
  5
3E5
100
AcDbEntity
  8
RACCORDO
100
AcDbPolyline
 62
253
  6
CONTINUOUS
 90
3
 70
0
 10
-72.5397410362
 20
31.6148692456
 10
-72.4501863423
 20
32.3583579753
 10
-72.4316415298
 20
32.508894103
  0
LINE
  5
3E6
100
AcDbEntity
  8
RACCORDO
100
AcDbLine
 62
7
  6
CONTINUOUS
 10
-68.2621775731
 20
-5.7921876297
 11
-70.0969072087
 21
-5.4686752927
  0
LWPOLYLINE
  5
3E7
100
AcDbEntity
  8
RACCORDO
100
AcDbPolyline
 62
253
  6
CONTINUOUS
 90
3
 70
0
 10
-72.4316415298
 20
-36.3879614396
 10
-72.5219179433
 20
-35.6441777163
 10
-72.5397410362
 20
-35.4939365822
  0
LWPOLYLINE
  5
3E8
100
AcDbEntity
  8
RACCORDO
100
AcDbPolyline
 62
253
  6
CONTINUOUS
 90
17
 70
0
 10
-74.140684996
 20
10.9522548938
 10
-74.138625278
 20
10.9332418982
 10
-74.1294942835
 20
10.8878203097
 10
-74.1162382662
 20
10.8427955325
 10
-74.0989195439
 20
10.7983583272
 10
-74.077592104
 20
10.7548084456
 10
-74.0523489418
 20
10.7122652967
 10
-74.0233138662
 20
10.6708537773
 10
-73.9905895618
 20
10.6308694414
 10
-73.9543099858
 20
10.592410622
 10
-73.9146463236
 20
10.5555814614
 10
-73.8717603759
 20
10.5206668558
 10
-73.8258118224
 20
10.4877410225
 10
-73.7770059267
 20
10.4568804114
 10
-73.7255758337
 20
10.4283473758
 10
-73.6716912029
 20
10.4021940042
 10
-73.6615212534
 20
10.3978938488
  0
LINE
  5
3E9
100
AcDbEntity
  8
ASSI
100
AcDbLine
 62
7
  6
CONTINUOUS
 10
-73.8121775731
 20
-23.4026064906
 11
-73.8121775731
 21
-19.351810831
  0
LINE
  5
3EA
100
AcDbEntity
  8
ASSI
100
AcDbLine
 62
7
  6
CONTINUOUS
 10
-73.8121775731
 20
-18.5272565056
 11
-73.8121775731
 21
-6.9395336683
  0
LINE
  5
3EB
100
AcDbEntity
  8
ASSI
100
AcDbLine
 62
7
  6
CONTINUOUS
 10
-73.8121775731
 20
3.0604663317
 11
-73.8121775731
 21
14.648189169
  0
LINE
  5
3EC
100
AcDbEntity
  8
ASSI
100
AcDbLine
 62
7
  6
CONTINUOUS
 10
-73.8121775731
 20
15.4727434944
 11
-73.8121775731
 21
19.523539154
  0
LINE
  5
3ED
100
AcDbEntity
  8
ASSI
100
AcDbLine
 62
7
  6
CONTINUOUS
 10
-73.5621775731
 20
-27.7192503404
 11
-73.5621775731
 21
-19.3583573114
  0
LINE
  5
3EE
100
AcDbEntity
  8
ASSI
100
AcDbLine
 62
7
  6
CONTINUOUS
 10
-73.5621775731
 20
15.4792899748
 11
-73.5621775731
 21
23.8401828887
  0
LINE
  5
3EF
100
AcDbEntity
  8
RACCORDO
100
AcDbLine
 62
7
  6
CONTINUOUS
 10
-71.2621775731
 20
40.2999330886
 11
-71.2621775731
 21
39.1578403992
  0
LINE
  5
3F0
100
AcDbEntity
  8
RACCORDO
100
AcDbLine
 62
7
  6
CONTINUOUS
 10
-71.2621775731
 20
-44.1790243467
 11
-71.2621775731
 21
-43.0369077462
  0
LINE
  5
3F1
100
AcDbEntity
  8
RACCORDO
100
AcDbLine
 62
253
  6
CONTINUOUS
 10
-71.0656680544
 20
40.4999323662
 11
-71.0656680544
 21
40.3074454555
  0
LINE
  5
3F2
100
AcDbEntity
  8
RACCORDO
100
AcDbLine
 62
253
  6
CONTINUOUS
 10
-71.0656680544
 20
-44.1865127967
 11
-71.0656680544
 21
-44.3789997028
  0
LINE
  5
3F3
100
AcDbEntity
  8
RACCORDO
100
AcDbLine
 62
7
  6
CONTINUOUS
 10
-70.2621775731
 20
-5.2717137421
 11
-70.2621775731
 21
1.3926464055
  0
LINE
  5
3F4
100
AcDbEntity
  8
RACCORDO
100
AcDbLine
 62
253
  6
CONTINUOUS
 10
-74.0372286484
 20
-2.3459176612
 11
-74.0372286484
 21
-1.5331496754
  0
LINE
  5
3F5
100
AcDbEntity
  8
RACCORDO
100
AcDbLine
 62
7
  6
CONTINUOUS
 10
-74.3286192439
 20
-1.5407800066
 11
-73.8319879255
 21
-1.5277752579
  0
LINE
  5
3F6
100
AcDbEntity
  8
0
100
AcDbLine
 62
253
  6
CONTINUOUS
 10
-70.2621775731
 20
-1.9395336683
 11
-73.8321775731
 21
-1.9395336683
  0
LINE
  5
3F7
100
AcDbEntity
  8
RACCORDO
100
AcDbLine
 62
7
  6
CONTINUOUS
 10
-73.8319879255
 20
-2.3512920787
 11
-74.3286192439
 21
-2.33828733
  0
LINE
  5
3F8
100
AcDbEntity
  8
DRAFT
100
AcDbLine
 62
7
  6
CONTINUOUS
 10
-68.2621775731
 20
-24.3081428608
 11
-68.2621775731
 21
-5.7921876297
  0
LINE
  5
3F9
100
AcDbEntity
  8
RACCORDO
100
AcDbLine
 62
7
  6
CONTINUOUS
 10
-68.2621775731
 20
-24.3081428608
 11
-68.2621775731
 21
-45.0395338993
  0
LINE
  5
3FA
100
AcDbEntity
  8
DRAFT
100
AcDbLine
 62
7
  6
CONTINUOUS
 10
-68.2621775731
 20
1.9131202931
 11
-68.2621775731
 21
20.4290755242
  0
LINE
  5
3FB
100
AcDbEntity
  8
RACCORDO
100
AcDbLine
 62
7
  6
CONTINUOUS
 10
-68.2621775731
 20
20.4290755242
 11
-68.2621775731
 21
41.1604665642
  0
LINE
  5
3FC
100
AcDbEntity
  8
RACCORDO
100
AcDbLine
 62
7
  6
CONTINUOUS
 10
-70.0969072087
 20
1.5896079561
 11
-68.2621775731
 21
1.9131202931
  0
LWPOLYLINE
  5
3FD
100
AcDbEntity
  8
RACCORDO
100
AcDbPolyline
 62
7
  6
CONTINUOUS
 90
18
 70
0
 10
-73.8121775731
 20
9.5910207207
 10
-73.8399348652
 20
9.6013674406
 10
-73.8776089453
 20
9.6168302566
 10
-73.91327968
 20
9.6330138045
 10
-73.9468742778
 20
9.6498308178
 10
-73.9783279094
 20
9.6671964144
 10
-74.0075853033
 20
9.6851328993
 10
-74.0345937575
 20
9.7035507334
 10
-74.0593083072
 20
9.7223616897
 10
-74.0816929014
 20
9.7415901627
 10
-74.1017141889
 20
9.7611464077
 10
-74.1193460571
 20
9.7809409945
 10
-74.1345698816
 20
9.8009997322
 10
-74.1473704865
 20
9.8212341515
 10
-74.1577395025
 20
9.8415556283
 10
-74.16567398
 20
9.861991233
 10
-74.1711751618
 20
9.8824926537
 10
-74.1719105924
 20
9.8873808462
  0
LWPOLYLINE
  5
3FE
100
AcDbEntity
  8
RACCORDO
100
AcDbPolyline
 62
7
  6
CONTINUOUS
 90
18
 70
0
 10
-73.8121775731
 20
-13.4700807287
 10
-73.8399354505
 20
-13.480410626
 10
-73.8776080982
 20
-13.4959275755
 10
-73.9132796264
 20
-13.5120810216
 10
-73.9468749332
 20
-13.5288711292
 10
-73.9783270535
 20
-13.5462938054
 10
-74.0075852456
 20
-13.5642000467
 10
-74.0345944591
 20
-13.5825890804
 10
-74.0593074582
 20
-13.6014585525
 10
-74.0816928415
 20
-13.6206571911
 10
-74.1017149142
 20
-13.6401835816
 10
-74.1193452243
 20
-13.6600368243
 10
-74.1345698229
 20
-13.6800665214
 10
-74.1473712717
 20
-13.7002705443
 10
-74.1577387829
 20
-13.7206495247
 10
-74.1656739346
 20
-13.7410573068
 10
-74.171178019
 20
-13.7614449155
 10
-74.1719140698
 20
-13.7663295946
  0
LWPOLYLINE
  5
3FF
100
AcDbEntity
  8
RACCORDO
100
AcDbPolyline
 62
253
  6
CONTINUOUS
 90
6
 70
0
 10
-73.6435004387
 20
11.0097356396
 10
-74.0775097482
 20
11.0227382691
 10
-74.1013927821
 20
11.0233801391
 10
-74.12011109
 20
11.024031825
 10
-74.1335523365
 20
11.0246883158
 10
-74.1385547781
 20
11.0249008652
  0
LWPOLYLINE
  5
400
100
AcDbEntity
  8
RACCORDO
100
AcDbPolyline
 62
253
  6
CONTINUOUS
 90
17
 70
0
 10
-73.661521726
 20
-14.2769424932
 10
-73.671693549
 20
-14.2812380297
 10
-73.7255758337
 20
-14.3074147124
 10
-73.7770230119
 20
-14.3359710294
 10
-73.8258193869
 20
-14.3667872559
 10
-73.8717603759
 20
-14.3997341924
 10
-73.9146533676
 20
-14.4346737061
 10
-73.9543185294
 20
-14.4714593102
 10
-73.9905895618
 20
-14.509936778
 10
-74.0233143956
 20
-14.5499447895
 10
-74.0523558293
 20
-14.5913156078
 10
-74.077592104
 20
-14.6338757822
 10
-74.0989174148
 20
-14.6774468759
 10
-74.1162423533
 20
-14.7218462132
 10
-74.1294942835
 20
-14.7668876463
 10
-74.1386176455
 20
-14.8123823353
 10
-74.1406816449
 20
-14.8314365109
  0
LINE
  5
401
100
AcDbEntity
  8
RACCORDO
100
AcDbLine
 62
7
  6
CONTINUOUS
 10
-73.9879890917
 20
15.4681397078
 11
-73.4925867151
 21
15.4811122756
  0
LINE
  5
402
100
AcDbEntity
  8
RACCORDO
100
AcDbLine
 62
7
  6
CONTINUOUS
 10
-73.5245742444
 20
14.6406580108
 11
-74.0187041947
 21
14.6535972589
  0
LWPOLYLINE
  5
403
100
AcDbEntity
  8
RACCORDO
100
AcDbPolyline
 62
253
  6
CONTINUOUS
 90
3
 70
0
 10
-73.4106471018
 20
19.159234404
 10
-73.3491536607
 20
19.1564941579
 10
-73.3323989369
 20
19.1556596171
  0
LWPOLYLINE
  5
404
100
AcDbEntity
  8
RACCORDO
100
AcDbPolyline
 62
253
  6
CONTINUOUS
 90
4
 70
0
 10
-73.665559492
 20
19.1717578225
 10
-73.5752977163
 20
19.1671487407
 10
-73.5240715662
 20
19.1648858262
 10
-73.4106471018
 20
19.159234404
  0
LWPOLYLINE
  5
405
100
AcDbEntity
  8
RACCORDO
100
AcDbPolyline
 62
253
  6
CONTINUOUS
 90
3
 70
0
 10
-73.7667549744
 20
19.176774439
 10
-73.7040315671
 20
19.1733770992
 10
-73.665559492
 20
19.1717578225
  0
LINE
  5
406
100
AcDbEntity
  8
RACCORDO
100
AcDbLine
 62
253
  6
CONTINUOUS
 10
-73.8279697739
 20
19.180966581
 11
-73.8227328199
 21
19.1805171498
  0
LWPOLYLINE
  5
407
100
AcDbEntity
  8
RACCORDO
100
AcDbPolyline
 62
253
  6
CONTINUOUS
 90
4
 70
0
 10
-73.8227328199
 20
19.1805171498
 10
-73.8093140674
 20
19.1789047817
 10
-73.7906116729
 20
19.1776078058
 10
-73.7667549744
 20
19.176774439
  0
LWPOLYLINE
  5
408
100
AcDbEntity
  8
RACCORDO
100
AcDbPolyline
 62
7
  6
CONTINUOUS
 90
19
 70
0
 10
-73.281618265
 20
20.6126311078
 10
-73.2997459678
 20
20.6089336628
 10
-73.3176146199
 20
20.6050786358
 10
-73.3352175413
 20
20.601065546
 10
-73.3525482408
 20
20.5968941394
 10
-73.3696005826
 20
20.5925727735
 10
-73.3863683995
 20
20.5881010181
 10
-73.4028457198
 20
20.5834786388
 10
-73.419026915
 20
20.5787143062
 10
-73.4349063335
 20
20.5738076396
 10
-73.4504785234
 20
20.5687584253
 10
-73.465738364
 20
20.5635756034
 10
-73.4806807193
 20
20.558258841
 10
-73.495300655
 20
20.5528079462
 10
-73.5095935543
 20
20.5472320894
 10
-73.5235547936
 20
20.5415309828
 10
-73.5371799523
 20
20.5357044582
 10
-73.5504649095
 20
20.5297618825
 10
-73.5621775731
 20
20.524277954
  0
LWPOLYLINE
  5
409
100
AcDbEntity
  8
RACCORDO
100
AcDbPolyline
 62
7
  6
CONTINUOUS
 90
3
 70
0
 10
-73.2619852846
 20
20.6163894276
 10
-73.2632381474
 20
20.616162973
 10
-73.281618265
 20
20.6126311078
  0
LINE
  5
40A
100
AcDbEntity
  8
RACCORDO
100
AcDbLine
 62
253
  6
CONTINUOUS
 10
-75.8115378057
 20
20.5396995816
 11
-73.7653337487
 21
20.5396995816
  0
LINE
  5
40B
100
AcDbEntity
  8
ASSI
100
AcDbLine
 62
253
  6
CONTINUOUS
 10
-75.8115378057
 20
20.5396995816
 11
-73.7653337487
 21
20.5396995816
  0
LINE
  5
40C
100
AcDbEntity
  8
0
100
AcDbLine
 62
253
  6
CONTINUOUS
 10
-68.2621775731
 20
20.4290755242
 11
-73.2680939518
 21
20.5097996651
  0
LINE
  5
40D
100
AcDbEntity
  8
RACCORDO
100
AcDbLine
 62
253
  6
CONTINUOUS
 10
-76.2673348482
 20
20.5625100625
 11
-75.8115378057
 21
20.5396995816
  0
LINE
  5
40E
100
AcDbEntity
  8
ASSI
100
AcDbLine
 62
253
  6
CONTINUOUS
 10
-76.2673348482
 20
20.5625100625
 11
-75.8115378057
 21
20.5396995816
  0
LINE
  5
40F
100
AcDbEntity
  8
RACCORDO
100
AcDbLine
 62
253
  6
CONTINUOUS
 10
-76.2621775572
 20
20.6652818895
 11
-75.8063862504
 21
20.6423843816
  0
LINE
  5
410
100
AcDbEntity
  8
ASSI
100
AcDbLine
 62
253
  6
CONTINUOUS
 10
-76.2621775572
 20
20.6652818895
 11
-75.8063862504
 21
20.6423843816
  0
LINE
  5
411
100
AcDbEntity
  8
RACCORDO
100
AcDbLine
 62
7
  6
CONTINUOUS
 10
-72.7277044485
 20
32.5011414226
 11
-72.2242074129
 21
32.5143259565
  0
LINE
  5
412
100
AcDbEntity
  8
RACCORDO
100
AcDbLine
 62
7
  6
CONTINUOUS
 10
-72.3337504933
 20
31.6094751934
 11
-72.8298403302
 21
31.622465763
  0
LWPOLYLINE
  5
413
100
AcDbEntity
  8
RACCORDO
100
AcDbPolyline
 62
253
  6
CONTINUOUS
 90
5
 70
0
 10
-72.2545264672
 20
35.3616942208
 10
-72.3067957556
 20
35.3695830861
 10
-72.3253040472
 20
35.3724599013
 10
-72.3385853668
 20
35.3746029271
 10
-72.3450266246
 20
35.3757307169
  0
LWPOLYLINE
  5
414
100
AcDbEntity
  8
RACCORDO
100
AcDbPolyline
 62
253
  6
CONTINUOUS
 90
19
 70
0
 10
-68.9837112007
 20
41.8421491262
 10
-68.9611340129
 20
41.8232093623
 10
-68.9409220646
 20
41.801284502
 10
-68.9231717421
 20
41.7764791028
 10
-68.9079676928
 20
41.7489114585
 10
-68.8953824212
 20
41.7187130357
 10
-68.8854759435
 20
41.686027847
 10
-68.8782955008
 20
41.6510117639
 10
-68.8738753341
 20
41.6138317728
 10
-68.8722365211
 20
41.574665179
 10
-68.8733868761
 20
41.5336987622
 10
-68.877320912
 20
41.4911278843
 10
-68.8840198673
 20
41.4471555576
 10
-68.8934517949
 20
41.4019914787
 10
-68.905571715
 20
41.355851027
 10
-68.9203218299
 20
41.3089542359
 10
-68.9376317987
 20
41.261524747
 10
-68.957419073
 20
41.2137887434
 10
-68.9795892906
 20
41.1659738694
  0
LWPOLYLINE
  5
415
100
AcDbEntity
  8
RACCORDO
100
AcDbPolyline
 62
253
  6
CONTINUOUS
 90
3
 70
0
 10
-71.8506400544
 20
35.3030273645
 10
-72.2210482174
 20
35.356724845
 10
-72.2545264672
 20
35.3616942208
  0
LWPOLYLINE
  5
416
100
AcDbEntity
  8
RACCORDO
100
AcDbPolyline
 62
253
  6
CONTINUOUS
 90
10
 70
0
 10
-68.979589078
 20
41.1659738554
 10
-68.8814802522
 20
41.1070102808
 10
-68.7882852773
 20
41.0475693169
 10
-68.6998657776
 20
40.9876536576
 10
-68.6160503233
 20
40.9270940863
 10
-68.536717646
 20
40.8660651089
 10
-68.4618029861
 20
40.805085754
 10
-68.3911875751
 20
40.7443316196
 10
-68.3246949747
 20
40.6836340712
 10
-68.2621775745
 20
40.6229964389
  0
LWPOLYLINE
  5
417
100
AcDbEntity
  8
RACCORDO
100
AcDbPolyline
 62
253
  6
CONTINUOUS
 90
13
 70
0
 10
-68.979589078
 20
-45.045041192
 10
-68.8981242599
 20
-44.9962715534
 10
-68.8212328697
 20
-44.9480750011
 10
-68.748794699
 20
-44.9004549076
 10
-68.680854632
 20
-44.8533738956
 10
-68.6171181849
 20
-44.8068758464
 10
-68.5569795966
 20
-44.7610856723
 10
-68.5003141389
 20
-44.7160295568
 10
-68.4470543252
 20
-44.6716868033
 10
-68.3967231065
 20
-44.6281114492
 10
-68.3491184364
 20
-44.5853229285
 10
-68.304294396
 20
-44.5433063083
 10
-68.2621775407
 20
-44.5020637433
  0
LINE
  5
418
100
AcDbEntity
  8
RACCORDO
100
AcDbLine
 62
253
  6
CONTINUOUS
 10
-73.3745937308
 20
41.8791786805
 11
-71.2633885861
 21
42.0639874326
  0
LINE
  5
419
100
AcDbEntity
  8
ASSI
100
AcDbLine
 62
253
  6
CONTINUOUS
 10
-73.3745937308
 20
41.8791786805
 11
-71.2633885861
 21
42.0639874326
  0
LINE
  5
41A
100
AcDbEntity
  8
DRAFT
100
AcDbLine
 62
7
  6
CONTINUOUS
 10
-71.0326665397
 20
40.5005084098
 11
-71.0656680544
 21
40.4999323662
  0
LINE
  5
41B
100
AcDbEntity
  8
RACCORDO
100
AcDbLine
 62
7
  6
CONTINUOUS
 10
-71.2949256381
 20
40.5075295173
 11
-71.0340862465
 21
40.5120824858
  0
LINE
  5
41C
100
AcDbEntity
  8
RACCORDO
100
AcDbLine
 62
253
  6
CONTINUOUS
 10
-68.979589078
 20
41.1659738554
 11
-70.9169135348
 21
41.177677844
  0
LWPOLYLINE
  5
41D
100
AcDbEntity
  8
RACCORDO
100
AcDbPolyline
 62
253
  6
CONTINUOUS
 90
16
 70
0
 10
-70.8103267383
 20
41.7697171741
 10
-70.6875561219
 20
41.7515093757
 10
-70.564795598
 20
41.7304952689
 10
-70.4421197217
 20
41.7066701073
 10
-70.3197824486
 20
41.680141055
 10
-70.1976906702
 20
41.6507914538
 10
-70.0754120809
 20
41.618279981
 10
-69.9529594321
 20
41.5826268178
 10
-69.8305340682
 20
41.5438001863
 10
-69.708005936
 20
41.5013790758
 10
-69.5853400684
 20
41.4553721709
 10
-69.4628428707
 20
41.4057568516
 10
-69.340888647
 20
41.3520634588
 10
-69.2196626103
 20
41.2941299507
 10
-69.0991921541
 20
41.2321026752
 10
-68.979589078
 20
41.1659738554
  0
LINE
  5
41E
100
AcDbEntity
  8
RACCORDO
100
AcDbLine
 62
253
  6
CONTINUOUS
 10
-73.8231362434
 20
41.9596951602
 11
-73.7820087833
 21
41.9523434409
  0
LINE
  5
41F
100
AcDbEntity
  8
ASSI
100
AcDbLine
 62
253
  6
CONTINUOUS
 10
-73.8231362434
 20
41.9596951602
 11
-73.7820087833
 21
41.9523434409
  0
LINE
  5
420
100
AcDbEntity
  8
RACCORDO
100
AcDbLine
 62
253
  6
CONTINUOUS
 10
-73.7820087833
 20
41.9523434409
 11
-73.3745932409
 21
41.8791786062
  0
LINE
  5
421
100
AcDbEntity
  8
ASSI
100
AcDbLine
 62
253
  6
CONTINUOUS
 10
-73.7820087833
 20
41.9523434409
 11
-73.3745932409
 21
41.8791786062
  0
LINE
  5
422
100
AcDbEntity
  8
RACCORDO
100
AcDbLine
 62
7
  6
CONTINUOUS
 10
-73.2843058307
 20
42.8674122354
 11
-71.0776874129
 21
43.0604663317
  0
LINE
  5
423
100
AcDbEntity
  8
ASSI
100
AcDbLine
 62
7
  6
CONTINUOUS
 10
-73.2843058307
 20
42.8674122354
 11
-71.0776874129
 21
43.0604663317
  0
ARC
  5
424
100
AcDbEntity
  8
RACCORDO
100
AcDbCircle
 62
7
  6
CONTINUOUS
 10
-71.3625587678
 20
-42.4805829311
 40
4.0200239337
100
AcDbArc
 50
279.9999994914
 51
320.4648724279
  0
ARC
  5
425
100
AcDbEntity
  8
RACCORDO
100
AcDbCircle
 62
7
  6
CONTINUOUS
 10
-71.2873935785
 20
-39.6175818342
 40
1.0
100
AcDbArc
 50
194.1672680488
 51
248.3755646094
  0
ARC
  5
426
100
AcDbEntity
  8
RACCORDO
100
AcDbCircle
 62
7
  6
CONTINUOUS
 10
-73.2407279593
 20
-46.248382223
 40
0.5
100
AcDbArc
 50
190.3619323081
 51
265.0
  0
ARC
  5
427
100
AcDbEntity
  8
ASSI
100
AcDbCircle
 62
7
  6
CONTINUOUS
 10
-73.2407279593
 20
-46.248382223
 40
0.5
100
AcDbArc
 50
190.3619323081
 51
265.0
  0
ARC
  5
428
100
AcDbEntity
  8
RACCORDO
100
AcDbCircle
 62
7
  6
CONTINUOUS
 10
-71.2896899162
 20
-44.0866425454
 40
0.3
100
AcDbArc
 50
199.9821465486
 51
269.0
  0
ARC
  5
429
100
AcDbEntity
  8
RACCORDO
100
AcDbCircle
 62
7
  6
CONTINUOUS
 10
-71.0621775731
 20
-44.1790301637
 40
0.2
100
AcDbArc
 50
180.0
 51
269.0
  0
ARC
  5
42A
100
AcDbEntity
  8
RACCORDO
100
AcDbCircle
 62
7
  6
CONTINUOUS
 10
-70.0621775731
 20
-5.2717137421
 40
0.2
100
AcDbArc
 50
180.0
 51
260.0
  0
ARC
  5
42B
100
AcDbEntity
  8
RACCORDO
100
AcDbCircle
 62
7
  6
CONTINUOUS
 10
91.6464838989
 20
-16.0991444668
 40
168.1209091124
100
AcDbArc
 50
182.8793331648
 51
190.3616376217
  0
ARC
  5
42C
100
AcDbEntity
  8
ASSI
100
AcDbCircle
 62
7
  6
CONTINUOUS
 10
91.6464838989
 20
-16.0991444668
 40
168.1209091124
100
AcDbArc
 50
182.8793331648
 51
190.3616376217
  0
ARC
  5
42D
100
AcDbEntity
  8
RACCORDO
100
AcDbCircle
 62
7
  6
CONTINUOUS
 10
91.6464838989
 20
-16.0991444668
 40
165.6209091124
100
AcDbArc
 50
182.8793463054
 51
190.7317283603
  0
ARC
  5
42E
100
AcDbEntity
  8
ASSI
100
AcDbCircle
 62
7
  6
CONTINUOUS
 10
91.6464838989
 20
-16.0991444668
 40
165.6209091124
100
AcDbArc
 50
182.8793463054
 51
190.7317283603
  0
ARC
  5
42F
100
AcDbEntity
  8
0
100
AcDbCircle
 62
7
  6
CONTINUOUS
 10
91.6435358299
 20
-16.0961736683
 40
165.12
100
AcDbArc
 50
182.8787323946
 51
190.1014160662
  0
ARC
  5
430
100
AcDbEntity
  8
RACCORDO
100
AcDbCircle
 62
7
  6
CONTINUOUS
 10
91.6435358299
 20
-16.0961736683
 40
165.12
100
AcDbArc
 50
190.1014160662
 51
190.5891670948
  0
ARC
  5
431
100
AcDbEntity
  8
RACCORDO
100
AcDbCircle
 62
7
  6
CONTINUOUS
 10
-70.0621775731
 20
1.3926464055
 40
0.2
100
AcDbArc
 50
100.0
 51
180.0
  0
ARC
  5
432
100
AcDbEntity
  8
RACCORDO
100
AcDbCircle
 62
7
  6
CONTINUOUS
 10
-71.3625587678
 20
38.6015155945
 40
4.0200239337
100
AcDbArc
 50
39.5351276004
 51
80.0000000614
  0
ARC
  5
433
100
AcDbEntity
  8
RACCORDO
100
AcDbCircle
 62
7
  6
CONTINUOUS
 10
-71.2873939283
 20
35.7385121366
 40
1.0000000001
100
AcDbArc
 50
111.624366281
 51
165.8326005634
  0
ARC
  5
434
100
AcDbEntity
  8
RACCORDO
100
AcDbCircle
 62
7
  6
CONTINUOUS
 10
-73.2407287903
 20
42.3693104348
 40
0.5
100
AcDbArc
 50
94.9998606877
 51
169.637548776
  0
ARC
  5
435
100
AcDbEntity
  8
ASSI
100
AcDbCircle
 62
7
  6
CONTINUOUS
 10
-73.2407287903
 20
42.3693104348
 40
0.5
100
AcDbArc
 50
94.9998606877
 51
169.637548776
  0
ARC
  5
436
100
AcDbEntity
  8
RACCORDO
100
AcDbCircle
 62
7
  6
CONTINUOUS
 10
-71.2896899162
 20
40.2075752088
 40
0.3
100
AcDbArc
 50
91.0
 51
160.017968937
  0
ARC
  5
437
100
AcDbEntity
  8
RACCORDO
100
AcDbCircle
 62
7
  6
CONTINUOUS
 10
-71.0621775731
 20
40.2999628271
 40
0.2
100
AcDbArc
 50
91.0
 51
180.0
  0
ARC
  5
438
100
AcDbEntity
  8
RACCORDO
100
AcDbCircle
 62
7
  6
CONTINUOUS
 10
91.6464838989
 20
12.2200771302
 40
168.1209091124
100
AcDbArc
 50
169.6380676919
 51
177.1206536946
  0
ARC
  5
439
100
AcDbEntity
  8
ASSI
100
AcDbCircle
 62
7
  6
CONTINUOUS
 10
91.6464838989
 20
12.2200771302
 40
168.1209091124
100
AcDbArc
 50
169.6380676919
 51
177.1206536946
  0
ARC
  5
43A
100
AcDbEntity
  8
RACCORDO
100
AcDbCircle
 62
7
  6
CONTINUOUS
 10
91.6464838989
 20
12.2200771302
 40
165.6209091124
100
AcDbArc
 50
169.2682716397
 51
177.1206536946
  0
ARC
  5
43B
100
AcDbEntity
  8
ASSI
100
AcDbCircle
 62
7
  6
CONTINUOUS
 10
91.6464838989
 20
12.2200771302
 40
165.6209091124
100
AcDbArc
 50
169.2682716397
 51
177.1206536946
  0
ARC
  5
43C
100
AcDbEntity
  8
0
100
AcDbCircle
 62
7
  6
CONTINUOUS
 10
91.6435358299
 20
12.2171063317
 40
165.12
100
AcDbArc
 50
169.8985839314
 51
177.1212676054
  0
ARC
  5
43D
100
AcDbEntity
  8
RACCORDO
100
AcDbCircle
 62
7
  6
CONTINUOUS
 10
91.6435358299
 20
12.2171063317
 40
165.12
100
AcDbArc
 50
169.4108329051
 51
169.8985839314
  0
ARC
  5
43E
100
AcDbEntity
  8
RACCORDO
100
AcDbCircle
 62
7
  6
CONTINUOUS
 10
373.16971083
 20
-1.9395336683
 40
450.0
100
AcDbArc
 50
177.1206584177
 51
182.8793414056
  0
ARC
  5
43F
100
AcDbEntity
  8
ASSI
100
AcDbCircle
 62
7
  6
CONTINUOUS
 10
373.16971083
 20
-1.9395336683
 40
450.0
100
AcDbArc
 50
177.1206584177
 51
182.8793414056
  0
ARC
  5
440
100
AcDbEntity
  8
DRAFT
100
AcDbCircle
 62
7
  6
CONTINUOUS
 10
373.16971083
 20
-1.9395336683
 40
447.5
100
AcDbArc
 50
177.1206536946
 51
182.8793463054
  0
ARC
  5
441
100
AcDbEntity
  8
ASSI
100
AcDbCircle
 62
7
  6
CONTINUOUS
 10
373.16971083
 20
-1.9395336683
 40
447.5
100
AcDbArc
 50
177.1206536946
 51
182.8793463054
  0
ARC
  5
442
100
AcDbEntity
  8
0
100
AcDbCircle
 62
7
  6
CONTINUOUS
 10
373.1678224269
 20
-1.9395336683
 40
447.0
100
AcDbArc
 50
177.1212676054
 51
182.8787323946
  0
ENDSEC
  0
SECTION
  2
OBJECTS
  0
DICTIONARY
  5
C
100
AcDbDictionary
280
0
281
1
  3
ACAD_GROUP
350
D
  3
ACAD_MLINESTYLE
350
17
  3
ACAD_LAYOUT
350
1A
  3
ACAD_PLOTSETTINGS
350
19
  3
ACAD_PLOTSTYLENAME
350
E
  0
DICTIONARY
  5
D
102
{ACAD_REACTORS
330
C
102
}
100
AcDbDictionary
280
0
281
1
  0
ACDBDICTIONARYWDFLT
  5
E
102
{ACAD_REACTORS
330
C
102
}
100
AcDbDictionary
281
1
  3
Normal
350
F
100
AcDbDictionaryWithDefault
340
F
  0
DICTIONARY
  5
17
102
{ACAD_REACTORS
330
C
102
}
100
AcDbDictionary
280
0
281
1
  3
Standard
350
18
  0
DICTIONARY
  5
19
102
{ACAD_REACTORS
330
C
102
}
100
AcDbDictionary
281
1
  0
DICTIONARY
  5
1A
102
{ACAD_REACTORS
330
C
102
}
100
AcDbDictionary
281
1
  3
Model
350
443
  3
Layout1
350
444
  0
ACDBPLACEHOLDER
  5
F
102
{ACAD_REACTORS
330
E
102
}
  0
MLINESTYLE
  5
18
102
{ACAD_REACTORS
330
17
102
}
100
AcDbMlineStyle
  2
STANDARD
 70
0
  3

 62
256
 51
90.0
 52
90.0
 71
2
 49
0.5
 62
256
  6
BYLAYER
 49
-0.5
 62
256
  6
BYLAYER
  0
LAYOUT
  5
443
102
{ACAD_REACTORS
330
1A
102
}
100
AcDbPlotSettings
  1

  2
none_device
  4
ISO_A4_(297.00_x_210.00_MM)
  6

 40
0.0
 41
0.0
 42
0.0
 43
0.0
 44
297.0
 45
210.0
 46
0.0
 47
0.0
 48
0.0
 49
0.0
140
0.0
141
0.0
142
1.0
143
1.0
 70
1024
 72
1
 73
0
 74
0
  7

 75
0
147
1.0
148
0.0
149
0.0
100
AcDbLayout
  1
Model
 70
0
 71
0
 10
0.0
 20
0.0
 11
297.0
 21
210.0
 12
0.0
 22
0.0
 32
0.0
 14
0.0
 24
0.0
 34
0.0
 15
0.0
 25
0.0
 35
0.0
146
0.0
 13
0.0
 23
0.0
 33
0.0
 16
1.0
 26
0.0
 36
0.0
 17
0.0
 27
1.0
 37
0.0
 76
0
330
211
345
0
346
0
  0
LAYOUT
  5
444
102
{ACAD_REACTORS
330
1A
102
}
100
AcDbPlotSettings
  1

  2
none_device
  4
ISO_A4_(297.00_x_210.00_MM)
  6

 40
0.0
 41
0.0
 42
0.0
 43
0.0
 44
297.0
 45
210.0
 46
0.0
 47
0.0
 48
0.0
 49
0.0
140
0.0
141
0.0
142
1.0
143
1.0
 70
0
 72
1
 73
0
 74
0
  7

 75
0
147
1.0
148
0.0
149
0.0
100
AcDbLayout
  1
Layout1
 70
0
 71
1
 10
0.0
 20
0.0
 11
297.0
 21
210.0
 12
0.0
 22
0.0
 32
0.0
 14
0.0
 24
0.0
 34
0.0
 15
0.0
 25
0.0
 35
0.0
146
0.0
 13
0.0
 23
0.0
 33
0.0
 16
1.0
 26
0.0
 36
0.0
 17
0.0
 27
1.0
 37
0.0
 76
0
330
212
345
0
346
0
  0
ENDSEC
  0
EOF
