  0
SECTION
  2
HEADER
  9
$ACADVER
  1
AC1021
  9
$DWGCODEPAGE
  3
ANSI_1252
  9
$EXTMAX
 10
297.0
 20
210.0
 30
0.0
  9
$EXTMIN
 10
0.0
 20
0.0
 30
0.0
  9
$LIMMIN
 10
0.0
 20
0.0
  9
$LIMMAX
 10
297.0
 20
210.0
  9
$VIEWCTR
 10
148.5
 20
105.0
  9
$VIEWSIZE
 40
210.0
  9
$CLAYER
  8
0
  9
$LTSCALE
 40
16.335
  9
$CELTYPE
  6
BYLAYER
  9
$DIMSCALE
 40
1.0
  9
$DIMASZ
 40
3.0
  9
$DIMEXO
 40
1.85625
  9
$DIMDLI
 40
11.286
  9
$DIMEXE
 40
5.346
  9
$DIMCEN
 40
2.673
  9
$DIMLFAC
 40
1.0
  9
$DIMBLK
  1
_FILLED
  9
$DIMTXT
 40
3.0
  9
$DIMTOL
 70
1
  9
$DIMLIM
 70
0
  9
$DIMTFAC
 40
1.0
  9
$DIMTP
 40
0.01
  9
$DIMTM
 40
0.01
  9
$PDMODE
 70
3
  9
$PDSIZE
 40
3.0
  9
$HANDSEED
  5
3B2
  9
$TILEMODE
 70
1
  9
$MEASUREMENT
 70
1
  9
$INSUNITS
 70
4
  0
ENDSEC
  0
SECTION
  2
CLASSES
  0
CLASS
  1
ACDBDICTIONARYWDFLT
  2
AcDbDictionaryWithDefault
  3
AutoCAD 2000
 90
0
 91
1
280
0
281
0
  0
CLASS
  1
ACDBPLACEHOLDER
  2
AcDbPlaceHolder
  3
AutoCAD 2000
 90
0
 91
1
280
0
281
0
  0
CLASS
  1
LAYOUT
  2
AcDbLayout
  3
AutoCAD 2000
 90
0
 91
0
280
0
281
0
  0
ENDSEC
  0
SECTION
  2
TABLES
  0
TABLE
  2
VPORT
  5
8
100
AcDbSymbolTable
 70
2
  0
VPORT
  5
1F4
100
AcDbSymbolTableRecord
100
AcDbViewportTableRecord
  2
*ACTIVE
 70
0
 10
0.0
 20
0.0
 11
1.0
 21
1.0
 12
148.5
 22
105.0
 13
0.0
 23
0.0
 14
1.0
 24
1.0
 15
0.0
 25
0.0
 16
0.0
 26
0.0
 36
1.0
 17
0.0
 27
0.0
 37
0.0
 40
210.0
 41
1.4142857143
 42
50.0
 43
0.0
 44
0.0
 50
0.0
 51
0.0
 71
0
 72
100
 73
1
 74
1
 75
0
 76
0
 77
0
 78
0
  0
ENDTAB
  0
TABLE
  2
LTYPE
  5
5
100
AcDbSymbolTable
 70
6
  0
LTYPE
  5
14
100
AcDbSymbolTableRecord
100
AcDbLinetypeTableRecord
  2
BYBLOCK
 70
0
  3

 72
65
 73
0
 40
0.0
  0
LTYPE
  5
15
100
AcDbSymbolTableRecord
100
AcDbLinetypeTableRecord
  2
BYLAYER
 70
0
  3

 72
65
 73
0
 40
0.0
  0
LTYPE
  5
16
100
AcDbSymbolTableRecord
100
AcDbLinetypeTableRecord
  2
CONTINUOUS
 70
64
  3
Solid line
 72
65
 73
0
 40
0.0
  0
LTYPE
  5
1F5
100
AcDbSymbolTableRecord
100
AcDbLinetypeTableRecord
  2
CENTER
 70
64
  3
____ _ ____ _ ____ _ ____ _ ____ _ ____ _ ____
 72
65
 73
4
 40
0.6
 49
0.375
 74
0
 49
-0.075
 74
0
 49
0.075
 74
0
 49
-0.075
 74
0
  0
LTYPE
  5
1F6
100
AcDbSymbolTableRecord
100
AcDbLinetypeTableRecord
  2
HIDDEN
 70
64
  3
- - - - - - - - - - - - - - - - - - - -
 72
65
 73
2
 40
0.2
 49
0.1
 74
0
 49
-0.1
 74
0
  0
LTYPE
  5
1F7
100
AcDbSymbolTableRecord
100
AcDbLinetypeTableRecord
  2
PHANTOM
 70
64
  3
_____ _ _ _____ _ _ _____ _ _ _____
 72
65
 73
6
 40
0.8
 49
0.45
 74
0
 49
-0.05
 74
0
 49
0.1
 74
0
 49
-0.05
 74
0
 49
0.1
 74
0
 49
-0.05
 74
0
  0
LTYPE
  5
1F8
100
AcDbSymbolTableRecord
100
AcDbLinetypeTableRecord
  2
DOT
 70
64
  3
. . . . . . . . . . . . . . . . . . . .
 72
65
 73
2
 40
0.2
 49
0.1
 74
0
 49
-0.1
 74
0
  0
LTYPE
  5
1F9
100
AcDbSymbolTableRecord
100
AcDbLinetypeTableRecord
  2
DASHED
 70
64
  3
- - - - - - - - - - - - - - - - - - - -
 72
65
 73
2
 40
0.2
 49
0.1
 74
0
 49
-0.1
 74
0
  0
ENDTAB
  0
TABLE
  2
LAYER
  5
2
100
AcDbSymbolTable
 70
36
  0
LAYER
  5
10
100
AcDbSymbolTableRecord
100
AcDbLayerTableRecord
  2
0
 70
0
 62
7
  6
CONTINUOUS
370
-3
390
F
  0
LAYER
  5
1FA
100
AcDbSymbolTableRecord
100
AcDbLayerTableRecord
  2
DEFAULT_1
 70
0
 62
7
  6
CENTER
370
-3
390
F
  0
LAYER
  5
1FB
100
AcDbSymbolTableRecord
100
AcDbLayerTableRecord
  2
DEFAULT_2
 70
0
 62
7
  6
HIDDEN
370
-3
390
F
  0
LAYER
  5
1FC
100
AcDbSymbolTableRecord
100
AcDbLayerTableRecord
  2
DEFAULT_3
 70
0
 62
7
  6
PHANTOM
370
-3
390
F
  0
LAYER
  5
1FD
100
AcDbSymbolTableRecord
100
AcDbLayerTableRecord
  2
ASSI
 70
0
 62
7
  6
CONTINUOUS
370
-3
390
F
  0
LAYER
  5
1FE
100
AcDbSymbolTableRecord
100
AcDbLayerTableRecord
  2
COORDINATE
 70
0
 62
7
  6
CONTINUOUS
370
-3
390
F
  0
LAYER
  5
1FF
100
AcDbSymbolTableRecord
100
AcDbLayerTableRecord
  2
COPY_PUBLISH
 70
0
 62
7
  6
CONTINUOUS
370
-3
390
F
  0
LAYER
  5
200
100
AcDbSymbolTableRecord
100
AcDbLayerTableRecord
  2
COSMETICI
 70
0
 62
7
  6
CONTINUOUS
370
-3
390
F
  0
LAYER
  5
201
100
AcDbSymbolTableRecord
100
AcDbLayerTableRecord
  2
CURVE
 70
0
 62
7
  6
CONTINUOUS
370
-3
390
F
  0
LAYER
  5
202
100
AcDbSymbolTableRecord
100
AcDbLayerTableRecord
  2
DRAFT
 70
0
 62
7
  6
CONTINUOUS
370
-3
390
F
  0
LAYER
  5
203
100
AcDbSymbolTableRecord
100
AcDbLayerTableRecord
  2
IMPORT_IGES
 70
0
 62
7
  6
CONTINUOUS
370
-3
390
F
  0
LAYER
  5
204
100
AcDbSymbolTableRecord
100
AcDbLayerTableRecord
  2
INTFCLR_1
 70
0
 62
7
  6
CONTINUOUS
370
-3
390
F
  0
LAYER
  5
205
100
AcDbSymbolTableRecord
100
AcDbLayerTableRecord
  2
INTFCLR_383
 70
0
 62
7
  6
CONTINUOUS
370
-3
390
F
  0
LAYER
  5
206
100
AcDbSymbolTableRecord
100
AcDbLayerTableRecord
  2
INTF_2
 70
0
 62
7
  6
CONTINUOUS
370
-3
390
F
  0
LAYER
  5
207
100
AcDbSymbolTableRecord
100
AcDbLayerTableRecord
  2
INTF_5
 70
0
 62
7
  6
CONTINUOUS
370
-3
390
F
  0
LAYER
  5
208
100
AcDbSymbolTableRecord
100
AcDbLayerTableRecord
  2
INTF_9
 70
0
 62
7
  6
CONTINUOUS
370
-3
390
F
  0
LAYER
  5
209
100
AcDbSymbolTableRecord
100
AcDbLayerTableRecord
  2
NOTE
 70
0
 62
7
  6
CONTINUOUS
370
-3
390
F
  0
LAYER
  5
20A
100
AcDbSymbolTableRecord
100
AcDbLayerTableRecord
  2
PIANI
 70
0
 62
7
  6
CONTINUOUS
370
-3
390
F
  0
LAYER
  5
20B
100
AcDbSymbolTableRecord
100
AcDbLayerTableRecord
  2
PUNTI
 70
0
 62
7
  6
CONTINUOUS
370
-3
390
F
  0
LAYER
  5
20C
100
AcDbSymbolTableRecord
100
AcDbLayerTableRecord
  2
RACCORDO
 70
0
 62
7
  6
CONTINUOUS
370
-3
390
F
  0
LAYER
  5
20D
100
AcDbSymbolTableRecord
100
AcDbLayerTableRecord
  2
SIMBOLI
 70
0
 62
7
  6
CONTINUOUS
370
-3
390
F
  0
LAYER
  5
20E
100
AcDbSymbolTableRecord
100
AcDbLayerTableRecord
  2
SMUSSO
 70
0
 62
7
  6
CONTINUOUS
370
-3
390
F
  0
LAYER
  5
20F
100
AcDbSymbolTableRecord
100
AcDbLayerTableRecord
  2
SNAPLINE
 70
0
 62
7
  6
CONTINUOUS
370
-3
390
F
  0
LAYER
  5
210
100
AcDbSymbolTableRecord
100
AcDbLayerTableRecord
  2
SUPERFICI
 70
0
 62
7
  6
CONTINUOUS
370
-3
390
F
  0
LAYER
  5
211
100
AcDbSymbolTableRecord
100
AcDbLayerTableRecord
  2
TRASH
 70
0
 62
7
  6
CONTINUOUS
370
-3
390
F
  0
ENDTAB
  0
TABLE
  2
STYLE
  5
3
100
AcDbSymbolTable
 70
1
  0
STYLE
  5
11
100
AcDbSymbolTableRecord
100
AcDbTextStyleTableRecord
  2
STANDARD
 70
0
 40
0.0
 41
0.8
 50
0.0
 71
0
 42
0.2
  3
txt
  4

  0
STYLE
  5
212
100
AcDbSymbolTableRecord
100
AcDbTextStyleTableRecord
  2
TEXTSTYLE_1
 70
0
 40
0.0
 41
0.8
 50
0.0
 71
0
 42
0.2
  3
gdt
  4

  0
ENDTAB
  0
TABLE
  2
VIEW
  5
6
100
AcDbSymbolTable
 70
0
  0
ENDTAB
  0
TABLE
  2
UCS
  5
7
100
AcDbSymbolTable
 70
0
  0
ENDTAB
  0
TABLE
  2
APPID
  5
9
100
AcDbSymbolTable
 70
1
  0
APPID
  5
213
100
AcDbSymbolTableRecord
100
AcDbRegAppTableRecord
  2
ACAD
 70
0
  0
ENDTAB
  0
TABLE
  2
BLOCK_RECORD
  5
1
100
AcDbSymbolTable
 70
0
  0
BLOCK_RECORD
  5
214
100
AcDbSymbolTableRecord
100
AcDbBlockTableRecord
  2
*Model_Space
  0
BLOCK_RECORD
  5
215
100
AcDbSymbolTableRecord
100
AcDbBlockTableRecord
  2
*Paper_Space
  0
BLOCK_RECORD
  5
216
100
AcDbSymbolTableRecord
100
AcDbBlockTableRecord
  2
_FILLED
  0
BLOCK_RECORD
  5
217
100
AcDbSymbolTableRecord
100
AcDbBlockTableRecord
  2
*D0
  0
BLOCK_RECORD
  5
218
100
AcDbSymbolTableRecord
100
AcDbBlockTableRecord
  2
*D1
  0
BLOCK_RECORD
  5
219
100
AcDbSymbolTableRecord
100
AcDbBlockTableRecord
  2
*D2
  0
ENDTAB
  0
TABLE
  2
DIMSTYLE
  5
A
100
AcDbSymbolTable
 70
1
100
AcDbDimStyleTable
 71
0
  0
DIMSTYLE
105
21A
100
AcDbSymbolTableRecord
100
AcDbDimStyleTableRecord
  2
STANDARD
 70
0
  3

  4

 40
1.0
 41
3.0
 42
0.0625
 43
0.38
 44
0.18
 45
0.0
 46
0.0
 47
0.01
 48
0.01
140
3.0
141
0.09
142
0.0
143
25.4
144
1.0
145
0.0
146
1.0
147
0.09
 71
1.0
 72
0.0
 73
0
 74
0
 75
0
 76
0
 77
1
 78
8
170
0
171
2
172
0
173
0
174
0
175
0
176
0
177
0
178
0
270
2
271
2
272
2
273
2
274
2
275
0
280
0
281
0
282
0
283
1
284
8
285
0
286
0
287
3
288
0
340
11
341
216
342
216
343
216
344
216
  0
DIMSTYLE
105
21B
100
AcDbSymbolTableRecord
100
AcDbDimStyleTableRecord
  2
DIMSTYLE_1
 70
0
  3

  4

 40
1.0
 41
3.0
 42
0.0625
 43
0.38
 44
0.18
 45
0.0
 46
0.0
 47
0.0
 48
0.0
140
3.0
141
0.09
142
0.0
143
25.4
144
1.0
145
0.0
146
1.0
147
0.09
 71
0.0
 72
0.0
 73
0
 74
0
 75
0
 76
0
 77
1
 78
8
170
0
171
2
172
0
173
0
174
0
175
0
176
0
177
0
178
0
270
2
271
1
272
1
273
2
274
2
275
0
280
0
281
0
282
0
283
1
284
8
285
0
286
0
287
3
288
0
340
11
341
216
342
216
343
216
344
216
  0
DIMSTYLE
105
21C
100
AcDbSymbolTableRecord
100
AcDbDimStyleTableRecord
  2
DIMSTYLE_2
 70
0
  3

  4

 40
1.0
 41
3.0
 42
0.0625
 43
0.38
 44
0.18
 45
0.0
 46
0.0
 47
0.0
 48
0.0
140
3.0
141
0.09
142
0.0
143
25.4
144
1.0
145
0.0
146
1.0
147
0.09
 71
0.0
 72
0.0
 73
0
 74
0
 75
0
 76
0
 77
1
 78
8
170
0
171
2
172
0
173
0
174
0
175
0
176
0
177
0
178
0
270
2
271
2
272
2
273
2
274
2
275
0
280
0
281
0
282
0
283
1
284
8
285
0
286
0
287
3
288
0
340
11
341
216
342
216
343
216
344
216
  0
ENDTAB
  0
ENDSEC
  0
SECTION
  2
BLOCKS
  0
BLOCK
  5
20
100
AcDbEntity
  8
0
100
AcDbBlockBegin
  2
*Model_Space
 70
0
 10
0.0
 20
0.0
 30
0.0
  3
*Model_Space
  1

  0
ENDBLK
  5
21
100
AcDbEntity
  8
0
100
AcDbBlockEnd
  0
BLOCK
  5
1C
100
AcDbEntity
  8
0
100
AcDbBlockBegin
  2
*Paper_Space
 70
0
 10
0.0
 20
0.0
 30
0.0
  3
*Paper_Space
  1

  0
ENDBLK
  5
1D
100
AcDbEntity
  8
0
100
AcDbBlockEnd
  0
BLOCK
  5
21D
100
AcDbEntity
  8
0
100
AcDbBlockBegin
  2
_FILLED
 70
64
 10
0.0
 20
0.0
  3
_FILLED
  1

  0
SOLID
  5
21E
100
AcDbEntity
  8
0
  6
BYBLOCK
 62
0
100
AcDbTrace
 10
0.0
 20
0.0
 11
-1.0
 21
0.3166666667
 12
-1.0
 22
-0.3166666667
 13
-1.0
 23
-0.3166666667
  0
ENDBLK
  5
21F
100
AcDbEntity
  8
0
  6
BYBLOCK
 62
0
100
AcDbBlockEnd
  0
BLOCK
  5
220
100
AcDbEntity
  8
0
100
AcDbBlockBegin
 62
7
  6
CONTINUOUS
  2
*D0
 70
65
 10
0.0
 20
0.0
  3
*D0
  1

  0
MTEXT
  5
221
100
AcDbEntity
  8
0
100
AcDbMText
 62
7
  6
CONTINUOUS
  7
STANDARD
 71
2
 72
1
 10
171.1413388857
 20
96.8824981876
 30
0.0
 11
0.0
 21
1.0
 31
0.0
 44
0.9
  1
44,5
 40
3.0
 41
8.5714285714
  0
LINE
  5
222
100
AcDbEntity
  8
0
100
AcDbLine
 62
7
  6
CONTINUOUS
 10
166.891852722
 20
119.1405597614
 11
176.3913388857
 21
119.1405597614
  0
LINE
  5
223
100
AcDbEntity
  8
0
100
AcDbLine
 62
7
  6
CONTINUOUS
 10
166.8626110862
 20
74.6244366137
 11
176.3913388857
 21
74.6244366137
  0
LINE
  5
224
100
AcDbEntity
  8
0
100
AcDbLine
 62
7
  6
CONTINUOUS
 10
174.8913388857
 20
119.1405597614
 11
174.8913388857
 21
96.8824981876
  0
LINE
  5
225
100
AcDbEntity
  8
0
100
AcDbLine
 62
7
  6
CONTINUOUS
 10
174.8913388857
 20
74.6244366137
 11
174.8913388857
 21
96.8824981876
  0
INSERT
  5
226
100
AcDbEntity
  8
0
100
AcDbBlockReference
 62
7
  6
CONTINUOUS
  2
_FILLED
 10
174.8913388857
 20
119.1405597614
 41
3.0
 42
3.0
 43
3.0
 50
90.0
  0
INSERT
  5
227
100
AcDbEntity
  8
0
100
AcDbBlockReference
 62
7
  6
CONTINUOUS
  2
_FILLED
 10
174.8913388857
 20
74.6244366137
 41
3.0
 42
3.0
 43
3.0
 50
270.0
  0
ENDBLK
  5
228
100
AcDbEntity
  8
0
  6
BYBLOCK
 62
0
100
AcDbBlockEnd
  0
BLOCK
  5
229
100
AcDbEntity
  8
0
100
AcDbBlockBegin
 62
7
  6
CONTINUOUS
  2
*D1
 70
65
 10
0.0
 20
0.0
  3
*D1
  1

  0
MTEXT
  5
22A
100
AcDbEntity
  8
0
100
AcDbMText
 62
7
  6
CONTINUOUS
  7
STANDARD
 71
2
 72
1
 10
155.7913388857
 20
130.9691714304
 30
0.0
 11
1.0
 21
0.0
 31
0.0
 44
0.9
  1
22,2
 40
3.0
 41
8.7857142857
  0
LINE
  5
22B
100
AcDbEntity
  8
0
100
AcDbLine
 62
7
  6
CONTINUOUS
 10
166.8913388857
 20
106.3691714304
 11
166.8913388857
 21
128.7191714304
  0
LINE
  5
22C
100
AcDbEntity
  8
0
100
AcDbLine
 62
7
  6
CONTINUOUS
 10
144.6913388857
 20
106.3691714304
 11
144.6913388857
 21
128.7191714304
  0
LINE
  5
22D
100
AcDbEntity
  8
0
100
AcDbLine
 62
7
  6
CONTINUOUS
 10
166.8913388857
 20
127.2191714304
 11
155.7913388857
 21
127.2191714304
  0
LINE
  5
22E
100
AcDbEntity
  8
0
100
AcDbLine
 62
7
  6
CONTINUOUS
 10
144.6913388857
 20
127.2191714304
 11
155.7913388857
 21
127.2191714304
  0
INSERT
  5
22F
100
AcDbEntity
  8
0
100
AcDbBlockReference
 62
7
  6
CONTINUOUS
  2
_FILLED
 10
166.8913388857
 20
127.2191714304
 41
3.0
 42
3.0
 43
3.0
  0
INSERT
  5
230
100
AcDbEntity
  8
0
100
AcDbBlockReference
 62
7
  6
CONTINUOUS
  2
_FILLED
 10
144.6913388857
 20
127.2191714304
 41
3.0
 42
3.0
 43
3.0
 50
180.0
  0
ENDBLK
  5
231
100
AcDbEntity
  8
0
  6
BYBLOCK
 62
0
100
AcDbBlockEnd
  0
BLOCK
  5
232
100
AcDbEntity
  8
0
100
AcDbBlockBegin
 62
7
  6
CONTINUOUS
  2
*D2
 70
65
 10
0.0
 20
0.0
  3
*D2
  1

  0
MTEXT
  5
233
100
AcDbEntity
  8
0
100
AcDbMText
 62
7
  6
CONTINUOUS
  7
STANDARD
 71
2
 72
1
 10
127.5964718526
 20
130.9691714304
 30
0.0
 11
1.0
 21
0.0
 31
0.0
 44
0.9
  1
10,7
 40
3.0
 41
8.1428571429
  0
LINE
  5
234
100
AcDbEntity
  8
0
100
AcDbLine
 62
7
  6
CONTINUOUS
 10
132.9672947456
 20
110.4159961432
 11
132.9672947456
 21
128.7191714304
  0
LINE
  5
235
100
AcDbEntity
  8
0
100
AcDbLine
 62
7
  6
CONTINUOUS
 10
122.2256489596
 20
99.27140525
 11
122.2256489596
 21
128.7191714304
  0
LINE
  5
236
100
AcDbEntity
  8
0
100
AcDbLine
 62
7
  6
CONTINUOUS
 10
132.9672947456
 20
127.2191714304
 11
136.9672947456
 21
127.2191714304
  0
LINE
  5
237
100
AcDbEntity
  8
0
100
AcDbLine
 62
7
  6
CONTINUOUS
 10
136.9672947456
 20
127.2191714304
 11
127.5964718526
 21
127.2191714304
  0
LINE
  5
238
100
AcDbEntity
  8
0
100
AcDbLine
 62
7
  6
CONTINUOUS
 10
122.2256489596
 20
127.2191714304
 11
118.2256489596
 21
127.2191714304
  0
LINE
  5
239
100
AcDbEntity
  8
0
100
AcDbLine
 62
7
  6
CONTINUOUS
 10
118.2256489596
 20
127.2191714304
 11
127.5964718526
 21
127.2191714304
  0
INSERT
  5
23A
100
AcDbEntity
  8
0
100
AcDbBlockReference
 62
7
  6
CONTINUOUS
  2
_FILLED
 10
132.9672947456
 20
127.2191714304
 41
3.0
 42
3.0
 43
3.0
 50
180.0
  0
INSERT
  5
23B
100
AcDbEntity
  8
0
100
AcDbBlockReference
 62
7
  6
CONTINUOUS
  2
_FILLED
 10
122.2256489596
 20
127.2191714304
 41
3.0
 42
3.0
 43
3.0
  0
ENDBLK
  5
23C
100
AcDbEntity
  8
0
  6
BYBLOCK
 62
0
100
AcDbBlockEnd
  0
ENDSEC
  0
SECTION
  2
ENTITIES
  0
DIMENSION
  5
23D
100
AcDbEntity
  8
0
100
AcDbDimension
 62
7
  6
CONTINUOUS
  2
*D0
 10
174.8913388857
 20
74.6244366137
 11
174.5616543834
 21
93.051083915
 70
160
 71
2
 42
44.5161231477
  3
DIMSTYLE_1
100
AcDbAlignedDimension
 13
166.891852722
 23
119.1405597614
 14
166.8626110862
 24
74.6244366137
 50
270.0
100
AcDbRotatedDimension
  0
DIMENSION
  5
23E
100
AcDbEntity
  8
0
100
AcDbDimension
 62
7
  6
CONTINUOUS
  2
*D1
 10
144.6913388857
 20
127.2191714304
 11
151.3984817428
 21
129.4691714304
 70
160
 71
2
 42
22.2
  3
DIMSTYLE_2
100
AcDbAlignedDimension
 13
166.8913388857
 23
106.3691714304
 14
144.6913388857
 24
106.3691714304
 50
180.0
100
AcDbRotatedDimension
  0
DIMENSION
  5
23F
100
AcDbEntity
  8
0
100
AcDbDimension
 62
7
  6
CONTINUOUS
  2
*D2
 10
122.2256489596
 20
127.2191714304
 11
123.5250432812
 21
129.4691714304
 70
160
 71
2
 42
10.741645786
  3
DIMSTYLE_1
100
AcDbAlignedDimension
 13
132.9672947456
 23
110.4159961432
 14
122.2256489596
 24
99.27140525
 50
180.0
100
AcDbRotatedDimension
  0
LINE
  5
240
100
AcDbEntity
  8
RACCORDO
100
AcDbLine
 62
7
  6
CONTINUOUS
 10
153.4547363453
 20
74.64562901
 11
153.2215194198
 21
74.6244366137
  0
LWPOLYLINE
  5
241
100
AcDbEntity
  8
RACCORDO
100
AcDbPolyline
 62
253
  6
CONTINUOUS
 90
16
 70
0
 10
166.2776275907
 20
74.7945202314
 10
166.3298295605
 20
74.7973223132
 10
166.3814604706
 20
74.8055550034
 10
166.4319556129
 20
74.8191282258
 10
166.480762729
 20
74.8378935035
 10
166.5273479821
 20
74.8616455583
 10
166.5712018065
 20
74.8901245339
 10
166.6118445775
 20
74.9230188913
 10
166.6488318227
 20
74.9599688227
 10
166.6817590283
 20
75.0005701396
 10
166.7102661079
 20
75.0443787288
 10
166.7340413433
 20
75.0909154338
 10
166.7528247692
 20
75.139671277
 10
166.7664110092
 20
75.1901130099
 10
166.7746515264
 20
75.2416889433
 10
166.7774562532
 20
75.2938349987
  0
LINE
  5
242
100
AcDbEntity
  8
RACCORDO
100
AcDbLine
 62
253
  6
CONTINUOUS
 10
145.3050501796
 20
74.7945202295
 11
148.6992842673
 21
74.8046905913
  0
LINE
  5
243
100
AcDbEntity
  8
RACCORDO
100
AcDbLine
 62
253
  6
CONTINUOUS
 10
148.6992842673
 20
74.8046905913
 11
152.0948131725
 21
74.8109305823
  0
LINE
  5
244
100
AcDbEntity
  8
RACCORDO
100
AcDbLine
 62
253
  6
CONTINUOUS
 10
152.0948131725
 20
74.8109305823
 11
155.4922360853
 21
74.8132423321
  0
LINE
  5
245
100
AcDbEntity
  8
RACCORDO
100
AcDbLine
 62
7
  6
CONTINUOUS
 10
166.3626110862
 20
74.6244366137
 11
158.3611583515
 21
74.6244366137
  0
LINE
  5
246
100
AcDbEntity
  8
RACCORDO
100
AcDbLine
 62
7
  6
CONTINUOUS
 10
153.2215194198
 20
74.6244366137
 11
145.2200666851
 21
74.6244366137
  0
LINE
  5
247
100
AcDbEntity
  8
RACCORDO
100
AcDbLine
 62
7
  6
CONTINUOUS
 10
157.8681338049
 20
74.6534985733
 11
153.7145439664
 21
74.6534985733
  0
LINE
  5
248
100
AcDbEntity
  8
RACCORDO
100
AcDbLine
 62
253
  6
CONTINUOUS
 10
155.4922360853
 20
74.8132423321
 11
158.8825999168
 21
74.8116335631
  0
LINE
  5
249
100
AcDbEntity
  8
RACCORDO
100
AcDbLine
 62
253
  6
CONTINUOUS
 10
158.8825999168
 20
74.8116335631
 11
162.3759330993
 21
74.8058725105
  0
LWPOLYLINE
  5
24A
100
AcDbEntity
  8
RACCORDO
100
AcDbPolyline
 62
253
  6
CONTINUOUS
 90
3
 70
0
 10
162.3759330993
 20
74.8058725105
 10
165.4542312783
 20
74.7973206932
 10
166.2776275921
 20
74.7945202285
  0
LWPOLYLINE
  5
24B
100
AcDbEntity
  8
RACCORDO
100
AcDbPolyline
 62
253
  6
CONTINUOUS
 90
16
 70
0
 10
145.3050501796
 20
74.7945202295
 10
145.2528492095
 20
74.7973222046
 10
145.2012191678
 20
74.8055546016
 10
145.1507247389
 20
74.8191273818
 10
145.1019181864
 20
74.837892098
 10
145.0553333137
 20
74.8616435182
 10
145.0114796253
 20
74.8901218701
 10
144.9708367544
 20
74.9230156823
 10
144.9338492171
 20
74.9599651912
 10
144.9009215507
 20
75.0005662756
 10
144.8724138891
 20
75.0443748761
 10
144.8486380242
 20
75.0909118529
 10
144.8298539954
 20
75.1396682252
 10
144.8162672461
 20
75.1901107386
 10
144.8080263762
 20
75.241687697
 10
144.8052215171
 20
75.2938349968
  0
LINE
  5
24C
100
AcDbEntity
  8
RACCORDO
100
AcDbLine
 62
7
  6
CONTINUOUS
 10
158.127941426
 20
74.64562901
 11
158.3611583515
 21
74.6244366137
  0
LWPOLYLINE
  5
24D
100
AcDbEntity
  8
RACCORDO
100
AcDbPolyline
 62
253
  6
CONTINUOUS
 90
13
 70
0
 10
166.2939245376
 20
75.9418030539
 10
166.3549217171
 20
75.9422113374
 10
166.4144854502
 20
75.9429369352
 10
166.4717143431
 20
75.9439688666
 10
166.5257423358
 20
75.945291515
 10
166.5757518084
 20
75.9468848644
 10
166.6209859544
 20
75.9487248025
 10
166.6607602333
 20
75.9507834849
 10
166.6944727306
 20
75.953029757
 10
166.7216132661
 20
75.9554296256
 10
166.7417711148
 20
75.9579467727
 10
166.7546412227
 20
75.9605431057
 10
166.7600288231
 20
75.9631793335
  0
LINE
  5
24E
100
AcDbEntity
  8
RACCORDO
100
AcDbLine
 62
253
  6
CONTINUOUS
 10
145.2887532275
 20
75.9418030683
 11
150.7305402428
 21
75.9473331685
  0
LINE
  5
24F
100
AcDbEntity
  8
RACCORDO
100
AcDbLine
 62
253
  6
CONTINUOUS
 10
150.7305402428
 20
75.9473331685
 11
156.1758809873
 21
75.9489928989
  0
LINE
  5
250
100
AcDbEntity
  8
RACCORDO
100
AcDbLine
 62
253
  6
CONTINUOUS
 10
156.1758809873
 20
75.9489928989
 11
160.9600067876
 21
75.9472641615
  0
LINE
  5
251
100
AcDbEntity
  8
RACCORDO
100
AcDbLine
 62
253
  6
CONTINUOUS
 10
160.9600067876
 20
75.9472641615
 11
166.2939245378
 21
75.9418030732
  0
LWPOLYLINE
  5
252
100
AcDbEntity
  8
RACCORDO
100
AcDbPolyline
 62
253
  6
CONTINUOUS
 90
13
 70
0
 10
145.2887545657
 20
75.9418039043
 10
145.2277583141
 20
75.9422121686
 10
145.1681954242
 20
75.9429377321
 10
145.1109672485
 20
75.9439696152
 10
145.0569398089
 20
75.9452922024
 10
145.0069306911
 20
75.9468854796
 10
144.9616966725
 20
75.9487253367
 10
144.9219222699
 20
75.9507839318
 10
144.8882093808
 20
75.9530301124
 10
144.8610681752
 20
75.9554298877
 10
144.8409093753
 20
75.9579469423
 10
144.8280380398
 20
75.9605431861
 10
144.8226489479
 20
75.9631793308
  0
LWPOLYLINE
  5
253
100
AcDbEntity
  8
RACCORDO
100
AcDbPolyline
 62
253
  6
CONTINUOUS
 90
7
 70
0
 10
145.3391527615
 20
118.8437007801
 10
145.3379306097
 20
118.8345078536
 10
145.3366430395
 20
118.8173105991
 10
145.3353343441
 20
118.7922298519
 10
145.3340809338
 20
118.7594407238
 10
145.3328924875
 20
118.7191678502
 10
145.3305736351
 20
118.6172973806
  0
LWPOLYLINE
  5
254
100
AcDbEntity
  8
RACCORDO
100
AcDbPolyline
 62
253
  6
CONTINUOUS
 90
6
 70
0
 10
145.2987462447
 20
74.91906351
 10
145.2999429976
 20
74.8787872184
 10
145.3012050478
 20
74.8459953052
 10
145.3025226542
 20
74.8209124538
 10
145.303819179
 20
74.8037138079
 10
145.3050501796
 20
74.7945202295
  0
LINE
  5
255
100
AcDbEntity
  8
RACCORDO
100
AcDbLine
 62
253
  6
CONTINUOUS
 10
144.8503395214
 20
118.1766583215
 11
144.8524597925
 21
118.095154828
  0
LINE
  5
256
100
AcDbEntity
  8
RACCORDO
100
AcDbLine
 62
253
  6
CONTINUOUS
 10
145.2964115862
 20
75.0209424309
 11
145.2987462447
 21
74.91906351
  0
LINE
  5
257
100
AcDbEntity
  8
RACCORDO
100
AcDbLine
 62
253
  6
CONTINUOUS
 10
144.8524597925
 20
118.095154828
 11
144.8542074999
 21
118.0013137573
  0
LINE
  5
258
100
AcDbEntity
  8
RACCORDO
100
AcDbLine
 62
253
  6
CONTINUOUS
 10
145.2933608769
 20
75.2215687839
 11
145.2964115862
 21
75.0209424309
  0
LINE
  5
259
100
AcDbEntity
  8
RACCORDO
100
AcDbLine
 62
253
  6
CONTINUOUS
 10
144.8542074999
 20
118.0013137573
 11
144.8555250893
 21
117.8978175263
  0
LINE
  5
25A
100
AcDbEntity
  8
RACCORDO
100
AcDbLine
 62
253
  6
CONTINUOUS
 10
145.290337334
 20
75.5585646295
 11
145.2933608769
 21
75.2215687839
  0
LINE
  5
25B
100
AcDbEntity
  8
RACCORDO
100
AcDbLine
 62
253
  6
CONTINUOUS
 10
144.8555250893
 20
117.8978175263
 11
144.8563769475
 21
117.7886886291
  0
LINE
  5
25C
100
AcDbEntity
  8
RACCORDO
100
AcDbLine
 62
7
  6
CONTINUOUS
 10
144.718983186
 20
75.1212399856
 11
144.6913388857
 21
83.7191714304
  0
LINE
  5
25D
100
AcDbEntity
  8
RACCORDO
100
AcDbLine
 62
253
  6
CONTINUOUS
 10
145.2887532188
 20
75.9418030687
 11
145.290337334
 21
75.5585646295
  0
LINE
  5
25E
100
AcDbEntity
  8
RACCORDO
100
AcDbLine
 62
253
  6
CONTINUOUS
 10
144.8563769475
 20
117.7886886291
 11
144.8632199009
 21
110.8003350653
  0
LINE
  5
25F
100
AcDbEntity
  8
RACCORDO
100
AcDbLine
 62
7
  6
CONTINUOUS
 10
144.6913388857
 20
83.7191714304
 11
144.6913388857
 21
96.2863008663
  0
LINE
  5
260
100
AcDbEntity
  8
RACCORDO
100
AcDbLine
 62
7
  6
CONTINUOUS
 10
144.6913388857
 20
97.3406970663
 11
144.6913388857
 21
105.8691714304
  0
LINE
  5
261
100
AcDbEntity
  8
DRAFT
100
AcDbLine
 62
7
  6
CONTINUOUS
 10
144.6913388857
 20
105.8691714304
 11
144.6913388857
 21
109.9691714304
  0
LINE
  5
262
100
AcDbEntity
  8
RACCORDO
100
AcDbLine
 62
7
  6
CONTINUOUS
 10
144.6913388857
 20
109.9691714304
 11
144.6913388857
 21
118.6405595263
  0
LINE
  5
263
100
AcDbEntity
  8
RACCORDO
100
AcDbLine
 62
253
  6
CONTINUOUS
 10
144.8632199009
 20
110.8003350653
 11
144.8684900715
 21
97.3997354688
  0
LINE
  5
264
100
AcDbEntity
  8
DRAFT
100
AcDbLine
 62
7
  6
CONTINUOUS
 10
145.8913388857
 20
96.6591714304
 11
145.8913388857
 21
96.6862247205
  0
LINE
  5
265
100
AcDbEntity
  8
RACCORDO
100
AcDbLine
 62
253
  6
CONTINUOUS
 10
145.2912276006
 20
96.2373106999
 11
145.2887532275
 21
75.9418030683
  0
LINE
  5
266
100
AcDbEntity
  8
RACCORDO
100
AcDbLine
 62
253
  6
CONTINUOUS
 10
144.8343706707
 20
96.2386332875
 11
144.8321711491
 21
87.7562338554
  0
LINE
  5
267
100
AcDbEntity
  8
RACCORDO
100
AcDbLine
 62
253
  6
CONTINUOUS
 10
144.8321711491
 20
87.7562338554
 11
144.8275327391
 21
80.9320084745
  0
LINE
  5
268
100
AcDbEntity
  8
RACCORDO
100
AcDbLine
 62
253
  6
CONTINUOUS
 10
145.3235431404
 20
117.8914230899
 11
145.325461365
 21
97.4010595165
  0
LINE
  5
269
100
AcDbEntity
  8
RACCORDO
100
AcDbLine
 62
253
  6
CONTINUOUS
 10
144.8275327391
 20
80.9320084745
 11
144.8222749439
 21
75.8495721833
  0
LINE
  5
26A
100
AcDbEntity
  8
RACCORDO
100
AcDbLine
 62
253
  6
CONTINUOUS
 10
145.325882023
 20
118.2563497072
 11
145.3235431404
 21
117.8914230899
  0
LINE
  5
26B
100
AcDbEntity
  8
RACCORDO
100
AcDbLine
 62
253
  6
CONTINUOUS
 10
144.8222749439
 20
75.8495721833
 11
144.8214231868
 21
75.740437267
  0
LINE
  5
26C
100
AcDbEntity
  8
RACCORDO
100
AcDbLine
 62
253
  6
CONTINUOUS
 10
145.3285015523
 20
118.489365968
 11
145.325882023
 21
118.2563497072
  0
LINE
  5
26D
100
AcDbEntity
  8
RACCORDO
100
AcDbLine
 62
253
  6
CONTINUOUS
 10
144.8214231868
 20
75.740437267
 11
144.8201056441
 21
75.6369344173
  0
LINE
  5
26E
100
AcDbEntity
  8
RACCORDO
100
AcDbLine
 62
253
  6
CONTINUOUS
 10
145.3305736351
 20
118.6172973806
 11
145.3285015523
 21
118.489365968
  0
LINE
  5
26F
100
AcDbEntity
  8
RACCORDO
100
AcDbLine
 62
253
  6
CONTINUOUS
 10
144.8201056441
 20
75.6369344173
 11
144.818357926
 21
75.5430866578
  0
LWPOLYLINE
  5
270
100
AcDbEntity
  8
RACCORDO
100
AcDbPolyline
 62
253
  6
CONTINUOUS
 90
10
 70
0
 10
144.818357926
 20
75.5430866578
 10
144.8162375906
 20
75.4615768773
 10
144.815044351
 20
75.4258037035
 10
144.8137871016
 20
75.3940549372
 10
144.81246372
 20
75.3664127687
 10
144.8110763288
 20
75.3427950078
 10
144.8096553687
 20
75.3236804688
 10
144.8082109869
 20
75.3092287563
 10
144.8067330364
 20
75.2992802657
 10
144.8052215171
 20
75.2938349968
  0
LWPOLYLINE
  5
271
100
AcDbEntity
  8
RACCORDO
100
AcDbPolyline
 62
253
  6
CONTINUOUS
 90
13
 70
0
 10
145.3256049354
 20
96.6377714514
 10
145.3211389613
 20
96.6339303214
 10
145.316748674
 20
96.6233755826
 10
145.3125084774
 20
96.6062861104
 10
145.3084902319
 20
96.5829515271
 10
145.3047620362
 20
96.5537672936
 10
145.3013870738
 20
96.519228007
 10
145.2984225414
 20
96.4799190187
 10
145.2959186802
 20
96.4365065143
 10
145.2939179241
 20
96.3897262234
 10
145.2924541808
 20
96.3403709507
 10
145.2915522569
 20
96.2892771404
 10
145.2912274377
 20
96.2373107
  0
LWPOLYLINE
  5
272
100
AcDbEntity
  8
RACCORDO
100
AcDbPolyline
 62
253
  6
CONTINUOUS
 90
13
 70
0
 10
145.3597472204
 20
97.0005973222
 10
145.3552933937
 20
97.0044390958
 10
145.3509150489
 20
97.0149943844
 10
145.3466863868
 20
97.0320843054
 10
145.3426790716
 20
97.0554192325
 10
145.3389610162
 20
97.0846037038
 10
145.3355952317
 20
97.1191431242
 10
145.332638759
 20
97.1584521473
 10
145.3301417026
 20
97.2018645949
 10
145.3281463812
 20
97.2486447475
 10
145.3266866105
 20
97.2979998124
 10
145.3257871303
 20
97.3490933593
 10
145.3254631847
 20
97.4010594955
  0
LINE
  5
273
100
AcDbEntity
  8
RACCORDO
100
AcDbLine
 62
7
  6
CONTINUOUS
 10
158.0893403142
 20
119.1405597614
 11
158.0464840153
 21
119.0118863096
  0
LWPOLYLINE
  5
274
100
AcDbEntity
  8
RACCORDO
100
AcDbPolyline
 62
253
  6
CONTINUOUS
 90
19
 70
0
 10
150.7400346407
 20
96.2342014163
 10
150.7860823479
 20
96.1043528948
 10
150.8405887192
 20
95.9790726565
 10
150.9035540098
 20
95.8583606754
 10
150.9754011038
 20
95.7416018935
 10
151.0557077382
 20
95.6294113272
 10
151.1432064381
 20
95.5236340753
 10
151.2379606998
 20
95.4244436076
 10
151.3399076645
 20
95.3316664565
 10
151.447590214
 20
95.2466273346
 10
151.5610800611
 20
95.1694277019
 10
151.6803060195
 20
95.0999661376
 10
151.8035964527
 20
95.0392630489
 10
151.931114265
 20
94.9874246511
 10
152.0626968706
 20
94.9443447952
 10
152.1961841705
 20
94.9107253503
 10
152.3308560862
 20
94.886800299
 10
152.4674326956
 20
94.8723357366
 10
152.6059140022
 20
94.867331704
  0
LWPOLYLINE
  5
275
100
AcDbEntity
  8
RACCORDO
100
AcDbPolyline
 62
253
  6
CONTINUOUS
 90
9
 70
0
 10
144.839324099
 20
118.3443860127
 10
144.8408355151
 20
118.3389411926
 10
144.8423133679
 20
118.328993545
 10
144.8437576574
 20
118.31454307
 10
144.8451785291
 20
118.2954301989
 10
144.8465658374
 20
118.2718145002
 10
144.8478891463
 20
118.2441746802
 10
144.8491463336
 20
118.2124285615
 10
144.8503395214
 20
118.1766583215
  0
LINE
  5
276
100
AcDbEntity
  8
RACCORDO
100
AcDbLine
 62
253
  6
CONTINUOUS
 10
152.6073297851
 20
98.5712065285
 11
152.6062842394
 21
98.6676707832
  0
LINE
  5
277
100
AcDbEntity
  8
RACCORDO
100
AcDbLine
 62
253
  6
CONTINUOUS
 10
152.6163391975
 20
95.2941714304
 11
152.6164946453
 21
95.2692355528
  0
LINE
  5
278
100
AcDbEntity
  8
RACCORDO
100
AcDbLine
 62
253
  6
CONTINUOUS
 10
152.6062842394
 20
98.6676707832
 11
152.6059205351
 21
98.7710116949
  0
LINE
  5
279
100
AcDbEntity
  8
RACCORDO
100
AcDbLine
 62
253
  6
CONTINUOUS
 10
152.6062780253
 20
94.970670366
 11
152.6059140023
 21
94.867331704
  0
LINE
  5
27A
100
AcDbEntity
  8
RACCORDO
100
AcDbLine
 62
253
  6
CONTINUOUS
 10
152.6163388857
 20
98.3441714304
 11
152.6164968096
 21
98.3691073769
  0
LWPOLYLINE
  5
27B
100
AcDbEntity
  8
RACCORDO
100
AcDbPolyline
 62
7
  6
CONTINUOUS
 90
10
 70
0
 10
151.1572914676
 20
97.2627992381
 10
151.1562045997
 20
97.2592809058
 10
151.1550843804
 20
97.2557686249
 10
151.1539307533
 20
97.2522621118
 10
151.1527442147
 20
97.2487618911
 10
151.1515241554
 20
97.2452668717
 10
151.1502688806
 20
97.2417743326
 10
151.1489778109
 20
97.2382831603
 10
151.147651463
 20
97.2347938634
 10
151.1462898057
 20
97.2313061392
  0
LWPOLYLINE
  5
27C
100
AcDbEntity
  8
RACCORDO
100
AcDbPolyline
 62
253
  6
CONTINUOUS
 90
13
 70
0
 10
151.138178133
 20
97.2836708399
 10
151.1234234847
 20
97.2441467511
 10
151.1045878832
 20
97.2063960661
 10
151.0818807945
 20
97.170838783
 10
151.0555546619
 20
97.1378704003
 10
151.0259023723
 20
97.1078578699
 10
150.9932541118
 20
97.081135405
 10
150.9579732374
 20
97.05800031
 10
150.920452183
 20
97.0387098255
 10
150.8811084552
 20
97.0234785225
 10
150.8403797896
 20
97.0124757721
 10
150.7987192698
 20
97.0058238853
 10
150.7565903535
 20
97.0035967793
  0
LWPOLYLINE
  5
27D
100
AcDbEntity
  8
RACCORDO
100
AcDbPolyline
 62
253
  6
CONTINUOUS
 90
13
 70
0
 10
150.7565906489
 20
96.6347464839
 10
150.7549643904
 20
96.6307570227
 10
150.7527251584
 20
96.6201278187
 10
150.7502824784
 20
96.6032471953
 10
150.7483940024
 20
96.5801326162
 10
150.7468827319
 20
96.5508536847
 10
150.7449260764
 20
96.5161620542
 10
150.7433190229
 20
96.4769485123
 10
150.7425021706
 20
96.4335612011
 10
150.7413293698
 20
96.3866335435
 10
150.7398165921
 20
96.3370676627
 10
150.7391804947
 20
96.285907113
 10
150.7400346407
 20
96.2342014163
  0
LINE
  5
27E
100
AcDbEntity
  8
RACCORDO
100
AcDbLine
 62
253
  6
CONTINUOUS
 10
150.7565906436
 20
96.6347464839
 11
150.7746050775
 21
96.6591714304
  0
LINE
  5
27F
100
AcDbEntity
  8
RACCORDO
100
AcDbLine
 62
253
  6
CONTINUOUS
 10
151.138178447
 20
96.3546723642
 11
151.1572914676
 21
96.3755436226
  0
LINE
  5
280
100
AcDbEntity
  8
RACCORDO
100
AcDbLine
 62
253
  6
CONTINUOUS
 10
144.8684900715
 20
97.3997354688
 11
144.6913388857
 21
97.3406970663
  0
LINE
  5
281
100
AcDbEntity
  8
RACCORDO
100
AcDbLine
 62
253
  6
CONTINUOUS
 10
145.2683530014
 20
96.9997506996
 11
145.0913845977
 21
96.9407732121
  0
LINE
  5
282
100
AcDbEntity
  8
DRAFT
100
AcDbLine
 62
7
  6
CONTINUOUS
 10
145.8494414111
 20
96.9407732121
 11
145.964659466
 21
96.9791714304
  0
LINE
  5
283
100
AcDbEntity
  8
RACCORDO
100
AcDbLine
 62
253
  6
CONTINUOUS
 10
144.6913388857
 20
96.2863008663
 11
144.8343706707
 21
96.2386332875
  0
LINE
  5
284
100
AcDbEntity
  8
RACCORDO
100
AcDbLine
 62
253
  6
CONTINUOUS
 10
145.0913845977
 20
96.6862247205
 11
145.2342336006
 21
96.6386180568
  0
LINE
  5
285
100
AcDbEntity
  8
RACCORDO
100
AcDbLine
 62
253
  6
CONTINUOUS
 10
151.1572914676
 20
97.2627992381
 11
151.1381781334
 21
97.2836708412
  0
LINE
  5
286
100
AcDbEntity
  8
RACCORDO
100
AcDbLine
 62
253
  6
CONTINUOUS
 10
150.7746050775
 20
96.9791714304
 11
150.7565903481
 21
97.0035967793
  0
LWPOLYLINE
  5
287
100
AcDbEntity
  8
RACCORDO
100
AcDbPolyline
 62
7
  6
CONTINUOUS
 90
13
 70
0
 10
151.1462897681
 20
96.4070366866
 10
151.1312710157
 20
96.4404539576
 10
151.1133123962
 20
96.4722220824
 10
151.0926025206
 20
96.5021075215
 10
151.0693753341
 20
96.529862551
 10
151.0438247085
 20
96.5553171824
 10
151.0160805117
 20
96.5783600677
 10
150.9863629849
 20
96.5987959577
 10
150.954914091
 20
96.6164600826
 10
150.9218830477
 20
96.6312688564
 10
150.8874859485
 20
96.6430810782
 10
150.8520179682
 20
96.65172669
 10
150.8157529373
 20
96.6570820841
  0
LWPOLYLINE
  5
288
100
AcDbEntity
  8
RACCORDO
100
AcDbPolyline
 62
253
  6
CONTINUOUS
 90
13
 70
0
 10
150.7565903535
 20
97.0035967793
 10
150.7549650588
 20
97.0075858207
 10
150.752727031
 20
97.0182140108
 10
150.7502856181
 20
97.0350932729
 10
150.7483981785
 20
97.0582063087
 10
150.7468877235
 20
97.0874836924
 10
150.7449319107
 20
97.122174118
 10
150.7433256235
 20
97.1613871961
 10
150.7425092606
 20
97.2047748738
 10
150.7413368075
 20
97.2517036254
 10
150.7398243026
 20
97.3012712671
 10
150.7391883615
 20
97.3524342743
 10
150.7400426074
 20
97.4041430132
  0
LWPOLYLINE
  5
289
100
AcDbEntity
  8
RACCORDO
100
AcDbPolyline
 62
7
  6
CONTINUOUS
 90
10
 70
0
 10
151.1462897803
 20
96.40703669
 10
151.1476514503
 20
96.403548976
 10
151.1489778075
 20
96.4000596872
 10
151.1502688833
 20
96.3965685206
 10
151.1515241598
 20
96.3930759843
 10
151.1527442175
 20
96.3895809654
 10
151.1539307546
 20
96.3860807452
 10
151.1550843812
 20
96.3825742333
 10
151.1562046
 20
96.3790619537
 10
151.1572914675
 20
96.3755436228
  0
LWPOLYLINE
  5
28A
100
AcDbEntity
  8
RACCORDO
100
AcDbPolyline
 62
253
  6
CONTINUOUS
 90
19
 70
0
 10
151.138178447
 20
96.3546723642
 10
151.1742734933
 20
96.2524164776
 10
151.2174981963
 20
96.1527916056
 10
151.2676708771
 20
96.0562998904
 10
151.3246087717
 20
95.9633788757
 10
151.3880320117
 20
95.8745622656
 10
151.4575282816
 20
95.7904517018
 10
151.5326907588
 20
95.711516021
 10
151.6131921781
 20
95.6380773173
 10
151.6986727043
 20
95.5704635388
 10
151.788708865
 20
95.5090148328
 10
151.8828611304
 20
95.4540361137
 10
151.9807252751
 20
95.4057774303
 10
152.0819020602
 20
95.3644657286
 10
152.1858222691
 20
95.3303625433
 10
152.2917943056
 20
95.3036942717
 10
152.3992255132
 20
95.284582343
 10
152.507638519
 20
95.2730839561
 10
152.6164946455
 20
95.269235538
  0
LWPOLYLINE
  5
28B
100
AcDbEntity
  8
RACCORDO
100
AcDbPolyline
 62
253
  6
CONTINUOUS
 90
10
 70
0
 10
152.6163388857
 20
95.2692355764
 10
152.6149815364
 20
95.2653763798
 10
152.6136472959
 20
95.2547731543
 10
152.6123588797
 20
95.2376064195
 10
152.6111382231
 20
95.2141684387
 10
152.6100061076
 20
95.184858243
 10
152.6089818075
 20
95.1501748378
 10
152.6080827614
 20
95.1107087074
 10
152.6073242758
 20
95.0671317616
 10
152.6062780253
 20
94.970670366
  0
LWPOLYLINE
  5
28C
100
AcDbEntity
  8
RACCORDO
100
AcDbPolyline
 62
253
  6
CONTINUOUS
 90
19
 70
0
 10
158.9767637692
 20
94.867331704
 10
159.1151314684
 20
94.8723198866
 10
159.2516184714
 20
94.8867652595
 10
159.3862247805
 20
94.9106677823
 10
159.519674087
 20
94.9442585726
 10
159.6512426963
 20
94.9873064348
 10
159.7787596651
 20
95.0391178605
 10
159.9020650466
 20
95.0998049272
 10
160.0213191046
 20
95.1692554908
 10
160.1348314404
 20
95.2464397192
 10
160.24251968
 20
95.3314507397
 10
160.344466725
 20
95.4241953857
 10
160.4392302601
 20
95.5233643985
 10
160.5267537383
 20
95.6291313808
 10
160.6070943431
 20
95.7413227277
 10
160.6789804652
 20
95.8581083896
 10
160.7419884635
 20
95.9788783667
 10
160.7965426002
 20
96.1042427002
 10
160.8426431306
 20
96.2342014163
  0
LWPOLYLINE
  5
28D
100
AcDbEntity
  8
RACCORDO
100
AcDbPolyline
 62
253
  6
CONTINUOUS
 90
19
 70
0
 10
158.9661809661
 20
95.2692355375
 10
159.0749507399
 20
95.2730777086
 10
159.1832948254
 20
95.2845600288
 10
159.2906752169
 20
95.303649623
 10
159.3966166387
 20
95.330293413
 10
159.5005241202
 20
95.3643732347
 10
159.6016997752
 20
95.4056637137
 10
159.6995770272
 20
95.4539073044
 10
159.7937519599
 20
95.5088777221
 10
159.8838049065
 20
95.5703163783
 10
159.9692881052
 20
95.6379095181
 10
160.0497890052
 20
95.7113222376
 10
160.1249606603
 20
95.7902389246
 10
160.1944761487
 20
95.8743416491
 10
160.2579245445
 20
95.9631607752
 10
160.3148955245
 20
96.0561029459
 10
160.3651066958
 20
96.1526385692
 10
160.4083698758
 20
96.2523289066
 10
160.4444993243
 20
96.3546723642
  0
LINE
  5
28E
100
AcDbEntity
  8
DRAFT
100
AcDbLine
 62
7
  6
CONTINUOUS
 10
158.9663388857
 20
95.2941714304
 11
152.6163391975
 21
95.2941714304
  0
LINE
  5
28F
100
AcDbEntity
  8
RACCORDO
100
AcDbLine
 62
253
  6
CONTINUOUS
 10
152.6059140022
 20
94.867331704
 11
158.9767637692
 21
94.867331704
  0
LINE
  5
290
100
AcDbEntity
  8
RACCORDO
100
AcDbLine
 62
253
  6
CONTINUOUS
 10
152.6164946453
 20
95.2692355528
 11
158.9661809662
 21
95.2692355524
  0
LWPOLYLINE
  5
291
100
AcDbEntity
  8
RACCORDO
100
AcDbPolyline
 62
253
  6
CONTINUOUS
 90
9
 70
0
 10
152.6163388882
 20
98.3690947414
 10
152.614982355
 20
98.3729541551
 10
152.6136489178
 20
98.3835578794
 10
152.6123612795
 20
98.4007253769
 10
152.6111413631
 20
98.4241643565
 10
152.6100099387
 20
98.4534757501
 10
152.6089862702
 20
98.4881605066
 10
152.6080877866
 20
98.5276280889
 10
152.6073297851
 20
98.5712065285
  0
LINE
  5
292
100
AcDbEntity
  8
RACCORDO
100
AcDbLine
 62
253
  6
CONTINUOUS
 10
166.2435250122
 20
118.8437007848
 11
166.391852722
 21
119.1405597614
  0
LINE
  5
293
100
AcDbEntity
  8
RACCORDO
100
AcDbLine
 62
253
  6
CONTINUOUS
 10
144.8052215171
 20
75.2938349968
 11
144.718983186
 21
75.1212399856
  0
LINE
  5
294
100
AcDbEntity
  8
RACCORDO
100
AcDbLine
 62
253
  6
CONTINUOUS
 10
166.7433536735
 20
118.3443860151
 11
166.8913388857
 21
118.6405595263
  0
LWPOLYLINE
  5
295
100
AcDbEntity
  8
RACCORDO
100
AcDbPolyline
 62
253
  6
CONTINUOUS
 90
4
 70
0
 10
151.0826839918
 20
96.3397713996
 10
151.0333409675
 20
96.3247928105
 10
151.0036869366
 20
96.316040927
 10
150.9364318332
 20
96.2952166686
  0
LWPOLYLINE
  5
296
100
AcDbEntity
  8
RACCORDO
100
AcDbPolyline
 62
253
  6
CONTINUOUS
 90
6
 70
0
 10
150.9364318332
 20
96.2952166686
 10
150.8995090992
 20
96.2840594685
 10
150.8609547514
 20
96.2720088522
 10
150.8212302923
 20
96.2591902183
 10
150.7807666488
 20
96.2464263962
 10
150.7400346407
 20
96.2342014163
  0
LINE
  5
297
100
AcDbEntity
  8
RACCORDO
100
AcDbLine
 62
253
  6
CONTINUOUS
 10
160.4653840007
 20
97.288772049
 11
160.4999923004
 21
97.2985731972
  0
LWPOLYLINE
  5
298
100
AcDbEntity
  8
RACCORDO
100
AcDbPolyline
 62
7
  6
CONTINUOUS
 90
13
 70
0
 10
160.7669248535
 20
96.6570820866
 10
160.7306598277
 20
96.6517266961
 10
160.6951918499
 20
96.6430810871
 10
160.660794751
 20
96.6312688676
 10
160.6277637065
 20
96.6164600958
 10
160.5963148103
 20
96.5987959727
 10
160.5665972805
 20
96.5783600837
 10
160.53885308
 20
96.555317198
 10
160.5133024501
 20
96.5298625651
 10
160.4900752598
 20
96.5021075333
 10
160.4693653809
 20
96.4722220913
 10
160.4514067584
 20
96.4404539625
 10
160.4363880031
 20
96.4070366862
  0
LWPOLYLINE
  5
299
100
AcDbEntity
  8
RACCORDO
100
AcDbPolyline
 62
7
  6
CONTINUOUS
 90
10
 70
0
 10
160.7669248535
 20
96.6570819656
 10
160.7715300772
 20
96.6575235259
 10
160.7761259836
 20
96.6579124425
 10
160.7807125727
 20
96.6582487155
 10
160.7852885018
 20
96.6585319524
 10
160.7898551136
 20
96.6587625457
 10
160.794416436
 20
96.6589416725
 10
160.7989738114
 20
96.659069725
 10
160.8035258974
 20
96.659146311
 10
160.8080726939
 20
96.6591714304
  0
LWPOLYLINE
  5
29A
100
AcDbEntity
  8
RACCORDO
100
AcDbPolyline
 62
253
  6
CONTINUOUS
 90
13
 70
0
 10
166.3143247694
 20
96.9997506998
 10
166.3665076483
 20
97.00318327
 10
166.4177983554
 20
97.0133985195
 10
166.4673195799
 20
97.0302218673
 10
166.5142242135
 20
97.0533656789
 10
166.5577099439
 20
97.0824342287
 10
166.5970329543
 20
97.1169305038
 10
166.6315205475
 20
97.1562646515
 10
166.6605825846
 20
97.199763912
 10
166.6837217214
 20
97.2466841608
 10
166.7005420089
 20
97.2962227873
 10
166.7107556169
 20
97.347532457
 10
166.7141876992
 20
97.399735469
  0
LWPOLYLINE
  5
29B
100
AcDbEntity
  8
RACCORDO
100
AcDbPolyline
 62
253
  6
CONTINUOUS
 90
5
 70
0
 10
166.3399918341
 20
96.6382894483
 10
166.3434787837
 20
96.63836843
 10
166.3460292545
 20
96.6384491545
 10
166.347684383
 20
96.6385323633
 10
166.348444169
 20
96.6386180562
  0
LWPOLYLINE
  5
29C
100
AcDbEntity
  8
RACCORDO
100
AcDbPolyline
 62
253
  6
CONTINUOUS
 90
4
 70
0
 10
151.1381784466
 20
96.3546723654
 10
151.1353486735
 20
96.3546143896
 10
151.1283520345
 20
96.3528281372
 10
151.1172932748
 20
96.3495721077
  0
LWPOLYLINE
  5
29D
100
AcDbEntity
  8
RACCORDO
100
AcDbPolyline
 62
253
  6
CONTINUOUS
 90
3
 70
0
 10
166.7363488817
 20
96.2383715738
 10
166.7446729314
 20
96.238501026
 10
166.748307099
 20
96.238633287
  0
LINE
  5
29E
100
AcDbEntity
  8
RACCORDO
100
AcDbLine
 62
253
  6
CONTINUOUS
 10
166.3304553166
 20
96.6381411616
 11
166.3399918341
 21
96.6382894483
  0
LINE
  5
29F
100
AcDbEntity
  8
RACCORDO
100
AcDbLine
 62
253
  6
CONTINUOUS
 10
166.3104844472
 20
96.6379562689
 11
166.3304553166
 21
96.6381411616
  0
LINE
  5
2A0
100
AcDbEntity
  8
RACCORDO
100
AcDbLine
 62
253
  6
CONTINUOUS
 10
166.6842663556
 20
96.2380042346
 11
166.7363488817
 21
96.2383715738
  0
LINE
  5
2A1
100
AcDbEntity
  8
RACCORDO
100
AcDbLine
 62
253
  6
CONTINUOUS
 10
166.2667970785
 20
96.6377831091
 11
166.3104844472
 21
96.6379562689
  0
LINE
  5
2A2
100
AcDbEntity
  8
RACCORDO
100
AcDbLine
 62
253
  6
CONTINUOUS
 10
160.8426431306
 20
96.2342014163
 11
166.6842663556
 21
96.2380042346
  0
LINE
  5
2A3
100
AcDbEntity
  8
RACCORDO
100
AcDbLine
 62
253
  6
CONTINUOUS
 10
160.8260871277
 20
96.6347464839
 11
166.2667970785
 21
96.6377831091
  0
LINE
  5
2A4
100
AcDbEntity
  8
RACCORDO
100
AcDbLine
 62
253
  6
CONTINUOUS
 10
150.7565903481
 20
97.0035967793
 11
145.3227309782
 21
97.0005043883
  0
LINE
  5
2A5
100
AcDbEntity
  8
RACCORDO
100
AcDbLine
 62
7
  6
CONTINUOUS
 10
163.8913388857
 20
96.6591714304
 11
160.8080726938
 21
96.6591714304
  0
LINE
  5
2A6
100
AcDbEntity
  8
RACCORDO
100
AcDbLine
 62
7
  6
CONTINUOUS
 10
150.7746050775
 20
96.6591714304
 11
147.6913388857
 21
96.6591714304
  0
LINE
  5
2A7
100
AcDbEntity
  8
DRAFT
100
AcDbLine
 62
7
  6
CONTINUOUS
 10
147.6913388857
 20
96.6591714304
 11
145.8913388857
 21
96.6591714304
  0
LINE
  5
2A8
100
AcDbEntity
  8
DRAFT
100
AcDbLine
 62
7
  6
CONTINUOUS
 10
163.8913388857
 20
96.6591714304
 11
165.6913388857
 21
96.6591714304
  0
LINE
  5
2A9
100
AcDbEntity
  8
RACCORDO
100
AcDbLine
 62
7
  6
CONTINUOUS
 10
145.0913845977
 20
96.6862247205
 11
145.8913388857
 21
96.6862247205
  0
LINE
  5
2AA
100
AcDbEntity
  8
RACCORDO
100
AcDbLine
 62
7
  6
CONTINUOUS
 10
165.6913388857
 20
96.6862247205
 11
166.4912931736
 21
96.6862247205
  0
LINE
  5
2AB
100
AcDbEntity
  8
RACCORDO
100
AcDbLine
 62
7
  6
CONTINUOUS
 10
166.4912931736
 20
96.9407732121
 11
165.7332363602
 21
96.9407732121
  0
LINE
  5
2AC
100
AcDbEntity
  8
RACCORDO
100
AcDbLine
 62
7
  6
CONTINUOUS
 10
145.8494414111
 20
96.9407732121
 11
145.0913845977
 21
96.9407732121
  0
LINE
  5
2AD
100
AcDbEntity
  8
DRAFT
100
AcDbLine
 62
7
  6
CONTINUOUS
 10
145.964659466
 20
96.9791714304
 11
147.6913388857
 21
96.9791714304
  0
LINE
  5
2AE
100
AcDbEntity
  8
RACCORDO
100
AcDbLine
 62
7
  6
CONTINUOUS
 10
147.6913388857
 20
96.9791714304
 11
150.7746050775
 21
96.9791714304
  0
LINE
  5
2AF
100
AcDbEntity
  8
RACCORDO
100
AcDbLine
 62
7
  6
CONTINUOUS
 10
160.8080726938
 20
96.9791714304
 11
163.8913388857
 21
96.9791714304
  0
LINE
  5
2B0
100
AcDbEntity
  8
DRAFT
100
AcDbLine
 62
7
  6
CONTINUOUS
 10
163.8913388857
 20
96.9791714304
 11
165.6180183053
 21
96.9791714304
  0
LINE
  5
2B1
100
AcDbEntity
  8
RACCORDO
100
AcDbLine
 62
253
  6
CONTINUOUS
 10
166.2599467925
 20
97.0005043885
 11
160.8260874232
 21
97.0035967793
  0
LINE
  5
2B2
100
AcDbEntity
  8
RACCORDO
100
AcDbLine
 62
253
  6
CONTINUOUS
 10
144.898411414
 20
96.2380042303
 11
150.7400346407
 21
96.2342014163
  0
LINE
  5
2B3
100
AcDbEntity
  8
RACCORDO
100
AcDbLine
 62
253
  6
CONTINUOUS
 10
145.2801029872
 20
96.6379071289
 11
150.7565906436
 21
96.6347464839
  0
LWPOLYLINE
  5
2B4
100
AcDbEntity
  8
RACCORDO
100
AcDbPolyline
 62
7
  6
CONTINUOUS
 90
10
 70
0
 10
150.7746050772
 20
96.6591714304
 10
150.7791518751
 20
96.659146311
 10
150.7837039625
 20
96.6590697249
 10
150.7882613393
 20
96.6589416724
 10
150.7928226627
 20
96.6587625447
 10
150.7973892755
 20
96.6585319504
 10
150.8019652065
 20
96.658248715
 10
150.8065517986
 20
96.6579124469
 10
150.8111477088
 20
96.6575235378
 10
150.8157529373
 20
96.6570819875
  0
LWPOLYLINE
  5
2B5
100
AcDbEntity
  8
RACCORDO
100
AcDbPolyline
 62
7
  6
CONTINUOUS
 90
10
 70
0
 10
160.808072694
 20
96.9791714304
 10
160.803525897
 20
96.9791965497
 10
160.7989738105
 20
96.9792731357
 10
160.7944164346
 20
96.9794011883
 10
160.7898551123
 20
96.9795803166
 10
160.7852885005
 20
96.9798109114
 10
160.7807125699
 20
96.9800941454
 10
160.7761259774
 20
96.9804304093
 10
160.7715300661
 20
96.9808193122
 10
160.7669248359
 20
96.9812608543
  0
LINE
  5
2B6
100
AcDbEntity
  8
RACCORDO
100
AcDbLine
 62
253
  6
CONTINUOUS
 10
145.2581701654
 20
96.6380742433
 11
145.2801029872
 21
96.6379071289
  0
LWPOLYLINE
  5
2B7
100
AcDbEntity
  8
RACCORDO
100
AcDbPolyline
 62
253
  6
CONTINUOUS
 90
5
 70
0
 10
160.4444993247
 20
96.3546723654
 10
160.4473295684
 20
96.3546145033
 10
160.4543272245
 20
96.3528279268
 10
160.4653874417
 20
96.3495713036
 10
160.5000007631
 20
96.3397694398
  0
LWPOLYLINE
  5
2B8
100
AcDbEntity
  8
RACCORDO
100
AcDbPolyline
 62
253
  6
CONTINUOUS
 90
4
 70
0
 10
144.8343706706
 20
96.2386332876
 10
144.8380048382
 20
96.2385010255
 10
144.8463288879
 20
96.2383715723
 10
144.898411414
 20
96.2380042303
  0
LWPOLYLINE
  5
2B9
100
AcDbEntity
  8
RACCORDO
100
AcDbPolyline
 62
253
  6
CONTINUOUS
 90
13
 70
0
 10
150.7565906489
 20
96.6347464839
 10
150.7987195702
 20
96.6325193774
 10
150.8403800948
 20
96.625867489
 10
150.8811087649
 20
96.614864736
 10
150.9204524968
 20
96.5996334295
 10
150.9579735545
 20
96.5803429405
 10
150.9932544316
 20
96.5572078403
 10
151.0259026939
 20
96.5304853695
 10
151.0555549841
 20
96.5004728327
 10
151.0818811163
 20
96.4675044432
 10
151.1045882035
 20
96.4319471531
 10
151.1234238022
 20
96.3941964611
 10
151.1381784466
 20
96.3546723654
  0
LWPOLYLINE
  5
2BA
100
AcDbEntity
  8
RACCORDO
100
AcDbPolyline
 62
253
  6
CONTINUOUS
 90
13
 70
0
 10
145.2683530014
 20
96.9997506996
 10
145.2161679612
 20
97.0031835554
 10
145.1648755621
 20
97.0133995539
 10
145.1153531766
 20
97.0302239473
 10
145.0684479003
 20
97.0533689491
 10
145.0249620624
 20
97.0824386569
 10
144.9856395014
 20
97.1169358244
 10
144.9511528419
 20
97.1562703671
 10
144.9220919889
 20
97.1997694553
 10
144.8989540372
 20
97.2466890239
 10
144.8821347685
 20
97.2962264992
 10
144.8719218817
 20
97.3475345274
 10
144.8684900714
 20
97.3997354688
  0
LWPOLYLINE
  5
2BB
100
AcDbEntity
  8
RACCORDO
100
AcDbPolyline
 62
253
  6
CONTINUOUS
 90
7
 70
0
 10
145.2342336006
 20
96.6386180568
 10
145.2349933866
 20
96.6385323638
 10
145.236648515
 20
96.6384491551
 10
145.2391989858
 20
96.6383684306
 10
145.2426859354
 20
96.6382894488
 10
145.2470682273
 20
96.6382129513
 10
145.2581701654
 20
96.6380742433
  0
LINE
  5
2BC
100
AcDbEntity
  8
RACCORDO
100
AcDbLine
 62
253
  6
CONTINUOUS
 10
151.0333328994
 20
97.3135553448
 11
151.0036782638
 21
97.3223076539
  0
LINE
  5
2BD
100
AcDbEntity
  8
RACCORDO
100
AcDbLine
 62
253
  6
CONTINUOUS
 10
151.0826784876
 20
97.2985751569
 11
151.0333328994
 21
97.3135553448
  0
LWPOLYLINE
  5
2BE
100
AcDbEntity
  8
RACCORDO
100
AcDbPolyline
 62
253
  6
CONTINUOUS
 90
7
 70
0
 10
151.0036782638
 20
97.3223076539
 10
150.9364241537
 20
97.3431321589
 10
150.8995032117
 20
97.3542889985
 10
150.8609513961
 20
97.3663389284
 10
150.8212301212
 20
97.3791566125
 10
150.7807702898
 20
97.3919192794
 10
150.7400426074
 20
97.4041430132
  0
LINE
  5
2BF
100
AcDbEntity
  8
RACCORDO
100
AcDbLine
 62
253
  6
CONTINUOUS
 10
166.3626110862
 20
74.6244366137
 11
166.2776275921
 21
74.7945202285
  0
LINE
  5
2C0
100
AcDbEntity
  8
RACCORDO
100
AcDbLine
 62
253
  6
CONTINUOUS
 10
144.6913388857
 20
118.6405595263
 11
144.839324099
 21
118.3443860127
  0
LINE
  5
2C1
100
AcDbEntity
  8
RACCORDO
100
AcDbLine
 62
253
  6
CONTINUOUS
 10
166.8636945853
 20
75.1212399856
 11
166.7774562532
 21
75.2938349987
  0
LINE
  5
2C2
100
AcDbEntity
  8
RACCORDO
100
AcDbLine
 62
253
  6
CONTINUOUS
 10
145.3050501796
 20
74.7945202295
 11
145.2200666851
 21
74.6244366137
  0
LWPOLYLINE
  5
2C3
100
AcDbEntity
  8
RACCORDO
100
AcDbPolyline
 62
253
  6
CONTINUOUS
 90
4
 70
0
 10
160.4999923004
 20
97.2985731972
 10
160.5493340695
 20
97.3135520355
 10
160.5789874086
 20
97.3223039966
 10
160.6462410684
 20
97.3431282631
  0
LWPOLYLINE
  5
2C4
100
AcDbEntity
  8
RACCORDO
100
AcDbPolyline
 62
253
  6
CONTINUOUS
 90
6
 70
0
 10
160.6462410684
 20
97.3431282631
 10
160.6831630911
 20
97.3542854246
 10
160.7217167545
 20
97.3663359599
 10
160.7614405732
 20
97.379154473
 10
160.8019036431
 20
97.3919181623
 10
160.8426351639
 20
97.4041430132
  0
LINE
  5
2C5
100
AcDbEntity
  8
RACCORDO
100
AcDbLine
 62
253
  6
CONTINUOUS
 10
151.1172932748
 20
96.3495721077
 11
151.0826839918
 21
96.3397713996
  0
LWPOLYLINE
  5
2C6
100
AcDbEntity
  8
RACCORDO
100
AcDbPolyline
 62
7
  6
CONTINUOUS
 90
13
 70
0
 10
150.8157528064
 20
96.9812607604
 10
150.8520178172
 20
96.9866161352
 10
150.8874857893
 20
96.9952617311
 10
150.9218828893
 20
97.0070739395
 10
150.9549139404
 20
97.0218827015
 10
150.9863628473
 20
97.0395468163
 10
151.0160803907
 20
97.0599827004
 10
151.0438246073
 20
97.0830255859
 10
151.0693752545
 20
97.1084802228
 10
151.0926024612
 20
97.1362352618
 10
151.113312355
 20
97.1661207143
 10
151.1312709912
 20
97.1978888574
 10
151.1462897587
 20
97.2313061523
  0
LWPOLYLINE
  5
2C7
100
AcDbEntity
  8
RACCORDO
100
AcDbPolyline
 62
7
  6
CONTINUOUS
 90
10
 70
0
 10
150.8157528064
 20
96.9812609966
 10
150.811147607
 20
96.9808193894
 10
150.806551721
 20
96.9804304378
 10
150.8019651483
 20
96.9800941418
 10
150.7973892302
 20
96.9798108978
 10
150.7928226255
 20
96.9795803094
 10
150.7882613103
 20
96.9794011874
 10
150.7837039432
 20
96.9792731353
 10
150.7791518656
 20
96.9791965497
 10
150.7746050775
 20
96.9791714304
  0
LWPOLYLINE
  5
2C8
100
AcDbEntity
  8
RACCORDO
100
AcDbPolyline
 62
253
  6
CONTINUOUS
 90
13
 70
0
 10
145.2342336006
 20
96.6386180568
 10
145.1820507202
 20
96.6351854863
 10
145.1307600118
 20
96.6249702363
 10
145.0812387864
 20
96.6081468878
 10
145.0343341524
 20
96.5850030752
 10
144.9908484219
 20
96.5559345246
 10
144.9515254119
 20
96.5214382489
 10
144.9170378193
 20
96.4821041009
 10
144.887975783
 20
96.4386048406
 10
144.8648366472
 20
96.3916845922
 10
144.8480163604
 20
96.3421459666
 10
144.8378027529
 20
96.290836298
 10
144.8343706708
 20
96.2386332875
  0
LWPOLYLINE
  5
2C9
100
AcDbEntity
  8
RACCORDO
100
AcDbPolyline
 62
253
  6
CONTINUOUS
 90
19
 70
0
 10
152.6164968098
 20
98.3691073918
 10
152.5077262483
 20
98.3652651854
 10
152.3993813007
 20
98.3537827083
 10
152.2919999874
 20
98.3346928192
 10
152.1860575654
 20
98.3080485716
 10
152.0821490616
 20
98.2739681216
 10
151.9809724859
 20
98.2326768793
 10
151.8830943855
 20
98.1844323815
 10
151.788918733
 20
98.1294609437
 10
151.6988654122
 20
98.0680213211
 10
151.6133821818
 20
98.000427346
 10
151.5328815355
 20
97.9270139609
 10
151.4577104926
 20
97.8480969523
 10
151.3881959644
 20
97.763994397
 10
151.3247487206
 20
97.6751759139
 10
151.2677789259
 20
97.5822347822
 10
151.2175688836
 20
97.4857005686
 10
151.1743067304
 20
97.3860120575
 10
151.1381781334
 20
97.2836708412
  0
LWPOLYLINE
  5
2CA
100
AcDbEntity
  8
RACCORDO
100
AcDbPolyline
 62
253
  6
CONTINUOUS
 90
5
 70
0
 10
145.2768077937
 20
97.000079356
 10
145.2733198085
 20
97.0000003635
 10
145.2707685954
 20
96.9999196275
 10
145.269112993
 20
96.9998364062
 10
145.2683530014
 20
96.9997506996
  0
LWPOLYLINE
  5
2CB
100
AcDbEntity
  8
RACCORDO
100
AcDbPolyline
 62
253
  6
CONTINUOUS
 90
4
 70
0
 10
160.4444996383
 20
97.2836708399
 10
160.4473292311
 20
97.283729195
 10
160.4543256001
 20
97.2855157606
 10
160.4653840007
 20
97.288772049
  0
LWPOLYLINE
  5
2CC
100
AcDbEntity
  8
RACCORDO
100
AcDbPolyline
 62
253
  6
CONTINUOUS
 90
3
 70
0
 10
144.8804516454
 20
97.3999975044
 10
144.8721251832
 20
97.3998678921
 10
144.8684900714
 20
97.3997354688
  0
LINE
  5
2CD
100
AcDbEntity
  8
RACCORDO
100
AcDbLine
 62
253
  6
CONTINUOUS
 10
145.2863471125
 20
97.0002276599
 11
145.2768077937
 21
97.000079356
  0
LINE
  5
2CE
100
AcDbEntity
  8
RACCORDO
100
AcDbLine
 62
253
  6
CONTINUOUS
 10
145.3063235595
 20
97.0004125616
 11
145.2863471125
 21
97.0002276599
  0
LINE
  5
2CF
100
AcDbEntity
  8
RACCORDO
100
AcDbLine
 62
253
  6
CONTINUOUS
 10
144.9325495893
 20
97.4003652933
 11
144.8804516454
 21
97.3999975044
  0
LINE
  5
2D0
100
AcDbEntity
  8
RACCORDO
100
AcDbLine
 62
253
  6
CONTINUOUS
 10
145.3227309782
 20
97.0005043883
 11
145.3063235595
 21
97.0004125616
  0
LINE
  5
2D1
100
AcDbEntity
  8
RACCORDO
100
AcDbLine
 62
253
  6
CONTINUOUS
 10
150.7400426074
 20
97.4041430132
 11
144.9325495893
 21
97.4003652933
  0
LINE
  5
2D2
100
AcDbEntity
  8
DRAFT
100
AcDbLine
 62
7
  6
CONTINUOUS
 10
152.6163388857
 20
98.3441714304
 11
158.9663385738
 21
98.3441714304
  0
LINE
  5
2D3
100
AcDbEntity
  8
RACCORDO
100
AcDbLine
 62
253
  6
CONTINUOUS
 10
158.9661831214
 20
98.3691073766
 11
152.6164968096
 21
98.3691073769
  0
LINE
  5
2D4
100
AcDbEntity
  8
RACCORDO
100
AcDbLine
 62
253
  6
CONTINUOUS
 10
166.6501281815
 20
97.4003652888
 11
160.8426351639
 21
97.4041430132
  0
LINE
  5
2D5
100
AcDbEntity
  8
RACCORDO
100
AcDbLine
 62
253
  6
CONTINUOUS
 10
166.2903812426
 20
97.0002945842
 11
166.2599467925
 21
97.0005043885
  0
LWPOLYLINE
  5
2D6
100
AcDbEntity
  8
RACCORDO
100
AcDbPolyline
 62
253
  6
CONTINUOUS
 90
5
 70
0
 10
151.138178133
 20
97.2836708399
 10
151.1353480697
 20
97.2837290814
 10
151.1283506837
 20
97.2855159711
 10
151.1172908256
 20
97.2887728531
 10
151.0826784876
 20
97.2985751569
  0
LWPOLYLINE
  5
2D7
100
AcDbEntity
  8
RACCORDO
100
AcDbPolyline
 62
253
  6
CONTINUOUS
 90
4
 70
0
 10
166.7141876994
 20
97.399735469
 10
166.7105525875
 20
97.3998678913
 10
166.7022261254
 20
97.3999975026
 10
166.6501281815
 20
97.4003652888
  0
LWPOLYLINE
  5
2D8
100
AcDbEntity
  8
RACCORDO
100
AcDbPolyline
 62
253
  6
CONTINUOUS
 90
13
 70
0
 10
160.8260874178
 20
97.0035967793
 10
160.7839585015
 20
97.0058238853
 10
160.7422979817
 20
97.0124757721
 10
160.7015693161
 20
97.0234785225
 10
160.6622255883
 20
97.0387098255
 10
160.6247045339
 20
97.05800031
 10
160.5894236595
 20
97.081135405
 10
160.556775399
 20
97.10785787
 10
160.5271231094
 20
97.1378704003
 10
160.5007969768
 20
97.170838783
 10
160.4780898881
 20
97.2063960661
 10
160.4592542866
 20
97.2441467511
 10
160.4444996383
 20
97.2836708399
  0
LWPOLYLINE
  5
2D9
100
AcDbEntity
  8
RACCORDO
100
AcDbPolyline
 62
253
  6
CONTINUOUS
 90
13
 70
0
 10
166.348444169
 20
96.6386180562
 10
166.4006292092
 20
96.6351852004
 10
166.4519216082
 20
96.6249692019
 10
166.5014439937
 20
96.6081448085
 10
166.5483492701
 20
96.5849998067
 10
166.591835108
 20
96.5559300989
 10
166.631157669
 20
96.5214329314
 10
166.6656443284
 20
96.4820983887
 10
166.6947051815
 20
96.4385993005
 10
166.7178431332
 20
96.3916797319
 10
166.7346624019
 20
96.3421422566
 10
166.7448752887
 20
96.2908342284
 10
166.748307099
 20
96.238633287
  0
LWPOLYLINE
  5
2DA
100
AcDbEntity
  8
RACCORDO
100
AcDbPolyline
 62
253
  6
CONTINUOUS
 90
7
 70
0
 10
166.3143247694
 20
96.9997506998
 10
166.3135647777
 20
96.9998364064
 10
166.3119091754
 20
96.9999196277
 10
166.3093579622
 20
97.0000003637
 10
166.3058699771
 20
97.0000793562
 10
166.3014863812
 20
97.0001558634
 10
166.2903812426
 20
97.0002945842
  0
LINE
  5
2DB
100
AcDbEntity
  8
RACCORDO
100
AcDbLine
 62
253
  6
CONTINUOUS
 10
160.5493476067
 20
96.3247895012
 11
160.5790029343
 21
96.3160372696
  0
LINE
  5
2DC
100
AcDbEntity
  8
RACCORDO
100
AcDbLine
 62
253
  6
CONTINUOUS
 10
160.5000007631
 20
96.3397694398
 11
160.5493476067
 21
96.3247895012
  0
LWPOLYLINE
  5
2DD
100
AcDbEntity
  8
RACCORDO
100
AcDbPolyline
 62
253
  6
CONTINUOUS
 90
7
 70
0
 10
160.5790029343
 20
96.3160372696
 10
160.6462584879
 20
96.2952127726
 10
160.6831801412
 20
96.2840558945
 10
160.7217326411
 20
96.2720058836
 10
160.7614545563
 20
96.2591880787
 10
160.8019149612
 20
96.2464252791
 10
160.8426431307
 20
96.2342014163
  0
LINE
  5
2DE
100
AcDbEntity
  8
RACCORDO
100
AcDbLine
 62
253
  6
CONTINUOUS
 10
145.1908250493
 20
119.1405597614
 11
145.3391527601
 21
118.8437007829
  0
LINE
  5
2DF
100
AcDbEntity
  8
RACCORDO
100
AcDbLine
 62
253
  6
CONTINUOUS
 10
158.9753535043
 20
95.0671366889
 11
158.9763996924
 21
94.9706725467
  0
LINE
  5
2E0
100
AcDbEntity
  8
RACCORDO
100
AcDbLine
 62
253
  6
CONTINUOUS
 10
158.9663385738
 20
98.3441714304
 11
158.9661831214
 21
98.3691073766
  0
LINE
  5
2E1
100
AcDbEntity
  8
RACCORDO
100
AcDbLine
 62
253
  6
CONTINUOUS
 10
158.9763996924
 20
94.9706725467
 11
158.9767636224
 21
94.8673317312
  0
LINE
  5
2E2
100
AcDbEntity
  8
RACCORDO
100
AcDbLine
 62
253
  6
CONTINUOUS
 10
158.9763935853
 20
98.6676729645
 11
158.9767573826
 21
98.771011722
  0
LINE
  5
2E3
100
AcDbEntity
  8
RACCORDO
100
AcDbLine
 62
253
  6
CONTINUOUS
 10
158.9663388857
 20
95.2941714304
 11
158.9661809662
 21
95.2692355524
  0
LWPOLYLINE
  5
2E4
100
AcDbEntity
  8
RACCORDO
100
AcDbPolyline
 62
253
  6
CONTINUOUS
 90
10
 70
0
 10
158.9663388857
 20
98.369107353
 10
158.9676954044
 20
98.3729665559
 10
158.9690288285
 20
98.3835697982
 10
158.9703164563
 20
98.4007365597
 10
158.9715363659
 20
98.4241745762
 10
158.9726677884
 20
98.4534848153
 10
158.9736914612
 20
98.4881682701
 10
158.9745899565
 20
98.5276344546
 10
158.9753479773
 20
98.5712114569
 10
158.9763935853
 20
98.6676729645
  0
LINE
  5
2E5
100
AcDbEntity
  8
RACCORDO
100
AcDbLine
 62
253
  6
CONTINUOUS
 10
160.4444996379
 20
97.2836708412
 11
160.4253863037
 21
97.2627992381
  0
LINE
  5
2E6
100
AcDbEntity
  8
RACCORDO
100
AcDbLine
 62
253
  6
CONTINUOUS
 10
166.348444169
 20
96.6386180562
 11
166.4912931736
 21
96.6862247205
  0
LWPOLYLINE
  5
2E7
100
AcDbEntity
  8
RACCORDO
100
AcDbPolyline
 62
253
  6
CONTINUOUS
 90
19
 70
0
 10
152.6059203885
 20
98.771011722
 10
152.4675517561
 20
98.7660235658
 10
152.3310638944
 20
98.7515780294
 10
152.1964567296
 20
98.7276751534
 10
152.0630063298
 20
98.6940838054
 10
151.9314365112
 20
98.6510351955
 10
151.8039186157
 20
98.5992228756
 10
151.6806123451
 20
98.5385346844
 10
151.5613573974
 20
98.4690828496
 10
151.4478447479
 20
98.3918974985
 10
151.3401566246
 20
98.3068854808
 10
151.2382098943
 20
98.214139986
 10
151.1434472259
 20
98.114970636
 10
151.055925051
 20
98.0092039511
 10
150.9755858829
 20
97.8970134132
 10
150.9037013464
 20
97.7802290661
 10
150.8406949471
 20
97.6594609078
 10
150.7861421712
 20
97.5340988988
 10
150.7400426074
 20
97.4041430132
  0
LINE
  5
2E8
100
AcDbEntity
  8
RACCORDO
100
AcDbLine
 62
253
  6
CONTINUOUS
 10
158.9767573828
 20
98.771011722
 11
152.6059203885
 21
98.771011722
  0
LINE
  5
2E9
100
AcDbEntity
  8
DRAFT
100
AcDbLine
 62
7
  6
CONTINUOUS
 10
165.6180183053
 20
96.9791714304
 11
165.7332363602
 21
96.9407732121
  0
LINE
  5
2EA
100
AcDbEntity
  8
RACCORDO
100
AcDbLine
 62
253
  6
CONTINUOUS
 10
166.4912931736
 20
96.9407732121
 11
166.3143247694
 21
96.9997506998
  0
LINE
  5
2EB
100
AcDbEntity
  8
RACCORDO
100
AcDbLine
 62
253
  6
CONTINUOUS
 10
160.4253863037
 20
96.3755436226
 11
160.4444993243
 21
96.3546723642
  0
LWPOLYLINE
  5
2EC
100
AcDbEntity
  8
RACCORDO
100
AcDbPolyline
 62
253
  6
CONTINUOUS
 90
9
 70
0
 10
158.9663388831
 20
95.2692481876
 10
158.9676962468
 20
95.2653887798
 10
158.9690305003
 20
95.254785072
 10
158.970318927
 20
95.237617601
 10
158.9715395905
 20
95.2141786568
 10
158.9726717079
 20
95.1848673066
 10
158.9736960035
 20
95.1501825998
 10
158.9745950379
 20
95.1107150716
 10
158.9753535043
 20
95.0671366889
  0
LWPOLYLINE
  5
2ED
100
AcDbEntity
  8
RACCORDO
100
AcDbPolyline
 62
7
  6
CONTINUOUS
 90
10
 70
0
 10
160.4253863037
 20
96.3755436227
 10
160.4264731712
 20
96.3790619534
 10
160.42759339
 20
96.3825742328
 10
160.4287470165
 20
96.3860807444
 10
160.4299335537
 20
96.3895809642
 10
160.4311536115
 20
96.3930759827
 10
160.4324088875
 20
96.3965685191
 10
160.433699962
 20
96.4000596862
 10
160.4350263173
 20
96.403548976
 10
160.4363879849
 20
96.4070366913
  0
LWPOLYLINE
  5
2EE
100
AcDbEntity
  8
RACCORDO
100
AcDbPolyline
 62
253
  6
CONTINUOUS
 90
13
 70
0
 10
160.4444993247
 20
96.3546723654
 10
160.4592539691
 20
96.3941964611
 10
160.4780895678
 20
96.4319471531
 10
160.500796655
 20
96.4675044432
 10
160.5271227872
 20
96.5004728327
 10
160.5567750774
 20
96.5304853695
 10
160.5894233397
 20
96.5572078403
 10
160.6247042168
 20
96.5803429405
 10
160.6622252745
 20
96.5996334295
 10
160.7015690064
 20
96.614864736
 10
160.7422976765
 20
96.625867489
 10
160.7839582011
 20
96.6325193774
 10
160.8260871224
 20
96.6347464838
  0
LWPOLYLINE
  5
2EF
100
AcDbEntity
  8
RACCORDO
100
AcDbPolyline
 62
253
  6
CONTINUOUS
 90
13
 70
0
 10
160.8260874178
 20
97.0035967793
 10
160.8277125485
 20
97.0075862451
 10
160.829950738
 20
97.0182154826
 10
160.8323924513
 20
97.0350961822
 10
160.8342799922
 20
97.0582108542
 10
160.8357903512
 20
97.0874898756
 10
160.837746186
 20
97.1221816245
 10
160.839352539
 20
97.1613953084
 10
160.8401687839
 20
97.2047827436
 10
160.8413410945
 20
97.2517105296
 10
160.8428535164
 20
97.3012765504
 10
160.8434893922
 20
97.352437223
 10
160.8426351639
 20
97.4041430132
  0
LINE
  5
2F0
100
AcDbEntity
  8
RACCORDO
100
AcDbLine
 62
253
  6
CONTINUOUS
 10
160.8260874232
 20
97.0035967793
 11
160.8080726938
 21
96.9791714304
  0
LINE
  5
2F1
100
AcDbEntity
  8
RACCORDO
100
AcDbLine
 62
253
  6
CONTINUOUS
 10
166.7483070989
 20
96.238633287
 11
166.8913388857
 21
96.2863008663
  0
LINE
  5
2F2
100
AcDbEntity
  8
RACCORDO
100
AcDbLine
 62
253
  6
CONTINUOUS
 10
166.8913388857
 20
97.3406970663
 11
166.7141876993
 21
97.399735469
  0
LINE
  5
2F3
100
AcDbEntity
  8
RACCORDO
100
AcDbLine
 62
253
  6
CONTINUOUS
 10
160.8080726938
 20
96.6591714304
 11
160.8260871277
 21
96.6347464839
  0
LWPOLYLINE
  5
2F4
100
AcDbEntity
  8
RACCORDO
100
AcDbPolyline
 62
7
  6
CONTINUOUS
 90
13
 70
0
 10
160.4363880041
 20
97.2313061716
 10
160.4514067546
 20
97.1978889045
 10
160.4693653722
 20
97.1661207828
 10
160.4900752456
 20
97.1362353459
 10
160.5133024297
 20
97.108480318
 10
160.5388530529
 20
97.0830256874
 10
160.5665972478
 20
97.0599828021
 10
160.5963147735
 20
97.0395469113
 10
160.6277636671
 20
97.0218827848
 10
160.6607947115
 20
97.0070740094
 10
160.6951918132
 20
96.9952617862
 10
160.730659798
 20
96.9866161728
 10
160.7669248359
 20
96.9812607768
  0
LWPOLYLINE
  5
2F5
100
AcDbEntity
  8
RACCORDO
100
AcDbPolyline
 62
253
  6
CONTINUOUS
 90
13
 70
0
 10
160.8260871224
 20
96.6347464838
 10
160.8277135484
 20
96.6307574489
 10
160.8299526201
 20
96.6201292966
 10
160.832395
 20
96.6032501163
 10
160.8342833753
 20
96.5801371791
 10
160.8357947431
 20
96.5508598899
 10
160.8377513769
 20
96.5161695862
 10
160.8393583643
 20
96.4769566512
 10
160.8401753342
 20
96.4335690959
 10
160.8413482768
 20
96.386640469
 10
160.8428611362
 20
96.3370729618
 10
160.843497297
 20
96.2859100704
 10
160.8426431307
 20
96.2342014163
  0
LWPOLYLINE
  5
2F6
100
AcDbEntity
  8
RACCORDO
100
AcDbPolyline
 62
7
  6
CONTINUOUS
 90
10
 70
0
 10
160.4363879956
 20
97.2313061692
 10
160.435026324
 20
97.2347938827
 10
160.4336999655
 20
97.2382831712
 10
160.4324088889
 20
97.2417743377
 10
160.431153612
 20
97.2452668743
 10
160.4299335543
 20
97.2487618936
 10
160.4287470171
 20
97.2522621143
 10
160.4275933904
 20
97.2557686266
 10
160.4264731714
 20
97.2592809067
 10
160.4253863038
 20
97.262799238
  0
LWPOLYLINE
  5
2F7
100
AcDbEntity
  8
RACCORDO
100
AcDbPolyline
 62
253
  6
CONTINUOUS
 90
19
 70
0
 10
160.8426351639
 20
97.4041430132
 10
160.796588427
 20
97.5339886857
 10
160.7420834293
 20
97.6592665761
 10
160.6791197594
 20
97.7799767107
 10
160.607274288
 20
97.8967341382
 10
160.5269691364
 20
98.0089238512
 10
160.4394717767
 20
98.1147007781
 10
160.3447184008
 20
98.2138915839
 10
160.2427717601
 20
98.3066696013
 10
160.1350893327
 20
98.3917097396
 10
160.0215991803
 20
98.4689105108
 10
159.9023723378
 20
98.5383733636
 10
159.7790810076
 20
98.5990775966
 10
159.6515622358
 20
98.6509169138
 10
159.5199783736
 20
98.6939975447
 10
159.3864899389
 20
98.7276175684
 10
159.2518171381
 20
98.7515429851
 10
159.1152396447
 20
98.7660077165
 10
158.9767573828
 20
98.771011722
  0
LWPOLYLINE
  5
2F8
100
AcDbEntity
  8
RACCORDO
100
AcDbPolyline
 62
253
  6
CONTINUOUS
 90
19
 70
0
 10
160.4444996379
 20
97.2836708412
 10
160.4084054482
 20
97.3859244733
 10
160.3651817818
 20
97.4855475
 10
160.3150102457
 20
97.5820377818
 10
160.2580735635
 20
97.6749577242
 10
160.1946515116
 20
97.763773656
 10
160.1251562338
 20
97.847884031
 10
160.0499943857
 20
97.9268200355
 10
159.9694932265
 20
98.0002594181
 10
159.8840126725
 20
98.0678740465
 10
159.7939761442
 20
98.1293237306
 10
159.6998231635
 20
98.1843034827
 10
159.6019581641
 20
98.2325630907
 10
159.5007804334
 20
98.2738755781
 10
159.3968591649
 20
98.3079794131
 10
159.2908860939
 20
98.3346481572
 10
159.1834539394
 20
98.3537603888
 10
159.075040051
 20
98.3652589367
 10
158.9661831213
 20
98.3691073914
  0
LINE
  5
2F9
100
AcDbEntity
  8
RACCORDO
100
AcDbLine
 62
7
  6
CONTINUOUS
 10
153.536193756
 20
119.0118863096
 11
153.4933374571
 21
119.1405597614
  0
LWPOLYLINE
  5
2FA
100
AcDbEntity
  8
RACCORDO
100
AcDbPolyline
 62
253
  6
CONTINUOUS
 90
9
 70
0
 10
166.7774562532
 20
75.2938349987
 10
166.7759447339
 20
75.2992802678
 10
166.7744667834
 20
75.3092287585
 10
166.7730224016
 20
75.3236804711
 10
166.7716014416
 20
75.34279501
 10
166.7702140503
 20
75.3664127707
 10
166.7688906687
 20
75.3940549391
 10
166.7676334194
 20
75.4258037054
 10
166.7664401797
 20
75.4615768793
  0
LWPOLYLINE
  5
2FB
100
AcDbEntity
  8
RACCORDO
100
AcDbPolyline
 62
253
  6
CONTINUOUS
 90
13
 70
0
 10
166.2229305494
 20
97.0005973223
 10
166.2273846405
 20
97.0044384772
 10
166.2317632459
 20
97.0149932698
 10
166.2359921593
 20
97.0320828231
 10
166.2399997113
 20
97.055417512
 10
166.243717984
 20
97.0846018723
 10
166.247083962
 20
97.1191413025
 10
166.2500406006
 20
97.1584504461
 10
166.252537792
 20
97.2018631121
 10
166.2545332153
 20
97.2486435649
 10
166.255993053
 20
97.2979989935
 10
166.2568925646
 20
97.3490929476
 10
166.2572165056
 20
97.4010595131
  0
LWPOLYLINE
  5
2FC
100
AcDbEntity
  8
RACCORDO
100
AcDbPolyline
 62
253
  6
CONTINUOUS
 90
13
 70
0
 10
166.2570728314
 20
96.6377714511
 10
166.2615385404
 20
96.633929708
 10
166.2659285665
 20
96.623374478
 10
166.2701685112
 20
96.6062846421
 10
166.2741865195
 20
96.5829498239
 10
166.2779144975
 20
96.5537654816
 10
166.2812892662
 20
96.5192262061
 10
166.2842536328
 20
96.4799173389
 10
166.2867573591
 20
96.4365050527
 10
166.2887580136
 20
96.389725061
 10
166.2902216904
 20
96.3403701505
 10
166.2911235836
 20
96.2892767452
 10
166.2914484082
 20
96.2373107319
  0
LINE
  5
2FD
100
AcDbEntity
  8
DRAFT
100
AcDbLine
 62
7
  6
CONTINUOUS
 10
165.6913388857
 20
96.6862247205
 11
165.6913388857
 21
96.6591714304
  0
LWPOLYLINE
  5
2FE
100
AcDbEntity
  8
RACCORDO
100
AcDbPolyline
 62
253
  6
CONTINUOUS
 90
6
 70
0
 10
166.2497852875
 20
118.7191678498
 10
166.2485968406
 20
118.7594407223
 10
166.2473434298
 20
118.7922298507
 10
166.246034734
 20
118.8173105992
 10
166.2447471632
 20
118.8345078552
 10
166.243525011
 20
118.8437007825
  0
LINE
  5
2FF
100
AcDbEntity
  8
RACCORDO
100
AcDbLine
 62
253
  6
CONTINUOUS
 10
166.7664401797
 20
75.4615768793
 11
166.7643198444
 21
75.5430866599
  0
LINE
  5
300
100
AcDbEntity
  8
RACCORDO
100
AcDbLine
 62
253
  6
CONTINUOUS
 10
166.2521041407
 20
118.6172973828
 11
166.2497852875
 21
118.7191678498
  0
LINE
  5
301
100
AcDbEntity
  8
RACCORDO
100
AcDbLine
 62
253
  6
CONTINUOUS
 10
166.7643198444
 20
75.5430866599
 11
166.7625721263
 21
75.6369344192
  0
LINE
  5
302
100
AcDbEntity
  8
RACCORDO
100
AcDbLine
 62
253
  6
CONTINUOUS
 10
166.2551344117
 20
118.4166866041
 11
166.2521041407
 21
118.6172973828
  0
LINE
  5
303
100
AcDbEntity
  8
RACCORDO
100
AcDbLine
 62
253
  6
CONTINUOUS
 10
166.7625721263
 20
75.6369344192
 11
166.7612545836
 21
75.740437269
  0
LINE
  5
304
100
AcDbEntity
  8
RACCORDO
100
AcDbLine
 62
253
  6
CONTINUOUS
 10
166.2581384848
 20
118.079713237
 11
166.2551344117
 21
118.4166866041
  0
LINE
  5
305
100
AcDbEntity
  8
RACCORDO
100
AcDbLine
 62
253
  6
CONTINUOUS
 10
166.7612545836
 20
75.740437269
 11
166.7604028266
 21
75.8495721856
  0
LINE
  5
306
100
AcDbEntity
  8
RACCORDO
100
AcDbLine
 62
253
  6
CONTINUOUS
 10
166.2597137698
 20
117.6964942905
 11
166.2581384848
 21
118.079713237
  0
LINE
  5
307
100
AcDbEntity
  8
RACCORDO
100
AcDbLine
 62
253
  6
CONTINUOUS
 10
166.7604028266
 20
75.8495721856
 11
166.7535707829
 21
82.8360811257
  0
LINE
  5
308
100
AcDbEntity
  8
RACCORDO
100
AcDbLine
 62
253
  6
CONTINUOUS
 10
166.7535707829
 20
82.8360811257
 11
166.7490448297
 21
91.6208213311
  0
LINE
  5
309
100
AcDbEntity
  8
RACCORDO
100
AcDbLine
 62
253
  6
CONTINUOUS
 10
166.7490448297
 20
91.6208213311
 11
166.7483070989
 21
96.238633287
  0
LINE
  5
30A
100
AcDbEntity
  8
DRAFT
100
AcDbLine
 62
7
  6
CONTINUOUS
 10
166.8913388857
 20
109.9691714304
 11
166.8913388857
 21
105.8691714304
  0
LINE
  5
30B
100
AcDbEntity
  8
RACCORDO
100
AcDbLine
 62
7
  6
CONTINUOUS
 10
166.8913388857
 20
96.2863008663
 11
166.8913388857
 21
83.7191714304
  0
LINE
  5
30C
100
AcDbEntity
  8
RACCORDO
100
AcDbLine
 62
7
  6
CONTINUOUS
 10
166.8913388857
 20
97.3406970663
 11
166.8913388857
 21
105.8691714304
  0
LINE
  5
30D
100
AcDbEntity
  8
RACCORDO
100
AcDbLine
 62
7
  6
CONTINUOUS
 10
166.8913388857
 20
109.9691714304
 11
166.8913388857
 21
118.6405595263
  0
LINE
  5
30E
100
AcDbEntity
  8
RACCORDO
100
AcDbLine
 62
253
  6
CONTINUOUS
 10
166.25721639
 20
97.4010595132
 11
166.2597137608
 21
117.6964942909
  0
LINE
  5
30F
100
AcDbEntity
  8
RACCORDO
100
AcDbLine
 62
253
  6
CONTINUOUS
 10
166.7141876993
 20
97.399735469
 11
166.7175775892
 21
108.0706995785
  0
LINE
  5
310
100
AcDbEntity
  8
RACCORDO
100
AcDbLine
 62
7
  6
CONTINUOUS
 10
166.8636945853
 20
75.1212399856
 11
166.8913388857
 21
83.7191714304
  0
LINE
  5
311
100
AcDbEntity
  8
RACCORDO
100
AcDbLine
 62
253
  6
CONTINUOUS
 10
166.2933424459
 20
75.746865225
 11
166.2914501462
 21
96.2373107031
  0
LINE
  5
312
100
AcDbEntity
  8
RACCORDO
100
AcDbLine
 62
253
  6
CONTINUOUS
 10
166.7175775892
 20
108.0706995785
 11
166.7263008249
 21
117.7886886321
  0
LINE
  5
313
100
AcDbEntity
  8
RACCORDO
100
AcDbLine
 62
253
  6
CONTINUOUS
 10
166.2909891786
 20
75.3819169753
 11
166.2933424459
 21
75.746865225
  0
LINE
  5
314
100
AcDbEntity
  8
RACCORDO
100
AcDbLine
 62
253
  6
CONTINUOUS
 10
166.7263008249
 20
117.7886886321
 11
166.7271526833
 21
117.8978175291
  0
LINE
  5
315
100
AcDbEntity
  8
RACCORDO
100
AcDbLine
 62
253
  6
CONTINUOUS
 10
166.2883523424
 20
75.1488839588
 11
166.2909891786
 21
75.3819169753
  0
LINE
  5
316
100
AcDbEntity
  8
RACCORDO
100
AcDbLine
 62
253
  6
CONTINUOUS
 10
166.7271526833
 20
117.8978175291
 11
166.7284702726
 21
118.00131376
  0
LINE
  5
317
100
AcDbEntity
  8
RACCORDO
100
AcDbLine
 62
253
  6
CONTINUOUS
 10
166.2862661766
 20
75.0209424324
 11
166.2883523424
 21
75.1488839588
  0
LINE
  5
318
100
AcDbEntity
  8
RACCORDO
100
AcDbLine
 62
253
  6
CONTINUOUS
 10
166.7284702726
 20
118.00131376
 11
166.73021798
 21
118.0951548307
  0
LWPOLYLINE
  5
319
100
AcDbEntity
  8
RACCORDO
100
AcDbPolyline
 62
253
  6
CONTINUOUS
 90
10
 70
0
 10
166.73021798
 20
118.0951548307
 10
166.7323382511
 20
118.1766583241
 10
166.7335314389
 20
118.2124285641
 10
166.7347886263
 20
118.2441746827
 10
166.7361119351
 20
118.2718145028
 10
166.7374992434
 20
118.2954302016
 10
166.7389201151
 20
118.3145430728
 10
166.7403644046
 20
118.3289935478
 10
166.7418422574
 20
118.3389411952
 10
166.7433536735
 20
118.3443860151
  0
LWPOLYLINE
  5
31A
100
AcDbEntity
  8
RACCORDO
100
AcDbPolyline
 62
253
  6
CONTINUOUS
 90
7
 70
0
 10
166.2776275907
 20
74.7945202314
 10
166.2788585903
 20
74.8037138089
 10
166.280155114
 20
74.8209124534
 10
166.2814727192
 20
74.8459953035
 10
166.2827347682
 20
74.8787872164
 10
166.28393152
 20
74.919063509
 10
166.2862661766
 20
75.0209424324
  0
LWPOLYLINE
  5
31B
100
AcDbEntity
  8
RACCORDO
100
AcDbPolyline
 62
253
  6
CONTINUOUS
 90
13
 70
0
 10
145.3229640145
 20
117.6964942931
 10
145.2619562019
 20
117.696085906
 10
145.2023807745
 20
117.6953596394
 10
145.1451395688
 20
117.6943264873
 10
145.0910990862
 20
117.6930020893
 10
145.0410773764
 20
117.6914064939
 10
144.9958316543
 20
117.6895638544
 10
144.956046837
 20
117.6875020644
 10
144.922325176
 20
117.6852523346
 10
144.8951771404
 20
117.6828487207
 10
144.8750136896
 20
117.6803276079
 10
144.8621400525
 20
117.6777271603
 10
144.8567511065
 20
117.6750867425
  0
LINE
  5
31C
100
AcDbEntity
  8
RACCORDO
100
AcDbLine
 62
253
  6
CONTINUOUS
 10
166.2597137608
 20
117.6964942909
 11
161.5139767732
 21
117.6914778166
  0
LINE
  5
31D
100
AcDbEntity
  8
RACCORDO
100
AcDbLine
 62
253
  6
CONTINUOUS
 10
161.5139767732
 20
117.6914778166
 11
156.7640854973
 21
117.6894022762
  0
LINE
  5
31E
100
AcDbEntity
  8
RACCORDO
100
AcDbLine
 62
253
  6
CONTINUOUS
 10
156.7640854973
 20
117.6894022762
 11
151.3313242344
 21
117.6906376715
  0
LINE
  5
31F
100
AcDbEntity
  8
RACCORDO
100
AcDbLine
 62
253
  6
CONTINUOUS
 10
151.3313242344
 20
117.6906376715
 11
145.3229640144
 21
117.6964942886
  0
LWPOLYLINE
  5
320
100
AcDbEntity
  8
RACCORDO
100
AcDbPolyline
 62
253
  6
CONTINUOUS
 90
13
 70
0
 10
166.2597124276
 20
117.6964934426
 10
166.3207193124
 20
117.6960850748
 10
166.3802938967
 20
117.6953588425
 10
166.4375343852
 20
117.6943257387
 10
166.4915743147
 20
117.693001402
 10
166.5415956694
 20
117.6914058789
 10
166.586841264
 20
117.6895633205
 10
166.6266262047
 20
117.6875016178
 10
166.6603482572
 20
117.6852519796
 10
166.6874969625
 20
117.6828484591
 10
166.707661364
 20
117.680327439
 10
166.7205362283
 20
117.6777270805
 10
166.7259266652
 20
117.675086746
  0
LWPOLYLINE
  5
321
100
AcDbEntity
  8
RACCORDO
100
AcDbPolyline
 62
253
  6
CONTINUOUS
 90
16
 70
0
 10
145.3391527615
 20
118.8437007801
 10
145.2869507916
 20
118.8408986982
 10
145.2353198814
 20
118.832666008
 10
145.184824739
 20
118.8190927856
 10
145.1360176229
 20
118.8003275078
 10
145.0894323698
 20
118.7765754529
 10
145.0455785454
 20
118.7480964773
 10
145.0049357743
 20
118.7152021198
 10
144.9679485291
 20
118.6782521884
 10
144.9350213236
 20
118.6376508715
 10
144.9065142441
 20
118.5938422823
 10
144.8827390088
 20
118.5473055773
 10
144.8639555829
 20
118.4985497342
 10
144.8503693429
 20
118.4481080013
 10
144.8421288258
 20
118.3965320681
 10
144.839324099
 20
118.3443860127
  0
LINE
  5
322
100
AcDbEntity
  8
RACCORDO
100
AcDbLine
 62
253
  6
CONTINUOUS
 10
166.2435250122
 20
118.8437007848
 11
162.8602853714
 21
118.8335962839
  0
LINE
  5
323
100
AcDbEntity
  8
RACCORDO
100
AcDbLine
 62
253
  6
CONTINUOUS
 10
162.8602853714
 20
118.8335962839
 11
159.475790539
 21
118.8273970177
  0
LINE
  5
324
100
AcDbEntity
  8
RACCORDO
100
AcDbLine
 62
253
  6
CONTINUOUS
 10
159.475790539
 20
118.8273970177
 11
156.0893857392
 21
118.825100423
  0
LINE
  5
325
100
AcDbEntity
  8
RACCORDO
100
AcDbLine
 62
7
  6
CONTINUOUS
 10
153.8361480646
 20
118.9964383684
 11
157.7465297067
 21
118.9964383684
  0
LINE
  5
326
100
AcDbEntity
  8
RACCORDO
100
AcDbLine
 62
7
  6
CONTINUOUS
 10
145.1908250493
 20
119.1405597614
 11
153.4933374571
 21
119.1405597614
  0
LINE
  5
327
100
AcDbEntity
  8
RACCORDO
100
AcDbLine
 62
7
  6
CONTINUOUS
 10
158.0893403142
 20
119.1405597614
 11
166.391852722
 21
119.1405597614
  0
LINE
  5
328
100
AcDbEntity
  8
RACCORDO
100
AcDbLine
 62
253
  6
CONTINUOUS
 10
156.0893857392
 20
118.825100423
 11
152.7101579769
 21
118.8266986459
  0
LINE
  5
329
100
AcDbEntity
  8
RACCORDO
100
AcDbLine
 62
253
  6
CONTINUOUS
 10
152.7101579769
 20
118.8266986459
 11
149.2277803453
 21
118.8324230236
  0
LWPOLYLINE
  5
32A
100
AcDbEntity
  8
RACCORDO
100
AcDbPolyline
 62
253
  6
CONTINUOUS
 90
3
 70
0
 10
149.2277803453
 20
118.8324230236
 10
146.1596586415
 20
118.840919059
 10
145.3391527601
 20
118.8437007829
  0
LWPOLYLINE
  5
32B
100
AcDbEntity
  8
RACCORDO
100
AcDbPolyline
 62
253
  6
CONTINUOUS
 90
16
 70
0
 10
166.243525011
 20
118.8437007825
 10
166.2957259812
 20
118.8408988073
 10
166.3473560228
 20
118.8326664103
 10
166.3978504518
 20
118.8190936301
 10
166.4466570042
 20
118.8003289139
 10
166.4932418769
 20
118.7765774937
 10
166.5370955653
 20
118.7480991419
 10
166.5777384362
 20
118.7152053296
 10
166.6147259735
 20
118.6782558207
 10
166.6476536399
 20
118.6376547364
 10
166.6761613015
 20
118.5938461358
 10
166.6999371665
 20
118.547309159
 10
166.7187211953
 20
118.4985527867
 10
166.7323079446
 20
118.4481102733
 10
166.7405488144
 20
118.3965333149
 10
166.7433536735
 20
118.3443860151
  0
LINE
  5
32C
100
AcDbEntity
  8
RACCORDO
100
AcDbLine
 62
7
  6
CONTINUOUS
 10
127.5041915631
 20
74.6244366137
 11
123.9012697754
 21
74.8132577435
  0
LINE
  5
32D
100
AcDbEntity
  8
RACCORDO
100
AcDbLine
 62
253
  6
CONTINUOUS
 10
127.565191347
 20
75.1212399856
 11
124.2718823104
 21
75.2938349987
  0
LWPOLYLINE
  5
32E
100
AcDbEntity
  8
RACCORDO
100
AcDbPolyline
 62
7
  6
CONTINUOUS
 90
19
 70
0
 10
124.2588028064
 20
74.7945202314
 10
124.1606007687
 20
74.8037138089
 10
124.0635094787
 20
74.8209124534
 10
123.9681792693
 20
74.8459953035
 10
123.8752494379
 20
74.8787872164
 10
123.7853393193
 20
74.919063509
 10
123.6990454714
 20
74.966554532
 10
123.6169403259
 20
75.0209424324
 10
123.5395772291
 20
75.0818572636
 10
123.4674821898
 20
75.1488839588
 10
123.4011364491
 20
75.2215687893
 10
123.3409799651
 20
75.2994220012
 10
123.2874177393
 20
75.3819169753
 10
123.2408090631
 20
75.4684895394
 10
123.2014560077
 20
75.5585646481
 10
123.1696134305
 20
75.6515613987
 10
123.1454955021
 20
75.746865225
 10
123.1292677488
 20
75.8438292316
 10
123.1210408911
 20
75.9418030723
  0
LWPOLYLINE
  5
32F
100
AcDbEntity
  8
RACCORDO
100
AcDbPolyline
 62
253
  6
CONTINUOUS
 90
19
 70
0
 10
124.2718823104
 20
75.2938349987
 10
124.2141597186
 20
75.2992802678
 10
124.1577190652
 20
75.3092287585
 10
124.1025603502
 20
75.3236804711
 10
124.0482960757
 20
75.34279501
 10
123.9953137397
 20
75.3664127707
 10
123.9447758361
 20
75.3940549391
 10
123.8967634204
 20
75.4258037054
 10
123.8511954371
 20
75.4615768793
 10
123.8089912142
 20
75.5006490761
 10
123.7702230959
 20
75.5430866599
 10
123.7348187379
 20
75.5888232665
 10
123.7034804352
 20
75.6369344192
 10
123.6762899442
 20
75.6874985711
 10
123.6531655084
 20
75.740437269
 10
123.6345641539
 20
75.7945906778
 10
123.6206382227
 20
75.8495721856
 10
123.6112353727
 20
75.9057684041
 10
123.6063556039
 20
75.9631793335
  0
LINE
  5
330
100
AcDbEntity
  8
RACCORDO
100
AcDbLine
 62
253
  6
CONTINUOUS
 10
123.1210409256
 20
75.9418030539
 11
123.1442743431
 21
75.9429369352
  0
LINE
  5
331
100
AcDbEntity
  8
RACCORDO
100
AcDbLine
 62
253
  6
CONTINUOUS
 10
123.1442743431
 20
75.9429369352
 11
123.6063556039
 21
75.9631793335
  0
LINE
  5
332
100
AcDbEntity
  8
RACCORDO
100
AcDbLine
 62
253
  6
CONTINUOUS
 10
122.7657105208
 20
75.9490024534
 11
123.1210409215
 21
75.9418030732
  0
LWPOLYLINE
  5
333
100
AcDbEntity
  8
RACCORDO
100
AcDbPolyline
 62
253
  6
CONTINUOUS
 90
11
 70
0
 10
124.2564778294
 20
118.8437007825
 10
124.2552577472
 20
118.8408988073
 10
124.2543372108
 20
118.8326664103
 10
124.2537262882
 20
118.8190936301
 10
124.2534316607
 20
118.8003289139
 10
124.2534565511
 20
118.7765774937
 10
124.2538006881
 20
118.7480991419
 10
124.2544603079
 20
118.7152053296
 10
124.2554281961
 20
118.6782558207
 10
124.2566937668
 20
118.6376547364
 10
124.2600594843
 20
118.547309159
  0
LWPOLYLINE
  5
334
100
AcDbEntity
  8
RACCORDO
100
AcDbPolyline
 62
253
  6
CONTINUOUS
 90
9
 70
0
 10
124.2588028064
 20
74.7945202314
 10
124.2575826947
 20
74.7973223132
 10
124.2566621432
 20
74.8055550034
 10
124.2560512185
 20
74.8191282258
 10
124.2557566005
 20
74.8378935035
 10
124.2557815102
 20
74.8616455583
 10
124.2561256736
 20
74.8901245339
 10
124.2567853234
 20
74.9230188913
 10
124.2577532416
 20
74.9599688227
  0
LWPOLYLINE
  5
335
100
AcDbEntity
  8
RACCORDO
100
AcDbPolyline
 62
7
  6
CONTINUOUS
 90
19
 70
0
 10
123.1187260527
 20
117.6964942905
 10
123.1269585876
 20
117.794463837
 10
123.1431912915
 20
117.8914231082
 10
123.1673134079
 20
117.9867218419
 10
123.1991593798
 20
118.079713237
 10
123.2385150222
 20
118.1697828073
 10
123.2851254729
 20
118.256349717
 10
123.3386886481
 20
118.3388390076
 10
123.3988452639
 20
118.4166866041
 10
123.4651903509
 20
118.4893659728
 10
123.5372839631
 20
118.5563874448
 10
123.6146448957
 20
118.6172973828
 10
123.6967472213
 20
118.6716808098
 10
123.7830376331
 20
118.7191678498
 10
123.8729437639
 20
118.7594407223
 10
123.9658691909
 20
118.7922298507
 10
124.0611946755
 20
118.8173105992
 10
124.1582809728
 20
118.8345078552
 10
124.2564778294
 20
118.8437007825
  0
LINE
  5
336
100
AcDbEntity
  8
RACCORDO
100
AcDbLine
 62
7
  6
CONTINUOUS
 10
122.2862609487
 20
98.6274357117
 11
122.2880798738
 21
98.6050543217
  0
LWPOLYLINE
  5
337
100
AcDbEntity
  8
RACCORDO
100
AcDbPolyline
 62
253
  6
CONTINUOUS
 90
7
 70
0
 10
122.2880798738
 20
98.6050543217
 10
122.2860330687
 20
98.6509169138
 10
122.2821429606
 20
98.6939975447
 10
122.2782994337
 20
98.7276175684
 10
122.2745254491
 20
98.7515429851
 10
122.2708045177
 20
98.7660077165
 10
122.2671417957
 20
98.771011722
  0
LINE
  5
338
100
AcDbEntity
  8
RACCORDO
100
AcDbLine
 62
7
  6
CONTINUOUS
 10
122.2880798738
 20
98.6050543217
 11
122.2899981363
 21
98.5789751469
  0
LINE
  5
339
100
AcDbEntity
  8
RACCORDO
100
AcDbLine
 62
253
  6
CONTINUOUS
 10
122.3255759116
 20
96.2389793672
 11
122.3258967152
 21
96.2342014163
  0
LINE
  5
33A
100
AcDbEntity
  8
RACCORDO
100
AcDbLine
 62
7
  6
CONTINUOUS
 10
122.2899981363
 20
98.5789751469
 11
122.2919880357
 21
98.5493086029
  0
LINE
  5
33B
100
AcDbEntity
  8
RACCORDO
100
AcDbLine
 62
253
  6
CONTINUOUS
 10
122.3291724322
 20
97.352437223
 11
122.3258502543
 21
97.4041430132
  0
LINE
  5
33C
100
AcDbEntity
  8
RACCORDO
100
AcDbLine
 62
253
  6
CONTINUOUS
 10
122.2919361311
 20
98.5500962796
 11
122.2898993269
 21
98.5990775966
  0
LINE
  5
33D
100
AcDbEntity
  8
RACCORDO
100
AcDbLine
 62
7
  6
CONTINUOUS
 10
122.2919361311
 20
98.5500962796
 11
122.2940285617
 21
98.5160816313
  0
LINE
  5
33E
100
AcDbEntity
  8
RACCORDO
100
AcDbLine
 62
7
  6
CONTINUOUS
 10
122.2939264405
 20
98.517809739
 11
122.2961030796
 21
98.4792980154
  0
LINE
  5
33F
100
AcDbEntity
  8
RACCORDO
100
AcDbLine
 62
253
  6
CONTINUOUS
 10
122.2939264405
 20
98.517809739
 11
122.2937265827
 21
98.5383733636
  0
LINE
  5
340
100
AcDbEntity
  8
RACCORDO
100
AcDbLine
 62
7
  6
CONTINUOUS
 10
122.2959968769
 20
98.4812575774
 11
122.2992546289
 21
98.4173793555
  0
LINE
  5
341
100
AcDbEntity
  8
RACCORDO
100
AcDbLine
 62
253
  6
CONTINUOUS
 10
122.2991429216
 20
98.4197092541
 11
122.2975121731
 21
98.4689105108
  0
LINE
  5
342
100
AcDbEntity
  8
RACCORDO
100
AcDbLine
 62
7
  6
CONTINUOUS
 10
122.2991429216
 20
98.4197092541
 11
122.3024303059
 21
98.3472914813
  0
LINE
  5
343
100
AcDbEntity
  8
RACCORDO
100
AcDbLine
 62
253
  6
CONTINUOUS
 10
122.302313235
 20
98.3500130581
 11
122.3011931564
 21
98.3917097396
  0
LINE
  5
344
100
AcDbEntity
  8
RACCORDO
100
AcDbLine
 62
7
  6
CONTINUOUS
 10
122.325529753
 20
97.3993675127
 11
122.3265339391
 21
97.3749482645
  0
LWPOLYLINE
  5
345
100
AcDbEntity
  8
RACCORDO
100
AcDbPolyline
 62
253
  6
CONTINUOUS
 90
10
 70
0
 10
123.1210409215
 20
75.9418030732
 10
123.0266174291
 20
78.2728369847
 10
122.9446302938
 20
80.5661079958
 10
122.8745430755
 20
82.8215455997
 10
122.8164386437
 20
85.0138717394
 10
122.7689626989
 20
87.1682342104
 10
122.73044548
 20
89.3602312659
 10
122.7011239986
 20
91.6150460332
 10
122.6820194516
 20
93.9074213988
 10
122.673660771
 20
96.2373107031
  0
LWPOLYLINE
  5
346
100
AcDbEntity
  8
RACCORDO
100
AcDbPolyline
 62
253
  6
CONTINUOUS
 90
9
 70
0
 10
123.6063556039
 20
75.9631793335
 10
123.5127667887
 20
78.2920029422
 10
123.4305592539
 20
80.5829702062
 10
123.3597329996
 20
82.8360811257
 10
123.3008458534
 20
85.0261923716
 10
123.2533399876
 20
87.1784472729
 10
123.2155419194
 20
89.3682758164
 10
123.186893821
 20
91.6208213311
 10
123.1679535201
 20
93.9109404879
  0
LINE
  5
347
100
AcDbEntity
  8
RACCORDO
100
AcDbLine
 62
7
  6
CONTINUOUS
 10
122.302313235
 20
98.3500130581
 11
122.3055977708
 21
98.2690351335
  0
LINE
  5
348
100
AcDbEntity
  8
RACCORDO
100
AcDbLine
 62
253
  6
CONTINUOUS
 10
122.3054775407
 20
98.2721663435
 11
122.3047549695
 21
98.3066696013
  0
LINE
  5
349
100
AcDbEntity
  8
RACCORDO
100
AcDbLine
 62
7
  6
CONTINUOUS
 10
122.3054775407
 20
98.2721663435
 11
122.3096103189
 21
98.1556756133
  0
LINE
  5
34A
100
AcDbEntity
  8
RACCORDO
100
AcDbLine
 62
253
  6
CONTINUOUS
 10
122.3087117757
 20
98.1825967857
 11
122.3081901208
 21
98.2138915839
  0
LINE
  5
34B
100
AcDbEntity
  8
RACCORDO
100
AcDbLine
 62
7
  6
CONTINUOUS
 10
122.3087117757
 20
98.1825967857
 11
122.3127227244
 21
98.0545808546
  0
LINE
  5
34C
100
AcDbEntity
  8
RACCORDO
100
AcDbLine
 62
253
  6
CONTINUOUS
 10
122.3126013984
 20
98.0587665607
 11
122.3114380675
 21
98.1147007781
  0
LINE
  5
34D
100
AcDbEntity
  8
RACCORDO
100
AcDbLine
 62
7
  6
CONTINUOUS
 10
122.3126013984
 20
98.0587665607
 11
122.3165035084
 21
97.9122417365
  0
LINE
  5
34E
100
AcDbEntity
  8
RACCORDO
100
AcDbLine
 62
7
  6
CONTINUOUS
 10
122.3163854923
 20
97.9170831331
 11
122.3206406976
 21
97.7205472101
  0
LINE
  5
34F
100
AcDbEntity
  8
RACCORDO
100
AcDbLine
 62
253
  6
CONTINUOUS
 10
122.3199496353
 20
97.7559998056
 11
122.3198887948
 21
97.7799767107
  0
LINE
  5
350
100
AcDbEntity
  8
RACCORDO
100
AcDbLine
 62
7
  6
CONTINUOUS
 10
122.3199496353
 20
97.7559998056
 11
122.323660525
 21
97.5420320466
  0
LINE
  5
351
100
AcDbEntity
  8
RACCORDO
100
AcDbLine
 62
7
  6
CONTINUOUS
 10
122.3235641098
 20
97.5485049412
 11
122.3255400039
 21
97.398937301
  0
LINE
  5
352
100
AcDbEntity
  8
RACCORDO
100
AcDbLine
 62
7
  6
CONTINUOUS
 10
122.3255306662
 20
97.3992700071
 11
122.325529753
 21
97.3993675127
  0
LWPOLYLINE
  5
353
100
AcDbEntity
  8
SUPERFICI
100
AcDbPolyline
 62
7
  6
CONTINUOUS
 90
10
 70
0
 10
122.2256304155
 20
94.8669374165
 10
122.2305361054
 20
94.0378630976
 10
122.2528030068
 20
91.7646718676
 10
122.2879897796
 20
89.4916383037
 10
122.3360960973
 20
87.2188358419
 10
122.3971195883
 20
84.9463378684
 10
122.4710572638
 20
82.6742177684
 10
122.5579061348
 20
80.4025489099
 10
122.657663213
 20
78.1314046434
 10
122.7657105249
 20
75.9490023736
  0
LINE
  5
354
100
AcDbEntity
  8
RACCORDO
100
AcDbLine
 62
253
  6
CONTINUOUS
 10
123.1581750041
 20
96.3421422566
 11
123.1679535201
 21
93.9109404879
  0
LINE
  5
355
100
AcDbEntity
  8
RACCORDO
100
AcDbLine
 62
253
  6
CONTINUOUS
 10
123.1554123849
 20
97.199763912
 11
123.1552077525
 21
97.2962227873
  0
LWPOLYLINE
  5
356
100
AcDbEntity
  8
RACCORDO
100
AcDbPolyline
 62
253
  6
CONTINUOUS
 90
10
 70
0
 10
122.6706835538
 20
97.4010595132
 10
122.6776094193
 20
99.4782278743
 10
122.6937297502
 20
101.5881547946
 10
122.7194709096
 20
103.7307970474
 10
122.7549706126
 20
105.8903276796
 10
122.8008199482
 20
108.0824785278
 10
122.8587771261
 20
110.3545250427
 10
122.9304789736
 20
112.7221626453
 10
123.0167268584
 20
115.1695208062
 10
123.1187260484
 20
117.6964942909
  0
LINE
  5
357
100
AcDbEntity
  8
RACCORDO
100
AcDbLine
 62
253
  6
CONTINUOUS
 10
123.1552077525
 20
97.2962227873
 11
123.1619622201
 21
99.4749720636
  0
LWPOLYLINE
  5
358
100
AcDbEntity
  8
RACCORDO
100
AcDbPolyline
 62
253
  6
CONTINUOUS
 90
9
 70
0
 10
123.1619622201
 20
99.4749720636
 10
123.1782349395
 20
101.5828271802
 10
123.2045718716
 20
103.7233008188
 10
123.2398580234
 20
105.8806909377
 10
123.285208388
 20
108.0706995785
 10
123.3439679444
 20
110.3404328672
 10
123.4172516856
 20
112.7055928456
 10
123.5039446185
 20
115.1504774719
 10
123.6040467432
 20
117.675086746
  0
LINE
  5
359
100
AcDbEntity
  8
RACCORDO
100
AcDbLine
 62
7
  6
CONTINUOUS
 10
122.3255768324
 20
96.2390774992
 11
122.3242738409
 21
96.1359957974
  0
LINE
  5
35A
100
AcDbEntity
  8
RACCORDO
100
AcDbLine
 62
7
  6
CONTINUOUS
 10
122.3242738409
 20
96.1359957974
 11
122.3207260794
 21
95.9200532902
  0
LINE
  5
35B
100
AcDbEntity
  8
RACCORDO
100
AcDbLine
 62
253
  6
CONTINUOUS
 10
122.3207260794
 20
95.9200532902
 11
122.3222054352
 21
95.9788783667
  0
LINE
  5
35C
100
AcDbEntity
  8
RACCORDO
100
AcDbLine
 62
7
  6
CONTINUOUS
 10
122.3207260794
 20
95.9200532902
 11
122.3164944766
 21
95.7241090133
  0
LINE
  5
35D
100
AcDbEntity
  8
RACCORDO
100
AcDbLine
 62
253
  6
CONTINUOUS
 10
122.3164944766
 20
95.7241090133
 11
122.3173526607
 21
95.7413227277
  0
LINE
  5
35E
100
AcDbEntity
  8
RACCORDO
100
AcDbLine
 62
7
  6
CONTINUOUS
 10
122.3164944766
 20
95.7241090133
 11
122.3127280693
 21
95.5826710556
  0
LINE
  5
35F
100
AcDbEntity
  8
RACCORDO
100
AcDbLine
 62
7
  6
CONTINUOUS
 10
122.3127280693
 20
95.5826710556
 11
122.3087335771
 21
95.4553762828
  0
LINE
  5
360
100
AcDbEntity
  8
RACCORDO
100
AcDbLine
 62
7
  6
CONTINUOUS
 10
122.3087335771
 20
95.4553762828
 11
122.3045853505
 21
95.3425277434
  0
LINE
  5
361
100
AcDbEntity
  8
RACCORDO
100
AcDbLine
 62
7
  6
CONTINUOUS
 10
122.3255759116
 20
96.2389793672
 11
122.3265797303
 21
96.2633904116
  0
LINE
  5
362
100
AcDbEntity
  8
RACCORDO
100
AcDbLine
 62
7
  6
CONTINUOUS
 10
122.3045853505
 20
95.3425277434
 11
122.3014253961
 21
95.2673551438
  0
LINE
  5
363
100
AcDbEntity
  8
RACCORDO
100
AcDbLine
 62
253
  6
CONTINUOUS
 10
122.2975301024
 20
95.1692554908
 11
122.2972281098
 21
95.1797814094
  0
LINE
  5
364
100
AcDbEntity
  8
RACCORDO
100
AcDbLine
 62
7
  6
CONTINUOUS
 10
122.3014253961
 20
95.2673551438
 11
122.2982728474
 21
95.2003219801
  0
LWPOLYLINE
  5
365
100
AcDbEntity
  8
SUPERFICI
100
AcDbPolyline
 62
7
  6
CONTINUOUS
 90
10
 70
0
 10
122.7657105481
 20
117.6893404287
 10
122.657351131
 20
115.5002564021
 10
122.5576340945
 20
113.229131612
 10
122.4708262265
 20
110.9574781447
 10
122.396930501
 20
108.6853693667
 10
122.3359490214
 20
106.4128786806
 10
122.2878838214
 20
104.1400794885
 10
122.2527366236
 20
101.8670451991
 10
122.2305081288
 20
99.5938492349
 10
122.2256485888
 20
98.7714052518
  0
LINE
  5
366
100
AcDbEntity
  8
RACCORDO
100
AcDbLine
 62
253
  6
CONTINUOUS
 10
122.2937414314
 20
95.0998049272
 11
122.2941265917
 21
95.1235170428
  0
LINE
  5
367
100
AcDbEntity
  8
RACCORDO
100
AcDbLine
 62
7
  6
CONTINUOUS
 10
122.2982728474
 20
95.2003219801
 11
122.2951535934
 21
95.141381095
  0
LINE
  5
368
100
AcDbEntity
  8
RACCORDO
100
AcDbLine
 62
7
  6
CONTINUOUS
 10
122.2951535934
 20
95.141381095
 11
122.293108163
 21
95.1065337774
  0
LINE
  5
369
100
AcDbEntity
  8
RACCORDO
100
AcDbLine
 62
253
  6
CONTINUOUS
 10
122.2899115459
 20
95.0391178605
 11
122.2911052249
 21
95.0752126975
  0
LINE
  5
36A
100
AcDbEntity
  8
RACCORDO
100
AcDbLine
 62
253
  6
CONTINUOUS
 10
122.3292194328
 20
96.2859100704
 11
122.3258967152
 21
96.2342014163
  0
LINE
  5
36B
100
AcDbEntity
  8
RACCORDO
100
AcDbLine
 62
7
  6
CONTINUOUS
 10
122.293108163
 20
95.1065337774
 11
122.2911052249
 21
95.0752126975
  0
LINE
  5
36C
100
AcDbEntity
  8
RACCORDO
100
AcDbLine
 62
253
  6
CONTINUOUS
 10
122.325529753
 20
97.3993675127
 11
122.3258502543
 21
97.4041430132
  0
LINE
  5
36D
100
AcDbEntity
  8
RACCORDO
100
AcDbLine
 62
7
  6
CONTINUOUS
 10
122.2911052249
 20
95.0752126975
 11
122.2891616706
 21
95.04740187
  0
LWPOLYLINE
  5
36E
100
AcDbEntity
  8
RACCORDO
100
AcDbPolyline
 62
7
  6
CONTINUOUS
 90
11
 70
0
 10
122.2891616706
 20
95.04740187
 10
122.2873035937
 20
95.0232052736
 10
122.2864123916
 20
95.0124555061
 10
122.2855558785
 20
95.002664382
 10
122.2847356241
 20
94.9938000551
 10
122.2839572849
 20
94.9858714899
 10
122.2832397837
 20
94.9790023793
 10
122.2825842442
 20
94.9731236615
 10
122.282004967
 20
94.9682797792
 10
122.2815528852
 20
94.9647678615
 10
122.2812257293
 20
94.9624161421
  0
LWPOLYLINE
  5
36F
100
AcDbEntity
  8
RACCORDO
100
AcDbPolyline
 62
253
  6
CONTINUOUS
 90
19
 70
0
 10
123.6040467432
 20
117.675086746
 10
123.6089297501
 20
117.7324951326
 10
123.618335317
 20
117.7886886321
 10
123.6322634438
 20
117.8436672446
 10
123.6508664779
 20
117.8978175291
 10
123.673992072
 20
117.9507529265
 10
123.7011831842
 20
118.00131376
 10
123.7325215515
 20
118.0494215773
 10
123.7679254369
 20
118.0951548307
 10
123.8066925872
 20
118.1375892
 10
123.8488953249
 20
118.1766583241
 10
123.8944613277
 20
118.2124285641
 10
123.9424713754
 20
118.2441746827
 10
123.9930064998
 20
118.2718145028
 10
124.0459856692
 20
118.2954302016
 10
124.1002465687
 20
118.3145430728
 10
124.1554017601
 20
118.3289935478
 10
124.2118386816
 20
118.3389411952
 10
124.2695573333
 20
118.3443860151
  0
LWPOLYLINE
  5
370
100
AcDbEntity
  8
RACCORDO
100
AcDbPolyline
 62
7
  6
CONTINUOUS
 90
15
 70
0
 10
122.3265797303
 20
96.2633904116
 10
122.3317516559
 20
96.3049035688
 10
122.3413366165
 20
96.3460152482
 10
122.3552908536
 20
96.386107436
 10
122.3734928961
 20
96.424638724
 10
122.395805522
 20
96.4611822055
 10
122.4220820894
 20
96.4953476889
 10
122.4519245495
 20
96.5265273174
 10
122.4847861367
 20
96.5541847149
 10
122.5204864466
 20
96.5781964963
 10
122.5585223996
 20
96.5982181665
 10
122.5979126836
 20
96.6138498435
 10
122.6382469974
 20
96.6251173726
 10
122.6796479789
 20
96.6321187739
 10
122.7220620977
 20
96.6347464765
  0
LWPOLYLINE
  5
371
100
AcDbEntity
  8
RACCORDO
100
AcDbPolyline
 62
253
  6
CONTINUOUS
 90
4
 70
0
 10
122.2833551242
 20
94.9801066095
 10
122.2802131337
 20
94.9706725467
 10
122.2703071955
 20
94.9194291675
 10
122.2671554395
 20
94.8673317312
  0
LWPOLYLINE
  5
372
100
AcDbEntity
  8
RACCORDO
100
AcDbPolyline
 62
253
  6
CONTINUOUS
 90
4
 70
0
 10
122.2833321472
 20
98.6582785421
 10
122.2802030219
 20
98.6676729645
 10
122.2702954527
 20
98.7189152122
 10
122.2671418054
 20
98.771011722
  0
LWPOLYLINE
  5
373
100
AcDbEntity
  8
RACCORDO
100
AcDbPolyline
 62
7
  6
CONTINUOUS
 90
14
 70
0
 10
122.3317062867
 20
97.3334354769
 10
122.3412915996
 20
97.2923242042
 10
122.3552461172
 20
97.2522324411
 10
122.3734483671
 20
97.2137015886
 10
122.3957611195
 20
97.1771585559
 10
122.4220377302
 20
97.1429935231
 10
122.4518801563
 20
97.1118143259
 10
122.4847416365
 20
97.084157327
 10
122.5204417705
 20
97.0601459045
 10
122.5584774923
 20
97.0401245392
 10
122.5978675098
 20
97.024493101
 10
122.6382015314
 20
97.0132257443
 10
122.6796021961
 20
97.0062244503
 10
122.7220159758
 20
97.0035967867
  0
LINE
  5
374
100
AcDbEntity
  8
RACCORDO
100
AcDbLine
 62
253
  6
CONTINUOUS
 10
122.339175207
 20
97.3012765504
 11
122.3291724322
 21
97.352437223
  0
LWPOLYLINE
  5
375
100
AcDbEntity
  8
RACCORDO
100
AcDbPolyline
 62
7
  6
CONTINUOUS
 90
12
 70
0
 10
122.2817745854
 20
98.6730163089
 10
122.2812696074
 20
98.6756996871
 10
122.2810583047
 20
98.6769370576
 10
122.2811720714
 20
98.6761961634
 10
122.2814632279
 20
98.6741315254
 10
122.2818909928
 20
98.6708536531
 10
122.2824529974
 20
98.6662138352
 10
122.2830964751
 20
98.6605106667
 10
122.2838066492
 20
98.6537843826
 10
122.2845820317
 20
98.6459624079
 10
122.2854020953
 20
98.6371772317
 10
122.2862609487
 20
98.6274357117
  0
LINE
  5
376
100
AcDbEntity
  8
RACCORDO
100
AcDbLine
 62
7
  6
CONTINUOUS
 10
122.3265339391
 20
97.3749482645
 11
122.3317062867
 21
97.3334354769
  0
LWPOLYLINE
  5
377
100
AcDbEntity
  8
RACCORDO
100
AcDbPolyline
 62
253
  6
CONTINUOUS
 90
10
 70
0
 10
123.1657011854
 20
96.6386180562
 10
123.1643646301
 20
96.6351852004
 10
123.1631106448
 20
96.6249692019
 10
123.1619606793
 20
96.6081448085
 10
123.160934404
 20
96.5849998067
 10
123.1600493738
 20
96.5559300989
 10
123.1593207274
 20
96.5214329314
 10
123.1587609283
 20
96.4820983887
 10
123.1583795521
 20
96.4385993005
 10
123.1581750041
 20
96.3421422566
  0
LWPOLYLINE
  5
378
100
AcDbEntity
  8
RACCORDO
100
AcDbPolyline
 62
253
  6
CONTINUOUS
 90
7
 70
0
 10
122.2671498283
 20
94.867331704
 10
122.2708117657
 20
94.8723198866
 10
122.2745324056
 20
94.8867652595
 10
122.2783066687
 20
94.9106677823
 10
122.2821512475
 20
94.9442585726
 10
122.2860431308
 20
94.9873064348
 10
122.2873035937
 20
95.0232052736
  0
LWPOLYLINE
  5
379
100
AcDbEntity
  8
RACCORDO
100
AcDbPolyline
 62
253
  6
CONTINUOUS
 90
9
 70
0
 10
123.162733882
 20
96.9997506998
 10
123.1613974201
 20
97.00318327
 10
123.1601435041
 20
97.0133985195
 10
123.1589935837
 20
97.0302218673
 10
123.1579673309
 20
97.0533656789
 10
123.1570823017
 20
97.0824342287
 10
123.1563536371
 20
97.1169305038
 10
123.1557938038
 20
97.1562646515
 10
123.1554123849
 20
97.199763912
  0
LINE
  5
37A
100
AcDbEntity
  8
RACCORDO
100
AcDbLine
 62
253
  6
CONTINUOUS
 10
124.2644106181
 20
118.4481102733
 11
124.2695573333
 21
118.3443860151
  0
LINE
  5
37B
100
AcDbEntity
  8
RACCORDO
100
AcDbLine
 62
253
  6
CONTINUOUS
 10
124.2600594843
 20
118.547309159
 11
124.2644106181
 21
118.4481102733
  0
LINE
  5
37C
100
AcDbEntity
  8
RACCORDO
100
AcDbLine
 62
253
  6
CONTINUOUS
 10
124.2577532416
 20
74.9599688227
 11
124.260568267
 21
75.0443787288
  0
LINE
  5
37D
100
AcDbEntity
  8
RACCORDO
100
AcDbLine
 62
253
  6
CONTINUOUS
 10
124.260568267
 20
75.0443787288
 11
124.2644479085
 21
75.139671277
  0
LWPOLYLINE
  5
37E
100
AcDbEntity
  8
RACCORDO
100
AcDbPolyline
 62
253
  6
CONTINUOUS
 90
3
 70
0
 10
124.2644479085
 20
75.139671277
 10
124.2692228873
 20
75.2416889433
 10
124.2718823104
 20
75.2938349987
  0
LWPOLYLINE
  5
37F
100
AcDbEntity
  8
RACCORDO
100
AcDbPolyline
 62
253
  6
CONTINUOUS
 90
8
 70
0
 10
122.4847861367
 20
96.5541847149
 10
122.4806296716
 20
96.5508598899
 10
122.4415226439
 20
96.5161695862
 10
122.4074883247
 20
96.4769566512
 10
122.3787435902
 20
96.4335690959
 10
122.3558239975
 20
96.386640469
 10
122.3392233259
 20
96.3370729618
 10
122.3292194328
 20
96.2859100704
  0
LINE
  5
380
100
AcDbEntity
  8
RACCORDO
100
AcDbLine
 62
253
  6
CONTINUOUS
 10
122.2256304155
 20
94.8669374169
 11
122.2671498283
 21
94.867331704
  0
LWPOLYLINE
  5
381
100
AcDbEntity
  8
RACCORDO
100
AcDbPolyline
 62
253
  6
CONTINUOUS
 90
7
 70
0
 10
122.4847416365
 20
97.084157327
 10
122.4805749737
 20
97.0874898756
 10
122.4414684243
 20
97.1221816245
 10
122.4074353271
 20
97.1613953084
 10
122.3786922755
 20
97.2047827436
 10
122.355774391
 20
97.2517105296
 10
122.339175207
 20
97.3012765504
  0
LWPOLYLINE
  5
382
100
AcDbEntity
  8
RACCORDO
100
AcDbPolyline
 62
253
  6
CONTINUOUS
 90
6
 70
0
 10
122.7220629346
 20
96.6347464838
 10
122.669120109
 20
96.6307574489
 10
122.6184233258
 20
96.6201292966
 10
122.5700655797
 20
96.6032501163
 10
122.5239385445
 20
96.5801371791
 10
122.5204864466
 20
96.5781964963
  0
LWPOLYLINE
  5
383
100
AcDbEntity
  8
RACCORDO
100
AcDbPolyline
 62
253
  6
CONTINUOUS
 90
13
 70
0
 10
123.0686898535
 20
96.6377714511
 10
123.0169538956
 20
96.633929708
 10
122.9661539605
 20
96.623374478
 10
122.9171509613
 20
96.6062846421
 10
122.8707753582
 20
96.5829498239
 10
122.8278130847
 20
96.5537654816
 10
122.7889922278
 20
96.5192262061
 10
122.7549706898
 20
96.4799173389
 10
122.726325038
 20
96.4365050527
 10
122.703540734
 20
96.389725061
 10
122.6870039064
 20
96.3403701505
 10
122.6769948068
 20
96.2892767452
 10
122.6736830607
 20
96.2373107319
  0
LINE
  5
384
100
AcDbEntity
  8
RACCORDO
100
AcDbLine
 62
253
  6
CONTINUOUS
 10
122.3258967152
 20
96.2342014163
 11
122.673660771
 21
96.2373107031
  0
LINE
  5
385
100
AcDbEntity
  8
RACCORDO
100
AcDbLine
 62
253
  6
CONTINUOUS
 10
123.1587210167
 20
96.238633287
 11
128.6208845841
 21
96.2863008663
  0
LINE
  5
386
100
AcDbEntity
  8
RACCORDO
100
AcDbLine
 62
7
  6
CONTINUOUS
 10
122.7220629349
 20
96.6347464839
 11
128.6208845841
 21
96.6862247205
  0
LINE
  5
387
100
AcDbEntity
  8
RACCORDO
100
AcDbLine
 62
253
  6
CONTINUOUS
 10
122.6736607086
 20
96.2373107051
 11
123.1587210203
 21
96.238633287
  0
LINE
  5
388
100
AcDbEntity
  8
RACCORDO
100
AcDbLine
 62
7
  6
CONTINUOUS
 10
129.9208845841
 20
96.9407732121
 11
122.7220168144
 21
97.0035967793
  0
LWPOLYLINE
  5
389
100
AcDbEntity
  8
RACCORDO
100
AcDbPolyline
 62
253
  6
CONTINUOUS
 90
13
 70
0
 10
123.0657205483
 20
97.0005973223
 10
123.0139807751
 20
97.0044384772
 10
122.9631770183
 20
97.0149932698
 10
122.914170274
 20
97.0320828231
 10
122.867791083
 20
97.055417512
 10
122.8248254562
 20
97.0846018723
 10
122.7860015526
 20
97.1191413025
 10
122.7519773399
 20
97.1584504461
 10
122.7233294429
 20
97.2018631121
 10
122.7005433714
 20
97.2486435649
 10
122.684005292
 20
97.2979989935
 10
122.6739954834
 20
97.3490929476
 10
122.6706835869
 20
97.4010595131
  0
LWPOLYLINE
  5
38A
100
AcDbEntity
  8
RACCORDO
100
AcDbPolyline
 62
253
  6
CONTINUOUS
 90
6
 70
0
 10
122.7220168142
 20
97.0035967793
 10
122.6690709278
 20
97.0075862451
 10
122.6183716735
 20
97.0182154826
 10
122.5700121508
 20
97.0350961822
 10
122.5238841034
 20
97.0582108542
 10
122.5204417705
 20
97.0601459045
  0
LINE
  5
38B
100
AcDbEntity
  8
RACCORDO
100
AcDbLine
 62
7
  6
CONTINUOUS
 10
128.6208845841
 20
96.6862247205
 11
128.6208845841
 21
83.7191714304
  0
LINE
  5
38C
100
AcDbEntity
  8
RACCORDO
100
AcDbLine
 62
253
  6
CONTINUOUS
 10
123.1557537169
 20
97.399735469
 11
122.670683558
 21
97.4010595157
  0
LINE
  5
38D
100
AcDbEntity
  8
RACCORDO
100
AcDbLine
 62
253
  6
CONTINUOUS
 10
129.9208845841
 20
97.3406970663
 11
123.1557537135
 21
97.399735469
  0
LINE
  5
38E
100
AcDbEntity
  8
RACCORDO
100
AcDbLine
 62
253
  6
CONTINUOUS
 10
122.6706835538
 20
97.4010595132
 11
122.3258502543
 21
97.4041430132
  0
LINE
  5
38F
100
AcDbEntity
  8
DRAFT
100
AcDbLine
 62
7
  6
CONTINUOUS
 10
129.9208845841
 20
109.9691714304
 11
129.9208845841
 21
105.8691714304
  0
LINE
  5
390
100
AcDbEntity
  8
RACCORDO
100
AcDbLine
 62
7
  6
CONTINUOUS
 10
129.9208845841
 20
96.9407732121
 11
129.9208845841
 21
105.8691714304
  0
LINE
  5
391
100
AcDbEntity
  8
RACCORDO
100
AcDbLine
 62
7
  6
CONTINUOUS
 10
129.9208845841
 20
109.9691714304
 11
129.9208845841
 21
119.1405597614
  0
LINE
  5
392
100
AcDbEntity
  8
RACCORDO
100
AcDbLine
 62
7
  6
CONTINUOUS
 10
127.5041915631
 20
74.6244366137
 11
128.6208845841
 21
83.7191714304
  0
LINE
  5
393
100
AcDbEntity
  8
RACCORDO
100
AcDbLine
 62
253
  6
CONTINUOUS
 10
122.2671417957
 20
98.771011722
 11
122.2256485887
 21
98.7714052486
  0
LINE
  5
394
100
AcDbEntity
  8
RACCORDO
100
AcDbLine
 62
253
  6
CONTINUOUS
 10
132.5195589772
 20
109.9238114001
 11
132.5195589772
 21
105.9145314606
  0
LINE
  5
395
100
AcDbEntity
  8
RACCORDO
100
AcDbLine
 62
7
  6
CONTINUOUS
 10
132.9672947456
 20
109.9159961432
 11
132.9672947456
 21
105.9223467175
  0
LINE
  5
396
100
AcDbEntity
  8
RACCORDO
100
AcDbLine
 62
7
  6
CONTINUOUS
 10
129.9208845841
 20
105.8691714304
 11
132.9672947456
 21
105.9223467175
  0
LINE
  5
397
100
AcDbEntity
  8
RACCORDO
100
AcDbLine
 62
7
  6
CONTINUOUS
 10
129.9208845841
 20
109.9691714304
 11
132.9672947456
 21
109.9159961432
  0
LINE
  5
398
100
AcDbEntity
  8
RACCORDO
100
AcDbLine
 62
253
  6
CONTINUOUS
 10
124.2695573333
 20
118.3443860151
 11
129.9208845841
 21
118.6405595263
  0
LINE
  5
399
100
AcDbEntity
  8
RACCORDO
100
AcDbLine
 62
7
  6
CONTINUOUS
 10
123.9012697437
 20
118.8250851155
 11
129.9208845841
 21
119.1405597614
  0
LINE
  5
39A
100
AcDbEntity
  8
RACCORDO
100
AcDbLine
 62
253
  6
CONTINUOUS
 10
123.1187260484
 20
117.6964942909
 11
122.7657105438
 21
117.6893403452
  0
LWPOLYLINE
  5
39B
100
AcDbEntity
  8
RACCORDO
100
AcDbPolyline
 62
253
  6
CONTINUOUS
 90
3
 70
0
 10
123.1187459565
 20
117.6964934426
 10
123.1266391298
 20
117.6960850748
 10
123.6040467432
 20
117.675086746
  0
ARC
  5
39C
100
AcDbEntity
  8
RACCORDO
100
AcDbCircle
 62
7
  6
CONTINUOUS
 10
158.9663388857
 20
96.8191714304
 40
1.525
100
AcDbArc
 50
270.0
 51
343.0879461817
  0
ARC
  5
39D
100
AcDbEntity
  8
RACCORDO
100
AcDbCircle
 62
7
  6
CONTINUOUS
 10
152.6163388857
 20
96.8191714304
 40
1.525
100
AcDbArc
 50
196.9120538183
 51
270.0000117153
  0
ARC
  5
39E
100
AcDbEntity
  8
RACCORDO
100
AcDbCircle
 62
7
  6
CONTINUOUS
 10
152.6163388857
 20
96.8191714304
 40
1.525
100
AcDbArc
 50
90.0
 51
163.0879461817
  0
ARC
  5
39F
100
AcDbEntity
  8
RACCORDO
100
AcDbCircle
 62
7
  6
CONTINUOUS
 10
158.9663388857
 20
96.8191714304
 40
1.525
100
AcDbArc
 50
16.9120538183
 51
90.0000117153
  0
ARC
  5
3A0
100
AcDbEntity
  8
RACCORDO
100
AcDbCircle
 62
7
  6
CONTINUOUS
 10
123.9640763087
 20
76.0116130078
 40
1.2
100
AcDbArc
 50
182.9907949214
 51
267.0
  0
ARC
  5
3A1
100
AcDbEntity
  8
RACCORDO
100
AcDbCircle
 62
7
  6
CONTINUOUS
 10
123.9640763529
 20
117.6267298552
 40
1.2
100
AcDbArc
 50
93.0
 51
177.0092080249
  0
ARC
  5
3A2
100
AcDbEntity
  8
RACCORDO
100
AcDbCircle
 62
7
  6
CONTINUOUS
 10
122.6256258423
 20
94.8688896587
 40
0.4
100
AcDbArc
 50
146.6708502775
 51
180.279639075
  0
ARC
  5
3A3
100
AcDbEntity
  8
RACCORDO
100
AcDbCircle
 62
7
  6
CONTINUOUS
 10
122.6256441957
 20
98.7694530418
 40
0.4
100
AcDbArc
 50
179.7203656663
 51
213.3174830135
  0
ELLIPSE
  5
3A4
100
AcDbEntity
  8
RACCORDO
100
AcDbEllipse
 62
7
  6
CONTINUOUS
 10
157.8681338049
 20
74.6377594467
 30
0.0
 11
0.3
 21
0.0
 31
0.0
 40
0.0524637553
 41
0.5235987756
 42
1.5707963268
  0
ELLIPSE
  5
3A5
100
AcDbEntity
  8
RACCORDO
100
AcDbEllipse
 62
7
  6
CONTINUOUS
 10
153.7145439664
 20
74.6377594467
 30
0.0
 11
0.3
 21
0.0
 31
0.0
 40
0.0524637553
 41
1.5707963268
 42
2.617993878
  0
ELLIPSE
  5
3A6
100
AcDbEntity
  8
RACCORDO
100
AcDbEllipse
 62
7
  6
CONTINUOUS
 10
166.4912017687
 20
96.2862094892
 30
0.0
 11
0.3796255539
 21
0.1265161514
 31
0.0
 40
0.9996192872
 41
-0.3215754254
 42
1.2489924673
  0
ELLIPSE
  5
3A7
100
AcDbEntity
  8
RACCORDO
100
AcDbEllipse
 62
7
  6
CONTINUOUS
 10
145.0914760027
 20
96.2862094892
 30
0.0
 11
0.3796255539
 21
-0.1265161514
 31
0.0
 40
0.9996192872
 41
1.8926001862
 42
3.463168079
  0
ELLIPSE
  5
3A8
100
AcDbEntity
  8
RACCORDO
100
AcDbEllipse
 62
7
  6
CONTINUOUS
 10
166.3635253804
 20
75.1219215378
 30
0.0
 11
0.4935682621
 21
0.0814692616
 31
0.0
 40
0.9943281033
 41
-1.7352995412
 42
-0.1658732105
  0
ELLIPSE
  5
3A9
100
AcDbEntity
  8
RACCORDO
100
AcDbEllipse
 62
7
  6
CONTINUOUS
 10
145.2191523909
 20
75.1219215378
 30
0.0
 11
0.4935682621
 21
-0.0814692616
 31
0.0
 40
0.9943281033
 41
-2.9757194431
 42
-1.4062931124
  0
ELLIPSE
  5
3AA
100
AcDbEntity
  8
RACCORDO
100
AcDbEllipse
 62
7
  6
CONTINUOUS
 10
153.8361480646
 20
119.0121607022
 30
0.0
 11
0.3
 21
-0.0
 31
0.0
 40
0.0524077793
 41
-3.1241393611
 42
-1.5707963268
  0
ELLIPSE
  5
3AB
100
AcDbEntity
  8
RACCORDO
100
AcDbEllipse
 62
7
  6
CONTINUOUS
 10
157.7465297067
 20
119.0121607022
 30
0.0
 11
0.3
 21
0.0
 31
0.0
 40
0.0524077793
 41
-1.5707963268
 42
-0.0174532925
  0
ELLIPSE
  5
3AC
100
AcDbEntity
  8
RACCORDO
100
AcDbEllipse
 62
7
  6
CONTINUOUS
 10
145.1915102819
 20
118.6398735884
 30
0.0
 11
-0.2238673116
 21
0.4480418466
 31
0.0
 40
0.9982882662
 41
-0.4626886447
 42
1.1067376861
  0
ELLIPSE
  5
3AD
100
AcDbEntity
  8
RACCORDO
100
AcDbEllipse
 62
7
  6
CONTINUOUS
 10
166.3911674894
 20
118.6398735884
 30
0.0
 11
0.2238673116
 21
0.4480418466
 31
0.0
 40
0.9982882662
 41
-1.1067376861
 42
0.4626886447
  0
ELLIPSE
  5
3AE
100
AcDbEntity
  8
RACCORDO
100
AcDbEllipse
 62
7
  6
CONTINUOUS
 10
145.0914760027
 20
97.3407884434
 30
0.0
 11
0.3796255539
 21
0.1265161514
 31
0.0
 40
0.9996192872
 41
2.8200172282
 42
4.3905851209
  0
ELLIPSE
  5
3AF
100
AcDbEntity
  8
RACCORDO
100
AcDbEllipse
 62
7
  6
CONTINUOUS
 10
166.4912017687
 20
97.3407884434
 30
0.0
 11
0.3796255539
 21
-0.1265161514
 31
0.0
 40
0.9996192872
 41
-1.2489924673
 42
0.3215754254
  0
ENDSEC
  0
SECTION
  2
OBJECTS
  0
DICTIONARY
  5
C
100
AcDbDictionary
280
0
281
1
  3
ACAD_GROUP
350
D
  3
ACAD_MLINESTYLE
350
17
  3
ACAD_LAYOUT
350
1A
  3
ACAD_PLOTSETTINGS
350
19
  3
ACAD_PLOTSTYLENAME
350
E
  0
DICTIONARY
  5
D
102
{ACAD_REACTORS
330
C
102
}
100
AcDbDictionary
280
0
281
1
  0
ACDBDICTIONARYWDFLT
  5
E
102
{ACAD_REACTORS
330
C
102
}
100
AcDbDictionary
281
1
  3
Normal
350
F
100
AcDbDictionaryWithDefault
340
F
  0
DICTIONARY
  5
17
102
{ACAD_REACTORS
330
C
102
}
100
AcDbDictionary
280
0
281
1
  3
Standard
350
18
  0
DICTIONARY
  5
19
102
{ACAD_REACTORS
330
C
102
}
100
AcDbDictionary
281
1
  0
DICTIONARY
  5
1A
102
{ACAD_REACTORS
330
C
102
}
100
AcDbDictionary
281
1
  3
Model
350
3B0
  3
Layout1
350
3B1
  0
ACDBPLACEHOLDER
  5
F
102
{ACAD_REACTORS
330
E
102
}
  0
MLINESTYLE
  5
18
102
{ACAD_REACTORS
330
17
102
}
100
AcDbMlineStyle
  2
STANDARD
 70
0
  3

 62
256
 51
90.0
 52
90.0
 71
2
 49
0.5
 62
256
  6
BYLAYER
 49
-0.5
 62
256
  6
BYLAYER
  0
LAYOUT
  5
3B0
102
{ACAD_REACTORS
330
1A
102
}
100
AcDbPlotSettings
  1

  2
none_device
  4
ISO_A4_(297.00_x_210.00_MM)
  6

 40
0.0
 41
0.0
 42
0.0
 43
0.0
 44
297.0
 45
210.0
 46
0.0
 47
0.0
 48
0.0
 49
0.0
140
0.0
141
0.0
142
1.0
143
1.0
 70
1024
 72
1
 73
0
 74
0
  7

 75
0
147
1.0
148
0.0
149
0.0
100
AcDbLayout
  1
Model
 70
0
 71
0
 10
0.0
 20
0.0
 11
297.0
 21
210.0
 12
0.0
 22
0.0
 32
0.0
 14
0.0
 24
0.0
 34
0.0
 15
0.0
 25
0.0
 35
0.0
146
0.0
 13
0.0
 23
0.0
 33
0.0
 16
1.0
 26
0.0
 36
0.0
 17
0.0
 27
1.0
 37
0.0
 76
0
330
214
345
0
346
0
  0
LAYOUT
  5
3B1
102
{ACAD_REACTORS
330
1A
102
}
100
AcDbPlotSettings
  1

  2
none_device
  4
ISO_A4_(297.00_x_210.00_MM)
  6

 40
0.0
 41
0.0
 42
0.0
 43
0.0
 44
297.0
 45
210.0
 46
0.0
 47
0.0
 48
0.0
 49
0.0
140
0.0
141
0.0
142
1.0
143
1.0
 70
0
 72
1
 73
0
 74
0
  7

 75
0
147
1.0
148
0.0
149
0.0
100
AcDbLayout
  1
Layout1
 70
0
 71
1
 10
0.0
 20
0.0
 11
297.0
 21
210.0
 12
0.0
 22
0.0
 32
0.0
 14
0.0
 24
0.0
 34
0.0
 15
0.0
 25
0.0
 35
0.0
146
0.0
 13
0.0
 23
0.0
 33
0.0
 16
1.0
 26
0.0
 36
0.0
 17
0.0
 27
1.0
 37
0.0
 76
0
330
215
345
0
346
0
  0
ENDSEC
  0
EOF
