  0
SECTION
  2
HEADER
  9
$ACADVER
  1
AC1015
  9
$DWGCODEPAGE
  3
ANSI_1252
  9
$EXTMAX
 10
297.0
 20
210.0
 30
0.0
  9
$EXTMIN
 10
0.0
 20
0.0
 30
0.0
  9
$LIMMIN
 10
0.0
 20
0.0
  9
$LIMMAX
 10
297.0
 20
210.0
  9
$VIEWCTR
 10
148.5
 20
105.0
  9
$VIEWSIZE
 40
210.0
  9
$CLAYER
  8
0
  9
$LTSCALE
 40
16.335
  9
$CELTYPE
  6
BYLAYER
  9
$DIMSCALE
 40
1.0
  9
$DIMASZ
 40
3.0
  9
$DIMEXO
 40
1.85625
  9
$DIMDLI
 40
11.286
  9
$DIMEXE
 40
5.346
  9
$DIMCEN
 40
2.673
  9
$DIMLFAC
 40
1.0
  9
$DIMBLK
  1
_FILLED
  9
$DIMTXT
 40
3.0
  9
$DIMTOL
 70
1
  9
$DIMLIM
 70
0
  9
$DIMTFAC
 40
1.0
  9
$DIMTP
 40
0.01
  9
$DIMTM
 40
0.01
  9
$PDMODE
 70
3
  9
$PDSIZE
 40
3.0
  9
$HANDSEED
  5
880
  9
$TILEMODE
 70
1
  9
$MEASUREMENT
 70
1
  9
$INSUNITS
 70
4
  0
ENDSEC
  0
SECTION
  2
CLASSES
  0
CLASS
  1
ACDBDICTIONARYWDFLT
  2
AcDbDictionaryWithDefault
  3
AutoCAD 2000
 90
0
280
0
281
0
  0
CLASS
  1
ACDBPLACEHOLDER
  2
AcDbPlaceHolder
  3
AutoCAD 2000
 90
0
280
0
281
0
  0
CLASS
  1
LAYOUT
  2
AcDbLayout
  3
AutoCAD 2000
 90
0
280
0
281
0
  0
ENDSEC
  0
SECTION
  2
TABLES
  0
TABLE
  2
VPORT
  5
8
100
AcDbSymbolTable
 70
2
  0
VPORT
  5
1F4
100
AcDbSymbolTableRecord
100
AcDbViewportTableRecord
  2
*ACTIVE
 70
0
 10
0.0
 20
0.0
 11
1.0
 21
1.0
 12
148.5
 22
105.0
 13
0.0
 23
0.0
 14
1.0
 24
1.0
 15
0.0
 25
0.0
 16
0.0
 26
0.0
 36
1.0
 17
0.0
 27
0.0
 37
0.0
 40
210.0
 41
1.4142857143
 42
50.0
 43
0.0
 44
0.0
 50
0.0
 51
0.0
 71
0
 72
100
 73
1
 74
1
 75
0
 76
0
 77
0
 78
0
  0
ENDTAB
  0
TABLE
  2
LTYPE
  5
5
100
AcDbSymbolTable
 70
6
  0
LTYPE
  5
14
100
AcDbSymbolTableRecord
100
AcDbLinetypeTableRecord
  2
BYBLOCK
 70
0
  3

 72
65
 73
0
 40
0.0
  0
LTYPE
  5
15
100
AcDbSymbolTableRecord
100
AcDbLinetypeTableRecord
  2
BYLAYER
 70
0
  3

 72
65
 73
0
 40
0.0
  0
LTYPE
  5
16
100
AcDbSymbolTableRecord
100
AcDbLinetypeTableRecord
  2
CONTINUOUS
 70
64
  3
Solid line
 72
65
 73
0
 40
0.0
  0
LTYPE
  5
1F5
100
AcDbSymbolTableRecord
100
AcDbLinetypeTableRecord
  2
CENTER
 70
64
  3
____ _ ____ _ ____ _ ____ _ ____ _ ____ _ ____
 72
65
 73
4
 40
0.6
 49
0.375
 74
0
 49
-0.075
 74
0
 49
0.075
 74
0
 49
-0.075
 74
0
  0
LTYPE
  5
1F6
100
AcDbSymbolTableRecord
100
AcDbLinetypeTableRecord
  2
HIDDEN
 70
64
  3
- - - - - - - - - - - - - - - - - - - -
 72
65
 73
2
 40
0.2
 49
0.1
 74
0
 49
-0.1
 74
0
  0
LTYPE
  5
1F7
100
AcDbSymbolTableRecord
100
AcDbLinetypeTableRecord
  2
PHANTOM
 70
64
  3
_____ _ _ _____ _ _ _____ _ _ _____
 72
65
 73
6
 40
0.8
 49
0.45
 74
0
 49
-0.05
 74
0
 49
0.1
 74
0
 49
-0.05
 74
0
 49
0.1
 74
0
 49
-0.05
 74
0
  0
LTYPE
  5
1F8
100
AcDbSymbolTableRecord
100
AcDbLinetypeTableRecord
  2
DOT
 70
64
  3
. . . . . . . . . . . . . . . . . . . .
 72
65
 73
2
 40
0.2
 49
0.1
 74
0
 49
-0.1
 74
0
  0
LTYPE
  5
1F9
100
AcDbSymbolTableRecord
100
AcDbLinetypeTableRecord
  2
DASHED
 70
64
  3
- - - - - - - - - - - - - - - - - - - -
 72
65
 73
2
 40
0.2
 49
0.1
 74
0
 49
-0.1
 74
0
  0
ENDTAB
  0
TABLE
  2
LAYER
  5
2
100
AcDbSymbolTable
 70
36
  0
LAYER
  5
10
100
AcDbSymbolTableRecord
100
AcDbLayerTableRecord
  2
0
 70
0
 62
7
  6
CONTINUOUS
370
-3
390
F
  0
LAYER
  5
1FA
100
AcDbSymbolTableRecord
100
AcDbLayerTableRecord
  2
DEFAULT_1
 70
0
 62
7
  6
CENTER
370
-3
390
F
  0
LAYER
  5
1FB
100
AcDbSymbolTableRecord
100
AcDbLayerTableRecord
  2
DEFAULT_2
 70
0
 62
7
  6
HIDDEN
370
-3
390
F
  0
LAYER
  5
1FC
100
AcDbSymbolTableRecord
100
AcDbLayerTableRecord
  2
DEFAULT_3
 70
0
 62
7
  6
PHANTOM
370
-3
390
F
  0
LAYER
  5
1FD
100
AcDbSymbolTableRecord
100
AcDbLayerTableRecord
  2
ASSI
 70
0
 62
7
  6
CONTINUOUS
370
-3
390
F
  0
LAYER
  5
1FE
100
AcDbSymbolTableRecord
100
AcDbLayerTableRecord
  2
COORDINATE
 70
0
 62
7
  6
CONTINUOUS
370
-3
390
F
  0
LAYER
  5
1FF
100
AcDbSymbolTableRecord
100
AcDbLayerTableRecord
  2
COORD_ORIGINE
 70
0
 62
7
  6
CONTINUOUS
370
-3
390
F
  0
LAYER
  5
200
100
AcDbSymbolTableRecord
100
AcDbLayerTableRecord
  2
COPY_PUBLISH
 70
0
 62
7
  6
CONTINUOUS
370
-3
390
F
  0
LAYER
  5
201
100
AcDbSymbolTableRecord
100
AcDbLayerTableRecord
  2
COSMETIC
 70
0
 62
7
  6
CONTINUOUS
370
-3
390
F
  0
LAYER
  5
202
100
AcDbSymbolTableRecord
100
AcDbLayerTableRecord
  2
COSMETICI
 70
0
 62
7
  6
CONTINUOUS
370
-3
390
F
  0
LAYER
  5
203
100
AcDbSymbolTableRecord
100
AcDbLayerTableRecord
  2
CURVE
 70
0
 62
7
  6
CONTINUOUS
370
-3
390
F
  0
LAYER
  5
204
100
AcDbSymbolTableRecord
100
AcDbLayerTableRecord
  2
CURVE_COSTR_MODELLO
 70
0
 62
7
  6
CONTINUOUS
370
-3
390
F
  0
LAYER
  5
205
100
AcDbSymbolTableRecord
100
AcDbLayerTableRecord
  2
DRAFT
 70
0
 62
7
  6
CONTINUOUS
370
-3
390
F
  0
LAYER
  5
206
100
AcDbSymbolTableRecord
100
AcDbLayerTableRecord
  2
IGES
 70
0
 62
7
  6
CONTINUOUS
370
-3
390
F
  0
LAYER
  5
207
100
AcDbSymbolTableRecord
100
AcDbLayerTableRecord
  2
IMPORT_IGES
 70
0
 62
7
  6
CONTINUOUS
370
-3
390
F
  0
LAYER
  5
208
100
AcDbSymbolTableRecord
100
AcDbLayerTableRecord
  2
INTFCLR_1
 70
0
 62
7
  6
CONTINUOUS
370
-3
390
F
  0
LAYER
  5
209
100
AcDbSymbolTableRecord
100
AcDbLayerTableRecord
  2
INTF_1
 70
0
 62
7
  6
CONTINUOUS
370
-3
390
F
  0
LAYER
  5
20A
100
AcDbSymbolTableRecord
100
AcDbLayerTableRecord
  2
INTF_15
 70
0
 62
7
  6
CONTINUOUS
370
-3
390
F
  0
LAYER
  5
20B
100
AcDbSymbolTableRecord
100
AcDbLayerTableRecord
  2
INTF_16
 70
0
 62
7
  6
CONTINUOUS
370
-3
390
F
  0
LAYER
  5
20C
100
AcDbSymbolTableRecord
100
AcDbLayerTableRecord
  2
INTF_2
 70
0
 62
7
  6
CONTINUOUS
370
-3
390
F
  0
LAYER
  5
20D
100
AcDbSymbolTableRecord
100
AcDbLayerTableRecord
  2
NOTE
 70
0
 62
7
  6
CONTINUOUS
370
-3
390
F
  0
LAYER
  5
20E
100
AcDbSymbolTableRecord
100
AcDbLayerTableRecord
  2
PIANI
 70
0
 62
7
  6
CONTINUOUS
370
-3
390
F
  0
LAYER
  5
20F
100
AcDbSymbolTableRecord
100
AcDbLayerTableRecord
  2
PIANI_ORIGINE
 70
0
 62
7
  6
CONTINUOUS
370
-3
390
F
  0
LAYER
  5
210
100
AcDbSymbolTableRecord
100
AcDbLayerTableRecord
  2
PIANI_SFORMO
 70
0
 62
7
  6
CONTINUOUS
370
-3
390
F
  0
LAYER
  5
211
100
AcDbSymbolTableRecord
100
AcDbLayerTableRecord
  2
PUNTI
 70
0
 62
7
  6
CONTINUOUS
370
-3
390
F
  0
LAYER
  5
212
100
AcDbSymbolTableRecord
100
AcDbLayerTableRecord
  2
RACCORDO
 70
0
 62
7
  6
CONTINUOUS
370
-3
390
F
  0
LAYER
  5
213
100
AcDbSymbolTableRecord
100
AcDbLayerTableRecord
  2
SIMBOLI
 70
0
 62
7
  6
CONTINUOUS
370
-3
390
F
  0
LAYER
  5
214
100
AcDbSymbolTableRecord
100
AcDbLayerTableRecord
  2
SMUSSO
 70
0
 62
7
  6
CONTINUOUS
370
-3
390
F
  0
LAYER
  5
215
100
AcDbSymbolTableRecord
100
AcDbLayerTableRecord
  2
SNAPLINE
 70
0
 62
7
  6
CONTINUOUS
370
-3
390
F
  0
LAYER
  5
216
100
AcDbSymbolTableRecord
100
AcDbLayerTableRecord
  2
SOLIDO
 70
0
 62
7
  6
CONTINUOUS
370
-3
390
F
  0
LAYER
  5
217
100
AcDbSymbolTableRecord
100
AcDbLayerTableRecord
  2
SUPERFICI
 70
0
 62
7
  6
CONTINUOUS
370
-3
390
F
  0
LAYER
  5
218
100
AcDbSymbolTableRecord
100
AcDbLayerTableRecord
  2
SUPERFICI_SKEL
 70
0
 62
7
  6
CONTINUOUS
370
-3
390
F
  0
LAYER
  5
219
100
AcDbSymbolTableRecord
100
AcDbLayerTableRecord
  2
TRASH
 70
0
 62
7
  6
CONTINUOUS
370
-3
390
F
  0
LAYER
  5
21A
100
AcDbSymbolTableRecord
100
AcDbLayerTableRecord
  2
XSEC_DATUMS
 70
0
 62
7
  6
CONTINUOUS
370
-3
390
F
  0
ENDTAB
  0
TABLE
  2
STYLE
  5
3
100
AcDbSymbolTable
 70
1
  0
STYLE
  5
11
100
AcDbSymbolTableRecord
100
AcDbTextStyleTableRecord
  2
STANDARD
 70
0
 40
0.0
 41
0.8
 50
0.0
 71
0
 42
0.2
  3
txt
  4

  0
STYLE
  5
21B
100
AcDbSymbolTableRecord
100
AcDbTextStyleTableRecord
  2
TEXTSTYLE_1
 70
0
 40
0.0
 41
0.8
 50
0.0
 71
0
 42
0.2
  3
gdt
  4

  0
ENDTAB
  0
TABLE
  2
VIEW
  5
6
100
AcDbSymbolTable
 70
0
  0
ENDTAB
  0
TABLE
  2
UCS
  5
7
100
AcDbSymbolTable
 70
0
  0
ENDTAB
  0
TABLE
  2
APPID
  5
9
100
AcDbSymbolTable
 70
1
  0
APPID
  5
21C
100
AcDbSymbolTableRecord
100
AcDbRegAppTableRecord
  2
ACAD
 70
0
  0
ENDTAB
  0
TABLE
  2
BLOCK_RECORD
  5
1
100
AcDbSymbolTable
 70
0
  0
BLOCK_RECORD
  5
21D
100
AcDbSymbolTableRecord
100
AcDbBlockTableRecord
  2
*Model_Space
  0
BLOCK_RECORD
  5
21E
100
AcDbSymbolTableRecord
100
AcDbBlockTableRecord
  2
*Paper_Space
  0
BLOCK_RECORD
  5
21F
100
AcDbSymbolTableRecord
100
AcDbBlockTableRecord
  2
_FILLED
  0
BLOCK_RECORD
  5
220
100
AcDbSymbolTableRecord
100
AcDbBlockTableRecord
  2
*D0
  0
BLOCK_RECORD
  5
221
100
AcDbSymbolTableRecord
100
AcDbBlockTableRecord
  2
*D1
  0
BLOCK_RECORD
  5
222
100
AcDbSymbolTableRecord
100
AcDbBlockTableRecord
  2
*D2
  0
BLOCK_RECORD
  5
223
100
AcDbSymbolTableRecord
100
AcDbBlockTableRecord
  2
*D3
  0
ENDTAB
  0
TABLE
  2
DIMSTYLE
  5
A
100
AcDbSymbolTable
 70
1
100
AcDbDimStyleTable
 71
0
  0
DIMSTYLE
105
224
100
AcDbSymbolTableRecord
100
AcDbDimStyleTableRecord
  2
STANDARD
 70
0
  3

  4

 40
1.0
 41
3.0
 42
0.0625
 43
0.38
 44
0.18
 45
0.0
 46
0.0
 47
0.01
 48
0.01
140
3.0
141
0.09
142
0.0
143
25.4
144
1.0
145
0.0
146
1.0
147
0.09
 71
1.0
 72
0.0
 73
0
 74
0
 75
0
 76
0
 77
1
 78
8
170
0
171
2
172
0
173
0
174
0
175
0
176
0
177
0
178
0
270
2
271
2
272
2
273
2
274
2
275
0
280
0
281
0
282
0
283
1
284
8
285
0
286
0
287
3
288
0
340
11
341
21F
342
21F
343
21F
344
21F
  0
DIMSTYLE
105
225
100
AcDbSymbolTableRecord
100
AcDbDimStyleTableRecord
  2
DIMSTYLE_1
 70
0
  3

  4

 40
1.0
 41
3.0
 42
0.0625
 43
0.38
 44
0.18
 45
0.0
 46
0.0
 47
0.0
 48
0.0
140
3.0
141
0.09
142
0.0
143
25.4
144
1.0
145
0.0
146
1.0
147
0.09
 71
0.0
 72
0.0
 73
0
 74
0
 75
0
 76
0
 77
1
 78
8
170
0
171
2
172
0
173
0
174
0
175
0
176
0
177
0
178
0
270
2
271
2
272
2
273
2
274
2
275
0
280
0
281
0
282
0
283
1
284
8
285
0
286
0
287
3
288
0
340
11
341
21F
342
21F
343
21F
344
21F
  0
ENDTAB
  0
ENDSEC
  0
SECTION
  2
BLOCKS
  0
BLOCK
  5
20
100
AcDbEntity
  8
0
100
AcDbBlockBegin
  2
*Model_Space
 70
0
 10
0.0
 20
0.0
 30
0.0
  3
*Model_Space
  1

  0
ENDBLK
  5
21
100
AcDbEntity
  8
0
100
AcDbBlockEnd
  0
BLOCK
  5
1C
100
AcDbEntity
  8
0
100
AcDbBlockBegin
  2
*Paper_Space
 70
0
 10
0.0
 20
0.0
 30
0.0
  3
*Paper_Space
  1

  0
ENDBLK
  5
1D
100
AcDbEntity
  8
0
100
AcDbBlockEnd
  0
BLOCK
  5
226
100
AcDbEntity
  8
0
100
AcDbBlockBegin
  2
_FILLED
 70
64
 10
0.0
 20
0.0
  3
_FILLED
  1

  0
SOLID
  5
227
100
AcDbEntity
  8
0
  6
BYBLOCK
 62
0
100
AcDbTrace
 10
0.0
 20
0.0
 11
-1.0
 21
0.3166666667
 12
-1.0
 22
-0.3166666667
 13
-1.0
 23
-0.3166666667
  0
ENDBLK
  5
228
100
AcDbEntity
  8
0
  6
BYBLOCK
 62
0
100
AcDbBlockEnd
  0
BLOCK
  5
229
100
AcDbEntity
  8
0
100
AcDbBlockBegin
 62
7
  6
CONTINUOUS
  2
*D0
 70
65
 10
0.0
 20
0.0
  3
*D0
  1

  0
LINE
  5
22A
100
AcDbEntity
  8
0
100
AcDbLine
 62
7
  6
CONTINUOUS
 10
10.900030461
 20
-24.5
 11
25.5859822641
 21
-24.5
  0
LINE
  5
22B
100
AcDbEntity
  8
0
100
AcDbLine
 62
7
  6
CONTINUOUS
 10
10.900030461
 20
24.5
 11
25.5859822641
 21
24.5
  0
LINE
  5
22C
100
AcDbEntity
  8
0
100
AcDbLine
 62
7
  6
CONTINUOUS
 10
24.0859822641
 20
-24.5
 11
24.0859822641
 21
-0.0
  0
LINE
  5
22D
100
AcDbEntity
  8
0
100
AcDbLine
 62
7
  6
CONTINUOUS
 10
24.0859822641
 20
24.5
 11
24.0859822641
 21
-0.0
  0
INSERT
  5
22E
100
AcDbEntity
  8
0
100
AcDbBlockReference
 62
7
  6
CONTINUOUS
  2
_FILLED
 10
24.0859822641
 20
-24.5
 41
3.0
 42
3.0
 43
3.0
 50
270.0
  0
INSERT
  5
22F
100
AcDbEntity
  8
0
100
AcDbBlockReference
 62
7
  6
CONTINUOUS
  2
_FILLED
 10
24.0859822641
 20
24.5
 41
3.0
 42
3.0
 43
3.0
 50
90.0
  0
ENDBLK
  5
230
100
AcDbEntity
  8
0
  6
BYBLOCK
 62
0
100
AcDbBlockEnd
  0
BLOCK
  5
231
100
AcDbEntity
  8
0
100
AcDbBlockBegin
 62
7
  6
CONTINUOUS
  2
*D1
 70
65
 10
0.0
 20
0.0
  3
*D1
  1

  0
LINE
  5
232
100
AcDbEntity
  8
0
100
AcDbLine
 62
7
  6
CONTINUOUS
 10
-11.1
 20
22.4000761524
 11
-11.1
 21
36.8934565064
  0
LINE
  5
233
100
AcDbEntity
  8
0
100
AcDbLine
 62
7
  6
CONTINUOUS
 10
11.1
 20
22.4000761524
 11
11.1
 21
36.8934565064
  0
LINE
  5
234
100
AcDbEntity
  8
0
100
AcDbLine
 62
7
  6
CONTINUOUS
 10
-11.1
 20
35.3934565064
 11
0.0
 21
35.3934565064
  0
LINE
  5
235
100
AcDbEntity
  8
0
100
AcDbLine
 62
7
  6
CONTINUOUS
 10
11.1
 20
35.3934565064
 11
0.0
 21
35.3934565064
  0
INSERT
  5
236
100
AcDbEntity
  8
0
100
AcDbBlockReference
 62
7
  6
CONTINUOUS
  2
_FILLED
 10
-11.1
 20
35.3934565064
 41
3.0
 42
3.0
 43
3.0
 50
180.0
  0
INSERT
  5
237
100
AcDbEntity
  8
0
100
AcDbBlockReference
 62
7
  6
CONTINUOUS
  2
_FILLED
 10
11.1
 20
35.3934565064
 41
3.0
 42
3.0
 43
3.0
  0
ENDBLK
  5
238
100
AcDbEntity
  8
0
  6
BYBLOCK
 62
0
100
AcDbBlockEnd
  0
BLOCK
  5
239
100
AcDbEntity
  8
0
100
AcDbBlockBegin
 62
7
  6
CONTINUOUS
  2
*D2
 70
65
 10
0.0
 20
0.0
  3
*D2
  1

  0
LINE
  5
23A
100
AcDbEntity
  8
0
100
AcDbLine
 62
7
  6
CONTINUOUS
 10
-62.7497735052
 20
24.3443375673
 11
-62.7497735052
 21
36.8934565064
  0
LINE
  5
23B
100
AcDbEntity
  8
0
100
AcDbLine
 62
7
  6
CONTINUOUS
 10
-23.2497735052
 20
18.6038272153
 11
-23.2497735052
 21
36.8934565064
  0
LINE
  5
23C
100
AcDbEntity
  8
0
100
AcDbLine
 62
7
  6
CONTINUOUS
 10
-62.7497735052
 20
35.3934565064
 11
-42.9997735052
 21
35.3934565064
  0
LINE
  5
23D
100
AcDbEntity
  8
0
100
AcDbLine
 62
7
  6
CONTINUOUS
 10
-23.2497735052
 20
35.3934565064
 11
-42.9997735052
 21
35.3934565064
  0
INSERT
  5
23E
100
AcDbEntity
  8
0
100
AcDbBlockReference
 62
7
  6
CONTINUOUS
  2
_FILLED
 10
-62.7497735052
 20
35.3934565064
 41
3.0
 42
3.0
 43
3.0
 50
180.0
  0
INSERT
  5
23F
100
AcDbEntity
  8
0
100
AcDbBlockReference
 62
7
  6
CONTINUOUS
  2
_FILLED
 10
-23.2497735052
 20
35.3934565064
 41
3.0
 42
3.0
 43
3.0
  0
ENDBLK
  5
240
100
AcDbEntity
  8
0
  6
BYBLOCK
 62
0
100
AcDbBlockEnd
  0
BLOCK
  5
241
100
AcDbEntity
  8
0
100
AcDbBlockBegin
 62
7
  6
CONTINUOUS
  2
*D3
 70
65
 10
0.0
 20
0.0
  3
*D3
  1

  0
LINE
  5
242
100
AcDbEntity
  8
0
100
AcDbLine
 62
7
  6
CONTINUOUS
 10
-83.7497735052
 20
0.5
 11
-83.7497735052
 21
46.8934565064
  0
LINE
  5
243
100
AcDbEntity
  8
0
100
AcDbLine
 62
7
  6
CONTINUOUS
 10
-23.2497735052
 20
17.8968281299
 11
-23.2497735052
 21
46.8934565064
  0
LINE
  5
244
100
AcDbEntity
  8
0
100
AcDbLine
 62
7
  6
CONTINUOUS
 10
-83.7497735052
 20
45.3934565064
 11
-53.4997735052
 21
45.3934565064
  0
LINE
  5
245
100
AcDbEntity
  8
0
100
AcDbLine
 62
7
  6
CONTINUOUS
 10
-23.2497735052
 20
45.3934565064
 11
-53.4997735052
 21
45.3934565064
  0
INSERT
  5
246
100
AcDbEntity
  8
0
100
AcDbBlockReference
 62
7
  6
CONTINUOUS
  2
_FILLED
 10
-83.7497735052
 20
45.3934565064
 41
3.0
 42
3.0
 43
3.0
 50
180.0
  0
INSERT
  5
247
100
AcDbEntity
  8
0
100
AcDbBlockReference
 62
7
  6
CONTINUOUS
  2
_FILLED
 10
-23.2497735052
 20
45.3934565064
 41
3.0
 42
3.0
 43
3.0
  0
ENDBLK
  5
248
100
AcDbEntity
  8
0
  6
BYBLOCK
 62
0
100
AcDbBlockEnd
  0
ENDSEC
  0
SECTION
  2
ENTITIES
  0
DIMENSION
  5
249
100
AcDbEntity
  8
0
100
AcDbDimension
 62
7
  6
CONTINUOUS
  2
*D0
 10
24.0859822641
 20
24.5
 11
23.3359822641
 21
-2.3571428571
 70
160
 71
2
 42
49.0
  3
DIMSTYLE_1
100
AcDbAlignedDimension
 13
10.900030461
 23
-24.5
 14
10.900030461
 24
24.5
 50
90.0
100
AcDbRotatedDimension
  0
DIMENSION
  5
24A
100
AcDbEntity
  8
0
100
AcDbDimension
 62
7
  6
CONTINUOUS
  2
*D1
 10
11.1
 20
35.3934565064
 11
-4.3928571429
 21
36.1434565064
 70
160
 71
2
 42
22.2
  3
DIMSTYLE_1
100
AcDbAlignedDimension
 13
-11.1
 23
22.4000761524
 14
11.1
 24
22.4000761524
100
AcDbRotatedDimension
  0
DIMENSION
  5
24B
100
AcDbEntity
  8
0
100
AcDbDimension
 62
7
  6
CONTINUOUS
  2
*D2
 10
-23.2497735052
 20
35.3934565064
 11
-47.1783449337
 21
36.1434565064
 70
160
 71
2
 42
39.5
  3
DIMSTYLE_1
100
AcDbAlignedDimension
 13
-62.7497735052
 23
24.3443375673
 14
-23.2497735052
 24
18.6038272153
100
AcDbRotatedDimension
  0
DIMENSION
  5
24C
100
AcDbEntity
  8
0
100
AcDbDimension
 62
7
  6
CONTINUOUS
  2
*D3
 10
-23.2497735052
 20
45.3934565064
 11
-57.7854877909
 21
46.1434565064
 70
160
 71
2
 42
60.5
  3
DIMSTYLE_1
100
AcDbAlignedDimension
 13
-83.7497735052
 23
0.5
 14
-23.2497735052
 24
17.8968281299
100
AcDbRotatedDimension
  0
LINE
  5
24D
100
AcDbEntity
  8
ASSI
100
AcDbLine
 62
7
  6
CONTINUOUS
 10
-10.400030461
 20
-24.5
 11
-7.399969539
 21
-24.5
  0
LINE
  5
24E
100
AcDbEntity
  8
ASSI
100
AcDbLine
 62
7
  6
CONTINUOUS
 10
7.399969539
 20
-24.5
 11
10.400030461
 21
-24.5
  0
LINE
  5
24F
100
AcDbEntity
  8
ASSI
100
AcDbLine
 62
253
  6
CONTINUOUS
 10
10.3606804067
 20
-24.4606499457
 11
7.4393195933
 21
-24.4606499457
  0
LINE
  5
250
100
AcDbEntity
  8
ASSI
100
AcDbLine
 62
253
  6
CONTINUOUS
 10
-7.4393195933
 20
-24.4606499457
 11
-10.3606804067
 21
-24.4606499457
  0
LINE
  5
251
100
AcDbEntity
  8
ASSI
100
AcDbLine
 62
253
  6
CONTINUOUS
 10
7.2402075759
 20
-24.2106880219
 11
10.5597924241
 21
-24.2106880219
  0
LINE
  5
252
100
AcDbEntity
  8
ASSI
100
AcDbLine
 62
253
  6
CONTINUOUS
 10
-7.2402075759
 20
-24.2106880219
 11
-10.5597924241
 21
-24.2106880219
  0
LINE
  5
253
100
AcDbEntity
  8
ASSI
100
AcDbLine
 62
7
  6
CONTINUOUS
 10
-4.2000380762
 20
-24.0
 11
-1.0499619238
 21
-24.0
  0
LINE
  5
254
100
AcDbEntity
  8
ASSI
100
AcDbLine
 62
7
  6
CONTINUOUS
 10
1.0499619238
 20
-24.0
 11
4.2000380762
 21
-24.0
  0
LINE
  5
255
100
AcDbEntity
  8
ASSI
100
AcDbLine
 62
253
  6
CONTINUOUS
 10
-4.1947406302
 20
-23.9947025539
 11
-1.0552593698
 21
-23.9947025539
  0
LINE
  5
256
100
AcDbEntity
  8
ASSI
100
AcDbLine
 62
253
  6
CONTINUOUS
 10
1.0552593698
 20
-23.9947025539
 11
4.1947406302
 21
-23.9947025539
  0
LINE
  5
257
100
AcDbEntity
  8
ASSI
100
AcDbLine
 62
253
  6
CONTINUOUS
 10
9.0368706193
 20
-23.8443375673
 11
10.5597924241
 21
-23.8443375673
  0
LINE
  5
258
100
AcDbEntity
  8
ASSI
100
AcDbLine
 62
253
  6
CONTINUOUS
 10
-9.0368706193
 20
-23.8443375673
 11
-10.5597924241
 21
-23.8443375673
  0
LINE
  5
259
100
AcDbEntity
  8
ASSI
100
AcDbLine
 62
253
  6
CONTINUOUS
 10
-7.2402075759
 20
-23.8443375673
 11
-8.7631293807
 21
-23.8443375673
  0
LINE
  5
25A
100
AcDbEntity
  8
ASSI
100
AcDbLine
 62
253
  6
CONTINUOUS
 10
8.7631293807
 20
-23.8443375673
 11
7.2402075759
 21
-23.8443375673
  0
LINE
  5
25B
100
AcDbEntity
  8
ASSI
100
AcDbLine
 62
253
  6
CONTINUOUS
 10
-4.1947406302
 20
-23.7947330149
 11
-1.0552593698
 21
-23.7947330149
  0
LINE
  5
25C
100
AcDbEntity
  8
ASSI
100
AcDbLine
 62
253
  6
CONTINUOUS
 10
1.0552593698
 20
-23.7947330149
 11
4.1947406302
 21
-23.7947330149
  0
LINE
  5
25D
100
AcDbEntity
  8
ASSI
100
AcDbLine
 62
253
  6
CONTINUOUS
 10
-1.0052669851
 20
-23.7447406302
 11
-0.8052974461
 21
-23.7447406302
  0
LINE
  5
25E
100
AcDbEntity
  8
ASSI
100
AcDbLine
 62
253
  6
CONTINUOUS
 10
1.0052669851
 20
-23.7447406302
 11
0.8052974461
 21
-23.7447406302
  0
LINE
  5
25F
100
AcDbEntity
  8
ASSI
100
AcDbLine
 62
253
  6
CONTINUOUS
 10
4.2447330149
 20
-23.7447406302
 11
4.4447025539
 21
-23.7447406302
  0
LINE
  5
260
100
AcDbEntity
  8
ASSI
100
AcDbLine
 62
253
  6
CONTINUOUS
 10
-4.2447330149
 20
-23.7447406302
 11
-4.4447025539
 21
-23.7447406302
  0
LINE
  5
261
100
AcDbEntity
  8
ASSI
100
AcDbLine
 62
253
  6
CONTINUOUS
 10
10.3602592617
 20
-23.6278312164
 11
9.2533769702
 21
-23.6278312164
  0
LINE
  5
262
100
AcDbEntity
  8
ASSI
100
AcDbLine
 62
253
  6
CONTINUOUS
 10
8.5466230298
 20
-23.6278312164
 11
7.4397407383
 21
-23.6278312164
  0
LINE
  5
263
100
AcDbEntity
  8
ASSI
100
AcDbLine
 62
253
  6
CONTINUOUS
 10
-7.4397407383
 20
-23.6278312164
 11
-8.5466230298
 21
-23.6278312164
  0
LINE
  5
264
100
AcDbEntity
  8
ASSI
100
AcDbLine
 62
253
  6
CONTINUOUS
 10
-9.2533769702
 20
-23.6278312164
 11
-10.3602592617
 21
-23.6278312164
  0
LINE
  5
265
100
AcDbEntity
  8
ASSI
100
AcDbLine
 62
7
  6
CONTINUOUS
 10
-10.3281430868
 20
-23.1226497308
 11
-9.3
 21
-23.1226497308
  0
LINE
  5
266
100
AcDbEntity
  8
ASSI
100
AcDbLine
 62
7
  6
CONTINUOUS
 10
-8.5
 20
-23.1226497308
 11
-7.4718569132
 21
-23.1226497308
  0
LINE
  5
267
100
AcDbEntity
  8
ASSI
100
AcDbLine
 62
7
  6
CONTINUOUS
 10
7.4718569132
 20
-23.1226497308
 11
8.5
 21
-23.1226497308
  0
LINE
  5
268
100
AcDbEntity
  8
ASSI
100
AcDbLine
 62
7
  6
CONTINUOUS
 10
9.3
 20
-23.1226497308
 11
10.3281430868
 21
-23.1226497308
  0
LINE
  5
269
100
AcDbEntity
  8
ASSI
100
AcDbLine
 62
253
  6
CONTINUOUS
 10
-7.4393195933
 20
24.4606499457
 11
-7.399969539
 21
24.5
  0
LINE
  5
26A
100
AcDbEntity
  8
ASSI
100
AcDbLine
 62
253
  6
CONTINUOUS
 10
-7.2393500543
 20
24.2606804067
 11
-7.2
 21
24.300030461
  0
LINE
  5
26B
100
AcDbEntity
  8
ASSI
100
AcDbLine
 62
7
  6
CONTINUOUS
 10
-7.2
 20
-22.4
 11
-4.45
 21
-22.4
  0
LINE
  5
26C
100
AcDbEntity
  8
ASSI
100
AcDbLine
 62
7
  6
CONTINUOUS
 10
-0.8
 20
-22.4
 11
0.8
 21
-22.4
  0
LINE
  5
26D
100
AcDbEntity
  8
ASSI
100
AcDbLine
 62
7
  6
CONTINUOUS
 10
4.45
 20
-22.4
 11
7.2
 21
-22.4
  0
LINE
  5
26E
100
AcDbEntity
  8
ASSI
100
AcDbLine
 62
7
  6
CONTINUOUS
 10
4.2447330149
 20
-22.3737961104
 11
1.0052669851
 21
-22.3737961104
  0
LINE
  5
26F
100
AcDbEntity
  8
ASSI
100
AcDbLine
 62
7
  6
CONTINUOUS
 10
-1.0052669851
 20
-22.3737961104
 11
-4.2447330149
 21
-22.3737961104
  0
LINE
  5
270
100
AcDbEntity
  8
ASSI
100
AcDbLine
 62
7
  6
CONTINUOUS
 10
-10.3281430868
 20
-22.3213883311
 11
-9.3
 21
-22.3213883311
  0
LINE
  5
271
100
AcDbEntity
  8
ASSI
100
AcDbLine
 62
7
  6
CONTINUOUS
 10
-8.5
 20
-22.3213883311
 11
-7.4718569132
 21
-22.3213883311
  0
LINE
  5
272
100
AcDbEntity
  8
ASSI
100
AcDbLine
 62
7
  6
CONTINUOUS
 10
7.4718569132
 20
-22.3213883311
 11
8.5
 21
-22.3213883311
  0
LINE
  5
273
100
AcDbEntity
  8
ASSI
100
AcDbLine
 62
7
  6
CONTINUOUS
 10
9.3
 20
-22.3213883311
 11
10.3281430868
 21
-22.3213883311
  0
LINE
  5
274
100
AcDbEntity
  8
ASSI
100
AcDbLine
 62
7
  6
CONTINUOUS
 10
9.0368706193
 20
-22.2689805518
 11
8.7631293807
 21
-22.2689805518
  0
LINE
  5
275
100
AcDbEntity
  8
ASSI
100
AcDbLine
 62
7
  6
CONTINUOUS
 10
-8.7631293807
 20
-22.2689805518
 11
-9.0368706193
 21
-22.2689805518
  0
LINE
  5
276
100
AcDbEntity
  8
ASSI
100
AcDbLine
 62
253
  6
CONTINUOUS
 10
-7.399969539
 20
-24.5
 11
-7.4393195933
 21
-24.4606499457
  0
LINE
  5
277
100
AcDbEntity
  8
ASSI
100
AcDbLine
 62
253
  6
CONTINUOUS
 10
-7.2
 20
-24.300030461
 11
-7.2393500543
 21
-24.2606804067
  0
LINE
  5
278
100
AcDbEntity
  8
ASSI
100
AcDbLine
 62
253
  6
CONTINUOUS
 10
-1.0552593698
 20
23.9947025539
 11
-1.0499619238
 21
24.0
  0
LINE
  5
279
100
AcDbEntity
  8
ASSI
100
AcDbLine
 62
253
  6
CONTINUOUS
 10
-0.8052974461
 20
23.7447406302
 11
-0.8
 21
23.7500380762
  0
LINE
  5
27A
100
AcDbEntity
  8
ASSI
100
AcDbLine
 62
253
  6
CONTINUOUS
 10
-1.0499619238
 20
-24.0
 11
-1.0552593698
 21
-23.9947025539
  0
LINE
  5
27B
100
AcDbEntity
  8
ASSI
100
AcDbLine
 62
7
  6
CONTINUOUS
 10
-8.5
 20
22.3213883311
 11
-8.5131674569
 21
22.2818538361
  0
LINE
  5
27C
100
AcDbEntity
  8
ASSI
100
AcDbLine
 62
7
  6
CONTINUOUS
 10
-8.5
 20
-22.3213883311
 11
-8.5131674569
 21
-22.2818538361
  0
LINE
  5
27D
100
AcDbEntity
  8
ASSI
100
AcDbLine
 62
7
  6
CONTINUOUS
 10
-7.2218949894
 20
22.3342616154
 11
-7.2
 21
22.4
  0
LINE
  5
27E
100
AcDbEntity
  8
ASSI
100
AcDbLine
 62
253
  6
CONTINUOUS
 10
4.1947406302
 20
23.9947025539
 11
4.2000380762
 21
24.0
  0
LINE
  5
27F
100
AcDbEntity
  8
ASSI
100
AcDbLine
 62
253
  6
CONTINUOUS
 10
4.4447025539
 20
23.7447406302
 11
4.45
 21
23.7500380762
  0
LINE
  5
280
100
AcDbEntity
  8
ASSI
100
AcDbLine
 62
253
  6
CONTINUOUS
 10
4.2000380762
 20
-24.0
 11
4.1947406302
 21
-23.9947025539
  0
LINE
  5
281
100
AcDbEntity
  8
ASSI
100
AcDbLine
 62
253
  6
CONTINUOUS
 10
4.45
 20
-23.7500380762
 11
4.4447025539
 21
-23.7447406302
  0
LINE
  5
282
100
AcDbEntity
  8
ASSI
100
AcDbLine
 62
7
  6
CONTINUOUS
 10
-7.2
 20
-22.4
 11
-7.2218949894
 21
-22.3342616154
  0
LINE
  5
283
100
AcDbEntity
  8
ASSI
100
AcDbLine
 62
7
  6
CONTINUOUS
 10
-11.1
 20
-18.5
 11
-11.1392788824
 21
-17.6339745962
  0
LINE
  5
284
100
AcDbEntity
  8
ASSI
100
AcDbLine
 62
253
  6
CONTINUOUS
 10
-10.5781050106
 20
-23.2097560788
 11
-10.5602288007
 21
-23.8010362971
  0
LINE
  5
285
100
AcDbEntity
  8
ASSI
100
AcDbLine
 62
253
  6
CONTINUOUS
 10
-10.3756118279
 20
-23.1200239821
 11
-10.3602592617
 21
-23.6278312164
  0
LINE
  5
286
100
AcDbEntity
  8
RACCORDO
100
AcDbLine
 62
7
  6
CONTINUOUS
 10
-11.15
 20
-17.6716990487
 11
-11.15
 21
17.6716990487
  0
LINE
  5
287
100
AcDbEntity
  8
ASSI
100
AcDbLine
 62
7
  6
CONTINUOUS
 10
-11.15
 20
-17.6716990487
 11
-11.15
 21
17.6716990487
  0
LINE
  5
288
100
AcDbEntity
  8
ASSI
100
AcDbLine
 62
7
  6
CONTINUOUS
 10
-11.1392788824
 20
-17.6339745962
 11
-11.1392788824
 21
17.6339745962
  0
LINE
  5
289
100
AcDbEntity
  8
ASSI
100
AcDbLine
 62
7
  6
CONTINUOUS
 10
-11.1
 20
21.9000761524
 11
-11.1
 21
18.5
  0
LINE
  5
28A
100
AcDbEntity
  8
ASSI
100
AcDbLine
 62
7
  6
CONTINUOUS
 10
-11.1
 20
-21.9000761524
 11
-11.1
 21
-18.5
  0
LINE
  5
28B
100
AcDbEntity
  8
ASSI
100
AcDbLine
 62
7
  6
CONTINUOUS
 10
-10.6
 20
-24.300030461
 11
-10.6000000646
 21
-22.3999999296
  0
LINE
  5
28C
100
AcDbEntity
  8
ASSI
100
AcDbLine
 62
7
  6
CONTINUOUS
 10
-10.6
 20
22.3999997358
 11
-10.6
 21
24.300030461
  0
LINE
  5
28D
100
AcDbEntity
  8
ASSI
100
AcDbLine
 62
253
  6
CONTINUOUS
 10
-10.5781050106
 20
-23.2097560788
 11
-10.5781050106
 21
-22.3341525772
  0
LINE
  5
28E
100
AcDbEntity
  8
ASSI
100
AcDbLine
 62
253
  6
CONTINUOUS
 10
-10.5781050106
 20
22.3341525772
 11
-10.5781050106
 21
23.2097560788
  0
LINE
  5
28F
100
AcDbEntity
  8
ASSI
100
AcDbLine
 62
253
  6
CONTINUOUS
 10
-10.5597924241
 20
-23.8443375673
 11
-10.5597924241
 21
-24.2106880219
  0
LINE
  5
290
100
AcDbEntity
  8
ASSI
100
AcDbLine
 62
253
  6
CONTINUOUS
 10
-10.5597924241
 20
23.8443375673
 11
-10.5597924241
 21
24.2106880219
  0
LINE
  5
291
100
AcDbEntity
  8
ASSI
100
AcDbLine
 62
253
  6
CONTINUOUS
 10
-10.4288985768
 20
-20.8772674193
 11
-10.4288985753
 21
20.8772674139
  0
LINE
  5
292
100
AcDbEntity
  8
ASSI
100
AcDbLine
 62
253
  6
CONTINUOUS
 10
-10.3598228851
 20
-23.844335488
 11
-10.3598228851
 21
-24.2106880219
  0
LINE
  5
293
100
AcDbEntity
  8
ASSI
100
AcDbLine
 62
253
  6
CONTINUOUS
 10
-10.3598228851
 20
23.844357602
 11
-10.3598228851
 21
24.2106880219
  0
LINE
  5
294
100
AcDbEntity
  8
ASSI
100
AcDbLine
 62
253
  6
CONTINUOUS
 10
-10.3281430868
 20
-23.1226497308
 11
-10.3281430868
 21
-22.3213883311
  0
LINE
  5
295
100
AcDbEntity
  8
ASSI
100
AcDbLine
 62
253
  6
CONTINUOUS
 10
-10.3281430868
 20
22.3213883311
 11
-10.3281430868
 21
23.1226497308
  0
LINE
  5
296
100
AcDbEntity
  8
ASSI
100
AcDbLine
 62
253
  6
CONTINUOUS
 10
-10.5781050106
 20
23.2097560788
 11
-10.5602288007
 21
23.8010362971
  0
LINE
  5
297
100
AcDbEntity
  8
ASSI
100
AcDbLine
 62
253
  6
CONTINUOUS
 10
-10.3756118279
 20
23.1200239821
 11
-10.3602579838
 21
23.6278734826
  0
LINE
  5
298
100
AcDbEntity
  8
ASSI
100
AcDbLine
 62
7
  6
CONTINUOUS
 10
-11.1392788824
 20
17.6339745962
 11
-11.1
 21
18.5
  0
LWPOLYLINE
  5
299
100
AcDbEntity
  8
0
100
AcDbPolyline
 62
7
  6
CONTINUOUS
 90
3
 70
0
 43
0.3500000006
 10
1.035714268
 20
36.4291687775
 10
0.9642857051
 20
36.2148842926
 10
0.8214285793
 20
35.9291686249
  0
LINE
  5
29A
100
AcDbEntity
  8
ASSI
100
AcDbLine
 62
7
  6
CONTINUOUS
 10
-9.3
 20
-23.1226497308
 11
-9.2868325431
 21
-23.5581814706
  0
LINE
  5
29B
100
AcDbEntity
  8
ASSI
100
AcDbLine
 62
7
  6
CONTINUOUS
 10
-9.3
 20
23.1226497308
 11
-9.3
 21
22.3213883311
  0
LINE
  5
29C
100
AcDbEntity
  8
ASSI
100
AcDbLine
 62
7
  6
CONTINUOUS
 10
-9.3
 20
-22.3213883311
 11
-9.3
 21
-23.1226497308
  0
LINE
  5
29D
100
AcDbEntity
  8
ASSI
100
AcDbLine
 62
253
  6
CONTINUOUS
 10
-9.2868325431
 20
-23.5581814706
 11
-9.2868325431
 21
-22.2818538361
  0
LINE
  5
29E
100
AcDbEntity
  8
ASSI
100
AcDbLine
 62
253
  6
CONTINUOUS
 10
-9.2868325431
 20
22.2818538361
 11
-9.2868325431
 21
23.5581814706
  0
LINE
  5
29F
100
AcDbEntity
  8
ASSI
100
AcDbLine
 62
253
  6
CONTINUOUS
 10
-9.0368706193
 20
-23.8443375673
 11
-9.0368706193
 21
-22.2689805518
  0
LINE
  5
2A0
100
AcDbEntity
  8
ASSI
100
AcDbLine
 62
253
  6
CONTINUOUS
 10
-9.0368706193
 20
22.2689805518
 11
-9.0368706193
 21
23.8443375673
  0
LINE
  5
2A1
100
AcDbEntity
  8
ASSI
100
AcDbLine
 62
253
  6
CONTINUOUS
 10
-8.7631293807
 20
-23.8443375673
 11
-8.7631293807
 21
-22.2689805518
  0
LINE
  5
2A2
100
AcDbEntity
  8
ASSI
100
AcDbLine
 62
253
  6
CONTINUOUS
 10
-8.7631293807
 20
22.2689805518
 11
-8.7631293807
 21
23.8443375673
  0
LINE
  5
2A3
100
AcDbEntity
  8
ASSI
100
AcDbLine
 62
253
  6
CONTINUOUS
 10
-8.5131674569
 20
-23.5581814706
 11
-8.5131674569
 21
-22.2818538361
  0
LINE
  5
2A4
100
AcDbEntity
  8
ASSI
100
AcDbLine
 62
253
  6
CONTINUOUS
 10
-8.5131674569
 20
22.2818538361
 11
-8.5131674569
 21
23.5581814706
  0
LINE
  5
2A5
100
AcDbEntity
  8
ASSI
100
AcDbLine
 62
7
  6
CONTINUOUS
 10
-8.5
 20
23.1226497308
 11
-8.5
 21
22.3213883311
  0
LINE
  5
2A6
100
AcDbEntity
  8
ASSI
100
AcDbLine
 62
7
  6
CONTINUOUS
 10
-8.5
 20
-22.3213883311
 11
-8.5
 21
-23.1226497308
  0
LINE
  5
2A7
100
AcDbEntity
  8
ASSI
100
AcDbLine
 62
7
  6
CONTINUOUS
 10
-9.2868325431
 20
23.5581814706
 11
-9.3
 21
23.1226497308
  0
LINE
  5
2A8
100
AcDbEntity
  8
ASSI
100
AcDbLine
 62
253
  6
CONTINUOUS
 10
10.400030461
 20
24.5
 11
10.3606804067
 21
24.4606499457
  0
LINE
  5
2A9
100
AcDbEntity
  8
ASSI
100
AcDbLine
 62
253
  6
CONTINUOUS
 10
10.6
 20
24.300030461
 11
10.5606499457
 21
24.2606804067
  0
LINE
  5
2AA
100
AcDbEntity
  8
ASSI
100
AcDbLine
 62
253
  6
CONTINUOUS
 10
10.400030461
 20
-24.5
 11
10.3606804067
 21
-24.4606499457
  0
LINE
  5
2AB
100
AcDbEntity
  8
ASSI
100
AcDbLine
 62
253
  6
CONTINUOUS
 10
10.6
 20
-24.300030461
 11
10.5606499457
 21
-24.2606804067
  0
LINE
  5
2AC
100
AcDbEntity
  8
ASSI
100
AcDbLine
 62
7
  6
CONTINUOUS
 10
-8.5131674569
 20
23.5581814706
 11
-8.5
 21
23.1226497308
  0
LINE
  5
2AD
100
AcDbEntity
  8
ASSI
100
AcDbLine
 62
253
  6
CONTINUOUS
 10
-7.4243881721
 20
23.1200239821
 11
-7.4397407629
 21
23.6278320282
  0
LINE
  5
2AE
100
AcDbEntity
  8
ASSI
100
AcDbLine
 62
253
  6
CONTINUOUS
 10
-7.2218949894
 20
23.2097560788
 11
-7.2397711993
 21
23.8010362971
  0
LINE
  5
2AF
100
AcDbEntity
  8
ASSI
100
AcDbLine
 62
253
  6
CONTINUOUS
 10
-7.4718569132
 20
-23.1226497308
 11
-7.4718569132
 21
-22.3213883311
  0
LINE
  5
2B0
100
AcDbEntity
  8
ASSI
100
AcDbLine
 62
253
  6
CONTINUOUS
 10
-7.4718569132
 20
22.3213883311
 11
-7.4718569132
 21
23.1226497308
  0
LINE
  5
2B1
100
AcDbEntity
  8
ASSI
100
AcDbLine
 62
253
  6
CONTINUOUS
 10
-7.4401771149
 20
-24.2106880219
 11
-7.4401771149
 21
-23.8443359311
  0
LINE
  5
2B2
100
AcDbEntity
  8
ASSI
100
AcDbLine
 62
253
  6
CONTINUOUS
 10
-7.4401771149
 20
23.8443375673
 11
-7.4401771149
 21
24.2106880219
  0
LINE
  5
2B3
100
AcDbEntity
  8
ASSI
100
AcDbLine
 62
253
  6
CONTINUOUS
 10
-7.2402075759
 20
-24.2106880219
 11
-7.2402075759
 21
-23.8443375673
  0
LINE
  5
2B4
100
AcDbEntity
  8
ASSI
100
AcDbLine
 62
253
  6
CONTINUOUS
 10
-7.2402075759
 20
23.8443375673
 11
-7.2402075759
 21
24.2106880219
  0
LINE
  5
2B5
100
AcDbEntity
  8
ASSI
100
AcDbLine
 62
253
  6
CONTINUOUS
 10
-7.2218949894
 20
23.2097560788
 11
-7.2218949894
 21
22.3342616154
  0
LINE
  5
2B6
100
AcDbEntity
  8
ASSI
100
AcDbLine
 62
253
  6
CONTINUOUS
 10
-7.2218949894
 20
-22.3342616154
 11
-7.2218949894
 21
-23.2097560788
  0
LINE
  5
2B7
100
AcDbEntity
  8
ASSI
100
AcDbLine
 62
7
  6
CONTINUOUS
 10
-7.2
 20
-24.300030461
 11
-7.2
 21
-22.4
  0
LINE
  5
2B8
100
AcDbEntity
  8
ASSI
100
AcDbLine
 62
7
  6
CONTINUOUS
 10
-7.2
 20
22.4
 11
-7.2
 21
24.300030461
  0
LINE
  5
2B9
100
AcDbEntity
  8
ASSI
100
AcDbLine
 62
7
  6
CONTINUOUS
 10
-8.5
 20
-23.1226497308
 11
-8.5131674569
 21
-23.5581814706
  0
LINE
  5
2BA
100
AcDbEntity
  8
ASSI
100
AcDbLine
 62
253
  6
CONTINUOUS
 10
-7.4397407383
 20
-23.6278312164
 11
-7.4243881721
 21
-23.1200239821
  0
LINE
  5
2BB
100
AcDbEntity
  8
ASSI
100
AcDbLine
 62
253
  6
CONTINUOUS
 10
-7.2397711993
 20
-23.8010362971
 11
-7.2218949894
 21
-23.2097560788
  0
LINE
  5
2BC
100
AcDbEntity
  8
ASSI
100
AcDbLine
 62
7
  6
CONTINUOUS
 10
-0.8052974461
 20
22.3840947378
 11
-0.8
 21
22.4
  0
LINE
  5
2BD
100
AcDbEntity
  8
0
100
AcDbLine
 62
7
  6
CONTINUOUS
 10
-2.1246315946
 20
-7.5
 11
-1.945777761
 21
-7.5
  0
LINE
  5
2BE
100
AcDbEntity
  8
0
100
AcDbLine
 62
7
  6
CONTINUOUS
 10
1.945777761
 20
-7.5
 11
2.1246341173
 21
-7.5
  0
LINE
  5
2BF
100
AcDbEntity
  8
ASSI
100
AcDbLine
 62
7
  6
CONTINUOUS
 10
-0.8
 20
-22.4
 11
-0.8052974461
 21
-22.3840947378
  0
LINE
  5
2C0
100
AcDbEntity
  8
ASSI
100
AcDbLine
 62
7
  6
CONTINUOUS
 10
-4.45
 20
-22.4
 11
-4.45
 21
-23.7500380762
  0
LINE
  5
2C1
100
AcDbEntity
  8
ASSI
100
AcDbLine
 62
7
  6
CONTINUOUS
 10
-4.45
 20
22.4
 11
-4.45
 21
23.7500380762
  0
LINE
  5
2C2
100
AcDbEntity
  8
ASSI
100
AcDbLine
 62
253
  6
CONTINUOUS
 10
-4.4447025539
 20
-22.3840947378
 11
-4.4447025539
 21
-23.7447406302
  0
LINE
  5
2C3
100
AcDbEntity
  8
ASSI
100
AcDbLine
 62
253
  6
CONTINUOUS
 10
-4.4447025539
 20
22.3840947378
 11
-4.4447025539
 21
23.7447406302
  0
LINE
  5
2C4
100
AcDbEntity
  8
0
100
AcDbLine
 62
7
  6
CONTINUOUS
 10
-4.25
 20
-6.5324834326
 11
-4.25
 21
-6.4775418213
  0
LINE
  5
2C5
100
AcDbEntity
  8
ASSI
100
AcDbLine
 62
253
  6
CONTINUOUS
 10
-4.2447330149
 20
-22.3737961104
 11
-4.2447330149
 21
-23.7447406302
  0
LINE
  5
2C6
100
AcDbEntity
  8
ASSI
100
AcDbLine
 62
253
  6
CONTINUOUS
 10
-4.2447330149
 20
22.3737961104
 11
-4.2447330149
 21
23.7447406302
  0
LINE
  5
2C7
100
AcDbEntity
  8
ASSI
100
AcDbLine
 62
253
  6
CONTINUOUS
 10
-4.1947406302
 20
23.9947025539
 11
-4.1947406302
 21
23.7947330149
  0
LINE
  5
2C8
100
AcDbEntity
  8
ASSI
100
AcDbLine
 62
253
  6
CONTINUOUS
 10
-4.1947406302
 20
-23.7947330149
 11
-4.1947406302
 21
-23.9947025539
  0
LINE
  5
2C9
100
AcDbEntity
  8
ASSI
100
AcDbLine
 62
7
  6
CONTINUOUS
 10
4.45
 20
22.4
 11
4.4447025539
 21
22.3840947378
  0
LINE
  5
2CA
100
AcDbEntity
  8
ASSI
100
AcDbLine
 62
7
  6
CONTINUOUS
 10
4.45
 20
-22.4
 11
4.4447025539
 21
-22.3840947378
  0
LINE
  5
2CB
100
AcDbEntity
  8
ASSI
100
AcDbLine
 62
253
  6
CONTINUOUS
 10
-1.0552593698
 20
23.9947025539
 11
-1.0552593698
 21
23.7947330149
  0
LINE
  5
2CC
100
AcDbEntity
  8
ASSI
100
AcDbLine
 62
253
  6
CONTINUOUS
 10
-1.0552593698
 20
-23.7947330149
 11
-1.0552593698
 21
-23.9947025539
  0
LINE
  5
2CD
100
AcDbEntity
  8
ASSI
100
AcDbLine
 62
253
  6
CONTINUOUS
 10
-1.0052669851
 20
23.7447406302
 11
-1.0052669851
 21
22.3737961104
  0
LINE
  5
2CE
100
AcDbEntity
  8
ASSI
100
AcDbLine
 62
253
  6
CONTINUOUS
 10
-1.0052669851
 20
-23.7447406302
 11
-1.0052669851
 21
-22.3737961104
  0
LINE
  5
2CF
100
AcDbEntity
  8
ASSI
100
AcDbLine
 62
253
  6
CONTINUOUS
 10
-0.8052974461
 20
23.7447406302
 11
-0.8052974461
 21
22.3840947378
  0
LINE
  5
2D0
100
AcDbEntity
  8
ASSI
100
AcDbLine
 62
253
  6
CONTINUOUS
 10
-0.8052974461
 20
-23.7447406302
 11
-0.8052974461
 21
-22.3840947378
  0
LINE
  5
2D1
100
AcDbEntity
  8
ASSI
100
AcDbLine
 62
7
  6
CONTINUOUS
 10
-0.8
 20
-23.7500380762
 11
-0.8
 21
-22.4
  0
LINE
  5
2D2
100
AcDbEntity
  8
ASSI
100
AcDbLine
 62
7
  6
CONTINUOUS
 10
-0.8
 20
22.4
 11
-0.8
 21
23.7500380762
  0
LINE
  5
2D3
100
AcDbEntity
  8
ASSI
100
AcDbLine
 62
7
  6
CONTINUOUS
 10
-9.3
 20
-22.3213883311
 11
-9.2868325431
 21
-22.2818538361
  0
LINE
  5
2D4
100
AcDbEntity
  8
ASSI
100
AcDbLine
 62
253
  6
CONTINUOUS
 10
10.4128373368
 20
22.0243894438
 11
10.5657454716
 21
22.3304155561
  0
LINE
  5
2D5
100
AcDbEntity
  8
ASSI
100
AcDbLine
 62
253
  6
CONTINUOUS
 10
-11.1
 20
-21.8999997649
 11
-10.9126659988
 21
-21.5250746755
  0
LINE
  5
2D6
100
AcDbEntity
  8
ASSI
100
AcDbLine
 62
253
  6
CONTINUOUS
 10
11.1
 20
21.8999997649
 11
10.9126659988
 21
21.5250746755
  0
LWPOLYLINE
  5
2D7
100
AcDbEntity
  8
0
100
AcDbPolyline
 62
7
  6
CONTINUOUS
 90
2
 70
0
 43
0.3500000006
 10
23.335983284
 20
-1.3571429443
 10
21.8359828262
 20
-1.3571429443
  0
LINE
  5
2D8
100
AcDbEntity
  8
ASSI
100
AcDbLine
 62
253
  6
CONTINUOUS
 10
10.4128373357
 20
-22.0243894416
 11
10.5657454716
 21
-22.3304155561
  0
LINE
  5
2D9
100
AcDbEntity
  8
ASSI
100
AcDbLine
 62
253
  6
CONTINUOUS
 10
-10.9126659982
 20
21.5250746743
 11
-11.1
 21
21.8999997649
  0
LINE
  5
2DA
100
AcDbEntity
  8
ASSI
100
AcDbLine
 62
253
  6
CONTINUOUS
 10
10.9126659982
 20
-21.5250746743
 11
11.1
 21
-21.8999997649
  0
LINE
  5
2DB
100
AcDbEntity
  8
ASSI
100
AcDbLine
 62
7
  6
CONTINUOUS
 10
-9.3
 20
22.3213883311
 11
-9.2868325431
 21
22.2818538361
  0
LINE
  5
2DC
100
AcDbEntity
  8
ASSI
100
AcDbLine
 62
7
  6
CONTINUOUS
 10
0.8
 20
-23.7500380762
 11
0.8
 21
-22.4
  0
LINE
  5
2DD
100
AcDbEntity
  8
ASSI
100
AcDbLine
 62
7
  6
CONTINUOUS
 10
0.8
 20
22.4
 11
0.8
 21
23.7500380762
  0
LINE
  5
2DE
100
AcDbEntity
  8
ASSI
100
AcDbLine
 62
253
  6
CONTINUOUS
 10
0.8052974461
 20
23.7447406302
 11
0.8052974461
 21
22.3840947378
  0
LINE
  5
2DF
100
AcDbEntity
  8
ASSI
100
AcDbLine
 62
253
  6
CONTINUOUS
 10
0.8052974461
 20
-22.3840947378
 11
0.8052974461
 21
-23.7447406302
  0
LINE
  5
2E0
100
AcDbEntity
  8
ASSI
100
AcDbLine
 62
253
  6
CONTINUOUS
 10
1.0052669851
 20
23.7447406302
 11
1.0052669851
 21
22.3737961104
  0
LINE
  5
2E1
100
AcDbEntity
  8
ASSI
100
AcDbLine
 62
253
  6
CONTINUOUS
 10
1.0052669851
 20
-22.3737961104
 11
1.0052669851
 21
-23.7447406302
  0
LINE
  5
2E2
100
AcDbEntity
  8
ASSI
100
AcDbLine
 62
253
  6
CONTINUOUS
 10
1.0552593698
 20
-23.7947330149
 11
1.0552593698
 21
-23.9947025539
  0
LINE
  5
2E3
100
AcDbEntity
  8
ASSI
100
AcDbLine
 62
253
  6
CONTINUOUS
 10
1.0552593698
 20
23.7947330149
 11
1.0552593698
 21
23.9947025539
  0
LINE
  5
2E4
100
AcDbEntity
  8
ASSI
100
AcDbLine
 62
7
  6
CONTINUOUS
 10
9.3
 20
22.3213883311
 11
9.2868325431
 21
22.2818538361
  0
LINE
  5
2E5
100
AcDbEntity
  8
ASSI
100
AcDbLine
 62
253
  6
CONTINUOUS
 10
-10.5657454716
 20
-22.3304155561
 11
-10.4128373368
 21
-22.0243894438
  0
LINE
  5
2E6
100
AcDbEntity
  8
ASSI
100
AcDbLine
 62
253
  6
CONTINUOUS
 10
-10.5657454716
 20
22.3304155561
 11
-10.4128373357
 21
22.0243894416
  0
LINE
  5
2E7
100
AcDbEntity
  8
ASSI
100
AcDbLine
 62
7
  6
CONTINUOUS
 10
9.3
 20
-22.3213883311
 11
9.2868325431
 21
-22.2818538361
  0
LINE
  5
2E8
100
AcDbEntity
  8
ASSI
100
AcDbLine
 62
253
  6
CONTINUOUS
 10
4.1947406302
 20
-23.7947330149
 11
4.1947406302
 21
-23.9947025539
  0
LINE
  5
2E9
100
AcDbEntity
  8
ASSI
100
AcDbLine
 62
253
  6
CONTINUOUS
 10
4.1947406302
 20
23.7947330149
 11
4.1947406302
 21
23.9947025539
  0
LINE
  5
2EA
100
AcDbEntity
  8
ASSI
100
AcDbLine
 62
253
  6
CONTINUOUS
 10
4.2447330149
 20
-23.7447406302
 11
4.2447330149
 21
-22.3737961104
  0
LINE
  5
2EB
100
AcDbEntity
  8
ASSI
100
AcDbLine
 62
253
  6
CONTINUOUS
 10
4.2447330149
 20
22.3737961104
 11
4.2447330149
 21
23.7447406302
  0
LINE
  5
2EC
100
AcDbEntity
  8
0
100
AcDbLine
 62
7
  6
CONTINUOUS
 10
4.25
 20
-6.4775418213
 11
4.25
 21
-6.5324834057
  0
LINE
  5
2ED
100
AcDbEntity
  8
ASSI
100
AcDbLine
 62
253
  6
CONTINUOUS
 10
4.4447025539
 20
-23.7447406302
 11
4.4447025539
 21
-22.3840947378
  0
LINE
  5
2EE
100
AcDbEntity
  8
ASSI
100
AcDbLine
 62
253
  6
CONTINUOUS
 10
4.4447025539
 20
22.3840947378
 11
4.4447025539
 21
23.7447406302
  0
LINE
  5
2EF
100
AcDbEntity
  8
ASSI
100
AcDbLine
 62
7
  6
CONTINUOUS
 10
4.45
 20
-22.4
 11
4.45
 21
-23.7500380762
  0
LINE
  5
2F0
100
AcDbEntity
  8
ASSI
100
AcDbLine
 62
7
  6
CONTINUOUS
 10
4.45
 20
22.4
 11
4.45
 21
23.7500380762
  0
LINE
  5
2F1
100
AcDbEntity
  8
ASSI
100
AcDbLine
 62
7
  6
CONTINUOUS
 10
-4.45
 20
-22.4
 11
-4.4447025539
 21
-22.3840947378
  0
LINE
  5
2F2
100
AcDbEntity
  8
ASSI
100
AcDbLine
 62
7
  6
CONTINUOUS
 10
-4.45
 20
22.4
 11
-4.4447025539
 21
22.3840947378
  0
LINE
  5
2F3
100
AcDbEntity
  8
ASSI
100
AcDbLine
 62
253
  6
CONTINUOUS
 10
7.2218949894
 20
-23.2097560788
 11
7.2397711993
 21
-23.8010362971
  0
LINE
  5
2F4
100
AcDbEntity
  8
ASSI
100
AcDbLine
 62
253
  6
CONTINUOUS
 10
7.2397711993
 20
23.8010362971
 11
7.2218949894
 21
23.2097560788
  0
LINE
  5
2F5
100
AcDbEntity
  8
ASSI
100
AcDbLine
 62
253
  6
CONTINUOUS
 10
7.4243881721
 20
-23.1200239821
 11
7.4397407383
 21
-23.6278312164
  0
LINE
  5
2F6
100
AcDbEntity
  8
ASSI
100
AcDbLine
 62
7
  6
CONTINUOUS
 10
8.5
 20
-23.1226497308
 11
8.5131674569
 21
-23.5581814706
  0
LINE
  5
2F7
100
AcDbEntity
  8
ASSI
100
AcDbLine
 62
7
  6
CONTINUOUS
 10
7.2
 20
-22.4
 11
7.2
 21
-24.300030461
  0
LINE
  5
2F8
100
AcDbEntity
  8
ASSI
100
AcDbLine
 62
7
  6
CONTINUOUS
 10
7.2
 20
22.4
 11
7.2
 21
24.300030461
  0
LINE
  5
2F9
100
AcDbEntity
  8
ASSI
100
AcDbLine
 62
253
  6
CONTINUOUS
 10
7.2218949894
 20
-23.2097560788
 11
7.2218949894
 21
-22.3342616154
  0
LINE
  5
2FA
100
AcDbEntity
  8
ASSI
100
AcDbLine
 62
253
  6
CONTINUOUS
 10
7.2218949894
 20
22.3342616154
 11
7.2218949894
 21
23.2097560788
  0
LINE
  5
2FB
100
AcDbEntity
  8
ASSI
100
AcDbLine
 62
253
  6
CONTINUOUS
 10
7.2402075759
 20
24.2106880219
 11
7.2402075759
 21
23.8443375673
  0
LINE
  5
2FC
100
AcDbEntity
  8
ASSI
100
AcDbLine
 62
253
  6
CONTINUOUS
 10
7.2402075759
 20
-23.8443375673
 11
7.2402075759
 21
-24.2106880219
  0
LINE
  5
2FD
100
AcDbEntity
  8
ASSI
100
AcDbLine
 62
253
  6
CONTINUOUS
 10
7.4401771149
 20
24.2106880219
 11
7.4401771149
 21
23.8443375673
  0
LINE
  5
2FE
100
AcDbEntity
  8
ASSI
100
AcDbLine
 62
253
  6
CONTINUOUS
 10
7.4401771149
 20
-23.844335488
 11
7.4401771149
 21
-24.2106880219
  0
LINE
  5
2FF
100
AcDbEntity
  8
ASSI
100
AcDbLine
 62
253
  6
CONTINUOUS
 10
7.4718569132
 20
23.1226497308
 11
7.4718569132
 21
22.3213883311
  0
LINE
  5
300
100
AcDbEntity
  8
ASSI
100
AcDbLine
 62
253
  6
CONTINUOUS
 10
7.4718569132
 20
-22.3213883311
 11
7.4718569132
 21
-23.1226497308
  0
LINE
  5
301
100
AcDbEntity
  8
ASSI
100
AcDbLine
 62
7
  6
CONTINUOUS
 10
8.5
 20
23.1226497308
 11
8.5
 21
22.3213883311
  0
LINE
  5
302
100
AcDbEntity
  8
ASSI
100
AcDbLine
 62
7
  6
CONTINUOUS
 10
8.5
 20
-22.3213883311
 11
8.5
 21
-23.1226497308
  0
LINE
  5
303
100
AcDbEntity
  8
ASSI
100
AcDbLine
 62
253
  6
CONTINUOUS
 10
8.5131674569
 20
-23.5581814706
 11
8.5131674569
 21
-22.2818538361
  0
LINE
  5
304
100
AcDbEntity
  8
ASSI
100
AcDbLine
 62
253
  6
CONTINUOUS
 10
8.5131674569
 20
22.2818538361
 11
8.5131674569
 21
23.5581814706
  0
LINE
  5
305
100
AcDbEntity
  8
ASSI
100
AcDbLine
 62
253
  6
CONTINUOUS
 10
7.4397407694
 20
23.6278322442
 11
7.4243881721
 21
23.1200239821
  0
LINE
  5
306
100
AcDbEntity
  8
ASSI
100
AcDbLine
 62
7
  6
CONTINUOUS
 10
8.5131674569
 20
23.5581814706
 11
8.5
 21
23.1226497308
  0
LINE
  5
307
100
AcDbEntity
  8
ASSI
100
AcDbLine
 62
7
  6
CONTINUOUS
 10
0.8
 20
-22.4
 11
0.8052974461
 21
-22.3840947378
  0
LINE
  5
308
100
AcDbEntity
  8
ASSI
100
AcDbLine
 62
7
  6
CONTINUOUS
 10
-3.429035802
 20
7.0
 11
-3.3232981336
 21
7.0
  0
LINE
  5
309
100
AcDbEntity
  8
ASSI
100
AcDbLine
 62
7
  6
CONTINUOUS
 10
3.3232981336
 20
7.0
 11
3.4290354315
 21
7.0
  0
LINE
  5
30A
100
AcDbEntity
  8
ASSI
100
AcDbLine
 62
7
  6
CONTINUOUS
 10
9.2868325431
 20
23.5581814706
 11
9.3
 21
23.1226497308
  0
LINE
  5
30B
100
AcDbEntity
  8
ASSI
100
AcDbLine
 62
253
  6
CONTINUOUS
 10
8.7631293807
 20
-23.8443375673
 11
8.7631293807
 21
-22.2689805518
  0
LINE
  5
30C
100
AcDbEntity
  8
ASSI
100
AcDbLine
 62
253
  6
CONTINUOUS
 10
8.7631293807
 20
22.2689805518
 11
8.7631293807
 21
23.8443375673
  0
LINE
  5
30D
100
AcDbEntity
  8
ASSI
100
AcDbLine
 62
253
  6
CONTINUOUS
 10
9.0368706193
 20
-23.8443375673
 11
9.0368706193
 21
-22.2689805518
  0
LINE
  5
30E
100
AcDbEntity
  8
ASSI
100
AcDbLine
 62
253
  6
CONTINUOUS
 10
9.0368706193
 20
22.2689805518
 11
9.0368706193
 21
23.8443375673
  0
LINE
  5
30F
100
AcDbEntity
  8
ASSI
100
AcDbLine
 62
253
  6
CONTINUOUS
 10
9.2868325431
 20
-23.5581814706
 11
9.2868325431
 21
-22.2818538361
  0
LINE
  5
310
100
AcDbEntity
  8
ASSI
100
AcDbLine
 62
253
  6
CONTINUOUS
 10
9.2868325431
 20
22.2818538361
 11
9.2868325431
 21
23.5581814706
  0
LINE
  5
311
100
AcDbEntity
  8
ASSI
100
AcDbLine
 62
7
  6
CONTINUOUS
 10
9.3
 20
23.1226497308
 11
9.3
 21
22.3213883311
  0
LINE
  5
312
100
AcDbEntity
  8
ASSI
100
AcDbLine
 62
7
  6
CONTINUOUS
 10
9.3
 20
-22.3213883311
 11
9.3
 21
-23.1226497308
  0
LINE
  5
313
100
AcDbEntity
  8
ASSI
100
AcDbLine
 62
253
  6
CONTINUOUS
 10
10.3281430868
 20
23.1226497308
 11
10.3281430868
 21
22.3213883311
  0
LINE
  5
314
100
AcDbEntity
  8
ASSI
100
AcDbLine
 62
253
  6
CONTINUOUS
 10
10.3281430868
 20
-22.3213883311
 11
10.3281430868
 21
-23.1226497308
  0
LINE
  5
315
100
AcDbEntity
  8
ASSI
100
AcDbLine
 62
253
  6
CONTINUOUS
 10
10.3598228851
 20
24.2106880219
 11
10.3598228851
 21
23.8443575944
  0
LINE
  5
316
100
AcDbEntity
  8
ASSI
100
AcDbLine
 62
253
  6
CONTINUOUS
 10
10.3598228851
 20
-24.2106880219
 11
10.3598228851
 21
-23.8443359311
  0
LINE
  5
317
100
AcDbEntity
  8
ASSI
100
AcDbLine
 62
253
  6
CONTINUOUS
 10
10.4288985767
 20
20.8772674161
 11
10.4288985753
 21
-20.8772674171
  0
LINE
  5
318
100
AcDbEntity
  8
ASSI
100
AcDbLine
 62
253
  6
CONTINUOUS
 10
10.5597924241
 20
24.2106880219
 11
10.5597924241
 21
23.8443375673
  0
LINE
  5
319
100
AcDbEntity
  8
ASSI
100
AcDbLine
 62
253
  6
CONTINUOUS
 10
10.5597924241
 20
-24.2106880219
 11
10.5597924241
 21
-23.8443375673
  0
LINE
  5
31A
100
AcDbEntity
  8
ASSI
100
AcDbLine
 62
253
  6
CONTINUOUS
 10
10.5781050106
 20
23.2097560788
 11
10.5781050106
 21
22.3341525772
  0
LINE
  5
31B
100
AcDbEntity
  8
ASSI
100
AcDbLine
 62
253
  6
CONTINUOUS
 10
10.5781050106
 20
-22.3341525772
 11
10.5781050106
 21
-23.2097560788
  0
LINE
  5
31C
100
AcDbEntity
  8
ASSI
100
AcDbLine
 62
7
  6
CONTINUOUS
 10
10.6
 20
-24.300030461
 11
10.6
 21
-22.3999997358
  0
LINE
  5
31D
100
AcDbEntity
  8
ASSI
100
AcDbLine
 62
7
  6
CONTINUOUS
 10
10.6000000646
 20
22.3999999296
 11
10.6
 21
24.300030461
  0
LINE
  5
31E
100
AcDbEntity
  8
ASSI
100
AcDbLine
 62
7
  6
CONTINUOUS
 10
9.3
 20
-23.1226497308
 11
9.2868325431
 21
-23.5581814706
  0
LINE
  5
31F
100
AcDbEntity
  8
ASSI
100
AcDbLine
 62
253
  6
CONTINUOUS
 10
-10.5606499457
 20
-24.2606804067
 11
-10.6
 21
-24.300030461
  0
LINE
  5
320
100
AcDbEntity
  8
ASSI
100
AcDbLine
 62
253
  6
CONTINUOUS
 10
-10.3606804067
 20
-24.4606499457
 11
-10.400030461
 21
-24.5
  0
LINE
  5
321
100
AcDbEntity
  8
ASSI
100
AcDbLine
 62
253
  6
CONTINUOUS
 10
-10.5606499457
 20
24.2606804067
 11
-10.6
 21
24.300030461
  0
LINE
  5
322
100
AcDbEntity
  8
ASSI
100
AcDbLine
 62
253
  6
CONTINUOUS
 10
-10.3606804067
 20
24.4606499457
 11
-10.400030461
 21
24.5
  0
LINE
  5
323
100
AcDbEntity
  8
ASSI
100
AcDbLine
 62
7
  6
CONTINUOUS
 10
11.1392788824
 20
17.6339745962
 11
11.1
 21
18.5
  0
LINE
  5
324
100
AcDbEntity
  8
ASSI
100
AcDbLine
 62
253
  6
CONTINUOUS
 10
10.360257984
 20
23.6278734767
 11
10.3756118279
 21
23.1200239821
  0
LINE
  5
325
100
AcDbEntity
  8
ASSI
100
AcDbLine
 62
253
  6
CONTINUOUS
 10
10.5602288007
 20
23.8010362971
 11
10.5781050106
 21
23.2097560788
  0
LINE
  5
326
100
AcDbEntity
  8
ASSI
100
AcDbLine
 62
7
  6
CONTINUOUS
 10
11.1
 20
21.9000761524
 11
11.1
 21
18.5
  0
LINE
  5
327
100
AcDbEntity
  8
ASSI
100
AcDbLine
 62
7
  6
CONTINUOUS
 10
11.1
 20
-21.9000761524
 11
11.1
 21
-18.5
  0
LINE
  5
328
100
AcDbEntity
  8
ASSI
100
AcDbLine
 62
7
  6
CONTINUOUS
 10
11.1392788824
 20
-17.6339745962
 11
11.1392788824
 21
17.6339745962
  0
LINE
  5
329
100
AcDbEntity
  8
RACCORDO
100
AcDbLine
 62
7
  6
CONTINUOUS
 10
11.15
 20
17.6716990487
 11
11.15
 21
-17.6716990487
  0
LINE
  5
32A
100
AcDbEntity
  8
ASSI
100
AcDbLine
 62
7
  6
CONTINUOUS
 10
11.15
 20
17.6716990487
 11
11.15
 21
-17.6716990487
  0
LINE
  5
32B
100
AcDbEntity
  8
ASSI
100
AcDbLine
 62
253
  6
CONTINUOUS
 10
10.3602592617
 20
-23.6278312164
 11
10.3756118279
 21
-23.1200239821
  0
LINE
  5
32C
100
AcDbEntity
  8
ASSI
100
AcDbLine
 62
253
  6
CONTINUOUS
 10
10.5602288007
 20
-23.8010362971
 11
10.5781050106
 21
-23.2097560788
  0
LINE
  5
32D
100
AcDbEntity
  8
ASSI
100
AcDbLine
 62
7
  6
CONTINUOUS
 10
11.1
 20
-18.5
 11
11.1392788824
 21
-17.6339745962
  0
LINE
  5
32E
100
AcDbEntity
  8
ASSI
100
AcDbLine
 62
7
  6
CONTINUOUS
 10
7.2
 20
-22.4
 11
7.2218949894
 21
-22.3342616154
  0
LINE
  5
32F
100
AcDbEntity
  8
ASSI
100
AcDbLine
 62
253
  6
CONTINUOUS
 10
-4.4447025539
 20
-23.7447406302
 11
-4.45
 21
-23.7500380762
  0
LINE
  5
330
100
AcDbEntity
  8
ASSI
100
AcDbLine
 62
253
  6
CONTINUOUS
 10
-4.1947406302
 20
-23.9947025539
 11
-4.2000380762
 21
-24.0
  0
LINE
  5
331
100
AcDbEntity
  8
ASSI
100
AcDbLine
 62
253
  6
CONTINUOUS
 10
-4.45
 20
23.7500380762
 11
-4.4447025539
 21
23.7447406302
  0
LINE
  5
332
100
AcDbEntity
  8
ASSI
100
AcDbLine
 62
253
  6
CONTINUOUS
 10
-4.2000380762
 20
24.0
 11
-4.1947435224
 21
23.9947025539
  0
LINE
  5
333
100
AcDbEntity
  8
ASSI
100
AcDbLine
 62
7
  6
CONTINUOUS
 10
7.2218949894
 20
22.3342616154
 11
7.2
 21
22.4
  0
LINE
  5
334
100
AcDbEntity
  8
ASSI
100
AcDbLine
 62
7
  6
CONTINUOUS
 10
8.5
 20
-22.3213883311
 11
8.5131674569
 21
-22.2818538361
  0
LWPOLYLINE
  5
335
100
AcDbEntity
  8
0
100
AcDbPolyline
 62
7
  6
CONTINUOUS
 90
10
 70
0
 43
0.3500000006
 10
23.335983284
 20
0.4285709152
 10
22.4788385468
 20
1.2857133865
 10
21.6216960754
 20
1.5000001373
 10
20.7645536041
 20
1.5000001373
 10
20.3359823685
 20
1.0714289017
 10
20.3359823685
 20
0.4285709152
 10
20.7645536041
 20
-0.0000003204
 10
21.6216960754
 20
-0.0000003204
 10
22.0502673111
 20
0.4285709152
 10
22.0502673111
 20
1.3571423035
  0
LINE
  5
336
100
AcDbEntity
  8
ASSI
100
AcDbLine
 62
7
  6
CONTINUOUS
 10
8.5
 20
22.3213883311
 11
8.5131674569
 21
22.2818538361
  0
LINE
  5
337
100
AcDbEntity
  8
ASSI
100
AcDbLine
 62
253
  6
CONTINUOUS
 10
0.8052974461
 20
-23.7447406302
 11
0.8
 21
-23.7500380762
  0
LINE
  5
338
100
AcDbEntity
  8
ASSI
100
AcDbLine
 62
253
  6
CONTINUOUS
 10
1.0499619238
 20
24.0
 11
1.0552593698
 21
23.9947025539
  0
LWPOLYLINE
  5
339
100
AcDbEntity
  8
0
100
AcDbPolyline
 62
7
  6
CONTINUOUS
 90
10
 70
0
 43
0.3500000006
 10
0.9642857051
 20
36.6434577942
 10
1.035714268
 20
36.5005999603
 10
1.035714268
 20
36.4291687775
 10
0.8928571422
 20
36.2863154755
 10
0.8214285793
 20
36.2863154755
 10
0.7500000165
 20
36.3577421265
 10
0.7500000165
 20
36.4291687775
 10
0.8214285793
 20
36.5720266113
 10
0.8928571422
 20
36.6434577942
 10
0.9642857051
 20
36.6434577942
  0
LWPOLYLINE
  5
33A
100
AcDbEntity
  8
0
100
AcDbPolyline
 62
7
  6
CONTINUOUS
 90
3
 70
0
 43
0.3500000006
 10
22.6931252975
 20
-0.8571427917
 10
22.6931252975
 20
-2.3571432495
 10
20.3359823685
 20
-1.7142852631
  0
LINE
  5
33B
100
AcDbEntity
  8
ASSI
100
AcDbLine
 62
253
  6
CONTINUOUS
 10
7.2393500543
 20
-24.2606804067
 11
7.2
 21
-24.300030461
  0
LINE
  5
33C
100
AcDbEntity
  8
ASSI
100
AcDbLine
 62
253
  6
CONTINUOUS
 10
7.4393195933
 20
-24.4606499457
 11
7.399969539
 21
-24.5
  0
LINE
  5
33D
100
AcDbEntity
  8
ASSI
100
AcDbLine
 62
7
  6
CONTINUOUS
 10
9.0368706193
 20
22.2689805518
 11
8.7631293807
 21
22.2689805518
  0
LINE
  5
33E
100
AcDbEntity
  8
ASSI
100
AcDbLine
 62
7
  6
CONTINUOUS
 10
-8.7631293807
 20
22.2689805518
 11
-9.0368706193
 21
22.2689805518
  0
LINE
  5
33F
100
AcDbEntity
  8
ASSI
100
AcDbLine
 62
7
  6
CONTINUOUS
 10
-10.3281430868
 20
22.3213883311
 11
-9.3
 21
22.3213883311
  0
LINE
  5
340
100
AcDbEntity
  8
ASSI
100
AcDbLine
 62
7
  6
CONTINUOUS
 10
-8.5
 20
22.3213883311
 11
-7.4718569132
 21
22.3213883311
  0
LINE
  5
341
100
AcDbEntity
  8
ASSI
100
AcDbLine
 62
7
  6
CONTINUOUS
 10
7.4718569132
 20
22.3213883311
 11
8.5
 21
22.3213883311
  0
LINE
  5
342
100
AcDbEntity
  8
ASSI
100
AcDbLine
 62
7
  6
CONTINUOUS
 10
9.3
 20
22.3213883311
 11
10.3281430868
 21
22.3213883311
  0
LINE
  5
343
100
AcDbEntity
  8
ASSI
100
AcDbLine
 62
7
  6
CONTINUOUS
 10
4.2447330149
 20
22.3737961104
 11
1.0052669851
 21
22.3737961104
  0
LINE
  5
344
100
AcDbEntity
  8
ASSI
100
AcDbLine
 62
7
  6
CONTINUOUS
 10
-1.0052669851
 20
22.3737961104
 11
-4.2447330149
 21
22.3737961104
  0
LINE
  5
345
100
AcDbEntity
  8
ASSI
100
AcDbLine
 62
7
  6
CONTINUOUS
 10
-7.2
 20
22.4
 11
-4.45
 21
22.4
  0
LINE
  5
346
100
AcDbEntity
  8
ASSI
100
AcDbLine
 62
7
  6
CONTINUOUS
 10
-0.8
 20
22.4
 11
0.8
 21
22.4
  0
LINE
  5
347
100
AcDbEntity
  8
ASSI
100
AcDbLine
 62
7
  6
CONTINUOUS
 10
4.45
 20
22.4
 11
7.2
 21
22.4
  0
LINE
  5
348
100
AcDbEntity
  8
ASSI
100
AcDbLine
 62
7
  6
CONTINUOUS
 10
-10.3281430868
 20
23.1226497308
 11
-9.3
 21
23.1226497308
  0
LINE
  5
349
100
AcDbEntity
  8
ASSI
100
AcDbLine
 62
7
  6
CONTINUOUS
 10
-8.5
 20
23.1226497308
 11
-7.4718569132
 21
23.1226497308
  0
LINE
  5
34A
100
AcDbEntity
  8
ASSI
100
AcDbLine
 62
7
  6
CONTINUOUS
 10
7.4718569132
 20
23.1226497308
 11
8.5
 21
23.1226497308
  0
LINE
  5
34B
100
AcDbEntity
  8
ASSI
100
AcDbLine
 62
7
  6
CONTINUOUS
 10
9.3
 20
23.1226497308
 11
10.3281430868
 21
23.1226497308
  0
LINE
  5
34C
100
AcDbEntity
  8
ASSI
100
AcDbLine
 62
253
  6
CONTINUOUS
 10
7.2
 20
24.300030461
 11
7.2393500543
 21
24.2606804067
  0
LINE
  5
34D
100
AcDbEntity
  8
ASSI
100
AcDbLine
 62
253
  6
CONTINUOUS
 10
7.399969539
 20
24.5
 11
7.4393195933
 21
24.4606499457
  0
LINE
  5
34E
100
AcDbEntity
  8
ASSI
100
AcDbLine
 62
253
  6
CONTINUOUS
 10
-10.3602579838
 20
23.6278734826
 11
-9.2533769702
 21
23.6278312163
  0
LINE
  5
34F
100
AcDbEntity
  8
ASSI
100
AcDbLine
 62
253
  6
CONTINUOUS
 10
9.2533769702
 20
23.6278312163
 11
10.360257984
 21
23.6278734767
  0
LINE
  5
350
100
AcDbEntity
  8
ASSI
100
AcDbLine
 62
253
  6
CONTINUOUS
 10
-8.5466230298
 20
23.6278312163
 11
-7.4397407629
 21
23.6278320282
  0
LINE
  5
351
100
AcDbEntity
  8
ASSI
100
AcDbLine
 62
253
  6
CONTINUOUS
 10
7.4397407694
 20
23.6278322442
 11
8.5466230298
 21
23.6278312163
  0
LINE
  5
352
100
AcDbEntity
  8
ASSI
100
AcDbLine
 62
253
  6
CONTINUOUS
 10
-4.4447025539
 20
23.7447406302
 11
-4.2447330149
 21
23.7447406302
  0
LINE
  5
353
100
AcDbEntity
  8
ASSI
100
AcDbLine
 62
253
  6
CONTINUOUS
 10
1.0052669851
 20
23.7447406302
 11
0.8052974461
 21
23.7447406302
  0
LINE
  5
354
100
AcDbEntity
  8
ASSI
100
AcDbLine
 62
253
  6
CONTINUOUS
 10
-0.8052974461
 20
23.7447406302
 11
-1.0052669851
 21
23.7447406302
  0
LINE
  5
355
100
AcDbEntity
  8
ASSI
100
AcDbLine
 62
253
  6
CONTINUOUS
 10
4.2447330149
 20
23.7447406302
 11
4.4447025539
 21
23.7447406302
  0
LINE
  5
356
100
AcDbEntity
  8
ASSI
100
AcDbLine
 62
253
  6
CONTINUOUS
 10
-4.1947406302
 20
23.7947330149
 11
-1.0552593698
 21
23.7947330149
  0
LINE
  5
357
100
AcDbEntity
  8
ASSI
100
AcDbLine
 62
253
  6
CONTINUOUS
 10
4.1947406302
 20
23.7947330149
 11
1.0552593698
 21
23.7947330149
  0
LINE
  5
358
100
AcDbEntity
  8
ASSI
100
AcDbLine
 62
253
  6
CONTINUOUS
 10
-10.5597924241
 20
23.8443375673
 11
-9.0368706193
 21
23.8443375673
  0
LINE
  5
359
100
AcDbEntity
  8
ASSI
100
AcDbLine
 62
253
  6
CONTINUOUS
 10
10.5597924241
 20
23.8443375673
 11
9.0368706193
 21
23.8443375673
  0
LINE
  5
35A
100
AcDbEntity
  8
ASSI
100
AcDbLine
 62
253
  6
CONTINUOUS
 10
8.7631293807
 20
23.8443375673
 11
7.2402075759
 21
23.8443375673
  0
LINE
  5
35B
100
AcDbEntity
  8
ASSI
100
AcDbLine
 62
253
  6
CONTINUOUS
 10
-7.2402075759
 20
23.8443375673
 11
-8.7631293807
 21
23.8443375673
  0
LINE
  5
35C
100
AcDbEntity
  8
ASSI
100
AcDbLine
 62
253
  6
CONTINUOUS
 10
-4.1947435224
 20
23.9947025539
 11
-1.0552593698
 21
23.9947025539
  0
LINE
  5
35D
100
AcDbEntity
  8
ASSI
100
AcDbLine
 62
253
  6
CONTINUOUS
 10
4.1947406302
 20
23.9947025539
 11
1.0552593698
 21
23.9947025539
  0
LINE
  5
35E
100
AcDbEntity
  8
ASSI
100
AcDbLine
 62
7
  6
CONTINUOUS
 10
-4.2000380762
 20
24.0
 11
-1.0499619238
 21
24.0
  0
LINE
  5
35F
100
AcDbEntity
  8
ASSI
100
AcDbLine
 62
7
  6
CONTINUOUS
 10
1.0499619238
 20
24.0
 11
4.2000380762
 21
24.0
  0
LINE
  5
360
100
AcDbEntity
  8
ASSI
100
AcDbLine
 62
253
  6
CONTINUOUS
 10
10.5597924241
 20
24.2106880219
 11
7.2402075759
 21
24.2106880219
  0
LINE
  5
361
100
AcDbEntity
  8
ASSI
100
AcDbLine
 62
253
  6
CONTINUOUS
 10
-7.2402075759
 20
24.2106880219
 11
-10.5597924241
 21
24.2106880219
  0
LINE
  5
362
100
AcDbEntity
  8
ASSI
100
AcDbLine
 62
253
  6
CONTINUOUS
 10
10.3606804067
 20
24.4606499457
 11
7.4393195933
 21
24.4606499457
  0
LINE
  5
363
100
AcDbEntity
  8
ASSI
100
AcDbLine
 62
253
  6
CONTINUOUS
 10
-7.4393195933
 20
24.4606499457
 11
-10.3606804067
 21
24.4606499457
  0
LINE
  5
364
100
AcDbEntity
  8
ASSI
100
AcDbLine
 62
7
  6
CONTINUOUS
 10
-10.400030461
 20
24.5
 11
-7.399969539
 21
24.5
  0
LINE
  5
365
100
AcDbEntity
  8
ASSI
100
AcDbLine
 62
7
  6
CONTINUOUS
 10
7.399969539
 20
24.5
 11
10.400030461
 21
24.5
  0
LWPOLYLINE
  5
366
100
AcDbEntity
  8
0
100
AcDbPolyline
 62
7
  6
CONTINUOUS
 90
7
 70
0
 43
0.3500000006
 10
3.5357143936
 20
36.1434576416
 10
2.0357142191
 20
36.1434576416
 10
3.5357143936
 20
38.286311554
 10
3.5357143936
 20
38.7148850555
 10
3.1071428747
 20
39.1434585571
 10
2.464285738
 20
39.1434585571
 10
2.0357142191
 20
38.5006005707
  0
LWPOLYLINE
  5
367
100
AcDbEntity
  8
0
100
AcDbPolyline
 62
7
  6
CONTINUOUS
 90
7
 70
0
 43
0.3500000006
 10
-0.5357142924
 20
36.1434576416
 10
-2.0357142191
 20
36.1434576416
 10
-0.5357142924
 20
38.286311554
 10
-0.5357142924
 20
38.7148850555
 10
-0.9642857051
 20
39.1434585571
 10
-1.6071428418
 20
39.1434585571
 10
-2.0357142191
 20
38.5006005707
  0
LWPOLYLINE
  5
368
100
AcDbEntity
  8
0
100
AcDbPolyline
 62
7
  6
CONTINUOUS
 90
7
 70
0
 43
0.3500000006
 10
-2.8928572569
 20
36.1434576416
 10
-4.3928571482
 20
36.1434576416
 10
-2.8928572569
 20
38.286311554
 10
-2.8928572569
 20
38.7148850555
 10
-3.3214284925
 20
39.1434585571
 10
-3.9642856293
 20
39.1434585571
 10
-4.3928571482
 20
38.5006005707
  0
LWPOLYLINE
  5
369
100
AcDbEntity
  8
0
100
AcDbPolyline
 62
7
  6
CONTINUOUS
 90
10
 70
0
 43
0.3500000006
 10
-56.7140570068
 20
49.143457077
 10
-57.3569149933
 20
48.5005990906
 10
-57.7854884949
 20
47.6434566193
 10
-57.7854884949
 20
46.5720296631
 10
-57.3569149933
 20
46.1434561615
 10
-56.7140570068
 20
46.1434561615
 10
-56.2854880371
 20
46.5720296631
 10
-56.2854880371
 20
47.4291721344
 10
-56.7140570068
 20
47.8577411041
 10
-57.642630661
 20
47.8577411041
  0
LINE
  5
36A
100
AcDbEntity
  8
0
100
AcDbLine
 62
253
  6
CONTINUOUS
 10
-83.0922392586
 20
4.5396855183
 11
-83.0922392586
 21
-4.5396855183
  0
LINE
  5
36B
100
AcDbEntity
  8
0
100
AcDbLine
 62
253
  6
CONTINUOUS
 10
-82.6608312459
 20
5.6913372376
 11
-82.6608312459
 21
-5.6913372376
  0
LINE
  5
36C
100
AcDbEntity
  8
0
100
AcDbLine
 62
253
  6
CONTINUOUS
 10
-80.98171023
 20
6.8542571266
 11
-80.98171023
 21
-6.8542571266
  0
LINE
  5
36D
100
AcDbEntity
  8
0
100
AcDbLine
 62
7
  6
CONTINUOUS
 10
-82.6608312459
 20
5.6913372376
 11
-83.0922392586
 21
4.5396855183
  0
LWPOLYLINE
  5
36E
100
AcDbEntity
  8
0
100
AcDbPolyline
 62
7
  6
CONTINUOUS
 90
5
 70
0
 43
0.3500000006
 10
-46.3212005768
 20
37.8577425842
 10
-45.9640582581
 20
38.0720270691
 10
-45.9640582581
 20
38.7148850555
 10
-46.3212005768
 20
39.1434585571
 10
-47.1783430481
 20
39.1434585571
  0
LINE
  5
36F
100
AcDbEntity
  8
0
100
AcDbLine
 62
7
  6
CONTINUOUS
 10
-82.6608312459
 20
-5.6913372376
 11
-83.0922392586
 21
-4.5396855183
  0
LINE
  5
370
100
AcDbEntity
  8
ASSI
100
AcDbLine
 62
253
  6
CONTINUOUS
 10
-63.7497735052
 20
23.3515746082
 11
-62.9712830239
 21
23.8010362971
  0
LINE
  5
371
100
AcDbEntity
  8
ASSI
100
AcDbLine
 62
7
  6
CONTINUOUS
 10
-63.7497735052
 20
23.1226497308
 11
-62.8747904889
 21
23.6278214108
  0
LINE
  5
372
100
AcDbEntity
  8
ASSI
100
AcDbLine
 62
7
  6
CONTINUOUS
 10
-63.7497735052
 20
-24.5
 11
-62.9954104035
 21
-24.4868325431
  0
LINE
  5
373
100
AcDbEntity
  8
ASSI
100
AcDbLine
 62
253
  6
CONTINUOUS
 10
-62.9462830239
 20
-24.2368706193
 11
-62.7497735052
 21
-24.2368706193
  0
LINE
  5
374
100
AcDbEntity
  8
ASSI
100
AcDbLine
 62
253
  6
CONTINUOUS
 10
-66.2497735052
 20
-24.2106880219
 11
-66.0532639864
 21
-24.2106880219
  0
LINE
  5
375
100
AcDbEntity
  8
ASSI
100
AcDbLine
 62
7
  6
CONTINUOUS
 10
-63.7497735052
 20
-24.5
 11
-66.0041366068
 21
-24.4606499457
  0
LINE
  5
376
100
AcDbEntity
  8
ASSI
100
AcDbLine
 62
253
  6
CONTINUOUS
 10
-63.7497735052
 20
-24.300030461
 11
-66.0041366068
 21
-24.2606804067
  0
LINE
  5
377
100
AcDbEntity
  8
ASSI
100
AcDbLine
 62
253
  6
CONTINUOUS
 10
-62.9712830239
 20
-23.8010362971
 11
-63.7497735052
 21
-23.3515746082
  0
LINE
  5
378
100
AcDbEntity
  8
ASSI
100
AcDbLine
 62
7
  6
CONTINUOUS
 10
-62.874700308
 20
-23.6278734767
 11
-63.7497735052
 21
-23.1226497308
  0
LINE
  5
379
100
AcDbEntity
  8
ASSI
100
AcDbLine
 62
253
  6
CONTINUOUS
 10
-63.7497735052
 20
-24.300030461
 11
-62.9954104035
 21
-24.2868630041
  0
LINE
  5
37A
100
AcDbEntity
  8
ASSI
100
AcDbLine
 62
7
  6
CONTINUOUS
 10
-62.7497735052
 20
-23.9825449351
 11
-57.995414274
 21
-23.899557286
  0
LINE
  5
37B
100
AcDbEntity
  8
ASSI
100
AcDbLine
 62
253
  6
CONTINUOUS
 10
-62.7497735052
 20
-23.7325830113
 11
-58.1212037249
 21
-23.6517910252
  0
LINE
  5
37C
100
AcDbEntity
  8
ASSI
100
AcDbLine
 62
7
  6
CONTINUOUS
 10
-53.2323210987
 20
-22.2164171854
 11
-63.7497739276
 21
-22.4000000074
  0
LINE
  5
37D
100
AcDbEntity
  8
ASSI
100
AcDbLine
 62
253
  6
CONTINUOUS
 10
-63.7497735052
 20
-21.9000761524
 11
-62.7497735052
 21
-21.8826210875
  0
LINE
  5
37E
100
AcDbEntity
  8
ASSI
100
AcDbLine
 62
253
  6
CONTINUOUS
 10
-66.2497735052
 20
-23.8443375673
 11
-66.0532639864
 21
-23.8443375673
  0
LINE
  5
37F
100
AcDbEntity
  8
ASSI
100
AcDbLine
 62
253
  6
CONTINUOUS
 10
-62.9462830239
 20
-23.8443375673
 11
-62.7497735052
 21
-23.8443375672
  0
LINE
  5
380
100
AcDbEntity
  8
RACCORDO
100
AcDbLine
 62
7
  6
CONTINUOUS
 10
-52.4834594417
 20
-21.4576092846
 11
-62.7497735052
 21
-21.4051134101
  0
LINE
  5
381
100
AcDbEntity
  8
ASSI
100
AcDbLine
 62
7
  6
CONTINUOUS
 10
-71.2693888982
 20
-22.0059136562
 11
-65.0775237899
 21
-22.3304155561
  0
LINE
  5
382
100
AcDbEntity
  8
ASSI
100
AcDbLine
 62
7
  6
CONTINUOUS
 10
-63.9588241256
 20
-22.3890441212
 11
-63.7497823003
 21
-22.3999995391
  0
LINE
  5
383
100
AcDbEntity
  8
ASSI
100
AcDbLine
 62
253
  6
CONTINUOUS
 10
-70.9037704067
 20
-21.5250746743
 11
-63.7497735052
 21
-21.8999997649
  0
LINE
  5
384
100
AcDbEntity
  8
RACCORDO
100
AcDbLine
 62
7
  6
CONTINUOUS
 10
-72.8691831452
 20
8.0097726805
 11
-72.8359644901
 21
7.2162364792
  0
LINE
  5
385
100
AcDbEntity
  8
RACCORDO
100
AcDbLine
 62
7
  6
CONTINUOUS
 10
-72.8359644901
 20
7.2162364792
 11
-72.8128373328
 21
6.6173581066
  0
LINE
  5
386
100
AcDbEntity
  8
RACCORDO
100
AcDbLine
 62
7
  6
CONTINUOUS
 10
-72.8128373328
 20
6.6173581066
 11
-72.7864605869
 21
5.8705361451
  0
LINE
  5
387
100
AcDbEntity
  8
RACCORDO
100
AcDbLine
 62
7
  6
CONTINUOUS
 10
-72.7864605869
 20
5.8705361451
 11
-72.7681849135
 21
5.2986127812
  0
LINE
  5
388
100
AcDbEntity
  8
RACCORDO
100
AcDbLine
 62
7
  6
CONTINUOUS
 10
-72.7681849135
 20
5.2986127812
 11
-72.750201548
 21
4.6740624879
  0
LINE
  5
389
100
AcDbEntity
  8
RACCORDO
100
AcDbLine
 62
7
  6
CONTINUOUS
 10
-72.750201548
 20
4.6740624879
 11
-72.7332460414
 21
4.0031385242
  0
LWPOLYLINE
  5
38A
100
AcDbEntity
  8
ASSI
100
AcDbPolyline
 62
7
  6
CONTINUOUS
 90
5
 70
0
 10
-72.8693311687
 20
-8.0224583214
 10
-72.8123589675
 20
-10.4843696095
 10
-72.7055155864
 20
-13.9768035091
 10
-72.5681716023
 20
-17.4681709873
 10
-72.4049475653
 20
-20.8701690373
  0
LINE
  5
38B
100
AcDbEntity
  8
RACCORDO
100
AcDbLine
 62
7
  6
CONTINUOUS
 10
-72.7332460414
 20
4.0031385242
 11
-72.7180277765
 21
3.2925307519
  0
LINE
  5
38C
100
AcDbEntity
  8
RACCORDO
100
AcDbLine
 62
7
  6
CONTINUOUS
 10
-72.7180277765
 20
3.2925307519
 11
-72.7051968692
 21
2.5493261935
  0
LINE
  5
38D
100
AcDbEntity
  8
RACCORDO
100
AcDbLine
 62
7
  6
CONTINUOUS
 10
-72.8693310897
 20
8.0224587896
 11
-72.869183308
 21
8.0097764304
  0
LINE
  5
38E
100
AcDbEntity
  8
RACCORDO
100
AcDbLine
 62
7
  6
CONTINUOUS
 10
-72.7051968692
 20
2.5493261935
 11
-72.6953101999
 21
1.78091159
  0
LINE
  5
38F
100
AcDbEntity
  8
RACCORDO
100
AcDbLine
 62
7
  6
CONTINUOUS
 10
-72.6953101999
 20
1.78091159
 11
-72.6888018014
 21
0.9949456455
  0
LINE
  5
390
100
AcDbEntity
  8
RACCORDO
100
AcDbLine
 62
7
  6
CONTINUOUS
 10
-72.6888018014
 20
0.9949456455
 11
-72.6859619024
 21
0.1991610367
  0
LINE
  5
391
100
AcDbEntity
  8
0
100
AcDbLine
 62
7
  6
CONTINUOUS
 10
-74.2497735052
 20
7.325
 11
-74.2497735052
 21
-7.325
  0
LINE
  5
392
100
AcDbEntity
  8
RACCORDO
100
AcDbLine
 62
253
  6
CONTINUOUS
 10
-73.970700454
 20
-7.3446976589
 11
-73.970700454
 21
7.3446976589
  0
LINE
  5
393
100
AcDbEntity
  8
RACCORDO
100
AcDbLine
 62
7
  6
CONTINUOUS
 10
-72.6859619024
 20
0.1991610367
 11
-72.6869152672
 21
-0.5985585197
  0
LINE
  5
394
100
AcDbEntity
  8
RACCORDO
100
AcDbLine
 62
7
  6
CONTINUOUS
 10
-72.6869152672
 20
-0.5985585197
 11
-72.6916178526
 21
-1.3903609835
  0
LINE
  5
395
100
AcDbEntity
  8
RACCORDO
100
AcDbLine
 62
7
  6
CONTINUOUS
 10
-72.8693310952
 20
-8.0224587897
 11
-72.8691833385
 21
-8.009777068
  0
LINE
  5
396
100
AcDbEntity
  8
RACCORDO
100
AcDbLine
 62
7
  6
CONTINUOUS
 10
-72.6916178526
 20
-1.3903609835
 11
-72.6998630994
 21
-2.1684490452
  0
LINE
  5
397
100
AcDbEntity
  8
RACCORDO
100
AcDbLine
 62
7
  6
CONTINUOUS
 10
-72.6998630994
 20
-2.1684490452
 11
-72.7112857162
 21
-2.9250837222
  0
LINE
  5
398
100
AcDbEntity
  8
RACCORDO
100
AcDbLine
 62
7
  6
CONTINUOUS
 10
-72.7112857162
 20
-2.9250837222
 11
-72.7253861218
 21
-3.6527719556
  0
LINE
  5
399
100
AcDbEntity
  8
RACCORDO
100
AcDbLine
 62
7
  6
CONTINUOUS
 10
-72.7253861218
 20
-3.6527719556
 11
-72.7415567459
 21
-4.3442571931
  0
LINE
  5
39A
100
AcDbEntity
  8
RACCORDO
100
AcDbLine
 62
7
  6
CONTINUOUS
 10
-72.7415567459
 20
-4.3442571931
 11
-72.7591143982
 21
-4.9926722613
  0
LINE
  5
39B
100
AcDbEntity
  8
RACCORDO
100
AcDbLine
 62
7
  6
CONTINUOUS
 10
-72.7591143982
 20
-4.9926722613
 11
-72.7773329622
 21
-5.5915472662
  0
LINE
  5
39C
100
AcDbEntity
  8
RACCORDO
100
AcDbLine
 62
7
  6
CONTINUOUS
 10
-72.7773329622
 20
-5.5915472662
 11
-72.8042962755
 21
-6.3839977067
  0
LINE
  5
39D
100
AcDbEntity
  8
RACCORDO
100
AcDbLine
 62
7
  6
CONTINUOUS
 10
-72.8042962755
 20
-6.3839977067
 11
-72.828738162
 21
-7.0338051804
  0
LINE
  5
39E
100
AcDbEntity
  8
RACCORDO
100
AcDbLine
 62
7
  6
CONTINUOUS
 10
-72.828738162
 20
-7.0338051804
 11
-72.8585017339
 21
-7.7619185542
  0
LINE
  5
39F
100
AcDbEntity
  8
RACCORDO
100
AcDbLine
 62
7
  6
CONTINUOUS
 10
-72.8585017339
 20
-7.7619185542
 11
-72.8691833119
 21
-8.009777069
  0
LWPOLYLINE
  5
3A0
100
AcDbEntity
  8
ASSI
100
AcDbPolyline
 62
7
  6
CONTINUOUS
 90
5
 70
0
 10
-72.4049475653
 20
20.8701690372
 10
-72.5684626711
 20
17.461511065
 10
-72.7057484823
 20
13.970141072
 10
-72.8125336639
 20
10.4777052159
 10
-72.8693311696
 20
8.022458278
  0
LWPOLYLINE
  5
3A1
100
AcDbEntity
  8
0
100
AcDbPolyline
 62
7
  6
CONTINUOUS
 90
10
 70
0
 43
0.3500000006
 10
-44.6069156342
 20
36.1434576416
 10
-43.7497731628
 20
37.0006001129
 10
-43.535488678
 20
37.8577425842
 10
-43.535488678
 20
38.7148850555
 10
-43.9640576477
 20
39.1434585571
 10
-44.6069156342
 20
39.1434585571
 10
-45.0354891357
 20
38.7148850555
 10
-45.0354891357
 20
37.8577425842
 10
-44.6069156342
 20
37.4291690826
 10
-43.6783465118
 20
37.4291690826
  0
LINE
  5
3A2
100
AcDbEntity
  8
ASSI
100
AcDbLine
 62
253
  6
CONTINUOUS
 10
-71.5692621488
 20
-20.8558253568
 11
-72.0545773048
 21
-20.8772669682
  0
LINE
  5
3A3
100
AcDbEntity
  8
DRAFT
100
AcDbLine
 62
7
  6
CONTINUOUS
 10
-62.2497735052
 20
-20.85
 11
-52.2497735052
 21
-20.6754493507
  0
LINE
  5
3A4
100
AcDbEntity
  8
ASSI
100
AcDbLine
 62
7
  6
CONTINUOUS
 10
-62.2497735052
 20
-20.85
 11
-52.2497735052
 21
-20.6754493507
  0
LINE
  5
3A5
100
AcDbEntity
  8
RACCORDO
100
AcDbLine
 62
7
  6
CONTINUOUS
 10
-24.2323210987
 20
-19.121932718
 11
-52.2497735052
 21
-19.6109791689
  0
LINE
  5
3A6
100
AcDbEntity
  8
ASSI
100
AcDbLine
 62
7
  6
CONTINUOUS
 10
-24.2323210987
 20
-19.121932718
 11
-52.2497735052
 21
-19.6109791689
  0
LINE
  5
3A7
100
AcDbEntity
  8
RACCORDO
100
AcDbLine
 62
253
  6
CONTINUOUS
 10
-24.2323210987
 20
-18.8290841082
 11
-52.2497735052
 21
-19.3181305591
  0
LINE
  5
3A8
100
AcDbEntity
  8
ASSI
100
AcDbLine
 62
253
  6
CONTINUOUS
 10
-24.2323210987
 20
-18.8290841082
 11
-52.2497735052
 21
-19.3181305591
  0
LINE
  5
3A9
100
AcDbEntity
  8
ASSI
100
AcDbLine
 62
7
  6
CONTINUOUS
 10
-62.7497735052
 20
-19.25
 11
-62.2497735052
 21
-19.2412724675
  0
LINE
  5
3AA
100
AcDbEntity
  8
RACCORDO
100
AcDbLine
 62
253
  6
CONTINUOUS
 10
-62.2497735052
 20
-19.0856972195
 11
-24.2323210987
 21
-18.8108263007
  0
LINE
  5
3AB
100
AcDbEntity
  8
ASSI
100
AcDbLine
 62
253
  6
CONTINUOUS
 10
-62.2497735052
 20
-19.0856972195
 11
-24.2323210987
 21
-18.8108263007
  0
LINE
  5
3AC
100
AcDbEntity
  8
RACCORDO
100
AcDbLine
 62
253
  6
CONTINUOUS
 10
-52.4462830239
 20
-21.2165694902
 11
-52.2497735052
 21
-21.2165694902
  0
LINE
  5
3AD
100
AcDbEntity
  8
RACCORDO
100
AcDbLine
 62
253
  6
CONTINUOUS
 10
-52.4462830239
 20
-21.18553092
 11
-52.2497735052
 21
-21.18553092
  0
LINE
  5
3AE
100
AcDbEntity
  8
RACCORDO
100
AcDbLine
 62
253
  6
CONTINUOUS
 10
-52.4480281981
 20
-20.7855461508
 11
-52.2497735052
 21
-20.7855461508
  0
LINE
  5
3AF
100
AcDbEntity
  8
RACCORDO
100
AcDbLine
 62
253
  6
CONTINUOUS
 10
-62.7497735052
 20
-21.0956137208
 11
-52.4462830239
 21
-21.18553092
  0
LINE
  5
3B0
100
AcDbEntity
  8
RACCORDO
100
AcDbLine
 62
7
  6
CONTINUOUS
 10
-62.7497735052
 20
-20.8956365661
 11
-52.4480281981
 21
-20.9855385354
  0
LINE
  5
3B1
100
AcDbEntity
  8
RACCORDO
100
AcDbLine
 62
253
  6
CONTINUOUS
 10
-52.4480281981
 20
-20.7855365134
 11
-56.5206375786
 21
-20.7499975604
  0
LINE
  5
3B2
100
AcDbEntity
  8
RACCORDO
100
AcDbLine
 62
253
  6
CONTINUOUS
 10
-62.2497735052
 20
-20.7000032022
 11
-62.7497735052
 21
-20.6956400348
  0
LINE
  5
3B3
100
AcDbEntity
  8
RACCORDO
100
AcDbLine
 62
253
  6
CONTINUOUS
 10
-62.7497735052
 20
-19.8956218955
 11
-62.2497735052
 21
-19.8999856719
  0
LINE
  5
3B4
100
AcDbEntity
  8
RACCORDO
100
AcDbLine
 62
7
  6
CONTINUOUS
 10
-62.7497735052
 20
-19.6956365661
 11
-62.2497735052
 21
-19.7
  0
LINE
  5
3B5
100
AcDbEntity
  8
0
100
AcDbLine
 62
7
  6
CONTINUOUS
 10
-60.6288636109
 20
15.6791898348
 11
-60.6269116449
 21
15.6811418008
  0
LINE
  5
3B6
100
AcDbEntity
  8
0
100
AcDbLine
 62
7
  6
CONTINUOUS
 10
-60.6288636109
 20
15.5951855492
 11
-60.5849120112
 21
15.6391371489
  0
LINE
  5
3B7
100
AcDbEntity
  8
0
100
AcDbLine
 62
7
  6
CONTINUOUS
 10
-60.6288636109
 20
15.5111812635
 11
-60.5429123774
 21
15.5971324971
  0
LINE
  5
3B8
100
AcDbEntity
  8
ASSI
100
AcDbLine
 62
7
  6
CONTINUOUS
 10
-62.2497735052
 20
-18.5638400026
 11
-62.7497735052
 21
-18.5674550649
  0
LINE
  5
3B9
100
AcDbEntity
  8
RACCORDO
100
AcDbLine
 62
253
  6
CONTINUOUS
 10
-62.2497735052
 20
-17.6716990487
 11
-24.2323210987
 21
-17.3968281299
  0
LINE
  5
3BA
100
AcDbEntity
  8
ASSI
100
AcDbLine
 62
253
  6
CONTINUOUS
 10
-62.2497735052
 20
-17.6716990487
 11
-24.2323210987
 21
-17.3968281299
  0
LINE
  5
3BB
100
AcDbEntity
  8
RACCORDO
100
AcDbLine
 62
7
  6
CONTINUOUS
 10
-24.2323210987
 20
-16.0143058604
 11
-50.9997735052
 21
-16.1394991238
  0
LINE
  5
3BC
100
AcDbEntity
  8
ASSI
100
AcDbLine
 62
7
  6
CONTINUOUS
 10
-24.2323210987
 20
-16.0143058604
 11
-50.9997735052
 21
-16.1394991238
  0
LINE
  5
3BD
100
AcDbEntity
  8
RACCORDO
100
AcDbLine
 62
253
  6
CONTINUOUS
 10
-23.2497735052
 20
-17.3968281299
 11
-24.2323210987
 21
-17.3968281276
  0
LINE
  5
3BE
100
AcDbEntity
  8
ASSI
100
AcDbLine
 62
253
  6
CONTINUOUS
 10
-23.2497735052
 20
-17.3968281299
 11
-24.2323210987
 21
-17.3968281276
  0
LWPOLYLINE
  5
3BF
100
AcDbEntity
  8
0
100
AcDbPolyline
 62
7
  6
CONTINUOUS
 90
3
 70
0
 43
0.3500000006
 10
-52.3569179993
 20
46.4291718292
 10
-52.4283446503
 20
46.2148828125
 10
-52.5712024841
 20
45.9291716766
  0
LINE
  5
3C0
100
AcDbEntity
  8
0
100
AcDbLine
 62
7
  6
CONTINUOUS
 10
-60.6288636109
 20
15.4271769779
 11
-60.5009127436
 21
15.5551278453
  0
LINE
  5
3C1
100
AcDbEntity
  8
0
100
AcDbLine
 62
7
  6
CONTINUOUS
 10
-60.6014650635
 20
15.3705712398
 11
-60.4589131098
 21
15.5131231935
  0
LINE
  5
3C2
100
AcDbEntity
  8
0
100
AcDbLine
 62
7
  6
CONTINUOUS
 10
-60.5594661495
 20
15.3285658682
 11
-60.416913476
 21
15.4711185416
  0
LINE
  5
3C3
100
AcDbEntity
  8
0
100
AcDbLine
 62
7
  6
CONTINUOUS
 10
-60.5174672355
 20
15.2865604966
 11
-60.3749138423
 21
15.4291138898
  0
LINE
  5
3C4
100
AcDbEntity
  8
0
100
AcDbLine
 62
7
  6
CONTINUOUS
 10
-60.4754683215
 20
15.244555125
 11
-60.3329142085
 21
15.387109238
  0
LINE
  5
3C5
100
AcDbEntity
  8
0
100
AcDbLine
 62
7
  6
CONTINUOUS
 10
-60.4334694075
 20
15.2025497534
 11
-60.2909145747
 21
15.3451045862
  0
LINE
  5
3C6
100
AcDbEntity
  8
0
100
AcDbLine
 62
7
  6
CONTINUOUS
 10
-60.3914704934
 20
15.1605443818
 11
-60.2489149409
 21
15.3030999343
  0
LINE
  5
3C7
100
AcDbEntity
  8
0
100
AcDbLine
 62
7
  6
CONTINUOUS
 10
-59.6466522293
 20
15.905362646
 11
-59.5766808753
 21
15.975334
  0
LINE
  5
3C8
100
AcDbEntity
  8
0
100
AcDbLine
 62
7
  6
CONTINUOUS
 10
-60.3494715794
 20
15.1185390102
 11
-60.2069153072
 21
15.2610952825
  0
LINE
  5
3C9
100
AcDbEntity
  8
0
100
AcDbLine
 62
7
  6
CONTINUOUS
 10
-59.6466522293
 20
15.8213583604
 11
-59.4926765897
 21
15.975334
  0
LINE
  5
3CA
100
AcDbEntity
  8
0
100
AcDbLine
 62
7
  6
CONTINUOUS
 10
-60.3074726654
 20
15.0765336386
 11
-60.1649156734
 21
15.2190906307
  0
LINE
  5
3CB
100
AcDbEntity
  8
0
100
AcDbLine
 62
7
  6
CONTINUOUS
 10
-59.6466522293
 20
15.7373540748
 11
-59.4450459396
 21
15.9389603645
  0
LINE
  5
3CC
100
AcDbEntity
  8
0
100
AcDbLine
 62
7
  6
CONTINUOUS
 10
-60.2654737514
 20
15.034528267
 11
-60.1229160396
 21
15.1770859789
  0
LINE
  5
3CD
100
AcDbEntity
  8
0
100
AcDbLine
 62
7
  6
CONTINUOUS
 10
-59.6466522293
 20
15.6533497892
 11
-59.4450459396
 21
15.8549560789
  0
LINE
  5
3CE
100
AcDbEntity
  8
0
100
AcDbLine
 62
7
  6
CONTINUOUS
 10
-60.2234748374
 20
14.9925228954
 11
-60.0809164058
 21
15.135081327
  0
LINE
  5
3CF
100
AcDbEntity
  8
0
100
AcDbLine
 62
7
  6
CONTINUOUS
 10
-59.6466522293
 20
15.5693455036
 11
-59.4450459396
 21
15.7709517933
  0
LINE
  5
3D0
100
AcDbEntity
  8
0
100
AcDbLine
 62
7
  6
CONTINUOUS
 10
-60.1814759234
 20
14.9505175238
 11
-60.038916772
 21
15.0930766752
  0
LINE
  5
3D1
100
AcDbEntity
  8
0
100
AcDbLine
 62
7
  6
CONTINUOUS
 10
-59.6466522293
 20
15.485341218
 11
-59.4450459396
 21
15.6869475077
  0
LINE
  5
3D2
100
AcDbEntity
  8
0
100
AcDbLine
 62
7
  6
CONTINUOUS
 10
-60.1394770094
 20
14.9085121522
 11
-59.9969171383
 21
15.0510720234
  0
LINE
  5
3D3
100
AcDbEntity
  8
0
100
AcDbLine
 62
7
  6
CONTINUOUS
 10
-59.6466522293
 20
15.4013369323
 11
-59.4450459396
 21
15.6029432221
  0
LINE
  5
3D4
100
AcDbEntity
  8
0
100
AcDbLine
 62
7
  6
CONTINUOUS
 10
-60.0974780954
 20
14.8665067806
 11
-59.9549175045
 21
15.0090673715
  0
LINE
  5
3D5
100
AcDbEntity
  8
0
100
AcDbLine
 62
7
  6
CONTINUOUS
 10
-59.6466522293
 20
15.3173326467
 11
-59.4450459396
 21
15.5189389364
  0
LINE
  5
3D6
100
AcDbEntity
  8
0
100
AcDbLine
 62
7
  6
CONTINUOUS
 10
-60.0554791814
 20
14.824501409
 11
-59.9287042649
 21
14.9512763256
  0
LINE
  5
3D7
100
AcDbEntity
  8
0
100
AcDbLine
 62
7
  6
CONTINUOUS
 10
-59.6466522293
 20
15.2333283611
 11
-59.4450459396
 21
15.4349346508
  0
LINE
  5
3D8
100
AcDbEntity
  8
0
100
AcDbLine
 62
7
  6
CONTINUOUS
 10
-60.0134802674
 20
14.7824960374
 11
-59.9287042649
 21
14.86727204
  0
LINE
  5
3D9
100
AcDbEntity
  8
0
100
AcDbLine
 62
7
  6
CONTINUOUS
 10
-59.6466522293
 20
15.1493240755
 11
-59.4450459396
 21
15.3509303652
  0
LINE
  5
3DA
100
AcDbEntity
  8
0
100
AcDbLine
 62
7
  6
CONTINUOUS
 10
-59.9714813534
 20
14.7404906658
 11
-59.9287042649
 21
14.7832677544
  0
LINE
  5
3DB
100
AcDbEntity
  8
0
100
AcDbLine
 62
7
  6
CONTINUOUS
 10
-59.6466522293
 20
15.0653197899
 11
-59.4450459396
 21
15.2669260796
  0
LINE
  5
3DC
100
AcDbEntity
  8
0
100
AcDbLine
 62
7
  6
CONTINUOUS
 10
-59.9294824394
 20
14.6984852942
 11
-59.9287042649
 21
14.6992634688
  0
LINE
  5
3DD
100
AcDbEntity
  8
0
100
AcDbLine
 62
7
  6
CONTINUOUS
 10
-59.6466522293
 20
14.9813155043
 11
-59.4450459396
 21
15.182921794
  0
LINE
  5
3DE
100
AcDbEntity
  8
0
100
AcDbLine
 62
7
  6
CONTINUOUS
 10
-59.6466522293
 20
14.8973112187
 11
-59.4450459396
 21
15.0989175084
  0
LINE
  5
3DF
100
AcDbEntity
  8
0
100
AcDbLine
 62
7
  6
CONTINUOUS
 10
-59.6466522293
 20
14.8133069331
 11
-59.4450459396
 21
15.0149132228
  0
LINE
  5
3E0
100
AcDbEntity
  8
0
100
AcDbLine
 62
7
  6
CONTINUOUS
 10
-59.6466522293
 20
14.7293026475
 11
-59.4450459396
 21
14.9309089372
  0
LINE
  5
3E1
100
AcDbEntity
  8
0
100
AcDbLine
 62
7
  6
CONTINUOUS
 10
-59.6466522293
 20
14.6452983619
 11
-59.4450459396
 21
14.8469046516
  0
LINE
  5
3E2
100
AcDbEntity
  8
0
100
AcDbLine
 62
7
  6
CONTINUOUS
 10
-59.6466522293
 20
14.5612940763
 11
-59.4450459396
 21
14.762900366
  0
LINE
  5
3E3
100
AcDbEntity
  8
0
100
AcDbLine
 62
7
  6
CONTINUOUS
 10
-59.6466522293
 20
14.4772897907
 11
-59.4450459396
 21
14.6788960804
  0
LINE
  5
3E4
100
AcDbEntity
  8
0
100
AcDbLine
 62
7
  6
CONTINUOUS
 10
-58.2645407636
 20
15.8594012564
 11
-58.20364102
 21
15.920301
  0
LINE
  5
3E5
100
AcDbEntity
  8
0
100
AcDbLine
 62
7
  6
CONTINUOUS
 10
-59.6466522293
 20
14.3932855051
 11
-59.4450459396
 21
14.5948917948
  0
LINE
  5
3E6
100
AcDbEntity
  8
0
100
AcDbLine
 62
7
  6
CONTINUOUS
 10
-58.2645407636
 20
15.7753969708
 11
-58.1196367344
 21
15.920301
  0
LINE
  5
3E7
100
AcDbEntity
  8
0
100
AcDbLine
 62
7
  6
CONTINUOUS
 10
-59.6466522293
 20
14.3092812195
 11
-59.4450459396
 21
14.5108875092
  0
LINE
  5
3E8
100
AcDbEntity
  8
0
100
AcDbLine
 62
7
  6
CONTINUOUS
 10
-58.2645407636
 20
15.6913926851
 11
-58.064069301
 21
15.8918641477
  0
LINE
  5
3E9
100
AcDbEntity
  8
0
100
AcDbLine
 62
7
  6
CONTINUOUS
 10
-59.6466522293
 20
14.2252769339
 11
-59.4450459396
 21
14.4268832236
  0
LINE
  5
3EA
100
AcDbEntity
  8
0
100
AcDbLine
 62
7
  6
CONTINUOUS
 10
-58.2645407636
 20
15.6073883995
 11
-58.064069301
 21
15.8078598621
  0
LINE
  5
3EB
100
AcDbEntity
  8
0
100
AcDbLine
 62
7
  6
CONTINUOUS
 10
-59.6466522293
 20
14.1412726483
 11
-59.4450459396
 21
14.342878938
  0
LINE
  5
3EC
100
AcDbEntity
  8
0
100
AcDbLine
 62
7
  6
CONTINUOUS
 10
-58.2645407636
 20
15.5233841139
 11
-58.064069301
 21
15.7238555765
  0
LINE
  5
3ED
100
AcDbEntity
  8
0
100
AcDbLine
 62
7
  6
CONTINUOUS
 10
-59.624439592
 20
14.079481
 11
-59.422802592
 21
14.281118
  0
LINE
  5
3EE
100
AcDbEntity
  8
0
100
AcDbLine
 62
7
  6
CONTINUOUS
 10
-58.2645407636
 20
15.4393798283
 11
-58.064069301
 21
15.6398512909
  0
LINE
  5
3EF
100
AcDbEntity
  8
0
100
AcDbLine
 62
7
  6
CONTINUOUS
 10
-59.5404353063
 20
14.079481
 11
-59.3387983063
 21
14.281118
  0
LINE
  5
3F0
100
AcDbEntity
  8
0
100
AcDbLine
 62
7
  6
CONTINUOUS
 10
-58.2645407636
 20
15.3553755427
 11
-58.064069301
 21
15.5558470053
  0
LINE
  5
3F1
100
AcDbEntity
  8
0
100
AcDbLine
 62
7
  6
CONTINUOUS
 10
-59.4564310207
 20
14.079481
 11
-59.2547940207
 21
14.281118
  0
LINE
  5
3F2
100
AcDbEntity
  8
0
100
AcDbLine
 62
7
  6
CONTINUOUS
 10
-58.2645407636
 20
15.2713712571
 11
-58.064069301
 21
15.4718427197
  0
LINE
  5
3F3
100
AcDbEntity
  8
0
100
AcDbLine
 62
7
  6
CONTINUOUS
 10
-59.3724267351
 20
14.079481
 11
-59.1707897351
 21
14.281118
  0
LINE
  5
3F4
100
AcDbEntity
  8
0
100
AcDbLine
 62
7
  6
CONTINUOUS
 10
-58.2645407636
 20
15.1873669715
 11
-58.064069301
 21
15.3878384341
  0
LINE
  5
3F5
100
AcDbEntity
  8
0
100
AcDbLine
 62
7
  6
CONTINUOUS
 10
-59.2884224495
 20
14.079481
 11
-59.0867854495
 21
14.281118
  0
LINE
  5
3F6
100
AcDbEntity
  8
0
100
AcDbLine
 62
7
  6
CONTINUOUS
 10
-58.2645407636
 20
15.1033626859
 11
-58.064069301
 21
15.3038341485
  0
LINE
  5
3F7
100
AcDbEntity
  8
0
100
AcDbLine
 62
7
  6
CONTINUOUS
 10
-59.6503886601
 20
13.6335105038
 11
-59.638229146
 21
13.6456700179
  0
LINE
  5
3F8
100
AcDbEntity
  8
0
100
AcDbLine
 62
7
  6
CONTINUOUS
 10
-59.2044181639
 20
14.079481
 11
-59.0027811639
 21
14.281118
  0
LINE
  5
3F9
100
AcDbEntity
  8
0
100
AcDbLine
 62
7
  6
CONTINUOUS
 10
-58.2645407636
 20
15.0193584003
 11
-58.064069301
 21
15.2198298629
  0
LINE
  5
3FA
100
AcDbEntity
  8
0
100
AcDbLine
 62
7
  6
CONTINUOUS
 10
-59.6503886601
 20
13.5495062182
 11
-59.5962295385
 21
13.6036653398
  0
LINE
  5
3FB
100
AcDbEntity
  8
0
100
AcDbLine
 62
7
  6
CONTINUOUS
 10
-59.1204138783
 20
14.079481
 11
-58.9187768783
 21
14.281118
  0
LINE
  5
3FC
100
AcDbEntity
  8
0
100
AcDbLine
 62
7
  6
CONTINUOUS
 10
-58.2645407636
 20
14.9353541147
 11
-58.064069301
 21
15.1358255773
  0
LINE
  5
3FD
100
AcDbEntity
  8
0
100
AcDbLine
 62
7
  6
CONTINUOUS
 10
-59.6503886601
 20
13.4655019326
 11
-59.554229931
 21
13.5616606618
  0
LINE
  5
3FE
100
AcDbEntity
  8
0
100
AcDbLine
 62
7
  6
CONTINUOUS
 10
-59.0364095927
 20
14.079481
 11
-58.8347725927
 21
14.281118
  0
LINE
  5
3FF
100
AcDbEntity
  8
0
100
AcDbLine
 62
7
  6
CONTINUOUS
 10
-58.1958765927
 20
14.920014
 11
-58.064069301
 21
15.0518212917
  0
LINE
  5
400
100
AcDbEntity
  8
0
100
AcDbLine
 62
7
  6
CONTINUOUS
 10
-59.6503886601
 20
13.381497647
 11
-59.5122303234
 21
13.5196559837
  0
LINE
  5
401
100
AcDbEntity
  8
0
100
AcDbLine
 62
7
  6
CONTINUOUS
 10
-58.9524053071
 20
14.079481
 11
-58.7507683071
 21
14.281118
  0
LINE
  5
402
100
AcDbEntity
  8
0
100
AcDbLine
 62
7
  6
CONTINUOUS
 10
-58.1118723071
 20
14.920014
 11
-58.064069301
 21
14.9678170061
  0
LINE
  5
403
100
AcDbEntity
  8
0
100
AcDbLine
 62
7
  6
CONTINUOUS
 10
-59.612783205
 20
13.3350988165
 11
-59.4702307159
 21
13.4776513056
  0
LINE
  5
404
100
AcDbEntity
  8
0
100
AcDbLine
 62
7
  6
CONTINUOUS
 10
-58.8684010215
 20
14.079481
 11
-58.6667640215
 21
14.281118
  0
LINE
  5
405
100
AcDbEntity
  8
0
100
AcDbLine
 62
7
  6
CONTINUOUS
 10
-56.9513797949
 20
15.9965022266
 11
-56.9478820215
 21
16.0
  0
LINE
  5
406
100
AcDbEntity
  8
0
100
AcDbLine
 62
7
  6
CONTINUOUS
 10
-59.570784261
 20
13.2930934749
 11
-59.4282311083
 21
13.4356466276
  0
LINE
  5
407
100
AcDbEntity
  8
0
100
AcDbLine
 62
7
  6
CONTINUOUS
 10
-58.7843967359
 20
14.079481
 11
-58.5827597359
 21
14.281118
  0
LINE
  5
408
100
AcDbEntity
  8
0
100
AcDbLine
 62
7
  6
CONTINUOUS
 10
-56.9513797949
 20
15.912497941
 11
-56.8638777359
 21
16.0
  0
LINE
  5
409
100
AcDbEntity
  8
0
100
AcDbLine
 62
7
  6
CONTINUOUS
 10
-59.528785317
 20
13.2510881333
 11
-59.3862315008
 21
13.3936419495
  0
LINE
  5
40A
100
AcDbEntity
  8
0
100
AcDbLine
 62
7
  6
CONTINUOUS
 10
-58.7003924503
 20
14.079481
 11
-58.4987554503
 21
14.281118
  0
LINE
  5
40B
100
AcDbEntity
  8
0
100
AcDbLine
 62
7
  6
CONTINUOUS
 10
-56.9513797949
 20
15.8284936554
 11
-56.7798734503
 21
16.0
  0
LINE
  5
40C
100
AcDbEntity
  8
0
100
AcDbLine
 62
7
  6
CONTINUOUS
 10
-59.486786373
 20
13.2090827917
 11
-59.3442318933
 21
13.3516372714
  0
LINE
  5
40D
100
AcDbEntity
  8
0
100
AcDbLine
 62
7
  6
CONTINUOUS
 10
-58.6163881647
 20
14.079481
 11
-58.4147511647
 21
14.281118
  0
LINE
  5
40E
100
AcDbEntity
  8
0
100
AcDbLine
 62
7
  6
CONTINUOUS
 10
-56.9513797949
 20
15.7444893698
 11
-56.7497735052
 21
15.9460956595
  0
LINE
  5
40F
100
AcDbEntity
  8
0
100
AcDbLine
 62
7
  6
CONTINUOUS
 10
-59.444787429
 20
13.1670774501
 11
-59.3022322857
 21
13.3096325934
  0
LINE
  5
410
100
AcDbEntity
  8
0
100
AcDbLine
 62
7
  6
CONTINUOUS
 10
-58.5323838791
 20
14.079481
 11
-58.3307468791
 21
14.281118
  0
LINE
  5
411
100
AcDbEntity
  8
0
100
AcDbLine
 62
7
  6
CONTINUOUS
 10
-56.9513797949
 20
15.6604850842
 11
-56.7497735052
 21
15.8620913739
  0
LINE
  5
412
100
AcDbEntity
  8
0
100
AcDbLine
 62
7
  6
CONTINUOUS
 10
-59.402788485
 20
13.1250721085
 11
-59.2602326782
 21
13.2676279153
  0
LINE
  5
413
100
AcDbEntity
  8
0
100
AcDbLine
 62
7
  6
CONTINUOUS
 10
-58.4483795935
 20
14.079481
 11
-58.2467425935
 21
14.281118
  0
LINE
  5
414
100
AcDbEntity
  8
0
100
AcDbLine
 62
7
  6
CONTINUOUS
 10
-56.9513797949
 20
15.5764807986
 11
-56.7497735052
 21
15.7780870883
  0
LINE
  5
415
100
AcDbEntity
  8
0
100
AcDbLine
 62
7
  6
CONTINUOUS
 10
-59.360789541
 20
13.0830667668
 11
-59.2182330707
 21
13.2256232372
  0
LINE
  5
416
100
AcDbEntity
  8
0
100
AcDbLine
 62
7
  6
CONTINUOUS
 10
-58.3643753079
 20
14.079481
 11
-58.1627383079
 21
14.281118
  0
LINE
  5
417
100
AcDbEntity
  8
0
100
AcDbLine
 62
7
  6
CONTINUOUS
 10
-56.9513797949
 20
15.492476513
 11
-56.7497735052
 21
15.6940828027
  0
LINE
  5
418
100
AcDbEntity
  8
0
100
AcDbLine
 62
7
  6
CONTINUOUS
 10
-59.318790597
 20
13.0410614252
 11
-59.1762334631
 21
13.1836185591
  0
LINE
  5
419
100
AcDbEntity
  8
0
100
AcDbLine
 62
7
  6
CONTINUOUS
 10
-58.2803710223
 20
14.079481
 11
-58.0787340223
 21
14.281118
  0
LINE
  5
41A
100
AcDbEntity
  8
0
100
AcDbLine
 62
7
  6
CONTINUOUS
 10
-56.9513797949
 20
15.4084722274
 11
-56.7497735052
 21
15.6100785171
  0
LINE
  5
41B
100
AcDbEntity
  8
0
100
AcDbLine
 62
7
  6
CONTINUOUS
 10
-59.276791653
 20
12.9990560836
 11
-59.1342338556
 21
13.1416138811
  0
LINE
  5
41C
100
AcDbEntity
  8
0
100
AcDbLine
 62
7
  6
CONTINUOUS
 10
-58.1963667367
 20
14.079481
 11
-57.9947297367
 21
14.281118
  0
LINE
  5
41D
100
AcDbEntity
  8
0
100
AcDbLine
 62
7
  6
CONTINUOUS
 10
-56.9513797949
 20
15.3244679418
 11
-56.7497735052
 21
15.5260742315
  0
LINE
  5
41E
100
AcDbEntity
  8
CURVE
100
AcDbLine
 62
253
  6
CONTINUOUS
 10
-54.8780969106
 20
15.835714221
 11
-54.6067096952
 21
15.971428442
  0
LINE
  5
41F
100
AcDbEntity
  8
CURVE
100
AcDbLine
 62
253
  6
CONTINUOUS
 10
-53.5211607488
 20
15.157142663
 11
-53.7925479925
 21
15.021428442
  0
LINE
  5
420
100
AcDbEntity
  8
RACCORDO
100
AcDbLine
 62
7
  6
CONTINUOUS
 10
-46.5497735052
 20
-15.5760966645
 11
-49.5497735052
 21
-15.5865686825
  0
LINE
  5
421
100
AcDbEntity
  8
ASSI
100
AcDbLine
 62
7
  6
CONTINUOUS
 10
-46.5497735052
 20
-15.5760966645
 11
-49.5497735052
 21
-15.5865686825
  0
LINE
  5
422
100
AcDbEntity
  8
RACCORDO
100
AcDbLine
 62
7
  6
CONTINUOUS
 10
-46.5497735052
 20
-15.8009761865
 11
-50.9997735052
 21
-15.8113818759
  0
LINE
  5
423
100
AcDbEntity
  8
ASSI
100
AcDbLine
 62
7
  6
CONTINUOUS
 10
-46.5497735052
 20
-15.8009761865
 11
-50.9997735052
 21
-15.8113818759
  0
LINE
  5
424
100
AcDbEntity
  8
RACCORDO
100
AcDbLine
 62
7
  6
CONTINUOUS
 10
-23.2497735052
 20
-15.75
 11
-24.7497735052
 21
-15.75
  0
LINE
  5
425
100
AcDbEntity
  8
ASSI
100
AcDbLine
 62
7
  6
CONTINUOUS
 10
-23.2497735052
 20
-15.75
 11
-24.7497735052
 21
-15.75
  0
LINE
  5
426
100
AcDbEntity
  8
0
100
AcDbLine
 62
7
  6
CONTINUOUS
 10
-50.3497735052
 20
-14.5
 11
-51.5497735052
 21
-14.5
  0
LINE
  5
427
100
AcDbEntity
  8
RACCORDO
100
AcDbLine
 62
7
  6
CONTINUOUS
 10
-24.7497735052
 20
-14.25
 11
-23.2497735052
 21
-14.25
  0
LINE
  5
428
100
AcDbEntity
  8
ASSI
100
AcDbLine
 62
7
  6
CONTINUOUS
 10
-24.7497735052
 20
-14.25
 11
-23.2497735052
 21
-14.25
  0
LINE
  5
429
100
AcDbEntity
  8
CURVE
100
AcDbLine
 62
253
  6
CONTINUOUS
 10
-59.6571616284
 20
-13.390935
 11
-56.7577762861
 21
-13.390935
  0
LINE
  5
42A
100
AcDbEntity
  8
RACCORDO
100
AcDbLine
 62
7
  6
CONTINUOUS
 10
-46.5497735052
 20
-14.1990238135
 11
-50.9997735052
 21
-14.1886181241
  0
LINE
  5
42B
100
AcDbEntity
  8
ASSI
100
AcDbLine
 62
7
  6
CONTINUOUS
 10
-46.5497735052
 20
-14.1990238135
 11
-50.9997735052
 21
-14.1886181241
  0
LINE
  5
42C
100
AcDbEntity
  8
RACCORDO
100
AcDbLine
 62
7
  6
CONTINUOUS
 10
-24.2323210987
 20
-13.9856941396
 11
-50.9997735052
 21
-13.8605008762
  0
LINE
  5
42D
100
AcDbEntity
  8
ASSI
100
AcDbLine
 62
7
  6
CONTINUOUS
 10
-24.2323210987
 20
-13.9856941396
 11
-50.9997735052
 21
-13.8605008762
  0
LINE
  5
42E
100
AcDbEntity
  8
CURVE
100
AcDbLine
 62
253
  6
CONTINUOUS
 10
-57.6613706433
 20
-14.790021
 11
-59.6569876549
 21
-14.22041
  0
LINE
  5
42F
100
AcDbEntity
  8
CURVE
100
AcDbLine
 62
253
  6
CONTINUOUS
 10
-59.6569876549
 20
-13.615552
 11
-56.7577762861
 21
-14.547617
  0
LINE
  5
430
100
AcDbEntity
  8
ASSI
100
AcDbLine
 62
7
  6
CONTINUOUS
 10
-66.2497735052
 20
-24.2106880219
 11
-66.2497735052
 21
-22.2689805518
  0
LINE
  5
431
100
AcDbEntity
  8
ASSI
100
AcDbLine
 62
7
  6
CONTINUOUS
 10
-66.2497735052
 20
22.2689805518
 11
-66.2497735052
 21
24.2106880219
  0
LINE
  5
432
100
AcDbEntity
  8
ASSI
100
AcDbLine
 62
253
  6
CONTINUOUS
 10
-66.0532639864
 20
24.2106880219
 11
-66.0532639864
 21
23.8443375673
  0
LINE
  5
433
100
AcDbEntity
  8
ASSI
100
AcDbLine
 62
253
  6
CONTINUOUS
 10
-66.0532639864
 20
-24.2106880219
 11
-66.0532639864
 21
-23.8443375673
  0
LINE
  5
434
100
AcDbEntity
  8
ASSI
100
AcDbLine
 62
253
  6
CONTINUOUS
 10
-66.0041366068
 20
-23.5581814706
 11
-66.0041366068
 21
-22.2818538361
  0
LINE
  5
435
100
AcDbEntity
  8
ASSI
100
AcDbLine
 62
253
  6
CONTINUOUS
 10
-66.0041366068
 20
22.2818538361
 11
-66.0041366068
 21
23.5581814706
  0
LINE
  5
436
100
AcDbEntity
  8
ASSI
100
AcDbLine
 62
7
  6
CONTINUOUS
 10
-65.2497735052
 20
23.1226497308
 11
-65.2497735052
 21
22.3213883311
  0
LINE
  5
437
100
AcDbEntity
  8
ASSI
100
AcDbLine
 62
7
  6
CONTINUOUS
 10
-65.2497735052
 20
-22.3213883311
 11
-65.2497735052
 21
-23.1226497308
  0
LINE
  5
438
100
AcDbEntity
  8
ASSI
100
AcDbLine
 62
253
  6
CONTINUOUS
 10
-65.0041366068
 20
23.2097560788
 11
-65.0041366068
 21
22.3341525772
  0
LINE
  5
439
100
AcDbEntity
  8
ASSI
100
AcDbLine
 62
253
  6
CONTINUOUS
 10
-65.0041366068
 20
-22.3341525772
 11
-65.0041366068
 21
-23.2097560788
  0
LINE
  5
43A
100
AcDbEntity
  8
0
100
AcDbLine
 62
7
  6
CONTINUOUS
 10
-59.2347927091
 20
12.957050742
 11
-59.0922342481
 21
13.099609203
  0
LINE
  5
43B
100
AcDbEntity
  8
0
100
AcDbLine
 62
7
  6
CONTINUOUS
 10
-58.1123624511
 20
14.079481
 11
-57.9107254511
 21
14.281118
  0
LINE
  5
43C
100
AcDbEntity
  8
0
100
AcDbLine
 62
7
  6
CONTINUOUS
 10
-56.9513797949
 20
15.2404636562
 11
-56.7497735052
 21
15.4420699459
  0
LINE
  5
43D
100
AcDbEntity
  8
0
100
AcDbLine
 62
7
  6
CONTINUOUS
 10
-59.1927937651
 20
12.9150454004
 11
-59.0502346405
 21
13.0576045249
  0
LINE
  5
43E
100
AcDbEntity
  8
0
100
AcDbLine
 62
7
  6
CONTINUOUS
 10
-58.0283581655
 20
14.079481
 11
-57.8267211655
 21
14.281118
  0
LINE
  5
43F
100
AcDbEntity
  8
0
100
AcDbLine
 62
7
  6
CONTINUOUS
 10
-56.9513797949
 20
15.1564593706
 11
-56.7497735052
 21
15.3580656603
  0
LINE
  5
440
100
AcDbEntity
  8
0
100
AcDbLine
 62
7
  6
CONTINUOUS
 10
-59.1507948211
 20
12.8730400588
 11
-59.008235033
 21
13.0155998469
  0
LINE
  5
441
100
AcDbEntity
  8
0
100
AcDbLine
 62
7
  6
CONTINUOUS
 10
-57.9443538799
 20
14.079481
 11
-57.7427168799
 21
14.281118
  0
LINE
  5
442
100
AcDbEntity
  8
0
100
AcDbLine
 62
7
  6
CONTINUOUS
 10
-56.9513797949
 20
15.072455085
 11
-56.7497735052
 21
15.2740613747
  0
LINE
  5
443
100
AcDbEntity
  8
0
100
AcDbLine
 62
7
  6
CONTINUOUS
 10
-59.1087958771
 20
12.8310347172
 11
-58.9662354254
 21
12.9735951688
  0
LINE
  5
444
100
AcDbEntity
  8
0
100
AcDbLine
 62
7
  6
CONTINUOUS
 10
-57.8603495942
 20
14.079481
 11
-57.6587125942
 21
14.281118
  0
LINE
  5
445
100
AcDbEntity
  8
0
100
AcDbLine
 62
7
  6
CONTINUOUS
 10
-56.9513797949
 20
14.9884507994
 11
-56.7497735052
 21
15.1900570891
  0
LINE
  5
446
100
AcDbEntity
  8
0
100
AcDbLine
 62
7
  6
CONTINUOUS
 10
-59.0667969331
 20
12.7890293756
 11
-58.9242358179
 21
12.9315904907
  0
LINE
  5
447
100
AcDbEntity
  8
0
100
AcDbLine
 62
7
  6
CONTINUOUS
 10
-57.7763453086
 20
14.079481
 11
-57.5747083086
 21
14.281118
  0
LINE
  5
448
100
AcDbEntity
  8
0
100
AcDbLine
 62
7
  6
CONTINUOUS
 10
-56.9513797949
 20
14.9044465138
 11
-56.7497735052
 21
15.1060528035
  0
LINE
  5
449
100
AcDbEntity
  8
0
100
AcDbLine
 62
7
  6
CONTINUOUS
 10
-59.0247979891
 20
12.747024034
 11
-58.8822362104
 21
12.8895858127
  0
LINE
  5
44A
100
AcDbEntity
  8
0
100
AcDbLine
 62
7
  6
CONTINUOUS
 10
-57.692341023
 20
14.079481
 11
-57.490704023
 21
14.281118
  0
LINE
  5
44B
100
AcDbEntity
  8
0
100
AcDbLine
 62
7
  6
CONTINUOUS
 10
-56.9513797949
 20
14.8204422282
 11
-56.7497735052
 21
15.0220485179
  0
LINE
  5
44C
100
AcDbEntity
  8
0
100
AcDbLine
 62
7
  6
CONTINUOUS
 10
-58.9827990451
 20
12.7050186923
 11
-58.8402366028
 21
12.8475811346
  0
LINE
  5
44D
100
AcDbEntity
  8
0
100
AcDbLine
 62
7
  6
CONTINUOUS
 10
-57.6083367374
 20
14.079481
 11
-57.4066997374
 21
14.281118
  0
LINE
  5
44E
100
AcDbEntity
  8
0
100
AcDbLine
 62
7
  6
CONTINUOUS
 10
-56.9513797949
 20
14.7364379426
 11
-56.7497735052
 21
14.9380442323
  0
LINE
  5
44F
100
AcDbEntity
  8
0
100
AcDbLine
 62
7
  6
CONTINUOUS
 10
-58.9408001011
 20
12.6630133507
 11
-58.7982369953
 21
12.8055764565
  0
LINE
  5
450
100
AcDbEntity
  8
0
100
AcDbLine
 62
7
  6
CONTINUOUS
 10
-57.5243324518
 20
14.079481
 11
-57.3226954518
 21
14.281118
  0
LINE
  5
451
100
AcDbEntity
  8
0
100
AcDbLine
 62
7
  6
CONTINUOUS
 10
-56.9513797949
 20
14.652433657
 11
-56.7497735052
 21
14.8540399467
  0
LINE
  5
452
100
AcDbEntity
  8
0
100
AcDbLine
 62
7
  6
CONTINUOUS
 10
-58.8988011571
 20
12.6210080091
 11
-58.7562373878
 21
12.7635717785
  0
LINE
  5
453
100
AcDbEntity
  8
0
100
AcDbLine
 62
7
  6
CONTINUOUS
 10
-57.4403281662
 20
14.079481
 11
-57.2386911662
 21
14.281118
  0
LINE
  5
454
100
AcDbEntity
  8
0
100
AcDbLine
 62
7
  6
CONTINUOUS
 10
-56.9513797949
 20
14.5684293714
 11
-56.7497735052
 21
14.7700356611
  0
LINE
  5
455
100
AcDbEntity
  8
0
100
AcDbLine
 62
7
  6
CONTINUOUS
 10
-59.6445255532
 20
11.7912793274
 11
-59.6234528806
 21
11.812352
  0
LINE
  5
456
100
AcDbEntity
  8
0
100
AcDbLine
 62
7
  6
CONTINUOUS
 10
-58.8568022131
 20
12.5790026675
 11
-58.7142377802
 21
12.7215671004
  0
LINE
  5
457
100
AcDbEntity
  8
0
100
AcDbLine
 62
7
  6
CONTINUOUS
 10
-57.3563238806
 20
14.079481
 11
-57.1546868806
 21
14.281118
  0
LINE
  5
458
100
AcDbEntity
  8
0
100
AcDbLine
 62
7
  6
CONTINUOUS
 10
-56.9513797949
 20
14.4844250858
 11
-56.7497735052
 21
14.6860313755
  0
LINE
  5
459
100
AcDbEntity
  8
0
100
AcDbLine
 62
7
  6
CONTINUOUS
 10
-59.6445255532
 20
11.7072750418
 11
-59.539448595
 21
11.812352
  0
LINE
  5
45A
100
AcDbEntity
  8
0
100
AcDbLine
 62
7
  6
CONTINUOUS
 10
-58.8148032691
 20
12.5369973259
 11
-58.6722381727
 21
12.6795624223
  0
LINE
  5
45B
100
AcDbEntity
  8
0
100
AcDbLine
 62
7
  6
CONTINUOUS
 10
-57.272319595
 20
14.079481
 11
-57.070682595
 21
14.281118
  0
LINE
  5
45C
100
AcDbEntity
  8
0
100
AcDbLine
 62
7
  6
CONTINUOUS
 10
-56.9513797949
 20
14.4004208002
 11
-56.7497735052
 21
14.6020270899
  0
LINE
  5
45D
100
AcDbEntity
  8
0
100
AcDbLine
 62
7
  6
CONTINUOUS
 10
-59.6445255532
 20
11.6232707562
 11
-59.4554443094
 21
11.812352
  0
LINE
  5
45E
100
AcDbEntity
  8
0
100
AcDbLine
 62
7
  6
CONTINUOUS
 10
-58.7728043251
 20
12.4949919843
 11
-58.6302385652
 21
12.6375577443
  0
LINE
  5
45F
100
AcDbEntity
  8
0
100
AcDbLine
 62
7
  6
CONTINUOUS
 10
-57.1883153094
 20
14.079481
 11
-56.9866783094
 21
14.281118
  0
LINE
  5
460
100
AcDbEntity
  8
0
100
AcDbLine
 62
7
  6
CONTINUOUS
 10
-56.9513797949
 20
14.3164165145
 11
-56.7497735052
 21
14.5180228043
  0
LINE
  5
461
100
AcDbEntity
  8
0
100
AcDbLine
 62
7
  6
CONTINUOUS
 10
-59.5730770238
 20
11.610715
 11
-59.3714400238
 21
11.812352
  0
LINE
  5
462
100
AcDbEntity
  8
0
100
AcDbLine
 62
7
  6
CONTINUOUS
 10
-58.7308053811
 20
12.4529866427
 11
-58.5882389576
 21
12.5955530662
  0
LINE
  5
463
100
AcDbEntity
  8
0
100
AcDbLine
 62
7
  6
CONTINUOUS
 10
-57.1043110238
 20
14.079481
 11
-56.7497735052
 21
14.4340185186
  0
LINE
  5
464
100
AcDbEntity
  8
0
100
AcDbLine
 62
7
  6
CONTINUOUS
 10
-59.4890727382
 20
11.610715
 11
-59.2874357382
 21
11.812352
  0
LINE
  5
465
100
AcDbEntity
  8
0
100
AcDbLine
 62
7
  6
CONTINUOUS
 10
-58.6888064371
 20
12.4109813011
 11
-58.5462393501
 21
12.5535483881
  0
LINE
  5
466
100
AcDbEntity
  8
0
100
AcDbLine
 62
7
  6
CONTINUOUS
 10
-57.0203067382
 20
14.079481
 11
-56.7497735052
 21
14.350014233
  0
LINE
  5
467
100
AcDbEntity
  8
0
100
AcDbLine
 62
7
  6
CONTINUOUS
 10
-59.4050684526
 20
11.610715
 11
-59.2034314526
 21
11.812352
  0
LINE
  5
468
100
AcDbEntity
  8
0
100
AcDbLine
 62
7
  6
CONTINUOUS
 10
-58.6468074931
 20
12.3689759595
 11
-58.5042397425
 21
12.5115437101
  0
LINE
  5
469
100
AcDbEntity
  8
0
100
AcDbLine
 62
7
  6
CONTINUOUS
 10
-56.9363024526
 20
14.079481
 11
-56.7497735052
 21
14.2660099474
  0
LINE
  5
46A
100
AcDbEntity
  8
0
100
AcDbLine
 62
7
  6
CONTINUOUS
 10
-59.321064167
 20
11.610715
 11
-59.119427167
 21
11.812352
  0
LINE
  5
46B
100
AcDbEntity
  8
0
100
AcDbLine
 62
7
  6
CONTINUOUS
 10
-58.6048085491
 20
12.3269706178
 11
-58.462240135
 21
12.469539032
  0
LINE
  5
46C
100
AcDbEntity
  8
0
100
AcDbLine
 62
7
  6
CONTINUOUS
 10
-56.852298167
 20
14.079481
 11
-56.7497735052
 21
14.1820056618
  0
LINE
  5
46D
100
AcDbEntity
  8
0
100
AcDbLine
 62
7
  6
CONTINUOUS
 10
-59.2370598814
 20
11.610715
 11
-59.0354228814
 21
11.812352
  0
LINE
  5
46E
100
AcDbEntity
  8
0
100
AcDbLine
 62
7
  6
CONTINUOUS
 10
-58.5628096051
 20
12.2849652762
 11
-58.4202405275
 21
12.4275343539
  0
LINE
  5
46F
100
AcDbEntity
  8
0
100
AcDbLine
 62
7
  6
CONTINUOUS
 10
-56.7682938814
 20
14.079481
 11
-56.7497735052
 21
14.0980013762
  0
LINE
  5
470
100
AcDbEntity
  8
0
100
AcDbLine
 62
7
  6
CONTINUOUS
 10
-59.1530555958
 20
11.610715
 11
-58.9514185958
 21
11.812352
  0
LINE
  5
471
100
AcDbEntity
  8
0
100
AcDbLine
 62
7
  6
CONTINUOUS
 10
-58.5208106612
 20
12.2429599346
 11
-58.3782409199
 21
12.3855296758
  0
LINE
  5
472
100
AcDbEntity
  8
CURVE
100
AcDbLine
 62
253
  6
CONTINUOUS
 10
-55.149484126
 20
15.564285779
 11
-54.8780969106
 21
15.835714221
  0
LINE
  5
473
100
AcDbEntity
  8
0
100
AcDbLine
 62
7
  6
CONTINUOUS
 10
-59.0690513102
 20
11.610715
 11
-58.8674143102
 21
11.812352
  0
LINE
  5
474
100
AcDbEntity
  8
0
100
AcDbLine
 62
7
  6
CONTINUOUS
 10
-58.4788117172
 20
12.200954593
 11
-58.3362413124
 21
12.3435249978
  0
LINE
  5
475
100
AcDbEntity
  8
0
100
AcDbLine
 62
7
  6
CONTINUOUS
 10
-58.9850470246
 20
11.610715
 11
-58.7834100246
 21
11.812352
  0
LINE
  5
476
100
AcDbEntity
  8
0
100
AcDbLine
 62
7
  6
CONTINUOUS
 10
-58.4368127732
 20
12.1589492514
 11
-58.2942417049
 21
12.3015203197
  0
LINE
  5
477
100
AcDbEntity
  8
0
100
AcDbLine
 62
7
  6
CONTINUOUS
 10
-58.901042739
 20
11.610715
 11
-58.699405739
 21
11.812352
  0
LINE
  5
478
100
AcDbEntity
  8
0
100
AcDbLine
 62
7
  6
CONTINUOUS
 10
-58.3948138292
 20
12.1169439098
 11
-58.2522420973
 21
12.2595156416
  0
LINE
  5
479
100
AcDbEntity
  8
0
100
AcDbLine
 62
7
  6
CONTINUOUS
 10
-58.8170384534
 20
11.610715
 11
-58.6154014534
 21
11.812352
  0
LINE
  5
47A
100
AcDbEntity
  8
0
100
AcDbLine
 62
7
  6
CONTINUOUS
 10
-58.3528148852
 20
12.0749385682
 11
-58.2102424898
 21
12.2175109636
  0
LINE
  5
47B
100
AcDbEntity
  8
0
100
AcDbLine
 62
253
  6
CONTINUOUS
 10
-56.7424896147
 20
13.654331
 11
-58.1946904038
 21
12.201957
  0
LINE
  5
47C
100
AcDbEntity
  8
0
100
AcDbLine
 62
7
  6
CONTINUOUS
 10
-59.4279083222
 20
10.9158408455
 11
-59.3316047646
 21
11.0121444031
  0
LINE
  5
47D
100
AcDbEntity
  8
0
100
AcDbLine
 62
7
  6
CONTINUOUS
 10
-58.7330341678
 20
11.610715
 11
-58.5313971678
 21
11.812352
  0
LINE
  5
47E
100
AcDbEntity
  8
0
100
AcDbLine
 62
7
  6
CONTINUOUS
 10
-58.3108159412
 20
12.0329332266
 11
-56.7424896147
 21
13.6012595531
  0
LINE
  5
47F
100
AcDbEntity
  8
0
100
AcDbLine
 62
7
  6
CONTINUOUS
 10
-59.5553084755
 20
10.7044364066
 11
-59.1305909171
 21
11.1291539651
  0
LINE
  5
480
100
AcDbEntity
  8
0
100
AcDbLine
 62
7
  6
CONTINUOUS
 10
-58.6490298822
 20
11.610715
 11
-58.4473928822
 21
11.812352
  0
LINE
  5
481
100
AcDbEntity
  8
0
100
AcDbLine
 62
7
  6
CONTINUOUS
 10
-58.2688169972
 20
11.990927885
 11
-56.7424896147
 21
13.5172552675
  0
LINE
  5
482
100
AcDbEntity
  8
0
100
AcDbLine
 62
7
  6
CONTINUOUS
 10
-59.5980103219
 20
10.5777302747
 11
-59.0115302501
 21
11.1642103465
  0
LINE
  5
483
100
AcDbEntity
  8
0
100
AcDbLine
 62
7
  6
CONTINUOUS
 10
-58.5650255965
 20
11.610715
 11
-58.3633885965
 21
11.812352
  0
LINE
  5
484
100
AcDbEntity
  8
0
100
AcDbLine
 62
7
  6
CONTINUOUS
 10
-58.2268180532
 20
11.9489225433
 11
-56.7424896147
 21
13.4332509818
  0
LINE
  5
485
100
AcDbEntity
  8
0
100
AcDbLine
 62
253
  6
CONTINUOUS
 10
-58.1946904038
 20
11.91679
 11
-56.7424896147
 21
13.36921
  0
LINE
  5
486
100
AcDbEntity
  8
0
100
AcDbLine
 62
7
  6
CONTINUOUS
 10
-59.6203352791
 20
10.4714010318
 11
-58.9155377917
 21
11.1761985193
  0
LINE
  5
487
100
AcDbEntity
  8
0
100
AcDbLine
 62
7
  6
CONTINUOUS
 10
-58.4810213109
 20
11.610715
 11
-58.2793843109
 21
11.812352
  0
LINE
  5
488
100
AcDbEntity
  8
0
100
AcDbLine
 62
7
  6
CONTINUOUS
 10
-59.6311099384
 20
10.376622087
 11
-59.3616306687
 21
10.6461013566
  0
LINE
  5
489
100
AcDbEntity
  8
0
100
AcDbLine
 62
7
  6
CONTINUOUS
 10
-59.0715833272
 20
10.9361486982
 11
-58.8309944878
 21
11.1767375375
  0
LINE
  5
48A
100
AcDbEntity
  8
0
100
AcDbLine
 62
7
  6
CONTINUOUS
 10
-58.3970170253
 20
11.610715
 11
-58.1953800253
 21
11.812352
  0
LINE
  5
48B
100
AcDbEntity
  8
0
100
AcDbLine
 62
7
  6
CONTINUOUS
 10
-59.6344864998
 20
10.2892412399
 11
-59.405294018
 21
10.5184337217
  0
LINE
  5
48C
100
AcDbEntity
  8
0
100
AcDbLine
 62
7
  6
CONTINUOUS
 10
-58.9546471863
 20
10.9690805534
 11
-58.7537026121
 21
11.1700251277
  0
LINE
  5
48D
100
AcDbEntity
  8
0
100
AcDbLine
 62
7
  6
CONTINUOUS
 10
-58.3130127397
 20
11.610715
 11
-58.1113757397
 21
11.812352
  0
LINE
  5
48E
100
AcDbEntity
  8
0
100
AcDbLine
 62
7
  6
CONTINUOUS
 10
-59.634924876
 20
10.2047985781
 11
-59.4244578388
 21
10.4152656154
  0
LINE
  5
48F
100
AcDbEntity
  8
0
100
AcDbLine
 62
7
  6
CONTINUOUS
 10
-58.8627204779
 20
10.9770029763
 11
-58.6825567181
 21
11.157166736
  0
LINE
  5
490
100
AcDbEntity
  8
0
100
AcDbLine
 62
7
  6
CONTINUOUS
 10
-58.2290084541
 20
11.610715
 11
-58.0273714541
 21
11.812352
  0
LINE
  5
491
100
AcDbEntity
  8
0
100
AcDbLine
 62
7
  6
CONTINUOUS
 10
-59.634924876
 20
10.1207942925
 11
-59.4317971423
 21
10.3239220262
  0
LINE
  5
492
100
AcDbEntity
  8
0
100
AcDbLine
 62
7
  6
CONTINUOUS
 10
-58.7844316246
 20
10.9712875439
 11
-58.6178546055
 21
11.137864563
  0
LINE
  5
493
100
AcDbEntity
  8
0
100
AcDbLine
 62
7
  6
CONTINUOUS
 10
-58.1450041685
 20
11.610715
 11
-57.9433671685
 21
11.812352
  0
LINE
  5
494
100
AcDbEntity
  8
0
100
AcDbLine
 62
7
  6
CONTINUOUS
 10
-59.634924876
 20
10.0367900069
 11
-59.4333184646
 21
10.2383964183
  0
LINE
  5
495
100
AcDbEntity
  8
0
100
AcDbLine
 62
7
  6
CONTINUOUS
 10
-58.7148670635
 20
10.9568478194
 11
-58.5569189293
 21
11.1147959536
  0
LINE
  5
496
100
AcDbEntity
  8
0
100
AcDbLine
 62
7
  6
CONTINUOUS
 10
-58.0609998829
 20
11.610715
 11
-57.8593628829
 21
11.812352
  0
LINE
  5
497
100
AcDbEntity
  8
0
100
AcDbLine
 62
7
  6
CONTINUOUS
 10
-59.634924876
 20
9.9527857213
 11
-59.4333184646
 21
10.1543921327
  0
LINE
  5
498
100
AcDbEntity
  8
0
100
AcDbLine
 62
7
  6
CONTINUOUS
 10
-58.6522198516
 20
10.9354907457
 11
-58.4989400346
 21
11.0887705627
  0
LINE
  5
499
100
AcDbEntity
  8
0
100
AcDbLine
 62
7
  6
CONTINUOUS
 10
-57.9769955973
 20
11.610715
 11
-57.7753585973
 21
11.812352
  0
LINE
  5
49A
100
AcDbEntity
  8
0
100
AcDbLine
 62
7
  6
CONTINUOUS
 10
-59.634924876
 20
9.8687814357
 11
-59.4333184646
 21
10.0703878471
  0
LINE
  5
49B
100
AcDbEntity
  8
0
100
AcDbLine
 62
7
  6
CONTINUOUS
 10
-58.5950926628
 20
10.9086136489
 11
-58.4463761994
 21
11.0573301123
  0
LINE
  5
49C
100
AcDbEntity
  8
0
100
AcDbLine
 62
7
  6
CONTINUOUS
 10
-57.8929913117
 20
11.610715
 11
-57.6913543117
 21
11.812352
  0
LINE
  5
49D
100
AcDbEntity
  8
0
100
AcDbLine
 62
7
  6
CONTINUOUS
 10
-59.634924876
 20
9.7847771501
 11
-59.4333184646
 21
9.9863835615
  0
LINE
  5
49E
100
AcDbEntity
  8
0
100
AcDbLine
 62
7
  6
CONTINUOUS
 10
-58.5423304253
 20
10.8773716008
 11
-58.39625173
 21
11.0234502961
  0
LINE
  5
49F
100
AcDbEntity
  8
0
100
AcDbLine
 62
7
  6
CONTINUOUS
 10
-57.8089870261
 20
11.610715
 11
-57.6073500261
 21
11.812352
  0
LINE
  5
4A0
100
AcDbEntity
  8
0
100
AcDbLine
 62
7
  6
CONTINUOUS
 10
-59.634924876
 20
9.7007728645
 11
-59.4333184646
 21
9.9023792759
  0
LINE
  5
4A1
100
AcDbEntity
  8
0
100
AcDbLine
 62
7
  6
CONTINUOUS
 10
-58.4934766822
 20
10.8422210583
 11
-58.3489649638
 21
10.9867327767
  0
LINE
  5
4A2
100
AcDbEntity
  8
0
100
AcDbLine
 62
7
  6
CONTINUOUS
 10
-57.7249827405
 20
11.610715
 11
-57.5233457405
 21
11.812352
  0
LINE
  5
4A3
100
AcDbEntity
  8
0
100
AcDbLine
 62
7
  6
CONTINUOUS
 10
-59.634924876
 20
9.6167685789
 11
-59.4333184646
 21
9.8183749903
  0
LINE
  5
4A4
100
AcDbEntity
  8
0
100
AcDbLine
 62
7
  6
CONTINUOUS
 10
-58.449914302
 20
10.8017791529
 11
-58.3062016747
 21
10.9454917802
  0
LINE
  5
4A5
100
AcDbEntity
  8
0
100
AcDbLine
 62
7
  6
CONTINUOUS
 10
-57.6409784549
 20
11.610715
 11
-57.4393414549
 21
11.812352
  0
LINE
  5
4A6
100
AcDbEntity
  8
0
100
AcDbLine
 62
7
  6
CONTINUOUS
 10
-59.634924876
 20
9.5327642933
 11
-59.4333184646
 21
9.7343707047
  0
LINE
  5
4A7
100
AcDbEntity
  8
0
100
AcDbLine
 62
7
  6
CONTINUOUS
 10
-58.4099261243
 20
10.757763045
 11
-58.264818008
 21
10.9028711612
  0
LINE
  5
4A8
100
AcDbEntity
  8
0
100
AcDbLine
 62
7
  6
CONTINUOUS
 10
-57.5569741693
 20
11.610715
 11
-57.3553371693
 21
11.812352
  0
LINE
  5
4A9
100
AcDbEntity
  8
0
100
AcDbLine
 62
7
  6
CONTINUOUS
 10
-59.634924876
 20
9.4487600077
 11
-59.4333184646
 21
9.6503664191
  0
LINE
  5
4AA
100
AcDbEntity
  8
0
100
AcDbLine
 62
7
  6
CONTINUOUS
 10
-58.3739833621
 20
10.7097015216
 11
-58.2281362758
 21
10.8555486079
  0
LINE
  5
4AB
100
AcDbEntity
  8
0
100
AcDbLine
 62
7
  6
CONTINUOUS
 10
-57.4729698837
 20
11.610715
 11
-57.2713328837
 21
11.812352
  0
LINE
  5
4AC
100
AcDbEntity
  8
0
100
AcDbLine
 62
7
  6
CONTINUOUS
 10
-59.634924876
 20
9.3647557221
 11
-59.4333184646
 21
9.5663621335
  0
LINE
  5
4AD
100
AcDbEntity
  8
0
100
AcDbLine
 62
7
  6
CONTINUOUS
 10
-58.3419323309
 20
10.6577482672
 11
-58.1934837971
 21
10.806196801
  0
LINE
  5
4AE
100
AcDbEntity
  8
0
100
AcDbLine
 62
7
  6
CONTINUOUS
 10
-57.3889655981
 20
11.610715
 11
-57.1873285981
 21
11.812352
  0
LINE
  5
4AF
100
AcDbEntity
  8
0
100
AcDbLine
 62
7
  6
CONTINUOUS
 10
-59.634924876
 20
9.2807514365
 11
-59.4333184646
 21
9.4823578479
  0
LINE
  5
4B0
100
AcDbEntity
  8
0
100
AcDbLine
 62
7
  6
CONTINUOUS
 10
-58.3138561429
 20
10.6018201696
 11
-58.1620742896
 21
10.7536020229
  0
LINE
  5
4B1
100
AcDbEntity
  8
0
100
AcDbLine
 62
7
  6
CONTINUOUS
 10
-57.3049613125
 20
11.610715
 11
-57.1033243125
 21
11.812352
  0
LINE
  5
4B2
100
AcDbEntity
  8
0
100
AcDbLine
 62
7
  6
CONTINUOUS
 10
-59.634924876
 20
9.1967471509
 11
-59.4333184646
 21
9.3983535623
  0
LINE
  5
4B3
100
AcDbEntity
  8
0
100
AcDbLine
 62
7
  6
CONTINUOUS
 10
-58.2900783253
 20
10.5415937015
 11
-58.134164887
 21
10.6975071399
  0
LINE
  5
4B4
100
AcDbEntity
  8
0
100
AcDbLine
 62
7
  6
CONTINUOUS
 10
-57.2209570269
 20
11.610715
 11
-57.0193200269
 21
11.812352
  0
LINE
  5
4B5
100
AcDbEntity
  8
0
100
AcDbLine
 62
7
  6
CONTINUOUS
 10
-59.6158876871
 20
9.1317800542
 11
-59.4333184646
 21
9.3143492766
  0
LINE
  5
4B6
100
AcDbEntity
  8
0
100
AcDbLine
 62
7
  6
CONTINUOUS
 10
-58.2702434298
 20
10.4774243115
 11
-58.1091704723
 21
10.638497269
  0
LINE
  5
4B7
100
AcDbEntity
  8
0
100
AcDbLine
 62
7
  6
CONTINUOUS
 10
-57.1369527413
 20
11.610715
 11
-56.9353157413
 21
11.812352
  0
LINE
  5
4B8
100
AcDbEntity
  8
CURVE
100
AcDbLine
 62
253
  6
CONTINUOUS
 10
-53.2497735052
 20
15.428571558
 11
-53.5211607488
 21
15.157142663
  0
LINE
  5
4B9
100
AcDbEntity
  8
0
100
AcDbLine
 62
7
  6
CONTINUOUS
 10
-59.5318834015
 20
9.1317800542
 11
-59.4333184646
 21
9.230344991
  0
LINE
  5
4BA
100
AcDbEntity
  8
0
100
AcDbLine
 62
7
  6
CONTINUOUS
 10
-58.2557108204
 20
10.4079526352
 11
-58.0874723061
 21
10.5761911496
  0
LINE
  5
4BB
100
AcDbEntity
  8
0
100
AcDbLine
 62
7
  6
CONTINUOUS
 10
-57.0529484557
 20
11.610715
 11
-56.8513114557
 21
11.812352
  0
LINE
  5
4BC
100
AcDbEntity
  8
0
100
AcDbLine
 62
7
  6
CONTINUOUS
 10
-59.4478791159
 20
9.1317800542
 11
-59.4333184646
 21
9.1463407054
  0
LINE
  5
4BD
100
AcDbEntity
  8
0
100
AcDbLine
 62
7
  6
CONTINUOUS
 10
-58.2462395447
 20
10.3334196253
 11
-58.0702705915
 21
10.5093885786
  0
LINE
  5
4BE
100
AcDbEntity
  8
0
100
AcDbLine
 62
7
  6
CONTINUOUS
 10
-56.9689441701
 20
11.610715
 11
-56.7673071701
 21
11.812352
  0
LINE
  5
4BF
100
AcDbEntity
  8
CURVE
100
AcDbLine
 62
253
  6
CONTINUOUS
 10
-54.0639352079
 20
14.478571558
 11
-54.3353224799
 21
14.207142663
  0
LINE
  5
4C0
100
AcDbEntity
  8
0
100
AcDbLine
 62
7
  6
CONTINUOUS
 10
-58.242126819
 20
10.2535280655
 11
-58.0565654838
 21
10.4390894007
  0
LINE
  5
4C1
100
AcDbEntity
  8
0
100
AcDbLine
 62
7
  6
CONTINUOUS
 10
-56.8849398844
 20
11.610715
 11
-56.7424896147
 21
11.7531652697
  0
LINE
  5
4C2
100
AcDbEntity
  8
0
100
AcDbLine
 62
7
  6
CONTINUOUS
 10
-58.2415564268
 20
10.170094172
 11
-57.9696330989
 21
10.4420174999
  0
LINE
  5
4C3
100
AcDbEntity
  8
0
100
AcDbLine
 62
7
  6
CONTINUOUS
 10
-56.8009355988
 20
11.610715
 11
-56.7424896147
 21
11.6691609841
  0
LINE
  5
4C4
100
AcDbEntity
  8
0
100
AcDbLine
 62
253
  6
CONTINUOUS
 10
-56.742490035
 20
11.0860472269
 11
-58.04997595
 21
10.3998519318
  0
LINE
  5
4C5
100
AcDbEntity
  8
0
100
AcDbLine
 62
253
  6
CONTINUOUS
 10
-58.2415564268
 20
10.0715944548
 11
-56.742490035
 21
10.8583245146
  0
LINE
  5
4C6
100
AcDbEntity
  8
CURVE
100
AcDbLine
 62
253
  6
CONTINUOUS
 10
-59.6569876549
 20
-15.342748
 11
-57.6613706433
 21
-14.790021
  0
LINE
  5
4C7
100
AcDbEntity
  8
RACCORDO
100
AcDbLine
 62
7
  6
CONTINUOUS
 10
-24.2323210987
 20
-11.0143058604
 11
-50.9997735052
 21
-11.1394991238
  0
LINE
  5
4C8
100
AcDbEntity
  8
ASSI
100
AcDbLine
 62
7
  6
CONTINUOUS
 10
-24.2323210987
 20
-11.0143058604
 11
-50.9997735052
 21
-11.1394991238
  0
LINE
  5
4C9
100
AcDbEntity
  8
RACCORDO
100
AcDbLine
 62
7
  6
CONTINUOUS
 10
-46.5497735052
 20
-10.8009761865
 11
-50.9997735052
 21
-10.8113818759
  0
LINE
  5
4CA
100
AcDbEntity
  8
ASSI
100
AcDbLine
 62
7
  6
CONTINUOUS
 10
-46.5497735052
 20
-10.8009761865
 11
-50.9997735052
 21
-10.8113818759
  0
LINE
  5
4CB
100
AcDbEntity
  8
CURVE
100
AcDbLine
 62
253
  6
CONTINUOUS
 10
-56.7577762861
 20
-12.785664
 11
-59.6571616284
 21
-12.785664
  0
LINE
  5
4CC
100
AcDbEntity
  8
RACCORDO
100
AcDbLine
 62
7
  6
CONTINUOUS
 10
-23.2497735052
 20
-10.75
 11
-24.7497735052
 21
-10.75
  0
LINE
  5
4CD
100
AcDbEntity
  8
ASSI
100
AcDbLine
 62
7
  6
CONTINUOUS
 10
-23.2497735052
 20
-10.75
 11
-24.7497735052
 21
-10.75
  0
LINE
  5
4CE
100
AcDbEntity
  8
CURVE
100
AcDbLine
 62
253
  6
CONTINUOUS
 10
-58.6509069092
 20
-11.750162
 11
-56.7577762861
 21
-11.880779
  0
LINE
  5
4CF
100
AcDbEntity
  8
CURVE
100
AcDbLine
 62
253
  6
CONTINUOUS
 10
-56.7577762861
 20
-12.459827
 11
-59.6569876549
 21
-12.198005
  0
LINE
  5
4D0
100
AcDbEntity
  8
CURVE
100
AcDbLine
 62
253
  6
CONTINUOUS
 10
-58.0473368499
 20
-10.994355
 11
-59.6569876549
 21
-10.389084
  0
LINE
  5
4D1
100
AcDbEntity
  8
CURVE
100
AcDbLine
 62
253
  6
CONTINUOUS
 10
-58.6430151114
 20
-10.235548
 11
-56.7577762861
 21
-10.955216
  0
LINE
  5
4D2
100
AcDbEntity
  8
ASSI
100
AcDbLine
 62
7
  6
CONTINUOUS
 10
-63.7497735052
 20
21.9000761524
 11
-63.7497735052
 21
18.5
  0
LINE
  5
4D3
100
AcDbEntity
  8
ASSI
100
AcDbLine
 62
7
  6
CONTINUOUS
 10
-63.7497735052
 20
-24.300030461
 11
-63.7497735052
 21
-22.3999997358
  0
LINE
  5
4D4
100
AcDbEntity
  8
ASSI
100
AcDbLine
 62
7
  6
CONTINUOUS
 10
-63.7497735052
 20
-21.9000761524
 11
-63.7497735052
 21
-18.5
  0
LINE
  5
4D5
100
AcDbEntity
  8
ASSI
100
AcDbLine
 62
7
  6
CONTINUOUS
 10
-63.7497735052
 20
22.3999999296
 11
-63.7497735052
 21
24.300030461
  0
LINE
  5
4D6
100
AcDbEntity
  8
ASSI
100
AcDbLine
 62
253
  6
CONTINUOUS
 10
-62.9954104035
 20
-23.5581814706
 11
-62.9954104035
 21
-22.3868325431
  0
LINE
  5
4D7
100
AcDbEntity
  8
ASSI
100
AcDbLine
 62
253
  6
CONTINUOUS
 10
-62.9954104035
 20
22.3868325431
 11
-62.9954104035
 21
23.5581814706
  0
LINE
  5
4D8
100
AcDbEntity
  8
ASSI
100
AcDbLine
 62
253
  6
CONTINUOUS
 10
-62.9462830239
 20
-24.2368706193
 11
-62.9462830239
 21
-23.8443375673
  0
LINE
  5
4D9
100
AcDbEntity
  8
ASSI
100
AcDbLine
 62
253
  6
CONTINUOUS
 10
-62.9462830239
 20
23.8443375673
 11
-62.9462830239
 21
24.2368706193
  0
LINE
  5
4DA
100
AcDbEntity
  8
ASSI
100
AcDbLine
 62
7
  6
CONTINUOUS
 10
-62.7497735052
 20
-18.5674550649
 11
-62.7497735052
 21
-24.2368706193
  0
LINE
  5
4DB
100
AcDbEntity
  8
ASSI
100
AcDbLine
 62
7
  6
CONTINUOUS
 10
-62.7497735052
 20
18.5674550649
 11
-62.7497735052
 21
24.2368706193
  0
LINE
  5
4DC
100
AcDbEntity
  8
RACCORDO
100
AcDbLine
 62
7
  6
CONTINUOUS
 10
-62.2497735052
 20
-20.85
 11
-62.2497735052
 21
-18.9556312201
  0
LINE
  5
4DD
100
AcDbEntity
  8
RACCORDO
100
AcDbLine
 62
7
  6
CONTINUOUS
 10
-62.2497735052
 20
-18.2156007297
 11
-62.2497735052
 21
18.2156007297
  0
LINE
  5
4DE
100
AcDbEntity
  8
ASSI
100
AcDbLine
 62
7
  6
CONTINUOUS
 10
-62.2497735052
 20
-20.85
 11
-62.2497735052
 21
20.85
  0
LINE
  5
4DF
100
AcDbEntity
  8
RACCORDO
100
AcDbLine
 62
7
  6
CONTINUOUS
 10
-62.2497735052
 20
18.9556312201
 11
-62.2497735052
 21
20.85
  0
LINE
  5
4E0
100
AcDbEntity
  8
0
100
AcDbLine
 62
7
  6
CONTINUOUS
 10
-59.6503886601
 20
8.6772576531
 11
-59.6272843132
 21
8.700362
  0
LINE
  5
4E1
100
AcDbEntity
  8
0
100
AcDbLine
 62
7
  6
CONTINUOUS
 10
-58.2415564268
 20
10.0860898864
 11
-57.7928488104
 21
10.5347975029
  0
LINE
  5
4E2
100
AcDbEntity
  8
0
100
AcDbLine
 62
7
  6
CONTINUOUS
 10
-59.6503886601
 20
8.5932533675
 11
-59.5432800276
 21
8.700362
  0
LINE
  5
4E3
100
AcDbEntity
  8
0
100
AcDbLine
 62
7
  6
CONTINUOUS
 10
-58.0952794756
 20
10.148362552
 11
-57.6160645218
 21
10.6275775058
  0
LINE
  5
4E4
100
AcDbEntity
  8
0
100
AcDbLine
 62
7
  6
CONTINUOUS
 10
-59.6503886601
 20
8.5092490819
 11
-59.459275742
 21
8.700362
  0
LINE
  5
4E5
100
AcDbEntity
  8
0
100
AcDbLine
 62
7
  6
CONTINUOUS
 10
-57.9184978127
 20
10.2411399293
 11
-57.4392802332
 21
10.7203575088
  0
LINE
  5
4E6
100
AcDbEntity
  8
0
100
AcDbLine
 62
7
  6
CONTINUOUS
 10
-59.6137841704
 20
8.4618492861
 11
-59.3752714564
 21
8.700362
  0
LINE
  5
4E7
100
AcDbEntity
  8
0
100
AcDbLine
 62
7
  6
CONTINUOUS
 10
-57.7417161498
 20
10.3339173066
 11
-57.2624959447
 21
10.8131375117
  0
LINE
  5
4E8
100
AcDbEntity
  8
0
100
AcDbLine
 62
7
  6
CONTINUOUS
 10
-59.5686708367
 20
8.4229583341
 11
-59.2912671708
 21
8.700362
  0
LINE
  5
4E9
100
AcDbEntity
  8
0
100
AcDbLine
 62
7
  6
CONTINUOUS
 10
-57.5649344869
 20
10.426694684
 11
-57.0857116561
 21
10.9059175147
  0
LINE
  5
4EA
100
AcDbEntity
  8
0
100
AcDbLine
 62
7
  6
CONTINUOUS
 10
-59.523557503
 20
8.3840673822
 11
-59.2072628852
 21
8.700362
  0
LINE
  5
4EB
100
AcDbEntity
  8
0
100
AcDbLine
 62
7
  6
CONTINUOUS
 10
-57.3881528239
 20
10.5194720613
 11
-56.9089273676
 21
10.9986975176
  0
LINE
  5
4EC
100
AcDbEntity
  8
0
100
AcDbLine
 62
7
  6
CONTINUOUS
 10
-59.4784441693
 20
8.3451764303
 11
-59.3354845252
 21
8.4881360744
  0
LINE
  5
4ED
100
AcDbEntity
  8
0
100
AcDbLine
 62
7
  6
CONTINUOUS
 10
-59.3248955996
 20
8.498725
 11
-59.1232585996
 21
8.700362
  0
LINE
  5
4EE
100
AcDbEntity
  8
0
100
AcDbLine
 62
7
  6
CONTINUOUS
 10
-57.211371161
 20
10.6122494386
 11
-56.742490035
 21
11.0811305647
  0
LINE
  5
4EF
100
AcDbEntity
  8
0
100
AcDbLine
 62
7
  6
CONTINUOUS
 10
-59.4333308357
 20
8.3062854783
 11
-59.2903709783
 21
8.4492453357
  0
LINE
  5
4F0
100
AcDbEntity
  8
0
100
AcDbLine
 62
7
  6
CONTINUOUS
 10
-59.240891314
 20
8.498725
 11
-59.039254314
 21
8.700362
  0
LINE
  5
4F1
100
AcDbEntity
  8
0
100
AcDbLine
 62
7
  6
CONTINUOUS
 10
-57.0345894981
 20
10.7050268159
 11
-56.742490035
 21
10.997126279
  0
LINE
  5
4F2
100
AcDbEntity
  8
0
100
AcDbLine
 62
7
  6
CONTINUOUS
 10
-59.388217502
 20
8.2673945264
 11
-59.2452574314
 21
8.410354597
  0
LINE
  5
4F3
100
AcDbEntity
  8
0
100
AcDbLine
 62
7
  6
CONTINUOUS
 10
-59.1568870284
 20
8.498725
 11
-58.9552500284
 21
8.700362
  0
LINE
  5
4F4
100
AcDbEntity
  8
0
100
AcDbLine
 62
7
  6
CONTINUOUS
 10
-56.8578078352
 20
10.7978041932
 11
-56.742490035
 21
10.9131219934
  0
LINE
  5
4F5
100
AcDbEntity
  8
0
100
AcDbLine
 62
7
  6
CONTINUOUS
 10
-59.3431041683
 20
8.2285035745
 11
-59.2001438846
 21
8.3714638582
  0
LINE
  5
4F6
100
AcDbEntity
  8
0
100
AcDbLine
 62
7
  6
CONTINUOUS
 10
-59.0728827428
 20
8.498725
 11
-58.8712457428
 21
8.700362
  0
LINE
  5
4F7
100
AcDbEntity
  8
0
100
AcDbLine
 62
7
  6
CONTINUOUS
 10
-59.2979908347
 20
8.1896126225
 11
-59.1550303377
 21
8.3325731195
  0
LINE
  5
4F8
100
AcDbEntity
  8
0
100
AcDbLine
 62
7
  6
CONTINUOUS
 10
-58.9888784572
 20
8.498725
 11
-58.7872414572
 21
8.700362
  0
LINE
  5
4F9
100
AcDbEntity
  8
0
100
AcDbLine
 62
7
  6
CONTINUOUS
 10
-59.252877501
 20
8.1507216706
 11
-59.1099167908
 21
8.2936823807
  0
LINE
  5
4FA
100
AcDbEntity
  8
0
100
AcDbLine
 62
7
  6
CONTINUOUS
 10
-58.9048741716
 20
8.498725
 11
-58.7032371716
 21
8.700362
  0
LINE
  5
4FB
100
AcDbEntity
  8
0
100
AcDbLine
 62
7
  6
CONTINUOUS
 10
-59.2077641673
 20
8.1118307187
 11
-59.064803244
 21
8.254791642
  0
LINE
  5
4FC
100
AcDbEntity
  8
0
100
AcDbLine
 62
7
  6
CONTINUOUS
 10
-58.820869886
 20
8.498725
 11
-58.619232886
 21
8.700362
  0
LINE
  5
4FD
100
AcDbEntity
  8
0
100
AcDbLine
 62
7
  6
CONTINUOUS
 10
-59.1626508336
 20
8.0729397667
 11
-59.0196896971
 21
8.2159009033
  0
LINE
  5
4FE
100
AcDbEntity
  8
0
100
AcDbLine
 62
7
  6
CONTINUOUS
 10
-58.7368656004
 20
8.498725
 11
-58.5352286004
 21
8.700362
  0
LINE
  5
4FF
100
AcDbEntity
  8
0
100
AcDbLine
 62
7
  6
CONTINUOUS
 10
-59.1175375
 20
8.0340488148
 11
-58.9745761503
 21
8.1770101645
  0
LINE
  5
500
100
AcDbEntity
  8
0
100
AcDbLine
 62
7
  6
CONTINUOUS
 10
-58.6528613148
 20
8.498725
 11
-58.4512243148
 21
8.700362
  0
LINE
  5
501
100
AcDbEntity
  8
0
100
AcDbLine
 62
7
  6
CONTINUOUS
 10
-59.0724241663
 20
7.9951578629
 11
-58.9294626034
 21
8.1381194258
  0
LINE
  5
502
100
AcDbEntity
  8
0
100
AcDbLine
 62
7
  6
CONTINUOUS
 10
-58.5688570292
 20
8.498725
 11
-58.3672200292
 21
8.700362
  0
LINE
  5
503
100
AcDbEntity
  8
0
100
AcDbLine
 62
7
  6
CONTINUOUS
 10
-59.0273108326
 20
7.9562669109
 11
-58.8843490565
 21
8.099228687
  0
LINE
  5
504
100
AcDbEntity
  8
0
100
AcDbLine
 62
7
  6
CONTINUOUS
 10
-58.4848527436
 20
8.498725
 11
-58.2832157436
 21
8.700362
  0
LINE
  5
505
100
AcDbEntity
  8
CURVE
100
AcDbLine
 62
253
  6
CONTINUOUS
 10
-54.8780969106
 20
12.035714221
 11
-55.149484126
 21
11.7642856657
  0
LINE
  5
506
100
AcDbEntity
  8
0
100
AcDbLine
 62
7
  6
CONTINUOUS
 10
-58.982197499
 20
7.917375959
 11
-58.8392355097
 21
8.0603379483
  0
LINE
  5
507
100
AcDbEntity
  8
0
100
AcDbLine
 62
7
  6
CONTINUOUS
 10
-58.400848458
 20
8.498725
 11
-58.199211458
 21
8.700362
  0
LINE
  5
508
100
AcDbEntity
  8
0
100
AcDbLine
 62
7
  6
CONTINUOUS
 10
-58.9370841653
 20
7.8784850071
 11
-58.7941219628
 21
8.0214472096
  0
LINE
  5
509
100
AcDbEntity
  8
0
100
AcDbLine
 62
7
  6
CONTINUOUS
 10
-58.3168441723
 20
8.498725
 11
-58.1152071723
 21
8.700362
  0
LINE
  5
50A
100
AcDbEntity
  8
0
100
AcDbLine
 62
7
  6
CONTINUOUS
 10
-58.8919708316
 20
7.8395940551
 11
-58.7490084159
 21
7.9825564708
  0
LINE
  5
50B
100
AcDbEntity
  8
0
100
AcDbLine
 62
7
  6
CONTINUOUS
 10
-58.2646347493
 20
8.4669301374
 11
-58.0312028867
 21
8.700362
  0
LINE
  5
50C
100
AcDbEntity
  8
0
100
AcDbLine
 62
7
  6
CONTINUOUS
 10
-58.8468574979
 20
7.8007031032
 11
-58.7038948691
 21
7.9436657321
  0
LINE
  5
50D
100
AcDbEntity
  8
0
100
AcDbLine
 62
7
  6
CONTINUOUS
 10
-58.2646347493
 20
8.3829258518
 11
-57.9471986011
 21
8.700362
  0
LINE
  5
50E
100
AcDbEntity
  8
0
100
AcDbLine
 62
7
  6
CONTINUOUS
 10
-58.8017441643
 20
7.7618121513
 11
-58.6587813222
 21
7.9047749933
  0
LINE
  5
50F
100
AcDbEntity
  8
0
100
AcDbLine
 62
7
  6
CONTINUOUS
 10
-58.2646347493
 20
8.2989215662
 11
-57.8631943155
 21
8.700362
  0
LINE
  5
510
100
AcDbEntity
  8
0
100
AcDbLine
 62
7
  6
CONTINUOUS
 10
-58.7566308306
 20
7.7229211993
 11
-58.6136677753
 21
7.8658842546
  0
LINE
  5
511
100
AcDbEntity
  8
0
100
AcDbLine
 62
7
  6
CONTINUOUS
 10
-58.2646347493
 20
8.2149172806
 11
-58.0630284596
 21
8.4165235703
  0
LINE
  5
512
100
AcDbEntity
  8
0
100
AcDbLine
 62
7
  6
CONTINUOUS
 10
-57.9808270299
 20
8.498725
 11
-57.7791900299
 21
8.700362
  0
LINE
  5
513
100
AcDbEntity
  8
0
100
AcDbLine
 62
7
  6
CONTINUOUS
 10
-58.7115174969
 20
7.6840302474
 11
-58.5685542285
 21
7.8269935159
  0
LINE
  5
514
100
AcDbEntity
  8
0
100
AcDbLine
 62
7
  6
CONTINUOUS
 10
-58.2646347493
 20
8.130912995
 11
-58.0630284596
 21
8.3325192847
  0
LINE
  5
515
100
AcDbEntity
  8
0
100
AcDbLine
 62
7
  6
CONTINUOUS
 10
-57.8968227443
 20
8.498725
 11
-57.6951857443
 21
8.700362
  0
LINE
  5
516
100
AcDbEntity
  8
0
100
AcDbLine
 62
7
  6
CONTINUOUS
 10
-58.6664041632
 20
7.6451392955
 11
-58.5234406816
 21
7.7881027771
  0
LINE
  5
517
100
AcDbEntity
  8
0
100
AcDbLine
 62
7
  6
CONTINUOUS
 10
-58.2646347493
 20
8.0469087094
 11
-58.0630284596
 21
8.2485149991
  0
LINE
  5
518
100
AcDbEntity
  8
0
100
AcDbLine
 62
7
  6
CONTINUOUS
 10
-57.8128184587
 20
8.498725
 11
-57.6111814587
 21
8.700362
  0
LINE
  5
519
100
AcDbEntity
  8
0
100
AcDbLine
 62
7
  6
CONTINUOUS
 10
-58.6212908296
 20
7.6062483435
 11
-58.4783271347
 21
7.7492120384
  0
LINE
  5
51A
100
AcDbEntity
  8
0
100
AcDbLine
 62
7
  6
CONTINUOUS
 10
-58.2646347493
 20
7.9629044238
 11
-58.0630284596
 21
8.1645107135
  0
LINE
  5
51B
100
AcDbEntity
  8
0
100
AcDbLine
 62
7
  6
CONTINUOUS
 10
-57.7288141731
 20
8.498725
 11
-57.5271771731
 21
8.700362
  0
LINE
  5
51C
100
AcDbEntity
  8
0
100
AcDbLine
 62
7
  6
CONTINUOUS
 10
-58.5761774959
 20
7.5673573916
 11
-58.4332135879
 21
7.7103212996
  0
LINE
  5
51D
100
AcDbEntity
  8
0
100
AcDbLine
 62
7
  6
CONTINUOUS
 10
-58.2646347493
 20
7.8789001382
 11
-58.0630284596
 21
8.0805064279
  0
LINE
  5
51E
100
AcDbEntity
  8
0
100
AcDbLine
 62
7
  6
CONTINUOUS
 10
-57.6448098875
 20
8.498725
 11
-57.4431728875
 21
8.700362
  0
LINE
  5
51F
100
AcDbEntity
  8
0
100
AcDbLine
 62
7
  6
CONTINUOUS
 10
-58.5310641622
 20
7.5284664397
 11
-58.388100041
 21
7.6714305609
  0
LINE
  5
520
100
AcDbEntity
  8
0
100
AcDbLine
 62
7
  6
CONTINUOUS
 10
-58.2646347493
 20
7.7948958526
 11
-58.0630284596
 21
7.9965021423
  0
LINE
  5
521
100
AcDbEntity
  8
0
100
AcDbLine
 62
7
  6
CONTINUOUS
 10
-57.5608056019
 20
8.498725
 11
-57.3591686019
 21
8.700362
  0
LINE
  5
522
100
AcDbEntity
  8
0
100
AcDbLine
 62
7
  6
CONTINUOUS
 10
-58.4859508286
 20
7.4895754877
 11
-58.3429864941
 21
7.6325398222
  0
LINE
  5
523
100
AcDbEntity
  8
0
100
AcDbLine
 62
7
  6
CONTINUOUS
 10
-58.1977373163
 20
7.777789
 11
-58.0630284596
 21
7.9124978567
  0
LINE
  5
524
100
AcDbEntity
  8
0
100
AcDbLine
 62
7
  6
CONTINUOUS
 10
-57.4768013163
 20
8.498725
 11
-57.2751643163
 21
8.700362
  0
LINE
  5
525
100
AcDbEntity
  8
0
100
AcDbLine
 62
7
  6
CONTINUOUS
 10
-58.4408374949
 20
7.4506845358
 11
-58.2978729473
 21
7.5936490834
  0
LINE
  5
526
100
AcDbEntity
  8
0
100
AcDbLine
 62
7
  6
CONTINUOUS
 10
-58.1137330307
 20
7.777789
 11
-58.0630284596
 21
7.8284935711
  0
LINE
  5
527
100
AcDbEntity
  8
0
100
AcDbLine
 62
7
  6
CONTINUOUS
 10
-57.3927970307
 20
8.498725
 11
-57.1911600307
 21
8.700362
  0
LINE
  5
528
100
AcDbEntity
  8
0
100
AcDbLine
 62
7
  6
CONTINUOUS
 10
-58.3957241612
 20
7.4117935839
 11
-58.2527594004
 21
7.5547583447
  0
LINE
  5
529
100
AcDbEntity
  8
0
100
AcDbLine
 62
7
  6
CONTINUOUS
 10
-57.3087927451
 20
8.498725
 11
-57.1071557451
 21
8.700362
  0
LINE
  5
52A
100
AcDbEntity
  8
0
100
AcDbLine
 62
7
  6
CONTINUOUS
 10
-58.3506108275
 20
7.3729026319
 11
-58.2076458535
 21
7.5158676059
  0
LINE
  5
52B
100
AcDbEntity
  8
0
100
AcDbLine
 62
7
  6
CONTINUOUS
 10
-57.2247884595
 20
8.498725
 11
-57.0231514595
 21
8.700362
  0
LINE
  5
52C
100
AcDbEntity
  8
0
100
AcDbLine
 62
7
  6
CONTINUOUS
 10
-58.3054974939
 20
7.33401168
 11
-58.1625323067
 21
7.4769768672
  0
LINE
  5
52D
100
AcDbEntity
  8
0
100
AcDbLine
 62
7
  6
CONTINUOUS
 10
-57.1407841739
 20
8.498725
 11
-56.9391471739
 21
8.700362
  0
LINE
  5
52E
100
AcDbEntity
  8
0
100
AcDbLine
 62
7
  6
CONTINUOUS
 10
-58.2603841602
 20
7.2951207281
 11
-58.1174187598
 21
7.4380861285
  0
LINE
  5
52F
100
AcDbEntity
  8
0
100
AcDbLine
 62
7
  6
CONTINUOUS
 10
-57.0567798883
 20
8.498725
 11
-56.8551428883
 21
8.700362
  0
LINE
  5
530
100
AcDbEntity
  8
0
100
AcDbLine
 62
7
  6
CONTINUOUS
 10
-58.2152708265
 20
7.2562297761
 11
-58.072305213
 21
7.3991953897
  0
LINE
  5
531
100
AcDbEntity
  8
0
100
AcDbLine
 62
7
  6
CONTINUOUS
 10
-56.9727756027
 20
8.498725
 11
-56.7711386027
 21
8.700362
  0
LINE
  5
532
100
AcDbEntity
  8
CURVE
100
AcDbLine
 62
253
  6
CONTINUOUS
 10
-54.3353224799
 20
11.0857143342
 11
-54.0639352079
 21
11.3571428895
  0
LINE
  5
533
100
AcDbEntity
  8
0
100
AcDbLine
 62
7
  6
CONTINUOUS
 10
-58.1701574929
 20
7.2173388242
 11
-58.0271916661
 21
7.360304651
  0
LINE
  5
534
100
AcDbEntity
  8
0
100
AcDbLine
 62
7
  6
CONTINUOUS
 10
-56.8887713171
 20
8.498725
 11
-56.7424896147
 21
8.6450067024
  0
LINE
  5
535
100
AcDbEntity
  8
0
100
AcDbLine
 62
7
  6
CONTINUOUS
 10
-58.1250441592
 20
7.1784478723
 11
-57.9820781192
 21
7.3214139122
  0
LINE
  5
536
100
AcDbEntity
  8
0
100
AcDbLine
 62
7
  6
CONTINUOUS
 10
-56.8047670315
 20
8.498725
 11
-56.7424896147
 21
8.5610024168
  0
LINE
  5
537
100
AcDbEntity
  8
0
100
AcDbLine
 62
7
  6
CONTINUOUS
 10
-58.0799308255
 20
7.1395569203
 11
-57.9369645724
 21
7.2825231735
  0
LINE
  5
538
100
AcDbEntity
  8
0
100
AcDbLine
 62
7
  6
CONTINUOUS
 10
-58.0348174918
 20
7.1006659684
 11
-57.8918510255
 21
7.2436324348
  0
LINE
  5
539
100
AcDbEntity
  8
0
100
AcDbLine
 62
7
  6
CONTINUOUS
 10
-57.9897041582
 20
7.0617750165
 11
-57.8467374786
 21
7.204741696
  0
LINE
  5
53A
100
AcDbEntity
  8
0
100
AcDbLine
 62
7
  6
CONTINUOUS
 10
-57.9445908245
 20
7.0228840645
 11
-57.8016239318
 21
7.1658509573
  0
LINE
  5
53B
100
AcDbEntity
  8
0
100
AcDbLine
 62
7
  6
CONTINUOUS
 10
-57.8994774908
 20
6.9839931126
 11
-57.7565103849
 21
7.1269602185
  0
LINE
  5
53C
100
AcDbEntity
  8
0
100
AcDbLine
 62
7
  6
CONTINUOUS
 10
-57.8543641572
 20
6.9451021607
 11
-57.711396838
 21
7.0880694798
  0
LINE
  5
53D
100
AcDbEntity
  8
0
100
AcDbLine
 62
7
  6
CONTINUOUS
 10
-57.8092508235
 20
6.9062112087
 11
-57.6662832912
 21
7.0491787411
  0
LINE
  5
53E
100
AcDbEntity
  8
0
100
AcDbLine
 62
7
  6
CONTINUOUS
 10
-57.7641374898
 20
6.8673202568
 11
-57.6211697443
 21
7.0102880023
  0
LINE
  5
53F
100
AcDbEntity
  8
0
100
AcDbLine
 62
7
  6
CONTINUOUS
 10
-57.7190241561
 20
6.8284293049
 11
-57.5760561974
 21
6.9713972636
  0
LINE
  5
540
100
AcDbEntity
  8
CURVE
100
AcDbLine
 62
253
  6
CONTINUOUS
 10
-59.6569876549
 20
-9.790227
 11
-56.7577762861
 21
-9.519077
  0
LINE
  5
541
100
AcDbEntity
  8
CURVE
100
AcDbLine
 62
253
  6
CONTINUOUS
 10
-56.7577762861
 20
-10.111193
 11
-58.6430151114
 21
-10.235548
  0
LINE
  5
542
100
AcDbEntity
  8
0
100
AcDbLine
 62
7
  6
CONTINUOUS
 10
-51.7326107597
 20
-9.65
 11
-50.3497735052
 21
-9.65
  0
LINE
  5
543
100
AcDbEntity
  8
0
100
AcDbLine
 62
7
  6
CONTINUOUS
 10
-51.4864048014
 20
-9.35
 11
-50.3497735052
 21
-9.35
  0
LINE
  5
544
100
AcDbEntity
  8
RACCORDO
100
AcDbLine
 62
7
  6
CONTINUOUS
 10
-24.7497735052
 20
-9.25
 11
-23.2497735052
 21
-9.25
  0
LINE
  5
545
100
AcDbEntity
  8
ASSI
100
AcDbLine
 62
7
  6
CONTINUOUS
 10
-24.7497735052
 20
-9.25
 11
-23.2497735052
 21
-9.25
  0
LINE
  5
546
100
AcDbEntity
  8
RACCORDO
100
AcDbLine
 62
7
  6
CONTINUOUS
 10
-46.5497735052
 20
-9.1990238135
 11
-50.9997735052
 21
-9.1886181241
  0
LINE
  5
547
100
AcDbEntity
  8
ASSI
100
AcDbLine
 62
7
  6
CONTINUOUS
 10
-46.5497735052
 20
-9.1990238135
 11
-50.9997735052
 21
-9.1886181241
  0
LINE
  5
548
100
AcDbEntity
  8
RACCORDO
100
AcDbLine
 62
7
  6
CONTINUOUS
 10
-24.2323210987
 20
-8.9856941396
 11
-50.9997735052
 21
-8.8605008762
  0
LINE
  5
549
100
AcDbEntity
  8
ASSI
100
AcDbLine
 62
7
  6
CONTINUOUS
 10
-24.2323210987
 20
-8.9856941396
 11
-50.9997735052
 21
-8.8605008762
  0
LINE
  5
54A
100
AcDbEntity
  8
DRAFT
100
AcDbLine
 62
7
  6
CONTINUOUS
 10
-73.970700454
 20
-7.3446976589
 11
-72.8443721521
 21
-7.4234582063
  0
LINE
  5
54B
100
AcDbEntity
  8
0
100
AcDbLine
 62
7
  6
CONTINUOUS
 10
-74.2497735052
 20
-7.325
 11
-80.98171023
 21
-6.8542571266
  0
LINE
  5
54C
100
AcDbEntity
  8
CURVE
100
AcDbLine
 62
253
  6
CONTINUOUS
 10
-58.8603580039
 20
-8.233126
 11
-57.7844238989
 21
-8.5345
  0
LINE
  5
54D
100
AcDbEntity
  8
CURVE
100
AcDbLine
 62
253
  6
CONTINUOUS
 10
-57.3365621208
 20
-8.658312
 11
-56.7577762861
 21
-8.825329
  0
LINE
  5
54E
100
AcDbEntity
  8
CURVE
100
AcDbLine
 62
253
  6
CONTINUOUS
 10
-56.7577762861
 20
-9.424033
 11
-59.6569876549
 21
-8.514517
  0
LINE
  5
54F
100
AcDbEntity
  8
0
100
AcDbLine
 62
253
  6
CONTINUOUS
 10
-60.6288636109
 20
15.683094
 11
-60.6288636109
 21
15.397974
  0
LINE
  5
550
100
AcDbEntity
  8
0
100
AcDbLine
 62
253
  6
CONTINUOUS
 10
-59.9287042649
 20
14.697707
 11
-59.9287042649
 21
14.982851
  0
LINE
  5
551
100
AcDbEntity
  8
CURVE
100
AcDbLine
 62
253
  6
CONTINUOUS
 10
-59.6571616284
 20
-12.785664
 11
-59.6571616284
 21
-13.390935
  0
LINE
  5
552
100
AcDbEntity
  8
CURVE
100
AcDbLine
 62
253
  6
CONTINUOUS
 10
-59.6569876549
 20
-16.00026
 11
-59.6569876549
 21
-15.342748
  0
LINE
  5
553
100
AcDbEntity
  8
CURVE
100
AcDbLine
 62
253
  6
CONTINUOUS
 10
-59.6569876549
 20
-14.22041
 11
-59.6569876549
 21
-13.615552
  0
LINE
  5
554
100
AcDbEntity
  8
CURVE
100
AcDbLine
 62
253
  6
CONTINUOUS
 10
-59.6569876549
 20
-12.198005
 11
-59.6569876549
 21
-11.593234
  0
LINE
  5
555
100
AcDbEntity
  8
CURVE
100
AcDbLine
 62
253
  6
CONTINUOUS
 10
-59.6569876549
 20
-10.389084
 11
-59.6569876549
 21
-9.790227
  0
LINE
  5
556
100
AcDbEntity
  8
CURVE
100
AcDbLine
 62
253
  6
CONTINUOUS
 10
-59.6569876549
 20
-8.514517
 11
-59.6569876549
 21
-7.92899
  0
LINE
  5
557
100
AcDbEntity
  8
0
100
AcDbLine
 62
253
  6
CONTINUOUS
 10
-59.6503886601
 20
13.657831
 11
-59.6503886601
 21
13.37271
  0
LINE
  5
558
100
AcDbEntity
  8
0
100
AcDbLine
 62
253
  6
CONTINUOUS
 10
-59.6503886601
 20
8.700362
 11
-59.6503886601
 21
8.493405
  0
LINE
  5
559
100
AcDbEntity
  8
0
100
AcDbLine
 62
253
  6
CONTINUOUS
 10
-59.6466522293
 20
15.975334
 11
-59.6466522293
 21
14.079481
  0
LINE
  5
55A
100
AcDbEntity
  8
0
100
AcDbLine
 62
253
  6
CONTINUOUS
 10
-59.6445255532
 20
11.812352
 11
-59.6445255532
 21
11.610715
  0
LINE
  5
55B
100
AcDbEntity
  8
0
100
AcDbLine
 62
253
  6
CONTINUOUS
 10
-59.634924876
 20
10.2768972759
 11
-59.634924876
 21
9.1317800542
  0
LINE
  5
55C
100
AcDbEntity
  8
0
100
AcDbLine
 62
253
  6
CONTINUOUS
 10
-59.4450459396
 20
14.281118
 11
-59.4450459396
 21
15.975334
  0
LINE
  5
55D
100
AcDbEntity
  8
0
100
AcDbLine
 62
253
  6
CONTINUOUS
 10
-59.4333184646
 20
9.1317800542
 11
-59.4333184646
 21
10.2768972759
  0
LINE
  5
55E
100
AcDbEntity
  8
0
100
AcDbLine
 62
7
  6
CONTINUOUS
 10
-57.6739108225
 20
6.7895383529
 11
-57.5309426506
 21
6.9325065248
  0
LINE
  5
55F
100
AcDbEntity
  8
0
100
AcDbLine
 62
7
  6
CONTINUOUS
 10
-57.6287974888
 20
6.750647401
 11
-57.4858291037
 21
6.8936157861
  0
LINE
  5
560
100
AcDbEntity
  8
0
100
AcDbLine
 62
7
  6
CONTINUOUS
 10
-57.5836841551
 20
6.7117564491
 11
-57.4407155568
 21
6.8547250474
  0
LINE
  5
561
100
AcDbEntity
  8
0
100
AcDbLine
 62
7
  6
CONTINUOUS
 10
-57.5385708215
 20
6.6728654971
 11
-57.39560201
 21
6.8158343086
  0
LINE
  5
562
100
AcDbEntity
  8
0
100
AcDbLine
 62
7
  6
CONTINUOUS
 10
-57.4934574878
 20
6.6339745452
 11
-57.3504884631
 21
6.7769435699
  0
LINE
  5
563
100
AcDbEntity
  8
0
100
AcDbLine
 62
7
  6
CONTINUOUS
 10
-57.4483441541
 20
6.5950835933
 11
-57.3053749162
 21
6.7380528311
  0
LINE
  5
564
100
AcDbEntity
  8
0
100
AcDbLine
 62
7
  6
CONTINUOUS
 10
-57.4032308204
 20
6.5561926413
 11
-57.2602613694
 21
6.6991620924
  0
LINE
  5
565
100
AcDbEntity
  8
0
100
AcDbLine
 62
7
  6
CONTINUOUS
 10
-57.3581174868
 20
6.5173016894
 11
-57.2151478225
 21
6.6602713537
  0
LINE
  5
566
100
AcDbEntity
  8
0
100
AcDbLine
 62
7
  6
CONTINUOUS
 10
-57.3130041531
 20
6.4784107375
 11
-57.1700342757
 21
6.6213806149
  0
LINE
  5
567
100
AcDbEntity
  8
0
100
AcDbLine
 62
7
  6
CONTINUOUS
 10
-57.2678908194
 20
6.4395197855
 11
-57.1249207288
 21
6.5824898762
  0
LINE
  5
568
100
AcDbEntity
  8
0
100
AcDbLine
 62
7
  6
CONTINUOUS
 10
-57.2227774857
 20
6.4006288336
 11
-57.0798071819
 21
6.5435991374
  0
LINE
  5
569
100
AcDbEntity
  8
0
100
AcDbLine
 62
7
  6
CONTINUOUS
 10
-57.1776641521
 20
6.3617378817
 11
-57.0346936351
 21
6.5047083987
  0
LINE
  5
56A
100
AcDbEntity
  8
0
100
AcDbLine
 62
7
  6
CONTINUOUS
 10
-57.1325508184
 20
6.3228469297
 11
-56.9895800882
 21
6.46581766
  0
LINE
  5
56B
100
AcDbEntity
  8
0
100
AcDbLine
 62
7
  6
CONTINUOUS
 10
-57.0874374847
 20
6.2839559778
 11
-56.9444665413
 21
6.4269269212
  0
LINE
  5
56C
100
AcDbEntity
  8
0
100
AcDbLine
 62
7
  6
CONTINUOUS
 10
-57.0423241511
 20
6.2450650259
 11
-56.8993529945
 21
6.3880361825
  0
LINE
  5
56D
100
AcDbEntity
  8
0
100
AcDbLine
 62
7
  6
CONTINUOUS
 10
-56.9972108174
 20
6.2061740739
 11
-56.8542394476
 21
6.3491454437
  0
LINE
  5
56E
100
AcDbEntity
  8
0
100
AcDbLine
 62
7
  6
CONTINUOUS
 10
-56.9520974837
 20
6.167283122
 11
-56.8091259007
 21
6.310254705
  0
LINE
  5
56F
100
AcDbEntity
  8
0
100
AcDbLine
 62
7
  6
CONTINUOUS
 10
-56.90698415
 20
6.1283921701
 11
-56.7640123539
 21
6.2713639663
  0
LINE
  5
570
100
AcDbEntity
  8
0
100
AcDbLine
 62
7
  6
CONTINUOUS
 10
-56.8618708164
 20
6.0895012181
 11
-56.7424896147
 21
6.2088824198
  0
LINE
  5
571
100
AcDbEntity
  8
0
100
AcDbLine
 62
7
  6
CONTINUOUS
 10
-56.8167574827
 20
6.0506102662
 11
-56.7424896147
 21
6.1248781342
  0
LINE
  5
572
100
AcDbEntity
  8
0
100
AcDbLine
 62
7
  6
CONTINUOUS
 10
-56.771644149
 20
6.0117193143
 11
-56.7424896147
 21
6.0408738486
  0
LINE
  5
573
100
AcDbEntity
  8
CURVE
100
AcDbLine
 62
253
  6
CONTINUOUS
 10
-56.7577762861
 20
-7.677235
 11
-57.3365621208
 21
-7.834033
  0
LINE
  5
574
100
AcDbEntity
  8
CURVE
100
AcDbLine
 62
253
  6
CONTINUOUS
 10
-57.7844238989
 20
-7.954996
 11
-58.8603580039
 21
-8.233126
  0
LINE
  5
575
100
AcDbEntity
  8
RACCORDO
100
AcDbLine
 62
7
  6
CONTINUOUS
 10
-24.2323210987
 20
-6.0143058604
 11
-50.9997735052
 21
-6.1394991238
  0
LINE
  5
576
100
AcDbEntity
  8
ASSI
100
AcDbLine
 62
7
  6
CONTINUOUS
 10
-24.2323210987
 20
-6.0143058604
 11
-50.9997735052
 21
-6.1394991238
  0
LINE
  5
577
100
AcDbEntity
  8
RACCORDO
100
AcDbLine
 62
7
  6
CONTINUOUS
 10
-46.5497735052
 20
-5.8009761865
 11
-50.9997735052
 21
-5.8113818759
  0
LINE
  5
578
100
AcDbEntity
  8
ASSI
100
AcDbLine
 62
7
  6
CONTINUOUS
 10
-46.5497735052
 20
-5.8009761865
 11
-50.9997735052
 21
-5.8113818759
  0
LINE
  5
579
100
AcDbEntity
  8
CURVE
100
AcDbLine
 62
253
  6
CONTINUOUS
 10
-59.623115162
 20
-6.8615673444
 11
-56.7577759339
 21
-6.8615673444
  0
LINE
  5
57A
100
AcDbEntity
  8
CURVE
100
AcDbLine
 62
253
  6
CONTINUOUS
 10
-58.3671880287
 20
-6.2788012719
 11
-59.1630781495
 21
-6.2788012719
  0
LINE
  5
57B
100
AcDbEntity
  8
CURVE
100
AcDbLine
 62
253
  6
CONTINUOUS
 10
-56.7577759339
 20
-6.2587313832
 11
-57.8923672181
 21
-6.2587313832
  0
LINE
  5
57C
100
AcDbEntity
  8
RACCORDO
100
AcDbLine
 62
7
  6
CONTINUOUS
 10
-23.2497735052
 20
-5.75
 11
-24.7497735052
 21
-5.75
  0
LINE
  5
57D
100
AcDbEntity
  8
ASSI
100
AcDbLine
 62
7
  6
CONTINUOUS
 10
-23.2497735052
 20
-5.75
 11
-24.7497735052
 21
-5.75
  0
LINE
  5
57E
100
AcDbEntity
  8
CURVE
100
AcDbLine
 62
253
  6
CONTINUOUS
 10
-58.1111022078
 20
-5.30544429
 11
-58.1282340209
 21
-5.30544429
  0
LINE
  5
57F
100
AcDbEntity
  8
ASSI
100
AcDbLine
 62
253
  6
CONTINUOUS
 10
-58.1387158014
 20
-22.3020586235
 11
-58.1212037249
 21
-23.6517910252
  0
LINE
  5
580
100
AcDbEntity
  8
CURVE
100
AcDbLine
 62
253
  6
CONTINUOUS
 10
-58.3671880287
 20
-5.9328946758
 11
-58.3671880287
 21
-6.2788012719
  0
LINE
  5
581
100
AcDbEntity
  8
0
100
AcDbLine
 62
253
  6
CONTINUOUS
 10
-58.2646347493
 20
7.777789
 11
-58.2646347493
 21
8.498725
  0
LINE
  5
582
100
AcDbEntity
  8
0
100
AcDbLine
 62
253
  6
CONTINUOUS
 10
-58.2645407636
 20
15.920301
 11
-58.2645407636
 21
14.920014
  0
LINE
  5
583
100
AcDbEntity
  8
ASSI
100
AcDbLine
 62
7
  6
CONTINUOUS
 10
-58.2497735052
 20
23.5393800954
 11
-58.2497735052
 21
22.8606199046
  0
LINE
  5
584
100
AcDbEntity
  8
ASSI
100
AcDbLine
 62
7
  6
CONTINUOUS
 10
-58.2497735052
 20
-22.8606199046
 11
-58.2497735052
 21
-23.5393800954
  0
LINE
  5
585
100
AcDbEntity
  8
0
100
AcDbLine
 62
253
  6
CONTINUOUS
 10
-58.2415564268
 20
10.2383483071
 11
-58.2415564268
 21
10.0715944548
  0
LINE
  5
586
100
AcDbEntity
  8
0
100
AcDbLine
 62
253
  6
CONTINUOUS
 10
-58.064069301
 20
14.920014
 11
-58.064069301
 21
15.920301
  0
LINE
  5
587
100
AcDbEntity
  8
0
100
AcDbLine
 62
253
  6
CONTINUOUS
 10
-58.0630284596
 20
7.777789
 11
-58.0630284596
 21
8.498725
  0
LINE
  5
588
100
AcDbEntity
  8
CURVE
100
AcDbLine
 62
253
  6
CONTINUOUS
 10
-57.8923672181
 20
-6.2587313832
 11
-57.8923672181
 21
-5.9341993273
  0
LINE
  5
589
100
AcDbEntity
  8
CURVE
100
AcDbLine
 62
253
  6
CONTINUOUS
 10
-57.7844238989
 20
-8.5345
 11
-57.7844238989
 21
-7.954996
  0
LINE
  5
58A
100
AcDbEntity
  8
ASSI
100
AcDbLine
 62
7
  6
CONTINUOUS
 10
-57.7497735052
 20
-23.6495958353
 11
-57.7497735052
 21
-22.2952696104
  0
LINE
  5
58B
100
AcDbEntity
  8
ASSI
100
AcDbLine
 62
7
  6
CONTINUOUS
 10
-57.7497735052
 20
22.2952696104
 11
-57.7497735052
 21
23.6495956002
  0
LINE
  5
58C
100
AcDbEntity
  8
CURVE
100
AcDbLine
 62
253
  6
CONTINUOUS
 10
-57.3365621208
 20
-7.834033
 11
-57.3365621208
 21
-8.658312
  0
LINE
  5
58D
100
AcDbEntity
  8
0
100
AcDbLine
 62
253
  6
CONTINUOUS
 10
-56.9513797949
 20
16.0
 11
-56.9513797949
 21
14.281118
  0
LINE
  5
58E
100
AcDbEntity
  8
CURVE
100
AcDbLine
 62
253
  6
CONTINUOUS
 10
-56.7577762861
 20
-7.039304
 11
-56.7577762861
 21
-7.677235
  0
LINE
  5
58F
100
AcDbEntity
  8
CURVE
100
AcDbLine
 62
253
  6
CONTINUOUS
 10
-56.7577762861
 20
-8.825329
 11
-56.7577762861
 21
-9.424033
  0
LINE
  5
590
100
AcDbEntity
  8
CURVE
100
AcDbLine
 62
253
  6
CONTINUOUS
 10
-56.7577762861
 20
-9.519077
 11
-56.7577762861
 21
-10.111193
  0
LINE
  5
591
100
AcDbEntity
  8
CURVE
100
AcDbLine
 62
253
  6
CONTINUOUS
 10
-56.7577762861
 20
-10.955216
 11
-56.7577762861
 21
-11.040105
  0
LINE
  5
592
100
AcDbEntity
  8
CURVE
100
AcDbLine
 62
253
  6
CONTINUOUS
 10
-56.7577762861
 20
-11.880779
 11
-56.7577762861
 21
-12.459827
  0
LINE
  5
593
100
AcDbEntity
  8
CURVE
100
AcDbLine
 62
253
  6
CONTINUOUS
 10
-56.7577762861
 20
-14.547617
 11
-56.7577762861
 21
-15.081013
  0
LINE
  5
594
100
AcDbEntity
  8
CURVE
100
AcDbLine
 62
253
  6
CONTINUOUS
 10
-56.7577762861
 20
-13.390935
 11
-56.7577762861
 21
-12.785664
  0
LINE
  5
595
100
AcDbEntity
  8
CURVE
100
AcDbLine
 62
253
  6
CONTINUOUS
 10
-56.7577759339
 20
-6.8615673444
 11
-56.7577759339
 21
-6.2587313832
  0
LINE
  5
596
100
AcDbEntity
  8
CURVE
100
AcDbLine
 62
253
  6
CONTINUOUS
 10
-56.7577759339
 20
-5.3318417383
 11
-56.7577759339
 21
-4.7496410148
  0
LINE
  5
597
100
AcDbEntity
  8
0
100
AcDbLine
 62
253
  6
CONTINUOUS
 10
-56.7497735052
 20
14.079481
 11
-56.7497735052
 21
16.0
  0
LINE
  5
598
100
AcDbEntity
  8
0
100
AcDbLine
 62
253
  6
CONTINUOUS
 10
-56.742490035
 20
10.8583245146
 11
-56.742490035
 21
11.0860472269
  0
LINE
  5
599
100
AcDbEntity
  8
0
100
AcDbLine
 62
253
  6
CONTINUOUS
 10
-56.7424896147
 20
5.986586
 11
-56.7424896147
 21
6.25281
  0
LINE
  5
59A
100
AcDbEntity
  8
0
100
AcDbLine
 62
253
  6
CONTINUOUS
 10
-56.7424896147
 20
8.498725
 11
-56.7424896147
 21
8.700362
  0
LINE
  5
59B
100
AcDbEntity
  8
0
100
AcDbLine
 62
253
  6
CONTINUOUS
 10
-56.7424896147
 20
11.610715
 11
-56.7424896147
 21
11.812352
  0
LINE
  5
59C
100
AcDbEntity
  8
0
100
AcDbLine
 62
253
  6
CONTINUOUS
 10
-56.7424896147
 20
13.36921
 11
-56.7424896147
 21
13.654331
  0
LINE
  5
59D
100
AcDbEntity
  8
ASSI
100
AcDbLine
 62
253
  6
CONTINUOUS
 10
-58.1387158014
 20
22.3020586235
 11
-58.1212037249
 21
23.6517910252
  0
LINE
  5
59E
100
AcDbEntity
  8
RACCORDO
100
AcDbLine
 62
7
  6
CONTINUOUS
 10
-24.7497735052
 20
-4.25
 11
-23.2497735052
 21
-4.25
  0
LINE
  5
59F
100
AcDbEntity
  8
ASSI
100
AcDbLine
 62
7
  6
CONTINUOUS
 10
-24.7497735052
 20
-4.25
 11
-23.2497735052
 21
-4.25
  0
LINE
  5
5A0
100
AcDbEntity
  8
RACCORDO
100
AcDbLine
 62
7
  6
CONTINUOUS
 10
-46.5497735052
 20
-4.1990238135
 11
-50.9997735052
 21
-4.1886181241
  0
LINE
  5
5A1
100
AcDbEntity
  8
ASSI
100
AcDbLine
 62
7
  6
CONTINUOUS
 10
-46.5497735052
 20
-4.1990238135
 11
-50.9997735052
 21
-4.1886181241
  0
LINE
  5
5A2
100
AcDbEntity
  8
RACCORDO
100
AcDbLine
 62
7
  6
CONTINUOUS
 10
-24.2323210987
 20
-3.9856941396
 11
-50.9997735052
 21
-3.8605008762
  0
LINE
  5
5A3
100
AcDbEntity
  8
ASSI
100
AcDbLine
 62
7
  6
CONTINUOUS
 10
-24.2323210987
 20
-3.9856941396
 11
-50.9997735052
 21
-3.8605008762
  0
LWPOLYLINE
  5
5A4
100
AcDbEntity
  8
0
100
AcDbPolyline
 62
7
  6
CONTINUOUS
 90
13
 70
0
 43
0.3500000006
 10
-55.4283455658
 20
47.0005986328
 10
-55.4283455658
 20
48.2863146057
 10
-55.2140610809
 20
48.7148835754
 10
-54.7854875793
 20
49.143457077
 10
-54.5712030945
 20
49.143457077
 10
-54.1426295929
 20
48.7148835754
 10
-53.928345108
 20
48.2863146057
 10
-53.928345108
 20
47.0005986328
 10
-54.1426295929
 20
46.5720296631
 10
-54.5712030945
 20
46.1434561615
 10
-54.7854875793
 20
46.1434561615
 10
-55.2140610809
 20
46.5720296631
 10
-55.4283455658
 20
47.0005986328
  0
LINE
  5
5A5
100
AcDbEntity
  8
CURVE
100
AcDbLine
 62
253
  6
CONTINUOUS
 10
-55.149484126
 20
11.7642856657
 11
-55.149484126
 21
11.3571428895
  0
LINE
  5
5A6
100
AcDbEntity
  8
CURVE
100
AcDbLine
 62
253
  6
CONTINUOUS
 10
-55.149484126
 20
13.664285779
 11
-55.149484126
 21
14.478571558
  0
LINE
  5
5A7
100
AcDbEntity
  8
CURVE
100
AcDbLine
 62
253
  6
CONTINUOUS
 10
-55.149484126
 20
15.428571558
 11
-55.149484126
 21
15.564285779
  0
LINE
  5
5A8
100
AcDbEntity
  8
CURVE
100
AcDbLine
 62
253
  6
CONTINUOUS
 10
-54.3353224799
 20
14.207142663
 11
-54.3353224799
 21
13.664285779
  0
LINE
  5
5A9
100
AcDbEntity
  8
CURVE
100
AcDbLine
 62
253
  6
CONTINUOUS
 10
-54.0639352079
 20
11.3571428895
 11
-54.0639352079
 21
11.9452381492
  0
LINE
  5
5AA
100
AcDbEntity
  8
CURVE
100
AcDbLine
 62
253
  6
CONTINUOUS
 10
-53.2497735052
 20
15.564285779
 11
-53.2497735052
 21
15.428571558
  0
LINE
  5
5AB
100
AcDbEntity
  8
CURVE
100
AcDbLine
 62
253
  6
CONTINUOUS
 10
-53.2497735052
 20
13.664285779
 11
-53.2497735052
 21
14.207142663
  0
LWPOLYLINE
  5
5AC
100
AcDbEntity
  8
0
100
AcDbPolyline
 62
7
  6
CONTINUOUS
 90
3
 70
0
 43
0.3500000006
 10
-41.9640570374
 20
36.4291687775
 10
-42.0354882202
 20
36.2148842926
 10
-42.1783460541
 20
35.9291686249
  0
LINE
  5
5AD
100
AcDbEntity
  8
RACCORDO
100
AcDbLine
 62
7
  6
CONTINUOUS
 10
-24.2323210987
 20
-1.0143058604
 11
-50.9997735052
 21
-1.1394991238
  0
LINE
  5
5AE
100
AcDbEntity
  8
ASSI
100
AcDbLine
 62
7
  6
CONTINUOUS
 10
-24.2323210987
 20
-1.0143058604
 11
-50.9997735052
 21
-1.1394991238
  0
LINE
  5
5AF
100
AcDbEntity
  8
RACCORDO
100
AcDbLine
 62
7
  6
CONTINUOUS
 10
-46.5497735052
 20
-0.8009761865
 11
-50.9997735052
 21
-0.8113818759
  0
LINE
  5
5B0
100
AcDbEntity
  8
ASSI
100
AcDbLine
 62
7
  6
CONTINUOUS
 10
-46.5497735052
 20
-0.8009761865
 11
-50.9997735052
 21
-0.8113818759
  0
LINE
  5
5B1
100
AcDbEntity
  8
RACCORDO
100
AcDbLine
 62
7
  6
CONTINUOUS
 10
-23.2497735052
 20
-0.75
 11
-24.7497735052
 21
-0.75
  0
LINE
  5
5B2
100
AcDbEntity
  8
ASSI
100
AcDbLine
 62
7
  6
CONTINUOUS
 10
-23.2497735052
 20
-0.75
 11
-24.7497735052
 21
-0.75
  0
LINE
  5
5B3
100
AcDbEntity
  8
0
100
AcDbLine
 62
7
  6
CONTINUOUS
 10
-24.7497735052
 20
0.3
 11
-32.7497735052
 21
0.3
  0
LINE
  5
5B4
100
AcDbEntity
  8
RACCORDO
100
AcDbLine
 62
253
  6
CONTINUOUS
 10
-52.4480281981
 20
-20.7855365134
 11
-52.4480281981
 21
-20.6789098993
  0
LINE
  5
5B5
100
AcDbEntity
  8
RACCORDO
100
AcDbLine
 62
253
  6
CONTINUOUS
 10
-52.4480281981
 20
20.6789098993
 11
-52.4480281981
 21
20.7855366255
  0
LINE
  5
5B6
100
AcDbEntity
  8
RACCORDO
100
AcDbLine
 62
253
  6
CONTINUOUS
 10
-52.4462830239
 20
-21.2165694902
 11
-52.4462830239
 21
-21.18553092
  0
LINE
  5
5B7
100
AcDbEntity
  8
RACCORDO
100
AcDbLine
 62
253
  6
CONTINUOUS
 10
-52.4462830239
 20
21.18553092
 11
-52.4462830239
 21
21.2165694902
  0
LINE
  5
5B8
100
AcDbEntity
  8
ASSI
100
AcDbLine
 62
7
  6
CONTINUOUS
 10
-52.2497735052
 20
21.18553092
 11
-52.2497735052
 21
20.8710900996
  0
LINE
  5
5B9
100
AcDbEntity
  8
ASSI
100
AcDbLine
 62
7
  6
CONTINUOUS
 10
-52.2497735052
 20
-20.8711510238
 11
-52.2497735052
 21
-21.18553092
  0
LINE
  5
5BA
100
AcDbEntity
  8
RACCORDO
100
AcDbLine
 62
7
  6
CONTINUOUS
 10
-52.2497735052
 20
-21.2165694902
 11
-52.2497735052
 21
-19.3181305591
  0
LINE
  5
5BB
100
AcDbEntity
  8
ASSI
100
AcDbLine
 62
7
  6
CONTINUOUS
 10
-52.2497735052
 20
-20.6754493507
 11
-52.2497735052
 21
-19.3181305591
  0
LINE
  5
5BC
100
AcDbEntity
  8
ASSI
100
AcDbLine
 62
7
  6
CONTINUOUS
 10
-52.2497735052
 20
19.3181305591
 11
-52.2497735052
 21
20.6754493507
  0
LINE
  5
5BD
100
AcDbEntity
  8
RACCORDO
100
AcDbLine
 62
7
  6
CONTINUOUS
 10
-52.2497735052
 20
19.3181305591
 11
-52.2497735052
 21
21.2165694902
  0
LINE
  5
5BE
100
AcDbEntity
  8
0
100
AcDbLine
 62
7
  6
CONTINUOUS
 10
-51.4497735052
 20
0.6750992738
 11
-51.4497735052
 21
-0.6750992738
  0
LINE
  5
5BF
100
AcDbEntity
  8
RACCORDO
100
AcDbLine
 62
253
  6
CONTINUOUS
 10
-50.9997735052
 20
14.1886181241
 11
-50.9997735052
 21
13.8605008762
  0
LINE
  5
5C0
100
AcDbEntity
  8
ASSI
100
AcDbLine
 62
253
  6
CONTINUOUS
 10
-50.9997735052
 20
14.1886181241
 11
-50.9997735052
 21
13.8605008762
  0
LINE
  5
5C1
100
AcDbEntity
  8
RACCORDO
100
AcDbLine
 62
253
  6
CONTINUOUS
 10
-50.9997735052
 20
9.1886181241
 11
-50.9997735052
 21
8.8605008762
  0
LINE
  5
5C2
100
AcDbEntity
  8
ASSI
100
AcDbLine
 62
253
  6
CONTINUOUS
 10
-50.9997735052
 20
9.1886181241
 11
-50.9997735052
 21
8.8605008762
  0
LINE
  5
5C3
100
AcDbEntity
  8
RACCORDO
100
AcDbLine
 62
253
  6
CONTINUOUS
 10
-50.9997735052
 20
4.1886181241
 11
-50.9997735052
 21
3.8605008762
  0
LINE
  5
5C4
100
AcDbEntity
  8
ASSI
100
AcDbLine
 62
253
  6
CONTINUOUS
 10
-50.9997735052
 20
4.1886181241
 11
-50.9997735052
 21
3.8605008762
  0
LINE
  5
5C5
100
AcDbEntity
  8
RACCORDO
100
AcDbLine
 62
253
  6
CONTINUOUS
 10
-50.9997735052
 20
-0.8113818759
 11
-50.9997735052
 21
-1.1394991238
  0
LINE
  5
5C6
100
AcDbEntity
  8
ASSI
100
AcDbLine
 62
253
  6
CONTINUOUS
 10
-50.9997735052
 20
-0.8113818759
 11
-50.9997735052
 21
-1.1394991238
  0
LINE
  5
5C7
100
AcDbEntity
  8
RACCORDO
100
AcDbLine
 62
253
  6
CONTINUOUS
 10
-50.9997735052
 20
-5.8113818759
 11
-50.9997735052
 21
-6.1394991238
  0
LINE
  5
5C8
100
AcDbEntity
  8
ASSI
100
AcDbLine
 62
253
  6
CONTINUOUS
 10
-50.9997735052
 20
-5.8113818759
 11
-50.9997735052
 21
-6.1394991238
  0
LINE
  5
5C9
100
AcDbEntity
  8
RACCORDO
100
AcDbLine
 62
253
  6
CONTINUOUS
 10
-50.9997735052
 20
-10.8113818759
 11
-50.9997735052
 21
-11.1394991238
  0
LINE
  5
5CA
100
AcDbEntity
  8
ASSI
100
AcDbLine
 62
253
  6
CONTINUOUS
 10
-50.9997735052
 20
-10.8113818759
 11
-50.9997735052
 21
-11.1394991238
  0
LINE
  5
5CB
100
AcDbEntity
  8
RACCORDO
100
AcDbLine
 62
253
  6
CONTINUOUS
 10
-50.9997735052
 20
-15.8113818759
 11
-50.9997735052
 21
-16.1394991238
  0
LINE
  5
5CC
100
AcDbEntity
  8
ASSI
100
AcDbLine
 62
253
  6
CONTINUOUS
 10
-50.9997735052
 20
-15.8113818759
 11
-50.9997735052
 21
-16.1394991238
  0
LINE
  5
5CD
100
AcDbEntity
  8
RACCORDO
100
AcDbLine
 62
253
  6
CONTINUOUS
 10
-50.9997735052
 20
-14.1886181241
 11
-50.9997735052
 21
-13.8605008762
  0
LINE
  5
5CE
100
AcDbEntity
  8
ASSI
100
AcDbLine
 62
253
  6
CONTINUOUS
 10
-50.9997735052
 20
-14.1886181241
 11
-50.9997735052
 21
-13.8605008762
  0
LINE
  5
5CF
100
AcDbEntity
  8
RACCORDO
100
AcDbLine
 62
253
  6
CONTINUOUS
 10
-50.9997735052
 20
-9.1886181241
 11
-50.9997735052
 21
-8.8605008762
  0
LINE
  5
5D0
100
AcDbEntity
  8
ASSI
100
AcDbLine
 62
253
  6
CONTINUOUS
 10
-50.9997735052
 20
-9.1886181241
 11
-50.9997735052
 21
-8.8605008762
  0
LINE
  5
5D1
100
AcDbEntity
  8
RACCORDO
100
AcDbLine
 62
253
  6
CONTINUOUS
 10
-50.9997735052
 20
-4.1886181241
 11
-50.9997735052
 21
-3.8605008762
  0
LINE
  5
5D2
100
AcDbEntity
  8
ASSI
100
AcDbLine
 62
253
  6
CONTINUOUS
 10
-50.9997735052
 20
-4.1886181241
 11
-50.9997735052
 21
-3.8605008762
  0
LINE
  5
5D3
100
AcDbEntity
  8
RACCORDO
100
AcDbLine
 62
253
  6
CONTINUOUS
 10
-50.9997735052
 20
0.8113818759
 11
-50.9997735052
 21
1.1394991238
  0
LINE
  5
5D4
100
AcDbEntity
  8
ASSI
100
AcDbLine
 62
253
  6
CONTINUOUS
 10
-50.9997735052
 20
0.8113818759
 11
-50.9997735052
 21
1.1394991238
  0
LINE
  5
5D5
100
AcDbEntity
  8
RACCORDO
100
AcDbLine
 62
253
  6
CONTINUOUS
 10
-50.9997735052
 20
5.8113818759
 11
-50.9997735052
 21
6.1394991238
  0
LINE
  5
5D6
100
AcDbEntity
  8
ASSI
100
AcDbLine
 62
253
  6
CONTINUOUS
 10
-50.9997735052
 20
5.8113818759
 11
-50.9997735052
 21
6.1394991238
  0
LINE
  5
5D7
100
AcDbEntity
  8
RACCORDO
100
AcDbLine
 62
253
  6
CONTINUOUS
 10
-50.9997735052
 20
10.8113818759
 11
-50.9997735052
 21
11.1394991238
  0
LINE
  5
5D8
100
AcDbEntity
  8
ASSI
100
AcDbLine
 62
253
  6
CONTINUOUS
 10
-50.9997735052
 20
10.8113818759
 11
-50.9997735052
 21
11.1394991238
  0
LINE
  5
5D9
100
AcDbEntity
  8
RACCORDO
100
AcDbLine
 62
253
  6
CONTINUOUS
 10
-50.9997735052
 20
15.8113818759
 11
-50.9997735052
 21
16.1394991238
  0
LINE
  5
5DA
100
AcDbEntity
  8
ASSI
100
AcDbLine
 62
253
  6
CONTINUOUS
 10
-50.9997735052
 20
15.8113818759
 11
-50.9997735052
 21
16.1394991238
  0
LINE
  5
5DB
100
AcDbEntity
  8
0
100
AcDbLine
 62
253
  6
CONTINUOUS
 10
-50.9197735052
 20
-14.5
 11
-50.9197735052
 21
-14.1888051927
  0
LINE
  5
5DC
100
AcDbEntity
  8
RACCORDO
100
AcDbLine
 62
7
  6
CONTINUOUS
 10
-24.7497735052
 20
0.75
 11
-23.2497735052
 21
0.75
  0
LINE
  5
5DD
100
AcDbEntity
  8
ASSI
100
AcDbLine
 62
7
  6
CONTINUOUS
 10
-24.7497735052
 20
0.75
 11
-23.2497735052
 21
0.75
  0
LINE
  5
5DE
100
AcDbEntity
  8
RACCORDO
100
AcDbLine
 62
7
  6
CONTINUOUS
 10
-24.7497735052
 20
0.75
 11
-32.7497735052
 21
0.7687068574
  0
LINE
  5
5DF
100
AcDbEntity
  8
ASSI
100
AcDbLine
 62
7
  6
CONTINUOUS
 10
-24.7497735052
 20
0.75
 11
-32.7497735052
 21
0.7687068574
  0
LINE
  5
5E0
100
AcDbEntity
  8
RACCORDO
100
AcDbLine
 62
7
  6
CONTINUOUS
 10
-46.5497735052
 20
0.8009761865
 11
-50.9997735052
 21
0.8113818759
  0
LINE
  5
5E1
100
AcDbEntity
  8
ASSI
100
AcDbLine
 62
7
  6
CONTINUOUS
 10
-46.5497735052
 20
0.8009761865
 11
-50.9997735052
 21
0.8113818759
  0
LINE
  5
5E2
100
AcDbEntity
  8
RACCORDO
100
AcDbLine
 62
7
  6
CONTINUOUS
 10
-24.2323210987
 20
1.0143058604
 11
-50.9997735052
 21
1.1394991238
  0
LINE
  5
5E3
100
AcDbEntity
  8
ASSI
100
AcDbLine
 62
7
  6
CONTINUOUS
 10
-24.2323210987
 20
1.0143058604
 11
-50.9997735052
 21
1.1394991238
  0
LINE
  5
5E4
100
AcDbEntity
  8
RACCORDO
100
AcDbLine
 62
7
  6
CONTINUOUS
 10
-24.2323210987
 20
2.8726812334
 11
-29.4497735052
 21
2.9
  0
LINE
  5
5E5
100
AcDbEntity
  8
ASSI
100
AcDbLine
 62
7
  6
CONTINUOUS
 10
-24.2323210987
 20
2.8726812334
 11
-29.4497735052
 21
2.9
  0
LINE
  5
5E6
100
AcDbEntity
  8
DRAFT
100
AcDbLine
 62
7
  6
CONTINUOUS
 10
-25.7497735052
 20
2.8980602259
 11
-29.4678149293
 21
2.9180914279
  0
LINE
  5
5E7
100
AcDbEntity
  8
RACCORDO
100
AcDbLine
 62
7
  6
CONTINUOUS
 10
-23.2497735052
 20
2.8843640409
 11
-25.7497735052
 21
2.8982117355
  0
LINE
  5
5E8
100
AcDbEntity
  8
ASSI
100
AcDbLine
 62
7
  6
CONTINUOUS
 10
-23.2497735052
 20
2.8843640409
 11
-29.4678149293
 21
2.9180914279
  0
LINE
  5
5E9
100
AcDbEntity
  8
0
100
AcDbLine
 62
253
  6
CONTINUOUS
 10
-59.6503886601
 20
8.493405
 11
-56.7424896147
 21
5.986586
  0
LINE
  5
5EA
100
AcDbEntity
  8
0
100
AcDbLine
 62
253
  6
CONTINUOUS
 10
-59.3477677578
 20
8.498725
 11
-56.7424896147
 21
6.25281
  0
LINE
  5
5EB
100
AcDbEntity
  8
0
100
AcDbLine
 62
7
  6
CONTINUOUS
 10
-50.3497735052
 20
-15.8098619437
 11
-50.3497735052
 21
-14.1901380563
  0
LINE
  5
5EC
100
AcDbEntity
  8
0
100
AcDbLine
 62
7
  6
CONTINUOUS
 10
-50.3497735052
 20
-10.8098619437
 11
-50.3497735052
 21
-9.1901380563
  0
LINE
  5
5ED
100
AcDbEntity
  8
0
100
AcDbLine
 62
7
  6
CONTINUOUS
 10
-50.3497735052
 20
-5.8098619437
 11
-50.3497735052
 21
-4.1901380563
  0
LINE
  5
5EE
100
AcDbEntity
  8
0
100
AcDbLine
 62
7
  6
CONTINUOUS
 10
-50.3497735052
 20
-0.8098619437
 11
-50.3497735052
 21
0.8098619437
  0
LINE
  5
5EF
100
AcDbEntity
  8
0
100
AcDbLine
 62
7
  6
CONTINUOUS
 10
-50.3497735052
 20
4.1901380563
 11
-50.3497735052
 21
5.8098619437
  0
LINE
  5
5F0
100
AcDbEntity
  8
0
100
AcDbLine
 62
7
  6
CONTINUOUS
 10
-49.5497735052
 20
-15.807991258
 11
-49.5497735052
 21
-14.192008742
  0
LINE
  5
5F1
100
AcDbEntity
  8
0
100
AcDbLine
 62
7
  6
CONTINUOUS
 10
-49.5497735052
 20
-10.807991258
 11
-49.5497735052
 21
-9.192008742
  0
LINE
  5
5F2
100
AcDbEntity
  8
0
100
AcDbLine
 62
7
  6
CONTINUOUS
 10
-49.5497735052
 20
-5.807991258
 11
-49.5497735052
 21
-4.192008742
  0
LINE
  5
5F3
100
AcDbEntity
  8
0
100
AcDbLine
 62
7
  6
CONTINUOUS
 10
-49.5497735052
 20
-0.807991258
 11
-49.5497735052
 21
0.807991258
  0
LINE
  5
5F4
100
AcDbEntity
  8
0
100
AcDbLine
 62
7
  6
CONTINUOUS
 10
-49.5497735052
 20
4.192008742
 11
-49.5497735052
 21
5.807991258
  0
LINE
  5
5F5
100
AcDbEntity
  8
DRAFT
100
AcDbLine
 62
7
  6
CONTINUOUS
 10
-29.4678149293
 20
17.0819085721
 11
-29.4497735052
 21
17.1
  0
LINE
  5
5F6
100
AcDbEntity
  8
ASSI
100
AcDbLine
 62
7
  6
CONTINUOUS
 10
-29.4678149293
 20
17.0819085721
 11
-29.4497735052
 21
17.1
  0
LINE
  5
5F7
100
AcDbEntity
  8
CURVE
100
AcDbLine
 62
253
  6
CONTINUOUS
 10
-59.6569876549
 20
-7.92899
 11
-56.7577762861
 21
-7.039304
  0
LINE
  5
5F8
100
AcDbEntity
  8
RACCORDO
100
AcDbLine
 62
7
  6
CONTINUOUS
 10
-31.2700280711
 20
3.9527782875
 11
-50.9997735052
 21
3.8605008762
  0
LINE
  5
5F9
100
AcDbEntity
  8
ASSI
100
AcDbLine
 62
7
  6
CONTINUOUS
 10
-31.2700280711
 20
3.9527782875
 11
-50.9997735052
 21
3.8605008762
  0
LINE
  5
5FA
100
AcDbEntity
  8
RACCORDO
100
AcDbLine
 62
7
  6
CONTINUOUS
 10
-31.403888768
 20
4.2344403018
 11
-32.7497735052
 21
4.2312931426
  0
LINE
  5
5FB
100
AcDbEntity
  8
ASSI
100
AcDbLine
 62
7
  6
CONTINUOUS
 10
-31.403888768
 20
4.2344403018
 11
-32.7497735052
 21
4.2312931426
  0
LINE
  5
5FC
100
AcDbEntity
  8
RACCORDO
100
AcDbLine
 62
7
  6
CONTINUOUS
 10
-46.5497735052
 20
4.1990238135
 11
-50.9997735052
 21
4.1886181241
  0
LINE
  5
5FD
100
AcDbEntity
  8
ASSI
100
AcDbLine
 62
7
  6
CONTINUOUS
 10
-46.5497735052
 20
4.1990238135
 11
-50.9997735052
 21
4.1886181241
  0
LINE
  5
5FE
100
AcDbEntity
  8
0
100
AcDbLine
 62
253
  6
CONTINUOUS
 10
-59.6503886601
 20
13.37271
 11
-58.1946904038
 21
11.91679
  0
LINE
  5
5FF
100
AcDbEntity
  8
0
100
AcDbLine
 62
253
  6
CONTINUOUS
 10
-58.1946904038
 20
12.201957
 11
-59.6503886601
 21
13.657831
  0
LINE
  5
600
100
AcDbEntity
  8
RACCORDO
100
AcDbLine
 62
253
  6
CONTINUOUS
 10
-46.6997735052
 20
9.19867306
 11
-46.6997735052
 21
10.80132694
  0
LINE
  5
601
100
AcDbEntity
  8
RACCORDO
100
AcDbLine
 62
253
  6
CONTINUOUS
 10
-46.6997735052
 20
14.19867306
 11
-46.6997735052
 21
15.80132694
  0
LINE
  5
602
100
AcDbEntity
  8
RACCORDO
100
AcDbLine
 62
7
  6
CONTINUOUS
 10
-46.5497735052
 20
10.8009761865
 11
-46.5497735052
 21
9.1990238135
  0
LINE
  5
603
100
AcDbEntity
  8
RACCORDO
100
AcDbLine
 62
7
  6
CONTINUOUS
 10
-46.5497735052
 20
5.8009761865
 11
-46.5497735052
 21
4.1990238135
  0
LINE
  5
604
100
AcDbEntity
  8
RACCORDO
100
AcDbLine
 62
7
  6
CONTINUOUS
 10
-46.5497735052
 20
0.8009761865
 11
-46.5497735052
 21
-0.8009761865
  0
LINE
  5
605
100
AcDbEntity
  8
RACCORDO
100
AcDbLine
 62
7
  6
CONTINUOUS
 10
-46.5497735052
 20
-4.1990238135
 11
-46.5497735052
 21
-5.8009761865
  0
LINE
  5
606
100
AcDbEntity
  8
RACCORDO
100
AcDbLine
 62
7
  6
CONTINUOUS
 10
-46.5497735052
 20
-9.1990238135
 11
-46.5497735052
 21
-10.8009761865
  0
LINE
  5
607
100
AcDbEntity
  8
RACCORDO
100
AcDbLine
 62
7
  6
CONTINUOUS
 10
-46.5497735052
 20
-14.1990238135
 11
-46.5497735052
 21
-15.8009761865
  0
LINE
  5
608
100
AcDbEntity
  8
RACCORDO
100
AcDbLine
 62
7
  6
CONTINUOUS
 10
-46.5497735052
 20
14.1990238135
 11
-46.5497735052
 21
15.8009761865
  0
LINE
  5
609
100
AcDbEntity
  8
DRAFT
100
AcDbLine
 62
7
  6
CONTINUOUS
 10
-29.4678149293
 20
12.0819085721
 11
-29.4497735052
 21
12.1
  0
LINE
  5
60A
100
AcDbEntity
  8
ASSI
100
AcDbLine
 62
7
  6
CONTINUOUS
 10
-29.4678149293
 20
12.0819085721
 11
-29.4497735052
 21
12.1
  0
LINE
  5
60B
100
AcDbEntity
  8
0
100
AcDbLine
 62
7
  6
CONTINUOUS
 10
-28.104870847
 20
16.639877405
 11
-30.8896509101
 21
13.8550973418
  0
LINE
  5
60C
100
AcDbEntity
  8
0
100
AcDbLine
 62
7
  6
CONTINUOUS
 10
-30.3946761633
 20
13.360122595
 11
-27.6098961002
 21
16.1449026581
  0
LINE
  5
60D
100
AcDbEntity
  8
RACCORDO
100
AcDbLine
 62
7
  6
CONTINUOUS
 10
-25.7497735052
 20
7.1017882645
 11
-23.2497735052
 21
7.1156359591
  0
LINE
  5
60E
100
AcDbEntity
  8
DRAFT
100
AcDbLine
 62
7
  6
CONTINUOUS
 10
-25.7497735052
 20
7.1019397741
 11
-29.4678149293
 21
7.0819085721
  0
LINE
  5
60F
100
AcDbEntity
  8
ASSI
100
AcDbLine
 62
7
  6
CONTINUOUS
 10
-23.2497735052
 20
7.1156359591
 11
-29.4678149293
 21
7.0819085721
  0
LINE
  5
610
100
AcDbEntity
  8
RACCORDO
100
AcDbLine
 62
7
  6
CONTINUOUS
 10
-24.2323210987
 20
7.1273187666
 11
-29.4497735052
 21
7.1
  0
LINE
  5
611
100
AcDbEntity
  8
ASSI
100
AcDbLine
 62
7
  6
CONTINUOUS
 10
-24.2323210987
 20
7.1273187666
 11
-29.4497735052
 21
7.1
  0
LINE
  5
612
100
AcDbEntity
  8
0
100
AcDbLine
 62
253
  6
CONTINUOUS
 10
-58.2646347493
 20
7.777789
 11
-58.0630284596
 21
7.777789
  0
LINE
  5
613
100
AcDbEntity
  8
0
100
AcDbLine
 62
253
  6
CONTINUOUS
 10
-59.3477677578
 20
8.498725
 11
-58.2646347493
 21
8.498725
  0
LINE
  5
614
100
AcDbEntity
  8
0
100
AcDbLine
 62
253
  6
CONTINUOUS
 10
-58.0630284596
 20
8.498725
 11
-56.7424896147
 21
8.498725
  0
LINE
  5
615
100
AcDbEntity
  8
RACCORDO
100
AcDbLine
 62
7
  6
CONTINUOUS
 10
-31.403888768
 20
5.7655596982
 11
-32.7497735052
 21
5.7687068574
  0
LINE
  5
616
100
AcDbEntity
  8
ASSI
100
AcDbLine
 62
7
  6
CONTINUOUS
 10
-31.403888768
 20
5.7655596982
 11
-32.7497735052
 21
5.7687068574
  0
LINE
  5
617
100
AcDbEntity
  8
RACCORDO
100
AcDbLine
 62
7
  6
CONTINUOUS
 10
-46.5497735052
 20
5.8009761865
 11
-50.9997735052
 21
5.8113818759
  0
LINE
  5
618
100
AcDbEntity
  8
ASSI
100
AcDbLine
 62
7
  6
CONTINUOUS
 10
-46.5497735052
 20
5.8009761865
 11
-50.9997735052
 21
5.8113818759
  0
LINE
  5
619
100
AcDbEntity
  8
RACCORDO
100
AcDbLine
 62
7
  6
CONTINUOUS
 10
-31.2700280711
 20
6.0472217125
 11
-50.9997735052
 21
6.1394991238
  0
LINE
  5
61A
100
AcDbEntity
  8
ASSI
100
AcDbLine
 62
7
  6
CONTINUOUS
 10
-31.2700280711
 20
6.0472217125
 11
-50.9997735052
 21
6.1394991238
  0
LINE
  5
61B
100
AcDbEntity
  8
RACCORDO
100
AcDbLine
 62
7
  6
CONTINUOUS
 10
-24.2323210987
 20
7.8726812334
 11
-29.4497735052
 21
7.9
  0
LINE
  5
61C
100
AcDbEntity
  8
ASSI
100
AcDbLine
 62
7
  6
CONTINUOUS
 10
-24.2323210987
 20
7.8726812334
 11
-29.4497735052
 21
7.9
  0
LINE
  5
61D
100
AcDbEntity
  8
DRAFT
100
AcDbLine
 62
7
  6
CONTINUOUS
 10
-25.7497735052
 20
7.8980602259
 11
-29.4678149293
 21
7.9180914279
  0
LINE
  5
61E
100
AcDbEntity
  8
RACCORDO
100
AcDbLine
 62
7
  6
CONTINUOUS
 10
-23.2497735052
 20
7.8843640409
 11
-25.7497735052
 21
7.8982117355
  0
LINE
  5
61F
100
AcDbEntity
  8
ASSI
100
AcDbLine
 62
7
  6
CONTINUOUS
 10
-23.2497735052
 20
7.8843640409
 11
-29.4678149293
 21
7.9180914279
  0
LINE
  5
620
100
AcDbEntity
  8
0
100
AcDbLine
 62
253
  6
CONTINUOUS
 10
-60.6288636109
 20
15.397974
 11
-59.9287042649
 21
14.697707
  0
LINE
  5
621
100
AcDbEntity
  8
0
100
AcDbLine
 62
253
  6
CONTINUOUS
 10
-59.9287042649
 20
14.982851
 11
-60.6288636109
 21
15.683094
  0
LINE
  5
622
100
AcDbEntity
  8
CURVE
100
AcDbLine
 62
253
  6
CONTINUOUS
 10
-54.6067096952
 20
10.0
 11
-55.149484126
 21
10.5428571671
  0
LINE
  5
623
100
AcDbEntity
  8
CURVE
100
AcDbLine
 62
253
  6
CONTINUOUS
 10
-55.149484126
 20
11.3571428895
 11
-54.8780969106
 21
11.0857143342
  0
LINE
  5
624
100
AcDbEntity
  8
CURVE
100
AcDbLine
 62
253
  6
CONTINUOUS
 10
-54.6067096952
 20
12.5785713315
 11
-55.149484126
 21
13.1214286685
  0
LINE
  5
625
100
AcDbEntity
  8
CURVE
100
AcDbLine
 62
253
  6
CONTINUOUS
 10
-53.2497735052
 20
11.3571428895
 11
-53.7925479925
 21
11.9
  0
LINE
  5
626
100
AcDbEntity
  8
0
100
AcDbLine
 62
7
  6
CONTINUOUS
 10
-28.104870847
 20
11.639877405
 11
-30.8896509101
 21
8.8550973418
  0
LINE
  5
627
100
AcDbEntity
  8
0
100
AcDbLine
 62
7
  6
CONTINUOUS
 10
-30.3946761633
 20
8.360122595
 11
-27.6098961002
 21
11.1449026581
  0
LINE
  5
628
100
AcDbEntity
  8
ASSI
100
AcDbLine
 62
7
  6
CONTINUOUS
 10
-63.7497735052
 20
-18.5
 11
-62.2497735052
 21
-17.6339745962
  0
LINE
  5
629
100
AcDbEntity
  8
CURVE
100
AcDbLine
 62
253
  6
CONTINUOUS
 10
-56.7577762861
 20
-11.040105
 11
-58.6509069092
 21
-11.750162
  0
LINE
  5
62A
100
AcDbEntity
  8
CURVE
100
AcDbLine
 62
253
  6
CONTINUOUS
 10
-59.6569876549
 20
-11.593234
 11
-58.0473368499
 21
-10.994355
  0
LINE
  5
62B
100
AcDbEntity
  8
0
100
AcDbLine
 62
7
  6
CONTINUOUS
 10
-74.2497735052
 20
7.325
 11
-80.98171023
 21
6.8542571266
  0
LINE
  5
62C
100
AcDbEntity
  8
DRAFT
100
AcDbLine
 62
7
  6
CONTINUOUS
 10
-73.970700454
 20
7.3446976589
 11
-72.8443721193
 21
7.4234582086
  0
LINE
  5
62D
100
AcDbEntity
  8
RACCORDO
100
AcDbLine
 62
7
  6
CONTINUOUS
 10
-31.2700280711
 20
8.9527782875
 11
-50.9997735052
 21
8.8605008762
  0
LINE
  5
62E
100
AcDbEntity
  8
ASSI
100
AcDbLine
 62
7
  6
CONTINUOUS
 10
-31.2700280711
 20
8.9527782875
 11
-50.9997735052
 21
8.8605008762
  0
LINE
  5
62F
100
AcDbEntity
  8
RACCORDO
100
AcDbLine
 62
7
  6
CONTINUOUS
 10
-31.403888768
 20
9.2344403018
 11
-32.7497735052
 21
9.2312931426
  0
LINE
  5
630
100
AcDbEntity
  8
ASSI
100
AcDbLine
 62
7
  6
CONTINUOUS
 10
-31.403888768
 20
9.2344403018
 11
-32.7497735052
 21
9.2312931426
  0
LINE
  5
631
100
AcDbEntity
  8
RACCORDO
100
AcDbLine
 62
7
  6
CONTINUOUS
 10
-46.5497735052
 20
9.1990238135
 11
-50.9997735052
 21
9.1886181241
  0
LINE
  5
632
100
AcDbEntity
  8
ASSI
100
AcDbLine
 62
7
  6
CONTINUOUS
 10
-46.5497735052
 20
9.1990238135
 11
-50.9997735052
 21
9.1886181241
  0
LINE
  5
633
100
AcDbEntity
  8
0
100
AcDbLine
 62
253
  6
CONTINUOUS
 10
-56.7424896147
 20
8.700362
 11
-59.6503886601
 21
8.700362
  0
LINE
  5
634
100
AcDbEntity
  8
0
100
AcDbLine
 62
253
  6
CONTINUOUS
 10
-59.634924876
 20
9.1317800542
 11
-59.4333184646
 21
9.1317800542
  0
LINE
  5
635
100
AcDbEntity
  8
CURVE
100
AcDbLine
 62
253
  6
CONTINUOUS
 10
-55.149484126
 20
10.5428571671
 11
-53.2497735052
 21
10.5428571671
  0
LINE
  5
636
100
AcDbEntity
  8
CURVE
100
AcDbLine
 62
253
  6
CONTINUOUS
 10
-54.8780969106
 20
11.0857143342
 11
-54.3353224799
 21
11.0857143342
  0
LINE
  5
637
100
AcDbEntity
  8
RACCORDO
100
AcDbLine
 62
7
  6
CONTINUOUS
 10
-31.403888768
 20
10.7655596982
 11
-32.7497735052
 21
10.7687068574
  0
LINE
  5
638
100
AcDbEntity
  8
ASSI
100
AcDbLine
 62
7
  6
CONTINUOUS
 10
-31.403888768
 20
10.7655596982
 11
-32.7497735052
 21
10.7687068574
  0
LINE
  5
639
100
AcDbEntity
  8
RACCORDO
100
AcDbLine
 62
7
  6
CONTINUOUS
 10
-46.5497735052
 20
10.8009761865
 11
-50.9997735052
 21
10.8113818759
  0
LINE
  5
63A
100
AcDbEntity
  8
ASSI
100
AcDbLine
 62
7
  6
CONTINUOUS
 10
-46.5497735052
 20
10.8009761865
 11
-50.9997735052
 21
10.8113818759
  0
LINE
  5
63B
100
AcDbEntity
  8
RACCORDO
100
AcDbLine
 62
7
  6
CONTINUOUS
 10
-31.2700280711
 20
11.0472217125
 11
-50.9997735052
 21
11.1394991238
  0
LINE
  5
63C
100
AcDbEntity
  8
ASSI
100
AcDbLine
 62
7
  6
CONTINUOUS
 10
-31.2700280711
 20
11.0472217125
 11
-50.9997735052
 21
11.1394991238
  0
LINE
  5
63D
100
AcDbEntity
  8
ASSI
100
AcDbLine
 62
7
  6
CONTINUOUS
 10
-62.2497735052
 20
17.6339745962
 11
-63.7497735052
 21
18.5
  0
LINE
  5
63E
100
AcDbEntity
  8
CURVE
100
AcDbLine
 62
253
  6
CONTINUOUS
 10
-54.8780969106
 20
15.157142663
 11
-55.149484126
 21
15.428571558
  0
LINE
  5
63F
100
AcDbEntity
  8
CURVE
100
AcDbLine
 62
253
  6
CONTINUOUS
 10
-53.2497735052
 20
14.207142663
 11
-53.5211607488
 21
14.478571558
  0
LINE
  5
640
100
AcDbEntity
  8
CURVE
100
AcDbLine
 62
253
  6
CONTINUOUS
 10
-53.5211607488
 20
15.835714221
 11
-53.2497735052
 21
15.564285779
  0
LINE
  5
641
100
AcDbEntity
  8
DRAFT
100
AcDbLine
 62
7
  6
CONTINUOUS
 10
-29.4678149293
 20
7.0819085721
 11
-29.4497735052
 21
7.1
  0
LINE
  5
642
100
AcDbEntity
  8
ASSI
100
AcDbLine
 62
7
  6
CONTINUOUS
 10
-29.4678149293
 20
7.0819085721
 11
-29.4497735052
 21
7.1
  0
LINE
  5
643
100
AcDbEntity
  8
0
100
AcDbLine
 62
7
  6
CONTINUOUS
 10
-28.104870847
 20
6.639877405
 11
-30.8896509101
 21
3.8550973418
  0
LINE
  5
644
100
AcDbEntity
  8
0
100
AcDbLine
 62
7
  6
CONTINUOUS
 10
-30.3946761633
 20
3.360122595
 11
-27.6098961002
 21
6.1449026581
  0
LINE
  5
645
100
AcDbEntity
  8
CURVE
100
AcDbLine
 62
253
  6
CONTINUOUS
 10
-56.7577762861
 20
-15.081013
 11
-59.6569876549
 21
-16.00026
  0
LINE
  5
646
100
AcDbEntity
  8
RACCORDO
100
AcDbLine
 62
7
  6
CONTINUOUS
 10
-25.7497735052
 20
12.1017882645
 11
-23.2497735052
 21
12.1156359591
  0
LINE
  5
647
100
AcDbEntity
  8
DRAFT
100
AcDbLine
 62
7
  6
CONTINUOUS
 10
-25.7497735052
 20
12.1019397741
 11
-29.4678149293
 21
12.0819085721
  0
LINE
  5
648
100
AcDbEntity
  8
ASSI
100
AcDbLine
 62
7
  6
CONTINUOUS
 10
-23.2497735052
 20
12.1156359591
 11
-29.4678149293
 21
12.0819085721
  0
LINE
  5
649
100
AcDbEntity
  8
RACCORDO
100
AcDbLine
 62
7
  6
CONTINUOUS
 10
-24.2323210987
 20
12.1273187666
 11
-29.4497735052
 21
12.1
  0
LINE
  5
64A
100
AcDbEntity
  8
ASSI
100
AcDbLine
 62
7
  6
CONTINUOUS
 10
-24.2323210987
 20
12.1273187666
 11
-29.4497735052
 21
12.1
  0
LINE
  5
64B
100
AcDbEntity
  8
RACCORDO
100
AcDbLine
 62
7
  6
CONTINUOUS
 10
-31.2700280711
 20
13.9527782875
 11
-50.9997735052
 21
13.8605008762
  0
LINE
  5
64C
100
AcDbEntity
  8
ASSI
100
AcDbLine
 62
7
  6
CONTINUOUS
 10
-31.2700280711
 20
13.9527782875
 11
-50.9997735052
 21
13.8605008762
  0
LINE
  5
64D
100
AcDbEntity
  8
0
100
AcDbLine
 62
253
  6
CONTINUOUS
 10
-59.6445255532
 20
11.610715
 11
-56.7424896147
 21
11.610715
  0
LINE
  5
64E
100
AcDbEntity
  8
0
100
AcDbLine
 62
253
  6
CONTINUOUS
 10
-56.7424896147
 20
11.812352
 11
-59.6445255532
 21
11.812352
  0
LINE
  5
64F
100
AcDbEntity
  8
CURVE
100
AcDbLine
 62
253
  6
CONTINUOUS
 10
-54.3353224799
 20
12.035714221
 11
-54.8780969106
 21
12.035714221
  0
LINE
  5
650
100
AcDbEntity
  8
CURVE
100
AcDbLine
 62
253
  6
CONTINUOUS
 10
-55.149484126
 20
13.1214286685
 11
-53.2497735052
 21
13.1214286685
  0
LINE
  5
651
100
AcDbEntity
  8
CURVE
100
AcDbLine
 62
253
  6
CONTINUOUS
 10
-54.3353224799
 20
13.664285779
 11
-55.149484126
 21
13.664285779
  0
LINE
  5
652
100
AcDbEntity
  8
RACCORDO
100
AcDbLine
 62
7
  6
CONTINUOUS
 10
-24.2323210987
 20
12.8726812334
 11
-29.4497735052
 21
12.9
  0
LINE
  5
653
100
AcDbEntity
  8
ASSI
100
AcDbLine
 62
7
  6
CONTINUOUS
 10
-24.2323210987
 20
12.8726812334
 11
-29.4497735052
 21
12.9
  0
LINE
  5
654
100
AcDbEntity
  8
DRAFT
100
AcDbLine
 62
7
  6
CONTINUOUS
 10
-25.7497735052
 20
12.8980602259
 11
-29.4678149293
 21
12.9180914279
  0
LINE
  5
655
100
AcDbEntity
  8
RACCORDO
100
AcDbLine
 62
7
  6
CONTINUOUS
 10
-23.2497735052
 20
12.8843640409
 11
-25.7497735052
 21
12.8982117355
  0
LINE
  5
656
100
AcDbEntity
  8
ASSI
100
AcDbLine
 62
7
  6
CONTINUOUS
 10
-23.2497735052
 20
12.8843640409
 11
-29.4678149293
 21
12.9180914279
  0
LINE
  5
657
100
AcDbEntity
  8
CURVE
100
AcDbLine
 62
253
  6
CONTINUOUS
 10
-53.7925479925
 20
11.9
 11
-54.3353224799
 21
12.035714221
  0
LINE
  5
658
100
AcDbEntity
  8
CURVE
100
AcDbLine
 62
253
  6
CONTINUOUS
 10
-54.6067096952
 20
15.021428442
 11
-54.8780969106
 21
15.157142663
  0
LINE
  5
659
100
AcDbEntity
  8
ASSI
100
AcDbLine
 62
7
  6
CONTINUOUS
 10
-66.1247735052
 20
-23.6278312164
 11
-65.2452255751
 21
-23.1200239821
  0
LINE
  5
65A
100
AcDbEntity
  8
ASSI
100
AcDbLine
 62
253
  6
CONTINUOUS
 10
-66.0282639864
 20
-23.8010362971
 11
-65.0041366068
 21
-23.2097560788
  0
LINE
  5
65B
100
AcDbEntity
  8
RACCORDO
100
AcDbLine
 62
7
  6
CONTINUOUS
 10
-31.403888768
 20
14.2344403018
 11
-32.7497735052
 21
14.2312931426
  0
LINE
  5
65C
100
AcDbEntity
  8
ASSI
100
AcDbLine
 62
7
  6
CONTINUOUS
 10
-31.403888768
 20
14.2344403018
 11
-32.7497735052
 21
14.2312931426
  0
LINE
  5
65D
100
AcDbEntity
  8
RACCORDO
100
AcDbLine
 62
7
  6
CONTINUOUS
 10
-46.5497735052
 20
14.1990238135
 11
-50.9997735052
 21
14.1886181241
  0
LINE
  5
65E
100
AcDbEntity
  8
ASSI
100
AcDbLine
 62
7
  6
CONTINUOUS
 10
-46.5497735052
 20
14.1990238135
 11
-50.9997735052
 21
14.1886181241
  0
LINE
  5
65F
100
AcDbEntity
  8
0
100
AcDbLine
 62
253
  6
CONTINUOUS
 10
-59.6466522293
 20
14.079481
 11
-56.7497735052
 21
14.079481
  0
LINE
  5
660
100
AcDbEntity
  8
0
100
AcDbLine
 62
253
  6
CONTINUOUS
 10
-56.9513797949
 20
14.281118
 11
-59.4450459396
 21
14.281118
  0
LINE
  5
661
100
AcDbEntity
  8
CURVE
100
AcDbLine
 62
253
  6
CONTINUOUS
 10
-53.5211607488
 20
14.478571558
 11
-54.0639352079
 21
14.478571558
  0
LINE
  5
662
100
AcDbEntity
  8
0
100
AcDbLine
 62
253
  6
CONTINUOUS
 10
-58.2645407636
 20
14.920014
 11
-58.064069301
 21
14.920014
  0
LINE
  5
663
100
AcDbEntity
  8
CURVE
100
AcDbLine
 62
253
  6
CONTINUOUS
 10
-53.7925479925
 20
15.021428442
 11
-54.6067096952
 21
15.021428442
  0
LINE
  5
664
100
AcDbEntity
  8
RACCORDO
100
AcDbLine
 62
253
  6
CONTINUOUS
 10
-32.7497735052
 20
15.1
 11
-46.5497735052
 21
15.1
  0
LINE
  5
665
100
AcDbEntity
  8
0
100
AcDbLine
 62
253
  6
CONTINUOUS
 10
-58.064069301
 20
15.920301
 11
-58.2645407636
 21
15.920301
  0
LINE
  5
666
100
AcDbEntity
  8
CURVE
100
AcDbLine
 62
253
  6
CONTINUOUS
 10
-54.6067096952
 20
15.971428442
 11
-53.7925479925
 21
15.971428442
  0
LINE
  5
667
100
AcDbEntity
  8
0
100
AcDbLine
 62
253
  6
CONTINUOUS
 10
-59.4450459396
 20
15.975334
 11
-59.6466522293
 21
15.975334
  0
LINE
  5
668
100
AcDbEntity
  8
0
100
AcDbLine
 62
253
  6
CONTINUOUS
 10
-56.7497735052
 20
16.0
 11
-56.9513797949
 21
16.0
  0
LINE
  5
669
100
AcDbEntity
  8
RACCORDO
100
AcDbLine
 62
7
  6
CONTINUOUS
 10
-31.403888768
 20
15.7655596982
 11
-50.9997735052
 21
15.8113818759
  0
LINE
  5
66A
100
AcDbEntity
  8
ASSI
100
AcDbLine
 62
7
  6
CONTINUOUS
 10
-31.403888768
 20
15.7655596982
 11
-50.9997735052
 21
15.8113818759
  0
LINE
  5
66B
100
AcDbEntity
  8
RACCORDO
100
AcDbLine
 62
7
  6
CONTINUOUS
 10
-31.2700280711
 20
16.0472217125
 11
-50.9997735052
 21
16.1394991238
  0
LINE
  5
66C
100
AcDbEntity
  8
ASSI
100
AcDbLine
 62
7
  6
CONTINUOUS
 10
-31.2700280711
 20
16.0472217125
 11
-50.9997735052
 21
16.1394991238
  0
LINE
  5
66D
100
AcDbEntity
  8
CURVE
100
AcDbLine
 62
253
  6
CONTINUOUS
 10
-53.7925479925
 20
15.971428442
 11
-53.5211607488
 21
15.835714221
  0
LINE
  5
66E
100
AcDbEntity
  8
ASSI
100
AcDbLine
 62
7
  6
CONTINUOUS
 10
-66.1248467023
 20
23.6278734767
 11
-65.2452255751
 21
23.1200239821
  0
LINE
  5
66F
100
AcDbEntity
  8
ASSI
100
AcDbLine
 62
253
  6
CONTINUOUS
 10
-66.0282639864
 20
23.8010362971
 11
-65.0041366068
 21
23.2097560788
  0
LINE
  5
670
100
AcDbEntity
  8
RACCORDO
100
AcDbLine
 62
7
  6
CONTINUOUS
 10
-25.7497735052
 20
17.1017882645
 11
-23.2497735052
 21
17.1156359591
  0
LINE
  5
671
100
AcDbEntity
  8
DRAFT
100
AcDbLine
 62
7
  6
CONTINUOUS
 10
-25.7497735052
 20
17.1019397741
 11
-29.4678149293
 21
17.0819085721
  0
LINE
  5
672
100
AcDbEntity
  8
ASSI
100
AcDbLine
 62
7
  6
CONTINUOUS
 10
-23.2497735052
 20
17.1156359591
 11
-29.4678149293
 21
17.0819085721
  0
LINE
  5
673
100
AcDbEntity
  8
RACCORDO
100
AcDbLine
 62
7
  6
CONTINUOUS
 10
-24.2323210987
 20
17.1273187666
 11
-29.4497735052
 21
17.1
  0
LINE
  5
674
100
AcDbEntity
  8
ASSI
100
AcDbLine
 62
7
  6
CONTINUOUS
 10
-24.2323210987
 20
17.1273187666
 11
-29.4497735052
 21
17.1
  0
LINE
  5
675
100
AcDbEntity
  8
RACCORDO
100
AcDbLine
 62
253
  6
CONTINUOUS
 10
-24.2323210987
 20
17.3968281299
 11
-23.2497735052
 21
17.3968281299
  0
LINE
  5
676
100
AcDbEntity
  8
ASSI
100
AcDbLine
 62
253
  6
CONTINUOUS
 10
-24.2323210987
 20
17.3968281299
 11
-23.2497735052
 21
17.3968281299
  0
LINE
  5
677
100
AcDbEntity
  8
RACCORDO
100
AcDbLine
 62
253
  6
CONTINUOUS
 10
-24.2323210987
 20
17.3968281299
 11
-62.2497735052
 21
17.6716990487
  0
LINE
  5
678
100
AcDbEntity
  8
ASSI
100
AcDbLine
 62
253
  6
CONTINUOUS
 10
-24.2323210987
 20
17.3968281299
 11
-62.2497735052
 21
17.6716990487
  0
LINE
  5
679
100
AcDbEntity
  8
ASSI
100
AcDbLine
 62
7
  6
CONTINUOUS
 10
-62.2497735052
 20
18.5638400026
 11
-62.7497735052
 21
18.5674550649
  0
LINE
  5
67A
100
AcDbEntity
  8
RACCORDO
100
AcDbLine
 62
253
  6
CONTINUOUS
 10
-24.2323210987
 20
18.8108263007
 11
-62.2497735052
 21
19.0856972195
  0
LINE
  5
67B
100
AcDbEntity
  8
ASSI
100
AcDbLine
 62
253
  6
CONTINUOUS
 10
-24.2323210987
 20
18.8108263007
 11
-62.2497735052
 21
19.0856972195
  0
LINE
  5
67C
100
AcDbEntity
  8
ASSI
100
AcDbLine
 62
7
  6
CONTINUOUS
 10
-62.7497735052
 20
19.25
 11
-62.2497735052
 21
19.2412724675
  0
LINE
  5
67D
100
AcDbEntity
  8
RACCORDO
100
AcDbLine
 62
253
  6
CONTINUOUS
 10
-52.2497735052
 20
19.3181305591
 11
-24.2323210987
 21
18.8290841082
  0
LINE
  5
67E
100
AcDbEntity
  8
ASSI
100
AcDbLine
 62
253
  6
CONTINUOUS
 10
-52.2497735052
 20
19.3181305591
 11
-24.2323210987
 21
18.8290841082
  0
LINE
  5
67F
100
AcDbEntity
  8
DRAFT
100
AcDbLine
 62
7
  6
CONTINUOUS
 10
-29.4678149293
 20
2.9180914279
 11
-29.4497735052
 21
2.9
  0
LINE
  5
680
100
AcDbEntity
  8
ASSI
100
AcDbLine
 62
7
  6
CONTINUOUS
 10
-29.4678149293
 20
2.9180914279
 11
-29.4497735052
 21
2.9
  0
LINE
  5
681
100
AcDbEntity
  8
RACCORDO
100
AcDbLine
 62
7
  6
CONTINUOUS
 10
-32.7497735052
 20
15.7687068574
 11
-32.7497735052
 21
14.2312931426
  0
LINE
  5
682
100
AcDbEntity
  8
RACCORDO
100
AcDbLine
 62
7
  6
CONTINUOUS
 10
-32.7497735052
 20
10.7687068574
 11
-32.7497735052
 21
9.2312931426
  0
LINE
  5
683
100
AcDbEntity
  8
RACCORDO
100
AcDbLine
 62
7
  6
CONTINUOUS
 10
-32.7497735052
 20
5.7687068574
 11
-32.7497735052
 21
4.2312931426
  0
LINE
  5
684
100
AcDbEntity
  8
RACCORDO
100
AcDbLine
 62
7
  6
CONTINUOUS
 10
-32.7497735052
 20
0.7687068574
 11
-32.7497735052
 21
0.3
  0
LINE
  5
685
100
AcDbEntity
  8
RACCORDO
100
AcDbLine
 62
7
  6
CONTINUOUS
 10
-62.2497735052
 20
19.7
 11
-62.7497735052
 21
19.6956365661
  0
LINE
  5
686
100
AcDbEntity
  8
RACCORDO
100
AcDbLine
 62
253
  6
CONTINUOUS
 10
-62.2497735052
 20
19.8999986478
 11
-62.7497735052
 21
19.8956355334
  0
LINE
  5
687
100
AcDbEntity
  8
RACCORDO
100
AcDbLine
 62
253
  6
CONTINUOUS
 10
-62.7497735052
 20
20.6956400831
 11
-62.2497735052
 21
20.7000032536
  0
LINE
  5
688
100
AcDbEntity
  8
RACCORDO
100
AcDbLine
 62
253
  6
CONTINUOUS
 10
-56.5206408966
 20
20.7499976183
 11
-52.4480281981
 21
20.7855366255
  0
LINE
  5
689
100
AcDbEntity
  8
RACCORDO
100
AcDbLine
 62
7
  6
CONTINUOUS
 10
-52.4480281981
 20
20.9855385354
 11
-62.7497735052
 21
20.8956365661
  0
LINE
  5
68A
100
AcDbEntity
  8
RACCORDO
100
AcDbLine
 62
253
  6
CONTINUOUS
 10
-52.4462830239
 20
21.18553092
 11
-62.7497735052
 21
21.0956137208
  0
LINE
  5
68B
100
AcDbEntity
  8
RACCORDO
100
AcDbLine
 62
7
  6
CONTINUOUS
 10
-52.4834594417
 20
21.4576092846
 11
-62.7497735052
 21
21.4051134101
  0
LINE
  5
68C
100
AcDbEntity
  8
RACCORDO
100
AcDbLine
 62
253
  6
CONTINUOUS
 10
-52.4480281981
 20
20.7855461508
 11
-52.2497735052
 21
20.7855461507
  0
LINE
  5
68D
100
AcDbEntity
  8
RACCORDO
100
AcDbLine
 62
253
  6
CONTINUOUS
 10
-52.4462830239
 20
21.18553092
 11
-52.2497735052
 21
21.18553092
  0
LINE
  5
68E
100
AcDbEntity
  8
RACCORDO
100
AcDbLine
 62
253
  6
CONTINUOUS
 10
-52.4462830239
 20
21.2165694902
 11
-52.2497735052
 21
21.2165694901
  0
LINE
  5
68F
100
AcDbEntity
  8
RACCORDO
100
AcDbLine
 62
7
  6
CONTINUOUS
 10
-52.2497735052
 20
19.6109791689
 11
-24.2323210987
 21
19.121932718
  0
LINE
  5
690
100
AcDbEntity
  8
ASSI
100
AcDbLine
 62
7
  6
CONTINUOUS
 10
-52.2497735052
 20
19.6109791689
 11
-24.2323210987
 21
19.121932718
  0
LINE
  5
691
100
AcDbEntity
  8
DRAFT
100
AcDbLine
 62
7
  6
CONTINUOUS
 10
-62.2497735052
 20
20.85
 11
-52.2497735052
 21
20.6754493507
  0
LINE
  5
692
100
AcDbEntity
  8
ASSI
100
AcDbLine
 62
7
  6
CONTINUOUS
 10
-62.2497735052
 20
20.85
 11
-52.2497735052
 21
20.6754493507
  0
LINE
  5
693
100
AcDbEntity
  8
ASSI
100
AcDbLine
 62
253
  6
CONTINUOUS
 10
-62.7497735052
 20
21.8826210875
 11
-63.7497735052
 21
21.9000761524
  0
LINE
  5
694
100
AcDbEntity
  8
ASSI
100
AcDbLine
 62
253
  6
CONTINUOUS
 10
-71.5692621357
 20
20.855825359
 11
-72.0545899474
 21
20.8772675172
  0
LWPOLYLINE
  5
695
100
AcDbEntity
  8
0
100
AcDbPolyline
 62
7
  6
CONTINUOUS
 90
10
 70
0
 43
0.3500000006
 10
-52.4283446503
 20
46.6434563141
 10
-52.3569179993
 20
46.5005984802
 10
-52.3569179993
 20
46.4291718292
 10
-52.4997713013
 20
46.2863139954
 10
-52.5712024841
 20
46.2863139954
 10
-52.6426291351
 20
46.3577406464
 10
-52.6426291351
 20
46.4291718292
 10
-52.5712024841
 20
46.5720296631
 10
-52.4997713013
 20
46.6434563141
 10
-52.4283446503
 20
46.6434563141
  0
LINE
  5
696
100
AcDbEntity
  8
ASSI
100
AcDbLine
 62
253
  6
CONTINUOUS
 10
-63.7497735052
 20
21.8999997649
 11
-70.9037703833
 21
21.5250746755
  0
LINE
  5
697
100
AcDbEntity
  8
ASSI
100
AcDbLine
 62
7
  6
CONTINUOUS
 10
-71.2693888829
 20
22.005913657
 11
-65.0775237899
 21
22.3304155561
  0
LINE
  5
698
100
AcDbEntity
  8
ASSI
100
AcDbLine
 62
7
  6
CONTINUOUS
 10
-63.7497786131
 20
22.3999997323
 11
-63.9588210433
 21
22.3890442828
  0
LINE
  5
699
100
AcDbEntity
  8
ASSI
100
AcDbLine
 62
253
  6
CONTINUOUS
 10
-63.7497735052
 20
24.300030461
 11
-66.0041366068
 21
24.2606804067
  0
LINE
  5
69A
100
AcDbEntity
  8
ASSI
100
AcDbLine
 62
7
  6
CONTINUOUS
 10
-63.7497735052
 20
24.5
 11
-66.0041366068
 21
24.4606499457
  0
LINE
  5
69B
100
AcDbEntity
  8
ASSI
100
AcDbLine
 62
253
  6
CONTINUOUS
 10
-62.9462830239
 20
23.8443375673
 11
-62.7497735052
 21
23.8443375673
  0
LINE
  5
69C
100
AcDbEntity
  8
ASSI
100
AcDbLine
 62
253
  6
CONTINUOUS
 10
-66.0532639864
 20
23.8443375673
 11
-66.2497735052
 21
23.8443375672
  0
LINE
  5
69D
100
AcDbEntity
  8
ASSI
100
AcDbLine
 62
253
  6
CONTINUOUS
 10
-66.0532639864
 20
24.2106880219
 11
-66.2497735052
 21
24.2106880219
  0
LINE
  5
69E
100
AcDbEntity
  8
ASSI
100
AcDbLine
 62
253
  6
CONTINUOUS
 10
-62.9462830239
 20
24.2368706193
 11
-62.7497735052
 21
24.2368706193
  0
LINE
  5
69F
100
AcDbEntity
  8
ASSI
100
AcDbLine
 62
7
  6
CONTINUOUS
 10
-53.2323210987
 20
22.2164171854
 11
-63.7497698055
 21
22.3999999354
  0
LINE
  5
6A0
100
AcDbEntity
  8
ASSI
100
AcDbLine
 62
253
  6
CONTINUOUS
 10
-58.1212037249
 20
23.6517910252
 11
-62.7497735052
 21
23.7325830113
  0
LINE
  5
6A1
100
AcDbEntity
  8
ASSI
100
AcDbLine
 62
7
  6
CONTINUOUS
 10
-57.9954142919
 20
23.8995572863
 11
-62.7497735052
 21
23.9825449351
  0
LINE
  5
6A2
100
AcDbEntity
  8
ASSI
100
AcDbLine
 62
253
  6
CONTINUOUS
 10
-62.9954104035
 20
24.286863004
 11
-63.7497735052
 21
24.300030461
  0
LINE
  5
6A3
100
AcDbEntity
  8
ASSI
100
AcDbLine
 62
7
  6
CONTINUOUS
 10
-62.9954104035
 20
24.4868325431
 11
-63.7497735052
 21
24.5
  0
LINE
  5
6A4
100
AcDbEntity
  8
DRAFT
100
AcDbLine
 62
7
  6
CONTINUOUS
 10
-29.4678149293
 20
7.9180914279
 11
-29.4497735052
 21
7.9
  0
LINE
  5
6A5
100
AcDbEntity
  8
ASSI
100
AcDbLine
 62
7
  6
CONTINUOUS
 10
-29.4678149293
 20
7.9180914279
 11
-29.4497735052
 21
7.9
  0
LINE
  5
6A6
100
AcDbEntity
  8
0
100
AcDbLine
 62
7
  6
CONTINUOUS
 10
-26.7497735052
 20
17.0965522058
 11
-26.7497735052
 21
12.9034477942
  0
LINE
  5
6A7
100
AcDbEntity
  8
0
100
AcDbLine
 62
7
  6
CONTINUOUS
 10
-26.7497735052
 20
12.0965522058
 11
-26.7497735052
 21
7.9034477942
  0
LINE
  5
6A8
100
AcDbEntity
  8
0
100
AcDbLine
 62
7
  6
CONTINUOUS
 10
-26.7497735052
 20
7.0965522058
 11
-26.7497735052
 21
2.9034477942
  0
LINE
  5
6A9
100
AcDbEntity
  8
DRAFT
100
AcDbLine
 62
7
  6
CONTINUOUS
 10
-29.4678149293
 20
12.9180914279
 11
-29.4497735052
 21
12.9
  0
LINE
  5
6AA
100
AcDbEntity
  8
ASSI
100
AcDbLine
 62
7
  6
CONTINUOUS
 10
-29.4678149293
 20
12.9180914279
 11
-29.4497735052
 21
12.9
  0
LWPOLYLINE
  5
6AB
100
AcDbEntity
  8
0
100
AcDbPolyline
 62
7
  6
CONTINUOUS
 90
10
 70
0
 43
0.3500000006
 10
-42.0354882202
 20
36.6434577942
 10
-41.9640570374
 20
36.5005999603
 10
-41.9640570374
 20
36.4291687775
 10
-42.1069148712
 20
36.2863154755
 10
-42.1783460541
 20
36.2863154755
 10
-42.2497727051
 20
36.3577421265
 10
-42.2497727051
 20
36.4291687775
 10
-42.1783460541
 20
36.5720266113
 10
-42.1069148712
 20
36.6434577942
 10
-42.0354882202
 20
36.6434577942
  0
LINE
  5
6AC
100
AcDbEntity
  8
DRAFT
100
AcDbLine
 62
7
  6
CONTINUOUS
 10
-25.7497735052
 20
2.8980602259
 11
-25.7497735052
 21
7.1017882645
  0
LINE
  5
6AD
100
AcDbEntity
  8
ASSI
100
AcDbLine
 62
7
  6
CONTINUOUS
 10
-25.7497735052
 20
2.8980602259
 11
-25.7497735052
 21
7.1017882645
  0
LINE
  5
6AE
100
AcDbEntity
  8
DRAFT
100
AcDbLine
 62
7
  6
CONTINUOUS
 10
-25.7497735052
 20
7.8980602259
 11
-25.7497735052
 21
12.1017882645
  0
LINE
  5
6AF
100
AcDbEntity
  8
ASSI
100
AcDbLine
 62
7
  6
CONTINUOUS
 10
-25.7497735052
 20
7.8980602259
 11
-25.7497735052
 21
12.1017882645
  0
LINE
  5
6B0
100
AcDbEntity
  8
DRAFT
100
AcDbLine
 62
7
  6
CONTINUOUS
 10
-25.7497735052
 20
12.8980602259
 11
-25.7497735052
 21
17.1017882645
  0
LINE
  5
6B1
100
AcDbEntity
  8
ASSI
100
AcDbLine
 62
7
  6
CONTINUOUS
 10
-25.7497735052
 20
12.8980602259
 11
-25.7497735052
 21
17.1017882645
  0
LINE
  5
6B2
100
AcDbEntity
  8
DRAFT
100
AcDbLine
 62
7
  6
CONTINUOUS
 10
-24.7497735052
 20
0.75
 11
-24.7497735052
 21
0.3
  0
LINE
  5
6B3
100
AcDbEntity
  8
ASSI
100
AcDbLine
 62
7
  6
CONTINUOUS
 10
-24.7497735052
 20
0.75
 11
-24.7497735052
 21
0.3
  0
LINE
  5
6B4
100
AcDbEntity
  8
0
100
AcDbLine
 62
7
  6
CONTINUOUS
 10
-24.7497735052
 20
-15.75
 11
-24.7497735052
 21
-14.25
  0
LINE
  5
6B5
100
AcDbEntity
  8
0
100
AcDbLine
 62
7
  6
CONTINUOUS
 10
-24.7497735052
 20
-10.75
 11
-24.7497735052
 21
-9.25
  0
LINE
  5
6B6
100
AcDbEntity
  8
0
100
AcDbLine
 62
7
  6
CONTINUOUS
 10
-24.7497735052
 20
-5.75
 11
-24.7497735052
 21
-4.25
  0
LINE
  5
6B7
100
AcDbEntity
  8
0
100
AcDbLine
 62
7
  6
CONTINUOUS
 10
-24.7497735052
 20
-0.75
 11
-24.7497735052
 21
0.3
  0
LINE
  5
6B8
100
AcDbEntity
  8
RACCORDO
100
AcDbLine
 62
253
  6
CONTINUOUS
 10
-24.2323210987
 20
12.8726812334
 11
-24.2323210987
 21
12.1273187666
  0
LINE
  5
6B9
100
AcDbEntity
  8
ASSI
100
AcDbLine
 62
253
  6
CONTINUOUS
 10
-24.2323210987
 20
12.8726812334
 11
-24.2323210987
 21
12.1273187666
  0
LINE
  5
6BA
100
AcDbEntity
  8
RACCORDO
100
AcDbLine
 62
253
  6
CONTINUOUS
 10
-24.2323210987
 20
7.8726812334
 11
-24.2323210987
 21
7.1273187666
  0
LINE
  5
6BB
100
AcDbEntity
  8
ASSI
100
AcDbLine
 62
253
  6
CONTINUOUS
 10
-24.2323210987
 20
7.8726812334
 11
-24.2323210987
 21
7.1273187666
  0
LINE
  5
6BC
100
AcDbEntity
  8
RACCORDO
100
AcDbLine
 62
253
  6
CONTINUOUS
 10
-24.2323210987
 20
2.8726812334
 11
-24.2323210987
 21
1.0143058604
  0
LINE
  5
6BD
100
AcDbEntity
  8
ASSI
100
AcDbLine
 62
253
  6
CONTINUOUS
 10
-24.2323210987
 20
2.8726812334
 11
-24.2323210987
 21
1.0143058604
  0
LINE
  5
6BE
100
AcDbEntity
  8
RACCORDO
100
AcDbLine
 62
253
  6
CONTINUOUS
 10
-24.2323210987
 20
-1.0143058604
 11
-24.2323210987
 21
-3.9856941396
  0
LINE
  5
6BF
100
AcDbEntity
  8
ASSI
100
AcDbLine
 62
253
  6
CONTINUOUS
 10
-24.2323210987
 20
-1.0143058604
 11
-24.2323210987
 21
-3.9856941396
  0
LINE
  5
6C0
100
AcDbEntity
  8
RACCORDO
100
AcDbLine
 62
253
  6
CONTINUOUS
 10
-24.2323210987
 20
-6.0143058604
 11
-24.2323210987
 21
-8.9856941396
  0
LINE
  5
6C1
100
AcDbEntity
  8
ASSI
100
AcDbLine
 62
253
  6
CONTINUOUS
 10
-24.2323210987
 20
-6.0143058604
 11
-24.2323210987
 21
-8.9856941396
  0
LINE
  5
6C2
100
AcDbEntity
  8
RACCORDO
100
AcDbLine
 62
253
  6
CONTINUOUS
 10
-24.2323210987
 20
-11.0143058604
 11
-24.2323210987
 21
-13.9856941396
  0
LINE
  5
6C3
100
AcDbEntity
  8
ASSI
100
AcDbLine
 62
253
  6
CONTINUOUS
 10
-24.2323210987
 20
-11.0143058604
 11
-24.2323210987
 21
-13.9856941396
  0
LINE
  5
6C4
100
AcDbEntity
  8
RACCORDO
100
AcDbLine
 62
253
  6
CONTINUOUS
 10
-24.2323210987
 20
-16.0143058604
 11
-24.2323210987
 21
-17.3968281299
  0
LINE
  5
6C5
100
AcDbEntity
  8
ASSI
100
AcDbLine
 62
253
  6
CONTINUOUS
 10
-24.2323210987
 20
-16.0143058604
 11
-24.2323210987
 21
-17.3968281299
  0
LINE
  5
6C6
100
AcDbEntity
  8
RACCORDO
100
AcDbLine
 62
253
  6
CONTINUOUS
 10
-24.2323210987
 20
-18.8108263007
 11
-24.2323210987
 21
-18.8290841082
  0
LINE
  5
6C7
100
AcDbEntity
  8
ASSI
100
AcDbLine
 62
253
  6
CONTINUOUS
 10
-24.2323210987
 20
-18.8108263007
 11
-24.2323210987
 21
-18.8290841082
  0
LINE
  5
6C8
100
AcDbEntity
  8
RACCORDO
100
AcDbLine
 62
253
  6
CONTINUOUS
 10
-24.2323210987
 20
17.1273187666
 11
-24.2323210987
 21
17.3968281299
  0
LINE
  5
6C9
100
AcDbEntity
  8
ASSI
100
AcDbLine
 62
253
  6
CONTINUOUS
 10
-24.2323210987
 20
17.1273187666
 11
-24.2323210987
 21
17.3968281299
  0
LINE
  5
6CA
100
AcDbEntity
  8
RACCORDO
100
AcDbLine
 62
253
  6
CONTINUOUS
 10
-24.2323210987
 20
18.8108263007
 11
-24.2323210987
 21
18.8290841082
  0
LINE
  5
6CB
100
AcDbEntity
  8
ASSI
100
AcDbLine
 62
253
  6
CONTINUOUS
 10
-24.2323210987
 20
18.8108263007
 11
-24.2323210987
 21
18.8290841082
  0
LINE
  5
6CC
100
AcDbEntity
  8
RACCORDO
100
AcDbLine
 62
7
  6
CONTINUOUS
 10
-23.2497735052
 20
-18.1220850228
 11
-23.2497735052
 21
18.1220850228
  0
LINE
  5
6CD
100
AcDbEntity
  8
ASSI
100
AcDbLine
 62
7
  6
CONTINUOUS
 10
-23.2497735052
 20
-18.1220850228
 11
-23.2497735052
 21
18.1220850228
  0
LWPOLYLINE
  5
6CE
100
AcDbEntity
  8
0
100
AcDbPolyline
 62
7
  6
CONTINUOUS
 90
6
 70
0
 43
0.3500000006
 10
-47.1783430481
 20
36.1434576416
 10
-46.1069160919
 20
36.1434576416
 10
-45.8926316071
 20
36.3577421265
 10
-45.8926316071
 20
37.4291690826
 10
-46.3212005768
 20
37.8577425842
 10
-46.7497740784
 20
37.8577425842
  0
LWPOLYLINE
  5
6CF
100
AcDbEntity
  8
0
100
AcDbPolyline
 62
7
  6
CONTINUOUS
 90
8
 70
0
 43
0.3500000006
 10
-40.964061264
 20
36.1434576416
 10
-40.1069142609
 20
36.1434576416
 10
-39.6783452911
 20
36.5720266113
 10
-39.6783452911
 20
37.4291690826
 10
-40.1069142609
 20
37.8577425842
 10
-40.964061264
 20
37.8577425842
 10
-40.964061264
 20
39.1434585571
 10
-39.6783452911
 20
39.1434585571
  0
LWPOLYLINE
  5
6D0
100
AcDbEntity
  8
0
100
AcDbPolyline
 62
7
  6
CONTINUOUS
 90
8
 70
0
 43
0.3500000006
 10
-51.3569176941
 20
46.1434561615
 10
-50.4997752228
 20
46.1434561615
 10
-50.0712017212
 20
46.5720296631
 10
-50.0712017212
 20
47.4291721344
 10
-50.4997752228
 20
47.8577411041
 10
-51.3569176941
 20
47.8577411041
 10
-51.3569176941
 20
49.143457077
 10
-50.0712017212
 20
49.143457077
  0
ARC
  5
6D1
100
AcDbEntity
  8
ASSI
100
AcDbCircle
 62
253
  6
CONTINUOUS
 10
-18493.5874195321
 20
0.0000001494
 40
18482.7039468761
100
AcDbArc
 50
359.9353476073
 51
0.0646523918
  0
ARC
  5
6D2
100
AcDbEntity
  8
ASSI
100
AcDbCircle
 62
253
  6
CONTINUOUS
 10
0.0000007891
 20
-7678.3646766508
 40
7657.4945109012
100
AcDbArc
 50
89.9219676864
 51
90.0780323254
  0
ARC
  5
6D3
100
AcDbEntity
  8
ASSI
100
AcDbCircle
 62
253
  6
CONTINUOUS
 10
-45.2363468436
 20
-23.806378427
 40
34.8765446128
100
AcDbArc
 50
359.9376434835
 51
0.2933216697
  0
ARC
  5
6D4
100
AcDbEntity
  8
ASSI
100
AcDbCircle
 62
253
  6
CONTINUOUS
 10
-27.4363468419
 20
-23.806378427
 40
34.8765446111
100
AcDbArc
 50
359.9376434835
 51
0.2933216697
  0
ARC
  5
6D5
100
AcDbEntity
  8
ASSI
100
AcDbCircle
 62
253
  6
CONTINUOUS
 10
0.0000003032
 20
-2955.8523689865
 40
2933.8464582754
100
AcDbArc
 50
89.7966448225
 51
90.2033551894
  0
ARC
  5
6D6
100
AcDbEntity
  8
ASSI
100
AcDbCircle
 62
253
  6
CONTINUOUS
 10
-10.4122730963
 20
-21.5239600845
 40
0.5004157458
100
AcDbArc
 50
180.1276222189
 51
269.9353983487
  0
ARC
  5
6D7
100
AcDbEntity
  8
ASSI
100
AcDbCircle
 62
7
  6
CONTINUOUS
 10
-10.6001587126
 20
-21.9001678853
 40
0.4998378818
100
AcDbArc
 50
179.989484845
 51
270.0181858366
  0
ARC
  5
6D8
100
AcDbEntity
  8
ASSI
100
AcDbCircle
 62
253
  6
CONTINUOUS
 10
-10.3606072331
 20
-24.2606072331
 40
0.2000430909
100
AcDbArc
 50
180.020958193
 51
269.979041807
  0
ARC
  5
6D9
100
AcDbEntity
  8
ASSI
100
AcDbCircle
 62
253
  6
CONTINUOUS
 10
-7.4393927669
 20
-24.2606072331
 40
0.2000430909
100
AcDbArc
 50
270.0209581897
 51
359.9790418103
  0
ARC
  5
6DA
100
AcDbEntity
  8
ASSI
100
AcDbCircle
 62
7
  6
CONTINUOUS
 10
-10.4000426585
 20
-24.3000426585
 40
0.1999569277
100
AcDbArc
 50
179.9965049109
 51
270.0034950891
  0
ARC
  5
6DB
100
AcDbEntity
  8
ASSI
100
AcDbCircle
 62
7
  6
CONTINUOUS
 10
-7.3999572982
 20
-24.3000427018
 40
0.1999569277
100
AcDbArc
 50
269.9964925066
 51
0.0035074934
  0
ARC
  5
6DC
100
AcDbEntity
  8
ASSI
100
AcDbCircle
 62
7
  6
CONTINUOUS
 10
-4.0
 20
-23.2
 40
0.5
100
AcDbArc
 50
154.1580672368
 51
205.8419327632
  0
ARC
  5
6DD
100
AcDbEntity
  8
ASSI
100
AcDbCircle
 62
253
  6
CONTINUOUS
 10
-4.1946686731
 20
-23.7446686731
 40
0.2500338912
100
AcDbArc
 50
180.016489117
 51
269.983510883
  0
ARC
  5
6DE
100
AcDbEntity
  8
ASSI
100
AcDbCircle
 62
253
  6
CONTINUOUS
 10
-1.0553310729
 20
-23.7446689271
 40
0.2500336371
100
AcDbArc
 50
270.016430911
 51
359.983569089
  0
ARC
  5
6DF
100
AcDbEntity
  8
ASSI
100
AcDbCircle
 62
7
  6
CONTINUOUS
 10
-1.0499604239
 20
-23.7500395761
 40
0.2499612619
100
AcDbArc
 50
269.9996562033
 51
0.0003437967
  0
ARC
  5
6E0
100
AcDbEntity
  8
ASSI
100
AcDbCircle
 62
7
  6
CONTINUOUS
 10
-4.2000395761
 20
-23.7500395761
 40
0.2499612619
100
AcDbArc
 50
179.999656207
 51
270.000343793
  0
ARC
  5
6E1
100
AcDbEntity
  8
ASSI
100
AcDbCircle
 62
253
  6
CONTINUOUS
 10
-4.1947431236
 20
-23.7447431236
 40
0.0499898914
100
AcDbArc
 50
179.9971421991
 51
270.0028578008
  0
ARC
  5
6E2
100
AcDbEntity
  8
ASSI
100
AcDbCircle
 62
253
  6
CONTINUOUS
 10
-1.0552567831
 20
-23.7447432169
 40
0.0499897981
100
AcDbArc
 50
269.9970352096
 51
0.0029647904
  0
ARC
  5
6E3
100
AcDbEntity
  8
RACCORDO
100
AcDbCircle
 62
7
  6
CONTINUOUS
 10
-0.0000688402
 20
-0.0052708026
 40
7.7905270023
100
AcDbArc
 50
239.2644810184
 51
300.7355189818
  0
CIRCLE
  5
6E4
100
AcDbEntity
  8
DRAFT
100
AcDbCircle
 62
7
  6
CONTINUOUS
 10
0.0
 20
-0.0
 40
7.75
  0
CIRCLE
  5
6E5
100
AcDbEntity
  8
DRAFT
100
AcDbCircle
 62
7
  6
CONTINUOUS
 10
0.0
 20
-0.0
 40
7.5
  0
CIRCLE
  5
6E6
100
AcDbEntity
  8
RACCORDO
100
AcDbCircle
 62
253
  6
CONTINUOUS
 10
0.0
 20
-0.0
 40
7.3446976577
  0
CIRCLE
  5
6E7
100
AcDbEntity
  8
0
100
AcDbCircle
 62
7
  6
CONTINUOUS
 10
0.0
 20
-0.0
 40
7.325
  0
CIRCLE
  5
6E8
100
AcDbEntity
  8
0
100
AcDbCircle
 62
253
  6
CONTINUOUS
 10
0.0
 20
-0.0
 40
6.8542571266
  0
CIRCLE
  5
6E9
100
AcDbEntity
  8
0
100
AcDbCircle
 62
253
  6
CONTINUOUS
 10
0.0
 20
-0.0
 40
5.6913372376
  0
CIRCLE
  5
6EA
100
AcDbEntity
  8
0
100
AcDbCircle
 62
253
  6
CONTINUOUS
 10
0.0
 20
-0.0
 40
4.5396855183
  0
ARC
  5
6EB
100
AcDbEntity
  8
ASSI
100
AcDbCircle
 62
253
  6
CONTINUOUS
 10
-0.0000007848
 20
7678.3690565061
 40
7657.4988907556
100
AcDbArc
 50
269.921967731
 51
270.0780322807
  0
ARC
  5
6EC
100
AcDbEntity
  8
ASSI
100
AcDbCircle
 62
253
  6
CONTINUOUS
 10
-0.000000302
 20
2955.8523650055
 40
2933.8464542945
100
AcDbArc
 50
269.7966448222
 51
270.2033551896
  0
ARC
  5
6ED
100
AcDbEntity
  8
ASSI
100
AcDbCircle
 62
253
  6
CONTINUOUS
 10
-45.2337280799
 20
23.806377655
 40
34.8739258882
100
AcDbArc
 50
359.7067270348
 51
0.0623987992
  0
ARC
  5
6EE
100
AcDbEntity
  8
RACCORDO
100
AcDbCircle
 62
7
  6
CONTINUOUS
 10
0.0000688402
 20
0.0052708026
 40
7.7905270023
100
AcDbArc
 50
59.2644810184
 51
120.7355189818
  0
ARC
  5
6EF
100
AcDbEntity
  8
ASSI
100
AcDbCircle
 62
253
  6
CONTINUOUS
 10
-10.4122730961
 20
21.5239600831
 40
0.5004157456
100
AcDbArc
 50
90.0646016035
 51
179.8723777572
  0
ARC
  5
6F0
100
AcDbEntity
  8
ASSI
100
AcDbCircle
 62
7
  6
CONTINUOUS
 10
-4.0
 20
23.2
 40
0.5
100
AcDbArc
 50
154.1580672368
 51
205.8419327632
  0
ARC
  5
6F1
100
AcDbEntity
  8
ASSI
100
AcDbCircle
 62
7
  6
CONTINUOUS
 10
-10.6001595972
 20
21.9001682196
 40
0.4998372685
100
AcDbArc
 50
89.9817053385
 51
180.0193096519
  0
ARC
  5
6F2
100
AcDbEntity
  8
ASSI
100
AcDbCircle
 62
253
  6
CONTINUOUS
 10
-1.0553310645
 20
23.7446689355
 40
0.2500336288
100
AcDbArc
 50
0.0164290027
 51
89.9835709973
  0
ARC
  5
6F3
100
AcDbEntity
  8
ASSI
100
AcDbCircle
 62
253
  6
CONTINUOUS
 10
-4.1946690163
 20
23.7446690164
 40
0.2500335479
100
AcDbArc
 50
90.0170730915
 51
179.9835895316
  0
ARC
  5
6F4
100
AcDbEntity
  8
ASSI
100
AcDbCircle
 62
7
  6
CONTINUOUS
 10
-1.0499674725
 20
23.7500325275
 40
0.2499699324
100
AcDbArc
 50
0.0012718308
 51
89.9987281692
  0
ARC
  5
6F5
100
AcDbEntity
  8
ASSI
100
AcDbCircle
 62
7
  6
CONTINUOUS
 10
-4.2000325275
 20
23.7500325275
 40
0.2499699324
100
AcDbArc
 50
90.0012718308
 51
179.9987281692
  0
ARC
  5
6F6
100
AcDbEntity
  8
ASSI
100
AcDbCircle
 62
253
  6
CONTINUOUS
 10
-10.3606072331
 20
24.2606072331
 40
0.2000430909
100
AcDbArc
 50
90.0209581928
 51
179.9790418072
  0
ARC
  5
6F7
100
AcDbEntity
  8
ASSI
100
AcDbCircle
 62
253
  6
CONTINUOUS
 10
-7.4393927177
 20
24.2606072823
 40
0.2000430909
100
AcDbArc
 50
0.020944126
 51
89.979055874
  0
ARC
  5
6F8
100
AcDbEntity
  8
ASSI
100
AcDbCircle
 62
7
  6
CONTINUOUS
 10
-10.4000426585
 20
24.3000426585
 40
0.1999569277
100
AcDbArc
 50
89.9965049109
 51
180.0034950891
  0
ARC
  5
6F9
100
AcDbEntity
  8
ASSI
100
AcDbCircle
 62
7
  6
CONTINUOUS
 10
-7.3999572982
 20
24.3000427018
 40
0.1999569277
100
AcDbArc
 50
359.9964925066
 51
90.0035074934
  0
ARC
  5
6FA
100
AcDbEntity
  8
ASSI
100
AcDbCircle
 62
253
  6
CONTINUOUS
 10
-1.0552568506
 20
23.7447431494
 40
0.0499898656
100
AcDbArc
 50
359.9971126105
 51
90.0028873896
  0
ARC
  5
6FB
100
AcDbEntity
  8
ASSI
100
AcDbCircle
 62
253
  6
CONTINUOUS
 10
-4.1947431868
 20
23.7447431868
 40
0.0499898281
100
AcDbArc
 50
89.9970696677
 51
180.0029303323
  0
ARC
  5
6FC
100
AcDbEntity
  8
ASSI
100
AcDbCircle
 62
253
  6
CONTINUOUS
 10
18493.5879924847
 20
-0.0000001503
 40
18482.7045198283
100
AcDbArc
 50
179.9353476093
 51
180.0646523897
  0
ARC
  5
6FD
100
AcDbEntity
  8
ASSI
100
AcDbCircle
 62
253
  6
CONTINUOUS
 10
10.4122730987
 20
-21.5239600803
 40
0.5004157457
100
AcDbArc
 50
270.064601301
 51
359.8723774375
  0
ARC
  5
6FE
100
AcDbEntity
  8
ASSI
100
AcDbCircle
 62
7
  6
CONTINUOUS
 10
4.0
 20
-23.2
 40
0.5
100
AcDbArc
 50
334.1580672368
 51
25.8419327632
  0
ARC
  5
6FF
100
AcDbEntity
  8
ASSI
100
AcDbCircle
 62
7
  6
CONTINUOUS
 10
10.6001595964
 20
-21.9001682205
 40
0.4998372686
100
AcDbArc
 50
269.9817054402
 51
0.019309751
  0
ARC
  5
700
100
AcDbEntity
  8
ASSI
100
AcDbCircle
 62
253
  6
CONTINUOUS
 10
1.0553313269
 20
-23.7446686731
 40
0.2500338912
100
AcDbArc
 50
180.016489117
 51
269.983510883
  0
ARC
  5
701
100
AcDbEntity
  8
ASSI
100
AcDbCircle
 62
253
  6
CONTINUOUS
 10
4.1946689271
 20
-23.7446689271
 40
0.2500336371
100
AcDbArc
 50
270.016430911
 51
359.983569089
  0
ARC
  5
702
100
AcDbEntity
  8
ASSI
100
AcDbCircle
 62
7
  6
CONTINUOUS
 10
4.2000325275
 20
-23.7500325275
 40
0.2499699324
100
AcDbArc
 50
270.0012718308
 51
359.9987281692
  0
ARC
  5
703
100
AcDbEntity
  8
ASSI
100
AcDbCircle
 62
7
  6
CONTINUOUS
 10
1.049960424
 20
-23.750039576
 40
0.2499612619
100
AcDbArc
 50
179.999656209
 51
270.000343791
  0
ARC
  5
704
100
AcDbEntity
  8
ASSI
100
AcDbCircle
 62
253
  6
CONTINUOUS
 10
7.4393927669
 20
-24.2606072331
 40
0.2000430909
100
AcDbArc
 50
180.020958193
 51
269.979041807
  0
ARC
  5
705
100
AcDbEntity
  8
ASSI
100
AcDbCircle
 62
253
  6
CONTINUOUS
 10
10.3606072331
 20
-24.2606072331
 40
0.2000430909
100
AcDbArc
 50
270.0209581897
 51
359.9790418103
  0
ARC
  5
706
100
AcDbEntity
  8
ASSI
100
AcDbCircle
 62
7
  6
CONTINUOUS
 10
7.3999573415
 20
-24.3000426585
 40
0.1999569277
100
AcDbArc
 50
179.9965049109
 51
270.0034950891
  0
ARC
  5
707
100
AcDbEntity
  8
ASSI
100
AcDbCircle
 62
7
  6
CONTINUOUS
 10
10.4000427018
 20
-24.3000427018
 40
0.1999569277
100
AcDbArc
 50
269.9964925066
 51
0.0035074934
  0
ARC
  5
708
100
AcDbEntity
  8
ASSI
100
AcDbCircle
 62
253
  6
CONTINUOUS
 10
1.0552568764
 20
-23.7447431236
 40
0.0499898914
100
AcDbArc
 50
179.9971421991
 51
270.0028578008
  0
ARC
  5
709
100
AcDbEntity
  8
ASSI
100
AcDbCircle
 62
253
  6
CONTINUOUS
 10
4.1947432169
 20
-23.7447432169
 40
0.0499897981
100
AcDbArc
 50
269.9970352096
 51
0.0029647904
  0
ARC
  5
70A
100
AcDbEntity
  8
ASSI
100
AcDbCircle
 62
253
  6
CONTINUOUS
 10
27.4210466677
 20
23.8063479586
 40
34.861244482
100
AcDbArc
 50
179.9375626227
 51
180.2933989949
  0
ARC
  5
70B
100
AcDbEntity
  8
ASSI
100
AcDbCircle
 62
253
  6
CONTINUOUS
 10
10.412273099
 20
21.5239600818
 40
0.5004157457
100
AcDbArc
 50
0.1276225269
 51
89.9353986631
  0
ARC
  5
70C
100
AcDbEntity
  8
ASSI
100
AcDbCircle
 62
7
  6
CONTINUOUS
 10
4.0
 20
23.2
 40
0.5
100
AcDbArc
 50
334.1580672368
 51
25.8419327632
  0
ARC
  5
70D
100
AcDbEntity
  8
ASSI
100
AcDbCircle
 62
7
  6
CONTINUOUS
 10
10.6001587151
 20
21.9001678827
 40
0.4998378819
100
AcDbArc
 50
359.9894851434
 51
90.0181861196
  0
ARC
  5
70E
100
AcDbEntity
  8
ASSI
100
AcDbCircle
 62
253
  6
CONTINUOUS
 10
4.1946686731
 20
23.7446686731
 40
0.2500338912
100
AcDbArc
 50
0.016489117
 51
89.983510883
  0
ARC
  5
70F
100
AcDbEntity
  8
ASSI
100
AcDbCircle
 62
253
  6
CONTINUOUS
 10
1.0553310729
 20
23.7446689271
 40
0.2500336371
100
AcDbArc
 50
90.016430911
 51
179.983569089
  0
ARC
  5
710
100
AcDbEntity
  8
ASSI
100
AcDbCircle
 62
7
  6
CONTINUOUS
 10
1.0499674725
 20
23.7500325275
 40
0.2499699324
100
AcDbArc
 50
90.0012718308
 51
179.9987281692
  0
ARC
  5
711
100
AcDbEntity
  8
ASSI
100
AcDbCircle
 62
7
  6
CONTINUOUS
 10
4.2000325275
 20
23.7500325275
 40
0.2499699324
100
AcDbArc
 50
0.0012718308
 51
89.9987281692
  0
ARC
  5
712
100
AcDbEntity
  8
ASSI
100
AcDbCircle
 62
253
  6
CONTINUOUS
 10
7.4393927177
 20
24.2606072823
 40
0.2000430909
100
AcDbArc
 50
90.0209441219
 51
179.9790558781
  0
ARC
  5
713
100
AcDbEntity
  8
ASSI
100
AcDbCircle
 62
253
  6
CONTINUOUS
 10
10.3606072823
 20
24.2606072823
 40
0.2000430909
100
AcDbArc
 50
0.020944127
 51
89.979055873
  0
ARC
  5
714
100
AcDbEntity
  8
ASSI
100
AcDbCircle
 62
7
  6
CONTINUOUS
 10
7.3999573415
 20
24.3000426585
 40
0.1999569277
100
AcDbArc
 50
89.9965049109
 51
180.0034950891
  0
ARC
  5
715
100
AcDbEntity
  8
ASSI
100
AcDbCircle
 62
7
  6
CONTINUOUS
 10
10.4000427018
 20
24.3000427018
 40
0.1999569277
100
AcDbArc
 50
359.9964925066
 51
90.0035074934
  0
ARC
  5
716
100
AcDbEntity
  8
ASSI
100
AcDbCircle
 62
253
  6
CONTINUOUS
 10
4.1947431236
 20
23.7447431236
 40
0.0499898914
100
AcDbArc
 50
359.9971421991
 51
90.0028578009
  0
ARC
  5
717
100
AcDbEntity
  8
ASSI
100
AcDbCircle
 62
253
  6
CONTINUOUS
 10
1.0552567831
 20
23.7447432169
 40
0.0499897981
100
AcDbArc
 50
89.9970352096
 51
180.0029647904
  0
ARC
  5
718
100
AcDbEntity
  8
RACCORDO
100
AcDbCircle
 62
253
  6
CONTINUOUS
 10
-210.0906706445
 20
-18.1038272153
 40
185.8596942416
100
AcDbArc
 50
359.7820497792
 51
0.2179502208
  0
ARC
  5
719
100
AcDbEntity
  8
ASSI
100
AcDbCircle
 62
253
  6
CONTINUOUS
 10
-210.0906706445
 20
-18.1038272153
 40
185.8596942416
100
AcDbArc
 50
359.7820497792
 51
0.2179502208
  0
ARC
  5
71A
100
AcDbEntity
  8
ASSI
100
AcDbCircle
 62
7
  6
CONTINUOUS
 10
-65.9997735052
 20
-23.8443375673
 40
0.25
100
AcDbArc
 50
120.0
 51
179.9996250119
  0
ARC
  5
71B
100
AcDbEntity
  8
ASSI
100
AcDbCircle
 62
7
  6
CONTINUOUS
 10
-62.9997735052
 20
-23.8443375673
 40
0.25
100
AcDbArc
 50
359.995410117
 51
59.9806292498
  0
ARC
  5
71C
100
AcDbEntity
  8
ASSI
100
AcDbCircle
 62
7
  6
CONTINUOUS
 10
-62.9997735052
 20
-24.2368706193
 40
0.25
100
AcDbArc
 50
271.0
 51
360.0
  0
ARC
  5
71D
100
AcDbEntity
  8
ASSI
100
AcDbCircle
 62
7
  6
CONTINUOUS
 10
-65.9997735052
 20
-24.2106880219
 40
0.25
100
AcDbArc
 50
180.0
 51
269.0
  0
ARC
  5
71E
100
AcDbEntity
  8
ASSI
100
AcDbCircle
 62
253
  6
CONTINUOUS
 10
-66.003263086
 20
-23.8443380872
 40
0.0500009004
100
AcDbArc
 50
120.0005957137
 51
179.9994042863
  0
ARC
  5
71F
100
AcDbEntity
  8
ASSI
100
AcDbCircle
 62
253
  6
CONTINUOUS
 10
-62.9962836783
 20
-24.2368699762
 40
0.0500006544
100
AcDbArc
 50
271.000736944
 51
359.999263056
  0
ARC
  5
720
100
AcDbEntity
  8
ASSI
100
AcDbCircle
 62
253
  6
CONTINUOUS
 10
-66.0032633615
 20
-24.2106874078
 40
0.0500006249
100
AcDbArc
 50
180.0007037181
 51
268.9992962819
  0
ARC
  5
721
100
AcDbEntity
  8
ASSI
100
AcDbCircle
 62
253
  6
CONTINUOUS
 10
-62.9962812829
 20
-23.8443365622
 40
0.0499982591
100
AcDbArc
 50
359.9988481766
 51
60.0011518234
  0
ARC
  5
722
100
AcDbEntity
  8
ASSI
100
AcDbCircle
 62
7
  6
CONTINUOUS
 10
-70.8547914765
 20
-20.8249565047
 40
1.2009897416
100
AcDbArc
 50
182.4965004627
 51
267.0381682259
  0
ARC
  5
723
100
AcDbEntity
  8
ASSI
100
AcDbCircle
 62
7
  6
CONTINUOUS
 10
-71.2065819585
 20
-20.8075584132
 40
1.2
100
AcDbArc
 50
182.9907948827
 51
267.0
  0
ARC
  5
724
100
AcDbEntity
  8
ASSI
100
AcDbCircle
 62
7
  6
CONTINUOUS
 10
-57.9997769755
 20
-23.6495953552
 40
0.25
100
AcDbArc
 50
271.0
 51
0.000002053
  0
ARC
  5
725
100
AcDbEntity
  8
ASSI
100
AcDbCircle
 62
7
  6
CONTINUOUS
 10
-53.2497735052
 20
-21.2165694902
 40
1.0
100
AcDbArc
 50
352.1410493542
 51
356.406074205
  0
ARC
  5
726
100
AcDbEntity
  8
ASSI
100
AcDbCircle
 62
7
  6
CONTINUOUS
 10
-53.2497735052
 20
-21.2165694902
 40
1.0
100
AcDbArc
 50
335.04972704
 51
343.5587068392
  0
ARC
  5
727
100
AcDbEntity
  8
RACCORDO
100
AcDbCircle
 62
7
  6
CONTINUOUS
 10
-53.2497735052
 20
-21.2165694902
 40
1.0
100
AcDbArc
 50
271.0
 51
360.0
  0
ARC
  5
728
100
AcDbEntity
  8
RACCORDO
100
AcDbCircle
 62
253
  6
CONTINUOUS
 10
-53.2509687486
 20
-21.2158467944
 40
0.8046860492
100
AcDbArc
 50
342.5157724387
 51
359.9485421329
  0
ARC
  5
729
100
AcDbEntity
  8
RACCORDO
100
AcDbCircle
 62
7
  6
CONTINUOUS
 10
-52.4497735052
 20
-21.18553092
 40
0.2
100
AcDbArc
 50
0.0
 51
89.5
  0
ARC
  5
72A
100
AcDbEntity
  8
RACCORDO
100
AcDbCircle
 62
7
  6
CONTINUOUS
 10
-51.0050981868
 20
-15.0
 40
1.1395115644
100
AcDbArc
 50
89.7322687165
 51
270.2677312835
  0
ARC
  5
72B
100
AcDbEntity
  8
ASSI
100
AcDbCircle
 62
7
  6
CONTINUOUS
 10
-51.0050981868
 20
-15.0
 40
1.1395115644
100
AcDbArc
 50
89.7322687165
 51
270.2677312835
  0
ARC
  5
72C
100
AcDbEntity
  8
RACCORDO
100
AcDbCircle
 62
7
  6
CONTINUOUS
 10
-51.5497735052
 20
-14.3
 40
1.0
100
AcDbArc
 50
257.6366507951
 51
348.4528370385
  0
ARC
  5
72D
100
AcDbEntity
  8
RACCORDO
100
AcDbCircle
 62
7
  6
CONTINUOUS
 10
-51.0016583752
 20
-15.0
 40
0.8113840994
100
AcDbArc
 50
89.8669000301
 51
270.1330999699
  0
ARC
  5
72E
100
AcDbEntity
  8
ASSI
100
AcDbCircle
 62
7
  6
CONTINUOUS
 10
-51.0016583752
 20
-15.0
 40
0.8113840994
100
AcDbArc
 50
89.8669000301
 51
270.1330999699
  0
ARC
  5
72F
100
AcDbEntity
  8
RACCORDO
100
AcDbCircle
 62
253
  6
CONTINUOUS
 10
-51.5497735052
 20
-14.3
 40
0.2999985455
100
AcDbArc
 50
242.8708097978
 51
318.1335262472
  0
ARC
  5
730
100
AcDbEntity
  8
0
100
AcDbCircle
 62
7
  6
CONTINUOUS
 10
-51.5497735052
 20
-14.3
 40
0.2
100
AcDbArc
 50
247.3703814662
 51
270.0
  0
ARC
  5
731
100
AcDbEntity
  8
RACCORDO
100
AcDbCircle
 62
7
  6
CONTINUOUS
 10
-24.2497735052
 20
-18.1220850228
 40
1.0
100
AcDbArc
 50
271.0
 51
360.0
  0
ARC
  5
732
100
AcDbEntity
  8
ASSI
100
AcDbCircle
 62
7
  6
CONTINUOUS
 10
-24.2497735052
 20
-18.1220850228
 40
1.0
100
AcDbArc
 50
271.0
 51
360.0
  0
ARC
  5
733
100
AcDbEntity
  8
RACCORDO
100
AcDbCircle
 62
253
  6
CONTINUOUS
 10
-23.7726561908
 20
-18.1001892553
 40
0.523141807
100
AcDbArc
 50
343.4478682186
 51
351.5659816893
  0
ARC
  5
734
100
AcDbEntity
  8
ASSI
100
AcDbCircle
 62
253
  6
CONTINUOUS
 10
-23.7726561908
 20
-18.1001892553
 40
0.523141807
100
AcDbArc
 50
343.4478682186
 51
351.5659816893
  0
ARC
  5
735
100
AcDbEntity
  8
RACCORDO
100
AcDbCircle
 62
253
  6
CONTINUOUS
 10
-23.7510180806
 20
-18.103551047
 40
0.5012446515
100
AcDbArc
 50
351.5833295842
 51
359.9684320215
  0
ARC
  5
736
100
AcDbEntity
  8
ASSI
100
AcDbCircle
 62
253
  6
CONTINUOUS
 10
-23.7510180806
 20
-18.103551047
 40
0.5012446515
100
AcDbArc
 50
351.5833295842
 51
359.9684320215
  0
ARC
  5
737
100
AcDbEntity
  8
RACCORDO
100
AcDbCircle
 62
253
  6
CONTINUOUS
 10
-23.7506542046
 20
-18.1219285321
 40
0.5008807239
100
AcDbArc
 50
353.0275212914
 51
359.9820990166
  0
ARC
  5
738
100
AcDbEntity
  8
ASSI
100
AcDbCircle
 62
253
  6
CONTINUOUS
 10
-23.7506542046
 20
-18.1219285321
 40
0.5008807239
100
AcDbArc
 50
353.0275212914
 51
359.9820990166
  0
ARC
  5
739
100
AcDbEntity
  8
0
100
AcDbCircle
 62
7
  6
CONTINUOUS
 10
-35.2497735052
 20
-7.3
 40
9.75
100
AcDbArc
 50
51.2251996691
 51
55.8043183703
  0
ARC
  5
73A
100
AcDbEntity
  8
RACCORDO
100
AcDbCircle
 62
7
  6
CONTINUOUS
 10
-35.2497735052
 20
-7.3
 40
9.75
100
AcDbArc
 50
51.2351288017
 51
55.794037775
  0
ARC
  5
73B
100
AcDbEntity
  8
0
100
AcDbCircle
 62
7
  6
CONTINUOUS
 10
-74.7497735052
 20
-2.0712315177
 40
8.7
100
AcDbArc
 50
196.482970138
 51
204.5888665417
  0
ARC
  5
73C
100
AcDbEntity
  8
0
100
AcDbCircle
 62
7
  6
CONTINUOUS
 10
-80.8421972825
 20
-4.8591290261
 40
2.0
100
AcDbArc
 50
204.5888665417
 51
266.0
  0
ARC
  5
73D
100
AcDbEntity
  8
RACCORDO
100
AcDbCircle
 62
7
  6
CONTINUOUS
 10
-51.0050981868
 20
-5.0
 40
1.1395115644
100
AcDbArc
 50
89.7322687165
 51
270.2677312835
  0
ARC
  5
73E
100
AcDbEntity
  8
RACCORDO
100
AcDbCircle
 62
7
  6
CONTINUOUS
 10
-51.0050981868
 20
-10.0
 40
1.1395115644
100
AcDbArc
 50
89.7322687165
 51
270.2677312835
  0
ARC
  5
73F
100
AcDbEntity
  8
ASSI
100
AcDbCircle
 62
7
  6
CONTINUOUS
 10
-51.0050981868
 20
-5.0
 40
1.1395115644
100
AcDbArc
 50
89.7322687165
 51
270.2677312835
  0
ARC
  5
740
100
AcDbEntity
  8
ASSI
100
AcDbCircle
 62
7
  6
CONTINUOUS
 10
-51.0050981868
 20
-10.0
 40
1.1395115644
100
AcDbArc
 50
89.7322687165
 51
270.2677312835
  0
ARC
  5
741
100
AcDbEntity
  8
RACCORDO
100
AcDbCircle
 62
7
  6
CONTINUOUS
 10
-51.0016583752
 20
-5.0
 40
0.8113840994
100
AcDbArc
 50
89.8669000301
 51
270.1330999699
  0
ARC
  5
742
100
AcDbEntity
  8
RACCORDO
100
AcDbCircle
 62
7
  6
CONTINUOUS
 10
-51.0016583752
 20
-10.0
 40
0.8113840994
100
AcDbArc
 50
89.8669000301
 51
270.1330999699
  0
ARC
  5
743
100
AcDbEntity
  8
ASSI
100
AcDbCircle
 62
7
  6
CONTINUOUS
 10
-51.0016583752
 20
-5.0
 40
0.8113840994
100
AcDbArc
 50
89.8669000301
 51
270.1330999699
  0
ARC
  5
744
100
AcDbEntity
  8
ASSI
100
AcDbCircle
 62
7
  6
CONTINUOUS
 10
-51.0016583752
 20
-10.0
 40
0.8113840994
100
AcDbArc
 50
89.8669000301
 51
270.1330999699
  0
ARC
  5
745
100
AcDbEntity
  8
RACCORDO
100
AcDbCircle
 62
7
  6
CONTINUOUS
 10
-73.9497735052
 20
-7.0454284443
 40
0.3
100
AcDbArc
 50
185.7331507522
 51
265.999998706
  0
ARC
  5
746
100
AcDbEntity
  8
RACCORDO
100
AcDbCircle
 62
253
  6
CONTINUOUS
 10
-210.0821337087
 20
18.1038272153
 40
185.8511573676
100
AcDbArc
 50
359.7820397678
 51
0.2179602322
  0
ARC
  5
747
100
AcDbEntity
  8
ASSI
100
AcDbCircle
 62
253
  6
CONTINUOUS
 10
-210.0821337087
 20
18.1038272153
 40
185.8511573676
100
AcDbArc
 50
359.7820397678
 51
0.2179602322
  0
ARC
  5
748
100
AcDbEntity
  8
0
100
AcDbCircle
 62
7
  6
CONTINUOUS
 10
-67.7497735052
 20
-0.0
 40
16.0
100
AcDbArc
 50
163.517029862
 51
196.482970138
  0
ARC
  5
749
100
AcDbEntity
  8
0
100
AcDbCircle
 62
7
  6
CONTINUOUS
 10
-74.7497735052
 20
2.0712315177
 40
8.7
100
AcDbArc
 50
155.4111334583
 51
163.517029862
  0
ARC
  5
74A
100
AcDbEntity
  8
0
100
AcDbCircle
 62
7
  6
CONTINUOUS
 10
-80.8421972825
 20
4.8591290261
 40
2.0
100
AcDbArc
 50
94.0
 51
155.4111334583
  0
ARC
  5
74B
100
AcDbEntity
  8
RACCORDO
100
AcDbCircle
 62
7
  6
CONTINUOUS
 10
-73.9497735052
 20
7.0454284443
 40
0.3
100
AcDbArc
 50
94.000001294
 51
174.2668492478
  0
ARC
  5
74C
100
AcDbEntity
  8
DRAFT
100
AcDbCircle
 62
7
  6
CONTINUOUS
 10
-29.3630176948
 20
4.968269597
 40
2.1910787852
100
AcDbArc
 50
150.4996004168
 51
158.6613178573
  0
ARC
  5
74D
100
AcDbEntity
  8
ASSI
100
AcDbCircle
 62
7
  6
CONTINUOUS
 10
-29.3630176948
 20
4.968269597
 40
2.1910787852
100
AcDbArc
 50
150.4996004168
 51
158.6613178573
  0
ARC
  5
74E
100
AcDbEntity
  8
DRAFT
100
AcDbCircle
 62
7
  6
CONTINUOUS
 10
-29.4676587018
 20
4.9997037243
 40
2.0822470819
100
AcDbArc
 50
90.0042988944
 51
158.4192330707
  0
ARC
  5
74F
100
AcDbEntity
  8
ASSI
100
AcDbCircle
 62
7
  6
CONTINUOUS
 10
-29.4676587018
 20
4.9997037243
 40
2.0822470819
100
AcDbArc
 50
90.0042988944
 51
158.4192330707
  0
ARC
  5
750
100
AcDbEntity
  8
DRAFT
100
AcDbCircle
 62
7
  6
CONTINUOUS
 10
-29.4676587866
 20
5.0002961508
 40
2.0822470815
100
AcDbArc
 50
201.5807645916
 51
269.9957034383
  0
ARC
  5
751
100
AcDbEntity
  8
ASSI
100
AcDbCircle
 62
7
  6
CONTINUOUS
 10
-29.4676587866
 20
5.0002961508
 40
2.0822470815
100
AcDbArc
 50
201.5807645916
 51
269.9957034383
  0
CIRCLE
  5
752
100
AcDbEntity
  8
ASSI
100
AcDbCircle
 62
7
  6
CONTINUOUS
 10
-29.2497735052
 20
5.0
 40
2.0
  0
ARC
  5
753
100
AcDbEntity
  8
RACCORDO
100
AcDbCircle
 62
7
  6
CONTINUOUS
 10
-51.0050981868
 20
5.0
 40
1.1395115644
100
AcDbArc
 50
89.7322687165
 51
270.2677312835
  0
ARC
  5
754
100
AcDbEntity
  8
RACCORDO
100
AcDbCircle
 62
7
  6
CONTINUOUS
 10
-51.0050981868
 20
-0.0
 40
1.1395115644
100
AcDbArc
 50
89.7322687165
 51
270.2677312835
  0
ARC
  5
755
100
AcDbEntity
  8
ASSI
100
AcDbCircle
 62
7
  6
CONTINUOUS
 10
-51.0050981868
 20
5.0
 40
1.1395115644
100
AcDbArc
 50
89.7322687165
 51
270.2677312835
  0
ARC
  5
756
100
AcDbEntity
  8
ASSI
100
AcDbCircle
 62
7
  6
CONTINUOUS
 10
-51.0050981868
 20
-0.0
 40
1.1395115644
100
AcDbArc
 50
89.7322687165
 51
270.2677312835
  0
ARC
  5
757
100
AcDbEntity
  8
RACCORDO
100
AcDbCircle
 62
7
  6
CONTINUOUS
 10
-51.0016583752
 20
5.0
 40
0.8113840994
100
AcDbArc
 50
89.8669000301
 51
270.1330999699
  0
ARC
  5
758
100
AcDbEntity
  8
RACCORDO
100
AcDbCircle
 62
7
  6
CONTINUOUS
 10
-51.0016583752
 20
-0.0
 40
0.8113840994
100
AcDbArc
 50
89.8669000301
 51
270.1330999699
  0
ARC
  5
759
100
AcDbEntity
  8
ASSI
100
AcDbCircle
 62
7
  6
CONTINUOUS
 10
-51.0016583752
 20
5.0
 40
0.8113840994
100
AcDbArc
 50
89.8669000301
 51
270.1330999699
  0
ARC
  5
75A
100
AcDbEntity
  8
ASSI
100
AcDbCircle
 62
7
  6
CONTINUOUS
 10
-51.0016583752
 20
-0.0
 40
0.8113840994
100
AcDbArc
 50
89.8669000301
 51
270.1330999699
  0
ARC
  5
75B
100
AcDbEntity
  8
DRAFT
100
AcDbCircle
 62
7
  6
CONTINUOUS
 10
-29.3630176948
 20
10.031730403
 40
2.1910787852
100
AcDbArc
 50
201.3386821427
 51
209.5003995832
  0
ARC
  5
75C
100
AcDbEntity
  8
DRAFT
100
AcDbCircle
 62
7
  6
CONTINUOUS
 10
-29.3630176948
 20
9.968269597
 40
2.1910787852
100
AcDbArc
 50
150.4996004168
 51
158.6613178573
  0
ARC
  5
75D
100
AcDbEntity
  8
DRAFT
100
AcDbCircle
 62
7
  6
CONTINUOUS
 10
-29.3630176948
 20
5.031730403
 40
2.1910787852
100
AcDbArc
 50
201.3386821427
 51
209.5003995832
  0
ARC
  5
75E
100
AcDbEntity
  8
ASSI
100
AcDbCircle
 62
7
  6
CONTINUOUS
 10
-29.3630176948
 20
5.031730403
 40
2.1910787852
100
AcDbArc
 50
201.3386821427
 51
209.5003995832
  0
ARC
  5
75F
100
AcDbEntity
  8
ASSI
100
AcDbCircle
 62
7
  6
CONTINUOUS
 10
-29.3630176948
 20
9.968269597
 40
2.1910787852
100
AcDbArc
 50
150.4996004168
 51
158.6613178573
  0
ARC
  5
760
100
AcDbEntity
  8
ASSI
100
AcDbCircle
 62
7
  6
CONTINUOUS
 10
-29.3630176948
 20
10.031730403
 40
2.1910787852
100
AcDbArc
 50
201.3386821427
 51
209.5003995832
  0
ARC
  5
761
100
AcDbEntity
  8
DRAFT
100
AcDbCircle
 62
7
  6
CONTINUOUS
 10
-29.4676587018
 20
9.9997037243
 40
2.0822470819
100
AcDbArc
 50
90.0042988944
 51
158.4192330707
  0
ARC
  5
762
100
AcDbEntity
  8
ASSI
100
AcDbCircle
 62
7
  6
CONTINUOUS
 10
-29.4676587018
 20
9.9997037243
 40
2.0822470819
100
AcDbArc
 50
90.0042988944
 51
158.4192330707
  0
ARC
  5
763
100
AcDbEntity
  8
DRAFT
100
AcDbCircle
 62
7
  6
CONTINUOUS
 10
-29.4676587866
 20
10.0002961508
 40
2.0822470815
100
AcDbArc
 50
201.5807645916
 51
269.9957034383
  0
ARC
  5
764
100
AcDbEntity
  8
ASSI
100
AcDbCircle
 62
7
  6
CONTINUOUS
 10
-29.4676587866
 20
10.0002961508
 40
2.0822470815
100
AcDbArc
 50
201.5807645916
 51
269.9957034383
  0
CIRCLE
  5
765
100
AcDbEntity
  8
ASSI
100
AcDbCircle
 62
7
  6
CONTINUOUS
 10
-29.2497735052
 20
10.0
 40
2.0
  0
ARC
  5
766
100
AcDbEntity
  8
RACCORDO
100
AcDbCircle
 62
7
  6
CONTINUOUS
 10
-51.0050981868
 20
10.0
 40
1.1395115644
100
AcDbArc
 50
89.7322687165
 51
270.2677312835
  0
ARC
  5
767
100
AcDbEntity
  8
ASSI
100
AcDbCircle
 62
7
  6
CONTINUOUS
 10
-51.0050981868
 20
10.0
 40
1.1395115644
100
AcDbArc
 50
89.7322687165
 51
270.2677312835
  0
ARC
  5
768
100
AcDbEntity
  8
RACCORDO
100
AcDbCircle
 62
7
  6
CONTINUOUS
 10
-51.0016583752
 20
10.0
 40
0.8113840994
100
AcDbArc
 50
89.8669000301
 51
270.1330999699
  0
ARC
  5
769
100
AcDbEntity
  8
ASSI
100
AcDbCircle
 62
7
  6
CONTINUOUS
 10
-51.0016583752
 20
10.0
 40
0.8113840994
100
AcDbArc
 50
89.8669000301
 51
270.1330999699
  0
ARC
  5
76A
100
AcDbEntity
  8
RACCORDO
100
AcDbCircle
 62
7
  6
CONTINUOUS
 10
-51.0050981868
 20
15.0
 40
1.1395115644
100
AcDbArc
 50
89.7322687165
 51
270.2677312835
  0
ARC
  5
76B
100
AcDbEntity
  8
ASSI
100
AcDbCircle
 62
7
  6
CONTINUOUS
 10
-51.0050981868
 20
15.0
 40
1.1395115644
100
AcDbArc
 50
89.7322687165
 51
270.2677312835
  0
ARC
  5
76C
100
AcDbEntity
  8
RACCORDO
100
AcDbCircle
 62
7
  6
CONTINUOUS
 10
-51.0016583752
 20
15.0
 40
0.8113840994
100
AcDbArc
 50
89.8669000301
 51
270.1330999699
  0
ARC
  5
76D
100
AcDbEntity
  8
ASSI
100
AcDbCircle
 62
7
  6
CONTINUOUS
 10
-51.0016583752
 20
15.0
 40
0.8113840994
100
AcDbArc
 50
89.8669000301
 51
270.1330999699
  0
ARC
  5
76E
100
AcDbEntity
  8
ASSI
100
AcDbCircle
 62
7
  6
CONTINUOUS
 10
-70.854791446
 20
20.8249565133
 40
1.2009897402
100
AcDbArc
 50
92.961832128
 51
177.5035000579
  0
ARC
  5
76F
100
AcDbEntity
  8
ASSI
100
AcDbCircle
 62
7
  6
CONTINUOUS
 10
-71.2065819593
 20
20.8075584132
 40
1.2
100
AcDbArc
 50
93.0
 51
177.0092051175
  0
ARC
  5
770
100
AcDbEntity
  8
ASSI
100
AcDbCircle
 62
7
  6
CONTINUOUS
 10
-62.9997735052
 20
24.2368706193
 40
0.25
100
AcDbArc
 50
0.0
 51
89.0
  0
ARC
  5
771
100
AcDbEntity
  8
ASSI
100
AcDbCircle
 62
7
  6
CONTINUOUS
 10
-65.9997735052
 20
24.2106880219
 40
0.25
100
AcDbArc
 50
91.0
 51
180.0
  0
ARC
  5
772
100
AcDbEntity
  8
ASSI
100
AcDbCircle
 62
7
  6
CONTINUOUS
 10
-62.9997735052
 20
23.8443375673
 40
0.25
100
AcDbArc
 50
299.9955054653
 51
359.9800998866
  0
ARC
  5
773
100
AcDbEntity
  8
ASSI
100
AcDbCircle
 62
7
  6
CONTINUOUS
 10
-65.9997735052
 20
23.8443375673
 40
0.25
100
AcDbArc
 50
179.995410117
 51
239.9806292494
  0
ARC
  5
774
100
AcDbEntity
  8
ASSI
100
AcDbCircle
 62
253
  6
CONTINUOUS
 10
-66.003263332
 20
24.2106873788
 40
0.0500006544
100
AcDbArc
 50
91.000736944
 51
179.999263056
  0
ARC
  5
775
100
AcDbEntity
  8
ASSI
100
AcDbCircle
 62
253
  6
CONTINUOUS
 10
-62.9962836781
 20
24.2368699763
 40
0.0500006543
100
AcDbArc
 50
0.0007367612
 51
88.9992632387
  0
ARC
  5
776
100
AcDbEntity
  8
ASSI
100
AcDbCircle
 62
253
  6
CONTINUOUS
 10
-62.9962812863
 20
23.8443365641
 40
0.0499982624
100
AcDbArc
 50
299.9988503635
 51
0.0011496365
  0
ARC
  5
777
100
AcDbEntity
  8
ASSI
100
AcDbCircle
 62
253
  6
CONTINUOUS
 10
-66.0032657274
 20
23.8443365622
 40
0.0499982591
100
AcDbArc
 50
179.9988481766
 51
240.0011518234
  0
ARC
  5
778
100
AcDbEntity
  8
ASSI
100
AcDbCircle
 62
7
  6
CONTINUOUS
 10
-53.2497735052
 20
21.2165694902
 40
1.0
100
AcDbArc
 50
13.1659219559
 51
21.7795331326
  0
ARC
  5
779
100
AcDbEntity
  8
ASSI
100
AcDbCircle
 62
7
  6
CONTINUOUS
 10
-53.2497735052
 20
21.2165694902
 40
1.0
100
AcDbArc
 50
3.593925795
 51
4.7256692771
  0
ARC
  5
77A
100
AcDbEntity
  8
RACCORDO
100
AcDbCircle
 62
7
  6
CONTINUOUS
 10
-53.2497735052
 20
21.2165694902
 40
1.0
100
AcDbArc
 50
0.0
 51
89.0
  0
ARC
  5
77B
100
AcDbEntity
  8
RACCORDO
100
AcDbCircle
 62
253
  6
CONTINUOUS
 10
-53.2509411702
 20
21.2158510479
 40
0.8046584671
100
AcDbArc
 50
0.0511567596
 51
17.4845286689
  0
ARC
  5
77C
100
AcDbEntity
  8
RACCORDO
100
AcDbCircle
 62
7
  6
CONTINUOUS
 10
-52.4497735052
 20
21.18553092
 40
0.2
100
AcDbArc
 50
270.5
 51
360.0
  0
ARC
  5
77D
100
AcDbEntity
  8
ASSI
100
AcDbCircle
 62
7
  6
CONTINUOUS
 10
-57.9997770915
 20
23.6495953573
 40
0.25
100
AcDbArc
 50
0.0000550469
 51
89.0
  0
ARC
  5
77E
100
AcDbEntity
  8
DRAFT
100
AcDbCircle
 62
7
  6
CONTINUOUS
 10
-29.3630176948
 20
15.031730403
 40
2.1910787852
100
AcDbArc
 50
201.3386821427
 51
209.5003995832
  0
ARC
  5
77F
100
AcDbEntity
  8
DRAFT
100
AcDbCircle
 62
7
  6
CONTINUOUS
 10
-29.3630176948
 20
14.968269597
 40
2.1910787852
100
AcDbArc
 50
150.4996004168
 51
158.6613178573
  0
ARC
  5
780
100
AcDbEntity
  8
ASSI
100
AcDbCircle
 62
7
  6
CONTINUOUS
 10
-29.3630176948
 20
14.968269597
 40
2.1910787852
100
AcDbArc
 50
150.4996004168
 51
158.6613178573
  0
ARC
  5
781
100
AcDbEntity
  8
ASSI
100
AcDbCircle
 62
7
  6
CONTINUOUS
 10
-29.3630176948
 20
15.031730403
 40
2.1910787852
100
AcDbArc
 50
201.3386821427
 51
209.5003995832
  0
ARC
  5
782
100
AcDbEntity
  8
DRAFT
100
AcDbCircle
 62
7
  6
CONTINUOUS
 10
-29.4676587018
 20
14.9997037243
 40
2.0822470819
100
AcDbArc
 50
90.0042988944
 51
158.4192330707
  0
ARC
  5
783
100
AcDbEntity
  8
ASSI
100
AcDbCircle
 62
7
  6
CONTINUOUS
 10
-29.4676587018
 20
14.9997037243
 40
2.0822470819
100
AcDbArc
 50
90.0042988944
 51
158.4192330707
  0
ARC
  5
784
100
AcDbEntity
  8
DRAFT
100
AcDbCircle
 62
7
  6
CONTINUOUS
 10
-29.4676587866
 20
15.0002961508
 40
2.0822470815
100
AcDbArc
 50
201.5807645916
 51
269.9957034383
  0
ARC
  5
785
100
AcDbEntity
  8
ASSI
100
AcDbCircle
 62
7
  6
CONTINUOUS
 10
-29.4676587866
 20
15.0002961508
 40
2.0822470815
100
AcDbArc
 50
201.5807645916
 51
269.9957034383
  0
CIRCLE
  5
786
100
AcDbEntity
  8
ASSI
100
AcDbCircle
 62
7
  6
CONTINUOUS
 10
-29.2497735052
 20
15.0
 40
2.0
  0
ARC
  5
787
100
AcDbEntity
  8
RACCORDO
100
AcDbCircle
 62
7
  6
CONTINUOUS
 10
-24.2497735052
 20
18.1220850228
 40
1.0
100
AcDbArc
 50
0.0
 51
89.0
  0
ARC
  5
788
100
AcDbEntity
  8
ASSI
100
AcDbCircle
 62
7
  6
CONTINUOUS
 10
-24.2497735052
 20
18.1220850228
 40
1.0
100
AcDbArc
 50
0.0
 51
89.0
  0
ARC
  5
789
100
AcDbEntity
  8
RACCORDO
100
AcDbCircle
 62
253
  6
CONTINUOUS
 10
-23.7436888216
 20
18.1038144487
 40
0.4939153166
100
AcDbArc
 50
0.0014809685
 51
2.1107348801
  0
ARC
  5
78A
100
AcDbEntity
  8
ASSI
100
AcDbCircle
 62
253
  6
CONTINUOUS
 10
-23.7436888216
 20
18.1038144487
 40
0.4939153166
100
AcDbArc
 50
0.0014809685
 51
2.1107348801
  0
ARC
  5
78B
100
AcDbEntity
  8
ASSI
100
AcDbCircle
 62
253
  6
CONTINUOUS
 10
412.2112006834
 20
-0.0000001502
 40
484.2298025351
100
AcDbArc
 50
177.5315015143
 51
182.4684984499
  0
ARC
  5
78C
100
AcDbEntity
  8
ASSI
100
AcDbCircle
 62
253
  6
CONTINUOUS
 10
412.9820272719
 20
-0.0000000011
 40
485.4857159186
100
AcDbArc
 50
177.5353584049
 51
182.464641595
  0
SPLINE
  5
78D
100
AcDbEntity
  8
RACCORDO
100
AcDbSpline
 62
7
  6
CONTINUOUS
 70
0
 71
3
 72
22
 73
18
 74
16
 42
0.0000001
 43
0.0000001
 44
0.0000000001
 12
0.3239257485
 22
-0.1925983853
 32
0.0
 13
-0.3405860039
 23
-0.161317087
 33
0.0
 40
0.0
 40
0.0
 40
0.0
 40
0.0
 40
0.1549375268
 40
0.3086647527
 40
0.4597754184
 40
0.606287086
 40
0.6768445214
 40
0.7447208199
 40
0.8090301628
 40
0.8683039439
 40
0.9205546762
 40
0.9431276077
 40
0.9626367147
 40
0.9785514065
 40
0.990373808
 40
0.9976553921
 40
1.0
 40
1.0
 40
1.0
 40
1.0
 10
3.981481464
 20
6.701506174
 30
0.0
 10
3.9982108821
 20
6.6915592682
 30
0.0
 10
4.0314517685
 20
6.6715959502
 30
0.0
 10
4.0807003397
 20
6.6414214888
 30
0.0
 10
4.1287784763
 20
6.6113669614
 30
0.0
 10
4.1677717029
 20
6.5864933835
 30
0.0
 10
4.1978089785
 20
6.5670242722
 30
0.0
 10
4.2191111734
 20
6.5530661674
 30
0.0
 10
4.2391605763
 20
6.5397772519
 30
0.0
 10
4.2574929901
 20
6.5274702241
 30
0.0
 10
4.2714355632
 20
6.5179788809
 30
0.0
 10
4.2811460941
 20
6.5112501137
 30
0.0
 10
4.2871903568
 20
6.5070334667
 30
0.0
 10
4.2918000477
 20
6.5036741511
 30
0.0
 10
4.2958623912
 20
6.5008444839
 30
0.0
 10
4.2970473578
 20
6.4995826064
 30
0.0
 10
4.2989152862
 20
6.4983668856
 30
0.0
 10
4.298649106
 20
6.4982408105
 30
0.0
 11
3.981481464
 21
6.701506174
 31
0.0
 11
4.0315371472
 21
6.671443608
 31
0.0
 11
4.0809345961
 21
6.6411753881
 31
0.0
 11
4.1292213553
 21
6.6109862937
 31
0.0
 11
4.1757670243
 21
6.5812861502
 31
0.0
 11
4.1980792286
 21
6.5668223629
 31
0.0
 11
4.2194737162
 21
6.5528009992
 31
0.0
 11
4.2396725358
 21
6.5394082027
 31
0.0
 11
4.2582161891
 21
6.5269538687
 31
0.0
 11
4.2744835257
 21
6.5158582101
 31
0.0
 11
4.2814769581
 21
6.5110149244
 31
0.0
 11
4.2874935087
 21
6.5067893535
 31
0.0
 11
4.2923676824
 21
6.5032945856
 31
0.0
 11
4.2959446276
 21
6.5006383166
 31
0.0
 11
4.2980846242
 21
6.4989205765
 31
0.0
 11
4.298649106
 21
6.4982408105
 31
0.0
  0
SPLINE
  5
78E
100
AcDbEntity
  8
RACCORDO
100
AcDbSpline
 62
7
  6
CONTINUOUS
 70
0
 71
3
 72
22
 73
18
 74
16
 42
0.0000001
 43
0.0000001
 44
0.0000000001
 12
0.3405859978
 22
-0.1613171007
 32
0.0
 13
-0.3239257488
 23
-0.1925983855
 33
0.0
 40
0.0
 40
0.0
 40
0.0
 40
0.0
 40
0.0023445875
 40
0.0096261279
 40
0.0214484932
 40
0.0373631807
 40
0.0568723181
 40
0.0794453317
 40
0.1316963443
 40
0.1909701227
 40
0.2552795388
 40
0.3231556855
 40
0.3937126581
 40
0.5402239042
 40
0.6913342925
 40
0.8450620313
 40
1.0
 40
1.0
 40
1.0
 40
1.0
 10
4.298649106
 20
-6.4982408105
 30
0.0
 10
4.2989152839
 20
-6.4983668845
 30
0.0
 10
4.2970473726
 20
-6.4995826005
 30
0.0
 10
4.2958624087
 20
-6.5008444703
 30
0.0
 10
4.2918000762
 20
-6.5036741323
 30
0.0
 10
4.2871903856
 20
-6.5070334458
 30
0.0
 10
4.2811461117
 20
-6.5112501009
 30
0.0
 10
4.2714355404
 20
-6.5179788962
 30
0.0
 10
4.2574929303
 20
-6.5274702656
 30
0.0
 10
4.2391604789
 20
-6.5397773164
 30
0.0
 10
4.2191110845
 20
-6.5530662263
 30
0.0
 10
4.197808947
 20
-6.5670242946
 30
0.0
 10
4.1677717789
 20
-6.5864933325
 30
0.0
 10
4.128778678
 20
-6.6113668362
 30
0.0
 10
4.0807005622
 20
-6.6414213529
 30
0.0
 10
4.0314519165
 20
-6.6715958557
 30
0.0
 10
3.9982109298
 20
-6.6915592398
 30
0.0
 10
3.981481464
 20
-6.701506174
 30
0.0
 11
4.298649106
 21
-6.4982408105
 31
0.0
 11
4.2980846308
 21
-6.498920572
 31
0.0
 11
4.295944648
 21
-6.5006383028
 31
0.0
 11
4.2923677138
 21
-6.5032945639
 31
0.0
 11
4.2874935411
 21
-6.5067893305
 31
0.0
 11
4.2814769811
 21
-6.5110149079
 31
0.0
 11
4.2744835233
 21
-6.5158582112
 31
0.0
 11
4.2582160996
 21
-6.5269539297
 31
0.0
 11
4.2396724465
 21
-6.5394082622
 31
0.0
 11
4.2194736037
 21
-6.5528010737
 31
0.0
 11
4.1980791641
 21
-6.5668224062
 31
0.0
 11
4.1757671054
 21
-6.5812860977
 31
0.0
 11
4.129221572
 21
-6.6109861584
 31
0.0
 11
4.0809349025
 21
-6.6411751991
 31
0.0
 11
4.0315372884
 21
-6.6714435196
 31
0.0
 11
3.981481464
 21
-6.701506174
 31
0.0
  0
SPLINE
  5
78F
100
AcDbEntity
  8
RACCORDO
100
AcDbSpline
 62
7
  6
CONTINUOUS
 70
0
 71
3
 72
22
 73
18
 74
16
 42
0.0000001
 43
0.0000001
 44
0.0000000001
 12
-0.3405859978
 22
0.1613171007
 32
0.0
 13
0.3239257488
 23
0.1925983855
 33
0.0
 40
0.0
 40
0.0
 40
0.0
 40
0.0
 40
0.0023445875
 40
0.0096261279
 40
0.0214484932
 40
0.0373631807
 40
0.0568723181
 40
0.0794453317
 40
0.1316963443
 40
0.1909701227
 40
0.2552795388
 40
0.3231556855
 40
0.3937126581
 40
0.5402239042
 40
0.6913342925
 40
0.8450620313
 40
1.0
 40
1.0
 40
1.0
 40
1.0
 10
-4.298649106
 20
6.4982408105
 30
0.0
 10
-4.2989152839
 20
6.4983668845
 30
0.0
 10
-4.2970473726
 20
6.4995826005
 30
0.0
 10
-4.2958624087
 20
6.5008444703
 30
0.0
 10
-4.2918000762
 20
6.5036741323
 30
0.0
 10
-4.2871903856
 20
6.5070334458
 30
0.0
 10
-4.2811461117
 20
6.5112501009
 30
0.0
 10
-4.2714355404
 20
6.5179788962
 30
0.0
 10
-4.2574929303
 20
6.5274702656
 30
0.0
 10
-4.2391604789
 20
6.5397773164
 30
0.0
 10
-4.2191110845
 20
6.5530662263
 30
0.0
 10
-4.197808947
 20
6.5670242946
 30
0.0
 10
-4.1677717788
 20
6.5864933325
 30
0.0
 10
-4.128778678
 20
6.6113668362
 30
0.0
 10
-4.0807005622
 20
6.6414213529
 30
0.0
 10
-4.0314519165
 20
6.6715958557
 30
0.0
 10
-3.9982109298
 20
6.6915592398
 30
0.0
 10
-3.981481464
 20
6.701506174
 30
0.0
 11
-4.298649106
 21
6.4982408105
 31
0.0
 11
-4.2980846308
 21
6.498920572
 31
0.0
 11
-4.295944648
 21
6.5006383028
 31
0.0
 11
-4.2923677138
 21
6.5032945639
 31
0.0
 11
-4.2874935411
 21
6.5067893305
 31
0.0
 11
-4.2814769811
 21
6.5110149079
 31
0.0
 11
-4.2744835233
 21
6.5158582112
 31
0.0
 11
-4.2582160996
 21
6.5269539296
 31
0.0
 11
-4.2396724465
 21
6.5394082622
 31
0.0
 11
-4.2194736037
 21
6.5528010737
 31
0.0
 11
-4.1980791641
 21
6.5668224062
 31
0.0
 11
-4.1757671054
 21
6.5812860977
 31
0.0
 11
-4.129221572
 21
6.6109861583
 31
0.0
 11
-4.0809349025
 21
6.6411751991
 31
0.0
 11
-4.0315372884
 21
6.6714435196
 31
0.0
 11
-3.981481464
 21
6.701506174
 31
0.0
  0
SPLINE
  5
790
100
AcDbEntity
  8
RACCORDO
100
AcDbSpline
 62
7
  6
CONTINUOUS
 70
0
 71
3
 72
22
 73
18
 74
16
 42
0.0000001
 43
0.0000001
 44
0.0000000001
 12
-0.3239257485
 22
0.1925983853
 32
0.0
 13
0.3405860039
 23
0.161317087
 33
0.0
 40
0.0
 40
0.0
 40
0.0
 40
0.0
 40
0.1549375268
 40
0.3086647527
 40
0.4597754184
 40
0.606287086
 40
0.6768445214
 40
0.7447208199
 40
0.8090301628
 40
0.8683039439
 40
0.9205546762
 40
0.9431276077
 40
0.9626367147
 40
0.9785514065
 40
0.990373808
 40
0.9976553921
 40
1.0
 40
1.0
 40
1.0
 40
1.0
 10
-3.981481464
 20
-6.701506174
 30
0.0
 10
-3.9982108821
 20
-6.6915592682
 30
0.0
 10
-4.0314517685
 20
-6.6715959502
 30
0.0
 10
-4.0807003397
 20
-6.6414214888
 30
0.0
 10
-4.1287784763
 20
-6.6113669614
 30
0.0
 10
-4.1677717029
 20
-6.5864933835
 30
0.0
 10
-4.1978089785
 20
-6.5670242722
 30
0.0
 10
-4.2191111734
 20
-6.5530661674
 30
0.0
 10
-4.2391605763
 20
-6.5397772519
 30
0.0
 10
-4.2574929901
 20
-6.5274702241
 30
0.0
 10
-4.2714355632
 20
-6.5179788809
 30
0.0
 10
-4.2811460941
 20
-6.5112501137
 30
0.0
 10
-4.2871903568
 20
-6.5070334667
 30
0.0
 10
-4.2918000477
 20
-6.5036741511
 30
0.0
 10
-4.2958623912
 20
-6.5008444839
 30
0.0
 10
-4.2970473578
 20
-6.4995826064
 30
0.0
 10
-4.2989152862
 20
-6.4983668856
 30
0.0
 10
-4.298649106
 20
-6.4982408105
 30
0.0
 11
-3.981481464
 21
-6.701506174
 31
0.0
 11
-4.0315371472
 21
-6.671443608
 31
0.0
 11
-4.0809345961
 21
-6.6411753881
 31
0.0
 11
-4.1292213553
 21
-6.6109862937
 31
0.0
 11
-4.1757670243
 21
-6.5812861502
 31
0.0
 11
-4.1980792286
 21
-6.5668223629
 31
0.0
 11
-4.2194737162
 21
-6.5528009992
 31
0.0
 11
-4.2396725358
 21
-6.5394082027
 31
0.0
 11
-4.2582161891
 21
-6.5269538687
 31
0.0
 11
-4.2744835257
 21
-6.5158582101
 31
0.0
 11
-4.2814769581
 21
-6.5110149244
 31
0.0
 11
-4.2874935087
 21
-6.5067893535
 31
0.0
 11
-4.2923676824
 21
-6.5032945856
 31
0.0
 11
-4.2959446276
 21
-6.5006383166
 31
0.0
 11
-4.2980846242
 21
-6.4989205765
 31
0.0
 11
-4.298649106
 21
-6.4982408105
 31
0.0
  0
LINE
  5
791
100
AcDbEntity
  8
RACCORDO
100
AcDbLine
 62
7
  6
CONTINUOUS
 10
4.298649106
 20
-6.4982408105
 11
4.2548739058
 21
-6.4775418213
  0
LINE
  5
792
100
AcDbEntity
  8
RACCORDO
100
AcDbLine
 62
7
  6
CONTINUOUS
 10
4.2548739058
 20
6.4775418212
 11
4.298649106
 21
6.4982408105
  0
LINE
  5
793
100
AcDbEntity
  8
RACCORDO
100
AcDbLine
 62
7
  6
CONTINUOUS
 10
-4.2548739058
 20
-6.4775418213
 11
-4.298649106
 21
-6.4982408105
  0
LINE
  5
794
100
AcDbEntity
  8
RACCORDO
100
AcDbLine
 62
7
  6
CONTINUOUS
 10
-4.2548739058
 20
6.4775418212
 11
-4.298649106
 21
6.4982408105
  0
SPLINE
  5
795
100
AcDbEntity
  8
ASSI
100
AcDbSpline
 62
253
  6
CONTINUOUS
 70
0
 71
3
 72
11
 73
7
 74
5
 42
0.0000001
 43
0.0000001
 44
0.0000000001
 12
-0.290824418
 22
-0.0021981279
 32
0.0
 13
-0.0029298796
 23
-0.2908179665
 33
0.0
 40
0.0
 40
0.0
 40
0.0
 40
0.0
 40
0.2659011537
 40
0.5231711216
 40
0.7669316808
 40
1.0
 40
1.0
 40
1.0
 40
1.0
 10
-10.3602592617
 20
-23.6278312164
 30
0.0
 10
-10.3860361111
 20
-23.6280260446
 30
0.0
 10
-10.43712135
 20
-23.6369744366
 30
0.0
 10
-10.5030412857
 20
-23.6746347866
 30
0.0
 10
-10.5485995191
 20
-23.7317691277
 30
0.0
 10
-10.56000118
 20
-23.7784428122
 30
0.0
 10
-10.5602288007
 20
-23.8010362971
 30
0.0
 11
-10.3602592617
 21
-23.6278312164
 31
0.0
 11
-10.4363839665
 21
-23.6414468189
 31
0.0
 11
-10.5010461461
 21
-23.6790927071
 31
0.0
 11
-10.5445092521
 21
-23.7351003272
 31
0.0
 11
-10.5602288007
 21
-23.8010362971
 31
0.0
  0
SPLINE
  5
796
100
AcDbEntity
  8
ASSI
100
AcDbSpline
 62
7
  6
CONTINUOUS
 70
0
 71
3
 72
12
 73
8
 74
6
 42
0.0000001
 43
0.0000001
 44
0.0000000001
 12
0.0092279883
 22
0.2408431399
 32
0.0
 13
0.2395313719
 23
-0.0267450115
 33
0.0
 40
0.0
 40
0.0
 40
0.0
 40
0.0
 40
0.1616128294
 40
0.2604077624
 40
0.3752282587
 40
0.6572300195
 40
1.0
 40
1.0
 40
1.0
 40
1.0
 10
-10.5781050106
 20
-23.2097560788
 30
0.0
 10
-10.5776078902
 20
-23.1967816317
 30
0.0
 10
-10.5681158726
 20
-23.1761495846
 30
0.0
 10
-10.5460303979
 20
-23.1555548802
 30
0.0
 10
-10.5118238086
 20
-23.1346172361
 30
0.0
 10
-10.4538062759
 20
-23.1179167719
 30
0.0
 10
-10.4029798825
 20
-23.1169681865
 30
0.0
 10
-10.3756118279
 20
-23.1200239821
 30
0.0
 11
-10.5781050106
 21
-23.2097560788
 31
0.0
 11
-10.5635785992
 21
-23.173614219
 31
0.0
 11
-10.5465094436
 21
-23.1570120079
 31
0.0
 11
-10.5230491523
 21
-23.1423332433
 31
0.0
 11
-10.4582032806
 21
-23.1219699089
 31
0.0
 11
-10.3756118279
 21
-23.1200239821
 31
0.0
  0
SPLINE
  5
797
100
AcDbEntity
  8
ASSI
100
AcDbSpline
 62
253
  6
CONTINUOUS
 70
0
 71
3
 72
11
 73
7
 74
5
 42
0.0000001
 43
0.0000001
 44
0.0000000001
 12
-0.290824418
 22
-0.0021981279
 32
0.0
 13
-0.0029298796
 23
-0.2908179665
 33
0.0
 40
0.0
 40
0.0
 40
0.0
 40
0.0
 40
0.2659011537
 40
0.5231711216
 40
0.7669316808
 40
1.0
 40
1.0
 40
1.0
 40
1.0
 10
7.4397407383
 20
-23.6278312164
 30
0.0
 10
7.4139638889
 20
-23.6280260446
 30
0.0
 10
7.36287865
 20
-23.6369744366
 30
0.0
 10
7.2969587143
 20
-23.6746347866
 30
0.0
 10
7.2514004809
 20
-23.7317691277
 30
0.0
 10
7.23999882
 20
-23.7784428122
 30
0.0
 10
7.2397711993
 20
-23.8010362971
 30
0.0
 11
7.4397407383
 21
-23.6278312164
 31
0.0
 11
7.3636160335
 21
-23.6414468189
 31
0.0
 11
7.2989538539
 21
-23.6790927071
 31
0.0
 11
7.2554907479
 21
-23.7351003272
 31
0.0
 11
7.2397711993
 21
-23.8010362971
 31
0.0
  0
SPLINE
  5
798
100
AcDbEntity
  8
ASSI
100
AcDbSpline
 62
7
  6
CONTINUOUS
 70
0
 71
3
 72
12
 73
8
 74
6
 42
0.0000001
 43
0.0000001
 44
0.0000000001
 12
0.0092279883
 22
0.240843142
 32
0.0
 13
0.2395313741
 23
-0.0267450118
 33
0.0
 40
0.0
 40
0.0
 40
0.0
 40
0.0
 40
0.1616125329
 40
0.2604072651
 40
0.3752276894
 40
0.6572297246
 40
1.0
 40
1.0
 40
1.0
 40
1.0
 10
7.2218949894
 20
-23.2097560788
 30
0.0
 10
7.2223921089
 20
-23.1967816554
 30
0.0
 10
7.2318840845
 20
-23.1761496414
 30
0.0
 10
7.2539695122
 20
-23.1555549509
 30
0.0
 10
7.2881760839
 20
-23.1346172782
 30
0.0
 10
7.3461936529
 20
-23.1179167767
 30
0.0
 10
7.3970200937
 20
-23.1169681838
 30
0.0
 10
7.4243881721
 20
-23.1200239821
 30
0.0
 11
7.2218949894
 21
-23.2097560788
 31
0.0
 11
7.2364213503
 21
-23.1736142754
 31
0.0
 11
7.2534904582
 21
-23.1570120843
 31
0.0
 11
7.2769507227
 21
-23.1423333093
 31
0.0
 11
7.3417966479
 21
-23.1219699222
 31
0.0
 11
7.4243881721
 21
-23.1200239821
 31
0.0
  0
SPLINE
  5
799
100
AcDbEntity
  8
ASSI
100
AcDbSpline
 62
7
  6
CONTINUOUS
 70
0
 71
3
 72
12
 73
8
 74
6
 42
0.0000001
 43
0.0000001
 44
0.0000000001
 12
0.2395313741
 22
0.0267450118
 32
0.0
 13
0.0092279883
 23
-0.240843142
 33
0.0
 40
0.0
 40
0.0
 40
0.0
 40
0.0
 40
0.3427702754
 40
0.6247723106
 40
0.7395927349
 40
0.8383874671
 40
1.0
 40
1.0
 40
1.0
 40
1.0
 10
-7.4243881721
 20
-23.1200239821
 30
0.0
 10
-7.3970200937
 20
-23.1169681838
 30
0.0
 10
-7.3461936529
 20
-23.1179167767
 30
0.0
 10
-7.2881760839
 20
-23.1346172782
 30
0.0
 10
-7.2539695122
 20
-23.1555549509
 30
0.0
 10
-7.2318840845
 20
-23.1761496414
 30
0.0
 10
-7.2223921089
 20
-23.1967816554
 30
0.0
 10
-7.2218949894
 20
-23.2097560788
 30
0.0
 11
-7.4243881721
 21
-23.1200239821
 31
0.0
 11
-7.3417966479
 21
-23.1219699222
 31
0.0
 11
-7.2769507227
 21
-23.1423333093
 31
0.0
 11
-7.2534904582
 21
-23.1570120843
 31
0.0
 11
-7.2364213503
 21
-23.1736142754
 31
0.0
 11
-7.2218949894
 21
-23.2097560788
 31
0.0
  0
SPLINE
  5
79A
100
AcDbEntity
  8
ASSI
100
AcDbSpline
 62
253
  6
CONTINUOUS
 70
0
 71
3
 72
11
 73
7
 74
5
 42
0.0000001
 43
0.0000001
 44
0.0000000001
 12
0.290824418
 22
-0.002198128
 32
0.0
 13
0.0029298796
 23
-0.2908179665
 33
0.0
 40
0.0
 40
0.0
 40
0.0
 40
0.0
 40
0.2659011522
 40
0.5231711191
 40
0.7669316794
 40
1.0
 40
1.0
 40
1.0
 40
1.0
 10
-7.4397407383
 20
-23.6278312164
 30
0.0
 10
-7.413963889
 20
-23.6280260446
 30
0.0
 10
-7.3628786504
 20
-23.6369744365
 30
0.0
 10
-7.2969587147
 20
-23.6746347862
 30
0.0
 10
-7.2514004811
 20
-23.7317691273
 30
0.0
 10
-7.23999882
 20
-23.7784428121
 30
0.0
 10
-7.2397711993
 20
-23.8010362971
 30
0.0
 11
-7.4397407383
 21
-23.6278312164
 31
0.0
 11
-7.3636160339
 21
-23.6414468187
 31
0.0
 11
-7.2989538545
 21
-23.6790927066
 31
0.0
 11
-7.2554907481
 21
-23.7351003269
 31
0.0
 11
-7.2397711993
 21
-23.8010362971
 31
0.0
  0
SPLINE
  5
79B
100
AcDbEntity
  8
ASSI
100
AcDbSpline
 62
253
  6
CONTINUOUS
 70
0
 71
3
 72
11
 73
7
 74
5
 42
0.0000001
 43
0.0000001
 44
0.0000000001
 12
0.290824418
 22
-0.002198128
 32
0.0
 13
0.0029298796
 23
-0.2908179665
 33
0.0
 40
0.0
 40
0.0
 40
0.0
 40
0.0
 40
0.2659011522
 40
0.5231711191
 40
0.7669316794
 40
1.0
 40
1.0
 40
1.0
 40
1.0
 10
10.3602592617
 20
-23.6278312164
 30
0.0
 10
10.386036111
 20
-23.6280260446
 30
0.0
 10
10.4371213496
 20
-23.6369744365
 30
0.0
 10
10.5030412853
 20
-23.6746347862
 30
0.0
 10
10.5485995189
 20
-23.7317691273
 30
0.0
 10
10.56000118
 20
-23.7784428121
 30
0.0
 10
10.5602288007
 20
-23.8010362971
 30
0.0
 11
10.3602592617
 21
-23.6278312164
 31
0.0
 11
10.4363839661
 21
-23.6414468187
 31
0.0
 11
10.5010461455
 21
-23.6790927066
 31
0.0
 11
10.5445092519
 21
-23.7351003269
 31
0.0
 11
10.5602288007
 21
-23.8010362971
 31
0.0
  0
SPLINE
  5
79C
100
AcDbEntity
  8
ASSI
100
AcDbSpline
 62
7
  6
CONTINUOUS
 70
0
 71
3
 72
12
 73
8
 74
6
 42
0.0000001
 43
0.0000001
 44
0.0000000001
 12
0.2395313719
 22
0.0267450115
 32
0.0
 13
0.0092279883
 23
-0.2408431399
 33
0.0
 40
0.0
 40
0.0
 40
0.0
 40
0.0
 40
0.3427699806
 40
0.6247717413
 40
0.7395922376
 40
0.8383871706
 40
1.0
 40
1.0
 40
1.0
 40
1.0
 10
10.3756118279
 20
-23.1200239821
 30
0.0
 10
10.4029798825
 20
-23.1169681865
 30
0.0
 10
10.4538062759
 20
-23.1179167719
 30
0.0
 10
10.5118238086
 20
-23.1346172361
 30
0.0
 10
10.5460303979
 20
-23.1555548802
 30
0.0
 10
10.5681158726
 20
-23.1761495846
 30
0.0
 10
10.5776078902
 20
-23.1967816317
 30
0.0
 10
10.5781050106
 20
-23.2097560788
 30
0.0
 11
10.3756118279
 21
-23.1200239821
 31
0.0
 11
10.4582032806
 21
-23.1219699089
 31
0.0
 11
10.5230491523
 21
-23.1423332433
 31
0.0
 11
10.5465094436
 21
-23.1570120079
 31
0.0
 11
10.5635785992
 21
-23.173614219
 31
0.0
 11
10.5781050106
 21
-23.2097560788
 31
0.0
  0
SPLINE
  5
79D
100
AcDbEntity
  8
ASSI
100
AcDbSpline
 62
253
  6
CONTINUOUS
 70
0
 71
3
 72
11
 73
7
 74
5
 42
0.0000001
 43
0.0000001
 44
0.0000000001
 12
0.0029298744
 22
-0.2908179843
 32
0.0
 13
0.2908244364
 23
-0.0021980406
 33
0.0
 40
0.0
 40
0.0
 40
0.0
 40
0.0
 40
0.2330683041
 40
0.4768288064
 40
0.7340987915
 40
1.0
 40
1.0
 40
1.0
 40
1.0
 10
-10.5602288007
 20
23.8010362971
 30
0.0
 10
-10.5600011804
 20
23.7784428123
 30
0.0
 10
-10.5485995333
 20
23.7317691306
 30
0.0
 10
-10.5030413131
 20
23.674634778
 30
0.0
 10
-10.4371213698
 20
23.636974425
 30
0.0
 10
-10.386036118
 20
23.6280260394
 30
0.0
 10
-10.3602592616
 20
23.6278312189
 30
0.0
 11
-10.5602288007
 21
23.8010362971
 31
0.0
 11
-10.5445092636
 21
23.7351003247
 31
0.0
 11
-10.5010461765
 21
23.6790927054
 31
0.0
 11
-10.4363839892
 21
23.6414468114
 31
0.0
 11
-10.3602592616
 21
23.6278312189
 31
0.0
  0
SPLINE
  5
79E
100
AcDbEntity
  8
ASSI
100
AcDbSpline
 62
7
  6
CONTINUOUS
 70
0
 71
3
 72
12
 73
8
 74
6
 42
0.0000001
 43
0.0000001
 44
0.0000000001
 12
-0.239530293
 22
-0.0267448911
 32
0.0
 13
-0.0092279467
 23
0.240842055
 33
0.0
 40
0.0
 40
0.0
 40
0.0
 40
0.0
 40
0.3426117859
 40
0.624591816
 40
0.7395308789
 40
0.838274356
 40
1.0
 40
1.0
 40
1.0
 40
1.0
 10
-10.3756118279
 20
23.1200239821
 30
0.0
 10
-10.4029671284
 20
23.1169696105
 30
0.0
 10
-10.4537786213
 20
23.1179165861
 30
0.0
 10
-10.5117911135
 20
23.1346097426
 30
0.0
 10
-10.5460071127
 20
23.1555385338
 30
0.0
 10
-10.5681115785
 20
23.1761339157
 30
0.0
 10
-10.5776075454
 20
23.1967726333
 30
0.0
 10
-10.5781050106
 20
23.2097560788
 30
0.0
 11
-10.3756118279
 21
23.1200239821
 31
0.0
 11
-10.4581648674
 21
23.1219657681
 31
0.0
 11
-10.5230087511
 21
23.142316927
 31
0.0
 11
-10.5464976004
 21
23.1570036873
 31
0.0
 11
-10.5635637077
 21
23.1735910893
 31
0.0
 11
-10.5781050106
 21
23.2097560788
 31
0.0
  0
SPLINE
  5
79F
100
AcDbEntity
  8
RACCORDO
100
AcDbSpline
 62
253
  6
CONTINUOUS
 70
0
 71
3
 72
27
 73
23
 74
21
 42
0.0000001
 43
0.0000001
 44
0.0000000001
 12
-24.5254586252
 22
0.0000928095
 32
0.0
 13
24.5254586252
 23
0.000092984
 33
0.0
 40
0.0
 40
0.0
 40
0.0
 40
0.0
 40
0.062482686
 40
0.0937603745
 40
0.1250364989
 40
0.1875090898
 40
0.2499776593
 40
0.281249196
 40
0.3125208719
 40
0.3749950635
 40
0.4374894635
 40
0.5000005861
 40
0.5625118505
 40
0.6250065498
 40
0.6874809031
 40
0.718752569
 40
0.7500241042
 40
0.8124926422
 40
0.8749645847
 40
0.9062403793
 40
0.9375178151
 40
1.0
 40
1.0
 40
1.0
 40
1.0
 10
0.0
 20
-7.8184777622
 30
0.0
 10
-0.5108055099
 20
-7.8184758292
 30
0.0
 10
-1.2800769165
 20
-7.7426501332
 30
0.0
 10
-2.2727026534
 20
-7.4936985379
 30
0.0
 10
-3.236451379
 20
-7.1487822436
 30
0.0
 10
-4.3704025916
 20
-6.5425652539
 30
0.0
 10
-5.3640059256
 20
-5.7264337442
 30
0.0
 10
-6.0510553028
 20
-4.9679001621
 30
0.0
 10
-6.6606454889
 20
-4.145799467
 30
0.0
 10
-7.2669209039
 20
-3.0114340471
 30
0.0
 10
-7.7144523923
 20
-1.535451197
 30
0.0
 10
-7.8656830819
 20
0.0000156101
 30
0.0
 10
-7.7144455309
 20
1.5354842222
 30
0.0
 10
-7.2669058575
 20
3.0114698604
 30
0.0
 10
-6.6606228082
 20
4.1458353976
 30
0.0
 10
-6.0510280258
 20
4.9679342193
 30
0.0
 10
-5.3639744756
 20
5.7264636028
 30
0.0
 10
-4.3703704657
 20
6.5425853531
 30
0.0
 10
-3.2364245026
 20
7.1487940453
 30
0.0
 10
-2.2726842243
 20
7.4937040234
 30
0.0
 10
-1.2800665807
 20
7.7426513174
 30
0.0
 10
-0.5108014135
 20
7.8184758256
 30
0.0
 10
0.0
 20
7.8184777622
 30
0.0
 11
0.0
 21
-7.8184777622
 31
0.0
 11
-1.5250285689
 21
-7.6681837693
 31
0.0
 11
-2.2691129438
 21
-7.4816889288
 31
0.0
 11
-2.9912869841
 21
-7.2231397394
 31
0.0
 11
-4.3423735719
 21
-6.5005702241
 31
0.0
 11
-5.5264402875
 21
-5.5283431566
 31
0.0
 11
-6.0413629724
 21
-4.9599550321
 31
0.0
 11
-6.4981146118
 21
-4.3438433496
 31
0.0
 11
-7.2202033158
 21
-2.9924552213
 31
0.0
 11
-7.6650297131
 21
-1.5257205874
 31
0.0
 11
-7.815267234
 21
0.0000143421
 31
0.0
 11
-7.6650229072
 21
1.5257520937
 31
0.0
 11
-7.220187613
 21
2.9924916994
 31
0.0
 11
-6.4980902234
 21
4.3438796834
 31
0.0
 11
-6.0413356727
 21
4.9599889028
 31
0.0
 11
-5.5264098043
 21
5.5283740919
 31
0.0
 11
-4.3423379839
 21
6.5005937243
 31
0.0
 11
-2.9912624071
 21
7.2231501064
 31
0.0
 11
-2.2690952167
 21
7.4816944407
 31
0.0
 11
-1.5250164597
 21
7.6681861978
 31
0.0
 11
0.0
 21
7.8184777622
 31
0.0
  0
SPLINE
  5
7A0
100
AcDbEntity
  8
ASSI
100
AcDbSpline
 62
253
  6
CONTINUOUS
 70
0
 71
3
 72
11
 73
7
 74
5
 42
0.0000001
 43
0.0000001
 44
0.0000000001
 12
0.290824418
 22
0.0021981279
 32
0.0
 13
0.0029298796
 23
0.2908179665
 33
0.0
 40
0.0
 40
0.0
 40
0.0
 40
0.0
 40
0.2659011524
 40
0.5231711195
 40
0.7669316796
 40
1.0
 40
1.0
 40
1.0
 40
1.0
 10
-7.4397407383
 20
23.6278312163
 30
0.0
 10
-7.413963889
 20
23.6280260446
 30
0.0
 10
-7.3628786503
 20
23.6369744365
 30
0.0
 10
-7.2969587147
 20
23.6746347863
 30
0.0
 10
-7.2514004811
 20
23.7317691274
 30
0.0
 10
-7.23999882
 20
23.7784428121
 30
0.0
 10
-7.2397711993
 20
23.8010362971
 30
0.0
 11
-7.4397407383
 21
23.6278312163
 31
0.0
 11
-7.3636160338
 21
23.6414468187
 31
0.0
 11
-7.2989538544
 21
23.6790927066
 31
0.0
 11
-7.2554907481
 21
23.7351003269
 31
0.0
 11
-7.2397711993
 21
23.8010362971
 31
0.0
  0
SPLINE
  5
7A1
100
AcDbEntity
  8
ASSI
100
AcDbSpline
 62
7
  6
CONTINUOUS
 70
0
 71
3
 72
12
 73
8
 74
6
 42
0.0000001
 43
0.0000001
 44
0.0000000001
 12
-0.0092279883
 22
-0.240843142
 32
0.0
 13
-0.2395313741
 23
0.0267450118
 33
0.0
 40
0.0
 40
0.0
 40
0.0
 40
0.0
 40
0.1616125329
 40
0.2604072651
 40
0.3752276894
 40
0.6572297246
 40
1.0
 40
1.0
 40
1.0
 40
1.0
 10
-7.2218949894
 20
23.2097560788
 30
0.0
 10
-7.2223921089
 20
23.1967816554
 30
0.0
 10
-7.2318840845
 20
23.1761496414
 30
0.0
 10
-7.2539695122
 20
23.1555549509
 30
0.0
 10
-7.2881760839
 20
23.1346172782
 30
0.0
 10
-7.3461936529
 20
23.1179167767
 30
0.0
 10
-7.3970200937
 20
23.1169681838
 30
0.0
 10
-7.4243881721
 20
23.1200239821
 30
0.0
 11
-7.2218949894
 21
23.2097560788
 31
0.0
 11
-7.2364213503
 21
23.1736142754
 31
0.0
 11
-7.2534904582
 21
23.1570120842
 31
0.0
 11
-7.2769507227
 21
23.1423333093
 31
0.0
 11
-7.3417966479
 21
23.1219699222
 31
0.0
 11
-7.4243881721
 21
23.1200239821
 31
0.0
  0
SPLINE
  5
7A2
100
AcDbEntity
  8
ASSI
100
AcDbSpline
 62
7
  6
CONTINUOUS
 70
0
 71
3
 72
12
 73
8
 74
6
 42
0.0000001
 43
0.0000001
 44
0.0000000001
 12
-0.2395313741
 22
-0.0267450118
 32
0.0
 13
-0.0092279883
 23
0.240843142
 33
0.0
 40
0.0
 40
0.0
 40
0.0
 40
0.0
 40
0.3427702754
 40
0.6247723106
 40
0.7395927349
 40
0.8383874671
 40
1.0
 40
1.0
 40
1.0
 40
1.0
 10
7.4243881721
 20
23.1200239821
 30
0.0
 10
7.3970200937
 20
23.1169681838
 30
0.0
 10
7.3461936529
 20
23.1179167767
 30
0.0
 10
7.2881760839
 20
23.1346172782
 30
0.0
 10
7.2539695122
 20
23.1555549509
 30
0.0
 10
7.2318840845
 20
23.1761496414
 30
0.0
 10
7.2223921089
 20
23.1967816554
 30
0.0
 10
7.2218949894
 20
23.2097560788
 30
0.0
 11
7.4243881721
 21
23.1200239821
 31
0.0
 11
7.3417966479
 21
23.1219699222
 31
0.0
 11
7.2769507227
 21
23.1423333093
 31
0.0
 11
7.2534904582
 21
23.1570120842
 31
0.0
 11
7.2364213503
 21
23.1736142754
 31
0.0
 11
7.2218949894
 21
23.2097560788
 31
0.0
  0
SPLINE
  5
7A3
100
AcDbEntity
  8
ASSI
100
AcDbSpline
 62
253
  6
CONTINUOUS
 70
0
 71
3
 72
11
 73
7
 74
5
 42
0.0000001
 43
0.0000001
 44
0.0000000001
 12
-0.290824418
 22
0.002198128
 32
0.0
 13
-0.0029298796
 23
0.2908179665
 33
0.0
 40
0.0
 40
0.0
 40
0.0
 40
0.0
 40
0.2659011522
 40
0.5231711191
 40
0.7669316794
 40
1.0
 40
1.0
 40
1.0
 40
1.0
 10
7.4397407383
 20
23.6278312163
 30
0.0
 10
7.413963889
 20
23.6280260446
 30
0.0
 10
7.3628786504
 20
23.6369744364
 30
0.0
 10
7.2969587147
 20
23.6746347862
 30
0.0
 10
7.2514004811
 20
23.7317691273
 30
0.0
 10
7.23999882
 20
23.7784428121
 30
0.0
 10
7.2397711993
 20
23.8010362971
 30
0.0
 11
7.4397407383
 21
23.6278312163
 31
0.0
 11
7.3636160339
 21
23.6414468187
 31
0.0
 11
7.2989538545
 21
23.6790927066
 31
0.0
 11
7.2554907481
 21
23.7351003269
 31
0.0
 11
7.2397711993
 21
23.8010362971
 31
0.0
  0
SPLINE
  5
7A4
100
AcDbEntity
  8
ASSI
100
AcDbSpline
 62
7
  6
CONTINUOUS
 70
0
 71
3
 72
12
 73
8
 74
6
 42
0.0000001
 43
0.0000001
 44
0.0000000001
 12
-0.0092279467
 22
-0.240842055
 32
0.0
 13
-0.239530293
 23
0.0267448911
 33
0.0
 40
0.0
 40
0.0
 40
0.0
 40
0.0
 40
0.161725644
 40
0.2604691211
 40
0.375408184
 40
0.6573882141
 40
1.0
 40
1.0
 40
1.0
 40
1.0
 10
10.5781050106
 20
23.2097560788
 30
0.0
 10
10.5776075454
 20
23.1967726333
 30
0.0
 10
10.5681115785
 20
23.1761339157
 30
0.0
 10
10.5460071127
 20
23.1555385338
 30
0.0
 10
10.5117911135
 20
23.1346097426
 30
0.0
 10
10.4537786213
 20
23.1179165861
 30
0.0
 10
10.4029671284
 20
23.1169696105
 30
0.0
 10
10.3756118279
 20
23.1200239821
 30
0.0
 11
10.5781050106
 21
23.2097560788
 31
0.0
 11
10.5635637077
 21
23.1735910893
 31
0.0
 11
10.5464976004
 21
23.1570036873
 31
0.0
 11
10.5230087511
 21
23.142316927
 31
0.0
 11
10.4581648674
 21
23.1219657681
 31
0.0
 11
10.3756118279
 21
23.1200239821
 31
0.0
  0
SPLINE
  5
7A5
100
AcDbEntity
  8
ASSI
100
AcDbSpline
 62
253
  6
CONTINUOUS
 70
0
 71
3
 72
11
 73
7
 74
5
 42
0.0000001
 43
0.0000001
 44
0.0000000001
 12
-0.0029298796
 22
-0.290817965
 32
0.0
 13
-0.2908244163
 23
-0.0021981479
 33
0.0
 40
0.0
 40
0.0
 40
0.0
 40
0.0
 40
0.2330683208
 40
0.4768288792
 40
0.7340988449
 40
1.0
 40
1.0
 40
1.0
 40
1.0
 10
10.5602288007
 20
23.8010362971
 30
0.0
 10
10.56000118
 20
23.7784428122
 30
0.0
 10
10.548599519
 20
23.7317691278
 30
0.0
 10
10.5030412852
 20
23.6746347873
 30
0.0
 10
10.4371213487
 20
23.6369744403
 30
0.0
 10
10.3860361111
 20
23.6280260464
 30
0.0
 10
10.3602592617
 20
23.6278312163
 30
0.0
 11
10.5602288007
 21
23.8010362971
 31
0.0
 11
10.5445092519
 21
23.7351003272
 31
0.0
 11
10.5010461455
 21
23.6790927081
 31
0.0
 11
10.436383966
 21
23.6414468218
 31
0.0
 11
10.3602592617
 21
23.6278312163
 31
0.0
  0
SPLINE
  5
7A6
100
AcDbEntity
  8
ASSI
100
AcDbSpline
 62
253
  6
CONTINUOUS
 70
0
 71
3
 72
14
 73
10
 74
8
 42
0.0000001
 43
0.0000001
 44
0.0000000001
 12
0.0000001189
 22
0.249966339
 32
0.0
 13
-0.0492099614
 23
0.2450745811
 33
0.0
 40
0.0
 40
0.0
 40
0.0
 40
0.0
 40
0.3786100409
 40
0.5501099883
 40
0.7009445796
 40
0.8254365358
 40
0.9189015662
 40
0.9778261556
 40
1.0
 40
1.0
 40
1.0
 40
1.0
 10
-10.3598228851
 20
24.2106880219
 30
0.0
 10
-10.35982287
 20
24.2422346105
 30
0.0
 10
-10.3598446772
 20
24.2880718798
 30
0.0
 10
-10.3599666072
 20
24.3464737138
 30
0.0
 10
-10.3600278445
 20
24.3837095064
 30
0.0
 10
-10.3602645975
 20
24.4144226478
 30
0.0
 10
-10.360124618
 20
24.4375292579
 30
0.0
 10
-10.3607794363
 20
24.4520049441
 30
0.0
 10
-10.360316682
 20
24.4588385305
 30
0.0
 10
-10.3606804067
 20
24.4606499457
 30
0.0
 11
-10.3598228851
 21
24.2106880219
 31
0.0
 11
-10.3598878852
 21
24.3053277654
 31
0.0
 11
-10.3599668348
 21
24.3481969067
 31
0.0
 11
-10.3600731779
 21
24.3859003273
 31
0.0
 11
-10.3602029188
 21
24.4170188553
 31
0.0
 11
-10.3603511724
 21
24.4403814964
 31
0.0
 11
-10.3605123966
 21
24.4551097779
 31
0.0
 11
-10.3606804067
 21
24.4606499457
 31
0.0
  0
SPLINE
  5
7A7
100
AcDbEntity
  8
ASSI
100
AcDbSpline
 62
253
  6
CONTINUOUS
 70
0
 71
3
 72
14
 73
10
 74
8
 42
0.0000001
 43
0.0000001
 44
0.0000000001
 12
-0.000000141
 22
0.2499663422
 32
0.0
 13
0.0491548559
 23
0.245085643
 33
0.0
 40
0.0
 40
0.0
 40
0.0
 40
0.0
 40
0.3786133066
 40
0.5501125278
 40
0.7009454954
 40
0.8254364819
 40
0.9189015373
 40
0.9778261401
 40
1.0
 40
1.0
 40
1.0
 40
1.0
 10
-7.4401771149
 20
24.2106880219
 30
0.0
 10
-7.4401771327
 20
24.242234883
 30
0.0
 10
-7.4401552985
 20
24.2880723622
 30
0.0
 10
-7.4400334255
 20
24.346474279
 30
0.0
 10
-7.439972108
 20
24.3837097817
 30
0.0
 10
-7.4397356591
 20
24.4144227483
 30
0.0
 10
-7.4398750043
 20
24.4375291879
 30
0.0
 10
-7.4392214091
 20
24.4520050536
 30
0.0
 10
-7.439682911
 20
24.4588384475
 30
0.0
 10
-7.4393195933
 20
24.4606499457
 30
0.0
 11
-7.4401771149
 21
24.2106880219
 31
0.0
 11
-7.4401121138
 21
24.3053285829
 31
0.0
 11
-7.4400331755
 21
24.3481975433
 31
0.0
 11
-7.4399268531
 21
24.3859005586
 31
0.0
 11
-7.4397971419
 21
24.4170188448
 31
0.0
 11
-7.4396489037
 21
24.4403814925
 31
0.0
 11
-7.4394877451
 21
24.4551097783
 31
0.0
 11
-7.4393195933
 21
24.4606499457
 31
0.0
  0
LINE
  5
7A8
100
AcDbEntity
  8
ASSI
100
AcDbLine
 62
7
  6
CONTINUOUS
 10
-9.2533769702
 20
23.6278312163
 11
-9.0368706193
 21
23.8443375673
  0
SPLINE
  5
7A9
100
AcDbEntity
  8
ASSI
100
AcDbSpline
 62
253
  6
CONTINUOUS
 70
0
 71
3
 72
14
 73
10
 74
8
 42
0.0000001
 43
0.0000001
 44
0.0000000001
 12
0.049160375
 22
-0.2450845349
 32
0.0
 13
-0.0000001471
 23
-0.2499663411
 33
0.0
 40
0.0
 40
0.0
 40
0.0
 40
0.0
 40
0.0221560165
 40
0.0810435119
 40
0.1744698991
 40
0.2989314089
 40
0.4497489564
 40
0.6212570669
 40
1.0
 40
1.0
 40
1.0
 40
1.0
 10
7.4393195933
 20
24.4606499457
 30
0.0
 10
7.4396826594
 20
24.4588399134
 30
0.0
 10
7.4392213687
 20
24.4520111329
 30
0.0
 10
7.4398748912
 20
24.43754305
 30
0.0
 10
7.4397354864
 20
24.414445381
 30
0.0
 10
7.4399720144
 20
24.3837393808
 30
0.0
 10
7.4400333236
 20
24.3465068763
 30
0.0
 10
7.4401552881
 20
24.2880947049
 30
0.0
 10
7.4401771335
 20
24.2422456836
 30
0.0
 10
7.4401771149
 20
24.2106880219
 30
0.0
 11
7.4393195933
 21
24.4606499457
 31
0.0
 11
7.4394876051
 21
24.4551142363
 31
0.0
 11
7.4396487697
 21
24.4403952269
 31
0.0
 11
7.4397969936
 21
24.4170422451
 31
0.0
 11
7.4399267292
 21
24.3859313274
 31
0.0
 11
7.4400330776
 21
24.3482321669
 31
0.0
 11
7.4401120579
 21
24.3053609848
 31
0.0
 11
7.4401771149
 21
24.2106880219
 31
0.0
  0
SPLINE
  5
7AA
100
AcDbEntity
  8
ASSI
100
AcDbSpline
 62
253
  6
CONTINUOUS
 70
0
 71
3
 72
14
 73
10
 74
8
 42
0.0000001
 43
0.0000001
 44
0.0000000001
 12
-0.0491706112
 22
-0.2450824821
 32
0.0
 13
0.0000001167
 23
-0.2499663418
 33
0.0
 40
0.0
 40
0.0
 40
0.0
 40
0.0
 40
0.0221606293
 40
0.0810577598
 40
0.1744933938
 40
0.2989593438
 40
0.4497753959
 40
0.6212776652
 40
1.0
 40
1.0
 40
1.0
 40
1.0
 10
10.3606804067
 20
24.4606499457
 30
0.0
 10
10.3603171894
 20
24.4588395517
 30
0.0
 10
10.3607787083
 20
24.4520095365
 30
0.0
 10
10.3601250011
 20
24.4375395348
 30
0.0
 10
10.3602644779
 20
24.4144399045
 30
0.0
 10
10.3600279382
 20
24.3837328946
 30
0.0
 10
10.3599666452
 20
24.3465006294
 30
0.0
 10
10.3598447001
 20
24.2880907861
 30
0.0
 10
10.3598228703
 20
24.2422439674
 30
0.0
 10
10.3598228851
 20
24.2106880219
 30
0.0
 11
10.3606804067
 21
24.4606499457
 31
0.0
 11
10.3605123486
 21
24.4551130842
 31
0.0
 11
10.3603511776
 21
24.4403916661
 31
0.0
 11
10.360202951
 21
24.4170363729
 31
0.0
 11
10.3600732241
 21
24.3859243451
 31
0.0
 11
10.3599668888
 21
24.3482255583
 31
0.0
 11
10.3598879236
 21
24.3053558361
 31
0.0
 11
10.3598228851
 21
24.2106880219
 31
0.0
  0
SPLINE
  5
7AB
100
AcDbEntity
  8
ASSI
100
AcDbSpline
 62
253
  6
CONTINUOUS
 70
0
 71
3
 72
9
 73
5
 74
3
 42
0.0000001
 43
0.0000001
 44
0.0000000001
 12
0.0000000896
 22
-0.2165058745
 32
0.0
 13
-0.0013063683
 23
-0.2165019332
 33
0.0
 40
0.0
 40
0.0
 40
0.0
 40
0.0
 40
0.2987947629
 40
1.0
 40
1.0
 40
1.0
 40
1.0
 10
7.4401771149
 20
23.8443375673
 30
0.0
 10
7.4401771239
 20
23.8227739602
 30
0.0
 10
7.4401340428
 20
23.7506054304
 30
0.0
 10
7.4400460883
 20
23.6784363407
 30
0.0
 10
7.4397407442
 20
23.6278322442
 30
0.0
 11
7.4401771149
 21
23.8443375673
 31
0.0
 11
7.4401473729
 21
23.7796467527
 31
0.0
 11
7.4397407442
 21
23.6278322442
 31
0.0
  0
LINE
  5
7AC
100
AcDbEntity
  8
ASSI
100
AcDbLine
 62
7
  6
CONTINUOUS
 10
8.5466230298
 20
23.6278312163
 11
8.7631293807
 21
23.8443375673
  0
LINE
  5
7AD
100
AcDbEntity
  8
ASSI
100
AcDbLine
 62
7
  6
CONTINUOUS
 10
8.7631293807
 20
-23.8443375673
 11
8.5466230298
 21
-23.6278312164
  0
SPLINE
  5
7AE
100
AcDbEntity
  8
ASSI
100
AcDbSpline
 62
253
  6
CONTINUOUS
 70
0
 71
3
 72
14
 73
10
 74
8
 42
0.0000001
 43
0.0000001
 44
0.0000000001
 12
-0.0491043212
 22
0.2450957745
 32
0.0
 13
0.0000000526
 23
0.2499663438
 33
0.0
 40
0.0
 40
0.0
 40
0.0
 40
0.0
 40
0.022157059
 40
0.0810464688
 40
0.1744747522
 40
0.2989370018
 40
0.449754176
 40
0.6212612533
 40
1.0
 40
1.0
 40
1.0
 40
1.0
 10
10.3606804067
 20
-24.4606499457
 30
0.0
 10
10.3603177375
 20
-24.4588397452
 30
0.0
 10
10.3607779006
 20
-24.4520109097
 30
0.0
 10
10.3601253965
 20
-24.4375422509
 30
0.0
 10
10.3602642358
 20
-24.4144442946
 30
0.0
 10
10.3600279654
 20
-24.3837380672
 30
0.0
 10
10.3599665922
 20
-24.3465056315
 30
0.0
 10
10.3598447029
 20
-24.2880939196
 30
0.0
 10
10.3598228784
 20
-24.2422453352
 30
0.0
 10
10.3598228851
 20
-24.2106880219
 30
0.0
 11
10.3606804067
 21
-24.4606499457
 31
0.0
 11
10.3605122962
 21
-24.4551139786
 31
0.0
 11
10.3603511346
 21
-24.4403944904
 31
0.0
 11
10.3602029019
 21
-24.4170410344
 31
0.0
 11
10.360073184
 21
-24.3859299314
 31
0.0
 11
10.3599668587
 21
-24.3482308637
 31
0.0
 11
10.3598879069
 21
-24.3053599393
 31
0.0
 11
10.3598228851
 21
-24.2106880219
 31
0.0
  0
SPLINE
  5
7AF
100
AcDbEntity
  8
ASSI
100
AcDbSpline
 62
253
  6
CONTINUOUS
 70
0
 71
3
 72
14
 73
10
 74
8
 42
0.0000001
 43
0.0000001
 44
0.0000000001
 12
0.0000000323
 22
-0.2499663453
 32
0.0
 13
-0.049087989
 23
-0.2450990475
 33
0.0
 40
0.0
 40
0.0
 40
0.0
 40
0.0
 40
0.3786065168
 40
0.5501055326
 40
0.7009400823
 40
0.8254330677
 40
0.9188998663
 40
0.9778256462
 40
1.0
 40
1.0
 40
1.0
 40
1.0
 10
7.4401771149
 20
-24.2106880219
 30
0.0
 10
7.440177119
 20
-24.2422343177
 30
0.0
 10
7.4401553058
 20
-24.2880712117
 30
0.0
 10
7.4400335201
 20
-24.3464726851
 30
0.0
 10
7.4399721154
 20
-24.3837084533
 30
0.0
 10
7.4397359752
 20
-24.4144219095
 30
0.0
 10
7.4398746263
 20
-24.4375286493
 30
0.0
 10
7.4392222878
 20
-24.4520050055
 30
0.0
 10
7.4396824248
 20
-24.458838308
 30
0.0
 10
7.4393195933
 20
-24.4606499457
 30
0.0
 11
7.4401771149
 21
-24.2106880219
 31
0.0
 11
7.4401121522
 21
-24.3053268869
 31
0.0
 11
7.440033244
 21
-24.3481957965
 31
0.0
 11
7.4399269412
 21
-24.3858992077
 31
0.0
 11
7.4397972463
 21
-24.4170179941
 31
0.0
 11
7.4396489957
 21
-24.4403810777
 31
0.0
 11
7.4394878594
 21
-24.4551096582
 31
0.0
 11
7.4393195933
 21
-24.4606499457
 31
0.0
  0
SPLINE
  5
7B0
100
AcDbEntity
  8
ASSI
100
AcDbSpline
 62
253
  6
CONTINUOUS
 70
0
 71
3
 72
14
 73
10
 74
8
 42
0.0000001
 43
0.0000001
 44
0.0000000001
 12
0.0000000323
 22
-0.2499663453
 32
0.0
 13
-0.049087989
 23
-0.2450990475
 33
0.0
 40
0.0
 40
0.0
 40
0.0
 40
0.0
 40
0.3786065168
 40
0.5501055326
 40
0.7009400823
 40
0.8254330677
 40
0.9188998663
 40
0.9778256462
 40
1.0
 40
1.0
 40
1.0
 40
1.0
 10
-10.3598228851
 20
-24.2106880219
 30
0.0
 10
-10.359822881
 20
-24.2422343177
 30
0.0
 10
-10.3598446942
 20
-24.2880712117
 30
0.0
 10
-10.3599664799
 20
-24.3464726851
 30
0.0
 10
-10.3600278846
 20
-24.3837084533
 30
0.0
 10
-10.3602640248
 20
-24.4144219095
 30
0.0
 10
-10.3601253737
 20
-24.4375286493
 30
0.0
 10
-10.3607777122
 20
-24.4520050055
 30
0.0
 10
-10.3603175752
 20
-24.458838308
 30
0.0
 10
-10.3606804067
 20
-24.4606499457
 30
0.0
 11
-10.3598228851
 21
-24.2106880219
 31
0.0
 11
-10.3598878478
 21
-24.3053268869
 31
0.0
 11
-10.359966756
 21
-24.3481957965
 31
0.0
 11
-10.3600730588
 21
-24.3858992077
 31
0.0
 11
-10.3602027537
 21
-24.4170179941
 31
0.0
 11
-10.3603510043
 21
-24.4403810777
 31
0.0
 11
-10.3605121406
 21
-24.4551096582
 31
0.0
 11
-10.3606804067
 21
-24.4606499457
 31
0.0
  0
SPLINE
  5
7B1
100
AcDbEntity
  8
ASSI
100
AcDbSpline
 62
253
  6
CONTINUOUS
 70
0
 71
3
 72
14
 73
10
 74
8
 42
0.0000001
 43
0.0000001
 44
0.0000000001
 12
-0.0491043212
 22
0.2450957745
 32
0.0
 13
0.0000000526
 23
0.2499663438
 33
0.0
 40
0.0
 40
0.0
 40
0.0
 40
0.0
 40
0.022157059
 40
0.0810464688
 40
0.1744747522
 40
0.2989370018
 40
0.449754176
 40
0.6212612533
 40
1.0
 40
1.0
 40
1.0
 40
1.0
 10
-7.4393195933
 20
-24.4606499457
 30
0.0
 10
-7.4396822625
 20
-24.4588397452
 30
0.0
 10
-7.4392220994
 20
-24.4520109097
 30
0.0
 10
-7.4398746035
 20
-24.4375422509
 30
0.0
 10
-7.4397357642
 20
-24.4144442946
 30
0.0
 10
-7.4399720346
 20
-24.3837380672
 30
0.0
 10
-7.4400334078
 20
-24.3465056315
 30
0.0
 10
-7.4401552971
 20
-24.2880939196
 30
0.0
 10
-7.4401771216
 20
-24.2422453352
 30
0.0
 10
-7.4401771149
 20
-24.2106880219
 30
0.0
 11
-7.4393195933
 21
-24.4606499457
 31
0.0
 11
-7.4394877038
 21
-24.4551139786
 31
0.0
 11
-7.4396488654
 21
-24.4403944904
 31
0.0
 11
-7.4397970981
 21
-24.4170410344
 31
0.0
 11
-7.439926816
 21
-24.3859299314
 31
0.0
 11
-7.4400331413
 21
-24.3482308637
 31
0.0
 11
-7.4401120931
 21
-24.3053599393
 31
0.0
 11
-7.4401771149
 21
-24.2106880219
 31
0.0
  0
LINE
  5
7B2
100
AcDbEntity
  8
ASSI
100
AcDbLine
 62
7
  6
CONTINUOUS
 10
-9.2533769702
 20
-23.6278312164
 11
-9.0368706193
 21
-23.8443375673
  0
SPLINE
  5
7B3
100
AcDbEntity
  8
ASSI
100
AcDbSpline
 62
7
  6
CONTINUOUS
 70
0
 71
3
 72
10
 73
6
 74
4
 42
0.0000001
 43
0.0000001
 44
0.0000000001
 12
0.0041283229
 22
0.0124381884
 32
0.0
 13
0.0129404911
 23
0.0020725037
 33
0.0
 40
0.0
 40
0.0
 40
0.0
 40
0.0
 40
0.1072856673
 40
0.3046525265
 40
1.0
 40
1.0
 40
1.0
 40
1.0
 10
-10.5781050106
 20
-22.3341525772
 30
0.0
 10
-10.577957374
 20
-22.3337077641
 30
0.0
 10
-10.5767124954
 20
-22.3328984493
 30
0.0
 10
-10.5726796591
 20
-22.3315558063
 30
0.0
 10
-10.5687448508
 20
-22.3308959262
 30
0.0
 10
-10.5657454716
 20
-22.3304155561
 30
0.0
 11
-10.5781050106
 21
-22.3341525772
 31
0.0
 11
-10.5770826044
 21
-22.3331873917
 31
0.0
 11
-10.5746715766
 21
-22.3322507485
 31
0.0
 11
-10.5657454716
 21
-22.3304155561
 31
0.0
  0
SPLINE
  5
7B4
100
AcDbEntity
  8
ASSI
100
AcDbSpline
 62
7
  6
CONTINUOUS
 70
0
 71
3
 72
10
 73
6
 74
4
 42
0.0000001
 43
0.0000001
 44
0.0000000001
 12
0.0129404911
 22
-0.0020725037
 32
0.0
 13
0.0041283229
 23
-0.0124381884
 33
0.0
 40
0.0
 40
0.0
 40
0.0
 40
0.0
 40
0.6953474735
 40
0.8927143327
 40
1.0
 40
1.0
 40
1.0
 40
1.0
 10
10.5657454716
 20
-22.3304155561
 30
0.0
 10
10.5687448508
 20
-22.3308959262
 30
0.0
 10
10.5726796591
 20
-22.3315558063
 30
0.0
 10
10.5767124954
 20
-22.3328984493
 30
0.0
 10
10.577957374
 20
-22.3337077641
 30
0.0
 10
10.5781050106
 20
-22.3341525772
 30
0.0
 11
10.5657454716
 21
-22.3304155561
 31
0.0
 11
10.5746715766
 21
-22.3322507485
 31
0.0
 11
10.5770826044
 21
-22.3331873917
 31
0.0
 11
10.5781050106
 21
-22.3341525772
 31
0.0
  0
SPLINE
  5
7B5
100
AcDbEntity
  8
ASSI
100
AcDbSpline
 62
7
  6
CONTINUOUS
 70
0
 71
3
 72
10
 73
6
 74
4
 42
0.0000001
 43
0.0000001
 44
0.0000000001
 12
-0.0129404911
 22
0.0020725037
 32
0.0
 13
-0.0041283229
 23
0.0124381884
 33
0.0
 40
0.0
 40
0.0
 40
0.0
 40
0.0
 40
0.6953474735
 40
0.8927143327
 40
1.0
 40
1.0
 40
1.0
 40
1.0
 10
-10.5657454716
 20
22.3304155561
 30
0.0
 10
-10.5687448508
 20
22.3308959262
 30
0.0
 10
-10.5726796591
 20
22.3315558063
 30
0.0
 10
-10.5767124954
 20
22.3328984493
 30
0.0
 10
-10.577957374
 20
22.3337077641
 30
0.0
 10
-10.5781050106
 20
22.3341525772
 30
0.0
 11
-10.5657454716
 21
22.3304155561
 31
0.0
 11
-10.5746715766
 21
22.3322507485
 31
0.0
 11
-10.5770826044
 21
22.3331873917
 31
0.0
 11
-10.5781050106
 21
22.3341525772
 31
0.0
  0
SPLINE
  5
7B6
100
AcDbEntity
  8
ASSI
100
AcDbSpline
 62
7
  6
CONTINUOUS
 70
0
 71
3
 72
10
 73
6
 74
4
 42
0.0000001
 43
0.0000001
 44
0.0000000001
 12
-0.0041283229
 22
-0.0124381884
 32
0.0
 13
-0.0129404911
 23
-0.0020725037
 33
0.0
 40
0.0
 40
0.0
 40
0.0
 40
0.0
 40
0.1072856673
 40
0.3046525265
 40
1.0
 40
1.0
 40
1.0
 40
1.0
 10
10.5781050106
 20
22.3341525772
 30
0.0
 10
10.577957374
 20
22.3337077641
 30
0.0
 10
10.5767124954
 20
22.3328984493
 30
0.0
 10
10.5726796591
 20
22.3315558063
 30
0.0
 10
10.5687448508
 20
22.3308959262
 30
0.0
 10
10.5657454716
 20
22.3304155561
 30
0.0
 11
10.5781050106
 21
22.3341525772
 31
0.0
 11
10.5770826044
 21
22.3331873917
 31
0.0
 11
10.5746715766
 21
22.3322507485
 31
0.0
 11
10.5657454716
 21
22.3304155561
 31
0.0
  0
LINE
  5
7B7
100
AcDbEntity
  8
ASSI
100
AcDbLine
 62
7
  6
CONTINUOUS
 10
-8.5466230298
 20
23.6278312163
 11
-8.7631293807
 21
23.8443375673
  0
LINE
  5
7B8
100
AcDbEntity
  8
ASSI
100
AcDbLine
 62
7
  6
CONTINUOUS
 10
9.2533769702
 20
23.6278312163
 11
9.0368706193
 21
23.8443375673
  0
SPLINE
  5
7B9
100
AcDbEntity
  8
ASSI
100
AcDbSpline
 62
253
  6
CONTINUOUS
 70
0
 71
3
 72
9
 73
5
 74
3
 42
0.0000001
 43
0.0000001
 44
0.0000000001
 12
0.0000009928
 22
-0.2164846565
 32
0.0
 13
0.0013081016
 23
-0.2164807044
 33
0.0
 40
0.0
 40
0.0
 40
0.0
 40
0.0
 40
0.2986608327
 40
1.0
 40
1.0
 40
1.0
 40
1.0
 10
10.359822873
 20
23.8443575944
 30
0.0
 10
10.3598229719
 20
23.8228057652
 30
0.0
 10
10.3598655964
 20
23.7506443085
 30
0.0
 10
10.3599532289
 20
23.6784822881
 30
0.0
 10
10.3602590366
 20
23.6278734891
 30
0.0
 11
10.359822873
 21
23.8443575944
 31
0.0
 11
10.3598524471
 21
23.7797021134
 31
0.0
 11
10.3602590366
 21
23.6278734891
 31
0.0
  0
LINE
  5
7BA
100
AcDbEntity
  8
ASSI
100
AcDbLine
 62
7
  6
CONTINUOUS
 10
9.0368706193
 20
-23.8443375673
 11
9.2533769702
 21
-23.6278312164
  0
SPLINE
  5
7BB
100
AcDbEntity
  8
ASSI
100
AcDbSpline
 62
253
  6
CONTINUOUS
 70
0
 71
3
 72
9
 73
5
 74
3
 42
0.0000001
 43
0.0000001
 44
0.0000000001
 12
-0.0000000792
 22
0.2165052661
 32
0.0
 13
0.0013107614
 23
0.2165012983
 33
0.0
 40
0.0
 40
0.0
 40
0.0
 40
0.0
 40
0.2988001338
 40
1.0
 40
1.0
 40
1.0
 40
1.0
 10
10.3598228854
 20
-23.8443359311
 30
0.0
 10
10.3598228775
 20
-23.8227719969
 30
0.0
 10
10.3598662027
 20
-23.7506036713
 30
0.0
 10
10.3599528931
 20
-23.6784347768
 30
0.0
 10
10.3602592617
 20
-23.6278312164
 30
0.0
 11
10.3598228854
 21
-23.8443359311
 31
0.0
 11
10.3598526404
 21
-23.7796441354
 31
0.0
 11
10.3602592617
 21
-23.6278312164
 31
0.0
  0
LINE
  5
7BC
100
AcDbEntity
  8
ASSI
100
AcDbLine
 62
7
  6
CONTINUOUS
 10
-8.7631293807
 20
-23.8443375673
 11
-8.5466230298
 21
-23.6278312164
  0
SPLINE
  5
7BD
100
AcDbEntity
  8
ASSI
100
AcDbSpline
 62
253
  6
CONTINUOUS
 70
0
 71
3
 72
9
 73
5
 74
3
 42
0.0000001
 43
0.0000001
 44
0.0000000001
 12
-0.0000000792
 22
0.2165052661
 32
0.0
 13
0.0013107614
 23
0.2165012983
 33
0.0
 40
0.0
 40
0.0
 40
0.0
 40
0.0
 40
0.2988001338
 40
1.0
 40
1.0
 40
1.0
 40
1.0
 10
-7.4401771146
 20
-23.8443359311
 30
0.0
 10
-7.4401771225
 20
-23.8227719969
 30
0.0
 10
-7.4401337973
 20
-23.7506036713
 30
0.0
 10
-7.4400471069
 20
-23.6784347768
 30
0.0
 10
-7.4397407383
 20
-23.6278312164
 30
0.0
 11
-7.4401771146
 21
-23.8443359311
 31
0.0
 11
-7.4401473596
 21
-23.7796441354
 31
0.0
 11
-7.4397407383
 21
-23.6278312164
 31
0.0
  0
SPLINE
  5
7BE
100
AcDbEntity
  8
ASSI
100
AcDbSpline
 62
253
  6
CONTINUOUS
 70
0
 71
3
 72
14
 73
10
 74
8
 42
0.0000001
 43
0.0000001
 44
0.0000000001
 12
0.0000000171
 22
0.0500143994
 32
0.0
 13
-0.0353374338
 23
0.0353935859
 33
0.0
 40
0.0
 40
0.0
 40
0.0
 40
0.0
 40
0.3784748159
 40
0.5499130417
 40
0.7006958012
 40
0.8251540306
 40
0.9186156011
 40
0.977592863
 40
1.0
 40
1.0
 40
1.0
 40
1.0
 10
-10.5597924241
 20
24.2106880219
 30
0.0
 10
-10.5597924219
 20
24.2169977521
 30
0.0
 10
-10.5598169557
 20
24.2261683316
 30
0.0
 10
-10.559932135
 20
24.2378430462
 30
0.0
 10
-10.5600094488
 20
24.2453046252
 30
0.0
 10
-10.5602011704
 20
24.2514070049
 30
0.0
 10
-10.5601702688
 20
24.2561262569
 30
0.0
 10
-10.5606213658
 20
24.2588411085
 30
0.0
 10
-10.5603860088
 20
24.2604160503
 30
0.0
 10
-10.5606499457
 20
24.2606804067
 30
0.0
 11
-10.5597924241
 21
24.2106880219
 31
0.0
 11
-10.5598573891
 21
24.229617101
 31
0.0
 11
-10.5599363246
 21
24.2381911176
 31
0.0
 11
-10.5600426602
 21
24.245731677
 31
0.0
 11
-10.5601723947
 21
24.2519550285
 31
0.0
 11
-10.5603206528
 21
24.2566271011
 31
0.0
 11
-10.5604818506
 21
24.2595724055
 31
0.0
 11
-10.5606499457
 21
24.2606804067
 31
0.0
  0
SPLINE
  5
7BF
100
AcDbEntity
  8
ASSI
100
AcDbSpline
 62
253
  6
CONTINUOUS
 70
0
 71
3
 72
9
 73
5
 74
3
 42
0.0000001
 43
0.0000001
 44
0.0000000001
 12
0.0013110427
 22
0.0432843983
 32
0.0
 13
0.0000001007
 23
0.0433042489
 33
0.0
 40
0.0
 40
0.0
 40
0.0
 40
0.0
 40
0.1834520378
 40
1.0
 40
1.0
 40
1.0
 40
1.0
 10
-10.5602288007
 20
23.8010362971
 30
0.0
 10
-10.5601486296
 20
23.8036831675
 30
0.0
 10
-10.5598533105
 20
23.8181153116
 30
0.0
 10
-10.5597924515
 20
23.8325509019
 30
0.0
 10
-10.5597924241
 20
23.8443375673
 30
0.0
 11
-10.5602288007
 21
23.8010362971
 31
0.0
 11
-10.5600481665
 21
23.8089784959
 31
0.0
 11
-10.5597924241
 21
23.8443375673
 31
0.0
  0
SPLINE
  5
7C0
100
AcDbEntity
  8
ASSI
100
AcDbSpline
 62
253
  6
CONTINUOUS
 70
0
 71
3
 72
9
 73
5
 74
3
 42
0.0000001
 43
0.0000001
 44
0.0000000001
 12
0.0013086735
 22
-0.0432844709
 32
0.0
 13
-0.0000000099
 23
-0.0433042498
 33
0.0
 40
0.0
 40
0.0
 40
0.0
 40
0.0
 40
0.1834825616
 40
1.0
 40
1.0
 40
1.0
 40
1.0
 10
-10.5602288007
 20
-23.8010362971
 30
0.0
 10
-10.5601487611
 20
-23.8036836123
 30
0.0
 10
-10.5598528223
 20
-23.8181157392
 30
0.0
 10
-10.5597924214
 20
-23.8325513423
 30
0.0
 10
-10.5597924241
 20
-23.8443375673
 30
0.0
 11
-10.5602288007
 21
-23.8010362971
 31
0.0
 11
-10.5600480915
 21
-23.8089798165
 31
0.0
 11
-10.5597924241
 21
-23.8443375673
 31
0.0
  0
SPLINE
  5
7C1
100
AcDbEntity
  8
ASSI
100
AcDbSpline
 62
253
  6
CONTINUOUS
 70
0
 71
3
 72
14
 73
10
 74
8
 42
0.0000001
 43
0.0000001
 44
0.0000000001
 12
0.0000000047
 22
-0.0500143989
 32
0.0
 13
-0.0353848757
 23
-0.035346155
 33
0.0
 40
0.0
 40
0.0
 40
0.0
 40
0.0
 40
0.3784710411
 40
0.5499082368
 40
0.7006911169
 40
0.825150225
 40
0.9186143814
 40
0.9775915881
 40
1.0
 40
1.0
 40
1.0
 40
1.0
 10
-10.5597924241
 20
-24.2106880219
 30
0.0
 10
-10.5597924235
 20
-24.2169976891
 30
0.0
 10
-10.5598169457
 20
-24.2261681979
 30
0.0
 10
-10.5599321476
 20
-24.2378428112
 30
0.0
 10
-10.560009402
 20
-24.2453044451
 30
0.0
 10
-10.5602012854
 20
-24.2514067287
 30
0.0
 10
-10.5601699898
 20
-24.2561264165
 30
0.0
 10
-10.56062182
 20
-24.2588406209
 30
0.0
 10
-10.5603856394
 20
-24.2604163896
 30
0.0
 10
-10.5606499457
 20
-24.2606804067
 30
0.0
 11
-10.5597924241
 21
-24.2106880219
 31
0.0
 11
-10.5598573884
 21
-24.229616912
 31
0.0
 11
-10.5599363224
 21
-24.238190877
 31
0.0
 11
-10.5600426564
 21
-24.2457314424
 31
0.0
 11
-10.5601723904
 21
-24.2519548378
 31
0.0
 11
-10.560320649
 21
-24.2566270397
 31
0.0
 11
-10.5604818491
 21
-24.2595723412
 31
0.0
 11
-10.5606499457
 21
-24.2606804067
 31
0.0
  0
SPLINE
  5
7C2
100
AcDbEntity
  8
RACCORDO
100
AcDbSpline
 62
253
  6
CONTINUOUS
 70
0
 71
3
 72
27
 73
23
 74
21
 42
0.0000001
 43
0.0000001
 44
0.0000000001
 12
24.5254576526
 22
-0.0001014401
 32
0.0
 13
-24.5254576526
 23
-0.0001023494
 33
0.0
 40
0.0
 40
0.0
 40
0.0
 40
0.0
 40
0.0624823673
 40
0.0937598983
 40
0.125035847
 40
0.1875081197
 40
0.2499763818
 40
0.2812477672
 40
0.3125192689
 40
0.3749932524
 40
0.4374881996
 40
0.5000006539
 40
0.5625132198
 40
0.6250085019
 40
0.6874826773
 40
0.7187541578
 40
0.7500255465
 40
0.8124937682
 40
0.8749653129
 40
0.9062409022
 40
0.9375181666
 40
1.0
 40
1.0
 40
1.0
 40
1.0
 10
0.0
 20
7.8184777622
 30
0.0
 10
0.5108028847
 20
7.8184756495
 30
0.0
 10
1.2800703361
 20
7.7426510438
 30
0.0
 10
2.2726911328
 20
7.4937017383
 30
0.0
 10
3.2364351306
 20
7.1487883726
 30
0.0
 10
4.3703828327
 20
6.5425791378
 30
0.0
 10
5.3639836126
 20
5.7264545932
 30
0.0
 10
6.0510320961
 20
4.9679271863
 30
0.0
 10
6.6606227561
 20
4.1458327458
 30
0.0
 10
7.2669113112
 20
3.0114714142
 30
0.0
 10
7.7144344586
 20
1.5354733498
 30
0.0
 10
7.865702088
 20
-0.0000171903
 30
0.0
 10
7.7144287078
 20
-1.5355100887
 30
0.0
 10
7.2668957569
 20
-3.0115108149
 30
0.0
 10
6.6605987318
 20
-4.145872362
 30
0.0
 10
6.0510019628
 20
-4.9679640621
 30
0.0
 10
5.3639488565
 20
-5.7264866435
 30
0.0
 10
4.3703479802
 20
-6.5426010063
 30
0.0
 10
3.2364062231
 20
-7.1488012687
 30
0.0
 10
2.2726714562
 20
-7.4937074979
 30
0.0
 10
1.2800593475
 20
-7.7426522701
 30
0.0
 10
0.5107985197
 20
-7.8184756306
 30
0.0
 10
0.0
 20
-7.8184777622
 30
0.0
 11
0.0
 21
7.8184777622
 31
0.0
 11
1.5250208076
 21
7.668185314
 31
0.0
 11
2.2691015907
 21
7.4816921679
 31
0.0
 11
2.9912719184
 21
7.2231454786
 31
0.0
 11
4.3423538974
 21
6.500584019
 31
0.0
 11
5.5264178605
 21
5.5283655788
 31
0.0
 11
6.0413399964
 21
4.9599820042
 31
0.0
 11
6.498091928
 21
4.3438758942
 31
0.0
 11
7.2201866754
 21
2.9924968504
 31
0.0
 11
7.6650175672
 21
1.5257496208
 31
0.0
 11
7.8152739088
 21
-0.0000162127
 31
0.0
 11
7.6650115292
 21
-1.5257842014
 31
0.0
 11
7.2201705541
 21
-2.9925369543
 31
0.0
 11
6.4980655806
 21
-4.3439158709
 31
0.0
 11
6.0413100317
 21
-4.960018655
 31
0.0
 11
5.5263841738
 21
-5.5283989647
 31
0.0
 11
4.3423150787
 21
-6.5006095942
 31
0.0
 11
2.9912456546
 21
-7.2231566651
 31
0.0
 11
2.2690827622
 21
-7.4816979745
 31
0.0
 11
1.5250078992
 21
-7.6681878517
 31
0.0
 11
0.0
 21
-7.8184777622
 31
0.0
  0
SPLINE
  5
7C3
100
AcDbEntity
  8
ASSI
100
AcDbSpline
 62
253
  6
CONTINUOUS
 70
0
 71
3
 72
14
 73
10
 74
8
 42
0.0000001
 43
0.0000001
 44
0.0000000001
 12
0.0353709844
 22
-0.0353600593
 32
0.0
 13
-0.0000000167
 23
-0.0500144012
 33
0.0
 40
0.0
 40
0.0
 40
0.0
 40
0.0
 40
0.0223888543
 40
0.0813290826
 40
0.1747525517
 40
0.2991802371
 40
0.4499460735
 40
0.6213923018
 40
1.0
 40
1.0
 40
1.0
 40
1.0
 10
7.2393500543
 20
24.2606804067
 30
0.0
 10
7.2396140262
 20
24.2604165163
 30
0.0
 10
7.2393784048
 20
24.2588421078
 30
0.0
 10
7.2398297405
 20
24.2561291953
 30
0.0
 10
7.239798653
 20
24.2514114772
 30
0.0
 10
7.2399904794
 20
24.2453106282
 30
0.0
 10
7.240067782
 20
24.2378496671
 30
0.0
 10
7.2401830383
 20
24.2261729047
 30
0.0
 10
7.240207578
 20
24.2169999677
 30
0.0
 10
7.2402075759
 20
24.2106880219
 30
0.0
 11
7.2393500543
 21
24.2606804067
 31
0.0
 11
7.2395180734
 21
24.2595733188
 31
0.0
 11
7.2396792325
 21
24.2566298671
 31
0.0
 11
7.2398274839
 21
24.2519597007
 31
0.0
 11
7.2399572332
 21
24.2457378773
 31
0.0
 11
7.2400635948
 21
24.2381981644
 31
0.0
 11
7.2401425643
 21
24.2296237476
 31
0.0
 11
7.2402075759
 21
24.2106880219
 31
0.0
  0
SPLINE
  5
7C4
100
AcDbEntity
  8
ASSI
100
AcDbSpline
 62
253
  6
CONTINUOUS
 70
0
 71
3
 72
9
 73
5
 74
3
 42
0.0000001
 43
0.0000001
 44
0.0000000001
 12
0.0000000129
 22
-0.0433040273
 32
0.0
 13
-0.0013086549
 23
-0.0432842489
 33
0.0
 40
0.0
 40
0.0
 40
0.0
 40
0.0
 40
0.2987891373
 40
1.0
 40
1.0
 40
1.0
 40
1.0
 10
7.2402075759
 20
23.8443375673
 30
0.0
 10
7.2402075772
 20
23.840024643
 30
0.0
 10
7.2401644286
 20
23.8255904462
 30
0.0
 10
7.2400770803
 20
23.8111534256
 30
0.0
 10
7.2397711993
 20
23.8010362971
 30
0.0
 11
7.2402075759
 21
23.8443375673
 31
0.0
 11
7.2401778466
 21
23.8313988285
 31
0.0
 11
7.2397711993
 21
23.8010362971
 31
0.0
  0
SPLINE
  5
7C5
100
AcDbEntity
  8
ASSI
100
AcDbSpline
 62
253
  6
CONTINUOUS
 70
0
 71
3
 72
9
 73
5
 74
3
 42
0.0000001
 43
0.0000001
 44
0.0000000001
 12
0.0013086735
 22
-0.0432844709
 32
0.0
 13
-0.0000000099
 23
-0.0433042498
 33
0.0
 40
0.0
 40
0.0
 40
0.0
 40
0.0
 40
0.1834825616
 40
1.0
 40
1.0
 40
1.0
 40
1.0
 10
7.2397711993
 20
-23.8010362971
 30
0.0
 10
7.2398512389
 20
-23.8036836123
 30
0.0
 10
7.2401471777
 20
-23.8181157392
 30
0.0
 10
7.2402075786
 20
-23.8325513423
 30
0.0
 10
7.2402075759
 20
-23.8443375673
 30
0.0
 11
7.2397711993
 21
-23.8010362971
 31
0.0
 11
7.2399519085
 21
-23.8089798165
 31
0.0
 11
7.2402075759
 21
-23.8443375673
 31
0.0
  0
SPLINE
  5
7C6
100
AcDbEntity
  8
ASSI
100
AcDbSpline
 62
253
  6
CONTINUOUS
 70
0
 71
3
 72
14
 73
10
 74
8
 42
0.0000001
 43
0.0000001
 44
0.0000000001
 12
0.0000000047
 22
-0.0500143989
 32
0.0
 13
-0.0353848757
 23
-0.035346155
 33
0.0
 40
0.0
 40
0.0
 40
0.0
 40
0.0
 40
0.3784710411
 40
0.5499082368
 40
0.7006911169
 40
0.825150225
 40
0.9186143814
 40
0.9775915881
 40
1.0
 40
1.0
 40
1.0
 40
1.0
 10
7.2402075759
 20
-24.2106880219
 30
0.0
 10
7.2402075765
 20
-24.2169976891
 30
0.0
 10
7.2401830543
 20
-24.2261681979
 30
0.0
 10
7.2400678524
 20
-24.2378428112
 30
0.0
 10
7.239990598
 20
-24.2453044451
 30
0.0
 10
7.2397987146
 20
-24.2514067287
 30
0.0
 10
7.2398300102
 20
-24.2561264165
 30
0.0
 10
7.23937818
 20
-24.2588406209
 30
0.0
 10
7.2396143606
 20
-24.2604163896
 30
0.0
 10
7.2393500543
 20
-24.2606804067
 30
0.0
 11
7.2402075759
 21
-24.2106880219
 31
0.0
 11
7.2401426116
 21
-24.229616912
 31
0.0
 11
7.2400636776
 21
-24.238190877
 31
0.0
 11
7.2399573436
 21
-24.2457314424
 31
0.0
 11
7.2398276096
 21
-24.2519548378
 31
0.0
 11
7.239679351
 21
-24.2566270397
 31
0.0
 11
7.2395181509
 21
-24.2595723412
 31
0.0
 11
7.2393500543
 21
-24.2606804067
 31
0.0
  0
SPLINE
  5
7C7
100
AcDbEntity
  8
ASSI
100
AcDbSpline
 62
253
  6
CONTINUOUS
 70
0
 71
3
 72
18
 73
14
 74
12
 42
0.0000001
 43
0.0000001
 44
0.0000000001
 12
-0.2727050518
 22
1.1145131131
 32
0.0
 13
-0.0022672771
 23
1.1473893776
 33
0.0
 40
0.0
 40
0.0
 40
0.0
 40
0.0
 40
0.0095615452
 40
0.0278628161
 40
0.054787677
 40
0.0901064155
 40
0.1335285593
 40
0.184694872
 40
0.3084560765
 40
0.457229314
 40
0.6259613415
 40
0.8089850935
 40
1.0
 40
1.0
 40
1.0
 40
1.0
 10
-10.4128373364
 20
-22.0243894429
 30
0.0
 10
-10.4137064969
 20
-22.020837287
 30
0.0
 10
-10.4145250942
 20
-22.0101493918
 30
0.0
 10
-10.415998042
 20
-21.9892902833
 30
0.0
 10
-10.4172430498
 20
-21.9584853892
 30
0.0
 10
-10.4186036881
 20
-21.9181043617
 30
0.0
 10
-10.419887643
 20
-21.8684322358
 30
0.0
 10
-10.4216755559
 20
-21.784941951
 30
0.0
 10
-10.4236382377
 20
-21.6611518486
 30
0.0
 10
-10.4255862807
 20
-21.4923947406
 30
0.0
 10
-10.4271580557
 20
-21.3009664745
 30
0.0
 10
-10.4283055454
 20
-21.0933793158
 30
0.0
 10
-10.4287542205
 20
-20.9503235765
 30
0.0
 10
-10.4288985818
 20
-20.8772674183
 30
0.0
 11
-10.4128373364
 21
-22.0243894429
 31
0.0
 11
-10.4142601386
 21
-22.0135112586
 31
0.0
 11
-10.415681571
 21
-21.9925606983
 31
0.0
 11
-10.417083248
 21
-21.9616991531
 31
0.0
 11
-10.418451924
 21
-21.921197848
 31
0.0
 11
-10.4197773086
 21
-21.8713932765
 31
0.0
 11
-10.4210493233
 21
-21.81269926
 31
0.0
 11
-10.4233939297
 21
-21.6707160487
 31
0.0
 11
-10.4254093277
 21
-21.5000267809
 31
0.0
 11
-10.4270301262
 21
-21.3064318515
 31
0.0
 11
-10.4282067432
 21
-21.0964352289
 31
0.0
 11
-10.4288985818
 21
-20.8772674183
 31
0.0
  0
SPLINE
  5
7C8
100
AcDbEntity
  8
ASSI
100
AcDbSpline
 62
253
  6
CONTINUOUS
 70
0
 71
3
 72
18
 73
14
 74
12
 42
0.0000001
 43
0.0000001
 44
0.0000000001
 12
-0.0022672758
 22
-1.1473893775
 32
0.0
 13
-0.2727050083
 23
-1.1145131235
 33
0.0
 40
0.0
 40
0.0
 40
0.0
 40
0.0
 40
0.1910149067
 40
0.3740386588
 40
0.5427706864
 40
0.6915439239
 40
0.8153051282
 40
0.8664714409
 40
0.9098935846
 40
0.9452123231
 40
0.9721371839
 40
0.9904384548
 40
1.0
 40
1.0
 40
1.0
 40
1.0
 10
10.4288985818
 20
-20.8772674172
 30
0.0
 10
10.4287542206
 20
-20.9503235755
 30
0.0
 10
10.4283055437
 20
-21.0933793149
 30
0.0
 10
10.4271580541
 20
-21.3009664737
 30
0.0
 10
10.4255862797
 20
-21.4923947398
 30
0.0
 10
10.4236382366
 20
-21.6611518478
 30
0.0
 10
10.4216755549
 20
-21.78494195
 30
0.0
 10
10.4198876423
 20
-21.8684322348
 30
0.0
 10
10.4186036874
 20
-21.9181043606
 30
0.0
 10
10.4172430491
 20
-21.9584853881
 30
0.0
 10
10.4159980412
 20
-21.989290282
 30
0.0
 10
10.4145250935
 20
-22.0101493906
 30
0.0
 10
10.4137064962
 20
-22.0208372857
 30
0.0
 10
10.4128373357
 20
-22.0243894416
 30
0.0
 11
10.4288985818
 21
-20.8772674172
 31
0.0
 11
10.4282067419
 21
-21.0964352281
 31
0.0
 11
10.4270301247
 21
-21.3064318508
 31
0.0
 11
10.4254093266
 21
-21.5000267802
 31
0.0
 11
10.4233939286
 21
-21.6707160479
 31
0.0
 11
10.4210493224
 21
-21.8126992591
 31
0.0
 11
10.4197773078
 21
-21.8713932755
 31
0.0
 11
10.4184519233
 21
-21.9211978469
 31
0.0
 11
10.4170832472
 21
-21.961699152
 31
0.0
 11
10.4156815702
 21
-21.9925606971
 31
0.0
 11
10.4142601379
 21
-22.0135112572
 31
0.0
 11
10.4128373357
 21
-22.0243894416
 31
0.0
  0
SPLINE
  5
7C9
100
AcDbEntity
  8
ASSI
100
AcDbSpline
 62
253
  6
CONTINUOUS
 70
0
 71
3
 72
18
 73
14
 74
12
 42
0.0000001
 43
0.0000001
 44
0.0000000001
 12
0.0022672757
 22
1.1473893806
 32
0.0
 13
0.2727050096
 23
1.1145131265
 33
0.0
 40
0.0
 40
0.0
 40
0.0
 40
0.0
 40
0.1910149066
 40
0.3740386587
 40
0.5427706862
 40
0.6915439237
 40
0.8153051281
 40
0.8664714408
 40
0.9098935846
 40
0.9452123231
 40
0.9721371839
 40
0.9904384548
 40
1.0
 40
1.0
 40
1.0
 40
1.0
 10
-10.4288985817
 20
20.8772674141
 30
0.0
 10
-10.4287542206
 20
20.9503235725
 30
0.0
 10
-10.4283055437
 20
21.0933793122
 30
0.0
 10
-10.4271580542
 20
21.3009664716
 30
0.0
 10
-10.4255862797
 20
21.4923947382
 30
0.0
 10
-10.4236382366
 20
21.6611518467
 30
0.0
 10
-10.4216755549
 20
21.7849419493
 30
0.0
 10
-10.4198876423
 20
21.8684322343
 30
0.0
 10
-10.4186036874
 20
21.9181043603
 30
0.0
 10
-10.4172430491
 20
21.9584853879
 30
0.0
 10
-10.4159980412
 20
21.9892902819
 30
0.0
 10
-10.4145250935
 20
22.0101493905
 30
0.0
 10
-10.4137064962
 20
22.0208372857
 30
0.0
 10
-10.4128373357
 20
22.0243894416
 30
0.0
 11
-10.4288985817
 21
20.8772674141
 31
0.0
 11
-10.4282067419
 21
21.0964352254
 31
0.0
 11
-10.4270301247
 21
21.3064318486
 31
0.0
 11
-10.4254093266
 21
21.5000267786
 31
0.0
 11
-10.4233939287
 21
21.6707160468
 31
0.0
 11
-10.4210493225
 21
21.8126992584
 31
0.0
 11
-10.4197773078
 21
21.871393275
 31
0.0
 11
-10.4184519234
 21
21.9211978466
 31
0.0
 11
-10.4170832473
 21
21.9616991518
 31
0.0
 11
-10.4156815702
 21
21.992560697
 31
0.0
 11
-10.4142601379
 21
22.0135112572
 31
0.0
 11
-10.4128373357
 21
22.0243894416
 31
0.0
  0
SPLINE
  5
7CA
100
AcDbEntity
  8
ASSI
100
AcDbSpline
 62
253
  6
CONTINUOUS
 70
0
 71
3
 72
18
 73
14
 74
12
 42
0.0000001
 43
0.0000001
 44
0.0000000001
 12
0.2727050513
 22
-1.1145131164
 32
0.0
 13
0.0022672769
 23
-1.1473893808
 33
0.0
 40
0.0
 40
0.0
 40
0.0
 40
0.0
 40
0.0095615452
 40
0.0278628161
 40
0.054787677
 40
0.0901064156
 40
0.1335285593
 40
0.1846948721
 40
0.3084560766
 40
0.4572293142
 40
0.6259613417
 40
0.8089850936
 40
1.0
 40
1.0
 40
1.0
 40
1.0
 10
10.4128373364
 20
22.0243894429
 30
0.0
 10
10.4137064969
 20
22.020837287
 30
0.0
 10
10.4145250942
 20
22.0101493918
 30
0.0
 10
10.415998042
 20
21.9892902832
 30
0.0
 10
10.4172430498
 20
21.958485389
 30
0.0
 10
10.4186036881
 20
21.9181043613
 30
0.0
 10
10.419887643
 20
21.8684322353
 30
0.0
 10
10.4216755559
 20
21.7849419502
 30
0.0
 10
10.4236382376
 20
21.6611518475
 30
0.0
 10
10.4255862807
 20
21.4923947389
 30
0.0
 10
10.4271580556
 20
21.3009664723
 30
0.0
 10
10.4283055453
 20
21.0933793131
 30
0.0
 10
10.4287542205
 20
20.9503235735
 30
0.0
 10
10.4288985817
 20
20.8772674151
 30
0.0
 11
10.4128373364
 21
22.0243894429
 31
0.0
 11
10.4142601386
 21
22.0135112586
 31
0.0
 11
10.415681571
 21
21.9925606982
 31
0.0
 11
10.417083248
 21
21.9616991529
 31
0.0
 11
10.418451924
 21
21.9211978477
 31
0.0
 11
10.4197773086
 21
21.871393276
 31
0.0
 11
10.4210493233
 21
21.8126992593
 31
0.0
 11
10.4233939297
 21
21.6707160476
 31
0.0
 11
10.4254093277
 21
21.5000267793
 31
0.0
 11
10.4270301261
 21
21.3064318494
 31
0.0
 11
10.4282067431
 21
21.0964352262
 31
0.0
 11
10.4288985817
 21
20.8772674151
 31
0.0
  0
SPLINE
  5
7CB
100
AcDbEntity
  8
ASSI
100
AcDbSpline
 62
253
  6
CONTINUOUS
 70
0
 71
3
 72
18
 73
14
 74
12
 42
0.0000001
 43
0.0000001
 44
0.0000000001
 12
0.2428766571
 22
0.3997365241
 32
0.0
 13
0.4677337168
 23
0.0018786729
 33
0.0
 40
0.0
 40
0.0
 40
0.0
 40
0.0
 40
0.0083067707
 40
0.0250304712
 40
0.0504440753
 40
0.0844758323
 40
0.1268511227
 40
0.1772112865
 40
0.3002621425
 40
0.449404043
 40
0.6196662501
 40
0.8054813009
 40
1.0
 40
1.0
 40
1.0
 40
1.0
 10
-10.8952394836
 20
20.8558253568
 30
0.0
 10
-10.8945669767
 20
20.8569321967
 30
0.0
 10
-10.8904690459
 20
20.8583302222
 30
0.0
 10
-10.8831375767
 20
20.860184565
 30
0.0
 10
-10.8712292347
 20
20.8619782344
 30
0.0
 10
-10.8555265481
 20
20.8638137759
 30
0.0
 10
-10.8358145067
 20
20.865582919
 30
0.0
 10
-10.8022698415
 20
20.8680252064
 30
0.0
 10
-10.7520382296
 20
20.8706728847
 30
0.0
 10
-10.6831038551
 20
20.873254958
 30
0.0
 10
-10.6043572846
 20
20.8752792226
 30
0.0
 10
-10.5185231377
 20
20.8766735107
 30
0.0
 10
-10.4592253823
 20
20.8771451559
 30
0.0
 10
-10.4288977309
 20
20.8772669682
 30
0.0
 11
-10.8952394836
 21
20.8558253568
 31
0.0
 11
-10.8918977126
 21
20.8578074787
 31
0.0
 11
-10.8843275276
 21
20.8597774287
 31
0.0
 11
-10.8725996579
 21
20.8617153025
 31
0.0
 11
-10.8567938952
 21
20.8636016526
 31
0.0
 11
-10.8370570053
 21
20.8654204077
 31
0.0
 11
-10.8135657709
 21
20.8671570094
 31
0.0
 11
-10.7560976205
 21
20.8703267267
 31
0.0
 11
-10.6863897691
 21
20.8730043271
 31
0.0
 11
-10.6067792481
 21
20.8750968736
 31
0.0
 11
-10.5198784678
 21
20.8765341586
 31
0.0
 11
-10.4288977309
 21
20.8772669682
 31
0.0
  0
SPLINE
  5
7CC
100
AcDbEntity
  8
ASSI
100
AcDbSpline
 62
253
  6
CONTINUOUS
 70
0
 71
3
 72
18
 73
14
 74
12
 42
0.0000001
 43
0.0000001
 44
0.0000000001
 12
0.2427608349
 22
-0.3998061115
 32
0.0
 13
0.4677330651
 23
-0.0018787182
 33
0.0
 40
0.0
 40
0.0
 40
0.0
 40
0.0
 40
0.0083054546
 40
0.0250277847
 40
0.0504401409
 40
0.0844708176
 40
0.1268452235
 40
0.1772047211
 40
0.3002549777
 40
0.4493973171
 40
0.6196609898
 40
0.8054783856
 40
1.0
 40
1.0
 40
1.0
 40
1.0
 10
-10.895239484
 20
-20.855825359
 30
0.0
 10
-10.8945674043
 20
-20.8569322162
 30
0.0
 10
-10.8904696933
 20
-20.8583303524
 30
0.0
 10
-10.8831390626
 20
-20.8601846432
 30
0.0
 10
-10.8712312182
 20
-20.8619783654
 30
0.0
 10
-10.8555291071
 20
-20.8638139283
 30
0.0
 10
-10.8358174912
 20
-20.865583113
 30
0.0
 10
-10.8022732216
 20
-20.8680254635
 30
0.0
 10
-10.7520418073
 20
-20.8706732153
 30
0.0
 10
-10.6831073303
 20
-20.873255366
 30
0.0
 10
-10.6043602078
 20
-20.8752796991
 30
0.0
 10
-10.5185251326
 20
-20.8766740377
 30
0.0
 10
-10.4592266397
 20
-20.8771457005
 30
0.0
 10
-10.428898576
 20
-20.8772675176
 30
0.0
 11
-10.895239484
 21
-20.855825359
 31
0.0
 11
-10.8918984533
 21
-20.8578075116
 31
0.0
 11
-10.8843289507
 21
-20.8597774954
 31
0.0
 11
-10.8726016954
 21
-20.8617154057
 31
0.0
 11
-10.8567964686
 21
-20.8636017948
 31
0.0
 11
-10.8370600256
 21
-20.8654205908
 31
0.0
 11
-10.8135691397
 21
-20.8671572349
 31
0.0
 11
-10.7561013552
 21
-20.8703270384
 31
0.0
 11
-10.6863933988
 21
-20.8730047219
 31
0.0
 11
-10.6067823049
 21
-20.8750973408
 31
0.0
 11
-10.5198805495
 21
-20.8765346794
 31
0.0
 11
-10.428898576
 21
-20.8772675176
 31
0.0
  0
SPLINE
  5
7CD
100
AcDbEntity
  8
ASSI
100
AcDbSpline
 62
253
  6
CONTINUOUS
 70
0
 71
3
 72
18
 73
14
 74
12
 42
0.0000001
 43
0.0000001
 44
0.0000000001
 12
-0.2428766561
 22
-0.3997365248
 32
0.0
 13
-0.4677337169
 23
-0.0018786729
 33
0.0
 40
0.0
 40
0.0
 40
0.0
 40
0.0
 40
0.0083067707
 40
0.0250304711
 40
0.0504440753
 40
0.0844758323
 40
0.1268511227
 40
0.1772112864
 40
0.3002621424
 40
0.449404043
 40
0.6196662501
 40
0.8054813008
 40
1.0
 40
1.0
 40
1.0
 40
1.0
 10
10.8952394836
 20
-20.8558253568
 30
0.0
 10
10.8945669767
 20
-20.8569321967
 30
0.0
 10
10.8904690459
 20
-20.8583302222
 30
0.0
 10
10.8831375767
 20
-20.860184565
 30
0.0
 10
10.8712292347
 20
-20.8619782344
 30
0.0
 10
10.8555265482
 20
-20.8638137759
 30
0.0
 10
10.8358145067
 20
-20.865582919
 30
0.0
 10
10.8022698415
 20
-20.8680252064
 30
0.0
 10
10.7520382296
 20
-20.8706728847
 30
0.0
 10
10.6831038551
 20
-20.873254958
 30
0.0
 10
10.6043572847
 20
-20.8752792226
 30
0.0
 10
10.5185231377
 20
-20.8766735107
 30
0.0
 10
10.4592253823
 20
-20.8771451559
 30
0.0
 10
10.4288977309
 20
-20.8772669682
 30
0.0
 11
10.8952394836
 21
-20.8558253568
 31
0.0
 11
10.8918977126
 21
-20.8578074787
 31
0.0
 11
10.8843275276
 21
-20.8597774286
 31
0.0
 11
10.8725996579
 21
-20.8617153025
 31
0.0
 11
10.8567938952
 21
-20.8636016526
 31
0.0
 11
10.8370570053
 21
-20.8654204077
 31
0.0
 11
10.8135657709
 21
-20.8671570094
 31
0.0
 11
10.7560976206
 21
-20.8703267267
 31
0.0
 11
10.6863897691
 21
-20.8730043271
 31
0.0
 11
10.6067792481
 21
-20.8750968736
 31
0.0
 11
10.5198784678
 21
-20.8765341586
 31
0.0
 11
10.4288977309
 21
-20.8772669682
 31
0.0
  0
SPLINE
  5
7CE
100
AcDbEntity
  8
ASSI
100
AcDbSpline
 62
253
  6
CONTINUOUS
 70
0
 71
3
 72
18
 73
14
 74
12
 42
0.0000001
 43
0.0000001
 44
0.0000000001
 12
-0.242760945
 22
0.3998060451
 32
0.0
 13
-0.4677330655
 23
0.0018787179
 33
0.0
 40
0.0
 40
0.0
 40
0.0
 40
0.0
 40
0.0083054559
 40
0.0250277872
 40
0.0504401445
 40
0.084470822
 40
0.1268452286
 40
0.1772047265
 40
0.3002549833
 40
0.4493973222
 40
0.6196609936
 40
0.8054783876
 40
1.0
 40
1.0
 40
1.0
 40
1.0
 10
10.895239484
 20
20.855825359
 30
0.0
 10
10.8945674039
 20
20.8569322161
 30
0.0
 10
10.8904696927
 20
20.8583303523
 30
0.0
 10
10.8831390612
 20
20.8601846432
 30
0.0
 10
10.8712312165
 20
20.8619783653
 30
0.0
 10
10.8555291049
 20
20.8638139283
 30
0.0
 10
10.8358174887
 20
20.8655831129
 30
0.0
 10
10.8022732188
 20
20.8680254634
 30
0.0
 10
10.7520418045
 20
20.8706732152
 30
0.0
 10
10.6831073277
 20
20.8732553658
 30
0.0
 10
10.6043602057
 20
20.8752796988
 30
0.0
 10
10.5185251312
 20
20.8766740374
 30
0.0
 10
10.4592266388
 20
20.8771457001
 30
0.0
 10
10.4288985755
 20
20.8772675172
 30
0.0
 11
10.895239484
 21
20.855825359
 31
0.0
 11
10.8918984526
 21
20.8578075116
 31
0.0
 11
10.8843289494
 21
20.8597774954
 31
0.0
 11
10.8726016936
 21
20.8617154057
 31
0.0
 11
10.8567964664
 21
20.8636017948
 31
0.0
 11
10.8370600231
 21
20.8654205908
 31
0.0
 11
10.8135691369
 21
20.8671572348
 31
0.0
 11
10.7561013523
 21
20.8703270383
 31
0.0
 11
10.6863933961
 21
20.8730047217
 31
0.0
 11
10.6067823027
 21
20.8750973406
 31
0.0
 11
10.5198805481
 21
20.8765346791
 31
0.0
 11
10.4288985755
 21
20.8772675172
 31
0.0
  0
SPLINE
  5
7CF
100
AcDbEntity
  8
ASSI
100
AcDbSpline
 62
253
  6
CONTINUOUS
 70
0
 71
3
 72
9
 73
5
 74
3
 42
0.0000001
 43
0.0000001
 44
0.0000000001
 12
0.0000001007
 22
-0.0433040262
 32
0.0
 13
0.0013110356
 23
-0.0432841757
 33
0.0
 40
0.0
 40
0.0
 40
0.0
 40
0.0
 40
0.2986840764
 40
1.0
 40
1.0
 40
1.0
 40
1.0
 10
10.5597924241
 20
23.8443375673
 30
0.0
 10
10.5597924341
 20
23.8400261596
 30
0.0
 10
10.5598358786
 20
23.8255919674
 30
0.0
 10
10.5599223173
 20
23.8111549243
 30
0.0
 10
10.5602288007
 20
23.8010362971
 30
0.0
 11
10.5597924241
 21
23.8443375673
 31
0.0
 11
10.5598222221
 21
23.8314033786
 31
0.0
 11
10.5602288007
 21
23.8010362971
 31
0.0
  0
SPLINE
  5
7D0
100
AcDbEntity
  8
ASSI
100
AcDbSpline
 62
253
  6
CONTINUOUS
 70
0
 71
3
 72
14
 73
10
 74
8
 42
0.0000001
 43
0.0000001
 44
0.0000000001
 12
-0.0353768578
 22
-0.0353541823
 32
0.0
 13
0.0000000128
 23
-0.0500144006
 33
0.0
 40
0.0
 40
0.0
 40
0.0
 40
0.0
 40
0.0223937944
 40
0.0813434341
 40
0.1747761037
 40
0.2992081645
 40
0.4499725189
 40
0.6214129187
 40
1.0
 40
1.0
 40
1.0
 40
1.0
 10
10.5606499457
 20
24.2606804067
 30
0.0
 10
10.5603858717
 20
24.2604165019
 30
0.0
 10
10.5606216736
 20
24.2588417088
 30
0.0
 10
10.5601701833
 20
24.256128521
 30
0.0
 10
10.560201338
 20
24.2514103649
 30
0.0
 10
10.5600094952
 20
24.2453093333
 30
0.0
 10
10.5599322064
 20
24.2378484153
 30
0.0
 10
10.5598169586
 20
24.2261721208
 30
0.0
 10
10.5597924225
 20
24.2169996239
 30
0.0
 10
10.5597924241
 20
24.2106880219
 30
0.0
 11
10.5606499457
 21
24.2606804067
 31
0.0
 11
10.5604819068
 21
24.2595730719
 31
0.0
 11
10.5603207389
 21
24.2566291493
 31
0.0
 11
10.5601724866
 21
24.2519585227
 31
0.0
 11
10.5600427435
 21
24.2457364803
 31
0.0
 11
10.5599363904
 21
24.2381968415
 31
0.0
 11
10.5598574288
 21
24.2296227163
 31
0.0
 11
10.5597924241
 21
24.2106880219
 31
0.0
  0
SPLINE
  5
7D1
100
AcDbEntity
  8
ASSI
100
AcDbSpline
 62
253
  6
CONTINUOUS
 70
0
 71
3
 72
14
 73
10
 74
8
 42
0.0000001
 43
0.0000001
 44
0.0000000001
 12
-0.0353890603
 22
0.0353419688
 32
0.0
 13
0.0000000042
 23
0.0500144013
 33
0.0
 40
0.0
 40
0.0
 40
0.0
 40
0.0
 40
0.0223894589
 40
0.0813316649
 40
0.1747572081
 40
0.2991857903
 40
0.4499513862
 40
0.6213965713
 40
1.0
 40
1.0
 40
1.0
 40
1.0
 10
10.5606499457
 20
-24.2606804067
 30
0.0
 10
10.5603858317
 20
-24.2604166441
 30
0.0
 10
10.5606217649
 20
-24.2588418814
 30
0.0
 10
10.560170152
 20
-24.2561291666
 30
0.0
 10
10.560201385
 20
-24.2514112207
 30
0.0
 10
10.5600095012
 20
-24.2453103853
 30
0.0
 10
10.5599322211
 20
-24.2378494097
 30
0.0
 10
10.5598169581
 20
-24.2261727486
 30
0.0
 10
10.5597924236
 20
-24.2169998965
 30
0.0
 10
10.5597924241
 20
-24.2106880219
 30
0.0
 11
10.5606499457
 21
-24.2606804067
 31
0.0
 11
10.5604819224
 21
-24.2595732888
 31
0.0
 11
10.5603207616
 21
-24.2566297382
 31
0.0
 11
10.5601725102
 21
-24.251959468
 31
0.0
 11
10.5600427624
 21
-24.2457375997
 31
0.0
 11
10.5599364027
 21
-24.2381978988
 31
0.0
 11
10.5598574348
 21
-24.2296235341
 31
0.0
 11
10.5597924241
 21
-24.2106880219
 31
0.0
  0
SPLINE
  5
7D2
100
AcDbEntity
  8
ASSI
100
AcDbSpline
 62
253
  6
CONTINUOUS
 70
0
 71
3
 72
9
 73
5
 74
3
 42
0.0000001
 43
0.0000001
 44
0.0000000001
 12
-0.00000001
 22
0.0433040274
 32
0.0
 13
0.0013086633
 23
0.0432842487
 33
0.0
 40
0.0
 40
0.0
 40
0.0
 40
0.0
 40
0.2987935853
 40
1.0
 40
1.0
 40
1.0
 40
1.0
 10
10.5597924241
 20
-23.8443375673
 30
0.0
 10
10.5597924231
 20
-23.8400245788
 30
0.0
 10
10.5598355707
 20
-23.825590382
 30
0.0
 10
10.5599229197
 20
-23.8111533614
 30
0.0
 10
10.5602288007
 20
-23.8010362971
 30
0.0
 11
10.5597924241
 21
-23.8443375673
 31
0.0
 11
10.5598221537
 21
-23.8313986359
 31
0.0
 11
10.5602288007
 21
-23.8010362971
 31
0.0
  0
SPLINE
  5
7D3
100
AcDbEntity
  8
ASSI
100
AcDbSpline
 62
253
  6
CONTINUOUS
 70
0
 71
3
 72
18
 73
14
 74
12
 42
0.0000001
 43
0.0000001
 44
0.0000000001
 12
0.0007594238
 22
-0.6698588972
 32
0.0
 13
0.2988795282
 23
-0.5994852346
 33
0.0
 40
0.0
 40
0.0
 40
0.0
 40
0.0
 40
0.1911308635
 40
0.3742063506
 40
0.5429018838
 40
0.6915546455
 40
0.8151476268
 40
0.8662337678
 40
0.9095956099
 40
0.9448847149
 40
0.971822076
 40
0.9902037888
 40
1.0
 40
1.0
 40
1.0
 40
1.0
 10
10.8952394837
 20
-20.8558253568
 30
0.0
 10
10.8952878668
 20
-20.89850226
 30
0.0
 10
10.8955815972
 20
-20.9820573697
 30
0.0
 10
10.8966189487
 20
-21.1032759924
 30
0.0
 10
10.8982062655
 20
-21.2150036244
 30
0.0
 10
10.9002852413
 20
-21.3134378075
 30
0.0
 10
10.9024549799
 20
-21.3856047369
 30
0.0
 10
10.9044727281
 20
-21.4342458908
 30
0.0
 10
10.9059417554
 20
-21.4631847568
 30
0.0
 10
10.907497159
 20
-21.4866920271
 30
0.0
 10
10.9089705365
 20
-21.5046780836
 30
0.0
 10
10.9106369053
 20
-21.5167865346
 30
0.0
 10
10.9116900359
 20
-21.5231171129
 30
0.0
 10
10.9126659982
 20
-21.5250746743
 30
0.0
 11
10.8952394837
 21
-20.8558253568
 31
0.0
 11
10.8956978248
 21
-20.9838553282
 31
0.0
 11
10.8967665912
 21
-21.1064854936
 31
0.0
 11
10.8984082007
 21
-21.2194758454
 31
0.0
 11
10.9005653818
 21
-21.3190289155
 31
0.0
 11
10.9031639573
 21
-21.4017780353
 31
0.0
 11
10.9046013829
 21
-21.4359683607
 31
0.0
 11
10.9061146298
 21
-21.46497525
 31
0.0
 11
10.9076911809
 21
-21.4885613546
 31
0.0
 11
10.9093183507
 21
-21.5065320811
 31
0.0
 11
10.9109820996
 21
-21.5187323226
 31
0.0
 11
10.9126659982
 21
-21.5250746743
 31
0.0
  0
SPLINE
  5
7D4
100
AcDbEntity
  8
ASSI
100
AcDbSpline
 62
253
  6
CONTINUOUS
 70
0
 71
3
 72
18
 73
14
 74
12
 42
0.0000001
 43
0.0000001
 44
0.0000000001
 12
-0.2988795543
 22
-0.5994852205
 32
0.0
 13
-0.0007594237
 23
-0.6698588963
 33
0.0
 40
0.0
 40
0.0
 40
0.0
 40
0.0
 40
0.0097962112
 40
0.0281779245
 40
0.0551152857
 40
0.0904043905
 40
0.1337662328
 40
0.1848523741
 40
0.3084453561
 40
0.457098118
 40
0.6257936519
 40
0.8088691389
 40
1.0
 40
1.0
 40
1.0
 40
1.0
 10
10.9126659988
 20
21.5250746755
 30
0.0
 10
10.9116900364
 20
21.5231171142
 30
0.0
 10
10.910636906
 20
21.5167865357
 30
0.0
 10
10.9089705371
 20
21.5046780847
 30
0.0
 10
10.9074971596
 20
21.486692028
 30
0.0
 10
10.905941756
 20
21.4631847577
 30
0.0
 10
10.9044727288
 20
21.4342458918
 30
0.0
 10
10.9024549805
 20
21.3856047376
 30
0.0
 10
10.9002852419
 20
21.3134378081
 30
0.0
 10
10.8982062661
 20
21.2150036247
 30
0.0
 10
10.8966189493
 20
21.1032759927
 30
0.0
 10
10.8955815979
 20
20.9820573705
 30
0.0
 10
10.8952878671
 20
20.8985022615
 30
0.0
 10
10.895239484
 20
20.855825359
 30
0.0
 11
10.9126659988
 21
21.5250746755
 31
0.0
 11
10.9109821002
 21
21.5187323239
 31
0.0
 11
10.9093183514
 21
21.506532082
 31
0.0
 11
10.9076911815
 21
21.4885613555
 31
0.0
 11
10.9061146304
 21
21.464975251
 31
0.0
 11
10.9046013835
 21
21.4359683617
 31
0.0
 11
10.9031639579
 21
21.4017780361
 31
0.0
 11
10.9005653825
 21
21.3190289159
 31
0.0
 11
10.8984082013
 21
21.2194758458
 31
0.0
 11
10.8967665919
 21
21.1064854937
 31
0.0
 11
10.8956978254
 21
20.9838553285
 31
0.0
 11
10.895239484
 21
20.855825359
 31
0.0
  0
SPLINE
  5
7D5
100
AcDbEntity
  8
ASSI
100
AcDbSpline
 62
253
  6
CONTINUOUS
 70
0
 71
3
 72
18
 73
14
 74
12
 42
0.0000001
 43
0.0000001
 44
0.0000000001
 12
-0.0007594238
 22
0.6698588972
 32
0.0
 13
-0.2988795282
 23
0.5994852346
 33
0.0
 40
0.0
 40
0.0
 40
0.0
 40
0.0
 40
0.1911308635
 40
0.3742063506
 40
0.5429018838
 40
0.6915546454
 40
0.8151476268
 40
0.8662337678
 40
0.9095956099
 40
0.9448847149
 40
0.971822076
 40
0.9902037888
 40
1.0
 40
1.0
 40
1.0
 40
1.0
 10
-10.8952394837
 20
20.8558253568
 30
0.0
 10
-10.8952878668
 20
20.89850226
 30
0.0
 10
-10.8955815972
 20
20.9820573697
 30
0.0
 10
-10.8966189487
 20
21.1032759924
 30
0.0
 10
-10.8982062655
 20
21.2150036244
 30
0.0
 10
-10.9002852413
 20
21.3134378076
 30
0.0
 10
-10.9024549799
 20
21.3856047369
 30
0.0
 10
-10.9044727282
 20
21.4342458908
 30
0.0
 10
-10.9059417554
 20
21.4631847568
 30
0.0
 10
-10.907497159
 20
21.4866920271
 30
0.0
 10
-10.9089705365
 20
21.5046780836
 30
0.0
 10
-10.9106369053
 20
21.5167865346
 30
0.0
 10
-10.9116900359
 20
21.5231171129
 30
0.0
 10
-10.9126659982
 20
21.5250746743
 30
0.0
 11
-10.8952394837
 21
20.8558253568
 31
0.0
 11
-10.8956978248
 21
20.9838553282
 31
0.0
 11
-10.8967665912
 21
21.1064854936
 31
0.0
 11
-10.8984082007
 21
21.2194758454
 31
0.0
 11
-10.9005653818
 21
21.3190289155
 31
0.0
 11
-10.9031639573
 21
21.4017780353
 31
0.0
 11
-10.9046013829
 21
21.4359683607
 31
0.0
 11
-10.9061146298
 21
21.46497525
 31
0.0
 11
-10.9076911809
 21
21.4885613546
 31
0.0
 11
-10.9093183507
 21
21.5065320811
 31
0.0
 11
-10.9109820996
 21
21.5187323226
 31
0.0
 11
-10.9126659982
 21
21.5250746743
 31
0.0
  0
SPLINE
  5
7D6
100
AcDbEntity
  8
ASSI
100
AcDbSpline
 62
253
  6
CONTINUOUS
 70
0
 71
3
 72
18
 73
14
 74
12
 42
0.0000001
 43
0.0000001
 44
0.0000000001
 12
0.2988795543
 22
0.5994852205
 32
0.0
 13
0.0007594237
 23
0.6698588963
 33
0.0
 40
0.0
 40
0.0
 40
0.0
 40
0.0
 40
0.0097962112
 40
0.0281779245
 40
0.0551152857
 40
0.0904043905
 40
0.1337662328
 40
0.1848523741
 40
0.3084453561
 40
0.457098118
 40
0.6257936519
 40
0.8088691389
 40
1.0
 40
1.0
 40
1.0
 40
1.0
 10
-10.9126659988
 20
-21.5250746755
 30
0.0
 10
-10.9116900364
 20
-21.5231171142
 30
0.0
 10
-10.910636906
 20
-21.5167865357
 30
0.0
 10
-10.9089705371
 20
-21.5046780847
 30
0.0
 10
-10.9074971596
 20
-21.4866920281
 30
0.0
 10
-10.905941756
 20
-21.4631847577
 30
0.0
 10
-10.9044727288
 20
-21.4342458918
 30
0.0
 10
-10.9024549805
 20
-21.3856047376
 30
0.0
 10
-10.9002852419
 20
-21.3134378081
 30
0.0
 10
-10.8982062661
 20
-21.2150036247
 30
0.0
 10
-10.8966189493
 20
-21.1032759927
 30
0.0
 10
-10.8955815979
 20
-20.9820573705
 30
0.0
 10
-10.8952878671
 20
-20.8985022615
 30
0.0
 10
-10.895239484
 20
-20.855825359
 30
0.0
 11
-10.9126659988
 21
-21.5250746755
 31
0.0
 11
-10.9109821002
 21
-21.5187323239
 31
0.0
 11
-10.9093183514
 21
-21.506532082
 31
0.0
 11
-10.9076911815
 21
-21.4885613555
 31
0.0
 11
-10.9061146304
 21
-21.464975251
 31
0.0
 11
-10.9046013835
 21
-21.4359683617
 31
0.0
 11
-10.9031639579
 21
-21.4017780361
 31
0.0
 11
-10.9005653825
 21
-21.319028916
 31
0.0
 11
-10.8984082013
 21
-21.2194758458
 31
0.0
 11
-10.8967665919
 21
-21.1064854937
 31
0.0
 11
-10.8956978254
 21
-20.9838553285
 31
0.0
 11
-10.895239484
 21
-20.855825359
 31
0.0
  0
SPLINE
  5
7D7
100
AcDbEntity
  8
ASSI
100
AcDbSpline
 62
253
  6
CONTINUOUS
 70
0
 71
3
 72
9
 73
5
 74
3
 42
0.0000001
 43
0.0000001
 44
0.0000000001
 12
-0.0013086619
 22
0.0432844713
 32
0.0
 13
0.000000012
 23
0.0433042498
 33
0.0
 40
0.0
 40
0.0
 40
0.0
 40
0.0
 40
0.1834851879
 40
1.0
 40
1.0
 40
1.0
 40
1.0
 10
-7.2397711993
 20
23.8010362971
 30
0.0
 10
-7.2398512393
 20
23.8036836502
 30
0.0
 10
-7.2401471814
 20
23.818115777
 30
0.0
 10
-7.2402075792
 20
23.8325513802
 30
0.0
 10
-7.2402075759
 20
23.8443375673
 30
0.0
 11
-7.2397711993
 21
23.8010362971
 31
0.0
 11
-7.2399519113
 21
23.8089799302
 31
0.0
 11
-7.2402075759
 21
23.8443375673
 31
0.0
  0
SPLINE
  5
7D8
100
AcDbEntity
  8
ASSI
100
AcDbSpline
 62
253
  6
CONTINUOUS
 70
0
 71
3
 72
14
 73
10
 74
8
 42
0.0000001
 43
0.0000001
 44
0.0000000001
 12
-0.0000000203
 22
0.0500143983
 32
0.0
 13
0.0353703491
 23
0.0353606907
 33
0.0
 40
0.0
 40
0.0
 40
0.0
 40
0.0
 40
0.3784778443
 40
0.5499151366
 40
0.7006962726
 40
0.8251531199
 40
0.9186154914
 40
0.9775909074
 40
1.0
 40
1.0
 40
1.0
 40
1.0
 10
-7.2402075759
 20
24.2106880219
 30
0.0
 10
-7.2402075785
 20
24.2169978025
 30
0.0
 10
-7.240183051
 20
24.2261684233
 30
0.0
 10
-7.2400678528
 20
24.2378431294
 30
0.0
 10
-7.2399905815
 20
24.245304681
 30
0.0
 10
-7.2397987431
 20
24.2514069162
 30
0.0
 10
-7.239829929
 20
24.2561263892
 30
0.0
 10
-7.2393783083
 20
24.2588407662
 30
0.0
 10
-7.2396142601
 20
24.260416273
 30
0.0
 10
-7.2393500543
 20
24.2606804067
 30
0.0
 11
-7.2402075759
 21
24.2106880219
 31
0.0
 11
-7.2401426095
 21
24.2296172521
 31
0.0
 11
-7.2400636736
 21
24.2381912218
 31
0.0
 11
-7.2399573388
 21
24.2457316998
 31
0.0
 11
-7.239827605
 21
24.2519549821
 31
0.0
 11
-7.2396793473
 21
24.2566270946
 31
0.0
 11
-7.2395181489
 21
24.2595723065
 31
0.0
 11
-7.2393500543
 21
24.2606804067
 31
0.0
  0
SPLINE
  5
7D9
100
AcDbEntity
  8
ASSI
100
AcDbSpline
 62
253
  6
CONTINUOUS
 70
0
 71
3
 72
14
 73
10
 74
8
 42
0.0000001
 43
0.0000001
 44
0.0000000001
 12
-0.0353890603
 22
0.0353419688
 32
0.0
 13
0.0000000042
 23
0.0500144013
 33
0.0
 40
0.0
 40
0.0
 40
0.0
 40
0.0
 40
0.0223894589
 40
0.0813316649
 40
0.1747572081
 40
0.2991857903
 40
0.4499513862
 40
0.6213965713
 40
1.0
 40
1.0
 40
1.0
 40
1.0
 10
-7.2393500543
 20
-24.2606804067
 30
0.0
 10
-7.2396141683
 20
-24.2604166441
 30
0.0
 10
-7.2393782351
 20
-24.2588418814
 30
0.0
 10
-7.239829848
 20
-24.2561291666
 30
0.0
 10
-7.239798615
 20
-24.2514112207
 30
0.0
 10
-7.2399904988
 20
-24.2453103853
 30
0.0
 10
-7.2400677789
 20
-24.2378494097
 30
0.0
 10
-7.2401830419
 20
-24.2261727486
 30
0.0
 10
-7.2402075764
 20
-24.2169998965
 30
0.0
 10
-7.2402075759
 20
-24.2106880219
 30
0.0
 11
-7.2393500543
 21
-24.2606804067
 31
0.0
 11
-7.2395180776
 21
-24.2595732888
 31
0.0
 11
-7.2396792384
 21
-24.2566297382
 31
0.0
 11
-7.2398274898
 21
-24.251959468
 31
0.0
 11
-7.2399572376
 21
-24.2457375997
 31
0.0
 11
-7.2400635973
 21
-24.2381978988
 31
0.0
 11
-7.2401425652
 21
-24.2296235341
 31
0.0
 11
-7.2402075759
 21
-24.2106880219
 31
0.0
  0
SPLINE
  5
7DA
100
AcDbEntity
  8
ASSI
100
AcDbSpline
 62
253
  6
CONTINUOUS
 70
0
 71
3
 72
9
 73
5
 74
3
 42
0.0000001
 43
0.0000001
 44
0.0000000001
 12
-0.00000001
 22
0.0433040274
 32
0.0
 13
0.0013086633
 23
0.0432842487
 33
0.0
 40
0.0
 40
0.0
 40
0.0
 40
0.0
 40
0.2987935853
 40
1.0
 40
1.0
 40
1.0
 40
1.0
 10
-7.2402075759
 20
-23.8443375673
 30
0.0
 10
-7.2402075769
 20
-23.8400245788
 30
0.0
 10
-7.2401644293
 20
-23.825590382
 30
0.0
 10
-7.2400770803
 20
-23.8111533614
 30
0.0
 10
-7.2397711993
 20
-23.8010362971
 30
0.0
 11
-7.2402075759
 21
-23.8443375673
 31
0.0
 11
-7.2401778463
 21
-23.8313986359
 31
0.0
 11
-7.2397711993
 21
-23.8010362971
 31
0.0
  0
SPLINE
  5
7DB
100
AcDbEntity
  8
RACCORDO
100
AcDbSpline
 62
253
  6
CONTINUOUS
 70
0
 71
3
 72
29
 73
25
 74
23
 42
0.0000001
 43
0.0000001
 44
0.0000000001
 12
25.1832373918
 22
-0.000207118
 32
0.0
 13
-25.1832373918
 23
-0.00020894
 33
0.0
 40
0.0
 40
0.0
 40
0.0
 40
0.0
 40
0.0312742376
 40
0.0625480873
 40
0.0938208214
 40
0.1250920435
 40
0.1875552499
 40
0.2500145772
 40
0.2812814665
 40
0.3125484406
 40
0.3750130422
 40
0.4374982139
 40
0.5000006531
 40
0.5625032036
 40
0.6249887117
 40
0.6874535049
 40
0.7187204575
 40
0.7499873502
 40
0.8124466365
 40
0.8749091156
 40
0.9061799792
 40
0.9374524473
 40
0.9687260006
 40
1.0
 40
1.0
 40
1.0
 40
1.0
 10
0.0
 20
8.022458791
 30
0.0
 10
0.2625288497
 20
8.0224566318
 30
0.0
 10
0.7879505253
 20
7.9966783975
 30
0.0
 10
1.5681873659
 20
7.8810430005
 30
0.0
 10
2.3334654719
 20
7.6895216325
 30
0.0
 10
3.3229383088
 20
7.3359082326
 30
0.0
 10
4.4876084967
 20
6.7143355772
 30
0.0
 10
5.5083901932
 20
5.8773090133
 30
0.0
 10
6.214446489
 20
5.0991648105
 30
0.0
 10
6.8410168941
 20
4.2556823276
 30
0.0
 10
7.4643873944
 20
3.0915457972
 30
0.0
 10
7.9246643198
 20
1.5764138065
 30
0.0
 10
8.0802703698
 20
-0.0000175073
 30
0.0
 10
7.9246580077
 20
-1.5764511741
 30
0.0
 10
7.4643713265
 20
-3.0915859717
 30
0.0
 10
6.8409922339
 20
-4.2557228023
 30
0.0
 10
6.2144155582
 20
-5.0992024614
 30
0.0
 10
5.5083544983
 20
-5.8773416747
 30
0.0
 10
4.4875727496
 20
-6.7143578295
 30
0.0
 10
3.3229086756
 20
-7.3359212985
 30
0.0
 10
2.3334453092
 20
-7.6895274188
 30
0.0
 10
1.5681743043
 20
-7.8810451132
 30
0.0
 10
0.7879440278
 20
-7.9966786903
 30
0.0
 10
0.2625268504
 20
-8.0224566128
 30
0.0
 10
0.0
 20
-8.022458791
 30
0.0
 11
0.0
 21
8.022458791
 31
0.0
 11
0.786639637
 21
7.983849802
 31
0.0
 11
1.5657075567
 21
7.8683926141
 31
0.0
 11
2.3296978157
 21
7.6772073144
 31
0.0
 11
3.0712574929
 21
7.4121371211
 31
0.0
 11
4.4588710767
 21
6.671233238
 31
0.0
 11
5.6753391185
 21
5.6740831961
 31
0.0
 11
6.2045010692
 21
5.0909976564
 31
0.0
 11
6.673973265
 21
4.458858166
 31
0.0
 11
7.4163721102
 21
3.0720039851
 31
0.0
 11
7.8738443136
 21
1.5663912256
 31
0.0
 11
8.0283958885
 21
-0.0000164915
 31
0.0
 11
7.8738378293
 21
-1.5664263879
 31
0.0
 11
7.4163554226
 21
-3.0720448986
 31
0.0
 11
6.6739462111
 21
-4.4588990031
 31
0.0
 11
6.2044703112
 21
-5.0910350705
 31
0.0
 11
5.6753045277
 21
-5.6741172457
 31
0.0
 11
4.4588312579
 21
-6.6712592813
 31
0.0
 11
3.0712305764
 21
-7.4121484435
 31
0.0
 11
2.3296785192
 21
-7.6772131318
 31
0.0
 11
1.5656943203
 21
-7.8683950503
 31
0.0
 11
0.7866336548
 21
-7.9838502725
 31
0.0
 11
0.0
 21
-8.022458791
 31
0.0
  0
SPLINE
  5
7DC
100
AcDbEntity
  8
RACCORDO
100
AcDbSpline
 62
253
  6
CONTINUOUS
 70
0
 71
3
 72
29
 73
25
 74
23
 42
0.0000001
 43
0.0000001
 44
0.0000000001
 12
-25.1832384746
 22
0.0001894923
 32
0.0
 13
25.1832384746
 23
0.0001898178
 33
0.0
 40
0.0
 40
0.0
 40
0.0
 40
0.0
 40
0.0312744216
 40
0.0625484092
 40
0.0938213022
 40
0.1250927009
 40
0.1875562276
 40
0.2500158633
 40
0.2812829038
 40
0.3125500518
 40
0.3750148616
 40
0.4374994826
 40
0.500000585
 40
0.5625018301
 40
0.6249867511
 40
0.6874517224
 40
0.7187188605
 40
0.7499858996
 40
0.8124455031
 40
0.874908382
 40
0.9061794518
 40
0.9374520926
 40
0.9687258048
 40
1.0
 40
1.0
 40
1.0
 40
1.0
 10
0.0
 20
-8.022458791
 30
0.0
 10
-0.2625304054
 20
-8.0224568156
 30
0.0
 10
-0.7879548
 20
-7.9966778609
 30
0.0
 10
-1.5681956218
 20
-7.8810415698
 30
0.0
 10
-2.3334773871
 20
-7.6895182656
 30
0.0
 10
-3.3229551354
 20
-7.3359019431
 30
0.0
 10
-4.487628953
 20
-6.7143212447
 30
0.0
 10
-5.5084132644
 20
-5.8772874761
 30
0.0
 10
-6.2144704654
 20
-5.0991369074
 30
0.0
 10
-6.8410403944
 20
-4.2556480007
 30
0.0
 10
-7.4643973234
 20
-3.0915072638
 30
0.0
 10
-7.9246828999
 20
-1.5763909723
 30
0.0
 10
-8.0802506226
 20
0.0000158921
 30
0.0
 10
-7.9246755301
 20
1.5764245574
 30
0.0
 10
-7.46438174
 20
3.091543752
 30
0.0
 10
-6.8410171441
 20
4.2556847196
 30
0.0
 10
-6.2144424644
 20
5.0991716786
 30
0.0
 10
-5.5083809643
 20
5.877317909
 30
0.0
 10
-4.487595989
 20
6.7143416751
 30
0.0
 10
-3.3229275907
 20
7.3359139162
 30
0.0
 10
-2.3334584984
 20
7.6895237612
 30
0.0
 10
-1.5681833278
 20
7.8810436381
 30
0.0
 10
-0.7879486742
 20
7.9966781007
 30
0.0
 10
-0.2625285053
 20
8.0224568122
 30
0.0
 10
0.0
 20
8.022458791
 30
0.0
 11
0.0
 21
-8.022458791
 31
0.0
 11
-0.786644283
 21
-7.9838492582
 31
0.0
 11
-1.5657155973
 21
-7.8683910462
 31
0.0
 11
-2.3297095676
 21
-7.6772039524
 31
0.0
 11
-3.0712730873
 21
-7.4121311987
 31
0.0
 11
-4.4588914498
 21
-6.6712189956
 31
0.0
 11
-5.6753623094
 21
-5.6740600324
 31
0.0
 11
-6.2045248136
 21
-5.0909698076
 31
0.0
 11
-6.6739967055
 21
-4.4588245954
 31
0.0
 11
-7.4163893252
 21
-3.0719610568
 31
0.0
 11
-7.8738568774
 21
-1.566361311
 31
0.0
 11
-8.0283889498
 21
0.0000145718
 31
0.0
 11
-7.8738496504
 21
1.5663933534
 31
0.0
 11
-7.4163730665
 21
3.0719982506
 31
0.0
 11
-6.6739716804
 21
4.4588617104
 31
0.0
 11
-6.2044967911
 21
5.0910043868
 31
0.0
 11
-5.6753310041
 21
5.6740915855
 31
0.0
 11
-4.4588549389
 21
6.6712429163
 31
0.0
 11
-3.0712479013
 21
7.4121416945
 31
0.0
 11
-2.3296913985
 21
7.6772094715
 31
0.0
 11
-1.565703182
 21
7.8683933891
 31
0.0
 11
-0.7866385974
 21
7.9838497013
 31
0.0
 11
0.0
 21
8.022458791
 31
0.0
  0
SPLINE
  5
7DD
100
AcDbEntity
  8
RACCORDO
100
AcDbSpline
 62
253
  6
CONTINUOUS
 70
0
 71
3
 72
18
 73
14
 74
12
 42
0.0000001
 43
0.0000001
 44
0.0000000001
 12
0.0017467042
 22
0.2000167435
 32
0.0
 13
-0.200021483
 23
-0.0010746952
 33
0.0
 40
0.0
 40
0.0
 40
0.0
 40
0.0
 40
0.1950219178
 40
0.3827030664
 40
0.5555476536
 40
0.7070915774
 40
0.8314388572
 40
0.8818839694
 40
0.923824409
 40
0.9568857017
 40
0.980717352
 40
0.9951155081
 40
1.0
 40
1.0
 40
1.0
 40
1.0
 10
-52.4480282575
 20
20.785536625
 30
0.0
 10
-52.447914709
 20
20.7985391746
 30
0.0
 10
-52.4477139557
 20
20.8240552413
 30
0.0
 10
-52.4474873683
 20
20.8610947644
 30
0.0
 10
-52.4473426317
 20
20.8952392818
 30
0.0
 10
-52.4472951063
 20
20.9251505606
 30
0.0
 10
-52.4473120568
 20
20.9469287641
 30
0.0
 10
-52.4474138067
 20
20.9613477739
 30
0.0
 10
-52.4474451133
 20
20.9697796581
 30
0.0
 10
-52.4476642472
 20
20.9761897478
 30
0.0
 10
-52.4474973591
 20
20.9813518437
 30
0.0
 10
-52.4481117858
 20
20.9834980194
 30
0.0
 10
-52.4477026032
 20
20.9855402842
 30
0.0
 10
-52.448028271
 20
20.9855385344
 30
0.0
 11
-52.4480282575
 21
20.785536625
 31
0.0
 11
-52.4477217032
 21
20.8245445567
 31
0.0
 11
-52.4474935506
 21
20.8620846669
 31
0.0
 11
-52.4473528884
 21
20.8966575105
 31
0.0
 11
-52.4473053657
 21
20.9269699511
 31
0.0
 11
-52.4473528303
 21
20.9518423921
 31
0.0
 11
-52.447411742
 21
20.961932472
 31
0.0
 11
-52.447493476
 21
20.9703211838
 31
0.0
 11
-52.4475971384
 21
20.9769334355
 31
0.0
 11
-52.4477217698
 21
20.9816987168
 31
0.0
 11
-52.4478660151
 21
20.9845750844
 31
0.0
 11
-52.448028271
 21
20.9855385344
 31
0.0
  0
SPLINE
  5
7DE
100
AcDbEntity
  8
RACCORDO
100
AcDbSpline
 62
253
  6
CONTINUOUS
 70
0
 71
3
 72
18
 73
14
 74
12
 42
0.0000001
 43
0.0000001
 44
0.0000000001
 12
0.2000802044
 22
0.0017460734
 32
0.0
 13
-0.0017455417
 23
0.200080209
 33
0.0
 40
0.0
 40
0.0
 40
0.0
 40
0.0
 40
0.0051358106
 40
0.019649731
 40
0.0435107103
 40
0.076559662
 40
0.1185627937
 40
0.1690427337
 40
0.2932760029
 40
0.4446675106
 40
0.6175283615
 40
0.8054196236
 40
1.0
 40
1.0
 40
1.0
 40
1.0
 10
-52.4480281981
 20
20.9855385354
 30
0.0
 10
-52.4476856734
 20
20.9855415246
 30
0.0
 10
-52.4477446817
 20
20.9875220854
 30
0.0
 10
-52.4472085311
 20
20.9897722043
 30
0.0
 10
-52.4470919926
 20
20.9948867501
 30
0.0
 10
-52.4467732242
 20
21.0013233048
 30
0.0
 10
-52.4465706917
 20
21.0097521697
 30
0.0
 10
-52.4462727261
 20
21.0241761567
 30
0.0
 10
-52.4460290946
 20
21.0459420586
 30
0.0
 10
-52.4458713671
 20
21.0758469137
 30
0.0
 10
-52.4458589708
 20
21.1100072408
 30
0.0
 10
-52.4459910186
 20
21.1470447854
 30
0.0
 10
-52.4461698078
 20
21.1725536926
 30
0.0
 10
-52.4462830239
 20
21.18553092
 30
0.0
 11
-52.4480281981
 21
20.9855385354
 31
0.0
 11
-52.4476959475
 21
20.9865109542
 31
0.0
 11
-52.4473823928
 21
20.9893980359
 31
0.0
 11
-52.4470910666
 21
20.9941634307
 31
0.0
 11
-52.4468255014
 21
21.0007707888
 31
0.0
 11
-52.4465889176
 21
21.0091717734
 31
0.0
 11
-52.4463832871
 21
21.0192701013
 31
0.0
 11
-52.4460715256
 21
21.0441257106
 31
0.0
 11
-52.4459020655
 21
21.0744168338
 31
0.0
 11
-52.4458810348
 21
21.1090041787
 31
0.0
 11
-52.4460106278
 21
21.146598709
 31
0.0
 11
-52.4462830239
 21
21.18553092
 31
0.0
  0
SPLINE
  5
7DF
100
AcDbEntity
  8
ASSI
100
AcDbSpline
 62
253
  6
CONTINUOUS
 70
0
 71
3
 72
18
 73
14
 74
12
 42
0.0000001
 43
0.0000001
 44
0.0000000001
 12
-0.2000268721
 22
0.003491482
 32
0.0
 13
0.0034904184
 23
0.2000268907
 33
0.0
 40
0.0
 40
0.0
 40
0.0
 40
0.0
 40
0.0051355832
 40
0.0196489053
 40
0.0435089474
 40
0.0765566639
 40
0.1185583201
 40
0.1690366522
 40
0.2932667776
 40
0.4446560819
 40
0.6175168643
 40
0.8054114679
 40
1.0
 40
1.0
 40
1.0
 40
1.0
 10
-66.0041366068
 20
-24.4606499457
 30
0.0
 10
-66.004479025
 20
-24.4606439688
 30
0.0
 10
-66.0044027401
 20
-24.4586643799
 30
0.0
 10
-66.0049191365
 20
-24.4564101055
 30
0.0
 10
-66.0049910167
 20
-24.451295713
 30
0.0
 10
-66.0052535531
 20
-24.4448578409
 30
0.0
 10
-66.0053824974
 20
-24.4364291033
 30
0.0
 10
-66.0055545515
 20
-24.4220056777
 30
0.0
 10
-66.0056082333
 20
-24.4002422586
 30
0.0
 10
-66.005505032
 20
-24.3703420826
 30
0.0
 10
-66.0052194127
 20
-24.3361880801
 30
0.0
 10
-66.004764285
 20
-24.2991579772
 30
0.0
 10
-66.0043630052
 20
-24.2736547197
 30
0.0
 10
-66.0041366068
 20
-24.2606804067
 30
0.0
 11
-66.0041366068
 21
-24.4606499457
 31
0.0
 11
-66.0044602906
 21
-24.4596748547
 31
0.0
 11
-66.004748578
 21
-24.4567857055
 31
0.0
 11
-66.0049982553
 21
-24.4520188632
 31
0.0
 11
-66.0052061084
 21
-24.445410693
 31
0.0
 11
-66.00536934
 21
-24.4370095389
 31
0.0
 11
-66.0054868189
 21
-24.4269116614
 31
0.0
 11
-66.0055816597
 21
-24.4020586937
 31
0.0
 11
-66.0054868189
 21
-24.3717723004
 31
0.0
 11
-66.0052061083
 21
-24.337191371
 31
0.0
 11
-66.004748578
 21
-24.2996044607
 31
0.0
 11
-66.0041366068
 21
-24.2606804067
 31
0.0
  0
SPLINE
  5
7E0
100
AcDbEntity
  8
ASSI
100
AcDbSpline
 62
253
  6
CONTINUOUS
 70
0
 71
3
 72
20
 73
16
 74
14
 42
0.0000001
 43
0.0000001
 44
0.0000000001
 12
-0.0261520065
 22
-0.4993521831
 32
0.0
 13
0.4993512462
 23
-0.0261698899
 33
0.0
 40
0.0
 40
0.0
 40
0.0
 40
0.0
 40
0.1947181026
 40
0.3822854044
 40
0.5549071402
 40
0.7061951091
 40
0.7720385247
 40
0.830443712
 40
0.8808402511
 40
0.9227968418
 40
0.9558954823
 40
0.9798059931
 40
0.9944057637
 40
0.9982407178
 40
1.0
 40
1.0
 40
1.0
 40
1.0
 10
-70.9037704067
 20
-21.5250746743
 30
0.0
 10
-70.9054678298
 20
-21.5574856441
 30
0.0
 10
-70.9086384645
 20
-21.6211259383
 30
0.0
 10
-70.9127608241
 20
-21.7135257025
 30
0.0
 10
-70.9160573702
 20
-21.7987150799
 30
0.0
 10
-70.9181066477
 20
-21.8636466436
 30
0.0
 10
-70.9192005478
 20
-21.9095610225
 30
0.0
 10
-70.9197127865
 20
-21.9386637962
 30
0.0
 10
-70.9199489972
 20
-21.9637991363
 30
0.0
 10
-70.9199226695
 20
-21.9846874946
 30
0.0
 10
-70.919614159
 20
-22.0012399335
 30
0.0
 10
-70.9191113753
 20
-22.0130314938
 30
0.0
 10
-70.9183675548
 20
-22.0202960669
 30
0.0
 10
-70.917699559
 20
-22.0233588182
 30
0.0
 10
-70.917142744
 20
-22.0243740949
 30
0.0
 10
-70.9168499107
 20
-22.0243894416
 30
0.0
 11
-70.9037704067
 21
-21.5250746743
 31
0.0
 11
-70.9086119839
 21
-21.6223203891
 31
0.0
 11
-70.9127757639
 21
-21.7160184216
 31
0.0
 11
-70.9160856465
 21
-21.8022721121
 31
0.0
 11
-70.9184201556
 21
-21.8778855934
 31
0.0
 11
-70.9191938929
 21
-21.9108006135
 31
0.0
 11
-70.9196934425
 21
-21.9400010679
 31
0.0
 11
-70.9199133604
 21
-21.9652002188
 31
0.0
 11
-70.9198526181
 21
-21.9861799588
 31
0.0
 11
-70.9195104969
 21
-22.0027269517
 31
0.0
 11
-70.9188894635
 21
-22.0146669406
 31
0.0
 11
-70.9179990901
 21
-22.0219128599
 31
0.0
 11
-70.9174561928
 21
-22.0237520222
 31
0.0
 11
-70.9168499107
 21
-22.0243894416
 31
0.0
  0
SPLINE
  5
7E1
100
AcDbEntity
  8
ASSI
100
AcDbSpline
 62
253
  6
CONTINUOUS
 70
0
 71
3
 72
20
 73
16
 74
14
 42
0.0000001
 43
0.0000001
 44
0.0000000001
 12
-0.0261519982
 22
0.4993521834
 32
0.0
 13
0.4993512461
 23
0.0261698899
 33
0.0
 40
0.0
 40
0.0
 40
0.0
 40
0.0
 40
0.1947180835
 40
0.3822853444
 40
0.5549070707
 40
0.7061950516
 40
0.7720384768
 40
0.8304436687
 40
0.880840218
 40
0.922796821
 40
0.9558954685
 40
0.9798059849
 40
0.9944057611
 40
0.9982407171
 40
1.0
 40
1.0
 40
1.0
 40
1.0
 10
-70.9037703833
 20
21.5250746755
 30
0.0
 10
-70.9054678056
 20
21.5574856422
 30
0.0
 10
-70.908638439
 20
21.6211259264
 30
0.0
 10
-70.912760797
 20
21.713525679
 30
0.0
 10
-70.9160573426
 20
21.7987150501
 30
0.0
 10
-70.9181066202
 20
21.8636466158
 30
0.0
 10
-70.9192005209
 20
21.909560999
 30
0.0
 10
-70.91971276
 20
21.9386637768
 30
0.0
 10
-70.9199489712
 20
21.9637991214
 30
0.0
 10
-70.9199226442
 20
21.9846874846
 30
0.0
 10
-70.9196141339
 20
22.0012399277
 30
0.0
 10
-70.9191113501
 20
22.0130314909
 30
0.0
 10
-70.9183675296
 20
22.0202960665
 30
0.0
 10
-70.9176995337
 20
22.0233588189
 30
0.0
 10
-70.9171427187
 20
22.0243740962
 30
0.0
 10
-70.9168498853
 20
22.024389443
 30
0.0
 11
-70.9037703833
 21
21.5250746755
 31
0.0
 11
-70.9086119587
 21
21.6223203808
 31
0.0
 11
-70.9127757367
 21
21.7160183929
 31
0.0
 11
-70.9160856188
 21
21.8022720787
 31
0.0
 11
-70.9184201283
 21
21.877885566
 31
0.0
 11
-70.919193866
 21
21.9108005909
 31
0.0
 11
-70.919693416
 21
21.9400010475
 31
0.0
 11
-70.9199133345
 21
21.9652002035
 31
0.0
 11
-70.9198525927
 21
21.9861799497
 31
0.0
 11
-70.9195104718
 21
22.0027269461
 31
0.0
 11
-70.9188894384
 21
22.0146669377
 31
0.0
 11
-70.9179990649
 21
22.0219128599
 31
0.0
 11
-70.9174561675
 21
22.0237520232
 31
0.0
 11
-70.9168498853
 21
22.024389443
 31
0.0
  0
LINE
  5
7E2
100
AcDbEntity
  8
ASSI
100
AcDbLine
 62
7
  6
CONTINUOUS
 10
-63.7497735052
 20
-24.5
 11
-63.7497735052
 21
-24.300030461
  0
SPLINE
  5
7E3
100
AcDbEntity
  8
ASSI
100
AcDbSpline
 62
7
  6
CONTINUOUS
 70
0
 71
3
 72
10
 73
6
 74
4
 42
0.0000001
 43
0.0000001
 44
0.0000000001
 12
0.0380339309
 22
0.0219589002
 32
0.0
 13
0.041841455
 23
-0.0133441314
 33
0.0
 40
0.0
 40
0.0
 40
0.0
 40
0.0
 40
0.1562586274
 40
0.3725053574
 40
1.0
 40
1.0
 40
1.0
 40
1.0
 10
-65.2452255751
 20
-23.1200239821
 30
0.0
 10
-65.2432445318
 20
-23.1188802263
 30
0.0
 10
-65.2376864098
 20
-23.1177807851
 30
0.0
 10
-65.2230883304
 20
-23.1189267989
 30
0.0
 10
-65.2111066214
 20
-23.1224191514
 30
0.0
 10
-65.2023548584
 20
-23.125210275
 30
0.0
 11
-65.2452255751
 21
-23.1200239821
 31
0.0
 11
-65.2386026486
 21
-23.1182264185
 31
0.0
 11
-65.2291137846
 21
-23.1186213903
 31
0.0
 11
-65.2023548584
 21
-23.125210275
 31
0.0
  0
SPLINE
  5
7E4
100
AcDbEntity
  8
ASSI
100
AcDbSpline
 62
7
  6
CONTINUOUS
 70
0
 71
3
 72
10
 73
6
 74
4
 42
0.0000001
 43
0.0000001
 44
0.0000000001
 12
0.2053840236
 22
-0.0655013408
 32
0.0
 13
0.1961778969
 23
-0.0893714471
 33
0.0
 40
0.0
 40
0.0
 40
0.0
 40
0.0
 40
0.2009386342
 40
0.4447871076
 40
1.0
 40
1.0
 40
1.0
 40
1.0
 10
-65.2023548584
 20
-23.125210275
 30
0.0
 10
-65.18859833
 20
-23.129597525
 30
0.0
 10
-65.1587205789
 20
-23.1410494792
 30
0.0
 10
-65.0926271911
 20
-23.1692343311
 30
0.0
 10
-65.0404434393
 20
-23.1932160189
 30
0.0
 10
-65.0041366068
 20
-23.2097560788
 30
0.0
 11
-65.2023548584
 21
-23.125210275
 31
0.0
 11
-65.1617009853
 21
-23.1401659737
 31
0.0
 11
-65.1132648905
 21
-23.1605945621
 31
0.0
 11
-65.0041366068
 21
-23.2097560788
 31
0.0
  0
SPLINE
  5
7E5
100
AcDbEntity
  8
ASSI
100
AcDbSpline
 62
253
  6
CONTINUOUS
 70
0
 71
3
 72
18
 73
14
 74
12
 42
0.0000001
 43
0.0000001
 44
0.0000000001
 12
-0.1717708875
 22
-0.0991719681
 32
0.0
 13
0.0991493107
 23
-0.1717839667
 33
0.0
 40
0.0
 40
0.0
 40
0.0
 40
0.0
 40
0.0050557424
 40
0.0195143832
 40
0.0433121005
 40
0.0762867901
 40
0.1182059192
 40
0.1685971851
 40
0.2926641405
 40
0.4439494969
 40
0.6168293837
 40
0.8049344776
 40
1.0
 40
1.0
 40
1.0
 40
1.0
 10
-66.1247735052
 20
-23.6278312164
 30
0.0
 10
-66.1250629816
 20
-23.6279983457
 30
0.0
 10
-66.1239624518
 20
-23.6296479184
 30
0.0
 10
-66.1233557535
 20
-23.6318305804
 30
0.0
 10
-66.1208974263
 20
-23.6362675588
 30
0.0
 10
-66.1180166018
 20
-23.6419465885
 30
0.0
 10
-66.1140454237
 20
-23.6492846669
 30
0.0
 10
-66.107228943
 20
-23.6618302795
 30
0.0
 10
-66.096775885
 20
-23.6806802162
 30
0.0
 10
-66.0822782892
 20
-23.7065184145
 30
0.0
 10
-66.0655772529
 20
-23.7359857363
 30
0.0
 10
-66.0473422836
 20
-23.7679068829
 30
0.0
 10
-66.0347108571
 20
-23.7898665874
 30
0.0
 10
-66.0282639864
 20
-23.8010362971
 30
0.0
 11
-66.1247735052
 21
-23.6278312164
 31
0.0
 11
-66.1245482574
 21
-23.6288083667
 31
0.0
 11
-66.1233745248
 21
-23.6314249552
 31
0.0
 11
-66.1212672299
 21
-23.6356485749
 31
0.0
 11
-66.1182412951
 21
-23.6414468187
 31
0.0
 11
-66.1143176665
 21
-23.6487771987
 31
0.0
 11
-66.1095413843
 21
-23.6575569023
 31
0.0
 11
-66.0976351142
 21
-23.6790927066
 31
0.0
 11
-66.0829585217
 21
-23.7052650137
 31
0.0
 11
-66.0660577509
 21
-23.7351003269
 31
0.0
 11
-66.0475546762
 21
-23.7674984035
 31
0.0
 11
-66.0282639864
 21
-23.8010362971
 31
0.0
  0
LINE
  5
7E6
100
AcDbEntity
  8
ASSI
100
AcDbLine
 62
253
  6
CONTINUOUS
 10
-72.0545899707
 20
20.8772674161
 11
-72.4049475256
 21
20.8701690321
  0
LINE
  5
7E7
100
AcDbEntity
  8
RACCORDO
100
AcDbLine
 62
253
  6
CONTINUOUS
 10
-72.8693311593
 20
8.022458791
 11
-72.8672372278
 21
7.9744369733
  0
LINE
  5
7E8
100
AcDbEntity
  8
RACCORDO
100
AcDbLine
 62
253
  6
CONTINUOUS
 10
-72.8672372278
 20
7.9744369733
 11
-72.8644959689
 21
7.9112068604
  0
SPLINE
  5
7E9
100
AcDbEntity
  8
RACCORDO
100
AcDbSpline
 62
253
  6
CONTINUOUS
 70
0
 71
3
 72
11
 73
7
 74
5
 42
0.0000001
 43
0.0000001
 44
0.0000000001
 12
0.6834828841
 22
-15.8158547674
 32
0.0
 13
-0.6837161951
 23
-15.8158446831
 33
0.0
 40
0.0
 40
0.0
 40
0.0
 40
0.0
 40
0.1727536491
 40
0.5005330264
 40
0.8280100962
 40
1.0
 40
1.0
 40
1.0
 40
1.0
 10
-72.8644959689
 20
7.9112068604
 30
0.0
 10
-72.8251379148
 20
7.0004579855
 30
0.0
 10
-72.7270359756
 20
4.3609677694
 30
0.0
 10
-72.6580032273
 20
-0.0085065855
 30
0.0
 10
-72.7274346827
 20
-4.3739413014
 30
0.0
 10
-72.825442041
 20
-7.0078047218
 30
0.0
 10
-72.8646394685
 20
-7.9145265901
 30
0.0
 11
-72.8644959689
 21
7.9112068604
 31
0.0
 11
-72.7641352808
 21
5.1782522581
 31
0.0
 11
-72.685409857
 21
-0.0101000435
 31
0.0
 11
-72.7645954485
 21
-5.1936590708
 31
0.0
 11
-72.8646394685
 21
-7.9145265901
 31
0.0
  0
LINE
  5
7EA
100
AcDbEntity
  8
RACCORDO
100
AcDbLine
 62
253
  6
CONTINUOUS
 10
-72.8646394685
 20
-7.9145265901
 11
-72.8692098773
 21
-8.0196854903
  0
LINE
  5
7EB
100
AcDbEntity
  8
RACCORDO
100
AcDbLine
 62
253
  6
CONTINUOUS
 10
-72.8692098773
 20
-8.0196854903
 11
-72.8693311593
 21
-8.0224587913
  0
SPLINE
  5
7EC
100
AcDbEntity
  8
ASSI
100
AcDbSpline
 62
253
  6
CONTINUOUS
 70
0
 71
3
 72
11
 73
7
 74
5
 42
0.0000001
 43
0.0000001
 44
0.0000000001
 12
0.0445214711
 22
-1.0283394222
 32
0.0
 13
1.0278859145
 23
-0.053987734
 33
0.0
 40
0.0
 40
0.0
 40
0.0
 40
0.0
 40
0.2500282611
 40
0.5000348528
 40
0.7500211407
 40
1.0
 40
1.0
 40
1.0
 40
1.0
 10
-71.5692621488
 20
-20.8558253568
 30
0.0
 10
-71.5655516068
 20
-20.941529996
 30
0.0
 10
-71.525758099
 20
-21.1132118894
 30
0.0
 10
-71.3772090507
 20
-21.3303262024
 30
0.0
 10
-71.1606925472
 20
-21.4796143255
 30
0.0
 10
-70.9894203229
 20
-21.5205760769
 30
0.0
 10
-70.9037704067
 20
-21.5250746743
 30
0.0
 11
-71.5692621488
 21
-20.8558253568
 31
0.0
 11
-71.5109442652
 21
-21.1064854936
 31
0.0
 11
-71.3658743036
 21
-21.3190289155
 31
0.0
 11
-71.1539570747
 21
-21.46497525
 31
0.0
 11
-70.9037704067
 21
-21.5250746743
 31
0.0
  0
SPLINE
  5
7ED
100
AcDbEntity
  8
ASSI
100
AcDbSpline
 62
7
  6
CONTINUOUS
 70
0
 71
3
 72
21
 73
17
 74
15
 42
0.0000001
 43
0.0000001
 44
0.0000000001
 12
-0.4993233323
 22
-0.026574891
 32
0.0
 13
-0.0
 23
-0.5000300141
 33
0.0
 40
0.0
 40
0.0
 40
0.0
 40
0.0
 40
0.0013706659
 40
0.0050557091
 40
0.0111101809
 40
0.0195275933
 40
0.0433925914
 40
0.0764939753
 40
0.1184819239
 40
0.1689260801
 40
0.2273866984
 40
0.2932927234
 40
0.4447336277
 40
0.6175244721
 40
0.805214679
 40
1.0
 40
1.0
 40
1.0
 40
1.0
 10
-63.7497762061
 20
22.3999998542
 30
0.0
 10
-63.7500043413
 20
22.3999877125
 30
0.0
 10
-63.7501152421
 20
22.3987963099
 30
0.0
 10
-63.750414261
 20
22.3972905791
 30
0.0
 10
-63.7505785256
 20
22.394086348
 30
0.0
 10
-63.7508920304
 20
22.3878134771
 30
0.0
 10
-63.7511198113
 20
22.376835704
 30
0.0
 10
-63.7513246104
 20
22.3603825154
 30
0.0
 10
-63.7514256822
 20
22.339444165
 30
0.0
 10
-63.7514516615
 20
22.3142991413
 30
0.0
 10
-63.751400863
 20
22.2851605164
 30
0.0
 10
-63.751235656
 20
22.2391908303
 30
0.0
 10
-63.7508557985
 20
22.1741646027
 30
0.0
 10
-63.7502637086
 20
22.0888413619
 30
0.0
 10
-63.7498571419
 20
21.9962921078
 30
0.0
 10
-63.7497735052
 20
21.9325423214
 30
0.0
 10
-63.7497735052
 20
21.9000761524
 30
0.0
 11
-63.7497762061
 21
22.3999998542
 31
0.0
 11
-63.7500663244
 21
22.3993789122
 31
0.0
 11
-63.7503255788
 21
22.3975546094
 31
0.0
 11
-63.7505549463
 21
22.3945358931
 31
0.0
 11
-63.7507554037
 21
22.3903317105
 31
0.0
 11
-63.751073496
 21
22.3784027355
 31
0.0
 11
-63.751287767
 21
22.361852437
 31
0.0
 11
-63.751406801
 21
22.3408575399
 31
0.0
 11
-63.7514394686
 21
22.3156339689
 31
0.0
 11
-63.7513945516
 21
22.2864019396
 31
0.0
 11
-63.7512794035
 21
22.2534471502
 31
0.0
 11
-63.7508636448
 21
22.177723294
 31
0.0
 11
-63.750316092
 21
22.0913244207
 31
0.0
 11
-63.7499096352
 21
21.9974745641
 31
0.0
 11
-63.7497735052
 21
21.9000761524
 31
0.0
  0
SPLINE
  5
7EE
100
AcDbEntity
  8
ASSI
100
AcDbSpline
 62
253
  6
CONTINUOUS
 70
0
 71
3
 72
11
 73
7
 74
5
 42
0.0000001
 43
0.0000001
 44
0.0000000001
 12
-1.0278859147
 22
-0.053987728
 32
0.0
 13
-0.0445214629
 23
-1.0283394224
 33
0.0
 40
0.0
 40
0.0
 40
0.0
 40
0.0
 40
0.2499788592
 40
0.4999651467
 40
0.7499717379
 40
1.0
 40
1.0
 40
1.0
 40
1.0
 10
-70.9037703833
 20
21.5250746755
 30
0.0
 10
-70.9894202994
 20
21.5205760786
 30
0.0
 10
-71.160692523
 20
21.4796143263
 30
0.0
 10
-71.3772090281
 20
21.3303262034
 30
0.0
 10
-71.5257580664
 20
21.1132118874
 30
0.0
 10
-71.5655515944
 20
20.9415299985
 30
0.0
 10
-71.5692621357
 20
20.855825359
 30
0.0
 11
-70.9037703833
 21
21.5250746755
 31
0.0
 11
-71.153957051
 21
21.464975251
 31
0.0
 11
-71.3658742791
 21
21.3190289159
 31
0.0
 11
-71.5109442391
 21
21.1064854937
 31
0.0
 11
-71.5692621357
 21
20.855825359
 31
0.0
  0
SPLINE
  5
7EF
100
AcDbEntity
  8
ASSI
100
AcDbSpline
 62
253
  6
CONTINUOUS
 70
0
 71
3
 72
18
 73
14
 74
12
 42
0.0000001
 43
0.0000001
 44
0.0000000001
 12
0.004362873
 22
-0.250033607
 32
0.0
 13
-0.2500335812
 23
-0.0043643524
 33
0.0
 40
0.0
 40
0.0
 40
0.0
 40
0.0
 40
0.1945886021
 40
0.3824833732
 40
0.5553442543
 40
0.7067335488
 40
0.8309635853
 40
0.8814418578
 40
0.9234434799
 40
0.9564911713
 40
0.9803511732
 40
0.9948644545
 40
1.0
 40
1.0
 40
1.0
 40
1.0
 10
-58.1212037249
 20
-23.6517910252
 30
0.0
 10
-58.1209207364
 20
-23.6680089219
 30
0.0
 10
-58.1204191537
 20
-23.6998880127
 30
0.0
 10
-58.1198502642
 20
-23.746175668
 30
0.0
 10
-58.1194932563
 20
-23.7888681911
 30
0.0
 10
-58.1193642647
 20
-23.8262434097
 30
0.0
 10
-58.1194313659
 20
-23.8534476697
 30
0.0
 10
-58.1196464278
 20
-23.8714769354
 30
0.0
 10
-58.1198075988
 20
-23.8820128482
 30
0.0
 10
-58.1201357644
 20
-23.8900601776
 30
0.0
 10
-58.1202255913
 20
-23.8964531647
 30
0.0
 10
-58.120871094
 20
-23.899270991
 30
0.0
 10
-58.1207757053
 20
-23.9017454779
 30
0.0
 10
-58.1212037249
 20
-23.901752949
 30
0.0
 11
-58.1212037249
 21
-23.6517910252
 31
0.0
 11
-58.120438787
 21
-23.7004461089
 31
0.0
 11
-58.1198668947
 21
-23.7474297874
 31
0.0
 11
-58.1195160225
 21
-23.7906559723
 31
0.0
 11
-58.1193974802
 21
-23.8285139601
 31
0.0
 11
-58.1195160294
 21
-23.8595801464
 31
0.0
 11
-58.119662873
 21
-23.8722024781
 31
0.0
 11
-58.1198669047
 21
-23.8827039119
 31
0.0
 11
-58.1201267104
 21
-23.8909641185
 31
0.0
 11
-58.120438794
 21
-23.8969226617
 31
0.0
 11
-58.120799138
 21
-23.9005340894
 31
0.0
 11
-58.1212037249
 21
-23.901752949
 31
0.0
  0
SPLINE
  5
7F0
100
AcDbEntity
  8
ASSI
100
AcDbSpline
 62
7
  6
CONTINUOUS
 70
0
 71
3
 72
21
 73
17
 74
15
 42
0.0000001
 43
0.0000001
 44
0.0000000001
 12
-0.4993991576
 22
0.0265778679
 32
0.0
 13
-0.0
 23
0.5001058905
 33
0.0
 40
0.0
 40
0.0
 40
0.0
 40
0.0
 40
0.0013704397
 40
0.0050554296
 40
0.0111099771
 40
0.0195275861
 40
0.0433933362
 40
0.0764959336
 40
0.1184854348
 40
0.1689313225
 40
0.227393711
 40
0.2933013958
 40
0.4447444245
 40
0.6175349462
 40
0.8052222556
 40
1.0
 40
1.0
 40
1.0
 40
1.0
 10
-63.7497799027
 20
-22.3999996605
 30
0.0
 10
-63.7500080348
 20
-22.3999875194
 30
0.0
 10
-63.7501184546
 20
-22.3987957602
 30
0.0
 10
-63.7504171776
 20
-22.3972899465
 30
0.0
 10
-63.750580687
 20
-22.3940850454
 30
0.0
 10
-63.750893166
 20
-22.3878110658
 30
0.0
 10
-63.7511197569
 20
-22.3768311993
 30
0.0
 10
-63.7513241271
 20
-22.3603749461
 30
0.0
 10
-63.7514252872
 20
-22.3394326613
 30
0.0
 10
-63.7514515877
 20
-22.3142829826
 30
0.0
 10
-63.7514009428
 20
-22.2851390742
 30
0.0
 10
-63.7512356384
 20
-22.2391614871
 30
0.0
 10
-63.7508554729
 20
-22.1741248165
 30
0.0
 10
-63.750263331
 20
-22.0887888109
 30
0.0
 10
-63.7498570099
 20
-21.9962273113
 30
0.0
 10
-63.7497735052
 20
-21.9324695973
 30
0.0
 10
-63.7497735052
 20
-21.8999997649
 30
0.0
 11
-63.7497799027
 21
-22.3999996605
 31
0.0
 11
-63.7500697752
 21
-22.3993786137
 31
0.0
 11
-63.7503285329
 21
-22.397553985
 31
0.0
 11
-63.7505572424
 21
-22.3945347201
 31
0.0
 11
-63.7507569703
 21
-22.390329765
 31
0.0
 11
-63.7510737478
 21
-22.3783985673
 31
0.0
 11
-63.7512873957
 21
-22.361845142
 31
0.0
 11
-63.7514064273
 21
-22.3408462825
 31
0.0
 11
-63.7514393485
 21
-22.3156180183
 31
0.0
 11
-63.7513945906
 21
-22.2863806678
 31
0.0
 11
-63.7512794063
 21
-22.2534200476
 31
0.0
 11
-63.7508633811
 21
-22.1776836395
 31
0.0
 11
-63.7503157572
 21
-22.091271817
 31
0.0
 11
-63.7499094883
 21
-21.9974091673
 31
0.0
 11
-63.7497735052
 21
-21.8999997649
 31
0.0
  0
SPLINE
  5
7F1
100
AcDbEntity
  8
ASSI
100
AcDbSpline
 62
253
  6
CONTINUOUS
 70
0
 71
3
 72
18
 73
14
 74
12
 42
0.0000001
 43
0.0000001
 44
0.0000000001
 12
0.0043630533
 22
0.250033613
 32
0.0
 13
-0.2500335903
 23
0.0043643526
 33
0.0
 40
0.0
 40
0.0
 40
0.0
 40
0.0
 40
0.1945885328
 40
0.3824831384
 40
0.5553439218
 40
0.7067332259
 40
0.8309633501
 40
0.8814416814
 40
0.9234433372
 40
0.9564910534
 40
0.9803510951
 40
0.9948644169
 40
1.0
 40
1.0
 40
1.0
 40
1.0
 10
-58.1212037249
 20
23.6517910252
 30
0.0
 10
-58.1209207248
 20
23.6680089165
 30
0.0
 10
-58.1204191219
 20
23.6998879886
 30
0.0
 10
-58.11985021
 20
23.7461756176
 30
0.0
 10
-58.119493187
 20
23.788868121
 30
0.0
 10
-58.1193641879
 20
23.826243341
 30
0.0
 10
-58.1194312917
 20
23.8534476147
 30
0.0
 10
-58.1196463601
 20
23.8714768965
 30
0.0
 10
-58.119807541
 20
23.8820128183
 30
0.0
 10
-58.1201357119
 20
23.8900601584
 30
0.0
 10
-58.1202255624
 20
23.8964531489
 30
0.0
 10
-58.120871058
 20
23.8992709919
 30
0.0
 10
-58.1207757021
 20
23.9017454779
 30
0.0
 10
-58.1212037249
 20
23.901752949
 30
0.0
 11
-58.1212037249
 21
23.6517910252
 31
0.0
 11
-58.120438756
 21
23.7004460929
 31
0.0
 11
-58.119866841
 21
23.7474297314
 31
0.0
 11
-58.1195159538
 21
23.7906558933
 31
0.0
 11
-58.1193974051
 21
23.8285138849
 31
0.0
 11
-58.1195159577
 21
23.8595800942
 31
0.0
 11
-58.1196628069
 21
23.872202441
 31
0.0
 11
-58.1198668469
 21
23.8827038835
 31
0.0
 11
-58.1201266637
 21
23.8909640962
 31
0.0
 11
-58.1204387605
 21
23.896922649
 31
0.0
 11
-58.1207991201
 21
23.9005340854
 31
0.0
 11
-58.1212037249
 21
23.901752949
 31
0.0
  0
SPLINE
  5
7F2
100
AcDbEntity
  8
ASSI
100
AcDbSpline
 62
253
  6
CONTINUOUS
 70
0
 71
3
 72
21
 73
17
 74
15
 42
0.0000001
 43
0.0000001
 44
0.0000000001
 12
-0.0029531651
 22
-0.3714747735
 32
0.0
 13
-0.3714474221
 23
0.0053889829
 33
0.0
 40
0.0
 40
0.0
 40
0.0
 40
0.0
 40
0.0012741837
 40
0.004898078
 40
0.0108922061
 40
0.0192448962
 40
0.0429631331
 40
0.0758905564
 40
0.117682475
 40
0.1679282588
 40
0.2262049475
 40
0.291945732
 40
0.4431657125
 40
0.6159972747
 40
0.8041698634
 40
1.0
 40
1.0
 40
1.0
 40
1.0
 10
-57.7497736208
 20
23.6495955121
 30
0.0
 10
-57.7497748751
 20
23.6494377364
 30
0.0
 10
-57.7506931053
 20
23.6494692941
 30
0.0
 10
-57.7517384081
 20
23.6492275173
 30
0.0
 10
-57.7541281169
 20
23.649185175
 30
0.0
 10
-57.7587383761
 20
23.6489850178
 30
0.0
 10
-57.7668606413
 20
23.6488778229
 30
0.0
 10
-57.7790140529
 20
23.6487554291
 30
0.0
 10
-57.7945019547
 20
23.6487111087
 30
0.0
 10
-57.8131104146
 20
23.6487157514
 30
0.0
 10
-57.834690755
 20
23.6487824682
 30
0.0
 10
-57.8687720013
 20
23.6489569092
 30
0.0
 10
-57.9170385626
 20
23.6493279784
 30
0.0
 10
-57.9804633837
 20
23.6499643969
 30
0.0
 10
-58.0494106727
 20
23.6507894122
 30
0.0
 10
-58.0969568584
 20
23.6514392502
 30
0.0
 10
-58.1212037249
 20
23.6517910252
 30
0.0
 11
-57.7497736208
 21
23.6495955121
 31
0.0
 11
-57.7502222821
 21
23.649444662
 31
0.0
 11
-57.7515614757
 21
23.6493072212
 31
0.0
 11
-57.7537847717
 21
23.6491834643
 31
0.0
 11
-57.7568857402
 21
23.6490736656
 31
0.0
 11
-57.7656949748
 21
23.6488970409
 31
0.0
 11
-57.7779265022
 21
23.6487793464
 31
0.0
 11
-57.7934515282
 21
23.6487214233
 31
0.0
 11
-57.812117159
 21
23.6487236913
 31
0.0
 11
-57.8337660717
 21
23.6487864823
 31
0.0
 11
-57.8581875788
 21
23.6489090721
 31
0.0
 11
-57.9143622005
 21
23.6493279044
 31
0.0
 11
-57.9785636325
 21
23.6499651249
 31
0.0
 11
-58.0484622552
 21
23.6507974914
 31
0.0
 11
-58.1212037249
 21
23.6517910252
 31
0.0
  0
LINE
  5
7F3
100
AcDbEntity
  8
ASSI
100
AcDbLine
 62
7
  6
CONTINUOUS
 10
-65.0775237899
 20
-22.3304155561
 11
-65.0041366068
 21
-22.3341525772
  0
SPLINE
  5
7F4
100
AcDbEntity
  8
ASSI
100
AcDbSpline
 62
253
  6
CONTINUOUS
 70
0
 71
3
 72
21
 73
17
 74
15
 42
0.0000001
 43
0.0000001
 44
0.0000000001
 12
0.3714473148
 22
0.0053893892
 32
0.0
 13
0.0062289285
 23
-0.3714341848
 33
0.0
 40
0.0
 40
0.0
 40
0.0
 40
0.0
 40
0.1958208531
 40
0.3839854258
 40
0.5568108921
 40
0.7080277301
 40
0.7737682865
 40
0.8320457573
 40
0.8822933045
 40
0.9240880115
 40
0.9570193241
 40
0.9807424857
 40
0.9890980064
 40
0.9950952129
 40
0.9987224257
 40
1.0
 40
1.0
 40
1.0
 40
1.0
 10
-58.1212037249
 20
-23.6517910252
 30
0.0
 10
-58.0969580149
 20
-23.6514392403
 30
0.0
 10
-58.0494139837
 20
-23.650789451
 30
0.0
 10
-57.9804696097
 20
-23.6499645586
 30
0.0
 10
-57.9170469405
 20
-23.6493282131
 30
0.0
 10
-57.8687815686
 20
-23.6489571389
 30
0.0
 10
-57.8347006457
 20
-23.6487826687
 30
0.0
 10
-57.8131200403
 20
-23.6487159237
 30
0.0
 10
-57.7945108771
 20
-23.6487112697
 30
0.0
 10
-57.779022069
 20
-23.6487555357
 30
0.0
 10
-57.7668668748
 20
-23.6488779804
 30
0.0
 10
-57.7587438927
 20
-23.6489849664
 30
0.0
 10
-57.7541313262
 20
-23.6491853271
 30
0.0
 10
-57.7517420225
 20
-23.6492272233
 30
0.0
 10
-57.7506928991
 20
-23.649469841
 30
0.0
 10
-57.7497762769
 20
-23.6494372528
 30
0.0
 10
-57.7497736242
 20
-23.6495954311
 30
0.0
 11
-58.1212037249
 21
-23.6517910252
 31
0.0
 11
-58.0484657234
 21
-23.6507975425
 31
0.0
 11
-57.9785700965
 21
-23.6499652852
 31
0.0
 11
-57.9143709461
 21
-23.6493281312
 31
0.0
 11
-57.8581975071
 21
-23.6489092926
 31
0.0
 11
-57.8337760916
 21
-23.6487866809
 31
0.0
 11
-57.8121268943
 21
-23.6487238654
 31
0.0
 11
-57.7934606135
 21
-23.6487215735
 31
0.0
 11
-57.7779345558
 21
-23.6487794689
 31
0.0
 11
-57.7657015865
 21
-23.648897127
 31
0.0
 11
-57.7568905235
 21
-23.6490737038
 31
0.0
 11
-57.7537885027
 21
-23.6491834751
 31
0.0
 11
-57.7515640603
 21
-23.6493072028
 31
0.0
 11
-57.7502236247
 21
-23.6494446129
 31
0.0
 11
-57.7497736242
 21
-23.6495954311
 31
0.0
  0
SPLINE
  5
7F5
100
AcDbEntity
  8
ASSI
100
AcDbSpline
 62
253
  6
CONTINUOUS
 70
0
 71
3
 72
18
 73
14
 74
12
 42
0.0000001
 43
0.0000001
 44
0.0000000001
 12
0.0034904191
 22
-0.2000268907
 32
0.0
 13
-0.2000268721
 23
-0.003491482
 33
0.0
 40
0.0
 40
0.0
 40
0.0
 40
0.0
 40
0.1945885314
 40
0.3824831333
 40
0.5553439148
 40
0.7067332193
 40
0.8309633457
 40
0.8814416784
 40
0.9234433349
 40
0.9564910517
 40
0.9803510941
 40
0.9948644166
 40
1.0
 40
1.0
 40
1.0
 40
1.0
 10
-62.9954104035
 20
-24.2868630041
 30
0.0
 10
-62.995184005
 20
-24.299837317
 30
0.0
 10
-62.9947827252
 20
-24.3253405743
 30
0.0
 10
-62.9943275974
 20
-24.3623706771
 30
0.0
 10
-62.994041978
 20
-24.3965246794
 30
0.0
 10
-62.9939387767
 20
-24.4264248554
 30
0.0
 10
-62.9939924586
 20
-24.4481882747
 30
0.0
 10
-62.9941645126
 20
-24.4626117004
 30
0.0
 10
-62.994293457
 20
-24.471040438
 30
0.0
 10
-62.9945559935
 20
-24.4774783102
 30
0.0
 10
-62.9946278737
 20
-24.4825927028
 30
0.0
 10
-62.9951442701
 20
-24.4848469772
 30
0.0
 10
-62.9950679853
 20
-24.4868265662
 30
0.0
 10
-62.9954104035
 20
-24.4868325431
 30
0.0
 11
-62.9954104035
 21
-24.2868630041
 31
0.0
 11
-62.9947984322
 21
-24.3257870579
 31
0.0
 11
-62.9943409018
 21
-24.363373968
 31
0.0
 11
-62.9940601912
 21
-24.3979548971
 31
0.0
 11
-62.9939653504
 21
-24.4282412904
 31
0.0
 11
-62.9940601912
 21
-24.4530942583
 31
0.0
 11
-62.9941776701
 21
-24.463192136
 31
0.0
 11
-62.9943409018
 21
-24.4715932902
 31
0.0
 11
-62.9945487549
 21
-24.4782014605
 31
0.0
 11
-62.9947984322
 21
-24.4829683028
 31
0.0
 11
-62.9950867197
 21
-24.4858574521
 31
0.0
 11
-62.9954104035
 21
-24.4868325431
 31
0.0
  0
SPLINE
  5
7F6
100
AcDbEntity
  8
ASSI
100
AcDbSpline
 62
253
  6
CONTINUOUS
 70
0
 71
3
 72
18
 73
14
 74
12
 42
0.0000001
 43
0.0000001
 44
0.0000000001
 12
0.0991493105
 22
0.1717839679
 32
0.0
 13
-0.1717708882
 23
0.0991719686
 33
0.0
 40
0.0
 40
0.0
 40
0.0
 40
0.0
 40
0.1950655215
 40
0.3831706145
 40
0.5560505005
 40
0.7073358561
 40
0.8314028107
 40
0.8817940763
 40
0.9237132052
 40
0.9566878947
 40
0.9804856123
 40
0.9949442541
 40
1.0
 40
1.0
 40
1.0
 40
1.0
 10
-62.9712830239
 20
-23.8010362971
 30
0.0
 10
-62.9648361532
 20
-23.7898665874
 30
0.0
 10
-62.9522047267
 20
-23.767906883
 30
0.0
 10
-62.9339697569
 20
-23.7359857366
 30
0.0
 10
-62.91726872
 20
-23.7065184152
 30
0.0
 10
-62.9027711231
 20
-23.6806802175
 30
0.0
 10
-62.8923180633
 20
-23.6618302818
 30
0.0
 10
-62.8855015814
 20
-23.6492846699
 30
0.0
 10
-62.8815304033
 20
-23.6419465916
 30
0.0
 10
-62.8786495783
 20
-23.6362675617
 30
0.0
 10
-62.876191254
 20
-23.6318305825
 30
0.0
 10
-62.8755845535
 20
-23.62964792
 30
0.0
 10
-62.8744840285
 20
-23.6279983458
 30
0.0
 10
-62.8747735052
 20
-23.6278312164
 30
0.0
 11
-62.9712830239
 21
-23.8010362971
 31
0.0
 11
-62.951992334
 21
-23.7674984036
 31
0.0
 11
-62.9334892589
 21
-23.7351003272
 31
0.0
 11
-62.9165884874
 21
-23.7052650144
 31
0.0
 11
-62.9019118936
 21
-23.6790927081
 31
0.0
 11
-62.8900056216
 21
-23.6575569048
 31
0.0
 11
-62.8852293387
 21
-23.6487772016
 31
0.0
 11
-62.8813057099
 21
-23.6414468218
 31
0.0
 11
-62.8782797756
 21
-23.6356485777
 31
0.0
 11
-62.8761724817
 21
-23.6314249574
 31
0.0
 11
-62.8749987508
 21
-23.6288083679
 31
0.0
 11
-62.8747735052
 21
-23.6278312164
 31
0.0
  0
LINE
  5
7F7
100
AcDbEntity
  8
ASSI
100
AcDbLine
 62
7
  6
CONTINUOUS
 10
-63.7497735052
 20
24.5
 11
-63.7497735052
 21
24.300030461
  0
SPLINE
  5
7F8
100
AcDbEntity
  8
ASSI
100
AcDbSpline
 62
253
  6
CONTINUOUS
 70
0
 71
3
 72
18
 73
14
 74
12
 42
0.0000001
 43
0.0000001
 44
0.0000000001
 12
0.0034904189
 22
0.2000268907
 32
0.0
 13
-0.2000268721
 23
0.003491482
 33
0.0
 40
0.0
 40
0.0
 40
0.0
 40
0.0
 40
0.1945885329
 40
0.3824831386
 40
0.5553439222
 40
0.7067332262
 40
0.8309633503
 40
0.8814416816
 40
0.9234433374
 40
0.9564910536
 40
0.9803510952
 40
0.9948644169
 40
1.0
 40
1.0
 40
1.0
 40
1.0
 10
-62.9954104035
 20
24.286863004
 30
0.0
 10
-62.995184005
 20
24.2998373171
 30
0.0
 10
-62.9947827252
 20
24.3253405748
 30
0.0
 10
-62.9943275975
 20
24.362370678
 30
0.0
 10
-62.9940419781
 20
24.3965246807
 30
0.0
 10
-62.9939387768
 20
24.4264248567
 30
0.0
 10
-62.9939924586
 20
24.4481882757
 30
0.0
 10
-62.9941645127
 20
24.462611701
 30
0.0
 10
-62.9942934571
 20
24.4710404385
 30
0.0
 10
-62.9945559935
 20
24.4774783106
 30
0.0
 10
-62.9946278738
 20
24.482592703
 30
0.0
 10
-62.9951442701
 20
24.4848469774
 30
0.0
 10
-62.9950679853
 20
24.4868265661
 30
0.0
 10
-62.9954104035
 20
24.4868325431
 30
0.0
 11
-62.9954104035
 21
24.286863004
 31
0.0
 11
-62.9947984322
 21
24.3257870582
 31
0.0
 11
-62.9943409018
 21
24.363373969
 31
0.0
 11
-62.9940601912
 21
24.3979548986
 31
0.0
 11
-62.9939653504
 21
24.4282412918
 31
0.0
 11
-62.9940601912
 21
24.4530942593
 31
0.0
 11
-62.9941776702
 21
24.4631921367
 31
0.0
 11
-62.9943409018
 21
24.4715932907
 31
0.0
 11
-62.994548755
 21
24.4782014608
 31
0.0
 11
-62.9947984322
 21
24.482968303
 31
0.0
 11
-62.9950867197
 21
24.4858574521
 31
0.0
 11
-62.9954104035
 21
24.4868325431
 31
0.0
  0
SPLINE
  5
7F9
100
AcDbEntity
  8
RACCORDO
100
AcDbSpline
 62
7
  6
CONTINUOUS
 70
0
 71
3
 72
11
 73
7
 74
5
 42
0.0000001
 43
0.0000001
 44
0.0000000001
 12
0.1268279843
 22
0.2598437631
 32
0.0
 13
-0.2891399809
 23
0.0014799402
 33
0.0
 40
0.0
 40
0.0
 40
0.0
 40
0.0
 40
0.2251280482
 40
0.4477100654
 40
0.700076933
 40
1.0
 40
1.0
 40
1.0
 40
1.0
 10
-52.3510951999
 20
-21.6551770363
 30
0.0
 10
-52.3415776877
 20
-21.6356776633
 30
0.0
 10
-52.3286457644
 20
-21.5930904792
 30
0.0
 10
-52.3423366365
 20
-21.523430608
 30
0.0
 10
-52.3997887598
 20
-21.4686782655
 30
0.0
 10
-52.4545528584
 20
-21.4577572407
 30
0.0
 10
-52.4834594417
 20
-21.4576092846
 30
0.0
 11
-52.3510951999
 21
-21.6551770363
 31
0.0
 11
-52.3340559267
 21
-21.592352356
 31
0.0
 11
-52.3474483046
 21
-21.5294029911
 31
0.0
 11
-52.3991473446
 21
-21.4779066321
 31
0.0
 11
-52.4834594417
 21
-21.4576092846
 31
0.0
  0
SPLINE
  5
7FA
100
AcDbEntity
  8
ASSI
100
AcDbSpline
 62
253
  6
CONTINUOUS
 70
0
 71
3
 72
18
 73
14
 74
12
 42
0.0000001
 43
0.0000001
 44
0.0000000001
 12
0.0991495294
 22
-0.1717838506
 32
0.0
 13
-0.171770895
 23
-0.0991719725
 33
0.0
 40
0.0
 40
0.0
 40
0.0
 40
0.0
 40
0.1950655165
 40
0.383170609
 40
0.5560504914
 40
0.7073358397
 40
0.8314027862
 40
0.8817940482
 40
0.9237131757
 40
0.9566878654
 40
0.9804855845
 40
0.9949442316
 40
1.0
 40
1.0
 40
1.0
 40
1.0
 10
-62.9712830239
 20
23.8010362971
 30
0.0
 10
-62.9648361391
 20
23.7898665953
 30
0.0
 10
-62.9522046886
 20
23.767906904
 30
0.0
 10
-62.9339696936
 20
23.7359857709
 30
0.0
 10
-62.9172686429
 20
23.7065184567
 30
0.0
 10
-62.9027710435
 20
23.6806802604
 30
0.0
 10
-62.8923179928
 20
23.6618303204
 30
0.0
 10
-62.8855015218
 20
23.6492847025
 30
0.0
 10
-62.8815303552
 20
23.6419466188
 30
0.0
 10
-62.8786495347
 20
23.6362675841
 30
0.0
 10
-62.8761912333
 20
23.6318305973
 30
0.0
 10
-62.8755845207
 20
23.6296479309
 30
0.0
 10
-62.8744840271
 20
23.6279983466
 30
0.0
 10
-62.874773505
 20
23.6278312164
 30
0.0
 11
-62.9712830239
 21
23.8010362971
 31
0.0
 11
-62.9519922973
 21
23.7674984241
 31
0.0
 11
-62.9334891966
 21
23.7351003607
 31
0.0
 11
-62.9165884115
 21
23.7052650549
 31
0.0
 11
-62.9019118166
 21
23.6790927495
 31
0.0
 11
-62.8900055552
 21
23.6575569411
 31
0.0
 11
-62.8852292807
 21
23.6487772336
 31
0.0
 11
-62.8813056616
 21
23.6414468486
 31
0.0
 11
-62.8782797378
 21
23.6356485987
 31
0.0
 11
-62.8761724554
 21
23.6314249721
 31
0.0
 11
-62.874998737
 21
23.6288083758
 31
0.0
 11
-62.874773505
 21
23.6278312164
 31
0.0
  0
SPLINE
  5
7FB
100
AcDbEntity
  8
ASSI
100
AcDbSpline
 62
253
  6
CONTINUOUS
 70
0
 71
3
 72
18
 73
14
 74
12
 42
0.0000001
 43
0.0000001
 44
0.0000000001
 12
-0.0034904191
 22
0.2000268907
 32
0.0
 13
0.2000268721
 23
0.003491482
 33
0.0
 40
0.0
 40
0.0
 40
0.0
 40
0.0
 40
0.1945885314
 40
0.3824831333
 40
0.5553439148
 40
0.7067332193
 40
0.8309633457
 40
0.8814416784
 40
0.9234433349
 40
0.9564910517
 40
0.9803510941
 40
0.9948644166
 40
1.0
 40
1.0
 40
1.0
 40
1.0
 10
-66.0041366068
 20
24.2606804067
 30
0.0
 10
-66.0043630053
 20
24.2736547196
 30
0.0
 10
-66.0047642851
 20
24.299157977
 30
0.0
 10
-66.0052194129
 20
24.3361880797
 30
0.0
 10
-66.0055050323
 20
24.370342082
 30
0.0
 10
-66.0056082336
 20
24.400242258
 30
0.0
 10
-66.0055545518
 20
24.4220056773
 30
0.0
 10
-66.0053824977
 20
24.436429103
 30
0.0
 10
-66.0052535533
 20
24.4448578406
 30
0.0
 10
-66.0049910168
 20
24.4512957128
 30
0.0
 10
-66.0049191366
 20
24.4564101054
 30
0.0
 10
-66.0044027402
 20
24.4586643799
 30
0.0
 10
-66.004479025
 20
24.4606439688
 30
0.0
 10
-66.0041366068
 20
24.4606499457
 30
0.0
 11
-66.0041366068
 21
24.2606804067
 31
0.0
 11
-66.0047485781
 21
24.2996044605
 31
0.0
 11
-66.0052061085
 21
24.3371913706
 31
0.0
 11
-66.0054868191
 21
24.3717722997
 31
0.0
 11
-66.0055816599
 21
24.402058693
 31
0.0
 11
-66.0054868191
 21
24.4269116609
 31
0.0
 11
-66.0053693402
 21
24.4370095386
 31
0.0
 11
-66.0052061085
 21
24.4454106928
 31
0.0
 11
-66.0049982554
 21
24.4520188631
 31
0.0
 11
-66.0047485781
 21
24.4567857054
 31
0.0
 11
-66.0044602906
 21
24.4596748547
 31
0.0
 11
-66.0041366068
 21
24.4606499457
 31
0.0
  0
SPLINE
  5
7FC
100
AcDbEntity
  8
RACCORDO
100
AcDbSpline
 62
7
  6
CONTINUOUS
 70
0
 71
3
 72
11
 73
7
 74
5
 42
0.0000001
 43
0.0000001
 44
0.0000000001
 12
0.2891394436
 22
0.0014811324
 32
0.0
 13
-0.1268307097
 23
0.2598418416
 33
0.0
 40
0.0
 40
0.0
 40
0.0
 40
0.0
 40
0.2998763891
 40
0.5523034723
 40
0.7748772366
 40
1.0
 40
1.0
 40
1.0
 40
1.0
 10
-52.4834594417
 20
21.4576092846
 30
0.0
 10
-52.4545574109
 20
21.4577573368
 30
0.0
 10
-52.3997937752
 20
21.4686775605
 30
0.0
 10
-52.3423350875
 20
21.5234267445
 30
0.0
 10
-52.3286450497
 20
21.5930917181
 30
0.0
 10
-52.3415773638
 20
21.6356771644
 30
0.0
 10
-52.3510948571
 20
21.6551759355
 30
0.0
 11
-52.4834594417
 21
21.4576092846
 31
0.0
 11
-52.3991599173
 21
21.4779005119
 31
0.0
 11
-52.347445537
 21
21.5294059512
 31
0.0
 11
-52.3340549454
 21
21.5923531355
 31
0.0
 11
-52.3510948571
 21
21.6551759355
 31
0.0
  0
SPLINE
  5
7FD
100
AcDbEntity
  8
ASSI
100
AcDbSpline
 62
7
  6
CONTINUOUS
 70
0
 71
3
 72
13
 73
9
 74
7
 42
0.0000001
 43
0.0000001
 44
0.0000000001
 12
-0.236060454
 22
-0.1075404758
 32
0.0
 13
-0.2246488791
 23
0.1297010908
 33
0.0
 40
0.0
 40
0.0
 40
0.0
 40
0.0
 40
0.3376350271
 40
0.6419204642
 40
0.7700441436
 40
0.875061718
 40
0.9520696691
 40
1.0
 40
1.0
 40
1.0
 40
1.0
 10
-65.0041366068
 20
23.2097560788
 30
0.0
 10
-65.0307040327
 20
23.1976529349
 30
0.0
 10
-65.0811797203
 20
23.174602179
 30
0.0
 10
-65.1421743201
 20
23.1477591479
 30
0.0
 10
-65.1853681361
 20
23.1307783849
 30
0.0
 10
-65.2109614063
 20
23.1222302901
 30
0.0
 10
-65.230046678
 20
23.117818407
 30
0.0
 10
-65.24163641
 20
23.1179517767
 30
0.0
 10
-65.2452255751
 20
23.1200239821
 30
0.0
 11
-65.0041366068
 21
23.2097560788
 31
0.0
 11
-65.0839045291
 21
23.1735910893
 31
0.0
 11
-65.1563768392
 21
23.142316927
 31
0.0
 11
-65.1873764288
 21
23.1303324359
 31
0.0
 11
-65.213301588
 21
23.1219657681
 31
0.0
 11
-65.2329236398
 21
23.1182218562
 31
0.0
 11
-65.2452255751
 21
23.1200239821
 31
0.0
  0
SPLINE
  5
7FE
100
AcDbEntity
  8
ASSI
100
AcDbSpline
 62
253
  6
CONTINUOUS
 70
0
 71
3
 72
18
 73
14
 74
12
 42
0.0000001
 43
0.0000001
 44
0.0000000001
 12
-0.0991493105
 22
-0.1717839679
 32
0.0
 13
0.1717708882
 23
-0.0991719686
 33
0.0
 40
0.0
 40
0.0
 40
0.0
 40
0.0
 40
0.1950655215
 40
0.3831706145
 40
0.5560505005
 40
0.7073358561
 40
0.8314028107
 40
0.8817940763
 40
0.9237132052
 40
0.9566878947
 40
0.9804856123
 40
0.9949442541
 40
1.0
 40
1.0
 40
1.0
 40
1.0
 10
-66.0282639864
 20
23.8010362971
 30
0.0
 10
-66.0347108571
 20
23.7898665873
 30
0.0
 10
-66.0473422836
 20
23.767906883
 30
0.0
 10
-66.0655772534
 20
23.7359857366
 30
0.0
 10
-66.0822782903
 20
23.7065184152
 30
0.0
 10
-66.0967758873
 20
23.6806802175
 30
0.0
 10
-66.107228947
 20
23.6618302818
 30
0.0
 10
-66.1140454289
 20
23.6492846699
 30
0.0
 10
-66.118016607
 20
23.6419465916
 30
0.0
 10
-66.120897432
 20
23.6362675617
 30
0.0
 10
-66.1233557563
 20
23.6318305825
 30
0.0
 10
-66.1239624568
 20
23.62964792
 30
0.0
 10
-66.1250629818
 20
23.6279983458
 30
0.0
 10
-66.1247735052
 20
23.6278312163
 30
0.0
 11
-66.0282639864
 21
23.8010362971
 31
0.0
 11
-66.0475546763
 21
23.7674984036
 31
0.0
 11
-66.0660577514
 21
23.7351003272
 31
0.0
 11
-66.0829585229
 21
23.7052650144
 31
0.0
 11
-66.0976351167
 21
23.6790927081
 31
0.0
 11
-66.1095413887
 21
23.6575569048
 31
0.0
 11
-66.1143176716
 21
23.6487772016
 31
0.0
 11
-66.1182413004
 21
23.6414468218
 31
0.0
 11
-66.1212672347
 21
23.6356485777
 31
0.0
 11
-66.1233745286
 21
23.6314249574
 31
0.0
 11
-66.1245482595
 21
23.6288083679
 31
0.0
 11
-66.1247735052
 21
23.6278312163
 31
0.0
  0
SPLINE
  5
7FF
100
AcDbEntity
  8
RACCORDO
100
AcDbSpline
 62
253
  6
CONTINUOUS
 70
0
 71
3
 72
18
 73
14
 74
12
 42
0.0000001
 43
0.0000001
 44
0.0000000001
 12
0.0017455417
 22
0.200080209
 32
0.0
 13
-0.2000802044
 23
0.0017460747
 33
0.0
 40
0.0
 40
0.0
 40
0.0
 40
0.0
 40
0.1945803684
 40
0.3824716061
 40
0.5553324365
 40
0.7067239399
 40
0.8309572273
 40
0.8814371812
 40
0.9234403221
 40
0.956489279
 40
0.9803502635
 40
0.9948641878
 40
1.0
 40
1.0
 40
1.0
 40
1.0
 10
-52.4462830239
 20
-21.18553092
 30
0.0
 10
-52.4461698078
 20
-21.1725536931
 30
0.0
 10
-52.4459910186
 20
-21.1470447881
 30
0.0
 10
-52.4458589708
 20
-21.110007247
 30
0.0
 10
-52.4458713671
 20
-21.0758469232
 30
0.0
 10
-52.4460290945
 20
-21.0459420686
 30
0.0
 10
-52.446272726
 20
-21.0241761648
 30
0.0
 10
-52.4465706916
 20
-21.0097521751
 30
0.0
 10
-52.446773224
 20
-21.0013233082
 30
0.0
 10
-52.4470919926
 20
-20.9948867523
 30
0.0
 10
-52.447208531
 20
-20.9897722054
 30
0.0
 10
-52.4477446818
 20
-20.987522086
 30
0.0
 10
-52.4476856733
 20
-20.9855415246
 30
0.0
 10
-52.4480281981
 20
-20.9855385354
 30
0.0
 11
-52.4462830239
 21
-21.18553092
 31
0.0
 11
-52.4460106278
 21
-21.1465987106
 31
0.0
 11
-52.4458810348
 21
-21.1090041853
 31
0.0
 11
-52.4459020654
 21
-21.0744168444
 31
0.0
 11
-52.4460715255
 21
-21.044125722
 31
0.0
 11
-52.446383287
 21
-21.0192701091
 31
0.0
 11
-52.4465889175
 21
-21.0091717784
 31
0.0
 11
-52.4468255013
 21
-21.000770792
 31
0.0
 11
-52.4470910665
 21
-20.9941634329
 31
0.0
 11
-52.4473823928
 21
-20.989398037
 31
0.0
 11
-52.4476959475
 21
-20.9865109546
 31
0.0
 11
-52.4480281981
 21
-20.9855385354
 31
0.0
  0
SPLINE
  5
800
100
AcDbEntity
  8
RACCORDO
100
AcDbSpline
 62
253
  6
CONTINUOUS
 70
0
 71
3
 72
18
 73
14
 74
12
 42
0.0000001
 43
0.0000001
 44
0.0000000001
 12
0.1997322047
 22
0.0108028106
 32
0.0
 13
-0.0017473008
 23
0.2000165024
 33
0.0
 40
0.0
 40
0.0
 40
0.0
 40
0.0
 40
0.0049553997
 40
0.0194470671
 40
0.0433626642
 40
0.0764798816
 40
0.1184546421
 40
0.168920778
 40
0.2932756311
 40
0.4447773108
 40
0.6175363245
 40
0.8051047855
 40
1.0
 40
1.0
 40
1.0
 40
1.0
 10
-52.4480269579
 20
-20.9855384478
 30
0.0
 10
-52.4476970403
 20
-20.9855206037
 30
0.0
 10
-52.4481149449
 20
-20.9835061069
 30
0.0
 10
-52.4474947001
 20
-20.9813027908
 30
0.0
 10
-52.4476638538
 20
-20.9761494763
 30
0.0
 10
-52.4474442239
 20
-20.9697167508
 30
0.0
 10
-52.4474133445
 20
-20.9612817342
 30
0.0
 10
-52.4473118361
 20
-20.9468565478
 30
0.0
 10
-52.4472951519
 20
-20.9250805432
 30
0.0
 10
-52.447342857
 20
-20.8951767982
 30
0.0
 10
-52.4474876301
 20
-20.8610485284
 30
0.0
 10
-52.4477141029
 20
-20.8240306624
 30
0.0
 10
-52.4479147447
 20
-20.7985305992
 30
0.0
 10
-52.4480282582
 20
-20.7855365128
 30
0.0
 11
-52.4480269579
 21
-20.9855384478
 31
0.0
 11
-52.4478648207
 21
-20.9845605991
 31
0.0
 11
-52.4477206398
 21
-20.9816655039
 31
0.0
 11
-52.4475961285
 21
-20.9768834279
 31
0.0
 11
-52.4474926801
 21
-20.970259993
 31
0.0
 11
-52.4474111962
 21
-20.9618644233
 31
0.0
 11
-52.4473525087
 21
-20.9517701487
 31
0.0
 11
-52.4473053672
 21
-20.9268962216
 31
0.0
 11
-52.4473530912
 21
-20.8965922668
 31
0.0
 11
-52.4474937983
 21
-20.8620365811
 31
0.0
 11
-52.44772185
 21
-20.8245190552
 31
0.0
 11
-52.4480282582
 21
-20.7855365128
 31
0.0
  0
LINE
  5
801
100
AcDbEntity
  8
ASSI
100
AcDbLine
 62
253
  6
CONTINUOUS
 10
-72.4049475255
 20
-20.8701690322
 11
-72.0545899708
 21
-20.8772674171
  0
LINE
  5
802
100
AcDbEntity
  8
ASSI
100
AcDbLine
 62
7
  6
CONTINUOUS
 10
-65.0041366068
 20
22.3341525772
 11
-65.0775237899
 21
22.3304155561
  0
SPLINE
  5
803
100
AcDbEntity
  8
RACCORDO
100
AcDbSpline
 62
253
  6
CONTINUOUS
 70
0
 71
3
 72
18
 73
14
 74
12
 42
0.0000001
 43
0.0000001
 44
0.0000000001
 12
0.2928752066
 22
0.0051121557
 32
0.0
 13
-0.0029943967
 23
0.2929045141
 33
0.0
 40
0.0
 40
0.0
 40
0.0
 40
0.0
 40
0.0043029655
 40
0.0167129437
 40
0.0372630548
 40
0.0659091044
 40
0.1025980246
 40
0.1472702109
 40
0.2600998298
 40
0.4033098797
 40
0.575714323
 40
0.7754032742
 40
1.0
 40
1.0
 40
1.0
 40
1.0
 10
-24.2323210987
 20
-19.121932718
 30
0.0
 10
-24.2319010214
 20
-19.1219253855
 30
0.0
 10
-24.2321404938
 20
-19.1194169542
 30
0.0
 10
-24.2314632704
 20
-19.1166255985
 30
0.0
 10
-24.231486911
 20
-19.1101402682
 30
0.0
 10
-24.2311878163
 20
-19.1019647085
 30
0.0
 10
-24.2310788492
 20
-19.0911443466
 30
0.0
 10
-24.2309030534
 20
-19.0722221136
 30
0.0
 10
-24.2308605024
 20
-19.0428358191
 30
0.0
 10
-24.2309604825
 20
-19.0010132348
 30
0.0
 10
-24.2312453741
 20
-18.9506960096
 30
0.0
 10
-24.2317010108
 20
-18.892438259
 30
0.0
 10
-24.2320969215
 20
-18.8510125732
 30
0.0
 10
-24.2323210987
 20
-18.8290841082
 30
0.0
 11
-24.2323210987
 21
-19.121932718
 31
0.0
 11
-24.2319883238
 21
-19.1207170169
 31
0.0
 11
-24.2316979227
 21
-19.1170935066
 31
0.0
 11
-24.2314506159
 21
-19.111079054
 31
0.0
 11
-24.2312471241
 21
-19.1026905262
 31
0.0
 11
-24.2310881678
 21
-19.0919447899
 31
0.0
 11
-24.2309744318
 21
-19.0788599155
 31
0.0
 11
-24.2308834395
 21
-19.0458100091
 31
0.0
 11
-24.2309744318
 21
-19.0038610458
 31
0.0
 11
-24.2312471241
 21
-18.9533611036
 31
0.0
 11
-24.2316979227
 21
-18.8948699891
 31
0.0
 11
-24.2323210987
 21
-18.8290841082
 31
0.0
  0
SPLINE
  5
804
100
AcDbEntity
  8
RACCORDO
100
AcDbSpline
 62
253
  6
CONTINUOUS
 70
0
 71
3
 72
18
 73
14
 74
12
 42
0.0000001
 43
0.0000001
 44
0.0000000001
 12
0.0029943967
 22
0.2929045141
 32
0.0
 13
-0.2928752066
 23
0.0051121557
 33
0.0
 40
0.0
 40
0.0
 40
0.0
 40
0.0
 40
0.2245967258
 40
0.424285677
 40
0.5966901203
 40
0.7399001702
 40
0.8527297891
 40
0.8974019754
 40
0.9340908956
 40
0.9627369452
 40
0.9832870563
 40
0.9956970345
 40
1.0
 40
1.0
 40
1.0
 40
1.0
 10
-24.2323210987
 20
18.8290841082
 30
0.0
 10
-24.2320969215
 20
18.8510125732
 30
0.0
 10
-24.2317010108
 20
18.892438259
 30
0.0
 10
-24.2312453741
 20
18.9506960096
 30
0.0
 10
-24.2309604825
 20
19.0010132348
 30
0.0
 10
-24.2308605024
 20
19.0428358191
 30
0.0
 10
-24.2309030534
 20
19.0722221136
 30
0.0
 10
-24.2310788492
 20
19.0911443466
 30
0.0
 10
-24.2311878163
 20
19.1019647085
 30
0.0
 10
-24.231486911
 20
19.1101402682
 30
0.0
 10
-24.2314632704
 20
19.1166255985
 30
0.0
 10
-24.2321404938
 20
19.1194169542
 30
0.0
 10
-24.2319010214
 20
19.1219253855
 30
0.0
 10
-24.2323210987
 20
19.121932718
 30
0.0
 11
-24.2323210987
 21
18.8290841082
 31
0.0
 11
-24.2316979227
 21
18.8948699891
 31
0.0
 11
-24.2312471241
 21
18.9533611036
 31
0.0
 11
-24.2309744318
 21
19.0038610458
 31
0.0
 11
-24.2308834395
 21
19.0458100091
 31
0.0
 11
-24.2309744318
 21
19.0788599154
 31
0.0
 11
-24.2310881678
 21
19.0919447899
 31
0.0
 11
-24.2312471241
 21
19.1026905262
 31
0.0
 11
-24.2314506159
 21
19.111079054
 31
0.0
 11
-24.2316979227
 21
19.1170935066
 31
0.0
 11
-24.2319883238
 21
19.1207170169
 31
0.0
 11
-24.2323210987
 21
19.121932718
 31
0.0
  0
SPLINE
  5
805
100
AcDbEntity
  8
RACCORDO
100
AcDbSpline
 62
253
  6
CONTINUOUS
 70
0
 71
3
 72
12
 73
8
 74
6
 42
0.0000001
 43
0.0000001
 44
0.0000000001
 12
1.1820381125
 22
-0.0145894137
 32
0.0
 13
0.3362308124
 23
-1.1333030448
 33
0.0
 40
0.0
 40
0.0
 40
0.0
 40
0.0
 40
0.2809277763
 40
0.5460236683
 40
0.7853381522
 40
0.8953084957
 40
1.0
 40
1.0
 40
1.0
 40
1.0
 10
-24.2323210987
 20
18.8108263007
 30
0.0
 10
-24.1216319859
 20
18.8094601102
 30
0.0
 10
-23.9057956956
 20
18.78160094
 30
0.0
 10
-23.6148300737
 20
18.6670935324
 30
0.0
 10
-23.4206692768
 20
18.5140737574
 30
0.0
 10
-23.3165888344
 20
18.3672765444
 30
0.0
 10
-23.2829264019
 20
18.2887749515
 30
0.0
 10
-23.2711928987
 20
18.2492258846
 30
0.0
 11
-24.2323210987
 21
18.8108263007
 31
0.0
 11
-23.9031206398
 21
18.7670933226
 31
0.0
 11
-23.6128670988
 21
18.6489483966
 31
0.0
 11
-23.3940193537
 21
18.4696768335
 31
0.0
 11
-23.31946011
 21
18.3631842559
 31
0.0
 11
-23.2711928987
 21
18.2492258846
 31
0.0
  0
SPLINE
  5
806
100
AcDbEntity
  8
RACCORDO
100
AcDbSpline
 62
253
  6
CONTINUOUS
 70
0
 71
3
 72
9
 73
5
 74
3
 42
0.0000001
 43
0.0000001
 44
0.0000000001
 12
0.036732779
 22
-0.1238118838
 32
0.0
 13
0.004753634
 23
-0.1290584464
 33
0.0
 40
0.0
 40
0.0
 40
0.0
 40
0.0
 40
0.2527572658
 40
1.0
 40
1.0
 40
1.0
 40
1.0
 10
-23.2711928987
 20
18.2492258846
 30
0.0
 10
-23.2680980731
 20
18.2387944335
 30
0.0
 10
-23.2571095958
 20
18.1971636157
 30
0.0
 10
-23.2512926607
 20
18.1541518101
 30
0.0
 10
-23.2501086212
 20
18.1220058147
 30
0.0
 11
-23.2711928987
 21
18.2492258846
 31
0.0
 11
-23.2628736285
 21
18.217661224
 31
0.0
 11
-23.2501086212
 21
18.1220058147
 31
0.0
  0
SPLINE
  5
807
100
AcDbEntity
  8
RACCORDO
100
AcDbSpline
 62
253
  6
CONTINUOUS
 70
0
 71
3
 72
13
 73
9
 74
7
 42
0.0000001
 43
0.0000001
 44
0.0000000001
 12
1.3288446604
 22
-0.0164013912
 32
0.0
 13
0.0
 23
-1.3289458744
 33
0.0
 40
0.0
 40
0.0
 40
0.0
 40
0.0
 40
0.2871807683
 40
0.5533965419
 40
0.6752296459
 40
0.7890367246
 40
0.8963987342
 40
1.0
 40
1.0
 40
1.0
 40
1.0
 10
-24.2323210987
 20
18.8290841082
 30
0.0
 10
-24.1051148885
 20
18.8275140535
 30
0.0
 10
-23.8591497175
 20
18.791773388
 30
0.0
 10
-23.5824655168
 20
18.6636206357
 30
0.0
 10
-23.4131456783
 20
18.5174908766
 30
0.0
 10
-23.3205611964
 20
18.395351799
 30
0.0
 10
-23.2629635266
 20
18.2618919457
 30
0.0
 10
-23.2497735052
 20
18.1679785144
 30
0.0
 10
-23.2497735052
 20
18.1220850228
 30
0.0
 11
-24.2323210987
 21
18.8290841082
 31
0.0
 11
-23.8550030887
 21
18.7717597317
 31
0.0
 11
-23.5365210893
 21
18.6177013002
 31
0.0
 11
-23.4146874161
 21
18.5110651198
 31
0.0
 11
-23.3242428712
 21
18.3898448048
 31
0.0
 11
-23.2685704246
 21
18.258476331
 31
0.0
 11
-23.2497735052
 21
18.1220850228
 31
0.0
  0
SPLINE
  5
808
100
AcDbEntity
  8
RACCORDO
100
AcDbSpline
 62
253
  6
CONTINUOUS
 70
0
 71
3
 72
12
 73
8
 74
6
 42
0.0000001
 43
0.0000001
 44
0.0000000001
 12
-0.3362308124
 22
-1.1333030449
 32
0.0
 13
-1.1820381127
 23
-0.0145894115
 33
0.0
 40
0.0
 40
0.0
 40
0.0
 40
0.0
 40
0.1046915043
 40
0.2146618478
 40
0.4539763317
 40
0.7190722238
 40
1.0
 40
1.0
 40
1.0
 40
1.0
 10
-23.2711928987
 20
-18.2492258846
 30
0.0
 10
-23.2829264019
 20
-18.2887749515
 30
0.0
 10
-23.3165888344
 20
-18.3672765444
 30
0.0
 10
-23.4206692768
 20
-18.5140737575
 30
0.0
 10
-23.6148300737
 20
-18.6670935325
 30
0.0
 10
-23.9057956955
 20
-18.7816009404
 30
0.0
 10
-24.1216319859
 20
-18.8094601104
 30
0.0
 10
-24.2323210987
 20
-18.8108263007
 30
0.0
 11
-23.2711928987
 21
-18.2492258846
 31
0.0
 11
-23.31946011
 21
-18.363184256
 31
0.0
 11
-23.3940193537
 21
-18.4696768336
 31
0.0
 11
-23.6128670988
 21
-18.6489483968
 31
0.0
 11
-23.9031206398
 21
-18.767093323
 31
0.0
 11
-24.2323210987
 21
-18.8108263007
 31
0.0
  0
SPLINE
  5
809
100
AcDbEntity
  8
RACCORDO
100
AcDbSpline
 62
253
  6
CONTINUOUS
 70
0
 71
3
 72
13
 73
9
 74
7
 42
0.0000001
 43
0.0000001
 44
0.0000000001
 12
-0.1537836051
 22
-1.2595553481
 32
0.0
 13
-1.268811973
 23
-0.015660432
 33
0.0
 40
0.0
 40
0.0
 40
0.0
 40
0.0
 40
0.1037157785
 40
0.2119730846
 40
0.326911093
 40
0.4495104117
 40
0.7153742512
 40
1.0
 40
1.0
 40
1.0
 40
1.0
 10
-23.2534777063
 20
-18.1827317317
 30
0.0
 10
-23.2587943017
 20
-18.2262769862
 30
0.0
 10
-23.2814189655
 20
-18.3142045162
 30
0.0
 10
-23.3479497128
 20
-18.4367605256
 30
0.0
 10
-23.4445142293
 20
-18.5479917164
 30
0.0
 10
-23.6129235417
 20
-18.6800176306
 30
0.0
 10
-23.8784250336
 20
-18.7952675493
 30
0.0
 10
-24.1119422461
 20
-18.8275983208
 30
0.0
 10
-24.2323210987
 20
-18.8290841082
 30
0.0
 11
-23.2534777063
 21
-18.1827317317
 31
0.0
 11
-23.2858454905
 21
-18.310295147
 31
0.0
 11
-23.350567128
 21
-18.4314613539
 31
0.0
 11
-23.4454497011
 21
-18.5422237263
 31
0.0
 11
-23.5673134471
 21
-18.6389213069
 31
0.0
 11
-23.8748438837
 21
-18.7776105983
 31
0.0
 11
-24.2323210987
 21
-18.8290841082
 31
0.0
  0
SPLINE
  5
80A
100
AcDbEntity
  8
ASSI
100
AcDbSpline
 62
253
  6
CONTINUOUS
 70
0
 71
3
 72
13
 73
9
 74
7
 42
0.0000001
 43
0.0000001
 44
0.0000000001
 12
-0.1537836051
 22
-1.2595553481
 32
0.0
 13
-1.268811973
 23
-0.015660432
 33
0.0
 40
0.0
 40
0.0
 40
0.0
 40
0.0
 40
0.1037157785
 40
0.2119730846
 40
0.326911093
 40
0.4495104117
 40
0.7153742512
 40
1.0
 40
1.0
 40
1.0
 40
1.0
 10
-23.2534777063
 20
-18.1827317317
 30
0.0
 10
-23.2587943017
 20
-18.2262769862
 30
0.0
 10
-23.2814189655
 20
-18.3142045162
 30
0.0
 10
-23.3479497128
 20
-18.4367605256
 30
0.0
 10
-23.4445142293
 20
-18.5479917164
 30
0.0
 10
-23.6129235417
 20
-18.6800176306
 30
0.0
 10
-23.8784250336
 20
-18.7952675493
 30
0.0
 10
-24.1119422461
 20
-18.8275983208
 30
0.0
 10
-24.2323210987
 20
-18.8290841082
 30
0.0
 11
-23.2534777063
 21
-18.1827317317
 31
0.0
 11
-23.2858454905
 21
-18.310295147
 31
0.0
 11
-23.350567128
 21
-18.4314613539
 31
0.0
 11
-23.4454497011
 21
-18.5422237263
 31
0.0
 11
-23.5673134471
 21
-18.6389213069
 31
0.0
 11
-23.8748438837
 21
-18.7776105983
 31
0.0
 11
-24.2323210987
 21
-18.8290841082
 31
0.0
  0
SPLINE
  5
80B
100
AcDbEntity
  8
ASSI
100
AcDbSpline
 62
253
  6
CONTINUOUS
 70
0
 71
3
 72
18
 73
14
 74
12
 42
0.0000001
 43
0.0000001
 44
0.0000000001
 12
0.2928752066
 22
0.0051121557
 32
0.0
 13
-0.0029943967
 23
0.2929045141
 33
0.0
 40
0.0
 40
0.0
 40
0.0
 40
0.0
 40
0.0043029655
 40
0.0167129437
 40
0.0372630548
 40
0.0659091044
 40
0.1025980246
 40
0.1472702109
 40
0.2600998298
 40
0.4033098797
 40
0.575714323
 40
0.7754032742
 40
1.0
 40
1.0
 40
1.0
 40
1.0
 10
-24.2323210987
 20
-19.121932718
 30
0.0
 10
-24.2319010214
 20
-19.1219253855
 30
0.0
 10
-24.2321404938
 20
-19.1194169542
 30
0.0
 10
-24.2314632704
 20
-19.1166255985
 30
0.0
 10
-24.231486911
 20
-19.1101402682
 30
0.0
 10
-24.2311878163
 20
-19.1019647085
 30
0.0
 10
-24.2310788492
 20
-19.0911443466
 30
0.0
 10
-24.2309030534
 20
-19.0722221136
 30
0.0
 10
-24.2308605024
 20
-19.0428358191
 30
0.0
 10
-24.2309604825
 20
-19.0010132348
 30
0.0
 10
-24.2312453741
 20
-18.9506960096
 30
0.0
 10
-24.2317010108
 20
-18.892438259
 30
0.0
 10
-24.2320969215
 20
-18.8510125732
 30
0.0
 10
-24.2323210987
 20
-18.8290841082
 30
0.0
 11
-24.2323210987
 21
-19.121932718
 31
0.0
 11
-24.2319883238
 21
-19.1207170169
 31
0.0
 11
-24.2316979227
 21
-19.1170935066
 31
0.0
 11
-24.2314506159
 21
-19.111079054
 31
0.0
 11
-24.2312471241
 21
-19.1026905262
 31
0.0
 11
-24.2310881678
 21
-19.0919447899
 31
0.0
 11
-24.2309744318
 21
-19.0788599155
 31
0.0
 11
-24.2308834395
 21
-19.0458100091
 31
0.0
 11
-24.2309744318
 21
-19.0038610458
 31
0.0
 11
-24.2312471241
 21
-18.9533611036
 31
0.0
 11
-24.2316979227
 21
-18.8948699891
 31
0.0
 11
-24.2323210987
 21
-18.8290841082
 31
0.0
  0
SPLINE
  5
80C
100
AcDbEntity
  8
ASSI
100
AcDbSpline
 62
253
  6
CONTINUOUS
 70
0
 71
3
 72
12
 73
8
 74
6
 42
0.0000001
 43
0.0000001
 44
0.0000000001
 12
-0.3362308124
 22
-1.1333030449
 32
0.0
 13
-1.1820381127
 23
-0.0145894115
 33
0.0
 40
0.0
 40
0.0
 40
0.0
 40
0.0
 40
0.1046915043
 40
0.2146618478
 40
0.4539763317
 40
0.7190722238
 40
1.0
 40
1.0
 40
1.0
 40
1.0
 10
-23.2711928987
 20
-18.2492258846
 30
0.0
 10
-23.2829264019
 20
-18.2887749515
 30
0.0
 10
-23.3165888344
 20
-18.3672765444
 30
0.0
 10
-23.4206692768
 20
-18.5140737575
 30
0.0
 10
-23.6148300737
 20
-18.6670935325
 30
0.0
 10
-23.9057956955
 20
-18.7816009404
 30
0.0
 10
-24.1216319859
 20
-18.8094601104
 30
0.0
 10
-24.2323210987
 20
-18.8108263007
 30
0.0
 11
-23.2711928987
 21
-18.2492258846
 31
0.0
 11
-23.31946011
 21
-18.363184256
 31
0.0
 11
-23.3940193537
 21
-18.4696768336
 31
0.0
 11
-23.6128670988
 21
-18.6489483968
 31
0.0
 11
-23.9031206398
 21
-18.767093323
 31
0.0
 11
-24.2323210987
 21
-18.8108263007
 31
0.0
  0
SPLINE
  5
80D
100
AcDbEntity
  8
ASSI
100
AcDbSpline
 62
253
  6
CONTINUOUS
 70
0
 71
3
 72
18
 73
14
 74
12
 42
0.0000001
 43
0.0000001
 44
0.0000000001
 12
0.0029943967
 22
0.2929045141
 32
0.0
 13
-0.2928752066
 23
0.0051121557
 33
0.0
 40
0.0
 40
0.0
 40
0.0
 40
0.0
 40
0.2245967258
 40
0.424285677
 40
0.5966901203
 40
0.7399001702
 40
0.8527297891
 40
0.8974019754
 40
0.9340908956
 40
0.9627369452
 40
0.9832870563
 40
0.9956970345
 40
1.0
 40
1.0
 40
1.0
 40
1.0
 10
-24.2323210987
 20
18.8290841082
 30
0.0
 10
-24.2320969215
 20
18.8510125732
 30
0.0
 10
-24.2317010108
 20
18.892438259
 30
0.0
 10
-24.2312453741
 20
18.9506960096
 30
0.0
 10
-24.2309604825
 20
19.0010132348
 30
0.0
 10
-24.2308605024
 20
19.0428358191
 30
0.0
 10
-24.2309030534
 20
19.0722221136
 30
0.0
 10
-24.2310788492
 20
19.0911443466
 30
0.0
 10
-24.2311878163
 20
19.1019647085
 30
0.0
 10
-24.231486911
 20
19.1101402682
 30
0.0
 10
-24.2314632704
 20
19.1166255985
 30
0.0
 10
-24.2321404938
 20
19.1194169542
 30
0.0
 10
-24.2319010214
 20
19.1219253855
 30
0.0
 10
-24.2323210987
 20
19.121932718
 30
0.0
 11
-24.2323210987
 21
18.8290841082
 31
0.0
 11
-24.2316979227
 21
18.8948699891
 31
0.0
 11
-24.2312471241
 21
18.9533611036
 31
0.0
 11
-24.2309744318
 21
19.0038610458
 31
0.0
 11
-24.2308834395
 21
19.0458100091
 31
0.0
 11
-24.2309744318
 21
19.0788599154
 31
0.0
 11
-24.2310881678
 21
19.0919447899
 31
0.0
 11
-24.2312471241
 21
19.1026905262
 31
0.0
 11
-24.2314506159
 21
19.111079054
 31
0.0
 11
-24.2316979227
 21
19.1170935066
 31
0.0
 11
-24.2319883238
 21
19.1207170169
 31
0.0
 11
-24.2323210987
 21
19.121932718
 31
0.0
  0
SPLINE
  5
80E
100
AcDbEntity
  8
ASSI
100
AcDbSpline
 62
253
  6
CONTINUOUS
 70
0
 71
3
 72
12
 73
8
 74
6
 42
0.0000001
 43
0.0000001
 44
0.0000000001
 12
1.1820381125
 22
-0.0145894137
 32
0.0
 13
0.3362308124
 23
-1.1333030448
 33
0.0
 40
0.0
 40
0.0
 40
0.0
 40
0.0
 40
0.2809277763
 40
0.5460236683
 40
0.7853381522
 40
0.8953084957
 40
1.0
 40
1.0
 40
1.0
 40
1.0
 10
-24.2323210987
 20
18.8108263007
 30
0.0
 10
-24.1216319859
 20
18.8094601102
 30
0.0
 10
-23.9057956956
 20
18.78160094
 30
0.0
 10
-23.6148300737
 20
18.6670935324
 30
0.0
 10
-23.4206692768
 20
18.5140737574
 30
0.0
 10
-23.3165888344
 20
18.3672765444
 30
0.0
 10
-23.2829264019
 20
18.2887749515
 30
0.0
 10
-23.2711928987
 20
18.2492258846
 30
0.0
 11
-24.2323210987
 21
18.8108263007
 31
0.0
 11
-23.9031206398
 21
18.7670933226
 31
0.0
 11
-23.6128670988
 21
18.6489483966
 31
0.0
 11
-23.3940193537
 21
18.4696768335
 31
0.0
 11
-23.31946011
 21
18.3631842559
 31
0.0
 11
-23.2711928987
 21
18.2492258846
 31
0.0
  0
SPLINE
  5
80F
100
AcDbEntity
  8
ASSI
100
AcDbSpline
 62
253
  6
CONTINUOUS
 70
0
 71
3
 72
9
 73
5
 74
3
 42
0.0000001
 43
0.0000001
 44
0.0000000001
 12
0.036732779
 22
-0.1238118838
 32
0.0
 13
0.004753634
 23
-0.1290584464
 33
0.0
 40
0.0
 40
0.0
 40
0.0
 40
0.0
 40
0.2527572658
 40
1.0
 40
1.0
 40
1.0
 40
1.0
 10
-23.2711928987
 20
18.2492258846
 30
0.0
 10
-23.2680980731
 20
18.2387944335
 30
0.0
 10
-23.2571095958
 20
18.1971636157
 30
0.0
 10
-23.2512926607
 20
18.1541518101
 30
0.0
 10
-23.2501086212
 20
18.1220058147
 30
0.0
 11
-23.2711928987
 21
18.2492258846
 31
0.0
 11
-23.2628736285
 21
18.217661224
 31
0.0
 11
-23.2501086212
 21
18.1220058147
 31
0.0
  0
SPLINE
  5
810
100
AcDbEntity
  8
ASSI
100
AcDbSpline
 62
253
  6
CONTINUOUS
 70
0
 71
3
 72
13
 73
9
 74
7
 42
0.0000001
 43
0.0000001
 44
0.0000000001
 12
1.3288446604
 22
-0.0164013912
 32
0.0
 13
0.0
 23
-1.3289458744
 33
0.0
 40
0.0
 40
0.0
 40
0.0
 40
0.0
 40
0.2871807683
 40
0.5533965419
 40
0.6752296459
 40
0.7890367246
 40
0.8963987342
 40
1.0
 40
1.0
 40
1.0
 40
1.0
 10
-24.2323210987
 20
18.8290841082
 30
0.0
 10
-24.1051148885
 20
18.8275140535
 30
0.0
 10
-23.8591497175
 20
18.791773388
 30
0.0
 10
-23.5824655168
 20
18.6636206357
 30
0.0
 10
-23.4131456783
 20
18.5174908766
 30
0.0
 10
-23.3205611964
 20
18.395351799
 30
0.0
 10
-23.2629635266
 20
18.2618919457
 30
0.0
 10
-23.2497735052
 20
18.1679785144
 30
0.0
 10
-23.2497735052
 20
18.1220850228
 30
0.0
 11
-24.2323210987
 21
18.8290841082
 31
0.0
 11
-23.8550030887
 21
18.7717597317
 31
0.0
 11
-23.5365210893
 21
18.6177013002
 31
0.0
 11
-23.4146874161
 21
18.5110651198
 31
0.0
 11
-23.3242428712
 21
18.3898448048
 31
0.0
 11
-23.2685704246
 21
18.258476331
 31
0.0
 11
-23.2497735052
 21
18.1220850228
 31
0.0
  0
SPLINE
  5
811
100
AcDbEntity
  8
CURVE
100
AcDbSpline
 62
253
  6
CONTINUOUS
 70
0
 71
3
 72
10
 73
6
 74
4
 42
0.0000001
 43
0.0000001
 44
0.0000000001
 12
0.7328821116
 22
0.0113103174
 32
0.0
 13
0.0163673223
 23
-0.7328982126
 33
0.0
 40
0.0
 40
0.0
 40
0.0
 40
0.0
 40
0.2929210355
 40
0.5275938042
 40
1.0
 40
1.0
 40
1.0
 40
1.0
 10
-58.8177242769
 20
-5.4627200261
 30
0.0
 10
-58.7461654145
 20
-5.4616156828
 30
0.0
 10
-58.6131912025
 20
-5.4770528399
 30
0.0
 10
-58.4075293448
 20
-5.6287671311
 30
0.0
 10
-58.3697653702
 20
-5.8174861236
 30
0.0
 10
-58.3671880287
 20
-5.9328946758
 30
0.0
 11
-58.8177242769
 21
-5.4627200261
 31
0.0
 11
-58.6060526951
 21
-5.498672008
 31
0.0
 11
-58.4682804013
 21
-5.6016708449
 31
0.0
 11
-58.3671880287
 21
-5.9328946758
 31
0.0
  0
SPLINE
  5
812
100
AcDbEntity
  8
CURVE
100
AcDbSpline
 62
253
  6
CONTINUOUS
 70
0
 71
3
 72
9
 73
5
 74
3
 42
0.0000001
 43
0.0000001
 44
0.0000000001
 12
0.0616189773
 22
0.530822429
 32
0.0
 13
0.5342412434
 23
0.0083570671
 33
0.0
 40
0.0
 40
0.0
 40
0.0
 40
0.0
 40
0.5013510385
 40
1.0
 40
1.0
 40
1.0
 40
1.0
 10
-59.18014474
 20
-5.804625691
 30
0.0
 10
-59.1698471605
 20
-5.7159162323
 30
0.0
 10
-59.0917374909
 20
-5.5364909894
 30
0.0
 10
-58.9065238906
 20
-5.4641091071
 30
0.0
 10
-58.8177242769
 20
-5.4627200261
 30
0.0
 11
-59.18014474
 21
-5.804625691
 31
0.0
 11
-59.0646055529
 21
-5.5629118238
 31
0.0
 11
-58.8177242769
 21
-5.4627200261
 31
0.0
  0
SPLINE
  5
813
100
AcDbEntity
  8
CURVE
100
AcDbSpline
 62
253
  6
CONTINUOUS
 70
0
 71
3
 72
9
 73
5
 74
3
 42
0.0000001
 43
0.0000001
 44
0.0000000001
 12
-0.0800344797
 22
0.4691120427
 32
0.0
 13
0.0548613365
 23
0.4727186214
 33
0.0
 40
0.0
 40
0.0
 40
0.0
 40
0.0
 40
0.5157390107
 40
1.0
 40
1.0
 40
1.0
 40
1.0
 10
-59.1630781495
 20
-6.2788012719
 30
0.0
 10
-59.1768371173
 20
-6.1981548116
 30
0.0
 10
-59.1970305736
 20
-6.0401708385
 30
0.0
 10
-59.189000475
 20
-5.8809320867
 30
0.0
 10
-59.18014474
 20
-5.804625691
 30
0.0
 11
-59.1630781495
 21
-6.2788012719
 31
0.0
 11
-59.1901591326
 21
-6.0348640611
 31
0.0
 11
-59.18014474
 21
-5.804625691
 31
0.0
  0
SPLINE
  5
814
100
AcDbEntity
  8
CURVE
100
AcDbSpline
 62
253
  6
CONTINUOUS
 70
0
 71
3
 72
10
 73
6
 74
4
 42
0.0000001
 43
0.0000001
 44
0.0000000001
 12
-0.511471697
 22
-1.4159479367
 32
0.0
 13
0.2190956501
 23
-1.4894878422
 33
0.0
 40
0.0
 40
0.0
 40
0.0
 40
0.0
 40
0.2954237646
 40
0.5848737211
 40
1.0
 40
1.0
 40
1.0
 40
1.0
 10
-59.592590967
 20
-5.3678501192
 30
0.0
 10
-59.6429579318
 20
-5.5072850092
 30
0.0
 10
-59.6919222964
 20
-5.8009746511
 30
0.0
 10
-59.6918280881
 20
-6.3030007264
 30
0.0
 10
-59.653432616
 20
-6.6554588292
 30
0.0
 10
-59.623115162
 20
-6.8615673444
 30
0.0
 11
-59.592590967
 21
-5.3678501192
 31
0.0
 11
-59.6799159276
 21
-5.8039570571
 31
0.0
 11
-59.6853711899
 21
-6.2396957027
 31
0.0
 11
-59.623115162
 21
-6.8615673444
 31
0.0
  0
SPLINE
  5
815
100
AcDbEntity
  8
CURVE
100
AcDbSpline
 62
253
  6
CONTINUOUS
 70
0
 71
3
 72
23
 73
19
 74
17
 42
0.0000001
 43
0.0000001
 44
0.0000000001
 12
-0.2315264875
 22
1.7946036049
 32
0.0
 13
-0.6139483615
 23
-1.7021091361
 33
0.0
 40
0.0
 40
0.0
 40
0.0
 40
0.0
 40
0.0193928962
 40
0.0560918278
 40
0.1068350589
 40
0.1689387844
 40
0.2406513391
 40
0.3215099784
 40
0.4126293501
 40
0.4629068833
 40
0.5169198095
 40
0.5604931843
 40
0.6016378815
 40
0.677722206
 40
0.747068359
 40
0.8106528864
 40
0.920171439
 40
1.0
 40
1.0
 40
1.0
 40
1.0
 10
-58.1282340209
 20
-5.30544429
 30
0.0
 10
-58.1297306773
 20
-5.2938434362
 30
0.0
 10
-58.1464462414
 20
-5.2632069054
 30
0.0
 10
-58.1802014998
 20
-5.2090321015
 30
0.0
 10
-58.2390372859
 20
-5.1398099271
 30
0.0
 10
-58.3213078161
 20
-5.0645396381
 30
0.0
 10
-58.4296068984
 20
-4.9924232313
 30
0.0
 10
-58.5648687716
 20
-4.9329611274
 30
0.0
 10
-58.696530874
 20
-4.9032239884
 30
0.0
 10
-58.8141608441
 20
-4.89402718
 30
0.0
 10
-58.9034674554
 20
-4.8956454635
 30
0.0
 10
-58.9867648992
 20
-4.9044394109
 30
0.0
 10
-59.0820633907
 20
-4.9229196409
 30
0.0
 10
-59.1895176402
 20
-4.9582621697
 30
0.0
 10
-59.3013843788
 20
-5.0175752447
 30
0.0
 10
-59.4186650206
 20
-5.1057748269
 30
0.0
 10
-59.5205278248
 20
-5.2214285397
 30
0.0
 10
-59.5762540956
 20
-5.3225578116
 30
0.0
 10
-59.592590967
 20
-5.3678501192
 30
0.0
 11
-58.1282340209
 21
-5.30544429
 31
0.0
 11
-58.1414093539
 21
-5.2729213449
 31
0.0
 11
-58.1769573704
 21
-5.2168346717
 31
0.0
 11
-58.2357619324
 21
-5.1463244856
 31
0.0
 11
-58.3187167376
 21
-5.0705309187
 31
0.0
 11
-58.426697657
 21
-4.9985942537
 31
0.0
 11
-58.5605928555
 21
-4.9396546695
 31
0.0
 11
-58.7212874249
 21
-4.9028523708
 31
0.0
 11
-58.8119610648
 21
-4.8956090175
 31
0.0
 11
-58.9096664567
 21
-4.8973275625
 31
0.0
 11
-58.9880487608
 21
-4.9057483616
 31
0.0
 11
-59.0611152925
 21
-4.9199800835
 31
0.0
 11
-59.1917774694
 21
-4.963294003
 31
0.0
 11
-59.3026058494
 21
-5.0221047359
 31
0.0
 11
-59.3945532947
 21
-5.091247697
 31
0.0
 11
-59.5256168286
 21
-5.239871963
 31
0.0
 11
-59.592590967
 21
-5.3678501192
 31
0.0
  0
SPLINE
  5
816
100
AcDbEntity
  8
CURVE
100
AcDbSpline
 62
253
  6
CONTINUOUS
 70
0
 71
3
 72
10
 73
6
 74
4
 42
0.0000001
 43
0.0000001
 44
0.0000000001
 12
-0.6658466305
 22
-0.1814243074
 32
0.0
 13
-0.255610764
 23
-0.6411277761
 33
0.0
 40
0.0
 40
0.0
 40
0.0
 40
0.0
 40
0.4939032387
 40
0.7479365287
 40
1.0
 40
1.0
 40
1.0
 40
1.0
 10
-57.5424695016
 20
-4.9565587397
 30
0.0
 10
-57.6520907707
 20
-4.9864274241
 30
0.0
 10
-57.8200401165
 20
-5.0311015744
 30
0.0
 10
-58.0182375708
 20
-5.1536200638
 30
0.0
 10
-58.0896254956
 20
-5.2515759924
 30
0.0
 10
-58.1111022078
 20
-5.30544429
 30
0.0
 11
-57.5424695016
 21
-4.9565587397
 31
0.0
 11
-57.8653079758
 21
-5.06590756
 31
0.0
 11
-58.0113418038
 21
-5.16291893
 31
0.0
 11
-58.1111022078
 21
-5.30544429
 31
0.0
  0
SPLINE
  5
817
100
AcDbEntity
  8
CURVE
100
AcDbSpline
 62
253
  6
CONTINUOUS
 70
0
 71
3
 72
9
 73
5
 74
3
 42
0.0000001
 43
0.0000001
 44
0.0000000001
 12
-0.7831383809
 22
-0.212730566
 32
0.0
 13
-0.7829702865
 23
-0.2133486067
 33
0.0
 40
0.0
 40
0.0
 40
0.0
 40
0.0
 40
0.1980141723
 40
1.0
 40
1.0
 40
1.0
 40
1.0
 10
-56.7577759339
 20
-4.7496410148
 30
0.0
 10
-56.8094667667
 20
-4.7636822371
 30
0.0
 10
-57.0710996565
 20
-4.8324077287
 30
0.0
 10
-57.3331591439
 20
-4.8995245534
 30
0.0
 10
-57.5424695016
 20
-4.9565587397
 30
0.0
 11
-56.7577759339
 21
-4.7496410148
 31
0.0
 11
-56.9130975336
 21
-4.7908364046
 31
0.0
 11
-57.5424695016
 21
-4.9565587397
 31
0.0
  0
SPLINE
  5
818
100
AcDbEntity
  8
CURVE
100
AcDbSpline
 62
253
  6
CONTINUOUS
 70
0
 71
3
 72
11
 73
7
 74
5
 42
0.0000001
 43
0.0000001
 44
0.0000000001
 12
0.8595041012
 22
0.3229529722
 32
0.0
 13
0.8824125507
 23
0.2537357968
 33
0.0
 40
0.0
 40
0.0
 40
0.0
 40
0.0
 40
0.2222334256
 40
0.5586346745
 40
0.8657346811
 40
1.0
 40
1.0
 40
1.0
 40
1.0
 10
-57.6369118826
 20
-5.5965120355
 30
0.0
 10
-57.5732417024
 20
-5.5725883871
 30
0.0
 10
-57.4090962512
 20
-5.5240624166
 30
0.0
 10
-57.1556290105
 20
-5.447208328
 30
0.0
 10
-56.9270101704
 20
-5.3807958248
 30
0.0
 10
-56.7972684014
 20
-5.3431977109
 30
0.0
 10
-56.7577759339
 20
-5.3318417383
 30
0.0
 11
-57.6369118826
 21
-5.5965120355
 31
0.0
 11
-57.442735934
 21
-5.533810961
 31
0.0
 11
-57.1468452802
 21
-5.4452023619
 31
0.0
 11
-56.8762039403
 21
-5.3660810254
 31
0.0
 11
-56.7577759339
 21
-5.3318417383
 31
0.0
  0
SPLINE
  5
819
100
AcDbEntity
  8
CURVE
100
AcDbSpline
 62
253
  6
CONTINUOUS
 70
0
 71
3
 72
10
 73
6
 74
4
 42
0.0000001
 43
0.0000001
 44
0.0000000001
 12
0.0
 22
0.4498714952
 32
0.0
 13
0.4211237832
 23
0.15806672
 33
0.0
 40
0.0
 40
0.0
 40
0.0
 40
0.0
 40
0.3517340052
 40
0.6302069713
 40
1.0
 40
1.0
 40
1.0
 40
1.0
 10
-57.8923672181
 20
-5.9341993273
 30
0.0
 10
-57.8923672181
 20
-5.881454293
 30
0.0
 10
-57.8710453532
 20
-5.784912168
 30
0.0
 10
-57.7766874553
 20
-5.6640774716
 30
0.0
 10
-57.6888214291
 20
-5.6159960259
 30
0.0
 10
-57.6369118826
 20
-5.5965120355
 30
0.0
 11
-57.8923672181
 21
-5.9341993273
 31
0.0
 11
-57.8566849994
 21
-5.7800411646
 31
0.0
 11
-57.780377909
 21
-5.6806943326
 31
0.0
 11
-57.6369118826
 21
-5.5965120355
 31
0.0
  0
SPLINE
  5
81A
100
AcDbEntity
  8
0
100
AcDbSpline
 62
253
  6
CONTINUOUS
 70
0
 71
3
 72
16
 73
12
 74
10
 42
0.0000001
 43
0.0000001
 44
0.0000000001
 12
0.0
 22
2.0793102827
 32
0.0
 13
0.0
 23
-2.0793102827
 33
0.0
 40
0.0
 40
0.0
 40
0.0
 40
0.0
 40
0.1480181679
 40
0.2760826901
 40
0.3794597004
 40
0.4313382788
 40
0.4844003997
 40
0.5962837356
 40
0.7135728322
 40
0.8439284655
 40
1.0
 40
1.0
 40
1.0
 40
1.0
 10
-59.4333184646
 20
10.2768972759
 30
0.0
 10
-59.4333184646
 20
10.3794891755
 30
0.0
 10
-59.4097697435
 20
10.5731867323
 30
0.0
 10
-59.2784826262
 20
10.8109056775
 30
0.0
 10
-59.1125098081
 20
10.9272278961
 30
0.0
 10
-58.9737064024
 20
10.9699620524
 30
0.0
 10
-58.8233024526
 20
10.9847564894
 30
0.0
 10
-58.6260499433
 20
10.9436678627
 30
0.0
 10
-58.4170767963
 20
10.7952957391
 30
0.0
 10
-58.2704495023
 20
10.5480290742
 30
0.0
 10
-58.2415564268
 20
10.3465220226
 30
0.0
 10
-58.2415564268
 20
10.2383483071
 30
0.0
 11
-59.4333184646
 21
10.2768972759
 31
0.0
 11
-59.3873800579
 21
10.581224239
 31
0.0
 11
-59.252946226
 21
10.8110724657
 31
0.0
 11
-59.0768007229
 21
10.9342311
 31
0.0
 11
-58.9737932599
 21
10.9662080461
 31
0.0
 11
-58.8640156308
 21
10.9770931782
 31
0.0
 11
-58.6362544468
 21
10.9298651484
 31
0.0
 11
-58.4367843102
 21
10.789589693
 31
0.0
 11
-58.2953517606
 21
10.5583782353
 31
0.0
 11
-58.2415564268
 21
10.2383483071
 31
0.0
  0
SPLINE
  5
81B
100
AcDbEntity
  8
0
100
AcDbSpline
 62
253
  6
CONTINUOUS
 70
0
 71
3
 72
18
 73
14
 74
12
 42
0.0000001
 43
0.0000001
 44
0.0000000001
 12
-0.3241704396
 22
2.534298751
 32
0.0
 13
0.0
 23
-2.5549537474
 33
0.0
 40
0.0
 40
0.0
 40
0.0
 40
0.0
 40
0.138143453
 40
0.258984552
 40
0.3716524909
 40
0.4810457505
 40
0.540417
 40
0.5985432077
 40
0.6564597947
 40
0.7152297619
 40
0.7813913786
 40
0.849863194
 40
1.0
 40
1.0
 40
1.0
 40
1.0
 10
-58.04997595
 20
10.3998519318
 30
0.0
 10
-58.0649032913
 20
10.5165508586
 30
0.0
 10
-58.1269004002
 20
10.7339591642
 30
0.0
 10
-58.3241171923
 20
10.9909391754
 30
0.0
 10
-58.5802833827
 20
11.1442770239
 30
0.0
 10
-58.821474318
 20
11.1878999401
 30
0.0
 10
-59.0148723734
 20
11.1689185928
 30
0.0
 10
-59.1585633156
 20
11.1243229471
 30
0.0
 10
-59.2895835274
 20
11.0514538552
 30
0.0
 10
-59.4080729718
 20
10.9487759043
 30
0.0
 10
-59.5076315684
 20
10.815826268
 30
0.0
 10
-59.6092756492
 20
10.5940402339
 30
0.0
 10
-59.634924876
 20
10.4047614743
 30
0.0
 10
-59.634924876
 20
10.2768972759
 30
0.0
 11
-58.04997595
 21
10.3998519318
 31
0.0
 11
-58.1525044252
 21
10.7375774198
 31
0.0
 11
-58.3419872069
 21
10.981314645
 31
0.0
 11
-58.5890155061
 21
11.1290393783
 31
0.0
 11
-58.8640156308
 21
11.1787302999
 31
0.0
 11
-59.0149366865
 21
11.1636972367
 31
0.0
 11
-59.1567067123
 21
11.1195351655
 31
0.0
 11
-59.286027081
 21
11.0476497638
 31
0.0
 11
-59.3995991657
 21
10.9494467091
 31
0.0
 11
-59.5013105283
 21
10.8144425443
 31
0.0
 11
-59.5749879946
 21
10.6557768805
 31
0.0
 11
-59.634924876
 21
10.2768972759
 31
0.0
  0
ELLIPSE
  5
81C
100
AcDbEntity
  8
RACCORDO
100
AcDbEllipse
 62
7
  6
CONTINUOUS
 10
9.1496953439
 20
-17.6714466826
 30
0.0
 11
1.8480888181
 21
-0.7655034529
 31
0.0
 40
0.9998215708
 41
0.2314839238
 42
0.3926359958
  0
ELLIPSE
  5
81D
100
AcDbEntity
  8
RACCORDO
100
AcDbEllipse
 62
7
  6
CONTINUOUS
 10
9.1496953439
 20
17.6714466826
 30
0.0
 11
-1.8480888181
 21
-0.7655034529
 31
0.0
 40
0.9998215708
 41
2.7489566578
 42
2.9101087298
  0
ELLIPSE
  5
81E
100
AcDbEntity
  8
RACCORDO
100
AcDbEllipse
 62
7
  6
CONTINUOUS
 10
-9.1496953439
 20
17.6714466826
 30
0.0
 11
-1.8480888181
 21
0.7655034529
 31
0.0
 40
0.9998215708
 41
0.2314839238
 42
0.3926359958
  0
ELLIPSE
  5
81F
100
AcDbEntity
  8
RACCORDO
100
AcDbEllipse
 62
7
  6
CONTINUOUS
 10
-9.1496953439
 20
-17.6714466826
 30
0.0
 11
1.8480888181
 21
0.7655034529
 31
0.0
 40
0.9998215708
 41
2.7489566578
 42
2.9101087298
  0
ELLIPSE
  5
820
100
AcDbEntity
  8
ASSI
100
AcDbEllipse
 62
7
  6
CONTINUOUS
 10
-9.1496953439
 20
-17.6714466826
 30
0.0
 11
1.8480888181
 21
0.7655034529
 31
0.0
 40
0.9998215708
 41
2.7489566578
 42
2.9101087298
  0
ELLIPSE
  5
821
100
AcDbEntity
  8
ASSI
100
AcDbEllipse
 62
7
  6
CONTINUOUS
 10
-9.1496953439
 20
17.6714466826
 30
0.0
 11
-1.8480888181
 21
0.7655034529
 31
0.0
 40
0.9998215708
 41
0.2314839238
 42
0.3926359958
  0
ELLIPSE
  5
822
100
AcDbEntity
  8
ASSI
100
AcDbEllipse
 62
7
  6
CONTINUOUS
 10
9.1496953439
 20
17.6714466826
 30
0.0
 11
-1.8480888181
 21
-0.7655034529
 31
0.0
 40
0.9998215708
 41
2.7489566578
 42
2.9101087298
  0
ELLIPSE
  5
823
100
AcDbEntity
  8
ASSI
100
AcDbEllipse
 62
7
  6
CONTINUOUS
 10
9.1496953439
 20
-17.6714466826
 30
0.0
 11
1.8480888181
 21
-0.7655034529
 31
0.0
 40
0.9998215708
 41
0.2314839238
 42
0.3926359958
  0
ELLIPSE
  5
824
100
AcDbEntity
  8
ASSI
100
AcDbEllipse
 62
7
  6
CONTINUOUS
 10
-9.0368706193
 20
22.2820824966
 30
0.0
 11
0.25
 21
-0.0
 31
0.0
 40
0.0524077793
 41
-3.1241393611
 42
-1.5707963268
  0
ELLIPSE
  5
825
100
AcDbEntity
  8
ASSI
100
AcDbEllipse
 62
7
  6
CONTINUOUS
 10
8.7631293807
 20
22.2820824966
 30
0.0
 11
0.25
 21
-0.0
 31
0.0
 40
0.0524077793
 41
-3.1241393611
 42
-1.5707963268
  0
ELLIPSE
  5
826
100
AcDbEntity
  8
ASSI
100
AcDbEllipse
 62
7
  6
CONTINUOUS
 10
8.7631293807
 20
-22.2820824966
 30
0.0
 11
0.25
 21
-0.0
 31
0.0
 40
0.0524077793
 41
1.5707963268
 42
3.1241393611
  0
ELLIPSE
  5
827
100
AcDbEntity
  8
ASSI
100
AcDbEllipse
 62
7
  6
CONTINUOUS
 10
8.7631293807
 20
-23.5556624327
 30
0.0
 11
0.25
 21
-0.0
 31
0.0
 40
0.5773502692
 41
-3.1241393611
 42
-2.617993878
  0
ELLIPSE
  5
828
100
AcDbEntity
  8
ASSI
100
AcDbEllipse
 62
7
  6
CONTINUOUS
 10
-9.0368706193
 20
-23.5556624327
 30
0.0
 11
0.25
 21
0.0
 31
0.0
 40
0.5773502692
 41
-3.1241393611
 42
-2.617993878
  0
ELLIPSE
  5
829
100
AcDbEntity
  8
ASSI
100
AcDbEllipse
 62
7
  6
CONTINUOUS
 10
-9.0368706193
 20
-22.2820824966
 30
0.0
 11
0.25
 21
-0.0
 31
0.0
 40
0.0524077793
 41
1.5707963268
 42
3.1241393611
  0
ELLIPSE
  5
82A
100
AcDbEntity
  8
ASSI
100
AcDbEllipse
 62
7
  6
CONTINUOUS
 10
-10.3281430868
 20
-22.3344902759
 30
0.0
 11
0.25
 21
0.0
 31
0.0
 40
0.0524077793
 41
1.5707963268
 42
2.8253464262
  0
ELLIPSE
  5
82B
100
AcDbEntity
  8
ASSI
100
AcDbEllipse
 62
7
  6
CONTINUOUS
 10
-10.3281430868
 20
-22.9783121635
 30
0.0
 11
0.25
 21
-0.0
 31
0.0
 40
0.5773502692
 41
-1.7618311193
 42
-1.5707963268
  0
ELLIPSE
  5
82C
100
AcDbEntity
  8
ASSI
100
AcDbEllipse
 62
7
  6
CONTINUOUS
 10
-7.4718569132
 20
-22.3344902759
 30
0.0
 11
0.25
 21
-0.0
 31
0.0
 40
0.0524077793
 41
0.0174532925
 42
1.5707963268
  0
ELLIPSE
  5
82D
100
AcDbEntity
  8
ASSI
100
AcDbEllipse
 62
7
  6
CONTINUOUS
 10
-7.4718569132
 20
-22.9783121635
 30
0.0
 11
0.25
 21
0.0
 31
0.0
 40
0.5773502692
 41
-1.5707963268
 42
-1.3797615343
  0
ELLIPSE
  5
82E
100
AcDbEntity
  8
ASSI
100
AcDbEllipse
 62
7
  6
CONTINUOUS
 10
7.4718569132
 20
-22.3344902759
 30
0.0
 11
0.25
 21
-0.0
 31
0.0
 40
0.0524077793
 41
1.5707963268
 42
3.1241393611
  0
ELLIPSE
  5
82F
100
AcDbEntity
  8
ASSI
100
AcDbEllipse
 62
7
  6
CONTINUOUS
 10
7.4718569132
 20
-22.9783121635
 30
0.0
 11
0.25
 21
0.0
 31
0.0
 40
0.5773502692
 41
-1.7618311193
 42
-1.5707963268
  0
ELLIPSE
  5
830
100
AcDbEntity
  8
ASSI
100
AcDbEllipse
 62
7
  6
CONTINUOUS
 10
10.3281430868
 20
-22.3344902759
 30
0.0
 11
0.25
 21
0.0
 31
0.0
 40
0.0524077793
 41
0.3162462274
 42
1.5707963268
  0
ELLIPSE
  5
831
100
AcDbEntity
  8
ASSI
100
AcDbEllipse
 62
7
  6
CONTINUOUS
 10
10.3281430868
 20
-22.9783121635
 30
0.0
 11
0.25
 21
0.0
 31
0.0
 40
0.5773502692
 41
-1.5707963268
 42
-1.3797615343
  0
ELLIPSE
  5
832
100
AcDbEntity
  8
ASSI
100
AcDbEllipse
 62
7
  6
CONTINUOUS
 10
-7.4718569132
 20
22.3344902759
 30
0.0
 11
0.25
 21
0.0
 31
0.0
 40
0.0524077793
 41
-1.5707963268
 42
-0.0174532925
  0
ELLIPSE
  5
833
100
AcDbEntity
  8
ASSI
100
AcDbEllipse
 62
7
  6
CONTINUOUS
 10
-7.4718569132
 20
22.9783121635
 30
0.0
 11
0.25
 21
-0.0
 31
0.0
 40
0.5773502692
 41
1.3797615343
 42
1.5707963268
  0
ELLIPSE
  5
834
100
AcDbEntity
  8
ASSI
100
AcDbEllipse
 62
7
  6
CONTINUOUS
 10
-10.3281430868
 20
22.3344902759
 30
0.0
 11
0.25
 21
0.0
 31
0.0
 40
0.0524077793
 41
-2.8253464262
 42
-1.5707963268
  0
ELLIPSE
  5
835
100
AcDbEntity
  8
ASSI
100
AcDbEllipse
 62
7
  6
CONTINUOUS
 10
-10.3281430868
 20
22.9783121635
 30
0.0
 11
0.25
 21
-0.0
 31
0.0
 40
0.5773502692
 41
1.5707963268
 42
1.7618311193
  0
ELLIPSE
  5
836
100
AcDbEntity
  8
ASSI
100
AcDbEllipse
 62
7
  6
CONTINUOUS
 10
7.4718569132
 20
22.3344902759
 30
0.0
 11
0.25
 21
0.0
 31
0.0
 40
0.0524077793
 41
-3.1241393611
 42
-1.5707963268
  0
ELLIPSE
  5
837
100
AcDbEntity
  8
ASSI
100
AcDbEllipse
 62
7
  6
CONTINUOUS
 10
7.4718569132
 20
22.9783121635
 30
0.0
 11
0.25
 21
0.0
 31
0.0
 40
0.5773502692
 41
1.5707963268
 42
1.7618311193
  0
ELLIPSE
  5
838
100
AcDbEntity
  8
ASSI
100
AcDbEllipse
 62
7
  6
CONTINUOUS
 10
10.3281430868
 20
22.3344902759
 30
0.0
 11
0.25
 21
-0.0
 31
0.0
 40
0.0524077793
 41
-1.5707963268
 42
-0.3162462274
  0
ELLIPSE
  5
839
100
AcDbEntity
  8
ASSI
100
AcDbEllipse
 62
7
  6
CONTINUOUS
 10
10.3281430868
 20
22.9783121635
 30
0.0
 11
0.25
 21
0.0
 31
0.0
 40
0.5773502692
 41
1.3797615343
 42
1.5707963268
  0
ELLIPSE
  5
83A
100
AcDbEntity
  8
ASSI
100
AcDbEllipse
 62
7
  6
CONTINUOUS
 10
-8.7631293807
 20
22.2820824966
 30
0.0
 11
0.25
 21
-0.0
 31
0.0
 40
0.0524077793
 41
-1.5707963268
 42
-0.0174532925
  0
ELLIPSE
  5
83B
100
AcDbEntity
  8
ASSI
100
AcDbEllipse
 62
7
  6
CONTINUOUS
 10
-8.7631293807
 20
23.5556624327
 30
0.0
 11
0.25
 21
-0.0
 31
0.0
 40
0.5773502692
 41
0.0174532925
 42
0.5235987756
  0
ELLIPSE
  5
83C
100
AcDbEntity
  8
ASSI
100
AcDbEllipse
 62
7
  6
CONTINUOUS
 10
9.0368706193
 20
23.5556624327
 30
0.0
 11
0.25
 21
0.0
 31
0.0
 40
0.5773502692
 41
0.0174532925
 42
0.5235987756
  0
ELLIPSE
  5
83D
100
AcDbEntity
  8
ASSI
100
AcDbEllipse
 62
7
  6
CONTINUOUS
 10
9.0368706193
 20
22.2820824966
 30
0.0
 11
0.25
 21
-0.0
 31
0.0
 40
0.0524077793
 41
-1.5707963268
 42
-0.0174532925
  0
ELLIPSE
  5
83E
100
AcDbEntity
  8
ASSI
100
AcDbEllipse
 62
7
  6
CONTINUOUS
 10
9.0368706193
 20
-22.2820824966
 30
0.0
 11
0.25
 21
-0.0
 31
0.0
 40
0.0524077793
 41
0.0174532925
 42
1.5707963268
  0
ELLIPSE
  5
83F
100
AcDbEntity
  8
ASSI
100
AcDbEllipse
 62
7
  6
CONTINUOUS
 10
-8.7631293807
 20
-22.2820824966
 30
0.0
 11
0.25
 21
-0.0
 31
0.0
 40
0.0524077793
 41
0.0174532925
 42
1.5707963268
  0
ELLIPSE
  5
840
100
AcDbEntity
  8
ASSI
100
AcDbEllipse
 62
7
  6
CONTINUOUS
 10
1.0052669851
 20
-22.3842776662
 30
0.0
 11
0.2
 21
-0.0
 31
0.0
 40
0.0524077793
 41
1.5707963268
 42
3.1241393611
  0
ELLIPSE
  5
841
100
AcDbEntity
  8
ASSI
100
AcDbEllipse
 62
7
  6
CONTINUOUS
 10
-10.600342662
 20
21.9003426489
 30
0.0
 11
-0.9888246763
 21
3.0427267403
 31
0.0
 40
0.0489125227
 41
-1.4436485256
 42
-1.4217508691
  0
ELLIPSE
  5
842
100
AcDbEntity
  8
ASSI
100
AcDbEllipse
 62
7
  6
CONTINUOUS
 10
-10.600342662
 20
-21.9003426489
 30
0.0
 11
0.9888246763
 21
3.0427267403
 31
0.0
 40
0.0489125227
 41
-1.7198418491
 42
-1.697944128
  0
ELLIPSE
  5
843
100
AcDbEntity
  8
ASSI
100
AcDbEllipse
 62
7
  6
CONTINUOUS
 10
10.600342662
 20
-21.9003426489
 30
0.0
 11
-0.9888246763
 21
3.0427267403
 31
0.0
 40
0.0489125227
 41
-4.5852411792
 42
-4.5633435227
  0
ELLIPSE
  5
844
100
AcDbEntity
  8
ASSI
100
AcDbEllipse
 62
7
  6
CONTINUOUS
 10
10.600342662
 20
21.9003426489
 30
0.0
 11
0.9888246763
 21
3.0427267403
 31
0.0
 40
0.0489125227
 41
1.4217508045
 42
1.4436485256
  0
ELLIPSE
  5
845
100
AcDbEntity
  8
ASSI
100
AcDbEllipse
 62
7
  6
CONTINUOUS
 10
4.2447330149
 20
-22.3842776662
 30
0.0
 11
0.2
 21
-0.0
 31
0.0
 40
0.0524077793
 41
0.0174532925
 42
1.5707963268
  0
ELLIPSE
  5
846
100
AcDbEntity
  8
ASSI
100
AcDbEllipse
 62
7
  6
CONTINUOUS
 10
4.2447330149
 20
22.3842776662
 30
0.0
 11
0.2
 21
0.0
 31
0.0
 40
0.0524077793
 41
-1.5707963268
 42
-0.0174532925
  0
ELLIPSE
  5
847
100
AcDbEntity
  8
ASSI
100
AcDbEllipse
 62
7
  6
CONTINUOUS
 10
-8.7631293807
 20
-23.5556624327
 30
0.0
 11
0.25
 21
0.0
 31
0.0
 40
0.5773502692
 41
-0.5235987756
 42
-0.0174532925
  0
ELLIPSE
  5
848
100
AcDbEntity
  8
ASSI
100
AcDbEllipse
 62
7
  6
CONTINUOUS
 10
9.0368706193
 20
-23.5556624327
 30
0.0
 11
0.25
 21
0.0
 31
0.0
 40
0.5773502692
 41
-0.5235987756
 42
-0.0174532925
  0
ELLIPSE
  5
849
100
AcDbEntity
  8
ASSI
100
AcDbEllipse
 62
7
  6
CONTINUOUS
 10
1.0052669851
 20
22.3842776662
 30
0.0
 11
0.2
 21
0.0
 31
0.0
 40
0.0524077793
 41
-3.1241393611
 42
-1.5707963268
  0
ELLIPSE
  5
84A
100
AcDbEntity
  8
ASSI
100
AcDbEllipse
 62
7
  6
CONTINUOUS
 10
-4.2447330149
 20
-22.3842776662
 30
0.0
 11
0.2
 21
-0.0
 31
0.0
 40
0.0524077793
 41
1.5707963268
 42
3.1241393611
  0
ELLIPSE
  5
84B
100
AcDbEntity
  8
ASSI
100
AcDbEllipse
 62
7
  6
CONTINUOUS
 10
-1.0052669851
 20
-22.3842776662
 30
0.0
 11
0.2
 21
0.0
 31
0.0
 40
0.0524077793
 41
0.0174532925
 42
1.5707963268
  0
ELLIPSE
  5
84C
100
AcDbEntity
  8
ASSI
100
AcDbEllipse
 62
7
  6
CONTINUOUS
 10
-4.2447330149
 20
22.3842776662
 30
0.0
 11
0.2
 21
0.0
 31
0.0
 40
0.0524077793
 41
-3.1241393611
 42
-1.5707963268
  0
ELLIPSE
  5
84D
100
AcDbEntity
  8
ASSI
100
AcDbEllipse
 62
7
  6
CONTINUOUS
 10
-1.0052669851
 20
22.3842776662
 30
0.0
 11
0.2
 21
0.0
 31
0.0
 40
0.0524077793
 41
-1.5707963268
 42
-0.0174532925
  0
ELLIPSE
  5
84E
100
AcDbEntity
  8
ASSI
100
AcDbEllipse
 62
7
  6
CONTINUOUS
 10
8.7631293807
 20
23.5556624327
 30
0.0
 11
0.25
 21
0.0
 31
0.0
 40
0.5773502692
 41
2.617993878
 42
3.1241393611
  0
ELLIPSE
  5
84F
100
AcDbEntity
  8
ASSI
100
AcDbEllipse
 62
7
  6
CONTINUOUS
 10
-9.0368706193
 20
23.5556624327
 30
0.0
 11
0.25
 21
0.0
 31
0.0
 40
0.5773502692
 41
2.617993878
 42
3.1241393611
  0
ELLIPSE
  5
850
100
AcDbEntity
  8
ASSI
100
AcDbEllipse
 62
7
  6
CONTINUOUS
 10
-40.6020704021
 20
23.2
 30
0.0
 11
26.3304431995
 21
-0.0
 31
0.0
 40
0.017367588
 41
-2.5701928713
 42
-2.3053277814
  0
ELLIPSE
  5
851
100
AcDbEntity
  8
ASSI
100
AcDbEllipse
 62
7
  6
CONTINUOUS
 10
-40.6020704021
 20
23.2
 30
0.0
 11
26.3304431995
 21
-0.0
 31
0.0
 40
0.017367588
 41
2.3053277814
 42
2.5701928713
  0
ELLIPSE
  5
852
100
AcDbEntity
  8
ASSI
100
AcDbEllipse
 62
7
  6
CONTINUOUS
 10
-40.6020704021
 20
-23.2
 30
0.0
 11
26.3304431995
 21
-0.0
 31
0.0
 40
0.017367588
 41
-2.5701928713
 42
-2.3053277814
  0
ELLIPSE
  5
853
100
AcDbEntity
  8
ASSI
100
AcDbEllipse
 62
7
  6
CONTINUOUS
 10
-40.6020704021
 20
-23.2
 30
0.0
 11
26.3304431995
 21
0.0
 31
0.0
 40
0.017367588
 41
2.3053277814
 42
2.5701928713
  0
ELLIPSE
  5
854
100
AcDbEntity
  8
ASSI
100
AcDbEllipse
 62
7
  6
CONTINUOUS
 10
-63.7301424137
 20
21.9003426489
 30
0.0
 11
57.2877742299
 21
3.0018677586
 31
0.0
 40
0.0087159045
 41
1.5706822257
 42
1.5925799468
  0
ELLIPSE
  5
855
100
AcDbEntity
  8
ASSI
100
AcDbEllipse
 62
7
  6
CONTINUOUS
 10
-63.7301424137
 20
-21.9003426489
 30
0.0
 11
57.2877742299
 21
-3.0018677586
 31
0.0
 40
0.0087159045
 41
4.6906053604
 42
4.7125030169
  0
ELLIPSE
  5
856
100
AcDbEntity
  8
DRAFT
100
AcDbEllipse
 62
7
  6
CONTINUOUS
 10
-29.4497735052
 20
10.0
 30
0.0
 11
-0.3299252556
 21
2.0739212439
 31
0.0
 40
1.0
 41
-0.1577608555
 42
0.8909636851
  0
ELLIPSE
  5
857
100
AcDbEntity
  8
DRAFT
100
AcDbEllipse
 62
7
  6
CONTINUOUS
 10
-29.4497735052
 20
10.0
 30
0.0
 11
0.0157164739
 21
2.0999411879
 31
0.0
 40
1.0
 41
-4.1828330892
 42
-3.1341085485
  0
ELLIPSE
  5
858
100
AcDbEntity
  8
DRAFT
100
AcDbEllipse
 62
7
  6
CONTINUOUS
 10
-29.4497735052
 20
5.0
 30
0.0
 11
1.9489337142
 21
-0.7820852752
 31
0.0
 40
1.0
 41
1.952413246
 42
3.0011377867
  0
ELLIPSE
  5
859
100
AcDbEntity
  8
DRAFT
100
AcDbEllipse
 62
7
  6
CONTINUOUS
 10
-29.4497735052
 20
5.0
 30
0.0
 11
1.1495475978
 21
1.7574243427
 31
0.0
 40
1.0
 41
-3.6110586119
 42
-2.5623340713
  0
ELLIPSE
  5
85A
100
AcDbEntity
  8
RACCORDO
100
AcDbEllipse
 62
7
  6
CONTINUOUS
 10
-24.2497735052
 20
7.1098634624
 30
0.0
 11
0.9999999954
 21
0.0055407478
 31
0.0
 40
0.0173607453
 41
0.0133490089
 42
1.5532468428
  0
ELLIPSE
  5
85B
100
AcDbEntity
  8
RACCORDO
100
AcDbEllipse
 62
7
  6
CONTINUOUS
 10
-24.2497735052
 20
2.8901365376
 30
0.0
 11
0.9999999954
 21
-0.0055407478
 31
0.0
 40
0.0173607453
 41
-1.5532468428
 42
-0.0133490089
  0
ELLIPSE
  5
85C
100
AcDbEntity
  8
RACCORDO
100
AcDbEllipse
 62
7
  6
CONTINUOUS
 10
-24.2497735052
 20
12.1098634624
 30
0.0
 11
0.9999999954
 21
0.0055407478
 31
0.0
 40
0.0173607453
 41
0.0133490089
 42
1.5532468428
  0
ELLIPSE
  5
85D
100
AcDbEntity
  8
RACCORDO
100
AcDbEllipse
 62
7
  6
CONTINUOUS
 10
-24.2497735052
 20
7.8901365376
 30
0.0
 11
0.9999999954
 21
-0.0055407478
 31
0.0
 40
0.0173607453
 41
-1.5532468428
 42
-0.0133490089
  0
ELLIPSE
  5
85E
100
AcDbEntity
  8
RACCORDO
100
AcDbEllipse
 62
7
  6
CONTINUOUS
 10
-24.2497735052
 20
17.1098634624
 30
0.0
 11
0.9999999954
 21
0.0055407478
 31
0.0
 40
0.0173607453
 41
0.0133490089
 42
1.5532468428
  0
ELLIPSE
  5
85F
100
AcDbEntity
  8
RACCORDO
100
AcDbEllipse
 62
7
  6
CONTINUOUS
 10
-24.2497735052
 20
12.8901365376
 30
0.0
 11
0.9999999954
 21
-0.0055407478
 31
0.0
 40
0.0173607453
 41
-1.5532468428
 42
-0.0133490089
  0
ELLIPSE
  5
860
100
AcDbEntity
  8
RACCORDO
100
AcDbEllipse
 62
7
  6
CONTINUOUS
 10
-24.2497735052
 20
-0.746397478
 30
0.0
 11
1.0
 21
0.0
 31
0.0
 40
0.2679491924
 41
-1.5533430343
 42
-0.0134452004
  0
ELLIPSE
  5
861
100
AcDbEntity
  8
RACCORDO
100
AcDbEllipse
 62
7
  6
CONTINUOUS
 10
-24.2497735052
 20
0.746397478
 30
0.0
 11
1.0
 21
0.0
 31
0.0
 40
0.2679491924
 41
0.0134452004
 42
1.5533430343
  0
ELLIPSE
  5
862
100
AcDbEntity
  8
RACCORDO
100
AcDbEllipse
 62
7
  6
CONTINUOUS
 10
-24.2497735052
 20
-5.746397478
 30
0.0
 11
1.0
 21
0.0
 31
0.0
 40
0.2679491924
 41
-1.5533430343
 42
-0.0134452004
  0
ELLIPSE
  5
863
100
AcDbEntity
  8
RACCORDO
100
AcDbEllipse
 62
7
  6
CONTINUOUS
 10
-24.2497735052
 20
-4.253602522
 30
0.0
 11
1.0
 21
-0.0
 31
0.0
 40
0.2679491924
 41
0.0134452004
 42
1.5533430343
  0
ELLIPSE
  5
864
100
AcDbEntity
  8
RACCORDO
100
AcDbEllipse
 62
7
  6
CONTINUOUS
 10
-24.2497735052
 20
-10.746397478
 30
0.0
 11
1.0
 21
-0.0
 31
0.0
 40
0.2679491924
 41
-1.5533430343
 42
-0.0134452004
  0
ELLIPSE
  5
865
100
AcDbEntity
  8
RACCORDO
100
AcDbEllipse
 62
7
  6
CONTINUOUS
 10
-24.2497735052
 20
-9.253602522
 30
0.0
 11
1.0
 21
0.0
 31
0.0
 40
0.2679491924
 41
0.0134452004
 42
1.5533430343
  0
ELLIPSE
  5
866
100
AcDbEntity
  8
RACCORDO
100
AcDbEllipse
 62
7
  6
CONTINUOUS
 10
-24.2497735052
 20
-15.746397478
 30
0.0
 11
1.0
 21
-0.0
 31
0.0
 40
0.2679491924
 41
-1.5533430343
 42
-0.0134452004
  0
ELLIPSE
  5
867
100
AcDbEntity
  8
RACCORDO
100
AcDbEllipse
 62
7
  6
CONTINUOUS
 10
-24.2497735052
 20
-14.253602522
 30
0.0
 11
1.0
 21
0.0
 31
0.0
 40
0.2679491924
 41
0.0134452004
 42
1.5533430343
  0
ELLIPSE
  5
868
100
AcDbEntity
  8
DRAFT
100
AcDbEllipse
 62
7
  6
CONTINUOUS
 10
-29.4497735052
 20
15.0
 30
0.0
 11
1.5759369001
 21
1.3879563706
 31
0.0
 40
1.0
 41
0.8487368419
 42
1.8974613825
  0
ELLIPSE
  5
869
100
AcDbEntity
  8
DRAFT
100
AcDbEllipse
 62
7
  6
CONTINUOUS
 10
-29.4497735052
 20
15.0
 30
0.0
 11
2.0997722006
 21
0.0309306575
 31
0.0
 40
1.0
 41
-2.6342502845
 42
-1.5855257439
  0
ELLIPSE
  5
86A
100
AcDbEntity
  8
ASSI
100
AcDbEllipse
 62
7
  6
CONTINUOUS
 10
-24.2497735052
 20
-14.253602522
 30
0.0
 11
1.0
 21
0.0
 31
0.0
 40
0.2679491924
 41
0.0134452004
 42
1.5533430343
  0
ELLIPSE
  5
86B
100
AcDbEntity
  8
ASSI
100
AcDbEllipse
 62
7
  6
CONTINUOUS
 10
-24.2497735052
 20
-15.746397478
 30
0.0
 11
1.0
 21
-0.0
 31
0.0
 40
0.2679491924
 41
-1.5533430343
 42
-0.0134452004
  0
ELLIPSE
  5
86C
100
AcDbEntity
  8
ASSI
100
AcDbEllipse
 62
7
  6
CONTINUOUS
 10
-24.2497735052
 20
-9.253602522
 30
0.0
 11
1.0
 21
0.0
 31
0.0
 40
0.2679491924
 41
0.0134452004
 42
1.5533430343
  0
ELLIPSE
  5
86D
100
AcDbEntity
  8
ASSI
100
AcDbEllipse
 62
7
  6
CONTINUOUS
 10
-24.2497735052
 20
-10.746397478
 30
0.0
 11
1.0
 21
-0.0
 31
0.0
 40
0.2679491924
 41
-1.5533430343
 42
-0.0134452004
  0
ELLIPSE
  5
86E
100
AcDbEntity
  8
ASSI
100
AcDbEllipse
 62
7
  6
CONTINUOUS
 10
-24.2497735052
 20
-4.253602522
 30
0.0
 11
1.0
 21
-0.0
 31
0.0
 40
0.2679491924
 41
0.0134452004
 42
1.5533430343
  0
ELLIPSE
  5
86F
100
AcDbEntity
  8
ASSI
100
AcDbEllipse
 62
7
  6
CONTINUOUS
 10
-24.2497735052
 20
-5.746397478
 30
0.0
 11
1.0
 21
0.0
 31
0.0
 40
0.2679491924
 41
-1.5533430343
 42
-0.0134452004
  0
ELLIPSE
  5
870
100
AcDbEntity
  8
ASSI
100
AcDbEllipse
 62
7
  6
CONTINUOUS
 10
-24.2497735052
 20
0.746397478
 30
0.0
 11
1.0
 21
0.0
 31
0.0
 40
0.2679491924
 41
0.0134452004
 42
1.5533430343
  0
ELLIPSE
  5
871
100
AcDbEntity
  8
ASSI
100
AcDbEllipse
 62
7
  6
CONTINUOUS
 10
-24.2497735052
 20
-0.746397478
 30
0.0
 11
1.0
 21
0.0
 31
0.0
 40
0.2679491924
 41
-1.5533430343
 42
-0.0134452004
  0
ELLIPSE
  5
872
100
AcDbEntity
  8
ASSI
100
AcDbEllipse
 62
7
  6
CONTINUOUS
 10
-29.4497735052
 20
10.0
 30
0.0
 11
-0.3299252556
 21
2.0739212439
 31
0.0
 40
1.0
 41
-0.1577608555
 42
0.8909636851
  0
ELLIPSE
  5
873
100
AcDbEntity
  8
ASSI
100
AcDbEllipse
 62
7
  6
CONTINUOUS
 10
-29.4497735052
 20
15.0
 30
0.0
 11
1.5759369001
 21
1.3879563706
 31
0.0
 40
1.0
 41
0.8487368419
 42
1.8974613825
  0
ELLIPSE
  5
874
100
AcDbEntity
  8
ASSI
100
AcDbEllipse
 62
7
  6
CONTINUOUS
 10
-24.2497735052
 20
12.8901365376
 30
0.0
 11
0.9999999954
 21
-0.0055407478
 31
0.0
 40
0.0173607453
 41
-1.5532468428
 42
-0.0133490089
  0
ELLIPSE
  5
875
100
AcDbEntity
  8
ASSI
100
AcDbEllipse
 62
7
  6
CONTINUOUS
 10
-24.2497735052
 20
17.1098634624
 30
0.0
 11
0.9999999954
 21
0.0055407478
 31
0.0
 40
0.0173607453
 41
0.0133490089
 42
1.5532468428
  0
ELLIPSE
  5
876
100
AcDbEntity
  8
ASSI
100
AcDbEllipse
 62
7
  6
CONTINUOUS
 10
-24.2497735052
 20
7.8901365376
 30
0.0
 11
0.9999999954
 21
-0.0055407478
 31
0.0
 40
0.0173607453
 41
-1.5532468428
 42
-0.0133490089
  0
ELLIPSE
  5
877
100
AcDbEntity
  8
ASSI
100
AcDbEllipse
 62
7
  6
CONTINUOUS
 10
-29.4497735052
 20
15.0
 30
0.0
 11
2.0997722006
 21
0.0309306575
 31
0.0
 40
1.0
 41
-2.6342502845
 42
-1.5855257439
  0
ELLIPSE
  5
878
100
AcDbEntity
  8
ASSI
100
AcDbEllipse
 62
7
  6
CONTINUOUS
 10
-24.2497735052
 20
12.1098634624
 30
0.0
 11
0.9999999954
 21
0.0055407478
 31
0.0
 40
0.0173607453
 41
0.0133490089
 42
1.5532468428
  0
ELLIPSE
  5
879
100
AcDbEntity
  8
ASSI
100
AcDbEllipse
 62
7
  6
CONTINUOUS
 10
-24.2497735052
 20
2.8901365376
 30
0.0
 11
0.9999999954
 21
-0.0055407478
 31
0.0
 40
0.0173607453
 41
-1.5532468428
 42
-0.0133490089
  0
ELLIPSE
  5
87A
100
AcDbEntity
  8
ASSI
100
AcDbEllipse
 62
7
  6
CONTINUOUS
 10
-24.2497735052
 20
7.1098634624
 30
0.0
 11
0.9999999954
 21
0.0055407478
 31
0.0
 40
0.0173607453
 41
0.0133490089
 42
1.5532468428
  0
ELLIPSE
  5
87B
100
AcDbEntity
  8
ASSI
100
AcDbEllipse
 62
7
  6
CONTINUOUS
 10
-29.4497735052
 20
10.0
 30
0.0
 11
0.0157164739
 21
2.0999411879
 31
0.0
 40
1.0
 41
-4.1828330892
 42
-3.1341085485
  0
ELLIPSE
  5
87C
100
AcDbEntity
  8
ASSI
100
AcDbEllipse
 62
7
  6
CONTINUOUS
 10
-29.4497735052
 20
5.0
 30
0.0
 11
1.9489337142
 21
-0.7820852752
 31
0.0
 40
1.0
 41
1.952413246
 42
3.0011377867
  0
ELLIPSE
  5
87D
100
AcDbEntity
  8
ASSI
100
AcDbEllipse
 62
7
  6
CONTINUOUS
 10
-29.4497735052
 20
5.0
 30
0.0
 11
1.1495475978
 21
1.7574243427
 31
0.0
 40
1.0
 41
-3.6110586119
 42
-2.5623340713
  0
ENDSEC
  0
SECTION
  2
OBJECTS
  0
DICTIONARY
  5
C
100
AcDbDictionary
280
0
281
1
  3
ACAD_GROUP
350
D
  3
ACAD_MLINESTYLE
350
17
  3
ACAD_LAYOUT
350
1A
  3
ACAD_PLOTSETTINGS
350
19
  3
ACAD_PLOTSTYLENAME
350
E
  0
DICTIONARY
  5
D
102
{ACAD_REACTORS
330
C
102
}
100
AcDbDictionary
280
0
281
1
  0
ACDBDICTIONARYWDFLT
  5
E
102
{ACAD_REACTORS
330
C
102
}
100
AcDbDictionary
281
1
  3
Normal
350
F
100
AcDbDictionaryWithDefault
340
F
  0
DICTIONARY
  5
17
102
{ACAD_REACTORS
330
C
102
}
100
AcDbDictionary
280
0
281
1
  3
Standard
350
18
  0
DICTIONARY
  5
19
102
{ACAD_REACTORS
330
C
102
}
100
AcDbDictionary
281
1
  0
DICTIONARY
  5
1A
102
{ACAD_REACTORS
330
C
102
}
100
AcDbDictionary
281
1
  3
Model
350
87E
  3
Layout1
350
87F
  0
ACDBPLACEHOLDER
  5
F
102
{ACAD_REACTORS
330
E
102
}
  0
MLINESTYLE
  5
18
102
{ACAD_REACTORS
330
17
102
}
100
AcDbMlineStyle
  2
STANDARD
 70
0
  3

 62
256
 51
90.0
 52
90.0
 71
2
 49
0.5
 62
256
  6
BYLAYER
 49
-0.5
 62
256
  6
BYLAYER
  0
LAYOUT
  5
87E
102
{ACAD_REACTORS
330
1A
102
}
100
AcDbPlotSettings
  1

  2
none_device
  4
ISO_A4_(297.00_x_210.00_MM)
  6

 40
0.0
 41
0.0
 42
0.0
 43
0.0
 44
297.0
 45
210.0
 46
0.0
 47
0.0
 48
0.0
 49
0.0
140
0.0
141
0.0
142
1.0
143
1.0
 70
1024
 72
1
 73
0
 74
0
  7

 75
0
147
1.0
148
0.0
149
0.0
100
AcDbLayout
  1
Model
 70
0
 71
0
 10
0.0
 20
0.0
 11
297.0
 21
210.0
 12
0.0
 22
0.0
 32
0.0
 14
0.0
 24
0.0
 34
0.0
 15
0.0
 25
0.0
 35
0.0
146
0.0
 13
0.0
 23
0.0
 33
0.0
 16
1.0
 26
0.0
 36
0.0
 17
0.0
 27
1.0
 37
0.0
 76
0
330
21D
345
0
346
0
  0
LAYOUT
  5
87F
102
{ACAD_REACTORS
330
1A
102
}
100
AcDbPlotSettings
  1

  2
none_device
  4
ISO_A4_(297.00_x_210.00_MM)
  6

 40
0.0
 41
0.0
 42
0.0
 43
0.0
 44
297.0
 45
210.0
 46
0.0
 47
0.0
 48
0.0
 49
0.0
140
0.0
141
0.0
142
1.0
143
1.0
 70
0
 72
1
 73
0
 74
0
  7

 75
0
147
1.0
148
0.0
149
0.0
100
AcDbLayout
  1
Layout1
 70
0
 71
1
 10
0.0
 20
0.0
 11
297.0
 21
210.0
 12
0.0
 22
0.0
 32
0.0
 14
0.0
 24
0.0
 34
0.0
 15
0.0
 25
0.0
 35
0.0
146
0.0
 13
0.0
 23
0.0
 33
0.0
 16
1.0
 26
0.0
 36
0.0
 17
0.0
 27
1.0
 37
0.0
 76
0
330
21E
345
0
346
0
  0
ENDSEC
  0
EOF
