  0
SECTION
  2
HEADER
  9
$ACADVER
  1
AC1015
  9
$DWGCODEPAGE
  3
ANSI_1252
  9
$EXTMAX
 10
297.0
 20
210.0
 30
0.0
  9
$EXTMIN
 10
0.0
 20
0.0
 30
0.0
  9
$LIMMIN
 10
0.0
 20
0.0
  9
$LIMMAX
 10
297.0
 20
210.0
  9
$VIEWCTR
 10
148.5
 20
105.0
  9
$VIEWSIZE
 40
210.0
  9
$CLAYER
  8
0
  9
$LTSCALE
 40
16.335
  9
$CELTYPE
  6
BYLAYER
  9
$DIMSCALE
 40
1.0
  9
$DIMASZ
 40
3.0
  9
$DIMEXO
 40
1.85625
  9
$DIMDLI
 40
11.286
  9
$DIMEXE
 40
5.346
  9
$DIMCEN
 40
2.673
  9
$DIMLFAC
 40
1.0
  9
$DIMBLK
  1
_FILLED
  9
$DIMTXT
 40
3.0
  9
$DIMTOL
 70
1
  9
$DIMLIM
 70
0
  9
$DIMTFAC
 40
1.0
  9
$DIMTP
 40
0.01
  9
$DIMTM
 40
0.01
  9
$PDMODE
 70
3
  9
$PDSIZE
 40
3.0
  9
$HANDSEED
  5
35D
  9
$TILEMODE
 70
1
  9
$MEASUREMENT
 70
1
  9
$INSUNITS
 70
4
  0
ENDSEC
  0
SECTION
  2
CLASSES
  0
CLASS
  1
ACDBDICTIONARYWDFLT
  2
AcDbDictionaryWithDefault
  3
AutoCAD 2000
 90
0
280
0
281
0
  0
CLASS
  1
ACDBPLACEHOLDER
  2
AcDbPlaceHolder
  3
AutoCAD 2000
 90
0
280
0
281
0
  0
CLASS
  1
LAYOUT
  2
AcDbLayout
  3
AutoCAD 2000
 90
0
280
0
281
0
  0
ENDSEC
  0
SECTION
  2
TABLES
  0
TABLE
  2
VPORT
  5
8
100
AcDbSymbolTable
 70
2
  0
VPORT
  5
1F4
100
AcDbSymbolTableRecord
100
AcDbViewportTableRecord
  2
*ACTIVE
 70
0
 10
0.0
 20
0.0
 11
1.0
 21
1.0
 12
148.5
 22
105.0
 13
0.0
 23
0.0
 14
1.0
 24
1.0
 15
0.0
 25
0.0
 16
0.0
 26
0.0
 36
1.0
 17
0.0
 27
0.0
 37
0.0
 40
210.0
 41
1.4142857143
 42
50.0
 43
0.0
 44
0.0
 50
0.0
 51
0.0
 71
0
 72
100
 73
1
 74
1
 75
0
 76
0
 77
0
 78
0
  0
ENDTAB
  0
TABLE
  2
LTYPE
  5
5
100
AcDbSymbolTable
 70
6
  0
LTYPE
  5
14
100
AcDbSymbolTableRecord
100
AcDbLinetypeTableRecord
  2
BYBLOCK
 70
0
  3

 72
65
 73
0
 40
0.0
  0
LTYPE
  5
15
100
AcDbSymbolTableRecord
100
AcDbLinetypeTableRecord
  2
BYLAYER
 70
0
  3

 72
65
 73
0
 40
0.0
  0
LTYPE
  5
16
100
AcDbSymbolTableRecord
100
AcDbLinetypeTableRecord
  2
CONTINUOUS
 70
64
  3
Solid line
 72
65
 73
0
 40
0.0
  0
LTYPE
  5
1F5
100
AcDbSymbolTableRecord
100
AcDbLinetypeTableRecord
  2
CENTER
 70
64
  3
____ _ ____ _ ____ _ ____ _ ____ _ ____ _ ____
 72
65
 73
4
 40
0.6
 49
0.375
 74
0
 49
-0.075
 74
0
 49
0.075
 74
0
 49
-0.075
 74
0
  0
LTYPE
  5
1F6
100
AcDbSymbolTableRecord
100
AcDbLinetypeTableRecord
  2
HIDDEN
 70
64
  3
- - - - - - - - - - - - - - - - - - - -
 72
65
 73
2
 40
0.2
 49
0.1
 74
0
 49
-0.1
 74
0
  0
LTYPE
  5
1F7
100
AcDbSymbolTableRecord
100
AcDbLinetypeTableRecord
  2
PHANTOM
 70
64
  3
_____ _ _ _____ _ _ _____ _ _ _____
 72
65
 73
6
 40
0.8
 49
0.45
 74
0
 49
-0.05
 74
0
 49
0.1
 74
0
 49
-0.05
 74
0
 49
0.1
 74
0
 49
-0.05
 74
0
  0
LTYPE
  5
1F8
100
AcDbSymbolTableRecord
100
AcDbLinetypeTableRecord
  2
DOT
 70
64
  3
. . . . . . . . . . . . . . . . . . . .
 72
65
 73
2
 40
0.2
 49
0.1
 74
0
 49
-0.1
 74
0
  0
LTYPE
  5
1F9
100
AcDbSymbolTableRecord
100
AcDbLinetypeTableRecord
  2
DASHED
 70
64
  3
- - - - - - - - - - - - - - - - - - - -
 72
65
 73
2
 40
0.2
 49
0.1
 74
0
 49
-0.1
 74
0
  0
ENDTAB
  0
TABLE
  2
LAYER
  5
2
100
AcDbSymbolTable
 70
36
  0
LAYER
  5
10
100
AcDbSymbolTableRecord
100
AcDbLayerTableRecord
  2
0
 70
0
 62
7
  6
CONTINUOUS
370
-3
390
F
  0
LAYER
  5
1FA
100
AcDbSymbolTableRecord
100
AcDbLayerTableRecord
  2
DEFAULT_1
 70
0
 62
7
  6
CENTER
370
-3
390
F
  0
LAYER
  5
1FB
100
AcDbSymbolTableRecord
100
AcDbLayerTableRecord
  2
DEFAULT_2
 70
0
 62
7
  6
HIDDEN
370
-3
390
F
  0
LAYER
  5
1FC
100
AcDbSymbolTableRecord
100
AcDbLayerTableRecord
  2
DEFAULT_3
 70
0
 62
7
  6
PHANTOM
370
-3
390
F
  0
LAYER
  5
1FD
100
AcDbSymbolTableRecord
100
AcDbLayerTableRecord
  2
ASSI
 70
0
 62
7
  6
CONTINUOUS
370
-3
390
F
  0
LAYER
  5
1FE
100
AcDbSymbolTableRecord
100
AcDbLayerTableRecord
  2
COORDINATE
 70
0
 62
7
  6
CONTINUOUS
370
-3
390
F
  0
LAYER
  5
1FF
100
AcDbSymbolTableRecord
100
AcDbLayerTableRecord
  2
COPY_PUBLISH
 70
0
 62
7
  6
CONTINUOUS
370
-3
390
F
  0
LAYER
  5
200
100
AcDbSymbolTableRecord
100
AcDbLayerTableRecord
  2
COSMETIC
 70
0
 62
7
  6
CONTINUOUS
370
-3
390
F
  0
LAYER
  5
201
100
AcDbSymbolTableRecord
100
AcDbLayerTableRecord
  2
COSMETICI
 70
0
 62
7
  6
CONTINUOUS
370
-3
390
F
  0
LAYER
  5
202
100
AcDbSymbolTableRecord
100
AcDbLayerTableRecord
  2
CURVE
 70
0
 62
7
  6
CONTINUOUS
370
-3
390
F
  0
LAYER
  5
203
100
AcDbSymbolTableRecord
100
AcDbLayerTableRecord
  2
DRAFT
 70
0
 62
7
  6
CONTINUOUS
370
-3
390
F
  0
LAYER
  5
204
100
AcDbSymbolTableRecord
100
AcDbLayerTableRecord
  2
IMPORT_IGES
 70
0
 62
7
  6
CONTINUOUS
370
-3
390
F
  0
LAYER
  5
205
100
AcDbSymbolTableRecord
100
AcDbLayerTableRecord
  2
INTFCLR_11
 70
0
 62
7
  6
CONTINUOUS
370
-3
390
F
  0
LAYER
  5
206
100
AcDbSymbolTableRecord
100
AcDbLayerTableRecord
  2
INTF_1
 70
0
 62
7
  6
CONTINUOUS
370
-3
390
F
  0
LAYER
  5
207
100
AcDbSymbolTableRecord
100
AcDbLayerTableRecord
  2
INTF_3
 70
0
 62
7
  6
CONTINUOUS
370
-3
390
F
  0
LAYER
  5
208
100
AcDbSymbolTableRecord
100
AcDbLayerTableRecord
  2
NOTE
 70
0
 62
7
  6
CONTINUOUS
370
-3
390
F
  0
LAYER
  5
209
100
AcDbSymbolTableRecord
100
AcDbLayerTableRecord
  2
PIANI
 70
0
 62
7
  6
CONTINUOUS
370
-3
390
F
  0
LAYER
  5
20A
100
AcDbSymbolTableRecord
100
AcDbLayerTableRecord
  2
PUNTI
 70
0
 62
7
  6
CONTINUOUS
370
-3
390
F
  0
LAYER
  5
20B
100
AcDbSymbolTableRecord
100
AcDbLayerTableRecord
  2
RACCORDO
 70
0
 62
7
  6
CONTINUOUS
370
-3
390
F
  0
LAYER
  5
20C
100
AcDbSymbolTableRecord
100
AcDbLayerTableRecord
  2
SIMBOLI
 70
0
 62
7
  6
CONTINUOUS
370
-3
390
F
  0
LAYER
  5
20D
100
AcDbSymbolTableRecord
100
AcDbLayerTableRecord
  2
SMUSSO
 70
0
 62
7
  6
CONTINUOUS
370
-3
390
F
  0
LAYER
  5
20E
100
AcDbSymbolTableRecord
100
AcDbLayerTableRecord
  2
SNAPLINE
 70
0
 62
7
  6
CONTINUOUS
370
-3
390
F
  0
LAYER
  5
20F
100
AcDbSymbolTableRecord
100
AcDbLayerTableRecord
  2
SUPERFICI
 70
0
 62
7
  6
CONTINUOUS
370
-3
390
F
  0
LAYER
  5
210
100
AcDbSymbolTableRecord
100
AcDbLayerTableRecord
  2
TRASH
 70
0
 62
7
  6
CONTINUOUS
370
-3
390
F
  0
LAYER
  5
211
100
AcDbSymbolTableRecord
100
AcDbLayerTableRecord
  2
___SHELL
 70
0
 62
7
  6
CONTINUOUS
370
-3
390
F
  0
ENDTAB
  0
TABLE
  2
STYLE
  5
3
100
AcDbSymbolTable
 70
1
  0
STYLE
  5
11
100
AcDbSymbolTableRecord
100
AcDbTextStyleTableRecord
  2
STANDARD
 70
0
 40
0.0
 41
0.8
 50
0.0
 71
0
 42
0.2
  3
txt
  4

  0
STYLE
  5
212
100
AcDbSymbolTableRecord
100
AcDbTextStyleTableRecord
  2
TEXTSTYLE_1
 70
0
 40
0.0
 41
0.8
 50
0.0
 71
0
 42
0.2
  3
gdt
  4

  0
ENDTAB
  0
TABLE
  2
VIEW
  5
6
100
AcDbSymbolTable
 70
0
  0
ENDTAB
  0
TABLE
  2
UCS
  5
7
100
AcDbSymbolTable
 70
0
  0
ENDTAB
  0
TABLE
  2
APPID
  5
9
100
AcDbSymbolTable
 70
1
  0
APPID
  5
213
100
AcDbSymbolTableRecord
100
AcDbRegAppTableRecord
  2
ACAD
 70
0
  0
ENDTAB
  0
TABLE
  2
BLOCK_RECORD
  5
1
100
AcDbSymbolTable
 70
0
  0
BLOCK_RECORD
  5
214
100
AcDbSymbolTableRecord
100
AcDbBlockTableRecord
  2
*Model_Space
  0
BLOCK_RECORD
  5
215
100
AcDbSymbolTableRecord
100
AcDbBlockTableRecord
  2
*Paper_Space
  0
BLOCK_RECORD
  5
216
100
AcDbSymbolTableRecord
100
AcDbBlockTableRecord
  2
_FILLED
  0
BLOCK_RECORD
  5
217
100
AcDbSymbolTableRecord
100
AcDbBlockTableRecord
  2
*D0
  0
BLOCK_RECORD
  5
218
100
AcDbSymbolTableRecord
100
AcDbBlockTableRecord
  2
*D1
  0
BLOCK_RECORD
  5
219
100
AcDbSymbolTableRecord
100
AcDbBlockTableRecord
  2
*D2
  0
ENDTAB
  0
TABLE
  2
DIMSTYLE
  5
A
100
AcDbSymbolTable
 70
1
100
AcDbDimStyleTable
 71
0
  0
DIMSTYLE
105
21A
100
AcDbSymbolTableRecord
100
AcDbDimStyleTableRecord
  2
STANDARD
 70
0
  3

  4

 40
1.0
 41
3.0
 42
0.0625
 43
0.38
 44
0.18
 45
0.0
 46
0.0
 47
0.01
 48
0.01
140
3.0
141
0.09
142
0.0
143
25.4
144
1.0
145
0.0
146
1.0
147
0.09
 71
1.0
 72
0.0
 73
0
 74
0
 75
0
 76
0
 77
1
 78
8
170
0
171
2
172
0
173
0
174
0
175
0
176
0
177
0
178
0
270
2
271
2
272
2
273
2
274
2
275
0
280
0
281
0
282
0
283
1
284
8
285
0
286
0
287
3
288
0
340
11
341
216
342
216
343
216
344
216
  0
DIMSTYLE
105
21B
100
AcDbSymbolTableRecord
100
AcDbDimStyleTableRecord
  2
DIMSTYLE_1
 70
0
  3

  4

 40
1.0
 41
3.0
 42
0.0625
 43
0.38
 44
0.18
 45
0.0
 46
0.0
 47
0.0
 48
0.0
140
3.0
141
0.09
142
0.0
143
25.4
144
1.0
145
0.0
146
1.0
147
0.09
 71
0.0
 72
0.0
 73
0
 74
0
 75
0
 76
0
 77
1
 78
8
170
0
171
2
172
0
173
0
174
0
175
0
176
0
177
0
178
0
270
2
271
1
272
1
273
2
274
2
275
0
280
0
281
0
282
0
283
1
284
8
285
0
286
0
287
3
288
0
340
11
341
216
342
216
343
216
344
216
  0
ENDTAB
  0
ENDSEC
  0
SECTION
  2
BLOCKS
  0
BLOCK
  5
20
100
AcDbEntity
  8
0
100
AcDbBlockBegin
  2
*Model_Space
 70
0
 10
0.0
 20
0.0
 30
0.0
  3
*Model_Space
  1

  0
ENDBLK
  5
21
100
AcDbEntity
  8
0
100
AcDbBlockEnd
  0
BLOCK
  5
1C
100
AcDbEntity
  8
0
100
AcDbBlockBegin
  2
*Paper_Space
 70
0
 10
0.0
 20
0.0
 30
0.0
  3
*Paper_Space
  1

  0
ENDBLK
  5
1D
100
AcDbEntity
  8
0
100
AcDbBlockEnd
  0
BLOCK
  5
21C
100
AcDbEntity
  8
0
100
AcDbBlockBegin
  2
_FILLED
 70
64
 10
0.0
 20
0.0
  3
_FILLED
  1

  0
SOLID
  5
21D
100
AcDbEntity
  8
0
  6
BYBLOCK
 62
0
100
AcDbTrace
 10
0.0
 20
0.0
 11
-1.0
 21
0.3166666667
 12
-1.0
 22
-0.3166666667
 13
-1.0
 23
-0.3166666667
  0
ENDBLK
  5
21E
100
AcDbEntity
  8
0
  6
BYBLOCK
 62
0
100
AcDbBlockEnd
  0
BLOCK
  5
21F
100
AcDbEntity
  8
0
100
AcDbBlockBegin
 62
7
  6
CONTINUOUS
  2
*D0
 70
65
 10
0.0
 20
0.0
  3
*D0
  1

  0
LINE
  5
220
100
AcDbEntity
  8
0
100
AcDbLine
 62
7
  6
CONTINUOUS
 10
-22.287406726
 20
22.4305789785
 11
-22.287406726
 21
36.8943938178
  0
LINE
  5
221
100
AcDbEntity
  8
0
100
AcDbLine
 62
7
  6
CONTINUOUS
 10
22.287406726
 20
22.1124414913
 11
22.287406726
 21
36.8943938178
  0
LINE
  5
222
100
AcDbEntity
  8
0
100
AcDbLine
 62
7
  6
CONTINUOUS
 10
-22.287406726
 20
35.3943938178
 11
0.0
 21
35.3943938178
  0
LINE
  5
223
100
AcDbEntity
  8
0
100
AcDbLine
 62
7
  6
CONTINUOUS
 10
22.287406726
 20
35.3943938178
 11
0.0
 21
35.3943938178
  0
INSERT
  5
224
100
AcDbEntity
  8
0
100
AcDbBlockReference
 62
7
  6
CONTINUOUS
  2
_FILLED
 10
-22.287406726
 20
35.3943938178
 41
3.0
 42
3.0
 43
3.0
 50
180.0
  0
INSERT
  5
225
100
AcDbEntity
  8
0
100
AcDbBlockReference
 62
7
  6
CONTINUOUS
  2
_FILLED
 10
22.287406726
 20
35.3943938178
 41
3.0
 42
3.0
 43
3.0
 50
0.0
  0
ENDBLK
  5
226
100
AcDbEntity
  8
0
  6
BYBLOCK
 62
0
100
AcDbBlockEnd
  0
BLOCK
  5
227
100
AcDbEntity
  8
0
100
AcDbBlockBegin
 62
7
  6
CONTINUOUS
  2
*D1
 70
65
 10
0.0
 20
0.0
  3
*D1
  1

  0
LINE
  5
228
100
AcDbEntity
  8
0
100
AcDbLine
 62
7
  6
CONTINUOUS
 10
23.0867922693
 20
22.1117562587
 11
36.6165999395
 21
22.1117562587
  0
LINE
  5
229
100
AcDbEntity
  8
0
100
AcDbLine
 62
7
  6
CONTINUOUS
 10
23.2448629553
 20
-22.1117562587
 11
36.6165999395
 21
-22.1117562587
  0
LINE
  5
22A
100
AcDbEntity
  8
0
100
AcDbLine
 62
7
  6
CONTINUOUS
 10
35.1165999395
 20
22.1117562587
 11
35.1165999395
 21
-0.0
  0
LINE
  5
22B
100
AcDbEntity
  8
0
100
AcDbLine
 62
7
  6
CONTINUOUS
 10
35.1165999395
 20
-22.1117562587
 11
35.1165999395
 21
-0.0
  0
INSERT
  5
22C
100
AcDbEntity
  8
0
100
AcDbBlockReference
 62
7
  6
CONTINUOUS
  2
_FILLED
 10
35.1165999395
 20
22.1117562587
 41
3.0
 42
3.0
 43
3.0
 50
90.0
  0
INSERT
  5
22D
100
AcDbEntity
  8
0
100
AcDbBlockReference
 62
7
  6
CONTINUOUS
  2
_FILLED
 10
35.1165999395
 20
-22.1117562587
 41
3.0
 42
3.0
 43
3.0
 50
270.0
  0
ENDBLK
  5
22E
100
AcDbEntity
  8
0
  6
BYBLOCK
 62
0
100
AcDbBlockEnd
  0
BLOCK
  5
22F
100
AcDbEntity
  8
0
100
AcDbBlockBegin
 62
7
  6
CONTINUOUS
  2
*D2
 70
65
 10
0.0
 20
0.0
  3
*D2
  1

  0
LINE
  5
230
100
AcDbEntity
  8
0
100
AcDbLine
 62
7
  6
CONTINUOUS
 10
-34.0102264717
 20
13.7689805518
 11
-34.0102264717
 21
36.8943938178
  0
LINE
  5
231
100
AcDbEntity
  8
0
100
AcDbLine
 62
7
  6
CONTINUOUS
 10
-38.701548737
 20
2.6537495439
 11
-38.701548737
 21
36.8943938178
  0
LINE
  5
232
100
AcDbEntity
  8
0
100
AcDbLine
 62
7
  6
CONTINUOUS
 10
-34.0102264717
 20
35.3943938178
 11
-30.0102264717
 21
35.3943938178
  0
LINE
  5
233
100
AcDbEntity
  8
0
100
AcDbLine
 62
7
  6
CONTINUOUS
 10
-30.0102264717
 20
35.3943938178
 11
-36.3558876044
 21
35.3943938178
  0
LINE
  5
234
100
AcDbEntity
  8
0
100
AcDbLine
 62
7
  6
CONTINUOUS
 10
-38.701548737
 20
35.3943938178
 11
-51.5594604257
 21
35.3943938178
  0
LINE
  5
235
100
AcDbEntity
  8
0
100
AcDbLine
 62
7
  6
CONTINUOUS
 10
-51.5594604257
 20
35.3943938178
 11
-36.3558876044
 21
35.3943938178
  0
INSERT
  5
236
100
AcDbEntity
  8
0
100
AcDbBlockReference
 62
7
  6
CONTINUOUS
  2
_FILLED
 10
-34.0102264717
 20
35.3943938178
 41
3.0
 42
3.0
 43
3.0
 50
180.0
  0
INSERT
  5
237
100
AcDbEntity
  8
0
100
AcDbBlockReference
 62
7
  6
CONTINUOUS
  2
_FILLED
 10
-38.701548737
 20
35.3943938178
 41
3.0
 42
3.0
 43
3.0
  0
ENDBLK
  5
238
100
AcDbEntity
  8
0
  6
BYBLOCK
 62
0
100
AcDbBlockEnd
  0
ENDSEC
  0
SECTION
  2
ENTITIES
  0
DIMENSION
  5
239
100
AcDbEntity
  8
0
100
AcDbDimension
 62
7
  6
CONTINUOUS
  2
*D0
 10
22.287406726
 20
35.3943938178
 11
-4.3928571429
 21
36.1443938178
 70
160
 71
2
 42
44.574813452
  3
DIMSTYLE_1
100
AcDbAlignedDimension
 13
-22.287406726
 23
22.4305789785
 14
22.287406726
 24
22.1124414913
100
AcDbRotatedDimension
  0
DIMENSION
  5
23A
100
AcDbEntity
  8
0
100
AcDbDimension
 62
7
  6
CONTINUOUS
  2
*D1
 10
35.1165999395
 20
-22.1117562587
 11
34.3665999395
 21
-4.3928571429
 70
160
 71
2
 42
44.2235125174
  3
DIMSTYLE_1
100
AcDbAlignedDimension
 13
23.0867922693
 23
22.1117562587
 14
23.2448629553
 24
-22.1117562587
 50
270.0
100
AcDbRotatedDimension
  0
DIMENSION
  5
23B
100
AcDbEntity
  8
0
100
AcDbDimension
 62
7
  6
CONTINUOUS
  2
*D2
 10
-38.701548737
 20
35.3943938178
 11
-51.5594604257
 21
36.1443938178
 70
160
 71
3
 42
4.6913222653
  3
DIMSTYLE_1
100
AcDbAlignedDimension
 13
-34.0102264717
 23
13.7689805518
 14
-38.701548737
 24
2.6537495439
 50
180.0
100
AcDbRotatedDimension
  0
LWPOLYLINE
  5
23C
100
AcDbEntity
  8
0
100
AcDbPolyline
 62
7
  6
CONTINUOUS
 90
10
 70
0
 43
0.3500000006
 10
3.1071428747
 20
39.1443921204
 10
2.464285738
 20
38.5015386658
 10
2.0357142191
 20
37.6443916626
 10
2.0357142191
 20
36.5729647064
 10
2.464285738
 20
36.1443957367
 10
3.1071428747
 20
36.1443957367
 10
3.5357143936
 20
36.5729647064
 10
3.5357143936
 20
37.4301071777
 10
3.1071428747
 20
37.8586806793
 10
2.1785714865
 20
37.8586806793
  0
LWPOLYLINE
  5
23D
100
AcDbEntity
  8
RACCORDO
100
AcDbPolyline
 62
253
  6
CONTINUOUS
 90
16
 70
0
 10
21.7023437668
 20
-22.0260080669
 10
21.7544465492
 20
-22.023139509
 10
21.8059803902
 20
-22.014850594
 10
21.8563826301
 20
-22.0012318436
 10
21.9051029827
 20
-21.9824319648
 10
21.9516094979
 20
-21.9586562426
 10
21.9953943773
 20
-21.9301643127
 10
22.0359795809
 20
-21.8972672924
 10
22.0729220251
 20
-21.8603243785
 10
22.1058183837
 20
-21.8197389571
 10
22.1343095197
 20
-21.7759541764
 10
22.1580844095
 20
-21.7294480923
 10
22.1768835218
 20
-21.68072846
 10
22.1905016458
 20
-21.630327203
 10
22.198790135
 20
-21.5787946072
 10
22.2016585342
 20
-21.5266932995
  0
LWPOLYLINE
  5
23E
100
AcDbEntity
  8
RACCORDO
100
AcDbPolyline
 62
253
  6
CONTINUOUS
 90
16
 70
0
 10
-21.7023437492
 20
-22.0260080493
 10
-21.754445872
 20
-22.0231395627
 10
-21.8059791402
 20
-22.0148508418
 10
-21.8563809102
 20
-22.0012323836
 10
-21.9051008919
 20
-21.9824328752
 10
-21.9516071574
 20
-21.9586575711
 10
-21.9953919481
 20
-21.9301660514
 10
-22.0359772186
 20
-21.8972693888
 10
-22.0729198563
 20
-21.860326751
 10
-22.1058165189
 20
-21.8197414805
 10
-22.1343080384
 20
-21.7759566898
 10
-22.1580833425
 20
-21.7294504243
 10
-22.1768828509
 20
-21.6807304426
 10
-22.1905013091
 20
-21.6303286727
 10
-22.1987900299
 20
-21.5787954046
 10
-22.2016585166
 20
-21.5266932819
  0
LINE
  5
23F
100
AcDbEntity
  8
RACCORDO
100
AcDbLine
 62
253
  6
CONTINUOUS
 10
-21.6947031525
 20
21.8950684657
 11
-21.6924606727
 21
21.8076660712
  0
LINE
  5
240
100
AcDbEntity
  8
RACCORDO
100
AcDbLine
 62
253
  6
CONTINUOUS
 10
-22.170681661
 20
21.1403470978
 11
-22.1687021312
 21
21.0493096838
  0
LINE
  5
241
100
AcDbEntity
  8
RACCORDO
100
AcDbLine
 62
253
  6
CONTINUOUS
 10
-21.6924606727
 20
21.8076660712
 11
-21.6904669458
 21
21.7009339172
  0
LINE
  5
242
100
AcDbEntity
  8
RACCORDO
100
AcDbLine
 62
253
  6
CONTINUOUS
 10
-22.1687021312
 20
21.0493096838
 11
-22.167416629
 21
20.9546247098
  0
LINE
  5
243
100
AcDbEntity
  8
RACCORDO
100
AcDbLine
 62
253
  6
CONTINUOUS
 10
-21.6904669458
 20
21.7009339172
 11
-21.6879808233
 21
21.5093244253
  0
LINE
  5
244
100
AcDbEntity
  8
RACCORDO
100
AcDbLine
 62
253
  6
CONTINUOUS
 10
-21.6879808233
 20
21.5093244253
 11
-21.6857987396
 21
21.2086712693
  0
LINE
  5
245
100
AcDbEntity
  8
RACCORDO
100
AcDbLine
 62
253
  6
CONTINUOUS
 10
-22.167416629
 20
20.9546247098
 11
-22.1668384275
 21
20.8570387366
  0
LWPOLYLINE
  5
246
100
AcDbEntity
  8
RACCORDO
100
AcDbPolyline
 62
253
  6
CONTINUOUS
 90
9
 70
0
 10
-22.1668384275
 20
20.8570387366
 10
-22.1577103532
 20
16.2236957683
 10
-22.1508642975
 20
11.5895754055
 10
-22.1463002606
 20
6.9546776482
 10
-22.1440182427
 20
2.3184841468
 10
-22.1440182435
 20
-2.3184867491
 10
-22.1463002624
 20
-6.9546799903
 10
-22.1508642993
 20
-11.5895772271
 10
-22.1577103543
 20
-16.2236968092
  0
LWPOLYLINE
  5
247
100
AcDbEntity
  8
RACCORDO
100
AcDbPolyline
 62
253
  6
CONTINUOUS
 90
8
 70
0
 10
-21.6778538644
 20
16.2407570029
 10
-21.6724376572
 20
11.6018160204
 10
-21.6688268518
 20
6.9616915799
 10
-21.6670214495
 20
2.3206845026
 10
-21.6670214504
 20
-2.3206884478
 10
-21.668826854
 20
-6.9616951304
 10
-21.6724376594
 20
-11.6018187816
 10
-21.6778538659
 20
-16.2407585807
  0
LINE
  5
248
100
AcDbEntity
  8
RACCORDO
100
AcDbLine
 62
253
  6
CONTINUOUS
 10
-21.6857987396
 20
21.2086712693
 11
-21.6778538644
 21
16.2407570029
  0
LINE
  5
249
100
AcDbEntity
  8
0
100
AcDbLine
 62
7
  6
CONTINUOUS
 10
-22.287406726
 20
21.6124414913
 11
-22.287406726
 21
-21.6124414913
  0
LINE
  5
24A
100
AcDbEntity
  8
RACCORDO
100
AcDbLine
 62
253
  6
CONTINUOUS
 10
-21.6778538659
 20
-16.2407585807
 11
-21.6852567712
 21
-21.0455560812
  0
LINE
  5
24B
100
AcDbEntity
  8
RACCORDO
100
AcDbLine
 62
253
  6
CONTINUOUS
 10
-22.1577103543
 20
-16.2236968092
 11
-22.1670396041
 21
-20.906217702
  0
LINE
  5
24C
100
AcDbEntity
  8
RACCORDO
100
AcDbLine
 62
253
  6
CONTINUOUS
 10
-21.6852567712
 20
-21.0455560812
 11
-21.6867133762
 21
-21.3642660287
  0
LINE
  5
24D
100
AcDbEntity
  8
RACCORDO
100
AcDbLine
 62
253
  6
CONTINUOUS
 10
-21.6867133762
 20
-21.3642660287
 11
-21.6887278514
 21
-21.576995267
  0
LINE
  5
24E
100
AcDbEntity
  8
RACCORDO
100
AcDbLine
 62
253
  6
CONTINUOUS
 10
-22.1670396041
 20
-20.906217702
 11
-22.1679690498
 21
-21.0022169117
  0
LINE
  5
24F
100
AcDbEntity
  8
RACCORDO
100
AcDbLine
 62
253
  6
CONTINUOUS
 10
-21.6887278514
 20
-21.576995267
 11
-21.6904666751
 21
-21.7009353181
  0
LWPOLYLINE
  5
250
100
AcDbEntity
  8
RACCORDO
100
AcDbPolyline
 62
253
  6
CONTINUOUS
 90
18
 70
0
 10
-22.1679690498
 20
-21.0022169117
 10
-22.1696101426
 20
-21.0955695597
 10
-22.1706809495
 20
-21.1403189239
 10
-22.1719164945
 20
-21.1834905098
 10
-22.1733144512
 20
-21.2251282561
 10
-22.1748545557
 20
-21.2646163791
 10
-22.1765390738
 20
-21.3019250411
 10
-22.1783657396
 20
-21.3370840798
 10
-22.1803074917
 20
-21.369567225
 10
-22.1823660363
 20
-21.3993327255
 10
-22.1845396673
 20
-21.4264223325
 10
-22.1867962049
 20
-21.4504350292
 10
-22.1891380186
 20
-21.4713260608
 10
-22.191562739
 20
-21.489140182
 10
-22.1940310779
 20
-21.5036106401
 10
-22.196529939
 20
-21.5146485172
 10
-22.1990724186
 20
-21.5223427312
 10
-22.2016585166
 20
-21.5266932819
  0
LINE
  5
251
100
AcDbEntity
  8
RACCORDO
100
AcDbLine
 62
253
  6
CONTINUOUS
 10
-21.6904666751
 20
-21.7009353181
 11
-21.6924604453
 21
-21.8076670285
  0
LWPOLYLINE
  5
252
100
AcDbEntity
  8
RACCORDO
100
AcDbPolyline
 62
253
  6
CONTINUOUS
 90
8
 70
0
 10
-21.6924604453
 20
-21.8076670285
 10
-21.6947030398
 20
-21.8950690731
 10
-21.6958885828
 20
-21.9309580933
 10
-21.6971338184
 20
-21.9613944703
 10
-21.6983935316
 20
-21.9862291518
 10
-21.6996622345
 20
-22.0053370027
 10
-21.700974096
 20
-22.0186195414
 10
-21.7023437492
 20
-22.0260080493
  0
LWPOLYLINE
  5
253
100
AcDbEntity
  8
RACCORDO
100
AcDbPolyline
 62
253
  6
CONTINUOUS
 90
14
 70
0
 10
21.7829205257
 20
-20.8773337176
 10
21.8303890742
 20
-20.8766470669
 10
21.8762661728
 20
-20.8757688125
 10
21.9201035305
 20
-20.8747075363
 10
21.9614727877
 20
-20.8734736086
 10
21.9999697021
 20
-20.8720790869
 10
22.0352180986
 20
-20.8705375977
 10
22.0668735452
 20
-20.8688642039
 10
22.0946267186
 20
-20.867075257
 10
22.1182064271
 20
-20.865188238
 10
22.1373822599
 20
-20.863221586
 10
22.1519668391
 20
-20.8611945182
 10
22.1618176507
 20
-20.8591268422
 10
22.1668384366
 20
-20.8570387625
  0
LINE
  5
254
100
AcDbEntity
  8
RACCORDO
100
AcDbLine
 62
253
  6
CONTINUOUS
 10
21.6850754654
 20
-20.8781073069
 11
21.7829205257
 21
-20.8773337176
  0
LINE
  5
255
100
AcDbEntity
  8
RACCORDO
100
AcDbLine
 62
253
  6
CONTINUOUS
 10
-21.7023437504
 20
-22.0260080504
 11
-14.9351825669
 21
-22.0154308735
  0
LINE
  5
256
100
AcDbEntity
  8
RACCORDO
100
AcDbLine
 62
253
  6
CONTINUOUS
 10
-14.9351825669
 20
-22.0154308735
 11
-8.1922764616
 21
-22.0087774091
  0
LINE
  5
257
100
AcDbEntity
  8
RACCORDO
100
AcDbLine
 62
253
  6
CONTINUOUS
 10
-21.685075472
 20
-20.8781072465
 11
-8.1841943372
 21
-20.8713008997
  0
LINE
  5
258
100
AcDbEntity
  8
RACCORDO
100
AcDbLine
 62
253
  6
CONTINUOUS
 10
-8.1922764616
 20
-22.0087774091
 11
-1.386525139
 21
-22.005995887
  0
LINE
  5
259
100
AcDbEntity
  8
0
100
AcDbLine
 62
7
  6
CONTINUOUS
 10
-21.7880919586
 20
-22.1117562587
 11
21.7880919586
 21
-22.1117562587
  0
LINE
  5
25A
100
AcDbEntity
  8
RACCORDO
100
AcDbLine
 62
253
  6
CONTINUOUS
 10
-1.386525139
 20
-22.005995887
 11
5.6822838363
 21
-22.007291536
  0
LINE
  5
25B
100
AcDbEntity
  8
RACCORDO
100
AcDbLine
 62
253
  6
CONTINUOUS
 10
-8.1841943372
 20
-20.8713008997
 11
10.6762914945
 21
-20.8720819903
  0
LINE
  5
25C
100
AcDbEntity
  8
RACCORDO
100
AcDbLine
 62
253
  6
CONTINUOUS
 10
10.6762914945
 20
-20.8720819903
 11
21.6850754654
 21
-20.8781072728
  0
LINE
  5
25D
100
AcDbEntity
  8
RACCORDO
100
AcDbLine
 62
253
  6
CONTINUOUS
 10
5.6822838363
 20
-22.007291536
 11
10.6804877979
 21
-22.0107495721
  0
LINE
  5
25E
100
AcDbEntity
  8
RACCORDO
100
AcDbLine
 62
253
  6
CONTINUOUS
 10
10.6804877979
 20
-22.0107495721
 11
16.0115169574
 21
-22.0169324323
  0
LINE
  5
25F
100
AcDbEntity
  8
RACCORDO
100
AcDbLine
 62
253
  6
CONTINUOUS
 10
16.0115169574
 20
-22.0169324323
 11
21.7023437668
 21
-22.0260080669
  0
LWPOLYLINE
  5
260
100
AcDbEntity
  8
RACCORDO
100
AcDbPolyline
 62
253
  6
CONTINUOUS
 90
15
 70
0
 10
-21.6850750309
 20
-20.8781067346
 10
-21.7829191275
 20
-20.877333173
 10
-21.8303872486
 20
-20.8766465446
 10
-21.8762639746
 20
-20.8757683177
 10
-21.9201010272
 20
-20.8747070737
 10
-21.9614700586
 20
-20.8734731824
 10
-21.9999668369
 20
-20.8720787007
 10
-22.0352151961
 20
-20.8705372545
 10
-22.0668707116
 20
-20.8688639058
 10
-22.0946240658
 20
-20.8670750056
 10
-22.1182040706
 20
-20.8651880339
 10
-22.1373803172
 20
-20.8632214288
 10
-22.1519654274
 20
-20.861194407
 10
-22.1618168849
 20
-20.859126775
 10
-22.1668384274
 20
-20.8570387366
  0
LWPOLYLINE
  5
261
100
AcDbEntity
  8
RACCORDO
100
AcDbPolyline
 62
253
  6
CONTINUOUS
 90
7
 70
0
 10
-21.7023437493
 20
22.0260080494
 10
-21.7009741313
 20
22.0186193697
 10
-21.6996622981
 20
22.0053365549
 10
-21.6983936165
 20
21.9862284249
 10
-21.6971339111
 20
21.9613936369
 10
-21.695888678
 20
21.9309573763
 10
-21.6947031525
 20
21.8950684657
  0
LWPOLYLINE
  5
262
100
AcDbEntity
  8
0
100
AcDbPolyline
 62
7
  6
CONTINUOUS
 90
3
 70
0
 43
0.3500000006
 10
1.035714268
 20
36.4301068726
 10
0.9642857051
 20
36.2158223877
 10
0.8214285793
 20
35.93010672
  0
LWPOLYLINE
  5
263
100
AcDbEntity
  8
RACCORDO
100
AcDbPolyline
 62
253
  6
CONTINUOUS
 90
16
 70
0
 10
-22.2016585167
 20
21.526693282
 10
-22.1990728442
 20
21.5223441275
 10
-22.1965307205
 20
21.5146516989
 10
-22.1940321457
 20
21.5036159961
 10
-22.191564004
 20
21.4891480196
 10
-22.1891394111
 20
21.4713367689
 10
-22.186797714
 20
21.4504492426
 10
-22.1845413251
 20
21.4264412853
 10
-22.1823678319
 20
21.3993570523
 10
-22.1803093446
 20
21.3695960086
 10
-22.178367533
 20
21.33711607
 10
-22.1765407271
 20
21.3019593207
 10
-22.174856027
 20
21.2646514771
 10
-22.1733156859
 20
21.2251620882
 10
-22.1719174505
 20
21.1835216051
 10
-22.170681661
 20
21.1403470978
  0
LWPOLYLINE
  5
264
100
AcDbEntity
  8
0
100
AcDbPolyline
 62
7
  6
CONTINUOUS
 90
2
 70
0
 43
0.3500000006
 10
-3.3928571262
 20
36.1443957367
 10
-3.3928571262
 20
37.6443916626
  0
LINE
  5
265
100
AcDbEntity
  8
0
100
AcDbLine
 62
7
  6
CONTINUOUS
 10
-2.4038718155
 20
-1.8384217689
 11
-2.4039606312
 21
-1.8404334488
  0
LWPOLYLINE
  5
266
100
AcDbEntity
  8
0
100
AcDbPolyline
 62
7
  6
CONTINUOUS
 90
4
 70
0
 10
-2.4038718155
 20
-1.8384217689
 10
-2.4039944016
 20
-1.8403378082
 10
-2.4037487835
 20
-1.842240618
 10
-2.4033690459
 20
-1.8433837427
  0
LWPOLYLINE
  5
267
100
AcDbEntity
  8
0
100
AcDbPolyline
 62
7
  6
CONTINUOUS
 90
3
 70
0
 10
-3.0498857838
 20
-2.1112409872
 10
-2.9751202401
 20
-1.6162477094
 10
-2.8802791649
 20
-1.1246150308
  0
LINE
  5
268
100
AcDbEntity
  8
0
100
AcDbLine
 62
7
  6
CONTINUOUS
 10
-2.8802791649
 20
-1.1246150308
 11
-2.7655283128
 21
-0.6372093759
  0
LWPOLYLINE
  5
269
100
AcDbEntity
  8
0
100
AcDbPolyline
 62
7
  6
CONTINUOUS
 90
3
 70
0
 10
-2.7655248476
 20
-0.6371946575
 10
-2.6309905796
 20
-0.1546953421
 10
-2.4768927686
 20
0.3220523809
  0
LWPOLYLINE
  5
26A
100
AcDbEntity
  8
0
100
AcDbPolyline
 62
7
  6
CONTINUOUS
 90
3
 70
0
 10
-2.4766280746
 20
0.322564659
 10
-2.3034121983
 20
0.7924054654
 10
-2.1115966457
 20
1.2537733596
  0
LINE
  5
26B
100
AcDbEntity
  8
0
100
AcDbLine
 62
7
  6
CONTINUOUS
 10
-2.1113052267
 20
1.2544227796
 11
-1.9004302261
 21
1.7085909072
  0
LINE
  5
26C
100
AcDbEntity
  8
0
100
AcDbLine
 62
7
  6
CONTINUOUS
 10
-1.900893271
 20
1.7075526863
 11
-1.6713020391
 21
2.1537429267
  0
LINE
  5
26D
100
AcDbEntity
  8
0
100
AcDbLine
 62
7
  6
CONTINUOUS
 10
-1.6713020413
 20
2.1537429236
 11
-1.6123904432
 21
2.2551558959
  0
LINE
  5
26E
100
AcDbEntity
  8
0
100
AcDbLine
 62
7
  6
CONTINUOUS
 10
-1.6123695374
 20
2.2551016411
 11
-1.5477730801
 21
2.3520499689
  0
LINE
  5
26F
100
AcDbEntity
  8
0
100
AcDbLine
 62
7
  6
CONTINUOUS
 10
-1.5477730801
 20
2.3520499689
 11
-1.4757290738
 21
2.4467869373
  0
LINE
  5
270
100
AcDbEntity
  8
0
100
AcDbLine
 62
7
  6
CONTINUOUS
 10
-1.4775126638
 20
2.444587921
 11
-1.3986075894
 21
2.5358996121
  0
LINE
  5
271
100
AcDbEntity
  8
0
100
AcDbLine
 62
7
  6
CONTINUOUS
 10
-1.4012349889
 20
2.533080619
 11
-1.3163462135
 21
2.6199495632
  0
LINE
  5
272
100
AcDbEntity
  8
0
100
AcDbLine
 62
7
  6
CONTINUOUS
 10
-1.3192933479
 20
2.6171629619
 11
-1.2287368677
 21
2.6991557575
  0
LINE
  5
273
100
AcDbEntity
  8
0
100
AcDbLine
 62
7
  6
CONTINUOUS
 10
-1.232747626
 20
2.6957396305
 11
-1.1365321785
 21
2.7725873908
  0
LINE
  5
274
100
AcDbEntity
  8
0
100
AcDbLine
 62
7
  6
CONTINUOUS
 10
-1.1416290201
 20
2.7686650713
 11
-1.0405401072
 21
2.8396560977
  0
LWPOLYLINE
  5
275
100
AcDbEntity
  8
0
100
AcDbPolyline
 62
7
  6
CONTINUOUS
 90
4
 70
0
 10
-0.6824939121
 20
2.3564224687
 10
-0.7532400941
 20
2.3095471567
 10
-0.8209596773
 20
2.2579421215
 10
-0.8851525337
 20
2.2020165181
  0
LINE
  5
276
100
AcDbEntity
  8
0
100
AcDbLine
 62
7
  6
CONTINUOUS
 10
-1.0459063294
 20
2.8360848662
 11
-0.9402370362
 21
2.9009519629
  0
LINE
  5
277
100
AcDbEntity
  8
0
100
AcDbLine
 62
7
  6
CONTINUOUS
 10
-0.6087218118
 20
2.3986513366
 11
-0.6822697622
 21
2.3564619112
  0
LWPOLYLINE
  5
278
100
AcDbEntity
  8
0
100
AcDbPolyline
 62
7
  6
CONTINUOUS
 90
4
 70
0
 10
-0.9465458447
 20
2.8973404061
 10
-0.8359799687
 20
2.956202195
 10
-0.7289176095
 20
3.0047027699
 10
-0.619219274
 20
3.0463742376
  0
LWPOLYLINE
  5
279
100
AcDbEntity
  8
0
100
AcDbPolyline
 62
7
  6
CONTINUOUS
 90
3
 70
0
 10
-0.8434284968
 20
2.9524417921
 10
-0.7366733548
 20
3.0013789501
 10
-0.627603919
 20
3.0434630117
  0
LWPOLYLINE
  5
27A
100
AcDbEntity
  8
0
100
AcDbPolyline
 62
7
  6
CONTINUOUS
 90
19
 70
0
 10
-0.627603919
 20
3.0434630117
 10
-0.5070533666
 20
3.0811402844
 10
-0.392803574
 20
3.1088687705
 10
-0.2772426267
 20
3.1294988309
 10
-0.1614255205
 20
3.1430302792
 10
-0.0464239745
 20
3.1494745823
 10
0.0670437615
 20
3.1489248064
 10
0.1792327497
 20
3.1415935647
 10
0.289973369
 20
3.1277387659
 10
0.3986124724
 20
3.1077138597
 10
0.5050778193
 20
3.081646955
 10
0.6095836329
 20
3.0495587953
 10
0.7118847836
 20
3.0115999026
 10
0.8116981219
 20
2.9679032917
 10
0.9089130807
 20
2.9185028992
 10
1.0033685754
 20
2.863437398
 10
1.0946512908
 20
2.8029420827
 10
1.1823552273
 20
2.7372797121
 10
1.2662152357
 20
2.6665791098
  0
LWPOLYLINE
  5
27B
100
AcDbEntity
  8
0
100
AcDbPolyline
 62
7
  6
CONTINUOUS
 90
2
 70
0
 43
0.3500000006
 10
34.3665993576
 20
-3.3928568802
 10
32.8665988998
 20
-3.3928568802
  0
LINE
  5
27C
100
AcDbEntity
  8
0
100
AcDbLine
 62
7
  6
CONTINUOUS
 10
-2.105733137
 20
-2.450001378
 11
-2.7524005355
 21
-2.4499984486
  0
LINE
  5
27D
100
AcDbEntity
  8
0
100
AcDbLine
 62
7
  6
CONTINUOUS
 10
2.752400543
 20
-2.4499964715
 11
1.1030246241
 21
-2.450002401
  0
LWPOLYLINE
  5
27E
100
AcDbEntity
  8
0
100
AcDbPolyline
 62
7
  6
CONTINUOUS
 90
8
 70
0
 10
1.1030065928
 20
-2.45
 10
1.0813255549
 20
-2.4491854421
 10
1.0597826643
 20
-2.446754887
 10
1.0384893566
 20
-2.442728038
 10
1.0175738267
 20
-2.4371301229
 10
0.9971277072
 20
-2.4299812165
 10
0.977226618
 20
-2.4213039035
 10
0.9579971541
 20
-2.4111396932
  0
LWPOLYLINE
  5
27F
100
AcDbEntity
  8
0
100
AcDbPolyline
 62
7
  6
CONTINUOUS
 90
7
 70
0
 10
1.1030246241
 20
-2.450002401
 10
1.0779501252
 20
-2.4489286015
 10
1.0533100869
 20
-2.4457355172
 10
1.0291045095
 20
-2.4404231476
 10
1.0051302694
 20
-2.4329340981
 10
0.9815904902
 20
-2.4233257619
 10
0.9590945432
 20
-2.4117703207
  0
LINE
  5
280
100
AcDbEntity
  8
0
100
AcDbLine
 62
7
  6
CONTINUOUS
 10
-2.752413756
 20
-2.4499984486
 11
-2.7804585259
 21
-2.4487082494
  0
LWPOLYLINE
  5
281
100
AcDbEntity
  8
0
100
AcDbPolyline
 62
7
  6
CONTINUOUS
 90
4
 70
0
 10
-2.7800464137
 20
-2.4487185884
 10
-2.8076346365
 20
-2.4448651044
 10
-2.834920002
 20
-2.4384273712
 10
-2.8616902164
 20
-2.4293867141
  0
LWPOLYLINE
  5
282
100
AcDbEntity
  8
0
100
AcDbPolyline
 62
7
  6
CONTINUOUS
 90
3
 70
0
 10
-2.3977611524
 20
-1.8492704219
 10
-2.3959215917
 20
-1.8498156914
 10
-2.394010363
 20
-1.849999545
  0
LWPOLYLINE
  5
283
100
AcDbEntity
  8
0
100
AcDbPolyline
 62
7
  6
CONTINUOUS
 90
12
 70
0
 10
-0.7233215897
 20
-3.11074727
 10
-0.7694430394
 20
-3.0918765599
 10
-0.8132287906
 20
-3.0701591408
 10
-0.8545471802
 20
-3.0456385858
 10
-0.8935298722
 20
-3.0182713161
 10
-0.9299331631
 20
-2.9886937904
 10
-0.9636832301
 20
-2.9570241305
 10
-0.9948538972
 20
-2.9231442089
 10
-1.0234229315
 20
-2.8873361116
 10
-1.049498138
 20
-2.8495300843
 10
-1.0729717127
 20
-2.809795875
 10
-1.0934980097
 20
-2.7686248246
  0
LWPOLYLINE
  5
284
100
AcDbEntity
  8
0
100
AcDbPolyline
 62
7
  6
CONTINUOUS
 90
3
 70
0
 10
-2.8615253228
 20
-2.4293758972
 10
-2.887615984
 20
-2.4177495847
 10
-2.9123318538
 20
-2.4038149339
  0
LWPOLYLINE
  5
285
100
AcDbEntity
  8
0
100
AcDbPolyline
 62
7
  6
CONTINUOUS
 90
13
 70
0
 10
-1.9607224933
 20
-1.888860689
 10
-1.9403921294
 20
-1.9018038594
 10
-1.9200077941
 20
-1.9173249534
 10
-1.9012060647
 20
-1.9344054698
 10
-1.8840625033
 20
-1.9530484944
 10
-1.8685015487
 20
-1.9732509395
 10
-1.854835164
 20
-1.9946159857
 10
-1.8430752915
 20
-2.0172494022
 10
-1.8332099897
 20
-2.0410454176
 10
-1.8255153957
 20
-2.0652899014
 10
-1.8200835555
 20
-2.0897448101
 10
-1.8168224236
 20
-2.1146481862
 10
-1.815732
 20
-2.1400000288
  0
LINE
  5
286
100
AcDbEntity
  8
0
100
AcDbLine
 62
7
  6
CONTINUOUS
 10
-2.9124615427
 20
-2.4037330677
 11
-2.9358377984
 21
-2.3873541559
  0
LWPOLYLINE
  5
287
100
AcDbEntity
  8
0
100
AcDbPolyline
 62
7
  6
CONTINUOUS
 90
14
 70
0
 10
-1.9423242046
 20
-1.90042321
 10
-1.9248916225
 20
-1.9132902097
 10
-1.9085036681
 20
-1.9273949034
 10
-1.8932133127
 20
-1.9426757495
 10
-1.8790943523
 20
-1.9590638975
 10
-1.8662229527
 20
-1.9765021511
 10
-1.8546665526
 20
-1.9949077737
 10
-1.844497241
 20
-2.0141441452
 10
-1.8357910887
 20
-2.0340595629
 10
-1.8286108116
 20
-2.0545298315
 10
-1.8229983189
 20
-2.0754666728
 10
-1.8189702182
 20
-2.0967718403
 10
-1.8165437456
 20
-2.1183203975
 10
-1.815732
 20
-2.14
  0
LWPOLYLINE
  5
288
100
AcDbEntity
  8
0
100
AcDbPolyline
 62
7
  6
CONTINUOUS
 90
3
 70
0
 10
-2.9356258548
 20
-2.3874676067
 10
-2.9575450658
 20
-2.3688119389
 10
-2.9774126318
 20
-2.3484154255
  0
LWPOLYLINE
  5
289
100
AcDbEntity
  8
0
100
AcDbPolyline
 62
7
  6
CONTINUOUS
 90
3
 70
0
 10
-2.9774436981
 20
-2.3483802697
 10
-2.9952174523
 20
-2.3262228631
 10
-3.0107820878
 20
-2.302494054
  0
LWPOLYLINE
  5
28A
100
AcDbEntity
  8
0
100
AcDbPolyline
 62
7
  6
CONTINUOUS
 90
4
 70
0
 10
-2.4031442579
 20
-1.8440604224
 10
-2.402203314
 20
-1.8457303784
 10
-2.4009606342
 20
-1.8471893539
 10
-2.3997838982
 20
-1.8481271896
  0
LINE
  5
28B
100
AcDbEntity
  8
0
100
AcDbLine
 62
7
  6
CONTINUOUS
 10
-3.0107841699
 20
-2.3024047225
 11
-3.0240286121
 21
-2.2773482947
  0
LWPOLYLINE
  5
28C
100
AcDbEntity
  8
0
100
AcDbPolyline
 62
7
  6
CONTINUOUS
 90
3
 70
0
 10
-3.0240331609
 20
-2.2773385581
 10
-3.0348791666
 20
-2.2509201827
 10
-3.0432114378
 20
-2.2235516677
  0
LWPOLYLINE
  5
28D
100
AcDbEntity
  8
0
100
AcDbPolyline
 62
7
  6
CONTINUOUS
 90
6
 70
0
 10
-2.4037225818
 20
-1.8423028596
 10
-2.4031576673
 20
-1.8440300013
 10
-2.4022249116
 20
-1.8456669353
 10
-2.4009652909
 20
-1.8471616003
 10
-2.3995017328
 20
-1.8483578122
 10
-2.3978752135
 20
-1.8492035096
  0
LWPOLYLINE
  5
28E
100
AcDbEntity
  8
0
100
AcDbPolyline
 62
7
  6
CONTINUOUS
 90
5
 70
0
 10
-3.0431881981
 20
-2.2234818363
 10
-3.0489050519
 20
-2.1956552848
 10
-3.0518868242
 20
-2.1678182915
 10
-3.0522134096
 20
-2.1396783022
 10
-3.0498848083
 20
-2.1112353161
  0
LINE
  5
28F
100
AcDbEntity
  8
0
100
AcDbLine
 62
7
  6
CONTINUOUS
 10
0.1458030243
 20
-2.4432283403
 11
0.1482687176
 21
-2.4996625454
  0
LINE
  5
290
100
AcDbEntity
  8
0
100
AcDbLine
 62
7
  6
CONTINUOUS
 10
-1.1493282452
 20
-2.5553458773
 11
-1.1517312824
 21
-2.4996625454
  0
LINE
  5
291
100
AcDbEntity
  8
0
100
AcDbLine
 62
7
  6
CONTINUOUS
 10
-1.815732
 20
-2.14
 11
-1.815732
 21
-2.16
  0
LWPOLYLINE
  5
292
100
AcDbEntity
  8
0
100
AcDbPolyline
 62
7
  6
CONTINUOUS
 90
2
 70
0
 43
0.3500000006
 10
-1.035714268
 20
36.1443957367
 10
-1.035714268
 20
37.6443916626
  0
LWPOLYLINE
  5
293
100
AcDbEntity
  8
0
100
AcDbPolyline
 62
7
  6
CONTINUOUS
 90
43
 70
0
 10
-1.1517312925
 20
-2.4996625197
 10
-1.149968251
 20
-2.4524733
 10
-1.1449281539
 20
-2.4060153191
 10
-1.1366110011
 20
-2.3602885785
 10
-1.1249508612
 20
-2.3150837792
 10
-1.110013665
 20
-2.270610223
 10
-1.0919972052
 20
-2.2274958144
 10
-1.0709115954
 20
-2.1857838175
 10
-1.046746721
 20
-2.1454309729
 10
-1.0196700335
 20
-2.1069354006
 10
-0.989686923
 20
-2.0702771716
 10
-0.9567919981
 20
-2.03547622
 10
-0.9211365378
 20
-2.0030904628
 10
-0.8825287392
 20
-1.9730226672
 10
-0.8411604041
 20
-1.9453700711
 10
-0.7977582185
 20
-1.9209822983
 10
-0.7521331976
 20
-1.8999657071
 10
-0.7044743256
 20
-1.8822139445
 10
-0.6560752425
 20
-1.8682575688
 10
-0.6071087178
 20
-1.8582702647
 10
-0.5574019823
 20
-1.8520783511
 10
-0.5077303686
 20
-1.8496913379
 10
-0.4582042163
 20
-1.8510919074
 10
-0.4087131865
 20
-1.8562973779
 10
-0.3597015936
 20
-1.8653692133
 10
-0.3108551069
 20
-1.878463663
 10
-0.2624880578
 20
-1.8954244749
 10
-0.2159877549
 20
-1.9158443604
 10
-0.1715014038
 20
-1.9398863792
 10
-0.1288817996
 20
-1.9673874665
 10
-0.0890746349
 20
-1.9974511474
 10
-0.0523261586
 20
-2.029993078
 10
-0.0183901222
 20
-2.0650975967
 10
0.0125265282
 20
-2.1021212533
 10
0.0404081395
 20
-2.1410233185
 10
0.0652703646
 20
-2.1818445158
 10
0.0869532169
 20
-2.2240635764
 10
0.1054661373
 20
-2.2677299991
 10
0.1207996849
 20
-2.3127942796
 10
0.1327655501
 20
-2.3585866467
 10
0.1413009631
 20
-2.4048838429
 10
0.1464686938
 20
-2.4519091222
 10
0.1482687422
 20
-2.4996624827
  0
LINE
  5
294
100
AcDbEntity
  8
0
100
AcDbLine
 62
7
  6
CONTINUOUS
 10
-1.815732
 20
-2.16
 11
-1.816546577
 21
-2.1816807128
  0
LINE
  5
295
100
AcDbEntity
  8
0
100
AcDbLine
 62
7
  6
CONTINUOUS
 10
-1.815732
 20
-2.1600000523
 11
-1.8168048052
 21
-2.1850667045
  0
LWPOLYLINE
  5
296
100
AcDbEntity
  8
0
100
AcDbPolyline
 62
7
  6
CONTINUOUS
 90
36
 70
0
 10
-1.1517312824
 20
-2.4996625454
 10
-1.1492990517
 20
-2.4435519746
 10
-1.1420134008
 20
-2.3877183448
 10
-1.1298914382
 20
-2.3325851812
 10
-1.1129599149
 20
-2.2785534622
 10
-1.0913364855
 20
-2.2260669655
 10
-1.0651964819
 20
-2.1756148213
 10
-1.0347131378
 20
-2.1276052306
 10
-1.0001121545
 20
-2.0823933969
 10
-0.9616820252
 20
-2.0403747798
 10
-0.91970556
 20
-2.0018858315
 10
-0.8745233384
 20
-1.9672061719
 10
-0.826528962
 20
-1.9366290228
 10
-0.7760987567
 20
-1.9104045865
 10
-0.7236066473
 20
-1.888700337
 10
-0.669447722
 20
-1.8716732227
 10
-0.6140357459
 20
-1.8594556867
 10
-0.5578119
 20
-1.8521033509
 10
-0.5012096886
 20
-1.8496622171
 10
-0.4446777066
 20
-1.8521673879
 10
-0.3885909659
 20
-1.8595839007
 10
-0.3332715492
 20
-1.8718717725
 10
-0.2791027835
 20
-1.8889767182
 10
-0.2265944548
 20
-1.9107705229
 10
-0.1763428772
 20
-1.9369698535
 10
-0.1288318818
 20
-1.9672633361
 10
-0.0842093777
 20
-2.0014879222
 10
-0.0426828546
 20
-2.0394736414
 10
-0.0045477641
 20
-2.0809687623
 10
0.0298863136
 20
-2.1256536258
 10
0.0604303992
 20
-2.173358419
 10
0.0869163256
 20
-2.2239848027
 10
0.1089408911
 20
-2.2769814672
 10
0.1261420458
 20
-2.3315134545
 10
0.13841954
 20
-2.3870239842
 10
0.1458030243
 20
-2.4432283403
  0
LINE
  5
297
100
AcDbEntity
  8
0
100
AcDbLine
 62
7
  6
CONTINUOUS
 10
0.1482687176
 20
-2.4996625454
 11
0.1454353636
 21
-2.5585364251
  0
LINE
  5
298
100
AcDbEntity
  8
0
100
AcDbLine
 62
7
  6
CONTINUOUS
 10
-1.816546577
 20
-2.1816807128
 11
-1.818977112
 21
-2.2032233435
  0
LWPOLYLINE
  5
299
100
AcDbEntity
  8
0
100
AcDbPolyline
 62
7
  6
CONTINUOUS
 90
6
 70
0
 10
-1.8168048052
 20
-2.1850667045
 10
-1.8199971836
 20
-2.2097008766
 10
-1.8253091354
 20
-2.2339025687
 10
-1.8327981394
 20
-2.2578755677
 10
-1.8424067163
 20
-2.2814160868
 10
-1.853962428
 20
-2.3039127658
  0
LINE
  5
29A
100
AcDbEntity
  8
0
100
AcDbLine
 62
7
  6
CONTINUOUS
 10
-2.3263082364
 20
-1.4084275819
 11
-2.4038718155
 21
-1.8384217689
  0
LWPOLYLINE
  5
29B
100
AcDbEntity
  8
0
100
AcDbPolyline
 62
7
  6
CONTINUOUS
 90
6
 70
0
 10
-1.818977112
 20
-2.2032233435
 10
-1.8230039202
 20
-2.224516467
 10
-1.8286017963
 20
-2.2454319111
 10
-1.8357506817
 20
-2.2658780315
 10
-1.8444279886
 20
-2.2857791577
 10
-1.8545922004
 20
-2.3050086612
  0
LINE
  5
29C
100
AcDbEntity
  8
0
100
AcDbLine
 62
7
  6
CONTINUOUS
 10
-2.2326679486
 20
-0.9811915397
 11
-2.326141927
 21
-1.4076982666
  0
LINE
  5
29D
100
AcDbEntity
  8
0
100
AcDbLine
 62
7
  6
CONTINUOUS
 10
-2.1233260755
 20
-0.5584577869
 11
-2.2327479965
 21
-0.9815653233
  0
LWPOLYLINE
  5
29E
100
AcDbEntity
  8
0
100
AcDbPolyline
 62
7
  6
CONTINUOUS
 90
3
 70
0
 10
-1.8574016973
 20
0.2743386169
 10
-1.9981533944
 20
-0.1396207478
 10
-2.1233260755
 20
-0.5584577869
  0
LWPOLYLINE
  5
29F
100
AcDbEntity
  8
0
100
AcDbPolyline
 62
7
  6
CONTINUOUS
 90
3
 70
0
 10
-1.5304710669
 20
1.0840968273
 10
-1.7013306742
 20
0.6826580577
 10
-1.8573361891
 20
0.2743488583
  0
LWPOLYLINE
  5
2A0
100
AcDbEntity
  8
0
100
AcDbPolyline
 62
7
  6
CONTINUOUS
 90
3
 70
0
 10
-1.1435219254
 20
1.868350138
 10
-1.3441366799
 20
1.480201536
 10
-1.5301622317
 20
1.0847823625
  0
LINE
  5
2A1
100
AcDbEntity
  8
0
100
AcDbLine
 62
7
  6
CONTINUOUS
 10
-1.1006809267
 20
1.9417357339
 11
-1.1435219254
 21
1.868350138
  0
LWPOLYLINE
  5
2A2
100
AcDbEntity
  8
0
100
AcDbPolyline
 62
7
  6
CONTINUOUS
 90
13
 70
0
 10
-1.8545922004
 20
-2.3050086612
 10
-1.8675370455
 20
-2.3253414645
 10
-1.8830587971
 20
-2.3457263243
 10
-1.9001399305
 20
-2.3645284091
 10
-1.9187837079
 20
-2.3816720979
 10
-1.9389868664
 20
-2.3972330138
 10
-1.9603518655
 20
-2.4108990872
 10
-1.9829833243
 20
-2.4226580873
 10
-2.006776623
 20
-2.4325222469
 10
-2.0310203634
 20
-2.4402161925
 10
-2.0554774126
 20
-2.4456481333
 10
-2.0803849031
 20
-2.4489098616
 10
-2.1057428347
 20
-2.450001378
  0
LINE
  5
2A3
100
AcDbEntity
  8
0
100
AcDbLine
 62
7
  6
CONTINUOUS
 10
-1.053428531
 20
2.0118182342
 11
-1.1006511503
 21
1.9417867403
  0
LWPOLYLINE
  5
2A4
100
AcDbEntity
  8
0
100
AcDbPolyline
 62
7
  6
CONTINUOUS
 90
14
 70
0
 10
-1.8661549046
 20
-2.3234073473
 10
-1.8790222177
 20
-2.3408403879
 10
-1.8931274559
 20
-2.357228928
 10
-1.9084090164
 20
-2.3725198627
 10
-1.9247978988
 20
-2.3866392436
 10
-1.9422368288
 20
-2.3995108745
 10
-1.9606430755
 20
-2.4110673591
 10
-1.9798799669
 20
-2.4212366074
 10
-1.9997958743
 20
-2.4299426103
 10
-2.0202665059
 20
-2.4371226317
 10
-2.0412032581
 20
-2.4427347253
 10
-2.0625077568
 20
-2.4467623698
 10
-2.0840551624
 20
-2.449188461
 10
-2.1057331367
 20
-2.45
  0
LINE
  5
2A5
100
AcDbEntity
  8
0
100
AcDbLine
 62
7
  6
CONTINUOUS
 10
-1.0016633662
 20
2.0786750109
 11
-1.0535612112
 21
2.0116239057
  0
LINE
  5
2A6
100
AcDbEntity
  8
0
100
AcDbLine
 62
253
  6
CONTINUOUS
 10
-22.2016585166
 20
-21.5266932819
 11
-22.287406726
 21
-21.6124414913
  0
LINE
  5
2A7
100
AcDbEntity
  8
0
100
AcDbLine
 62
253
  6
CONTINUOUS
 10
21.7023437669
 20
22.026008067
 11
21.7880919586
 21
22.1117562587
  0
LINE
  5
2A8
100
AcDbEntity
  8
0
100
AcDbLine
 62
253
  6
CONTINUOUS
 10
-21.7023437504
 20
-22.0260080504
 11
-21.7880919586
 21
-22.1117562587
  0
LWPOLYLINE
  5
2A9
100
AcDbEntity
  8
0
100
AcDbPolyline
 62
7
  6
CONTINUOUS
 90
3
 70
0
 10
-0.8850789573
 20
2.2020780675
 10
-0.9456424359
 20
2.1419638925
 10
-1.0018540639
 20
2.0784446296
  0
LINE
  5
2AA
100
AcDbEntity
  8
0
100
AcDbLine
 62
7
  6
CONTINUOUS
 10
2.3940102381
 20
-1.8499981554
 11
2.3960218866
 21
-1.8497634552
  0
LWPOLYLINE
  5
2AB
100
AcDbEntity
  8
0
100
AcDbPolyline
 62
7
  6
CONTINUOUS
 90
3
 70
0
 10
1.0597772642
 20
-1.8532383077
 10
1.0813258945
 20
-1.8508117844
 10
1.1030055481
 20
-1.85
  0
LWPOLYLINE
  5
2AC
100
AcDbEntity
  8
0
100
AcDbPolyline
 62
7
  6
CONTINUOUS
 90
4
 70
0
 10
2.3940102381
 20
-1.8499981554
 10
2.3959214489
 20
-1.8498143053
 10
2.3977609979
 20
-1.8492690443
 10
2.3993624559
 20
-1.8484342743
  0
LINE
  5
2AD
100
AcDbEntity
  8
0
100
AcDbLine
 62
7
  6
CONTINUOUS
 10
-2.394010363
 20
-1.8499995449
 11
-2.1057311409
 21
-1.850000463
  0
LINE
  5
2AE
100
AcDbEntity
  8
0
100
AcDbLine
 62
7
  6
CONTINUOUS
 10
1.1029956018
 20
-1.8500013506
 11
2.3940102381
 21
-1.8499981554
  0
LWPOLYLINE
  5
2AF
100
AcDbEntity
  8
0
100
AcDbPolyline
 62
7
  6
CONTINUOUS
 90
2
 70
0
 43
0.3500000006
 10
34.3665993576
 20
-1.0357139511
 10
32.8665988998
 20
-1.0357139511
  0
LINE
  5
2B0
100
AcDbEntity
  8
0
100
AcDbLine
 62
7
  6
CONTINUOUS
 10
-2.105731141
 20
-1.85
 11
-2.0840490806
 21
-1.8508147442
  0
LWPOLYLINE
  5
2B1
100
AcDbEntity
  8
0
100
AcDbPolyline
 62
7
  6
CONTINUOUS
 90
7
 70
0
 10
-2.1057281616
 20
-1.850000463
 10
-2.0806635985
 20
-1.8510729973
 10
-2.0560310111
 20
-1.8542651369
 10
-2.0318303997
 20
-1.8595768821
 10
-2.0078577708
 20
-1.8670657727
 10
-1.9843171181
 20
-1.8766742684
 10
-1.9618204227
 20
-1.8882297486
  0
LWPOLYLINE
  5
2B2
100
AcDbEntity
  8
0
100
AcDbPolyline
 62
7
  6
CONTINUOUS
 90
7
 70
0
 10
-2.0840490806
 20
-1.8508147442
 10
-2.0625056116
 20
-1.8532455741
 10
-2.0412121702
 20
-1.8572726896
 10
-2.0202970993
 20
-1.8628707178
 10
-1.9998518402
 20
-1.8700195151
 10
-1.9799515102
 20
-1.8786966295
 10
-1.9607224933
 20
-1.888860689
  0
LINE
  5
2B3
100
AcDbEntity
  8
0
100
AcDbLine
 62
7
  6
CONTINUOUS
 10
-2.3960447569
 20
-1.8497507538
 11
-2.394010363
 21
-1.8499995449
  0
LWPOLYLINE
  5
2B4
100
AcDbEntity
  8
0
100
AcDbPolyline
 62
7
  6
CONTINUOUS
 90
13
 70
0
 10
0.9579971541
 20
-2.4111396932
 10
0.9376659279
 20
-2.3981959407
 10
0.9172811451
 20
-2.3826744535
 10
0.8984790678
 20
-2.3655935386
 10
0.881335288
 20
-2.3469499339
 10
0.8657742141
 20
-2.3267468995
 10
0.8521079433
 20
-2.3053818984
 10
0.8403486337
 20
-2.2827498446
 10
0.8304841276
 20
-2.2589558224
 10
0.8227900487
 20
-2.2347125521
 10
0.8173582717
 20
-2.2102576072
 10
0.8140969221
 20
-2.185353414
 10
0.813006
 20
-2.1599999722
  0
LWPOLYLINE
  5
2B5
100
AcDbEntity
  8
0
100
AcDbPolyline
 62
7
  6
CONTINUOUS
 90
14
 70
0
 10
0.9395985208
 20
-2.3995770062
 10
0.9221655525
 20
-2.3867097338
 10
0.9057771015
 20
-2.3726045703
 10
0.8904862631
 20
-2.3573231214
 10
0.8763669732
 20
-2.3409343756
 10
0.8634954223
 20
-2.3234956005
 10
0.8519389958
 20
-2.3050895223
 10
0.8417697684
 20
-2.2858527929
 10
0.8330637602
 20
-2.2659370564
 10
0.8258837094
 20
-2.2454666021
 10
0.8202715518
 20
-2.2245299732
 10
0.8162438181
 20
-2.2032255147
 10
0.8138176307
 20
-2.1816780795
 10
0.813006
 20
-2.16
  0
LINE
  5
2B6
100
AcDbEntity
  8
0
100
AcDbLine
 62
253
  6
CONTINUOUS
 10
-22.287406726
 20
21.6124414913
 11
-22.2016585167
 21
21.526693282
  0
LINE
  5
2B7
100
AcDbEntity
  8
0
100
AcDbLine
 62
253
  6
CONTINUOUS
 10
21.7880919586
 20
-22.1117562587
 11
21.7023437668
 21
-22.0260080669
  0
LINE
  5
2B8
100
AcDbEntity
  8
0
100
AcDbLine
 62
253
  6
CONTINUOUS
 10
-21.7880919586
 20
22.1117562587
 11
-21.7023437503
 21
22.0260080504
  0
LWPOLYLINE
  5
2B9
100
AcDbEntity
  8
0
100
AcDbPolyline
 62
7
  6
CONTINUOUS
 90
6
 70
0
 10
-1.111048495
 20
-2.7259120051
 10
-1.1256517033
 20
-2.6817623392
 10
-1.1370475914
 20
-2.6369819463
 10
-1.1451494782
 20
-2.591839533
 10
-1.1500440452
 20
-2.5460663911
 10
-1.1517312925
 20
-2.4996625197
  0
LINE
  5
2BA
100
AcDbEntity
  8
0
100
AcDbLine
 62
7
  6
CONTINUOUS
 10
3.0498846332
 20
-2.1112388908
 11
3.0522280079
 21
-2.1393163155
  0
LINE
  5
2BB
100
AcDbEntity
  8
0
100
AcDbLine
 62
7
  6
CONTINUOUS
 10
2.4039942762
 20
-1.8403364366
 11
2.4038716905
 21
-1.8384203784
  0
LINE
  5
2BC
100
AcDbEntity
  8
0
100
AcDbLine
 62
7
  6
CONTINUOUS
 10
0.813006
 20
-2.16
 11
0.813006
 21
-2.14
  0
LINE
  5
2BD
100
AcDbEntity
  8
0
100
AcDbLine
 62
7
  6
CONTINUOUS
 10
0.813006
 20
-2.14
 11
0.8138206774
 21
-2.1183179642
  0
LINE
  5
2BE
100
AcDbEntity
  8
0
100
AcDbLine
 62
7
  6
CONTINUOUS
 10
0.813006
 20
-2.1399999496
 11
0.8140787352
 21
-2.1149336164
  0
LINE
  5
2BF
100
AcDbEntity
  8
0
100
AcDbLine
 62
7
  6
CONTINUOUS
 10
0.8138206774
 20
-2.1183179642
 11
0.8162514335
 21
-2.0967745382
  0
LWPOLYLINE
  5
2C0
100
AcDbEntity
  8
0
100
AcDbPolyline
 62
7
  6
CONTINUOUS
 90
6
 70
0
 10
0.8140787352
 20
-2.1149336164
 10
0.817271057
 20
-2.0902996602
 10
0.8225829655
 20
-2.0660980817
 10
0.8300719977
 20
-2.0421250022
 10
0.8396806164
 20
-2.0185843013
 10
0.8512362096
 20
-1.9960876167
  0
LINE
  5
2C1
100
AcDbEntity
  8
0
100
AcDbLine
 62
7
  6
CONTINUOUS
 10
0.1457491427
 20
-2.5568407765
 11
0.1376963664
 21
-2.6159268285
  0
LWPOLYLINE
  5
2C2
100
AcDbEntity
  8
0
100
AcDbPolyline
 62
7
  6
CONTINUOUS
 90
6
 70
0
 10
0.8162514335
 20
-2.0967745382
 10
0.8202784648
 20
-2.0754811533
 10
0.8258763909
 20
-2.0545661606
 10
0.8330250679
 20
-2.0341209816
 10
0.8417020598
 20
-2.0142206937
 10
0.8518660042
 20
-1.994991679
  0
LINE
  5
2C3
100
AcDbEntity
  8
0
100
AcDbLine
 62
7
  6
CONTINUOUS
 10
0.1381800802
 20
-2.6137450167
 11
0.1250517506
 21
-2.6718336959
  0
LWPOLYLINE
  5
2C4
100
AcDbEntity
  8
0
100
AcDbPolyline
 62
7
  6
CONTINUOUS
 90
5
 70
0
 10
0.125546008
 20
-2.6700245815
 10
0.1078428416
 20
-2.7253158183
 10
0.0852262669
 20
-2.7788970193
 10
0.0581713162
 20
-2.8298277111
 10
0.0273007782
 20
-2.8773342267
  0
LWPOLYLINE
  5
2C5
100
AcDbEntity
  8
0
100
AcDbPolyline
 62
7
  6
CONTINUOUS
 90
13
 70
0
 10
0.8518660042
 20
-1.994991679
 10
0.8648104301
 20
-1.9746592928
 10
0.8803316247
 20
-1.954274987
 10
0.8974122224
 20
-1.9354733082
 10
0.9160553053
 20
-1.9183298119
 10
0.9362577909
 20
-1.9027689444
 10
0.9576228616
 20
-1.8891026511
 10
0.9802567013
 20
-1.8773428224
 10
1.0040531257
 20
-1.8674775692
 10
1.028296765
 20
-1.8597831675
 10
1.0527491626
 20
-1.8543517096
 10
1.0776487749
 20
-1.851091104
 10
1.1029956018
 20
-1.8500013506
  0
LWPOLYLINE
  5
2C6
100
AcDbEntity
  8
0
100
AcDbPolyline
 62
7
  6
CONTINUOUS
 90
12
 70
0
 10
0.8634284184
 20
-1.9765933662
 10
0.8762953271
 20
-1.9591607283
 10
0.8903999489
 20
-1.9427726962
 10
0.9056807458
 20
-1.9274822464
 10
0.9220688694
 20
-1.9133631743
 10
0.9395071239
 20
-1.9004916499
 10
0.9579127741
 20
-1.8889351234
 10
0.9771491931
 20
-1.8787656941
 10
0.9970646874
 20
-1.8700594304
 10
1.017535062
 20
-1.86287905
 10
1.0384720087
 20
-1.8572664732
 10
1.0597772642
 20
-1.8532383077
  0
LWPOLYLINE
  5
2C7
100
AcDbEntity
  8
0
100
AcDbPolyline
 62
7
  6
CONTINUOUS
 90
15
 70
0
 10
0.0273007782
 20
-2.8773342267
 10
-0.0086667086
 20
-2.923349668
 10
-0.0479267761
 20
-2.9650257803
 10
-0.0914345709
 20
-3.0036048151
 10
-0.1389023493
 20
-3.0388698428
 10
-0.1891775967
 20
-3.0695723419
 10
-0.2428011945
 20
-3.095524052
 10
-0.2992322602
 20
-3.1169132459
 10
-0.3556956343
 20
-3.133056205
 10
-0.4117885183
 20
-3.1434424965
 10
-0.4679137099
 20
-3.148582562
 10
-0.5225044439
 20
-3.1493239939
 10
-0.5750926477
 20
-3.1456877429
 10
-0.626146394
 20
-3.1376528595
 10
-0.675503136
 20
-3.1260040852
  0
LWPOLYLINE
  5
2C8
100
AcDbEntity
  8
0
100
AcDbPolyline
 62
7
  6
CONTINUOUS
 90
28
 70
0
 10
-0.0072663046
 20
-2.92155694
 10
-0.0454650961
 20
-2.9626104191
 10
-0.0870883973
 20
-3.0002682738
 10
-0.1318814431
 20
-3.0342228359
 10
-0.1795788093
 20
-3.0642139634
 10
-0.2299107738
 20
-3.0900455199
 10
-0.2824438658
 20
-3.1115077443
 10
-0.3366459493
 20
-3.1283489549
 10
-0.3919903448
 20
-3.1403510641
 10
-0.4480932243
 20
-3.1474604422
 10
-0.5046401998
 20
-3.1496561131
 10
-0.561270634
 20
-3.1469117784
 10
-0.6175167038
 20
-3.1392515051
 10
-0.6729029476
 20
-3.1267193939
 10
-0.7269856782
 20
-3.1093796869
 10
-0.7793585724
 20
-3.0873820397
 10
-0.8296041198
 20
-3.0609107115
 10
-0.8773402215
 20
-3.0301538301
 10
-0.92222195
 20
-2.9953393645
 10
-0.9638945992
 20
-2.9567230838
 10
-1.0020275537
 20
-2.9145898988
 10
-1.0363260899
 20
-2.8693483166
 10
-1.0664952108
 20
-2.8214435996
 10
-1.0923026365
 20
-2.7712385714
 10
-1.1135919059
 20
-2.7190957401
 10
-1.1302256676
 20
-2.6654750932
 10
-1.1421458699
 20
-2.6107659206
 10
-1.1493282452
 20
-2.5553458773
  0
LINE
  5
2C9
100
AcDbEntity
  8
0
100
AcDbLine
 62
253
  6
CONTINUOUS
 10
22.2016585343
 20
21.5266932996
 11
22.287406726
 21
21.6124414913
  0
LWPOLYLINE
  5
2CA
100
AcDbEntity
  8
0
100
AcDbPolyline
 62
7
  6
CONTINUOUS
 90
6
 70
0
 10
-0.2101541428
 20
2.5328832118
 10
-0.2933776506
 20
2.5164717187
 10
-0.3750160181
 20
2.4947750164
 10
-0.4548432766
 20
2.4678712936
 10
-0.5329029687
 20
2.435755763
 10
-0.6089444042
 20
2.3985333279
  0
LINE
  5
2CB
100
AcDbEntity
  8
0
100
AcDbLine
 62
7
  6
CONTINUOUS
 10
-0.1261404967
 20
2.543851383
 11
-0.2097571156
 21
2.532912773
  0
LINE
  5
2CC
100
AcDbEntity
  8
0
100
AcDbLine
 62
7
  6
CONTINUOUS
 10
-0.0420287875
 20
2.5493212188
 11
-0.1261385366
 21
2.5438515744
  0
LWPOLYLINE
  5
2CD
100
AcDbEntity
  8
0
100
AcDbPolyline
 62
7
  6
CONTINUOUS
 90
9
 70
0
 10
0.6085037077
 20
2.3987699578
 10
0.5325731475
 20
2.4359091117
 10
0.4542400608
 20
2.4680830272
 10
0.3743255567
 20
2.4949933645
 10
0.2927111734
 20
2.5165952136
 10
0.2095153744
 20
2.5329334935
 10
0.1259146569
 20
2.5438446085
 10
0.0420329793
 20
2.5492782125
 10
-0.0422536141
 20
2.549284655
  0
LINE
  5
2CE
100
AcDbEntity
  8
0
100
AcDbLine
 62
7
  6
CONTINUOUS
 10
0.6824322585
 20
2.3564658806
 11
0.608913671
 21
2.3985526949
  0
LWPOLYLINE
  5
2CF
100
AcDbEntity
  8
0
100
AcDbPolyline
 62
7
  6
CONTINUOUS
 90
3
 70
0
 10
0.8210591203
 20
2.257859347
 10
0.7533582474
 20
2.3093398521
 10
0.682132241
 20
2.3565375308
  0
LINE
  5
2D0
100
AcDbEntity
  8
0
100
AcDbLine
 62
7
  6
CONTINUOUS
 10
1.2605119489
 20
2.6716572949
 11
1.3458656909
 21
2.5911176081
  0
LWPOLYLINE
  5
2D1
100
AcDbEntity
  8
0
100
AcDbPolyline
 62
7
  6
CONTINUOUS
 90
3
 70
0
 10
0.9454162141
 20
2.1422385069
 10
0.885108396
 20
2.2020573385
 10
0.8209048175
 20
2.2579851913
  0
LINE
  5
2D2
100
AcDbEntity
  8
0
100
AcDbLine
 62
253
  6
CONTINUOUS
 10
22.287406726
 20
-21.6124414913
 11
22.2016585342
 21
-21.5266932995
  0
LINE
  5
2D3
100
AcDbEntity
  8
0
100
AcDbLine
 62
7
  6
CONTINUOUS
 10
1.341452212
 20
2.5954442119
 11
1.4209662419
 21
2.5112757461
  0
LINE
  5
2D4
100
AcDbEntity
  8
0
100
AcDbLine
 62
7
  6
CONTINUOUS
 10
1.0018883373
 20
2.0784032401
 11
0.9456903199
 21
2.1419160545
  0
LINE
  5
2D5
100
AcDbEntity
  8
0
100
AcDbLine
 62
7
  6
CONTINUOUS
 10
1.4181390172
 20
2.5143323094
 11
1.4912870113
 21
2.427315452
  0
LINE
  5
2D6
100
AcDbEntity
  8
0
100
AcDbLine
 62
7
  6
CONTINUOUS
 10
1.4895674783
 20
2.4294900515
 11
1.5565764133
 21
2.3395312977
  0
LWPOLYLINE
  5
2D7
100
AcDbEntity
  8
0
100
AcDbPolyline
 62
7
  6
CONTINUOUS
 90
3
 70
0
 10
1.1008857328
 20
1.9414309883
 10
1.0535603405
 20
2.0116238003
 10
1.0016599585
 20
2.0786791625
  0
LINE
  5
2D8
100
AcDbEntity
  8
0
100
AcDbLine
 62
7
  6
CONTINUOUS
 10
1.5554026355
 20
2.3413069227
 11
1.6159794549
 21
2.249393423
  0
LINE
  5
2D9
100
AcDbEntity
  8
0
100
AcDbLine
 62
7
  6
CONTINUOUS
 10
1.1435224197
 20
1.8683493542
 11
1.1006660716
 21
1.9417670787
  0
LINE
  5
2DA
100
AcDbEntity
  8
0
100
AcDbLine
 62
7
  6
CONTINUOUS
 10
1.616634652
 20
2.2482448183
 11
1.6713020407
 21
2.1537429248
  0
LINE
  5
2DB
100
AcDbEntity
  8
0
100
AcDbLine
 62
7
  6
CONTINUOUS
 10
1.6713013556
 20
2.1537425542
 11
1.9004242111
 21
1.7086016662
  0
LWPOLYLINE
  5
2DC
100
AcDbEntity
  8
0
100
AcDbPolyline
 62
7
  6
CONTINUOUS
 90
3
 70
0
 10
1.5301677912
 20
1.0847706692
 10
1.3441400667
 20
1.4801951573
 10
1.1435220104
 20
1.8683501861
  0
LINE
  5
2DD
100
AcDbEntity
  8
0
100
AcDbLine
 62
7
  6
CONTINUOUS
 10
1.9009524845
 20
1.7074133218
 11
2.1117006539
 21
1.2535203319
  0
LINE
  5
2DE
100
AcDbEntity
  8
0
100
AcDbLine
 62
7
  6
CONTINUOUS
 10
1.7013334753
 20
0.6826513917
 11
1.5302037719
 21
1.0846861398
  0
LINE
  5
2DF
100
AcDbEntity
  8
0
100
AcDbLine
 62
7
  6
CONTINUOUS
 10
2.1112961074
 20
1.2544420344
 11
2.3035465285
 21
0.7920601186
  0
LINE
  5
2E0
100
AcDbEntity
  8
0
100
AcDbLine
 62
7
  6
CONTINUOUS
 10
1.8574094726
 20
0.2743163445
 11
1.7013334753
 21
0.6826513917
  0
LINE
  5
2E1
100
AcDbEntity
  8
0
100
AcDbLine
 62
7
  6
CONTINUOUS
 10
2.3035510574
 20
0.7920492261
 11
2.4768820989
 21
0.3220797335
  0
LWPOLYLINE
  5
2E2
100
AcDbEntity
  8
0
100
AcDbPolyline
 62
7
  6
CONTINUOUS
 90
4
 70
0
 10
2.4767623852
 20
0.3221760724
 10
2.6310760311
 20
-0.1552740353
 10
2.7656303465
 20
-0.637608302
 10
2.8801410047
 20
-1.1239359617
  0
LINE
  5
2E3
100
AcDbEntity
  8
0
100
AcDbLine
 62
7
  6
CONTINUOUS
 10
2.8802739902
 20
-1.1245936447
 11
2.9751174437
 21
-1.6162353641
  0
LWPOLYLINE
  5
2E4
100
AcDbEntity
  8
0
100
AcDbPolyline
 62
7
  6
CONTINUOUS
 90
6
 70
0
 10
2.4038716905
 20
-1.8384203784
 10
2.3261049684
 20
-1.4075508947
 10
2.2326013341
 20
-0.9809379205
 10
2.1233607653
 20
-0.5585819505
 10
1.9981579796
 20
-0.1398248458
 10
1.8572182109
 20
0.2746743312
  0
LINE
  5
2E5
100
AcDbEntity
  8
0
100
AcDbLine
 62
7
  6
CONTINUOUS
 10
2.9748924211
 20
-1.615146404
 11
3.0498846332
 21
-2.1112388908
  0
LWPOLYLINE
  5
2E6
100
AcDbEntity
  8
0
100
AcDbPolyline
 62
7
  6
CONTINUOUS
 90
3
 70
0
 10
3.0521901875
 20
-2.1389139098
 10
3.0519213129
 20
-2.166847387
 10
3.0490365498
 20
-2.1947842762
  0
LINE
  5
2E7
100
AcDbEntity
  8
0
100
AcDbLine
 62
7
  6
CONTINUOUS
 10
3.0490346951
 20
-2.1948022384
 11
3.043488596
 21
-2.2225650321
  0
LWPOLYLINE
  5
2E8
100
AcDbEntity
  8
0
100
AcDbPolyline
 62
7
  6
CONTINUOUS
 90
3
 70
0
 10
3.0434512619
 20
-2.2224290974
 10
3.0352376482
 20
-2.2498561235
 10
3.024570762
 20
-2.2761852555
  0
LINE
  5
2E9
100
AcDbEntity
  8
0
100
AcDbLine
 62
7
  6
CONTINUOUS
 10
3.0245385056
 20
-2.2762547448
 11
3.0112997882
 21
-2.301525587
  0
LINE
  5
2EA
100
AcDbEntity
  8
0
100
AcDbLine
 62
7
  6
CONTINUOUS
 10
2.4022031627
 20
-1.8457290267
 11
2.4031441161
 21
-1.844059071
  0
LWPOLYLINE
  5
2EB
100
AcDbEntity
  8
0
100
AcDbPolyline
 62
7
  6
CONTINUOUS
 90
3
 70
0
 10
3.0113519929
 20
-2.3013645743
 10
2.99567995
 20
-2.3254460015
 10
2.9780221312
 20
-2.3477219507
  0
LWPOLYLINE
  5
2EC
100
AcDbEntity
  8
0
100
AcDbPolyline
 62
7
  6
CONTINUOUS
 90
3
 70
0
 10
2.9780144443
 20
-2.347730739
 10
2.9583141716
 20
-2.3682022906
 10
2.9367586969
 20
-2.3866981677
  0
LWPOLYLINE
  5
2ED
100
AcDbEntity
  8
0
100
AcDbPolyline
 62
7
  6
CONTINUOUS
 90
7
 70
0
 10
2.3994598051
 20
-1.848383746
 10
2.4009312175
 20
-1.8471847282
 10
2.4022075037
 20
-1.845682274
 10
2.4031532369
 20
-1.8440384094
 10
2.4037232745
 20
-1.8423071429
 10
2.4039627591
 20
-1.8404344659
 10
2.4038716905
 20
-1.8384203784
  0
LINE
  5
2EE
100
AcDbEntity
  8
0
100
AcDbLine
 62
7
  6
CONTINUOUS
 10
2.3994614768
 20
-1.848382659
 11
2.4009604763
 21
-1.8471879963
  0
LINE
  5
2EF
100
AcDbEntity
  8
0
100
AcDbLine
 62
7
  6
CONTINUOUS
 10
2.9367226189
 20
-2.3866742123
 11
2.9136015103
 21
-2.4030093586
  0
LINE
  5
2F0
100
AcDbEntity
  8
0
100
AcDbLine
 62
7
  6
CONTINUOUS
 10
2.9135034128
 20
-2.4030716604
 11
2.8887177718
 21
-2.4172033571
  0
LWPOLYLINE
  5
2F1
100
AcDbEntity
  8
0
100
AcDbPolyline
 62
7
  6
CONTINUOUS
 90
6
 70
0
 10
2.8888902078
 20
-2.4170788562
 10
2.8627004402
 20
-2.4289101089
 10
2.8358747103
 20
-2.4381525528
 10
2.8086938523
 20
-2.4446893337
 10
2.7808770314
 20
-2.4486373065
 10
2.7524242473
 20
-2.4499964714
  0
LWPOLYLINE
  5
2F2
100
AcDbEntity
  8
0
100
AcDbPolyline
 62
7
  6
CONTINUOUS
 90
18
 70
0
 10
-0.5159840398
 20
3.0785143579
 10
-0.402049871
 20
3.1067126298
 10
-0.2878333692
 20
3.1279078501
 10
-0.1734756012
 20
3.1419427817
 10
-0.0588355074
 20
3.1489746738
 10
0.0544781431
 20
3.149325278
 10
0.1660982136
 20
3.1429131015
 10
0.2763918342
 20
3.1298196373
 10
0.384851636
 20
3.1106111137
 10
0.4914162767
 20
3.0854148092
 10
0.5961470938
 20
3.0541034348
 10
0.6987207391
 20
3.0168613658
 10
0.7993147365
 20
2.9736602491
 10
0.8977515592
 20
2.924528418
 10
0.993175284
 20
2.8697352777
 10
1.0857140582
 20
2.8091164383
 10
1.1752397343
 20
2.7428362643
 10
1.2605119489
 20
2.6716572949
  0
LWPOLYLINE
  5
2F3
100
AcDbEntity
  8
RACCORDO
100
AcDbPolyline
 62
253
  6
CONTINUOUS
 90
16
 70
0
 10
22.2016585342
 20
-21.5266932995
 10
22.1990724363
 20
-21.5223427488
 10
22.1965299567
 20
-21.5146485349
 10
22.1940310956
 20
-21.5036106578
 10
22.1915627568
 20
-21.4891402001
 10
22.1891380365
 20
-21.4713260792
 10
22.1867962228
 20
-21.4504350478
 10
22.1845396852
 20
-21.4264223514
 10
22.1823660543
 20
-21.3993327446
 10
22.1803075098
 20
-21.3695672443
 10
22.1783657576
 20
-21.3370840993
 10
22.1765390919
 20
-21.3019250607
 10
22.1748545738
 20
-21.2646163989
 10
22.1733144693
 20
-21.2251282759
 10
22.1719165126
 20
-21.1834905297
 10
22.1706809677
 20
-21.1403189438
  0
LWPOLYLINE
  5
2F4
100
AcDbEntity
  8
0
100
AcDbPolyline
 62
7
  6
CONTINUOUS
 90
3
 70
0
 43
0.3500000006
 10
34.0808859558
 20
1.0357133102
 10
34.2951704407
 20
0.9642866592
 10
34.5808861084
 20
0.8214288254
  0
LWPOLYLINE
  5
2F5
100
AcDbEntity
  8
0
100
AcDbPolyline
 62
7
  6
CONTINUOUS
 90
10
 70
0
 43
0.3500000006
 10
33.866599205
 20
0.9642866592
 10
34.0094570389
 20
1.0357133102
 10
34.0808859558
 20
1.0357133102
 10
34.2237437897
 20
0.8928577423
 10
34.2237437897
 20
0.8214288254
 10
34.1523148727
 20
0.7499999084
 10
34.0808859558
 20
0.7499999084
 10
33.9380281219
 20
0.8214288254
 10
33.866599205
 20
0.8928577423
 10
33.866599205
 20
0.9642866592
  0
LWPOLYLINE
  5
2F6
100
AcDbEntity
  8
0
100
AcDbPolyline
 62
7
  6
CONTINUOUS
 90
10
 70
0
 43
0.3500000006
 10
0.9642857051
 20
36.6443958893
 10
1.035714268
 20
36.5015380554
 10
1.035714268
 20
36.4301068726
 10
0.8928571422
 20
36.2872490387
 10
0.8214285793
 20
36.2872490387
 10
0.7500000165
 20
36.3586802216
 10
0.7500000165
 20
36.4301068726
 10
0.8214285793
 20
36.5729647064
 10
0.8928571422
 20
36.6443958893
 10
0.9642857051
 20
36.6443958893
  0
LWPOLYLINE
  5
2F7
100
AcDbEntity
  8
RACCORDO
100
AcDbPolyline
 62
253
  6
CONTINUOUS
 90
7
 70
0
 10
21.7023437668
 20
-22.0260080669
 10
21.7009741091
 20
-22.0186195595
 10
21.6996622432
 20
-22.0053370215
 10
21.6983935358
 20
-21.9862291714
 10
21.6971338181
 20
-21.9613944904
 10
21.695888578
 20
-21.9309581132
 10
21.6947030307
 20
-21.8950690928
  0
LINE
  5
2F8
100
AcDbEntity
  8
RACCORDO
100
AcDbLine
 62
253
  6
CONTINUOUS
 10
-1.3810572367
 20
20.87020128
 11
21.6850754659
 21
20.8781072719
  0
LINE
  5
2F9
100
AcDbEntity
  8
RACCORDO
100
AcDbLine
 62
253
  6
CONTINUOUS
 10
-21.6850754719
 20
20.8781072456
 11
-1.3810572367
 21
20.87020128
  0
LINE
  5
2FA
100
AcDbEntity
  8
RACCORDO
100
AcDbLine
 62
253
  6
CONTINUOUS
 10
21.6947030307
 20
-21.8950690928
 11
21.6924604282
 21
-21.8076670482
  0
LINE
  5
2FB
100
AcDbEntity
  8
RACCORDO
100
AcDbLine
 62
253
  6
CONTINUOUS
 10
22.1706809677
 20
-21.1403189438
 11
22.1687017663
 21
-21.0492863749
  0
LINE
  5
2FC
100
AcDbEntity
  8
RACCORDO
100
AcDbLine
 62
253
  6
CONTINUOUS
 10
21.6924604282
 20
-21.8076670482
 11
21.6904666507
 21
-21.7009353375
  0
LINE
  5
2FD
100
AcDbEntity
  8
RACCORDO
100
AcDbLine
 62
253
  6
CONTINUOUS
 10
22.1687017663
 20
-21.0492863749
 11
22.1674164944
 21
-20.9546104478
  0
LINE
  5
2FE
100
AcDbEntity
  8
RACCORDO
100
AcDbLine
 62
253
  6
CONTINUOUS
 10
21.6904666507
 20
-21.7009353375
 11
21.6879806651
 21
-21.5093261501
  0
LINE
  5
2FF
100
AcDbEntity
  8
RACCORDO
100
AcDbLine
 62
253
  6
CONTINUOUS
 10
21.6879806651
 20
-21.5093261501
 11
21.6857987245
 21
-21.2086743047
  0
LINE
  5
300
100
AcDbEntity
  8
RACCORDO
100
AcDbLine
 62
253
  6
CONTINUOUS
 10
22.1674164944
 20
-20.9546104478
 11
22.1668384366
 21
-20.8570387625
  0
LWPOLYLINE
  5
301
100
AcDbEntity
  8
RACCORDO
100
AcDbPolyline
 62
253
  6
CONTINUOUS
 90
9
 70
0
 10
22.1668384366
 20
-20.8570387625
 10
22.1577103594
 20
-16.223696831
 10
22.1508643014
 20
-11.589577244
 10
22.1463002624
 20
-6.9546800014
 10
22.1440182425
 20
-2.3184867531
 10
22.1440182417
 20
2.3184841508
 10
22.1463002607
 20
6.9546776594
 10
22.1508642996
 20
11.5895754224
 10
22.1577103582
 20
16.2236957902
  0
LWPOLYLINE
  5
302
100
AcDbEntity
  8
RACCORDO
100
AcDbPolyline
 62
253
  6
CONTINUOUS
 90
8
 70
0
 10
21.672437658
 20
-11.6018187984
 10
21.668826854
 20
-6.9616951414
 10
21.6670214512
 20
-2.3206884516
 10
21.6670214502
 20
2.3206845067
 10
21.6688268518
 20
6.9616915912
 10
21.6724376559
 20
11.6018160374
 10
21.6778538611
 20
16.240757025
 10
21.6852567199
 20
21.045553356
  0
LINE
  5
303
100
AcDbEntity
  8
RACCORDO
100
AcDbLine
 62
253
  6
CONTINUOUS
 10
21.6857987245
 20
-21.2086743047
 11
21.672437658
 21
-11.6018187984
  0
LINE
  5
304
100
AcDbEntity
  8
0
100
AcDbLine
 62
7
  6
CONTINUOUS
 10
22.287406726
 20
-21.6124414913
 11
22.287406726
 21
21.6124414913
  0
LINE
  5
305
100
AcDbEntity
  8
RACCORDO
100
AcDbLine
 62
253
  6
CONTINUOUS
 10
22.1577103582
 20
16.2236957902
 11
22.1670396819
 21
20.9062254779
  0
LINE
  5
306
100
AcDbEntity
  8
RACCORDO
100
AcDbLine
 62
253
  6
CONTINUOUS
 10
21.6852567199
 20
21.045553356
 11
21.6867132888
 21
21.3642643446
  0
LINE
  5
307
100
AcDbEntity
  8
RACCORDO
100
AcDbLine
 62
253
  6
CONTINUOUS
 10
21.6867132888
 20
21.3642643446
 11
21.6887280295
 21
21.5769935773
  0
LINE
  5
308
100
AcDbEntity
  8
RACCORDO
100
AcDbLine
 62
253
  6
CONTINUOUS
 10
22.1670396819
 20
20.9062254779
 11
22.1679693266
 21
21.002236521
  0
LINE
  5
309
100
AcDbEntity
  8
RACCORDO
100
AcDbLine
 62
253
  6
CONTINUOUS
 10
21.6887280295
 20
21.5769935773
 11
21.6904669225
 21
21.7009339372
  0
LWPOLYLINE
  5
30A
100
AcDbEntity
  8
RACCORDO
100
AcDbPolyline
 62
253
  6
CONTINUOUS
 90
18
 70
0
 10
22.1679693266
 20
21.002236521
 10
22.1696106917
 20
21.0955954223
 10
22.1706816792
 20
21.1403471176
 10
22.1719174687
 20
21.1835216249
 10
22.173315704
 20
21.225162108
 10
22.1748560452
 20
21.2646514969
 10
22.1765407453
 20
21.3019593404
 10
22.1783675511
 20
21.3371160895
 10
22.1803093627
 20
21.3695960279
 10
22.18236785
 20
21.3993570714
 10
22.1845413431
 20
21.4264413041
 10
22.186797732
 20
21.4504492612
 10
22.189139429
 20
21.4713367873
 10
22.1915640218
 20
21.4891480379
 10
22.1940321635
 20
21.5036160142
 10
22.1965307383
 20
21.5146517169
 10
22.1990728619
 20
21.5223441453
 10
22.2016585343
 20
21.5266932996
  0
LINE
  5
30B
100
AcDbEntity
  8
RACCORDO
100
AcDbLine
 62
253
  6
CONTINUOUS
 10
21.6904669225
 20
21.7009339372
 11
21.6924606565
 21
21.8076660899
  0
LWPOLYLINE
  5
30C
100
AcDbEntity
  8
RACCORDO
100
AcDbPolyline
 62
253
  6
CONTINUOUS
 90
8
 70
0
 10
21.6924606565
 20
21.8076660899
 10
21.6947031442
 20
21.8950684834
 10
21.6958886737
 20
21.9309573932
 10
21.697133911
 20
21.9613936532
 10
21.6983936206
 20
21.9862284412
 10
21.6996623067
 20
22.0053365717
 10
21.7009741444
 20
22.018619387
 10
21.7023437669
 20
22.026008067
  0
LWPOLYLINE
  5
30D
100
AcDbEntity
  8
RACCORDO
100
AcDbPolyline
 62
253
  6
CONTINUOUS
 90
16
 70
0
 10
-21.7023437493
 20
22.0260080494
 10
-21.7544466067
 20
22.0231394834
 10
-21.8059805126
 20
22.0148505465
 10
-21.8563828057
 20
22.0012317631
 10
-21.9051032
 20
21.9824318425
 10
-21.9516097431
 20
21.9586560732
 10
-21.995394632
 20
21.9301640973
 10
-22.0359798275
 20
21.8972670372
 10
-22.0729222492
 20
21.8603240931
 10
-22.105818573
 20
21.8197386556
 10
-22.1343096656
 20
21.775953877
 10
-22.1580845086
 20
21.7294478142
 10
-22.1768835766
 20
21.6807282216
 10
-22.1905016635
 20
21.6303270217
 10
-22.1987901271
 20
21.5787945001
 10
-22.2016585167
 20
21.526693282
  0
LWPOLYLINE
  5
30E
100
AcDbEntity
  8
RACCORDO
100
AcDbPolyline
 62
253
  6
CONTINUOUS
 90
14
 70
0
 10
-21.7829205087
 20
20.8773336846
 10
-21.8303890463
 20
20.8766470342
 10
-21.8762661351
 20
20.8757687802
 10
-21.9201034844
 20
20.8747075044
 10
-21.9614727348
 20
20.8734735772
 10
-21.9999696443
 20
20.872079056
 10
-22.035218038
 20
20.8705375674
 10
-22.0668734842
 20
20.8688641742
 10
-22.0946266597
 20
20.8670752281
 10
-22.1182063728
 20
20.8651882097
 10
-22.1373822129
 20
20.8632215584
 10
-22.1519668022
 20
20.8611944912
 10
-22.1618176263
 20
20.8591268158
 10
-22.1668384275
 20
20.8570387366
  0
LINE
  5
30F
100
AcDbEntity
  8
RACCORDO
100
AcDbLine
 62
253
  6
CONTINUOUS
 10
-21.6850754719
 20
20.8781072737
 11
-21.7829205087
 21
20.8773336846
  0
LINE
  5
310
100
AcDbEntity
  8
RACCORDO
100
AcDbLine
 62
253
  6
CONTINUOUS
 10
13.2987933015
 20
22.0134597024
 11
21.7023437669
 21
22.026008067
  0
LINE
  5
311
100
AcDbEntity
  8
RACCORDO
100
AcDbLine
 62
253
  6
CONTINUOUS
 10
3.2774298403
 20
22.0063482953
 11
13.2987933015
 21
22.0134597024
  0
LINE
  5
312
100
AcDbEntity
  8
0
100
AcDbLine
 62
7
  6
CONTINUOUS
 10
21.7880919586
 20
22.1117562587
 11
-21.7880919586
 21
22.1117562587
  0
LINE
  5
313
100
AcDbEntity
  8
RACCORDO
100
AcDbLine
 62
253
  6
CONTINUOUS
 10
-5.936813047
 20
22.0074117757
 11
3.2774298403
 21
22.0063482953
  0
LINE
  5
314
100
AcDbEntity
  8
RACCORDO
100
AcDbLine
 62
253
  6
CONTINUOUS
 10
-14.9346680863
 20
22.0154302178
 11
-5.936813047
 21
22.0074117757
  0
LINE
  5
315
100
AcDbEntity
  8
RACCORDO
100
AcDbLine
 62
253
  6
CONTINUOUS
 10
-21.7023437503
 20
22.0260080504
 11
-14.9346680863
 21
22.0154302178
  0
LWPOLYLINE
  5
316
100
AcDbEntity
  8
RACCORDO
100
AcDbPolyline
 62
253
  6
CONTINUOUS
 90
15
 70
0
 10
21.6850750335
 20
20.878106804
 10
21.782919195
 20
20.8773332398
 10
21.8303873455
 20
20.8766466098
 10
21.8762640976
 20
20.8757683812
 10
21.920101172
 20
20.8747071352
 10
21.9614702204
 20
20.8734732416
 10
21.99996701
 20
20.8720787571
 10
22.0352153742
 20
20.8705373077
 10
22.0668708879
 20
20.8688639556
 10
22.0946242331
 20
20.8670750517
 10
22.1182042215
 20
20.8651880761
 10
22.1373804439
 20
20.863221467
 10
22.1519655224
 20
20.8611944411
 10
22.1618169406
 20
20.8591268051
 10
22.1668384366
 20
20.8570387627
  0
LWPOLYLINE
  5
317
100
AcDbEntity
  8
RACCORDO
100
AcDbPolyline
 62
253
  6
CONTINUOUS
 90
16
 70
0
 10
21.7023437669
 20
22.026008067
 10
21.7544458897
 20
22.0231395804
 10
21.8059791579
 20
22.0148508595
 10
21.8563809279
 20
22.0012324013
 10
21.9051009096
 20
21.9824328929
 10
21.9516071751
 20
21.9586575887
 10
21.9953919658
 20
21.9301660691
 10
22.0359772363
 20
21.8972694064
 10
22.072919874
 20
21.8603267687
 10
22.1058165366
 20
21.8197414981
 10
22.1343080561
 20
21.7759567074
 10
22.1580833602
 20
21.7294504419
 10
22.1768828685
 20
21.6807304602
 10
22.1905013267
 20
21.6303286903
 10
22.1987900476
 20
21.5787954222
 10
22.2016585343
 20
21.5266932996
  0
LWPOLYLINE
  5
318
100
AcDbEntity
  8
0
100
AcDbPolyline
 62
7
  6
CONTINUOUS
 90
3
 70
0
 43
0.3500000006
 10
33.7237436371
 20
-0.5357137985
 10
33.7237436371
 20
-2.0357142563
 10
31.366600708
 20
-1.3928574028
  0
LWPOLYLINE
  5
319
100
AcDbEntity
  8
0
100
AcDbPolyline
 62
7
  6
CONTINUOUS
 90
3
 70
0
 43
0.3500000006
 10
33.7237436371
 20
-2.8928567276
 10
33.7237436371
 20
-4.3928571854
 10
31.366600708
 20
-3.7500003319
  0
LWPOLYLINE
  5
31A
100
AcDbEntity
  8
0
100
AcDbPolyline
 62
7
  6
CONTINUOUS
 90
7
 70
0
 43
0.3500000006
 10
34.3665993576
 20
3.5357140732
 10
34.3665993576
 20
2.0357136154
 10
32.2237431793
 20
3.5357140732
 10
31.7951719437
 20
3.5357140732
 10
31.366600708
 20
3.1071428375
 10
31.366600708
 20
2.4642848511
 10
32.0094564285
 20
2.0357136154
  0
LWPOLYLINE
  5
31B
100
AcDbEntity
  8
0
100
AcDbPolyline
 62
7
  6
CONTINUOUS
 90
3
 70
0
 43
0.3500000006
 10
-0.5357142924
 20
36.7872491913
 10
-2.0357142191
 20
36.7872491913
 10
-1.3928570824
 20
39.1443921204
  0
LWPOLYLINE
  5
31C
100
AcDbEntity
  8
0
100
AcDbPolyline
 62
7
  6
CONTINUOUS
 90
3
 70
0
 43
0.3500000006
 10
-2.8928572569
 20
36.7872491913
 10
-4.3928571482
 20
36.7872491913
 10
-3.7500000114
 20
39.1443921204
  0
LWPOLYLINE
  5
31D
100
AcDbEntity
  8
0
100
AcDbPolyline
 62
7
  6
CONTINUOUS
 90
3
 70
0
 43
0.3500000006
 10
-48.4880325623
 20
36.4301068726
 10
-48.5594592133
 20
36.2158223877
 10
-48.7023170471
 20
35.93010672
  0
LINE
  5
31E
100
AcDbEntity
  8
RACCORDO
100
AcDbLine
 62
7
  6
CONTINUOUS
 10
-35.0102264717
 20
-22.1117562587
 11
-37.0297760904
 21
-22.005916148
  0
LINE
  5
31F
100
AcDbEntity
  8
0
100
AcDbLine
 62
7
  6
CONTINUOUS
 10
-35.0102264717
 20
-22.1117562587
 11
-36.6463994397
 21
-22.0260080669
  0
LWPOLYLINE
  5
320
100
AcDbEntity
  8
RACCORDO
100
AcDbPolyline
 62
7
  6
CONTINUOUS
 90
22
 70
0
 10
-36.6463994398
 20
-22.0260080669
 10
-36.7306162167
 20
-22.0186195595
 10
-36.8140889914
 20
-22.0053370215
 10
-36.8964058296
 20
-21.9862291714
 10
-36.977158552
 20
-21.9613944904
 10
-37.0559518042
 20
-21.9309581132
 10
-37.13240421
 20
-21.8950690928
 10
-37.2061429184
 20
-21.8539033275
 10
-37.2768002991
 20
-21.8076670482
 10
-37.3440228293
 20
-21.7565926485
 10
-37.407478712
 20
-21.7009353375
 10
-37.4668579153
 20
-21.6409705346
 10
-37.5218680118
 20
-21.5769952854
 10
-37.5722395062
 20
-21.5093261501
 10
-37.6177252872
 20
-21.4382988123
 10
-37.658100994
 20
-21.3642660452
 10
-37.6931670511
 20
-21.2875999737
 10
-37.7227560172
 20
-21.2086743047
 10
-37.7467277585
 20
-21.1278621816
 10
-37.7649635345
 20
-21.045556092
 10
-37.7773704291
 20
-20.9621673407
 10
-37.7838857851
 20
-20.8781072553
  0
LINE
  5
321
100
AcDbEntity
  8
RACCORDO
100
AcDbLine
 62
253
  6
CONTINUOUS
 10
-37.7838861913
 20
-20.8781073069
 11
-37.7797202356
 21
-20.8778220549
  0
LINE
  5
322
100
AcDbEntity
  8
RACCORDO
100
AcDbLine
 62
253
  6
CONTINUOUS
 10
-37.7797202356
 20
-20.8778220549
 11
-37.7569631409
 21
-20.8766470669
  0
LINE
  5
323
100
AcDbEntity
  8
RACCORDO
100
AcDbLine
 62
253
  6
CONTINUOUS
 10
-37.7569631409
 20
-20.8766470669
 11
-37.5010148338
 21
-20.865188238
  0
LINE
  5
324
100
AcDbEntity
  8
RACCORDO
100
AcDbLine
 62
253
  6
CONTINUOUS
 10
-37.5010148338
 20
-20.865188238
 11
-37.310806481
 21
-20.8570387625
  0
LWPOLYLINE
  5
325
100
AcDbEntity
  8
RACCORDO
100
AcDbPolyline
 62
253
  6
CONTINUOUS
 90
3
 70
0
 10
-38.1653822507
 20
-20.8701700704
 10
-38.1566697954
 20
-20.8703406751
 10
-37.7838861945
 20
-20.8781072728
  0
LINE
  5
326
100
AcDbEntity
  8
0
100
AcDbLine
 62
253
  6
CONTINUOUS
 10
-35.0102264717
 20
-21.6124414913
 11
-36.6463994398
 21
-21.5266932995
  0
LWPOLYLINE
  5
327
100
AcDbEntity
  8
RACCORDO
100
AcDbPolyline
 62
253
  6
CONTINUOUS
 90
22
 70
0
 10
-36.6463994398
 20
-21.5266932995
 10
-36.6957451282
 20
-21.5223427488
 10
-36.7442585276
 20
-21.5146485349
 10
-36.7919396381
 20
-21.5036106578
 10
-36.8390383476
 20
-21.4891402001
 10
-36.8853047681
 20
-21.4713260792
 10
-36.9299892355
 20
-21.4504350478
 10
-36.973046537
 20
-21.4264223514
 10
-37.0145218854
 20
-21.3993327446
 10
-37.0538012556
 20
-21.3695672443
 10
-37.0908520934
 20
-21.3370840993
 10
-37.1257069529
 20
-21.3019250607
 10
-37.1578494716
 20
-21.2646163989
 10
-37.1872364159
 20
-21.2251282759
 10
-37.2139110195
 20
-21.1834905297
 10
-37.2374866208
 20
-21.1403189438
 10
-37.2579188283
 20
-21.0955695792
 10
-37.2752520335
 20
-21.0492863749
 10
-37.2892327501
 20
-21.0022169311
 10
-37.2997764824
 20
-20.9546104478
 10
-37.306967726
 20
-20.9062177249
 10
-37.310806481
 20
-20.8570387625
  0
LWPOLYLINE
  5
328
100
AcDbEntity
  8
0
100
AcDbPolyline
 62
7
  6
CONTINUOUS
 90
2
 70
0
 43
0.3500000006
 10
-50.5594598236
 20
36.1443957367
 10
-50.5594598236
 20
37.6443916626
  0
LWPOLYLINE
  5
329
100
AcDbEntity
  8
RACCORDO
100
AcDbPolyline
 62
253
  6
CONTINUOUS
 90
16
 70
0
 10
-36.6463994381
 20
22.026008067
 10
-36.6489796623
 20
22.0231395804
 10
-36.6512460121
 20
22.0148508595
 10
-36.6531737433
 20
22.0012324013
 10
-36.6547418089
 20
21.9824328929
 10
-36.6559330885
 20
21.9586575887
 10
-36.6567345753
 20
21.9301660691
 10
-36.6571375184
 20
21.8972694064
 10
-36.6571375188
 20
21.8603267687
 10
-36.6567345762
 20
21.8197414981
 10
-36.6559330901
 20
21.7759567074
 10
-36.6547418111
 20
21.7294504419
 10
-36.6531737457
 20
21.6807304602
 10
-36.6512460142
 20
21.6303286903
 10
-36.6489796636
 20
21.5787954222
 10
-36.6463994381
 20
21.5266932996
  0
LWPOLYLINE
  5
32A
100
AcDbEntity
  8
RACCORDO
100
AcDbPolyline
 62
253
  6
CONTINUOUS
 90
16
 70
0
 10
-36.6463994398
 20
-22.0260080669
 10
-36.6489796995
 20
-22.023139509
 10
-36.6512460731
 20
-22.014850594
 10
-36.6531738169
 20
-22.0012318436
 10
-36.6547418852
 20
-21.9824319648
 10
-36.655933158
 20
-21.9586562426
 10
-36.6567346292
 20
-21.9301643127
 10
-36.6571375508
 20
-21.8972672924
 10
-36.6571375264
 20
-21.8603243785
 10
-36.6567345592
 20
-21.8197389571
 10
-36.6559330521
 20
-21.7759541764
 10
-36.6547417587
 20
-21.7294480923
 10
-36.6531736882
 20
-21.68072846
 10
-36.6512459628
 20
-21.630327203
 10
-36.6489796315
 20
-21.5787946072
 10
-36.6463994398
 20
-21.5266932995
  0
LWPOLYLINE
  5
32B
100
AcDbEntity
  8
0
100
AcDbPolyline
 62
7
  6
CONTINUOUS
 90
4
 70
0
 43
0.3500000006
 10
-47.4880322571
 20
38.5015386658
 10
-47.4880322571
 20
39.1443921204
 10
-45.9880317993
 20
39.1443921204
 10
-46.8451742706
 20
36.1443957367
  0
LINE
  5
32C
100
AcDbEntity
  8
0
100
AcDbLine
 62
7
  6
CONTINUOUS
 10
-34.0102264717
 20
-13.2689805518
 11
-35.0102264717
 21
-13.3213883311
  0
LINE
  5
32D
100
AcDbEntity
  8
0
100
AcDbLine
 62
7
  6
CONTINUOUS
 10
-34.0102264717
 20
-9.7310194482
 11
-35.0102264717
 21
-9.6786116689
  0
LWPOLYLINE
  5
32E
100
AcDbEntity
  8
0
100
AcDbPolyline
 62
7
  6
CONTINUOUS
 90
6
 70
0
 10
-38.1653823031
 20
20.870169067
 10
-38.3288653457
 20
17.4622448614
 10
-38.4661626982
 20
13.9707283109
 10
-38.5729568584
 20
10.478145763
 10
-38.6492366313
 20
6.9847636133
 10
-38.6978224427
 20
3.1500826119
  0
LWPOLYLINE
  5
32F
100
AcDbEntity
  8
RACCORDO
100
AcDbPolyline
 62
7
  6
CONTINUOUS
 90
22
 70
0
 10
-37.7838857836
 20
20.8781072544
 10
-37.7773706141
 20
20.962165691
 10
-37.764964039
 20
21.045553356
 10
-37.7467286005
 20
21.1278589212
 10
-37.7227570245
 20
21.208671297
 10
-37.6931679871
 20
21.2875977207
 10
-37.6581018451
 20
21.3642643446
 10
-37.6177262463
 20
21.4382971873
 10
-37.5722406764
 20
21.5093244475
 10
-37.5218693698
 20
21.5769935773
 10
-37.4668593606
 20
21.6409689569
 10
-37.4074801883
 20
21.7009339372
 10
-37.3440242949
 20
21.7565914423
 10
-37.2768016473
 20
21.8076660899
 10
-37.206144096
 20
21.8539026103
 10
-37.1324053923
 20
21.8950684834
 10
-37.0559534843
 20
21.9309573932
 10
-36.9771609631
 20
21.9613936532
 10
-36.8964085343
 20
21.9862284412
 10
-36.81409129
 20
22.0053365717
 10
-36.7306176138
 20
22.018619387
 10
-36.6463994381
 20
22.026008067
  0
LWPOLYLINE
  5
330
100
AcDbEntity
  8
0
100
AcDbPolyline
 62
7
  6
CONTINUOUS
 90
3
 70
0
 10
-38.7014699544
 20
-2.45
 10
-38.7015237265
 20
-2.4491854421
 10
-38.7015861111
 20
-2.446754887
  0
LINE
  5
331
100
AcDbEntity
  8
0
100
AcDbLine
 62
7
  6
CONTINUOUS
 10
-38.7014698987
 20
-2.450002401
 11
-38.7015283789
 21
-2.4490041812
  0
LWPOLYLINE
  5
332
100
AcDbEntity
  8
RACCORDO
100
AcDbPolyline
 62
253
  6
CONTINUOUS
 90
10
 70
0
 10
-37.7838861945
 20
-20.8781072728
 10
-37.9581031213
 20
-16.2407586027
 10
-38.0888254389
 20
-11.6018187984
 10
-38.1760036674
 20
-6.9616951414
 10
-38.2196023126
 20
-2.3206884516
 10
-38.2196023311
 20
2.3206845067
 10
-38.1760037174
 20
6.9616915912
 10
-38.0888255037
 20
11.6018160374
 10
-37.9581031732
 20
16.240757025
 10
-37.7838861945
 20
20.8781072719
  0
LWPOLYLINE
  5
333
100
AcDbEntity
  8
RACCORDO
100
AcDbPolyline
 62
253
  6
CONTINUOUS
 90
10
 70
0
 10
-37.310806481
 20
-20.8570387625
 10
-37.4849805701
 20
-16.223696831
 10
-37.6156111398
 20
-11.589577244
 10
-37.7026981901
 20
-6.9546800014
 10
-37.7462417248
 20
-2.3184867531
 10
-37.74624174
 20
2.3184841508
 10
-37.7026982243
 20
6.9546776594
 10
-37.6156111739
 20
11.5895754224
 10
-37.4849805925
 20
16.2236957902
 10
-37.3108064802
 20
20.8570387627
  0
LWPOLYLINE
  5
334
100
AcDbEntity
  8
0
100
AcDbPolyline
 62
7
  6
CONTINUOUS
 90
3
 70
0
 10
-38.6977003357
 20
-3.1434424965
 10
-38.6976091467
 20
-3.148582562
 10
-38.6975816628
 20
-3.1492046029
  0
LINE
  5
335
100
AcDbEntity
  8
0
100
AcDbLine
 62
7
  6
CONTINUOUS
 10
-38.7015861111
 20
-2.446754887
 11
-38.7017351723
 21
-2.4371301229
  0
LWPOLYLINE
  5
336
100
AcDbEntity
  8
0
100
AcDbPolyline
 62
7
  6
CONTINUOUS
 90
6
 70
0
 10
-38.6949353221
 20
-3.4975149462
 10
-38.6491201547
 20
-6.9914294026
 10
-38.5727821547
 20
-10.4848101542
 10
-38.4659297926
 20
-13.9773907456
 10
-38.3285742647
 20
-17.4689047809
 10
-38.165382303
 20
-20.8701690677
  0
LINE
  5
337
100
AcDbEntity
  8
0
100
AcDbLine
 62
7
  6
CONTINUOUS
 10
-38.7016907914
 20
-2.4404231476
 11
-38.7023995821
 21
-2.3655935386
  0
LINE
  5
338
100
AcDbEntity
  8
0
100
AcDbLine
 62
7
  6
CONTINUOUS
 10
-38.7027005486
 20
-2.4500446507
 11
-38.6949353221
 21
-3.4975149462
  0
LINE
  5
339
100
AcDbEntity
  8
0
100
AcDbLine
 62
7
  6
CONTINUOUS
 10
-38.7020138763
 20
-2.4111396932
 11
-38.7044987799
 21
-1.9960876167
  0
LINE
  5
33A
100
AcDbEntity
  8
0
100
AcDbLine
 62
7
  6
CONTINUOUS
 10
-38.7030439719
 20
-0.1552740353
 11
-38.6943225103
 21
-2.2761852555
  0
LINE
  5
33B
100
AcDbEntity
  8
0
100
AcDbLine
 62
7
  6
CONTINUOUS
 10
-38.7045031372
 20
-1.994991679
 11
-38.7048272918
 21
-1.8674775692
  0
LINE
  5
33C
100
AcDbEntity
  8
0
100
AcDbLine
 62
7
  6
CONTINUOUS
 10
-38.6943223174
 20
-2.2762547448
 11
-38.6942204654
 21
-2.3866742123
  0
LINE
  5
33D
100
AcDbEntity
  8
0
100
AcDbLine
 62
7
  6
CONTINUOUS
 10
-38.6978224762
 20
3.1500830504
 11
-38.7030439719
 21
-0.1552740353
  0
LINE
  5
33E
100
AcDbEntity
  8
0
100
AcDbLine
 62
7
  6
CONTINUOUS
 10
-38.6942204654
 20
-2.3866742123
 11
-38.6943258657
 21
-2.4172033571
  0
LWPOLYLINE
  5
33F
100
AcDbEntity
  8
0
100
AcDbPolyline
 62
7
  6
CONTINUOUS
 90
4
 70
0
 10
-38.7048296608
 20
-1.8700594304
 10
-38.7047850243
 20
-1.8543517096
 10
-38.7047454052
 20
-1.851091104
 10
-38.704741447
 20
-1.8510081077
  0
LINE
  5
340
100
AcDbEntity
  8
0
100
AcDbLine
 62
7
  6
CONTINUOUS
 10
-38.7048023027
 20
-1.8572664732
 11
-38.7047748655
 21
-1.8532383077
  0
LWPOLYLINE
  5
341
100
AcDbEntity
  8
0
100
AcDbPolyline
 62
7
  6
CONTINUOUS
 90
4
 70
0
 10
-38.6943256092
 20
-2.4170788562
 10
-38.6945108037
 20
-2.4381525528
 10
-38.6946290872
 20
-2.4446893337
 10
-38.6947651874
 20
-2.4486373065
  0
LINE
  5
342
100
AcDbEntity
  8
0
100
AcDbLine
 62
7
  6
CONTINUOUS
 10
-38.7047385052
 20
-1.8508117844
 11
-38.7046934167
 21
-1.85
  0
LWPOLYLINE
  5
343
100
AcDbEntity
  8
RACCORDO
100
AcDbPolyline
 62
253
  6
CONTINUOUS
 90
22
 70
0
 10
-37.3108064802
 20
20.8570387627
 10
-37.3069664922
 20
20.9062254779
 10
-37.2997736037
 20
20.9546247307
 10
-37.2892278146
 20
21.002236521
 10
-37.2752447091
 20
21.0493097029
 10
-37.257908703
 20
21.0955954223
 10
-37.2374730439
 20
21.1403471176
 10
-37.2138927765
 20
21.1835216249
 10
-37.1872128562
 20
21.225162108
 10
-37.1578213969
 20
21.2646514969
 10
-37.1256754041
 20
21.3019593404
 10
-37.0908178724
 20
21.3371160895
 10
-37.0537659002
 20
21.3695960279
 10
-37.0144876221
 20
21.3993570714
 10
-36.9730149034
 20
21.4264413041
 10
-36.9299604386
 20
21.4504492612
 10
-36.8852781974
 20
21.4713367873
 10
-36.8390142101
 20
21.4891480379
 10
-36.791919262
 20
21.5036160142
 10
-36.7442436149
 20
21.5146517169
 10
-36.6957370069
 20
21.5223441453
 10
-36.6463994381
 20
21.5266932996
  0
LINE
  5
344
100
AcDbEntity
  8
0
100
AcDbLine
 62
7
  6
CONTINUOUS
 10
-38.6947658503
 20
-2.4486431616
 11
-38.6949191873
 21
-2.45
  0
LINE
  5
345
100
AcDbEntity
  8
0
100
AcDbLine
 62
7
  6
CONTINUOUS
 10
-38.6949192088
 20
-2.4499964715
 11
-38.7011850104
 21
-2.4500021431
  0
LINE
  5
346
100
AcDbEntity
  8
0
100
AcDbLine
 62
7
  6
CONTINUOUS
 10
-35.0102264717
 20
-22.1117562587
 11
-35.0102264717
 21
22.1117562587
  0
LINE
  5
347
100
AcDbEntity
  8
0
100
AcDbLine
 62
253
  6
CONTINUOUS
 10
-34.3892920892
 20
13.288846539
 11
-34.3892920892
 21
9.711153461
  0
LINE
  5
348
100
AcDbEntity
  8
0
100
AcDbLine
 62
253
  6
CONTINUOUS
 10
-34.3892920892
 20
-9.711153461
 11
-34.3892920892
 21
-13.288846539
  0
LINE
  5
349
100
AcDbEntity
  8
0
100
AcDbLine
 62
7
  6
CONTINUOUS
 10
-34.0102264717
 20
13.2689805518
 11
-34.0102264717
 21
9.7310194482
  0
LINE
  5
34A
100
AcDbEntity
  8
0
100
AcDbLine
 62
7
  6
CONTINUOUS
 10
-34.0102264717
 20
-9.7310194482
 11
-34.0102264717
 21
-13.2689805518
  0
LWPOLYLINE
  5
34B
100
AcDbEntity
  8
0
100
AcDbPolyline
 62
7
  6
CONTINUOUS
 90
10
 70
0
 43
0.3500000006
 10
-48.5594592133
 20
36.6443958893
 10
-48.4880325623
 20
36.5015380554
 10
-48.4880325623
 20
36.4301068726
 10
-48.6308903961
 20
36.2872490387
 10
-48.7023170471
 20
36.2872490387
 10
-48.77374823
 20
36.3586802216
 10
-48.77374823
 20
36.4301068726
 10
-48.7023170471
 20
36.5729647064
 10
-48.6308903961
 20
36.6443958893
 10
-48.5594592133
 20
36.6443958893
  0
LINE
  5
34C
100
AcDbEntity
  8
0
100
AcDbLine
 62
7
  6
CONTINUOUS
 10
-34.0102264717
 20
9.7310194482
 11
-35.0102264717
 21
9.6786116689
  0
LINE
  5
34D
100
AcDbEntity
  8
0
100
AcDbLine
 62
7
  6
CONTINUOUS
 10
-34.0102264717
 20
13.2689805518
 11
-35.0102264717
 21
13.3213883311
  0
LINE
  5
34E
100
AcDbEntity
  8
RACCORDO
100
AcDbLine
 62
253
  6
CONTINUOUS
 10
-37.7385841159
 20
20.8757683812
 11
-37.3108064802
 21
20.8570387627
  0
LWPOLYLINE
  5
34F
100
AcDbEntity
  8
RACCORDO
100
AcDbPolyline
 62
253
  6
CONTINUOUS
 90
4
 70
0
 10
-37.7838743213
 20
20.878106804
 10
-37.7797085837
 20
20.8778215617
 10
-37.7707052519
 20
20.8773332398
 10
-37.7385841159
 20
20.8757683812
  0
LINE
  5
350
100
AcDbEntity
  8
0
100
AcDbLine
 62
253
  6
CONTINUOUS
 10
-36.6463994381
 20
21.5266932996
 11
-35.0102264717
 21
21.6124414913
  0
LINE
  5
351
100
AcDbEntity
  8
RACCORDO
100
AcDbLine
 62
7
  6
CONTINUOUS
 10
-37.0297760561
 20
22.0059161498
 11
-35.0102264717
 21
22.1117562587
  0
LINE
  5
352
100
AcDbEntity
  8
0
100
AcDbLine
 62
7
  6
CONTINUOUS
 10
-36.6463994379
 20
22.026008067
 11
-35.0102264717
 21
22.1117562587
  0
LWPOLYLINE
  5
353
100
AcDbEntity
  8
RACCORDO
100
AcDbPolyline
 62
253
  6
CONTINUOUS
 90
3
 70
0
 10
-38.1653822506
 20
20.8701700707
 10
-38.1646742247
 20
20.8701816244
 10
-37.7838861945
 20
20.8781072719
  0
LWPOLYLINE
  5
354
100
AcDbEntity
  8
0
100
AcDbPolyline
 62
7
  6
CONTINUOUS
 90
3
 70
0
 43
0.3500000006
 10
-50.059459671
 20
36.7872491913
 10
-51.5594601288
 20
36.7872491913
 10
-50.9166021423
 20
39.1443921204
  0
ARC
  5
355
100
AcDbEntity
  8
RACCORDO
100
AcDbCircle
 62
7
  6
CONTINUOUS
 10
-36.967016408
 20
-20.8075584284
 40
1.2
100
AcDbArc
 50
182.9907948877
 51
267.0
  0
ARC
  5
356
100
AcDbEntity
  8
RACCORDO
100
AcDbCircle
 62
7
  6
CONTINUOUS
 10
-36.9670164142
 20
20.8075584281
 40
1.2
100
AcDbArc
 50
93.0
 51
177.0092051127
  0
ELLIPSE
  5
357
100
AcDbEntity
  8
0
100
AcDbEllipse
 62
7
  6
CONTINUOUS
 10
21.786720553
 20
-21.6110700857
 30
0.0
 11
-0.3545231217
 21
0.3545231217
 31
0.0
 40
0.9972646886
 41
2.3575640181
 42
3.9256212891
  0
ELLIPSE
  5
358
100
AcDbEntity
  8
0
100
AcDbEllipse
 62
7
  6
CONTINUOUS
 10
21.786720553
 20
21.6110700857
 30
0.0
 11
0.3545231217
 21
0.3545231217
 31
0.0
 40
0.9972646886
 41
-0.7840286355
 42
0.7840286355
  0
ELLIPSE
  5
359
100
AcDbEntity
  8
0
100
AcDbEllipse
 62
7
  6
CONTINUOUS
 10
-21.786720553
 20
21.6110700857
 30
0.0
 11
0.3545231217
 21
-0.3545231217
 31
0.0
 40
0.9972646886
 41
2.3575640181
 42
3.9256212891
  0
ELLIPSE
  5
35A
100
AcDbEntity
  8
0
100
AcDbEllipse
 62
7
  6
CONTINUOUS
 10
-21.786720553
 20
-21.6110700857
 30
0.0
 11
0.3545231217
 21
0.3545231217
 31
0.0
 40
0.9972646886
 41
-3.9256212891
 42
-2.3575640181
  0
ENDSEC
  0
SECTION
  2
OBJECTS
  0
DICTIONARY
  5
C
100
AcDbDictionary
280
0
281
1
  3
ACAD_GROUP
350
D
  3
ACAD_MLINESTYLE
350
17
  3
ACAD_LAYOUT
350
1A
  3
ACAD_PLOTSETTINGS
350
19
  3
ACAD_PLOTSTYLENAME
350
E
  0
DICTIONARY
  5
D
102
{ACAD_REACTORS
330
C
102
}
100
AcDbDictionary
280
0
281
1
  0
ACDBDICTIONARYWDFLT
  5
E
102
{ACAD_REACTORS
330
C
102
}
100
AcDbDictionary
281
1
  3
Normal
350
F
100
AcDbDictionaryWithDefault
340
F
  0
DICTIONARY
  5
17
102
{ACAD_REACTORS
330
C
102
}
100
AcDbDictionary
280
0
281
1
  3
Standard
350
18
  0
DICTIONARY
  5
19
102
{ACAD_REACTORS
330
C
102
}
100
AcDbDictionary
281
1
  0
DICTIONARY
  5
1A
102
{ACAD_REACTORS
330
C
102
}
100
AcDbDictionary
281
1
  3
Model
350
35B
  3
Layout1
350
35C
  0
ACDBPLACEHOLDER
  5
F
102
{ACAD_REACTORS
330
E
102
}
  0
MLINESTYLE
  5
18
102
{ACAD_REACTORS
330
17
102
}
100
AcDbMlineStyle
  2
STANDARD
 70
0
  3

 62
256
 51
90.0
 52
90.0
 71
2
 49
0.5
 62
256
  6
BYLAYER
 49
-0.5
 62
256
  6
BYLAYER
  0
LAYOUT
  5
35B
102
{ACAD_REACTORS
330
1A
102
}
100
AcDbPlotSettings
  1

  2
none_device
  4
ISO_A4_(297.00_x_210.00_MM)
  6

 40
0.0
 41
0.0
 42
0.0
 43
0.0
 44
297.0
 45
210.0
 46
0.0
 47
0.0
 48
0.0
 49
0.0
140
0.0
141
0.0
142
1.0
143
1.0
 70
1024
 72
1
 73
0
 74
0
  7

 75
0
147
1.0
148
0.0
149
0.0
100
AcDbLayout
  1
Model
 70
0
 71
0
 10
0.0
 20
0.0
 11
297.0
 21
210.0
 12
0.0
 22
0.0
 32
0.0
 14
0.0
 24
0.0
 34
0.0
 15
0.0
 25
0.0
 35
0.0
146
0.0
 13
0.0
 23
0.0
 33
0.0
 16
1.0
 26
0.0
 36
0.0
 17
0.0
 27
1.0
 37
0.0
 76
0
330
214
345
0
346
0
  0
LAYOUT
  5
35C
102
{ACAD_REACTORS
330
1A
102
}
100
AcDbPlotSettings
  1

  2
none_device
  4
ISO_A4_(297.00_x_210.00_MM)
  6

 40
0.0
 41
0.0
 42
0.0
 43
0.0
 44
297.0
 45
210.0
 46
0.0
 47
0.0
 48
0.0
 49
0.0
140
0.0
141
0.0
142
1.0
143
1.0
 70
0
 72
1
 73
0
 74
0
  7

 75
0
147
1.0
148
0.0
149
0.0
100
AcDbLayout
  1
Layout1
 70
0
 71
1
 10
0.0
 20
0.0
 11
297.0
 21
210.0
 12
0.0
 22
0.0
 32
0.0
 14
0.0
 24
0.0
 34
0.0
 15
0.0
 25
0.0
 35
0.0
146
0.0
 13
0.0
 23
0.0
 33
0.0
 16
1.0
 26
0.0
 36
0.0
 17
0.0
 27
1.0
 37
0.0
 76
0
330
215
345
0
346
0
  0
ENDSEC
  0
EOF
