  0
SECTION
  2
HEADER
  9
$ACADVER
  1
AC1024
  9
$DWGCODEPAGE
  3
ANSI_1252
  9
$EXTMAX
 10
297.0
 20
210.0
 30
0.0
  9
$EXTMIN
 10
0.0
 20
0.0
 30
0.0
  9
$LIMMIN
 10
0.0
 20
0.0
  9
$LIMMAX
 10
297.0
 20
210.0
  9
$VIEWCTR
 10
148.5
 20
105.0
  9
$VIEWSIZE
 40
210.0
  9
$CLAYER
  8
0
  9
$LTSCALE
 40
16.335
  9
$CELTYPE
  6
BYLAYER
  9
$DIMSCALE
 40
1.0
  9
$DIMASZ
 40
3.0
  9
$DIMEXO
 40
0.5
  9
$DIMDLI
 40
11.286
  9
$DIMEXE
 40
1.5
  9
$DIMCEN
 40
2.673
  9
$DIMLFAC
 40
1.0
  9
$DIMBLK
  1
_FILLED
  9
$DIMALT
 70
0
  9
$DIMALTF
 40
0.0393700787
  9
$DIMTXT
 40
3.0
  9
$DIMTOL
 70
1
  9
$DIMLIM
 70
0
  9
$DIMTFAC
 40
1.0
  9
$DIMTP
 40
0.01
  9
$DIMTM
 40
0.01
  9
$DIMGAP
 40
0.625
  9
$DIMDSEP
 70
44
  9
$AUNITS
 70
0
  9
$PDMODE
 70
3
  9
$PDSIZE
 40
3.0
  9
$HANDSEED
  5
6EA
  9
$TILEMODE
 70
1
  9
$MEASUREMENT
 70
1
  9
$INSUNITS
 70
4
  0
ENDSEC
  0
SECTION
  2
CLASSES
  0
CLASS
  1
ACDBDICTIONARYWDFLT
  2
AcDbDictionaryWithDefault
  3
AutoCAD 2000
 90
0
 91
1
280
0
281
0
  0
CLASS
  1
ACDBPLACEHOLDER
  2
AcDbPlaceHolder
  3
AutoCAD 2000
 90
0
 91
1
280
0
281
0
  0
CLASS
  1
LAYOUT
  2
AcDbLayout
  3
AutoCAD 2000
 90
0
 91
0
280
0
281
0
  0
ENDSEC
  0
SECTION
  2
TABLES
  0
TABLE
  2
VPORT
  5
8
100
AcDbSymbolTable
 70
2
  0
VPORT
  5
1F4
100
AcDbSymbolTableRecord
100
AcDbViewportTableRecord
  2
*ACTIVE
 70
0
 10
0.0
 20
0.0
 11
1.0
 21
1.0
 12
148.5
 22
105.0
 13
0.0
 23
0.0
 14
1.0
 24
1.0
 15
0.0
 25
0.0
 16
0.0
 26
0.0
 36
1.0
 17
0.0
 27
0.0
 37
0.0
 40
210.0
 41
1.4142857143
 42
50.0
 43
0.0
 44
0.0
 50
0.0
 51
0.0
 71
0
 72
100
 73
1
 74
1
 75
0
 76
0
 77
0
 78
0
  0
ENDTAB
  0
TABLE
  2
LTYPE
  5
5
100
AcDbSymbolTable
 70
6
  0
LTYPE
  5
14
100
AcDbSymbolTableRecord
100
AcDbLinetypeTableRecord
  2
BYBLOCK
 70
0
  3

 72
65
 73
0
 40
0.0
  0
LTYPE
  5
15
100
AcDbSymbolTableRecord
100
AcDbLinetypeTableRecord
  2
BYLAYER
 70
0
  3

 72
65
 73
0
 40
0.0
  0
LTYPE
  5
16
100
AcDbSymbolTableRecord
100
AcDbLinetypeTableRecord
  2
CONTINUOUS
 70
64
  3
Solid line
 72
65
 73
0
 40
0.0
  0
LTYPE
  5
1F5
100
AcDbSymbolTableRecord
100
AcDbLinetypeTableRecord
  2
CENTER
 70
64
  3
____ _ ____ _ ____ _ ____ _ ____ _ ____ _ ____
 72
65
 73
4
 40
0.6
 49
0.375
 74
0
 49
-0.075
 74
0
 49
0.075
 74
0
 49
-0.075
 74
0
  0
LTYPE
  5
1F6
100
AcDbSymbolTableRecord
100
AcDbLinetypeTableRecord
  2
HIDDEN
 70
64
  3
- - - - - - - - - - - - - - - - - - - -
 72
65
 73
2
 40
0.2
 49
0.1
 74
0
 49
-0.1
 74
0
  0
LTYPE
  5
1F7
100
AcDbSymbolTableRecord
100
AcDbLinetypeTableRecord
  2
PHANTOM
 70
64
  3
_____ _ _ _____ _ _ _____ _ _ _____
 72
65
 73
6
 40
0.8
 49
0.45
 74
0
 49
-0.05
 74
0
 49
0.1
 74
0
 49
-0.05
 74
0
 49
0.1
 74
0
 49
-0.05
 74
0
  0
LTYPE
  5
1F8
100
AcDbSymbolTableRecord
100
AcDbLinetypeTableRecord
  2
DOT
 70
64
  3
. . . . . . . . . . . . . . . . . . . .
 72
65
 73
2
 40
0.2
 49
0.1
 74
0
 49
-0.1
 74
0
  0
LTYPE
  5
1F9
100
AcDbSymbolTableRecord
100
AcDbLinetypeTableRecord
  2
DASHED
 70
64
  3
- - - - - - - - - - - - - - - - - - - -
 72
65
 73
2
 40
0.2
 49
0.1
 74
0
 49
-0.1
 74
0
  0
ENDTAB
  0
TABLE
  2
LAYER
  5
2
100
AcDbSymbolTable
 70
36
  0
LAYER
  5
10
100
AcDbSymbolTableRecord
100
AcDbLayerTableRecord
  2
0
 70
0
 62
7
  6
CONTINUOUS
370
-3
390
F
  0
LAYER
  5
1FA
100
AcDbSymbolTableRecord
100
AcDbLayerTableRecord
  2
DEFAULT_1
 70
0
 62
7
  6
CENTER
370
-3
390
F
  0
LAYER
  5
1FB
100
AcDbSymbolTableRecord
100
AcDbLayerTableRecord
  2
DEFAULT_2
 70
0
 62
7
  6
HIDDEN
370
-3
390
F
  0
LAYER
  5
1FC
100
AcDbSymbolTableRecord
100
AcDbLayerTableRecord
  2
DEFAULT_3
 70
0
 62
7
  6
PHANTOM
370
-3
390
F
  0
LAYER
  5
1FD
100
AcDbSymbolTableRecord
100
AcDbLayerTableRecord
  2
ASSI
 70
0
 62
7
  6
CONTINUOUS
370
-3
390
F
  0
LAYER
  5
1FE
100
AcDbSymbolTableRecord
100
AcDbLayerTableRecord
  2
COORDINATE
 70
0
 62
7
  6
CONTINUOUS
370
-3
390
F
  0
LAYER
  5
1FF
100
AcDbSymbolTableRecord
100
AcDbLayerTableRecord
  2
COORD_ORIGINE
 70
0
 62
7
  6
CONTINUOUS
370
-3
390
F
  0
LAYER
  5
200
100
AcDbSymbolTableRecord
100
AcDbLayerTableRecord
  2
COPY_PUBLISH
 70
0
 62
7
  6
CONTINUOUS
370
-3
390
F
  0
LAYER
  5
201
100
AcDbSymbolTableRecord
100
AcDbLayerTableRecord
  2
COSMETIC
 70
0
 62
7
  6
CONTINUOUS
370
-3
390
F
  0
LAYER
  5
202
100
AcDbSymbolTableRecord
100
AcDbLayerTableRecord
  2
COSMETICI
 70
0
 62
7
  6
CONTINUOUS
370
-3
390
F
  0
LAYER
  5
203
100
AcDbSymbolTableRecord
100
AcDbLayerTableRecord
  2
CURVE
 70
0
 62
7
  6
CONTINUOUS
370
-3
390
F
  0
LAYER
  5
204
100
AcDbSymbolTableRecord
100
AcDbLayerTableRecord
  2
DRAFT
 70
0
 62
7
  6
CONTINUOUS
370
-3
390
F
  0
LAYER
  5
205
100
AcDbSymbolTableRecord
100
AcDbLayerTableRecord
  2
IMPORT
 70
0
 62
7
  6
CONTINUOUS
370
-3
390
F
  0
LAYER
  5
206
100
AcDbSymbolTableRecord
100
AcDbLayerTableRecord
  2
IMPORT_IGES
 70
0
 62
7
  6
CONTINUOUS
370
-3
390
F
  0
LAYER
  5
207
100
AcDbSymbolTableRecord
100
AcDbLayerTableRecord
  2
INTFCLR_11
 70
0
 62
7
  6
CONTINUOUS
370
-3
390
F
  0
LAYER
  5
208
100
AcDbSymbolTableRecord
100
AcDbLayerTableRecord
  2
INTF_1
 70
0
 62
7
  6
CONTINUOUS
370
-3
390
F
  0
LAYER
  5
209
100
AcDbSymbolTableRecord
100
AcDbLayerTableRecord
  2
INTF_3
 70
0
 62
7
  6
CONTINUOUS
370
-3
390
F
  0
LAYER
  5
20A
100
AcDbSymbolTableRecord
100
AcDbLayerTableRecord
  2
NOTE
 70
0
 62
7
  6
CONTINUOUS
370
-3
390
F
  0
LAYER
  5
20B
100
AcDbSymbolTableRecord
100
AcDbLayerTableRecord
  2
PIANI
 70
0
 62
7
  6
CONTINUOUS
370
-3
390
F
  0
LAYER
  5
20C
100
AcDbSymbolTableRecord
100
AcDbLayerTableRecord
  2
PIANI_ORIGINE
 70
0
 62
7
  6
CONTINUOUS
370
-3
390
F
  0
LAYER
  5
20D
100
AcDbSymbolTableRecord
100
AcDbLayerTableRecord
  2
PIANI_RIFERIMENTO
 70
0
 62
7
  6
CONTINUOUS
370
-3
390
F
  0
LAYER
  5
20E
100
AcDbSymbolTableRecord
100
AcDbLayerTableRecord
  2
PUNTI
 70
0
 62
7
  6
CONTINUOUS
370
-3
390
F
  0
LAYER
  5
20F
100
AcDbSymbolTableRecord
100
AcDbLayerTableRecord
  2
RACCORDO
 70
0
 62
7
  6
CONTINUOUS
370
-3
390
F
  0
LAYER
  5
210
100
AcDbSymbolTableRecord
100
AcDbLayerTableRecord
  2
SIMBOLI
 70
0
 62
7
  6
CONTINUOUS
370
-3
390
F
  0
LAYER
  5
211
100
AcDbSymbolTableRecord
100
AcDbLayerTableRecord
  2
SMUSSO
 70
0
 62
7
  6
CONTINUOUS
370
-3
390
F
  0
LAYER
  5
212
100
AcDbSymbolTableRecord
100
AcDbLayerTableRecord
  2
SNAPLINE
 70
0
 62
7
  6
CONTINUOUS
370
-3
390
F
  0
LAYER
  5
213
100
AcDbSymbolTableRecord
100
AcDbLayerTableRecord
  2
SUPERFICI
 70
0
 62
7
  6
CONTINUOUS
370
-3
390
F
  0
LAYER
  5
214
100
AcDbSymbolTableRecord
100
AcDbLayerTableRecord
  2
TRASH
 70
0
 62
7
  6
CONTINUOUS
370
-3
390
F
  0
LAYER
  5
215
100
AcDbSymbolTableRecord
100
AcDbLayerTableRecord
  2
XSEC_DATUMS
 70
0
 62
7
  6
CONTINUOUS
370
-3
390
F
  0
LAYER
  5
216
100
AcDbSymbolTableRecord
100
AcDbLayerTableRecord
  2
___SHELL
 70
0
 62
7
  6
CONTINUOUS
370
-3
390
F
  0
ENDTAB
  0
TABLE
  2
STYLE
  5
3
100
AcDbSymbolTable
 70
1
  0
STYLE
  5
11
100
AcDbSymbolTableRecord
100
AcDbTextStyleTableRecord
  2
STANDARD
 70
0
 40
0.0
 41
0.8
 50
0.0
 71
0
 42
0.2
  3
txt
  4

  0
STYLE
  5
217
100
AcDbSymbolTableRecord
100
AcDbTextStyleTableRecord
  2
TEXTSTYLE_1
 70
0
 40
0.0
 41
0.8
 50
0.0
 71
0
 42
0.2
  3
gdt
  4

  0
ENDTAB
  0
TABLE
  2
VIEW
  5
6
100
AcDbSymbolTable
 70
0
  0
ENDTAB
  0
TABLE
  2
UCS
  5
7
100
AcDbSymbolTable
 70
0
  0
ENDTAB
  0
TABLE
  2
APPID
  5
9
100
AcDbSymbolTable
 70
1
  0
APPID
  5
218
100
AcDbSymbolTableRecord
100
AcDbRegAppTableRecord
  2
ACAD
 70
0
  0
ENDTAB
  0
TABLE
  2
BLOCK_RECORD
  5
1
100
AcDbSymbolTable
 70
0
  0
BLOCK_RECORD
  5
219
100
AcDbSymbolTableRecord
100
AcDbBlockTableRecord
  2
*Model_Space
  0
BLOCK_RECORD
  5
21A
100
AcDbSymbolTableRecord
100
AcDbBlockTableRecord
  2
*Paper_Space
  0
BLOCK_RECORD
  5
21B
100
AcDbSymbolTableRecord
100
AcDbBlockTableRecord
  2
_FILLED
  0
BLOCK_RECORD
  5
21C
100
AcDbSymbolTableRecord
100
AcDbBlockTableRecord
  2
*D0
  0
BLOCK_RECORD
  5
21D
100
AcDbSymbolTableRecord
100
AcDbBlockTableRecord
  2
*D1
  0
BLOCK_RECORD
  5
21E
100
AcDbSymbolTableRecord
100
AcDbBlockTableRecord
  2
*D2
  0
BLOCK_RECORD
  5
21F
100
AcDbSymbolTableRecord
100
AcDbBlockTableRecord
  2
*D3
  0
ENDTAB
  0
TABLE
  2
DIMSTYLE
  5
A
100
AcDbSymbolTable
 70
1
100
AcDbDimStyleTable
 71
0
  0
DIMSTYLE
105
220
100
AcDbSymbolTableRecord
100
AcDbDimStyleTableRecord
  2
STANDARD
 70
0
  3

  4

 40
1.0
 41
3.0
 42
0.5
 43
0.38
 44
1.5
 45
0.0
 46
0.0
 47
0.01
 48
0.01
140
3.0
141
0.09
142
0.0
143
25.4
144
1.0
145
0.0
146
1.0
147
0.625
 71
1
 72
0
 73
0
 74
0
 75
0
 76
0
 77
1
 78
8
 79
2
170
0
171
1
172
0
173
0
174
0
175
0
176
0
177
0
178
0
270
2
179
2
271
2
272
2
273
2
274
2
275
0
280
0
281
0
282
0
283
1
284
8
285
0
286
0
287
3
288
0
340
11
278
44
341
21B
342
21B
343
21B
344
21B
  0
DIMSTYLE
105
221
100
AcDbSymbolTableRecord
100
AcDbDimStyleTableRecord
  2
DIMSTYLE_1
 70
0
  3

  4

 40
1.0
 41
3.0
 42
0.5
 43
0.38
 44
1.5
 45
0.0
 46
0.0
 47
0.0
 48
0.0
140
3.0
141
0.09
142
0.0
143
25.4
144
1.0
145
0.0
146
1.0
147
0.75
 71
0
 72
0
 73
0
 74
0
 75
0
 76
0
 77
1
 78
8
 79
2
170
0
171
1
172
0
173
0
174
0
175
0
176
0
177
0
178
0
270
2
179
2
271
1
272
1
273
2
274
2
275
0
280
0
281
0
282
0
283
1
284
8
285
0
286
0
287
3
288
0
340
11
278
44
341
21B
342
21B
343
21B
344
21B
  0
DIMSTYLE
105
222
100
AcDbSymbolTableRecord
100
AcDbDimStyleTableRecord
  2
DIMSTYLE_2
 70
0
  3

  4

 40
1.0
 41
3.0
 42
0.5
 43
0.38
 44
1.5
 45
0.0
 46
0.0
 47
0.0
 48
0.0
140
3.0
141
0.09
142
0.0
143
25.4
144
1.0
145
0.0
146
1.0
147
0.75
 71
0
 72
0
 73
0
 74
0
 75
0
 76
0
 77
1
 78
8
 79
2
170
0
171
1
172
0
173
0
174
0
175
0
176
0
177
0
178
0
270
2
179
2
271
2
272
2
273
2
274
2
275
0
280
0
281
0
282
0
283
1
284
8
285
0
286
0
287
3
288
0
340
11
278
44
341
21B
342
21B
343
21B
344
21B
  0
ENDTAB
  0
ENDSEC
  0
SECTION
  2
BLOCKS
  0
BLOCK
  5
20
100
AcDbEntity
  8
0
100
AcDbBlockBegin
  2
*Model_Space
 70
0
 10
0.0
 20
0.0
 30
0.0
  3
*Model_Space
  1

  0
ENDBLK
  5
21
100
AcDbEntity
  8
0
100
AcDbBlockEnd
  0
BLOCK
  5
1C
100
AcDbEntity
  8
0
100
AcDbBlockBegin
  2
*Paper_Space
 70
0
 10
0.0
 20
0.0
 30
0.0
  3
*Paper_Space
  1

  0
ENDBLK
  5
1D
100
AcDbEntity
  8
0
100
AcDbBlockEnd
  0
BLOCK
  5
223
100
AcDbEntity
  8
0
100
AcDbBlockBegin
  2
_FILLED
 70
64
 10
0.0
 20
0.0
  3
_FILLED
  1

  0
SOLID
  5
224
100
AcDbEntity
  8
0
  6
BYBLOCK
 62
0
100
AcDbTrace
 10
0.0
 20
0.0
 11
-1.0
 21
0.3166666667
 12
-1.0
 22
-0.3166666667
 13
-1.0
 23
-0.3166666667
  0
ENDBLK
  5
225
100
AcDbEntity
  8
0
  6
BYBLOCK
 62
0
100
AcDbBlockEnd
  0
BLOCK
  5
226
100
AcDbEntity
  8
0
100
AcDbBlockBegin
 62
7
  6
CONTINUOUS
  2
*D0
 70
65
 10
0.0
 20
0.0
  3
*D0
  1

  0
LINE
  5
227
100
AcDbEntity
  8
0
100
AcDbLine
 62
7
  6
CONTINUOUS
 10
-22.15
 20
22.3552836469
 11
-22.15
 21
36.5714991539
  0
LINE
  5
228
100
AcDbEntity
  8
0
100
AcDbLine
 62
7
  6
CONTINUOUS
 10
22.4004363434
 20
22.5591252215
 11
22.4004363434
 21
36.5714991539
  0
LINE
  5
229
100
AcDbEntity
  8
0
100
AcDbLine
 62
7
  6
CONTINUOUS
 10
-22.15
 20
35.0714991539
 11
0.1252181717
 21
35.0714991539
  0
LINE
  5
22A
100
AcDbEntity
  8
0
100
AcDbLine
 62
7
  6
CONTINUOUS
 10
22.4004363434
 20
35.0714991539
 11
0.1252181717
 21
35.0714991539
  0
INSERT
  5
22B
100
AcDbEntity
  8
0
100
AcDbBlockReference
 62
7
  6
CONTINUOUS
  2
_FILLED
 10
-22.15
 20
35.0714991539
 41
3.0
 42
3.0
 43
3.0
 50
180.0
  0
INSERT
  5
22C
100
AcDbEntity
  8
0
100
AcDbBlockReference
 62
7
  6
CONTINUOUS
  2
_FILLED
 10
22.4004363434
 20
35.0714991539
 41
3.0
 42
3.0
 43
3.0
  0
ENDBLK
  5
22D
100
AcDbEntity
  8
0
  6
BYBLOCK
 62
0
100
AcDbBlockEnd
  0
BLOCK
  5
22E
100
AcDbEntity
  8
0
100
AcDbBlockBegin
 62
7
  6
CONTINUOUS
  2
*D1
 70
65
 10
0.0
 20
0.0
  3
*D1
  1

  0
LINE
  5
22F
100
AcDbEntity
  8
0
100
AcDbLine
 62
7
  6
CONTINUOUS
 10
21.6500042308
 20
24.6591082985
 11
36.6465950704
 21
24.6591082985
  0
LINE
  5
230
100
AcDbEntity
  8
0
100
AcDbLine
 62
7
  6
CONTINUOUS
 10
21.6500042308
 20
-24.3408917015
 11
36.6465950704
 21
-24.3408917015
  0
LINE
  5
231
100
AcDbEntity
  8
0
100
AcDbLine
 62
7
  6
CONTINUOUS
 10
35.1465950704
 20
24.6591082985
 11
35.1465950704
 21
0.1591082985
  0
LINE
  5
232
100
AcDbEntity
  8
0
100
AcDbLine
 62
7
  6
CONTINUOUS
 10
35.1465950704
 20
-24.3408917015
 11
35.1465950704
 21
0.1591082985
  0
INSERT
  5
233
100
AcDbEntity
  8
0
100
AcDbBlockReference
 62
7
  6
CONTINUOUS
  2
_FILLED
 10
35.1465950704
 20
24.6591082985
 41
3.0
 42
3.0
 43
3.0
 50
90.0
  0
INSERT
  5
234
100
AcDbEntity
  8
0
100
AcDbBlockReference
 62
7
  6
CONTINUOUS
  2
_FILLED
 10
35.1465950704
 20
-24.3408917015
 41
3.0
 42
3.0
 43
3.0
 50
270.0
  0
ENDBLK
  5
235
100
AcDbEntity
  8
0
  6
BYBLOCK
 62
0
100
AcDbBlockEnd
  0
BLOCK
  5
236
100
AcDbEntity
  8
0
100
AcDbBlockBegin
 62
7
  6
CONTINUOUS
  2
*D2
 70
65
 10
0.0
 20
0.0
  3
*D2
  1

  0
LINE
  5
237
100
AcDbEntity
  8
0
100
AcDbLine
 62
7
  6
CONTINUOUS
 10
-49.909803085
 20
25.1591082985
 11
-49.909803085
 21
36.5714991539
  0
LINE
  5
238
100
AcDbEntity
  8
0
100
AcDbLine
 62
7
  6
CONTINUOUS
 10
-37.909803085
 20
21.9950952472
 11
-37.909803085
 21
36.5714991539
  0
LINE
  5
239
100
AcDbEntity
  8
0
100
AcDbLine
 62
7
  6
CONTINUOUS
 10
-49.909803085
 20
35.0714991539
 11
-53.909803085
 21
35.0714991539
  0
LINE
  5
23A
100
AcDbEntity
  8
0
100
AcDbLine
 62
7
  6
CONTINUOUS
 10
-53.909803085
 20
35.0714991539
 11
-43.909803085
 21
35.0714991539
  0
LINE
  5
23B
100
AcDbEntity
  8
0
100
AcDbLine
 62
7
  6
CONTINUOUS
 10
-37.909803085
 20
35.0714991539
 11
-33.909803085
 21
35.0714991539
  0
LINE
  5
23C
100
AcDbEntity
  8
0
100
AcDbLine
 62
7
  6
CONTINUOUS
 10
-33.909803085
 20
35.0714991539
 11
-43.909803085
 21
35.0714991539
  0
INSERT
  5
23D
100
AcDbEntity
  8
0
100
AcDbBlockReference
 62
7
  6
CONTINUOUS
  2
_FILLED
 10
-49.909803085
 20
35.0714991539
 41
3.0
 42
3.0
 43
3.0
  0
INSERT
  5
23E
100
AcDbEntity
  8
0
100
AcDbBlockReference
 62
7
  6
CONTINUOUS
  2
_FILLED
 10
-37.909803085
 20
35.0714991539
 41
3.0
 42
3.0
 43
3.0
 50
180.0
  0
ENDBLK
  5
23F
100
AcDbEntity
  8
0
  6
BYBLOCK
 62
0
100
AcDbBlockEnd
  0
BLOCK
  5
240
100
AcDbEntity
  8
0
100
AcDbBlockBegin
 62
7
  6
CONTINUOUS
  2
*D3
 70
65
 10
0.0
 20
0.0
  3
*D3
  1

  0
LINE
  5
241
100
AcDbEntity
  8
0
100
AcDbLine
 62
7
  6
CONTINUOUS
 10
-37.909803085
 20
21.9950952472
 11
-37.909803085
 21
46.5714991539
  0
LINE
  5
242
100
AcDbEntity
  8
0
100
AcDbLine
 62
7
  6
CONTINUOUS
 10
-60.7520828821
 20
21.2664661321
 11
-60.7520828821
 21
46.5714991539
  0
LINE
  5
243
100
AcDbEntity
  8
0
100
AcDbLine
 62
7
  6
CONTINUOUS
 10
-37.909803085
 20
45.0714991539
 11
-49.3309429835
 21
45.0714991539
  0
LINE
  5
244
100
AcDbEntity
  8
0
100
AcDbLine
 62
7
  6
CONTINUOUS
 10
-60.7520828821
 20
45.0714991539
 11
-49.3309429835
 21
45.0714991539
  0
INSERT
  5
245
100
AcDbEntity
  8
0
100
AcDbBlockReference
 62
7
  6
CONTINUOUS
  2
_FILLED
 10
-37.909803085
 20
45.0714991539
 41
3.0
 42
3.0
 43
3.0
  0
INSERT
  5
246
100
AcDbEntity
  8
0
100
AcDbBlockReference
 62
7
  6
CONTINUOUS
  2
_FILLED
 10
-60.7520828821
 20
45.0714991539
 41
3.0
 42
3.0
 43
3.0
 50
180.0
  0
ENDBLK
  5
247
100
AcDbEntity
  8
0
  6
BYBLOCK
 62
0
100
AcDbBlockEnd
  0
ENDSEC
  0
SECTION
  2
ENTITIES
  0
DIMENSION
  5
248
100
AcDbEntity
  8
0
100
AcDbDimension
 62
7
  6
CONTINUOUS
  2
*D0
 10
22.4004363434
 20
35.0714991539
 11
-4.2676389712
 21
35.0714991539
 70
160
 71
2
 72
2
 41
0.9
 42
44.5504363434
  3
DIMSTYLE_1
100
AcDbAlignedDimension
 13
-22.15
 23
21.8552836469
 14
22.4004363434
 24
22.0591252215
100
AcDbRotatedDimension
  0
DIMENSION
  5
249
100
AcDbEntity
  8
0
100
AcDbDimension
 62
7
  6
CONTINUOUS
  2
*D1
 10
35.1465950704
 20
-24.3408917015
 11
35.1465950704
 21
-2.1980345586
 70
160
 71
2
 72
2
 41
0.9
 42
49.0
  3
DIMSTYLE_2
100
AcDbAlignedDimension
 13
21.1500042308
 23
24.6591082985
 14
21.1500042308
 24
-24.3408917015
 50
270.0
100
AcDbRotatedDimension
  0
DIMENSION
  5
24A
100
AcDbEntity
  8
0
100
AcDbDimension
 62
7
  6
CONTINUOUS
  2
*D2
 10
-37.909803085
 20
35.0714991539
 11
-45.9455173707
 21
35.0714991539
 70
160
 71
2
 72
2
 41
0.9
 42
12.0
  3
DIMSTYLE_2
100
AcDbAlignedDimension
 13
-49.909803085
 23
24.6591082985
 14
-37.909803085
 24
21.4950952472
100
AcDbRotatedDimension
  0
DIMENSION
  5
24B
100
AcDbEntity
  8
0
100
AcDbDimension
 62
7
  6
CONTINUOUS
  2
*D3
 10
-60.7520828821
 20
45.0714991539
 11
-53.7238001264
 21
45.0714991539
 70
160
 71
2
 72
2
 41
0.9
 42
22.8422797971
  3
DIMSTYLE_1
100
AcDbAlignedDimension
 13
-37.909803085
 23
21.4950952472
 14
-60.7520828821
 24
20.7664661321
 50
180.0
100
AcDbRotatedDimension
  0
LWPOLYLINE
  5
24C
100
AcDbEntity
  8
ASSI
100
AcDbPolyline
 62
7
  6
CONTINUOUS
 90
11
 70
0
 10
-21.8825995048
 20
-21.7598375012
 10
-21.8567716171
 20
-21.783877068
 10
-21.82461578
 20
-21.8095251092
 10
-21.7900388021
 20
-21.832709031
 10
-21.7531317898
 20
-21.853203975
 10
-21.7140323831
 20
-21.8707552346
 10
-21.6729394933
 20
-21.8850894451
 10
-21.6301266837
 20
-21.8959306876
 10
-21.5858916581
 20
-21.9030288737
 10
-21.5405638821
 20
-21.9061583447
 10
-21.5292454706
 20
-21.9062966208
  0
LINE
  5
24D
100
AcDbEntity
  8
ASSI
100
AcDbLine
 62
7
  6
CONTINUOUS
 10
-21.8826047171
 20
-21.7598427308
 11
-22.003866527
 21
-21.6385810538
  0
LINE
  5
24E
100
AcDbEntity
  8
ASSI
100
AcDbLine
 62
250
  6
CONTINUOUS
 10
-22.0290966686
 20
-21.4067577914
 11
-22.15
 21
-21.2858544599
  0
LWPOLYLINE
  5
24F
100
AcDbEntity
  8
ASSI
100
AcDbPolyline
 62
250
  6
CONTINUOUS
 90
9
 70
0
 10
-21.8828213967
 20
-21.7596261841
 10
-21.9005909253
 20
-21.740913617
 10
-21.9335171597
 20
-21.7003079422
 10
-21.9620182155
 20
-21.656481375
 10
-21.9857821015
 20
-21.6099136698
 10
-22.0045486824
 20
-21.5611145877
 10
-22.0181125267
 20
-21.5106183156
 10
-22.0263251557
 20
-21.4589776191
 10
-22.0290966686
 20
-21.4067577914
  0
LINE
  5
250
100
AcDbEntity
  8
0
100
AcDbLine
 62
7
  6
CONTINUOUS
 10
22.0287444328
 20
-22.2238767099
 11
22.0106003307
 21
-22.2283780627
  0
LINE
  5
251
100
AcDbEntity
  8
0
100
AcDbLine
 62
7
  6
CONTINUOUS
 10
22.0116466326
 20
-22.2283691643
 11
22.0298106129
 21
-22.2238645548
  0
LINE
  5
252
100
AcDbEntity
  8
0
100
AcDbLine
 62
7
  6
CONTINUOUS
 10
22.0116466326
 20
-22.2283691643
 11
21.9922605054
 21
-22.2321945378
  0
LINE
  5
253
100
AcDbEntity
  8
0
100
AcDbLine
 62
7
  6
CONTINUOUS
 10
21.9933216825
 20
-22.2321883875
 11
21.9737539988
 21
-22.2353309888
  0
LWPOLYLINE
  5
254
100
AcDbEntity
  8
0
100
AcDbPolyline
 62
7
  6
CONTINUOUS
 90
10
 70
0
 43
0.3500000006
 10
3.2323610086
 20
38.8214970703
 10
2.5895038719
 20
38.1786436157
 10
2.1609324946
 20
37.3215011444
 10
2.1609324946
 20
36.2500696564
 10
2.5895038719
 20
35.8215006866
 10
3.2323610086
 20
35.8215006866
 10
3.6609325275
 20
36.2500696564
 10
3.6609325275
 20
37.1072121277
 10
3.2323610086
 20
37.5357856293
 10
2.3037896204
 20
37.5357856293
  0
LINE
  5
255
100
AcDbEntity
  8
0
100
AcDbLine
 62
7
  6
CONTINUOUS
 10
21.9552548208
 20
-22.2377706111
 11
21.9748302154
 21
-22.2353270953
  0
LINE
  5
256
100
AcDbEntity
  8
0
100
AcDbLine
 62
7
  6
CONTINUOUS
 10
21.9368209747
 20
-22.2395078032
 11
21.956242785
 21
-22.2377684631
  0
LWPOLYLINE
  5
257
100
AcDbEntity
  8
0
100
AcDbPolyline
 62
7
  6
CONTINUOUS
 90
35
 70
0
 10
10.0587239759
 20
-23.8407013382
 10
10.0674313393
 20
-23.8401306114
 10
10.0761055151
 20
-23.8391806084
 10
10.084729991
 20
-23.837853138
 10
10.0932883498
 20
-23.8361507279
 10
10.1017643002
 20
-23.8340766198
 10
10.1101417076
 20
-23.8316347623
 10
10.1184046251
 20
-23.8288298043
 10
10.1265373238
 20
-23.8256670864
 10
10.1345243226
 20
-23.8221526293
 10
10.142350418
 20
-23.8182931236
 10
10.1500007124
 20
-23.8140959175
 10
10.1574606433
 20
-23.8095690009
 10
10.1647160107
 20
-23.8047209915
 10
10.1717530036
 20
-23.7995611193
 10
10.1785582271
 20
-23.7940992066
 10
10.1851187275
 20
-23.7883456508
 10
10.1914220169
 20
-23.7823114057
 10
10.1974560971
 20
-23.7760079579
 10
10.2032094825
 20
-23.7694473065
 10
10.2086712217
 20
-23.7626419415
 10
10.2138309187
 20
-23.7556048174
 10
10.2186787524
 20
-23.7483493297
 10
10.2232054955
 20
-23.7408892907
 10
10.2274025317
 20
-23.7332389011
 10
10.2312618726
 20
-23.7254127234
 10
10.2347761726
 20
-23.7174256562
 10
10.2379387427
 20
-23.7092929029
 10
10.2407435636
 20
-23.7010299442
 10
10.2431852971
 20
-23.6926525099
 10
10.2452592959
 20
-23.6841765462
 10
10.2469616128
 20
-23.6756181869
 10
10.2482890083
 20
-23.6669937237
 10
10.249238956
 20
-23.6583195734
 10
10.2498096485
 20
-23.6496122464
  0
LINE
  5
258
100
AcDbEntity
  8
0
100
AcDbLine
 62
7
  6
CONTINUOUS
 10
21.9183944573
 20
-22.2405481667
 11
21.9375829094
 21
-22.2395068826
  0
LWPOLYLINE
  5
259
100
AcDbEntity
  8
ASSI
100
AcDbPolyline
 62
7
  6
CONTINUOUS
 90
12
 70
0
 10
21.5292455077
 20
-21.906296618
 10
21.5681276966
 20
-21.9047485723
 10
21.607038401
 20
-21.9001423478
 10
21.6450083161
 20
-21.8926167667
 10
21.6818276024
 20
-21.8823260043
 10
21.71730921
 20
-21.8694363866
 10
21.7512903929
 20
-21.8541224665
 10
21.7836285374
 20
-21.8365655714
 10
21.8141739257
 20
-21.8169705228
 10
21.8428505073
 20
-21.7955134139
 10
21.8696440895
 20
-21.7723200212
 10
21.8813280782
 20
-21.7611027685
  0
LWPOLYLINE
  5
25A
100
AcDbEntity
  8
0
100
AcDbPolyline
 62
250
  6
CONTINUOUS
 90
32
 70
0
 10
10.05
 20
-23.8391395832
 10
10.0595177689
 20
-23.8389129889
 10
10.0690139853
 20
-23.8382337179
 10
10.0784671306
 20
-23.8371033075
 10
10.0878557901
 20
-23.8355243158
 10
10.0971586822
 20
-23.8335003195
 10
10.1063547081
 20
-23.8310359081
 10
10.1154230243
 20
-23.8281366686
 10
10.1243430874
 20
-23.8248091699
 10
10.1330946827
 20
-23.8210609537
 10
10.141657981
 20
-23.8169005135
 10
10.1500135766
 20
-23.8123372784
 10
10.1581425291
 20
-23.8073815942
 10
10.1660264176
 20
-23.8020446935
 10
10.1736473808
 20
-23.7963386702
 10
10.1809881503
 20
-23.7902764564
 10
10.1880320988
 20
-23.7838717857
 10
10.1947632611
 20
-23.7771391768
 10
10.2011663717
 20
-23.7700939039
 10
10.2072269084
 20
-23.7627519567
 10
10.212931162
 20
-23.7551299547
 10
10.2182662456
 20
-23.7472451188
 10
10.223220111
 20
-23.7391152384
 10
10.2277814795
 20
-23.7307588041
 10
10.2319399301
 20
-23.7221949297
 10
10.2356860161
 20
-23.7134431467
 10
10.2390113298
 20
-23.704523183
 10
10.24190841
 20
-23.6954550877
 10
10.2443710508
 20
-23.686257928
 10
10.2463931735
 20
-23.6769539851
 10
10.2479695714
 20
-23.667568686
 10
10.249097153
 20
-23.6581248405
  0
LINE
  5
25B
100
AcDbEntity
  8
0
100
AcDbLine
 62
7
  6
CONTINUOUS
 10
10.05
 20
-23.8408917015
 11
10.0587239759
 21
-23.8407013382
  0
LWPOLYLINE
  5
25C
100
AcDbEntity
  8
0
100
AcDbPolyline
 62
7
  6
CONTINUOUS
 90
46
 70
0
 10
18.7572765181
 20
-22.9635414323
 10
18.7477548078
 20
-22.9636815725
 10
18.7382612279
 20
-22.9640267811
 10
18.72880942
 20
-22.964577058
 10
18.7194002723
 20
-22.9653371495
 10
18.710059835
 20
-22.9663023094
 10
18.7008384812
 20
-22.967458299
 10
18.6917611052
 20
-22.9688055399
 10
18.6828257477
 20
-22.9703436105
 10
18.6740410274
 20
-22.9720570084
 10
18.6654172855
 20
-22.9739460033
 10
18.6569642137
 20
-22.9760103254
 10
18.6486888322
 20
-22.9782336627
 10
18.6405999915
 20
-22.9806161603
 10
18.6327059209
 20
-22.983157673
 10
18.6250121704
 20
-22.9858414528
 10
18.6175261767
 20
-22.9886675442
 10
18.6102547994
 20
-22.9916359026
 10
18.6032022797
 20
-22.9947296475
 10
18.5963747203
 20
-22.9979487546
 10
18.5897777311
 20
-23.0012932481
 10
18.5834144623
 20
-23.00474632
 10
18.5772897886
 20
-23.0083079021
 10
18.5714081666
 20
-23.0119780626
 10
18.5657718473
 20
-23.0157401984
 10
18.5603845799
 20
-23.0195942147
 10
18.5552497557
 20
-23.0235402064
 10
18.5503688747
 20
-23.0275618547
 10
18.5457446542
 20
-23.0316590488
 10
18.5413794967
 20
-23.0358318997
 10
18.5372742531
 20
-23.0400644215
 10
18.5334306904
 20
-23.0443564914
 10
18.5298502871
 20
-23.0487082323
 10
18.5265333048
 20
-23.0531040263
 10
18.5234806282
 20
-23.0575437389
 10
18.5206928681
 20
-23.0620275047
 10
18.5181697239
 20
-23.0665401099
 10
18.515911256
 20
-23.0710814032
 10
18.513917257
 20
-23.075651536
 10
18.5121868671
 20
-23.0802357483
 10
18.5107193734
 20
-23.0848338674
 10
18.5095137977
 20
-23.0894460661
 10
18.5085687189
 20
-23.0940581028
 10
18.5078826705
 20
-23.0986652304
 10
18.5074540049
 20
-23.103272196
 10
18.5072807489
 20
-23.1078789996
  0
LINE
  5
25D
100
AcDbEntity
  8
0
100
AcDbLine
 62
7
  6
CONTINUOUS
 10
1.3499957692
 20
-24.3408917015
 11
3.7500042308
 21
-24.3408917015
  0
LINE
  5
25E
100
AcDbEntity
  8
0
100
AcDbLine
 62
7
  6
CONTINUOUS
 10
18.7499957692
 20
-24.3408917015
 11
21.1500042308
 21
-24.3408917015
  0
LINE
  5
25F
100
AcDbEntity
  8
0
100
AcDbLine
 62
250
  6
CONTINUOUS
 10
1.3630943479
 20
-24.3277931228
 11
3.7369056521
 21
-24.3277931228
  0
LINE
  5
260
100
AcDbEntity
  8
0
100
AcDbLine
 62
250
  6
CONTINUOUS
 10
18.7630943479
 20
-24.3277931228
 11
21.1369056521
 21
-24.3277931228
  0
LINE
  5
261
100
AcDbEntity
  8
0
100
AcDbLine
 62
250
  6
CONTINUOUS
 10
1.1130985787
 20
-24.0777973536
 11
3.9869014213
 21
-24.0777973536
  0
LINE
  5
262
100
AcDbEntity
  8
0
100
AcDbLine
 62
250
  6
CONTINUOUS
 10
18.5130985787
 20
-24.0777973536
 11
21.3869014213
 21
-24.0777973536
  0
LINE
  5
263
100
AcDbEntity
  8
0
100
AcDbLine
 62
7
  6
CONTINUOUS
 10
15.7
 20
-23.8408917015
 11
12.45
 21
-23.8408917015
  0
LINE
  5
264
100
AcDbEntity
  8
0
100
AcDbLine
 62
7
  6
CONTINUOUS
 10
10.05
 20
-23.8408917015
 11
6.8
 21
-23.8408917015
  0
LINE
  5
265
100
AcDbEntity
  8
0
100
AcDbLine
 62
250
  6
CONTINUOUS
 10
7.75
 20
-23.8391395832
 11
10.05
 21
-23.8391395832
  0
LINE
  5
266
100
AcDbEntity
  8
0
100
AcDbLine
 62
250
  6
CONTINUOUS
 10
12.45
 20
-23.8391395832
 11
14.75
 21
-23.8391395832
  0
LINE
  5
267
100
AcDbEntity
  8
0
100
AcDbLine
 62
7
  6
CONTINUOUS
 10
15.6912732553
 20
-23.8321649568
 11
14.75
 21
-23.8321649568
  0
LINE
  5
268
100
AcDbEntity
  8
0
100
AcDbLine
 62
7
  6
CONTINUOUS
 10
7.75
 20
-23.8321649568
 11
6.8087267447
 21
-23.8321649568
  0
LINE
  5
269
100
AcDbEntity
  8
0
100
AcDbLine
 62
250
  6
CONTINUOUS
 10
1.1130985787
 20
-23.6852292688
 11
3.9869014213
 21
-23.6852292688
  0
LINE
  5
26A
100
AcDbEntity
  8
0
100
AcDbLine
 62
250
  6
CONTINUOUS
 10
18.5130985787
 20
-23.6852292688
 11
21.3869014213
 21
-23.6852292688
  0
LINE
  5
26B
100
AcDbEntity
  8
0
100
AcDbLine
 62
250
  6
CONTINUOUS
 10
7.75
 20
-23.6391429679
 11
10.2498099606
 21
-23.6391429679
  0
LINE
  5
26C
100
AcDbEntity
  8
0
100
AcDbLine
 62
250
  6
CONTINUOUS
 10
12.25
 20
-23.6391429679
 11
14.75
 21
-23.6391429679
  0
LINE
  5
26D
100
AcDbEntity
  8
0
100
AcDbLine
 62
250
  6
CONTINUOUS
 10
21.1369056521
 20
-23.4687229178
 11
18.7630943479
 21
-23.4687229178
  0
LINE
  5
26E
100
AcDbEntity
  8
0
100
AcDbLine
 62
250
  6
CONTINUOUS
 10
3.7369056521
 20
-23.4687229178
 11
1.3630943479
 21
-23.4687229178
  0
LINE
  5
26F
100
AcDbEntity
  8
0
100
AcDbLine
 62
7
  6
CONTINUOUS
 10
21.1427234819
 20
-22.9635414323
 11
18.7572765181
 21
-22.9635414323
  0
LINE
  5
270
100
AcDbEntity
  8
0
100
AcDbLine
 62
7
  6
CONTINUOUS
 10
1.3572765181
 20
-22.9635414323
 11
3.7427234819
 21
-22.9635414323
  0
LINE
  5
271
100
AcDbEntity
  8
0
100
AcDbLine
 62
7
  6
CONTINUOUS
 10
12.45
 20
-23.8408917015
 11
12.4412760241
 21
-23.8407013382
  0
LWPOLYLINE
  5
272
100
AcDbEntity
  8
0
100
AcDbPolyline
 62
7
  6
CONTINUOUS
 90
34
 70
0
 10
1.3499957692
 20
-24.3408917015
 10
1.338100484
 20
-24.3406085512
 10
1.3262321444
 20
-24.3397597357
 10
1.3144176339
 20
-24.3383471756
 10
1.3026837125
 20
-24.3363740692
 10
1.2910569612
 20
-24.3338448832
 10
1.279563721
 20
-24.3307653432
 10
1.2682300262
 20
-24.3271424228
 10
1.2570815507
 20
-24.3229843273
 10
1.2461435537
 20
-24.3183004737
 10
1.2354408124
 20
-24.3131014703
 10
1.2249975717
 20
-24.3073990931
 10
1.2148374941
 20
-24.3012062596
 10
1.2049835949
 20
-24.294536997
 10
1.1954581962
 20
-24.2874064122
 10
1.1862828809
 20
-24.2798306604
 10
1.1774784339
 20
-24.271826902
 10
1.1690647995
 20
-24.2634132676
 10
1.1610610411
 20
-24.2546088206
 10
1.1534852893
 20
-24.2454335053
 10
1.1463547045
 20
-24.2359081066
 10
1.1396854419
 20
-24.2260542074
 10
1.1334926084
 20
-24.2158941298
 10
1.1277902312
 20
-24.2054508891
 10
1.1225912278
 20
-24.1947481478
 10
1.1179073742
 20
-24.1838101508
 10
1.1137492787
 20
-24.1726616753
 10
1.1101263583
 20
-24.1613279805
 10
1.1070468183
 20
-24.1498347403
 10
1.1045176323
 20
-24.138207989
 10
1.1025445259
 20
-24.1264740676
 10
1.1011319658
 20
-24.1146595571
 10
1.1002831502
 20
-24.1027912175
 10
1.1
 20
-24.0908959323
  0
LWPOLYLINE
  5
273
100
AcDbEntity
  8
0
100
AcDbPolyline
 62
250
  6
CONTINUOUS
 90
34
 70
0
 10
1.3630943479
 20
-24.3277931228
 10
1.3512188764
 20
-24.3275105031
 10
1.3393651338
 20
-24.3266636013
 10
1.3275599583
 20
-24.3252536054
 10
1.3158284637
 20
-24.3232826594
 10
1.3041990284
 20
-24.3207546695
 10
1.2927030628
 20
-24.3176760908
 10
1.2813682977
 20
-24.3140544811
 10
1.2702186857
 20
-24.3098976267
 10
1.2592792846
 20
-24.3052148531
 10
1.2485747498
 20
-24.3000166678
 10
1.2381294963
 20
-24.2943148793
 10
1.2279674207
 20
-24.2881225169
 10
1.218111636
 20
-24.2814536796
 10
1.2085843746
 20
-24.2743234263
 10
1.1994071613
 20
-24.2667478654
 10
1.1906007697
 20
-24.2587441338
 10
1.1821851835
 20
-24.2503303822
 10
1.1741794893
 20
-24.2415256867
 10
1.1666018328
 20
-24.2323499997
 10
1.1594693818
 20
-24.2228241054
 10
1.1527983017
 20
-24.2129695894
 10
1.1466037094
 20
-24.2028087772
 10
1.1408996441
 20
-24.192364692
 10
1.1356990365
 20
-24.1816610055
 10
1.1310136722
 20
-24.170721972
 10
1.1268541679
 20
-24.1595723757
 10
1.1232299507
 20
-24.1482374832
 10
1.1201492321
 20
-24.1367429721
 10
1.1176189951
 20
-24.1251148928
 10
1.1156449765
 20
-24.1133796131
 10
1.1142316477
 20
-24.1015637307
 10
1.1133822076
 20
-24.0896940125
 10
1.1130985787
 20
-24.0777973536
  0
LWPOLYLINE
  5
274
100
AcDbEntity
  8
0
100
AcDbPolyline
 62
7
  6
CONTINUOUS
 90
34
 70
0
 10
18.7499957692
 20
-24.3408917015
 10
18.738100484
 20
-24.3406085512
 10
18.7262321444
 20
-24.3397597357
 10
18.7144176339
 20
-24.3383471756
 10
18.7026837125
 20
-24.3363740692
 10
18.6910569612
 20
-24.3338448832
 10
18.679563721
 20
-24.3307653432
 10
18.6682300262
 20
-24.3271424228
 10
18.6570815507
 20
-24.3229843273
 10
18.6461435537
 20
-24.3183004737
 10
18.6354408124
 20
-24.3131014703
 10
18.6249975717
 20
-24.3073990931
 10
18.6148374941
 20
-24.3012062596
 10
18.6049835949
 20
-24.294536997
 10
18.5954581962
 20
-24.2874064122
 10
18.5862828809
 20
-24.2798306604
 10
18.5774784339
 20
-24.271826902
 10
18.5690647995
 20
-24.2634132676
 10
18.5610610411
 20
-24.2546088206
 10
18.5534852893
 20
-24.2454335053
 10
18.5463547045
 20
-24.2359081066
 10
18.5396854419
 20
-24.2260542074
 10
18.5334926084
 20
-24.2158941298
 10
18.5277902312
 20
-24.2054508891
 10
18.5225912278
 20
-24.1947481478
 10
18.5179073742
 20
-24.1838101508
 10
18.5137492787
 20
-24.1726616753
 10
18.5101263583
 20
-24.1613279805
 10
18.5070468183
 20
-24.1498347403
 10
18.5045176323
 20
-24.138207989
 10
18.5025445259
 20
-24.1264740676
 10
18.5011319658
 20
-24.1146595571
 10
18.5002831502
 20
-24.1027912175
 10
18.5
 20
-24.0908959323
  0
LWPOLYLINE
  5
275
100
AcDbEntity
  8
0
100
AcDbPolyline
 62
250
  6
CONTINUOUS
 90
34
 70
0
 10
18.7630943479
 20
-24.3277931228
 10
18.7511993264
 20
-24.327509572
 10
18.7393312497
 20
-24.326660367
 10
18.7275170018
 20
-24.3252474316
 10
18.7157833446
 20
-24.3232739664
 10
18.7041568574
 20
-24.3207444416
 10
18.6926638767
 20
-24.3176645872
 10
18.6813304369
 20
-24.3140413798
 10
18.6701822107
 20
-24.3098830267
 10
18.6592444513
 20
-24.3051989477
 10
18.6485419351
 20
-24.299999753
 10
18.6380989058
 20
-24.2942972202
 10
18.6279390193
 20
-24.2881042666
 10
18.6180852898
 20
-24.2814349208
 10
18.6085600383
 20
-24.2743042902
 10
18.5993848416
 20
-24.2667285274
 10
18.5905804837
 20
-24.2587247932
 10
18.5821669083
 20
-24.2503112178
 10
18.5741631741
 20
-24.2415068599
 10
18.5665874113
 20
-24.2323316632
 10
18.5594567807
 20
-24.2228064117
 10
18.5527874349
 20
-24.2129526822
 10
18.5465944813
 20
-24.2027927956
 10
18.5408919485
 20
-24.1923497664
 10
18.5356927538
 20
-24.1816472502
 10
18.5310086747
 20
-24.1707094908
 10
18.5268503217
 20
-24.1595612646
 10
18.5232271143
 20
-24.1482278247
 10
18.5201472599
 20
-24.1367348441
 10
18.5176177351
 20
-24.1251083569
 10
18.5156442699
 20
-24.1133746997
 10
18.5142313345
 20
-24.1015604518
 10
18.5133821295
 20
-24.0896923751
 10
18.5130985787
 20
-24.0777973536
  0
LWPOLYLINE
  5
276
100
AcDbEntity
  8
0
100
AcDbPolyline
 62
250
  6
CONTINUOUS
 90
33
 70
0
 10
12.45
 20
-23.8391395832
 10
12.4404836168
 20
-23.8389130549
 10
12.4309887913
 20
-23.8382339831
 10
12.4215370323
 20
-23.8371039061
 10
12.4121497511
 20
-23.8355253839
 10
12.4028482129
 20
-23.8335019923
 10
12.3936534886
 20
-23.8310383151
 10
12.3845864073
 20
-23.8281399331
 10
12.3756675089
 20
-23.8248134123
 10
12.3669169974
 20
-23.8210662882
 10
12.3583546957
 20
-23.8169070492
 10
12.35
 20
-23.8123451174
 10
12.3418718365
 20
-23.8073908271
 10
12.3339886181
 20
-23.8020554012
 10
12.3263682028
 20
-23.7963509263
 10
12.3190278532
 20
-23.7902903248
 10
12.3119841977
 20
-23.7838873259
 10
12.3052531924
 20
-23.7771564345
 10
12.2988500851
 20
-23.7701128982
 10
12.2927893811
 20
-23.7627726729
 10
12.2870848096
 20
-23.7551523865
 10
12.2817492934
 20
-23.7472693015
 10
12.2767949192
 20
-23.7391412755
 10
12.2722329103
 20
-23.7307867213
 10
12.2680736009
 20
-23.7222245644
 10
12.2643264134
 20
-23.7134742011
 10
12.2609998363
 20
-23.7045554535
 10
12.2581014053
 20
-23.6954885257
 10
12.2556376863
 20
-23.686293957
 10
12.2536142605
 20
-23.6769925762
 10
12.2520357116
 20
-23.6676054538
 10
12.2509056155
 20
-23.6581538548
 10
12.2502265322
 20
-23.64865919
  0
LWPOLYLINE
  5
277
100
AcDbEntity
  8
0
100
AcDbPolyline
 62
7
  6
CONTINUOUS
 90
35
 70
0
 10
12.4412760241
 20
-23.8407013382
 10
12.4325686607
 20
-23.8401306114
 10
12.4238944849
 20
-23.8391806084
 10
12.415270009
 20
-23.837853138
 10
12.4067116502
 20
-23.8361507279
 10
12.3982356998
 20
-23.8340766198
 10
12.3898582924
 20
-23.8316347623
 10
12.3815953749
 20
-23.8288298043
 10
12.3734626762
 20
-23.8256670864
 10
12.3654756774
 20
-23.8221526293
 10
12.357649582
 20
-23.8182931236
 10
12.3499992876
 20
-23.8140959175
 10
12.3425393567
 20
-23.8095690009
 10
12.3352839893
 20
-23.8047209915
 10
12.3282469964
 20
-23.7995611193
 10
12.3214417729
 20
-23.7940992066
 10
12.3148812725
 20
-23.7883456508
 10
12.3085779831
 20
-23.7823114057
 10
12.3025439029
 20
-23.7760079579
 10
12.2967905175
 20
-23.7694473065
 10
12.2913287783
 20
-23.7626419415
 10
12.2861690813
 20
-23.7556048174
 10
12.2813212476
 20
-23.7483493297
 10
12.2767945045
 20
-23.7408892907
 10
12.2725974683
 20
-23.7332389011
 10
12.2687381274
 20
-23.7254127234
 10
12.2652238274
 20
-23.7174256562
 10
12.2620612573
 20
-23.7092929029
 10
12.2592564364
 20
-23.7010299442
 10
12.2568147029
 20
-23.6926525099
 10
12.2547407041
 20
-23.6841765462
 10
12.2530383872
 20
-23.6756181869
 10
12.2517109917
 20
-23.6669937237
 10
12.250761044
 20
-23.6583195734
 10
12.2501903515
 20
-23.6496122464
  0
LINE
  5
278
100
AcDbEntity
  8
ASSI
100
AcDbLine
 62
250
  6
CONTINUOUS
 10
-22.0192337331
 20
21.3518616967
 11
-22.0171769578
 21
21.2856866032
  0
LINE
  5
279
100
AcDbEntity
  8
ASSI
100
AcDbLine
 62
250
  6
CONTINUOUS
 10
-22.0171769578
 20
21.2856866032
 11
-22.0153687914
 21
21.2092967646
  0
LINE
  5
27A
100
AcDbEntity
  8
ASSI
100
AcDbLine
 62
250
  6
CONTINUOUS
 10
-22.0153687914
 20
21.2092967646
 11
-22.0138541032
 21
21.1243961522
  0
LINE
  5
27B
100
AcDbEntity
  8
ASSI
100
AcDbLine
 62
250
  6
CONTINUOUS
 10
-22.0138541032
 20
21.1243961522
 11
-22.0126643705
 21
21.0329984241
  0
LINE
  5
27C
100
AcDbEntity
  8
ASSI
100
AcDbLine
 62
250
  6
CONTINUOUS
 10
-21.5292680107
 20
21.9920487188
 11
-21.5291704084
 21
21.9822443835
  0
LINE
  5
27D
100
AcDbEntity
  8
ASSI
100
AcDbLine
 62
250
  6
CONTINUOUS
 10
-22.0126643705
 20
21.0329984241
 11
-22.0115327901
 21
20.8876514403
  0
LINE
  5
27E
100
AcDbEntity
  8
ASSI
100
AcDbLine
 62
250
  6
CONTINUOUS
 10
-21.5291704084
 20
21.9822443835
 11
-21.5288338949
 21
21.7997979669
  0
LWPOLYLINE
  5
27F
100
AcDbEntity
  8
ASSI
100
AcDbPolyline
 62
250
  6
CONTINUOUS
 90
9
 70
0
 10
-22.0115327901
 20
20.8876514403
 10
-22.006682419
 20
16.1622878851
 10
-22.0032675958
 20
11.5382745214
 10
-22.0009910471
 20
6.915835642
 10
-21.9998527728
 20
2.2945042345
 10
-21.999852773
 20
-2.3252526887
 10
-22.0009910472
 20
-6.9420340906
 10
-22.0032675954
 20
-11.5553729591
 10
-22.0066824177
 20
-16.1657363063
  0
LINE
  5
280
100
AcDbEntity
  8
ASSI
100
AcDbLine
 62
250
  6
CONTINUOUS
 10
-21.5288338949
 20
21.7997979669
 11
-21.5287041993
 21
21.6367803641
  0
LWPOLYLINE
  5
281
100
AcDbEntity
  8
ASSI
100
AcDbPolyline
 62
250
  6
CONTINUOUS
 90
9
 70
0
 10
-21.5259906577
 20
16.1539072599
 10
-21.5239884873
 20
11.5250659299
 10
-21.522653707
 20
6.8973942396
 10
-21.5219863168
 20
2.2712462106
 10
-21.5219863169
 20
-2.352912799
 10
-21.5226537074
 20
-6.974506313
 10
-21.5239884882
 20
-11.5930699334
 10
-21.5259906592
 20
-16.208251785
 10
-21.5285908517
 20
-21.1522094766
  0
LINE
  5
282
100
AcDbEntity
  8
ASSI
100
AcDbLine
 62
250
  6
CONTINUOUS
 10
-21.5287041993
 20
21.6367803641
 11
-21.5286225309
 21
21.4352021888
  0
LINE
  5
283
100
AcDbEntity
  8
ASSI
100
AcDbLine
 62
7
  6
CONTINUOUS
 10
-22.15
 20
-21.2858544599
 11
-22.15
 21
21.8552836469
  0
LINE
  5
284
100
AcDbEntity
  8
ASSI
100
AcDbLine
 62
250
  6
CONTINUOUS
 10
-21.5286225309
 20
21.4352021888
 11
-21.5259906577
 21
16.1539072599
  0
LINE
  5
285
100
AcDbEntity
  8
ASSI
100
AcDbLine
 62
250
  6
CONTINUOUS
 10
-21.5285908517
 20
-21.1522094766
 11
-21.5288339014
 21
-21.77358938
  0
LWPOLYLINE
  5
286
100
AcDbEntity
  8
ASSI
100
AcDbPolyline
 62
250
  6
CONTINUOUS
 90
4
 70
0
 10
-21.5288339014
 20
-21.77358938
 10
-21.5291059813
 20
-21.8981110862
 10
-21.5291704053
 20
-21.9050767013
 10
-21.52922749
 20
-21.9063131972
  0
LINE
  5
287
100
AcDbEntity
  8
ASSI
100
AcDbLine
 62
250
  6
CONTINUOUS
 10
-22.0066824177
 20
-16.1657363063
 11
-22.0115327859
 21
-20.8717115662
  0
LINE
  5
288
100
AcDbEntity
  8
ASSI
100
AcDbLine
 62
250
  6
CONTINUOUS
 10
-22.0115327859
 20
-20.8717115662
 11
-22.0126643657
 21
-21.0125353319
  0
LINE
  5
289
100
AcDbEntity
  8
ASSI
100
AcDbLine
 62
250
  6
CONTINUOUS
 10
-22.0126643657
 20
-21.0125353319
 11
-22.0138540984
 21
-21.0991773899
  0
LINE
  5
28A
100
AcDbEntity
  8
ASSI
100
AcDbLine
 62
250
  6
CONTINUOUS
 10
-22.0138540984
 20
-21.0991773899
 11
-22.0153687867
 21
-21.178023401
  0
LWPOLYLINE
  5
28B
100
AcDbEntity
  8
ASSI
100
AcDbPolyline
 62
250
  6
CONTINUOUS
 90
12
 70
0
 10
-22.0153687867
 20
-21.178023401
 10
-22.0171769531
 20
-21.2471855301
 10
-22.0181757392
 20
-21.2776455769
 10
-22.0192337284
 20
-21.3051391601
 10
-22.0203500342
 20
-21.329713364
 10
-22.0215075411
 20
-21.3509933385
 10
-22.0227074662
 20
-21.3689277215
 10
-22.0239485923
 20
-21.3835678751
 10
-22.0252101523
 20
-21.3946930353
 10
-22.0264852238
 20
-21.402229614
 10
-22.0277807292
 20
-21.4062511994
 10
-22.0290966686
 20
-21.4067577914
  0
LWPOLYLINE
  5
28C
100
AcDbEntity
  8
0
100
AcDbPolyline
 62
7
  6
CONTINUOUS
 90
19
 70
0
 10
0.4532781464
 20
22.53691193
 10
0.4344481737
 20
22.5310618245
 10
0.4169818377
 20
22.524587479
 10
0.3997692148
 20
22.5174640559
 10
0.3828263979
 20
22.5096961896
 10
0.3661265481
 20
22.5012705273
 10
0.3496965044
 20
22.4922004217
 10
0.3336328773
 20
22.482530565
 10
0.3179360814
 20
22.4722516814
 10
0.302605702
 20
22.4613730467
 10
0.2877371067
 20
22.4499671802
 10
0.2733517594
 20
22.4380465734
 10
0.259428196
 20
22.4255987349
 10
0.2459973916
 20
22.4126587095
 10
0.2330581689
 20
22.3992279794
 10
0.2206117051
 20
22.3853050624
 10
0.208692507
 20
22.3709205574
 10
0.1972880601
 20
22.3560531624
 10
0.1961343844
 20
22.3544273116
  0
LINE
  5
28D
100
AcDbEntity
  8
0
100
AcDbLine
 62
7
  6
CONTINUOUS
 10
0.4712555672
 20
22.5420933069
 11
0.4521919239
 21
22.5368960269
  0
LINE
  5
28E
100
AcDbEntity
  8
0
100
AcDbLine
 62
7
  6
CONTINUOUS
 10
21.8999752685
 20
-22.2408917015
 11
21.9188270706
 21
-22.2405479621
  0
LWPOLYLINE
  5
28F
100
AcDbEntity
  8
ASSI
100
AcDbPolyline
 62
250
  6
CONTINUOUS
 90
16
 70
0
 10
21.5286602181
 20
-20.8196451227
 10
21.5787954531
 20
-20.8191868703
 10
21.6282482493
 20
-20.8182552077
 10
21.6765178027
 20
-20.8168595696
 10
21.7231152913
 20
-20.8150140897
 10
21.7675688265
 20
-20.8127374568
 10
21.8094282309
 20
-20.8100527264
 10
21.8482695981
 20
-20.8069870863
 10
21.8836995846
 20
-20.8035715822
 10
21.9153593941
 20
-20.7998408025
 10
21.9429284103
 20
-20.7958325285
 10
21.9661274442
 20
-20.7915873516
 10
21.984721561
 20
-20.7871482625
 10
21.9985224596
 20
-20.7825602154
 10
22.0073903797
 20
-20.7778696731
 10
22.0112355165
 20
-20.7731241362
  0
LINE
  5
290
100
AcDbEntity
  8
0
100
AcDbLine
 62
7
  6
CONTINUOUS
 10
12.25
 20
-22.2408917015
 11
10.25
 21
-22.2408917015
  0
LINE
  5
291
100
AcDbEntity
  8
0
100
AcDbLine
 62
7
  6
CONTINUOUS
 10
0.5995573105
 20
-22.2408917015
 11
1.1
 21
-22.2408917015
  0
LINE
  5
292
100
AcDbEntity
  8
0
100
AcDbLine
 62
7
  6
CONTINUOUS
 10
4.0
 20
-22.2408917015
 11
6.8
 21
-22.2408917015
  0
LINE
  5
293
100
AcDbEntity
  8
0
100
AcDbLine
 62
7
  6
CONTINUOUS
 10
15.7
 20
-22.2408917015
 11
18.5
 21
-22.2408917015
  0
LINE
  5
294
100
AcDbEntity
  8
0
100
AcDbLine
 62
7
  6
CONTINUOUS
 10
21.4
 20
-22.2408917015
 11
21.9004426895
 21
-22.2408917015
  0
LINE
  5
295
100
AcDbEntity
  8
0
100
AcDbLine
 62
7
  6
CONTINUOUS
 10
7.75
 20
-22.2146878119
 11
10.05
 21
-22.2146878119
  0
LINE
  5
296
100
AcDbEntity
  8
0
100
AcDbLine
 62
7
  6
CONTINUOUS
 10
12.45
 20
-22.2146878119
 11
14.75
 21
-22.2146878119
  0
LINE
  5
297
100
AcDbEntity
  8
0
100
AcDbLine
 62
7
  6
CONTINUOUS
 10
0.6266747509
 20
-22.1622800326
 11
1.3572765181
 21
-22.1622800326
  0
LINE
  5
298
100
AcDbEntity
  8
0
100
AcDbLine
 62
7
  6
CONTINUOUS
 10
3.7427234819
 20
-22.1622800326
 11
6.8087267447
 21
-22.1622800326
  0
LINE
  5
299
100
AcDbEntity
  8
0
100
AcDbLine
 62
7
  6
CONTINUOUS
 10
7.75
 20
-22.1622800326
 11
14.75
 21
-22.1622800326
  0
LINE
  5
29A
100
AcDbEntity
  8
0
100
AcDbLine
 62
7
  6
CONTINUOUS
 10
15.6912732553
 20
-22.1622800326
 11
18.7572765181
 21
-22.1622800326
  0
LINE
  5
29B
100
AcDbEntity
  8
0
100
AcDbLine
 62
7
  6
CONTINUOUS
 10
21.1427234819
 20
-22.1622800326
 11
21.8733252491
 21
-22.1622800326
  0
LWPOLYLINE
  5
29C
100
AcDbEntity
  8
ASSI
100
AcDbPolyline
 62
7
  6
CONTINUOUS
 90
10
 70
0
 10
-21.5292452237
 20
-21.9063131811
 10
-16.8104895641
 20
-21.9101265968
 10
-12.0091739888
 20
-21.9130429146
 10
-7.2071382961
 20
-21.9149875845
 10
-2.404668055
 20
-21.9159603352
 10
2.3979493826
 20
-21.9159610067
 10
7.2004255342
 20
-21.9149896199
 10
12.0024738227
 20
-21.9130463086
 10
16.8038091335
 20
-21.9101313327
 10
21.5292452276
 20
-21.9063131765
  0
LWPOLYLINE
  5
29D
100
AcDbEntity
  8
ASSI
100
AcDbPolyline
 62
250
  6
CONTINUOUS
 90
19
 70
0
 10
-21.5286602202
 20
-20.8196450922
 10
-19.2876145915
 20
-20.8239020876
 10
-17.0491287816
 20
-20.8276873498
 10
-14.8132305266
 20
-20.8310024737
 10
-12.5831576877
 20
-20.8338454431
 10
-10.3557276747
 20
-20.8362226998
 10
-8.121335472
 20
-20.8381429962
 10
-5.8841366863
 20
-20.8396011141
 10
-3.6400278992
 20
-20.8405959855
 10
-1.3670128284
 20
-20.8411243189
 10
0.9319008752
 20
-20.8411713014
 10
3.2596647921
 20
-20.8407189755
 10
5.6472113885
 20
-20.8397277209
 10
8.095882891
 20
-20.8381620871
 10
10.6042572471
 20
-20.8359825896
 10
13.1991070425
 20
-20.8331062689
 10
15.8893103809
 20
-20.8294584462
 10
18.665855225
 20
-20.8249920024
 10
21.5286602182
 20
-20.8196451009
  0
LWPOLYLINE
  5
29E
100
AcDbEntity
  8
ASSI
100
AcDbPolyline
 62
250
  6
CONTINUOUS
 90
16
 70
0
 10
-21.5286597714
 20
-20.8196438737
 10
-21.578794479
 20
-20.8191856412
 10
-21.6282467746
 20
-20.8182540126
 10
-21.6765158698
 20
-20.8168584223
 10
-21.7231129578
 20
-20.815013003
 10
-21.7675661642
 20
-20.8127364426
 10
-21.8094253245
 20
-20.8100517949
 10
-21.8482665436
 20
-20.8069862464
 10
-21.8836964883
 20
-20.8035708411
 10
-21.91535637
 20
-20.7998401658
 10
-21.9429255788
 20
-20.7958319998
 10
-21.9661249294
 20
-20.7915869327
 10
-21.9847194892
 20
-20.787147953
 10
-21.9985209565
 20
-20.7825600129
 10
-22.007389568
 20
-20.7778695731
 10
-22.011235514
 20
-20.7731241322
  0
LINE
  5
29F
100
AcDbEntity
  8
0
100
AcDbLine
 62
7
  6
CONTINUOUS
 10
0.5811729295
 20
-22.2405479621
 11
0.6000247316
 21
-22.2408917015
  0
LINE
  5
2A0
100
AcDbEntity
  8
0
100
AcDbLine
 62
7
  6
CONTINUOUS
 10
0.5816055428
 20
-22.2405481667
 11
0.5624170906
 21
-22.2395068826
  0
LINE
  5
2A1
100
AcDbEntity
  8
0
100
AcDbLine
 62
7
  6
CONTINUOUS
 10
0.5631790254
 20
-22.2395078032
 11
0.543757215
 21
-22.2377684631
  0
LINE
  5
2A2
100
AcDbEntity
  8
0
100
AcDbLine
 62
7
  6
CONTINUOUS
 10
0.5447451794
 20
-22.2377706111
 11
0.5251697846
 21
-22.2353270953
  0
LINE
  5
2A3
100
AcDbEntity
  8
0
100
AcDbLine
 62
7
  6
CONTINUOUS
 10
0.5066783175
 20
-22.2321883875
 11
0.5262460014
 21
-22.2353309888
  0
LINE
  5
2A4
100
AcDbEntity
  8
0
100
AcDbLine
 62
7
  6
CONTINUOUS
 10
0.4883533674
 20
-22.2283691643
 11
0.5077394948
 21
-22.2321945378
  0
LINE
  5
2A5
100
AcDbEntity
  8
0
100
AcDbLine
 62
7
  6
CONTINUOUS
 10
0.4893996695
 20
-22.2283780627
 11
0.4701893871
 21
-22.2238645548
  0
LINE
  5
2A6
100
AcDbEntity
  8
0
100
AcDbLine
 62
7
  6
CONTINUOUS
 10
0.4712555674
 20
-22.2238767099
 11
0.4521919239
 21
-22.2186794299
  0
LINE
  5
2A7
100
AcDbEntity
  8
0
100
AcDbLine
 62
7
  6
CONTINUOUS
 10
0.4532781466
 20
-22.218695333
 11
0.4344481737
 21
-22.2128452275
  0
LWPOLYLINE
  5
2A8
100
AcDbEntity
  8
0
100
AcDbPolyline
 62
7
  6
CONTINUOUS
 90
25
 70
0
 10
0.4355542922
 20
-22.2128652975
 10
0.4181077382
 20
-22.2063955854
 10
0.4009147505
 20
-22.1992772147
 10
0.3839910115
 20
-22.1915146046
 10
0.3673097143
 20
-22.1830944747
 10
0.3508976657
 20
-22.1740301054
 10
0.3348509688
 20
-22.1643657571
 10
0.3191699479
 20
-22.1540921626
 10
0.3038542787
 20
-22.1432185891
 10
0.2889990902
 20
-22.1318170988
 10
0.2746256817
 20
-22.1199000639
 10
0.260712754
 20
-22.1074551122
 10
0.2472915388
 20
-22.0945171895
 10
0.2343610249
 20
-22.0810879817
 10
0.2219222236
 20
-22.0671658029
 10
0.2100093992
 20
-22.0527805406
 10
0.1986098791
 20
-22.0379107648
 10
0.187736336
 20
-22.0225779056
 10
0.1774610526
 20
-22.0068761398
 10
0.1677929085
 20
-21.9908044214
 10
0.158723024
 20
-21.9743637965
 10
0.1502970434
 20
-21.9576515802
 10
0.1425284024
 20
-21.9406943294
 10
0.1354036653
 20
-21.9234654872
 10
0.1326239434
 20
-21.9159606899
  0
LINE
  5
2A9
100
AcDbEntity
  8
RACCORDO
100
AcDbLine
 62
7
  6
CONTINUOUS
 10
22.3729446494
 20
-16.4408917015
 11
22.15
 21
-16.4408917015
  0
LINE
  5
2AA
100
AcDbEntity
  8
0
100
AcDbLine
 62
7
  6
CONTINUOUS
 10
22.3729446494
 20
-16.4408917015
 11
22.15
 21
-16.4408917015
  0
LWPOLYLINE
  5
2AB
100
AcDbEntity
  8
ASSI
100
AcDbPolyline
 62
250
  6
CONTINUOUS
 90
9
 70
0
 10
-22.0290966732
 20
21.4929050541
 10
-22.0277807339
 20
21.4871383117
 10
-22.0264852285
 20
21.4779382555
 10
-22.0252101569
 20
21.4653048856
 10
-22.0239485969
 20
21.4491369434
 10
-22.0227074709
 20
21.4295356875
 10
-22.0215075458
 20
21.4068048933
 10
-22.020350039
 20
21.3808980641
 10
-22.0192337331
 20
21.3518616967
  0
LWPOLYLINE
  5
2AC
100
AcDbEntity
  8
0
100
AcDbPolyline
 62
7
  6
CONTINUOUS
 90
18
 70
0
 10
0.1974042612
 20
22.3544273116
 10
0.1986098791
 20
22.3561273618
 10
0.2100093991
 20
22.3709971375
 10
0.2219222235
 20
22.3853823999
 10
0.2343610249
 20
22.3993045787
 10
0.2472915387
 20
22.4127337864
 10
0.2607127539
 20
22.4256717092
 10
0.2746256816
 20
22.4381166609
 10
0.2889990901
 20
22.4500336958
 10
0.3038542786
 20
22.4614351861
 10
0.3191699478
 20
22.4723087595
 10
0.3348509686
 20
22.4825823541
 10
0.3508976656
 20
22.4922467023
 10
0.3673097142
 20
22.5013110716
 10
0.3839910114
 20
22.5097312015
 10
0.4009147504
 20
22.5174938116
 10
0.418107738
 20
22.5246121823
 10
0.435554292
 20
22.5310818944
  0
LINE
  5
2AD
100
AcDbEntity
  8
0
100
AcDbLine
 62
250
  6
CONTINUOUS
 10
3.7369056521
 20
24.6460097198
 11
3.7500042308
 21
24.6591082985
  0
LINE
  5
2AE
100
AcDbEntity
  8
0
100
AcDbLine
 62
250
  6
CONTINUOUS
 10
3.9869014213
 20
24.3960139506
 11
4.0
 21
24.4091125293
  0
LINE
  5
2AF
100
AcDbEntity
  8
0
100
AcDbLine
 62
250
  6
CONTINUOUS
 10
3.7369056521
 20
-24.3277931228
 11
3.7500042308
 21
-24.3408917015
  0
LINE
  5
2B0
100
AcDbEntity
  8
0
100
AcDbLine
 62
250
  6
CONTINUOUS
 10
3.9869014213
 20
-24.0777973536
 11
4.0
 21
-24.0908959323
  0
LINE
  5
2B1
100
AcDbEntity
  8
ASSI
100
AcDbLine
 62
250
  6
CONTINUOUS
 10
-22.15
 20
21.8552836469
 11
-22.0290966732
 21
21.4929050541
  0
LINE
  5
2B2
100
AcDbEntity
  8
ASSI
100
AcDbLine
 62
250
  6
CONTINUOUS
 10
-21.6501713375
 20
22.3544273116
 11
-21.5292680107
 21
21.9920487188
  0
LWPOLYLINE
  5
2B3
100
AcDbEntity
  8
0
100
AcDbPolyline
 62
7
  6
CONTINUOUS
 90
3
 70
0
 43
0.3500000006
 10
1.1609324727
 20
36.1072118225
 10
1.0895039098
 20
35.8929273376
 10
0.9466467133
 20
35.6072116699
  0
LWPOLYLINE
  5
2B4
100
AcDbEntity
  8
ASSI
100
AcDbPolyline
 62
250
  6
CONTINUOUS
 90
11
 70
0
 10
22.0290966731
 20
-21.4067577868
 10
22.0277807338
 20
-21.4062511948
 10
22.0264852284
 20
-21.4022296094
 10
22.0252101569
 20
-21.3946930306
 10
22.0239485969
 20
-21.3835678706
 10
22.0227074708
 20
-21.3689277171
 10
22.0215075457
 20
-21.3509933342
 10
22.0203500389
 20
-21.3297133598
 10
22.0192337331
 20
-21.305139156
 10
22.0181757438
 20
-21.2776455728
 10
22.0171769578
 20
-21.2471855261
  0
LWPOLYLINE
  5
2B5
100
AcDbEntity
  8
0
100
AcDbPolyline
 62
7
  6
CONTINUOUS
 90
25
 70
0
 10
0.1312977998
 20
-21.9159606898
 10
0.1340763072
 20
-21.923457101
 10
0.1411995646
 20
-21.9406711001
 10
0.1489673634
 20
-21.9576153102
 10
0.1573931139
 20
-21.9743162659
 10
0.1664634057
 20
-21.9907474325
 10
0.1761330135
 20
-22.0068115149
 10
0.1864108788
 20
-22.0225075823
 10
0.1972880601
 20
-22.0378365654
 10
0.208692507
 20
-22.0527039603
 10
0.2206117051
 20
-22.0670884654
 10
0.2330581689
 20
-22.0810113824
 10
0.2459973916
 20
-22.0944421125
 10
0.259428196
 20
-22.1073821379
 10
0.2733517594
 20
-22.1198299764
 10
0.2877371067
 20
-22.1317505832
 10
0.302605702
 20
-22.1431564497
 10
0.3179360814
 20
-22.1540350844
 10
0.3336328773
 20
-22.164313968
 10
0.3496965044
 20
-22.1739838247
 10
0.3661265481
 20
-22.1830539303
 10
0.3828263979
 20
-22.1914795926
 10
0.3997692148
 20
-22.1992474589
 10
0.4169818377
 20
-22.206370882
 10
0.4344481737
 20
-22.2128452275
  0
LINE
  5
2B6
100
AcDbEntity
  8
0
100
AcDbLine
 62
7
  6
CONTINUOUS
 10
15.6912732553
 20
24.1503815538
 11
15.7
 21
24.1591082985
  0
LINE
  5
2B7
100
AcDbEntity
  8
0
100
AcDbLine
 62
7
  6
CONTINUOUS
 10
15.7
 20
-23.8408917015
 11
15.6912732553
 21
-23.8321649568
  0
LWPOLYLINE
  5
2B8
100
AcDbEntity
  8
0
100
AcDbPolyline
 62
7
  6
CONTINUOUS
 90
2
 70
0
 43
0.3500000006
 10
-3.2676389923
 20
35.8215006866
 10
-3.2676389923
 20
37.3215011444
  0
LINE
  5
2B9
100
AcDbEntity
  8
0
100
AcDbLine
 62
250
  6
CONTINUOUS
 10
21.1369056521
 20
24.6460097198
 11
21.1500042308
 21
24.6591082985
  0
LINE
  5
2BA
100
AcDbEntity
  8
0
100
AcDbLine
 62
250
  6
CONTINUOUS
 10
21.1369056521
 20
-24.3277931228
 11
21.1500042308
 21
-24.3408917015
  0
LWPOLYLINE
  5
2BB
100
AcDbEntity
  8
0
100
AcDbPolyline
 62
7
  6
CONTINUOUS
 90
2
 70
0
 43
0.3500000006
 10
-0.910496134
 20
35.8215006866
 10
-0.910496134
 20
37.3215011444
  0
LINE
  5
2BC
100
AcDbEntity
  8
0
100
AcDbLine
 62
250
  6
CONTINUOUS
 10
21.3869014213
 20
24.3960139506
 11
21.4
 21
24.4091125293
  0
LWPOLYLINE
  5
2BD
100
AcDbEntity
  8
0
100
AcDbPolyline
 62
7
  6
CONTINUOUS
 90
2
 70
0
 43
0.3500000006
 10
34.3965957413
 20
-1.1980338593
 10
32.8965952835
 20
-1.1980338593
  0
LINE
  5
2BE
100
AcDbEntity
  8
DRAFT
100
AcDbLine
 62
7
  6
CONTINUOUS
 10
22.15
 20
0.1591082985
 11
22.345044505
 21
0.1591082985
  0
LINE
  5
2BF
100
AcDbEntity
  8
0
100
AcDbLine
 62
7
  6
CONTINUOUS
 10
22.15
 20
0.1591082985
 11
22.345044505
 21
0.1591082985
  0
LINE
  5
2C0
100
AcDbEntity
  8
0
100
AcDbLine
 62
250
  6
CONTINUOUS
 10
21.3869014213
 20
-24.0777973536
 11
21.4
 21
-24.0908959323
  0
LWPOLYLINE
  5
2C1
100
AcDbEntity
  8
0
100
AcDbPolyline
 62
7
  6
CONTINUOUS
 90
46
 70
0
 10
1.1072807489
 20
23.4260955966
 10
1.1074530002
 20
23.4215169423
 10
1.107879076
 20
23.4169216348
 10
1.1085612936
 20
23.4123167858
 10
1.1095016949
 20
23.4077123149
 10
1.1107020615
 20
23.4031129286
 10
1.1121640005
 20
23.3985181254
 10
1.1138888012
 20
23.3939357034
 10
1.1158774854
 20
23.3893732459
 10
1.1181310056
 20
23.3848301324
 10
1.1206498359
 20
23.3803144947
 10
1.1234341743
 20
23.3758342533
 10
1.1264843097
 20
23.3713886739
 10
1.1297998422
 20
23.3669861803
 10
1.1333800917
 20
23.362634984
 10
1.1372246804
 20
23.3583342403
 10
1.1413322885
 20
23.3540926069
 10
1.1457012916
 20
23.3499185535
 10
1.1503306031
 20
23.3458111716
 10
1.155217921
 20
23.3417793009
 10
1.1603606094
 20
23.3378316178
 10
1.1657568086
 20
23.3339671935
 10
1.1714031697
 20
23.3301949853
 10
1.1772959661
 20
23.3265238197
 10
1.1834324633
 20
23.3229527993
 10
1.1898081936
 20
23.3194909187
 10
1.1964182527
 20
23.3161470851
 10
1.2032588898
 20
23.3129204843
 10
1.2103244393
 20
23.3098200492
 10
1.2176087277
 20
23.3068546771
 10
1.2251068131
 20
23.3040236822
 10
1.232811747
 20
23.3013358119
 10
1.2407160001
 20
23.2987998365
 10
1.248813251
 20
23.2964152276
 10
1.2570951528
 20
23.2941904038
 10
1.2655527784
 20
23.292133849
 10
1.2741783563
 20
23.2902451752
 10
1.2829620918
 20
23.2885322943
 10
1.2918935973
 20
23.2870032406
 10
1.3009635726
 20
23.2856577593
 10
1.3101474601
 20
23.2845052966
 10
1.3194464883
 20
23.2835501381
 10
1.3288901495
 20
23.2827880495
 10
1.3384801207
 20
23.2822264329
 10
1.3481893412
 20
23.2818797608
 10
1.3580037468
 20
23.2817580293
  0
LWPOLYLINE
  5
2C2
100
AcDbEntity
  8
0
100
AcDbPolyline
 62
250
  6
CONTINUOUS
 90
34
 70
0
 10
1.1130985787
 20
24.0034458658
 10
1.1134152294
 20
23.9931630983
 10
1.1142953912
 20
23.9829035383
 10
1.1157370775
 20
23.9726903412
 10
1.1177370345
 20
23.9625465575
 10
1.1202907485
 20
23.9524950811
 10
1.1233924559
 20
23.9425585976
 10
1.1270351563
 20
23.9327595331
 10
1.1312106284
 20
23.9231200035
 10
1.1359094483
 20
23.9136617646
 10
1.1411210111
 20
23.9044061631
 10
1.1468335547
 20
23.8953740883
 10
1.153034186
 20
23.8865859252
 10
1.1597089108
 20
23.8780615081
 10
1.1668426644
 20
23.869820076
 10
1.1744193466
 20
23.8618802295
 10
1.182421857
 20
23.8542598883
 10
1.1908321346
 20
23.8469762509
 10
1.1996311978
 20
23.8400457563
 10
1.2087991877
 20
23.8334840461
 10
1.2183154127
 20
23.8273059296
 10
1.2281583952
 20
23.8215253506
 10
1.2383059201
 20
23.8161553555
 10
1.2487350852
 20
23.8112080639
 10
1.2594223524
 20
23.8066946417
 10
1.2703436011
 20
23.8026252755
 10
1.2814741828
 20
23.7990091494
 10
1.2927889764
 20
23.7958544249
 10
1.304262445
 20
23.793168222
 10
1.3158686938
 20
23.7909566034
 10
1.3275815281
 20
23.7892245605
 10
1.3393745128
 20
23.7879760024
 10
1.3512210317
 20
23.7872137471
 10
1.3630943479
 20
23.7869395149
  0
LINE
  5
2C3
100
AcDbEntity
  8
0
100
AcDbLine
 62
250
  6
CONTINUOUS
 10
1.1130985787
 20
-23.6852292688
 11
1.1072807489
 21
-23.1078789996
  0
LINE
  5
2C4
100
AcDbEntity
  8
0
100
AcDbLine
 62
250
  6
CONTINUOUS
 10
1.3630943479
 20
-23.4687229178
 11
1.3580037468
 21
-22.9635414323
  0
LINE
  5
2C5
100
AcDbEntity
  8
0
100
AcDbLine
 62
7
  6
CONTINUOUS
 10
1.1
 20
-22.2408917015
 11
1.1
 21
-24.0908959323
  0
LINE
  5
2C6
100
AcDbEntity
  8
0
100
AcDbLine
 62
7
  6
CONTINUOUS
 10
1.1
 20
22.5591082985
 11
1.1
 21
24.4091125293
  0
LINE
  5
2C7
100
AcDbEntity
  8
0
100
AcDbLine
 62
250
  6
CONTINUOUS
 10
1.1072807489
 20
23.4260955966
 11
1.1072807489
 21
22.4935223508
  0
LINE
  5
2C8
100
AcDbEntity
  8
0
100
AcDbLine
 62
250
  6
CONTINUOUS
 10
1.1072807489
 20
-22.1753057538
 11
1.1072807489
 21
-23.1078789996
  0
LINE
  5
2C9
100
AcDbEntity
  8
0
100
AcDbLine
 62
250
  6
CONTINUOUS
 10
1.1130985787
 20
24.3960139506
 11
1.1130985787
 21
24.0034458658
  0
LINE
  5
2CA
100
AcDbEntity
  8
0
100
AcDbLine
 62
250
  6
CONTINUOUS
 10
1.1130985787
 20
-23.6852292688
 11
1.1130985787
 21
-24.0777973536
  0
LINE
  5
2CB
100
AcDbEntity
  8
0
100
AcDbLine
 62
250
  6
CONTINUOUS
 10
1.3572765181
 20
23.2817580293
 11
1.3572765181
 21
22.4804966296
  0
LINE
  5
2CC
100
AcDbEntity
  8
0
100
AcDbLine
 62
250
  6
CONTINUOUS
 10
1.3572765181
 20
-22.1622800326
 11
1.3572765181
 21
-22.9635414323
  0
LINE
  5
2CD
100
AcDbEntity
  8
0
100
AcDbLine
 62
250
  6
CONTINUOUS
 10
1.3630943479
 20
-23.4687229178
 11
1.3630943479
 21
-24.3277931228
  0
LINE
  5
2CE
100
AcDbEntity
  8
0
100
AcDbLine
 62
250
  6
CONTINUOUS
 10
1.3630943479
 20
23.7869395149
 11
1.3630943479
 21
24.6460097198
  0
LINE
  5
2CF
100
AcDbEntity
  8
0
100
AcDbLine
 62
250
  6
CONTINUOUS
 10
1.1072807489
 20
23.4260955966
 11
1.1130985787
 21
24.0034458658
  0
LINE
  5
2D0
100
AcDbEntity
  8
0
100
AcDbLine
 62
250
  6
CONTINUOUS
 10
1.3580037468
 20
23.2817580293
 11
1.3630943479
 21
23.7869395149
  0
LWPOLYLINE
  5
2D1
100
AcDbEntity
  8
0
100
AcDbPolyline
 62
7
  6
CONTINUOUS
 90
34
 70
0
 10
1.1
 20
24.4091125293
 10
1.1002831502
 20
24.4210078145
 10
1.1011319658
 20
24.4328761541
 10
1.1025445259
 20
24.4446906646
 10
1.1045176323
 20
24.456424586
 10
1.1070468183
 20
24.4680513373
 10
1.1101263583
 20
24.4795445775
 10
1.1137492787
 20
24.4908782723
 10
1.1179073742
 20
24.5020267478
 10
1.1225912278
 20
24.5129647448
 10
1.1277902312
 20
24.5236674861
 10
1.1334926084
 20
24.5341107268
 10
1.1396854419
 20
24.5442708044
 10
1.1463547045
 20
24.5541247036
 10
1.1534852893
 20
24.5636501023
 10
1.1610610411
 20
24.5728254176
 10
1.1690647995
 20
24.5816298646
 10
1.1774784339
 20
24.590043499
 10
1.1862828809
 20
24.5980472574
 10
1.1954581962
 20
24.6056230092
 10
1.2049835949
 20
24.612753594
 10
1.2148374941
 20
24.6194228566
 10
1.2249975717
 20
24.6256156901
 10
1.2354408124
 20
24.6313180673
 10
1.2461435537
 20
24.6365170707
 10
1.2570815507
 20
24.6412009243
 10
1.2682300262
 20
24.6453590198
 10
1.279563721
 20
24.6489819402
 10
1.2910569612
 20
24.6520614802
 10
1.3026837125
 20
24.6545906662
 10
1.3144176339
 20
24.6565637727
 10
1.3262321444
 20
24.6579763327
 10
1.338100484
 20
24.6588251483
 10
1.3499957692
 20
24.6591082985
  0
LWPOLYLINE
  5
2D2
100
AcDbEntity
  8
0
100
AcDbPolyline
 62
250
  6
CONTINUOUS
 90
34
 70
0
 10
1.1130985787
 20
24.3960139506
 10
1.1133822076
 20
24.4079106095
 10
1.1142316477
 20
24.4197803278
 10
1.1156449765
 20
24.4315962101
 10
1.1176189951
 20
24.4433314898
 10
1.1201492321
 20
24.4549595691
 10
1.1232299507
 20
24.4664540802
 10
1.1268541679
 20
24.4777889727
 10
1.1310136722
 20
24.488938569
 10
1.1356990365
 20
24.4998776026
 10
1.1408996441
 20
24.510581289
 10
1.1466037094
 20
24.5210253742
 10
1.1527983017
 20
24.5311861864
 10
1.1594693818
 20
24.5410407025
 10
1.1666018328
 20
24.5505665967
 10
1.1741794893
 20
24.5597422837
 10
1.1821851835
 20
24.5685469793
 10
1.1906007697
 20
24.5769607308
 10
1.1994071613
 20
24.5849644624
 10
1.2085843746
 20
24.5925400233
 10
1.218111636
 20
24.5996702767
 10
1.2279674207
 20
24.6063391139
 10
1.2381294963
 20
24.6125314763
 10
1.2485747498
 20
24.6182332648
 10
1.2592792846
 20
24.6234314501
 10
1.2702186857
 20
24.6281142237
 10
1.2813682977
 20
24.6322710781
 10
1.2927030628
 20
24.6358926879
 10
1.3041990284
 20
24.6389712665
 10
1.3158284637
 20
24.6414992564
 10
1.3275599583
 20
24.6434702024
 10
1.3393651338
 20
24.6448801983
 10
1.3512188764
 20
24.6457271001
 10
1.3630943479
 20
24.6460097198
  0
LWPOLYLINE
  5
2D3
100
AcDbEntity
  8
0
100
AcDbPolyline
 62
250
  6
CONTINUOUS
 90
34
 70
0
 10
1.1130985787
 20
-23.6852292688
 10
1.1134147059
 20
-23.674955491
 10
1.1142936182
 20
-23.6647025806
 10
1.1157337097
 20
-23.6544936707
 10
1.1177322757
 20
-23.6443510714
 10
1.1202850915
 20
-23.6342984818
 10
1.1233860116
 20
-23.6243608611
 10
1.1270277197
 20
-23.6145614289
 10
1.131202225
 20
-23.6049214931
 10
1.1359002057
 20
-23.5954626225
 10
1.1411111622
 20
-23.5862060556
 10
1.1468233034
 20
-23.5771728271
 10
1.1530236356
 20
-23.5683835158
 10
1.1596981116
 20
-23.5598580241
 10
1.1668317095
 20
-23.5516155302
 10
1.1744083435
 20
-23.5436746229
 10
1.1824109257
 20
-23.5360532183
 10
1.190821384
 20
-23.528768534
 10
1.1996207164
 20
-23.5218370307
 10
1.2087890533
 20
-23.5152743596
 10
1.2183057051
 20
-23.5090953296
 10
1.2281491901
 20
-23.5033138884
 10
1.2382972889
 20
-23.4979430864
 10
1.2487270938
 20
-23.4929950474
 10
1.2594150612
 20
-23.4884809409
 10
1.2703370778
 20
-23.484410952
 10
1.281468477
 20
-23.4807942736
 10
1.2927840914
 20
-23.47763908
 10
1.3042583493
 20
-23.4749524942
 10
1.315865375
 20
-23.4727405677
 10
1.3275790087
 20
-23.471008283
 10
1.3393728236
 20
-23.4697595491
 10
1.3512201842
 20
-23.4689971871
 10
1.3630943479
 20
-23.4687229178
  0
LWPOLYLINE
  5
2D4
100
AcDbEntity
  8
0
100
AcDbPolyline
 62
7
  6
CONTINUOUS
 90
46
 70
0
 10
1.1072807489
 20
-23.1078789996
 10
1.1074530002
 20
-23.1033003453
 10
1.107879076
 20
-23.0987050378
 10
1.1085612936
 20
-23.0941001888
 10
1.1095016949
 20
-23.0894957179
 10
1.1107020615
 20
-23.0848963316
 10
1.1121640005
 20
-23.0803015284
 10
1.1138888012
 20
-23.0757191064
 10
1.1158774854
 20
-23.0711566489
 10
1.1181310056
 20
-23.0666135354
 10
1.1206498359
 20
-23.0620978976
 10
1.1234341743
 20
-23.0576176563
 10
1.1264843097
 20
-23.0531720769
 10
1.1297998422
 20
-23.0487695833
 10
1.1333800917
 20
-23.044418387
 10
1.1372246804
 20
-23.0401176433
 10
1.1413322885
 20
-23.0358760099
 10
1.1457012916
 20
-23.0317019565
 10
1.1503306031
 20
-23.0275945745
 10
1.155217921
 20
-23.0235627038
 10
1.1603606094
 20
-23.0196150207
 10
1.1657568086
 20
-23.0157505965
 10
1.1714031697
 20
-23.0119783883
 10
1.1772959661
 20
-23.0083072227
 10
1.1834324633
 20
-23.0047362023
 10
1.1898081936
 20
-23.0012743217
 10
1.1964182527
 20
-22.9979304881
 10
1.2032588898
 20
-22.9947038873
 10
1.2103244393
 20
-22.9916034522
 10
1.2176087277
 20
-22.9886380801
 10
1.2251068131
 20
-22.9858070852
 10
1.232811747
 20
-22.9831192149
 10
1.2407160001
 20
-22.9805832395
 10
1.248813251
 20
-22.9781986306
 10
1.2570951528
 20
-22.9759738068
 10
1.2655527784
 20
-22.973917252
 10
1.2741783563
 20
-22.9720285782
 10
1.2829620918
 20
-22.9703156973
 10
1.2918935973
 20
-22.9687866436
 10
1.3009635726
 20
-22.9674411623
 10
1.3101474601
 20
-22.9662886996
 10
1.3194464883
 20
-22.965333541
 10
1.3288901495
 20
-22.9645714525
 10
1.3384801207
 20
-22.9640098359
 10
1.3481893412
 20
-22.9636631638
 10
1.3580037468
 20
-22.9635414323
  0
LINE
  5
2D5
100
AcDbEntity
  8
0
100
AcDbLine
 62
7
  6
CONTINUOUS
 10
4.0
 20
22.5591082985
 11
3.9927192511
 21
22.4935223508
  0
LINE
  5
2D6
100
AcDbEntity
  8
0
100
AcDbLine
 62
7
  6
CONTINUOUS
 10
4.0
 20
-22.2408917015
 11
3.9927192511
 21
-22.1753057538
  0
LWPOLYLINE
  5
2D7
100
AcDbEntity
  8
0
100
AcDbPolyline
 62
7
  6
CONTINUOUS
 90
46
 70
0
 10
3.9927192511
 20
-23.1078789996
 10
3.9925469998
 20
-23.1033003453
 10
3.992120924
 20
-23.0987050378
 10
3.9914387064
 20
-23.0941001888
 10
3.9904983051
 20
-23.0894957179
 10
3.9892979385
 20
-23.0848963316
 10
3.9878359995
 20
-23.0803015284
 10
3.9861111988
 20
-23.0757191064
 10
3.9841225146
 20
-23.0711566489
 10
3.9818689944
 20
-23.0666135354
 10
3.9793501641
 20
-23.0620978976
 10
3.9765658257
 20
-23.0576176563
 10
3.9735156903
 20
-23.0531720769
 10
3.9702001578
 20
-23.0487695833
 10
3.9666199083
 20
-23.044418387
 10
3.9627753196
 20
-23.0401176433
 10
3.9586677115
 20
-23.0358760099
 10
3.9542987084
 20
-23.0317019565
 10
3.9496693969
 20
-23.0275945745
 10
3.944782079
 20
-23.0235627038
 10
3.9396393906
 20
-23.0196150207
 10
3.9342431914
 20
-23.0157505965
 10
3.9285968303
 20
-23.0119783883
 10
3.9227040339
 20
-23.0083072227
 10
3.9165675367
 20
-23.0047362023
 10
3.9101918064
 20
-23.0012743217
 10
3.9035817473
 20
-22.9979304881
 10
3.8967411102
 20
-22.9947038873
 10
3.8896755607
 20
-22.9916034522
 10
3.8823912723
 20
-22.9886380801
 10
3.8748931869
 20
-22.9858070852
 10
3.867188253
 20
-22.9831192149
 10
3.8592839999
 20
-22.9805832395
 10
3.851186749
 20
-22.9781986306
 10
3.8429048472
 20
-22.9759738068
 10
3.8344472216
 20
-22.973917252
 10
3.8258216437
 20
-22.9720285782
 10
3.8170379082
 20
-22.9703156973
 10
3.8081064027
 20
-22.9687866436
 10
3.7990364274
 20
-22.9674411623
 10
3.7898525399
 20
-22.9662886996
 10
3.7805535117
 20
-22.965333541
 10
3.7711098505
 20
-22.9645714525
 10
3.7615198793
 20
-22.9640098359
 10
3.7518106588
 20
-22.9636631638
 10
3.7419962532
 20
-22.9635414323
  0
LWPOLYLINE
  5
2D8
100
AcDbEntity
  8
0
100
AcDbPolyline
 62
250
  6
CONTINUOUS
 90
34
 70
0
 10
3.9869014213
 20
-23.6852292688
 10
3.9865847706
 20
-23.6749465013
 10
3.9857046088
 20
-23.6646869413
 10
3.9842629225
 20
-23.6544737442
 10
3.9822629655
 20
-23.6443299605
 10
3.9797092515
 20
-23.6342784841
 10
3.9766075441
 20
-23.6243420006
 10
3.9729648437
 20
-23.6145429361
 10
3.9687893716
 20
-23.6049034065
 10
3.9640905517
 20
-23.5954451675
 10
3.9588789889
 20
-23.586189566
 10
3.9531664453
 20
-23.5771574913
 10
3.946965814
 20
-23.5683693282
 10
3.9402910892
 20
-23.5598449111
 10
3.9331573356
 20
-23.551603479
 10
3.9255806534
 20
-23.5436636325
 10
3.917578143
 20
-23.5360432912
 10
3.9091678654
 20
-23.5287596539
 10
3.9003688022
 20
-23.5218291593
 10
3.8912008123
 20
-23.5152674491
 10
3.8816845873
 20
-23.5090893326
 10
3.8718416048
 20
-23.5033087536
 10
3.8616940799
 20
-23.4979387584
 10
3.8512649148
 20
-23.4929914669
 10
3.8405776476
 20
-23.4884780447
 10
3.8296563989
 20
-23.4844086784
 10
3.8185258172
 20
-23.4807925524
 10
3.8072110236
 20
-23.4776378279
 10
3.795737555
 20
-23.474951625
 10
3.7841313062
 20
-23.4727400064
 10
3.7724184719
 20
-23.4710079635
 10
3.7606254872
 20
-23.4697594054
 10
3.7487789683
 20
-23.4689971501
 10
3.7369056521
 20
-23.4687229178
  0
LINE
  5
2D9
100
AcDbEntity
  8
0
100
AcDbLine
 62
250
  6
CONTINUOUS
 10
3.7369056521
 20
23.7869395149
 11
3.7419962532
 21
23.2817580293
  0
LINE
  5
2DA
100
AcDbEntity
  8
0
100
AcDbLine
 62
250
  6
CONTINUOUS
 10
3.9869014213
 20
24.0034458658
 11
3.9927192511
 21
23.4260955966
  0
LINE
  5
2DB
100
AcDbEntity
  8
0
100
AcDbLine
 62
250
  6
CONTINUOUS
 10
3.7369056521
 20
-23.4687229178
 11
3.7369056521
 21
-24.3277931228
  0
LINE
  5
2DC
100
AcDbEntity
  8
0
100
AcDbLine
 62
250
  6
CONTINUOUS
 10
3.7369056521
 20
23.7869395149
 11
3.7369056521
 21
24.6460097198
  0
LINE
  5
2DD
100
AcDbEntity
  8
0
100
AcDbLine
 62
250
  6
CONTINUOUS
 10
3.7427234819
 20
-22.9635414323
 11
3.7427234819
 21
-22.1622800326
  0
LINE
  5
2DE
100
AcDbEntity
  8
0
100
AcDbLine
 62
250
  6
CONTINUOUS
 10
3.7427234819
 20
22.4804966296
 11
3.7427234819
 21
23.2817580293
  0
LINE
  5
2DF
100
AcDbEntity
  8
0
100
AcDbLine
 62
250
  6
CONTINUOUS
 10
3.9869014213
 20
-24.0777973536
 11
3.9869014213
 21
-23.6852292688
  0
LINE
  5
2E0
100
AcDbEntity
  8
0
100
AcDbLine
 62
250
  6
CONTINUOUS
 10
3.9869014213
 20
24.0034458658
 11
3.9869014213
 21
24.3960139506
  0
LINE
  5
2E1
100
AcDbEntity
  8
0
100
AcDbLine
 62
250
  6
CONTINUOUS
 10
3.9927192511
 20
-23.1078789996
 11
3.9927192511
 21
-22.1753057538
  0
LINE
  5
2E2
100
AcDbEntity
  8
0
100
AcDbLine
 62
250
  6
CONTINUOUS
 10
3.9927192511
 20
22.4935223508
 11
3.9927192511
 21
23.4260955966
  0
LINE
  5
2E3
100
AcDbEntity
  8
0
100
AcDbLine
 62
7
  6
CONTINUOUS
 10
4.0
 20
-22.2408917015
 11
4.0
 21
-24.0908959323
  0
LINE
  5
2E4
100
AcDbEntity
  8
0
100
AcDbLine
 62
7
  6
CONTINUOUS
 10
4.0
 20
22.5591082985
 11
4.0
 21
24.4091125293
  0
LINE
  5
2E5
100
AcDbEntity
  8
0
100
AcDbLine
 62
250
  6
CONTINUOUS
 10
3.7419962532
 20
-22.9635414323
 11
3.7369056521
 21
-23.4687229178
  0
LINE
  5
2E6
100
AcDbEntity
  8
0
100
AcDbLine
 62
250
  6
CONTINUOUS
 10
3.9927192511
 20
-23.1078789996
 11
3.9869014213
 21
-23.6852292688
  0
LWPOLYLINE
  5
2E7
100
AcDbEntity
  8
0
100
AcDbPolyline
 62
250
  6
CONTINUOUS
 90
34
 70
0
 10
3.9869014213
 20
-24.0777973536
 10
3.9866178705
 20
-24.0896923751
 10
3.9857686655
 20
-24.1015604518
 10
3.9843557301
 20
-24.1133746997
 10
3.9823822649
 20
-24.1251083569
 10
3.9798527401
 20
-24.1367348441
 10
3.9767728857
 20
-24.1482278247
 10
3.9731496783
 20
-24.1595612646
 10
3.9689913253
 20
-24.1707094908
 10
3.9643072462
 20
-24.1816472502
 10
3.9591080515
 20
-24.1923497664
 10
3.9534055187
 20
-24.2027927956
 10
3.9472125651
 20
-24.2129526822
 10
3.9405432193
 20
-24.2228064117
 10
3.9334125887
 20
-24.2323316632
 10
3.9258368259
 20
-24.2415068599
 10
3.9178330917
 20
-24.2503112178
 10
3.9094195163
 20
-24.2587247932
 10
3.9006151584
 20
-24.2667285274
 10
3.8914399617
 20
-24.2743042902
 10
3.8819147102
 20
-24.2814349208
 10
3.8720609807
 20
-24.2881042666
 10
3.8619010942
 20
-24.2942972202
 10
3.8514580649
 20
-24.299999753
 10
3.8407555487
 20
-24.3051989477
 10
3.8298177893
 20
-24.3098830267
 10
3.8186695631
 20
-24.3140413798
 10
3.8073361233
 20
-24.3176645872
 10
3.7958431426
 20
-24.3207444416
 10
3.7842166554
 20
-24.3232739664
 10
3.7724829982
 20
-24.3252474316
 10
3.7606687503
 20
-24.326660367
 10
3.7488006736
 20
-24.327509572
 10
3.7369056521
 20
-24.3277931228
  0
LWPOLYLINE
  5
2E8
100
AcDbEntity
  8
0
100
AcDbPolyline
 62
7
  6
CONTINUOUS
 90
34
 70
0
 10
4.0
 20
-24.0908959323
 10
3.9997168498
 20
-24.1027912175
 10
3.9988680342
 20
-24.1146595571
 10
3.9974554741
 20
-24.1264740676
 10
3.9954823677
 20
-24.138207989
 10
3.9929531817
 20
-24.1498347403
 10
3.9898736417
 20
-24.1613279805
 10
3.9862507213
 20
-24.1726616753
 10
3.9820926258
 20
-24.1838101508
 10
3.9774087722
 20
-24.1947481478
 10
3.9722097688
 20
-24.2054508891
 10
3.9665073916
 20
-24.2158941298
 10
3.9603145581
 20
-24.2260542074
 10
3.9536452955
 20
-24.2359081066
 10
3.9465147107
 20
-24.2454335053
 10
3.9389389589
 20
-24.2546088206
 10
3.9309352005
 20
-24.2634132676
 10
3.9225215661
 20
-24.271826902
 10
3.9137171191
 20
-24.2798306604
 10
3.9045418038
 20
-24.2874064122
 10
3.8950164051
 20
-24.294536997
 10
3.8851625059
 20
-24.3012062596
 10
3.8750024283
 20
-24.3073990931
 10
3.8645591876
 20
-24.3131014703
 10
3.8538564463
 20
-24.3183004737
 10
3.8429184493
 20
-24.3229843273
 10
3.8317699738
 20
-24.3271424228
 10
3.820436279
 20
-24.3307653432
 10
3.8089430388
 20
-24.3338448832
 10
3.7973162875
 20
-24.3363740692
 10
3.7855823661
 20
-24.3383471756
 10
3.7737678556
 20
-24.3397597357
 10
3.761899516
 20
-24.3406085512
 10
3.7500042308
 20
-24.3408917015
  0
LWPOLYLINE
  5
2E9
100
AcDbEntity
  8
0
100
AcDbPolyline
 62
250
  6
CONTINUOUS
 90
34
 70
0
 10
3.9869014213
 20
24.0034458658
 10
3.9865852941
 20
23.993172088
 10
3.9857063818
 20
23.9829191776
 10
3.9842662903
 20
23.9727102677
 10
3.9822677243
 20
23.9625676684
 10
3.9797149085
 20
23.9525150788
 10
3.9766139884
 20
23.9425774581
 10
3.9729722803
 20
23.9327780259
 10
3.968797775
 20
23.9231380901
 10
3.9640997943
 20
23.9136792196
 10
3.9588888378
 20
23.9044226526
 10
3.9531766966
 20
23.8953894241
 10
3.9469763644
 20
23.8866001128
 10
3.9403018884
 20
23.8780746211
 10
3.9331682905
 20
23.8698321272
 10
3.9255916565
 20
23.8618912199
 10
3.9175890743
 20
23.8542698153
 10
3.909178616
 20
23.846985131
 10
3.9003792836
 20
23.8400536277
 10
3.8912109467
 20
23.8334909566
 10
3.8816942949
 20
23.8273119266
 10
3.8718508099
 20
23.8215304854
 10
3.8617027111
 20
23.8161596834
 10
3.8512729062
 20
23.8112116444
 10
3.8405849388
 20
23.8066975379
 10
3.8296629222
 20
23.802627549
 10
3.818531523
 20
23.7990108707
 10
3.8072159086
 20
23.795855677
 10
3.7957416507
 20
23.7931690913
 10
3.784134625
 20
23.7909571647
 10
3.7724209913
 20
23.78922488
 10
3.7606271764
 20
23.7879761461
 10
3.7487798158
 20
23.7872137841
 10
3.7369056521
 20
23.7869395149
  0
LWPOLYLINE
  5
2EA
100
AcDbEntity
  8
0
100
AcDbPolyline
 62
7
  6
CONTINUOUS
 90
46
 70
0
 10
3.9927192511
 20
23.4260955966
 10
3.9925469998
 20
23.4215169423
 10
3.992120924
 20
23.4169216348
 10
3.9914387064
 20
23.4123167858
 10
3.9904983051
 20
23.4077123149
 10
3.9892979385
 20
23.4031129286
 10
3.9878359995
 20
23.3985181254
 10
3.9861111988
 20
23.3939357034
 10
3.9841225146
 20
23.3893732459
 10
3.9818689944
 20
23.3848301324
 10
3.9793501641
 20
23.3803144947
 10
3.9765658257
 20
23.3758342533
 10
3.9735156903
 20
23.3713886739
 10
3.9702001578
 20
23.3669861803
 10
3.9666199083
 20
23.362634984
 10
3.9627753196
 20
23.3583342403
 10
3.9586677115
 20
23.3540926069
 10
3.9542987084
 20
23.3499185535
 10
3.9496693969
 20
23.3458111716
 10
3.944782079
 20
23.3417793009
 10
3.9396393906
 20
23.3378316178
 10
3.9342431914
 20
23.3339671935
 10
3.9285968303
 20
23.3301949853
 10
3.9227040339
 20
23.3265238197
 10
3.9165675367
 20
23.3229527993
 10
3.9101918064
 20
23.3194909187
 10
3.9035817473
 20
23.3161470851
 10
3.8967411102
 20
23.3129204843
 10
3.8896755607
 20
23.3098200492
 10
3.8823912723
 20
23.3068546771
 10
3.8748931869
 20
23.3040236822
 10
3.867188253
 20
23.3013358119
 10
3.8592839999
 20
23.2987998365
 10
3.851186749
 20
23.2964152276
 10
3.8429048472
 20
23.2941904038
 10
3.8344472216
 20
23.292133849
 10
3.8258216437
 20
23.2902451752
 10
3.8170379082
 20
23.2885322943
 10
3.8081064027
 20
23.2870032406
 10
3.7990364274
 20
23.2856577593
 10
3.7898525399
 20
23.2845052966
 10
3.7805535117
 20
23.2835501381
 10
3.7711098505
 20
23.2827880495
 10
3.7615198793
 20
23.2822264329
 10
3.7518106588
 20
23.2818797608
 10
3.7419962532
 20
23.2817580293
  0
LINE
  5
2EB
100
AcDbEntity
  8
0
100
AcDbLine
 62
7
  6
CONTINUOUS
 10
1.1
 20
-22.2408917015
 11
1.1072807489
 21
-22.1753057538
  0
LINE
  5
2EC
100
AcDbEntity
  8
0
100
AcDbLine
 62
7
  6
CONTINUOUS
 10
1.1
 20
22.5591082985
 11
1.1072807489
 21
22.4935223508
  0
LINE
  5
2ED
100
AcDbEntity
  8
0
100
AcDbLine
 62
7
  6
CONTINUOUS
 10
6.8
 20
-22.2408917015
 11
6.8
 21
-23.8408917015
  0
LINE
  5
2EE
100
AcDbEntity
  8
0
100
AcDbLine
 62
7
  6
CONTINUOUS
 10
6.8
 20
22.5591082985
 11
6.8
 21
24.1591082985
  0
LINE
  5
2EF
100
AcDbEntity
  8
0
100
AcDbLine
 62
7
  6
CONTINUOUS
 10
6.8087267447
 20
24.1503815538
 11
6.8087267447
 21
22.4804966296
  0
LINE
  5
2F0
100
AcDbEntity
  8
0
100
AcDbLine
 62
7
  6
CONTINUOUS
 10
6.8087267447
 20
-22.1622800326
 11
6.8087267447
 21
-23.8321649568
  0
LINE
  5
2F1
100
AcDbEntity
  8
0
100
AcDbLine
 62
7
  6
CONTINUOUS
 10
7.75
 20
-23.8391395832
 11
7.75
 21
-22.1622800326
  0
LINE
  5
2F2
100
AcDbEntity
  8
0
100
AcDbLine
 62
7
  6
CONTINUOUS
 10
7.75
 20
22.4804966296
 11
7.75
 21
24.1573561803
  0
LINE
  5
2F3
100
AcDbEntity
  8
0
100
AcDbLine
 62
250
  6
CONTINUOUS
 10
0.6004921535
 20
-22.2408917015
 11
0.6266747509
 21
-22.1622800326
  0
LINE
  5
2F4
100
AcDbEntity
  8
0
100
AcDbLine
 62
250
  6
CONTINUOUS
 10
0.6266747509
 20
22.4804966296
 11
0.6004921535
 21
22.5591082985
  0
LINE
  5
2F5
100
AcDbEntity
  8
0
100
AcDbLine
 62
250
  6
CONTINUOUS
 10
10.05
 20
-22.2146878119
 11
10.05
 21
-23.8408917015
  0
LINE
  5
2F6
100
AcDbEntity
  8
0
100
AcDbLine
 62
250
  6
CONTINUOUS
 10
10.05
 20
22.5329044089
 11
10.05
 21
24.1591082985
  0
LINE
  5
2F7
100
AcDbEntity
  8
0
100
AcDbLine
 62
7
  6
CONTINUOUS
 10
10.25
 20
-23.6408883168
 11
10.25
 21
-22.2251693677
  0
LINE
  5
2F8
100
AcDbEntity
  8
0
100
AcDbLine
 62
7
  6
CONTINUOUS
 10
10.25
 20
22.5433859647
 11
10.25
 21
23.9591049138
  0
LINE
  5
2F9
100
AcDbEntity
  8
0
100
AcDbLine
 62
7
  6
CONTINUOUS
 10
6.8
 20
-22.2408917015
 11
6.8087267447
 21
-22.1622800326
  0
LINE
  5
2FA
100
AcDbEntity
  8
0
100
AcDbLine
 62
7
  6
CONTINUOUS
 10
6.8087267447
 20
22.4804966296
 11
6.8
 21
22.5591082985
  0
LINE
  5
2FB
100
AcDbEntity
  8
0
100
AcDbLine
 62
250
  6
CONTINUOUS
 10
10.25
 20
23.9591049138
 11
10.25
 21
23.9573595649
  0
LINE
  5
2FC
100
AcDbEntity
  8
0
100
AcDbLine
 62
250
  6
CONTINUOUS
 10
12.25
 20
-23.6408883168
 11
12.25
 21
-23.6391429679
  0
LINE
  5
2FD
100
AcDbEntity
  8
0
100
AcDbLine
 62
7
  6
CONTINUOUS
 10
10.2498096485
 20
23.9678288434
 11
10.25
 21
23.9591049138
  0
LINE
  5
2FE
100
AcDbEntity
  8
0
100
AcDbLine
 62
7
  6
CONTINUOUS
 10
12.2501903515
 20
-23.6496122464
 11
12.25
 21
-23.6408883168
  0
LINE
  5
2FF
100
AcDbEntity
  8
0
100
AcDbLine
 62
7
  6
CONTINUOUS
 10
12.25
 20
23.9591049138
 11
12.25
 21
22.5433859647
  0
LINE
  5
300
100
AcDbEntity
  8
0
100
AcDbLine
 62
7
  6
CONTINUOUS
 10
12.25
 20
-22.2251693677
 11
12.25
 21
-23.6408883168
  0
LINE
  5
301
100
AcDbEntity
  8
0
100
AcDbLine
 62
250
  6
CONTINUOUS
 10
12.45
 20
-22.2146878119
 11
12.45
 21
-23.8408917015
  0
LINE
  5
302
100
AcDbEntity
  8
0
100
AcDbLine
 62
250
  6
CONTINUOUS
 10
12.45
 20
22.5329044089
 11
12.45
 21
24.1591082985
  0
LINE
  5
303
100
AcDbEntity
  8
0
100
AcDbLine
 62
7
  6
CONTINUOUS
 10
10.2498096485
 20
-23.6496122464
 11
10.25
 21
-23.6391429679
  0
LINE
  5
304
100
AcDbEntity
  8
0
100
AcDbLine
 62
7
  6
CONTINUOUS
 10
12.2501903515
 20
23.9678288434
 11
12.25
 21
23.9573595649
  0
LINE
  5
305
100
AcDbEntity
  8
0
100
AcDbLine
 62
250
  6
CONTINUOUS
 10
10.2498096485
 20
-23.6496122464
 11
10.2498099606
 21
-23.6478594509
  0
LINE
  5
306
100
AcDbEntity
  8
0
100
AcDbLine
 62
7
  6
CONTINUOUS
 10
15.7
 20
22.5591082985
 11
15.6912732553
 21
22.4804966296
  0
LINE
  5
307
100
AcDbEntity
  8
0
100
AcDbLine
 62
7
  6
CONTINUOUS
 10
14.75
 20
24.1573561803
 11
14.75
 21
22.4804966296
  0
LINE
  5
308
100
AcDbEntity
  8
0
100
AcDbLine
 62
7
  6
CONTINUOUS
 10
14.75
 20
-22.1622800326
 11
14.75
 21
-23.8391395832
  0
LINE
  5
309
100
AcDbEntity
  8
0
100
AcDbLine
 62
250
  6
CONTINUOUS
 10
21.8995078465
 20
22.5591082985
 11
21.8733252491
 21
22.4804966296
  0
LINE
  5
30A
100
AcDbEntity
  8
0
100
AcDbLine
 62
250
  6
CONTINUOUS
 10
22.3991272468
 20
22.0588794464
 11
22.3729446494
 21
21.9802677775
  0
LINE
  5
30B
100
AcDbEntity
  8
ASSI
100
AcDbLine
 62
250
  6
CONTINUOUS
 10
21.5292680065
 20
21.992048706
 11
21.6501713375
 21
22.3544273116
  0
LINE
  5
30C
100
AcDbEntity
  8
ASSI
100
AcDbLine
 62
250
  6
CONTINUOUS
 10
22.0290966685
 20
21.4929050401
 11
22.15
 21
21.8552836469
  0
LINE
  5
30D
100
AcDbEntity
  8
0
100
AcDbLine
 62
250
  6
CONTINUOUS
 10
21.8733252491
 20
-22.1622800326
 11
21.8995078465
 21
-22.2408917015
  0
LINE
  5
30E
100
AcDbEntity
  8
0
100
AcDbLine
 62
250
  6
CONTINUOUS
 10
22.3729446494
 20
-21.6620511805
 11
22.3991272468
 21
-21.7406628494
  0
LINE
  5
30F
100
AcDbEntity
  8
0
100
AcDbLine
 62
7
  6
CONTINUOUS
 10
15.6912732553
 20
-22.1622800326
 11
15.7
 21
-22.2408917015
  0
LINE
  5
310
100
AcDbEntity
  8
0
100
AcDbLine
 62
7
  6
CONTINUOUS
 10
15.6912732553
 20
-23.8321649568
 11
15.6912732553
 21
-22.1622800326
  0
LINE
  5
311
100
AcDbEntity
  8
0
100
AcDbLine
 62
7
  6
CONTINUOUS
 10
15.6912732553
 20
22.4804966296
 11
15.6912732553
 21
24.1503815538
  0
LINE
  5
312
100
AcDbEntity
  8
0
100
AcDbLine
 62
7
  6
CONTINUOUS
 10
15.7
 20
-22.2408917015
 11
15.7
 21
-23.8408917015
  0
LINE
  5
313
100
AcDbEntity
  8
0
100
AcDbLine
 62
7
  6
CONTINUOUS
 10
15.7
 20
22.5591082985
 11
15.7
 21
24.1591082985
  0
LWPOLYLINE
  5
314
100
AcDbEntity
  8
0
100
AcDbPolyline
 62
7
  6
CONTINUOUS
 90
34
 70
0
 10
18.5
 20
24.4091125293
 10
18.5002831502
 20
24.4210078145
 10
18.5011319658
 20
24.4328761541
 10
18.5025445259
 20
24.4446906646
 10
18.5045176323
 20
24.456424586
 10
18.5070468183
 20
24.4680513373
 10
18.5101263583
 20
24.4795445775
 10
18.5137492787
 20
24.4908782723
 10
18.5179073742
 20
24.5020267478
 10
18.5225912278
 20
24.5129647448
 10
18.5277902312
 20
24.5236674861
 10
18.5334926084
 20
24.5341107268
 10
18.5396854419
 20
24.5442708044
 10
18.5463547045
 20
24.5541247036
 10
18.5534852893
 20
24.5636501023
 10
18.5610610411
 20
24.5728254176
 10
18.5690647995
 20
24.5816298646
 10
18.5774784339
 20
24.590043499
 10
18.5862828809
 20
24.5980472574
 10
18.5954581962
 20
24.6056230092
 10
18.6049835949
 20
24.612753594
 10
18.6148374941
 20
24.6194228566
 10
18.6249975717
 20
24.6256156901
 10
18.6354408124
 20
24.6313180673
 10
18.6461435537
 20
24.6365170707
 10
18.6570815507
 20
24.6412009243
 10
18.6682300262
 20
24.6453590198
 10
18.679563721
 20
24.6489819402
 10
18.6910569612
 20
24.6520614802
 10
18.7026837125
 20
24.6545906662
 10
18.7144176339
 20
24.6565637727
 10
18.7262321444
 20
24.6579763327
 10
18.738100484
 20
24.6588251483
 10
18.7499957692
 20
24.6591082985
  0
LWPOLYLINE
  5
315
100
AcDbEntity
  8
0
100
AcDbPolyline
 62
250
  6
CONTINUOUS
 90
34
 70
0
 10
18.5130985787
 20
24.3960139506
 10
18.5133821295
 20
24.4079089721
 10
18.5142313345
 20
24.4197770488
 10
18.5156442699
 20
24.4315912967
 10
18.5176177351
 20
24.4433249539
 10
18.5201472599
 20
24.4549514412
 10
18.5232271143
 20
24.4664444218
 10
18.5268503217
 20
24.4777778616
 10
18.5310086747
 20
24.4889260878
 10
18.5356927538
 20
24.4998638472
 10
18.5408919485
 20
24.5105663634
 10
18.5465944813
 20
24.5210093927
 10
18.5527874349
 20
24.5311692793
 10
18.5594567807
 20
24.5410230087
 10
18.5665874113
 20
24.5505482602
 10
18.5741631741
 20
24.5597234569
 10
18.5821669083
 20
24.5685278148
 10
18.5905804837
 20
24.5769413902
 10
18.5993848416
 20
24.5849451245
 10
18.6085600383
 20
24.5925208872
 10
18.6180852898
 20
24.5996515178
 10
18.6279390193
 20
24.6063208636
 10
18.6380989058
 20
24.6125138172
 10
18.6485419351
 20
24.61821635
 10
18.6592444513
 20
24.6234155447
 10
18.6701822107
 20
24.6280996238
 10
18.6813304369
 20
24.6322579768
 10
18.6926638767
 20
24.6358811842
 10
18.7041568574
 20
24.6389610386
 10
18.7157833446
 20
24.6414905634
 10
18.7275170018
 20
24.6434640286
 10
18.7393312497
 20
24.6448769641
 10
18.7511993264
 20
24.645726169
 10
18.7630943479
 20
24.6460097198
  0
LINE
  5
316
100
AcDbEntity
  8
0
100
AcDbLine
 62
250
  6
CONTINUOUS
 10
1.1130985787
 20
-24.0777973536
 11
1.1
 21
-24.0908959323
  0
LINE
  5
317
100
AcDbEntity
  8
0
100
AcDbLine
 62
250
  6
CONTINUOUS
 10
1.3630943479
 20
-24.3277931228
 11
1.3499957692
 21
-24.3408917015
  0
LINE
  5
318
100
AcDbEntity
  8
RACCORDO
100
AcDbLine
 62
7
  6
CONTINUOUS
 10
22.15
 20
16.7591082985
 11
22.3729446494
 21
16.7591082985
  0
LINE
  5
319
100
AcDbEntity
  8
0
100
AcDbLine
 62
7
  6
CONTINUOUS
 10
22.15
 20
16.7591082985
 11
22.3729446494
 21
16.7591082985
  0
LINE
  5
31A
100
AcDbEntity
  8
0
100
AcDbLine
 62
250
  6
CONTINUOUS
 10
1.1130985787
 20
24.3960139506
 11
1.1
 21
24.4091125293
  0
LWPOLYLINE
  5
31B
100
AcDbEntity
  8
0
100
AcDbPolyline
 62
7
  6
CONTINUOUS
 90
10
 70
0
 43
0.3500000006
 10
1.0895039098
 20
36.3215008392
 10
1.1609324727
 20
36.1786430054
 10
1.1609324727
 20
36.1072118225
 10
1.0180753469
 20
35.9643585205
 10
0.9466467133
 20
35.9643585205
 10
0.8752181504
 20
36.0357851715
 10
0.8752181504
 20
36.1072118225
 10
0.9466467133
 20
36.2500696564
 10
1.0180753469
 20
36.3215008392
 10
1.0895039098
 20
36.3215008392
  0
LWPOLYLINE
  5
31C
100
AcDbEntity
  8
ASSI
100
AcDbPolyline
 62
250
  6
CONTINUOUS
 90
3
 70
0
 10
21.529227494
 20
-21.9063131926
 10
21.5291704084
 20
-21.9050766967
 10
21.5291059828
 20
-21.898111082
  0
LWPOLYLINE
  5
31D
100
AcDbEntity
  8
0
100
AcDbPolyline
 62
7
  6
CONTINUOUS
 90
46
 70
0
 10
18.5072807489
 20
23.4260955966
 10
18.5074530002
 20
23.4215169423
 10
18.507879076
 20
23.4169216348
 10
18.5085612936
 20
23.4123167858
 10
18.5095016949
 20
23.4077123149
 10
18.5107020615
 20
23.4031129286
 10
18.5121640005
 20
23.3985181254
 10
18.5138888012
 20
23.3939357034
 10
18.5158774854
 20
23.3893732459
 10
18.5181310056
 20
23.3848301324
 10
18.5206498359
 20
23.3803144947
 10
18.5234341743
 20
23.3758342533
 10
18.5264843097
 20
23.3713886739
 10
18.5297998422
 20
23.3669861803
 10
18.5333800917
 20
23.362634984
 10
18.5372246804
 20
23.3583342403
 10
18.5413322885
 20
23.3540926069
 10
18.5457012916
 20
23.3499185535
 10
18.5503306031
 20
23.3458111716
 10
18.555217921
 20
23.3417793009
 10
18.5603606094
 20
23.3378316178
 10
18.5657568086
 20
23.3339671935
 10
18.5714031697
 20
23.3301949853
 10
18.5772959661
 20
23.3265238197
 10
18.5834324633
 20
23.3229527993
 10
18.5898081936
 20
23.3194909187
 10
18.5964182527
 20
23.3161470851
 10
18.6032588898
 20
23.3129204843
 10
18.6103244393
 20
23.3098200492
 10
18.6176087277
 20
23.3068546771
 10
18.6251068131
 20
23.3040236822
 10
18.632811747
 20
23.3013358119
 10
18.6407160001
 20
23.2987998365
 10
18.648813251
 20
23.2964152276
 10
18.6570951528
 20
23.2941904038
 10
18.6655527784
 20
23.292133849
 10
18.6741783563
 20
23.2902451752
 10
18.6829620918
 20
23.2885322943
 10
18.6918935973
 20
23.2870032406
 10
18.7009635726
 20
23.2856577593
 10
18.7101474601
 20
23.2845052966
 10
18.7194464883
 20
23.2835501381
 10
18.7288901495
 20
23.2827880495
 10
18.7384801207
 20
23.2822264329
 10
18.7481893412
 20
23.2818797608
 10
18.7580037468
 20
23.2817580293
  0
LWPOLYLINE
  5
31E
100
AcDbEntity
  8
0
100
AcDbPolyline
 62
7
  6
CONTINUOUS
 90
46
 70
0
 10
21.3927192511
 20
-23.1078789996
 10
21.3925469998
 20
-23.1033003453
 10
21.392120924
 20
-23.0987050378
 10
21.3914387064
 20
-23.0941001888
 10
21.3904983051
 20
-23.0894957179
 10
21.3892979385
 20
-23.0848963316
 10
21.3878359995
 20
-23.0803015284
 10
21.3861111988
 20
-23.0757191064
 10
21.3841225146
 20
-23.0711566489
 10
21.3818689944
 20
-23.0666135354
 10
21.3793501641
 20
-23.0620978976
 10
21.3765658257
 20
-23.0576176563
 10
21.3735156903
 20
-23.0531720769
 10
21.3702001578
 20
-23.0487695833
 10
21.3666199083
 20
-23.044418387
 10
21.3627753196
 20
-23.0401176433
 10
21.3586677115
 20
-23.0358760099
 10
21.3542987084
 20
-23.0317019565
 10
21.3496693969
 20
-23.0275945745
 10
21.344782079
 20
-23.0235627038
 10
21.3396393906
 20
-23.0196150207
 10
21.3342431914
 20
-23.0157505965
 10
21.3285968303
 20
-23.0119783883
 10
21.3227040339
 20
-23.0083072227
 10
21.3165675367
 20
-23.0047362023
 10
21.3101918064
 20
-23.0012743217
 10
21.3035817473
 20
-22.9979304881
 10
21.2967411102
 20
-22.9947038873
 10
21.2896755607
 20
-22.9916034522
 10
21.2823912723
 20
-22.9886380801
 10
21.2748931869
 20
-22.9858070852
 10
21.267188253
 20
-22.9831192149
 10
21.2592839999
 20
-22.9805832395
 10
21.251186749
 20
-22.9781986306
 10
21.2429048472
 20
-22.9759738068
 10
21.2344472216
 20
-22.973917252
 10
21.2258216437
 20
-22.9720285782
 10
21.2170379082
 20
-22.9703156973
 10
21.2081064027
 20
-22.9687866436
 10
21.1990364274
 20
-22.9674411623
 10
21.1898525399
 20
-22.9662886996
 10
21.1805535117
 20
-22.965333541
 10
21.1711098505
 20
-22.9645714525
 10
21.1615198793
 20
-22.9640098359
 10
21.1518106588
 20
-22.9636631638
 10
21.1419962532
 20
-22.9635414323
  0
LWPOLYLINE
  5
31F
100
AcDbEntity
  8
0
100
AcDbPolyline
 62
250
  6
CONTINUOUS
 90
34
 70
0
 10
18.5130985787
 20
24.0034458658
 10
18.5134152294
 20
23.9931630983
 10
18.5142953912
 20
23.9829035383
 10
18.5157370775
 20
23.9726903412
 10
18.5177370345
 20
23.9625465575
 10
18.5202907485
 20
23.9524950811
 10
18.5233924559
 20
23.9425585976
 10
18.5270351563
 20
23.9327595331
 10
18.5312106284
 20
23.9231200035
 10
18.5359094483
 20
23.9136617646
 10
18.5411210111
 20
23.9044061631
 10
18.5468335547
 20
23.8953740883
 10
18.553034186
 20
23.8865859252
 10
18.5597089108
 20
23.8780615081
 10
18.5668426644
 20
23.869820076
 10
18.5744193466
 20
23.8618802295
 10
18.582421857
 20
23.8542598883
 10
18.5908321346
 20
23.8469762509
 10
18.5996311978
 20
23.8400457563
 10
18.6087991877
 20
23.8334840461
 10
18.6183154127
 20
23.8273059296
 10
18.6281583952
 20
23.8215253506
 10
18.6383059201
 20
23.8161553555
 10
18.6487350852
 20
23.8112080639
 10
18.6594223524
 20
23.8066946417
 10
18.6703436011
 20
23.8026252755
 10
18.6814741828
 20
23.7990091494
 10
18.6927889764
 20
23.7958544249
 10
18.704262445
 20
23.793168222
 10
18.7158686938
 20
23.7909566034
 10
18.7275815281
 20
23.7892245605
 10
18.7393745128
 20
23.7879760024
 10
18.7512210317
 20
23.7872137471
 10
18.7630943479
 20
23.7869395149
  0
LWPOLYLINE
  5
320
100
AcDbEntity
  8
0
100
AcDbPolyline
 62
250
  6
CONTINUOUS
 90
34
 70
0
 10
21.3869014213
 20
-23.6852292688
 10
21.3865847593
 20
-23.6749463077
 10
21.3857045651
 20
-23.6646865555
 10
21.3842628252
 20
-23.6544731688
 10
21.3822627951
 20
-23.644329205
 10
21.3797089882
 20
-23.6342775536
 10
21.3766071628
 20
-23.6243408849
 10
21.3729643121
 20
-23.6145416145
 10
21.3687886591
 20
-23.6049018732
 10
21.3640896369
 20
-23.5954434401
 10
21.3588778568
 20
-23.586187671
 10
21.3531650792
 20
-23.5771554478
 10
21.346964196
 20
-23.5683671527
 10
21.3402892023
 20
-23.5598426201
 10
21.3331551648
 20
-23.5516010913
 10
21.3255781853
 20
-23.5436611674
 10
21.3175753657
 20
-23.5360407693
 10
21.3091647686
 20
-23.5287570961
 10
21.300365376
 20
-23.5218265865
 10
21.2911970501
 20
-23.5152648839
 10
21.2816804827
 20
-23.5090867971
 10
21.2718371465
 20
-23.5033062668
 10
21.2616892451
 20
-23.4979363343
 10
21.2512596942
 20
-23.492989128
 10
21.2405720665
 20
-23.488475828
 10
21.2296505067
 20
-23.484406625
 10
21.2185196469
 20
-23.4807906911
 10
21.2072045833
 20
-23.4776361772
 10
21.1957305613
 20
-23.474950141
 10
21.1841237639
 20
-23.472738731
 10
21.172411255
 20
-23.4710070484
 10
21.1606197781
 20
-23.4697589198
 10
21.1487756673
 20
-23.4689970058
 10
21.1369056521
 20
-23.4687229178
  0
LINE
  5
321
100
AcDbEntity
  8
0
100
AcDbLine
 62
250
  6
CONTINUOUS
 10
18.5130985787
 20
-23.6852292688
 11
18.5072807489
 21
-23.1078789996
  0
LINE
  5
322
100
AcDbEntity
  8
0
100
AcDbLine
 62
250
  6
CONTINUOUS
 10
18.7630943479
 20
-23.4687229178
 11
18.7580037468
 21
-22.9635414323
  0
LINE
  5
323
100
AcDbEntity
  8
0
100
AcDbLine
 62
7
  6
CONTINUOUS
 10
18.5
 20
-22.2408917015
 11
18.5
 21
-24.0908959323
  0
LINE
  5
324
100
AcDbEntity
  8
0
100
AcDbLine
 62
7
  6
CONTINUOUS
 10
18.5
 20
22.5591082985
 11
18.5
 21
24.4091125293
  0
LINE
  5
325
100
AcDbEntity
  8
0
100
AcDbLine
 62
250
  6
CONTINUOUS
 10
18.5072807489
 20
23.4260955966
 11
18.5072807489
 21
22.4935223508
  0
LINE
  5
326
100
AcDbEntity
  8
0
100
AcDbLine
 62
250
  6
CONTINUOUS
 10
18.5072807489
 20
-22.1753057538
 11
18.5072807489
 21
-23.1078789996
  0
LINE
  5
327
100
AcDbEntity
  8
0
100
AcDbLine
 62
250
  6
CONTINUOUS
 10
18.5130985787
 20
24.3960139506
 11
18.5130985787
 21
24.0034458658
  0
LINE
  5
328
100
AcDbEntity
  8
0
100
AcDbLine
 62
250
  6
CONTINUOUS
 10
18.5130985787
 20
-23.6852292688
 11
18.5130985787
 21
-24.0777973536
  0
LINE
  5
329
100
AcDbEntity
  8
0
100
AcDbLine
 62
250
  6
CONTINUOUS
 10
18.7572765181
 20
23.2817580293
 11
18.7572765181
 21
22.4804966296
  0
LINE
  5
32A
100
AcDbEntity
  8
0
100
AcDbLine
 62
250
  6
CONTINUOUS
 10
18.7572765181
 20
-22.1622800326
 11
18.7572765181
 21
-22.9635414323
  0
LINE
  5
32B
100
AcDbEntity
  8
0
100
AcDbLine
 62
250
  6
CONTINUOUS
 10
18.7630943479
 20
-23.4687229178
 11
18.7630943479
 21
-24.3277931228
  0
LINE
  5
32C
100
AcDbEntity
  8
0
100
AcDbLine
 62
250
  6
CONTINUOUS
 10
18.7630943479
 20
23.7869395149
 11
18.7630943479
 21
24.6460097198
  0
LINE
  5
32D
100
AcDbEntity
  8
0
100
AcDbLine
 62
250
  6
CONTINUOUS
 10
18.5072807489
 20
23.4260955966
 11
18.5130985787
 21
24.0034458658
  0
LINE
  5
32E
100
AcDbEntity
  8
0
100
AcDbLine
 62
250
  6
CONTINUOUS
 10
18.7580037468
 20
23.2817580293
 11
18.7630943479
 21
23.7869395149
  0
LWPOLYLINE
  5
32F
100
AcDbEntity
  8
0
100
AcDbPolyline
 62
250
  6
CONTINUOUS
 90
34
 70
0
 10
18.5130985787
 20
-23.6852292688
 10
18.5134152294
 20
-23.6749465013
 10
18.5142953912
 20
-23.6646869413
 10
18.5157370775
 20
-23.6544737442
 10
18.5177370345
 20
-23.6443299605
 10
18.5202907485
 20
-23.6342784841
 10
18.5233924559
 20
-23.6243420006
 10
18.5270351563
 20
-23.6145429361
 10
18.5312106284
 20
-23.6049034065
 10
18.5359094483
 20
-23.5954451675
 10
18.5411210111
 20
-23.586189566
 10
18.5468335547
 20
-23.5771574913
 10
18.553034186
 20
-23.5683693282
 10
18.5597089108
 20
-23.5598449111
 10
18.5668426644
 20
-23.551603479
 10
18.5744193466
 20
-23.5436636325
 10
18.582421857
 20
-23.5360432912
 10
18.5908321346
 20
-23.5287596539
 10
18.5996311978
 20
-23.5218291593
 10
18.6087991877
 20
-23.5152674491
 10
18.6183154127
 20
-23.5090893326
 10
18.6281583952
 20
-23.5033087536
 10
18.6383059201
 20
-23.4979387584
 10
18.6487350852
 20
-23.4929914669
 10
18.6594223524
 20
-23.4884780447
 10
18.6703436011
 20
-23.4844086784
 10
18.6814741828
 20
-23.4807925524
 10
18.6927889764
 20
-23.4776378279
 10
18.704262445
 20
-23.474951625
 10
18.7158686938
 20
-23.4727400064
 10
18.7275815281
 20
-23.4710079635
 10
18.7393745128
 20
-23.4697594054
 10
18.7512210317
 20
-23.4689971501
 10
18.7630943479
 20
-23.4687229178
  0
LWPOLYLINE
  5
330
100
AcDbEntity
  8
0
100
AcDbPolyline
 62
250
  6
CONTINUOUS
 90
34
 70
0
 10
21.3869014213
 20
24.0034458658
 10
21.3865847706
 20
23.9931630983
 10
21.3857046088
 20
23.9829035383
 10
21.3842629225
 20
23.9726903412
 10
21.3822629655
 20
23.9625465575
 10
21.3797092515
 20
23.9524950811
 10
21.3766075441
 20
23.9425585976
 10
21.3729648437
 20
23.9327595331
 10
21.3687893716
 20
23.9231200035
 10
21.3640905517
 20
23.9136617646
 10
21.3588789889
 20
23.9044061631
 10
21.3531664453
 20
23.8953740883
 10
21.346965814
 20
23.8865859252
 10
21.3402910892
 20
23.8780615081
 10
21.3331573356
 20
23.869820076
 10
21.3255806534
 20
23.8618802295
 10
21.317578143
 20
23.8542598883
 10
21.3091678654
 20
23.8469762509
 10
21.3003688022
 20
23.8400457563
 10
21.2912008123
 20
23.8334840461
 10
21.2816845873
 20
23.8273059296
 10
21.2718416048
 20
23.8215253506
 10
21.2616940799
 20
23.8161553555
 10
21.2512649148
 20
23.8112080639
 10
21.2405776476
 20
23.8066946417
 10
21.2296563989
 20
23.8026252755
 10
21.2185258172
 20
23.7990091494
 10
21.2072110236
 20
23.7958544249
 10
21.195737555
 20
23.793168222
 10
21.1841313062
 20
23.7909566034
 10
21.1724184719
 20
23.7892245605
 10
21.1606254872
 20
23.7879760024
 10
21.1487789683
 20
23.7872137471
 10
21.1369056521
 20
23.7869395149
  0
LINE
  5
331
100
AcDbEntity
  8
0
100
AcDbLine
 62
7
  6
CONTINUOUS
 10
21.4
 20
22.5591082985
 11
21.3927192511
 21
22.4935223508
  0
LWPOLYLINE
  5
332
100
AcDbEntity
  8
ASSI
100
AcDbPolyline
 62
250
  6
CONTINUOUS
 90
5
 70
0
 10
21.9661249295
 20
20.7859632714
 10
21.9847194892
 20
20.7864135908
 10
21.9985209565
 20
20.7868856542
 10
22.007389568
 20
20.7873746811
 10
22.011235514
 20
20.7878757195
  0
LINE
  5
333
100
AcDbEntity
  8
ASSI
100
AcDbLine
 62
250
  6
CONTINUOUS
 10
21.9153563701
 20
20.7851458392
 11
21.9661249295
 21
20.7859632714
  0
LINE
  5
334
100
AcDbEntity
  8
ASSI
100
AcDbLine
 62
250
  6
CONTINUOUS
 10
21.8094253245
 20
20.7841872292
 11
21.9153563701
 21
20.7851458392
  0
LINE
  5
335
100
AcDbEntity
  8
ASSI
100
AcDbLine
 62
250
  6
CONTINUOUS
 10
21.6282467746
 20
20.7835349042
 11
21.8094253245
 21
20.7841872292
  0
LWPOLYLINE
  5
336
100
AcDbEntity
  8
ASSI
100
AcDbPolyline
 62
250
  6
CONTINUOUS
 90
17
 70
0
 10
17.049041044
 20
20.7770380687
 10
14.8131468609
 20
20.7743714239
 10
12.5831213035
 20
20.7720849965
 10
10.355770551
 20
20.770172881
 10
8.1214558746
 20
20.768627528
 10
5.8843231564
 20
20.7674555128
 10
3.6402786963
 20
20.7666563168
 10
1.3673216572
 20
20.7662292964
 10
-0.9315431497
 20
20.7661922618
 10
-3.2592644698
 20
20.7665588576
 10
-5.6467708108
 20
20.7673525184
 10
-8.095379339
 20
20.768611593
 10
-10.6036930691
 20
20.770369604
 10
-13.1985558083
 20
20.7726785561
 10
-15.888869381
 20
20.775600935
 10
-18.6655979821
 20
20.7791911617
 10
-21.6282482493
 20
20.7835347906
  0
LINE
  5
337
100
AcDbEntity
  8
ASSI
100
AcDbLine
 62
250
  6
CONTINUOUS
 10
17.049041044
 20
20.7770380687
 11
21.6282467746
 21
20.7835349042
  0
LINE
  5
338
100
AcDbEntity
  8
ASSI
100
AcDbLine
 62
250
  6
CONTINUOUS
 10
-21.6282482493
 20
20.7835347906
 11
-21.8094282312
 21
20.7841871378
  0
LINE
  5
339
100
AcDbEntity
  8
ASSI
100
AcDbLine
 62
250
  6
CONTINUOUS
 10
-21.8094282312
 20
20.7841871378
 11
-21.9153593945
 21
20.7851457777
  0
LWPOLYLINE
  5
33A
100
AcDbEntity
  8
ASSI
100
AcDbPolyline
 62
250
  6
CONTINUOUS
 90
6
 70
0
 10
-21.9153593945
 20
20.7851457777
 10
-21.9661274445
 20
20.785963234
 10
-21.9847215612
 20
20.7864135662
 10
-21.9985224598
 20
20.7868856425
 10
-22.0073903798
 20
20.7873746823
 10
-22.0112355165
 20
20.787875733
  0
LINE
  5
33B
100
AcDbEntity
  8
0
100
AcDbLine
 62
250
  6
CONTINUOUS
 10
1.3630943479
 20
24.6460097198
 11
1.3499957692
 21
24.6591082985
  0
LINE
  5
33C
100
AcDbEntity
  8
0
100
AcDbLine
 62
7
  6
CONTINUOUS
 10
21.4
 20
-22.2408917015
 11
21.3927192511
 21
-22.1753057538
  0
LINE
  5
33D
100
AcDbEntity
  8
ASSI
100
AcDbLine
 62
250
  6
CONTINUOUS
 10
22.0171769578
 20
-21.2471855261
 11
22.0153687914
 21
-21.1780233971
  0
LINE
  5
33E
100
AcDbEntity
  8
0
100
AcDbLine
 62
7
  6
CONTINUOUS
 10
22.3987828053
 20
22.077556668
 11
22.3991272468
 21
22.0588794464
  0
LINE
  5
33F
100
AcDbEntity
  8
0
100
AcDbLine
 62
7
  6
CONTINUOUS
 10
22.4004363434
 20
22.0591252215
 11
22.4000925039
 21
22.0777682923
  0
LINE
  5
340
100
AcDbEntity
  8
ASSI
100
AcDbLine
 62
250
  6
CONTINUOUS
 10
22.0153687914
 20
-21.1780233971
 11
22.0138541031
 21
-21.0991773861
  0
LINE
  5
341
100
AcDbEntity
  8
ASSI
100
AcDbLine
 62
250
  6
CONTINUOUS
 10
22.0138541031
 20
-21.0991773861
 11
22.0126643705
 21
-21.0125353277
  0
LINE
  5
342
100
AcDbEntity
  8
0
100
AcDbLine
 62
250
  6
CONTINUOUS
 10
21.1369056521
 20
23.7869395149
 11
21.1419962532
 21
23.2817580293
  0
LINE
  5
343
100
AcDbEntity
  8
0
100
AcDbLine
 62
250
  6
CONTINUOUS
 10
21.3869014213
 20
24.0034458658
 11
21.3927192511
 21
23.4260955966
  0
LINE
  5
344
100
AcDbEntity
  8
ASSI
100
AcDbLine
 62
250
  6
CONTINUOUS
 10
22.0126643705
 20
-21.0125353277
 11
22.0115327901
 21
-20.8717115638
  0
LINE
  5
345
100
AcDbEntity
  8
DRAFT
100
AcDbLine
 62
7
  6
CONTINUOUS
 10
22.345044505
 20
0.1591082985
 11
22.3729446494
 21
-16.4408917015
  0
LINE
  5
346
100
AcDbEntity
  8
0
100
AcDbLine
 62
7
  6
CONTINUOUS
 10
22.345044505
 20
0.1591082985
 11
22.3729446494
 21
-16.4408917015
  0
LWPOLYLINE
  5
347
100
AcDbEntity
  8
ASSI
100
AcDbPolyline
 62
250
  6
CONTINUOUS
 90
9
 70
0
 10
22.0115327901
 20
-20.8717115638
 10
22.006682419
 20
-16.165736314
 10
22.003267596
 20
-11.5553729697
 10
22.0009910472
 20
-6.9420341031
 10
21.9998527729
 20
-2.3252527018
 10
21.9998527729
 20
2.2945042217
 10
22.0009910471
 20
6.9158356294
 10
22.0032675953
 20
11.5382745086
 10
22.0066824176
 20
16.1622878719
  0
LWPOLYLINE
  5
348
100
AcDbEntity
  8
ASSI
100
AcDbPolyline
 62
250
  6
CONTINUOUS
 90
9
 70
0
 10
21.5259906581
 20
-16.2082517954
 10
21.5239884878
 20
-11.5930699451
 10
21.5226537074
 20
-6.9745063255
 10
21.521986317
 20
-2.3529128119
 10
21.5219863167
 20
2.2712461976
 10
21.522653707
 20
6.8973942271
 10
21.5239884878
 20
11.5250659182
 10
21.5259906589
 20
16.1539072494
 10
21.5286602201
 20
20.7835085641
  0
LINE
  5
349
100
AcDbEntity
  8
ASSI
100
AcDbLine
 62
250
  6
CONTINUOUS
 10
21.5291059828
 20
-21.898111082
 11
21.5286010437
 21
-21.3791748221
  0
LINE
  5
34A
100
AcDbEntity
  8
0
100
AcDbLine
 62
250
  6
CONTINUOUS
 10
21.1369056521
 20
-23.4687229178
 11
21.1369056521
 21
-24.3277931228
  0
LINE
  5
34B
100
AcDbEntity
  8
0
100
AcDbLine
 62
250
  6
CONTINUOUS
 10
21.1369056521
 20
23.7869395149
 11
21.1369056521
 21
24.6460097198
  0
LINE
  5
34C
100
AcDbEntity
  8
0
100
AcDbLine
 62
250
  6
CONTINUOUS
 10
21.1427234819
 20
-22.9635414323
 11
21.1427234819
 21
-22.1622800326
  0
LINE
  5
34D
100
AcDbEntity
  8
0
100
AcDbLine
 62
250
  6
CONTINUOUS
 10
21.1427234819
 20
22.4804966296
 11
21.1427234819
 21
23.2817580293
  0
LINE
  5
34E
100
AcDbEntity
  8
0
100
AcDbLine
 62
250
  6
CONTINUOUS
 10
21.3869014213
 20
-24.0777973536
 11
21.3869014213
 21
-23.6852292688
  0
LINE
  5
34F
100
AcDbEntity
  8
0
100
AcDbLine
 62
250
  6
CONTINUOUS
 10
21.3869014213
 20
24.0034458658
 11
21.3869014213
 21
24.3960139506
  0
LINE
  5
350
100
AcDbEntity
  8
0
100
AcDbLine
 62
250
  6
CONTINUOUS
 10
21.3927192511
 20
-23.1078789996
 11
21.3927192511
 21
-22.1753057538
  0
LINE
  5
351
100
AcDbEntity
  8
0
100
AcDbLine
 62
250
  6
CONTINUOUS
 10
21.3927192511
 20
22.4935223508
 11
21.3927192511
 21
23.4260955966
  0
LINE
  5
352
100
AcDbEntity
  8
0
100
AcDbLine
 62
7
  6
CONTINUOUS
 10
21.4
 20
-22.2408917015
 11
21.4
 21
-24.0908959323
  0
LINE
  5
353
100
AcDbEntity
  8
0
100
AcDbLine
 62
7
  6
CONTINUOUS
 10
21.4
 20
22.5591082985
 11
21.4
 21
24.4091125293
  0
LINE
  5
354
100
AcDbEntity
  8
ASSI
100
AcDbLine
 62
250
  6
CONTINUOUS
 10
21.5286010437
 20
-21.3791748221
 11
21.5285925246
 21
-21.306449407
  0
LINE
  5
355
100
AcDbEntity
  8
ASSI
100
AcDbLine
 62
7
  6
CONTINUOUS
 10
22.15
 20
-21.2858544599
 11
22.15
 21
21.8552836469
  0
LINE
  5
356
100
AcDbEntity
  8
DRAFT
100
AcDbLine
 62
7
  6
CONTINUOUS
 10
22.3729446494
 20
-21.6620511805
 11
22.3729446494
 21
-16.4408917015
  0
LINE
  5
357
100
AcDbEntity
  8
0
100
AcDbLine
 62
7
  6
CONTINUOUS
 10
22.3729446494
 20
-21.6620511805
 11
22.3729446494
 21
-16.4408917015
  0
LINE
  5
358
100
AcDbEntity
  8
DRAFT
100
AcDbLine
 62
7
  6
CONTINUOUS
 10
22.3729446494
 20
16.7591082985
 11
22.3729446494
 21
21.9802677775
  0
LINE
  5
359
100
AcDbEntity
  8
0
100
AcDbLine
 62
7
  6
CONTINUOUS
 10
22.3729446494
 20
16.7591082985
 11
22.3729446494
 21
21.9802677775
  0
LINE
  5
35A
100
AcDbEntity
  8
0
100
AcDbLine
 62
7
  6
CONTINUOUS
 10
22.3991272468
 20
-21.7406628494
 11
22.3991272468
 21
22.0588794464
  0
LINE
  5
35B
100
AcDbEntity
  8
0
100
AcDbLine
 62
7
  6
CONTINUOUS
 10
22.4004363434
 20
-21.7409086245
 11
22.4004363434
 21
22.0591252215
  0
LINE
  5
35C
100
AcDbEntity
  8
ASSI
100
AcDbLine
 62
250
  6
CONTINUOUS
 10
21.5286602242
 20
20.7835085635
 11
21.5286225447
 21
21.4352021749
  0
LINE
  5
35D
100
AcDbEntity
  8
ASSI
100
AcDbLine
 62
250
  6
CONTINUOUS
 10
21.5285925246
 20
-21.306449407
 11
21.5259906581
 21
-16.2082517954
  0
LINE
  5
35E
100
AcDbEntity
  8
DRAFT
100
AcDbLine
 62
7
  6
CONTINUOUS
 10
22.3729446494
 20
16.7591082985
 11
22.345044505
 21
0.1591082985
  0
LINE
  5
35F
100
AcDbEntity
  8
0
100
AcDbLine
 62
7
  6
CONTINUOUS
 10
22.3729446494
 20
16.7591082985
 11
22.345044505
 21
0.1591082985
  0
LINE
  5
360
100
AcDbEntity
  8
ASSI
100
AcDbLine
 62
250
  6
CONTINUOUS
 10
21.5286225447
 20
21.4352021749
 11
21.5291059813
 21
21.9663635111
  0
LWPOLYLINE
  5
361
100
AcDbEntity
  8
ASSI
100
AcDbPolyline
 62
250
  6
CONTINUOUS
 90
3
 70
0
 10
21.5291059813
 20
21.9663635111
 10
21.5291704053
 20
21.9822443693
 10
21.5292680061
 20
21.9920487048
  0
LINE
  5
362
100
AcDbEntity
  8
ASSI
100
AcDbLine
 62
250
  6
CONTINUOUS
 10
22.0066824176
 20
16.1622878719
 11
22.0115327859
 21
20.8876514258
  0
LINE
  5
363
100
AcDbEntity
  8
ASSI
100
AcDbLine
 62
250
  6
CONTINUOUS
 10
22.0115327859
 20
20.8876514258
 11
22.0126643657
 21
21.032998409
  0
LINE
  5
364
100
AcDbEntity
  8
0
100
AcDbLine
 62
250
  6
CONTINUOUS
 10
21.1419962532
 20
-22.9635414323
 11
21.1369056521
 21
-23.4687229178
  0
LINE
  5
365
100
AcDbEntity
  8
0
100
AcDbLine
 62
250
  6
CONTINUOUS
 10
21.3927192511
 20
-23.1078789996
 11
21.3869014213
 21
-23.6852292688
  0
LINE
  5
366
100
AcDbEntity
  8
ASSI
100
AcDbLine
 62
250
  6
CONTINUOUS
 10
22.0126643657
 20
21.032998409
 11
22.0138540984
 21
21.1243961371
  0
LINE
  5
367
100
AcDbEntity
  8
0
100
AcDbLine
 62
7
  6
CONTINUOUS
 10
22.3991272468
 20
-21.7406628494
 11
22.3987828053
 21
-21.759340071
  0
LINE
  5
368
100
AcDbEntity
  8
0
100
AcDbLine
 62
7
  6
CONTINUOUS
 10
22.4000925039
 20
-21.7595516953
 11
22.4004363434
 21
-21.7409086245
  0
LINE
  5
369
100
AcDbEntity
  8
ASSI
100
AcDbLine
 62
250
  6
CONTINUOUS
 10
22.0138540984
 20
21.1243961371
 11
22.0153687867
 21
21.2092967495
  0
LWPOLYLINE
  5
36A
100
AcDbEntity
  8
0
100
AcDbPolyline
 62
250
  6
CONTINUOUS
 90
34
 70
0
 10
21.3869014213
 20
-24.0777973536
 10
21.3866178705
 20
-24.0896923751
 10
21.3857686655
 20
-24.1015604518
 10
21.3843557301
 20
-24.1133746997
 10
21.3823822649
 20
-24.1251083569
 10
21.3798527401
 20
-24.1367348441
 10
21.3767728857
 20
-24.1482278247
 10
21.3731496783
 20
-24.1595612646
 10
21.3689913253
 20
-24.1707094908
 10
21.3643072462
 20
-24.1816472502
 10
21.3591080515
 20
-24.1923497664
 10
21.3534055187
 20
-24.2027927956
 10
21.3472125651
 20
-24.2129526822
 10
21.3405432193
 20
-24.2228064117
 10
21.3334125887
 20
-24.2323316632
 10
21.3258368259
 20
-24.2415068599
 10
21.3178330917
 20
-24.2503112178
 10
21.3094195163
 20
-24.2587247932
 10
21.3006151584
 20
-24.2667285274
 10
21.2914399617
 20
-24.2743042902
 10
21.2819147102
 20
-24.2814349208
 10
21.2720609807
 20
-24.2881042666
 10
21.2619010942
 20
-24.2942972202
 10
21.2514580649
 20
-24.299999753
 10
21.2407555487
 20
-24.3051989477
 10
21.2298177893
 20
-24.3098830267
 10
21.2186695631
 20
-24.3140413798
 10
21.2073361233
 20
-24.3176645872
 10
21.1958431426
 20
-24.3207444416
 10
21.1842166554
 20
-24.3232739664
 10
21.1724829982
 20
-24.3252474316
 10
21.1606687503
 20
-24.326660367
 10
21.1488006736
 20
-24.327509572
 10
21.1369056521
 20
-24.3277931228
  0
LWPOLYLINE
  5
36B
100
AcDbEntity
  8
0
100
AcDbPolyline
 62
7
  6
CONTINUOUS
 90
34
 70
0
 10
21.4
 20
-24.0908959323
 10
21.3997168498
 20
-24.1027912175
 10
21.3988680342
 20
-24.1146595571
 10
21.3974554741
 20
-24.1264740676
 10
21.3954823677
 20
-24.138207989
 10
21.3929531817
 20
-24.1498347403
 10
21.3898736417
 20
-24.1613279805
 10
21.3862507213
 20
-24.1726616753
 10
21.3820926258
 20
-24.1838101508
 10
21.3774087722
 20
-24.1947481478
 10
21.3722097688
 20
-24.2054508891
 10
21.3665073916
 20
-24.2158941298
 10
21.3603145581
 20
-24.2260542074
 10
21.3536452955
 20
-24.2359081066
 10
21.3465147107
 20
-24.2454335053
 10
21.3389389589
 20
-24.2546088206
 10
21.3309352005
 20
-24.2634132676
 10
21.3225215661
 20
-24.271826902
 10
21.3137171191
 20
-24.2798306604
 10
21.3045418038
 20
-24.2874064122
 10
21.2950164051
 20
-24.294536997
 10
21.2851625059
 20
-24.3012062596
 10
21.2750024283
 20
-24.3073990931
 10
21.2645591876
 20
-24.3131014703
 10
21.2538564463
 20
-24.3183004737
 10
21.2429184493
 20
-24.3229843273
 10
21.2317699738
 20
-24.3271424228
 10
21.220436279
 20
-24.3307653432
 10
21.2089430388
 20
-24.3338448832
 10
21.1973162875
 20
-24.3363740692
 10
21.1855823661
 20
-24.3383471756
 10
21.1737678556
 20
-24.3397597357
 10
21.161899516
 20
-24.3406085512
 10
21.1500042308
 20
-24.3408917015
  0
LINE
  5
36C
100
AcDbEntity
  8
ASSI
100
AcDbLine
 62
250
  6
CONTINUOUS
 10
22.0153687867
 20
21.2092967495
 11
22.0171769531
 21
21.2856865882
  0
LWPOLYLINE
  5
36D
100
AcDbEntity
  8
ASSI
100
AcDbPolyline
 62
250
  6
CONTINUOUS
 90
10
 70
0
 10
22.0171769531
 20
21.2856865882
 10
22.0192337284
 20
21.351861682
 10
22.0203500342
 20
21.3808980495
 10
22.0215075411
 20
21.4068048788
 10
22.0227074662
 20
21.4295356731
 10
22.0239485922
 20
21.4491369292
 10
22.0252101522
 20
21.4653048715
 10
22.0264852238
 20
21.4779382415
 10
22.0277807292
 20
21.4871382977
 10
22.0290966685
 20
21.4929050401
  0
LINE
  5
36E
100
AcDbEntity
  8
0
100
AcDbLine
 62
7
  6
CONTINUOUS
 10
18.5
 20
-22.2408917015
 11
18.5072807489
 21
-22.1753057538
  0
LINE
  5
36F
100
AcDbEntity
  8
0
100
AcDbLine
 62
7
  6
CONTINUOUS
 10
6.8
 20
-23.8408917015
 11
6.8087267447
 21
-23.8321649568
  0
LINE
  5
370
100
AcDbEntity
  8
0
100
AcDbLine
 62
7
  6
CONTINUOUS
 10
0.4893996693
 20
22.5465946597
 11
0.4701893871
 21
22.5420811518
  0
LINE
  5
371
100
AcDbEntity
  8
0
100
AcDbLine
 62
7
  6
CONTINUOUS
 10
0.4883533674
 20
22.5465857613
 11
0.5077394946
 21
22.5504111348
  0
LINE
  5
372
100
AcDbEntity
  8
0
100
AcDbLine
 62
7
  6
CONTINUOUS
 10
0.5066783175
 20
22.5504049845
 11
0.5262460012
 21
22.5535475858
  0
LINE
  5
373
100
AcDbEntity
  8
0
100
AcDbLine
 62
7
  6
CONTINUOUS
 10
0.5447451792
 20
22.5559872081
 11
0.5251697846
 21
22.5535436923
  0
LINE
  5
374
100
AcDbEntity
  8
0
100
AcDbLine
 62
7
  6
CONTINUOUS
 10
0.5631790253
 20
22.5577244002
 11
0.543757215
 21
22.5559850601
  0
LWPOLYLINE
  5
375
100
AcDbEntity
  8
0
100
AcDbPolyline
 62
7
  6
CONTINUOUS
 90
35
 70
0
 10
12.4412760241
 20
24.1589179352
 10
12.4325686607
 20
24.1583472085
 10
12.4238944849
 20
24.1573972054
 10
12.415270009
 20
24.156069735
 10
12.4067116502
 20
24.154367325
 10
12.3982356998
 20
24.1522932168
 10
12.3898582924
 20
24.1498513593
 10
12.3815953749
 20
24.1470464013
 10
12.3734626762
 20
24.1438836834
 10
12.3654756774
 20
24.1403692263
 10
12.357649582
 20
24.1365097206
 10
12.3499992876
 20
24.1323125145
 10
12.3425393567
 20
24.1277855979
 10
12.3352839893
 20
24.1229375885
 10
12.3282469964
 20
24.1177777163
 10
12.3214417729
 20
24.1123158036
 10
12.3148812725
 20
24.1065622479
 10
12.3085779831
 20
24.1005280027
 10
12.3025439029
 20
24.0942245549
 10
12.2967905175
 20
24.0876639035
 10
12.2913287783
 20
24.0808585385
 10
12.2861690813
 20
24.0738214144
 10
12.2813212476
 20
24.0665659267
 10
12.2767945045
 20
24.0591058878
 10
12.2725974683
 20
24.0514554981
 10
12.2687381274
 20
24.0436293204
 10
12.2652238274
 20
24.0356422532
 10
12.2620612573
 20
24.0275094999
 10
12.2592564364
 20
24.0192465413
 10
12.2568147029
 20
24.0108691069
 10
12.2547407041
 20
24.0023931432
 10
12.2530383872
 20
23.9938347839
 10
12.2517109917
 20
23.9852103207
 10
12.250761044
 20
23.9765361704
 10
12.2501903515
 20
23.9678288434
  0
LINE
  5
376
100
AcDbEntity
  8
0
100
AcDbLine
 62
7
  6
CONTINUOUS
 10
0.5816055427
 20
22.5587647637
 11
0.5624170906
 21
22.5577234796
  0
LWPOLYLINE
  5
377
100
AcDbEntity
  8
ASSI
100
AcDbPolyline
 62
250
  6
CONTINUOUS
 90
16
 70
0
 10
-21.5292680107
 20
21.9920487188
 10
-21.5814923419
 20
21.9892131563
 10
-21.6331449059
 20
21.9809520435
 10
-21.6836602692
 20
21.9673558364
 10
-21.7324854667
 20
21.9485733855
 10
-21.7790860063
 20
21.9248103244
 10
-21.8229517276
 20
21.8963268337
 10
-21.8636024544
 20
21.8634347557
 10
-21.9005932273
 20
21.8264941756
 10
-21.9335191359
 20
21.7859095126
 10
-21.9620197812
 20
21.7421250698
 10
-21.9857832239
 20
21.6956201517
 10
-22.0045493817
 20
21.6469038302
 10
-22.0181128696
 20
21.5965093851
 10
-22.0263252523
 20
21.544988469
 10
-22.0290966732
 20
21.4929050541
  0
LINE
  5
378
100
AcDbEntity
  8
0
100
AcDbLine
 62
7
  6
CONTINUOUS
 10
0.6000247315
 20
22.5591082985
 11
0.5811729294
 21
22.5587645591
  0
LWPOLYLINE
  5
379
100
AcDbEntity
  8
0
100
AcDbPolyline
 62
7
  6
CONTINUOUS
 90
46
 70
0
 10
21.1427234819
 20
23.2817580293
 10
21.1522451922
 20
23.2818981695
 10
21.1617387721
 20
23.2822433781
 10
21.17119058
 20
23.282793655
 10
21.1805997277
 20
23.2835537465
 10
21.189940165
 20
23.2845189064
 10
21.1991615188
 20
23.2856748961
 10
21.2082388948
 20
23.2870221369
 10
21.2171742523
 20
23.2885602075
 10
21.2259589726
 20
23.2902736054
 10
21.2345827145
 20
23.2921626003
 10
21.2430357863
 20
23.2942269225
 10
21.2513111678
 20
23.2964502597
 10
21.2594000085
 20
23.2988327573
 10
21.2672940791
 20
23.30137427
 10
21.2749878296
 20
23.3040580499
 10
21.2824738233
 20
23.3068841412
 10
21.2897452006
 20
23.3098524997
 10
21.2967977203
 20
23.3129462446
 10
21.3036252797
 20
23.3161653516
 10
21.3102222689
 20
23.3195098451
 10
21.3165855377
 20
23.322962917
 10
21.3227102114
 20
23.3265244991
 10
21.3285918334
 20
23.3301946596
 10
21.3342281527
 20
23.3339567955
 10
21.3396154201
 20
23.3378108118
 10
21.3447502443
 20
23.3417568034
 10
21.3496311253
 20
23.3457784517
 10
21.3542553458
 20
23.3498756459
 10
21.3586205033
 20
23.3540484968
 10
21.3627257469
 20
23.3582810185
 10
21.3665693096
 20
23.3625730885
 10
21.3701497129
 20
23.3669248293
 10
21.3734666952
 20
23.3713206233
 10
21.3765193718
 20
23.3757603359
 10
21.3793071319
 20
23.3802441017
 10
21.3818302761
 20
23.3847567069
 10
21.384088744
 20
23.3892980002
 10
21.386082743
 20
23.393868133
 10
21.3878131329
 20
23.3984523453
 10
21.3892806266
 20
23.4030504644
 10
21.3904862023
 20
23.4076626631
 10
21.3914312811
 20
23.4122746998
 10
21.3921173295
 20
23.4168818274
 10
21.3925459951
 20
23.421488793
 10
21.3927192511
 20
23.4260955966
  0
LWPOLYLINE
  5
37A
100
AcDbEntity
  8
ASSI
100
AcDbPolyline
 62
250
  6
CONTINUOUS
 90
19
 70
0
 10
21.5292680065
 20
21.992048706
 10
19.288181472
 20
21.9862729859
 10
17.0497650898
 20
21.9811332774
 10
14.8140188601
 20
21.9766295806
 10
12.5841377851
 20
21.9727647949
 10
10.3569268625
 20
21.9695360209
 10
8.1228010852
 20
21.9669345604
 10
5.8858786264
 20
21.9649465183
 10
3.642041313
 20
21.9635857899
 10
1.3693496178
 20
21.9628853628
 10
-0.9291528022
 20
21.9628135714
 10
-3.256509604
 20
21.9634020813
 10
-5.6437912847
 20
21.9647788777
 10
-8.0924204844
 20
21.9669051749
 10
-10.6009745631
 20
21.9698197585
 10
-13.1962560974
 20
21.9737669705
 10
-15.8871992795
 20
21.9788282582
 10
-18.6648699173
 20
21.9849221743
 10
-21.5292680107
 20
21.9920487188
  0
LINE
  5
37B
100
AcDbEntity
  8
ASSI
100
AcDbLine
 62
7
  6
CONTINUOUS
 10
-21.6501713375
 20
22.3544273116
 11
21.6501713375
 21
22.3544273116
  0
LINE
  5
37C
100
AcDbEntity
  8
0
100
AcDbLine
 62
7
  6
CONTINUOUS
 10
0.6266747509
 20
22.4804966296
 11
1.3572765181
 21
22.4804966296
  0
LINE
  5
37D
100
AcDbEntity
  8
0
100
AcDbLine
 62
7
  6
CONTINUOUS
 10
3.7427234819
 20
22.4804966296
 11
6.8087267447
 21
22.4804966296
  0
LINE
  5
37E
100
AcDbEntity
  8
0
100
AcDbLine
 62
7
  6
CONTINUOUS
 10
7.75
 20
22.4804966296
 11
14.75
 21
22.4804966296
  0
LINE
  5
37F
100
AcDbEntity
  8
0
100
AcDbLine
 62
7
  6
CONTINUOUS
 10
15.6912732553
 20
22.4804966296
 11
18.7572765181
 21
22.4804966296
  0
LINE
  5
380
100
AcDbEntity
  8
0
100
AcDbLine
 62
7
  6
CONTINUOUS
 10
21.1427234819
 20
22.4804966296
 11
21.8733252491
 21
22.4804966296
  0
LINE
  5
381
100
AcDbEntity
  8
0
100
AcDbLine
 62
7
  6
CONTINUOUS
 10
7.75
 20
22.5329044089
 11
10.05
 21
22.5329044089
  0
LINE
  5
382
100
AcDbEntity
  8
0
100
AcDbLine
 62
7
  6
CONTINUOUS
 10
12.45
 20
22.5329044089
 11
14.75
 21
22.5329044089
  0
LINE
  5
383
100
AcDbEntity
  8
0
100
AcDbLine
 62
7
  6
CONTINUOUS
 10
12.25
 20
22.5591082985
 11
10.25
 21
22.5591082985
  0
LINE
  5
384
100
AcDbEntity
  8
0
100
AcDbLine
 62
7
  6
CONTINUOUS
 10
0.6004921535
 20
22.5591082985
 11
1.1
 21
22.5591082985
  0
LINE
  5
385
100
AcDbEntity
  8
0
100
AcDbLine
 62
7
  6
CONTINUOUS
 10
4.0
 20
22.5591082985
 11
6.8
 21
22.5591082985
  0
LINE
  5
386
100
AcDbEntity
  8
0
100
AcDbLine
 62
7
  6
CONTINUOUS
 10
15.7
 20
22.5591082985
 11
18.5
 21
22.5591082985
  0
LINE
  5
387
100
AcDbEntity
  8
0
100
AcDbLine
 62
7
  6
CONTINUOUS
 10
21.4
 20
22.5591082985
 11
21.8995078465
 21
22.5591082985
  0
LINE
  5
388
100
AcDbEntity
  8
0
100
AcDbLine
 62
7
  6
CONTINUOUS
 10
21.1427234819
 20
23.2817580293
 11
18.7572765181
 21
23.2817580293
  0
LINE
  5
389
100
AcDbEntity
  8
0
100
AcDbLine
 62
7
  6
CONTINUOUS
 10
1.3572765181
 20
23.2817580293
 11
3.7427234819
 21
23.2817580293
  0
LINE
  5
38A
100
AcDbEntity
  8
0
100
AcDbLine
 62
7
  6
CONTINUOUS
 10
21.9188270705
 20
22.5587645591
 11
21.8999752684
 21
22.5591082985
  0
LWPOLYLINE
  5
38B
100
AcDbEntity
  8
ASSI
100
AcDbPolyline
 62
250
  6
CONTINUOUS
 90
16
 70
0
 10
21.5292680061
 20
21.9920487048
 10
21.5814916322
 20
21.9892132179
 10
21.6331435839
 20
21.980952312
 10
21.6836584449
 20
21.9673564164
 10
21.732483246
 20
21.9485743607
 10
21.7790835187
 20
21.9248117457
 10
21.8229491457
 20
21.8963286928
 10
21.8635999447
 20
21.8634369964
 10
21.9005909253
 20
21.8264967106
 10
21.9335171597
 20
21.7859122083
 10
21.9620182155
 20
21.7421277543
 10
21.9857821015
 20
21.6956226421
 10
22.0045486823
 20
21.6469059474
 10
22.0181125267
 20
21.5965109554
 10
22.0263251557
 20
21.5449893231
 10
22.0290966685
 20
21.4929050401
  0
LINE
  5
38C
100
AcDbEntity
  8
0
100
AcDbLine
 62
7
  6
CONTINUOUS
 10
6.8
 20
24.1591082985
 11
6.8087267447
 21
24.1503815538
  0
LINE
  5
38D
100
AcDbEntity
  8
0
100
AcDbLine
 62
7
  6
CONTINUOUS
 10
18.5
 20
22.5591082985
 11
18.5072807489
 21
22.4935223508
  0
LWPOLYLINE
  5
38E
100
AcDbEntity
  8
0
100
AcDbPolyline
 62
7
  6
CONTINUOUS
 90
33
 70
0
 10
22.4000925039
 20
22.0777682923
 10
22.3990515353
 20
22.0963667478
 10
22.3973134374
 20
22.1149205881
 10
22.3948725704
 20
22.1334705209
 10
22.3917345743
 20
22.1519758385
 10
22.3879163686
 20
22.1703144176
 10
22.3834133688
 20
22.1884740037
 10
22.3782301595
 20
22.2064668513
 10
22.3723974143
 20
22.2242076014
 10
22.3659236928
 20
22.2416736981
 10
22.3588004354
 20
22.2588876971
 10
22.3510326366
 20
22.2758319072
 10
22.3426068861
 20
22.2925328629
 10
22.3335365943
 20
22.3089640296
 10
22.3238669865
 20
22.3250281119
 10
22.3135891212
 20
22.3407241793
 10
22.3027119399
 20
22.3560531624
 10
22.291307493
 20
22.3709205574
 10
22.2793882949
 20
22.3853050624
 10
22.2669418311
 20
22.3992279794
 10
22.2540026084
 20
22.4126587095
 10
22.240571804
 20
22.4255987349
 10
22.2266482406
 20
22.4380465734
 10
22.2122628933
 20
22.4499671802
 10
22.197394298
 20
22.4613730467
 10
22.1820639186
 20
22.4722516814
 10
22.1663671227
 20
22.482530565
 10
22.1503034956
 20
22.4922004217
 10
22.1338734519
 20
22.5012705273
 10
22.1171736021
 20
22.5096961896
 10
22.1002307852
 20
22.5174640559
 10
22.0830181623
 20
22.524587479
 10
22.0655518263
 20
22.5310618245
  0
LWPOLYLINE
  5
38F
100
AcDbEntity
  8
0
100
AcDbPolyline
 62
7
  6
CONTINUOUS
 90
33
 70
0
 10
22.3987828053
 20
-21.759340071
 10
22.3977408271
 20
-21.7779707666
 10
22.3960013121
 20
-21.7965549362
 10
22.3935584869
 20
-21.8151333285
 10
22.390418125
 20
-21.8336651948
 10
22.3865975465
 20
-21.8520282894
 10
22.3820921993
 20
-21.8702102557
 10
22.3769066356
 20
-21.8882234503
 10
22.3710718318
 20
-21.9059826976
 10
22.3645963347
 20
-21.9234654871
 10
22.3574715976
 20
-21.9406943294
 10
22.3497029567
 20
-21.9576515801
 10
22.341276976
 20
-21.9743637965
 10
22.3322070915
 20
-21.9908044214
 10
22.3225389474
 20
-22.0068761397
 10
22.312263664
 20
-22.0225779055
 10
22.3013901209
 20
-22.0379107648
 10
22.2899906009
 20
-22.0527805405
 10
22.2780777765
 20
-22.0671658028
 10
22.2656389751
 20
-22.0810879817
 10
22.2527084613
 20
-22.0945171894
 10
22.2392872461
 20
-22.1074551122
 10
22.2253743184
 20
-22.1199000639
 10
22.2110009099
 20
-22.1318170988
 10
22.1961457214
 20
-22.143218589
 10
22.1808300522
 20
-22.1540921625
 10
22.1651490314
 20
-22.164365757
 10
22.1491023344
 20
-22.1740301053
 10
22.1326902858
 20
-22.1830944746
 10
22.1160089886
 20
-22.1915146045
 10
22.0990852496
 20
-22.1992772146
 10
22.081892262
 20
-22.2063955853
 10
22.064445708
 20
-22.2128652974
  0
LWPOLYLINE
  5
390
100
AcDbEntity
  8
0
100
AcDbPolyline
 62
250
  6
CONTINUOUS
 90
33
 70
0
 10
12.45
 20
24.1573561803
 10
12.4404822311
 20
24.1571295859
 10
12.4309860147
 20
24.1564503149
 10
12.4215328694
 20
24.1553199045
 10
12.4121442099
 20
24.1537409128
 10
12.4028413178
 20
24.1517169165
 10
12.3936452919
 20
24.1492525052
 10
12.3845769757
 20
24.1463532656
 10
12.3756569126
 20
24.1430257669
 10
12.3669053173
 20
24.1392775507
 10
12.358342019
 20
24.1351171105
 10
12.3499864234
 20
24.1305538755
 10
12.3418574709
 20
24.1255981912
 10
12.3339735824
 20
24.1202612905
 10
12.3263526192
 20
24.1145552673
 10
12.3190118497
 20
24.1084930535
 10
12.3119679012
 20
24.1020883827
 10
12.3052367389
 20
24.0953557739
 10
12.2988336283
 20
24.0883105009
 10
12.2927730916
 20
24.0809685538
 10
12.287068838
 20
24.0733465517
 10
12.2817337544
 20
24.0654617159
 10
12.276779889
 20
24.0573318354
 10
12.2722185205
 20
24.0489754011
 10
12.2680600699
 20
24.0404115267
 10
12.2643139839
 20
24.0316597437
 10
12.2609886702
 20
24.02273978
 10
12.25809159
 20
24.0136716847
 10
12.2556289492
 20
24.004474525
 10
12.2536068265
 20
23.9951705821
 10
12.2520304286
 20
23.985785283
 10
12.250902847
 20
23.9763414375
 10
12.2501900394
 20
23.9660760479
  0
LINE
  5
391
100
AcDbEntity
  8
0
100
AcDbLine
 62
7
  6
CONTINUOUS
 10
12.45
 20
24.1591082985
 11
12.4412760241
 21
24.1589179352
  0
LINE
  5
392
100
AcDbEntity
  8
0
100
AcDbLine
 62
250
  6
CONTINUOUS
 10
1.3630943479
 20
23.7869395149
 11
3.7369056521
 21
23.7869395149
  0
LINE
  5
393
100
AcDbEntity
  8
0
100
AcDbLine
 62
250
  6
CONTINUOUS
 10
18.7630943479
 20
23.7869395149
 11
21.1369056521
 21
23.7869395149
  0
LINE
  5
394
100
AcDbEntity
  8
0
100
AcDbLine
 62
250
  6
CONTINUOUS
 10
14.75
 20
23.9573595649
 11
12.2501900394
 21
23.9573595649
  0
LINE
  5
395
100
AcDbEntity
  8
0
100
AcDbLine
 62
250
  6
CONTINUOUS
 10
7.75
 20
23.9573595649
 11
10.25
 21
23.9573595649
  0
LINE
  5
396
100
AcDbEntity
  8
0
100
AcDbLine
 62
250
  6
CONTINUOUS
 10
1.1130985787
 20
24.0034458658
 11
3.9869014213
 21
24.0034458658
  0
LINE
  5
397
100
AcDbEntity
  8
0
100
AcDbLine
 62
250
  6
CONTINUOUS
 10
18.5130985787
 20
24.0034458658
 11
21.3869014213
 21
24.0034458658
  0
LINE
  5
398
100
AcDbEntity
  8
0
100
AcDbLine
 62
7
  6
CONTINUOUS
 10
6.8087267447
 20
24.1503815538
 11
7.75
 21
24.1503815538
  0
LINE
  5
399
100
AcDbEntity
  8
0
100
AcDbLine
 62
7
  6
CONTINUOUS
 10
14.75
 20
24.1503815538
 11
15.6912732553
 21
24.1503815538
  0
LINE
  5
39A
100
AcDbEntity
  8
0
100
AcDbLine
 62
250
  6
CONTINUOUS
 10
14.75
 20
24.1573561803
 11
12.45
 21
24.1573561803
  0
LINE
  5
39B
100
AcDbEntity
  8
0
100
AcDbLine
 62
250
  6
CONTINUOUS
 10
10.05
 20
24.1573561803
 11
7.75
 21
24.1573561803
  0
LINE
  5
39C
100
AcDbEntity
  8
0
100
AcDbLine
 62
7
  6
CONTINUOUS
 10
6.8
 20
24.1591082985
 11
10.05
 21
24.1591082985
  0
LINE
  5
39D
100
AcDbEntity
  8
0
100
AcDbLine
 62
7
  6
CONTINUOUS
 10
12.45
 20
24.1591082985
 11
15.7
 21
24.1591082985
  0
LINE
  5
39E
100
AcDbEntity
  8
0
100
AcDbLine
 62
250
  6
CONTINUOUS
 10
1.1130985787
 20
24.3960139506
 11
3.9869014213
 21
24.3960139506
  0
LINE
  5
39F
100
AcDbEntity
  8
0
100
AcDbLine
 62
250
  6
CONTINUOUS
 10
18.5130985787
 20
24.3960139506
 11
21.3869014213
 21
24.3960139506
  0
LINE
  5
3A0
100
AcDbEntity
  8
0
100
AcDbLine
 62
250
  6
CONTINUOUS
 10
21.1369056521
 20
24.6460097198
 11
18.7630943479
 21
24.6460097198
  0
LINE
  5
3A1
100
AcDbEntity
  8
0
100
AcDbLine
 62
250
  6
CONTINUOUS
 10
3.7369056521
 20
24.6460097198
 11
1.3630943479
 21
24.6460097198
  0
LINE
  5
3A2
100
AcDbEntity
  8
0
100
AcDbLine
 62
7
  6
CONTINUOUS
 10
21.1500042308
 20
24.6591082985
 11
18.7499957692
 21
24.6591082985
  0
LINE
  5
3A3
100
AcDbEntity
  8
0
100
AcDbLine
 62
7
  6
CONTINUOUS
 10
3.7500042308
 20
24.6591082985
 11
1.3499957692
 21
24.6591082985
  0
LINE
  5
3A4
100
AcDbEntity
  8
0
100
AcDbLine
 62
7
  6
CONTINUOUS
 10
10.05
 20
24.1591082985
 11
10.0587239759
 21
24.1589179352
  0
LWPOLYLINE
  5
3A5
100
AcDbEntity
  8
0
100
AcDbPolyline
 62
250
  6
CONTINUOUS
 90
33
 70
0
 10
10.05
 20
24.1573561803
 10
10.0595163832
 20
24.1571296519
 10
10.0690112087
 20
24.1564505801
 10
10.0784629677
 20
24.1553205031
 10
10.0878502489
 20
24.1537419809
 10
10.0971517871
 20
24.1517185893
 10
10.1063465114
 20
24.1492549121
 10
10.1154135927
 20
24.1463565301
 10
10.1243324911
 20
24.1430300093
 10
10.1330830026
 20
24.1392828852
 10
10.1416453043
 20
24.1351236462
 10
10.15
 20
24.1305617145
 10
10.1581281635
 20
24.1256074241
 10
10.1660113819
 20
24.1202719983
 10
10.1736317972
 20
24.1145675233
 10
10.1809721468
 20
24.1085069218
 10
10.1880158023
 20
24.1021039229
 10
10.1947468076
 20
24.0953730315
 10
10.2011499149
 20
24.0883294952
 10
10.2072106189
 20
24.0809892699
 10
10.2129151904
 20
24.0733689835
 10
10.2182507066
 20
24.0654858985
 10
10.2232050808
 20
24.0573578726
 10
10.2277670897
 20
24.0490033183
 10
10.2319263991
 20
24.0404411615
 10
10.2356735866
 20
24.0316907981
 10
10.2390001637
 20
24.0227720505
 10
10.2418985947
 20
24.0137051227
 10
10.2443623137
 20
24.004510554
 10
10.2463857395
 20
23.9952091732
 10
10.2479642884
 20
23.9858220509
 10
10.2490943845
 20
23.9763704518
 10
10.2497734678
 20
23.966875787
  0
LWPOLYLINE
  5
3A6
100
AcDbEntity
  8
0
100
AcDbPolyline
 62
250
  6
CONTINUOUS
 90
34
 70
0
 10
3.7369056521
 20
24.6460097198
 10
3.7487811236
 20
24.6457271001
 10
3.7606348662
 20
24.6448801983
 10
3.7724400417
 20
24.6434702024
 10
3.7841715363
 20
24.6414992564
 10
3.7958009716
 20
24.6389712665
 10
3.8072969372
 20
24.6358926879
 10
3.8186317023
 20
24.6322710781
 10
3.8297813143
 20
24.6281142237
 10
3.8407207154
 20
24.6234314501
 10
3.8514252502
 20
24.6182332648
 10
3.8618705037
 20
24.6125314763
 10
3.8720325793
 20
24.6063391139
 10
3.881888364
 20
24.5996702767
 10
3.8914156254
 20
24.5925400233
 10
3.9005928387
 20
24.5849644624
 10
3.9093992303
 20
24.5769607308
 10
3.9178148165
 20
24.5685469793
 10
3.9258205107
 20
24.5597422837
 10
3.9333981672
 20
24.5505665967
 10
3.9405306182
 20
24.5410407025
 10
3.9472016983
 20
24.5311861864
 10
3.9533962906
 20
24.5210253742
 10
3.9591003559
 20
24.510581289
 10
3.9643009635
 20
24.4998776026
 10
3.9689863278
 20
24.488938569
 10
3.9731458321
 20
24.4777889727
 10
3.9767700493
 20
24.4664540802
 10
3.9798507679
 20
24.4549595691
 10
3.9823810049
 20
24.4433314898
 10
3.9843550235
 20
24.4315962101
 10
3.9857683523
 20
24.4197803278
 10
3.9866177924
 20
24.4079106095
 10
3.9869014213
 20
24.3960139506
  0
LWPOLYLINE
  5
3A7
100
AcDbEntity
  8
0
100
AcDbPolyline
 62
7
  6
CONTINUOUS
 90
34
 70
0
 10
3.7500042308
 20
24.6591082985
 10
3.761899516
 20
24.6588251483
 10
3.7737678556
 20
24.6579763327
 10
3.7855823661
 20
24.6565637727
 10
3.7973162875
 20
24.6545906662
 10
3.8089430388
 20
24.6520614802
 10
3.820436279
 20
24.6489819402
 10
3.8317699738
 20
24.6453590198
 10
3.8429184493
 20
24.6412009243
 10
3.8538564463
 20
24.6365170707
 10
3.8645591876
 20
24.6313180673
 10
3.8750024283
 20
24.6256156901
 10
3.8851625059
 20
24.6194228566
 10
3.8950164051
 20
24.612753594
 10
3.9045418038
 20
24.6056230092
 10
3.9137171191
 20
24.5980472574
 10
3.9225215661
 20
24.590043499
 10
3.9309352005
 20
24.5816298646
 10
3.9389389589
 20
24.5728254176
 10
3.9465147107
 20
24.5636501023
 10
3.9536452955
 20
24.5541247036
 10
3.9603145581
 20
24.5442708044
 10
3.9665073916
 20
24.5341107268
 10
3.9722097688
 20
24.5236674861
 10
3.9774087722
 20
24.5129647448
 10
3.9820926258
 20
24.5020267478
 10
3.9862507213
 20
24.4908782723
 10
3.9898736417
 20
24.4795445775
 10
3.9929531817
 20
24.4680513373
 10
3.9954823677
 20
24.456424586
 10
3.9974554741
 20
24.4446906646
 10
3.9988680342
 20
24.4328761541
 10
3.9997168498
 20
24.4210078145
 10
4.0
 20
24.4091125293
  0
LWPOLYLINE
  5
3A8
100
AcDbEntity
  8
0
100
AcDbPolyline
 62
250
  6
CONTINUOUS
 90
34
 70
0
 10
21.1369056521
 20
24.6460097198
 10
21.1488006736
 20
24.645726169
 10
21.1606687503
 20
24.6448769641
 10
21.1724829982
 20
24.6434640286
 10
21.1842166554
 20
24.6414905634
 10
21.1958431426
 20
24.6389610386
 10
21.2073361233
 20
24.6358811842
 10
21.2186695631
 20
24.6322579768
 10
21.2298177893
 20
24.6280996238
 10
21.2407555487
 20
24.6234155447
 10
21.2514580649
 20
24.61821635
 10
21.2619010942
 20
24.6125138172
 10
21.2720609807
 20
24.6063208636
 10
21.2819147102
 20
24.5996515178
 10
21.2914399617
 20
24.5925208872
 10
21.3006151584
 20
24.5849451245
 10
21.3094195163
 20
24.5769413902
 10
21.3178330917
 20
24.5685278148
 10
21.3258368259
 20
24.5597234569
 10
21.3334125887
 20
24.5505482602
 10
21.3405432193
 20
24.5410230087
 10
21.3472125651
 20
24.5311692793
 10
21.3534055187
 20
24.5210093927
 10
21.3591080515
 20
24.5105663634
 10
21.3643072462
 20
24.4998638472
 10
21.3689913253
 20
24.4889260878
 10
21.3731496783
 20
24.4777778616
 10
21.3767728857
 20
24.4664444218
 10
21.3798527401
 20
24.4549514412
 10
21.3823822649
 20
24.4433249539
 10
21.3843557301
 20
24.4315912967
 10
21.3857686655
 20
24.4197770488
 10
21.3866178705
 20
24.4079089721
 10
21.3869014213
 20
24.3960139506
  0
LWPOLYLINE
  5
3A9
100
AcDbEntity
  8
0
100
AcDbPolyline
 62
7
  6
CONTINUOUS
 90
34
 70
0
 10
21.1500042308
 20
24.6591082985
 10
21.161899516
 20
24.6588251483
 10
21.1737678556
 20
24.6579763327
 10
21.1855823661
 20
24.6565637727
 10
21.1973162875
 20
24.6545906662
 10
21.2089430388
 20
24.6520614802
 10
21.220436279
 20
24.6489819402
 10
21.2317699738
 20
24.6453590198
 10
21.2429184493
 20
24.6412009243
 10
21.2538564463
 20
24.6365170707
 10
21.2645591876
 20
24.6313180673
 10
21.2750024283
 20
24.6256156901
 10
21.2851625059
 20
24.6194228566
 10
21.2950164051
 20
24.612753594
 10
21.3045418038
 20
24.6056230092
 10
21.3137171191
 20
24.5980472574
 10
21.3225215661
 20
24.590043499
 10
21.3309352005
 20
24.5816298646
 10
21.3389389589
 20
24.5728254176
 10
21.3465147107
 20
24.5636501023
 10
21.3536452955
 20
24.5541247036
 10
21.3603145581
 20
24.5442708044
 10
21.3665073916
 20
24.5341107268
 10
21.3722097688
 20
24.5236674861
 10
21.3774087722
 20
24.5129647448
 10
21.3820926258
 20
24.5020267478
 10
21.3862507213
 20
24.4908782723
 10
21.3898736417
 20
24.4795445775
 10
21.3929531817
 20
24.4680513373
 10
21.3954823677
 20
24.456424586
 10
21.3974554741
 20
24.4446906646
 10
21.3988680342
 20
24.4328761541
 10
21.3997168498
 20
24.4210078145
 10
21.4
 20
24.4091125293
  0
LINE
  5
3AA
100
AcDbEntity
  8
0
100
AcDbLine
 62
7
  6
CONTINUOUS
 10
21.9183944572
 20
22.5587647637
 11
21.9375829094
 21
22.5577234796
  0
LWPOLYLINE
  5
3AB
100
AcDbEntity
  8
0
100
AcDbPolyline
 62
7
  6
CONTINUOUS
 90
35
 70
0
 10
10.0587239759
 20
24.1589179352
 10
10.0674313393
 20
24.1583472085
 10
10.0761055151
 20
24.1573972054
 10
10.084729991
 20
24.156069735
 10
10.0932883498
 20
24.154367325
 10
10.1017643002
 20
24.1522932168
 10
10.1101417076
 20
24.1498513593
 10
10.1184046251
 20
24.1470464013
 10
10.1265373238
 20
24.1438836834
 10
10.1345243226
 20
24.1403692263
 10
10.142350418
 20
24.1365097206
 10
10.1500007124
 20
24.1323125145
 10
10.1574606433
 20
24.1277855979
 10
10.1647160107
 20
24.1229375885
 10
10.1717530036
 20
24.1177777163
 10
10.1785582271
 20
24.1123158036
 10
10.1851187275
 20
24.1065622479
 10
10.1914220169
 20
24.1005280027
 10
10.1974560971
 20
24.0942245549
 10
10.2032094825
 20
24.0876639035
 10
10.2086712217
 20
24.0808585385
 10
10.2138309187
 20
24.0738214144
 10
10.2186787524
 20
24.0665659267
 10
10.2232054955
 20
24.0591058878
 10
10.2274025317
 20
24.0514554981
 10
10.2312618726
 20
24.0436293204
 10
10.2347761726
 20
24.0356422532
 10
10.2379387427
 20
24.0275094999
 10
10.2407435636
 20
24.0192465413
 10
10.2431852971
 20
24.0108691069
 10
10.2452592959
 20
24.0023931432
 10
10.2469616128
 20
23.9938347839
 10
10.2482890083
 20
23.9852103207
 10
10.249238956
 20
23.9765361704
 10
10.2498096485
 20
23.9678288434
  0
LINE
  5
3AC
100
AcDbEntity
  8
0
100
AcDbLine
 62
7
  6
CONTINUOUS
 10
21.9368209746
 20
22.5577244003
 11
21.956242785
 21
22.5559850601
  0
LINE
  5
3AD
100
AcDbEntity
  8
0
100
AcDbLine
 62
7
  6
CONTINUOUS
 10
21.9552548206
 20
22.5559872081
 11
21.9748302154
 21
22.5535436923
  0
LWPOLYLINE
  5
3AE
100
AcDbEntity
  8
0
100
AcDbPolyline
 62
7
  6
CONTINUOUS
 90
10
 70
0
 43
0.3500000006
 10
34.3965957413
 20
0.5876800003
 10
33.53945327
 20
1.4448224716
 10
32.6823085327
 20
1.6591092224
 10
31.8251660614
 20
1.6591092224
 10
31.3965948257
 20
1.2305379868
 10
31.3965948257
 20
0.5876800003
 10
31.8251660614
 20
0.1591087646
 10
32.6823085327
 20
0.1591087646
 10
33.1108797684
 20
0.5876800003
 10
33.1108797684
 20
1.5162513885
  0
LWPOLYLINE
  5
3AF
100
AcDbEntity
  8
0
100
AcDbPolyline
 62
7
  6
CONTINUOUS
 90
34
 70
0
 10
22.0467218536
 20
-22.2186953329
 10
22.0655518263
 20
-22.2128452275
 10
22.0830181623
 20
-22.206370882
 10
22.1002307852
 20
-22.1992474589
 10
22.1171736021
 20
-22.1914795926
 10
22.1338734519
 20
-22.1830539303
 10
22.1503034956
 20
-22.1739838247
 10
22.1663671227
 20
-22.164313968
 10
22.1820639186
 20
-22.1540350844
 10
22.197394298
 20
-22.1431564497
 10
22.2122628933
 20
-22.1317505832
 10
22.2266482406
 20
-22.1198299764
 10
22.240571804
 20
-22.1073821379
 10
22.2540026084
 20
-22.0944421125
 10
22.2669418311
 20
-22.0810113824
 10
22.2793882949
 20
-22.0670884654
 10
22.291307493
 20
-22.0527039603
 10
22.3027119399
 20
-22.0378365654
 10
22.3135891212
 20
-22.0225075823
 10
22.3238669865
 20
-22.0068115149
 10
22.3335365943
 20
-21.9907474325
 10
22.3426068861
 20
-21.9743162659
 10
22.3510326366
 20
-21.9576153102
 10
22.3588004354
 20
-21.9406711001
 10
22.3659236928
 20
-21.923457101
 10
22.3723974143
 20
-21.9059910044
 10
22.3782301595
 20
-21.8882502543
 10
22.3834133688
 20
-21.8702574067
 10
22.3879163686
 20
-21.8520978206
 10
22.3917345743
 20
-21.8337592414
 10
22.3948725704
 20
-21.8152539239
 10
22.3973134374
 20
-21.7967039911
 10
22.3990515353
 20
-21.7781501508
 10
22.4000925039
 20
-21.7595516953
  0
LINE
  5
3B0
100
AcDbEntity
  8
0
100
AcDbLine
 62
7
  6
CONTINUOUS
 10
22.0287444328
 20
-22.2238767099
 11
22.0478080761
 21
-22.2186794299
  0
LINE
  5
3B1
100
AcDbEntity
  8
0
100
AcDbLine
 62
7
  6
CONTINUOUS
 10
21.9933216825
 20
22.5504049845
 11
21.9737539986
 21
22.5535475858
  0
LINE
  5
3B2
100
AcDbEntity
  8
0
100
AcDbLine
 62
7
  6
CONTINUOUS
 10
22.0116466326
 20
22.5465857613
 11
21.9922605052
 21
22.5504111348
  0
LINE
  5
3B3
100
AcDbEntity
  8
0
100
AcDbLine
 62
7
  6
CONTINUOUS
 10
22.0106003305
 20
22.5465946597
 11
22.0298106129
 21
22.5420811518
  0
LINE
  5
3B4
100
AcDbEntity
  8
0
100
AcDbLine
 62
7
  6
CONTINUOUS
 10
22.0287444326
 20
22.5420933069
 11
22.0478080761
 21
22.5368960269
  0
LINE
  5
3B5
100
AcDbEntity
  8
0
100
AcDbLine
 62
7
  6
CONTINUOUS
 10
22.0467218534
 20
22.53691193
 11
22.0655518263
 21
22.5310618245
  0
LWPOLYLINE
  5
3B6
100
AcDbEntity
  8
ASSI
100
AcDbPolyline
 62
250
  6
CONTINUOUS
 90
9
 70
0
 10
21.8828214009
 20
-21.7596261799
 10
21.9005932272
 20
-21.7409110643
 10
21.9335191358
 20
-21.7003052275
 10
21.9620197811
 20
-21.6564786702
 10
21.9857832239
 20
-21.6099111584
 10
22.0045493816
 20
-21.561112449
 10
22.0181128695
 20
-21.510616724
 10
22.0263252522
 20
-21.4589767448
 10
22.0290966731
 20
-21.4067577868
  0
LINE
  5
3B7
100
AcDbEntity
  8
0
100
AcDbLine
 62
250
  6
CONTINUOUS
 10
18.5130985787
 20
-24.0777973536
 11
18.5
 21
-24.0908959323
  0
LINE
  5
3B8
100
AcDbEntity
  8
0
100
AcDbLine
 62
250
  6
CONTINUOUS
 10
18.7630943479
 20
-24.3277931228
 11
18.7499957692
 21
-24.3408917015
  0
LINE
  5
3B9
100
AcDbEntity
  8
ASSI
100
AcDbLine
 62
250
  6
CONTINUOUS
 10
22.15
 20
-21.2858544599
 11
22.0290966731
 21
-21.4067577868
  0
LINE
  5
3BA
100
AcDbEntity
  8
ASSI
100
AcDbLine
 62
7
  6
CONTINUOUS
 10
21.8813332948
 20
-21.7611080402
 11
22.003866527
 21
-21.6385810538
  0
LWPOLYLINE
  5
3BB
100
AcDbEntity
  8
0
100
AcDbPolyline
 62
7
  6
CONTINUOUS
 90
33
 70
0
 10
22.0644457078
 20
22.5310818945
 10
22.0818922618
 20
22.5246121824
 10
22.0990852495
 20
22.5174938117
 10
22.1160089885
 20
22.5097312016
 10
22.1326902857
 20
22.5013110717
 10
22.1491023343
 20
22.4922467024
 10
22.1651490312
 20
22.4825823541
 10
22.1808300521
 20
22.4723087596
 10
22.1961457213
 20
22.4614351861
 10
22.2110009098
 20
22.4500336959
 10
22.2253743183
 20
22.4381166609
 10
22.239287246
 20
22.4256717093
 10
22.2527084612
 20
22.4127337865
 10
22.2656389751
 20
22.3993045787
 10
22.2780777764
 20
22.3853823999
 10
22.2899906008
 20
22.3709971376
 10
22.3013901209
 20
22.3561273619
 10
22.312263664
 20
22.3407945026
 10
22.3225389474
 20
22.3250927368
 10
22.3322070915
 20
22.3090210184
 10
22.341276976
 20
22.2925803935
 10
22.3497029566
 20
22.2758681772
 10
22.3574715976
 20
22.2589109264
 10
22.3645963347
 20
22.2416820842
 10
22.3710718318
 20
22.2241992947
 10
22.3769066355
 20
22.2064400474
 10
22.3820921993
 20
22.1884268528
 10
22.3865975464
 20
22.1702448865
 10
22.390418125
 20
22.1518817918
 10
22.3935584869
 20
22.1333499255
 10
22.3960013121
 20
22.1147715333
 10
22.3977408271
 20
22.0961873636
 10
22.3987828053
 20
22.077556668
  0
LINE
  5
3BC
100
AcDbEntity
  8
0
100
AcDbLine
 62
250
  6
CONTINUOUS
 10
18.5130985787
 20
24.3960139506
 11
18.5
 21
24.4091125293
  0
LINE
  5
3BD
100
AcDbEntity
  8
0
100
AcDbLine
 62
250
  6
CONTINUOUS
 10
18.7630943479
 20
24.6460097198
 11
18.7499957692
 21
24.6591082985
  0
LWPOLYLINE
  5
3BE
100
AcDbEntity
  8
0
100
AcDbPolyline
 62
7
  6
CONTINUOUS
 90
3
 70
0
 43
0.3500000006
 10
33.7537377548
 20
-0.6980337067
 10
33.7537377548
 20
-2.1980341644
 10
31.3965948257
 20
-1.5551773109
  0
LWPOLYLINE
  5
3BF
100
AcDbEntity
  8
0
100
AcDbPolyline
 62
7
  6
CONTINUOUS
 90
3
 70
0
 43
0.3500000006
 10
-0.4104961231
 20
36.4643541412
 10
-1.9104960852
 20
36.4643541412
 10
-1.2676389484
 20
38.8214970703
  0
LWPOLYLINE
  5
3C0
100
AcDbEntity
  8
0
100
AcDbPolyline
 62
7
  6
CONTINUOUS
 90
3
 70
0
 43
0.3500000006
 10
-2.7676388397
 20
36.4643541412
 10
-4.2676390142
 20
36.4643541412
 10
-3.6247818775
 20
38.8214970703
  0
LWPOLYLINE
  5
3C1
100
AcDbEntity
  8
0
100
AcDbPolyline
 62
7
  6
CONTINUOUS
 90
3
 70
0
 43
0.3500000006
 10
-45.9455184174
 20
37.964354599
 10
-45.088375946
 20
38.8214970703
 10
-45.088375946
 20
35.8215006866
  0
LWPOLYLINE
  5
3C2
100
AcDbEntity
  8
0
100
AcDbPolyline
 62
7
  6
CONTINUOUS
 90
19
 70
0
 10
-52.2513561738
 20
24.6286467713
 10
-52.2625515595
 20
24.6239234715
 10
-52.2736369417
 20
24.6185939431
 10
-52.28494621
 20
24.6124376007
 10
-52.2961897334
 20
24.6055340573
 10
-52.3067044981
 20
24.5983008126
 10
-52.3159893782
 20
24.5912211113
 10
-52.3244154899
 20
24.5841701419
 10
-52.3326644409
 20
24.5766211254
 10
-52.3410731765
 20
24.5681800153
 10
-52.3493195773
 20
24.5590584195
 10
-52.3572392399
 20
24.5493728913
 10
-52.3648014164
 20
24.5391072212
 10
-52.3719733673
 20
24.5282401591
 10
-52.3784603298
 20
24.5172121728
 10
-52.3840657419
 20
24.5064958928
 10
-52.3889434294
 20
24.4959874575
 10
-52.3933730778
 20
24.4851490078
 10
-52.3974596792
 20
24.473598377
  0
LWPOLYLINE
  5
3C3
100
AcDbEntity
  8
ASSI
100
AcDbPolyline
 62
250
  6
CONTINUOUS
 90
3
 70
0
 10
-59.6084147574
 20
21.9167405553
 10
-59.5271154983
 20
21.9444902095
 10
-59.4826756702
 20
21.9569787695
  0
LWPOLYLINE
  5
3C4
100
AcDbEntity
  8
0
100
AcDbPolyline
 62
7
  6
CONTINUOUS
 90
32
 70
0
 10
-49.1583486521
 20
-24.3365198675
 10
-49.1446150436
 20
-24.3360623108
 10
-49.1311828193
 20
-24.3348804512
 10
-49.1180251
 20
-24.3330085805
 10
-49.1050353102
 20
-24.3304513227
 10
-49.0922546319
 20
-24.3272255838
 10
-49.0799203967
 20
-24.3234180747
 10
-49.0682499962
 20
-24.319156919
 10
-49.0570546104
 20
-24.3144336192
 10
-49.0459692283
 20
-24.3091040908
 10
-49.0346599599
 20
-24.3029477484
 10
-49.0234164365
 20
-24.296044205
 10
-49.0129016719
 20
-24.2888109604
 10
-49.0036167917
 20
-24.281731259
 10
-48.99519068
 20
-24.2746802896
 10
-48.986941729
 20
-24.2671312731
 10
-48.9785329935
 20
-24.258690163
 10
-48.9702865926
 20
-24.2495685672
 10
-48.96236693
 20
-24.239883039
 10
-48.9548047536
 20
-24.2296173689
 10
-48.9476328026
 20
-24.2187503068
 10
-48.9411458401
 20
-24.2077223205
 10
-48.935540428
 20
-24.1970060405
 10
-48.9306627405
 20
-24.1864976052
 10
-48.9262330921
 20
-24.1756591555
 10
-48.9221464908
 20
-24.1641085247
 10
-48.9185529335
 20
-24.1520860108
 10
-48.9155125399
 20
-24.1396478172
 10
-48.9130730049
 20
-24.1268263007
 10
-48.91127887
 20
-24.1136481558
 10
-48.9101770543
 20
-24.1001932125
 10
-48.9098030853
 20
-24.0865240939
  0
LINE
  5
3C5
100
AcDbEntity
  8
0
100
AcDbLine
 62
7
  6
CONTINUOUS
 10
-49.909803085
 20
-24.3408917015
 11
-49.1583486521
 21
-24.3365198675
  0
LINE
  5
3C6
100
AcDbEntity
  8
0
100
AcDbLine
 62
250
  6
CONTINUOUS
 10
-49.909803085
 20
-24.0908959323
 11
-49.1583486521
 21
-24.0865240983
  0
LINE
  5
3C7
100
AcDbEntity
  8
0
100
AcDbLine
 62
250
  6
CONTINUOUS
 10
-49.909803085
 20
-23.8408917015
 11
-48.909803085
 21
-23.8350738717
  0
LINE
  5
3C8
100
AcDbEntity
  8
0
100
AcDbLine
 62
7
  6
CONTINUOUS
 10
-44.4068942193
 20
-23.8088767142
 11
-48.909803085
 21
-23.8350738717
  0
LINE
  5
3C9
100
AcDbEntity
  8
0
100
AcDbLine
 62
250
  6
CONTINUOUS
 10
-49.909803085
 20
-23.6408883168
 11
-48.909803085
 21
-23.635070487
  0
LINE
  5
3CA
100
AcDbEntity
  8
0
100
AcDbLine
 62
250
  6
CONTINUOUS
 10
-48.909803085
 20
-24.0865240983
 11
-49.1583486521
 21
-24.0865240983
  0
LINE
  5
3CB
100
AcDbEntity
  8
0
100
AcDbLine
 62
250
  6
CONTINUOUS
 10
-52.409803085
 20
-24.0777973536
 11
-52.1612575178
 21
-24.0777973536
  0
LINE
  5
3CC
100
AcDbEntity
  8
0
100
AcDbLine
 62
250
  6
CONTINUOUS
 10
-52.409803085
 20
-23.6852292688
 11
-52.1612575178
 21
-23.6852292688
  0
LINE
  5
3CD
100
AcDbEntity
  8
0
100
AcDbLine
 62
250
  6
CONTINUOUS
 10
-48.909803085
 20
-23.6852292688
 11
-49.1583486521
 21
-23.6852292688
  0
LINE
  5
3CE
100
AcDbEntity
  8
0
100
AcDbLine
 62
250
  6
CONTINUOUS
 10
-50.409803085
 20
-23.6391429679
 11
-50.2098030762
 21
-23.6391429679
  0
LINE
  5
3CF
100
AcDbEntity
  8
0
100
AcDbLine
 62
7
  6
CONTINUOUS
 10
-52.1612575178
 20
-24.3277931228
 11
-49.909803085
 21
-24.3408917015
  0
LINE
  5
3D0
100
AcDbEntity
  8
0
100
AcDbLine
 62
250
  6
CONTINUOUS
 10
-52.1612575178
 20
-24.0777973536
 11
-49.909803085
 21
-24.0908959323
  0
LINE
  5
3D1
100
AcDbEntity
  8
0
100
AcDbLine
 62
250
  6
CONTINUOUS
 10
-50.2109666312
 20
-23.8391395832
 11
-49.909803085
 21
-23.8408917015
  0
LINE
  5
3D2
100
AcDbEntity
  8
0
100
AcDbLine
 62
7
  6
CONTINUOUS
 10
-51.409803085
 20
-23.8321649568
 11
-50.2109666312
 21
-23.8391395832
  0
LINE
  5
3D3
100
AcDbEntity
  8
0
100
AcDbLine
 62
250
  6
CONTINUOUS
 10
-50.209803085
 20
-23.6391429679
 11
-49.909803085
 21
-23.6408883168
  0
LINE
  5
3D4
100
AcDbEntity
  8
0
100
AcDbLine
 62
7
  6
CONTINUOUS
 10
-52.1612575178
 20
-24.3277931228
 11
-52.1749911264
 21
-24.3273355661
  0
LINE
  5
3D5
100
AcDbEntity
  8
0
100
AcDbLine
 62
7
  6
CONTINUOUS
 10
-50.2109666312
 20
-23.8391395832
 11
-50.2227217652
 21
-23.8387252928
  0
LINE
  5
3D6
100
AcDbEntity
  8
0
100
AcDbLine
 62
7
  6
CONTINUOUS
 10
-52.1745343787
 20
-24.3273629486
 11
-52.1884233506
 21
-24.3261537065
  0
LINE
  5
3D7
100
AcDbEntity
  8
0
100
AcDbLine
 62
7
  6
CONTINUOUS
 10
-50.234800118
 20
-23.8375746858
 11
-50.222934821
 21
-23.8387113895
  0
LWPOLYLINE
  5
3D8
100
AcDbEntity
  8
0
100
AcDbPolyline
 62
7
  6
CONTINUOUS
 90
13
 70
0
 10
-52.1875548986
 20
-24.326252249
 10
-52.20158107
 20
-24.3242818358
 10
-52.2145708597
 20
-24.321724578
 10
-52.2273515381
 20
-24.318498839
 10
-52.2396857732
 20
-24.31469133
 10
-52.2513561738
 20
-24.3104301742
 10
-52.2625515595
 20
-24.3057068745
 10
-52.2736369417
 20
-24.3003773461
 10
-52.28494621
 20
-24.2942210036
 10
-52.2961897334
 20
-24.2873174603
 10
-52.3067044981
 20
-24.2800842156
 10
-52.3159893782
 20
-24.2730045143
 10
-52.3244154899
 20
-24.2659535449
  0
LWPOLYLINE
  5
3D9
100
AcDbEntity
  8
0
100
AcDbPolyline
 62
7
  6
CONTINUOUS
 90
13
 70
0
 10
-52.2003446236
 20
-24.3244882201
 10
-52.2129569795
 20
-24.3220813347
 10
-52.2254009401
 20
-24.3190377341
 10
-52.2375943158
 20
-24.3153863355
 10
-52.2494882104
 20
-24.3111566862
 10
-52.2611245537
 20
-24.3063448539
 10
-52.2724752173
 20
-24.3009676707
 10
-52.2835145466
 20
-24.2950425471
 10
-52.2942426551
 20
-24.2885721193
 10
-52.3046047226
 20
-24.2815925583
 10
-52.3145453028
 20
-24.2741512322
 10
-52.3240578118
 20
-24.266265878
 10
-52.3331336925
 20
-24.2579542303
  0
LWPOLYLINE
  5
3DA
100
AcDbEntity
  8
0
100
AcDbPolyline
 62
7
  6
CONTINUOUS
 90
25
 70
0
 10
-50.2454834685
 20
-23.8359345078
 10
-50.2565727146
 20
-23.8335975942
 10
-50.2674963384
 20
-23.8306409789
 10
-50.2781632626
 20
-23.8270974464
 10
-50.2885152037
 20
-23.8230027029
 10
-50.2985949146
 20
-23.818352373
 10
-50.308365522
 20
-23.8131701088
 10
-50.3177790373
 20
-23.8074913962
 10
-50.3268284366
 20
-23.801331337
 10
-50.3355206372
 20
-23.7946906996
 10
-50.343842186
 20
-23.7875798874
 10
-50.3517500504
 20
-23.780036754
 10
-50.359253815
 20
-23.7720507522
 10
-50.3663613155
 20
-23.7635998693
 10
-50.3730479261
 20
-23.7546900225
 10
-50.3792304805
 20
-23.7454178815
 10
-50.3848328985
 20
-23.7359136461
 10
-50.3898186676
 20
-23.7262887635
 10
-50.394265861
 20
-23.7164312867
 10
-50.3982353294
 20
-23.7061749692
 10
-50.4016887009
 20
-23.695533662
 10
-50.4045673397
 20
-23.6846059738
 10
-50.4068370128
 20
-23.6734596001
 10
-50.408476342
 20
-23.6621415574
 10
-50.4094696205
 20
-23.6506873186
  0
LINE
  5
3DB
100
AcDbEntity
  8
ASSI
100
AcDbLine
 62
7
  6
CONTINUOUS
 10
-52.3564675686
 20
-21.7849981246
 11
-57.3466196479
 21
-21.9156698556
  0
LINE
  5
3DC
100
AcDbEntity
  8
0
100
AcDbLine
 62
7
  6
CONTINUOUS
 10
-38.9039853536
 20
-22.176861727
 11
-49.909803085
 21
-22.2408917015
  0
LINE
  5
3DD
100
AcDbEntity
  8
0
100
AcDbLine
 62
250
  6
CONTINUOUS
 10
-49.909803085
 20
-21.7409086245
 11
-48.909803085
 21
-21.7350907947
  0
LINE
  5
3DE
100
AcDbEntity
  8
0
100
AcDbLine
 62
7
  6
CONTINUOUS
 10
-48.909803085
 20
-22.2356556659
 11
-49.909803085
 21
-22.2408917015
  0
LINE
  5
3DF
100
AcDbEntity
  8
0
100
AcDbLine
 62
7
  6
CONTINUOUS
 10
-48.909803085
 20
-21.5408917015
 11
-40.3825327625
 21
-21.5408917015
  0
LWPOLYLINE
  5
3E0
100
AcDbEntity
  8
ASSI
100
AcDbPolyline
 62
7
  6
CONTINUOUS
 90
4
 70
0
 10
-56.9735793453
 20
-21.9059014514
 10
-57.0595281708
 20
-21.9050766967
 10
-57.1451833225
 20
-21.898111082
 10
-57.1846204021
 20
-21.8928157084
  0
LWPOLYLINE
  5
3E1
100
AcDbEntity
  8
ASSI
100
AcDbPolyline
 62
250
  6
CONTINUOUS
 90
22
 70
0
 10
-56.9997383563
 20
-21.4067577868
 10
-57.0500875665
 20
-21.4062511948
 10
-57.0998395795
 20
-21.4022296094
 10
-57.1489943953
 20
-21.3946930306
 10
-57.1978205879
 20
-21.3835678706
 10
-57.2460495834
 20
-21.3689277171
 10
-57.2928756591
 20
-21.3509933342
 10
-57.338254961
 20
-21.3297133598
 10
-57.3822313433
 20
-21.305139156
 10
-57.4241306462
 20
-21.2776455728
 10
-57.4639214348
 20
-21.2471855261
 10
-57.501635144
 20
-21.2138061001
 10
-57.5366919193
 20
-21.1780233971
 10
-57.5690479543
 20
-21.1398020301
 10
-57.5987470555
 20
-21.0991773861
 10
-57.6253407878
 20
-21.0567717289
 10
-57.6487841826
 20
-21.0125353277
 10
-57.6691222085
 20
-20.9665179132
 10
-57.6860413367
 20
-20.9194909413
 10
-57.6994370578
 20
-20.8717115638
 10
-57.7094138811
 20
-20.8229226287
 10
-57.7159718069
 20
-20.7731241362
  0
LINE
  5
3E2
100
AcDbEntity
  8
0
100
AcDbLine
 62
7
  6
CONTINUOUS
 10
-51.409803085
 20
-22.1622800326
 11
-49.909803085
 21
-22.2408917015
  0
LINE
  5
3E3
100
AcDbEntity
  8
0
100
AcDbLine
 62
250
  6
CONTINUOUS
 10
-51.409803085
 20
-21.6620511805
 11
-49.909803085
 21
-21.7406628494
  0
LWPOLYLINE
  5
3E4
100
AcDbEntity
  8
ASSI
100
AcDbPolyline
 62
250
  6
CONTINUOUS
 90
3
 70
0
 10
-57.1846204021
 20
-21.8928157084
 10
-57.2301068099
 20
-21.8850431147
 10
-57.3138613319
 20
-21.8659435628
  0
LWPOLYLINE
  5
3E5
100
AcDbEntity
  8
ASSI
100
AcDbPolyline
 62
250
  6
CONTINUOUS
 90
18
 70
0
 10
-57.3138613319
 20
-21.8659435628
 10
-57.3960228103
 20
-21.8409124739
 10
-57.4761817345
 20
-21.8100758786
 10
-57.5539331937
 20
-21.773589376
 10
-57.6288748898
 20
-21.7316416452
 10
-57.7006193518
 20
-21.6844497754
 10
-57.7687991934
 20
-21.6322571533
 10
-57.8330681083
 20
-21.5753308296
 10
-57.8930978929
 20
-21.513962113
 10
-57.948583061
 20
-21.448464675
 10
-57.999240134
 20
-21.3791748221
 10
-58.0448090028
 20
-21.306449407
 10
-58.0850552371
 20
-21.2306666764
 10
-58.1197781674
 20
-21.1522094693
 10
-58.1488062138
 20
-21.0714635838
 10
-58.1719901978
 20
-20.9888357252
 10
-58.1892077352
 20
-20.9047530005
 10
-58.2003687121
 20
-20.8196450887
  0
LWPOLYLINE
  5
3E6
100
AcDbEntity
  8
0
100
AcDbPolyline
 62
7
  6
CONTINUOUS
 90
4
 70
0
 10
-51.409803085
 20
23.2817580293
 10
-51.4096216932
 20
23.2818981695
 10
-51.4090788735
 20
23.2822433781
 10
-51.4081770456
 20
23.282793655
  0
LINE
  5
3E7
100
AcDbEntity
  8
0
100
AcDbLine
 62
7
  6
CONTINUOUS
 10
-51.409803085
 20
23.2817580293
 11
-51.4096216932
 21
23.2818981695
  0
LINE
  5
3E8
100
AcDbEntity
  8
0
100
AcDbLine
 62
7
  6
CONTINUOUS
 10
-51.4096285369
 20
23.2818797608
 11
-51.409803085
 21
23.2817580293
  0
LINE
  5
3E9
100
AcDbEntity
  8
0
100
AcDbLine
 62
7
  6
CONTINUOUS
 10
-51.408186285
 20
23.2827880495
 11
-51.4090877071
 21
23.2822264329
  0
LINE
  5
3EA
100
AcDbEntity
  8
0
100
AcDbLine
 62
7
  6
CONTINUOUS
 10
-49.0242172662
 20
23.7934066229
 11
-49.034803085
 21
23.7869395149
  0
LINE
  5
3EB
100
AcDbEntity
  8
0
100
AcDbLine
 62
7
  6
CONTINUOUS
 10
-51.4081770456
 20
23.282793655
 11
-51.4053037669
 21
23.2845189064
  0
LINE
  5
3EC
100
AcDbEntity
  8
0
100
AcDbLine
 62
7
  6
CONTINUOUS
 10
-51.4069273305
 20
23.2835501381
 11
-51.4053037669
 21
23.2845189064
  0
LINE
  5
3ED
100
AcDbEntity
  8
0
100
AcDbLine
 62
7
  6
CONTINUOUS
 10
-51.4053037669
 20
23.2845189064
 11
-51.3453944542
 21
23.3195098451
  0
LINE
  5
3EE
100
AcDbEntity
  8
0
100
AcDbLine
 62
7
  6
CONTINUOUS
 10
-51.3454202352
 20
23.3194909187
 11
-51.351180393
 21
23.3161470851
  0
LINE
  5
3EF
100
AcDbEntity
  8
0
100
AcDbLine
 62
7
  6
CONTINUOUS
 10
-51.2404726535
 20
23.3803144947
 11
-51.2327958307
 21
23.3847567069
  0
LINE
  5
3F0
100
AcDbEntity
  8
0
100
AcDbLine
 62
250
  6
CONTINUOUS
 10
-49.909803085
 20
23.5695934467
 11
-49.1583486521
 21
24.0034458658
  0
LINE
  5
3F1
100
AcDbEntity
  8
0
100
AcDbLine
 62
7
  6
CONTINUOUS
 10
-49.909803085
 20
23.2817580293
 11
-49.034803085
 21
23.7869395149
  0
LINE
  5
3F2
100
AcDbEntity
  8
0
100
AcDbLine
 62
7
  6
CONTINUOUS
 10
-51.3453944542
 20
23.3195098451
 11
-51.1612575178
 21
23.4260955966
  0
LINE
  5
3F3
100
AcDbEntity
  8
ASSI
100
AcDbLine
 62
250
  6
CONTINUOUS
 10
-58.2003688358
 20
-20.8196451227
 11
-58.196128893
 21
-20.8191868703
  0
LINE
  5
3F4
100
AcDbEntity
  8
ASSI
100
AcDbLine
 62
250
  6
CONTINUOUS
 10
-58.196128893
 20
-20.8191868703
 11
-58.102611823
 21
-20.8100527264
  0
LWPOLYLINE
  5
3F5
100
AcDbEntity
  8
ASSI
100
AcDbPolyline
 62
250
  6
CONTINUOUS
 90
3
 70
0
 10
-58.102611823
 20
-20.8100527264
 10
-57.7659160127
 20
-20.7778696731
 10
-57.7159718069
 20
-20.7731241362
  0
LINE
  5
3F6
100
AcDbEntity
  8
ASSI
100
AcDbLine
 62
250
  6
CONTINUOUS
 10
-58.5715332589
 20
-20.8412110493
 11
-58.2003688394
 21
-20.8196451009
  0
LINE
  5
3F7
100
AcDbEntity
  8
ASSI
100
AcDbLine
 62
250
  6
CONTINUOUS
 10
-52.3826265796
 20
-21.2858544599
 11
-56.9997383563
 21
-21.4067577868
  0
LINE
  5
3F8
100
AcDbEntity
  8
0
100
AcDbLine
 62
7
  6
CONTINUOUS
 10
-37.909803085
 20
-20.7408917015
 11
-47.909803085
 21
-20.7408917015
  0
LINE
  5
3F9
100
AcDbEntity
  8
0
100
AcDbLine
 62
7
  6
CONTINUOUS
 10
-47.909803085
 20
-20.7408917015
 11
-49.909803085
 21
-20.7408917015
  0
LINE
  5
3FA
100
AcDbEntity
  8
0
100
AcDbLine
 62
7
  6
CONTINUOUS
 10
-38.1080577779
 20
-19.9351571047
 11
-49.909803085
 21
-19.8321648337
  0
LINE
  5
3FB
100
AcDbEntity
  8
RACCORDO
100
AcDbLine
 62
7
  6
CONTINUOUS
 10
-38.1080577779
 20
-19.6351571047
 11
-47.909803085
 21
-19.5496185693
  0
LINE
  5
3FC
100
AcDbEntity
  8
0
100
AcDbLine
 62
7
  6
CONTINUOUS
 10
-38.1080577779
 20
-19.6351571047
 11
-49.909803085
 21
-19.5321648337
  0
LINE
  5
3FD
100
AcDbEntity
  8
0
100
AcDbLine
 62
7
  6
CONTINUOUS
 10
-38.4010768817
 20
-21.4243221997
 11
-47.909803085
 21
-21.2583467664
  0
LINE
  5
3FE
100
AcDbEntity
  8
0
100
AcDbLine
 62
250
  6
CONTINUOUS
 10
-49.909803085
 20
-23.2513768497
 11
-49.1583486521
 21
-23.6852292688
  0
LINE
  5
3FF
100
AcDbEntity
  8
0
100
AcDbLine
 62
7
  6
CONTINUOUS
 10
-49.034803085
 20
-23.4687229178
 11
-49.909803085
 21
-22.9635414323
  0
LINE
  5
400
100
AcDbEntity
  8
0
100
AcDbLine
 62
7
  6
CONTINUOUS
 10
-51.1612575178
 20
-23.1078789996
 11
-51.3720085728
 21
-22.9858070852
  0
LINE
  5
401
100
AcDbEntity
  8
0
100
AcDbLine
 62
7
  6
CONTINUOUS
 10
-51.3670947685
 20
-22.9886675442
 11
-51.3720085728
 21
-22.9858070852
  0
LWPOLYLINE
  5
402
100
AcDbEntity
  8
0
100
AcDbPolyline
 62
7
  6
CONTINUOUS
 90
7
 70
0
 10
-51.3720085728
 20
-22.9858070852
 10
-51.4053202652
 20
-22.9662886996
 10
-51.4069273305
 20
-22.965333541
 10
-51.408186285
 20
-22.9645714525
 10
-51.4090877071
 20
-22.9640098359
 10
-51.4096285369
 20
-22.9636631638
 10
-51.409803085
 20
-22.9635414323
  0
LINE
  5
403
100
AcDbEntity
  8
0
100
AcDbLine
 62
7
  6
CONTINUOUS
 10
-51.4090788735
 20
-22.9640267811
 11
-51.4081770456
 21
-22.964577058
  0
LWPOLYLINE
  5
404
100
AcDbEntity
  8
0
100
AcDbPolyline
 62
7
  6
CONTINUOUS
 90
15
 70
0
 10
-49.034803085
 20
-23.4687229178
 10
-49.0232262229
 20
-23.4758330965
 10
-49.0122548038
 20
-23.4834137532
 10
-49.0018500534
 20
-23.4914488781
 10
-48.9919223054
 20
-23.4999833677
 10
-48.9824875643
 20
-23.50899305
 10
-48.9737049512
 20
-23.5182936989
 10
-48.9657053963
 20
-23.5276663139
 10
-48.9583551766
 20
-23.5371794844
 10
-48.9514111951
 20
-23.5471248871
 10
-48.9446840368
 20
-23.5578566116
 10
-48.9383281481
 20
-23.5692601121
 10
-48.932711324
 20
-23.580685828
 10
-48.928063193
 20
-23.5914389849
 10
-48.9241892005
 20
-23.6016464209
  0
LINE
  5
405
100
AcDbEntity
  8
0
100
AcDbLine
 62
7
  6
CONTINUOUS
 10
-51.4096285369
 20
-22.9636631638
 11
-51.409803085
 21
-22.9635414323
  0
LINE
  5
406
100
AcDbEntity
  8
0
100
AcDbLine
 62
7
  6
CONTINUOUS
 10
-49.0139791121
 20
23.8003809315
 11
-49.0246911168
 21
23.793101496
  0
LINE
  5
407
100
AcDbEntity
  8
0
100
AcDbLine
 62
7
  6
CONTINUOUS
 10
-48.909803085
 20
-18.7095208516
 11
-47.909803085
 21
-18.6920657867
  0
LINE
  5
408
100
AcDbEntity
  8
RACCORDO
100
AcDbLine
 62
250
  6
CONTINUOUS
 10
-38.1063126037
 20
-18.857548959
 11
-37.909803085
 21
-18.857548959
  0
LINE
  5
409
100
AcDbEntity
  8
0
100
AcDbLine
 62
250
  6
CONTINUOUS
 10
-38.1063126037
 20
-18.857548959
 11
-37.909803085
 21
-18.857548959
  0
LINE
  5
40A
100
AcDbEntity
  8
0
100
AcDbLine
 62
7
  6
CONTINUOUS
 10
-48.909803085
 20
-18.7095208516
 11
-49.909803085
 21
-18.7095208516
  0
LINE
  5
40B
100
AcDbEntity
  8
0
100
AcDbLine
 62
7
  6
CONTINUOUS
 10
-48.909803085
 20
-18.3491822259
 11
-47.909803085
 21
-18.3579090937
  0
LWPOLYLINE
  5
40C
100
AcDbEntity
  8
0
100
AcDbPolyline
 62
250
  6
CONTINUOUS
 90
8
 70
0
 10
-54.1150388069
 20
-17.1936716363
 10
-54.1715772004
 20
-17.185458683
 10
-54.2259520977
 20
-17.1627318081
 10
-54.2745542391
 20
-17.126634566
 10
-54.314410368
 20
-17.0797835679
 10
-54.3447995085
 20
-17.0230263228
 10
-54.3635090233
 20
-16.9598422537
 10
-54.3696107062
 20
-16.8937173448
  0
LWPOLYLINE
  5
40D
100
AcDbEntity
  8
0
100
AcDbPolyline
 62
7
  6
CONTINUOUS
 90
15
 70
0
 10
-49.0242395933
 20
-23.4751756124
 10
-49.0131929401
 20
-23.4827312077
 10
-49.0031055537
 20
-23.4904322367
 10
-48.9934271209
 20
-23.4986306659
 10
-48.984173197
 20
-23.5073131588
 10
-48.9754298098
 20
-23.5163906019
 10
-48.9672035465
 20
-23.5258384982
 10
-48.9594723241
 20
-23.5356713
 10
-48.9522813438
 20
-23.5458207793
 10
-48.9456506401
 20
-23.5562380668
 10
-48.9395627281
 20
-23.5669322481
 10
-48.934014164
 20
-23.5779009726
 10
-48.9290158482
 20
-23.589118649
 10
-48.9245769981
 20
-23.600561164
 10
-48.9207015584
 20
-23.6122192696
  0
LWPOLYLINE
  5
40E
100
AcDbEntity
  8
0
100
AcDbPolyline
 62
7
  6
CONTINUOUS
 90
20
 70
0
 10
-49.014132736
 20
-23.4820541013
 10
-49.0044545716
 20
-23.4893547186
 10
-48.9951577581
 20
-23.4971018749
 10
-48.986234626
 20
-23.5053015337
 10
-48.977758863
 20
-23.5138819572
 10
-48.9697693582
 20
-23.5227879483
 10
-48.962223594
 20
-23.532055039
 10
-48.9551548719
 20
-23.541635715
 10
-48.9485967569
 20
-23.5514687113
 10
-48.942539256
 20
-23.5615505374
 10
-48.936973695
 20
-23.5718843845
 10
-48.9319018189
 20
-23.5824624806
 10
-48.9273368831
 20
-23.593253919
 10
-48.9232824815
 20
-23.6042477647
 10
-48.9197438856
 20
-23.615432559
 10
-48.9167345579
 20
-23.626768247
 10
-48.9142580226
 20
-23.6382439279
 10
-48.9123178304
 20
-23.6498591012
 10
-48.9109235826
 20
-23.6615862633
 10
-48.9100837391
 20
-23.6733867117
  0
LINE
  5
40F
100
AcDbEntity
  8
0
100
AcDbLine
 62
7
  6
CONTINUOUS
 10
-51.409803085
 20
-22.9635414323
 11
-51.4096216932
 21
-22.9636815725
  0
LINE
  5
410
100
AcDbEntity
  8
0
100
AcDbLine
 62
7
  6
CONTINUOUS
 10
-52.3326644409
 20
-24.2584045284
 11
-52.3417440693
 21
-24.2492542807
  0
LWPOLYLINE
  5
411
100
AcDbEntity
  8
0
100
AcDbPolyline
 62
7
  6
CONTINUOUS
 90
3
 70
0
 10
-52.3410731765
 20
-24.2499634183
 10
-52.3498382424
 20
-24.2402369999
 10
-52.3574961706
 20
-24.2308249453
  0
LWPOLYLINE
  5
412
100
AcDbEntity
  8
0
100
AcDbPolyline
 62
7
  6
CONTINUOUS
 90
3
 70
0
 10
-52.3493195773
 20
-24.2408418225
 10
-52.3572392399
 20
-24.2311562943
 10
-52.3648014164
 20
-24.2208906242
  0
LWPOLYLINE
  5
413
100
AcDbEntity
  8
ASSI
100
AcDbPolyline
 62
250
  6
CONTINUOUS
 90
11
 70
0
 10
-59.2741736039
 20
21.9920487048
 10
-59.2753217272
 20
21.9892132179
 10
-59.2760278502
 20
21.980952312
 10
-59.2762842433
 20
21.9673564164
 10
-59.2760880998
 20
21.9485743607
 10
-59.2754415669
 20
21.9248117457
 10
-59.2743517213
 20
21.8963286928
 10
-59.2728304934
 20
21.8634369964
 10
-59.2708945354
 20
21.8264967106
 10
-59.2685650396
 20
21.7859122083
 10
-59.2628314644
 20
21.6956226421
  0
LINE
  5
414
100
AcDbEntity
  8
0
100
AcDbLine
 62
7
  6
CONTINUOUS
 10
-50.1167829843
 20
-16.0957384446
 11
-51.409803085
 21
-16.1408917015
  0
LINE
  5
415
100
AcDbEntity
  8
0
100
AcDbLine
 62
250
  6
CONTINUOUS
 10
-54.3696107061
 20
-16.5880660752
 11
-51.409803085
 21
-16.536402441
  0
LINE
  5
416
100
AcDbEntity
  8
0
100
AcDbLine
 62
250
  6
CONTINUOUS
 10
-54.1150388069
 20
-16.2881117667
 11
-51.409803085
 21
-16.2408917015
  0
LINE
  5
417
100
AcDbEntity
  8
0
100
AcDbLine
 62
250
  6
CONTINUOUS
 10
-51.409803085
 20
-15.9409373929
 11
-54.1150388069
 21
-15.9881574581
  0
LINE
  5
418
100
AcDbEntity
  8
0
100
AcDbLine
 62
250
  6
CONTINUOUS
 10
-54.409803085
 20
-16.8937173278
 11
-54.3696107039
 21
-16.8937173278
  0
LINE
  5
419
100
AcDbEntity
  8
0
100
AcDbLine
 62
250
  6
CONTINUOUS
 10
-54.409803085
 20
-16.1938239412
 11
-54.1150387999
 21
-16.1938239412
  0
LINE
  5
41A
100
AcDbEntity
  8
0
100
AcDbLine
 62
250
  6
CONTINUOUS
 10
-54.409803085
 20
-15.9881574581
 11
-54.1150387999
 21
-15.9881574581
  0
LINE
  5
41B
100
AcDbEntity
  8
0
100
AcDbLine
 62
250
  6
CONTINUOUS
 10
-54.1150388069
 20
-17.1936716363
 11
-51.409803085
 21
-17.2408917015
  0
LINE
  5
41C
100
AcDbEntity
  8
RACCORDO
100
AcDbLine
 62
7
  6
CONTINUOUS
 10
-51.409803085
 20
-17.2408917015
 11
-52.5956989303
 21
-17.2201918125
  0
LINE
  5
41D
100
AcDbEntity
  8
0
100
AcDbLine
 62
250
  6
CONTINUOUS
 10
-54.3696107061
 20
-16.8937173278
 11
-51.409803085
 21
-16.945380962
  0
LINE
  5
41E
100
AcDbEntity
  8
RACCORDO
100
AcDbLine
 62
250
  6
CONTINUOUS
 10
-51.4290786263
 20
-16.2407075505
 11
-52.6481467058
 21
-16.219428638
  0
LINE
  5
41F
100
AcDbEntity
  8
0
100
AcDbLine
 62
250
  6
CONTINUOUS
 10
-51.4290786263
 20
-16.2407075505
 11
-54.1150388069
 21
-16.1938239412
  0
LINE
  5
420
100
AcDbEntity
  8
0
100
AcDbLine
 62
7
  6
CONTINUOUS
 10
-52.3647883595
 20
-24.2209093277
 11
-52.3719733673
 21
-24.2100235621
  0
LWPOLYLINE
  5
421
100
AcDbEntity
  8
ASSI
100
AcDbPolyline
 62
250
  6
CONTINUOUS
 90
9
 70
0
 10
-56.9735793453
 20
-21.9059014514
 10
-56.9750175924
 20
-21.9032014357
 10
-56.9765833718
 20
-21.8950593885
 10
-56.9782595425
 20
-21.8815644623
 10
-56.980027756
 20
-21.8628643992
 10
-56.9818686548
 20
-21.8391639307
 10
-56.9837620844
 20
-21.8107225525
 10
-56.985687317
 20
-21.7778516458
 10
-56.9876232779
 20
-21.7409110643
  0
LWPOLYLINE
  5
422
100
AcDbEntity
  8
0
100
AcDbPolyline
 62
250
  6
CONTINUOUS
 90
3
 70
0
 10
-52.2815492132
 20
23.793168222
 10
-52.2827585686
 20
23.7909566034
 10
-52.2836904208
 20
23.7892245605
  0
LINE
  5
423
100
AcDbEntity
  8
0
100
AcDbLine
 62
250
  6
CONTINUOUS
 10
-52.2783095305
 20
23.7990091494
 11
-52.2815492132
 21
23.793168222
  0
LINE
  5
424
100
AcDbEntity
  8
0
100
AcDbLine
 62
250
  6
CONTINUOUS
 10
-52.2714569544
 20
23.8112080639
 11
-52.2818289647
 21
23.7926589584
  0
LINE
  5
425
100
AcDbEntity
  8
0
100
AcDbLine
 62
250
  6
CONTINUOUS
 10
-52.2333770395
 20
23.8780615081
 11
-52.2727865949
 21
23.8088504233
  0
LINE
  5
426
100
AcDbEntity
  8
0
100
AcDbLine
 62
250
  6
CONTINUOUS
 10
-52.1612575178
 20
24.0034458658
 11
-52.2385840876
 21
23.8689628575
  0
LWPOLYLINE
  5
427
100
AcDbEntity
  8
0
100
AcDbPolyline
 62
250
  6
CONTINUOUS
 90
5
 70
0
 10
-54.1150388154
 20
16.6063278787
 10
-54.1152423168
 20
16.6060956048
 10
-54.1154378275
 20
16.6053882536
 10
-54.1156249468
 20
16.6042026389
 10
-54.1158033231
 20
16.6025366309
  0
LINE
  5
428
100
AcDbEntity
  8
RACCORDO
100
AcDbLine
 62
7
  6
CONTINUOUS
 10
-47.909803085
 20
15.1194059558
 11
-38.0413990558
 21
18.7112112822
  0
LINE
  5
429
100
AcDbEntity
  8
0
100
AcDbLine
 62
7
  6
CONTINUOUS
 10
-47.909803085
 20
15.1194059558
 11
-38.0413990558
 21
18.7112112822
  0
LINE
  5
42A
100
AcDbEntity
  8
RACCORDO
100
AcDbLine
 62
250
  6
CONTINUOUS
 10
-47.909803085
 20
15.7886301175
 11
-38.1063126037
 21
19.175765556
  0
LINE
  5
42B
100
AcDbEntity
  8
0
100
AcDbLine
 62
250
  6
CONTINUOUS
 10
-48.0105932509
 20
15.7538068121
 11
-38.1063126037
 21
19.175765556
  0
LWPOLYLINE
  5
42C
100
AcDbEntity
  8
0
100
AcDbPolyline
 62
7
  6
CONTINUOUS
 90
7
 70
0
 10
-51.22081793
 20
-14.7532354052
 10
-51.2298101845
 20
-14.7556092733
 10
-51.2389987027
 20
-14.7576712751
 10
-51.2483608368
 20
-14.759415578
 10
-51.2578735717
 20
-14.7608395666
 10
-51.2675134875
 20
-14.7619390771
 10
-51.2772568452
 20
-14.7627106046
  0
LWPOLYLINE
  5
42D
100
AcDbEntity
  8
0
100
AcDbPolyline
 62
7
  6
CONTINUOUS
 90
6
 70
0
 10
-54.191655259
 20
-16.2994478915
 10
-54.1766081313
 20
-16.2955984162
 10
-54.161381938
 20
-16.2925328677
 10
-54.146017489
 20
-16.2902594628
 10
-54.1305559666
 20
-16.2887842957
 10
-54.1150388147
 20
-16.2881113212
  0
LWPOLYLINE
  5
42E
100
AcDbEntity
  8
0
100
AcDbPolyline
 62
7
  6
CONTINUOUS
 90
5
 70
0
 10
-51.2772568699
 20
-14.7627108832
 10
-51.2870797214
 20
-14.7631540158
 10
-51.2969579052
 20
-14.7632676231
 10
-51.306867115
 20
-14.7630499792
 10
-51.3167829843
 20
-14.7625008949
  0
LINE
  5
42F
100
AcDbEntity
  8
0
100
AcDbLine
 62
250
  6
CONTINUOUS
 10
-48.0105932509
 20
-15.4355902151
 11
-49.909803085
 21
-15.4687460959
  0
LINE
  5
430
100
AcDbEntity
  8
0
100
AcDbLine
 62
7
  6
CONTINUOUS
 10
-51.409803085
 20
-15.3408917015
 11
-52.709803085
 21
-15.3408917015
  0
LINE
  5
431
100
AcDbEntity
  8
0
100
AcDbLine
 62
7
  6
CONTINUOUS
 10
-47.909803085
 20
-14.8011893588
 11
-49.909803085
 21
-14.8011893588
  0
LINE
  5
432
100
AcDbEntity
  8
0
100
AcDbLine
 62
250
  6
CONTINUOUS
 10
-51.409803085
 20
-13.6408418082
 11
-49.909803085
 21
-13.6408917015
  0
LINE
  5
433
100
AcDbEntity
  8
0
100
AcDbLine
 62
250
  6
CONTINUOUS
 10
-51.1337484458
 20
-13.5908917015
 11
-52.909803085
 21
-13.5908917016
  0
LINE
  5
434
100
AcDbEntity
  8
0
100
AcDbLine
 62
7
  6
CONTINUOUS
 10
-51.409803085
 20
-15.3408917015
 11
-51.3167829843
 21
-15.344140035
  0
LWPOLYLINE
  5
435
100
AcDbEntity
  8
0
100
AcDbPolyline
 62
250
  6
CONTINUOUS
 90
3
 70
0
 10
-50.9457759456
 20
-13.6232901082
 10
-50.9338511388
 20
-13.6251552273
 10
-50.9298069958
 20
-13.625621337
  0
LINE
  5
436
100
AcDbEntity
  8
0
100
AcDbLine
 62
250
  6
CONTINUOUS
 10
-50.9905194758
 20
-13.615804464
 11
-50.9457759456
 21
-13.6232901082
  0
LWPOLYLINE
  5
437
100
AcDbEntity
  8
0
100
AcDbPolyline
 62
250
  6
CONTINUOUS
 90
3
 70
0
 10
-51.1337484458
 20
-13.5908917015
 10
-51.0947042753
 20
-13.5977603269
 10
-50.9905194758
 20
-13.615804464
  0
LINE
  5
438
100
AcDbEntity
  8
RACCORDO
100
AcDbLine
 62
250
  6
CONTINUOUS
 10
-38.1063126037
 20
-18.857548959
 11
-47.909803085
 21
-15.4704135205
  0
LINE
  5
439
100
AcDbEntity
  8
0
100
AcDbLine
 62
250
  6
CONTINUOUS
 10
-38.1063126037
 20
-18.857548959
 11
-48.0105932509
 21
-15.4355902151
  0
LINE
  5
43A
100
AcDbEntity
  8
0
100
AcDbLine
 62
7
  6
CONTINUOUS
 10
-52.3716705805
 20
-24.2105081834
 11
-52.3784603298
 21
-24.1989955758
  0
LINE
  5
43B
100
AcDbEntity
  8
0
100
AcDbLine
 62
250
  6
CONTINUOUS
 10
-52.1612575178
 20
-23.6852292688
 11
-52.2656213876
 21
-23.5033062668
  0
LINE
  5
43C
100
AcDbEntity
  8
0
100
AcDbLine
 62
250
  6
CONTINUOUS
 10
-52.2581287987
 20
-23.516496936
 11
-52.2762876662
 21
-23.484406625
  0
LWPOLYLINE
  5
43D
100
AcDbEntity
  8
0
100
AcDbPolyline
 62
250
  6
CONTINUOUS
 90
3
 70
0
 10
-52.2727865949
 20
-23.4906338263
 10
-52.2818289647
 20
-23.4744423614
 10
-52.284803085
 20
-23.4687229179
  0
LWPOLYLINE
  5
43E
100
AcDbEntity
  8
0
100
AcDbPolyline
 62
250
  6
CONTINUOUS
 90
4
 70
0
 10
-52.2800659995
 20
-23.4776361772
 10
-52.2815500293
 20
-23.474950141
 10
-52.2827592611
 20
-23.472738731
 10
-52.2836909071
 20
-23.4710070484
  0
LINE
  5
43F
100
AcDbEntity
  8
0
100
AcDbLine
 62
7
  6
CONTINUOUS
 10
-52.3780622129
 20
-24.1997110641
 11
-52.3840657419
 21
-24.1882792957
  0
LWPOLYLINE
  5
440
100
AcDbEntity
  8
0
100
AcDbPolyline
 62
7
  6
CONTINUOUS
 90
3
 70
0
 43
0.3500000006
 10
-48.2952290955
 20
46.1072148743
 10
-48.3666557465
 20
45.8929258575
 10
-48.5095135803
 20
45.6072147217
  0
LWPOLYLINE
  5
441
100
AcDbEntity
  8
0
100
AcDbPolyline
 62
250
  6
CONTINUOUS
 90
3
 70
0
 10
-52.2843426666
 20
23.7879760024
 10
-52.2847138339
 20
23.7872137471
 10
-52.284803085
 20
23.7869395149
  0
LINE
  5
442
100
AcDbEntity
  8
0
100
AcDbLine
 62
250
  6
CONTINUOUS
 10
-52.2818289647
 20
23.7926589584
 11
-52.284803085
 21
23.7869395149
  0
LINE
  5
443
100
AcDbEntity
  8
0
100
AcDbLine
 62
250
  6
CONTINUOUS
 10
-52.0452153189
 20
-13.0408917015
 11
-52.909803085
 21
-13.0408917015
  0
LINE
  5
444
100
AcDbEntity
  8
0
100
AcDbLine
 62
250
  6
CONTINUOUS
 10
-52.709803085
 20
-12.8408917015
 11
-52.2130352452
 21
-12.8408917015
  0
LINE
  5
445
100
AcDbEntity
  8
0
100
AcDbLine
 62
7
  6
CONTINUOUS
 10
-49.909803085
 20
-11.8408917015
 11
-49.709803085
 21
-11.8408917015
  0
LINE
  5
446
100
AcDbEntity
  8
RACCORDO
100
AcDbLine
 62
7
  6
CONTINUOUS
 10
-38.0413990558
 20
-18.3929946852
 11
-47.909803085
 21
-14.8011893588
  0
LINE
  5
447
100
AcDbEntity
  8
0
100
AcDbLine
 62
7
  6
CONTINUOUS
 10
-38.0413990558
 20
-18.3929946852
 11
-47.909803085
 21
-14.8011893588
  0
LWPOLYLINE
  5
448
100
AcDbEntity
  8
0
100
AcDbPolyline
 62
250
  6
CONTINUOUS
 90
3
 70
0
 10
-52.2843429137
 20
-23.4697589198
 10
-52.2847138979
 20
-23.4689970058
 10
-52.284803085
 20
-23.4687229178
  0
LINE
  5
449
100
AcDbEntity
  8
0
100
AcDbLine
 62
7
  6
CONTINUOUS
 10
-52.3839009475
 20
-24.1886131823
 11
-52.3891623472
 21
-24.1772675941
  0
LWPOLYLINE
  5
44A
100
AcDbEntity
  8
0
100
AcDbPolyline
 62
7
  6
CONTINUOUS
 90
7
 70
0
 10
-52.3889434294
 20
-24.1777708605
 10
-52.3938561909
 20
-24.1656560101
 10
-52.3979847217
 20
-24.1537546302
 10
-52.4015190357
 20
-24.14162054
 10
-52.4044471263
 20
-24.129268636
 10
-52.4067620781
 20
-24.1166722257
 10
-52.4084410468
 20
-24.1038580999
  0
LWPOLYLINE
  5
44B
100
AcDbEntity
  8
ASSI
100
AcDbPolyline
 62
250
  6
CONTINUOUS
 90
10
 70
0
 10
-58.2003688394
 20
-20.8196451009
 10
-58.6162273529
 20
-16.2082517954
 10
-58.9887712461
 20
-11.5930699451
 10
-59.3179516371
 20
-6.9745063255
 10
-59.6037295515
 20
-2.3529128119
 10
-59.846071464
 20
2.2712461976
 10
-60.0449471603
 20
6.8973942271
 10
-60.200341435
 20
11.5250659182
 10
-60.312256263
 20
16.1539072494
 10
-60.3806977345
 20
20.7835085641
  0
LWPOLYLINE
  5
44C
100
AcDbEntity
  8
ASSI
100
AcDbPolyline
 62
250
  6
CONTINUOUS
 90
10
 70
0
 10
-57.7159718069
 20
-20.7731241362
 10
-58.1315491645
 20
-16.165736314
 10
-58.5037538647
 20
-11.5553729697
 10
-58.8325859074
 20
-6.9420341031
 10
-59.1180697649
 20
-2.3252527018
 10
-59.360180965
 20
2.2945042217
 10
-59.5588460907
 20
6.9158356294
 10
-59.7140406696
 20
11.5382745086
 10
-59.8257891742
 20
16.1622878719
 10
-59.8940916044
 20
20.7878757195
  0
LWPOLYLINE
  5
44D
100
AcDbEntity
  8
ASSI
100
AcDbPolyline
 62
7
  6
CONTINUOUS
 90
13
 70
0
 10
-60.7520831321
 20
20.7661593488
 10
-60.7366547613
 20
17.3536446192
 10
-60.6908293364
 20
13.8674691209
 10
-60.6146218139
 20
10.3818254984
 10
-60.5080350851
 20
6.8969785994
 10
-60.3710745663
 20
3.4131931931
 10
-60.2037528563
 20
-0.0692661193
 10
-60.0060838241
 20
-3.550134716
 10
-59.7780813386
 20
-7.0291479753
 10
-59.5197605379
 20
-10.506041429
 10
-59.2311437252
 20
-13.9805511937
 10
-58.9122557108
 20
-17.4524135705
 10
-58.5715332366
 20
-20.8412112614
  0
LWPOLYLINE
  5
44E
100
AcDbEntity
  8
ASSI
100
AcDbPolyline
 62
250
  6
CONTINUOUS
 90
18
 70
0
 10
-60.3806977854
 20
20.7835085635
 10
-60.3784941484
 20
20.8693168856
 10
-60.3701599681
 20
20.9547387193
 10
-60.3557399511
 20
21.0393373198
 10
-60.3353111666
 20
21.1226751273
 10
-60.3089794636
 20
21.2043320712
 10
-60.2768751548
 20
21.2839065322
 10
-60.239157793
 20
21.3609967933
 10
-60.1960209865
 20
21.4352021749
 10
-60.1476861185
 20
21.5061405901
 10
-60.094399961
 20
21.5734479434
 10
-60.0364335392
 20
21.6367803494
 10
-59.9740828086
 20
21.6958137888
 10
-59.9076642639
 20
21.7502464748
 10
-59.8375178381
 20
21.7997979519
 10
-59.7640061878
 20
21.8442118181
 10
-59.6875096849
 20
21.8832583764
 10
-59.6084147574
 20
21.9167405553
  0
LWPOLYLINE
  5
44F
100
AcDbEntity
  8
ASSI
100
AcDbPolyline
 62
250
  6
CONTINUOUS
 90
22
 70
0
 10
-59.8940916044
 20
20.7878757195
 10
-59.8927750035
 20
20.8380869
 10
-59.8879526965
 20
20.8876514258
 10
-59.8796246835
 20
20.9365692967
 10
-59.8677139037
 20
20.9851071802
 10
-59.8522974178
 20
21.032998409
 10
-59.833606408
 20
21.0794429805
 10
-59.8115909571
 20
21.1243961371
 10
-59.7863009823
 20
21.1679026364
 10
-59.7581174177
 20
21.2092967495
 10
-59.7269929978
 20
21.248547862
 10
-59.6929749882
 20
21.2856865882
 10
-59.6565861194
 20
21.3201390416
 10
-59.617790207
 20
21.351861682
 10
-59.5766234354
 20
21.3808980495
 10
-59.5337170888
 20
21.4068048788
 10
-59.4890221843
 20
21.4295356731
 10
-59.4425877048
 20
21.4491369292
 10
-59.3951918826
 20
21.4653048715
 10
-59.3470941286
 20
21.4779382415
 10
-59.298035032
 20
21.4871382977
 10
-59.2480145928
 20
21.4929050401
  0
LWPOLYLINE
  5
450
100
AcDbEntity
  8
0
100
AcDbPolyline
 62
7
  6
CONTINUOUS
 90
7
 70
0
 10
-54.3923022163
 20
16.8529387035
 10
-54.3936531091
 20
16.8489432157
 10
-54.3949517882
 20
16.844934825
 10
-54.3961980242
 20
16.8409140794
 10
-54.3973916022
 20
16.8368815325
 10
-54.3985323222
 20
16.8328377431
 10
-54.3996199987
 20
16.8287832752
  0
LWPOLYLINE
  5
451
100
AcDbEntity
  8
0
100
AcDbPolyline
 62
7
  6
CONTINUOUS
 90
10
 70
0
 10
-54.3923022116
 20
16.8529402818
 10
-54.3902341843
 20
16.8587755772
 10
-54.3880540369
 20
16.8646382291
 10
-54.3857610278
 20
16.8705259638
 10
-54.383353807
 20
16.8764352212
 10
-54.380832399
 20
16.8823649296
 10
-54.3781979867
 20
16.8883165293
 10
-54.3754503685
 20
16.8942889214
 10
-54.372588176
 20
16.9002784458
 10
-54.3696107061
 20
16.9062826722
  0
LINE
  5
452
100
AcDbEntity
  8
0
100
AcDbLine
 62
7
  6
CONTINUOUS
 10
-49.909803085
 20
-11.4308707015
 11
-49.709803085
 21
-11.4308707015
  0
LINE
  5
453
100
AcDbEntity
  8
0
100
AcDbLine
 62
7
  6
CONTINUOUS
 10
-49.909803085
 20
-11.1826777015
 11
-49.709803085
 21
-11.1826777015
  0
LINE
  5
454
100
AcDbEntity
  8
0
100
AcDbLine
 62
7
  6
CONTINUOUS
 10
-49.909803085
 20
-10.9776567015
 11
-49.709803085
 21
-10.9776567015
  0
LINE
  5
455
100
AcDbEntity
  8
0
100
AcDbLine
 62
7
  6
CONTINUOUS
 10
-49.909803085
 20
-10.7726467015
 11
-49.709803085
 21
-10.7726467015
  0
LINE
  5
456
100
AcDbEntity
  8
0
100
AcDbLine
 62
7
  6
CONTINUOUS
 10
-49.909803085
 20
-10.5244487015
 11
-49.709803085
 21
-10.5244487015
  0
LINE
  5
457
100
AcDbEntity
  8
0
100
AcDbLine
 62
7
  6
CONTINUOUS
 10
-49.909803085
 20
-10.1144277015
 11
-49.709803085
 21
-10.1144277015
  0
LINE
  5
458
100
AcDbEntity
  8
0
100
AcDbLine
 62
7
  6
CONTINUOUS
 10
-49.909803085
 20
-9.8410907015
 11
-49.709803085
 21
-9.8410907015
  0
LINE
  5
459
100
AcDbEntity
  8
0
100
AcDbLine
 62
7
  6
CONTINUOUS
 10
-52.0452153189
 20
-13.0408917015
 11
-52.2130352452
 21
-12.8408917015
  0
LWPOLYLINE
  5
45A
100
AcDbEntity
  8
0
100
AcDbPolyline
 62
7
  6
CONTINUOUS
 90
10
 70
0
 10
-54.3923022116
 20
-16.5347236848
 10
-54.3902341843
 20
-16.5405589802
 10
-54.3880540369
 20
-16.546421632
 10
-54.3857610278
 20
-16.5523093668
 10
-54.383353807
 20
-16.5582186242
 10
-54.380832399
 20
-16.5641483326
 10
-54.3781979867
 20
-16.5700999323
 10
-54.3754503685
 20
-16.5760723244
 10
-54.372588176
 20
-16.5820618487
 10
-54.3696107061
 20
-16.5880660752
  0
LWPOLYLINE
  5
45B
100
AcDbEntity
  8
0
100
AcDbPolyline
 62
7
  6
CONTINUOUS
 90
6
 70
0
 10
-52.3933730778
 20
-24.1669324108
 10
-52.3974596792
 20
-24.15538178
 10
-52.4010532364
 20
-24.1433592661
 10
-52.4040936301
 20
-24.1309210725
 10
-52.4065331651
 20
-24.1180995559
 10
-52.4083272999
 20
-24.104921411
  0
LWPOLYLINE
  5
45C
100
AcDbEntity
  8
0
100
AcDbPolyline
 62
7
  6
CONTINUOUS
 90
7
 70
0
 10
-54.3923022163
 20
-16.5347221065
 10
-54.3936531091
 20
-16.5307266186
 10
-54.3949517882
 20
-16.526718228
 10
-54.3961980242
 20
-16.5226974824
 10
-54.3973916022
 20
-16.5186649355
 10
-54.3985323222
 20
-16.514621146
 10
-54.3996199987
 20
-16.5105666782
  0
LWPOLYLINE
  5
45D
100
AcDbEntity
  8
0
100
AcDbPolyline
 62
7
  6
CONTINUOUS
 90
3
 70
0
 10
-57.5936560993
 20
-0.2423919918
 10
-57.58455281
 20
-0.3427435052
 10
-57.5733926948
 20
-0.4432014163
  0
LINE
  5
45E
100
AcDbEntity
  8
ASSI
100
AcDbLine
 62
250
  6
CONTINUOUS
 10
-59.2558801347
 20
21.5965109554
 11
-59.2480145928
 21
21.4929050401
  0
LINE
  5
45F
100
AcDbEntity
  8
0
100
AcDbLine
 62
7
  6
CONTINUOUS
 10
-57.6007298658
 20
-0.1419723567
 11
-57.5936558915
 21
-0.2423945721
  0
LINE
  5
460
100
AcDbEntity
  8
ASSI
100
AcDbLine
 62
250
  6
CONTINUOUS
 10
-59.2628314644
 20
21.6956226421
 11
-59.2558801347
 21
21.5965109554
  0
LINE
  5
461
100
AcDbEntity
  8
ASSI
100
AcDbLine
 62
250
  6
CONTINUOUS
 10
-56.9876232779
 20
-21.7409110643
 11
-56.9914427276
 21
-21.6564786702
  0
LINE
  5
462
100
AcDbEntity
  8
ASSI
100
AcDbLine
 62
250
  6
CONTINUOUS
 10
-56.9914427276
 20
-21.6564786702
 11
-56.9950536531
 21
-21.561112449
  0
LWPOLYLINE
  5
463
100
AcDbEntity
  8
ASSI
100
AcDbPolyline
 62
250
  6
CONTINUOUS
 90
3
 70
0
 10
-56.9950536531
 20
-21.561112449
 10
-56.9982983862
 20
-21.4589767448
 10
-56.9997383563
 20
-21.4067577868
  0
LWPOLYLINE
  5
464
100
AcDbEntity
  8
0
100
AcDbPolyline
 62
7
  6
CONTINUOUS
 90
14
 70
0
 10
-57.6058372802
 20
0.3582120818
 10
-57.6093622437
 20
0.2254718557
 10
-57.6093614274
 20
0.0926847913
 10
-57.6058348946
 20
-0.040055327
 10
-57.5987838571
 20
-0.172654855
 10
-57.5882145056
 20
-0.3050203452
 10
-57.5741343964
 20
-0.4370583052
 10
-57.5565521932
 20
-0.5686754796
 10
-57.5354815031
 20
-0.6997792169
 10
-57.5109373271
 20
-0.8302769269
 10
-57.4829357271
 20
-0.9600763388
 10
-57.4514976384
 20
-1.0890861832
 10
-57.4166454105
 20
-1.2172153678
 10
-57.3772915706
 20
-1.3478917976
  0
LWPOLYLINE
  5
465
100
AcDbEntity
  8
0
100
AcDbPolyline
 62
7
  6
CONTINUOUS
 90
5
 70
0
 10
-57.6057728028
 20
0.3597998394
 10
-57.6087943804
 20
0.2594971605
 10
-57.6098030848
 20
0.1591141861
 10
-57.6087945526
 20
0.0587289878
 10
-57.6057731742
 20
-0.041574376
  0
LINE
  5
466
100
AcDbEntity
  8
0
100
AcDbLine
 62
7
  6
CONTINUOUS
 10
-57.5936553577
 20
0.5606180668
 11
-57.6007292578
 21
0.4601988651
  0
LWPOLYLINE
  5
467
100
AcDbEntity
  8
0
100
AcDbPolyline
 62
7
  6
CONTINUOUS
 90
3
 70
0
 10
-57.573392983
 20
0.7614154987
 10
-57.5845528057
 20
0.6609600496
 10
-57.5936560814
 20
0.5606090838
  0
LWPOLYLINE
  5
468
100
AcDbEntity
  8
0
100
AcDbPolyline
 62
7
  6
CONTINUOUS
 90
4
 70
0
 10
-57.5078941153
 20
1.1634496828
 10
-57.5274448115
 20
1.0628766794
 10
-57.5448615647
 20
0.9623442485
 10
-57.5601629209
 20
0.8619119588
  0
LWPOLYLINE
  5
469
100
AcDbEntity
  8
0
100
AcDbPolyline
 62
250
  6
CONTINUOUS
 90
3
 70
0
 10
-52.1612575178
 20
24.6460097198
 10
-52.1613250714
 20
24.645726169
 10
-52.1613891773
 20
24.6448769641
  0
LINE
  5
46A
100
AcDbEntity
  8
0
100
AcDbLine
 62
7
  6
CONTINUOUS
 10
-52.4010532364
 20
24.4615758631
 11
-52.4040936301
 21
24.4491376695
  0
LWPOLYLINE
  5
46B
100
AcDbEntity
  8
0
100
AcDbPolyline
 62
250
  6
CONTINUOUS
 90
7
 70
0
 10
-57.1436909483
 20
2.2671541274
 10
-57.146509151
 20
2.2562431138
 10
-57.1454912991
 20
2.2435116256
 10
-57.140543777
 20
2.2294782413
 10
-57.1317727354
 20
2.2144440518
 10
-57.1197021062
 20
2.1991110477
 10
-57.103757068
 20
2.1828325165
  0
LWPOLYLINE
  5
46C
100
AcDbEntity
  8
0
100
AcDbPolyline
 62
7
  6
CONTINUOUS
 90
10
 70
0
 10
-57.4166651514
 20
1.5353630257
 10
-57.4515157867
 20
1.4072324595
 10
-57.4829521457
 20
1.2782213511
 10
-57.5109520045
 20
1.1484208215
 10
-57.53549437
 20
1.017922134
 10
-57.5565631369
 20
0.8868175477
 10
-57.5741434313
 20
0.7551996706
 10
-57.5882215908
 20
0.6231611517
 10
-57.5987889043
 20
0.4907952379
 10
-57.6058379438
 20
0.3581954287
  0
LWPOLYLINE
  5
46D
100
AcDbEntity
  8
0
100
AcDbPolyline
 62
7
  6
CONTINUOUS
 90
4
 70
0
 10
-57.4079068588
 20
1.5655908102
 10
-57.4362259794
 20
1.4651101877
 10
-57.4623261489
 20
1.36451953
 10
-57.4862078669
 20
1.2639465686
  0
LINE
  5
46E
100
AcDbEntity
  8
0
100
AcDbLine
 62
7
  6
CONTINUOUS
 10
-57.377293294
 20
1.6661028912
 11
-57.4166651514
 21
1.5353630257
  0
LINE
  5
46F
100
AcDbEntity
  8
0
100
AcDbLine
 62
7
  6
CONTINUOUS
 10
-57.3772914918
 20
1.6661085925
 11
-57.407905366
 21
1.5655959024
  0
LWPOLYLINE
  5
470
100
AcDbEntity
  8
0
100
AcDbPolyline
 62
250
  6
CONTINUOUS
 90
40
 70
0
 10
-57.2270131795
 20
1.8932683361
 10
-57.263285598
 20
1.7965757178
 10
-57.2971949569
 20
1.6999366335
 10
-57.3288365654
 20
1.6032215727
 10
-57.3582248481
 20
1.5065283823
 10
-57.3853784181
 20
1.40995442
 10
-57.4103781482
 20
1.3133540699
 10
-57.4332360206
 20
1.2168227395
 10
-57.4539711916
 20
1.1204463455
 10
-57.4726515
 20
1.0240499792
 10
-57.4892871854
 20
0.9277128029
 10
-57.503892474
 20
0.8315239587
 10
-57.5165145723
 20
0.735310232
 10
-57.5271591969
 20
0.6391484149
 10
-57.5358382262
 20
0.5431206725
 10
-57.5425799879
 20
0.447052098
 10
-57.547385517
 20
0.3510217304
 10
-57.5502637186
 20
0.2551035741
 10
-57.551224441
 20
0.1591098459
 10
-57.5502637573
 20
0.0631158382
 10
-57.5473856206
 20
-0.0328028824
 10
-57.5425801064
 20
-0.1288336879
 10
-57.53583834
 20
-0.2249024113
 10
-57.5271593663
 20
-0.3209302136
 10
-57.5165147738
 20
-0.4170920991
 10
-57.5038926807
 20
-0.5133057609
 10
-57.4892874461
 20
-0.6094946133
 10
-57.4726517058
 20
-0.7058323604
 10
-57.4539710028
 20
-0.8022305878
 10
-57.4332352727
 20
-0.8986094394
 10
-57.4103770451
 20
-0.9951419987
 10
-57.3853775284
 20
-1.0917410733
 10
-57.3582245765
 20
-1.1883126887
 10
-57.328836761
 20
-1.2850044033
 10
-57.2971950353
 20
-1.3817197877
 10
-57.2632852621
 20
-1.4783600198
 10
-57.2270125582
 20
-1.5750533687
 10
-57.1883286538
 20
-1.6717675382
 10
-57.1472462339
 20
-1.7683225518
 10
-57.1037549689
 20
-1.8646195892
  0
LWPOLYLINE
  5
471
100
AcDbEntity
  8
0
100
AcDbPolyline
 62
7
  6
CONTINUOUS
 90
4
 70
0
 10
-57.243641792
 20
2.0372815315
 10
-57.2918819678
 20
1.9135704197
 10
-57.3368194282
 20
1.7886211913
 10
-57.3784236351
 20
1.6625223708
  0
LWPOLYLINE
  5
472
100
AcDbEntity
  8
0
100
AcDbPolyline
 62
250
  6
CONTINUOUS
 90
32
 70
0
 10
-57.0599640589
 20
1.9623260418
 10
-57.1062833705
 20
1.8435540452
 10
-57.1494312855
 20
1.7235938237
 10
-57.18937856
 20
1.6025303092
 10
-57.2260970715
 20
1.480448711
 10
-57.2595598083
 20
1.3574346376
 10
-57.2897442784
 20
1.2335753143
 10
-57.3166291388
 20
1.108958374
 10
-57.3401942291
 20
0.9836716478
 10
-57.3604241594
 20
0.8578035381
 10
-57.3773047352
 20
0.7314425331
 10
-57.3908228543
 20
0.6046773848
 10
-57.4009701191
 20
0.4775978348
 10
-57.4077393891
 20
0.350293853
 10
-57.411124679
 20
0.2228553916
 10
-57.4111248046
 20
0.0953721392
 10
-57.4077398244
 20
-0.0320663289
 10
-57.400970865
 20
-0.1593703188
 10
-57.3908238519
 20
-0.2864498791
 10
-57.3773060417
 20
-0.4132150496
 10
-57.3604257777
 20
-0.5395760795
 10
-57.3401960997
 20
-0.665444212
 10
-57.3166313176
 20
-0.7907309766
 10
-57.2897467706
 20
-0.9153479563
 10
-57.2595625549
 20
-1.0392073113
 10
-57.2261001258
 20
-1.1622214395
 10
-57.1893819275
 20
-1.2843030998
 10
-57.1494349063
 20
-1.4053666669
 10
-57.1062872953
 20
-1.5253269673
 10
-57.0599682951
 20
-1.6440990491
 10
-57.0105116373
 20
-1.7615994553
 10
-56.9579523699
 20
-1.8777452621
  0
LWPOLYLINE
  5
473
100
AcDbEntity
  8
0
100
AcDbPolyline
 62
250
  6
CONTINUOUS
 90
4
 70
0
 10
-57.2270131795
 20
1.8932683361
 10
-57.1883292525
 20
1.9899826825
 10
-57.1472466347
 20
2.0865382565
 10
-57.1037549658
 20
2.1828361833
  0
LWPOLYLINE
  5
474
100
AcDbEntity
  8
0
100
AcDbPolyline
 62
7
  6
CONTINUOUS
 90
4
 70
0
 10
-57.2313036027
 20
2.0674408496
 10
-57.2714357126
 20
1.9671948124
 10
-57.3091009293
 20
1.8669124066
 10
-57.3443570451
 20
1.7665903903
  0
LWPOLYLINE
  5
475
100
AcDbEntity
  8
0
100
AcDbPolyline
 62
250
  6
CONTINUOUS
 90
3
 70
0
 10
-57.0599640589
 20
1.9623260418
 10
-57.010507149
 20
2.0798263779
 10
-56.9579475824
 20
2.1959720829
  0
LINE
  5
476
100
AcDbEntity
  8
0
100
AcDbLine
 62
7
  6
CONTINUOUS
 10
-57.1887237455
 20
2.1674616201
 11
-57.243641792
 21
2.0372815315
  0
LINE
  5
477
100
AcDbEntity
  8
0
100
AcDbLine
 62
7
  6
CONTINUOUS
 10
-57.1887229708
 20
2.1674633863
 11
-57.2313023743
 21
2.0674438244
  0
LINE
  5
478
100
AcDbEntity
  8
0
100
AcDbLine
 62
7
  6
CONTINUOUS
 10
-57.1373953895
 20
2.2806426304
 11
-57.192134109
 21
2.1596677533
  0
LINE
  5
479
100
AcDbEntity
  8
0
100
AcDbLine
 62
7
  6
CONTINUOUS
 10
-57.0794631284
 20
2.4001203432
 11
-57.1436884625
 21
2.2671580413
  0
LINE
  5
47A
100
AcDbEntity
  8
0
100
AcDbLine
 62
7
  6
CONTINUOUS
 10
-57.0183793236
 20
2.5180172124
 11
-57.0859607576
 21
2.387114668
  0
LINE
  5
47B
100
AcDbEntity
  8
0
100
AcDbLine
 62
7
  6
CONTINUOUS
 10
-56.9541872372
 20
2.6342499777
 11
-57.0250637659
 21
2.5054827693
  0
LINE
  5
47C
100
AcDbEntity
  8
0
100
AcDbLine
 62
7
  6
CONTINUOUS
 10
-56.8869310796
 20
2.7487360784
 11
-56.9610418335
 21
2.6221797053
  0
LINE
  5
47D
100
AcDbEntity
  8
0
100
AcDbLine
 62
7
  6
CONTINUOUS
 10
-56.8166593718
 20
2.8613954533
 11
-56.8939401731
 21
2.7371248321
  0
LINE
  5
47E
100
AcDbEntity
  8
0
100
AcDbLine
 62
7
  6
CONTINUOUS
 10
-49.909803085
 20
-9.4310757015
 11
-49.709803085
 21
-9.4310757015
  0
LINE
  5
47F
100
AcDbEntity
  8
0
100
AcDbLine
 62
7
  6
CONTINUOUS
 10
-49.909803085
 20
-9.0210707015
 11
-49.709803085
 21
-9.0210707015
  0
LINE
  5
480
100
AcDbEntity
  8
0
100
AcDbLine
 62
7
  6
CONTINUOUS
 10
-49.909803085
 20
-8.6110547015
 11
-49.709803085
 21
-8.6110547015
  0
LINE
  5
481
100
AcDbEntity
  8
0
100
AcDbLine
 62
7
  6
CONTINUOUS
 10
-49.909803085
 20
-8.4012377015
 11
-49.709803085
 21
-8.4012377015
  0
LINE
  5
482
100
AcDbEntity
  8
0
100
AcDbLine
 62
7
  6
CONTINUOUS
 10
-49.909803085
 20
-8.2234107015
 11
-49.709803085
 21
-8.2234107015
  0
LINE
  5
483
100
AcDbEntity
  8
0
100
AcDbLine
 62
7
  6
CONTINUOUS
 10
-49.909803085
 20
-8.0184057015
 11
-49.709803085
 21
-8.0184057015
  0
LINE
  5
484
100
AcDbEntity
  8
0
100
AcDbLine
 62
7
  6
CONTINUOUS
 10
-49.909803085
 20
-7.8134057015
 11
-49.709803085
 21
-7.8134057015
  0
LINE
  5
485
100
AcDbEntity
  8
0
100
AcDbLine
 62
250
  6
CONTINUOUS
 10
-51.409803085
 20
-7.7158917015
 11
-49.9098034001
 21
-7.7158917015
  0
LINE
  5
486
100
AcDbEntity
  8
0
100
AcDbLine
 62
7
  6
CONTINUOUS
 10
-49.909803085
 20
-7.6355727015
 11
-49.709803085
 21
-7.6355727015
  0
LWPOLYLINE
  5
487
100
AcDbEntity
  8
0
100
AcDbPolyline
 62
7
  6
CONTINUOUS
 90
4
 70
0
 10
-49.9130025315
 20
-7.8407204834
 10
-49.9112311309
 20
-7.8408400258
 10
-49.910163573
 20
-7.8408972018
 10
-49.909803085
 20
-7.8408917015
  0
LINE
  5
488
100
AcDbEntity
  8
0
100
AcDbLine
 62
7
  6
CONTINUOUS
 10
-49.9186330575
 20
-7.840299283
 11
-49.9130025315
 21
-7.8407204834
  0
LINE
  5
489
100
AcDbEntity
  8
0
100
AcDbLine
 62
7
  6
CONTINUOUS
 10
-49.9512433898
 20
-7.8376394168
 11
-49.9186330575
 21
-7.840299283
  0
LINE
  5
48A
100
AcDbEntity
  8
0
100
AcDbLine
 62
7
  6
CONTINUOUS
 10
-50.1167829843
 20
-7.8233939688
 11
-49.9512433898
 21
-7.8376394168
  0
LINE
  5
48B
100
AcDbEntity
  8
0
100
AcDbLine
 62
7
  6
CONTINUOUS
 10
-57.1436885572
 20
-1.9489414883
 11
-57.0794350893
 21
-2.0819597165
  0
LINE
  5
48C
100
AcDbEntity
  8
0
100
AcDbLine
 62
7
  6
CONTINUOUS
 10
-57.1921078246
 20
-1.841511313
 11
-57.1373681594
 21
-1.962484136
  0
LWPOLYLINE
  5
48D
100
AcDbEntity
  8
0
100
AcDbPolyline
 62
7
  6
CONTINUOUS
 90
3
 70
0
 10
-57.3090992525
 20
-1.5487003958
 10
-57.2714343852
 20
-1.6489816644
 10
-57.2313026722
 20
-1.7492265088
  0
LINE
  5
48E
100
AcDbEntity
  8
0
100
AcDbLine
 62
7
  6
CONTINUOUS
 10
-57.344355701
 20
-1.448377733
 11
-57.3090996199
 21
-1.5486993848
  0
LWPOLYLINE
  5
48F
100
AcDbEntity
  8
0
100
AcDbPolyline
 62
7
  6
CONTINUOUS
 90
5
 70
0
 10
-57.3784023998
 20
-1.3443731975
 10
-57.3367967364
 20
-1.4704703601
 10
-57.2918579773
 20
-1.5954178357
 10
-57.2436166246
 20
-1.7191270829
 10
-57.1887232567
 20
-1.8492461154
  0
LWPOLYLINE
  5
490
100
AcDbEntity
  8
0
100
AcDbPolyline
 62
250
  6
CONTINUOUS
 90
7
 70
0
 10
-57.1436909508
 20
-1.9489375348
 10
-57.1465091531
 20
-1.9380265208
 10
-57.1454913009
 20
-1.9252950321
 10
-57.1405437785
 20
-1.9112616473
 10
-57.1317727366
 20
-1.8962274574
 10
-57.1197021072
 20
-1.8808944529
 10
-57.1037570688
 20
-1.8646159213
  0
LWPOLYLINE
  5
491
100
AcDbEntity
  8
0
100
AcDbPolyline
 62
7
  6
CONTINUOUS
 90
4
 70
0
 10
-57.4862071272
 20
-0.9457332246
 10
-57.4623248625
 20
-1.046308191
 10
-57.4362249187
 20
-1.1468974595
 10
-57.4079057197
 20
-1.2473780734
  0
LWPOLYLINE
  5
492
100
AcDbEntity
  8
0
100
AcDbPolyline
 62
7
  6
CONTINUOUS
 90
4
 70
0
 10
-57.5601627131
 20
-0.5436966714
 10
-57.5448612688
 20
-0.64412949
 10
-57.5274440673
 20
-0.744664242
 10
-57.5078934933
 20
-0.8452360264
  0
LWPOLYLINE
  5
493
100
AcDbEntity
  8
0
100
AcDbPolyline
 62
250
  6
CONTINUOUS
 90
3
 70
0
 10
-54.1154155984
 20
-17.1908688196
 10
-54.1152312444
 20
-17.1929681997
 10
-54.1150388
 20
-17.1936712424
  0
LINE
  5
494
100
AcDbEntity
  8
0
100
AcDbLine
 62
250
  6
CONTINUOUS
 10
-57.103755245
 20
2.1828364429
 11
-57.103755245
 21
-1.8646198459
  0
LINE
  5
495
100
AcDbEntity
  8
0
100
AcDbLine
 62
250
  6
CONTINUOUS
 10
-56.9640791958
 20
2.1828364429
 11
-56.9640791958
 21
-1.8646198459
  0
LINE
  5
496
100
AcDbEntity
  8
0
100
AcDbLine
 62
7
  6
CONTINUOUS
 10
-55.909803085
 20
2.5466876538
 11
-55.909803085
 21
0.9591082985
  0
LINE
  5
497
100
AcDbEntity
  8
0
100
AcDbLine
 62
7
  6
CONTINUOUS
 10
-55.909803085
 20
-0.6408917015
 11
-55.909803085
 21
-2.2284710568
  0
LINE
  5
498
100
AcDbEntity
  8
0
100
AcDbLine
 62
7
  6
CONTINUOUS
 10
-54.408075146
 20
17.2440862358
 11
-54.4093901174
 21
17.2276694892
  0
LWPOLYLINE
  5
499
100
AcDbEntity
  8
0
100
AcDbPolyline
 62
250
  6
CONTINUOUS
 90
3
 70
0
 10
-54.1154155984
 20
17.5090854166
 10
-54.1152312444
 20
17.5111847967
 10
-54.1150388
 20
17.5118878394
  0
LWPOLYLINE
  5
49A
100
AcDbEntity
  8
0
100
AcDbPolyline
 62
7
  6
CONTINUOUS
 90
5
 70
0
 10
-52.404091883
 20
24.4491457026
 10
-52.4065586291
 20
24.4361599524
 10
-52.4083494396
 20
24.4229343566
 10
-52.4094370804
 20
24.4095367548
 10
-52.409803085
 20
24.3960139506
  0
LWPOLYLINE
  5
49B
100
AcDbEntity
  8
0
100
AcDbPolyline
 62
250
  6
CONTINUOUS
 90
11
 70
0
 10
-56.9640783478
 20
2.1828360484
 10
-56.902321335
 20
2.31068069
 10
-56.8436686772
 20
2.4238718516
 10
-56.7820309947
 20
2.5354657752
 10
-56.7174506573
 20
2.6453831868
 10
-56.6499742309
 20
2.7535471157
 10
-56.5796493981
 20
2.8598812246
 10
-56.5065246971
 20
2.9643098679
 10
-56.4306526717
 20
3.0667600154
 10
-56.3520870372
 20
3.1671592677
 10
-56.2708823906
 20
3.2654358694
  0
LWPOLYLINE
  5
49C
100
AcDbEntity
  8
0
100
AcDbPolyline
 62
250
  6
CONTINUOUS
 90
11
 70
0
 10
-56.9125140669
 20
2.2902332854
 10
-56.8582816164
 20
2.3963515307
 10
-56.8014123984
 20
2.5011242857
 10
-56.7419329785
 20
2.604496507
 10
-56.679880134
 20
2.7063956844
 10
-56.615306299
 20
2.8067330381
 10
-56.5482541723
 20
2.9054415531
 10
-56.4787611227
 20
3.0024627189
 10
-56.4068786057
 20
3.0977244107
 10
-56.3326539742
 20
3.1911656963
 10
-56.2561303511
 20
3.2827313618
  0
LINE
  5
49D
100
AcDbEntity
  8
0
100
AcDbLine
 62
7
  6
CONTINUOUS
 10
-56.7434218843
 20
2.9721485777
 11
-56.8238039922
 21
2.8502401222
  0
LINE
  5
49E
100
AcDbEntity
  8
0
100
AcDbLine
 62
7
  6
CONTINUOUS
 10
-56.6672692691
 20
3.0809166631
 11
-56.7506833082
 21
2.9614477306
  0
LINE
  5
49F
100
AcDbEntity
  8
0
100
AcDbLine
 62
7
  6
CONTINUOUS
 10
-56.588256253
 20
3.1876237838
 11
-56.6746308637
 21
3.0706671851
  0
LINE
  5
4A0
100
AcDbEntity
  8
0
100
AcDbLine
 62
7
  6
CONTINUOUS
 10
-56.5064387577
 20
3.2921947033
 11
-56.5956994701
 21
3.1778209953
  0
LINE
  5
4A1
100
AcDbEntity
  8
0
100
AcDbLine
 62
7
  6
CONTINUOUS
 10
-56.4218735299
 20
3.394554931
 11
-56.5139437784
 21
3.2828372648
  0
LINE
  5
4A2
100
AcDbEntity
  8
0
100
AcDbLine
 62
7
  6
CONTINUOUS
 10
-56.3346211649
 20
3.4946331292
 11
-56.4294215494
 21
3.3856411874
  0
LINE
  5
4A3
100
AcDbEntity
  8
0
100
AcDbLine
 62
250
  6
CONTINUOUS
 10
-56.2708823906
 20
3.2654358694
 11
-56.1773577484
 21
3.3723619422
  0
LINE
  5
4A4
100
AcDbEntity
  8
0
100
AcDbLine
 62
7
  6
CONTINUOUS
 10
-56.2447433861
 20
3.5923587972
 11
-56.3421915941
 21
3.4861597422
  0
LINE
  5
4A5
100
AcDbEntity
  8
0
100
AcDbLine
 62
250
  6
CONTINUOUS
 10
-56.187096751
 20
3.3615214375
 11
-56.0963880777
 21
3.4600006389
  0
LINE
  5
4A6
100
AcDbEntity
  8
0
100
AcDbLine
 62
7
  6
CONTINUOUS
 10
-56.152302672
 20
3.687662209
 11
-56.2523142124
 21
3.5843250322
  0
LINE
  5
4A7
100
AcDbEntity
  8
0
100
AcDbLine
 62
250
  6
CONTINUOUS
 10
-56.1007889578
 20
3.4553486202
 11
-56.0120188545
 21
3.5468504603
  0
LINE
  5
4A8
100
AcDbEntity
  8
0
100
AcDbLine
 62
7
  6
CONTINUOUS
 10
-56.057365098
 20
3.7804770676
 11
-56.1598519113
 21
3.6800673915
  0
LINE
  5
4A9
100
AcDbEntity
  8
0
100
AcDbLine
 62
250
  6
CONTINUOUS
 10
-56.0132691679
 20
3.5455954416
 11
-55.9208499234
 21
3.6359631026
  0
LINE
  5
4AA
100
AcDbEntity
  8
0
100
AcDbLine
 62
7
  6
CONTINUOUS
 10
-55.9599978123
 20
3.8707380297
 11
-56.0648700622
 21
3.7733174272
  0
LWPOLYLINE
  5
4AB
100
AcDbEntity
  8
0
100
AcDbPolyline
 62
250
  6
CONTINUOUS
 90
12
 70
0
 10
-55.9280484979
 20
3.6290971805
 10
-55.8273464392
 20
3.7226238237
 10
-55.7315732583
 20
3.8067707257
 10
-55.6335988419
 20
3.8883450844
 10
-55.5334929192
 20
3.9672889865
 10
-55.4313249191
 20
4.0435460599
 10
-55.327167958
 20
4.1170631091
 10
-55.2210974524
 20
4.187787197
 10
-55.1131890519
 20
4.2556666596
 10
-55.0035181502
 20
4.320655671
 10
-54.8921597755
 20
4.3827100401
 10
-54.7791930532
 20
4.4417842274
  0
LWPOLYLINE
  5
4AC
100
AcDbEntity
  8
0
100
AcDbPolyline
 62
250
  6
CONTINUOUS
 90
12
 70
0
 10
-55.8407788922
 20
3.7104556141
 10
-55.7515145682
 20
3.7896195837
 10
-55.6603079481
 20
3.8665415335
 10
-55.5672145961
 20
3.941175727
 10
-55.4722931458
 20
4.0134745817
 10
-55.3756034792
 20
4.0833911597
 10
-55.277206077
 20
4.1508830135
 10
-55.1771616626
 20
4.2159085732
 10
-55.0755330594
 20
4.2784257882
 10
-54.9723853843
 20
4.3383958631
 10
-54.8677808632
 20
4.3957832487
 10
-54.761779745
 20
4.4505536038
  0
LINE
  5
4AD
100
AcDbEntity
  8
0
100
AcDbLine
 62
7
  6
CONTINUOUS
 10
-55.8602686258
 20
3.9583805743
 11
-55.9674364617
 21
3.8640098587
  0
LINE
  5
4AE
100
AcDbEntity
  8
0
100
AcDbLine
 62
7
  6
CONTINUOUS
 10
-55.7582486751
 20
4.043343864
 11
-55.8676180765
 21
3.9520808554
  0
LINE
  5
4AF
100
AcDbEntity
  8
0
100
AcDbLine
 62
7
  6
CONTINUOUS
 10
-55.6540101423
 20
4.1255680998
 11
-55.7654864543
 21
4.0374659025
  0
LINE
  5
4B0
100
AcDbEntity
  8
0
100
AcDbLine
 62
7
  6
CONTINUOUS
 10
-55.5476256978
 20
4.204994406
 11
-55.6611185732
 21
4.1201020536
  0
LINE
  5
4B1
100
AcDbEntity
  8
0
100
AcDbLine
 62
7
  6
CONTINUOUS
 10
-55.4391711186
 20
4.2815677673
 11
-55.5545881381
 21
4.1999300074
  0
LINE
  5
4B2
100
AcDbEntity
  8
0
100
AcDbLine
 62
7
  6
CONTINUOUS
 10
-55.3287233729
 20
4.3552341812
 11
-55.4459701841
 21
4.2768930641
  0
LINE
  5
4B3
100
AcDbEntity
  8
0
100
AcDbLine
 62
7
  6
CONTINUOUS
 10
-55.2163596786
 20
4.4259407117
 11
-55.33534558
 21
4.3509356073
  0
LINE
  5
4B4
100
AcDbEntity
  8
0
100
AcDbLine
 62
7
  6
CONTINUOUS
 10
-55.1021598797
 20
4.4936386179
 11
-55.2227944275
 21
4.422003446
  0
LINE
  5
4B5
100
AcDbEntity
  8
0
100
AcDbLine
 62
7
  6
CONTINUOUS
 10
-54.9862051145
 20
4.5582801904
 11
-55.1083945565
 21
4.4900476623
  0
LINE
  5
4B6
100
AcDbEntity
  8
0
100
AcDbLine
 62
7
  6
CONTINUOUS
 10
-54.8685766248
 20
4.6198188156
 11
-54.9922248911
 21
4.5550228463
  0
LINE
  5
4B7
100
AcDbEntity
  8
0
100
AcDbLine
 62
7
  6
CONTINUOUS
 10
-54.7493591554
 20
4.6782116805
 11
-54.8743676358
 21
4.616881949
  0
LINE
  5
4B8
100
AcDbEntity
  8
0
100
AcDbLine
 62
250
  6
CONTINUOUS
 10
-54.7791930532
 20
4.4417842274
 11
-54.6544478022
 21
4.502673388
  0
LINE
  5
4B9
100
AcDbEntity
  8
0
100
AcDbLine
 62
7
  6
CONTINUOUS
 10
-54.6286354394
 20
4.733418724
 11
-54.754906017
 21
4.6755813264
  0
LINE
  5
4BA
100
AcDbEntity
  8
0
100
AcDbLine
 62
250
  6
CONTINUOUS
 10
-54.6646969155
 20
4.4978381897
 11
-54.5458513985
 21
4.5521108069
  0
LINE
  5
4BB
100
AcDbEntity
  8
0
100
AcDbLine
 62
7
  6
CONTINUOUS
 10
-54.5064903418
 20
4.785399848
 11
-54.6339209898
 21
4.7310822107
  0
LINE
  5
4BC
100
AcDbEntity
  8
0
100
AcDbLine
 62
250
  6
CONTINUOUS
 10
-54.5487457676
 20
4.5508353262
 11
-54.4314168927
 21
4.600738063
  0
LINE
  5
4BD
100
AcDbEntity
  8
0
100
AcDbLine
 62
7
  6
CONTINUOUS
 10
-54.3830106906
 20
4.8341195274
 11
-54.5114958052
 21
4.7833447642
  0
LINE
  5
4BE
100
AcDbEntity
  8
0
100
AcDbLine
 62
250
  6
CONTINUOUS
 10
-54.4360526694
 20
4.598836031
 11
-54.3127969033
 21
4.6475099194
  0
LINE
  5
4BF
100
AcDbEntity
  8
0
100
AcDbLine
 62
7
  6
CONTINUOUS
 10
-54.2582855108
 20
4.8795431906
 11
-54.3877188831
 21
4.8323309932
  0
LWPOLYLINE
  5
4C0
100
AcDbEntity
  8
0
100
AcDbPolyline
 62
250
  6
CONTINUOUS
 90
11
 70
0
 10
-54.3251150445
 20
4.6428215632
 10
-54.1929741724
 20
4.6911158455
 10
-54.0720255748
 20
4.7315259663
 10
-53.9500436111
 20
4.7687099082
 10
-53.8271409206
 20
4.8026344194
 10
-53.7034034057
 20
4.8332764561
 10
-53.5789205491
 20
4.8606171132
 10
-53.4538114051
 20
4.884633946
 10
-53.3281642126
 20
4.9053132314
 10
-53.2020667942
 20
4.9226456183
 10
-53.0756380753
 20
4.93662034
  0
LWPOLYLINE
  5
4C1
100
AcDbEntity
  8
0
100
AcDbPolyline
 62
250
  6
CONTINUOUS
 90
11
 70
0
 10
-54.2131114667
 20
4.6840385859
 10
-54.1001192908
 20
4.7224574806
 10
-53.9862032139
 20
4.7580560291
 10
-53.871438802
 20
4.7908114988
 10
-53.7559208202
 20
4.8206971723
 10
-53.6397208369
 20
4.8476961185
 10
-53.5229122687
 20
4.8717945518
 10
-53.4055936769
 20
4.8929748329
 10
-53.2878376829
 20
4.9112269932
 10
-53.1697154372
 20
4.9265446858
 10
-53.0513235647
 20
4.9389197678
  0
LINE
  5
4C2
100
AcDbEntity
  8
0
100
AcDbLine
 62
7
  6
CONTINUOUS
 10
-54.1324030611
 20
4.9216376709
 11
-54.2626792924
 21
4.8780063802
  0
LINE
  5
4C3
100
AcDbEntity
  8
0
100
AcDbLine
 62
7
  6
CONTINUOUS
 10
-54.0054517675
 20
4.9603748881
 11
-54.1364641566
 21
4.920337565
  0
LINE
  5
4C4
100
AcDbEntity
  8
0
100
AcDbLine
 62
7
  6
CONTINUOUS
 10
-49.909803085
 20
-7.4257607015
 11
-49.709803085
 21
-7.4257607015
  0
LINE
  5
4C5
100
AcDbEntity
  8
0
100
AcDbLine
 62
7
  6
CONTINUOUS
 10
-49.909803085
 20
-7.0157397015
 11
-49.709803085
 21
-7.0157397015
  0
LINE
  5
4C6
100
AcDbEntity
  8
0
100
AcDbLine
 62
7
  6
CONTINUOUS
 10
-49.909803085
 20
-6.7423977015
 11
-49.709803085
 21
-6.7423977015
  0
LINE
  5
4C7
100
AcDbEntity
  8
0
100
AcDbLine
 62
7
  6
CONTINUOUS
 10
-49.909803085
 20
-6.3323827015
 11
-49.709803085
 21
-6.3323827015
  0
LINE
  5
4C8
100
AcDbEntity
  8
0
100
AcDbLine
 62
7
  6
CONTINUOUS
 10
-49.909803085
 20
-6.2029407015
 11
-49.709803085
 21
-6.2029407015
  0
LINE
  5
4C9
100
AcDbEntity
  8
0
100
AcDbLine
 62
7
  6
CONTINUOUS
 10
-49.909803085
 20
-6.0841897015
 11
-49.709803085
 21
-6.0841897015
  0
LINE
  5
4CA
100
AcDbEntity
  8
0
100
AcDbLine
 62
7
  6
CONTINUOUS
 10
-49.909803085
 20
-6.0778757015
 11
-49.709803085
 21
-6.0778757015
  0
LINE
  5
4CB
100
AcDbEntity
  8
0
100
AcDbLine
 62
7
  6
CONTINUOUS
 10
-49.909803085
 20
-5.8791737015
 11
-49.709803085
 21
-5.8791737015
  0
LINE
  5
4CC
100
AcDbEntity
  8
0
100
AcDbLine
 62
7
  6
CONTINUOUS
 10
-49.909803085
 20
-5.6804627015
 11
-49.709803085
 21
-5.6804627015
  0
LINE
  5
4CD
100
AcDbEntity
  8
0
100
AcDbLine
 62
7
  6
CONTINUOUS
 10
-49.909803085
 20
-5.6741537015
 11
-49.709803085
 21
-5.6741537015
  0
LINE
  5
4CE
100
AcDbEntity
  8
0
100
AcDbLine
 62
7
  6
CONTINUOUS
 10
-50.1167829654
 20
-7.386044959
 11
-51.409803085
 21
-7.3408917015
  0
LINE
  5
4CF
100
AcDbEntity
  8
0
100
AcDbLine
 62
7
  6
CONTINUOUS
 10
-54.0091498977
 20
-4.6410817359
 11
-53.8775460128
 21
-4.6775049632
  0
LINE
  5
4D0
100
AcDbEntity
  8
0
100
AcDbLine
 62
7
  6
CONTINUOUS
 10
-54.1364507948
 20
-4.6021252286
 11
-54.0054752396
 21
-4.6421514517
  0
LINE
  5
4D1
100
AcDbEntity
  8
0
100
AcDbLine
 62
7
  6
CONTINUOUS
 10
-54.2626661561
 20
-4.5597944056
 11
-54.13242488
 21
-4.6034141206
  0
LINE
  5
4D2
100
AcDbEntity
  8
0
100
AcDbLine
 62
7
  6
CONTINUOUS
 10
-54.3877057241
 20
-4.5141194
 11
-54.258305201
 21
-4.5613197049
  0
LINE
  5
4D3
100
AcDbEntity
  8
0
100
AcDbLine
 62
250
  6
CONTINUOUS
 10
-54.3251266218
 20
-4.3246005365
 11
-54.1929866843
 21
-4.3728948713
  0
LINE
  5
4D4
100
AcDbEntity
  8
0
100
AcDbLine
 62
7
  6
CONTINUOUS
 10
-54.5114824194
 20
-4.4651336384
 11
-54.3830277698
 21
-4.5158964346
  0
LINE
  5
4D5
100
AcDbEntity
  8
0
100
AcDbLine
 62
250
  6
CONTINUOUS
 10
-54.4360642213
 20
-4.2806146545
 11
-54.3128091709
 21
-4.3292886552
  0
LINE
  5
4D6
100
AcDbEntity
  8
0
100
AcDbLine
 62
250
  6
CONTINUOUS
 10
-54.5487570833
 20
-4.2326137295
 11
-54.4314286866
 21
-4.2825166586
  0
LINE
  5
4D7
100
AcDbEntity
  8
0
100
AcDbLine
 62
7
  6
CONTINUOUS
 10
-54.6339070076
 20
-4.4128718307
 11
-54.5065044014
 21
-4.467177513
  0
LINE
  5
4D8
100
AcDbEntity
  8
0
100
AcDbLine
 62
250
  6
CONTINUOUS
 10
-54.6647078598
 20
-4.1796163956
 11
-54.5458630733
 21
-4.2338890925
  0
LINE
  5
4D9
100
AcDbEntity
  8
0
100
AcDbLine
 62
7
  6
CONTINUOUS
 10
-54.7548909781
 20
-4.357371868
 11
-54.6286462662
 21
-4.4151973394
  0
LINE
  5
4DA
100
AcDbEntity
  8
0
100
AcDbLine
 62
7
  6
CONTINUOUS
 10
-54.8743511776
 20
-4.2986736747
 11
-54.7493665807
 21
-4.3599915495
  0
LINE
  5
4DB
100
AcDbEntity
  8
0
100
AcDbLine
 62
7
  6
CONTINUOUS
 10
-54.992206653
 20
-4.236816169
 11
-54.8685810846
 21
-4.3015999861
  0
LINE
  5
4DC
100
AcDbEntity
  8
0
100
AcDbLine
 62
7
  6
CONTINUOUS
 10
-55.1083740486
 20
-4.1718428881
 11
-54.9862052708
 21
-4.2400634991
  0
LINE
  5
4DD
100
AcDbEntity
  8
0
100
AcDbLine
 62
7
  6
CONTINUOUS
 10
-55.2227713078
 20
-4.1038009758
 11
-55.1021566842
 21
-4.1754238387
  0
LINE
  5
4DE
100
AcDbEntity
  8
0
100
AcDbLine
 62
7
  6
CONTINUOUS
 10
-55.3353197028
 20
-4.0327358795
 11
-55.2163530178
 21
-4.1077282108
  0
LINE
  5
4DF
100
AcDbEntity
  8
0
100
AcDbLine
 62
7
  6
CONTINUOUS
 10
-55.4459410865
 20
-3.9586964941
 11
-55.3287134135
 21
-4.0370240281
  0
LINE
  5
4E0
100
AcDbEntity
  8
0
100
AcDbLine
 62
7
  6
CONTINUOUS
 10
-55.5545556812
 20
-3.8817370136
 11
-55.4391580799
 21
-3.9633600981
  0
LINE
  5
4E1
100
AcDbEntity
  8
0
100
AcDbLine
 62
7
  6
CONTINUOUS
 10
-55.6610834398
 20
-3.8019125747
 11
-55.5476098124
 21
-3.8867893719
  0
LINE
  5
4E2
100
AcDbEntity
  8
0
100
AcDbLine
 62
7
  6
CONTINUOUS
 10
-55.765449163
 20
-3.719279626
 11
-55.6539916681
 21
-3.8073656723
  0
LINE
  5
4E3
100
AcDbEntity
  8
0
100
AcDbLine
 62
7
  6
CONTINUOUS
 10
-55.8675792203
 20
-3.6338975769
 11
-55.7582279502
 21
-3.7251440434
  0
LWPOLYLINE
  5
4E4
100
AcDbEntity
  8
0
100
AcDbPolyline
 62
250
  6
CONTINUOUS
 90
12
 70
0
 10
-55.827355185
 20
-3.404399326
 10
-55.7315822658
 20
-3.4885464526
 10
-55.6336080592
 20
-3.570120996
 10
-55.5335023532
 20
-3.6490651424
 10
-55.4313345486
 20
-3.7253224995
 10
-55.3271777174
 20
-3.7988397956
 10
-55.2211073607
 20
-3.8695641734
 10
-55.1131991003
 20
-3.9374439523
 10
-55.0035282949
 20
-4.0024332239
 10
-54.8921700988
 20
-4.0644878598
 10
-54.7792036691
 20
-4.1235622819
 10
-54.6544596185
 20
-4.1844512376
  0
LINE
  5
4E5
100
AcDbEntity
  8
0
100
AcDbLine
 62
7
  6
CONTINUOUS
 10
-55.9673974186
 20
-3.5458287079
 11
-55.8602459619
 21
-3.640183397
  0
LWPOLYLINE
  5
4E6
100
AcDbEntity
  8
0
100
AcDbPolyline
 62
250
  6
CONTINUOUS
 90
12
 70
0
 10
-55.8407891684
 20
-3.3922297319
 10
-55.7515248773
 20
-3.4713940319
 10
-55.6603183861
 20
-3.5483163138
 10
-55.5672252736
 20
-3.6229508298
 10
-55.4723040575
 20
-3.6952498727
 10
-55.3756146326
 20
-3.7651666641
 10
-55.2772175193
 20
-3.8326588043
 10
-55.1771733524
 20
-3.8976845922
 10
-55.0755449102
 20
-3.9602020603
 10
-54.9723973405
 20
-4.0201725273
 10
-54.8677928304
 20
-4.0775602996
 10
-54.7617916495
 20
-4.1323310046
  0
LINE
  5
4E7
100
AcDbEntity
  8
0
100
AcDbLine
 62
7
  6
CONTINUOUS
 10
-56.0648323006
 20
-3.4551368967
 11
-55.9599734195
 21
-3.552543441
  0
LINE
  5
4E8
100
AcDbEntity
  8
0
100
AcDbLine
 62
250
  6
CONTINUOUS
 10
-55.9280587291
 20
-3.3108707746
 11
-55.827355185
 21
-3.404399326
  0
LINE
  5
4E9
100
AcDbEntity
  8
0
100
AcDbLine
 62
250
  6
CONTINUOUS
 10
-56.013279482
 20
-3.2273684222
 11
-55.9208584155
 21
-3.3177383989
  0
LINE
  5
4EA
100
AcDbEntity
  8
0
100
AcDbLine
 62
7
  6
CONTINUOUS
 10
-56.1598166237
 20
-3.3618863168
 11
-56.0573392494
 21
-3.4622850539
  0
LINE
  5
4EB
100
AcDbEntity
  8
0
100
AcDbLine
 62
250
  6
CONTINUOUS
 10
-56.1007969475
 20
-3.1371235575
 11
-56.0120271191
 21
-3.2286255981
  0
LINE
  5
4EC
100
AcDbEntity
  8
0
100
AcDbLine
 62
7
  6
CONTINUOUS
 10
-56.2522823473
 20
-3.2661423989
 11
-56.1522756459
 21
-3.3694727763
  0
LINE
  5
4ED
100
AcDbEntity
  8
0
100
AcDbLine
 62
250
  6
CONTINUOUS
 10
-56.187104482
 20
-3.0432961824
 11
-56.0963986212
 21
-3.1417729864
  0
LINE
  5
4EE
100
AcDbEntity
  8
0
100
AcDbLine
 62
7
  6
CONTINUOUS
 10
-56.3421639665
 20
-3.1679740928
 11
-56.2447153398
 21
-3.2741718851
  0
LINE
  5
4EF
100
AcDbEntity
  8
0
100
AcDbLine
 62
7
  6
CONTINUOUS
 10
-56.4293989467
 20
-3.0674512828
 11
-56.3345923186
 21
-3.176448718
  0
LINE
  5
4F0
100
AcDbEntity
  8
0
100
AcDbLine
 62
7
  6
CONTINUOUS
 10
-56.51392623
 20
-2.9646426789
 11
-56.4218441187
 21
-3.0763730207
  0
LINE
  5
4F1
100
AcDbEntity
  8
0
100
AcDbLine
 62
7
  6
CONTINUOUS
 10
-56.5956866558
 20
-2.859621257
 11
-56.5064088929
 21
-2.9740152403
  0
LINE
  5
4F2
100
AcDbEntity
  8
0
100
AcDbLine
 62
7
  6
CONTINUOUS
 10
-56.6746227585
 20
-2.7524618685
 11
-56.5882261079
 21
-2.8694467569
  0
LINE
  5
4F3
100
AcDbEntity
  8
0
100
AcDbLine
 62
7
  6
CONTINUOUS
 10
-56.7506792763
 20
-2.6432372199
 11
-56.667239043
 21
-2.7627420775
  0
LINE
  5
4F4
100
AcDbEntity
  8
0
100
AcDbLine
 62
7
  6
CONTINUOUS
 10
-56.823803217
 20
-2.5320246431
 11
-56.7433916624
 21
-2.6539763812
  0
LINE
  5
4F5
100
AcDbEntity
  8
0
100
AcDbLine
 62
7
  6
CONTINUOUS
 10
-56.8939422016
 20
-2.418904742
 11
-56.8166292989
 21
-2.5432256383
  0
LINE
  5
4F6
100
AcDbEntity
  8
0
100
AcDbLine
 62
7
  6
CONTINUOUS
 10
-56.9610454843
 20
-2.3039567016
 11
-56.8869013368
 21
-2.430568647
  0
LINE
  5
4F7
100
AcDbEntity
  8
0
100
AcDbLine
 62
7
  6
CONTINUOUS
 10
-57.0250670621
 20
-2.1872599005
 11
-56.954157906
 21
-2.3160848539
  0
LWPOLYLINE
  5
4F8
100
AcDbEntity
  8
0
100
AcDbPolyline
 62
250
  6
CONTINUOUS
 90
11
 70
0
 10
-56.9023264288
 20
-1.992453981
 10
-56.8436740179
 20
-2.1056452357
 10
-56.7820366262
 20
-2.2172392869
 10
-56.7174565882
 20
-2.3271568359
 10
-56.6499804031
 20
-2.4353208779
 10
-56.5796558507
 20
-2.5416551392
 10
-56.506531436
 20
-2.6460839501
 10
-56.430659639
 20
-2.7485342377
 10
-56.3520942702
 20
-2.8489336682
 10
-56.2708898993
 20
-2.94721046
 10
-56.1773684367
 20
-3.0541334695
  0
LINE
  5
4F9
100
AcDbEntity
  8
0
100
AcDbLine
 62
7
  6
CONTINUOUS
 10
-57.0859627336
 20
-2.0688942676
 11
-57.0183505492
 21
-2.1998543514
  0
LWPOLYLINE
  5
4FA
100
AcDbEntity
  8
0
100
AcDbPolyline
 62
250
  6
CONTINUOUS
 90
11
 70
0
 10
-56.912515607
 20
-1.9720137853
 10
-56.8582849396
 20
-2.0781285554
 10
-56.8014176492
 20
-2.182898318
 10
-56.7419402858
 20
-2.2862675409
 10
-56.6798895099
 20
-2.388163959
 10
-56.6153173962
 20
-2.4884997136
 10
-56.5482658945
 20
-2.5872082623
 10
-56.4787726473
 20
-2.68423035
 10
-56.4068899593
 20
-2.7794931535
 10
-56.3326652198
 20
-2.872935371
 10
-56.2561412524
 20
-2.9645019545
  0
LINE
  5
4FB
100
AcDbEntity
  8
0
100
AcDbLine
 62
250
  6
CONTINUOUS
 10
-56.9640784396
 20
-1.8646194941
 11
-56.9023264288
 21
-1.992453981
  0
LINE
  5
4FC
100
AcDbEntity
  8
0
100
AcDbLine
 62
250
  6
CONTINUOUS
 10
-56.9125156076
 20
-1.9720137842
 11
-56.9640784396
 21
-1.8646194941
  0
LINE
  5
4FD
100
AcDbEntity
  8
0
100
AcDbLine
 62
7
  6
CONTINUOUS
 10
-48.9207516382
 20
-23.6120554639
 11
-48.9174027828
 21
-23.6240566166
  0
LINE
  5
4FE
100
AcDbEntity
  8
0
100
AcDbLine
 62
7
  6
CONTINUOUS
 10
-52.4083272999
 20
-24.104921411
 11
-52.4094602396
 21
-24.0908856348
  0
LWPOLYLINE
  5
4FF
100
AcDbEntity
  8
0
100
AcDbPolyline
 62
250
  6
CONTINUOUS
 90
3
 70
0
 10
-52.1613891773
 20
-24.326660367
 10
-52.1613250714
 20
-24.327509572
 10
-52.1612575178
 20
-24.3277931228
  0
LINE
  5
500
100
AcDbEntity
  8
ASSI
100
AcDbLine
 62
7
  6
CONTINUOUS
 10
-52.3564675686
 20
-21.7849981246
 11
-54.6697168345
 21
22.3544273116
  0
LINE
  5
501
100
AcDbEntity
  8
0
100
AcDbLine
 62
250
  6
CONTINUOUS
 10
-54.1154155968
 20
-17.1908686889
 11
-54.1155918597
 21
-17.1873747873
  0
LWPOLYLINE
  5
502
100
AcDbEntity
  8
0
100
AcDbPolyline
 62
250
  6
CONTINUOUS
 90
11
 70
0
 10
-54.1166685534
 20
-16.2642509504
 10
-54.1165506872
 20
-16.2687754844
 10
-54.1164217887
 20
-16.2728371761
 10
-54.116282097
 20
-16.2764296403
 10
-54.116132139
 20
-16.2795433907
 10
-54.1159722309
 20
-16.2821762054
 10
-54.1158026855
 20
-16.2843265572
 10
-54.1156241432
 20
-16.2859921299
 10
-54.115437094
 20
-16.2871751591
 10
-54.1152418338
 20
-16.2878798976
 10
-54.1150388147
 20
-16.2881113211
  0
LINE
  5
503
100
AcDbEntity
  8
0
100
AcDbLine
 62
7
  6
CONTINUOUS
 10
-54.4094003331
 20
16.8907567136
 11
-54.4098023154
 21
16.9062826304
  0
LWPOLYLINE
  5
504
100
AcDbEntity
  8
0
100
AcDbPolyline
 62
250
  6
CONTINUOUS
 90
3
 70
0
 10
-54.1159205661
 20
-17.1762253715
 10
-54.1157602591
 20
-17.1824911032
 10
-54.1155918623
 20
-17.1873748477
  0
LINE
  5
505
100
AcDbEntity
  8
0
100
AcDbLine
 62
250
  6
CONTINUOUS
 10
-54.1168703033
 20
-16.2538492956
 11
-54.1166685534
 21
-16.2642509504
  0
LINE
  5
506
100
AcDbEntity
  8
0
100
AcDbLine
 62
250
  6
CONTINUOUS
 10
-54.1162148702
 20
-17.1595823344
 11
-54.1159205646
 21
-17.1762251884
  0
LINE
  5
507
100
AcDbEntity
  8
0
100
AcDbLine
 62
250
  6
CONTINUOUS
 10
-54.1150388147
 20
16.3063740551
 11
-54.1162823538
 21
16.3893925102
  0
LINE
  5
508
100
AcDbEntity
  8
0
100
AcDbLine
 62
250
  6
CONTINUOUS
 10
-54.1170253448
 20
-16.2417322519
 11
-54.1168703033
 21
-16.2538492956
  0
LINE
  5
509
100
AcDbEntity
  8
0
100
AcDbLine
 62
250
  6
CONTINUOUS
 10
-54.1165888716
 20
-17.124530511
 11
-54.1162148702
 21
-17.1595823344
  0
LINE
  5
50A
100
AcDbEntity
  8
0
100
AcDbLine
 62
250
  6
CONTINUOUS
 10
-54.1162823538
 20
16.3893925102
 11
-54.1169538406
 21
16.4563452682
  0
LINE
  5
50B
100
AcDbEntity
  8
0
100
AcDbLine
 62
250
  6
CONTINUOUS
 10
-54.1170253448
 20
-16.2417322519
 11
-54.1171689268
 21
-16.2205354288
  0
LINE
  5
50C
100
AcDbEntity
  8
0
100
AcDbLine
 62
250
  6
CONTINUOUS
 10
-54.1165888716
 20
-17.124530511
 11
-54.1170208523
 21
-17.040392753
  0
LINE
  5
50D
100
AcDbEntity
  8
RACCORDO
100
AcDbLine
 62
250
  6
CONTINUOUS
 10
-54.1150388069
 20
16.5120405382
 11
-54.1165891066
 21
16.8773306579
  0
LINE
  5
50E
100
AcDbEntity
  8
0
100
AcDbLine
 62
250
  6
CONTINUOUS
 10
-54.1171929063
 20
16.5053334534
 11
-54.1169538406
 21
16.4563452682
  0
LINE
  5
50F
100
AcDbEntity
  8
0
100
AcDbLine
 62
250
  6
CONTINUOUS
 10
-54.1171856643
 20
17.1642130059
 11
-54.1150388
 21
16.5120405382
  0
LINE
  5
510
100
AcDbEntity
  8
RACCORDO
100
AcDbLine
 62
250
  6
CONTINUOUS
 10
-54.1165891066
 20
16.8773306579
 11
-54.1171857674
 21
17.1642135721
  0
LINE
  5
511
100
AcDbEntity
  8
0
100
AcDbLine
 62
250
  6
CONTINUOUS
 10
-54.409803085
 20
17.2119339248
 11
-54.409803085
 21
-16.8937173278
  0
LINE
  5
512
100
AcDbEntity
  8
0
100
AcDbLine
 62
250
  6
CONTINUOUS
 10
-54.3696107061
 20
17.2119339248
 11
-54.3696107061
 21
16.9062826722
  0
LINE
  5
513
100
AcDbEntity
  8
0
100
AcDbLine
 62
250
  6
CONTINUOUS
 10
-54.3696107061
 20
-16.5880660752
 11
-54.3696107061
 21
-16.8937173278
  0
LINE
  5
514
100
AcDbEntity
  8
0
100
AcDbLine
 62
250
  6
CONTINUOUS
 10
-54.1171689342
 20
-16.2205363778
 11
-54.1172048873
 21
-16.195991125
  0
LINE
  5
515
100
AcDbEntity
  8
0
100
AcDbLine
 62
250
  6
CONTINUOUS
 10
-54.1150388069
 20
16.5120405382
 11
-54.1150388069
 21
-16.1938239412
  0
LINE
  5
516
100
AcDbEntity
  8
RACCORDO
100
AcDbLine
 62
250
  6
CONTINUOUS
 10
-54.1150388069
 20
11.7705400487
 11
-54.1150388069
 21
16.5120405382
  0
LINE
  5
517
100
AcDbEntity
  8
0
100
AcDbLine
 62
250
  6
CONTINUOUS
 10
-54.1170208545
 20
-17.0403929442
 11
-54.1171856643
 21
-16.8459964089
  0
LINE
  5
518
100
AcDbEntity
  8
0
100
AcDbLine
 62
250
  6
CONTINUOUS
 10
-54.1171928941
 20
16.530928085
 11
-54.1171929063
 21
16.5053334534
  0
LINE
  5
519
100
AcDbEntity
  8
RACCORDO
100
AcDbLine
 62
250
  6
CONTINUOUS
 10
-54.1171857674
 20
17.1642135721
 11
-54.1170208552
 21
17.3586095686
  0
LINE
  5
51A
100
AcDbEntity
  8
0
100
AcDbLine
 62
250
  6
CONTINUOUS
 10
-54.1171856643
 20
-16.8459964089
 11
-54.1165888716
 21
-16.5591135599
  0
LINE
  5
51B
100
AcDbEntity
  8
0
100
AcDbLine
 62
250
  6
CONTINUOUS
 10
-54.1169542495
 20
17.3779069932
 11
-54.1171856643
 21
17.1642130059
  0
LINE
  5
51C
100
AcDbEntity
  8
0
100
AcDbLine
 62
250
  6
CONTINUOUS
 10
-54.117085168
 20
-16.1585983914
 11
-54.1172048873
 21
-16.195991125
  0
LINE
  5
51D
100
AcDbEntity
  8
0
100
AcDbLine
 62
250
  6
CONTINUOUS
 10
-54.1165888689
 20
-16.5591140168
 11
-54.1150388
 21
-16.1938239412
  0
LINE
  5
51E
100
AcDbEntity
  8
0
100
AcDbLine
 62
250
  6
CONTINUOUS
 10
-54.1171928941
 20
16.530928085
 11
-54.1170851419
 21
16.553273514
  0
LINE
  5
51F
100
AcDbEntity
  8
0
100
AcDbLine
 62
250
  6
CONTINUOUS
 10
-54.1169542518
 20
17.3779072668
 11
-54.1165888716
 21
17.442747108
  0
LINE
  5
520
100
AcDbEntity
  8
RACCORDO
100
AcDbLine
 62
250
  6
CONTINUOUS
 10
-54.1170208552
 20
17.3586095686
 11
-54.1165891103
 21
17.4427474863
  0
LINE
  5
521
100
AcDbEntity
  8
0
100
AcDbLine
 62
250
  6
CONTINUOUS
 10
-54.1166689433
 20
-16.1055412295
 11
-54.117085168
 21
-16.1585983914
  0
LINE
  5
522
100
AcDbEntity
  8
0
100
AcDbLine
 62
250
  6
CONTINUOUS
 10
-54.1170851419
 20
16.553273514
 11
-54.1169537005
 21
16.5662168798
  0
LINE
  5
523
100
AcDbEntity
  8
0
100
AcDbLine
 62
250
  6
CONTINUOUS
 10
-54.1165888716
 20
17.442747108
 11
-54.1162148702
 21
17.4777989314
  0
LINE
  5
524
100
AcDbEntity
  8
RACCORDO
100
AcDbLine
 62
250
  6
CONTINUOUS
 10
-54.1165891103
 20
17.4427474863
 11
-54.1162151534
 21
17.4777994784
  0
LINE
  5
525
100
AcDbEntity
  8
0
100
AcDbLine
 62
250
  6
CONTINUOUS
 10
-54.1158033231
 20
-16.0358028024
 11
-54.1166689433
 21
-16.1055412295
  0
LINE
  5
526
100
AcDbEntity
  8
0
100
AcDbLine
 62
250
  6
CONTINUOUS
 10
-54.1158033231
 20
-16.0358028024
 11
-54.1150388147
 21
-15.9881574581
  0
LWPOLYLINE
  5
527
100
AcDbEntity
  8
0
100
AcDbPolyline
 62
250
  6
CONTINUOUS
 90
9
 70
0
 10
-54.1169537005
 20
16.5662168798
 10
-54.1167752006
 20
16.5774870382
 10
-54.1166685534
 20
16.5824675474
 10
-54.1165506872
 20
16.5869920814
 10
-54.1164217887
 20
16.5910537732
 10
-54.116282097
 20
16.5946462374
 10
-54.116132139
 20
16.5977599877
 10
-54.1159722309
 20
16.6003928024
 10
-54.1158026855
 20
16.6025431542
  0
LWPOLYLINE
  5
528
100
AcDbEntity
  8
RACCORDO
100
AcDbPolyline
 62
250
  6
CONTINUOUS
 90
7
 70
0
 10
-54.1162151534
 20
17.4777994784
 10
-54.1159203837
 20
17.4944420248
 10
-54.1157605701
 20
17.5007078521
 10
-54.1155918607
 20
17.5055913629
 10
-54.1154145164
 20
17.5090856516
 10
-54.1152298792
 20
17.5111856287
 10
-54.1150388069
 20
17.5118882333
  0
LINE
  5
529
100
AcDbEntity
  8
0
100
AcDbLine
 62
250
  6
CONTINUOUS
 10
-54.1159205646
 20
17.4944417854
 11
-54.1162148702
 21
17.4777989314
  0
LWPOLYLINE
  5
52A
100
AcDbEntity
  8
0
100
AcDbPolyline
 62
250
  6
CONTINUOUS
 90
3
 70
0
 10
-54.1159205661
 20
17.4944419685
 10
-54.1157602591
 20
17.5007077003
 10
-54.1155918623
 20
17.5055914447
  0
LINE
  5
52B
100
AcDbEntity
  8
0
100
AcDbLine
 62
7
  6
CONTINUOUS
 10
-54.4098023154
 20
-16.5880660333
 11
-54.4094003331
 21
-16.5725401166
  0
LINE
  5
52C
100
AcDbEntity
  8
0
100
AcDbLine
 62
7
  6
CONTINUOUS
 10
-54.4093713153
 20
17.2280232067
 11
-54.409803085
 21
17.2119339248
  0
LINE
  5
52D
100
AcDbEntity
  8
0
100
AcDbLine
 62
250
  6
CONTINUOUS
 10
-52.1612575178
 20
24.6460097198
 11
-52.1615435907
 21
24.6397952889
  0
LINE
  5
52E
100
AcDbEntity
  8
0
100
AcDbLine
 62
250
  6
CONTINUOUS
 10
-54.1154155968
 20
17.509085286
 11
-54.1155918597
 21
17.5055913843
  0
LINE
  5
52F
100
AcDbEntity
  8
0
100
AcDbLine
 62
7
  6
CONTINUOUS
 10
-49.909803085
 20
-5.5553917015
 11
-49.709803085
 21
-5.5553917015
  0
LINE
  5
530
100
AcDbEntity
  8
0
100
AcDbLine
 62
7
  6
CONTINUOUS
 10
-49.909803085
 20
-5.4259547015
 11
-49.709803085
 21
-5.4259547015
  0
LINE
  5
531
100
AcDbEntity
  8
0
100
AcDbLine
 62
7
  6
CONTINUOUS
 10
-49.909803085
 20
-5.0159347015
 11
-49.709803085
 21
-5.0159347015
  0
LINE
  5
532
100
AcDbEntity
  8
0
100
AcDbLine
 62
7
  6
CONTINUOUS
 10
-49.909803085
 20
-4.7425927015
 11
-49.709803085
 21
-4.7425927015
  0
LINE
  5
533
100
AcDbEntity
  8
0
100
AcDbLine
 62
7
  6
CONTINUOUS
 10
-49.909803085
 20
-4.3382297015
 11
-49.709803085
 21
-4.3382297015
  0
LINE
  5
534
100
AcDbEntity
  8
0
100
AcDbLine
 62
7
  6
CONTINUOUS
 10
-49.909803085
 20
-4.3325717015
 11
-49.709803085
 21
-4.3325717015
  0
LINE
  5
535
100
AcDbEntity
  8
0
100
AcDbLine
 62
7
  6
CONTINUOUS
 10
-49.909803085
 20
-3.9746727015
 11
-49.709803085
 21
-3.9746727015
  0
LINE
  5
536
100
AcDbEntity
  8
0
100
AcDbLine
 62
250
  6
CONTINUOUS
 10
-49.909803085
 20
-3.8393847015
 11
-49.709803085
 21
-3.8393847015
  0
LINE
  5
537
100
AcDbEntity
  8
0
100
AcDbLine
 62
250
  6
CONTINUOUS
 10
-49.909803085
 20
-3.7824757015
 11
-49.709803085
 21
-3.7824757015
  0
LINE
  5
538
100
AcDbEntity
  8
0
100
AcDbLine
 62
250
  6
CONTINUOUS
 10
-52.6970651172
 20
-4.8401301773
 11
-51.409803085
 21
-4.8625994196
  0
LINE
  5
539
100
AcDbEntity
  8
0
100
AcDbLine
 62
250
  6
CONTINUOUS
 10
-52.695319943
 20
-4.6401606382
 11
-51.409803085
 21
-4.6625994185
  0
LINE
  5
53A
100
AcDbEntity
  8
0
100
AcDbLine
 62
250
  6
CONTINUOUS
 10
-52.8221682067
 20
-4.6362675751
 11
-52.695319943
 21
-4.6401606382
  0
LINE
  5
53B
100
AcDbEntity
  8
0
100
AcDbLine
 62
7
  6
CONTINUOUS
 10
-52.8300567833
 20
-4.8360371873
 11
-52.6970651163
 21
-4.840130119
  0
LINE
  5
53C
100
AcDbEntity
  8
0
100
AcDbLine
 62
250
  6
CONTINUOUS
 10
-52.9489733333
 20
-4.6290162304
 11
-52.8140508311
 21
-4.6366173298
  0
LINE
  5
53D
100
AcDbEntity
  8
0
100
AcDbLine
 62
7
  6
CONTINUOUS
 10
-52.9629148179
 20
-4.8284065079
 11
-52.8297110111
 21
-4.8360523285
  0
LINE
  5
53E
100
AcDbEntity
  8
0
100
AcDbLine
 62
7
  6
CONTINUOUS
 10
-53.095532479
 20
-4.8172425462
 11
-52.9622153367
 21
-4.8284559299
  0
LINE
  5
53F
100
AcDbEntity
  8
0
100
AcDbLine
 62
7
  6
CONTINUOUS
 10
-53.2278067639
 20
-4.8025518127
 11
-53.0944722292
 21
-4.8173459229
  0
LINE
  5
540
100
AcDbEntity
  8
0
100
AcDbLine
 62
7
  6
CONTINUOUS
 10
-53.3596467386
 20
-4.7843453712
 11
-53.2263790919
 21
-4.8027294328
  0
LINE
  5
541
100
AcDbEntity
  8
0
100
AcDbLine
 62
7
  6
CONTINUOUS
 10
-53.4909639358
 20
-4.7626347365
 11
-53.3578463638
 21
-4.7846181119
  0
LINE
  5
542
100
AcDbEntity
  8
0
100
AcDbLine
 62
7
  6
CONTINUOUS
 10
-53.621669937
 20
-4.7374332363
 11
-53.4887875109
 21
-4.7630239296
  0
LINE
  5
543
100
AcDbEntity
  8
0
100
AcDbLine
 62
7
  6
CONTINUOUS
 10
-53.7516681691
 20
-4.7087598686
 11
-53.6191118578
 21
-4.7379611425
  0
LINE
  5
544
100
AcDbEntity
  8
0
100
AcDbLine
 62
7
  6
CONTINUOUS
 10
-53.8808587983
 20
-4.6766353934
 11
-53.7487278826
 21
-4.7094485337
  0
LWPOLYLINE
  5
545
100
AcDbEntity
  8
0
100
AcDbPolyline
 62
250
  6
CONTINUOUS
 90
11
 70
0
 10
-54.1929866843
 20
-4.3728948713
 10
-54.0720380749
 20
-4.4133053979
 10
-53.950055833
 20
-4.4504897462
 10
-53.8271524161
 20
-4.4844148088
 10
-53.7034136422
 20
-4.5150574976
 10
-53.578928983
 20
-4.5423987636
 10
-53.4538174624
 20
-4.5664162458
 10
-53.3281666386
 20
-4.5870962748
 10
-53.2020651833
 20
-4.6044292077
 10
-53.0756342668
 20
-4.6184041311
 10
-52.9327486299
 20
-4.6301319198
  0
LWPOLYLINE
  5
546
100
AcDbEntity
  8
0
100
AcDbPolyline
 62
250
  6
CONTINUOUS
 90
11
 70
0
 10
-54.2131231279
 20
-4.3658178837
 10
-54.1001309608
 20
-4.4042370564
 10
-53.9862148368
 20
-4.4398359498
 10
-53.8714503185
 20
-4.4725917839
 10
-53.7559320719
 20
-4.5024777936
 10
-53.6397316677
 20
-4.5294771292
 10
-53.5229225672
 20
-4.5535759732
 10
-53.4056033546
 20
-4.574756615
 10
-53.287846745
 20
-4.5930091038
 10
-53.16972372
 20
-4.6083271236
 10
-53.0513305028
 20
-4.6207025227
  0
LINE
  5
547
100
AcDbEntity
  8
0
100
AcDbLine
 62
7
  6
CONTINUOUS
 10
-48.9175967634
 20
-23.6232930295
 11
-48.9146885592
 21
-23.6360472678
  0
LINE
  5
548
100
AcDbEntity
  8
DRAFT
100
AcDbLine
 62
7
  6
CONTINUOUS
 10
-53.008201285
 20
0.1591082985
 11
-51.409803085
 21
-16.4408917015
  0
LINE
  5
549
100
AcDbEntity
  8
0
100
AcDbLine
 62
7
  6
CONTINUOUS
 10
-53.008201285
 20
0.1591082985
 11
-51.409803085
 21
-16.4408917015
  0
LINE
  5
54A
100
AcDbEntity
  8
0
100
AcDbLine
 62
7
  6
CONTINUOUS
 10
-51.702188662
 20
0.1591082985
 11
-49.909803085
 21
-18.4555276397
  0
LWPOLYLINE
  5
54B
100
AcDbEntity
  8
0
100
AcDbPolyline
 62
250
  6
CONTINUOUS
 90
3
 70
0
 10
-52.6970651172
 20
-4.8401301773
 10
-52.6973649288
 20
-4.8351540578
 10
-52.6974763581
 20
-4.8204865136
  0
LINE
  5
54C
100
AcDbEntity
  8
0
100
AcDbLine
 62
250
  6
CONTINUOUS
 10
-52.1612575178
 20
-24.3277931228
 11
-52.1615435907
 21
-24.3215786919
  0
LINE
  5
54D
100
AcDbEntity
  8
0
100
AcDbLine
 62
7
  6
CONTINUOUS
 10
-52.4094291157
 20
-24.0914664678
 11
-52.4098030847
 21
-24.0777973492
  0
LINE
  5
54E
100
AcDbEntity
  8
0
100
AcDbLine
 62
7
  6
CONTINUOUS
 10
-52.4094776331
 20
23.9906936425
 11
-52.4098030837
 21
24.0034459364
  0
LWPOLYLINE
  5
54F
100
AcDbEntity
  8
0
100
AcDbPolyline
 62
250
  6
CONTINUOUS
 90
3
 70
0
 10
-52.1615593981
 20
-24.3207444416
 10
-52.1615064735
 20
-24.3232739664
 10
-52.1614496904
 20
-24.3252474316
  0
LINE
  5
550
100
AcDbEntity
  8
0
100
AcDbLine
 62
250
  6
CONTINUOUS
 10
-52.6953199429
 20
4.9583772353
 11
-52.6966566826
 21
5.044781218
  0
LINE
  5
551
100
AcDbEntity
  8
0
100
AcDbLine
 62
250
  6
CONTINUOUS
 10
-52.161653201
 20
-24.3140413798
 11
-52.1615593981
 21
-24.3207444416
  0
LINE
  5
552
100
AcDbEntity
  8
0
100
AcDbLine
 62
250
  6
CONTINUOUS
 10
-52.1617455082
 20
-24.3028732375
 11
-52.161547369
 21
-24.3213857475
  0
LWPOLYLINE
  5
553
100
AcDbEntity
  8
0
100
AcDbPolyline
 62
250
  6
CONTINUOUS
 90
4
 70
0
 10
-52.6966566826
 20
5.044781218
 10
-52.6973911714
 20
5.1146575016
 10
-52.6974765532
 20
5.1384135309
 10
-52.6973680047
 20
5.1532215206
  0
LINE
  5
554
100
AcDbEntity
  8
0
100
AcDbLine
 62
250
  6
CONTINUOUS
 10
-52.1618471065
 20
-24.2731741653
 11
-52.1617302498
 21
-24.3051989477
  0
LINE
  5
555
100
AcDbEntity
  8
0
100
AcDbLine
 62
250
  6
CONTINUOUS
 10
-52.909803085
 20
-13.0408917015
 11
-52.909803085
 21
-15.1408916925
  0
LINE
  5
556
100
AcDbEntity
  8
0
100
AcDbLine
 62
250
  6
CONTINUOUS
 10
-52.909803085
 20
13.3591082985
 11
-52.909803085
 21
15.4591082895
  0
LINE
  5
557
100
AcDbEntity
  8
0
100
AcDbLine
 62
250
  6
CONTINUOUS
 10
-52.709803085
 20
-15.3408917015
 11
-52.709803085
 21
-12.8408917015
  0
LINE
  5
558
100
AcDbEntity
  8
0
100
AcDbLine
 62
250
  6
CONTINUOUS
 10
-52.709803085
 20
13.1591082985
 11
-52.709803085
 21
15.6591082985
  0
LINE
  5
559
100
AcDbEntity
  8
0
100
AcDbLine
 62
7
  6
CONTINUOUS
 10
-52.409803085
 20
-24.0777973536
 11
-52.409803085
 21
-23.6852292688
  0
LINE
  5
55A
100
AcDbEntity
  8
0
100
AcDbLine
 62
7
  6
CONTINUOUS
 10
-52.409803085
 20
24.0034458658
 11
-52.409803085
 21
24.3960139506
  0
LINE
  5
55B
100
AcDbEntity
  8
0
100
AcDbLine
 62
250
  6
CONTINUOUS
 10
-52.3808551714
 20
13.3591082985
 11
-52.3808551714
 21
13.1591082985
  0
LINE
  5
55C
100
AcDbEntity
  8
0
100
AcDbLine
 62
250
  6
CONTINUOUS
 10
-52.1618463016
 20
24.5919287435
 11
-52.1612575178
 21
24.396013942
  0
LINE
  5
55D
100
AcDbEntity
  8
0
100
AcDbLine
 62
250
  6
CONTINUOUS
 10
-52.1612575178
 20
24.3960139506
 11
-52.1612575178
 21
24.0034458658
  0
LINE
  5
55E
100
AcDbEntity
  8
0
100
AcDbLine
 62
250
  6
CONTINUOUS
 10
-52.1612575178
 20
-24.0777973536
 11
-52.1612575178
 21
-23.6852292688
  0
LINE
  5
55F
100
AcDbEntity
  8
0
100
AcDbLine
 62
7
  6
CONTINUOUS
 10
-51.409803085
 20
-21.6620511805
 11
-51.409803085
 21
-22.9635414323
  0
LINE
  5
560
100
AcDbEntity
  8
0
100
AcDbLine
 62
7
  6
CONTINUOUS
 10
-51.409803085
 20
-22.9635414323
 11
-51.409803085
 21
-23.8321649568
  0
LINE
  5
561
100
AcDbEntity
  8
DRAFT
100
AcDbLine
 62
7
  6
CONTINUOUS
 10
-51.409803085
 20
-21.6620511805
 11
-51.409803085
 21
-16.4408917015
  0
LINE
  5
562
100
AcDbEntity
  8
0
100
AcDbLine
 62
7
  6
CONTINUOUS
 10
-51.409803085
 20
-21.6620511805
 11
-51.409803085
 21
-0.3408917015
  0
LINE
  5
563
100
AcDbEntity
  8
DRAFT
100
AcDbLine
 62
7
  6
CONTINUOUS
 10
-51.409803085
 20
16.7591082985
 11
-51.409803085
 21
21.9802677775
  0
LINE
  5
564
100
AcDbEntity
  8
0
100
AcDbLine
 62
7
  6
CONTINUOUS
 10
-51.409803085
 20
0.6591082985
 11
-51.409803085
 21
21.9802677775
  0
LINE
  5
565
100
AcDbEntity
  8
0
100
AcDbLine
 62
7
  6
CONTINUOUS
 10
-51.409803085
 20
21.9802677775
 11
-51.409803085
 21
23.2817580293
  0
LINE
  5
566
100
AcDbEntity
  8
0
100
AcDbLine
 62
7
  6
CONTINUOUS
 10
-51.409803085
 20
23.2817580293
 11
-51.409803085
 21
24.1503815538
  0
LINE
  5
567
100
AcDbEntity
  8
0
100
AcDbLine
 62
250
  6
CONTINUOUS
 10
-52.1617302498
 20
-24.1816472502
 11
-52.1618453832
 21
-24.2743042902
  0
LINE
  5
568
100
AcDbEntity
  8
0
100
AcDbLine
 62
250
  6
CONTINUOUS
 10
-52.1617431582
 20
24.6214646107
 11
-52.1618546884
 21
24.5849451245
  0
LINE
  5
569
100
AcDbEntity
  8
0
100
AcDbLine
 62
250
  6
CONTINUOUS
 10
-52.6973911722
 20
-4.7964409287
 11
-52.6974765543
 21
-4.82019697
  0
LINE
  5
56A
100
AcDbEntity
  8
0
100
AcDbLine
 62
250
  6
CONTINUOUS
 10
-52.1617455082
 20
-24.1865956691
 11
-52.1612575178
 21
-24.077797345
  0
LINE
  5
56B
100
AcDbEntity
  8
0
100
AcDbLine
 62
250
  6
CONTINUOUS
 10
-52.1616938669
 20
24.6280996238
 11
-52.1618471065
 21
24.5913907623
  0
LWPOLYLINE
  5
56C
100
AcDbEntity
  8
0
100
AcDbPolyline
 62
250
  6
CONTINUOUS
 90
3
 70
0
 10
-52.1617455082
 20
24.6210898345
 10
-52.161547369
 20
24.6396023446
 10
-52.1612575178
 20
24.6460097198
  0
LINE
  5
56D
100
AcDbEntity
  8
0
100
AcDbLine
 62
250
  6
CONTINUOUS
 10
-52.6966566824
 20
-4.7265646175
 11
-52.6973938667
 21
-4.7968565405
  0
LINE
  5
56E
100
AcDbEntity
  8
0
100
AcDbLine
 62
250
  6
CONTINUOUS
 10
-52.696664656
 20
-4.7271661812
 11
-52.695319943
 21
-4.6401606396
  0
LWPOLYLINE
  5
56F
100
AcDbEntity
  8
0
100
AcDbPolyline
 62
250
  6
CONTINUOUS
 90
4
 70
0
 10
-52.1614496904
 20
24.6434640286
 10
-52.1615064735
 20
24.6414905634
 10
-52.1615593981
 20
24.6389610386
 10
-52.1616083442
 20
24.6358811842
  0
LINE
  5
570
100
AcDbEntity
  8
0
100
AcDbLine
 62
250
  6
CONTINUOUS
 10
-52.6973680048
 20
5.1532215234
 11
-52.697065116
 21
5.1583467139
  0
LWPOLYLINE
  5
571
100
AcDbEntity
  8
0
100
AcDbPolyline
 62
7
  6
CONTINUOUS
 90
25
 70
0
 10
-54.4094002369
 20
-16.57254004
 10
-54.4081952898
 20
-16.5570558273
 10
-54.4061905997
 20
-16.5416546785
 10
-54.4033915399
 20
-16.5263779078
 10
-54.3998056049
 20
-16.5112664374
 10
-54.395442366
 20
-16.4963606625
 10
-54.3903134661
 20
-16.4817004613
 10
-54.3844326391
 20
-16.4673251862
 10
-54.3778156609
 20
-16.4532734565
 10
-54.3704802775
 20
-16.4395829823
 10
-54.3624461247
 20
-16.4262904326
 10
-54.353734755
 20
-16.4134314838
 10
-54.3443695364
 20
-16.4010406341
 10
-54.334375556
 20
-16.3891510787
 10
-54.323779618
 20
-16.3777947082
 10
-54.3126101446
 20
-16.3670019809
 10
-54.3008970716
 20
-16.3568018173
 10
-54.2886717927
 20
-16.3472215526
 10
-54.2759670768
 20
-16.338286863
 10
-54.2628169822
 20
-16.3300216976
 10
-54.2492567526
 20
-16.3224482054
 10
-54.2353227288
 20
-16.3155866822
 10
-54.2210522643
 20
-16.309455521
 10
-54.206483606
 20
-16.3040711536
 10
-54.1916557963
 20
-16.2994480098
  0
LINE
  5
572
100
AcDbEntity
  8
DRAFT
100
AcDbLine
 62
7
  6
CONTINUOUS
 10
-51.409803085
 20
16.7591082985
 11
-53.008201285
 21
0.1591082985
  0
LINE
  5
573
100
AcDbEntity
  8
0
100
AcDbLine
 62
7
  6
CONTINUOUS
 10
-51.409803085
 20
16.7591082985
 11
-53.008201285
 21
0.1591082985
  0
LINE
  5
574
100
AcDbEntity
  8
0
100
AcDbLine
 62
7
  6
CONTINUOUS
 10
-49.909803085
 20
18.7737442367
 11
-51.702188662
 21
0.1591082985
  0
LWPOLYLINE
  5
575
100
AcDbEntity
  8
0
100
AcDbPolyline
 62
7
  6
CONTINUOUS
 90
19
 70
0
 10
-48.9110129663
 20
23.9788801154
 10
-48.9124963701
 20
23.9668482049
 10
-48.9145573406
 20
23.9549224191
 10
-48.9171973609
 20
23.9430930495
 10
-48.9203911139
 20
23.9314603948
 10
-48.9241105137
 20
23.920085133
 10
-48.9283656778
 20
23.908911605
 10
-48.9331312174
 20
23.8979950989
 10
-48.9383696864
 20
23.8873973855
 10
-48.9440735528
 20
23.877109929
 10
-48.9502412934
 20
23.8671232509
 10
-48.95686698
 20
23.8574426564
 10
-48.9639307831
 20
23.8480945178
 10
-48.9714248493
 20
23.839087598
 10
-48.9793415026
 20
23.8304325218
 10
-48.9876529494
 20
23.8221606464
 10
-48.996351558
 20
23.8142803345
 10
-49.0054384919
 20
23.8067949762
 10
-49.0148947353
 20
23.799726528
  0
LWPOLYLINE
  5
576
100
AcDbEntity
  8
0
100
AcDbPolyline
 62
250
  6
CONTINUOUS
 90
4
 70
0
 10
-57.1436885572
 20
-1.9489414883
 10
-57.1434010146
 20
-1.94876543
 10
-57.1425070702
 20
-1.9483072659
 10
-57.1410097138
 20
-1.9475685412
  0
LINE
  5
577
100
AcDbEntity
  8
0
100
AcDbLine
 62
7
  6
CONTINUOUS
 10
-49.909803085
 20
-3.5899457015
 11
-49.709803085
 21
-3.5899457015
  0
LINE
  5
578
100
AcDbEntity
  8
0
100
AcDbLine
 62
7
  6
CONTINUOUS
 10
-49.909803085
 20
-3.5637857015
 11
-49.709803085
 21
-3.5637857015
  0
LINE
  5
579
100
AcDbEntity
  8
0
100
AcDbLine
 62
7
  6
CONTINUOUS
 10
-49.909803085
 20
-3.5384074854
 11
-49.709803085
 21
-3.5384087015
  0
LINE
  5
57A
100
AcDbEntity
  8
0
100
AcDbLine
 62
7
  6
CONTINUOUS
 10
-49.909803085
 20
-3.153768559
 11
-49.709803085
 21
-3.153768559
  0
LINE
  5
57B
100
AcDbEntity
  8
0
100
AcDbLine
 62
7
  6
CONTINUOUS
 10
-49.909803085
 20
-3.1019667015
 11
-49.709803085
 21
-3.1019667015
  0
LINE
  5
57C
100
AcDbEntity
  8
0
100
AcDbLine
 62
250
  6
CONTINUOUS
 10
-56.9640791958
 20
-1.8646198459
 11
-57.1037552466
 21
-1.8646198459
  0
LINE
  5
57D
100
AcDbEntity
  8
0
100
AcDbLine
 62
7
  6
CONTINUOUS
 10
-50.0923719364
 20
-2.7374303332
 11
-55.909803085
 21
-2.2284710568
  0
LINE
  5
57E
100
AcDbEntity
  8
0
100
AcDbLine
 62
7
  6
CONTINUOUS
 10
-48.914883897
 20
-23.6350835701
 11
-48.9125618891
 21
-23.6481915708
  0
LINE
  5
57F
100
AcDbEntity
  8
0
100
AcDbLine
 62
7
  6
CONTINUOUS
 10
-48.9127077685
 20
-23.6472305256
 11
-48.9110325751
 21
-23.6604657466
  0
LINE
  5
580
100
AcDbEntity
  8
0
100
AcDbLine
 62
7
  6
CONTINUOUS
 10
-48.9111143767
 20
-23.6596572843
 11
-48.9101110812
 21
-23.6728235821
  0
LINE
  5
581
100
AcDbEntity
  8
0
100
AcDbLine
 62
7
  6
CONTINUOUS
 10
-52.4094966616
 20
23.9910718344
 11
-52.4084917932
 21
23.9778738814
  0
LWPOLYLINE
  5
582
100
AcDbEntity
  8
0
100
AcDbPolyline
 62
7
  6
CONTINUOUS
 90
26
 70
0
 10
-50.409803085
 20
-23.6391429679
 10
-50.4094313777
 20
-23.6513307231
 10
-50.4083454051
 20
-23.6632457724
 10
-50.4065774965
 20
-23.6749176932
 10
-50.4041365487
 20
-23.6864135175
 10
-50.4010318498
 20
-23.697722479
 10
-50.3973037132
 20
-23.70873833
 10
-50.3929800577
 20
-23.7194311771
 10
-50.3880615976
 20
-23.7298287022
 10
-50.3825798864
 20
-23.7398811279
 10
-50.3765712006
 20
-23.7495440337
 10
-50.370042935
 20
-23.7588224998
 10
-50.3629961762
 20
-23.7677193141
 10
-50.3554620577
 20
-23.7761957439
 10
-50.3474588985
 20
-23.7842321713
 10
-50.3389659837
 20
-23.7918418402
 10
-50.3299624261
 20
-23.7990233378
 10
-50.3205176854
 20
-23.805703098
 10
-50.3107629085
 20
-23.8117903369
 10
-50.3008552817
 20
-23.8172145742
 10
-50.2907439543
 20
-23.8220324855
 10
-50.2802448242
 20
-23.8263272657
 10
-50.2692997937
 20
-23.8300883569
 10
-50.2580305281
 20
-23.8332411739
 10
-50.2465113348
 20
-23.8357453697
 10
-50.2342184888
 20
-23.8376470885
  0
LINE
  5
583
100
AcDbEntity
  8
0
100
AcDbLine
 62
7
  6
CONTINUOUS
 10
-48.9101285368
 20
-23.6724770455
 11
-48.9098030862
 21
-23.6852293394
  0
LINE
  5
584
100
AcDbEntity
  8
0
100
AcDbLine
 62
250
  6
CONTINUOUS
 10
-50.2109666312
 20
24.1573561803
 11
-50.2098030849
 21
23.9573595561
  0
LINE
  5
585
100
AcDbEntity
  8
0
100
AcDbLine
 62
250
  6
CONTINUOUS
 10
-51.3167829845
 20
-14.7625008651
 11
-51.3167829845
 21
-15.3441388069
  0
LINE
  5
586
100
AcDbEntity
  8
0
100
AcDbLine
 62
250
  6
CONTINUOUS
 10
-51.3167829845
 20
15.0807174622
 11
-51.3167829845
 21
15.662355404
  0
LINE
  5
587
100
AcDbEntity
  8
0
100
AcDbLine
 62
250
  6
CONTINUOUS
 10
-51.1612575178
 20
23.4260955966
 11
-51.1612575178
 21
22.4935223508
  0
LINE
  5
588
100
AcDbEntity
  8
0
100
AcDbLine
 62
250
  6
CONTINUOUS
 10
-51.1612575178
 20
-23.1078789996
 11
-51.1612575178
 21
-22.1753057538
  0
LINE
  5
589
100
AcDbEntity
  8
0
100
AcDbLine
 62
250
  6
CONTINUOUS
 10
-51.109803085
 20
-15.1442618693
 11
-51.109803085
 21
-14.646429885
  0
LINE
  5
58A
100
AcDbEntity
  8
0
100
AcDbLine
 62
250
  6
CONTINUOUS
 10
-51.109803085
 20
14.964646482
 11
-51.109803085
 21
15.4624784664
  0
LINE
  5
58B
100
AcDbEntity
  8
0
100
AcDbLine
 62
7
  6
CONTINUOUS
 10
-50.709803085
 20
12.6961337542
 11
-50.709803085
 21
10.3926255609
  0
LINE
  5
58C
100
AcDbEntity
  8
0
100
AcDbLine
 62
7
  6
CONTINUOUS
 10
-50.709803085
 20
-10.0744089639
 11
-50.709803085
 21
-12.3779171572
  0
LINE
  5
58D
100
AcDbEntity
  8
0
100
AcDbLine
 62
250
  6
CONTINUOUS
 10
-50.409803085
 20
23.9573595649
 11
-50.409803085
 21
22.5329044089
  0
LINE
  5
58E
100
AcDbEntity
  8
0
100
AcDbLine
 62
250
  6
CONTINUOUS
 10
-50.409803085
 20
-23.6391429679
 11
-50.409803085
 21
-22.2146878119
  0
LINE
  5
58F
100
AcDbEntity
  8
0
100
AcDbLine
 62
250
  6
CONTINUOUS
 10
-50.209803085
 20
23.9573595649
 11
-50.209803085
 21
22.5433859647
  0
LINE
  5
590
100
AcDbEntity
  8
0
100
AcDbLine
 62
250
  6
CONTINUOUS
 10
-50.209803085
 20
-23.6391429679
 11
-50.209803085
 21
-22.2251693677
  0
LINE
  5
591
100
AcDbEntity
  8
0
100
AcDbLine
 62
250
  6
CONTINUOUS
 10
-50.1167829841
 20
-16.0957384446
 11
-50.1167829793
 21
-7.3860449586
  0
LINE
  5
592
100
AcDbEntity
  8
0
100
AcDbLine
 62
250
  6
CONTINUOUS
 10
-50.1167829793
 20
7.7042615556
 11
-50.1167829841
 21
16.4139550416
  0
LINE
  5
593
100
AcDbEntity
  8
0
100
AcDbLine
 62
250
  6
CONTINUOUS
 10
-50.1080577779
 20
3.0542745969
 11
-50.1080577779
 21
-2.7360579998
  0
LINE
  5
594
100
AcDbEntity
  8
0
100
AcDbLine
 62
7
  6
CONTINUOUS
 10
-49.909803085
 20
-24.3408917015
 11
-49.909803085
 21
24.6591082985
  0
LINE
  5
595
100
AcDbEntity
  8
0
100
AcDbLine
 62
7
  6
CONTINUOUS
 10
-49.709803085
 20
-5.0159347015
 11
-49.709803085
 21
-6.7423977015
  0
LINE
  5
596
100
AcDbEntity
  8
0
100
AcDbLine
 62
7
  6
CONTINUOUS
 10
-49.709803085
 20
-7.0157397015
 11
-49.709803085
 21
-9.0210707015
  0
LINE
  5
597
100
AcDbEntity
  8
0
100
AcDbLine
 62
7
  6
CONTINUOUS
 10
-49.709803085
 20
-9.4310707015
 11
-49.709803085
 21
-9.8410857015
  0
LINE
  5
598
100
AcDbEntity
  8
0
100
AcDbLine
 62
7
  6
CONTINUOUS
 10
-49.709803085
 20
-10.1144277015
 11
-49.709803085
 21
-11.8408917015
  0
LINE
  5
599
100
AcDbEntity
  8
0
100
AcDbLine
 62
7
  6
CONTINUOUS
 10
-49.709803085
 20
-4.7425927015
 11
-49.709803085
 21
-3.1019667015
  0
LINE
  5
59A
100
AcDbEntity
  8
0
100
AcDbLine
 62
250
  6
CONTINUOUS
 10
-50.2109666312
 20
-23.8391395832
 11
-50.2098030849
 21
-23.6391429591
  0
LINE
  5
59B
100
AcDbEntity
  8
0
100
AcDbLine
 62
7
  6
CONTINUOUS
 10
-48.909803085
 20
24.0034458658
 11
-48.910139161
 21
23.9904873188
  0
LWPOLYLINE
  5
59C
100
AcDbEntity
  8
0
100
AcDbPolyline
 62
7
  6
CONTINUOUS
 90
25
 70
0
 10
-50.409803085
 20
23.9573595649
 10
-50.4094313777
 20
23.9695473201
 10
-50.4083454051
 20
23.9814623694
 10
-50.4065774965
 20
23.9931342902
 10
-50.4041365487
 20
24.0046301145
 10
-50.4010318498
 20
24.015939076
 10
-50.3973037132
 20
24.026954927
 10
-50.3929800577
 20
24.0376477741
 10
-50.3880615976
 20
24.0480452992
 10
-50.3825798864
 20
24.0580977249
 10
-50.3765712006
 20
24.0677606307
 10
-50.370042935
 20
24.0770390968
 10
-50.3629961762
 20
24.0859359111
 10
-50.3554620577
 20
24.0944123409
 10
-50.3474588985
 20
24.1024487683
 10
-50.3389659837
 20
24.1100584372
 10
-50.3299624261
 20
24.1172399348
 10
-50.3205176854
 20
24.123919695
 10
-50.3107629085
 20
24.1300069339
 10
-50.3008552817
 20
24.1354311712
 10
-50.2907439543
 20
24.1402490825
 10
-50.2802448242
 20
24.1445438628
 10
-50.2692997937
 20
24.1483049539
 10
-50.2580305281
 20
24.1514577709
 10
-50.2465113348
 20
24.1539619667
  0
LWPOLYLINE
  5
59D
100
AcDbEntity
  8
0
100
AcDbPolyline
 62
7
  6
CONTINUOUS
 90
19
 70
0
 10
-48.9101095083
 20
23.9910718344
 10
-48.9111294541
 20
23.9777276882
 10
-48.9127550214
 20
23.9651411104
 10
-48.9150160588
 20
23.9526589401
 10
-48.9179089235
 20
23.9403014727
 10
-48.9213994027
 20
23.9281884125
 10
-48.9254701965
 20
23.9163361801
 10
-48.9301229175
 20
23.9047188662
 10
-48.9353197486
 20
23.8934129993
 10
-48.9410277625
 20
23.8824609159
 10
-48.9472466389
 20
23.8718413174
 10
-48.9539724949
 20
23.8615523558
 10
-48.9611888001
 20
23.8516158104
 10
-48.9688793678
 20
23.8420515222
 10
-48.9770377323
 20
23.8328679485
 10
-48.9856389687
 20
23.8240946448
 10
-48.9946647649
 20
23.8157510732
 10
-49.0041167302
 20
23.8078397337
 10
-49.0139791121
 20
23.8003809315
  0
LWPOLYLINE
  5
59E
100
AcDbEntity
  8
0
100
AcDbPolyline
 62
7
  6
CONTINUOUS
 90
4
 70
0
 10
-52.4068984015
 20
-23.6472305256
 10
-52.4084917932
 20
-23.6596572843
 10
-52.4094776331
 20
-23.6724770455
 10
-52.4098030837
 20
-23.6852293394
  0
LINE
  5
59F
100
AcDbEntity
  8
0
100
AcDbLine
 62
250
  6
CONTINUOUS
 10
-51.409803085
 20
-8.2855357545
 11
-52.2130352452
 21
-12.8408917015
  0
LINE
  5
5A0
100
AcDbEntity
  8
0
100
AcDbLine
 62
250
  6
CONTINUOUS
 10
-51.409803085
 20
-9.4372898511
 11
-52.0452153189
 21
-13.0408917015
  0
LINE
  5
5A1
100
AcDbEntity
  8
0
100
AcDbLine
 62
250
  6
CONTINUOUS
 10
-57.1410097138
 20
-1.9475685412
 11
-57.1362268059
 21
-1.9452602956
  0
LINE
  5
5A2
100
AcDbEntity
  8
0
100
AcDbLine
 62
250
  6
CONTINUOUS
 10
-57.1362268059
 20
-1.9452602956
 11
-57.1197734733
 21
-1.9374477431
  0
LINE
  5
5A3
100
AcDbEntity
  8
0
100
AcDbLine
 62
250
  6
CONTINUOUS
 10
-57.1197734737
 20
-1.9374477422
 11
-57.0157553625
 21
-1.8887022738
  0
LINE
  5
5A4
100
AcDbEntity
  8
0
100
AcDbLine
 62
250
  6
CONTINUOUS
 10
-57.0157553625
 20
-1.8887022738
 11
-56.9640784396
 21
-1.8646194941
  0
LINE
  5
5A5
100
AcDbEntity
  8
0
100
AcDbLine
 62
7
  6
CONTINUOUS
 10
-55.4833592305
 20
-0.6334480963
 11
-55.909803085
 21
-0.6408917015
  0
LINE
  5
5A6
100
AcDbEntity
  8
0
100
AcDbLine
 62
7
  6
CONTINUOUS
 10
-54.1124210456
 20
-0.3173063119
 11
-51.409803085
 21
-0.3408917015
  0
LINE
  5
5A7
100
AcDbEntity
  8
0
100
AcDbLine
 62
250
  6
CONTINUOUS
 10
-56.9640783478
 20
2.1828360484
 11
-57.1124120829
 21
2.2521912477
  0
LINE
  5
5A8
100
AcDbEntity
  8
0
100
AcDbLine
 62
250
  6
CONTINUOUS
 10
-57.1083230814
 20
2.2502649596
 11
-57.1329570797
 21
2.2619153057
  0
LINE
  5
5A9
100
AcDbEntity
  8
0
100
AcDbLine
 62
250
  6
CONTINUOUS
 10
-57.132252462
 20
2.2615795186
 11
-57.1389137764
 21
2.2647684904
  0
LWPOLYLINE
  5
5AA
100
AcDbEntity
  8
0
100
AcDbPolyline
 62
250
  6
CONTINUOUS
 90
5
 70
0
 10
-57.1385977824
 20
2.2646161947
 10
-57.1408314938
 20
2.2656985094
 10
-57.1424278997
 20
2.2664845997
 10
-57.1433813438
 20
2.2669716885
 10
-57.1436884625
 20
2.2671580413
  0
LINE
  5
5AB
100
AcDbEntity
  8
0
100
AcDbLine
 62
250
  6
CONTINUOUS
 10
-52.1838936208
 20
12.993837934
 11
-51.409803085
 21
8.6037523515
  0
LINE
  5
5AC
100
AcDbEntity
  8
0
100
AcDbLine
 62
250
  6
CONTINUOUS
 10
-51.9869320702
 20
13.0285675696
 11
-51.409803085
 21
9.7555064482
  0
LWPOLYLINE
  5
5AD
100
AcDbEntity
  8
0
100
AcDbPolyline
 62
7
  6
CONTINUOUS
 90
3
 70
0
 10
-52.4071097998
 20
23.9668482049
 10
-52.4086825873
 20
23.9798028603
 10
-52.4095224308
 20
23.9916033087
  0
LINE
  5
5AE
100
AcDbEntity
  8
0
100
AcDbLine
 62
250
  6
CONTINUOUS
 10
-49.1583486521
 20
24.6547364645
 11
-49.1580625792
 21
24.6485220336
  0
LWPOLYLINE
  5
5AF
100
AcDbEntity
  8
0
100
AcDbPolyline
 62
250
  6
CONTINUOUS
 90
3
 70
0
 10
-49.1581566936
 20
24.6521969471
 10
-49.1580999084
 20
24.6502260011
 10
-49.1580469577
 20
24.6476980112
  0
LINE
  5
5B0
100
AcDbEntity
  8
0
100
AcDbLine
 62
250
  6
CONTINUOUS
 10
-49.1580469577
 20
24.6476980112
 11
-49.157953113
 21
24.6409978228
  0
LINE
  5
5B1
100
AcDbEntity
  8
0
100
AcDbLine
 62
250
  6
CONTINUOUS
 10
-49.1578606617
 20
24.6298165792
 11
-49.1580588009
 21
24.6483290893
  0
LINE
  5
5B2
100
AcDbEntity
  8
0
100
AcDbLine
 62
250
  6
CONTINUOUS
 10
-49.1577590634
 20
24.6001175071
 11
-49.1578760303
 21
24.6321581948
  0
LINE
  5
5B3
100
AcDbEntity
  8
0
100
AcDbLine
 62
250
  6
CONTINUOUS
 10
-49.1583486522
 20
-24.0865240897
 11
-49.1577514669
 21
-24.2502524314
  0
LINE
  5
5B4
100
AcDbEntity
  8
0
100
AcDbLine
 62
250
  6
CONTINUOUS
 10
-49.1583486521
 20
24.4047406953
 11
-49.1583486521
 21
24.0034458658
  0
LINE
  5
5B5
100
AcDbEntity
  8
0
100
AcDbLine
 62
250
  6
CONTINUOUS
 10
-49.1583486521
 20
-24.0865240983
 11
-49.1583486521
 21
-23.6852292688
  0
LINE
  5
5B6
100
AcDbEntity
  8
0
100
AcDbLine
 62
7
  6
CONTINUOUS
 10
-48.909803085
 20
24.4047406953
 11
-48.909803085
 21
24.0034458658
  0
LINE
  5
5B7
100
AcDbEntity
  8
0
100
AcDbLine
 62
7
  6
CONTINUOUS
 10
-48.909803085
 20
-22.2350738717
 11
-48.909803085
 21
-18.3491822259
  0
LINE
  5
5B8
100
AcDbEntity
  8
0
100
AcDbLine
 62
7
  6
CONTINUOUS
 10
-48.909803085
 20
-23.6852292688
 11
-48.909803085
 21
-24.0865240983
  0
LINE
  5
5B9
100
AcDbEntity
  8
0
100
AcDbLine
 62
7
  6
CONTINUOUS
 10
-48.909803085
 20
-22.2350738717
 11
-48.909803085
 21
-23.6852292688
  0
LINE
  5
5BA
100
AcDbEntity
  8
0
100
AcDbLine
 62
7
  6
CONTINUOUS
 10
-48.909803085
 20
18.6673988229
 11
-48.909803085
 21
22.5532904687
  0
LINE
  5
5BB
100
AcDbEntity
  8
0
100
AcDbLine
 62
7
  6
CONTINUOUS
 10
-48.909803085
 20
-18.3491822259
 11
-48.909803085
 21
18.6673988229
  0
LINE
  5
5BC
100
AcDbEntity
  8
0
100
AcDbLine
 62
7
  6
CONTINUOUS
 10
-48.909803085
 20
22.5532904687
 11
-48.909803085
 21
24.0034458658
  0
LINE
  5
5BD
100
AcDbEntity
  8
0
100
AcDbLine
 62
7
  6
CONTINUOUS
 10
-47.909803085
 20
21.5765633634
 11
-47.909803085
 21
-21.2583467664
  0
LWPOLYLINE
  5
5BE
100
AcDbEntity
  8
0
100
AcDbPolyline
 62
250
  6
CONTINUOUS
 90
4
 70
0
 10
-49.1577598683
 20
-24.2418084155
 10
-49.1578606617
 20
-24.3115999822
 10
-49.1580588009
 20
-24.3301124923
 10
-49.1583486522
 20
-24.3365198675
  0
LINE
  5
5BF
100
AcDbEntity
  8
0
100
AcDbLine
 62
250
  6
CONTINUOUS
 10
-49.1583486521
 20
24.4047406953
 11
-49.157760817
 21
24.601266768
  0
LINE
  5
5C0
100
AcDbEntity
  8
0
100
AcDbLine
 62
250
  6
CONTINUOUS
 10
-49.1581564551
 20
24.4403229548
 11
-49.1582169754
 21
24.4285070725
  0
LINE
  5
5C1
100
AcDbEntity
  8
0
100
AcDbLine
 62
250
  6
CONTINUOUS
 10
-49.1577598683
 20
-24.2824388912
 11
-49.1579124303
 21
-24.3186243714
  0
LWPOLYLINE
  5
5C2
100
AcDbEntity
  8
0
100
AcDbPolyline
 62
250
  6
CONTINUOUS
 90
4
 70
0
 10
-49.1579979868
 20
-24.3264028356
 10
-49.1580469577
 20
-24.3294814142
 10
-49.1580999084
 20
-24.3320094041
 10
-49.1581566936
 20
-24.3339803501
  0
LINE
  5
5C3
100
AcDbEntity
  8
0
100
AcDbLine
 62
250
  6
CONTINUOUS
 10
-51.1337484375
 20
-13.5908917015
 11
-51.3167827207
 21
-14.762500905
  0
LINE
  5
5C4
100
AcDbEntity
  8
0
100
AcDbLine
 62
7
  6
CONTINUOUS
 10
-49.909803085
 20
-5.5373835082
 11
-50.709803085
 21
-10.0744089639
  0
LINE
  5
5C5
100
AcDbEntity
  8
0
100
AcDbLine
 62
250
  6
CONTINUOUS
 10
-50.1167829843
 20
-7.8233939688
 11
-51.1337484458
 21
-13.5908917015
  0
LINE
  5
5C6
100
AcDbEntity
  8
0
100
AcDbLine
 62
250
  6
CONTINUOUS
 10
-51.1111611702
 20
-14.654131969
 11
-49.909803085
 21
-7.8408917015
  0
LINE
  5
5C7
100
AcDbEntity
  8
0
100
AcDbLine
 62
7
  6
CONTINUOUS
 10
-52.4068984015
 20
-23.6472305256
 11
-52.4045901111
 21
-23.6344423431
  0
LWPOLYLINE
  5
5C8
100
AcDbEntity
  8
0
100
AcDbPolyline
 62
7
  6
CONTINUOUS
 90
21
 70
0
 10
-51.1111611702
 20
-14.654131969
 10
-51.11256238
 20
-14.660655238
 10
-51.1144504682
 20
-14.6671009363
 10
-51.1168206219
 20
-14.6734524844
 10
-51.1196668348
 20
-14.6796927179
 10
-51.1229819395
 20
-14.6858062819
 10
-51.1267576351
 20
-14.6917797165
 10
-51.1309844721
 20
-14.6975975111
 10
-51.1356518945
 20
-14.7032445743
 10
-51.1407483
 20
-14.7087086969
 10
-51.1462610063
 20
-14.7139756342
 10
-51.1521763123
 20
-14.7190316238
 10
-51.1584795763
 20
-14.7238659606
 10
-51.1651551691
 20
-14.7284659702
 10
-51.1721865509
 20
-14.7328195263
 10
-51.1795563657
 20
-14.7369176618
 10
-51.1872463859
 20
-14.7407495364
 10
-51.1952376003
 20
-14.7443049231
 10
-51.2035103202
 20
-14.7475768024
 10
-51.2120441229
 20
-14.7505563867
 10
-51.2208179465
 20
-14.7532355637
  0
LINE
  5
5C9
100
AcDbEntity
  8
0
100
AcDbLine
 62
7
  6
CONTINUOUS
 10
-54.1124210456
 20
0.6355229089
 11
-51.409803085
 21
0.6591082985
  0
LINE
  5
5CA
100
AcDbEntity
  8
0
100
AcDbLine
 62
250
  6
CONTINUOUS
 10
-56.9640791958
 20
2.1828364429
 11
-57.1037552466
 21
2.1828364429
  0
LINE
  5
5CB
100
AcDbEntity
  8
0
100
AcDbLine
 62
7
  6
CONTINUOUS
 10
-55.909803085
 20
0.9591082985
 11
-55.4833592305
 21
0.9516646933
  0
LINE
  5
5CC
100
AcDbEntity
  8
0
100
AcDbLine
 62
7
  6
CONTINUOUS
 10
-51.1111611702
 20
14.972348566
 11
-51.1125625979
 21
14.9788742868
  0
LINE
  5
5CD
100
AcDbEntity
  8
0
100
AcDbLine
 62
7
  6
CONTINUOUS
 10
-50.709803085
 20
10.3926255609
 11
-49.909803085
 21
5.8556001053
  0
LINE
  5
5CE
100
AcDbEntity
  8
0
100
AcDbLine
 62
250
  6
CONTINUOUS
 10
-51.1337484458
 20
13.9091082985
 11
-50.1167829843
 21
8.1416105658
  0
LINE
  5
5CF
100
AcDbEntity
  8
0
100
AcDbLine
 62
250
  6
CONTINUOUS
 10
-51.1111611702
 20
14.972348566
 11
-49.909803085
 21
8.1591082985
  0
LWPOLYLINE
  5
5D0
100
AcDbEntity
  8
0
100
AcDbPolyline
 62
7
  6
CONTINUOUS
 90
6
 70
0
 10
-52.4071097998
 20
23.9668482049
 10
-52.4050488293
 20
23.9549224191
 10
-52.4024088091
 20
23.9430930495
 10
-52.399215056
 20
23.9314603948
 10
-52.3954956562
 20
23.920085133
 10
-52.3912404921
 20
23.908911605
  0
LINE
  5
5D1
100
AcDbEntity
  8
0
100
AcDbLine
 62
250
  6
CONTINUOUS
 10
-51.1337484375
 20
13.9091082985
 11
-51.3167827207
 21
15.080717502
  0
LWPOLYLINE
  5
5D2
100
AcDbEntity
  8
0
100
AcDbPolyline
 62
7
  6
CONTINUOUS
 90
4
 70
0
 43
0.3500000006
 10
-47.2952287903
 20
46.2500727081
 10
-47.2952287903
 20
47.1072151794
 10
-46.8666552887
 20
47.5357841492
 10
-46.2238018341
 20
47.5357841492
  0
LWPOLYLINE
  5
5D3
100
AcDbEntity
  8
0
100
AcDbPolyline
 62
250
  6
CONTINUOUS
 90
3
 70
0
 10
-49.158217171
 20
-24.335390346
 10
-49.1582812069
 20
-24.3362372478
 10
-49.1583486521
 20
-24.3365198675
  0
LINE
  5
5D4
100
AcDbEntity
  8
0
100
AcDbLine
 62
7
  6
CONTINUOUS
 10
-48.0105932509
 20
-15.4355902151
 11
-47.909803085
 21
-14.8011893588
  0
LWPOLYLINE
  5
5D5
100
AcDbEntity
  8
0
100
AcDbPolyline
 62
7
  6
CONTINUOUS
 90
12
 70
0
 10
-52.4047222729
 20
-23.6350835701
 10
-52.4016972465
 20
-23.6220848756
 10
-52.3982067673
 20
-23.6099718155
 10
-52.3941359735
 20
-23.5981195831
 10
-52.3894832524
 20
-23.5865022692
 10
-52.3842864213
 20
-23.5751964023
 10
-52.3785784075
 20
-23.5642443189
 10
-52.372359531
 20
-23.5536247204
 10
-52.3656336751
 20
-23.5433357588
 10
-52.3584173698
 20
-23.5333992134
 10
-52.3507268021
 20
-23.5238349252
 10
-52.3425684376
 20
-23.5146513515
  0
LINE
  5
5D6
100
AcDbEntity
  8
0
100
AcDbLine
 62
7
  6
CONTINUOUS
 10
-50.0923719364
 20
3.0556469302
 11
-55.909803085
 21
2.5466876538
  0
LINE
  5
5D7
100
AcDbEntity
  8
0
100
AcDbLine
 62
7
  6
CONTINUOUS
 10
-51.1144506448
 20
14.9853195212
 11
-51.1168206217
 21
14.9916690811
  0
LINE
  5
5D8
100
AcDbEntity
  8
0
100
AcDbLine
 62
7
  6
CONTINUOUS
 10
-51.1125623763
 20
14.9788718139
 11
-51.1144504635
 21
14.9853175059
  0
LWPOLYLINE
  5
5D9
100
AcDbEntity
  8
0
100
AcDbPolyline
 62
7
  6
CONTINUOUS
 90
5
 70
0
 10
-52.3988545317
 20
23.9302720609
 10
-52.4020094065
 20
23.9415096265
 10
-52.4047222729
 20
23.9533001671
 10
-52.4068984015
 20
23.9654471226
 10
-52.4084917932
 20
23.9778738814
  0
LINE
  5
5DA
100
AcDbEntity
  8
0
100
AcDbLine
 62
7
  6
CONTINUOUS
 10
-48.0105932509
 20
15.7538068121
 11
-47.909803085
 21
15.1194059558
  0
LINE
  5
5DB
100
AcDbEntity
  8
0
100
AcDbLine
 62
7
  6
CONTINUOUS
 10
-44.409803085
 20
-23.2652534726
 11
-44.409803085
 21
-22.7165299303
  0
LINE
  5
5DC
100
AcDbEntity
  8
0
100
AcDbLine
 62
7
  6
CONTINUOUS
 10
-44.409803085
 20
23.0347465274
 11
-44.409803085
 21
23.5834700697
  0
LINE
  5
5DD
100
AcDbEntity
  8
0
100
AcDbLine
 62
250
  6
CONTINUOUS
 10
-44.3686805481
 20
-23.8071912434
 11
-44.3686805481
 21
-22.2086543936
  0
LINE
  5
5DE
100
AcDbEntity
  8
0
100
AcDbLine
 62
250
  6
CONTINUOUS
 10
-44.3686805481
 20
22.5268709906
 11
-44.3686805481
 21
24.1254078404
  0
LINE
  5
5DF
100
AcDbEntity
  8
0
100
AcDbLine
 62
250
  6
CONTINUOUS
 10
-44.3660109223
 20
-23.8069637304
 11
-44.3660109223
 21
-22.2086388622
  0
LINE
  5
5E0
100
AcDbEntity
  8
0
100
AcDbLine
 62
250
  6
CONTINUOUS
 10
-44.3660109223
 20
22.5268554592
 11
-44.3660109223
 21
24.1251803274
  0
LINE
  5
5E1
100
AcDbEntity
  8
0
100
AcDbLine
 62
7
  6
CONTINUOUS
 10
-43.909803085
 20
-23.3088851758
 11
-43.909803085
 21
-22.2059847226
  0
LINE
  5
5E2
100
AcDbEntity
  8
0
100
AcDbLine
 62
7
  6
CONTINUOUS
 10
-43.909803085
 20
22.5242013196
 11
-43.909803085
 21
23.6271017728
  0
LINE
  5
5E3
100
AcDbEntity
  8
0
100
AcDbLine
 62
7
  6
CONTINUOUS
 10
-53.8775164086
 20
4.9957293252
 11
-54.009158445
 21
4.9592958408
  0
LINE
  5
5E4
100
AcDbEntity
  8
0
100
AcDbLine
 62
7
  6
CONTINUOUS
 10
-53.7486978677
 20
5.0276721207
 11
-53.8808674448
 21
4.9948497068
  0
LINE
  5
5E5
100
AcDbEntity
  8
0
100
AcDbLine
 62
7
  6
CONTINUOUS
 10
-53.6190823509
 20
5.0561838382
 11
-53.7516769699
 21
5.0269744277
  0
LINE
  5
5E6
100
AcDbEntity
  8
0
100
AcDbLine
 62
7
  6
CONTINUOUS
 10
-53.4887594461
 20
5.0812455635
 11
-53.6216788087
 21
5.0556480032
  0
LINE
  5
5E7
100
AcDbEntity
  8
0
100
AcDbLine
 62
7
  6
CONTINUOUS
 10
-53.3578205608
 20
5.1028386045
 11
-53.4909725614
 21
5.0808497757
  0
LINE
  5
5E8
100
AcDbEntity
  8
0
100
AcDbLine
 62
7
  6
CONTINUOUS
 10
-53.2263563089
 20
5.1209488721
 11
-53.3596548693
 21
5.1025607394
  0
LINE
  5
5E9
100
AcDbEntity
  8
0
100
AcDbLine
 62
7
  6
CONTINUOUS
 10
-53.0944532372
 20
5.1355643517
 11
-53.2278142603
 21
5.1207674731
  0
LINE
  5
5EA
100
AcDbEntity
  8
0
100
AcDbLine
 62
7
  6
CONTINUOUS
 10
-52.9622011606
 20
5.1466734822
 11
-53.0955389872
 21
5.1354585111
  0
LINE
  5
5EB
100
AcDbEntity
  8
0
100
AcDbLine
 62
250
  6
CONTINUOUS
 10
-53.0756380753
 20
4.93662034
 11
-52.932743634
 21
4.948348873
  0
LINE
  5
5EC
100
AcDbEntity
  8
0
100
AcDbLine
 62
7
  6
CONTINUOUS
 10
-52.8297031649
 20
5.1542693033
 11
-52.9629197773
 21
5.1466227758
  0
LINE
  5
5ED
100
AcDbEntity
  8
0
100
AcDbLine
 62
250
  6
CONTINUOUS
 10
-52.9489770106
 20
4.947232516
 11
-52.8140481486
 21
4.9548340484
  0
LINE
  5
5EE
100
AcDbEntity
  8
0
100
AcDbLine
 62
250
  6
CONTINUOUS
 10
-52.8221706157
 20
4.9544840778
 11
-52.695319943
 21
4.9583772353
  0
LINE
  5
5EF
100
AcDbEntity
  8
0
100
AcDbLine
 62
7
  6
CONTINUOUS
 10
-52.6970651162
 20
5.1583467101
 11
-52.8300595693
 21
5.1542536701
  0
LINE
  5
5F0
100
AcDbEntity
  8
0
100
AcDbLine
 62
250
  6
CONTINUOUS
 10
-52.695319943
 20
4.9583772353
 11
-51.409803085
 21
4.9808160155
  0
LINE
  5
5F1
100
AcDbEntity
  8
0
100
AcDbLine
 62
250
  6
CONTINUOUS
 10
-52.6970651172
 20
5.1583467743
 11
-51.409803085
 21
5.1808160166
  0
LWPOLYLINE
  5
5F2
100
AcDbEntity
  8
0
100
AcDbPolyline
 62
7
  6
CONTINUOUS
 90
3
 70
0
 10
-51.1168206162
 20
14.9916690477
 10
-51.1196668282
 20
14.9979092748
 10
-51.122981932
 20
15.0040228322
  0
LWPOLYLINE
  5
5F3
100
AcDbEntity
  8
0
100
AcDbPolyline
 62
7
  6
CONTINUOUS
 90
5
 70
0
 10
-48.9155125399
 20
24.4578644143
 10
-48.9130730049
 20
24.4450428977
 10
-48.91127887
 20
24.4318647528
 10
-48.9101770543
 20
24.4184098095
 10
-48.9098030853
 20
24.4047406909
  0
LWPOLYLINE
  5
5F4
100
AcDbEntity
  8
0
100
AcDbPolyline
 62
250
  6
CONTINUOUS
 90
7
 70
0
 10
-54.3127403018
 20
-16.3671214576
 10
-54.3323232108
 20
-16.3902768878
 10
-54.3496150529
 20
-16.4157515127
 10
-54.3644135471
 20
-16.4432473284
 10
-54.3765455795
 20
-16.4724426868
 10
-54.3858692286
 20
-16.5029960585
 10
-54.3923021359
 20
-16.5347236936
  0
LINE
  5
5F5
100
AcDbEntity
  8
0
100
AcDbLine
 62
7
  6
CONTINUOUS
 10
-51.409803085
 20
7.6591082985
 11
-50.1167829654
 21
7.7042615561
  0
LINE
  5
5F6
100
AcDbEntity
  8
0
100
AcDbLine
 62
250
  6
CONTINUOUS
 10
-51.409803085
 20
8.0341082985
 11
-49.9098034001
 21
8.0341082985
  0
LWPOLYLINE
  5
5F7
100
AcDbEntity
  8
0
100
AcDbPolyline
 62
250
  6
CONTINUOUS
 90
7
 70
0
 10
-54.3127403018
 20
16.6853380546
 10
-54.3323232108
 20
16.7084934848
 10
-54.3496150529
 20
16.7339681098
 10
-54.3644135471
 20
16.7614639254
 10
-54.3765455795
 20
16.7906592838
 10
-54.3858692286
 20
16.8212126555
 10
-54.3923021359
 20
16.8529402906
  0
LWPOLYLINE
  5
5F8
100
AcDbEntity
  8
0
100
AcDbPolyline
 62
7
  6
CONTINUOUS
 90
3
 70
0
 10
-51.1267576268
 20
15.0099962601
 10
-51.1309844629
 20
15.0158140479
 10
-51.1356518846
 20
15.0214611041
  0
LINE
  5
5F9
100
AcDbEntity
  8
0
100
AcDbLine
 62
7
  6
CONTINUOUS
 10
-51.1229819901
 20
15.004023448
 11
-51.1267576348
 21
15.0099963131
  0
LINE
  5
5FA
100
AcDbEntity
  8
0
100
AcDbLine
 62
7
  6
CONTINUOUS
 10
-52.3812364835
 20
23.8873973855
 11
-52.3868948459
 21
23.898902425
  0
LINE
  5
5FB
100
AcDbEntity
  8
0
100
AcDbLine
 62
7
  6
CONTINUOUS
 10
-52.3864749526
 20
23.8979950989
 11
-52.391542977
 21
23.9096555819
  0
LWPOLYLINE
  5
5FC
100
AcDbEntity
  8
0
100
AcDbPolyline
 62
250
  6
CONTINUOUS
 90
3
 70
0
 10
-49.1583486521
 20
24.6547364645
 10
-49.1582812069
 20
24.6544538449
 10
-49.158217171
 20
24.6536069431
  0
LINE
  5
5FD
100
AcDbEntity
  8
0
100
AcDbLine
 62
7
  6
CONTINUOUS
 10
-50.1167829843
 20
8.1416105658
 11
-49.9269710428
 21
8.1578536591
  0
LWPOLYLINE
  5
5FE
100
AcDbEntity
  8
0
100
AcDbPolyline
 62
7
  6
CONTINUOUS
 90
6
 70
0
 10
-49.9269710428
 20
8.1578536591
 10
-49.9154726789
 20
8.1587567197
 10
-49.9130025315
 20
8.1589370804
 10
-49.9112311309
 20
8.1590566228
 10
-49.910163573
 20
8.1591137988
 10
-49.909803085
 20
8.1591082985
  0
LWPOLYLINE
  5
5FF
100
AcDbEntity
  8
0
100
AcDbPolyline
 62
7
  6
CONTINUOUS
 90
4
 70
0
 10
-51.1309844243
 20
15.015813575
 10
-51.1356519447
 20
15.0214617374
 10
-51.1407482996
 20
15.0269252936
 10
-51.1462609555
 20
15.0321916649
  0
LINE
  5
600
100
AcDbEntity
  8
0
100
AcDbLine
 62
250
  6
CONTINUOUS
 10
-38.4010768817
 20
-21.4243221997
 11
-38.4010768817
 21
-20.7408917015
  0
LINE
  5
601
100
AcDbEntity
  8
0
100
AcDbLine
 62
250
  6
CONTINUOUS
 10
-38.4010768817
 20
21.0591082985
 11
-38.4010768817
 21
21.7425387967
  0
LINE
  5
602
100
AcDbEntity
  8
RACCORDO
100
AcDbLine
 62
250
  6
CONTINUOUS
 10
-38.1080577779
 20
21.0591082985
 11
-38.1080577779
 21
19.9533737017
  0
LINE
  5
603
100
AcDbEntity
  8
0
100
AcDbLine
 62
250
  6
CONTINUOUS
 10
-38.1080577779
 20
21.0591082985
 11
-38.1080577779
 21
19.9533737017
  0
LINE
  5
604
100
AcDbEntity
  8
RACCORDO
100
AcDbLine
 62
250
  6
CONTINUOUS
 10
-38.1080577779
 20
-19.6351571047
 11
-38.1080577779
 21
-20.7408917015
  0
LINE
  5
605
100
AcDbEntity
  8
0
100
AcDbLine
 62
250
  6
CONTINUOUS
 10
-38.1080577779
 20
-19.6351571047
 11
-38.1080577779
 21
-20.7408917015
  0
LINE
  5
606
100
AcDbEntity
  8
0
100
AcDbLine
 62
250
  6
CONTINUOUS
 10
-38.1063126037
 20
20.2533965473
 11
-38.1063126037
 21
19.175765556
  0
LINE
  5
607
100
AcDbEntity
  8
0
100
AcDbLine
 62
250
  6
CONTINUOUS
 10
-38.1063126037
 20
-18.857548959
 11
-38.1063126037
 21
-19.9351799503
  0
LINE
  5
608
100
AcDbEntity
  8
RACCORDO
100
AcDbLine
 62
250
  6
CONTINUOUS
 10
-38.1063126037
 20
-19.6351571047
 11
-38.1063126037
 21
-18.857548959
  0
LINE
  5
609
100
AcDbEntity
  8
RACCORDO
100
AcDbLine
 62
250
  6
CONTINUOUS
 10
-38.1063126037
 20
19.175765556
 11
-38.1063126037
 21
19.9533737017
  0
LINE
  5
60A
100
AcDbEntity
  8
0
100
AcDbLine
 62
7
  6
CONTINUOUS
 10
-37.909803085
 20
-21.1768786501
 11
-37.909803085
 21
-20.7408917015
  0
LINE
  5
60B
100
AcDbEntity
  8
RACCORDO
100
AcDbLine
 62
7
  6
CONTINUOUS
 10
-37.909803085
 20
-20.7408917015
 11
-37.909803085
 21
-18.5809332096
  0
LINE
  5
60C
100
AcDbEntity
  8
0
100
AcDbLine
 62
250
  6
CONTINUOUS
 10
-37.909803085
 20
-20.7408917015
 11
-37.909803085
 21
-18.5809332096
  0
LINE
  5
60D
100
AcDbEntity
  8
RACCORDO
100
AcDbLine
 62
7
  6
CONTINUOUS
 10
-37.909803085
 20
18.8991498066
 11
-37.909803085
 21
21.0591082985
  0
LINE
  5
60E
100
AcDbEntity
  8
0
100
AcDbLine
 62
7
  6
CONTINUOUS
 10
-37.909803085
 20
21.0591082985
 11
-37.909803085
 21
21.4950952472
  0
LINE
  5
60F
100
AcDbEntity
  8
0
100
AcDbLine
 62
250
  6
CONTINUOUS
 10
-37.909803085
 20
18.8991498066
 11
-37.909803085
 21
21.0591082985
  0
LWPOLYLINE
  5
610
100
AcDbEntity
  8
0
100
AcDbPolyline
 62
250
  6
CONTINUOUS
 90
3
 70
0
 10
-49.0352635034
 20
-23.4697594054
 10
-49.0348923361
 20
-23.4689971501
 10
-49.034803085
 20
-23.4687229178
  0
LINE
  5
611
100
AcDbEntity
  8
0
100
AcDbLine
 62
250
  6
CONTINUOUS
 10
-49.0377772052
 20
-23.4744423614
 11
-49.0348030849
 21
-23.4687229179
  0
LWPOLYLINE
  5
612
100
AcDbEntity
  8
0
100
AcDbPolyline
 62
250
  6
CONTINUOUS
 90
3
 70
0
 10
-49.0380569567
 20
-23.474951625
 10
-49.0368476013
 20
-23.4727400064
 10
-49.0359157491
 20
-23.4710079635
  0
LINE
  5
613
100
AcDbEntity
  8
0
100
AcDbLine
 62
250
  6
CONTINUOUS
 10
-49.0412966395
 20
-23.4807925524
 11
-49.0380569567
 21
-23.474951625
  0
LWPOLYLINE
  5
614
100
AcDbEntity
  8
0
100
AcDbPolyline
 62
250
  6
CONTINUOUS
 90
3
 70
0
 10
-49.0509448606
 20
-23.4979387584
 10
-49.0481492156
 20
-23.4929914669
 10
-49.0377772052
 20
-23.4744423614
  0
LINE
  5
615
100
AcDbEntity
  8
0
100
AcDbLine
 62
7
  6
CONTINUOUS
 10
-51.1651551172
 20
15.0466819873
 11
-51.1721865991
 21
15.0510366663
  0
LWPOLYLINE
  5
616
100
AcDbEntity
  8
0
100
AcDbPolyline
 62
7
  6
CONTINUOUS
 90
7
 70
0
 10
-51.146260995
 20
15.03219215
 10
-51.1521763004
 20
15.0372481324
 10
-51.1584795637
 20
15.0420824619
 10
-51.165155156
 20
15.0466824642
 10
-51.1721865372
 20
15.0510360128
 10
-51.1795563515
 20
15.0551341407
 10
-51.1872463712
 20
15.0589660076
  0
LWPOLYLINE
  5
617
100
AcDbEntity
  8
0
100
AcDbPolyline
 62
7
  6
CONTINUOUS
 90
10
 70
0
 10
-52.3755326172
 20
23.877109929
 10
-52.3693648766
 20
23.8671232509
 10
-52.3627391899
 20
23.8574426564
 10
-52.3556753869
 20
23.8480945178
 10
-52.3481813206
 20
23.839087598
 10
-52.3402646673
 20
23.8304325218
 10
-52.3319532205
 20
23.8221606464
 10
-52.3232546119
 20
23.8142803345
 10
-52.314167678
 20
23.8067949762
 10
-52.3047114347
 20
23.799726528
  0
LWPOLYLINE
  5
618
100
AcDbEntity
  8
0
100
AcDbPolyline
 62
250
  6
CONTINUOUS
 90
3
 70
0
 10
-49.0352632562
 20
23.7879755168
 10
-49.034892272
 20
23.7872136028
 10
-49.034803085
 20
23.7869395149
  0
LINE
  5
619
100
AcDbEntity
  8
RACCORDO
100
AcDbLine
 62
250
  6
CONTINUOUS
 10
-38.0735165579
 20
-18.6232524334
 11
-38.0413990561
 21
-18.3929946861
  0
LINE
  5
61A
100
AcDbEntity
  8
0
100
AcDbLine
 62
250
  6
CONTINUOUS
 10
-38.0735165579
 20
-18.6232524334
 11
-38.0413990561
 21
-18.3929946861
  0
LINE
  5
61B
100
AcDbEntity
  8
RACCORDO
100
AcDbLine
 62
250
  6
CONTINUOUS
 10
-38.0907963912
 20
-18.7468085626
 11
-38.0735165579
 21
-18.6232524334
  0
LINE
  5
61C
100
AcDbEntity
  8
0
100
AcDbLine
 62
250
  6
CONTINUOUS
 10
-38.0907963912
 20
-18.7468085626
 11
-38.0735165579
 21
-18.6232524334
  0
LINE
  5
61D
100
AcDbEntity
  8
RACCORDO
100
AcDbLine
 62
250
  6
CONTINUOUS
 10
-38.1063126091
 20
-18.857548959
 11
-38.0907963912
 21
-18.7468085626
  0
LINE
  5
61E
100
AcDbEntity
  8
0
100
AcDbLine
 62
250
  6
CONTINUOUS
 10
-38.1063126091
 20
-18.857548959
 11
-38.0907963912
 21
-18.7468085626
  0
LINE
  5
61F
100
AcDbEntity
  8
0
100
AcDbLine
 62
250
  6
CONTINUOUS
 10
-49.0862291304
 20
-23.5598449111
 11
-49.0468195751
 21
-23.4906338263
  0
LINE
  5
620
100
AcDbEntity
  8
0
100
AcDbLine
 62
250
  6
CONTINUOUS
 10
-49.1583486521
 20
-23.6852292688
 11
-49.0810220824
 21
-23.5507462605
  0
LWPOLYLINE
  5
621
100
AcDbEntity
  8
0
100
AcDbPolyline
 62
7
  6
CONTINUOUS
 90
16
 70
0
 10
-52.3418473069
 20
-23.5138819572
 10
-52.3498368117
 20
-23.5227879483
 10
-52.3573825759
 20
-23.532055039
 10
-52.364451298
 20
-23.541635715
 10
-52.371009413
 20
-23.5514687113
 10
-52.377066914
 20
-23.5615505374
 10
-52.382632475
 20
-23.5718843845
 10
-52.3877043511
 20
-23.5824624806
 10
-52.3922692868
 20
-23.593253919
 10
-52.3963236884
 20
-23.6042477647
 10
-52.3998622844
 20
-23.615432559
 10
-52.4028716121
 20
-23.626768247
 10
-52.4053481473
 20
-23.6382439279
 10
-52.4072883395
 20
-23.6498591012
 10
-52.4086825873
 20
-23.6615862633
 10
-52.4095224308
 20
-23.6733867117
  0
LINE
  5
622
100
AcDbEntity
  8
0
100
AcDbLine
 62
250
  6
CONTINUOUS
 10
-51.9869320702
 20
13.0285675696
 11
-52.1838936208
 21
12.993837934
  0
LINE
  5
623
100
AcDbEntity
  8
0
100
AcDbLine
 62
250
  6
CONTINUOUS
 10
-51.1337484378
 20
13.909108299
 11
-51.0213208032
 21
13.9287409957
  0
LWPOLYLINE
  5
624
100
AcDbEntity
  8
0
100
AcDbPolyline
 62
250
  6
CONTINUOUS
 90
5
 70
0
 10
-51.0213208032
 20
13.9287409957
 10
-50.9647025065
 20
13.9383836585
 10
-50.9457759423
 20
13.9415067043
 10
-50.9338511369
 20
13.9433718229
 10
-50.9298069957
 20
13.9438379335
  0
LINE
  5
625
100
AcDbEntity
  8
0
100
AcDbLine
 62
250
  6
CONTINUOUS
 10
-52.709803085
 20
13.1591082985
 11
-52.3808551714
 21
13.1591082985
  0
LINE
  5
626
100
AcDbEntity
  8
0
100
AcDbLine
 62
250
  6
CONTINUOUS
 10
-52.3808551714
 20
13.3591082985
 11
-52.909803085
 21
13.3591082985
  0
LINE
  5
627
100
AcDbEntity
  8
0
100
AcDbLine
 62
250
  6
CONTINUOUS
 10
-51.1337484458
 20
13.9091082985
 11
-52.909803085
 21
13.9091082985
  0
LINE
  5
628
100
AcDbEntity
  8
0
100
AcDbLine
 62
250
  6
CONTINUOUS
 10
-51.409803085
 20
13.9591582985
 11
-49.909803085
 21
13.9591082985
  0
LWPOLYLINE
  5
629
100
AcDbEntity
  8
0
100
AcDbPolyline
 62
7
  6
CONTINUOUS
 90
6
 70
0
 10
-51.1952375851
 20
15.0625213865
 10
-51.2035103045
 20
15.0657932576
 10
-51.2120441068
 20
15.0687728337
 10
-51.22081793
 20
15.0714520022
 10
-51.2298101845
 20
15.0738258704
 10
-51.2389987027
 20
15.0758878721
  0
LINE
  5
62A
100
AcDbEntity
  8
0
100
AcDbLine
 62
7
  6
CONTINUOUS
 10
-51.1872463343
 20
15.0589655539
 11
-51.1952376474
 21
15.0625220499
  0
LINE
  5
62B
100
AcDbEntity
  8
0
100
AcDbLine
 62
250
  6
CONTINUOUS
 10
-49.1583486521
 20
24.0034458658
 11
-49.0769710388
 21
23.8618777644
  0
LINE
  5
62C
100
AcDbEntity
  8
0
100
AcDbLine
 62
250
  6
CONTINUOUS
 10
-49.0810220824
 20
23.8689628575
 11
-49.0468195751
 21
23.8088504233
  0
LWPOLYLINE
  5
62D
100
AcDbEntity
  8
0
100
AcDbPolyline
 62
250
  6
CONTINUOUS
 90
3
 70
0
 10
-49.0481478956
 20
23.811205725
 10
-49.0377772052
 20
23.7926589584
 10
-49.0348030849
 20
23.7869395149
  0
LWPOLYLINE
  5
62E
100
AcDbEntity
  8
0
100
AcDbPolyline
 62
250
  6
CONTINUOUS
 90
5
 70
0
 10
-49.0412956008
 20
23.7990072881
 10
-49.0395401705
 20
23.7958527743
 10
-49.0380561406
 20
23.793166738
 10
-49.0368469088
 20
23.790955328
 10
-49.0359152628
 20
23.7892236455
  0
LINE
  5
62F
100
AcDbEntity
  8
0
100
AcDbLine
 62
7
  6
CONTINUOUS
 10
-52.3333715439
 20
-23.5053015337
 11
-52.3425684376
 21
-23.5146513515
  0
LINE
  5
630
100
AcDbEntity
  8
0
100
AcDbLine
 62
7
  6
CONTINUOUS
 10
-52.3244484118
 20
-23.4971018749
 11
-52.3339672012
 21
-23.5058780478
  0
LINE
  5
631
100
AcDbEntity
  8
0
100
AcDbLine
 62
7
  6
CONTINUOUS
 10
-51.3167829843
 20
15.662356632
 11
-51.409803085
 21
15.6591082985
  0
LWPOLYLINE
  5
632
100
AcDbEntity
  8
0
100
AcDbPolyline
 62
7
  6
CONTINUOUS
 90
3
 70
0
 10
-51.2969578855
 20
15.0814839898
 10
-51.3068671035
 20
15.0812664341
 10
-51.3167829843
 20
15.0807174755
  0
LINE
  5
633
100
AcDbEntity
  8
0
100
AcDbLine
 62
7
  6
CONTINUOUS
 10
-49.909803085
 20
15.1194059558
 11
-47.909803085
 21
15.1194059558
  0
LINE
  5
634
100
AcDbEntity
  8
0
100
AcDbLine
 62
7
  6
CONTINUOUS
 10
-52.709803085
 20
15.6591082985
 11
-51.409803085
 21
15.6591082985
  0
LINE
  5
635
100
AcDbEntity
  8
0
100
AcDbLine
 62
250
  6
CONTINUOUS
 10
-49.909803085
 20
15.7869626929
 11
-48.0105932509
 21
15.7538068121
  0
LWPOLYLINE
  5
636
100
AcDbEntity
  8
0
100
AcDbPolyline
 62
7
  6
CONTINUOUS
 90
3
 70
0
 10
-51.2772569341
 20
15.0809279864
 10
-51.287079722
 20
15.0813706129
 10
-51.2969576657
 20
15.0814821446
  0
LWPOLYLINE
  5
637
100
AcDbEntity
  8
0
100
AcDbPolyline
 62
7
  6
CONTINUOUS
 90
3
 70
0
 10
-51.2578735717
 20
15.0790561636
 10
-51.2675134875
 20
15.0801556741
 10
-51.2772568452
 20
15.0809272017
  0
LWPOLYLINE
  5
638
100
AcDbEntity
  8
0
100
AcDbPolyline
 62
7
  6
CONTINUOUS
 90
3
 70
0
 10
-51.2389986714
 20
15.0758874933
 10
-51.2483609005
 20
15.0776328736
 10
-51.2578735914
 20
15.0790563658
  0
LWPOLYLINE
  5
639
100
AcDbEntity
  8
RACCORDO
100
AcDbPolyline
 62
250
  6
CONTINUOUS
 90
3
 70
0
 10
-38.042542333
 20
18.7194217099
 10
-38.0439637635
 20
18.7296266488
 10
-38.0448828375
 20
18.736228144
  0
LINE
  5
63A
100
AcDbEntity
  8
0
100
AcDbLine
 62
250
  6
CONTINUOUS
 10
-38.042542333
 20
18.7194217099
 11
-38.0439637635
 21
18.7296266488
  0
LINE
  5
63B
100
AcDbEntity
  8
RACCORDO
100
AcDbLine
 62
250
  6
CONTINUOUS
 10
-38.0448828375
 20
18.736228144
 11
-38.0499115812
 21
18.7723011503
  0
LINE
  5
63C
100
AcDbEntity
  8
0
100
AcDbLine
 62
250
  6
CONTINUOUS
 10
-38.0448828375
 20
18.736228144
 11
-38.0499115812
 21
18.7723011503
  0
LINE
  5
63D
100
AcDbEntity
  8
0
100
AcDbLine
 62
250
  6
CONTINUOUS
 10
-38.0448828752
 20
18.7362280931
 11
-38.0439638007
 21
18.7296265644
  0
LINE
  5
63E
100
AcDbEntity
  8
0
100
AcDbLine
 62
250
  6
CONTINUOUS
 10
-38.1063126091
 20
19.175765556
 11
-38.0499116045
 21
18.7723009525
  0
LINE
  5
63F
100
AcDbEntity
  8
RACCORDO
100
AcDbLine
 62
250
  6
CONTINUOUS
 10
-38.0499115812
 20
18.7723011503
 11
-38.1063126091
 21
19.175765556
  0
LINE
  5
640
100
AcDbEntity
  8
RACCORDO
100
AcDbLine
 62
250
  6
CONTINUOUS
 10
-38.0413990561
 20
18.7112112831
 11
-38.042542333
 21
18.7194217099
  0
LINE
  5
641
100
AcDbEntity
  8
0
100
AcDbLine
 62
250
  6
CONTINUOUS
 10
-38.0413990561
 20
18.7112112831
 11
-38.042542364
 21
18.719421717
  0
LINE
  5
642
100
AcDbEntity
  8
0
100
AcDbLine
 62
7
  6
CONTINUOUS
 10
-52.3151515983
 20
-23.4893547186
 11
-52.324941405
 21
-23.4975344761
  0
LWPOLYLINE
  5
643
100
AcDbEntity
  8
0
100
AcDbPolyline
 62
7
  6
CONTINUOUS
 90
3
 70
0
 10
-52.3154894398
 20
-23.4896231367
 10
-52.3056270578
 20
-23.4821643345
 10
-52.2953889037
 20
-23.4751900259
  0
LINE
  5
644
100
AcDbEntity
  8
0
100
AcDbLine
 62
7
  6
CONTINUOUS
 10
-54.1295371902
 20
17.5112841405
 11
-54.1451856235
 21
17.509840061
  0
LINE
  5
645
100
AcDbEntity
  8
0
100
AcDbLine
 62
7
  6
CONTINUOUS
 10
-54.1150388069
 20
17.5118882333
 11
-54.1301371232
 21
17.5112439833
  0
LINE
  5
646
100
AcDbEntity
  8
RACCORDO
100
AcDbLine
 62
250
  6
CONTINUOUS
 10
-51.4290786263
 20
16.5589241475
 11
-54.1150388069
 21
16.5120405382
  0
LINE
  5
647
100
AcDbEntity
  8
0
100
AcDbLine
 62
250
  6
CONTINUOUS
 10
-51.4290786263
 20
16.5589241475
 11
-54.1150388069
 21
16.5120405382
  0
LINE
  5
648
100
AcDbEntity
  8
0
100
AcDbLine
 62
250
  6
CONTINUOUS
 10
-54.3696107061
 20
17.2119339248
 11
-51.409803085
 21
17.263597559
  0
LINE
  5
649
100
AcDbEntity
  8
0
100
AcDbLine
 62
250
  6
CONTINUOUS
 10
-54.1150388069
 20
17.5118882333
 11
-51.409803085
 21
17.5591082985
  0
LINE
  5
64A
100
AcDbEntity
  8
RACCORDO
100
AcDbLine
 62
7
  6
CONTINUOUS
 10
-51.409803085
 20
17.5591082985
 11
-54.1150388069
 21
17.5118882333
  0
LINE
  5
64B
100
AcDbEntity
  8
0
100
AcDbLine
 62
250
  6
CONTINUOUS
 10
-54.409803085
 20
16.3063740551
 11
-54.1150387999
 21
16.3063740551
  0
LINE
  5
64C
100
AcDbEntity
  8
RACCORDO
100
AcDbLine
 62
250
  6
CONTINUOUS
 10
-54.363530318
 20
16.5120405385
 11
-54.1150388069
 21
16.5120405382
  0
LINE
  5
64D
100
AcDbEntity
  8
0
100
AcDbLine
 62
250
  6
CONTINUOUS
 10
-54.409803085
 20
16.5120405377
 11
-54.115038812
 21
16.5120405389
  0
LINE
  5
64E
100
AcDbEntity
  8
0
100
AcDbLine
 62
250
  6
CONTINUOUS
 10
-54.409803085
 20
17.2119339248
 11
-54.3696107039
 21
17.2119339248
  0
LINE
  5
64F
100
AcDbEntity
  8
0
100
AcDbLine
 62
250
  6
CONTINUOUS
 10
-51.409803085
 20
16.25915399
 11
-54.1150388069
 21
16.3063740551
  0
LINE
  5
650
100
AcDbEntity
  8
0
100
AcDbLine
 62
250
  6
CONTINUOUS
 10
-54.1150388069
 20
16.6063283637
 11
-51.409803085
 21
16.5591082985
  0
LINE
  5
651
100
AcDbEntity
  8
0
100
AcDbLine
 62
250
  6
CONTINUOUS
 10
-54.3696107061
 20
16.9062826722
 11
-51.409803085
 21
16.854619038
  0
LINE
  5
652
100
AcDbEntity
  8
0
100
AcDbLine
 62
7
  6
CONTINUOUS
 10
-50.1167829843
 20
16.4139550416
 11
-51.409803085
 21
16.4591082985
  0
LWPOLYLINE
  5
653
100
AcDbEntity
  8
0
100
AcDbPolyline
 62
7
  6
CONTINUOUS
 90
30
 70
0
 10
-54.1150388154
 20
16.6063278787
 10
-54.1305560985
 20
16.6070008626
 10
-54.146017741
 20
16.6084760519
 10
-54.1613822969
 20
16.6107494899
 10
-54.1766085835
 20
16.6138150805
 10
-54.1916557963
 20
16.6176646068
 10
-54.206483606
 20
16.6222877506
 10
-54.2210522643
 20
16.627672118
 10
-54.2353227288
 20
16.6338032792
 10
-54.2492567526
 20
16.6406648025
 10
-54.2628169822
 20
16.6482382946
 10
-54.2759670768
 20
16.65650346
 10
-54.2886717927
 20
16.6654381496
 10
-54.3008970716
 20
16.6750184144
 10
-54.3126101446
 20
16.685218578
 10
-54.323779618
 20
16.6960113052
 10
-54.334375556
 20
16.7073676757
 10
-54.3443695364
 20
16.7192572311
 10
-54.353734755
 20
16.7316480808
 10
-54.3624461247
 20
16.7445070296
 10
-54.3704802775
 20
16.7577995793
 10
-54.3778156609
 20
16.7714900535
 10
-54.384432639
 20
16.7855417832
 10
-54.3903134661
 20
16.7999170583
 10
-54.395442366
 20
16.8145772595
 10
-54.3998056049
 20
16.8294830344
 10
-54.4033915399
 20
16.8445945048
 10
-54.4061905997
 20
16.8598712755
 10
-54.4081952898
 20
16.8752724243
 10
-54.4094002369
 20
16.890756637
  0
LWPOLYLINE
  5
654
100
AcDbEntity
  8
0
100
AcDbPolyline
 62
7
  6
CONTINUOUS
 90
17
 70
0
 10
-52.284803085
 20
-23.4687229178
 10
-52.296379947
 20
-23.4758330965
 10
-52.3073513661
 20
-23.4834137532
 10
-52.3177561166
 20
-23.4914488781
 10
-52.3276838645
 20
-23.4999833677
 10
-52.3371186057
 20
-23.50899305
 10
-52.3459012187
 20
-23.5182936989
 10
-52.3539007736
 20
-23.5276663139
 10
-52.3612509934
 20
-23.5371794844
 10
-52.3681949748
 20
-23.5471248871
 10
-52.3749221332
 20
-23.5578566116
 10
-52.3812780218
 20
-23.5692601121
 10
-52.3868948459
 20
-23.580685828
 10
-52.391542977
 20
-23.5914389849
 10
-52.3954169694
 20
-23.6016464209
 10
-52.3988545317
 20
-23.6120554639
 10
-52.4020094065
 20
-23.6232930295
  0
LINE
  5
655
100
AcDbEntity
  8
0
100
AcDbLine
 62
7
  6
CONTINUOUS
 10
-51.409803085
 20
-22.9635414323
 11
-52.284803085
 21
-23.4687229178
  0
LINE
  5
656
100
AcDbEntity
  8
0
100
AcDbLine
 62
250
  6
CONTINUOUS
 10
-52.1612575178
 20
-23.6852292688
 11
-51.1612575178
 21
-23.1078789996
  0
LWPOLYLINE
  5
657
100
AcDbEntity
  8
0
100
AcDbPolyline
 62
250
  6
CONTINUOUS
 90
8
 70
0
 10
-54.1150388069
 20
17.5118882333
 10
-54.1715772004
 20
17.50367528
 10
-54.2259520977
 20
17.4809484051
 10
-54.2745542391
 20
17.4448511631
 10
-54.314410368
 20
17.3980001649
 10
-54.3447995085
 20
17.3412429198
 10
-54.3635090233
 20
17.2780588507
 10
-54.3696107062
 20
17.2119339419
  0
LWPOLYLINE
  5
658
100
AcDbEntity
  8
0
100
AcDbPolyline
 62
7
  6
CONTINUOUS
 90
27
 70
0
 10
-54.1451856235
 20
17.509840061
 10
-54.1601259892
 20
17.5076831519
 10
-54.174868502
 20
17.5047930888
 10
-54.1894003802
 20
17.5011816916
 10
-54.203781378
 20
17.4968340484
 10
-54.2179927679
 20
17.4917463477
 10
-54.2319595082
 20
17.4859372245
 10
-54.2456545729
 20
17.4794117243
 10
-54.2590299642
 20
17.4721863759
 10
-54.2720478363
 20
17.4642762332
 10
-54.2846947252
 20
17.4556815692
 10
-54.2969323616
 20
17.4464176848
 10
-54.3087161544
 20
17.4365081681
 10
-54.3200206095
 20
17.4259633442
 10
-54.3308079666
 20
17.4148054167
 10
-54.3410377805
 20
17.4030635025
 10
-54.3506796521
 20
17.390759201
 10
-54.3596955357
 20
17.3779271867
 10
-54.3680535866
 20
17.3645991737
 10
-54.3757315991
 20
17.3507936574
 10
-54.3826969235
 20
17.3365491439
 10
-54.3889193954
 20
17.3219070345
 10
-54.3943783356
 20
17.3068914243
 10
-54.3990500865
 20
17.2915340004
 10
-54.4029046081
 20
17.2758987305
 10
-54.4059174535
 20
17.2600616792
 10
-54.4081549731
 20
17.2433369613
  0
LWPOLYLINE
  5
659
100
AcDbEntity
  8
0
100
AcDbPolyline
 62
7
  6
CONTINUOUS
 90
27
 70
0
 10
-54.144016868
 20
17.5099765523
 10
-54.1584260748
 20
17.507967377
 10
-54.1727018367
 20
17.5052660671
 10
-54.1868095739
 20
17.5018821972
 10
-54.2007528272
 20
17.4978152714
 10
-54.2144986963
 20
17.4930723754
 10
-54.2279953145
 20
17.4876703875
 10
-54.2412538699
 20
17.4816016668
 10
-54.2542584515
 20
17.4748648032
 10
-54.2669509943
 20
17.4674814441
 10
-54.2793157305
 20
17.4594525361
 10
-54.2913287896
 20
17.4507820322
 10
-54.3029428059
 20
17.4414923012
 10
-54.3141227284
 20
17.4316006797
 10
-54.3248313253
 20
17.4211296603
 10
-54.3350306119
 20
17.4101069833
 10
-54.3447032353
 20
17.3985402464
 10
-54.3538271068
 20
17.3864397317
 10
-54.3623619235
 20
17.3738414079
 10
-54.3702777175
 20
17.3607726483
 10
-54.3775453884
 20
17.3472633703
 10
-54.384132501
 20
17.3333562105
 10
-54.3900190812
 20
17.319073997
 10
-54.3951848397
 20
17.3044393509
 10
-54.3996023841
 20
17.2894991629
 10
-54.4032486009
 20
17.2743016113
 10
-54.406104659
 20
17.2588953649
  0
LINE
  5
65A
100
AcDbEntity
  8
0
100
AcDbLine
 62
7
  6
CONTINUOUS
 10
-48.909803085
 20
18.6673988229
 11
-47.909803085
 21
18.6761256907
  0
LINE
  5
65B
100
AcDbEntity
  8
RACCORDO
100
AcDbLine
 62
7
  6
CONTINUOUS
 10
-38.1080577779
 20
19.9533737017
 11
-47.909803085
 21
19.8678351663
  0
LINE
  5
65C
100
AcDbEntity
  8
0
100
AcDbLine
 62
7
  6
CONTINUOUS
 10
-38.1080577779
 20
19.9533737017
 11
-49.909803085
 21
19.8503814307
  0
LINE
  5
65D
100
AcDbEntity
  8
0
100
AcDbLine
 62
7
  6
CONTINUOUS
 10
-48.909803085
 20
19.0277374486
 11
-49.909803085
 21
19.0277374486
  0
LINE
  5
65E
100
AcDbEntity
  8
RACCORDO
100
AcDbLine
 62
250
  6
CONTINUOUS
 10
-38.1063126037
 20
19.175765556
 11
-37.909803085
 21
19.175765556
  0
LINE
  5
65F
100
AcDbEntity
  8
0
100
AcDbLine
 62
250
  6
CONTINUOUS
 10
-38.1063126037
 20
19.175765556
 11
-37.909803085
 21
19.175765556
  0
LINE
  5
660
100
AcDbEntity
  8
0
100
AcDbLine
 62
7
  6
CONTINUOUS
 10
-48.909803085
 20
19.0277374486
 11
-47.909803085
 21
19.0102823837
  0
LINE
  5
661
100
AcDbEntity
  8
0
100
AcDbLine
 62
7
  6
CONTINUOUS
 10
-52.284803085
 20
23.7869395149
 11
-51.409803085
 21
23.2817580293
  0
LINE
  5
662
100
AcDbEntity
  8
0
100
AcDbLine
 62
250
  6
CONTINUOUS
 10
-52.1612575178
 20
24.0034458658
 11
-51.1612575178
 21
23.4260955966
  0
LWPOLYLINE
  5
663
100
AcDbEntity
  8
0
100
AcDbPolyline
 62
7
  6
CONTINUOUS
 90
12
 70
0
 10
-52.284803085
 20
23.7869395149
 10
-52.296379947
 20
23.7940496935
 10
-52.3073513661
 20
23.8016303502
 10
-52.3177561166
 20
23.8096654752
 10
-52.3276838645
 20
23.8181999648
 10
-52.3371186057
 20
23.827209647
 10
-52.3459012187
 20
23.8365102959
 10
-52.3539007736
 20
23.8458829109
 10
-52.3612509934
 20
23.8553960814
 10
-52.3681949748
 20
23.8653414841
 10
-52.3749221332
 20
23.8760732087
 10
-52.3812780218
 20
23.8874767091
  0
LWPOLYLINE
  5
664
100
AcDbEntity
  8
0
100
AcDbPolyline
 62
7
  6
CONTINUOUS
 90
19
 70
0
 10
-52.2949150532
 20
23.793101496
 10
-52.3054734339
 20
23.8002706984
 10
-52.3151515983
 20
23.8075713157
 10
-52.3244484118
 20
23.8153184719
 10
-52.3333715439
 20
23.8235181307
 10
-52.3418473069
 20
23.8320985543
 10
-52.3498368117
 20
23.8410045453
 10
-52.3573825759
 20
23.850271636
 10
-52.364451298
 20
23.859852312
 10
-52.371009413
 20
23.8696853083
 10
-52.377066914
 20
23.8797671344
 10
-52.382632475
 20
23.8901009815
 10
-52.3877043511
 20
23.9006790776
 10
-52.3922692868
 20
23.911470516
 10
-52.3963236884
 20
23.9224643618
 10
-52.3998622844
 20
23.933649156
 10
-52.4028716121
 20
23.944984844
 10
-52.4053481473
 20
23.9564605249
 10
-52.4072883395
 20
23.9680756982
  0
LINE
  5
665
100
AcDbEntity
  8
ASSI
100
AcDbLine
 62
250
  6
CONTINUOUS
 10
-60.3806977345
 20
20.7835085641
 11
-60.752083132
 21
20.7661591354
  0
LINE
  5
666
100
AcDbEntity
  8
0
100
AcDbLine
 62
7
  6
CONTINUOUS
 10
-38.4010768817
 20
21.7425387967
 11
-47.909803085
 21
21.5765633634
  0
LINE
  5
667
100
AcDbEntity
  8
0
100
AcDbLine
 62
7
  6
CONTINUOUS
 10
-38.1080577779
 20
20.2533737017
 11
-49.909803085
 21
20.1503814307
  0
LINE
  5
668
100
AcDbEntity
  8
0
100
AcDbLine
 62
7
  6
CONTINUOUS
 10
-37.909803085
 20
21.0591082985
 11
-47.909803085
 21
21.0591082985
  0
LINE
  5
669
100
AcDbEntity
  8
0
100
AcDbLine
 62
7
  6
CONTINUOUS
 10
-47.909803085
 20
21.0591082985
 11
-49.909803085
 21
21.0591082985
  0
LINE
  5
66A
100
AcDbEntity
  8
0
100
AcDbLine
 62
7
  6
CONTINUOUS
 10
-48.909803085
 20
21.8591082985
 11
-40.3825327625
 21
21.8591082985
  0
LWPOLYLINE
  5
66B
100
AcDbEntity
  8
ASSI
100
AcDbPolyline
 62
250
  6
CONTINUOUS
 90
4
 70
0
 10
-60.3806846695
 20
20.7835087126
 10
-60.3764202531
 20
20.7834961643
 10
-60.3671389891
 20
20.7835349042
 10
-59.8940916044
 20
20.7878757195
  0
LWPOLYLINE
  5
66C
100
AcDbEntity
  8
0
100
AcDbPolyline
 62
7
  6
CONTINUOUS
 90
10
 70
0
 43
0.3500000006
 10
-48.3666557465
 20
46.3214993591
 10
-48.2952290955
 20
46.1786415253
 10
-48.2952290955
 20
46.1072148743
 10
-48.4380869293
 20
45.9643570404
 10
-48.5095135803
 20
45.9643570404
 10
-48.5809447632
 20
46.0357836914
 10
-48.5809447632
 20
46.1072148743
 10
-48.5095135803
 20
46.2500727081
 10
-48.4380869293
 20
46.3214993591
 10
-48.3666557465
 20
46.3214993591
  0
LINE
  5
66D
100
AcDbEntity
  8
0
100
AcDbLine
 62
7
  6
CONTINUOUS
 10
-37.909803085
 20
-20.6408917015
 11
-40.3825327625
 21
-21.5408917015
  0
LWPOLYLINE
  5
66E
100
AcDbEntity
  8
ASSI
100
AcDbPolyline
 62
7
  6
CONTINUOUS
 90
4
 70
0
 10
-59.4826756702
 20
21.9569787695
 10
-59.4440232044
 20
21.9663635111
 10
-59.3595653843
 20
21.9822443693
 10
-59.2741736039
 20
21.9920487048
  0
LWPOLYLINE
  5
66F
100
AcDbEntity
  8
0
100
AcDbPolyline
 62
7
  6
CONTINUOUS
 90
25
 70
0
 10
-50.2454834685
 20
24.1541511049
 10
-50.2565727146
 20
24.1518141912
 10
-50.2674963384
 20
24.1488575759
 10
-50.2781632626
 20
24.1453140434
 10
-50.2885152037
 20
24.1412192999
 10
-50.2985949146
 20
24.13656897
 10
-50.308365522
 20
24.1313867058
 10
-50.3177790373
 20
24.1257079932
 10
-50.3268284366
 20
24.119547934
 10
-50.3355206372
 20
24.1129072967
 10
-50.343842186
 20
24.1057964844
 10
-50.3517500504
 20
24.098253351
 10
-50.359253815
 20
24.0902673492
 10
-50.3663613155
 20
24.0818164663
 10
-50.3730479261
 20
24.0729066195
 10
-50.3792304805
 20
24.0636344785
 10
-50.3848328985
 20
24.0541302431
 10
-50.3898186676
 20
24.0445053605
 10
-50.394265861
 20
24.0346478837
 10
-50.3982353294
 20
24.0243915662
 10
-50.4016887009
 20
24.013750259
 10
-50.4045673397
 20
24.0028225708
 10
-50.4068370128
 20
23.9916761971
 10
-50.408476342
 20
23.9803581544
 10
-50.4094696205
 20
23.9689039156
  0
LINE
  5
670
100
AcDbEntity
  8
ASSI
100
AcDbLine
 62
250
  6
CONTINUOUS
 10
-59.2480145928
 20
21.4929050401
 11
-54.6435578235
 21
21.8552836469
  0
LINE
  5
671
100
AcDbEntity
  8
ASSI
100
AcDbLine
 62
7
  6
CONTINUOUS
 10
-59.6461912386
 20
21.962770282
 11
-54.6697168345
 21
22.3544273116
  0
LINE
  5
672
100
AcDbEntity
  8
0
100
AcDbLine
 62
250
  6
CONTINUOUS
 10
-51.409803085
 20
21.9802677775
 11
-49.909803085
 21
22.0588794464
  0
LINE
  5
673
100
AcDbEntity
  8
0
100
AcDbLine
 62
7
  6
CONTINUOUS
 10
-49.909803085
 20
22.5591082985
 11
-51.409803085
 21
22.4804966296
  0
LINE
  5
674
100
AcDbEntity
  8
0
100
AcDbLine
 62
7
  6
CONTINUOUS
 10
-49.909803085
 20
22.5591082985
 11
-48.909803085
 21
22.5538722629
  0
LINE
  5
675
100
AcDbEntity
  8
0
100
AcDbLine
 62
250
  6
CONTINUOUS
 10
-49.909803085
 20
22.0591252215
 11
-48.909803085
 21
22.0533073917
  0
LINE
  5
676
100
AcDbEntity
  8
0
100
AcDbLine
 62
7
  6
CONTINUOUS
 10
-38.9039853536
 20
22.495078324
 11
-49.909803085
 21
22.5591082985
  0
LINE
  5
677
100
AcDbEntity
  8
0
100
AcDbLine
 62
7
  6
CONTINUOUS
 10
-40.3825327625
 20
21.8591082985
 11
-37.909803085
 21
20.9591082985
  0
LWPOLYLINE
  5
678
100
AcDbEntity
  8
0
100
AcDbPolyline
 62
7
  6
CONTINUOUS
 90
21
 70
0
 10
-49.0799203967
 20
24.6416346718
 10
-49.0673791128
 20
24.6370288983
 10
-49.0554252475
 20
24.6319086219
 10
-49.0437876668
 20
24.6261914184
 10
-49.0324786677
 20
24.6198883021
 10
-49.0215182929
 20
24.6130129114
 10
-49.01097329
 20
24.6056130233
 10
-49.0008859887
 20
24.5977312554
 10
-48.9912577593
 20
24.5893821669
 10
-48.9821029664
 20
24.5805891183
 10
-48.9734853733
 20
24.5714311564
 10
-48.9653803488
 20
24.5619023943
 10
-48.9576916797
 20
24.5518834146
 10
-48.9504058314
 20
24.5413159133
 10
-48.943615837
 20
24.5302917751
 10
-48.9373959272
 20
24.5189118658
 10
-48.9317910208
 20
24.5072614173
 10
-48.9267947609
 20
24.4953338565
 10
-48.9224011633
 20
24.4831009376
 10
-48.9186341246
 20
24.4706006412
 10
-48.9155142869
 20
24.4578724474
  0
LWPOLYLINE
  5
679
100
AcDbEntity
  8
0
100
AcDbPolyline
 62
7
  6
CONTINUOUS
 90
19
 70
0
 10
-49.0682499962
 20
24.637373516
 10
-49.0570546104
 20
24.6326502163
 10
-49.0459692283
 20
24.6273206878
 10
-49.0346599599
 20
24.6211643454
 10
-49.0234164365
 20
24.614260802
 10
-49.0129016719
 20
24.6070275574
 10
-49.0036167917
 20
24.5999478561
 10
-48.99519068
 20
24.5928968866
 10
-48.986941729
 20
24.5853478701
 10
-48.9785329935
 20
24.57690676
 10
-48.9702865926
 20
24.5677851642
 10
-48.96236693
 20
24.558099636
 10
-48.9548047536
 20
24.5478339659
 10
-48.9476328026
 20
24.5369669038
 10
-48.9411458401
 20
24.5259389175
 10
-48.935540428
 20
24.5152226375
 10
-48.9306627405
 20
24.5047142022
 10
-48.9262330921
 20
24.4938757525
 10
-48.9221464908
 20
24.4823251217
  0
LINE
  5
67A
100
AcDbEntity
  8
0
100
AcDbLine
 62
7
  6
CONTINUOUS
 10
-50.2342184888
 20
24.1558636856
 11
-50.2465113348
 21
24.1539619667
  0
LWPOLYLINE
  5
67B
100
AcDbEntity
  8
0
100
AcDbPolyline
 62
7
  6
CONTINUOUS
 90
24
 70
0
 10
-52.1884144412
 20
24.6443713315
 10
-52.2016118882
 20
24.6424932073
 10
-52.2146274956
 20
24.6399284519
 10
-52.2274530551
 20
24.6366869264
 10
-52.2399945098
 20
24.6328035943
 10
-52.2522270571
 20
24.6283021536
 10
-52.2641809224
 20
24.6231818772
 10
-52.2758185031
 20
24.6174646737
 10
-52.2871275023
 20
24.6111615573
 10
-52.298087877
 20
24.6042861666
 10
-52.3086328799
 20
24.5968862785
 10
-52.3187201813
 20
24.5890045106
 10
-52.3283484106
 20
24.5806554222
 10
-52.3375032035
 20
24.5718623736
 10
-52.3461207967
 20
24.5627044117
 10
-52.3542258212
 20
24.5531756496
 10
-52.3619144902
 20
24.5431566699
 10
-52.3692003385
 20
24.5325891686
 10
-52.3759903329
 20
24.5215650304
 10
-52.3822102427
 20
24.5101851211
 10
-52.3878151491
 20
24.4985346726
 10
-52.392811409
 20
24.4866071118
 10
-52.3972050067
 20
24.4743741929
 10
-52.4009720453
 20
24.4618738965
  0
LWPOLYLINE
  5
67C
100
AcDbEntity
  8
0
100
AcDbPolyline
 62
7
  6
CONTINUOUS
 90
3
 70
0
 10
-50.234800118
 20
24.1557912829
 10
-50.222934821
 20
24.1569279865
 10
-50.2109666312
 20
24.1573561803
  0
LWPOLYLINE
  5
67D
100
AcDbEntity
  8
0
100
AcDbPolyline
 62
7
  6
CONTINUOUS
 90
3
 70
0
 10
-52.1612575178
 20
24.6460097198
 10
-52.1749911264
 20
24.6455521631
 10
-52.1884233506
 20
24.6443703035
  0
LINE
  5
67E
100
AcDbEntity
  8
0
100
AcDbLine
 62
250
  6
CONTINUOUS
 10
-50.209803085
 20
23.9573595649
 11
-49.909803085
 21
23.9591049138
  0
LINE
  5
67F
100
AcDbEntity
  8
0
100
AcDbLine
 62
250
  6
CONTINUOUS
 10
-50.2109666312
 20
24.1573561803
 11
-49.909803085
 21
24.1591082985
  0
LINE
  5
680
100
AcDbEntity
  8
0
100
AcDbLine
 62
7
  6
CONTINUOUS
 10
-51.409803085
 20
24.1503815538
 11
-50.2109666312
 21
24.1573561803
  0
LINE
  5
681
100
AcDbEntity
  8
0
100
AcDbLine
 62
250
  6
CONTINUOUS
 10
-52.1612575178
 20
24.3960139506
 11
-49.909803085
 21
24.4091125293
  0
LINE
  5
682
100
AcDbEntity
  8
0
100
AcDbLine
 62
7
  6
CONTINUOUS
 10
-52.1612575178
 20
24.6460097198
 11
-49.909803085
 21
24.6591082985
  0
LINE
  5
683
100
AcDbEntity
  8
0
100
AcDbLine
 62
250
  6
CONTINUOUS
 10
-50.409803085
 20
23.9573595649
 11
-50.2098030762
 21
23.9573595649
  0
LINE
  5
684
100
AcDbEntity
  8
0
100
AcDbLine
 62
250
  6
CONTINUOUS
 10
-52.409803085
 20
24.0034458658
 11
-52.1612575178
 21
24.0034458658
  0
LINE
  5
685
100
AcDbEntity
  8
0
100
AcDbLine
 62
250
  6
CONTINUOUS
 10
-48.909803085
 20
24.0034458658
 11
-49.1583486521
 21
24.0034458658
  0
LINE
  5
686
100
AcDbEntity
  8
0
100
AcDbLine
 62
250
  6
CONTINUOUS
 10
-52.409803085
 20
24.3960139506
 11
-52.1612575178
 21
24.3960139506
  0
LINE
  5
687
100
AcDbEntity
  8
0
100
AcDbLine
 62
250
  6
CONTINUOUS
 10
-48.909803085
 20
24.4047406953
 11
-49.1583486521
 21
24.4047406953
  0
LINE
  5
688
100
AcDbEntity
  8
0
100
AcDbLine
 62
250
  6
CONTINUOUS
 10
-49.909803085
 20
23.9591049138
 11
-48.909803085
 21
23.953287084
  0
LINE
  5
689
100
AcDbEntity
  8
0
100
AcDbLine
 62
250
  6
CONTINUOUS
 10
-49.909803085
 20
24.1591082985
 11
-48.909803085
 21
24.1532904687
  0
LINE
  5
68A
100
AcDbEntity
  8
0
100
AcDbLine
 62
7
  6
CONTINUOUS
 10
-48.909803085
 20
24.1532904687
 11
-44.4068942193
 21
24.1270933113
  0
LINE
  5
68B
100
AcDbEntity
  8
0
100
AcDbLine
 62
250
  6
CONTINUOUS
 10
-49.909803085
 20
24.4091125293
 11
-49.1583486521
 21
24.4047406953
  0
LINE
  5
68C
100
AcDbEntity
  8
0
100
AcDbLine
 62
7
  6
CONTINUOUS
 10
-49.909803085
 20
24.6591082985
 11
-49.1583486521
 21
24.6547364645
  0
LWPOLYLINE
  5
68D
100
AcDbEntity
  8
0
100
AcDbPolyline
 62
7
  6
CONTINUOUS
 90
3
 70
0
 10
-49.1583486521
 20
24.6547364645
 10
-49.1446150436
 20
24.6542789078
 10
-49.1311828193
 20
24.6530970482
  0
LINE
  5
68E
100
AcDbEntity
  8
0
100
AcDbLine
 62
7
  6
CONTINUOUS
 10
-49.1311917288
 20
24.6530980762
 11
-49.1179942818
 21
24.651219952
  0
LWPOLYLINE
  5
68F
100
AcDbEntity
  8
0
100
AcDbPolyline
 62
7
  6
CONTINUOUS
 90
4
 70
0
 10
-49.1180251
 20
24.6512251775
 10
-49.1050353102
 20
24.6486679197
 10
-49.0922546319
 20
24.6454421808
 10
-49.0799203967
 20
24.6416346718
  0
LWPOLYLINE
  5
690
100
AcDbEntity
  8
0
100
AcDbPolyline
 62
7
  6
CONTINUOUS
 90
7
 70
0
 43
0.3500000006
 10
-42.731233017
 20
35.8215006866
 10
-44.2312334747
 20
35.8215006866
 10
-42.731233017
 20
37.964354599
 10
-42.731233017
 20
38.3929281006
 10
-43.1598019867
 20
38.8214970703
 10
-43.8026599731
 20
38.8214970703
 10
-44.2312334747
 20
38.1786436157
  0
LWPOLYLINE
  5
691
100
AcDbEntity
  8
0
100
AcDbPolyline
 62
7
  6
CONTINUOUS
 90
7
 70
0
 43
0.3500000006
 10
-49.8666562042
 20
45.8214992065
 10
-51.366656662
 20
45.8214992065
 10
-49.8666562042
 20
47.9643576508
 10
-49.8666562042
 20
48.3929266205
 10
-50.2952297058
 20
48.8215001221
 10
-50.9380876923
 20
48.8215001221
 10
-51.366656662
 20
48.1786421356
  0
LWPOLYLINE
  5
692
100
AcDbEntity
  8
0
100
AcDbPolyline
 62
7
  6
CONTINUOUS
 90
7
 70
0
 43
0.3500000006
 10
-52.2237991333
 20
45.8214992065
 10
-53.7237995911
 20
45.8214992065
 10
-52.2237991333
 20
47.9643576508
 10
-52.2237991333
 20
48.3929266205
 10
-52.6523726349
 20
48.8215001221
 10
-53.2952306213
 20
48.8215001221
 10
-53.7237995911
 20
48.1786421356
  0
LWPOLYLINE
  5
693
100
AcDbEntity
  8
0
100
AcDbPolyline
 62
7
  6
CONTINUOUS
 90
13
 70
0
 43
0.3500000006
 10
-46.8666552887
 20
47.5357841492
 10
-47.1523709564
 20
47.750068634
 10
-47.1523709564
 20
48.3929266205
 10
-46.8666552887
 20
48.8215001221
 10
-46.2238018341
 20
48.8215001221
 10
-45.9380861664
 20
48.3929266205
 10
-45.9380861664
 20
47.750068634
 10
-46.2238018341
 20
47.5357841492
 10
-45.7952283325
 20
47.1072151794
 10
-45.7952283325
 20
46.2500727081
 10
-46.2238018341
 20
45.8214992065
 10
-46.8666552887
 20
45.8214992065
 10
-47.2952287903
 20
46.2500727081
  0
ARC
  5
694
100
AcDbEntity
  8
0
100
AcDbCircle
 62
7
  6
CONTINUOUS
 10
7.25
 20
-22.9908917015
 40
0.5
100
AcDbArc
 50
154.1580672368
 51
205.8419327632
  0
ARC
  5
695
100
AcDbEntity
  8
0
100
AcDbCircle
 62
7
  6
CONTINUOUS
 10
15.25
 20
-22.9908917015
 40
0.5
100
AcDbArc
 50
334.1580672368
 51
25.8419327632
  0
ARC
  5
696
100
AcDbEntity
  8
0
100
AcDbCircle
 62
7
  6
CONTINUOUS
 10
15.25
 20
23.3091082985
 40
0.5
100
AcDbArc
 50
334.1580672368
 51
25.8419327632
  0
ARC
  5
697
100
AcDbEntity
  8
0
100
AcDbCircle
 62
7
  6
CONTINUOUS
 10
7.25
 20
23.3091082985
 40
0.5
100
AcDbArc
 50
154.1580672368
 51
205.8419327632
  0
ARC
  5
698
100
AcDbEntity
  8
ASSI
100
AcDbCircle
 62
7
  6
CONTINUOUS
 10
-57.3780746538
 20
-20.7160821829
 40
1.2
100
AcDbArc
 50
185.985352181
 51
271.5
  0
ARC
  5
699
100
AcDbEntity
  8
0
100
AcDbCircle
 62
250
  6
CONTINUOUS
 10
-54.109803085
 20
-16.8937173278
 40
0.3
100
AcDbArc
 50
180.0
 51
269.0
  0
ARC
  5
69A
100
AcDbEntity
  8
0
100
AcDbCircle
 62
250
  6
CONTINUOUS
 10
-54.109803085
 20
-16.5880651049
 40
0.2999995149
100
AcDbArc
 50
91.0000032342
 51
180.0001853128
  0
ARC
  5
69B
100
AcDbEntity
  8
0
100
AcDbCircle
 62
7
  6
CONTINUOUS
 10
-54.109803085
 20
-0.0173177349
 40
0.3
100
AcDbArc
 50
180.0
 51
269.5
  0
ARC
  5
69C
100
AcDbEntity
  8
0
100
AcDbCircle
 62
7
  6
CONTINUOUS
 10
-52.159803085
 20
-24.0777973536
 40
0.25
100
AcDbArc
 50
180.0
 51
269.6666666667
  0
ARC
  5
69D
100
AcDbEntity
  8
0
100
AcDbCircle
 62
7
  6
CONTINUOUS
 10
-52.159803085
 20
-23.6852292688
 40
0.25
100
AcDbArc
 50
120.0
 51
180.0
  0
ARC
  5
69E
100
AcDbEntity
  8
0
100
AcDbCircle
 62
250
  6
CONTINUOUS
 10
-52.709803085
 20
-13.0408917015
 40
0.2
100
AcDbArc
 50
90.0
 51
180.0
  0
ARC
  5
69F
100
AcDbEntity
  8
0
100
AcDbCircle
 62
7
  6
CONTINUOUS
 10
-52.709803085
 20
-15.1408917015
 40
0.2
100
AcDbArc
 50
180.0
 51
270.0
  0
ARC
  5
6A0
100
AcDbEntity
  8
0
100
AcDbCircle
 62
7
  6
CONTINUOUS
 10
-51.309803085
 20
-15.1442618693
 40
0.2
100
AcDbArc
 50
267.9999999994
 51
360.0
  0
ARC
  5
6A1
100
AcDbEntity
  8
0
100
AcDbCircle
 62
7
  6
CONTINUOUS
 10
-49.159803085
 20
-24.0865240983
 40
0.25
100
AcDbArc
 50
270.3333333333
 51
360.0
  0
ARC
  5
6A2
100
AcDbEntity
  8
0
100
AcDbCircle
 62
7
  6
CONTINUOUS
 10
-49.159803085
 20
-23.6852292688
 40
0.25
100
AcDbArc
 50
0.0
 51
60.0
  0
ARC
  5
6A3
100
AcDbEntity
  8
0
100
AcDbCircle
 62
250
  6
CONTINUOUS
 10
-50.209803085
 20
-23.6391429679
 40
0.2
100
AcDbArc
 50
180.0
 51
269.6666666667
  0
ARC
  5
6A4
100
AcDbEntity
  8
0
100
AcDbCircle
 62
7
  6
CONTINUOUS
 10
-50.109803085
 20
-16.29561661
 40
0.2
100
AcDbArc
 50
0.0
 51
92.0
  0
ARC
  5
6A5
100
AcDbEntity
  8
0
100
AcDbCircle
 62
7
  6
CONTINUOUS
 10
-50.109803085
 20
-2.9366692728
 40
0.2
100
AcDbArc
 50
0.0
 51
85.0
  0
ARC
  5
6A6
100
AcDbEntity
  8
0
100
AcDbCircle
 62
7
  6
CONTINUOUS
 10
-50.109803085
 20
-7.1861673351
 40
0.1999997956
100
AcDbArc
 50
268.0
 51
0.0000041119
  0
ARC
  5
6A7
100
AcDbEntity
  8
0
100
AcDbCircle
 62
7
  6
CONTINUOUS
 10
-55.909803085
 20
0.1591082985
 40
0.9
100
AcDbArc
 50
298.2829713506
 51
61.7170286494
  0
ARC
  5
6A8
100
AcDbEntity
  8
0
100
AcDbCircle
 62
7
  6
CONTINUOUS
 10
-55.909803085
 20
0.1591082985
 40
0.9
100
AcDbArc
 50
90.0
 51
270.0
  0
ARC
  5
6A9
100
AcDbEntity
  8
ASSI
100
AcDbCircle
 62
7
  6
CONTINUOUS
 10
-59.5520828821
 20
20.7664661321
 40
1.2
100
AcDbArc
 50
94.5
 51
180.0146478186
  0
ARC
  5
6AA
100
AcDbEntity
  8
0
100
AcDbCircle
 62
250
  6
CONTINUOUS
 10
-52.609803085
 20
0.1591082985
 40
5.0
100
AcDbArc
 50
91.0
 51
269.0
  0
ARC
  5
6AB
100
AcDbEntity
  8
0
100
AcDbCircle
 62
7
  6
CONTINUOUS
 10
-54.109803085
 20
0.335534332
 40
0.3
100
AcDbArc
 50
90.5
 51
180.0
  0
ARC
  5
6AC
100
AcDbEntity
  8
0
100
AcDbCircle
 62
7
  6
CONTINUOUS
 10
-50.109803085
 20
3.2548858698
 40
0.2
100
AcDbArc
 50
275.0
 51
360.0
  0
ARC
  5
6AD
100
AcDbEntity
  8
0
100
AcDbCircle
 62
7
  6
CONTINUOUS
 10
-50.109803085
 20
7.5043839321
 40
0.1999997956
100
AcDbArc
 50
359.9999958881
 51
92.0
  0
ARC
  5
6AE
100
AcDbEntity
  8
0
100
AcDbCircle
 62
250
  6
CONTINUOUS
 10
-52.3808551714
 20
12.9591082985
 40
0.4
100
AcDbArc
 50
10.0
 51
90.0
  0
ARC
  5
6AF
100
AcDbEntity
  8
RACCORDO
100
AcDbCircle
 62
7
  6
CONTINUOUS
 10
-54.109803085
 20
17.2119339248
 40
0.3
100
AcDbArc
 50
91.0
 51
168.2602048008
  0
ARC
  5
6B0
100
AcDbEntity
  8
0
100
AcDbCircle
 62
250
  6
CONTINUOUS
 10
-54.109803085
 20
17.2119339248
 40
0.3
100
AcDbArc
 50
91.0
 51
180.0
  0
ARC
  5
6B1
100
AcDbEntity
  8
0
100
AcDbCircle
 62
250
  6
CONTINUOUS
 10
-54.109803085
 20
16.9062817019
 40
0.2999995149
100
AcDbArc
 50
179.9998146872
 51
268.9999967658
  0
ARC
  5
6B2
100
AcDbEntity
  8
0
100
AcDbCircle
 62
250
  6
CONTINUOUS
 10
-52.709803085
 20
13.3591082985
 40
0.2
100
AcDbArc
 50
180.0
 51
270.0
  0
ARC
  5
6B3
100
AcDbEntity
  8
0
100
AcDbCircle
 62
250
  6
CONTINUOUS
 10
-52.3808551714
 20
12.9591082985
 40
0.2
100
AcDbArc
 50
10.0
 51
90.0
  0
ARC
  5
6B4
100
AcDbEntity
  8
0
100
AcDbCircle
 62
7
  6
CONTINUOUS
 10
-52.709803085
 20
15.4591082985
 40
0.2
100
AcDbArc
 50
90.0
 51
180.0
  0
ARC
  5
6B5
100
AcDbEntity
  8
0
100
AcDbCircle
 62
7
  6
CONTINUOUS
 10
-52.159803085
 20
24.3960139506
 40
0.25
100
AcDbArc
 50
90.3333333333
 51
180.0
  0
ARC
  5
6B6
100
AcDbEntity
  8
0
100
AcDbCircle
 62
7
  6
CONTINUOUS
 10
-52.159803085
 20
24.0034458658
 40
0.25
100
AcDbArc
 50
180.0
 51
240.0
  0
ARC
  5
6B7
100
AcDbEntity
  8
0
100
AcDbCircle
 62
7
  6
CONTINUOUS
 10
-51.309803085
 20
15.4624784664
 40
0.2
100
AcDbArc
 50
0.0
 51
92.0000000006
  0
ARC
  5
6B8
100
AcDbEntity
  8
0
100
AcDbCircle
 62
7
  6
CONTINUOUS
 10
-50.109803085
 20
16.613833207
 40
0.2
100
AcDbArc
 50
268.0
 51
360.0
  0
ARC
  5
6B9
100
AcDbEntity
  8
0
100
AcDbCircle
 62
7
  6
CONTINUOUS
 10
-49.159803085
 20
24.4047406953
 40
0.25
100
AcDbArc
 50
0.0
 51
89.6666666667
  0
ARC
  5
6BA
100
AcDbEntity
  8
0
100
AcDbCircle
 62
7
  6
CONTINUOUS
 10
-49.159803085
 20
24.0034458658
 40
0.25
100
AcDbArc
 50
300.0
 51
360.0
  0
ARC
  5
6BB
100
AcDbEntity
  8
0
100
AcDbCircle
 62
250
  6
CONTINUOUS
 10
-50.209803085
 20
23.9573595649
 40
0.2
100
AcDbArc
 50
90.3333333333
 51
180.0
  0
ARC
  5
6BC
100
AcDbEntity
  8
0
100
AcDbCircle
 62
7
  6
CONTINUOUS
 10
-38.909803085
 20
-21.1768786501
 40
1.0
100
AcDbArc
 50
270.3333333333
 51
360.0
  0
ARC
  5
6BD
100
AcDbEntity
  8
0
100
AcDbCircle
 62
7
  6
CONTINUOUS
 10
-44.409803085
 20
-23.3088851758
 40
0.5
100
AcDbArc
 50
270.3333333333
 51
360.0
  0
ARC
  5
6BE
100
AcDbEntity
  8
RACCORDO
100
AcDbCircle
 62
7
  6
CONTINUOUS
 10
-38.109803085
 20
-18.5809332096
 40
0.2
100
AcDbArc
 50
0.0
 51
69.9999998797
  0
ARC
  5
6BF
100
AcDbEntity
  8
RACCORDO
100
AcDbCircle
 62
7
  6
CONTINUOUS
 10
-38.109803085
 20
-19.8351494893
 40
0.2
100
AcDbArc
 50
0.0
 51
89.5
  0
ARC
  5
6C0
100
AcDbEntity
  8
0
100
AcDbCircle
 62
7
  6
CONTINUOUS
 10
-38.109803085
 20
-19.8351494893
 40
0.2
100
AcDbArc
 50
0.0
 51
89.5
  0
ARC
  5
6C1
100
AcDbEntity
  8
0
100
AcDbCircle
 62
7
  6
CONTINUOUS
 10
-38.109803085
 20
-20.1351494893
 40
0.2
100
AcDbArc
 50
0.0
 51
89.5
  0
ARC
  5
6C2
100
AcDbEntity
  8
0
100
AcDbCircle
 62
7
  6
CONTINUOUS
 10
-38.109803085
 20
-18.5809332096
 40
0.2
100
AcDbArc
 50
0.0
 51
69.9999998797
  0
ARC
  5
6C3
100
AcDbEntity
  8
0
100
AcDbCircle
 62
7
  6
CONTINUOUS
 10
-38.909803085
 20
21.4950952472
 40
1.0
100
AcDbArc
 50
0.0
 51
89.6666666667
  0
ARC
  5
6C4
100
AcDbEntity
  8
0
100
AcDbCircle
 62
7
  6
CONTINUOUS
 10
-44.409803085
 20
23.6271017728
 40
0.5
100
AcDbArc
 50
0.0
 51
89.6666666667
  0
ARC
  5
6C5
100
AcDbEntity
  8
RACCORDO
100
AcDbCircle
 62
7
  6
CONTINUOUS
 10
-38.109803085
 20
18.8991498066
 40
0.2
100
AcDbArc
 50
290.0000001204
 51
360.0
  0
ARC
  5
6C6
100
AcDbEntity
  8
RACCORDO
100
AcDbCircle
 62
7
  6
CONTINUOUS
 10
-38.109803085
 20
20.1533660863
 40
0.2
100
AcDbArc
 50
270.5
 51
360.0
  0
ARC
  5
6C7
100
AcDbEntity
  8
0
100
AcDbCircle
 62
7
  6
CONTINUOUS
 10
-38.109803085
 20
20.1533660863
 40
0.2
100
AcDbArc
 50
270.5
 51
360.0
  0
ARC
  5
6C8
100
AcDbEntity
  8
0
100
AcDbCircle
 62
7
  6
CONTINUOUS
 10
-38.109803085
 20
20.4533660863
 40
0.2
100
AcDbArc
 50
270.5
 51
360.0
  0
ARC
  5
6C9
100
AcDbEntity
  8
0
100
AcDbCircle
 62
7
  6
CONTINUOUS
 10
-38.109803085
 20
18.8991498066
 40
0.2
100
AcDbArc
 50
290.0000001204
 51
360.0
  0
ELLIPSE
  5
6CA
100
AcDbEntity
  8
0
100
AcDbEllipse
 62
7
  6
CONTINUOUS
 10
1.3572765181
 20
22.4935985744
 30
0.0
 11
0.25
 21
0.0
 31
0.0
 40
0.0524077793
 41
-3.1357748894
 42
-1.5707963268
  0
ELLIPSE
  5
6CB
100
AcDbEntity
  8
0
100
AcDbEllipse
 62
7
  6
CONTINUOUS
 10
3.7427234819
 20
22.4935985744
 30
0.0
 11
0.25
 21
0.0
 31
0.0
 40
0.0524077793
 41
-1.5707963268
 42
-0.0058177642
  0
ELLIPSE
  5
6CC
100
AcDbEntity
  8
0
100
AcDbEllipse
 62
7
  6
CONTINUOUS
 10
18.7572765181
 20
22.4935985744
 30
0.0
 11
0.25
 21
0.0
 31
0.0
 40
0.0524077793
 41
-3.1357748894
 42
-1.5707963268
  0
ELLIPSE
  5
6CD
100
AcDbEntity
  8
0
100
AcDbEllipse
 62
7
  6
CONTINUOUS
 10
21.1427234819
 20
22.4935985744
 30
0.0
 11
0.25
 21
0.0
 31
0.0
 40
0.0524077793
 41
-1.5707963268
 42
-0.0058177642
  0
ELLIPSE
  5
6CE
100
AcDbEntity
  8
0
100
AcDbEllipse
 62
7
  6
CONTINUOUS
 10
0.6271315147
 20
21.9798104566
 30
0.0
 11
-0.1582391023
 21
0.4751033573
 31
0.0
 40
0.9984778551
 41
-0.3210503496
 42
0.4043638098
  0
ELLIPSE
  5
6CF
100
AcDbEntity
  8
0
100
AcDbEllipse
 62
7
  6
CONTINUOUS
 10
21.8728684853
 20
21.9798104566
 30
0.0
 11
0.1582391023
 21
0.4751033573
 31
0.0
 40
0.9984778551
 41
-1.2488325878
 42
0.3210503496
  0
ELLIPSE
  5
6D0
100
AcDbEntity
  8
0
100
AcDbEllipse
 62
7
  6
CONTINUOUS
 10
21.8728684853
 20
-21.6615938596
 30
0.0
 11
-0.1582391023
 21
0.4751033573
 31
0.0
 40
0.9984778551
 41
-3.4626430032
 42
-1.8927600658
  0
ELLIPSE
  5
6D1
100
AcDbEntity
  8
0
100
AcDbEllipse
 62
7
  6
CONTINUOUS
 10
0.6271315147
 20
-21.6615938596
 30
0.0
 11
-0.1582391023
 21
-0.4751033573
 31
0.0
 40
0.9984778551
 41
-0.7167610533
 42
0.3210503496
  0
ELLIPSE
  5
6D2
100
AcDbEntity
  8
0
100
AcDbEllipse
 62
7
  6
CONTINUOUS
 10
10.05
 20
-22.2251693677
 30
0.0
 11
0.2
 21
0.0
 31
0.0
 40
0.0524077793
 41
-0.0
 42
1.5707963268
  0
ELLIPSE
  5
6D3
100
AcDbEntity
  8
0
100
AcDbEllipse
 62
7
  6
CONTINUOUS
 10
12.45
 20
-22.2251693677
 30
0.0
 11
0.2
 21
0.0
 31
0.0
 40
0.0524077793
 41
1.5707963268
 42
3.1415926536
  0
ELLIPSE
  5
6D4
100
AcDbEntity
  8
0
100
AcDbEllipse
 62
7
  6
CONTINUOUS
 10
10.05
 20
22.5433859647
 30
0.0
 11
0.2
 21
0.0
 31
0.0
 40
0.0524077793
 41
-1.5707963268
 42
0.0
  0
ELLIPSE
  5
6D5
100
AcDbEntity
  8
0
100
AcDbEllipse
 62
7
  6
CONTINUOUS
 10
12.45
 20
22.5433859647
 30
0.0
 11
0.2
 21
0.0
 31
0.0
 40
0.0524077793
 41
-3.1415926536
 42
-1.5707963268
  0
ELLIPSE
  5
6D6
100
AcDbEntity
  8
0
100
AcDbEllipse
 62
7
  6
CONTINUOUS
 10
1.3572765181
 20
-22.1753819774
 30
0.0
 11
0.25
 21
0.0
 31
0.0
 40
0.0524077793
 41
1.5707963268
 42
3.1357748894
  0
ELLIPSE
  5
6D7
100
AcDbEntity
  8
0
100
AcDbEllipse
 62
7
  6
CONTINUOUS
 10
3.7427234819
 20
-22.1753819774
 30
0.0
 11
0.25
 21
0.0
 31
0.0
 40
0.0524077793
 41
0.0058177642
 42
1.5707963268
  0
ELLIPSE
  5
6D8
100
AcDbEntity
  8
0
100
AcDbEllipse
 62
7
  6
CONTINUOUS
 10
21.1427234819
 20
-22.1753819774
 30
0.0
 11
0.25
 21
0.0
 31
0.0
 40
0.0524077793
 41
0.0058177642
 42
1.5707963268
  0
ELLIPSE
  5
6D9
100
AcDbEntity
  8
0
100
AcDbEllipse
 62
7
  6
CONTINUOUS
 10
18.7572765181
 20
-22.1753819774
 30
0.0
 11
0.25
 21
0.0
 31
0.0
 40
0.0524077793
 41
1.5707963268
 42
3.1357748894
  0
ELLIPSE
  5
6DA
100
AcDbEntity
  8
ASSI
100
AcDbEllipse
 62
7
  6
CONTINUOUS
 10
21.6498286038
 20
-21.2855121959
 30
0.0
 11
0.4868463568
 21
-0.1148583403
 31
0.0
 40
0.9984681069
 41
-0.5530260506
 42
0.2313442638
  0
ELLIPSE
  5
6DB
100
AcDbEntity
  8
ASSI
100
AcDbEllipse
 62
7
  6
CONTINUOUS
 10
21.6498286038
 20
21.8549413828
 30
0.0
 11
0.4868463568
 21
0.1148583403
 31
0.0
 40
0.9984681069
 41
-0.2313442638
 42
1.3387668303
  0
ELLIPSE
  5
6DC
100
AcDbEntity
  8
ASSI
100
AcDbEllipse
 62
7
  6
CONTINUOUS
 10
-21.6498286038
 20
21.8549413828
 30
0.0
 11
0.4868463568
 21
-0.1148583403
 31
0.0
 40
0.9984681069
 41
1.8028258233
 42
3.3729369174
  0
ELLIPSE
  5
6DD
100
AcDbEntity
  8
ASSI
100
AcDbEllipse
 62
7
  6
CONTINUOUS
 10
-21.6498286038
 20
-21.2855121959
 30
0.0
 11
0.4868463568
 21
0.1148583403
 31
0.0
 40
0.9984681069
 41
2.9102483898
 42
3.6946187042
  0
ELLIPSE
  5
6DE
100
AcDbEntity
  8
0
100
AcDbEllipse
 62
7
  6
CONTINUOUS
 10
-38.409803085
 20
-21.9242460473
 30
0.0
 11
-0.0
 21
0.5
 31
0.0
 40
1.0
 41
-0.9160011313
 42
-0.0174532925
  0
ELLIPSE
  5
6DF
100
AcDbEntity
  8
0
100
AcDbEllipse
 62
7
  6
CONTINUOUS
 10
27.4386265911
 20
-22.9908917015
 30
0.0
 11
85.9426996401
 21
0.0
 31
0.0
 40
0.0058178298
 41
-2.6791240519
 42
-2.5607560384
  0
ELLIPSE
  5
6E0
100
AcDbEntity
  8
0
100
AcDbEllipse
 62
7
  6
CONTINUOUS
 10
27.4386265911
 20
-22.9908917015
 30
0.0
 11
85.9426996401
 21
-0.0
 31
0.0
 40
0.0058178298
 41
2.5607560384
 42
2.6905658418
  0
ELLIPSE
  5
6E1
100
AcDbEntity
  8
0
100
AcDbEllipse
 62
7
  6
CONTINUOUS
 10
-38.409803085
 20
22.2424626443
 30
0.0
 11
0.5
 21
0.0
 31
0.0
 40
1.0
 41
-1.5533430343
 42
-0.6547951955
  0
ELLIPSE
  5
6E2
100
AcDbEntity
  8
0
100
AcDbEllipse
 62
7
  6
CONTINUOUS
 10
27.4386265911
 20
23.3091082985
 30
0.0
 11
85.9426996401
 21
-0.0
 31
0.0
 40
0.0058178298
 41
-2.6905658418
 42
-2.5607560384
  0
ELLIPSE
  5
6E3
100
AcDbEntity
  8
0
100
AcDbEllipse
 62
7
  6
CONTINUOUS
 10
27.4386265911
 20
23.3091082985
 30
0.0
 11
85.9426996401
 21
-0.0
 31
0.0
 40
0.0058178298
 41
2.5607560384
 42
2.6791240518
  0
ELLIPSE
  5
6E4
100
AcDbEntity
  8
0
100
AcDbEllipse
 62
7
  6
CONTINUOUS
 10
-38.409803085
 20
22.2424626443
 30
0.0
 11
-0.0
 21
0.5
 31
0.0
 40
1.0
 41
-3.1241393611
 42
-2.2255915223
  0
ELLIPSE
  5
6E5
100
AcDbEntity
  8
0
100
AcDbEllipse
 62
7
  6
CONTINUOUS
 10
-38.409803085
 20
-21.9242460473
 30
0.0
 11
0.5
 21
0.0
 31
0.0
 40
1.0
 41
0.6547951955
 42
1.5533430343
  0
ELLIPSE
  5
6E6
100
AcDbEntity
  8
0
100
AcDbEllipse
 62
7
  6
CONTINUOUS
 10
27.4386265911
 20
-22.9908917015
 30
0.0
 11
85.9426996401
 21
0.0
 31
0.0
 40
0.0058178298
 41
-2.6905658418
 42
-2.6791240519
  0
ELLIPSE
  5
6E7
100
AcDbEntity
  8
0
100
AcDbEllipse
 62
7
  6
CONTINUOUS
 10
27.4386265911
 20
23.3091082985
 30
0.0
 11
85.9426996401
 21
0.0
 31
0.0
 40
0.0058178298
 41
2.6791240518
 42
2.6905658418
  0
ENDSEC
  0
SECTION
  2
OBJECTS
  0
DICTIONARY
  5
C
100
AcDbDictionary
280
0
281
1
  3
ACAD_GROUP
350
D
  3
ACAD_MLINESTYLE
350
17
  3
ACAD_LAYOUT
350
1A
  3
ACAD_PLOTSETTINGS
350
19
  3
ACAD_PLOTSTYLENAME
350
E
  0
DICTIONARY
  5
D
102
{ACAD_REACTORS
330
C
102
}
100
AcDbDictionary
280
0
281
1
  0
ACDBDICTIONARYWDFLT
  5
E
102
{ACAD_REACTORS
330
C
102
}
100
AcDbDictionary
281
1
  3
Normal
350
F
100
AcDbDictionaryWithDefault
340
F
  0
DICTIONARY
  5
17
102
{ACAD_REACTORS
330
C
102
}
100
AcDbDictionary
280
0
281
1
  3
Standard
350
18
  0
DICTIONARY
  5
19
102
{ACAD_REACTORS
330
C
102
}
100
AcDbDictionary
281
1
  0
DICTIONARY
  5
1A
102
{ACAD_REACTORS
330
C
102
}
100
AcDbDictionary
281
1
  3
Model
350
6E8
  3
Layout1
350
6E9
  0
ACDBPLACEHOLDER
  5
F
102
{ACAD_REACTORS
330
E
102
}
  0
MLINESTYLE
  5
18
102
{ACAD_REACTORS
330
17
102
}
100
AcDbMlineStyle
  2
STANDARD
 70
0
  3

 62
256
 51
90.0
 52
90.0
 71
2
 49
0.5
 62
256
  6
BYLAYER
 49
-0.5
 62
256
  6
BYLAYER
  0
LAYOUT
  5
6E8
102
{ACAD_REACTORS
330
1A
102
}
100
AcDbPlotSettings
  1

  2
none_device
  4
ISO_A4_(297.00_x_210.00_MM)
  6

 40
0.0
 41
0.0
 42
0.0
 43
0.0
 44
297.0
 45
210.0
 46
0.0
 47
0.0
 48
0.0
 49
0.0
140
0.0
141
0.0
142
1.0
143
1.0
 70
1024
 72
1
 73
0
 74
0
  7

 75
0
147
1.0
148
0.0
149
0.0
100
AcDbLayout
  1
Model
 70
0
 71
0
 10
0.0
 20
0.0
 11
297.0
 21
210.0
 12
0.0
 22
0.0
 32
0.0
 14
0.0
 24
0.0
 34
0.0
 15
0.0
 25
0.0
 35
0.0
146
0.0
 13
0.0
 23
0.0
 33
0.0
 16
1.0
 26
0.0
 36
0.0
 17
0.0
 27
1.0
 37
0.0
 76
0
330
219
345
0
346
0
  0
LAYOUT
  5
6E9
102
{ACAD_REACTORS
330
1A
102
}
100
AcDbPlotSettings
  1

  2
none_device
  4
ISO_A4_(297.00_x_210.00_MM)
  6

 40
0.0
 41
0.0
 42
0.0
 43
0.0
 44
297.0
 45
210.0
 46
0.0
 47
0.0
 48
0.0
 49
0.0
140
0.0
141
0.0
142
1.0
143
1.0
 70
0
 72
1
 73
0
 74
0
  7

 75
0
147
1.0
148
0.0
149
0.0
100
AcDbLayout
  1
Layout1
 70
0
 71
1
 10
0.0
 20
0.0
 11
297.0
 21
210.0
 12
0.0
 22
0.0
 32
0.0
 14
0.0
 24
0.0
 34
0.0
 15
0.0
 25
0.0
 35
0.0
146
0.0
 13
0.0
 23
0.0
 33
0.0
 16
1.0
 26
0.0
 36
0.0
 17
0.0
 27
1.0
 37
0.0
 76
0
330
21A
345
0
346
0
  0
ENDSEC
  0
EOF
