  0
SECTION
  2
HEADER
  9
$ACADVER
  1
AC1024
  9
$DWGCODEPAGE
  3
ANSI_1252
  9
$EXTMAX
 10
210.0
 20
297.0
 30
0.0
  9
$EXTMIN
 10
0.0
 20
0.0
 30
0.0
  9
$LIMMIN
 10
0.0
 20
0.0
  9
$LIMMAX
 10
210.0
 20
297.0
  9
$VIEWCTR
 10
105.0
 20
148.5
  9
$VIEWSIZE
 40
297.0
  9
$CLAYER
  8
0
  9
$LTSCALE
 40
19.36
  9
$CELTYPE
  6
BYLAYER
  9
$DIMSCALE
 40
1.0
  9
$DIMASZ
 40
3.0
  9
$DIMEXO
 40
0.5
  9
$DIMDLI
 40
13.376
  9
$DIMEXE
 40
1.5
  9
$DIMCEN
 40
3.168
  9
$DIMLFAC
 40
1.0
  9
$DIMBLK
  1
_FILLED
  9
$DIMALT
 70
0
  9
$DIMALTF
 40
0.0393700787
  9
$DIMTXT
 40
3.0
  9
$DIMTOL
 70
1
  9
$DIMLIM
 70
0
  9
$DIMTFAC
 40
1.0
  9
$DIMTP
 40
0.01
  9
$DIMTM
 40
0.01
  9
$DIMGAP
 40
0.625
  9
$DIMDSEP
 70
44
  9
$AUNITS
 70
0
  9
$PDMODE
 70
3
  9
$PDSIZE
 40
3.0
  9
$HANDSEED
  5
2BA
  9
$TILEMODE
 70
1
  9
$MEASUREMENT
 70
1
  9
$INSUNITS
 70
4
  0
ENDSEC
  0
SECTION
  2
CLASSES
  0
CLASS
  1
ACDBDICTIONARYWDFLT
  2
AcDbDictionaryWithDefault
  3
AutoCAD 2000
 90
0
 91
1
280
0
281
0
  0
CLASS
  1
ACDBPLACEHOLDER
  2
AcDbPlaceHolder
  3
AutoCAD 2000
 90
0
 91
1
280
0
281
0
  0
CLASS
  1
LAYOUT
  2
AcDbLayout
  3
AutoCAD 2000
 90
0
 91
0
280
0
281
0
  0
ENDSEC
  0
SECTION
  2
TABLES
  0
TABLE
  2
VPORT
  5
8
100
AcDbSymbolTable
 70
2
  0
VPORT
  5
1F4
100
AcDbSymbolTableRecord
100
AcDbViewportTableRecord
  2
*ACTIVE
 70
0
 10
0.0
 20
0.0
 11
1.0
 21
1.0
 12
105.0
 22
148.5
 13
0.0
 23
0.0
 14
1.0
 24
1.0
 15
0.0
 25
0.0
 16
0.0
 26
0.0
 36
1.0
 17
0.0
 27
0.0
 37
0.0
 40
297.0
 41
0.7070707071
 42
50.0
 43
0.0
 44
0.0
 50
0.0
 51
0.0
 71
0
 72
100
 73
1
 74
1
 75
0
 76
0
 77
0
 78
0
  0
ENDTAB
  0
TABLE
  2
LTYPE
  5
5
100
AcDbSymbolTable
 70
6
  0
LTYPE
  5
14
100
AcDbSymbolTableRecord
100
AcDbLinetypeTableRecord
  2
BYBLOCK
 70
0
  3

 72
65
 73
0
 40
0.0
  0
LTYPE
  5
15
100
AcDbSymbolTableRecord
100
AcDbLinetypeTableRecord
  2
BYLAYER
 70
0
  3

 72
65
 73
0
 40
0.0
  0
LTYPE
  5
16
100
AcDbSymbolTableRecord
100
AcDbLinetypeTableRecord
  2
CONTINUOUS
 70
64
  3
Solid line
 72
65
 73
0
 40
0.0
  0
LTYPE
  5
1F5
100
AcDbSymbolTableRecord
100
AcDbLinetypeTableRecord
  2
CENTER
 70
64
  3
____ _ ____ _ ____ _ ____ _ ____ _ ____ _ ____
 72
65
 73
4
 40
0.6
 49
0.375
 74
0
 49
-0.075
 74
0
 49
0.075
 74
0
 49
-0.075
 74
0
  0
LTYPE
  5
1F6
100
AcDbSymbolTableRecord
100
AcDbLinetypeTableRecord
  2
HIDDEN
 70
64
  3
- - - - - - - - - - - - - - - - - - - -
 72
65
 73
2
 40
0.2
 49
0.1
 74
0
 49
-0.1
 74
0
  0
LTYPE
  5
1F7
100
AcDbSymbolTableRecord
100
AcDbLinetypeTableRecord
  2
PHANTOM
 70
64
  3
_____ _ _ _____ _ _ _____ _ _ _____
 72
65
 73
6
 40
0.8
 49
0.45
 74
0
 49
-0.05
 74
0
 49
0.1
 74
0
 49
-0.05
 74
0
 49
0.1
 74
0
 49
-0.05
 74
0
  0
LTYPE
  5
1F8
100
AcDbSymbolTableRecord
100
AcDbLinetypeTableRecord
  2
DOT
 70
64
  3
. . . . . . . . . . . . . . . . . . . .
 72
65
 73
2
 40
0.2
 49
0.1
 74
0
 49
-0.1
 74
0
  0
LTYPE
  5
1F9
100
AcDbSymbolTableRecord
100
AcDbLinetypeTableRecord
  2
DASHED
 70
64
  3
- - - - - - - - - - - - - - - - - - - -
 72
65
 73
2
 40
0.2
 49
0.1
 74
0
 49
-0.1
 74
0
  0
ENDTAB
  0
TABLE
  2
LAYER
  5
2
100
AcDbSymbolTable
 70
36
  0
LAYER
  5
10
100
AcDbSymbolTableRecord
100
AcDbLayerTableRecord
  2
0
 70
0
 62
7
  6
CONTINUOUS
370
-3
390
F
  0
LAYER
  5
1FA
100
AcDbSymbolTableRecord
100
AcDbLayerTableRecord
  2
DEFAULT_1
 70
0
 62
7
  6
CENTER
370
-3
390
F
  0
LAYER
  5
1FB
100
AcDbSymbolTableRecord
100
AcDbLayerTableRecord
  2
DEFAULT_2
 70
0
 62
7
  6
HIDDEN
370
-3
390
F
  0
LAYER
  5
1FC
100
AcDbSymbolTableRecord
100
AcDbLayerTableRecord
  2
DEFAULT_3
 70
0
 62
7
  6
PHANTOM
370
-3
390
F
  0
LAYER
  5
1FD
100
AcDbSymbolTableRecord
100
AcDbLayerTableRecord
  2
ASSI
 70
0
 62
7
  6
CONTINUOUS
370
-3
390
F
  0
LAYER
  5
1FE
100
AcDbSymbolTableRecord
100
AcDbLayerTableRecord
  2
COORDINATE
 70
0
 62
7
  6
CONTINUOUS
370
-3
390
F
  0
LAYER
  5
1FF
100
AcDbSymbolTableRecord
100
AcDbLayerTableRecord
  2
COPY_PUBLISH
 70
0
 62
7
  6
CONTINUOUS
370
-3
390
F
  0
LAYER
  5
200
100
AcDbSymbolTableRecord
100
AcDbLayerTableRecord
  2
COSMETIC
 70
0
 62
7
  6
CONTINUOUS
370
-3
390
F
  0
LAYER
  5
201
100
AcDbSymbolTableRecord
100
AcDbLayerTableRecord
  2
COSMETICI
 70
0
 62
7
  6
CONTINUOUS
370
-3
390
F
  0
LAYER
  5
202
100
AcDbSymbolTableRecord
100
AcDbLayerTableRecord
  2
CURVE
 70
0
 62
7
  6
CONTINUOUS
370
-3
390
F
  0
LAYER
  5
203
100
AcDbSymbolTableRecord
100
AcDbLayerTableRecord
  2
DRAFT
 70
0
 62
7
  6
CONTINUOUS
370
-3
390
F
  0
LAYER
  5
204
100
AcDbSymbolTableRecord
100
AcDbLayerTableRecord
  2
IMPORT_IGES
 70
0
 62
7
  6
CONTINUOUS
370
-3
390
F
  0
LAYER
  5
205
100
AcDbSymbolTableRecord
100
AcDbLayerTableRecord
  2
INTFCLR_11
 70
0
 62
7
  6
CONTINUOUS
370
-3
390
F
  0
LAYER
  5
206
100
AcDbSymbolTableRecord
100
AcDbLayerTableRecord
  2
INTF_1
 70
0
 62
7
  6
CONTINUOUS
370
-3
390
F
  0
LAYER
  5
207
100
AcDbSymbolTableRecord
100
AcDbLayerTableRecord
  2
INTF_3
 70
0
 62
7
  6
CONTINUOUS
370
-3
390
F
  0
LAYER
  5
208
100
AcDbSymbolTableRecord
100
AcDbLayerTableRecord
  2
NOTE
 70
0
 62
7
  6
CONTINUOUS
370
-3
390
F
  0
LAYER
  5
209
100
AcDbSymbolTableRecord
100
AcDbLayerTableRecord
  2
PIANI
 70
0
 62
7
  6
CONTINUOUS
370
-3
390
F
  0
LAYER
  5
20A
100
AcDbSymbolTableRecord
100
AcDbLayerTableRecord
  2
PUNTI
 70
0
 62
7
  6
CONTINUOUS
370
-3
390
F
  0
LAYER
  5
20B
100
AcDbSymbolTableRecord
100
AcDbLayerTableRecord
  2
RACCORDO
 70
0
 62
7
  6
CONTINUOUS
370
-3
390
F
  0
LAYER
  5
20C
100
AcDbSymbolTableRecord
100
AcDbLayerTableRecord
  2
SIMBOLI
 70
0
 62
7
  6
CONTINUOUS
370
-3
390
F
  0
LAYER
  5
20D
100
AcDbSymbolTableRecord
100
AcDbLayerTableRecord
  2
SMUSSO
 70
0
 62
7
  6
CONTINUOUS
370
-3
390
F
  0
LAYER
  5
20E
100
AcDbSymbolTableRecord
100
AcDbLayerTableRecord
  2
SNAPLINE
 70
0
 62
7
  6
CONTINUOUS
370
-3
390
F
  0
LAYER
  5
20F
100
AcDbSymbolTableRecord
100
AcDbLayerTableRecord
  2
SUPERFICI
 70
0
 62
7
  6
CONTINUOUS
370
-3
390
F
  0
LAYER
  5
210
100
AcDbSymbolTableRecord
100
AcDbLayerTableRecord
  2
TRASH
 70
0
 62
7
  6
CONTINUOUS
370
-3
390
F
  0
LAYER
  5
211
100
AcDbSymbolTableRecord
100
AcDbLayerTableRecord
  2
___SHELL
 70
0
 62
7
  6
CONTINUOUS
370
-3
390
F
  0
ENDTAB
  0
TABLE
  2
STYLE
  5
3
100
AcDbSymbolTable
 70
1
  0
STYLE
  5
11
100
AcDbSymbolTableRecord
100
AcDbTextStyleTableRecord
  2
STANDARD
 70
0
 40
0.0
 41
0.8
 50
0.0
 71
0
 42
0.2
  3
txt
  4

  0
STYLE
  5
212
100
AcDbSymbolTableRecord
100
AcDbTextStyleTableRecord
  2
TEXTSTYLE_1
 70
0
 40
0.0
 41
0.8
 50
0.0
 71
0
 42
0.2
  3
gdt
  4

  0
ENDTAB
  0
TABLE
  2
VIEW
  5
6
100
AcDbSymbolTable
 70
0
  0
ENDTAB
  0
TABLE
  2
UCS
  5
7
100
AcDbSymbolTable
 70
0
  0
ENDTAB
  0
TABLE
  2
APPID
  5
9
100
AcDbSymbolTable
 70
1
  0
APPID
  5
213
100
AcDbSymbolTableRecord
100
AcDbRegAppTableRecord
  2
ACAD
 70
0
  0
ENDTAB
  0
TABLE
  2
BLOCK_RECORD
  5
1
100
AcDbSymbolTable
 70
0
  0
BLOCK_RECORD
  5
214
100
AcDbSymbolTableRecord
100
AcDbBlockTableRecord
  2
*Model_Space
  0
BLOCK_RECORD
  5
215
100
AcDbSymbolTableRecord
100
AcDbBlockTableRecord
  2
*Paper_Space
  0
BLOCK_RECORD
  5
216
100
AcDbSymbolTableRecord
100
AcDbBlockTableRecord
  2
_FILLED
  0
BLOCK_RECORD
  5
217
100
AcDbSymbolTableRecord
100
AcDbBlockTableRecord
  2
*D0
  0
BLOCK_RECORD
  5
218
100
AcDbSymbolTableRecord
100
AcDbBlockTableRecord
  2
*D1
  0
BLOCK_RECORD
  5
219
100
AcDbSymbolTableRecord
100
AcDbBlockTableRecord
  2
*D2
  0
ENDTAB
  0
TABLE
  2
DIMSTYLE
  5
A
100
AcDbSymbolTable
 70
1
100
AcDbDimStyleTable
 71
0
  0
DIMSTYLE
105
21A
100
AcDbSymbolTableRecord
100
AcDbDimStyleTableRecord
  2
STANDARD
 70
0
  3

  4

 40
1.0
 41
3.0
 42
0.5
 43
0.38
 44
1.5
 45
0.0
 46
0.0
 47
0.01
 48
0.01
140
3.0
141
0.09
142
0.0
143
25.4
144
1.0
145
0.0
146
1.0
147
0.625
 71
1
 72
0
 73
0
 74
0
 75
0
 76
0
 77
1
 78
8
 79
2
170
0
171
1
172
0
173
0
174
0
175
0
176
0
177
0
178
0
270
2
179
2
271
2
272
2
273
2
274
2
275
0
280
0
281
0
282
0
283
1
284
8
285
0
286
0
287
3
288
0
340
11
278
44
341
216
342
216
343
216
344
216
  0
DIMSTYLE
105
21B
100
AcDbSymbolTableRecord
100
AcDbDimStyleTableRecord
  2
DIMSTYLE_1
 70
0
  3

  4

 40
1.0
 41
3.0
 42
0.5
 43
0.38
 44
1.5
 45
0.0
 46
0.0
 47
0.0
 48
0.0
140
3.0
141
0.09
142
0.0
143
25.4
144
1.0
145
0.0
146
1.0
147
0.75
 71
0
 72
0
 73
0
 74
0
 75
0
 76
0
 77
1
 78
8
 79
2
170
0
171
1
172
0
173
0
174
0
175
0
176
0
177
0
178
0
270
2
179
2
271
2
272
2
273
2
274
2
275
0
280
0
281
0
282
0
283
1
284
8
285
0
286
0
287
3
288
0
340
11
278
44
341
216
342
216
343
216
344
216
  0
ENDTAB
  0
ENDSEC
  0
SECTION
  2
BLOCKS
  0
BLOCK
  5
20
100
AcDbEntity
  8
0
100
AcDbBlockBegin
  2
*Model_Space
 70
0
 10
0.0
 20
0.0
 30
0.0
  3
*Model_Space
  1

  0
ENDBLK
  5
21
100
AcDbEntity
  8
0
100
AcDbBlockEnd
  0
BLOCK
  5
1C
100
AcDbEntity
  8
0
100
AcDbBlockBegin
  2
*Paper_Space
 70
0
 10
0.0
 20
0.0
 30
0.0
  3
*Paper_Space
  1

  0
ENDBLK
  5
1D
100
AcDbEntity
  8
0
100
AcDbBlockEnd
  0
BLOCK
  5
21C
100
AcDbEntity
  8
0
100
AcDbBlockBegin
  2
_FILLED
 70
64
 10
0.0
 20
0.0
  3
_FILLED
  1

  0
SOLID
  5
21D
100
AcDbEntity
  8
0
  6
BYBLOCK
 62
0
100
AcDbTrace
 10
0.0
 20
0.0
 11
-1.0
 21
0.3166666667
 12
-1.0
 22
-0.3166666667
 13
-1.0
 23
-0.3166666667
  0
ENDBLK
  5
21E
100
AcDbEntity
  8
0
  6
BYBLOCK
 62
0
100
AcDbBlockEnd
  0
BLOCK
  5
21F
100
AcDbEntity
  8
0
100
AcDbBlockBegin
 62
7
  6
CONTINUOUS
  2
*D0
 70
65
 10
0.0
 20
0.0
  3
*D0
  1

  0
LINE
  5
220
100
AcDbEntity
  8
0
100
AcDbLine
 62
7
  6
CONTINUOUS
 10
11.0
 20
22.1001713375
 11
11.0
 21
33.5935382224
  0
LINE
  5
221
100
AcDbEntity
  8
0
100
AcDbLine
 62
7
  6
CONTINUOUS
 10
-11.0
 20
22.1001713375
 11
-11.0
 21
33.5935382224
  0
LINE
  5
222
100
AcDbEntity
  8
0
100
AcDbLine
 62
7
  6
CONTINUOUS
 10
11.0
 20
32.0935382224
 11
-0.0
 21
32.0935382224
  0
LINE
  5
223
100
AcDbEntity
  8
0
100
AcDbLine
 62
7
  6
CONTINUOUS
 10
-11.0
 20
32.0935382224
 11
-0.0
 21
32.0935382224
  0
INSERT
  5
224
100
AcDbEntity
  8
0
100
AcDbBlockReference
 62
7
  6
CONTINUOUS
  2
_FILLED
 10
11.0
 20
32.0935382224
 41
3.0
 42
3.0
 43
3.0
  0
INSERT
  5
225
100
AcDbEntity
  8
0
100
AcDbBlockReference
 62
7
  6
CONTINUOUS
  2
_FILLED
 10
-11.0
 20
32.0935382224
 41
3.0
 42
3.0
 43
3.0
 50
180.0
  0
ENDBLK
  5
226
100
AcDbEntity
  8
0
  6
BYBLOCK
 62
0
100
AcDbBlockEnd
  0
BLOCK
  5
227
100
AcDbEntity
  8
0
100
AcDbBlockBegin
 62
7
  6
CONTINUOUS
  2
*D1
 70
65
 10
0.0
 20
0.0
  3
*D1
  1

  0
LINE
  5
228
100
AcDbEntity
  8
0
100
AcDbLine
 62
7
  6
CONTINUOUS
 10
11.0001713375
 20
22.1
 11
22.4856384999
 21
22.1
  0
LINE
  5
229
100
AcDbEntity
  8
0
100
AcDbLine
 62
7
  6
CONTINUOUS
 10
11.0001713375
 20
-22.1
 11
22.4856384999
 21
-22.1
  0
LINE
  5
22A
100
AcDbEntity
  8
0
100
AcDbLine
 62
7
  6
CONTINUOUS
 10
20.9856384999
 20
22.1
 11
20.9856384999
 21
0.0
  0
LINE
  5
22B
100
AcDbEntity
  8
0
100
AcDbLine
 62
7
  6
CONTINUOUS
 10
20.9856384999
 20
-22.1
 11
20.9856384999
 21
0.0
  0
INSERT
  5
22C
100
AcDbEntity
  8
0
100
AcDbBlockReference
 62
7
  6
CONTINUOUS
  2
_FILLED
 10
20.9856384999
 20
22.1
 41
3.0
 42
3.0
 43
3.0
 50
90.0
  0
INSERT
  5
22D
100
AcDbEntity
  8
0
100
AcDbBlockReference
 62
7
  6
CONTINUOUS
  2
_FILLED
 10
20.9856384999
 20
-22.1
 41
3.0
 42
3.0
 43
3.0
 50
270.0
  0
ENDBLK
  5
22E
100
AcDbEntity
  8
0
  6
BYBLOCK
 62
0
100
AcDbBlockEnd
  0
BLOCK
  5
22F
100
AcDbEntity
  8
0
100
AcDbBlockBegin
 62
7
  6
CONTINUOUS
  2
*D2
 70
65
 10
0.0
 20
0.0
  3
*D2
  1

  0
LINE
  5
230
100
AcDbEntity
  8
0
100
AcDbLine
 62
7
  6
CONTINUOUS
 10
-26.0388223452
 20
22.2794050925
 11
-26.0388223452
 21
33.5935382224
  0
LINE
  5
231
100
AcDbEntity
  8
0
100
AcDbLine
 62
7
  6
CONTINUOUS
 10
-32.7388396151
 20
4.8758240954
 11
-32.7388396151
 21
33.5935382224
  0
LINE
  5
232
100
AcDbEntity
  8
0
100
AcDbLine
 62
7
  6
CONTINUOUS
 10
-26.0388223452
 20
32.0935382224
 11
-22.0388223452
 21
32.0935382224
  0
LINE
  5
233
100
AcDbEntity
  8
0
100
AcDbLine
 62
7
  6
CONTINUOUS
 10
-22.0388223452
 20
32.0935382224
 11
-29.3888309802
 21
32.0935382224
  0
LINE
  5
234
100
AcDbEntity
  8
0
100
AcDbLine
 62
7
  6
CONTINUOUS
 10
-32.7388396151
 20
32.0935382224
 11
-42.9501846825
 21
32.0935382224
  0
LINE
  5
235
100
AcDbEntity
  8
0
100
AcDbLine
 62
7
  6
CONTINUOUS
 10
-42.9501846825
 20
32.0935382224
 11
-29.3888309802
 21
32.0935382224
  0
INSERT
  5
236
100
AcDbEntity
  8
0
100
AcDbBlockReference
 62
7
  6
CONTINUOUS
  2
_FILLED
 10
-26.0388223452
 20
32.0935382224
 41
3.0
 42
3.0
 43
3.0
 50
180.0
  0
INSERT
  5
237
100
AcDbEntity
  8
0
100
AcDbBlockReference
 62
7
  6
CONTINUOUS
  2
_FILLED
 10
-32.7388396151
 20
32.0935382224
 41
3.0
 42
3.0
 43
3.0
  0
ENDBLK
  5
238
100
AcDbEntity
  8
0
  6
BYBLOCK
 62
0
100
AcDbBlockEnd
  0
ENDSEC
  0
SECTION
  2
ENTITIES
  0
DIMENSION
  5
239
100
AcDbEntity
  8
0
100
AcDbDimension
 62
7
  6
CONTINUOUS
  2
*D0
 10
-11.0
 20
32.0935382224
 11
-2.3571428571
 21
32.0935382224
 70
160
 71
2
 72
2
 41
0.9
 42
22.0
  3
DIMSTYLE_1
100
AcDbAlignedDimension
 13
11.0
 23
21.6001713375
 14
-11.0
 24
21.6001713375
 50
180.0
100
AcDbRotatedDimension
  0
DIMENSION
  5
23A
100
AcDbEntity
  8
0
100
AcDbDimension
 62
7
  6
CONTINUOUS
  2
*D1
 10
20.9856384999
 20
-22.1
 11
20.9856384999
 21
-4.3928571429
 70
160
 71
2
 72
2
 41
0.9
 42
44.2
  3
DIMSTYLE_1
100
AcDbAlignedDimension
 13
10.5001713375
 23
22.1
 14
10.5001713375
 24
-22.1
 50
270.0
100
AcDbRotatedDimension
  0
DIMENSION
  5
23B
100
AcDbEntity
  8
0
100
AcDbDimension
 62
7
  6
CONTINUOUS
  2
*D2
 10
-32.7388396151
 20
32.0935382224
 11
-42.9501846825
 21
32.0935382224
 70
160
 71
3
 72
2
 41
0.9
 42
6.7000172699
  3
DIMSTYLE_1
100
AcDbAlignedDimension
 13
-26.0388223452
 23
21.7794050925
 14
-32.7388396151
 24
4.3758240954
 50
180.0
100
AcDbRotatedDimension
  0
LWPOLYLINE
  5
23C
100
AcDbEntity
  8
ASSI
100
AcDbPolyline
 62
250
  6
CONTINUOUS
 90
16
 70
0
 10
10.3787579837
 20
-21.9785866462
 10
10.4309822958
 20
-21.9758150607
 10
10.4826348433
 20
-21.9676022309
 10
10.5331501933
 20
-21.9540380833
 10
10.5819753805
 20
-21.9352711172
 10
10.6285759135
 20
-21.9115067959
 10
10.6724416329
 20
-21.8830053123
 10
10.7130923623
 20
-21.8500787045
 10
10.7500831414
 20
-21.8130874351
 10
10.7830090591
 20
-21.7724364777
 10
10.8115097154
 20
-21.7285708599
 10
10.8352731698
 20
-21.681970775
 10
10.8540393382
 20
-21.6331463372
 10
10.8676028346
 20
-21.5826320105
 10
10.8758152231
 20
-21.5309807597
 10
10.8785866462
 20
-21.4787579837
  0
LWPOLYLINE
  5
23D
100
AcDbEntity
  8
ASSI
100
AcDbPolyline
 62
250
  6
CONTINUOUS
 90
14
 70
0
 10
10.4915558511
 20
-20.8292924685
 10
10.5383705218
 20
-20.8285891188
 10
10.5834651613
 20
-20.8276936173
 10
10.6264028384
 20
-20.8266146406
 10
10.6667675211
 20
-20.8253626431
 10
10.7041681075
 20
-20.8239497558
 10
10.7382422156
 20
-20.8223896683
 10
10.7686596944
 20
-20.8206974967
 10
10.7951258226
 20
-20.8188896367
 10
10.8173841644
 20
-20.8169836052
 10
10.8352190541
 20
-20.81499787
 10
10.8484576858
 20
-20.8129516714
 10
10.8569717876
 20
-20.8108648353
 10
10.8606788647
 20
-20.8087575816
  0
LINE
  5
23E
100
AcDbEntity
  8
ASSI
100
AcDbLine
 62
250
  6
CONTINUOUS
 10
10.3945930753
 20
-20.8300973803
 11
10.4915558511
 21
-20.8292924685
  0
LINE
  5
23F
100
AcDbEntity
  8
ASSI
100
AcDbLine
 62
250
  6
CONTINUOUS
 10
-10.3787579848
 20
-21.9785866472
 11
-3.6593254419
 21
-21.9704772757
  0
LINE
  5
240
100
AcDbEntity
  8
ASSI
100
AcDbLine
 62
7
  6
CONTINUOUS
 10
-10.5001713375
 20
-22.1
 11
10.5001713375
 21
-22.1
  0
LINE
  5
241
100
AcDbEntity
  8
ASSI
100
AcDbLine
 62
250
  6
CONTINUOUS
 10
-10.3945930794
 20
-20.8300973586
 11
10.3945930754
 21
-20.8300973565
  0
LINE
  5
242
100
AcDbEntity
  8
ASSI
100
AcDbLine
 62
250
  6
CONTINUOUS
 10
-3.6593254419
 20
-21.9704772757
 11
5.1049967024
 21
-21.971562311
  0
LWPOLYLINE
  5
243
100
AcDbEntity
  8
ASSI
100
AcDbPolyline
 62
250
  6
CONTINUOUS
 90
3
 70
0
 10
5.1049967024
 20
-21.971562311
 10
9.5638669341
 20
-21.9772026861
 10
10.3787579846
 20
-21.9785866471
  0
LWPOLYLINE
  5
244
100
AcDbEntity
  8
ASSI
100
AcDbPolyline
 62
250
  6
CONTINUOUS
 90
15
 70
0
 10
-10.3945921765
 20
-20.8300968079
 10
-10.4915540005
 20
-20.8292919243
 10
-10.5383682579
 20
-20.8285885979
 10
-10.5834625441
 20
-20.8276931255
 10
-10.6263999404
 20
-20.826614183
 10
-10.666764426
 20
-20.8253622242
 10
-10.7041649091
 20
-20.8239493791
 10
-10.7382390164
 20
-20.8223893369
 10
-10.7686566036
 20
-20.8206972129
 10
-10.7951229544
 20
-20.818889402
 10
-10.8173816364
 20
-20.8169834201
 10
-10.8352169849
 20
-20.8149977343
 10
-10.8484561933
 20
-20.812951584
 10
-10.8569709867
 20
-20.8108647941
 10
-10.8606788652
 20
-20.8087575838
  0
LWPOLYLINE
  5
245
100
AcDbEntity
  8
ASSI
100
AcDbPolyline
 62
250
  6
CONTINUOUS
 90
16
 70
0
 10
-10.3787579848
 20
-21.9785866472
 10
-10.4309816109
 20
-21.9758151344
 10
-10.4826335626
 20
-21.9676025054
 10
-10.5331484236
 20
-21.954038661
 10
-10.5819732247
 20
-21.9352720801
 10
-10.6285734974
 20
-21.9115081941
 10
-10.6724391244
 20
-21.8830071381
 10
-10.7130899234
 20
-21.8500809037
 10
-10.750080904
 20
-21.8130899231
 10
-10.7830071383
 20
-21.7724391241
 10
-10.8115081942
 20
-21.7285734971
 10
-10.8352720802
 20
-21.6819732244
 10
-10.854038661
 20
-21.6331484233
 10
-10.8676025054
 20
-21.5826335624
 10
-10.8758151344
 20
-21.5309816107
 10
-10.8785866472
 20
-21.4787579847
  0
LWPOLYLINE
  5
246
100
AcDbEntity
  8
ASSI
100
AcDbPolyline
 62
250
  6
CONTINUOUS
 90
9
 70
0
 10
-10.3787579837
 20
21.9785866462
 10
-10.3798376903
 20
21.9732611502
 10
-10.3809591364
 20
21.961816367
 10
-10.3820927674
 20
21.9443141225
 10
-10.3831870525
 20
21.9208481042
 10
-10.3842357081
 20
21.8915410798
 10
-10.3852779123
 20
21.8565421922
 10
-10.3862885334
 20
21.8160293172
 10
-10.3881668326
 20
21.7193311081
  0
LWPOLYLINE
  5
247
100
AcDbEntity
  8
ASSI
100
AcDbPolyline
 62
250
  6
CONTINUOUS
 90
7
 70
0
 10
-10.3852779153
 20
-21.8565421926
 10
-10.3842357107
 20
-21.8915410796
 10
-10.3831870547
 20
-21.9208481036
 10
-10.3820927692
 20
-21.944314122
 10
-10.380959138
 20
-21.9618163671
 10
-10.3798376916
 20
-21.9732611509
 10
-10.3787579848
 20
-21.9785866472
  0
LINE
  5
248
100
AcDbEntity
  8
ASSI
100
AcDbLine
 62
250
  6
CONTINUOUS
 10
-10.8676363477
 20
21.3275566689
 11
-10.8656925495
 21
21.2597557273
  0
LINE
  5
249
100
AcDbEntity
  8
ASSI
100
AcDbLine
 62
250
  6
CONTINUOUS
 10
-10.3872394303
 20
-21.7702126772
 11
-10.3852779153
 21
-21.8565421926
  0
LINE
  5
24A
100
AcDbEntity
  8
ASSI
100
AcDbLine
 62
250
  6
CONTINUOUS
 10
-10.8656925495
 20
21.2597557273
 11
-10.8640273801
 21
21.1823508489
  0
LINE
  5
24B
100
AcDbEntity
  8
ASSI
100
AcDbLine
 62
250
  6
CONTINUOUS
 10
-10.3890505013
 20
-21.6636481483
 11
-10.3872394303
 21
-21.7702126772
  0
LINE
  5
24C
100
AcDbEntity
  8
ASSI
100
AcDbLine
 62
250
  6
CONTINUOUS
 10
-10.8640273801
 20
21.1823508489
 11
-10.8626661047
 21
21.0965336799
  0
LINE
  5
24D
100
AcDbEntity
  8
ASSI
100
AcDbLine
 62
250
  6
CONTINUOUS
 10
-10.3913564467
 20
-21.4707608514
 11
-10.3890505013
 21
-21.6636481483
  0
LINE
  5
24E
100
AcDbEntity
  8
ASSI
100
AcDbLine
 62
250
  6
CONTINUOUS
 10
-10.8626661047
 20
21.0965336799
 11
-10.8612634631
 21
20.9563655433
  0
LINE
  5
24F
100
AcDbEntity
  8
ASSI
100
AcDbLine
 62
250
  6
CONTINUOUS
 10
-10.3939207291
 20
-21.0840578424
 11
-10.3913564467
 21
-21.4707608514
  0
LINE
  5
250
100
AcDbEntity
  8
ASSI
100
AcDbLine
 62
250
  6
CONTINUOUS
 10
-10.8612634631
 20
20.9563655433
 11
-10.8606788647
 21
20.8087575816
  0
LINE
  5
251
100
AcDbEntity
  8
ASSI
100
AcDbLine
 62
250
  6
CONTINUOUS
 10
-10.8606788647
 20
20.8087575816
 11
-10.8526015267
 21
11.5632725475
  0
LINE
  5
252
100
AcDbEntity
  8
ASSI
100
AcDbLine
 62
250
  6
CONTINUOUS
 10
-10.8526015267
 20
11.5632725475
 11
-10.8491398108
 21
2.3133508902
  0
LINE
  5
253
100
AcDbEntity
  8
ASSI
100
AcDbLine
 62
7
  6
CONTINUOUS
 10
-11.0
 20
-21.6001713375
 11
-11.0
 21
21.6001713375
  0
LINE
  5
254
100
AcDbEntity
  8
ASSI
100
AcDbLine
 62
250
  6
CONTINUOUS
 10
-10.3945930754
 20
20.8300973557
 11
-10.3939207291
 21
-21.0840578424
  0
LINE
  5
255
100
AcDbEntity
  8
ASSI
100
AcDbLine
 62
250
  6
CONTINUOUS
 10
-10.8491398108
 20
2.3133508902
 11
-10.8502937167
 21
-6.9391058077
  0
LINE
  5
256
100
AcDbEntity
  8
ASSI
100
AcDbLine
 62
250
  6
CONTINUOUS
 10
-10.8502937167
 20
-6.9391058077
 11
-10.8560632438
 21
-16.1864912169
  0
LINE
  5
257
100
AcDbEntity
  8
ASSI
100
AcDbLine
 62
250
  6
CONTINUOUS
 10
-10.8560632438
 20
-16.1864912169
 11
-10.8609777043
 21
-20.9079895385
  0
LINE
  5
258
100
AcDbEntity
  8
ASSI
100
AcDbLine
 62
250
  6
CONTINUOUS
 10
-10.3931054616
 20
21.246254416
 11
-10.3945930787
 21
20.8300973569
  0
LINE
  5
259
100
AcDbEntity
  8
ASSI
100
AcDbLine
 62
250
  6
CONTINUOUS
 10
-10.8609777043
 20
-20.9079895385
 11
-10.862112399
 21
-21.0511609082
  0
LINE
  5
25A
100
AcDbEntity
  8
ASSI
100
AcDbLine
 62
250
  6
CONTINUOUS
 10
-10.3906382848
 20
21.5390434099
 11
-10.3931054616
 21
21.246254416
  0
LINE
  5
25B
100
AcDbEntity
  8
ASSI
100
AcDbLine
 62
250
  6
CONTINUOUS
 10
-10.862112399
 20
-21.0511609082
 11
-10.8633048472
 21
-21.1402480586
  0
LINE
  5
25C
100
AcDbEntity
  8
ASSI
100
AcDbLine
 62
250
  6
CONTINUOUS
 10
-10.3881668326
 20
21.7193311081
 11
-10.3906382848
 21
21.5390434099
  0
LINE
  5
25D
100
AcDbEntity
  8
ASSI
100
AcDbLine
 62
250
  6
CONTINUOUS
 10
-10.8633048472
 20
-21.1402480586
 11
-10.8648228811
 21
-21.2221975583
  0
LWPOLYLINE
  5
25E
100
AcDbEntity
  8
ASSI
100
AcDbPolyline
 62
250
  6
CONTINUOUS
 90
12
 70
0
 10
-10.8648228811
 20
-21.2221975583
 10
-10.866635186
 20
-21.2950578151
 10
-10.8676363488
 20
-21.3275566706
 10
-10.8686969416
 20
-21.3572072044
 10
-10.8698160618
 20
-21.3840545076
 10
-10.8709765638
 20
-21.4076867086
 10
-10.8721796825
 20
-21.4280547035
 10
-10.873424183
 20
-21.4452075962
 10
-10.8746892147
 20
-21.4588808266
 10
-10.8759678276
 20
-21.4689862082
 10
-10.8772669718
 20
-21.4756119276
 10
-10.8785866472
 20
-21.4787579847
  0
LINE
  5
25F
100
AcDbEntity
  8
ASSI
100
AcDbLine
 62
250
  6
CONTINUOUS
 10
10.3787579847
 20
21.9785866472
 11
10.5001713375
 21
22.1
  0
LINE
  5
260
100
AcDbEntity
  8
ASSI
100
AcDbLine
 62
250
  6
CONTINUOUS
 10
10.5001713375
 20
-22.1
 11
10.3787579846
 21
-21.9785866471
  0
LINE
  5
261
100
AcDbEntity
  8
ASSI
100
AcDbLine
 62
250
  6
CONTINUOUS
 10
10.8785866472
 20
21.4787579847
 11
11.0
 21
21.6001713375
  0
LINE
  5
262
100
AcDbEntity
  8
ASSI
100
AcDbLine
 62
250
  6
CONTINUOUS
 10
11.0
 20
-21.6001713375
 11
10.8785866462
 21
-21.4787579837
  0
LWPOLYLINE
  5
263
100
AcDbEntity
  8
0
100
AcDbPolyline
 62
7
  6
CONTINUOUS
 90
2
 70
0
 43
0.3500000019
 10
20.2356435547
 20
-3.3928571472
 10
18.7356367188
 20
-3.3928571472
  0
LWPOLYLINE
  5
264
100
AcDbEntity
  8
0
100
AcDbPolyline
 62
7
  6
CONTINUOUS
 90
2
 70
0
 43
0.3500000019
 10
20.2356435547
 20
-1.0357143021
 10
18.7356367188
 20
-1.0357143021
  0
LWPOLYLINE
  5
265
100
AcDbEntity
  8
ASSI
100
AcDbPolyline
 62
250
  6
CONTINUOUS
 90
10
 70
0
 10
-10.8785866462
 20
21.4787579837
 10
-10.8772669707
 20
21.4756119264
 10
-10.8759678265
 20
21.4689862069
 10
-10.8746892136
 20
21.4588808253
 10
-10.8734241819
 20
21.4452075948
 10
-10.8721796814
 20
21.4280547022
 10
-10.8709765627
 20
21.4076867073
 10
-10.8698160607
 20
21.3840545061
 10
-10.8686969405
 20
21.3572072027
 10
-10.8676363477
 20
21.3275566689
  0
LWPOLYLINE
  5
266
100
AcDbEntity
  8
ASSI
100
AcDbPolyline
 62
250
  6
CONTINUOUS
 90
10
 70
0
 10
10.8785866462
 20
-21.4787579837
 10
10.8772669707
 20
-21.4756119264
 10
10.8759678265
 20
-21.4689862069
 10
10.8746892136
 20
-21.4588808253
 10
10.8734241819
 20
-21.4452075948
 10
10.8721796814
 20
-21.4280547022
 10
10.8709765627
 20
-21.4076867072
 10
10.8698160607
 20
-21.3840545061
 10
10.8686969405
 20
-21.3572072027
 10
10.8676363477
 20
-21.3275566688
  0
LINE
  5
267
100
AcDbEntity
  8
ASSI
100
AcDbLine
 62
250
  6
CONTINUOUS
 10
-10.8785866472
 20
-21.4787579847
 11
-11.0
 21
-21.6001713375
  0
LINE
  5
268
100
AcDbEntity
  8
ASSI
100
AcDbLine
 62
250
  6
CONTINUOUS
 10
-10.3787579848
 20
-21.9785866472
 11
-10.5001713375
 21
-22.1
  0
LWPOLYLINE
  5
269
100
AcDbEntity
  8
0
100
AcDbPolyline
 62
7
  6
CONTINUOUS
 90
10
 70
0
 43
0.3500000019
 10
19.7356376953
 20
0.9642857208
 10
19.8784980469
 20
1.0357143021
 10
19.9499228516
 20
1.0357143021
 10
20.0927832031
 20
0.8928571396
 10
20.0927832031
 20
0.8214285583
 10
20.0213476563
 20
0.7499999771
 10
19.9499228516
 20
0.7499999771
 10
19.8070625
 20
0.8214285583
 10
19.7356376953
 20
0.8928571396
 10
19.7356376953
 20
0.9642857208
  0
LWPOLYLINE
  5
26A
100
AcDbEntity
  8
0
100
AcDbPolyline
 62
7
  6
CONTINUOUS
 90
3
 70
0
 43
0.3500000019
 10
19.9499228516
 20
1.0357143021
 10
20.1642080078
 20
0.9642857208
 10
20.4499287109
 20
0.8214285583
  0
LINE
  5
26B
100
AcDbEntity
  8
ASSI
100
AcDbLine
 62
250
  6
CONTINUOUS
 10
-11.0
 20
21.6001713375
 11
-10.8785866462
 21
21.4787579837
  0
LINE
  5
26C
100
AcDbEntity
  8
ASSI
100
AcDbLine
 62
250
  6
CONTINUOUS
 10
-10.5001713375
 20
22.1
 11
-10.3787579846
 21
21.9785866471
  0
LINE
  5
26D
100
AcDbEntity
  8
ASSI
100
AcDbLine
 62
250
  6
CONTINUOUS
 10
10.8676363477
 20
-21.3275566688
 11
10.8656925495
 21
-21.2597557272
  0
LINE
  5
26E
100
AcDbEntity
  8
ASSI
100
AcDbLine
 62
250
  6
CONTINUOUS
 10
10.8656925495
 20
-21.2597557272
 11
10.8640273801
 21
-21.1823508489
  0
LINE
  5
26F
100
AcDbEntity
  8
ASSI
100
AcDbLine
 62
250
  6
CONTINUOUS
 10
10.8640273801
 20
-21.1823508489
 11
10.8626661047
 21
-21.0965336799
  0
LINE
  5
270
100
AcDbEntity
  8
ASSI
100
AcDbLine
 62
250
  6
CONTINUOUS
 10
10.3906382899
 20
21.5390434139
 11
10.3881668365
 21
21.7193311098
  0
LWPOLYLINE
  5
271
100
AcDbEntity
  8
ASSI
100
AcDbPolyline
 62
250
  6
CONTINUOUS
 90
3
 70
0
 10
10.8626661047
 20
-21.0965336799
 10
10.8612634631
 20
-20.9563655433
 10
10.8609777033
 20
-20.9079895367
  0
LINE
  5
272
100
AcDbEntity
  8
ASSI
100
AcDbLine
 62
250
  6
CONTINUOUS
 10
10.3931054678
 20
21.2462544244
 11
10.3906382899
 21
21.5390434139
  0
LINE
  5
273
100
AcDbEntity
  8
ASSI
100
AcDbLine
 62
250
  6
CONTINUOUS
 10
10.3945930817
 20
20.8300973573
 11
10.3931054678
 21
21.2462544244
  0
LINE
  5
274
100
AcDbEntity
  8
ASSI
100
AcDbLine
 62
250
  6
CONTINUOUS
 10
10.3939207226
 20
-21.0840578305
 11
10.3945930793
 21
20.8300973579
  0
LINE
  5
275
100
AcDbEntity
  8
ASSI
100
AcDbLine
 62
250
  6
CONTINUOUS
 10
10.3913564413
 20
-21.4707608467
 11
10.3939207226
 21
-21.0840578305
  0
LINE
  5
276
100
AcDbEntity
  8
ASSI
100
AcDbLine
 62
250
  6
CONTINUOUS
 10
10.8609777043
 20
20.9079895385
 11
10.862112399
 21
21.0511609082
  0
LINE
  5
277
100
AcDbEntity
  8
ASSI
100
AcDbLine
 62
250
  6
CONTINUOUS
 10
10.862112399
 20
21.0511609082
 11
10.8633048472
 21
21.1402480586
  0
LWPOLYLINE
  5
278
100
AcDbEntity
  8
ASSI
100
AcDbPolyline
 62
250
  6
CONTINUOUS
 90
3
 70
0
 10
10.3881668326
 20
-21.7193311081
 10
10.389050497
 20
-21.6636481459
 10
10.3913564413
 20
-21.4707608467
  0
LINE
  5
279
100
AcDbEntity
  8
ASSI
100
AcDbLine
 62
250
  6
CONTINUOUS
 10
10.8633048472
 20
21.1402480586
 11
10.8648228811
 21
21.2221975583
  0
LWPOLYLINE
  5
27A
100
AcDbEntity
  8
ASSI
100
AcDbPolyline
 62
250
  6
CONTINUOUS
 90
12
 70
0
 10
10.8648228811
 20
21.2221975583
 10
10.866635186
 20
21.2950578151
 10
10.8676363488
 20
21.3275566706
 10
10.8686969416
 20
21.3572072044
 10
10.8698160618
 20
21.3840545076
 10
10.8709765638
 20
21.4076867086
 10
10.8721796825
 20
21.4280547035
 10
10.873424183
 20
21.4452075962
 10
10.8746892147
 20
21.4588808266
 10
10.8759678276
 20
21.4689862082
 10
10.8772669718
 20
21.4756119276
 10
10.8785866472
 20
21.4787579847
  0
LWPOLYLINE
  5
27B
100
AcDbEntity
  8
ASSI
100
AcDbPolyline
 62
250
  6
CONTINUOUS
 90
7
 70
0
 10
10.3852779153
 20
21.8565421926
 10
10.3842357107
 20
21.8915410796
 10
10.3831870547
 20
21.9208481036
 10
10.3820927692
 20
21.944314122
 10
10.3809591379
 20
21.9618163671
 10
10.3798376916
 20
21.9732611509
 10
10.3787579847
 20
21.9785866472
  0
LWPOLYLINE
  5
27C
100
AcDbEntity
  8
ASSI
100
AcDbPolyline
 62
250
  6
CONTINUOUS
 90
3
 70
0
 10
10.3881668365
 20
21.7193311098
 10
10.3872394303
 20
21.7702126772
 10
10.3852779153
 20
21.8565421926
  0
LINE
  5
27D
100
AcDbEntity
  8
ASSI
100
AcDbLine
 62
250
  6
CONTINUOUS
 10
10.8609777033
 20
-20.9079895367
 11
10.8526015275
 21
-11.5632739553
  0
LINE
  5
27E
100
AcDbEntity
  8
ASSI
100
AcDbLine
 62
250
  6
CONTINUOUS
 10
10.8526015275
 20
-11.5632739553
 11
10.8491398111
 21
-2.3133529014
  0
LINE
  5
27F
100
AcDbEntity
  8
ASSI
100
AcDbLine
 62
7
  6
CONTINUOUS
 10
11.0
 20
-21.6001713375
 11
11.0
 21
21.6001713375
  0
LINE
  5
280
100
AcDbEntity
  8
ASSI
100
AcDbLine
 62
250
  6
CONTINUOUS
 10
10.8491398111
 20
-2.3133529014
 11
10.850293716
 21
6.9391039977
  0
LINE
  5
281
100
AcDbEntity
  8
ASSI
100
AcDbLine
 62
250
  6
CONTINUOUS
 10
10.850293716
 20
6.9391039977
 11
10.8560632433
 21
16.1864904124
  0
LINE
  5
282
100
AcDbEntity
  8
ASSI
100
AcDbLine
 62
250
  6
CONTINUOUS
 10
10.8560632433
 20
16.1864904124
 11
10.8609777043
 21
20.9079895385
  0
LWPOLYLINE
  5
283
100
AcDbEntity
  8
ASSI
100
AcDbPolyline
 62
250
  6
CONTINUOUS
 90
9
 70
0
 10
10.3787579837
 20
-21.9785866462
 10
10.3798376903
 20
-21.9732611502
 10
10.3809591364
 20
-21.961816367
 10
10.3820927674
 20
-21.9443141225
 10
10.3831870525
 20
-21.9208481042
 10
10.3842357081
 20
-21.8915410798
 10
10.3852779123
 20
-21.8565421922
 10
10.3862885334
 20
-21.8160293172
 10
10.3881668326
 20
-21.7193311081
  0
LWPOLYLINE
  5
284
100
AcDbEntity
  8
0
100
AcDbPolyline
 62
7
  6
CONTINUOUS
 90
3
 70
0
 43
0.3500000019
 10
19.5927773438
 20
-0.5357142754
 10
19.5927773438
 20
-2.0357143555
 10
17.235640625
 20
-1.3928571243
  0
LWPOLYLINE
  5
285
100
AcDbEntity
  8
0
100
AcDbPolyline
 62
7
  6
CONTINUOUS
 90
3
 70
0
 43
0.3500000019
 10
19.5927773438
 20
-2.8928569946
 10
19.5927773438
 20
-4.3928571167
 10
17.235640625
 20
-3.7499999695
  0
LWPOLYLINE
  5
286
100
AcDbEntity
  8
0
100
AcDbPolyline
 62
7
  6
CONTINUOUS
 90
7
 70
0
 43
0.3500000019
 10
20.2356435547
 20
3.5357141418
 10
20.2356435547
 20
2.0357143555
 10
18.09278125
 20
3.5357141418
 10
17.6642109375
 20
3.5357141418
 10
17.235640625
 20
3.1071428223
 10
17.235640625
 20
2.464285675
 10
17.8784960938
 20
2.0357143555
  0
LWPOLYLINE
  5
287
100
AcDbEntity
  8
ASSI
100
AcDbPolyline
 62
250
  6
CONTINUOUS
 90
14
 70
0
 10
-10.4915558511
 20
20.8292924685
 10
-10.5383705218
 20
20.8285891189
 10
-10.5834651613
 20
20.8276936173
 10
-10.6264028384
 20
20.8266146406
 10
-10.6667675211
 20
20.8253626432
 10
-10.7041681075
 20
20.8239497558
 10
-10.7382422156
 20
20.8223896683
 10
-10.7686596944
 20
20.8206974967
 10
-10.7951258226
 20
20.8188896367
 10
-10.8173841644
 20
20.8169836052
 10
-10.8352190541
 20
20.81499787
 10
-10.8484576858
 20
20.8129516714
 10
-10.8569717877
 20
20.8108648353
 10
-10.8606788647
 20
20.8087575816
  0
LINE
  5
288
100
AcDbEntity
  8
ASSI
100
AcDbLine
 62
250
  6
CONTINUOUS
 10
-10.3945930753
 20
20.8300973803
 11
-10.4915558511
 21
20.8292924685
  0
LINE
  5
289
100
AcDbEntity
  8
ASSI
100
AcDbLine
 62
250
  6
CONTINUOUS
 10
10.3945930793
 20
20.8300973579
 11
-10.3945930754
 21
20.8300973557
  0
LWPOLYLINE
  5
28A
100
AcDbEntity
  8
ASSI
100
AcDbPolyline
 62
250
  6
CONTINUOUS
 90
15
 70
0
 10
10.3945921764
 20
20.8300968079
 10
10.4915540004
 20
20.8292919243
 10
10.5383682579
 20
20.8285885979
 10
10.5834625441
 20
20.8276931255
 10
10.6263999404
 20
20.826614183
 10
10.6667644259
 20
20.8253622242
 10
10.7041649091
 20
20.8239493791
 10
10.7382390164
 20
20.8223893369
 10
10.7686566035
 20
20.8206972129
 10
10.7951229544
 20
20.818889402
 10
10.8173816364
 20
20.8169834201
 10
10.8352169849
 20
20.8149977343
 10
10.8484561933
 20
20.812951584
 10
10.8569709867
 20
20.8108647941
 10
10.8606788652
 20
20.8087575838
  0
LWPOLYLINE
  5
28B
100
AcDbEntity
  8
ASSI
100
AcDbPolyline
 62
250
  6
CONTINUOUS
 90
16
 70
0
 10
-10.3787579837
 20
21.9785866462
 10
-10.4309822958
 20
21.9758150607
 10
-10.4826348433
 20
21.9676022309
 10
-10.5331501933
 20
21.9540380833
 10
-10.5819753805
 20
21.9352711172
 10
-10.6285759135
 20
21.9115067959
 10
-10.6724416329
 20
21.8830053123
 10
-10.7130923623
 20
21.8500787045
 10
-10.7500831414
 20
21.8130874351
 10
-10.7830090591
 20
21.7724364777
 10
-10.8115097155
 20
21.7285708599
 10
-10.8352731698
 20
21.681970775
 10
-10.8540393382
 20
21.6331463372
 10
-10.8676028346
 20
21.5826320105
 10
-10.8758152231
 20
21.5309807597
 10
-10.8785866462
 20
21.4787579837
  0
LINE
  5
28C
100
AcDbEntity
  8
ASSI
100
AcDbLine
 62
250
  6
CONTINUOUS
 10
10.3787579847
 20
21.9785866472
 11
5.6765937904
 21
21.972095294
  0
LINE
  5
28D
100
AcDbEntity
  8
ASSI
100
AcDbLine
 62
250
  6
CONTINUOUS
 10
5.6765937904
 20
21.972095294
 11
0.968674342
 21
21.9694078407
  0
LINE
  5
28E
100
AcDbEntity
  8
ASSI
100
AcDbLine
 62
7
  6
CONTINUOUS
 10
-10.5001713375
 20
22.1
 11
10.5001713375
 21
22.1
  0
LINE
  5
28F
100
AcDbEntity
  8
ASSI
100
AcDbLine
 62
250
  6
CONTINUOUS
 10
0.968674342
 20
21.9694078407
 11
-4.4187544824
 21
21.971003181
  0
LINE
  5
290
100
AcDbEntity
  8
ASSI
100
AcDbLine
 62
250
  6
CONTINUOUS
 10
-4.4187544824
 20
21.971003181
 11
-9.5639392195
 21
21.9772028009
  0
LINE
  5
291
100
AcDbEntity
  8
ASSI
100
AcDbLine
 62
250
  6
CONTINUOUS
 10
-9.5639392195
 20
21.9772028009
 11
-10.3787579846
 21
21.9785866471
  0
LWPOLYLINE
  5
292
100
AcDbEntity
  8
ASSI
100
AcDbPolyline
 62
250
  6
CONTINUOUS
 90
16
 70
0
 10
10.3787579847
 20
21.9785866472
 10
10.4309816109
 20
21.9758151344
 10
10.4826335626
 20
21.9676025054
 10
10.5331484236
 20
21.954038661
 10
10.5819732247
 20
21.9352720801
 10
10.6285734974
 20
21.9115081941
 10
10.6724391244
 20
21.8830071381
 10
10.7130899234
 20
21.8500809037
 10
10.750080904
 20
21.8130899231
 10
10.7830071383
 20
21.7724391241
 10
10.8115081942
 20
21.7285734971
 10
10.8352720802
 20
21.6819732244
 10
10.854038661
 20
21.6331484233
 10
10.8676025054
 20
21.5826335624
 10
10.8758151344
 20
21.5309816107
 10
10.8785866472
 20
21.4787579847
  0
LWPOLYLINE
  5
293
100
AcDbEntity
  8
0
100
AcDbPolyline
 62
7
  6
CONTINUOUS
 90
7
 70
0
 43
0.3500000019
 10
1.5000009766
 20
32.8435373535
 10
-0.0000004883
 20
32.8435373535
 10
1.5000009766
 20
34.9863942871
 10
1.5000009766
 20
35.4149672852
 10
1.0714306641
 20
35.8435375977
 10
0.4285698242
 20
35.8435375977
 10
-0.0000004883
 20
35.2006821289
  0
LWPOLYLINE
  5
294
100
AcDbEntity
  8
0
100
AcDbPolyline
 62
7
  6
CONTINUOUS
 90
7
 70
0
 43
0.3500000019
 10
-0.8571411133
 20
32.8435373535
 10
-2.3571425781
 20
32.8435373535
 10
-0.8571411133
 20
34.9863942871
 10
-0.8571411133
 20
35.4149672852
 10
-1.2857167969
 20
35.8435375977
 10
-1.9285722656
 20
35.8435375977
 10
-2.3571425781
 20
35.2006821289
  0
LWPOLYLINE
  5
295
100
AcDbEntity
  8
0
100
AcDbPolyline
 62
7
  6
CONTINUOUS
 90
10
 70
0
 43
0.3500000019
 10
-41.8787568359
 20
35.8435375977
 10
-42.5216123047
 20
35.2006821289
 10
-42.9501853027
 20
34.3435388184
 10
-42.9501853027
 20
33.2721103516
 10
-42.5216123047
 20
32.8435373535
 10
-41.8787568359
 20
32.8435373535
 10
-41.4501838379
 20
33.2721103516
 10
-41.4501838379
 20
34.1292536621
 10
-41.8787568359
 20
34.5578239746
 10
-42.8073276367
 20
34.5578239746
  0
LINE
  5
296
100
AcDbEntity
  8
ASSI
100
AcDbLine
 62
7
  6
CONTINUOUS
 10
-26.0388223452
 20
-22.1
 11
-31.0290210754
 21
-21.9693270474
  0
LWPOLYLINE
  5
297
100
AcDbEntity
  8
ASSI
100
AcDbPolyline
 62
250
  6
CONTINUOUS
 90
22
 70
0
 10
-30.6754112653
 20
-21.9785866462
 10
-30.76128839
 20
-21.9732611502
 10
-30.8465459228
 20
-21.961816367
 10
-30.9307490413
 20
-21.9443141225
 10
-31.013467311
 20
-21.9208481042
 10
-31.0942811212
 20
-21.8915410798
 10
-31.172783092
 20
-21.8565421922
 10
-31.2485774802
 20
-21.8160293172
 10
-31.3212741643
 20
-21.7702126759
 10
-31.3904949987
 20
-21.7193311081
 10
-31.4558869311
 20
-21.6636481459
 10
-31.5171202186
 20
-21.6034492424
 10
-31.5738816537
 20
-21.5390434099
 10
-31.62588396
 20
-21.4707608467
 10
-31.6728640382
 20
-21.3989522539
 10
-31.7145815091
 20
-21.3239867225
 10
-31.7508233922
 20
-21.246254416
 10
-31.7814113172
 20
-21.1661475642
 10
-31.8061950919
 20
-21.0840578305
 10
-31.8250478014
 20
-21.0003976967
 10
-31.8378706374
 20
-20.9155999213
 10
-31.8445968738
 20
-20.8300973576
  0
LWPOLYLINE
  5
298
100
AcDbEntity
  8
0
100
AcDbPolyline
 62
7
  6
CONTINUOUS
 90
3
 70
0
 43
0.3500000019
 10
-39.8787548828
 20
33.1292526855
 10
-39.9501850586
 20
32.9149675293
 10
-40.0930427246
 20
32.6292521973
  0
LINE
  5
299
100
AcDbEntity
  8
ASSI
100
AcDbLine
 62
250
  6
CONTINUOUS
 10
-31.8445968401
 20
-20.8300973803
 11
-31.8388702637
 21
-20.8297968513
  0
LINE
  5
29A
100
AcDbEntity
  8
ASSI
100
AcDbLine
 62
250
  6
CONTINUOUS
 10
-31.8388702637
 20
-20.8297968513
 11
-31.6352415487
 21
-20.8206974967
  0
LINE
  5
29B
100
AcDbEntity
  8
ASSI
100
AcDbLine
 62
250
  6
CONTINUOUS
 10
-31.6352415487
 20
-20.8206974967
 11
-31.3592818491
 21
-20.8087575816
  0
LINE
  5
29C
100
AcDbEntity
  8
ASSI
100
AcDbLine
 62
250
  6
CONTINUOUS
 10
-32.195976494
 20
-20.8322351558
 11
-31.8445968431
 21
-20.8300973565
  0
LINE
  5
29D
100
AcDbEntity
  8
ASSI
100
AcDbLine
 62
250
  6
CONTINUOUS
 10
-26.0388223452
 20
-21.6001713375
 11
-30.6754112653
 21
-21.4787579837
  0
LWPOLYLINE
  5
29E
100
AcDbEntity
  8
ASSI
100
AcDbPolyline
 62
250
  6
CONTINUOUS
 90
22
 70
0
 10
-30.6754112653
 20
-21.4787579837
 10
-30.7258076386
 20
-21.4756119264
 10
-30.7754199534
 20
-21.4689862069
 10
-30.8242482097
 20
-21.4588808253
 10
-30.8725578233
 20
-21.4452075948
 10
-30.9200833783
 20
-21.4280547022
 10
-30.9660286275
 20
-21.4076867072
 10
-31.0103464113
 20
-21.3840545061
 10
-31.0530838892
 20
-21.3572072027
 10
-31.093586293
 20
-21.3275566688
 10
-31.1318191594
 20
-21.2950578133
 10
-31.1678169517
 20
-21.2597557272
 10
-31.2010282913
 20
-21.2221975563
 10
-31.2314072053
 20
-21.1823508489
 10
-31.2589996667
 20
-21.1402480566
 10
-31.2833922164
 20
-21.0965336799
 10
-31.3045374275
 20
-21.0511609064
 10
-31.322482727
 20
-21.0041765485
 10
-31.3369569367
 20
-20.9563655433
 10
-31.3478696639
 20
-20.9079895367
 10
-31.3553113014
 20
-20.8587868828
 10
-31.3592818491
 20
-20.8087575816
  0
LWPOLYLINE
  5
29F
100
AcDbEntity
  8
0
100
AcDbPolyline
 62
7
  6
CONTINUOUS
 90
4
 70
0
 43
0.3500000019
 10
-38.8787565918
 20
35.2006821289
 10
-38.8787565918
 20
35.8435375977
 10
-37.378755127
 20
35.8435375977
 10
-38.2358984375
 20
32.8435373535
  0
LWPOLYLINE
  5
2A0
100
AcDbEntity
  8
ASSI
100
AcDbPolyline
 62
250
  6
CONTINUOUS
 90
11
 70
0
 10
-30.6754112254
 20
21.9785866472
 10
-30.6767061732
 20
21.9758151344
 10
-30.677843671
 20
21.9676025054
 10
-30.6788112668
 20
21.954038661
 10
-30.6795983691
 20
21.9352720801
 10
-30.6801963613
 20
21.9115081941
 10
-30.6805986972
 20
21.8830071381
 10
-30.6808009723
 20
21.8500809037
 10
-30.6808009727
 20
21.8130899231
 10
-30.6805986981
 20
21.7724391241
 10
-30.6795983714
 20
21.6819732244
  0
LWPOLYLINE
  5
2A1
100
AcDbEntity
  8
ASSI
100
AcDbPolyline
 62
250
  6
CONTINUOUS
 90
9
 70
0
 10
-30.6754112653
 20
-21.9785866462
 10
-30.6767062339
 20
-21.9758150607
 10
-30.6778437461
 20
-21.9676022309
 10
-30.6788113503
 20
-21.9540380833
 10
-30.6795984553
 20
-21.9352711172
 10
-30.6801964451
 20
-21.9115067959
 10
-30.6805987736
 20
-21.8830053123
 10
-30.6808010378
 20
-21.8500787045
 10
-30.6808010253
 20
-21.8130874351
  0
LWPOLYLINE
  5
2A2
100
AcDbEntity
  8
ASSI
100
AcDbPolyline
 62
250
  6
CONTINUOUS
 90
22
 70
0
 10
-31.8445968312
 20
20.8300973573
 10
-31.8378705941
 20
20.9155999271
 10
-31.825047757
 20
21.0003977066
 10
-31.8061950463
 20
21.0840578424
 10
-31.7814112711
 20
21.1661475754
 10
-31.7508233464
 20
21.2462544244
 10
-31.7145814639
 20
21.3239867288
 10
-31.6728639933
 20
21.3989522592
 10
-31.6258839152
 20
21.4707608514
 10
-31.5738816091
 20
21.5390434139
 10
-31.5171201746
 20
21.6034492456
 10
-31.4558868878
 20
21.6636481483
 10
-31.3904949562
 20
21.7193311098
 10
-31.3212741225
 20
21.7702126772
 10
-31.2485774392
 20
21.816029318
 10
-31.1727830521
 20
21.8565421926
 10
-31.0942810833
 20
21.8915410796
 10
-31.0134672754
 20
21.9208481036
 10
-30.930749007
 20
21.944314122
 10
-30.8465458878
 20
21.9618163671
 10
-30.7612883532
 20
21.9732611509
 10
-30.6754112254
 20
21.9785866472
  0
LWPOLYLINE
  5
2A3
100
AcDbEntity
  8
ASSI
100
AcDbPolyline
 62
250
  6
CONTINUOUS
 90
10
 70
0
 10
-31.8445968431
 20
-20.8300973565
 10
-32.0207222075
 20
-16.203779131
 10
-32.1528565953
 20
-11.5756742786
 10
-32.240968694
 20
-6.9462030007
 10
-32.2850339308
 20
-2.3155769551
 10
-32.285033947
 20
2.315573568
 10
-32.2409687375
 20
6.9461999527
 10
-32.1528566516
 20
11.5756719087
 10
-32.0207222524
 20
16.2037777778
 10
-31.8445968428
 20
20.8300973579
  0
LWPOLYLINE
  5
2A4
100
AcDbEntity
  8
ASSI
100
AcDbPolyline
 62
250
  6
CONTINUOUS
 90
10
 70
0
 10
-31.3592818491
 20
-20.8087575816
 10
-31.5355453138
 20
-16.1864912143
 10
-31.6677429145
 20
-11.5632739553
 10
-31.7558746514
 20
-6.9391058046
 10
-31.7999405281
 20
-2.3133529014
 10
-31.7999405409
 20
2.3133508934
 10
-31.7558746784
 20
6.9391039977
 10
-31.6677429368
 20
11.5632725504
 10
-31.5355453199
 20
16.1864904124
 10
-31.3592818278
 20
20.8087575838
  0
LWPOLYLINE
  5
2A5
100
AcDbEntity
  8
ASSI
100
AcDbPolyline
 62
7
  6
CONTINUOUS
 90
13
 70
0
 10
-32.1959764946
 20
20.8322351429
 10
-32.3591665393
 20
17.4235885418
 10
-32.4958562266
 20
13.9397926404
 10
-32.6021776218
 20
10.45493781
 10
-32.6781197511
 20
6.9692886865
 10
-32.7236741664
 20
3.4831099596
 10
-32.7388396012
 20
-0.0033334725
 10
-32.7236160561
 20
-3.4897766251
 10
-32.6780035318
 20
-6.9759545133
 10
-32.6020033046
 20
-10.4616022392
 10
-32.4956238364
 20
-13.9464551137
 10
-32.3588761025
 20
-17.430248501
 10
-32.1959764946
 20
-20.832235143
  0
LWPOLYLINE
  5
2A6
100
AcDbEntity
  8
ASSI
100
AcDbPolyline
 62
250
  6
CONTINUOUS
 90
22
 70
0
 10
-31.3592818278
 20
20.8087575838
 10
-31.3553112708
 20
20.8587868848
 10
-31.3478696263
 20
20.9079895385
 10
-31.3369568944
 20
20.9563655451
 10
-31.322482683
 20
21.0041765503
 10
-31.3045373841
 20
21.0511609082
 10
-31.2833921737
 20
21.0965336818
 10
-31.258999624
 20
21.1402480586
 10
-31.2314071626
 20
21.1823508509
 10
-31.2010282487
 20
21.2221975583
 10
-31.1678169091
 20
21.2597557292
 10
-31.1318191169
 20
21.2950578151
 10
-31.0935862506
 20
21.3275566706
 10
-31.0530838469
 20
21.3572072044
 10
-31.0103463692
 20
21.3840545076
 10
-30.9660285856
 20
21.4076867086
 10
-30.9200833367
 20
21.4280547035
 10
-30.872557782
 20
21.4452075962
 10
-30.8242481688
 20
21.4588808266
 10
-30.7754199128
 20
21.4689862082
 10
-30.7258075983
 20
21.4756119276
 10
-30.6754112254
 20
21.4787579847
  0
LINE
  5
2A7
100
AcDbEntity
  8
ASSI
100
AcDbLine
 62
250
  6
CONTINUOUS
 10
-30.6778436731
 20
21.5826335624
 11
-30.6754112254
 21
21.4787579847
  0
LINE
  5
2A8
100
AcDbEntity
  8
ASSI
100
AcDbLine
 62
250
  6
CONTINUOUS
 10
-30.6795983714
 20
21.6819732244
 11
-30.6778436731
 21
21.5826335624
  0
LINE
  5
2A9
100
AcDbEntity
  8
ASSI
100
AcDbLine
 62
250
  6
CONTINUOUS
 10
-30.6808010253
 20
-21.8130874351
 11
-30.6801963906
 21
-21.7285708599
  0
LINE
  5
2AA
100
AcDbEntity
  8
ASSI
100
AcDbLine
 62
250
  6
CONTINUOUS
 10
-30.6801963906
 20
-21.7285708599
 11
-30.6788112843
 21
-21.6331463372
  0
LWPOLYLINE
  5
2AB
100
AcDbEntity
  8
ASSI
100
AcDbPolyline
 62
250
  6
CONTINUOUS
 90
3
 70
0
 10
-30.6788112843
 20
-21.6331463372
 10
-30.6767061991
 20
-21.5309807597
 10
-30.6754112653
 20
-21.4787579837
  0
LINE
  5
2AC
100
AcDbEntity
  8
ASSI
100
AcDbLine
 62
7
  6
CONTINUOUS
 10
-26.0388223452
 20
-22.1
 11
-26.0388223452
 21
22.1
  0
LWPOLYLINE
  5
2AD
100
AcDbEntity
  8
0
100
AcDbPolyline
 62
7
  6
CONTINUOUS
 90
10
 70
0
 43
0.3500000019
 10
-39.9501850586
 20
33.3435378418
 10
-39.8787548828
 20
33.2006801758
 10
-39.8787548828
 20
33.1292526855
 10
-40.0216125488
 20
32.9863950195
 10
-40.0930427246
 20
32.9863950195
 10
-40.1644702148
 20
33.0578251953
 10
-40.1644702148
 20
33.1292526855
 10
-40.0930427246
 20
33.2721103516
 10
-40.0216125488
 20
33.3435378418
 10
-39.9501850586
 20
33.3435378418
  0
LINE
  5
2AE
100
AcDbEntity
  8
ASSI
100
AcDbLine
 62
250
  6
CONTINUOUS
 10
-30.6754112254
 20
21.4787579847
 11
-26.0388223452
 21
21.6001713375
  0
LINE
  5
2AF
100
AcDbEntity
  8
ASSI
100
AcDbLine
 62
7
  6
CONTINUOUS
 10
-31.0290210598
 20
21.9693270478
 11
-26.0388223452
 21
22.1
  0
LINE
  5
2B0
100
AcDbEntity
  8
ASSI
100
AcDbLine
 62
250
  6
CONTINUOUS
 10
-31.8445968428
 20
20.8300973579
 11
-32.195976494
 21
20.8322351557
  0
LWPOLYLINE
  5
2B1
100
AcDbEntity
  8
ASSI
100
AcDbPolyline
 62
250
  6
CONTINUOUS
 90
4
 70
0
 10
-31.8445834568
 20
20.8300968079
 10
-31.8388571511
 20
20.8297962898
 10
-31.8283573364
 20
20.8292919243
 10
-31.3592818278
 20
20.8087575838
  0
ARC
  5
2B2
100
AcDbEntity
  8
ASSI
100
AcDbCircle
 62
7
  6
CONTINUOUS
 10
-30.9976049605
 20
-20.7697383564
 40
1.2
100
AcDbArc
 50
182.9853521812
 51
268.5
  0
ARC
  5
2B3
100
AcDbEntity
  8
ASSI
100
AcDbCircle
 62
7
  6
CONTINUOUS
 10
-30.9976049613
 20
20.7697383563
 40
1.2
100
AcDbArc
 50
91.5
 51
177.014647819
  0
ELLIPSE
  5
2B4
100
AcDbEntity
  8
ASSI
100
AcDbEllipse
 62
7
  6
CONTINUOUS
 10
-10.4998286038
 20
-21.5998286038
 30
0.0
 11
0.35379574
 21
0.35379574
 31
0.0
 40
0.999315002
 41
-3.9266482006
 42
-2.3565371065
  0
ELLIPSE
  5
2B5
100
AcDbEntity
  8
ASSI
100
AcDbEllipse
 62
7
  6
CONTINUOUS
 10
10.4998286038
 20
-21.5998286038
 30
0.0
 11
0.35379574
 21
-0.35379574
 31
0.0
 40
0.999315002
 41
-0.7850555471
 42
0.7850555471
  0
ELLIPSE
  5
2B6
100
AcDbEntity
  8
ASSI
100
AcDbEllipse
 62
7
  6
CONTINUOUS
 10
10.4998286038
 20
21.5998286038
 30
0.0
 11
0.35379574
 21
0.35379574
 31
0.0
 40
0.999315002
 41
-0.7850555471
 42
0.7850555471
  0
ELLIPSE
  5
2B7
100
AcDbEntity
  8
ASSI
100
AcDbEllipse
 62
7
  6
CONTINUOUS
 10
-10.4998286038
 20
21.5998286038
 30
0.0
 11
0.35379574
 21
-0.35379574
 31
0.0
 40
0.999315002
 41
2.3565371065
 42
3.9266482006
  0
ENDSEC
  0
SECTION
  2
OBJECTS
  0
DICTIONARY
  5
C
100
AcDbDictionary
280
0
281
1
  3
ACAD_GROUP
350
D
  3
ACAD_MLINESTYLE
350
17
  3
ACAD_LAYOUT
350
1A
  3
ACAD_PLOTSETTINGS
350
19
  3
ACAD_PLOTSTYLENAME
350
E
  0
DICTIONARY
  5
D
102
{ACAD_REACTORS
330
C
102
}
100
AcDbDictionary
280
0
281
1
  0
ACDBDICTIONARYWDFLT
  5
E
102
{ACAD_REACTORS
330
C
102
}
100
AcDbDictionary
281
1
  3
Normal
350
F
100
AcDbDictionaryWithDefault
340
F
  0
DICTIONARY
  5
17
102
{ACAD_REACTORS
330
C
102
}
100
AcDbDictionary
280
0
281
1
  3
Standard
350
18
  0
DICTIONARY
  5
19
102
{ACAD_REACTORS
330
C
102
}
100
AcDbDictionary
281
1
  0
DICTIONARY
  5
1A
102
{ACAD_REACTORS
330
C
102
}
100
AcDbDictionary
281
1
  3
Model
350
2B8
  3
Layout1
350
2B9
  0
ACDBPLACEHOLDER
  5
F
102
{ACAD_REACTORS
330
E
102
}
  0
MLINESTYLE
  5
18
102
{ACAD_REACTORS
330
17
102
}
100
AcDbMlineStyle
  2
STANDARD
 70
0
  3

 62
256
 51
90.0
 52
90.0
 71
2
 49
0.5
 62
256
  6
BYLAYER
 49
-0.5
 62
256
  6
BYLAYER
  0
LAYOUT
  5
2B8
102
{ACAD_REACTORS
330
1A
102
}
100
AcDbPlotSettings
  1

  2
none_device
  4

  6

 40
0.0
 41
0.0
 42
0.0
 43
0.0
 44
210.0
 45
297.0
 46
0.0
 47
0.0
 48
0.0
 49
0.0
140
0.0
141
0.0
142
1.0
143
1.0
 70
1024
 72
1
 73
0
 74
0
  7

 75
0
147
1.0
148
0.0
149
0.0
100
AcDbLayout
  1
Model
 70
0
 71
0
 10
0.0
 20
0.0
 11
210.0
 21
297.0
 12
0.0
 22
0.0
 32
0.0
 14
0.0
 24
0.0
 34
0.0
 15
0.0
 25
0.0
 35
0.0
146
0.0
 13
0.0
 23
0.0
 33
0.0
 16
1.0
 26
0.0
 36
0.0
 17
0.0
 27
1.0
 37
0.0
 76
0
330
214
345
0
346
0
  0
LAYOUT
  5
2B9
102
{ACAD_REACTORS
330
1A
102
}
100
AcDbPlotSettings
  1

  2
none_device
  4

  6

 40
0.0
 41
0.0
 42
0.0
 43
0.0
 44
210.0
 45
297.0
 46
0.0
 47
0.0
 48
0.0
 49
0.0
140
0.0
141
0.0
142
1.0
143
1.0
 70
0
 72
1
 73
0
 74
0
  7

 75
0
147
1.0
148
0.0
149
0.0
100
AcDbLayout
  1
Layout1
 70
0
 71
1
 10
0.0
 20
0.0
 11
210.0
 21
297.0
 12
0.0
 22
0.0
 32
0.0
 14
0.0
 24
0.0
 34
0.0
 15
0.0
 25
0.0
 35
0.0
146
0.0
 13
0.0
 23
0.0
 33
0.0
 16
1.0
 26
0.0
 36
0.0
 17
0.0
 27
1.0
 37
0.0
 76
0
330
215
345
0
346
0
  0
ENDSEC
  0
EOF
