  0
SECTION
  2
HEADER
  9
$ACADVER
  1
AC1024
  9
$DWGCODEPAGE
  3
ANSI_1252
  9
$EXTMAX
 10
297.0
 20
210.0
 30
0.0
  9
$EXTMIN
 10
0.0
 20
0.0
 30
0.0
  9
$LIMMIN
 10
0.0
 20
0.0
  9
$LIMMAX
 10
297.0
 20
210.0
  9
$VIEWCTR
 10
148.5
 20
105.0
  9
$VIEWSIZE
 40
210.0
  9
$CLAYER
  8
0
  9
$LTSCALE
 40
16.335
  9
$CELTYPE
  6
BYLAYER
  9
$DIMSCALE
 40
1.0
  9
$DIMASZ
 40
3.0
  9
$DIMEXO
 40
0.5
  9
$DIMDLI
 40
11.286
  9
$DIMEXE
 40
1.5
  9
$DIMCEN
 40
2.673
  9
$DIMLFAC
 40
1.0
  9
$DIMBLK
  1
_FILLED
  9
$DIMALT
 70
0
  9
$DIMALTF
 40
0.0393700787
  9
$DIMTXT
 40
3.0
  9
$DIMTOL
 70
1
  9
$DIMLIM
 70
0
  9
$DIMTFAC
 40
1.0
  9
$DIMTP
 40
0.01
  9
$DIMTM
 40
0.01
  9
$DIMGAP
 40
0.625
  9
$DIMDSEP
 70
44
  9
$AUNITS
 70
0
  9
$PDMODE
 70
3
  9
$PDSIZE
 40
3.0
  9
$HANDSEED
  5
870
  9
$TILEMODE
 70
1
  9
$MEASUREMENT
 70
1
  9
$INSUNITS
 70
4
  0
ENDSEC
  0
SECTION
  2
CLASSES
  0
CLASS
  1
ACDBDICTIONARYWDFLT
  2
AcDbDictionaryWithDefault
  3
AutoCAD 2000
 90
0
 91
1
280
0
281
0
  0
CLASS
  1
ACDBPLACEHOLDER
  2
AcDbPlaceHolder
  3
AutoCAD 2000
 90
0
 91
1
280
0
281
0
  0
CLASS
  1
LAYOUT
  2
AcDbLayout
  3
AutoCAD 2000
 90
0
 91
0
280
0
281
0
  0
ENDSEC
  0
SECTION
  2
TABLES
  0
TABLE
  2
VPORT
  5
8
100
AcDbSymbolTable
 70
2
  0
VPORT
  5
1F4
100
AcDbSymbolTableRecord
100
AcDbViewportTableRecord
  2
*ACTIVE
 70
0
 10
0.0
 20
0.0
 11
1.0
 21
1.0
 12
148.5
 22
105.0
 13
0.0
 23
0.0
 14
1.0
 24
1.0
 15
0.0
 25
0.0
 16
0.0
 26
0.0
 36
1.0
 17
0.0
 27
0.0
 37
0.0
 40
210.0
 41
1.4142857143
 42
50.0
 43
0.0
 44
0.0
 50
0.0
 51
0.0
 71
0
 72
100
 73
1
 74
1
 75
0
 76
0
 77
0
 78
0
  0
ENDTAB
  0
TABLE
  2
LTYPE
  5
5
100
AcDbSymbolTable
 70
6
  0
LTYPE
  5
14
100
AcDbSymbolTableRecord
100
AcDbLinetypeTableRecord
  2
BYBLOCK
 70
0
  3

 72
65
 73
0
 40
0.0
  0
LTYPE
  5
15
100
AcDbSymbolTableRecord
100
AcDbLinetypeTableRecord
  2
BYLAYER
 70
0
  3

 72
65
 73
0
 40
0.0
  0
LTYPE
  5
16
100
AcDbSymbolTableRecord
100
AcDbLinetypeTableRecord
  2
CONTINUOUS
 70
64
  3
Solid line
 72
65
 73
0
 40
0.0
  0
LTYPE
  5
1F5
100
AcDbSymbolTableRecord
100
AcDbLinetypeTableRecord
  2
CENTER
 70
64
  3
____ _ ____ _ ____ _ ____ _ ____ _ ____ _ ____
 72
65
 73
4
 40
0.6
 49
0.375
 74
0
 49
-0.075
 74
0
 49
0.075
 74
0
 49
-0.075
 74
0
  0
LTYPE
  5
1F6
100
AcDbSymbolTableRecord
100
AcDbLinetypeTableRecord
  2
HIDDEN
 70
64
  3
- - - - - - - - - - - - - - - - - - - -
 72
65
 73
2
 40
0.2
 49
0.1
 74
0
 49
-0.1
 74
0
  0
LTYPE
  5
1F7
100
AcDbSymbolTableRecord
100
AcDbLinetypeTableRecord
  2
PHANTOM
 70
64
  3
_____ _ _ _____ _ _ _____ _ _ _____
 72
65
 73
6
 40
0.8
 49
0.45
 74
0
 49
-0.05
 74
0
 49
0.1
 74
0
 49
-0.05
 74
0
 49
0.1
 74
0
 49
-0.05
 74
0
  0
LTYPE
  5
1F8
100
AcDbSymbolTableRecord
100
AcDbLinetypeTableRecord
  2
DOT
 70
64
  3
. . . . . . . . . . . . . . . . . . . .
 72
65
 73
2
 40
0.2
 49
0.1
 74
0
 49
-0.1
 74
0
  0
LTYPE
  5
1F9
100
AcDbSymbolTableRecord
100
AcDbLinetypeTableRecord
  2
DASHED
 70
64
  3
- - - - - - - - - - - - - - - - - - - -
 72
65
 73
2
 40
0.2
 49
0.1
 74
0
 49
-0.1
 74
0
  0
ENDTAB
  0
TABLE
  2
LAYER
  5
2
100
AcDbSymbolTable
 70
36
  0
LAYER
  5
10
100
AcDbSymbolTableRecord
100
AcDbLayerTableRecord
  2
0
 70
0
 62
7
  6
CONTINUOUS
370
-3
390
F
  0
LAYER
  5
1FA
100
AcDbSymbolTableRecord
100
AcDbLayerTableRecord
  2
DEFAULT_1
 70
0
 62
7
  6
CENTER
370
-3
390
F
  0
LAYER
  5
1FB
100
AcDbSymbolTableRecord
100
AcDbLayerTableRecord
  2
DEFAULT_2
 70
0
 62
7
  6
HIDDEN
370
-3
390
F
  0
LAYER
  5
1FC
100
AcDbSymbolTableRecord
100
AcDbLayerTableRecord
  2
DEFAULT_3
 70
0
 62
7
  6
PHANTOM
370
-3
390
F
  0
LAYER
  5
1FD
100
AcDbSymbolTableRecord
100
AcDbLayerTableRecord
  2
ALTRE_SUP
 70
0
 62
7
  6
CONTINUOUS
370
-3
390
F
  0
LAYER
  5
1FE
100
AcDbSymbolTableRecord
100
AcDbLayerTableRecord
  2
ALTRI_PIANI
 70
0
 62
7
  6
CONTINUOUS
370
-3
390
F
  0
LAYER
  5
1FF
100
AcDbSymbolTableRecord
100
AcDbLayerTableRecord
  2
ASSI
 70
0
 62
7
  6
CONTINUOUS
370
-3
390
F
  0
LAYER
  5
200
100
AcDbSymbolTableRecord
100
AcDbLayerTableRecord
  2
COORDINATE
 70
0
 62
7
  6
CONTINUOUS
370
-3
390
F
  0
LAYER
  5
201
100
AcDbSymbolTableRecord
100
AcDbLayerTableRecord
  2
COORD_ORIGINE
 70
0
 62
7
  6
CONTINUOUS
370
-3
390
F
  0
LAYER
  5
202
100
AcDbSymbolTableRecord
100
AcDbLayerTableRecord
  2
COSMETICHE
 70
0
 62
7
  6
CONTINUOUS
370
-3
390
F
  0
LAYER
  5
203
100
AcDbSymbolTableRecord
100
AcDbLayerTableRecord
  2
COSTOLATURA
 70
0
 62
7
  6
CONTINUOUS
370
-3
390
F
  0
LAYER
  5
204
100
AcDbSymbolTableRecord
100
AcDbLayerTableRecord
  2
CURVE
 70
0
 62
7
  6
CONTINUOUS
370
-3
390
F
  0
LAYER
  5
205
100
AcDbSymbolTableRecord
100
AcDbLayerTableRecord
  2
DRAFT
 70
0
 62
7
  6
CONTINUOUS
370
-3
390
F
  0
LAYER
  5
206
100
AcDbSymbolTableRecord
100
AcDbLayerTableRecord
  2
IGES
 70
0
 62
7
  6
CONTINUOUS
370
-3
390
F
  0
LAYER
  5
207
100
AcDbSymbolTableRecord
100
AcDbLayerTableRecord
  2
NOTE
 70
0
 62
7
  6
CONTINUOUS
370
-3
390
F
  0
LAYER
  5
208
100
AcDbSymbolTableRecord
100
AcDbLayerTableRecord
  2
PIANI
 70
0
 62
7
  6
CONTINUOUS
370
-3
390
F
  0
LAYER
  5
209
100
AcDbSymbolTableRecord
100
AcDbLayerTableRecord
  2
PIANI_ORIGINE
 70
0
 62
7
  6
CONTINUOUS
370
-3
390
F
  0
LAYER
  5
20A
100
AcDbSymbolTableRecord
100
AcDbLayerTableRecord
  2
PIANI_SFORMI
 70
0
 62
7
  6
CONTINUOUS
370
-3
390
F
  0
LAYER
  5
20B
100
AcDbSymbolTableRecord
100
AcDbLayerTableRecord
  2
PUNTI
 70
0
 62
7
  6
CONTINUOUS
370
-3
390
F
  0
LAYER
  5
20C
100
AcDbSymbolTableRecord
100
AcDbLayerTableRecord
  2
RACCORDO
 70
0
 62
7
  6
CONTINUOUS
370
-3
390
F
  0
LAYER
  5
20D
100
AcDbSymbolTableRecord
100
AcDbLayerTableRecord
  2
SNAPLINE
 70
0
 62
7
  6
CONTINUOUS
370
-3
390
F
  0
LAYER
  5
20E
100
AcDbSymbolTableRecord
100
AcDbLayerTableRecord
  2
SUPERFICI
 70
0
 62
7
  6
CONTINUOUS
370
-3
390
F
  0
LAYER
  5
20F
100
AcDbSymbolTableRecord
100
AcDbLayerTableRecord
  2
TRASH
 70
0
 62
7
  6
CONTINUOUS
370
-3
390
F
  0
ENDTAB
  0
TABLE
  2
STYLE
  5
3
100
AcDbSymbolTable
 70
1
  0
STYLE
  5
11
100
AcDbSymbolTableRecord
100
AcDbTextStyleTableRecord
  2
STANDARD
 70
0
 40
0.0
 41
0.8
 50
0.0
 71
0
 42
0.2
  3
txt
  4

  0
STYLE
  5
210
100
AcDbSymbolTableRecord
100
AcDbTextStyleTableRecord
  2
TEXTSTYLE_1
 70
0
 40
0.0
 41
0.8
 50
0.0
 71
0
 42
0.2
  3
gdt
  4

  0
ENDTAB
  0
TABLE
  2
VIEW
  5
6
100
AcDbSymbolTable
 70
0
  0
ENDTAB
  0
TABLE
  2
UCS
  5
7
100
AcDbSymbolTable
 70
0
  0
ENDTAB
  0
TABLE
  2
APPID
  5
9
100
AcDbSymbolTable
 70
1
  0
APPID
  5
211
100
AcDbSymbolTableRecord
100
AcDbRegAppTableRecord
  2
ACAD
 70
0
  0
ENDTAB
  0
TABLE
  2
BLOCK_RECORD
  5
1
100
AcDbSymbolTable
 70
0
  0
BLOCK_RECORD
  5
212
100
AcDbSymbolTableRecord
100
AcDbBlockTableRecord
  2
*Model_Space
  0
BLOCK_RECORD
  5
213
100
AcDbSymbolTableRecord
100
AcDbBlockTableRecord
  2
*Paper_Space
  0
BLOCK_RECORD
  5
214
100
AcDbSymbolTableRecord
100
AcDbBlockTableRecord
  2
_FILLED
  0
BLOCK_RECORD
  5
215
100
AcDbSymbolTableRecord
100
AcDbBlockTableRecord
  2
*D0
  0
BLOCK_RECORD
  5
216
100
AcDbSymbolTableRecord
100
AcDbBlockTableRecord
  2
*D1
  0
BLOCK_RECORD
  5
217
100
AcDbSymbolTableRecord
100
AcDbBlockTableRecord
  2
*D2
  0
BLOCK_RECORD
  5
218
100
AcDbSymbolTableRecord
100
AcDbBlockTableRecord
  2
*D3
  0
BLOCK_RECORD
  5
219
100
AcDbSymbolTableRecord
100
AcDbBlockTableRecord
  2
*D4
  0
BLOCK_RECORD
  5
21A
100
AcDbSymbolTableRecord
100
AcDbBlockTableRecord
  2
*D5
  0
ENDTAB
  0
TABLE
  2
DIMSTYLE
  5
A
100
AcDbSymbolTable
 70
1
100
AcDbDimStyleTable
 71
0
  0
DIMSTYLE
105
21B
100
AcDbSymbolTableRecord
100
AcDbDimStyleTableRecord
  2
STANDARD
 70
0
  3

  4

 40
1.0
 41
3.0
 42
0.5
 43
0.38
 44
1.5
 45
0.0
 46
0.0
 47
0.01
 48
0.01
140
3.0
141
0.09
142
0.0
143
25.4
144
1.0
145
0.0
146
1.0
147
0.625
 71
1
 72
0
 73
0
 74
0
 75
0
 76
0
 77
1
 78
8
 79
2
170
0
171
1
172
0
173
0
174
0
175
0
176
0
177
0
178
0
270
2
179
2
271
2
272
2
273
2
274
2
275
0
280
0
281
0
282
0
283
1
284
8
285
0
286
0
287
3
288
0
340
11
278
44
341
214
342
214
343
214
344
214
  0
DIMSTYLE
105
21C
100
AcDbSymbolTableRecord
100
AcDbDimStyleTableRecord
  2
DIMSTYLE_1
 70
0
  3

  4

 40
1.0
 41
3.0
 42
0.5
 43
0.38
 44
1.5
 45
0.0
 46
0.0
 47
0.0
 48
0.0
140
3.0
141
0.09
142
0.0
143
25.4
144
1.0
145
0.0
146
1.0
147
0.75
 71
0
 72
0
 73
0
 74
0
 75
0
 76
0
 77
1
 78
8
 79
2
170
0
171
1
172
0
173
0
174
0
175
0
176
0
177
0
178
0
270
2
179
2
271
2
272
2
273
2
274
2
275
0
280
0
281
0
282
0
283
1
284
8
285
0
286
0
287
3
288
0
340
11
278
44
341
214
342
214
343
214
344
214
  0
DIMSTYLE
105
21D
100
AcDbSymbolTableRecord
100
AcDbDimStyleTableRecord
  2
DIMSTYLE_2
 70
0
  3

  4

 40
1.0
 41
3.0
 42
0.5
 43
0.38
 44
1.5
 45
0.0
 46
0.0
 47
0.0
 48
0.0
140
3.0
141
0.09
142
0.0
143
25.4
144
1.0
145
0.0
146
1.0
147
0.75
 71
0
 72
0
 73
0
 74
0
 75
0
 76
0
 77
1
 78
8
 79
2
170
0
171
1
172
0
173
0
174
0
175
0
176
0
177
0
178
0
270
2
179
2
271
1
272
1
273
2
274
2
275
0
280
0
281
0
282
0
283
1
284
8
285
0
286
0
287
3
288
0
340
11
278
44
341
214
342
214
343
214
344
214
  0
ENDTAB
  0
ENDSEC
  0
SECTION
  2
BLOCKS
  0
BLOCK
  5
20
100
AcDbEntity
  8
0
100
AcDbBlockBegin
  2
*Model_Space
 70
0
 10
0.0
 20
0.0
 30
0.0
  3
*Model_Space
  1

  0
ENDBLK
  5
21
100
AcDbEntity
  8
0
100
AcDbBlockEnd
  0
BLOCK
  5
1C
100
AcDbEntity
  8
0
100
AcDbBlockBegin
  2
*Paper_Space
 70
0
 10
0.0
 20
0.0
 30
0.0
  3
*Paper_Space
  1

  0
ENDBLK
  5
1D
100
AcDbEntity
  8
0
100
AcDbBlockEnd
  0
BLOCK
  5
21E
100
AcDbEntity
  8
0
100
AcDbBlockBegin
  2
_FILLED
 70
64
 10
0.0
 20
0.0
  3
_FILLED
  1

  0
SOLID
  5
21F
100
AcDbEntity
  8
0
  6
BYBLOCK
 62
0
100
AcDbTrace
 10
0.0
 20
0.0
 11
-1.0
 21
0.3166666667
 12
-1.0
 22
-0.3166666667
 13
-1.0
 23
-0.3166666667
  0
ENDBLK
  5
220
100
AcDbEntity
  8
0
  6
BYBLOCK
 62
0
100
AcDbBlockEnd
  0
BLOCK
  5
221
100
AcDbEntity
  8
0
100
AcDbBlockBegin
 62
7
  6
CONTINUOUS
  2
*D0
 70
65
 10
0.0
 20
0.0
  3
*D0
  1

  0
LINE
  5
222
100
AcDbEntity
  8
0
100
AcDbLine
 62
7
  6
CONTINUOUS
 10
-43.0
 20
3.75
 11
-43.0
 21
66.2
  0
LINE
  5
223
100
AcDbEntity
  8
0
100
AcDbLine
 62
7
  6
CONTINUOUS
 10
43.0
 20
3.75
 11
43.0
 21
66.2
  0
LINE
  5
224
100
AcDbEntity
  8
0
100
AcDbLine
 62
7
  6
CONTINUOUS
 10
-43.0
 20
64.7
 11
0.0
 21
64.7
  0
LINE
  5
225
100
AcDbEntity
  8
0
100
AcDbLine
 62
7
  6
CONTINUOUS
 10
43.0
 20
64.7
 11
0.0
 21
64.7
  0
INSERT
  5
226
100
AcDbEntity
  8
0
100
AcDbBlockReference
 62
7
  6
CONTINUOUS
  2
_FILLED
 10
-43.0
 20
64.7
 41
3.0
 42
3.0
 43
3.0
 50
180.0
  0
INSERT
  5
227
100
AcDbEntity
  8
0
100
AcDbBlockReference
 62
7
  6
CONTINUOUS
  2
_FILLED
 10
43.0
 20
64.7
 41
3.0
 42
3.0
 43
3.0
  0
ENDBLK
  5
228
100
AcDbEntity
  8
0
  6
BYBLOCK
 62
0
100
AcDbBlockEnd
  0
BLOCK
  5
229
100
AcDbEntity
  8
0
100
AcDbBlockBegin
 62
7
  6
CONTINUOUS
  2
*D1
 70
65
 10
0.0
 20
0.0
  3
*D1
  1

  0
LINE
  5
22A
100
AcDbEntity
  8
0
100
AcDbLine
 62
7
  6
CONTINUOUS
 10
-40.0
 20
27.2
 11
-40.0
 21
56.2
  0
LINE
  5
22B
100
AcDbEntity
  8
0
100
AcDbLine
 62
7
  6
CONTINUOUS
 10
40.0
 20
27.2
 11
40.0
 21
56.2
  0
LINE
  5
22C
100
AcDbEntity
  8
0
100
AcDbLine
 62
7
  6
CONTINUOUS
 10
-40.0
 20
54.7
 11
0.0
 21
54.7
  0
LINE
  5
22D
100
AcDbEntity
  8
0
100
AcDbLine
 62
7
  6
CONTINUOUS
 10
40.0
 20
54.7
 11
0.0
 21
54.7
  0
INSERT
  5
22E
100
AcDbEntity
  8
0
100
AcDbBlockReference
 62
7
  6
CONTINUOUS
  2
_FILLED
 10
-40.0
 20
54.7
 41
3.0
 42
3.0
 43
3.0
 50
180.0
  0
INSERT
  5
22F
100
AcDbEntity
  8
0
100
AcDbBlockReference
 62
7
  6
CONTINUOUS
  2
_FILLED
 10
40.0
 20
54.7
 41
3.0
 42
3.0
 43
3.0
  0
ENDBLK
  5
230
100
AcDbEntity
  8
0
  6
BYBLOCK
 62
0
100
AcDbBlockEnd
  0
BLOCK
  5
231
100
AcDbEntity
  8
0
100
AcDbBlockBegin
 62
7
  6
CONTINUOUS
  2
*D2
 70
65
 10
0.0
 20
0.0
  3
*D2
  1

  0
LINE
  5
232
100
AcDbEntity
  8
0
100
AcDbLine
 62
7
  6
CONTINUOUS
 10
-33.0
 20
29.5
 11
-33.0
 21
46.2
  0
LINE
  5
233
100
AcDbEntity
  8
0
100
AcDbLine
 62
7
  6
CONTINUOUS
 10
32.3662845989
 20
27.6030538251
 11
32.3662845989
 21
46.2
  0
LINE
  5
234
100
AcDbEntity
  8
0
100
AcDbLine
 62
7
  6
CONTINUOUS
 10
-33.0
 20
44.7
 11
-0.3168577005
 21
44.7
  0
LINE
  5
235
100
AcDbEntity
  8
0
100
AcDbLine
 62
7
  6
CONTINUOUS
 10
32.3662845989
 20
44.7
 11
-0.3168577005
 21
44.7
  0
INSERT
  5
236
100
AcDbEntity
  8
0
100
AcDbBlockReference
 62
7
  6
CONTINUOUS
  2
_FILLED
 10
-33.0
 20
44.7
 41
3.0
 42
3.0
 43
3.0
 50
180.0
  0
INSERT
  5
237
100
AcDbEntity
  8
0
100
AcDbBlockReference
 62
7
  6
CONTINUOUS
  2
_FILLED
 10
32.3662845989
 20
44.7
 41
3.0
 42
3.0
 43
3.0
  0
ENDBLK
  5
238
100
AcDbEntity
  8
0
  6
BYBLOCK
 62
0
100
AcDbBlockEnd
  0
BLOCK
  5
239
100
AcDbEntity
  8
0
100
AcDbBlockBegin
 62
7
  6
CONTINUOUS
  2
*D3
 70
65
 10
0.0
 20
0.0
  3
*D3
  1

  0
LINE
  5
23A
100
AcDbEntity
  8
0
100
AcDbLine
 62
7
  6
CONTINUOUS
 10
-71.8325699129
 20
36.7
 11
-90.3958105513
 21
36.7
  0
LINE
  5
23B
100
AcDbEntity
  8
0
100
AcDbLine
 62
7
  6
CONTINUOUS
 10
-71.8325699129
 20
-36.7
 11
-90.3958105513
 21
-36.7
  0
LINE
  5
23C
100
AcDbEntity
  8
0
100
AcDbLine
 62
7
  6
CONTINUOUS
 10
-88.8958105513
 20
36.7
 11
-88.8958105513
 21
0.0
  0
LINE
  5
23D
100
AcDbEntity
  8
0
100
AcDbLine
 62
7
  6
CONTINUOUS
 10
-88.8958105513
 20
-36.7
 11
-88.8958105513
 21
0.0
  0
INSERT
  5
23E
100
AcDbEntity
  8
0
100
AcDbBlockReference
 62
7
  6
CONTINUOUS
  2
_FILLED
 10
-88.8958105513
 20
36.7
 41
3.0
 42
3.0
 43
3.0
 50
90.0
  0
INSERT
  5
23F
100
AcDbEntity
  8
0
100
AcDbBlockReference
 62
7
  6
CONTINUOUS
  2
_FILLED
 10
-88.8958105513
 20
-36.7
 41
3.0
 42
3.0
 43
3.0
 50
270.0
  0
ENDBLK
  5
240
100
AcDbEntity
  8
0
  6
BYBLOCK
 62
0
100
AcDbBlockEnd
  0
BLOCK
  5
241
100
AcDbEntity
  8
0
100
AcDbBlockBegin
 62
7
  6
CONTINUOUS
  2
*D4
 70
65
 10
0.0
 20
0.0
  3
*D4
  1

  0
LINE
  5
242
100
AcDbEntity
  8
0
100
AcDbLine
 62
7
  6
CONTINUOUS
 10
-60.3325699129
 20
27.5
 11
-60.3325699129
 21
56.1972447371
  0
LINE
  5
243
100
AcDbEntity
  8
0
100
AcDbLine
 62
7
  6
CONTINUOUS
 10
-80.9325699129
 20
0.5
 11
-80.9325699129
 21
56.1972447371
  0
LINE
  5
244
100
AcDbEntity
  8
0
100
AcDbLine
 62
7
  6
CONTINUOUS
 10
-60.3325699129
 20
54.6972447371
 11
-70.6325699129
 21
54.6972447371
  0
LINE
  5
245
100
AcDbEntity
  8
0
100
AcDbLine
 62
7
  6
CONTINUOUS
 10
-80.9325699129
 20
54.6972447371
 11
-70.6325699129
 21
54.6972447371
  0
INSERT
  5
246
100
AcDbEntity
  8
0
100
AcDbBlockReference
 62
7
  6
CONTINUOUS
  2
_FILLED
 10
-60.3325699129
 20
54.6972447371
 41
3.0
 42
3.0
 43
3.0
  0
INSERT
  5
247
100
AcDbEntity
  8
0
100
AcDbBlockReference
 62
7
  6
CONTINUOUS
  2
_FILLED
 10
-80.9325699129
 20
54.6972447371
 41
3.0
 42
3.0
 43
3.0
 50
180.0
  0
ENDBLK
  5
248
100
AcDbEntity
  8
0
  6
BYBLOCK
 62
0
100
AcDbBlockEnd
  0
BLOCK
  5
249
100
AcDbEntity
  8
0
100
AcDbBlockBegin
 62
7
  6
CONTINUOUS
  2
*D5
 70
65
 10
0.0
 20
0.0
  3
*D5
  1

  0
LINE
  5
24A
100
AcDbEntity
  8
0
100
AcDbLine
 62
7
  6
CONTINUOUS
 10
-71.3325699129
 20
37.2
 11
-71.3325699129
 21
46.2446548357
  0
LINE
  5
24B
100
AcDbEntity
  8
0
100
AcDbLine
 62
7
  6
CONTINUOUS
 10
-60.3325699129
 20
27.5
 11
-60.3325699129
 21
46.2446548357
  0
LINE
  5
24C
100
AcDbEntity
  8
0
100
AcDbLine
 62
7
  6
CONTINUOUS
 10
-71.3325699129
 20
44.7446548357
 11
-75.3325699129
 21
44.7446548357
  0
LINE
  5
24D
100
AcDbEntity
  8
0
100
AcDbLine
 62
7
  6
CONTINUOUS
 10
-75.3325699129
 20
44.7446548357
 11
-65.8325699129
 21
44.7446548357
  0
LINE
  5
24E
100
AcDbEntity
  8
0
100
AcDbLine
 62
7
  6
CONTINUOUS
 10
-60.3325699129
 20
44.7446548357
 11
-56.3325699129
 21
44.7446548357
  0
LINE
  5
24F
100
AcDbEntity
  8
0
100
AcDbLine
 62
7
  6
CONTINUOUS
 10
-56.3325699129
 20
44.7446548357
 11
-65.8325699129
 21
44.7446548357
  0
INSERT
  5
250
100
AcDbEntity
  8
0
100
AcDbBlockReference
 62
7
  6
CONTINUOUS
  2
_FILLED
 10
-71.3325699129
 20
44.7446548357
 41
3.0
 42
3.0
 43
3.0
  0
INSERT
  5
251
100
AcDbEntity
  8
0
100
AcDbBlockReference
 62
7
  6
CONTINUOUS
  2
_FILLED
 10
-60.3325699129
 20
44.7446548357
 41
3.0
 42
3.0
 43
3.0
 50
180.0
  0
ENDBLK
  5
252
100
AcDbEntity
  8
0
  6
BYBLOCK
 62
0
100
AcDbBlockEnd
  0
ENDSEC
  0
SECTION
  2
ENTITIES
  0
DIMENSION
  5
253
100
AcDbEntity
  8
0
100
AcDbDimension
 62
7
  6
CONTINUOUS
  2
*D0
 10
43.0
 20
64.7
 11
-2.3571428571
 21
64.7
 70
160
 71
2
 72
2
 41
0.9
 42
86.0
  3
DIMSTYLE_1
100
AcDbAlignedDimension
 13
-43.0
 23
3.25
 14
43.0
 24
3.25
100
AcDbRotatedDimension
  0
DIMENSION
  5
254
100
AcDbEntity
  8
0
100
AcDbDimension
 62
7
  6
CONTINUOUS
  2
*D1
 10
40.0
 20
54.7
 11
-2.3571428571
 21
54.7
 70
160
 71
2
 72
2
 41
0.9
 42
80.0
  3
DIMSTYLE_1
100
AcDbAlignedDimension
 13
-40.0
 23
26.7
 14
40.0
 24
26.7
100
AcDbRotatedDimension
  0
DIMENSION
  5
255
100
AcDbEntity
  8
0
100
AcDbDimension
 62
7
  6
CONTINUOUS
  2
*D2
 10
32.3662845989
 20
44.7
 11
-4.6025719862
 21
44.7
 70
160
 71
2
 72
2
 41
0.9
 42
65.3662845989
  3
DIMSTYLE_2
100
AcDbAlignedDimension
 13
-33.0
 23
29.0
 14
32.3662845989
 24
27.1030538251
100
AcDbRotatedDimension
  0
DIMENSION
  5
256
100
AcDbEntity
  8
0
100
AcDbDimension
 62
7
  6
CONTINUOUS
  2
*D3
 10
-88.8958105513
 20
-36.7
 11
-88.8958105513
 21
-4.2857142857
 70
160
 71
2
 72
2
 41
0.9
 42
73.4
  3
DIMSTYLE_1
100
AcDbAlignedDimension
 13
-71.3325699129
 23
36.7
 14
-71.3325699129
 24
-36.7
 50
270.0
100
AcDbRotatedDimension
  0
DIMENSION
  5
257
100
AcDbEntity
  8
0
100
AcDbDimension
 62
7
  6
CONTINUOUS
  2
*D4
 10
-80.9325699129
 20
54.6972447371
 11
-75.0254270558
 21
54.6972447371
 70
160
 71
2
 72
2
 41
0.9
 42
20.6
  3
DIMSTYLE_1
100
AcDbAlignedDimension
 13
-60.3325699129
 23
27.0
 14
-80.9325699129
 24
0.0
 50
180.0
100
AcDbRotatedDimension
  0
DIMENSION
  5
258
100
AcDbEntity
  8
0
100
AcDbDimension
 62
7
  6
CONTINUOUS
  2
*D5
 10
-60.3325699129
 20
44.7446548357
 11
-67.5468556272
 21
44.7446548357
 70
160
 71
2
 72
2
 41
0.9
 42
11.0
  3
DIMSTYLE_1
100
AcDbAlignedDimension
 13
-71.3325699129
 23
36.7
 14
-60.3325699129
 24
27.0
100
AcDbRotatedDimension
  0
LWPOLYLINE
  5
259
100
AcDbEntity
  8
0
100
AcDbPolyline
 62
7
  6
CONTINUOUS
 90
10
 70
0
 43
0.3500000006
 10
1.0714285848
 20
68.4500024414
 10
0.4285714127
 20
67.8071399231
 10
-0.0
 20
66.9500019836
 10
-0.0
 20
65.8785704956
 10
0.4285714127
 20
65.4500015259
 10
1.0714285848
 20
65.4500015259
 10
1.5000000329
 20
65.8785704956
 10
1.5000000329
 20
66.7357174988
 10
1.0714285848
 20
67.1642864685
 10
0.1428571435
 20
67.1642864685
  0
LINE
  5
25A
100
AcDbEntity
  8
0
100
AcDbLine
 62
7
  6
CONTINUOUS
 10
-43.0
 20
3.25
 11
-43.0
 21
-3.25
  0
LINE
  5
25B
100
AcDbEntity
  8
0
100
AcDbLine
 62
7
  6
CONTINUOUS
 10
-41.3711307144
 20
3.25
 11
-41.3711307144
 21
-3.25
  0
LINE
  5
25C
100
AcDbEntity
  8
ASSI
100
AcDbLine
 62
7
  6
CONTINUOUS
 10
-40.8
 20
-14.0
 11
-40.8
 21
-20.0
  0
LINE
  5
25D
100
AcDbEntity
  8
ASSI
100
AcDbLine
 62
7
  6
CONTINUOUS
 10
-40.8
 20
14.0
 11
-40.8
 21
20.0
  0
LINE
  5
25E
100
AcDbEntity
  8
DRAFT
100
AcDbLine
 62
7
  6
CONTINUOUS
 10
-40.0
 20
-26.7
 11
-40.0
 21
-20.0
  0
LINE
  5
25F
100
AcDbEntity
  8
DRAFT
100
AcDbLine
 62
7
  6
CONTINUOUS
 10
-40.0
 20
-14.0
 11
-40.0
 21
-3.25
  0
LINE
  5
260
100
AcDbEntity
  8
DRAFT
100
AcDbLine
 62
7
  6
CONTINUOUS
 10
-40.0
 20
3.25
 11
-40.0
 21
14.0
  0
LINE
  5
261
100
AcDbEntity
  8
DRAFT
100
AcDbLine
 62
7
  6
CONTINUOUS
 10
-40.0
 20
20.0
 11
-40.0
 21
26.7
  0
LINE
  5
262
100
AcDbEntity
  8
DRAFT
100
AcDbLine
 62
7
  6
CONTINUOUS
 10
-39.9475922207
 20
-5.5
 11
-39.9475922207
 21
-3.25
  0
LINE
  5
263
100
AcDbEntity
  8
DRAFT
100
AcDbLine
 62
7
  6
CONTINUOUS
 10
-39.9475922207
 20
3.25
 11
-39.9475922207
 21
5.5
  0
LINE
  5
264
100
AcDbEntity
  8
ASSI
100
AcDbLine
 62
250
  6
CONTINUOUS
 10
-39.857329727
 20
-14.0
 11
-39.857329727
 21
-20.0
  0
LINE
  5
265
100
AcDbEntity
  8
ASSI
100
AcDbLine
 62
250
  6
CONTINUOUS
 10
-39.857329727
 20
14.0
 11
-39.857329727
 21
20.0
  0
LINE
  5
266
100
AcDbEntity
  8
ASSI
100
AcDbLine
 62
250
  6
CONTINUOUS
 10
-39.8386624453
 20
26.7
 11
-39.8386624453
 21
20.0
  0
LINE
  5
267
100
AcDbEntity
  8
ASSI
100
AcDbLine
 62
250
  6
CONTINUOUS
 10
-39.8386624453
 20
14.0
 11
-39.8386624453
 21
5.518138829
  0
LINE
  5
268
100
AcDbEntity
  8
ASSI
100
AcDbLine
 62
250
  6
CONTINUOUS
 10
-39.8386624453
 20
-26.7
 11
-39.8386624453
 21
-20.0
  0
LINE
  5
269
100
AcDbEntity
  8
ASSI
100
AcDbLine
 62
250
  6
CONTINUOUS
 10
-39.8386624453
 20
-14.0
 11
-39.8386624453
 21
-5.518138829
  0
LINE
  5
26A
100
AcDbEntity
  8
ASSI
100
AcDbLine
 62
250
  6
CONTINUOUS
 10
-38.9946594539
 20
-14.0
 11
-38.9946594539
 21
-20.0
  0
LINE
  5
26B
100
AcDbEntity
  8
ASSI
100
AcDbLine
 62
250
  6
CONTINUOUS
 10
-38.9946594539
 20
14.0
 11
-38.9946594539
 21
20.0
  0
LINE
  5
26C
100
AcDbEntity
  8
DRAFT
100
AcDbLine
 62
7
  6
CONTINUOUS
 10
-38.5
 20
-5.5
 11
-38.5
 21
5.5
  0
LINE
  5
26D
100
AcDbEntity
  8
RACCORDO
100
AcDbLine
 62
7
  6
CONTINUOUS
 10
-38.4720511765
 20
-5.5279488235
 11
-38.4720511765
 21
5.5279488235
  0
LINE
  5
26E
100
AcDbEntity
  8
ASSI
100
AcDbLine
 62
250
  6
CONTINUOUS
 10
-38.3407181432
 20
26.7
 11
-38.3407181432
 21
20.0
  0
LINE
  5
26F
100
AcDbEntity
  8
ASSI
100
AcDbLine
 62
250
  6
CONTINUOUS
 10
-38.3407181432
 20
14.0
 11
-38.3407181432
 21
5.5305440373
  0
LINE
  5
270
100
AcDbEntity
  8
ASSI
100
AcDbLine
 62
250
  6
CONTINUOUS
 10
-38.3407181432
 20
-26.7
 11
-38.3407181432
 21
-20.0
  0
LINE
  5
271
100
AcDbEntity
  8
ASSI
100
AcDbLine
 62
250
  6
CONTINUOUS
 10
-38.3407181432
 20
-14.0
 11
-38.3407181432
 21
-5.5305440373
  0
LINE
  5
272
100
AcDbEntity
  8
RACCORDO
100
AcDbLine
 62
7
  6
CONTINUOUS
 10
-38.1838552946
 20
-25.8
 11
-38.1838552946
 21
-8.2
  0
LINE
  5
273
100
AcDbEntity
  8
RACCORDO
100
AcDbLine
 62
7
  6
CONTINUOUS
 10
-38.1838552946
 20
8.2
 11
-38.1838552946
 21
25.8
  0
LINE
  5
274
100
AcDbEntity
  8
RACCORDO
100
AcDbLine
 62
250
  6
CONTINUOUS
 10
-38.1720625996
 20
-5.5305440373
 11
-38.1720625996
 21
5.5305440373
  0
LINE
  5
275
100
AcDbEntity
  8
RACCORDO
100
AcDbLine
 62
7
  6
CONTINUOUS
 10
-36.8161447054
 20
25.8
 11
-36.8161447054
 21
8.2
  0
LINE
  5
276
100
AcDbEntity
  8
RACCORDO
100
AcDbLine
 62
7
  6
CONTINUOUS
 10
-36.8161447054
 20
-8.2
 11
-36.8161447054
 21
-25.8
  0
LINE
  5
277
100
AcDbEntity
  8
RACCORDO
100
AcDbLine
 62
7
  6
CONTINUOUS
 10
-35.0
 20
-1.7320508076
 11
-35.0
 21
-15.25
  0
LINE
  5
278
100
AcDbEntity
  8
RACCORDO
100
AcDbLine
 62
7
  6
CONTINUOUS
 10
-35.0
 20
1.7320508076
 11
-35.0
 21
15.25
  0
LINE
  5
279
100
AcDbEntity
  8
RACCORDO
100
AcDbLine
 62
250
  6
CONTINUOUS
 10
-33.5779374004
 20
-2.2
 11
-33.5779374004
 21
2.2
  0
LINE
  5
27A
100
AcDbEntity
  8
RACCORDO
100
AcDbLine
 62
7
  6
CONTINUOUS
 10
-33.5
 20
15.25
 11
-33.5
 21
7.75
  0
LINE
  5
27B
100
AcDbEntity
  8
RACCORDO
100
AcDbLine
 62
7
  6
CONTINUOUS
 10
-33.5
 20
-7.75
 11
-33.5
 21
-15.25
  0
LWPOLYLINE
  5
27C
100
AcDbEntity
  8
0
100
AcDbPolyline
 62
7
  6
CONTINUOUS
 90
10
 70
0
 43
0.3500000006
 10
-3.531143446
 20
48.4500008698
 10
-4.1740005827
 20
47.8071428833
 10
-4.6025721016
 20
46.950000412
 10
-4.6025721016
 20
45.8785734558
 10
-4.1740005827
 20
45.4499999542
 10
-3.531143446
 20
45.4499999542
 10
-3.1025719271
 20
45.8785734558
 10
-3.1025719271
 20
46.7357159271
 10
-3.531143446
 20
47.1642848969
 10
-4.4597148342
 20
47.1642848969
  0
LINE
  5
27D
100
AcDbEntity
  8
DRAFT
100
AcDbLine
 62
7
  6
CONTINUOUS
 10
-30.0
 20
-36.7
 11
30.0
 21
-36.7
  0
LINE
  5
27E
100
AcDbEntity
  8
RACCORDO
100
AcDbLine
 62
250
  6
CONTINUOUS
 10
30.0
 20
-36.5386624453
 11
-30.0
 21
-36.5386624453
  0
LINE
  5
27F
100
AcDbEntity
  8
RACCORDO
100
AcDbLine
 62
250
  6
CONTINUOUS
 10
30.0
 20
-35.0407181432
 11
-30.0
 21
-35.0407181432
  0
LINE
  5
280
100
AcDbEntity
  8
0
100
AcDbLine
 62
7
  6
CONTINUOUS
 10
25.0
 20
-33.7418713663
 11
-25.0
 21
-33.7418713663
  0
LINE
  5
281
100
AcDbEntity
  8
RACCORDO
100
AcDbLine
 62
250
  6
CONTINUOUS
 10
2.2
 20
-33.521179691
 11
-2.2
 21
-33.521179691
  0
LWPOLYLINE
  5
282
100
AcDbEntity
  8
RACCORDO
100
AcDbPolyline
 62
250
  6
CONTINUOUS
 90
46
 70
0
 10
-2.2
 20
-33.521179691
 10
-2.4491299802
 20
-33.5123015631
 10
-2.694818215
 20
-33.4866461433
 10
-2.9370647044
 20
-33.4442134318
 10
-3.1770474764
 20
-33.3846263706
 10
-3.413588503
 20
-33.3082620177
 10
-3.6431537005
 20
-33.2162515465
 10
-3.8655345039
 20
-33.1084350205
 10
-4.0809394782
 20
-32.9849723762
 10
-4.2864602348
 20
-32.8474745972
 10
-4.4820134577
 20
-32.6957654114
 10
-4.6676824629
 20
-32.5300210908
 10
-4.8408088106
 20
-32.352381435
 10
-5.001287565
 20
-32.1626235458
 10
-5.149223662
 20
-31.9609703213
 10
-5.2822734689
 20
-31.7502302556
 10
-5.4002303576
 20
-31.5302196859
 10
-5.5033009564
 20
-31.301122275
 10
-5.589761517
 20
-31.0662975056
 10
-5.659345223
 20
-30.8256047511
 10
-5.7123188909
 20
-30.579184638
 10
-5.7477592223
 20
-30.3308185285
 10
-5.7653601012
 20
-30.0804766189
 10
-5.7654276437
 20
-29.8281887128
 10
-5.7479568996
 20
-29.5778255827
 10
-5.7126397684
 20
-29.329412706
 10
-5.6597843506
 20
-29.0829246054
 10
-5.590309998
 20
-28.8421556215
 10
-5.5039489702
 20
-28.6072494719
 10
-5.4009690075
 20
-28.3780624391
 10
-5.283092682
 20
-28.1579577099
 10
-5.1501140882
 20
-27.947119752
 10
-5.0022391317
 20
-27.7453640977
 10
-4.8418081017
 20
-27.5555005315
 10
-4.6687193121
 20
-27.3777528686
 10
-4.483074449
 20
-27.2118972937
 10
-4.2875188603
 20
-27.0600721453
 10
-4.0819638824
 20
-26.9224479959
 10
-3.8664981788
 20
-26.798854273
 10
-3.6440330883
 20
-26.6909175983
 10
-3.4143567643
 20
-26.5988000797
 10
-3.1776810534
 20
-26.5223396094
 10
-2.9375528337
 20
-26.4626764852
 10
-2.6951543979
 20
-26.4201908066
 10
-2.4493034533
 20
-26.3945024742
 10
-2.2
 20
-26.385611488
  0
LWPOLYLINE
  5
283
100
AcDbEntity
  8
0
100
AcDbPolyline
 62
7
  6
CONTINUOUS
 90
15
 70
0
 10
-17.9729022095
 20
-31.684068675
 10
-18.0262691147
 20
-31.6690868664
 10
-18.0770287666
 20
-31.6494998619
 10
-18.1251811653
 20
-31.6253076615
 10
-18.1712529078
 20
-31.5961123616
 10
-18.214717397
 20
-31.5623118658
 10
-18.2539948419
 20
-31.5250998847
 10
-18.2887797359
 20
-31.4845169356
 10
-18.3193775855
 20
-31.4405225013
 10
-18.3451251204
 20
-31.394188741
 10
-18.3659418865
 20
-31.3452744707
 10
-18.3819083378
 20
-31.2940208744
 10
-18.3926025656
 20
-31.242223664
 10
-18.3978839338
 20
-31.1904814102
 10
-18.3985615595
 20
-31.1622258385
  0
LWPOLYLINE
  5
284
100
AcDbEntity
  8
0
100
AcDbPolyline
 62
7
  6
CONTINUOUS
 90
13
 70
0
 10
-15.1954225841
 20
-31.684068675
 10
-15.2497217347
 20
-31.6644822572
 10
-15.3009249619
 20
-31.6405049102
 10
-15.3490322656
 20
-31.612136634
 10
-15.394448123
 20
-31.5790117688
 10
-15.4367680569
 20
-31.5414959745
 10
-15.474778636
 20
-31.5006862308
 10
-15.5083114127
 20
-31.4564879565
 10
-15.5375348345
 20
-31.4089957329
 10
-15.5617408131
 20
-31.3595902833
 10
-15.5806933187
 20
-31.3087318489
 10
-15.594628381
 20
-31.2559601886
 10
-15.603546
 20
-31.2012753023
  0
LINE
  5
285
100
AcDbEntity
  8
RACCORDO
100
AcDbLine
 62
7
  6
CONTINUOUS
 10
-33.2779488235
 20
-2.2
 11
-33.2779488235
 21
2.2
  0
LINE
  5
286
100
AcDbEntity
  8
DRAFT
100
AcDbLine
 62
7
  6
CONTINUOUS
 10
-33.25
 20
2.2
 11
-33.25
 21
-2.2
  0
LINE
  5
287
100
AcDbEntity
  8
ASSI
100
AcDbLine
 62
7
  6
CONTINUOUS
 10
-33.1
 20
2.2
 11
-33.1
 21
-2.2
  0
LINE
  5
288
100
AcDbEntity
  8
0
100
AcDbLine
 62
7
  6
CONTINUOUS
 10
-32.781835
 20
12.5087387439
 11
-32.781835
 21
12.2605248614
  0
LINE
  5
289
100
AcDbEntity
  8
0
100
AcDbLine
 62
7
  6
CONTINUOUS
 10
-32.267792
 20
12.5700733447
 11
-32.267792
 21
10.933751
  0
LINE
  5
28A
100
AcDbEntity
  8
0
100
AcDbLine
 62
7
  6
CONTINUOUS
 10
-32.01077
 20
10.933751
 11
-32.01077
 21
13.033734
  0
LINE
  5
28B
100
AcDbEntity
  8
ASSI
100
AcDbLine
 62
7
  6
CONTINUOUS
 10
-31.8
 20
2.0
 11
-31.8
 21
-2.0
  0
LINE
  5
28C
100
AcDbEntity
  8
0
100
AcDbLine
 62
7
  6
CONTINUOUS
 10
-31.35
 20
3.1894527801
 11
-31.35
 21
-3.1894527801
  0
LINE
  5
28D
100
AcDbEntity
  8
0
100
AcDbLine
 62
7
  6
CONTINUOUS
 10
-31.336089
 20
12.998686
 11
-31.336089
 21
12.753347
  0
LINE
  5
28E
100
AcDbEntity
  8
RACCORDO
100
AcDbLine
 62
250
  6
CONTINUOUS
 10
-30.0
 20
-35.0407181432
 11
-30.0
 21
-36.7
  0
LINE
  5
28F
100
AcDbEntity
  8
RACCORDO
100
AcDbLine
 62
250
  6
CONTINUOUS
 10
-30.0
 20
35.0407181432
 11
-30.0
 21
36.7
  0
LINE
  5
290
100
AcDbEntity
  8
0
100
AcDbLine
 62
7
  6
CONTINUOUS
 10
-29.983805
 20
12.8001236684
 11
-29.983805
 21
12.998686
  0
LWPOLYLINE
  5
291
100
AcDbEntity
  8
0
100
AcDbPolyline
 62
7
  6
CONTINUOUS
 90
40
 70
0
 10
-29.7267829891
 20
11.9654884551
 10
-29.7257613639
 20
12.0616036383
 10
-29.7214825642
 20
12.154356604
 10
-29.7139465898
 20
12.2437473521
 10
-29.7035019339
 20
12.329990264
 10
-29.6898001035
 20
12.4128709584
 10
-29.6717956189
 20
12.4917462905
 10
-29.6490397673
 20
12.5668773767
 10
-29.6219812615
 20
12.6380031006
 10
-29.5909207614
 20
12.7036969677
 10
-29.5558037821
 20
12.7637227037
 10
-29.5166848084
 20
12.818316583
 10
-29.4740279545
 20
12.8667609339
 10
-29.4279346808
 20
12.9087918294
 10
-29.3783035269
 20
12.9446731965
 10
-29.3252942265
 20
12.9744791451
 10
-29.268355892
 20
12.9981524321
 10
-29.2080394109
 20
13.0157503004
 10
-29.1461571792
 20
13.0275185896
 10
-29.0823403526
 20
13.0335232048
 10
-29.0169577754
 20
13.0336982408
 10
-28.9529283763
 20
13.028091821
 10
-28.8905461589
 20
13.0168814706
 10
-28.8295171195
 20
12.9998896643
 10
-28.771878176
 20
12.9766319495
 10
-28.7182334117
 20
12.9469314331
 10
-28.6679787433
 20
12.9109650081
 10
-28.6213388389
 20
12.8687789007
 10
-28.578244368
 20
12.8200611752
 10
-28.5387646611
 20
12.7651237673
 10
-28.5033323781
 20
12.7049487112
 10
-28.4720578246
 20
12.6395313082
 10
-28.444830695
 20
12.5688762569
 10
-28.4217527327
 20
12.4939796876
 10
-28.4030387492
 20
12.4148775397
 10
-28.3884739329
 20
12.3315338738
 10
-28.3775155924
 20
12.2448370024
 10
-28.3699828302
 20
12.1550830297
 10
-28.3660565437
 20
12.0619758516
 10
-28.3657367329
 20
11.965515468
  0
LWPOLYLINE
  5
292
100
AcDbEntity
  8
0
100
AcDbPolyline
 62
7
  6
CONTINUOUS
 90
13
 70
0
 10
-31.044018692
 20
10.933751
 10
-31.0347947579
 20
11.0681623848
 10
-31.0171177941
 20
11.2067117567
 10
-30.9909878004
 20
11.3493991158
 10
-30.9571151043
 20
11.4964214294
 10
-30.9147893784
 20
11.6475817301
 10
-30.8618796411
 20
11.8022891163
 10
-30.7978256056
 20
11.9622167477
 10
-30.7231875587
 20
12.1256914647
 10
-30.6375153793
 20
12.2871028865
 10
-30.5406590269
 20
12.4445808862
 10
-30.4327685419
 20
12.5999955907
 10
-30.3138439245
 20
12.753347
  0
LWPOLYLINE
  5
293
100
AcDbEntity
  8
0
100
AcDbPolyline
 62
7
  6
CONTINUOUS
 90
13
 70
0
 10
-29.983805
 20
12.8001236684
 10
-30.0754079871
 20
12.6935110205
 10
-30.1638093688
 20
12.5781296412
 10
-30.2490091451
 20
12.4539795306
 10
-30.3314982981
 20
12.3212428906
 10
-30.4107858457
 20
12.1797375192
 10
-30.4853988415
 20
12.0289168105
 10
-30.5567281418
 20
11.8683587942
 10
-30.6233828904
 20
11.6984854406
 10
-30.6797175721
 20
11.5200160539
 10
-30.7238503485
 20
11.3331904023
 10
-30.757663058
 20
11.1377687176
 10
-30.7811557006
 20
10.933751
  0
LINE
  5
294
100
AcDbEntity
  8
RACCORDO
100
AcDbLine
 62
7
  6
CONTINUOUS
 10
-38.5
 20
5.5
 11
-38.4720511765
 21
5.5279488235
  0
LWPOLYLINE
  5
295
100
AcDbEntity
  8
0
100
AcDbPolyline
 62
7
  6
CONTINUOUS
 90
10
 70
0
 10
-32.267792
 20
12.5700733447
 10
-32.3134578966
 20
12.5302757327
 10
-32.3621269365
 20
12.4917577597
 10
-32.4137991196
 20
12.4545194259
 10
-32.4686619727
 20
12.4184658044
 10
-32.526527969
 20
12.383691822
 10
-32.586834528
 20
12.3504822585
 10
-32.6493941227
 20
12.3189320405
 10
-32.71439428
 20
12.2889462415
 10
-32.781835
 20
12.2605248614
  0
LINE
  5
296
100
AcDbEntity
  8
RACCORDO
100
AcDbLine
 62
7
  6
CONTINUOUS
 10
2.2
 20
-33.2732855674
 11
-2.2
 21
-33.2732855674
  0
LINE
  5
297
100
AcDbEntity
  8
DRAFT
100
AcDbLine
 62
7
  6
CONTINUOUS
 10
-2.2
 20
-33.25
 11
2.2
 21
-33.25
  0
LINE
  5
298
100
AcDbEntity
  8
RACCORDO
100
AcDbLine
 62
250
  6
CONTINUOUS
 10
2.2
 20
-32.1
 11
-2.2
 21
-32.1
  0
LINE
  5
299
100
AcDbEntity
  8
RACCORDO
100
AcDbLine
 62
7
  6
CONTINUOUS
 10
2.2
 20
-31.8
 11
-2.2
 21
-31.8
  0
LINE
  5
29A
100
AcDbEntity
  8
0
100
AcDbLine
 62
7
  6
CONTINUOUS
 10
-20.042745
 20
-31.684068675
 11
-19.085646
 21
-31.684068675
  0
LINE
  5
29B
100
AcDbEntity
  8
0
100
AcDbLine
 62
7
  6
CONTINUOUS
 10
-17.9729022095
 20
-31.684068675
 11
-16.220604
 21
-31.684068675
  0
LINE
  5
29C
100
AcDbEntity
  8
0
100
AcDbLine
 62
7
  6
CONTINUOUS
 10
-15.1954225841
 20
-31.684068675
 11
-13.704635
 21
-31.684068675
  0
LINE
  5
29D
100
AcDbEntity
  8
0
100
AcDbLine
 62
7
  6
CONTINUOUS
 10
-12.3465006296
 20
-31.684068675
 11
-10.59758
 21
-31.684068675
  0
LINE
  5
29E
100
AcDbEntity
  8
0
100
AcDbLine
 62
7
  6
CONTINUOUS
 10
-3.39058809
 20
-31.35
 11
3.39058809
 21
-31.35
  0
LINE
  5
29F
100
AcDbEntity
  8
0
100
AcDbLine
 62
7
  6
CONTINUOUS
 10
21.099736
 20
-31.0518239256
 11
21.820624
 21
-31.0518161668
  0
LINE
  5
2A0
100
AcDbEntity
  8
0
100
AcDbLine
 62
7
  6
CONTINUOUS
 10
16.138
 20
-31.0518316843
 11
16.778024
 21
-31.0518239256
  0
LINE
  5
2A1
100
AcDbEntity
  8
0
100
AcDbLine
 62
7
  6
CONTINUOUS
 10
13.826176
 20
-31.0518316843
 11
14.466184
 21
-31.0518239256
  0
LINE
  5
2A2
100
AcDbEntity
  8
0
100
AcDbLine
 62
7
  6
CONTINUOUS
 10
11.301016
 20
-31.0518394431
 11
11.94104
 21
-31.0518316843
  0
LINE
  5
2A3
100
AcDbEntity
  8
0
100
AcDbLine
 62
7
  6
CONTINUOUS
 10
9.206832
 20
-31.0518394431
 11
9.84688
 21
-31.0518316843
  0
LINE
  5
2A4
100
AcDbEntity
  8
0
100
AcDbLine
 62
7
  6
CONTINUOUS
 10
12.581048
 20
-31.0518316843
 11
13.221072
 21
-31.0518316843
  0
LINE
  5
2A5
100
AcDbEntity
  8
0
100
AcDbLine
 62
7
  6
CONTINUOUS
 10
15.071296
 20
-31.0518316843
 11
15.71132
 21
-31.0518316843
  0
LINE
  5
2A6
100
AcDbEntity
  8
0
100
AcDbLine
 62
7
  6
CONTINUOUS
 10
19.259648
 20
-31.0518239256
 11
19.89968
 21
-31.0518239256
  0
LINE
  5
2A7
100
AcDbEntity
  8
0
100
AcDbLine
 62
7
  6
CONTINUOUS
 10
18.192936
 20
-31.0518239256
 11
18.832968
 21
-31.0518316843
  0
LINE
  5
2A8
100
AcDbEntity
  8
0
100
AcDbLine
 62
7
  6
CONTINUOUS
 10
16.98008
 20
-30.4414724867
 11
17.990888
 21
-30.4414724867
  0
LINE
  5
2A9
100
AcDbEntity
  8
0
100
AcDbLine
 62
7
  6
CONTINUOUS
 10
17.7956674823
 20
-29.8864753054
 11
17.1753082474
 21
-29.8864753054
  0
LINE
  5
2AA
100
AcDbEntity
  8
0
100
AcDbLine
 62
7
  6
CONTINUOUS
 10
17.7956674823
 20
-29.8517456699
 11
17.1753082474
 21
-29.8517456699
  0
LINE
  5
2AB
100
AcDbEntity
  8
0
100
AcDbLine
 62
7
  6
CONTINUOUS
 10
19.899752
 20
-29.8517748949
 11
20.458352
 21
-29.8517826537
  0
LWPOLYLINE
  5
2AC
100
AcDbEntity
  8
RACCORDO
100
AcDbPolyline
 62
250
  6
CONTINUOUS
 90
46
 70
0
 10
-2.2
 20
-33.2732855674
 10
-2.4274553273
 20
-33.2653592725
 10
-2.6536268004
 20
-33.2416461332
 10
-2.8774213365
 20
-33.2022988951
 10
-3.0977164533
 20
-33.1475579958
 10
-3.3135032367
 20
-33.0777193101
 10
-3.5238817351
 20
-32.9931012003
 10
-3.7278147476
 20
-32.8941342026
 10
-3.924351637
 20
-32.7812942664
 10
-4.1127382112
 20
-32.6550015962
 10
-4.2920595
 20
-32.5158218767
 10
-4.4614100553
 20
-32.3644085751
 10
-4.6200637404
 20
-32.2013418786
 10
-4.7672368413
 20
-32.0273132797
 10
-4.9021122246
 20
-31.8431667922
 10
-5.0239685744
 20
-31.6497741864
 10
-5.1321605108
 20
-31.4480242706
 10
-5.2260822767
 20
-31.2388949695
 10
-5.3051859619
 20
-31.0234709353
 10
-5.3690394744
 20
-30.8027706645
 10
-5.417267315
 20
-30.5778971281
 10
-5.4495679357
 20
-30.3501217858
 10
-5.4657649568
 20
-30.1205810589
 10
-5.4657638265
 20
-29.8904028757
 10
-5.4495688703
 20
-29.6608671166
 10
-5.4172716983
 20
-29.4330998236
 10
-5.3690457465
 20
-29.2082388184
 10
-5.3052014536
 20
-28.9875564089
 10
-5.2261122772
 20
-28.7721551325
 10
-5.1322069199
 20
-28.5630521332
 10
-5.0240395914
 20
-28.361327871
 10
-4.902212262
 20
-28.1679581538
 10
-4.7673664007
 20
-27.9838323665
 10
-4.6202280988
 20
-27.8098193501
 10
-4.4616123906
 20
-27.6467640273
 10
-4.2922963974
 20
-27.4953562864
 10
-4.113002006
 20
-27.3561689348
 10
-3.9246235827
 20
-27.2298537194
 10
-3.7280752033
 20
-27.1169839739
 10
-3.5241213857
 20
-27.0179850429
 10
-3.3137041223
 20
-26.9333327714
 10
-3.0978607915
 20
-26.8634633859
 10
-2.8775170416
 20
-26.808701476
 10
-2.6536889738
 20
-26.7693415648
 10
-2.4274865799
 20
-26.7456217261
 10
-2.2
 20
-26.7376945183
  0
LWPOLYLINE
  5
2AD
100
AcDbEntity
  8
0
100
AcDbPolyline
 62
7
  6
CONTINUOUS
 90
14
 70
0
 10
-12.3465006296
 20
-31.684068675
 10
-12.4059840921
 20
-31.6803007349
 10
-12.4630976435
 20
-31.6700546791
 10
-12.5178412841
 20
-31.6533305076
 10
-12.5710333359
 20
-31.6296720907
 10
-12.6218554767
 20
-31.5995355581
 10
-12.6678527401
 20
-31.5642892987
 10
-12.7087213142
 20
-31.5236760559
 10
-12.7447650108
 20
-31.4779530862
 10
-12.7744402985
 20
-31.4292605477
 10
-12.7974043894
 20
-31.3774746703
 10
-12.8140000714
 20
-31.322719224
 10
-12.8237121758
 20
-31.2675056774
 10
-12.8263152817
 20
-31.2175951783
  0
LWPOLYLINE
  5
2AE
100
AcDbEntity
  8
0
100
AcDbPolyline
 62
7
  6
CONTINUOUS
 90
19
 70
0
 10
-10.884495902
 20
-29.0750129806
 10
-10.9319570426
 20
-29.0655638781
 10
-10.9804035347
 20
-29.0616117298
 10
-11.0298353782
 20
-29.0631565357
 10
-11.0814227976
 20
-29.0703346497
 10
-11.1339955685
 20
-29.0830097179
 10
-11.1840430171
 20
-29.1007726786
 10
-11.2316702094
 20
-29.123347358
 10
-11.2767720794
 20
-29.1510099299
 10
-11.3155227551
 20
-29.1841798542
 10
-11.3452232373
 20
-29.2244398405
 10
-11.3685725252
 20
-29.2702071792
 10
-11.3898417449
 20
-29.3171532015
 10
-11.4080566259
 20
-29.3655310557
 10
-11.4241914388
 20
-29.4150875935
 10
-11.4454401208
 20
-29.4607347011
 10
-11.4742006514
 20
-29.5007763405
 10
-11.5080750512
 20
-29.5369085497
 10
-11.5470633204
 20
-29.5691313287
  0
LWPOLYLINE
  5
2AF
100
AcDbEntity
  8
0
100
AcDbPolyline
 62
7
  6
CONTINUOUS
 90
13
 70
0
 10
-13.667068
 20
-29.088964586
 10
-13.7157039697
 20
-29.0781953628
 10
-13.7641315724
 20
-29.0726266119
 10
-13.8123508081
 20
-29.072258333
 10
-13.8609745966
 20
-29.077203921
 10
-13.909390018
 20
-29.0873499812
 10
-13.955758313
 20
-29.1023563296
 10
-13.9999718181
 20
-29.1224550727
 10
-14.0421381968
 20
-29.147414104
 10
-14.0807416791
 20
-29.1761969204
 10
-14.1152770085
 20
-29.2084580209
 10
-14.1462494416
 20
-29.2445429064
 10
-14.1736589784
 20
-29.2844515769
  0
LWPOLYLINE
  5
2B0
100
AcDbEntity
  8
0
100
AcDbPolyline
 62
7
  6
CONTINUOUS
 90
13
 70
0
 10
-16.460137
 20
-29.0806268172
 10
-16.5071510132
 20
-29.0662870384
 10
-16.5544340641
 20
-29.0569185494
 10
-16.6019861528
 20
-29.0525213501
 10
-16.650381898
 20
-29.0531440357
 10
-16.6990466809
 20
-29.0587380111
 10
-16.7462566448
 20
-29.0691574911
 10
-16.791942453
 20
-29.0846219049
 10
-16.8361734422
 20
-29.1049118232
 10
-16.8774337667
 20
-29.1292231733
 10
-16.9152181445
 20
-29.1572879308
 10
-16.9500318576
 20
-29.1893741202
 10
-16.981874906
 20
-29.2254817412
  0
LWPOLYLINE
  5
2B1
100
AcDbEntity
  8
0
100
AcDbPolyline
 62
7
  6
CONTINUOUS
 90
13
 70
0
 10
-10.3610019518
 20
-28.8103194214
 10
-10.3060204469
 20
-28.8334319735
 10
-10.2543656861
 20
-28.8608161568
 10
-10.2060376695
 20
-28.8924719714
 10
-10.1606578579
 20
-28.928773098
 10
-10.1186047904
 20
-28.9693458559
 10
-10.0810140846
 20
-29.0130692022
 10
-10.048049305
 20
-29.0600253804
 10
-10.019546887
 20
-29.1101321471
 10
-9.9961517551
 20
-29.1620217288
 10
-9.978078884
 20
-29.2152382012
 10
-9.965113299
 20
-29.2702374885
 10
-9.9619710453
 20
-29.2929426275
  0
LWPOLYLINE
  5
2B2
100
AcDbEntity
  8
0
100
AcDbPolyline
 62
7
  6
CONTINUOUS
 90
13
 70
0
 10
-10.3610019518
 20
-28.7755897858
 10
-10.3060207224
 20
-28.7987021559
 10
-10.2543661453
 20
-28.8260862064
 10
-10.2060382205
 20
-28.8577419374
 10
-10.1606583751
 20
-28.8940430422
 10
-10.1186051821
 20
-28.9346158275
 10
-10.0810143598
 20
-28.9783392127
 10
-10.0480495051
 20
-29.0252954306
 10
-10.0195470211
 20
-29.0754022484
 10
-9.9961518358
 20
-29.1272918877
 10
-9.9780789252
 20
-29.1805084222
 10
-9.9651133133
 20
-29.2355077781
 10
-9.957255
 20
-29.2922899554
  0
LINE
  5
2B3
100
AcDbEntity
  8
RACCORDO
100
AcDbLine
 62
7
  6
CONTINUOUS
 10
-38.5
 20
-5.5
 11
-38.4720511765
 21
-5.5279488235
  0
LWPOLYLINE
  5
2B4
100
AcDbEntity
  8
0
100
AcDbPolyline
 62
7
  6
CONTINUOUS
 90
28
 70
0
 10
-27.8429314891
 20
11.5367844679
 10
-27.8396501628
 20
11.482466453
 10
-27.8311913361
 20
11.4311950031
 10
-27.817555009
 20
11.3829701182
 10
-27.7984668245
 20
11.3375659947
 10
-27.7742011396
 20
11.2952084363
 10
-27.7455810254
 20
11.2565748534
 10
-27.7125703794
 20
11.2215119497
 10
-27.6752053041
 20
11.1901730215
 10
-27.6344171775
 20
11.1636953687
 10
-27.5899316678
 20
11.1421807973
 10
-27.5420231068
 20
11.1255275013
 10
-27.4924458689
 20
11.1145673627
 10
-27.4407576779
 20
11.1096394729
 10
-27.3874008101
 20
11.1104047405
 10
-27.3354564682
 20
11.1166777742
 10
-27.2851192731
 20
11.1287572517
 10
-27.236194604
 20
11.1463444953
 10
-27.1911798022
 20
11.1683580811
 10
-27.1506477654
 20
11.1947575971
 10
-27.1140255958
 20
11.2255834553
 10
-27.0820919408
 20
11.2598754677
 10
-27.0550130298
 20
11.2974451803
 10
-27.0326226333
 20
11.338481047
 10
-27.0152007106
 20
11.3825882413
 10
-27.0028405813
 20
11.4296351543
 10
-26.9954489257
 20
11.4797533949
 10
-26.9930257439
 20
11.532942963
  0
LWPOLYLINE
  5
2B5
100
AcDbEntity
  8
0
100
AcDbPolyline
 62
7
  6
CONTINUOUS
 90
28
 70
0
 10
-26.9930257439
 20
11.532942963
 10
-26.9961795602
 20
11.5854865853
 10
-27.004423294
 20
11.6351652401
 10
-27.0177569451
 20
11.6819789273
 10
-27.0363948684
 20
11.7260675709
 10
-27.060122709
 20
11.767291247
 10
-27.088297403
 20
11.8052301837
 10
-27.1209975675
 20
11.8402448341
 10
-27.1581445853
 20
11.871974745
 10
-27.1988595407
 20
11.8989187858
 10
-27.2436199237
 20
11.9208012342
 10
-27.2919482442
 20
11.9378978123
 10
-27.3415331162
 20
11.9495345558
 10
-27.392506577
 20
11.9554611025
 10
-27.4447365892
 20
11.9559278145
 10
-27.4955156541
 20
11.951011814
 10
-27.5446185077
 20
11.9405835867
 10
-27.592270414
 20
11.9247726468
 10
-27.6364396662
 20
11.9040446594
 10
-27.6767141203
 20
11.8781128303
 10
-27.7135059203
 20
11.8472639537
 10
-27.7460197913
 20
11.8128240776
 10
-27.7742404369
 20
11.7751108273
 10
-27.7981831535
 20
11.7338065775
 10
-27.8170985555
 20
11.6892844996
 10
-27.8307368479
 20
11.6416689839
 10
-27.8393478258
 20
11.59083564
 10
-27.8429314891
 20
11.5367844679
  0
LWPOLYLINE
  5
2B6
100
AcDbEntity
  8
0
100
AcDbPolyline
 62
7
  6
CONTINUOUS
 90
25
 70
0
 10
-27.7582311891
 20
12.5034448947
 10
-27.7560775517
 20
12.458530969
 10
-27.7488598911
 20
12.4157873092
 10
-27.7365782074
 20
12.3752139153
 10
-27.7190903839
 20
12.3362562978
 10
-27.6965385372
 20
12.2994689462
 10
-27.6693490174
 20
12.2665153294
 10
-27.6370730386
 20
12.2374409323
 10
-27.6001593868
 20
12.21220027
 10
-27.560380769
 20
12.1923203573
 10
-27.5173796104
 20
12.1784232658
 10
-27.471513486
 20
12.1698869238
 10
-27.4256278278
 20
12.1663721316
 10
-27.379745194
 20
12.1677230011
 10
-27.3338430266
 20
12.1740954203
 10
-27.2906990828
 20
12.1856178534
 10
-27.2507635756
 20
12.2027244844
 10
-27.2135862921
 20
12.2249811294
 10
-27.1805943508
 20
12.2512137
 10
-27.1520939877
 20
12.2814394368
 10
-27.1277789668
 20
12.3156410994
 10
-27.108157699
 20
12.3525928782
 10
-27.0933996546
 20
12.3918861701
 10
-27.0833353632
 20
12.4339295784
 10
-27.077964825
 20
12.4787231029
  0
LWPOLYLINE
  5
2B7
100
AcDbEntity
  8
0
100
AcDbPolyline
 62
7
  6
CONTINUOUS
 90
25
 70
0
 10
-27.077964825
 20
12.4787231029
 10
-27.0794816968
 20
12.5234179401
 10
-27.086188
 20
12.5661324518
 10
-27.0980837347
 20
12.6068666377
 10
-27.1153146605
 20
12.6462418475
 10
-27.1377350178
 20
12.6836367317
 10
-27.1649075276
 20
12.7171872418
 10
-27.1973136273
 20
12.7466726304
 10
-27.2344718797
 20
12.772313645
 10
-27.2745006942
 20
12.7929084792
 10
-27.3177083556
 20
12.8082617747
 10
-27.3637865791
 20
12.8185688898
 10
-27.4099289203
 20
12.8232140932
 10
-27.4561374221
 20
12.8218794886
 10
-27.5024100416
 20
12.8148829723
 10
-27.5459342052
 20
12.8025625025
 10
-27.5862952408
 20
12.7846076075
 10
-27.6239078206
 20
12.761328759
 10
-27.6572033877
 20
12.7339953301
 10
-27.6858424683
 20
12.7024357202
 10
-27.7101645363
 20
12.6668215299
 10
-27.7296194559
 20
12.6289369346
 10
-27.7440238487
 20
12.5893766596
 10
-27.753561093
 20
12.5475459796
 10
-27.7582311891
 20
12.5034448947
  0
LWPOLYLINE
  5
2B8
100
AcDbEntity
  8
0
100
AcDbPolyline
 62
7
  6
CONTINUOUS
 90
40
 70
0
 10
-28.6285997663
 20
11.9654091325
 10
-28.62901487
 20
12.03769279
 10
-28.6309681108
 20
12.1078615689
 10
-28.6344594887
 20
12.1759154692
 10
-28.6392515922
 20
12.2419314767
 10
-28.6455818327
 20
12.3058326056
 10
-28.6541624448
 20
12.3673878984
 10
-28.6647652978
 20
12.4269144096
 10
-28.6776185224
 20
12.4840950847
 10
-28.694118745
 20
12.5377478022
 10
-28.7147305685
 20
12.5879080534
 10
-28.73898939
 20
12.6345403471
 10
-28.7668980274
 20
12.6763560887
 10
-28.799001173
 20
12.713198945
 10
-28.8347541345
 20
12.7452252492
 10
-28.8725256534
 20
12.7716154065
 10
-28.9123198393
 20
12.7919727245
 10
-28.9541325825
 20
12.8066938957
 10
-28.996320295
 20
12.8161494027
 10
-29.0387901161
 20
12.8204830102
 10
-29.0816349065
 20
12.8195509535
 10
-29.1234896603
 20
12.8132924211
 10
-29.1643899963
 20
12.8017424935
 10
-29.2043002957
 20
12.7848660901
 10
-29.2417486959
 20
12.7624971575
 10
-29.2766266361
 20
12.7342091434
 10
-29.309042677
 20
12.7004286001
 10
-29.3378506387
 20
12.6622691309
 10
-29.3624816124
 20
12.6196460548
 10
-29.3835045068
 20
12.5726440529
 10
-29.4014798676
 20
12.5226307715
 10
-29.4161726609
 20
12.4697779781
 10
-29.4278179206
 20
12.4139139052
 10
-29.4376812943
 20
12.3558908964
 10
-29.4461125622
 20
12.2959694222
 10
-29.4527619441
 20
12.2338890122
 10
-29.457845747
 20
12.1697205986
 10
-29.4614360733
 20
12.1034878256
 10
-29.4634608207
 20
12.035167049
 10
-29.4639199891
 20
11.9647582689
  0
LWPOLYLINE
  5
2B9
100
AcDbEntity
  8
0
100
AcDbPolyline
 62
7
  6
CONTINUOUS
 90
40
 70
0
 10
-29.4639199891
 20
11.9647582689
 10
-29.4635784713
 20
11.8942882578
 10
-29.4617823053
 20
11.8258465943
 10
-29.4585314908
 20
11.7594332785
 10
-29.4540761249
 20
11.6949628059
 10
-29.4481661107
 20
11.632520681
 10
-29.4400511572
 20
11.5723634174
 10
-29.4297703033
 20
11.5143063483
 10
-29.4172845101
 20
11.4585341404
 10
-29.4017263705
 20
11.4058573078
 10
-29.3830015848
 20
11.3560949976
 10
-29.3612044527
 20
11.3094280627
 10
-29.3357504661
 20
11.2672095755
 10
-29.3059778453
 20
11.2296354368
 10
-29.27254837
 20
11.1965097458
 10
-29.2368628715
 20
11.1685978724
 10
-29.1988974247
 20
11.1460985166
 10
-29.1586759548
 20
11.1288129784
 10
-29.1176710685
 20
11.1169105278
 10
-29.0759242192
 20
11.1104280658
 10
-29.0333939535
 20
11.1093286913
 10
-28.9914285184
 20
11.113670971
 10
-28.9500118182
 20
11.1234642182
 10
-28.9091599486
 20
11.1386991194
 10
-28.8702694435
 20
11.1594063009
 10
-28.8333141772
 20
11.1857899255
 10
-28.7983202753
 20
11.2176458304
 10
-28.7667626484
 20
11.2543921526
 10
-28.7390742893
 20
11.2963046265
 10
-28.7148222052
 20
11.3431075179
 10
-28.6941823287
 20
11.3933917616
 10
-28.6776625011
 20
11.4470690033
 10
-28.6647548811
 20
11.5042275974
 10
-28.6541118766
 20
11.5637235414
 10
-28.6455256172
 20
11.6252527759
 10
-28.6392039734
 20
11.6891193603
 10
-28.6344229645
 20
11.7550914706
 10
-28.6309412636
 20
11.8230918321
 10
-28.6290001975
 20
11.8931977194
 10
-28.6285997663
 20
11.9654091325
  0
LWPOLYLINE
  5
2BA
100
AcDbEntity
  8
0
100
AcDbPolyline
 62
7
  6
CONTINUOUS
 90
40
 70
0
 10
-26.2161015891
 20
11.9647582689
 10
-26.2157600713
 20
11.8942882578
 10
-26.2139639053
 20
11.8258465943
 10
-26.2107130908
 20
11.7594332785
 10
-26.2062577249
 20
11.6949628059
 10
-26.2003477107
 20
11.632520681
 10
-26.1922327572
 20
11.5723634174
 10
-26.1819519033
 20
11.5143063483
 10
-26.1694661101
 20
11.4585341404
 10
-26.1539079705
 20
11.4058573078
 10
-26.1351831848
 20
11.3560949976
 10
-26.1133860527
 20
11.3094280627
 10
-26.0879320661
 20
11.2672095755
 10
-26.0581594453
 20
11.2296354368
 10
-26.02472997
 20
11.1965097458
 10
-25.9890444715
 20
11.1685978724
 10
-25.9510790247
 20
11.1460985166
 10
-25.9108575548
 20
11.1288129784
 10
-25.8698526685
 20
11.1169105278
 10
-25.8281058192
 20
11.1104280658
 10
-25.7855755535
 20
11.1093286913
 10
-25.7436101184
 20
11.113670971
 10
-25.7021934182
 20
11.1234642182
 10
-25.6613415486
 20
11.1386991194
 10
-25.6224510435
 20
11.1594063009
 10
-25.5854957772
 20
11.1857899255
 10
-25.5505018753
 20
11.2176458304
 10
-25.5189442484
 20
11.2543921526
 10
-25.4912558893
 20
11.2963046265
 10
-25.4670038052
 20
11.3431075179
 10
-25.4463639287
 20
11.3933917616
 10
-25.4298441011
 20
11.4470690033
 10
-25.4169364811
 20
11.5042275974
 10
-25.4062934766
 20
11.5637235414
 10
-25.3977072172
 20
11.6252527759
 10
-25.3913855734
 20
11.6891193603
 10
-25.3866045645
 20
11.7550914706
 10
-25.3831228636
 20
11.8230918321
 10
-25.3811817975
 20
11.8931977194
 10
-25.3807813663
 20
11.9654091325
  0
LINE
  5
2BB
100
AcDbEntity
  8
0
100
AcDbLine
 62
250
  6
CONTINUOUS
 10
-28.8
 20
-3.3406088205
 11
-28.8
 21
3.3406088205
  0
LINE
  5
2BC
100
AcDbEntity
  8
0
100
AcDbLine
 62
7
  6
CONTINUOUS
 10
-28.65
 20
3.1894527801
 11
-28.65
 21
0.7337885493
  0
LINE
  5
2BD
100
AcDbEntity
  8
0
100
AcDbLine
 62
7
  6
CONTINUOUS
 10
-28.65
 20
-0.7337885493
 11
-28.65
 21
-3.1894527801
  0
LINE
  5
2BE
100
AcDbEntity
  8
ASSI
100
AcDbLine
 62
7
  6
CONTINUOUS
 10
-28.2
 20
-2.0
 11
-28.2
 21
-1.6494396592
  0
LINE
  5
2BF
100
AcDbEntity
  8
ASSI
100
AcDbLine
 62
7
  6
CONTINUOUS
 10
-28.2
 20
1.6494396592
 11
-28.2
 21
2.0
  0
LINE
  5
2C0
100
AcDbEntity
  8
0
100
AcDbLine
 62
7
  6
CONTINUOUS
 10
-27.1426949447
 20
-0.35
 11
-27.1426949447
 21
-0.0726172387
  0
LINE
  5
2C1
100
AcDbEntity
  8
0
100
AcDbLine
 62
7
  6
CONTINUOUS
 10
-27.1426949447
 20
0.0726172387
 11
-27.1426949447
 21
0.35
  0
LINE
  5
2C2
100
AcDbEntity
  8
0
100
AcDbLine
 62
7
  6
CONTINUOUS
 10
-26.5
 20
-2.6329543503
 11
-26.5
 21
-0.5860176963
  0
LINE
  5
2C3
100
AcDbEntity
  8
0
100
AcDbLine
 62
7
  6
CONTINUOUS
 10
-26.5
 20
0.5860176963
 11
-26.5
 21
2.6329543503
  0
LINE
  5
2C4
100
AcDbEntity
  8
0
100
AcDbLine
 62
7
  6
CONTINUOUS
 10
-26.35
 20
-1.4917020703
 11
-26.35
 21
-1.0901949367
  0
LINE
  5
2C5
100
AcDbEntity
  8
0
100
AcDbLine
 62
7
  6
CONTINUOUS
 10
-26.35
 20
1.0901949367
 11
-26.35
 21
1.4917020703
  0
LWPOLYLINE
  5
2C6
100
AcDbEntity
  8
0
100
AcDbPolyline
 62
7
  6
CONTINUOUS
 90
40
 70
0
 10
-28.3657367329
 20
11.965515468
 10
-28.3666442518
 20
11.8693880603
 10
-28.3708912988
 20
11.7765512003
 10
-28.3784778739
 20
11.6870048883
 10
-28.3891105712
 20
11.6004516873
 10
-28.4030827967
 20
11.5171890341
 10
-28.4212747676
 20
11.438109239
 10
-28.4440162697
 20
11.3631178847
 10
-28.4709775172
 20
11.2923093885
 10
-28.5020493703
 20
11.2268593119
 10
-28.5373629892
 20
11.1668893838
 10
-28.5767872137
 20
11.1122778755
 10
-28.6198194235
 20
11.0638351619
 10
-28.6663336915
 20
11.021839214
 10
-28.7164559449
 20
10.986012061
 10
-28.770061345
 20
10.9563301647
 10
-28.827742072
 20
10.9328542757
 10
-28.8889059457
 20
10.9155236435
 10
-28.9516515874
 20
10.9041324786
 10
-29.0164295874
 20
10.8986719083
 10
-29.0827893554
 20
10.8991508053
 10
-29.1474777418
 20
10.9053899984
 10
-29.2100051622
 20
10.9172120149
 10
-29.2708612009
 20
10.9347943275
 10
-29.3282614621
 20
10.9584901828
 10
-29.3816979264
 20
10.9884115605
 10
-29.4316786131
 20
11.0244464808
 10
-29.477943184
 20
11.066612251
 10
-29.5206356108
 20
11.1151531999
 10
-29.5596119219
 20
11.1698249987
 10
-29.5941798642
 20
11.229911968
 10
-29.6238931651
 20
11.2956897138
 10
-29.6491980972
 20
11.3668826301
 10
-29.6707412252
 20
11.4419482201
 10
-29.6885718577
 20
11.5205610018
 10
-29.7026406862
 20
11.6030464573
 10
-29.7134463496
 20
11.6888385354
 10
-29.7211550611
 20
11.7777485526
 10
-29.7256006076
 20
11.8699651925
 10
-29.7267829891
 20
11.9654884551
  0
LWPOLYLINE
  5
2C7
100
AcDbEntity
  8
0
100
AcDbPolyline
 62
7
  6
CONTINUOUS
 90
40
 70
0
 10
-26.4789645891
 20
11.9654884551
 10
-26.4779429639
 20
12.0616036383
 10
-26.4736641642
 20
12.154356604
 10
-26.4661281898
 20
12.2437473521
 10
-26.4556835339
 20
12.329990264
 10
-26.4419817035
 20
12.4128709584
 10
-26.4239772189
 20
12.4917462905
 10
-26.4012213673
 20
12.5668773767
 10
-26.3741628615
 20
12.6380031006
 10
-26.3431023614
 20
12.7036969677
 10
-26.3079853821
 20
12.7637227037
 10
-26.2688664084
 20
12.818316583
 10
-26.2262095545
 20
12.8667609339
 10
-26.1801162808
 20
12.9087918294
 10
-26.1304851269
 20
12.9446731965
 10
-26.0774758265
 20
12.9744791451
 10
-26.020537492
 20
12.9981524321
 10
-25.9602210109
 20
13.0157503004
 10
-25.8983387792
 20
13.0275185896
 10
-25.8345219526
 20
13.0335232048
 10
-25.7691393754
 20
13.0336982408
 10
-25.7051099763
 20
13.028091821
 10
-25.6427277589
 20
13.0168814706
 10
-25.5816987195
 20
12.9998896643
 10
-25.524059776
 20
12.9766319495
 10
-25.4704150117
 20
12.9469314331
 10
-25.4201603433
 20
12.9109650081
 10
-25.3735204389
 20
12.8687789007
 10
-25.330425968
 20
12.8200611752
 10
-25.2909462611
 20
12.7651237673
 10
-25.2555139781
 20
12.7049487112
 10
-25.2242394246
 20
12.6395313082
 10
-25.197012295
 20
12.5688762569
 10
-25.1739343327
 20
12.4939796876
 10
-25.1552203492
 20
12.4148775397
 10
-25.1406555329
 20
12.3315338738
 10
-25.1296971924
 20
12.2448370024
 10
-25.1221644302
 20
12.1550830297
 10
-25.1182381437
 20
12.0619758516
 10
-25.1179183329
 20
11.965515468
  0
LWPOLYLINE
  5
2C8
100
AcDbEntity
  8
0
100
AcDbPolyline
 62
7
  6
CONTINUOUS
 90
10
 70
0
 10
-27.9476429476
 20
0.35
 10
-27.9492111406
 20
0.2723539704
 10
-27.9503872854
 20
0.1946420669
 10
-27.9511713819
 20
0.1168642894
 10
-27.9515634301
 20
0.0389767221
 10
-27.9515634301
 20
-0.0389767192
 10
-27.9511713819
 20
-0.1168642868
 10
-27.9503872854
 20
-0.1946420649
 10
-27.9492111406
 20
-0.2723539693
 10
-27.9476429476
 20
-0.35
  0
LINE
  5
2C9
100
AcDbEntity
  8
RACCORDO
100
AcDbLine
 62
250
  6
CONTINUOUS
 10
-28.4337640632
 20
5.0477017032
 11
-28.2757248812
 21
5.3350456705
  0
LINE
  5
2CA
100
AcDbEntity
  8
RACCORDO
100
AcDbLine
 62
7
  6
CONTINUOUS
 10
-29.9133974596
 20
5.4
 11
-29.8556618468
 21
5.5000010148
  0
LWPOLYLINE
  5
2CB
100
AcDbEntity
  8
0
100
AcDbPolyline
 62
7
  6
CONTINUOUS
 90
13
 70
0
 10
-32.781835
 20
12.5087387439
 10
-32.7102655074
 20
12.5450306891
 10
-32.642495596
 20
12.5829033102
 10
-32.5785252657
 20
12.6223566071
 10
-32.5184085431
 20
12.6635689869
 10
-32.4620914017
 20
12.7063620425
 10
-32.4094117618
 20
12.750200553
 10
-32.3600551613
 20
12.7949202495
 10
-32.3143360624
 20
12.8406854009
 10
-32.2730357723
 20
12.8874535931
 10
-32.2364147267
 20
12.9352106879
 10
-32.2042124899
 20
12.9839708236
 10
-32.1764290619
 20
13.033734
  0
LINE
  5
2CC
100
AcDbEntity
  8
0
100
AcDbLine
 62
7
  6
CONTINUOUS
 10
20.669534
 20
-29.3123322384
 11
19.890856
 21
-29.3123322384
  0
LINE
  5
2CD
100
AcDbEntity
  8
0
100
AcDbLine
 62
7
  6
CONTINUOUS
 10
20.6695452423
 20
-29.2776026029
 11
19.890856
 21
-29.2776026029
  0
LINE
  5
2CE
100
AcDbEntity
  8
0
100
AcDbLine
 62
7
  6
CONTINUOUS
 10
-10.3610019518
 20
-28.8103194214
 11
-11.745905
 21
-28.8103194214
  0
LINE
  5
2CF
100
AcDbEntity
  8
0
100
AcDbLine
 62
7
  6
CONTINUOUS
 10
-13.315991
 20
-28.8103194214
 11
-14.494748855
 21
-28.8103194214
  0
LINE
  5
2D0
100
AcDbEntity
  8
0
100
AcDbLine
 62
7
  6
CONTINUOUS
 10
-16.361167
 20
-28.8103194214
 11
-17.120059859
 21
-28.8103194214
  0
LINE
  5
2D1
100
AcDbEntity
  8
0
100
AcDbLine
 62
7
  6
CONTINUOUS
 10
-10.3610019518
 20
-28.7755897858
 11
-11.7487375497
 21
-28.7755897858
  0
LINE
  5
2D2
100
AcDbEntity
  8
0
100
AcDbLine
 62
7
  6
CONTINUOUS
 10
-13.3159926079
 20
-28.7755897858
 11
-14.494748855
 21
-28.7755897858
  0
LINE
  5
2D3
100
AcDbEntity
  8
0
100
AcDbLine
 62
7
  6
CONTINUOUS
 10
-16.361167
 20
-28.7755897858
 11
-17.120059859
 21
-28.7755897858
  0
LINE
  5
2D4
100
AcDbEntity
  8
0
100
AcDbLine
 62
7
  6
CONTINUOUS
 10
-3.39058809
 20
-28.65
 11
3.39058809
 21
-28.65
  0
LINE
  5
2D5
100
AcDbEntity
  8
0
100
AcDbLine
 62
7
  6
CONTINUOUS
 10
19.890848
 20
-28.5223483665
 11
20.669534
 21
-28.5223483665
  0
LINE
  5
2D6
100
AcDbEntity
  8
RACCORDO
100
AcDbLine
 62
7
  6
CONTINUOUS
 10
-2.2
 20
-28.2
 11
2.2
 21
-28.2
  0
LINE
  5
2D7
100
AcDbEntity
  8
0
100
AcDbLine
 62
7
  6
CONTINUOUS
 10
15.71132
 20
-27.9829134687
 11
14.743776
 21
-27.9829134687
  0
LINE
  5
2D8
100
AcDbEntity
  8
0
100
AcDbLine
 62
7
  6
CONTINUOUS
 10
13.548592
 20
-27.9829134687
 11
12.581048
 21
-27.9829134687
  0
LINE
  5
2D9
100
AcDbEntity
  8
0
100
AcDbLine
 62
7
  6
CONTINUOUS
 10
11.941048
 20
-27.9829134687
 11
11.301024
 21
-27.9829134687
  0
LINE
  5
2DA
100
AcDbEntity
  8
0
100
AcDbLine
 62
7
  6
CONTINUOUS
 10
10.874344
 20
-27.9829134687
 11
10.234312
 21
-27.9829134687
  0
LINE
  5
2DB
100
AcDbEntity
  8
0
100
AcDbLine
 62
7
  6
CONTINUOUS
 10
8.819408
 20
-27.9829134687
 11
8.179376
 21
-27.9829134687
  0
LINE
  5
2DC
100
AcDbEntity
  8
0
100
AcDbLine
 62
7
  6
CONTINUOUS
 10
20.7583679806
 20
-27.98290571
 11
19.259648
 21
-27.98290571
  0
LINE
  5
2DD
100
AcDbEntity
  8
0
100
AcDbLine
 62
7
  6
CONTINUOUS
 10
17.805504
 20
-27.98290571
 11
17.165448
 21
-27.98290571
  0
LINE
  5
2DE
100
AcDbEntity
  8
0
100
AcDbLine
 62
7
  6
CONTINUOUS
 10
15.71132
 20
-27.9481838332
 11
14.743776
 21
-27.9481838332
  0
LINE
  5
2DF
100
AcDbEntity
  8
0
100
AcDbLine
 62
7
  6
CONTINUOUS
 10
13.548592
 20
-27.9481838332
 11
12.581048
 21
-27.9481838332
  0
LINE
  5
2E0
100
AcDbEntity
  8
0
100
AcDbLine
 62
7
  6
CONTINUOUS
 10
11.941048
 20
-27.9481838332
 11
11.301024
 21
-27.9481838332
  0
LINE
  5
2E1
100
AcDbEntity
  8
0
100
AcDbLine
 62
7
  6
CONTINUOUS
 10
10.874344
 20
-27.9481838332
 11
10.234312
 21
-27.9481838332
  0
LINE
  5
2E2
100
AcDbEntity
  8
0
100
AcDbLine
 62
7
  6
CONTINUOUS
 10
8.819408
 20
-27.9481838332
 11
8.179376
 21
-27.9481838332
  0
LINE
  5
2E3
100
AcDbEntity
  8
0
100
AcDbLine
 62
7
  6
CONTINUOUS
 10
20.7583907059
 20
-27.9481760744
 11
19.259648
 21
-27.9481760744
  0
LINE
  5
2E4
100
AcDbEntity
  8
0
100
AcDbLine
 62
7
  6
CONTINUOUS
 10
17.805504
 20
-27.9481760744
 11
17.165448
 21
-27.9481760744
  0
LINE
  5
2E5
100
AcDbEntity
  8
RACCORDO
100
AcDbLine
 62
250
  6
CONTINUOUS
 10
-2.2
 20
-27.9
 11
2.2
 21
-27.9
  0
LINE
  5
2E6
100
AcDbEntity
  8
DRAFT
100
AcDbLine
 62
7
  6
CONTINUOUS
 10
2.2
 20
-26.75
 11
-2.2
 21
-26.75
  0
LINE
  5
2E7
100
AcDbEntity
  8
RACCORDO
100
AcDbLine
 62
7
  6
CONTINUOUS
 10
-2.2
 20
-26.7376945183
 11
2.2
 21
-26.7376945183
  0
LINE
  5
2E8
100
AcDbEntity
  8
RACCORDO
100
AcDbLine
 62
250
  6
CONTINUOUS
 10
40.0
 20
-26.7
 11
38.3407181432
 21
-26.7
  0
LINE
  5
2E9
100
AcDbEntity
  8
RACCORDO
100
AcDbLine
 62
250
  6
CONTINUOUS
 10
-38.3407181432
 20
-26.7
 11
-40.0
 21
-26.7
  0
LINE
  5
2EA
100
AcDbEntity
  8
RACCORDO
100
AcDbLine
 62
250
  6
CONTINUOUS
 10
-2.2
 20
-26.385611488
 11
2.2
 21
-26.385611488
  0
LINE
  5
2EB
100
AcDbEntity
  8
DRAFT
100
AcDbLine
 62
7
  6
CONTINUOUS
 10
-3.038702779
 20
-26.0
 11
3.038702779
 21
-26.0
  0
LINE
  5
2EC
100
AcDbEntity
  8
RACCORDO
100
AcDbLine
 62
7
  6
CONTINUOUS
 10
-2.0086887894
 20
-25.9546029997
 11
2.0086887894
 21
-25.9546029997
  0
LWPOLYLINE
  5
2ED
100
AcDbEntity
  8
RACCORDO
100
AcDbPolyline
 62
250
  6
CONTINUOUS
 90
46
 70
0
 10
2.2
 20
-26.7376945183
 10
2.4273957804
 20
-26.7456153873
 10
2.6535035306
 20
-26.769315567
 10
2.8772346024
 20
-26.8086416239
 10
3.09747432
 20
-26.8633529696
 10
3.313214881
 20
-26.9331554519
 10
3.5235505122
 20
-27.0177320716
 10
3.7274481787
 20
-27.1166523378
 10
3.9239611665
 20
-27.2294422329
 10
4.1123287688
 20
-27.3556829293
 10
4.2916400984
 20
-27.4948093652
 10
4.4609927834
 20
-27.6461700748
 10
4.6196525963
 20
-27.8091851471
 10
4.7668394301
 20
-27.983163319
 10
4.9017392618
 20
-28.1672627603
 10
5.0236222432
 20
-28.360611231
 10
5.1318462822
 20
-28.5623192513
 10
5.2258090229
 20
-28.7714113265
 10
5.3049544304
 20
-28.9868031759
 10
5.3688536027
 20
-29.2074754481
 10
5.4171341594
 20
-29.4323272998
 10
5.4494861749
 20
-29.6600882667
 10
5.4657361827
 20
-29.8896211816
 10
5.4657924094
 20
-30.119799338
 10
5.4496504526
 20
-30.3493428098
 10
5.4174047119
 20
-30.5771243238
 10
5.3692315461
 20
-30.8020068188
 10
5.3054330434
 20
-31.0227169408
 10
5.2263858282
 20
-31.238149963
 10
5.1325217936
 20
-31.447289681
 10
5.0243869579
 20
-31.6490554283
 10
4.9025866635
 20
-31.8424689918
 10
4.7677656609
 20
-32.0266416321
 10
4.6206414293
 20
-32.2007050431
 10
4.4620320651
 20
-32.3638121301
 10
4.2927182866
 20
-32.5152727248
 10
4.1134138592
 20
-32.6545137091
 10
3.9250161547
 20
-32.7808813599
 10
3.7284433643
 20
-32.8938016524
 10
3.5244536487
 20
-32.9928477209
 10
3.3139929318
 20
-33.0775417867
 10
3.098102781
 20
-33.1474475978
 10
2.8777032457
 20
-33.2022391502
 10
2.6538116336
 20
-33.2416202246
 10
2.4275456903
 20
-33.2653529703
 10
2.2
 20
-33.2732855674
  0
LWPOLYLINE
  5
2EE
100
AcDbEntity
  8
RACCORDO
100
AcDbPolyline
 62
250
  6
CONTINUOUS
 90
46
 70
0
 10
2.2
 20
-26.385611488
 10
2.4491325066
 20
-26.3944894937
 10
2.6948236142
 20
-26.4201453488
 10
2.9370733228
 20
-26.4625790535
 10
3.177059505
 20
-26.522167337
 10
3.4136042883
 20
-26.59853347
 10
3.6431740545
 20
-26.6905472649
 10
3.8655606081
 20
-26.7983688548
 10
4.0809721447
 20
-26.9218381067
 10
4.2864996339
 20
-27.0593444337
 10
4.4820601408
 20
-27.2110645261
 10
4.6677366003
 20
-27.3768216935
 10
4.8408687864
 20
-27.5544752778
 10
5.0013514632
 20
-27.7442486124
 10
5.1492898665
 20
-27.9459183638
 10
5.2823394782
 20
-28.1566738733
 10
5.4002930989
 20
-28.3766984458
 10
5.5033579279
 20
-28.6058087763
 10
5.5898110452
 20
-28.840644291
 10
5.6593855147
 20
-29.0813451629
 10
5.7123482725
 20
-29.3277712188
 10
5.7477772065
 20
-29.5761413657
 10
5.7653662895
 20
-29.826485532
 10
5.7654215487
 20
-30.0787737892
 10
5.7479389531
 20
-30.3291352585
 10
5.7126102514
 20
-30.5775445855
 10
5.6597436948
 20
-30.8240271247
 10
5.590260006
 20
-31.064788061
 10
5.5038916612
 20
-31.2996830108
 10
5.4009061842
 20
-31.5288563578
 10
5.2830268692
 20
-31.7489464377
 10
5.1500483948
 20
-31.9597685579
 10
5.0021760824
 20
-32.1615074111
 10
4.8417491901
 20
-32.3513554109
 10
4.6686663055
 20
-32.5290892135
 10
4.4830288411
 20
-32.6949321626
 10
4.2874802923
 20
-32.8467467026
 10
4.0819315409
 20
-32.9843627278
 10
3.8664717052
 20
-33.1079503439
 10
3.6440116359
 20
-33.2158823125
 10
3.4143389505
 20
-33.3079966413
 10
3.1776660315
 20
-33.3844553225
 10
2.9375408771
 20
-33.4441170943
 10
2.6951461534
 20
-33.486601536
 10
2.4492991944
 20
-33.5122890683
 10
2.2
 20
-33.521179691
  0
LWPOLYLINE
  5
2EF
100
AcDbEntity
  8
0
100
AcDbPolyline
 62
7
  6
CONTINUOUS
 90
14
 70
0
 10
-13.3159926079
 20
-28.8103194214
 10
-13.2621621743
 20
-28.8130983251
 10
-13.209759172
 20
-28.8209354617
 10
-13.158783601
 20
-28.833830831
 10
-13.1086517472
 20
-28.85202273
 10
-13.0599473247
 20
-28.8752728617
 10
-13.0144214753
 20
-28.9028663359
 10
-12.9722529126
 20
-28.9349724085
 10
-12.9332629231
 20
-28.9714218235
 10
-12.8986665082
 20
-29.0109919227
 10
-12.8686301654
 20
-29.0537641264
 10
-12.8429873973
 20
-29.0996570144
 10
-12.8224537135
 20
-29.1472036674
 10
-12.8072220762
 20
-29.1964740232
  0
LWPOLYLINE
  5
2F0
100
AcDbEntity
  8
0
100
AcDbPolyline
 62
7
  6
CONTINUOUS
 90
17
 70
0
 10
-13.3159926079
 20
-28.7755897858
 10
-13.2621621743
 20
-28.7783686896
 10
-13.209759172
 20
-28.7862058262
 10
-13.158783601
 20
-28.7991011955
 10
-13.1086517472
 20
-28.8172930945
 10
-13.0599473247
 20
-28.8405432262
 10
-13.0144214753
 20
-28.8681367004
 10
-12.9722529126
 20
-28.9002427729
 10
-12.9332629231
 20
-28.9366921879
 10
-12.8986665082
 20
-28.9762622872
 10
-12.8686301654
 20
-29.0190344909
 10
-12.8429873973
 20
-29.0649273788
 10
-12.8224537135
 20
-29.1124740318
 10
-12.8072220762
 20
-29.1617443876
 10
-12.7970995232
 20
-29.2126685085
 10
-12.7922226768
 20
-29.263569662
 10
-12.7918095734
 20
-29.2842789752
  0
LINE
  5
2F1
100
AcDbEntity
  8
RACCORDO
100
AcDbLine
 62
7
  6
CONTINUOUS
 10
-29.8556630651
 20
-5.4999989046
 11
-29.9133974596
 21
-5.4
  0
LINE
  5
2F2
100
AcDbEntity
  8
RACCORDO
100
AcDbLine
 62
250
  6
CONTINUOUS
 10
-28.2757248812
 20
-5.3350456705
 11
-28.4337640632
 21
-5.0477017032
  0
LWPOLYLINE
  5
2F3
100
AcDbEntity
  8
RACCORDO
100
AcDbPolyline
 62
7
  6
CONTINUOUS
 90
10
 70
0
 10
-21.7653476348
 20
-22.1971383142
 10
-21.7510402587
 20
-22.2265672779
 10
-21.7328791048
 20
-22.2540502404
 10
-21.711262252
 20
-22.2789071869
 10
-21.6866204415
 20
-22.3006639575
 10
-21.6593375749
 20
-22.3190000932
 10
-21.6298943105
 20
-22.333595023
 10
-21.5988042263
 20
-22.3441992547
 10
-21.5666025858
 20
-22.3506350337
 10
-21.533845775
 20
-22.3527951665
  0
LWPOLYLINE
  5
2F4
100
AcDbEntity
  8
0
100
AcDbPolyline
 62
7
  6
CONTINUOUS
 90
12
 70
0
 10
-17.4648340642
 20
-31.1410195846
 10
-17.4512228938
 20
-31.1844877591
 10
-17.4322274888
 20
-31.2253239789
 10
-17.4073986492
 20
-31.2641696613
 10
-17.377185575
 20
-31.3003833889
 10
-17.3429358657
 20
-31.3320409101
 10
-17.3043720071
 20
-31.3588891491
 10
-17.2617715134
 20
-31.3811811817
 10
-17.2173145276
 20
-31.3977519838
 10
-17.1717277637
 20
-31.4082132141
 10
-17.1242845076
 20
-31.412953214
 10
-17.0749847593
 20
-31.4119719834
  0
LWPOLYLINE
  5
2F5
100
AcDbEntity
  8
RACCORDO
100
AcDbPolyline
 62
7
  6
CONTINUOUS
 90
7
 70
0
 10
-23.7000001516
 20
-2.9593849864
 10
-23.7031198027
 20
-2.9162359851
 10
-23.7124138226
 20
-2.8739843769
 10
-23.7276889188
 20
-2.8335088896
 10
-23.7486274076
 20
-2.7956513126
 10
-23.7747938205
 20
-2.7611989888
 10
-23.7844313076
 20
-2.7507580911
  0
LWPOLYLINE
  5
2F6
100
AcDbEntity
  8
RACCORDO
100
AcDbPolyline
 62
250
  6
CONTINUOUS
 90
13
 70
0
 10
-21.7572174055
 20
-17.4642258507
 10
-21.7550334451
 20
-17.4963306935
 10
-21.7486176481
 20
-17.5278873092
 10
-21.7380795653
 20
-17.5583567975
 10
-21.7235991454
 20
-17.5872188201
 10
-21.7054236625
 20
-17.6139804873
 10
-21.6838634936
 20
-17.6381847752
 10
-21.6592868157
 20
-17.6594183333
 10
-21.6321133274
 20
-17.6773185358
 10
-21.6028070855
 20
-17.6915796783
 10
-21.5718685653
 20
-17.7019582093
 10
-21.539826111
 20
-17.7082768844
 10
-21.5072269247
 20
-17.710427789
  0
LINE
  5
2F7
100
AcDbEntity
  8
RACCORDO
100
AcDbLine
 62
250
  6
CONTINUOUS
 10
-21.7838362558
 20
-22.1028332427
 11
-21.7816645472
 21
-22.1356718039
  0
LINE
  5
2F8
100
AcDbEntity
  8
RACCORDO
100
AcDbLine
 62
7
  6
CONTINUOUS
 10
-23.7023970239
 20
-2.9173542206
 11
-23.7
 21
-2.9541170697
  0
LINE
  5
2F9
100
AcDbEntity
  8
RACCORDO
100
AcDbLine
 62
250
  6
CONTINUOUS
 10
-24.1681813329
 20
-2.7056781562
 11
-24.1679747889
 21
-2.7108339522
  0
LWPOLYLINE
  5
2FA
100
AcDbEntity
  8
0
100
AcDbPolyline
 62
7
  6
CONTINUOUS
 90
40
 70
0
 10
-25.3807813663
 20
11.9654091325
 10
-25.38119647
 20
12.03769279
 10
-25.3831497108
 20
12.1078615689
 10
-25.3866410887
 20
12.1759154692
 10
-25.3914331922
 20
12.2419314767
 10
-25.3977634327
 20
12.3058326056
 10
-25.4063440448
 20
12.3673878984
 10
-25.4169468978
 20
12.4269144096
 10
-25.4298001224
 20
12.4840950847
 10
-25.446300345
 20
12.5377478022
 10
-25.4669121685
 20
12.5879080534
 10
-25.49117099
 20
12.6345403471
 10
-25.5190796274
 20
12.6763560887
 10
-25.551182773
 20
12.713198945
 10
-25.5869357345
 20
12.7452252492
 10
-25.6247072534
 20
12.7716154065
 10
-25.6645014393
 20
12.7919727245
 10
-25.7063141825
 20
12.8066938957
 10
-25.748501895
 20
12.8161494027
 10
-25.7909717161
 20
12.8204830102
 10
-25.8338165065
 20
12.8195509535
 10
-25.8756712603
 20
12.8132924211
 10
-25.9165715963
 20
12.8017424935
 10
-25.9564818957
 20
12.7848660901
 10
-25.9939302959
 20
12.7624971575
 10
-26.0288082361
 20
12.7342091434
 10
-26.061224277
 20
12.7004286001
 10
-26.0900322387
 20
12.6622691309
 10
-26.1146632124
 20
12.6196460548
 10
-26.1356861068
 20
12.5726440529
 10
-26.1536614676
 20
12.5226307715
 10
-26.1683542609
 20
12.4697779781
 10
-26.1799995206
 20
12.4139139052
 10
-26.1898628943
 20
12.3558908964
 10
-26.1982941622
 20
12.2959694222
 10
-26.2049435441
 20
12.2338890122
 10
-26.210027347
 20
12.1697205986
 10
-26.2136176733
 20
12.1034878256
 10
-26.2156424207
 20
12.035167049
 10
-26.2161015891
 20
11.9647582689
  0
LINE
  5
2FB
100
AcDbEntity
  8
0
100
AcDbLine
 62
7
  6
CONTINUOUS
 10
-25.65
 20
-1.4917020703
 11
-25.65
 21
-1.0901949367
  0
LINE
  5
2FC
100
AcDbEntity
  8
0
100
AcDbLine
 62
7
  6
CONTINUOUS
 10
-25.65
 20
1.0901949367
 11
-25.65
 21
1.4917020703
  0
LINE
  5
2FD
100
AcDbEntity
  8
0
100
AcDbLine
 62
7
  6
CONTINUOUS
 10
-25.5
 20
2.6329543503
 11
-25.5
 21
0.5860176963
  0
LINE
  5
2FE
100
AcDbEntity
  8
0
100
AcDbLine
 62
7
  6
CONTINUOUS
 10
-25.5
 20
-0.5860176963
 11
-25.5
 21
-2.6329543503
  0
LINE
  5
2FF
100
AcDbEntity
  8
DRAFT
100
AcDbLine
 62
7
  6
CONTINUOUS
 10
-25.0
 20
-33.7418713663
 11
-25.0
 21
-22.3677081299
  0
LINE
  5
300
100
AcDbEntity
  8
DRAFT
100
AcDbLine
 62
7
  6
CONTINUOUS
 10
-25.0
 20
22.3677081299
 11
-25.0
 21
33.7418713663
  0
LINE
  5
301
100
AcDbEntity
  8
0
100
AcDbLine
 62
7
  6
CONTINUOUS
 10
-24.8573050553
 20
-0.35
 11
-24.8573050553
 21
-0.0726172387
  0
LINE
  5
302
100
AcDbEntity
  8
0
100
AcDbLine
 62
7
  6
CONTINUOUS
 10
-24.8573050553
 20
0.0726172387
 11
-24.8573050553
 21
0.35
  0
LINE
  5
303
100
AcDbEntity
  8
RACCORDO
100
AcDbLine
 62
250
  6
CONTINUOUS
 10
-24.7
 20
-7.75
 11
-24.7
 21
-3.3683969859
  0
LINE
  5
304
100
AcDbEntity
  8
RACCORDO
100
AcDbLine
 62
250
  6
CONTINUOUS
 10
-24.7
 20
3.3683969859
 11
-24.7
 21
7.75
  0
LINE
  5
305
100
AcDbEntity
  8
DRAFT
100
AcDbLine
 62
7
  6
CONTINUOUS
 10
-24.0
 20
-22.3677081299
 11
-24.0
 21
-7.75
  0
LINE
  5
306
100
AcDbEntity
  8
DRAFT
100
AcDbLine
 62
7
  6
CONTINUOUS
 10
-24.0
 20
7.75
 11
-24.0
 21
22.3677081299
  0
LINE
  5
307
100
AcDbEntity
  8
RACCORDO
100
AcDbLine
 62
7
  6
CONTINUOUS
 10
-23.7
 20
-7.75
 11
-23.7
 21
-2.9593849864
  0
LINE
  5
308
100
AcDbEntity
  8
RACCORDO
100
AcDbLine
 62
7
  6
CONTINUOUS
 10
-23.7
 20
2.9593849864
 11
-23.7
 21
7.75
  0
LWPOLYLINE
  5
309
100
AcDbEntity
  8
0
100
AcDbPolyline
 62
7
  6
CONTINUOUS
 90
40
 70
0
 10
-25.1179183329
 20
11.965515468
 10
-25.1188258518
 20
11.8693880603
 10
-25.1230728988
 20
11.7765512003
 10
-25.1306594739
 20
11.6870048883
 10
-25.1412921712
 20
11.6004516873
 10
-25.1552643967
 20
11.5171890341
 10
-25.1734563676
 20
11.438109239
 10
-25.1961978697
 20
11.3631178847
 10
-25.2231591172
 20
11.2923093885
 10
-25.2542309703
 20
11.2268593119
 10
-25.2895445892
 20
11.1668893838
 10
-25.3289688137
 20
11.1122778755
 10
-25.3720010235
 20
11.0638351619
 10
-25.4185152915
 20
11.021839214
 10
-25.4686375449
 20
10.986012061
 10
-25.522242945
 20
10.9563301647
 10
-25.579923672
 20
10.9328542757
 10
-25.6410875457
 20
10.9155236435
 10
-25.7038331874
 20
10.9041324786
 10
-25.7686111874
 20
10.8986719083
 10
-25.8349709554
 20
10.8991508053
 10
-25.8996593418
 20
10.9053899984
 10
-25.9621867622
 20
10.9172120149
 10
-26.0230428009
 20
10.9347943275
 10
-26.0804430621
 20
10.9584901828
 10
-26.1338795264
 20
10.9884115605
 10
-26.1838602131
 20
11.0244464808
 10
-26.230124784
 20
11.066612251
 10
-26.2728172108
 20
11.1151531999
 10
-26.3117935219
 20
11.1698249987
 10
-26.3463614642
 20
11.229911968
 10
-26.3760747651
 20
11.2956897138
 10
-26.4013796972
 20
11.3668826301
 10
-26.4229228252
 20
11.4419482201
 10
-26.4407534577
 20
11.5205610018
 10
-26.4548222862
 20
11.6030464573
 10
-26.4656279496
 20
11.6888385354
 10
-26.4733366611
 20
11.7777485526
 10
-26.4777822076
 20
11.8699651925
 10
-26.4789645891
 20
11.9654884551
  0
LWPOLYLINE
  5
30A
100
AcDbEntity
  8
0
100
AcDbPolyline
 62
7
  6
CONTINUOUS
 90
10
 70
0
 10
-24.0523570524
 20
-0.35
 10
-24.0507888594
 20
-0.2723539704
 10
-24.0496127146
 20
-0.1946420669
 10
-24.0488286181
 20
-0.1168642894
 10
-24.0484365699
 20
-0.0389767221
 10
-24.0484365699
 20
0.0389767192
 10
-24.0488286181
 20
0.1168642868
 10
-24.0496127146
 20
0.1946420649
 10
-24.0507888594
 20
0.2723539693
 10
-24.0523570524
 20
0.35
  0
LINE
  5
30B
100
AcDbEntity
  8
RACCORDO
100
AcDbLine
 62
250
  6
CONTINUOUS
 10
-24.1679747889
 20
2.7108339522
 11
-24.1681813329
 21
2.7056781562
  0
LWPOLYLINE
  5
30C
100
AcDbEntity
  8
RACCORDO
100
AcDbPolyline
 62
7
  6
CONTINUOUS
 90
10
 70
0
 10
-23.7
 20
2.9541170697
 10
-23.7023970239
 20
2.9173542206
 10
-23.7088245528
 20
2.8820791467
 10
-23.7192825867
 20
2.8482918479
 10
-23.7340445631
 20
2.8155353749
 10
-23.7528370445
 20
2.7842666771
 10
-23.7748397181
 20
2.7558566029
 10
-23.8001757362
 20
2.7304525442
 10
-23.8287219466
 20
2.7079071093
 10
-23.8592885806
 20
2.689148971
  0
LWPOLYLINE
  5
30D
100
AcDbEntity
  8
RACCORDO
100
AcDbPolyline
 62
250
  6
CONTINUOUS
 90
13
 70
0
 10
-21.7838362558
 20
22.1028332427
 10
-21.7816929976
 20
22.1354566759
 10
-21.7753098258
 20
22.1675220212
 10
-21.7647959371
 20
22.1984807379
 10
-21.7503311923
 20
22.2278032163
 10
-21.7321630392
 20
22.2549878378
 10
-21.7106022798
 20
22.2795695562
 10
-21.6860177531
 20
22.3011278527
 10
-21.6588300258
 20
22.3192939304
 10
-21.6295041975
 20
22.3337570229
 10
-21.5985419439
 20
22.3442697105
 10
-21.5664729353
 20
22.3506521531
 10
-21.533845775
 20
22.3527951665
  0
LWPOLYLINE
  5
30E
100
AcDbEntity
  8
RACCORDO
100
AcDbPolyline
 62
250
  6
CONTINUOUS
 90
13
 70
0
 10
-21.7572174055
 20
17.4642258507
 10
-21.755033422
 20
17.4963308647
 10
-21.7486175657
 20
17.5278876108
 10
-21.7380794024
 20
17.5583571842
 10
-21.7235988956
 20
17.587219246
 10
-21.7054233338
 20
17.6139809093
 10
-21.683863107
 20
17.6381851563
 10
-21.6592864063
 20
17.6594186433
 10
-21.632112936
 20
17.6773187591
 10
-21.6028067463
 20
17.6915798174
 10
-21.5718683087
 20
17.7019582776
 10
-21.539825969
 20
17.7082769032
 10
-21.5072269247
 20
17.710427789
  0
LWPOLYLINE
  5
30F
100
AcDbEntity
  8
RACCORDO
100
AcDbPolyline
 62
7
  6
CONTINUOUS
 90
6
 70
0
 10
-23.7
 20
2.9593849864
 10
-23.7031196279
 20
2.9162359646
 10
-23.7124136309
 20
2.8739843354
 10
-23.727688717
 20
2.8335088278
 10
-23.7486272022
 20
2.7956512321
 10
-23.7709870627
 20
2.7656095782
  0
LINE
  5
310
100
AcDbEntity
  8
0
100
AcDbLine
 62
7
  6
CONTINUOUS
 10
-26.5197234842
 20
0.5197234842
 11
-26.35
 21
1.0901949367
  0
LINE
  5
311
100
AcDbEntity
  8
0
100
AcDbLine
 62
7
  6
CONTINUOUS
 10
-25.65
 20
-1.0901949367
 11
-25.4802765158
 21
-0.5197234842
  0
LWPOLYLINE
  5
312
100
AcDbEntity
  8
RACCORDO
100
AcDbPolyline
 62
250
  6
CONTINUOUS
 90
16
 70
0
 10
-24.0947504969
 20
3.1339539249
 10
-24.1081233546
 20
3.1000484918
 10
-24.1240778264
 20
3.0666634494
 10
-24.1423690384
 20
3.0343112012
 10
-24.1627162516
 20
3.0034882992
 10
-24.184807171
 20
2.9746678223
 10
-24.2083027385
 20
2.9482921158
 10
-24.2328423371
 20
2.9247660018
 10
-24.2580493259
 20
2.9044505661
 10
-24.2835368205
 20
2.887657616
 10
-24.3089136313
 20
2.8746448947
 10
-24.3337902674
 20
2.8656121253
 10
-24.357784915
 20
2.8606979453
 10
-24.380529297
 20
2.8599777791
 10
-24.4016743259
 20
2.86346268
 10
-24.4208954616
 20
2.8710991607
  0
LINE
  5
313
100
AcDbEntity
  8
RACCORDO
100
AcDbLine
 62
250
  6
CONTINUOUS
 10
-24.7
 20
3.3683969859
 11
-24.8445701199
 21
3.1055422223
  0
LINE
  5
314
100
AcDbEntity
  8
RACCORDO
100
AcDbLine
 62
250
  6
CONTINUOUS
 10
-24.4337640632
 20
2.8477017032
 11
-24.4208954613
 21
2.8710991613
  0
LINE
  5
315
100
AcDbEntity
  8
RACCORDO
100
AcDbLine
 62
7
  6
CONTINUOUS
 10
-30.1443381532
 20
-5.5000010148
 11
-30.0866025404
 21
-5.4
  0
LWPOLYLINE
  5
316
100
AcDbEntity
  8
RACCORDO
100
AcDbPolyline
 62
250
  6
CONTINUOUS
 90
12
 70
0
 10
-21.7518139026
 20
16.7552054488
 10
-21.7494156415
 20
16.756485606
 10
-21.7428278888
 20
16.7577441004
 10
-21.7321621154
 20
16.758959637
 10
-21.7175987962
 20
16.7601116478
 10
-21.6993843561
 20
16.7611806397
 10
-21.6778270005
 20
16.7621485244
 10
-21.6532915001
 20
16.7629989243
 10
-21.6261930183
 20
16.7637174499
 10
-21.596990087
 20
16.764291943
 10
-21.566176847
 20
16.7647126827
 10
-21.5342746871
 20
16.7649725496
  0
LWPOLYLINE
  5
317
100
AcDbEntity
  8
0
100
AcDbPolyline
 62
7
  6
CONTINUOUS
 90
7
 70
0
 10
10.8728560754
 20
28.9373934527
 10
10.920527946
 20
28.9529905705
 10
10.9649023473
 20
28.9726383521
 10
11.0053534324
 20
28.9961719122
 10
11.0416828622
 20
29.0236185367
 10
11.0740889759
 20
29.0549509397
 10
11.1025409435
 20
29.0899223775
  0
LWPOLYLINE
  5
318
100
AcDbEntity
  8
0
100
AcDbPolyline
 62
7
  6
CONTINUOUS
 90
7
 70
0
 10
16.4458841054
 20
28.9373934527
 10
16.493555976
 20
28.9529905705
 10
16.5379303773
 20
28.9726383521
 10
16.5783814624
 20
28.9961719122
 10
16.6147108922
 20
29.0236185367
 10
16.6471170059
 20
29.0549509397
 10
16.6755689735
 20
29.0899223775
  0
LINE
  5
319
100
AcDbEntity
  8
RACCORDO
100
AcDbLine
 62
250
  6
CONTINUOUS
 10
-12.7735720626
 20
-22.3527951665
 11
-12.7692084511
 21
-22.3527564198
  0
LINE
  5
31A
100
AcDbEntity
  8
DRAFT
100
AcDbLine
 62
7
  6
CONTINUOUS
 10
-1.6
 20
-24.3344711278
 11
1.6
 21
-24.3344711278
  0
LINE
  5
31B
100
AcDbEntity
  8
DRAFT
100
AcDbLine
 62
7
  6
CONTINUOUS
 10
-6.2483867611
 20
-24.2983867611
 11
-3.0360843667
 21
-24.2983867611
  0
LINE
  5
31C
100
AcDbEntity
  8
DRAFT
100
AcDbLine
 62
7
  6
CONTINUOUS
 10
3.0360843667
 20
-24.2983867611
 11
6.2483867611
 21
-24.2983867611
  0
LINE
  5
31D
100
AcDbEntity
  8
DRAFT
100
AcDbLine
 62
7
  6
CONTINUOUS
 10
1.6
 20
-23.3
 11
4.2
 21
-23.3
  0
LINE
  5
31E
100
AcDbEntity
  8
DRAFT
100
AcDbLine
 62
7
  6
CONTINUOUS
 10
-1.6
 20
-23.3
 11
-4.2
 21
-23.3
  0
LINE
  5
31F
100
AcDbEntity
  8
RACCORDO
100
AcDbLine
 62
7
  6
CONTINUOUS
 10
-8.1
 20
-23.25
 11
-7.0499695385
 21
-23.25
  0
LINE
  5
320
100
AcDbEntity
  8
DRAFT
100
AcDbLine
 62
7
  6
CONTINUOUS
 10
25.0
 20
-23.25
 11
8.1
 21
-23.25
  0
LINE
  5
321
100
AcDbEntity
  8
RACCORDO
100
AcDbLine
 62
7
  6
CONTINUOUS
 10
7.0499695385
 20
-23.25
 11
8.1
 21
-23.25
  0
LINE
  5
322
100
AcDbEntity
  8
DRAFT
100
AcDbLine
 62
7
  6
CONTINUOUS
 10
-8.1
 20
-23.25
 11
-25.0
 21
-23.25
  0
LINE
  5
323
100
AcDbEntity
  8
DRAFT
100
AcDbLine
 62
7
  6
CONTINUOUS
 10
-12.5
 20
-22.5
 11
-8.1
 21
-22.5
  0
LINE
  5
324
100
AcDbEntity
  8
DRAFT
100
AcDbLine
 62
7
  6
CONTINUOUS
 10
8.1
 20
-22.5
 11
12.5
 21
-22.5
  0
LINE
  5
325
100
AcDbEntity
  8
RACCORDO
100
AcDbLine
 62
7
  6
CONTINUOUS
 10
25.0
 20
-22.4
 11
12.7499714434
 21
-22.4
  0
LINE
  5
326
100
AcDbEntity
  8
RACCORDO
100
AcDbLine
 62
7
  6
CONTINUOUS
 10
-12.7499714434
 20
-22.4
 11
-25.0
 21
-22.4
  0
LINE
  5
327
100
AcDbEntity
  8
RACCORDO
100
AcDbLine
 62
7
  6
CONTINUOUS
 10
24.0
 20
-22.3851631948
 11
21.5500285566
 21
-22.3851631948
  0
LINE
  5
328
100
AcDbEntity
  8
RACCORDO
100
AcDbLine
 62
7
  6
CONTINUOUS
 10
-21.5500285566
 20
-22.3851631948
 11
-24.0
 21
-22.3851631948
  0
LINE
  5
329
100
AcDbEntity
  8
DRAFT
100
AcDbLine
 62
7
  6
CONTINUOUS
 10
-25.0
 20
-22.3677081299
 11
-24.0
 21
-22.3677081299
  0
LINE
  5
32A
100
AcDbEntity
  8
DRAFT
100
AcDbLine
 62
7
  6
CONTINUOUS
 10
24.0
 20
-22.3677081299
 11
25.0
 21
-22.3677081299
  0
LINE
  5
32B
100
AcDbEntity
  8
RACCORDO
100
AcDbLine
 62
250
  6
CONTINUOUS
 10
21.533845775
 20
-22.3527951665
 11
12.7735720626
 21
-22.3527951665
  0
LINE
  5
32C
100
AcDbEntity
  8
RACCORDO
100
AcDbLine
 62
250
  6
CONTINUOUS
 10
-12.7735720626
 20
-22.3527951665
 11
-21.533845775
 21
-22.3527951665
  0
LWPOLYLINE
  5
32D
100
AcDbEntity
  8
RACCORDO
100
AcDbPolyline
 62
250
  6
CONTINUOUS
 90
13
 70
0
 10
-21.7518139026
 20
-16.7552054488
 10
-21.7494158746
 20
-16.756485616
 10
-21.7428283089
 20
-16.7577441213
 10
-21.7321626744
 20
-16.7589596695
 10
-21.7175994454
 20
-16.7601116921
 10
-21.6993850477
 20
-16.7611806957
 10
-21.6778276892
 20
-16.7621485915
 10
-21.6532921441
 20
-16.7629990016
 10
-21.6261935809
 20
-16.7637175361
 10
-21.5969905373
 20
-16.7642920368
 10
-21.566177161
 20
-16.7647127823
 10
-21.5342748484
 20
-16.7649726533
 10
-21.5018234218
 20
-16.7650672523
  0
LINE
  5
32E
100
AcDbEntity
  8
RACCORDO
100
AcDbLine
 62
7
  6
CONTINUOUS
 10
-30.0866025404
 20
5.4
 11
-30.1443369349
 21
5.4999989046
  0
LINE
  5
32F
100
AcDbEntity
  8
RACCORDO
100
AcDbLine
 62
250
  6
CONTINUOUS
 10
-24.7
 20
-3.3683969859
 11
-24.8445701199
 21
-3.1055422223
  0
LINE
  5
330
100
AcDbEntity
  8
RACCORDO
100
AcDbLine
 62
250
  6
CONTINUOUS
 10
-24.4337640632
 20
-2.8477017032
 11
-24.4208954613
 21
-2.8710991613
  0
LWPOLYLINE
  5
331
100
AcDbEntity
  8
RACCORDO
100
AcDbPolyline
 62
250
  6
CONTINUOUS
 90
16
 70
0
 10
-24.0947505437
 20
-3.1339539249
 10
-24.1081233803
 20
-3.1000484957
 10
-24.1240778318
 20
-3.0666634586
 10
-24.1423690245
 20
-3.0343112164
 10
-24.1627162202
 20
-3.0034883206
 10
-24.1848071242
 20
-2.9746678498
 10
-24.2083026789
 20
-2.9482921486
 10
-24.2328422679
 20
-2.9247660389
 10
-24.2580492506
 20
-2.904450606
 10
-24.2835367429
 20
-2.8876576569
 10
-24.3089135556
 20
-2.8746449345
 10
-24.3337901979
 20
-2.8656121618
 10
-24.3577848561
 20
-2.8606979763
 10
-24.3805292533
 20
-2.8599778022
 10
-24.4016743018
 20
-2.8634626929
 10
-24.4208954613
 20
-2.8710991613
  0
LINE
  5
332
100
AcDbEntity
  8
0
100
AcDbLine
 62
7
  6
CONTINUOUS
 10
-26.35
 20
-1.0901949367
 11
-26.5197234842
 21
-0.5197234842
  0
LINE
  5
333
100
AcDbEntity
  8
0
100
AcDbLine
 62
7
  6
CONTINUOUS
 10
-25.4802765158
 20
0.5197234842
 11
-25.65
 21
1.0901949367
  0
LWPOLYLINE
  5
334
100
AcDbEntity
  8
RACCORDO
100
AcDbPolyline
 62
7
  6
CONTINUOUS
 90
3
 70
0
 10
-21.7816645472
 20
-22.1356718039
 10
-21.7756142816
 20
-22.1663755683
 10
-21.7653476348
 20
-22.1971383142
  0
LWPOLYLINE
  5
335
100
AcDbEntity
  8
0
100
AcDbPolyline
 62
7
  6
CONTINUOUS
 90
13
 70
0
 10
-17.473061
 20
-31.0601898198
 10
-17.4648340568
 20
-31.1062899778
 10
-17.4512228732
 20
-31.1497581767
 10
-17.4322274491
 20
-31.1905944163
 10
-17.4073985836
 20
-31.229440115
 10
-17.3771854777
 20
-31.2656538546
 10
-17.3429357342
 20
-31.2973113805
 10
-17.3043718255
 20
-31.3241596149
 10
-17.2617712793
 20
-31.3464516356
 10
-17.217314281
 20
-31.3630224213
 10
-17.1717275591
 20
-31.3734836318
 10
-17.1242843852
 20
-31.3782236073
 10
-17.0749847593
 20
-31.3772423479
  0
LINE
  5
336
100
AcDbEntity
  8
RACCORDO
100
AcDbLine
 62
250
  6
CONTINUOUS
 10
-21.5072269247
 20
17.710427789
 11
-21.5364063431
 21
18.3
  0
LWPOLYLINE
  5
337
100
AcDbEntity
  8
RACCORDO
100
AcDbPolyline
 62
250
  6
CONTINUOUS
 90
3
 70
0
 10
-21.7565077031
 20
17.4455826528
 10
-21.7568655972
 20
17.4564705251
 10
-21.7860370115
 20
18.0465280279
  0
LWPOLYLINE
  5
338
100
AcDbEntity
  8
0
100
AcDbPolyline
 62
7
  6
CONTINUOUS
 90
21
 70
0
 10
-20.00000052
 20
28.6818076837
 10
-19.9975443928
 20
28.5833289912
 10
-19.9818488907
 20
28.4054876988
 10
-19.9509379164
 20
28.2295078888
 10
-19.905086823
 20
28.0553978635
 10
-19.8452139338
 20
27.8866115828
 10
-19.7711159664
 20
27.7233125409
 10
-19.6829962032
 20
27.5653372436
 10
-19.5823828156
 20
27.415649168
 10
-19.4688971864
 20
27.2742511597
 10
-19.3429179328
 20
27.1411403732
 10
-19.207109077
 20
27.019271749
 10
-19.0613522761
 20
26.9089749001
 10
-18.905765873
 20
26.8099202135
 10
-18.743368919
 20
26.7240737904
 10
-18.5740537913
 20
26.651669633
 10
-18.3979281126
 20
26.5924737391
 10
-18.2183338022
 20
26.5477502029
 10
-18.0363848331
 20
26.517920389
 10
-17.8509672324
 20
26.5025629327
 10
-17.662081
 20
26.5016778341
  0
LWPOLYLINE
  5
339
100
AcDbEntity
  8
RACCORDO
100
AcDbPolyline
 62
250
  6
CONTINUOUS
 90
3
 70
0
 10
-21.5065170577
 20
17.6851326283
 10
-21.5068749791
 20
17.6995411508
 10
-21.5072269247
 20
17.710427789
  0
LINE
  5
33A
100
AcDbEntity
  8
RACCORDO
100
AcDbLine
 62
250
  6
CONTINUOUS
 10
-21.7557694706
 20
17.4144730617
 11
-21.7565077031
 21
17.4455826528
  0
LINE
  5
33B
100
AcDbEntity
  8
RACCORDO
100
AcDbLine
 62
250
  6
CONTINUOUS
 10
-21.5057791432
 20
17.6443178409
 11
-21.5065170577
 21
17.6851326283
  0
LINE
  5
33C
100
AcDbEntity
  8
RACCORDO
100
AcDbLine
 62
250
  6
CONTINUOUS
 10
-21.7550152684
 20
17.3707056973
 11
-21.7557694706
 21
17.4144730617
  0
LINE
  5
33D
100
AcDbEntity
  8
RACCORDO
100
AcDbLine
 62
250
  6
CONTINUOUS
 10
-21.7539450847
 20
17.2799338197
 11
-21.7550152684
 21
17.3707056973
  0
LINE
  5
33E
100
AcDbEntity
  8
RACCORDO
100
AcDbLine
 62
250
  6
CONTINUOUS
 10
-21.5046588247
 20
17.5498984077
 11
-21.5057791432
 21
17.6443178409
  0
LINE
  5
33F
100
AcDbEntity
  8
RACCORDO
100
AcDbLine
 62
250
  6
CONTINUOUS
 10
-21.5030489483
 20
17.3093028653
 11
-21.5046588247
 21
17.5498984077
  0
LINE
  5
340
100
AcDbEntity
  8
RACCORDO
100
AcDbLine
 62
250
  6
CONTINUOUS
 10
-21.7525623433
 20
17.0746425086
 11
-21.7539450847
 21
17.2799338197
  0
LINE
  5
341
100
AcDbEntity
  8
RACCORDO
100
AcDbLine
 62
250
  6
CONTINUOUS
 10
-21.7518139026
 20
16.7552054488
 11
-21.7525623433
 21
17.0746425086
  0
LINE
  5
342
100
AcDbEntity
  8
RACCORDO
100
AcDbLine
 62
250
  6
CONTINUOUS
 10
-21.5018234218
 20
16.765067253
 11
-21.5030489483
 21
17.3093028653
  0
LINE
  5
343
100
AcDbEntity
  8
RACCORDO
100
AcDbLine
 62
250
  6
CONTINUOUS
 10
-21.7498192826
 20
9.3097513585
 11
-21.7518139026
 21
16.7552054488
  0
LINE
  5
344
100
AcDbEntity
  8
RACCORDO
100
AcDbLine
 62
250
  6
CONTINUOUS
 10
-21.499828801
 20
9.3155973374
 11
-21.5018234218
 21
16.765067253
  0
LINE
  5
345
100
AcDbEntity
  8
RACCORDO
100
AcDbLine
 62
7
  6
CONTINUOUS
 10
-21.8
 20
-22.1351631934
 11
-21.8
 21
22.1351631934
  0
LINE
  5
346
100
AcDbEntity
  8
RACCORDO
100
AcDbLine
 62
7
  6
CONTINUOUS
 10
-21.7860370115
 20
-18.8
 11
-21.7860370115
 21
-18.0465280279
  0
LINE
  5
347
100
AcDbEntity
  8
RACCORDO
100
AcDbLine
 62
7
  6
CONTINUOUS
 10
-21.7860370115
 20
18.0465280279
 11
-21.7860370115
 21
18.8
  0
LINE
  5
348
100
AcDbEntity
  8
RACCORDO
100
AcDbLine
 62
7
  6
CONTINUOUS
 10
-21.7838362558
 20
-22.1028332427
 11
-21.7838362558
 21
-18.8
  0
LINE
  5
349
100
AcDbEntity
  8
RACCORDO
100
AcDbLine
 62
7
  6
CONTINUOUS
 10
-21.7838362558
 20
18.8
 11
-21.7838362558
 21
22.1028332427
  0
LINE
  5
34A
100
AcDbEntity
  8
RACCORDO
100
AcDbLine
 62
250
  6
CONTINUOUS
 10
-21.7489644469
 20
1.8622590091
 11
-21.7498192826
 21
9.3097513585
  0
LINE
  5
34B
100
AcDbEntity
  8
RACCORDO
100
AcDbLine
 62
250
  6
CONTINUOUS
 10
-21.533845775
 20
-18.8
 11
-21.533845775
 21
-22.3527951665
  0
LINE
  5
34C
100
AcDbEntity
  8
RACCORDO
100
AcDbLine
 62
250
  6
CONTINUOUS
 10
-21.533845775
 20
18.8
 11
-21.533845775
 21
22.3527951665
  0
LINE
  5
34D
100
AcDbEntity
  8
RACCORDO
100
AcDbLine
 62
250
  6
CONTINUOUS
 10
-21.4989739635
 20
1.8632627072
 11
-21.499828801
 21
9.3155973374
  0
LINE
  5
34E
100
AcDbEntity
  8
RACCORDO
100
AcDbLine
 62
250
  6
CONTINUOUS
 10
-21.7492493944
 20
-5.5863955735
 11
-21.7489644469
 21
1.8622590091
  0
LINE
  5
34F
100
AcDbEntity
  8
RACCORDO
100
AcDbLine
 62
250
  6
CONTINUOUS
 10
-21.4992589092
 20
-5.5896448822
 11
-21.4989739635
 21
1.8632627072
  0
LINE
  5
350
100
AcDbEntity
  8
RACCORDO
100
AcDbLine
 62
250
  6
CONTINUOUS
 10
-21.7506741215
 20
-13.0327082868
 11
-21.7492493944
 21
-5.5863955735
  0
LINE
  5
351
100
AcDbEntity
  8
RACCORDO
100
AcDbLine
 62
250
  6
CONTINUOUS
 10
-21.5006836384
 20
-13.040833596
 11
-21.4992589092
 21
-5.5896448822
  0
LINE
  5
352
100
AcDbEntity
  8
RACCORDO
100
AcDbLine
 62
250
  6
CONTINUOUS
 10
-21.7525091174
 20
-17.0627909045
 11
-21.7506741215
 21
-13.0327082868
  0
LINE
  5
353
100
AcDbEntity
  8
RACCORDO
100
AcDbLine
 62
250
  6
CONTINUOUS
 10
-21.5029727866
 20
-17.2927574951
 11
-21.5006836384
 21
-13.040833596
  0
LINE
  5
354
100
AcDbEntity
  8
RACCORDO
100
AcDbLine
 62
250
  6
CONTINUOUS
 10
-21.7538513272
 20
-17.2699444413
 11
-21.7525091174
 21
-17.0627909045
  0
LINE
  5
355
100
AcDbEntity
  8
RACCORDO
100
AcDbLine
 62
250
  6
CONTINUOUS
 10
-21.504560096
 20
-17.5393165395
 11
-21.5029727866
 21
-17.2927574951
  0
LINE
  5
356
100
AcDbEntity
  8
RACCORDO
100
AcDbLine
 62
250
  6
CONTINUOUS
 10
-21.7549223838
 20
-17.3642676021
 11
-21.7538513272
 21
-17.2699444413
  0
LINE
  5
357
100
AcDbEntity
  8
RACCORDO
100
AcDbLine
 62
250
  6
CONTINUOUS
 10
-21.5057026825
 20
-17.6391978722
 11
-21.504560096
 21
-17.5393165395
  0
LINE
  5
358
100
AcDbEntity
  8
RACCORDO
100
AcDbLine
 62
250
  6
CONTINUOUS
 10
-21.755693815
 20
-17.4106819093
 11
-21.7549223838
 21
-17.3642676021
  0
LWPOLYLINE
  5
359
100
AcDbEntity
  8
RACCORDO
100
AcDbPolyline
 62
250
  6
CONTINUOUS
 90
4
 70
0
 10
-21.5072269247
 20
-17.710427789
 10
-21.5068509505
 20
-17.698686528
 10
-21.506472283
 20
-17.6831058632
 10
-21.5057026825
 20
-17.6391978722
  0
LWPOLYLINE
  5
35A
100
AcDbEntity
  8
RACCORDO
100
AcDbPolyline
 62
250
  6
CONTINUOUS
 90
4
 70
0
 10
-21.7572174055
 20
-17.4642258507
 10
-21.756841513
 20
-17.4557465135
 10
-21.7564629761
 20
-17.4439950279
 10
-21.755693815
 20
-17.4106819093
  0
LWPOLYLINE
  5
35B
100
AcDbEntity
  8
0
100
AcDbPolyline
 62
7
  6
CONTINUOUS
 90
19
 70
0
 10
-19.3382939413
 20
28.7165153822
 10
-19.3311494257
 20
28.8609705007
 10
-19.3112036573
 20
28.998962659
 10
-19.2789994169
 20
29.1335103814
 10
-19.2343029091
 20
29.2644607642
 10
-19.1773479293
 20
29.3919667111
 10
-19.1093916969
 20
29.5131755247
 10
-19.0301283136
 20
29.6280410262
 10
-18.9398636777
 20
29.7366093945
 10
-18.8407727038
 20
29.8361664687
 10
-18.7326338927
 20
29.9264722103
 10
-18.6156687436
 20
30.0077666578
 10
-18.4927166689
 20
30.0780557668
 10
-18.3637195696
 20
30.1370579289
 10
-18.2287355446
 20
30.1850547526
 10
-18.0907783042
 20
30.220897018
 10
-17.9508524183
 20
30.2442016519
 10
-17.8079533169
 20
30.2553517277
 10
-17.662081
 20
30.2543472452
  0
LWPOLYLINE
  5
35C
100
AcDbEntity
  8
0
100
AcDbPolyline
 62
7
  6
CONTINUOUS
 90
19
 70
0
 10
-19.3382939413
 20
28.6817857473
 10
-19.3311494311
 20
28.8262408098
 10
-19.3112036671
 20
28.9642329721
 10
-19.2789994305
 20
29.0987806986
 10
-19.2343029258
 20
29.2297310859
 10
-19.1773479485
 20
29.3572370374
 10
-19.1093917178
 20
29.4784458557
 10
-19.0301283355
 20
29.5933113618
 10
-18.9398636999
 20
29.7018797345
 10
-18.8407727258
 20
29.8014368131
 10
-18.7326339138
 20
29.8917425586
 10
-18.6156687632
 20
29.9730370099
 10
-18.4927166867
 20
30.0433261221
 10
-18.363719585
 20
30.1023282871
 10
-18.2287355574
 20
30.1503251131
 10
-18.090778314
 20
30.1861673803
 10
-17.9508524251
 20
30.2094720155
 10
-17.8079533204
 20
30.220622092
 10
-17.662081
 20
30.2196176096
  0
LINE
  5
35D
100
AcDbEntity
  8
RACCORDO
100
AcDbLine
 62
250
  6
CONTINUOUS
 10
-21.7860370115
 20
-18.0465280279
 11
-21.7572174055
 21
-17.4642258507
  0
LINE
  5
35E
100
AcDbEntity
  8
RACCORDO
100
AcDbLine
 62
250
  6
CONTINUOUS
 10
-21.5364063431
 20
-18.3
 11
-21.5072269247
 21
-17.710427789
  0
LINE
  5
35F
100
AcDbEntity
  8
RACCORDO
100
AcDbLine
 62
250
  6
CONTINUOUS
 10
-12.7735720626
 20
22.3527951665
 11
-12.7499714434
 21
22.4
  0
LINE
  5
360
100
AcDbEntity
  8
RACCORDO
100
AcDbLine
 62
250
  6
CONTINUOUS
 10
-12.5235815819
 20
22.1028332427
 11
-12.5
 21
22.1499999985
  0
LWPOLYLINE
  5
361
100
AcDbEntity
  8
RACCORDO
100
AcDbPolyline
 62
250
  6
CONTINUOUS
 90
25
 70
0
 10
-24.1679747889
 20
-2.7108339522
 10
-24.1682080849
 20
-2.7112030142
 10
-24.169002336
 20
-2.7119522056
 10
-24.1703580084
 20
-2.7130810335
 10
-24.1722197087
 20
-2.714549237
 10
-24.1746443899
 20
-2.7163951457
 10
-24.1778017522
 20
-2.7187351723
 10
-24.181698426
 20
-2.7215721259
 10
-24.1863320096
 20
-2.7248974855
 10
-24.1918601731
 20
-2.7288085245
 10
-24.1982781083
 20
-2.7332939136
 10
-24.205598801
 20
-2.7383533028
 10
-24.2140090092
 20
-2.7440968471
 10
-24.2235124922
 20
-2.7505129238
 10
-24.2341196508
 20
-2.7575919682
 10
-24.2460308044
 20
-2.765441571
 10
-24.2592610384
 20
-2.7740481938
 10
-24.2738175964
 20
-2.7833901647
 10
-24.28989371
 20
-2.7935550134
 10
-24.3075173715
 20
-2.8045249284
 10
-24.3266927677
 20
-2.8162635642
 10
-24.3475825556
 20
-2.8288210769
 10
-24.3702557977
 20
-2.8421871719
 10
-24.39468593
 20
-2.8562943308
 10
-24.4208954613
 20
-2.8710991613
  0
LWPOLYLINE
  5
362
100
AcDbEntity
  8
RACCORDO
100
AcDbPolyline
 62
250
  6
CONTINUOUS
 90
12
 70
0
 10
-23.7709870627
 20
2.7656095782
 10
-23.7747936179
 20
2.7611988922
 10
-23.8056437676
 20
2.7308683315
 10
-23.8405360449
 20
2.7052903502
 10
-23.8787447767
 20
2.6849969069
 10
-23.9194753164
 20
2.670410055
 10
-23.9618805697
 20
2.6618331647
 10
-24.0050786126
 20
2.6594446142
 10
-24.048171033
 20
2.6632940792
 10
-24.0902616153
 20
2.6733015005
 10
-24.1304749801
 20
2.6892587486
 10
-24.1679747889
 20
2.7108339522
  0
LINE
  5
363
100
AcDbEntity
  8
RACCORDO
100
AcDbLine
 62
7
  6
CONTINUOUS
 10
-3.0360843667
 20
24.2983867611
 11
-3.0086507125
 21
24.3258204153
  0
LWPOLYLINE
  5
364
100
AcDbEntity
  8
0
100
AcDbPolyline
 62
7
  6
CONTINUOUS
 90
16
 70
0
 10
20.9764390369
 20
28.2866641331
 10
21.0352379275
 20
28.3056436189
 10
21.0910322169
 20
28.3296002853
 10
21.1430314455
 20
28.3579377356
 10
21.1910103145
 20
28.3904054328
 10
21.2351941227
 20
28.4272539138
 10
21.2754683079
 20
28.4686383934
 10
21.3117166829
 20
28.5145862002
 10
21.3440554349
 20
28.5650700055
 10
21.3727185632
 20
28.6201630381
 10
21.398265425
 20
28.6803192928
 10
21.420136663
 20
28.7450847748
 10
21.4368882048
 20
28.8131707283
 10
21.4480386929
 20
28.8841475681
 10
21.4540694848
 20
28.9584448795
 10
21.4545729721
 20
29.0013378115
  0
LWPOLYLINE
  5
365
100
AcDbEntity
  8
RACCORDO
100
AcDbPolyline
 62
7
  6
CONTINUOUS
 90
12
 70
0
 10
-12.7692084511
 20
-22.3527564198
 10
-12.7408152518
 20
-22.3506350337
 10
-12.7086136113
 20
-22.3441992547
 10
-12.6775235271
 20
-22.333595023
 10
-12.6480802628
 20
-22.3190000932
 10
-12.6207973961
 20
-22.3006639575
 10
-12.5961555856
 20
-22.2789071869
 10
-12.5745387329
 20
-22.2540502404
 10
-12.5563775789
 20
-22.2265672779
 10
-12.5420702028
 20
-22.1971383142
 10
-12.531803556
 20
-22.1663755683
 10
-12.5257532904
 20
-22.1356718039
  0
LINE
  5
366
100
AcDbEntity
  8
RACCORDO
100
AcDbLine
 62
250
  6
CONTINUOUS
 10
21.7838362558
 20
-22.1028332427
 11
12.5235815819
 21
-22.1028332427
  0
LINE
  5
367
100
AcDbEntity
  8
RACCORDO
100
AcDbLine
 62
250
  6
CONTINUOUS
 10
-12.5235815819
 20
-22.1028332427
 11
-21.7838362558
 21
-22.1028332427
  0
LINE
  5
368
100
AcDbEntity
  8
ASSI
100
AcDbLine
 62
7
  6
CONTINUOUS
 10
40.8
 20
-20.0
 11
38.3407181432
 21
-20.0
  0
LINE
  5
369
100
AcDbEntity
  8
ASSI
100
AcDbLine
 62
7
  6
CONTINUOUS
 10
-38.3407181432
 20
-20.0
 11
-40.8
 21
-20.0
  0
LINE
  5
36A
100
AcDbEntity
  8
DRAFT
100
AcDbLine
 62
7
  6
CONTINUOUS
 10
-12.5
 20
-19.25
 11
-12.475
 21
-19.25
  0
LINE
  5
36B
100
AcDbEntity
  8
DRAFT
100
AcDbLine
 62
7
  6
CONTINUOUS
 10
12.475
 20
-19.25
 11
12.5
 21
-19.25
  0
LINE
  5
36C
100
AcDbEntity
  8
RACCORDO
100
AcDbLine
 62
7
  6
CONTINUOUS
 10
-21.7838362558
 20
-18.8
 11
-12.5235815819
 21
-18.8
  0
LINE
  5
36D
100
AcDbEntity
  8
RACCORDO
100
AcDbLine
 62
7
  6
CONTINUOUS
 10
12.5235815819
 20
-18.8
 11
21.7838362558
 21
-18.8
  0
LWPOLYLINE
  5
36E
100
AcDbEntity
  8
RACCORDO
100
AcDbPolyline
 62
250
  6
CONTINUOUS
 90
13
 70
0
 10
12.7735720626
 20
-22.3527951665
 10
12.7409449023
 20
-22.3506521531
 10
12.7088758937
 20
-22.3442697105
 10
12.6779136401
 20
-22.3337570229
 10
12.6485878118
 20
-22.3192939304
 10
12.6214000845
 20
-22.3011278527
 10
12.5968155579
 20
-22.2795695562
 10
12.5752547984
 20
-22.2549878378
 10
12.5570866453
 20
-22.2278032163
 10
12.5426219005
 20
-22.1984807379
 10
12.5321080118
 20
-22.1675220212
 10
12.5257248401
 20
-22.1354566759
 10
12.5235815819
 20
-22.1028332427
  0
LINE
  5
36F
100
AcDbEntity
  8
RACCORDO
100
AcDbLine
 62
7
  6
CONTINUOUS
 10
-3.0360843667
 20
-24.2983867611
 11
-3.0086507125
 21
-24.3258204153
  0
LINE
  5
370
100
AcDbEntity
  8
RACCORDO
100
AcDbLine
 62
250
  6
CONTINUOUS
 10
-12.7499714434
 20
-22.4
 11
-12.7735720626
 21
-22.3527951665
  0
LINE
  5
371
100
AcDbEntity
  8
RACCORDO
100
AcDbLine
 62
250
  6
CONTINUOUS
 10
-12.5
 20
-22.1499999985
 11
-12.5235815819
 21
-22.1028332427
  0
LWPOLYLINE
  5
372
100
AcDbEntity
  8
0
100
AcDbPolyline
 62
7
  6
CONTINUOUS
 90
11
 70
0
 10
-11.8365289695
 20
-31.1221783356
 10
-11.8249863397
 20
-31.1673413713
 10
-11.8076112567
 20
-31.2115485228
 10
-11.7846817641
 20
-31.2541728935
 10
-11.7570319921
 20
-31.2933337938
 10
-11.7244059698
 20
-31.3288770704
 10
-11.6870596682
 20
-31.3609568765
 10
-11.6465951306
 20
-31.3881549822
 10
-11.6035463715
 20
-31.4099986442
 10
-11.5573793765
 20
-31.4269606058
 10
-11.5080941456
 20
-31.439040867
  0
LWPOLYLINE
  5
373
100
AcDbEntity
  8
0
100
AcDbPolyline
 62
7
  6
CONTINUOUS
 90
31
 70
0
 10
-14.635759352
 20
-31.0916586008
 10
-14.6298263145
 20
-31.126857544
 10
-14.6215857365
 20
-31.1616201111
 10
-14.6110201843
 20
-31.1944140067
 10
-14.5978763283
 20
-31.2249677837
 10
-14.5824074981
 20
-31.2535528893
 10
-14.565356249
 20
-31.2794513691
 10
-14.546501862
 20
-31.3021151402
 10
-14.5260650562
 20
-31.3220922854
 10
-14.5054505432
 20
-31.3403090989
 10
-14.4850359356
 20
-31.3569923181
 10
-14.464443621
 20
-31.3719152054
 10
-14.443945474
 20
-31.3853238419
 10
-14.4236676063
 20
-31.397928791
 10
-14.4034839063
 20
-31.4090194892
 10
-14.383287914
 20
-31.4167103276
 10
-14.3626018663
 20
-31.4202473099
 10
-14.3419035265
 20
-31.4203844324
 10
-14.3225197241
 20
-31.4174980742
 10
-14.3046279163
 20
-31.4115211195
 10
-14.288050646
 20
-31.4025206841
 10
-14.2735823723
 20
-31.3910744949
 10
-14.2616170351
 20
-31.3769789712
 10
-14.2517606944
 20
-31.3604376936
 10
-14.2436259897
 20
-31.3426391307
 10
-14.2378152499
 20
-31.3236870391
 10
-14.2337261461
 20
-31.3034776622
 10
-14.2291643309
 20
-31.2828881983
 10
-14.2233983551
 20
-31.2622110467
 10
-14.217159668
 20
-31.2411538081
 10
-14.2104482694
 20
-31.2197164825
  0
LWPOLYLINE
  5
374
100
AcDbEntity
  8
0
100
AcDbPolyline
 62
7
  6
CONTINUOUS
 90
20
 70
0
 10
-19.9975443947
 20
28.6180586667
 10
-19.9818488962
 20
28.4402173761
 10
-19.9509379259
 20
28.2642375675
 10
-19.9050868367
 20
28.0901275434
 10
-19.8452139521
 20
27.9213412635
 10
-19.7711159893
 20
27.7580422219
 10
-19.6829962311
 20
27.6000669245
 10
-19.5823828485
 20
27.4503788483
 10
-19.4688972245
 20
27.3089808389
 10
-19.342917976
 20
27.1758700507
 10
-19.2071091253
 20
27.0540014243
 10
-19.0613523293
 20
26.9437045726
 10
-18.905765931
 20
26.8446498826
 10
-18.7433689813
 20
26.7588034556
 10
-18.5740538606
 20
26.6863992938
 10
-18.3979281885
 20
26.6272033948
 10
-18.2183338753
 20
26.5824798535
 10
-18.0363848913
 20
26.5526500346
 10
-17.8509672662
 20
26.5372925734
 10
-17.662081
 20
26.5364074697
  0
LWPOLYLINE
  5
375
100
AcDbEntity
  8
0
100
AcDbPolyline
 62
7
  6
CONTINUOUS
 90
33
 70
0
 10
-14.6425403096
 20
-30.9885537646
 10
-14.6400783109
 20
-31.0211842576
 10
-14.6357589345
 20
-31.0569313759
 10
-14.6298259577
 20
-31.0921293151
 10
-14.6215856348
 20
-31.1268906175
 10
-14.6110205564
 20
-31.1596832996
 10
-14.5978774619
 20
-31.1902359588
 10
-14.5824096119
 20
-31.2188199976
 10
-14.565359379
 20
-31.24471764
 10
-14.54650607
 20
-31.2673808948
 10
-14.5260703782
 20
-31.2873577532
 10
-14.505456756
 20
-31.3055744135
 10
-14.4850426845
 20
-31.3222575387
 10
-14.4644506826
 20
-31.3371804658
 10
-14.4439527586
 20
-31.3505894036
 10
-14.4236751257
 20
-31.3631950086
 10
-14.4034915708
 20
-31.3742866244
 10
-14.3832954634
 20
-31.381978491
 10
-14.3626089257
 20
-31.3855166935
 10
-14.3419098355
 20
-31.3856551469
 10
-14.3225251952
 20
-31.3827698355
 10
-14.3046324488
 20
-31.3767934582
 10
-14.2880541523
 20
-31.3677933162
 10
-14.2735849758
 20
-31.356347297
 10
-14.261618926
 20
-31.3422518606
 10
-14.2517619963
 20
-31.3257105471
 10
-14.2436268371
 20
-31.3079118646
 10
-14.2378158169
 20
-31.2889595822
 10
-14.2337265672
 20
-31.2687499308
 10
-14.2291646331
 20
-31.2481601115
 10
-14.2233985296
 20
-31.2274825246
 10
-14.2171597417
 20
-31.2064247697
 10
-14.2104482694
 20
-31.184986847
  0
LINE
  5
376
100
AcDbEntity
  8
0
100
AcDbLine
 62
7
  6
CONTINUOUS
 10
-17.662081
 20
26.5016778341
 11
-17.662081
 21
27.1441011206
  0
LINE
  5
377
100
AcDbEntity
  8
0
100
AcDbLine
 62
7
  6
CONTINUOUS
 10
-17.662081
 20
30.2196176096
 11
-17.662081
 21
30.8620408961
  0
LINE
  5
378
100
AcDbEntity
  8
0
100
AcDbLine
 62
7
  6
CONTINUOUS
 10
-17.120059859
 20
-28.7755897858
 11
-17.120059859
 21
-28.8103194214
  0
LINE
  5
379
100
AcDbEntity
  8
0
100
AcDbLine
 62
7
  6
CONTINUOUS
 10
-17.0749847593
 20
-31.3772423479
 11
-17.0749847593
 21
-31.4119719834
  0
LINE
  5
37A
100
AcDbEntity
  8
0
100
AcDbLine
 62
7
  6
CONTINUOUS
 10
-16.361167
 20
-28.7755897858
 11
-16.361167
 21
-28.8103194214
  0
LINE
  5
37B
100
AcDbEntity
  8
0
100
AcDbLine
 62
7
  6
CONTINUOUS
 10
-15.434784
 20
28.3609973515
 11
-15.434784
 21
28.395726987
  0
LWPOLYLINE
  5
37C
100
AcDbEntity
  8
0
100
AcDbPolyline
 62
7
  6
CONTINUOUS
 90
21
 70
0
 10
-16.1313066376
 20
28.6819110527
 10
-16.1288505106
 20
28.7803897341
 10
-16.1131550028
 20
28.9582310804
 10
-16.0822440145
 20
29.1342109425
 10
-16.0363928989
 20
29.3083210181
 10
-15.9765199805
 20
29.477107345
 10
-15.9024219769
 20
29.6404064285
 10
-15.8143021705
 20
29.7983817633
 10
-15.7136887336
 20
29.9480698706
 10
-15.6002030492
 20
30.0894679051
 10
-15.4742237342
 20
30.2225787121
 10
-15.3384148125
 20
30.3444473494
 10
-15.1926579406
 20
30.4547442038
 10
-15.037071462
 20
30.5537988885
 10
-14.8746744298
 20
30.6396453005
 10
-14.7053592219
 20
30.7120494373
 10
-14.5292334606
 20
30.7712453014
 10
-14.3496390657
 20
30.8159687965
 10
-14.1676900106
 20
30.8457985573
 10
-13.9822723221
 20
30.8611559492
 10
-13.793386
 20
30.8620409722
  0
LWPOLYLINE
  5
37D
100
AcDbEntity
  8
0
100
AcDbPolyline
 62
7
  6
CONTINUOUS
 90
3
 70
0
 10
-18.3985615595
 20
-31.1622258385
 10
-18.3978930786
 20
-31.1381955422
 10
-18.39263
 20
-31.0853660602
  0
LWPOLYLINE
  5
37E
100
AcDbEntity
  8
RACCORDO
100
AcDbPolyline
 62
250
  6
CONTINUOUS
 90
13
 70
0
 10
-12.8001909129
 20
-17.710427789
 10
-12.7675918666
 20
-17.7082769029
 10
-12.7355495254
 20
-17.7019582765
 10
-12.7046110867
 20
-17.6915798154
 10
-12.6753048964
 20
-17.677318756
 10
-12.6481314259
 20
-17.6594186391
 10
-12.6235547255
 20
-17.6381851513
 10
-12.6019944996
 20
-17.6139809038
 10
-12.583818939
 20
-17.5872192407
 10
-12.5693384333
 20
-17.5583571796
 10
-12.558800271
 20
-17.5278876073
 10
-12.5523844154
 20
-17.4963308627
 10
-12.5502004321
 20
-17.4642258507
  0
LWPOLYLINE
  5
37F
100
AcDbEntity
  8
RACCORDO
100
AcDbPolyline
 62
250
  6
CONTINUOUS
 90
12
 70
0
 10
-12.7731429886
 20
-16.7649726536
 10
-12.7412406754
 20
-16.7647127826
 10
-12.7104272986
 20
-16.7642920371
 10
-12.6812242545
 20
-16.7637175364
 10
-12.654125691
 20
-16.7629990018
 10
-12.6295901458
 20
-16.7621485917
 10
-12.6080327872
 20
-16.7611806959
 10
-12.5898183897
 20
-16.7601116923
 10
-12.575255161
 20
-16.7589596696
 10
-12.564589527
 20
-16.7577441214
 10
-12.5580019621
 20
-16.756485616
 10
-12.5556039351
 20
-16.7552054488
  0
LINE
  5
380
100
AcDbEntity
  8
RACCORDO
100
AcDbLine
 62
7
  6
CONTINUOUS
 10
-21.5364063431
 20
-18.3
 11
-12.7710114945
 21
-18.3
  0
LINE
  5
381
100
AcDbEntity
  8
RACCORDO
100
AcDbLine
 62
7
  6
CONTINUOUS
 10
12.7710114945
 20
-18.3
 11
21.5364063431
 21
-18.3
  0
LINE
  5
382
100
AcDbEntity
  8
RACCORDO
100
AcDbLine
 62
250
  6
CONTINUOUS
 10
-21.5072269247
 20
-17.710427789
 11
-12.8001909129
 21
-17.710427789
  0
LINE
  5
383
100
AcDbEntity
  8
RACCORDO
100
AcDbLine
 62
250
  6
CONTINUOUS
 10
12.8001909129
 20
-17.710427789
 11
21.5072269247
 21
-17.710427789
  0
LINE
  5
384
100
AcDbEntity
  8
RACCORDO
100
AcDbLine
 62
250
  6
CONTINUOUS
 10
-21.5018234218
 20
-16.765067253
 11
-12.7731429886
 21
-16.7649726536
  0
LINE
  5
385
100
AcDbEntity
  8
RACCORDO
100
AcDbLine
 62
250
  6
CONTINUOUS
 10
12.8055944158
 20
-16.765067253
 11
21.5342747955
 21
-16.7649726181
  0
LINE
  5
386
100
AcDbEntity
  8
DRAFT
100
AcDbLine
 62
7
  6
CONTINUOUS
 10
12.5
 20
-16.25
 11
12.475
 21
-16.25
  0
LINE
  5
387
100
AcDbEntity
  8
DRAFT
100
AcDbLine
 62
7
  6
CONTINUOUS
 10
-12.475
 20
-16.25
 11
-12.5
 21
-16.25
  0
LWPOLYLINE
  5
388
100
AcDbEntity
  8
RACCORDO
100
AcDbPolyline
 62
250
  6
CONTINUOUS
 90
13
 70
0
 10
12.8055944158
 20
-16.7650672347
 10
12.7731430133
 20
-16.7649726363
 10
12.7412407235
 20
-16.7647127664
 10
12.7104273675
 20
-16.764292022
 10
12.6812243407
 20
-16.7637175228
 10
12.6541257897
 20
-16.7629989898
 10
12.6295902512
 20
-16.7621485814
 10
12.6080328931
 20
-16.7611806874
 10
12.5898184891
 20
-16.7601116857
 10
12.5752552466
 20
-16.7589596648
 10
12.5645895914
 20
-16.7577441183
 10
12.5580019978
 20
-16.7564856146
 10
12.5556039351
 20
-16.7552054488
  0
LWPOLYLINE
  5
389
100
AcDbEntity
  8
RACCORDO
100
AcDbPolyline
 62
250
  6
CONTINUOUS
 90
13
 70
0
 10
12.8001909129
 20
-17.710427789
 10
12.7675918686
 20
-17.7082769032
 10
12.7355495289
 20
-17.7019582775
 10
12.7046110913
 20
-17.6915798174
 10
12.6753049017
 20
-17.6773187591
 10
12.6481314313
 20
-17.6594186433
 10
12.6235547306
 20
-17.6381851563
 10
12.6019945038
 20
-17.6139809093
 10
12.583818942
 20
-17.587219246
 10
12.5693384353
 20
-17.5583571842
 10
12.5588002719
 20
-17.5278876108
 10
12.5523844156
 20
-17.4963308647
 10
12.5502004321
 20
-17.4642258507
  0
LWPOLYLINE
  5
38A
100
AcDbEntity
  8
RACCORDO
100
AcDbPolyline
 62
250
  6
CONTINUOUS
 90
11
 70
0
 10
-23.7844313076
 20
-2.7507580911
 10
-23.8056439615
 20
-2.7308684408
 10
-23.8405362247
 20
-2.7052904682
 10
-23.8787449379
 20
-2.684997029
 10
-23.9194754552
 20
-2.6704101762
 10
-23.9618806837
 20
-2.6618332798
 10
-24.0050787003
 20
-2.6594447179
 10
-24.048171094
 20
-2.6632941667
 10
-24.0902616505
 20
-2.6733015672
 10
-24.1304749914
 20
-2.6892587905
 10
-24.1679747795
 20
-2.7108339661
  0
LINE
  5
38B
100
AcDbEntity
  8
RACCORDO
100
AcDbLine
 62
250
  6
CONTINUOUS
 10
-12.7710114945
 20
-18.3
 11
-12.8001909129
 21
-17.710427789
  0
LINE
  5
38C
100
AcDbEntity
  8
RACCORDO
100
AcDbLine
 62
250
  6
CONTINUOUS
 10
-12.5213808261
 20
-18.0465280279
 11
-12.5502004321
 21
-17.4642258507
  0
LWPOLYLINE
  5
38D
100
AcDbEntity
  8
RACCORDO
100
AcDbPolyline
 62
250
  6
CONTINUOUS
 90
3
 70
0
 10
-12.5502004321
 20
-17.4642258507
 10
-12.5506265742
 20
-17.4546199678
 10
-12.5510561919
 20
-17.4406196025
  0
LWPOLYLINE
  5
38E
100
AcDbEntity
  8
0
100
AcDbPolyline
 62
7
  6
CONTINUOUS
 90
13
 70
0
 10
-11.8435820582
 20
-31.0132891512
 10
-11.8425171896
 20
-31.0407028833
 10
-11.8365289696
 20
-31.0874486994
 10
-11.82498634
 20
-31.1326117348
 10
-11.8076112573
 20
-31.176818886
 10
-11.784681765
 20
-31.2194432564
 10
-11.7570319935
 20
-31.2586041566
 10
-11.7244059718
 20
-31.294147433
 10
-11.6870596709
 20
-31.3262272391
 10
-11.6465951335
 20
-31.353425345
 10
-11.6035463739
 20
-31.3752690073
 10
-11.557379378
 20
-31.3922309695
 10
-11.5080941456
 20
-31.4043112314
  0
LWPOLYLINE
  5
38F
100
AcDbEntity
  8
RACCORDO
100
AcDbPolyline
 62
250
  6
CONTINUOUS
 90
3
 70
0
 10
-12.8001909129
 20
-17.710427789
 10
-12.8006170532
 20
-17.6969180204
 10
-12.8010466571
 20
-17.6784013889
  0
LINE
  5
390
100
AcDbEntity
  8
RACCORDO
100
AcDbLine
 62
250
  6
CONTINUOUS
 10
-12.5510561919
 20
-17.4406196025
 11
-12.5519323221
 21
-17.3994215559
  0
LINE
  5
391
100
AcDbEntity
  8
RACCORDO
100
AcDbLine
 62
250
  6
CONTINUOUS
 10
-12.8010466571
 20
-17.6784013889
 11
-12.8019227181
 21
-17.6243726825
  0
LINE
  5
392
100
AcDbEntity
  8
RACCORDO
100
AcDbLine
 62
250
  6
CONTINUOUS
 10
-12.5519323221
 20
-17.3994215559
 11
-12.5528094177
 21
-17.3406733161
  0
LWPOLYLINE
  5
393
100
AcDbEntity
  8
0
100
AcDbPolyline
 62
7
  6
CONTINUOUS
 90
4
 70
0
 10
-12.8263152817
 20
-31.2175951783
 10
-12.8263689799
 20
-31.2126711867
 10
-12.8221422066
 20
-31.1573785956
 10
-12.8110318557
 20
-31.1016279041
  0
LINE
  5
394
100
AcDbEntity
  8
RACCORDO
100
AcDbLine
 62
250
  6
CONTINUOUS
 10
-12.8019227181
 20
-17.6243726825
 11
-12.803213115
 21
-17.497548794
  0
LINE
  5
395
100
AcDbEntity
  8
RACCORDO
100
AcDbLine
 62
250
  6
CONTINUOUS
 10
-12.5528094177
 20
-17.3406733161
 11
-12.5539861846
 21
-17.2199459799
  0
LINE
  5
396
100
AcDbEntity
  8
RACCORDO
100
AcDbLine
 62
250
  6
CONTINUOUS
 10
-12.803213115
 20
-17.497548794
 11
-12.8046075885
 21
-17.254563094
  0
LINE
  5
397
100
AcDbEntity
  8
RACCORDO
100
AcDbLine
 62
250
  6
CONTINUOUS
 10
-12.5539861846
 20
-17.2199459799
 11
-12.5550944234
 21
-17.0169082306
  0
LINE
  5
398
100
AcDbEntity
  8
RACCORDO
100
AcDbLine
 62
250
  6
CONTINUOUS
 10
-12.8046075885
 20
-17.254563094
 11
-12.8055037486
 21
-16.8996148293
  0
LINE
  5
399
100
AcDbEntity
  8
RACCORDO
100
AcDbLine
 62
250
  6
CONTINUOUS
 10
-12.5550944234
 20
-17.0169082306
 11
-12.5556039351
 21
-16.7552054488
  0
LINE
  5
39A
100
AcDbEntity
  8
RACCORDO
100
AcDbLine
 62
250
  6
CONTINUOUS
 10
-12.8055037486
 20
-16.8996148293
 11
-12.8055944158
 21
-16.765067253
  0
LINE
  5
39B
100
AcDbEntity
  8
RACCORDO
100
AcDbLine
 62
250
  6
CONTINUOUS
 10
-12.8055944158
 20
-16.765067253
 11
-12.8075890366
 21
-9.3155973372
  0
LINE
  5
39C
100
AcDbEntity
  8
RACCORDO
100
AcDbLine
 62
250
  6
CONTINUOUS
 10
-12.5556039351
 20
-16.7552054488
 11
-12.5575985543
 21
-9.3097551008
  0
LINE
  5
39D
100
AcDbEntity
  8
0
100
AcDbLine
 62
7
  6
CONTINUOUS
 10
-14.494748855
 20
-28.7755897858
 11
-14.494748855
 21
-28.8103194214
  0
LINE
  5
39E
100
AcDbEntity
  8
0
100
AcDbLine
 62
7
  6
CONTINUOUS
 10
-14.476813
 20
-30.4168102649
 11
-14.476813
 21
-30.4515399004
  0
LINE
  5
39F
100
AcDbEntity
  8
0
100
AcDbLine
 62
7
  6
CONTINUOUS
 10
-14.14628
 20
28.3609973515
 11
-14.14628
 21
29.0027213787
  0
LINE
  5
3A0
100
AcDbEntity
  8
0
100
AcDbLine
 62
7
  6
CONTINUOUS
 10
-13.964844
 20
-30.2012367064
 11
-13.964844
 21
-30.235966342
  0
LINE
  5
3A1
100
AcDbEntity
  8
0
100
AcDbLine
 62
7
  6
CONTINUOUS
 10
-13.793386
 20
26.501677758
 11
-13.793386
 21
27.1441039561
  0
LINE
  5
3A2
100
AcDbEntity
  8
0
100
AcDbLine
 62
7
  6
CONTINUOUS
 10
-13.793386
 20
30.2196176096
 11
-13.793386
 21
30.8620409722
  0
LINE
  5
3A3
100
AcDbEntity
  8
0
100
AcDbLine
 62
250
  6
CONTINUOUS
 10
-13.315991
 20
-28.7755897858
 11
-13.315991
 21
-28.8103194214
  0
LINE
  5
3A4
100
AcDbEntity
  8
RACCORDO
100
AcDbLine
 62
250
  6
CONTINUOUS
 10
-12.8075890366
 20
-9.3155973372
 11
-12.8084438741
 21
-1.8632627068
  0
LINE
  5
3A5
100
AcDbEntity
  8
RACCORDO
100
AcDbLine
 62
250
  6
CONTINUOUS
 10
-12.7735720626
 20
-22.3527951665
 11
-12.7735720626
 21
-18.8
  0
LINE
  5
3A6
100
AcDbEntity
  8
RACCORDO
100
AcDbLine
 62
250
  6
CONTINUOUS
 10
-12.7735720626
 20
18.8
 11
-12.7735720626
 21
22.3527951665
  0
LINE
  5
3A7
100
AcDbEntity
  8
0
100
AcDbLine
 62
7
  6
CONTINUOUS
 10
-12.658387
 20
-30.5314625862
 11
-12.658387
 21
-30.5661922217
  0
LINE
  5
3A8
100
AcDbEntity
  8
RACCORDO
100
AcDbLine
 62
250
  6
CONTINUOUS
 10
-12.5575985543
 20
-9.3097551008
 11
-12.5584533908
 21
-1.8622685937
  0
LINE
  5
3A9
100
AcDbEntity
  8
RACCORDO
100
AcDbLine
 62
7
  6
CONTINUOUS
 10
-12.5235815819
 20
-22.1028332427
 11
-12.5235815819
 21
-18.8
  0
LINE
  5
3AA
100
AcDbEntity
  8
RACCORDO
100
AcDbLine
 62
7
  6
CONTINUOUS
 10
-12.5235815819
 20
18.8
 11
-12.5235815819
 21
22.1028332427
  0
LINE
  5
3AB
100
AcDbEntity
  8
RACCORDO
100
AcDbLine
 62
7
  6
CONTINUOUS
 10
-12.5213808261
 20
18.8
 11
-12.5213808261
 21
18.0465280279
  0
LINE
  5
3AC
100
AcDbEntity
  8
RACCORDO
100
AcDbLine
 62
7
  6
CONTINUOUS
 10
-12.5213808261
 20
-18.0465280279
 11
-12.5213808261
 21
-18.8
  0
LINE
  5
3AD
100
AcDbEntity
  8
RACCORDO
100
AcDbLine
 62
7
  6
CONTINUOUS
 10
-12.5
 20
22.5
 11
-12.5
 21
19.25
  0
LINE
  5
3AE
100
AcDbEntity
  8
DRAFT
100
AcDbLine
 62
7
  6
CONTINUOUS
 10
-12.5
 20
19.25
 11
-12.5
 21
-19.25
  0
LINE
  5
3AF
100
AcDbEntity
  8
RACCORDO
100
AcDbLine
 62
7
  6
CONTINUOUS
 10
-12.5
 20
-19.25
 11
-12.5
 21
-22.5
  0
LINE
  5
3B0
100
AcDbEntity
  8
0
100
AcDbLine
 62
7
  6
CONTINUOUS
 10
-12.475
 20
-19.25
 11
-12.475
 21
-16.25
  0
LINE
  5
3B1
100
AcDbEntity
  8
0
100
AcDbLine
 62
7
  6
CONTINUOUS
 10
-12.475
 20
-8.35
 11
-12.475
 21
-5.35
  0
LINE
  5
3B2
100
AcDbEntity
  8
0
100
AcDbLine
 62
7
  6
CONTINUOUS
 10
-12.475
 20
5.35
 11
-12.475
 21
8.35
  0
LINE
  5
3B3
100
AcDbEntity
  8
0
100
AcDbLine
 62
7
  6
CONTINUOUS
 10
-12.475
 20
16.25
 11
-12.475
 21
19.25
  0
LINE
  5
3B4
100
AcDbEntity
  8
0
100
AcDbLine
 62
250
  6
CONTINUOUS
 10
-12.2995603903
 20
-29.1911518166
 11
-12.2995603903
 21
-29.2258814521
  0
LINE
  5
3B5
100
AcDbEntity
  8
0
100
AcDbLine
 62
250
  6
CONTINUOUS
 10
-11.745905
 20
-28.7755897858
 11
-11.745905
 21
-28.8103194214
  0
LINE
  5
3B6
100
AcDbEntity
  8
0
100
AcDbLine
 62
7
  6
CONTINUOUS
 10
-11.5080941456
 20
-31.4043112314
 11
-11.5080941456
 21
-31.439040867
  0
LINE
  5
3B7
100
AcDbEntity
  8
0
100
AcDbLine
 62
7
  6
CONTINUOUS
 10
-11.098581
 20
-29.8746768457
 11
-11.098581
 21
-29.9094064812
  0
LINE
  5
3B8
100
AcDbEntity
  8
RACCORDO
100
AcDbLine
 62
250
  6
CONTINUOUS
 10
-12.8084438741
 20
-1.8632627068
 11
-12.8081589283
 21
5.5896448828
  0
LINE
  5
3B9
100
AcDbEntity
  8
RACCORDO
100
AcDbLine
 62
250
  6
CONTINUOUS
 10
-12.5584533908
 20
-1.8622685937
 11
-12.5581684448
 21
5.5863809181
  0
LINE
  5
3BA
100
AcDbEntity
  8
RACCORDO
100
AcDbLine
 62
250
  6
CONTINUOUS
 10
-12.8081589283
 20
5.5896448828
 11
-12.8067341992
 21
13.0408335962
  0
LINE
  5
3BB
100
AcDbEntity
  8
RACCORDO
100
AcDbLine
 62
250
  6
CONTINUOUS
 10
-12.5581684448
 20
5.5863809181
 11
-12.5567437171
 21
13.0327008162
  0
LINE
  5
3BC
100
AcDbEntity
  8
RACCORDO
100
AcDbLine
 62
250
  6
CONTINUOUS
 10
-12.8067341992
 20
13.0408335962
 11
-12.8050943691
 21
17.1103843142
  0
LINE
  5
3BD
100
AcDbEntity
  8
RACCORDO
100
AcDbLine
 62
250
  6
CONTINUOUS
 10
-12.5567437171
 20
13.0327008162
 11
-12.5552783285
 21
16.9600230644
  0
LINE
  5
3BE
100
AcDbEntity
  8
RACCORDO
100
AcDbLine
 62
250
  6
CONTINUOUS
 10
-12.8050943691
 20
17.1103843142
 11
-12.8039962377
 21
17.3812905204
  0
LINE
  5
3BF
100
AcDbEntity
  8
RACCORDO
100
AcDbLine
 62
250
  6
CONTINUOUS
 10
-12.5552783285
 20
16.9600230644
 11
-12.5543349497
 21
17.1699424258
  0
LINE
  5
3C0
100
AcDbEntity
  8
RACCORDO
100
AcDbLine
 62
250
  6
CONTINUOUS
 10
-12.5543349497
 20
17.1699424258
 11
-12.5532442718
 21
17.302386328
  0
LINE
  5
3C1
100
AcDbEntity
  8
RACCORDO
100
AcDbLine
 62
250
  6
CONTINUOUS
 10
-12.8039962377
 20
17.3812905204
 11
-12.8023898669
 21
17.586113936
  0
LINE
  5
3C2
100
AcDbEntity
  8
RACCORDO
100
AcDbLine
 62
250
  6
CONTINUOUS
 10
-12.5532442718
 20
17.302386328
 11
-12.5523989938
 21
17.370850661
  0
LWPOLYLINE
  5
3C3
100
AcDbEntity
  8
RACCORDO
100
AcDbPolyline
 62
250
  6
CONTINUOUS
 90
5
 70
0
 10
-12.8023898669
 20
17.586113936
 10
-12.8014951774
 20
17.6534801231
 10
-12.8010579627
 20
17.6778498971
 10
-12.8006232078
 20
17.6966888606
 10
-12.8001909129
 20
17.710427789
  0
LWPOLYLINE
  5
3C4
100
AcDbEntity
  8
RACCORDO
100
AcDbPolyline
 62
250
  6
CONTINUOUS
 90
5
 70
0
 10
-12.5523989938
 20
17.370850661
 10
-12.5515044099
 20
17.4215296925
 10
-12.5510672725
 20
17.4401916395
 10
-12.5506326133
 20
17.4544236922
 10
-12.5502004321
 20
17.4642258507
  0
LWPOLYLINE
  5
3C5
100
AcDbEntity
  8
0
100
AcDbPolyline
 62
7
  6
CONTINUOUS
 90
4
 70
0
 10
-12.7918095734
 20
-29.2842789752
 10
-12.7926370779
 20
-29.3138889372
 10
-12.7982971856
 20
-29.3641852451
 10
-12.809203
 20
-29.4144585856
  0
LINE
  5
3C6
100
AcDbEntity
  8
0
100
AcDbLine
 62
7
  6
CONTINUOUS
 10
-11.842951
 20
-30.9923742864
 11
-11.8435820582
 21
-31.0132891512
  0
LINE
  5
3C7
100
AcDbEntity
  8
RACCORDO
100
AcDbLine
 62
250
  6
CONTINUOUS
 10
-12.8001909129
 20
17.710427789
 11
-12.7710114945
 21
18.3
  0
LINE
  5
3C8
100
AcDbEntity
  8
RACCORDO
100
AcDbLine
 62
250
  6
CONTINUOUS
 10
-12.5502004321
 20
17.4642258507
 11
-12.5213808261
 21
18.0465280279
  0
LINE
  5
3C9
100
AcDbEntity
  8
RACCORDO
100
AcDbLine
 62
250
  6
CONTINUOUS
 10
-12.5257532904
 20
-22.1356718039
 11
-12.5235815819
 21
-22.1028332427
  0
LINE
  5
3CA
100
AcDbEntity
  8
0
100
AcDbLine
 62
7
  6
CONTINUOUS
 10
-19.375444
 20
-29.2254820923
 11
-20.042745
 21
-31.684068675
  0
LINE
  5
3CB
100
AcDbEntity
  8
0
100
AcDbLine
 62
7
  6
CONTINUOUS
 10
-18.966055
 20
-27.7630857553
 11
-19.201616
 21
-28.6309818216
  0
LWPOLYLINE
  5
3CC
100
AcDbEntity
  8
0
100
AcDbPolyline
 62
7
  6
CONTINUOUS
 90
3
 70
0
 43
0.3500000006
 10
0.6117136967
 20
45.7357156219
 10
0.5402851692
 20
45.5214266052
 10
0.3974280081
 20
45.2357154694
  0
LWPOLYLINE
  5
3CD
100
AcDbEntity
  8
RACCORDO
100
AcDbPolyline
 62
250
  6
CONTINUOUS
 90
5
 70
0
 10
-23.7
 20
-2.9593849864
 10
-23.7004099597
 20
-2.9597761424
 10
-23.7016545035
 20
-2.960580398
 10
-23.7037552314
 20
-2.9617977533
 10
-23.7067027744
 20
-2.9633873986
  0
LWPOLYLINE
  5
3CE
100
AcDbEntity
  8
RACCORDO
100
AcDbPolyline
 62
7
  6
CONTINUOUS
 90
10
 70
0
 10
-23.8592885806
 20
2.689148971
 10
-23.891962493
 20
2.6743278487
 10
-23.9266568288
 20
2.6632940231
 10
-23.9619212547
 20
2.6565270092
 10
-23.9978055745
 20
2.6542166033
 10
-24.0342599843
 20
2.6561730092
 10
-24.0696847382
 20
2.6623063538
 10
-24.1035465877
 20
2.6725866794
 10
-24.1363787813
 20
2.6870439438
 10
-24.1681813191
 20
2.7056781469
  0
LINE
  5
3CF
100
AcDbEntity
  8
RACCORDO
100
AcDbLine
 62
7
  6
CONTINUOUS
 10
39.8386624453
 20
-5.518138829
 11
39.9475922207
 21
-5.5
  0
LINE
  5
3D0
100
AcDbEntity
  8
ASSI
100
AcDbLine
 62
7
  6
CONTINUOUS
 10
40.8
 20
-14.0
 11
38.3407181432
 21
-14.0
  0
LINE
  5
3D1
100
AcDbEntity
  8
ASSI
100
AcDbLine
 62
7
  6
CONTINUOUS
 10
-38.3407181432
 20
-14.0
 11
-40.8
 21
-14.0
  0
LINE
  5
3D2
100
AcDbEntity
  8
RACCORDO
100
AcDbLine
 62
7
  6
CONTINUOUS
 10
-39.8386624453
 20
-5.518138829
 11
-39.9475922207
 21
-5.5
  0
LINE
  5
3D3
100
AcDbEntity
  8
0
100
AcDbLine
 62
7
  6
CONTINUOUS
 10
-10.3610019518
 20
-28.7755897858
 11
-10.3610019518
 21
-28.8103194214
  0
LINE
  5
3D4
100
AcDbEntity
  8
DRAFT
100
AcDbLine
 62
7
  6
CONTINUOUS
 10
-8.1
 20
23.25
 11
-8.1
 21
22.5
  0
LINE
  5
3D5
100
AcDbEntity
  8
DRAFT
100
AcDbLine
 62
7
  6
CONTINUOUS
 10
-8.1
 20
-22.5
 11
-8.1
 21
-23.25
  0
LINE
  5
3D6
100
AcDbEntity
  8
0
100
AcDbLine
 62
7
  6
CONTINUOUS
 10
-18.149695
 20
-28.1880510719
 11
-17.917751
 21
-27.3216766945
  0
LINE
  5
3D7
100
AcDbEntity
  8
0
100
AcDbLine
 62
7
  6
CONTINUOUS
 10
-19.085646
 20
-31.684068675
 11
-18.306991
 21
-28.7755897858
  0
LINE
  5
3D8
100
AcDbEntity
  8
0
100
AcDbLine
 62
7
  6
CONTINUOUS
 10
-17.8568848222
 20
-29.0842194337
 11
-18.39263
 21
-31.0853660602
  0
LINE
  5
3D9
100
AcDbEntity
  8
0
100
AcDbLine
 62
7
  6
CONTINUOUS
 10
-17.473061
 20
-31.0601898198
 11
-16.981874906
 21
-29.2254817412
  0
LINE
  5
3DA
100
AcDbEntity
  8
0
100
AcDbLine
 62
7
  6
CONTINUOUS
 10
-16.460137
 20
-29.0806268172
 11
-17.0749847593
 21
-31.3772423479
  0
LINE
  5
3DB
100
AcDbEntity
  8
0
100
AcDbLine
 62
7
  6
CONTINUOUS
 10
-16.220604
 20
-31.684068675
 11
-15.052708
 21
-27.3216766945
  0
LINE
  5
3DC
100
AcDbEntity
  8
0
100
AcDbLine
 62
7
  6
CONTINUOUS
 10
-16.074773
 20
-27.7520362963
 11
-16.361167
 21
-28.7755897858
  0
LINE
  5
3DD
100
AcDbEntity
  8
RACCORDO
100
AcDbLine
 62
250
  6
CONTINUOUS
 10
-21.8
 20
-22.1351631934
 11
-21.7838362558
 21
-22.1028332427
  0
LINE
  5
3DE
100
AcDbEntity
  8
RACCORDO
100
AcDbLine
 62
250
  6
CONTINUOUS
 10
-21.5500285566
 20
-22.3851631948
 11
-21.533845775
 21
-22.3527951665
  0
LWPOLYLINE
  5
3DF
100
AcDbEntity
  8
RACCORDO
100
AcDbPolyline
 62
7
  6
CONTINUOUS
 90
18
 70
0
 10
-24.1681813191
 20
-2.7056781469
 10
-24.1363787813
 20
-2.6870439438
 10
-24.1035465877
 20
-2.6725866794
 10
-24.0696847382
 20
-2.6623063538
 10
-24.0342599843
 20
-2.6561730092
 10
-23.9978055745
 20
-2.6542166033
 10
-23.9619212547
 20
-2.6565270092
 10
-23.9266568288
 20
-2.6632940231
 10
-23.891962493
 20
-2.6743278487
 10
-23.8592885806
 20
-2.689148971
 10
-23.8287219466
 20
-2.7079071093
 10
-23.8001757362
 20
-2.7304525442
 10
-23.7748397181
 20
-2.7558566029
 10
-23.7528370445
 20
-2.7842666771
 10
-23.7340445631
 20
-2.8155353749
 10
-23.7192825867
 20
-2.8482918479
 10
-23.7088245528
 20
-2.8820791467
 10
-23.7023970239
 20
-2.9173542206
  0
LINE
  5
3E0
100
AcDbEntity
  8
RACCORDO
100
AcDbLine
 62
250
  6
CONTINUOUS
 10
-24.4208954613
 20
-2.8710991613
 11
-24.6424145221
 21
-2.9940595799
  0
LINE
  5
3E1
100
AcDbEntity
  8
RACCORDO
100
AcDbLine
 62
250
  6
CONTINUOUS
 10
-24.6424145221
 20
-2.9940595799
 11
-24.8445701199
 21
-3.1055422223
  0
LINE
  5
3E2
100
AcDbEntity
  8
ASSI
100
AcDbLine
 62
7
  6
CONTINUOUS
 10
-28.5060518757
 20
-4.9162693169
 11
-24.5060518757
 21
-2.7162693169
  0
LINE
  5
3E3
100
AcDbEntity
  8
DRAFT
100
AcDbLine
 62
7
  6
CONTINUOUS
 10
-28.4337640632
 20
-5.0477017032
 11
-24.4337640632
 21
-2.8477017032
  0
LINE
  5
3E4
100
AcDbEntity
  8
RACCORDO
100
AcDbLine
 62
7
  6
CONTINUOUS
 10
-24.8445701199
 20
-3.1055422223
 11
-28.4202950011
 21
-5.072190907
  0
LINE
  5
3E5
100
AcDbEntity
  8
RACCORDO
100
AcDbLine
 62
250
  6
CONTINUOUS
 10
-24.7
 20
-3.3683969859
 11
-28.2757248812
 21
-5.3350456705
  0
LWPOLYLINE
  5
3E6
100
AcDbEntity
  8
RACCORDO
100
AcDbPolyline
 62
250
  6
CONTINUOUS
 90
3
 70
0
 10
-23.7067027744
 20
-2.9633873986
 10
-23.715401423
 20
-2.9679284169
 10
-23.7214576727
 20
-2.971010863
  0
LWPOLYLINE
  5
3E7
100
AcDbEntity
  8
RACCORDO
100
AcDbPolyline
 62
250
  6
CONTINUOUS
 90
3
 70
0
 10
-23.7214576727
 20
-2.971010863
 10
-23.7373634472
 20
-2.9788788354
 10
-23.7473607106
 20
-2.9837589744
  0
LWPOLYLINE
  5
3E8
100
AcDbEntity
  8
RACCORDO
100
AcDbPolyline
 62
250
  6
CONTINUOUS
 90
3
 70
0
 10
-23.7473607106
 20
-2.9837589744
 10
-23.7719418803
 20
-2.9955174651
 10
-23.7867472647
 20
-3.0025031112
  0
LWPOLYLINE
  5
3E9
100
AcDbEntity
  8
RACCORDO
100
AcDbPolyline
 62
250
  6
CONTINUOUS
 90
11
 70
0
 10
-23.7867472647
 20
-3.0025031112
 10
-23.8219158993
 20
-3.018763586
 10
-23.8425296335
 20
-3.028138286
 10
-23.8652918936
 20
-3.0383338373
 10
-23.8903576073
 20
-3.0493973682
 10
-23.9178229453
 20
-3.0613500123
 10
-23.9477748543
 20
-3.0741706359
 10
-23.980365222
 20
-3.0878429662
 10
-24.0156971095
 20
-3.1023615791
 10
-24.0538099169
 20
-3.1177318986
 10
-24.0947504876
 20
-3.1339539249
  0
LINE
  5
3EA
100
AcDbEntity
  8
0
100
AcDbLine
 62
7
  6
CONTINUOUS
 10
-27.0901949367
 20
0.35
 11
-26.5197234842
 21
0.5197234842
  0
LINE
  5
3EB
100
AcDbEntity
  8
DRAFT
100
AcDbLine
 62
7
  6
CONTINUOUS
 10
-12.5
 20
-8.35
 11
-12.475
 21
-8.35
  0
LINE
  5
3EC
100
AcDbEntity
  8
DRAFT
100
AcDbLine
 62
7
  6
CONTINUOUS
 10
12.475
 20
-8.35
 11
12.5
 21
-8.35
  0
LINE
  5
3ED
100
AcDbEntity
  8
RACCORDO
100
AcDbLine
 62
7
  6
CONTINUOUS
 10
33.5
 20
-7.75
 11
23.7
 21
-7.75
  0
LINE
  5
3EE
100
AcDbEntity
  8
RACCORDO
100
AcDbLine
 62
7
  6
CONTINUOUS
 10
-23.7
 20
-7.75
 11
-33.5
 21
-7.75
  0
LINE
  5
3EF
100
AcDbEntity
  8
0
100
AcDbLine
 62
7
  6
CONTINUOUS
 10
-26.5197234842
 20
-0.5197234842
 11
-27.0901949367
 21
-0.35
  0
LINE
  5
3F0
100
AcDbEntity
  8
RACCORDO
100
AcDbLine
 62
250
  6
CONTINUOUS
 10
-23.8000031213
 20
3.0086707218
 11
-23.7654000835
 21
2.9924269987
  0
LWPOLYLINE
  5
3F1
100
AcDbEntity
  8
RACCORDO
100
AcDbPolyline
 62
250
  6
CONTINUOUS
 90
5
 70
0
 10
-23.7654000835
 20
2.9924269987
 10
-23.7393769407
 20
2.9798572859
 10
-23.7292406622
 20
2.9749035059
 10
-23.7208782828
 20
2.97070313
 10
-23.7089921988
 20
2.9645976353
  0
LWPOLYLINE
  5
3F2
100
AcDbEntity
  8
RACCORDO
100
AcDbPolyline
 62
250
  6
CONTINUOUS
 90
5
 70
0
 10
-23.7089921988
 20
2.9645976353
 10
-23.7050113804
 20
2.9624893116
 10
-23.7021958868
 20
2.960886815
 10
-23.7005410704
 20
2.95985204
 10
-23.7
 20
2.9593849864
  0
LINE
  5
3F3
100
AcDbEntity
  8
ASSI
100
AcDbLine
 62
7
  6
CONTINUOUS
 10
-24.5060518757
 20
2.7162693169
 11
-28.5060518757
 21
4.9162693169
  0
LINE
  5
3F4
100
AcDbEntity
  8
DRAFT
100
AcDbLine
 62
7
  6
CONTINUOUS
 10
-24.4337640632
 20
2.8477017032
 11
-28.4337640632
 21
5.0477017032
  0
LINE
  5
3F5
100
AcDbEntity
  8
RACCORDO
100
AcDbLine
 62
7
  6
CONTINUOUS
 10
-28.4202950011
 20
5.072190907
 11
-24.8445701199
 21
3.1055422223
  0
LINE
  5
3F6
100
AcDbEntity
  8
RACCORDO
100
AcDbLine
 62
250
  6
CONTINUOUS
 10
-28.2757248812
 20
5.3350456705
 11
-24.7
 21
3.3683969859
  0
LINE
  5
3F7
100
AcDbEntity
  8
RACCORDO
100
AcDbLine
 62
250
  6
CONTINUOUS
 10
-24.8445701199
 20
3.1055422223
 11
-24.5956759615
 21
2.96819404
  0
LINE
  5
3F8
100
AcDbEntity
  8
RACCORDO
100
AcDbLine
 62
250
  6
CONTINUOUS
 10
-24.5956759615
 20
2.96819404
 11
-24.4208954613
 21
2.8710991613
  0
LWPOLYLINE
  5
3F9
100
AcDbEntity
  8
RACCORDO
100
AcDbPolyline
 62
250
  6
CONTINUOUS
 90
22
 70
0
 10
-24.4208954613
 20
2.8710991613
 10
-24.391552305
 20
2.8545005955
 10
-24.3644137677
 20
2.8387673606
 10
-24.3394487337
 20
2.8239591851
 10
-24.3166950286
 20
2.8101696463
 10
-24.2960565432
 20
2.7974108711
 10
-24.2773063626
 20
2.7856086644
 10
-24.2604355634
 20
2.7748083961
 10
-24.2454108521
 20
2.7650346015
 10
-24.2319764039
 20
2.7561678525
 10
-24.2201241181
 20
2.7482354638
 10
-24.2098344412
 20
2.7412528371
 10
-24.2008409563
 20
2.7350718366
 10
-24.1931260755
 20
2.7296988131
 10
-24.1866914125
 20
2.7251507415
 10
-24.1813040562
 20
2.7212881849
 10
-24.1769715257
 20
2.7181281328
 10
-24.1736781837
 20
2.7156647672
 10
-24.1711594281
 20
2.7137200568
 10
-24.1693263915
 20
2.7122354908
 10
-24.1682651198
 20
2.7112731543
 10
-24.1679747889
 20
2.7108339522
  0
LINE
  5
3FA
100
AcDbEntity
  8
RACCORDO
100
AcDbLine
 62
250
  6
CONTINUOUS
 10
-21.7838362558
 20
22.1028332427
 11
-21.8
 21
22.1351631934
  0
LINE
  5
3FB
100
AcDbEntity
  8
RACCORDO
100
AcDbLine
 62
250
  6
CONTINUOUS
 10
-21.533845775
 20
22.3527951665
 11
-21.5500285566
 21
22.3851631948
  0
LWPOLYLINE
  5
3FC
100
AcDbEntity
  8
0
100
AcDbPolyline
 62
7
  6
CONTINUOUS
 90
19
 70
0
 10
-15.434784
 20
28.3609973515
 10
-15.4041580565
 20
28.2443899751
 10
-15.3646993797
 20
28.1314262279
 10
-15.3164079697
 20
28.0221061099
 10
-15.2589218754
 20
27.9157172473
 10
-15.1926030479
 20
27.8129720139
 10
-15.1185373402
 20
27.7160075306
 10
-15.0365590561
 20
27.6249748122
 10
-14.9468338918
 20
27.5397228438
 10
-14.8509447885
 20
27.4619357021
 10
-14.7487394137
 20
27.3917413639
 10
-14.6403700998
 20
27.3290118524
 10
-14.5278767854
 20
27.2750473142
 10
-14.4110878483
 20
27.2300522748
 10
-14.2901749107
 20
27.1938222088
 10
-14.1676927766
 20
27.1670436868
 10
-14.0444930475
 20
27.1499455658
 10
-13.919724122
 20
27.1422989889
 10
-13.793386
 20
27.1441039561
  0
LINE
  5
3FD
100
AcDbEntity
  8
RACCORDO
100
AcDbLine
 62
7
  6
CONTINUOUS
 10
-6.2487709124
 20
-24.0487404508
 11
-6.2483867611
 21
-24.2983867611
  0
LINE
  5
3FE
100
AcDbEntity
  8
DRAFT
100
AcDbLine
 62
7
  6
CONTINUOUS
 10
-4.2
 20
-24.2983867611
 11
-4.2
 21
-23.3
  0
LINE
  5
3FF
100
AcDbEntity
  8
DRAFT
100
AcDbLine
 62
7
  6
CONTINUOUS
 10
-4.2
 20
23.3
 11
-4.2
 21
24.2983867611
  0
LINE
  5
400
100
AcDbEntity
  8
RACCORDO
100
AcDbLine
 62
7
  6
CONTINUOUS
 10
-6.2483867611
 20
24.2983867611
 11
-6.2487709124
 21
24.0487404508
  0
LINE
  5
401
100
AcDbEntity
  8
0
100
AcDbLine
 62
7
  6
CONTINUOUS
 10
-15.025153376
 20
-29.0408296087
 11
-15.603546
 21
-31.2012753023
  0
LINE
  5
402
100
AcDbEntity
  8
0
100
AcDbLine
 62
7
  6
CONTINUOUS
 10
-14.476813
 20
-30.4168102649
 11
-14.1736589784
 21
-29.2844515769
  0
LINE
  5
403
100
AcDbEntity
  8
0
100
AcDbLine
 62
7
  6
CONTINUOUS
 10
-13.667068
 20
-29.088964586
 11
-13.964844
 21
-30.2012367064
  0
LINE
  5
404
100
AcDbEntity
  8
0
100
AcDbLine
 62
7
  6
CONTINUOUS
 10
-13.3239524427
 20
-31.3371818078
 11
-13.165401
 21
-30.7449500053
  0
LINE
  5
405
100
AcDbEntity
  8
0
100
AcDbLine
 62
7
  6
CONTINUOUS
 10
-13.016228
 20
-30.1877509935
 11
-12.809203
 21
-29.4144585856
  0
LINE
  5
406
100
AcDbEntity
  8
0
100
AcDbLine
 62
7
  6
CONTINUOUS
 10
-12.2985020782
 20
-29.1871987593
 11
-12.509215
 21
-29.9742635744
  0
LINE
  5
407
100
AcDbEntity
  8
0
100
AcDbLine
 62
7
  6
CONTINUOUS
 10
-12.658387
 20
-30.5314625862
 11
-12.8110318557
 21
-31.1016279041
  0
LINE
  5
408
100
AcDbEntity
  8
0
100
AcDbLine
 62
7
  6
CONTINUOUS
 10
-12.2995603903
 20
-29.2258814521
 11
-12.5005390264
 21
-29.9765863053
  0
LINE
  5
409
100
AcDbEntity
  8
0
100
AcDbLine
 62
7
  6
CONTINUOUS
 10
-12.658387
 20
-30.5661922217
 11
-12.8110318557
 21
-31.1363575397
  0
LINE
  5
40A
100
AcDbEntity
  8
0
100
AcDbLine
 62
7
  6
CONTINUOUS
 10
-11.842951
 20
-30.9923742864
 11
-11.704358
 21
-30.4746955419
  0
LWPOLYLINE
  5
40B
100
AcDbEntity
  8
0
100
AcDbPolyline
 62
7
  6
CONTINUOUS
 90
7
 70
0
 10
11.1025409435
 20
29.0899223775
 10
11.127228381
 20
29.1289014101
 10
11.1479616724
 20
29.1715194775
 10
11.1641411402
 20
29.2164241569
 10
11.1755668918
 20
29.2631646405
 10
11.1824388198
 20
29.3121917361
 10
11.183191203
 20
29.3288465397
  0
LINE
  5
40C
100
AcDbEntity
  8
RACCORDO
100
AcDbLine
 62
250
  6
CONTINUOUS
 10
-24.0947504876
 20
-3.1339539249
 11
-24.2907795392
 21
-3.2102365631
  0
LINE
  5
40D
100
AcDbEntity
  8
RACCORDO
100
AcDbLine
 62
250
  6
CONTINUOUS
 10
-24.2907795392
 20
-3.2102365631
 11
-24.7
 21
-3.3683969859
  0
LINE
  5
40E
100
AcDbEntity
  8
0
100
AcDbLine
 62
7
  6
CONTINUOUS
 10
-24.9098050633
 20
-0.35
 11
-25.4802765158
 21
-0.5197234842
  0
LINE
  5
40F
100
AcDbEntity
  8
RACCORDO
100
AcDbLine
 62
250
  6
CONTINUOUS
 10
29.9337873626
 20
-5.4554977548
 11
29.8809775562
 21
-5.4561529199
  0
LINE
  5
410
100
AcDbEntity
  8
RACCORDO
100
AcDbLine
 62
250
  6
CONTINUOUS
 10
-30.0662126374
 20
-5.4554977548
 11
-30.1190224438
 21
-5.4561529199
  0
LINE
  5
411
100
AcDbEntity
  8
RACCORDO
100
AcDbLine
 62
250
  6
CONTINUOUS
 10
29.986688537
 20
-5.4552165885
 11
29.9337873626
 21
-5.4554977548
  0
LINE
  5
412
100
AcDbEntity
  8
RACCORDO
100
AcDbLine
 62
250
  6
CONTINUOUS
 10
-30.013311463
 20
-5.4552165885
 11
-30.0662126374
 21
-5.4554977548
  0
LINE
  5
413
100
AcDbEntity
  8
RACCORDO
100
AcDbLine
 62
7
  6
CONTINUOUS
 10
38.3407181432
 20
-5.5305440373
 11
38.1720625996
 21
-5.5305440373
  0
LINE
  5
414
100
AcDbEntity
  8
RACCORDO
100
AcDbLine
 62
7
  6
CONTINUOUS
 10
-38.1720625996
 20
-5.5305440373
 11
-38.3407181432
 21
-5.5305440373
  0
LINE
  5
415
100
AcDbEntity
  8
DRAFT
100
AcDbLine
 62
7
  6
CONTINUOUS
 10
-39.9475922207
 20
-5.5
 11
-38.5
 21
-5.5
  0
LINE
  5
416
100
AcDbEntity
  8
DRAFT
100
AcDbLine
 62
7
  6
CONTINUOUS
 10
38.5
 20
-5.5
 11
39.9475922207
 21
-5.5
  0
LINE
  5
417
100
AcDbEntity
  8
DRAFT
100
AcDbLine
 62
7
  6
CONTINUOUS
 10
12.5
 20
-5.35
 11
12.475
 21
-5.35
  0
LINE
  5
418
100
AcDbEntity
  8
DRAFT
100
AcDbLine
 62
7
  6
CONTINUOUS
 10
-12.475
 20
-5.35
 11
-12.5
 21
-5.35
  0
LINE
  5
419
100
AcDbEntity
  8
RACCORDO
100
AcDbLine
 62
7
  6
CONTINUOUS
 10
-29.8556627779
 20
-5.5000000051
 11
-30.1443378838
 21
-5.499999996
  0
LINE
  5
41A
100
AcDbEntity
  8
RACCORDO
100
AcDbLine
 62
7
  6
CONTINUOUS
 10
30.1443372221
 20
-5.5000000051
 11
29.8556621162
 21
-5.499999996
  0
LINE
  5
41B
100
AcDbEntity
  8
RACCORDO
100
AcDbLine
 62
250
  6
CONTINUOUS
 10
-29.9603462973
 20
-5.4553097554
 11
-30.013311463
 21
-5.4552165885
  0
LINE
  5
41C
100
AcDbEntity
  8
RACCORDO
100
AcDbLine
 62
250
  6
CONTINUOUS
 10
30.0396537027
 20
-5.4553097554
 11
29.986688537
 21
-5.4552165885
  0
LWPOLYLINE
  5
41D
100
AcDbEntity
  8
RACCORDO
100
AcDbPolyline
 62
250
  6
CONTINUOUS
 90
3
 70
0
 10
-29.8809770448
 20
-5.4561538057
 10
-29.9074266463
 20
-5.4557785936
 10
-29.9603462973
 20
-5.4553097554
  0
LWPOLYLINE
  5
41E
100
AcDbEntity
  8
RACCORDO
100
AcDbPolyline
 62
250
  6
CONTINUOUS
 90
3
 70
0
 10
30.1190229552
 20
-5.4561538057
 10
30.0925733537
 20
-5.4557785936
 10
30.0396537027
 20
-5.4553097554
  0
LINE
  5
41F
100
AcDbEntity
  8
0
100
AcDbLine
 62
7
  6
CONTINUOUS
 10
-25.4802765158
 20
0.5197234842
 11
-24.9098050633
 21
0.35
  0
LINE
  5
420
100
AcDbEntity
  8
RACCORDO
100
AcDbLine
 62
250
  6
CONTINUOUS
 10
-24.7
 20
3.3683969859
 11
-24.1525350141
 21
3.156671664
  0
LWPOLYLINE
  5
421
100
AcDbEntity
  8
RACCORDO
100
AcDbPolyline
 62
250
  6
CONTINUOUS
 90
10
 70
0
 10
-24.1525350141
 20
3.156671664
 10
-24.0489174583
 20
3.1157543252
 10
-24.0065874262
 20
3.0986210088
 10
-23.9677001103
 20
3.0825539757
 10
-23.9322049315
 20
3.0675485223
 10
-23.8999575186
 20
3.0536093521
 10
-23.8707447728
 20
3.0407505759
 10
-23.8444423753
 20
3.0289997427
 10
-23.8209267851
 20
3.0183293035
 10
-23.8000031213
 20
3.0086707218
  0
LINE
  5
422
100
AcDbEntity
  8
DRAFT
100
AcDbLine
 62
7
  6
CONTINUOUS
 10
-3.038702779
 20
26.0
 11
-3.0360843667
 21
24.2983867611
  0
LINE
  5
423
100
AcDbEntity
  8
RACCORDO
100
AcDbLine
 62
7
  6
CONTINUOUS
 10
-3.0086507125
 20
-25.9892190318
 11
-3.0086507125
 21
-24.3258204153
  0
LINE
  5
424
100
AcDbEntity
  8
RACCORDO
100
AcDbLine
 62
7
  6
CONTINUOUS
 10
-3.0086507125
 20
24.3258204153
 11
-3.0086507125
 21
25.9892190318
  0
LWPOLYLINE
  5
425
100
AcDbEntity
  8
0
100
AcDbPolyline
 62
7
  6
CONTINUOUS
 90
4
 70
0
 43
0.3500000006
 10
-2.3571427875
 20
55.8785674438
 10
-2.3571427875
 20
56.735714447
 10
-1.9285714102
 20
57.1642834167
 10
-1.2857142735
 20
57.1642834167
  0
LWPOLYLINE
  5
426
100
AcDbEntity
  8
0
100
AcDbPolyline
 62
7
  6
CONTINUOUS
 90
4
 70
0
 43
0.3500000006
 10
-2.3571427875
 20
65.8785704956
 10
-2.3571427875
 20
66.7357174988
 10
-1.9285714102
 20
67.1642864685
 10
-1.2857142735
 20
67.1642864685
  0
LINE
  5
427
100
AcDbEntity
  8
RACCORDO
100
AcDbLine
 62
250
  6
CONTINUOUS
 10
-2.2
 20
-32.1
 11
-2.2000000037
 21
-31.8
  0
LINE
  5
428
100
AcDbEntity
  8
RACCORDO
100
AcDbLine
 62
250
  6
CONTINUOUS
 10
-2.2
 20
26.385611488
 11
-2.1999999949
 21
26.7376945183
  0
LINE
  5
429
100
AcDbEntity
  8
RACCORDO
100
AcDbLine
 62
250
  6
CONTINUOUS
 10
-2.2
 20
33.521179691
 11
-2.2
 21
33.25
  0
LINE
  5
42A
100
AcDbEntity
  8
RACCORDO
100
AcDbLine
 62
250
  6
CONTINUOUS
 10
-2.2
 20
32.1
 11
-2.2
 21
31.8
  0
LINE
  5
42B
100
AcDbEntity
  8
RACCORDO
100
AcDbLine
 62
250
  6
CONTINUOUS
 10
-2.2
 20
-26.385611488
 11
-2.2
 21
-26.7376945183
  0
LINE
  5
42C
100
AcDbEntity
  8
RACCORDO
100
AcDbLine
 62
250
  6
CONTINUOUS
 10
-2.2
 20
-27.9
 11
-2.2
 21
-28.2
  0
LINE
  5
42D
100
AcDbEntity
  8
RACCORDO
100
AcDbLine
 62
250
  6
CONTINUOUS
 10
-2.2
 20
27.9
 11
-2.2000000037
 21
28.2
  0
LINE
  5
42E
100
AcDbEntity
  8
RACCORDO
100
AcDbLine
 62
250
  6
CONTINUOUS
 10
-2.2
 20
-33.521179691
 11
-2.2
 21
-33.25
  0
LINE
  5
42F
100
AcDbEntity
  8
RACCORDO
100
AcDbLine
 62
250
  6
CONTINUOUS
 10
-2.0086887894
 20
-25.9546029997
 11
-2.0086887894
 21
-24.3344711278
  0
LINE
  5
430
100
AcDbEntity
  8
RACCORDO
100
AcDbLine
 62
250
  6
CONTINUOUS
 10
-2.0086887894
 20
24.3344711278
 11
-2.0086887894
 21
25.9546029997
  0
LINE
  5
431
100
AcDbEntity
  8
DRAFT
100
AcDbLine
 62
7
  6
CONTINUOUS
 10
-1.6
 20
-24.3344711278
 11
-1.6
 21
-23.3
  0
LINE
  5
432
100
AcDbEntity
  8
DRAFT
100
AcDbLine
 62
7
  6
CONTINUOUS
 10
-1.6
 20
23.3
 11
-1.6
 21
24.3344711278
  0
LWPOLYLINE
  5
433
100
AcDbEntity
  8
0
100
AcDbPolyline
 62
7
  6
CONTINUOUS
 90
13
 70
0
 43
0.3500000006
 10
-0.0
 20
56.3071454773
 10
-0.0
 20
57.5928614502
 10
0.2142857063
 20
58.0214304199
 10
0.6428571367
 20
58.4499993896
 10
0.8571428254
 20
58.4499993896
 10
1.2857142735
 20
58.0214304199
 10
1.5000000329
 20
57.5928614502
 10
1.5000000329
 20
56.3071454773
 10
1.2857142735
 20
55.8785674438
 10
0.8571428254
 20
55.4499984741
 10
0.6428571367
 20
55.4499984741
 10
0.2142857063
 20
55.8785674438
 10
-0.0
 20
56.3071454773
  0
LINE
  5
434
100
AcDbEntity
  8
DRAFT
100
AcDbLine
 62
7
  6
CONTINUOUS
 10
-3.0360843667
 20
-24.2983867611
 11
-3.038702779
 21
-26.0
  0
LINE
  5
435
100
AcDbEntity
  8
0
100
AcDbLine
 62
7
  6
CONTINUOUS
 10
-10.884495902
 20
-29.0750129806
 11
-11.098581
 21
-29.8746768457
  0
LINE
  5
436
100
AcDbEntity
  8
0
100
AcDbLine
 62
7
  6
CONTINUOUS
 10
-11.202663
 20
-30.263447498
 11
-11.5080941456
 21
-31.4043112314
  0
LINE
  5
437
100
AcDbEntity
  8
0
100
AcDbLine
 62
7
  6
CONTINUOUS
 10
-10.59758
 20
-31.684068675
 11
-9.957255
 21
-29.2922899554
  0
LINE
  5
438
100
AcDbEntity
  8
0
100
AcDbLine
 62
7
  6
CONTINUOUS
 10
11.918569
 20
29.7772096171
 11
11.316847
 21
28.2254555205
  0
LWPOLYLINE
  5
439
100
AcDbEntity
  8
0
100
AcDbPolyline
 62
7
  6
CONTINUOUS
 90
10
 70
0
 10
-13.3239524427
 20
-31.3371818078
 10
-13.3470800733
 20
-31.3920098738
 10
-13.3753486098
 20
-31.4431213029
 10
-13.4087580522
 20
-31.4905160951
 10
-13.447772798
 20
-31.5346670949
 10
-13.4919284497
 20
-31.5751014577
 10
-13.5398318149
 20
-31.6104006504
 10
-13.5910184964
 20
-31.6400918287
 10
-13.6459528914
 20
-31.6646478369
 10
-13.704635
 20
-31.684068675
  0
LWPOLYLINE
  5
43A
100
AcDbEntity
  8
0
100
AcDbPolyline
 62
7
  6
CONTINUOUS
 90
16
 70
0
 10
-17.8568848222
 20
-29.0842194337
 10
-17.8333850152
 20
-29.0404623704
 10
-17.805993861
 20
-28.9999898721
 10
-17.7747113594
 20
-28.9628019387
 10
-17.7396324789
 20
-28.9288082672
 10
-17.700662251
 20
-28.8980991607
 10
-17.6575157708
 20
-28.8709455284
 10
-17.6097241572
 20
-28.8474004861
 10
-17.5577562913
 20
-28.827410918
 10
-17.5027339106
 20
-28.8110883856
 10
-17.4446842029
 20
-28.7990180121
 10
-17.3835799804
 20
-28.7906146743
 10
-17.3204614174
 20
-28.7842345637
 10
-17.2556752385
 20
-28.7793297439
 10
-17.188874719
 20
-28.7764481513
 10
-17.120059859
 20
-28.7755897858
  0
LWPOLYLINE
  5
43B
100
AcDbEntity
  8
0
100
AcDbPolyline
 62
7
  6
CONTINUOUS
 90
16
 70
0
 10
-17.8568848222
 20
-29.1189490693
 10
-17.8333860464
 20
-29.0751936155
 10
-17.8059960717
 20
-29.0347223965
 10
-17.7747148981
 20
-28.9975354121
 10
-17.7396376282
 20
-28.9635423544
 10
-17.7006691593
 20
-28.9328335313
 10
-17.6575241839
 20
-28.9056798673
 10
-17.6097337706
 20
-28.8821343821
 10
-17.5577668508
 20
-28.862144056
 10
-17.5027449108
 20
-28.8458207539
 10
-17.4446951485
 20
-28.833749644
 10
-17.3835903661
 20
-28.8253455582
 10
-17.3204704566
 20
-28.818964857
 10
-17.2556820511
 20
-28.8140596606
 10
-17.1888785186
 20
-28.8111778487
 10
-17.120059859
 20
-28.8103194214
  0
LWPOLYLINE
  5
43C
100
AcDbEntity
  8
0
100
AcDbPolyline
 62
7
  6
CONTINUOUS
 90
7
 70
0
 10
16.6755689735
 20
29.0899223775
 10
16.700256411
 20
29.1289014101
 10
16.7209897024
 20
29.1715194775
 10
16.7371691702
 20
29.2164241569
 10
16.7485949218
 20
29.2631646405
 10
16.7554668498
 20
29.3121917361
 10
16.756219233
 20
29.3288465397
  0
LINE
  5
43D
100
AcDbEntity
  8
0
100
AcDbLine
 62
7
  6
CONTINUOUS
 10
43.0
 20
-3.25
 11
41.3711307144
 21
-3.25
  0
LINE
  5
43E
100
AcDbEntity
  8
DRAFT
100
AcDbLine
 62
7
  6
CONTINUOUS
 10
41.3711307144
 20
-3.25
 11
39.9475922207
 21
-3.25
  0
LINE
  5
43F
100
AcDbEntity
  8
DRAFT
100
AcDbLine
 62
7
  6
CONTINUOUS
 10
-39.9475922207
 20
-3.25
 11
-41.3711307144
 21
-3.25
  0
LINE
  5
440
100
AcDbEntity
  8
0
100
AcDbLine
 62
7
  6
CONTINUOUS
 10
-41.3711307144
 20
-3.25
 11
-43.0
 21
-3.25
  0
LINE
  5
441
100
AcDbEntity
  8
RACCORDO
100
AcDbLine
 62
250
  6
CONTINUOUS
 10
-33.25
 20
-2.2
 11
-33.5779374004
 21
-2.2
  0
LINE
  5
442
100
AcDbEntity
  8
RACCORDO
100
AcDbLine
 62
250
  6
CONTINUOUS
 10
33.5779374004
 20
-2.2
 11
33.25
 21
-2.2
  0
LINE
  5
443
100
AcDbEntity
  8
0
100
AcDbLine
 62
7
  6
CONTINUOUS
 10
-26.35
 20
-1.4917020703
 11
-25.65
 21
-1.4917020703
  0
LINE
  5
444
100
AcDbEntity
  8
0
100
AcDbLine
 62
7
  6
CONTINUOUS
 10
25.65
 20
-1.4917020703
 11
26.35
 21
-1.4917020703
  0
LINE
  5
445
100
AcDbEntity
  8
0
100
AcDbLine
 62
7
  6
CONTINUOUS
 10
26.35
 20
-1.1426949447
 11
26.0726172387
 21
-1.1426949447
  0
LINE
  5
446
100
AcDbEntity
  8
0
100
AcDbLine
 62
7
  6
CONTINUOUS
 10
25.9273827613
 20
-1.1426949447
 11
25.65
 21
-1.1426949447
  0
LINE
  5
447
100
AcDbEntity
  8
0
100
AcDbLine
 62
7
  6
CONTINUOUS
 10
-25.65
 20
-1.1426949447
 11
-25.9273827613
 21
-1.1426949447
  0
LINE
  5
448
100
AcDbEntity
  8
0
100
AcDbLine
 62
7
  6
CONTINUOUS
 10
-26.0726172387
 20
-1.1426949447
 11
-26.35
 21
-1.1426949447
  0
LINE
  5
449
100
AcDbEntity
  8
0
100
AcDbLine
 62
7
  6
CONTINUOUS
 10
27.9476429476
 20
-0.35
 11
27.0901949367
 21
-0.35
  0
LINE
  5
44A
100
AcDbEntity
  8
0
100
AcDbLine
 62
7
  6
CONTINUOUS
 10
24.9098050633
 20
-0.35
 11
24.0523570524
 21
-0.35
  0
LINE
  5
44B
100
AcDbEntity
  8
0
100
AcDbLine
 62
7
  6
CONTINUOUS
 10
-24.0523570524
 20
-0.35
 11
-24.9098050633
 21
-0.35
  0
LINE
  5
44C
100
AcDbEntity
  8
0
100
AcDbLine
 62
7
  6
CONTINUOUS
 10
-27.0901949367
 20
-0.35
 11
-27.9476429476
 21
-0.35
  0
LINE
  5
44D
100
AcDbEntity
  8
0
100
AcDbLine
 62
7
  6
CONTINUOUS
 10
27.9476429476
 20
0.35
 11
27.0901949367
 21
0.35
  0
LINE
  5
44E
100
AcDbEntity
  8
0
100
AcDbLine
 62
7
  6
CONTINUOUS
 10
24.9098050633
 20
0.35
 11
24.0523570524
 21
0.35
  0
LINE
  5
44F
100
AcDbEntity
  8
0
100
AcDbLine
 62
7
  6
CONTINUOUS
 10
-24.0523570524
 20
0.35
 11
-24.9098050633
 21
0.35
  0
LINE
  5
450
100
AcDbEntity
  8
0
100
AcDbLine
 62
7
  6
CONTINUOUS
 10
-27.0901949367
 20
0.35
 11
-27.9476429476
 21
0.35
  0
LWPOLYLINE
  5
451
100
AcDbEntity
  8
0
100
AcDbPolyline
 62
7
  6
CONTINUOUS
 90
30
 70
0
 10
-27.7069820069
 20
12.0675760452
 10
-27.7689665506
 20
12.0937320843
 10
-27.8243172523
 20
12.1245642236
 10
-27.873034112
 20
12.1600724631
 10
-27.9153588318
 20
12.2009696724
 10
-27.9510497097
 20
12.246542982
 10
-27.9793816396
 20
12.2946537829
 10
-27.9995484844
 20
12.3452675891
 10
-28.0123563812
 20
12.3984188866
 10
-28.0194986362
 20
12.4520725242
 10
-28.0215671841
 20
12.5059293079
 10
-28.0179700901
 20
12.5602884316
 10
-28.0086248553
 20
12.6140123269
 10
-27.9937124227
 20
12.6672949053
 10
-27.9730518493
 20
12.7199422552
 10
-27.9460178071
 20
12.7702350737
 10
-27.9120695654
 20
12.8183845682
 10
-27.871747855
 20
12.8641795313
 10
-27.8260495407
 20
12.905267038
 10
-27.7745888243
 20
12.9414299706
 10
-27.717751504
 20
12.9728854469
 10
-27.6576918393
 20
12.9979318948
 10
-27.5943277258
 20
13.0157496119
 10
-27.5277412679
 20
13.0271583006
 10
-27.4603330381
 20
13.0329154959
 10
-27.3920698732
 20
13.033623612
 10
-27.3229849364
 20
13.0286802346
 10
-27.2555782905
 20
13.0170356564
 10
-27.1895633205
 20
12.998304022
 10
-27.1252266413
 20
12.9728711867
  0
LWPOLYLINE
  5
452
100
AcDbEntity
  8
0
100
AcDbPolyline
 62
7
  6
CONTINUOUS
 90
24
 70
0
 10
-27.7114493278
 20
10.9507176177
 10
-27.7749290252
 20
10.9801014789
 10
-27.8337817223
 20
11.0151112591
 10
-27.8877576925
 20
11.0561515881
 10
-27.9371066624
 20
11.1028178362
 10
-27.980323765
 20
11.1530395609
 10
-28.0170107858
 20
11.2067941139
 10
-28.0475659395
 20
11.2641041436
 10
-28.071679003
 20
11.3229671525
 10
-28.0889050763
 20
11.3832888143
 10
-28.0996890596
 20
11.4451634553
 10
-28.1050554303
 20
11.5068715576
 10
-28.105616742
 20
11.5683005938
 10
-28.1007604412
 20
11.6295630912
 10
-28.0896733451
 20
11.6892771142
 10
-28.0723288076
 20
11.7478523621
 10
-28.0487534748
 20
11.8048791354
 10
-28.0182141024
 20
11.8577464005
 10
-27.9797360737
 20
11.9061320423
 10
-27.9342940055
 20
11.9503581758
 10
-27.8840785041
 20
11.9887801117
 10
-27.8298197715
 20
12.0208496204
 10
-27.7707876058
 20
12.0471149315
 10
-27.7069820069
 20
12.0675760452
  0
LWPOLYLINE
  5
453
100
AcDbEntity
  8
0
100
AcDbPolyline
 62
7
  6
CONTINUOUS
 90
20
 70
0
 10
-27.1252266413
 20
12.9728711867
 10
-27.0659281603
 20
12.9408450086
 10
-27.0121829335
 20
12.9011915324
 10
-26.9634759048
 20
12.8549447135
 10
-26.9216218139
 20
12.8053142755
 10
-26.8873376698
 20
12.7523850464
 10
-26.8599064634
 20
12.6960721982
 10
-26.8389919064
 20
12.6393309715
 10
-26.8244668039
 20
12.5827544498
 10
-26.8164583508
 20
12.5257495495
 10
-26.8150118428
 20
12.4694922603
 10
-26.8197697449
 20
12.4138171546
 10
-26.8310895922
 20
12.3588896601
 10
-26.8500892853
 20
12.3063820502
 10
-26.8773548658
 20
12.256034063
 10
-26.9123002922
 20
12.2081059605
 10
-26.9542853412
 20
12.1650508015
 10
-27.0030966052
 20
12.1276862725
 10
-27.0589474917
 20
12.095194687
 10
-27.1218380009
 20
12.0675760452
  0
LINE
  5
454
100
AcDbEntity
  8
0
100
AcDbLine
 62
7
  6
CONTINUOUS
 10
8.179376
 20
-27.9481838332
 11
9.206832
 21
-31.0518394431
  0
LINE
  5
455
100
AcDbEntity
  8
0
100
AcDbLine
 62
7
  6
CONTINUOUS
 10
9.526864
 20
-30.0852130225
 11
8.819408
 21
-27.9481838332
  0
LINE
  5
456
100
AcDbEntity
  8
DRAFT
100
AcDbLine
 62
7
  6
CONTINUOUS
 10
3.038702779
 20
-26.0
 11
3.0360843667
 21
-24.2983867611
  0
LINE
  5
457
100
AcDbEntity
  8
DRAFT
100
AcDbLine
 62
7
  6
CONTINUOUS
 10
1.6
 20
24.3344711278
 11
1.6
 21
23.3
  0
LINE
  5
458
100
AcDbEntity
  8
DRAFT
100
AcDbLine
 62
7
  6
CONTINUOUS
 10
1.6
 20
-23.3
 11
1.6
 21
-24.3344711278
  0
LINE
  5
459
100
AcDbEntity
  8
RACCORDO
100
AcDbLine
 62
250
  6
CONTINUOUS
 10
2.0086887894
 20
25.9546029997
 11
2.0086887894
 21
24.3344711278
  0
LINE
  5
45A
100
AcDbEntity
  8
RACCORDO
100
AcDbLine
 62
250
  6
CONTINUOUS
 10
2.0086887894
 20
-24.3344711278
 11
2.0086887894
 21
-25.9546029997
  0
LINE
  5
45B
100
AcDbEntity
  8
RACCORDO
100
AcDbLine
 62
250
  6
CONTINUOUS
 10
2.2
 20
-27.9
 11
2.2000000037
 21
-28.2
  0
LINE
  5
45C
100
AcDbEntity
  8
RACCORDO
100
AcDbLine
 62
250
  6
CONTINUOUS
 10
2.2
 20
33.521179691
 11
2.2
 21
33.25
  0
LINE
  5
45D
100
AcDbEntity
  8
RACCORDO
100
AcDbLine
 62
250
  6
CONTINUOUS
 10
2.2
 20
-33.521179691
 11
2.2
 21
-33.25
  0
LINE
  5
45E
100
AcDbEntity
  8
RACCORDO
100
AcDbLine
 62
250
  6
CONTINUOUS
 10
2.2
 20
-32.1
 11
2.2
 21
-31.8
  0
LINE
  5
45F
100
AcDbEntity
  8
RACCORDO
100
AcDbLine
 62
250
  6
CONTINUOUS
 10
2.2
 20
26.385611488
 11
2.2
 21
26.7376945183
  0
LINE
  5
460
100
AcDbEntity
  8
RACCORDO
100
AcDbLine
 62
250
  6
CONTINUOUS
 10
2.2
 20
27.9
 11
2.2
 21
28.2
  0
LINE
  5
461
100
AcDbEntity
  8
RACCORDO
100
AcDbLine
 62
250
  6
CONTINUOUS
 10
2.2
 20
32.1
 11
2.2000000037
 21
31.8
  0
LINE
  5
462
100
AcDbEntity
  8
RACCORDO
100
AcDbLine
 62
250
  6
CONTINUOUS
 10
2.2
 20
-26.385611488
 11
2.1999999949
 21
-26.7376945183
  0
LWPOLYLINE
  5
463
100
AcDbEntity
  8
0
100
AcDbPolyline
 62
7
  6
CONTINUOUS
 90
2
 70
0
 43
0.3500000006
 10
2.6117136698
 20
45.4499999542
 10
2.6117136698
 20
46.950000412
  0
LINE
  5
464
100
AcDbEntity
  8
RACCORDO
100
AcDbLine
 62
7
  6
CONTINUOUS
 10
3.0086507125
 20
25.9892190318
 11
3.0086507125
 21
24.3258204153
  0
LINE
  5
465
100
AcDbEntity
  8
RACCORDO
100
AcDbLine
 62
7
  6
CONTINUOUS
 10
3.0086507125
 20
-24.3258204153
 11
3.0086507125
 21
-25.9892190318
  0
LINE
  5
466
100
AcDbEntity
  8
DRAFT
100
AcDbLine
 62
7
  6
CONTINUOUS
 10
4.2
 20
24.2983867611
 11
4.2
 21
23.3
  0
LINE
  5
467
100
AcDbEntity
  8
DRAFT
100
AcDbLine
 62
7
  6
CONTINUOUS
 10
4.2
 20
-23.3
 11
4.2
 21
-24.2983867611
  0
LINE
  5
468
100
AcDbEntity
  8
DRAFT
100
AcDbLine
 62
7
  6
CONTINUOUS
 10
3.0360843667
 20
24.2983867611
 11
3.038702779
 21
26.0
  0
LINE
  5
469
100
AcDbEntity
  8
0
100
AcDbLine
 62
7
  6
CONTINUOUS
 10
11.539698
 20
28.260185156
 11
11.706835
 21
28.7119279293
  0
LINE
  5
46A
100
AcDbEntity
  8
0
100
AcDbLine
 62
7
  6
CONTINUOUS
 10
11.539698
 20
28.2254555205
 11
11.706835
 21
28.6771982937
  0
LINE
  5
46B
100
AcDbEntity
  8
0
100
AcDbLine
 62
7
  6
CONTINUOUS
 10
11.773665
 20
28.8977950953
 11
12.032168
 21
29.5868708988
  0
LINE
  5
46C
100
AcDbEntity
  8
0
100
AcDbLine
 62
7
  6
CONTINUOUS
 10
11.773665
 20
28.8630654597
 11
12.032168
 21
29.5521412633
  0
LWPOLYLINE
  5
46D
100
AcDbEntity
  8
0
100
AcDbPolyline
 62
7
  6
CONTINUOUS
 90
5
 70
0
 10
-14.6043628905
 20
-30.8564648276
 10
-14.6205235003
 20
-30.8862934852
 10
-14.6323129358
 20
-30.9175551163
 10
-14.639731197
 20
-30.9502497209
 10
-14.6425403096
 20
-30.9885537646
  0
LWPOLYLINE
  5
46E
100
AcDbEntity
  8
0
100
AcDbPolyline
 62
7
  6
CONTINUOUS
 90
13
 70
0
 10
-15.025153376
 20
-29.0408296087
 10
-15.0045258408
 20
-29.0046620937
 10
-14.978867038
 20
-28.9710423454
 10
-14.9481769677
 20
-28.9399703639
 10
-14.9119847978
 20
-28.9113207642
 10
-14.8707613604
 20
-28.8852189312
 10
-14.8259191519
 20
-28.8620410202
 10
-14.7775196652
 20
-28.8422656917
 10
-14.7255014073
 20
-28.8254142852
 10
-14.6710923956
 20
-28.810426974
 10
-14.6147019692
 20
-28.7969504826
 10
-14.555920789
 20
-28.7853380866
 10
-14.494748855
 20
-28.7755897858
  0
LWPOLYLINE
  5
46F
100
AcDbEntity
  8
0
100
AcDbPolyline
 62
7
  6
CONTINUOUS
 90
13
 70
0
 10
-15.025153376
 20
-29.0755592442
 10
-15.0045268081
 20
-29.0393929035
 10
-14.9788689639
 20
-29.0057740303
 10
-14.9481798437
 20
-28.9747026246
 10
-14.91198874
 20
-28.9460532481
 10
-14.8707663601
 20
-28.9199513391
 10
-14.8259248259
 20
-28.8967732125
 10
-14.7775255395
 20
-28.8769975323
 10
-14.7255070986
 20
-28.8601456346
 10
-14.6710974182
 20
-28.8451578423
 10
-14.6147058033
 20
-28.8316809299
 10
-14.5559229489
 20
-28.8200681229
 10
-14.494748855
 20
-28.8103194214
  0
LINE
  5
470
100
AcDbEntity
  8
0
100
AcDbLine
 62
7
  6
CONTINUOUS
 10
26.35
 20
1.1426949447
 11
26.0726172387
 21
1.1426949447
  0
LINE
  5
471
100
AcDbEntity
  8
0
100
AcDbLine
 62
7
  6
CONTINUOUS
 10
25.9273827613
 20
1.1426949447
 11
25.65
 21
1.1426949447
  0
LINE
  5
472
100
AcDbEntity
  8
0
100
AcDbLine
 62
7
  6
CONTINUOUS
 10
-25.65
 20
1.1426949447
 11
-25.9273827613
 21
1.1426949447
  0
LINE
  5
473
100
AcDbEntity
  8
0
100
AcDbLine
 62
7
  6
CONTINUOUS
 10
-26.0726172387
 20
1.1426949447
 11
-26.35
 21
1.1426949447
  0
LINE
  5
474
100
AcDbEntity
  8
0
100
AcDbLine
 62
7
  6
CONTINUOUS
 10
-26.35
 20
1.4917020703
 11
-25.65
 21
1.4917020703
  0
LINE
  5
475
100
AcDbEntity
  8
0
100
AcDbLine
 62
7
  6
CONTINUOUS
 10
25.65
 20
1.4917020703
 11
26.35
 21
1.4917020703
  0
LINE
  5
476
100
AcDbEntity
  8
RACCORDO
100
AcDbLine
 62
250
  6
CONTINUOUS
 10
33.25
 20
2.2
 11
33.5779374004
 21
2.2
  0
LINE
  5
477
100
AcDbEntity
  8
RACCORDO
100
AcDbLine
 62
250
  6
CONTINUOUS
 10
-33.25
 20
2.2
 11
-33.5779374004
 21
2.2
  0
LINE
  5
478
100
AcDbEntity
  8
0
100
AcDbLine
 62
7
  6
CONTINUOUS
 10
43.0
 20
3.25
 11
41.3711307144
 21
3.25
  0
LINE
  5
479
100
AcDbEntity
  8
DRAFT
100
AcDbLine
 62
7
  6
CONTINUOUS
 10
41.3711307144
 20
3.25
 11
39.9475922207
 21
3.25
  0
LINE
  5
47A
100
AcDbEntity
  8
DRAFT
100
AcDbLine
 62
7
  6
CONTINUOUS
 10
-39.9475922207
 20
3.25
 11
-41.3711307144
 21
3.25
  0
LINE
  5
47B
100
AcDbEntity
  8
0
100
AcDbLine
 62
7
  6
CONTINUOUS
 10
-41.3711307144
 20
3.25
 11
-43.0
 21
3.25
  0
LWPOLYLINE
  5
47C
100
AcDbEntity
  8
0
100
AcDbPolyline
 62
7
  6
CONTINUOUS
 90
32
 70
0
 10
-27.1218380009
 20
12.0675760452
 10
-27.0552452346
 20
12.0416118787
 10
-26.994361262
 20
12.0103118643
 10
-26.9391860833
 20
11.9736760019
 10
-26.889203702
 20
11.9310936629
 10
-26.8449301146
 20
11.8831754759
 10
-26.80791331
 20
11.831753327
 10
-26.7789945354
 20
11.7766625643
 10
-26.7573325438
 20
11.7180678396
 10
-26.7419515828
 20
11.6582949942
 10
-26.7327090634
 20
11.5976644753
 10
-26.7297475747
 20
11.5358558358
 10
-26.7325191322
 20
11.4742335755
 10
-26.7405513654
 20
11.4126814936
 10
-26.7543166448
 20
11.3513157909
 10
-26.7746840978
 20
11.2918495694
 10
-26.8021664359
 20
11.2341962934
 10
-26.8362509477
 20
11.1784424985
 10
-26.8762686258
 20
11.1265608935
 10
-26.9225433487
 20
11.0785244296
 10
-26.9747512379
 20
11.0343601555
 10
-27.0312516513
 20
10.9961219254
 10
-27.0922777384
 20
10.964360421
 10
-27.1575963496
 20
10.9385249607
 10
-27.2248673944
 20
10.9190173529
 10
-27.2940226174
 20
10.9062620522
 10
-27.365130274
 20
10.8998346041
 10
-27.4360550405
 20
10.8988634532
 10
-27.5068151638
 20
10.9027160228
 10
-27.5773923971
 20
10.9120248896
 10
-27.645596676
 20
10.9278162291
 10
-27.7114493278
 20
10.9507176177
  0
LINE
  5
47D
100
AcDbEntity
  8
0
100
AcDbLine
 62
7
  6
CONTINUOUS
 10
20.458352
 20
-29.8517826537
 11
21.099736
 21
-31.0518239256
  0
LINE
  5
47E
100
AcDbEntity
  8
RACCORDO
100
AcDbLine
 62
7
  6
CONTINUOUS
 10
6.2487709124
 20
24.0487404508
 11
6.2483867611
 21
24.2983867611
  0
LINE
  5
47F
100
AcDbEntity
  8
RACCORDO
100
AcDbLine
 62
7
  6
CONTINUOUS
 10
6.2483867611
 20
-24.2983867611
 11
6.2487709124
 21
-24.0487404508
  0
LWPOLYLINE
  5
480
100
AcDbEntity
  8
RACCORDO
100
AcDbPolyline
 62
250
  6
CONTINUOUS
 90
3
 70
0
 10
23.7214576727
 20
2.971010863
 10
23.7373634472
 20
2.9788788354
 10
23.7473607106
 20
2.9837589744
  0
LWPOLYLINE
  5
481
100
AcDbEntity
  8
RACCORDO
100
AcDbPolyline
 62
250
  6
CONTINUOUS
 90
3
 70
0
 10
23.7473607106
 20
2.9837589744
 10
23.7719418803
 20
2.9955174651
 10
23.7867472647
 20
3.0025031112
  0
LWPOLYLINE
  5
482
100
AcDbEntity
  8
RACCORDO
100
AcDbPolyline
 62
250
  6
CONTINUOUS
 90
11
 70
0
 10
23.7867472647
 20
3.0025031112
 10
23.8219158993
 20
3.018763586
 10
23.8425296335
 20
3.028138286
 10
23.8652918936
 20
3.0383338373
 10
23.8903576073
 20
3.0493973682
 10
23.9178229453
 20
3.0613500123
 10
23.9477748543
 20
3.0741706359
 10
23.980365222
 20
3.0878429662
 10
24.0156971095
 20
3.1023615791
 10
24.0538099169
 20
3.1177318986
 10
24.0947504876
 20
3.1339539249
  0
LINE
  5
483
100
AcDbEntity
  8
RACCORDO
100
AcDbLine
 62
250
  6
CONTINUOUS
 10
24.0947504876
 20
3.1339539249
 11
24.4112446973
 21
3.2569290448
  0
LINE
  5
484
100
AcDbEntity
  8
RACCORDO
100
AcDbLine
 62
250
  6
CONTINUOUS
 10
24.4112446973
 20
3.2569290448
 11
24.7
 21
3.3683969859
  0
LINE
  5
485
100
AcDbEntity
  8
0
100
AcDbLine
 62
7
  6
CONTINUOUS
 10
24.9098050633
 20
0.35
 11
25.4802765158
 21
0.5197234842
  0
LINE
  5
486
100
AcDbEntity
  8
RACCORDO
100
AcDbLine
 62
250
  6
CONTINUOUS
 10
30.0662126374
 20
5.4554977548
 11
30.1190224438
 21
5.4561529199
  0
LINE
  5
487
100
AcDbEntity
  8
RACCORDO
100
AcDbLine
 62
250
  6
CONTINUOUS
 10
-29.9337873626
 20
5.4554977548
 11
-29.8809775562
 21
5.4561529199
  0
LINE
  5
488
100
AcDbEntity
  8
RACCORDO
100
AcDbLine
 62
250
  6
CONTINUOUS
 10
30.013311463
 20
5.4552165885
 11
30.0662126374
 21
5.4554977548
  0
LINE
  5
489
100
AcDbEntity
  8
RACCORDO
100
AcDbLine
 62
250
  6
CONTINUOUS
 10
-29.986688537
 20
5.4552165885
 11
-29.9337873626
 21
5.4554977548
  0
LINE
  5
48A
100
AcDbEntity
  8
DRAFT
100
AcDbLine
 62
7
  6
CONTINUOUS
 10
-12.5
 20
5.35
 11
-12.475
 21
5.35
  0
LINE
  5
48B
100
AcDbEntity
  8
DRAFT
100
AcDbLine
 62
7
  6
CONTINUOUS
 10
12.475
 20
5.35
 11
12.5
 21
5.35
  0
LINE
  5
48C
100
AcDbEntity
  8
DRAFT
100
AcDbLine
 62
7
  6
CONTINUOUS
 10
-39.9475922207
 20
5.5
 11
-38.5
 21
5.5
  0
LINE
  5
48D
100
AcDbEntity
  8
DRAFT
100
AcDbLine
 62
7
  6
CONTINUOUS
 10
38.5
 20
5.5
 11
39.9475922207
 21
5.5
  0
LINE
  5
48E
100
AcDbEntity
  8
RACCORDO
100
AcDbLine
 62
7
  6
CONTINUOUS
 10
-38.3407181432
 20
5.5305440373
 11
-38.1720625996
 21
5.5305440373
  0
LINE
  5
48F
100
AcDbEntity
  8
RACCORDO
100
AcDbLine
 62
7
  6
CONTINUOUS
 10
38.1720625996
 20
5.5305440373
 11
38.3407181432
 21
5.5305440373
  0
LINE
  5
490
100
AcDbEntity
  8
RACCORDO
100
AcDbLine
 62
7
  6
CONTINUOUS
 10
-33.5
 20
7.75
 11
-23.7
 21
7.75
  0
LINE
  5
491
100
AcDbEntity
  8
RACCORDO
100
AcDbLine
 62
7
  6
CONTINUOUS
 10
23.7
 20
7.75
 11
33.5
 21
7.75
  0
LINE
  5
492
100
AcDbEntity
  8
RACCORDO
100
AcDbLine
 62
7
  6
CONTINUOUS
 10
-30.1443372221
 20
5.5000000051
 11
-29.8556621162
 21
5.499999996
  0
LINE
  5
493
100
AcDbEntity
  8
RACCORDO
100
AcDbLine
 62
7
  6
CONTINUOUS
 10
29.8556627779
 20
5.5000000051
 11
30.1443378838
 21
5.499999996
  0
LINE
  5
494
100
AcDbEntity
  8
RACCORDO
100
AcDbLine
 62
250
  6
CONTINUOUS
 10
-30.0396537027
 20
5.4553097554
 11
-29.986688537
 21
5.4552165885
  0
LINE
  5
495
100
AcDbEntity
  8
RACCORDO
100
AcDbLine
 62
250
  6
CONTINUOUS
 10
29.9603462973
 20
5.4553097554
 11
30.013311463
 21
5.4552165885
  0
LWPOLYLINE
  5
496
100
AcDbEntity
  8
RACCORDO
100
AcDbPolyline
 62
250
  6
CONTINUOUS
 90
3
 70
0
 10
-30.1190229552
 20
5.4561538057
 10
-30.0925733537
 20
5.4557785936
 10
-30.0396537027
 20
5.4553097554
  0
LWPOLYLINE
  5
497
100
AcDbEntity
  8
RACCORDO
100
AcDbPolyline
 62
250
  6
CONTINUOUS
 90
3
 70
0
 10
29.8809770448
 20
5.4561538057
 10
29.9074266463
 20
5.4557785936
 10
29.9603462973
 20
5.4553097554
  0
LINE
  5
498
100
AcDbEntity
  8
0
100
AcDbLine
 62
7
  6
CONTINUOUS
 10
25.4802765158
 20
-0.5197234842
 11
24.9098050633
 21
-0.35
  0
LINE
  5
499
100
AcDbEntity
  8
RACCORDO
100
AcDbLine
 62
250
  6
CONTINUOUS
 10
24.7
 20
-3.3683969859
 11
24.1525350141
 21
-3.156671664
  0
LWPOLYLINE
  5
49A
100
AcDbEntity
  8
RACCORDO
100
AcDbPolyline
 62
250
  6
CONTINUOUS
 90
10
 70
0
 10
24.1525350141
 20
-3.156671664
 10
24.0489174583
 20
-3.1157543252
 10
24.0065874262
 20
-3.0986210088
 10
23.9677001103
 20
-3.0825539757
 10
23.9322049315
 20
-3.0675485223
 10
23.8999575186
 20
-3.0536093521
 10
23.8707447728
 20
-3.0407505759
 10
23.8444423753
 20
-3.0289997427
 10
23.8209267851
 20
-3.0183293035
 10
23.8000031213
 20
-3.0086707218
  0
LINE
  5
49B
100
AcDbEntity
  8
RACCORDO
100
AcDbLine
 62
250
  6
CONTINUOUS
 10
23.8000031213
 20
-3.0086707218
 11
23.7654000835
 21
-2.9924269987
  0
LWPOLYLINE
  5
49C
100
AcDbEntity
  8
RACCORDO
100
AcDbPolyline
 62
250
  6
CONTINUOUS
 90
5
 70
0
 10
23.7654000835
 20
-2.9924269987
 10
23.7393769407
 20
-2.9798572859
 10
23.7292406622
 20
-2.9749035059
 10
23.7208782828
 20
-2.97070313
 10
23.7089921988
 20
-2.9645976353
  0
LINE
  5
49D
100
AcDbEntity
  8
0
100
AcDbLine
 62
7
  6
CONTINUOUS
 10
21.8061863764
 20
-31.0595325692
 11
21.1393507907
 21
-29.8118628957
  0
LINE
  5
49E
100
AcDbEntity
  8
0
100
AcDbLine
 62
7
  6
CONTINUOUS
 10
21.820624
 20
-31.0518161668
 11
21.1393507907
 21
-29.7771332602
  0
LINE
  5
49F
100
AcDbEntity
  8
0
100
AcDbLine
 62
7
  6
CONTINUOUS
 10
17.4854940054
 20
-28.9147662003
 11
17.7956674823
 21
-29.8517456699
  0
LINE
  5
4A0
100
AcDbEntity
  8
0
100
AcDbLine
 62
7
  6
CONTINUOUS
 10
17.990888
 20
-30.4414724867
 11
18.192936
 21
-31.0518239256
  0
LINE
  5
4A1
100
AcDbEntity
  8
0
100
AcDbLine
 62
7
  6
CONTINUOUS
 10
13.221072
 20
-29.0051844124
 11
13.826176
 21
-31.0518316843
  0
LINE
  5
4A2
100
AcDbEntity
  8
0
100
AcDbLine
 62
7
  6
CONTINUOUS
 10
14.146184
 20
-30.0041197322
 11
13.548592
 21
-27.9829134687
  0
LINE
  5
4A3
100
AcDbEntity
  8
0
100
AcDbLine
 62
7
  6
CONTINUOUS
 10
14.146184
 20
-29.9693900967
 11
13.548592
 21
-27.9481838332
  0
LINE
  5
4A4
100
AcDbEntity
  8
DRAFT
100
AcDbLine
 62
7
  6
CONTINUOUS
 10
8.1
 20
-23.25
 11
8.1
 21
-22.5
  0
LINE
  5
4A5
100
AcDbEntity
  8
DRAFT
100
AcDbLine
 62
7
  6
CONTINUOUS
 10
8.1
 20
22.5
 11
8.1
 21
23.25
  0
LINE
  5
4A6
100
AcDbEntity
  8
0
100
AcDbLine
 62
7
  6
CONTINUOUS
 10
9.526864
 20
-30.0852130225
 11
9.526864
 21
-30.119942658
  0
LINE
  5
4A7
100
AcDbEntity
  8
0
100
AcDbLine
 62
7
  6
CONTINUOUS
 10
9.990989
 20
29.7772096171
 11
9.990989
 21
28.2254555205
  0
LINE
  5
4A8
100
AcDbEntity
  8
0
100
AcDbLine
 62
7
  6
CONTINUOUS
 10
10.207143
 20
28.2254555205
 11
10.207143
 21
28.9150709676
  0
LINE
  5
4A9
100
AcDbEntity
  8
0
100
AcDbLine
 62
7
  6
CONTINUOUS
 10
10.207143
 20
29.059715377
 11
10.207143
 21
29.6325661776
  0
LINE
  5
4AA
100
AcDbEntity
  8
0
100
AcDbLine
 62
250
  6
CONTINUOUS
 10
10.6461484791
 20
29.597836542
 11
10.6461484791
 21
29.6325661776
  0
LINE
  5
4AB
100
AcDbEntity
  8
0
100
AcDbLine
 62
250
  6
CONTINUOUS
 10
10.7106814943
 20
28.8803413321
 11
10.7106814943
 21
28.9150709676
  0
LINE
  5
4AC
100
AcDbEntity
  8
0
100
AcDbLine
 62
7
  6
CONTINUOUS
 10
11.301024
 20
-27.9481838332
 11
11.301016
 21
-31.0518394431
  0
LINE
  5
4AD
100
AcDbEntity
  8
0
100
AcDbLine
 62
7
  6
CONTINUOUS
 10
11.706835
 20
28.6771982937
 11
11.706835
 21
28.7119279293
  0
LWPOLYLINE
  5
4AE
100
AcDbEntity
  8
0
100
AcDbPolyline
 62
7
  6
CONTINUOUS
 90
16
 70
0
 10
10.9621021801
 20
29.2964078076
 10
10.9621069399
 20
29.3613747401
 10
10.9589392404
 20
29.392305283
 10
10.9525645934
 20
29.4215674368
 10
10.9429824956
 20
29.4493637782
 10
10.9301934503
 20
29.4754917305
 10
10.9141989682
 20
29.4993435628
 10
10.8948598403
 20
29.5208961343
 10
10.8723152755
 20
29.5401725858
 10
10.8469844115
 20
29.5566346096
 10
10.8186802486
 20
29.5700061256
 10
10.7875897864
 20
29.5805632138
 10
10.7546931608
 20
29.5885958063
 10
10.7203170836
 20
29.5942005472
 10
10.684134843
 20
29.5972807925
 10
10.6461464389
 20
29.597836542
  0
LINE
  5
4AF
100
AcDbEntity
  8
RACCORDO
100
AcDbLine
 62
250
  6
CONTINUOUS
 10
12.5257532904
 20
22.1356718039
 11
12.5235815819
 21
22.1028332427
  0
LINE
  5
4B0
100
AcDbEntity
  8
RACCORDO
100
AcDbLine
 62
250
  6
CONTINUOUS
 10
21.5500285566
 20
22.3851631948
 11
21.533845775
 21
22.3527951665
  0
LINE
  5
4B1
100
AcDbEntity
  8
RACCORDO
100
AcDbLine
 62
250
  6
CONTINUOUS
 10
21.8
 20
22.1351631934
 11
21.7838362558
 21
22.1028332427
  0
LINE
  5
4B2
100
AcDbEntity
  8
0
100
AcDbLine
 62
7
  6
CONTINUOUS
 10
31.0796169933
 20
14.5793829943
 11
29.754665
 21
13.462838
  0
LINE
  5
4B3
100
AcDbEntity
  8
0
100
AcDbLine
 62
7
  6
CONTINUOUS
 10
29.754665
 20
12.882916
 11
31.0181413584
 21
13.947655302
  0
LWPOLYLINE
  5
4B4
100
AcDbEntity
  8
RACCORDO
100
AcDbPolyline
 62
7
  6
CONTINUOUS
 90
18
 70
0
 10
24.1681813191
 20
2.7056781469
 10
24.1363787813
 20
2.6870439438
 10
24.1035465877
 20
2.6725866794
 10
24.0696847382
 20
2.6623063538
 10
24.0342599843
 20
2.6561730092
 10
23.9978055745
 20
2.6542166033
 10
23.9619212547
 20
2.6565270092
 10
23.9266568288
 20
2.6632940231
 10
23.891962493
 20
2.6743278487
 10
23.8592885806
 20
2.689148971
 10
23.8287219466
 20
2.7079071093
 10
23.8001757362
 20
2.7304525442
 10
23.7748397181
 20
2.7558566029
 10
23.7528370445
 20
2.7842666771
 10
23.7340445631
 20
2.8155353749
 10
23.7192825867
 20
2.8482918479
 10
23.7088245528
 20
2.8820791467
 10
23.7023970239
 20
2.9173542206
  0
LINE
  5
4B5
100
AcDbEntity
  8
RACCORDO
100
AcDbLine
 62
250
  6
CONTINUOUS
 10
24.4208954613
 20
2.8710991613
 11
24.6424145221
 21
2.9940595799
  0
LINE
  5
4B6
100
AcDbEntity
  8
RACCORDO
100
AcDbLine
 62
250
  6
CONTINUOUS
 10
24.6424145221
 20
2.9940595799
 11
24.8445701199
 21
3.1055422223
  0
LINE
  5
4B7
100
AcDbEntity
  8
RACCORDO
100
AcDbLine
 62
250
  6
CONTINUOUS
 10
24.7
 20
3.3683969859
 11
28.2757248812
 21
5.3350456705
  0
LINE
  5
4B8
100
AcDbEntity
  8
RACCORDO
100
AcDbLine
 62
7
  6
CONTINUOUS
 10
24.8445701199
 20
3.1055422223
 11
28.4202950011
 21
5.072190907
  0
LINE
  5
4B9
100
AcDbEntity
  8
DRAFT
100
AcDbLine
 62
7
  6
CONTINUOUS
 10
28.4337640632
 20
5.0477017032
 11
24.4337640632
 21
2.8477017032
  0
LINE
  5
4BA
100
AcDbEntity
  8
ASSI
100
AcDbLine
 62
7
  6
CONTINUOUS
 10
28.5060518757
 20
4.9162693169
 11
24.5060518757
 21
2.7162693169
  0
LWPOLYLINE
  5
4BB
100
AcDbEntity
  8
RACCORDO
100
AcDbPolyline
 62
250
  6
CONTINUOUS
 90
3
 70
0
 10
23.7067027744
 20
2.9633873986
 10
23.715401423
 20
2.9679284169
 10
23.7214576727
 20
2.971010863
  0
LINE
  5
4BC
100
AcDbEntity
  8
0
100
AcDbLine
 62
7
  6
CONTINUOUS
 10
27.0901949367
 20
-0.35
 11
26.5197234842
 21
-0.5197234842
  0
LINE
  5
4BD
100
AcDbEntity
  8
DRAFT
100
AcDbLine
 62
7
  6
CONTINUOUS
 10
12.5
 20
8.35
 11
12.475
 21
8.35
  0
LINE
  5
4BE
100
AcDbEntity
  8
DRAFT
100
AcDbLine
 62
7
  6
CONTINUOUS
 10
-12.475
 20
8.35
 11
-12.5
 21
8.35
  0
LINE
  5
4BF
100
AcDbEntity
  8
0
100
AcDbLine
 62
7
  6
CONTINUOUS
 10
28.833113
 20
10.839734
 11
30.172991
 21
10.839734
  0
LINE
  5
4C0
100
AcDbEntity
  8
0
100
AcDbLine
 62
7
  6
CONTINUOUS
 10
-32.267792
 20
10.933751
 11
-32.01077
 21
10.933751
  0
LINE
  5
4C1
100
AcDbEntity
  8
0
100
AcDbLine
 62
7
  6
CONTINUOUS
 10
-31.044018692
 20
10.933751
 11
-30.7811557006
 21
10.933751
  0
LINE
  5
4C2
100
AcDbEntity
  8
0
100
AcDbLine
 62
7
  6
CONTINUOUS
 10
30.172991
 20
11.311955
 11
29.754665
 21
11.311955
  0
LINE
  5
4C3
100
AcDbEntity
  8
0
100
AcDbLine
 62
7
  6
CONTINUOUS
 10
29.251602
 20
11.311955
 11
28.833113
 21
11.311955
  0
LINE
  5
4C4
100
AcDbEntity
  8
0
100
AcDbLine
 62
7
  6
CONTINUOUS
 10
26.5197234842
 20
0.5197234842
 11
27.0901949367
 21
0.35
  0
LWPOLYLINE
  5
4C5
100
AcDbEntity
  8
RACCORDO
100
AcDbPolyline
 62
250
  6
CONTINUOUS
 90
5
 70
0
 10
23.7089921988
 20
-2.9645976353
 10
23.7050113804
 20
-2.9624893116
 10
23.7021958868
 20
-2.960886815
 10
23.7005410704
 20
-2.95985204
 10
23.7
 20
-2.9593849864
  0
LINE
  5
4C6
100
AcDbEntity
  8
RACCORDO
100
AcDbLine
 62
250
  6
CONTINUOUS
 10
28.2757248812
 20
-5.3350456705
 11
24.7
 21
-3.3683969859
  0
LINE
  5
4C7
100
AcDbEntity
  8
RACCORDO
100
AcDbLine
 62
7
  6
CONTINUOUS
 10
28.4202950011
 20
-5.072190907
 11
24.8445701199
 21
-3.1055422223
  0
LINE
  5
4C8
100
AcDbEntity
  8
DRAFT
100
AcDbLine
 62
7
  6
CONTINUOUS
 10
24.4337640632
 20
-2.8477017032
 11
28.4337640632
 21
-5.0477017032
  0
LINE
  5
4C9
100
AcDbEntity
  8
ASSI
100
AcDbLine
 62
7
  6
CONTINUOUS
 10
24.5060518757
 20
-2.7162693169
 11
28.5060518757
 21
-4.9162693169
  0
LINE
  5
4CA
100
AcDbEntity
  8
RACCORDO
100
AcDbLine
 62
250
  6
CONTINUOUS
 10
24.8445701199
 20
-3.1055422223
 11
24.5956759615
 21
-2.96819404
  0
LINE
  5
4CB
100
AcDbEntity
  8
RACCORDO
100
AcDbLine
 62
250
  6
CONTINUOUS
 10
24.5956759615
 20
-2.96819404
 11
24.4208954613
 21
-2.8710991613
  0
LWPOLYLINE
  5
4CC
100
AcDbEntity
  8
RACCORDO
100
AcDbPolyline
 62
250
  6
CONTINUOUS
 90
22
 70
0
 10
24.4208954613
 20
-2.8710991613
 10
24.391552305
 20
-2.8545005955
 10
24.3644137677
 20
-2.8387673606
 10
24.3394487337
 20
-2.8239591851
 10
24.3166950286
 20
-2.8101696463
 10
24.2960565432
 20
-2.7974108711
 10
24.2773063626
 20
-2.7856086644
 10
24.2604355634
 20
-2.7748083961
 10
24.2454108521
 20
-2.7650346015
 10
24.2319764039
 20
-2.7561678525
 10
24.2201241181
 20
-2.7482354638
 10
24.2098344412
 20
-2.7412528371
 10
24.2008409563
 20
-2.7350718366
 10
24.1931260755
 20
-2.7296988131
 10
24.1866914125
 20
-2.7251507415
 10
24.1813040562
 20
-2.7212881849
 10
24.1769715257
 20
-2.7181281328
 10
24.1736781837
 20
-2.7156647672
 10
24.1711594281
 20
-2.7137200568
 10
24.1693263915
 20
-2.7122354908
 10
24.1682651198
 20
-2.7112731543
 10
24.1679747889
 20
-2.7108339522
  0
LINE
  5
4CD
100
AcDbEntity
  8
RACCORDO
100
AcDbLine
 62
250
  6
CONTINUOUS
 10
21.533845775
 20
-22.3527951665
 11
21.5500285566
 21
-22.3851631948
  0
LINE
  5
4CE
100
AcDbEntity
  8
RACCORDO
100
AcDbLine
 62
250
  6
CONTINUOUS
 10
21.7838362558
 20
-22.1028332427
 11
21.8
 21
-22.1351631934
  0
LINE
  5
4CF
100
AcDbEntity
  8
0
100
AcDbLine
 62
7
  6
CONTINUOUS
 10
18.832968
 20
-31.0518316843
 11
17.805504
 21
-27.9481760744
  0
LINE
  5
4D0
100
AcDbEntity
  8
RACCORDO
100
AcDbLine
 62
250
  6
CONTINUOUS
 10
12.5213808261
 20
18.0465280279
 11
12.5502004321
 21
17.4642258507
  0
LINE
  5
4D1
100
AcDbEntity
  8
RACCORDO
100
AcDbLine
 62
250
  6
CONTINUOUS
 10
12.7710114945
 20
18.3
 11
12.8001909129
 21
17.710427789
  0
LWPOLYLINE
  5
4D2
100
AcDbEntity
  8
0
100
AcDbPolyline
 62
7
  6
CONTINUOUS
 90
16
 70
0
 10
11.1847569241
 20
29.328775808
 10
11.1824825214
 20
29.3803876813
 10
11.1754946854
 20
29.4297912833
 10
11.1637934158
 20
29.4769866139
 10
11.1471079308
 20
29.5225455167
 10
11.1257090124
 20
29.5658961481
 10
11.1004090067
 20
29.605322978
 10
11.0713922489
 20
29.6402746791
 10
11.0384744039
 20
29.6713025787
 10
11.0019148118
 20
29.6983451275
 10
10.9616460341
 20
29.721366081
 10
10.9177355093
 20
29.7404016837
 10
10.8706448939
 20
29.7554991202
 10
10.8205280734
 20
29.7666741187
 10
10.7672311622
 20
29.773910951
 10
10.7107541605
 20
29.7772096171
  0
LWPOLYLINE
  5
4D3
100
AcDbEntity
  8
RACCORDO
100
AcDbPolyline
 62
250
  6
CONTINUOUS
 90
3
 70
0
 10
12.5502004321
 20
17.4642258507
 10
12.5506326132
 20
17.4544236784
 10
12.5510672724
 20
17.4401916181
  0
LWPOLYLINE
  5
4D4
100
AcDbEntity
  8
RACCORDO
100
AcDbPolyline
 62
250
  6
CONTINUOUS
 90
3
 70
0
 10
12.8001909129
 20
17.710427789
 10
12.8006232073
 20
17.6966888606
 10
12.8010579618
 20
17.6778498971
  0
LINE
  5
4D5
100
AcDbEntity
  8
RACCORDO
100
AcDbLine
 62
250
  6
CONTINUOUS
 10
12.5510672724
 20
17.4401916181
 11
12.5519504628
 21
17.3984051091
  0
LINE
  5
4D6
100
AcDbEntity
  8
RACCORDO
100
AcDbLine
 62
250
  6
CONTINUOUS
 10
12.8010579618
 20
17.6778498971
 11
12.8019412917
 21
17.622976544
  0
LINE
  5
4D7
100
AcDbEntity
  8
RACCORDO
100
AcDbLine
 62
250
  6
CONTINUOUS
 10
12.5519504628
 20
17.3984051091
 11
12.5528306907
 21
17.3389644954
  0
LINE
  5
4D8
100
AcDbEntity
  8
RACCORDO
100
AcDbLine
 62
250
  6
CONTINUOUS
 10
12.8019412917
 20
17.622976544
 11
12.803235144
 21
17.494757606
  0
LINE
  5
4D9
100
AcDbEntity
  8
RACCORDO
100
AcDbLine
 62
250
  6
CONTINUOUS
 10
12.5528306907
 20
17.3389644954
 11
12.5540054634
 21
17.2174138717
  0
LINE
  5
4DA
100
AcDbEntity
  8
RACCORDO
100
AcDbLine
 62
250
  6
CONTINUOUS
 10
12.803235144
 20
17.494757606
 11
12.8046227797
 21
17.2507965816
  0
LINE
  5
4DB
100
AcDbEntity
  8
RACCORDO
100
AcDbLine
 62
250
  6
CONTINUOUS
 10
12.5540054634
 20
17.2174138717
 11
12.5551038232
 21
17.0143585848
  0
LINE
  5
4DC
100
AcDbEntity
  8
RACCORDO
100
AcDbLine
 62
250
  6
CONTINUOUS
 10
12.8046227797
 20
17.2507965816
 11
12.8055061709
 21
16.8977147681
  0
LINE
  5
4DD
100
AcDbEntity
  8
RACCORDO
100
AcDbLine
 62
250
  6
CONTINUOUS
 10
12.5551038232
 20
17.0143585848
 11
12.5556039351
 21
16.7552054488
  0
LINE
  5
4DE
100
AcDbEntity
  8
RACCORDO
100
AcDbLine
 62
250
  6
CONTINUOUS
 10
12.5556039351
 20
16.7552054488
 11
12.5575985537
 21
9.3097593059
  0
LINE
  5
4DF
100
AcDbEntity
  8
RACCORDO
100
AcDbLine
 62
250
  6
CONTINUOUS
 10
12.8055061709
 20
16.8977147681
 11
12.8075890367
 21
9.315597337
  0
LINE
  5
4E0
100
AcDbEntity
  8
0
100
AcDbLine
 62
7
  6
CONTINUOUS
 10
11.94104
 20
-31.0518316843
 11
11.941048
 21
-27.9481838332
  0
LINE
  5
4E1
100
AcDbEntity
  8
0
100
AcDbLine
 62
7
  6
CONTINUOUS
 10
12.032168
 20
29.5521412633
 11
12.032168
 21
29.5868708988
  0
LINE
  5
4E2
100
AcDbEntity
  8
0
100
AcDbLine
 62
7
  6
CONTINUOUS
 10
12.348604
 20
28.6771982937
 11
12.348604
 21
28.7119279293
  0
LINE
  5
4E3
100
AcDbEntity
  8
0
100
AcDbLine
 62
7
  6
CONTINUOUS
 10
12.475
 20
19.25
 11
12.475
 21
16.25
  0
LINE
  5
4E4
100
AcDbEntity
  8
0
100
AcDbLine
 62
7
  6
CONTINUOUS
 10
12.475
 20
8.35
 11
12.475
 21
5.35
  0
LINE
  5
4E5
100
AcDbEntity
  8
0
100
AcDbLine
 62
7
  6
CONTINUOUS
 10
12.475
 20
-5.35
 11
12.475
 21
-8.35
  0
LINE
  5
4E6
100
AcDbEntity
  8
0
100
AcDbLine
 62
7
  6
CONTINUOUS
 10
12.475
 20
-16.25
 11
12.475
 21
-19.25
  0
LINE
  5
4E7
100
AcDbEntity
  8
RACCORDO
100
AcDbLine
 62
7
  6
CONTINUOUS
 10
12.5
 20
-22.5
 11
12.5
 21
-19.25
  0
LINE
  5
4E8
100
AcDbEntity
  8
DRAFT
100
AcDbLine
 62
7
  6
CONTINUOUS
 10
12.5
 20
-19.25
 11
12.5
 21
19.25
  0
LINE
  5
4E9
100
AcDbEntity
  8
RACCORDO
100
AcDbLine
 62
7
  6
CONTINUOUS
 10
12.5
 20
19.25
 11
12.5
 21
22.5
  0
LINE
  5
4EA
100
AcDbEntity
  8
RACCORDO
100
AcDbLine
 62
7
  6
CONTINUOUS
 10
12.5213808261
 20
-18.8
 11
12.5213808261
 21
-18.0465280279
  0
LINE
  5
4EB
100
AcDbEntity
  8
RACCORDO
100
AcDbLine
 62
7
  6
CONTINUOUS
 10
12.5213808261
 20
18.0465280279
 11
12.5213808261
 21
18.8
  0
LINE
  5
4EC
100
AcDbEntity
  8
RACCORDO
100
AcDbLine
 62
7
  6
CONTINUOUS
 10
12.5235815819
 20
22.1028332427
 11
12.5235815819
 21
18.8
  0
LINE
  5
4ED
100
AcDbEntity
  8
RACCORDO
100
AcDbLine
 62
7
  6
CONTINUOUS
 10
12.5235815819
 20
-18.8
 11
12.5235815819
 21
-22.1028332427
  0
LINE
  5
4EE
100
AcDbEntity
  8
RACCORDO
100
AcDbLine
 62
250
  6
CONTINUOUS
 10
12.5575985537
 20
9.3097593059
 11
12.5584533905
 21
1.862274601
  0
LINE
  5
4EF
100
AcDbEntity
  8
0
100
AcDbLine
 62
7
  6
CONTINUOUS
 10
12.581048
 20
-27.9481838332
 11
12.581048
 21
-31.0518316843
  0
LINE
  5
4F0
100
AcDbEntity
  8
RACCORDO
100
AcDbLine
 62
250
  6
CONTINUOUS
 10
12.7735720626
 20
22.3527951665
 11
12.7735720626
 21
18.8
  0
LINE
  5
4F1
100
AcDbEntity
  8
RACCORDO
100
AcDbLine
 62
250
  6
CONTINUOUS
 10
12.7735720626
 20
-18.8
 11
12.7735720626
 21
-22.3527951665
  0
LINE
  5
4F2
100
AcDbEntity
  8
0
100
AcDbLine
 62
7
  6
CONTINUOUS
 10
12.803148
 20
29.7772096171
 11
12.803148
 21
29.5913424511
  0
LINE
  5
4F3
100
AcDbEntity
  8
RACCORDO
100
AcDbLine
 62
250
  6
CONTINUOUS
 10
12.8075890367
 20
9.315597337
 11
12.8084438741
 21
1.8632627066
  0
LINE
  5
4F4
100
AcDbEntity
  8
0
100
AcDbLine
 62
7
  6
CONTINUOUS
 10
13.221072
 20
-31.0518316843
 11
13.221072
 21
-29.0051844124
  0
LINE
  5
4F5
100
AcDbEntity
  8
0
100
AcDbLine
 62
7
  6
CONTINUOUS
 10
13.344609
 20
28.2254555205
 11
13.344609
 21
29.6260720867
  0
LINE
  5
4F6
100
AcDbEntity
  8
0
100
AcDbLine
 62
7
  6
CONTINUOUS
 10
13.548592
 20
-27.9481838332
 11
13.548592
 21
-27.9829134687
  0
LINE
  5
4F7
100
AcDbEntity
  8
0
100
AcDbLine
 62
7
  6
CONTINUOUS
 10
13.560764
 20
28.2254555205
 11
13.560764
 21
29.6260720867
  0
LINE
  5
4F8
100
AcDbEntity
  8
0
100
AcDbLine
 62
7
  6
CONTINUOUS
 10
14.102224
 20
29.5913424511
 11
14.102224
 21
29.7772096171
  0
LINE
  5
4F9
100
AcDbEntity
  8
0
100
AcDbLine
 62
7
  6
CONTINUOUS
 10
14.146184
 20
-29.9693900967
 11
14.146184
 21
-30.0041197322
  0
LINE
  5
4FA
100
AcDbEntity
  8
0
100
AcDbLine
 62
7
  6
CONTINUOUS
 10
14.327349
 20
28.4545739526
 11
14.327349
 21
28.2254555205
  0
LINE
  5
4FB
100
AcDbEntity
  8
0
100
AcDbLine
 62
7
  6
CONTINUOUS
 10
14.559042
 20
28.2254555205
 11
14.559042
 21
28.4545739526
  0
LINE
  5
4FC
100
AcDbEntity
  8
0
100
AcDbLine
 62
7
  6
CONTINUOUS
 10
14.743776
 20
-27.9481838332
 11
14.743776
 21
-27.9829134687
  0
LINE
  5
4FD
100
AcDbEntity
  8
0
100
AcDbLine
 62
7
  6
CONTINUOUS
 10
15.071288
 20
-29.0051844124
 11
15.071296
 21
-31.0518316843
  0
LINE
  5
4FE
100
AcDbEntity
  8
0
100
AcDbLine
 62
7
  6
CONTINUOUS
 10
15.564017
 20
29.7772096171
 11
15.564017
 21
28.2254555205
  0
LINE
  5
4FF
100
AcDbEntity
  8
RACCORDO
100
AcDbLine
 62
250
  6
CONTINUOUS
 10
12.5584533905
 20
1.862274601
 11
12.5581684454
 21
-5.5863755114
  0
LINE
  5
500
100
AcDbEntity
  8
RACCORDO
100
AcDbLine
 62
250
  6
CONTINUOUS
 10
12.8084438741
 20
1.8632627066
 11
12.8081589283
 21
-5.589644883
  0
LINE
  5
501
100
AcDbEntity
  8
RACCORDO
100
AcDbLine
 62
250
  6
CONTINUOUS
 10
12.5581684454
 20
-5.5863755114
 11
12.5567437175
 21
-13.0326984132
  0
LINE
  5
502
100
AcDbEntity
  8
RACCORDO
100
AcDbLine
 62
250
  6
CONTINUOUS
 10
12.8081589283
 20
-5.589644883
 11
12.8067341991
 21
-13.0408335963
  0
LINE
  5
503
100
AcDbEntity
  8
RACCORDO
100
AcDbLine
 62
250
  6
CONTINUOUS
 10
12.8067341991
 20
-13.0408335963
 11
12.8052620914
 21
-17.0414521104
  0
LINE
  5
504
100
AcDbEntity
  8
RACCORDO
100
AcDbLine
 62
250
  6
CONTINUOUS
 10
12.5567437175
 20
-13.0326984132
 11
12.5552717411
 21
-16.9623181691
  0
LINE
  5
505
100
AcDbEntity
  8
RACCORDO
100
AcDbLine
 62
250
  6
CONTINUOUS
 10
12.8052620914
 20
-17.0414521104
 11
12.8043078345
 21
-17.3216492746
  0
LINE
  5
506
100
AcDbEntity
  8
RACCORDO
100
AcDbLine
 62
250
  6
CONTINUOUS
 10
12.5552717411
 20
-16.9623181691
 11
12.5543176442
 21
-17.1726138737
  0
LINE
  5
507
100
AcDbEntity
  8
RACCORDO
100
AcDbLine
 62
250
  6
CONTINUOUS
 10
12.8043078345
 20
-17.3216492746
 11
12.8027997074
 21
-17.545712137
  0
LINE
  5
508
100
AcDbEntity
  8
RACCORDO
100
AcDbLine
 62
250
  6
CONTINUOUS
 10
12.5543176442
 20
-17.1726138737
 11
12.5532228693
 21
-17.3044080186
  0
LINE
  5
509
100
AcDbEntity
  8
RACCORDO
100
AcDbLine
 62
250
  6
CONTINUOUS
 10
12.8027997074
 20
-17.545712137
 11
12.8019227187
 21
-17.6243726825
  0
LINE
  5
50A
100
AcDbEntity
  8
RACCORDO
100
AcDbLine
 62
250
  6
CONTINUOUS
 10
12.5532228693
 20
-17.3044080186
 11
12.5523788347
 21
-17.3722238776
  0
LWPOLYLINE
  5
50B
100
AcDbEntity
  8
RACCORDO
100
AcDbPolyline
 62
250
  6
CONTINUOUS
 90
4
 70
0
 10
12.8019227187
 20
-17.6243726825
 10
12.801046658
 20
-17.6784013889
 10
12.8006170538
 20
-17.6969180204
 10
12.8001909129
 20
-17.710427789
  0
LWPOLYLINE
  5
50C
100
AcDbEntity
  8
RACCORDO
100
AcDbPolyline
 62
250
  6
CONTINUOUS
 90
5
 70
0
 10
12.5523788347
 20
-17.3722238776
 10
12.5514892851
 20
-17.4222247569
 10
12.5510561919
 20
-17.4406196042
 10
12.5506265742
 20
-17.4546199688
 10
12.5502004321
 20
-17.4642258507
  0
LINE
  5
50D
100
AcDbEntity
  8
RACCORDO
100
AcDbLine
 62
250
  6
CONTINUOUS
 10
12.5502004321
 20
-17.4642258507
 11
12.5213808261
 21
-18.0465280279
  0
LINE
  5
50E
100
AcDbEntity
  8
RACCORDO
100
AcDbLine
 62
250
  6
CONTINUOUS
 10
12.8001909129
 20
-17.710427789
 11
12.7710114945
 21
-18.3
  0
LWPOLYLINE
  5
50F
100
AcDbEntity
  8
RACCORDO
100
AcDbPolyline
 62
250
  6
CONTINUOUS
 90
5
 70
0
 10
23.7
 20
2.9593849864
 10
23.7004099597
 20
2.9597761424
 10
23.7016545035
 20
2.960580398
 10
23.7037552314
 20
2.9617977533
 10
23.7067027744
 20
2.9633873986
  0
LWPOLYLINE
  5
510
100
AcDbEntity
  8
RACCORDO
100
AcDbPolyline
 62
7
  6
CONTINUOUS
 90
10
 70
0
 10
23.8592885806
 20
-2.689148971
 10
23.891962493
 20
-2.6743278487
 10
23.9266568288
 20
-2.6632940231
 10
23.9619212547
 20
-2.6565270092
 10
23.9978055745
 20
-2.6542166033
 10
24.0342599843
 20
-2.6561730092
 10
24.0696847382
 20
-2.6623063538
 10
24.1035465877
 20
-2.6725866794
 10
24.1363787813
 20
-2.6870439438
 10
24.1681813191
 20
-2.7056781469
  0
LINE
  5
511
100
AcDbEntity
  8
RACCORDO
100
AcDbLine
 62
7
  6
CONTINUOUS
 10
-39.8386624453
 20
5.518138829
 11
-39.9475922207
 21
5.5
  0
LINE
  5
512
100
AcDbEntity
  8
0
100
AcDbLine
 62
7
  6
CONTINUOUS
 10
-31.336089
 20
12.753347
 11
-30.3138439245
 21
12.753347
  0
LINE
  5
513
100
AcDbEntity
  8
0
100
AcDbLine
 62
7
  6
CONTINUOUS
 10
-29.983805
 20
12.998686
 11
-31.336089
 21
12.998686
  0
LINE
  5
514
100
AcDbEntity
  8
0
100
AcDbLine
 62
7
  6
CONTINUOUS
 10
-32.01077
 20
13.033734
 11
-32.1764290619
 21
13.033734
  0
LINE
  5
515
100
AcDbEntity
  8
ASSI
100
AcDbLine
 62
7
  6
CONTINUOUS
 10
40.8
 20
14.0
 11
38.3407181432
 21
14.0
  0
LINE
  5
516
100
AcDbEntity
  8
ASSI
100
AcDbLine
 62
7
  6
CONTINUOUS
 10
-38.3407181432
 20
14.0
 11
-40.8
 21
14.0
  0
LINE
  5
517
100
AcDbEntity
  8
0
100
AcDbLine
 62
7
  6
CONTINUOUS
 10
28.848534
 20
14.666846
 11
29.251602
 21
14.666846
  0
LINE
  5
518
100
AcDbEntity
  8
0
100
AcDbLine
 62
7
  6
CONTINUOUS
 10
29.754665
 20
14.666846
 11
30.15757
 21
14.666846
  0
LINE
  5
519
100
AcDbEntity
  8
0
100
AcDbLine
 62
7
  6
CONTINUOUS
 10
30.15757
 20
15.141663
 11
28.848534
 21
15.141663
  0
LINE
  5
51A
100
AcDbEntity
  8
RACCORDO
100
AcDbLine
 62
7
  6
CONTINUOUS
 10
39.8386624453
 20
5.518138829
 11
39.9475922207
 21
5.5
  0
LWPOLYLINE
  5
51B
100
AcDbEntity
  8
0
100
AcDbPolyline
 62
7
  6
CONTINUOUS
 90
15
 70
0
 10
21.7288240817
 20
-28.7939894479
 10
21.7090818714
 20
-28.6991833501
 10
21.6799725416
 20
-28.607650142
 10
21.6412522144
 20
-28.5194649307
 10
21.5931647679
 20
-28.4345526091
 10
21.5370248642
 20
-28.3554245755
 10
21.4725217187
 20
-28.282178438
 10
21.3999661161
 20
-28.2147165885
 10
21.3216050729
 20
-28.1552576018
 10
21.2372849236
 20
-28.1041000855
 10
21.1471593336
 20
-28.0609454319
 10
21.0539363157
 20
-28.0271163925
 10
20.9585185405
 20
-28.0030538842
 10
20.8600033372
 20
-27.98831699
 10
20.7583907059
 20
-27.98290571
  0
LWPOLYLINE
  5
51C
100
AcDbEntity
  8
0
100
AcDbPolyline
 62
7
  6
CONTINUOUS
 90
16
 70
0
 10
16.7577849541
 20
29.328775808
 10
16.7555105514
 20
29.3803876813
 10
16.7485227154
 20
29.4297912833
 10
16.7368214458
 20
29.4769866139
 10
16.7201359608
 20
29.5225455167
 10
16.6987370424
 20
29.5658961481
 10
16.6734370367
 20
29.605322978
 10
16.6444202789
 20
29.6402746791
 10
16.6115024339
 20
29.6713025787
 10
16.5749428418
 20
29.6983451275
 10
16.5346740641
 20
29.721366081
 10
16.4907635393
 20
29.7404016837
 10
16.4436729239
 20
29.7554991202
 10
16.3935561034
 20
29.7666741187
 10
16.3402591923
 20
29.773910951
 10
16.2837821905
 20
29.7772096171
  0
LINE
  5
51D
100
AcDbEntity
  8
0
100
AcDbLine
 62
7
  6
CONTINUOUS
 10
15.71132
 20
-31.0518316843
 11
15.71132
 21
-27.9481838332
  0
LINE
  5
51E
100
AcDbEntity
  8
0
100
AcDbLine
 62
7
  6
CONTINUOUS
 10
15.780171
 20
28.2254555205
 11
15.780171
 21
28.9150709676
  0
LINE
  5
51F
100
AcDbEntity
  8
0
100
AcDbLine
 62
7
  6
CONTINUOUS
 10
15.780171
 20
29.059715377
 11
15.780171
 21
29.6325661776
  0
LINE
  5
520
100
AcDbEntity
  8
0
100
AcDbLine
 62
250
  6
CONTINUOUS
 10
16.2191765091
 20
29.597836542
 11
16.2191765091
 21
29.6325661776
  0
LINE
  5
521
100
AcDbEntity
  8
0
100
AcDbLine
 62
250
  6
CONTINUOUS
 10
16.2837095244
 20
28.8803413321
 11
16.2837095244
 21
28.9150709676
  0
LINE
  5
522
100
AcDbEntity
  8
0
100
AcDbLine
 62
7
  6
CONTINUOUS
 10
17.050317
 20
29.7772096171
 11
17.050317
 21
28.2254555205
  0
LINE
  5
523
100
AcDbEntity
  8
0
100
AcDbLine
 62
7
  6
CONTINUOUS
 10
17.1753082474
 20
-29.8517456699
 11
17.1753082474
 21
-29.8864753054
  0
LINE
  5
524
100
AcDbEntity
  8
0
100
AcDbLine
 62
7
  6
CONTINUOUS
 10
17.266472
 20
28.4113236564
 11
17.266472
 21
28.9646931541
  0
LINE
  5
525
100
AcDbEntity
  8
0
100
AcDbLine
 62
7
  6
CONTINUOUS
 10
17.266472
 20
29.1158306845
 11
17.266472
 21
29.6260720867
  0
LINE
  5
526
100
AcDbEntity
  8
0
100
AcDbLine
 62
7
  6
CONTINUOUS
 10
17.7956674823
 20
-29.8517456699
 11
17.7956674823
 21
-29.8864753054
  0
LINE
  5
527
100
AcDbEntity
  8
0
100
AcDbLine
 62
7
  6
CONTINUOUS
 10
17.805504
 20
-27.9481760744
 11
17.805504
 21
-27.98290571
  0
LINE
  5
528
100
AcDbEntity
  8
0
100
AcDbLine
 62
7
  6
CONTINUOUS
 10
18.142335
 20
28.9299635185
 11
18.142335
 21
29.1158306845
  0
LINE
  5
529
100
AcDbEntity
  8
0
100
AcDbLine
 62
7
  6
CONTINUOUS
 10
18.21586
 20
29.5913424511
 11
18.21586
 21
29.7772096171
  0
LINE
  5
52A
100
AcDbEntity
  8
0
100
AcDbLine
 62
7
  6
CONTINUOUS
 10
18.231399
 20
28.2254555205
 11
18.231399
 21
28.4113236564
  0
LINE
  5
52B
100
AcDbEntity
  8
0
100
AcDbLine
 62
7
  6
CONTINUOUS
 10
18.514384
 20
29.7772096171
 11
18.514384
 21
28.2254555205
  0
LINE
  5
52C
100
AcDbEntity
  8
0
100
AcDbLine
 62
7
  6
CONTINUOUS
 10
18.723843
 20
28.2254555205
 11
18.723843
 21
29.5205324413
  0
LINE
  5
52D
100
AcDbEntity
  8
0
100
AcDbLine
 62
7
  6
CONTINUOUS
 10
19.259648
 20
-27.9481760744
 11
19.259648
 21
-31.0518239256
  0
LWPOLYLINE
  5
52E
100
AcDbEntity
  8
0
100
AcDbPolyline
 62
7
  6
CONTINUOUS
 90
16
 70
0
 10
16.5351302101
 20
29.2964078076
 10
16.5351349699
 20
29.3613747401
 10
16.5319672704
 20
29.392305283
 10
16.5255926235
 20
29.4215674368
 10
16.5160105256
 20
29.4493637782
 10
16.5032214803
 20
29.4754917305
 10
16.4872269982
 20
29.4993435628
 10
16.4678878703
 20
29.5208961343
 10
16.4453433055
 20
29.5401725858
 10
16.4200124415
 20
29.5566346096
 10
16.3917082786
 20
29.5700061256
 10
16.3606178164
 20
29.5805632138
 10
16.3277211908
 20
29.5885958063
 10
16.2933451136
 20
29.5942005472
 10
16.257162873
 20
29.5972807925
 10
16.2191744689
 20
29.597836542
  0
LINE
  5
52F
100
AcDbEntity
  8
0
100
AcDbLine
 62
7
  6
CONTINUOUS
 10
10.234312
 20
-27.9481838332
 11
9.526864
 21
-30.0852130225
  0
LINE
  5
530
100
AcDbEntity
  8
0
100
AcDbLine
 62
7
  6
CONTINUOUS
 10
9.84688
 20
-31.0518316843
 11
10.874344
 21
-27.9481838332
  0
LWPOLYLINE
  5
531
100
AcDbEntity
  8
RACCORDO
100
AcDbPolyline
 62
250
  6
CONTINUOUS
 90
25
 70
0
 10
24.1679747889
 20
2.7108339522
 10
24.1682080849
 20
2.7112030142
 10
24.169002336
 20
2.7119522056
 10
24.1703580084
 20
2.7130810335
 10
24.1722197087
 20
2.714549237
 10
24.1746443899
 20
2.7163951457
 10
24.1778017522
 20
2.7187351723
 10
24.181698426
 20
2.7215721259
 10
24.1863320096
 20
2.7248974855
 10
24.1918601731
 20
2.7288085245
 10
24.1982781083
 20
2.7332939136
 10
24.205598801
 20
2.7383533028
 10
24.2140090092
 20
2.7440968471
 10
24.2235124922
 20
2.7505129238
 10
24.2341196508
 20
2.7575919682
 10
24.2460308044
 20
2.765441571
 10
24.2592610384
 20
2.7740481938
 10
24.2738175964
 20
2.7833901647
 10
24.28989371
 20
2.7935550134
 10
24.3075173715
 20
2.8045249284
 10
24.3266927677
 20
2.8162635642
 10
24.3475825556
 20
2.8288210769
 10
24.3702557977
 20
2.8421871719
 10
24.39468593
 20
2.8562943308
 10
24.4208954613
 20
2.8710991613
  0
LINE
  5
532
100
AcDbEntity
  8
RACCORDO
100
AcDbLine
 62
7
  6
CONTINUOUS
 10
3.0360843667
 20
-24.2983867611
 11
3.0086507125
 21
-24.3258204153
  0
LINE
  5
533
100
AcDbEntity
  8
0
100
AcDbLine
 62
7
  6
CONTINUOUS
 10
-17.917751
 20
-27.3216766945
 11
-18.966055
 21
-27.7630857553
  0
LINE
  5
534
100
AcDbEntity
  8
0
100
AcDbLine
 62
7
  6
CONTINUOUS
 10
-17.917751
 20
-27.3564063301
 11
-18.966055
 21
-27.7978153909
  0
LINE
  5
535
100
AcDbEntity
  8
0
100
AcDbLine
 62
7
  6
CONTINUOUS
 10
-19.201616
 20
-28.6309818216
 11
-18.149695
 21
-28.1880510719
  0
LINE
  5
536
100
AcDbEntity
  8
0
100
AcDbLine
 62
7
  6
CONTINUOUS
 10
-15.052708
 20
-27.3216766945
 11
-16.074773
 21
-27.7520362963
  0
LWPOLYLINE
  5
537
100
AcDbEntity
  8
RACCORDO
100
AcDbPolyline
 62
250
  6
CONTINUOUS
 90
13
 70
0
 10
12.8001909129
 20
17.710427789
 10
12.76759183
 20
17.708276898
 10
12.7355494593
 20
17.7019582589
 10
12.7046109994
 20
17.6915797796
 10
12.6753047958
 20
17.6773186985
 10
12.6481313209
 20
17.6594185595
 10
12.6235546265
 20
17.6381850536
 10
12.6019944156
 20
17.6139807959
 10
12.5838188753
 20
17.5872191321
 10
12.5693383919
 20
17.5583570811
 10
12.5588002501
 20
17.5278875306
 10
12.5523844095
 20
17.4963308192
 10
12.5502004321
 20
17.4642258507
  0
LWPOLYLINE
  5
538
100
AcDbEntity
  8
RACCORDO
100
AcDbPolyline
 62
250
  6
CONTINUOUS
 90
12
 70
0
 10
12.7731429887
 20
16.7649726535
 10
12.7412406756
 20
16.7647127826
 10
12.7104272989
 20
16.764292037
 10
12.6812242549
 20
16.7637175364
 10
12.6541256915
 20
16.7629990018
 10
12.6295901462
 20
16.7621485916
 10
12.6080327877
 20
16.7611806958
 10
12.5898183901
 20
16.7601116922
 10
12.5752551614
 20
16.7589596696
 10
12.5645895273
 20
16.7577441214
 10
12.5580019623
 20
16.756485616
 10
12.5556039351
 20
16.7552054488
  0
LINE
  5
539
100
AcDbEntity
  8
DRAFT
100
AcDbLine
 62
7
  6
CONTINUOUS
 10
-12.5
 20
16.25
 11
-12.475
 21
16.25
  0
LINE
  5
53A
100
AcDbEntity
  8
DRAFT
100
AcDbLine
 62
7
  6
CONTINUOUS
 10
12.475
 20
16.25
 11
12.5
 21
16.25
  0
LINE
  5
53B
100
AcDbEntity
  8
RACCORDO
100
AcDbLine
 62
250
  6
CONTINUOUS
 10
-21.5342746871
 20
16.7649725496
 11
-12.8055944158
 21
16.765067253
  0
LINE
  5
53C
100
AcDbEntity
  8
RACCORDO
100
AcDbLine
 62
250
  6
CONTINUOUS
 10
12.7731429887
 20
16.7649726535
 11
21.5018234218
 21
16.765067253
  0
LINE
  5
53D
100
AcDbEntity
  8
RACCORDO
100
AcDbLine
 62
250
  6
CONTINUOUS
 10
-21.5072269247
 20
17.710427789
 11
-12.8001909129
 21
17.710427789
  0
LINE
  5
53E
100
AcDbEntity
  8
RACCORDO
100
AcDbLine
 62
250
  6
CONTINUOUS
 10
12.8001909129
 20
17.710427789
 11
21.5072269247
 21
17.710427789
  0
LINE
  5
53F
100
AcDbEntity
  8
RACCORDO
100
AcDbLine
 62
7
  6
CONTINUOUS
 10
-21.5364063431
 20
18.3
 11
-12.7710114945
 21
18.3
  0
LINE
  5
540
100
AcDbEntity
  8
RACCORDO
100
AcDbLine
 62
7
  6
CONTINUOUS
 10
12.7710114945
 20
18.3
 11
21.5364063431
 21
18.3
  0
LINE
  5
541
100
AcDbEntity
  8
RACCORDO
100
AcDbLine
 62
7
  6
CONTINUOUS
 10
12.5235815819
 20
18.8
 11
21.7838362558
 21
18.8
  0
LINE
  5
542
100
AcDbEntity
  8
RACCORDO
100
AcDbLine
 62
7
  6
CONTINUOUS
 10
-12.5235815819
 20
18.8
 11
-21.7838362558
 21
18.8
  0
LINE
  5
543
100
AcDbEntity
  8
DRAFT
100
AcDbLine
 62
7
  6
CONTINUOUS
 10
12.5
 20
19.25
 11
12.475
 21
19.25
  0
LINE
  5
544
100
AcDbEntity
  8
DRAFT
100
AcDbLine
 62
7
  6
CONTINUOUS
 10
-12.475
 20
19.25
 11
-12.5
 21
19.25
  0
LWPOLYLINE
  5
545
100
AcDbEntity
  8
RACCORDO
100
AcDbPolyline
 62
250
  6
CONTINUOUS
 90
13
 70
0
 10
-12.8055944158
 20
16.765067253
 10
-12.7731429868
 20
16.7649726541
 10
-12.7412406719
 20
16.7647127833
 10
-12.7104272936
 20
16.7642920378
 10
-12.6812242483
 20
16.7637175371
 10
-12.6541256839
 20
16.7629990025
 10
-12.6295901381
 20
16.7621485923
 10
-12.6080327796
 20
16.7611806965
 10
-12.5898183825
 20
16.7601116928
 10
-12.5752551548
 20
16.75895967
 10
-12.5645895224
 20
16.7577441217
 10
-12.5580019595
 20
16.7564856161
 10
-12.5556039351
 20
16.7552054488
  0
LWPOLYLINE
  5
546
100
AcDbEntity
  8
RACCORDO
100
AcDbPolyline
 62
250
  6
CONTINUOUS
 90
13
 70
0
 10
-12.8001909129
 20
17.710427789
 10
-12.7675918686
 20
17.7082769032
 10
-12.7355495289
 20
17.7019582776
 10
-12.7046110913
 20
17.6915798174
 10
-12.6753049017
 20
17.6773187591
 10
-12.6481314313
 20
17.6594186433
 10
-12.6235547306
 20
17.6381851563
 10
-12.6019945038
 20
17.6139809093
 10
-12.583818942
 20
17.587219246
 10
-12.5693384353
 20
17.5583571842
 10
-12.5588002719
 20
17.5278876108
 10
-12.5523844156
 20
17.4963308647
 10
-12.5502004321
 20
17.4642258507
  0
LWPOLYLINE
  5
547
100
AcDbEntity
  8
RACCORDO
100
AcDbPolyline
 62
250
  6
CONTINUOUS
 90
11
 70
0
 10
23.7844313076
 20
2.7507580911
 10
23.8056439615
 20
2.7308684408
 10
23.8405362247
 20
2.7052904682
 10
23.8787449379
 20
2.684997029
 10
23.9194754552
 20
2.6704101762
 10
23.9618806837
 20
2.6618332798
 10
24.0050787003
 20
2.6594447179
 10
24.048171094
 20
2.6632941667
 10
24.0902616505
 20
2.6733015672
 10
24.1304749914
 20
2.6892587905
 10
24.1679747795
 20
2.7108339661
  0
LINE
  5
548
100
AcDbEntity
  8
RACCORDO
100
AcDbLine
 62
7
  6
CONTINUOUS
 10
3.0360843667
 20
24.2983867611
 11
3.0086507125
 21
24.3258204153
  0
LWPOLYLINE
  5
549
100
AcDbEntity
  8
0
100
AcDbPolyline
 62
7
  6
CONTINUOUS
 90
14
 70
0
 10
10.9589391205
 20
29.4270350716
 10
10.9525645938
 20
29.4562970711
 10
10.9429827304
 20
29.4840930201
 10
10.9301940398
 20
29.5102204261
 10
10.9142000496
 20
29.5340718112
 10
10.8948616474
 20
29.5556240961
 10
10.8723179457
 20
29.5749003601
 10
10.8469878096
 20
29.5913623639
 10
10.8186843115
 20
29.6047341114
 10
10.7875943791
 20
29.6152915987
 10
10.7546976608
 20
29.6233245741
 10
10.720320706
 20
29.6289296205
 10
10.6841369654
 20
29.6320101549
 10
10.646146439
 20
29.6325661776
  0
LWPOLYLINE
  5
54A
100
AcDbEntity
  8
RACCORDO
100
AcDbPolyline
 62
250
  6
CONTINUOUS
 90
13
 70
0
 10
21.7572174055
 20
17.4642258507
 10
21.7550334334
 20
17.4963307797
 10
21.7486176066
 20
17.527887461
 10
21.7380794833
 20
17.558356992
 10
21.7235990199
 20
17.5872190341
 10
21.7054234975
 20
17.613980699
 10
21.6838632998
 20
17.6381849663
 10
21.6592866105
 20
17.6594184886
 10
21.6321131314
 20
17.6773186476
 10
21.6028069157
 20
17.6915797479
 10
21.5718684369
 20
17.7019582434
 10
21.53982604
 20
17.7082768938
 10
21.5072269247
 20
17.710427789
  0
LINE
  5
54B
100
AcDbEntity
  8
RACCORDO
100
AcDbLine
 62
250
  6
CONTINUOUS
 10
21.5072269247
 20
-17.710427789
 11
21.5364063431
 21
-18.3
  0
LINE
  5
54C
100
AcDbEntity
  8
RACCORDO
100
AcDbLine
 62
250
  6
CONTINUOUS
 10
21.7572174055
 20
-17.4642258507
 11
21.7860370115
 21
-18.0465280279
  0
LWPOLYLINE
  5
54D
100
AcDbEntity
  8
RACCORDO
100
AcDbPolyline
 62
250
  6
CONTINUOUS
 90
3
 70
0
 10
21.7564629136
 20
-17.4439925774
 10
21.756841476
 20
-17.4557451261
 10
21.7572174055
 20
-17.4642258507
  0
LWPOLYLINE
  5
54E
100
AcDbEntity
  8
0
100
AcDbPolyline
 62
7
  6
CONTINUOUS
 90
17
 70
0
 10
21.7397336522
 20
-28.900521716
 10
21.7386161437
 20
-28.8546020814
 10
21.7288240826
 20
-28.7592598186
 10
21.7090818741
 20
-28.6644537255
 10
21.6799725473
 20
-28.5729205218
 10
21.6412522244
 20
-28.4847353149
 10
21.5931647832
 20
-28.3998229974
 10
21.5370248856
 20
-28.3206949671
 10
21.4725217475
 20
-28.2474488318
 10
21.399966153
 20
-28.1799869836
 10
21.3216051173
 20
-28.1205279965
 10
21.2372849773
 20
-28.0693704778
 10
21.1471593961
 20
-28.0262158203
 10
21.0539363779
 20
-27.9923867759
 10
20.9585185908
 20
-27.9683242622
 10
20.8600033668
 20
-27.9535873617
 10
20.7583907059
 20
-27.9481760744
  0
LWPOLYLINE
  5
54F
100
AcDbEntity
  8
RACCORDO
100
AcDbPolyline
 62
250
  6
CONTINUOUS
 90
3
 70
0
 10
21.5064722192
 20
-17.6831028968
 10
21.5068509127
 20
-17.6986851315
 10
21.5072269247
 20
-17.710427789
  0
LINE
  5
550
100
AcDbEntity
  8
RACCORDO
100
AcDbLine
 62
250
  6
CONTINUOUS
 10
21.7556937385
 20
-17.4106781836
 11
21.7564629136
 21
-17.4439925774
  0
LWPOLYLINE
  5
551
100
AcDbEntity
  8
0
100
AcDbPolyline
 62
7
  6
CONTINUOUS
 90
16
 70
0
 10
21.2325942013
 20
29.0013330269
 10
21.2311825889
 20
29.0720450769
 10
21.2252432908
 20
29.1392697391
 10
21.2147763073
 20
29.2030070135
 10
21.1998706649
 20
29.2638070845
 10
21.1804373371
 20
29.3211197676
 10
21.1562092431
 20
29.3732945096
 10
21.1267425843
 20
29.419879224
 10
21.0924811594
 20
29.4613259973
 10
21.0544892843
 20
29.4973405354
 10
21.0129902459
 20
29.527859025
 10
20.9677607574
 20
29.5529452793
 10
20.919195274
 20
29.5724964437
 10
20.8674252809
 20
29.5864782331
 10
20.8123192931
 20
29.5949249326
 10
20.7538773104
 20
29.597836542
  0
LINE
  5
552
100
AcDbEntity
  8
RACCORDO
100
AcDbLine
 62
250
  6
CONTINUOUS
 10
21.5057026046
 20
-17.6391925884
 11
21.5064722192
 21
-17.6831028968
  0
LINE
  5
553
100
AcDbEntity
  8
RACCORDO
100
AcDbLine
 62
250
  6
CONTINUOUS
 10
21.754922335
 20
-17.3642641431
 11
21.7556937385
 21
-17.4106781836
  0
LINE
  5
554
100
AcDbEntity
  8
0
100
AcDbLine
 62
7
  6
CONTINUOUS
 10
21.4549805805
 20
29.0013330269
 11
21.4540655424
 21
29.0789949453
  0
LINE
  5
555
100
AcDbEntity
  8
RACCORDO
100
AcDbLine
 62
250
  6
CONTINUOUS
 10
21.5045600685
 20
-17.5393136049
 11
21.5057026046
 21
-17.6391925884
  0
LINE
  5
556
100
AcDbEntity
  8
RACCORDO
100
AcDbLine
 62
250
  6
CONTINUOUS
 10
21.75385135
 20
-17.2699469305
 11
21.754922335
 21
-17.3642641431
  0
LINE
  5
557
100
AcDbEntity
  8
RACCORDO
100
AcDbLine
 62
250
  6
CONTINUOUS
 10
21.5029728639
 20
-17.2927746803
 11
21.5045600685
 21
-17.5393136049
  0
LINE
  5
558
100
AcDbEntity
  8
RACCORDO
100
AcDbLine
 62
250
  6
CONTINUOUS
 10
21.7525092018
 20
-17.0628104847
 11
21.75385135
 21
-17.2699469305
  0
LINE
  5
559
100
AcDbEntity
  8
RACCORDO
100
AcDbLine
 62
250
  6
CONTINUOUS
 10
21.7518139026
 20
-16.7552054488
 11
21.7525092018
 21
-17.0628104847
  0
LINE
  5
55A
100
AcDbEntity
  8
RACCORDO
100
AcDbLine
 62
250
  6
CONTINUOUS
 10
21.5018234218
 20
-16.765067253
 11
21.5029728639
 21
-17.2927746803
  0
LINE
  5
55B
100
AcDbEntity
  8
RACCORDO
100
AcDbLine
 62
250
  6
CONTINUOUS
 10
21.4998288009
 20
-9.3155973366
 11
21.5018234218
 21
-16.765067253
  0
LINE
  5
55C
100
AcDbEntity
  8
RACCORDO
100
AcDbLine
 62
250
  6
CONTINUOUS
 10
21.7498192854
 20
-9.3097716617
 11
21.7518139026
 21
-16.7552054488
  0
LINE
  5
55D
100
AcDbEntity
  8
0
100
AcDbLine
 62
7
  6
CONTINUOUS
 10
19.541719
 20
28.2254555205
 11
19.541719
 21
28.260185156
  0
LINE
  5
55E
100
AcDbEntity
  8
0
100
AcDbLine
 62
7
  6
CONTINUOUS
 10
19.575071
 20
29.7772096171
 11
19.575071
 21
28.51674789
  0
LINE
  5
55F
100
AcDbEntity
  8
0
100
AcDbLine
 62
7
  6
CONTINUOUS
 10
19.78453
 20
28.2254555205
 11
19.78453
 21
29.7772096171
  0
LINE
  5
560
100
AcDbEntity
  8
0
100
AcDbLine
 62
7
  6
CONTINUOUS
 10
19.890848
 20
-28.5223483665
 11
19.890856
 21
-29.3123322384
  0
LINE
  5
561
100
AcDbEntity
  8
0
100
AcDbLine
 62
7
  6
CONTINUOUS
 10
20.134344
 20
29.7772096171
 11
20.134344
 21
28.2254555205
  0
LINE
  5
562
100
AcDbEntity
  8
0
100
AcDbLine
 62
7
  6
CONTINUOUS
 10
20.350499
 20
28.4048295655
 11
20.350499
 21
29.6325661776
  0
LINE
  5
563
100
AcDbEntity
  8
0
100
AcDbLine
 62
250
  6
CONTINUOUS
 10
20.669534
 20
-29.2776026029
 11
20.669534
 21
-29.3123322384
  0
LINE
  5
564
100
AcDbEntity
  8
0
100
AcDbLine
 62
250
  6
CONTINUOUS
 10
20.7538784436
 20
29.597836542
 11
20.7538784436
 21
29.6325661776
  0
LINE
  5
565
100
AcDbEntity
  8
0
100
AcDbLine
 62
250
  6
CONTINUOUS
 10
20.7583679806
 20
-27.9481760744
 11
20.7583679806
 21
-27.98290571
  0
LINE
  5
566
100
AcDbEntity
  8
0
100
AcDbLine
 62
250
  6
CONTINUOUS
 10
20.782808566
 20
28.2254555205
 11
20.782808566
 21
28.260185156
  0
LINE
  5
567
100
AcDbEntity
  8
RACCORDO
100
AcDbLine
 62
250
  6
CONTINUOUS
 10
21.4989739634
 20
-1.8632627061
 11
21.4998288009
 21
-9.3155973366
  0
LINE
  5
568
100
AcDbEntity
  8
RACCORDO
100
AcDbLine
 62
250
  6
CONTINUOUS
 10
21.533845775
 20
-18.8
 11
21.533845775
 21
-22.3527951665
  0
LINE
  5
569
100
AcDbEntity
  8
RACCORDO
100
AcDbLine
 62
250
  6
CONTINUOUS
 10
21.533845775
 20
18.8
 11
21.533845775
 21
22.3527951665
  0
LINE
  5
56A
100
AcDbEntity
  8
RACCORDO
100
AcDbLine
 62
250
  6
CONTINUOUS
 10
21.7489644481
 20
-1.8622880137
 11
21.7498192854
 21
-9.3097716617
  0
LINE
  5
56B
100
AcDbEntity
  8
0
100
AcDbLine
 62
7
  6
CONTINUOUS
 10
21.756579
 20
28.4545739526
 11
21.756579
 21
28.2254555205
  0
LINE
  5
56C
100
AcDbEntity
  8
RACCORDO
100
AcDbLine
 62
7
  6
CONTINUOUS
 10
21.7838362558
 20
22.1028332427
 11
21.7838362558
 21
18.8
  0
LINE
  5
56D
100
AcDbEntity
  8
RACCORDO
100
AcDbLine
 62
7
  6
CONTINUOUS
 10
21.7838362558
 20
-18.8
 11
21.7838362558
 21
-22.1028332427
  0
LINE
  5
56E
100
AcDbEntity
  8
RACCORDO
100
AcDbLine
 62
7
  6
CONTINUOUS
 10
21.7860370115
 20
18.8
 11
21.7860370115
 21
18.0465280279
  0
LINE
  5
56F
100
AcDbEntity
  8
RACCORDO
100
AcDbLine
 62
7
  6
CONTINUOUS
 10
21.7860370115
 20
-18.0465280279
 11
21.7860370115
 21
-18.8
  0
LINE
  5
570
100
AcDbEntity
  8
RACCORDO
100
AcDbLine
 62
7
  6
CONTINUOUS
 10
21.8
 20
-22.1351631934
 11
21.8
 21
22.1351631934
  0
LINE
  5
571
100
AcDbEntity
  8
0
100
AcDbLine
 62
7
  6
CONTINUOUS
 10
21.988399
 20
28.2254555205
 11
21.988399
 21
28.4545739526
  0
LINE
  5
572
100
AcDbEntity
  8
0
100
AcDbLine
 62
7
  6
CONTINUOUS
 10
19.89968
 20
-31.0518239256
 11
19.899752
 21
-29.8517748949
  0
LINE
  5
573
100
AcDbEntity
  8
RACCORDO
100
AcDbLine
 62
250
  6
CONTINUOUS
 10
21.4992589094
 20
5.5896448833
 11
21.4989739634
 21
-1.8632627061
  0
LINE
  5
574
100
AcDbEntity
  8
RACCORDO
100
AcDbLine
 62
250
  6
CONTINUOUS
 10
21.7492493916
 20
5.5863694694
 11
21.7489644481
 21
-1.8622880137
  0
LINE
  5
575
100
AcDbEntity
  8
RACCORDO
100
AcDbLine
 62
250
  6
CONTINUOUS
 10
21.5006836385
 20
13.0408335964
 11
21.4992589094
 21
5.5896448833
  0
LINE
  5
576
100
AcDbEntity
  8
RACCORDO
100
AcDbLine
 62
250
  6
CONTINUOUS
 10
21.7506741196
 20
13.0326966849
 11
21.7492493916
 21
5.5863694694
  0
LINE
  5
577
100
AcDbEntity
  8
RACCORDO
100
AcDbLine
 62
250
  6
CONTINUOUS
 10
21.5030489632
 20
17.309306029
 11
21.5006836385
 21
13.0408335964
  0
LINE
  5
578
100
AcDbEntity
  8
RACCORDO
100
AcDbLine
 62
250
  6
CONTINUOUS
 10
21.7525623258
 20
17.0746383653
 11
21.7506741196
 21
13.0326966849
  0
LINE
  5
579
100
AcDbEntity
  8
RACCORDO
100
AcDbLine
 62
250
  6
CONTINUOUS
 10
21.5046589768
 20
17.5499143328
 11
21.5030489632
 21
17.309306029
  0
LINE
  5
57A
100
AcDbEntity
  8
RACCORDO
100
AcDbLine
 62
250
  6
CONTINUOUS
 10
21.7539451808
 20
17.279943857
 11
21.7525623258
 21
17.0746383653
  0
LINE
  5
57B
100
AcDbEntity
  8
RACCORDO
100
AcDbLine
 62
250
  6
CONTINUOUS
 10
21.7550154417
 20
17.3707174654
 11
21.7539451808
 21
17.279943857
  0
LINE
  5
57C
100
AcDbEntity
  8
RACCORDO
100
AcDbLine
 62
250
  6
CONTINUOUS
 10
21.5057793236
 20
17.6443296509
 11
21.5046589768
 21
17.5499143328
  0
LINE
  5
57D
100
AcDbEntity
  8
RACCORDO
100
AcDbLine
 62
250
  6
CONTINUOUS
 10
21.7557696533
 20
17.4144818793
 11
21.7550154417
 21
17.3707174654
  0
LWPOLYLINE
  5
57E
100
AcDbEntity
  8
RACCORDO
100
AcDbPolyline
 62
250
  6
CONTINUOUS
 90
4
 70
0
 10
21.5072269247
 20
17.710427789
 10
21.506875051
 20
17.6995437142
 10
21.506517184
 20
17.6851382893
 10
21.5057793236
 20
17.6443296509
  0
LWPOLYLINE
  5
57F
100
AcDbEntity
  8
RACCORDO
100
AcDbPolyline
 62
250
  6
CONTINUOUS
 90
3
 70
0
 10
21.7568656698
 20
17.4564729794
 10
21.7565078307
 20
17.4455873642
 10
21.7557696533
 20
17.4144818793
  0
LINE
  5
580
100
AcDbEntity
  8
RACCORDO
100
AcDbLine
 62
250
  6
CONTINUOUS
 10
21.5364063431
 20
18.3
 11
21.5072269247
 21
17.710427789
  0
LINE
  5
581
100
AcDbEntity
  8
RACCORDO
100
AcDbLine
 62
250
  6
CONTINUOUS
 10
21.7860370115
 20
18.0465280279
 11
21.7568656698
 21
17.4564729794
  0
LWPOLYLINE
  5
582
100
AcDbEntity
  8
RACCORDO
100
AcDbPolyline
 62
250
  6
CONTINUOUS
 90
13
 70
0
 10
21.7572174055
 20
-17.4642258507
 10
21.755033422
 20
-17.4963308647
 10
21.7486175657
 20
-17.5278876108
 10
21.7380794024
 20
-17.5583571842
 10
21.7235988956
 20
-17.587219246
 10
21.7054233338
 20
-17.6139809093
 10
21.683863107
 20
-17.6381851563
 10
21.6592864063
 20
-17.6594186433
 10
21.632112936
 20
-17.6773187591
 10
21.6028067463
 20
-17.6915798174
 10
21.5718683087
 20
-17.7019582775
 10
21.539825969
 20
-17.7082769031
 10
21.5072269247
 20
-17.710427789
  0
LINE
  5
583
100
AcDbEntity
  8
0
100
AcDbLine
 62
7
  6
CONTINUOUS
 10
14.743776
 20
-27.9481838332
 11
14.146184
 21
-29.9693900967
  0
LINE
  5
584
100
AcDbEntity
  8
0
100
AcDbLine
 62
7
  6
CONTINUOUS
 10
14.743776
 20
-27.9829134687
 11
14.146184
 21
-30.0041197322
  0
LINE
  5
585
100
AcDbEntity
  8
0
100
AcDbLine
 62
7
  6
CONTINUOUS
 10
14.466184
 20
-31.0518239256
 11
15.071288
 21
-29.0051844124
  0
LINE
  5
586
100
AcDbEntity
  8
RACCORDO
100
AcDbLine
 62
250
  6
CONTINUOUS
 10
12.5235815819
 20
-22.1028332427
 11
12.5
 21
-22.1499999985
  0
LINE
  5
587
100
AcDbEntity
  8
RACCORDO
100
AcDbLine
 62
250
  6
CONTINUOUS
 10
12.7735720626
 20
-22.3527951665
 11
12.7499714434
 21
-22.4
  0
LINE
  5
588
100
AcDbEntity
  8
RACCORDO
100
AcDbLine
 62
250
  6
CONTINUOUS
 10
24.4337640632
 20
-2.8477017032
 11
24.4208954613
 21
-2.8710991613
  0
LINE
  5
589
100
AcDbEntity
  8
0
100
AcDbLine
 62
7
  6
CONTINUOUS
 10
28.4067010727
 20
11.0520941296
 11
28.6240702271
 21
11.4393754046
  0
LINE
  5
58A
100
AcDbEntity
  8
0
100
AcDbLine
 62
7
  6
CONTINUOUS
 10
31.210123
 20
9.340447
 11
31.456541
 21
9.689783
  0
LWPOLYLINE
  5
58B
100
AcDbEntity
  8
RACCORDO
100
AcDbPolyline
 62
250
  6
CONTINUOUS
 90
12
 70
0
 10
23.7709870627
 20
-2.7656095782
 10
23.7747936179
 20
-2.7611988922
 10
23.8056437676
 20
-2.7308683315
 10
23.8405360449
 20
-2.7052903502
 10
23.8787447767
 20
-2.6849969069
 10
23.9194753164
 20
-2.670410055
 10
23.9618805697
 20
-2.6618331647
 10
24.0050786126
 20
-2.6594446142
 10
24.048171033
 20
-2.6632940792
 10
24.0902616153
 20
-2.6733015005
 10
24.1304749801
 20
-2.6892587486
 10
24.1679747889
 20
-2.7108339522
  0
LINE
  5
58C
100
AcDbEntity
  8
0
100
AcDbLine
 62
7
  6
CONTINUOUS
 10
-15.052708
 20
-27.3564063301
 11
-16.074773
 21
-27.7867659318
  0
LINE
  5
58D
100
AcDbEntity
  8
0
100
AcDbLine
 62
7
  6
CONTINUOUS
 10
-18.306991
 20
-28.7755897858
 11
-19.375444
 21
-29.2254820923
  0
LINE
  5
58E
100
AcDbEntity
  8
0
100
AcDbLine
 62
7
  6
CONTINUOUS
 10
-18.306991
 20
-28.8103194214
 11
-19.375444
 21
-29.2602117278
  0
LINE
  5
58F
100
AcDbEntity
  8
0
100
AcDbLine
 62
7
  6
CONTINUOUS
 10
-13.964844
 20
-30.2012367064
 11
-14.476813
 21
-30.4168102649
  0
LINE
  5
590
100
AcDbEntity
  8
0
100
AcDbLine
 62
7
  6
CONTINUOUS
 10
-13.964844
 20
-30.235966342
 11
-14.476813
 21
-30.4515399004
  0
LINE
  5
591
100
AcDbEntity
  8
0
100
AcDbLine
 62
7
  6
CONTINUOUS
 10
-12.509215
 20
-29.9742635744
 11
-11.5470633204
 21
-29.5691313287
  0
LINE
  5
592
100
AcDbEntity
  8
0
100
AcDbLine
 62
7
  6
CONTINUOUS
 10
-14.6043628905
 20
-30.8564648276
 11
-13.016228
 21
-30.1877509935
  0
LWPOLYLINE
  5
593
100
AcDbEntity
  8
RACCORDO
100
AcDbPolyline
 62
7
  6
CONTINUOUS
 90
12
 70
0
 10
12.7692084511
 20
22.3527564198
 10
12.7408152518
 20
22.3506350337
 10
12.7086136113
 20
22.3441992547
 10
12.6775235271
 20
22.333595023
 10
12.6480802628
 20
22.3190000932
 10
12.6207973961
 20
22.3006639575
 10
12.5961555856
 20
22.2789071869
 10
12.5745387329
 20
22.2540502404
 10
12.5563775789
 20
22.2265672779
 10
12.5420702028
 20
22.1971383142
 10
12.531803556
 20
22.1663755683
 10
12.5257532904
 20
22.1356718039
  0
LINE
  5
594
100
AcDbEntity
  8
RACCORDO
100
AcDbLine
 62
250
  6
CONTINUOUS
 10
12.7735720626
 20
22.3527951665
 11
12.7692084511
 21
22.3527564198
  0
LINE
  5
595
100
AcDbEntity
  8
ASSI
100
AcDbLine
 62
7
  6
CONTINUOUS
 10
40.8
 20
20.0
 11
38.3407181432
 21
20.0
  0
LINE
  5
596
100
AcDbEntity
  8
ASSI
100
AcDbLine
 62
7
  6
CONTINUOUS
 10
-38.3407181432
 20
20.0
 11
-40.8
 21
20.0
  0
LINE
  5
597
100
AcDbEntity
  8
RACCORDO
100
AcDbLine
 62
250
  6
CONTINUOUS
 10
21.7838362558
 20
22.1028332427
 11
12.5235815819
 21
22.1028332427
  0
LINE
  5
598
100
AcDbEntity
  8
RACCORDO
100
AcDbLine
 62
250
  6
CONTINUOUS
 10
-12.5235815819
 20
22.1028332427
 11
-21.7838362558
 21
22.1028332427
  0
LINE
  5
599
100
AcDbEntity
  8
RACCORDO
100
AcDbLine
 62
250
  6
CONTINUOUS
 10
21.533845775
 20
22.3527951665
 11
12.7735720626
 21
22.3527951665
  0
LINE
  5
59A
100
AcDbEntity
  8
RACCORDO
100
AcDbLine
 62
250
  6
CONTINUOUS
 10
-12.7735720626
 20
22.3527951665
 11
-21.533845775
 21
22.3527951665
  0
LINE
  5
59B
100
AcDbEntity
  8
DRAFT
100
AcDbLine
 62
7
  6
CONTINUOUS
 10
-25.0
 20
22.3677081299
 11
-24.0
 21
22.3677081299
  0
LINE
  5
59C
100
AcDbEntity
  8
DRAFT
100
AcDbLine
 62
7
  6
CONTINUOUS
 10
24.0
 20
22.3677081299
 11
25.0
 21
22.3677081299
  0
LINE
  5
59D
100
AcDbEntity
  8
RACCORDO
100
AcDbLine
 62
7
  6
CONTINUOUS
 10
-24.0
 20
22.3851631948
 11
-21.5500285566
 21
22.3851631948
  0
LINE
  5
59E
100
AcDbEntity
  8
RACCORDO
100
AcDbLine
 62
7
  6
CONTINUOUS
 10
21.5500285566
 20
22.3851631948
 11
24.0
 21
22.3851631948
  0
LINE
  5
59F
100
AcDbEntity
  8
RACCORDO
100
AcDbLine
 62
7
  6
CONTINUOUS
 10
25.0
 20
22.4
 11
12.7499714434
 21
22.4
  0
LINE
  5
5A0
100
AcDbEntity
  8
RACCORDO
100
AcDbLine
 62
7
  6
CONTINUOUS
 10
-12.7499714434
 20
22.4
 11
-25.0
 21
22.4
  0
LINE
  5
5A1
100
AcDbEntity
  8
DRAFT
100
AcDbLine
 62
7
  6
CONTINUOUS
 10
12.5
 20
22.5
 11
8.1
 21
22.5
  0
LINE
  5
5A2
100
AcDbEntity
  8
DRAFT
100
AcDbLine
 62
7
  6
CONTINUOUS
 10
-8.1
 20
22.5
 11
-12.5
 21
22.5
  0
LWPOLYLINE
  5
5A3
100
AcDbEntity
  8
RACCORDO
100
AcDbPolyline
 62
250
  6
CONTINUOUS
 90
13
 70
0
 10
-12.7735720626
 20
22.3527951665
 10
-12.7409449023
 20
22.3506521531
 10
-12.7088758937
 20
22.3442697105
 10
-12.6779136401
 20
22.3337570229
 10
-12.6485878118
 20
22.3192939304
 10
-12.6214000845
 20
22.3011278527
 10
-12.5968155579
 20
22.2795695562
 10
-12.5752547984
 20
22.2549878378
 10
-12.5570866453
 20
22.2278032163
 10
-12.5426219005
 20
22.1984807379
 10
-12.5321080118
 20
22.1675220212
 10
-12.5257248401
 20
22.1354566759
 10
-12.5235815819
 20
22.1028332427
  0
LINE
  5
5A4
100
AcDbEntity
  8
RACCORDO
100
AcDbLine
 62
250
  6
CONTINUOUS
 10
24.4337640632
 20
2.8477017032
 11
24.4208954613
 21
2.8710991613
  0
LWPOLYLINE
  5
5A5
100
AcDbEntity
  8
0
100
AcDbPolyline
 62
7
  6
CONTINUOUS
 90
10
 70
0
 43
0.3500000006
 10
0.5402851692
 20
45.9500001068
 10
0.6117136967
 20
45.8071422729
 10
0.6117136967
 20
45.7357156219
 10
0.468856571
 20
45.5928577881
 10
0.3974280081
 20
45.5928577881
 10
0.3259994452
 20
45.6642844391
 10
0.3259994452
 20
45.7357156219
 10
0.3974280081
 20
45.8785734558
 10
0.468856571
 20
45.9500001068
 10
0.5402851692
 20
45.9500001068
  0
LINE
  5
5A6
100
AcDbEntity
  8
RACCORDO
100
AcDbLine
 62
250
  6
CONTINUOUS
 10
12.5
 20
22.1499999985
 11
12.5235815819
 21
22.1028332427
  0
LINE
  5
5A7
100
AcDbEntity
  8
RACCORDO
100
AcDbLine
 62
250
  6
CONTINUOUS
 10
12.7499714434
 20
22.4
 11
12.7735720626
 21
22.3527951665
  0
LINE
  5
5A8
100
AcDbEntity
  8
0
100
AcDbLine
 62
7
  6
CONTINUOUS
 10
12.743014
 20
28.2254555205
 11
12.163653
 21
29.7772096171
  0
LINE
  5
5A9
100
AcDbEntity
  8
0
100
AcDbLine
 62
7
  6
CONTINUOUS
 10
12.348604
 20
28.6771982937
 11
12.506899
 21
28.2254555205
  0
LINE
  5
5AA
100
AcDbEntity
  8
0
100
AcDbLine
 62
7
  6
CONTINUOUS
 10
12.032168
 20
29.5521412633
 11
12.270531
 21
28.8630654597
  0
LWPOLYLINE
  5
5AB
100
AcDbEntity
  8
0
100
AcDbPolyline
 62
7
  6
CONTINUOUS
 90
14
 70
0
 10
16.5319671505
 20
29.4270350716
 10
16.5255926238
 20
29.4562970711
 10
16.5160107604
 20
29.4840930201
 10
16.5032220698
 20
29.5102204261
 10
16.4872280796
 20
29.5340718112
 10
16.4678896774
 20
29.5556240961
 10
16.4453459757
 20
29.5749003601
 10
16.4200158396
 20
29.5913623639
 10
16.3917123415
 20
29.6047341114
 10
16.3606224091
 20
29.6152915987
 10
16.3277256908
 20
29.6233245741
 10
16.293348736
 20
29.6289296205
 10
16.2571649954
 20
29.6320101549
 10
16.219174469
 20
29.6325661776
  0
LWPOLYLINE
  5
5AC
100
AcDbEntity
  8
0
100
AcDbPolyline
 62
7
  6
CONTINUOUS
 90
15
 70
0
 10
21.2311819247
 20
29.1067810344
 10
21.2252416775
 20
29.174010504
 10
21.2147734598
 20
29.2377510714
 10
21.1998660165
 20
29.2985527432
 10
21.1804306027
 20
29.3558655127
 10
21.1562009834
 20
29.4080393596
 10
21.1267336111
 20
29.4546219773
 10
21.0924720333
 20
29.4960656723
 10
21.0544806581
 20
29.5320773437
 10
21.0129831089
 20
29.5625934575
 10
20.9677557622
 20
29.5876775477
 10
20.9191921553
 20
29.6072271147
 10
20.8674234672
 20
29.6212079922
 10
20.812318519
 20
29.6296543464
 10
20.7538773104
 20
29.6325661776
  0
LINE
  5
5AD
100
AcDbEntity
  8
0
100
AcDbLine
 62
7
  6
CONTINUOUS
 10
21.4540655424
 20
29.0789949453
 11
21.4480269674
 21
29.1533302194
  0
LWPOLYLINE
  5
5AE
100
AcDbEntity
  8
RACCORDO
100
AcDbPolyline
 62
7
  6
CONTINUOUS
 90
7
 70
0
 10
23.7000001516
 20
2.9593849864
 10
23.7031198027
 20
2.9162359851
 10
23.7124138226
 20
2.8739843769
 10
23.7276889188
 20
2.8335088896
 10
23.7486274076
 20
2.7956513126
 10
23.7747938205
 20
2.7611989888
 10
23.7844313076
 20
2.7507580911
  0
LINE
  5
5AF
100
AcDbEntity
  8
RACCORDO
100
AcDbLine
 62
250
  6
CONTINUOUS
 10
21.7838362558
 20
22.1028332427
 11
21.7816645472
 21
22.1356718039
  0
LINE
  5
5B0
100
AcDbEntity
  8
RACCORDO
100
AcDbLine
 62
7
  6
CONTINUOUS
 10
23.7023970239
 20
2.9173542206
 11
23.7
 21
2.9541170697
  0
LINE
  5
5B1
100
AcDbEntity
  8
RACCORDO
100
AcDbLine
 62
250
  6
CONTINUOUS
 10
24.1681813329
 20
2.7056781562
 11
24.1679747889
 21
2.7108339522
  0
LINE
  5
5B2
100
AcDbEntity
  8
RACCORDO
100
AcDbLine
 62
7
  6
CONTINUOUS
 10
23.7
 20
7.75
 11
23.7
 21
2.9593849864
  0
LINE
  5
5B3
100
AcDbEntity
  8
RACCORDO
100
AcDbLine
 62
7
  6
CONTINUOUS
 10
23.7
 20
-2.9593849864
 11
23.7
 21
-7.75
  0
LINE
  5
5B4
100
AcDbEntity
  8
DRAFT
100
AcDbLine
 62
7
  6
CONTINUOUS
 10
24.0
 20
22.3677081299
 11
24.0
 21
7.75
  0
LINE
  5
5B5
100
AcDbEntity
  8
DRAFT
100
AcDbLine
 62
7
  6
CONTINUOUS
 10
24.0
 20
-7.75
 11
24.0
 21
-22.3677081299
  0
LINE
  5
5B6
100
AcDbEntity
  8
RACCORDO
100
AcDbLine
 62
250
  6
CONTINUOUS
 10
24.7
 20
7.75
 11
24.7
 21
3.3683969859
  0
LINE
  5
5B7
100
AcDbEntity
  8
RACCORDO
100
AcDbLine
 62
250
  6
CONTINUOUS
 10
24.7
 20
-3.3683969859
 11
24.7
 21
-7.75
  0
LINE
  5
5B8
100
AcDbEntity
  8
0
100
AcDbLine
 62
7
  6
CONTINUOUS
 10
24.8573050553
 20
-0.35
 11
24.8573050553
 21
-0.0726172387
  0
LINE
  5
5B9
100
AcDbEntity
  8
0
100
AcDbLine
 62
7
  6
CONTINUOUS
 10
24.8573050553
 20
0.0726172387
 11
24.8573050553
 21
0.35
  0
LINE
  5
5BA
100
AcDbEntity
  8
DRAFT
100
AcDbLine
 62
7
  6
CONTINUOUS
 10
25.0
 20
33.7418713663
 11
25.0
 21
22.3677081299
  0
LINE
  5
5BB
100
AcDbEntity
  8
DRAFT
100
AcDbLine
 62
7
  6
CONTINUOUS
 10
25.0
 20
-22.3677081299
 11
25.0
 21
-33.7418713663
  0
LINE
  5
5BC
100
AcDbEntity
  8
0
100
AcDbLine
 62
7
  6
CONTINUOUS
 10
25.5
 20
-2.6329543503
 11
25.5
 21
-0.5860176963
  0
LINE
  5
5BD
100
AcDbEntity
  8
0
100
AcDbLine
 62
7
  6
CONTINUOUS
 10
25.5
 20
0.5860176963
 11
25.5
 21
2.6329543503
  0
LINE
  5
5BE
100
AcDbEntity
  8
0
100
AcDbLine
 62
7
  6
CONTINUOUS
 10
25.65
 20
-1.4917020703
 11
25.65
 21
-1.0901949367
  0
LINE
  5
5BF
100
AcDbEntity
  8
0
100
AcDbLine
 62
7
  6
CONTINUOUS
 10
25.65
 20
1.0901949367
 11
25.65
 21
1.4917020703
  0
LINE
  5
5C0
100
AcDbEntity
  8
0
100
AcDbLine
 62
7
  6
CONTINUOUS
 10
26.35
 20
-1.4917020703
 11
26.35
 21
-1.0901949367
  0
LINE
  5
5C1
100
AcDbEntity
  8
0
100
AcDbLine
 62
7
  6
CONTINUOUS
 10
26.35
 20
1.0901949367
 11
26.35
 21
1.4917020703
  0
LINE
  5
5C2
100
AcDbEntity
  8
0
100
AcDbLine
 62
7
  6
CONTINUOUS
 10
26.5
 20
2.6329543503
 11
26.5
 21
0.5860176963
  0
LINE
  5
5C3
100
AcDbEntity
  8
0
100
AcDbLine
 62
7
  6
CONTINUOUS
 10
26.5
 20
-0.5860176963
 11
26.5
 21
-2.6329543503
  0
LWPOLYLINE
  5
5C4
100
AcDbEntity
  8
0
100
AcDbPolyline
 62
7
  6
CONTINUOUS
 90
10
 70
0
 10
24.0523570524
 20
0.35
 10
24.0507888594
 20
0.2723539704
 10
24.0496127146
 20
0.1946420669
 10
24.0488286181
 20
0.1168642894
 10
24.0484365699
 20
0.0389767221
 10
24.0484365699
 20
-0.0389767192
 10
24.0488286181
 20
-0.1168642868
 10
24.0496127146
 20
-0.1946420649
 10
24.0507888594
 20
-0.2723539693
 10
24.0523570524
 20
-0.35
  0
LINE
  5
5C5
100
AcDbEntity
  8
RACCORDO
100
AcDbLine
 62
250
  6
CONTINUOUS
 10
24.1679747889
 20
-2.7108339522
 11
24.1681813329
 21
-2.7056781562
  0
LWPOLYLINE
  5
5C6
100
AcDbEntity
  8
RACCORDO
100
AcDbPolyline
 62
7
  6
CONTINUOUS
 90
10
 70
0
 10
23.7
 20
-2.9541170697
 10
23.7023970239
 20
-2.9173542206
 10
23.7088245528
 20
-2.8820791467
 10
23.7192825867
 20
-2.8482918479
 10
23.7340445631
 20
-2.8155353749
 10
23.7528370445
 20
-2.7842666771
 10
23.7748397181
 20
-2.7558566029
 10
23.8001757362
 20
-2.7304525442
 10
23.8287219466
 20
-2.7079071093
 10
23.8592885806
 20
-2.689148971
  0
LWPOLYLINE
  5
5C7
100
AcDbEntity
  8
RACCORDO
100
AcDbPolyline
 62
250
  6
CONTINUOUS
 90
13
 70
0
 10
21.7838362558
 20
-22.1028332427
 10
21.7816929976
 20
-22.1354566759
 10
21.7753098258
 20
-22.1675220212
 10
21.7647959371
 20
-22.1984807379
 10
21.7503311923
 20
-22.2278032163
 10
21.7321630392
 20
-22.2549878378
 10
21.7106022798
 20
-22.2795695562
 10
21.6860177531
 20
-22.3011278527
 10
21.6588300258
 20
-22.3192939304
 10
21.6295041975
 20
-22.3337570229
 10
21.5985419439
 20
-22.3442697105
 10
21.5664729353
 20
-22.3506521531
 10
21.533845775
 20
-22.3527951665
  0
LWPOLYLINE
  5
5C8
100
AcDbEntity
  8
RACCORDO
100
AcDbPolyline
 62
7
  6
CONTINUOUS
 90
6
 70
0
 10
23.7
 20
-2.9593849864
 10
23.7031196279
 20
-2.9162359646
 10
23.7124136309
 20
-2.8739843354
 10
23.727688717
 20
-2.8335088278
 10
23.7486272022
 20
-2.7956512321
 10
23.7709870627
 20
-2.7656095782
  0
LINE
  5
5C9
100
AcDbEntity
  8
0
100
AcDbLine
 62
7
  6
CONTINUOUS
 10
25.4802765158
 20
0.5197234842
 11
25.65
 21
1.0901949367
  0
LINE
  5
5CA
100
AcDbEntity
  8
0
100
AcDbLine
 62
7
  6
CONTINUOUS
 10
26.35
 20
-1.0901949367
 11
26.5197234842
 21
-0.5197234842
  0
LINE
  5
5CB
100
AcDbEntity
  8
0
100
AcDbLine
 62
7
  6
CONTINUOUS
 10
17.165448
 20
-27.9481760744
 11
16.138
 21
-31.0518316843
  0
LINE
  5
5CC
100
AcDbEntity
  8
0
100
AcDbLine
 62
7
  6
CONTINUOUS
 10
16.778024
 20
-31.0518239256
 11
16.98008
 21
-30.4414724867
  0
LINE
  5
5CD
100
AcDbEntity
  8
0
100
AcDbLine
 62
7
  6
CONTINUOUS
 10
17.1753082474
 20
-29.8517456699
 11
17.4854940054
 21
-28.9147662003
  0
LWPOLYLINE
  5
5CE
100
AcDbEntity
  8
RACCORDO
100
AcDbPolyline
 62
250
  6
CONTINUOUS
 90
16
 70
0
 10
24.0947504969
 20
-3.1339539249
 10
24.1081233546
 20
-3.1000484918
 10
24.1240778264
 20
-3.0666634494
 10
24.1423690384
 20
-3.0343112012
 10
24.1627162516
 20
-3.0034882992
 10
24.184807171
 20
-2.9746678223
 10
24.2083027385
 20
-2.9482921158
 10
24.2328423371
 20
-2.9247660018
 10
24.2580493259
 20
-2.9044505661
 10
24.2835368205
 20
-2.887657616
 10
24.3089136313
 20
-2.8746448947
 10
24.3337902674
 20
-2.8656121253
 10
24.357784915
 20
-2.8606979453
 10
24.380529297
 20
-2.8599777791
 10
24.4016743259
 20
-2.86346268
 10
24.4208954616
 20
-2.8710991607
  0
LINE
  5
5CF
100
AcDbEntity
  8
RACCORDO
100
AcDbLine
 62
250
  6
CONTINUOUS
 10
24.7
 20
-3.3683969859
 11
24.8445701199
 21
-3.1055422223
  0
LINE
  5
5D0
100
AcDbEntity
  8
RACCORDO
100
AcDbLine
 62
7
  6
CONTINUOUS
 10
30.0866025404
 20
5.4
 11
30.1443381532
 21
5.5000010148
  0
LWPOLYLINE
  5
5D1
100
AcDbEntity
  8
RACCORDO
100
AcDbPolyline
 62
250
  6
CONTINUOUS
 90
12
 70
0
 10
21.7518139026
 20
-16.7552054488
 10
21.7494157981
 20
-16.7564856127
 10
21.742828171
 20
-16.7577441144
 10
21.7321624909
 20
-16.7589596587
 10
21.7175992323
 20
-16.7601116774
 10
21.6993848207
 20
-16.761180677
 10
21.6778274631
 20
-16.7621485691
 10
21.6532919327
 20
-16.7629989757
 10
21.6261933962
 20
-16.7637175072
 10
21.5969903895
 20
-16.7642920052
 10
21.5661770579
 20
-16.7647127487
 10
21.5342747955
 20
-16.7649726181
  0
LINE
  5
5D2
100
AcDbEntity
  8
0
100
AcDbLine
 62
7
  6
CONTINUOUS
 10
-11.098581
 20
-29.8746768457
 11
-12.658387
 21
-30.5314625862
  0
LINE
  5
5D3
100
AcDbEntity
  8
0
100
AcDbLine
 62
7
  6
CONTINUOUS
 10
-13.165401
 20
-30.7449500053
 11
-14.2104482694
 21
-31.184986847
  0
LINE
  5
5D4
100
AcDbEntity
  8
0
100
AcDbLine
 62
7
  6
CONTINUOUS
 10
-11.098581
 20
-29.9094064812
 11
-12.658387
 21
-30.5661922217
  0
LINE
  5
5D5
100
AcDbEntity
  8
0
100
AcDbLine
 62
7
  6
CONTINUOUS
 10
-13.165401
 20
-30.7796796408
 11
-14.2104482694
 21
-31.2197164825
  0
LINE
  5
5D6
100
AcDbEntity
  8
0
100
AcDbLine
 62
7
  6
CONTINUOUS
 10
-11.704358
 20
-30.4746955419
 11
-11.202663
 21
-30.263447498
  0
LINE
  5
5D7
100
AcDbEntity
  8
DRAFT
100
AcDbLine
 62
7
  6
CONTINUOUS
 10
25.0
 20
23.25
 11
8.1
 21
23.25
  0
LINE
  5
5D8
100
AcDbEntity
  8
RACCORDO
100
AcDbLine
 62
7
  6
CONTINUOUS
 10
8.1
 20
23.25
 11
7.0499695385
 21
23.25
  0
LINE
  5
5D9
100
AcDbEntity
  8
RACCORDO
100
AcDbLine
 62
7
  6
CONTINUOUS
 10
-7.0499695385
 20
23.25
 11
-8.1
 21
23.25
  0
LINE
  5
5DA
100
AcDbEntity
  8
DRAFT
100
AcDbLine
 62
7
  6
CONTINUOUS
 10
-8.1
 20
23.25
 11
-25.0
 21
23.25
  0
LINE
  5
5DB
100
AcDbEntity
  8
DRAFT
100
AcDbLine
 62
7
  6
CONTINUOUS
 10
1.6
 20
23.3
 11
4.2
 21
23.3
  0
LINE
  5
5DC
100
AcDbEntity
  8
DRAFT
100
AcDbLine
 62
7
  6
CONTINUOUS
 10
-1.6
 20
23.3
 11
-4.2
 21
23.3
  0
LINE
  5
5DD
100
AcDbEntity
  8
DRAFT
100
AcDbLine
 62
7
  6
CONTINUOUS
 10
6.2483867611
 20
24.2983867611
 11
3.0360843667
 21
24.2983867611
  0
LINE
  5
5DE
100
AcDbEntity
  8
DRAFT
100
AcDbLine
 62
7
  6
CONTINUOUS
 10
-3.0360843667
 20
24.2983867611
 11
-6.2483867611
 21
24.2983867611
  0
LINE
  5
5DF
100
AcDbEntity
  8
DRAFT
100
AcDbLine
 62
7
  6
CONTINUOUS
 10
-1.6
 20
24.3344711278
 11
1.6
 21
24.3344711278
  0
LINE
  5
5E0
100
AcDbEntity
  8
RACCORDO
100
AcDbLine
 62
7
  6
CONTINUOUS
 10
-2.0086887894
 20
25.9546029997
 11
2.0086887894
 21
25.9546029997
  0
LINE
  5
5E1
100
AcDbEntity
  8
DRAFT
100
AcDbLine
 62
7
  6
CONTINUOUS
 10
3.038702779
 20
26.0
 11
-3.038702779
 21
26.0
  0
LINE
  5
5E2
100
AcDbEntity
  8
RACCORDO
100
AcDbLine
 62
250
  6
CONTINUOUS
 10
2.2
 20
26.385611488
 11
-2.2
 21
26.385611488
  0
LINE
  5
5E3
100
AcDbEntity
  8
RACCORDO
100
AcDbLine
 62
250
  6
CONTINUOUS
 10
-38.3407181432
 20
26.7
 11
-40.0
 21
26.7
  0
LINE
  5
5E4
100
AcDbEntity
  8
RACCORDO
100
AcDbLine
 62
250
  6
CONTINUOUS
 10
38.3407181432
 20
26.7
 11
40.0
 21
26.7
  0
LINE
  5
5E5
100
AcDbEntity
  8
RACCORDO
100
AcDbLine
 62
7
  6
CONTINUOUS
 10
2.2
 20
26.7376945183
 11
-2.2
 21
26.7376945183
  0
LINE
  5
5E6
100
AcDbEntity
  8
DRAFT
100
AcDbLine
 62
7
  6
CONTINUOUS
 10
-2.2
 20
26.75
 11
2.2
 21
26.75
  0
LWPOLYLINE
  5
5E7
100
AcDbEntity
  8
0
100
AcDbPolyline
 62
7
  6
CONTINUOUS
 90
21
 70
0
 10
-13.793386
 20
26.501677758
 10
-13.9823614801
 20
26.5024778199
 10
-14.1680606665
 20
26.5178932455
 10
-14.3504835594
 20
26.5479240346
 10
-14.5308058362
 20
26.5929683027
 10
-14.7078518194
 20
26.6526279344
 10
-14.8780944765
 20
26.7257085838
 10
-15.0414267336
 20
26.8124899145
 10
-15.1979556646
 20
26.9126922629
 10
-15.344475459
 20
27.0242822928
 10
-15.4808352732
 20
27.1476207923
 10
-15.6071859509
 20
27.2823469733
 10
-15.7207742129
 20
27.4253451359
 10
-15.82118073
 20
27.5766244019
 10
-15.9088248315
 20
27.7361756496
 10
-15.9822112263
 20
27.9008558134
 10
-16.0410997125
 20
28.0708070876
 10
-16.0857304919
 20
28.245887278
 10
-16.1153288793
 20
28.4225267372
 10
-16.129605891
 20
28.6006786012
 10
-16.1313066376
 20
28.6819110527
  0
LWPOLYLINE
  5
5E8
100
AcDbEntity
  8
0
100
AcDbPolyline
 62
7
  6
CONTINUOUS
 90
21
 70
0
 10
-13.793386
 20
26.5364073935
 10
-13.9823615196
 20
26.537207461
 10
-14.1680607355
 20
26.5526228927
 10
-14.3504836476
 20
26.5826536884
 10
-14.5308059305
 20
26.6276979637
 10
-14.7078519095
 20
26.6873576032
 10
-14.8780945614
 20
26.76043826
 10
-15.041426815
 20
26.8472195974
 10
-15.1979557414
 20
26.9474219521
 10
-15.3444755308
 20
27.0590119879
 10
-15.4808353395
 20
27.1823504928
 10
-15.6071860113
 20
27.3170766789
 10
-15.7207742672
 20
27.4600748462
 10
-15.821180778
 20
27.6113541167
 10
-15.9088248729
 20
27.7709053684
 10
-15.9822112608
 20
27.9355855361
 10
-16.0410997397
 20
28.1055368136
 10
-16.0857305117
 20
28.280617007
 10
-16.1153288912
 20
28.4572564692
 10
-16.1296058948
 20
28.6354083364
 10
-16.1305798299
 20
28.6819262697
  0
LWPOLYLINE
  5
5E9
100
AcDbEntity
  8
RACCORDO
100
AcDbPolyline
 62
250
  6
CONTINUOUS
 90
46
 70
0
 10
-2.2
 20
26.7376945183
 10
-2.4273957804
 20
26.7456153873
 10
-2.6535035306
 20
26.769315567
 10
-2.8772346024
 20
26.8086416239
 10
-3.09747432
 20
26.8633529696
 10
-3.313214881
 20
26.9331554519
 10
-3.5235505122
 20
27.0177320716
 10
-3.7274481787
 20
27.1166523378
 10
-3.9239611665
 20
27.2294422329
 10
-4.1123287688
 20
27.3556829293
 10
-4.2916400984
 20
27.4948093652
 10
-4.4609927834
 20
27.6461700748
 10
-4.6196525963
 20
27.8091851471
 10
-4.7668394301
 20
27.983163319
 10
-4.9017392618
 20
28.1672627603
 10
-5.0236222432
 20
28.360611231
 10
-5.1318462822
 20
28.5623192513
 10
-5.2258090229
 20
28.7714113265
 10
-5.3049544304
 20
28.9868031759
 10
-5.3688536027
 20
29.2074754481
 10
-5.4171341594
 20
29.4323272998
 10
-5.4494861749
 20
29.6600882667
 10
-5.4657361827
 20
29.8896211816
 10
-5.4657924094
 20
30.119799338
 10
-5.4496504526
 20
30.3493428098
 10
-5.4174047119
 20
30.5771243238
 10
-5.3692315461
 20
30.8020068188
 10
-5.3054330434
 20
31.0227169408
 10
-5.2263858282
 20
31.238149963
 10
-5.1325217936
 20
31.447289681
 10
-5.0243869579
 20
31.6490554283
 10
-4.9025866635
 20
31.8424689918
 10
-4.7677656609
 20
32.0266416321
 10
-4.6206414293
 20
32.2007050431
 10
-4.4620320651
 20
32.3638121301
 10
-4.2927182866
 20
32.5152727248
 10
-4.1134138592
 20
32.6545137091
 10
-3.9250161547
 20
32.7808813599
 10
-3.7284433643
 20
32.8938016524
 10
-3.5244536487
 20
32.9928477209
 10
-3.3139929318
 20
33.0775417867
 10
-3.098102781
 20
33.1474475978
 10
-2.8777032457
 20
33.2022391502
 10
-2.6538116336
 20
33.2416202246
 10
-2.4275456903
 20
33.2653529703
 10
-2.2
 20
33.2732855674
  0
LWPOLYLINE
  5
5EA
100
AcDbEntity
  8
RACCORDO
100
AcDbPolyline
 62
250
  6
CONTINUOUS
 90
46
 70
0
 10
-2.2
 20
26.385611488
 10
-2.4491325066
 20
26.3944894937
 10
-2.6948236142
 20
26.4201453488
 10
-2.9370733228
 20
26.4625790535
 10
-3.177059505
 20
26.522167337
 10
-3.4136042883
 20
26.59853347
 10
-3.6431740545
 20
26.6905472649
 10
-3.8655606081
 20
26.7983688548
 10
-4.0809721447
 20
26.9218381067
 10
-4.2864996339
 20
27.0593444337
 10
-4.4820601408
 20
27.2110645261
 10
-4.6677366003
 20
27.3768216935
 10
-4.8408687864
 20
27.5544752778
 10
-5.0013514632
 20
27.7442486124
 10
-5.1492898665
 20
27.9459183638
 10
-5.2823394782
 20
28.1566738733
 10
-5.4002930989
 20
28.3766984458
 10
-5.5033579279
 20
28.6058087763
 10
-5.5898110452
 20
28.840644291
 10
-5.6593855147
 20
29.0813451629
 10
-5.7123482725
 20
29.3277712188
 10
-5.7477772065
 20
29.5761413657
 10
-5.7653662895
 20
29.826485532
 10
-5.7654215487
 20
30.0787737892
 10
-5.7479389531
 20
30.3291352585
 10
-5.7126102514
 20
30.5775445855
 10
-5.6597436948
 20
30.8240271247
 10
-5.590260006
 20
31.064788061
 10
-5.5038916612
 20
31.2996830108
 10
-5.4009061842
 20
31.5288563578
 10
-5.2830268692
 20
31.7489464377
 10
-5.1500483948
 20
31.9597685579
 10
-5.0021760824
 20
32.1615074111
 10
-4.8417491901
 20
32.3513554109
 10
-4.6686663055
 20
32.5290892135
 10
-4.4830288411
 20
32.6949321626
 10
-4.2874802923
 20
32.8467467026
 10
-4.0819315409
 20
32.9843627278
 10
-3.8664717052
 20
33.1079503439
 10
-3.6440116359
 20
33.2158823125
 10
-3.4143389505
 20
33.3079966413
 10
-3.1776660315
 20
33.3844553225
 10
-2.9375408771
 20
33.4441170943
 10
-2.6951461534
 20
33.486601536
 10
-2.4492991944
 20
33.5122890683
 10
-2.2
 20
33.521179691
  0
LWPOLYLINE
  5
5EB
100
AcDbEntity
  8
RACCORDO
100
AcDbPolyline
 62
250
  6
CONTINUOUS
 90
13
 70
0
 10
21.7518139026
 20
16.7552054488
 10
21.7494158755
 20
16.756485616
 10
21.7428283104
 20
16.7577441214
 10
21.7321626764
 20
16.7589596696
 10
21.7175994477
 20
16.7601116923
 10
21.6993850502
 20
16.7611806959
 10
21.6778276916
 20
16.7621485917
 10
21.6532921464
 20
16.7629990018
 10
21.6261935829
 20
16.7637175364
 10
21.5969905389
 20
16.7642920371
 10
21.5661771621
 20
16.7647127826
 10
21.534274849
 20
16.7649726536
 10
21.5018234218
 20
16.7650672526
  0
LINE
  5
5EC
100
AcDbEntity
  8
RACCORDO
100
AcDbLine
 62
7
  6
CONTINUOUS
 10
30.0866025404
 20
-5.4
 11
30.1443369349
 21
-5.4999989046
  0
LINE
  5
5ED
100
AcDbEntity
  8
RACCORDO
100
AcDbLine
 62
250
  6
CONTINUOUS
 10
24.7
 20
3.3683969859
 11
24.8445701199
 21
3.1055422223
  0
LWPOLYLINE
  5
5EE
100
AcDbEntity
  8
RACCORDO
100
AcDbPolyline
 62
250
  6
CONTINUOUS
 90
16
 70
0
 10
24.0947505437
 20
3.1339539249
 10
24.1081233803
 20
3.1000484957
 10
24.1240778318
 20
3.0666634586
 10
24.1423690245
 20
3.0343112164
 10
24.1627162202
 20
3.0034883206
 10
24.1848071242
 20
2.9746678498
 10
24.2083026789
 20
2.9482921486
 10
24.2328422679
 20
2.9247660389
 10
24.2580492506
 20
2.904450606
 10
24.2835367429
 20
2.8876576569
 10
24.3089135556
 20
2.8746449345
 10
24.3337901979
 20
2.8656121618
 10
24.3577848561
 20
2.8606979763
 10
24.3805292533
 20
2.8599778022
 10
24.4016743018
 20
2.8634626929
 10
24.4208954613
 20
2.8710991613
  0
LINE
  5
5EF
100
AcDbEntity
  8
0
100
AcDbLine
 62
7
  6
CONTINUOUS
 10
25.65
 20
-1.0901949367
 11
25.4802765158
 21
-0.5197234842
  0
LINE
  5
5F0
100
AcDbEntity
  8
0
100
AcDbLine
 62
7
  6
CONTINUOUS
 10
26.5197234842
 20
0.5197234842
 11
26.35
 21
1.0901949367
  0
LWPOLYLINE
  5
5F1
100
AcDbEntity
  8
RACCORDO
100
AcDbPolyline
 62
7
  6
CONTINUOUS
 90
3
 70
0
 10
21.7816645472
 20
22.1356718039
 10
21.7756142816
 20
22.1663755683
 10
21.7653476348
 20
22.1971383142
  0
LWPOLYLINE
  5
5F2
100
AcDbEntity
  8
0
100
AcDbPolyline
 62
7
  6
CONTINUOUS
 90
17
 70
0
 10
21.4480269674
 20
29.1533302194
 10
21.4368648555
 20
29.2243388491
 10
21.4200985942
 20
29.2924487332
 10
21.398208796
 20
29.3572319729
 10
21.3726372983
 20
29.4174048719
 10
21.3439370274
 20
29.4725200496
 10
21.311555057
 20
29.5230248867
 10
21.2752744452
 20
29.5689778288
 10
21.2349813877
 20
29.6103421258
 10
21.1907896888
 20
29.6471545279
 10
21.1428238205
 20
29.6795837312
 10
21.090873721
 20
29.7078800256
 10
21.0351494521
 20
29.7317931212
 10
20.9764056715
 20
29.7507408455
 10
20.9148939315
 20
29.7645291408
 10
20.8503626798
 20
29.7733520646
 10
20.7828119163
 20
29.7772096171
  0
LINE
  5
5F3
100
AcDbEntity
  8
0
100
AcDbLine
 62
7
  6
CONTINUOUS
 10
27.1426949447
 20
-0.35
 11
27.1426949447
 21
-0.0726172387
  0
LINE
  5
5F4
100
AcDbEntity
  8
0
100
AcDbLine
 62
7
  6
CONTINUOUS
 10
27.1426949447
 20
0.0726172387
 11
27.1426949447
 21
0.35
  0
LINE
  5
5F5
100
AcDbEntity
  8
ASSI
100
AcDbLine
 62
7
  6
CONTINUOUS
 10
28.2
 20
2.0
 11
28.2
 21
1.6494396592
  0
LINE
  5
5F6
100
AcDbEntity
  8
ASSI
100
AcDbLine
 62
7
  6
CONTINUOUS
 10
28.2
 20
-1.6494396592
 11
28.2
 21
-2.0
  0
LINE
  5
5F7
100
AcDbEntity
  8
0
100
AcDbLine
 62
7
  6
CONTINUOUS
 10
28.65
 20
3.1894527801
 11
28.65
 21
0.7337885493
  0
LINE
  5
5F8
100
AcDbEntity
  8
0
100
AcDbLine
 62
7
  6
CONTINUOUS
 10
28.65
 20
-0.7337885493
 11
28.65
 21
-3.1894527801
  0
LINE
  5
5F9
100
AcDbEntity
  8
0
100
AcDbLine
 62
250
  6
CONTINUOUS
 10
28.8
 20
3.3406088205
 11
28.8
 21
-3.3406088205
  0
LINE
  5
5FA
100
AcDbEntity
  8
0
100
AcDbLine
 62
7
  6
CONTINUOUS
 10
28.833113
 20
11.311955
 11
28.833113
 21
10.839734
  0
LINE
  5
5FB
100
AcDbEntity
  8
0
100
AcDbLine
 62
7
  6
CONTINUOUS
 10
28.848534
 20
15.141663
 11
28.848534
 21
14.666846
  0
LINE
  5
5FC
100
AcDbEntity
  8
0
100
AcDbLine
 62
7
  6
CONTINUOUS
 10
29.251602
 20
14.666846
 11
29.251602
 21
13.462838
  0
LINE
  5
5FD
100
AcDbEntity
  8
0
100
AcDbLine
 62
7
  6
CONTINUOUS
 10
29.251602
 20
12.877635
 11
29.251602
 21
11.311955
  0
LINE
  5
5FE
100
AcDbEntity
  8
0
100
AcDbLine
 62
7
  6
CONTINUOUS
 10
29.754665
 20
11.311955
 11
29.754665
 21
12.882916
  0
LINE
  5
5FF
100
AcDbEntity
  8
0
100
AcDbLine
 62
7
  6
CONTINUOUS
 10
29.754665
 20
13.462838
 11
29.754665
 21
14.666846
  0
LINE
  5
600
100
AcDbEntity
  8
RACCORDO
100
AcDbLine
 62
250
  6
CONTINUOUS
 10
30.0
 20
-36.7
 11
30.0
 21
-35.0407181432
  0
LINE
  5
601
100
AcDbEntity
  8
RACCORDO
100
AcDbLine
 62
250
  6
CONTINUOUS
 10
30.0
 20
35.0407181432
 11
30.0
 21
36.7
  0
LINE
  5
602
100
AcDbEntity
  8
0
100
AcDbLine
 62
7
  6
CONTINUOUS
 10
30.15757
 20
14.666846
 11
30.15757
 21
15.141663
  0
LINE
  5
603
100
AcDbEntity
  8
0
100
AcDbLine
 62
7
  6
CONTINUOUS
 10
30.172991
 20
10.839734
 11
30.172991
 21
11.311955
  0
LWPOLYLINE
  5
604
100
AcDbEntity
  8
0
100
AcDbPolyline
 62
7
  6
CONTINUOUS
 90
10
 70
0
 10
27.9476429476
 20
-0.35
 10
27.9492111406
 20
-0.2723539704
 10
27.9503872854
 20
-0.1946420669
 10
27.9511713819
 20
-0.1168642894
 10
27.9515634301
 20
-0.0389767221
 10
27.9515634301
 20
0.0389767192
 10
27.9511713819
 20
0.1168642868
 10
27.9503872854
 20
0.1946420649
 10
27.9492111406
 20
0.2723539693
 10
27.9476429476
 20
0.35
  0
LINE
  5
605
100
AcDbEntity
  8
RACCORDO
100
AcDbLine
 62
250
  6
CONTINUOUS
 10
28.2757248812
 20
-5.3350456705
 11
28.4337640632
 21
-5.0477017032
  0
LINE
  5
606
100
AcDbEntity
  8
RACCORDO
100
AcDbLine
 62
7
  6
CONTINUOUS
 10
29.8556618468
 20
-5.5000010148
 11
29.9133974596
 21
-5.4
  0
LWPOLYLINE
  5
607
100
AcDbEntity
  8
0
100
AcDbPolyline
 62
7
  6
CONTINUOUS
 90
16
 70
0
 10
16.2837095244
 20
28.8803413321
 10
16.3410547712
 20
28.8837290592
 10
16.3951059786
 20
28.8911679409
 10
16.4458631467
 20
28.9026579769
 10
16.493536106
 20
28.9182541308
 10
16.537915026
 20
28.937901439
 10
16.5783704147
 20
28.9614350119
 10
16.6147028602
 20
28.9888823509
 10
16.6471117743
 20
29.0202159545
 10
16.6755659006
 20
29.0551884278
 10
16.7002545481
 20
29.094168007
 10
16.7209884078
 20
29.1367864559
 10
16.7371682966
 20
29.1816916709
 10
16.7485944867
 20
29.2284329506
 10
16.7554667058
 20
29.2774609963
 10
16.7577849541
 20
29.328775808
  0
LWPOLYLINE
  5
608
100
AcDbEntity
  8
0
100
AcDbPolyline
 62
7
  6
CONTINUOUS
 90
4
 70
0
 10
16.2837095244
 20
28.9150709676
 10
16.3410651873
 20
28.9184611321
 10
16.395123381
 20
28.9259019605
 10
16.4458841054
 20
28.9373934527
  0
LWPOLYLINE
  5
609
100
AcDbEntity
  8
0
100
AcDbPolyline
 62
7
  6
CONTINUOUS
 90
16
 70
0
 10
10.7106814943
 20
28.8803413321
 10
10.7680267412
 20
28.8837290592
 10
10.8220779486
 20
28.8911679409
 10
10.8728351167
 20
28.9026579769
 10
10.920508076
 20
28.9182541308
 10
10.964886996
 20
28.937901439
 10
11.0053423847
 20
28.9614350119
 10
11.0416748302
 20
28.9888823509
 10
11.0740837443
 20
29.0202159545
 10
11.1025378706
 20
29.0551884278
 10
11.1272265181
 20
29.094168007
 10
11.1479603778
 20
29.1367864559
 10
11.1641402666
 20
29.1816916709
 10
11.1755664567
 20
29.2284329506
 10
11.1824386758
 20
29.2774609963
 10
11.1847569241
 20
29.328775808
  0
LWPOLYLINE
  5
60A
100
AcDbEntity
  8
0
100
AcDbPolyline
 62
7
  6
CONTINUOUS
 90
4
 70
0
 10
10.7106814943
 20
28.9150709676
 10
10.7680371573
 20
28.9184611321
 10
10.822095351
 20
28.9259019605
 10
10.8728560754
 20
28.9373934527
  0
LWPOLYLINE
  5
60B
100
AcDbEntity
  8
0
100
AcDbPolyline
 62
7
  6
CONTINUOUS
 90
19
 70
0
 10
20.7828052163
 20
28.2254555205
 10
20.8503563322
 20
28.2293048969
 10
20.9149026328
 20
28.2381316942
 10
20.9764441181
 20
28.2519359124
 10
21.0352442284
 20
28.2709162961
 10
21.0910395234
 20
28.2948741007
 10
21.1430396826
 20
28.3232130924
 10
21.1910195729
 20
28.3556829118
 10
21.2352043274
 20
28.3925339183
 10
21.275479025
 20
28.4339209562
 10
21.3117273829
 20
28.4798716489
 10
21.3440656839
 20
28.530358373
 10
21.372727856
 20
28.5854531029
 10
21.3982729662
 20
28.6456094793
 10
21.4201419474
 20
28.7103738614
 10
21.4368915267
 20
28.778457302
 10
21.4480406132
 20
28.8494301519
 10
21.4540702978
 20
28.9237220602
 10
21.4549805805
 20
29.0013330269
  0
LWPOLYLINE
  5
60C
100
AcDbEntity
  8
0
100
AcDbPolyline
 62
7
  6
CONTINUOUS
 90
4
 70
0
 10
20.7828052163
 20
28.260185156
 10
20.8503544244
 20
28.2640343011
 10
20.9148990313
 20
28.2728606268
 10
20.9764390369
 20
28.2866641331
  0
LWPOLYLINE
  5
60D
100
AcDbEntity
  8
0
100
AcDbPolyline
 62
7
  6
CONTINUOUS
 90
16
 70
0
 10
20.753877659
 20
28.4048295655
 10
20.812171955
 20
28.4077118439
 10
20.8671657232
 20
28.4161213516
 10
20.9188589634
 20
28.4300580885
 10
20.9673868994
 20
28.4495465109
 10
21.0126143074
 20
28.4745621624
 10
21.0541355166
 20
28.5050316746
 10
21.092180989
 20
28.541031284
 10
21.1265202626
 20
28.582484754
 10
21.1560562796
 20
28.6290900066
 10
21.180335046
 20
28.681300859
 10
21.199810556
 20
28.7386634939
 10
21.214747734
 20
28.7995143812
 10
21.2252348883
 20
28.8632990108
 10
21.2311837108
 20
28.9305718927
 10
21.2325942013
 20
29.0013330269
  0
LWPOLYLINE
  5
60E
100
AcDbEntity
  8
0
100
AcDbPolyline
 62
7
  6
CONTINUOUS
 90
15
 70
0
 10
16.2191780116
 20
29.059715377
 10
16.2575149269
 20
29.0602814357
 10
16.2940007492
 20
29.0634206974
 10
16.3286354786
 20
29.069133162
 10
16.3617704547
 20
29.0773495607
 10
16.3930543378
 20
29.0881391624
 10
16.421433109
 20
29.1017097738
 10
16.4466604192
 20
29.1183280314
 10
16.4689826174
 20
29.1377272987
 10
16.488084732
 20
29.1593154735
 10
16.5038376983
 20
29.183074876
 10
16.516370581
 20
29.2090231859
 10
16.5257556025
 20
29.2366213404
 10
16.5320168369
 20
29.2656896517
 10
16.5351302101
 20
29.2964078076
  0
LWPOLYLINE
  5
60F
100
AcDbEntity
  8
0
100
AcDbPolyline
 62
7
  6
CONTINUOUS
 90
15
 70
0
 10
10.6461499816
 20
29.059715377
 10
10.6844868969
 20
29.0602814357
 10
10.7209727192
 20
29.0634206974
 10
10.7556074486
 20
29.069133162
 10
10.7887424247
 20
29.0773495607
 10
10.8200263078
 20
29.0881391624
 10
10.848405079
 20
29.1017097738
 10
10.8736323892
 20
29.1183280314
 10
10.8959545874
 20
29.1377272987
 10
10.915056702
 20
29.1593154735
 10
10.9308096683
 20
29.183074876
 10
10.943342551
 20
29.2090231859
 10
10.9527275725
 20
29.2366213404
 10
10.9589888069
 20
29.2656896517
 10
10.9621021801
 20
29.2964078076
  0
LWPOLYLINE
  5
610
100
AcDbEntity
  8
0
100
AcDbPolyline
 62
7
  6
CONTINUOUS
 90
19
 70
0
 10
-17.662081
 20
27.1441011206
 10
-17.8080355752
 20
27.1430208003
 10
-17.9511698196
 20
27.1542208874
 10
-18.0914837334
 20
27.1777013821
 10
-18.2300390559
 20
27.2138278137
 10
-18.3657740478
 20
27.2622346527
 10
-18.4955034904
 20
27.3218253108
 10
-18.6191655134
 20
27.3929260466
 10
-18.7368219872
 20
27.4752106014
 10
-18.8454733041
 20
27.5666036103
 10
-18.9448618211
 20
27.6673701436
 10
-19.0352451814
 20
27.7772451309
 10
-19.1143967067
 20
27.893357997
 10
-19.1819705816
 20
28.015758323
 10
-19.2383126215
 20
28.1443965277
 10
-19.2822335954
 20
28.2762532917
 10
-19.3134681726
 20
28.4114393708
 10
-19.3322816838
 20
28.5498440091
 10
-19.3382939413
 20
28.6817857473
  0
LINE
  5
611
100
AcDbEntity
  8
RACCORDO
100
AcDbLine
 62
250
  6
CONTINUOUS
 10
2.2
 20
27.9
 11
-2.2
 21
27.9
  0
LINE
  5
612
100
AcDbEntity
  8
RACCORDO
100
AcDbLine
 62
7
  6
CONTINUOUS
 10
2.2
 20
28.2
 11
-2.2
 21
28.2
  0
LINE
  5
613
100
AcDbEntity
  8
0
100
AcDbLine
 62
7
  6
CONTINUOUS
 10
9.990989
 20
28.2254555205
 11
10.207143
 21
28.2254555205
  0
LINE
  5
614
100
AcDbEntity
  8
0
100
AcDbLine
 62
7
  6
CONTINUOUS
 10
11.316847
 20
28.2254555205
 11
11.539698
 21
28.2254555205
  0
LINE
  5
615
100
AcDbEntity
  8
0
100
AcDbLine
 62
7
  6
CONTINUOUS
 10
12.506899
 20
28.2254555205
 11
12.743014
 21
28.2254555205
  0
LINE
  5
616
100
AcDbEntity
  8
0
100
AcDbLine
 62
7
  6
CONTINUOUS
 10
13.344609
 20
28.2254555205
 11
13.560764
 21
28.2254555205
  0
LINE
  5
617
100
AcDbEntity
  8
0
100
AcDbLine
 62
7
  6
CONTINUOUS
 10
14.327349
 20
28.2254555205
 11
14.559042
 21
28.2254555205
  0
LINE
  5
618
100
AcDbEntity
  8
0
100
AcDbLine
 62
7
  6
CONTINUOUS
 10
15.564017
 20
28.2254555205
 11
15.780171
 21
28.2254555205
  0
LINE
  5
619
100
AcDbEntity
  8
0
100
AcDbLine
 62
7
  6
CONTINUOUS
 10
17.050317
 20
28.2254555205
 11
18.231399
 21
28.2254555205
  0
LINE
  5
61A
100
AcDbEntity
  8
0
100
AcDbLine
 62
7
  6
CONTINUOUS
 10
18.514384
 20
28.2254555205
 11
18.723843
 21
28.2254555205
  0
LINE
  5
61B
100
AcDbEntity
  8
0
100
AcDbLine
 62
7
  6
CONTINUOUS
 10
19.541719
 20
28.2254555205
 11
19.78453
 21
28.2254555205
  0
LINE
  5
61C
100
AcDbEntity
  8
0
100
AcDbLine
 62
7
  6
CONTINUOUS
 10
20.134344
 20
28.2254555205
 11
20.7828052163
 21
28.2254555205
  0
LINE
  5
61D
100
AcDbEntity
  8
0
100
AcDbLine
 62
7
  6
CONTINUOUS
 10
21.756579
 20
28.2254555205
 11
21.988399
 21
28.2254555205
  0
LINE
  5
61E
100
AcDbEntity
  8
0
100
AcDbLine
 62
7
  6
CONTINUOUS
 10
9.990989
 20
28.260185156
 11
10.207143
 21
28.260185156
  0
LINE
  5
61F
100
AcDbEntity
  8
0
100
AcDbLine
 62
7
  6
CONTINUOUS
 10
11.330314073
 20
28.260185156
 11
11.539698
 21
28.260185156
  0
LINE
  5
620
100
AcDbEntity
  8
0
100
AcDbLine
 62
7
  6
CONTINUOUS
 10
12.506899
 20
28.260185156
 11
12.730047386
 21
28.260185156
  0
LINE
  5
621
100
AcDbEntity
  8
0
100
AcDbLine
 62
7
  6
CONTINUOUS
 10
13.344609
 20
28.260185156
 11
13.560764
 21
28.260185156
  0
LINE
  5
622
100
AcDbEntity
  8
0
100
AcDbLine
 62
7
  6
CONTINUOUS
 10
14.327349
 20
28.260185156
 11
14.559042
 21
28.260185156
  0
LINE
  5
623
100
AcDbEntity
  8
0
100
AcDbLine
 62
7
  6
CONTINUOUS
 10
15.564017
 20
28.260185156
 11
15.780171
 21
28.260185156
  0
LINE
  5
624
100
AcDbEntity
  8
0
100
AcDbLine
 62
7
  6
CONTINUOUS
 10
17.050317
 20
28.260185156
 11
18.231399
 21
28.260185156
  0
LINE
  5
625
100
AcDbEntity
  8
0
100
AcDbLine
 62
7
  6
CONTINUOUS
 10
18.514384
 20
28.260185156
 11
18.723843
 21
28.260185156
  0
LINE
  5
626
100
AcDbEntity
  8
0
100
AcDbLine
 62
7
  6
CONTINUOUS
 10
19.541719
 20
28.260185156
 11
19.78453
 21
28.260185156
  0
LINE
  5
627
100
AcDbEntity
  8
0
100
AcDbLine
 62
7
  6
CONTINUOUS
 10
20.134344
 20
28.260185156
 11
20.782808566
 21
28.260185156
  0
LINE
  5
628
100
AcDbEntity
  8
0
100
AcDbLine
 62
7
  6
CONTINUOUS
 10
21.756579
 20
28.260185156
 11
21.988399
 21
28.260185156
  0
LINE
  5
629
100
AcDbEntity
  8
0
100
AcDbLine
 62
7
  6
CONTINUOUS
 10
-15.434784
 20
28.3609973515
 11
-14.14628
 21
28.3609973515
  0
LINE
  5
62A
100
AcDbEntity
  8
0
100
AcDbLine
 62
7
  6
CONTINUOUS
 10
-15.434784
 20
28.395726987
 11
-14.14628
 21
28.395726987
  0
LINE
  5
62B
100
AcDbEntity
  8
0
100
AcDbLine
 62
7
  6
CONTINUOUS
 10
20.753877659
 20
28.4048295655
 11
20.350499
 21
28.4048295655
  0
LINE
  5
62C
100
AcDbEntity
  8
0
100
AcDbLine
 62
7
  6
CONTINUOUS
 10
18.231399
 20
28.4113236564
 11
17.266472
 21
28.4113236564
  0
LINE
  5
62D
100
AcDbEntity
  8
0
100
AcDbLine
 62
7
  6
CONTINUOUS
 10
21.988399
 20
28.4545739526
 11
21.756579
 21
28.4545739526
  0
LINE
  5
62E
100
AcDbEntity
  8
0
100
AcDbLine
 62
7
  6
CONTINUOUS
 10
14.559042
 20
28.4545739526
 11
14.327349
 21
28.4545739526
  0
LINE
  5
62F
100
AcDbEntity
  8
0
100
AcDbLine
 62
7
  6
CONTINUOUS
 10
-3.39058809
 20
28.65
 11
3.39058809
 21
28.65
  0
LINE
  5
630
100
AcDbEntity
  8
0
100
AcDbLine
 62
7
  6
CONTINUOUS
 10
11.706835
 20
28.6771982937
 11
12.348604
 21
28.6771982937
  0
LINE
  5
631
100
AcDbEntity
  8
0
100
AcDbLine
 62
7
  6
CONTINUOUS
 10
11.706835
 20
28.7119279293
 11
12.348604
 21
28.7119279293
  0
LINE
  5
632
100
AcDbEntity
  8
0
100
AcDbLine
 62
7
  6
CONTINUOUS
 10
12.270531
 20
28.8630654597
 11
11.773665
 21
28.8630654597
  0
LINE
  5
633
100
AcDbEntity
  8
0
100
AcDbLine
 62
7
  6
CONTINUOUS
 10
10.207143
 20
28.8803413321
 11
10.7106814943
 21
28.8803413321
  0
LINE
  5
634
100
AcDbEntity
  8
0
100
AcDbLine
 62
7
  6
CONTINUOUS
 10
15.780171
 20
28.8803413321
 11
16.2837095244
 21
28.8803413321
  0
LINE
  5
635
100
AcDbEntity
  8
0
100
AcDbLine
 62
7
  6
CONTINUOUS
 10
10.207143
 20
28.9150709676
 11
10.7106814943
 21
28.9150709676
  0
LINE
  5
636
100
AcDbEntity
  8
0
100
AcDbLine
 62
7
  6
CONTINUOUS
 10
15.780171
 20
28.9150709676
 11
16.2837095244
 21
28.9150709676
  0
LINE
  5
637
100
AcDbEntity
  8
0
100
AcDbLine
 62
7
  6
CONTINUOUS
 10
17.266472
 20
28.9299635185
 11
18.142335
 21
28.9299635185
  0
LINE
  5
638
100
AcDbEntity
  8
0
100
AcDbLine
 62
7
  6
CONTINUOUS
 10
17.266472
 20
28.9646931541
 11
18.142335
 21
28.9646931541
  0
LINE
  5
639
100
AcDbEntity
  8
0
100
AcDbLine
 62
7
  6
CONTINUOUS
 10
-14.14628
 20
29.0027213787
 11
-15.4347869847
 21
29.0027213787
  0
LINE
  5
63A
100
AcDbEntity
  8
0
100
AcDbLine
 62
7
  6
CONTINUOUS
 10
16.2191780116
 20
29.059715377
 11
15.780171
 21
29.059715377
  0
LINE
  5
63B
100
AcDbEntity
  8
0
100
AcDbLine
 62
7
  6
CONTINUOUS
 10
10.6461499816
 20
29.059715377
 11
10.207143
 21
29.059715377
  0
LINE
  5
63C
100
AcDbEntity
  8
0
100
AcDbLine
 62
7
  6
CONTINUOUS
 10
18.142335
 20
29.1158306845
 11
17.266472
 21
29.1158306845
  0
LINE
  5
63D
100
AcDbEntity
  8
0
100
AcDbLine
 62
7
  6
CONTINUOUS
 10
12.803148
 20
29.5913424511
 11
13.344609
 21
29.5913424511
  0
LINE
  5
63E
100
AcDbEntity
  8
0
100
AcDbLine
 62
7
  6
CONTINUOUS
 10
13.560764
 20
29.5913424511
 11
14.102224
 21
29.5913424511
  0
LINE
  5
63F
100
AcDbEntity
  8
0
100
AcDbLine
 62
7
  6
CONTINUOUS
 10
17.266472
 20
29.5913424511
 11
18.21586
 21
29.5913424511
  0
LINE
  5
640
100
AcDbEntity
  8
0
100
AcDbLine
 62
7
  6
CONTINUOUS
 10
10.207143
 20
29.597836542
 11
10.6461464389
 21
29.597836542
  0
LINE
  5
641
100
AcDbEntity
  8
0
100
AcDbLine
 62
7
  6
CONTINUOUS
 10
15.780171
 20
29.597836542
 11
16.2191744689
 21
29.597836542
  0
LINE
  5
642
100
AcDbEntity
  8
0
100
AcDbLine
 62
7
  6
CONTINUOUS
 10
20.350499
 20
29.597836542
 11
20.7538773104
 21
29.597836542
  0
LINE
  5
643
100
AcDbEntity
  8
0
100
AcDbLine
 62
7
  6
CONTINUOUS
 10
12.803148
 20
29.6260720867
 11
13.344609
 21
29.6260720867
  0
LINE
  5
644
100
AcDbEntity
  8
0
100
AcDbLine
 62
7
  6
CONTINUOUS
 10
13.560764
 20
29.6260720867
 11
14.102224
 21
29.6260720867
  0
LINE
  5
645
100
AcDbEntity
  8
0
100
AcDbLine
 62
7
  6
CONTINUOUS
 10
17.266472
 20
29.6260720867
 11
18.21586
 21
29.6260720867
  0
LINE
  5
646
100
AcDbEntity
  8
0
100
AcDbLine
 62
7
  6
CONTINUOUS
 10
10.207143
 20
29.6325661776
 11
10.6461484791
 21
29.6325661776
  0
LINE
  5
647
100
AcDbEntity
  8
0
100
AcDbLine
 62
7
  6
CONTINUOUS
 10
15.780171
 20
29.6325661776
 11
16.2191765091
 21
29.6325661776
  0
LINE
  5
648
100
AcDbEntity
  8
0
100
AcDbLine
 62
7
  6
CONTINUOUS
 10
20.350499
 20
29.6325661776
 11
20.7538784436
 21
29.6325661776
  0
LINE
  5
649
100
AcDbEntity
  8
0
100
AcDbLine
 62
7
  6
CONTINUOUS
 10
20.7828119163
 20
29.7772096171
 11
20.134344
 21
29.7772096171
  0
LINE
  5
64A
100
AcDbEntity
  8
0
100
AcDbLine
 62
7
  6
CONTINUOUS
 10
19.78453
 20
29.7772096171
 11
19.575071
 21
29.7772096171
  0
LINE
  5
64B
100
AcDbEntity
  8
0
100
AcDbLine
 62
7
  6
CONTINUOUS
 10
18.770712
 20
29.7772096171
 11
18.514384
 21
29.7772096171
  0
LINE
  5
64C
100
AcDbEntity
  8
0
100
AcDbLine
 62
7
  6
CONTINUOUS
 10
18.21586
 20
29.7772096171
 11
17.050317
 21
29.7772096171
  0
LINE
  5
64D
100
AcDbEntity
  8
0
100
AcDbLine
 62
7
  6
CONTINUOUS
 10
16.2837821905
 20
29.7772096171
 11
15.564017
 21
29.7772096171
  0
LINE
  5
64E
100
AcDbEntity
  8
0
100
AcDbLine
 62
7
  6
CONTINUOUS
 10
14.102224
 20
29.7772096171
 11
12.803148
 21
29.7772096171
  0
LINE
  5
64F
100
AcDbEntity
  8
0
100
AcDbLine
 62
7
  6
CONTINUOUS
 10
12.163653
 20
29.7772096171
 11
11.918569
 21
29.7772096171
  0
LINE
  5
650
100
AcDbEntity
  8
0
100
AcDbLine
 62
7
  6
CONTINUOUS
 10
10.7107541605
 20
29.7772096171
 11
9.990989
 21
29.7772096171
  0
LWPOLYLINE
  5
651
100
AcDbEntity
  8
0
100
AcDbPolyline
 62
7
  6
CONTINUOUS
 90
19
 70
0
 10
-13.793386
 20
30.2196176096
 10
-13.9193171134
 20
30.2214670605
 10
-14.0437771818
 20
30.2138751207
 10
-14.1667662051
 20
30.19684179
 10
-14.2891513561
 20
30.1701513299
 10
-14.4100654621
 20
30.1340194791
 10
-14.5269070049
 20
30.0890934531
 10
-14.6395046305
 20
30.0351565432
 10
-14.748029693
 20
29.9724254581
 10
-14.8503947368
 20
29.9021975397
 10
-14.946442755
 20
29.8243335364
 10
-15.0363307546
 20
29.7389726998
 10
-15.1184423008
 20
29.6478301257
 10
-15.1926010339
 20
29.5507466613
 10
-15.2589833136
 20
29.4478814593
 10
-15.3165017841
 20
29.3414270747
 10
-15.3647939935
 20
29.2321143588
 10
-15.4042223937
 20
29.1192124601
 10
-15.4347869847
 20
29.0027213787
  0
LWPOLYLINE
  5
652
100
AcDbEntity
  8
0
100
AcDbPolyline
 62
7
  6
CONTINUOUS
 90
19
 70
0
 10
-13.793386
 20
30.2543472452
 10
-13.9193171136
 20
30.2561966961
 10
-14.0437771822
 20
30.2486047561
 10
-14.1667662056
 20
30.2315714254
 10
-14.2891513567
 20
30.2048809653
 10
-14.4100654627
 20
30.1687491144
 10
-14.5269070056
 20
30.1238230883
 10
-14.6395046311
 20
30.0698861785
 10
-14.7480296935
 20
30.0071550935
 10
-14.8503947376
 20
29.9369271746
 10
-14.9464427569
 20
29.8590631702
 10
-15.0363307579
 20
29.7737023319
 10
-15.1184423055
 20
29.6825597556
 10
-15.1926010402
 20
29.5854762868
 10
-15.2589833215
 20
29.4826110799
 10
-15.3165017923
 20
29.3761566934
 10
-15.3647940002
 20
29.26684398
 10
-15.4042223977
 20
29.153942087
 10
-15.4347869847
 20
29.0374510143
  0
LINE
  5
653
100
AcDbEntity
  8
0
100
AcDbLine
 62
7
  6
CONTINUOUS
 10
27.981859
 20
13.947655
 11
29.251602
 21
12.877635
  0
LINE
  5
654
100
AcDbEntity
  8
0
100
AcDbLine
 62
7
  6
CONTINUOUS
 10
29.251602
 20
13.462838
 11
27.923252
 21
14.582247
  0
LINE
  5
655
100
AcDbEntity
  8
RACCORDO
100
AcDbLine
 62
7
  6
CONTINUOUS
 10
29.9133974596
 20
5.4
 11
29.8556630651
 21
5.4999989046
  0
LINE
  5
656
100
AcDbEntity
  8
RACCORDO
100
AcDbLine
 62
250
  6
CONTINUOUS
 10
28.4337640632
 20
5.0477017032
 11
28.2757248812
 21
5.3350456705
  0
LWPOLYLINE
  5
657
100
AcDbEntity
  8
RACCORDO
100
AcDbPolyline
 62
7
  6
CONTINUOUS
 90
10
 70
0
 10
21.7653476348
 20
22.1971383142
 10
21.7510402587
 20
22.2265672779
 10
21.7328791048
 20
22.2540502404
 10
21.711262252
 20
22.2789071869
 10
21.6866204415
 20
22.3006639575
 10
21.6593375749
 20
22.3190000932
 10
21.6298943105
 20
22.333595023
 10
21.5988042263
 20
22.3441992547
 10
21.5666025858
 20
22.3506350337
 10
21.533845775
 20
22.3527951665
  0
LINE
  5
658
100
AcDbEntity
  8
0
100
AcDbLine
 62
7
  6
CONTINUOUS
 10
31.35
 20
3.1894527801
 11
31.35
 21
-3.1894527801
  0
LINE
  5
659
100
AcDbEntity
  8
ASSI
100
AcDbLine
 62
7
  6
CONTINUOUS
 10
31.8
 20
-2.0
 11
31.8
 21
2.0
  0
LINE
  5
65A
100
AcDbEntity
  8
ASSI
100
AcDbLine
 62
7
  6
CONTINUOUS
 10
33.1
 20
-2.2
 11
33.1
 21
2.2
  0
LINE
  5
65B
100
AcDbEntity
  8
DRAFT
100
AcDbLine
 62
7
  6
CONTINUOUS
 10
33.25
 20
-2.2
 11
33.25
 21
2.2
  0
LINE
  5
65C
100
AcDbEntity
  8
RACCORDO
100
AcDbLine
 62
7
  6
CONTINUOUS
 10
33.2779488235
 20
2.2
 11
33.2779488235
 21
-2.2
  0
LINE
  5
65D
100
AcDbEntity
  8
RACCORDO
100
AcDbLine
 62
7
  6
CONTINUOUS
 10
33.5
 20
-15.25
 11
33.5
 21
-7.75
  0
LINE
  5
65E
100
AcDbEntity
  8
RACCORDO
100
AcDbLine
 62
7
  6
CONTINUOUS
 10
33.5
 20
7.75
 11
33.5
 21
15.25
  0
LINE
  5
65F
100
AcDbEntity
  8
RACCORDO
100
AcDbLine
 62
250
  6
CONTINUOUS
 10
33.5779374004
 20
2.2
 11
33.5779374004
 21
-2.2
  0
LINE
  5
660
100
AcDbEntity
  8
RACCORDO
100
AcDbLine
 62
7
  6
CONTINUOUS
 10
38.4720511765
 20
-5.5279488235
 11
38.5
 21
-5.5
  0
LWPOLYLINE
  5
661
100
AcDbEntity
  8
0
100
AcDbPolyline
 62
7
  6
CONTINUOUS
 90
21
 70
0
 10
-17.662081
 20
30.8620408961
 10
-17.8510564244
 20
30.8612407548
 10
-18.03675555
 20
30.8458252595
 10
-18.2191783769
 20
30.8157944101
 10
-18.399500581
 20
30.7707500911
 10
-18.5765464864
 20
30.7110904179
 10
-18.7467890647
 20
30.6380097373
 10
-18.9101212422
 20
30.5512283861
 10
-19.0666500926
 20
30.4510260274
 10
-19.2131698094
 20
30.3394359965
 10
-19.3495295488
 20
30.2160975061
 10
-19.4758801546
 20
30.0813713435
 10
-19.5894683509
 20
29.9383732065
 10
-19.6898748089
 20
29.7870939734
 10
-19.7775188575
 20
29.6275427658
 10
-19.8509052074
 20
29.4628626462
 10
-19.909793657
 20
29.2929114206
 10
-19.9544244079
 20
29.117831283
 10
-19.9840227751
 20
28.9411918776
 10
-19.9982997758
 20
28.7630400683
 10
-20.00000052
 20
28.6818076837
  0
LINE
  5
662
100
AcDbEntity
  8
0
100
AcDbLine
 62
7
  6
CONTINUOUS
 10
-3.39058809
 20
31.35
 11
3.39058809
 21
31.35
  0
LINE
  5
663
100
AcDbEntity
  8
RACCORDO
100
AcDbLine
 62
7
  6
CONTINUOUS
 10
-2.2
 20
31.8
 11
2.2
 21
31.8
  0
LINE
  5
664
100
AcDbEntity
  8
RACCORDO
100
AcDbLine
 62
250
  6
CONTINUOUS
 10
-2.2
 20
32.1
 11
2.2
 21
32.1
  0
LINE
  5
665
100
AcDbEntity
  8
DRAFT
100
AcDbLine
 62
7
  6
CONTINUOUS
 10
2.2
 20
33.25
 11
-2.2
 21
33.25
  0
LINE
  5
666
100
AcDbEntity
  8
RACCORDO
100
AcDbLine
 62
7
  6
CONTINUOUS
 10
-2.2
 20
33.2732855674
 11
2.2
 21
33.2732855674
  0
LINE
  5
667
100
AcDbEntity
  8
RACCORDO
100
AcDbLine
 62
250
  6
CONTINUOUS
 10
-2.2
 20
33.521179691
 11
2.2
 21
33.521179691
  0
LINE
  5
668
100
AcDbEntity
  8
0
100
AcDbLine
 62
7
  6
CONTINUOUS
 10
-25.0
 20
33.7418713663
 11
25.0
 21
33.7418713663
  0
LWPOLYLINE
  5
669
100
AcDbEntity
  8
RACCORDO
100
AcDbPolyline
 62
250
  6
CONTINUOUS
 90
46
 70
0
 10
2.2
 20
33.2732855674
 10
2.4274553273
 20
33.2653592725
 10
2.6536268004
 20
33.2416461332
 10
2.8774213365
 20
33.2022988951
 10
3.0977164533
 20
33.1475579958
 10
3.3135032367
 20
33.0777193101
 10
3.5238817351
 20
32.9931012003
 10
3.7278147476
 20
32.8941342026
 10
3.924351637
 20
32.7812942664
 10
4.1127382112
 20
32.6550015962
 10
4.2920595
 20
32.5158218767
 10
4.4614100553
 20
32.3644085751
 10
4.6200637404
 20
32.2013418786
 10
4.7672368413
 20
32.0273132797
 10
4.9021122246
 20
31.8431667922
 10
5.0239685744
 20
31.6497741864
 10
5.1321605108
 20
31.4480242706
 10
5.2260822767
 20
31.2388949695
 10
5.3051859619
 20
31.0234709353
 10
5.3690394744
 20
30.8027706645
 10
5.417267315
 20
30.5778971281
 10
5.4495679357
 20
30.3501217858
 10
5.4657649568
 20
30.1205810589
 10
5.4657638265
 20
29.8904028757
 10
5.4495688703
 20
29.6608671166
 10
5.4172716983
 20
29.4330998236
 10
5.3690457465
 20
29.2082388184
 10
5.3052014536
 20
28.9875564089
 10
5.2261122772
 20
28.7721551325
 10
5.1322069199
 20
28.5630521332
 10
5.0240395914
 20
28.361327871
 10
4.902212262
 20
28.1679581538
 10
4.7673664007
 20
27.9838323665
 10
4.6202280988
 20
27.8098193501
 10
4.4616123906
 20
27.6467640273
 10
4.2922963974
 20
27.4953562864
 10
4.113002006
 20
27.3561689348
 10
3.9246235827
 20
27.2298537194
 10
3.7280752033
 20
27.1169839739
 10
3.5241213857
 20
27.0179850429
 10
3.3137041223
 20
26.9333327714
 10
3.0978607915
 20
26.8634633859
 10
2.8775170416
 20
26.808701476
 10
2.6536889738
 20
26.7693415648
 10
2.4274865799
 20
26.7456217261
 10
2.2
 20
26.7376945183
  0
LWPOLYLINE
  5
66A
100
AcDbEntity
  8
RACCORDO
100
AcDbPolyline
 62
250
  6
CONTINUOUS
 90
46
 70
0
 10
2.2
 20
33.521179691
 10
2.4491299802
 20
33.5123015631
 10
2.694818215
 20
33.4866461433
 10
2.9370647044
 20
33.4442134318
 10
3.1770474764
 20
33.3846263706
 10
3.413588503
 20
33.3082620177
 10
3.6431537005
 20
33.2162515465
 10
3.8655345039
 20
33.1084350205
 10
4.0809394782
 20
32.9849723762
 10
4.2864602348
 20
32.8474745972
 10
4.4820134577
 20
32.6957654114
 10
4.6676824629
 20
32.5300210908
 10
4.8408088106
 20
32.352381435
 10
5.001287565
 20
32.1626235458
 10
5.149223662
 20
31.9609703213
 10
5.2822734689
 20
31.7502302556
 10
5.4002303576
 20
31.5302196859
 10
5.5033009564
 20
31.301122275
 10
5.589761517
 20
31.0662975056
 10
5.659345223
 20
30.8256047511
 10
5.7123188909
 20
30.579184638
 10
5.7477592223
 20
30.3308185285
 10
5.7653601012
 20
30.0804766189
 10
5.7654276437
 20
29.8281887128
 10
5.7479568996
 20
29.5778255827
 10
5.7126397684
 20
29.329412706
 10
5.6597843506
 20
29.0829246054
 10
5.590309998
 20
28.8421556215
 10
5.5039489702
 20
28.6072494719
 10
5.4009690075
 20
28.3780624391
 10
5.283092682
 20
28.1579577099
 10
5.1501140882
 20
27.947119752
 10
5.0022391317
 20
27.7453640977
 10
4.8418081017
 20
27.5555005315
 10
4.6687193121
 20
27.3777528686
 10
4.483074449
 20
27.2118972937
 10
4.2875188603
 20
27.0600721453
 10
4.0819638824
 20
26.9224479959
 10
3.8664981788
 20
26.798854273
 10
3.6440330883
 20
26.6909175983
 10
3.4143567643
 20
26.5988000797
 10
3.1776810534
 20
26.5223396094
 10
2.9375528337
 20
26.4626764852
 10
2.6951543979
 20
26.4201908066
 10
2.4493034533
 20
26.3945024742
 10
2.2
 20
26.385611488
  0
LINE
  5
66B
100
AcDbEntity
  8
RACCORDO
100
AcDbLine
 62
7
  6
CONTINUOUS
 10
38.4720511765
 20
5.5279488235
 11
38.5
 21
5.5
  0
LINE
  5
66C
100
AcDbEntity
  8
0
100
AcDbLine
 62
7
  6
CONTINUOUS
 10
18.723843
 20
29.4858028058
 11
19.541719
 21
28.2254555205
  0
LINE
  5
66D
100
AcDbEntity
  8
0
100
AcDbLine
 62
7
  6
CONTINUOUS
 10
18.723843
 20
29.5205324413
 11
19.541719
 21
28.260185156
  0
LINE
  5
66E
100
AcDbEntity
  8
0
100
AcDbLine
 62
7
  6
CONTINUOUS
 10
19.575071
 20
28.51674789
 11
18.770712
 21
29.7772096171
  0
LINE
  5
66F
100
AcDbEntity
  8
0
100
AcDbLine
 62
7
  6
CONTINUOUS
 10
30.37593
 20
11.439375
 11
30.593299
 21
11.052094
  0
LINE
  5
670
100
AcDbEntity
  8
RACCORDO
100
AcDbLine
 62
7
  6
CONTINUOUS
 10
35.0
 20
15.25
 11
35.0
 21
1.7320508076
  0
LINE
  5
671
100
AcDbEntity
  8
RACCORDO
100
AcDbLine
 62
7
  6
CONTINUOUS
 10
35.0
 20
-15.25
 11
35.0
 21
-1.7320508076
  0
LINE
  5
672
100
AcDbEntity
  8
RACCORDO
100
AcDbLine
 62
7
  6
CONTINUOUS
 10
36.8161447054
 20
-25.8
 11
36.8161447054
 21
-8.2
  0
LINE
  5
673
100
AcDbEntity
  8
RACCORDO
100
AcDbLine
 62
7
  6
CONTINUOUS
 10
36.8161447054
 20
8.2
 11
36.8161447054
 21
25.8
  0
LINE
  5
674
100
AcDbEntity
  8
RACCORDO
100
AcDbLine
 62
250
  6
CONTINUOUS
 10
38.1720625996
 20
5.5305440373
 11
38.1720625996
 21
-5.5305440373
  0
LINE
  5
675
100
AcDbEntity
  8
RACCORDO
100
AcDbLine
 62
7
  6
CONTINUOUS
 10
38.1838552946
 20
25.8
 11
38.1838552946
 21
8.2
  0
LINE
  5
676
100
AcDbEntity
  8
RACCORDO
100
AcDbLine
 62
7
  6
CONTINUOUS
 10
38.1838552946
 20
-8.2
 11
38.1838552946
 21
-25.8
  0
LWPOLYLINE
  5
677
100
AcDbEntity
  8
0
100
AcDbPolyline
 62
7
  6
CONTINUOUS
 90
13
 70
0
 10
21.1393507907
 20
-29.7771332602
 10
21.2306484435
 20
-29.7340052536
 10
21.3154036541
 20
-29.6834457843
 10
21.3936164225
 20
-29.6254548521
 10
21.465945761
 20
-29.5593042857
 10
21.5317326574
 20
-29.4857222565
 10
21.5890000746
 20
-29.4068932787
 10
21.6375010485
 20
-29.3225640588
 10
21.6774825432
 20
-29.2329878904
 10
21.7077084146
 20
-29.1411091689
 10
21.7278314557
 20
-29.0469631186
 10
21.7381988733
 20
-28.9505145151
 10
21.7397336522
 20
-28.900521716
  0
LINE
  5
678
100
AcDbEntity
  8
RACCORDO
100
AcDbLine
 62
250
  6
CONTINUOUS
 10
30.0
 20
35.0407181432
 11
-30.0
 21
35.0407181432
  0
LINE
  5
679
100
AcDbEntity
  8
RACCORDO
100
AcDbLine
 62
250
  6
CONTINUOUS
 10
30.0
 20
36.5386624453
 11
-30.0
 21
36.5386624453
  0
LINE
  5
67A
100
AcDbEntity
  8
DRAFT
100
AcDbLine
 62
7
  6
CONTINUOUS
 10
-30.0
 20
36.7
 11
30.0
 21
36.7
  0
LINE
  5
67B
100
AcDbEntity
  8
ASSI
100
AcDbLine
 62
250
  6
CONTINUOUS
 10
38.3407181432
 20
-5.5305440373
 11
38.3407181432
 21
-14.0
  0
LINE
  5
67C
100
AcDbEntity
  8
ASSI
100
AcDbLine
 62
250
  6
CONTINUOUS
 10
38.3407181432
 20
-20.0
 11
38.3407181432
 21
-26.7
  0
LINE
  5
67D
100
AcDbEntity
  8
ASSI
100
AcDbLine
 62
250
  6
CONTINUOUS
 10
38.3407181432
 20
5.5305440373
 11
38.3407181432
 21
14.0
  0
LINE
  5
67E
100
AcDbEntity
  8
ASSI
100
AcDbLine
 62
250
  6
CONTINUOUS
 10
38.3407181432
 20
20.0
 11
38.3407181432
 21
26.7
  0
LINE
  5
67F
100
AcDbEntity
  8
RACCORDO
100
AcDbLine
 62
7
  6
CONTINUOUS
 10
38.4720511765
 20
5.5279488235
 11
38.4720511765
 21
-5.5279488235
  0
LINE
  5
680
100
AcDbEntity
  8
DRAFT
100
AcDbLine
 62
7
  6
CONTINUOUS
 10
38.5
 20
-5.5
 11
38.5
 21
5.5
  0
LINE
  5
681
100
AcDbEntity
  8
ASSI
100
AcDbLine
 62
250
  6
CONTINUOUS
 10
38.9946594539
 20
-14.0
 11
38.9946594539
 21
-20.0
  0
LINE
  5
682
100
AcDbEntity
  8
ASSI
100
AcDbLine
 62
250
  6
CONTINUOUS
 10
38.9946594539
 20
14.0
 11
38.9946594539
 21
20.0
  0
LINE
  5
683
100
AcDbEntity
  8
ASSI
100
AcDbLine
 62
250
  6
CONTINUOUS
 10
39.8386624453
 20
-5.518138829
 11
39.8386624453
 21
-14.0
  0
LINE
  5
684
100
AcDbEntity
  8
ASSI
100
AcDbLine
 62
250
  6
CONTINUOUS
 10
39.8386624453
 20
-20.0
 11
39.8386624453
 21
-26.7
  0
LINE
  5
685
100
AcDbEntity
  8
ASSI
100
AcDbLine
 62
250
  6
CONTINUOUS
 10
39.8386624453
 20
5.518138829
 11
39.8386624453
 21
14.0
  0
LINE
  5
686
100
AcDbEntity
  8
ASSI
100
AcDbLine
 62
250
  6
CONTINUOUS
 10
39.8386624453
 20
20.0
 11
39.8386624453
 21
26.7
  0
LINE
  5
687
100
AcDbEntity
  8
ASSI
100
AcDbLine
 62
250
  6
CONTINUOUS
 10
39.857329727
 20
-14.0
 11
39.857329727
 21
-20.0
  0
LINE
  5
688
100
AcDbEntity
  8
ASSI
100
AcDbLine
 62
250
  6
CONTINUOUS
 10
39.857329727
 20
14.0
 11
39.857329727
 21
20.0
  0
LINE
  5
689
100
AcDbEntity
  8
DRAFT
100
AcDbLine
 62
7
  6
CONTINUOUS
 10
39.9475922207
 20
5.5
 11
39.9475922207
 21
3.25
  0
LINE
  5
68A
100
AcDbEntity
  8
DRAFT
100
AcDbLine
 62
7
  6
CONTINUOUS
 10
39.9475922207
 20
-3.25
 11
39.9475922207
 21
-5.5
  0
LINE
  5
68B
100
AcDbEntity
  8
DRAFT
100
AcDbLine
 62
7
  6
CONTINUOUS
 10
40.0
 20
26.7
 11
40.0
 21
20.0
  0
LINE
  5
68C
100
AcDbEntity
  8
DRAFT
100
AcDbLine
 62
7
  6
CONTINUOUS
 10
40.0
 20
14.0
 11
40.0
 21
3.25
  0
LINE
  5
68D
100
AcDbEntity
  8
DRAFT
100
AcDbLine
 62
7
  6
CONTINUOUS
 10
40.0
 20
-3.25
 11
40.0
 21
-14.0
  0
LINE
  5
68E
100
AcDbEntity
  8
DRAFT
100
AcDbLine
 62
7
  6
CONTINUOUS
 10
40.0
 20
-20.0
 11
40.0
 21
-26.7
  0
LINE
  5
68F
100
AcDbEntity
  8
ASSI
100
AcDbLine
 62
7
  6
CONTINUOUS
 10
40.8
 20
-14.0
 11
40.8
 21
-20.0
  0
LINE
  5
690
100
AcDbEntity
  8
ASSI
100
AcDbLine
 62
7
  6
CONTINUOUS
 10
40.8
 20
14.0
 11
40.8
 21
20.0
  0
LINE
  5
691
100
AcDbEntity
  8
0
100
AcDbLine
 62
7
  6
CONTINUOUS
 10
41.3711307144
 20
3.25
 11
41.3711307144
 21
-3.25
  0
LINE
  5
692
100
AcDbEntity
  8
0
100
AcDbLine
 62
7
  6
CONTINUOUS
 10
43.0
 20
3.25
 11
43.0
 21
-3.25
  0
LWPOLYLINE
  5
693
100
AcDbEntity
  8
0
100
AcDbPolyline
 62
7
  6
CONTINUOUS
 90
8
 70
0
 43
0.3500000006
 10
-2.2454291725
 20
45.4499999542
 10
-1.3882862763
 20
45.4499999542
 10
-0.9597148283
 20
45.8785734558
 10
-0.9597148283
 20
46.7357159271
 10
-1.3882862763
 20
47.1642848969
 10
-2.2454291725
 20
47.1642848969
 10
-2.2454291725
 20
48.4500008698
 10
-0.9597148283
 20
48.4500008698
  0
LWPOLYLINE
  5
694
100
AcDbEntity
  8
0
100
AcDbPolyline
 62
7
  6
CONTINUOUS
 90
13
 70
0
 43
0.3500000006
 10
-1.9285714102
 20
57.1642834167
 10
-2.2142856617
 20
57.3785679016
 10
-2.2142856617
 20
58.0214304199
 10
-1.9285714102
 20
58.4499993896
 10
-1.2857142735
 20
58.4499993896
 10
-1.0000000219
 20
58.0214304199
 10
-1.0000000219
 20
57.3785679016
 10
-1.2857142735
 20
57.1642834167
 10
-0.8571428254
 20
56.735714447
 10
-0.8571428254
 20
55.8785674438
 10
-1.2857142735
 20
55.4499984741
 10
-1.9285714102
 20
55.4499984741
 10
-2.3571427875
 20
55.8785674438
  0
LWPOLYLINE
  5
695
100
AcDbEntity
  8
0
100
AcDbPolyline
 62
7
  6
CONTINUOUS
 90
3
 70
0
 43
0.3500000006
 10
3.1117138224
 20
46.0928579407
 10
1.6117137895
 20
46.0928579407
 10
2.2545709262
 20
48.4500008698
  0
LWPOLYLINE
  5
696
100
AcDbEntity
  8
0
100
AcDbPolyline
 62
7
  6
CONTINUOUS
 90
13
 70
0
 43
0.3500000006
 10
-1.9285714102
 20
67.1642864685
 10
-2.2142856617
 20
67.3785709534
 10
-2.2142856617
 20
68.021424408
 10
-1.9285714102
 20
68.4500024414
 10
-1.2857142735
 20
68.4500024414
 10
-1.0000000219
 20
68.021424408
 10
-1.0000000219
 20
67.3785709534
 10
-1.2857142735
 20
67.1642864685
 10
-0.8571428254
 20
66.7357174988
 10
-0.8571428254
 20
65.8785704956
 10
-1.2857142735
 20
65.4500015259
 10
-1.9285714102
 20
65.4500015259
 10
-2.3571427875
 20
65.8785704956
  0
LWPOLYLINE
  5
697
100
AcDbEntity
  8
0
100
AcDbPolyline
 62
7
  6
CONTINUOUS
 90
10
 70
0
 43
0.3500000006
 10
-67.5254262085
 20
58.4472440186
 10
-68.1682841949
 20
57.804390564
 10
-68.5968576965
 20
56.9472435608
 10
-68.5968576965
 20
55.8758120728
 10
-68.1682841949
 20
55.447243103
 10
-67.5254262085
 20
55.447243103
 10
-67.0968572388
 20
55.8758120728
 10
-67.0968572388
 20
56.7329590759
 10
-67.5254262085
 20
57.1615280457
 10
-68.4539998627
 20
57.1615280457
  0
LINE
  5
698
100
AcDbEntity
  8
RACCORDO
100
AcDbLine
 62
7
  6
CONTINUOUS
 10
-71.3325699129
 20
-36.7
 11
-74.4110738473
 21
-36.5386624453
  0
LWPOLYLINE
  5
699
100
AcDbEntity
  8
0
100
AcDbPolyline
 62
7
  6
CONTINUOUS
 90
3
 70
0
 43
0.3500000006
 10
-67.5468573761
 20
47.6375108185
 10
-66.6897149048
 20
48.4946532898
 10
-66.6897149048
 20
45.4946569061
  0
LWPOLYLINE
  5
69A
100
AcDbEntity
  8
0
100
AcDbPolyline
 62
7
  6
CONTINUOUS
 90
3
 70
0
 43
0.3500000006
 10
-65.8325679016
 20
47.6375108185
 10
-64.9754254303
 20
48.4946532898
 10
-64.9754254303
 20
45.4946569061
  0
LINE
  5
69B
100
AcDbEntity
  8
ASSI
100
AcDbLine
 62
7
  6
CONTINUOUS
 10
-71.3325699129
 20
-27.0
 11
-60.3325699129
 21
-27.0
  0
LINE
  5
69C
100
AcDbEntity
  8
RACCORDO
100
AcDbLine
 62
250
  6
CONTINUOUS
 10
-71.3325699129
 20
-26.7
 11
-75.8325699129
 21
-26.7
  0
LWPOLYLINE
  5
69D
100
AcDbEntity
  8
0
100
AcDbPolyline
 62
7
  6
CONTINUOUS
 90
3
 70
0
 43
0.3500000006
 10
-90.2886707153
 20
3.4285718307
 10
-90.2886707153
 20
1.928571373
 10
-92.6458091125
 20
2.5714293594
  0
LWPOLYLINE
  5
69E
100
AcDbEntity
  8
0
100
AcDbPolyline
 62
7
  6
CONTINUOUS
 90
6
 70
0
 43
0.3500000006
 10
-89.645808197
 20
-1.9285708809
 10
-89.645808197
 20
-0.8571427917
 10
-89.8600926819
 20
-0.642856041
 10
-90.9315241699
 20
-0.642856041
 10
-91.3600931396
 20
-1.0714295425
 10
-91.3600931396
 20
-1.4999996452
  0
LINE
  5
69F
100
AcDbEntity
  8
RACCORDO
100
AcDbLine
 62
7
  6
CONTINUOUS
 10
-60.5255900136
 20
-25.622611946
 11
-71.3325699129
 21
-26.0
  0
LINE
  5
6A0
100
AcDbEntity
  8
RACCORDO
100
AcDbLine
 62
250
  6
CONTINUOUS
 10
-60.5308246058
 20
-24.6224899351
 11
-71.3325699129
 21
-24.999695193
  0
LINE
  5
6A1
100
AcDbEntity
  8
RACCORDO
100
AcDbLine
 62
250
  6
CONTINUOUS
 10
-60.3325699129
 20
-24.6224899351
 11
-60.5308246058
 21
-24.6224899351
  0
LWPOLYLINE
  5
6A2
100
AcDbEntity
  8
0
100
AcDbPolyline
 62
7
  6
CONTINUOUS
 90
3
 70
0
 43
0.3500000006
 10
-69.5968534698
 20
55.7329587708
 10
-69.6682846527
 20
55.5186742859
 10
-69.8111424866
 20
55.2329586182
  0
LINE
  5
6A3
100
AcDbEntity
  8
RACCORDO
100
AcDbLine
 62
250
  6
CONTINUOUS
 10
-76.6847515468
 20
-22.1028332427
 11
-76.9325699129
 21
-22.1028332427
  0
LINE
  5
6A4
100
AcDbEntity
  8
RACCORDO
100
AcDbLine
 62
7
  6
CONTINUOUS
 10
-76.6869330145
 20
-22.3527951665
 11
-75.8325699129
 21
-22.3677081299
  0
LINE
  5
6A5
100
AcDbEntity
  8
RACCORDO
100
AcDbLine
 62
250
  6
CONTINUOUS
 10
-76.6847515468
 20
-22.1028332427
 11
-75.8325699129
 21
-22.1177081284
  0
LWPOLYLINE
  5
6A6
100
AcDbEntity
  8
0
100
AcDbPolyline
 62
7
  6
CONTINUOUS
 90
5
 70
0
 43
0.3500000006
 10
-91.3600931396
 20
-1.0714295425
 10
-91.5743776245
 20
-0.7142849579
 10
-92.2172401428
 20
-0.7142849579
 10
-92.6458091125
 20
-1.0714295425
 10
-92.6458091125
 20
-1.9285708809
  0
LINE
  5
6A7
100
AcDbEntity
  8
RACCORDO
100
AcDbLine
 62
7
  6
CONTINUOUS
 10
-60.5308246058
 20
-18.3826083971
 11
-71.3325699129
 21
-18.4768738004
  0
LINE
  5
6A8
100
AcDbEntity
  8
RACCORDO
100
AcDbLine
 62
7
  6
CONTINUOUS
 10
-73.137953755
 20
-20.0
 11
-74.5325699129
 21
-20.0
  0
LINE
  5
6A9
100
AcDbEntity
  8
ASSI
100
AcDbLine
 62
7
  6
CONTINUOUS
 10
-74.5325699129
 20
-20.0
 11
-75.8325699129
 21
-20.0
  0
LINE
  5
6AA
100
AcDbEntity
  8
RACCORDO
100
AcDbLine
 62
7
  6
CONTINUOUS
 10
-76.4325699129
 20
-18.8
 11
-76.9325699129
 21
-18.8
  0
LINE
  5
6AB
100
AcDbEntity
  8
ASSI
100
AcDbLine
 62
7
  6
CONTINUOUS
 10
-71.3325699129
 20
-18.75
 11
-60.3325699129
 21
-18.75
  0
LINE
  5
6AC
100
AcDbEntity
  8
RACCORDO
100
AcDbLine
 62
7
  6
CONTINUOUS
 10
-79.7762000747
 20
-17.710427789
 11
-76.4325699129
 21
-18.3
  0
LINE
  5
6AD
100
AcDbEntity
  8
RACCORDO
100
AcDbLine
 62
250
  6
CONTINUOUS
 10
-79.7349696642
 20
-17.4642258507
 11
-76.4325699129
 21
-18.0465280279
  0
LINE
  5
6AE
100
AcDbEntity
  8
RACCORDO
100
AcDbLine
 62
250
  6
CONTINUOUS
 10
-80.5829665452
 20
-16.7642920052
 11
-80.6017726233
 21
-16.7650672163
  0
LINE
  5
6AF
100
AcDbEntity
  8
RACCORDO
100
AcDbLine
 62
250
  6
CONTINUOUS
 10
-80.3541497726
 20
-16.7552054488
 11
-80.5829665452
 21
-16.7642920052
  0
LINE
  5
6B0
100
AcDbEntity
  8
RACCORDO
100
AcDbLine
 62
250
  6
CONTINUOUS
 10
-60.5308246058
 20
-16.8826655126
 11
-71.3325699129
 21
-16.9769309158
  0
LINE
  5
6B1
100
AcDbEntity
  8
RACCORDO
100
AcDbLine
 62
250
  6
CONTINUOUS
 10
-60.3325699129
 20
-16.8826655126
 11
-60.5308246058
 21
-16.8826655203
  0
LINE
  5
6B2
100
AcDbEntity
  8
RACCORDO
100
AcDbLine
 62
7
  6
CONTINUOUS
 10
-75.8325699129
 20
-16.0
 11
-76.3325699129
 21
-16.0
  0
LWPOLYLINE
  5
6B3
100
AcDbEntity
  8
RACCORDO
100
AcDbPolyline
 62
250
  6
CONTINUOUS
 90
22
 70
0
 10
-80.3541497726
 20
-16.7552054488
 10
-80.35190129
 20
-16.7961246677
 10
-80.3466490061
 20
-16.8381632999
 10
-80.3383929209
 20
-16.8813213452
 10
-80.3272618357
 20
-16.9260649522
 10
-80.3131269493
 20
-16.9719279724
 10
-80.295601857
 20
-17.0175119601
 10
-80.2744763778
 20
-17.0628104847
 10
-80.2499606929
 20
-17.1078299769
 10
-80.2222989405
 20
-17.1511912829
 10
-80.191305485
 20
-17.1927870834
 10
-80.157165962
 20
-17.2327246978
 10
-80.1206814169
 20
-17.2699469305
 10
-80.0817123552
 20
-17.3042930392
 10
-80.0403982713
 20
-17.3359237662
 10
-79.997958694
 20
-17.3642641431
 10
-79.9543244018
 20
-17.3891163384
 10
-79.9095646161
 20
-17.4106781836
 10
-79.8651065301
 20
-17.4289682048
 10
-79.821425875
 20
-17.4439925774
 10
-79.7780469197
 20
-17.4557451261
 10
-79.7349696642
 20
-17.4642258507
  0
LWPOLYLINE
  5
6B4
100
AcDbEntity
  8
RACCORDO
100
AcDbPolyline
 62
250
  6
CONTINUOUS
 90
10
 70
0
 10
-80.3541497726
 20
16.7552054488
 10
-80.4847559646
 20
13.0326966849
 10
-80.5827105815
 20
9.3097513585
 10
-80.6480136234
 20
5.5863694694
 10
-80.6806650543
 20
1.8622590091
 10
-80.6806649101
 20
-1.8622880137
 10
-80.648013299
 20
-5.5863955735
 10
-80.5827102571
 20
-9.3097716617
 10
-80.4847557483
 20
-13.0327082868
 10
-80.3541497726
 20
-16.7552054488
  0
LINE
  5
6B5
100
AcDbEntity
  8
RACCORDO
100
AcDbLine
 62
7
  6
CONTINUOUS
 10
-60.5308246058
 20
-13.8826083971
 11
-71.3325699129
 21
-13.9768738004
  0
LINE
  5
6B6
100
AcDbEntity
  8
RACCORDO
100
AcDbLine
 62
250
  6
CONTINUOUS
 10
-60.6299519523
 20
-13.6834810838
 11
-71.3325699129
 21
-13.7768814157
  0
LINE
  5
6B7
100
AcDbEntity
  8
RACCORDO
100
AcDbLine
 62
250
  6
CONTINUOUS
 10
-60.3325699129
 20
-13.6826160125
 11
-60.6299519523
 21
-13.6834810838
  0
LINE
  5
6B8
100
AcDbEntity
  8
RACCORDO
100
AcDbLine
 62
250
  6
CONTINUOUS
 10
-75.8325699129
 20
-15.25
 11
-76.3325699129
 21
-15.25
  0
LINE
  5
6B9
100
AcDbEntity
  8
RACCORDO
100
AcDbLine
 62
7
  6
CONTINUOUS
 10
-73.137953755
 20
-14.0
 11
-74.5325699129
 21
-14.0
  0
LINE
  5
6BA
100
AcDbEntity
  8
ASSI
100
AcDbLine
 62
7
  6
CONTINUOUS
 10
-74.5325699129
 20
-14.0
 11
-75.8325699129
 21
-14.0
  0
LINE
  5
6BB
100
AcDbEntity
  8
RACCORDO
100
AcDbLine
 62
250
  6
CONTINUOUS
 10
-76.685290922
 20
22.1347601745
 11
-76.686946353
 21
22.2540502404
  0
LWPOLYLINE
  5
6BC
100
AcDbEntity
  8
RACCORDO
100
AcDbPolyline
 62
250
  6
CONTINUOUS
 90
7
 70
0
 10
-76.686946353
 20
22.2540502404
 10
-76.6873563052
 20
22.3006639575
 10
-76.6874382697
 20
22.3190000932
 10
-76.6874360777
 20
22.333595023
 10
-76.6873498561
 20
22.3441992547
 10
-76.6871811736
 20
22.3506350337
 10
-76.6869330145
 20
22.3527951665
  0
LWPOLYLINE
  5
6BD
100
AcDbEntity
  8
RACCORDO
100
AcDbPolyline
 62
250
  6
CONTINUOUS
 90
5
 70
0
 10
-76.6874389693
 20
-22.3192939304
 10
-76.6874355009
 20
-22.3337570229
 10
-76.6873487971
 20
-22.3442697105
 10
-76.687180341
 20
-22.3506521531
 10
-76.6869330145
 20
-22.3527951665
  0
LINE
  5
6BE
100
AcDbEntity
  8
RACCORDO
100
AcDbLine
 62
7
  6
CONTINUOUS
 10
-76.9325699129
 20
22.1028332427
 11
-76.9325699129
 21
18.8
  0
LINE
  5
6BF
100
AcDbEntity
  8
RACCORDO
100
AcDbLine
 62
7
  6
CONTINUOUS
 10
-76.9325699129
 20
-18.8
 11
-76.9325699129
 21
-22.1028332427
  0
LINE
  5
6C0
100
AcDbEntity
  8
RACCORDO
100
AcDbLine
 62
250
  6
CONTINUOUS
 10
-76.6847515468
 20
22.1028332427
 11
-76.6847515468
 21
18.8
  0
LINE
  5
6C1
100
AcDbEntity
  8
RACCORDO
100
AcDbLine
 62
250
  6
CONTINUOUS
 10
-76.6847515468
 20
-18.8
 11
-76.6847515468
 21
-22.1028332427
  0
LINE
  5
6C2
100
AcDbEntity
  8
RACCORDO
100
AcDbLine
 62
7
  6
CONTINUOUS
 10
-76.4325699129
 20
18.8
 11
-76.4325699129
 21
18.0465280279
  0
LINE
  5
6C3
100
AcDbEntity
  8
RACCORDO
100
AcDbLine
 62
7
  6
CONTINUOUS
 10
-76.4325699129
 20
-18.0465280279
 11
-76.4325699129
 21
-18.8
  0
LINE
  5
6C4
100
AcDbEntity
  8
RACCORDO
100
AcDbLine
 62
7
  6
CONTINUOUS
 10
-76.3325699129
 20
-15.9999999881
 11
-76.3325699129
 21
-1.7320508076
  0
LINE
  5
6C5
100
AcDbEntity
  8
0
100
AcDbLine
 62
7
  6
CONTINUOUS
 10
-76.3325699129
 20
-1.7320508076
 11
-76.3325699129
 21
1.7320508076
  0
LINE
  5
6C6
100
AcDbEntity
  8
RACCORDO
100
AcDbLine
 62
7
  6
CONTINUOUS
 10
-76.3325699129
 20
1.7320508076
 11
-76.3325699129
 21
15.9999999881
  0
LINE
  5
6C7
100
AcDbEntity
  8
RACCORDO
100
AcDbLine
 62
250
  6
CONTINUOUS
 10
-76.6871973874
 20
-22.2795695562
 11
-76.6874389693
 21
-22.3192939304
  0
LINE
  5
6C8
100
AcDbEntity
  8
RACCORDO
100
AcDbLine
 62
250
  6
CONTINUOUS
 10
-76.6862549177
 20
-22.1984807379
 11
-76.6871973874
 21
-22.2795695562
  0
LWPOLYLINE
  5
6C9
100
AcDbEntity
  8
RACCORDO
100
AcDbPolyline
 62
250
  6
CONTINUOUS
 90
5
 70
0
 10
-79.7714519232
 20
-17.6773187591
 10
-79.7737107813
 20
-17.6915798174
 10
-79.7752707882
 20
-17.7019582775
 10
-79.7761053031
 20
-17.7082769031
 10
-79.7762000747
 20
-17.710427789
  0
LINE
  5
6CA
100
AcDbEntity
  8
RACCORDO
100
AcDbLine
 62
250
  6
CONTINUOUS
 10
-79.76500323
 20
-17.6381851563
 11
-79.7714519232
 21
-17.6773187591
  0
LINE
  5
6CB
100
AcDbEntity
  8
RACCORDO
100
AcDbLine
 62
250
  6
CONTINUOUS
 10
-79.7514005432
 20
-17.5583571842
 11
-79.76500323
 21
-17.6381851563
  0
LINE
  5
6CC
100
AcDbEntity
  8
RACCORDO
100
AcDbLine
 62
250
  6
CONTINUOUS
 10
-79.7349696642
 20
-17.4642258507
 11
-79.7514005432
 21
-17.5583571842
  0
LWPOLYLINE
  5
6CD
100
AcDbEntity
  8
0
100
AcDbPolyline
 62
7
  6
CONTINUOUS
 90
10
 70
0
 43
0.3500000006
 10
-90.1458083496
 20
0.8571421509
 10
-90.0029550476
 20
0.9285710678
 10
-89.9315238647
 20
0.9285710678
 10
-89.7886705627
 20
0.7857132339
 10
-89.7886705627
 20
0.7142865829
 10
-89.8600926819
 20
0.642857666
 10
-89.9315238647
 20
0.642857666
 10
-90.0743862305
 20
0.7142865829
 10
-90.1458083496
 20
0.7857132339
 10
-90.1458083496
 20
0.8571421509
  0
LINE
  5
6CE
100
AcDbEntity
  8
RACCORDO
100
AcDbLine
 62
250
  6
CONTINUOUS
 10
-60.6299519523
 20
-12.8165189162
 11
-60.3325699129
 21
-12.8173839875
  0
LINE
  5
6CF
100
AcDbEntity
  8
RACCORDO
100
AcDbLine
 62
250
  6
CONTINUOUS
 10
-71.3325699129
 20
-12.7231185843
 11
-60.6299519523
 21
-12.8165189162
  0
LINE
  5
6D0
100
AcDbEntity
  8
RACCORDO
100
AcDbLine
 62
7
  6
CONTINUOUS
 10
-71.3325699129
 20
-12.5231261996
 11
-60.5308246058
 21
-12.6173916028
  0
LINE
  5
6D1
100
AcDbEntity
  8
RACCORDO
100
AcDbLine
 62
250
  6
CONTINUOUS
 10
-79.7349696642
 20
17.4642258507
 11
-79.7563632988
 21
17.5872190341
  0
LWPOLYLINE
  5
6D2
100
AcDbEntity
  8
RACCORDO
100
AcDbPolyline
 62
250
  6
CONTINUOUS
 90
7
 70
0
 10
-79.7563632988
 20
17.5872190341
 10
-79.7685327649
 20
17.6594184886
 10
-79.7714519064
 20
17.6773186476
 10
-79.7737107715
 20
17.6915797479
 10
-79.775270784
 20
17.7019582434
 10
-79.7761053024
 20
17.7082768938
 10
-79.7762000747
 20
17.710427789
  0
LINE
  5
6D3
100
AcDbEntity
  8
RACCORDO
100
AcDbLine
 62
250
  6
CONTINUOUS
 10
-76.6847515468
 20
22.1028332427
 11
-76.685290922
 21
22.1347601745
  0
LINE
  5
6D4
100
AcDbEntity
  8
RACCORDO
100
AcDbLine
 62
7
  6
CONTINUOUS
 10
-75.8325699129
 20
5.5305440373
 11
-75.8325699129
 21
-5.5305440373
  0
LINE
  5
6D5
100
AcDbEntity
  8
ASSI
100
AcDbLine
 62
7
  6
CONTINUOUS
 10
-75.8325699129
 20
-5.5305440373
 11
-75.8325699129
 21
-26.7
  0
LINE
  5
6D6
100
AcDbEntity
  8
RACCORDO
100
AcDbLine
 62
7
  6
CONTINUOUS
 10
-75.8325699129
 20
-26.7
 11
-75.8325699129
 21
-35.0407181432
  0
LINE
  5
6D7
100
AcDbEntity
  8
ASSI
100
AcDbLine
 62
7
  6
CONTINUOUS
 10
-75.8325699129
 20
5.5305440373
 11
-75.8325699129
 21
26.7
  0
LINE
  5
6D8
100
AcDbEntity
  8
RACCORDO
100
AcDbLine
 62
7
  6
CONTINUOUS
 10
-75.8325699129
 20
26.7
 11
-75.8325699129
 21
35.0407181432
  0
LINE
  5
6D9
100
AcDbEntity
  8
RACCORDO
100
AcDbLine
 62
250
  6
CONTINUOUS
 10
-75.5351878736
 20
5.5279488235
 11
-75.5351878736
 21
-5.5279488235
  0
LINE
  5
6DA
100
AcDbEntity
  8
ASSI
100
AcDbLine
 62
250
  6
CONTINUOUS
 10
-75.475240186
 20
-14.0
 11
-75.475240186
 21
-20.0
  0
LINE
  5
6DB
100
AcDbEntity
  8
ASSI
100
AcDbLine
 62
250
  6
CONTINUOUS
 10
-75.475240186
 20
14.0
 11
-75.475240186
 21
20.0
  0
LINE
  5
6DC
100
AcDbEntity
  8
ASSI
100
AcDbLine
 62
7
  6
CONTINUOUS
 10
-74.5325699129
 20
-14.0
 11
-74.5325699129
 21
-20.0
  0
LINE
  5
6DD
100
AcDbEntity
  8
ASSI
100
AcDbLine
 62
7
  6
CONTINUOUS
 10
-74.5325699129
 20
14.0
 11
-74.5325699129
 21
20.0
  0
LINE
  5
6DE
100
AcDbEntity
  8
ASSI
100
AcDbLine
 62
250
  6
CONTINUOUS
 10
-74.4110738473
 20
-5.518138829
 11
-74.4110738473
 21
-14.0
  0
LINE
  5
6DF
100
AcDbEntity
  8
ASSI
100
AcDbLine
 62
250
  6
CONTINUOUS
 10
-74.4110738473
 20
-20.0
 11
-74.4110738473
 21
-26.7
  0
LINE
  5
6E0
100
AcDbEntity
  8
RACCORDO
100
AcDbLine
 62
250
  6
CONTINUOUS
 10
-74.4110738473
 20
-26.7
 11
-74.4110738473
 21
-36.5386624453
  0
LINE
  5
6E1
100
AcDbEntity
  8
ASSI
100
AcDbLine
 62
250
  6
CONTINUOUS
 10
-74.4110738473
 20
5.518138829
 11
-74.4110738473
 21
14.0
  0
LINE
  5
6E2
100
AcDbEntity
  8
ASSI
100
AcDbLine
 62
250
  6
CONTINUOUS
 10
-74.4110738473
 20
20.0
 11
-74.4110738473
 21
26.7
  0
LINE
  5
6E3
100
AcDbEntity
  8
RACCORDO
100
AcDbLine
 62
250
  6
CONTINUOUS
 10
-74.4110738473
 20
26.7
 11
-74.4110738473
 21
36.5386624453
  0
LINE
  5
6E4
100
AcDbEntity
  8
RACCORDO
100
AcDbLine
 62
250
  6
CONTINUOUS
 10
-74.2396766941
 20
-20.0
 11
-74.2396766941
 21
-14.0
  0
LINE
  5
6E5
100
AcDbEntity
  8
RACCORDO
100
AcDbLine
 62
250
  6
CONTINUOUS
 10
-74.2396766941
 20
14.0
 11
-74.2396766941
 21
20.0
  0
LINE
  5
6E6
100
AcDbEntity
  8
RACCORDO
100
AcDbLine
 62
250
  6
CONTINUOUS
 10
-73.8861233035
 20
-20.0
 11
-73.8861233035
 21
-14.0
  0
LINE
  5
6E7
100
AcDbEntity
  8
RACCORDO
100
AcDbLine
 62
250
  6
CONTINUOUS
 10
-73.8861233035
 20
14.0
 11
-73.8861233035
 21
20.0
  0
LWPOLYLINE
  5
6E8
100
AcDbEntity
  8
RACCORDO
100
AcDbPolyline
 62
250
  6
CONTINUOUS
 90
3
 70
0
 10
-76.6847515468
 20
-22.1028332427
 10
-76.685302287
 20
-22.1354566759
 10
-76.6862549177
 20
-22.1984807379
  0
LINE
  5
6E9
100
AcDbEntity
  8
RACCORDO
100
AcDbLine
 62
7
  6
CONTINUOUS
 10
-60.3325699129
 20
-7.6308782547
 11
-71.3325699129
 21
-7.7268738004
  0
LINE
  5
6EA
100
AcDbEntity
  8
ASSI
100
AcDbLine
 62
7
  6
CONTINUOUS
 10
-71.3325699129
 20
-7.85
 11
-60.3325699129
 21
-7.85
  0
LINE
  5
6EB
100
AcDbEntity
  8
ASSI
100
AcDbLine
 62
7
  6
CONTINUOUS
 10
-73.137953755
 20
-14.0
 11
-73.137953755
 21
-20.0
  0
LINE
  5
6EC
100
AcDbEntity
  8
ASSI
100
AcDbLine
 62
7
  6
CONTINUOUS
 10
-73.137953755
 20
14.0
 11
-73.137953755
 21
20.0
  0
LWPOLYLINE
  5
6ED
100
AcDbEntity
  8
0
100
AcDbPolyline
 62
7
  6
CONTINUOUS
 90
13
 70
0
 43
0.3500000006
 10
-72.6682855682
 20
56.3043901062
 10
-72.6682855682
 20
57.5901060791
 10
-72.4539965515
 20
58.0186750488
 10
-72.0254275818
 20
58.4472440186
 10
-71.8111430969
 20
58.4472440186
 10
-71.3825695953
 20
58.0186750488
 10
-71.1682851105
 20
57.5901060791
 10
-71.1682851105
 20
56.3043901062
 10
-71.3825695953
 20
55.8758120728
 10
-71.8111430969
 20
55.447243103
 10
-72.0254275818
 20
55.447243103
 10
-72.4539965515
 20
55.8758120728
 10
-72.6682855682
 20
56.3043901062
  0
LINE
  5
6EE
100
AcDbEntity
  8
DRAFT
100
AcDbLine
 62
7
  6
CONTINUOUS
 10
-72.3325699129
 20
5.5
 11
-72.3325699129
 21
3.25
  0
LINE
  5
6EF
100
AcDbEntity
  8
0
100
AcDbLine
 62
7
  6
CONTINUOUS
 10
-72.3325699129
 20
3.25
 11
-72.3325699129
 21
-3.25
  0
LINE
  5
6F0
100
AcDbEntity
  8
DRAFT
100
AcDbLine
 62
7
  6
CONTINUOUS
 10
-72.3325699129
 20
-3.25
 11
-72.3325699129
 21
-5.5
  0
LINE
  5
6F1
100
AcDbEntity
  8
0
100
AcDbLine
 62
7
  6
CONTINUOUS
 10
-72.1325699129
 20
3.25
 11
-72.1325699129
 21
-3.25
  0
LINE
  5
6F2
100
AcDbEntity
  8
DRAFT
100
AcDbLine
 62
7
  6
CONTINUOUS
 10
-71.3325699129
 20
36.7
 11
-71.3325699129
 21
3.25
  0
LINE
  5
6F3
100
AcDbEntity
  8
0
100
AcDbLine
 62
7
  6
CONTINUOUS
 10
-71.3325699129
 20
3.25
 11
-71.3325699129
 21
-3.25
  0
LINE
  5
6F4
100
AcDbEntity
  8
DRAFT
100
AcDbLine
 62
7
  6
CONTINUOUS
 10
-71.3325699129
 20
-3.25
 11
-71.3325699129
 21
-36.7
  0
LINE
  5
6F5
100
AcDbEntity
  8
RACCORDO
100
AcDbLine
 62
250
  6
CONTINUOUS
 10
-60.3325699129
 20
-7.4065126379
 11
-71.3325699129
 21
-7.5032464055
  0
LINE
  5
6F6
100
AcDbEntity
  8
RACCORDO
100
AcDbLine
 62
7
  6
CONTINUOUS
 10
-72.3325699129
 20
-5.5
 11
-75.8325699129
 21
-5.5305440373
  0
LINE
  5
6F7
100
AcDbEntity
  8
DRAFT
100
AcDbLine
 62
250
  6
CONTINUOUS
 10
-60.3325699129
 20
-6.2384056568
 11
-71.3325699129
 21
-6.2587882727
  0
LINE
  5
6F8
100
AcDbEntity
  8
ASSI
100
AcDbLine
 62
7
  6
CONTINUOUS
 10
-62.5237049
 20
-6.0
 11
-60.3325699129
 21
-6.0
  0
LINE
  5
6F9
100
AcDbEntity
  8
ASSI
100
AcDbLine
 62
7
  6
CONTINUOUS
 10
-69.3325699129
 20
-5.85
 11
-65.352392334
 21
-5.85
  0
LINE
  5
6FA
100
AcDbEntity
  8
ASSI
100
AcDbLine
 62
7
  6
CONTINUOUS
 10
-63.3152252879
 20
-5.85
 11
-60.3325699129
 21
-5.85
  0
LINE
  5
6FB
100
AcDbEntity
  8
0
100
AcDbLine
 62
7
  6
CONTINUOUS
 10
-51.3325699192
 20
-5.75
 11
-68.0325699129
 21
-5.75
  0
LINE
  5
6FC
100
AcDbEntity
  8
DRAFT
100
AcDbLine
 62
7
  6
CONTINUOUS
 10
-60.3325699129
 20
-6.0191217453
 11
-71.3325699129
 21
-5.9231261996
  0
LWPOLYLINE
  5
6FD
100
AcDbEntity
  8
0
100
AcDbPolyline
 62
7
  6
CONTINUOUS
 90
3
 70
0
 43
0.3500000006
 10
-89.9315238647
 20
0.9285710678
 10
-89.7172393799
 20
0.8571421509
 10
-89.4315237122
 20
0.7142865829
  0
LINE
  5
6FE
100
AcDbEntity
  8
DRAFT
100
AcDbLine
 62
7
  6
CONTINUOUS
 10
-69.3325699129
 20
5.9514762067
 11
-69.3325699129
 21
4.45
  0
LINE
  5
6FF
100
AcDbEntity
  8
0
100
AcDbLine
 62
7
  6
CONTINUOUS
 10
-69.3325699129
 20
4.45
 11
-69.3325699129
 21
-4.45
  0
LINE
  5
700
100
AcDbEntity
  8
DRAFT
100
AcDbLine
 62
7
  6
CONTINUOUS
 10
-69.3325699129
 20
-4.45
 11
-69.3325699129
 21
-5.9514762067
  0
LINE
  5
701
100
AcDbEntity
  8
0
100
AcDbLine
 62
7
  6
CONTINUOUS
 10
-68.0325699129
 20
-4.75
 11
-51.3325699192
 21
-4.75
  0
LINE
  5
702
100
AcDbEntity
  8
0
100
AcDbLine
 62
7
  6
CONTINUOUS
 10
-66.5325699129
 20
-4.5
 11
-68.3282849192
 21
-4.5
  0
LINE
  5
703
100
AcDbEntity
  8
0
100
AcDbLine
 62
7
  6
CONTINUOUS
 10
-69.3325699129
 20
-4.45
 11
-68.3325699129
 21
-4.45
  0
LWPOLYLINE
  5
704
100
AcDbEntity
  8
0
100
AcDbPolyline
 62
7
  6
CONTINUOUS
 90
4
 70
0
 43
0.3500000006
 10
-92.002955658
 20
-4.28571381
 10
-92.6458091125
 20
-4.28571381
 10
-92.6458091125
 20
-2.7857144852
 10
-89.645808197
 20
-3.6428569565
  0
LINE
  5
705
100
AcDbEntity
  8
RACCORDO
100
AcDbLine
 62
250
  6
CONTINUOUS
 10
-60.3325699129
 20
-4.0
 11
-66.3325699129
 21
-4.0
  0
LINE
  5
706
100
AcDbEntity
  8
0
100
AcDbLine
 62
250
  6
CONTINUOUS
 10
-66.3325699129
 20
-4.0
 11
-68.3325699129
 21
-4.0
  0
LINE
  5
707
100
AcDbEntity
  8
0
100
AcDbLine
 62
250
  6
CONTINUOUS
 10
-66.3325699129
 20
-3.6071067812
 11
-68.3325699129
 21
-3.6071067812
  0
LINE
  5
708
100
AcDbEntity
  8
RACCORDO
100
AcDbLine
 62
7
  6
CONTINUOUS
 10
-60.6332132573
 20
-3.5
 11
-66.3325699129
 21
-3.5
  0
LINE
  5
709
100
AcDbEntity
  8
0
100
AcDbLine
 62
250
  6
CONTINUOUS
 10
-68.3325699129
 20
-3.2535533906
 11
-66.5325699129
 21
-3.2535533906
  0
LINE
  5
70A
100
AcDbEntity
  8
0
100
AcDbLine
 62
7
  6
CONTINUOUS
 10
-71.3325699129
 20
-3.25
 11
-72.3325699129
 21
-3.25
  0
LINE
  5
70B
100
AcDbEntity
  8
0
100
AcDbLine
 62
250
  6
CONTINUOUS
 10
-66.5325699129
 20
-2.9885576962
 11
-68.3325699129
 21
-2.9885576962
  0
LINE
  5
70C
100
AcDbEntity
  8
0
100
AcDbLine
 62
250
  6
CONTINUOUS
 10
-66.5325699129
 20
-2.6887799036
 11
-68.3325699129
 21
-2.6887799036
  0
LWPOLYLINE
  5
70D
100
AcDbEntity
  8
0
100
AcDbPolyline
 62
250
  6
CONTINUOUS
 90
16
 70
0
 10
-66.3325699129
 20
2.8471363399
 10
-66.3336655245
 20
2.8619188338
 10
-66.3369403585
 20
2.8765393791
 10
-66.34235854
 20
2.8908377907
 10
-66.3498607112
 20
2.9046574125
 10
-66.3593646813
 20
2.9178468331
 10
-66.3707663263
 20
2.9302615446
 10
-66.3839407313
 20
2.9417655276
 10
-66.3987435578
 20
2.95223274
 10
-66.4150126236
 20
2.9615484976
 10
-66.4325696833
 20
2.9696107332
 10
-66.4512223791
 20
2.9763311129
 10
-66.4707663453
 20
2.9816360035
 10
-66.4909874525
 20
2.9854672819
 10
-66.5116641548
 20
2.9877829704
 10
-66.5325699129
 20
2.9885576963
  0
LWPOLYLINE
  5
70E
100
AcDbEntity
  8
0
100
AcDbPolyline
 62
250
  6
CONTINUOUS
 90
16
 70
0
 10
-66.3325699129
 20
3.1121320344
 10
-66.3336655338
 20
3.1269145914
 10
-66.3369403928
 20
3.1415351876
 10
-66.3423586097
 20
3.1558336368
 10
-66.3498608214
 20
3.1696532821
 10
-66.3593648322
 20
3.1828427125
 10
-66.370766514
 20
3.1952574219
 10
-66.3839409478
 20
3.2067613922
 10
-66.3987437917
 20
3.2172285835
 10
-66.4150128625
 20
3.2265443149
 10
-66.4325699129
 20
3.2346065215
 10
-66.4512225843
 20
3.241326872
 10
-66.470766514
 20
3.2466317367
 10
-66.4909875748
 20
3.2504629947
 10
-66.5116642203
 20
3.2527786696
 10
-66.5325699129
 20
3.2535533906
  0
LINE
  5
70F
100
AcDbEntity
  8
0
100
AcDbLine
 62
7
  6
CONTINUOUS
 10
-68.3325699129
 20
4.45
 11
-68.3325699129
 21
-4.45
  0
LINE
  5
710
100
AcDbEntity
  8
0
100
AcDbLine
 62
7
  6
CONTINUOUS
 10
-68.0325699129
 20
5.75
 11
-68.0325699129
 21
4.75
  0
LINE
  5
711
100
AcDbEntity
  8
0
100
AcDbLine
 62
7
  6
CONTINUOUS
 10
-68.0325699129
 20
-5.75
 11
-68.0325699129
 21
-4.75
  0
LINE
  5
712
100
AcDbEntity
  8
0
100
AcDbLine
 62
250
  6
CONTINUOUS
 10
-67.4692212762
 20
5.75
 11
-67.4692212762
 21
4.75
  0
LINE
  5
713
100
AcDbEntity
  8
0
100
AcDbLine
 62
250
  6
CONTINUOUS
 10
-67.4692212762
 20
-5.75
 11
-67.4692212762
 21
-4.75
  0
LINE
  5
714
100
AcDbEntity
  8
0
100
AcDbLine
 62
250
  6
CONTINUOUS
 10
-66.5325699129
 20
4.5
 11
-66.5325699129
 21
-4.5
  0
LINE
  5
715
100
AcDbEntity
  8
0
100
AcDbLine
 62
7
  6
CONTINUOUS
 10
-66.3325699129
 20
4.3
 11
-66.3325699129
 21
-4.3
  0
LWPOLYLINE
  5
716
100
AcDbEntity
  8
0
100
AcDbPolyline
 62
250
  6
CONTINUOUS
 90
16
 70
0
 10
-66.3325699129
 20
-2.8471363399
 10
-66.3336655338
 20
-2.861918897
 10
-66.3369403928
 20
-2.8765394932
 10
-66.3423586097
 20
-2.8908379424
 10
-66.3498608214
 20
-2.9046575876
 10
-66.3593648322
 20
-2.9178470181
 10
-66.370766514
 20
-2.9302617275
 10
-66.3839409478
 20
-2.9417656978
 10
-66.3987437917
 20
-2.952232889
 10
-66.4150128625
 20
-2.9615486205
 10
-66.4325699129
 20
-2.9696108271
 10
-66.4512225843
 20
-2.9763311775
 10
-66.470766514
 20
-2.9816360423
 10
-66.4909875748
 20
-2.9854673002
 10
-66.5116642203
 20
-2.9877829752
 10
-66.5325699129
 20
-2.9885576962
  0
LWPOLYLINE
  5
717
100
AcDbEntity
  8
0
100
AcDbPolyline
 62
250
  6
CONTINUOUS
 90
16
 70
0
 10
-66.3325699129
 20
-3.1121320344
 10
-66.3336655527
 20
-3.1269147182
 10
-66.3369404615
 20
-3.1415354164
 10
-66.3423587491
 20
-3.1558339403
 10
-66.3498610414
 20
-3.1696536314
 10
-66.3593651324
 20
-3.1828430801
 10
-66.3707668866
 20
-3.1952577844
 10
-66.383941376
 20
-3.2067617284
 10
-66.3987442522
 20
-3.2172288766
 10
-66.4150133313
 20
-3.2265445557
 10
-66.4325703618
 20
-3.2346067047
 10
-66.4512229836
 20
-3.2413269976
 10
-66.4707668411
 20
-3.2466318118
 10
-66.4909878107
 20
-3.25046303
 10
-66.5116643462
 20
-3.2527786789
 10
-66.5325699129
 20
-3.2535533905
  0
LINE
  5
718
100
AcDbEntity
  8
0
100
AcDbLine
 62
250
  6
CONTINUOUS
 10
-68.2847164434
 20
-5.7253125606
 11
-68.0907575738
 21
-4.7443028986
  0
LINE
  5
719
100
AcDbEntity
  8
0
100
AcDbLine
 62
7
  6
CONTINUOUS
 10
-66.3325699129
 20
-1.75
 11
-56.0006309129
 21
-1.75
  0
LINE
  5
71A
100
AcDbEntity
  8
0
100
AcDbLine
 62
7
  6
CONTINUOUS
 10
-76.3325699129
 20
-1.7320508076
 11
-75.8325699129
 21
-1.7320508076
  0
LINE
  5
71B
100
AcDbEntity
  8
0
100
AcDbLine
 62
7
  6
CONTINUOUS
 10
-69.3325699129
 20
-1.3856406461
 11
-71.3325699129
 21
-1.3856406461
  0
LINE
  5
71C
100
AcDbEntity
  8
0
100
AcDbLine
 62
7
  6
CONTINUOUS
 10
-66.3325699129
 20
-1.381939
 11
-55.6325699129
 21
-1.381939
  0
LINE
  5
71D
100
AcDbEntity
  8
0
100
AcDbLine
 62
7
  6
CONTINUOUS
 10
-55.6325699129
 20
-1.3
 11
-53.8325699129
 21
-1.3
  0
LWPOLYLINE
  5
71E
100
AcDbEntity
  8
RACCORDO
100
AcDbPolyline
 62
250
  6
CONTINUOUS
 90
7
 70
0
 10
-60.63321206
 20
-3.5000000028
 10
-60.6329546259
 20
-3.5001500607
 10
-60.6327302743
 20
-3.5006060625
 10
-60.6325402714
 20
-3.5013766514
 10
-60.6323846899
 20
-3.5024703471
 10
-60.6322636065
 20
-3.5038955246
 10
-60.6321771018
 20
-3.5056603935
  0
LINE
  5
71F
100
AcDbEntity
  8
0
100
AcDbLine
 62
250
  6
CONTINUOUS
 10
-68.2847164434
 20
5.7253125606
 11
-68.0907575738
 21
4.7443028986
  0
LWPOLYLINE
  5
720
100
AcDbEntity
  8
0
100
AcDbPolyline
 62
250
  6
CONTINUOUS
 90
16
 70
0
 10
-66.3325699129
 20
-2.6672696644
 10
-66.3336655151
 20
-2.6695180771
 10
-66.3369403236
 20
-2.671741859
 10
-66.3423584676
 20
-2.6739166459
 10
-66.3498605929
 20
-2.6760186105
 10
-66.3593645133
 20
-2.6780247233
 10
-66.3707661116
 20
-2.6799130047
 10
-66.3839404792
 20
-2.6816627663
 10
-66.3987432811
 20
-2.6832548363
 10
-66.4150123375
 20
-2.6846717709
 10
-66.4325694074
 20
-2.6858980452
 10
-66.4512221333
 20
-2.6869202228
 10
-66.4707661439
 20
-2.6877271035
 10
-66.4909873069
 20
-2.6883098463
 10
-66.5116640769
 20
-2.6886620661
 10
-66.5325699129
 20
-2.6887799034
  0
LINE
  5
721
100
AcDbEntity
  8
0
100
AcDbLine
 62
7
  6
CONTINUOUS
 10
-55.6325699129
 20
1.3
 11
-53.8325699129
 21
1.3
  0
LINE
  5
722
100
AcDbEntity
  8
0
100
AcDbLine
 62
7
  6
CONTINUOUS
 10
-66.3325699129
 20
1.381939
 11
-55.6325699129
 21
1.381939
  0
LINE
  5
723
100
AcDbEntity
  8
0
100
AcDbLine
 62
7
  6
CONTINUOUS
 10
-69.3325699129
 20
1.3856406461
 11
-71.3325699129
 21
1.3856406461
  0
LINE
  5
724
100
AcDbEntity
  8
0
100
AcDbLine
 62
7
  6
CONTINUOUS
 10
-76.3325699129
 20
1.7320508076
 11
-75.8325699129
 21
1.7320508076
  0
LINE
  5
725
100
AcDbEntity
  8
0
100
AcDbLine
 62
7
  6
CONTINUOUS
 10
-66.3325699129
 20
1.75
 11
-56.0006309129
 21
1.75
  0
LINE
  5
726
100
AcDbEntity
  8
0
100
AcDbLine
 62
250
  6
CONTINUOUS
 10
-68.3325699129
 20
2.6887799036
 11
-66.5325699129
 21
2.6887799036
  0
LWPOLYLINE
  5
727
100
AcDbEntity
  8
0
100
AcDbPolyline
 62
7
  6
CONTINUOUS
 90
2
 70
0
 43
0.3500000006
 10
-89.645808197
 20
2.9285716782
 10
-91.1458086548
 20
2.9285716782
  0
LINE
  5
728
100
AcDbEntity
  8
0
100
AcDbLine
 62
250
  6
CONTINUOUS
 10
-68.3325699129
 20
2.9885576962
 11
-66.5325699129
 21
2.9885576962
  0
LWPOLYLINE
  5
729
100
AcDbEntity
  8
0
100
AcDbPolyline
 62
250
  6
CONTINUOUS
 90
16
 70
0
 10
-66.3325699129
 20
2.6672696644
 10
-66.3336655337
 20
2.6695180965
 10
-66.3369403921
 20
2.6717418943
 10
-66.3423586084
 20
2.6739166935
 10
-66.3498608194
 20
2.6760186664
 10
-66.3593648295
 20
2.6780247835
 10
-66.3707665107
 20
2.6799130653
 10
-66.383940944
 20
2.6816628234
 10
-66.3987437876
 20
2.683254887
 10
-66.4150128583
 20
2.6846718132
 10
-66.432569909
 20
2.6858980778
 10
-66.4512225808
 20
2.6869202456
 10
-66.4707665112
 20
2.6877271175
 10
-66.4909875727
 20
2.6883098533
 10
-66.5116642192
 20
2.6886620683
 10
-66.5325699129
 20
2.6887799036
  0
LWPOLYLINE
  5
72A
100
AcDbEntity
  8
RACCORDO
100
AcDbPolyline
 62
250
  6
CONTINUOUS
 90
4
 70
0
 10
-60.6299519523
 20
-12.6165265316
 10
-60.629675474
 20
-12.6195669353
 10
-60.6294604068
 20
-12.6285906384
 10
-60.6293132873
 20
-12.643323716
  0
LWPOLYLINE
  5
72B
100
AcDbEntity
  8
RACCORDO
100
AcDbPolyline
 62
250
  6
CONTINUOUS
 90
13
 70
0
 10
-60.3325699129
 20
-3.8022641574
 10
-60.3351322134
 20
-3.7635817225
 10
-60.3427752812
 20
-3.7255600568
 10
-60.355368559
 20
-3.6888486385
 10
-60.3726969312
 20
-3.654074564
 10
-60.3944643982
 20
-3.6218318368
 10
-60.4202991327
 20
-3.5926712201
 10
-60.4497598314
 20
-3.5670908294
 10
-60.4823432528
 20
-3.5455276235
 10
-60.5174928141
 20
-3.5283499405
 10
-60.5546080977
 20
-3.5158512059
 10
-60.5930551084
 20
-3.5082449204
 10
-60.6321771026
 20
-3.505661013
  0
LWPOLYLINE
  5
72C
100
AcDbEntity
  8
RACCORDO
100
AcDbPolyline
 62
250
  6
CONTINUOUS
 90
3
 70
0
 10
-60.6321771018
 20
-3.5056603935
 10
-60.631977545
 20
-3.5130437544
 10
-60.631777257
 20
-3.5235574496
  0
LINE
  5
72D
100
AcDbEntity
  8
RACCORDO
100
AcDbLine
 62
250
  6
CONTINUOUS
 10
-60.631777257
 20
-3.5235574496
 11
-60.6313843657
 21
-3.5541864102
  0
LWPOLYLINE
  5
72E
100
AcDbEntity
  8
RACCORDO
100
AcDbPolyline
 62
250
  6
CONTINUOUS
 90
3
 70
0
 10
-60.5308246058
 20
-24.6224899351
 10
-60.5305807789
 20
-24.6583095413
 10
-60.5300598201
 20
-24.7336537711
  0
LINE
  5
72F
100
AcDbEntity
  8
RACCORDO
100
AcDbLine
 62
250
  6
CONTINUOUS
 10
-60.5300598201
 20
-24.7336537711
 11
-60.5284368465
 21
-24.981363751
  0
LINE
  5
730
100
AcDbEntity
  8
RACCORDO
100
AcDbLine
 62
250
  6
CONTINUOUS
 10
-60.5284368465
 20
-24.981363751
 11
-60.5271794015
 21
-25.1889633235
  0
LINE
  5
731
100
AcDbEntity
  8
RACCORDO
100
AcDbLine
 62
250
  6
CONTINUOUS
 10
-60.6313843657
 20
-3.5541864102
 11
-60.630690526
 21
-3.651922015
  0
LINE
  5
732
100
AcDbEntity
  8
RACCORDO
100
AcDbLine
 62
250
  6
CONTINUOUS
 10
-60.6293132108
 20
-13.7834728803
 11
-60.6299519523
 21
-13.6834810838
  0
LINE
  5
733
100
AcDbEntity
  8
RACCORDO
100
AcDbLine
 62
250
  6
CONTINUOUS
 10
-60.6293132108
 20
12.7165271197
 11
-60.6299519523
 21
12.8165189162
  0
LINE
  5
734
100
AcDbEntity
  8
RACCORDO
100
AcDbLine
 62
250
  6
CONTINUOUS
 10
-60.5271794015
 20
-25.1889633235
 11
-60.5254139688
 21
-25.5626030972
  0
LINE
  5
735
100
AcDbEntity
  8
RACCORDO
100
AcDbLine
 62
250
  6
CONTINUOUS
 10
-60.630690526
 20
-3.651922015
 11
-60.6300107054
 21
-3.8945755932
  0
LINE
  5
736
100
AcDbEntity
  8
RACCORDO
100
AcDbLine
 62
250
  6
CONTINUOUS
 10
-60.5308246058
 20
-16.8826655126
 11
-60.530330296
 21
-17.3953104876
  0
LINE
  5
737
100
AcDbEntity
  8
RACCORDO
100
AcDbLine
 62
250
  6
CONTINUOUS
 10
-60.6299519523
 20
13.6834810838
 11
-60.6299519523
 21
12.8165189162
  0
LINE
  5
738
100
AcDbEntity
  8
RACCORDO
100
AcDbLine
 62
250
  6
CONTINUOUS
 10
-60.6299519523
 20
5.8568124208
 11
-60.6299519523
 21
5.75
  0
LINE
  5
739
100
AcDbEntity
  8
RACCORDO
100
AcDbLine
 62
250
  6
CONTINUOUS
 10
-60.6300107054
 20
-3.8945755932
 11
-60.6299519523
 21
-4.75
  0
LINE
  5
73A
100
AcDbEntity
  8
RACCORDO
100
AcDbLine
 62
250
  6
CONTINUOUS
 10
-60.6299519523
 20
-5.75
 11
-60.6299519523
 21
-5.8568124208
  0
LINE
  5
73B
100
AcDbEntity
  8
RACCORDO
100
AcDbLine
 62
250
  6
CONTINUOUS
 10
-60.6299519523
 20
-12.8165189162
 11
-60.6299519523
 21
-13.6834810838
  0
LINE
  5
73C
100
AcDbEntity
  8
RACCORDO
100
AcDbLine
 62
250
  6
CONTINUOUS
 10
-60.6293132873
 20
-12.643323716
 11
-60.6292385817
 21
-12.6879685509
  0
LINE
  5
73D
100
AcDbEntity
  8
RACCORDO
100
AcDbLine
 62
250
  6
CONTINUOUS
 10
-60.6293132873
 20
13.856676284
 11
-60.6292385817
 21
13.8120314491
  0
LINE
  5
73E
100
AcDbEntity
  8
RACCORDO
100
AcDbLine
 62
250
  6
CONTINUOUS
 10
-60.5308246058
 20
24.6224899351
 11
-60.5308246058
 21
18.743085702
  0
LINE
  5
73F
100
AcDbEntity
  8
RACCORDO
100
AcDbLine
 62
250
  6
CONTINUOUS
 10
-60.5308246058
 20
12.6173916029
 11
-60.5308246058
 21
7.843085702
  0
LINE
  5
740
100
AcDbEntity
  8
RACCORDO
100
AcDbLine
 62
250
  6
CONTINUOUS
 10
-60.5308246058
 20
3.5180866485
 11
-60.5308246058
 21
1.75
  0
LINE
  5
741
100
AcDbEntity
  8
RACCORDO
100
AcDbLine
 62
250
  6
CONTINUOUS
 10
-60.5308246058
 20
-1.75
 11
-60.5308246058
 21
-3.5181001452
  0
LINE
  5
742
100
AcDbEntity
  8
RACCORDO
100
AcDbLine
 62
250
  6
CONTINUOUS
 10
-60.5308246058
 20
-7.843085702
 11
-60.5308246058
 21
-12.6173916028
  0
LINE
  5
743
100
AcDbEntity
  8
RACCORDO
100
AcDbLine
 62
250
  6
CONTINUOUS
 10
-60.5308246058
 20
-13.8826083971
 11
-60.5308246058
 21
-16.8826655126
  0
LINE
  5
744
100
AcDbEntity
  8
RACCORDO
100
AcDbLine
 62
250
  6
CONTINUOUS
 10
-60.5308246058
 20
-18.743085702
 11
-60.5308246058
 21
-24.6224899351
  0
LINE
  5
745
100
AcDbEntity
  8
RACCORDO
100
AcDbLine
 62
250
  6
CONTINUOUS
 10
-60.530330296
 20
18.2922827598
 11
-60.5301369234
 21
17.7427166801
  0
LINE
  5
746
100
AcDbEntity
  8
RACCORDO
100
AcDbLine
 62
250
  6
CONTINUOUS
 10
-60.5254139688
 20
-25.5626030972
 11
-60.5253777209
 21
-25.5983659776
  0
LINE
  5
747
100
AcDbEntity
  8
RACCORDO
100
AcDbLine
 62
250
  6
CONTINUOUS
 10
-60.530330296
 20
-17.3953104876
 11
-60.5301856831
 21
-18.181871351
  0
LWPOLYLINE
  5
748
100
AcDbEntity
  8
RACCORDO
100
AcDbPolyline
 62
250
  6
CONTINUOUS
 90
3
 70
0
 10
-60.5301369234
 20
17.7427166801
 10
-60.5305558305
 20
17.1428315708
 10
-60.5308246058
 20
13.8826083972
  0
LINE
  5
749
100
AcDbEntity
  8
RACCORDO
100
AcDbLine
 62
250
  6
CONTINUOUS
 10
-60.5301856831
 20
-18.181871351
 11
-60.530330376
 21
-18.2923028255
  0
LINE
  5
74A
100
AcDbEntity
  8
RACCORDO
100
AcDbLine
 62
250
  6
CONTINUOUS
 10
-60.5253863341
 20
25.6041584278
 11
-60.5254753035
 21
25.5385590386
  0
LINE
  5
74B
100
AcDbEntity
  8
RACCORDO
100
AcDbLine
 62
250
  6
CONTINUOUS
 10
-60.6299519523
 20
4.75
 11
-60.6303029798
 21
3.7497674384
  0
LINE
  5
74C
100
AcDbEntity
  8
RACCORDO
100
AcDbLine
 62
250
  6
CONTINUOUS
 10
-60.5254753035
 20
25.5385590386
 11
-60.5275218153
 21
25.1302183303
  0
LINE
  5
74D
100
AcDbEntity
  8
RACCORDO
100
AcDbLine
 62
250
  6
CONTINUOUS
 10
-60.6292385817
 20
13.8120314491
 11
-60.6296754596
 21
13.7182091833
  0
LINE
  5
74E
100
AcDbEntity
  8
RACCORDO
100
AcDbLine
 62
250
  6
CONTINUOUS
 10
-60.6292385817
 20
-12.6879685509
 11
-60.6296754596
 21
-12.7817908167
  0
LINE
  5
74F
100
AcDbEntity
  8
RACCORDO
100
AcDbLine
 62
250
  6
CONTINUOUS
 10
-60.6303029798
 20
3.7497674384
 11
-60.6310174137
 21
3.5974362989
  0
LINE
  5
750
100
AcDbEntity
  8
RACCORDO
100
AcDbLine
 62
250
  6
CONTINUOUS
 10
-60.5275218153
 20
25.1302183303
 11
-60.5308246058
 21
24.6224899351
  0
LINE
  5
751
100
AcDbEntity
  8
RACCORDO
100
AcDbLine
 62
250
  6
CONTINUOUS
 10
-60.6296754596
 20
13.7182091833
 11
-60.62995196
 21
13.6834810839
  0
LINE
  5
752
100
AcDbEntity
  8
RACCORDO
100
AcDbLine
 62
250
  6
CONTINUOUS
 10
-60.6296754596
 20
-12.7817908167
 11
-60.62995196
 21
-12.8165189161
  0
LWPOLYLINE
  5
753
100
AcDbEntity
  8
RACCORDO
100
AcDbPolyline
 62
250
  6
CONTINUOUS
 90
5
 70
0
 10
-60.6310174137
 20
3.5974362989
 10
-60.6315785976
 20
3.5372457307
 10
-60.6317772578
 20
3.5235574496
 10
-60.6319775455
 20
3.5130437544
 10
-60.6321771018
 20
3.5056603935
  0
LWPOLYLINE
  5
754
100
AcDbEntity
  8
RACCORDO
100
AcDbPolyline
 62
250
  6
CONTINUOUS
 90
7
 70
0
 10
-60.6321771018
 20
3.5056603935
 10
-60.6322636067
 20
3.5038955246
 10
-60.6323846901
 20
3.5024703471
 10
-60.6325402716
 20
3.5013766514
 10
-60.6327302745
 20
3.5006060625
 10
-60.632954626
 20
3.5001500607
 10
-60.633211936
 20
3.5000000034
  0
LWPOLYLINE
  5
755
100
AcDbEntity
  8
RACCORDO
100
AcDbPolyline
 62
250
  6
CONTINUOUS
 90
13
 70
0
 10
-60.3325708699
 20
3.8022641574
 10
-60.3351332336
 20
3.7635821644
 10
-60.3427763312
 20
3.7255609441
 10
-60.3553696054
 20
3.6888499631
 10
-60.372697942
 20
3.6540763071
 10
-60.3944653436
 20
3.6218339689
 10
-60.4202999859
 20
3.5926737019
 10
-60.4497605697
 20
3.5670936127
 10
-60.4823438582
 20
3.5455306522
 10
-60.5174932737
 20
3.5283531519
 10
-60.5546084045
 20
3.5158545324
 10
-60.5930552615
 20
3.5082482908
 10
-60.632177107
 20
3.5056643542
  0
LWPOLYLINE
  5
756
100
AcDbEntity
  8
RACCORDO
100
AcDbPolyline
 62
250
  6
CONTINUOUS
 90
6
 70
0
 10
-60.6299519523
 20
12.6165265316
 10
-60.6296754331
 20
12.619567216
 10
-60.6294603404
 20
12.6285915993
 10
-60.6293132088
 20
12.6433255068
 10
-60.6292385089
 20
12.6633212994
 10
-60.6293132108
 20
12.7165271197
  0
LINE
  5
757
100
AcDbEntity
  8
0
100
AcDbLine
 62
7
  6
CONTINUOUS
 10
-69.2087770546
 20
-5.0036576198
 11
-68.3040023302
 21
-4.577767143
  0
LWPOLYLINE
  5
758
100
AcDbEntity
  8
RACCORDO
100
AcDbPolyline
 62
7
  6
CONTINUOUS
 90
25
 70
0
 10
-60.633212092
 20
3.5000087382
 10
-60.6260178846
 20
3.5000949355
 10
-60.6017886358
 20
3.5016571059
 10
-60.5781308665
 20
3.5051026537
 10
-60.5551819737
 20
3.510321917
 10
-60.533063366
 20
3.5171976646
 10
-60.511835505
 20
3.5256269849
 10
-60.4915941269
 20
3.535492761
 10
-60.4724213542
 20
3.5466742748
 10
-60.4543459561
 20
3.5590782349
 10
-60.4374225883
 20
3.5725959054
 10
-60.4217111696
 20
3.5871050893
 10
-60.4072394469
 20
3.602503141
 10
-60.3940249429
 20
3.6186962472
 10
-60.3821075425
 20
3.6355548615
 10
-60.3715270033
 20
3.6529211615
 10
-60.3622752904
 20
3.6706872614
 10
-60.3543405903
 20
3.6887410049
 10
-60.3477215146
 20
3.7069144101
 10
-60.3423531653
 20
3.7251917471
 10
-60.3382179998
 20
3.7433994161
 10
-60.3353024203
 20
3.7611330364
 10
-60.3334755915
 20
3.7784843745
 10
-60.332649084
 20
3.7952289849
 10
-60.3325708853
 20
3.8022066708
  0
LINE
  5
759
100
AcDbEntity
  8
0
100
AcDbLine
 62
7
  6
CONTINUOUS
 10
-71.3325699129
 20
3.25
 11
-72.3325699129
 21
3.25
  0
LINE
  5
75A
100
AcDbEntity
  8
0
100
AcDbLine
 62
250
  6
CONTINUOUS
 10
-68.3325699129
 20
3.2535533906
 11
-66.5325699129
 21
3.2535533906
  0
LINE
  5
75B
100
AcDbEntity
  8
RACCORDO
100
AcDbLine
 62
7
  6
CONTINUOUS
 10
-66.3325699129
 20
3.5
 11
-60.6332132573
 21
3.5
  0
LINE
  5
75C
100
AcDbEntity
  8
0
100
AcDbLine
 62
250
  6
CONTINUOUS
 10
-66.3325699129
 20
3.6071067812
 11
-68.3325699129
 21
3.6071067812
  0
LINE
  5
75D
100
AcDbEntity
  8
RACCORDO
100
AcDbLine
 62
250
  6
CONTINUOUS
 10
-60.3325699129
 20
4.0
 11
-66.3325699129
 21
4.0
  0
LINE
  5
75E
100
AcDbEntity
  8
0
100
AcDbLine
 62
250
  6
CONTINUOUS
 10
-66.3325699129
 20
4.0
 11
-68.3325699129
 21
4.0
  0
LINE
  5
75F
100
AcDbEntity
  8
0
100
AcDbLine
 62
7
  6
CONTINUOUS
 10
-69.3325699129
 20
4.45
 11
-68.3325699129
 21
4.45
  0
LINE
  5
760
100
AcDbEntity
  8
0
100
AcDbLine
 62
7
  6
CONTINUOUS
 10
-68.3282849192
 20
4.5
 11
-66.5325699129
 21
4.5
  0
LINE
  5
761
100
AcDbEntity
  8
0
100
AcDbLine
 62
7
  6
CONTINUOUS
 10
-51.3325699192
 20
4.75
 11
-68.0325699129
 21
4.75
  0
LINE
  5
762
100
AcDbEntity
  8
RACCORDO
100
AcDbLine
 62
7
  6
CONTINUOUS
 10
-75.8325699129
 20
5.5305440373
 11
-72.3325699129
 21
5.5
  0
LINE
  5
763
100
AcDbEntity
  8
0
100
AcDbLine
 62
7
  6
CONTINUOUS
 10
-69.2087770546
 20
5.0036576198
 11
-68.3040023302
 21
4.577767143
  0
LWPOLYLINE
  5
764
100
AcDbEntity
  8
RACCORDO
100
AcDbPolyline
 62
250
  6
CONTINUOUS
 90
4
 70
0
 10
-60.6299519523
 20
13.8834734684
 10
-60.629675474
 20
13.8804330647
 10
-60.6294604068
 20
13.8714093616
 10
-60.6293132873
 20
13.856676284
  0
LWPOLYLINE
  5
765
100
AcDbEntity
  8
RACCORDO
100
AcDbPolyline
 62
250
  6
CONTINUOUS
 90
4
 70
0
 10
-60.5255900136
 20
25.622611946
 10
-60.5255395805
 20
25.6219683401
 10
-60.525487582
 20
25.6199475589
 10
-60.5254394944
 20
25.6164075365
  0
LINE
  5
766
100
AcDbEntity
  8
RACCORDO
100
AcDbLine
 62
250
  6
CONTINUOUS
 10
-60.5308246058
 20
18.3826083972
 11
-60.5306890638
 21
18.3769154646
  0
LWPOLYLINE
  5
767
100
AcDbEntity
  8
RACCORDO
100
AcDbPolyline
 62
7
  6
CONTINUOUS
 90
27
 70
0
 10
-60.3325708993
 20
-3.8022009281
 10
-60.3325874173
 20
-3.7990162575
 10
-60.3330711485
 20
-3.7845495353
 10
-60.3342917101
 20
-3.7695466325
 10
-60.336324792
 20
-3.7541335602
 10
-60.339265246
 20
-3.7382635906
 10
-60.3431561031
 20
-3.7221653875
 10
-60.3480622764
 20
-3.705882771
 10
-60.3540340843
 20
-3.6895084102
 10
-60.3610187107
 20
-3.6733429208
 10
-60.3689629519
 20
-3.6575639591
 10
-60.3779144225
 20
-3.6421248759
 10
-60.3879441314
 20
-3.6269912504
 10
-60.3990754714
 20
-3.6122332301
 10
-60.4113010292
 20
-3.5979589074
 10
-60.4246646481
 20
-3.5842161287
 10
-60.4391820396
 20
-3.5710952391
 10
-60.4548242241
 20
-3.5587244339
 10
-60.4715623875
 20
-3.5472207801
 10
-60.4893646545
 20
-3.5366969884
 10
-60.5081828129
 20
-3.5272700158
 10
-60.5279440567
 20
-3.5190607485
 10
-60.5485766025
 20
-3.5121802233
 10
-60.5699964121
 20
-3.5067367814
 10
-60.5920913398
 20
-3.5028370237
 10
-60.6147522287
 20
-3.5005766203
 10
-60.6332122302
 20
-3.5000087616
  0
LWPOLYLINE
  5
768
100
AcDbEntity
  8
RACCORDO
100
AcDbPolyline
 62
250
  6
CONTINUOUS
 90
3
 70
0
 10
-60.5306890638
 20
18.3769154646
 10
-60.5304326808
 20
18.3315958925
 10
-60.530330296
 20
18.2922827598
  0
LINE
  5
769
100
AcDbEntity
  8
RACCORDO
100
AcDbLine
 62
250
  6
CONTINUOUS
 10
-60.5254394944
 20
25.6164075365
 11
-60.5253863341
 21
25.6041584278
  0
LINE
  5
76A
100
AcDbEntity
  8
RACCORDO
100
AcDbLine
 62
7
  6
CONTINUOUS
 10
-60.3325699129
 20
27.0
 11
-60.3325699129
 21
6.2384056568
  0
LINE
  5
76B
100
AcDbEntity
  8
DRAFT
100
AcDbLine
 62
7
  6
CONTINUOUS
 10
-60.3325699129
 20
6.2384056568
 11
-60.3325699129
 21
6.0
  0
LINE
  5
76C
100
AcDbEntity
  8
RACCORDO
100
AcDbLine
 62
7
  6
CONTINUOUS
 10
-60.3325699129
 20
6.0
 11
-60.3325699129
 21
5.75
  0
LINE
  5
76D
100
AcDbEntity
  8
RACCORDO
100
AcDbLine
 62
7
  6
CONTINUOUS
 10
-60.3325699129
 20
4.75
 11
-60.3325699129
 21
1.75
  0
LINE
  5
76E
100
AcDbEntity
  8
RACCORDO
100
AcDbLine
 62
7
  6
CONTINUOUS
 10
-60.3325699129
 20
-1.75
 11
-60.3325699129
 21
-4.75
  0
LINE
  5
76F
100
AcDbEntity
  8
DRAFT
100
AcDbLine
 62
7
  6
CONTINUOUS
 10
-60.3325699129
 20
-6.0
 11
-60.3325699129
 21
-6.2384056568
  0
LINE
  5
770
100
AcDbEntity
  8
RACCORDO
100
AcDbLine
 62
7
  6
CONTINUOUS
 10
-60.3325699129
 20
-5.75
 11
-60.3325699129
 21
-6.0
  0
LINE
  5
771
100
AcDbEntity
  8
RACCORDO
100
AcDbLine
 62
7
  6
CONTINUOUS
 10
-60.3325699129
 20
-6.2384056568
 11
-60.3325699129
 21
-27.0
  0
LWPOLYLINE
  5
772
100
AcDbEntity
  8
RACCORDO
100
AcDbPolyline
 62
250
  6
CONTINUOUS
 90
6
 70
0
 10
-60.5253777209
 20
-25.5983659776
 10
-60.5254123877
 20
-25.6125149968
 10
-60.5254459424
 20
-25.61711709
 10
-60.5254921867
 20
-25.620251654
 10
-60.5255418092
 20
-25.6220415842
 10
-60.5255900136
 20
-25.622611946
  0
LWPOLYLINE
  5
773
100
AcDbEntity
  8
RACCORDO
100
AcDbPolyline
 62
250
  6
CONTINUOUS
 90
4
 70
0
 10
-60.530330376
 20
-18.2923028255
 10
-60.5305558305
 20
-18.359871802
 10
-60.5306889914
 20
-18.3769145632
 10
-60.5308246058
 20
-18.3826083971
  0
LWPOLYLINE
  5
774
100
AcDbEntity
  8
RACCORDO
100
AcDbPolyline
 62
250
  6
CONTINUOUS
 90
6
 70
0
 10
-60.6299519523
 20
-13.8834734684
 10
-60.6296754331
 20
-13.880432784
 10
-60.6294603404
 20
-13.8714084007
 10
-60.6293132088
 20
-13.8566744932
 10
-60.6292385089
 20
-13.8366787006
 10
-60.6293132108
 20
-13.7834728803
  0
LINE
  5
775
100
AcDbEntity
  8
DRAFT
100
AcDbLine
 62
7
  6
CONTINUOUS
 10
-60.3325699129
 20
6.0191217453
 11
-71.3325699129
 21
5.9231261996
  0
LINE
  5
776
100
AcDbEntity
  8
0
100
AcDbLine
 62
7
  6
CONTINUOUS
 10
-51.3325699192
 20
5.75
 11
-68.0325699129
 21
5.75
  0
LINE
  5
777
100
AcDbEntity
  8
ASSI
100
AcDbLine
 62
7
  6
CONTINUOUS
 10
-69.3325699129
 20
5.85
 11
-65.352392334
 21
5.85
  0
LINE
  5
778
100
AcDbEntity
  8
ASSI
100
AcDbLine
 62
7
  6
CONTINUOUS
 10
-63.3152252879
 20
5.85
 11
-60.3325699129
 21
5.85
  0
LINE
  5
779
100
AcDbEntity
  8
ASSI
100
AcDbLine
 62
7
  6
CONTINUOUS
 10
-62.5237049
 20
6.0
 11
-60.3325699129
 21
6.0
  0
LINE
  5
77A
100
AcDbEntity
  8
ASSI
100
AcDbLine
 62
7
  6
CONTINUOUS
 10
-71.3325699129
 20
7.85
 11
-60.3325699129
 21
7.85
  0
LINE
  5
77B
100
AcDbEntity
  8
DRAFT
100
AcDbLine
 62
250
  6
CONTINUOUS
 10
-60.3325699129
 20
6.2384056568
 11
-71.3325699129
 21
6.2587882727
  0
LINE
  5
77C
100
AcDbEntity
  8
RACCORDO
100
AcDbLine
 62
7
  6
CONTINUOUS
 10
-60.3325699129
 20
7.6308782547
 11
-71.3325699129
 21
7.7268738004
  0
LINE
  5
77D
100
AcDbEntity
  8
RACCORDO
100
AcDbLine
 62
250
  6
CONTINUOUS
 10
-60.3325699129
 20
7.4065126384
 11
-71.3325699129
 21
7.5032464052
  0
LINE
  5
77E
100
AcDbEntity
  8
0
100
AcDbLine
 62
7
  6
CONTINUOUS
 10
-56.0006309129
 20
1.75
 11
-56.0006309129
 21
-1.75
  0
LINE
  5
77F
100
AcDbEntity
  8
0
100
AcDbLine
 62
7
  6
CONTINUOUS
 10
-55.6325699129
 20
1.381939
 11
-55.6325699129
 21
-1.381939
  0
LINE
  5
780
100
AcDbEntity
  8
0
100
AcDbLine
 62
7
  6
CONTINUOUS
 10
-55.6325699129
 20
-1.381939
 11
-56.0006309129
 21
-1.75
  0
LINE
  5
781
100
AcDbEntity
  8
0
100
AcDbLine
 62
7
  6
CONTINUOUS
 10
-55.6325699129
 20
1.381939
 11
-56.0006309129
 21
1.75
  0
LINE
  5
782
100
AcDbEntity
  8
0
100
AcDbLine
 62
7
  6
CONTINUOUS
 10
-55.0711836773
 20
-4.75
 11
-55.0711836773
 21
-5.75
  0
LINE
  5
783
100
AcDbEntity
  8
0
100
AcDbLine
 62
7
  6
CONTINUOUS
 10
-55.0711836773
 20
4.75
 11
-55.0711836773
 21
5.75
  0
LINE
  5
784
100
AcDbEntity
  8
0
100
AcDbLine
 62
250
  6
CONTINUOUS
 10
-53.8325699129
 20
-1.3
 11
-53.8325699129
 21
1.3
  0
LINE
  5
785
100
AcDbEntity
  8
0
100
AcDbLine
 62
7
  6
CONTINUOUS
 10
-53.6325699129
 20
1.1
 11
-53.6325699129
 21
-1.1
  0
LINE
  5
786
100
AcDbEntity
  8
RACCORDO
100
AcDbLine
 62
7
  6
CONTINUOUS
 10
-60.5308246058
 20
12.6173916029
 11
-71.3325699129
 21
12.5231261996
  0
LINE
  5
787
100
AcDbEntity
  8
RACCORDO
100
AcDbLine
 62
250
  6
CONTINUOUS
 10
-60.6299519523
 20
12.8165189162
 11
-71.3325699129
 21
12.7231185843
  0
LINE
  5
788
100
AcDbEntity
  8
RACCORDO
100
AcDbLine
 62
250
  6
CONTINUOUS
 10
-60.3325699129
 20
12.8173839875
 11
-60.6299519523
 21
12.8165189162
  0
LINE
  5
789
100
AcDbEntity
  8
0
100
AcDbLine
 62
250
  6
CONTINUOUS
 10
-52.0074965167
 20
-5.75
 11
-52.0074965167
 21
-4.75
  0
LINE
  5
78A
100
AcDbEntity
  8
0
100
AcDbLine
 62
250
  6
CONTINUOUS
 10
-52.0074965167
 20
4.75
 11
-52.0074965167
 21
5.75
  0
LINE
  5
78B
100
AcDbEntity
  8
0
100
AcDbLine
 62
7
  6
CONTINUOUS
 10
-51.3325699129
 20
-5.75
 11
-51.3325699129
 21
-4.75
  0
LINE
  5
78C
100
AcDbEntity
  8
0
100
AcDbLine
 62
7
  6
CONTINUOUS
 10
-51.3325699129
 20
4.75
 11
-51.3325699129
 21
5.75
  0
LINE
  5
78D
100
AcDbEntity
  8
RACCORDO
100
AcDbLine
 62
7
  6
CONTINUOUS
 10
-73.137953755
 20
14.0
 11
-74.5325699129
 21
14.0
  0
LINE
  5
78E
100
AcDbEntity
  8
ASSI
100
AcDbLine
 62
7
  6
CONTINUOUS
 10
-74.5325699129
 20
14.0
 11
-75.8325699129
 21
14.0
  0
LINE
  5
78F
100
AcDbEntity
  8
RACCORDO
100
AcDbLine
 62
250
  6
CONTINUOUS
 10
-75.8325699129
 20
15.25
 11
-76.3325699129
 21
15.25
  0
LINE
  5
790
100
AcDbEntity
  8
RACCORDO
100
AcDbLine
 62
7
  6
CONTINUOUS
 10
-75.8325699129
 20
16.0
 11
-76.3325699129
 21
16.0
  0
LINE
  5
791
100
AcDbEntity
  8
RACCORDO
100
AcDbLine
 62
250
  6
CONTINUOUS
 10
-60.6299519523
 20
13.6834810838
 11
-60.3325699129
 21
13.6826160125
  0
LINE
  5
792
100
AcDbEntity
  8
RACCORDO
100
AcDbLine
 62
250
  6
CONTINUOUS
 10
-71.3325699129
 20
13.7768814157
 11
-60.6299519523
 21
13.6834810838
  0
LINE
  5
793
100
AcDbEntity
  8
RACCORDO
100
AcDbLine
 62
7
  6
CONTINUOUS
 10
-71.3325699129
 20
13.9768738004
 11
-60.5308246058
 21
13.8826083972
  0
LWPOLYLINE
  5
794
100
AcDbEntity
  8
RACCORDO
100
AcDbPolyline
 62
250
  6
CONTINUOUS
 90
3
 70
0
 10
-80.3865562488
 20
16.756485616
 10
-80.5996604906
 20
16.7649726536
 10
-80.6017735417
 20
16.7650672526
  0
LINE
  5
795
100
AcDbEntity
  8
RACCORDO
100
AcDbLine
 62
250
  6
CONTINUOUS
 10
-60.3325699129
 20
16.8826655126
 11
-60.5308246058
 21
16.8826655126
  0
LINE
  5
796
100
AcDbEntity
  8
ASSI
100
AcDbLine
 62
7
  6
CONTINUOUS
 10
-71.3325699129
 20
18.75
 11
-60.3325699129
 21
18.75
  0
LINE
  5
797
100
AcDbEntity
  8
RACCORDO
100
AcDbLine
 62
7
  6
CONTINUOUS
 10
-76.4325699129
 20
18.8
 11
-76.9325699129
 21
18.8
  0
LINE
  5
798
100
AcDbEntity
  8
RACCORDO
100
AcDbLine
 62
250
  6
CONTINUOUS
 10
-60.5308246058
 20
16.8826655126
 11
-71.3325699129
 21
16.9769309158
  0
LINE
  5
799
100
AcDbEntity
  8
RACCORDO
100
AcDbLine
 62
7
  6
CONTINUOUS
 10
-60.5308246058
 20
18.3826083972
 11
-71.3325699129
 21
18.4768738004
  0
LINE
  5
79A
100
AcDbEntity
  8
RACCORDO
100
AcDbLine
 62
250
  6
CONTINUOUS
 10
-80.3541497726
 20
16.7552054488
 11
-80.3865562488
 21
16.756485616
  0
LWPOLYLINE
  5
79B
100
AcDbEntity
  8
RACCORDO
100
AcDbPolyline
 62
250
  6
CONTINUOUS
 90
22
 70
0
 10
-79.7349696642
 20
17.4642258507
 10
-79.7752745893
 20
17.4564729794
 10
-79.8162788821
 20
17.4455873642
 10
-79.8579825427
 20
17.4315690052
 10
-79.9008656356
 20
17.4144818793
 10
-79.9444480962
 20
17.3942620094
 10
-79.9872897305
 20
17.3707174654
 10
-80.0293561239
 20
17.3436391092
 10
-80.070681691
 20
17.3132360788
 10
-80.1099294821
 20
17.279943857
 10
-80.1469648246
 20
17.2435956745
 10
-80.1819223911
 20
17.2043583006
 10
-80.213869249
 20
17.1631675263
 10
-80.2426344639
 20
17.119879646
 10
-80.2683889702
 20
17.0746383653
 10
-80.2907126383
 20
17.0288105929
 10
-80.309377166
 20
16.9824466314
 10
-80.3246108554
 20
16.9354961782
 10
-80.3366784831
 20
16.8891752333
 10
-80.345668308
 20
16.8438891301
 10
-80.3514920712
 20
16.7992325353
 10
-80.3541497726
 20
16.7552054488
  0
LINE
  5
79C
100
AcDbEntity
  8
RACCORDO
100
AcDbLine
 62
250
  6
CONTINUOUS
 10
-76.4325699129
 20
18.0465280279
 11
-79.7349696642
 21
17.4642258507
  0
LINE
  5
79D
100
AcDbEntity
  8
RACCORDO
100
AcDbLine
 62
7
  6
CONTINUOUS
 10
-76.4325699129
 20
18.3
 11
-79.7762000747
 21
17.710427789
  0
LINE
  5
79E
100
AcDbEntity
  8
RACCORDO
100
AcDbLine
 62
7
  6
CONTINUOUS
 10
-73.137953755
 20
20.0
 11
-74.5325699129
 21
20.0
  0
LINE
  5
79F
100
AcDbEntity
  8
ASSI
100
AcDbLine
 62
7
  6
CONTINUOUS
 10
-74.5325699129
 20
20.0
 11
-75.8325699129
 21
20.0
  0
LINE
  5
7A0
100
AcDbEntity
  8
RACCORDO
100
AcDbLine
 62
250
  6
CONTINUOUS
 10
-75.8325699129
 20
22.1177081284
 11
-76.6847515468
 21
22.1028332427
  0
LINE
  5
7A1
100
AcDbEntity
  8
RACCORDO
100
AcDbLine
 62
7
  6
CONTINUOUS
 10
-75.8325699129
 20
22.3677081299
 11
-76.6869330145
 21
22.3527951665
  0
LINE
  5
7A2
100
AcDbEntity
  8
RACCORDO
100
AcDbLine
 62
250
  6
CONTINUOUS
 10
-76.6847515468
 20
22.1028332427
 11
-76.9325699129
 21
22.1028332427
  0
LWPOLYLINE
  5
7A3
100
AcDbEntity
  8
0
100
AcDbPolyline
 62
7
  6
CONTINUOUS
 90
10
 70
0
 43
0.3500000006
 10
-69.6682846527
 20
55.9472432556
 10
-69.5968534698
 20
55.8043899536
 10
-69.5968534698
 20
55.7329587708
 10
-69.7397113037
 20
55.5901009369
 10
-69.8111424866
 20
55.5901009369
 10
-69.8825691376
 20
55.6615321198
 10
-69.8825691376
 20
55.7329587708
 10
-69.8111424866
 20
55.8758120728
 10
-69.7397113037
 20
55.9472432556
 10
-69.6682846527
 20
55.9472432556
  0
LINE
  5
7A4
100
AcDbEntity
  8
RACCORDO
100
AcDbLine
 62
250
  6
CONTINUOUS
 10
-60.3325699129
 20
24.6224899351
 11
-60.5308246058
 21
24.6224899351
  0
LINE
  5
7A5
100
AcDbEntity
  8
RACCORDO
100
AcDbLine
 62
250
  6
CONTINUOUS
 10
-75.8325699129
 20
26.7
 11
-71.3325699129
 21
26.7
  0
LINE
  5
7A6
100
AcDbEntity
  8
RACCORDO
100
AcDbLine
 62
250
  6
CONTINUOUS
 10
-60.5308246058
 20
24.6224899351
 11
-71.3325699129
 21
24.999695193
  0
LINE
  5
7A7
100
AcDbEntity
  8
RACCORDO
100
AcDbLine
 62
7
  6
CONTINUOUS
 10
-60.5255900136
 20
25.622611946
 11
-71.3325699129
 21
26.0
  0
LINE
  5
7A8
100
AcDbEntity
  8
ASSI
100
AcDbLine
 62
7
  6
CONTINUOUS
 10
-71.3325699129
 20
27.0
 11
-60.3325699129
 21
27.0
  0
LINE
  5
7A9
100
AcDbEntity
  8
RACCORDO
100
AcDbLine
 62
7
  6
CONTINUOUS
 10
-74.4110738473
 20
36.5386624453
 11
-71.3325699129
 21
36.7
  0
LWPOLYLINE
  5
7AA
100
AcDbEntity
  8
0
100
AcDbPolyline
 62
7
  6
CONTINUOUS
 90
7
 70
0
 43
0.3500000006
 10
-73.5254280396
 20
55.447243103
 10
-75.0254284973
 20
55.447243103
 10
-73.5254280396
 20
57.5901060791
 10
-73.5254280396
 20
58.0186750488
 10
-73.9539970093
 20
58.4472440186
 10
-74.5968549957
 20
58.4472440186
 10
-75.0254284973
 20
57.804390564
  0
ARC
  5
7AB
100
AcDbEntity
  8
DRAFT
100
AcDbCircle
 62
7
  6
CONTINUOUS
 10
-30.0
 20
-26.7
 40
10.0
100
AcDbArc
 50
180.0
 51
270.0
  0
ARC
  5
7AC
100
AcDbEntity
  8
RACCORDO
100
AcDbCircle
 62
250
  6
CONTINUOUS
 10
-30.0
 20
-26.7
 40
9.8386624451
100
AcDbArc
 50
180.0
 51
270.0
  0
ARC
  5
7AD
100
AcDbEntity
  8
RACCORDO
100
AcDbCircle
 62
250
  6
CONTINUOUS
 10
-30.0
 20
-26.7
 40
8.3407181401
100
AcDbArc
 50
180.0
 51
270.0
  0
CIRCLE
  5
7AE
100
AcDbEntity
  8
0
100
AcDbCircle
 62
7
  6
CONTINUOUS
 10
-33.0
 20
-29.0
 40
4.25
  0
CIRCLE
  5
7AF
100
AcDbEntity
  8
RACCORDO
100
AcDbCircle
 62
250
  6
CONTINUOUS
 10
-30.0
 20
-21.0
 40
3.9999943979
  0
ARC
  5
7B0
100
AcDbEntity
  8
RACCORDO
100
AcDbCircle
 62
250
  6
CONTINUOUS
 10
-30.0
 20
-2.2
 40
3.5779342886
100
AcDbArc
 50
180.0
 51
298.810793743
  0
CIRCLE
  5
7B1
100
AcDbEntity
  8
RACCORDO
100
AcDbCircle
 62
7
  6
CONTINUOUS
 10
-30.0
 20
-21.0
 40
3.5
  0
ARC
  5
7B2
100
AcDbEntity
  8
0
100
AcDbCircle
 62
7
  6
CONTINUOUS
 10
-30.0
 20
-2.2
 40
3.2779488235
100
AcDbArc
 50
272.4947681864
 51
298.810793743
  0
ARC
  5
7B3
100
AcDbEntity
  8
0
100
AcDbCircle
 62
7
  6
CONTINUOUS
 10
-30.0
 20
-2.2
 40
3.2779488235
100
AcDbArc
 50
180.0
 51
267.5062567008
  0
ARC
  5
7B4
100
AcDbEntity
  8
DRAFT
100
AcDbCircle
 62
7
  6
CONTINUOUS
 10
-2.2
 20
-30.0
 40
3.25
100
AcDbArc
 50
90.0
 51
270.0
  0
ARC
  5
7B5
100
AcDbEntity
  8
0
100
AcDbCircle
 62
7
  6
CONTINUOUS
 10
-30.0
 20
-2.2
 40
3.25
100
AcDbArc
 50
272.0156243186
 51
298.810793743
  0
ARC
  5
7B6
100
AcDbEntity
  8
0
100
AcDbCircle
 62
7
  6
CONTINUOUS
 10
-30.0
 20
-2.2
 40
3.25
100
AcDbArc
 50
180.0
 51
267.9843756814
  0
CIRCLE
  5
7B7
100
AcDbEntity
  8
RACCORDO
100
AcDbCircle
 62
250
  6
CONTINUOUS
 10
-30.0
 20
-21.0
 40
3.1999963119
  0
ARC
  5
7B8
100
AcDbEntity
  8
ASSI
100
AcDbCircle
 62
7
  6
CONTINUOUS
 10
-30.0
 20
-2.2
 40
3.1
100
AcDbArc
 50
180.0
 51
298.810793743
  0
ARC
  5
7B9
100
AcDbEntity
  8
RACCORDO
100
AcDbCircle
 62
250
  6
CONTINUOUS
 10
-2.2
 20
-30.0
 40
2.0999840716
100
AcDbArc
 50
90.0
 51
270.0
  0
CIRCLE
  5
7BA
100
AcDbEntity
  8
0
100
AcDbCircle
 62
7
  6
CONTINUOUS
 10
-33.0
 20
-29.0
 40
2.0
  0
ARC
  5
7BB
100
AcDbEntity
  8
ASSI
100
AcDbCircle
 62
7
  6
CONTINUOUS
 10
-30.0
 20
-2.0
 40
1.8
100
AcDbArc
 50
180.0
 51
360.0
  0
ARC
  5
7BC
100
AcDbEntity
  8
RACCORDO
100
AcDbCircle
 62
7
  6
CONTINUOUS
 10
-2.2
 20
-30.0
 40
1.8
100
AcDbArc
 50
90.0
 51
270.0
  0
ARC
  5
7BD
100
AcDbEntity
  8
RACCORDO
100
AcDbCircle
 62
7
  6
CONTINUOUS
 10
-34.25
 20
-15.25
 40
0.75
100
AcDbArc
 50
180.0
 51
360.0
  0
ARC
  5
7BE
100
AcDbEntity
  8
RACCORDO
100
AcDbCircle
 62
7
  6
CONTINUOUS
 10
-37.5
 20
-8.2
 40
0.6838552946
100
AcDbArc
 50
0.0
 51
180.0
  0
ARC
  5
7BF
100
AcDbEntity
  8
RACCORDO
100
AcDbCircle
 62
7
  6
CONTINUOUS
 10
-37.5
 20
-25.8
 40
0.6838552946
100
AcDbArc
 50
180.0
 51
360.0
  0
ARC
  5
7C0
100
AcDbEntity
  8
0
100
AcDbCircle
 62
7
  6
CONTINUOUS
 10
-30.0
 20
-5.45
 40
0.1
100
AcDbArc
 50
30.0
 51
150.0
  0
CIRCLE
  5
7C1
100
AcDbEntity
  8
0
100
AcDbCircle
 62
7
  6
CONTINUOUS
 10
-36.0
 20
0.0
 40
2.0
  0
CIRCLE
  5
7C2
100
AcDbEntity
  8
ASSI
100
AcDbCircle
 62
7
  6
CONTINUOUS
 10
-36.0
 20
0.0
 40
1.39
  0
ARC
  5
7C3
100
AcDbEntity
  8
RACCORDO
100
AcDbCircle
 62
7
  6
CONTINUOUS
 10
-37.5
 20
8.2
 40
0.6838552946
100
AcDbArc
 50
180.0
 51
360.0
  0
ARC
  5
7C4
100
AcDbEntity
  8
RACCORDO
100
AcDbCircle
 62
250
  6
CONTINUOUS
 10
-30.0
 20
2.2
 40
3.5779342886
100
AcDbArc
 50
61.189206257
 51
180.0
  0
ARC
  5
7C5
100
AcDbEntity
  8
0
100
AcDbCircle
 62
7
  6
CONTINUOUS
 10
-30.0
 20
2.2
 40
3.2779488235
100
AcDbArc
 50
92.4937229562
 51
180.0
  0
ARC
  5
7C6
100
AcDbEntity
  8
0
100
AcDbCircle
 62
7
  6
CONTINUOUS
 10
-30.0
 20
2.2
 40
3.2779488235
100
AcDbArc
 50
61.189206257
 51
87.5052152732
  0
ARC
  5
7C7
100
AcDbEntity
  8
RACCORDO
100
AcDbCircle
 62
7
  6
CONTINUOUS
 10
-26.0
 20
0.0
 40
3.2674537356
100
AcDbArc
 50
304.0990831497
 51
55.9009168503
  0
ARC
  5
7C8
100
AcDbEntity
  8
DRAFT
100
AcDbCircle
 62
7
  6
CONTINUOUS
 10
-26.0
 20
0.0
 40
3.25
100
AcDbArc
 50
298.810793743
 51
61.189206257
  0
ARC
  5
7C9
100
AcDbEntity
  8
0
100
AcDbCircle
 62
7
  6
CONTINUOUS
 10
-30.0
 20
2.2
 40
3.25
100
AcDbArc
 50
61.189206257
 51
87.9843756814
  0
ARC
  5
7CA
100
AcDbEntity
  8
0
100
AcDbCircle
 62
7
  6
CONTINUOUS
 10
-30.0
 20
2.2
 40
3.25
100
AcDbArc
 50
92.0156243186
 51
180.0
  0
ARC
  5
7CB
100
AcDbEntity
  8
ASSI
100
AcDbCircle
 62
7
  6
CONTINUOUS
 10
-30.0
 20
2.2
 40
3.1
100
AcDbArc
 50
61.189206257
 51
180.0
  0
ARC
  5
7CC
100
AcDbEntity
  8
ASSI
100
AcDbCircle
 62
7
  6
CONTINUOUS
 10
-26.0
 20
0.0
 40
3.1
100
AcDbArc
 50
298.810793743
 51
61.189206257
  0
CIRCLE
  5
7CD
100
AcDbEntity
  8
0
100
AcDbCircle
 62
7
  6
CONTINUOUS
 10
-26.0
 20
0.0
 40
2.75
  0
ARC
  5
7CE
100
AcDbEntity
  8
0
100
AcDbCircle
 62
7
  6
CONTINUOUS
 10
-26.0
 20
0.0
 40
2.6800090692
100
AcDbArc
 50
79.2475216065
 51
100.7524783935
  0
ARC
  5
7CF
100
AcDbEntity
  8
0
100
AcDbCircle
 62
7
  6
CONTINUOUS
 10
-26.0
 20
0.0
 40
2.6800090692
100
AcDbArc
 50
259.2475216065
 51
280.7524783935
  0
ARC
  5
7D0
100
AcDbEntity
  8
0
100
AcDbCircle
 62
250
  6
CONTINUOUS
 10
-26.0
 20
0.0
 40
2.6303144964
100
AcDbArc
 50
100.9581145825
 51
259.0418854175
  0
ARC
  5
7D1
100
AcDbEntity
  8
0
100
AcDbCircle
 62
250
  6
CONTINUOUS
 10
-26.0
 20
0.0
 40
2.6303144964
100
AcDbArc
 50
280.9581145825
 51
79.0418854175
  0
ARC
  5
7D2
100
AcDbEntity
  8
0
100
AcDbCircle
 62
250
  6
CONTINUOUS
 10
-26.0
 20
0.0
 40
2.5025777791
100
AcDbArc
 50
101.5249123964
 51
258.4750876036
  0
ARC
  5
7D3
100
AcDbEntity
  8
0
100
AcDbCircle
 62
250
  6
CONTINUOUS
 10
-26.0
 20
0.0
 40
2.5025777791
100
AcDbArc
 50
281.5249123964
 51
78.4750876036
  0
ARC
  5
7D4
100
AcDbEntity
  8
ASSI
100
AcDbCircle
 62
7
  6
CONTINUOUS
 10
-30.0
 20
2.0
 40
1.8
100
AcDbArc
 50
0.0
 51
180.0
  0
ARC
  5
7D5
100
AcDbEntity
  8
0
100
AcDbCircle
 62
7
  6
CONTINUOUS
 10
-26.0
 20
0.0
 40
1.145
100
AcDbArc
 50
176.3637942714
 51
183.6362057286
  0
ARC
  5
7D6
100
AcDbEntity
  8
0
100
AcDbCircle
 62
7
  6
CONTINUOUS
 10
-26.0
 20
0.0
 40
1.145
100
AcDbArc
 50
356.3637942714
 51
3.6362057286
  0
ARC
  5
7D7
100
AcDbEntity
  8
0
100
AcDbCircle
 62
7
  6
CONTINUOUS
 10
-26.0
 20
0.0
 40
1.145
100
AcDbArc
 50
266.3637942714
 51
273.6362057286
  0
ARC
  5
7D8
100
AcDbEntity
  8
0
100
AcDbCircle
 62
7
  6
CONTINUOUS
 10
-26.0
 20
0.0
 40
1.145
100
AcDbArc
 50
86.3637942714
 51
93.6362057286
  0
ARC
  5
7D9
100
AcDbEntity
  8
0
100
AcDbCircle
 62
7
  6
CONTINUOUS
 10
-30.0
 20
5.45
 40
0.1
100
AcDbArc
 50
210.0
 51
330.0
  0
ARC
  5
7DA
100
AcDbEntity
  8
DRAFT
100
AcDbCircle
 62
7
  6
CONTINUOUS
 10
-30.0
 20
26.7
 40
10.0
100
AcDbArc
 50
90.0
 51
180.0
  0
ARC
  5
7DB
100
AcDbEntity
  8
RACCORDO
100
AcDbCircle
 62
250
  6
CONTINUOUS
 10
-30.0
 20
26.7
 40
9.8386624441
100
AcDbArc
 50
90.0
 51
180.0
  0
ARC
  5
7DC
100
AcDbEntity
  8
RACCORDO
100
AcDbCircle
 62
250
  6
CONTINUOUS
 10
-30.0
 20
26.7
 40
8.3407178884
100
AcDbArc
 50
90.0
 51
180.0
  0
CIRCLE
  5
7DD
100
AcDbEntity
  8
0
100
AcDbCircle
 62
7
  6
CONTINUOUS
 10
-33.0
 20
29.0
 40
4.25
  0
CIRCLE
  5
7DE
100
AcDbEntity
  8
RACCORDO
100
AcDbCircle
 62
250
  6
CONTINUOUS
 10
-30.0
 20
21.0
 40
3.9999965035
  0
CIRCLE
  5
7DF
100
AcDbEntity
  8
RACCORDO
100
AcDbCircle
 62
7
  6
CONTINUOUS
 10
-30.0
 20
21.0
 40
3.5
  0
CIRCLE
  5
7E0
100
AcDbEntity
  8
RACCORDO
100
AcDbCircle
 62
250
  6
CONTINUOUS
 10
-30.0
 20
21.0
 40
3.1999967263
  0
CIRCLE
  5
7E1
100
AcDbEntity
  8
0
100
AcDbCircle
 62
7
  6
CONTINUOUS
 10
-33.0
 20
29.0
 40
2.0
  0
ARC
  5
7E2
100
AcDbEntity
  8
RACCORDO
100
AcDbCircle
 62
7
  6
CONTINUOUS
 10
-34.25
 20
15.25
 40
0.75
100
AcDbArc
 50
0.0
 51
180.0
  0
ARC
  5
7E3
100
AcDbEntity
  8
RACCORDO
100
AcDbCircle
 62
7
  6
CONTINUOUS
 10
-37.5
 20
25.8
 40
0.6838552946
100
AcDbArc
 50
0.0
 51
180.0
  0
ARC
  5
7E4
100
AcDbEntity
  8
0
100
AcDbCircle
 62
7
  6
CONTINUOUS
 10
-4.25
 20
0.0
 40
25.0
100
AcDbArc
 50
171.9574948866
 51
188.0425062769
  0
ARC
  5
7E5
100
AcDbEntity
  8
DRAFT
100
AcDbCircle
 62
7
  6
CONTINUOUS
 10
-2.2
 20
30.0
 40
3.25
100
AcDbArc
 50
90.0
 51
270.0
  0
ARC
  5
7E6
100
AcDbEntity
  8
RACCORDO
100
AcDbCircle
 62
250
  6
CONTINUOUS
 10
-2.2
 20
30.0
 40
2.0999840716
100
AcDbArc
 50
90.0
 51
270.0
  0
ARC
  5
7E7
100
AcDbEntity
  8
RACCORDO
100
AcDbCircle
 62
7
  6
CONTINUOUS
 10
-2.2
 20
30.0
 40
1.8
100
AcDbArc
 50
90.0
 51
270.0
  0
ARC
  5
7E8
100
AcDbEntity
  8
DRAFT
100
AcDbCircle
 62
7
  6
CONTINUOUS
 10
30.0
 20
-26.7
 40
10.0
100
AcDbArc
 50
270.0
 51
360.0
  0
ARC
  5
7E9
100
AcDbEntity
  8
RACCORDO
100
AcDbCircle
 62
250
  6
CONTINUOUS
 10
30.0
 20
-26.7
 40
9.8386624451
100
AcDbArc
 50
270.0
 51
360.0
  0
ARC
  5
7EA
100
AcDbEntity
  8
RACCORDO
100
AcDbCircle
 62
250
  6
CONTINUOUS
 10
30.0
 20
-26.7
 40
8.3407181401
100
AcDbArc
 50
270.0
 51
360.0
  0
CIRCLE
  5
7EB
100
AcDbEntity
  8
0
100
AcDbCircle
 62
7
  6
CONTINUOUS
 10
33.0
 20
-29.0
 40
4.25
  0
CIRCLE
  5
7EC
100
AcDbEntity
  8
RACCORDO
100
AcDbCircle
 62
250
  6
CONTINUOUS
 10
30.0
 20
-21.0
 40
3.9999943979
  0
ARC
  5
7ED
100
AcDbEntity
  8
RACCORDO
100
AcDbCircle
 62
250
  6
CONTINUOUS
 10
30.0
 20
-2.2
 40
3.5779342886
100
AcDbArc
 50
241.189206257
 51
360.0
  0
CIRCLE
  5
7EE
100
AcDbEntity
  8
RACCORDO
100
AcDbCircle
 62
7
  6
CONTINUOUS
 10
30.0
 20
-21.0
 40
3.5
  0
ARC
  5
7EF
100
AcDbEntity
  8
0
100
AcDbCircle
 62
7
  6
CONTINUOUS
 10
30.0
 20
-2.2
 40
3.2779488235
100
AcDbArc
 50
272.4937229562
 51
360.0
  0
ARC
  5
7F0
100
AcDbEntity
  8
0
100
AcDbCircle
 62
7
  6
CONTINUOUS
 10
30.0
 20
-2.2
 40
3.2779488235
100
AcDbArc
 50
241.189206257
 51
267.5052152732
  0
ARC
  5
7F1
100
AcDbEntity
  8
DRAFT
100
AcDbCircle
 62
7
  6
CONTINUOUS
 10
2.2
 20
-30.0
 40
3.25
100
AcDbArc
 50
270.0
 51
90.0
  0
ARC
  5
7F2
100
AcDbEntity
  8
0
100
AcDbCircle
 62
7
  6
CONTINUOUS
 10
30.0
 20
-2.2
 40
3.25
100
AcDbArc
 50
272.0156243186
 51
360.0
  0
ARC
  5
7F3
100
AcDbEntity
  8
0
100
AcDbCircle
 62
7
  6
CONTINUOUS
 10
30.0
 20
-2.2
 40
3.25
100
AcDbArc
 50
241.189206257
 51
267.9843756814
  0
CIRCLE
  5
7F4
100
AcDbEntity
  8
RACCORDO
100
AcDbCircle
 62
250
  6
CONTINUOUS
 10
30.0
 20
-21.0
 40
3.1999963119
  0
ARC
  5
7F5
100
AcDbEntity
  8
ASSI
100
AcDbCircle
 62
7
  6
CONTINUOUS
 10
30.0
 20
-2.2
 40
3.1
100
AcDbArc
 50
241.189206257
 51
360.0
  0
ARC
  5
7F6
100
AcDbEntity
  8
RACCORDO
100
AcDbCircle
 62
250
  6
CONTINUOUS
 10
2.2
 20
-30.0
 40
2.0999840716
100
AcDbArc
 50
270.0
 51
90.0
  0
CIRCLE
  5
7F7
100
AcDbEntity
  8
0
100
AcDbCircle
 62
7
  6
CONTINUOUS
 10
33.0
 20
-29.0
 40
2.0
  0
ARC
  5
7F8
100
AcDbEntity
  8
ASSI
100
AcDbCircle
 62
7
  6
CONTINUOUS
 10
30.0
 20
-2.0
 40
1.8
100
AcDbArc
 50
180.0
 51
360.0
  0
ARC
  5
7F9
100
AcDbEntity
  8
RACCORDO
100
AcDbCircle
 62
7
  6
CONTINUOUS
 10
2.2
 20
-30.0
 40
1.8
100
AcDbArc
 50
270.0
 51
90.0
  0
ARC
  5
7FA
100
AcDbEntity
  8
RACCORDO
100
AcDbCircle
 62
7
  6
CONTINUOUS
 10
34.25
 20
-15.25
 40
0.75
100
AcDbArc
 50
180.0
 51
360.0
  0
ARC
  5
7FB
100
AcDbEntity
  8
RACCORDO
100
AcDbCircle
 62
7
  6
CONTINUOUS
 10
37.5
 20
-25.8
 40
0.6838552946
100
AcDbArc
 50
180.0
 51
360.0
  0
ARC
  5
7FC
100
AcDbEntity
  8
RACCORDO
100
AcDbCircle
 62
7
  6
CONTINUOUS
 10
37.5
 20
-8.2
 40
0.6838552946
100
AcDbArc
 50
0.0
 51
180.0
  0
ARC
  5
7FD
100
AcDbEntity
  8
0
100
AcDbCircle
 62
7
  6
CONTINUOUS
 10
30.0
 20
-5.45
 40
0.1
100
AcDbArc
 50
30.0
 51
150.0
  0
ARC
  5
7FE
100
AcDbEntity
  8
0
100
AcDbCircle
 62
7
  6
CONTINUOUS
 10
4.25
 20
0.0
 40
25.0
100
AcDbArc
 50
351.9574948866
 51
8.0425062769
  0
ARC
  5
7FF
100
AcDbEntity
  8
DRAFT
100
AcDbCircle
 62
7
  6
CONTINUOUS
 10
2.2
 20
30.0
 40
3.25
100
AcDbArc
 50
270.0
 51
90.0
  0
ARC
  5
800
100
AcDbEntity
  8
RACCORDO
100
AcDbCircle
 62
250
  6
CONTINUOUS
 10
2.2
 20
30.0
 40
2.0999840716
100
AcDbArc
 50
270.0
 51
90.0
  0
ARC
  5
801
100
AcDbEntity
  8
RACCORDO
100
AcDbCircle
 62
7
  6
CONTINUOUS
 10
2.2
 20
30.0
 40
1.8
100
AcDbArc
 50
270.0
 51
90.0
  0
ARC
  5
802
100
AcDbEntity
  8
RACCORDO
100
AcDbCircle
 62
250
  6
CONTINUOUS
 10
30.0
 20
2.2
 40
3.5779342886
100
AcDbArc
 50
0.0
 51
118.810793743
  0
ARC
  5
803
100
AcDbEntity
  8
0
100
AcDbCircle
 62
7
  6
CONTINUOUS
 10
30.0
 20
2.2
 40
3.2779488235
100
AcDbArc
 50
92.4947681864
 51
118.810793743
  0
ARC
  5
804
100
AcDbEntity
  8
0
100
AcDbCircle
 62
7
  6
CONTINUOUS
 10
30.0
 20
2.2
 40
3.2779488235
100
AcDbArc
 50
0.0
 51
87.5062567008
  0
ARC
  5
805
100
AcDbEntity
  8
RACCORDO
100
AcDbCircle
 62
7
  6
CONTINUOUS
 10
26.0
 20
0.0
 40
3.2674537356
100
AcDbArc
 50
124.0990831497
 51
235.9009168503
  0
ARC
  5
806
100
AcDbEntity
  8
0
100
AcDbCircle
 62
7
  6
CONTINUOUS
 10
30.0
 20
2.2
 40
3.25
100
AcDbArc
 50
0.0
 51
87.9843756814
  0
ARC
  5
807
100
AcDbEntity
  8
0
100
AcDbCircle
 62
7
  6
CONTINUOUS
 10
30.0
 20
2.2
 40
3.25
100
AcDbArc
 50
92.0156243186
 51
118.810793743
  0
ARC
  5
808
100
AcDbEntity
  8
DRAFT
100
AcDbCircle
 62
7
  6
CONTINUOUS
 10
26.0
 20
0.0
 40
3.25
100
AcDbArc
 50
118.810793743
 51
241.189206257
  0
ARC
  5
809
100
AcDbEntity
  8
ASSI
100
AcDbCircle
 62
7
  6
CONTINUOUS
 10
30.0
 20
2.2
 40
3.1
100
AcDbArc
 50
0.0
 51
118.810793743
  0
ARC
  5
80A
100
AcDbEntity
  8
ASSI
100
AcDbCircle
 62
7
  6
CONTINUOUS
 10
26.0
 20
0.0
 40
3.1
100
AcDbArc
 50
118.810793743
 51
241.189206257
  0
CIRCLE
  5
80B
100
AcDbEntity
  8
0
100
AcDbCircle
 62
7
  6
CONTINUOUS
 10
26.0
 20
0.0
 40
2.75
  0
ARC
  5
80C
100
AcDbEntity
  8
0
100
AcDbCircle
 62
7
  6
CONTINUOUS
 10
26.0
 20
0.0
 40
2.6800090692
100
AcDbArc
 50
79.2475216065
 51
100.7524783935
  0
ARC
  5
80D
100
AcDbEntity
  8
0
100
AcDbCircle
 62
7
  6
CONTINUOUS
 10
26.0
 20
0.0
 40
2.6800090692
100
AcDbArc
 50
259.2475216065
 51
280.7524783935
  0
ARC
  5
80E
100
AcDbEntity
  8
0
100
AcDbCircle
 62
250
  6
CONTINUOUS
 10
26.0
 20
0.0
 40
2.6303144964
100
AcDbArc
 50
100.9581145825
 51
259.0418854175
  0
ARC
  5
80F
100
AcDbEntity
  8
0
100
AcDbCircle
 62
250
  6
CONTINUOUS
 10
26.0
 20
0.0
 40
2.6303144964
100
AcDbArc
 50
280.9581145825
 51
79.0418854175
  0
ARC
  5
810
100
AcDbEntity
  8
0
100
AcDbCircle
 62
250
  6
CONTINUOUS
 10
26.0
 20
0.0
 40
2.5025777791
100
AcDbArc
 50
101.5249123964
 51
258.4750876036
  0
ARC
  5
811
100
AcDbEntity
  8
0
100
AcDbCircle
 62
250
  6
CONTINUOUS
 10
26.0
 20
0.0
 40
2.5025777791
100
AcDbArc
 50
281.5249123964
 51
78.4750876036
  0
ARC
  5
812
100
AcDbEntity
  8
ASSI
100
AcDbCircle
 62
7
  6
CONTINUOUS
 10
30.0
 20
2.0
 40
1.8
100
AcDbArc
 50
0.0
 51
180.0
  0
ARC
  5
813
100
AcDbEntity
  8
0
100
AcDbCircle
 62
7
  6
CONTINUOUS
 10
26.0
 20
0.0
 40
1.145
100
AcDbArc
 50
176.3637942714
 51
183.6362057286
  0
ARC
  5
814
100
AcDbEntity
  8
0
100
AcDbCircle
 62
7
  6
CONTINUOUS
 10
26.0
 20
0.0
 40
1.145
100
AcDbArc
 50
356.3637942714
 51
3.6362057286
  0
ARC
  5
815
100
AcDbEntity
  8
0
100
AcDbCircle
 62
7
  6
CONTINUOUS
 10
26.0
 20
0.0
 40
1.145
100
AcDbArc
 50
266.3637942714
 51
273.6362057286
  0
ARC
  5
816
100
AcDbEntity
  8
0
100
AcDbCircle
 62
7
  6
CONTINUOUS
 10
26.0
 20
0.0
 40
1.145
100
AcDbArc
 50
86.3637942714
 51
93.6362057286
  0
ARC
  5
817
100
AcDbEntity
  8
0
100
AcDbCircle
 62
7
  6
CONTINUOUS
 10
30.0
 20
5.45
 40
0.1
100
AcDbArc
 50
210.0
 51
330.0
  0
ARC
  5
818
100
AcDbEntity
  8
0
100
AcDbCircle
 62
7
  6
CONTINUOUS
 10
29.5
 20
13.0
 40
2.9735749324
100
AcDbArc
 50
292.0885434728
 51
273.4298223208
  0
ARC
  5
819
100
AcDbEntity
  8
0
100
AcDbCircle
 62
7
  6
CONTINUOUS
 10
29.410062
 20
7.394428
 40
2.6508884458
100
AcDbArc
 50
47.2312789315
 51
84.2011738916
  0
ARC
  5
81A
100
AcDbEntity
  8
0
100
AcDbCircle
 62
7
  6
CONTINUOUS
 10
29.618685
 20
7.823813
 40
2.6190759282
100
AcDbArc
 50
45.4348969444
 51
67.5658550007
  0
CIRCLE
  5
81B
100
AcDbEntity
  8
0
100
AcDbCircle
 62
7
  6
CONTINUOUS
 10
29.5
 20
13.0
 40
2.497595
  0
ARC
  5
81C
100
AcDbEntity
  8
0
100
AcDbCircle
 62
7
  6
CONTINUOUS
 10
29.5
 20
13.0
 40
2.2337503191
100
AcDbArc
 50
299.3041411838
 51
44.9957558874
  0
ARC
  5
81D
100
AcDbEntity
  8
0
100
AcDbCircle
 62
7
  6
CONTINUOUS
 10
29.5
 20
13.0
 40
2.2337501706
100
AcDbArc
 50
134.9002628452
 51
240.6958588162
  0
ARC
  5
81E
100
AcDbEntity
  8
0
100
AcDbCircle
 62
7
  6
CONTINUOUS
 10
29.5
 20
13.0
 40
1.7896378839
100
AcDbArc
 50
299.3041347443
 51
31.9732647666
  0
ARC
  5
81F
100
AcDbEntity
  8
0
100
AcDbCircle
 62
7
  6
CONTINUOUS
 10
29.5
 20
13.0
 40
1.78963742
100
AcDbArc
 50
148.02673736
 51
240.6958652557
  0
CIRCLE
  5
820
100
AcDbEntity
  8
0
100
AcDbCircle
 62
7
  6
CONTINUOUS
 10
36.0
 20
0.0
 40
2.0
  0
CIRCLE
  5
821
100
AcDbEntity
  8
ASSI
100
AcDbCircle
 62
7
  6
CONTINUOUS
 10
36.0
 20
0.0
 40
1.39
  0
ARC
  5
822
100
AcDbEntity
  8
RACCORDO
100
AcDbCircle
 62
7
  6
CONTINUOUS
 10
37.5
 20
8.2
 40
0.6838552946
100
AcDbArc
 50
180.0
 51
360.0
  0
ARC
  5
823
100
AcDbEntity
  8
DRAFT
100
AcDbCircle
 62
7
  6
CONTINUOUS
 10
30.0
 20
26.7
 40
10.0
100
AcDbArc
 50
0.0
 51
90.0
  0
ARC
  5
824
100
AcDbEntity
  8
RACCORDO
100
AcDbCircle
 62
250
  6
CONTINUOUS
 10
30.0
 20
26.7
 40
9.8386624441
100
AcDbArc
 50
0.0
 51
90.0
  0
ARC
  5
825
100
AcDbEntity
  8
RACCORDO
100
AcDbCircle
 62
250
  6
CONTINUOUS
 10
30.0
 20
26.7
 40
8.3407178884
100
AcDbArc
 50
0.0
 51
90.0
  0
CIRCLE
  5
826
100
AcDbEntity
  8
0
100
AcDbCircle
 62
7
  6
CONTINUOUS
 10
33.0
 20
29.0
 40
4.25
  0
CIRCLE
  5
827
100
AcDbEntity
  8
RACCORDO
100
AcDbCircle
 62
250
  6
CONTINUOUS
 10
30.0
 20
21.0
 40
3.9999964462
  0
CIRCLE
  5
828
100
AcDbEntity
  8
RACCORDO
100
AcDbCircle
 62
7
  6
CONTINUOUS
 10
30.0
 20
21.0
 40
3.5
  0
CIRCLE
  5
829
100
AcDbEntity
  8
RACCORDO
100
AcDbCircle
 62
250
  6
CONTINUOUS
 10
30.0
 20
21.0
 40
3.1999953741
  0
CIRCLE
  5
82A
100
AcDbEntity
  8
0
100
AcDbCircle
 62
7
  6
CONTINUOUS
 10
33.0
 20
29.0
 40
2.0
  0
ARC
  5
82B
100
AcDbEntity
  8
RACCORDO
100
AcDbCircle
 62
7
  6
CONTINUOUS
 10
34.25
 20
15.25
 40
0.75
100
AcDbArc
 50
0.0
 51
180.0
  0
ARC
  5
82C
100
AcDbEntity
  8
RACCORDO
100
AcDbCircle
 62
7
  6
CONTINUOUS
 10
37.5
 20
25.8
 40
0.6838552946
100
AcDbArc
 50
0.0
 51
180.0
  0
ARC
  5
82D
100
AcDbEntity
  8
0
100
AcDbCircle
 62
7
  6
CONTINUOUS
 10
-62.333808811
 20
-5.75
 40
1.5
100
AcDbArc
 50
41.8103148958
 51
138.1896851042
  0
ARC
  5
82E
100
AcDbEntity
  8
RACCORDO
100
AcDbCircle
 62
7
  6
CONTINUOUS
 10
-74.3325699129
 20
-35.0407181432
 40
1.5
100
AcDbArc
 50
180.0
 51
267.0
  0
ARC
  5
82F
100
AcDbEntity
  8
0
100
AcDbCircle
 62
7
  6
CONTINUOUS
 10
-64.333808811
 20
-4.75
 40
1.5
100
AcDbArc
 50
221.8103148958
 51
234.9027009397
  0
ARC
  5
830
100
AcDbEntity
  8
0
100
AcDbCircle
 62
7
  6
CONTINUOUS
 10
-64.333808811
 20
-4.75
 40
1.5
100
AcDbArc
 50
304.0859109656
 51
318.1896851042
  0
ARC
  5
831
100
AcDbEntity
  8
0
100
AcDbCircle
 62
7
  6
CONTINUOUS
 10
-68.0325699129
 20
-4.45
 40
1.3
100
AcDbArc
 50
180.0
 51
270.0
  0
ARC
  5
832
100
AcDbEntity
  8
RACCORDO
100
AcDbCircle
 62
7
  6
CONTINUOUS
 10
-79.602551897
 20
-16.725620036
 40
1.0
100
AcDbArc
 50
182.2607456281
 51
260.0
  0
ARC
  5
833
100
AcDbEntity
  8
0
100
AcDbCircle
 62
7
  6
CONTINUOUS
 10
-68.0325699129
 20
-4.45
 40
0.3
100
AcDbArc
 50
180.0
 51
270.0
  0
ARC
  5
834
100
AcDbEntity
  8
RACCORDO
100
AcDbCircle
 62
7
  6
CONTINUOUS
 10
-76.6825699129
 20
-22.1028332427
 40
0.25
100
AcDbArc
 50
180.0
 51
269.0
  0
ARC
  5
835
100
AcDbEntity
  8
0
100
AcDbCircle
 62
7
  6
CONTINUOUS
 10
-66.5325699129
 20
-4.3
 40
0.2
100
AcDbArc
 50
270.0
 51
360.0
  0
ARC
  5
836
100
AcDbEntity
  8
0
100
AcDbCircle
 62
7
  6
CONTINUOUS
 10
-53.8325699129
 20
-1.1
 40
0.2
100
AcDbArc
 50
270.0
 51
360.0
  0
ARC
  5
837
100
AcDbEntity
  8
RACCORDO
100
AcDbCircle
 62
7
  6
CONTINUOUS
 10
-60.5325699129
 20
-12.8173839875
 40
0.2
100
AcDbArc
 50
0.0
 51
89.5
  0
ARC
  5
838
100
AcDbEntity
  8
RACCORDO
100
AcDbCircle
 62
7
  6
CONTINUOUS
 10
-60.5325714502
 20
-13.682616026
 40
0.2
100
AcDbArc
 50
270.5004404037
 51
0.0000038432
  0
ARC
  5
839
100
AcDbEntity
  8
RACCORDO
100
AcDbCircle
 62
7
  6
CONTINUOUS
 10
-60.5325699129
 20
-25.4227337806
 40
0.2
100
AcDbArc
 50
272.0
 51
360.0
  0
ARC
  5
83A
100
AcDbEntity
  8
RACCORDO
100
AcDbCircle
 62
7
  6
CONTINUOUS
 10
-60.5325699129
 20
-18.1826160125
 40
0.2
100
AcDbArc
 50
270.5
 51
360.0
  0
ARC
  5
83B
100
AcDbEntity
  8
0
100
AcDbCircle
 62
7
  6
CONTINUOUS
 10
-62.333808811
 20
5.75
 40
1.5
100
AcDbArc
 50
221.8103148958
 51
318.1896851042
  0
ARC
  5
83C
100
AcDbEntity
  8
RACCORDO
100
AcDbCircle
 62
7
  6
CONTINUOUS
 10
-74.3325699129
 20
35.0407181432
 40
1.5
100
AcDbArc
 50
93.0
 51
180.0
  0
ARC
  5
83D
100
AcDbEntity
  8
0
100
AcDbCircle
 62
7
  6
CONTINUOUS
 10
-64.333808811
 20
4.75
 40
1.5
100
AcDbArc
 50
41.8103148958
 51
55.9140890344
  0
ARC
  5
83E
100
AcDbEntity
  8
0
100
AcDbCircle
 62
7
  6
CONTINUOUS
 10
-64.333808811
 20
4.75
 40
1.5
100
AcDbArc
 50
125.0972990603
 51
138.1896851042
  0
ARC
  5
83F
100
AcDbEntity
  8
0
100
AcDbCircle
 62
7
  6
CONTINUOUS
 10
-68.0325699129
 20
4.45
 40
1.3
100
AcDbArc
 50
90.0
 51
180.0
  0
ARC
  5
840
100
AcDbEntity
  8
RACCORDO
100
AcDbCircle
 62
7
  6
CONTINUOUS
 10
-79.602551897
 20
16.725620036
 40
1.0
100
AcDbArc
 50
100.0
 51
177.7392543719
  0
ARC
  5
841
100
AcDbEntity
  8
0
100
AcDbCircle
 62
7
  6
CONTINUOUS
 10
-68.0325699129
 20
4.45
 40
0.3
100
AcDbArc
 50
90.0
 51
180.0
  0
ARC
  5
842
100
AcDbEntity
  8
RACCORDO
100
AcDbCircle
 62
7
  6
CONTINUOUS
 10
-76.6825699129
 20
22.1028332427
 40
0.25
100
AcDbArc
 50
91.0
 51
180.0
  0
ARC
  5
843
100
AcDbEntity
  8
0
100
AcDbCircle
 62
7
  6
CONTINUOUS
 10
-66.5325699129
 20
4.3
 40
0.2
100
AcDbArc
 50
0.0
 51
90.0
  0
ARC
  5
844
100
AcDbEntity
  8
0
100
AcDbCircle
 62
7
  6
CONTINUOUS
 10
-53.8325699129
 20
1.1
 40
0.2
100
AcDbArc
 50
0.0
 51
90.0
  0
ARC
  5
845
100
AcDbEntity
  8
RACCORDO
100
AcDbCircle
 62
7
  6
CONTINUOUS
 10
-60.5325699129
 20
13.6826160125
 40
0.2
100
AcDbArc
 50
0.0
 51
89.5
  0
ARC
  5
846
100
AcDbEntity
  8
RACCORDO
100
AcDbCircle
 62
7
  6
CONTINUOUS
 10
-60.5325714502
 20
12.817383974
 40
0.2
100
AcDbArc
 50
270.5004404037
 51
0.0000038432
  0
ARC
  5
847
100
AcDbEntity
  8
RACCORDO
100
AcDbCircle
 62
7
  6
CONTINUOUS
 10
-60.5325699129
 20
25.4227335269
 40
0.2
100
AcDbArc
 50
0.0000726848
 51
88.0000025367
  0
ARC
  5
848
100
AcDbEntity
  8
RACCORDO
100
AcDbCircle
 62
7
  6
CONTINUOUS
 10
-60.5325699129
 20
18.1825816813
 40
0.2
100
AcDbArc
 50
0.0098351765
 51
89.5000858123
  0
ARC
  5
849
100
AcDbEntity
  8
RACCORDO
100
AcDbCircle
 62
7
  6
CONTINUOUS
 10
344.0674300871
 20
0.0
 40
425.0
100
AcDbArc
 50
177.7392543719
 51
182.2607456281
  0
ELLIPSE
  5
84A
100
AcDbEntity
  8
RACCORDO
100
AcDbEllipse
 62
7
  6
CONTINUOUS
 10
-7.0488012815
 20
24.0488012815
 30
0.0
 11
0.7432863905
 21
0.2965599074
 31
0.0
 40
0.9978809612
 41
-1.9511578445
 42
-0.3804376701
  0
ELLIPSE
  5
84B
100
AcDbEntity
  8
RACCORDO
100
AcDbEllipse
 62
7
  6
CONTINUOUS
 10
7.0488012815
 20
24.0488012815
 30
0.0
 11
0.7432863905
 21
-0.2965599074
 31
0.0
 40
0.9978809612
 41
-2.7611549835
 42
-1.1904348091
  0
ELLIPSE
  5
84C
100
AcDbEntity
  8
RACCORDO
100
AcDbEllipse
 62
7
  6
CONTINUOUS
 10
-7.0488012815
 20
-24.0488012815
 30
0.0
 11
0.7432863905
 21
-0.2965599074
 31
0.0
 40
0.9978809612
 41
0.3804376701
 42
1.9511578445
  0
ELLIPSE
  5
84D
100
AcDbEntity
  8
RACCORDO
100
AcDbEllipse
 62
7
  6
CONTINUOUS
 10
7.0488012815
 20
-24.0488012815
 30
0.0
 11
0.7432863905
 21
0.2965599074
 31
0.0
 40
0.9978809612
 41
1.1904348091
 42
2.7611549835
  0
ELLIPSE
  5
84E
100
AcDbEntity
  8
RACCORDO
100
AcDbEllipse
 62
7
  6
CONTINUOUS
 10
-2.0086887894
 20
25.9895237692
 30
0.0
 11
1.0
 21
-0.0
 31
0.0
 40
0.0349207695
 41
3.1503192998
 42
4.7123889804
  0
ELLIPSE
  5
84F
100
AcDbEntity
  8
RACCORDO
100
AcDbEllipse
 62
7
  6
CONTINUOUS
 10
-2.0086887894
 20
24.32574426
 30
0.0
 11
1.0
 21
-0.0
 31
0.0
 40
0.0087268678
 41
1.5707963268
 42
3.1328660073
  0
ELLIPSE
  5
850
100
AcDbEntity
  8
RACCORDO
100
AcDbEllipse
 62
7
  6
CONTINUOUS
 10
2.0086887894
 20
24.32574426
 30
0.0
 11
1.0
 21
0.0
 31
0.0
 40
0.0087268678
 41
0.0087266463
 42
1.5707963268
  0
ELLIPSE
  5
851
100
AcDbEntity
  8
RACCORDO
100
AcDbEllipse
 62
7
  6
CONTINUOUS
 10
2.0086887894
 20
25.9895237692
 30
0.0
 11
1.0
 21
0.0
 31
0.0
 40
0.0349207695
 41
4.7123889804
 42
6.2744586609
  0
ELLIPSE
  5
852
100
AcDbEntity
  8
RACCORDO
100
AcDbEllipse
 62
7
  6
CONTINUOUS
 10
-2.0086887894
 20
-24.32574426
 30
0.0
 11
1.0
 21
0.0
 31
0.0
 40
0.0087268678
 41
-3.1328660073
 42
-1.5707963268
  0
ELLIPSE
  5
853
100
AcDbEntity
  8
RACCORDO
100
AcDbEllipse
 62
7
  6
CONTINUOUS
 10
-2.0086887894
 20
-25.9895237692
 30
0.0
 11
1.0
 21
0.0
 31
0.0
 40
0.0349207695
 41
7.853981634
 42
9.4160513145
  0
ELLIPSE
  5
854
100
AcDbEntity
  8
RACCORDO
100
AcDbEllipse
 62
7
  6
CONTINUOUS
 10
2.0086887894
 20
-25.9895237692
 30
0.0
 11
1.0
 21
-0.0
 31
0.0
 40
0.0349207695
 41
6.2919119534
 42
7.853981634
  0
ELLIPSE
  5
855
100
AcDbEntity
  8
RACCORDO
100
AcDbEllipse
 62
7
  6
CONTINUOUS
 10
2.0086887894
 20
-24.32574426
 30
0.0
 11
1.0
 21
0.0
 31
0.0
 40
0.0087268678
 41
-1.5707963268
 42
-0.0087266463
  0
ELLIPSE
  5
856
100
AcDbEntity
  8
RACCORDO
100
AcDbEllipse
 62
7
  6
CONTINUOUS
 10
-12.7500095196
 20
22.149961918
 30
0.0
 11
0.1118178731
 21
0.2236527791
 31
0.0
 40
0.9998096356
 41
-1.1071030277
 42
0.4635410001
  0
ELLIPSE
  5
857
100
AcDbEntity
  8
RACCORDO
100
AcDbEllipse
 62
7
  6
CONTINUOUS
 10
-21.5499904804
 20
22.1351251128
 30
0.0
 11
-0.1118178731
 21
0.2236527791
 31
0.0
 40
0.9998096356
 41
-0.4635410001
 42
1.1071030277
  0
ELLIPSE
  5
858
100
AcDbEntity
  8
RACCORDO
100
AcDbEllipse
 62
7
  6
CONTINUOUS
 10
-21.5499904804
 20
-22.1351251128
 30
0.0
 11
0.1118178731
 21
0.2236527791
 31
0.0
 40
0.9998096356
 41
-4.2486956813
 42
-2.6780516535
  0
ELLIPSE
  5
859
100
AcDbEntity
  8
RACCORDO
100
AcDbEllipse
 62
7
  6
CONTINUOUS
 10
-12.7500095196
 20
-22.149961918
 30
0.0
 11
-0.1118178731
 21
0.2236527791
 31
0.0
 40
0.9998096356
 41
-3.6051336537
 42
-2.0344896259
  0
ELLIPSE
  5
85A
100
AcDbEntity
  8
RACCORDO
100
AcDbEllipse
 62
7
  6
CONTINUOUS
 10
12.7500095196
 20
-22.149961918
 30
0.0
 11
0.1118178731
 21
0.2236527791
 31
0.0
 40
0.9998096356
 41
-4.2486956813
 42
-2.6780516535
  0
ELLIPSE
  5
85B
100
AcDbEntity
  8
RACCORDO
100
AcDbEllipse
 62
7
  6
CONTINUOUS
 10
21.5499904804
 20
-22.1351251128
 30
0.0
 11
-0.1118178731
 21
0.2236527791
 31
0.0
 40
0.9998096356
 41
-3.6051336537
 42
-2.0344896259
  0
ELLIPSE
  5
85C
100
AcDbEntity
  8
RACCORDO
100
AcDbEllipse
 62
7
  6
CONTINUOUS
 10
12.7500095196
 20
22.149961918
 30
0.0
 11
-0.1118178731
 21
0.2236527791
 31
0.0
 40
0.9998096356
 41
-0.4635410001
 42
1.1071030277
  0
ELLIPSE
  5
85D
100
AcDbEntity
  8
RACCORDO
100
AcDbEllipse
 62
7
  6
CONTINUOUS
 10
21.5499904804
 20
22.1351251128
 30
0.0
 11
0.1118178731
 21
0.2236527791
 31
0.0
 40
0.9998096356
 41
-1.1071030277
 42
0.4635410001
  0
ELLIPSE
  5
85E
100
AcDbEntity
  8
RACCORDO
100
AcDbEllipse
 62
7
  6
CONTINUOUS
 10
21.5360274919
 20
18.046143347
 30
0.0
 11
0.012549111
 21
0.2535556743
 31
0.0
 40
0.9847713852
 41
-1.5205806929
 42
0.0487002863
  0
ELLIPSE
  5
85F
100
AcDbEntity
  8
RACCORDO
100
AcDbEllipse
 62
7
  6
CONTINUOUS
 10
21.5360274919
 20
-18.046143347
 30
0.0
 11
-0.012549111
 21
0.2535556743
 31
0.0
 40
0.9847713852
 41
-3.1902929399
 42
-1.6210119607
  0
ELLIPSE
  5
860
100
AcDbEntity
  8
RACCORDO
100
AcDbEllipse
 62
7
  6
CONTINUOUS
 10
12.7713903457
 20
18.046143347
 30
0.0
 11
-0.012549111
 21
0.2535556743
 31
0.0
 40
0.9847713852
 41
-0.0487002863
 42
1.5205806929
  0
ELLIPSE
  5
861
100
AcDbEntity
  8
RACCORDO
100
AcDbEllipse
 62
7
  6
CONTINUOUS
 10
12.7713903457
 20
-18.046143347
 30
0.0
 11
0.012549111
 21
0.2535556743
 31
0.0
 40
0.9847713852
 41
-4.6621733465
 42
-3.0928923672
  0
ELLIPSE
  5
862
100
AcDbEntity
  8
RACCORDO
100
AcDbEllipse
 62
7
  6
CONTINUOUS
 10
-12.7713903457
 20
-18.046143347
 30
0.0
 11
-0.012549111
 21
0.2535556743
 31
0.0
 40
0.9847713852
 41
-3.1902929399
 42
-1.6210119607
  0
ELLIPSE
  5
863
100
AcDbEntity
  8
RACCORDO
100
AcDbEllipse
 62
7
  6
CONTINUOUS
 10
-12.7713903457
 20
18.046143347
 30
0.0
 11
0.012549111
 21
0.2535556743
 31
0.0
 40
0.9847713852
 41
-1.5205806929
 42
0.0487002863
  0
ELLIPSE
  5
864
100
AcDbEntity
  8
RACCORDO
100
AcDbEllipse
 62
7
  6
CONTINUOUS
 10
-21.5360274919
 20
-18.046143347
 30
0.0
 11
0.012549111
 21
0.2535556743
 31
0.0
 40
0.9847713852
 41
-4.6621733465
 42
-3.0928923672
  0
ELLIPSE
  5
865
100
AcDbEntity
  8
RACCORDO
100
AcDbEllipse
 62
7
  6
CONTINUOUS
 10
-21.5360274919
 20
18.046143347
 30
0.0
 11
-0.012549111
 21
0.2535556743
 31
0.0
 40
0.9847713852
 41
-0.0487002863
 42
1.5205806929
  0
ELLIPSE
  5
866
100
AcDbEntity
  8
0
100
AcDbEllipse
 62
7
  6
CONTINUOUS
 10
20.669534
 20
-28.9347060901
 30
0.0
 11
0.389369
 21
0.0
 31
0.0
 40
0.9698463104
 41
-1.5707674536
 42
0.0000521638
  0
ELLIPSE
  5
867
100
AcDbEntity
  8
0
100
AcDbEllipse
 62
7
  6
CONTINUOUS
 10
20.669534
 20
-28.8999764545
 30
0.0
 11
0.389369
 21
-0.0
 31
0.0
 40
0.9698463104
 41
-1.5707674536
 42
1.5707963268
  0
ELLIPSE
  5
868
100
AcDbEntity
  8
RACCORDO
100
AcDbEllipse
 62
7
  6
CONTINUOUS
 10
-38.3407181432
 20
-5.5174537356
 30
0.0
 11
1.5
 21
-0.0
 31
0.0
 40
0.0087268678
 41
-3.089232776
 42
-1.5707963268
  0
ELLIPSE
  5
869
100
AcDbEntity
  8
RACCORDO
100
AcDbEllipse
 62
7
  6
CONTINUOUS
 10
38.3407181432
 20
-5.5174537356
 30
0.0
 11
1.5
 21
-0.0
 31
0.0
 40
0.0087268678
 41
-1.5707963268
 42
-0.0523598776
  0
ELLIPSE
  5
86A
100
AcDbEntity
  8
RACCORDO
100
AcDbEllipse
 62
7
  6
CONTINUOUS
 10
-38.3407181432
 20
5.5174537356
 30
0.0
 11
1.5
 21
-0.0
 31
0.0
 40
0.0087268678
 41
1.5707963268
 42
3.089232776
  0
ELLIPSE
  5
86B
100
AcDbEntity
  8
RACCORDO
100
AcDbEllipse
 62
7
  6
CONTINUOUS
 10
38.3407181432
 20
5.5174537356
 30
0.0
 11
1.5
 21
0.0
 31
0.0
 40
0.0087268678
 41
0.0523598776
 42
1.5707963268
  0
ELLIPSE
  5
86C
100
AcDbEntity
  8
0
100
AcDbEllipse
 62
7
  6
CONTINUOUS
 10
-11.745905
 20
-29.3305668797
 30
0.0
 11
0.572706
 21
0.0
 31
0.0
 40
0.9698463104
 41
1.5757461668
 42
2.8801932869
  0
ELLIPSE
  5
86D
100
AcDbEntity
  8
0
100
AcDbEllipse
 62
7
  6
CONTINUOUS
 10
-11.745905
 20
-29.3652965153
 30
0.0
 11
0.572706
 21
-0.0
 31
0.0
 40
0.9698463104
 41
1.5757461673
 42
2.8801932893
  0
ENDSEC
  0
SECTION
  2
OBJECTS
  0
DICTIONARY
  5
C
100
AcDbDictionary
280
0
281
1
  3
ACAD_GROUP
350
D
  3
ACAD_MLINESTYLE
350
17
  3
ACAD_LAYOUT
350
1A
  3
ACAD_PLOTSETTINGS
350
19
  3
ACAD_PLOTSTYLENAME
350
E
  0
DICTIONARY
  5
D
102
{ACAD_REACTORS
330
C
102
}
100
AcDbDictionary
280
0
281
1
  0
ACDBDICTIONARYWDFLT
  5
E
102
{ACAD_REACTORS
330
C
102
}
100
AcDbDictionary
281
1
  3
Normal
350
F
100
AcDbDictionaryWithDefault
340
F
  0
DICTIONARY
  5
17
102
{ACAD_REACTORS
330
C
102
}
100
AcDbDictionary
280
0
281
1
  3
Standard
350
18
  0
DICTIONARY
  5
19
102
{ACAD_REACTORS
330
C
102
}
100
AcDbDictionary
281
1
  0
DICTIONARY
  5
1A
102
{ACAD_REACTORS
330
C
102
}
100
AcDbDictionary
281
1
  3
Model
350
86E
  3
Layout1
350
86F
  0
ACDBPLACEHOLDER
  5
F
102
{ACAD_REACTORS
330
E
102
}
  0
MLINESTYLE
  5
18
102
{ACAD_REACTORS
330
17
102
}
100
AcDbMlineStyle
  2
STANDARD
 70
0
  3

 62
256
 51
90.0
 52
90.0
 71
2
 49
0.5
 62
256
  6
BYLAYER
 49
-0.5
 62
256
  6
BYLAYER
  0
LAYOUT
  5
86E
102
{ACAD_REACTORS
330
1A
102
}
100
AcDbPlotSettings
  1

  2
none_device
  4
ISO_A4_(297.00_x_210.00_MM)
  6

 40
0.0
 41
0.0
 42
0.0
 43
0.0
 44
297.0
 45
210.0
 46
0.0
 47
0.0
 48
0.0
 49
0.0
140
0.0
141
0.0
142
1.0
143
1.0
 70
1024
 72
1
 73
0
 74
0
  7

 75
0
147
1.0
148
0.0
149
0.0
100
AcDbLayout
  1
Model
 70
0
 71
0
 10
0.0
 20
0.0
 11
297.0
 21
210.0
 12
0.0
 22
0.0
 32
0.0
 14
0.0
 24
0.0
 34
0.0
 15
0.0
 25
0.0
 35
0.0
146
0.0
 13
0.0
 23
0.0
 33
0.0
 16
1.0
 26
0.0
 36
0.0
 17
0.0
 27
1.0
 37
0.0
 76
0
330
212
345
0
346
0
  0
LAYOUT
  5
86F
102
{ACAD_REACTORS
330
1A
102
}
100
AcDbPlotSettings
  1

  2
none_device
  4
ISO_A4_(297.00_x_210.00_MM)
  6

 40
0.0
 41
0.0
 42
0.0
 43
0.0
 44
297.0
 45
210.0
 46
0.0
 47
0.0
 48
0.0
 49
0.0
140
0.0
141
0.0
142
1.0
143
1.0
 70
0
 72
1
 73
0
 74
0
  7

 75
0
147
1.0
148
0.0
149
0.0
100
AcDbLayout
  1
Layout1
 70
0
 71
1
 10
0.0
 20
0.0
 11
297.0
 21
210.0
 12
0.0
 22
0.0
 32
0.0
 14
0.0
 24
0.0
 34
0.0
 15
0.0
 25
0.0
 35
0.0
146
0.0
 13
0.0
 23
0.0
 33
0.0
 16
1.0
 26
0.0
 36
0.0
 17
0.0
 27
1.0
 37
0.0
 76
0
330
213
345
0
346
0
  0
ENDSEC
  0
EOF
