  0
SECTION
  2
HEADER
  9
$ACADVER
  1
AC1015
  9
$DWGCODEPAGE
  3
ANSI_1252
  9
$EXTMAX
 10
558.8
 20
431.8
 30
0.0
  9
$EXTMIN
 10
0.0
 20
0.0
 30
0.0
  9
$LIMMIN
 10
0.0
 20
0.0
  9
$LIMMAX
 10
558.8
 20
431.8
  9
$VIEWCTR
 10
279.4
 20
215.9
  9
$VIEWSIZE
 40
431.8
  9
$CLAYER
  8
0
  9
$LTSCALE
 40
30.734
  9
$CELTYPE
  6
BYLAYER
  9
$DIMSCALE
 40
1.0
  9
$DIMASZ
 40
3.0
  9
$DIMEXO
 40
3.4925
  9
$DIMDLI
 40
21.2344
  9
$DIMEXE
 40
10.0584
  9
$DIMCEN
 40
5.0292
  9
$DIMLFAC
 40
1.0
  9
$DIMBLK
  1
_FILLED
  9
$DIMTXT
 40
3.0
  9
$DIMTOL
 70
1
  9
$DIMLIM
 70
0
  9
$DIMTFAC
 40
1.0
  9
$DIMTP
 40
0.01
  9
$DIMTM
 40
0.01
  9
$PDMODE
 70
3
  9
$PDSIZE
 40
3.0
  9
$HANDSEED
  5
62E
  9
$TILEMODE
 70
1
  9
$MEASUREMENT
 70
1
  9
$INSUNITS
 70
4
  0
ENDSEC
  0
SECTION
  2
CLASSES
  0
CLASS
  1
ACDBDICTIONARYWDFLT
  2
AcDbDictionaryWithDefault
  3
AutoCAD 2000
 90
0
280
0
281
0
  0
CLASS
  1
ACDBPLACEHOLDER
  2
AcDbPlaceHolder
  3
AutoCAD 2000
 90
0
280
0
281
0
  0
CLASS
  1
LAYOUT
  2
AcDbLayout
  3
AutoCAD 2000
 90
0
280
0
281
0
  0
ENDSEC
  0
SECTION
  2
TABLES
  0
TABLE
  2
VPORT
  5
8
100
AcDbSymbolTable
 70
2
  0
VPORT
  5
1F4
100
AcDbSymbolTableRecord
100
AcDbViewportTableRecord
  2
*ACTIVE
 70
0
 10
0.0
 20
0.0
 11
1.0
 21
1.0
 12
279.4
 22
215.9
 13
0.0
 23
0.0
 14
1.0
 24
1.0
 15
0.0
 25
0.0
 16
0.0
 26
0.0
 36
1.0
 17
0.0
 27
0.0
 37
0.0
 40
431.8
 41
1.2941176471
 42
50.0
 43
0.0
 44
0.0
 50
0.0
 51
0.0
 71
0
 72
100
 73
1
 74
1
 75
0
 76
0
 77
0
 78
0
  0
ENDTAB
  0
TABLE
  2
LTYPE
  5
5
100
AcDbSymbolTable
 70
6
  0
LTYPE
  5
14
100
AcDbSymbolTableRecord
100
AcDbLinetypeTableRecord
  2
BYBLOCK
 70
0
  3

 72
65
 73
0
 40
0.0
  0
LTYPE
  5
15
100
AcDbSymbolTableRecord
100
AcDbLinetypeTableRecord
  2
BYLAYER
 70
0
  3

 72
65
 73
0
 40
0.0
  0
LTYPE
  5
16
100
AcDbSymbolTableRecord
100
AcDbLinetypeTableRecord
  2
CONTINUOUS
 70
64
  3
Solid line
 72
65
 73
0
 40
0.0
  0
LTYPE
  5
1F5
100
AcDbSymbolTableRecord
100
AcDbLinetypeTableRecord
  2
CENTER
 70
64
  3
____ _ ____ _ ____ _ ____ _ ____ _ ____ _ ____
 72
65
 73
4
 40
0.6
 49
0.375
 74
0
 49
-0.075
 74
0
 49
0.075
 74
0
 49
-0.075
 74
0
  0
LTYPE
  5
1F6
100
AcDbSymbolTableRecord
100
AcDbLinetypeTableRecord
  2
HIDDEN
 70
64
  3
- - - - - - - - - - - - - - - - - - - -
 72
65
 73
2
 40
0.2
 49
0.1
 74
0
 49
-0.1
 74
0
  0
LTYPE
  5
1F7
100
AcDbSymbolTableRecord
100
AcDbLinetypeTableRecord
  2
PHANTOM
 70
64
  3
_____ _ _ _____ _ _ _____ _ _ _____
 72
65
 73
6
 40
0.8
 49
0.45
 74
0
 49
-0.05
 74
0
 49
0.1
 74
0
 49
-0.05
 74
0
 49
0.1
 74
0
 49
-0.05
 74
0
  0
LTYPE
  5
1F8
100
AcDbSymbolTableRecord
100
AcDbLinetypeTableRecord
  2
DOT
 70
64
  3
. . . . . . . . . . . . . . . . . . . .
 72
65
 73
2
 40
0.2
 49
0.1
 74
0
 49
-0.1
 74
0
  0
LTYPE
  5
1F9
100
AcDbSymbolTableRecord
100
AcDbLinetypeTableRecord
  2
DASHED
 70
64
  3
- - - - - - - - - - - - - - - - - - - -
 72
65
 73
2
 40
0.2
 49
0.1
 74
0
 49
-0.1
 74
0
  0
ENDTAB
  0
TABLE
  2
LAYER
  5
2
100
AcDbSymbolTable
 70
36
  0
LAYER
  5
10
100
AcDbSymbolTableRecord
100
AcDbLayerTableRecord
  2
0
 70
0
 62
7
  6
CONTINUOUS
370
-3
390
F
  0
LAYER
  5
1FA
100
AcDbSymbolTableRecord
100
AcDbLayerTableRecord
  2
DEFAULT_1
 70
0
 62
7
  6
CENTER
370
-3
390
F
  0
LAYER
  5
1FB
100
AcDbSymbolTableRecord
100
AcDbLayerTableRecord
  2
DEFAULT_2
 70
0
 62
7
  6
HIDDEN
370
-3
390
F
  0
LAYER
  5
1FC
100
AcDbSymbolTableRecord
100
AcDbLayerTableRecord
  2
DEFAULT_3
 70
0
 62
7
  6
PHANTOM
370
-3
390
F
  0
LAYER
  5
1FD
100
AcDbSymbolTableRecord
100
AcDbLayerTableRecord
  2
ASSI
 70
0
 62
7
  6
CONTINUOUS
370
-3
390
F
  0
LAYER
  5
1FE
100
AcDbSymbolTableRecord
100
AcDbLayerTableRecord
  2
COORDINATE
 70
0
 62
7
  6
CONTINUOUS
370
-3
390
F
  0
LAYER
  5
1FF
100
AcDbSymbolTableRecord
100
AcDbLayerTableRecord
  2
COORD_ORIGINE
 70
0
 62
7
  6
CONTINUOUS
370
-3
390
F
  0
LAYER
  5
200
100
AcDbSymbolTableRecord
100
AcDbLayerTableRecord
  2
COPY_PUBLISH
 70
0
 62
7
  6
CONTINUOUS
370
-3
390
F
  0
LAYER
  5
201
100
AcDbSymbolTableRecord
100
AcDbLayerTableRecord
  2
COSMETIC
 70
0
 62
7
  6
CONTINUOUS
370
-3
390
F
  0
LAYER
  5
202
100
AcDbSymbolTableRecord
100
AcDbLayerTableRecord
  2
COSMETICI
 70
0
 62
7
  6
CONTINUOUS
370
-3
390
F
  0
LAYER
  5
203
100
AcDbSymbolTableRecord
100
AcDbLayerTableRecord
  2
CURVE
 70
0
 62
7
  6
CONTINUOUS
370
-3
390
F
  0
LAYER
  5
204
100
AcDbSymbolTableRecord
100
AcDbLayerTableRecord
  2
DRAFT
 70
0
 62
7
  6
CONTINUOUS
370
-3
390
F
  0
LAYER
  5
205
100
AcDbSymbolTableRecord
100
AcDbLayerTableRecord
  2
IMPORT_IGES
 70
0
 62
7
  6
CONTINUOUS
370
-3
390
F
  0
LAYER
  5
206
100
AcDbSymbolTableRecord
100
AcDbLayerTableRecord
  2
NOTE
 70
0
 62
7
  6
CONTINUOUS
370
-3
390
F
  0
LAYER
  5
207
100
AcDbSymbolTableRecord
100
AcDbLayerTableRecord
  2
PIANI
 70
0
 62
7
  6
CONTINUOUS
370
-3
390
F
  0
LAYER
  5
208
100
AcDbSymbolTableRecord
100
AcDbLayerTableRecord
  2
PIANI_ORIGINE
 70
0
 62
7
  6
CONTINUOUS
370
-3
390
F
  0
LAYER
  5
209
100
AcDbSymbolTableRecord
100
AcDbLayerTableRecord
  2
PUNTI
 70
0
 62
7
  6
CONTINUOUS
370
-3
390
F
  0
LAYER
  5
20A
100
AcDbSymbolTableRecord
100
AcDbLayerTableRecord
  2
RACCORDO
 70
0
 62
7
  6
CONTINUOUS
370
-3
390
F
  0
LAYER
  5
20B
100
AcDbSymbolTableRecord
100
AcDbLayerTableRecord
  2
SNAPLINE
 70
0
 62
7
  6
CONTINUOUS
370
-3
390
F
  0
LAYER
  5
20C
100
AcDbSymbolTableRecord
100
AcDbLayerTableRecord
  2
TRASH
 70
0
 62
7
  6
CONTINUOUS
370
-3
390
F
  0
ENDTAB
  0
TABLE
  2
STYLE
  5
3
100
AcDbSymbolTable
 70
1
  0
STYLE
  5
11
100
AcDbSymbolTableRecord
100
AcDbTextStyleTableRecord
  2
STANDARD
 70
0
 40
0.0
 41
0.8
 50
0.0
 71
0
 42
0.2
  3
txt
  4

  0
STYLE
  5
20D
100
AcDbSymbolTableRecord
100
AcDbTextStyleTableRecord
  2
TEXTSTYLE_1
 70
0
 40
0.0
 41
0.8
 50
0.0
 71
0
 42
0.2
  3
gdt
  4

  0
ENDTAB
  0
TABLE
  2
VIEW
  5
6
100
AcDbSymbolTable
 70
0
  0
ENDTAB
  0
TABLE
  2
UCS
  5
7
100
AcDbSymbolTable
 70
0
  0
ENDTAB
  0
TABLE
  2
APPID
  5
9
100
AcDbSymbolTable
 70
1
  0
APPID
  5
20E
100
AcDbSymbolTableRecord
100
AcDbRegAppTableRecord
  2
ACAD
 70
0
  0
ENDTAB
  0
TABLE
  2
BLOCK_RECORD
  5
1
100
AcDbSymbolTable
 70
0
  0
BLOCK_RECORD
  5
20F
100
AcDbSymbolTableRecord
100
AcDbBlockTableRecord
  2
*Model_Space
  0
BLOCK_RECORD
  5
210
100
AcDbSymbolTableRecord
100
AcDbBlockTableRecord
  2
*Paper_Space
  0
BLOCK_RECORD
  5
211
100
AcDbSymbolTableRecord
100
AcDbBlockTableRecord
  2
_FILLED
  0
BLOCK_RECORD
  5
212
100
AcDbSymbolTableRecord
100
AcDbBlockTableRecord
  2
*D0
  0
BLOCK_RECORD
  5
213
100
AcDbSymbolTableRecord
100
AcDbBlockTableRecord
  2
*D1
  0
BLOCK_RECORD
  5
214
100
AcDbSymbolTableRecord
100
AcDbBlockTableRecord
  2
*D2
  0
BLOCK_RECORD
  5
215
100
AcDbSymbolTableRecord
100
AcDbBlockTableRecord
  2
*D3
  0
ENDTAB
  0
TABLE
  2
DIMSTYLE
  5
A
100
AcDbSymbolTable
 70
1
100
AcDbDimStyleTable
 71
0
  0
DIMSTYLE
105
216
100
AcDbSymbolTableRecord
100
AcDbDimStyleTableRecord
  2
STANDARD
 70
0
  3

  4

 40
1.0
 41
3.0
 42
0.0625
 43
0.38
 44
0.18
 45
0.0
 46
0.0
 47
0.01
 48
0.01
140
3.0
141
0.09
142
0.0
143
25.4
144
1.0
145
0.0
146
1.0
147
0.09
 71
1.0
 72
0.0
 73
0
 74
0
 75
0
 76
0
 77
1
 78
8
170
0
171
2
172
0
173
0
174
0
175
0
176
0
177
0
178
0
270
2
271
2
272
2
273
2
274
2
275
0
280
0
281
0
282
0
283
1
284
8
285
0
286
0
287
3
288
0
340
11
341
211
342
211
343
211
344
211
  0
DIMSTYLE
105
217
100
AcDbSymbolTableRecord
100
AcDbDimStyleTableRecord
  2
DIMSTYLE_1
 70
0
  3

  4

 40
1.0
 41
3.0
 42
0.0625
 43
0.38
 44
0.18
 45
0.0
 46
0.0
 47
0.0
 48
0.0
140
3.0
141
0.09
142
0.0
143
25.4
144
1.0
145
0.0
146
1.0
147
0.09
 71
0.0
 72
0.0
 73
0
 74
0
 75
0
 76
0
 77
1
 78
8
170
0
171
2
172
0
173
0
174
0
175
0
176
0
177
0
178
0
270
2
271
2
272
2
273
2
274
2
275
0
280
0
281
0
282
0
283
1
284
8
285
0
286
0
287
3
288
0
340
11
341
211
342
211
343
211
344
211
  0
ENDTAB
  0
ENDSEC
  0
SECTION
  2
BLOCKS
  0
BLOCK
  5
20
100
AcDbEntity
  8
0
100
AcDbBlockBegin
  2
*Model_Space
 70
0
 10
0.0
 20
0.0
 30
0.0
  3
*Model_Space
  1

  0
ENDBLK
  5
21
100
AcDbEntity
  8
0
100
AcDbBlockEnd
  0
BLOCK
  5
1C
100
AcDbEntity
  8
0
100
AcDbBlockBegin
  2
*Paper_Space
 70
0
 10
0.0
 20
0.0
 30
0.0
  3
*Paper_Space
  1

  0
ENDBLK
  5
1D
100
AcDbEntity
  8
0
100
AcDbBlockEnd
  0
BLOCK
  5
218
100
AcDbEntity
  8
0
100
AcDbBlockBegin
  2
_FILLED
 70
64
 10
0.0
 20
0.0
  3
_FILLED
  1

  0
SOLID
  5
219
100
AcDbEntity
  8
0
  6
BYBLOCK
 62
0
100
AcDbTrace
 10
0.0
 20
0.0
 11
-1.0
 21
0.3166666667
 12
-1.0
 22
-0.3166666667
 13
-1.0
 23
-0.3166666667
  0
ENDBLK
  5
21A
100
AcDbEntity
  8
0
  6
BYBLOCK
 62
0
100
AcDbBlockEnd
  0
BLOCK
  5
21B
100
AcDbEntity
  8
0
100
AcDbBlockBegin
 62
7
  6
CONTINUOUS
  2
*D0
 70
65
 10
0.0
 20
0.0
  3
*D0
  1

  0
LINE
  5
21C
100
AcDbEntity
  8
0
100
AcDbLine
 62
7
  6
CONTINUOUS
 10
10.9
 20
19.9728483595
 11
10.9
 21
34.5
  0
LINE
  5
21D
100
AcDbEntity
  8
0
100
AcDbLine
 62
7
  6
CONTINUOUS
 10
-10.9
 20
19.9728483595
 11
-10.9
 21
34.5
  0
LINE
  5
21E
100
AcDbEntity
  8
0
100
AcDbLine
 62
7
  6
CONTINUOUS
 10
10.9
 20
33.0
 11
0.0
 21
33.0
  0
LINE
  5
21F
100
AcDbEntity
  8
0
100
AcDbLine
 62
7
  6
CONTINUOUS
 10
-10.9
 20
33.0
 11
0.0
 21
33.0
  0
INSERT
  5
220
100
AcDbEntity
  8
0
100
AcDbBlockReference
 62
7
  6
CONTINUOUS
  2
_FILLED
 10
10.9
 20
33.0
 41
3.0
 42
3.0
 43
3.0
  0
INSERT
  5
221
100
AcDbEntity
  8
0
100
AcDbBlockReference
 62
7
  6
CONTINUOUS
  2
_FILLED
 10
-10.9
 20
33.0
 41
3.0
 42
3.0
 43
3.0
 50
180.0
  0
ENDBLK
  5
222
100
AcDbEntity
  8
0
  6
BYBLOCK
 62
0
100
AcDbBlockEnd
  0
BLOCK
  5
223
100
AcDbEntity
  8
0
100
AcDbBlockBegin
 62
7
  6
CONTINUOUS
  2
*D1
 70
65
 10
0.0
 20
0.0
  3
*D1
  1

  0
LINE
  5
224
100
AcDbEntity
  8
0
100
AcDbLine
 62
7
  6
CONTINUOUS
 10
6.5
 20
25.0
 11
20.4
 21
25.0
  0
LINE
  5
225
100
AcDbEntity
  8
0
100
AcDbLine
 62
7
  6
CONTINUOUS
 10
6.5
 20
-25.0
 11
20.4
 21
-25.0
  0
LINE
  5
226
100
AcDbEntity
  8
0
100
AcDbLine
 62
7
  6
CONTINUOUS
 10
18.9
 20
25.0
 11
18.9
 21
0.0
  0
LINE
  5
227
100
AcDbEntity
  8
0
100
AcDbLine
 62
7
  6
CONTINUOUS
 10
18.9
 20
-25.0
 11
18.9
 21
0.0
  0
INSERT
  5
228
100
AcDbEntity
  8
0
100
AcDbBlockReference
 62
7
  6
CONTINUOUS
  2
_FILLED
 10
18.9
 20
25.0
 41
3.0
 42
3.0
 43
3.0
 50
90.0
  0
INSERT
  5
229
100
AcDbEntity
  8
0
100
AcDbBlockReference
 62
7
  6
CONTINUOUS
  2
_FILLED
 10
18.9
 20
-25.0
 41
3.0
 42
3.0
 43
3.0
 50
270.0
  0
ENDBLK
  5
22A
100
AcDbEntity
  8
0
  6
BYBLOCK
 62
0
100
AcDbBlockEnd
  0
BLOCK
  5
22B
100
AcDbEntity
  8
0
100
AcDbBlockBegin
 62
7
  6
CONTINUOUS
  2
*D2
 70
65
 10
0.0
 20
0.0
  3
*D2
  1

  0
LINE
  5
22C
100
AcDbEntity
  8
0
100
AcDbLine
 62
7
  6
CONTINUOUS
 10
-20.1515001243
 20
14.6806895397
 11
-20.1515001243
 21
34.5
  0
LINE
  5
22D
100
AcDbEntity
  8
0
100
AcDbLine
 62
7
  6
CONTINUOUS
 10
-42.2515001224
 20
24.3174311485
 11
-42.2515001224
 21
34.5
  0
LINE
  5
22E
100
AcDbEntity
  8
0
100
AcDbLine
 62
7
  6
CONTINUOUS
 10
-20.1515001243
 20
33.0
 11
-31.2015001234
 21
33.0
  0
LINE
  5
22F
100
AcDbEntity
  8
0
100
AcDbLine
 62
7
  6
CONTINUOUS
 10
-42.2515001224
 20
33.0
 11
-31.2015001234
 21
33.0
  0
INSERT
  5
230
100
AcDbEntity
  8
0
100
AcDbBlockReference
 62
7
  6
CONTINUOUS
  2
_FILLED
 10
-20.1515001243
 20
33.0
 41
3.0
 42
3.0
 43
3.0
  0
INSERT
  5
231
100
AcDbEntity
  8
0
100
AcDbBlockReference
 62
7
  6
CONTINUOUS
  2
_FILLED
 10
-42.2515001224
 20
33.0
 41
3.0
 42
3.0
 43
3.0
 50
180.0
  0
ENDBLK
  5
232
100
AcDbEntity
  8
0
  6
BYBLOCK
 62
0
100
AcDbBlockEnd
  0
BLOCK
  5
233
100
AcDbEntity
  8
0
100
AcDbBlockBegin
 62
7
  6
CONTINUOUS
  2
*D3
 70
65
 10
0.0
 20
0.0
  3
*D3
  1

  0
LINE
  5
234
100
AcDbEntity
  8
0
100
AcDbLine
 62
7
  6
CONTINUOUS
 10
-20.1515001243
 20
14.6806895397
 11
-20.1515001243
 21
44.5
  0
LINE
  5
235
100
AcDbEntity
  8
0
100
AcDbLine
 62
7
  6
CONTINUOUS
 10
-52.2515001224
 20
0.5
 11
-52.2515001224
 21
44.5
  0
LINE
  5
236
100
AcDbEntity
  8
0
100
AcDbLine
 62
7
  6
CONTINUOUS
 10
-20.1515001243
 20
43.0
 11
-36.2015001234
 21
43.0
  0
LINE
  5
237
100
AcDbEntity
  8
0
100
AcDbLine
 62
7
  6
CONTINUOUS
 10
-52.2515001224
 20
43.0
 11
-36.2015001234
 21
43.0
  0
INSERT
  5
238
100
AcDbEntity
  8
0
100
AcDbBlockReference
 62
7
  6
CONTINUOUS
  2
_FILLED
 10
-20.1515001243
 20
43.0
 41
3.0
 42
3.0
 43
3.0
  0
INSERT
  5
239
100
AcDbEntity
  8
0
100
AcDbBlockReference
 62
7
  6
CONTINUOUS
  2
_FILLED
 10
-52.2515001224
 20
43.0
 41
3.0
 42
3.0
 43
3.0
 50
180.0
  0
ENDBLK
  5
23A
100
AcDbEntity
  8
0
  6
BYBLOCK
 62
0
100
AcDbBlockEnd
  0
ENDSEC
  0
SECTION
  2
ENTITIES
  0
DIMENSION
  5
23B
100
AcDbEntity
  8
0
100
AcDbDimension
 62
7
  6
CONTINUOUS
  2
*D0
 10
-10.9
 20
33.0
 11
-4.0714285714
 21
33.75
 70
160
 71
2
 42
21.8
  3
DIMSTYLE_1
100
AcDbAlignedDimension
 13
10.9
 23
19.9728483595
 14
-10.9
 24
19.9728483595
 50
180.0
100
AcDbRotatedDimension
  0
DIMENSION
  5
23C
100
AcDbEntity
  8
0
100
AcDbDimension
 62
7
  6
CONTINUOUS
  2
*D1
 10
18.9
 20
-25.0
 11
18.15
 21
-2.25
 70
160
 71
2
 42
50.0
  3
DIMSTYLE_1
100
AcDbAlignedDimension
 13
6.5
 23
25.0
 14
6.5
 24
-25.0
 50
270.0
100
AcDbRotatedDimension
  0
DIMENSION
  5
23D
100
AcDbEntity
  8
0
100
AcDbDimension
 62
7
  6
CONTINUOUS
  2
*D2
 10
-42.2515001224
 20
33.0
 11
-35.2729286948
 21
33.75
 70
160
 71
2
 42
22.0999999981
  3
DIMSTYLE_1
100
AcDbAlignedDimension
 13
-20.1515001243
 23
14.6806895397
 14
-42.2515001224
 24
24.3174311485
 50
180.0
100
AcDbRotatedDimension
  0
DIMENSION
  5
23E
100
AcDbEntity
  8
0
100
AcDbDimension
 62
7
  6
CONTINUOUS
  2
*D3
 10
-52.2515001224
 20
43.0
 11
-40.1657858376
 21
43.75
 70
160
 71
2
 42
32.0999999981
  3
DIMSTYLE_1
100
AcDbAlignedDimension
 13
-20.1515001243
 23
14.6806895397
 14
-52.2515001224
 24
0.5
 50
180.0
100
AcDbRotatedDimension
  0
LWPOLYLINE
  5
23F
100
AcDbEntity
  8
0
100
AcDbPolyline
 62
7
  6
CONTINUOUS
 90
3
 70
0
 43
0.3500000087
 10
-1.7142857326
 20
35.8928579773
 10
-0.8571428663
 20
36.7499998444
 10
-0.8571428663
 20
33.750001178
  0
LINE
  5
240
100
AcDbEntity
  8
0
100
AcDbLine
 62
7
  6
CONTINUOUS
 10
-6.0
 20
-25.0
 11
6.0
 21
-25.0
  0
LINE
  5
241
100
AcDbEntity
  8
0
100
AcDbLine
 62
253
  6
CONTINUOUS
 10
-6.0
 20
-24.3
 11
6.0
 21
-24.3
  0
LINE
  5
242
100
AcDbEntity
  8
RACCORDO
100
AcDbLine
 62
7
  6
CONTINUOUS
 10
-6.0
 20
-24.0
 11
-3.9332662348
 21
-24.0
  0
LINE
  5
243
100
AcDbEntity
  8
RACCORDO
100
AcDbLine
 62
7
  6
CONTINUOUS
 10
3.9332662348
 20
-24.0
 11
6.0
 21
-24.0
  0
LINE
  5
244
100
AcDbEntity
  8
RACCORDO
100
AcDbLine
 62
7
  6
CONTINUOUS
 10
4.3
 20
-23.8584094599
 11
3.7420816149
 21
-23.8584094599
  0
LINE
  5
245
100
AcDbEntity
  8
RACCORDO
100
AcDbLine
 62
7
  6
CONTINUOUS
 10
-3.7420816149
 20
-23.8584094599
 11
-4.3
 21
-23.8584094599
  0
LINE
  5
246
100
AcDbEntity
  8
RACCORDO
100
AcDbLine
 62
7
  6
CONTINUOUS
 10
4.3
 20
-23.4779868533
 11
3.7043297675
 21
-23.4779868533
  0
LINE
  5
247
100
AcDbEntity
  8
RACCORDO
100
AcDbLine
 62
7
  6
CONTINUOUS
 10
-3.7043297675
 20
-23.4779868533
 11
-4.3
 21
-23.4779868533
  0
LINE
  5
248
100
AcDbEntity
  8
ASSI
100
AcDbLine
 62
7
  6
CONTINUOUS
 10
7.7493848997
 20
-23.25
 11
6.0
 21
-23.25
  0
LINE
  5
249
100
AcDbEntity
  8
ASSI
100
AcDbLine
 62
7
  6
CONTINUOUS
 10
-6.0
 20
-23.25
 11
-7.7493848997
 21
-23.25
  0
LINE
  5
24A
100
AcDbEntity
  8
ASSI
100
AcDbLine
 62
253
  6
CONTINUOUS
 10
8.0
 20
-23.0
 11
6.2
 21
-23.0
  0
LINE
  5
24B
100
AcDbEntity
  8
ASSI
100
AcDbLine
 62
253
  6
CONTINUOUS
 10
-6.2
 20
-23.0
 11
-8.0
 21
-23.0
  0
LINE
  5
24C
100
AcDbEntity
  8
ASSI
100
AcDbLine
 62
253
  6
CONTINUOUS
 10
-6.2
 20
-22.8030153487
 11
-6.0
 21
-22.8030153487
  0
LINE
  5
24D
100
AcDbEntity
  8
ASSI
100
AcDbLine
 62
253
  6
CONTINUOUS
 10
6.0
 20
-22.8030153487
 11
6.2
 21
-22.8030153487
  0
LINE
  5
24E
100
AcDbEntity
  8
ASSI
100
AcDbLine
 62
253
  6
CONTINUOUS
 10
-6.2034300864
 20
-22.6030458097
 11
-6.0
 21
-22.6030458097
  0
LINE
  5
24F
100
AcDbEntity
  8
ASSI
100
AcDbLine
 62
253
  6
CONTINUOUS
 10
6.0
 20
-22.6030458097
 11
6.2034300864
 21
-22.6030458097
  0
LINE
  5
250
100
AcDbEntity
  8
ASSI
100
AcDbLine
 62
7
  6
CONTINUOUS
 10
10.6308294475
 20
-22.4615988572
 11
8.0
 21
-22.4615988572
  0
LINE
  5
251
100
AcDbEntity
  8
ASSI
100
AcDbLine
 62
7
  6
CONTINUOUS
 10
-8.0
 20
-22.4615988572
 11
-10.6308294475
 21
-22.4615988572
  0
LINE
  5
252
100
AcDbEntity
  8
ASSI
100
AcDbLine
 62
253
  6
CONTINUOUS
 10
-10.5867206889
 20
-22.373374621
 11
10.5867206889
 21
-22.373374621
  0
LINE
  5
253
100
AcDbEntity
  8
ASSI
100
AcDbLine
 62
253
  6
CONTINUOUS
 10
-10.8367111697
 20
-22.1234126973
 11
10.8367111697
 21
-22.1234126973
  0
LINE
  5
254
100
AcDbEntity
  8
ASSI
100
AcDbLine
 62
7
  6
CONTINUOUS
 10
-6.2034300864
 20
22.6030458097
 11
-6.3442632236
 21
22.4622126724
  0
LINE
  5
255
100
AcDbEntity
  8
ASSI
100
AcDbLine
 62
7
  6
CONTINUOUS
 10
-6.3442632236
 20
-22.4622126724
 11
-6.2034300864
 21
-22.6030458097
  0
LINE
  5
256
100
AcDbEntity
  8
ASSI
100
AcDbLine
 62
7
  6
CONTINUOUS
 10
-10.8389119255
 20
-18.8
 11
10.8389119255
 21
-18.8
  0
LINE
  5
257
100
AcDbEntity
  8
ASSI
100
AcDbLine
 62
7
  6
CONTINUOUS
 10
-10.589281257
 20
-18.3
 11
10.589281257
 21
-18.3
  0
LINE
  5
258
100
AcDbEntity
  8
0
100
AcDbLine
 62
7
  6
CONTINUOUS
 10
8.95
 20
-18.2
 11
2.5
 21
-18.2
  0
LINE
  5
259
100
AcDbEntity
  8
0
100
AcDbLine
 62
7
  6
CONTINUOUS
 10
-2.5
 20
-18.2
 11
-8.95
 21
-18.2
  0
LINE
  5
25A
100
AcDbEntity
  8
0
100
AcDbLine
 62
7
  6
CONTINUOUS
 10
2.5
 20
-18.0236730193
 11
-2.5
 21
-18.0236730193
  0
LINE
  5
25B
100
AcDbEntity
  8
ASSI
100
AcDbLine
 62
7
  6
CONTINUOUS
 10
-10.9
 20
19.4728483595
 11
-10.8808008909
 21
19.5191991091
  0
LINE
  5
25C
100
AcDbEntity
  8
ASSI
100
AcDbLine
 62
253
  6
CONTINUOUS
 10
-10.5601018669
 20
-17.7104283594
 11
-9.0
 21
-17.710427789
  0
LINE
  5
25D
100
AcDbEntity
  8
ASSI
100
AcDbLine
 62
253
  6
CONTINUOUS
 10
9.0
 20
-17.710427789
 11
10.5601018669
 21
-17.7104283594
  0
LINE
  5
25E
100
AcDbEntity
  8
RACCORDO
100
AcDbLine
 62
253
  6
CONTINUOUS
 10
-8.95
 20
-17.6370623881
 11
8.95
 21
-17.6370623881
  0
LINE
  5
25F
100
AcDbEntity
  8
CURVE
100
AcDbLine
 62
253
  6
CONTINUOUS
 10
10.879929068
 20
-16.8
 11
10.8912731322
 21
-16.8
  0
LINE
  5
260
100
AcDbEntity
  8
ASSI
100
AcDbLine
 62
253
  6
CONTINUOUS
 10
-10.5546983347
 20
-16.7650638307
 11
-9.0
 21
-16.765067253
  0
LINE
  5
261
100
AcDbEntity
  8
ASSI
100
AcDbLine
 62
253
  6
CONTINUOUS
 10
9.0
 20
-16.765067253
 11
10.5546983347
 21
-16.7650638307
  0
LINE
  5
262
100
AcDbEntity
  8
RACCORDO
100
AcDbLine
 62
253
  6
CONTINUOUS
 10
-8.95
 20
-16.6917646696
 11
8.95
 21
-16.6917646696
  0
LINE
  5
263
100
AcDbEntity
  8
ASSI
100
AcDbLine
 62
7
  6
CONTINUOUS
 10
-9.0
 20
-16.5
 11
-8.95
 21
-16.5
  0
LINE
  5
264
100
AcDbEntity
  8
ASSI
100
AcDbLine
 62
7
  6
CONTINUOUS
 10
8.95
 20
-16.5
 11
9.0
 21
-16.5
  0
LINE
  5
265
100
AcDbEntity
  8
ASSI
100
AcDbLine
 62
253
  6
CONTINUOUS
 10
-9.0
 20
-16.25
 11
-8.95
 21
-16.25
  0
LINE
  5
266
100
AcDbEntity
  8
ASSI
100
AcDbLine
 62
253
  6
CONTINUOUS
 10
8.95
 20
-16.25
 11
9.0
 21
-16.25
  0
LINE
  5
267
100
AcDbEntity
  8
ASSI
100
AcDbLine
 62
7
  6
CONTINUOUS
 10
-10.9
 20
-19.4728483595
 11
-10.8808008909
 21
-19.5191991091
  0
LINE
  5
268
100
AcDbEntity
  8
CURVE
100
AcDbLine
 62
253
  6
CONTINUOUS
 10
10.8912731322
 20
-15.554264
 11
10.879929068
 21
-15.554264
  0
LINE
  5
269
100
AcDbEntity
  8
CURVE
100
AcDbLine
 62
253
  6
CONTINUOUS
 10
10.8362274575
 20
-14.190935
 11
10.8615319372
 21
-14.190935
  0
LINE
  5
26A
100
AcDbEntity
  8
CURVE
100
AcDbLine
 62
253
  6
CONTINUOUS
 10
10.879929068
 20
-14.069593
 11
10.8912731322
 21
-14.069593
  0
LINE
  5
26B
100
AcDbEntity
  8
CURVE
100
AcDbLine
 62
253
  6
CONTINUOUS
 10
10.8615319372
 20
-13.585664
 11
10.8362274575
 21
-13.585664
  0
LINE
  5
26C
100
AcDbEntity
  8
CURVE
100
AcDbLine
 62
253
  6
CONTINUOUS
 10
10.879929068
 20
-12.753245
 11
10.8912731322
 21
-12.753245
  0
LINE
  5
26D
100
AcDbEntity
  8
ASSI
100
AcDbLine
 62
7
  6
CONTINUOUS
 10
-10.9
 20
-19.4728483595
 11
-10.9
 21
19.4728483595
  0
LINE
  5
26E
100
AcDbEntity
  8
ASSI
100
AcDbLine
 62
7
  6
CONTINUOUS
 10
-10.8808008909
 20
-22.2115988557
 11
-10.8808008909
 21
-19.5191991091
  0
LINE
  5
26F
100
AcDbEntity
  8
ASSI
100
AcDbLine
 62
7
  6
CONTINUOUS
 10
-10.8808008909
 20
19.5191991091
 11
-10.8808008909
 21
22.2115988557
  0
LINE
  5
270
100
AcDbEntity
  8
ASSI
100
AcDbLine
 62
7
  6
CONTINUOUS
 10
-10.8389119255
 20
-18.8
 11
-10.8389119255
 21
-18.0465280279
  0
LINE
  5
271
100
AcDbEntity
  8
ASSI
100
AcDbLine
 62
7
  6
CONTINUOUS
 10
-10.8389119255
 20
18.0465280279
 11
-10.8389119255
 21
18.8
  0
LINE
  5
272
100
AcDbEntity
  8
ASSI
100
AcDbLine
 62
253
  6
CONTINUOUS
 10
-10.8367111697
 20
22.1234126973
 11
-10.8367111697
 21
18.8
  0
LINE
  5
273
100
AcDbEntity
  8
ASSI
100
AcDbLine
 62
253
  6
CONTINUOUS
 10
-10.8367111697
 20
-18.8
 11
-10.8367111697
 21
-22.1234126973
  0
LINE
  5
274
100
AcDbEntity
  8
ASSI
100
AcDbLine
 62
7
  6
CONTINUOUS
 10
-9.0
 20
-11.5
 11
9.0
 21
-11.5
  0
LINE
  5
275
100
AcDbEntity
  8
CURVE
100
AcDbLine
 62
253
  6
CONTINUOUS
 10
10.879929068
 20
-10.945272
 11
10.8912731322
 21
-10.945272
  0
LINE
  5
276
100
AcDbEntity
  8
ASSI
100
AcDbLine
 62
253
  6
CONTINUOUS
 10
-10.8389119255
 20
18.0465280279
 11
-10.8100923194
 21
17.4642258507
  0
LINE
  5
277
100
AcDbEntity
  8
ASSI
100
AcDbLine
 62
253
  6
CONTINUOUS
 10
-10.589281257
 20
18.3
 11
-10.5601018669
 21
17.7104283594
  0
LINE
  5
278
100
AcDbEntity
  8
ASSI
100
AcDbLine
 62
253
  6
CONTINUOUS
 10
-10.5867206889
 20
22.373374621
 11
-10.5867206889
 21
18.8
  0
LINE
  5
279
100
AcDbEntity
  8
ASSI
100
AcDbLine
 62
253
  6
CONTINUOUS
 10
-10.5867206889
 20
-18.8
 11
-10.5867206889
 21
-22.373374621
  0
LINE
  5
27A
100
AcDbEntity
  8
ASSI
100
AcDbLine
 62
7
  6
CONTINUOUS
 10
-9.0
 20
-18.3
 11
-9.0
 21
-11.5
  0
LINE
  5
27B
100
AcDbEntity
  8
RACCORDO
100
AcDbLine
 62
7
  6
CONTINUOUS
 10
-8.95
 20
-18.2
 11
-8.95
 21
-11.55
  0
LINE
  5
27C
100
AcDbEntity
  8
ASSI
100
AcDbLine
 62
253
  6
CONTINUOUS
 10
-10.8100923194
 20
-17.4642258507
 11
-10.8389119255
 21
-18.0465280279
  0
LINE
  5
27D
100
AcDbEntity
  8
ASSI
100
AcDbLine
 62
253
  6
CONTINUOUS
 10
-10.5601018669
 20
-17.7104283594
 11
-10.589281257
 21
-18.3
  0
LWPOLYLINE
  5
27E
100
AcDbEntity
  8
0
100
AcDbPolyline
 62
7
  6
CONTINUOUS
 90
3
 70
0
 43
0.3500000087
 10
0.7142856886
 20
34.0357151337
 10
0.6428571331
 20
33.8214286011
 10
0.4999999887
 20
33.5357146454
  0
LINE
  5
27F
100
AcDbEntity
  8
CURVE
100
AcDbLine
 62
253
  6
CONTINUOUS
 10
10.879929068
 20
-10.556944
 11
10.8912731322
 21
-10.556944
  0
LINE
  5
280
100
AcDbEntity
  8
CURVE
100
AcDbLine
 62
253
  6
CONTINUOUS
 10
10.879929068
 20
-9.524819
 11
10.8912731322
 21
-9.524819
  0
LINE
  5
281
100
AcDbEntity
  8
ASSI
100
AcDbLine
 62
7
  6
CONTINUOUS
 10
-8.0
 20
-23.0
 11
-8.0
 21
-22.4615988572
  0
LINE
  5
282
100
AcDbEntity
  8
ASSI
100
AcDbLine
 62
7
  6
CONTINUOUS
 10
-8.0
 20
22.4615988572
 11
-8.0
 21
23.0
  0
LINE
  5
283
100
AcDbEntity
  8
ASSI
100
AcDbLine
 62
7
  6
CONTINUOUS
 10
-7.1728028135
 20
-23.0
 11
-7.1728028135
 21
-22.4476394778
  0
LINE
  5
284
100
AcDbEntity
  8
ASSI
100
AcDbLine
 62
7
  6
CONTINUOUS
 10
-7.1728028135
 20
22.4476394778
 11
-7.1728028135
 21
23.0
  0
LINE
  5
285
100
AcDbEntity
  8
CURVE
100
AcDbLine
 62
253
  6
CONTINUOUS
 10
10.879929068
 20
-8.631288
 11
10.8912731322
 21
-8.631288
  0
LINE
  5
286
100
AcDbEntity
  8
CURVE
100
AcDbLine
 62
253
  6
CONTINUOUS
 10
10.8912731322
 20
-7.827348
 11
10.879929068
 21
-7.827348
  0
LINE
  5
287
100
AcDbEntity
  8
CURVE
100
AcDbLine
 62
253
  6
CONTINUOUS
 10
10.8365245991
 20
-7.6615673444
 11
10.8615319403
 21
-7.6615673444
  0
LINE
  5
288
100
AcDbEntity
  8
CURVE
100
AcDbLine
 62
253
  6
CONTINUOUS
 10
10.847485744
 20
-7.0788012718
 11
10.8405395871
 21
-7.0788012718
  0
LINE
  5
289
100
AcDbEntity
  8
CURVE
100
AcDbLine
 62
253
  6
CONTINUOUS
 10
10.8615319403
 20
-7.0587313832
 11
10.851629758
 21
-7.0587313832
  0
LINE
  5
28A
100
AcDbEntity
  8
ASSI
100
AcDbLine
 62
253
  6
CONTINUOUS
 10
-6.3442632236
 20
-23.0
 11
-6.3442632236
 21
-22.4622126724
  0
LINE
  5
28B
100
AcDbEntity
  8
ASSI
100
AcDbLine
 62
253
  6
CONTINUOUS
 10
-6.3442632236
 20
22.4622126724
 11
-6.3442632236
 21
23.0
  0
LINE
  5
28C
100
AcDbEntity
  8
ASSI
100
AcDbLine
 62
7
  6
CONTINUOUS
 10
-6.2
 20
23.0
 11
-6.2
 21
22.8030153487
  0
LINE
  5
28D
100
AcDbEntity
  8
ASSI
100
AcDbLine
 62
7
  6
CONTINUOUS
 10
-6.2
 20
-22.8030153487
 11
-6.2
 21
-23.0
  0
LINE
  5
28E
100
AcDbEntity
  8
0
100
AcDbLine
 62
7
  6
CONTINUOUS
 10
-6.0
 20
24.0
 11
-6.0
 21
22.4507488485
  0
LINE
  5
28F
100
AcDbEntity
  8
0
100
AcDbLine
 62
7
  6
CONTINUOUS
 10
-6.0
 20
-24.0
 11
-6.0
 21
-22.4507488485
  0
LINE
  5
290
100
AcDbEntity
  8
0
100
AcDbLine
 62
7
  6
CONTINUOUS
 10
-6.0
 20
-24.0
 11
-6.0
 21
-25.0
  0
LINE
  5
291
100
AcDbEntity
  8
0
100
AcDbLine
 62
7
  6
CONTINUOUS
 10
-6.0
 20
24.0
 11
-6.0
 21
25.0
  0
LINE
  5
292
100
AcDbEntity
  8
CURVE
100
AcDbLine
 62
253
  6
CONTINUOUS
 10
10.8497207413
 20
-6.10544429
 11
10.8495712228
 21
-6.10544429
  0
LINE
  5
293
100
AcDbEntity
  8
CURVE
100
AcDbLine
 62
253
  6
CONTINUOUS
 10
10.879929068
 20
-5.841082
 11
10.8912731322
 21
-5.841082
  0
LINE
  5
294
100
AcDbEntity
  8
RACCORDO
100
AcDbLine
 62
7
  6
CONTINUOUS
 10
-4.5
 20
24.0
 11
-4.5
 21
23.5397902522
  0
LINE
  5
295
100
AcDbEntity
  8
RACCORDO
100
AcDbLine
 62
7
  6
CONTINUOUS
 10
-4.5
 20
-23.5397902522
 11
-4.5
 21
-24.0
  0
LINE
  5
296
100
AcDbEntity
  8
RACCORDO
100
AcDbLine
 62
253
  6
CONTINUOUS
 10
-4.3
 20
23.8584094599
 11
-4.3
 21
23.4779868533
  0
LINE
  5
297
100
AcDbEntity
  8
RACCORDO
100
AcDbLine
 62
253
  6
CONTINUOUS
 10
-4.3
 20
-23.8584094599
 11
-4.3
 21
-23.4779868533
  0
LINE
  5
298
100
AcDbEntity
  8
CURVE
100
AcDbLine
 62
7
  6
CONTINUOUS
 10
10.845038804
 20
16.6848213103
 11
10.8509280792
 21
16.6907105855
  0
LINE
  5
299
100
AcDbEntity
  8
CURVE
100
AcDbLine
 62
7
  6
CONTINUOUS
 10
10.8441550138
 20
16.2888062508
 11
10.8616017817
 21
16.3062530187
  0
LINE
  5
29A
100
AcDbEntity
  8
CURVE
100
AcDbLine
 62
7
  6
CONTINUOUS
 10
10.8441538337
 20
15.8936738013
 11
10.8465930539
 21
15.8961130215
  0
LINE
  5
29B
100
AcDbEntity
  8
CURVE
100
AcDbLine
 62
7
  6
CONTINUOUS
 10
10.8512724833
 20
15.9007924509
 11
10.8533337666
 21
15.9028537342
  0
LINE
  5
29C
100
AcDbEntity
  8
CURVE
100
AcDbLine
 62
7
  6
CONTINUOUS
 10
10.8552630773
 20
15.9047830449
 11
10.8616017817
 21
15.9111217493
  0
LINE
  5
29D
100
AcDbEntity
  8
CURVE
100
AcDbLine
 62
253
  6
CONTINUOUS
 10
10.8912731322
 20
-4.456396
 11
10.8868835466
 21
-4.456396
  0
LINE
  5
29E
100
AcDbEntity
  8
RACCORDO
100
AcDbLine
 62
7
  6
CONTINUOUS
 10
-3.7340272952
 20
23.8174311485
 11
-3.61540734
 21
22.4615988572
  0
LINE
  5
29F
100
AcDbEntity
  8
0
100
AcDbLine
 62
7
  6
CONTINUOUS
 10
-2.5
 20
-18.2
 11
-2.5
 21
-18.0236730193
  0
LINE
  5
2A0
100
AcDbEntity
  8
RACCORDO
100
AcDbLine
 62
7
  6
CONTINUOUS
 10
-3.61540734
 20
-22.4615988572
 11
-3.7340272952
 21
-23.8174311485
  0
LINE
  5
2A1
100
AcDbEntity
  8
CURVE
100
AcDbLine
 62
7
  6
CONTINUOUS
 10
10.8442924147
 20
15.498681113
 11
10.8498095026
 21
15.5041982008
  0
LINE
  5
2A2
100
AcDbEntity
  8
CURVE
100
AcDbLine
 62
7
  6
CONTINUOUS
 10
10.8527638139
 20
15.5071525121
 11
10.8616017817
 21
15.51599048
  0
LINE
  5
2A3
100
AcDbEntity
  8
CURVE
100
AcDbLine
 62
7
  6
CONTINUOUS
 10
10.8509585261
 20
15.110215955
 11
10.8513008354
 21
15.1105582644
  0
LINE
  5
2A4
100
AcDbEntity
  8
CURVE
100
AcDbLine
 62
7
  6
CONTINUOUS
 10
10.8542551444
 20
15.1135125734
 11
10.8614966748
 21
15.1207541037
  0
LINE
  5
2A5
100
AcDbEntity
  8
CURVE
100
AcDbLine
 62
7
  6
CONTINUOUS
 10
10.8444428072
 20
14.7085689669
 11
10.8527921676
 21
14.7169183272
  0
LINE
  5
2A6
100
AcDbEntity
  8
CURVE
100
AcDbLine
 62
7
  6
CONTINUOUS
 10
10.844155736
 20
14.3131506263
 11
10.8460087221
 21
14.3150036124
  0
LINE
  5
2A7
100
AcDbEntity
  8
CURVE
100
AcDbLine
 62
7
  6
CONTINUOUS
 10
10.846417867
 20
14.3154127573
 11
10.854283501
 21
14.3232783913
  0
LINE
  5
2A8
100
AcDbEntity
  8
CURVE
100
AcDbLine
 62
7
  6
CONTINUOUS
 10
10.8572378094
 20
14.3262326996
 11
10.8615200354
 21
14.3305149257
  0
LINE
  5
2A9
100
AcDbEntity
  8
CURVE
100
AcDbLine
 62
7
  6
CONTINUOUS
 10
10.8441557348
 20
13.9180193558
 11
10.8494188431
 21
13.9232824641
  0
LINE
  5
2AA
100
AcDbEntity
  8
CURVE
100
AcDbLine
 62
7
  6
CONTINUOUS
 10
10.8534685297
 20
13.9273321506
 11
10.8557748344
 21
13.9296384554
  0
LINE
  5
2AB
100
AcDbEntity
  8
CURVE
100
AcDbLine
 62
7
  6
CONTINUOUS
 10
10.8595141351
 20
13.9333777561
 11
10.8616017817
 21
13.9354654027
  0
LINE
  5
2AC
100
AcDbEntity
  8
CURVE
100
AcDbLine
 62
7
  6
CONTINUOUS
 10
10.8448162411
 20
13.5235485928
 11
10.8616017817
 21
13.5403341334
  0
LINE
  5
2AD
100
AcDbEntity
  8
CURVE
100
AcDbLine
 62
7
  6
CONTINUOUS
 10
10.836506547
 20
13.1201076293
 11
10.8446688504
 21
13.1282699327
  0
LINE
  5
2AE
100
AcDbEntity
  8
CURVE
100
AcDbLine
 62
7
  6
CONTINUOUS
 10
10.8552429178
 20
13.1388440001
 11
10.8607215752
 21
13.1443226575
  0
LINE
  5
2AF
100
AcDbEntity
  8
ASSI
100
AcDbLine
 62
253
  6
CONTINUOUS
 10
10.5867206889
 20
22.373374621
 11
10.6308294475
 21
22.4615988572
  0
LINE
  5
2B0
100
AcDbEntity
  8
ASSI
100
AcDbLine
 62
253
  6
CONTINUOUS
 10
10.8367111697
 20
22.1234126973
 11
10.8808008909
 21
22.2115988557
  0
LINE
  5
2B1
100
AcDbEntity
  8
ASSI
100
AcDbLine
 62
253
  6
CONTINUOUS
 10
-10.8367111697
 20
-22.1234126973
 11
-10.8808008909
 21
-22.2115988557
  0
LINE
  5
2B2
100
AcDbEntity
  8
CURVE
100
AcDbLine
 62
7
  6
CONTINUOUS
 10
10.8379978778
 20
12.7264676908
 11
10.8575166436
 21
12.7459864565
  0
LINE
  5
2B3
100
AcDbEntity
  8
CURVE
100
AcDbLine
 62
7
  6
CONTINUOUS
 10
10.8441557367
 20
12.3374942803
 11
10.8458203298
 21
12.3391588734
  0
LINE
  5
2B4
100
AcDbEntity
  8
CURVE
100
AcDbLine
 62
7
  6
CONTINUOUS
 10
10.8500635419
 20
12.3434020855
 11
10.8616017817
 21
12.3549403254
  0
LINE
  5
2B5
100
AcDbEntity
  8
CURVE
100
AcDbLine
 62
7
  6
CONTINUOUS
 10
10.8441826976
 20
11.9423899719
 11
10.8524423528
 21
11.9506496272
  0
LINE
  5
2B6
100
AcDbEntity
  8
CURVE
100
AcDbLine
 62
7
  6
CONTINUOUS
 10
10.8596703953
 20
11.9578776696
 11
10.8616017817
 21
11.9598090561
  0
LINE
  5
2B7
100
AcDbEntity
  8
CURVE
100
AcDbLine
 62
7
  6
CONTINUOUS
 10
10.8457558811
 20
11.5488318861
 11
10.8616017817
 21
11.5646777867
  0
LINE
  5
2B8
100
AcDbEntity
  8
CURVE
100
AcDbLine
 62
7
  6
CONTINUOUS
 10
10.8367542451
 20
11.1446989807
 11
10.8413478201
 21
11.1492925558
  0
LINE
  5
2B9
100
AcDbEntity
  8
CURVE
100
AcDbLine
 62
7
  6
CONTINUOUS
 10
10.8444629944
 20
11.15240773
 11
10.8468027582
 21
11.1547474938
  0
LINE
  5
2BA
100
AcDbEntity
  8
CURVE
100
AcDbLine
 62
7
  6
CONTINUOUS
 10
10.839469716
 20
10.7522831824
 11
10.8428391511
 21
10.7556526175
  0
LINE
  5
2BB
100
AcDbEntity
  8
CURVE
100
AcDbLine
 62
7
  6
CONTINUOUS
 10
10.845954326
 20
10.7587677924
 11
10.8596505639
 21
10.7724640303
  0
LWPOLYLINE
  5
2BC
100
AcDbEntity
  8
0
100
AcDbPolyline
 62
7
  6
CONTINUOUS
 90
13
 70
0
 43
0.3500000087
 10
17.2928566727
 20
-0.1071430725
 10
16.0071428062
 20
-0.1071430725
 10
15.5785718727
 20
0.1071434601
 10
15.1499998734
 20
0.5357143936
 10
15.1499998734
 20
0.7500009262
 10
15.5785718727
 20
1.1785718597
 10
16.0071428062
 20
1.3928562607
 10
17.2928566727
 20
1.3928562607
 10
17.721428672
 20
1.1785718597
 10
18.1500006714
 20
0.7500009262
 10
18.1500006714
 20
0.5357143936
 10
17.721428672
 20
0.1071434601
 10
17.2928566727
 20
-0.1071430725
  0
LINE
  5
2BD
100
AcDbEntity
  8
ASSI
100
AcDbLine
 62
253
  6
CONTINUOUS
 10
10.6308294475
 20
-22.4615988572
 11
10.5867206889
 21
-22.373374621
  0
LINE
  5
2BE
100
AcDbEntity
  8
ASSI
100
AcDbLine
 62
253
  6
CONTINUOUS
 10
10.8808008909
 20
-22.2115988557
 11
10.8367111697
 21
-22.1234126973
  0
LINE
  5
2BF
100
AcDbEntity
  8
ASSI
100
AcDbLine
 62
253
  6
CONTINUOUS
 10
-10.8808008909
 20
22.2115988557
 11
-10.8367111697
 21
22.1234126973
  0
LINE
  5
2C0
100
AcDbEntity
  8
RACCORDO
100
AcDbLine
 62
7
  6
CONTINUOUS
 10
3.7340272952
 20
-23.8174311485
 11
3.61540734
 21
-22.4615988572
  0
LWPOLYLINE
  5
2C1
100
AcDbEntity
  8
0
100
AcDbPolyline
 62
7
  6
CONTINUOUS
 90
4
 70
0
 43
0.3500000087
 10
1.7142857326
 20
34.1785699799
 10
1.7142857326
 20
35.0357161102
 10
2.142857199
 20
35.4642849121
 10
2.7857142654
 20
35.4642849121
  0
LINE
  5
2C2
100
AcDbEntity
  8
RACCORDO
100
AcDbLine
 62
7
  6
CONTINUOUS
 10
3.61540734
 20
22.4615988572
 11
3.7340272952
 21
23.8174311485
  0
LINE
  5
2C3
100
AcDbEntity
  8
ASSI
100
AcDbLine
 62
253
  6
CONTINUOUS
 10
-10.5867206889
 20
-22.373374621
 11
-10.6308294475
 21
-22.4615988572
  0
LINE
  5
2C4
100
AcDbEntity
  8
CURVE
100
AcDbLine
 62
7
  6
CONTINUOUS
 10
10.8518813554
 20
10.3695635524
 11
10.8616017817
 21
10.3792839787
  0
LINE
  5
2C5
100
AcDbEntity
  8
ASSI
100
AcDbLine
 62
253
  6
CONTINUOUS
 10
-10.6308294475
 20
22.4615988572
 11
-10.5867206889
 21
22.373374621
  0
LINE
  5
2C6
100
AcDbEntity
  8
0
100
AcDbLine
 62
7
  6
CONTINUOUS
 10
2.5
 20
-18.2
 11
2.5
 21
-18.0236730193
  0
LINE
  5
2C7
100
AcDbEntity
  8
RACCORDO
100
AcDbLine
 62
253
  6
CONTINUOUS
 10
4.3
 20
23.8584094599
 11
4.3
 21
23.4779868533
  0
LINE
  5
2C8
100
AcDbEntity
  8
RACCORDO
100
AcDbLine
 62
253
  6
CONTINUOUS
 10
4.3
 20
-23.8584094599
 11
4.3
 21
-23.4779868533
  0
LINE
  5
2C9
100
AcDbEntity
  8
RACCORDO
100
AcDbLine
 62
7
  6
CONTINUOUS
 10
4.5
 20
-24.0
 11
4.5
 21
-23.5397902522
  0
LINE
  5
2CA
100
AcDbEntity
  8
RACCORDO
100
AcDbLine
 62
7
  6
CONTINUOUS
 10
4.5
 20
23.5397902522
 11
4.5
 21
24.0
  0
LINE
  5
2CB
100
AcDbEntity
  8
0
100
AcDbLine
 62
7
  6
CONTINUOUS
 10
6.0
 20
24.0
 11
6.0
 21
22.4507488485
  0
LINE
  5
2CC
100
AcDbEntity
  8
0
100
AcDbLine
 62
7
  6
CONTINUOUS
 10
6.0
 20
-24.0
 11
6.0
 21
-22.4507488485
  0
LINE
  5
2CD
100
AcDbEntity
  8
0
100
AcDbLine
 62
7
  6
CONTINUOUS
 10
6.0
 20
-24.0
 11
6.0
 21
-25.0
  0
LINE
  5
2CE
100
AcDbEntity
  8
0
100
AcDbLine
 62
7
  6
CONTINUOUS
 10
6.0
 20
24.0
 11
6.0
 21
25.0
  0
LINE
  5
2CF
100
AcDbEntity
  8
ASSI
100
AcDbLine
 62
7
  6
CONTINUOUS
 10
6.2
 20
-23.0
 11
6.2
 21
-22.8030153487
  0
LINE
  5
2D0
100
AcDbEntity
  8
ASSI
100
AcDbLine
 62
7
  6
CONTINUOUS
 10
6.2
 20
22.8030153487
 11
6.2
 21
23.0
  0
LINE
  5
2D1
100
AcDbEntity
  8
ASSI
100
AcDbLine
 62
253
  6
CONTINUOUS
 10
6.3442632236
 20
23.0
 11
6.3442632236
 21
22.4622126724
  0
LINE
  5
2D2
100
AcDbEntity
  8
ASSI
100
AcDbLine
 62
253
  6
CONTINUOUS
 10
6.3442632236
 20
-22.4622126724
 11
6.3442632236
 21
-23.0
  0
LINE
  5
2D3
100
AcDbEntity
  8
ASSI
100
AcDbLine
 62
7
  6
CONTINUOUS
 10
7.1728028135
 20
23.0
 11
7.1728028135
 21
22.4476394778
  0
LINE
  5
2D4
100
AcDbEntity
  8
ASSI
100
AcDbLine
 62
7
  6
CONTINUOUS
 10
7.1728028135
 20
-22.4476394778
 11
7.1728028135
 21
-23.0
  0
LINE
  5
2D5
100
AcDbEntity
  8
ASSI
100
AcDbLine
 62
7
  6
CONTINUOUS
 10
8.0
 20
23.0
 11
8.0
 21
22.4615988572
  0
LINE
  5
2D6
100
AcDbEntity
  8
ASSI
100
AcDbLine
 62
7
  6
CONTINUOUS
 10
8.0
 20
-22.4615988572
 11
8.0
 21
-23.0
  0
LINE
  5
2D7
100
AcDbEntity
  8
RACCORDO
100
AcDbLine
 62
7
  6
CONTINUOUS
 10
8.95
 20
-18.2
 11
8.95
 21
-11.55
  0
LINE
  5
2D8
100
AcDbEntity
  8
ASSI
100
AcDbLine
 62
7
  6
CONTINUOUS
 10
9.0
 20
-18.3
 11
9.0
 21
-11.5
  0
LINE
  5
2D9
100
AcDbEntity
  8
CURVE
100
AcDbLine
 62
253
  6
CONTINUOUS
 10
10.8755657006
 20
7.6142857373
 11
10.8912734645
 21
7.6142857373
  0
LINE
  5
2DA
100
AcDbEntity
  8
CURVE
100
AcDbLine
 62
253
  6
CONTINUOUS
 10
10.8789316503
 20
8.1285714746
 11
10.8755657006
 21
8.1285714746
  0
LINE
  5
2DB
100
AcDbEntity
  8
CURVE
100
AcDbLine
 62
253
  6
CONTINUOUS
 10
10.8450095782
 20
-12.550162
 11
10.8615319372
 21
-12.680779
  0
LINE
  5
2DC
100
AcDbEntity
  8
CURVE
100
AcDbLine
 62
253
  6
CONTINUOUS
 10
10.8615319372
 20
-13.259827
 11
10.8362289758
 21
-12.998005
  0
LINE
  5
2DD
100
AcDbEntity
  8
ASSI
100
AcDbLine
 62
253
  6
CONTINUOUS
 10
10.589281257
 20
-18.3
 11
10.5601018669
 21
-17.7104283594
  0
LINE
  5
2DE
100
AcDbEntity
  8
ASSI
100
AcDbLine
 62
253
  6
CONTINUOUS
 10
10.8389119255
 20
-18.0465280279
 11
10.8100923194
 21
-17.4642258507
  0
LINE
  5
2DF
100
AcDbEntity
  8
CURVE
100
AcDbLine
 62
253
  6
CONTINUOUS
 10
10.843181587
 20
-9.033126
 11
10.8525718368
 21
-9.3345
  0
LINE
  5
2E0
100
AcDbEntity
  8
CURVE
100
AcDbLine
 62
253
  6
CONTINUOUS
 10
10.8536457881
 20
-15.590021
 11
10.8362289758
 21
-15.02041
  0
LINE
  5
2E1
100
AcDbEntity
  8
CURVE
100
AcDbLine
 62
253
  6
CONTINUOUS
 10
10.8755657006
 20
9.0285713673
 11
10.8912734645
 21
8.5142856836
  0
LINE
  5
2E2
100
AcDbEntity
  8
CURVE
100
AcDbLine
 62
253
  6
CONTINUOUS
 10
10.856480565
 20
-9.458312
 11
10.8615319372
 21
-9.625329
  0
LINE
  5
2E3
100
AcDbEntity
  8
CURVE
100
AcDbLine
 62
253
  6
CONTINUOUS
 10
10.8615319372
 20
-10.224033
 11
10.8362289758
 21
-9.314517
  0
LINE
  5
2E4
100
AcDbEntity
  8
CURVE
100
AcDbLine
 62
253
  6
CONTINUOUS
 10
10.8362289758
 20
-14.415552
 11
10.8615319372
 21
-15.347617
  0
LINE
  5
2E5
100
AcDbEntity
  8
CURVE
100
AcDbLine
 62
253
  6
CONTINUOUS
 10
10.8502772555
 20
-11.794355
 11
10.8362289758
 21
-11.189084
  0
LINE
  5
2E6
100
AcDbEntity
  8
CURVE
100
AcDbLine
 62
253
  6
CONTINUOUS
 10
10.8450784541
 20
-11.035548
 11
10.8615319372
 21
-11.755216
  0
LINE
  5
2E7
100
AcDbEntity
  8
CURVE
100
AcDbLine
 62
253
  6
CONTINUOUS
 10
10.879929068
 20
-14.81011
 11
10.8912731322
 21
-15.380443
  0
LINE
  5
2E8
100
AcDbEntity
  8
CURVE
100
AcDbLine
 62
253
  6
CONTINUOUS
 10
10.879929068
 20
-6.660387
 11
10.8912731322
 21
-7.230721
  0
LINE
  5
2E9
100
AcDbEntity
  8
CURVE
100
AcDbLine
 62
253
  6
CONTINUOUS
 10
10.879929068
 20
-15.554264
 11
10.8912731322
 21
-16.177131
  0
LINE
  5
2EA
100
AcDbEntity
  8
CURVE
100
AcDbLine
 62
253
  6
CONTINUOUS
 10
10.8800536329
 20
9.5428570509
 11
10.8778096667
 21
9.6714286327
  0
LINE
  5
2EB
100
AcDbEntity
  8
CURVE
100
AcDbLine
 62
253
  6
CONTINUOUS
 10
10.8867855318
 20
10.4428570509
 11
10.8890294981
 21
10.3142856836
  0
LINE
  5
2EC
100
AcDbEntity
  8
CURVE
100
AcDbLine
 62
253
  6
CONTINUOUS
 10
10.8789316503
 20
11.2142858982
 11
10.8834195826
 21
10.9571427345
  0
LINE
  5
2ED
100
AcDbEntity
  8
CURVE
100
AcDbLine
 62
253
  6
CONTINUOUS
 10
10.8789316503
 20
12.6285713673
 11
10.8834195826
 21
12.3714286327
  0
LINE
  5
2EE
100
AcDbEntity
  8
CURVE
100
AcDbLine
 62
253
  6
CONTINUOUS
 10
10.8894034926
 20
14.0428572655
 11
10.8886555038
 21
14.0857142448
  0
LINE
  5
2EF
100
AcDbEntity
  8
CURVE
100
AcDbLine
 62
253
  6
CONTINUOUS
 10
10.889777487
 20
14.2142856121
 11
10.8905254757
 21
14.1714286327
  0
LINE
  5
2F0
100
AcDbEntity
  8
CURVE
100
AcDbLine
 62
253
  6
CONTINUOUS
 10
10.8868835466
 20
-4.456396
 11
10.879929068
 21
-3.980657
  0
LINE
  5
2F1
100
AcDbEntity
  8
CURVE
100
AcDbLine
 62
253
  6
CONTINUOUS
 10
10.8800536329
 20
7.1
 11
10.8755657006
 21
7.6142857373
  0
LINE
  5
2F2
100
AcDbEntity
  8
CURVE
100
AcDbLine
 62
253
  6
CONTINUOUS
 10
10.8778096667
 20
9.6714286327
 11
10.8755657006
 21
9.9285713673
  0
LINE
  5
2F3
100
AcDbEntity
  8
CURVE
100
AcDbLine
 62
253
  6
CONTINUOUS
 10
10.8755657006
 20
11.6
 11
10.8789316503
 21
11.2142858982
  0
LINE
  5
2F4
100
AcDbEntity
  8
CURVE
100
AcDbLine
 62
253
  6
CONTINUOUS
 10
10.8890294981
 20
10.3142856836
 11
10.8912734645
 21
10.0571429491
  0
LINE
  5
2F5
100
AcDbEntity
  8
CURVE
100
AcDbLine
 62
253
  6
CONTINUOUS
 10
10.8755657006
 20
13.0142858982
 11
10.8789316503
 21
12.6285713673
  0
LINE
  5
2F6
100
AcDbEntity
  8
CURVE
100
AcDbLine
 62
253
  6
CONTINUOUS
 10
10.8912734645
 20
11.6
 11
10.8890294981
 21
11.8571427345
  0
LINE
  5
2F7
100
AcDbEntity
  8
CURVE
100
AcDbLine
 62
253
  6
CONTINUOUS
 10
10.8912734645
 20
13.0142858982
 11
10.8890294981
 21
13.2714286327
  0
LINE
  5
2F8
100
AcDbEntity
  8
CURVE
100
AcDbLine
 62
253
  6
CONTINUOUS
 10
10.8800536329
 20
14.8142854691
 11
10.8755657006
 21
15.3285717964
  0
LINE
  5
2F9
100
AcDbEntity
  8
CURVE
100
AcDbLine
 62
253
  6
CONTINUOUS
 10
10.8778096667
 20
15.9714282036
 11
10.8755657006
 21
16.2285717964
  0
LINE
  5
2FA
100
AcDbEntity
  8
CURVE
100
AcDbLine
 62
253
  6
CONTINUOUS
 10
10.8890294981
 20
16.6142854691
 11
10.8912734645
 21
16.3571427345
  0
LINE
  5
2FB
100
AcDbEntity
  8
CURVE
100
AcDbLine
 62
253
  6
CONTINUOUS
 10
10.8380823865
 20
10.794133
 11
10.8354346732
 21
11.493003
  0
LINE
  5
2FC
100
AcDbEntity
  8
CURVE
100
AcDbLine
 62
253
  6
CONTINUOUS
 10
10.8432883259
 20
10.637092
 11
10.8406314763
 21
11.338373
  0
LINE
  5
2FD
100
AcDbEntity
  8
CURVE
100
AcDbLine
 62
253
  6
CONTINUOUS
 10
10.8354346732
 20
13.403031
 11
10.838016111
 21
12.721655
  0
LINE
  5
2FE
100
AcDbEntity
  8
CURVE
100
AcDbLine
 62
253
  6
CONTINUOUS
 10
10.8441557367
 20
11.233509
 11
10.8468543412
 21
10.521207
  0
LINE
  5
2FF
100
AcDbEntity
  8
CURVE
100
AcDbLine
 62
253
  6
CONTINUOUS
 10
10.85270725
 20
14.128274
 11
10.8540003337
 21
13.786961
  0
LINE
  5
300
100
AcDbEntity
  8
CURVE
100
AcDbLine
 62
253
  6
CONTINUOUS
 10
10.856637532
 20
13.701928
 11
10.8526263581
 21
14.760684
  0
LINE
  5
301
100
AcDbEntity
  8
CURVE
100
AcDbLine
 62
253
  6
CONTINUOUS
 10
10.8513457878
 20
15.098693
 11
10.8489156711
 21
15.740127
  0
LINE
  5
302
100
AcDbEntity
  8
CURVE
100
AcDbLine
 62
253
  6
CONTINUOUS
 10
10.8507484356
 20
16.039116
 11
10.8546880545
 21
14.999245
  0
LINE
  5
303
100
AcDbEntity
  8
CURVE
100
AcDbLine
 62
253
  6
CONTINUOUS
 10
10.8559686249
 20
14.661236
 11
10.8586081181
 21
13.964538
  0
LINE
  5
304
100
AcDbEntity
  8
CURVE
100
AcDbLine
 62
253
  6
CONTINUOUS
 10
10.8530804087
 20
15.969728
 11
10.8543475494
 21
15.635264
  0
LINE
  5
305
100
AcDbEntity
  8
ASSI
100
AcDbLine
 62
253
  6
CONTINUOUS
 10
10.5867206889
 20
-22.373374621
 11
10.5867206889
 21
-18.8
  0
LINE
  5
306
100
AcDbEntity
  8
ASSI
100
AcDbLine
 62
253
  6
CONTINUOUS
 10
10.5867206889
 20
18.8
 11
10.5867206889
 21
22.373374621
  0
LINE
  5
307
100
AcDbEntity
  8
CURVE
100
AcDbLine
 62
253
  6
CONTINUOUS
 10
10.8362274575
 20
-13.585664
 11
10.8362274575
 21
-14.190935
  0
LINE
  5
308
100
AcDbEntity
  8
CURVE
100
AcDbLine
 62
253
  6
CONTINUOUS
 10
10.8362289758
 20
-16.80026
 11
10.8362289758
 21
-16.142748
  0
LINE
  5
309
100
AcDbEntity
  8
CURVE
100
AcDbLine
 62
253
  6
CONTINUOUS
 10
10.8362289758
 20
-15.02041
 11
10.8362289758
 21
-14.415552
  0
LINE
  5
30A
100
AcDbEntity
  8
CURVE
100
AcDbLine
 62
253
  6
CONTINUOUS
 10
10.8362289758
 20
-12.998005
 11
10.8362289758
 21
-12.393234
  0
LINE
  5
30B
100
AcDbEntity
  8
CURVE
100
AcDbLine
 62
253
  6
CONTINUOUS
 10
10.8362289758
 20
-11.189084
 11
10.8362289758
 21
-10.590227
  0
LINE
  5
30C
100
AcDbEntity
  8
CURVE
100
AcDbLine
 62
253
  6
CONTINUOUS
 10
10.8362289758
 20
-9.314517
 11
10.8362289758
 21
-8.72899
  0
LINE
  5
30D
100
AcDbEntity
  8
ASSI
100
AcDbLine
 62
253
  6
CONTINUOUS
 10
10.8367111697
 20
-22.1234126973
 11
10.8367111697
 21
-18.8
  0
LINE
  5
30E
100
AcDbEntity
  8
ASSI
100
AcDbLine
 62
253
  6
CONTINUOUS
 10
10.8367111697
 20
18.8
 11
10.8367111697
 21
22.1234126973
  0
LINE
  5
30F
100
AcDbEntity
  8
ASSI
100
AcDbLine
 62
7
  6
CONTINUOUS
 10
10.8389119255
 20
18.8
 11
10.8389119255
 21
18.0465280279
  0
LINE
  5
310
100
AcDbEntity
  8
ASSI
100
AcDbLine
 62
7
  6
CONTINUOUS
 10
10.8389119255
 20
-18.0465280279
 11
10.8389119255
 21
-18.8
  0
LINE
  5
311
100
AcDbEntity
  8
CURVE
100
AcDbLine
 62
253
  6
CONTINUOUS
 10
10.8441557367
 20
12.024795
 11
10.8441557367
 21
12.530725
  0
LINE
  5
312
100
AcDbEntity
  8
CURVE
100
AcDbLine
 62
253
  6
CONTINUOUS
 10
10.8441557367
 20
13.775003
 11
10.8441557367
 21
14.560842
  0
LINE
  5
313
100
AcDbEntity
  8
CURVE
100
AcDbLine
 62
253
  6
CONTINUOUS
 10
10.8441557367
 20
15.607566
 11
10.8441557367
 21
16.530836
  0
LINE
  5
314
100
AcDbEntity
  8
CURVE
100
AcDbLine
 62
253
  6
CONTINUOUS
 10
10.847485744
 20
-6.7328946758
 11
10.847485744
 21
-7.0788012718
  0
LINE
  5
315
100
AcDbEntity
  8
CURVE
100
AcDbLine
 62
253
  6
CONTINUOUS
 10
10.851629758
 20
-7.0587313832
 11
10.851629758
 21
-6.7341993273
  0
LINE
  5
316
100
AcDbEntity
  8
CURVE
100
AcDbLine
 62
253
  6
CONTINUOUS
 10
10.8525718368
 20
-9.3345
 11
10.8525718368
 21
-8.754996
  0
LINE
  5
317
100
AcDbEntity
  8
CURVE
100
AcDbLine
 62
253
  6
CONTINUOUS
 10
10.856480565
 20
-8.634033
 11
10.856480565
 21
-9.458312
  0
LINE
  5
318
100
AcDbEntity
  8
CURVE
100
AcDbLine
 62
253
  6
CONTINUOUS
 10
10.8615319372
 20
-7.839304
 11
10.8615319372
 21
-8.477235
  0
LINE
  5
319
100
AcDbEntity
  8
CURVE
100
AcDbLine
 62
253
  6
CONTINUOUS
 10
10.8615319372
 20
-9.625329
 11
10.8615319372
 21
-10.224033
  0
LINE
  5
31A
100
AcDbEntity
  8
CURVE
100
AcDbLine
 62
253
  6
CONTINUOUS
 10
10.8615319372
 20
-10.319077
 11
10.8615319372
 21
-10.911193
  0
LINE
  5
31B
100
AcDbEntity
  8
CURVE
100
AcDbLine
 62
253
  6
CONTINUOUS
 10
10.8615319372
 20
-11.755216
 11
10.8615319372
 21
-11.840105
  0
LINE
  5
31C
100
AcDbEntity
  8
CURVE
100
AcDbLine
 62
253
  6
CONTINUOUS
 10
10.8615319372
 20
-12.680779
 11
10.8615319372
 21
-13.259827
  0
LINE
  5
31D
100
AcDbEntity
  8
CURVE
100
AcDbLine
 62
253
  6
CONTINUOUS
 10
10.8615319372
 20
-15.347617
 11
10.8615319372
 21
-15.881013
  0
LINE
  5
31E
100
AcDbEntity
  8
CURVE
100
AcDbLine
 62
253
  6
CONTINUOUS
 10
10.8615319372
 20
-14.190935
 11
10.8615319372
 21
-13.585664
  0
LINE
  5
31F
100
AcDbEntity
  8
CURVE
100
AcDbLine
 62
253
  6
CONTINUOUS
 10
10.8615319403
 20
-7.6615673444
 11
10.8615319403
 21
-7.0587313832
  0
LINE
  5
320
100
AcDbEntity
  8
CURVE
100
AcDbLine
 62
253
  6
CONTINUOUS
 10
10.8615319403
 20
-6.1318417383
 11
10.8615319403
 21
-5.5496410148
  0
LINE
  5
321
100
AcDbEntity
  8
CURVE
100
AcDbLine
 62
253
  6
CONTINUOUS
 10
10.8616017817
 20
16.373117
 11
10.8616017817
 21
15.20717
  0
LINE
  5
322
100
AcDbEntity
  8
CURVE
100
AcDbLine
 62
253
  6
CONTINUOUS
 10
10.8616017817
 20
14.301746
 11
10.8616017817
 21
13.307888
  0
LINE
  5
323
100
AcDbEntity
  8
CURVE
100
AcDbLine
 62
253
  6
CONTINUOUS
 10
10.8616017817
 20
10.07634
 11
10.8616017817
 21
10.714406
  0
LINE
  5
324
100
AcDbEntity
  8
CURVE
100
AcDbLine
 62
253
  6
CONTINUOUS
 10
10.8616017817
 20
11.456235
 11
10.8616017817
 21
12.624434
  0
LINE
  5
325
100
AcDbEntity
  8
CURVE
100
AcDbLine
 62
253
  6
CONTINUOUS
 10
10.8755657006
 20
8.1285714746
 11
10.8755657006
 21
9.0285713673
  0
LINE
  5
326
100
AcDbEntity
  8
CURVE
100
AcDbLine
 62
253
  6
CONTINUOUS
 10
10.8755657006
 20
9.9285713673
 11
10.8755657006
 21
10.0571429491
  0
LINE
  5
327
100
AcDbEntity
  8
CURVE
100
AcDbLine
 62
253
  6
CONTINUOUS
 10
10.8755657006
 20
16.2285717964
 11
10.8755657006
 21
16.3571427345
  0
LINE
  5
328
100
AcDbEntity
  8
CURVE
100
AcDbLine
 62
253
  6
CONTINUOUS
 10
10.879929068
 20
-11.806258
 11
10.879929068
 21
-12.753245
  0
LINE
  5
329
100
AcDbEntity
  8
CURVE
100
AcDbLine
 62
253
  6
CONTINUOUS
 10
10.879929068
 20
-13.639757
 11
10.879929068
 21
-14.069593
  0
LINE
  5
32A
100
AcDbEntity
  8
CURVE
100
AcDbLine
 62
253
  6
CONTINUOUS
 10
10.879929068
 20
-8.355145
 11
10.879929068
 21
-7.299553
  0
LINE
  5
32B
100
AcDbEntity
  8
ASSI
100
AcDbLine
 62
7
  6
CONTINUOUS
 10
10.8808008909
 20
-22.2115988557
 11
10.8808008909
 21
-19.5191991091
  0
LINE
  5
32C
100
AcDbEntity
  8
ASSI
100
AcDbLine
 62
7
  6
CONTINUOUS
 10
10.8808008909
 20
19.5191991091
 11
10.8808008909
 21
22.2115988557
  0
LINE
  5
32D
100
AcDbEntity
  8
CURVE
100
AcDbLine
 62
253
  6
CONTINUOUS
 10
10.882297599
 20
13.0142858982
 11
10.882297599
 21
12.4571430206
  0
LINE
  5
32E
100
AcDbEntity
  8
CURVE
100
AcDbLine
 62
253
  6
CONTINUOUS
 10
10.882297599
 20
11.6
 11
10.882297599
 21
11.0428571224
  0
LINE
  5
32F
100
AcDbEntity
  8
CURVE
100
AcDbLine
 62
253
  6
CONTINUOUS
 10
10.8856011001
 20
-12.753245
 11
10.8856011001
 21
-11.872654
  0
LINE
  5
330
100
AcDbEntity
  8
CURVE
100
AcDbLine
 62
253
  6
CONTINUOUS
 10
10.8871557518
 20
-7.023716
 11
10.8871557518
 21
-6.297059
  0
LINE
  5
331
100
AcDbEntity
  8
CURVE
100
AcDbLine
 62
253
  6
CONTINUOUS
 10
10.8872206834
 20
-15.176702
 11
10.8872206834
 21
-14.443517
  0
LINE
  5
332
100
AcDbEntity
  8
CURVE
100
AcDbLine
 62
253
  6
CONTINUOUS
 10
10.8886555038
 20
14.0857142448
 11
10.8886555038
 21
14.1714286327
  0
LINE
  5
333
100
AcDbEntity
  8
CURVE
100
AcDbLine
 62
253
  6
CONTINUOUS
 10
10.8905254757
 20
14.1714286327
 11
10.8905254757
 21
14.0857142448
  0
LINE
  5
334
100
AcDbEntity
  8
CURVE
100
AcDbLine
 62
253
  6
CONTINUOUS
 10
10.8912734645
 20
16.3571427345
 11
10.8912734645
 21
16.2285717964
  0
LINE
  5
335
100
AcDbEntity
  8
CURVE
100
AcDbLine
 62
253
  6
CONTINUOUS
 10
10.8912734645
 20
10.0571429491
 11
10.8912734645
 21
9.9285713673
  0
LINE
  5
336
100
AcDbEntity
  8
CURVE
100
AcDbLine
 62
253
  6
CONTINUOUS
 10
10.8912731322
 20
-14.069593
 11
10.8912731322
 21
-13.639757
  0
LINE
  5
337
100
AcDbEntity
  8
CURVE
100
AcDbLine
 62
253
  6
CONTINUOUS
 10
10.8912731322
 20
-12.753245
 11
10.8912731322
 21
-11.793568
  0
LINE
  5
338
100
AcDbEntity
  8
CURVE
100
AcDbLine
 62
253
  6
CONTINUOUS
 10
10.8912731322
 20
-5.841082
 11
10.8912731322
 21
-5.094148
  0
LINE
  5
339
100
AcDbEntity
  8
CURVE
100
AcDbLine
 62
253
  6
CONTINUOUS
 10
10.8912734645
 20
11.2142858982
 11
10.8912734645
 21
11.6
  0
LINE
  5
33A
100
AcDbEntity
  8
CURVE
100
AcDbLine
 62
253
  6
CONTINUOUS
 10
10.8912734645
 20
12.6285713673
 11
10.8912734645
 21
13.0142858982
  0
LINE
  5
33B
100
AcDbEntity
  8
ASSI
100
AcDbLine
 62
7
  6
CONTINUOUS
 10
10.9
 20
-19.4728483595
 11
10.9
 21
19.4728483595
  0
LINE
  5
33C
100
AcDbEntity
  8
CURVE
100
AcDbLine
 62
253
  6
CONTINUOUS
 10
10.8755657006
 20
16.3571427345
 11
10.8778096667
 21
16.6142854691
  0
LINE
  5
33D
100
AcDbEntity
  8
CURVE
100
AcDbLine
 62
253
  6
CONTINUOUS
 10
10.8912734645
 20
16.2285717964
 11
10.8890294981
 21
15.9714282036
  0
LINE
  5
33E
100
AcDbEntity
  8
CURVE
100
AcDbLine
 62
253
  6
CONTINUOUS
 10
10.8845415656
 20
13.2714286327
 11
10.882297599
 21
13.0142858982
  0
LINE
  5
33F
100
AcDbEntity
  8
CURVE
100
AcDbLine
 62
253
  6
CONTINUOUS
 10
10.8845415656
 20
11.8571427345
 11
10.882297599
 21
11.6
  0
LINE
  5
340
100
AcDbEntity
  8
CURVE
100
AcDbLine
 62
253
  6
CONTINUOUS
 10
10.8890294981
 20
12.3714286327
 11
10.8912734645
 21
12.6285713673
  0
LINE
  5
341
100
AcDbEntity
  8
CURVE
100
AcDbLine
 62
253
  6
CONTINUOUS
 10
10.8755657006
 20
10.0571429491
 11
10.8778096667
 21
10.3142856836
  0
LINE
  5
342
100
AcDbEntity
  8
CURVE
100
AcDbLine
 62
253
  6
CONTINUOUS
 10
10.8890294981
 20
10.9571427345
 11
10.8912734645
 21
11.2142858982
  0
LINE
  5
343
100
AcDbEntity
  8
CURVE
100
AcDbLine
 62
253
  6
CONTINUOUS
 10
10.8912734645
 20
9.9285713673
 11
10.8890294981
 21
9.6714286327
  0
LINE
  5
344
100
AcDbEntity
  8
CURVE
100
AcDbLine
 62
253
  6
CONTINUOUS
 10
10.8912731322
 20
-9.524819
 11
10.879929068
 21
-10.556944
  0
LINE
  5
345
100
AcDbEntity
  8
CURVE
100
AcDbLine
 62
253
  6
CONTINUOUS
 10
10.879929068
 20
-4.932134
 11
10.8868835466
 21
-4.456396
  0
LINE
  5
346
100
AcDbEntity
  8
CURVE
100
AcDbLine
 62
253
  6
CONTINUOUS
 10
10.8778096667
 20
16.6142854691
 11
10.8800536329
 21
16.7428572655
  0
LINE
  5
347
100
AcDbEntity
  8
CURVE
100
AcDbLine
 62
253
  6
CONTINUOUS
 10
10.8890294981
 20
15.9714282036
 11
10.8867855318
 21
15.8428572655
  0
LINE
  5
348
100
AcDbEntity
  8
CURVE
100
AcDbLine
 62
253
  6
CONTINUOUS
 10
10.8886555038
 20
14.1714286327
 11
10.8894034926
 21
14.2142856121
  0
LINE
  5
349
100
AcDbEntity
  8
CURVE
100
AcDbLine
 62
253
  6
CONTINUOUS
 10
10.8905254757
 20
14.0857142448
 11
10.889777487
 21
14.0428572655
  0
LINE
  5
34A
100
AcDbEntity
  8
CURVE
100
AcDbLine
 62
253
  6
CONTINUOUS
 10
10.8778096667
 20
10.3142856836
 11
10.8800536329
 21
10.4428570509
  0
LINE
  5
34B
100
AcDbEntity
  8
CURVE
100
AcDbLine
 62
253
  6
CONTINUOUS
 10
10.8890294981
 20
9.6714286327
 11
10.8867855318
 21
9.5428570509
  0
LINE
  5
34C
100
AcDbEntity
  8
CURVE
100
AcDbLine
 62
253
  6
CONTINUOUS
 10
10.8912731322
 20
-6.090054
 11
10.879929068
 21
-6.660387
  0
LINE
  5
34D
100
AcDbEntity
  8
CURVE
100
AcDbLine
 62
253
  6
CONTINUOUS
 10
10.8615319372
 20
-11.840105
 11
10.8450095782
 21
-12.550162
  0
LINE
  5
34E
100
AcDbEntity
  8
CURVE
100
AcDbLine
 62
253
  6
CONTINUOUS
 10
10.8362289758
 20
-12.393234
 11
10.8502772555
 21
-11.794355
  0
LINE
  5
34F
100
AcDbEntity
  8
CURVE
100
AcDbLine
 62
253
  6
CONTINUOUS
 10
10.8362289758
 20
-8.72899
 11
10.8615319372
 21
-7.839304
  0
LINE
  5
350
100
AcDbEntity
  8
CURVE
100
AcDbLine
 62
253
  6
CONTINUOUS
 10
10.8615319372
 20
-8.477235
 11
10.856480565
 21
-8.634033
  0
LINE
  5
351
100
AcDbEntity
  8
CURVE
100
AcDbLine
 62
253
  6
CONTINUOUS
 10
10.8525718368
 20
-8.754996
 11
10.843181587
 21
-9.033126
  0
LINE
  5
352
100
AcDbEntity
  8
ASSI
100
AcDbLine
 62
253
  6
CONTINUOUS
 10
10.5601018669
 20
17.7104283594
 11
10.589281257
 21
18.3
  0
LINE
  5
353
100
AcDbEntity
  8
ASSI
100
AcDbLine
 62
253
  6
CONTINUOUS
 10
10.8100923194
 20
17.4642258507
 11
10.8389119255
 21
18.0465280279
  0
LINE
  5
354
100
AcDbEntity
  8
CURVE
100
AcDbLine
 62
253
  6
CONTINUOUS
 10
10.8867855318
 20
9.5428570509
 11
10.8800536329
 21
9.5428570509
  0
LINE
  5
355
100
AcDbEntity
  8
CURVE
100
AcDbLine
 62
253
  6
CONTINUOUS
 10
10.8800536329
 20
10.4428570509
 11
10.8867855318
 21
10.4428570509
  0
LINE
  5
356
100
AcDbEntity
  8
CURVE
100
AcDbLine
 62
253
  6
CONTINUOUS
 10
10.8834195826
 20
10.9571427345
 11
10.8890294981
 21
10.9571427345
  0
LINE
  5
357
100
AcDbEntity
  8
CURVE
100
AcDbLine
 62
253
  6
CONTINUOUS
 10
10.8354346732
 20
11.493003
 11
10.8406314763
 21
11.338373
  0
LINE
  5
358
100
AcDbEntity
  8
CURVE
100
AcDbLine
 62
253
  6
CONTINUOUS
 10
10.8441557367
 20
11.233509
 11
10.8616017817
 21
10.714406
  0
LINE
  5
359
100
AcDbEntity
  8
CURVE
100
AcDbLine
 62
253
  6
CONTINUOUS
 10
10.8580105564
 20
11.176416
 11
10.8460070007
 21
11.53358
  0
LINE
  5
35A
100
AcDbEntity
  8
CURVE
100
AcDbLine
 62
253
  6
CONTINUOUS
 10
10.8468543412
 20
12.11692
 11
10.8578595407
 21
11.789462
  0
LINE
  5
35B
100
AcDbEntity
  8
CURVE
100
AcDbLine
 62
253
  6
CONTINUOUS
 10
10.845985447
 20
12.464745
 11
10.8597613382
 21
12.054846
  0
LINE
  5
35C
100
AcDbEntity
  8
CURVE
100
AcDbLine
 62
253
  6
CONTINUOUS
 10
10.8354346732
 20
13.403031
 11
10.8616017817
 21
12.624434
  0
LINE
  5
35D
100
AcDbEntity
  8
CURVE
100
AcDbLine
 62
253
  6
CONTINUOUS
 10
10.8457467242
 20
13.421401
 11
10.8587058254
 21
13.035806
  0
LINE
  5
35E
100
AcDbEntity
  8
CURVE
100
AcDbLine
 62
253
  6
CONTINUOUS
 10
10.8472080579
 20
13.989064
 11
10.8540003337
 21
13.786961
  0
LINE
  5
35F
100
AcDbEntity
  8
CURVE
100
AcDbLine
 62
253
  6
CONTINUOUS
 10
10.8460354656
 20
14.326791
 11
10.85270725
 21
14.128274
  0
LINE
  5
360
100
AcDbEntity
  8
CURVE
100
AcDbLine
 62
253
  6
CONTINUOUS
 10
10.8479878837
 20
14.898701
 11
10.8526263581
 21
14.760684
  0
LINE
  5
361
100
AcDbEntity
  8
CURVE
100
AcDbLine
 62
253
  6
CONTINUOUS
 10
10.8559686249
 20
14.661236
 11
10.8595210709
 21
14.555534
  0
LINE
  5
362
100
AcDbEntity
  8
CURVE
100
AcDbLine
 62
253
  6
CONTINUOUS
 10
10.8513457878
 20
15.098693
 11
10.8466483854
 21
15.238464
  0
LINE
  5
363
100
AcDbEntity
  8
CURVE
100
AcDbLine
 62
253
  6
CONTINUOUS
 10
10.8581081066
 20
14.897482
 11
10.8546880545
 21
14.999245
  0
LINE
  5
364
100
AcDbEntity
  8
CURVE
100
AcDbLine
 62
253
  6
CONTINUOUS
 10
10.8543475494
 20
15.635264
 11
10.8574527688
 21
15.542869
  0
LINE
  5
365
100
AcDbEntity
  8
CURVE
100
AcDbLine
 62
253
  6
CONTINUOUS
 10
10.8530804087
 20
15.969728
 11
10.8599236979
 21
15.766107
  0
LINE
  5
366
100
AcDbEntity
  8
CURVE
100
AcDbLine
 62
253
  6
CONTINUOUS
 10
10.8459517726
 20
16.181839
 11
10.8507484356
 21
16.039116
  0
LINE
  5
367
100
AcDbEntity
  8
CURVE
100
AcDbLine
 62
253
  6
CONTINUOUS
 10
10.8616017817
 20
16.373117
 11
10.8472550746
 21
16.8
  0
LINE
  5
368
100
AcDbEntity
  8
CURVE
100
AcDbLine
 62
253
  6
CONTINUOUS
 10
10.8616017817
 20
10.07634
 11
10.8468543412
 21
10.521207
  0
LINE
  5
369
100
AcDbEntity
  8
CURVE
100
AcDbLine
 62
253
  6
CONTINUOUS
 10
10.8432883259
 20
10.637092
 11
10.8380823865
 21
10.794133
  0
LINE
  5
36A
100
AcDbEntity
  8
CURVE
100
AcDbLine
 62
253
  6
CONTINUOUS
 10
10.8441557367
 20
12.530725
 11
10.838016111
 21
12.721655
  0
LINE
  5
36B
100
AcDbEntity
  8
CURVE
100
AcDbLine
 62
253
  6
CONTINUOUS
 10
10.8800536329
 20
15.8428572655
 11
10.8778096667
 21
15.9714282036
  0
LINE
  5
36C
100
AcDbEntity
  8
CURVE
100
AcDbLine
 62
253
  6
CONTINUOUS
 10
10.8867855318
 20
16.7428572655
 11
10.8890294981
 21
16.6142854691
  0
LINE
  5
36D
100
AcDbEntity
  8
CURVE
100
AcDbLine
 62
253
  6
CONTINUOUS
 10
10.8912731322
 20
-16.177131
 11
10.879929068
 21
-16.8
  0
LINE
  5
36E
100
AcDbEntity
  8
CURVE
100
AcDbLine
 62
253
  6
CONTINUOUS
 10
10.8912731322
 20
-14.239776
 11
10.879929068
 21
-14.81011
  0
LINE
  5
36F
100
AcDbEntity
  8
CURVE
100
AcDbLine
 62
253
  6
CONTINUOUS
 10
10.8615319372
 20
-15.881013
 11
10.8362289758
 21
-16.80026
  0
LINE
  5
370
100
AcDbEntity
  8
CURVE
100
AcDbLine
 62
253
  6
CONTINUOUS
 10
10.8362289758
 20
-16.142748
 11
10.8536457881
 21
-15.590021
  0
LINE
  5
371
100
AcDbEntity
  8
CURVE
100
AcDbLine
 62
253
  6
CONTINUOUS
 10
10.8362289758
 20
-10.590227
 11
10.8615319372
 21
-10.319077
  0
LINE
  5
372
100
AcDbEntity
  8
CURVE
100
AcDbLine
 62
253
  6
CONTINUOUS
 10
10.8615319372
 20
-10.911193
 11
10.8450784541
 21
-11.035548
  0
LINE
  5
373
100
AcDbEntity
  8
CURVE
100
AcDbLine
 62
253
  6
CONTINUOUS
 10
10.8890294981
 20
11.8571427345
 11
10.8845415656
 21
11.8571427345
  0
LINE
  5
374
100
AcDbEntity
  8
CURVE
100
AcDbLine
 62
253
  6
CONTINUOUS
 10
10.8834195826
 20
12.3714286327
 11
10.8890294981
 21
12.3714286327
  0
LINE
  5
375
100
AcDbEntity
  8
CURVE
100
AcDbLine
 62
253
  6
CONTINUOUS
 10
10.8890294981
 20
13.2714286327
 11
10.8845415656
 21
13.2714286327
  0
LINE
  5
376
100
AcDbEntity
  8
CURVE
100
AcDbLine
 62
253
  6
CONTINUOUS
 10
10.889777487
 20
14.0428572655
 11
10.8894034926
 21
14.0428572655
  0
LINE
  5
377
100
AcDbEntity
  8
CURVE
100
AcDbLine
 62
253
  6
CONTINUOUS
 10
10.8894034926
 20
14.2142856121
 11
10.889777487
 21
14.2142856121
  0
LINE
  5
378
100
AcDbEntity
  8
CURVE
100
AcDbLine
 62
253
  6
CONTINUOUS
 10
10.8755657006
 20
15.3285717964
 11
10.8912734645
 21
15.3285717964
  0
LINE
  5
379
100
AcDbEntity
  8
CURVE
100
AcDbLine
 62
253
  6
CONTINUOUS
 10
10.8867855318
 20
15.8428572655
 11
10.8800536329
 21
15.8428572655
  0
LWPOLYLINE
  5
37A
100
AcDbEntity
  8
0
100
AcDbPolyline
 62
7
  6
CONTINUOUS
 90
10
 70
0
 43
0.3500000087
 10
0.6428571331
 20
34.2500016663
 10
0.7142856886
 20
34.1071425568
 10
0.7142856886
 20
34.0357151337
 10
0.5714285775
 20
33.8928560242
 10
0.4999999887
 20
33.8928560242
 10
0.4285714331
 20
33.9642877106
 10
0.4285714331
 20
34.0357151337
 10
0.4999999887
 20
34.1785699799
 10
0.5714285775
 20
34.2500016663
 10
0.6428571331
 20
34.2500016663
  0
LWPOLYLINE
  5
37B
100
AcDbEntity
  8
0
100
AcDbPolyline
 62
7
  6
CONTINUOUS
 90
8
 70
0
 43
0.3500000087
 10
18.1500006714
 20
-2.2499998718
 10
18.1500006714
 20
-1.3928580048
 10
17.721428672
 20
-0.9642849396
 10
16.8642857391
 20
-0.9642849396
 10
16.4357148056
 20
-1.3928580048
 10
16.4357148056
 20
-2.2499998718
 10
15.1499998734
 20
-2.2499998718
 10
15.1499998734
 20
-0.9642849396
  0
LINE
  5
37C
100
AcDbEntity
  8
ASSI
100
AcDbLine
 62
7
  6
CONTINUOUS
 10
10.9
 20
-19.4728483595
 11
10.8808008909
 21
-19.5191991091
  0
LINE
  5
37D
100
AcDbEntity
  8
CURVE
100
AcDbLine
 62
253
  6
CONTINUOUS
 10
10.8800536329
 20
16.7428572655
 11
10.8867855318
 21
16.7428572655
  0
LINE
  5
37E
100
AcDbEntity
  8
ASSI
100
AcDbLine
 62
253
  6
CONTINUOUS
 10
10.5546983347
 20
16.7650638307
 11
-10.5546983347
 21
16.7650638307
  0
LINE
  5
37F
100
AcDbEntity
  8
ASSI
100
AcDbLine
 62
253
  6
CONTINUOUS
 10
10.5601018669
 20
17.7104283594
 11
-10.5601018669
 21
17.7104283594
  0
LINE
  5
380
100
AcDbEntity
  8
ASSI
100
AcDbLine
 62
7
  6
CONTINUOUS
 10
-10.589281257
 20
18.3
 11
10.589281257
 21
18.3
  0
LINE
  5
381
100
AcDbEntity
  8
ASSI
100
AcDbLine
 62
7
  6
CONTINUOUS
 10
10.9
 20
19.4728483595
 11
10.8808008909
 21
19.5191991091
  0
LINE
  5
382
100
AcDbEntity
  8
ASSI
100
AcDbLine
 62
7
  6
CONTINUOUS
 10
10.8389119255
 20
18.8
 11
-10.8389119255
 21
18.8
  0
LINE
  5
383
100
AcDbEntity
  8
ASSI
100
AcDbLine
 62
7
  6
CONTINUOUS
 10
6.2034300864
 20
-22.6030458097
 11
6.3442632236
 21
-22.4622126724
  0
LINE
  5
384
100
AcDbEntity
  8
ASSI
100
AcDbLine
 62
7
  6
CONTINUOUS
 10
6.3442632236
 20
22.4622126724
 11
6.2034300864
 21
22.6030458097
  0
LINE
  5
385
100
AcDbEntity
  8
ASSI
100
AcDbLine
 62
253
  6
CONTINUOUS
 10
10.8367111697
 20
22.1234126973
 11
-10.8367111697
 21
22.1234126973
  0
LINE
  5
386
100
AcDbEntity
  8
ASSI
100
AcDbLine
 62
253
  6
CONTINUOUS
 10
10.5867206889
 20
22.373374621
 11
-10.5867206889
 21
22.373374621
  0
LINE
  5
387
100
AcDbEntity
  8
ASSI
100
AcDbLine
 62
7
  6
CONTINUOUS
 10
10.6308294475
 20
22.4615988572
 11
8.0
 21
22.4615988572
  0
LINE
  5
388
100
AcDbEntity
  8
ASSI
100
AcDbLine
 62
7
  6
CONTINUOUS
 10
-8.0
 20
22.4615988572
 11
-10.6308294475
 21
22.4615988572
  0
LINE
  5
389
100
AcDbEntity
  8
ASSI
100
AcDbLine
 62
253
  6
CONTINUOUS
 10
6.2034300864
 20
22.6030458097
 11
6.0
 21
22.6030458097
  0
LINE
  5
38A
100
AcDbEntity
  8
ASSI
100
AcDbLine
 62
253
  6
CONTINUOUS
 10
-6.0
 20
22.6030458097
 11
-6.2034300864
 21
22.6030458097
  0
LINE
  5
38B
100
AcDbEntity
  8
ASSI
100
AcDbLine
 62
253
  6
CONTINUOUS
 10
6.2
 20
22.8030153487
 11
6.0
 21
22.8030153487
  0
LINE
  5
38C
100
AcDbEntity
  8
ASSI
100
AcDbLine
 62
253
  6
CONTINUOUS
 10
-6.0
 20
22.8030153487
 11
-6.2
 21
22.8030153487
  0
LINE
  5
38D
100
AcDbEntity
  8
ASSI
100
AcDbLine
 62
253
  6
CONTINUOUS
 10
-8.0
 20
23.0
 11
-6.2
 21
23.0
  0
LINE
  5
38E
100
AcDbEntity
  8
ASSI
100
AcDbLine
 62
253
  6
CONTINUOUS
 10
6.2
 20
23.0
 11
8.0
 21
23.0
  0
LINE
  5
38F
100
AcDbEntity
  8
ASSI
100
AcDbLine
 62
7
  6
CONTINUOUS
 10
-7.7493848997
 20
23.25
 11
-6.0
 21
23.25
  0
LINE
  5
390
100
AcDbEntity
  8
ASSI
100
AcDbLine
 62
7
  6
CONTINUOUS
 10
6.0
 20
23.25
 11
7.7493848997
 21
23.25
  0
LINE
  5
391
100
AcDbEntity
  8
RACCORDO
100
AcDbLine
 62
7
  6
CONTINUOUS
 10
-4.3
 20
23.4779868533
 11
-3.7043297675
 21
23.4779868533
  0
LINE
  5
392
100
AcDbEntity
  8
RACCORDO
100
AcDbLine
 62
7
  6
CONTINUOUS
 10
3.7043297675
 20
23.4779868533
 11
4.3
 21
23.4779868533
  0
LINE
  5
393
100
AcDbEntity
  8
RACCORDO
100
AcDbLine
 62
7
  6
CONTINUOUS
 10
-4.3
 20
23.8584094599
 11
-3.7420816149
 21
23.8584094599
  0
LINE
  5
394
100
AcDbEntity
  8
RACCORDO
100
AcDbLine
 62
7
  6
CONTINUOUS
 10
3.7420816149
 20
23.8584094599
 11
4.3
 21
23.8584094599
  0
LINE
  5
395
100
AcDbEntity
  8
RACCORDO
100
AcDbLine
 62
7
  6
CONTINUOUS
 10
6.0
 20
24.0
 11
3.9332662348
 21
24.0
  0
LINE
  5
396
100
AcDbEntity
  8
RACCORDO
100
AcDbLine
 62
7
  6
CONTINUOUS
 10
-3.9332662348
 20
24.0
 11
-6.0
 21
24.0
  0
LINE
  5
397
100
AcDbEntity
  8
0
100
AcDbLine
 62
253
  6
CONTINUOUS
 10
6.0
 20
24.3
 11
-6.0
 21
24.3
  0
LINE
  5
398
100
AcDbEntity
  8
0
100
AcDbLine
 62
7
  6
CONTINUOUS
 10
-6.0
 20
25.0
 11
6.0
 21
25.0
  0
LWPOLYLINE
  5
399
100
AcDbEntity
  8
0
100
AcDbPolyline
 62
7
  6
CONTINUOUS
 90
7
 70
0
 43
0.3500000087
 10
-2.5714285322
 20
33.750001178
 10
-4.0714286648
 20
33.750001178
 10
-2.5714285322
 20
35.8928579773
 10
-2.5714285322
 20
36.3214267792
 10
-2.9999999987
 20
36.7499998444
 10
-3.6428571983
 20
36.7499998444
 10
-4.0714286648
 20
36.1071445099
  0
LWPOLYLINE
  5
39A
100
AcDbEntity
  8
0
100
AcDbPolyline
 62
7
  6
CONTINUOUS
 90
13
 70
0
 43
0.3500000087
 10
2.142857199
 20
35.4642849121
 10
1.8571428436
 20
35.6785714447
 10
1.8571428436
 20
36.3214267792
 10
2.142857199
 20
36.7499998444
 10
2.7857142654
 20
36.7499998444
 10
3.0714284876
 20
36.3214267792
 10
3.0714284876
 20
35.6785714447
 10
2.7857142654
 20
35.4642849121
 10
3.2142857319
 20
35.0357161102
 10
3.2142857319
 20
34.1785699799
 10
2.7857142654
 20
33.750001178
 10
2.142857199
 20
33.750001178
 10
1.7142857326
 20
34.1785699799
  0
LWPOLYLINE
  5
39B
100
AcDbEntity
  8
0
100
AcDbPolyline
 62
7
  6
CONTINUOUS
 90
3
 70
0
 43
0.3500000087
 10
-33.9514997314
 20
45.8928592163
 10
-33.0943578644
 20
46.7500010834
 10
-33.0943578644
 20
43.7499981537
  0
LWPOLYLINE
  5
39C
100
AcDbEntity
  8
0
100
AcDbPolyline
 62
7
  6
CONTINUOUS
 90
5
 70
0
 43
0.3500000087
 10
-39.3086417297
 20
45.4642861511
 10
-38.951500351
 20
45.6785726837
 10
-38.951500351
 20
46.3214280182
 10
-39.3086417297
 20
46.7500010834
 10
-40.1657878601
 20
46.7500010834
  0
LINE
  5
39D
100
AcDbEntity
  8
0
100
AcDbLine
 62
7
  6
CONTINUOUS
 10
-41.9515001224
 20
-25.0
 11
-41.4373371384
 21
-25.0
  0
LINE
  5
39E
100
AcDbEntity
  8
0
100
AcDbLine
 62
7
  6
CONTINUOUS
 10
-41.9515001224
 20
-24.6
 11
-41.4373371384
 21
-24.6
  0
LINE
  5
39F
100
AcDbEntity
  8
0
100
AcDbLine
 62
253
  6
CONTINUOUS
 10
-42.2515001224
 20
-24.3
 11
-42.6515001224
 21
-24.3
  0
LINE
  5
3A0
100
AcDbEntity
  8
0
100
AcDbLine
 62
7
  6
CONTINUOUS
 10
-42.2515001224
 20
-24.0
 11
-42.6515001224
 21
-24.0
  0
LINE
  5
3A1
100
AcDbEntity
  8
RACCORDO
100
AcDbLine
 62
253
  6
CONTINUOUS
 10
-42.6515001224
 20
-23.8174311485
 11
-42.2515001224
 21
-23.8174311485
  0
LINE
  5
3A2
100
AcDbEntity
  8
ASSI
100
AcDbLine
 62
7
  6
CONTINUOUS
 10
-32.5015085056
 20
-23.25
 11
-43.501120828
 21
-23.25
  0
LINE
  5
3A3
100
AcDbEntity
  8
ASSI
100
AcDbLine
 62
253
  6
CONTINUOUS
 10
-32.4993184885
 20
-23.1767699642
 11
-42.9515001224
 21
-23.1767699642
  0
LINE
  5
3A4
100
AcDbEntity
  8
ASSI
100
AcDbLine
 62
253
  6
CONTINUOUS
 10
-42.9515001224
 20
-23.0
 11
-43.7512324276
 21
-23.0
  0
LINE
  5
3A5
100
AcDbEntity
  8
ASSI
100
AcDbLine
 62
253
  6
CONTINUOUS
 10
-48.2515001224
 20
-22.1234126973
 11
-48.0036817563
 21
-22.1234126973
  0
LINE
  5
3A6
100
AcDbEntity
  8
ASSI
100
AcDbLine
 62
7
  6
CONTINUOUS
 10
-42.9515001224
 20
-22.4615988572
 11
-48.005863224
 21
-22.373374621
  0
LINE
  5
3A7
100
AcDbEntity
  8
ASSI
100
AcDbLine
 62
253
  6
CONTINUOUS
 10
-42.9515001224
 20
-22.2115988557
 11
-48.0036817563
 21
-22.1234126973
  0
LWPOLYLINE
  5
3A8
100
AcDbEntity
  8
0
100
AcDbPolyline
 62
7
  6
CONTINUOUS
 90
3
 70
0
 43
0.3500000087
 10
-28.8443579773
 20
35.8928579773
 10
-27.9872139786
 20
36.7499998444
 10
-27.9872139786
 20
33.750001178
  0
LINE
  5
3A9
100
AcDbEntity
  8
ASSI
100
AcDbLine
 62
253
  6
CONTINUOUS
 10
-40.7515001224
 20
-21.6460688761
 11
-32.2471368547
 21
-21.6153274143
  0
LINE
  5
3AA
100
AcDbEntity
  8
ASSI
100
AcDbLine
 62
253
  6
CONTINUOUS
 10
-40.7515001224
 20
-21.4692989119
 11
-32.2471470754
 21
-21.4385574871
  0
LINE
  5
3AB
100
AcDbEntity
  8
ASSI
100
AcDbLine
 62
253
  6
CONTINUOUS
 10
-31.9497548156
 20
-19.9443090892
 11
-31.7515001224
 21
-19.9443090892
  0
LINE
  5
3AC
100
AcDbEntity
  8
ASSI
100
AcDbLine
 62
253
  6
CONTINUOUS
 10
-40.7515001224
 20
-21.2328957248
 11
-32.2471368547
 21
-21.3071121787
  0
LINE
  5
3AD
100
AcDbEntity
  8
ASSI
100
AcDbLine
 62
7
  6
CONTINUOUS
 10
-40.7515001224
 20
-20.982905244
 11
-31.9993184885
 21
-21.059284376
  0
LINE
  5
3AE
100
AcDbEntity
  8
0
100
AcDbLine
 62
7
  6
CONTINUOUS
 10
-36.7776681005
 20
-19.8462208151
 11
-35.7515001224
 21
-19.9
  0
LINE
  5
3AF
100
AcDbEntity
  8
0
100
AcDbLine
 62
253
  6
CONTINUOUS
 10
-35.7515001224
 20
-19.7537540906
 11
-36.7776681005
 21
-19.6999749057
  0
LINE
  5
3B0
100
AcDbEntity
  8
ASSI
100
AcDbLine
 62
7
  6
CONTINUOUS
 10
-47.7515001224
 20
-18.3
 11
-51.0951270488
 21
-17.7104283594
  0
LINE
  5
3B1
100
AcDbEntity
  8
ASSI
100
AcDbLine
 62
253
  6
CONTINUOUS
 10
-47.7515001224
 20
-18.0465280279
 11
-51.0538998737
 21
-17.4642258507
  0
LINE
  5
3B2
100
AcDbEntity
  8
CURVE
100
AcDbLine
 62
7
  6
CONTINUOUS
 10
-47.1506710843
 20
16.3782767437
 11
-46.7426606088
 21
16.7862872192
  0
LINE
  5
3B3
100
AcDbEntity
  8
CURVE
100
AcDbLine
 62
7
  6
CONTINUOUS
 10
-47.1508063586
 20
15.9830102001
 11
-46.428981204
 21
16.7048353547
  0
LINE
  5
3B4
100
AcDbEntity
  8
CURVE
100
AcDbLine
 62
7
  6
CONTINUOUS
 10
-47.1500442721
 20
15.5886410173
 11
-46.8555806273
 21
15.883104662
  0
LINE
  5
3B5
100
AcDbEntity
  8
CURVE
100
AcDbLine
 62
7
  6
CONTINUOUS
 10
-46.6368210999
 20
16.1018641894
 11
-46.1153017993
 21
16.6233834901
  0
LINE
  5
3B6
100
AcDbEntity
  8
CURVE
100
AcDbLine
 62
7
  6
CONTINUOUS
 10
-47.0220264926
 20
15.3215275274
 11
-46.6046525536
 21
15.7389014664
  0
LINE
  5
3B7
100
AcDbEntity
  8
CURVE
100
AcDbLine
 62
7
  6
CONTINUOUS
 10
-46.3677046725
 20
15.9758493475
 11
-45.8016223945
 21
16.5419316255
  0
LINE
  5
3B8
100
AcDbEntity
  8
CURVE
100
AcDbLine
 62
7
  6
CONTINUOUS
 10
-46.7419167772
 20
15.2065059735
 11
-46.4850416556
 21
15.4633810951
  0
LINE
  5
3B9
100
AcDbEntity
  8
CURVE
100
AcDbLine
 62
7
  6
CONTINUOUS
 10
-46.248093905
 20
15.7003288457
 11
-46.0827705956
 21
15.8656521551
  0
LINE
  5
3BA
100
AcDbEntity
  8
CURVE
100
AcDbLine
 62
7
  6
CONTINUOUS
 10
-46.0094626644
 20
15.9389600863
 11
-45.4879429897
 21
16.460479761
  0
LINE
  5
3BB
100
AcDbEntity
  8
CURVE
100
AcDbLine
 62
7
  6
CONTINUOUS
 10
-47.1506189263
 20
14.4026725551
 11
-46.666321408
 21
14.8869700734
  0
LINE
  5
3BC
100
AcDbEntity
  8
CURVE
100
AcDbLine
 62
7
  6
CONTINUOUS
 10
-46.4282377705
 20
15.1250537109
 11
-46.3654307575
 21
15.1878607239
  0
LINE
  5
3BD
100
AcDbEntity
  8
CURVE
100
AcDbLine
 62
7
  6
CONTINUOUS
 10
-46.1284831375
 20
15.4248083439
 11
-45.9313698696
 21
15.6219216117
  0
LINE
  5
3BE
100
AcDbEntity
  8
CURVE
100
AcDbLine
 62
7
  6
CONTINUOUS
 10
-45.6957834058
 20
15.8575080756
 11
-45.174263585
 21
16.3790278964
  0
LINE
  5
3BF
100
AcDbEntity
  8
CURVE
100
AcDbLine
 62
7
  6
CONTINUOUS
 10
-48.0304358293
 20
13.1277243827
 11
-47.8365179044
 21
13.3216423076
  0
LINE
  5
3C0
100
AcDbEntity
  8
CURVE
100
AcDbLine
 62
7
  6
CONTINUOUS
 10
-47.1506190593
 20
14.0075411528
 11
-46.9453159246
 21
14.2128442875
  0
LINE
  5
3C1
100
AcDbEntity
  8
CURVE
100
AcDbLine
 62
7
  6
CONTINUOUS
 10
-46.8527775223
 20
14.3053826897
 11
-46.3526421208
 21
14.8055180912
  0
LINE
  5
3C2
100
AcDbEntity
  8
CURVE
100
AcDbLine
 62
7
  6
CONTINUOUS
 10
-46.00887237
 20
15.149287842
 11
-45.6155601621
 21
15.5426000499
  0
LINE
  5
3C3
100
AcDbEntity
  8
CURVE
100
AcDbLine
 62
7
  6
CONTINUOUS
 10
-45.3821041472
 20
15.7760560649
 11
-45.1515001224
 21
16.0066600896
  0
LINE
  5
3C4
100
AcDbEntity
  8
CURVE
100
AcDbLine
 62
253
  6
CONTINUOUS
 10
-43.2942604564
 20
16.6142854691
 11
-43.0371274058
 21
16.7428572655
  0
LINE
  5
3C5
100
AcDbEntity
  8
0
100
AcDbLine
 62
253
  6
CONTINUOUS
 10
-36.7776681005
 20
-18.4669314929
 11
-35.7515001224
 21
-18.4169891609
  0
LINE
  5
3C6
100
AcDbEntity
  8
0
100
AcDbLine
 62
253
  6
CONTINUOUS
 10
-35.7515001647
 20
-18.0622282529
 11
-36.8124347941
 21
-18.1138626349
  0
LINE
  5
3C7
100
AcDbEntity
  8
ASSI
100
AcDbLine
 62
7
  6
CONTINUOUS
 10
-40.7515001224
 20
-19.4728483595
 11
-42.9515001224
 21
-19.5191991091
  0
LINE
  5
3C8
100
AcDbEntity
  8
ASSI
100
AcDbLine
 62
7
  6
CONTINUOUS
 10
-48.2515001224
 20
-18.8
 11
-47.7515001224
 21
-18.8
  0
LINE
  5
3C9
100
AcDbEntity
  8
0
100
AcDbLine
 62
253
  6
CONTINUOUS
 10
-37.2515001224
 20
-18.1138626349
 11
-36.8124347941
 21
-18.1138626349
  0
LINE
  5
3CA
100
AcDbEntity
  8
0
100
AcDbLine
 62
253
  6
CONTINUOUS
 10
-38.9515001224
 20
-17.8831922438
 11
-38.0386572342
 21
-17.8831922438
  0
LINE
  5
3CB
100
AcDbEntity
  8
ASSI
100
AcDbLine
 62
7
  6
CONTINUOUS
 10
-40.7515001224
 20
-18.9401435918
 11
-37.2515001224
 21
-18.9706876291
  0
LINE
  5
3CC
100
AcDbEntity
  8
ASSI
100
AcDbLine
 62
7
  6
CONTINUOUS
 10
-35.7515001224
 20
-18.9837779308
 11
-31.9497548152
 21
-19.0169552595
  0
LINE
  5
3CD
100
AcDbEntity
  8
CURVE
100
AcDbLine
 62
253
  6
CONTINUOUS
 10
-46.0631666915
 20
-15.590021
 11
-48.0589356973
 21
-15.02041
  0
LINE
  5
3CE
100
AcDbEntity
  8
CURVE
100
AcDbLine
 62
7
  6
CONTINUOUS
 10
-47.9108250467
 20
12.852203896
 11
-47.5228385535
 21
13.2401903892
  0
LINE
  5
3CF
100
AcDbEntity
  8
CURVE
100
AcDbLine
 62
7
  6
CONTINUOUS
 10
-47.122466047
 20
13.6405628957
 11
-46.7795085511
 21
13.9835203916
  0
LINE
  5
3D0
100
AcDbEntity
  8
CURVE
100
AcDbLine
 62
7
  6
CONTINUOUS
 10
-46.5390979786
 20
14.2239309641
 11
-46.1262090093
 21
14.6368199334
  0
LINE
  5
3D1
100
AcDbEntity
  8
CURVE
100
AcDbLine
 62
7
  6
CONTINUOUS
 10
-45.8008788216
 20
14.9621501211
 11
-45.1515001224
 21
15.6115288203
  0
LINE
  5
3D2
100
AcDbEntity
  8
CURVE
100
AcDbLine
 62
7
  6
CONTINUOUS
 10
-47.6906222307
 20
12.6772754427
 11
-47.2091592026
 21
13.1587384708
  0
LINE
  5
3D3
100
AcDbEntity
  8
CURVE
100
AcDbLine
 62
7
  6
CONTINUOUS
 10
-46.9509931942
 20
13.4169044791
 11
-46.4658292676
 21
13.9020684058
  0
LINE
  5
3D4
100
AcDbEntity
  8
CURVE
100
AcDbLine
 62
7
  6
CONTINUOUS
 10
-46.2254184349
 20
14.1424792385
 11
-46.0065980793
 21
14.3612995941
  0
LINE
  5
3D5
100
AcDbEntity
  8
CURVE
100
AcDbLine
 62
7
  6
CONTINUOUS
 10
-45.7696506968
 20
14.5982469766
 11
-45.7252830394
 21
14.642614634
  0
LINE
  5
3D6
100
AcDbEntity
  8
CURVE
100
AcDbLine
 62
7
  6
CONTINUOUS
 10
-45.4804365441
 20
14.8874611293
 11
-45.1515001224
 21
15.216397551
  0
LINE
  5
3D7
100
AcDbEntity
  8
CURVE
100
AcDbLine
 62
7
  6
CONTINUOUS
 10
-47.3798349158
 20
12.5929314883
 11
-46.8954798517
 21
13.0772865523
  0
LINE
  5
3D8
100
AcDbEntity
  8
CURVE
100
AcDbLine
 62
7
  6
CONTINUOUS
 10
-46.6373137724
 20
13.3354526316
 11
-46.152149984
 21
13.82061642
  0
LINE
  5
3D9
100
AcDbEntity
  8
CURVE
100
AcDbLine
 62
7
  6
CONTINUOUS
 10
-46.0719620859
 20
13.9008043182
 11
-45.8869871493
 21
14.0857792548
  0
LINE
  5
3DA
100
AcDbEntity
  8
CURVE
100
AcDbLine
 62
7
  6
CONTINUOUS
 10
-45.6500397532
 20
14.3227266509
 11
-45.4116034982
 21
14.5611629058
  0
LINE
  5
3DB
100
AcDbEntity
  8
CURVE
100
AcDbLine
 62
253
  6
CONTINUOUS
 10
-43.551393507
 20
16.3571427345
 11
-43.2942604564
 21
16.6142854691
  0
LINE
  5
3DC
100
AcDbEntity
  8
CURVE
100
AcDbLine
 62
7
  6
CONTINUOUS
 10
-48.1301801648
 20
11.44745497
 11
-48.0980974752
 21
11.4795376595
  0
LINE
  5
3DD
100
AcDbEntity
  8
CURVE
100
AcDbLine
 62
7
  6
CONTINUOUS
 10
-47.1506188731
 20
12.4270162616
 11
-46.5818005008
 21
12.9958346339
  0
LINE
  5
3DE
100
AcDbEntity
  8
CURVE
100
AcDbLine
 62
7
  6
CONTINUOUS
 10
-46.3236343506
 20
13.2540007841
 11
-45.7673762193
 21
13.8102589154
  0
LINE
  5
3DF
100
AcDbEntity
  8
CURVE
100
AcDbLine
 62
7
  6
CONTINUOUS
 10
-45.5304288095
 20
14.0472063252
 11
-45.1883115637
 21
14.3893235711
  0
LINE
  5
3E0
100
AcDbEntity
  8
CURVE
100
AcDbLine
 62
7
  6
CONTINUOUS
 10
-48.0105694343
 20
11.1719344311
 11
-47.7844181996
 21
11.3980856658
  0
LINE
  5
3E1
100
AcDbEntity
  8
CURVE
100
AcDbLine
 62
7
  6
CONTINUOUS
 10
-47.1506188731
 20
12.0318849923
 11
-46.9383662923
 21
12.2441375731
  0
LINE
  5
3E2
100
AcDbEntity
  8
CURVE
100
AcDbLine
 62
7
  6
CONTINUOUS
 10
-46.7637682432
 20
12.4187356222
 11
-46.26812115
 21
12.9143827155
  0
LINE
  5
3E3
100
AcDbEntity
  8
CURVE
100
AcDbLine
 62
7
  6
CONTINUOUS
 10
-46.0099549288
 20
13.1725489366
 11
-45.4563378251
 21
13.7261660403
  0
LINE
  5
3E4
100
AcDbEntity
  8
CURVE
100
AcDbLine
 62
7
  6
CONTINUOUS
 10
-45.3997733517
 20
13.7827305137
 11
-45.1515001224
 21
14.031003743
  0
LINE
  5
3E5
100
AcDbEntity
  8
CURVE
100
AcDbLine
 62
7
  6
CONTINUOUS
 10
-47.8909587039
 20
10.8964138922
 11
-47.5225353028
 21
11.2648372933
  0
LINE
  5
3E6
100
AcDbEntity
  8
CURVE
100
AcDbLine
 62
7
  6
CONTINUOUS
 10
-47.0972876887
 20
11.6900849074
 11
-46.7056893043
 21
12.0816832917
  0
LINE
  5
3E7
100
AcDbEntity
  8
CURVE
100
AcDbLine
 62
7
  6
CONTINUOUS
 10
-46.4500889078
 20
12.3372836883
 11
-45.9544417991
 21
12.832930797
  0
LINE
  5
3E8
100
AcDbEntity
  8
CURVE
100
AcDbLine
 62
7
  6
CONTINUOUS
 10
-45.696275507
 20
13.0910970891
 11
-45.1515001224
 21
13.6358724737
  0
LINE
  5
3E9
100
AcDbEntity
  8
CURVE
100
AcDbLine
 62
7
  6
CONTINUOUS
 10
-47.6498829465
 20
10.7423583803
 11
-47.4029245062
 21
10.9893168206
  0
LINE
  5
3EA
100
AcDbEntity
  8
CURVE
100
AcDbLine
 62
7
  6
CONTINUOUS
 10
-46.8751162308
 20
11.517125096
 11
-46.3920100743
 21
12.0002312525
  0
LINE
  5
3EB
100
AcDbEntity
  8
CURVE
100
AcDbLine
 62
7
  6
CONTINUOUS
 10
-46.1364095724
 20
12.2558317544
 11
-45.6407624482
 21
12.7514788786
  0
LINE
  5
3EC
100
AcDbEntity
  8
0
100
AcDbLine
 62
253
  6
CONTINUOUS
 10
-37.6470203229
 20
18.6768353644
 11
-37.2515001224
 21
18.9800708808
  0
LINE
  5
3ED
100
AcDbEntity
  8
CURVE
100
AcDbLine
 62
253
  6
CONTINUOUS
 10
-42.0085951229
 20
15.9714282036
 11
-42.2657282003
 21
15.8428572655
  0
LINE
  5
3EE
100
AcDbEntity
  8
ASSI
100
AcDbLine
 62
253
  6
CONTINUOUS
 10
-51.9207037621
 20
-16.765067253
 11
-51.6730799821
 21
-16.7552054488
  0
LINE
  5
3EF
100
AcDbEntity
  8
0
100
AcDbLine
 62
7
  6
CONTINUOUS
 10
-27.9410302734
 20
-15.7601106157
 11
-29.3698545429
 21
-15.8100062586
  0
LINE
  5
3F0
100
AcDbEntity
  8
0
100
AcDbLine
 62
7
  6
CONTINUOUS
 10
-34.35150012
 20
-17.4749999999
 11
-32.0860577521
 21
-17.4156773038
  0
LINE
  5
3F1
100
AcDbEntity
  8
0
100
AcDbLine
 62
253
  6
CONTINUOUS
 10
-32.0947817533
 20
-16.4160405963
 11
-34.3515000157
 21
-16.4752225241
  0
LINE
  5
3F2
100
AcDbEntity
  8
0
100
AcDbLine
 62
7
  6
CONTINUOUS
 10
-35.7515000469
 20
-17.505548107
 11
-34.35150012
 21
-17.4749999999
  0
LINE
  5
3F3
100
AcDbEntity
  8
0
100
AcDbLine
 62
253
  6
CONTINUOUS
 10
-34.3515012766
 20
-16.4752225245
 11
-35.7515002751
 21
-16.5057861063
  0
LINE
  5
3F4
100
AcDbEntity
  8
CURVE
100
AcDbLine
 62
253
  6
CONTINUOUS
 10
-43.0514011243
 20
-16.8
 11
-41.7515001224
 21
-16.8
  0
LINE
  5
3F5
100
AcDbEntity
  8
0
100
AcDbLine
 62
253
  6
CONTINUOUS
 10
-38.9515001224
 20
-16.2279122492
 11
-38.0733694658
 21
-16.2279122492
  0
LINE
  5
3F6
100
AcDbEntity
  8
0
100
AcDbLine
 62
7
  6
CONTINUOUS
 10
-38.0733694658
 20
-17.2204584009
 11
-37.2515005995
 21
-17.3213712087
  0
LINE
  5
3F7
100
AcDbEntity
  8
0
100
AcDbLine
 62
253
  6
CONTINUOUS
 10
-36.8124347941
 20
-16.3827355592
 11
-38.0733694658
 21
-16.2279122492
  0
LINE
  5
3F8
100
AcDbEntity
  8
CURVE
100
AcDbLine
 62
253
  6
CONTINUOUS
 10
-48.0589356973
 20
-14.415552
 11
-45.1595035129
 21
-15.347617
  0
LINE
  5
3F9
100
AcDbEntity
  8
CURVE
100
AcDbLine
 62
253
  6
CONTINUOUS
 10
-43.0514011243
 20
-14.81011
 11
-41.7515001224
 21
-15.380443
  0
LINE
  5
3FA
100
AcDbEntity
  8
CURVE
100
AcDbLine
 62
253
  6
CONTINUOUS
 10
-43.0514011243
 20
-15.554264
 11
-41.7515001224
 21
-16.177131
  0
LINE
  5
3FB
100
AcDbEntity
  8
0
100
AcDbLine
 62
253
  6
CONTINUOUS
 10
-37.2638799654
 20
-18.9705795919
 11
-37.6470203455
 21
-18.6768353847
  0
LINE
  5
3FC
100
AcDbEntity
  8
CURVE
100
AcDbLine
 62
7
  6
CONTINUOUS
 10
-47.3370940936
 20
10.6600159638
 11
-47.2833137096
 21
10.7137963479
  0
LINE
  5
3FD
100
AcDbEntity
  8
CURVE
100
AcDbLine
 62
7
  6
CONTINUOUS
 10
-47.0334640795
 20
10.9636459779
 11
-46.8433804133
 21
11.1537296441
  0
LINE
  5
3FE
100
AcDbEntity
  8
CURVE
100
AcDbLine
 62
7
  6
CONTINUOUS
 10
-46.5614369685
 20
11.4356730889
 11
-46.0783308442
 21
11.9187792133
  0
LINE
  5
3FF
100
AcDbEntity
  8
CURVE
100
AcDbLine
 62
7
  6
CONTINUOUS
 10
-45.822730237
 20
12.1743798205
 11
-45.3270830973
 21
12.6700269602
  0
LINE
  5
400
100
AcDbEntity
  8
CURVE
100
AcDbLine
 62
253
  6
CONTINUOUS
 10
-41.7514620455
 20
16.2285717964
 11
-42.0085951229
 21
15.9714282036
  0
LINE
  5
401
100
AcDbEntity
  8
CURVE
100
AcDbLine
 62
7
  6
CONTINUOUS
 10
-46.9138532491
 20
10.688125539
 11
-46.5297009967
 21
11.0722777914
  0
LINE
  5
402
100
AcDbEntity
  8
CURVE
100
AcDbLine
 62
7
  6
CONTINUOUS
 10
-46.2477577062
 20
11.3542210819
 11
-45.7646516141
 21
11.837327174
  0
LINE
  5
403
100
AcDbEntity
  8
CURVE
100
AcDbLine
 62
7
  6
CONTINUOUS
 10
-45.5090509015
 20
12.0929278866
 11
-45.1515001224
 21
12.4504786657
  0
LINE
  5
404
100
AcDbEntity
  8
CURVE
100
AcDbLine
 62
7
  6
CONTINUOUS
 10
-46.7180974076
 20
10.4887501112
 11
-46.2160215802
 21
10.9908259386
  0
LINE
  5
405
100
AcDbEntity
  8
CURVE
100
AcDbLine
 62
7
  6
CONTINUOUS
 10
-45.9340784439
 20
11.2727690748
 11
-45.1515001224
 21
12.0553473964
  0
LINE
  5
406
100
AcDbEntity
  8
CURVE
100
AcDbLine
 62
7
  6
CONTINUOUS
 10
-46.4053084939
 20
10.4064077556
 11
-45.9023421636
 21
10.9093740858
  0
LINE
  5
407
100
AcDbEntity
  8
CURVE
100
AcDbLine
 62
7
  6
CONTINUOUS
 10
-45.6203991816
 20
11.1913170678
 11
-45.1515001224
 21
11.660216127
  0
LINE
  5
408
100
AcDbEntity
  8
CURVE
100
AcDbLine
 62
7
  6
CONTINUOUS
 10
-46.0925195801
 20
10.3240654
 11
-45.5886627471
 21
10.827922233
  0
LINE
  5
409
100
AcDbEntity
  8
CURVE
100
AcDbLine
 62
7
  6
CONTINUOUS
 10
-45.7797306663
 20
10.2417230444
 11
-45.2749833305
 21
10.7464703802
  0
LINE
  5
40A
100
AcDbEntity
  8
CURVE
100
AcDbLine
 62
253
  6
CONTINUOUS
 10
-42.5228612509
 20
13.2714286327
 11
-42.7799943552
 21
13.0142858982
  0
LINE
  5
40B
100
AcDbEntity
  8
CURVE
100
AcDbLine
 62
7
  6
CONTINUOUS
 10
-45.4669417526
 20
10.1593806889
 11
-45.1515001224
 21
10.474822319
  0
LINE
  5
40C
100
AcDbEntity
  8
CURVE
100
AcDbLine
 62
253
  6
CONTINUOUS
 10
-42.0514506313
 20
14.1714286327
 11
-41.9657396011
 21
14.2142856121
  0
LINE
  5
40D
100
AcDbEntity
  8
CURVE
100
AcDbLine
 62
253
  6
CONTINUOUS
 10
-41.8371730691
 20
14.0857142448
 11
-41.9228840926
 21
14.0428572655
  0
LINE
  5
40E
100
AcDbEntity
  8
CURVE
100
AcDbLine
 62
253
  6
CONTINUOUS
 10
-41.7515001224
 20
-15.554264
 11
-43.0514011243
 21
-15.554264
  0
LINE
  5
40F
100
AcDbEntity
  8
0
100
AcDbLine
 62
253
  6
CONTINUOUS
 10
-30.6339680227
 20
-14.9165339913
 11
-29.6515001224
 21
-14.9165339913
  0
LINE
  5
410
100
AcDbEntity
  8
CURVE
100
AcDbLine
 62
253
  6
CONTINUOUS
 10
-48.059109684
 20
-14.190935
 11
-45.1595035129
 21
-14.190935
  0
LINE
  5
411
100
AcDbEntity
  8
CURVE
100
AcDbLine
 62
253
  6
CONTINUOUS
 10
-43.0514011243
 20
-14.069593
 11
-41.7515001224
 21
-14.069593
  0
LINE
  5
412
100
AcDbEntity
  8
0
100
AcDbLine
 62
253
  6
CONTINUOUS
 10
-29.6515000447
 20
-14.0
 11
-27.6515001224
 21
-14.0
  0
LINE
  5
413
100
AcDbEntity
  8
CURVE
100
AcDbLine
 62
253
  6
CONTINUOUS
 10
-45.1595035129
 20
-13.259827
 11
-48.0589356973
 21
-12.998005
  0
LINE
  5
414
100
AcDbEntity
  8
CURVE
100
AcDbLine
 62
253
  6
CONTINUOUS
 10
-46.4491622948
 20
-11.794355
 11
-48.0589356973
 21
-11.189084
  0
LINE
  5
415
100
AcDbEntity
  8
CURVE
100
AcDbLine
 62
253
  6
CONTINUOUS
 10
-47.0448859255
 20
-11.035548
 11
-45.1595035129
 21
-11.755216
  0
LINE
  5
416
100
AcDbEntity
  8
ASSI
100
AcDbLine
 62
7
  6
CONTINUOUS
 10
-48.2515001224
 20
-22.1234126973
 11
-48.2515001224
 21
-18.8
  0
LINE
  5
417
100
AcDbEntity
  8
ASSI
100
AcDbLine
 62
7
  6
CONTINUOUS
 10
-48.2515001224
 20
18.8
 11
-48.2515001224
 21
22.1234126973
  0
LINE
  5
418
100
AcDbEntity
  8
CURVE
100
AcDbLine
 62
253
  6
CONTINUOUS
 10
-48.059109684
 20
-13.585664
 11
-48.059109684
 21
-14.190935
  0
LINE
  5
419
100
AcDbEntity
  8
CURVE
100
AcDbLine
 62
253
  6
CONTINUOUS
 10
-48.0589356973
 20
-16.80026
 11
-48.0589356973
 21
-16.142748
  0
LINE
  5
41A
100
AcDbEntity
  8
CURVE
100
AcDbLine
 62
253
  6
CONTINUOUS
 10
-48.0589356973
 20
-15.02041
 11
-48.0589356973
 21
-14.415552
  0
LINE
  5
41B
100
AcDbEntity
  8
CURVE
100
AcDbLine
 62
253
  6
CONTINUOUS
 10
-48.0589356973
 20
-12.998005
 11
-48.0589356973
 21
-12.393234
  0
LINE
  5
41C
100
AcDbEntity
  8
CURVE
100
AcDbLine
 62
253
  6
CONTINUOUS
 10
-48.0589356973
 20
-11.189084
 11
-48.0589356973
 21
-10.590227
  0
LINE
  5
41D
100
AcDbEntity
  8
CURVE
100
AcDbLine
 62
253
  6
CONTINUOUS
 10
-48.0589356973
 20
-9.314517
 11
-48.0589356973
 21
-8.72899
  0
LINE
  5
41E
100
AcDbEntity
  8
ASSI
100
AcDbLine
 62
253
  6
CONTINUOUS
 10
-48.0036817563
 20
-22.1234126973
 11
-48.0036817563
 21
-18.8
  0
LINE
  5
41F
100
AcDbEntity
  8
ASSI
100
AcDbLine
 62
253
  6
CONTINUOUS
 10
-48.0036817563
 20
18.8
 11
-48.0036817563
 21
22.1234126973
  0
LINE
  5
420
100
AcDbEntity
  8
ASSI
100
AcDbLine
 62
7
  6
CONTINUOUS
 10
-47.7515001224
 20
18.8
 11
-47.7515001224
 21
18.0465280279
  0
LINE
  5
421
100
AcDbEntity
  8
ASSI
100
AcDbLine
 62
7
  6
CONTINUOUS
 10
-47.7515001224
 20
-18.0465280279
 11
-47.7515001224
 21
-18.8
  0
LINE
  5
422
100
AcDbEntity
  8
0
100
AcDbLine
 62
253
  6
CONTINUOUS
 10
-41.3446320401
 20
24.5853169549
 11
-41.2210252424
 21
24.9657395614
  0
LWPOLYLINE
  5
423
100
AcDbEntity
  8
0
100
AcDbPolyline
 62
7
  6
CONTINUOUS
 90
3
 70
0
 43
0.3500000087
 10
-34.951500708
 20
44.0357163727
 10
-35.0229281311
 20
43.8214298401
 10
-35.1657851089
 20
43.5357158844
  0
LINE
  5
424
100
AcDbEntity
  8
CURVE
100
AcDbLine
 62
7
  6
CONTINUOUS
 10
-45.1541528388
 20
10.0770383333
 11
-45.1515001224
 21
10.0796910497
  0
LINE
  5
425
100
AcDbEntity
  8
CURVE
100
AcDbLine
 62
253
  6
CONTINUOUS
 10
-42.0085951229
 20
12.3714286327
 11
-41.7514620455
 21
12.6285713673
  0
LINE
  5
426
100
AcDbEntity
  8
CURVE
100
AcDbLine
 62
253
  6
CONTINUOUS
 10
-42.5228612509
 20
11.8571427345
 11
-42.7799943552
 21
11.6
  0
LINE
  5
427
100
AcDbEntity
  8
CURVE
100
AcDbLine
 62
253
  6
CONTINUOUS
 10
-43.551393507
 20
10.0571429491
 11
-43.2942604564
 21
10.3142856836
  0
LINE
  5
428
100
AcDbEntity
  8
CURVE
100
AcDbLine
 62
253
  6
CONTINUOUS
 10
-42.0085951229
 20
10.9571427345
 11
-41.7514620455
 21
11.2142858982
  0
LINE
  5
429
100
AcDbEntity
  8
CURVE
100
AcDbLine
 62
253
  6
CONTINUOUS
 10
-43.2942604564
 20
10.3142856836
 11
-43.0371274058
 21
10.4428570509
  0
LINE
  5
42A
100
AcDbEntity
  8
CURVE
100
AcDbLine
 62
253
  6
CONTINUOUS
 10
-48.0589356973
 20
-16.142748
 11
-46.0631666915
 21
-15.590021
  0
LINE
  5
42B
100
AcDbEntity
  8
CURVE
100
AcDbLine
 62
253
  6
CONTINUOUS
 10
-45.1595035129
 20
-13.585664
 11
-48.059109684
 21
-13.585664
  0
LINE
  5
42C
100
AcDbEntity
  8
CURVE
100
AcDbLine
 62
253
  6
CONTINUOUS
 10
-43.0514011243
 20
-12.753245
 11
-41.7515001224
 21
-12.753245
  0
LINE
  5
42D
100
AcDbEntity
  8
CURVE
100
AcDbLine
 62
253
  6
CONTINUOUS
 10
-47.0527783245
 20
-12.550162
 11
-45.1595035129
 21
-12.680779
  0
LINE
  5
42E
100
AcDbEntity
  8
CURVE
100
AcDbLine
 62
253
  6
CONTINUOUS
 10
-47.2622453718
 20
-9.033126
 11
-46.1862293193
 21
-9.3345
  0
LINE
  5
42F
100
AcDbEntity
  8
CURVE
100
AcDbLine
 62
253
  6
CONTINUOUS
 10
-45.7383334302
 20
-9.458312
 11
-45.1595035129
 21
-9.625329
  0
LINE
  5
430
100
AcDbEntity
  8
CURVE
100
AcDbLine
 62
253
  6
CONTINUOUS
 10
-45.1595035129
 20
-10.224033
 11
-48.0589356973
 21
-9.314517
  0
LINE
  5
431
100
AcDbEntity
  8
0
100
AcDbLine
 62
253
  6
CONTINUOUS
 10
-41.3446320401
 20
-24.5853169549
 11
-41.2210252424
 21
-24.9657395614
  0
LINE
  5
432
100
AcDbEntity
  8
CURVE
100
AcDbLine
 62
253
  6
CONTINUOUS
 10
-47.1506188731
 20
12.024795
 11
-47.1506188731
 21
12.530725
  0
LINE
  5
433
100
AcDbEntity
  8
CURVE
100
AcDbLine
 62
253
  6
CONTINUOUS
 10
-47.1506188731
 20
13.775003
 11
-47.1506188731
 21
14.560842
  0
LINE
  5
434
100
AcDbEntity
  8
CURVE
100
AcDbLine
 62
253
  6
CONTINUOUS
 10
-47.1506188731
 20
15.607566
 11
-47.1506188731
 21
16.530836
  0
LINE
  5
435
100
AcDbEntity
  8
CURVE
100
AcDbLine
 62
253
  6
CONTINUOUS
 10
-46.7690378348
 20
-6.7328946758
 11
-46.7690378348
 21
-7.0788012718
  0
LINE
  5
436
100
AcDbEntity
  8
CURVE
100
AcDbLine
 62
253
  6
CONTINUOUS
 10
-46.2941808599
 20
-7.0587313832
 11
-46.2941808599
 21
-6.7341993273
  0
LINE
  5
437
100
AcDbEntity
  8
CURVE
100
AcDbLine
 62
253
  6
CONTINUOUS
 10
-46.1862293193
 20
-9.3345
 11
-46.1862293193
 21
-8.754996
  0
LINE
  5
438
100
AcDbEntity
  8
CURVE
100
AcDbLine
 62
253
  6
CONTINUOUS
 10
-45.7383334302
 20
-8.634033
 11
-45.7383334302
 21
-9.458312
  0
LINE
  5
439
100
AcDbEntity
  8
CURVE
100
AcDbLine
 62
253
  6
CONTINUOUS
 10
-41.7514620455
 20
9.9285713673
 11
-42.0085951229
 21
9.6714286327
  0
LINE
  5
43A
100
AcDbEntity
  8
CURVE
100
AcDbLine
 62
253
  6
CONTINUOUS
 10
-42.0085951229
 20
9.6714286327
 11
-42.2657282003
 21
9.5428570509
  0
LINE
  5
43B
100
AcDbEntity
  8
CURVE
100
AcDbLine
 62
253
  6
CONTINUOUS
 10
-45.1595035129
 20
-10.911193
 11
-47.0448859255
 21
-11.035548
  0
LINE
  5
43C
100
AcDbEntity
  8
CURVE
100
AcDbLine
 62
253
  6
CONTINUOUS
 10
-43.0514011243
 20
-10.945272
 11
-41.7515001224
 21
-10.945272
  0
LINE
  5
43D
100
AcDbEntity
  8
CURVE
100
AcDbLine
 62
253
  6
CONTINUOUS
 10
-43.0514011243
 20
-10.556944
 11
-41.7515001224
 21
-10.556944
  0
LINE
  5
43E
100
AcDbEntity
  8
CURVE
100
AcDbLine
 62
253
  6
CONTINUOUS
 10
-45.1595035129
 20
-7.839304
 11
-45.1595035129
 21
-8.477235
  0
LINE
  5
43F
100
AcDbEntity
  8
CURVE
100
AcDbLine
 62
253
  6
CONTINUOUS
 10
-45.1595035129
 20
-9.625329
 11
-45.1595035129
 21
-10.224033
  0
LINE
  5
440
100
AcDbEntity
  8
CURVE
100
AcDbLine
 62
253
  6
CONTINUOUS
 10
-45.1595035129
 20
-10.319077
 11
-45.1595035129
 21
-10.911193
  0
LINE
  5
441
100
AcDbEntity
  8
CURVE
100
AcDbLine
 62
253
  6
CONTINUOUS
 10
-45.1595035129
 20
-11.755216
 11
-45.1595035129
 21
-11.840105
  0
LINE
  5
442
100
AcDbEntity
  8
CURVE
100
AcDbLine
 62
253
  6
CONTINUOUS
 10
-45.1595035129
 20
-12.680779
 11
-45.1595035129
 21
-13.259827
  0
LINE
  5
443
100
AcDbEntity
  8
CURVE
100
AcDbLine
 62
253
  6
CONTINUOUS
 10
-45.1595035129
 20
-15.347617
 11
-45.1595035129
 21
-15.881013
  0
LINE
  5
444
100
AcDbEntity
  8
CURVE
100
AcDbLine
 62
253
  6
CONTINUOUS
 10
-45.1595035129
 20
-14.190935
 11
-45.1595035129
 21
-13.585664
  0
LINE
  5
445
100
AcDbEntity
  8
CURVE
100
AcDbLine
 62
253
  6
CONTINUOUS
 10
-45.1595031606
 20
-7.6615673444
 11
-45.1595031606
 21
-7.0587313832
  0
LINE
  5
446
100
AcDbEntity
  8
CURVE
100
AcDbLine
 62
253
  6
CONTINUOUS
 10
-45.1595031606
 20
-6.1318417383
 11
-45.1595031606
 21
-5.5496410148
  0
LINE
  5
447
100
AcDbEntity
  8
CURVE
100
AcDbLine
 62
253
  6
CONTINUOUS
 10
-45.1515001224
 20
16.373117
 11
-45.1515001224
 21
15.20717
  0
LINE
  5
448
100
AcDbEntity
  8
CURVE
100
AcDbLine
 62
253
  6
CONTINUOUS
 10
-45.1515001224
 20
14.301746
 11
-45.1515001224
 21
13.307888
  0
LINE
  5
449
100
AcDbEntity
  8
CURVE
100
AcDbLine
 62
253
  6
CONTINUOUS
 10
-45.1515001224
 20
10.07634
 11
-45.1515001224
 21
10.714406
  0
LINE
  5
44A
100
AcDbEntity
  8
CURVE
100
AcDbLine
 62
253
  6
CONTINUOUS
 10
-45.1515001224
 20
11.456235
 11
-45.1515001224
 21
12.624434
  0
LINE
  5
44B
100
AcDbEntity
  8
ASSI
100
AcDbLine
 62
7
  6
CONTINUOUS
 10
-43.7512324276
 20
23.0
 11
-43.7512324276
 21
22.4476394778
  0
LINE
  5
44C
100
AcDbEntity
  8
ASSI
100
AcDbLine
 62
7
  6
CONTINUOUS
 10
-43.7512324276
 20
-22.4476394778
 11
-43.7512324276
 21
-23.0
  0
LINE
  5
44D
100
AcDbEntity
  8
CURVE
100
AcDbLine
 62
253
  6
CONTINUOUS
 10
-48.0589356973
 20
-10.590227
 11
-45.1595035129
 21
-10.319077
  0
LINE
  5
44E
100
AcDbEntity
  8
0
100
AcDbLine
 62
7
  6
CONTINUOUS
 10
-25.4274592331
 20
-8.0000021971
 11
-26.0515001157
 21
-8.0545986999
  0
LINE
  5
44F
100
AcDbEntity
  8
0
100
AcDbLine
 62
7
  6
CONTINUOUS
 10
-29.9772459281
 20
-8.1588829294
 11
-25.4274366241
 21
-8.0000000874
  0
LINE
  5
450
100
AcDbEntity
  8
0
100
AcDbLine
 62
253
  6
CONTINUOUS
 10
-25.4273808471
 20
-7.7506693966
 11
-30.6339680226
 21
-7.9318963079
  0
LINE
  5
451
100
AcDbEntity
  8
CURVE
100
AcDbLine
 62
253
  6
CONTINUOUS
 10
-43.0514011243
 20
-9.524819
 11
-41.7515001224
 21
-9.524819
  0
LINE
  5
452
100
AcDbEntity
  8
CURVE
100
AcDbLine
 62
253
  6
CONTINUOUS
 10
-43.0514011243
 20
-8.631288
 11
-41.7515001224
 21
-8.631288
  0
LINE
  5
453
100
AcDbEntity
  8
CURVE
100
AcDbLine
 62
253
  6
CONTINUOUS
 10
-41.7515001224
 20
-7.827348
 11
-43.0514011243
 21
-7.827348
  0
LINE
  5
454
100
AcDbEntity
  8
CURVE
100
AcDbLine
 62
253
  6
CONTINUOUS
 10
-43.0514011243
 20
-6.660387
 11
-41.7515001224
 21
-7.230721
  0
LINE
  5
455
100
AcDbEntity
  8
CURVE
100
AcDbLine
 62
253
  6
CONTINUOUS
 10
-43.551393507
 20
8.1285714746
 11
-43.551393507
 21
9.0285713673
  0
LINE
  5
456
100
AcDbEntity
  8
CURVE
100
AcDbLine
 62
253
  6
CONTINUOUS
 10
-43.551393507
 20
9.9285713673
 11
-43.551393507
 21
10.0571429491
  0
LINE
  5
457
100
AcDbEntity
  8
CURVE
100
AcDbLine
 62
253
  6
CONTINUOUS
 10
-43.551393507
 20
16.2285717964
 11
-43.551393507
 21
16.3571427345
  0
LINE
  5
458
100
AcDbEntity
  8
CURVE
100
AcDbLine
 62
253
  6
CONTINUOUS
 10
-43.0514011243
 20
-11.806258
 11
-43.0514011243
 21
-12.753245
  0
LINE
  5
459
100
AcDbEntity
  8
CURVE
100
AcDbLine
 62
253
  6
CONTINUOUS
 10
-43.0514011243
 20
-13.639757
 11
-43.0514011243
 21
-14.069593
  0
LINE
  5
45A
100
AcDbEntity
  8
CURVE
100
AcDbLine
 62
253
  6
CONTINUOUS
 10
-43.0514011243
 20
-8.355145
 11
-43.0514011243
 21
-7.299553
  0
LINE
  5
45B
100
AcDbEntity
  8
ASSI
100
AcDbLine
 62
7
  6
CONTINUOUS
 10
-42.9515001224
 20
-19.5191991091
 11
-42.9515001224
 21
-23.25
  0
LINE
  5
45C
100
AcDbEntity
  8
ASSI
100
AcDbLine
 62
7
  6
CONTINUOUS
 10
-42.9515001224
 20
19.5191991091
 11
-42.9515001224
 21
23.25
  0
LINE
  5
45D
100
AcDbEntity
  8
CURVE
100
AcDbLine
 62
253
  6
CONTINUOUS
 10
-42.7799943552
 20
13.0142858982
 11
-42.7799943552
 21
12.4571430206
  0
LINE
  5
45E
100
AcDbEntity
  8
CURVE
100
AcDbLine
 62
253
  6
CONTINUOUS
 10
-42.7799943552
 20
11.6
 11
-42.7799943552
 21
11.0428571224
  0
LINE
  5
45F
100
AcDbEntity
  8
RACCORDO
100
AcDbLine
 62
7
  6
CONTINUOUS
 10
-42.6515001224
 20
-24.0
 11
-42.6515001224
 21
-23.25
  0
LINE
  5
460
100
AcDbEntity
  8
0
100
AcDbLine
 62
7
  6
CONTINUOUS
 10
-42.6515001224
 20
-24.0
 11
-42.6515001224
 21
-24.3
  0
LINE
  5
461
100
AcDbEntity
  8
RACCORDO
100
AcDbLine
 62
7
  6
CONTINUOUS
 10
-42.6515001224
 20
23.25
 11
-42.6515001224
 21
24.0
  0
LINE
  5
462
100
AcDbEntity
  8
0
100
AcDbLine
 62
7
  6
CONTINUOUS
 10
-42.6515001224
 20
24.0
 11
-42.6515001224
 21
24.3
  0
LINE
  5
463
100
AcDbEntity
  8
CURVE
100
AcDbLine
 62
253
  6
CONTINUOUS
 10
-42.4014506233
 20
-12.753245
 11
-42.4014506233
 21
-11.872654
  0
LINE
  5
464
100
AcDbEntity
  8
RACCORDO
100
AcDbLine
 62
7
  6
CONTINUOUS
 10
-42.2515001224
 20
-23.25
 11
-42.2515001224
 21
-24.0
  0
LINE
  5
465
100
AcDbEntity
  8
0
100
AcDbLine
 62
7
  6
CONTINUOUS
 10
-42.2515001224
 20
-24.0
 11
-42.2515001224
 21
-24.3
  0
LINE
  5
466
100
AcDbEntity
  8
0
100
AcDbLine
 62
7
  6
CONTINUOUS
 10
-42.2515001224
 20
24.0
 11
-42.2515001224
 21
24.3
  0
LINE
  5
467
100
AcDbEntity
  8
RACCORDO
100
AcDbLine
 62
7
  6
CONTINUOUS
 10
-42.2515001224
 20
23.25
 11
-42.2515001224
 21
24.0
  0
LINE
  5
468
100
AcDbEntity
  8
CURVE
100
AcDbLine
 62
253
  6
CONTINUOUS
 10
-42.2233051906
 20
-7.023716
 11
-42.2233051906
 21
-6.297059
  0
LINE
  5
469
100
AcDbEntity
  8
CURVE
100
AcDbLine
 62
253
  6
CONTINUOUS
 10
-42.2158647572
 20
-15.176702
 11
-42.2158647572
 21
-14.443517
  0
LINE
  5
46A
100
AcDbEntity
  8
CURVE
100
AcDbLine
 62
253
  6
CONTINUOUS
 10
-42.0514506313
 20
14.0857142448
 11
-42.0514506313
 21
14.1714286327
  0
LINE
  5
46B
100
AcDbEntity
  8
0
100
AcDbLine
 62
253
  6
CONTINUOUS
 10
-41.9515001224
 20
-24.6
 11
-41.9515001224
 21
-25.0
  0
LINE
  5
46C
100
AcDbEntity
  8
0
100
AcDbLine
 62
253
  6
CONTINUOUS
 10
-41.9515001224
 20
24.6
 11
-41.9515001224
 21
25.0
  0
LINE
  5
46D
100
AcDbEntity
  8
CURVE
100
AcDbLine
 62
253
  6
CONTINUOUS
 10
-41.8371730691
 20
14.1714286327
 11
-41.8371730691
 21
14.0857142448
  0
LINE
  5
46E
100
AcDbEntity
  8
CURVE
100
AcDbLine
 62
253
  6
CONTINUOUS
 10
-41.7515001224
 20
-14.069593
 11
-41.7515001224
 21
-13.639757
  0
LINE
  5
46F
100
AcDbEntity
  8
CURVE
100
AcDbLine
 62
253
  6
CONTINUOUS
 10
-41.7515001224
 20
-12.753245
 11
-41.7515001224
 21
-11.793568
  0
LINE
  5
470
100
AcDbEntity
  8
CURVE
100
AcDbLine
 62
253
  6
CONTINUOUS
 10
-41.7515001224
 20
-5.841082
 11
-41.7515001224
 21
-5.094148
  0
LINE
  5
471
100
AcDbEntity
  8
CURVE
100
AcDbLine
 62
253
  6
CONTINUOUS
 10
-41.7514620455
 20
16.3571427345
 11
-41.7514620455
 21
16.2285717964
  0
LINE
  5
472
100
AcDbEntity
  8
CURVE
100
AcDbLine
 62
253
  6
CONTINUOUS
 10
-41.7514620455
 20
10.0571429491
 11
-41.7514620455
 21
9.9285713673
  0
LINE
  5
473
100
AcDbEntity
  8
CURVE
100
AcDbLine
 62
253
  6
CONTINUOUS
 10
-41.7514620455
 20
11.2142858982
 11
-41.7514620455
 21
11.6
  0
LINE
  5
474
100
AcDbEntity
  8
CURVE
100
AcDbLine
 62
253
  6
CONTINUOUS
 10
-41.7514620455
 20
12.6285713673
 11
-41.7514620455
 21
13.0142858982
  0
LINE
  5
475
100
AcDbEntity
  8
CURVE
100
AcDbLine
 62
253
  6
CONTINUOUS
 10
-45.1595035129
 20
-8.477235
 11
-45.7383334302
 21
-8.634033
  0
LINE
  5
476
100
AcDbEntity
  8
CURVE
100
AcDbLine
 62
253
  6
CONTINUOUS
 10
-46.1862293193
 20
-8.754996
 11
-47.2622453718
 21
-9.033126
  0
LINE
  5
477
100
AcDbEntity
  8
CURVE
100
AcDbLine
 62
253
  6
CONTINUOUS
 10
-48.0250606245
 20
-7.6615673444
 11
-45.1595031606
 21
-7.6615673444
  0
LINE
  5
478
100
AcDbEntity
  8
0
100
AcDbLine
 62
7
  6
CONTINUOUS
 10
-38.9515001224
 20
-7.5
 11
-40.2515001224
 21
-7.5
  0
LINE
  5
479
100
AcDbEntity
  8
CURVE
100
AcDbLine
 62
253
  6
CONTINUOUS
 10
-46.7690378348
 20
-7.0788012718
 11
-47.5649885737
 21
-7.0788012718
  0
LINE
  5
47A
100
AcDbEntity
  8
CURVE
100
AcDbLine
 62
253
  6
CONTINUOUS
 10
-45.1595031606
 20
-7.0587313832
 11
-46.2941808599
 21
-7.0587313832
  0
LINE
  5
47B
100
AcDbEntity
  8
CURVE
100
AcDbLine
 62
253
  6
CONTINUOUS
 10
-46.5129325093
 20
-6.10544429
 11
-46.5300656273
 21
-6.10544429
  0
LINE
  5
47C
100
AcDbEntity
  8
CURVE
100
AcDbLine
 62
253
  6
CONTINUOUS
 10
-43.0514011243
 20
-5.841082
 11
-41.7515001224
 21
-5.841082
  0
LINE
  5
47D
100
AcDbEntity
  8
CURVE
100
AcDbLine
 62
253
  6
CONTINUOUS
 10
-42.2544968151
 20
-4.456396
 11
-43.0514011243
 21
-3.980657
  0
LINE
  5
47E
100
AcDbEntity
  8
CURVE
100
AcDbLine
 62
253
  6
CONTINUOUS
 10
-47.8465558718
 20
10.794133
 11
-48.1499537655
 21
11.493003
  0
LINE
  5
47F
100
AcDbEntity
  8
CURVE
100
AcDbLine
 62
253
  6
CONTINUOUS
 10
-47.2500143033
 20
10.637092
 11
-47.5544591173
 21
11.338373
  0
LINE
  5
480
100
AcDbEntity
  8
CURVE
100
AcDbLine
 62
253
  6
CONTINUOUS
 10
-48.1499537655
 20
13.403031
 11
-47.8541502934
 21
12.721655
  0
LINE
  5
481
100
AcDbEntity
  8
CURVE
100
AcDbLine
 62
253
  6
CONTINUOUS
 10
-47.1506188731
 20
11.233509
 11
-46.8413894235
 21
10.521207
  0
LINE
  5
482
100
AcDbEntity
  8
0
100
AcDbLine
 62
253
  6
CONTINUOUS
 10
-41.4373371384
 20
-24.6
 11
-41.4373371384
 21
-25.0
  0
LINE
  5
483
100
AcDbEntity
  8
0
100
AcDbLine
 62
253
  6
CONTINUOUS
 10
-41.4373371384
 20
24.6
 11
-41.4373371384
 21
25.0
  0
LINE
  5
484
100
AcDbEntity
  8
ASSI
100
AcDbLine
 62
7
  6
CONTINUOUS
 10
-40.7515001224
 20
-21.6460688761
 11
-40.7515001224
 21
21.6460688761
  0
LINE
  5
485
100
AcDbEntity
  8
0
100
AcDbLine
 62
253
  6
CONTINUOUS
 10
-40.2515001224
 20
7.5
 11
-40.2515001224
 21
-7.5
  0
LWPOLYLINE
  5
486
100
AcDbEntity
  8
0
100
AcDbPolyline
 62
7
  6
CONTINUOUS
 90
3
 70
0
 43
0.3500000087
 10
-29.8443568222
 20
34.0357151337
 10
-29.915786377
 20
33.8214286011
 10
-30.0586433548
 20
33.5357146454
  0
LINE
  5
487
100
AcDbEntity
  8
CURVE
100
AcDbLine
 62
253
  6
CONTINUOUS
 10
-41.7515001224
 20
-4.456396
 11
-42.2544968151
 21
-4.456396
  0
LINE
  5
488
100
AcDbEntity
  8
0
100
AcDbLine
 62
7
  6
CONTINUOUS
 10
-20.3315001224
 20
-4.15
 11
-21.2580488689
 21
-4.15
  0
LINE
  5
489
100
AcDbEntity
  8
CURVE
100
AcDbLine
 62
253
  6
CONTINUOUS
 10
-46.170712501
 20
14.128274
 11
-46.0225397856
 21
13.786961
  0
LINE
  5
48A
100
AcDbEntity
  8
0
100
AcDbLine
 62
7
  6
CONTINUOUS
 10
-38.9515001224
 20
-17.8831922438
 11
-38.9515001224
 21
17.8831922438
  0
LINE
  5
48B
100
AcDbEntity
  8
0
100
AcDbLine
 62
253
  6
CONTINUOUS
 10
-38.0733694658
 20
16.2279122492
 11
-38.0733694658
 21
-16.2279122492
  0
LINE
  5
48C
100
AcDbEntity
  8
0
100
AcDbLine
 62
253
  6
CONTINUOUS
 10
-38.0386572076
 20
17.883221261
 11
-38.0386572076
 21
17.2247205303
  0
LINE
  5
48D
100
AcDbEntity
  8
0
100
AcDbLine
 62
253
  6
CONTINUOUS
 10
-38.0386572342
 20
-17.224720527
 11
-38.0386572342
 21
-17.8832212479
  0
LINE
  5
48E
100
AcDbEntity
  8
0
100
AcDbLine
 62
7
  6
CONTINUOUS
 10
-19.5315001232
 20
-0.9080095867
 11
-20.1421427572
 21
-0.9492535352
  0
LINE
  5
48F
100
AcDbEntity
  8
CURVE
100
AcDbLine
 62
253
  6
CONTINUOUS
 10
-46.3267206197
 20
15.098693
 11
-46.6051844124
 21
15.740127
  0
LINE
  5
490
100
AcDbEntity
  8
CURVE
100
AcDbLine
 62
253
  6
CONTINUOUS
 10
-45.7203468001
 20
13.701928
 11
-46.1799817951
 21
14.760684
  0
LINE
  5
491
100
AcDbEntity
  8
CURVE
100
AcDbLine
 62
253
  6
CONTINUOUS
 10
-46.3951704067
 20
16.039116
 11
-45.9437347872
 21
14.999245
  0
LINE
  5
492
100
AcDbEntity
  8
CURVE
100
AcDbLine
 62
253
  6
CONTINUOUS
 10
-45.7969959626
 20
14.661236
 11
-45.4945399971
 21
13.964538
  0
LINE
  5
493
100
AcDbEntity
  8
CURVE
100
AcDbLine
 62
253
  6
CONTINUOUS
 10
-46.1279527575
 20
15.969728
 11
-45.9827528157
 21
15.635264
  0
LINE
  5
494
100
AcDbEntity
  8
0
100
AcDbLine
 62
7
  6
CONTINUOUS
 10
-37.2515001224
 20
-19.3469060477
 11
-37.2515001224
 21
-17.1562451654
  0
LINE
  5
495
100
AcDbEntity
  8
0
100
AcDbLine
 62
7
  6
CONTINUOUS
 10
-37.2515001224
 20
17.1562402412
 11
-37.2515001224
 21
19.3469060478
  0
LINE
  5
496
100
AcDbEntity
  8
0
100
AcDbLine
 62
253
  6
CONTINUOUS
 10
-36.8124375816
 20
18.1138632353
 11
-36.8124375816
 21
16.382735217
  0
LINE
  5
497
100
AcDbEntity
  8
0
100
AcDbLine
 62
253
  6
CONTINUOUS
 10
-36.8124347941
 20
-16.3827355592
 11
-36.8124347941
 21
-18.1138626349
  0
LINE
  5
498
100
AcDbEntity
  8
0
100
AcDbLine
 62
253
  6
CONTINUOUS
 10
-36.7776681005
 20
19.6999749057
 11
-36.7776681005
 21
18.4669314929
  0
LINE
  5
499
100
AcDbEntity
  8
0
100
AcDbLine
 62
253
  6
CONTINUOUS
 10
-36.7776681005
 20
-18.4669314929
 11
-36.7776681005
 21
-19.6999749057
  0
LINE
  5
49A
100
AcDbEntity
  8
0
100
AcDbLine
 62
7
  6
CONTINUOUS
 10
-35.7515001224
 20
-19.9
 11
-35.7515001224
 21
19.9000000019
  0
LINE
  5
49B
100
AcDbEntity
  8
0
100
AcDbLine
 62
7
  6
CONTINUOUS
 10
-19.5384725983
 20
-1.213977859
 11
-19.5315001232
 21
-1.214448793
  0
LINE
  5
49C
100
AcDbEntity
  8
CURVE
100
AcDbLine
 62
253
  6
CONTINUOUS
 10
-43.0371274058
 20
7.1
 11
-43.551393507
 21
7.6142857373
  0
LINE
  5
49D
100
AcDbEntity
  8
0
100
AcDbLine
 62
7
  6
CONTINUOUS
 10
-34.3515000157
 20
-16.4752225241
 11
-34.3515000157
 21
16.4751683849
  0
LINE
  5
49E
100
AcDbEntity
  8
CURVE
100
AcDbLine
 62
253
  6
CONTINUOUS
 10
-43.0514011243
 20
-4.932134
 11
-42.2544968151
 21
-4.456396
  0
LINE
  5
49F
100
AcDbEntity
  8
0
100
AcDbLine
 62
7
  6
CONTINUOUS
 10
-20.3315001224
 20
1.15
 11
-20.6322209882
 21
1.15
  0
LINE
  5
4A0
100
AcDbEntity
  8
CURVE
100
AcDbLine
 62
253
  6
CONTINUOUS
 10
-43.2942604564
 20
9.6714286327
 11
-43.551393507
 21
9.9285713673
  0
LINE
  5
4A1
100
AcDbEntity
  8
ASSI
100
AcDbLine
 62
253
  6
CONTINUOUS
 10
-32.24714707
 20
21.438557487
 11
-32.2471368547
 21
21.3071121787
  0
LINE
  5
4A2
100
AcDbEntity
  8
ASSI
100
AcDbLine
 62
253
  6
CONTINUOUS
 10
-31.9993184885
 20
22.6767699642
 11
-31.9993184885
 21
21.8622594063
  0
LINE
  5
4A3
100
AcDbEntity
  8
ASSI
100
AcDbLine
 62
253
  6
CONTINUOUS
 10
-31.9993184885
 20
-21.8622594063
 11
-31.9993184885
 21
-22.6767699642
  0
LINE
  5
4A4
100
AcDbEntity
  8
ASSI
100
AcDbLine
 62
253
  6
CONTINUOUS
 10
-31.9497548153
 20
-21.0646886282
 11
-31.9497548156
 21
-19.9443110478
  0
LINE
  5
4A5
100
AcDbEntity
  8
ASSI
100
AcDbLine
 62
253
  6
CONTINUOUS
 10
-31.9497548154
 20
-19.792783293
 11
-31.9497548152
 21
-19.0169552595
  0
LINE
  5
4A6
100
AcDbEntity
  8
ASSI
100
AcDbLine
 62
253
  6
CONTINUOUS
 10
-31.9497548152
 20
19.0291728744
 11
-31.9497548154
 21
19.7875085166
  0
LINE
  5
4A7
100
AcDbEntity
  8
ASSI
100
AcDbLine
 62
253
  6
CONTINUOUS
 10
-31.9497548156
 20
19.9401661239
 11
-31.9497548153
 21
21.0646886282
  0
LINE
  5
4A8
100
AcDbEntity
  8
ASSI
100
AcDbLine
 62
7
  6
CONTINUOUS
 10
-31.7515001224
 20
-19.2170137987
 11
-31.7515001224
 21
-22.5
  0
LINE
  5
4A9
100
AcDbEntity
  8
ASSI
100
AcDbLine
 62
7
  6
CONTINUOUS
 10
-31.7515001224
 20
19.2291671828
 11
-31.7515001224
 21
22.5
  0
LINE
  5
4AA
100
AcDbEntity
  8
ASSI
100
AcDbLine
 62
253
  6
CONTINUOUS
 10
-32.2471368547
 20
-21.3071121787
 11
-32.2471470754
 21
-21.4385574871
  0
LINE
  5
4AB
100
AcDbEntity
  8
CURVE
100
AcDbLine
 62
253
  6
CONTINUOUS
 10
-41.7515001224
 20
-9.524819
 11
-43.0514011243
 21
-10.556944
  0
LINE
  5
4AC
100
AcDbEntity
  8
CURVE
100
AcDbLine
 62
253
  6
CONTINUOUS
 10
-41.7515001224
 20
-6.090054
 11
-43.0514011243
 21
-6.660387
  0
LINE
  5
4AD
100
AcDbEntity
  8
CURVE
100
AcDbLine
 62
253
  6
CONTINUOUS
 10
-43.551393507
 20
11.6
 11
-43.1656938775
 21
11.2142858982
  0
LINE
  5
4AE
100
AcDbEntity
  8
CURVE
100
AcDbLine
 62
253
  6
CONTINUOUS
 10
-42.0085951229
 20
10.3142856836
 11
-41.7514620455
 21
10.0571429491
  0
LINE
  5
4AF
100
AcDbEntity
  8
CURVE
100
AcDbLine
 62
253
  6
CONTINUOUS
 10
-43.551393507
 20
13.0142858982
 11
-43.1656938775
 21
12.6285713673
  0
LINE
  5
4B0
100
AcDbEntity
  8
CURVE
100
AcDbLine
 62
253
  6
CONTINUOUS
 10
-41.7514620455
 20
11.6
 11
-42.0085951229
 21
11.8571427345
  0
LINE
  5
4B1
100
AcDbEntity
  8
0
100
AcDbLine
 62
253
  6
CONTINUOUS
 10
-30.6339680226
 20
-14.9158299302
 11
-30.6339680226
 21
-7.9318963079
  0
LINE
  5
4B2
100
AcDbEntity
  8
0
100
AcDbLine
 62
7
  6
CONTINUOUS
 10
-29.6515001224
 20
-8.1475094854
 11
-29.6515001224
 21
-14.9165339881
  0
LINE
  5
4B3
100
AcDbEntity
  8
CURVE
100
AcDbLine
 62
253
  6
CONTINUOUS
 10
-48.0589356973
 20
-8.72899
 11
-45.1595035129
 21
-7.839304
  0
LINE
  5
4B4
100
AcDbEntity
  8
0
100
AcDbLine
 62
7
  6
CONTINUOUS
 10
-20.2551943101
 20
3.2243062185
 11
-20.4536019969
 21
3.2531511097
  0
LINE
  5
4B5
100
AcDbEntity
  8
CURVE
100
AcDbLine
 62
253
  6
CONTINUOUS
 10
-43.0371274058
 20
9.5428570509
 11
-43.2942604564
 21
9.6714286327
  0
LINE
  5
4B6
100
AcDbEntity
  8
CURVE
100
AcDbLine
 62
253
  6
CONTINUOUS
 10
-41.7514620455
 20
13.0142858982
 11
-42.0085951229
 21
13.2714286327
  0
LINE
  5
4B7
100
AcDbEntity
  8
CURVE
100
AcDbLine
 62
253
  6
CONTINUOUS
 10
-43.0371274058
 20
14.8142854691
 11
-43.551393507
 21
15.3285717964
  0
LINE
  5
4B8
100
AcDbEntity
  8
CURVE
100
AcDbLine
 62
253
  6
CONTINUOUS
 10
-43.2942604564
 20
15.9714282036
 11
-43.551393507
 21
16.2285717964
  0
LINE
  5
4B9
100
AcDbEntity
  8
0
100
AcDbLine
 62
253
  6
CONTINUOUS
 10
-28.9275442163
 20
-8.1222264887
 11
-28.927674745
 21
-14.6465054676
  0
LINE
  5
4BA
100
AcDbEntity
  8
0
100
AcDbLine
 62
253
  6
CONTINUOUS
 10
-27.9410302734
 20
-15.7601106157
 11
-27.9410302734
 21
-8.0877767119
  0
LINE
  5
4BB
100
AcDbEntity
  8
CURVE
100
AcDbLine
 62
253
  6
CONTINUOUS
 10
-45.1595035129
 20
-11.840105
 11
-47.0527783245
 21
-12.550162
  0
LINE
  5
4BC
100
AcDbEntity
  8
CURVE
100
AcDbLine
 62
253
  6
CONTINUOUS
 10
-48.0589356973
 20
-12.393234
 11
-46.4491622948
 21
-11.794355
  0
LINE
  5
4BD
100
AcDbEntity
  8
0
100
AcDbLine
 62
7
  6
CONTINUOUS
 10
-38.9515001224
 20
7.5
 11
-40.2515001224
 21
7.5
  0
LINE
  5
4BE
100
AcDbEntity
  8
CURVE
100
AcDbLine
 62
253
  6
CONTINUOUS
 10
-43.551393507
 20
7.6142857373
 11
-41.7514620455
 21
7.6142857373
  0
LINE
  5
4BF
100
AcDbEntity
  8
CURVE
100
AcDbLine
 62
253
  6
CONTINUOUS
 10
-43.1656938775
 20
8.1285714746
 11
-43.551393507
 21
8.1285714746
  0
LINE
  5
4C0
100
AcDbEntity
  8
CURVE
100
AcDbLine
 62
253
  6
CONTINUOUS
 10
-48.1499537655
 20
11.493003
 11
-47.5544591173
 21
11.338373
  0
LINE
  5
4C1
100
AcDbEntity
  8
CURVE
100
AcDbLine
 62
253
  6
CONTINUOUS
 10
-47.1506188731
 20
11.233509
 11
-45.1515001224
 21
10.714406
  0
LINE
  5
4C2
100
AcDbEntity
  8
CURVE
100
AcDbLine
 62
253
  6
CONTINUOUS
 10
-45.1515001224
 20
10.07634
 11
-46.8413894235
 21
10.521207
  0
LINE
  5
4C3
100
AcDbEntity
  8
CURVE
100
AcDbLine
 62
253
  6
CONTINUOUS
 10
-47.2500143033
 20
10.637092
 11
-47.8465558718
 21
10.794133
  0
LINE
  5
4C4
100
AcDbEntity
  8
CURVE
100
AcDbLine
 62
253
  6
CONTINUOUS
 10
-43.551393507
 20
9.0285713673
 11
-41.7514620455
 21
8.5142856836
  0
LINE
  5
4C5
100
AcDbEntity
  8
CURVE
100
AcDbLine
 62
253
  6
CONTINUOUS
 10
-42.2657282003
 20
10.4428570509
 11
-42.0085951229
 21
10.3142856836
  0
LINE
  5
4C6
100
AcDbEntity
  8
CURVE
100
AcDbLine
 62
253
  6
CONTINUOUS
 10
-43.1656938775
 20
11.2142858982
 11
-42.6514277762
 21
10.9571427345
  0
LINE
  5
4C7
100
AcDbEntity
  8
CURVE
100
AcDbLine
 62
253
  6
CONTINUOUS
 10
-43.1656938775
 20
12.6285713673
 11
-42.6514277762
 21
12.3714286327
  0
LINE
  5
4C8
100
AcDbEntity
  8
CURVE
100
AcDbLine
 62
253
  6
CONTINUOUS
 10
-42.0085951229
 20
16.6142854691
 11
-41.7514620455
 21
16.3571427345
  0
LINE
  5
4C9
100
AcDbEntity
  8
0
100
AcDbLine
 62
7
  6
CONTINUOUS
 10
-27.6515001224
 20
-15.4603180845
 11
-27.6515001224
 21
-8.0776660962
  0
LINE
  5
4CA
100
AcDbEntity
  8
0
100
AcDbLine
 62
7
  6
CONTINUOUS
 10
-26.0515001224
 20
-8.021792865
 11
-26.0515001224
 21
-8.0545986235
  0
LINE
  5
4CB
100
AcDbEntity
  8
CURVE
100
AcDbLine
 62
253
  6
CONTINUOUS
 10
-42.2657282003
 20
9.5428570509
 11
-43.0371274058
 21
9.5428570509
  0
LINE
  5
4CC
100
AcDbEntity
  8
0
100
AcDbLine
 62
7
  6
CONTINUOUS
 10
-20.2717367454
 20
6.2582493056
 11
-20.0728725192
 21
6.2293380508
  0
LINE
  5
4CD
100
AcDbEntity
  8
CURVE
100
AcDbLine
 62
253
  6
CONTINUOUS
 10
-45.5630137823
 20
11.176416
 11
-46.9384850288
 21
11.53358
  0
LINE
  5
4CE
100
AcDbEntity
  8
CURVE
100
AcDbLine
 62
253
  6
CONTINUOUS
 10
-46.8413894235
 20
12.11692
 11
-45.5803184644
 21
11.789462
  0
LINE
  5
4CF
100
AcDbEntity
  8
CURVE
100
AcDbLine
 62
253
  6
CONTINUOUS
 10
-46.9409548407
 20
12.464745
 11
-45.3623940611
 21
12.054846
  0
LINE
  5
4D0
100
AcDbEntity
  8
CURVE
100
AcDbLine
 62
253
  6
CONTINUOUS
 10
-48.1499537655
 20
13.403031
 11
-45.1515001224
 21
12.624434
  0
LINE
  5
4D1
100
AcDbEntity
  8
CURVE
100
AcDbLine
 62
253
  6
CONTINUOUS
 10
-46.9683097574
 20
13.421401
 11
-45.4833438498
 21
13.035806
  0
LINE
  5
4D2
100
AcDbEntity
  8
CURVE
100
AcDbLine
 62
253
  6
CONTINUOUS
 10
-47.1506188731
 20
12.530725
 11
-47.8541502934
 21
12.721655
  0
LINE
  5
4D3
100
AcDbEntity
  8
CURVE
100
AcDbLine
 62
253
  6
CONTINUOUS
 10
-41.9657396011
 20
14.0428572655
 11
-42.0514506313
 21
14.0857142448
  0
LINE
  5
4D4
100
AcDbEntity
  8
CURVE
100
AcDbLine
 62
253
  6
CONTINUOUS
 10
-41.9228840926
 20
14.2142856121
 11
-41.8371730691
 21
14.1714286327
  0
LINE
  5
4D5
100
AcDbEntity
  8
CURVE
100
AcDbLine
 62
253
  6
CONTINUOUS
 10
-41.7515001224
 20
-16.177131
 11
-43.0514011243
 21
-16.8
  0
LINE
  5
4D6
100
AcDbEntity
  8
CURVE
100
AcDbLine
 62
253
  6
CONTINUOUS
 10
-41.7515001224
 20
-14.239776
 11
-43.0514011243
 21
-14.81011
  0
LINE
  5
4D7
100
AcDbEntity
  8
CURVE
100
AcDbLine
 62
253
  6
CONTINUOUS
 10
-43.0371274058
 20
10.4428570509
 11
-42.2657282003
 21
10.4428570509
  0
LINE
  5
4D8
100
AcDbEntity
  8
CURVE
100
AcDbLine
 62
253
  6
CONTINUOUS
 10
-42.6514277762
 20
10.9571427345
 11
-42.0085951229
 21
10.9571427345
  0
LINE
  5
4D9
100
AcDbEntity
  8
0
100
AcDbLine
 62
253
  6
CONTINUOUS
 10
-20.3971225904
 20
11.4000000212
 11
-20.1515001243
 21
11.4000000212
  0
LINE
  5
4DA
100
AcDbEntity
  8
CURVE
100
AcDbLine
 62
253
  6
CONTINUOUS
 10
-42.0085951229
 20
11.8571427345
 11
-42.5228612509
 21
11.8571427345
  0
LINE
  5
4DB
100
AcDbEntity
  8
CURVE
100
AcDbLine
 62
253
  6
CONTINUOUS
 10
-46.8008575103
 20
13.989064
 11
-46.0225397856
 21
13.786961
  0
LINE
  5
4DC
100
AcDbEntity
  8
CURVE
100
AcDbLine
 62
253
  6
CONTINUOUS
 10
-46.9352232772
 20
14.326791
 11
-46.170712501
 21
14.128274
  0
LINE
  5
4DD
100
AcDbEntity
  8
CURVE
100
AcDbLine
 62
253
  6
CONTINUOUS
 10
-46.7114983157
 20
14.898701
 11
-46.1799817951
 21
14.760684
  0
LINE
  5
4DE
100
AcDbEntity
  8
CURVE
100
AcDbLine
 62
253
  6
CONTINUOUS
 10
-45.7969959626
 20
14.661236
 11
-45.3899259643
 21
14.555534
  0
LINE
  5
4DF
100
AcDbEntity
  8
CURVE
100
AcDbLine
 62
253
  6
CONTINUOUS
 10
-46.3267206197
 20
15.098693
 11
-46.8649896261
 21
15.238464
  0
LINE
  5
4E0
100
AcDbEntity
  8
CURVE
100
AcDbLine
 62
253
  6
CONTINUOUS
 10
-45.5518356336
 20
14.897482
 11
-45.9437347872
 21
14.999245
  0
LINE
  5
4E1
100
AcDbEntity
  8
CURVE
100
AcDbLine
 62
253
  6
CONTINUOUS
 10
-43.0371274058
 20
15.8428572655
 11
-43.2942604564
 21
15.9714282036
  0
LINE
  5
4E2
100
AcDbEntity
  8
CURVE
100
AcDbLine
 62
253
  6
CONTINUOUS
 10
-42.2657282003
 20
16.7428572655
 11
-42.0085951229
 21
16.6142854691
  0
LINE
  5
4E3
100
AcDbEntity
  8
0
100
AcDbLine
 62
7
  6
CONTINUOUS
 10
-29.9850276746
 20
-16.1646456674
 11
-29.9457114856
 21
-16.1067614222
  0
LINE
  5
4E4
100
AcDbEntity
  8
CURVE
100
AcDbLine
 62
253
  6
CONTINUOUS
 10
-45.1595035129
 20
-15.881013
 11
-48.0589356973
 21
-16.80026
  0
LINE
  5
4E5
100
AcDbEntity
  8
CURVE
100
AcDbLine
 62
253
  6
CONTINUOUS
 10
-42.6514277762
 20
12.3714286327
 11
-42.0085951229
 21
12.3714286327
  0
LINE
  5
4E6
100
AcDbEntity
  8
CURVE
100
AcDbLine
 62
253
  6
CONTINUOUS
 10
-42.0085951229
 20
13.2714286327
 11
-42.5228612509
 21
13.2714286327
  0
LINE
  5
4E7
100
AcDbEntity
  8
CURVE
100
AcDbLine
 62
253
  6
CONTINUOUS
 10
-41.9228840926
 20
14.0428572655
 11
-41.9657396011
 21
14.0428572655
  0
LINE
  5
4E8
100
AcDbEntity
  8
0
100
AcDbLine
 62
253
  6
CONTINUOUS
 10
-20.3971225904
 20
14.1806895397
 11
-20.1515001243
 21
14.1806895397
  0
LINE
  5
4E9
100
AcDbEntity
  8
0
100
AcDbLine
 62
253
  6
CONTINUOUS
 10
-20.1515001224
 20
14.2
 11
-20.1521119968
 21
14.2
  0
LINE
  5
4EA
100
AcDbEntity
  8
CURVE
100
AcDbLine
 62
253
  6
CONTINUOUS
 10
-45.9827528157
 20
15.635264
 11
-45.6269299145
 21
15.542869
  0
LINE
  5
4EB
100
AcDbEntity
  8
CURVE
100
AcDbLine
 62
253
  6
CONTINUOUS
 10
-46.1279527575
 20
15.969728
 11
-45.343789478
 21
15.766107
  0
LINE
  5
4EC
100
AcDbEntity
  8
CURVE
100
AcDbLine
 62
253
  6
CONTINUOUS
 10
-46.9448135469
 20
16.181839
 11
-46.3951704067
 21
16.039116
  0
LINE
  5
4ED
100
AcDbEntity
  8
CURVE
100
AcDbLine
 62
253
  6
CONTINUOUS
 10
-45.1515001224
 20
16.373117
 11
-46.7954699206
 21
16.8
  0
LINE
  5
4EE
100
AcDbEntity
  8
0
100
AcDbLine
 62
253
  6
CONTINUOUS
 10
-20.3970920054
 20
11.4000000322
 11
-20.3971225837
 21
14.1785873956
  0
LINE
  5
4EF
100
AcDbEntity
  8
0
100
AcDbLine
 62
253
  6
CONTINUOUS
 10
-20.3315001224
 20
-4.15
 11
-20.3315001224
 21
-0.9401307503
  0
LINE
  5
4F0
100
AcDbEntity
  8
0
100
AcDbLine
 62
7
  6
CONTINUOUS
 10
-20.3315001224
 20
-0.9401307503
 11
-20.3315001224
 21
-0.06258913
  0
LINE
  5
4F1
100
AcDbEntity
  8
0
100
AcDbLine
 62
253
  6
CONTINUOUS
 10
-20.3315001224
 20
-0.06258913
 11
-20.3315001224
 21
1.15
  0
LINE
  5
4F2
100
AcDbEntity
  8
0
100
AcDbLine
 62
7
  6
CONTINUOUS
 10
-20.1515001224
 20
14.2000000412
 11
-20.1515001224
 21
11.4000011727
  0
LINE
  5
4F3
100
AcDbEntity
  8
0
100
AcDbLine
 62
7
  6
CONTINUOUS
 10
-29.9457114856
 20
-16.1067614222
 11
-29.9019257777
 21
-16.0534229329
  0
LWPOLYLINE
  5
4F4
100
AcDbEntity
  8
0
100
AcDbPolyline
 62
7
  6
CONTINUOUS
 90
10
 70
0
 10
-29.9019257777
 20
-16.0534229329
 10
-29.853878115
 20
-16.0050439861
 10
-29.8023606305
 20
-15.9620382064
 10
-29.7481641414
 20
-15.9243531762
 10
-29.6914958632
 20
-15.8917646348
 10
-29.6313586193
 20
-15.8640746911
 10
-29.5673135595
 20
-15.841585964
 10
-29.4997546689
 20
-15.8247014791
 10
-29.4286500108
 20
-15.8139273211
 10
-29.3736481217
 20
-15.8101387403
  0
LINE
  5
4F5
100
AcDbEntity
  8
CURVE
100
AcDbLine
 62
253
  6
CONTINUOUS
 10
-41.9657396011
 20
14.2142856121
 11
-41.9228840926
 21
14.2142856121
  0
LINE
  5
4F6
100
AcDbEntity
  8
CURVE
100
AcDbLine
 62
253
  6
CONTINUOUS
 10
-43.551393507
 20
15.3285717964
 11
-41.7514620455
 21
15.3285717964
  0
LINE
  5
4F7
100
AcDbEntity
  8
CURVE
100
AcDbLine
 62
253
  6
CONTINUOUS
 10
-42.2657282003
 20
15.8428572655
 11
-43.0371274058
 21
15.8428572655
  0
LINE
  5
4F8
100
AcDbEntity
  8
ASSI
100
AcDbLine
 62
253
  6
CONTINUOUS
 10
-51.9207037264
 20
16.7650672516
 11
-51.6730799821
 21
16.7552054488
  0
LINE
  5
4F9
100
AcDbEntity
  8
0
100
AcDbLine
 62
7
  6
CONTINUOUS
 10
-19.5315001224
 20
-3.3499598335
 11
-19.5315001224
 21
0.3500448143
  0
LINE
  5
4FA
100
AcDbEntity
  8
0
100
AcDbLine
 62
253
  6
CONTINUOUS
 10
-38.0733694658
 20
16.2279122492
 11
-36.8124375816
 21
16.382735217
  0
LINE
  5
4FB
100
AcDbEntity
  8
0
100
AcDbLine
 62
7
  6
CONTINUOUS
 10
-37.2515001224
 20
17.3213712673
 11
-38.0733694658
 21
17.2204584009
  0
LINE
  5
4FC
100
AcDbEntity
  8
0
100
AcDbLine
 62
253
  6
CONTINUOUS
 10
-38.0733694658
 20
16.2279122492
 11
-38.9515001224
 21
16.2279122492
  0
LINE
  5
4FD
100
AcDbEntity
  8
CURVE
100
AcDbLine
 62
253
  6
CONTINUOUS
 10
-43.0371274058
 20
16.7428572655
 11
-42.2657282003
 21
16.7428572655
  0
LINE
  5
4FE
100
AcDbEntity
  8
0
100
AcDbLine
 62
253
  6
CONTINUOUS
 10
-38.0386572076
 20
17.8831922438
 11
-38.9515001224
 21
17.8831922438
  0
LINE
  5
4FF
100
AcDbEntity
  8
0
100
AcDbLine
 62
253
  6
CONTINUOUS
 10
-36.8124375816
 20
18.1138626349
 11
-37.2515001224
 21
18.1138626349
  0
LINE
  5
500
100
AcDbEntity
  8
0
100
AcDbLine
 62
253
  6
CONTINUOUS
 10
-34.3515012766
 20
16.4753508643
 11
-34.365028784
 21
16.4754421043
  0
LINE
  5
501
100
AcDbEntity
  8
0
100
AcDbLine
 62
7
  6
CONTINUOUS
 10
-34.3515001221
 20
17.475
 11
-35.7514998784
 21
17.5055481033
  0
LINE
  5
502
100
AcDbEntity
  8
0
100
AcDbLine
 62
253
  6
CONTINUOUS
 10
-34.3515000157
 20
16.4751683849
 11
-21.2082225222
 21
16.1309532285
  0
LINE
  5
503
100
AcDbEntity
  8
0
100
AcDbLine
 62
7
  6
CONTINUOUS
 10
-23.0729694381
 20
17.1796612801
 11
-34.3515001221
 21
17.475
  0
LINE
  5
504
100
AcDbEntity
  8
0
100
AcDbLine
 62
7
  6
CONTINUOUS
 10
-35.7515002751
 20
16.512939088
 11
-34.365028784
 21
16.4754421043
  0
LINE
  5
505
100
AcDbEntity
  8
0
100
AcDbLine
 62
253
  6
CONTINUOUS
 10
-36.8124375816
 20
18.1138632353
 11
-35.7515013049
 21
18.0622181651
  0
LINE
  5
506
100
AcDbEntity
  8
ASSI
100
AcDbLine
 62
253
  6
CONTINUOUS
 10
-51.0538998737
 20
17.4642258507
 11
-47.7515001224
 21
18.0465280279
  0
LINE
  5
507
100
AcDbEntity
  8
ASSI
100
AcDbLine
 62
7
  6
CONTINUOUS
 10
-51.0951270489
 20
17.7104283594
 11
-47.7515001224
 21
18.3
  0
LINE
  5
508
100
AcDbEntity
  8
0
100
AcDbLine
 62
253
  6
CONTINUOUS
 10
-36.7776681005
 20
19.6999749057
 11
-35.7514999538
 21
19.7537540994
  0
LINE
  5
509
100
AcDbEntity
  8
0
100
AcDbLine
 62
7
  6
CONTINUOUS
 10
-35.7515000859
 20
19.9000000019
 11
-36.7776681005
 21
19.8462208151
  0
LINE
  5
50A
100
AcDbEntity
  8
ASSI
100
AcDbLine
 62
7
  6
CONTINUOUS
 10
-40.7515001224
 20
18.9523612067
 11
-37.2515001224
 21
18.982905244
  0
LINE
  5
50B
100
AcDbEntity
  8
ASSI
100
AcDbLine
 62
7
  6
CONTINUOUS
 10
-35.7515001224
 20
18.9959955457
 11
-31.9497548152
 21
19.0291728744
  0
LINE
  5
50C
100
AcDbEntity
  8
ASSI
100
AcDbLine
 62
7
  6
CONTINUOUS
 10
-47.7515001224
 20
18.8
 11
-48.2515001224
 21
18.8
  0
LINE
  5
50D
100
AcDbEntity
  8
ASSI
100
AcDbLine
 62
253
  6
CONTINUOUS
 10
-31.9497548156
 20
19.9401650626
 11
-31.7515001224
 21
19.9401650626
  0
LINE
  5
50E
100
AcDbEntity
  8
ASSI
100
AcDbLine
 62
7
  6
CONTINUOUS
 10
-40.7515001224
 20
19.4728483595
 11
-42.9515001224
 21
19.5191991091
  0
LINE
  5
50F
100
AcDbEntity
  8
0
100
AcDbLine
 62
253
  6
CONTINUOUS
 10
-35.7514999538
 20
18.4169543778
 11
-36.7776681005
 21
18.4669314929
  0
LINE
  5
510
100
AcDbEntity
  8
0
100
AcDbLine
 62
7
  6
CONTINUOUS
 10
-41.3446320401
 20
-24.5853169549
 11
-37.2349490312
 21
-23.25
  0
LINE
  5
511
100
AcDbEntity
  8
0
100
AcDbLine
 62
7
  6
CONTINUOUS
 10
-41.2210252424
 20
-24.9657395614
 11
-35.9405218402
 21
-23.25
  0
LINE
  5
512
100
AcDbEntity
  8
ASSI
100
AcDbLine
 62
7
  6
CONTINUOUS
 10
-31.9993184885
 20
21.059284376
 11
-40.7515001224
 21
20.982905244
  0
LINE
  5
513
100
AcDbEntity
  8
ASSI
100
AcDbLine
 62
253
  6
CONTINUOUS
 10
-32.2471368547
 20
21.3071121787
 11
-40.7515001224
 21
21.2328957248
  0
LINE
  5
514
100
AcDbEntity
  8
ASSI
100
AcDbLine
 62
253
  6
CONTINUOUS
 10
-48.0036817563
 20
22.1234126973
 11
-48.2515001224
 21
22.1234126973
  0
LINE
  5
515
100
AcDbEntity
  8
ASSI
100
AcDbLine
 62
253
  6
CONTINUOUS
 10
-32.24714707
 20
21.438557487
 11
-40.7515001224
 21
21.4692989119
  0
LINE
  5
516
100
AcDbEntity
  8
ASSI
100
AcDbLine
 62
253
  6
CONTINUOUS
 10
-32.2471368547
 20
21.6153274143
 11
-40.7515001224
 21
21.6460688761
  0
LINE
  5
517
100
AcDbEntity
  8
0
100
AcDbLine
 62
7
  6
CONTINUOUS
 10
-41.3446320401
 20
24.5853169549
 11
-37.2349490312
 21
23.25
  0
LINE
  5
518
100
AcDbEntity
  8
0
100
AcDbLine
 62
7
  6
CONTINUOUS
 10
-41.2210252424
 20
24.9657395614
 11
-35.9405218402
 21
23.25
  0
LWPOLYLINE
  5
519
100
AcDbEntity
  8
0
100
AcDbPolyline
 62
7
  6
CONTINUOUS
 90
10
 70
0
 43
0.3500000087
 10
-35.0229281311
 20
44.249998642
 10
-34.951500708
 20
44.1071437958
 10
-34.951500708
 20
44.0357163727
 10
-35.0943576859
 20
43.8928572632
 10
-35.1657851089
 20
43.8928572632
 10
-35.2372146637
 20
43.9642846863
 10
-35.2372146637
 20
44.0357163727
 10
-35.1657851089
 20
44.1785712189
 10
-35.0943576859
 20
44.249998642
 10
-35.0229281311
 20
44.249998642
  0
LWPOLYLINE
  5
51A
100
AcDbEntity
  8
0
100
AcDbPolyline
 62
7
  6
CONTINUOUS
 90
10
 70
0
 43
0.3500000087
 10
-29.915786377
 20
34.2500016663
 10
-29.8443568222
 20
34.1071425568
 10
-29.8443568222
 20
34.0357151337
 10
-29.9872138
 20
33.8928560242
 10
-30.0586433548
 20
33.8928560242
 10
-30.1300707779
 20
33.9642877106
 10
-30.1300707779
 20
34.0357151337
 10
-30.0586433548
 20
34.1785699799
 10
-29.9872138
 20
34.2500016663
 10
-29.915786377
 20
34.2500016663
  0
LINE
  5
51B
100
AcDbEntity
  8
ASSI
100
AcDbLine
 62
253
  6
CONTINUOUS
 10
-48.0036817563
 20
22.1234126973
 11
-42.9515001224
 21
22.2115988557
  0
LINE
  5
51C
100
AcDbEntity
  8
ASSI
100
AcDbLine
 62
7
  6
CONTINUOUS
 10
-48.005863224
 20
22.373374621
 11
-42.9515001224
 21
22.4615988572
  0
LINE
  5
51D
100
AcDbEntity
  8
ASSI
100
AcDbLine
 62
253
  6
CONTINUOUS
 10
-43.7512324276
 20
23.0
 11
-42.9515001224
 21
23.0
  0
LINE
  5
51E
100
AcDbEntity
  8
ASSI
100
AcDbLine
 62
253
  6
CONTINUOUS
 10
-42.9515001224
 20
23.1767699642
 11
-32.4993184885
 21
23.1767699642
  0
LINE
  5
51F
100
AcDbEntity
  8
ASSI
100
AcDbLine
 62
7
  6
CONTINUOUS
 10
-43.501120828
 20
23.25
 11
-32.5015085047
 21
23.25
  0
LINE
  5
520
100
AcDbEntity
  8
RACCORDO
100
AcDbLine
 62
253
  6
CONTINUOUS
 10
-42.6515001224
 20
23.8174311485
 11
-42.2515001224
 21
23.8174311485
  0
LINE
  5
521
100
AcDbEntity
  8
0
100
AcDbLine
 62
7
  6
CONTINUOUS
 10
-42.2515001224
 20
24.0
 11
-42.6515001224
 21
24.0
  0
LINE
  5
522
100
AcDbEntity
  8
0
100
AcDbLine
 62
253
  6
CONTINUOUS
 10
-42.2515001224
 20
24.3
 11
-42.6515001224
 21
24.3
  0
LINE
  5
523
100
AcDbEntity
  8
0
100
AcDbLine
 62
7
  6
CONTINUOUS
 10
-41.9515001224
 20
24.6
 11
-41.4373371384
 21
24.6
  0
LINE
  5
524
100
AcDbEntity
  8
0
100
AcDbLine
 62
7
  6
CONTINUOUS
 10
-41.9515001224
 20
25.0
 11
-41.4373371384
 21
25.0
  0
LWPOLYLINE
  5
525
100
AcDbEntity
  8
0
100
AcDbPolyline
 62
7
  6
CONTINUOUS
 90
7
 70
0
 43
0.3500000087
 10
-31.4157857101
 20
33.750001178
 10
-32.9157850433
 20
33.750001178
 10
-31.4157857101
 20
35.8928579773
 10
-31.4157857101
 20
36.3214267792
 10
-31.8443566437
 20
36.7499998444
 10
-32.4872141098
 20
36.7499998444
 10
-32.9157850433
 20
36.1071445099
  0
LWPOLYLINE
  5
526
100
AcDbEntity
  8
0
100
AcDbPolyline
 62
7
  6
CONTINUOUS
 90
7
 70
0
 43
0.3500000087
 10
-33.7729290421
 20
33.750001178
 10
-35.2729283752
 20
33.750001178
 10
-33.7729290421
 20
35.8928579773
 10
-33.7729290421
 20
36.3214267792
 10
-34.2014999756
 20
36.7499998444
 10
-34.8443574417
 20
36.7499998444
 10
-35.2729283752
 20
36.1071445099
  0
LWPOLYLINE
  5
527
100
AcDbEntity
  8
0
100
AcDbPolyline
 62
7
  6
CONTINUOUS
 90
6
 70
0
 43
0.3500000087
 10
-40.1657878601
 20
43.7499981537
 10
-39.0943551971
 20
43.7499981537
 10
-38.8800729279
 20
43.9642846863
 10
-38.8800729279
 20
45.0357130859
 10
-39.3086417297
 20
45.4642861511
 10
-39.7372147949
 20
45.4642861511
  0
LWPOLYLINE
  5
528
100
AcDbEntity
  8
0
100
AcDbPolyline
 62
7
  6
CONTINUOUS
 90
7
 70
0
 43
0.3500000087
 10
-36.5229295959
 20
43.7499981537
 10
-38.0229267975
 20
43.7499981537
 10
-36.5229295959
 20
45.8928592163
 10
-36.5229295959
 20
46.3214280182
 10
-36.9514983978
 20
46.7500010834
 10
-37.5943579956
 20
46.7500010834
 10
-38.0229267975
 20
46.1071414856
  0
ARC
  5
529
100
AcDbEntity
  8
ASSI
100
AcDbCircle
 62
253
  6
CONTINUOUS
 10
10.5866909012
 20
-22.123351073
 40
0.2500221686
100
AcDbArc
 50
270.0068261997
 51
359.9858779059
  0
ARC
  5
52A
100
AcDbEntity
  8
ASSI
100
AcDbCircle
 62
253
  6
CONTINUOUS
 10
-10.58669091
 20
-22.123351084
 40
0.2500221686
100
AcDbArc
 50
180.0141195833
 51
269.9931758257
  0
ARC
  5
52B
100
AcDbEntity
  8
RACCORDO
100
AcDbCircle
 62
7
  6
CONTINUOUS
 10
-8.7
 20
-11.55
 40
0.25
100
AcDbArc
 50
168.4610863512
 51
180.0
  0
ARC
  5
52C
100
AcDbEntity
  8
RACCORDO
100
AcDbCircle
 62
7
  6
CONTINUOUS
 10
8.7
 20
-11.55
 40
0.25
100
AcDbArc
 50
0.0
 51
11.5389131953
  0
ARC
  5
52D
100
AcDbEntity
  8
ASSI
100
AcDbCircle
 62
253
  6
CONTINUOUS
 10
-6.5942463704
 20
-23.0000212204
 40
0.2499809641
100
AcDbArc
 50
270.0048643553
 51
0.0048636902
  0
ARC
  5
52E
100
AcDbEntity
  8
ASSI
100
AcDbCircle
 62
253
  6
CONTINUOUS
 10
6.5942463704
 20
-23.0000212204
 40
0.2499809641
100
AcDbArc
 50
179.9951363098
 51
269.9951356448
  0
ARC
  5
52F
100
AcDbEntity
  8
RACCORDO
100
AcDbCircle
 62
7
  6
CONTINUOUS
 10
-3.9332662348
 20
-23.8
 40
0.2
100
AcDbArc
 50
270.0
 51
355.0
  0
ARC
  5
530
100
AcDbEntity
  8
RACCORDO
100
AcDbCircle
 62
7
  6
CONTINUOUS
 10
3.9332662348
 20
-23.8
 40
0.2
100
AcDbArc
 50
185.0
 51
270.0
  0
ARC
  5
531
100
AcDbEntity
  8
ASSI
100
AcDbCircle
 62
253
  6
CONTINUOUS
 10
-10.5866909082
 20
22.1233510698
 40
0.2500221686
100
AcDbArc
 50
90.0068245995
 51
179.9858771636
  0
ARC
  5
532
100
AcDbEntity
  8
ASSI
100
AcDbCircle
 62
253
  6
CONTINUOUS
 10
-6.5942463896
 20
23.0000212011
 40
0.2499809641
100
AcDbArc
 50
359.995140731
 51
89.9951312235
  0
ARC
  5
533
100
AcDbEntity
  8
RACCORDO
100
AcDbCircle
 62
7
  6
CONTINUOUS
 10
-3.9332662348
 20
23.8
 40
0.2
100
AcDbArc
 50
5.0
 51
90.0
  0
CIRCLE
  5
534
100
AcDbEntity
  8
ASSI
100
AcDbCircle
 62
7
  6
CONTINUOUS
 10
0.0
 20
0.0
 40
7.0
  0
CIRCLE
  5
535
100
AcDbEntity
  8
ASSI
100
AcDbCircle
 62
7
  6
CONTINUOUS
 10
0.0
 20
0.0
 40
5.7
  0
CIRCLE
  5
536
100
AcDbEntity
  8
0
100
AcDbCircle
 62
7
  6
CONTINUOUS
 10
0.0
 20
0.0
 40
5.675
  0
CIRCLE
  5
537
100
AcDbEntity
  8
0
100
AcDbCircle
 62
253
  6
CONTINUOUS
 10
0.0
 20
0.0
 40
5.2125
  0
CIRCLE
  5
538
100
AcDbEntity
  8
0
100
AcDbCircle
 62
7
  6
CONTINUOUS
 10
0.0
 20
0.0
 40
4.75
  0
CIRCLE
  5
539
100
AcDbEntity
  8
0
100
AcDbCircle
 62
253
  6
CONTINUOUS
 10
0.0
 20
0.0
 40
4.5
  0
CIRCLE
  5
53A
100
AcDbEntity
  8
0
100
AcDbCircle
 62
253
  6
CONTINUOUS
 10
0.0
 20
0.0
 40
4.3544587245
  0
CIRCLE
  5
53B
100
AcDbEntity
  8
0
100
AcDbCircle
 62
7
  6
CONTINUOUS
 10
0.0
 20
0.0
 40
4.1044018482
  0
CIRCLE
  5
53C
100
AcDbEntity
  8
0
100
AcDbCircle
 62
253
  6
CONTINUOUS
 10
0.0
 20
0.0
 40
4.0120338141
  0
CIRCLE
  5
53D
100
AcDbEntity
  8
0
100
AcDbCircle
 62
253
  6
CONTINUOUS
 10
0.0
 20
0.0
 40
3.7414221937
  0
CIRCLE
  5
53E
100
AcDbEntity
  8
0
100
AcDbCircle
 62
253
  6
CONTINUOUS
 10
0.0
 20
0.0
 40
3.4915744869
  0
CIRCLE
  5
53F
100
AcDbEntity
  8
0
100
AcDbCircle
 62
7
  6
CONTINUOUS
 10
0.0
 20
0.0
 40
3.3952376915
  0
CIRCLE
  5
540
100
AcDbEntity
  8
0
100
AcDbCircle
 62
7
  6
CONTINUOUS
 10
0.0
 20
0.0
 40
2.5
  0
CIRCLE
  5
541
100
AcDbEntity
  8
0
100
AcDbCircle
 62
7
  6
CONTINUOUS
 10
0.0
 20
0.0
 40
1.1800001475
  0
CIRCLE
  5
542
100
AcDbEntity
  8
0
100
AcDbCircle
 62
253
  6
CONTINUOUS
 10
0.0
 20
0.0
 40
1.1412302763
  0
CIRCLE
  5
543
100
AcDbEntity
  8
0
100
AcDbCircle
 62
253
  6
CONTINUOUS
 10
0.0
 20
0.0
 40
0.6502371771
  0
CIRCLE
  5
544
100
AcDbEntity
  8
0
100
AcDbCircle
 62
253
  6
CONTINUOUS
 10
0.0
 20
0.0
 40
0.4196221102
  0
ARC
  5
545
100
AcDbEntity
  8
ASSI
100
AcDbCircle
 62
253
  6
CONTINUOUS
 10
10.5866909167
 20
22.1233510883
 40
0.2500221686
100
AcDbArc
 50
0.0141185793
 51
89.9931773455
  0
ARC
  5
546
100
AcDbEntity
  8
ASSI
100
AcDbCircle
 62
253
  6
CONTINUOUS
 10
6.5942464023
 20
23.0000211885
 40
0.2499809641
100
AcDbArc
 50
90.004871681
 51
180.0048563658
  0
ARC
  5
547
100
AcDbEntity
  8
RACCORDO
100
AcDbCircle
 62
7
  6
CONTINUOUS
 10
3.9332662348
 20
23.8
 40
0.2
100
AcDbArc
 50
90.0
 51
175.0
  0
ARC
  5
548
100
AcDbEntity
  8
CURVE
100
AcDbCircle
 62
253
  6
CONTINUOUS
 10
186.9691787412
 20
-6.7863874882
 40
176.1288818908
100
AcDbArc
 50
179.9408717889
 51
180.0951239978
  0
ARC
  5
549
100
AcDbEntity
  8
ASSI
100
AcDbCircle
 62
253
  6
CONTINUOUS
 10
-63.0062669951
 20
-19.868546848
 40
31.0566045915
100
AcDbArc
 50
359.8602238317
 51
0.1397749789
  0
ARC
  5
54A
100
AcDbEntity
  8
ASSI
100
AcDbCircle
 62
253
  6
CONTINUOUS
 10
-55.4774184572
 20
-21.5269424322
 40
23.2304497425
100
AcDbArc
 50
359.7820059999
 51
0.2179940001
  0
ARC
  5
54B
100
AcDbEntity
  8
ASSI
100
AcDbCircle
 62
7
  6
CONTINUOUS
 10
-50.9214821065
 20
-16.725620036
 40
1.0
100
AcDbArc
 50
182.2605493928
 51
260.0001882312
  0
ARC
  5
54C
100
AcDbEntity
  8
ASSI
100
AcDbCircle
 62
253
  6
CONTINUOUS
 10
-50.9236634699
 20
-16.7256197998
 40
0.7500002796
100
AcDbArc
 50
182.2607628437
 51
259.9999827844
  0
ARC
  5
54D
100
AcDbEntity
  8
0
100
AcDbCircle
 62
7
  6
CONTINUOUS
 10
-41.9515001224
 20
-24.3
 40
0.7
100
AcDbArc
 50
180.0
 51
270.0
  0
ARC
  5
54E
100
AcDbEntity
  8
0
100
AcDbCircle
 62
7
  6
CONTINUOUS
 10
-41.9515001224
 20
-24.3
 40
0.3
100
AcDbArc
 50
180.0
 51
270.0
  0
ARC
  5
54F
100
AcDbEntity
  8
ASSI
100
AcDbCircle
 62
7
  6
CONTINUOUS
 10
-43.5011948308
 20
-22.9999504433
 40
0.2500431237
100
AcDbArc
 50
180.0113558425
 51
270.0169568346
  0
ARC
  5
550
100
AcDbEntity
  8
ASSI
100
AcDbCircle
 62
7
  6
CONTINUOUS
 10
-48.0015001224
 20
-22.1234126973
 40
0.25
100
AcDbArc
 50
180.0
 51
269.0
  0
ARC
  5
551
100
AcDbEntity
  8
0
100
AcDbCircle
 62
253
  6
CONTINUOUS
 10
-26.9756747042
 20
-26.799413648
 40
13.4110374015
100
AcDbArc
 50
142.7231628008
 51
144.2583625931
  0
ARC
  5
552
100
AcDbEntity
  8
0
100
AcDbCircle
 62
7
  6
CONTINUOUS
 10
-36.9515001224
 20
-17.8831922438
 40
2.0
100
AcDbArc
 50
180.0
 51
212.5540122555
  0
ARC
  5
553
100
AcDbEntity
  8
0
100
AcDbCircle
 62
7
  6
CONTINUOUS
 10
-37.9515001224
 20
-16.2279122492
 40
1.0
100
AcDbArc
 50
180.0
 51
262.9999999999
  0
ARC
  5
554
100
AcDbEntity
  8
0
100
AcDbCircle
 62
253
  6
CONTINUOUS
 10
-37.0388236819
 20
-17.8832587014
 40
0.999833553
100
AcDbArc
 50
179.9978537118
 51
232.5334675164
  0
ARC
  5
555
100
AcDbEntity
  8
ASSI
100
AcDbCircle
 62
7
  6
CONTINUOUS
 10
-32.5015001224
 20
-22.5
 40
0.75
100
AcDbArc
 50
269.9993595742
 51
360.0
  0
ARC
  5
556
100
AcDbEntity
  8
0
100
AcDbCircle
 62
7
  6
CONTINUOUS
 10
-41.4373371384
 20
-24.3
 40
0.7
100
AcDbArc
 50
270.0
 51
288.0
  0
ARC
  5
557
100
AcDbEntity
  8
0
100
AcDbCircle
 62
7
  6
CONTINUOUS
 10
-36.7515001224
 20
-19.3469060477
 40
0.5
100
AcDbArc
 50
180.0
 51
267.0000000001
  0
ARC
  5
558
100
AcDbEntity
  8
ASSI
100
AcDbCircle
 62
253
  6
CONTINUOUS
 10
-32.4993183761
 20
-22.6767700766
 40
0.4999998876
100
AcDbArc
 50
269.9999871179
 51
0.0000128821
  0
ARC
  5
559
100
AcDbEntity
  8
0
100
AcDbCircle
 62
7
  6
CONTINUOUS
 10
-27.9515001224
 20
-15.4602933676
 40
0.3
100
AcDbArc
 50
272.0000000002
 51
359.9952794156
  0
ARC
  5
55A
100
AcDbEntity
  8
0
100
AcDbCircle
 62
7
  6
CONTINUOUS
 10
-41.4373371384
 20
-24.3
 40
0.3
100
AcDbArc
 50
270.0
 51
288.0
  0
ARC
  5
55B
100
AcDbEntity
  8
ASSI
100
AcDbCircle
 62
7
  6
CONTINUOUS
 10
-32.0015001224
 20
-21.3092748568
 40
0.25
100
AcDbArc
 50
0.0
 51
89.5
  0
ARC
  5
55C
100
AcDbEntity
  8
ASSI
100
AcDbCircle
 62
7
  6
CONTINUOUS
 10
-31.9515001224
 20
-19.2169476441
 40
0.2
100
AcDbArc
 50
359.9999978554
 51
89.4999999547
  0
ARC
  5
55D
100
AcDbEntity
  8
0
100
AcDbCircle
 62
7
  6
CONTINUOUS
 10
-25.4274341204
 20
-3.825
 40
4.175
100
AcDbArc
 50
269.9999815049
 51
351.7281774087
  0
ARC
  5
55E
100
AcDbEntity
  8
0
100
AcDbCircle
 62
7
  6
CONTINUOUS
 10
-32.1515001224
 20
-14.9165339913
 40
2.5
100
AcDbArc
 50
271.49999999
 51
0.0000000743
  0
ARC
  5
55F
100
AcDbEntity
  8
0
100
AcDbCircle
 62
7
  6
CONTINUOUS
 10
-25.162881347
 20
-8.8369491551
 40
0.8949153566
100
AcDbArc
 50
75.2916064599
 51
75.6618449159
  0
ARC
  5
560
100
AcDbEntity
  8
0
100
AcDbCircle
 62
7
  6
CONTINUOUS
 10
-20.3315001224
 20
-3.35
 40
0.8
100
AcDbArc
 50
270.0
 51
360.0
  0
ARC
  5
561
100
AcDbEntity
  8
0
100
AcDbCircle
 62
7
  6
CONTINUOUS
 10
-40.2515001224
 20
-7.0
 40
0.5
100
AcDbArc
 50
180.0
 51
270.0
  0
ARC
  5
562
100
AcDbEntity
  8
0
100
AcDbCircle
 62
7
  6
CONTINUOUS
 10
-130.1515001216
 20
11.3999999999
 40
110.1999999992
100
AcDbArc
 50
355.7453399898
 51
357.3106540863
  0
ARC
  5
563
100
AcDbEntity
  8
0
100
AcDbCircle
 62
7
  6
CONTINUOUS
 10
-130.1515001224
 20
11.4
 40
110.0
100
AcDbArc
 50
351.7281746277
 51
0.0000006108
  0
ARC
  5
564
100
AcDbEntity
  8
0
100
AcDbCircle
 62
253
  6
CONTINUOUS
 10
-130.0328613552
 20
11.3912498646
 40
109.635769699
100
AcDbArc
 50
351.7237108665
 51
0.0045728477
  0
ARC
  5
565
100
AcDbEntity
  8
0
100
AcDbCircle
 62
7
  6
CONTINUOUS
 10
-20.3315001224
 20
0.35
 40
0.8
100
AcDbArc
 50
0.0060863887
 51
90.0
  0
ARC
  5
566
100
AcDbEntity
  8
0
100
AcDbCircle
 62
7
  6
CONTINUOUS
 10
-40.2515001224
 20
7.0
 40
0.5
100
AcDbArc
 50
90.0
 51
180.0
  0
ARC
  5
567
100
AcDbEntity
  8
CURVE
100
AcDbCircle
 62
253
  6
CONTINUOUS
 10
-45.5248578743
 20
13.4248423201
 40
0.391245803
100
AcDbArc
 50
276.0909770315
 51
342.6068344087
  0
ARC
  5
568
100
AcDbEntity
  8
CURVE
100
AcDbCircle
 62
253
  6
CONTINUOUS
 10
-45.5086822602
 20
11.5390143881
 40
0.366647943
100
AcDbArc
 50
261.478234264
 51
346.9516724311
  0
ARC
  5
569
100
AcDbEntity
  8
ASSI
100
AcDbCircle
 62
253
  6
CONTINUOUS
 10
-59.5415767787
 20
19.8638371648
 40
27.5919275374
100
AcDbArc
 50
359.8415002006
 51
0.1585004449
  0
ARC
  5
56A
100
AcDbEntity
  8
ASSI
100
AcDbCircle
 62
7
  6
CONTINUOUS
 10
-50.9214821065
 20
16.725620036
 40
1.0
100
AcDbArc
 50
99.9998117688
 51
177.7394506076
  0
ARC
  5
56B
100
AcDbEntity
  8
ASSI
100
AcDbCircle
 62
253
  6
CONTINUOUS
 10
-50.9236634699
 20
16.7256197998
 40
0.7500002796
100
AcDbArc
 50
100.0000172156
 51
177.7392371564
  0
ARC
  5
56C
100
AcDbEntity
  8
CURVE
100
AcDbCircle
 62
253
  6
CONTINUOUS
 10
-46.7603424483
 20
16.3847700288
 40
0.4167138908
100
AcDbArc
 50
94.8355735298
 51
159.4809916706
  0
ARC
  5
56D
100
AcDbEntity
  8
CURVE
100
AcDbCircle
 62
253
  6
CONTINUOUS
 10
-45.5114819354
 20
14.2024456523
 40
0.3734262435
100
AcDbArc
 50
15.4214247333
 51
71.0032056719
  0
ARC
  5
56E
100
AcDbEntity
  8
CURVE
100
AcDbCircle
 62
253
  6
CONTINUOUS
 10
-46.8010959316
 20
14.5608622407
 40
0.3495205229
100
AcDbArc
 50
75.1466262364
 51
180.0033179676
  0
ARC
  5
56F
100
AcDbEntity
  8
CURVE
100
AcDbCircle
 62
253
  6
CONTINUOUS
 10
-45.4714412662
 20
15.2071523675
 40
0.3199385544
100
AcDbArc
 50
255.4465700789
 51
0.0031576653
  0
ARC
  5
570
100
AcDbEntity
  8
ASSI
100
AcDbCircle
 62
253
  6
CONTINUOUS
 10
-55.4770325018
 20
21.5269424322
 40
23.2300637899
100
AcDbArc
 50
359.782002378
 51
0.217997622
  0
ARC
  5
571
100
AcDbEntity
  8
0
100
AcDbCircle
 62
7
  6
CONTINUOUS
 10
-41.4373371384
 20
24.3
 40
0.7
100
AcDbArc
 50
72.0
 51
90.0
  0
ARC
  5
572
100
AcDbEntity
  8
0
100
AcDbCircle
 62
7
  6
CONTINUOUS
 10
-41.9515001224
 20
24.3
 40
0.7
100
AcDbArc
 50
90.0
 51
180.0
  0
ARC
  5
573
100
AcDbEntity
  8
0
100
AcDbCircle
 62
7
  6
CONTINUOUS
 10
-41.4373371384
 20
24.3
 40
0.3
100
AcDbArc
 50
72.0
 51
90.0
  0
ARC
  5
574
100
AcDbEntity
  8
0
100
AcDbCircle
 62
7
  6
CONTINUOUS
 10
-41.9515001224
 20
24.3
 40
0.3
100
AcDbArc
 50
90.0
 51
180.0
  0
ARC
  5
575
100
AcDbEntity
  8
ASSI
100
AcDbCircle
 62
7
  6
CONTINUOUS
 10
-43.501194834
 20
22.9999504452
 40
0.2500431237
100
AcDbArc
 50
89.9830424353
 51
179.9886445729
  0
ARC
  5
576
100
AcDbEntity
  8
ASSI
100
AcDbCircle
 62
7
  6
CONTINUOUS
 10
-48.0015001224
 20
22.1234126973
 40
0.25
100
AcDbArc
 50
91.0
 51
180.0
  0
ARC
  5
577
100
AcDbEntity
  8
0
100
AcDbCircle
 62
7
  6
CONTINUOUS
 10
-23.1515001224
 20
14.2
 40
3.0
100
AcDbArc
 50
0.0000007876
 51
30.5993514267
  0
ARC
  5
578
100
AcDbEntity
  8
0
100
AcDbCircle
 62
7
  6
CONTINUOUS
 10
-23.1515001224
 20
14.1806893009
 40
3.0
100
AcDbArc
 50
0.0
 51
88.5000030674
  0
ARC
  5
579
100
AcDbEntity
  8
0
100
AcDbCircle
 62
7
  6
CONTINUOUS
 10
-36.9515001224
 20
17.8831922438
 40
2.0
100
AcDbArc
 50
147.0270195681
 51
180.0
  0
ARC
  5
57A
100
AcDbEntity
  8
0
100
AcDbCircle
 62
7
  6
CONTINUOUS
 10
-37.9515001224
 20
16.2279122492
 40
1.0
100
AcDbArc
 50
97.0
 51
180.0000000005
  0
ARC
  5
57B
100
AcDbEntity
  8
0
100
AcDbCircle
 62
253
  6
CONTINUOUS
 10
-37.0388232135
 20
17.8832584662
 40
0.9998339949
100
AcDbArc
 50
127.4665452681
 51
180.0021320542
  0
ARC
  5
57C
100
AcDbEntity
  8
0
100
AcDbCircle
 62
7
  6
CONTINUOUS
 10
-36.7515001224
 20
19.3469060477
 40
0.5
100
AcDbArc
 50
93.0000000005
 51
180.0
  0
ARC
  5
57D
100
AcDbEntity
  8
ASSI
100
AcDbCircle
 62
7
  6
CONTINUOUS
 10
-31.9515001224
 20
19.229165259
 40
0.2
100
AcDbArc
 50
270.5000000364
 51
0.0000016784
  0
ARC
  5
57E
100
AcDbEntity
  8
0
100
AcDbCircle
 62
7
  6
CONTINUOUS
 10
-20.6552496955
 20
15.6760534563
 40
0.1
100
AcDbArc
 50
30.691472726
 51
58.3790856426
  0
ARC
  5
57F
100
AcDbEntity
  8
0
100
AcDbCircle
 62
253
  6
CONTINUOUS
 10
-27.0320115221
 20
26.7569616482
 40
13.3404974014
100
AcDbArc
 50
215.6706134871
 51
217.2783039573
  0
ARC
  5
580
100
AcDbEntity
  8
ASSI
100
AcDbCircle
 62
7
  6
CONTINUOUS
 10
-32.5015001224
 20
22.5
 40
0.75
100
AcDbArc
 50
0.0
 51
90.0006403598
  0
ARC
  5
581
100
AcDbEntity
  8
ASSI
100
AcDbCircle
 62
253
  6
CONTINUOUS
 10
-32.4993183761
 20
22.6767700766
 40
0.4999998876
100
AcDbArc
 50
359.9999871179
 51
90.0000128821
  0
ARC
  5
582
100
AcDbEntity
  8
ASSI
100
AcDbCircle
 62
7
  6
CONTINUOUS
 10
-32.0015001603
 20
21.3092748564
 40
0.25
100
AcDbArc
 50
270.5000086884
 51
0.0000000758
  0
ARC
  5
583
100
AcDbEntity
  8
ASSI
100
AcDbCircle
 62
7
  6
CONTINUOUS
 10
372.7484998776
 20
0.0
 40
425.0
100
AcDbArc
 50
177.7392548337
 51
182.2607456281
  0
ARC
  5
584
100
AcDbEntity
  8
ASSI
100
AcDbCircle
 62
253
  6
CONTINUOUS
 10
372.7463276739
 20
0.0
 40
424.7500094228
100
AcDbArc
 50
177.7392544221
 51
182.2607455779
  0
SPLINE
  5
585
100
AcDbEntity
  8
RACCORDO
100
AcDbSpline
 62
7
  6
CONTINUOUS
 70
0
 71
3
 72
14
 73
10
 74
8
 42
0.0000001
 43
0.0000001
 44
0.0000000001
 12
0.2198208216
 22
0.0
 32
0.0
 13
0.0
 23
0.2198208216
 33
0.0
 40
0.0
 40
0.0
 40
0.0
 40
0.0
 40
0.348834729
 40
0.5082639312
 40
0.6505012695
 40
0.7714059718
 40
0.8685231017
 40
0.9424310414
 40
1.0
 40
1.0
 40
1.0
 40
1.0
 10
4.3
 20
23.8584094599
 30
0.0
 10
4.3255603789
 20
23.8584094599
 30
0.0
 10
4.362876549
 20
23.8605245511
 30
0.0
 10
4.4099677612
 20
23.8681255572
 30
0.0
 10
4.4400657656
 20
23.8755646813
 30
0.0
 10
4.4649578039
 20
23.8845825164
 30
0.0
 10
4.4837898601
 20
23.8949324517
 30
0.0
 10
4.4964174337
 20
23.9063796006
 30
0.0
 10
4.5
 20
23.9159945735
 30
0.0
 10
4.5
 20
23.9202128587
 30
0.0
 11
4.3
 21
23.8584094599
 31
0.0
 11
4.3765366865
 21
23.8631139635
 31
0.0
 11
4.4111140466
 21
23.8688252106
 31
0.0
 11
4.4414213562
 21
23.8765112563
 31
0.0
 11
4.4662939225
 21
23.88587673
 31
0.0
 11
4.4847759065
 21
23.8965617219
 31
0.0
 11
4.4961570561
 21
23.9081556138
 31
0.0
 11
4.5
 21
23.9202128587
 31
0.0
  0
SPLINE
  5
586
100
AcDbEntity
  8
RACCORDO
100
AcDbSpline
 62
7
  6
CONTINUOUS
 70
0
 71
3
 72
14
 73
10
 74
8
 42
0.0000001
 43
0.0000001
 44
0.0000000001
 12
0.0
 22
-0.2198208216
 32
0.0
 13
0.2198208216
 23
0.0
 33
0.0
 40
0.0
 40
0.0
 40
0.0
 40
0.0
 40
0.0575689586
 40
0.1314768983
 40
0.2285940282
 40
0.3494987305
 40
0.4917360688
 40
0.651165271
 40
1.0
 40
1.0
 40
1.0
 40
1.0
 10
-4.5
 20
23.9202128587
 30
0.0
 10
-4.5
 20
23.9159945735
 30
0.0
 10
-4.4964174337
 20
23.9063796006
 30
0.0
 10
-4.4837898601
 20
23.8949324517
 30
0.0
 10
-4.4649578039
 20
23.8845825164
 30
0.0
 10
-4.4400657656
 20
23.8755646813
 30
0.0
 10
-4.4099677612
 20
23.8681255572
 30
0.0
 10
-4.362876549
 20
23.8605245511
 30
0.0
 10
-4.3255603789
 20
23.8584094599
 30
0.0
 10
-4.3
 20
23.8584094599
 30
0.0
 11
-4.5
 21
23.9202128587
 31
0.0
 11
-4.4961570561
 21
23.9081556138
 31
0.0
 11
-4.4847759065
 21
23.8965617219
 31
0.0
 11
-4.4662939225
 21
23.88587673
 31
0.0
 11
-4.4414213562
 21
23.8765112563
 31
0.0
 11
-4.4111140466
 21
23.8688252106
 31
0.0
 11
-4.3765366865
 21
23.8631139635
 31
0.0
 11
-4.3
 21
23.8584094599
 31
0.0
  0
SPLINE
  5
587
100
AcDbEntity
  8
RACCORDO
100
AcDbSpline
 62
7
  6
CONTINUOUS
 70
0
 71
3
 72
14
 73
10
 74
8
 42
0.0000001
 43
0.0000001
 44
0.0000000001
 12
-0.2198208216
 22
0.0
 32
0.0
 13
-0.0
 23
-0.2198208216
 33
0.0
 40
0.0
 40
0.0
 40
0.0
 40
0.0
 40
0.348834729
 40
0.5082639312
 40
0.6505012695
 40
0.7714059718
 40
0.8685231017
 40
0.9424310414
 40
1.0
 40
1.0
 40
1.0
 40
1.0
 10
-4.3
 20
-23.8584094599
 30
0.0
 10
-4.3255603789
 20
-23.8584094599
 30
0.0
 10
-4.362876549
 20
-23.8605245511
 30
0.0
 10
-4.4099677612
 20
-23.8681255572
 30
0.0
 10
-4.4400657656
 20
-23.8755646813
 30
0.0
 10
-4.4649578039
 20
-23.8845825164
 30
0.0
 10
-4.4837898601
 20
-23.8949324517
 30
0.0
 10
-4.4964174337
 20
-23.9063796006
 30
0.0
 10
-4.5
 20
-23.9159945735
 30
0.0
 10
-4.5
 20
-23.9202128587
 30
0.0
 11
-4.3
 21
-23.8584094599
 31
0.0
 11
-4.3765366865
 21
-23.8631139635
 31
0.0
 11
-4.4111140466
 21
-23.8688252106
 31
0.0
 11
-4.4414213562
 21
-23.8765112563
 31
0.0
 11
-4.4662939225
 21
-23.88587673
 31
0.0
 11
-4.4847759065
 21
-23.8965617219
 31
0.0
 11
-4.4961570561
 21
-23.9081556138
 31
0.0
 11
-4.5
 21
-23.9202128587
 31
0.0
  0
SPLINE
  5
588
100
AcDbEntity
  8
RACCORDO
100
AcDbSpline
 62
7
  6
CONTINUOUS
 70
0
 71
3
 72
14
 73
10
 74
8
 42
0.0000001
 43
0.0000001
 44
0.0000000001
 12
0.0
 22
0.2198208216
 32
0.0
 13
-0.2198208216
 23
0.0
 33
0.0
 40
0.0
 40
0.0
 40
0.0
 40
0.0
 40
0.0575689586
 40
0.1314768983
 40
0.2285940282
 40
0.3494987305
 40
0.4917360688
 40
0.651165271
 40
1.0
 40
1.0
 40
1.0
 40
1.0
 10
4.5
 20
-23.9202128587
 30
0.0
 10
4.5
 20
-23.9159945735
 30
0.0
 10
4.4964174337
 20
-23.9063796006
 30
0.0
 10
4.4837898601
 20
-23.8949324517
 30
0.0
 10
4.4649578039
 20
-23.8845825164
 30
0.0
 10
4.4400657656
 20
-23.8755646813
 30
0.0
 10
4.4099677612
 20
-23.8681255572
 30
0.0
 10
4.362876549
 20
-23.8605245511
 30
0.0
 10
4.3255603789
 20
-23.8584094599
 30
0.0
 10
4.3
 20
-23.8584094599
 30
0.0
 11
4.5
 21
-23.9202128587
 31
0.0
 11
4.4961570561
 21
-23.9081556138
 31
0.0
 11
4.4847759065
 21
-23.8965617219
 31
0.0
 11
4.4662939225
 21
-23.88587673
 31
0.0
 11
4.4414213562
 21
-23.8765112563
 31
0.0
 11
4.4111140466
 21
-23.8688252106
 31
0.0
 11
4.3765366865
 21
-23.8631139635
 31
0.0
 11
4.3
 21
-23.8584094599
 31
0.0
  0
SPLINE
  5
589
100
AcDbEntity
  8
ASSI
100
AcDbSpline
 62
7
  6
CONTINUOUS
 70
0
 71
3
 72
15
 73
11
 74
9
 42
0.0000001
 43
0.0000001
 44
0.0000000001
 12
0.3925750085
 22
0.0
 32
0.0
 13
0.0
 23
-0.3925750085
 33
0.0
 40
0.0
 40
0.0
 40
0.0
 40
0.0
 40
0.1250024912
 40
0.2500027971
 40
0.3750032885
 40
0.5000033312
 40
0.6250029422
 40
0.7500021721
 40
0.8750004041
 40
1.0
 40
1.0
 40
1.0
 40
1.0
 10
7.7493848997
 20
23.25
 30
0.0
 10
7.7657425177
 20
23.25
 30
0.0
 10
7.79854749
 20
23.2467912059
 30
0.0
 10
7.8458112806
 20
23.2325172895
 30
0.0
 10
7.8894117002
 20
23.2093121664
 30
0.0
 10
7.9276462738
 20
23.1780510337
 30
0.0
 10
7.9590434938
 20
23.13992741
 30
0.0
 10
7.9823844338
 20
23.0963975423
 30
0.0
 10
7.9967628442
 20
23.0491627392
 30
0.0
 10
8.0
 20
23.0163572391
 30
0.0
 10
8.0
 20
23.0
 30
0.0
 11
7.7493848997
 21
23.25
 31
0.0
 11
7.7982238455
 21
23.245214357
 31
0.0
 11
7.8452007471
 21
23.2310287474
 31
0.0
 11
7.8885174533
 21
23.2079694561
 31
0.0
 11
7.9265067746
 21
23.1769072259
 31
0.0
 11
7.9577008293
 21
23.1390262943
 31
0.0
 11
7.9808907327
 21
23.0957799334
 31
0.0
 11
7.9951756985
 21
23.0488340001
 31
0.0
 11
8.0
 21
23.0
 31
0.0
  0
SPLINE
  5
58A
100
AcDbEntity
  8
ASSI
100
AcDbSpline
 62
7
  6
CONTINUOUS
 70
0
 71
3
 72
15
 73
11
 74
9
 42
0.0000001
 43
0.0000001
 44
0.0000000001
 12
0.0
 22
0.3925750085
 32
0.0
 13
0.3925750085
 23
0.0
 33
0.0
 40
0.0
 40
0.0
 40
0.0
 40
0.0
 40
0.1249996005
 40
0.2499978391
 40
0.3749970656
 40
0.4999966802
 40
0.6249967193
 40
0.749997214
 40
0.8749975134
 40
1.0
 40
1.0
 40
1.0
 40
1.0
 10
-8.0
 20
23.0
 30
0.0
 10
-8.0
 20
23.0163572397
 30
0.0
 10
-7.996762844
 20
23.0491627412
 30
0.0
 10
-7.9823844327
 20
23.0963975452
 30
0.0
 10
-7.9590434916
 20
23.1399274133
 30
0.0
 10
-7.9276462713
 20
23.1780510362
 30
0.0
 10
-7.8894116968
 20
23.2093121686
 30
0.0
 10
-7.8458112777
 20
23.2325172906
 30
0.0
 10
-7.7985474879
 20
23.2467912062
 30
0.0
 10
-7.7657425172
 20
23.25
 30
0.0
 10
-7.7493848997
 20
23.25
 30
0.0
 11
-8.0
 21
23.0
 31
0.0
 11
-7.9951756981
 21
23.0488340019
 31
0.0
 11
-7.980890731
 21
23.0957799375
 31
0.0
 11
-7.9577008276
 21
23.1390262969
 31
0.0
 11
-7.9265067714
 21
23.1769072291
 31
0.0
 11
-7.8885174508
 21
23.2079694577
 31
0.0
 11
-7.8452007431
 21
23.231028749
 31
0.0
 11
-7.7982238438
 21
23.2452143573
 31
0.0
 11
-7.7493848997
 21
23.25
 31
0.0
  0
SPLINE
  5
58B
100
AcDbEntity
  8
ASSI
100
AcDbSpline
 62
7
  6
CONTINUOUS
 70
0
 71
3
 72
15
 73
11
 74
9
 42
0.0000001
 43
0.0000001
 44
0.0000000001
 12
-0.3925750085
 22
0.0
 32
0.0
 13
-0.0
 23
0.3925750085
 33
0.0
 40
0.0
 40
0.0
 40
0.0
 40
0.0
 40
0.1250024912
 40
0.2500027971
 40
0.3750032885
 40
0.5000033312
 40
0.6250029422
 40
0.7500021721
 40
0.8750004041
 40
1.0
 40
1.0
 40
1.0
 40
1.0
 10
-7.7493848997
 20
-23.25
 30
0.0
 10
-7.7657425177
 20
-23.25
 30
0.0
 10
-7.79854749
 20
-23.2467912059
 30
0.0
 10
-7.8458112806
 20
-23.2325172895
 30
0.0
 10
-7.8894117002
 20
-23.2093121664
 30
0.0
 10
-7.9276462738
 20
-23.1780510337
 30
0.0
 10
-7.9590434938
 20
-23.13992741
 30
0.0
 10
-7.9823844338
 20
-23.0963975423
 30
0.0
 10
-7.9967628442
 20
-23.0491627392
 30
0.0
 10
-8.0
 20
-23.0163572391
 30
0.0
 10
-8.0
 20
-23.0
 30
0.0
 11
-7.7493848997
 21
-23.25
 31
0.0
 11
-7.7982238455
 21
-23.245214357
 31
0.0
 11
-7.8452007471
 21
-23.2310287474
 31
0.0
 11
-7.8885174533
 21
-23.2079694561
 31
0.0
 11
-7.9265067746
 21
-23.1769072259
 31
0.0
 11
-7.9577008293
 21
-23.1390262943
 31
0.0
 11
-7.9808907327
 21
-23.0957799334
 31
0.0
 11
-7.9951756985
 21
-23.0488340001
 31
0.0
 11
-8.0
 21
-23.0
 31
0.0
  0
SPLINE
  5
58C
100
AcDbEntity
  8
ASSI
100
AcDbSpline
 62
7
  6
CONTINUOUS
 70
0
 71
3
 72
15
 73
11
 74
9
 42
0.0000001
 43
0.0000001
 44
0.0000000001
 12
0.0
 22
-0.3925750085
 32
0.0
 13
-0.3925750085
 23
0.0
 33
0.0
 40
0.0
 40
0.0
 40
0.0
 40
0.0
 40
0.1249996005
 40
0.2499978391
 40
0.3749970656
 40
0.4999966802
 40
0.6249967193
 40
0.749997214
 40
0.8749975134
 40
1.0
 40
1.0
 40
1.0
 40
1.0
 10
8.0
 20
-23.0
 30
0.0
 10
8.0
 20
-23.0163572397
 30
0.0
 10
7.996762844
 20
-23.0491627412
 30
0.0
 10
7.9823844327
 20
-23.0963975452
 30
0.0
 10
7.9590434916
 20
-23.1399274133
 30
0.0
 10
7.9276462713
 20
-23.1780510362
 30
0.0
 10
7.8894116968
 20
-23.2093121686
 30
0.0
 10
7.8458112777
 20
-23.2325172906
 30
0.0
 10
7.7985474879
 20
-23.2467912062
 30
0.0
 10
7.7657425172
 20
-23.25
 30
0.0
 10
7.7493848997
 20
-23.25
 30
0.0
 11
8.0
 21
-23.0
 31
0.0
 11
7.9951756981
 21
-23.0488340019
 31
0.0
 11
7.980890731
 21
-23.0957799375
 31
0.0
 11
7.9577008276
 21
-23.1390262969
 31
0.0
 11
7.9265067714
 21
-23.1769072291
 31
0.0
 11
7.8885174508
 21
-23.2079694577
 31
0.0
 11
7.8452007431
 21
-23.231028749
 31
0.0
 11
7.7982238438
 21
-23.2452143573
 31
0.0
 11
7.7493848997
 21
-23.25
 31
0.0
  0
SPLINE
  5
58D
100
AcDbEntity
  8
ASSI
100
AcDbSpline
 62
253
  6
CONTINUOUS
 70
0
 71
3
 72
14
 73
10
 74
8
 42
0.0000001
 43
0.0000001
 44
0.0000000001
 12
-0.0350666622
 22
0.9447441899
 32
0.0
 13
-0.0002443334
 23
0.94539473
 33
0.0
 40
0.0
 40
0.0
 40
0.0
 40
0.0
 40
0.0459617846
 40
0.1204905291
 40
0.2214513762
 40
0.3459488215
 40
0.4904112451
 40
0.6506937488
 40
1.0
 40
1.0
 40
1.0
 40
1.0
 10
10.5601018597
 20
-17.7104283594
 30
0.0
 10
10.5595646176
 20
-17.6959543165
 30
0.0
 10
10.5588225239
 20
-17.6579881793
 30
0.0
 10
10.55785958
 20
-17.5882098813
 30
0.0
 10
10.5570043981
 20
-17.4936774235
 30
0.0
 10
10.5562315363
 20
-17.3771064934
 30
0.0
 10
10.5555973509
 20
-17.2418399825
 30
0.0
 10
10.5549350325
 20
-17.0357288538
 30
0.0
 10
10.554726783
 20
-16.8751412604
 30
0.0
 10
10.554698334
 20
-16.7650638307
 30
0.0
 11
10.5601018597
 21
-17.7104283594
 31
0.0
 11
10.5590302103
 21
-17.666989546
 31
0.0
 11
10.5580219171
 21
-17.5965376762
 31
0.0
 11
10.5571059209
 21
-17.5010942157
 31
0.0
 11
10.5563085058
 21
-17.3833976843
 31
0.0
 11
10.5556525554
 21
-17.2468252411
 31
0.0
 11
10.5551568946
 21
-17.0952958124
 31
0.0
 11
10.554698334
 21
-16.7650638307
 31
0.0
  0
SPLINE
  5
58E
100
AcDbEntity
  8
ASSI
100
AcDbSpline
 62
253
  6
CONTINUOUS
 70
0
 71
3
 72
14
 73
10
 74
8
 42
0.0000001
 43
0.0000001
 44
0.0000000001
 12
-0.0002443334
 22
-0.94539473
 32
0.0
 13
-0.0350666622
 23
-0.9447441899
 33
0.0
 40
0.0
 40
0.0
 40
0.0
 40
0.0
 40
0.3493062512
 40
0.5095887549
 40
0.6540511785
 40
0.7785486238
 40
0.8795094709
 40
0.9540382154
 40
1.0
 40
1.0
 40
1.0
 40
1.0
 10
-10.554698334
 20
-16.7650638307
 30
0.0
 10
-10.554726783
 20
-16.8751412604
 30
0.0
 10
-10.5549350325
 20
-17.0357288538
 30
0.0
 10
-10.5555973509
 20
-17.2418399825
 30
0.0
 10
-10.5562315363
 20
-17.3771064934
 30
0.0
 10
-10.5570043981
 20
-17.4936774235
 30
0.0
 10
-10.55785958
 20
-17.5882098813
 30
0.0
 10
-10.5588225239
 20
-17.6579881793
 30
0.0
 10
-10.5595646176
 20
-17.6959543165
 30
0.0
 10
-10.5601018597
 20
-17.7104283594
 30
0.0
 11
-10.554698334
 21
-16.7650638307
 31
0.0
 11
-10.5551568946
 21
-17.0952958124
 31
0.0
 11
-10.5556525554
 21
-17.2468252411
 31
0.0
 11
-10.5563085058
 21
-17.3833976843
 31
0.0
 11
-10.5571059209
 21
-17.5010942157
 31
0.0
 11
-10.5580219171
 21
-17.5965376762
 31
0.0
 11
-10.5590302103
 21
-17.666989546
 31
0.0
 11
-10.5601018597
 21
-17.7104283594
 31
0.0
  0
SPLINE
  5
58F
100
AcDbEntity
  8
ASSI
100
AcDbSpline
 62
253
  6
CONTINUOUS
 70
0
 71
3
 72
39
 73
35
 74
33
 42
0.0000001
 43
0.0000001
 44
0.0000000001
 12
-24.7691420875
 22
0.000026626
 32
0.0
 13
24.7691420875
 23
0.0000293234
 33
0.0
 40
0.0
 40
0.0
 40
0.0
 40
0.0
 40
0.0312505841
 40
0.0625010822
 40
0.0937513982
 40
0.1250014787
 40
0.1562513068
 40
0.1875009032
 40
0.2187503267
 40
0.2499996631
 40
0.2812490131
 40
0.3124984754
 40
0.3437481347
 40
0.3749980481
 40
0.4062482302
 40
0.4374986598
 40
0.4687492788
 40
0.4999999999
 40
0.531250721
 40
0.5625013401
 40
0.5937517697
 40
0.6250019517
 40
0.6562518652
 40
0.6875015245
 40
0.7187509868
 40
0.7500003368
 40
0.7812496732
 40
0.8124990967
 40
0.8437486931
 40
0.8749985212
 40
0.9062486017
 40
0.9374989177
 40
0.9687494158
 40
1.0
 40
1.0
 40
1.0
 40
1.0
 10
-0.0
 20
-7.894539233
 30
0.0
 10
-0.2580167195
 20
-7.8945389556
 30
0.0
 10
-0.7744099706
 20
-7.8691085105
 30
0.0
 10
-1.5412101461
 20
-7.7550432453
 30
0.0
 10
-2.2931636454
 20
-7.5661766201
 30
0.0
 10
-3.0228992268
 20
-7.3043564483
 30
0.0
 10
-3.7233948063
 20
-6.9721410072
 30
0.0
 10
-4.3878886706
 20
-6.5727704774
 30
0.0
 10
-5.0099874516
 20
-6.1101320536
 30
0.0
 10
-5.5837156797
 20
-5.5887187812
 30
0.0
 10
-6.1035745973
 20
-5.0135830942
 30
0.0
 10
-6.5645917346
 20
-4.390285668
 30
0.0
 10
-6.9623658991
 20
-3.72484029
 30
0.0
 10
-7.2931061381
 20
-3.0236553726
 30
0.0
 10
-7.5536650101
 20
-2.2934725651
 30
0.0
 10
-7.741565921
 20
-1.5413030039
 30
0.0
 10
-7.8550245221
 20
-0.7743616106
 30
0.0
 10
-7.8929640402
 20
-0.0000000021
 30
0.0
 10
-7.8550245225
 20
0.7743616064
 30
0.0
 10
-7.7415659218
 20
1.5413029997
 30
0.0
 10
-7.5536650112
 20
2.2934725609
 30
0.0
 10
-7.2931061394
 20
3.0236553688
 30
0.0
 10
-6.9623659006
 20
3.7248402867
 30
0.0
 10
-6.5645917361
 20
4.3902856651
 30
0.0
 10
-6.103574599
 20
5.0135830916
 30
0.0
 10
-5.5837156816
 20
5.5887187787
 30
0.0
 10
-5.0099874536
 20
6.1101320513
 30
0.0
 10
-4.3878886728
 20
6.5727704753
 30
0.0
 10
-3.7233948087
 20
6.9721410053
 30
0.0
 10
-3.0228992292
 20
7.3043564464
 30
0.0
 10
-2.293163648
 20
7.5661766194
 30
0.0
 10
-1.5412101488
 20
7.7550432412
 30
0.0
 10
-0.7744099721
 20
7.8691085192
 30
0.0
 10
-0.2580167203
 20
7.8945389275
 30
0.0
 10
0.0
 20
7.894539233
 30
0.0
 11
-0.0
 21
-7.894539233
 31
0.0
 11
-0.7731127013
 21
-7.8564551287
 31
0.0
 11
-1.5387378526
 21
-7.7425759123
 31
0.0
 11
-2.2894634019
 21
-7.5540168564
 31
0.0
 11
-3.0180287328
 21
-7.2926227242
 31
0.0
 11
-3.7173970067
 21
-6.960947166
 31
0.0
 11
-4.3808245776
 21
-6.5622246649
 31
0.0
 11
-5.0019265181
 21
-6.1003355827
 31
0.0
 11
-5.5747373537
 21
-5.5797651724
 31
0.0
 11
-6.0937667748
 21
-5.0055572069
 31
0.0
 11
-6.5540499149
 21
-4.3832630139
 31
0.0
 11
-6.9511921288
 21
-3.7188864294
 31
0.0
 11
-7.2814079911
 21
-3.0188254217
 31
0.0
 11
-7.5415544716
 21
-2.289810991
 31
0.0
 11
-7.7291584109
 21
-1.5388432929
 31
0.0
 11
-7.8424378739
 21
-0.7731261454
 31
0.0
 11
-7.8803175205
 21
-0.0000000021
 31
0.0
 11
-7.8424378743
 21
0.7731261411
 31
0.0
 11
-7.7291584116
 21
1.5388432887
 31
0.0
 11
-7.5415544726
 21
2.2898109868
 31
0.0
 11
-7.2814079925
 21
3.0188254176
 31
0.0
 11
-6.9511921301
 21
3.7188864262
 31
0.0
 11
-6.5540499163
 21
4.3832630112
 31
0.0
 11
-6.0937667765
 21
5.0055572042
 31
0.0
 11
-5.5747373556
 21
5.5797651699
 31
0.0
 11
-5.0019265201
 21
6.1003355804
 31
0.0
 11
-4.3808245798
 21
6.5622246627
 31
0.0
 11
-3.717397009
 21
6.9609471641
 31
0.0
 11
-3.0180287353
 21
7.2926227225
 31
0.0
 11
-2.2894634042
 21
7.554016855
 31
0.0
 11
-1.5387378555
 21
7.7425759108
 31
0.0
 11
-0.7731127036
 21
7.856455126
 31
0.0
 11
0.0
 21
7.894539233
 31
0.0
  0
SPLINE
  5
590
100
AcDbEntity
  8
ASSI
100
AcDbSpline
 62
253
  6
CONTINUOUS
 70
0
 71
3
 72
9
 73
5
 74
3
 42
0.0000001
 43
0.0000001
 44
0.0000000001
 12
0.0115449624
 22
-33.5301260463
 32
0.0
 13
-0.0115449624
 23
-33.5301260463
 33
0.0
 40
0.0
 40
0.0
 40
0.0
 40
0.0
 40
0.2499513372
 40
1.0
 40
1.0
 40
1.0
 40
1.0
 10
-10.5546983347
 20
16.7650638307
 30
0.0
 10
-10.5537364418
 20
13.9714305496
 30
0.0
 10
-10.5508516997
 20
2.7947215567
 30
0.0
 10
-10.5518119068
 20
-8.3819884297
 30
0.0
 10
-10.5546983347
 20
-16.7650638307
 30
0.0
 11
-10.5546983347
 21
16.7650638307
 31
0.0
 11
-10.5525345672
 21
8.3841637699
 31
0.0
 11
-10.5546983347
 21
-16.7650638307
 31
0.0
  0
SPLINE
  5
591
100
AcDbEntity
  8
ASSI
100
AcDbSpline
 62
253
  6
CONTINUOUS
 70
0
 71
3
 72
9
 73
5
 74
3
 42
0.0000001
 43
0.0000001
 44
0.0000000001
 12
-0.0115449624
 22
33.5301260463
 32
0.0
 13
0.0115449624
 23
33.5301260463
 33
0.0
 40
0.0
 40
0.0
 40
0.0
 40
0.0
 40
0.2499513372
 40
1.0
 40
1.0
 40
1.0
 40
1.0
 10
10.5546983347
 20
-16.7650638307
 30
0.0
 10
10.5537364418
 20
-13.9714305496
 30
0.0
 10
10.5508516997
 20
-2.7947215567
 30
0.0
 10
10.5518119068
 20
8.3819884297
 30
0.0
 10
10.5546983347
 20
16.7650638307
 30
0.0
 11
10.5546983347
 21
-16.7650638307
 31
0.0
 11
10.5525345672
 21
-8.3841637699
 31
0.0
 11
10.5546983347
 21
16.7650638307
 31
0.0
  0
SPLINE
  5
592
100
AcDbEntity
  8
ASSI
100
AcDbSpline
 62
253
  6
CONTINUOUS
 70
0
 71
3
 72
39
 73
35
 74
33
 42
0.0000001
 43
0.0000001
 44
0.0000000001
 12
24.7691420875
 22
-0.000026626
 32
0.0
 13
-24.7691420875
 23
-0.0000293234
 33
0.0
 40
0.0
 40
0.0
 40
0.0
 40
0.0
 40
0.0312505841
 40
0.0625010822
 40
0.0937513982
 40
0.1250014787
 40
0.1562513068
 40
0.1875009032
 40
0.2187503267
 40
0.2499996631
 40
0.2812490131
 40
0.3124984754
 40
0.3437481347
 40
0.3749980481
 40
0.4062482302
 40
0.4374986598
 40
0.4687492788
 40
0.4999999999
 40
0.531250721
 40
0.5625013401
 40
0.5937517697
 40
0.6250019517
 40
0.6562518652
 40
0.6875015245
 40
0.7187509868
 40
0.7500003368
 40
0.7812496732
 40
0.8124990967
 40
0.8437486931
 40
0.8749985212
 40
0.9062486017
 40
0.9374989177
 40
0.9687494158
 40
1.0
 40
1.0
 40
1.0
 40
1.0
 10
0.0
 20
7.894539233
 30
0.0
 10
0.2580167195
 20
7.8945389556
 30
0.0
 10
0.7744099706
 20
7.8691085105
 30
0.0
 10
1.5412101461
 20
7.7550432453
 30
0.0
 10
2.2931636454
 20
7.5661766201
 30
0.0
 10
3.0228992268
 20
7.3043564483
 30
0.0
 10
3.7233948063
 20
6.9721410072
 30
0.0
 10
4.3878886706
 20
6.5727704774
 30
0.0
 10
5.0099874516
 20
6.1101320536
 30
0.0
 10
5.5837156797
 20
5.5887187812
 30
0.0
 10
6.1035745973
 20
5.0135830942
 30
0.0
 10
6.5645917346
 20
4.390285668
 30
0.0
 10
6.9623658991
 20
3.7248402901
 30
0.0
 10
7.293106138
 20
3.0236553728
 30
0.0
 10
7.55366501
 20
2.2934725654
 30
0.0
 10
7.741565921
 20
1.5413030042
 30
0.0
 10
7.8550245221
 20
0.7743616109
 30
0.0
 10
7.8929640402
 20
0.0000000024
 30
0.0
 10
7.8550245225
 20
-0.7743616061
 30
0.0
 10
7.7415659218
 20
-1.5413029994
 30
0.0
 10
7.5536650112
 20
-2.2934725607
 30
0.0
 10
7.2931061395
 20
-3.0236553686
 30
0.0
 10
6.9623659006
 20
-3.7248402866
 30
0.0
 10
6.5645917362
 20
-4.3902856651
 30
0.0
 10
6.103574599
 20
-5.0135830916
 30
0.0
 10
5.5837156816
 20
-5.5887187787
 30
0.0
 10
5.0099874536
 20
-6.1101320513
 30
0.0
 10
4.3878886728
 20
-6.5727704753
 30
0.0
 10
3.7233948087
 20
-6.9721410053
 30
0.0
 10
3.0228992292
 20
-7.3043564464
 30
0.0
 10
2.293163648
 20
-7.5661766194
 30
0.0
 10
1.5412101488
 20
-7.7550432412
 30
0.0
 10
0.7744099721
 20
-7.8691085192
 30
0.0
 10
0.2580167203
 20
-7.8945389275
 30
0.0
 10
-0.0
 20
-7.894539233
 30
0.0
 11
0.0
 21
7.894539233
 31
0.0
 11
0.7731127013
 21
7.8564551287
 31
0.0
 11
1.5387378526
 21
7.7425759123
 31
0.0
 11
2.2894634019
 21
7.5540168564
 31
0.0
 11
3.0180287328
 21
7.2926227242
 31
0.0
 11
3.7173970067
 21
6.960947166
 31
0.0
 11
4.3808245776
 21
6.5622246649
 31
0.0
 11
5.0019265181
 21
6.1003355827
 31
0.0
 11
5.5747373537
 21
5.5797651724
 31
0.0
 11
6.0937667748
 21
5.0055572069
 31
0.0
 11
6.5540499149
 21
4.3832630139
 31
0.0
 11
6.9511921287
 21
3.7188864295
 31
0.0
 11
7.281407991
 21
3.018825422
 31
0.0
 11
7.5415544715
 21
2.2898109913
 31
0.0
 11
7.7291584108
 21
1.5388432932
 31
0.0
 11
7.8424378739
 21
0.7731261456
 31
0.0
 11
7.8803175205
 21
0.0000000024
 31
0.0
 11
7.8424378743
 21
-0.7731261408
 31
0.0
 11
7.7291584116
 21
-1.5388432885
 31
0.0
 11
7.5415544727
 21
-2.2898109865
 31
0.0
 11
7.2814079926
 21
-3.0188254174
 31
0.0
 11
6.9511921302
 21
-3.7188864262
 31
0.0
 11
6.5540499163
 21
-4.3832630112
 31
0.0
 11
6.0937667765
 21
-5.0055572043
 31
0.0
 11
5.5747373556
 21
-5.5797651699
 31
0.0
 11
5.0019265201
 21
-6.1003355804
 31
0.0
 11
4.3808245798
 21
-6.5622246627
 31
0.0
 11
3.717397009
 21
-6.9609471641
 31
0.0
 11
3.0180287353
 21
-7.2926227225
 31
0.0
 11
2.2894634042
 21
-7.554016855
 31
0.0
 11
1.5387378555
 21
-7.7425759108
 31
0.0
 11
0.7731127036
 21
-7.856455126
 31
0.0
 11
-0.0
 21
-7.894539233
 31
0.0
  0
LINE
  5
593
100
AcDbEntity
  8
ASSI
100
AcDbLine
 62
7
  6
CONTINUOUS
 10
7.1728028135
 20
-23.0
 11
7.1728028135
 21
-23.25
  0
LINE
  5
594
100
AcDbEntity
  8
ASSI
100
AcDbLine
 62
7
  6
CONTINUOUS
 10
-7.1728028135
 20
-23.0
 11
-7.1728028135
 21
-23.25
  0
SPLINE
  5
595
100
AcDbEntity
  8
ASSI
100
AcDbSpline
 62
253
  6
CONTINUOUS
 70
0
 71
3
 72
39
 73
35
 74
33
 42
0.0000001
 43
0.0000001
 44
0.0000000001
 12
-22.2336347091
 22
0.0000119729
 32
0.0
 13
22.2336347091
 23
0.0000131925
 33
0.0
 40
0.0
 40
0.0
 40
0.0
 40
0.0
 40
0.0312507989
 40
0.0625014856
 40
0.0937519428
 40
0.1250021013
 40
0.1562519377
 40
0.1875014755
 40
0.2187507854
 40
0.2499999724
 40
0.2812491604
 40
0.3124984723
 40
0.3437480137
 40
0.3749978568
 40
0.4062480228
 40
0.4374984876
 40
0.4687491818
 40
0.4999999999
 40
0.531250818
 40
0.5625015123
 40
0.5937519771
 40
0.625002143
 40
0.6562519862
 40
0.6875015276
 40
0.7187508394
 40
0.7500000275
 40
0.7812492144
 40
0.8124985243
 40
0.8437480622
 40
0.8749978986
 40
0.9062480571
 40
0.9374985143
 40
0.968749201
 40
1.0
 40
1.0
 40
1.0
 40
1.0
 10
0.0
 20
-7.0797093854
 30
0.0
 10
-0.2316062823
 20
-7.0797092607
 30
0.0
 10
-0.6951398254
 20
-7.0569467087
 30
0.0
 10
-1.3834866681
 20
-6.9548432723
 30
0.0
 10
-2.05857728
 20
-6.7857647067
 30
0.0
 10
-2.7138224854
 20
-6.5513400132
 30
0.0
 10
-3.3429364817
 20
-6.2538273475
 30
0.0
 10
-3.9398560766
 20
-5.8960916669
 30
0.0
 10
-4.4988364933
 20
-5.4815769167
 30
0.0
 10
-5.0144960538
 20
-5.0142727842
 30
0.0
 10
-5.4818701504
 20
-4.4986765107
 30
0.0
 10
-5.8964579059
 20
-3.9397500343
 30
0.0
 10
-6.2542655022
 20
-3.3428728221
 30
0.0
 10
-6.5518446478
 20
-2.7137907466
 30
0.0
 10
-6.786326187
 20
-2.0585612868
 30
0.0
 10
-6.9554483082
 20
-1.3834955013
 30
0.0
 10
-7.0575790222
 20
-0.6950972029
 30
0.0
 10
-7.0917325009
 20
-0.0000000018
 30
0.0
 10
-7.0575790226
 20
0.6950971993
 30
0.0
 10
-6.9554483089
 20
1.3834954977
 30
0.0
 10
-6.786326188
 20
2.0585612833
 30
0.0
 10
-6.5518446491
 20
2.7137907434
 30
0.0
 10
-6.2542655037
 20
3.3428728194
 30
0.0
 10
-5.8964579074
 20
3.939750032
 30
0.0
 10
-5.4818701521
 20
4.4986765087
 30
0.0
 10
-5.0144960557
 20
5.0142727822
 30
0.0
 10
-4.4988364954
 20
5.481576915
 30
0.0
 10
-3.9398560788
 20
5.8960916653
 30
0.0
 10
-3.3429364841
 20
6.2538273463
 30
0.0
 10
-2.7138224878
 20
6.551340012
 30
0.0
 10
-2.0585772826
 20
6.7857647063
 30
0.0
 10
-1.3834866708
 20
6.9548432702
 30
0.0
 10
-0.6951398272
 20
7.0569467145
 30
0.0
 10
-0.2316062832
 20
7.079709248
 30
0.0
 10
-0.0
 20
7.0797093854
 30
0.0
 11
0.0
 21
-7.0797093854
 31
0.0
 11
-0.6939820907
 21
-7.0456199739
 31
0.0
 11
-1.3812797392
 21
-6.9436802534
 31
0.0
 11
-2.0552728353
 21
-6.7748727323
 31
0.0
 11
-2.7094705399
 21
-6.5408240026
 31
0.0
 11
-3.3375736281
 21
-6.2437886457
 31
0.0
 11
-3.9335349584
 21
-5.886627113
 31
0.0
 11
-4.4916173983
 21
-5.4727778445
 31
0.0
 11
-5.0064484796
 21
-5.006224112
 31
0.0
 11
-5.4730715775
 21
-4.491455867
 31
0.0
 11
-5.8869931595
 21
-3.933427006
 31
0.0
 11
-6.2442258798
 21
-3.3375082513
 31
0.0
 11
-6.5413270272
 21
-2.7094361142
 31
0.0
 11
-6.7754319965
 21
-2.0552583577
 31
0.0
 11
-6.9442825741
 21
-1.3812758726
 31
0.0
 11
-7.0462493363
 21
-0.6939820664
 31
0.0
 11
-7.080347993
 21
-0.0000000018
 31
0.0
 11
-7.0462493367
 21
0.6939820628
 31
0.0
 11
-6.9442825748
 21
1.381275869
 31
0.0
 11
-6.7754319976
 21
2.0552583542
 31
0.0
 11
-6.5413270286
 21
2.7094361108
 31
0.0
 11
-6.2442258812
 21
3.3375082487
 31
0.0
 11
-5.8869931609
 21
3.9334270038
 31
0.0
 11
-5.4730715792
 21
4.4914558649
 31
0.0
 11
-5.0064484815
 21
5.0062241101
 31
0.0
 11
-4.4916174004
 21
5.4727778428
 31
0.0
 11
-3.9335349606
 21
5.8866271115
 31
0.0
 11
-3.3375736305
 21
6.2437886444
 31
0.0
 11
-2.7094705424
 21
6.5408240016
 31
0.0
 11
-2.0552728377
 21
6.7748727315
 31
0.0
 11
-1.3812797421
 21
6.9436802528
 31
0.0
 11
-0.6939820933
 21
7.0456199737
 31
0.0
 11
-0.0
 21
7.0797093854
 31
0.0
  0
SPLINE
  5
596
100
AcDbEntity
  8
ASSI
100
AcDbSpline
 62
253
  6
CONTINUOUS
 70
0
 71
3
 72
39
 73
35
 74
33
 42
0.0000001
 43
0.0000001
 44
0.0000000001
 12
22.2336347091
 22
-0.0000119729
 32
0.0
 13
-22.2336347091
 23
-0.0000131925
 33
0.0
 40
0.0
 40
0.0
 40
0.0
 40
0.0
 40
0.0312507989
 40
0.0625014856
 40
0.0937519428
 40
0.1250021013
 40
0.1562519377
 40
0.1875014755
 40
0.2187507854
 40
0.2499999724
 40
0.2812491604
 40
0.3124984723
 40
0.3437480137
 40
0.3749978568
 40
0.4062480227
 40
0.4374984875
 40
0.4687491818
 40
0.4999999999
 40
0.531250818
 40
0.5625015123
 40
0.5937519771
 40
0.625002143
 40
0.6562519862
 40
0.6875015276
 40
0.7187508394
 40
0.7500000275
 40
0.7812492144
 40
0.8124985243
 40
0.8437480622
 40
0.8749978986
 40
0.9062480571
 40
0.9374985143
 40
0.968749201
 40
1.0
 40
1.0
 40
1.0
 40
1.0
 10
0.0
 20
7.0797093854
 30
0.0
 10
0.2316062823
 20
7.0797092607
 30
0.0
 10
0.6951398254
 20
7.0569467087
 30
0.0
 10
1.3834866681
 20
6.9548432723
 30
0.0
 10
2.05857728
 20
6.7857647067
 30
0.0
 10
2.7138224854
 20
6.5513400132
 30
0.0
 10
3.3429364817
 20
6.2538273475
 30
0.0
 10
3.9398560766
 20
5.8960916669
 30
0.0
 10
4.4988364933
 20
5.4815769167
 30
0.0
 10
5.0144960538
 20
5.0142727842
 30
0.0
 10
5.4818701504
 20
4.4986765107
 30
0.0
 10
5.8964579059
 20
3.9397500344
 30
0.0
 10
6.2542655022
 20
3.3428728222
 30
0.0
 10
6.5518446477
 20
2.7137907467
 30
0.0
 10
6.7863261869
 20
2.0585612871
 30
0.0
 10
6.9554483081
 20
1.3834955015
 30
0.0
 10
7.0575790222
 20
0.6950972032
 30
0.0
 10
7.0917325009
 20
0.0000000021
 30
0.0
 10
7.0575790226
 20
-0.6950971991
 30
0.0
 10
6.9554483089
 20
-1.3834954975
 30
0.0
 10
6.7863261881
 20
-2.0585612831
 30
0.0
 10
6.5518446492
 20
-2.7137907432
 30
0.0
 10
6.2542655037
 20
-3.3428728193
 30
0.0
 10
5.8964579074
 20
-3.939750032
 30
0.0
 10
5.4818701521
 20
-4.4986765087
 30
0.0
 10
5.0144960557
 20
-5.0142727822
 30
0.0
 10
4.4988364954
 20
-5.481576915
 30
0.0
 10
3.9398560788
 20
-5.8960916653
 30
0.0
 10
3.3429364841
 20
-6.2538273463
 30
0.0
 10
2.7138224878
 20
-6.551340012
 30
0.0
 10
2.0585772826
 20
-6.7857647063
 30
0.0
 10
1.3834866708
 20
-6.9548432702
 30
0.0
 10
0.6951398272
 20
-7.0569467145
 30
0.0
 10
0.2316062832
 20
-7.079709248
 30
0.0
 10
0.0
 20
-7.0797093854
 30
0.0
 11
0.0
 21
7.0797093854
 31
0.0
 11
0.6939820907
 21
7.0456199739
 31
0.0
 11
1.3812797392
 21
6.9436802534
 31
0.0
 11
2.0552728353
 21
6.7748727323
 31
0.0
 11
2.7094705399
 21
6.5408240026
 31
0.0
 11
3.3375736281
 21
6.2437886456
 31
0.0
 11
3.9335349584
 21
5.886627113
 31
0.0
 11
4.4916173983
 21
5.4727778445
 31
0.0
 11
5.0064484796
 21
5.006224112
 31
0.0
 11
5.4730715775
 21
4.491455867
 31
0.0
 11
5.8869931595
 21
3.933427006
 31
0.0
 11
6.2442258798
 21
3.3375082513
 31
0.0
 11
6.5413270271
 21
2.7094361145
 31
0.0
 11
6.7754319965
 21
2.055258358
 31
0.0
 11
6.944282574
 21
1.3812758728
 31
0.0
 11
7.0462493363
 21
0.6939820666
 31
0.0
 11
7.080347993
 21
0.0000000021
 31
0.0
 11
7.0462493367
 21
-0.6939820625
 31
0.0
 11
6.9442825748
 21
-1.3812758688
 31
0.0
 11
6.7754319977
 21
-2.0552583539
 31
0.0
 11
6.5413270287
 21
-2.7094361106
 31
0.0
 11
6.2442258812
 21
-3.3375082486
 31
0.0
 11
5.8869931609
 21
-3.9334270038
 31
0.0
 11
5.4730715792
 21
-4.4914558649
 31
0.0
 11
5.0064484815
 21
-5.0062241101
 31
0.0
 11
4.4916174004
 21
-5.4727778428
 31
0.0
 11
3.9335349606
 21
-5.8866271115
 31
0.0
 11
3.3375736305
 21
-6.2437886444
 31
0.0
 11
2.7094705424
 21
-6.5408240016
 31
0.0
 11
2.0552728377
 21
-6.7748727315
 31
0.0
 11
1.3812797421
 21
-6.9436802528
 31
0.0
 11
0.6939820933
 21
-7.0456199737
 31
0.0
 11
0.0
 21
-7.0797093854
 31
0.0
  0
SPLINE
  5
597
100
AcDbEntity
  8
ASSI
100
AcDbSpline
 62
253
  6
CONTINUOUS
 70
0
 71
3
 72
14
 73
10
 74
8
 42
0.0000001
 43
0.0000001
 44
0.0000000001
 12
0.0002443321
 22
0.7090606673
 32
0.0
 13
0.0350487912
 23
0.7081939507
 33
0.0
 40
0.0
 40
0.0
 40
0.0
 40
0.0
 40
0.3492996167
 40
0.509579042
 40
0.6540389288
 40
0.7785349139
 40
0.8794961745
 40
0.9540284905
 40
1.0
 40
1.0
 40
1.0
 40
1.0
 10
10.8046888165
 20
16.7552054488
 30
0.0
 10
10.8047172649
 20
16.8377636552
 30
0.0
 10
10.8049255233
 20
16.9582045878
 30
0.0
 10
10.8055878445
 20
17.1127876139
 30
0.0
 10
10.8062220381
 20
17.2142371493
 30
0.0
 10
10.8069948849
 20
17.3016646886
 30
0.0
 10
10.8078501146
 20
17.3725643789
 30
0.0
 10
10.8088129823
 20
17.4248977472
 30
0.0
 10
10.8095552375
 20
17.4533736024
 30
0.0
 10
10.8100923194
 20
17.4642258507
 30
0.0
 11
10.8046888165
 21
16.7552054488
 31
0.0
 11
10.8051473855
 21
17.0028796583
 31
0.0
 11
10.8056430497
 21
17.1165264203
 31
0.0
 11
10.806299001
 21
17.2189551498
 31
0.0
 11
10.807096413
 21
17.3072267596
 31
0.0
 11
10.8080124015
 21
17.3788085622
 31
0.0
 11
10.8090206819
 21
17.4316468798
 31
0.0
 11
10.8100923194
 21
17.4642258507
 31
0.0
  0
SPLINE
  5
598
100
AcDbEntity
  8
ASSI
100
AcDbSpline
 62
253
  6
CONTINUOUS
 70
0
 71
3
 72
9
 73
5
 74
3
 42
0.0000001
 43
0.0000001
 44
0.0000000001
 12
-0.0115449648
 22
33.5104092814
 32
0.0
 13
0.0115449648
 23
33.5104092814
 33
0.0
 40
0.0
 40
0.0
 40
0.0
 40
0.0
 40
0.2499513372
 40
1.0
 40
1.0
 40
1.0
 40
1.0
 10
10.8046888165
 20
-16.7552054488
 30
0.0
 10
10.8037269234
 20
-13.9632149118
 30
0.0
 10
10.8008421798
 20
-2.7930781736
 30
0.0
 10
10.801802388
 20
8.3770595586
 30
0.0
 10
10.8046888165
 20
16.7552054488
 30
0.0
 11
10.8046888165
 21
-16.7552054488
 31
0.0
 11
10.8025250483
 21
-8.3792336202
 31
0.0
 11
10.8046888165
 21
16.7552054488
 31
0.0
  0
SPLINE
  5
599
100
AcDbEntity
  8
ASSI
100
AcDbSpline
 62
253
  6
CONTINUOUS
 70
0
 71
3
 72
14
 73
10
 74
8
 42
0.0000001
 43
0.0000001
 44
0.0000000001
 12
-0.0350487912
 22
0.7081939507
 32
0.0
 13
-0.0002443321
 23
0.7090606673
 33
0.0
 40
0.0
 40
0.0
 40
0.0
 40
0.0
 40
0.0459715095
 40
0.1205038255
 40
0.2214650861
 40
0.3459610712
 40
0.490420958
 40
0.6507003833
 40
1.0
 40
1.0
 40
1.0
 40
1.0
 10
10.8100923194
 20
-17.4642258507
 30
0.0
 10
10.8095552375
 20
-17.4533736024
 30
0.0
 10
10.8088129823
 20
-17.4248977472
 30
0.0
 10
10.8078501146
 20
-17.3725643789
 30
0.0
 10
10.8069948849
 20
-17.3016646886
 30
0.0
 10
10.8062220381
 20
-17.2142371493
 30
0.0
 10
10.8055878445
 20
-17.1127876139
 30
0.0
 10
10.8049255233
 20
-16.9582045878
 30
0.0
 10
10.8047172649
 20
-16.8377636552
 30
0.0
 10
10.8046888165
 20
-16.7552054488
 30
0.0
 11
10.8100923194
 21
-17.4642258507
 31
0.0
 11
10.8090206819
 21
-17.4316468798
 31
0.0
 11
10.8080124015
 21
-17.3788085622
 31
0.0
 11
10.807096413
 21
-17.3072267596
 31
0.0
 11
10.806299001
 21
-17.2189551498
 31
0.0
 11
10.8056430497
 21
-17.1165264203
 31
0.0
 11
10.8051473855
 21
-17.0028796582
 31
0.0
 11
10.8046888165
 21
-16.7552054488
 31
0.0
  0
LINE
  5
59A
100
AcDbEntity
  8
ASSI
100
AcDbLine
 62
7
  6
CONTINUOUS
 10
-7.1728028135
 20
23.0
 11
-7.1728028135
 21
23.25
  0
SPLINE
  5
59B
100
AcDbEntity
  8
ASSI
100
AcDbSpline
 62
253
  6
CONTINUOUS
 70
0
 71
3
 72
14
 73
10
 74
8
 42
0.0000001
 43
0.0000001
 44
0.0000000001
 12
-0.0002443321
 22
-0.7090606673
 32
0.0
 13
-0.0350487912
 23
-0.7081939507
 33
0.0
 40
0.0
 40
0.0
 40
0.0
 40
0.0
 40
0.3492996167
 40
0.509579042
 40
0.6540389288
 40
0.7785349139
 40
0.8794961745
 40
0.9540284905
 40
1.0
 40
1.0
 40
1.0
 40
1.0
 10
-10.8046888165
 20
-16.7552054488
 30
0.0
 10
-10.8047172649
 20
-16.8377636552
 30
0.0
 10
-10.8049255233
 20
-16.9582045878
 30
0.0
 10
-10.8055878445
 20
-17.1127876139
 30
0.0
 10
-10.8062220381
 20
-17.2142371493
 30
0.0
 10
-10.8069948849
 20
-17.3016646886
 30
0.0
 10
-10.8078501146
 20
-17.3725643789
 30
0.0
 10
-10.8088129823
 20
-17.4248977472
 30
0.0
 10
-10.8095552375
 20
-17.4533736024
 30
0.0
 10
-10.8100923194
 20
-17.4642258507
 30
0.0
 11
-10.8046888165
 21
-16.7552054488
 31
0.0
 11
-10.8051473855
 21
-17.0028796582
 31
0.0
 11
-10.8056430497
 21
-17.1165264203
 31
0.0
 11
-10.806299001
 21
-17.2189551498
 31
0.0
 11
-10.807096413
 21
-17.3072267596
 31
0.0
 11
-10.8080124015
 21
-17.3788085622
 31
0.0
 11
-10.8090206819
 21
-17.4316468798
 31
0.0
 11
-10.8100923194
 21
-17.4642258507
 31
0.0
  0
SPLINE
  5
59C
100
AcDbEntity
  8
ASSI
100
AcDbSpline
 62
253
  6
CONTINUOUS
 70
0
 71
3
 72
9
 73
5
 74
3
 42
0.0000001
 43
0.0000001
 44
0.0000000001
 12
0.0115449648
 22
-33.5104092814
 32
0.0
 13
-0.0115449648
 23
-33.5104092814
 33
0.0
 40
0.0
 40
0.0
 40
0.0
 40
0.0
 40
0.2499513372
 40
1.0
 40
1.0
 40
1.0
 40
1.0
 10
-10.8046888165
 20
16.7552054488
 30
0.0
 10
-10.8037269234
 20
13.9632149118
 30
0.0
 10
-10.8008421798
 20
2.7930781736
 30
0.0
 10
-10.801802388
 20
-8.3770595586
 30
0.0
 10
-10.8046888165
 20
-16.7552054488
 30
0.0
 11
-10.8046888165
 21
16.7552054488
 31
0.0
 11
-10.8025250483
 21
8.3792336202
 31
0.0
 11
-10.8046888165
 21
-16.7552054488
 31
0.0
  0
SPLINE
  5
59D
100
AcDbEntity
  8
ASSI
100
AcDbSpline
 62
253
  6
CONTINUOUS
 70
0
 71
3
 72
14
 73
10
 74
8
 42
0.0000001
 43
0.0000001
 44
0.0000000001
 12
0.0350487912
 22
-0.7081939507
 32
0.0
 13
0.0002443321
 23
-0.7090606673
 33
0.0
 40
0.0
 40
0.0
 40
0.0
 40
0.0
 40
0.0459715095
 40
0.1205038255
 40
0.2214650861
 40
0.3459610712
 40
0.490420958
 40
0.6507003833
 40
1.0
 40
1.0
 40
1.0
 40
1.0
 10
-10.8100923194
 20
17.4642258507
 30
0.0
 10
-10.8095552375
 20
17.4533736024
 30
0.0
 10
-10.8088129823
 20
17.4248977472
 30
0.0
 10
-10.8078501146
 20
17.3725643789
 30
0.0
 10
-10.8069948849
 20
17.3016646886
 30
0.0
 10
-10.8062220381
 20
17.2142371493
 30
0.0
 10
-10.8055878445
 20
17.1127876139
 30
0.0
 10
-10.8049255233
 20
16.9582045878
 30
0.0
 10
-10.8047172649
 20
16.8377636552
 30
0.0
 10
-10.8046888165
 20
16.7552054488
 30
0.0
 11
-10.8100923194
 21
17.4642258507
 31
0.0
 11
-10.8090206819
 21
17.4316468798
 31
0.0
 11
-10.8080124015
 21
17.3788085622
 31
0.0
 11
-10.807096413
 21
17.3072267596
 31
0.0
 11
-10.806299001
 21
17.2189551498
 31
0.0
 11
-10.8056430497
 21
17.1165264203
 31
0.0
 11
-10.8051473855
 21
17.0028796583
 31
0.0
 11
-10.8046888165
 21
16.7552054488
 31
0.0
  0
LINE
  5
59E
100
AcDbEntity
  8
ASSI
100
AcDbLine
 62
7
  6
CONTINUOUS
 10
7.1728028135
 20
23.0
 11
7.1728028135
 21
23.25
  0
SPLINE
  5
59F
100
AcDbEntity
  8
ASSI
100
AcDbSpline
 62
253
  6
CONTINUOUS
 70
0
 71
3
 72
15
 73
11
 74
9
 42
0.0000001
 43
0.0000001
 44
0.0000000001
 12
0.3889032145
 22
0.0005803923
 32
0.0
 13
0.0005983917
 23
0.3889031872
 33
0.0
 40
0.0
 40
0.0
 40
0.0
 40
0.0
 40
0.125893013
 40
0.2516751432
 40
0.3772229268
 40
0.5024424786
 40
0.6272904767
 40
0.7517799047
 40
0.8759774256
 40
1.0
 40
1.0
 40
1.0
 40
1.0
 10
10.5601018387
 20
-17.710427789
 30
0.0
 10
10.5764219045
 20
-17.7104034332
 30
0.0
 10
10.6091304868
 20
-17.7071895483
 30
0.0
 10
10.6562501187
 20
-17.6930590777
 30
0.0
 10
10.6997102635
 20
-17.6701573653
 30
0.0
 10
10.7378216113
 20
-17.6393554012
 30
0.0
 10
10.769126927
 20
-17.6018311592
 30
0.0
 10
10.7924177502
 20
-17.5590129162
 30
0.0
 10
10.806795339
 20
-17.512567734
 30
0.0
 10
10.8100675814
 20
-17.4803034422
 30
0.0
 10
10.8100923194
 20
-17.4642258507
 30
0.0
 11
10.5601018387
 21
-17.710427789
 31
0.0
 11
10.6088267768
 21
-17.7056333468
 31
0.0
 11
10.6556816794
 21
-17.6915797483
 31
0.0
 11
10.6988711128
 21
-17.6688058544
 31
0.0
 11
10.7367379219
 21
-17.6381850587
 31
0.0
 11
10.7678299088
 21
-17.6008921115
 31
0.0
 11
10.7909542462
 21
-17.5583572031
 31
0.0
 11
10.8052241007
 21
-17.5122123747
 31
0.0
 11
10.8100923194
 21
-17.4642258507
 31
0.0
  0
SPLINE
  5
5A0
100
AcDbEntity
  8
ASSI
100
AcDbSpline
 62
253
  6
CONTINUOUS
 70
0
 71
3
 72
20
 73
16
 74
14
 42
0.0000001
 43
0.0000001
 44
0.0000000001
 12
0.2506948783
 22
0.0000862347
 32
0.0
 13
0.0541075412
 23
0.2447862402
 33
0.0
 40
0.0
 40
0.0
 40
0.0
 40
0.0
 40
0.1934874401
 40
0.3796290471
 40
0.5513704596
 40
0.7021992623
 40
0.7679511387
 40
0.8264108596
 40
0.8770281318
 40
0.91933125
 40
0.952936033
 40
0.9775603198
 40
0.9930730212
 40
0.9974933445
 40
1.0
 40
1.0
 40
1.0
 40
1.0
 10
10.5546983357
 20
-16.765067253
 30
0.0
 10
10.5708671058
 20
-16.7650616912
 30
0.0
 10
10.6025908891
 20
-16.764930454
 30
0.0
 10
10.648663341
 20
-16.7643778117
 30
0.0
 10
10.6911652257
 20
-16.7634930564
 30
0.0
 10
10.7236002074
 20
-16.7624731913
 30
0.0
 10
10.7465632011
 20
-16.7614859513
 30
0.0
 10
10.7611525718
 20
-16.7607230018
 30
0.0
 10
10.7737786249
 20
-16.7599124136
 30
0.0
 10
10.7843137422
 20
-16.759064377
 30
0.0
 10
10.7926824876
 20
-16.7581926707
 30
0.0
 10
10.798756668
 20
-16.7573176789
 30
0.0
 10
10.8024506631
 20
-16.7565217008
 30
0.0
 10
10.804154063
 20
-16.7558293377
 30
0.0
 10
10.8046436068
 20
-16.7554099803
 30
0.0
 10
10.8046888165
 20
-16.7552054488
 30
0.0
 11
10.5546983357
 21
-16.765067253
 31
0.0
 11
10.6032042195
 21
-16.7648631627
 31
0.0
 11
10.6498654746
 21
-16.7642920347
 31
0.0
 11
10.6929104145
 21
-16.7633755677
 31
0.0
 11
10.7307025125
 21
-16.7621485881
 31
0.0
 11
10.7471706243
 21
-16.7614328179
 31
0.0
 11
10.7618056678
 21
-16.7606577382
 31
0.0
 11
10.7744681816
 21
-16.7598307295
 31
0.0
 11
10.7850375244
 21
-16.7589596705
 31
0.0
 11
10.7934131239
 21
-16.7580528442
 31
0.0
 11
10.7995152561
 21
-16.7571189437
 31
0.0
 11
10.8032858314
 21
-16.7561667184
 31
0.0
 11
10.8042845545
 21
-16.7556865579
 31
0.0
 11
10.8046888165
 21
-16.7552054488
 31
0.0
  0
SPLINE
  5
5A1
100
AcDbEntity
  8
ASSI
100
AcDbSpline
 62
253
  6
CONTINUOUS
 70
0
 71
3
 72
20
 73
16
 74
14
 42
0.0000001
 43
0.0000001
 44
0.0000000001
 12
0.2506948773
 22
-0.0000862346
 32
0.0
 13
0.0541083028
 23
-0.2447860709
 33
0.0
 40
0.0
 40
0.0
 40
0.0
 40
0.0
 40
0.1934874239
 40
0.3796290169
 40
0.5513704194
 40
0.7021992176
 40
0.7679510941
 40
0.8264108167
 40
0.8770280925
 40
0.9193312159
 40
0.9529360058
 40
0.9775603011
 40
0.9930730123
 40
0.9974933407
 40
1.0
 40
1.0
 40
1.0
 40
1.0
 10
10.5546983357
 20
16.7650672516
 30
0.0
 10
10.5708671044
 20
16.7650616898
 30
0.0
 10
10.6025908851
 20
16.7649304527
 30
0.0
 10
10.6486633335
 20
16.7643778104
 30
0.0
 10
10.6911652156
 20
16.7634930553
 30
0.0
 10
10.7236001959
 20
16.7624731904
 30
0.0
 10
10.7465631894
 20
16.7614859506
 30
0.0
 10
10.7611525605
 20
16.7607230012
 30
0.0
 10
10.7737786144
 20
16.7599124131
 30
0.0
 10
10.7843137329
 20
16.7590643765
 30
0.0
 10
10.79268248
 20
16.7581926704
 30
0.0
 10
10.7987566626
 20
16.7573176785
 30
0.0
 10
10.8024506597
 20
16.7565217007
 30
0.0
 10
10.8041540612
 20
16.7558293374
 30
0.0
 10
10.8046436061
 20
16.7554099805
 30
0.0
 10
10.8046888165
 20
16.7552054488
 30
0.0
 11
10.5546983357
 21
16.7650672516
 31
0.0
 11
10.6032042153
 21
16.7648631613
 31
0.0
 11
10.6498654667
 21
16.7642920335
 31
0.0
 11
10.6929104039
 21
16.7633755667
 31
0.0
 11
10.7307025006
 21
16.7621485872
 31
0.0
 11
10.7471706124
 21
16.7614328171
 31
0.0
 11
10.7618056563
 21
16.7606577376
 31
0.0
 11
10.7744681709
 21
16.759830729
 31
0.0
 11
10.785037515
 21
16.7589596701
 31
0.0
 11
10.7934131162
 21
16.758052844
 31
0.0
 11
10.7995152506
 21
16.7571189436
 31
0.0
 11
10.8032858284
 21
16.7561667183
 31
0.0
 11
10.8042845529
 21
16.7556865578
 31
0.0
 11
10.8046888165
 21
16.7552054488
 31
0.0
  0
SPLINE
  5
5A2
100
AcDbEntity
  8
ASSI
100
AcDbSpline
 62
253
  6
CONTINUOUS
 70
0
 71
3
 72
15
 73
11
 74
9
 42
0.0000001
 43
0.0000001
 44
0.0000000001
 12
0.3889032145
 22
-0.0005803923
 32
0.0
 13
0.0005983917
 23
-0.3889031872
 33
0.0
 40
0.0
 40
0.0
 40
0.0
 40
0.0
 40
0.125893013
 40
0.2516751431
 40
0.3772229267
 40
0.5024424785
 40
0.6272904767
 40
0.7517799046
 40
0.8759774256
 40
1.0
 40
1.0
 40
1.0
 40
1.0
 10
10.5601018387
 20
17.710427789
 30
0.0
 10
10.5764219045
 20
17.7104034332
 30
0.0
 10
10.6091304868
 20
17.7071895483
 30
0.0
 10
10.6562501186
 20
17.6930590777
 30
0.0
 10
10.6997102635
 20
17.6701573653
 30
0.0
 10
10.7378216113
 20
17.6393554012
 30
0.0
 10
10.769126927
 20
17.6018311592
 30
0.0
 10
10.7924177502
 20
17.5590129162
 30
0.0
 10
10.806795339
 20
17.512567734
 30
0.0
 10
10.8100675814
 20
17.4803034422
 30
0.0
 10
10.8100923194
 20
17.4642258507
 30
0.0
 11
10.5601018387
 21
17.710427789
 31
0.0
 11
10.6088267768
 21
17.7056333468
 31
0.0
 11
10.6556816794
 21
17.6915797484
 31
0.0
 11
10.6988711128
 21
17.6688058545
 31
0.0
 11
10.7367379219
 21
17.6381850587
 31
0.0
 11
10.7678299088
 21
17.6008921116
 31
0.0
 11
10.7909542462
 21
17.5583572032
 31
0.0
 11
10.8052241007
 21
17.5122123747
 31
0.0
 11
10.8100923194
 21
17.4642258507
 31
0.0
  0
SPLINE
  5
5A3
100
AcDbEntity
  8
ASSI
100
AcDbSpline
 62
253
  6
CONTINUOUS
 70
0
 71
3
 72
15
 73
11
 74
9
 42
0.0000001
 43
0.0000001
 44
0.0000000001
 12
-0.3889032145
 22
-0.0005803923
 32
0.0
 13
-0.0005983917
 23
-0.3889031872
 33
0.0
 40
0.0
 40
0.0
 40
0.0
 40
0.0
 40
0.125893013
 40
0.2516751432
 40
0.3772229268
 40
0.5024424786
 40
0.6272904767
 40
0.7517799047
 40
0.8759774256
 40
1.0
 40
1.0
 40
1.0
 40
1.0
 10
-10.5601018387
 20
17.710427789
 30
0.0
 10
-10.5764219045
 20
17.7104034332
 30
0.0
 10
-10.6091304868
 20
17.7071895483
 30
0.0
 10
-10.6562501187
 20
17.6930590777
 30
0.0
 10
-10.6997102635
 20
17.6701573653
 30
0.0
 10
-10.7378216113
 20
17.6393554012
 30
0.0
 10
-10.769126927
 20
17.6018311592
 30
0.0
 10
-10.7924177502
 20
17.5590129162
 30
0.0
 10
-10.806795339
 20
17.512567734
 30
0.0
 10
-10.8100675814
 20
17.4803034422
 30
0.0
 10
-10.8100923194
 20
17.4642258507
 30
0.0
 11
-10.5601018387
 21
17.710427789
 31
0.0
 11
-10.6088267768
 21
17.7056333468
 31
0.0
 11
-10.6556816794
 21
17.6915797483
 31
0.0
 11
-10.6988711128
 21
17.6688058544
 31
0.0
 11
-10.7367379219
 21
17.6381850587
 31
0.0
 11
-10.7678299088
 21
17.6008921115
 31
0.0
 11
-10.7909542462
 21
17.5583572031
 31
0.0
 11
-10.8052241007
 21
17.5122123747
 31
0.0
 11
-10.8100923194
 21
17.4642258507
 31
0.0
  0
SPLINE
  5
5A4
100
AcDbEntity
  8
ASSI
100
AcDbSpline
 62
253
  6
CONTINUOUS
 70
0
 71
3
 72
20
 73
16
 74
14
 42
0.0000001
 43
0.0000001
 44
0.0000000001
 12
-0.2506948783
 22
-0.0000862347
 32
0.0
 13
-0.0541075412
 23
-0.2447862402
 33
0.0
 40
0.0
 40
0.0
 40
0.0
 40
0.0
 40
0.1934874401
 40
0.3796290471
 40
0.5513704596
 40
0.7021992623
 40
0.7679511387
 40
0.8264108596
 40
0.8770281318
 40
0.91933125
 40
0.952936033
 40
0.9775603198
 40
0.9930730212
 40
0.9974933445
 40
1.0
 40
1.0
 40
1.0
 40
1.0
 10
-10.5546983357
 20
16.765067253
 30
0.0
 10
-10.5708671058
 20
16.7650616912
 30
0.0
 10
-10.6025908891
 20
16.764930454
 30
0.0
 10
-10.648663341
 20
16.7643778117
 30
0.0
 10
-10.6911652257
 20
16.7634930564
 30
0.0
 10
-10.7236002074
 20
16.7624731913
 30
0.0
 10
-10.7465632011
 20
16.7614859513
 30
0.0
 10
-10.7611525718
 20
16.7607230018
 30
0.0
 10
-10.7737786249
 20
16.7599124136
 30
0.0
 10
-10.7843137422
 20
16.759064377
 30
0.0
 10
-10.7926824876
 20
16.7581926707
 30
0.0
 10
-10.798756668
 20
16.7573176789
 30
0.0
 10
-10.8024506631
 20
16.7565217008
 30
0.0
 10
-10.804154063
 20
16.7558293377
 30
0.0
 10
-10.8046436068
 20
16.7554099803
 30
0.0
 10
-10.8046888165
 20
16.7552054488
 30
0.0
 11
-10.5546983357
 21
16.765067253
 31
0.0
 11
-10.6032042195
 21
16.7648631627
 31
0.0
 11
-10.6498654746
 21
16.7642920347
 31
0.0
 11
-10.6929104145
 21
16.7633755677
 31
0.0
 11
-10.7307025125
 21
16.7621485881
 31
0.0
 11
-10.7471706243
 21
16.7614328179
 31
0.0
 11
-10.7618056678
 21
16.7606577382
 31
0.0
 11
-10.7744681816
 21
16.7598307295
 31
0.0
 11
-10.7850375244
 21
16.7589596705
 31
0.0
 11
-10.7934131239
 21
16.7580528442
 31
0.0
 11
-10.7995152561
 21
16.7571189437
 31
0.0
 11
-10.8032858314
 21
16.7561667184
 31
0.0
 11
-10.8042845545
 21
16.7556865579
 31
0.0
 11
-10.8046888165
 21
16.7552054488
 31
0.0
  0
SPLINE
  5
5A5
100
AcDbEntity
  8
ASSI
100
AcDbSpline
 62
253
  6
CONTINUOUS
 70
0
 71
3
 72
20
 73
16
 74
14
 42
0.0000001
 43
0.0000001
 44
0.0000000001
 12
-0.2506948773
 22
0.0000862346
 32
0.0
 13
-0.0541083028
 23
0.2447860709
 33
0.0
 40
0.0
 40
0.0
 40
0.0
 40
0.0
 40
0.1934874239
 40
0.3796290169
 40
0.5513704194
 40
0.7021992176
 40
0.7679510941
 40
0.8264108167
 40
0.8770280925
 40
0.9193312159
 40
0.9529360058
 40
0.9775603011
 40
0.9930730123
 40
0.9974933407
 40
1.0
 40
1.0
 40
1.0
 40
1.0
 10
-10.5546983357
 20
-16.7650672516
 30
0.0
 10
-10.5708671044
 20
-16.7650616898
 30
0.0
 10
-10.6025908851
 20
-16.7649304527
 30
0.0
 10
-10.6486633335
 20
-16.7643778104
 30
0.0
 10
-10.6911652156
 20
-16.7634930553
 30
0.0
 10
-10.7236001959
 20
-16.7624731904
 30
0.0
 10
-10.7465631894
 20
-16.7614859506
 30
0.0
 10
-10.7611525605
 20
-16.7607230012
 30
0.0
 10
-10.7737786144
 20
-16.7599124131
 30
0.0
 10
-10.7843137329
 20
-16.7590643765
 30
0.0
 10
-10.79268248
 20
-16.7581926704
 30
0.0
 10
-10.7987566626
 20
-16.7573176785
 30
0.0
 10
-10.8024506597
 20
-16.7565217007
 30
0.0
 10
-10.8041540612
 20
-16.7558293374
 30
0.0
 10
-10.8046436061
 20
-16.7554099805
 30
0.0
 10
-10.8046888165
 20
-16.7552054488
 30
0.0
 11
-10.5546983357
 21
-16.7650672516
 31
0.0
 11
-10.6032042153
 21
-16.7648631613
 31
0.0
 11
-10.6498654667
 21
-16.7642920335
 31
0.0
 11
-10.6929104039
 21
-16.7633755667
 31
0.0
 11
-10.7307025006
 21
-16.7621485872
 31
0.0
 11
-10.7471706124
 21
-16.7614328171
 31
0.0
 11
-10.7618056563
 21
-16.7606577376
 31
0.0
 11
-10.7744681709
 21
-16.759830729
 31
0.0
 11
-10.785037515
 21
-16.7589596701
 31
0.0
 11
-10.7934131162
 21
-16.758052844
 31
0.0
 11
-10.7995152506
 21
-16.7571189436
 31
0.0
 11
-10.8032858284
 21
-16.7561667183
 31
0.0
 11
-10.8042845529
 21
-16.7556865578
 31
0.0
 11
-10.8046888165
 21
-16.7552054488
 31
0.0
  0
SPLINE
  5
5A6
100
AcDbEntity
  8
ASSI
100
AcDbSpline
 62
253
  6
CONTINUOUS
 70
0
 71
3
 72
15
 73
11
 74
9
 42
0.0000001
 43
0.0000001
 44
0.0000000001
 12
-0.3889032145
 22
0.0005803923
 32
0.0
 13
-0.0005983917
 23
0.3889031872
 33
0.0
 40
0.0
 40
0.0
 40
0.0
 40
0.0
 40
0.125893013
 40
0.2516751431
 40
0.3772229267
 40
0.5024424785
 40
0.6272904767
 40
0.7517799046
 40
0.8759774256
 40
1.0
 40
1.0
 40
1.0
 40
1.0
 10
-10.5601018387
 20
-17.710427789
 30
0.0
 10
-10.5764219045
 20
-17.7104034332
 30
0.0
 10
-10.6091304868
 20
-17.7071895483
 30
0.0
 10
-10.6562501186
 20
-17.6930590777
 30
0.0
 10
-10.6997102635
 20
-17.6701573653
 30
0.0
 10
-10.7378216113
 20
-17.6393554012
 30
0.0
 10
-10.769126927
 20
-17.6018311592
 30
0.0
 10
-10.7924177502
 20
-17.5590129162
 30
0.0
 10
-10.806795339
 20
-17.512567734
 30
0.0
 10
-10.8100675814
 20
-17.4803034422
 30
0.0
 10
-10.8100923194
 20
-17.4642258507
 30
0.0
 11
-10.5601018387
 21
-17.710427789
 31
0.0
 11
-10.6088267768
 21
-17.7056333468
 31
0.0
 11
-10.6556816794
 21
-17.6915797484
 31
0.0
 11
-10.6988711128
 21
-17.6688058545
 31
0.0
 11
-10.7367379219
 21
-17.6381850587
 31
0.0
 11
-10.7678299088
 21
-17.6008921116
 31
0.0
 11
-10.7909542462
 21
-17.5583572032
 31
0.0
 11
-10.8052241007
 21
-17.5122123747
 31
0.0
 11
-10.8100923194
 21
-17.4642258507
 31
0.0
  0
SPLINE
  5
5A7
100
AcDbEntity
  8
ASSI
100
AcDbSpline
 62
253
  6
CONTINUOUS
 70
0
 71
3
 72
14
 73
10
 74
8
 42
0.0000001
 43
0.0000001
 44
0.0000000001
 12
0.0002443334
 22
0.94539473
 32
0.0
 13
0.0350666622
 23
0.9447441899
 33
0.0
 40
0.0
 40
0.0
 40
0.0
 40
0.0
 40
0.3493062512
 40
0.5095887549
 40
0.6540511785
 40
0.7785486238
 40
0.8795094709
 40
0.9540382154
 40
1.0
 40
1.0
 40
1.0
 40
1.0
 10
10.554698334
 20
16.7650638307
 30
0.0
 10
10.554726783
 20
16.8751412604
 30
0.0
 10
10.5549350325
 20
17.0357288538
 30
0.0
 10
10.5555973509
 20
17.2418399825
 30
0.0
 10
10.5562315363
 20
17.3771064934
 30
0.0
 10
10.5570043981
 20
17.4936774235
 30
0.0
 10
10.55785958
 20
17.5882098813
 30
0.0
 10
10.5588225239
 20
17.6579881793
 30
0.0
 10
10.5595646176
 20
17.6959543165
 30
0.0
 10
10.5601018597
 20
17.7104283594
 30
0.0
 11
10.554698334
 21
16.7650638307
 31
0.0
 11
10.5551568946
 21
17.0952958124
 31
0.0
 11
10.5556525554
 21
17.246825241
 31
0.0
 11
10.5563085058
 21
17.3833976843
 31
0.0
 11
10.5571059209
 21
17.5010942157
 31
0.0
 11
10.5580219171
 21
17.5965376762
 31
0.0
 11
10.5590302103
 21
17.666989546
 31
0.0
 11
10.5601018597
 21
17.7104283594
 31
0.0
  0
SPLINE
  5
5A8
100
AcDbEntity
  8
ASSI
100
AcDbSpline
 62
253
  6
CONTINUOUS
 70
0
 71
3
 72
14
 73
10
 74
8
 42
0.0000001
 43
0.0000001
 44
0.0000000001
 12
0.0350666622
 22
-0.9447441899
 32
0.0
 13
0.0002443334
 23
-0.94539473
 33
0.0
 40
0.0
 40
0.0
 40
0.0
 40
0.0
 40
0.0459617846
 40
0.1204905291
 40
0.2214513762
 40
0.3459488215
 40
0.4904112451
 40
0.6506937488
 40
1.0
 40
1.0
 40
1.0
 40
1.0
 10
-10.5601018597
 20
17.7104283594
 30
0.0
 10
-10.5595646176
 20
17.6959543165
 30
0.0
 10
-10.5588225239
 20
17.6579881793
 30
0.0
 10
-10.55785958
 20
17.5882098813
 30
0.0
 10
-10.5570043981
 20
17.4936774235
 30
0.0
 10
-10.5562315363
 20
17.3771064934
 30
0.0
 10
-10.5555973509
 20
17.2418399825
 30
0.0
 10
-10.5549350325
 20
17.0357288538
 30
0.0
 10
-10.554726783
 20
16.8751412604
 30
0.0
 10
-10.554698334
 20
16.7650638307
 30
0.0
 11
-10.5601018597
 21
17.7104283594
 31
0.0
 11
-10.5590302103
 21
17.666989546
 31
0.0
 11
-10.5580219171
 21
17.5965376762
 31
0.0
 11
-10.5571059209
 21
17.5010942157
 31
0.0
 11
-10.5563085058
 21
17.3833976843
 31
0.0
 11
-10.5556525554
 21
17.2468252411
 31
0.0
 11
-10.5551568946
 21
17.0952958124
 31
0.0
 11
-10.554698334
 21
16.7650638307
 31
0.0
  0
SPLINE
  5
5A9
100
AcDbEntity
  8
CURVE
100
AcDbSpline
 62
253
  6
CONTINUOUS
 70
0
 71
3
 72
17
 73
13
 74
11
 42
0.0000001
 43
0.0000001
 44
0.0000000001
 12
-0.0040862099
 22
-0.0396009929
 32
0.0
 13
-0.001437597
 23
-0.4401172283
 33
0.0
 40
0.0
 40
0.0
 40
0.0
 40
0.0
 40
0.1
 40
0.2
 40
0.3
 40
0.4
 40
0.5
 40
0.6
 40
0.7
 40
0.8
 40
0.9
 40
1.0
 40
1.0
 40
1.0
 40
1.0
 10
10.8472550746
 20
16.8
 30
0.0
 10
10.8471188676
 20
16.7986799669
 30
0.0
 10
10.8468475054
 20
16.7942735875
 30
0.0
 10
10.846449742
 20
16.7824583193
 30
0.0
 10
10.8460660623
 20
16.765585135
 30
0.0
 10
10.8457014134
 20
16.743869245
 30
0.0
 10
10.845360414
 20
16.7175866507
 30
0.0
 10
10.8450474046
 20
16.6870714697
 30
0.0
 10
10.844766366
 20
16.6527122486
 30
0.0
 10
10.8445208657
 20
16.6149439393
 30
0.0
 10
10.8443140495
 20
16.574254141
 30
0.0
 10
10.8442036551
 20
16.5455066397
 30
0.0
 10
10.8441557352
 20
16.5308360654
 30
0.0
 11
10.8472550746
 21
16.8
 31
0.0
 11
10.8468490521
 21
16.793405971
 31
0.0
 11
10.8464520893
 21
16.7816153333
 31
0.0
 11
10.8460692341
 21
16.7647780174
 31
0.0
 11
10.845705355
 21
16.7431081276
 31
0.0
 11
10.845365079
 21
16.7168812196
 31
0.0
 11
10.845052733
 21
16.6864307963
 31
0.0
 11
10.844772289
 21
16.6521440672
 31
0.0
 11
10.8445273131
 21
16.6144570245
 31
0.0
 11
10.8443209203
 21
16.5738488987
 31
0.0
 11
10.8441557352
 21
16.5308360654
 31
0.0
  0
SPLINE
  5
5AA
100
AcDbEntity
  8
CURVE
100
AcDbSpline
 62
253
  6
CONTINUOUS
 70
0
 71
3
 72
22
 73
18
 74
16
 42
0.0000001
 43
0.0000001
 44
0.0000000001
 12
0.0049283863
 22
-0.1466424486
 32
0.0
 13
0.0
 23
0.5835071712
 33
0.0
 40
0.0
 40
0.0
 40
0.0
 40
0.0
 40
0.0666666667
 40
0.1333333333
 40
0.2
 40
0.2666666667
 40
0.3333333333
 40
0.4
 40
0.4666666667
 40
0.5333333333
 40
0.6
 40
0.6666666667
 40
0.7333333333
 40
0.8
 40
0.8666666667
 40
0.9333333333
 40
1.0
 40
1.0
 40
1.0
 40
1.0
 10
10.8581081066
 20
14.897482
 30
0.0
 10
10.8582176263
 20
14.8942232789
 30
0.0
 10
10.8584403652
 20
14.889228571
 30
0.0
 10
10.8587797466
 20
14.8864418319
 30
0.0
 10
10.859119622
 20
14.8883945417
 30
0.0
 10
10.8594549039
 20
14.8950597293
 30
0.0
 10
10.8597806531
 20
14.906338364
 30
0.0
 10
10.86009205
 20
14.9220638628
 30
0.0
 10
10.8603844927
 20
14.9420037388
 30
0.0
 10
10.8606536582
 20
14.9658632515
 30
0.0
 10
10.8608955677
 20
14.9932897219
 30
0.0
 10
10.8611066454
 20
15.0238776992
 30
0.0
 10
10.8612837711
 20
15.0571751824
 30
0.0
 10
10.8614243266
 20
15.0926894336
 30
0.0
 10
10.8615262343
 20
15.1298975069
 30
0.0
 10
10.8615879878
 20
15.168241865
 30
0.0
 10
10.8616017788
 20
15.194203174
 30
0.0
 10
10.8616017788
 20
15.20717
 30
0.0
 11
10.8581081066
 21
14.897482
 31
0.0
 11
10.858441244
 21
14.8900127915
 31
0.0
 11
10.8587798289
 21
14.88723174
 31
0.0
 11
10.8591188564
 21
14.8891799546
 31
0.0
 11
10.8594533151
 21
14.8958286371
 31
0.0
 11
10.859778261
 21
14.907079508
 31
0.0
 11
10.8600888909
 21
14.922766259
 31
0.0
 11
10.8603806132
 21
14.9426570116
 31
0.0
 11
10.8606491155
 21
14.9664577444
 31
0.0
 11
10.8608904291
 21
14.9938166397
 31
0.0
 11
10.8611009867
 21
15.0243292835
 31
0.0
 11
10.8612776761
 21
15.0575446438
 31
0.0
 11
10.8614178853
 21
15.0929717373
 31
0.0
 11
10.861519542
 21
15.1300868877
 31
0.0
 11
10.8615811433
 21
15.1683414659
 31
0.0
 11
10.8616017788
 21
15.20717
 31
0.0
  0
SPLINE
  5
5AB
100
AcDbEntity
  8
CURVE
100
AcDbSpline
 62
253
  6
CONTINUOUS
 70
0
 71
3
 72
29
 73
25
 74
23
 42
0.0000001
 43
0.0000001
 44
0.0000000001
 12
-0.0030743412
 22
0.5111174281
 32
0.0
 13
0.0014062722
 23
0.5994880596
 33
0.0
 40
0.0
 40
0.0
 40
0.0
 40
0.0
 40
0.1245427709
 40
0.1870768614
 40
0.2496487998
 40
0.3121753057
 40
0.3746954967
 40
0.4059607267
 40
0.4372316541
 40
0.4684975683
 40
0.4997926881
 40
0.5310757283
 40
0.562303313
 40
0.593639256
 40
0.6249508778
 40
0.6561852633
 40
0.6874383969
 40
0.7187431491
 40
0.7500335402
 40
0.7812885651
 40
0.8125600593
 40
0.8438476694
 40
0.8751147552
 40
1.0
 40
1.0
 40
1.0
 40
1.0
 10
10.8489156686
 20
15.7401272597
 30
0.0
 10
10.8487880396
 20
15.76134592
 30
0.0
 10
10.8485518836
 20
15.7907495544
 30
0.0
 10
10.8481513754
 20
15.8150872965
 30
0.0
 10
10.8478337842
 20
15.8287077354
 30
0.0
 10
10.8475113713
 20
15.8406105725
 30
0.0
 10
10.8472448121
 20
15.851321937
 30
0.0
 10
10.8470377636
 20
15.8616972848
 30
0.0
 10
10.8468880207
 20
15.8708139359
 30
0.0
 10
10.8467454186
 20
15.8813488607
 30
0.0
 10
10.8466122588
 20
15.8934080556
 30
0.0
 10
10.846491391
 20
15.9070916797
 30
0.0
 10
10.846389082
 20
15.9226399694
 30
0.0
 10
10.8462997794
 20
15.9391578221
 30
0.0
 10
10.8462141382
 20
15.9559255564
 30
0.0
 10
10.8461363211
 20
15.9731840883
 30
0.0
 10
10.8460708059
 20
15.9911004491
 30
0.0
 10
10.8460145705
 20
16.0094259774
 30
0.0
 10
10.8459650776
 20
16.0280068275
 30
0.0
 10
10.8459256009
 20
16.0469029967
 30
0.0
 10
10.845898614
 20
16.0660821905
 30
0.0
 10
10.84588172
 20
16.0854141511
 30
0.0
 10
10.845865064
 20
16.1241323408
 30
0.0
 10
10.845893235
 20
16.1568834415
 30
0.0
 10
10.8459517759
 20
16.1818391792
 30
0.0
 11
10.8489156686
 21
15.7401272597
 31
0.0
 11
10.8484452563
 21
15.7955470174
 31
0.0
 11
10.8481486749
 21
15.8143053901
 31
0.0
 11
10.847832899
 21
15.8284246824
 31
0.0
 11
10.8475117714
 21
15.8407699209
 31
0.0
 11
10.8471935827
 21
15.8540655213
 31
0.0
 11
10.8470386995
 21
15.8619191644
 31
0.0
 11
10.8468892106
 21
15.8710502886
 31
0.0
 11
10.8467470383
 21
15.8815991563
 31
0.0
 11
10.8466142834
 21
15.8936814499
 31
0.0
 11
10.8464944243
 21
15.9074098375
 31
0.0
 11
10.8463913648
 21
15.9227822139
 31
0.0
 11
10.8463003686
 21
15.9392036207
 31
0.0
 11
10.8462153626
 21
15.9560238419
 31
0.0
 11
10.8461383835
 21
15.9732903503
 31
0.0
 11
10.8460723923
 21
15.9911568827
 31
0.0
 11
10.8460156869
 21
16.0094713125
 31
0.0
 11
10.8459667273
 21
16.0280675415
 31
0.0
 11
10.8459276876
 21
16.0469469065
 31
0.0
 11
10.8459003007
 21
16.0661039364
 31
0.0
 11
10.8458831434
 21
16.0854265651
 31
0.0
 11
10.8458750688
 21
16.1048141541
 31
0.0
 11
10.8459517759
 21
16.1818391792
 31
0.0
  0
SPLINE
  5
5AC
100
AcDbEntity
  8
CURVE
100
AcDbSpline
 62
253
  6
CONTINUOUS
 70
0
 71
3
 72
14
 73
10
 74
8
 42
0.0000001
 43
0.0000001
 44
0.0000000001
 12
-0.0044683835
 22
-1.4173746035
 32
0.0
 13
0.0019140842
 23
-1.4909832539
 33
0.0
 40
0.0
 40
0.0
 40
0.0
 40
0.0
 40
0.1248758512
 40
0.2502534829
 40
0.3755003777
 40
0.5003862025
 40
0.6252348703
 40
0.7501445525
 40
1.0
 40
1.0
 40
1.0
 40
1.0
 10
10.836791
 20
-6.1678501192
 30
0.0
 10
10.8366050023
 20
-6.2268487393
 30
0.0
 10
10.8363121194
 20
-6.3484980407
 30
0.0
 10
10.8360642299
 20
-6.5352404247
 30
0.0
 10
10.8359486525
 20
-6.7235640136
 30
0.0
 10
10.8359340371
 20
-6.9120161146
 30
0.0
 10
10.835998203
 20
-7.1001267857
 30
0.0
 10
10.8361626602
 20
-7.3504357907
 30
0.0
 10
10.8363651843
 20
-7.5373905816
 30
0.0
 10
10.8365245991
 20
-7.6615673444
 30
0.0
 11
10.836791
 21
-6.1678501192
 31
0.0
 11
10.8363444978
 21
-6.3489527593
 31
0.0
 11
10.8360862448
 21
-6.5355687225
 31
0.0
 11
10.8359653996
 21
-6.7238109554
 31
0.0
 11
10.8359471661
 21
-6.9120061233
 31
0.0
 11
10.8360080468
 21
-7.1000275064
 31
0.0
 11
10.8361303262
 21
-7.2877479774
 31
0.0
 11
10.8365245991
 21
-7.6615673444
 31
0.0
  0
SPLINE
  5
5AD
100
AcDbEntity
  8
CURVE
100
AcDbSpline
 62
253
  6
CONTINUOUS
 70
0
 71
3
 72
33
 73
29
 74
27
 42
0.0000001
 43
0.0000001
 44
0.0000000001
 12
-0.0020219452
 22
1.7957495434
 32
0.0
 13
-0.0053616959
 23
-1.7032024185
 33
0.0
 40
0.0
 40
0.0
 40
0.0
 40
0.0
 40
0.0078121184
 40
0.0156313646
 40
0.0234276259
 40
0.0312348943
 40
0.0468798507
 40
0.0625268449
 40
0.078146591
 40
0.0937674052
 40
0.1250226086
 40
0.156289424
 40
0.1875598593
 40
0.2188316969
 40
0.2501105735
 40
0.3126388331
 40
0.3751078893
 40
0.4375823203
 40
0.500049294
 40
0.5625074419
 40
0.6249712391
 40
0.6874303996
 40
0.7499362761
 40
0.8124283913
 40
0.8749047028
 40
0.9061481238
 40
0.9374784342
 40
1.0
 40
1.0
 40
1.0
 40
1.0
 10
10.8495712228
 20
-6.10544429
 30
0.0
 10
10.8495659576
 20
-6.1007680874
 30
0.0
 10
10.8495358814
 20
-6.0918226984
 30
0.0
 10
10.8494845756
 20
-6.0790182233
 30
0.0
 10
10.8494269998
 20
-6.0664925083
 30
0.0
 10
10.8493447399
 20
-6.0501587343
 30
0.0
 10
10.8492322511
 20
-6.0303692447
 30
0.0
 10
10.8490872007
 20
-6.0074407242
 30
0.0
 10
10.8489345252
 20
-5.985187799
 30
0.0
 10
10.8487204992
 20
-5.9565197109
 30
0.0
 10
10.8484352046
 20
-5.9224618475
 30
0.0
 10
10.8480680156
 20
-5.8845239139
 30
0.0
 10
10.8476780725
 20
-5.8496778464
 30
0.0
 10
10.847267513
 20
-5.8180768758
 30
0.0
 10
10.8466954818
 20
-5.7805281951
 30
0.0
 10
10.845939087
 20
-5.7424719815
 30
0.0
 10
10.8449855808
 20
-5.711784549
 30
0.0
 10
10.8440055786
 20
-5.6958506164
 30
0.0
 10
10.8430166752
 20
-5.6937259752
 30
0.0
 10
10.8420315477
 20
-5.7039393457
 30
0.0
 10
10.8410649978
 20
-5.7284326245
 30
0.0
 10
10.8401367094
 20
-5.7680300999
 30
0.0
 10
10.8392682633
 20
-5.8227258444
 30
0.0
 10
10.8384800605
 20
-5.8915391174
 30
0.0
 10
10.8379028079
 20
-5.9592294003
 30
0.0
 10
10.8374972896
 20
-6.0187879224
 30
0.0
 10
10.83712939
 20
-6.0814276178
 30
0.0
 10
10.8369027406
 20
-6.1323544918
 30
0.0
 10
10.836791
 20
-6.1678501192
 30
0.0
 11
10.8495712228
 21
-6.10544429
 31
0.0
 11
10.8495348571
 21
-6.0919271848
 31
0.0
 11
10.8494834754
 21
-6.0790518155
 31
0.0
 11
10.8494263477
 21
-6.0665453742
 31
0.0
 11
10.8493647365
 21
-6.0542986102
 31
0.0
 11
10.8492305754
 21
-6.0305061909
 31
0.0
 11
10.8490858305
 21
-6.0075382616
 31
0.0
 11
10.8489332132
 21
-5.9853123338
 31
0.0
 11
10.8487728636
 21
-5.9638106225
 31
0.0
 11
10.8484311225
 21
-5.9229567903
 31
0.0
 11
10.8480642488
 21
-5.8850417331
 31
0.0
 11
10.8476746511
 21
-5.8502198945
 31
0.0
 11
10.8472644579
 21
-5.8186517949
 31
0.0
 11
10.8468356143
 21
-5.7905004098
 31
0.0
 11
10.8459311053
 21
-5.7449544986
 31
0.0
 11
10.8449811405
 21
-5.7142425246
 31
0.0
 11
10.8440040463
 21
-5.6981518053
 31
0.0
 11
10.8430172487
 21
-5.6957824673
 31
0.0
 11
10.8420346666
 21
-5.7063189013
 31
0.0
 11
10.8410713908
 21
-5.7309491476
 31
0.0
 11
10.8401469299
 21
-5.7705336024
 31
0.0
 11
10.8392815913
 21
-5.8250827496
 31
0.0
 11
10.8384959005
 21
-5.893615831
 31
0.0
 11
10.8378062371
 21
-5.9745523157
 31
0.0
 11
10.8375022809
 21
-6.0191280891
 31
0.0
 11
10.8372266233
 21
-6.0662472101
 31
0.0
 11
10.836791
 21
-6.1678501192
 31
0.0
  0
SPLINE
  5
5AE
100
AcDbEntity
  8
CURVE
100
AcDbSpline
 62
253
  6
CONTINUOUS
 70
0
 71
3
 72
11
 73
7
 74
5
 42
0.0000001
 43
0.0000001
 44
0.0000000001
 12
-0.0058148348
 22
-0.1815378458
 32
0.0
 13
-0.0022321799
 23
-0.6415096159
 33
0.0
 40
0.0
 40
0.0
 40
0.0
 40
0.0
 40
0.2499802707
 40
0.4999803986
 40
0.7499863794
 40
1.0
 40
1.0
 40
1.0
 40
1.0
 10
10.8546835017
 20
-5.7565587397
 30
0.0
 10
10.8541989703
 20
-5.7716856997
 30
0.0
 10
10.8532280901
 20
-5.8013594612
 30
0.0
 10
10.8518143037
 20
-5.8624341344
 30
0.0
 10
10.8505207582
 20
-5.9550305529
 30
0.0
 10
10.8499067664
 20
-6.0519822428
 30
0.0
 10
10.8497207413
 20
-6.10544429
 30
0.0
 11
10.8546835017
 21
-5.7565587397
 31
0.0
 11
10.853235222
 21
-5.8041185211
 31
0.0
 11
10.8518343646
 21
-5.8676866323
 31
0.0
 11
10.8505828652
 21
-5.9638343277
 31
0.0
 11
10.8497207413
 21
-6.10544429
 31
0.0
  0
LINE
  5
5AF
100
AcDbEntity
  8
CURVE
100
AcDbLine
 62
253
  6
CONTINUOUS
 10
10.8615319403
 20
-5.5496410148
 11
10.8546835017
 21
-5.7565587397
  0
SPLINE
  5
5B0
100
AcDbEntity
  8
CURVE
100
AcDbSpline
 62
253
  6
CONTINUOUS
 70
0
 71
3
 72
16
 73
12
 74
10
 42
0.0000001
 43
0.0000001
 44
0.0000000001
 12
0.0075015015
 22
0.3229594988
 32
0.0
 13
0.0077014537
 23
0.2537413819
 33
0.0
 40
0.0
 40
0.0
 40
0.0
 40
0.0
 40
0.0624969682
 40
0.1250095118
 40
0.1875071634
 40
0.2500010689
 40
0.3749972207
 40
0.5000010211
 40
0.6250039771
 40
0.7500028915
 40
1.0
 40
1.0
 40
1.0
 40
1.0
 10
10.8538592527
 20
-6.3965120355
 30
0.0
 10
10.8540155264
 20
-6.389784039
 30
0.0
 10
10.8543321039
 20
-6.3775633418
 30
0.0
 10
10.8548097516
 20
-6.3603057466
 30
0.0
 10
10.8552877788
 20
-6.3431730955
 30
0.0
 10
10.8559260621
 20
-6.3206912512
 30
0.0
 10
10.8567251441
 20
-6.2930381422
 30
0.0
 10
10.8576854584
 20
-6.2603879627
 30
0.0
 10
10.8586464389
 20
-6.2279935504
 30
0.0
 10
10.8599282655
 20
-6.1850135342
 30
0.0
 10
10.8608901599
 20
-6.1529866089
 30
0.0
 10
10.8615319403
 20
-6.1318417383
 30
0.0
 11
10.8538592527
 21
-6.3965120355
 31
0.0
 11
10.8543325309
 21
-6.3777436193
 31
0.0
 11
10.8548098541
 21
-6.3603251592
 31
0.0
 11
10.8552879082
 21
-6.3432177636
 31
0.0
 11
10.8557665579
 21
-6.3263421886
 31
0.0
 11
10.8567253561
 21
-6.2931278897
 31
0.0
 11
10.8576855704
 21
-6.260430558
 31
0.0
 11
10.8586465169
 21
-6.2280196764
 31
0.0
 11
10.859607872
 21
-6.1957814951
 31
0.0
 11
10.8615319403
 21
-6.1318417383
 31
0.0
  0
SPLINE
  5
5B1
100
AcDbEntity
  8
CURVE
100
AcDbSpline
 62
253
  6
CONTINUOUS
 70
0
 71
3
 72
13
 73
9
 74
7
 42
0.0000001
 43
0.0000001
 44
0.0000000001
 12
0.0
 22
0.4519734438
 32
0.0
 13
0.0036926673
 23
0.1588105605
 33
0.0
 40
0.0
 40
0.0
 40
0.0
 40
0.0
 40
0.2499064318
 40
0.3752983396
 40
0.500303448
 40
0.6252650503
 40
0.7502410107
 40
1.0
 40
1.0
 40
1.0
 40
1.0
 10
10.851629758
 20
-6.7341993273
 30
0.0
 10
10.851629758
 20
-6.6965489704
 30
0.0
 10
10.8517090122
 20
-6.6394316634
 30
0.0
 10
10.8519703955
 20
-6.5699493538
 30
0.0
 10
10.8522448945
 20
-6.5225889567
 30
0.0
 10
10.852583147
 20
-6.481151227
 30
0.0
 10
10.8531041983
 20
-6.4348980514
 30
0.0
 10
10.8535518271
 20
-6.4097334905
 30
0.0
 10
10.8538592527
 20
-6.3965120355
 30
0.0
 11
10.851629758
 21
-6.7341993273
 31
0.0
 11
10.8517871055
 21
-6.6226967264
 31
0.0
 11
10.8519837117
 21
-6.5706935182
 31
0.0
 11
10.8522556065
 21
-6.5235621916
 31
0.0
 11
10.8525919178
 21
-6.482274591
 31
0.0
 11
10.8529804091
 21
-6.4475073573
 31
0.0
 11
10.8538592527
 21
-6.3965120355
 31
0.0
  0
SPLINE
  5
5B2
100
AcDbEntity
  8
CURVE
100
AcDbSpline
 62
253
  6
CONTINUOUS
 70
0
 71
3
 72
14
 73
10
 74
8
 42
0.0000001
 43
0.0000001
 44
0.0000000001
 12
0.0064650203
 22
0.0114319178
 32
0.0
 13
0.0001443766
 23
-0.74074962
 33
0.0
 40
0.0
 40
0.0
 40
0.0
 40
0.0
 40
0.1255354806
 40
0.2509729574
 40
0.3757053714
 40
0.5003012553
 40
0.6250864527
 40
0.7506490852
 40
1.0
 40
1.0
 40
1.0
 40
1.0
 10
10.8435536742
 20
-6.2627200261
 30
0.0
 10
10.843824204
 20
-6.2622416557
 30
0.0
 10
10.8443665542
 20
-6.2651375846
 30
0.0
 10
10.8451631167
 20
-6.2847045497
 30
0.0
 10
10.8459033335
 20
-6.3241054102
 30
0.0
 10
10.8465263325
 20
-6.3846687117
 30
0.0
 10
10.8469825084
 20
-6.4623063896
 30
0.0
 10
10.8473771511
 20
-6.5778909786
 30
0.0
 10
10.8474737438
 20
-6.6713258107
 30
0.0
 10
10.847485744
 20
-6.7328946758
 30
0.0
 11
10.8435536742
 21
-6.2627200261
 31
0.0
 11
10.8443642033
 21
-6.2676844264
 31
0.0
 11
10.8451554896
 21
-6.2880781289
 31
0.0
 11
10.8458842667
 21
-6.3276609974
 31
0.0
 11
10.8464980906
 21
-6.3874505523
 31
0.0
 11
10.8469550104
 21
-6.4636533375
 31
0.0
 11
10.847257011
 21
-6.5500107832
 31
0.0
 11
10.847485744
 21
-6.7328946758
 31
0.0
  0
SPLINE
  5
5B3
100
AcDbEntity
  8
CURVE
100
AcDbSpline
 62
253
  6
CONTINUOUS
 70
0
 71
3
 72
11
 73
7
 74
5
 42
0.0000001
 43
0.0000001
 44
0.0000000001
 12
0.0005467413
 22
0.5396661734
 32
0.0
 13
0.004740467
 23
0.0084966188
 33
0.0
 40
0.0
 40
0.0
 40
0.0
 40
0.0
 40
0.2500581538
 40
0.5000084602
 40
0.7499222551
 40
1.0
 40
1.0
 40
1.0
 40
1.0
 10
10.8403906379
 20
-6.604625691
 30
0.0
 10
10.8404362102
 20
-6.5596430486
 30
0.0
 10
10.8406490266
 20
-6.4705370466
 30
0.0
 10
10.8413435069
 20
-6.3568562431
 30
0.0
 10
10.8423609595
 20
-6.2806360436
 30
0.0
 10
10.8431585125
 20
-6.2634282979
 30
0.0
 10
10.8435536742
 20
-6.2627200261
 30
0.0
 11
10.8403906379
 21
-6.604625691
 31
0.0
 11
10.840711656
 21
-6.4738466779
 31
0.0
 11
10.8413973638
 21
-6.3630943363
 31
0.0
 11
10.84239052
 21
-6.2890493975
 31
0.0
 11
10.8435536742
 21
-6.2627200261
 31
0.0
  0
SPLINE
  5
5B4
100
AcDbEntity
  8
CURVE
100
AcDbSpline
 62
253
  6
CONTINUOUS
 70
0
 71
3
 72
19
 73
15
 74
13
 42
0.0000001
 43
0.0000001
 44
0.0000000001
 12
0.0003167668
 22
-0.3791733208
 32
0.0
 13
-0.0033071846
 23
-0.0381205859
 33
0.0
 40
0.0
 40
0.0
 40
0.0
 40
0.0
 40
0.0833333333
 40
0.1666666667
 40
0.25
 40
0.3333333333
 40
0.4166666667
 40
0.5
 40
0.5833333333
 40
0.6666666667
 40
0.75
 40
0.8333333333
 40
0.9166666667
 40
1.0
 40
1.0
 40
1.0
 40
1.0
 10
10.8597613396
 20
12.0548460151
 30
0.0
 10
10.8597701387
 20
12.0443134229
 30
0.0
 10
10.8597757387
 20
12.0230905245
 30
0.0
 10
10.8597479196
 20
11.9914224381
 30
0.0
 10
10.8596843764
 20
11.9604328937
 30
0.0
 10
10.8595861839
 20
11.9306559375
 30
0.0
 10
10.8594550134
 20
11.9025960705
 30
0.0
 10
10.8592930952
 20
11.8767309831
 30
0.0
 10
10.8591031833
 20
11.8535004052
 30
0.0
 10
10.8588885062
 20
11.8332994185
 30
0.0
 10
10.8586527189
 20
11.816471602
 30
0.0
 10
10.8583998149
 20
11.8033029425
 30
0.0
 10
10.8581341565
 20
11.794018093
 30
0.0
 10
10.857951407
 20
11.7905209052
 30
0.0
 10
10.8578595407
 20
11.789462
 30
0.0
 11
10.8597613396
 21
12.0548460151
 31
0.0
 11
10.8597697022
 21
12.0231182347
 31
0.0
 11
10.8597419656
 21
11.9915355285
 31
0.0
 11
10.8596786015
 21
11.9606349918
 31
0.0
 11
10.8595806876
 21
11.930942119
 31
0.0
 11
10.8594498888
 21
11.9029618671
 31
0.0
 11
10.8592884296
 21
11.877170068
 31
0.0
 11
10.8590990558
 21
11.854005337
 31
0.0
 11
10.8588849878
 21
11.8338616135
 31
0.0
 11
10.8586498661
 21
11.8170814615
 31
0.0
 11
10.8583976892
 21
11.8039502442
 31
0.0
 11
10.8581327455
 21
11.794691271
 31
0.0
 11
10.8578595407
 21
11.789462
 31
0.0
  0
SPLINE
  5
5B5
100
AcDbEntity
  8
CURVE
100
AcDbSpline
 62
253
  6
CONTINUOUS
 70
0
 71
3
 72
17
 73
13
 74
11
 42
0.0000001
 43
0.0000001
 44
0.0000000001
 12
-0.0026904132
 22
0.2348216885
 32
0.0
 13
0.0011985
 23
0.3624021181
 33
0.0
 40
0.0
 40
0.0
 40
0.0
 40
0.0
 40
0.1
 40
0.2
 40
0.3
 40
0.4
 40
0.5
 40
0.6
 40
0.7
 40
0.8
 40
0.9
 40
1.0
 40
1.0
 40
1.0
 40
1.0
 10
10.8468543417
 20
12.1169200743
 30
0.0
 10
10.8467646613
 20
12.1247474639
 30
0.0
 10
10.8465938635
 20
12.1417411809
 30
0.0
 10
10.846368368
 20
12.1707597672
 30
0.0
 10
10.8461770595
 20
12.2028488195
 30
0.0
 10
10.8460231365
 20
12.2374765041
 30
0.0
 10
10.8459091105
 20
12.2740756636
 30
0.0
 10
10.8458368578
 20
12.3120452497
 30
0.0
 10
10.8458075617
 20
12.3507614669
 30
0.0
 10
10.8458217104
 20
12.3895907868
 30
0.0
 10
10.8458790457
 20
12.427887976
 30
0.0
 10
10.845945497
 20
12.4526649294
 30
0.0
 10
10.845985447
 20
12.464745
 30
0.0
 11
10.8468543417
 21
12.1169200743
 31
0.0
 11
10.8465989804
 21
12.1423291827
 31
0.0
 11
10.8463740658
 21
12.1712715116
 31
0.0
 11
10.8461832904
 21
12.2032719249
 31
0.0
 11
10.846029786
 21
12.2378050833
 31
0.0
 11
10.8459160727
 21
12.274304068
 31
0.0
 11
10.8458440172
 21
12.3121696882
 31
0.0
 11
10.8458148025
 21
12.3507803173
 31
0.0
 11
10.8458289082
 21
12.3895020984
 31
0.0
 11
10.8458861027
 21
12.4276993495
 31
0.0
 11
10.845985447
 21
12.464745
 31
0.0
  0
SPLINE
  5
5B6
100
AcDbEntity
  8
CURVE
100
AcDbSpline
 62
253
  6
CONTINUOUS
 70
0
 71
3
 72
20
 73
16
 74
14
 42
0.0000001
 43
0.0000001
 44
0.0000000001
 12
0.0047178319
 22
-0.0810237229
 32
0.0
 13
0.0010773153
 23
0.5325662041
 33
0.0
 40
0.0
 40
0.0
 40
0.0
 40
0.0
 40
0.0769230769
 40
0.1538461538
 40
0.2307692308
 40
0.3076923077
 40
0.3846153846
 40
0.4615384615
 40
0.5384615385
 40
0.6153846154
 40
0.6923076923
 40
0.7692307692
 40
0.8461538462
 40
0.9230769231
 40
1.0
 40
1.0
 40
1.0
 40
1.0
 10
10.8580105564
 20
11.176416
 30
0.0
 10
10.8581315265
 20
11.1743384686
 30
0.0
 10
10.8583757799
 20
11.1717728557
 30
0.0
 10
10.8587434095
 20
11.1727583713
 30
0.0
 10
10.8591076866
 20
11.1785608488
 30
0.0
 10
10.859463757
 20
11.1891050411
 30
0.0
 10
10.8598069541
 20
11.2042519699
 30
0.0
 10
10.8601327593
 20
11.2238024779
 30
0.0
 10
10.8604368883
 20
11.2474994006
 30
0.0
 10
10.8607153404
 20
11.2750310146
 30
0.0
 10
10.8609644534
 20
11.3060353228
 30
0.0
 10
10.8611809497
 20
11.3401040099
 30
0.0
 10
10.8613619854
 20
11.3767908528
 30
0.0
 10
10.861505165
 20
11.4156062359
 30
0.0
 10
10.8615741607
 20
11.4425793906
 30
0.0
 10
10.8616017842
 20
11.4562349343
 30
0.0
 11
10.8580105564
 21
11.176416
 31
0.0
 11
10.8583759881
 21
11.1725785115
 31
0.0
 11
10.8587428507
 21
11.1735611983
 31
0.0
 11
10.8591063188
 21
11.1793511346
 31
0.0
 11
10.8594616115
 21
11.1898721638
 31
0.0
 11
10.8598040555
 21
11.2049858998
 31
0.0
 11
10.8601291466
 21
11.224493547
 31
0.0
 11
10.8604326088
 21
11.2481385158
 31
0.0
 11
10.8607104505
 21
11.275609797
 31
0.0
 11
10.8609590173
 21
11.3065460526
 31
0.0
 11
10.8611750396
 21
11.3405403692
 31
0.0
 11
10.8613556761
 21
11.3771456095
 31
0.0
 11
10.8614985507
 21
11.4158802941
 31
0.0
 11
10.8616017842
 21
11.4562349343
 31
0.0
  0
SPLINE
  5
5B7
100
AcDbEntity
  8
CURVE
100
AcDbSpline
 62
253
  6
CONTINUOUS
 70
0
 71
3
 72
15
 73
11
 74
9
 42
0.0000001
 43
0.0000001
 44
0.0000000001
 12
0.0002011924
 22
-0.5683921863
 32
0.0
 13
0.0045009726
 23
-0.2399420821
 33
0.0
 40
0.0
 40
0.0
 40
0.0
 40
0.0
 40
0.2498639433
 40
0.3748183959
 40
0.4997618558
 40
0.6247808446
 40
0.6873249284
 40
0.7498514302
 40
0.8749587671
 40
1.0
 40
1.0
 40
1.0
 40
1.0
 10
10.8441557344
 20
12.0247945666
 30
0.0
 10
10.8441724913
 20
11.9774543289
 30
0.0
 10
10.8441825815
 20
11.9063221282
 30
0.0
 10
10.8442782603
 20
11.8120587212
 30
0.0
 10
10.8444196249
 20
11.7426338067
 30
0.0
 10
10.8446151164
 20
11.687394118
 30
0.0
 10
10.8448268176
 20
11.6465404741
 30
0.0
 10
10.8450788528
 20
11.6087814172
 30
0.0
 10
10.845461241
 20
11.5681200782
 30
0.0
 10
10.8458194001
 20
11.5435806838
 30
0.0
 10
10.8460070025
 20
11.5335797993
 30
0.0
 11
10.8441557344
 21
12.0247945666
 31
0.0
 11
10.8442133489
 21
11.8828104869
 31
0.0
 11
10.8442898591
 21
11.8122717358
 31
0.0
 11
10.8444351162
 21
11.7431730731
 31
0.0
 11
10.8446726094
 21
11.6774680827
 31
0.0
 11
10.8448318655
 21
11.6469262816
 31
0.0
 11
10.8450202982
 21
11.6186618389
 31
0.0
 11
10.8454743883
 21
11.5701102337
 31
0.0
 11
10.8460070025
 21
11.5335797993
 31
0.0
  0
SPLINE
  5
5B8
100
AcDbEntity
  8
CURVE
100
AcDbSpline
 62
253
  6
CONTINUOUS
 70
0
 71
3
 72
18
 73
14
 74
12
 42
0.0000001
 43
0.0000001
 44
0.0000000001
 12
-0.0029481562
 22
0.1974547727
 32
0.0
 13
0.0009585407
 23
0.3755868317
 33
0.0
 40
0.0
 40
0.0
 40
0.0
 40
0.0
 40
0.0909090909
 40
0.1818181818
 40
0.2727272727
 40
0.3636363636
 40
0.4545454545
 40
0.5454545455
 40
0.6363636364
 40
0.7272727273
 40
0.8181818182
 40
0.9090909091
 40
1.0
 40
1.0
 40
1.0
 40
1.0
 10
10.8472080607
 20
13.989064556
 30
0.0
 10
10.8471187226
 20
13.995048034
 30
0.0
 10
10.8469461668
 20
14.0082643027
 30
0.0
 10
10.8467101634
 20
14.031501156
 30
0.0
 10
10.8465002274
 20
14.0578257429
 30
0.0
 10
10.8463194586
 20
14.0868523356
 30
0.0
 10
10.8461704689
 20
14.1181603081
 30
0.0
 10
10.8460554254
 20
14.1512946991
 30
0.0
 10
10.8459759983
 20
14.1857744922
 30
0.0
 10
10.8459333402
 20
14.2210984565
 30
0.0
 10
10.8459280749
 20
14.2567553315
 30
0.0
 10
10.8459602624
 20
14.2922207771
 30
0.0
 10
10.8460064189
 20
14.3154095809
 30
0.0
 10
10.8460354656
 20
14.326791
 30
0.0
 11
10.8472080607
 21
13.989064556
 31
0.0
 11
10.8469499718
 21
14.0088330444
 31
0.0
 11
10.8467145079
 21
14.0320157783
 31
0.0
 11
10.8465050886
 21
14.0582760772
 31
0.0
 11
10.8463247551
 21
14.0872325655
 31
0.0
 11
10.8461761266
 21
14.1184647111
 31
0.0
 11
10.8460613615
 21
14.1515189328
 31
0.0
 11
10.8459821265
 21
14.1859151874
 31
0.0
 11
10.8459395723
 21
14.2211539416
 31
0.0
 11
10.845934317
 21
14.2567234266
 31
0.0
 11
10.845966437
 21
14.2921070704
 31
0.0
 11
10.8460354656
 21
14.326791
 31
0.0
  0
SPLINE
  5
5B9
100
AcDbEntity
  8
CURVE
100
AcDbSpline
 62
253
  6
CONTINUOUS
 70
0
 71
3
 72
26
 73
22
 74
20
 42
0.0000001
 43
0.0000001
 44
0.0000000001
 12
0.004529836
 22
-0.2491453766
 32
0.0
 13
-0.0050084957
 23
0.0969888608
 33
0.0
 40
0.0
 40
0.0
 40
0.0
 40
0.0
 40
0.0686436388
 40
0.1393459095
 40
0.2085361439
 40
0.2435735153
 40
0.2794557006
 40
0.3149261915
 40
0.3492251073
 40
0.3837839232
 40
0.4193072226
 40
0.4550877157
 40
0.490108445
 40
0.5245242177
 40
0.5588876703
 40
0.6284822707
 40
0.698257873
 40
0.7674144567
 40
0.8367888071
 40
0.9749846861
 40
1.0
 40
1.0
 40
1.0
 40
1.0
 10
10.8586081171
 20
13.9645377429
 30
0.0
 10
10.8587117653
 20
13.9588369945
 30
0.0
 10
10.858942352
 20
13.9525899246
 30
0.0
 10
10.8592847318
 20
13.9463864506
 30
0.0
 10
10.8595647563
 20
13.9326412728
 30
0.0
 10
10.859718947
 20
13.9117667038
 30
0.0
 10
10.859794205
 20
13.8930445647
 30
0.0
 10
10.8598270816
 20
13.8728446994
 30
0.0
 10
10.8598056904
 20
13.8526701364
 30
0.0
 10
10.8597397012
 20
13.8339612817
 30
0.0
 10
10.8596484331
 20
13.8164990112
 30
0.0
 10
10.8595452696
 20
13.7998598322
 30
0.0
 10
10.8594418653
 20
13.7835079442
 30
0.0
 10
10.8593345854
 20
13.7678189081
 30
0.0
 10
10.8591797319
 20
13.7480284793
 30
0.0
 10
10.8589585365
 20
13.7261145757
 30
0.0
 10
10.8586583
 20
13.7052213272
 30
0.0
 10
10.8583276584
 20
13.6916586983
 30
0.0
 10
10.8578736206
 20
13.6813167322
 30
0.0
 10
10.8574839271
 20
13.6741617848
 30
0.0
 10
10.8572100645
 20
13.6780948443
 30
0.0
 10
10.8571683015
 20
13.6789035799
 30
0.0
 11
10.8586081171
 21
13.9645377429
 31
0.0
 11
10.8589385073
 21
13.9531922666
 31
0.0
 11
10.8592857476
 21
13.9445967015
 31
0.0
 11
10.859596449
 21
13.9267236049
 31
0.0
 11
10.8597112124
 21
13.9114253874
 31
0.0
 11
10.859787347
 21
13.8926975354
 31
0.0
 11
10.8598181372
 21
13.8725813415
 31
0.0
 11
10.8597984458
 21
13.8529619684
 31
0.0
 11
10.8597363923
 21
13.8343775735
 31
0.0
 11
10.8596467411
 21
13.8166911207
 31
0.0
 11
10.8595443064
 21
13.7997605199
 31
0.0
 11
10.8594403743
 21
13.7834892462
 31
0.0
 11
10.8593330577
 21
13.7679509269
 31
0.0
 11
10.8592174086
 21
13.7532591009
 31
0.0
 11
10.8589529768
 21
13.7270388934
 31
0.0
 11
10.8586522404
 21
13.7063888169
 31
0.0
 11
10.8583261584
 21
13.6926304507
 31
0.0
 11
10.8579857336
 21
13.684042021
 31
0.0
 11
10.8572940046
 21
13.6770995478
 31
0.0
 11
10.8571683015
 21
13.6789035799
 31
0.0
  0
SPLINE
  5
5BA
100
AcDbEntity
  8
CURVE
100
AcDbSpline
 62
253
  6
CONTINUOUS
 70
0
 71
3
 72
15
 73
11
 74
9
 42
0.0000001
 43
0.0000001
 44
0.0000000001
 12
-0.0008402231
 22
0.3490076304
 32
0.0
 13
-0.0029872687
 23
0.1178371406
 33
0.0
 40
0.0
 40
0.0
 40
0.0
 40
0.0
 40
0.125
 40
0.25
 40
0.375
 40
0.5
 40
0.625
 40
0.75
 40
0.875
 40
1.0
 40
1.0
 40
1.0
 40
1.0
 10
10.8616017817
 20
14.301746
 30
0.0
 10
10.8615667724
 20
14.3162879846
 30
0.0
 10
10.8614812638
 20
14.3449153778
 30
0.0
 10
10.8613086956
 20
14.3857391671
 30
0.0
 10
10.8610942816
 20
14.423877424
 30
0.0
 10
10.8608411896
 20
14.4587616993
 30
0.0
 10
10.8605531362
 20
14.489881719
 30
0.0
 10
10.8602343342
 20
14.516780603
 30
0.0
 10
10.8598895369
 20
14.5390606343
 30
0.0
 10
10.859645539
 20
14.5506236362
 30
0.0
 10
10.8595210695
 20
14.5555335171
 30
0.0
 11
10.8616017817
 21
14.301746
 31
0.0
 11
10.8614738796
 21
14.3445624944
 31
0.0
 11
10.8613017213
 21
14.3852915784
 31
0.0
 11
10.8610878353
 21
14.4233350937
 31
0.0
 11
10.8608353627
 21
14.4581343233
 31
0.0
 11
10.8605480114
 21
14.4891781964
 31
0.0
 11
10.8602300016
 21
14.5160107942
 31
0.0
 11
10.8598860036
 21
14.5382380463
 31
0.0
 11
10.8595210695
 21
14.5555335171
 31
0.0
  0
SPLINE
  5
5BB
100
AcDbEntity
  8
CURVE
100
AcDbSpline
 62
253
  6
CONTINUOUS
 70
0
 71
3
 72
17
 73
13
 74
11
 42
0.0000001
 43
0.0000001
 44
0.0000000001
 12
0.0039390868
 22
0.0481551221
 32
0.0
 13
0.0011843638
 23
0.4332063553
 33
0.0
 40
0.0
 40
0.0
 40
0.0
 40
0.0
 40
0.1
 40
0.2
 40
0.3
 40
0.4
 40
0.5
 40
0.6
 40
0.7
 40
0.8
 40
0.9
 40
1.0
 40
1.0
 40
1.0
 40
1.0
 10
10.8587058254
 20
13.035806
 30
0.0
 10
10.8588371283
 20
13.0374111707
 30
0.0
 10
10.8590983603
 20
13.0423743842
 30
0.0
 10
10.859479844
 20
13.0549657662
 30
0.0
 10
10.8598460873
 20
13.0725373747
 30
0.0
 10
10.8601920903
 20
13.0948518241
 30
0.0
 10
10.8605132138
 20
13.1216089085
 30
0.0
 10
10.8608051302
 20
13.152448514
 30
0.0
 10
10.8610639097
 20
13.1869549496
 30
0.0
 10
10.8612860738
 20
13.2246657383
 30
0.0
 10
10.861468611
 20
13.2650655804
 30
0.0
 10
10.8615622982
 20
13.2934479562
 30
0.0
 10
10.861601777
 20
13.307888168
 30
0.0
 11
10.8587058254
 21
13.035806
 31
0.0
 11
10.8590966329
 21
13.0432321445
 31
0.0
 11
10.8594773039
 21
13.055795804
 31
0.0
 11
10.8598427139
 21
13.0733278482
 31
0.0
 11
10.8601879437
 21
13.0955922633
 31
0.0
 11
10.860508346
 21
13.1222893287
 31
0.0
 11
10.8607996074
 21
13.1530596524
 31
0.0
 11
10.8610578071
 21
13.1874890085
 31
0.0
 11
10.8612794693
 21
13.2251139139
 31
0.0
 11
10.8614616099
 21
13.2654278673
 31
0.0
 11
10.861601777
 21
13.307888168
 31
0.0
  0
SPLINE
  5
5BC
100
AcDbEntity
  8
CURVE
100
AcDbSpline
 62
253
  6
CONTINUOUS
 70
0
 71
3
 72
16
 73
12
 74
10
 42
0.0000001
 43
0.0000001
 44
0.0000000001
 12
0.0006352912
 22
-0.4072361356
 32
0.0
 13
0.0032581847
 23
-0.1781559004
 33
0.0
 40
0.0
 40
0.0
 40
0.0
 40
0.0
 40
0.0625356946
 40
0.1250697494
 40
0.250134845
 40
0.5000349017
 40
0.5625923625
 40
0.6251849589
 40
0.7501564111
 40
0.8750757969
 40
1.0
 40
1.0
 40
1.0
 40
1.0
 10
10.8441557344
 20
13.7750034744
 30
0.0
 10
10.8441689772
 20
13.7665145429
 30
0.0
 10
10.8441928992
 20
13.7494861607
 30
0.0
 10
10.8442475495
 20
13.7155615723
 30
0.0
 10
10.8443542306
 20
13.6565059265
 30
0.0
 10
10.8445031602
 20
13.5982836271
 30
0.0
 10
10.8446863616
 20
13.5509896844
 30
0.0
 10
10.8448233712
 20
13.5202599869
 30
0.0
 10
10.8450338451
 20
13.4842809747
 30
0.0
 10
10.8453530642
 20
13.4472344344
 30
0.0
 10
10.8456110507
 20
13.4288199343
 30
0.0
 10
10.8457467261
 20
13.421401273
 30
0.0
 11
10.8441557344
 21
13.7750034744
 31
0.0
 11
10.8441937504
 21
13.749502381
 31
0.0
 11
10.8442344161
 21
13.724055711
 31
0.0
 11
10.8443278179
 21
13.6734364746
 31
0.0
 11
10.8445965264
 21
13.5747469905
 31
0.0
 11
10.8446881987
 21
13.5510954688
 31
0.0
 11
10.8447918291
 21
13.5280850534
 31
0.0
 11
10.8450450124
 21
13.485293673
 31
0.0
 11
10.8453643602
 21
13.4488048303
 31
0.0
 11
10.8457467261
 21
13.421401273
 31
0.0
  0
SPLINE
  5
5BD
100
AcDbEntity
  8
CURVE
100
AcDbSpline
 62
253
  6
CONTINUOUS
 70
0
 71
3
 72
23
 73
19
 74
17
 42
0.0000001
 43
0.0000001
 44
0.0000000001
 12
-0.0053925031
 22
0.1639081707
 32
0.0
 13
-0.0
 23
-0.6393346082
 33
0.0
 40
0.0
 40
0.0
 40
0.0
 40
0.0
 40
0.0625
 40
0.125
 40
0.1875
 40
0.25
 40
0.3125
 40
0.375
 40
0.4375
 40
0.5
 40
0.5625
 40
0.625
 40
0.6875
 40
0.75
 40
0.8125
 40
0.875
 40
0.9375
 40
1.0
 40
1.0
 40
1.0
 40
1.0
 10
10.8479878837
 20
14.898701
 30
0.0
 10
10.8478755399
 20
14.9021157536
 30
0.0
 10
10.8476472266
 20
14.9074767394
 30
0.0
 10
10.8472991592
 20
14.9109831254
 30
0.0
 10
10.8469498276
 20
14.9099151449
 30
0.0
 10
10.8466038546
 20
14.9042849997
 30
0.0
 10
10.8462657462
 20
14.8941667366
 30
0.0
 10
10.8459399248
 20
14.8796924581
 30
0.0
 10
10.8456306474
 20
14.8610513523
 30
0.0
 10
10.8453419559
 20
14.8384870172
 30
0.0
 10
10.8450776231
 20
14.8122943352
 30
0.0
 10
10.8448411033
 20
14.7828155903
 30
0.0
 10
10.8446354873
 20
14.750436055
 30
0.0
 10
10.8444634624
 20
14.7155787432
 30
0.0
 10
10.8443272765
 20
14.6786996723
 30
0.0
 10
10.8442287093
 20
14.6402789551
 30
0.0
 10
10.844169049
 20
14.6008255299
 30
0.0
 10
10.8441557332
 20
14.574161471
 30
0.0
 10
10.8441557332
 20
14.560842
 30
0.0
 11
10.8479878837
 21
14.898701
 31
0.0
 11
10.8476462937
 21
14.9067208906
 31
0.0
 11
10.8472989485
 21
14.910220731
 31
0.0
 11
10.8469503874
 21
14.9091547841
 31
0.0
 11
10.8466051654
 21
14.90353698
 31
0.0
 11
10.846267794
 21
14.893440734
 31
0.0
 11
10.8459426821
 21
14.8789979869
 31
0.0
 11
10.8456340784
 21
14.8603974807
 31
0.0
 11
10.8453460157
 21
14.8378822927
 31
0.0
 11
10.8450822586
 21
14.8117466581
 31
0.0
 11
10.8448462539
 21
14.7823321252
 31
0.0
 11
10.8446410858
 21
14.7500230922
 31
0.0
 11
10.8444694355
 21
14.7152417834
 31
0.0
 11
10.8443335463
 21
14.6784427313
 31
0.0
 11
10.8442351938
 21
14.6401068371
 31
0.0
 11
10.8441756634
 21
14.600735086
 31
0.0
 11
10.8441557332
 21
14.560842
 31
0.0
  0
SPLINE
  5
5BE
100
AcDbEntity
  8
CURVE
100
AcDbSpline
 62
253
  6
CONTINUOUS
 70
0
 71
3
 72
18
 73
14
 74
12
 42
0.0000001
 43
0.0000001
 44
0.0000000001
 12
-0.0006118675
 22
-0.3875603078
 32
0.0
 13
-0.0034313337
 23
0.022274717
 33
0.0
 40
0.0
 40
0.0
 40
0.0
 40
0.0
 40
0.0909090909
 40
0.1818181818
 40
0.2727272727
 40
0.3636363636
 40
0.4545454545
 40
0.5454545455
 40
0.6363636364
 40
0.7272727273
 40
0.8181818182
 40
0.9090909091
 40
1.0
 40
1.0
 40
1.0
 40
1.0
 10
10.8599237009
 20
15.7661069382
 30
0.0
 10
10.8599051595
 20
15.7543626864
 30
0.0
 10
10.8598545069
 20
15.731125231
 30
0.0
 10
10.8597393098
 20
15.6977369117
 30
0.0
 10
10.8595868419
 20
15.6663646797
 30
0.0
 10
10.8593997554
 20
15.6375596578
 30
0.0
 10
10.8591812857
 20
15.6118183955
 30
0.0
 10
10.8589352164
 20
15.5895871114
 30
0.0
 10
10.8586658061
 20
15.5712505416
 30
0.0
 10
10.8583777239
 20
15.5571261477
 30
0.0
 10
10.8580759385
 20
15.5474585713
 30
0.0
 10
10.8577657452
 20
15.542414727
 30
0.0
 10
10.8575567486
 20
15.5421940086
 30
0.0
 10
10.8574527688
 20
15.542869
 30
0.0
 11
10.8599237009
 21
15.7661069382
 31
0.0
 11
10.8598479705
 21
15.731369875
 31
0.0
 11
10.859733098
 21
15.6980729262
 31
0.0
 11
10.8595810721
 21
15.666792548
 31
0.0
 11
10.8593945248
 21
15.6380702844
 31
0.0
 11
10.8591766858
 21
15.6124033918
 31
0.0
 11
10.8589313262
 21
15.5902362304
 31
0.0
 11
10.8586626941
 21
15.5719525709
 31
0.0
 11
10.85837544
 21
15.5578689506
 31
0.0
 11
10.8580745372
 21
15.5482291933
 31
0.0
 11
10.8577651949
 21
15.5432001881
 31
0.0
 11
10.8574527688
 21
15.542869
 31
0.0
  0
LINE
  5
5BF
100
AcDbEntity
  8
CURVE
100
AcDbLine
 62
253
  6
CONTINUOUS
 10
10.8571683015
 20
13.6789035799
 11
10.8566375316
 21
13.7019279078
  0
SPLINE
  5
5C0
100
AcDbEntity
  8
RACCORDO
100
AcDbSpline
 62
7
  6
CONTINUOUS
 70
0
 71
3
 72
14
 73
10
 74
8
 42
0.0000001
 43
0.0000001
 44
0.0000000001
 12
0.0
 22
-0.2198208216
 32
0.0
 13
-0.2198208216
 23
0.0
 33
0.0
 40
0.0
 40
0.0
 40
0.0
 40
0.0
 40
0.0575689586
 40
0.1314768983
 40
0.2285940282
 40
0.3494987305
 40
0.4917360688
 40
0.651165271
 40
1.0
 40
1.0
 40
1.0
 40
1.0
 10
4.5
 20
23.5397902522
 30
0.0
 10
4.5
 20
23.535571967
 30
0.0
 10
4.4964174337
 20
23.5259569941
 30
0.0
 10
4.4837898601
 20
23.5145098452
 30
0.0
 10
4.4649578039
 20
23.5041599099
 30
0.0
 10
4.4400657656
 20
23.4951420748
 30
0.0
 10
4.4099677612
 20
23.4877029507
 30
0.0
 10
4.362876549
 20
23.4801019446
 30
0.0
 10
4.3255603789
 20
23.4779868533
 30
0.0
 10
4.3
 20
23.4779868533
 30
0.0
 11
4.5
 21
23.5397902522
 31
0.0
 11
4.4961570561
 21
23.5277330072
 31
0.0
 11
4.4847759065
 21
23.5161391154
 31
0.0
 11
4.4662939225
 21
23.5054541235
 31
0.0
 11
4.4414213562
 21
23.4960886498
 31
0.0
 11
4.4111140466
 21
23.4884026041
 31
0.0
 11
4.3765366865
 21
23.482691357
 31
0.0
 11
4.3
 21
23.4779868533
 31
0.0
  0
SPLINE
  5
5C1
100
AcDbEntity
  8
RACCORDO
100
AcDbSpline
 62
7
  6
CONTINUOUS
 70
0
 71
3
 72
14
 73
10
 74
8
 42
0.0000001
 43
0.0000001
 44
0.0000000001
 12
-0.2198208216
 22
0.0
 32
0.0
 13
0.0
 23
0.2198208216
 33
0.0
 40
0.0
 40
0.0
 40
0.0
 40
0.0
 40
0.348834729
 40
0.5082639312
 40
0.6505012695
 40
0.7714059718
 40
0.8685231017
 40
0.9424310414
 40
1.0
 40
1.0
 40
1.0
 40
1.0
 10
-4.3
 20
23.4779868533
 30
0.0
 10
-4.3255603789
 20
23.4779868533
 30
0.0
 10
-4.362876549
 20
23.4801019446
 30
0.0
 10
-4.4099677612
 20
23.4877029507
 30
0.0
 10
-4.4400657656
 20
23.4951420748
 30
0.0
 10
-4.4649578039
 20
23.5041599099
 30
0.0
 10
-4.4837898601
 20
23.5145098452
 30
0.0
 10
-4.4964174337
 20
23.5259569941
 30
0.0
 10
-4.5
 20
23.535571967
 30
0.0
 10
-4.5
 20
23.5397902522
 30
0.0
 11
-4.3
 21
23.4779868533
 31
0.0
 11
-4.3765366865
 21
23.482691357
 31
0.0
 11
-4.4111140466
 21
23.4884026041
 31
0.0
 11
-4.4414213562
 21
23.4960886498
 31
0.0
 11
-4.4662939225
 21
23.5054541235
 31
0.0
 11
-4.4847759065
 21
23.5161391154
 31
0.0
 11
-4.4961570561
 21
23.5277330072
 31
0.0
 11
-4.5
 21
23.5397902522
 31
0.0
  0
SPLINE
  5
5C2
100
AcDbEntity
  8
RACCORDO
100
AcDbSpline
 62
7
  6
CONTINUOUS
 70
0
 71
3
 72
14
 73
10
 74
8
 42
0.0000001
 43
0.0000001
 44
0.0000000001
 12
0.0
 22
0.2198208216
 32
0.0
 13
0.2198208216
 23
0.0
 33
0.0
 40
0.0
 40
0.0
 40
0.0
 40
0.0
 40
0.0575689586
 40
0.1314768983
 40
0.2285940282
 40
0.3494987305
 40
0.4917360688
 40
0.651165271
 40
1.0
 40
1.0
 40
1.0
 40
1.0
 10
-4.5
 20
-23.5397902522
 30
0.0
 10
-4.5
 20
-23.535571967
 30
0.0
 10
-4.4964174337
 20
-23.5259569941
 30
0.0
 10
-4.4837898601
 20
-23.5145098452
 30
0.0
 10
-4.4649578039
 20
-23.5041599099
 30
0.0
 10
-4.4400657656
 20
-23.4951420748
 30
0.0
 10
-4.4099677612
 20
-23.4877029507
 30
0.0
 10
-4.362876549
 20
-23.4801019446
 30
0.0
 10
-4.3255603789
 20
-23.4779868533
 30
0.0
 10
-4.3
 20
-23.4779868533
 30
0.0
 11
-4.5
 21
-23.5397902522
 31
0.0
 11
-4.4961570561
 21
-23.5277330072
 31
0.0
 11
-4.4847759065
 21
-23.5161391154
 31
0.0
 11
-4.4662939225
 21
-23.5054541235
 31
0.0
 11
-4.4414213562
 21
-23.4960886498
 31
0.0
 11
-4.4111140466
 21
-23.4884026041
 31
0.0
 11
-4.3765366865
 21
-23.482691357
 31
0.0
 11
-4.3
 21
-23.4779868533
 31
0.0
  0
SPLINE
  5
5C3
100
AcDbEntity
  8
RACCORDO
100
AcDbSpline
 62
7
  6
CONTINUOUS
 70
0
 71
3
 72
14
 73
10
 74
8
 42
0.0000001
 43
0.0000001
 44
0.0000000001
 12
0.2198208216
 22
0.0
 32
0.0
 13
-0.0
 23
-0.2198208216
 33
0.0
 40
0.0
 40
0.0
 40
0.0
 40
0.0
 40
0.348834729
 40
0.5082639312
 40
0.6505012695
 40
0.7714059718
 40
0.8685231017
 40
0.9424310414
 40
1.0
 40
1.0
 40
1.0
 40
1.0
 10
4.3
 20
-23.4779868533
 30
0.0
 10
4.3255603789
 20
-23.4779868533
 30
0.0
 10
4.362876549
 20
-23.4801019446
 30
0.0
 10
4.4099677612
 20
-23.4877029507
 30
0.0
 10
4.4400657656
 20
-23.4951420748
 30
0.0
 10
4.4649578039
 20
-23.5041599099
 30
0.0
 10
4.4837898601
 20
-23.5145098452
 30
0.0
 10
4.4964174337
 20
-23.5259569941
 30
0.0
 10
4.5
 20
-23.535571967
 30
0.0
 10
4.5
 20
-23.5397902522
 30
0.0
 11
4.3
 21
-23.4779868533
 31
0.0
 11
4.3765366865
 21
-23.482691357
 31
0.0
 11
4.4111140466
 21
-23.4884026041
 31
0.0
 11
4.4414213562
 21
-23.4960886498
 31
0.0
 11
4.4662939225
 21
-23.5054541235
 31
0.0
 11
4.4847759065
 21
-23.5161391154
 31
0.0
 11
4.4961570561
 21
-23.5277330072
 31
0.0
 11
4.5
 21
-23.5397902522
 31
0.0
  0
SPLINE
  5
5C4
100
AcDbEntity
  8
ASSI
100
AcDbSpline
 62
253
  6
CONTINUOUS
 70
0
 71
3
 72
26
 73
22
 74
20
 42
0.0000001
 43
0.0000001
 44
0.0000000001
 12
0.2500203005
 22
-0.0021818941
 32
0.0
 13
-0.0021817282
 23
-0.2500203019
 33
0.0
 40
0.0
 40
0.0
 40
0.0
 40
0.0
 40
0.00036962
 40
0.0012980631
 40
0.0028178317
 40
0.004933598
 40
0.010955585
 40
0.0193558357
 40
0.0301151854
 40
0.0432103007
 40
0.0586082756
 40
0.0762736764
 40
0.1182298899
 40
0.1686762985
 40
0.2271274926
 40
0.2930206409
 40
0.365721389
 40
0.4445300547
 40
0.6173847869
 40
0.8049412559
 40
1.0
 40
1.0
 40
1.0
 40
1.0
 10
-32.2471368547
 20
-21.0571216979
 30
0.0
 10
-32.2471060505
 20
-21.0571219667
 30
0.0
 10
-32.2470641149
 20
-21.0572614727
 30
0.0
 10
-32.2470221453
 20
-21.057459726
 30
0.0
 10
-32.246973917
 20
-21.0578551594
 30
0.0
 10
-32.2469038117
 20
-21.0586462725
 30
0.0
 10
-32.246825572
 20
-21.0600305963
 30
0.0
 10
-32.2467421332
 20
-21.0621238159
 30
0.0
 10
-32.246663746
 20
-21.0648124285
 30
0.0
 10
-32.2465908281
 20
-21.0680825167
 30
0.0
 10
-32.2465239981
 20
-21.0719291317
 30
0.0
 10
-32.2464385196
 20
-21.0781808579
 30
0.0
 10
-32.2463538191
 20
-21.0873539825
 30
0.0
 10
-32.2462835919
 20
-21.0999264336
 30
0.0
 10
-32.2462416148
 20
-21.1144940278
 30
0.0
 10
-32.2462284538
 20
-21.1309164122
 30
0.0
 10
-32.2462444874
 20
-21.1490354543
 30
0.0
 10
-32.2463067974
 20
-21.1760689591
 30
0.0
 10
-32.2464597606
 20
-21.2126746949
 30
0.0
 10
-32.2467436126
 20
-21.2589685308
 30
0.0
 10
-32.2469949996
 20
-21.2908559633
 30
0.0
 10
-32.2471368547
 20
-21.3071121787
 30
0.0
 11
-32.2471368547
 21
-21.0571216979
 31
0.0
 11
-32.247084001
 21
-21.0571975082
 31
0.0
 11
-32.2470324762
 21
-21.0574238564
 31
0.0
 11
-32.2469823166
 21
-21.0578005186
 31
0.0
 11
-32.2469335582
 21
-21.0583272715
 31
0.0
 11
-32.2468403874
 21
-21.0598300624
 31
0.0
 11
-32.246753203
 21
-21.0619285652
 31
0.0
 11
-32.2466722013
 21
-21.0646175038
 31
0.0
 11
-32.2465975725
 21
-21.0678908225
 31
0.0
 11
-32.2465294927
 21
-21.0717401734
 31
0.0
 11
-32.2464681329
 21
-21.0761566241
 31
0.0
 11
-32.2463661438
 21
-21.0866464329
 31
0.0
 11
-32.2462925852
 21
-21.0992593249
 31
0.0
 11
-32.2462481655
 21
-21.113873799
 31
0.0
 11
-32.2462333114
 21
-21.1303490443
 31
0.0
 11
-32.2462481655
 21
-21.1485263933
 31
0.0
 11
-32.2462925852
 21
-21.1682308598
 31
0.0
 11
-32.246468133
 21
-21.211449341
 31
0.0
 11
-32.246753203
 21
-21.2583431848
 31
0.0
 11
-32.2471368547
 21
-21.3071121787
 31
0.0
  0
SPLINE
  5
5C5
100
AcDbEntity
  8
ASSI
100
AcDbSpline
 62
253
  6
CONTINUOUS
 70
0
 71
3
 72
26
 73
22
 74
20
 42
0.0000001
 43
0.0000001
 44
0.0000000001
 12
0.2500203004
 22
0.0021818941
 32
0.0
 13
-0.0021817279
 23
0.2500203019
 33
0.0
 40
0.0
 40
0.0
 40
0.0
 40
0.0
 40
0.00036962
 40
0.0012980631
 40
0.0028178316
 40
0.004933598
 40
0.0109555849
 40
0.0193558357
 40
0.0301151854
 40
0.0432103007
 40
0.0586082756
 40
0.0762736764
 40
0.11822989
 40
0.1686762985
 40
0.2271274927
 40
0.2930206409
 40
0.3657213891
 40
0.4445300547
 40
0.617384787
 40
0.804941256
 40
1.0
 40
1.0
 40
1.0
 40
1.0
 10
-32.2471368547
 20
21.0571216979
 30
0.0
 10
-32.2471060505
 20
21.0571219667
 30
0.0
 10
-32.2470641149
 20
21.0572614727
 30
0.0
 10
-32.2470221453
 20
21.057459726
 30
0.0
 10
-32.246973917
 20
21.0578551594
 30
0.0
 10
-32.2469038117
 20
21.0586462725
 30
0.0
 10
-32.246825572
 20
21.0600305963
 30
0.0
 10
-32.2467421333
 20
21.0621238159
 30
0.0
 10
-32.2466637461
 20
21.0648124285
 30
0.0
 10
-32.2465908281
 20
21.0680825167
 30
0.0
 10
-32.2465239982
 20
21.0719291318
 30
0.0
 10
-32.2464385196
 20
21.0781808579
 30
0.0
 10
-32.2463538191
 20
21.0873539826
 30
0.0
 10
-32.246283592
 20
21.0999264336
 30
0.0
 10
-32.2462416149
 20
21.1144940278
 30
0.0
 10
-32.2462284539
 20
21.1309164122
 30
0.0
 10
-32.2462444875
 20
21.1490354543
 30
0.0
 10
-32.2463067975
 20
21.1760689592
 30
0.0
 10
-32.2464597607
 20
21.2126746949
 30
0.0
 10
-32.2467436126
 20
21.2589685308
 30
0.0
 10
-32.2469949996
 20
21.2908559633
 30
0.0
 10
-32.2471368547
 20
21.3071121787
 30
0.0
 11
-32.2471368547
 21
21.0571216979
 31
0.0
 11
-32.247084001
 21
21.0571975082
 31
0.0
 11
-32.2470324762
 21
21.0574238564
 31
0.0
 11
-32.2469823166
 21
21.0578005186
 31
0.0
 11
-32.2469335582
 21
21.0583272715
 31
0.0
 11
-32.2468403874
 21
21.0598300624
 31
0.0
 11
-32.246753203
 21
21.0619285652
 31
0.0
 11
-32.2466722013
 21
21.0646175038
 31
0.0
 11
-32.2465975726
 21
21.0678908225
 31
0.0
 11
-32.2465294927
 21
21.0717401734
 31
0.0
 11
-32.246468133
 21
21.0761566242
 31
0.0
 11
-32.2463661439
 21
21.0866464329
 31
0.0
 11
-32.2462925853
 21
21.0992593249
 31
0.0
 11
-32.2462481656
 21
21.113873799
 31
0.0
 11
-32.2462333115
 21
21.1303490444
 31
0.0
 11
-32.2462481656
 21
21.1485263933
 31
0.0
 11
-32.2462925853
 21
21.1682308598
 31
0.0
 11
-32.246468133
 21
21.211449341
 31
0.0
 11
-32.246753203
 21
21.2583431849
 31
0.0
 11
-32.2471368547
 21
21.3071121787
 31
0.0
  0
SPLINE
  5
5C6
100
AcDbEntity
  8
ASSI
100
AcDbSpline
 62
253
  6
CONTINUOUS
 70
0
 71
3
 72
13
 73
9
 74
7
 42
0.0000001
 43
0.0000001
 44
0.0000000001
 12
-0.0000014606
 22
-0.3876572938
 32
0.0
 13
-0.3876547919
 23
0.0013927658
 33
0.0
 40
0.0
 40
0.0
 40
0.0
 40
0.0
 40
0.2169485768
 40
0.4464024597
 40
0.5712162724
 40
0.7051520789
 40
0.8489779627
 40
1.0
 40
1.0
 40
1.0
 40
1.0
 10
-31.9993184885
 20
21.8622594063
 30
0.0
 10
-31.9993185942
 20
21.834225507
 30
0.0
 10
-32.0091694742
 20
21.7760908445
 30
0.0
 10
-32.0468545898
 20
21.7106219769
 30
0.0
 10
-32.0924784002
 20
21.6665424243
 30
0.0
 10
-32.1367833757
 20
21.6385139662
 30
0.0
 10
-32.1893486808
 20
21.6196238596
 30
0.0
 10
-32.2276220492
 20
21.6152573015
 30
0.0
 10
-32.2471368547
 20
21.6153274143
 30
0.0
 11
-31.9993184885
 21
21.8622594063
 31
0.0
 11
-32.0135227904
 21
21.7793658997
 31
0.0
 11
-32.0578418146
 21
21.7022437074
 31
0.0
 11
-32.0926254439
 21
21.668610303
 31
0.0
 11
-32.1365046703
 21
21.6408537956
 31
0.0
 11
-32.1889727161
 21
21.6219926917
 31
0.0
 11
-32.2471368547
 21
21.6153274143
 31
0.0
  0
SPLINE
  5
5C7
100
AcDbEntity
  8
ASSI
100
AcDbSpline
 62
253
  6
CONTINUOUS
 70
0
 71
3
 72
13
 73
9
 74
7
 42
0.0000001
 43
0.0000001
 44
0.0000000001
 12
0.3876547918
 22
0.0013927741
 32
0.0
 13
0.0000014604
 23
-0.3876572938
 33
0.0
 40
0.0
 40
0.0
 40
0.0
 40
0.0
 40
0.1510220373
 40
0.2948479211
 40
0.4287837276
 40
0.5535975403
 40
0.7830514232
 40
1.0
 40
1.0
 40
1.0
 40
1.0
 10
-32.2471368547
 20
-21.6153274143
 30
0.0
 10
-32.2276220492
 20
-21.6152573011
 30
0.0
 10
-32.1893486808
 20
-21.6196238598
 30
0.0
 10
-32.1367833757
 20
-21.6385139661
 30
0.0
 10
-32.0924784002
 20
-21.6665424243
 30
0.0
 10
-32.0468545898
 20
-21.7106219769
 30
0.0
 10
-32.0091694742
 20
-21.7760908445
 30
0.0
 10
-31.9993185942
 20
-21.834225507
 30
0.0
 10
-31.9993184885
 20
-21.8622594063
 30
0.0
 11
-32.2471368547
 21
-21.6153274143
 31
0.0
 11
-32.1889727161
 21
-21.6219926917
 31
0.0
 11
-32.1365046703
 21
-21.6408537956
 31
0.0
 11
-32.0926254439
 21
-21.668610303
 31
0.0
 11
-32.0578418146
 21
-21.7022437074
 31
0.0
 11
-32.0135227904
 21
-21.7793658997
 31
0.0
 11
-31.9993184885
 21
-21.8622594063
 31
0.0
  0
SPLINE
  5
5C8
100
AcDbEntity
  8
ASSI
100
AcDbSpline
 62
253
  6
CONTINUOUS
 70
0
 71
3
 72
8
 73
4
 74
2
 42
0.0000001
 43
0.0000001
 44
0.0000000001
 12
-8.8017432077
 22
-0.0259318673
 32
0.0
 13
-8.8017471982
 23
-0.0245400546
 33
0.0
 40
0.0
 40
0.0
 40
0.0
 40
0.0
 40
1.0
 40
1.0
 40
1.0
 40
1.0
 10
-31.9497548156
 20
-19.9443110478
 30
0.0
 10
-34.8836692182
 20
-19.9529550035
 30
0.0
 10
-37.8175843757
 20
-19.9613452437
 30
0.0
 10
-40.7515001084
 20
-19.9695252619
 30
0.0
 11
-31.9497548156
 21
-19.9443110478
 31
0.0
 11
-40.7515001084
 21
-19.9695252619
 31
0.0
  0
LINE
  5
5C9
100
AcDbEntity
  8
ASSI
100
AcDbLine
 62
253
  6
CONTINUOUS
 10
-31.9497548154
 20
-19.792783293
 11
-35.7515001075
 21
-19.8067986342
  0
LINE
  5
5CA
100
AcDbEntity
  8
ASSI
100
AcDbLine
 62
253
  6
CONTINUOUS
 10
-36.9369949421
 20
-19.8110804352
 11
-40.7515001195
 21
-19.8245883138
  0
SPLINE
  5
5CB
100
AcDbEntity
  8
ASSI
100
AcDbSpline
 62
253
  6
CONTINUOUS
 70
0
 71
3
 72
8
 73
4
 74
2
 42
0.0000001
 43
0.0000001
 44
0.0000000001
 12
-8.8017431351
 22
0.0261760115
 32
0.0
 13
-8.8017472712
 23
0.0247461667
 33
0.0
 40
0.0
 40
0.0
 40
0.0
 40
0.0
 40
1.0
 40
1.0
 40
1.0
 40
1.0
 10
-31.9497548156
 20
19.9401661239
 30
0.0
 10
-34.883669194
 20
19.9488914611
 30
0.0
 10
-37.8175843528
 20
19.9573570424
 30
0.0
 10
-40.7515001098
 20
19.9656057646
 30
0.0
 11
-31.9497548156
 21
19.9401661239
 31
0.0
 11
-40.7515001098
 21
19.9656057646
 31
0.0
  0
LINE
  5
5CC
100
AcDbEntity
  8
ASSI
100
AcDbLine
 62
253
  6
CONTINUOUS
 10
-31.9497548154
 20
19.7875085166
 11
-35.7515001048
 21
19.8016891087
  0
LINE
  5
5CD
100
AcDbEntity
  8
ASSI
100
AcDbLine
 62
253
  6
CONTINUOUS
 10
-36.9483456722
 20
19.8060610076
 11
-40.7515001193
 21
19.8196771525
  0
SPLINE
  5
5CE
100
AcDbEntity
  8
ASSI
100
AcDbSpline
 62
253
  6
CONTINUOUS
 70
0
 71
3
 72
13
 73
9
 74
7
 42
0.0000001
 43
0.0000001
 44
0.0000000001
 12
0.0
 22
-0.3344049317
 32
0.0
 13
-0.334398565
 23
-0.0020635158
 33
0.0
 40
0.0
 40
0.0
 40
0.0
 40
0.0
 40
0.1035455591
 40
0.2108095445
 40
0.3246360448
 40
0.4465173632
 40
0.7128935712
 40
1.0
 40
1.0
 40
1.0
 40
1.0
 10
-31.7515001224
 20
-21.6854894422
 30
0.0
 10
-31.7515001224
 20
-21.6970314907
 30
0.0
 10
-31.7548294806
 20
-21.7206487598
 30
0.0
 10
-31.7694040421
 20
-21.754183837
 30
0.0
 10
-31.7927942555
 20
-21.7848452319
 30
0.0
 10
-31.8355706091
 20
-21.8214614564
 30
0.0
 10
-31.9053581581
 20
-21.8534004019
 30
0.0
 10
-31.9673158293
 20
-21.8620619235
 30
0.0
 10
-31.9993184885
 20
-21.8622594063
 30
0.0
 11
-31.7515001224
 21
-21.6854894422
 31
0.0
 11
-31.7562508637
 21
-21.7197881363
 31
0.0
 11
-31.7703221366
 21
-21.7527824978
 31
0.0
 11
-31.7931793322
 21
-21.7832197709
 31
0.0
 11
-31.8239538763
 21
-21.80994277
 31
0.0
 11
-31.9043196112
 21
-21.848363504
 31
0.0
 11
-31.9993184885
 21
-21.8622594063
 31
0.0
  0
SPLINE
  5
5CF
100
AcDbEntity
  8
ASSI
100
AcDbSpline
 62
253
  6
CONTINUOUS
 70
0
 71
3
 72
13
 73
9
 74
7
 42
0.0000001
 43
0.0000001
 44
0.0000000001
 12
0.0
 22
-0.3344049316
 32
0.0
 13
-0.3343985649
 23
-0.0020635162
 33
0.0
 40
0.0
 40
0.0
 40
0.0
 40
0.0
 40
0.103545559
 40
0.2108095443
 40
0.3246360446
 40
0.446517363
 40
0.7128935711
 40
1.0
 40
1.0
 40
1.0
 40
1.0
 10
-31.7515001224
 20
-22.5
 30
0.0
 10
-31.7515001224
 20
-22.5115420485
 30
0.0
 10
-31.7548294806
 20
-22.5351593176
 30
0.0
 10
-31.7694040421
 20
-22.5686943947
 30
0.0
 10
-31.7927942555
 20
-22.5993557896
 30
0.0
 10
-31.8355706091
 20
-22.6359720141
 30
0.0
 10
-31.9053581581
 20
-22.6679109597
 30
0.0
 10
-31.9673158293
 20
-22.6765724813
 30
0.0
 10
-31.9993184885
 20
-22.6767699642
 30
0.0
 11
-31.7515001224
 21
-22.5
 31
0.0
 11
-31.7562508637
 21
-22.5342986941
 31
0.0
 11
-31.7703221366
 21
-22.5672930556
 31
0.0
 11
-31.7931793322
 21
-22.5977303286
 31
0.0
 11
-31.8239538763
 21
-22.6244533278
 31
0.0
 11
-31.9043196112
 21
-22.6628740618
 31
0.0
 11
-31.9993184885
 21
-22.6767699642
 31
0.0
  0
SPLINE
  5
5D0
100
AcDbEntity
  8
ASSI
100
AcDbSpline
 62
253
  6
CONTINUOUS
 70
0
 71
3
 72
19
 73
15
 74
13
 42
0.0000001
 43
0.0000001
 44
0.0000000001
 12
0.0733133172
 22
0.0
 32
0.0
 13
0.000904601
 23
0.0733077362
 33
0.0
 40
0.0
 40
0.0
 40
0.0
 40
0.0
 40
0.0045987666
 40
0.017082719
 40
0.0376758934
 40
0.0663649571
 40
0.1030950628
 40
0.147784792
 40
0.2003267268
 40
0.2606005463
 40
0.4037427543
 40
0.5758313406
 40
0.7752322385
 40
1.0
 40
1.0
 40
1.0
 40
1.0
 10
-32.5015001224
 20
-23.25
 30
0.0
 10
-32.5013877388
 20
-23.25
 30
0.0
 10
-32.5013157176
 20
-23.2494055319
 30
0.0
 10
-32.501150824
 20
-23.2486666521
 30
0.0
 10
-32.5010299323
 20
-23.2470667556
 30
0.0
 10
-32.5008778283
 20
-23.245012075
 30
0.0
 10
-32.5007369621
 20
-23.2423085987
 30
0.0
 10
-32.5005923103
 20
-23.2390438961
 30
0.0
 10
-32.500450707
 20
-23.2351954037
 30
0.0
 10
-32.5002524963
 20
-23.228944327
 30
0.0
 10
-32.5000195949
 20
-23.2197701971
 30
0.0
 10
-32.4997650529
 20
-23.2071964967
 30
0.0
 10
-32.4995259142
 20
-23.1926271608
 30
0.0
 10
-32.4993862636
 20
-23.1822623694
 30
0.0
 10
-32.4993184885
 20
-23.1767699642
 30
0.0
 11
-32.5015001224
 21
-23.25
 31
0.0
 11
-32.5013487629
 21
-23.2496987344
 31
0.0
 11
-32.5011977145
 21
-23.2487960447
 31
0.0
 11
-32.501047403
 21
-23.2472937919
 31
0.0
 11
-32.5008982011
 21
-23.2451958002
 31
0.0
 11
-32.5007504514
 21
-23.2425070508
 31
0.0
 11
-32.500604502
 21
-23.2392339508
 31
0.0
 11
-32.5004607085
 21
-23.2353846121
 31
0.0
 11
-32.5003194217
 21
-23.2309679977
 31
0.0
 11
-32.500045714
 21
-23.2204773376
 31
0.0
 11
-32.499786019
 21
-23.2078636255
 31
0.0
 11
-32.4995428214
 21
-23.1932469073
 31
0.0
 11
-32.4993184885
 21
-23.1767699642
 31
0.0
  0
SPLINE
  5
5D1
100
AcDbEntity
  8
ASSI
100
AcDbSpline
 62
253
  6
CONTINUOUS
 70
0
 71
3
 72
19
 73
15
 74
13
 42
0.0000001
 43
0.0000001
 44
0.0000000001
 12
0.0733133171
 22
0.0
 32
0.0
 13
0.0009046022
 23
-0.0733077361
 33
0.0
 40
0.0
 40
0.0
 40
0.0
 40
0.0
 40
0.0045987657
 40
0.0170827178
 40
0.0376758922
 40
0.0663649558
 40
0.1030950615
 40
0.1477847907
 40
0.2003267256
 40
0.2606005453
 40
0.4037427534
 40
0.57583134
 40
0.7752322382
 40
1.0
 40
1.0
 40
1.0
 40
1.0
 10
-32.5015001224
 20
23.25
 30
0.0
 10
-32.5013877388
 20
23.25
 30
0.0
 10
-32.5013157179
 20
23.2494055318
 30
0.0
 10
-32.5011508243
 20
23.2486666522
 30
0.0
 10
-32.5010299327
 20
23.2470667555
 30
0.0
 10
-32.5008778288
 20
23.245012075
 30
0.0
 10
-32.5007369626
 20
23.2423085987
 30
0.0
 10
-32.5005923109
 20
23.2390438961
 30
0.0
 10
-32.5004507077
 20
23.2351954037
 30
0.0
 10
-32.500252497
 20
23.228944327
 30
0.0
 10
-32.5000195954
 20
23.219770197
 30
0.0
 10
-32.4997650534
 20
23.2071964967
 30
0.0
 10
-32.4995259144
 20
23.1926271608
 30
0.0
 10
-32.4993862637
 20
23.1822623694
 30
0.0
 10
-32.4993184885
 20
23.1767699642
 30
0.0
 11
-32.5015001224
 21
23.25
 31
0.0
 11
-32.5013487631
 21
23.2496987344
 31
0.0
 11
-32.5011977148
 21
23.2487960447
 31
0.0
 11
-32.5010474034
 21
23.2472937919
 31
0.0
 11
-32.5008982016
 21
23.2451958002
 31
0.0
 11
-32.5007504519
 21
23.2425070507
 31
0.0
 11
-32.5006045026
 21
23.2392339508
 31
0.0
 11
-32.5004607091
 21
23.2353846121
 31
0.0
 11
-32.5003194223
 21
23.2309679977
 31
0.0
 11
-32.5000457146
 21
23.2204773376
 31
0.0
 11
-32.4997860195
 21
23.2078636255
 31
0.0
 11
-32.4995428217
 21
23.1932469073
 31
0.0
 11
-32.4993184885
 21
23.1767699642
 31
0.0
  0
SPLINE
  5
5D2
100
AcDbEntity
  8
ASSI
100
AcDbSpline
 62
253
  6
CONTINUOUS
 70
0
 71
3
 72
13
 73
9
 74
7
 42
0.0000001
 43
0.0000001
 44
0.0000000001
 12
0.0
 22
0.3344049317
 32
0.0
 13
-0.334398565
 23
0.0020635158
 33
0.0
 40
0.0
 40
0.0
 40
0.0
 40
0.0
 40
0.1035455591
 40
0.2108095445
 40
0.3246360448
 40
0.4465173632
 40
0.7128935712
 40
1.0
 40
1.0
 40
1.0
 40
1.0
 10
-31.7515001224
 20
22.5
 30
0.0
 10
-31.7515001224
 20
22.5115420485
 30
0.0
 10
-31.7548294806
 20
22.5351593177
 30
0.0
 10
-31.7694040421
 20
22.5686943948
 30
0.0
 10
-31.7927942555
 20
22.5993557897
 30
0.0
 10
-31.8355706091
 20
22.6359720142
 30
0.0
 10
-31.9053581581
 20
22.6679109598
 30
0.0
 10
-31.9673158293
 20
22.6765724813
 30
0.0
 10
-31.9993184885
 20
22.6767699642
 30
0.0
 11
-31.7515001224
 21
22.5
 31
0.0
 11
-31.7562508637
 21
22.5342986941
 31
0.0
 11
-31.7703221366
 21
22.5672930557
 31
0.0
 11
-31.7931793322
 21
22.5977303288
 31
0.0
 11
-31.8239538763
 21
22.6244533279
 31
0.0
 11
-31.9043196112
 21
22.6628740619
 31
0.0
 11
-31.9993184885
 21
22.6767699642
 31
0.0
  0
SPLINE
  5
5D3
100
AcDbEntity
  8
ASSI
100
AcDbSpline
 62
253
  6
CONTINUOUS
 70
0
 71
3
 72
13
 73
9
 74
7
 42
0.0000001
 43
0.0000001
 44
0.0000000001
 12
0.0
 22
0.3344049318
 32
0.0
 13
-0.3343985651
 23
0.0020635153
 33
0.0
 40
0.0
 40
0.0
 40
0.0
 40
0.0
 40
0.1035455593
 40
0.2108095448
 40
0.3246360451
 40
0.4465173635
 40
0.7128935713
 40
1.0
 40
1.0
 40
1.0
 40
1.0
 10
-31.7515001224
 20
21.6854894422
 30
0.0
 10
-31.7515001224
 20
21.6970314907
 30
0.0
 10
-31.7548294806
 20
21.7206487599
 30
0.0
 10
-31.7694040421
 20
21.7541838371
 30
0.0
 10
-31.7927942555
 20
21.784845232
 30
0.0
 10
-31.8355706091
 20
21.8214614566
 30
0.0
 10
-31.9053581581
 20
21.8534004021
 30
0.0
 10
-31.9673158293
 20
21.8620619235
 30
0.0
 10
-31.9993184885
 20
21.8622594063
 30
0.0
 11
-31.7515001224
 21
21.6854894422
 31
0.0
 11
-31.7562508637
 21
21.7197881363
 31
0.0
 11
-31.7703221366
 21
21.7527824979
 31
0.0
 11
-31.7931793322
 21
21.7832197711
 31
0.0
 11
-31.8239538763
 21
21.8099427702
 31
0.0
 11
-31.9043196112
 21
21.8483635042
 31
0.0
 11
-31.9993184885
 21
21.8622594063
 31
0.0
  0
SPLINE
  5
5D4
100
AcDbEntity
  8
ASSI
100
AcDbSpline
 62
253
  6
CONTINUOUS
 70
0
 71
3
 72
16
 73
12
 74
10
 42
0.0000001
 43
0.0000001
 44
0.0000000001
 12
0.5994252567
 22
0.0010434429
 32
0.0
 13
-0.0000038442
 23
-0.5994261648
 33
0.0
 40
0.0
 40
0.0
 40
0.0
 40
0.0
 40
0.1710705202
 40
0.3348337198
 40
0.4856253533
 40
0.6198838919
 40
0.7363055586
 40
0.8358011598
 40
0.9216343131
 40
0.9613187424
 40
1.0
 40
1.0
 40
1.0
 40
1.0
 10
-32.2471470754
 20
-21.4385572564
 30
0.0
 10
-32.2129657453
 20
-21.4384977556
 30
0.0
 10
-32.1460022336
 20
-21.4417814016
 30
0.0
 10
-32.0499388032
 20
-21.4567060092
 30
0.0
 10
-31.9632558645
 20
-21.4805389013
 30
0.0
 10
-31.889101565
 20
-21.5118378441
 30
0.0
 10
-31.8294590274
 20
-21.5491326421
 30
0.0
 10
-31.7854421241
 20
-21.5910749815
 30
0.0
 10
-31.761956372
 20
-21.6303469536
 30
0.0
 10
-31.7529717373
 20
-21.6620648854
 30
0.0
 10
-31.7515000729
 20
-21.6777605895
 30
0.0
 10
-31.7515001224
 20
-21.6854894422
 30
0.0
 11
-32.2471470754
 21
-21.4385572564
 31
0.0
 11
-32.1447310684
 21
-21.4436820333
 31
0.0
 11
-32.0477714997
 21
-21.4590118237
 31
0.0
 11
-31.960735301
 21
-21.4833997739
 31
0.0
 11
-31.8868413079
 21
-21.5152807915
 31
0.0
 11
-31.8281109652
 21
-21.5529750828
 31
0.0
 11
-31.7856657218
 21
-21.5948721319
 31
0.0
 11
-31.7600542456
 21
-21.6394952249
 31
0.0
 11
-31.753639075
 21
-21.6624017539
 31
0.0
 11
-31.7515001224
 21
-21.6854894422
 31
0.0
  0
LINE
  5
5D5
100
AcDbEntity
  8
ASSI
100
AcDbLine
 62
253
  6
CONTINUOUS
 10
-32.2471368547
 20
-21.3071121787
 11
-31.7515001224
 21
-21.3092748574
  0
SPLINE
  5
5D6
100
AcDbEntity
  8
ASSI
100
AcDbSpline
 62
253
  6
CONTINUOUS
 70
0
 71
3
 72
14
 73
10
 74
8
 42
0.0000001
 43
0.0000001
 44
0.0000000001
 12
0.253800108
 22
0.0013424886
 32
0.0
 13
0.0
 23
0.2538036586
 33
0.0
 40
0.0
 40
0.0
 40
0.0
 40
0.0
 40
0.3017850663
 40
0.4439371151
 40
0.5762975261
 40
0.6972216638
 40
0.8065556604
 40
0.9061260105
 40
1.0
 40
1.0
 40
1.0
 40
1.0
 10
-31.9497548154
 20
-19.7927842516
 30
0.0
 10
-31.9242237879
 20
-19.7926492039
 30
0.0
 10
-31.8864310045
 20
-19.7881568549
 30
0.0
 10
-31.8399390204
 20
-19.7730934598
 30
0.0
 10
-31.8098198583
 20
-19.758204344
 30
0.0
 10
-31.7848963459
 20
-19.740013285
 30
0.0
 10
-31.7660899711
 20
-19.7190575707
 30
0.0
 10
-31.7542464525
 20
-19.6959753038
 30
0.0
 10
-31.7515001224
 20
-19.6795062356
 30
0.0
 10
-31.7515001224
 20
-19.6715643816
 30
0.0
 11
-31.9497548154
 21
-19.7927842516
 31
0.0
 11
-31.8737557284
 21
-19.7832551804
 31
0.0
 11
-31.8394808395
 21
-19.771989955
 31
0.0
 11
-31.8094630473
 21
-19.7569082045
 31
0.0
 11
-31.784843596
 21
-19.7385828288
 31
0.0
 11
-31.7665576786
 21
-19.7177105345
 31
0.0
 11
-31.7553007683
 21
-19.6950848513
 31
0.0
 11
-31.7515001224
 21
-19.6715643816
 31
0.0
  0
SPLINE
  5
5D7
100
AcDbEntity
  8
ASSI
100
AcDbSpline
 62
253
  6
CONTINUOUS
 70
0
 71
3
 72
16
 73
12
 74
10
 42
0.0000001
 43
0.0000001
 44
0.0000000001
 12
0.0000038457
 22
-0.5994261594
 32
0.0
 13
-0.5994252511
 23
0.0010434759
 33
0.0
 40
0.0
 40
0.0
 40
0.0
 40
0.0
 40
0.0386812571
 40
0.0783656872
 40
0.1641988404
 40
0.2636944417
 40
0.3801161082
 40
0.5143746467
 40
0.6651662799
 40
0.8289294796
 40
1.0
 40
1.0
 40
1.0
 40
1.0
 10
-31.7515001224
 20
21.6854894422
 30
0.0
 10
-31.7515000728
 20
21.6777605897
 30
0.0
 10
-31.7529717375
 20
21.6620648856
 30
0.0
 10
-31.7619563716
 20
21.630346954
 30
0.0
 10
-31.7854421237
 20
21.5910749822
 30
0.0
 10
-31.8294590263
 20
21.5491326429
 30
0.0
 10
-31.8891015632
 20
21.5118378451
 30
0.0
 10
-31.9632558617
 20
21.4805389023
 30
0.0
 10
-32.0499387995
 20
21.4567060098
 30
0.0
 10
-32.146002229
 20
21.4417814029
 30
0.0
 10
-32.2129657401
 20
21.4384977538
 30
0.0
 10
-32.24714707
 20
21.4385572565
 30
0.0
 11
-31.7515001224
 21
21.6854894422
 31
0.0
 11
-31.753639075
 21
21.6624017544
 31
0.0
 11
-31.7600542455
 21
21.6394952251
 31
0.0
 11
-31.7856657213
 21
21.5948721325
 31
0.0
 11
-31.8281109642
 21
21.5529750836
 31
0.0
 11
-31.8868413061
 21
21.5152807924
 31
0.0
 11
-31.9607352984
 21
21.4833997748
 31
0.0
 11
-32.047771496
 21
21.4590118245
 31
0.0
 11
-32.1447310637
 21
21.4436820337
 31
0.0
 11
-32.24714707
 21
21.4385572565
 31
0.0
  0
LINE
  5
5D8
100
AcDbEntity
  8
ASSI
100
AcDbLine
 62
253
  6
CONTINUOUS
 10
-31.7515001224
 20
21.3092748574
 11
-32.2471368547
 21
21.3071121787
  0
SPLINE
  5
5D9
100
AcDbEntity
  8
ASSI
100
AcDbSpline
 62
253
  6
CONTINUOUS
 70
0
 71
3
 72
26
 73
22
 74
20
 42
0.0000001
 43
0.0000001
 44
0.0000000001
 12
-0.2499727003
 22
-0.0043632897
 32
0.0
 13
0.0043629575
 23
-0.2499727061
 33
0.0
 40
0.0
 40
0.0
 40
0.0
 40
0.0
 40
0.0003695802
 40
0.0012979275
 40
0.0028176127
 40
0.004933373
 40
0.0109554063
 40
0.0193551872
 40
0.0301147113
 40
0.0432092673
 40
0.0586069778
 40
0.0762722833
 40
0.1182279512
 40
0.1686733495
 40
0.2271233628
 40
0.2930156188
 40
0.3657159399
 40
0.4445243899
 40
0.617379085
 40
0.8049383157
 40
1.0
 40
1.0
 40
1.0
 40
1.0
 10
-48.005863224
 20
22.373374621
 30
0.0
 10
-48.005894019
 20
22.3733740835
 30
0.0
 10
-48.0059347385
 20
22.3732342495
 30
0.0
 10
-48.0059749663
 20
22.3730356626
 30
0.0
 10
-48.0060197379
 20
22.372639872
 30
0.0
 10
-48.0060829198
 20
22.3718482389
 30
0.0
 10
-48.0061490548
 20
22.3704634267
 30
0.0
 10
-48.0062142198
 20
22.3683697384
 30
0.0
 10
-48.0062691211
 20
22.36568082
 30
0.0
 10
-48.0063134992
 20
22.3624105232
 30
0.0
 10
-48.0063467462
 20
22.3585638409
 30
0.0
 10
-48.0063776513
 20
22.3523121585
 30
0.0
 10
-48.0063822888
 20
22.3431394802
 30
0.0
 10
-48.0063427945
 20
22.3305680807
 30
0.0
 10
-48.0062576468
 20
22.3160020414
 30
0.0
 10
-48.0061275025
 20
22.2995816266
 30
0.0
 10
-48.0059533619
 20
22.2814649221
 30
0.0
 10
-48.0056551634
 20
22.2544351059
 30
0.0
 10
-48.0051828011
 20
22.2178346775
 30
0.0
 10
-48.0044950337
 20
22.1715481346
 30
0.0
 10
-48.0039654382
 20
22.139666063
 30
0.0
 10
-48.0036817563
 20
22.1234126973
 30
0.0
 11
-48.005863224
 21
22.373374621
 31
0.0
 11
-48.0059154094
 21
22.3732983697
 31
0.0
 11
-48.005964951
 21
22.3730716219
 31
0.0
 11
-48.0060118143
 21
22.3726945855
 31
0.0
 11
-48.0060559649
 21
22.3721674683
 31
0.0
 11
-48.0061359973
 21
22.3706640238
 31
0.0
 11
-48.0062048516
 21
22.3685651171
 31
0.0
 11
-48.0062623726
 21
22.3658757352
 31
0.0
 11
-48.006308426
 21
22.362602279
 31
0.0
 11
-48.0063429019
 21
22.3587528398
 31
0.0
 11
-48.0063657088
 21
22.3543363819
 31
0.0
 11
-48.0063761408
 21
22.3438470179
 31
0.0
 11
-48.0063396243
 21
22.3312351775
 31
0.0
 11
-48.0062565096
 21
22.3166222805
 31
0.0
 11
-48.0061275969
 21
22.3001490107
 31
0.0
 11
-48.0059541269
 21
22.2819739747
 31
0.0
 11
-48.0057377706
 21
22.2622722007
 31
0.0
 11
-48.0051851264
 21
22.2190601976
 31
0.0
 11
-48.0044909027
 21
22.1721735076
 31
0.0
 11
-48.0036817563
 21
22.1234126973
 31
0.0
  0
SPLINE
  5
5DA
100
AcDbEntity
  8
ASSI
100
AcDbSpline
 62
253
  6
CONTINUOUS
 70
0
 71
3
 72
26
 73
22
 74
20
 42
0.0000001
 43
0.0000001
 44
0.0000000001
 12
-0.0043629575
 22
-0.2499727061
 32
0.0
 13
0.2499727003
 23
-0.0043632897
 33
0.0
 40
0.0
 40
0.0
 40
0.0
 40
0.0
 40
0.1950615885
 40
0.3826208404
 40
0.555475553
 40
0.6342840116
 40
0.7069843418
 40
0.7728766064
 40
0.8313266274
 40
0.8817720323
 40
0.9237277058
 40
0.941393014
 40
0.9567907264
 40
0.9698852846
 40
0.9806448099
 40
0.9890445922
 40
0.9950666262
 40
0.9971823868
 40
0.9987020722
 40
0.9996304198
 40
1.0
 40
1.0
 40
1.0
 40
1.0
 10
-48.0036817563
 20
-22.1234126973
 30
0.0
 10
-48.0039654381
 20
-22.139666055
 30
0.0
 10
-48.0044950335
 20
-22.1715481204
 30
0.0
 10
-48.0051828009
 20
-22.2178346585
 30
0.0
 10
-48.0056551632
 20
-22.2544350909
 30
0.0
 10
-48.0059533618
 20
-22.2814649101
 30
0.0
 10
-48.0061275024
 20
-22.2995816167
 30
0.0
 10
-48.0062576467
 20
-22.3160020336
 30
0.0
 10
-48.0063427945
 20
-22.3305680748
 30
0.0
 10
-48.0063822888
 20
-22.343139476
 30
0.0
 10
-48.0063776513
 20
-22.3523121555
 30
0.0
 10
-48.0063467462
 20
-22.3585638388
 30
0.0
 10
-48.0063134992
 20
-22.3624105217
 30
0.0
 10
-48.0062691211
 20
-22.3656808189
 30
0.0
 10
-48.0062142198
 20
-22.3683697377
 30
0.0
 10
-48.0061490548
 20
-22.3704634263
 30
0.0
 10
-48.0060829199
 20
-22.3718482387
 30
0.0
 10
-48.0060197379
 20
-22.3726398719
 30
0.0
 10
-48.0059749663
 20
-22.3730356625
 30
0.0
 10
-48.0059347385
 20
-22.3732342494
 30
0.0
 10
-48.005894019
 20
-22.3733740835
 30
0.0
 10
-48.005863224
 20
-22.373374621
 30
0.0
 11
-48.0036817563
 21
-22.1234126973
 31
0.0
 11
-48.0044909023
 21
-22.1721734837
 31
0.0
 11
-48.0051851262
 21
-22.219060179
 31
0.0
 11
-48.0057377704
 21
-22.2622721864
 31
0.0
 11
-48.0059541268
 21
-22.2819739626
 31
0.0
 11
-48.0061275968
 21
-22.3001490009
 31
0.0
 11
-48.0062565096
 21
-22.3166222728
 31
0.0
 11
-48.0063396243
 21
-22.3312351717
 31
0.0
 11
-48.0063761408
 21
-22.3438470138
 31
0.0
 11
-48.0063657088
 21
-22.3543363792
 31
0.0
 11
-48.0063429019
 21
-22.3587528377
 31
0.0
 11
-48.006308426
 21
-22.3626022774
 31
0.0
 11
-48.0062623726
 21
-22.3658757341
 31
0.0
 11
-48.0062048516
 21
-22.3685651164
 31
0.0
 11
-48.0061359973
 21
-22.3706640234
 31
0.0
 11
-48.0060559649
 21
-22.3721674682
 31
0.0
 11
-48.0060118143
 21
-22.3726945853
 31
0.0
 11
-48.005964951
 21
-22.3730716218
 31
0.0
 11
-48.0059154094
 21
-22.3732983697
 31
0.0
 11
-48.005863224
 21
-22.373374621
 31
0.0
  0
SPLINE
  5
5DB
100
AcDbEntity
  8
ASSI
100
AcDbSpline
 62
253
  6
CONTINUOUS
 70
0
 71
3
 72
26
 73
22
 74
20
 42
0.0000001
 43
0.0000001
 44
0.0000000001
 12
-0.2458755806
 22
0.0433544988
 32
0.0
 13
0.0433512968
 23
0.2458761453
 33
0.0
 40
0.0
 40
0.0
 40
0.0
 40
0.0
 40
0.0003677196
 40
0.0012951051
 40
0.0028138613
 40
0.0049285087
 40
0.0109477663
 40
0.0193445389
 40
0.0300996532
 40
0.0431898041
 40
0.0585821451
 40
0.0762413126
 40
0.1181836282
 40
0.1686149508
 40
0.22705089
 40
0.2929297814
 40
0.3656185622
 40
0.4444189405
 40
0.617274043
 40
0.8048635968
 40
1.0
 40
1.0
 40
1.0
 40
1.0
 10
-51.0951302842
 20
-17.710427789
 30
0.0
 10
-51.0951604219
 20
-17.7104224749
 30
0.0
 10
-51.0951775399
 20
-17.7102779459
 30
0.0
 10
-51.0951860565
 20
-17.7100765191
 30
0.0
 10
-51.0951674033
 20
-17.7096791783
 30
0.0
 10
-51.0951051671
 20
-17.7088891304
 30
0.0
 10
-51.0949527485
 20
-17.7075135098
 30
0.0
 10
-51.0946886763
 20
-17.7054393268
 30
0.0
 10
-51.0943214596
 20
-17.7027797217
 30
0.0
 10
-51.0938530947
 20
-17.6995485584
 30
0.0
 10
-51.0932837546
 20
-17.6957507577
 30
0.0
 10
-51.0923359671
 20
-17.6895820115
 30
0.0
 10
-51.0909057337
 20
-17.6805370596
 30
0.0
 10
-51.0889009401
 20
-17.66814741
 30
0.0
 10
-51.0865396878
 20
-17.6537974851
 30
0.0
 10
-51.0838445287
 20
-17.6376253145
 30
0.0
 10
-51.0808411228
 20
-17.6197863774
 30
0.0
 10
-51.0763223756
 20
-17.5931744293
 30
0.0
 10
-51.0701363177
 20
-17.5571463837
 30
0.0
 10
-51.0622242339
 20
-17.5115912991
 30
0.0
 10
-51.056719679
 20
-17.4802189796
 30
0.0
 10
-51.0538998737
 20
-17.4642258507
 30
0.0
 11
-51.0951302842
 21
-17.710427789
 31
0.0
 11
-51.0951690786
 21
-17.7103445801
 31
0.0
 11
-51.0951817645
 21
-17.7101133889
 31
0.0
 11
-51.0951683437
 21
-17.7097344407
 31
0.0
 11
-51.0951288179
 21
-17.7092079613
 31
0.0
 11
-51.0949714763
 21
-17.7077134009
 31
0.0
 11
-51.0947101108
 21
-17.7056333468
 31
0.0
 11
-51.0943453995
 21
-17.7029730156
 31
0.0
 11
-51.0938781547
 21
-17.6997383886
 31
0.0
 11
-51.0933095797
 21
-17.6959376977
 31
0.0
 11
-51.0926409788
 21
-17.6915797483
 31
0.0
 11
-51.0910104523
 21
-17.6812357909
 31
0.0
 11
-51.0890022353
 21
-17.6688058544
 31
0.0
 11
-51.0866356378
 21
-17.6544094585
 31
0.0
 11
-51.0839334215
 21
-17.6381850587
 31
0.0
 11
-51.0809215636
 21
-17.6202886208
 31
0.0
 11
-51.0776290044
 21
-17.6008921115
 31
0.0
 11
-51.0703307554
 21
-17.5583572031
 31
0.0
 11
-51.0623187083
 21
-17.5122123747
 31
0.0
 11
-51.0538998737
 21
-17.4642258507
 31
0.0
  0
SPLINE
  5
5DC
100
AcDbEntity
  8
ASSI
100
AcDbSpline
 62
253
  6
CONTINUOUS
 70
0
 71
3
 72
26
 73
22
 74
20
 42
0.0000001
 43
0.0000001
 44
0.0000000001
 12
-0.2458755807
 22
-0.0433544987
 32
0.0
 13
0.0433512968
 23
-0.2458761453
 33
0.0
 40
0.0
 40
0.0
 40
0.0
 40
0.0
 40
0.0003677196
 40
0.0012951051
 40
0.0028138612
 40
0.0049285087
 40
0.0109477663
 40
0.0193445389
 40
0.0300996532
 40
0.043189804
 40
0.058582145
 40
0.0762413126
 40
0.1181836281
 40
0.1686149508
 40
0.22705089
 40
0.2929297814
 40
0.3656185622
 40
0.4444189405
 40
0.6172740429
 40
0.8048635968
 40
1.0
 40
1.0
 40
1.0
 40
1.0
 10
-51.0951302842
 20
17.710427789
 30
0.0
 10
-51.0951604219
 20
17.7104224749
 30
0.0
 10
-51.0951775399
 20
17.7102779459
 30
0.0
 10
-51.0951860565
 20
17.7100765191
 30
0.0
 10
-51.0951674033
 20
17.7096791783
 30
0.0
 10
-51.0951051671
 20
17.7088891304
 30
0.0
 10
-51.0949527485
 20
17.7075135098
 30
0.0
 10
-51.0946886763
 20
17.7054393268
 30
0.0
 10
-51.0943214596
 20
17.7027797218
 30
0.0
 10
-51.0938530947
 20
17.6995485584
 30
0.0
 10
-51.0932837545
 20
17.6957507577
 30
0.0
 10
-51.0923359671
 20
17.6895820116
 30
0.0
 10
-51.0909057337
 20
17.6805370596
 30
0.0
 10
-51.0889009401
 20
17.66814741
 30
0.0
 10
-51.0865396877
 20
17.6537974851
 30
0.0
 10
-51.0838445286
 20
17.6376253145
 30
0.0
 10
-51.0808411228
 20
17.6197863774
 30
0.0
 10
-51.0763223755
 20
17.5931744293
 30
0.0
 10
-51.0701363177
 20
17.5571463837
 30
0.0
 10
-51.0622242338
 20
17.5115912991
 30
0.0
 10
-51.056719679
 20
17.4802189796
 30
0.0
 10
-51.0538998737
 20
17.4642258507
 30
0.0
 11
-51.0951302842
 21
17.710427789
 31
0.0
 11
-51.0951690786
 21
17.7103445801
 31
0.0
 11
-51.0951817645
 21
17.7101133889
 31
0.0
 11
-51.0951683437
 21
17.7097344407
 31
0.0
 11
-51.0951288179
 21
17.7092079613
 31
0.0
 11
-51.0949714763
 21
17.7077134009
 31
0.0
 11
-51.0947101108
 21
17.7056333468
 31
0.0
 11
-51.0943453995
 21
17.7029730156
 31
0.0
 11
-51.0938781546
 21
17.6997383886
 31
0.0
 11
-51.0933095797
 21
17.6959376977
 31
0.0
 11
-51.0926409787
 21
17.6915797484
 31
0.0
 11
-51.0910104523
 21
17.6812357909
 31
0.0
 11
-51.0890022353
 21
17.6688058545
 31
0.0
 11
-51.0866356377
 21
17.6544094585
 31
0.0
 11
-51.0839334214
 21
17.6381850587
 31
0.0
 11
-51.0809215635
 21
17.6202886208
 31
0.0
 11
-51.0776290043
 21
17.6008921116
 31
0.0
 11
-51.0703307554
 21
17.5583572032
 31
0.0
 11
-51.0623187082
 21
17.5122123747
 31
0.0
 11
-51.0538998737
 21
17.4642258507
 31
0.0
  0
SPLINE
  5
5DD
100
AcDbEntity
  8
ASSI
100
AcDbSpline
 62
253
  6
CONTINUOUS
 70
0
 71
3
 72
14
 73
10
 74
8
 42
0.0000001
 43
0.0000001
 44
0.0000000001
 12
0.2544098853
 22
-0.0013557591
 32
0.0
 13
0.0
 23
-0.2544134978
 33
0.0
 40
0.0
 40
0.0
 40
0.0
 40
0.0
 40
0.301096587
 40
0.4430114437
 40
0.5752538363
 40
0.6962099278
 40
0.8057432262
 40
0.9056696953
 40
1.0
 40
1.0
 40
1.0
 40
1.0
 10
-31.9497548154
 20
19.7875091414
 30
0.0
 10
-31.9242208327
 20
19.7873730699
 30
0.0
 10
-31.8864133659
 20
19.7828430514
 30
0.0
 10
-31.8399265685
 20
19.7676664605
 30
0.0
 10
-31.8098038127
 20
19.7526617373
 30
0.0
 10
-31.7848790222
 20
19.734329035
 30
0.0
 10
-31.7660761594
 20
19.7132122926
 30
0.0
 10
-31.7542418447
 20
19.6899609989
 30
0.0
 10
-31.7515001224
 20
19.6733840389
 30
0.0
 10
-31.7515001224
 20
19.6653844046
 30
0.0
 11
-31.9497548154
 21
19.7875091414
 31
0.0
 11
-31.8737557285
 21
19.777908939
 31
0.0
 11
-31.8394808396
 21
19.7665596223
 31
0.0
 11
-31.8094630474
 21
19.7513652915
 31
0.0
 11
-31.7848435961
 21
19.7329031228
 31
0.0
 11
-31.7665576787
 21
19.7118750236
 31
0.0
 11
-31.7553007683
 21
19.689080447
 31
0.0
 11
-31.7515001224
 21
19.6653844046
 31
0.0
  0
SPLINE
  5
5DE
100
AcDbEntity
  8
CURVE
100
AcDbSpline
 62
253
  6
CONTINUOUS
 70
0
 71
3
 72
29
 73
25
 74
23
 42
0.0000001
 43
0.0000001
 44
0.0000000001
 12
-0.3522846083
 22
0.5111174281
 32
0.0
 13
0.1611428276
 23
0.5994880596
 33
0.0
 40
0.0
 40
0.0
 40
0.0
 40
0.0
 40
0.1245427709
 40
0.1870768614
 40
0.2496487998
 40
0.3121753057
 40
0.3746954967
 40
0.4059607267
 40
0.4372316541
 40
0.4684975683
 40
0.4997926881
 40
0.5310757283
 40
0.562303313
 40
0.593639256
 40
0.6249508778
 40
0.6561852633
 40
0.6874383969
 40
0.7187431491
 40
0.7500335402
 40
0.7812885651
 40
0.8125600593
 40
0.8438476694
 40
0.8751147552
 40
1.0
 40
1.0
 40
1.0
 40
1.0
 10
-46.6051847039
 20
15.7401272597
 30
0.0
 10
-46.6198095377
 20
15.76134592
 30
0.0
 10
-46.6468703299
 20
15.7907495544
 30
0.0
 10
-46.6927640314
 20
15.8150872965
 30
0.0
 10
-46.7291563772
 20
15.8287077354
 30
0.0
 10
-46.7661012302
 20
15.8406105725
 30
0.0
 10
-46.7966458916
 20
15.851321937
 30
0.0
 10
-46.820371297
 20
15.8616972848
 30
0.0
 10
-46.8375301361
 20
15.8708139359
 30
0.0
 10
-46.8538707131
 20
15.8813488607
 30
0.0
 10
-46.8691293225
 20
15.8934080556
 30
0.0
 10
-46.8829794015
 20
15.9070916797
 30
0.0
 10
-46.8947028534
 20
15.9226399694
 30
0.0
 10
-46.9049359111
 20
15.9391578221
 30
0.0
 10
-46.9147494259
 20
15.9559255564
 30
0.0
 10
-46.9236663775
 20
15.9731840883
 30
0.0
 10
-46.9311736801
 20
15.9911004491
 30
0.0
 10
-46.9376176128
 20
16.0094259774
 30
0.0
 10
-46.9432889407
 20
16.0280068275
 30
0.0
 10
-46.9478125253
 20
16.0469029967
 30
0.0
 10
-46.9509049182
 20
16.0660821905
 30
0.0
 10
-46.9528407737
 20
16.0854141511
 30
0.0
 10
-46.9547493589
 20
16.1241323408
 30
0.0
 10
-46.9515212818
 20
16.1568834415
 30
0.0
 10
-46.9448131613
 20
16.1818391792
 30
0.0
 11
-46.6051847039
 21
15.7401272597
 31
0.0
 11
-46.6590886139
 21
15.7955470174
 31
0.0
 11
-46.6930734742
 21
15.8143053901
 31
0.0
 11
-46.7292578044
 21
15.8284246824
 31
0.0
 11
-46.7660553814
 21
15.8407699209
 31
0.0
 11
-46.8025161984
 21
15.8540655213
 31
0.0
 11
-46.8202640536
 21
15.8619191644
 31
0.0
 11
-46.8373937819
 21
15.8710502886
 31
0.0
 11
-46.853685121
 21
15.8815991563
 31
0.0
 11
-46.8688973267
 21
15.8936814499
 31
0.0
 11
-46.8826318219
 21
15.9074098375
 31
0.0
 11
-46.8944412637
 21
15.9227822139
 31
0.0
 11
-46.9048683938
 21
15.9392036207
 31
0.0
 11
-46.9146091178
 21
15.9560238419
 31
0.0
 11
-46.923430056
 21
15.9732903503
 31
0.0
 11
-46.9309918883
 21
15.9911568827
 31
0.0
 11
-46.9374896923
 21
16.0094713125
 31
0.0
 11
-46.9430999038
 21
16.0280675415
 31
0.0
 11
-46.9475734091
 21
16.0469469065
 31
0.0
 11
-46.9507116382
 21
16.0661039364
 31
0.0
 11
-46.9526776662
 21
16.0854265651
 31
0.0
 11
-46.9536029276
 21
16.1048141541
 31
0.0
 11
-46.9448131613
 21
16.1818391792
 31
0.0
  0
SPLINE
  5
5DF
100
AcDbEntity
  8
CURVE
100
AcDbSpline
 62
253
  6
CONTINUOUS
 70
0
 71
3
 72
14
 73
10
 74
8
 42
0.0000001
 43
0.0000001
 44
0.0000000001
 12
-0.5120260356
 22
-1.4173746035
 32
0.0
 13
0.2193323211
 23
-1.4909832539
 33
0.0
 40
0.0
 40
0.0
 40
0.0
 40
0.0
 40
0.1248758512
 40
0.2502534829
 40
0.3755003777
 40
0.5003862025
 40
0.6252348703
 40
0.7501445525
 40
1.0
 40
1.0
 40
1.0
 40
1.0
 10
-47.9945341047
 20
-6.1678501192
 30
0.0
 10
-48.0158473337
 20
-6.2268487393
 30
0.0
 10
-48.0494083926
 20
-6.3484980407
 30
0.0
 10
-48.0778137081
 20
-6.5352404247
 30
0.0
 10
-48.0910575706
 20
-6.7235640136
 30
0.0
 10
-48.0927323328
 20
-6.9120161146
 30
0.0
 10
-48.0853796458
 20
-7.1001267857
 30
0.0
 10
-48.066534719
 20
-7.3504357907
 30
0.0
 10
-48.0433277496
 20
-7.5373905816
 30
0.0
 10
-48.0250606245
 20
-7.6615673444
 30
0.0
 11
-47.9945341047
 21
-6.1678501192
 31
0.0
 11
-48.0456981921
 21
-6.3489527593
 31
0.0
 11
-48.0752910534
 21
-6.5355687225
 31
0.0
 11
-48.0891385485
 21
-6.7238109554
 31
0.0
 11
-48.0912278977
 21
-6.9120061233
 31
0.0
 11
-48.0842516632
 21
-7.1000275064
 31
0.0
 11
-48.0702398289
 21
-7.2877479774
 31
0.0
 11
-48.0250606245
 21
-7.6615673444
 31
0.0
  0
SPLINE
  5
5E0
100
AcDbEntity
  8
CURVE
100
AcDbSpline
 62
253
  6
CONTINUOUS
 70
0
 71
3
 72
33
 73
29
 74
27
 42
0.0000001
 43
0.0000001
 44
0.0000000001
 12
-0.2316919733
 22
1.7957495434
 32
0.0
 13
-0.6143894977
 23
-1.7032024185
 33
0.0
 40
0.0
 40
0.0
 40
0.0
 40
0.0
 40
0.0078121184
 40
0.0156313646
 40
0.0234276259
 40
0.0312348943
 40
0.0468798507
 40
0.0625268449
 40
0.078146591
 40
0.0937674052
 40
0.1250226086
 40
0.156289424
 40
0.1875598593
 40
0.2188316969
 40
0.2501105735
 40
0.3126388331
 40
0.3751078893
 40
0.4375823203
 40
0.500049294
 40
0.5625074419
 40
0.6249712391
 40
0.6874303996
 40
0.7499362761
 40
0.8124283913
 40
0.8749047028
 40
0.9061481238
 40
0.9374784342
 40
1.0
 40
1.0
 40
1.0
 40
1.0
 10
-46.5300656273
 20
-6.10544429
 30
0.0
 10
-46.5306689623
 20
-6.1007680874
 30
0.0
 10
-46.5341153516
 20
-6.0918226984
 30
0.0
 10
-46.5399944192
 20
-6.0790182233
 30
0.0
 10
-46.546591954
 20
-6.0664925083
 30
0.0
 10
-46.5560180025
 20
-6.0501587343
 30
0.0
 10
-46.5689079411
 20
-6.0303692447
 30
0.0
 10
-46.5855290725
 20
-6.0074407242
 30
0.0
 10
-46.6030239492
 20
-5.985187799
 30
0.0
 10
-46.6275488927
 20
-5.9565197109
 30
0.0
 10
-46.6602404237
 20
-5.9224618475
 30
0.0
 10
-46.7023161135
 20
-5.8845239139
 30
0.0
 10
-46.7469991619
 20
-5.8496778464
 30
0.0
 10
-46.7940446276
 20
-5.8180768758
 30
0.0
 10
-46.8595929064
 20
-5.7805281951
 30
0.0
 10
-46.946267173
 20
-5.7424719815
 30
0.0
 10
-47.0555281557
 20
-5.711784549
 30
0.0
 10
-47.1678252802
 20
-5.6958506164
 30
0.0
 10
-47.2811423893
 20
-5.6937259752
 30
0.0
 10
-47.394026823
 20
-5.7039393457
 30
0.0
 10
-47.5047824679
 20
-5.7284326245
 30
0.0
 10
-47.6111537794
 20
-5.7680300999
 30
0.0
 10
-47.7106678492
 20
-5.8227258444
 30
0.0
 10
-47.8009869428
 20
-5.8915391174
 30
0.0
 10
-47.867133547
 20
-5.9592294003
 30
0.0
 10
-47.9136013374
 20
-6.0187879224
 30
0.0
 10
-47.9557584576
 20
-6.0814276178
 30
0.0
 10
-47.9817299069
 20
-6.1323544918
 30
0.0
 10
-47.9945341047
 20
-6.1678501192
 30
0.0
 11
-46.5300656273
 21
-6.10544429
 31
0.0
 11
-46.5342327311
 21
-6.0919271848
 31
0.0
 11
-46.5401204904
 21
-6.0790518155
 31
0.0
 11
-46.5466666693
 21
-6.0665453742
 31
0.0
 11
-46.5537266149
 21
-6.0542986102
 31
0.0
 11
-46.5690999575
 21
-6.0305061909
 31
0.0
 11
-46.5856860724
 21
-6.0075382616
 31
0.0
 11
-46.6031742885
 21
-5.9853123338
 31
0.0
 11
-46.6215485356
 21
-5.9638106225
 31
0.0
 11
-46.6607081834
 21
-5.9229567903
 31
0.0
 11
-46.7027477407
 21
-5.8850417331
 31
0.0
 11
-46.7473912227
 21
-5.8502198945
 31
0.0
 11
-46.7943947019
 21
-5.8186517949
 31
0.0
 11
-46.8435353095
 21
-5.7905004098
 31
0.0
 11
-46.9471817845
 21
-5.7449544986
 31
0.0
 11
-47.0560369689
 21
-5.7142425246
 31
0.0
 11
-47.1680008674
 21
-5.6981518053
 31
0.0
 11
-47.2810766756
 21
-5.6957824673
 31
0.0
 11
-47.3936694348
 21
-5.7063189013
 31
0.0
 11
-47.5040499041
 21
-5.7309491476
 31
0.0
 11
-47.6099826295
 21
-5.7705336024
 31
0.0
 11
-47.7091406176
 21
-5.8250827496
 31
0.0
 11
-47.7991718623
 21
-5.893615831
 31
0.0
 11
-47.8781994565
 21
-5.9745523157
 31
0.0
 11
-47.9130293904
 21
-6.0191280891
 31
0.0
 11
-47.9446166242
 21
-6.0662472101
 31
0.0
 11
-47.9945341047
 21
-6.1678501192
 31
0.0
  0
SPLINE
  5
5E1
100
AcDbEntity
  8
CURVE
100
AcDbSpline
 62
253
  6
CONTINUOUS
 70
0
 71
3
 72
11
 73
7
 74
5
 42
0.0000001
 43
0.0000001
 44
0.0000000001
 12
-0.6663140738
 22
-0.1815378458
 32
0.0
 13
-0.2557824794
 23
-0.6415096159
 33
0.0
 40
0.0
 40
0.0
 40
0.0
 40
0.0
 40
0.2499802707
 40
0.4999803986
 40
0.7499863794
 40
1.0
 40
1.0
 40
1.0
 40
1.0
 10
-45.9442564938
 20
-5.7565587397
 30
0.0
 10
-45.9997782847
 20
-5.7716856997
 30
0.0
 10
-46.1110301464
 20
-5.8013594612
 30
0.0
 10
-46.2730340193
 20
-5.8624341344
 30
0.0
 10
-46.4212596482
 20
-5.9550305529
 30
0.0
 10
-46.4916161414
 20
-6.0519822428
 30
0.0
 10
-46.5129325093
 20
-6.10544429
 30
0.0
 11
-45.9442564938
 21
-5.7565587397
 31
0.0
 11
-46.1102129044
 21
-5.8041185211
 31
0.0
 11
-46.2707352665
 21
-5.8676866323
 31
0.0
 11
-46.414142889
 21
-5.9638343277
 31
0.0
 11
-46.5129325093
 21
-6.10544429
 31
0.0
  0
SPLINE
  5
5E2
100
AcDbEntity
  8
CURVE
100
AcDbSpline
 62
253
  6
CONTINUOUS
 70
0
 71
3
 72
10
 73
6
 74
4
 42
0.0000001
 43
0.0000001
 44
0.0000000001
 12
-0.7831990787
 22
-0.2127308514
 32
0.0
 13
-0.7830309593
 23
-0.2133488898
 33
0.0
 40
0.0
 40
0.0
 40
0.0
 40
0.0
 40
0.2500001784
 40
0.5000042735
 40
1.0
 40
1.0
 40
1.0
 40
1.0
 10
-45.1595031606
 20
-5.5496410148
 30
0.0
 10
-45.2247697971
 20
-5.5673685984
 30
0.0
 10
-45.3556521698
 20
-5.6015310199
 30
0.0
 10
-45.617482568
 20
-5.6695540088
 30
0.0
 10
-45.8137524493
 20
-5.7210008954
 30
0.0
 10
-45.9442564938
 20
-5.7565587397
 30
0.0
 11
-45.1595031606
 21
-5.5496410148
 31
0.0
 11
-45.3556596307
 21
-5.6014930938
 31
0.0
 11
-45.5520157291
 21
-5.6525965721
 31
0.0
 11
-45.9442564938
 21
-5.7565587397
 31
0.0
  0
SPLINE
  5
5E3
100
AcDbEntity
  8
CURVE
100
AcDbSpline
 62
253
  6
CONTINUOUS
 70
0
 71
3
 72
16
 73
12
 74
10
 42
0.0000001
 43
0.0000001
 44
0.0000000001
 12
0.8595869357
 22
0.3229594988
 32
0.0
 13
0.8824991836
 23
0.2537413819
 33
0.0
 40
0.0
 40
0.0
 40
0.0
 40
0.0
 40
0.0624969682
 40
0.1250095118
 40
0.1875071634
 40
0.2500010689
 40
0.3749972207
 40
0.5000010211
 40
0.6250039771
 40
0.7500028915
 40
1.0
 40
1.0
 40
1.0
 40
1.0
 10
-46.0387060679
 20
-6.3965120355
 30
0.0
 10
-46.0207988755
 20
-6.389784039
 30
0.0
 10
-45.9845226896
 20
-6.3775633418
 30
0.0
 10
-45.929789684
 20
-6.3603057466
 30
0.0
 10
-45.875013198
 20
-6.3431730955
 30
0.0
 10
-45.801873176
 20
-6.3206912512
 30
0.0
 10
-45.7103074495
 20
-6.2930381422
 30
0.0
 10
-45.6002663284
 20
-6.2603879627
 30
0.0
 10
-45.490148865
 20
-6.2279935504
 30
0.0
 10
-45.3432660928
 20
-6.1850135342
 30
0.0
 10
-45.2330439087
 20
-6.1529866089
 30
0.0
 10
-45.1595031606
 20
-6.1318417383
 30
0.0
 11
-46.0387060679
 21
-6.3965120355
 31
0.0
 11
-45.9844737559
 21
-6.3777436193
 31
0.0
 11
-45.9297779391
 21
-6.3603251592
 31
0.0
 11
-45.8749983661
 21
-6.3432177636
 31
0.0
 11
-45.8201505388
 21
-6.3263421886
 31
0.0
 11
-45.7102831529
 21
-6.2931278897
 31
0.0
 11
-45.6002534918
 21
-6.260430558
 31
0.0
 11
-45.4901399269
 21
-6.2280196764
 31
0.0
 11
-45.3799795471
 21
-6.1957814951
 31
0.0
 11
-45.1595031606
 21
-6.1318417383
 31
0.0
  0
SPLINE
  5
5E4
100
AcDbEntity
  8
CURVE
100
AcDbSpline
 62
253
  6
CONTINUOUS
 70
0
 71
3
 72
13
 73
9
 74
7
 42
0.0000001
 43
0.0000001
 44
0.0000000001
 12
0.0
 22
0.4519734438
 32
0.0
 13
0.42313776
 23
0.1588105605
 33
0.0
 40
0.0
 40
0.0
 40
0.0
 40
0.0
 40
0.2499064318
 40
0.3752983396
 40
0.500303448
 40
0.6252650503
 40
0.7502410107
 40
1.0
 40
1.0
 40
1.0
 40
1.0
 10
-46.2941808599
 20
-6.7341993273
 30
0.0
 10
-46.2941808599
 20
-6.6965489704
 30
0.0
 10
-46.2850992288
 20
-6.6394316634
 30
0.0
 10
-46.2551476713
 20
-6.5699493538
 30
0.0
 10
-46.2236931945
 20
-6.5225889567
 30
0.0
 10
-46.1849332996
 20
-6.481151227
 30
0.0
 10
-46.1252267338
 20
-6.4348980514
 30
0.0
 10
-46.0739335544
 20
-6.4097334905
 30
0.0
 10
-46.0387060679
 20
-6.3965120355
 30
0.0
 11
-46.2941808599
 21
-6.7341993273
 31
0.0
 11
-46.2761506187
 21
-6.6226967264
 31
0.0
 11
-46.2536217773
 21
-6.5706935182
 31
0.0
 11
-46.2224657198
 21
-6.5235621916
 31
0.0
 11
-46.1839282683
 21
-6.482274591
 31
0.0
 11
-46.1394115765
 21
-6.4475073573
 31
0.0
 11
-46.0387060679
 21
-6.3965120355
 31
0.0
  0
SPLINE
  5
5E5
100
AcDbEntity
  8
CURVE
100
AcDbSpline
 62
253
  6
CONTINUOUS
 70
0
 71
3
 72
14
 73
10
 74
8
 42
0.0000001
 43
0.0000001
 44
0.0000000001
 12
0.740817951
 22
0.0114319178
 32
0.0
 13
0.0165439224
 23
-0.74074962
 33
0.0
 40
0.0
 40
0.0
 40
0.0
 40
0.0
 40
0.1255354806
 40
0.2509729574
 40
0.3757053714
 40
0.5003012553
 40
0.6250864527
 40
0.7506490852
 40
1.0
 40
1.0
 40
1.0
 40
1.0
 10
-47.2196083976
 20
-6.2627200261
 30
0.0
 10
-47.1886087518
 20
-6.2622416557
 30
0.0
 10
-47.1264615732
 20
-6.2651375846
 30
0.0
 10
-47.0351845602
 20
-6.2847045497
 30
0.0
 10
-46.9503641124
 20
-6.3241054102
 30
0.0
 10
-46.8789755034
 20
-6.3846687117
 30
0.0
 10
-46.8267029191
 20
-6.4623063896
 30
0.0
 10
-46.7814813477
 20
-6.5778909786
 30
0.0
 10
-46.7704129155
 20
-6.6713258107
 30
0.0
 10
-46.7690378348
 20
-6.7328946758
 30
0.0
 11
-47.2196083976
 21
-6.2627200261
 31
0.0
 11
-47.1267309602
 21
-6.2676844264
 31
0.0
 11
-47.0360585366
 21
-6.2880781289
 31
0.0
 11
-46.9525489548
 21
-6.3276609974
 31
0.0
 11
-46.8822117003
 21
-6.3874505523
 31
0.0
 11
-46.8298538741
 21
-6.4636533375
 31
0.0
 11
-46.7952480391
 21
-6.5500107832
 31
0.0
 11
-46.7690378348
 21
-6.7328946758
 31
0.0
  0
SPLINE
  5
5E6
100
AcDbEntity
  8
CURVE
100
AcDbSpline
 62
253
  6
CONTINUOUS
 70
0
 71
3
 72
11
 73
7
 74
5
 42
0.0000001
 43
0.0000001
 44
0.0000000001
 12
0.062650349
 22
0.5396661734
 32
0.0
 13
0.543203718
 23
0.0084966188
 33
0.0
 40
0.0
 40
0.0
 40
0.0
 40
0.0
 40
0.2500581538
 40
0.5000084602
 40
0.7499222551
 40
1.0
 40
1.0
 40
1.0
 40
1.0
 10
-47.5820564641
 20
-6.604625691
 30
0.0
 10
-47.5768343872
 20
-6.5596430486
 30
0.0
 10
-47.5524480533
 20
-6.4705370466
 30
0.0
 10
-47.4728684906
 20
-6.3568562431
 30
0.0
 10
-47.3562799678
 20
-6.2806360436
 30
0.0
 10
-47.2648894512
 20
-6.2634282979
 30
0.0
 10
-47.2196083976
 20
-6.2627200261
 30
0.0
 11
-47.5820564641
 21
-6.604625691
 31
0.0
 11
-47.5452714243
 21
-6.4738466779
 31
0.0
 11
-47.4666970999
 21
-6.3630943363
 31
0.0
 11
-47.3528926646
 21
-6.2890493975
 31
0.0
 11
-47.2196083976
 21
-6.2627200261
 31
0.0
  0
SPLINE
  5
5E7
100
AcDbEntity
  8
CURVE
100
AcDbSpline
 62
253
  6
CONTINUOUS
 70
0
 71
3
 72
9
 73
5
 74
3
 42
0.0000001
 43
0.0000001
 44
0.0000000001
 12
-0.080039952
 22
0.4691083886
 32
0.0
 13
0.0548650562
 23
0.4727146691
 33
0.0
 40
0.0
 40
0.0
 40
0.0
 40
0.0
 40
0.5000369895
 40
1.0
 40
1.0
 40
1.0
 40
1.0
 10
-47.5649885737
 20
-7.0788012718
 30
0.0
 10
-47.5783295526
 20
-7.0006107564
 30
0.0
 10
-47.598803404
 20
-6.8427216776
 30
0.0
 10
-47.5911999636
 20
-6.6834056407
 30
0.0
 10
-47.5820564641
 20
-6.604625691
 30
0.0
 11
-47.5649885737
 21
-7.0788012718
 31
0.0
 11
-47.5917845571
 21
-6.8423532048
 31
0.0
 11
-47.5820564641
 21
-6.604625691
 31
0.0
  0
SPLINE
  5
5E8
100
AcDbEntity
  8
CURVE
100
AcDbSpline
 62
253
  6
CONTINUOUS
 70
0
 71
3
 72
19
 73
15
 74
13
 42
0.0000001
 43
0.0000001
 44
0.0000000001
 12
0.0362978845
 22
-0.3791733208
 32
0.0
 13
-0.3789658157
 23
-0.0381205859
 33
0.0
 40
0.0
 40
0.0
 40
0.0
 40
0.0
 40
0.0833333333
 40
0.1666666667
 40
0.25
 40
0.3333333333
 40
0.4166666667
 40
0.5
 40
0.5833333333
 40
0.6666666667
 40
0.75
 40
0.8333333333
 40
0.9166666667
 40
1.0
 40
1.0
 40
1.0
 40
1.0
 10
-45.3623939033
 20
12.0548460151
 30
0.0
 10
-45.3613856288
 20
12.0443134229
 30
0.0
 10
-45.360743929
 20
12.0230905245
 30
0.0
 10
-45.3639316806
 20
11.9914224381
 30
0.0
 10
-45.3712130081
 20
11.9604328937
 30
0.0
 10
-45.3824647595
 20
11.9306559375
 30
0.0
 10
-45.3974954046
 20
11.9025960705
 30
0.0
 10
-45.4160493903
 20
11.8767309831
 30
0.0
 10
-45.4378111384
 20
11.8535004052
 30
0.0
 10
-45.4624107075
 20
11.8332994185
 30
0.0
 10
-45.4894292514
 20
11.816471602
 30
0.0
 10
-45.5184091781
 20
11.8033029425
 30
0.0
 10
-45.5488506205
 20
11.794018093
 30
0.0
 10
-45.5697916362
 20
11.7905209052
 30
0.0
 10
-45.5803184644
 20
11.789462
 30
0.0
 11
-45.3623939033
 21
12.0548460151
 31
0.0
 11
-45.3614356459
 21
12.0231182347
 31
0.0
 11
-45.3646139433
 21
11.9915355285
 31
0.0
 11
-45.3718747454
 21
11.9606349918
 31
0.0
 11
-45.3830945751
 21
11.930942119
 31
0.0
 11
-45.398082628
 21
11.9029618671
 31
0.0
 11
-45.4165840173
 21
11.877170068
 31
0.0
 11
-45.4382841085
 21
11.854005337
 31
0.0
 11
-45.46281387
 21
11.8338616135
 31
0.0
 11
-45.4897561485
 21
11.8170814615
 31
0.0
 11
-45.518652764
 21
11.8039502442
 31
0.0
 11
-45.5490123007
 21
11.794691271
 31
0.0
 11
-45.5803184644
 21
11.789462
 31
0.0
  0
SPLINE
  5
5E9
100
AcDbEntity
  8
CURVE
100
AcDbSpline
 62
253
  6
CONTINUOUS
 70
0
 71
3
 72
17
 73
13
 74
11
 42
0.0000001
 43
0.0000001
 44
0.0000000001
 12
-0.3082908175
 22
0.2348216885
 32
0.0
 13
0.1373344918
 23
0.3624021181
 33
0.0
 40
0.0
 40
0.0
 40
0.0
 40
0.0
 40
0.1
 40
0.2
 40
0.3
 40
0.4
 40
0.5
 40
0.6
 40
0.7
 40
0.8
 40
0.9
 40
1.0
 40
1.0
 40
1.0
 40
1.0
 10
-46.8413893669
 20
12.1169200743
 30
0.0
 10
-46.8516657275
 20
12.1247474639
 30
0.0
 10
-46.8712372119
 20
12.1417411809
 30
0.0
 10
-46.8970764416
 20
12.1707597672
 30
0.0
 10
-46.9189982243
 20
12.2028488195
 30
0.0
 10
-46.936636044
 20
12.2374765041
 30
0.0
 10
-46.9497021385
 20
12.2740756636
 30
0.0
 10
-46.9579814736
 20
12.3120452497
 30
0.0
 10
-46.96133847
 20
12.3507614669
 30
0.0
 10
-46.9597171914
 20
12.3895907868
 30
0.0
 10
-46.9531472164
 20
12.427887976
 30
0.0
 10
-46.9455326571
 20
12.4526649294
 30
0.0
 10
-46.9409548407
 20
12.464745
 30
0.0
 11
-46.8413893669
 21
12.1169200743
 31
0.0
 11
-46.870650879
 21
12.1423291827
 31
0.0
 11
-46.8964235337
 21
12.1712715116
 31
0.0
 11
-46.9182842304
 21
12.2032719249
 31
0.0
 11
-46.9358740898
 21
12.2378050833
 31
0.0
 11
-46.9489043453
 21
12.274304068
 31
0.0
 11
-46.9571610838
 21
12.3121696882
 31
0.0
 11
-46.9605087575
 21
12.3507803173
 31
0.0
 11
-46.9588924087
 21
12.3895020984
 31
0.0
 11
-46.9523385724
 21
12.4276993495
 31
0.0
 11
-46.9409548407
 21
12.464745
 31
0.0
  0
SPLINE
  5
5EA
100
AcDbEntity
  8
CURVE
100
AcDbSpline
 62
253
  6
CONTINUOUS
 70
0
 71
3
 72
15
 73
11
 74
9
 42
0.0000001
 43
0.0000001
 44
0.0000000001
 12
0.023054366
 22
-0.5683921863
 32
0.0
 13
0.5157603709
 23
-0.2399420821
 33
0.0
 40
0.0
 40
0.0
 40
0.0
 40
0.0
 40
0.2498639433
 40
0.3748183959
 40
0.4997618558
 40
0.6247808446
 40
0.6873249284
 40
0.7498514302
 40
0.8749587671
 40
1.0
 40
1.0
 40
1.0
 40
1.0
 10
-47.1506191375
 20
12.0247945666
 30
0.0
 10
-47.1486989859
 20
11.9774543289
 30
0.0
 10
-47.1475427603
 20
11.9063221282
 30
0.0
 10
-47.136579062
 20
11.8120587212
 30
0.0
 10
-47.1203802845
 20
11.7426338067
 30
0.0
 10
-47.0979791748
 20
11.687394118
 30
0.0
 10
-47.0737206214
 20
11.6465404741
 30
0.0
 10
-47.0448402438
 20
11.6087814172
 30
0.0
 10
-47.0010228947
 20
11.5681200782
 30
0.0
 10
-46.9599819294
 20
11.5435806838
 30
0.0
 10
-46.9384848252
 20
11.5335797993
 30
0.0
 11
-47.1506191375
 21
12.0247945666
 31
0.0
 11
-47.1440171621
 21
11.8828104869
 31
0.0
 11
-47.1352499675
 21
11.8122717358
 31
0.0
 11
-47.1186051567
 21
11.7431730731
 31
0.0
 11
-47.0913911301
 21
11.6774680827
 31
0.0
 11
-47.0731421817
 21
11.6469262816
 31
0.0
 11
-47.0515499313
 21
11.6186618389
 31
0.0
 11
-46.9995163668
 21
11.5701102337
 31
0.0
 11
-46.9384848252
 21
11.5335797993
 31
0.0
  0
SPLINE
  5
5EB
100
AcDbEntity
  8
CURVE
100
AcDbSpline
 62
253
  6
CONTINUOUS
 70
0
 71
3
 72
18
 73
14
 74
12
 42
0.0000001
 43
0.0000001
 44
0.0000000001
 12
-0.3378252431
 22
0.1974547727
 32
0.0
 13
0.1098378816
 23
0.3755868317
 33
0.0
 40
0.0
 40
0.0
 40
0.0
 40
0.0
 40
0.0909090909
 40
0.1818181818
 40
0.2727272727
 40
0.3636363636
 40
0.4545454545
 40
0.5454545455
 40
0.6363636364
 40
0.7272727273
 40
0.8181818182
 40
0.9090909091
 40
1.0
 40
1.0
 40
1.0
 40
1.0
 10
-46.8008571853
 20
13.989064556
 30
0.0
 10
-46.8110943139
 20
13.995048034
 30
0.0
 10
-46.8308672542
 20
14.0082643027
 30
0.0
 10
-46.8579105688
 20
14.031501156
 30
0.0
 10
-46.8819668526
 20
14.0578257429
 30
0.0
 10
-46.9026808946
 20
14.0868523356
 30
0.0
 10
-46.9197534304
 20
14.1181603081
 30
0.0
 10
-46.9329361075
 20
14.1512946991
 30
0.0
 10
-46.942037551
 20
14.1857744922
 30
0.0
 10
-46.9469256879
 20
14.2210984565
 30
0.0
 10
-46.9475290272
 20
14.2567553315
 30
0.0
 10
-46.9438407048
 20
14.2922207771
 30
0.0
 10
-46.9385516979
 20
14.3154095809
 30
0.0
 10
-46.9352232772
 20
14.326791
 30
0.0
 11
-46.8008571853
 21
13.989064556
 31
0.0
 11
-46.8304312382
 21
14.0088330444
 31
0.0
 11
-46.8574127304
 21
14.0320157783
 31
0.0
 11
-46.8814098123
 21
14.0582760772
 31
0.0
 11
-46.9020739769
 21
14.0872325655
 31
0.0
 11
-46.9191051206
 21
14.1184647111
 31
0.0
 11
-46.9322559019
 21
14.1515189328
 31
0.0
 11
-46.9413353332
 21
14.1859151874
 31
0.0
 11
-46.9462115549
 21
14.2211539416
 31
0.0
 11
-46.9468137502
 21
14.2567234266
 31
0.0
 11
-46.9431331734
 21
14.2921070704
 31
0.0
 11
-46.9352232772
 21
14.326791
 31
0.0
  0
SPLINE
  5
5EC
100
AcDbEntity
  8
CURVE
100
AcDbSpline
 62
253
  6
CONTINUOUS
 70
0
 71
3
 72
26
 73
22
 74
20
 42
0.0000001
 43
0.0000001
 44
0.0000000001
 12
0.5190677925
 22
-0.2491453766
 32
0.0
 13
-0.5739167605
 23
0.0969888608
 33
0.0
 40
0.0
 40
0.0
 40
0.0
 40
0.0
 40
0.0686436388
 40
0.1393459095
 40
0.2085361439
 40
0.2435735153
 40
0.2794557006
 40
0.3149261915
 40
0.3492251073
 40
0.3837839232
 40
0.4193072226
 40
0.4550877157
 40
0.490108445
 40
0.5245242177
 40
0.5588876703
 40
0.6284822707
 40
0.698257873
 40
0.7674144567
 40
0.8367888071
 40
0.9749846861
 40
1.0
 40
1.0
 40
1.0
 40
1.0
 10
-45.4945401065
 20
13.9645377429
 30
0.0
 10
-45.4826632059
 20
13.9588369945
 30
0.0
 10
-45.456240588
 20
13.9525899246
 30
0.0
 10
-45.4170077508
 20
13.9463864506
 30
0.0
 10
-45.3849201173
 20
13.9326412728
 30
0.0
 10
-45.3672516086
 20
13.9117667038
 30
0.0
 10
-45.3586279013
 20
13.8930445647
 30
0.0
 10
-45.3548606179
 20
13.8728446994
 30
0.0
 10
-45.3573117981
 20
13.8526701364
 30
0.0
 10
-45.364873421
 20
13.8339612817
 30
0.0
 10
-45.3753317034
 20
13.8164990112
 30
0.0
 10
-45.3871530735
 20
13.7998598322
 30
0.0
 10
-45.3990020255
 20
13.7835079442
 30
0.0
 10
-45.4112950939
 20
13.7678189081
 30
0.0
 10
-45.4290395406
 20
13.7480284793
 30
0.0
 10
-45.4543860291
 20
13.7261145757
 30
0.0
 10
-45.4887897184
 20
13.7052213272
 30
0.0
 10
-45.526677494
 20
13.6916586983
 30
0.0
 10
-45.578705073
 20
13.6813167322
 30
0.0
 10
-45.6233595228
 20
13.6741617848
 30
0.0
 10
-45.6547410708
 20
13.6780948443
 30
0.0
 10
-45.6595266401
 20
13.6789035799
 30
0.0
 11
-45.4945401065
 21
13.9645377429
 31
0.0
 11
-45.4566811391
 21
13.9531922666
 31
0.0
 11
-45.4168913403
 21
13.9445967015
 31
0.0
 11
-45.3812884865
 21
13.9267236049
 31
0.0
 11
-45.3681379119
 21
13.9114253874
 31
0.0
 11
-45.359413753
 21
13.8926975354
 31
0.0
 11
-45.3558855428
 21
13.8725813415
 31
0.0
 11
-45.3581419484
 21
13.8529619684
 31
0.0
 11
-45.3652525737
 21
13.8343775735
 31
0.0
 11
-45.3755255836
 21
13.8166911207
 31
0.0
 11
-45.3872634476
 21
13.7997605199
 31
0.0
 11
-45.3991728791
 21
13.7834892462
 31
0.0
 11
-45.4114701451
 21
13.7679509269
 31
0.0
 11
-45.4247222204
 21
13.7532591009
 31
0.0
 11
-45.4550230995
 21
13.7270388934
 31
0.0
 11
-45.4894840851
 21
13.7063888169
 31
0.0
 11
-45.5268493757
 21
13.6926304507
 31
0.0
 11
-45.5658581974
 21
13.684042021
 31
0.0
 11
-45.645122486
 21
13.6770995478
 31
0.0
 11
-45.6595266401
 21
13.6789035799
 31
0.0
  0
SPLINE
  5
5ED
100
AcDbEntity
  8
CURVE
100
AcDbSpline
 62
253
  6
CONTINUOUS
 70
0
 71
3
 72
16
 73
12
 74
10
 42
0.0000001
 43
0.0000001
 44
0.0000000001
 12
0.0727971653
 22
-0.4072361356
 32
0.0
 13
0.3733509882
 23
-0.1781559004
 33
0.0
 40
0.0
 40
0.0
 40
0.0
 40
0.0
 40
0.0625356946
 40
0.1250697494
 40
0.250134845
 40
0.5000349017
 40
0.5625923625
 40
0.6251849589
 40
0.7501564111
 40
0.8750757969
 40
1.0
 40
1.0
 40
1.0
 40
1.0
 10
-47.1506191375
 20
13.7750034744
 30
0.0
 10
-47.1491016638
 20
13.7665145429
 30
0.0
 10
-47.1463604754
 20
13.7494861607
 30
0.0
 10
-47.1400981695
 20
13.7155615723
 30
0.0
 10
-47.1278737226
 20
13.6565059265
 30
0.0
 10
-47.1108080858
 20
13.5982836271
 30
0.0
 10
-47.0898152826
 20
13.5509896844
 30
0.0
 10
-47.0741155358
 20
13.5202599869
 30
0.0
 10
-47.0499976185
 20
13.4842809747
 30
0.0
 10
-47.0134187278
 20
13.4472344344
 30
0.0
 10
-46.9838564
 20
13.4288199343
 30
0.0
 10
-46.9683095418
 20
13.421401273
 30
0.0
 11
-47.1506191375
 21
13.7750034744
 31
0.0
 11
-47.1462629312
 21
13.749502381
 31
0.0
 11
-47.1416031051
 21
13.724055711
 31
0.0
 11
-47.1309003138
 21
13.6734364746
 31
0.0
 11
-47.1001093759
 21
13.5747469905
 31
0.0
 11
-47.0896047653
 21
13.5510954688
 31
0.0
 11
-47.0777299045
 21
13.5280850534
 31
0.0
 11
-47.0487179746
 21
13.485293673
 31
0.0
 11
-47.01212434
 21
13.4488048303
 31
0.0
 11
-46.9683095418
 21
13.421401273
 31
0.0
  0
SPLINE
  5
5EE
100
AcDbEntity
  8
CURVE
100
AcDbSpline
 62
253
  6
CONTINUOUS
 70
0
 71
3
 72
18
 73
14
 74
12
 42
0.0000001
 43
0.0000001
 44
0.0000000001
 12
-0.0701130695
 22
-0.3875603078
 32
0.0
 13
-0.3931919016
 23
0.022274717
 33
0.0
 40
0.0
 40
0.0
 40
0.0
 40
0.0
 40
0.0909090909
 40
0.1818181818
 40
0.2727272727
 40
0.3636363636
 40
0.4545454545
 40
0.5454545455
 40
0.6363636364
 40
0.7272727273
 40
0.8181818182
 40
0.9090909091
 40
1.0
 40
1.0
 40
1.0
 40
1.0
 10
-45.3437891362
 20
15.7661069382
 30
0.0
 10
-45.3459137747
 20
15.7543626864
 30
0.0
 10
-45.3517179892
 20
15.731125231
 30
0.0
 10
-45.3649182649
 20
15.6977369117
 30
0.0
 10
-45.3823893583
 20
15.6663646797
 30
0.0
 10
-45.4038273514
 20
15.6375596578
 30
0.0
 10
-45.4288614957
 20
15.6118183955
 30
0.0
 10
-45.4570582401
 20
15.5895871114
 30
0.0
 10
-45.4879296099
 20
15.5712505416
 30
0.0
 10
-45.5209405527
 20
15.5571261477
 30
0.0
 10
-45.5555217376
 20
15.5474585713
 30
0.0
 10
-45.5910663698
 20
15.542414727
 30
0.0
 10
-45.6150150084
 20
15.5421940086
 30
0.0
 10
-45.6269299145
 20
15.542869
 30
0.0
 11
-45.3437891362
 21
15.7661069382
 31
0.0
 11
-45.3524669815
 21
15.731369875
 31
0.0
 11
-45.3656300678
 21
15.6980729262
 31
0.0
 11
-45.3830505082
 21
15.666792548
 31
0.0
 11
-45.4044267099
 21
15.6380702844
 31
0.0
 11
-45.4293885957
 21
15.6124033918
 31
0.0
 11
-45.457504011
 21
15.5902362304
 31
0.0
 11
-45.4882862054
 21
15.5719525709
 31
0.0
 11
-45.5212022597
 21
15.5578689506
 31
0.0
 11
-45.5556823122
 21
15.5482291933
 31
0.0
 11
-45.5911294241
 21
15.5432001881
 31
0.0
 11
-45.6269299145
 21
15.542869
 31
0.0
  0
SPLINE
  5
5EF
100
AcDbEntity
  8
CURVE
100
AcDbSpline
 62
253
  6
CONTINUOUS
 70
0
 71
3
 72
8
 73
4
 74
2
 42
0.0000001
 43
0.0000001
 44
0.0000000001
 12
-0.0646051856
 22
0.0109179306
 32
0.0
 13
-0.0547245015
 23
0.0347276556
 33
0.0
 40
0.0
 40
0.0
 40
0.0
 40
0.0
 40
1.0
 40
1.0
 40
1.0
 40
1.0
 10
-45.6595266401
 20
13.6789035799
 30
0.0
 10
-45.681061702
 20
13.6825428901
 30
0.0
 10
-45.7021053381
 20
13.6903520226
 30
0.0
 10
-45.7203468386
 20
13.7019279078
 30
0.0
 11
-45.6595266401
 21
13.6789035799
 31
0.0
 11
-45.7203468386
 21
13.7019279078
 31
0.0
  0
SPLINE
  5
5F0
100
AcDbEntity
  8
0
100
AcDbSpline
 62
7
  6
CONTINUOUS
 70
0
 71
3
 72
14
 73
10
 74
8
 42
0.0000001
 43
0.0000001
 44
0.0000000001
 12
0.0
 22
0.9156970519
 32
0.0
 13
-0.9156970519
 23
-0.0
 33
0.0
 40
0.0
 40
0.0
 40
0.0
 40
0.0
 40
0.0680364073
 40
0.148235742
 40
0.2472993607
 40
0.3665583806
 40
0.5056842008
 40
0.6609316112
 40
1.0
 40
1.0
 40
1.0
 40
1.0
 10
-19.5315001226
 20
-1.2538810671
 30
0.0
 10
-19.5315001226
 20
-1.2331141545
 30
0.0
 10
-19.5433937869
 20
-1.1874260347
 30
0.0
 10
-19.5925597191
 20
-1.1281954029
 30
0.0
 10
-19.6673749211
 20
-1.0751873069
 30
0.0
 10
-19.7663552835
 20
-1.0282571725
 30
0.0
 10
-19.8870938108
 20
-0.9903251238
 30
0.0
 10
-20.0766266874
 20
-0.9511068288
 30
0.0
 10
-20.2280054811
 20
-0.9401307503
 30
0.0
 10
-20.3315001224
 20
-0.9401307503
 30
0.0
 11
-19.5315001226
 21
-1.2538810671
 31
0.0
 11
-19.5461206848
 21
-1.1933201798
 31
0.0
 11
-19.5906681256
 21
-1.1349360331
 31
0.0
 11
-19.6634952799
 21
-1.0808535002
 31
0.0
 11
-19.7616791358
 21
-1.0330445939
 31
0.0
 11
-19.8828688026
 21
-0.9937624531
 31
0.0
 11
-20.0219680356
 21
-0.9644238413
 31
0.0
 11
-20.3315001224
 21
-0.9401307503
 31
0.0
  0
SPLINE
  5
5F1
100
AcDbEntity
  8
0
100
AcDbSpline
 62
253
  6
CONTINUOUS
 70
0
 71
3
 72
11
 73
7
 74
5
 42
0.0000001
 43
0.0000001
 44
0.0000000001
 12
-0.6447318546
 22
0.0238924061
 32
0.0
 13
-0.0
 23
0.6451744038
 33
0.0
 40
0.0
 40
0.0
 40
0.0
 40
0.0
 40
0.2882246335
 40
0.5546529692
 40
0.7895510406
 40
1.0
 40
1.0
 40
1.0
 40
1.0
 10
-36.7776681005
 20
-18.4669314929
 30
0.0
 10
-36.8396106347
 20
-18.4646360329
 30
0.0
 10
-36.9589739185
 20
-18.4446165422
 30
0.0
 10
-37.1140507276
 20
-18.369232872
 30
0.0
 10
-37.2233326531
 20
-18.2560344218
 30
0.0
 10
-37.2515001224
 20
-18.1591213956
 30
0.0
 10
-37.2515001224
 20
-18.1138626349
 30
0.0
 11
-36.7776681005
 21
-18.4669314929
 31
0.0
 11
-36.9608499529
 21
-18.4349357271
 31
0.0
 11
-37.1141725561
 21
-18.3572228303
 31
0.0
 11
-37.2159002859
 21
-18.2448887788
 31
0.0
 11
-37.2515001224
 21
-18.1138626349
 31
0.0
  0
SPLINE
  5
5F2
100
AcDbEntity
  8
0
100
AcDbSpline
 62
253
  6
CONTINUOUS
 70
0
 71
3
 72
11
 73
7
 74
5
 42
0.0000001
 43
0.0000001
 44
0.0000000001
 12
0.0
 22
-0.6451746371
 32
0.0
 13
0.6447320877
 23
-0.0238924147
 33
0.0
 40
0.0
 40
0.0
 40
0.0
 40
0.0
 40
0.2106665197
 40
0.4457065358
 40
0.712145759
 40
1.0
 40
1.0
 40
1.0
 40
1.0
 10
-37.2515001224
 20
-19.3469060477
 30
0.0
 10
-37.2515001224
 20
-19.3922116129
 30
0.0
 10
-37.2232750754
 20
-19.4892008101
 30
0.0
 10
-37.1138872504
 20
-19.6024123161
 30
0.0
 10
-36.9588115632
 20
-19.6776876789
 30
0.0
 10
-36.8395310558
 20
-19.6976823947
 30
0.0
 10
-36.7776681005
 20
-19.6999749057
 30
0.0
 11
-37.2515001224
 21
-19.3469060477
 31
0.0
 11
-37.2158294418
 21
-19.4780584424
 31
0.0
 11
-37.1139886314
 21
-19.5904136922
 31
0.0
 11
-36.9606200835
 21
-19.6680515681
 31
0.0
 11
-36.7776681005
 21
-19.6999749057
 31
0.0
  0
SPLINE
  5
5F3
100
AcDbEntity
  8
0
100
AcDbSpline
 62
253
  6
CONTINUOUS
 70
0
 71
3
 72
9
 73
5
 74
3
 42
0.0000001
 43
0.0000001
 44
0.0000000001
 12
-0.0033133688
 22
-0.1081017895
 32
0.0
 13
0.0
 23
-0.1081525557
 33
0.0
 40
0.0
 40
0.0
 40
0.0
 40
0.0
 40
0.3039435389
 40
1.0
 40
1.0
 40
1.0
 40
1.0
 10
-36.7776681005
 20
-19.6999749057
 30
0.0
 10
-36.7780037929
 20
-19.7109271858
 30
0.0
 10
-36.7790205276
 20
-19.7469627802
 30
0.0
 10
-36.7798174848
 20
-19.7830109565
 30
0.0
 10
-36.7798174848
 20
-19.8081043849
 30
0.0
 11
-36.7776681005
 21
-19.6999749057
 31
0.0
 11
-36.7786015494
 21
-19.7328339203
 31
0.0
 11
-36.7798174848
 21
-19.8081043849
 31
0.0
  0
SPLINE
  5
5F4
100
AcDbEntity
  8
0
100
AcDbSpline
 62
253
  6
CONTINUOUS
 70
0
 71
3
 72
10
 73
6
 74
4
 42
0.0000001
 43
0.0000001
 44
0.0000000001
 12
0.0
 22
-0.0377102666
 32
0.0
 13
0.0149845673
 23
-0.0346053023
 33
0.0
 40
0.0
 40
0.0
 40
0.0
 40
0.0
 40
0.6946472574
 40
0.896429314
 40
1.0
 40
1.0
 40
1.0
 40
1.0
 10
-36.7798174848
 20
-19.8081043849
 30
0.0
 10
-36.7798174848
 20
-19.8168361627
 30
0.0
 10
-36.7798811626
 20
-19.8281720107
 30
0.0
 10
-36.7789720428
 20
-19.8406162633
 30
0.0
 10
-36.7786319043
 20
-19.8445268319
 30
0.0
 10
-36.7781145836
 20
-19.8457215302
 30
0.0
 11
-36.7798174848
 21
-19.8081043849
 31
0.0
 11
-36.7793885703
 21
-19.8342962065
 31
0.0
 11
-36.7788554487
 21
-19.8418867628
 31
0.0
 11
-36.7781145836
 21
-19.8457215302
 31
0.0
  0
LINE
  5
5F5
100
AcDbEntity
  8
0
100
AcDbLine
 62
253
  6
CONTINUOUS
 10
-36.7781145836
 20
-19.8457215302
 11
-36.7776681005
 21
-19.8462208151
  0
SPLINE
  5
5F6
100
AcDbEntity
  8
0
100
AcDbSpline
 62
7
  6
CONTINUOUS
 70
0
 71
3
 72
23
 73
19
 74
17
 42
0.0000001
 43
0.0000001
 44
0.0000000001
 12
0.9994851267
 22
0.0261724391
 32
0.0
 13
0.0002567867
 23
0.9998277097
 33
0.0
 40
0.0
 40
0.0
 40
0.0
 40
0.0
 40
0.0012119143
 40
0.0048311001
 40
0.010842421
 40
0.0192302226
 40
0.0299787931
 40
0.0430710065
 40
0.0761399821
 40
0.1180886362
 40
0.168543657
 40
0.227005262
 40
0.2929028216
 40
0.3656280987
 40
0.4444497235
 40
0.6173165952
 40
0.8049994108
 40
1.0
 40
1.0
 40
1.0
 40
1.0
 10
-34.3515000248
 20
-17.4749999974
 30
0.0
 10
-34.3510962613
 20
-17.4749894245
 30
0.0
 10
-34.3519475832
 20
-17.4724272462
 30
0.0
 10
-34.3510324936
 20
-17.4697310719
 30
0.0
 10
-34.3514527634
 20
-17.4632056831
 30
0.0
 10
-34.3511595895
 20
-17.4550540933
 30
0.0
 10
-34.3511538463
 20
-17.4442250701
 30
0.0
 10
-34.3509701939
 20
-17.4253008039
 30
0.0
 10
-34.3508017535
 20
-17.3959094065
 30
0.0
 10
-34.3505753932
 20
-17.3541045933
 30
0.0
 10
-34.3503995433
 20
-17.3038210069
 30
0.0
 10
-34.3502790842
 20
-17.2455611284
 30
0.0
 10
-34.3502444707
 20
-17.1798771711
 30
0.0
 10
-34.3503135391
 20
-17.1074083204
 30
0.0
 10
-34.3505175488
 20
-16.9992891548
 30
0.0
 10
-34.3509213748
 20
-16.8528578537
 30
0.0
 10
-34.3513816776
 20
-16.6677068902
 30
0.0
 10
-34.3515169541
 20
-16.540167689
 30
0.0
 10
-34.351500263
 20
-16.4751786915
 30
0.0
 11
-34.3515000248
 21
-17.4749999974
 31
0.0
 11
-34.3514441494
 21
-17.4737895809
 31
0.0
 11
-34.3513809029
 21
-17.4701715713
 31
0.0
 11
-34.3513095406
 21
-17.4641617095
 31
0.0
 11
-34.3512293175
 21
-17.4557757365
 31
0.0
 11
-34.3511394892
 21
-17.445029393
 31
0.0
 11
-34.3510395448
 21
-17.4319398163
 31
0.0
 11
-34.3508202981
 21
-17.3988772641
 31
0.0
 11
-34.3506028976
 21
-17.3569363994
 31
0.0
 11
-34.350420014
 21
-17.3064904013
 31
0.0
 11
-34.350298319
 21
-17.2480389935
 31
0.0
 11
-34.3502611218
 21
-17.1821527956
 31
0.0
 11
-34.3503224642
 21
-17.1094400719
 31
0.0
 11
-34.3504655724
 21
-17.0306321546
 31
0.0
 11
-34.3509002528
 21
-16.8577956071
 31
0.0
 11
-34.3513318868
 21
-16.6701456178
 31
0.0
 11
-34.351500263
 21
-16.4751786915
 31
0.0
  0
SPLINE
  5
5F7
100
AcDbEntity
  8
0
100
AcDbSpline
 62
253
  6
CONTINUOUS
 70
0
 71
3
 72
13
 73
9
 74
7
 42
0.0000001
 43
0.0000001
 44
0.0000000001
 12
-1.3062271344
 22
1.7841977834
 32
0.0
 13
-2.2104842342
 23
0.0578835668
 33
0.0
 40
0.0
 40
0.0
 40
0.0
 40
0.0
 40
0.1381364012
 40
0.2733021353
 40
0.4038800952
 40
0.5297345525
 40
0.7691637756
 40
1.0
 40
1.0
 40
1.0
 40
1.0
 10
-21.208351598
 20
16.1309797716
 30
0.0
 10
-21.2684974365
 20
16.2131339919
 30
0.0
 10
-21.3982141304
 20
16.3679237768
 30
0.0
 10
-21.6108731039
 20
16.5768190415
 30
0.0
 10
-21.8370294141
 20
16.7571506261
 30
0.0
 10
-22.1466387612
 20
16.9524811593
 30
0.0
 10
-22.5560231917
 20
17.1234123456
 30
0.0
 10
-22.9028826659
 20
17.1752074012
 30
0.0
 10
-23.0729692775
 20
17.1796612759
 30
0.0
 11
-21.208351598
 21
16.1309797716
 31
0.0
 11
-21.4032485612
 21
16.3661748266
 31
0.0
 11
-21.6167937097
 21
16.5752924999
 31
0.0
 11
-21.8428734786
 21
16.7548987835
 31
0.0
 11
-22.0784283251
 21
16.9030940301
 31
0.0
 11
-22.5681211732
 21
17.1043484381
 31
0.0
 11
-23.0729692775
 21
17.1796612759
 31
0.0
  0
SPLINE
  5
5F8
100
AcDbEntity
  8
0
100
AcDbSpline
 62
253
  6
CONTINUOUS
 70
0
 71
3
 72
21
 73
17
 74
15
 42
0.0000001
 43
0.0000001
 44
0.0000000001
 12
0.9998028078
 22
0.0261807576
 32
0.0
 13
-0.0261716609
 23
0.9998030459
 33
0.0
 40
0.0
 40
0.0
 40
0.0
 40
0.0
 40
0.0015613857
 40
0.0054926
 40
0.0118695588
 40
0.0206564392
 40
0.0452539144
 40
0.0788477649
 40
0.1209829488
 40
0.1712003112
 40
0.2290391227
 40
0.2940379274
 40
0.4434126793
 40
0.6143516043
 40
0.8016243544
 40
1.0
 40
1.0
 40
1.0
 40
1.0
 10
-32.0860577493
 20
-17.4156773037
 30
0.0
 10
-32.08553739
 20
-17.4156636776
 30
0.0
 10
-32.0849215104
 20
-17.4132540999
 30
0.0
 10
-32.0842795896
 20
-17.4099233184
 30
0.0
 10
-32.0836321948
 20
-17.4032759253
 30
0.0
 10
-32.0827461273
 20
-17.3902329217
 30
0.0
 10
-32.0819306146
 20
-17.3677811178
 30
0.0
 10
-32.0812560519
 20
-17.3344036053
 30
0.0
 10
-32.0808616045
 20
-17.2923927202
 30
0.0
 10
-32.0807453334
 20
-17.2423298626
 30
0.0
 10
-32.0809169131
 20
-17.1846337613
 30
0.0
 10
-32.0815634948
 20
-17.0938863265
 30
0.0
 10
-32.0831482552
 20
-16.965438461
 30
0.0
 10
-32.0860269711
 20
-16.796242674
 30
0.0
 10
-32.0899072546
 20
-16.6107266424
 30
0.0
 10
-32.0930499988
 20
-16.4821965991
 30
0.0
 10
-32.0947806055
 20
-16.4160844076
 30
0.0
 11
-32.0860577493
 21
-17.4156773037
 31
0.0
 11
-32.0852130017
 21
-17.4143638973
 31
0.0
 11
-32.0844421095
 21
-17.4105084246
 31
0.0
 11
-32.0837450599
 21
-17.404168743
 31
0.0
 11
-32.0831218403
 21
-17.3954027097
 31
0.0
 11
-32.0820968402
 21
-17.3708230173
 31
0.0
 11
-32.0813670077
 21
-17.3372322054
 31
0.0
 11
-32.0809322412
 21
-17.2950931323
 31
0.0
 11
-32.0807924393
 21
-17.2448686562
 31
0.0
 11
-32.0809475004
 21
-17.1870216351
 31
0.0
 11
-32.0813973231
 21
-17.1220149273
 31
0.0
 11
-32.0831681245
 21
-16.9726289314
 31
0.0
 11
-32.0860403945
 21
-16.8016892587
 31
0.0
 11
-32.0899369493
 21
-16.6144297903
 31
0.0
 11
-32.0947806055
 21
-16.4160844076
 31
0.0
  0
SPLINE
  5
5F9
100
AcDbEntity
  8
0
100
AcDbSpline
 62
7
  6
CONTINUOUS
 70
0
 71
3
 72
11
 73
7
 74
5
 42
0.0000001
 43
0.0000001
 44
0.0000000001
 12
0.6337934198
 22
-0.2950069234
 32
0.0
 13
0.6986614608
 23
0.0243997337
 33
0.0
 40
0.0
 40
0.0
 40
0.0
 40
0.0
 40
0.2715280077
 40
0.5351769623
 40
0.7819287838
 40
1.0
 40
1.0
 40
1.0
 40
1.0
 10
-30.6339680227
 20
-7.9318567533
 30
0.0
 10
-30.5766038011
 20
-7.958557634
 30
0.0
 10
-30.4636086599
 20
-8.0112533318
 30
0.0
 10
-30.2962473762
 20
-8.0838056305
 30
0.0
 10
-30.1364120964
 20
-8.1403012472
 30
0.0
 10
-30.0280932657
 20
-8.160658565
 30
0.0
 10
-29.9773072809
 20
-8.1588849384
 30
0.0
 11
-30.6339680227
 21
-7.9318567533
 31
0.0
 11
-30.4615455345
 21
-8.0112469546
 31
0.0
 11
-30.2918987292
 21
-8.083298928
 31
0.0
 11
-30.1283350807
 21
-8.1381036558
 31
0.0
 11
-29.9773072809
 21
-8.1588849384
 31
0.0
  0
SPLINE
  5
5FA
100
AcDbEntity
  8
0
100
AcDbSpline
 62
253
  6
CONTINUOUS
 70
0
 71
3
 72
13
 73
9
 74
7
 42
0.0000001
 43
0.0000001
 44
0.0000000001
 12
0.8453000635
 22
0.9474518512
 32
0.0
 13
-0.0009509167
 23
1.2697229239
 33
0.0
 40
0.0
 40
0.0
 40
0.0
 40
0.0
 40
0.072827049
 40
0.1685569368
 40
0.3059148821
 40
0.472814622
 40
0.6501015591
 40
1.0
 40
1.0
 40
1.0
 40
1.0
 10
-29.3736481019
 20
-15.810138718
 30
0.0
 10
-29.3531278655
 20
-15.7871386772
 30
0.0
 10
-29.3099944399
 20
-15.7301625204
 30
0.0
 10
-29.2346478263
 20
-15.6248933067
 30
0.0
 10
-29.1458010688
 20
-15.4805400455
 30
0.0
 10
-29.0557814016
 20
-15.2971295274
 30
0.0
 10
-28.9602047034
 20
-15.018849601
 30
0.0
 10
-28.9275638369
 20
-14.7945968247
 30
0.0
 10
-28.927674745
 20
-14.6465054676
 30
0.0
 11
-29.3736481019
 21
-15.810138718
 31
0.0
 11
-29.3161572759
 21
-15.737712599
 31
0.0
 11
-29.2458512833
 21
-15.6385582573
 31
0.0
 11
-29.1545448096
 21
-15.4899622167
 31
0.0
 11
-29.0617080571
 21
-15.2994630459
 31
0.0
 11
-28.9884919631
 21
-15.0865973071
 31
0.0
 11
-28.927674745
 21
-14.6465054676
 31
0.0
  0
SPLINE
  5
5FB
100
AcDbEntity
  8
0
100
AcDbSpline
 62
7
  6
CONTINUOUS
 70
0
 71
3
 72
17
 73
13
 74
11
 42
0.0000001
 43
0.0000001
 44
0.0000000001
 12
0.0054430451
 22
-0.2499452921
 32
0.0
 13
-0.2498511878
 23
-0.008755554
 33
0.0
 40
0.0
 40
0.0
 40
0.0
 40
0.0
 40
0.1947266115
 40
0.3823088396
 40
0.5549321685
 40
0.7062340476
 40
0.830502094
 40
0.9228374802
 40
0.9559315592
 40
0.9798481435
 40
0.994468396
 40
1.0
 40
1.0
 40
1.0
 40
1.0
 10
-25.4273855323
 20
-7.7502387288
 30
0.0
 10
-25.4270322304
 20
-7.7664623954
 30
0.0
 10
-25.4263860946
 20
-7.798314959
 30
0.0
 10
-25.4256274158
 20
-7.8445566367
 30
0.0
 10
-25.4251380165
 20
-7.8871721627
 30
0.0
 10
-25.4248976209
 20
-7.924546763
 30
0.0
 10
-25.4249573483
 20
-7.9551374242
 30
0.0
 10
-25.425222818
 20
-7.9760952715
 30
0.0
 10
-25.425744185
 20
-7.9883256215
 30
0.0
 10
-25.4260973448
 20
-7.9946310213
 30
0.0
 10
-25.4266488327
 20
-7.9976427698
 30
0.0
 10
-25.42697561
 20
-7.999983932
 30
0.0
 10
-25.4274363026
 20
-8.0000000761
 30
0.0
 11
-25.4273855323
 21
-7.7502387288
 31
0.0
 11
-25.4264060493
 21
-7.7989114135
 31
0.0
 11
-25.4256470528
 21
-7.8458016819
 31
0.0
 11
-25.4251562915
 21
-7.8889555094
 31
0.0
 11
-25.4249411644
 21
-7.9267810561
 31
0.0
 11
-25.4250267556
 21
-7.9578485154
 31
0.0
 11
-25.4254508286
 21
-7.9809288866
 31
0.0
 11
-25.4258038731
 21
-7.9891950212
 31
0.0
 11
-25.4262557489
 21
-7.9951571767
 31
0.0
 11
-25.4268018321
 21
-7.9987712832
 31
0.0
 11
-25.4274363026
 21
-8.0000000761
 31
0.0
  0
SPLINE
  5
5FC
100
AcDbEntity
  8
0
100
AcDbSpline
 62
7
  6
CONTINUOUS
 70
0
 71
3
 72
15
 73
11
 74
9
 42
0.0000001
 43
0.0000001
 44
0.0000000001
 12
0.2426480613
 22
-0.0353000355
 32
0.0
 13
-0.2395478486
 23
-0.0523545833
 33
0.0
 40
0.0
 40
0.0
 40
0.0
 40
0.0
 40
0.3857190961
 40
0.559106148
 40
0.7105960464
 40
0.8345458558
 40
0.9261570787
 40
0.9587271607
 40
0.9819960515
 40
1.0
 40
1.0
 40
1.0
 40
1.0
 10
-21.5386949139
 20
-4.3897096431
 30
0.0
 10
-21.5074969169
 20
-4.3942482757
 30
0.0
 10
-21.4623076511
 20
-4.4008475157
 30
0.0
 10
-21.404771669
 20
-4.4092828352
 30
0.0
 10
-21.3686496319
 20
-4.4146375759
 30
0.0
 10
-21.3385052837
 20
-4.4190397824
 30
0.0
 10
-21.3194643134
 20
-4.4220546923
 30
0.0
 10
-21.3061554526
 20
-4.4238587751
 30
0.0
 10
-21.302635468
 20
-4.4248058403
 30
0.0
 10
-21.2947003657
 20
-4.4253033025
 30
0.0
 10
-21.2961379681
 20
-4.4256174989
 30
0.0
 11
-21.5386949139
 21
-4.3897096431
 31
0.0
 11
-21.4451076488
 21
-4.4033716929
 31
0.0
 11
-21.4030438074
 21
-4.4095483014
 31
0.0
 11
-21.366296138
 21
-4.4149713861
 31
0.0
 11
-21.3362334857
 21
-4.4194388249
 31
0.0
 11
-21.3140197425
 21
-4.4227777963
 31
0.0
 11
-21.3061250658
 21
-4.4239837895
 31
0.0
 11
-21.3004876649
 21
-4.4248632327
 31
0.0
 11
-21.2961379681
 21
-4.4256174989
 31
0.0
  0
SPLINE
  5
5FD
100
AcDbEntity
  8
0
100
AcDbSpline
 62
253
  6
CONTINUOUS
 70
0
 71
3
 72
16
 73
12
 74
10
 42
0.0000001
 43
0.0000001
 44
0.0000000001
 12
-0.1207810186
 22
-0.9985125021
 32
0.0
 13
0.9982887962
 23
-0.1226162745
 33
0.0
 40
0.0
 40
0.0
 40
0.0
 40
0.0
 40
0.3760723373
 40
0.5457395142
 40
0.694721779
 40
0.8175752879
 40
0.867855832
 40
0.9101504704
 40
0.9442537441
 40
0.9701394548
 40
1.0
 40
1.0
 40
1.0
 40
1.0
 10
-38.0733694658
 20
-16.2279122492
 30
0.0
 10
-38.0885102658
 20
-16.353083226
 30
0.0
 10
-38.1065367015
 20
-16.5352632455
 30
0.0
 10
-38.1199672868
 20
-16.7678137959
 30
0.0
 10
-38.1235610909
 20
-16.9158357749
 30
0.0
 10
-38.1214878339
 20
-17.0238310991
 30
0.0
 10
-38.1159869893
 20
-17.0959491557
 30
0.0
 10
-38.110765628
 20
-17.1379359704
 30
0.0
 10
-38.1038241099
 20
-17.1720852695
 30
0.0
 10
-38.0953635167
 20
-17.1995242136
 30
0.0
 10
-38.0833059473
 20
-17.219237938
 30
0.0
 10
-38.0733694647
 20
-17.220458401
 30
0.0
 11
-38.0733694658
 21
-16.2279122492
 31
0.0
 11
-38.1098043966
 21
-16.6044034857
 31
0.0
 11
-38.119356048
 21
-16.7747856595
 31
0.0
 11
-38.1225836054
 21
-16.9245958973
 31
0.0
 11
-38.119355853
 21
-17.04811867
 31
0.0
 11
-38.1153547865
 21
-17.098531858
 31
0.0
 11
-38.1098040463
 21
-17.1407077225
 31
0.0
 11
-38.1027565584
 21
-17.1742766834
 31
0.0
 11
-38.0942698031
 21
-17.1988902579
 31
0.0
 11
-38.0733694647
 21
-17.220458401
 31
0.0
  0
SPLINE
  5
5FE
100
AcDbEntity
  8
0
100
AcDbSpline
 62
7
  6
CONTINUOUS
 70
0
 71
3
 72
23
 73
19
 74
17
 42
0.0000001
 43
0.0000001
 44
0.0000000001
 12
0.0002509626
 22
0.9998610871
 32
0.0
 13
-0.9995184911
 23
0.0261733128
 33
0.0
 40
0.0
 40
0.0
 40
0.0
 40
0.0
 40
0.195005199
 40
0.3826693098
 40
0.5555207457
 40
0.6343526634
 40
0.7070888876
 40
0.7729897359
 40
0.8314498013
 40
0.8819032215
 40
0.9238550208
 40
0.9569292189
 40
0.9700234219
 40
0.9807727563
 40
0.9891603334
 40
0.9951708551
 40
0.9987890588
 40
1.0
 40
1.0
 40
1.0
 40
1.0
 10
-34.3515000181
 20
16.4751452253
 30
0.0
 10
-34.3514837051
 20
16.5401379287
 30
0.0
 10
-34.3513284074
 20
16.667676624
 30
0.0
 10
-34.3508731419
 20
16.8528239442
 30
0.0
 10
-34.350475353
 20
16.9992522002
 30
0.0
 10
-34.3502743513
 20
17.107376915
 30
0.0
 10
-34.3502060576
 20
17.1798563596
 30
0.0
 10
-34.3502392323
 20
17.2455467416
 30
0.0
 10
-34.3503595562
 20
17.3038086152
 30
0.0
 10
-34.3505417293
 20
17.3540938686
 30
0.0
 10
-34.3507831223
 20
17.3959022449
 30
0.0
 10
-34.3509660044
 20
17.425298009
 30
0.0
 10
-34.3511606077
 20
17.4442254313
 30
0.0
 10
-34.3511700437
 20
17.4550557177
 30
0.0
 10
-34.3514700269
 20
17.4632072277
 30
0.0
 10
-34.3510408746
 20
17.4697326267
 30
0.0
 10
-34.3519686466
 20
17.4724273738
 30
0.0
 10
-34.3510966698
 20
17.4749894352
 30
0.0
 10
-34.3515001225
 20
17.475
 30
0.0
 11
-34.3515000181
 21
16.4751452253
 31
0.0
 11
-34.3512843173
 21
16.6701232224
 31
0.0
 11
-34.3508526132
 21
16.8577607735
 31
0.0
 11
-34.3504241588
 21
17.0305876725
 31
0.0
 11
-34.3502831019
 21
17.1094085156
 31
0.0
 11
-34.3502223183
 21
17.1821346127
 31
0.0
 11
-34.3502586434
 21
17.2480262987
 31
0.0
 11
-34.3503813599
 21
17.3064781162
 31
0.0
 11
-34.350571726
 21
17.3569241702
 31
0.0
 11
-34.3508037571
 21
17.3988695014
 31
0.0
 11
-34.3510393066
 21
17.4319382672
 31
0.0
 11
-34.351146144
 21
17.4450302158
 31
0.0
 11
-34.3512409943
 21
17.4557776388
 31
0.0
 11
-34.3513237063
 21
17.4641636431
 31
0.0
 11
-34.351394391
 21
17.4701729143
 31
0.0
 11
-34.3514531594
 21
17.4737901381
 31
0.0
 11
-34.3515001225
 21
17.475
 31
0.0
  0
SPLINE
  5
5FF
100
AcDbEntity
  8
0
100
AcDbSpline
 62
253
  6
CONTINUOUS
 70
0
 71
3
 72
11
 73
7
 74
5
 42
0.0000001
 43
0.0000001
 44
0.0000000001
 12
-0.038274296
 22
-0.0020058709
 32
0.0
 13
0.0
 23
-0.0383268215
 33
0.0
 40
0.0
 40
0.0
 40
0.0
 40
0.0
 40
0.0684864333
 40
0.2577723638
 40
0.5691731861
 40
1.0
 40
1.0
 40
1.0
 40
1.0
 10
-36.7776681005
 20
19.8462208151
 30
0.0
 10
-36.7785418572
 20
19.8461750235
 30
0.0
 10
-36.778600953
 20
19.8413531883
 30
0.0
 10
-36.7796163715
 20
19.8355452125
 30
0.0
 10
-36.7796698876
 20
19.8228222823
 30
0.0
 10
-36.7798174848
 20
19.813608459
 30
0.0
 10
-36.7798174848
 20
19.8081043849
 30
0.0
 11
-36.7776681005
 21
19.8462208151
 31
0.0
 11
-36.7786015494
 21
19.8437675312
 31
0.0
 11
-36.779274962
 21
19.8365441252
 31
0.0
 11
-36.7796815009
 21
19.8246160474
 31
0.0
 11
-36.7798174848
 21
19.8081043849
 31
0.0
  0
SPLINE
  5
600
100
AcDbEntity
  8
0
100
AcDbSpline
 62
253
  6
CONTINUOUS
 70
0
 71
3
 72
9
 73
5
 74
3
 42
0.0000001
 43
0.0000001
 44
0.0000000001
 12
0.0
 22
-0.1081531649
 32
0.0
 13
0.0033133874
 23
-0.1081023984
 33
0.0
 40
0.0
 40
0.0
 40
0.0
 40
0.0
 40
0.1936289123
 40
1.0
 40
1.0
 40
1.0
 40
1.0
 10
-36.7798174848
 20
19.8081043849
 30
0.0
 10
-36.7798174848
 20
19.8011238583
 30
0.0
 10
-36.7795331521
 20
19.7650730118
 30
0.0
 10
-36.7785587072
 20
19.7290317885
 30
0.0
 10
-36.7776681005
 20
19.6999749057
 30
0.0
 11
-36.7798174848
 21
19.8081043849
 31
0.0
 11
-36.7796815009
 21
19.7871632467
 31
0.0
 11
-36.7776681005
 21
19.6999749057
 31
0.0
  0
LINE
  5
601
100
AcDbEntity
  8
0
100
AcDbLine
 62
253
  6
CONTINUOUS
 10
-36.7776681005
 20
19.6999749057
 11
-36.7853625329
 21
19.6996266301
  0
SPLINE
  5
602
100
AcDbEntity
  8
0
100
AcDbSpline
 62
253
  6
CONTINUOUS
 70
0
 71
3
 72
11
 73
7
 74
5
 42
0.0000001
 43
0.0000001
 44
0.0000000001
 12
-0.6368401864
 22
-0.0305699617
 32
0.0
 13
-0.0000000004
 23
-0.6375734825
 33
0.0
 40
0.0
 40
0.0
 40
0.0
 40
0.0
 40
0.2878923525
 40
0.5540651331
 40
0.7890381238
 40
1.0
 40
1.0
 40
1.0
 40
1.0
 10
-36.7853651173
 20
19.6996475694
 30
0.0
 10
-36.8464789237
 20
19.69671395
 30
0.0
 10
-36.9640851573
 20
19.675834074
 30
0.0
 10
-37.116643742
 20
19.6002189911
 30
0.0
 10
-37.2239204898
 20
19.4876332221
 30
0.0
 10
-37.2515001224
 20
19.391740614
 30
0.0
 10
-37.2515001224
 20
19.3469060479
 30
0.0
 11
-36.7853651173
 21
19.6996475694
 31
0.0
 11
-36.9658661749
 21
19.6663174125
 31
0.0
 11
-37.1166394595
 21
19.5884257946
 31
0.0
 11
-37.2165431336
 21
19.4767877392
 31
0.0
 11
-37.2515001224
 21
19.3469060479
 31
0.0
  0
SPLINE
  5
603
100
AcDbEntity
  8
0
100
AcDbSpline
 62
253
  6
CONTINUOUS
 70
0
 71
3
 72
11
 73
7
 74
5
 42
0.0000001
 43
0.0000001
 44
0.0000000001
 12
0.0000000001
 22
0.6451743984
 32
0.0
 13
0.6447319199
 23
0.0238904953
 33
0.0
 40
0.0
 40
0.0
 40
0.0
 40
0.0
 40
0.2104489953
 40
0.4453471322
 40
0.7117754826
 40
1.0
 40
1.0
 40
1.0
 40
1.0
 10
-37.2515001224
 20
18.1138626349
 30
0.0
 10
-37.2515001224
 20
18.1591214029
 30
0.0
 10
-37.2233326387
 20
18.2560344428
 30
0.0
 10
-37.1140506922
 20
18.3692329358
 30
0.0
 10
-36.9589738567
 20
18.4446164368
 30
0.0
 10
-36.839610616
 20
18.4646362174
 30
0.0
 10
-36.7776681005
 20
18.4669314929
 30
0.0
 11
-37.2515001224
 21
18.1138626349
 31
0.0
 11
-37.2159002741
 21
18.2448887984
 31
0.0
 11
-37.114172507
 21
18.3572228715
 31
0.0
 11
-36.960849876
 21
18.4349357311
 31
0.0
 11
-36.7776681005
 21
18.4669314929
 31
0.0
  0
SPLINE
  5
604
100
AcDbEntity
  8
0
100
AcDbSpline
 62
253
  6
CONTINUOUS
 70
0
 71
3
 72
9
 73
5
 74
3
 42
0.0000001
 43
0.0000001
 44
0.0000000001
 12
-0.0594467784
 22
-0.3498911976
 32
0.0
 13
-0.0169949512
 23
-0.3544981541
 33
0.0
 40
0.0
 40
0.0
 40
0.0
 40
0.0
 40
0.4602503042
 40
1.0
 40
1.0
 40
1.0
 40
1.0
 10
-36.7776672819
 20
18.4669140651
 30
0.0
 10
-36.7867874145
 20
18.4132348884
 30
0.0
 10
-36.8010055821
 20
18.2956759187
 30
0.0
 10
-36.8093736037
 20
18.1776377148
 30
0.0
 10
-36.812431277
 20
18.1138576245
 30
0.0
 11
-36.7776672819
 21
18.4669140651
 31
0.0
 11
-36.798636008
 21
18.3049202689
 31
0.0
 11
-36.812431277
 21
18.1138576245
 31
0.0
  0
SPLINE
  5
605
100
AcDbEntity
  8
0
100
AcDbSpline
 62
7
  6
CONTINUOUS
 70
0
 71
3
 72
14
 73
10
 74
8
 42
0.0000001
 43
0.0000001
 44
0.0000000001
 12
-0.5448877558
 22
0.7152152373
 32
0.0
 13
0.0
 23
0.8991304144
 33
0.0
 40
0.0
 40
0.0
 40
0.0
 40
0.0
 40
0.2910821207
 40
0.4313444863
 40
0.5652809602
 40
0.6913898406
 40
0.808294801
 40
0.9119014446
 40
1.0
 40
1.0
 40
1.0
 40
1.0
 10
-36.8124375816
 20
16.3827391956
 30
0.0
 10
-36.8653066094
 20
16.4521346517
 30
0.0
 10
-36.942516913
 20
16.5558746896
 30
0.0
 10
-37.0387235222
 20
16.6953455025
 30
0.0
 10
-37.1050338257
 20
16.7953378262
 30
0.0
 10
-37.1636191909
 20
16.8920297831
 30
0.0
 10
-37.2091682879
 20
16.9856278605
 30
0.0
 10
-37.2409979449
 20
17.0725576298
 30
0.0
 10
-37.2515001224
 20
17.1298362109
 30
0.0
 10
-37.2515001224
 20
17.1562402411
 30
0.0
 11
-36.8124375816
 21
16.3827391956
 31
0.0
 11
-36.9677836441
 21
16.5933700851
 31
0.0
 11
-37.0394740975
 21
16.697125856
 31
0.0
 11
-37.1056248159
 21
16.7977568153
 31
0.0
 11
-37.163478369
 21
16.8952754277
 31
0.0
 11
-37.2091636772
 21
16.989940915
 31
0.0
 11
-37.2398897977
 21
17.0778836482
 31
0.0
 11
-37.2515001224
 21
17.1562402411
 31
0.0
  0
SPLINE
  5
606
100
AcDbEntity
  8
0
100
AcDbSpline
 62
7
  6
CONTINUOUS
 70
0
 71
3
 72
14
 73
10
 74
8
 42
0.0000001
 43
0.0000001
 44
0.0000000001
 12
0.9157070065
 22
0.0
 32
0.0
 13
0.0002454322
 23
-0.9157069736
 33
0.0
 40
0.0
 40
0.0
 40
0.0
 40
0.0
 40
0.3390869679
 40
0.4943241038
 40
0.6334375991
 40
0.7527378389
 40
0.8517868992
 40
0.9319661128
 40
1.0
 40
1.0
 40
1.0
 40
1.0
 10
-20.3315001224
 20
-0.06258913
 30
0.0
 10
-20.227998685
 20
-0.06258913
 30
0.0
 10
-20.0766148141
 20
-0.0735427704
 30
0.0
 10
-19.8870793999
 20
-0.1127690586
 30
0.0
 10
-19.7663481516
 20
-0.1507366678
 30
0.0
 10
-19.6673335
 20
-0.1976034264
 30
0.0
 10
-19.5925145198
 20
-0.2506260597
 30
0.0
 10
-19.5434029616
 20
-0.3098832995
 30
0.0
 10
-19.5315056891
 20
-0.3555577863
 30
0.0
 10
-19.5315001232
 20
-0.3763241546
 30
0.0
 11
-20.3315001224
 21
-0.06258913
 31
0.0
 11
-20.0219463542
 21
-0.0868665381
 31
0.0
 11
-19.8828566497
 21
-0.116212224
 31
0.0
 11
-19.7616792641
 21
-0.1555001427
 31
0.0
 11
-19.6634427322
 21
-0.2032897821
 31
0.0
 11
-19.5906319044
 21
-0.2573735927
 31
0.0
 11
-19.546124042
 21
-0.3157657551
 31
0.0
 11
-19.5315001232
 21
-0.3763241546
 31
0.0
  0
SPLINE
  5
607
100
AcDbEntity
  8
0
100
AcDbSpline
 62
253
  6
CONTINUOUS
 70
0
 71
3
 72
14
 73
10
 74
8
 42
0.0000001
 43
0.0000001
 44
0.0000000001
 12
0.0000000003
 22
0.8183618726
 32
0.0
 13
0.81829712
 23
0.0102945635
 33
0.0
 40
0.0
 40
0.0
 40
0.0
 40
0.0
 40
0.0665004285
 40
0.1457935437
 40
0.2441779137
 40
0.3628736779
 40
0.5008248615
 40
0.6553193012
 40
1.0
 40
1.0
 40
1.0
 40
1.0
 10
-29.6515001224
 20
-14.9165339846
 30
0.0
 10
-29.6515001224
 20
-14.8983935128
 30
0.0
 10
-29.6390461495
 20
-14.8584580524
 30
0.0
 10
-29.5932674365
 20
-14.8085244073
 30
0.0
 10
-29.5253103571
 20
-14.7638420094
 30
0.0
 10
-29.4363048461
 20
-14.7248229823
 30
0.0
 10
-29.3286788452
 20
-14.6925466308
 30
0.0
 10
-29.1581100096
 20
-14.6583500556
 30
0.0
 10
-29.0216918193
 20
-14.6476882452
 30
0.0
 10
-28.927674745
 20
-14.6465054661
 30
0.0
 11
-29.6515001224
 21
-14.9165339846
 31
0.0
 11
-29.6370432046
 21
-14.8640679197
 31
0.0
 11
-29.5953670074
 21
-14.8143299396
 31
0.0
 11
-29.5290133649
 21
-14.7687261994
 31
0.0
 11
-29.4405241115
 21
-14.7286628547
 31
0.0
 11
-29.3326227543
 21
-14.6954612003
 31
0.0
 11
-29.2087594926
 21
-14.6701030892
 31
0.0
 11
-28.927674745
 21
-14.6465054661
 31
0.0
  0
SPLINE
  5
608
100
AcDbEntity
  8
0
100
AcDbSpline
 62
253
  6
CONTINUOUS
 70
0
 71
3
 72
16
 73
12
 74
10
 42
0.0000001
 43
0.0000001
 44
0.0000000001
 12
-0.99829375
 22
-0.1225750598
 32
0.0
 13
0.1207810058
 23
-0.9985123961
 33
0.0
 40
0.0
 40
0.0
 40
0.0
 40
0.0
 40
0.0298610309
 40
0.0557472196
 40
0.0898510597
 40
0.1321461108
 40
0.1824266693
 40
0.3052802048
 40
0.4542618538
 40
0.6239280984
 40
1.0
 40
1.0
 40
1.0
 40
1.0
 10
-38.0733694658
 20
17.2204584009
 30
0.0
 10
-38.0833061593
 20
17.2192383283
 30
0.0
 10
-38.0953634445
 20
17.199523314
 30
0.0
 10
-38.1038245305
 20
17.1720843232
 30
0.0
 10
-38.1107659107
 20
17.1379343681
 30
0.0
 10
-38.115987174
 20
17.0959472609
 30
0.0
 10
-38.1214879434
 20
17.0238290333
 30
0.0
 10
-38.1235610601
 20
16.915833924
 30
0.0
 10
-38.1199672234
 20
16.7678124685
 30
0.0
 10
-38.1065366485
 20
16.5352626104
 30
0.0
 10
-38.0885102467
 20
16.3530830678
 30
0.0
 10
-38.0733694658
 20
16.2279122492
 30
0.0
 11
-38.0733694658
 21
17.2204584009
 31
0.0
 11
-38.0942698712
 21
17.1988896469
 31
0.0
 11
-38.1027568639
 21
17.1742756486
 31
0.0
 11
-38.1098043686
 21
17.1407061129
 31
0.0
 11
-38.1153550053
 21
17.0985298207
 31
0.0
 11
-38.1193559911
 21
17.0481166171
 31
0.0
 11
-38.1225836057
 21
16.924593827
 31
0.0
 11
-38.1193559911
 21
16.7747842259
 31
0.0
 11
-38.1098043686
 21
16.6044030079
 31
0.0
 11
-38.0733694658
 21
16.2279122492
 31
0.0
  0
SPLINE
  5
609
100
AcDbEntity
  8
0
100
AcDbSpline
 62
7
  6
CONTINUOUS
 70
0
 71
3
 72
11
 73
7
 74
5
 42
0.0000001
 43
0.0000001
 44
0.0000000001
 12
0.0058229309
 22
-0.0098334854
 32
0.0
 13
-0.0097171145
 23
-0.0060151182
 33
0.0
 40
0.0
 40
0.0
 40
0.0
 40
0.0
 40
0.0674662407
 40
0.2574340875
 40
0.5695757615
 40
1.0
 40
1.0
 40
1.0
 40
1.0
 10
-20.5691726128
 20
15.7269526752
 30
0.0
 10
-20.5690416623
 20
15.7267315324
 30
0.0
 10
-20.5703042317
 20
15.72597775
 30
0.0
 10
-20.5715993305
 20
15.7248351384
 30
0.0
 10
-20.5748486305
 20
15.7228337325
 30
0.0
 10
-20.5771585277
 20
15.721354035
 30
0.0
 10
-20.5785526882
 20
15.7204910174
 30
0.0
 11
-20.5691726128
 21
15.7269526752
 31
0.0
 11
-20.5696569178
 21
15.7263527437
 31
0.0
 11
-20.5714085396
 21
15.725070157
 31
0.0
 11
-20.5743874584
 21
15.7231077343
 31
0.0
 11
-20.5785526882
 21
15.7204910174
 31
0.0
  0
SPLINE
  5
60A
100
AcDbEntity
  8
0
100
AcDbSpline
 62
253
  6
CONTINUOUS
 70
0
 71
3
 72
18
 73
14
 74
12
 42
0.0000001
 43
0.0000001
 44
0.0000000001
 12
0.1550888779
 22
-0.1922422357
 32
0.0
 13
-0.1741435111
 23
-0.175167562
 33
0.0
 40
0.0
 40
0.0
 40
0.0
 40
0.0
 40
0.0050673741
 40
0.0195605085
 40
0.0434097033
 40
0.0764551453
 40
0.1183517893
 40
0.1686878193
 40
0.2928396619
 40
0.44410048
 40
0.6168266547
 40
0.8046670188
 40
1.0
 40
1.0
 40
1.0
 40
1.0
 10
-21.0363073728
 20
16.3082453039
 30
0.0
 10
-21.0360454083
 20
16.3079205828
 30
0.0
 10
-21.0379818562
 20
16.3064445484
 30
0.0
 10
-21.0394287688
 20
16.3039293425
 30
0.0
 10
-21.0438856598
 20
16.2994779277
 30
0.0
 10
-21.0492154162
 20
16.2935748878
 30
0.0
 10
-21.0563893292
 20
16.2860670172
 30
0.0
 10
-21.0686640248
 20
16.2731987926
 30
0.0
 10
-21.0873343169
 20
16.253915722
 30
0.0
 10
-21.1130896544
 20
16.2275066502
 30
0.0
 10
-21.1426188755
 20
16.1974384246
 30
0.0
 10
-21.1747729405
 20
16.1648674158
 30
0.0
 10
-21.1969900401
 20
16.1424687959
 30
0.0
 10
-21.2083286971
 20
16.1310634619
 30
0.0
 11
-21.0363073728
 21
16.3082453039
 31
0.0
 11
-21.0369625222
 21
16.3071788136
 31
0.0
 11
-21.0392763387
 21
16.3044472599
 31
0.0
 11
-21.0432267179
 21
16.300077384
 31
0.0
 11
-21.0487861894
 21
16.2941011916
 31
0.0
 11
-21.0558958261
 21
16.2865815481
 31
0.0
 11
-21.0644852745
 21
16.277592529
 31
0.0
 11
-21.0857893389
 21
16.2555353336
 31
0.0
 11
-21.1118716749
 21
16.2287845918
 31
0.0
 11
-21.1417591105
 21
16.1983391828
 31
0.0
 11
-21.1743524798
 21
16.1653189395
 31
0.0
 11
-21.2083286971
 21
16.1310634619
 31
0.0
  0
SPLINE
  5
60B
100
AcDbEntity
  8
0
100
AcDbSpline
 62
253
  6
CONTINUOUS
 70
0
 71
3
 72
11
 73
7
 74
5
 42
0.0000001
 43
0.0000001
 44
0.0000000001
 12
1.5332740364
 22
-1.5304936079
 32
0.0
 13
0.0047680227
 23
-2.1664065225
 33
0.0
 40
0.0
 40
0.0
 40
0.0
 40
0.0
 40
0.2499907919
 40
0.4999884801
 40
0.749991757
 40
1.0
 40
1.0
 40
1.0
 40
1.0
 10
-21.2082225222
 20
16.1309532285
 30
0.0
 10
-21.080454392
 20
16.0034167922
 30
0.0
 10
-20.8486095775
 20
15.7230785326
 30
0.0
 10
-20.5912897386
 20
15.2426233865
 30
0.0
 10
-20.4324820844
 20
14.7212171476
 30
0.0
 10
-20.397519932
 20
14.359127225
 30
0.0
 10
-20.3971225837
 20
14.1785873956
 30
0.0
 11
-21.2082225222
 21
16.1309532285
 31
0.0
 11
-20.86368744
 21
15.7130923469
 31
0.0
 11
-20.6077108145
 21
15.2358038709
 31
0.0
 11
-20.4502104729
 21
14.7176001663
 31
0.0
 11
-20.3971225837
 21
14.1785873956
 31
0.0
  0
SPLINE
  5
60C
100
AcDbEntity
  8
0
100
AcDbSpline
 62
7
  6
CONTINUOUS
 70
0
 71
3
 72
15
 73
11
 74
9
 42
0.0000001
 43
0.0000001
 44
0.0000000001
 12
-0.8135700739
 22
-5.5360264755
 32
0.0
 13
-5.5954879165
 23
-0.0006159657
 33
0.0
 40
0.0
 40
0.0
 40
0.0
 40
0.0
 40
0.1250096492
 40
0.2500172255
 40
0.3750216228
 40
0.5000225793
 40
0.6250201906
 40
0.7500149747
 40
0.8750079147
 40
1.0
 40
1.0
 40
1.0
 40
1.0
 10
-21.5388995577
 20
-4.3904563477
 30
0.0
 10
-21.5728009276
 20
-4.6211419235
 30
0.0
 10
-21.6809366618
 20
-5.0777236637
 30
0.0
 10
-21.9628208526
 20
-5.7218160631
 30
0.0
 10
-22.3543042969
 20
-6.3059651519
 30
0.0
 10
-22.8432702141
 20
-6.8112800566
 30
0.0
 10
-23.4140977496
 20
-7.2218498281
 30
0.0
 10
-24.0487760063
 20
-7.5244900973
 30
0.0
 10
-24.7268457649
 20
-7.7100840228
 30
0.0
 10
-25.1942502794
 20
-7.7506437329
 30
0.0
 10
-25.4273808471
 20
-7.7506693966
 30
0.0
 11
-21.5388995577
 21
-4.3904563477
 31
0.0
 11
-21.7008851821
 21
-5.0709318412
 31
0.0
 11
-21.9810915829
 21
-5.7118330715
 31
0.0
 11
-22.3705573683
 21
-6.292833529
 31
0.0
 11
-22.8569207968
 21
-6.7954952555
 31
0.0
 11
-23.4247462073
 21
-7.2038655729
 31
0.0
 11
-24.0560127445
 21
-7.5049842248
 31
0.0
 11
-24.7306875233
 21
-7.6892920976
 31
0.0
 11
-25.4273808471
 21
-7.7506693966
 31
0.0
  0
SPLINE
  5
60D
100
AcDbEntity
  8
0
100
AcDbSpline
 62
7
  6
CONTINUOUS
 70
0
 71
3
 72
13
 73
9
 74
7
 42
0.0000001
 43
0.0000001
 44
0.0000000001
 12
-0.5443971185
 22
-0.7145709843
 32
0.0
 13
0.0
 23
-0.8983206077
 33
0.0
 40
0.0
 40
0.0
 40
0.0
 40
0.0
 40
0.291306631
 40
0.4316319354
 40
0.5658842221
 40
0.6924708275
 40
0.8089906261
 40
1.0
 40
1.0
 40
1.0
 40
1.0
 10
-36.8124347941
 20
-16.3827355592
 30
0.0
 10
-36.8652969576
 20
-16.4521219812
 30
0.0
 10
-36.9421146498
 20
-16.5560638127
 30
0.0
 10
-37.0410512828
 20
-16.6936808939
 30
0.0
 10
-37.1057796792
 20
-16.7949200522
 30
0.0
 10
-37.1608706675
 20
-16.8938058236
 30
0.0
 10
-37.2211508904
 20
-17.0082140543
 30
0.0
 10
-37.2514975686
 20
-17.0990411672
 30
0.0
 10
-37.2514975686
 20
-17.1562370528
 30
0.0
 11
-36.8124347941
 21
-16.3827355592
 31
0.0
 11
-36.9683685259
 21
-16.5928893751
 31
0.0
 11
-37.0411460572
 21
-16.6958156915
 31
0.0
 11
-37.1059551653
 21
-16.7975237266
 31
0.0
 11
-37.161870128
 21
-16.8965424077
 31
0.0
 11
-37.2090336486
 21
-16.9899868213
 31
0.0
 11
-37.2514975686
 21
-17.1562370528
 31
0.0
  0
SPLINE
  5
60E
100
AcDbEntity
  8
0
100
AcDbSpline
 62
253
  6
CONTINUOUS
 70
0
 71
3
 72
13
 73
9
 74
7
 42
0.0000001
 43
0.0000001
 44
0.0000000001
 12
-0.0073645016
 22
-2.3085477388
 32
0.0
 13
-2.3075317653
 23
-0.0688770668
 33
0.0
 40
0.0
 40
0.0
 40
0.0
 40
0.0
 40
0.1266071389
 40
0.2514214353
 40
0.5000170045
 40
0.7486128706
 40
0.8734158524
 40
1.0
 40
1.0
 40
1.0
 40
1.0
 10
-30.6340438421
 20
-14.9158296882
 30
0.0
 10
-30.6343546416
 20
-15.0132558963
 30
0.0
 10
-30.6531057183
 20
-15.2072820435
 30
0.0
 10
-30.7636621023
 20
-15.5778421606
 30
0.0
 10
-31.0323533205
 20
-15.9893096973
 30
0.0
 10
-31.4365225179
 20
-16.2688431385
 30
0.0
 10
-31.8039853311
 20
-16.3892098755
 30
0.0
 10
-31.9974166769
 20
-16.413115219
 30
0.0
 10
-32.0947823241
 20
-16.4160214673
 30
0.0
 11
-30.6340438421
 21
-14.9158296882
 31
0.0
 11
-30.6625811259
 21
-15.2067133195
 31
0.0
 11
-30.7450908901
 21
-15.4827885014
 31
0.0
 11
-31.0594277281
 21
-15.9629456378
 31
0.0
 11
-31.5310562943
 21
-16.2899407535
 31
0.0
 11
-31.8048141958
 21
-16.3797568238
 31
0.0
 11
-32.0947823241
 21
-16.4160214673
 31
0.0
  0
SPLINE
  5
60F
100
AcDbEntity
  8
0
100
AcDbSpline
 62
253
  6
CONTINUOUS
 70
0
 71
3
 72
9
 73
5
 74
3
 42
0.0000001
 43
0.0000001
 44
0.0000000001
 12
0.0169973466
 22
-0.3545107045
 32
0.0
 13
0.059451065
 23
-0.3499033013
 33
0.0
 40
0.0
 40
0.0
 40
0.0
 40
0.0
 40
0.5397611339
 40
1.0
 40
1.0
 40
1.0
 40
1.0
 10
-36.8124347941
 20
-18.1138626349
 30
0.0
 10
-36.8093766251
 20
-18.1776463349
 30
0.0
 10
-36.8010086076
 20
-18.2956887785
 30
0.0
 10
-36.7867886641
 20
-18.4132517933
 30
0.0
 10
-36.7776681005
 20
-18.4669314929
 30
0.0
 11
-36.8124347941
 21
-18.1138626349
 31
0.0
 11
-36.7986382516
 21
-18.3049361035
 31
0.0
 11
-36.7776681005
 21
-18.4669314929
 31
0.0
  0
ELLIPSE
  5
610
100
AcDbEntity
  8
ASSI
100
AcDbEllipse
 62
7
  6
CONTINUOUS
 10
10.6307913713
 20
22.2115607751
 30
0.0
 11
0.1118178731
 21
0.2236527791
 31
0.0
 40
0.9998096356
 41
-1.1071030276
 42
0.4635410001
  0
ELLIPSE
  5
611
100
AcDbEntity
  8
ASSI
100
AcDbEllipse
 62
7
  6
CONTINUOUS
 10
-10.6307913713
 20
22.2115607751
 30
0.0
 11
-0.1118178731
 21
0.2236527791
 31
0.0
 40
0.9998096356
 41
-0.4635410001
 42
1.1071030276
  0
ELLIPSE
  5
612
100
AcDbEntity
  8
ASSI
100
AcDbEllipse
 62
7
  6
CONTINUOUS
 10
-10.6307913713
 20
-22.2115607751
 30
0.0
 11
0.1118178731
 21
0.2236527791
 31
0.0
 40
0.9998096356
 41
-4.2486956813
 42
-2.6780516535
  0
ELLIPSE
  5
613
100
AcDbEntity
  8
ASSI
100
AcDbEllipse
 62
7
  6
CONTINUOUS
 10
10.6307913713
 20
-22.2115607751
 30
0.0
 11
-0.1118178731
 21
0.2236527791
 31
0.0
 40
0.9998096356
 41
-3.6051336537
 42
-2.0344896259
  0
ELLIPSE
  5
614
100
AcDbEntity
  8
ASSI
100
AcDbEllipse
 62
7
  6
CONTINUOUS
 10
6.203491013
 20
22.8030153487
 30
0.0
 11
-0.0
 21
0.2
 31
0.0
 40
0.0174550649
 41
1.5707963268
 42
3.1241393611
  0
ELLIPSE
  5
615
100
AcDbEntity
  8
ASSI
100
AcDbEllipse
 62
7
  6
CONTINUOUS
 10
-6.203491013
 20
22.8030153487
 30
0.0
 11
0.0
 21
0.2
 31
0.0
 40
0.0174550649
 41
-3.1241393611
 42
-1.5707963268
  0
ELLIPSE
  5
616
100
AcDbEntity
  8
ASSI
100
AcDbEllipse
 62
7
  6
CONTINUOUS
 10
6.450038082
 20
-23.0
 30
0.0
 11
0.250038082
 21
-0.0
 31
0.0
 40
0.9998476952
 41
-3.1415926536
 42
-1.5707963268
  0
ELLIPSE
  5
617
100
AcDbEntity
  8
ASSI
100
AcDbEllipse
 62
7
  6
CONTINUOUS
 10
6.203491013
 20
-22.8030153487
 30
0.0
 11
-0.0
 21
0.2
 31
0.0
 40
0.0174550649
 41
0.0174532925
 42
1.5707963268
  0
ELLIPSE
  5
618
100
AcDbEntity
  8
ASSI
100
AcDbEllipse
 62
7
  6
CONTINUOUS
 10
-6.203491013
 20
-22.8030153487
 30
0.0
 11
0.0
 21
0.2
 31
0.0
 40
0.0174550649
 41
-1.5707963268
 42
-0.0174532925
  0
ELLIPSE
  5
619
100
AcDbEntity
  8
ASSI
100
AcDbEllipse
 62
7
  6
CONTINUOUS
 10
-6.450038082
 20
-23.0
 30
0.0
 11
0.250038082
 21
-0.0
 31
0.0
 40
0.9998476952
 41
-1.5707963268
 42
0.0
  0
ELLIPSE
  5
61A
100
AcDbEntity
  8
ASSI
100
AcDbEllipse
 62
7
  6
CONTINUOUS
 10
-6.450038082
 20
23.0
 30
0.0
 11
0.250038082
 21
0.0
 31
0.0
 40
0.9998476952
 41
-0.0
 42
1.5707963268
  0
ELLIPSE
  5
61B
100
AcDbEntity
  8
ASSI
100
AcDbEllipse
 62
7
  6
CONTINUOUS
 10
6.450038082
 20
23.0
 30
0.0
 11
0.250038082
 21
0.0
 31
0.0
 40
0.9998476952
 41
1.5707963268
 42
3.1415926536
  0
ELLIPSE
  5
61C
100
AcDbEntity
  8
ASSI
100
AcDbEllipse
 62
7
  6
CONTINUOUS
 10
7.1941337645
 20
22.4624716104
 30
0.0
 11
0.85
 21
0.0
 31
0.0
 40
0.0174550649
 41
-3.1241393611
 42
-1.595894198
  0
ELLIPSE
  5
61D
100
AcDbEntity
  8
ASSI
100
AcDbEllipse
 62
7
  6
CONTINUOUS
 10
7.1514718626
 20
22.4624716104
 30
0.0
 11
0.85
 21
0.0
 31
0.0
 40
0.0174550649
 41
-1.5456984556
 42
-0.0588575059
  0
ELLIPSE
  5
61E
100
AcDbEntity
  8
ASSI
100
AcDbEllipse
 62
7
  6
CONTINUOUS
 10
-7.1514718626
 20
22.4624716104
 30
0.0
 11
0.85
 21
-0.0
 31
0.0
 40
0.0174550649
 41
-3.0827351476
 42
-1.595894198
  0
ELLIPSE
  5
61F
100
AcDbEntity
  8
ASSI
100
AcDbEllipse
 62
7
  6
CONTINUOUS
 10
-7.1941337645
 20
22.4624716104
 30
0.0
 11
0.85
 21
-0.0
 31
0.0
 40
0.0174550649
 41
-1.5456984556
 42
-0.0174532925
  0
ELLIPSE
  5
620
100
AcDbEntity
  8
ASSI
100
AcDbEllipse
 62
7
  6
CONTINUOUS
 10
7.1941337645
 20
-22.4624716104
 30
0.0
 11
0.85
 21
-0.0
 31
0.0
 40
0.0174550649
 41
1.595894198
 42
3.1241393611
  0
ELLIPSE
  5
621
100
AcDbEntity
  8
ASSI
100
AcDbEllipse
 62
7
  6
CONTINUOUS
 10
7.1514718626
 20
-22.4624716104
 30
0.0
 11
0.85
 21
0.0
 31
0.0
 40
0.0174550649
 41
0.0588575059
 42
1.5456984556
  0
ELLIPSE
  5
622
100
AcDbEntity
  8
ASSI
100
AcDbEllipse
 62
7
  6
CONTINUOUS
 10
-7.1514718626
 20
-22.4624716104
 30
0.0
 11
0.85
 21
-0.0
 31
0.0
 40
0.0174550649
 41
1.595894198
 42
3.0827351476
  0
ELLIPSE
  5
623
100
AcDbEntity
  8
ASSI
100
AcDbEllipse
 62
7
  6
CONTINUOUS
 10
-7.1941337645
 20
-22.4624716104
 30
0.0
 11
0.85
 21
-0.0
 31
0.0
 40
0.0174550649
 41
0.0174532925
 42
1.5456984556
  0
ELLIPSE
  5
624
100
AcDbEntity
  8
ASSI
100
AcDbEllipse
 62
7
  6
CONTINUOUS
 10
10.5889024059
 20
-18.046143347
 30
0.0
 11
-0.012549111
 21
0.2535556743
 31
0.0
 40
0.9847713852
 41
-3.1902929399
 42
-1.6210119607
  0
ELLIPSE
  5
625
100
AcDbEntity
  8
ASSI
100
AcDbEllipse
 62
7
  6
CONTINUOUS
 10
10.5889024059
 20
18.046143347
 30
0.0
 11
0.012549111
 21
0.2535556743
 31
0.0
 40
0.9847713852
 41
-1.5205806929
 42
0.0487002863
  0
ELLIPSE
  5
626
100
AcDbEntity
  8
ASSI
100
AcDbEllipse
 62
7
  6
CONTINUOUS
 10
-10.5889024059
 20
18.046143347
 30
0.0
 11
-0.012549111
 21
0.2535556743
 31
0.0
 40
0.9847713852
 41
-0.0487002863
 42
1.5205806929
  0
ELLIPSE
  5
627
100
AcDbEntity
  8
ASSI
100
AcDbEllipse
 62
7
  6
CONTINUOUS
 10
-10.5889024059
 20
-18.046143347
 30
0.0
 11
0.012549111
 21
0.2535556743
 31
0.0
 40
0.9847713852
 41
-4.6621733465
 42
-3.0928923672
  0
ELLIPSE
  5
628
100
AcDbEntity
  8
CURVE
100
AcDbEllipse
 62
253
  6
CONTINUOUS
 10
10.8474846698
 20
15.607566
 30
0.0
 11
-0.0
 21
0.381803
 31
0.0
 40
0.0087262032
 41
-4.7123889804
 42
-3.3956286442
  0
ELLIPSE
  5
629
100
AcDbEntity
  8
CURVE
100
AcDbEllipse
 62
253
  6
CONTINUOUS
 10
10.8856011001
 20
-13.639757
 30
0.0
 11
-0.0
 21
0.65
 31
0.0
 40
0.0087262032
 41
-1.5707963268
 42
1.5707963268
  0
ELLIPSE
  5
62A
100
AcDbEntity
  8
CURVE
100
AcDbEllipse
 62
253
  6
CONTINUOUS
 10
-42.4014506233
 20
-13.639757
 30
0.0
 11
-0.0
 21
0.65
 31
0.0
 40
0.9999238476
 41
-1.5707963268
 42
1.5707963268
  0
ELLIPSE
  5
62B
100
AcDbEntity
  8
CURVE
100
AcDbEllipse
 62
253
  6
CONTINUOUS
 10
-46.7691609243
 20
15.607566
 30
0.0
 11
0.0
 21
0.381803
 31
0.0
 40
0.9999238476
 41
-4.7123889804
 42
-3.3956286442
  0
ENDSEC
  0
SECTION
  2
OBJECTS
  0
DICTIONARY
  5
C
100
AcDbDictionary
280
0
281
1
  3
ACAD_GROUP
350
D
  3
ACAD_MLINESTYLE
350
17
  3
ACAD_LAYOUT
350
1A
  3
ACAD_PLOTSETTINGS
350
19
  3
ACAD_PLOTSTYLENAME
350
E
  0
DICTIONARY
  5
D
102
{ACAD_REACTORS
330
C
102
}
100
AcDbDictionary
280
0
281
1
  0
ACDBDICTIONARYWDFLT
  5
E
102
{ACAD_REACTORS
330
C
102
}
100
AcDbDictionary
281
1
  3
Normal
350
F
100
AcDbDictionaryWithDefault
340
F
  0
DICTIONARY
  5
17
102
{ACAD_REACTORS
330
C
102
}
100
AcDbDictionary
280
0
281
1
  3
Standard
350
18
  0
DICTIONARY
  5
19
102
{ACAD_REACTORS
330
C
102
}
100
AcDbDictionary
281
1
  0
DICTIONARY
  5
1A
102
{ACAD_REACTORS
330
C
102
}
100
AcDbDictionary
281
1
  3
Model
350
62C
  3
Layout1
350
62D
  0
ACDBPLACEHOLDER
  5
F
102
{ACAD_REACTORS
330
E
102
}
  0
MLINESTYLE
  5
18
102
{ACAD_REACTORS
330
17
102
}
100
AcDbMlineStyle
  2
STANDARD
 70
0
  3

 62
256
 51
90.0
 52
90.0
 71
2
 49
0.5
 62
256
  6
BYLAYER
 49
-0.5
 62
256
  6
BYLAYER
  0
LAYOUT
  5
62C
102
{ACAD_REACTORS
330
1A
102
}
100
AcDbPlotSettings
  1

  2
none_device
  4
ANSI_C_(22.00_x_17.00_Inches)
  6

 40
0.0
 41
0.0
 42
0.0
 43
0.0
 44
558.8
 45
431.8
 46
0.0
 47
0.0
 48
0.0
 49
0.0
140
0.0
141
0.0
142
1.0
143
1.0
 70
1024
 72
1
 73
0
 74
0
  7

 75
0
147
1.0
148
0.0
149
0.0
100
AcDbLayout
  1
Model
 70
0
 71
0
 10
0.0
 20
0.0
 11
558.8
 21
431.8
 12
0.0
 22
0.0
 32
0.0
 14
0.0
 24
0.0
 34
0.0
 15
0.0
 25
0.0
 35
0.0
146
0.0
 13
0.0
 23
0.0
 33
0.0
 16
1.0
 26
0.0
 36
0.0
 17
0.0
 27
1.0
 37
0.0
 76
0
330
20F
345
0
346
0
  0
LAYOUT
  5
62D
102
{ACAD_REACTORS
330
1A
102
}
100
AcDbPlotSettings
  1

  2
none_device
  4
ANSI_C_(22.00_x_17.00_Inches)
  6

 40
0.0
 41
0.0
 42
0.0
 43
0.0
 44
558.8
 45
431.8
 46
0.0
 47
0.0
 48
0.0
 49
0.0
140
0.0
141
0.0
142
1.0
143
1.0
 70
0
 72
1
 73
0
 74
0
  7

 75
0
147
1.0
148
0.0
149
0.0
100
AcDbLayout
  1
Layout1
 70
0
 71
1
 10
0.0
 20
0.0
 11
558.8
 21
431.8
 12
0.0
 22
0.0
 32
0.0
 14
0.0
 24
0.0
 34
0.0
 15
0.0
 25
0.0
 35
0.0
146
0.0
 13
0.0
 23
0.0
 33
0.0
 16
1.0
 26
0.0
 36
0.0
 17
0.0
 27
1.0
 37
0.0
 76
0
330
210
345
0
346
0
  0
ENDSEC
  0
EOF
