  0
SECTION
  2
HEADER
  9
$ACADVER
  1
AC1024
  9
$DWGCODEPAGE
  3
ANSI_1252
  9
$EXTMAX
 10
297.0
 20
210.0
 30
0.0
  9
$EXTMIN
 10
0.0
 20
0.0
 30
0.0
  9
$LIMMIN
 10
0.0
 20
0.0
  9
$LIMMAX
 10
297.0
 20
210.0
  9
$VIEWCTR
 10
148.5
 20
105.0
  9
$VIEWSIZE
 40
210.0
  9
$CLAYER
  8
0
  9
$LTSCALE
 40
16.335
  9
$CELTYPE
  6
BYLAYER
  9
$DIMSCALE
 40
1.0
  9
$DIMASZ
 40
3.0
  9
$DIMEXO
 40
0.5
  9
$DIMDLI
 40
11.286
  9
$DIMEXE
 40
1.5
  9
$DIMCEN
 40
2.673
  9
$DIMLFAC
 40
1.0
  9
$DIMBLK
  1
_FILLED
  9
$DIMALT
 70
0
  9
$DIMALTF
 40
0.0393700787
  9
$DIMTXT
 40
3.0
  9
$DIMTOL
 70
1
  9
$DIMLIM
 70
0
  9
$DIMTFAC
 40
1.0
  9
$DIMTP
 40
0.01
  9
$DIMTM
 40
0.01
  9
$DIMGAP
 40
0.625
  9
$DIMDSEP
 70
44
  9
$AUNITS
 70
0
  9
$PDMODE
 70
3
  9
$PDSIZE
 40
3.0
  9
$HANDSEED
  5
449
  9
$TILEMODE
 70
1
  9
$MEASUREMENT
 70
1
  9
$INSUNITS
 70
4
  0
ENDSEC
  0
SECTION
  2
CLASSES
  0
CLASS
  1
ACDBDICTIONARYWDFLT
  2
AcDbDictionaryWithDefault
  3
AutoCAD 2000
 90
0
 91
1
280
0
281
0
  0
CLASS
  1
ACDBPLACEHOLDER
  2
AcDbPlaceHolder
  3
AutoCAD 2000
 90
0
 91
1
280
0
281
0
  0
CLASS
  1
LAYOUT
  2
AcDbLayout
  3
AutoCAD 2000
 90
0
 91
0
280
0
281
0
  0
ENDSEC
  0
SECTION
  2
TABLES
  0
TABLE
  2
VPORT
  5
8
100
AcDbSymbolTable
 70
2
  0
VPORT
  5
1F4
100
AcDbSymbolTableRecord
100
AcDbViewportTableRecord
  2
*ACTIVE
 70
0
 10
0.0
 20
0.0
 11
1.0
 21
1.0
 12
148.5
 22
105.0
 13
0.0
 23
0.0
 14
1.0
 24
1.0
 15
0.0
 25
0.0
 16
0.0
 26
0.0
 36
1.0
 17
0.0
 27
0.0
 37
0.0
 40
210.0
 41
1.4142857143
 42
50.0
 43
0.0
 44
0.0
 50
0.0
 51
0.0
 71
0
 72
100
 73
1
 74
1
 75
0
 76
0
 77
0
 78
0
  0
ENDTAB
  0
TABLE
  2
LTYPE
  5
5
100
AcDbSymbolTable
 70
6
  0
LTYPE
  5
14
100
AcDbSymbolTableRecord
100
AcDbLinetypeTableRecord
  2
BYBLOCK
 70
0
  3

 72
65
 73
0
 40
0.0
  0
LTYPE
  5
15
100
AcDbSymbolTableRecord
100
AcDbLinetypeTableRecord
  2
BYLAYER
 70
0
  3

 72
65
 73
0
 40
0.0
  0
LTYPE
  5
16
100
AcDbSymbolTableRecord
100
AcDbLinetypeTableRecord
  2
CONTINUOUS
 70
64
  3
Solid line
 72
65
 73
0
 40
0.0
  0
LTYPE
  5
1F5
100
AcDbSymbolTableRecord
100
AcDbLinetypeTableRecord
  2
CENTER
 70
64
  3
____ _ ____ _ ____ _ ____ _ ____ _ ____ _ ____
 72
65
 73
4
 40
0.6
 49
0.375
 74
0
 49
-0.075
 74
0
 49
0.075
 74
0
 49
-0.075
 74
0
  0
LTYPE
  5
1F6
100
AcDbSymbolTableRecord
100
AcDbLinetypeTableRecord
  2
HIDDEN
 70
64
  3
- - - - - - - - - - - - - - - - - - - -
 72
65
 73
2
 40
0.2
 49
0.1
 74
0
 49
-0.1
 74
0
  0
LTYPE
  5
1F7
100
AcDbSymbolTableRecord
100
AcDbLinetypeTableRecord
  2
PHANTOM
 70
64
  3
_____ _ _ _____ _ _ _____ _ _ _____
 72
65
 73
6
 40
0.8
 49
0.45
 74
0
 49
-0.05
 74
0
 49
0.1
 74
0
 49
-0.05
 74
0
 49
0.1
 74
0
 49
-0.05
 74
0
  0
LTYPE
  5
1F8
100
AcDbSymbolTableRecord
100
AcDbLinetypeTableRecord
  2
DOT
 70
64
  3
. . . . . . . . . . . . . . . . . . . .
 72
65
 73
2
 40
0.2
 49
0.1
 74
0
 49
-0.1
 74
0
  0
LTYPE
  5
1F9
100
AcDbSymbolTableRecord
100
AcDbLinetypeTableRecord
  2
DASHED
 70
64
  3
- - - - - - - - - - - - - - - - - - - -
 72
65
 73
2
 40
0.2
 49
0.1
 74
0
 49
-0.1
 74
0
  0
ENDTAB
  0
TABLE
  2
LAYER
  5
2
100
AcDbSymbolTable
 70
36
  0
LAYER
  5
10
100
AcDbSymbolTableRecord
100
AcDbLayerTableRecord
  2
0
 70
0
 62
7
  6
CONTINUOUS
370
-3
390
F
  0
LAYER
  5
1FA
100
AcDbSymbolTableRecord
100
AcDbLayerTableRecord
  2
DEFAULT_1
 70
0
 62
7
  6
CENTER
370
-3
390
F
  0
LAYER
  5
1FB
100
AcDbSymbolTableRecord
100
AcDbLayerTableRecord
  2
DEFAULT_2
 70
0
 62
7
  6
HIDDEN
370
-3
390
F
  0
LAYER
  5
1FC
100
AcDbSymbolTableRecord
100
AcDbLayerTableRecord
  2
DEFAULT_3
 70
0
 62
7
  6
PHANTOM
370
-3
390
F
  0
LAYER
  5
1FD
100
AcDbSymbolTableRecord
100
AcDbLayerTableRecord
  2
ASSI
 70
0
 62
7
  6
CONTINUOUS
370
-3
390
F
  0
LAYER
  5
1FE
100
AcDbSymbolTableRecord
100
AcDbLayerTableRecord
  2
COLOR5
 70
0
 62
7
  6
CONTINUOUS
370
-3
390
F
  0
LAYER
  5
1FF
100
AcDbSymbolTableRecord
100
AcDbLayerTableRecord
  2
COORDINATE
 70
0
 62
7
  6
CONTINUOUS
370
-3
390
F
  0
LAYER
  5
200
100
AcDbSymbolTableRecord
100
AcDbLayerTableRecord
  2
COORD_ORIGINE
 70
0
 62
7
  6
CONTINUOUS
370
-3
390
F
  0
LAYER
  5
201
100
AcDbSymbolTableRecord
100
AcDbLayerTableRecord
  2
COPY_PUBLISH
 70
0
 62
7
  6
CONTINUOUS
370
-3
390
F
  0
LAYER
  5
202
100
AcDbSymbolTableRecord
100
AcDbLayerTableRecord
  2
COSMETIC
 70
0
 62
7
  6
CONTINUOUS
370
-3
390
F
  0
LAYER
  5
203
100
AcDbSymbolTableRecord
100
AcDbLayerTableRecord
  2
COSMETICI
 70
0
 62
7
  6
CONTINUOUS
370
-3
390
F
  0
LAYER
  5
204
100
AcDbSymbolTableRecord
100
AcDbLayerTableRecord
  2
CURVE
 70
0
 62
7
  6
CONTINUOUS
370
-3
390
F
  0
LAYER
  5
205
100
AcDbSymbolTableRecord
100
AcDbLayerTableRecord
  2
DRAFT
 70
0
 62
7
  6
CONTINUOUS
370
-3
390
F
  0
LAYER
  5
206
100
AcDbSymbolTableRecord
100
AcDbLayerTableRecord
  2
IMPORT_IGES
 70
0
 62
7
  6
CONTINUOUS
370
-3
390
F
  0
LAYER
  5
207
100
AcDbSymbolTableRecord
100
AcDbLayerTableRecord
  2
INCISIONI
 70
0
 62
7
  6
CONTINUOUS
370
-3
390
F
  0
LAYER
  5
208
100
AcDbSymbolTableRecord
100
AcDbLayerTableRecord
  2
INTF_YELLOW
 70
0
 62
7
  6
CONTINUOUS
370
-3
390
F
  0
LAYER
  5
209
100
AcDbSymbolTableRecord
100
AcDbLayerTableRecord
  2
NOTE
 70
0
 62
7
  6
CONTINUOUS
370
-3
390
F
  0
LAYER
  5
20A
100
AcDbSymbolTableRecord
100
AcDbLayerTableRecord
  2
PIANI
 70
0
 62
7
  6
CONTINUOUS
370
-3
390
F
  0
LAYER
  5
20B
100
AcDbSymbolTableRecord
100
AcDbLayerTableRecord
  2
PIANI_ORIGINE
 70
0
 62
7
  6
CONTINUOUS
370
-3
390
F
  0
LAYER
  5
20C
100
AcDbSymbolTableRecord
100
AcDbLayerTableRecord
  2
PUNTI
 70
0
 62
7
  6
CONTINUOUS
370
-3
390
F
  0
LAYER
  5
20D
100
AcDbSymbolTableRecord
100
AcDbLayerTableRecord
  2
RACCORDO
 70
0
 62
7
  6
CONTINUOUS
370
-3
390
F
  0
LAYER
  5
20E
100
AcDbSymbolTableRecord
100
AcDbLayerTableRecord
  2
SIMBOLI
 70
0
 62
7
  6
CONTINUOUS
370
-3
390
F
  0
LAYER
  5
20F
100
AcDbSymbolTableRecord
100
AcDbLayerTableRecord
  2
SNAPLINE
 70
0
 62
7
  6
CONTINUOUS
370
-3
390
F
  0
LAYER
  5
210
100
AcDbSymbolTableRecord
100
AcDbLayerTableRecord
  2
SUPERFICI
 70
0
 62
7
  6
CONTINUOUS
370
-3
390
F
  0
LAYER
  5
211
100
AcDbSymbolTableRecord
100
AcDbLayerTableRecord
  2
TRASH
 70
0
 62
7
  6
CONTINUOUS
370
-3
390
F
  0
LAYER
  5
212
100
AcDbSymbolTableRecord
100
AcDbLayerTableRecord
  2
XSEC_DATUMS
 70
0
 62
7
  6
CONTINUOUS
370
-3
390
F
  0
ENDTAB
  0
TABLE
  2
STYLE
  5
3
100
AcDbSymbolTable
 70
1
  0
STYLE
  5
11
100
AcDbSymbolTableRecord
100
AcDbTextStyleTableRecord
  2
STANDARD
 70
0
 40
0.0
 41
0.8
 50
0.0
 71
0
 42
0.2
  3
txt
  4

  0
STYLE
  5
213
100
AcDbSymbolTableRecord
100
AcDbTextStyleTableRecord
  2
TEXTSTYLE_1
 70
0
 40
0.0
 41
0.8
 50
0.0
 71
0
 42
0.2
  3
gdt
  4

  0
ENDTAB
  0
TABLE
  2
VIEW
  5
6
100
AcDbSymbolTable
 70
0
  0
ENDTAB
  0
TABLE
  2
UCS
  5
7
100
AcDbSymbolTable
 70
0
  0
ENDTAB
  0
TABLE
  2
APPID
  5
9
100
AcDbSymbolTable
 70
1
  0
APPID
  5
214
100
AcDbSymbolTableRecord
100
AcDbRegAppTableRecord
  2
ACAD
 70
0
  0
ENDTAB
  0
TABLE
  2
BLOCK_RECORD
  5
1
100
AcDbSymbolTable
 70
0
  0
BLOCK_RECORD
  5
215
100
AcDbSymbolTableRecord
100
AcDbBlockTableRecord
  2
*Model_Space
  0
BLOCK_RECORD
  5
216
100
AcDbSymbolTableRecord
100
AcDbBlockTableRecord
  2
*Paper_Space
  0
BLOCK_RECORD
  5
217
100
AcDbSymbolTableRecord
100
AcDbBlockTableRecord
  2
_FILLED
  0
BLOCK_RECORD
  5
218
100
AcDbSymbolTableRecord
100
AcDbBlockTableRecord
  2
*D0
  0
BLOCK_RECORD
  5
219
100
AcDbSymbolTableRecord
100
AcDbBlockTableRecord
  2
*D1
  0
BLOCK_RECORD
  5
21A
100
AcDbSymbolTableRecord
100
AcDbBlockTableRecord
  2
*D2
  0
ENDTAB
  0
TABLE
  2
DIMSTYLE
  5
A
100
AcDbSymbolTable
 70
1
100
AcDbDimStyleTable
 71
0
  0
DIMSTYLE
105
21B
100
AcDbSymbolTableRecord
100
AcDbDimStyleTableRecord
  2
STANDARD
 70
0
  3

  4

 40
1.0
 41
3.0
 42
0.5
 43
0.38
 44
1.5
 45
0.0
 46
0.0
 47
0.01
 48
0.01
140
3.0
141
0.09
142
0.0
143
25.4
144
1.0
145
0.0
146
1.0
147
0.625
 71
1
 72
0
 73
0
 74
0
 75
0
 76
0
 77
1
 78
8
 79
2
170
0
171
1
172
0
173
0
174
0
175
0
176
0
177
0
178
0
270
2
179
2
271
2
272
2
273
2
274
2
275
0
280
0
281
0
282
0
283
1
284
8
285
0
286
0
287
3
288
0
340
11
278
44
341
217
342
217
343
217
344
217
  0
DIMSTYLE
105
21C
100
AcDbSymbolTableRecord
100
AcDbDimStyleTableRecord
  2
DIMSTYLE_1
 70
0
  3

  4

 40
1.0
 41
3.0
 42
0.5
 43
0.38
 44
1.5
 45
0.0
 46
0.0
 47
0.0
 48
0.0
140
3.0
141
0.09
142
0.0
143
25.4
144
1.0
145
0.0
146
1.0
147
0.75
 71
0
 72
0
 73
0
 74
0
 75
0
 76
0
 77
1
 78
8
 79
2
170
0
171
1
172
0
173
0
174
0
175
0
176
0
177
0
178
0
270
2
179
2
271
1
272
1
273
2
274
2
275
0
280
0
281
0
282
0
283
1
284
8
285
0
286
0
287
3
288
0
340
11
278
44
341
217
342
217
343
217
344
217
  0
DIMSTYLE
105
21D
100
AcDbSymbolTableRecord
100
AcDbDimStyleTableRecord
  2
DIMSTYLE_2
 70
0
  3

  4

 40
1.0
 41
3.0
 42
0.5
 43
0.38
 44
1.5
 45
0.0
 46
0.0
 47
0.0
 48
0.0
140
3.0
141
0.09
142
0.0
143
25.4
144
1.0
145
0.0
146
1.0
147
0.75
 71
0
 72
0
 73
0
 74
0
 75
0
 76
0
 77
1
 78
8
 79
2
170
0
171
1
172
0
173
0
174
0
175
0
176
0
177
0
178
0
270
2
179
2
271
2
272
2
273
2
274
2
275
0
280
0
281
0
282
0
283
1
284
8
285
0
286
0
287
3
288
0
340
11
278
44
341
217
342
217
343
217
344
217
  0
ENDTAB
  0
ENDSEC
  0
SECTION
  2
BLOCKS
  0
BLOCK
  5
20
100
AcDbEntity
  8
0
100
AcDbBlockBegin
  2
*Model_Space
 70
0
 10
0.0
 20
0.0
 30
0.0
  3
*Model_Space
  1

  0
ENDBLK
  5
21
100
AcDbEntity
  8
0
100
AcDbBlockEnd
  0
BLOCK
  5
1C
100
AcDbEntity
  8
0
100
AcDbBlockBegin
  2
*Paper_Space
 70
0
 10
0.0
 20
0.0
 30
0.0
  3
*Paper_Space
  1

  0
ENDBLK
  5
1D
100
AcDbEntity
  8
0
100
AcDbBlockEnd
  0
BLOCK
  5
21E
100
AcDbEntity
  8
0
100
AcDbBlockBegin
  2
_FILLED
 70
64
 10
0.0
 20
0.0
  3
_FILLED
  1

  0
SOLID
  5
21F
100
AcDbEntity
  8
0
  6
BYBLOCK
 62
0
100
AcDbTrace
 10
0.0
 20
0.0
 11
-1.0
 21
0.3166666667
 12
-1.0
 22
-0.3166666667
 13
-1.0
 23
-0.3166666667
  0
ENDBLK
  5
220
100
AcDbEntity
  8
0
  6
BYBLOCK
 62
0
100
AcDbBlockEnd
  0
BLOCK
  5
221
100
AcDbEntity
  8
0
100
AcDbBlockBegin
 62
7
  6
CONTINUOUS
  2
*D0
 70
65
 10
0.0
 20
0.0
  3
*D0
  1

  0
LINE
  5
222
100
AcDbEntity
  8
0
100
AcDbLine
 62
7
  6
CONTINUOUS
 10
-20.4651728141
 20
64.3749158746
 11
-20.4651728141
 21
88.343929097
  0
LINE
  5
223
100
AcDbEntity
  8
0
100
AcDbLine
 62
7
  6
CONTINUOUS
 10
20.4651728142
 20
64.3749158815
 11
20.4651728142
 21
88.343929097
  0
LINE
  5
224
100
AcDbEntity
  8
0
100
AcDbLine
 62
7
  6
CONTINUOUS
 10
-20.4651728141
 20
86.843929097
 11
0.0
 21
86.843929097
  0
LINE
  5
225
100
AcDbEntity
  8
0
100
AcDbLine
 62
7
  6
CONTINUOUS
 10
20.4651728142
 20
86.843929097
 11
0.0
 21
86.843929097
  0
INSERT
  5
226
100
AcDbEntity
  8
0
100
AcDbBlockReference
 62
7
  6
CONTINUOUS
  2
_FILLED
 10
-20.4651728141
 20
86.843929097
 41
3.0
 42
3.0
 43
3.0
 50
180.0
  0
INSERT
  5
227
100
AcDbEntity
  8
0
100
AcDbBlockReference
 62
7
  6
CONTINUOUS
  2
_FILLED
 10
20.4651728142
 20
86.843929097
 41
3.0
 42
3.0
 43
3.0
 50
360.0
  0
ENDBLK
  5
228
100
AcDbEntity
  8
0
  6
BYBLOCK
 62
0
100
AcDbBlockEnd
  0
BLOCK
  5
229
100
AcDbEntity
  8
0
100
AcDbBlockBegin
 62
7
  6
CONTINUOUS
  2
*D1
 70
65
 10
0.0
 20
0.0
  3
*D1
  1

  0
LINE
  5
22A
100
AcDbEntity
  8
0
100
AcDbLine
 62
7
  6
CONTINUOUS
 10
-45.8608211052
 20
29.0
 11
-45.8608211052
 21
88.343929097
  0
LINE
  5
22B
100
AcDbEntity
  8
0
100
AcDbLine
 62
7
  6
CONTINUOUS
 10
-36.8608211144
 20
71.0120970135
 11
-36.8608211144
 21
88.343929097
  0
LINE
  5
22C
100
AcDbEntity
  8
0
100
AcDbLine
 62
7
  6
CONTINUOUS
 10
-45.8608211052
 20
86.843929097
 11
-49.8608211052
 21
86.843929097
  0
LINE
  5
22D
100
AcDbEntity
  8
0
100
AcDbLine
 62
7
  6
CONTINUOUS
 10
-49.8608211052
 20
86.843929097
 11
-41.3608211098
 21
86.843929097
  0
LINE
  5
22E
100
AcDbEntity
  8
0
100
AcDbLine
 62
7
  6
CONTINUOUS
 10
-36.8608211144
 20
86.843929097
 11
-32.8608211144
 21
86.843929097
  0
LINE
  5
22F
100
AcDbEntity
  8
0
100
AcDbLine
 62
7
  6
CONTINUOUS
 10
-32.8608211144
 20
86.843929097
 11
-41.3608211098
 21
86.843929097
  0
INSERT
  5
230
100
AcDbEntity
  8
0
100
AcDbBlockReference
 62
7
  6
CONTINUOUS
  2
_FILLED
 10
-45.8608211052
 20
86.843929097
 41
3.0
 42
3.0
 43
3.0
  0
INSERT
  5
231
100
AcDbEntity
  8
0
100
AcDbBlockReference
 62
7
  6
CONTINUOUS
  2
_FILLED
 10
-36.8608211144
 20
86.843929097
 41
3.0
 42
3.0
 43
3.0
 50
180.0
  0
ENDBLK
  5
232
100
AcDbEntity
  8
0
  6
BYBLOCK
 62
0
100
AcDbBlockEnd
  0
BLOCK
  5
233
100
AcDbEntity
  8
0
100
AcDbBlockBegin
 62
7
  6
CONTINUOUS
  2
*D2
 70
65
 10
0.0
 20
0.0
  3
*D2
  1

  0
LINE
  5
234
100
AcDbEntity
  8
0
100
AcDbLine
 62
7
  6
CONTINUOUS
 10
-37.6608211052
 20
70.8117053283
 11
-55.3608211066
 21
70.8117053283
  0
LINE
  5
235
100
AcDbEntity
  8
0
100
AcDbLine
 62
7
  6
CONTINUOUS
 10
-37.6608211052
 20
-70.8117053926
 11
-55.3608211066
 21
-70.8117053926
  0
LINE
  5
236
100
AcDbEntity
  8
0
100
AcDbLine
 62
7
  6
CONTINUOUS
 10
-53.8608211066
 20
70.8117053283
 11
-53.8608211066
 21
-0.0000000322
  0
LINE
  5
237
100
AcDbEntity
  8
0
100
AcDbLine
 62
7
  6
CONTINUOUS
 10
-53.8608211066
 20
-70.8117053926
 11
-53.8608211066
 21
-0.0000000322
  0
INSERT
  5
238
100
AcDbEntity
  8
0
100
AcDbBlockReference
 62
7
  6
CONTINUOUS
  2
_FILLED
 10
-53.8608211066
 20
70.8117053283
 41
3.0
 42
3.0
 43
3.0
 50
90.0
  0
INSERT
  5
239
100
AcDbEntity
  8
0
100
AcDbBlockReference
 62
7
  6
CONTINUOUS
  2
_FILLED
 10
-53.8608211066
 20
-70.8117053926
 41
3.0
 42
3.0
 43
3.0
 50
270.0
  0
ENDBLK
  5
23A
100
AcDbEntity
  8
0
  6
BYBLOCK
 62
0
100
AcDbBlockEnd
  0
ENDSEC
  0
SECTION
  2
ENTITIES
  0
DIMENSION
  5
23B
100
AcDbEntity
  8
0
100
AcDbDimension
 62
7
  6
CONTINUOUS
  2
*D0
 10
20.4651728142
 20
86.843929097
 11
-4.3928571428
 21
86.843929097
 70
160
 71
2
 72
2
 41
0.9
 42
40.9303456283
  3
DIMSTYLE_1
100
AcDbAlignedDimension
 13
-20.4651728141
 23
63.8749158746
 14
20.4651728142
 24
63.8749158815
 50
360.0
100
AcDbRotatedDimension
  0
DIMENSION
  5
23C
100
AcDbEntity
  8
0
100
AcDbDimension
 62
7
  6
CONTINUOUS
  2
*D1
 10
-36.8608211144
 20
86.843929097
 11
-42.5393925384
 21
86.843929097
 70
160
 71
2
 72
2
 41
0.9
 42
8.9999999909
  3
DIMSTYLE_2
100
AcDbAlignedDimension
 13
-45.8608211052
 23
28.5
 14
-36.8608211144
 24
70.5120970135
100
AcDbRotatedDimension
  0
DIMENSION
  5
23D
100
AcDbEntity
  8
0
100
AcDbDimension
 62
7
  6
CONTINUOUS
  2
*D2
 10
-53.8608211066
 20
-70.8117053926
 11
-53.8608211066
 21
-4.9285714607
 70
160
 71
2
 72
2
 41
0.9
 42
141.6234107209
  3
DIMSTYLE_1
100
AcDbAlignedDimension
 13
-37.1608211052
 23
70.8117053283
 14
-37.1608211052
 24
-70.8117053926
 50
270.0
100
AcDbRotatedDimension
  0
LINE
  5
23E
100
AcDbEntity
  8
RACCORDO
100
AcDbLine
 62
250
  6
CONTINUOUS
 10
-1.796370957
 20
70.764241198
 11
-1.8013139196
 21
70.7625496063
  0
LWPOLYLINE
  5
23F
100
AcDbEntity
  8
RACCORDO
100
AcDbPolyline
 62
250
  6
CONTINUOUS
 90
22
 70
0
 10
14.545725962
 20
-64.7372406394
 10
14.5654541048
 20
-64.733354507
 10
14.5847101939
 20
-64.7281785998
 10
14.6034942295
 20
-64.7217129119
 10
14.6218923009
 20
-64.7139137113
 10
14.6398183187
 20
-64.7048247132
 10
14.6570140144
 20
-64.6945770814
 10
14.6734653983
 20
-64.6831547376
 10
14.6891864602
 20
-64.6705737376
 10
14.7039609004
 20
-64.6570134468
 10
14.7177743358
 20
-64.6424604184
 10
14.7306411495
 20
-64.6269280746
 10
14.7423881921
 20
-64.6106360879
 10
14.7529988254
 20
-64.5935747711
 10
14.7624896875
 20
-64.5757537886
 10
14.7707375434
 20
-64.5574218473
 10
14.7777248615
 20
-64.5385698009
 10
14.7834691734
 20
-64.5192067786
 10
14.7878998387
 20
-64.4996089091
 10
14.7909933107
 20
-64.4798682344
 10
14.7927731361
 20
-64.4598927054
 10
14.793239315
 20
-64.4396823179
  0
LWPOLYLINE
  5
240
100
AcDbEntity
  8
RACCORDO
100
AcDbPolyline
 62
250
  6
CONTINUOUS
 90
22
 70
0
 10
15.3890280183
 20
-69.572270956
 10
15.7706498306
 20
-69.4994327841
 10
16.1465469999
 20
-69.4010340688
 10
16.5150072582
 20
-69.277512017
 10
16.8743649152
 20
-69.1294120452
 10
17.2229659671
 20
-68.9574031289
 10
17.5591803335
 20
-68.7622840823
 10
17.8814644077
 20
-68.5449506473
 10
18.1883644649
 20
-68.306384964
 10
18.4784846684
 20
-68.0476749694
 10
18.7505040941
 20
-67.7699987017
 10
19.0031850085
 20
-67.474618675
 10
19.2353798919
 20
-67.1628780003
 10
19.4460309656
 20
-66.8361943441
 10
19.6341796162
 20
-66.4960547494
 10
19.7989735574
 20
-66.144006865
 10
19.9396676197
 20
-65.7816391976
 10
20.0556139231
 20
-65.4106121522
 10
20.1462778525
 20
-65.0326527746
 10
20.2112528057
 20
-64.649495134
 10
20.2502533978
 20
-64.2628701899
 10
20.263109519
 20
-63.8745367729
  0
LINE
  5
241
100
AcDbEntity
  8
RACCORDO
100
AcDbLine
 62
250
  6
CONTINUOUS
 10
4.51731247
 20
-70.7607360622
 11
4.5309148025
 21
-70.7587875226
  0
LINE
  5
242
100
AcDbEntity
  8
RACCORDO
100
AcDbLine
 62
7
  6
CONTINUOUS
 10
5.5666701799
 20
-70.8117053926
 11
15.4204131443
 21
-69.7703154229
  0
LINE
  5
243
100
AcDbEntity
  8
RACCORDO
100
AcDbLine
 62
7
  6
CONTINUOUS
 10
-5.5231421845
 20
-70.8109692252
 11
-5.2231370645
 21
-70.7847770331
  0
LINE
  5
244
100
AcDbEntity
  8
RACCORDO
100
AcDbLine
 62
250
  6
CONTINUOUS
 10
-5.2651025329
 20
-70.7838694856
 11
-5.5665905809
 21
-70.8100638466
  0
LWPOLYLINE
  5
245
100
AcDbEntity
  8
RACCORDO
100
AcDbPolyline
 62
7
  6
CONTINUOUS
 90
7
 70
0
 10
-5.2225583936
 20
-70.7847427836
 10
-5.1774163162
 20
-70.781054249
 10
-5.0799759288
 20
-70.7745870759
 10
-4.9710590058
 20
-70.7692478434
 10
-4.851530148
 20
-70.7651509785
 10
-4.7223526447
 20
-70.762343048
 10
-4.5842817425
 20
-70.7609052531
  0
LWPOLYLINE
  5
246
100
AcDbEntity
  8
RACCORDO
100
AcDbPolyline
 62
250
  6
CONTINUOUS
 90
3
 70
0
 10
-5.2231370645
 20
-70.7847770331
 10
-5.2272738846
 20
-70.7850952159
 10
-5.2651025247
 20
-70.7838693294
  0
LINE
  5
247
100
AcDbEntity
  8
RACCORDO
100
AcDbLine
 62
250
  6
CONTINUOUS
 10
-5.1618882549
 20
-70.7761407987
 11
-5.2651025329
 21
-70.7838694856
  0
LWPOLYLINE
  5
248
100
AcDbEntity
  8
RACCORDO
100
AcDbPolyline
 62
250
  6
CONTINUOUS
 90
3
 70
0
 10
-5.5231421845
 20
-70.8109692252
 10
-5.530855674
 20
-70.811507778
 10
-5.5665797078
 20
-70.8100646109
  0
LWPOLYLINE
  5
249
100
AcDbEntity
  8
RACCORDO
100
AcDbPolyline
 62
250
  6
CONTINUOUS
 90
6
 70
0
 10
4.0749519976
 20
-70.6948320368
 10
6.3465976726
 20
-70.5747499928
 10
8.6150441404
 20
-70.4023583347
 10
10.8790743487
 20
-70.1777373483
 10
13.1374731738
 20
-69.9009959146
 10
15.3890280987
 20
-69.5722714651
  0
LWPOLYLINE
  5
24A
100
AcDbEntity
  8
RACCORDO
100
AcDbPolyline
 62
250
  6
CONTINUOUS
 90
3
 70
0
 10
-4.9324876218
 20
-70.7650228501
 10
-5.051017378
 20
-70.7698671068
 10
-5.1618882549
 20
-70.7761407987
  0
LINE
  5
24B
100
AcDbEntity
  8
RACCORDO
100
AcDbLine
 62
250
  6
CONTINUOUS
 10
1.8013254182
 20
-70.7625528048
 11
4.0749519976
 21
-70.6948320368
  0
LWPOLYLINE
  5
24C
100
AcDbEntity
  8
RACCORDO
100
AcDbPolyline
 62
250
  6
CONTINUOUS
 90
4
 70
0
 10
-4.5309137199
 20
-70.7587844867
 10
-4.6724394881
 20
-70.759511537
 10
-4.8062961315
 20
-70.761580696
 10
-4.9324876218
 20
-70.7650228501
  0
LINE
  5
24D
100
AcDbEntity
  8
RACCORDO
100
AcDbLine
 62
250
  6
CONTINUOUS
 10
4.5309146654
 20
-70.758784502
 11
4.51731247
 21
-70.7607360622
  0
LINE
  5
24E
100
AcDbEntity
  8
RACCORDO
100
AcDbLine
 62
250
  6
CONTINUOUS
 10
-1.7963677019
 20
-70.7642670741
 11
-1.8013176735
 21
-70.7625487995
  0
LINE
  5
24F
100
AcDbEntity
  8
RACCORDO
100
AcDbLine
 62
7
  6
CONTINUOUS
 10
0.2343057563
 20
-70.7634872258
 11
4.51731247
 21
-70.7607360622
  0
LINE
  5
250
100
AcDbEntity
  8
RACCORDO
100
AcDbLine
 62
7
  6
CONTINUOUS
 10
-4.5842817425
 20
-70.7609052531
 11
0.2343057563
 21
-70.7634872258
  0
LINE
  5
251
100
AcDbEntity
  8
RACCORDO
100
AcDbLine
 62
250
  6
CONTINUOUS
 10
-2.2758520274
 20
-70.7618568893
 11
-2.7425152833
 21
-70.7610429679
  0
LWPOLYLINE
  5
252
100
AcDbEntity
  8
RACCORDO
100
AcDbPolyline
 62
250
  6
CONTINUOUS
 90
3
 70
0
 10
1.4330185827
 20
-70.7623732672
 10
0.8496101224
 20
-70.7615647305
 10
0.2343057563
 20
-70.7634872258
  0
LWPOLYLINE
  5
253
100
AcDbEntity
  8
RACCORDO
100
AcDbPolyline
 62
7
  6
CONTINUOUS
 90
8
 70
0
 10
4.5173101611
 20
-70.7607353918
 10
4.6040019432
 20
-70.7610182652
 10
4.7414460054
 20
-70.7626606596
 10
4.8696200006
 20
-70.765670361
 10
4.9878026041
 20
-70.7699590821
 10
5.0950499428
 20
-70.7754696446
 10
5.1905314432
 20
-70.7820734407
 10
5.2225587779
 20
-70.7847428643
  0
LWPOLYLINE
  5
254
100
AcDbEntity
  8
RACCORDO
100
AcDbPolyline
 62
250
  6
CONTINUOUS
 90
4
 70
0
 10
4.9328712473
 20
-70.7650355312
 10
4.8066372254
 20
-70.7615923991
 10
4.6726530117
 20
-70.7595191421
 10
4.5309146654
 20
-70.758784502
  0
LWPOLYLINE
  5
255
100
AcDbEntity
  8
RACCORDO
100
AcDbPolyline
 62
250
  6
CONTINUOUS
 90
3
 70
0
 10
-6.3465909577
 20
-70.5747504338
 10
-4.0749310237
 20
-70.6948329697
 10
-1.8013294391
 20
-70.7625528398
  0
LWPOLYLINE
  5
256
100
AcDbEntity
  8
RACCORDO
100
AcDbPolyline
 62
250
  6
CONTINUOUS
 90
3
 70
0
 10
5.1621016868
 20
-70.7761473678
 10
5.0513584622
 20
-70.7698779788
 10
4.9328712473
 20
-70.7650355312
  0
LWPOLYLINE
  5
257
100
AcDbEntity
  8
RACCORDO
100
AcDbPolyline
 62
250
  6
CONTINUOUS
 90
3
 70
0
 10
5.523142214
 20
-70.8109694089
 10
5.5308559447
 20
-70.8115079443
 10
5.5665791117
 20
-70.8100647665
  0
LINE
  5
258
100
AcDbEntity
  8
RACCORDO
100
AcDbLine
 62
250
  6
CONTINUOUS
 10
5.2651031595
 20
-70.7838695119
 11
5.1621016868
 21
-70.7761473678
  0
LWPOLYLINE
  5
259
100
AcDbEntity
  8
RACCORDO
100
AcDbPolyline
 62
250
  6
CONTINUOUS
 90
3
 70
0
 10
5.2231371758
 20
-70.7847946326
 10
5.2272773539
 20
-70.7851137337
 10
5.265104429
 20
-70.7838935992
  0
LINE
  5
25A
100
AcDbEntity
  8
RACCORDO
100
AcDbLine
 62
250
  6
CONTINUOUS
 10
5.5665902376
 20
-70.8100638658
 11
5.2651031595
 21
-70.7838695119
  0
LINE
  5
25B
100
AcDbEntity
  8
RACCORDO
100
AcDbLine
 62
7
  6
CONTINUOUS
 10
5.2231388194
 20
-70.7847772224
 11
5.5239863202
 21
-70.8110407733
  0
LINE
  5
25C
100
AcDbEntity
  8
RACCORDO
100
AcDbLine
 62
7
  6
CONTINUOUS
 10
-15.4204131443
 20
-69.7703154229
 11
-5.5666713344
 21
-70.8117053282
  0
LINE
  5
25D
100
AcDbEntity
  8
RACCORDO
100
AcDbLine
 62
250
  6
CONTINUOUS
 10
-4.5173127553
 20
-70.7607340404
 11
-4.5309134947
 21
-70.7587795336
  0
LWPOLYLINE
  5
25E
100
AcDbEntity
  8
RACCORDO
100
AcDbPolyline
 62
250
  6
CONTINUOUS
 90
5
 70
0
 10
-15.3894657845
 20
-69.5722025831
 10
-13.1377424801
 20
-69.9009597795
 10
-10.8792131253
 20
-70.1777219202
 10
-8.6150907724
 20
-70.4023542127
 10
-6.3465909577
 20
-70.5747504338
  0
LWPOLYLINE
  5
25F
100
AcDbEntity
  8
RACCORDO
100
AcDbPolyline
 62
250
  6
CONTINUOUS
 90
13
 70
0
 10
-14.545725962
 20
-64.7372406394
 10
-12.1331285455
 20
-65.0913566807
 10
-9.7158535372
 20
-65.3811104184
 10
-7.2939009372
 20
-65.6065185927
 10
-4.8657115145
 20
-65.7676563138
 10
-2.4328445
 20
-65.8644711458
 10
0.0000224138
 20
-65.8967830423
 10
2.432890753
 20
-65.8644698315
 10
4.8657589916
 20
-65.7676536851
 10
7.2939448588
 20
-65.6065153664
 10
9.7158875978
 20
-65.3811075504
 10
12.1331479656
 20
-65.091354888
 10
14.545725962
 20
-64.7372406394
  0
LINE
  5
260
100
AcDbEntity
  8
RACCORDO
100
AcDbLine
 62
250
  6
CONTINUOUS
 10
-1.7963677019
 20
-70.7642670741
 11
-1.8013124722
 21
-70.7626008985
  0
LWPOLYLINE
  5
261
100
AcDbEntity
  8
RACCORDO
100
AcDbPolyline
 62
250
  6
CONTINUOUS
 90
12
 70
0
 10
18.3294797278
 20
-64.2694924984
 10
18.6147889681
 20
-64.2400341988
 10
18.8814658951
 20
-64.2087957315
 10
19.1282103012
 20
-64.1759294026
 10
19.3538191618
 20
-64.1415954548
 10
19.5571925001
 20
-64.1059612865
 10
19.7373387509
 20
-64.0692006351
 10
19.8933795949
 20
-64.0314927308
 10
20.0245542407
 20
-63.9930214219
 10
20.1302231344
 20
-63.9539742789
 10
20.2098710776
 20
-63.9145416797
 10
20.2631097396
 20
-63.8749158815
  0
LWPOLYLINE
  5
262
100
AcDbEntity
  8
RACCORDO
100
AcDbPolyline
 62
250
  6
CONTINUOUS
 90
11
 70
0
 10
14.793239315
 20
-64.4396823124
 10
15.1770227194
 20
-64.4341853984
 10
15.5589349528
 20
-64.425961715
 10
15.9371139674
 20
-64.4150513574
 10
16.3097159171
 20
-64.4015075201
 10
16.6749241471
 20
-64.3853962373
 10
17.0309580514
 20
-64.366796061
 10
17.3760817543
 20
-64.345797678
 10
17.7086125738
 20
-64.3225034679
 10
18.0269292256
 20
-64.2970270038
 10
18.3294797278
 20
-64.2694924984
  0
LINE
  5
263
100
AcDbEntity
  8
RACCORDO
100
AcDbLine
 62
250
  6
CONTINUOUS
 10
-20.4651728142
 20
-63.8749158815
 11
-20.2631065829
 21
-63.8745610216
  0
LINE
  5
264
100
AcDbEntity
  8
RACCORDO
100
AcDbLine
 62
250
  6
CONTINUOUS
 10
13.6588581549
 20
-60.8007532605
 11
-13.6588322249
 21
-60.8006344873
  0
LINE
  5
265
100
AcDbEntity
  8
RACCORDO
100
AcDbLine
 62
250
  6
CONTINUOUS
 10
20.4668162456
 20
-63.874915877
 11
20.2631063667
 21
-63.8745367684
  0
LWPOLYLINE
  5
266
100
AcDbEntity
  8
RACCORDO
100
AcDbPolyline
 62
250
  6
CONTINUOUS
 90
11
 70
0
 10
-14.793239315
 20
-64.4396823177
 10
-15.1770217891
 20
-64.434185427
 10
-15.5589330896
 20
-64.4259617643
 10
-15.9371111732
 20
-64.415051425
 10
-16.3097121982
 20
-64.4015076033
 10
-16.6749195142
 20
-64.3853963334
 10
-17.0309525198
 20
-64.3667961674
 10
-17.3760753434
 20
-64.3457977921
 10
-17.7086053074
 20
-64.3225035871
 10
-18.0269211315
 20
-64.2970271254
 10
-18.329470838
 20
-64.26949262
  0
LWPOLYLINE
  5
267
100
AcDbEntity
  8
RACCORDO
100
AcDbPolyline
 62
250
  6
CONTINUOUS
 90
12
 70
0
 10
-18.329470838
 20
-64.26949262
 10
-18.614779318
 20
-64.240034318
 10
-18.8814555242
 20
-64.208795846
 10
-19.1281992524
 20
-64.1759295103
 10
-19.353807481
 20
-64.1415955538
 10
-19.5571802364
 20
-64.1059613749
 10
-19.7373259564
 20
-64.0692007115
 10
-19.893366324
 20
-64.0314927936
 10
-20.0245405502
 20
-63.9930214699
 10
-20.1302090831
 20
-63.9539743111
 10
-20.209856726
 20
-63.9145416952
 10
-20.2630951497
 20
-63.8749158797
  0
LWPOLYLINE
  5
268
100
AcDbEntity
  8
0
100
AcDbPolyline
 62
7
  6
CONTINUOUS
 90
10
 70
0
 43
0.3500000006
 10
2.464285738
 20
87.5939310608
 10
3.3214284925
 20
88.4510690002
 10
3.5357143936
 20
89.3082160034
 10
3.5357143936
 20
90.1653539429
 10
3.1071428747
 20
90.5939319763
 10
2.464285738
 20
90.5939319763
 10
2.0357142191
 20
90.1653539429
 10
2.0357142191
 20
89.3082160034
 10
2.464285738
 20
88.8796470337
 10
3.3928571262
 20
88.8796470337
  0
LWPOLYLINE
  5
269
100
AcDbEntity
  8
RACCORDO
100
AcDbPolyline
 62
250
  6
CONTINUOUS
 90
5
 70
0
 10
13.2069034494
 20
-56.2617997879
 10
13.160705755
 20
-56.2719426752
 10
13.1123313298
 20
-56.2822854354
 10
13.0620272862
 20
-56.2927752419
 10
13.0100505938
 20
-56.3033585171
  0
LINE
  5
26A
100
AcDbEntity
  8
RACCORDO
100
AcDbLine
 62
250
  6
CONTINUOUS
 10
13.0100505938
 20
-56.3033585171
 11
12.9021485061
 21
-56.3245890527
  0
LWPOLYLINE
  5
26B
100
AcDbEntity
  8
RACCORDO
100
AcDbPolyline
 62
250
  6
CONTINUOUS
 90
3
 70
0
 10
12.9021485061
 20
-56.3245890527
 10
12.7908270473
 20
-56.34554385
 10
12.7345925151
 20
-56.3557837731
  0
LINE
  5
26C
100
AcDbEntity
  8
RACCORDO
100
AcDbLine
 62
250
  6
CONTINUOUS
 10
-12.7345938832
 20
-56.3557907514
 11
12.7345941051
 21
-56.3557918868
  0
LINE
  5
26D
100
AcDbEntity
  8
RACCORDO
100
AcDbLine
 62
250
  6
CONTINUOUS
 10
-12.8467740098
 20
-56.3351275778
 11
-12.7345925151
 21
-56.355783757
  0
LWPOLYLINE
  5
26E
100
AcDbEntity
  8
RACCORDO
100
AcDbPolyline
 62
250
  6
CONTINUOUS
 90
7
 70
0
 10
-13.2069020787
 20
-56.261799931
 10
-13.1607045366
 20
-56.2719425541
 10
-13.1123302645
 20
-56.2822851295
 10
-13.0620263745
 20
-56.2927748236
 10
-13.0100498357
 20
-56.3033580514
 10
-12.9566661616
 20
-56.3139807501
 10
-12.8467740098
 20
-56.3351275778
  0
LWPOLYLINE
  5
26F
100
AcDbEntity
  8
RACCORDO
100
AcDbPolyline
 62
250
  6
CONTINUOUS
 90
9
 70
0
 10
-12.445488635
 20
51.5023058939
 10
-12.4537764986
 20
51.4984556332
 10
-12.4611309796
 20
51.4948849767
 10
-12.4677002754
 20
51.4915956392
 10
-12.4733361885
 20
51.4886485231
 10
-12.4775639766
 20
51.4860816922
 10
-12.4802253922
 20
51.4839220387
 10
-12.4814786827
 20
51.4821907197
 10
-12.4813238482
 20
51.4809127086
  0
LWPOLYLINE
  5
270
100
AcDbEntity
  8
RACCORDO
100
AcDbPolyline
 62
250
  6
CONTINUOUS
 90
3
 70
0
 10
-12.2734181369
 20
51.5802841972
 10
-12.3096607495
 20
51.5634328886
 10
-12.3271770995
 20
51.5554045098
  0
LINE
  5
271
100
AcDbEntity
  8
RACCORDO
100
AcDbLine
 62
250
  6
CONTINUOUS
 10
-12.4262750308
 20
51.5110562636
 11
-12.445488635
 21
51.5023058939
  0
LINE
  5
272
100
AcDbEntity
  8
RACCORDO
100
AcDbLine
 62
250
  6
CONTINUOUS
 10
-12.3271770995
 20
51.5554045098
 11
-12.375795714
 21
51.5335604272
  0
LINE
  5
273
100
AcDbEntity
  8
RACCORDO
100
AcDbLine
 62
250
  6
CONTINUOUS
 10
-12.375795714
 20
51.5335604272
 11
-12.4262750308
 21
51.5110562636
  0
LWPOLYLINE
  5
274
100
AcDbEntity
  8
RACCORDO
100
AcDbPolyline
 62
250
  6
CONTINUOUS
 90
13
 70
0
 10
-12.5210052292
 20
51.4132685947
 10
-12.5503517116
 20
51.4021230588
 10
-12.578333133
 20
51.3879699458
 10
-12.604649962
 20
51.3709595767
 10
-12.6290184644
 20
51.3512746617
 10
-12.6511711227
 20
51.3291337231
 10
-12.6708639751
 20
51.3047824982
 10
-12.6878736337
 20
51.2785021385
 10
-12.7020292508
 20
51.2505662508
 10
-12.7131960169
 20
51.2212338306
 10
-12.721242629
 20
51.1908031181
 10
-12.7260585101
 20
51.1596161688
 10
-12.7254964063
 20
51.1568890066
  0
LWPOLYLINE
  5
275
100
AcDbEntity
  8
RACCORDO
100
AcDbPolyline
 62
250
  6
CONTINUOUS
 90
13
 70
0
 10
12.4813238482
 20
-51.4809127086
 10
12.5203583766
 20
-51.4782505846
 10
12.5587277688
 20
-51.4705259944
 10
12.5957777855
 20
-51.4578705465
 10
12.6308766959
 20
-51.4404999142
 10
12.6634259672
 20
-51.4187102031
 10
12.6928704933
 20
-51.3928729391
 10
12.7187082101
 20
-51.3634286165
 10
12.7404984964
 20
-51.3308792755
 10
12.7578696859
 20
-51.295780053
 10
12.7705255921
 20
-51.2587295026
 10
12.7782504916
 20
-51.2203593452
 10
12.7809127086
 20
-51.1813238482
  0
LWPOLYLINE
  5
276
100
AcDbEntity
  8
RACCORDO
100
AcDbPolyline
 62
250
  6
CONTINUOUS
 90
3
 70
0
 10
12.4280013176
 20
-51.4275753438
 10
12.4594961116
 20
-51.4260704244
 10
12.4906098443
 20
-51.4212824249
  0
LINE
  5
277
100
AcDbEntity
  8
RACCORDO
100
AcDbLine
 62
250
  6
CONTINUOUS
 10
12.0428613988
 20
-51.7772651445
 11
-12.0428613993
 21
-51.7772651445
  0
LINE
  5
278
100
AcDbEntity
  8
RACCORDO
100
AcDbLine
 62
250
  6
CONTINUOUS
 10
12.4813238482
 20
-51.4809127086
 11
-12.4813238482
 21
-51.4809127086
  0
LINE
  5
279
100
AcDbEntity
  8
RACCORDO
100
AcDbLine
 62
7
  6
CONTINUOUS
 10
-12.4279864349
 20
-51.4268900626
 11
12.4279864339
 21
-51.4268900626
  0
LINE
  5
27A
100
AcDbEntity
  8
RACCORDO
100
AcDbLine
 62
250
  6
CONTINUOUS
 10
12.7268900635
 20
-51.1279864348
 11
12.7275752953
 21
-51.1279864348
  0
LINE
  5
27B
100
AcDbEntity
  8
RACCORDO
100
AcDbLine
 62
250
  6
CONTINUOUS
 10
-12.7268900643
 20
-51.127986432
 11
-12.7275752953
 21
-51.127986435
  0
LINE
  5
27C
100
AcDbEntity
  8
0
100
AcDbLine
 62
7
  6
CONTINUOUS
 10
-12.7268900626
 20
-51.0
 11
12.7268889593
 21
-51.0
  0
LWPOLYLINE
  5
27D
100
AcDbEntity
  8
RACCORDO
100
AcDbPolyline
 62
7
  6
CONTINUOUS
 90
13
 70
0
 10
-12.4279864359
 20
-51.4268777368
 10
-12.4559078295
 20
-51.4255877116
 10
-12.4978990003
 20
-51.418641062
 10
-12.5384289413
 20
-51.4058346476
 10
-12.576701743
 20
-51.3874341515
 10
-12.6119432191
 20
-51.3637892076
 10
-12.6434842171
 20
-51.3353886785
 10
-12.6706712334
 20
-51.3027573648
 10
-12.6929769574
 20
-51.2665534265
 10
-12.7099261627
 20
-51.2274819544
 10
-12.7211640853
 20
-51.1863234645
 10
-12.7264695354
 20
-51.1439003155
 10
-12.7268891845
 20
-51.1279864322
  0
LWPOLYLINE
  5
27E
100
AcDbEntity
  8
RACCORDO
100
AcDbPolyline
 62
7
  6
CONTINUOUS
 90
16
 70
0
 10
-12.0428628899
 20
-51.7771888907
 10
-12.1242967051
 20
-51.772477536
 10
-12.2048873878
 20
-51.7626233691
 10
-12.2837949801
 20
-51.7477037541
 10
-12.360198158
 20
-51.727864064
 10
-12.4333009245
 20
-51.7032962367
 10
-12.5023419095
 20
-51.6742691771
 10
-12.5666037403
 20
-51.6411013549
 10
-12.6254180167
 20
-51.604123274
 10
-12.6781710571
 20
-51.5637036975
 10
-12.7243138196
 20
-51.5202742047
 10
-12.7633673882
 20
-51.4742913628
 10
-12.7949262175
 20
-51.4262323782
 10
-12.8186623814
 20
-51.3765951732
 10
-12.8343298273
 20
-51.3259095585
 10
-12.8417665055
 20
-51.2747139526
  0
LWPOLYLINE
  5
27F
100
AcDbEntity
  8
RACCORDO
100
AcDbPolyline
 62
250
  6
CONTINUOUS
 90
3
 70
0
 10
-12.3272074482
 20
-51.5553894552
 10
-12.3444575424
 20
-51.5476075207
 10
-12.4264493502
 20
-51.5109791207
  0
LWPOLYLINE
  5
280
100
AcDbEntity
  8
RACCORDO
100
AcDbPolyline
 62
250
  6
CONTINUOUS
 90
10
 70
0
 10
-12.4264493502
 20
-51.5109791207
 10
-12.4455930006
 20
-51.502257572
 10
-12.4538595447
 20
-51.4984164349
 10
-12.4611950447
 20
-51.4948540835
 10
-12.467746211
 20
-51.4915724589
 10
-12.4733663332
 20
-51.4886320612
 10
-12.4775815446
 20
-51.4860710257
 10
-12.4802338899
 20
-51.4839161559
 10
-12.4814813244
 20
-51.482188435
 10
-12.4813238482
 20
-51.4809127086
  0
LWPOLYLINE
  5
281
100
AcDbEntity
  8
RACCORDO
100
AcDbPolyline
 62
250
  6
CONTINUOUS
 90
11
 70
0
 10
12.7809127086
 20
-51.1813238482
 10
12.7823276884
 20
-51.1818432946
 10
12.7837320113
 20
-51.1815719933
 10
12.7851256775
 20
-51.1805099443
 10
12.78650825
 20
-51.1785291559
 10
12.7878801657
 20
-51.1757576199
 10
12.7892427357
 20
-51.1725793111
 10
12.7905848524
 20
-51.1690733523
 10
12.7919176233
 20
-51.1651606209
 10
12.7932756821
 20
-51.1609877236
 10
12.7946582842
 20
-51.1565770709
  0
LWPOLYLINE
  5
282
100
AcDbEntity
  8
RACCORDO
100
AcDbPolyline
 62
250
  6
CONTINUOUS
 90
30
 70
0
 10
-12.7975362184
 20
51.1470546434
 10
-12.8006940268
 20
51.1366703728
 10
-12.802356146
 20
51.1314944497
 10
-12.8040792797
 20
51.1263945089
 10
-12.8058545512
 20
51.1214011756
 10
-12.8076453128
 20
51.116893723
 10
-12.8094560606
 20
51.1129065659
 10
-12.8112822986
 20
51.1094052895
 10
-12.8130738916
 20
51.1066659232
 10
-12.8148215883
 20
51.1047645028
 10
-12.81653464
 20
51.1036249926
 10
-12.8181906655
 20
51.103295315
 10
-12.8197778867
 20
51.1037922055
 10
-12.8213080818
 20
51.1050989286
 10
-12.8227942042
 20
51.1072132011
 10
-12.8242327626
 20
51.1100851709
 10
-12.8256272483
 20
51.11376469
 10
-12.8270010889
 20
51.1183990309
 10
-12.8283590143
 20
51.1239336445
 10
-12.8296962947
 20
51.1304230799
 10
-12.8310221677
 20
51.1381782567
 10
-12.8323454947
 20
51.1471897099
 10
-12.8336574144
 20
51.1574669046
 10
-12.8349405801
 20
51.1693491556
 10
-12.8361981323
 20
51.1829656384
 10
-12.8374269306
 20
51.1981871776
 10
-12.8386002066
 20
51.2149655616
 10
-12.8397090374
 20
51.2332847197
 10
-12.8407623459
 20
51.2531607226
 10
-12.8417601321
 20
51.2745935702
  0
LINE
  5
283
100
AcDbEntity
  8
RACCORDO
100
AcDbLine
 62
250
  6
CONTINUOUS
 10
12.4280059367
 20
51.4275752953
 11
12.4813238482
 21
51.4809127086
  0
LINE
  5
284
100
AcDbEntity
  8
RACCORDO
100
AcDbLine
 62
250
  6
CONTINUOUS
 10
12.7275752953
 20
51.1280078035
 11
12.7809127086
 21
51.1813238482
  0
LINE
  5
285
100
AcDbEntity
  8
RACCORDO
100
AcDbLine
 62
250
  6
CONTINUOUS
 10
12.9380292558
 20
-28.5
 11
20.0717100635
 21
-28.5
  0
LINE
  5
286
100
AcDbEntity
  8
RACCORDO
100
AcDbLine
 62
250
  6
CONTINUOUS
 10
-20.0717100635
 20
-28.5
 11
-12.9380292558
 21
-28.5
  0
LINE
  5
287
100
AcDbEntity
  8
RACCORDO
100
AcDbLine
 62
250
  6
CONTINUOUS
 10
12.7809127086
 20
-51.1813238482
 11
12.7275752953
 21
-51.1280109695
  0
LINE
  5
288
100
AcDbEntity
  8
RACCORDO
100
AcDbLine
 62
250
  6
CONTINUOUS
 10
12.4813238482
 20
-51.4809127086
 11
12.4280012688
 21
-51.4275752953
  0
LINE
  5
289
100
AcDbEntity
  8
RACCORDO
100
AcDbLine
 62
250
  6
CONTINUOUS
 10
5.5674504184
 20
-70.8116608641
 11
5.5665791117
 21
-70.8100647665
  0
LINE
  5
28A
100
AcDbEntity
  8
RACCORDO
100
AcDbLine
 62
250
  6
CONTINUOUS
 10
-12.8006671528
 20
-51.1367549916
 11
-12.7975058873
 21
-51.1471553609
  0
LWPOLYLINE
  5
28B
100
AcDbEntity
  8
RACCORDO
100
AcDbPolyline
 62
250
  6
CONTINUOUS
 90
22
 70
0
 10
-20.2631095334
 20
-63.8745610256
 10
-20.2502515917
 20
-64.2629062141
 10
-20.2112478247
 20
-64.6495398952
 10
-20.1462689366
 20
-65.0327031444
 10
-20.0556010682
 20
-65.4106640735
 10
-19.9396513773
 20
-65.7816896161
 10
-19.7989542121
 20
-66.1440555329
 10
-19.6341572214
 20
-66.4961023406
 10
-19.4460057215
 20
-66.8362406569
 10
-19.2353517545
 20
-67.1629227768
 10
-19.0031539034
 20
-67.4746615785
 10
-18.7504700457
 20
-67.7700394323
 10
-18.4784476529
 20
-68.04771328
 10
-18.1883244107
 20
-68.3064204955
 10
-17.8814213552
 20
-68.5449830966
 10
-17.5591344411
 20
-68.7623134645
 10
-17.2229009139
 20
-68.9574384836
 10
-16.8742796537
 20
-69.129451126
 10
-16.514953492
 20
-69.2775326128
 10
-16.1465982232
 20
-69.4010191988
 10
-15.7708646762
 20
-69.4993844336
 10
-15.3894657816
 20
-69.5722025649
  0
LWPOLYLINE
  5
28C
100
AcDbEntity
  8
RACCORDO
100
AcDbPolyline
 62
250
  6
CONTINUOUS
 90
13
 70
0
 10
-12.8936629204
 20
52.8004699196
 10
-12.8825057196
 20
52.8466091408
 10
-12.8586573569
 20
52.8920051254
 10
-12.8225019756
 20
52.9359265052
 10
-12.7746219927
 20
52.9776656666
 10
-12.7157887342
 20
53.0165501371
 10
-12.6469500232
 20
53.0519534236
 10
-12.5692148658
 20
53.0833051303
 10
-12.4838356213
 20
53.1101001262
 10
-12.392187866
 20
53.1319066819
 10
-12.2957481501
 20
53.1483734527
 10
-12.1960701951
 20
53.1592351305
 10
-12.0947599201
 20
53.1643167054
  0
LINE
  5
28D
100
AcDbEntity
  8
RACCORDO
100
AcDbLine
 62
250
  6
CONTINUOUS
 10
-12.7946582842
 20
51.1565770709
 11
-12.7975362184
 21
51.1470546434
  0
LWPOLYLINE
  5
28E
100
AcDbEntity
  8
0
100
AcDbPolyline
 62
7
  6
CONTINUOUS
 90
3
 70
0
 43
0.3500000006
 10
1.035714268
 20
87.8796467285
 10
0.9642857051
 20
87.6653531799
 10
0.8214285793
 20
87.3796465759
  0
LWPOLYLINE
  5
28F
100
AcDbEntity
  8
RACCORDO
100
AcDbPolyline
 62
250
  6
CONTINUOUS
 90
12
 70
0
 10
-12.7975058873
 20
-51.1471553609
 10
-12.794635266
 20
-51.1566519424
 10
-12.7932568818
 20
-51.1610469474
 10
-12.7919013923
 20
-51.165209222
 10
-12.7905706356
 20
-51.1691127941
 10
-12.7892304719
 20
-51.17261021
 10
-12.787869927
 20
-51.1757799733
 10
-12.7864999751
 20
-51.1785435804
 10
-12.785119399
 20
-51.1805180679
 10
-12.783727793
 20
-51.181575781
 10
-12.7823255629
 20
-51.1818443745
 10
-12.7809127086
 20
-51.1813238482
  0
LWPOLYLINE
  5
290
100
AcDbEntity
  8
RACCORDO
100
AcDbPolyline
 62
250
  6
CONTINUOUS
 90
13
 70
0
 10
-12.8936679988
 20
-52.8004699014
 10
-12.882510954
 20
-52.8466094789
 10
-12.8586624323
 20
-52.8920057573
 10
-12.822506656
 20
-52.935927358
 10
-12.774626129
 20
-52.9776666607
 10
-12.715792252
 20
-53.0165512043
 10
-12.6469528948
 20
-53.0519545204
 10
-12.5692171249
 20
-53.0833062266
 10
-12.4838373392
 20
-53.1101012157
 10
-12.3921890874
 20
-53.1319077934
 10
-12.2957489098
 20
-53.1483746338
 10
-12.1960705494
 20
-53.1592364391
 10
-12.0947599194
 20
-53.1643182139
  0
LWPOLYLINE
  5
291
100
AcDbEntity
  8
RACCORDO
100
AcDbPolyline
 62
250
  6
CONTINUOUS
 90
13
 70
0
 10
-12.7809127086
 20
-51.1813238482
 10
-12.7782516233
 20
-51.2203605558
 10
-12.7705276381
 20
-51.2587317564
 10
-12.7578724191
 20
-51.2957831755
 10
-12.740501685
 20
-51.3308831236
 10
-12.718711607
 20
-51.3634329903
 10
-12.6928738563
 20
-51.3928775139
 10
-12.6634290525
 20
-51.4187146276
 10
-12.6308793038
 20
-51.4405038879
 10
-12.5957798249
 20
-51.4578738044
 10
-12.5587291977
 20
-51.4705283222
 10
-12.520359128
 20
-51.4782518108
 10
-12.4813238482
 20
-51.4809127086
  0
LWPOLYLINE
  5
292
100
AcDbEntity
  8
RACCORDO
100
AcDbPolyline
 62
250
  6
CONTINUOUS
 90
22
 70
0
 10
-14.793239315
 20
-64.4396823179
 10
-14.7927728326
 20
-64.4598966782
 10
-14.7909923115
 20
-64.4798759206
 10
-14.7878977517
 20
-64.4996200492
 10
-14.7834656593
 20
-64.5192210813
 10
-14.7777195281
 20
-64.5385870066
 10
-14.7707298398
 20
-64.5574417927
 10
-14.7624786295
 20
-64.5757767122
 10
-14.752983862
 20
-64.5936005093
 10
-14.7423699135
 20
-64.6106633677
 10
-14.7306203451
 20
-64.6269551089
 10
-14.7177515957
 20
-64.6424859339
 10
-14.7039373583
 20
-64.6570366021
 10
-14.6891637193
 20
-64.6705933878
 10
-14.6734445923
 20
-64.6831700414
 10
-14.6569954099
 20
-64.6945885393
 10
-14.6398018372
 20
-64.7048333319
 10
-14.6218782092
 20
-64.7139199914
 10
-14.6034829639
 20
-64.7217171785
 10
-14.5847022472
 20
-64.7281811192
 10
-14.5654499133
 20
-64.7333556042
 10
-14.545725962
 20
-64.7372406394
  0
LWPOLYLINE
  5
293
100
AcDbEntity
  8
RACCORDO
100
AcDbPolyline
 62
250
  6
CONTINUOUS
 90
9
 70
0
 10
-20.2631063667
 20
63.8745367684
 10
-20.2198454009
 20
59.5650787544
 10
-20.182345339
 20
55.3500794427
 10
-20.1506061808
 20
51.2295388334
 10
-20.1249775617
 20
47.2030838867
 10
-20.1051098464
 20
43.2710876423
 10
-20.0899541295
 20
39.4346692195
 10
-20.0791607758
 20
35.6942016581
 10
-20.0730794204
 20
32.0493119182
  0
LINE
  5
294
100
AcDbEntity
  8
RACCORDO
100
AcDbLine
 62
7
  6
CONTINUOUS
 10
-20.4668162456
 20
-63.8749158815
 11
-20.4668162456
 21
63.8749158815
  0
LINE
  5
295
100
AcDbEntity
  8
RACCORDO
100
AcDbLine
 62
250
  6
CONTINUOUS
 10
-20.0730794204
 20
32.0493119182
 11
-20.0717100635
 21
-28.5
  0
LWPOLYLINE
  5
296
100
AcDbEntity
  8
RACCORDO
100
AcDbPolyline
 62
250
  6
CONTINUOUS
 90
10
 70
0
 10
-20.0717100635
 20
-28.5
 10
-20.0730695168
 20
-32.045245946
 10
-20.0791407038
 20
-35.6870879057
 10
-20.0899236244
 20
-39.4255258792
 10
-20.1050649812
 20
-43.2609342733
 10
-20.1249180716
 20
-47.1929386812
 10
-20.1505427878
 20
-51.220415882
 10
-20.1822924271
 20
-55.3429914689
 10
-20.2198136921
 20
-59.5610398488
 10
-20.2631065829
 20
-63.8745610216
  0
LWPOLYLINE
  5
297
100
AcDbEntity
  8
RACCORDO
100
AcDbPolyline
 62
7
  6
CONTINUOUS
 90
16
 70
0
 10
-12.8417469325
 20
51.2744633036
 10
-12.834308119
 20
51.3255622275
 10
-12.8186617556
 20
51.376188732
 10
-12.7949446326
 20
51.4258155579
 10
-12.7633687178
 20
51.4739353992
 10
-12.7242443279
 20
51.520028406
 10
-12.6779973758
 20
51.5635738367
 10
-12.6251072559
 20
51.6041308721
 10
-12.5661210337
 20
51.6412583336
 10
-12.5017017342
 20
51.6744961728
 10
-12.432528161
 20
51.7034559691
 10
-12.3593312133
 20
51.7278922003
 10
-12.2829452624
 20
51.7476442076
 10
-12.2041979266
 20
51.7625550637
 10
-12.1238918139
 20
51.7724625554
 10
-12.0428613321
 20
51.7772859636
  0
LINE
  5
298
100
AcDbEntity
  8
RACCORDO
100
AcDbLine
 62
7
  6
CONTINUOUS
 10
-12.8451859439
 20
-5.6151524995
 11
-12.8573440052
 21
-5.4616682293
  0
LWPOLYLINE
  5
299
100
AcDbEntity
  8
RACCORDO
100
AcDbPolyline
 62
7
  6
CONTINUOUS
 90
3
 70
0
 10
-12.8573440052
 20
-5.4616682293
 10
-12.8697636652
 20
-5.2918039644
 10
-12.8760671377
 20
-5.2003834512
  0
LWPOLYLINE
  5
29A
100
AcDbEntity
  8
RACCORDO
100
AcDbPolyline
 62
250
  6
CONTINUOUS
 90
16
 70
0
 10
-12.727575365
 20
-51.128007874
 10
-12.7260589894
 20
-51.1596115787
 10
-12.7212431199
 20
-51.1908007949
 10
-12.7131949137
 20
-51.2212372011
 10
-12.7020229556
 20
-51.2505803741
 10
-12.6878581129
 20
-51.2785290405
 10
-12.6708384875
 20
-51.3048176174
 10
-12.651137402
 20
-51.329171168
 10
-12.6289781928
 20
-51.3513108533
 10
-12.6046062559
 20
-51.3709912344
 10
-12.5782909782
 20
-51.3879941957
 10
-12.5503157316
 20
-51.4021390033
 10
-12.5209775444
 20
-51.4132775335
 10
-12.4905914221
 20
-51.421286308
 10
-12.4594885829
 20
-51.4260712078
 10
-12.4559078295
 20
-51.4255877116
  0
LINE
  5
29B
100
AcDbEntity
  8
RACCORDO
100
AcDbLine
 62
250
  6
CONTINUOUS
 10
-12.0634784051
 20
-5.1477722594
 11
-12.0388217304
 21
-5.7111145623
  0
LINE
  5
29C
100
AcDbEntity
  8
RACCORDO
100
AcDbLine
 62
250
  6
CONTINUOUS
 10
-12.860832081
 20
51.7583113705
 11
-12.8417601321
 21
51.2745935702
  0
LINE
  5
29D
100
AcDbEntity
  8
RACCORDO
100
AcDbLine
 62
250
  6
CONTINUOUS
 10
-12.0851048317
 20
-4.5489720232
 11
-12.0634784051
 21
-5.1477722594
  0
LINE
  5
29E
100
AcDbEntity
  8
RACCORDO
100
AcDbLine
 62
250
  6
CONTINUOUS
 10
-12.8781338692
 20
52.2669582673
 11
-12.860832081
 21
51.7583113705
  0
LWPOLYLINE
  5
29F
100
AcDbEntity
  8
RACCORDO
100
AcDbPolyline
 62
250
  6
CONTINUOUS
 90
4
 70
0
 10
-12.0947599198
 20
53.164316023
 10
-12.0872505247
 20
52.9203437918
 10
-12.079284985
 20
52.6811264395
 10
-12.0619854722
 20
52.218062013
  0
LINE
  5
2A0
100
AcDbEntity
  8
RACCORDO
100
AcDbLine
 62
250
  6
CONTINUOUS
 10
-12.8936654967
 20
52.8005342607
 11
-12.8781338692
 21
52.2669582673
  0
LINE
  5
2A1
100
AcDbEntity
  8
RACCORDO
100
AcDbLine
 62
250
  6
CONTINUOUS
 10
-12.1036447069
 20
-3.9193897464
 11
-12.0851048317
 21
-4.5489720232
  0
LINE
  5
2A2
100
AcDbEntity
  8
RACCORDO
100
AcDbLine
 62
250
  6
CONTINUOUS
 10
-12.8953531735
 20
-4.5383158946
 11
-12.8760671377
 21
-5.2003834512
  0
LINE
  5
2A3
100
AcDbEntity
  8
RACCORDO
100
AcDbLine
 62
250
  6
CONTINUOUS
 10
-12.9115401831
 20
-3.8488575357
 11
-12.8953531735
 21
-4.5383158946
  0
LINE
  5
2A4
100
AcDbEntity
  8
RACCORDO
100
AcDbLine
 62
250
  6
CONTINUOUS
 10
-12.1189010182
 20
-3.2638892237
 11
-12.1036447069
 21
-3.9193897464
  0
LINE
  5
2A5
100
AcDbEntity
  8
RACCORDO
100
AcDbLine
 62
250
  6
CONTINUOUS
 10
-12.9245920193
 20
-3.1337590743
 11
-12.9115401831
 21
-3.8488575357
  0
LINE
  5
2A6
100
AcDbEntity
  8
RACCORDO
100
AcDbLine
 62
250
  6
CONTINUOUS
 10
-12.1307420927
 20
-2.5876945139
 11
-12.1189010182
 21
-3.2638892237
  0
LWPOLYLINE
  5
2A7
100
AcDbEntity
  8
RACCORDO
100
AcDbPolyline
 62
250
  6
CONTINUOUS
 90
23
 70
0
 10
-12.0428628839
 20
51.7772651445
 10
-12.0427180874
 20
51.7661510738
 10
-12.0440512755
 20
51.7553327448
 10
-12.0468624482
 20
51.7448076397
 10
-12.0513297616
 20
51.7345733138
 10
-12.0572750596
 20
51.7246265146
 10
-12.064163874
 20
51.7149632412
 10
-12.0718910871
 20
51.7055811576
 10
-12.0805618166
 20
51.6964758209
 10
-12.0899569477
 20
51.6876400435
 10
-12.1000387568
 20
51.6791202217
 10
-12.1108449674
 20
51.6708608475
 10
-12.1222696353
 20
51.6627101947
 10
-12.1342448226
 20
51.6546940592
 10
-12.1468384672
 20
51.6467948275
 10
-12.160148439
 20
51.6388167305
 10
-12.1741991026
 20
51.6307611674
 10
-12.1889660933
 20
51.6226643906
 10
-12.2044741863
 20
51.614407594
 10
-12.2208603326
 20
51.6059697946
 10
-12.2379875812
 20
51.5974421701
 10
-12.2554698549
 20
51.5888854752
 10
-12.2734181369
 20
51.5802841972
  0
LWPOLYLINE
  5
2A8
100
AcDbEntity
  8
RACCORDO
100
AcDbPolyline
 62
250
  6
CONTINUOUS
 90
9
 70
0
 10
-14.793239315
 20
64.4396823179
 10
-14.7499768006
 20
60.0626817462
 10
-14.7124755879
 20
55.7799388259
 10
-14.6807356769
 20
51.5924081427
 10
-14.6551068424
 20
47.5012810597
 10
-14.6352393097
 20
43.5069993356
 10
-14.6200837542
 20
39.6092580771
 10
-14.6092904012
 20
35.8083337819
 10
-14.6032090255
 20
32.1050906994
  0
LWPOLYLINE
  5
2A9
100
AcDbEntity
  8
RACCORDO
100
AcDbPolyline
 62
250
  6
CONTINUOUS
 90
3
 70
0
 10
-12.9380292558
 20
-2.0257287646
 10
-12.934364093
 20
-2.4000233102
 10
-12.9245920193
 20
-3.1337590743
  0
LINE
  5
2AA
100
AcDbEntity
  8
RACCORDO
100
AcDbLine
 62
250
  6
CONTINUOUS
 10
-12.1458764492
 20
-1.2658146029
 11
-12.1307420927
 21
-2.5876945139
  0
LWPOLYLINE
  5
2AB
100
AcDbEntity
  8
RACCORDO
100
AcDbPolyline
 62
250
  6
CONTINUOUS
 90
9
 70
0
 10
-13.6588322251
 20
-60.8006344873
 10
-13.6752168199
 20
-57.2202476567
 10
-13.6896753968
 20
-53.6368354762
 10
-13.7022079558
 20
-50.0507758149
 10
-13.7128153863
 20
-46.4624487618
 10
-13.7214967988
 20
-42.8722307605
 10
-13.728249525
 20
-39.2804945595
 10
-13.7330726753
 20
-35.6876169486
 10
-13.7359671392
 20
-32.093978728
  0
LINE
  5
2AC
100
AcDbEntity
  8
RACCORDO
100
AcDbLine
 62
250
  6
CONTINUOUS
 10
-12.1494825194
 20
-0.5999219053
 11
-12.1458764492
 21
-1.2658146029
  0
LINE
  5
2AD
100
AcDbEntity
  8
RACCORDO
100
AcDbLine
 62
250
  6
CONTINUOUS
 10
-12.8936695846
 20
-52.8006692145
 11
-12.911187576
 21
-47.406516069
  0
LINE
  5
2AE
100
AcDbEntity
  8
RACCORDO
100
AcDbLine
 62
250
  6
CONTINUOUS
 10
-12.911187576
 20
-47.406516069
 11
-12.9243303947
 21
-42.0085179755
  0
LINE
  5
2AF
100
AcDbEntity
  8
RACCORDO
100
AcDbLine
 62
250
  6
CONTINUOUS
 10
-12.9243303947
 20
-42.0085179755
 11
-12.9330965952
 21
-36.6069587108
  0
LINE
  5
2B0
100
AcDbEntity
  8
RACCORDO
100
AcDbLine
 62
250
  6
CONTINUOUS
 10
-12.9432074903
 20
-0.6
 11
-12.9380292558
 21
-2.0257287646
  0
LINE
  5
2B1
100
AcDbEntity
  8
RACCORDO
100
AcDbLine
 62
250
  6
CONTINUOUS
 10
-12.9330965952
 20
-36.6069587108
 11
-12.9374803948
 21
-31.2029733823
  0
LINE
  5
2B2
100
AcDbEntity
  8
RACCORDO
100
AcDbLine
 62
250
  6
CONTINUOUS
 10
-14.6032090255
 20
32.1050906994
 11
-14.601839639
 21
-28.4999915985
  0
LINE
  5
2B3
100
AcDbEntity
  8
RACCORDO
100
AcDbLine
 62
250
  6
CONTINUOUS
 10
-13.7359671392
 20
-32.093978728
 11
-13.7369328836
 21
28.4999609513
  0
LINE
  5
2B4
100
AcDbEntity
  8
RACCORDO
100
AcDbLine
 62
250
  6
CONTINUOUS
 10
-12.9374803948
 20
-31.2029733823
 11
-12.9380292558
 21
-2.0257287646
  0
LINE
  5
2B5
100
AcDbEntity
  8
RACCORDO
100
AcDbLine
 62
7
  6
CONTINUOUS
 10
-12.7268900626
 20
51.1279864348
 11
-12.7268900626
 21
6.0
  0
LINE
  5
2B6
100
AcDbEntity
  8
RACCORDO
100
AcDbLine
 62
7
  6
CONTINUOUS
 10
-12.7268900626
 20
-6.0
 11
-12.7268900626
 21
-51.127986432
  0
LINE
  5
2B7
100
AcDbEntity
  8
RACCORDO
100
AcDbLine
 62
250
  6
CONTINUOUS
 10
-12.4279864349
 20
-51.4268900636
 11
-12.4279864348
 21
-51.4275752953
  0
LINE
  5
2B8
100
AcDbEntity
  8
RACCORDO
100
AcDbLine
 62
250
  6
CONTINUOUS
 10
-12.4279864339
 20
51.4268900646
 11
-12.4279864361
 21
51.4275752953
  0
LINE
  5
2B9
100
AcDbEntity
  8
RACCORDO
100
AcDbLine
 62
250
  6
CONTINUOUS
 10
-12.0388219959
 20
-5.7111145623
 11
-12.0388221518
 21
-6.0
  0
LINE
  5
2BA
100
AcDbEntity
  8
RACCORDO
100
AcDbLine
 62
250
  6
CONTINUOUS
 10
-12.0388219958
 20
5.7111145635
 11
-12.0388221486
 21
6.0
  0
LINE
  5
2BB
100
AcDbEntity
  8
RACCORDO
100
AcDbLine
 62
250
  6
CONTINUOUS
 10
-12.9380292558
 20
2.0257287646
 11
-12.9374803951
 21
31.202965174
  0
LWPOLYLINE
  5
2BC
100
AcDbEntity
  8
RACCORDO
100
AcDbPolyline
 62
250
  6
CONTINUOUS
 90
10
 70
0
 10
-14.6018396252
 20
-28.4999915985
 10
-14.6031991248
 20
-32.100959012
 10
-14.6092703304
 20
-35.8011051182
 10
-14.6200532421
 20
-39.5999666317
 10
-14.6351944238
 20
-43.4966788879
 10
-14.6550473115
 20
-47.4909649762
 10
-14.6806722136
 20
-51.5831292822
 10
-14.7124225663
 20
-55.7727278471
 10
-14.7499449335
 20
-60.0585653128
 10
-14.793239315
 20
-64.4396823179
  0
LWPOLYLINE
  5
2BD
100
AcDbEntity
  8
RACCORDO
100
AcDbPolyline
 62
250
  6
CONTINUOUS
 90
10
 70
0
 10
-13.736932915
 20
28.4999609513
 10
-13.7359671377
 20
32.0939798942
 10
-13.733072674
 20
35.6876174034
 10
-13.7282495239
 20
39.2804945409
 10
-13.7214968224
 20
42.8722245757
 10
-13.7128154345
 20
46.4624366541
 10
-13.7022079559
 20
50.0507758016
 10
-13.6896752517
 20
53.6368714594
 10
-13.6752164569
 20
57.2203375625
 10
-13.6588315713
 20
60.8007961819
  0
LINE
  5
2BE
100
AcDbEntity
  8
RACCORDO
100
AcDbLine
 62
250
  6
CONTINUOUS
 10
-12.9374803951
 20
31.202965174
 11
-12.9330966296
 21
36.6069299845
  0
LINE
  5
2BF
100
AcDbEntity
  8
RACCORDO
100
AcDbLine
 62
250
  6
CONTINUOUS
 10
-12.9330966296
 20
36.6069299845
 11
-12.9243308411
 21
42.0084641422
  0
LINE
  5
2C0
100
AcDbEntity
  8
RACCORDO
100
AcDbLine
 62
250
  6
CONTINUOUS
 10
-12.9243308411
 20
42.0084641422
 11
-12.9111868147
 21
47.406427266
  0
LINE
  5
2C1
100
AcDbEntity
  8
RACCORDO
100
AcDbLine
 62
250
  6
CONTINUOUS
 10
-12.9111868147
 20
47.406427266
 11
-12.8936654967
 21
52.8005342607
  0
LINE
  5
2C2
100
AcDbEntity
  8
RACCORDO
100
AcDbLine
 62
250
  6
CONTINUOUS
 10
-12.9414080197
 20
1.3376880745
 11
-12.9432074903
 21
-0.6
  0
LINE
  5
2C3
100
AcDbEntity
  8
RACCORDO
100
AcDbLine
 62
250
  6
CONTINUOUS
 10
-12.1486104081
 20
0.8281133989
 11
-12.1494820969
 21
-0.5999219053
  0
LINE
  5
2C4
100
AcDbEntity
  8
RACCORDO
100
AcDbLine
 62
250
  6
CONTINUOUS
 10
-12.9380292558
 20
2.0257287646
 11
-12.9414080197
 21
1.3376880745
  0
LINE
  5
2C5
100
AcDbEntity
  8
RACCORDO
100
AcDbLine
 62
250
  6
CONTINUOUS
 10
-12.1439448072
 20
1.4839643369
 11
-12.1486104081
 21
0.8281133989
  0
LINE
  5
2C6
100
AcDbEntity
  8
RACCORDO
100
AcDbLine
 62
250
  6
CONTINUOUS
 10
-12.9298850063
 20
2.7693674066
 11
-12.9380292558
 21
2.0257287646
  0
LINE
  5
2C7
100
AcDbEntity
  8
RACCORDO
100
AcDbLine
 62
250
  6
CONTINUOUS
 10
-12.1307420953
 20
2.5876943915
 11
-12.1439448072
 21
1.4839643369
  0
LWPOLYLINE
  5
2C8
100
AcDbEntity
  8
RACCORDO
100
AcDbPolyline
 62
250
  6
CONTINUOUS
 90
25
 70
0
 10
-12.0428628839
 20
-51.7772651445
 10
-12.0427033856
 20
-51.7661653859
 10
-12.0440231513
 20
-51.7553613593
 10
-12.0468221807
 20
-51.7448505218
 10
-12.0512802652
 20
-51.7346306736
 10
-12.0572176136
 20
-51.7246982613
 10
-12.0640948522
 20
-51.7150484817
 10
-12.0718047871
 20
-51.7056787436
 10
-12.0804546123
 20
-51.6965849038
 10
-12.0898265362
 20
-51.6877598407
 10
-12.0998842723
 20
-51.6792486527
 10
-12.1106641071
 20
-51.6709972154
 10
-12.1220571093
 20
-51.6628576585
 10
-12.1339923275
 20
-51.6548580783
 10
-12.1465407131
 20
-51.6469780161
 10
-12.1598061879
 20
-51.6390177845
 10
-12.1738076222
 20
-51.6309813321
 10
-12.1885261456
 20
-51.6229021267
 10
-12.2040090697
 20
-51.6146504268
 10
-12.2204004663
 20
-51.6062032557
 10
-12.2375562636
 20
-51.5976557316
 10
-12.2550915571
 20
-51.5890677266
 10
-12.2731271585
 20
-51.5804210305
 10
-12.2915422562
 20
-51.5718154509
 10
-12.3272074482
 20
-51.5553894552
  0
LINE
  5
2C9
100
AcDbEntity
  8
RACCORDO
100
AcDbLine
 62
250
  6
CONTINUOUS
 10
-12.9184730421
 20
3.493785384
 11
-12.9298850063
 21
2.7693674066
  0
LINE
  5
2CA
100
AcDbEntity
  8
RACCORDO
100
AcDbLine
 62
250
  6
CONTINUOUS
 10
-12.1189010118
 20
3.2638894423
 11
-12.1307420953
 21
2.5876943915
  0
LINE
  5
2CB
100
AcDbEntity
  8
RACCORDO
100
AcDbLine
 62
250
  6
CONTINUOUS
 10
-12.9038294721
 20
4.1972322148
 11
-12.9184730421
 21
3.493785384
  0
LWPOLYLINE
  5
2CC
100
AcDbEntity
  8
RACCORDO
100
AcDbPolyline
 62
250
  6
CONTINUOUS
 90
9
 70
0
 10
-12.893668613
 20
-52.8009427472
 10
-12.8986615503
 20
-53.022193049
 10
-12.9080081032
 20
-53.2429241281
 10
-12.9210296751
 20
-53.4631106908
 10
-12.9371011126
 20
-53.6842130586
 10
-12.9555819394
 20
-53.9047372037
 10
-12.9757600459
 20
-54.1202337509
 10
-12.9969523124
 20
-54.3296467429
 10
-13.0186930259
 20
-54.5340260995
  0
LINE
  5
2CD
100
AcDbEntity
  8
RACCORDO
100
AcDbLine
 62
250
  6
CONTINUOUS
 10
-12.1036446918
 20
3.9193903185
 11
-12.1189010118
 21
3.2638894423
  0
LINE
  5
2CE
100
AcDbEntity
  8
RACCORDO
100
AcDbLine
 62
250
  6
CONTINUOUS
 10
-12.8781387742
 20
-52.2671047365
 11
-12.8936695846
 21
-52.8006692145
  0
LWPOLYLINE
  5
2CF
100
AcDbEntity
  8
RACCORDO
100
AcDbPolyline
 62
250
  6
CONTINUOUS
 90
3
 70
0
 10
-12.8760666448
 20
5.2003905675
 10
-12.8860987313
 20
4.8727059715
 10
-12.9038294721
 20
4.1972322148
  0
LINE
  5
2D0
100
AcDbEntity
  8
RACCORDO
100
AcDbLine
 62
250
  6
CONTINUOUS
 10
-12.0872502537
 20
-52.9203360925
 11
-12.0947599194
 21
-53.1643160067
  0
LINE
  5
2D1
100
AcDbEntity
  8
RACCORDO
100
AcDbLine
 62
250
  6
CONTINUOUS
 10
-12.0851214696
 20
4.5489708965
 11
-12.1036446918
 21
3.9193903185
  0
LINE
  5
2D2
100
AcDbEntity
  8
RACCORDO
100
AcDbLine
 62
250
  6
CONTINUOUS
 10
-12.8608356424
 20
-51.7584132027
 11
-12.8781387742
 21
-52.2671047365
  0
LINE
  5
2D3
100
AcDbEntity
  8
RACCORDO
100
AcDbLine
 62
250
  6
CONTINUOUS
 10
-12.0634286698
 20
5.147770785
 11
-12.0851214696
 21
4.5489708965
  0
LINE
  5
2D4
100
AcDbEntity
  8
RACCORDO
100
AcDbLine
 62
250
  6
CONTINUOUS
 10
-12.8417601892
 20
-51.274594613
 11
-12.8608356424
 21
-51.7584132027
  0
LINE
  5
2D5
100
AcDbEntity
  8
RACCORDO
100
AcDbLine
 62
250
  6
CONTINUOUS
 10
-12.0385976759
 20
5.7111145635
 11
-12.0634286698
 21
5.147770785
  0
LWPOLYLINE
  5
2D6
100
AcDbEntity
  8
RACCORDO
100
AcDbPolyline
 62
250
  6
CONTINUOUS
 90
29
 70
0
 10
-12.8417601892
 20
-51.274594613
 10
-12.8407639716
 20
-51.2531933263
 10
-12.8397123683
 20
-51.2333439366
 10
-12.8386053791
 20
-51.2150464441
 10
-12.8374341185
 20
-51.1982845396
 10
-12.8362074721
 20
-51.1830745322
 10
-12.8349520967
 20
-51.1694653489
 10
-12.8336710965
 20
-51.1575856741
 10
-12.8323613673
 20
-51.1473068235
 10
-12.831040254
 20
-51.1382916706
 10
-12.8297164448
 20
-51.1305311024
 10
-12.8283812515
 20
-51.124034232
 10
-12.8270259544
 20
-51.1184912721
 10
-12.8256556722
 20
-51.1138488642
 10
-12.8242652861
 20
-51.1101603668
 10
-12.8228307203
 20
-51.1072760688
 10
-12.8213489806
 20
-51.1051439407
 10
-12.8198230612
 20
-51.1038160119
 10
-12.8182378691
 20
-51.10329866
 10
-12.8165809425
 20
-51.1036070748
 10
-12.8148647432
 20
-51.1047260664
 10
-12.8131115643
 20
-51.106616443
 10
-12.811311286
 20
-51.1093584044
 10
-12.8094740281
 20
-51.1128717508
 10
-12.807652443
 20
-51.1168766906
 10
-12.8058511732
 20
-51.1214101394
 10
-12.8040655762
 20
-51.1264351816
 10
-12.8023343766
 20
-51.1315612787
 10
-12.8006671528
 20
-51.1367549916
  0
LWPOLYLINE
  5
2D7
100
AcDbEntity
  8
RACCORDO
100
AcDbPolyline
 62
7
  6
CONTINUOUS
 90
13
 70
0
 10
-12.7268889593
 20
51.1279864352
 10
-12.7254964063
 20
51.1568890066
 10
-12.7183461242
 20
51.1990879435
 10
-12.7053088914
 20
51.2397645275
 10
-12.6866195386
 20
51.2781040153
 10
-12.6626957778
 20
51.31334901
 10
-12.6340216825
 20
51.344785129
 10
-12.6011726272
 20
51.3718012252
 10
-12.5648239195
 20
51.3938758211
 10
-12.5256935431
 20
51.4105447871
 10
-12.4845872989
 20
51.421513713
 10
-12.4423103902
 20
51.4265391219
 10
-12.4279864335
 20
51.4268770835
  0
LINE
  5
2D8
100
AcDbEntity
  8
RACCORDO
100
AcDbLine
 62
7
  6
CONTINUOUS
 10
-12.8760666448
 20
5.2003905675
 11
-12.8636879863
 21
5.3766164319
  0
LWPOLYLINE
  5
2D9
100
AcDbEntity
  8
RACCORDO
100
AcDbPolyline
 62
7
  6
CONTINUOUS
 90
13
 70
0
 10
-12.8636879863
 20
5.3766164319
 10
-12.851517861
 20
5.536993405
 10
-12.8455119111
 20
5.6112967971
 10
-12.8395343635
 20
5.6801237286
 10
-12.8335744349
 20
5.7434840793
 10
-12.8276429086
 20
5.8013679694
 10
-12.821750229
 20
5.8523480009
 10
-12.8158804101
 20
5.8963332769
 10
-12.8100494379
 20
5.9334146944
 10
-12.8043157146
 20
5.9624375462
 10
-12.7986987077
 20
5.9830169299
 10
-12.7931789497
 20
5.9955377478
 10
-12.7877564407
 20
6.0
  0
LWPOLYLINE
  5
2DA
100
AcDbEntity
  8
RACCORDO
100
AcDbPolyline
 62
7
  6
CONTINUOUS
 90
11
 70
0
 10
-12.7877564407
 20
-6.0
 10
-12.7931210457
 20
-5.9956546288
 10
-12.7985842359
 20
-5.9833804166
 10
-12.8041460115
 20
-5.9631773632
 10
-12.8098213439
 20
-5.9347280855
 10
-12.8155952616
 20
-5.8983499667
 10
-12.8214228503
 20
-5.8549951562
 10
-12.827292162
 20
-5.8045585123
 10
-12.8332151447
 20
-5.7471451767
 10
-12.8391827275
 20
-5.6840227232
 10
-12.8451859439
 20
-5.6151524995
  0
LWPOLYLINE
  5
2DB
100
AcDbEntity
  8
RACCORDO
100
AcDbPolyline
 62
250
  6
CONTINUOUS
 90
22
 70
0
 10
-12.8760660891
 20
-5.2001558491
 10
-12.866710385
 20
-5.2407857923
 10
-12.8510614918
 20
-5.2798118139
 10
-12.8297935363
 20
-5.3176418684
 10
-12.8036090586
 20
-5.3551903541
 10
-12.7731805951
 20
-5.3922054618
 10
-12.7390698973
 20
-5.42734831
 10
-12.7019385691
 20
-5.4607282935
 10
-12.6622853908
 20
-5.4927781984
 10
-12.6202233537
 20
-5.5227123954
 10
-12.5760903144
 20
-5.5507344403
 10
-12.5303469428
 20
-5.5770706949
 10
-12.4831120456
 20
-5.6010335037
 10
-12.4346136926
 20
-5.6227193077
 10
-12.3852504473
 20
-5.6423670798
 10
-12.3353320282
 20
-5.6595211114
 10
-12.2851412357
 20
-5.6741313397
 10
-12.2349413805
 20
-5.6864119456
 10
-12.1849878752
 20
-5.6962715953
 10
-12.1355132878
 20
-5.703674261
 10
-12.0867267819
 20
-5.7086392858
 10
-12.038821609
 20
-5.7111181391
  0
LWPOLYLINE
  5
2DC
100
AcDbEntity
  8
RACCORDO
100
AcDbPolyline
 62
250
  6
CONTINUOUS
 90
8
 70
0
 10
-13.0261233674
 20
54.600832106
 10
-13.0004300375
 20
54.3634090843
 10
-12.9755135498
 20
54.1176616168
 10
-12.9521765492
 20
53.8644857609
 10
-12.9310801
 20
53.6059643307
 10
-12.9133538268
 20
53.3428044762
 10
-12.9004143139
 20
53.0743439925
 10
-12.89366519
 20
52.8006266418
  0
LINE
  5
2DD
100
AcDbEntity
  8
RACCORDO
100
AcDbLine
 62
250
  6
CONTINUOUS
 10
-13.6588322244
 20
60.8006341709
 11
-13.4434477411
 21
58.7236693113
  0
LWPOLYLINE
  5
2DE
100
AcDbEntity
  8
RACCORDO
100
AcDbPolyline
 62
250
  6
CONTINUOUS
 90
4
 70
0
 10
-13.1894311553
 20
56.0746006991
 10
-13.1699928141
 20
55.8817769211
 10
-13.1487969017
 20
55.683316955
 10
-13.0261233674
 20
54.600832106
  0
LINE
  5
2DF
100
AcDbEntity
  8
RACCORDO
100
AcDbLine
 62
250
  6
CONTINUOUS
 10
-13.4434477411
 20
58.7236693113
 11
-13.3425061517
 21
57.7109728883
  0
LWPOLYLINE
  5
2E0
100
AcDbEntity
  8
RACCORDO
100
AcDbPolyline
 62
250
  6
CONTINUOUS
 90
3
 70
0
 10
-13.3425061517
 20
57.7109728883
 10
-13.2497876379
 20
56.7361210116
 10
-13.1894311553
 20
56.0746006991
  0
LINE
  5
2E1
100
AcDbEntity
  8
RACCORDO
100
AcDbLine
 62
250
  6
CONTINUOUS
 10
-12.0619854722
 20
52.218062013
 11
-12.0428613812
 21
51.7772651445
  0
LINE
  5
2E2
100
AcDbEntity
  8
RACCORDO
100
AcDbLine
 62
250
  6
CONTINUOUS
 10
-12.0708628171
 20
-52.446928774
 11
-12.0872502537
 21
-52.9203360925
  0
LWPOLYLINE
  5
2E3
100
AcDbEntity
  8
RACCORDO
100
AcDbPolyline
 62
250
  6
CONTINUOUS
 90
3
 70
0
 10
-12.0428613993
 20
-51.7772651445
 10
-12.0526512403
 20
-51.9947436589
 10
-12.0708628171
 20
-52.446928774
  0
LWPOLYLINE
  5
2E4
100
AcDbEntity
  8
RACCORDO
100
AcDbPolyline
 62
250
  6
CONTINUOUS
 90
12
 70
0
 10
-12.0947599194
 20
-53.1643160067
 10
-12.1077078051
 20
-53.3693075744
 10
-12.1267461845
 20
-53.5740986628
 10
-12.1518750574
 20
-53.7784114824
 10
-12.18437601
 20
-53.983053159
 10
-12.2229674561
 20
-54.1867230506
 10
-12.2638046373
 20
-54.3859075611
 10
-12.3064606062
 20
-54.5793410379
 10
-12.35136231
 20
-54.7676988154
 10
-12.3959458326
 20
-54.9503199566
 10
-12.4397863649
 20
-55.1264206779
 10
-12.5252233958
 20
-55.4612304837
  0
LINE
  5
2E5
100
AcDbEntity
  8
RACCORDO
100
AcDbLine
 62
250
  6
CONTINUOUS
 10
-13.2504983139
 20
-56.7439536616
 11
-13.3441693055
 21
-57.7280057996
  0
LWPOLYLINE
  5
2E6
100
AcDbEntity
  8
RACCORDO
100
AcDbPolyline
 62
250
  6
CONTINUOUS
 90
3
 70
0
 10
-13.1773203836
 20
-55.9528530198
 10
-13.1927968562
 20
-56.1093151121
 10
-13.2504983139
 20
-56.7439536616
  0
LINE
  5
2E7
100
AcDbEntity
  8
RACCORDO
100
AcDbLine
 62
250
  6
CONTINUOUS
 10
-13.3441693055
 20
-57.7280057996
 11
-13.4451895437
 21
-58.7407913406
  0
LWPOLYLINE
  5
2E8
100
AcDbEntity
  8
RACCORDO
100
AcDbPolyline
 62
250
  6
CONTINUOUS
 90
3
 70
0
 10
-13.4451895437
 20
-58.7407913406
 10
-13.6046937467
 20
-60.2822724091
 10
-13.6588322249
 20
-60.8006341718
  0
LINE
  5
2E9
100
AcDbEntity
  8
RACCORDO
100
AcDbLine
 62
250
  6
CONTINUOUS
 10
-13.1427921449
 20
-55.6284752169
 11
-13.1773203836
 21
-55.9528530198
  0
LINE
  5
2EA
100
AcDbEntity
  8
RACCORDO
100
AcDbLine
 62
250
  6
CONTINUOUS
 10
-13.0186930259
 20
-54.5340260995
 11
-13.1427921449
 21
-55.6284752169
  0
LWPOLYLINE
  5
2EB
100
AcDbEntity
  8
RACCORDO
100
AcDbPolyline
 62
250
  6
CONTINUOUS
 90
13
 70
0
 10
-12.9380243979
 20
-2.0257287596
 10
-12.9264185081
 20
-2.0093425775
 10
-12.9022120539
 20
-1.9932185259
 10
-12.8657923208
 20
-1.9776146723
 10
-12.817742067
 20
-1.962780761
 10
-12.7588302245
 20
-1.9489542228
 10
-12.6899996156
 20
-1.9363563727
 10
-12.6123517888
 20
-1.9251888534
 10
-12.5271294708
 20
-1.9156304234
 10
-12.4356967455
 20
-1.907834095
 10
-12.3395170592
 20
-1.9019246654
 10
-12.24012977
 20
-1.897996726
 10
-12.139125628
 20
-1.8961131574
  0
LWPOLYLINE
  5
2EC
100
AcDbEntity
  8
RACCORDO
100
AcDbPolyline
 62
250
  6
CONTINUOUS
 90
22
 70
0
 10
12.0385957827
 20
-5.7111542335
 10
12.0876399191
 20
-5.708457164
 10
12.1372730117
 20
-5.7033568056
 10
12.187296652
 20
-5.6958682795
 10
12.2374176545
 20
-5.6859237259
 10
12.2874992808
 20
-5.6735335665
 10
12.3375466548
 20
-5.658820102
 10
12.3873709706
 20
-5.6415900972
 10
12.4366152476
 20
-5.6218734308
 10
12.4849920006
 20
-5.6001274095
 10
12.5321012314
 20
-5.576121935
 10
12.5777168162
 20
-5.549752597
 10
12.621741039
 20
-5.5216871842
 10
12.6637325257
 20
-5.4916803648
 10
12.7033197567
 20
-5.4595502457
 10
12.7403389738
 20
-5.4261221243
 10
12.7743135781
 20
-5.3909515747
 10
12.8045712692
 20
-5.3539395408
 10
12.8305024033
 20
-5.3164989106
 10
12.8514732261
 20
-5.2789145871
 10
12.8668644316
 20
-5.2402632222
 10
12.8760657053
 20
-5.2001585113
  0
LINE
  5
2ED
100
AcDbEntity
  8
RACCORDO
100
AcDbLine
 62
7
  6
CONTINUOUS
 10
-12.7877564451
 20
-6.0
 11
12.7877564453
 21
-6.0
  0
LINE
  5
2EE
100
AcDbEntity
  8
RACCORDO
100
AcDbLine
 62
250
  6
CONTINUOUS
 10
-12.0388217304
 20
-5.7111145623
 11
12.0385976764
 21
-5.7111145615
  0
LWPOLYLINE
  5
2EF
100
AcDbEntity
  8
RACCORDO
100
AcDbPolyline
 62
250
  6
CONTINUOUS
 90
13
 70
0
 10
-12.937966565
 20
2.0257287599
 10
-12.9263567323
 20
2.009343092
 10
-12.9021481657
 20
1.9932198161
 10
-12.8657282583
 20
1.9776169288
 10
-12.8176798124
 20
1.9627840991
 10
-12.758771714
 20
1.9489586731
 10
-12.6899466287
 20
1.9363618756
 10
-12.6123059166
 20
1.9251952705
 10
-12.5270920081
 20
1.9156375354
 10
-12.4356685227
 20
1.9078416019
 10
-12.339498447
 20
1.9019322088
 10
-12.240120724
 20
1.8980039056
 10
-12.1391256265
 20
1.8961195397
  0
LWPOLYLINE
  5
2F0
100
AcDbEntity
  8
0
100
AcDbPolyline
 62
7
  6
CONTINUOUS
 90
2
 70
0
 43
0.3500000006
 10
-3.3928571262
 20
87.5939310608
 10
-3.3928571262
 20
89.0939315186
  0
LWPOLYLINE
  5
2F1
100
AcDbEntity
  8
0
100
AcDbPolyline
 62
7
  6
CONTINUOUS
 90
13
 70
0
 43
0.3500000006
 10
-2.0357142191
 20
88.4510690002
 10
-2.0357142191
 20
89.7367849731
 10
-1.8214286013
 20
90.1653539429
 10
-1.3928570824
 20
90.5939319763
 10
-1.1785713937
 20
90.5939319763
 10
-0.7500000165
 20
90.1653539429
 10
-0.5357142924
 20
89.7367849731
 10
-0.5357142924
 20
88.4510690002
 10
-0.7500000165
 20
88.0225000305
 10
-1.1785713937
 20
87.5939310608
 10
-1.3928570824
 20
87.5939310608
 10
-1.8214286013
 20
88.0225000305
 10
-2.0357142191
 20
88.4510690002
  0
LINE
  5
2F2
100
AcDbEntity
  8
RACCORDO
100
AcDbLine
 62
250
  6
CONTINUOUS
 10
-5.5666711787
 20
-70.8117053369
 11
-5.5665795826
 21
-70.81006446
  0
LINE
  5
2F3
100
AcDbEntity
  8
RACCORDO
100
AcDbLine
 62
250
  6
CONTINUOUS
 10
-15.4204131396
 20
-69.7703154236
 11
-15.4201596294
 21
-69.7686916627
  0
LINE
  5
2F4
100
AcDbEntity
  8
RACCORDO
100
AcDbLine
 62
250
  6
CONTINUOUS
 10
-15.4201596362
 20
-69.7686916617
 11
-15.3894657845
 21
-69.5722025831
  0
LINE
  5
2F5
100
AcDbEntity
  8
RACCORDO
100
AcDbLine
 62
250
  6
CONTINUOUS
 10
-14.545725962
 20
-64.7372406482
 11
-14.7399938024
 21
-65.9399460292
  0
LINE
  5
2F6
100
AcDbEntity
  8
RACCORDO
100
AcDbLine
 62
250
  6
CONTINUOUS
 10
-14.7399938024
 20
-65.9399460292
 11
-14.9242705666
 21
-67.0515109628
  0
LINE
  5
2F7
100
AcDbEntity
  8
RACCORDO
100
AcDbLine
 62
250
  6
CONTINUOUS
 10
-14.9242705666
 20
-67.0515109628
 11
-15.0368548831
 21
-67.7134060913
  0
LINE
  5
2F8
100
AcDbEntity
  8
RACCORDO
100
AcDbLine
 62
250
  6
CONTINUOUS
 10
-15.0368548831
 20
-67.7134060913
 11
-15.1381863301
 21
-68.2940633661
  0
LWPOLYLINE
  5
2F9
100
AcDbEntity
  8
RACCORDO
100
AcDbPolyline
 62
250
  6
CONTINUOUS
 90
8
 70
0
 10
-15.1381863301
 20
-68.2940633661
 10
-15.2259431768
 20
-68.7801786261
 10
-15.2640893166
 20
-68.9842104176
 10
-15.2981147169
 20
-69.1606138801
 10
-15.3278241986
 20
-69.3083771125
 10
-15.3530473396
 20
-69.4266525025
 10
-15.3736394527
 20
-69.5147615885
 10
-15.3894824155
 20
-69.5721989515
  0
LWPOLYLINE
  5
2FA
100
AcDbEntity
  8
RACCORDO
100
AcDbPolyline
 62
250
  6
CONTINUOUS
 90
5
 70
0
 10
-12.7345938832
 20
-56.3557907514
 10
-12.8245171767
 20
-56.8287574853
 10
-12.9181057938
 20
-57.308141978
 10
-13.0153597344
 20
-57.7938310924
 10
-13.116909478
 20
-58.2868986982
  0
LINE
  5
2FB
100
AcDbEntity
  8
RACCORDO
100
AcDbLine
 62
250
  6
CONTINUOUS
 10
-13.116909478
 20
-58.2868986982
 11
-13.3291134974
 21
-59.2874512391
  0
LINE
  5
2FC
100
AcDbEntity
  8
RACCORDO
100
AcDbLine
 62
250
  6
CONTINUOUS
 10
13.2185818029
 20
58.7692467306
 11
13.4348707216
 21
59.7789334104
  0
LWPOLYLINE
  5
2FD
100
AcDbEntity
  8
RACCORDO
100
AcDbPolyline
 62
250
  6
CONTINUOUS
 90
3
 70
0
 10
-13.3291134974
 20
-59.2874512391
 10
-13.5471520975
 20
-60.2943125088
 10
-13.6588322249
 20
-60.8006344873
  0
LINE
  5
2FE
100
AcDbEntity
  8
RACCORDO
100
AcDbLine
 62
250
  6
CONTINUOUS
 10
13.4348707216
 20
59.7789334104
 11
13.6588322244
 21
60.8006344873
  0
LWPOLYLINE
  5
2FF
100
AcDbEntity
  8
RACCORDO
100
AcDbPolyline
 62
250
  6
CONTINUOUS
 90
6
 70
0
 10
12.3685520838
 20
54.8419374824
 10
12.5720110531
 20
55.6463956351
 10
12.6174992625
 20
55.8313911832
 10
12.6595042957
 20
56.0117613613
 10
12.6985354181
 20
56.1865986887
 10
12.7345926297
 20
56.3557843792
  0
LINE
  5
300
100
AcDbEntity
  8
RACCORDO
100
AcDbLine
 62
250
  6
CONTINUOUS
 10
12.9432074903
 20
-0.6
 11
-12.9432074903
 21
-0.6
  0
LINE
  5
301
100
AcDbEntity
  8
RACCORDO
100
AcDbLine
 62
250
  6
CONTINUOUS
 10
12.9432074903
 20
0.6
 11
-12.9432074903
 21
0.6
  0
LWPOLYLINE
  5
302
100
AcDbEntity
  8
RACCORDO
100
AcDbPolyline
 62
250
  6
CONTINUOUS
 90
11
 70
0
 10
12.4351714254
 20
-55.1080657904
 10
12.3914225895
 20
-54.9320766513
 10
12.3472736912
 20
-54.7506729108
 10
12.3030585918
 20
-54.5643923277
 10
12.2611349215
 20
-54.373479734
 10
12.2210910854
 20
-54.1775127361
 10
12.1833386785
 20
-53.9774632066
 10
12.1514701169
 20
-53.7756477175
 10
12.1266828725
 20
-53.5729962998
 10
12.1077794733
 20
-53.3691181674
 10
12.0947599194
 20
-53.1643160067
  0
LINE
  5
303
100
AcDbEntity
  8
RACCORDO
100
AcDbLine
 62
250
  6
CONTINUOUS
 10
-13.6588675211
 20
60.8007961821
 11
-13.4348785767
 21
59.7789694752
  0
LINE
  5
304
100
AcDbEntity
  8
RACCORDO
100
AcDbLine
 62
250
  6
CONTINUOUS
 10
13.6588581549
 20
-60.8007532605
 11
13.4372516309
 21
-59.789893995
  0
LWPOLYLINE
  5
305
100
AcDbEntity
  8
RACCORDO
100
AcDbPolyline
 62
250
  6
CONTINUOUS
 90
5
 70
0
 10
-12.7345927018
 20
56.3557847019
 10
-12.6980507266
 20
56.1845380834
 10
-12.6585288561
 20
56.0076738923
 10
-12.6160270904
 20
55.8253142812
 10
-12.5699663512
 20
55.6381650422
  0
LWPOLYLINE
  5
306
100
AcDbEntity
  8
RACCORDO
100
AcDbPolyline
 62
250
  6
CONTINUOUS
 90
7
 70
0
 10
-13.4348785767
 20
59.7789694752
 10
-13.2185792044
 20
58.7692347791
 10
-13.1132302403
 20
58.2691017101
 10
-13.0119582235
 20
57.7771316254
 10
-12.9154260936
 20
57.2949011227
 10
-12.822970911
 20
56.8210835797
 10
-12.7345926756
 20
56.3557847019
  0
LWPOLYLINE
  5
307
100
AcDbEntity
  8
RACCORDO
100
AcDbPolyline
 62
250
  6
CONTINUOUS
 90
7
 70
0
 10
13.4372516309
 20
-59.789893995
 10
13.2221226417
 20
-58.7860065717
 10
13.1169085318
 20
-58.2868943517
 10
13.0153597654
 20
-57.7938312565
 10
12.9181058685
 20
-57.3081423672
 10
12.8245173151
 20
-56.8287581984
 10
12.7345941051
 20
-56.3557918868
  0
LWPOLYLINE
  5
308
100
AcDbEntity
  8
RACCORDO
100
AcDbPolyline
 62
250
  6
CONTINUOUS
 90
7
 70
0
 10
-15.2259412698
 20
68.7801666275
 10
-15.2640872889
 20
68.9841976203
 10
-15.298112577
 20
69.1606003337
 10
-15.3278219552
 20
69.3083628702
 10
-15.3530450019
 20
69.4266376207
 10
-15.3736370302
 20
69.5147461269
 10
-15.3894799183
 20
69.5721829727
  0
LINE
  5
309
100
AcDbEntity
  8
RACCORDO
100
AcDbLine
 62
250
  6
CONTINUOUS
 10
-15.138184688
 20
68.2940530985
 11
-15.2259412698
 21
68.7801666275
  0
LINE
  5
30A
100
AcDbEntity
  8
RACCORDO
100
AcDbLine
 62
250
  6
CONTINUOUS
 10
-15.0368535336
 20
67.7133977068
 11
-15.138184688
 21
68.2940530985
  0
LINE
  5
30B
100
AcDbEntity
  8
RACCORDO
100
AcDbLine
 62
250
  6
CONTINUOUS
 10
-14.864555336
 20
66.6947696106
 11
-15.0368535336
 21
67.7133977068
  0
LINE
  5
30C
100
AcDbEntity
  8
RACCORDO
100
AcDbLine
 62
250
  6
CONTINUOUS
 10
-14.6758599342
 20
65.5461808618
 11
-14.864555336
 21
66.6947696106
  0
LINE
  5
30D
100
AcDbEntity
  8
RACCORDO
100
AcDbLine
 62
250
  6
CONTINUOUS
 10
-14.545725962
 20
64.7372406395
 11
-14.6758599342
 21
65.5461808618
  0
LINE
  5
30E
100
AcDbEntity
  8
RACCORDO
100
AcDbLine
 62
250
  6
CONTINUOUS
 10
-15.4201596362
 20
69.7686916617
 11
-15.3890280183
 21
69.572270956
  0
LINE
  5
30F
100
AcDbEntity
  8
RACCORDO
100
AcDbLine
 62
250
  6
CONTINUOUS
 10
5.5666711781
 20
70.8117053369
 11
5.566579582
 21
70.8100644601
  0
LWPOLYLINE
  5
310
100
AcDbEntity
  8
RACCORDO
100
AcDbPolyline
 62
250
  6
CONTINUOUS
 90
10
 70
0
 10
12.4813238482
 20
51.4809127086
 10
12.4814813244
 20
51.482188435
 10
12.4802338899
 20
51.4839161559
 10
12.4775815446
 20
51.4860710257
 10
12.4733663332
 20
51.4886320612
 10
12.467746211
 20
51.4915724589
 10
12.4611950447
 20
51.4948540835
 10
12.4538595447
 20
51.4984164349
 10
12.4455930006
 20
51.502257572
 10
12.4264493502
 20
51.5109791207
  0
LINE
  5
311
100
AcDbEntity
  8
RACCORDO
100
AcDbLine
 62
250
  6
CONTINUOUS
 10
15.4201596362
 20
69.7686916617
 11
15.3894657845
 21
69.5722025831
  0
LINE
  5
312
100
AcDbEntity
  8
RACCORDO
100
AcDbLine
 62
250
  6
CONTINUOUS
 10
15.4204131396
 20
69.7703154236
 11
15.4201596294
 21
69.7686916627
  0
LINE
  5
313
100
AcDbEntity
  8
RACCORDO
100
AcDbLine
 62
250
  6
CONTINUOUS
 10
14.545725962
 20
64.7372406482
 11
14.7399938024
 21
65.9399460292
  0
LINE
  5
314
100
AcDbEntity
  8
RACCORDO
100
AcDbLine
 62
250
  6
CONTINUOUS
 10
14.7399938024
 20
65.9399460292
 11
14.9242705666
 21
67.0515109628
  0
LINE
  5
315
100
AcDbEntity
  8
RACCORDO
100
AcDbLine
 62
250
  6
CONTINUOUS
 10
14.9242705666
 20
67.0515109628
 11
15.0368548831
 21
67.7134060913
  0
LINE
  5
316
100
AcDbEntity
  8
RACCORDO
100
AcDbLine
 62
250
  6
CONTINUOUS
 10
15.0368548831
 20
67.7134060913
 11
15.1381863301
 21
68.2940633661
  0
LWPOLYLINE
  5
317
100
AcDbEntity
  8
RACCORDO
100
AcDbPolyline
 62
250
  6
CONTINUOUS
 90
8
 70
0
 10
15.1381863301
 20
68.2940633661
 10
15.2259431768
 20
68.7801786261
 10
15.2640893166
 20
68.9842104176
 10
15.2981147169
 20
69.1606138801
 10
15.3278241986
 20
69.3083771125
 10
15.3530473396
 20
69.4266525025
 10
15.3736394527
 20
69.5147615885
 10
15.3894824155
 20
69.5721989515
  0
LWPOLYLINE
  5
318
100
AcDbEntity
  8
RACCORDO
100
AcDbPolyline
 62
250
  6
CONTINUOUS
 90
6
 70
0
 10
12.7345926125
 20
56.3557843792
 10
12.8229708668
 20
56.8210833415
 10
12.9154260639
 20
57.2949009529
 10
13.0119582039
 20
57.7771315077
 10
13.113231532
 20
58.2691076369
 10
13.2185818029
 20
58.7692467306
  0
LWPOLYLINE
  5
319
100
AcDbEntity
  8
RACCORDO
100
AcDbPolyline
 62
250
  6
CONTINUOUS
 90
5
 70
0
 10
-12.6037980335
 20
-55.7749374868
 10
-12.6400319179
 20
-55.9254396492
 10
-12.6738022276
 20
-56.0727531375
 10
-12.7053229384
 20
-56.2162250846
 10
-12.7345940503
 20
-56.3557907514
  0
LINE
  5
31A
100
AcDbEntity
  8
RACCORDO
100
AcDbLine
 62
250
  6
CONTINUOUS
 10
-12.5252233958
 20
-55.4612304837
 11
-12.6037980335
 21
-55.7749374868
  0
LINE
  5
31B
100
AcDbEntity
  8
RACCORDO
100
AcDbLine
 62
250
  6
CONTINUOUS
 10
12.0388217302
 20
5.7111145642
 11
-12.0385976759
 21
5.7111145635
  0
LINE
  5
31C
100
AcDbEntity
  8
RACCORDO
100
AcDbLine
 62
7
  6
CONTINUOUS
 10
12.7877564451
 20
6.0
 11
-12.7877564453
 21
6.0
  0
LWPOLYLINE
  5
31D
100
AcDbEntity
  8
RACCORDO
100
AcDbPolyline
 62
250
  6
CONTINUOUS
 90
9
 70
0
 10
-12.5699663512
 20
55.6381650422
 10
-12.365570313
 20
54.8295495892
 10
-12.3140738108
 20
54.6103585326
 10
-12.2633919829
 20
54.3833952234
 10
-12.2143710375
 20
54.1497845006
 10
-12.1724531417
 20
53.9104627413
 10
-12.1394523514
 20
53.6661117122
 10
-12.1135546108
 20
53.4171771191
 10
-12.0947599198
 20
53.164316023
  0
LWPOLYLINE
  5
31E
100
AcDbEntity
  8
RACCORDO
100
AcDbPolyline
 62
250
  6
CONTINUOUS
 90
7
 70
0
 10
12.7345943019
 20
-56.3557918868
 10
12.7046541576
 20
-56.2132804742
 10
12.6724580806
 20
-56.066958487
 10
12.638006071
 20
-55.9168935799
 10
12.601020234
 20
-55.7635695014
 10
12.5617784643
 20
-55.6066623732
 10
12.4351714254
 20
-55.1080657904
  0
LWPOLYLINE
  5
31F
100
AcDbEntity
  8
RACCORDO
100
AcDbPolyline
 62
250
  6
CONTINUOUS
 90
7
 70
0
 10
15.2259412698
 20
-68.7801666275
 10
15.2640872889
 20
-68.9841976203
 10
15.298112577
 20
-69.1606003337
 10
15.3278219552
 20
-69.3083628702
 10
15.3530450019
 20
-69.4266376207
 10
15.3736370302
 20
-69.5147461269
 10
15.3894799183
 20
-69.5721829727
  0
LINE
  5
320
100
AcDbEntity
  8
RACCORDO
100
AcDbLine
 62
250
  6
CONTINUOUS
 10
15.138184688
 20
-68.2940530985
 11
15.2259412698
 21
-68.7801666275
  0
LINE
  5
321
100
AcDbEntity
  8
RACCORDO
100
AcDbLine
 62
250
  6
CONTINUOUS
 10
15.0368535336
 20
-67.7133977068
 11
15.138184688
 21
-68.2940530985
  0
LINE
  5
322
100
AcDbEntity
  8
RACCORDO
100
AcDbLine
 62
250
  6
CONTINUOUS
 10
14.864555336
 20
-66.6947696106
 11
15.0368535336
 21
-67.7133977068
  0
LINE
  5
323
100
AcDbEntity
  8
RACCORDO
100
AcDbLine
 62
250
  6
CONTINUOUS
 10
14.6758599342
 20
-65.5461808618
 11
14.864555336
 21
-66.6947696106
  0
LINE
  5
324
100
AcDbEntity
  8
RACCORDO
100
AcDbLine
 62
250
  6
CONTINUOUS
 10
14.545725962
 20
-64.7372406395
 11
14.6758599342
 21
-65.5461808618
  0
LINE
  5
325
100
AcDbEntity
  8
RACCORDO
100
AcDbLine
 62
250
  6
CONTINUOUS
 10
15.4201596362
 20
-69.7686916617
 11
15.3890280183
 21
-69.572270956
  0
LINE
  5
326
100
AcDbEntity
  8
RACCORDO
100
AcDbLine
 62
250
  6
CONTINUOUS
 10
13.6588322249
 20
-60.8006341718
 11
13.4451895569
 21
-58.7407914792
  0
LWPOLYLINE
  5
327
100
AcDbEntity
  8
RACCORDO
100
AcDbPolyline
 62
250
  6
CONTINUOUS
 90
3
 70
0
 10
13.1924781997
 20
-56.1060957965
 10
13.1766687753
 20
-55.9465295695
 10
13.1414213871
 20
-55.6161017113
  0
LINE
  5
328
100
AcDbEntity
  8
RACCORDO
100
AcDbLine
 62
250
  6
CONTINUOUS
 10
13.4451895569
 20
-58.7407914792
 11
13.3441693144
 21
-57.7280059012
  0
LWPOLYLINE
  5
329
100
AcDbEntity
  8
RACCORDO
100
AcDbPolyline
 62
250
  6
CONTINUOUS
 90
3
 70
0
 10
13.3441693144
 20
-57.7280059012
 10
13.2504983172
 20
-56.7439537031
 10
13.1924781997
 20
-56.1060957965
  0
LINE
  5
32A
100
AcDbEntity
  8
RACCORDO
100
AcDbLine
 62
250
  6
CONTINUOUS
 10
12.0619850594
 20
-52.2180508237
 11
12.0428613988
 21
-51.7772651445
  0
LINE
  5
32B
100
AcDbEntity
  8
RACCORDO
100
AcDbLine
 62
250
  6
CONTINUOUS
 10
12.8608318683
 20
-51.7583047747
 11
12.8417601904
 21
-51.2745946692
  0
LINE
  5
32C
100
AcDbEntity
  8
RACCORDO
100
AcDbLine
 62
250
  6
CONTINUOUS
 10
12.0792845662
 20
-52.681114732
 11
12.0619850594
 21
-52.2180508237
  0
LINE
  5
32D
100
AcDbEntity
  8
RACCORDO
100
AcDbLine
 62
250
  6
CONTINUOUS
 10
12.8781329829
 20
-52.2669297091
 11
12.8608318683
 21
-51.7583047747
  0
LINE
  5
32E
100
AcDbEntity
  8
RACCORDO
100
AcDbLine
 62
250
  6
CONTINUOUS
 10
12.0947599194
 20
-53.1643160067
 11
12.0792845662
 21
-52.681114732
  0
LINE
  5
32F
100
AcDbEntity
  8
RACCORDO
100
AcDbLine
 62
250
  6
CONTINUOUS
 10
12.8936635342
 20
-52.8004694724
 11
12.8781329829
 21
-52.2669297091
  0
LWPOLYLINE
  5
330
100
AcDbEntity
  8
RACCORDO
100
AcDbPolyline
 62
250
  6
CONTINUOUS
 90
23
 70
0
 10
12.0428628839
 20
-51.7772651445
 10
12.0427180874
 20
-51.7661510738
 10
12.0440512755
 20
-51.7553327448
 10
12.0468624482
 20
-51.7448076397
 10
12.0513297616
 20
-51.7345733138
 10
12.0572750596
 20
-51.7246265146
 10
12.064163874
 20
-51.7149632412
 10
12.0718910871
 20
-51.7055811576
 10
12.0805618166
 20
-51.6964758209
 10
12.0899569477
 20
-51.6876400435
 10
12.1000387568
 20
-51.6791202217
 10
12.1108449674
 20
-51.6708608475
 10
12.1222696353
 20
-51.6627101947
 10
12.1342448226
 20
-51.6546940592
 10
12.1468384672
 20
-51.6467948275
 10
12.160148439
 20
-51.6388167305
 10
12.1741991026
 20
-51.6307611674
 10
12.1889660933
 20
-51.6226643906
 10
12.2044741863
 20
-51.614407594
 10
12.2208603326
 20
-51.6059697946
 10
12.2379875812
 20
-51.5974421701
 10
12.2554698549
 20
-51.5888854752
 10
12.2734181369
 20
-51.5802841972
  0
LINE
  5
331
100
AcDbEntity
  8
RACCORDO
100
AcDbLine
 62
250
  6
CONTINUOUS
 10
12.886123785
 20
52.5307134949
 11
12.9004691687
 21
53.0757941576
  0
LINE
  5
332
100
AcDbEntity
  8
RACCORDO
100
AcDbLine
 62
250
  6
CONTINUOUS
 10
12.8697092585
 20
52.0096659588
 11
12.886123785
 21
52.5307134949
  0
LINE
  5
333
100
AcDbEntity
  8
RACCORDO
100
AcDbLine
 62
250
  6
CONTINUOUS
 10
12.0792849718
 20
52.6811260823
 11
12.0947599198
 21
53.164316023
  0
LINE
  5
334
100
AcDbEntity
  8
RACCORDO
100
AcDbLine
 62
250
  6
CONTINUOUS
 10
12.0619854591
 20
52.2180616715
 11
12.0792849718
 21
52.6811260823
  0
LWPOLYLINE
  5
335
100
AcDbEntity
  8
RACCORDO
100
AcDbPolyline
 62
250
  6
CONTINUOUS
 90
3
 70
0
 10
12.8417601311
 20
51.274593516
 10
12.8515201519
 20
51.5134178154
 10
12.8697092585
 20
52.0096659588
  0
LINE
  5
336
100
AcDbEntity
  8
RACCORDO
100
AcDbLine
 62
250
  6
CONTINUOUS
 10
12.0428613817
 20
51.7772651445
 11
12.0619854591
 21
52.2180616715
  0
LWPOLYLINE
  5
337
100
AcDbEntity
  8
RACCORDO
100
AcDbPolyline
 62
250
  6
CONTINUOUS
 90
29
 70
0
 10
12.8417601311
 20
51.274593516
 10
12.8407639393
 20
51.2531927168
 10
12.8397123554
 20
51.2333436929
 10
12.8386053791
 20
51.2150464441
 10
12.8374341228
 20
51.1982846209
 10
12.8362074742
 20
51.1830745728
 10
12.8349520967
 20
51.1694653489
 10
12.8336710965
 20
51.1575856741
 10
12.8323613673
 20
51.1473068235
 10
12.831040254
 20
51.1382916706
 10
12.8297164448
 20
51.1305311024
 10
12.8283812515
 20
51.124034232
 10
12.8270259544
 20
51.1184912721
 10
12.8256556722
 20
51.1138488642
 10
12.8242652861
 20
51.1101603668
 10
12.8228307203
 20
51.1072760688
 10
12.8213489806
 20
51.1051439407
 10
12.8198230612
 20
51.1038160119
 10
12.8182378691
 20
51.10329866
 10
12.8165809425
 20
51.1036070748
 10
12.8148647432
 20
51.1047260664
 10
12.8131115643
 20
51.106616443
 10
12.811311286
 20
51.1093584044
 10
12.8094740281
 20
51.1128717508
 10
12.807652443
 20
51.1168766906
 10
12.8058511732
 20
51.1214101394
 10
12.8040655762
 20
51.1264351816
 10
12.8023343766
 20
51.1315612787
 10
12.8006671528
 20
51.1367549916
  0
LWPOLYLINE
  5
338
100
AcDbEntity
  8
RACCORDO
100
AcDbPolyline
 62
250
  6
CONTINUOUS
 90
6
 70
0
 10
12.9004691687
 20
53.0757941576
 10
12.9135378303
 20
53.3459593824
 10
12.9314621697
 20
53.6110846877
 10
12.9528445114
 20
53.8721865114
 10
12.976531661
 20
54.128202503
 10
13.0017527734
 20
54.3759857242
  0
LWPOLYLINE
  5
339
100
AcDbEntity
  8
RACCORDO
100
AcDbPolyline
 62
250
  6
CONTINUOUS
 90
8
 70
0
 10
12.0947599198
 20
53.164316023
 10
12.1136897159
 20
53.4185233676
 10
12.1398480725
 20
53.6690385537
 10
12.1732349898
 20
53.9152058185
 10
12.2157658592
 20
54.1568910796
 10
12.2655252892
 20
54.3931065616
 10
12.3167671056
 20
54.6219598824
 10
12.3685520838
 20
54.8419374824
  0
LINE
  5
33A
100
AcDbEntity
  8
RACCORDO
100
AcDbLine
 62
250
  6
CONTINUOUS
 10
13.1896578331
 20
56.0768560809
 11
13.2950448479
 21
57.2191895743
  0
LINE
  5
33B
100
AcDbEntity
  8
RACCORDO
100
AcDbLine
 62
250
  6
CONTINUOUS
 10
13.2950448479
 20
57.2191895743
 11
13.3920730178
 21
58.2129989166
  0
LINE
  5
33C
100
AcDbEntity
  8
RACCORDO
100
AcDbLine
 62
250
  6
CONTINUOUS
 10
13.1704623254
 20
55.8862386972
 11
13.1896578331
 21
56.0768560809
  0
LINE
  5
33D
100
AcDbEntity
  8
RACCORDO
100
AcDbLine
 62
250
  6
CONTINUOUS
 10
13.3920730178
 20
58.2129989166
 11
13.4961115241
 21
59.2382654836
  0
LWPOLYLINE
  5
33E
100
AcDbEntity
  8
RACCORDO
100
AcDbPolyline
 62
250
  6
CONTINUOUS
 90
3
 70
0
 10
13.4961115241
 20
59.2382654836
 10
13.6040376077
 20
60.2759967699
 10
13.6588322244
 20
60.8006341709
  0
LINE
  5
33F
100
AcDbEntity
  8
RACCORDO
100
AcDbLine
 62
250
  6
CONTINUOUS
 10
13.127180262
 20
55.4885351587
 11
13.1704623254
 21
55.8862386972
  0
LINE
  5
340
100
AcDbEntity
  8
RACCORDO
100
AcDbLine
 62
250
  6
CONTINUOUS
 10
13.0017527734
 20
54.3759857242
 11
13.0533669047
 21
54.8442972649
  0
LINE
  5
341
100
AcDbEntity
  8
RACCORDO
100
AcDbLine
 62
250
  6
CONTINUOUS
 10
13.0533669047
 20
54.8442972649
 11
13.127180262
 21
55.4885351587
  0
LWPOLYLINE
  5
342
100
AcDbEntity
  8
RACCORDO
100
AcDbPolyline
 62
250
  6
CONTINUOUS
 90
13
 70
0
 10
12.9380243983
 20
2.0257287602
 10
12.9264184778
 20
2.0093425505
 10
12.9022119613
 20
1.9932184783
 10
12.8657921496
 20
1.9776146116
 10
12.817741817
 20
1.9627806951
 10
12.758829909
 20
1.9489541585
 10
12.6899992552
 20
1.9363563152
 10
12.6123514137
 20
1.9251888065
 10
12.5271291168
 20
1.9156303893
 10
12.4356964419
 20
1.9078340734
 10
12.3395168313
 20
1.9019246545
 10
12.2401296446
 20
1.8979967227
 10
12.139125628
 20
1.8961131576
  0
LWPOLYLINE
  5
343
100
AcDbEntity
  8
RACCORDO
100
AcDbPolyline
 62
250
  6
CONTINUOUS
 90
22
 70
0
 10
-12.0385957822
 20
5.7111542356
 10
-12.0876399188
 20
5.7084571669
 10
-12.1372730116
 20
5.7033568091
 10
-12.187296652
 20
5.6958682833
 10
-12.2374176545
 20
5.6859237298
 10
-12.2874992809
 20
5.6735335702
 10
-12.3375466548
 20
5.6588201054
 10
-12.3873709707
 20
5.6415901004
 10
-12.4366152477
 20
5.6218734337
 10
-12.4849920007
 20
5.6001274122
 10
-12.5321012315
 20
5.5761219375
 10
-12.5777168164
 20
5.5497525994
 10
-12.6217410392
 20
5.5216871865
 10
-12.663732526
 20
5.4916803669
 10
-12.703319757
 20
5.4595502474
 10
-12.7403389741
 20
5.4261221258
 10
-12.7743135786
 20
5.3909515758
 10
-12.8045712698
 20
5.3539395415
 10
-12.830502404
 20
5.316498911
 10
-12.851473227
 20
5.2789145874
 10
-12.8668644325
 20
5.2402632224
 10
-12.8760657063
 20
5.2001585113
  0
LWPOLYLINE
  5
344
100
AcDbEntity
  8
RACCORDO
100
AcDbPolyline
 62
250
  6
CONTINUOUS
 90
13
 70
0
 10
12.9379717195
 20
-2.0257287594
 10
12.9263620253
 20
-2.0093431995
 10
12.9021534461
 20
-1.9932199842
 10
12.8657333797
 20
-1.9776171159
 10
12.8176846385
 20
-1.9627842706
 10
12.7587761227
 20
-1.9489588012
 10
12.6899505164
 20
-1.9363619402
 10
12.6123092017
 20
-1.9251952591
 10
12.5270946344
 20
-1.9156374428
 10
12.4356704614
 20
-1.9078414306
 10
12.3394996986
 20
-1.901931968
 10
12.2401213194
 20
-1.8980036111
 10
12.1391256268
 20
-1.8961192133
  0
LINE
  5
345
100
AcDbEntity
  8
RACCORDO
100
AcDbLine
 62
250
  6
CONTINUOUS
 10
13.1414213871
 20
-55.6161017113
 11
13.038428875
 21
-54.7122865573
  0
LWPOLYLINE
  5
346
100
AcDbEntity
  8
RACCORDO
100
AcDbPolyline
 62
250
  6
CONTINUOUS
 90
10
 70
0
 10
13.038428875
 20
-54.7122865573
 10
13.0166893721
 20
-54.5155535597
 10
12.9952693793
 20
-54.3134514418
 10
12.9744502298
 20
-54.1067756792
 10
12.9547057782
 20
-53.894761614
 10
12.9366377563
 20
-53.6781804888
 10
12.9208334685
 20
-53.4601350186
 10
12.9079375164
 20
-53.2416697987
 10
12.898642362
 20
-53.0217729638
 10
12.8936635472
 20
-52.800469901
  0
LINE
  5
347
100
AcDbEntity
  8
RACCORDO
100
AcDbLine
 62
7
  6
CONTINUOUS
 10
12.8451859368
 20
5.6151525717
 11
12.8573440056
 21
5.4616682253
  0
LWPOLYLINE
  5
348
100
AcDbEntity
  8
RACCORDO
100
AcDbPolyline
 62
7
  6
CONTINUOUS
 90
3
 70
0
 10
12.8573440056
 20
5.4616682253
 10
12.8697636663
 20
5.2918039545
 10
12.8760671379
 20
5.2003834514
  0
LWPOLYLINE
  5
349
100
AcDbEntity
  8
RACCORDO
100
AcDbPolyline
 62
250
  6
CONTINUOUS
 90
13
 70
0
 10
12.7809127086
 20
51.1813238482
 10
12.7782516233
 20
51.2203605558
 10
12.7705276381
 20
51.2587317564
 10
12.7578724191
 20
51.2957831755
 10
12.740501685
 20
51.3308831236
 10
12.718711607
 20
51.3634329903
 10
12.6928738563
 20
51.3928775139
 10
12.6634290525
 20
51.4187146276
 10
12.6308793038
 20
51.4405038879
 10
12.5957798249
 20
51.4578738044
 10
12.5587291977
 20
51.4705283222
 10
12.520359128
 20
51.4782518108
 10
12.4813238482
 20
51.4809127086
  0
LWPOLYLINE
  5
34A
100
AcDbEntity
  8
RACCORDO
100
AcDbPolyline
 62
250
  6
CONTINUOUS
 90
16
 70
0
 10
12.727575365
 20
51.128007874
 10
12.7260589894
 20
51.1596115787
 10
12.7212431199
 20
51.1908007949
 10
12.7131949137
 20
51.2212372011
 10
12.7020229556
 20
51.2505803741
 10
12.6878581129
 20
51.2785290405
 10
12.6708384875
 20
51.3048176174
 10
12.651137402
 20
51.329171168
 10
12.6289781928
 20
51.3513108533
 10
12.6046062559
 20
51.3709912344
 10
12.5782909782
 20
51.3879941957
 10
12.5503157316
 20
51.4021390033
 10
12.5209775444
 20
51.4132775335
 10
12.4905914221
 20
51.421286308
 10
12.4594885829
 20
51.4260712078
 10
12.4559078295
 20
51.4255877116
  0
LINE
  5
34B
100
AcDbEntity
  8
RACCORDO
100
AcDbLine
 62
250
  6
CONTINUOUS
 10
12.0634784025
 20
5.1477722893
 11
12.0388217302
 21
5.7111145642
  0
LINE
  5
34C
100
AcDbEntity
  8
RACCORDO
100
AcDbLine
 62
250
  6
CONTINUOUS
 10
12.0851048081
 20
4.5489728238
 11
12.0634784025
 21
5.1477722893
  0
LINE
  5
34D
100
AcDbEntity
  8
RACCORDO
100
AcDbLine
 62
250
  6
CONTINUOUS
 10
12.103644656
 20
3.9193916795
 11
12.0851048081
 21
4.5489728238
  0
LINE
  5
34E
100
AcDbEntity
  8
RACCORDO
100
AcDbLine
 62
250
  6
CONTINUOUS
 10
12.8953531528
 20
4.5383167676
 11
12.8760671379
 21
5.2003834514
  0
LWPOLYLINE
  5
34F
100
AcDbEntity
  8
RACCORDO
100
AcDbPolyline
 62
250
  6
CONTINUOUS
 90
22
 70
0
 10
14.793239315
 20
64.4396823179
 10
14.7927728326
 20
64.4598966782
 10
14.7909923115
 20
64.4798759206
 10
14.7878977517
 20
64.4996200492
 10
14.7834656593
 20
64.5192210813
 10
14.7777195281
 20
64.5385870066
 10
14.7707298398
 20
64.5574417927
 10
14.7624786295
 20
64.5757767122
 10
14.752983862
 20
64.5936005093
 10
14.7423699135
 20
64.6106633677
 10
14.7306203451
 20
64.6269551089
 10
14.7177515957
 20
64.6424859339
 10
14.7039373583
 20
64.6570366021
 10
14.6891637193
 20
64.6705933878
 10
14.6734445923
 20
64.6831700414
 10
14.6569954099
 20
64.6945885393
 10
14.6398018372
 20
64.7048333319
 10
14.6218782092
 20
64.7139199914
 10
14.6034829639
 20
64.7217171785
 10
14.5847022472
 20
64.7281811192
 10
14.5654499133
 20
64.7333556042
 10
14.545725962
 20
64.7372406394
  0
LINE
  5
350
100
AcDbEntity
  8
RACCORDO
100
AcDbLine
 62
250
  6
CONTINUOUS
 10
12.9115401639
 20
3.848858364
 11
12.8953531528
 21
4.5383167676
  0
LINE
  5
351
100
AcDbEntity
  8
RACCORDO
100
AcDbLine
 62
250
  6
CONTINUOUS
 10
12.1189009927
 20
3.2638903826
 11
12.103644656
 21
3.9193916795
  0
LINE
  5
352
100
AcDbEntity
  8
RACCORDO
100
AcDbLine
 62
250
  6
CONTINUOUS
 10
12.924592017
 20
3.133759224
 11
12.9115401639
 21
3.848858364
  0
LINE
  5
353
100
AcDbEntity
  8
RACCORDO
100
AcDbLine
 62
250
  6
CONTINUOUS
 10
12.1307420881
 20
2.5876948744
 11
12.1189009927
 21
3.2638903826
  0
LWPOLYLINE
  5
354
100
AcDbEntity
  8
RACCORDO
100
AcDbPolyline
 62
250
  6
CONTINUOUS
 90
3
 70
0
 10
12.9380292558
 20
2.0257287646
 10
12.9343640944
 20
2.4000232821
 10
12.924592017
 20
3.133759224
  0
LWPOLYLINE
  5
355
100
AcDbEntity
  8
RACCORDO
100
AcDbPolyline
 62
250
  6
CONTINUOUS
 90
9
 70
0
 10
14.793239315
 20
-64.4396823179
 10
14.7499719696
 20
-60.0620576736
 10
14.7124675499
 20
-55.7788456485
 10
14.6807260559
 20
-51.5910015522
 10
14.6550978175
 20
-47.4997174557
 10
14.6352325049
 20
-43.5054353491
 10
14.6200791283
 20
-39.607850109
 10
14.6092873578
 20
-35.8072381929
 10
14.6032075233
 20
-32.1044640156
  0
LINE
  5
356
100
AcDbEntity
  8
RACCORDO
100
AcDbLine
 62
250
  6
CONTINUOUS
 10
12.1458419082
 20
1.2702451995
 11
12.1307420881
 21
2.5876948744
  0
LWPOLYLINE
  5
357
100
AcDbEntity
  8
RACCORDO
100
AcDbPolyline
 62
250
  6
CONTINUOUS
 90
9
 70
0
 10
13.6588322246
 20
60.8006344873
 10
13.6752168198
 20
57.2202476512
 10
13.6896753969
 20
53.6368354662
 10
13.7022079559
 20
50.0507758012
 10
13.7128153861
 20
46.4624486667
 10
13.7214967982
 20
42.8722305848
 10
13.7282495239
 20
39.2804945407
 10
13.733072674
 20
35.6876174034
 10
13.7359671377
 20
32.0939798942
  0
LINE
  5
358
100
AcDbEntity
  8
RACCORDO
100
AcDbLine
 62
250
  6
CONTINUOUS
 10
12.1494820969
 20
0.6
 11
12.1458419082
 21
1.2702451995
  0
LINE
  5
359
100
AcDbEntity
  8
RACCORDO
100
AcDbLine
 62
250
  6
CONTINUOUS
 10
12.8936655807
 20
52.8005370352
 11
12.9111868305
 21
47.4064290257
  0
LINE
  5
35A
100
AcDbEntity
  8
RACCORDO
100
AcDbLine
 62
250
  6
CONTINUOUS
 10
12.9111868305
 20
47.4064290257
 11
12.924330832
 21
42.0084652325
  0
LINE
  5
35B
100
AcDbEntity
  8
RACCORDO
100
AcDbLine
 62
250
  6
CONTINUOUS
 10
12.924330832
 20
42.0084652325
 11
12.9330966287
 21
36.6069306711
  0
LINE
  5
35C
100
AcDbEntity
  8
RACCORDO
100
AcDbLine
 62
250
  6
CONTINUOUS
 10
12.9432074903
 20
0.6
 11
12.9380292558
 21
2.0257287646
  0
LINE
  5
35D
100
AcDbEntity
  8
RACCORDO
100
AcDbLine
 62
250
  6
CONTINUOUS
 10
12.9330966287
 20
36.6069306711
 11
12.937480395
 21
31.2029654029
  0
LINE
  5
35E
100
AcDbEntity
  8
RACCORDO
100
AcDbLine
 62
250
  6
CONTINUOUS
 10
12.038821996
 20
-5.7111145615
 11
12.0388221202
 21
-6.0
  0
LINE
  5
35F
100
AcDbEntity
  8
RACCORDO
100
AcDbLine
 62
250
  6
CONTINUOUS
 10
12.0388219958
 20
5.7111145642
 11
12.0388221517
 21
6.0
  0
LINE
  5
360
100
AcDbEntity
  8
RACCORDO
100
AcDbLine
 62
250
  6
CONTINUOUS
 10
12.4279864339
 20
-51.4268900646
 11
12.4279864361
 21
-51.4275752953
  0
LINE
  5
361
100
AcDbEntity
  8
RACCORDO
100
AcDbLine
 62
250
  6
CONTINUOUS
 10
12.4279864349
 20
51.4268900636
 11
12.4279864348
 21
51.4275752953
  0
LINE
  5
362
100
AcDbEntity
  8
RACCORDO
100
AcDbLine
 62
7
  6
CONTINUOUS
 10
12.7268900626
 20
-51.1279864348
 11
12.7268900626
 21
-6.0
  0
LINE
  5
363
100
AcDbEntity
  8
RACCORDO
100
AcDbLine
 62
7
  6
CONTINUOUS
 10
12.7268900626
 20
6.0
 11
12.7268900626
 21
51.127986432
  0
LINE
  5
364
100
AcDbEntity
  8
RACCORDO
100
AcDbLine
 62
250
  6
CONTINUOUS
 10
12.937480395
 20
31.2029654029
 11
12.9380292558
 21
2.0257287646
  0
LINE
  5
365
100
AcDbEntity
  8
RACCORDO
100
AcDbLine
 62
250
  6
CONTINUOUS
 10
13.7359671377
 20
32.0939798942
 11
13.7369328836
 21
-28.499958836
  0
LINE
  5
366
100
AcDbEntity
  8
RACCORDO
100
AcDbLine
 62
250
  6
CONTINUOUS
 10
14.6032075233
 20
-32.1044640156
 11
14.601839639
 21
28.4999929678
  0
LINE
  5
367
100
AcDbEntity
  8
RACCORDO
100
AcDbLine
 62
250
  6
CONTINUOUS
 10
12.9380292558
 20
-2.0257287646
 11
12.9374804037
 21
-31.2029515524
  0
LWPOLYLINE
  5
368
100
AcDbEntity
  8
RACCORDO
100
AcDbPolyline
 62
250
  6
CONTINUOUS
 90
10
 70
0
 10
13.7369329167
 20
-28.499958836
 10
13.7359671392
 20
-32.093978728
 10
13.7330726753
 20
-35.6876169486
 10
13.728249525
 20
-39.2804945596
 10
13.7214968166
 20
-42.8722263465
 10
13.7128154218
 20
-46.462439938
 10
13.7022079558
 20
-50.0507758151
 10
13.6896752902
 20
-53.6368619151
 10
13.6752165533
 20
-57.2203137012
 10
13.6588317452
 20
-60.8007532604
  0
LWPOLYLINE
  5
369
100
AcDbEntity
  8
RACCORDO
100
AcDbPolyline
 62
250
  6
CONTINUOUS
 90
10
 70
0
 10
14.6018396274
 20
28.4999929678
 10
14.6032006091
 20
32.1015788557
 10
14.609273338
 20
35.8021887252
 10
14.6200578142
 20
39.6013591992
 10
14.6352011506
 20
43.4982257842
 10
14.6550562344
 20
47.4925115219
 10
14.6806817265
 20
51.5845205462
 10
14.7124305143
 20
55.7738091194
 10
14.7499497104
 20
60.0591825915
 10
14.793239315
 20
64.4396823179
  0
LINE
  5
36A
100
AcDbEntity
  8
RACCORDO
100
AcDbLine
 62
250
  6
CONTINUOUS
 10
12.9374804037
 20
-31.2029515524
 11
12.9330966749
 21
-36.6068932573
  0
LINE
  5
36B
100
AcDbEntity
  8
RACCORDO
100
AcDbLine
 62
250
  6
CONTINUOUS
 10
12.9330966749
 20
-36.6068932573
 11
12.9243311172
 21
-42.0084092215
  0
LINE
  5
36C
100
AcDbEntity
  8
RACCORDO
100
AcDbLine
 62
250
  6
CONTINUOUS
 10
12.9243311172
 20
-42.0084092215
 11
12.9111865057
 21
-47.4063626895
  0
LINE
  5
36D
100
AcDbEntity
  8
RACCORDO
100
AcDbLine
 62
250
  6
CONTINUOUS
 10
12.9111865057
 20
-47.4063626895
 11
12.8936635342
 21
-52.8004694724
  0
LINE
  5
36E
100
AcDbEntity
  8
RACCORDO
100
AcDbLine
 62
250
  6
CONTINUOUS
 10
12.1486298531
 20
-0.8256001757
 11
12.1494820969
 21
0.6
  0
LINE
  5
36F
100
AcDbEntity
  8
RACCORDO
100
AcDbLine
 62
250
  6
CONTINUOUS
 10
12.9414293918
 20
-1.3328994383
 11
12.9432074903
 21
0.6
  0
LINE
  5
370
100
AcDbEntity
  8
RACCORDO
100
AcDbLine
 62
250
  6
CONTINUOUS
 10
12.9380292558
 20
-2.0257287646
 11
12.9414293918
 21
-1.3328994383
  0
LINE
  5
371
100
AcDbEntity
  8
RACCORDO
100
AcDbLine
 62
250
  6
CONTINUOUS
 10
12.1439754886
 20
-1.4800452162
 11
12.1486298531
 21
-0.8256001757
  0
LINE
  5
372
100
AcDbEntity
  8
RACCORDO
100
AcDbLine
 62
250
  6
CONTINUOUS
 10
12.9298850057
 20
-2.7693673848
 11
12.9380292558
 21
-2.0257287646
  0
LINE
  5
373
100
AcDbEntity
  8
RACCORDO
100
AcDbLine
 62
250
  6
CONTINUOUS
 10
12.1307420998
 20
-2.5876940315
 11
12.1439754886
 21
-1.4800452162
  0
LINE
  5
374
100
AcDbEntity
  8
RACCORDO
100
AcDbLine
 62
250
  6
CONTINUOUS
 10
12.9184730518
 20
-3.493784934
 11
12.9298850057
 21
-2.7693673848
  0
LINE
  5
375
100
AcDbEntity
  8
RACCORDO
100
AcDbLine
 62
250
  6
CONTINUOUS
 10
12.1189010374
 20
-3.2638882843
 11
12.1307420998
 21
-2.5876940315
  0
LINE
  5
376
100
AcDbEntity
  8
RACCORDO
100
AcDbLine
 62
250
  6
CONTINUOUS
 10
12.9038294957
 20
-4.197231214
 11
12.9184730518
 21
-3.493784934
  0
LINE
  5
377
100
AcDbEntity
  8
RACCORDO
100
AcDbLine
 62
250
  6
CONTINUOUS
 10
12.1036447427
 20
-3.9193883866
 11
12.1189010374
 21
-3.2638882843
  0
LWPOLYLINE
  5
378
100
AcDbEntity
  8
RACCORDO
100
AcDbPolyline
 62
250
  6
CONTINUOUS
 90
3
 70
0
 10
12.8760666445
 20
-5.2003905677
 10
12.8860987441
 20
-4.8727054322
 10
12.9038294957
 20
-4.197231214
  0
LINE
  5
379
100
AcDbEntity
  8
RACCORDO
100
AcDbLine
 62
250
  6
CONTINUOUS
 10
12.0851214932
 20
-4.5489700977
 11
12.1036447427
 21
-3.9193883866
  0
LINE
  5
37A
100
AcDbEntity
  8
RACCORDO
100
AcDbLine
 62
250
  6
CONTINUOUS
 10
12.0634286724
 20
-5.1477707564
 11
12.0851214932
 21
-4.5489700977
  0
LINE
  5
37B
100
AcDbEntity
  8
RACCORDO
100
AcDbLine
 62
250
  6
CONTINUOUS
 10
12.0385976764
 20
-5.7111145615
 11
12.0634286724
 21
-5.1477707564
  0
LWPOLYLINE
  5
37C
100
AcDbEntity
  8
RACCORDO
100
AcDbPolyline
 62
7
  6
CONTINUOUS
 90
13
 70
0
 10
12.7268889593
 20
-51.1279864352
 10
12.7254964063
 20
-51.1568890066
 10
12.7183461242
 20
-51.1990879435
 10
12.7053088914
 20
-51.2397645275
 10
12.6866195386
 20
-51.2781040153
 10
12.6626957778
 20
-51.31334901
 10
12.6340216825
 20
-51.344785129
 10
12.6011726272
 20
-51.3718012252
 10
12.5648239195
 20
-51.3938758211
 10
12.5256935431
 20
-51.4105447871
 10
12.4845872989
 20
-51.421513713
 10
12.4423103902
 20
-51.4265391219
 10
12.4279864335
 20
-51.4268770835
  0
LINE
  5
37D
100
AcDbEntity
  8
RACCORDO
100
AcDbLine
 62
7
  6
CONTINUOUS
 10
12.8760666445
 20
-5.2003905677
 11
12.8636881537
 21
-5.3766141497
  0
LWPOLYLINE
  5
37E
100
AcDbEntity
  8
RACCORDO
100
AcDbPolyline
 62
7
  6
CONTINUOUS
 90
13
 70
0
 10
12.8636881537
 20
-5.3766141497
 10
12.8515180985
 20
-5.5369903807
 10
12.8455121463
 20
-5.6112939906
 10
12.8395345875
 20
-5.6801212378
 10
12.833574641
 20
-5.7434819582
 10
12.8276430877
 20
-5.801366316
 10
12.8217503792
 20
-5.8523467809
 10
12.81588053
 20
-5.8963324264
 10
12.8100495255
 20
-5.933414179
 10
12.8043157736
 20
-5.9624372878
 10
12.7986987434
 20
-5.9830168357
 10
12.7931789658
 20
-5.9955377398
 10
12.7877564407
 20
-6.0
  0
LWPOLYLINE
  5
37F
100
AcDbEntity
  8
RACCORDO
100
AcDbPolyline
 62
7
  6
CONTINUOUS
 90
11
 70
0
 10
12.7877564407
 20
6.0
 10
12.79312107
 20
5.995654536
 10
12.7985842771
 20
5.9833802509
 10
12.8041460618
 20
5.9631771447
 10
12.8098213939
 20
5.9347278274
 10
12.8155953037
 20
5.8983496891
 10
12.8214228822
 20
5.8549948995
 10
12.827292181
 20
5.8045583524
 10
12.8332151486
 20
5.747145154
 10
12.8391827212
 20
5.6840227933
 10
12.8451859368
 20
5.6151525717
  0
LWPOLYLINE
  5
380
100
AcDbEntity
  8
RACCORDO
100
AcDbPolyline
 62
250
  6
CONTINUOUS
 90
22
 70
0
 10
12.8760660901
 20
5.2001558492
 10
12.8667103859
 20
5.2407857926
 10
12.8510614926
 20
5.2798118143
 10
12.8297935369
 20
5.317641869
 10
12.803609059
 20
5.3551903549
 10
12.7731805955
 20
5.3922054631
 10
12.7390698975
 20
5.4273483116
 10
12.7019385693
 20
5.4607282954
 10
12.662285391
 20
5.4927782005
 10
12.6202233539
 20
5.5227123978
 10
12.5760903145
 20
5.5507344428
 10
12.5303469429
 20
5.5770706975
 10
12.4831120456
 20
5.6010335065
 10
12.4346136926
 20
5.6227193107
 10
12.3852504473
 20
5.642367083
 10
12.3353320282
 20
5.6595211148
 10
12.2851412357
 20
5.6741313434
 10
12.2349413806
 20
5.6864119495
 10
12.1849878752
 20
5.6962715991
 10
12.1355132877
 20
5.7036742646
 10
12.0867267818
 20
5.7086392887
 10
12.0388216087
 20
5.7111181412
  0
LWPOLYLINE
  5
381
100
AcDbEntity
  8
RACCORDO
100
AcDbPolyline
 62
250
  6
CONTINUOUS
 90
22
 70
0
 10
20.2631095334
 20
63.8745610256
 10
20.2502515917
 20
64.2629062141
 10
20.2112478247
 20
64.6495398952
 10
20.1462689366
 20
65.0327031444
 10
20.0556010682
 20
65.4106640735
 10
19.9396513773
 20
65.7816896161
 10
19.7989542121
 20
66.1440555329
 10
19.6341572214
 20
66.4961023406
 10
19.4460057215
 20
66.8362406569
 10
19.2353517545
 20
67.1629227768
 10
19.0031539034
 20
67.4746615785
 10
18.7504700457
 20
67.7700394323
 10
18.4784476529
 20
68.04771328
 10
18.1883244107
 20
68.3064204955
 10
17.8814213552
 20
68.5449830966
 10
17.5591344411
 20
68.7623134645
 10
17.2229009139
 20
68.9574384836
 10
16.8742796537
 20
69.129451126
 10
16.514953492
 20
69.2775326128
 10
16.1465982232
 20
69.4010191988
 10
15.7708646762
 20
69.4993844336
 10
15.3894657816
 20
69.5722025649
  0
LWPOLYLINE
  5
382
100
AcDbEntity
  8
RACCORDO
100
AcDbPolyline
 62
250
  6
CONTINUOUS
 90
9
 70
0
 10
20.2631063667
 20
-63.8745367684
 10
20.2198405651
 20
-59.5644630176
 10
20.1823372927
 20
-55.3490017235
 10
20.1505965497
 20
-51.228152886
 10
20.1249685263
 20
-47.2015432257
 10
20.1051030322
 20
-43.2695460221
 10
20.089949496
 20
-39.4332811138
 10
20.0791577273
 20
-35.6931217805
 10
20.0730779164
 20
-32.0486947425
  0
LINE
  5
383
100
AcDbEntity
  8
RACCORDO
100
AcDbLine
 62
250
  6
CONTINUOUS
 10
20.0730779164
 20
-32.0486947425
 11
20.0717100635
 21
28.5
  0
LINE
  5
384
100
AcDbEntity
  8
RACCORDO
100
AcDbLine
 62
7
  6
CONTINUOUS
 10
20.4668162456
 20
63.8749158815
 11
20.4668162456
 21
-63.8749158815
  0
LWPOLYLINE
  5
385
100
AcDbEntity
  8
RACCORDO
100
AcDbPolyline
 62
250
  6
CONTINUOUS
 90
10
 70
0
 10
20.0717100635
 20
28.5
 10
20.0730710031
 20
32.0458564069
 10
20.0791437166
 20
35.6881560319
 10
20.0899282042
 20
39.426898875
 10
20.1050717175
 20
43.2624591027
 10
20.1249270049
 20
47.1944625485
 10
20.1505523107
 20
51.2217867132
 10
20.182300383
 20
55.3440574305
 10
20.2198184737
 20
59.5616488666
 10
20.2631065829
 20
63.8745610216
  0
LWPOLYLINE
  5
386
100
AcDbEntity
  8
RACCORDO
100
AcDbPolyline
 62
7
  6
CONTINUOUS
 90
16
 70
0
 10
12.8417470126
 20
-51.2744637455
 10
12.8343080667
 20
-51.3255632113
 10
12.8186614816
 20
-51.3761899966
 10
12.794944169
 20
-51.4258168439
 10
12.7633682595
 20
-51.4739364087
 10
12.7242441518
 20
-51.5200289333
 10
12.677997662
 20
-51.5635738693
 10
12.6251081825
 20
-51.6041303817
 10
12.5661227841
 20
-51.6412573531
 10
12.5017042511
 20
-51.6744949773
 10
12.4325313298
 20
-51.7034549194
 10
12.3593348645
 20
-51.7278915148
 10
12.2829489039
 20
-51.7476439088
 10
12.2042009197
 20
-51.7625550252
 10
12.1238935946
 20
-51.7724626021
 10
12.0428613516
 20
-51.7772858208
  0
LWPOLYLINE
  5
387
100
AcDbEntity
  8
RACCORDO
100
AcDbPolyline
 62
250
  6
CONTINUOUS
 90
13
 70
0
 10
12.8936630044
 20
-52.8004699013
 10
12.8825057344
 20
-52.8466091571
 10
12.8586572904
 20
-52.8920051616
 10
12.8225018258
 20
-52.9359265462
 10
12.7746217682
 20
-52.9776656976
 10
12.7157884523
 20
-53.0165501456
 10
12.6469497054
 20
-53.0519534008
 10
12.5692145392
 20
-53.0833050703
 10
12.4838353158
 20
-53.110100027
 10
12.3921876064
 20
-53.131906546
 10
12.2957479575
 20
-53.1483732861
 10
12.1960700902
 20
-53.1592349413
 10
12.0947599194
 20
-53.1643165043
  0
LWPOLYLINE
  5
388
100
AcDbEntity
  8
RACCORDO
100
AcDbPolyline
 62
250
  6
CONTINUOUS
 90
30
 70
0
 10
12.7946582842
 20
-51.1565770709
 10
12.8006940268
 20
-51.1366703728
 10
12.802356146
 20
-51.1314944497
 10
12.8040792797
 20
-51.1263945089
 10
12.8058545512
 20
-51.1214011756
 10
12.8076453128
 20
-51.116893723
 10
12.8094560606
 20
-51.1129065659
 10
12.8112822986
 20
-51.1094052895
 10
12.8130738916
 20
-51.1066659232
 10
12.8148215883
 20
-51.1047645028
 10
12.81653464
 20
-51.1036249926
 10
12.8181906655
 20
-51.103295315
 10
12.8197778867
 20
-51.1037922055
 10
12.8213080818
 20
-51.1050989286
 10
12.8227942042
 20
-51.1072132011
 10
12.8242327626
 20
-51.1100851709
 10
12.8256272483
 20
-51.11376469
 10
12.8270010889
 20
-51.1183990309
 10
12.8283590143
 20
-51.1239336445
 10
12.8296962947
 20
-51.1304230799
 10
12.8310221677
 20
-51.1381782567
 10
12.8323454947
 20
-51.1471897099
 10
12.8336574144
 20
-51.1574669046
 10
12.8349405801
 20
-51.1693491556
 10
12.8361981302
 20
-51.1829655977
 10
12.8374269263
 20
-51.1981870962
 10
12.8386002066
 20
-51.2149655616
 10
12.8397090504
 20
-51.2332849639
 10
12.8407623783
 20
-51.2531613331
 10
12.8417601904
 20
-51.2745946692
  0
LINE
  5
389
100
AcDbEntity
  8
RACCORDO
100
AcDbLine
 62
250
  6
CONTINUOUS
 10
-12.4280059367
 20
-51.4275752953
 11
-12.4813238482
 21
-51.4809127086
  0
LINE
  5
38A
100
AcDbEntity
  8
RACCORDO
100
AcDbLine
 62
250
  6
CONTINUOUS
 10
-12.7275752953
 20
-51.1280078035
 11
-12.7809127086
 21
-51.1813238482
  0
LINE
  5
38B
100
AcDbEntity
  8
RACCORDO
100
AcDbLine
 62
250
  6
CONTINUOUS
 10
12.9380292558
 20
28.5
 11
20.0717100635
 21
28.5
  0
LINE
  5
38C
100
AcDbEntity
  8
RACCORDO
100
AcDbLine
 62
250
  6
CONTINUOUS
 10
-12.9380292558
 20
28.5
 11
-20.0717100635
 21
28.5
  0
LINE
  5
38D
100
AcDbEntity
  8
RACCORDO
100
AcDbLine
 62
250
  6
CONTINUOUS
 10
-12.7809127086
 20
51.1813238482
 11
-12.7275752953
 21
51.1280109695
  0
LINE
  5
38E
100
AcDbEntity
  8
RACCORDO
100
AcDbLine
 62
250
  6
CONTINUOUS
 10
-12.4813238482
 20
51.4809127086
 11
-12.4280012688
 21
51.4275752953
  0
LWPOLYLINE
  5
38F
100
AcDbEntity
  8
RACCORDO
100
AcDbPolyline
 62
250
  6
CONTINUOUS
 90
12
 70
0
 10
12.8006671528
 20
51.1367549916
 10
12.794635266
 20
51.1566519424
 10
12.7932568818
 20
51.1610469474
 10
12.7919013923
 20
51.165209222
 10
12.7905706356
 20
51.1691127941
 10
12.7892304719
 20
51.17261021
 10
12.787869927
 20
51.1757799733
 10
12.7864999751
 20
51.1785435804
 10
12.785119399
 20
51.1805180679
 10
12.783727793
 20
51.181575781
 10
12.7823255629
 20
51.1818443745
 10
12.7809127086
 20
51.1813238482
  0
LWPOLYLINE
  5
390
100
AcDbEntity
  8
RACCORDO
100
AcDbPolyline
 62
250
  6
CONTINUOUS
 90
13
 70
0
 10
12.8936826974
 20
52.8004699192
 10
12.8825296905
 20
52.8466062138
 10
12.8586844296
 20
52.8920001279
 10
12.8225310664
 20
52.9359202963
 10
12.7746520391
 20
52.9776590955
 10
12.7158186896
 20
53.0165440443
 10
12.6469788367
 20
53.0519486377
 10
12.5692415064
 20
53.0833024403
 10
12.4838590655
 20
53.1101002759
 10
12.3922070453
 20
53.1319103669
 10
12.2957619818
 20
53.1483812902
 10
12.1960776282
 20
53.1592476393
 10
12.0947599234
 20
53.1643342996
  0
LINE
  5
391
100
AcDbEntity
  8
RACCORDO
100
AcDbLine
 62
250
  6
CONTINUOUS
 10
-5.5674504184
 20
70.8116608641
 11
-5.5665791117
 21
70.8100647665
  0
LWPOLYLINE
  5
392
100
AcDbEntity
  8
RACCORDO
100
AcDbPolyline
 62
250
  6
CONTINUOUS
 90
11
 70
0
 10
-12.7809127086
 20
51.1813238482
 10
-12.7823276884
 20
51.1818432946
 10
-12.7837320113
 20
51.1815719933
 10
-12.7851256775
 20
51.1805099443
 10
-12.78650825
 20
51.1785291559
 10
-12.7878801657
 20
51.1757576199
 10
-12.7892427357
 20
51.1725793111
 10
-12.7905848524
 20
51.1690733523
 10
-12.7919176233
 20
51.1651606209
 10
-12.7932756821
 20
51.1609877236
 10
-12.7946582842
 20
51.1565770709
  0
LWPOLYLINE
  5
393
100
AcDbEntity
  8
0
100
AcDbPolyline
 62
7
  6
CONTINUOUS
 90
10
 70
0
 43
0.3500000006
 10
0.9642857051
 20
88.0939312134
 10
1.035714268
 20
87.9510688477
 10
1.035714268
 20
87.8796467285
 10
0.8928571422
 20
87.7367843628
 10
0.8214285793
 20
87.7367843628
 10
0.7500000165
 20
87.8082155457
 10
0.7500000165
 20
87.8796467285
 10
0.8214285793
 20
88.0225000305
 10
0.8928571422
 20
88.0939312134
 10
0.9642857051
 20
88.0939312134
  0
LWPOLYLINE
  5
394
100
AcDbEntity
  8
RACCORDO
100
AcDbPolyline
 62
250
  6
CONTINUOUS
 90
9
 70
0
 10
12.445488635
 20
-51.5023058939
 10
12.4537764986
 20
-51.4984556332
 10
12.4611309796
 20
-51.4948849767
 10
12.4677002754
 20
-51.4915956392
 10
12.4733361885
 20
-51.4886485231
 10
12.4775639766
 20
-51.4860816922
 10
12.4802253922
 20
-51.4839220387
 10
12.4814786827
 20
-51.4821907197
 10
12.4813238482
 20
-51.4809127086
  0
LWPOLYLINE
  5
395
100
AcDbEntity
  8
RACCORDO
100
AcDbPolyline
 62
250
  6
CONTINUOUS
 90
3
 70
0
 10
12.2734181369
 20
-51.5802841972
 10
12.3096607495
 20
-51.5634328886
 10
12.3271770995
 20
-51.5554045098
  0
LINE
  5
396
100
AcDbEntity
  8
RACCORDO
100
AcDbLine
 62
250
  6
CONTINUOUS
 10
12.4262750308
 20
-51.5110562636
 11
12.445488635
 21
-51.5023058939
  0
LINE
  5
397
100
AcDbEntity
  8
RACCORDO
100
AcDbLine
 62
250
  6
CONTINUOUS
 10
12.3271770995
 20
-51.5554045098
 11
12.375795714
 21
-51.5335604272
  0
LINE
  5
398
100
AcDbEntity
  8
RACCORDO
100
AcDbLine
 62
250
  6
CONTINUOUS
 10
12.375795714
 20
-51.5335604272
 11
12.4262750308
 21
-51.5110562636
  0
LWPOLYLINE
  5
399
100
AcDbEntity
  8
RACCORDO
100
AcDbPolyline
 62
250
  6
CONTINUOUS
 90
13
 70
0
 10
12.5210052292
 20
-51.4132685947
 10
12.5503517116
 20
-51.4021230588
 10
12.578333133
 20
-51.3879699458
 10
12.604649962
 20
-51.3709595767
 10
12.6290184644
 20
-51.3512746617
 10
12.6511711227
 20
-51.3291337231
 10
12.6708639751
 20
-51.3047824982
 10
12.6878736337
 20
-51.2785021385
 10
12.7020292508
 20
-51.2505662508
 10
12.7131960169
 20
-51.2212338306
 10
12.721242629
 20
-51.1908031181
 10
12.7260585101
 20
-51.1596161688
 10
12.7254964063
 20
-51.1568890066
  0
LWPOLYLINE
  5
39A
100
AcDbEntity
  8
RACCORDO
100
AcDbPolyline
 62
250
  6
CONTINUOUS
 90
13
 70
0
 10
-12.4813238482
 20
51.4809127086
 10
-12.5203583766
 20
51.4782505846
 10
-12.5587277688
 20
51.4705259944
 10
-12.5957777855
 20
51.4578705465
 10
-12.6308766959
 20
51.4404999142
 10
-12.6634259672
 20
51.4187102031
 10
-12.6928704933
 20
51.3928729391
 10
-12.7187082101
 20
51.3634286165
 10
-12.7404984964
 20
51.3308792755
 10
-12.7578696859
 20
51.295780053
 10
-12.7705255921
 20
51.2587295026
 10
-12.7782504916
 20
51.2203593452
 10
-12.7809127086
 20
51.1813238482
  0
LWPOLYLINE
  5
39B
100
AcDbEntity
  8
RACCORDO
100
AcDbPolyline
 62
250
  6
CONTINUOUS
 90
3
 70
0
 10
-12.4280013176
 20
51.4275753438
 10
-12.4594961116
 20
51.4260704244
 10
-12.4906098443
 20
51.4212824249
  0
LINE
  5
39C
100
AcDbEntity
  8
0
100
AcDbLine
 62
7
  6
CONTINUOUS
 10
12.7268900626
 20
51.0
 11
-12.7268889593
 21
51.0
  0
LINE
  5
39D
100
AcDbEntity
  8
RACCORDO
100
AcDbLine
 62
250
  6
CONTINUOUS
 10
12.7268900643
 20
51.127986432
 11
12.7275752953
 21
51.127986435
  0
LINE
  5
39E
100
AcDbEntity
  8
RACCORDO
100
AcDbLine
 62
250
  6
CONTINUOUS
 10
-12.7268900635
 20
51.1279864348
 11
-12.7275752953
 21
51.1279864348
  0
LINE
  5
39F
100
AcDbEntity
  8
RACCORDO
100
AcDbLine
 62
7
  6
CONTINUOUS
 10
12.4279864349
 20
51.4268900626
 11
-12.4279864339
 21
51.4268900626
  0
LINE
  5
3A0
100
AcDbEntity
  8
RACCORDO
100
AcDbLine
 62
250
  6
CONTINUOUS
 10
-12.4813238482
 20
51.4809127086
 11
12.4813238482
 21
51.4809127086
  0
LINE
  5
3A1
100
AcDbEntity
  8
RACCORDO
100
AcDbLine
 62
250
  6
CONTINUOUS
 10
-12.0428613812
 20
51.7772651445
 11
12.0428613817
 21
51.7772651445
  0
LINE
  5
3A2
100
AcDbEntity
  8
RACCORDO
100
AcDbLine
 62
250
  6
CONTINUOUS
 10
-12.7345927018
 20
56.3557847019
 11
12.7345926297
 21
56.3557843792
  0
LWPOLYLINE
  5
3A3
100
AcDbEntity
  8
RACCORDO
100
AcDbPolyline
 62
7
  6
CONTINUOUS
 90
13
 70
0
 10
12.4279864359
 20
51.4268777368
 10
12.4559078295
 20
51.4255877116
 10
12.4978990003
 20
51.418641062
 10
12.5384289413
 20
51.4058346476
 10
12.576701743
 20
51.3874341515
 10
12.6119432191
 20
51.3637892076
 10
12.6434842171
 20
51.3353886785
 10
12.6706712334
 20
51.3027573648
 10
12.6929769574
 20
51.2665534265
 10
12.7099261627
 20
51.2274819544
 10
12.7211640853
 20
51.1863234645
 10
12.7264695354
 20
51.1439003155
 10
12.7268891845
 20
51.1279864322
  0
LWPOLYLINE
  5
3A4
100
AcDbEntity
  8
RACCORDO
100
AcDbPolyline
 62
7
  6
CONTINUOUS
 90
16
 70
0
 10
12.0428628899
 20
51.7771888907
 10
12.1242966517
 20
51.7724772458
 10
12.2048873115
 20
51.7626231852
 10
12.2837948967
 20
51.7477037702
 10
12.3601980826
 20
51.7278642483
 10
12.4333008646
 20
51.703296385
 10
12.502341857
 20
51.6742692372
 10
12.5666036916
 20
51.6411014722
 10
12.6254179817
 20
51.6041234379
 10
12.6781710318
 20
51.5637037351
 10
12.7243137935
 20
51.5202741259
 10
12.7633673617
 20
51.4742912822
 10
12.794926197
 20
51.4262323438
 10
12.8186623676
 20
51.3765951105
 10
12.8343298207
 20
51.3259094977
 10
12.8417665055
 20
51.2747139526
  0
LWPOLYLINE
  5
3A5
100
AcDbEntity
  8
RACCORDO
100
AcDbPolyline
 62
250
  6
CONTINUOUS
 90
3
 70
0
 10
12.4264493502
 20
51.5109791207
 10
12.3444575424
 20
51.5476075207
 10
12.3272074482
 20
51.5553894552
  0
LWPOLYLINE
  5
3A6
100
AcDbEntity
  8
RACCORDO
100
AcDbPolyline
 62
250
  6
CONTINUOUS
 90
25
 70
0
 10
12.3272074482
 20
51.5553894552
 10
12.2915422562
 20
51.5718154509
 10
12.2731271585
 20
51.5804210305
 10
12.2550915571
 20
51.5890677266
 10
12.2375562636
 20
51.5976557316
 10
12.2204004663
 20
51.6062032557
 10
12.2040090697
 20
51.6146504268
 10
12.1885261456
 20
51.6229021267
 10
12.1738076222
 20
51.6309813321
 10
12.1598061879
 20
51.6390177845
 10
12.1465407131
 20
51.6469780161
 10
12.1339923275
 20
51.6548580783
 10
12.1220571093
 20
51.6628576585
 10
12.1106641071
 20
51.6709972154
 10
12.0998842723
 20
51.6792486527
 10
12.0898265362
 20
51.6877598407
 10
12.0804546123
 20
51.6965849038
 10
12.0718047871
 20
51.7056787436
 10
12.0640948522
 20
51.7150484817
 10
12.0572176136
 20
51.7246982613
 10
12.0512802652
 20
51.7346306736
 10
12.0468221807
 20
51.7448505218
 10
12.0440231513
 20
51.7553613593
 10
12.0427033856
 20
51.7661653859
 10
12.0428628839
 20
51.7772651445
  0
LWPOLYLINE
  5
3A7
100
AcDbEntity
  8
RACCORDO
100
AcDbPolyline
 62
250
  6
CONTINUOUS
 90
5
 70
0
 10
-13.2069067522
 20
56.2617994409
 10
-13.1607085632
 20
56.2719424129
 10
-13.1123336731
 20
56.2822852438
 10
-13.0620291954
 20
56.2927751078
 10
-13.0100521002
 20
56.3033584281
  0
LINE
  5
3A8
100
AcDbEntity
  8
RACCORDO
100
AcDbLine
 62
250
  6
CONTINUOUS
 10
-13.0100521002
 20
56.3033584281
 11
-12.9021493031
 21
56.3245890202
  0
LWPOLYLINE
  5
3A9
100
AcDbEntity
  8
RACCORDO
100
AcDbPolyline
 62
250
  6
CONTINUOUS
 90
3
 70
0
 10
-12.9021493031
 20
56.3245890202
 10
-12.7908272641
 20
56.3455438359
 10
-12.7345924898
 20
56.3557837566
  0
LINE
  5
3AA
100
AcDbEntity
  8
RACCORDO
100
AcDbLine
 62
250
  6
CONTINUOUS
 10
-13.6588675211
 20
60.8007961821
 11
13.6588322244
 21
60.8006344873
  0
LINE
  5
3AB
100
AcDbEntity
  8
RACCORDO
100
AcDbLine
 62
250
  6
CONTINUOUS
 10
12.8467739225
 20
56.335127575
 11
12.7345924898
 21
56.3557837558
  0
LWPOLYLINE
  5
3AC
100
AcDbEntity
  8
RACCORDO
100
AcDbPolyline
 62
250
  6
CONTINUOUS
 90
7
 70
0
 10
13.2069016391
 20
56.2617999743
 10
13.1607041553
 20
56.2719425856
 10
13.1123299399
 20
56.2822851509
 10
13.0620261043
 20
56.2927748368
 10
13.0100496171
 20
56.303358058
 10
12.9566659911
 20
56.3139807519
 10
12.8467739225
 20
56.335127575
  0
LINE
  5
3AD
100
AcDbEntity
  8
RACCORDO
100
AcDbLine
 62
250
  6
CONTINUOUS
 10
1.7963712987
 20
-70.7642410687
 11
1.8013139173
 21
-70.7625494761
  0
LWPOLYLINE
  5
3AE
100
AcDbEntity
  8
RACCORDO
100
AcDbPolyline
 62
250
  6
CONTINUOUS
 90
22
 70
0
 10
-14.545725962
 20
64.7372406394
 10
-14.5654541048
 20
64.733354507
 10
-14.5847101939
 20
64.7281785998
 10
-14.6034942295
 20
64.7217129119
 10
-14.6218923009
 20
64.7139137113
 10
-14.6398183187
 20
64.7048247132
 10
-14.6570140144
 20
64.6945770814
 10
-14.6734653983
 20
64.6831547376
 10
-14.6891864602
 20
64.6705737376
 10
-14.7039609004
 20
64.6570134468
 10
-14.7177743358
 20
64.6424604184
 10
-14.7306411495
 20
64.6269280746
 10
-14.7423881921
 20
64.6106360879
 10
-14.7529988254
 20
64.5935747711
 10
-14.7624896875
 20
64.5757537886
 10
-14.7707375434
 20
64.5574218473
 10
-14.7777248615
 20
64.5385698009
 10
-14.7834691734
 20
64.5192067786
 10
-14.7878998387
 20
64.4996089091
 10
-14.7909933107
 20
64.4798682344
 10
-14.7927731361
 20
64.4598927054
 10
-14.793239315
 20
64.4396823179
  0
LWPOLYLINE
  5
3AF
100
AcDbEntity
  8
RACCORDO
100
AcDbPolyline
 62
250
  6
CONTINUOUS
 90
12
 70
0
 10
-18.3294797279
 20
64.2694924984
 10
-18.6147889681
 20
64.2400341988
 10
-18.8814658951
 20
64.2087957315
 10
-19.1282103013
 20
64.1759294026
 10
-19.3538191618
 20
64.1415954548
 10
-19.5571925001
 20
64.1059612865
 10
-19.737338751
 20
64.0692006351
 10
-19.893379595
 20
64.0314927308
 10
-20.0245542408
 20
63.9930214219
 10
-20.1302231344
 20
63.9539742789
 10
-20.2098710776
 20
63.9145416797
 10
-20.2631097396
 20
63.8749158815
  0
LWPOLYLINE
  5
3B0
100
AcDbEntity
  8
RACCORDO
100
AcDbPolyline
 62
250
  6
CONTINUOUS
 90
11
 70
0
 10
-14.793239315
 20
64.4396823124
 10
-15.1770227194
 20
64.4341853984
 10
-15.5589349528
 20
64.425961715
 10
-15.9371139674
 20
64.4150513574
 10
-16.3097159171
 20
64.4015075201
 10
-16.6749241471
 20
64.3853962373
 10
-17.0309580514
 20
64.366796061
 10
-17.3760817543
 20
64.345797678
 10
-17.7086125738
 20
64.3225034679
 10
-18.0269292256
 20
64.2970270038
 10
-18.3294797279
 20
64.2694924984
  0
LINE
  5
3B1
100
AcDbEntity
  8
RACCORDO
100
AcDbLine
 62
250
  6
CONTINUOUS
 10
20.4651728142
 20
63.8749158815
 11
20.2631065829
 21
63.8745610216
  0
LINE
  5
3B2
100
AcDbEntity
  8
RACCORDO
100
AcDbLine
 62
250
  6
CONTINUOUS
 10
-20.4668162456
 20
63.874915877
 11
-20.2631063667
 21
63.8745367684
  0
LWPOLYLINE
  5
3B3
100
AcDbEntity
  8
RACCORDO
100
AcDbPolyline
 62
250
  6
CONTINUOUS
 90
11
 70
0
 10
14.793239315
 20
64.4396823177
 10
15.1770217891
 20
64.434185427
 10
15.5589330896
 20
64.4259617643
 10
15.9371111732
 20
64.415051425
 10
16.3097121982
 20
64.4015076033
 10
16.6749195142
 20
64.3853963334
 10
17.0309525198
 20
64.3667961674
 10
17.3760753434
 20
64.3457977921
 10
17.7086053074
 20
64.3225035871
 10
18.0269211315
 20
64.2970271254
 10
18.329470838
 20
64.26949262
  0
LWPOLYLINE
  5
3B4
100
AcDbEntity
  8
RACCORDO
100
AcDbPolyline
 62
250
  6
CONTINUOUS
 90
12
 70
0
 10
18.329470838
 20
64.26949262
 10
18.614779318
 20
64.240034318
 10
18.8814555242
 20
64.208795846
 10
19.1281992524
 20
64.1759295103
 10
19.353807481
 20
64.1415955538
 10
19.5571802364
 20
64.1059613749
 10
19.7373259564
 20
64.0692007115
 10
19.893366324
 20
64.0314927936
 10
20.0245405502
 20
63.9930214699
 10
20.1302090831
 20
63.9539743111
 10
20.209856726
 20
63.9145416952
 10
20.2630951497
 20
63.8749158797
  0
LWPOLYLINE
  5
3B5
100
AcDbEntity
  8
RACCORDO
100
AcDbPolyline
 62
250
  6
CONTINUOUS
 90
13
 70
0
 10
14.545725962
 20
64.7372406394
 10
12.1331285455
 20
65.0913566807
 10
9.7158535372
 20
65.3811104184
 10
7.2939009372
 20
65.6065185927
 10
4.8657115145
 20
65.7676563138
 10
2.4328445
 20
65.8644711458
 10
-0.0000224138
 20
65.8967830423
 10
-2.432890753
 20
65.8644698315
 10
-4.8657589916
 20
65.7676536851
 10
-7.2939448588
 20
65.6065153664
 10
-9.7158875978
 20
65.3811075504
 10
-12.1331479656
 20
65.091354888
 10
-14.545725962
 20
64.7372406394
  0
LWPOLYLINE
  5
3B6
100
AcDbEntity
  8
RACCORDO
100
AcDbPolyline
 62
250
  6
CONTINUOUS
 90
22
 70
0
 10
-15.3890280183
 20
69.572270956
 10
-15.7706498306
 20
69.4994327841
 10
-16.1465469999
 20
69.4010340688
 10
-16.5150072582
 20
69.277512017
 10
-16.8743649152
 20
69.1294120452
 10
-17.2229659671
 20
68.9574031289
 10
-17.5591803335
 20
68.7622840823
 10
-17.8814644077
 20
68.5449506473
 10
-18.1883644649
 20
68.306384964
 10
-18.4784846684
 20
68.0476749694
 10
-18.7505040941
 20
67.7699987017
 10
-19.0031850085
 20
67.474618675
 10
-19.2353798919
 20
67.1628780003
 10
-19.4460309656
 20
66.8361943441
 10
-19.6341796162
 20
66.4960547494
 10
-19.7989735574
 20
66.144006865
 10
-19.9396676197
 20
65.7816391976
 10
-20.0556139231
 20
65.4106121522
 10
-20.1462778525
 20
65.0326527746
 10
-20.2112528057
 20
64.649495134
 10
-20.2502533978
 20
64.2628701899
 10
-20.263109519
 20
63.8745367729
  0
LINE
  5
3B7
100
AcDbEntity
  8
RACCORDO
100
AcDbLine
 62
250
  6
CONTINUOUS
 10
-4.5173136335
 20
70.7607360428
 11
-4.5309151727
 21
70.7587876353
  0
LINE
  5
3B8
100
AcDbEntity
  8
RACCORDO
100
AcDbLine
 62
7
  6
CONTINUOUS
 10
-5.5666701799
 20
70.8117053926
 11
-15.4204131443
 21
69.7703154229
  0
LINE
  5
3B9
100
AcDbEntity
  8
RACCORDO
100
AcDbLine
 62
7
  6
CONTINUOUS
 10
5.5231421839
 20
70.8109692252
 11
5.2231416571
 21
70.7847774744
  0
LINE
  5
3BA
100
AcDbEntity
  8
RACCORDO
100
AcDbLine
 62
250
  6
CONTINUOUS
 10
5.2654520645
 20
70.7838248852
 11
5.5665905806
 21
70.8100638467
  0
LWPOLYLINE
  5
3BB
100
AcDbEntity
  8
RACCORDO
100
AcDbPolyline
 62
7
  6
CONTINUOUS
 90
7
 70
0
 10
5.2232253861
 20
70.784643877
 10
5.1788940125
 20
70.7810123302
 10
5.0816977485
 20
70.7745634777
 10
4.972895392
 20
70.7692482513
 10
4.8533189648
 20
70.7651411024
 10
4.7239198735
 20
70.7623297136
 10
4.5854845212
 20
70.7609212876
  0
LWPOLYLINE
  5
3BC
100
AcDbEntity
  8
RACCORDO
100
AcDbPolyline
 62
250
  6
CONTINUOUS
 90
3
 70
0
 10
5.2232112822
 20
70.7847835752
 10
5.2275869684
 20
70.7851157752
 10
5.2654520416
 20
70.7838244601
  0
LINE
  5
3BD
100
AcDbEntity
  8
RACCORDO
100
AcDbLine
 62
250
  6
CONTINUOUS
 10
5.1632758096
 20
70.7761141878
 11
5.2654520645
 21
70.7838248852
  0
LWPOLYLINE
  5
3BE
100
AcDbEntity
  8
RACCORDO
100
AcDbPolyline
 62
250
  6
CONTINUOUS
 90
3
 70
0
 10
5.5231421839
 20
70.8109692252
 10
5.5308556734
 20
70.811507778
 10
5.5665797072
 20
70.8100646109
  0
LWPOLYLINE
  5
3BF
100
AcDbEntity
  8
RACCORDO
100
AcDbPolyline
 62
250
  6
CONTINUOUS
 90
6
 70
0
 10
-4.0749560208
 20
70.6948319523
 10
-6.3465999879
 20
70.5747498766
 10
-8.6150451995
 20
70.402358242
 10
-10.8790746039
 20
70.1777373033
 10
-13.1374730766
 20
69.9009959107
 10
-15.3890280987
 20
69.5722714651
  0
LWPOLYLINE
  5
3C0
100
AcDbEntity
  8
RACCORDO
100
AcDbPolyline
 62
250
  6
CONTINUOUS
 90
3
 70
0
 10
4.9346041947
 20
70.7650245334
 10
5.0529938837
 20
70.7698563747
 10
5.1632758096
 20
70.7761141878
  0
LINE
  5
3C1
100
AcDbEntity
  8
RACCORDO
100
AcDbLine
 62
250
  6
CONTINUOUS
 10
-1.8013315985
 20
70.7625528379
 11
-4.0749560208
 21
70.6948319523
  0
LWPOLYLINE
  5
3C2
100
AcDbEntity
  8
RACCORDO
100
AcDbPolyline
 62
250
  6
CONTINUOUS
 90
4
 70
0
 10
4.5307586961
 20
70.7587859202
 10
4.6734901698
 20
70.7595211873
 10
4.8081040504
 20
70.7615897662
 10
4.9346041947
 20
70.7650245334
  0
LINE
  5
3C3
100
AcDbEntity
  8
RACCORDO
100
AcDbLine
 62
250
  6
CONTINUOUS
 10
-2.2758552785
 20
70.7618568956
 11
-1.9591826926
 21
70.7640414553
  0
LINE
  5
3C4
100
AcDbEntity
  8
RACCORDO
100
AcDbLine
 62
250
  6
CONTINUOUS
 10
-4.5309150302
 20
70.7587844981
 11
-4.4020972482
 21
70.7607302792
  0
LINE
  5
3C5
100
AcDbEntity
  8
RACCORDO
100
AcDbLine
 62
250
  6
CONTINUOUS
 10
1.7963681271
 20
70.7642664579
 11
1.8013176837
 21
70.7625487996
  0
LINE
  5
3C6
100
AcDbEntity
  8
RACCORDO
100
AcDbLine
 62
7
  6
CONTINUOUS
 10
-0.6835238556
 20
70.7638140863
 11
-4.5173131333
 21
70.7607360426
  0
LINE
  5
3C7
100
AcDbEntity
  8
RACCORDO
100
AcDbLine
 62
250
  6
CONTINUOUS
 10
-1.0426596781
 20
70.7618826148
 11
-0.6835238556
 21
70.7638140863
  0
LWPOLYLINE
  5
3C8
100
AcDbEntity
  8
RACCORDO
100
AcDbPolyline
 62
7
  6
CONTINUOUS
 90
3
 70
0
 10
4.5854845212
 20
70.7609212876
 10
2.6664195812
 20
70.7629059294
 10
-0.6835238556
 20
70.7638140863
  0
LINE
  5
3C9
100
AcDbEntity
  8
RACCORDO
100
AcDbLine
 62
250
  6
CONTINUOUS
 10
2.2760015528
 20
70.7618581555
 11
3.3715660325
 21
70.7617266582
  0
LWPOLYLINE
  5
3CA
100
AcDbEntity
  8
RACCORDO
100
AcDbPolyline
 62
7
  6
CONTINUOUS
 90
8
 70
0
 10
-4.5173135781
 20
70.7607342584
 10
-4.6040133161
 20
70.7610188374
 10
-4.7414439089
 20
70.7626638348
 10
-4.8696189096
 20
70.7656700291
 10
-4.9878113625
 20
70.7699580691
 10
-5.0950651793
 20
70.7754730701
 10
-5.190541894
 20
70.7820749342
 10
-5.2225565785
 20
70.7847422553
  0
LWPOLYLINE
  5
3CB
100
AcDbEntity
  8
RACCORDO
100
AcDbPolyline
 62
250
  6
CONTINUOUS
 90
4
 70
0
 10
-4.933050352
 20
70.7650418418
 10
-4.8067964014
 20
70.7615982016
 10
-4.6727526029
 20
70.7595228976
 10
-4.5309150302
 20
70.7587844981
  0
LWPOLYLINE
  5
3CC
100
AcDbEntity
  8
RACCORDO
100
AcDbPolyline
 62
250
  6
CONTINUOUS
 90
3
 70
0
 10
6.3465939351
 20
70.574750242
 10
4.0749329425
 20
70.6948328914
 10
1.8013295728
 20
70.7625528405
  0
LWPOLYLINE
  5
3CD
100
AcDbEntity
  8
RACCORDO
100
AcDbPolyline
 62
250
  6
CONTINUOUS
 90
3
 70
0
 10
-5.1622016135
 20
70.776150681
 10
-5.0515178231
 20
70.7698834141
 10
-4.933050352
 20
70.7650418418
  0
LWPOLYLINE
  5
3CE
100
AcDbEntity
  8
RACCORDO
100
AcDbPolyline
 62
250
  6
CONTINUOUS
 90
3
 70
0
 10
-5.5231422142
 20
70.8109694089
 10
-5.5308559451
 20
70.8115079443
 10
-5.5665791117
 20
70.8100647665
  0
LINE
  5
3CF
100
AcDbEntity
  8
RACCORDO
100
AcDbLine
 62
250
  6
CONTINUOUS
 10
-5.2651039416
 20
70.7838695745
 11
-5.1622016135
 21
70.776150681
  0
LWPOLYLINE
  5
3D0
100
AcDbEntity
  8
RACCORDO
100
AcDbPolyline
 62
250
  6
CONTINUOUS
 90
3
 70
0
 10
-5.2231377678
 20
70.784794281
 10
-5.2272782523
 20
70.7851134253
 10
-5.2651052008
 20
70.783893463
  0
LINE
  5
3D1
100
AcDbEntity
  8
RACCORDO
100
AcDbLine
 62
250
  6
CONTINUOUS
 10
-5.5665902376
 20
70.8100638658
 11
-5.2651039416
 21
70.7838695745
  0
LINE
  5
3D2
100
AcDbEntity
  8
RACCORDO
100
AcDbLine
 62
7
  6
CONTINUOUS
 10
-5.2231393688
 20
70.7847772354
 11
-5.5239862673
 21
70.8110407742
  0
LINE
  5
3D3
100
AcDbEntity
  8
RACCORDO
100
AcDbLine
 62
7
  6
CONTINUOUS
 10
15.4204131443
 20
69.7703154229
 11
5.5666713338
 21
70.8117053282
  0
LINE
  5
3D4
100
AcDbEntity
  8
RACCORDO
100
AcDbLine
 62
250
  6
CONTINUOUS
 10
4.5171807998
 20
70.7607545643
 11
4.5307594541
 21
70.7588025963
  0
LWPOLYLINE
  5
3D5
100
AcDbEntity
  8
RACCORDO
100
AcDbPolyline
 62
250
  6
CONTINUOUS
 90
5
 70
0
 10
15.3894657845
 20
69.5722025831
 10
13.1377442951
 20
69.9009595363
 10
10.8792160464
 20
70.1777215967
 10
8.6150940827
 20
70.4023539227
 10
6.3465939351
 20
70.574750242
  0
LINE
  5
3D6
100
AcDbEntity
  8
RACCORDO
100
AcDbLine
 62
250
  6
CONTINUOUS
 10
1.7963681271
 20
70.7642664579
 11
1.8013124652
 21
70.762600506
  0
LWPOLYLINE
  5
3D7
100
AcDbEntity
  8
0
100
AcDbPolyline
 62
7
  6
CONTINUOUS
 90
3
 70
0
 43
0.3500000006
 10
-2.8928572569
 20
88.2367845154
 10
-4.3928571482
 20
88.2367845154
 10
-3.7500000114
 20
90.5939319763
  0
LWPOLYLINE
  5
3D8
100
AcDbEntity
  8
RACCORDO
100
AcDbPolyline
 62
250
  6
CONTINUOUS
 90
3
 70
0
 10
-37.1089724567
 20
-70.8071573632
 10
-37.1506558733
 20
-70.8114830165
 10
-37.1921769827
 20
-70.8100647665
  0
LINE
  5
3D9
100
AcDbEntity
  8
RACCORDO
100
AcDbLine
 62
7
  6
CONTINUOUS
 10
-38.9669993725
 20
-70.7644150781
 11
-38.5614543096
 21
-70.7616948004
  0
LINE
  5
3DA
100
AcDbEntity
  8
RACCORDO
100
AcDbLine
 62
250
  6
CONTINUOUS
 10
-38.5132154148
 20
-70.7595028848
 11
-38.9652656962
 21
-70.7625528048
  0
LWPOLYLINE
  5
3DB
100
AcDbEntity
  8
RACCORDO
100
AcDbPolyline
 62
7
  6
CONTINUOUS
 90
3
 70
0
 10
-38.5614543096
 20
-70.7616948004
 10
-38.1951079293
 20
-70.7607303743
 10
-38.1461302437
 20
-70.760736054
  0
LINE
  5
3DC
100
AcDbEntity
  8
RACCORDO
100
AcDbLine
 62
250
  6
CONTINUOUS
 10
-38.1773653137
 20
-70.758784502
 11
-38.5132154148
 21
-70.7595028848
  0
LINE
  5
3DD
100
AcDbEntity
  8
RACCORDO
100
AcDbLine
 62
7
  6
CONTINUOUS
 10
-38.9977435905
 20
-70.7643863957
 11
-38.9669993725
 21
-70.7644150781
  0
LWPOLYLINE
  5
3DE
100
AcDbEntity
  8
RACCORDO
100
AcDbPolyline
 62
7
  6
CONTINUOUS
 90
7
 70
0
 10
-38.1448055709
 20
-70.760732594
 10
-38.1251678807
 20
-70.7608228775
 10
-38.0619492886
 20
-70.7618661633
 10
-37.9836476523
 20
-70.7642180313
 10
-37.8904798531
 20
-70.7680045682
 10
-37.7832868858
 20
-70.7733433804
 10
-37.6622859289
 20
-70.7803671058
  0
LWPOLYLINE
  5
3DF
100
AcDbEntity
  8
RACCORDO
100
AcDbPolyline
 62
250
  6
CONTINUOUS
 90
4
 70
0
 10
-38.9652684692
 20
-70.7625490713
 10
-39.020954389
 20
-70.7623732672
 10
-39.0443146818
 20
-70.7621705102
 10
-39.0649207191
 20
-70.761890994
  0
LINE
  5
3E0
100
AcDbEntity
  8
RACCORDO
100
AcDbLine
 62
7
  6
CONTINUOUS
 10
-39.0449903798
 20
-70.7639969132
 11
-38.9977435905
 21
-70.7643863957
  0
LINE
  5
3E1
100
AcDbEntity
  8
RACCORDO
100
AcDbLine
 62
250
  6
CONTINUOUS
 10
-38.1082420074
 20
-70.7595191421
 11
-38.1773653137
 21
-70.758784502
  0
LINE
  5
3E2
100
AcDbEntity
  8
RACCORDO
100
AcDbLine
 62
7
  6
CONTINUOUS
 10
-39.0772502868
 20
-70.7634795193
 11
-39.0449903798
 21
-70.7639969132
  0
LINE
  5
3E3
100
AcDbEntity
  8
RACCORDO
100
AcDbLine
 62
7
  6
CONTINUOUS
 10
-39.0819771565
 20
-70.7633874855
 11
-39.0730322869
 21
-70.7635598613
  0
LINE
  5
3E4
100
AcDbEntity
  8
RACCORDO
100
AcDbLine
 62
250
  6
CONTINUOUS
 10
-39.0649207191
 20
-70.761890994
 11
-39.1068091344
 21
-70.7610490395
  0
LINE
  5
3E5
100
AcDbEntity
  8
RACCORDO
100
AcDbLine
 62
250
  6
CONTINUOUS
 10
-38.0619492886
 20
-70.7618661633
 11
-38.066882502
 21
-70.7617847513
  0
LINE
  5
3E6
100
AcDbEntity
  8
RACCORDO
100
AcDbLine
 62
250
  6
CONTINUOUS
 10
-38.0716817927
 20
-70.7616485614
 11
-38.1082420074
 21
-70.7595191421
  0
LINE
  5
3E7
100
AcDbEntity
  8
RACCORDO
100
AcDbLine
 62
250
  6
CONTINUOUS
 10
-39.1068091344
 20
-70.7610490395
 11
-39.1160631396
 21
-70.7608048088
  0
LINE
  5
3E8
100
AcDbEntity
  8
RACCORDO
100
AcDbLine
 62
7
  6
CONTINUOUS
 10
-38.0716817927
 20
-70.7616485614
 11
-38.066882502
 21
-70.7617847513
  0
LINE
  5
3E9
100
AcDbEntity
  8
RACCORDO
100
AcDbLine
 62
250
  6
CONTINUOUS
 10
-37.9836476523
 20
-70.7642180313
 11
-38.0280419531
 21
-70.7615923991
  0
LINE
  5
3EA
100
AcDbEntity
  8
RACCORDO
100
AcDbLine
 62
250
  6
CONTINUOUS
 10
-37.8904798531
 20
-70.7680045682
 11
-37.9367651509
 21
-70.7650355312
  0
LINE
  5
3EB
100
AcDbEntity
  8
RACCORDO
100
AcDbLine
 62
250
  6
CONTINUOUS
 10
-38.931661033
 20
-70.7642330841
 11
-38.9652679635
 21
-70.7625494761
  0
LINE
  5
3EC
100
AcDbEntity
  8
RACCORDO
100
AcDbLine
 62
250
  6
CONTINUOUS
 10
-37.7832868858
 20
-70.7733433804
 11
-37.8344116007
 21
-70.7698779788
  0
LINE
  5
3ED
100
AcDbEntity
  8
RACCORDO
100
AcDbLine
 62
250
  6
CONTINUOUS
 10
-38.1461302437
 20
-70.760736054
 11
-38.1773656314
 21
-70.7587875226
  0
LINE
  5
3EE
100
AcDbEntity
  8
RACCORDO
100
AcDbLine
 62
250
  6
CONTINUOUS
 10
-37.1799884787
 20
-70.8115574171
 11
-37.1808326506
 21
-70.8115020697
  0
LINE
  5
3EF
100
AcDbEntity
  8
RACCORDO
100
AcDbLine
 62
7
  6
CONTINUOUS
 10
-37.6622859289
 20
-70.7803671058
 11
-37.1800245208
 21
-70.811554387
  0
LINE
  5
3F0
100
AcDbEntity
  8
RACCORDO
100
AcDbLine
 62
250
  6
CONTINUOUS
 10
-37.1921796442
 20
-69.7686916617
 11
-39.0843198517
 21
-69.572270956
  0
LINE
  5
3F1
100
AcDbEntity
  8
RACCORDO
100
AcDbLine
 62
250
  6
CONTINUOUS
 10
-37.5849754263
 20
-70.7852911148
 11
-37.5964767887
 21
-70.7838935992
  0
LINE
  5
3F2
100
AcDbEntity
  8
RACCORDO
100
AcDbLine
 62
250
  6
CONTINUOUS
 10
-37.1808326506
 20
-70.8115020697
 11
-37.1921769827
 21
-70.8100647665
  0
LINE
  5
3F3
100
AcDbEntity
  8
RACCORDO
100
AcDbLine
 62
250
  6
CONTINUOUS
 10
-43.5398416527
 20
-64.366796061
 11
-43.182000982
 21
-64.3225034679
  0
LINE
  5
3F4
100
AcDbEntity
  8
RACCORDO
100
AcDbLine
 62
250
  6
CONTINUOUS
 10
-43.182000982
 20
-64.3225034679
 11
-42.4783591546
 21
-64.2400341988
  0
LINE
  5
3F5
100
AcDbEntity
  8
RACCORDO
100
AcDbLine
 62
250
  6
CONTINUOUS
 10
-42.4783591546
 20
-64.2400341988
 11
-41.6024522841
 21
-64.1415954548
  0
LINE
  5
3F6
100
AcDbEntity
  8
RACCORDO
100
AcDbLine
 62
250
  6
CONTINUOUS
 10
-41.6024522841
 20
-64.1415954548
 11
-40.5925906161
 21
-64.0314927308
  0
LWPOLYLINE
  5
3F7
100
AcDbEntity
  8
RACCORDO
100
AcDbPolyline
 62
250
  6
CONTINUOUS
 90
3
 70
0
 10
-40.5925906161
 20
-64.0314927308
 10
-39.4929432852
 20
-63.9145416797
 10
-39.1146813787
 20
-63.8749158815
  0
LINE
  5
3F8
100
AcDbEntity
  8
RACCORDO
100
AcDbLine
 62
250
  6
CONTINUOUS
 10
-36.8608211052
 20
-63.8749158815
 11
-39.1147134689
 21
-63.8745367684
  0
LWPOLYLINE
  5
3F9
100
AcDbEntity
  8
0
100
AcDbPolyline
 62
7
  6
CONTINUOUS
 90
10
 70
0
 43
0.3500000006
 10
-42.1108213348
 20
87.5939310608
 10
-41.2536788635
 20
88.4510690002
 10
-41.0393943787
 20
89.3082160034
 10
-41.0393943787
 20
90.1653539429
 10
-41.4679633484
 20
90.5939319763
 10
-42.1108213348
 20
90.5939319763
 10
-42.5393903046
 20
90.1653539429
 10
-42.5393903046
 20
89.3082160034
 10
-42.1108213348
 20
88.8796470337
 10
-41.1822476807
 20
88.8796470337
  0
LINE
  5
3FA
100
AcDbEntity
  8
RACCORDO
100
AcDbLine
 62
250
  6
CONTINUOUS
 10
-45.8608211052
 20
-28.5
 11
-40.9357276532
 21
-28.5
  0
LWPOLYLINE
  5
3FB
100
AcDbEntity
  8
0
100
AcDbPolyline
 62
7
  6
CONTINUOUS
 90
3
 70
0
 43
0.3500000006
 10
-55.2536786041
 20
-1.7142852631
 10
-55.2536786041
 20
-3.2142857208
 10
-57.6108215332
 20
-2.5714288673
  0
LWPOLYLINE
  5
3FC
100
AcDbEntity
  8
RACCORDO
100
AcDbPolyline
 62
250
  6
CONTINUOUS
 90
19
 70
0
 10
-43.9798559912
 20
64.7372406482
 10
-43.9216010976
 20
65.1445131961
 10
-43.8323003452
 20
65.5461830209
 10
-43.7124659886
 20
65.9399460292
 10
-43.5627854322
 20
66.3235434832
 10
-43.3841172866
 20
66.6947749579
 10
-43.1774864436
 20
67.0515109628
 10
-42.9440781972
 20
67.3917051578
 10
-42.6852314439
 20
67.7134060913
 10
-42.4024310032
 20
68.0147683943
 10
-42.0972990996
 20
68.2940633661
 10
-41.7715860573
 20
68.5496888905
 10
-41.4271602599
 20
68.7801786261
 10
-41.0659974326
 20
68.9842104176
 10
-40.6901693092
 20
69.1606138801
 10
-40.3018317477
 20
69.3083771125
 10
-39.903212364
 20
69.4266525025
 10
-39.4965977532
 20
69.5147615885
 10
-39.0843203736
 20
69.5721989515
  0
LWPOLYLINE
  5
3FD
100
AcDbEntity
  8
0
100
AcDbPolyline
 62
7
  6
CONTINUOUS
 90
3
 70
0
 43
0.3500000006
 10
-56.7536790619
 20
-4.9285717964
 10
-57.6108215332
 20
-4.0714281921
 10
-54.6108206177
 20
-4.0714281921
  0
LWPOLYLINE
  5
3FE
100
AcDbEntity
  8
0
100
AcDbPolyline
 62
7
  6
CONTINUOUS
 90
3
 70
0
 43
0.3500000006
 10
-56.7536790619
 20
-0.8571427917
 10
-57.6108215332
 20
-0.0000003204
 10
-54.6108206177
 20
-0.0000003204
  0
LWPOLYLINE
  5
3FF
100
AcDbEntity
  8
RACCORDO
100
AcDbPolyline
 62
250
  6
CONTINUOUS
 90
19
 70
0
 10
-43.9798559076
 20
-64.7372406395
 10
-43.9216010776
 20
-65.1445121126
 10
-43.8323003651
 20
-65.5461808618
 10
-43.7124660248
 20
-65.9399427979
 10
-43.5627854616
 20
-66.3235391878
 10
-43.3841172868
 20
-66.6947696106
 10
-43.1774863932
 20
-67.0515045805
 10
-42.9440780757
 20
-67.3916977617
 10
-42.6852312326
 20
-67.7133977068
 10
-42.4024306848
 20
-68.0147590513
 10
-42.0972986588
 20
-68.2940530985
 10
-41.7715854807
 20
-68.5496777363
 10
-41.4271595364
 20
-68.7801666275
 10
-41.0659965534
 20
-68.9841976203
 10
-40.690168268
 20
-69.1606003337
 10
-40.3018305408
 20
-69.3083628702
 10
-39.9032109902
 20
-69.4266376207
 10
-39.4965962142
 20
-69.5147461269
 10
-39.0843186737
 20
-69.5721829727
  0
LINE
  5
400
100
AcDbEntity
  8
RACCORDO
100
AcDbLine
 62
250
  6
CONTINUOUS
 10
-38.9652656962
 20
-70.7625528048
 11
-39.0843151118
 21
-69.5722714651
  0
LINE
  5
401
100
AcDbEntity
  8
RACCORDO
100
AcDbLine
 62
250
  6
CONTINUOUS
 10
-39.0843202806
 20
69.5722025831
 11
-38.9652646427
 21
70.7625528405
  0
LWPOLYLINE
  5
402
100
AcDbEntity
  8
0
100
AcDbPolyline
 62
7
  6
CONTINUOUS
 90
10
 70
0
 43
0.3500000006
 10
-55.1108207703
 20
1.5000001373
 10
-54.9679629364
 20
1.5714290543
 10
-54.8965362854
 20
1.5714290543
 10
-54.7536784515
 20
1.4285712204
 10
-54.7536784515
 20
1.3571423035
 10
-54.8251051025
 20
1.2857133865
 10
-54.8965362854
 20
1.2857133865
 10
-55.0393941193
 20
1.3571423035
 10
-55.1108207703
 20
1.4285712204
 10
-55.1108207703
 20
1.5000001373
  0
LWPOLYLINE
  5
403
100
AcDbEntity
  8
0
100
AcDbPolyline
 62
7
  6
CONTINUOUS
 90
10
 70
0
 43
0.3500000006
 10
-57.6108215332
 20
3.6428563156
 10
-56.9679635468
 20
3.0000005951
 10
-56.1108210754
 20
2.5714293594
 10
-55.0393941193
 20
2.5714293594
 10
-54.6108206177
 20
3.0000005951
 10
-54.6108206177
 20
3.6428563156
 10
-55.0393941193
 20
4.0714275513
 10
-55.8965365906
 20
4.0714275513
 10
-56.3251055603
 20
3.6428563156
 10
-56.3251055603
 20
2.7142849274
  0
LWPOLYLINE
  5
404
100
AcDbEntity
  8
RACCORDO
100
AcDbPolyline
 62
250
  6
CONTINUOUS
 90
10
 70
0
 10
-39.1147134689
 20
-63.8745367684
 10
-39.5263600741
 20
-59.5644630176
 10
-39.8831798756
 20
-55.3490017235
 10
-40.1851728734
 20
-51.228152886
 10
-40.4290072278
 20
-47.2015432257
 10
-40.6180147786
 20
-43.2695460221
 10
-40.7621910446
 20
-39.4332811138
 10
-40.8648678655
 20
-35.6931217805
 10
-40.9227134017
 20
-32.0486947425
 10
-40.9357276532
 20
-28.5
  0
LINE
  5
405
100
AcDbEntity
  8
RACCORDO
100
AcDbLine
 62
7
  6
CONTINUOUS
 10
-45.8608211052
 20
-28.4999913822
 11
-45.8608211052
 21
28.4999929678
  0
LINE
  5
406
100
AcDbEntity
  8
RACCORDO
100
AcDbLine
 62
250
  6
CONTINUOUS
 10
-40.9357276532
 20
-28.5
 11
-40.9357276532
 21
28.5
  0
LWPOLYLINE
  5
407
100
AcDbEntity
  8
RACCORDO
100
AcDbPolyline
 62
250
  6
CONTINUOUS
 90
10
 70
0
 10
-40.9357276532
 20
28.5
 10
-40.9227791781
 20
32.0458564069
 10
-40.8650011682
 20
35.6881560319
 10
-40.7623936233
 20
39.426898875
 10
-40.6183127179
 20
43.2624591027
 10
-40.4294022776
 20
47.1944625485
 10
-40.1855937793
 20
51.2217867132
 10
-39.8835310485
 20
55.3440574305
 10
-39.5265702596
 20
59.5616488666
 10
-39.1147114127
 20
63.8745610216
  0
LWPOLYLINE
  5
408
100
AcDbEntity
  8
0
100
AcDbPolyline
 62
7
  6
CONTINUOUS
 90
2
 70
0
 43
0.3500000006
 10
-54.6108206177
 20
-2.2142854156
 10
-56.1108210754
 20
-2.2142854156
  0
LWPOLYLINE
  5
409
100
AcDbEntity
  8
0
100
AcDbPolyline
 62
7
  6
CONTINUOUS
 90
3
 70
0
 43
0.3500000006
 10
-54.8965362854
 20
1.5714290543
 10
-54.6822518005
 20
1.5000001373
 10
-54.3965361328
 20
1.3571423035
  0
LINE
  5
40A
100
AcDbEntity
  8
RACCORDO
100
AcDbLine
 62
250
  6
CONTINUOUS
 10
-39.0843198517
 20
-69.572270956
 11
-39.0847193843
 21
-69.4994327841
  0
LINE
  5
40B
100
AcDbEntity
  8
RACCORDO
100
AcDbLine
 62
250
  6
CONTINUOUS
 10
-39.0847193843
 20
-69.4994327841
 11
-39.1146833585
 21
-63.8745367729
  0
LINE
  5
40C
100
AcDbEntity
  8
RACCORDO
100
AcDbLine
 62
250
  6
CONTINUOUS
 10
-37.1921796442
 20
70.8100638467
 11
-37.1921796442
 21
-70.8100638658
  0
LINE
  5
40D
100
AcDbEntity
  8
RACCORDO
100
AcDbLine
 62
7
  6
CONTINUOUS
 10
-36.8608211052
 20
70.5121708287
 11
-36.8608211052
 21
-70.5121708671
  0
LINE
  5
40E
100
AcDbEntity
  8
RACCORDO
100
AcDbLine
 62
250
  6
CONTINUOUS
 10
-39.0847176194
 20
69.4993844336
 11
-39.0843204558
 21
69.5722025649
  0
LINE
  5
40F
100
AcDbEntity
  8
RACCORDO
100
AcDbLine
 62
250
  6
CONTINUOUS
 10
-39.1146832358
 20
63.8745610256
 11
-39.0847176194
 21
69.4993844336
  0
LWPOLYLINE
  5
410
100
AcDbEntity
  8
RACCORDO
100
AcDbPolyline
 62
250
  6
CONTINUOUS
 90
13
 70
0
 10
-36.8608211052
 20
69.4739061169
 10
-36.8637406817
 20
69.5151582984
 10
-36.8724425873
 20
69.5556075626
 10
-36.8867574533
 20
69.5944666104
 10
-36.9064066626
 20
69.6309790964
 10
-36.931007768
 20
69.6644343411
 10
-36.9600819313
 20
69.6941811659
 10
-36.9930632546
 20
69.719640582
 10
-37.0293097942
 20
69.7403170522
 10
-37.0681160458
 20
69.7558081313
 10
-37.1087266867
 20
69.7658123058
 10
-37.1503512781
 20
69.7701348597
 10
-37.1921796449
 20
69.7686916627
  0
LWPOLYLINE
  5
411
100
AcDbEntity
  8
RACCORDO
100
AcDbPolyline
 62
250
  6
CONTINUOUS
 90
13
 70
0
 10
-36.8608211052
 20
70.5121708286
 10
-36.8637229517
 20
70.5537317943
 10
-36.8723841883
 20
70.5945300704
 10
-36.8866543923
 20
70.6337710619
 10
-36.9062807551
 20
70.6706985421
 10
-36.9308928628
 20
70.7045710744
 10
-36.9599928938
 20
70.7346882684
 10
-36.9930055887
 20
70.7604573486
 10
-37.0292925142
 20
70.7813822517
 10
-37.0681298938
 20
70.7970495705
 10
-37.1087525453
 20
70.8071592864
 10
-37.1503726687
 20
70.8115236131
 10
-37.1921796442
 20
70.8100644601
  0
LWPOLYLINE
  5
412
100
AcDbEntity
  8
RACCORDO
100
AcDbPolyline
 62
250
  6
CONTINUOUS
 90
11
 70
0
 10
-36.8608210447
 20
-70.5121708671
 10
-36.8636983734
 20
-70.5535963249
 10
-36.8723441039
 20
-70.5944269903
 10
-36.8866543341
 20
-70.6337711378
 10
-36.9062807749
 20
-70.6706876307
 10
-36.9308319096
 20
-70.7045075982
 10
-36.9599928489
 20
-70.7346883531
 10
-36.9930608678
 20
-70.7604850467
 10
-37.0292505876
 20
-70.7813722942
 10
-37.0681298688
 20
-70.7970496526
 10
-37.1089724567
 20
-70.8071573632
  0
LWPOLYLINE
  5
413
100
AcDbEntity
  8
RACCORDO
100
AcDbPolyline
 62
250
  6
CONTINUOUS
 90
13
 70
0
 10
-36.8608211052
 20
-69.4739061169
 10
-36.8637406846
 20
-69.515158319
 10
-36.8724425964
 20
-69.5556075941
 10
-36.8867574679
 20
-69.5944666428
 10
-36.9064066763
 20
-69.6309791181
 10
-36.9310077723
 20
-69.6644343461
 10
-36.9600819233
 20
-69.6941811588
 10
-36.9930632343
 20
-69.7196405684
 10
-37.0293097614
 20
-69.7403170364
 10
-37.0681160072
 20
-69.7558081189
 10
-37.1087266521
 20
-69.7658122995
 10
-37.1503512564
 20
-69.7701348583
 10
-37.1921796442
 20
-69.7686916617
  0
LINE
  5
414
100
AcDbEntity
  8
RACCORDO
100
AcDbLine
 62
250
  6
CONTINUOUS
 10
-45.8608211052
 20
28.5
 11
-40.9357276532
 21
28.5
  0
LWPOLYLINE
  5
415
100
AcDbEntity
  8
RACCORDO
100
AcDbPolyline
 62
250
  6
CONTINUOUS
 90
7
 70
0
 10
-44.0107014689
 20
-64.4396823124
 10
-43.9977897916
 20
-64.4341853984
 10
-43.9582670652
 20
-64.425961715
 10
-43.8923259864
 20
-64.4150513574
 10
-43.8002880569
 20
-64.4015075201
 10
-43.682602016
 20
-64.3853962373
 10
-43.5398416527
 20
-64.366796061
  0
LWPOLYLINE
  5
416
100
AcDbEntity
  8
RACCORDO
100
AcDbPolyline
 62
250
  6
CONTINUOUS
 90
8
 70
0
 10
-44.0107015203
 20
64.4396823177
 10
-43.9977897383
 20
64.434185427
 10
-43.958266907
 20
64.4259617643
 10
-43.8923257237
 20
64.415051425
 10
-43.8002876906
 20
64.4015076033
 10
-43.6826015475
 20
64.3853963334
 10
-43.5398410839
 20
64.3667961674
 10
-43.1820002205
 20
64.3225035871
  0
LINE
  5
417
100
AcDbEntity
  8
RACCORDO
100
AcDbLine
 62
250
  6
CONTINUOUS
 10
-36.8608211052
 20
63.8749158815
 11
-39.1147114127
 21
63.8745610216
  0
LINE
  5
418
100
AcDbEntity
  8
RACCORDO
100
AcDbLine
 62
250
  6
CONTINUOUS
 10
-41.2786360316
 20
64.1059613749
 11
-39.1146798454
 21
63.8749158797
  0
LINE
  5
419
100
AcDbEntity
  8
RACCORDO
100
AcDbLine
 62
250
  6
CONTINUOUS
 10
-42.4783581307
 20
64.240034318
 11
-41.2786360316
 21
64.1059613749
  0
LINE
  5
41A
100
AcDbEntity
  8
RACCORDO
100
AcDbLine
 62
250
  6
CONTINUOUS
 10
-43.1820002205
 20
64.3225035871
 11
-42.4783581307
 21
64.240034318
  0
LINE
  5
41B
100
AcDbEntity
  8
RACCORDO
100
AcDbLine
 62
250
  6
CONTINUOUS
 10
-37.1921796442
 20
69.7686916617
 11
-39.0843202806
 21
69.5722025831
  0
LINE
  5
41C
100
AcDbEntity
  8
RACCORDO
100
AcDbLine
 62
250
  6
CONTINUOUS
 10
-37.1808339335
 20
70.8115019149
 11
-37.192178145
 21
70.8100646109
  0
LINE
  5
41D
100
AcDbEntity
  8
RACCORDO
100
AcDbLine
 62
250
  6
CONTINUOUS
 10
-37.5854040509
 20
70.7852393457
 11
-37.5967232938
 21
70.7838244601
  0
LINE
  5
41E
100
AcDbEntity
  8
RACCORDO
100
AcDbLine
 62
250
  6
CONTINUOUS
 10
-37.5847986756
 20
70.7852808978
 11
-37.5291526482
 21
70.7882612576
  0
LINE
  5
41F
100
AcDbEntity
  8
RACCORDO
100
AcDbLine
 62
250
  6
CONTINUOUS
 10
-37.1799875088
 20
70.8115574039
 11
-37.1808339335
 21
70.8115019149
  0
LWPOLYLINE
  5
420
100
AcDbEntity
  8
RACCORDO
100
AcDbPolyline
 62
7
  6
CONTINUOUS
 90
6
 70
0
 10
-37.1800231962
 20
70.8115544719
 10
-37.6783228852
 20
70.7793108557
 10
-37.7981286035
 20
70.7725016575
 10
-37.9038628282
 20
70.7673701119
 10
-37.9953538664
 20
70.7637712305
 10
-38.071761365
 20
70.7616283727
  0
LINE
  5
421
100
AcDbEntity
  8
RACCORDO
100
AcDbLine
 62
250
  6
CONTINUOUS
 10
-38.1461886906
 20
70.7607545353
 11
-38.177420918
 21
70.7588025963
  0
LINE
  5
422
100
AcDbEntity
  8
RACCORDO
100
AcDbLine
 62
250
  6
CONTINUOUS
 10
-37.7207193203
 20
70.7761141878
 11
-37.6783228852
 21
70.7793108557
  0
LINE
  5
423
100
AcDbEntity
  8
RACCORDO
100
AcDbLine
 62
250
  6
CONTINUOUS
 10
-37.8338299641
 20
70.7698563747
 11
-37.7981286035
 21
70.7725016575
  0
LINE
  5
424
100
AcDbEntity
  8
RACCORDO
100
AcDbLine
 62
250
  6
CONTINUOUS
 10
-38.9316626831
 20
70.7642563788
 11
-38.9652736248
 21
70.762600506
  0
LINE
  5
425
100
AcDbEntity
  8
RACCORDO
100
AcDbLine
 62
250
  6
CONTINUOUS
 10
-37.9360552703
 20
70.7650245334
 11
-37.9038628282
 21
70.7673701119
  0
LINE
  5
426
100
AcDbEntity
  8
RACCORDO
100
AcDbLine
 62
250
  6
CONTINUOUS
 10
-38.0273952388
 20
70.7615897662
 11
-37.9953538664
 21
70.7637712305
  0
LINE
  5
427
100
AcDbEntity
  8
RACCORDO
100
AcDbLine
 62
250
  6
CONTINUOUS
 10
-39.1160970932
 20
70.760804753
 11
-39.1143745663
 21
70.7608575623
  0
LWPOLYLINE
  5
428
100
AcDbEntity
  8
RACCORDO
100
AcDbPolyline
 62
250
  6
CONTINUOUS
 90
4
 70
0
 10
-39.1143745663
 20
70.7608575623
 10
-39.0853906392
 20
70.7615141166
 10
-39.0678380603
 20
70.7618456146
 10
-39.0469956899
 20
70.7621371042
  0
LINE
  5
429
100
AcDbEntity
  8
RACCORDO
100
AcDbLine
 62
7
  6
CONTINUOUS
 10
-39.0619866512
 20
70.7637528014
 11
-39.0819769607
 21
70.7633876361
  0
LINE
  5
42A
100
AcDbEntity
  8
RACCORDO
100
AcDbLine
 62
7
  6
CONTINUOUS
 10
-38.0618146659
 20
70.7618728574
 11
-38.132884726
 21
70.7607866761
  0
LWPOLYLINE
  5
42B
100
AcDbEntity
  8
RACCORDO
100
AcDbPolyline
 62
250
  6
CONTINUOUS
 90
3
 70
0
 10
-38.177419163
 20
70.7587859202
 10
-38.1078498697
 20
70.7595211873
 10
-38.071761365
 20
70.7616283727
  0
LINE
  5
42C
100
AcDbEntity
  8
RACCORDO
100
AcDbLine
 62
250
  6
CONTINUOUS
 10
-39.0469956899
 20
70.7621371042
 11
-38.9958196767
 21
70.7625058657
  0
LINE
  5
42D
100
AcDbEntity
  8
RACCORDO
100
AcDbLine
 62
250
  6
CONTINUOUS
 10
-38.9958196767
 20
70.7625058657
 11
-38.965267408
 21
70.7625487996
  0
LWPOLYLINE
  5
42E
100
AcDbEntity
  8
RACCORDO
100
AcDbPolyline
 62
7
  6
CONTINUOUS
 90
4
 70
0
 10
-38.9695178015
 20
70.7644188815
 10
-38.9997320066
 20
70.7643788353
 10
-39.0252047279
 20
70.7642100264
 10
-39.0619866512
 20
70.7637528014
  0
LINE
  5
42F
100
AcDbEntity
  8
RACCORDO
100
AcDbLine
 62
7
  6
CONTINUOUS
 10
-38.132884726
 20
70.7607866761
 11
-38.3339790805
 21
70.760890692
  0
LINE
  5
430
100
AcDbEntity
  8
RACCORDO
100
AcDbLine
 62
7
  6
CONTINUOUS
 10
-38.1446397606
 20
70.760750537
 11
-38.1461886906
 21
70.7607545353
  0
LINE
  5
431
100
AcDbEntity
  8
RACCORDO
100
AcDbLine
 62
250
  6
CONTINUOUS
 10
-38.3339790805
 20
70.760890692
 11
-38.177419163
 21
70.7587859202
  0
LINE
  5
432
100
AcDbEntity
  8
RACCORDO
100
AcDbLine
 62
7
  6
CONTINUOUS
 10
-38.3339790805
 20
70.760890692
 11
-38.7590081855
 21
70.7628984857
  0
LINE
  5
433
100
AcDbEntity
  8
RACCORDO
100
AcDbLine
 62
250
  6
CONTINUOUS
 10
-38.8353844458
 20
70.7634731735
 11
-38.7590081855
 21
70.7628984857
  0
LINE
  5
434
100
AcDbEntity
  8
RACCORDO
100
AcDbLine
 62
7
  6
CONTINUOUS
 10
-38.7590081855
 20
70.7628984857
 11
-38.9695178015
 21
70.7644188815
  0
ARC
  5
435
100
AcDbEntity
  8
RACCORDO
100
AcDbCircle
 62
250
  6
CONTINUOUS
 10
-0.0
 20
29.0
 40
99.9651720026
100
AcDbArc
 50
261.1263902297
 51
266.8078161613
  0
ARC
  5
436
100
AcDbEntity
  8
RACCORDO
100
AcDbCircle
 62
250
  6
CONTINUOUS
 10
-0.0
 20
-29.0
 40
99.9651720026
100
AcDbArc
 50
81.1263902297
 51
86.8078161615
  0
ARC
  5
437
100
AcDbEntity
  8
RACCORDO
100
AcDbCircle
 62
250
  6
CONTINUOUS
 10
-0.0
 20
29.0
 40
99.9651719991
100
AcDbArc
 50
273.1921836416
 51
278.8736097703
  0
ARC
  5
438
100
AcDbEntity
  8
RACCORDO
100
AcDbCircle
 62
250
  6
CONTINUOUS
 10
-0.0
 20
-29.0
 40
99.9651719991
100
AcDbArc
 50
93.1921836416
 51
98.8736097703
  0
ARC
  5
439
100
AcDbEntity
  8
RACCORDO
100
AcDbCircle
 62
7
  6
CONTINUOUS
 10
14.5
 20
63.8749158815
 40
5.9668162456
100
AcDbArc
 50
0.0
 51
81.1263902297
  0
ARC
  5
43A
100
AcDbEntity
  8
RACCORDO
100
AcDbCircle
 62
7
  6
CONTINUOUS
 10
-14.5
 20
63.8749158815
 40
5.9668162456
100
AcDbArc
 50
98.8736097703
 51
180.0
  0
ARC
  5
43B
100
AcDbEntity
  8
RACCORDO
100
AcDbCircle
 62
7
  6
CONTINUOUS
 10
-14.5
 20
-63.8749158815
 40
5.9668162456
100
AcDbArc
 50
180.0
 51
261.1263902297
  0
ARC
  5
43C
100
AcDbEntity
  8
RACCORDO
100
AcDbCircle
 62
7
  6
CONTINUOUS
 10
14.5
 20
-63.8749158815
 40
5.9668162456
100
AcDbArc
 50
278.8736097703
 51
360.0
  0
ARC
  5
43D
100
AcDbEntity
  8
RACCORDO
100
AcDbCircle
 62
7
  6
CONTINUOUS
 10
5.5499657759
 20
70.5121708083
 40
0.3
100
AcDbArc
 50
86.8078223434
 51
95.1297792906
  0
ARC
  5
43E
100
AcDbEntity
  8
RACCORDO
100
AcDbCircle
 62
7
  6
CONTINUOUS
 10
-5.5499646262
 20
70.512170886
 40
0.3
100
AcDbArc
 50
84.8704469831
 51
93.1921770022
  0
ARC
  5
43F
100
AcDbEntity
  8
RACCORDO
100
AcDbCircle
 62
7
  6
CONTINUOUS
 10
-5.5499657765
 20
-70.5121708082
 40
0.3
100
AcDbArc
 50
266.807822343
 51
275.1297792847
  0
ARC
  5
440
100
AcDbEntity
  8
RACCORDO
100
AcDbCircle
 62
7
  6
CONTINUOUS
 10
5.5499646262
 20
-70.512170886
 40
0.3
100
AcDbArc
 50
264.8704469499
 51
273.1921770022
  0
ARC
  5
441
100
AcDbEntity
  8
RACCORDO
100
AcDbCircle
 62
7
  6
CONTINUOUS
 10
304.1391788948
 20
-28.5
 40
350.0
100
AcDbArc
 50
179.9999932614
 51
186.1336454258
  0
ARC
  5
442
100
AcDbEntity
  8
RACCORDO
100
AcDbCircle
 62
7
  6
CONTINUOUS
 10
304.1391788948
 20
28.5
 40
350.0
100
AcDbArc
 50
173.8663545742
 51
180.0000011512
  0
ARC
  5
443
100
AcDbEntity
  8
RACCORDO
100
AcDbCircle
 62
7
  6
CONTINUOUS
 10
-38.3886867431
 20
-65.3091193092
 40
5.5000000001
100
AcDbArc
 50
186.1336454241
 51
262.3999091627
  0
ARC
  5
444
100
AcDbEntity
  8
RACCORDO
100
AcDbCircle
 62
7
  6
CONTINUOUS
 10
-38.3886867431
 20
65.3091193092
 40
5.5000000001
100
AcDbArc
 50
97.6000760564
 51
173.8663545759
  0
ARC
  5
445
100
AcDbEntity
  8
RACCORDO
100
AcDbCircle
 62
7
  6
CONTINUOUS
 10
-37.1608211738
 20
70.5121708083
 40
0.3
100
AcDbArc
 50
0.0000996063
 51
93.8250041363
  0
ARC
  5
446
100
AcDbEntity
  8
RACCORDO
100
AcDbCircle
 62
7
  6
CONTINUOUS
 10
-37.1608210447
 20
-70.512170886
 40
0.3
100
AcDbArc
 50
266.1752167112
 51
359.999973078
  0
ENDSEC
  0
SECTION
  2
OBJECTS
  0
DICTIONARY
  5
C
100
AcDbDictionary
280
0
281
1
  3
ACAD_GROUP
350
D
  3
ACAD_MLINESTYLE
350
17
  3
ACAD_LAYOUT
350
1A
  3
ACAD_PLOTSETTINGS
350
19
  3
ACAD_PLOTSTYLENAME
350
E
  0
DICTIONARY
  5
D
102
{ACAD_REACTORS
330
C
102
}
100
AcDbDictionary
280
0
281
1
  0
ACDBDICTIONARYWDFLT
  5
E
102
{ACAD_REACTORS
330
C
102
}
100
AcDbDictionary
281
1
  3
Normal
350
F
100
AcDbDictionaryWithDefault
340
F
  0
DICTIONARY
  5
17
102
{ACAD_REACTORS
330
C
102
}
100
AcDbDictionary
280
0
281
1
  3
Standard
350
18
  0
DICTIONARY
  5
19
102
{ACAD_REACTORS
330
C
102
}
100
AcDbDictionary
281
1
  0
DICTIONARY
  5
1A
102
{ACAD_REACTORS
330
C
102
}
100
AcDbDictionary
281
1
  3
Model
350
447
  3
Layout1
350
448
  0
ACDBPLACEHOLDER
  5
F
102
{ACAD_REACTORS
330
E
102
}
  0
MLINESTYLE
  5
18
102
{ACAD_REACTORS
330
17
102
}
100
AcDbMlineStyle
  2
STANDARD
 70
0
  3

 62
256
 51
90.0
 52
90.0
 71
2
 49
0.5
 62
256
  6
BYLAYER
 49
-0.5
 62
256
  6
BYLAYER
  0
LAYOUT
  5
447
102
{ACAD_REACTORS
330
1A
102
}
100
AcDbPlotSettings
  1

  2
none_device
  4
ISO_A4_(297.00_x_210.00_MM)
  6

 40
0.0
 41
0.0
 42
0.0
 43
0.0
 44
297.0
 45
210.0
 46
0.0
 47
0.0
 48
0.0
 49
0.0
140
0.0
141
0.0
142
1.0
143
1.0
 70
1024
 72
1
 73
0
 74
0
  7

 75
0
147
1.0
148
0.0
149
0.0
100
AcDbLayout
  1
Model
 70
0
 71
0
 10
0.0
 20
0.0
 11
297.0
 21
210.0
 12
0.0
 22
0.0
 32
0.0
 14
0.0
 24
0.0
 34
0.0
 15
0.0
 25
0.0
 35
0.0
146
0.0
 13
0.0
 23
0.0
 33
0.0
 16
1.0
 26
0.0
 36
0.0
 17
0.0
 27
1.0
 37
0.0
 76
0
330
215
345
0
346
0
  0
LAYOUT
  5
448
102
{ACAD_REACTORS
330
1A
102
}
100
AcDbPlotSettings
  1

  2
none_device
  4
ISO_A4_(297.00_x_210.00_MM)
  6

 40
0.0
 41
0.0
 42
0.0
 43
0.0
 44
297.0
 45
210.0
 46
0.0
 47
0.0
 48
0.0
 49
0.0
140
0.0
141
0.0
142
1.0
143
1.0
 70
0
 72
1
 73
0
 74
0
  7

 75
0
147
1.0
148
0.0
149
0.0
100
AcDbLayout
  1
Layout1
 70
0
 71
1
 10
0.0
 20
0.0
 11
297.0
 21
210.0
 12
0.0
 22
0.0
 32
0.0
 14
0.0
 24
0.0
 34
0.0
 15
0.0
 25
0.0
 35
0.0
146
0.0
 13
0.0
 23
0.0
 33
0.0
 16
1.0
 26
0.0
 36
0.0
 17
0.0
 27
1.0
 37
0.0
 76
0
330
216
345
0
346
0
  0
ENDSEC
  0
EOF
