  0
SECTION
  2
HEADER
  9
$ACADVER
  1
AC1015
  9
$DWGCODEPAGE
  3
ANSI_1252
  9
$EXTMAX
 10
297.0
 20
210.0
 30
0.0
  9
$EXTMIN
 10
0.0
 20
0.0
 30
0.0
  9
$LIMMIN
 10
0.0
 20
0.0
  9
$LIMMAX
 10
297.0
 20
210.0
  9
$VIEWCTR
 10
148.5
 20
105.0
  9
$VIEWSIZE
 40
210.0
  9
$CLAYER
  8
0
  9
$LTSCALE
 40
16.335
  9
$CELTYPE
  6
BYLAYER
  9
$DIMSCALE
 40
1.0
  9
$DIMASZ
 40
3.0
  9
$DIMEXO
 40
1.85625
  9
$DIMDLI
 40
11.286
  9
$DIMEXE
 40
5.346
  9
$DIMCEN
 40
2.673
  9
$DIMLFAC
 40
1.0
  9
$DIMBLK
  1
_FILLED
  9
$DIMTXT
 40
3.0
  9
$DIMTOL
 70
1
  9
$DIMLIM
 70
0
  9
$DIMTFAC
 40
1.0
  9
$DIMTP
 40
0.01
  9
$DIMTM
 40
0.01
  9
$PDMODE
 70
3
  9
$PDSIZE
 40
3.0
  9
$HANDSEED
  5
573
  9
$TILEMODE
 70
1
  9
$MEASUREMENT
 70
1
  9
$INSUNITS
 70
4
  0
ENDSEC
  0
SECTION
  2
CLASSES
  0
CLASS
  1
ACDBDICTIONARYWDFLT
  2
AcDbDictionaryWithDefault
  3
AutoCAD 2000
 90
0
280
0
281
0
  0
CLASS
  1
ACDBPLACEHOLDER
  2
AcDbPlaceHolder
  3
AutoCAD 2000
 90
0
280
0
281
0
  0
CLASS
  1
LAYOUT
  2
AcDbLayout
  3
AutoCAD 2000
 90
0
280
0
281
0
  0
ENDSEC
  0
SECTION
  2
TABLES
  0
TABLE
  2
VPORT
  5
8
100
AcDbSymbolTable
 70
2
  0
VPORT
  5
1F4
100
AcDbSymbolTableRecord
100
AcDbViewportTableRecord
  2
*ACTIVE
 70
0
 10
0.0
 20
0.0
 11
1.0
 21
1.0
 12
148.5
 22
105.0
 13
0.0
 23
0.0
 14
1.0
 24
1.0
 15
0.0
 25
0.0
 16
0.0
 26
0.0
 36
1.0
 17
0.0
 27
0.0
 37
0.0
 40
210.0
 41
1.4142857143
 42
50.0
 43
0.0
 44
0.0
 50
0.0
 51
0.0
 71
0
 72
100
 73
1
 74
1
 75
0
 76
0
 77
0
 78
0
  0
ENDTAB
  0
TABLE
  2
LTYPE
  5
5
100
AcDbSymbolTable
 70
6
  0
LTYPE
  5
14
100
AcDbSymbolTableRecord
100
AcDbLinetypeTableRecord
  2
BYBLOCK
 70
0
  3

 72
65
 73
0
 40
0.0
  0
LTYPE
  5
15
100
AcDbSymbolTableRecord
100
AcDbLinetypeTableRecord
  2
BYLAYER
 70
0
  3

 72
65
 73
0
 40
0.0
  0
LTYPE
  5
16
100
AcDbSymbolTableRecord
100
AcDbLinetypeTableRecord
  2
CONTINUOUS
 70
64
  3
Solid line
 72
65
 73
0
 40
0.0
  0
LTYPE
  5
1F5
100
AcDbSymbolTableRecord
100
AcDbLinetypeTableRecord
  2
CENTER
 70
64
  3
____ _ ____ _ ____ _ ____ _ ____ _ ____ _ ____
 72
65
 73
4
 40
0.6
 49
0.375
 74
0
 49
-0.075
 74
0
 49
0.075
 74
0
 49
-0.075
 74
0
  0
LTYPE
  5
1F6
100
AcDbSymbolTableRecord
100
AcDbLinetypeTableRecord
  2
HIDDEN
 70
64
  3
- - - - - - - - - - - - - - - - - - - -
 72
65
 73
2
 40
0.2
 49
0.1
 74
0
 49
-0.1
 74
0
  0
LTYPE
  5
1F7
100
AcDbSymbolTableRecord
100
AcDbLinetypeTableRecord
  2
PHANTOM
 70
64
  3
_____ _ _ _____ _ _ _____ _ _ _____
 72
65
 73
6
 40
0.8
 49
0.45
 74
0
 49
-0.05
 74
0
 49
0.1
 74
0
 49
-0.05
 74
0
 49
0.1
 74
0
 49
-0.05
 74
0
  0
LTYPE
  5
1F8
100
AcDbSymbolTableRecord
100
AcDbLinetypeTableRecord
  2
DOT
 70
64
  3
. . . . . . . . . . . . . . . . . . . .
 72
65
 73
2
 40
0.2
 49
0.1
 74
0
 49
-0.1
 74
0
  0
LTYPE
  5
1F9
100
AcDbSymbolTableRecord
100
AcDbLinetypeTableRecord
  2
DASHED
 70
64
  3
- - - - - - - - - - - - - - - - - - - -
 72
65
 73
2
 40
0.2
 49
0.1
 74
0
 49
-0.1
 74
0
  0
ENDTAB
  0
TABLE
  2
LAYER
  5
2
100
AcDbSymbolTable
 70
36
  0
LAYER
  5
10
100
AcDbSymbolTableRecord
100
AcDbLayerTableRecord
  2
0
 70
0
 62
7
  6
CONTINUOUS
370
-3
390
F
  0
LAYER
  5
1FA
100
AcDbSymbolTableRecord
100
AcDbLayerTableRecord
  2
DEFAULT_1
 70
0
 62
7
  6
CENTER
370
-3
390
F
  0
LAYER
  5
1FB
100
AcDbSymbolTableRecord
100
AcDbLayerTableRecord
  2
DEFAULT_2
 70
0
 62
7
  6
HIDDEN
370
-3
390
F
  0
LAYER
  5
1FC
100
AcDbSymbolTableRecord
100
AcDbLayerTableRecord
  2
DEFAULT_3
 70
0
 62
7
  6
PHANTOM
370
-3
390
F
  0
LAYER
  5
1FD
100
AcDbSymbolTableRecord
100
AcDbLayerTableRecord
  2
ASSI
 70
0
 62
7
  6
CONTINUOUS
370
-3
390
F
  0
LAYER
  5
1FE
100
AcDbSymbolTableRecord
100
AcDbLayerTableRecord
  2
COORDINATE
 70
0
 62
7
  6
CONTINUOUS
370
-3
390
F
  0
LAYER
  5
1FF
100
AcDbSymbolTableRecord
100
AcDbLayerTableRecord
  2
COPY_PUBLISH
 70
0
 62
7
  6
CONTINUOUS
370
-3
390
F
  0
LAYER
  5
200
100
AcDbSymbolTableRecord
100
AcDbLayerTableRecord
  2
COSMETICI
 70
0
 62
7
  6
CONTINUOUS
370
-3
390
F
  0
LAYER
  5
201
100
AcDbSymbolTableRecord
100
AcDbLayerTableRecord
  2
CURVE
 70
0
 62
7
  6
CONTINUOUS
370
-3
390
F
  0
LAYER
  5
202
100
AcDbSymbolTableRecord
100
AcDbLayerTableRecord
  2
DRAFT
 70
0
 62
7
  6
CONTINUOUS
370
-3
390
F
  0
LAYER
  5
203
100
AcDbSymbolTableRecord
100
AcDbLayerTableRecord
  2
IMPORT_IGES
 70
0
 62
7
  6
CONTINUOUS
370
-3
390
F
  0
LAYER
  5
204
100
AcDbSymbolTableRecord
100
AcDbLayerTableRecord
  2
NOTE
 70
0
 62
7
  6
CONTINUOUS
370
-3
390
F
  0
LAYER
  5
205
100
AcDbSymbolTableRecord
100
AcDbLayerTableRecord
  2
PIANI
 70
0
 62
7
  6
CONTINUOUS
370
-3
390
F
  0
LAYER
  5
206
100
AcDbSymbolTableRecord
100
AcDbLayerTableRecord
  2
PUNTI
 70
0
 62
7
  6
CONTINUOUS
370
-3
390
F
  0
LAYER
  5
207
100
AcDbSymbolTableRecord
100
AcDbLayerTableRecord
  2
RACCORDO
 70
0
 62
7
  6
CONTINUOUS
370
-3
390
F
  0
LAYER
  5
208
100
AcDbSymbolTableRecord
100
AcDbLayerTableRecord
  2
SIMBOLI
 70
0
 62
7
  6
CONTINUOUS
370
-3
390
F
  0
LAYER
  5
209
100
AcDbSymbolTableRecord
100
AcDbLayerTableRecord
  2
SMUSSO
 70
0
 62
7
  6
CONTINUOUS
370
-3
390
F
  0
LAYER
  5
20A
100
AcDbSymbolTableRecord
100
AcDbLayerTableRecord
  2
SNAPLINE
 70
0
 62
7
  6
CONTINUOUS
370
-3
390
F
  0
LAYER
  5
20B
100
AcDbSymbolTableRecord
100
AcDbLayerTableRecord
  2
SUPERFICI
 70
0
 62
7
  6
CONTINUOUS
370
-3
390
F
  0
LAYER
  5
20C
100
AcDbSymbolTableRecord
100
AcDbLayerTableRecord
  2
TRASH
 70
0
 62
7
  6
CONTINUOUS
370
-3
390
F
  0
ENDTAB
  0
TABLE
  2
STYLE
  5
3
100
AcDbSymbolTable
 70
1
  0
STYLE
  5
11
100
AcDbSymbolTableRecord
100
AcDbTextStyleTableRecord
  2
STANDARD
 70
0
 40
0.0
 41
0.8
 50
0.0
 71
0
 42
0.2
  3
txt
  4

  0
STYLE
  5
20D
100
AcDbSymbolTableRecord
100
AcDbTextStyleTableRecord
  2
TEXTSTYLE_1
 70
0
 40
0.0
 41
0.8
 50
0.0
 71
0
 42
0.2
  3
gdt
  4

  0
ENDTAB
  0
TABLE
  2
VIEW
  5
6
100
AcDbSymbolTable
 70
0
  0
ENDTAB
  0
TABLE
  2
UCS
  5
7
100
AcDbSymbolTable
 70
0
  0
ENDTAB
  0
TABLE
  2
APPID
  5
9
100
AcDbSymbolTable
 70
1
  0
APPID
  5
20E
100
AcDbSymbolTableRecord
100
AcDbRegAppTableRecord
  2
ACAD
 70
0
  0
ENDTAB
  0
TABLE
  2
BLOCK_RECORD
  5
1
100
AcDbSymbolTable
 70
0
  0
BLOCK_RECORD
  5
20F
100
AcDbSymbolTableRecord
100
AcDbBlockTableRecord
  2
*Model_Space
  0
BLOCK_RECORD
  5
210
100
AcDbSymbolTableRecord
100
AcDbBlockTableRecord
  2
*Paper_Space
  0
BLOCK_RECORD
  5
211
100
AcDbSymbolTableRecord
100
AcDbBlockTableRecord
  2
_FILLED
  0
BLOCK_RECORD
  5
212
100
AcDbSymbolTableRecord
100
AcDbBlockTableRecord
  2
*D0
  0
BLOCK_RECORD
  5
213
100
AcDbSymbolTableRecord
100
AcDbBlockTableRecord
  2
*D1
  0
BLOCK_RECORD
  5
214
100
AcDbSymbolTableRecord
100
AcDbBlockTableRecord
  2
*D2
  0
BLOCK_RECORD
  5
215
100
AcDbSymbolTableRecord
100
AcDbBlockTableRecord
  2
*D3
  0
ENDTAB
  0
TABLE
  2
DIMSTYLE
  5
A
100
AcDbSymbolTable
 70
1
100
AcDbDimStyleTable
 71
0
  0
DIMSTYLE
105
216
100
AcDbSymbolTableRecord
100
AcDbDimStyleTableRecord
  2
STANDARD
 70
0
  3

  4

 40
1.0
 41
3.0
 42
0.0625
 43
0.38
 44
0.18
 45
0.0
 46
0.0
 47
0.01
 48
0.01
140
3.0
141
0.09
142
0.0
143
25.4
144
1.0
145
0.0
146
1.0
147
0.09
 71
1.0
 72
0.0
 73
0
 74
0
 75
0
 76
0
 77
1
 78
8
170
0
171
2
172
0
173
0
174
0
175
0
176
0
177
0
178
0
270
2
271
2
272
2
273
2
274
2
275
0
280
0
281
0
282
0
283
1
284
8
285
0
286
0
287
3
288
0
340
11
341
211
342
211
343
211
344
211
  0
DIMSTYLE
105
217
100
AcDbSymbolTableRecord
100
AcDbDimStyleTableRecord
  2
DIMSTYLE_1
 70
0
  3

  4

 40
1.0
 41
3.0
 42
0.0625
 43
0.38
 44
0.18
 45
0.0
 46
0.0
 47
0.0
 48
0.0
140
3.0
141
0.09
142
0.0
143
25.4
144
1.0
145
0.0
146
1.0
147
0.09
 71
0.0
 72
0.0
 73
0
 74
0
 75
0
 76
0
 77
1
 78
8
170
0
171
2
172
0
173
0
174
0
175
0
176
0
177
0
178
0
270
2
271
2
272
2
273
2
274
2
275
0
280
0
281
0
282
0
283
1
284
8
285
0
286
0
287
3
288
0
340
11
341
211
342
211
343
211
344
211
  0
ENDTAB
  0
ENDSEC
  0
SECTION
  2
BLOCKS
  0
BLOCK
  5
20
100
AcDbEntity
  8
0
100
AcDbBlockBegin
  2
*Model_Space
 70
0
 10
0.0
 20
0.0
 30
0.0
  3
*Model_Space
  1

  0
ENDBLK
  5
21
100
AcDbEntity
  8
0
100
AcDbBlockEnd
  0
BLOCK
  5
1C
100
AcDbEntity
  8
0
100
AcDbBlockBegin
  2
*Paper_Space
 70
0
 10
0.0
 20
0.0
 30
0.0
  3
*Paper_Space
  1

  0
ENDBLK
  5
1D
100
AcDbEntity
  8
0
100
AcDbBlockEnd
  0
BLOCK
  5
218
100
AcDbEntity
  8
0
100
AcDbBlockBegin
  2
_FILLED
 70
64
 10
0.0
 20
0.0
  3
_FILLED
  1

  0
SOLID
  5
219
100
AcDbEntity
  8
0
  6
BYBLOCK
 62
0
100
AcDbTrace
 10
0.0
 20
0.0
 11
-1.0
 21
0.3166666667
 12
-1.0
 22
-0.3166666667
 13
-1.0
 23
-0.3166666667
  0
ENDBLK
  5
21A
100
AcDbEntity
  8
0
  6
BYBLOCK
 62
0
100
AcDbBlockEnd
  0
BLOCK
  5
21B
100
AcDbEntity
  8
0
100
AcDbBlockBegin
 62
7
  6
CONTINUOUS
  2
*D0
 70
65
 10
0.0
 20
0.0
  3
*D0
  1

  0
LINE
  5
21C
100
AcDbEntity
  8
0
100
AcDbLine
 62
7
  6
CONTINUOUS
 10
59.6617906526
 20
115.4807344133
 11
59.6617906526
 21
135.7121052632
  0
LINE
  5
21D
100
AcDbEntity
  8
0
100
AcDbLine
 62
7
  6
CONTINUOUS
 10
101.8617906526
 20
107.605722321
 11
101.8617906526
 21
135.7121052632
  0
LINE
  5
21E
100
AcDbEntity
  8
0
100
AcDbLine
 62
7
  6
CONTINUOUS
 10
59.6617906526
 20
134.2121052632
 11
80.7617906526
 21
134.2121052632
  0
LINE
  5
21F
100
AcDbEntity
  8
0
100
AcDbLine
 62
7
  6
CONTINUOUS
 10
101.8617906526
 20
134.2121052632
 11
80.7617906526
 21
134.2121052632
  0
INSERT
  5
220
100
AcDbEntity
  8
0
100
AcDbBlockReference
 62
7
  6
CONTINUOUS
  2
_FILLED
 10
59.6617906526
 20
134.2121052632
 41
3.0
 42
3.0
 43
3.0
 50
180.0
  0
INSERT
  5
221
100
AcDbEntity
  8
0
100
AcDbBlockReference
 62
7
  6
CONTINUOUS
  2
_FILLED
 10
101.8617906526
 20
134.2121052632
 41
3.0
 42
3.0
 43
3.0
  0
ENDBLK
  5
222
100
AcDbEntity
  8
0
  6
BYBLOCK
 62
0
100
AcDbBlockEnd
  0
BLOCK
  5
223
100
AcDbEntity
  8
0
100
AcDbBlockBegin
 62
7
  6
CONTINUOUS
  2
*D1
 70
65
 10
0.0
 20
0.0
  3
*D1
  1

  0
LINE
  5
224
100
AcDbEntity
  8
0
100
AcDbLine
 62
7
  6
CONTINUOUS
 10
64.1617906526
 20
115.2121814156
 11
64.1617906526
 21
125.7121052632
  0
LINE
  5
225
100
AcDbEntity
  8
0
100
AcDbLine
 62
7
  6
CONTINUOUS
 10
101.8617906526
 20
107.605722321
 11
101.8617906526
 21
125.7121052632
  0
LINE
  5
226
100
AcDbEntity
  8
0
100
AcDbLine
 62
7
  6
CONTINUOUS
 10
64.1617906526
 20
124.2121052632
 11
83.0117906526
 21
124.2121052632
  0
LINE
  5
227
100
AcDbEntity
  8
0
100
AcDbLine
 62
7
  6
CONTINUOUS
 10
101.8617906526
 20
124.2121052632
 11
83.0117906526
 21
124.2121052632
  0
INSERT
  5
228
100
AcDbEntity
  8
0
100
AcDbBlockReference
 62
7
  6
CONTINUOUS
  2
_FILLED
 10
64.1617906526
 20
124.2121052632
 41
3.0
 42
3.0
 43
3.0
 50
180.0
  0
INSERT
  5
229
100
AcDbEntity
  8
0
100
AcDbBlockReference
 62
7
  6
CONTINUOUS
  2
_FILLED
 10
101.8617906526
 20
124.2121052632
 41
3.0
 42
3.0
 43
3.0
  0
ENDBLK
  5
22A
100
AcDbEntity
  8
0
  6
BYBLOCK
 62
0
100
AcDbBlockEnd
  0
BLOCK
  5
22B
100
AcDbEntity
  8
0
100
AcDbBlockBegin
 62
7
  6
CONTINUOUS
  2
*D2
 70
65
 10
0.0
 20
0.0
  3
*D2
  1

  0
LINE
  5
22C
100
AcDbEntity
  8
0
100
AcDbLine
 62
7
  6
CONTINUOUS
 10
150.1821052632
 20
115.2121814156
 11
150.1821052632
 21
125.7121052632
  0
LINE
  5
22D
100
AcDbEntity
  8
0
100
AcDbLine
 62
7
  6
CONTINUOUS
 10
121.1821052632
 20
115.2121814156
 11
121.1821052632
 21
125.7121052632
  0
LINE
  5
22E
100
AcDbEntity
  8
0
100
AcDbLine
 62
7
  6
CONTINUOUS
 10
150.1821052632
 20
124.2121052632
 11
135.6821052632
 21
124.2121052632
  0
LINE
  5
22F
100
AcDbEntity
  8
0
100
AcDbLine
 62
7
  6
CONTINUOUS
 10
121.1821052632
 20
124.2121052632
 11
135.6821052632
 21
124.2121052632
  0
INSERT
  5
230
100
AcDbEntity
  8
0
100
AcDbBlockReference
 62
7
  6
CONTINUOUS
  2
_FILLED
 10
150.1821052632
 20
124.2121052632
 41
3.0
 42
3.0
 43
3.0
  0
INSERT
  5
231
100
AcDbEntity
  8
0
100
AcDbBlockReference
 62
7
  6
CONTINUOUS
  2
_FILLED
 10
121.1821052632
 20
124.2121052632
 41
3.0
 42
3.0
 43
3.0
 50
180.0
  0
ENDBLK
  5
232
100
AcDbEntity
  8
0
  6
BYBLOCK
 62
0
100
AcDbBlockEnd
  0
BLOCK
  5
233
100
AcDbEntity
  8
0
100
AcDbBlockBegin
 62
7
  6
CONTINUOUS
  2
*D3
 70
65
 10
0.0
 20
0.0
  3
*D3
  1

  0
LINE
  5
234
100
AcDbEntity
  8
0
100
AcDbLine
 62
7
  6
CONTINUOUS
 10
148.7287548724
 20
116.2121052632
 11
159.6821052632
 21
116.2121052632
  0
LINE
  5
235
100
AcDbEntity
  8
0
100
AcDbLine
 62
7
  6
CONTINUOUS
 10
145.2354556539
 20
62.2121052632
 11
159.6821052632
 21
62.2121052632
  0
LINE
  5
236
100
AcDbEntity
  8
0
100
AcDbLine
 62
7
  6
CONTINUOUS
 10
158.1821052632
 20
116.2121052632
 11
158.1821052632
 21
89.2121052632
  0
LINE
  5
237
100
AcDbEntity
  8
0
100
AcDbLine
 62
7
  6
CONTINUOUS
 10
158.1821052632
 20
62.2121052632
 11
158.1821052632
 21
89.2121052632
  0
INSERT
  5
238
100
AcDbEntity
  8
0
100
AcDbBlockReference
 62
7
  6
CONTINUOUS
  2
_FILLED
 10
158.1821052632
 20
116.2121052632
 41
3.0
 42
3.0
 43
3.0
 50
90.0
  0
INSERT
  5
239
100
AcDbEntity
  8
0
100
AcDbBlockReference
 62
7
  6
CONTINUOUS
  2
_FILLED
 10
158.1821052632
 20
62.2121052632
 41
3.0
 42
3.0
 43
3.0
 50
270.0
  0
ENDBLK
  5
23A
100
AcDbEntity
  8
0
  6
BYBLOCK
 62
0
100
AcDbBlockEnd
  0
ENDSEC
  0
SECTION
  2
ENTITIES
  0
DIMENSION
  5
23B
100
AcDbEntity
  8
0
100
AcDbDimension
 62
7
  6
CONTINUOUS
  2
*D0
 10
101.8617906526
 20
134.2121052632
 11
76.3689335098
 21
134.9621052632
 70
160
 71
2
 42
42.2
  3
DIMSTYLE_1
100
AcDbAlignedDimension
 13
59.6617906526
 23
115.4807344133
 14
101.8617906526
 24
107.605722321
100
AcDbRotatedDimension
  0
DIMENSION
  5
23C
100
AcDbEntity
  8
0
100
AcDbDimension
 62
7
  6
CONTINUOUS
  2
*D1
 10
101.8617906526
 20
124.2121052632
 11
78.7260763669
 21
124.9621052632
 70
160
 71
2
 42
37.7
  3
DIMSTYLE_1
100
AcDbAlignedDimension
 13
64.1617906526
 23
115.2121814156
 14
101.8617906526
 24
107.605722321
100
AcDbRotatedDimension
  0
DIMENSION
  5
23D
100
AcDbEntity
  8
0
100
AcDbDimension
 62
7
  6
CONTINUOUS
  2
*D2
 10
121.1821052632
 20
124.2121052632
 11
133.324962406
 21
124.9621052632
 70
160
 71
2
 42
29.0
  3
DIMSTYLE_1
100
AcDbAlignedDimension
 13
150.1821052632
 23
115.2121814156
 14
121.1821052632
 24
115.2121814156
 50
180.0
100
AcDbRotatedDimension
  0
DIMENSION
  5
23E
100
AcDbEntity
  8
0
100
AcDbDimension
 62
7
  6
CONTINUOUS
  2
*D3
 10
158.1821052632
 20
62.2121052632
 11
157.4321052632
 21
86.9621052632
 70
160
 71
2
 42
54.0
  3
DIMSTYLE_1
100
AcDbAlignedDimension
 13
148.7287548724
 23
116.2121052632
 14
145.2354556539
 24
62.2121052632
 50
270.0
100
AcDbRotatedDimension
  0
LINE
  5
23F
100
AcDbEntity
  8
RACCORDO
100
AcDbLine
 62
253
  6
CONTINUOUS
 10
148.7321052632
 20
64.2123790594
 11
148.4059560476
 21
64.1473082776
  0
LINE
  5
240
100
AcDbEntity
  8
RACCORDO
100
AcDbLine
 62
253
  6
CONTINUOUS
 10
148.5316466732
 20
64.4121052632
 11
148.206717108
 21
64.3472778166
  0
LINE
  5
241
100
AcDbEntity
  8
RACCORDO
100
AcDbLine
 62
7
  6
CONTINUOUS
 10
122.9033201201
 20
62.2121052632
 11
126.8608904062
 21
62.2121052632
  0
LINE
  5
242
100
AcDbEntity
  8
RACCORDO
100
AcDbLine
 62
7
  6
CONTINUOUS
 10
144.5033201201
 20
62.2121052632
 11
148.4608904062
 21
62.2121052632
  0
LINE
  5
243
100
AcDbEntity
  8
RACCORDO
100
AcDbLine
 62
253
  6
CONTINUOUS
 10
126.5705149442
 20
62.8777906881
 11
123.1936955821
 21
62.8777906881
  0
LINE
  5
244
100
AcDbEntity
  8
RACCORDO
100
AcDbLine
 62
253
  6
CONTINUOUS
 10
144.7936955821
 20
62.8777906881
 11
148.1705149442
 21
62.8777906881
  0
LWPOLYLINE
  5
245
100
AcDbEntity
  8
RACCORDO
100
AcDbPolyline
 62
253
  6
CONTINUOUS
 90
13
 70
0
 10
123.1936955821
 20
62.8777906881
 10
123.1686575483
 20
62.8800028296
 10
123.1440149886
 20
62.8844137711
 10
123.1201571305
 20
62.8909538419
 10
123.0974608071
 20
62.8995197421
 10
123.0762845052
 20
62.9099761739
 10
123.0569627029
 20
62.9221579785
 10
123.0398005868
 20
62.935872745
 10
123.0250692312
 20
62.9509038498
 10
123.0130013167
 20
62.9670138775
 10
123.0037874553
 20
62.9839483715
 10
122.9975731792
 20
63.0014398527
 10
122.9944566424
 20
63.0192120443
  0
LINE
  5
246
100
AcDbEntity
  8
RACCORDO
100
AcDbLine
 62
253
  6
CONTINUOUS
 10
122.6321052632
 20
64.2123790594
 11
122.9582544787
 21
64.1473082776
  0
LINE
  5
247
100
AcDbEntity
  8
RACCORDO
100
AcDbLine
 62
253
  6
CONTINUOUS
 10
122.8325638531
 20
64.4121052632
 11
123.1574934183
 21
64.3472778166
  0
LWPOLYLINE
  5
248
100
AcDbEntity
  8
RACCORDO
100
AcDbPolyline
 62
253
  6
CONTINUOUS
 90
21
 70
0
 10
122.9582544787
 20
64.1473082776
 10
122.9621473029
 20
64.144861479
 10
122.9659790345
 20
64.1392215567
 10
122.9697496735
 20
64.1303885108
 10
122.9734814164
 20
64.118278697
 10
122.9771520666
 20
64.1029757594
 10
122.9806950351
 20
64.084730631
 10
122.9841061262
 20
64.0634947813
 10
122.9873895355
 20
64.0393167406
 10
122.9904912616
 20
64.0125930327
 10
122.9934083534
 20
63.983277508
 10
122.9961437619
 20
63.951416316
 10
122.9986523394
 20
63.9175444291
 10
123.0009298447
 20
63.8816330204
 10
123.002980519
 20
63.8437109167
 10
123.0047719377
 20
63.8043995708
 10
123.0062999477
 20
63.7636543057
 10
123.0075687021
 20
63.7215197983
 10
123.0085582355
 20
63.6787515317
 10
123.0092618928
 20
63.6356013338
 10
123.009686329
 20
63.5918173767
  0
LWPOLYLINE
  5
249
100
AcDbEntity
  8
RACCORDO
100
AcDbPolyline
 62
253
  6
CONTINUOUS
 90
21
 70
0
 10
123.1574934183
 20
64.3472778166
 10
123.1614092669
 20
64.3440518381
 10
123.1652567759
 20
64.3364585364
 10
123.1690359454
 20
64.3245404553
 10
123.1727666558
 20
64.3083633601
 10
123.1764290267
 20
64.2880170542
 10
123.1799634164
 20
64.2636159281
 10
123.1833677588
 20
64.2352957624
 10
123.18664412
 20
64.2032131038
 10
123.1897390576
 20
64.1675468405
 10
123.1926494228
 20
64.1284948338
 10
123.1953783643
 20
64.0862720488
 10
123.1978818867
 20
64.041110852
 10
123.2001562396
 20
63.9932602352
 10
123.2022051732
 20
63.9429826124
 10
123.2039959431
 20
63.8905517797
 10
123.2055244179
 20
63.836255391
 10
123.2067947289
 20
63.7803901962
 10
123.207786526
 20
63.7232580022
 10
123.2084930259
 20
63.6651695894
 10
123.2089210118
 20
63.6064433113
  0
LWPOLYLINE
  5
24A
100
AcDbEntity
  8
0
100
AcDbPolyline
 62
7
  6
CONTINUOUS
 90
10
 70
0
 43
0.3500000006
 10
136.1106732788
 20
124.9621016235
 10
136.967820282
 20
125.8192486267
 10
137.1821047668
 20
126.6763865662
 10
137.1821047668
 20
127.5335335693
 10
136.7535357971
 20
127.9621025391
 10
136.1106732788
 20
127.9621025391
 10
135.6821043091
 20
127.5335335693
 10
135.6821043091
 20
126.6763865662
 10
136.1106732788
 20
126.2478175964
 10
137.0392514648
 20
126.2478175964
  0
LWPOLYLINE
  5
24B
100
AcDbEntity
  8
RACCORDO
100
AcDbPolyline
 62
253
  6
CONTINUOUS
 90
13
 70
0
 10
144.7574934183
 20
64.3472778166
 10
144.731511532
 20
64.3455305597
 10
144.7059735151
 20
64.3403979973
 10
144.6813155037
 20
64.3319678396
 10
144.6579585662
 20
64.3203840952
 10
144.6363015978
 20
64.3058446493
 10
144.6167144866
 20
64.2885979156
 10
144.5995316864
 20
64.2689385142
 10
144.5850465425
 20
64.247202217
 10
144.5735063463
 20
64.2237602794
 10
144.5651080776
 20
64.1990130576
 10
144.5599950508
 20
64.1733831665
 10
144.5582544787
 20
64.1473082776
  0
LINE
  5
24C
100
AcDbEntity
  8
RACCORDO
100
AcDbLine
 62
7
  6
CONTINUOUS
 10
136.6821052632
 20
64.6718729325
 11
137.2763951872
 21
64.7105868734
  0
LINE
  5
24D
100
AcDbEntity
  8
RACCORDO
100
AcDbLine
 62
7
  6
CONTINUOUS
 10
149.6821814156
 20
63.2121052632
 11
148.7321052632
 21
63.2121052632
  0
LINE
  5
24E
100
AcDbEntity
  8
DRAFT
100
AcDbLine
 62
7
  6
CONTINUOUS
 10
122.9033201201
 20
63.2121052632
 11
122.6321052632
 21
63.2121052632
  0
LINE
  5
24F
100
AcDbEntity
  8
RACCORDO
100
AcDbLine
 62
7
  6
CONTINUOUS
 10
122.6321052632
 20
63.2121052632
 11
121.6820291107
 21
63.2121052632
  0
LINE
  5
250
100
AcDbEntity
  8
DRAFT
100
AcDbLine
 62
7
  6
CONTINUOUS
 10
126.8608904062
 20
63.2121052632
 11
144.5033201201
 21
63.2121052632
  0
LINE
  5
251
100
AcDbEntity
  8
DRAFT
100
AcDbLine
 62
7
  6
CONTINUOUS
 10
148.4608904062
 20
63.2121052632
 11
148.7321052632
 21
63.2121052632
  0
LINE
  5
252
100
AcDbEntity
  8
RACCORDO
100
AcDbLine
 62
253
  6
CONTINUOUS
 10
126.7543789821
 20
63.4434761131
 11
123.0098315442
 21
63.4434761131
  0
LINE
  5
253
100
AcDbEntity
  8
RACCORDO
100
AcDbLine
 62
253
  6
CONTINUOUS
 10
144.6098315442
 20
63.4434761131
 11
148.3543789821
 21
63.4434761131
  0
LINE
  5
254
100
AcDbEntity
  8
RACCORDO
100
AcDbLine
 62
253
  6
CONTINUOUS
 10
148.3543789821
 20
63.5473996605
 11
144.6098315442
 21
63.5473996605
  0
LINE
  5
255
100
AcDbEntity
  8
RACCORDO
100
AcDbLine
 62
253
  6
CONTINUOUS
 10
126.7543789821
 20
63.5473996605
 11
123.0098315442
 21
63.5473996605
  0
LINE
  5
256
100
AcDbEntity
  8
RACCORDO
100
AcDbLine
 62
253
  6
CONTINUOUS
 10
148.206717108
 20
64.3472778166
 11
144.7574934183
 21
64.3472778166
  0
LINE
  5
257
100
AcDbEntity
  8
RACCORDO
100
AcDbLine
 62
253
  6
CONTINUOUS
 10
126.606717108
 20
64.3472778166
 11
123.1574934183
 21
64.3472778166
  0
LINE
  5
258
100
AcDbEntity
  8
RACCORDO
100
AcDbLine
 62
7
  6
CONTINUOUS
 10
122.5820748022
 20
64.4121052632
 11
122.8325638531
 21
64.4121052632
  0
LINE
  5
259
100
AcDbEntity
  8
RACCORDO
100
AcDbLine
 62
7
  6
CONTINUOUS
 10
126.9316466732
 20
64.4121052632
 11
144.4325638531
 21
64.4121052632
  0
LINE
  5
25A
100
AcDbEntity
  8
RACCORDO
100
AcDbLine
 62
7
  6
CONTINUOUS
 10
148.5316466732
 20
64.4121052632
 11
148.7821357241
 21
64.4121052632
  0
LINE
  5
25B
100
AcDbEntity
  8
DRAFT
100
AcDbLine
 62
7
  6
CONTINUOUS
 10
134.6821052632
 20
64.6718729325
 11
136.6821052632
 21
64.6718729325
  0
LINE
  5
25C
100
AcDbEntity
  8
RACCORDO
100
AcDbLine
 62
7
  6
CONTINUOUS
 10
134.0878153391
 20
64.7105868734
 11
134.6821052632
 21
64.6718729325
  0
LWPOLYLINE
  5
25D
100
AcDbEntity
  8
RACCORDO
100
AcDbPolyline
 62
253
  6
CONTINUOUS
 90
13
 70
0
 10
144.7936955821
 20
62.8777906881
 10
144.7686575483
 20
62.8800028295
 10
144.7440149887
 20
62.8844137708
 10
144.7201571305
 20
62.8909538415
 10
144.6974608071
 20
62.8995197417
 10
144.6762845052
 20
62.9099761736
 10
144.656962703
 20
62.9221579782
 10
144.6398005868
 20
62.9358727448
 10
144.6250692312
 20
62.9509038496
 10
144.6130013167
 20
62.9670138774
 10
144.6037874553
 20
62.9839483715
 10
144.5975731792
 20
63.0014398527
 10
144.5944566424
 20
63.0192120443
  0
LINE
  5
25E
100
AcDbEntity
  8
RACCORDO
100
AcDbLine
 62
253
  6
CONTINUOUS
 10
127.1321052632
 20
64.2123790594
 11
126.8059560476
 21
64.1473082776
  0
LINE
  5
25F
100
AcDbEntity
  8
RACCORDO
100
AcDbLine
 62
253
  6
CONTINUOUS
 10
126.9316466732
 20
64.4121052632
 11
126.606717108
 21
64.3472778166
  0
LWPOLYLINE
  5
260
100
AcDbEntity
  8
RACCORDO
100
AcDbPolyline
 62
253
  6
CONTINUOUS
 90
13
 70
0
 10
123.1574934183
 20
64.3472778166
 10
123.131511532
 20
64.3455305597
 10
123.1059735151
 20
64.3403979973
 10
123.0813155037
 20
64.3319678396
 10
123.0579585662
 20
64.3203840952
 10
123.0363015978
 20
64.3058446493
 10
123.0167144866
 20
64.2885979156
 10
122.9995316864
 20
64.2689385142
 10
122.9850465425
 20
64.247202217
 10
122.9735063463
 20
64.2237602794
 10
122.9651080776
 20
64.1990130576
 10
122.9599950508
 20
64.1733831665
 10
122.9582544787
 20
64.1473082776
  0
LINE
  5
261
100
AcDbEntity
  8
RACCORDO
100
AcDbLine
 62
7
  6
CONTINUOUS
 10
136.9548561563
 20
65.6897931236
 11
137.3326545497
 21
65.7144041158
  0
LINE
  5
262
100
AcDbEntity
  8
RACCORDO
100
AcDbLine
 62
7
  6
CONTINUOUS
 10
136.6821052632
 20
65.7628541578
 11
137.2218450086
 21
65.7980145261
  0
LINE
  5
263
100
AcDbEntity
  8
RACCORDO
100
AcDbLine
 62
7
  6
CONTINUOUS
 10
136.9003059777
 20
66.5771903106
 11
137.2798888849
 21
66.6019175518
  0
LINE
  5
264
100
AcDbEntity
  8
DRAFT
100
AcDbLine
 62
7
  6
CONTINUOUS
 10
134.3605662322
 20
66.8459983105
 11
134.0926170398
 21
66.8285432456
  0
LWPOLYLINE
  5
265
100
AcDbEntity
  8
RACCORDO
100
AcDbPolyline
 62
253
  6
CONTINUOUS
 90
15
 70
0
 10
144.28240494
 20
65.822535663
 10
144.3416635522
 20
65.8260441034
 10
144.3954565824
 20
65.8295031941
 10
144.4437010975
 20
65.8329103329
 10
144.4864800305
 20
65.8362681219
 10
144.5244725515
 20
65.8395620191
 10
144.5575607108
 20
65.8427673539
 10
144.5858624581
 20
65.8459087967
 10
144.6104108127
 20
65.8490458172
 10
144.631507169
 20
65.852163377
 10
144.6488501325
 20
65.8552765143
 10
144.6625685401
 20
65.8584898133
 10
144.6727053371
 20
65.8618381355
 10
144.6792175782
 20
65.8652866193
 10
144.6821052632
 20
65.8688352649
  0
LWPOLYLINE
  5
266
100
AcDbEntity
  8
RACCORDO
100
AcDbPolyline
 62
253
  6
CONTINUOUS
 90
15
 70
0
 10
144.4650071642
 20
65.6220990367
 10
144.5270616771
 20
65.6256456439
 10
144.5831372986
 20
65.6291428992
 10
144.6334610833
 20
65.632588459
 10
144.6783191399
 20
65.6359846668
 10
144.7178751378
 20
65.6393152409
 10
144.7521679681
 20
65.6425548546
 10
144.7817792535
 20
65.6457288345
 10
144.807477419
 20
65.6488968788
 10
144.829208402
 20
65.6520430997
 10
144.8471441827
 20
65.6551833851
 10
144.8617646712
 20
65.6584250963
 10
144.8728096609
 20
65.6618040207
 10
144.8797169926
 20
65.665284371
 10
144.8821052632
 20
65.6688657075
  0
LINE
  5
267
100
AcDbEntity
  8
RACCORDO
100
AcDbLine
 62
253
  6
CONTINUOUS
 10
144.1459231026
 20
65.8154307773
 11
144.28240494
 21
65.822535663
  0
LWPOLYLINE
  5
268
100
AcDbEntity
  8
RACCORDO
100
AcDbPolyline
 62
253
  6
CONTINUOUS
 90
12
 70
0
 10
141.7707175238
 20
66.6721564704
 10
141.8471691503
 20
66.6759578402
 10
141.9142916931
 20
66.6796621215
 10
141.9718872091
 20
66.6832333818
 10
142.0201536413
 20
66.6867075537
 10
142.0617449652
 20
66.6901615051
 10
142.0973354069
 20
66.693573453
 10
142.1262507403
 20
66.6969651805
 10
142.1491222629
 20
66.7004789038
 10
142.1661604071
 20
66.7041620287
 10
142.1771547406
 20
66.7079671495
 10
142.1821052632
 20
66.7118942662
  0
LINE
  5
269
100
AcDbEntity
  8
RACCORDO
100
AcDbLine
 62
253
  6
CONTINUOUS
 10
144.3226419295
 20
65.6149204477
 11
144.4650071642
 21
65.6220990367
  0
LWPOLYLINE
  5
26A
100
AcDbEntity
  8
RACCORDO
100
AcDbPolyline
 62
253
  6
CONTINUOUS
 90
12
 70
0
 10
141.941597332
 20
66.4714589052
 10
142.0242809004
 20
66.4753441762
 10
142.0960769884
 20
66.4791279155
 10
142.1572384148
 20
66.4827722483
 10
142.2092015626
 20
66.4863150496
 10
142.2538733224
 20
66.4898333654
 10
142.2912721795
 20
66.49330315
 10
142.3218966594
 20
66.4967484492
 10
142.3469571675
 20
66.5003184463
 10
142.3660171463
 20
66.5040628693
 10
142.3779662594
 20
66.5079319904
 10
142.3821052629
 20
66.5119258094
  0
LINE
  5
26B
100
AcDbEntity
  8
RACCORDO
100
AcDbLine
 62
253
  6
CONTINUOUS
 10
143.9859805844
 20
65.8082542355
 11
144.1459231026
 21
65.8154307773
  0
LINE
  5
26C
100
AcDbEntity
  8
RACCORDO
100
AcDbLine
 62
253
  6
CONTINUOUS
 10
144.155512504
 20
65.6076755325
 11
144.3226419295
 21
65.6149204477
  0
LINE
  5
26D
100
AcDbEntity
  8
RACCORDO
100
AcDbLine
 62
253
  6
CONTINUOUS
 10
141.5836043262
 20
66.6643519492
 11
141.7707175238
 21
66.6721564704
  0
LINE
  5
26E
100
AcDbEntity
  8
RACCORDO
100
AcDbLine
 62
253
  6
CONTINUOUS
 10
143.8038376881
 20
65.8011508131
 11
143.9859805844
 21
65.8082542355
  0
LINE
  5
26F
100
AcDbEntity
  8
RACCORDO
100
AcDbLine
 62
253
  6
CONTINUOUS
 10
141.7408777818
 20
66.4634910612
 11
141.941597332
 21
66.4714589052
  0
LINE
  5
270
100
AcDbEntity
  8
RACCORDO
100
AcDbLine
 62
253
  6
CONTINUOUS
 10
143.9656980988
 20
65.6005159865
 11
144.155512504
 21
65.6076755325
  0
LINE
  5
271
100
AcDbEntity
  8
RACCORDO
100
AcDbLine
 62
253
  6
CONTINUOUS
 10
141.3489585772
 20
66.6563203352
 11
141.5836043262
 21
66.6643519492
  0
LINE
  5
272
100
AcDbEntity
  8
RACCORDO
100
AcDbLine
 62
253
  6
CONTINUOUS
 10
143.494064178
 20
65.7908263826
 11
143.8038376881
 21
65.8011508131
  0
LINE
  5
273
100
AcDbEntity
  8
RACCORDO
100
AcDbLine
 62
253
  6
CONTINUOUS
 10
141.4881905296
 20
66.4553048711
 11
141.7408777818
 21
66.4634910612
  0
LINE
  5
274
100
AcDbEntity
  8
RACCORDO
100
AcDbLine
 62
253
  6
CONTINUOUS
 10
143.643046094
 20
65.5901256023
 11
143.9656980988
 21
65.6005159865
  0
LINE
  5
275
100
AcDbEntity
  8
RACCORDO
100
AcDbLine
 62
253
  6
CONTINUOUS
 10
141.0594797208
 20
66.6481563063
 11
141.3489585772
 21
66.6563203352
  0
LINE
  5
276
100
AcDbEntity
  8
RACCORDO
100
AcDbLine
 62
253
  6
CONTINUOUS
 10
143.1431336412
 20
65.7809801331
 11
143.494064178
 21
65.7908263826
  0
LINE
  5
277
100
AcDbEntity
  8
RACCORDO
100
AcDbLine
 62
253
  6
CONTINUOUS
 10
141.1768176909
 20
66.4469992542
 11
141.4881905296
 21
66.4553048711
  0
LINE
  5
278
100
AcDbEntity
  8
RACCORDO
100
AcDbLine
 62
253
  6
CONTINUOUS
 10
143.146551292
 20
65.5770344436
 11
143.643046094
 21
65.5901256023
  0
LINE
  5
279
100
AcDbEntity
  8
RACCORDO
100
AcDbLine
 62
253
  6
CONTINUOUS
 10
142.6123814827
 20
65.7686072168
 11
143.1431336412
 21
65.7809801331
  0
LINE
  5
27A
100
AcDbEntity
  8
RACCORDO
100
AcDbLine
 62
253
  6
CONTINUOUS
 10
140.524468407
 20
66.6362245906
 11
141.0594797208
 21
66.6481563063
  0
LINE
  5
27B
100
AcDbEntity
  8
RACCORDO
100
AcDbLine
 62
253
  6
CONTINUOUS
 10
140.6036433004
 20
66.4349444259
 11
141.1768176909
 21
66.4469992542
  0
LINE
  5
27C
100
AcDbEntity
  8
RACCORDO
100
AcDbLine
 62
253
  6
CONTINUOUS
 10
142.4219318426
 20
65.5619350124
 11
143.146551292
 21
65.5770344436
  0
LINE
  5
27D
100
AcDbEntity
  8
RACCORDO
100
AcDbLine
 62
253
  6
CONTINUOUS
 10
141.8540190852
 20
65.7544982479
 11
142.6123814827
 21
65.7686072168
  0
LINE
  5
27E
100
AcDbEntity
  8
RACCORDO
100
AcDbLine
 62
253
  6
CONTINUOUS
 10
139.9011791801
 20
66.6256024223
 11
140.524468407
 21
66.6362245906
  0
LINE
  5
27F
100
AcDbEntity
  8
RACCORDO
100
AcDbLine
 62
253
  6
CONTINUOUS
 10
141.417339287
 20
65.5460307753
 11
142.4219318426
 21
65.5619350124
  0
LINE
  5
280
100
AcDbEntity
  8
RACCORDO
100
AcDbLine
 62
253
  6
CONTINUOUS
 10
139.7133662548
 20
66.4213017508
 11
140.6036433004
 21
66.4349444259
  0
LINE
  5
281
100
AcDbEntity
  8
RACCORDO
100
AcDbLine
 62
253
  6
CONTINUOUS
 10
140.6394761293
 20
65.7377194185
 11
141.8540190852
 21
65.7544982479
  0
LINE
  5
282
100
AcDbEntity
  8
RACCORDO
100
AcDbLine
 62
253
  6
CONTINUOUS
 10
138.8185501848
 20
66.6125111037
 11
139.9011791801
 21
66.6256024223
  0
LINE
  5
283
100
AcDbEntity
  8
RACCORDO
100
AcDbLine
 62
253
  6
CONTINUOUS
 10
139.8769346258
 20
65.5290522855
 11
141.417339287
 21
65.5460307753
  0
LINE
  5
284
100
AcDbEntity
  8
RACCORDO
100
AcDbLine
 62
253
  6
CONTINUOUS
 10
138.591704445
 20
66.4097278478
 11
139.7133662548
 21
66.4213017508
  0
LINE
  5
285
100
AcDbEntity
  8
RACCORDO
100
AcDbLine
 62
253
  6
CONTINUOUS
 10
138.8997153459
 20
65.7221223804
 11
140.6394761293
 21
65.7377194185
  0
LWPOLYLINE
  5
286
100
AcDbEntity
  8
RACCORDO
100
AcDbPolyline
 62
253
  6
CONTINUOUS
 90
3
 70
0
 10
137.2798888849
 20
66.6019175518
 10
137.4524631966
 20
66.6027033859
 10
138.8185501848
 20
66.6125111037
  0
LINE
  5
287
100
AcDbEntity
  8
RACCORDO
100
AcDbLine
 62
253
  6
CONTINUOUS
 10
137.7826466459
 20
65.515919636
 11
139.8769346258
 21
65.5290522855
  0
LINE
  5
288
100
AcDbEntity
  8
RACCORDO
100
AcDbLine
 62
253
  6
CONTINUOUS
 10
137.221845139
 20
66.4015034998
 11
138.591704445
 21
66.4097278478
  0
LINE
  5
289
100
AcDbEntity
  8
RACCORDO
100
AcDbLine
 62
253
  6
CONTINUOUS
 10
137.3326545497
 20
65.7144041158
 11
138.8997153459
 21
65.7221223804
  0
LINE
  5
28A
100
AcDbEntity
  8
RACCORDO
100
AcDbLine
 62
253
  6
CONTINUOUS
 10
137.2763952264
 20
65.5141469314
 11
137.7826466459
 21
65.515919636
  0
LINE
  5
28B
100
AcDbEntity
  8
RACCORDO
100
AcDbLine
 62
253
  6
CONTINUOUS
 10
125.6821052632
 20
65.0422940336
 11
123.2122635727
 21
65.0422940336
  0
LINE
  5
28C
100
AcDbEntity
  8
RACCORDO
100
AcDbLine
 62
7
  6
CONTINUOUS
 10
145.6821052632
 20
65.0457241201
 11
148.1519469536
 21
65.0457241201
  0
LINE
  5
28D
100
AcDbEntity
  8
RACCORDO
100
AcDbLine
 62
253
  6
CONTINUOUS
 10
125.6821052632
 20
65.2422635727
 11
123.0122940336
 21
65.2422635727
  0
LINE
  5
28E
100
AcDbEntity
  8
RACCORDO
100
AcDbLine
 62
7
  6
CONTINUOUS
 10
134.40935437
 20
65.6897931236
 11
135.0571052632
 21
65.6897931236
  0
LINE
  5
28F
100
AcDbEntity
  8
RACCORDO
100
AcDbLine
 62
7
  6
CONTINUOUS
 10
136.3071052632
 20
65.6897931236
 11
136.9548561563
 21
65.6897931236
  0
LINE
  5
290
100
AcDbEntity
  8
RACCORDO
100
AcDbLine
 62
7
  6
CONTINUOUS
 10
134.6821052632
 20
65.7628541578
 11
135.0571052632
 21
65.7628541578
  0
LINE
  5
291
100
AcDbEntity
  8
RACCORDO
100
AcDbLine
 62
7
  6
CONTINUOUS
 10
136.3071052632
 20
65.7628541578
 11
136.6821052632
 21
65.7628541578
  0
LINE
  5
292
100
AcDbEntity
  8
RACCORDO
100
AcDbLine
 62
253
  6
CONTINUOUS
 10
126.6821052632
 20
66.0424463617
 11
128.1821052632
 21
66.0424463617
  0
LINE
  5
293
100
AcDbEntity
  8
RACCORDO
100
AcDbLine
 62
253
  6
CONTINUOUS
 10
143.1821052632
 20
66.0424463617
 11
144.6821052632
 21
66.0424463617
  0
LINE
  5
294
100
AcDbEntity
  8
0
100
AcDbLine
 62
7
  6
CONTINUOUS
 10
125.6821052632
 20
66.2121052632
 11
126.4821052632
 21
66.2121052632
  0
LINE
  5
295
100
AcDbEntity
  8
0
100
AcDbLine
 62
7
  6
CONTINUOUS
 10
144.8821052632
 20
66.2121052632
 11
145.6821052632
 21
66.2121052632
  0
LINE
  5
296
100
AcDbEntity
  8
RACCORDO
100
AcDbLine
 62
253
  6
CONTINUOUS
 10
126.6821052632
 20
66.2424159007
 11
128.1821052632
 21
66.2424159007
  0
LINE
  5
297
100
AcDbEntity
  8
RACCORDO
100
AcDbLine
 62
253
  6
CONTINUOUS
 10
143.1821052632
 20
66.2424159007
 11
144.6821052632
 21
66.2424159007
  0
LINE
  5
298
100
AcDbEntity
  8
RACCORDO
100
AcDbLine
 62
7
  6
CONTINUOUS
 10
136.9003059777
 20
66.5771903106
 11
136.3071052632
 21
66.5771903106
  0
LINE
  5
299
100
AcDbEntity
  8
RACCORDO
100
AcDbLine
 62
7
  6
CONTINUOUS
 10
135.0571052632
 20
66.5771903106
 11
134.4639045486
 21
66.5771903106
  0
LINE
  5
29A
100
AcDbEntity
  8
RACCORDO
100
AcDbLine
 62
7
  6
CONTINUOUS
 10
129.1821052632
 20
66.8285432456
 11
134.0926170398
 21
66.8285432456
  0
LINE
  5
29B
100
AcDbEntity
  8
RACCORDO
100
AcDbLine
 62
7
  6
CONTINUOUS
 10
137.2715934865
 20
66.8285432456
 11
142.1821052632
 21
66.8285432456
  0
LINE
  5
29C
100
AcDbEntity
  8
RACCORDO
100
AcDbLine
 62
7
  6
CONTINUOUS
 10
135.0571052632
 20
66.8459983105
 11
134.3605662322
 21
66.8459983105
  0
LINE
  5
29D
100
AcDbEntity
  8
RACCORDO
100
AcDbLine
 62
7
  6
CONTINUOUS
 10
136.3071052632
 20
66.8459983105
 11
137.0036442941
 21
66.8459983105
  0
LINE
  5
29E
100
AcDbEntity
  8
DRAFT
100
AcDbLine
 62
7
  6
CONTINUOUS
 10
128.1821052632
 20
66.8621052632
 11
134.3605662322
 21
66.8621052632
  0
LINE
  5
29F
100
AcDbEntity
  8
DRAFT
100
AcDbLine
 62
7
  6
CONTINUOUS
 10
137.0036442941
 20
66.8621052632
 11
143.1821052632
 21
66.8621052632
  0
LINE
  5
2A0
100
AcDbEntity
  8
RACCORDO
100
AcDbLine
 62
253
  6
CONTINUOUS
 10
134.0878153089
 20
65.5141469314
 11
132.8603728823
 21
65.5193428317
  0
LINE
  5
2A1
100
AcDbEntity
  8
RACCORDO
100
AcDbLine
 62
253
  6
CONTINUOUS
 10
134.0315559747
 20
65.7144041159
 11
132.831817148
 21
65.7198274184
  0
LINE
  5
2A2
100
AcDbEntity
  8
RACCORDO
100
AcDbLine
 62
253
  6
CONTINUOUS
 10
134.142365421
 20
66.4015034997
 11
133.1973072737
 21
66.4065531776
  0
LINE
  5
2A3
100
AcDbEntity
  8
RACCORDO
100
AcDbLine
 62
253
  6
CONTINUOUS
 10
134.0843216479
 20
66.6019175513
 11
133.1663699913
 21
66.6072723192
  0
LINE
  5
2A4
100
AcDbEntity
  8
RACCORDO
100
AcDbLine
 62
253
  6
CONTINUOUS
 10
132.8603728823
 20
65.5193428317
 11
131.6896986135
 21
65.5273360742
  0
LINE
  5
2A5
100
AcDbEntity
  8
RACCORDO
100
AcDbLine
 62
253
  6
CONTINUOUS
 10
132.831817148
 20
65.7198274184
 11
131.6901135163
 21
65.7280425292
  0
LINE
  5
2A6
100
AcDbEntity
  8
RACCORDO
100
AcDbLine
 62
253
  6
CONTINUOUS
 10
133.1973072737
 20
66.4065531776
 11
132.1148190834
 21
66.4158912692
  0
LINE
  5
2A7
100
AcDbEntity
  8
RACCORDO
100
AcDbLine
 62
253
  6
CONTINUOUS
 10
133.1663699913
 20
66.6072723192
 11
132.1246621617
 21
66.6169458952
  0
LINE
  5
2A8
100
AcDbEntity
  8
RACCORDO
100
AcDbLine
 62
253
  6
CONTINUOUS
 10
131.6896986135
 20
65.5273360742
 11
130.5017168187
 21
65.5390415462
  0
LINE
  5
2A9
100
AcDbEntity
  8
RACCORDO
100
AcDbLine
 62
253
  6
CONTINUOUS
 10
131.6901135163
 20
65.7280425292
 11
130.5442539052
 21
65.7398533765
  0
LINE
  5
2AA
100
AcDbEntity
  8
RACCORDO
100
AcDbLine
 62
253
  6
CONTINUOUS
 10
132.1148190834
 20
66.4158912692
 11
131.2048663008
 21
66.4275251856
  0
LINE
  5
2AB
100
AcDbEntity
  8
RACCORDO
100
AcDbLine
 62
253
  6
CONTINUOUS
 10
130.5017168187
 20
65.5390415462
 11
129.6021361856
 21
65.5509649045
  0
LINE
  5
2AC
100
AcDbEntity
  8
RACCORDO
100
AcDbLine
 62
253
  6
CONTINUOUS
 10
130.5442539052
 20
65.7398533765
 11
129.6786155317
 21
65.7517976502
  0
LINE
  5
2AD
100
AcDbEntity
  8
RACCORDO
100
AcDbLine
 62
253
  6
CONTINUOUS
 10
132.1246621617
 20
66.6169458952
 11
131.2576571294
 21
66.628784986
  0
LINE
  5
2AE
100
AcDbEntity
  8
RACCORDO
100
AcDbLine
 62
253
  6
CONTINUOUS
 10
129.6021361856
 20
65.5509649045
 11
128.7949685103
 21
65.5647090027
  0
LINE
  5
2AF
100
AcDbEntity
  8
RACCORDO
100
AcDbLine
 62
253
  6
CONTINUOUS
 10
131.2048663008
 20
66.4275251856
 11
130.5650998926
 21
66.4386955657
  0
LINE
  5
2B0
100
AcDbEntity
  8
RACCORDO
100
AcDbLine
 62
253
  6
CONTINUOUS
 10
129.6786155317
 20
65.7517976502
 11
128.9022338366
 21
65.7655209146
  0
LINE
  5
2B1
100
AcDbEntity
  8
RACCORDO
100
AcDbLine
 62
253
  6
CONTINUOUS
 10
131.2576571294
 20
66.628784986
 11
130.657370924
 21
66.6399418658
  0
LINE
  5
2B2
100
AcDbEntity
  8
RACCORDO
100
AcDbLine
 62
253
  6
CONTINUOUS
 10
128.7949685103
 20
65.5647090027
 11
128.2248530633
 21
65.576864185
  0
LINE
  5
2B3
100
AcDbEntity
  8
RACCORDO
100
AcDbLine
 62
253
  6
CONTINUOUS
 10
130.5650998926
 20
66.4386955657
 11
130.1956410745
 21
66.4467997826
  0
LINE
  5
2B4
100
AcDbEntity
  8
RACCORDO
100
AcDbLine
 62
253
  6
CONTINUOUS
 10
128.9022338366
 20
65.7655209146
 11
128.3544122741
 21
65.7776253899
  0
LINE
  5
2B5
100
AcDbEntity
  8
RACCORDO
100
AcDbLine
 62
253
  6
CONTINUOUS
 10
130.657370924
 20
66.6399418658
 11
130.3126480721
 21
66.6479538972
  0
LINE
  5
2B6
100
AcDbEntity
  8
RACCORDO
100
AcDbLine
 62
253
  6
CONTINUOUS
 10
128.3544122741
 20
65.7776253899
 11
127.9901801348
 21
65.7872726837
  0
LINE
  5
2B7
100
AcDbEntity
  8
RACCORDO
100
AcDbLine
 62
253
  6
CONTINUOUS
 10
130.1956410745
 20
66.4467997826
 11
129.882467892
 21
66.4551156857
  0
LINE
  5
2B8
100
AcDbEntity
  8
RACCORDO
100
AcDbLine
 62
253
  6
CONTINUOUS
 10
128.2248530633
 20
65.576864185
 11
127.7286655298
 21
65.5899048656
  0
LINE
  5
2B9
100
AcDbEntity
  8
RACCORDO
100
AcDbLine
 62
253
  6
CONTINUOUS
 10
130.3126480721
 20
66.6479538972
 11
130.0213687341
 21
66.6561307142
  0
LINE
  5
2BA
100
AcDbEntity
  8
RACCORDO
100
AcDbLine
 62
253
  6
CONTINUOUS
 10
127.9901801348
 20
65.7872726837
 11
127.66653238
 21
65.797396075
  0
LINE
  5
2BB
100
AcDbEntity
  8
RACCORDO
100
AcDbLine
 62
253
  6
CONTINUOUS
 10
127.7286655298
 20
65.5899048656
 11
127.4060158987
 21
65.6002514373
  0
LINE
  5
2BC
100
AcDbEntity
  8
RACCORDO
100
AcDbLine
 62
253
  6
CONTINUOUS
 10
129.882467892
 20
66.4551156857
 11
129.6280848947
 21
66.4633210255
  0
LINE
  5
2BD
100
AcDbEntity
  8
RACCORDO
100
AcDbLine
 62
253
  6
CONTINUOUS
 10
130.0213687341
 20
66.6561307142
 11
129.785100689
 21
66.6641824106
  0
LWPOLYLINE
  5
2BE
100
AcDbEntity
  8
RACCORDO
100
AcDbPolyline
 62
7
  6
CONTINUOUS
 90
22
 70
0
 10
144.6820881656
 20
66.0424463621
 10
144.6970254974
 20
66.0418887844
 10
144.7118816761
 20
66.0402163246
 10
144.7265736373
 20
66.0374378295
 10
144.7410193736
 20
66.0335682533
 10
144.7551377833
 20
66.028628787
 10
144.7688491767
 20
66.0226468949
 10
144.782077401
 20
66.0156552854
 10
144.7947475309
 20
66.0076930437
 10
144.8067861092
 20
65.9988063653
 10
144.8181240466
 20
65.9890469737
 10
144.8287003004
 20
65.978468196
 10
144.8384589658
 20
65.9671257101
 10
144.8473454746
 20
65.9550815476
 10
144.8553087491
 20
65.9424034198
 10
144.8623042581
 20
65.9291605331
 10
144.8682943287
 20
65.9154200828
 10
144.8732408512
 20
65.9012646879
 10
144.8771107374
 20
65.8867922127
 10
144.8798843965
 20
65.8720909041
 10
144.8815512943
 20
65.8572373499
 10
144.8821052632
 20
65.8423549011
  0
LINE
  5
2BF
100
AcDbEntity
  8
RACCORDO
100
AcDbLine
 62
253
  6
CONTINUOUS
 10
127.66653238
 20
65.797396075
 11
127.4739376133
 21
65.8044065198
  0
LINE
  5
2C0
100
AcDbEntity
  8
RACCORDO
100
AcDbLine
 62
253
  6
CONTINUOUS
 10
127.4060158987
 20
65.6002514373
 11
127.2159372617
 21
65.6073840565
  0
LWPOLYLINE
  5
2C1
100
AcDbEntity
  8
RACCORDO
100
AcDbPolyline
 62
253
  6
CONTINUOUS
 90
13
 70
0
 10
129.6280848947
 20
66.4633210255
 10
129.4258614914
 20
66.4713150871
 10
129.3425175338
 20
66.4752158263
 10
129.270150628
 20
66.4790150076
 10
129.2085066489
 20
66.4826746178
 10
129.1561381699
 20
66.4862326701
 10
129.1111387285
 20
66.4897651005
 10
129.0734890348
 20
66.4932471347
 10
129.0426722156
 20
66.4967035471
 10
129.0174592207
 20
66.5002845967
 10
128.9982855749
 20
66.5040403698
 10
128.9862674628
 20
66.5079207802
 10
128.9821052635
 20
66.5119258278
  0
LINE
  5
2C2
100
AcDbEntity
  8
RACCORDO
100
AcDbLine
 62
253
  6
CONTINUOUS
 10
127.4739376133
 20
65.8044065198
 11
127.3023926422
 21
65.8115268738
  0
LWPOLYLINE
  5
2C3
100
AcDbEntity
  8
RACCORDO
100
AcDbPolyline
 62
253
  6
CONTINUOUS
 90
13
 70
0
 10
129.785100689
 20
66.6641824106
 10
129.5965614942
 20
66.6720137967
 10
129.5194814681
 20
66.6758309788
 10
129.451810818
 20
66.6795508699
 10
129.3937609304
 20
66.6831372929
 10
129.345120419
 20
66.6866264249
 10
129.3032193628
 20
66.690094201
 10
129.2673861766
 20
66.6935181547
 10
129.2382924457
 20
66.6969207524
 10
129.2152830053
 20
66.700445329
 10
129.1981394673
 20
66.7041396626
 10
129.18708022
 20
66.707955975
 10
129.1821052632
 20
66.7118942662
  0
LINE
  5
2C4
100
AcDbEntity
  8
RACCORDO
100
AcDbLine
 62
253
  6
CONTINUOUS
 10
127.2159372617
 20
65.6073840565
 11
127.0481699247
 21
65.6146131231
  0
LWPOLYLINE
  5
2C5
100
AcDbEntity
  8
RACCORDO
100
AcDbPolyline
 62
253
  6
CONTINUOUS
 90
7
 70
0
 10
144.6821052632
 20
66.2424159007
 10
144.717451796
 20
66.2407796151
 10
144.7519930491
 20
66.2362246436
 10
144.7857290223
 20
66.2287509862
 10
144.8186597158
 20
66.218358643
 10
144.8507851294
 20
66.2050476139
 10
144.8821052632
 20
66.188817899
  0
LWPOLYLINE
  5
2C6
100
AcDbEntity
  8
RACCORDO
100
AcDbPolyline
 62
253
  6
CONTINUOUS
 90
17
 70
0
 10
127.3023926422
 20
65.8115268738
 10
127.1530070974
 20
65.8186857837
 10
127.0873339564
 20
65.8222243657
 10
127.0274960617
 20
65.8257399904
 10
126.9731162465
 20
65.8292099212
 10
126.9242792412
 20
65.8326319772
 10
126.8809003153
 20
65.8360083394
 10
126.8423481107
 20
65.8393228152
 10
126.8087513062
 20
65.8425506004
 10
126.7799812228
 20
65.8457164993
 10
126.7550204662
 20
65.8488787313
 10
126.7335710802
 20
65.8520217508
 10
126.7159310209
 20
65.8551611035
 10
126.7019767622
 20
65.8584016456
 10
126.6916671286
 20
65.8617783292
 10
126.6850432956
 20
65.8652562024
 10
126.6821052632
 20
65.8688352649
  0
LWPOLYLINE
  5
2C7
100
AcDbEntity
  8
RACCORDO
100
AcDbPolyline
 62
253
  6
CONTINUOUS
 90
16
 70
0
 10
127.0481699247
 20
65.6146131231
 10
126.9048410993
 20
65.6217914762
 10
126.8422155245
 20
65.6253444687
 10
126.7855453898
 20
65.6288518459
 10
126.7346124852
 20
65.6323116678
 10
126.6891492151
 20
65.6357258743
 10
126.649023428
 20
65.6390765842
 10
126.614205184
 20
65.6423383821
 10
126.5841140985
 20
65.6455366835
 10
126.5579919565
 20
65.648729854
 10
126.5358990407
 20
65.6519014856
 10
126.5176597405
 20
65.6550679862
 10
126.5027911687
 20
65.6583369451
 10
126.4915589668
 20
65.6617442253
 10
126.4845342202
 20
65.6652539637
 10
126.4821052632
 20
65.6688657069
  0
LINE
  5
2C8
100
AcDbEntity
  8
RACCORDO
100
AcDbLine
 62
7
  6
CONTINUOUS
 10
134.0315559747
 20
65.7144041159
 11
134.40935437
 21
65.6897931236
  0
LINE
  5
2C9
100
AcDbEntity
  8
RACCORDO
100
AcDbLine
 62
7
  6
CONTINUOUS
 10
134.1423655177
 20
65.7980145261
 11
134.6821052632
 21
65.7628541578
  0
LINE
  5
2CA
100
AcDbEntity
  8
RACCORDO
100
AcDbLine
 62
7
  6
CONTINUOUS
 10
134.0843216479
 20
66.6019175513
 11
134.4639045486
 21
66.5771903106
  0
LINE
  5
2CB
100
AcDbEntity
  8
DRAFT
100
AcDbLine
 62
7
  6
CONTINUOUS
 10
137.0036442941
 20
66.8459983105
 11
137.2715934865
 21
66.8285432456
  0
LWPOLYLINE
  5
2CC
100
AcDbEntity
  8
RACCORDO
100
AcDbPolyline
 62
253
  6
CONTINUOUS
 90
10
 70
0
 10
144.6821052632
 20
65.8688352649
 10
144.7082105016
 20
65.8671244978
 10
144.7338690722
 20
65.8620214681
 10
144.7586419496
 20
65.8536134901
 10
144.7821052632
 20
65.8420444267
 10
144.803857549
 20
65.8275122277
 10
144.8235266194
 20
65.810265543
 10
144.8407759312
 20
65.7905994682
 10
144.8553103439
 20
65.7688504954
 10
144.8668811697
 20
65.7453907555
  0
LINE
  5
2CD
100
AcDbEntity
  8
RACCORDO
100
AcDbLine
 62
253
  6
CONTINUOUS
 10
144.2321052632
 20
64.2123790594
 11
144.5582544787
 21
64.1473082776
  0
LINE
  5
2CE
100
AcDbEntity
  8
RACCORDO
100
AcDbLine
 62
253
  6
CONTINUOUS
 10
144.4325638531
 20
64.4121052632
 11
144.7574934183
 21
64.3472778166
  0
LWPOLYLINE
  5
2CF
100
AcDbEntity
  8
RACCORDO
100
AcDbPolyline
 62
7
  6
CONTINUOUS
 90
16
 70
0
 10
134.0315559747
 20
65.7144041159
 10
134.037808956
 20
65.7127125423
 10
134.0438315912
 20
65.7089026916
 10
134.04962388
 20
65.7029745637
 10
134.055255275
 20
65.6947401222
 10
134.0606563236
 20
65.6843874036
 10
134.0656186688
 20
65.6724805171
 10
134.070090066
 20
65.659083582
 10
134.0741227597
 20
65.644132479
 10
134.0776651259
 20
65.6279989595
 10
134.0807260255
 20
65.6105463327
 10
134.0832965975
 20
65.5919112894
 10
134.0852986352
 20
65.572875653
 10
134.0867060697
 20
65.5537000315
 10
134.0875449699
 20
65.5341238169
 10
134.0878153357
 20
65.5141470094
  0
LWPOLYLINE
  5
2D0
100
AcDbEntity
  8
RACCORDO
100
AcDbPolyline
 62
7
  6
CONTINUOUS
 90
16
 70
0
 10
134.0843216479
 20
66.6019175513
 10
134.0908736648
 20
66.6001403217
 10
134.0971647611
 20
66.5962335843
 10
134.1031949369
 20
66.5901973392
 10
134.1090316259
 20
66.5818346204
 10
134.1146073944
 20
66.571342394
 10
134.1197199416
 20
66.5593115572
 10
134.1243179502
 20
66.5458039712
 10
134.1284527375
 20
66.5307577749
 10
134.1320759552
 20
66.5145782832
 10
134.1351940831
 20
66.4971416744
 10
134.1378006412
 20
66.4785717702
 10
134.1398278414
 20
66.4596453505
 10
134.1412530874
 20
66.4406213419
 10
134.1420989754
 20
66.4212408177
 10
134.1423655054
 20
66.4015037779
  0
LINE
  5
2D1
100
AcDbEntity
  8
0
100
AcDbLine
 62
7
  6
CONTINUOUS
 10
124.7745012632
 20
68.4989292632
 11
124.9637212632
 21
68.4989292632
  0
LINE
  5
2D2
100
AcDbEntity
  8
0
100
AcDbLine
 62
7
  6
CONTINUOUS
 10
125.6405432632
 20
68.4989292632
 11
125.8296502632
 21
68.4989292632
  0
LINE
  5
2D3
100
AcDbEntity
  8
0
100
AcDbLine
 62
7
  6
CONTINUOUS
 10
126.3581312632
 20
68.4989292632
 11
126.5531262632
 21
68.4989292632
  0
LINE
  5
2D4
100
AcDbEntity
  8
0
100
AcDbLine
 62
7
  6
CONTINUOUS
 10
127.3995782632
 20
68.4989292632
 11
127.6062372632
 21
68.4989292632
  0
LINE
  5
2D5
100
AcDbEntity
  8
0
100
AcDbLine
 62
7
  6
CONTINUOUS
 10
127.7798302632
 20
68.4989292632
 11
128.6788252632
 21
68.4989292632
  0
LINE
  5
2D6
100
AcDbEntity
  8
0
100
AcDbLine
 62
7
  6
CONTINUOUS
 10
128.9792442632
 20
68.4989292632
 11
129.1683512632
 21
68.4989292632
  0
LINE
  5
2D7
100
AcDbEntity
  8
0
100
AcDbLine
 62
7
  6
CONTINUOUS
 10
128.6788252632
 20
68.6665212632
 11
127.9689372632
 21
68.6665212632
  0
LINE
  5
2D8
100
AcDbEntity
  8
0
100
AcDbLine
 62
7
  6
CONTINUOUS
 10
126.6994292632
 20
68.9065852632
 11
127.2610882632
 21
68.9065852632
  0
LWPOLYLINE
  5
2D9
100
AcDbEntity
  8
RACCORDO
100
AcDbPolyline
 62
253
  6
CONTINUOUS
 90
12
 70
0
 10
142.1821052632
 20
66.7118942662
 10
142.2082105016
 20
66.7101834991
 10
142.2338690722
 20
66.7050804694
 10
142.2586419496
 20
66.6966724914
 10
142.2821052632
 20
66.685103428
 10
142.303857549
 20
66.6705712289
 10
142.3235266194
 20
66.6533245443
 10
142.3407759312
 20
66.6336584695
 10
142.3553103439
 20
66.6119094967
 10
142.3668811697
 20
66.5884497568
 10
142.3752904284
 20
66.5636806523
 10
142.3803942354
 20
66.5380259897
  0
LINE
  5
2DA
100
AcDbEntity
  8
0
100
AcDbLine
 62
7
  6
CONTINUOUS
 10
127.1928062632
 20
69.0741772632
 11
126.7578602632
 21
69.0741772632
  0
LINE
  5
2DB
100
AcDbEntity
  8
ASSI
100
AcDbLine
 62
7
  6
CONTINUOUS
 10
143.5936752632
 20
69.3059882632
 11
144.7759212632
 21
69.3059882632
  0
LINE
  5
2DC
100
AcDbEntity
  8
ASSI
100
AcDbLine
 62
7
  6
CONTINUOUS
 10
144.7759212632
 20
69.7226532632
 11
144.4068092632
 21
69.7226532632
  0
LINE
  5
2DD
100
AcDbEntity
  8
ASSI
100
AcDbLine
 62
7
  6
CONTINUOUS
 10
143.9629302632
 20
69.7226532632
 11
143.5936752632
 21
69.7226532632
  0
LINE
  5
2DE
100
AcDbEntity
  8
0
100
AcDbLine
 62
7
  6
CONTINUOUS
 10
125.1666432632
 20
69.7320882632
 11
125.6405432632
 21
69.7320882632
  0
LINE
  5
2DF
100
AcDbEntity
  8
0
100
AcDbLine
 62
7
  6
CONTINUOUS
 10
125.8296502632
 20
69.7320882632
 11
126.3035502632
 21
69.7320882632
  0
LINE
  5
2E0
100
AcDbEntity
  8
0
100
AcDbLine
 62
7
  6
CONTINUOUS
 10
129.6968322632
 20
69.8996802632
 11
129.4745462632
 21
69.8996802632
  0
LINE
  5
2E1
100
AcDbEntity
  8
0
100
AcDbLine
 62
7
  6
CONTINUOUS
 10
128.6710112632
 20
69.8996802632
 11
128.4506512632
 21
69.8996802632
  0
LINE
  5
2E2
100
AcDbEntity
  8
0
100
AcDbLine
 62
7
  6
CONTINUOUS
 10
127.9689372632
 20
69.8996802632
 11
127.7798302632
 21
69.8996802632
  0
LINE
  5
2E3
100
AcDbEntity
  8
0
100
AcDbLine
 62
7
  6
CONTINUOUS
 10
127.0991582632
 20
69.8996802632
 11
126.8846862632
 21
69.8996802632
  0
LINE
  5
2E4
100
AcDbEntity
  8
0
100
AcDbLine
 62
7
  6
CONTINUOUS
 10
126.3035502632
 20
69.8996802632
 11
125.1666432632
 21
69.8996802632
  0
LINE
  5
2E5
100
AcDbEntity
  8
0
100
AcDbLine
 62
7
  6
CONTINUOUS
 10
124.9637212632
 20
69.8996802632
 11
124.7745012632
 21
69.8996802632
  0
LINE
  5
2E6
100
AcDbEntity
  8
0
100
AcDbLine
 62
7
  6
CONTINUOUS
 10
126.3630002632
 20
70.5122962632
 11
126.5522202632
 21
70.5122962632
  0
LINE
  5
2E7
100
AcDbEntity
  8
0
100
AcDbLine
 62
7
  6
CONTINUOUS
 10
126.8758542632
 20
70.5122962632
 11
127.0592992632
 21
70.5122962632
  0
LINE
  5
2E8
100
AcDbEntity
  8
0
100
AcDbLine
 62
7
  6
CONTINUOUS
 10
127.7749612632
 20
70.5122962632
 11
127.9875082632
 21
70.5122962632
  0
LINE
  5
2E9
100
AcDbEntity
  8
ASSI
100
AcDbLine
 62
7
  6
CONTINUOUS
 10
137.3391602632
 20
70.8371052632
 11
138.7996612632
 21
70.8371052632
  0
LWPOLYLINE
  5
2EA
100
AcDbEntity
  8
RACCORDO
100
AcDbPolyline
 62
253
  6
CONTINUOUS
 90
7
 70
0
 10
144.8821052632
 20
112.2353926273
 10
144.8508722787
 20
112.2191844088
 10
144.8187991548
 20
112.2058862776
 10
144.7858858912
 20
112.1954982337
 10
144.7521324881
 20
112.1880202771
 10
144.7175389454
 20
112.1834524077
 10
144.6821052632
 20
112.1817946256
  0
LWPOLYLINE
  5
2EB
100
AcDbEntity
  8
0
100
AcDbPolyline
 62
7
  6
CONTINUOUS
 90
19
 70
0
 10
127.9943051742
 20
72.5256632632
 10
128.0546125553
 20
72.5289157647
 10
128.1116465938
 20
72.5365712006
 10
128.1654072898
 20
72.5486295711
 10
128.2158567799
 20
72.565244427
 10
128.2630329275
 20
72.5862622174
 10
128.3070493222
 20
72.6112222894
 10
128.3477974997
 20
72.6397840824
 10
128.3853859245
 20
72.6722881571
 10
128.4202535794
 20
72.7092955422
 10
128.4527992979
 20
72.7510817315
 10
128.4826242467
 20
72.7973712311
 10
128.5089709088
 20
72.847898588
 10
128.531950897
 20
72.9030958615
 10
128.5514525985
 20
72.9625309923
 10
128.5663836586
 20
73.024642349
 10
128.5763799593
 20
73.0889093878
 10
128.5818056186
 20
73.1558526525
 10
128.5826606365
 20
73.2254721431
  0
LINE
  5
2EC
100
AcDbEntity
  8
ASSI
100
AcDbLine
 62
7
  6
CONTINUOUS
 10
138.7996612632
 20
71.5871052632
 11
137.3391572181
 21
71.5871052632
  0
LINE
  5
2ED
100
AcDbEntity
  8
0
100
AcDbLine
 62
7
  6
CONTINUOUS
 10
127.9875082632
 20
71.9119142632
 11
127.8042902632
 21
71.9119142632
  0
LINE
  5
2EE
100
AcDbEntity
  8
0
100
AcDbLine
 62
7
  6
CONTINUOUS
 10
127.1001772632
 20
71.9119142632
 11
126.8758542632
 21
71.9119142632
  0
LINE
  5
2EF
100
AcDbEntity
  8
0
100
AcDbLine
 62
7
  6
CONTINUOUS
 10
126.5522202632
 20
71.9119142632
 11
126.3630002632
 21
71.9119142632
  0
LINE
  5
2F0
100
AcDbEntity
  8
0
100
AcDbLine
 62
7
  6
CONTINUOUS
 10
124.4859712632
 20
72.5256632632
 11
124.6693032632
 21
72.5256632632
  0
LINE
  5
2F1
100
AcDbEntity
  8
0
100
AcDbLine
 62
7
  6
CONTINUOUS
 10
125.0632572632
 20
72.5256632632
 11
125.2504392632
 21
72.5256632632
  0
LINE
  5
2F2
100
AcDbEntity
  8
0
100
AcDbLine
 62
7
  6
CONTINUOUS
 10
125.6443932632
 20
72.5256632632
 11
125.8277252632
 21
72.5256632632
  0
LINE
  5
2F3
100
AcDbEntity
  8
0
100
AcDbLine
 62
7
  6
CONTINUOUS
 10
125.9954302632
 20
72.5256632632
 11
126.1904262632
 21
72.5256632632
  0
LINE
  5
2F4
100
AcDbEntity
  8
0
100
AcDbLine
 62
7
  6
CONTINUOUS
 10
127.0368782632
 20
72.5256632632
 11
127.2435362632
 21
72.5256632632
  0
LINE
  5
2F5
100
AcDbEntity
  8
0
100
AcDbLine
 62
7
  6
CONTINUOUS
 10
127.4268682632
 20
72.5256632632
 11
127.9943051742
 21
72.5256632632
  0
LINE
  5
2F6
100
AcDbEntity
  8
0
100
AcDbLine
 62
7
  6
CONTINUOUS
 10
128.8446052632
 20
72.5256632632
 11
129.8782392632
 21
72.5256632632
  0
LINE
  5
2F7
100
AcDbEntity
  8
ASSI
100
AcDbLine
 62
7
  6
CONTINUOUS
 10
143.6072822632
 20
72.6828512632
 11
143.9629302632
 21
72.6828512632
  0
LINE
  5
2F8
100
AcDbEntity
  8
ASSI
100
AcDbLine
 62
7
  6
CONTINUOUS
 10
144.4068092632
 20
72.6828512632
 11
144.7623142632
 21
72.6828512632
  0
LINE
  5
2F9
100
AcDbEntity
  8
0
100
AcDbLine
 62
7
  6
CONTINUOUS
 10
127.9689404793
 20
72.6875932632
 11
127.6159752632
 21
72.6875932632
  0
LINE
  5
2FA
100
AcDbEntity
  8
0
100
AcDbLine
 62
7
  6
CONTINUOUS
 10
129.8782392632
 20
72.6932552632
 11
129.0338252632
 21
72.6932552632
  0
LINE
  5
2FB
100
AcDbEntity
  8
0
100
AcDbLine
 62
7
  6
CONTINUOUS
 10
126.3367292632
 20
72.9333192632
 11
126.8983882632
 21
72.9333192632
  0
LINE
  5
2FC
100
AcDbEntity
  8
0
100
AcDbLine
 62
7
  6
CONTINUOUS
 10
126.8301052632
 20
73.1009102632
 11
126.3952732632
 21
73.1009102632
  0
LINE
  5
2FD
100
AcDbEntity
  8
ASSI
100
AcDbLine
 62
7
  6
CONTINUOUS
 10
144.7623142632
 20
73.1018082632
 11
143.6072822632
 21
73.1018082632
  0
LWPOLYLINE
  5
2FE
100
AcDbEntity
  8
RACCORDO
100
AcDbPolyline
 62
253
  6
CONTINUOUS
 90
21
 70
0
 10
144.5582544787
 20
64.1473082776
 10
144.5621473029
 20
64.144861479
 10
144.5659790345
 20
64.1392215567
 10
144.5697496735
 20
64.1303885108
 10
144.5734814164
 20
64.118278697
 10
144.5771520666
 20
64.1029757594
 10
144.5806950351
 20
64.084730631
 10
144.5841061262
 20
64.0634947813
 10
144.5873895355
 20
64.0393167406
 10
144.5904912616
 20
64.0125930327
 10
144.5934083534
 20
63.983277508
 10
144.5961437619
 20
63.951416316
 10
144.5986523394
 20
63.9175444291
 10
144.6009298447
 20
63.8816330204
 10
144.602980519
 20
63.8437109167
 10
144.6047719377
 20
63.8043995708
 10
144.6062999477
 20
63.7636543057
 10
144.6075687021
 20
63.7215197983
 10
144.6085582355
 20
63.6787515317
 10
144.6092618928
 20
63.6356013338
 10
144.609686329
 20
63.5918173767
  0
LINE
  5
2FF
100
AcDbEntity
  8
0
100
AcDbLine
 62
7
  6
CONTINUOUS
 10
128.4506512632
 20
69.8996802632
 11
128.9792442632
 21
69.0628532632
  0
LINE
  5
300
100
AcDbEntity
  8
0
100
AcDbLine
 62
7
  6
CONTINUOUS
 10
127.0592992632
 20
71.6496592632
 11
127.7749612632
 21
70.5122962632
  0
LINE
  5
301
100
AcDbEntity
  8
0
100
AcDbLine
 62
7
  6
CONTINUOUS
 10
127.8042902632
 20
70.7754042632
 11
127.1001772632
 21
71.9119142632
  0
LINE
  5
302
100
AcDbEntity
  8
RACCORDO
100
AcDbLine
 62
7
  6
CONTINUOUS
 10
121.1821052632
 20
63.7120291107
 11
121.1821052632
 21
114.7121814156
  0
LWPOLYLINE
  5
303
100
AcDbEntity
  8
RACCORDO
100
AcDbPolyline
 62
7
  6
CONTINUOUS
 90
25
 70
0
 10
136.3071052632
 20
112.7344174028
 10
136.2630910073
 20
112.6837204091
 10
136.2168037644
 20
112.6376654978
 10
136.1682435346
 20
112.5962526688
 10
136.1168994251
 20
112.5594706194
 10
136.0632823287
 20
112.5273306523
 10
136.0089249232
 20
112.4998666759
 10
135.9540700232
 20
112.4772488354
 10
135.8984748143
 20
112.4593069855
 10
135.8429435302
 20
112.4455645984
 10
135.7876945619
 20
112.4359748312
 10
135.7325095185
 20
112.4305845267
 10
135.6775374612
 20
112.4290576862
 10
135.6228812497
 20
112.4312112761
 10
135.5684380243
 20
112.4372283299
 10
135.514048267
 20
112.447321949
 10
135.4594340111
 20
112.4614077492
 10
135.4048732233
 20
112.4795701146
 10
135.3510402848
 20
112.5022752994
 10
135.2976996558
 20
112.5296943039
 10
135.2450868762
 20
112.5616561278
 10
135.194582947
 20
112.5981140243
 10
135.146648202
 20
112.6390524112
 10
135.1008223073
 20
112.6844868707
 10
135.0571052632
 20
112.7344174028
  0
LWPOLYLINE
  5
304
100
AcDbEntity
  8
RACCORDO
100
AcDbPolyline
 62
7
  6
CONTINUOUS
 90
25
 70
0
 10
136.3071052632
 20
111.8470202157
 10
136.2633246376
 20
111.7970242369
 10
136.2174312941
 20
111.7515369377
 10
136.1694252328
 20
111.7105583178
 10
136.1188445397
 20
111.6740732119
 10
136.0661511287
 20
111.6420967855
 10
136.0127307413
 20
111.6146745349
 10
135.9588075696
 20
111.5919776448
 10
135.9041574214
 20
111.5738349305
 10
135.849493462
 20
111.5597783342
 10
135.795082533
 20
111.5497357962
 10
135.7406577927
 20
111.5437793762
 10
135.6861318821
 20
111.5416571955
 10
135.6315123814
 20
111.5431612923
 10
135.5767917103
 20
111.5484996284
 10
135.5218597686
 20
111.5580442104
 10
135.4663635982
 20
111.5717588114
 10
135.4106561571
 20
111.5896796583
 10
135.3556862188
 20
111.6122874385
 10
135.3012569461
 20
111.6397535251
 10
135.2475651762
 20
111.671906545
 10
135.1961501945
 20
111.7087130671
 10
135.1475250959
 20
111.7501619478
 10
135.1011767855
 20
111.7962643306
 10
135.0571052632
 20
111.8470202157
  0
LINE
  5
305
100
AcDbEntity
  8
0
100
AcDbLine
 62
7
  6
CONTINUOUS
 10
129.0338252632
 20
73.1609262632
 11
129.8002182632
 21
73.1609262632
  0
LINE
  5
306
100
AcDbEntity
  8
0
100
AcDbLine
 62
7
  6
CONTINUOUS
 10
129.8002182632
 20
73.3285182632
 11
129.0338252632
 21
73.3285182632
  0
LINE
  5
307
100
AcDbEntity
  8
0
100
AcDbLine
 62
7
  6
CONTINUOUS
 10
129.0338252632
 20
73.7576892632
 11
129.8645372632
 21
73.7576892632
  0
LINE
  5
308
100
AcDbEntity
  8
0
100
AcDbLine
 62
7
  6
CONTINUOUS
 10
127.6159752632
 20
73.7633512632
 11
127.9689385266
 21
73.7633512632
  0
LINE
  5
309
100
AcDbEntity
  8
0
100
AcDbLine
 62
7
  6
CONTINUOUS
 10
129.8645372632
 20
73.9252812632
 11
128.8446052632
 21
73.9252812632
  0
LINE
  5
30A
100
AcDbEntity
  8
0
100
AcDbLine
 62
7
  6
CONTINUOUS
 10
127.9943033858
 20
73.9252812632
 11
127.4268682632
 21
73.9252812632
  0
LINE
  5
30B
100
AcDbEntity
  8
0
100
AcDbLine
 62
7
  6
CONTINUOUS
 10
126.7364582632
 20
73.9252812632
 11
126.5219862632
 21
73.9252812632
  0
LINE
  5
30C
100
AcDbEntity
  8
0
100
AcDbLine
 62
7
  6
CONTINUOUS
 10
125.8277252632
 20
73.9252812632
 11
125.5585592632
 21
73.9252812632
  0
LINE
  5
30D
100
AcDbEntity
  8
0
100
AcDbLine
 62
7
  6
CONTINUOUS
 10
124.7570622632
 20
73.9252812632
 11
124.4859712632
 21
73.9252812632
  0
LWPOLYLINE
  5
30E
100
AcDbEntity
  8
0
100
AcDbPolyline
 62
7
  6
CONTINUOUS
 90
19
 70
0
 10
127.9689385266
 20
73.7633512632
 10
128.0117179129
 20
73.7614524088
 10
128.0521132984
 20
73.7564839021
 10
128.0901246831
 20
73.7484457429
 10
128.1255962154
 20
73.7374529513
 10
128.1586837469
 20
73.7233905073
 10
128.189854832
 20
73.7059133507
 10
128.2192478419
 20
73.6850676931
 10
128.2467244053
 20
73.6608073229
 10
128.2723369623
 20
73.6326485455
 10
128.2965108733
 20
73.6002359242
 10
128.3188207778
 20
73.5639248957
 10
128.3380430352
 20
73.5242980758
 10
128.3536781072
 20
73.4812755449
 10
128.3662255321
 20
73.4349372227
 10
128.3759602829
 20
73.3861054839
 10
128.3829740177
 20
73.3350544535
 10
128.3871750785
 20
73.2815100066
 10
128.3885634654
 20
73.2254721431
  0
LWPOLYLINE
  5
30F
100
AcDbEntity
  8
RACCORDO
100
AcDbPolyline
 62
7
  6
CONTINUOUS
 90
22
 70
0
 10
136.3071052632
 20
66.8459983105
 10
136.2611790935
 20
66.8978923804
 10
136.2118987665
 20
66.9451492163
 10
136.1592642821
 20
66.9877688182
 10
136.1028804315
 20
67.0259956923
 10
136.0431424234
 20
67.0595853324
 10
135.9812358851
 20
67.0878042204
 10
135.9170703879
 20
67.110531309
 10
135.8507363604
 20
67.1278876456
 10
135.7836907148
 20
67.139502854
 10
135.7159379351
 20
67.1452506057
 10
135.6474735375
 20
67.1452572292
 10
135.5797409821
 20
67.1395313339
 10
135.5127569153
 20
67.1279607812
 10
135.4465046908
 20
67.1106577095
 10
135.3823778307
 20
67.0879671439
 10
135.3203938462
 20
67.0597588376
 10
135.2605352261
 20
67.0261630373
 10
135.2041429589
 20
66.9879155079
 10
135.1516640407
 20
66.9452615045
 10
135.1026514755
 20
66.897955772
 10
135.0571052632
 20
66.8459983105
  0
LWPOLYLINE
  5
310
100
AcDbEntity
  8
RACCORDO
100
AcDbPolyline
 62
7
  6
CONTINUOUS
 90
25
 70
0
 10
136.3071052632
 20
65.7628541578
 10
136.2631068509
 20
65.8130763846
 10
136.216978291
 20
65.8587476811
 10
136.1687195835
 20
65.8998680472
 10
136.1178865345
 20
65.9364471564
 10
136.0649233378
 20
65.9684753352
 10
136.0111625751
 20
65.9959235634
 10
135.956742964
 20
66.0186394478
 10
135.9015257869
 20
66.0367753815
 10
135.8464274722
 20
66.050759524
 10
135.7917736459
 20
66.0606223875
 10
135.7372386819
 20
66.0663334597
 10
135.6827621314
 20
66.0682293634
 10
135.6284276047
 20
66.0665425298
 10
135.5741514915
 20
66.0610405276
 10
135.5196225107
 20
66.0513626849
 10
135.4644052685
 20
66.0375461688
 10
135.4089351589
 20
66.0195538122
 10
135.3542070823
 20
65.9969134426
 10
135.3000454819
 20
65.9694552415
 10
135.2466259146
 20
65.9373490276
 10
135.1954699519
 20
65.9006320839
 10
135.1470847843
 20
65.8593168382
 10
135.1009632214
 20
65.8133908628
 10
135.0571052632
 20
65.7628541578
  0
LINE
  5
311
100
AcDbEntity
  8
0
100
AcDbLine
 62
7
  6
CONTINUOUS
 10
129.0727792632
 20
69.2270482632
 11
128.6710112632
 21
69.8996802632
  0
LINE
  5
312
100
AcDbEntity
  8
0
100
AcDbLine
 62
7
  6
CONTINUOUS
 10
127.6062372632
 20
68.4989292632
 11
127.0991582632
 21
69.8996802632
  0
LINE
  5
313
100
AcDbEntity
  8
0
100
AcDbLine
 62
7
  6
CONTINUOUS
 10
127.2610882632
 20
68.9065852632
 11
127.3995782632
 21
68.4989292632
  0
LINE
  5
314
100
AcDbEntity
  8
0
100
AcDbLine
 62
7
  6
CONTINUOUS
 10
125.1587782632
 20
72.7360662632
 11
124.7570622632
 21
73.9252812632
  0
LINE
  5
315
100
AcDbEntity
  8
0
100
AcDbLine
 62
7
  6
CONTINUOUS
 10
124.6693032632
 20
73.6988062632
 11
125.0632572632
 21
72.5256632632
  0
LINE
  5
316
100
AcDbEntity
  8
0
100
AcDbLine
 62
7
  6
CONTINUOUS
 10
126.9841872632
 20
69.6956912632
 11
127.1928062632
 21
69.0741772632
  0
LWPOLYLINE
  5
317
100
AcDbEntity
  8
RACCORDO
100
AcDbPolyline
 62
7
  6
CONTINUOUS
 90
16
 70
0
 10
123.0122940336
 20
65.2422635727
 10
123.0134064762
 20
65.2212605387
 10
123.0167175111
 20
65.2004954166
 10
123.0221887623
 20
65.1801975072
 10
123.0297528785
 20
65.1606021749
 10
123.0393273949
 20
65.1419125728
 10
123.0508275296
 20
65.124303325
 10
123.0641651332
 20
65.1079410112
 10
123.0791766651
 20
65.0930536712
 10
123.0956215109
 20
65.0798723561
 10
123.1132872388
 20
65.0685366973
 10
123.131982429
 20
65.0591412122
 10
123.1514544152
 20
65.0517825845
 10
123.1714672098
 20
65.0465121781
 10
123.1918104847
 20
65.0433489946
 10
123.2122635727
 20
65.0422940336
  0
LINE
  5
318
100
AcDbEntity
  8
RACCORDO
100
AcDbLine
 62
253
  6
CONTINUOUS
 10
123.2080627151
 20
115.1367421043
 11
123.2089542796
 21
115.0330326997
  0
LINE
  5
319
100
AcDbEntity
  8
RACCORDO
100
AcDbLine
 62
7
  6
CONTINUOUS
 10
122.3821052632
 20
113.8121357241
 11
122.3821052632
 21
64.6120748022
  0
LINE
  5
31A
100
AcDbEntity
  8
RACCORDO
100
AcDbLine
 62
7
  6
CONTINUOUS
 10
122.6321052632
 20
115.2121052632
 11
122.6321052632
 21
114.2118314669
  0
LINE
  5
31B
100
AcDbEntity
  8
RACCORDO
100
AcDbLine
 62
7
  6
CONTINUOUS
 10
122.6321052632
 20
64.2123790594
 11
122.6321052632
 21
63.2121052632
  0
LINE
  5
31C
100
AcDbEntity
  8
DRAFT
100
AcDbLine
 62
7
  6
CONTINUOUS
 10
122.9033201201
 20
62.2121052632
 11
122.9033201201
 21
63.2121052632
  0
LINE
  5
31D
100
AcDbEntity
  8
DRAFT
100
AcDbLine
 62
7
  6
CONTINUOUS
 10
122.9033201201
 20
115.2121052632
 11
122.9033201201
 21
116.2121052632
  0
LINE
  5
31E
100
AcDbEntity
  8
RACCORDO
100
AcDbLine
 62
253
  6
CONTINUOUS
 10
123.0097192148
 20
115.0200071702
 11
123.0098315442
 21
114.8768108658
  0
LINE
  5
31F
100
AcDbEntity
  8
RACCORDO
100
AcDbLine
 62
253
  6
CONTINUOUS
 10
123.009686329
 20
63.5918173767
 11
123.0098315442
 21
63.4434761131
  0
LINE
  5
320
100
AcDbEntity
  8
RACCORDO
100
AcDbLine
 62
253
  6
CONTINUOUS
 10
123.0122940336
 20
65.2422635727
 11
123.0122940336
 21
113.1819469536
  0
LINE
  5
321
100
AcDbEntity
  8
RACCORDO
100
AcDbLine
 62
253
  6
CONTINUOUS
 10
123.2089542796
 20
115.0330326997
 11
123.2090704838
 21
114.8768108658
  0
LINE
  5
322
100
AcDbEntity
  8
RACCORDO
100
AcDbLine
 62
253
  6
CONTINUOUS
 10
123.2089210118
 20
63.6064433113
 11
123.2090704838
 21
63.4434761131
  0
LINE
  5
323
100
AcDbEntity
  8
RACCORDO
100
AcDbLine
 62
253
  6
CONTINUOUS
 10
123.2122635727
 20
65.0422940336
 11
123.2122635727
 21
113.3819164927
  0
LWPOLYLINE
  5
324
100
AcDbEntity
  8
RACCORDO
100
AcDbPolyline
 62
253
  6
CONTINUOUS
 90
22
 70
0
 10
123.2090704838
 20
114.8768108658
 10
123.2089210118
 20
114.817767215
 10
123.2084930259
 20
114.7590409369
 10
123.2077865261
 20
114.7009525242
 10
123.2067947289
 20
114.6438203302
 10
123.2055244179
 20
114.5879551353
 10
123.2039959431
 20
114.5336587466
 10
123.2022051732
 20
114.481227914
 10
123.2001562395
 20
114.4309502911
 10
123.1978818867
 20
114.3830996743
 10
123.1953783643
 20
114.3379384775
 10
123.1926494228
 20
114.2957156925
 10
123.1897390576
 20
114.2566636858
 10
123.18664412
 20
114.2209974225
 10
123.1833677587
 20
114.1889147639
 10
123.1799634164
 20
114.1605945982
 10
123.1764290267
 20
114.1361934722
 10
123.1727666558
 20
114.1158471662
 10
123.1690359454
 20
114.099670071
 10
123.165256776
 20
114.0877519899
 10
123.1614092669
 20
114.0801586882
 10
123.1574934183
 20
114.0769327097
  0
LWPOLYLINE
  5
325
100
AcDbEntity
  8
RACCORDO
100
AcDbPolyline
 62
253
  6
CONTINUOUS
 90
13
 70
0
 10
123.0098315442
 20
63.4434761131
 10
123.0097193435
 20
63.4042038699
 10
123.0093857637
 20
63.3653367174
 10
123.008830805
 20
63.3268746557
 10
123.0080501776
 20
63.2886237901
 10
123.0070481712
 20
63.2507780153
 10
123.0058376546
 20
63.2139190148
 10
123.0044142113
 20
63.1780717423
 10
123.0027822577
 20
63.1432112442
 10
123.0009679122
 20
63.1098443431
 10
122.9989798809
 20
63.0781399798
 10
122.9968094576
 20
63.0479292136
 10
122.9944566424
 20
63.0192120443
  0
LWPOLYLINE
  5
326
100
AcDbEntity
  8
RACCORDO
100
AcDbPolyline
 62
253
  6
CONTINUOUS
 90
22
 70
0
 10
123.0098315442
 20
114.8768108658
 10
123.009686329
 20
114.8323931496
 10
123.0092618928
 20
114.7886091925
 10
123.0085582356
 20
114.7454589945
 10
123.0075687022
 20
114.702690728
 10
123.0062999477
 20
114.6605562207
 10
123.0047719377
 20
114.6198109556
 10
123.002980519
 20
114.5804996096
 10
123.0009298447
 20
114.5425775059
 10
122.9986523394
 20
114.5066660972
 10
122.9961437619
 20
114.4727942102
 10
122.9934083534
 20
114.4409330182
 10
122.9904912616
 20
114.4116174936
 10
122.9873895355
 20
114.3848937857
 10
122.9841061262
 20
114.3607157452
 10
122.9806950351
 20
114.3394798955
 10
122.9771520666
 20
114.3212347669
 10
122.9734814164
 20
114.3059318291
 10
122.9697496736
 20
114.2938220151
 10
122.9659790345
 20
114.2849889692
 10
122.9621473029
 20
114.2793490471
 10
122.9582544787
 20
114.2769022487
  0
LWPOLYLINE
  5
327
100
AcDbEntity
  8
RACCORDO
100
AcDbPolyline
 62
253
  6
CONTINUOUS
 90
12
 70
0
 10
123.2090704838
 20
63.4434761131
 10
123.2086183979
 20
63.3391007625
 10
123.2080627545
 20
63.2874681586
 10
123.2072832066
 20
63.2365022538
 10
123.206283925
 20
63.1864198437
 10
123.2050774218
 20
63.1374314872
 10
123.2036610597
 20
63.0897468916
 10
123.202037476
 20
63.043571216
 10
123.200227094
 20
62.9991005304
 10
123.1982367216
 20
62.9565255891
 10
123.196059551
 20
62.9160307178
 10
123.1936955821
 20
62.8777906881
  0
LWPOLYLINE
  5
328
100
AcDbEntity
  8
RACCORDO
100
AcDbPolyline
 62
253
  6
CONTINUOUS
 90
21
 70
0
 10
144.7574934183
 20
64.3472778166
 10
144.7614092669
 20
64.3440518381
 10
144.7652567759
 20
64.3364585364
 10
144.7690359454
 20
64.3245404553
 10
144.7727666558
 20
64.3083633601
 10
144.7764290267
 20
64.2880170542
 10
144.7799634164
 20
64.2636159281
 10
144.7833677588
 20
64.2352957624
 10
144.78664412
 20
64.2032131038
 10
144.7897390576
 20
64.1675468405
 10
144.7926494228
 20
64.1284948338
 10
144.7953783643
 20
64.0862720488
 10
144.7978818867
 20
64.041110852
 10
144.8001562396
 20
63.9932602352
 10
144.8022051732
 20
63.9429826124
 10
144.8039959431
 20
63.8905517797
 10
144.8055244179
 20
63.836255391
 10
144.8067947289
 20
63.7803901962
 10
144.807786526
 20
63.7232580022
 10
144.8084930259
 20
63.6651695894
 10
144.8089210118
 20
63.6064433113
  0
LINE
  5
329
100
AcDbEntity
  8
0
100
AcDbLine
 62
7
  6
CONTINUOUS
 10
127.2435362632
 20
72.5256632632
 11
126.7364582632
 21
73.9252812632
  0
LINE
  5
32A
100
AcDbEntity
  8
0
100
AcDbLine
 62
7
  6
CONTINUOUS
 10
126.8983882632
 20
72.9333192632
 11
127.0368782632
 21
72.5256632632
  0
LINE
  5
32B
100
AcDbEntity
  8
0
100
AcDbLine
 62
7
  6
CONTINUOUS
 10
126.6214862632
 20
73.7224272632
 11
126.8301052632
 21
73.1009102632
  0
LINE
  5
32C
100
AcDbEntity
  8
RACCORDO
100
AcDbLine
 62
253
  6
CONTINUOUS
 10
126.5705149442
 20
62.8777906881
 11
126.6287548724
 21
62.2121052632
  0
LINE
  5
32D
100
AcDbEntity
  8
RACCORDO
100
AcDbLine
 62
253
  6
CONTINUOUS
 10
126.7697538839
 20
63.0192120443
 11
126.8403665775
 21
62.2121052632
  0
LINE
  5
32E
100
AcDbEntity
  8
RACCORDO
100
AcDbLine
 62
253
  6
CONTINUOUS
 10
122.9238439488
 20
116.2121052632
 11
122.9944566424
 21
115.404998482
  0
LINE
  5
32F
100
AcDbEntity
  8
RACCORDO
100
AcDbLine
 62
253
  6
CONTINUOUS
 10
123.1354556539
 20
116.2121052632
 11
123.1936955821
 21
115.5464198382
  0
LWPOLYLINE
  5
330
100
AcDbEntity
  8
RACCORDO
100
AcDbPolyline
 62
253
  6
CONTINUOUS
 90
12
 70
0
 10
122.9944566424
 20
115.404998482
 10
122.9968095277
 20
115.3762825281
 10
122.9989801119
 20
115.34606921
 10
123.000968395
 20
115.3143585276
 10
123.0027832229
 20
115.2809772525
 10
123.0044157498
 20
115.2460986131
 10
123.0058394377
 20
115.2102422948
 10
123.007049564
 20
115.1733918256
 10
123.0080508513
 20
115.1355636776
 10
123.0088309299
 20
115.0973269521
 10
123.0093856766
 20
115.0588713499
 10
123.0097192148
 20
115.0200071702
  0
LWPOLYLINE
  5
331
100
AcDbEntity
  8
RACCORDO
100
AcDbPolyline
 62
253
  6
CONTINUOUS
 90
13
 70
0
 10
126.8059560476
 20
64.1473082776
 10
126.8042155233
 20
64.1733828091
 10
126.7991026183
 20
64.1990124286
 10
126.7907045147
 20
64.2237594734
 10
126.7791644959
 20
64.2472013307
 10
126.7646795122
 20
64.2689376375
 10
126.7474968294
 20
64.2885971248
 10
126.727909764
 20
64.3058440068
 10
126.7062527582
 20
64.320383633
 10
126.6828957137
 20
64.3319675522
 10
126.6582375336
 20
64.3403978565
 10
126.6326992834
 20
64.3455305212
 10
126.6067171079
 20
64.3472778166
  0
LWPOLYLINE
  5
332
100
AcDbEntity
  8
RACCORDO
100
AcDbPolyline
 62
253
  6
CONTINUOUS
 90
10
 70
0
 10
123.1936955821
 20
115.5464198382
 10
123.1960595952
 20
115.5081796494
 10
123.1982367961
 20
115.4676846577
 10
123.2002271848
 20
115.4251096452
 10
123.2020375668
 20
115.3806389758
 10
123.2036611366
 20
115.3344633838
 10
123.2050774779
 20
115.2867788503
 10
123.2062839488
 20
115.2377904768
 10
123.2072831913
 20
115.18770802
 10
123.2080627151
 20
115.1367421043
  0
LINE
  5
333
100
AcDbEntity
  8
0
100
AcDbLine
 62
7
  6
CONTINUOUS
 10
124.4859712632
 20
73.9252812632
 11
124.4859712632
 21
72.5256632632
  0
LINE
  5
334
100
AcDbEntity
  8
0
100
AcDbLine
 62
7
  6
CONTINUOUS
 10
124.6693032632
 20
72.5256632632
 11
124.6693032632
 21
73.6988062632
  0
LINE
  5
335
100
AcDbEntity
  8
0
100
AcDbLine
 62
7
  6
CONTINUOUS
 10
124.7745012632
 20
69.8996802632
 11
124.7745012632
 21
68.4989292632
  0
LINE
  5
336
100
AcDbEntity
  8
0
100
AcDbLine
 62
7
  6
CONTINUOUS
 10
124.9637212632
 20
68.4989292632
 11
124.9637212632
 21
69.8996802632
  0
LINE
  5
337
100
AcDbEntity
  8
0
100
AcDbLine
 62
7
  6
CONTINUOUS
 10
125.1666432632
 20
69.8996802632
 11
125.1666432632
 21
69.7320882632
  0
LINE
  5
338
100
AcDbEntity
  8
0
100
AcDbLine
 62
7
  6
CONTINUOUS
 10
125.6405432632
 20
69.7320882632
 11
125.6405432632
 21
68.4989292632
  0
LINE
  5
339
100
AcDbEntity
  8
0
100
AcDbLine
 62
7
  6
CONTINUOUS
 10
125.6443932632
 20
73.7010702632
 11
125.6443932632
 21
72.5256632632
  0
LINE
  5
33A
100
AcDbEntity
  8
RACCORDO
100
AcDbLine
 62
7
  6
CONTINUOUS
 10
125.6821052632
 20
64.8711734708
 11
125.6821052632
 21
66.2121052632
  0
LINE
  5
33B
100
AcDbEntity
  8
RACCORDO
100
AcDbLine
 62
7
  6
CONTINUOUS
 10
125.6821052632
 20
112.2121052632
 11
125.6821052632
 21
113.5530370555
  0
LWPOLYLINE
  5
33C
100
AcDbEntity
  8
RACCORDO
100
AcDbPolyline
 62
253
  6
CONTINUOUS
 90
10
 70
0
 10
126.5705149442
 20
115.5464198382
 10
126.5681753841
 20
115.5087739444
 10
126.566006801
 20
115.4684951853
 10
126.5640091951
 20
115.4256865191
 10
126.5621657649
 20
115.3802586219
 10
126.5604933118
 20
115.3325502479
 10
126.55904224
 20
115.2834059853
 10
126.5578273354
 20
115.2330316558
 10
126.5568338121
 20
115.1816975217
 10
126.5555310641
 20
115.0798724988
  0
LWPOLYLINE
  5
33D
100
AcDbEntity
  8
RACCORDO
100
AcDbPolyline
 62
253
  6
CONTINUOUS
 90
13
 70
0
 10
126.8059560476
 20
114.2769022487
 10
126.8042153068
 20
114.2508260871
 10
126.7991018491
 20
114.2251952333
 10
126.7907029982
 20
114.2004473907
 10
126.7791621829
 20
114.1770051832
 10
126.7646764881
 20
114.1552689382
 10
126.7474932888
 20
114.1356098498
 10
126.7279060261
 20
114.1183636404
 10
126.7062491955
 20
114.1038248269
 10
126.6828926352
 20
114.0922416918
 10
126.6582352099
 20
114.0838120424
 10
126.6326979995
 20
114.0786798338
 10
126.606717108
 20
114.0769327097
  0
LWPOLYLINE
  5
33E
100
AcDbEntity
  8
RACCORDO
100
AcDbPolyline
 62
253
  6
CONTINUOUS
 90
13
 70
0
 10
126.7697538839
 20
115.404998482
 10
126.7674257161
 20
115.3768052605
 10
126.7652641384
 20
115.3467436958
 10
126.7632691506
 20
115.3148137879
 10
126.7614221981
 20
115.2806989345
 10
126.7597418355
 20
115.2447157378
 10
126.7582837275
 20
115.207814005
 10
126.7570640132
 20
115.1698762478
 10
126.7560665534
 20
115.1310199545
 10
126.7552985956
 20
115.0925473971
 10
126.7547625557
 20
115.0548926665
 10
126.7544560179
 20
115.0176216719
 10
126.7543789821
 20
114.9807344133
  0
LINE
  5
33F
100
AcDbEntity
  8
RACCORDO
100
AcDbLine
 62
253
  6
CONTINUOUS
 10
126.6287548724
 20
116.2121052632
 11
126.5705149442
 21
115.5464198382
  0
LINE
  5
340
100
AcDbEntity
  8
RACCORDO
100
AcDbLine
 62
253
  6
CONTINUOUS
 10
126.8403665775
 20
116.2121052632
 11
126.7697538839
 21
115.404998482
  0
LINE
  5
341
100
AcDbEntity
  8
RACCORDO
100
AcDbLine
 62
253
  6
CONTINUOUS
 10
122.9944566424
 20
63.0192120443
 11
122.9238439488
 21
62.2121052632
  0
LINE
  5
342
100
AcDbEntity
  8
RACCORDO
100
AcDbLine
 62
253
  6
CONTINUOUS
 10
123.1936955821
 20
62.8777906881
 11
123.1354556539
 21
62.2121052632
  0
LINE
  5
343
100
AcDbEntity
  8
ASSI
100
AcDbLine
 62
7
  6
CONTINUOUS
 10
131.4443912632
 20
110.6122432632
 11
130.8032662632
 21
108.6153462632
  0
LINE
  5
344
100
AcDbEntity
  8
ASSI
100
AcDbLine
 62
7
  6
CONTINUOUS
 10
131.0932812632
 20
107.7121122632
 11
132.0244202632
 21
110.6122432632
  0
LWPOLYLINE
  5
345
100
AcDbEntity
  8
RACCORDO
100
AcDbPolyline
 62
253
  6
CONTINUOUS
 90
21
 70
0
 10
126.7545236701
 20
114.8324196362
 10
126.7549477793
 20
114.7886516088
 10
126.7556513095
 20
114.7455067836
 10
126.756640805
 20
114.7027310293
 10
126.7579097215
 20
114.6605784772
 10
126.7594384268
 20
114.619811521
 10
126.7612315385
 20
114.5804721499
 10
126.763284439
 20
114.5425183746
 10
126.7655636423
 20
114.5065866211
 10
126.7680730631
 20
114.4727133734
 10
126.7708087868
 20
114.4408621474
 10
126.7737255841
 20
114.4115599165
 10
126.7768262285
 20
114.384852485
 10
126.7801079465
 20
114.3606940486
 10
126.7835171878
 20
114.3394741682
 10
126.7870578606
 20
114.3212390466
 10
126.7907260568
 20
114.3059424809
 10
126.794456501
 20
114.2938354231
 10
126.7982274351
 20
114.2850015238
 10
126.8020606173
 20
114.2793571323
 10
126.8059560476
 20
114.2769022487
  0
LWPOLYLINE
  5
346
100
AcDbEntity
  8
RACCORDO
100
AcDbPolyline
 62
253
  6
CONTINUOUS
 90
12
 70
0
 10
126.7544668242
 20
63.4057691121
 10
126.7547832634
 20
63.3679111168
 10
126.7553282996
 20
63.3299021271
 10
126.7561038503
 20
63.2913945051
 10
126.757107998
 20
63.2527358887
 10
126.7583349901
 20
63.2149691917
 10
126.7598055492
 20
63.178070685
 10
126.7614989527
 20
63.1420640977
 10
126.7633472799
 20
63.1080635299
 10
126.7653278908
 20
63.0764403485
 10
126.7674634254
 20
63.0468231866
 10
126.7697538839
 20
63.0192120443
  0
LWPOLYLINE
  5
347
100
AcDbEntity
  8
RACCORDO
100
AcDbPolyline
 62
253
  6
CONTINUOUS
 90
21
 70
0
 10
126.5552894978
 20
114.8177670862
 10
126.5557174622
 20
114.7590406924
 10
126.5564239357
 20
114.7009521788
 10
126.5574156774
 20
114.6438199217
 10
126.5586859281
 20
114.5879546796
 10
126.560214411
 20
114.5336581977
 10
126.5620053187
 20
114.4812271881
 10
126.5640544585
 20
114.4309493613
 10
126.5663289757
 20
114.3830985903
 10
126.5688325804
 20
114.3379373171
 10
126.5715615625
 20
114.2957144998
 10
126.5744719369
 20
114.2566624828
 10
126.5775668477
 20
114.2209961935
 10
126.5808431508
 20
114.1889135433
 10
126.5842474283
 20
114.160593501
 10
126.5877817486
 20
114.1361926174
 10
126.5914440434
 20
114.1158465844
 10
126.5951746891
 20
114.0996697246
 10
126.5989538112
 20
114.0877518212
 10
126.6028012841
 20
114.0801586391
 10
126.606717108
 20
114.0769327097
  0
LWPOLYLINE
  5
348
100
AcDbEntity
  8
RACCORDO
100
AcDbPolyline
 62
253
  6
CONTINUOUS
 90
12
 70
0
 10
126.5552311163
 20
63.3933357714
 10
126.5555496683
 20
63.3426228934
 10
126.5560956986
 20
63.2915571442
 10
126.5568716464
 20
63.240174325
 10
126.5578750725
 20
63.1889380826
 10
126.5590986585
 20
63.1386994409
 10
126.560559741
 20
63.0896125691
 10
126.5622409833
 20
63.0419994566
 10
126.5640830576
 20
62.9968377385
 10
126.5660661879
 20
62.95448584
 10
126.5682101501
 20
62.9147792853
 10
126.5705149442
 20
62.8777906881
  0
LINE
  5
349
100
AcDbEntity
  8
0
100
AcDbLine
 62
7
  6
CONTINUOUS
 10
125.8277252632
 20
72.5256632632
 11
125.8277252632
 21
73.9252812632
  0
LINE
  5
34A
100
AcDbEntity
  8
0
100
AcDbLine
 62
7
  6
CONTINUOUS
 10
125.8296502632
 20
68.4989292632
 11
125.8296502632
 21
69.7320882632
  0
LINE
  5
34B
100
AcDbEntity
  8
0
100
AcDbLine
 62
7
  6
CONTINUOUS
 10
126.3035502632
 20
69.7320882632
 11
126.3035502632
 21
69.8996802632
  0
LINE
  5
34C
100
AcDbEntity
  8
0
100
AcDbLine
 62
7
  6
CONTINUOUS
 10
126.3630002632
 20
71.9119142632
 11
126.3630002632
 21
70.5122962632
  0
LINE
  5
34D
100
AcDbEntity
  8
RACCORDO
100
AcDbLine
 62
7
  6
CONTINUOUS
 10
126.4821052632
 20
64.8687438635
 11
126.4821052632
 21
66.2121052632
  0
LINE
  5
34E
100
AcDbEntity
  8
RACCORDO
100
AcDbLine
 62
7
  6
CONTINUOUS
 10
126.4821052632
 20
112.2121052632
 11
126.4821052632
 21
113.5554666628
  0
LINE
  5
34F
100
AcDbEntity
  8
0
100
AcDbLine
 62
7
  6
CONTINUOUS
 10
126.5522202632
 20
70.5122962632
 11
126.5522202632
 21
71.9119142632
  0
LINE
  5
350
100
AcDbEntity
  8
RACCORDO
100
AcDbLine
 62
253
  6
CONTINUOUS
 10
126.6821052632
 20
65.8688352649
 11
126.6821052632
 21
66.2424159007
  0
LINE
  5
351
100
AcDbEntity
  8
RACCORDO
100
AcDbLine
 62
253
  6
CONTINUOUS
 10
126.6821052632
 20
112.1817946256
 11
126.6821052632
 21
112.5553752614
  0
LINE
  5
352
100
AcDbEntity
  8
RACCORDO
100
AcDbLine
 62
253
  6
CONTINUOUS
 10
126.7543789821
 20
114.9807344133
 11
126.7545236701
 21
114.8324196362
  0
LINE
  5
353
100
AcDbEntity
  8
RACCORDO
100
AcDbLine
 62
253
  6
CONTINUOUS
 10
126.7543789821
 20
63.5473996605
 11
126.7544668242
 21
63.4057691121
  0
LINE
  5
354
100
AcDbEntity
  8
DRAFT
100
AcDbLine
 62
7
  6
CONTINUOUS
 10
126.8608904062
 20
62.2121052632
 11
126.8608904062
 21
63.2121052632
  0
LINE
  5
355
100
AcDbEntity
  8
DRAFT
100
AcDbLine
 62
7
  6
CONTINUOUS
 10
126.8608904062
 20
115.2121052632
 11
126.8608904062
 21
116.2121052632
  0
LINE
  5
356
100
AcDbEntity
  8
0
100
AcDbLine
 62
7
  6
CONTINUOUS
 10
126.8758542632
 20
71.9119142632
 11
126.8758542632
 21
70.5122962632
  0
LINE
  5
357
100
AcDbEntity
  8
0
100
AcDbLine
 62
7
  6
CONTINUOUS
 10
127.0592992632
 20
70.5122962632
 11
127.0592992632
 21
71.6496592632
  0
LINE
  5
358
100
AcDbEntity
  8
RACCORDO
100
AcDbLine
 62
7
  6
CONTINUOUS
 10
127.1321052632
 20
115.2121052632
 11
127.1321052632
 21
114.2118314669
  0
LINE
  5
359
100
AcDbEntity
  8
RACCORDO
100
AcDbLine
 62
7
  6
CONTINUOUS
 10
127.1321052632
 20
64.2123790594
 11
127.1321052632
 21
63.2121052632
  0
LINE
  5
35A
100
AcDbEntity
  8
0
100
AcDbLine
 62
7
  6
CONTINUOUS
 10
127.4268682632
 20
73.9252812632
 11
127.4268682632
 21
72.5256632632
  0
LINE
  5
35B
100
AcDbEntity
  8
0
100
AcDbLine
 62
7
  6
CONTINUOUS
 10
127.6159752632
 20
72.6875932632
 11
127.6159752632
 21
73.7633512632
  0
LINE
  5
35C
100
AcDbEntity
  8
0
100
AcDbLine
 62
7
  6
CONTINUOUS
 10
127.7798302632
 20
69.8996802632
 11
127.7798302632
 21
68.4989292632
  0
LWPOLYLINE
  5
35D
100
AcDbEntity
  8
RACCORDO
100
AcDbPolyline
 62
253
  6
CONTINUOUS
 90
3
 70
0
 10
126.5555310641
 20
115.0798724988
 10
126.5552218394
 20
115.0298910337
 10
126.5552894978
 20
114.8177670862
  0
LWPOLYLINE
  5
35E
100
AcDbEntity
  8
RACCORDO
100
AcDbPolyline
 62
7
  6
CONTINUOUS
 90
22
 70
0
 10
126.4821052639
 20
65.8423374134
 10
126.4826584586
 20
65.8572269717
 10
126.4843163682
 20
65.8720258361
 10
126.4870679888
 20
65.8866522912
 10
126.4908956066
 20
65.9010235964
 10
126.4957766551
 20
65.9150631513
 10
126.5016855165
 20
65.9287003507
 10
126.508590013
 20
65.9418612453
 10
126.5164513317
 20
65.9544721388
 10
126.5252277786
 20
65.966465907
 10
126.5348752624
 20
65.9777804979
 10
126.5453374949
 20
65.9883482772
 10
126.5565455381
 20
65.9981012654
 10
126.5684217332
 20
66.0069781785
 10
126.5809115167
 20
66.0149441643
 10
126.5939773956
 20
66.0219738491
 10
126.6075039679
 20
66.0280055097
 10
126.621461932
 20
66.0330264093
 10
126.6359561742
 20
66.0370467262
 10
126.6509781135
 20
66.0400080992
 10
126.6663901925
 20
66.0418276508
 10
126.6821052632
 20
66.0424463617
  0
LINE
  5
35F
100
AcDbEntity
  8
RACCORDO
100
AcDbLine
 62
253
  6
CONTINUOUS
 10
148.7821357241
 20
114.0121052632
 11
148.1485168672
 21
113.3784864063
  0
LINE
  5
360
100
AcDbEntity
  8
RACCORDO
100
AcDbLine
 62
253
  6
CONTINUOUS
 10
148.9821052632
 20
113.8121357241
 11
148.3519164927
 21
113.1819469536
  0
LINE
  5
361
100
AcDbEntity
  8
ASSI
100
AcDbLine
 62
7
  6
CONTINUOUS
 10
142.8425692632
 20
72.0482722632
 11
143.9629302632
 21
71.1041362632
  0
LINE
  5
362
100
AcDbEntity
  8
ASSI
100
AcDbLine
 62
7
  6
CONTINUOUS
 10
143.9629302632
 20
71.6204922632
 11
142.7908562632
 21
72.6082052632
  0
LINE
  5
363
100
AcDbEntity
  8
RACCORDO
100
AcDbLine
 62
253
  6
CONTINUOUS
 10
148.7821357241
 20
64.4121052632
 11
148.1485168672
 21
65.0457241201
  0
LINE
  5
364
100
AcDbEntity
  8
RACCORDO
100
AcDbLine
 62
253
  6
CONTINUOUS
 10
148.9821052632
 20
64.6120748022
 11
148.3519164927
 21
65.2422635727
  0
LWPOLYLINE
  5
365
100
AcDbEntity
  8
0
100
AcDbPolyline
 62
7
  6
CONTINUOUS
 90
19
 70
0
 10
128.5826606365
 20
73.2254721431
 10
128.5818056186
 20
73.2950916338
 10
128.5763799593
 20
73.3620348985
 10
128.5663836586
 20
73.4263019373
 10
128.5514525985
 20
73.488413294
 10
128.531950897
 20
73.5478484248
 10
128.5089709088
 20
73.6030456983
 10
128.4826242467
 20
73.6535730552
 10
128.4527992979
 20
73.6998625548
 10
128.4202535794
 20
73.7416487441
 10
128.3853859245
 20
73.7786561291
 10
128.3477974997
 20
73.8111602038
 10
128.3070493222
 20
73.8397219969
 10
128.2630329937
 20
73.86468206
 10
128.2158569124
 20
73.8856998415
 10
128.1654072898
 20
73.9023147152
 10
128.1116461964
 20
73.914373139
 10
128.0546115618
 20
73.922028655
 10
127.9943033858
 20
73.9252812632
  0
LINE
  5
366
100
AcDbEntity
  8
0
100
AcDbLine
 62
7
  6
CONTINUOUS
 10
127.8042902632
 20
71.9119142632
 11
127.8042902632
 21
70.7754042632
  0
LINE
  5
367
100
AcDbEntity
  8
0
100
AcDbLine
 62
7
  6
CONTINUOUS
 10
127.9689372632
 20
68.6665212632
 11
127.9689372632
 21
69.8996802632
  0
LINE
  5
368
100
AcDbEntity
  8
0
100
AcDbLine
 62
7
  6
CONTINUOUS
 10
127.9875082632
 20
70.5122962632
 11
127.9875082632
 21
71.9119142632
  0
LINE
  5
369
100
AcDbEntity
  8
RACCORDO
100
AcDbLine
 62
7
  6
CONTINUOUS
 10
128.1821052632
 20
65.9149634611
 11
128.1821052632
 21
66.8621052632
  0
LINE
  5
36A
100
AcDbEntity
  8
RACCORDO
100
AcDbLine
 62
7
  6
CONTINUOUS
 10
128.1821052632
 20
111.5621052632
 11
128.1821052632
 21
112.5092470652
  0
LINE
  5
36B
100
AcDbEntity
  8
0
100
AcDbLine
 62
7
  6
CONTINUOUS
 10
128.6788252632
 20
68.4989292632
 11
128.6788252632
 21
68.6665212632
  0
LINE
  5
36C
100
AcDbEntity
  8
0
100
AcDbLine
 62
7
  6
CONTINUOUS
 10
128.8446052632
 20
73.9252812632
 11
128.8446052632
 21
72.5256632632
  0
LINE
  5
36D
100
AcDbEntity
  8
0
100
AcDbLine
 62
7
  6
CONTINUOUS
 10
128.9792442632
 20
69.0628532632
 11
128.9792442632
 21
68.4989292632
  0
LINE
  5
36E
100
AcDbEntity
  8
RACCORDO
100
AcDbLine
 62
7
  6
CONTINUOUS
 10
128.9821052632
 20
65.9118333304
 11
128.9821052632
 21
66.62851278
  0
LINE
  5
36F
100
AcDbEntity
  8
RACCORDO
100
AcDbLine
 62
7
  6
CONTINUOUS
 10
128.9821052632
 20
111.7956977463
 11
128.9821052632
 21
112.512377196
  0
LINE
  5
370
100
AcDbEntity
  8
0
100
AcDbLine
 62
7
  6
CONTINUOUS
 10
129.0338252632
 20
72.6932552632
 11
129.0338252632
 21
73.1609262632
  0
LINE
  5
371
100
AcDbEntity
  8
0
100
AcDbLine
 62
7
  6
CONTINUOUS
 10
129.0338252632
 20
73.3285182632
 11
129.0338252632
 21
73.7576892632
  0
LINE
  5
372
100
AcDbEntity
  8
0
100
AcDbLine
 62
7
  6
CONTINUOUS
 10
129.1683512632
 20
68.4989292632
 11
129.1683512632
 21
69.0628532632
  0
LINE
  5
373
100
AcDbEntity
  8
RACCORDO
100
AcDbLine
 62
253
  6
CONTINUOUS
 10
129.1821052632
 20
111.7123162601
 11
129.1821052632
 21
111.5956672807
  0
LINE
  5
374
100
AcDbEntity
  8
RACCORDO
100
AcDbLine
 62
253
  6
CONTINUOUS
 10
129.1821052632
 20
66.7118942662
 11
129.1821052632
 21
66.8285432456
  0
LINE
  5
375
100
AcDbEntity
  8
0
100
AcDbLine
 62
7
  6
CONTINUOUS
 10
129.8002182632
 20
73.1609262632
 11
129.8002182632
 21
73.3285182632
  0
LWPOLYLINE
  5
376
100
AcDbEntity
  8
0
100
AcDbPolyline
 62
7
  6
CONTINUOUS
 90
19
 70
0
 10
128.3885634654
 20
73.2254721431
 10
128.3871642738
 20
73.1693286725
 10
128.3829514558
 20
73.1157085634
 10
128.3759250113
 20
73.0646118157
 10
128.3661747663
 20
73.0157726817
 10
128.3536108949
 20
72.9694569092
 10
128.3379639196
 20
72.9264617416
 10
128.3187369264
 20
72.8868613798
 10
128.2964268293
 20
72.8505816229
 10
128.2722548925
 20
72.818197112
 10
128.2466460628
 20
72.7900605581
 10
128.2191753934
 20
72.7658192501
 10
128.1897893078
 20
72.7449896956
 10
128.1586255557
 20
72.7275255064
 10
128.1255463874
 20
72.7134730707
 10
128.0900849781
 20
72.7024880613
 10
128.0520857195
 20
72.6944557023
 10
128.0117042199
 20
72.6894907696
 10
127.9689404793
 20
72.6875932632
  0
LWPOLYLINE
  5
377
100
AcDbEntity
  8
RACCORDO
100
AcDbPolyline
 62
253
  6
CONTINUOUS
 90
13
 70
0
 10
126.4821052632
 20
65.6688657259
 10
126.4838162909
 20
65.6949669884
 10
126.4889200979
 20
65.720621651
 10
126.4973293567
 20
65.7453907555
 10
126.5089001824
 20
65.7688504954
 10
126.5234345951
 20
65.7905994682
 10
126.5406839069
 20
65.810265543
 10
126.5603529774
 20
65.8275122277
 10
126.5821052632
 20
65.8420444267
 10
126.6055685767
 20
65.8536134901
 10
126.6303414541
 20
65.8620214681
 10
126.6560000247
 20
65.8671244978
 10
126.6821052632
 20
65.8688352649
  0
LINE
  5
378
100
AcDbEntity
  8
DRAFT
100
AcDbLine
 62
7
  6
CONTINUOUS
 10
134.6821052632
 20
113.7523375938
 11
134.40935437
 21
112.7344174028
  0
LINE
  5
379
100
AcDbEntity
  8
DRAFT
100
AcDbLine
 62
7
  6
CONTINUOUS
 10
134.6821052632
 20
112.6613563685
 11
134.4639045486
 21
111.8470202157
  0
LINE
  5
37A
100
AcDbEntity
  8
ASSI
100
AcDbLine
 62
7
  6
CONTINUOUS
 10
135.5310932632
 20
110.6122432632
 11
134.9895252632
 21
108.7235742632
  0
LINE
  5
37B
100
AcDbEntity
  8
DRAFT
100
AcDbLine
 62
7
  6
CONTINUOUS
 10
134.40935437
 20
65.6897931236
 11
134.6821052632
 21
64.6718729325
  0
LINE
  5
37C
100
AcDbEntity
  8
DRAFT
100
AcDbLine
 62
7
  6
CONTINUOUS
 10
134.4639045486
 20
66.5771903106
 11
134.6821052632
 21
65.7628541578
  0
LINE
  5
37D
100
AcDbEntity
  8
RACCORDO
100
AcDbLine
 62
253
  6
CONTINUOUS
 10
128.9838162909
 20
111.8861845366
 11
128.9821052632
 21
111.9122857991
  0
LINE
  5
37E
100
AcDbEntity
  8
0
100
AcDbLine
 62
7
  6
CONTINUOUS
 10
129.8645372632
 20
73.7576892632
 11
129.8645372632
 21
73.9252812632
  0
LINE
  5
37F
100
AcDbEntity
  8
0
100
AcDbLine
 62
7
  6
CONTINUOUS
 10
129.8782392632
 20
72.5256632632
 11
129.8782392632
 21
72.6932552632
  0
LWPOLYLINE
  5
380
100
AcDbEntity
  8
RACCORDO
100
AcDbPolyline
 62
253
  6
CONTINUOUS
 90
13
 70
0
 10
128.9821052632
 20
66.5119247272
 10
128.9838162909
 20
66.5380259897
 10
128.9889200979
 20
66.5636806523
 10
128.9973293567
 20
66.5884497568
 10
129.0089001824
 20
66.6119094967
 10
129.0234345951
 20
66.6336584695
 10
129.0406839069
 20
66.6533245443
 10
129.0603529774
 20
66.6705712289
 10
129.0821052632
 20
66.685103428
 10
129.1055685767
 20
66.6966724914
 10
129.1303414541
 20
66.7050804694
 10
129.1560000247
 20
66.7101834991
 10
129.1821052632
 20
66.7118942662
  0
LWPOLYLINE
  5
381
100
AcDbEntity
  8
RACCORDO
100
AcDbPolyline
 62
253
  6
CONTINUOUS
 90
13
 70
0
 10
126.7697538839
 20
63.0192120443
 10
126.7666373471
 20
63.0014398527
 10
126.760423071
 20
62.9839483715
 10
126.7512092096
 20
62.9670138775
 10
126.7391412952
 20
62.9509038497
 10
126.7244099395
 20
62.9358727449
 10
126.7072478234
 20
62.9221579784
 10
126.6879260211
 20
62.9099761737
 10
126.6667497192
 20
62.8995197419
 10
126.6440533958
 20
62.8909538416
 10
126.6201955377
 20
62.8844137709
 10
126.595552978
 20
62.8800028295
 10
126.5705149442
 20
62.8777906881
  0
LINE
  5
382
100
AcDbEntity
  8
ASSI
100
AcDbLine
 62
7
  6
CONTINUOUS
 10
135.2795252632
 20
107.7121202632
 11
135.8279002632
 21
109.6245542632
  0
LINE
  5
383
100
AcDbEntity
  8
ASSI
100
AcDbLine
 62
7
  6
CONTINUOUS
 10
137.7257332632
 20
110.6122502632
 11
136.7946082632
 21
107.7121122632
  0
LINE
  5
384
100
AcDbEntity
  8
ASSI
100
AcDbLine
 62
7
  6
CONTINUOUS
 10
137.3746302632
 20
107.7121202632
 11
137.5577432632
 21
108.2824482632
  0
LINE
  5
385
100
AcDbEntity
  8
ASSI
100
AcDbLine
 62
7
  6
CONTINUOUS
 10
137.7346652632
 20
108.8334702632
 11
138.0157552632
 21
109.7090092632
  0
LINE
  5
386
100
AcDbEntity
  8
0
100
AcDbLine
 62
7
  6
CONTINUOUS
 10
125.2504392632
 20
72.5256632632
 11
125.6443932632
 21
73.7010702632
  0
LINE
  5
387
100
AcDbEntity
  8
0
100
AcDbLine
 62
7
  6
CONTINUOUS
 10
125.5585592632
 20
73.9252812632
 11
125.1587782632
 21
72.7360662632
  0
LWPOLYLINE
  5
388
100
AcDbEntity
  8
RACCORDO
100
AcDbPolyline
 62
253
  6
CONTINUOUS
 90
13
 70
0
 10
126.7697538839
 20
115.404998482
 10
126.7666375966
 20
115.4227697262
 10
126.7604238164
 20
115.4402604839
 10
126.7512105868
 20
115.4571945004
 10
126.739143328
 20
115.4733043025
 10
126.7244125487
 20
115.4883354164
 10
126.7072508439
 20
115.5020503899
 10
126.6879291922
 20
115.5142325659
 10
126.6667527394
 20
115.5246894615
 10
126.6440560079
 20
115.5332558253
 10
126.6201975104
 20
115.5397963009
 10
126.5955540696
 20
115.5442075459
 10
126.5705149443
 20
115.5464198376
  0
LINE
  5
389
100
AcDbEntity
  8
ASSI
100
AcDbLine
 62
7
  6
CONTINUOUS
 10
132.4110992632
 20
110.6122432632
 11
132.4110912632
 21
107.7121052632
  0
LINE
  5
38A
100
AcDbEntity
  8
ASSI
100
AcDbLine
 62
7
  6
CONTINUOUS
 10
132.9911132632
 20
107.7121122632
 11
132.9911202632
 21
110.6122432632
  0
LINE
  5
38B
100
AcDbEntity
  8
ASSI
100
AcDbLine
 62
7
  6
CONTINUOUS
 10
133.5711202632
 20
110.6122432632
 11
133.5711202632
 21
107.7121122632
  0
LWPOLYLINE
  5
38C
100
AcDbEntity
  8
RACCORDO
100
AcDbPolyline
 62
7
  6
CONTINUOUS
 90
16
 70
0
 10
134.1423655013
 20
112.0227066503
 10
134.1421073387
 20
112.0030302773
 10
134.1412632675
 20
111.9836702775
 10
134.1398332877
 20
111.9646266509
 10
134.1377917762
 20
111.9456148976
 10
134.135164356
 20
111.9269195174
 10
134.1320278967
 20
111.9093940104
 10
134.1283918531
 20
111.8931971482
 10
134.1242467703
 20
111.8781701591
 10
134.1196411533
 20
111.8646902284
 10
134.1145212294
 20
111.8526890201
 10
134.1089407713
 20
111.8422348703
 10
134.1031096011
 20
111.8339099715
 10
134.0970976599
 20
111.8279083881
 10
134.0908350067
 20
111.8240360558
 10
134.0843216415
 20
111.8222929746
  0
LWPOLYLINE
  5
38D
100
AcDbEntity
  8
RACCORDO
100
AcDbPolyline
 62
7
  6
CONTINUOUS
 90
16
 70
0
 10
134.0878153347
 20
112.9100634934
 10
134.0875515879
 20
112.8901228902
 10
134.0867129418
 20
112.8705496192
 10
134.0852993965
 20
112.8513436804
 10
134.0832818221
 20
112.8322208854
 10
134.0806893484
 20
112.8134654227
 10
134.0776093647
 20
112.7959298575
 10
134.0740532965
 20
112.7797836087
 10
134.0700097184
 20
112.7648572575
 10
134.0655317434
 20
112.751495112
 10
134.0605664021
 20
112.7396287107
 10
134.055166664
 20
112.7293265151
 10
134.0495445503
 20
112.7211382181
 10
134.0437707346
 20
112.7152470504
 10
134.0377745434
 20
112.7114697812
 10
134.0315559766
 20
112.7098064105
  0
LINE
  5
38E
100
AcDbEntity
  8
0
100
AcDbLine
 62
7
  6
CONTINUOUS
 10
126.1904262632
 20
72.5256632632
 11
126.3367292632
 21
72.9333192632
  0
LINE
  5
38F
100
AcDbEntity
  8
0
100
AcDbLine
 62
7
  6
CONTINUOUS
 10
126.3952732632
 20
73.1009102632
 11
126.6214862632
 21
73.7224272632
  0
LINE
  5
390
100
AcDbEntity
  8
0
100
AcDbLine
 62
7
  6
CONTINUOUS
 10
126.5219862632
 20
73.9252812632
 11
125.9954302632
 21
72.5256632632
  0
LINE
  5
391
100
AcDbEntity
  8
RACCORDO
100
AcDbLine
 62
7
  6
CONTINUOUS
 10
134.0878153391
 20
64.7105868734
 11
134.0878153357
 21
65.5141470094
  0
LINE
  5
392
100
AcDbEntity
  8
RACCORDO
100
AcDbLine
 62
7
  6
CONTINUOUS
 10
134.0878153347
 20
112.9100634934
 11
134.0878153391
 21
113.7136236529
  0
LINE
  5
393
100
AcDbEntity
  8
RACCORDO
100
AcDbLine
 62
7
  6
CONTINUOUS
 10
134.1423655013
 20
112.0227066503
 11
134.1423655177
 21
112.6261960002
  0
LINE
  5
394
100
AcDbEntity
  8
RACCORDO
100
AcDbLine
 62
7
  6
CONTINUOUS
 10
134.1423655177
 20
65.7980145261
 11
134.1423655054
 21
66.4015037779
  0
LINE
  5
395
100
AcDbEntity
  8
ASSI
100
AcDbLine
 62
7
  6
CONTINUOUS
 10
134.1511422632
 20
107.7121122632
 11
134.1511422632
 21
109.6245542632
  0
LINE
  5
396
100
AcDbEntity
  8
DRAFT
100
AcDbLine
 62
7
  6
CONTINUOUS
 10
134.3605662322
 20
111.5782122158
 11
134.3605662322
 21
111.5621052632
  0
LINE
  5
397
100
AcDbEntity
  8
DRAFT
100
AcDbLine
 62
7
  6
CONTINUOUS
 10
134.3605662322
 20
66.8621052632
 11
134.3605662322
 21
66.8459983105
  0
LINE
  5
398
100
AcDbEntity
  8
DRAFT
100
AcDbLine
 62
7
  6
CONTINUOUS
 10
134.6821052632
 20
99.1619796342
 11
134.6821052632
 21
98.3575959553
  0
LINE
  5
399
100
AcDbEntity
  8
DRAFT
100
AcDbLine
 62
7
  6
CONTINUOUS
 10
134.6821052632
 20
80.066614571
 11
134.6821052632
 21
79.2622308921
  0
LINE
  5
39A
100
AcDbEntity
  8
ASSI
100
AcDbLine
 62
7
  6
CONTINUOUS
 10
134.8145512632
 20
68.6640682505
 11
134.8145512632
 21
69.4148852503
  0
LINE
  5
39B
100
AcDbEntity
  8
ASSI
100
AcDbLine
 62
7
  6
CONTINUOUS
 10
134.8145512632
 20
73.0093252632
 11
134.8145512632
 21
73.7601422632
  0
LINE
  5
39C
100
AcDbEntity
  8
DRAFT
100
AcDbLine
 62
7
  6
CONTINUOUS
 10
134.9321052632
 20
96.6745110415
 11
134.9321052632
 21
95.8699953193
  0
LINE
  5
39D
100
AcDbEntity
  8
DRAFT
100
AcDbLine
 62
7
  6
CONTINUOUS
 10
134.9321052632
 20
82.554215207
 11
134.9321052632
 21
81.7496994849
  0
LINE
  5
39E
100
AcDbEntity
  8
RACCORDO
100
AcDbLine
 62
7
  6
CONTINUOUS
 10
135.0571052632
 20
66.8459983105
 11
135.0571052632
 21
66.5771903106
  0
LINE
  5
39F
100
AcDbEntity
  8
RACCORDO
100
AcDbLine
 62
7
  6
CONTINUOUS
 10
135.0571052632
 20
65.6897931236
 11
135.0571052632
 21
65.7628541578
  0
LINE
  5
3A0
100
AcDbEntity
  8
RACCORDO
100
AcDbLine
 62
7
  6
CONTINUOUS
 10
135.0571052632
 20
111.5782122158
 11
135.0571052632
 21
111.8470202157
  0
LINE
  5
3A1
100
AcDbEntity
  8
RACCORDO
100
AcDbLine
 62
7
  6
CONTINUOUS
 10
135.0571052632
 20
112.6613563685
 11
135.0571052632
 21
112.7344174028
  0
LINE
  5
3A2
100
AcDbEntity
  8
ASSI
100
AcDbLine
 62
7
  6
CONTINUOUS
 10
135.8279002632
 20
109.6245542632
 11
135.8279082632
 21
107.7121122632
  0
LINE
  5
3A3
100
AcDbEntity
  8
0
100
AcDbLine
 62
7
  6
CONTINUOUS
 10
126.5531262632
 20
68.4989292632
 11
126.6994292632
 21
68.9065852632
  0
LINE
  5
3A4
100
AcDbEntity
  8
0
100
AcDbLine
 62
7
  6
CONTINUOUS
 10
126.7578602632
 20
69.0741772632
 11
126.9841872632
 21
69.6956912632
  0
LINE
  5
3A5
100
AcDbEntity
  8
0
100
AcDbLine
 62
7
  6
CONTINUOUS
 10
126.8846862632
 20
69.8996802632
 11
126.3581312632
 21
68.4989292632
  0
LINE
  5
3A6
100
AcDbEntity
  8
DRAFT
100
AcDbLine
 62
7
  6
CONTINUOUS
 10
125.7322308921
 20
88.2121052632
 11
126.536614571
 21
88.2121052632
  0
LINE
  5
3A7
100
AcDbEntity
  8
DRAFT
100
AcDbLine
 62
7
  6
CONTINUOUS
 10
144.8275959553
 20
88.2121052632
 11
145.6319796342
 21
88.2121052632
  0
LINE
  5
3A8
100
AcDbEntity
  8
DRAFT
100
AcDbLine
 62
7
  6
CONTINUOUS
 10
128.2196994849
 20
88.4621052632
 11
129.024215207
 21
88.4621052632
  0
LINE
  5
3A9
100
AcDbEntity
  8
DRAFT
100
AcDbLine
 62
7
  6
CONTINUOUS
 10
142.3399953193
 20
88.4621052632
 11
143.1445110415
 21
88.4621052632
  0
LINE
  5
3AA
100
AcDbEntity
  8
ASSI
100
AcDbLine
 62
7
  6
CONTINUOUS
 10
144.9549842632
 20
69.8350832632
 11
145.1467812632
 21
69.4933642632
  0
LINE
  5
3AB
100
AcDbEntity
  8
RACCORDO
100
AcDbLine
 62
7
  6
CONTINUOUS
 10
136.3071052632
 20
112.7344174028
 11
136.3071052632
 21
112.6613563685
  0
LINE
  5
3AC
100
AcDbEntity
  8
RACCORDO
100
AcDbLine
 62
7
  6
CONTINUOUS
 10
136.3071052632
 20
111.8470202157
 11
136.3071052632
 21
111.5782122158
  0
LINE
  5
3AD
100
AcDbEntity
  8
RACCORDO
100
AcDbLine
 62
7
  6
CONTINUOUS
 10
136.3071052632
 20
65.7628541578
 11
136.3071052632
 21
65.6897931236
  0
LINE
  5
3AE
100
AcDbEntity
  8
RACCORDO
100
AcDbLine
 62
7
  6
CONTINUOUS
 10
136.3071052632
 20
66.5771903106
 11
136.3071052632
 21
66.8459983105
  0
LINE
  5
3AF
100
AcDbEntity
  8
ASSI
100
AcDbLine
 62
7
  6
CONTINUOUS
 10
136.4079292632
 20
107.7121122632
 11
136.4079292632
 21
110.6122432632
  0
LINE
  5
3B0
100
AcDbEntity
  8
DRAFT
100
AcDbLine
 62
7
  6
CONTINUOUS
 10
136.4321052632
 20
81.7496994849
 11
136.4321052632
 21
82.554215207
  0
LINE
  5
3B1
100
AcDbEntity
  8
DRAFT
100
AcDbLine
 62
7
  6
CONTINUOUS
 10
136.4321052632
 20
95.8699953193
 11
136.4321052632
 21
96.6745110415
  0
LINE
  5
3B2
100
AcDbEntity
  8
DRAFT
100
AcDbLine
 62
7
  6
CONTINUOUS
 10
136.6821052632
 20
79.2622308921
 11
136.6821052632
 21
80.066614571
  0
LINE
  5
3B3
100
AcDbEntity
  8
DRAFT
100
AcDbLine
 62
7
  6
CONTINUOUS
 10
136.6821052632
 20
98.3575959553
 11
136.6821052632
 21
99.1619796342
  0
LINE
  5
3B4
100
AcDbEntity
  8
DRAFT
100
AcDbLine
 62
7
  6
CONTINUOUS
 10
137.0036442941
 20
111.5782122158
 11
137.0036442941
 21
111.5621052632
  0
LINE
  5
3B5
100
AcDbEntity
  8
DRAFT
100
AcDbLine
 62
7
  6
CONTINUOUS
 10
137.0036442941
 20
66.8621052632
 11
137.0036442941
 21
66.8459983105
  0
LINE
  5
3B6
100
AcDbEntity
  8
RACCORDO
100
AcDbLine
 62
7
  6
CONTINUOUS
 10
137.2218450086
 20
112.6261960002
 11
137.2218450207
 21
112.0227067484
  0
LINE
  5
3B7
100
AcDbEntity
  8
RACCORDO
100
AcDbLine
 62
7
  6
CONTINUOUS
 10
137.2218450251
 20
66.4015038761
 11
137.2218450086
 21
65.7980145261
  0
LINE
  5
3B8
100
AcDbEntity
  8
RACCORDO
100
AcDbLine
 62
7
  6
CONTINUOUS
 10
137.2763951872
 20
113.7136236529
 11
137.2763951906
 21
112.9100635169
  0
LINE
  5
3B9
100
AcDbEntity
  8
RACCORDO
100
AcDbLine
 62
7
  6
CONTINUOUS
 10
137.2763951916
 20
65.5141470329
 11
137.2763951872
 21
64.7105868734
  0
LWPOLYLINE
  5
3BA
100
AcDbEntity
  8
RACCORDO
100
AcDbPolyline
 62
7
  6
CONTINUOUS
 90
16
 70
0
 10
137.2218450251
 20
66.4015038761
 10
137.2221031877
 20
66.421180249
 10
137.2229472589
 20
66.4405402488
 10
137.2243772387
 20
66.4595838754
 10
137.2264187503
 20
66.4785956288
 10
137.2290461704
 20
66.4972910089
 10
137.2321826297
 20
66.5148165159
 10
137.2358186733
 20
66.5310133782
 10
137.2399637561
 20
66.5460403673
 10
137.2445693731
 20
66.559520298
 10
137.249689297
 20
66.5715215062
 10
137.2552697552
 20
66.5819756561
 10
137.2611009253
 20
66.5903005549
 10
137.2671128666
 20
66.5963021383
 10
137.2733755197
 20
66.6001744706
 10
137.2798888849
 20
66.6019175518
  0
LWPOLYLINE
  5
3BB
100
AcDbEntity
  8
RACCORDO
100
AcDbPolyline
 62
7
  6
CONTINUOUS
 90
16
 70
0
 10
137.2763951916
 20
65.5141470329
 10
137.2766589384
 20
65.5340876361
 10
137.2774975844
 20
65.5536609071
 10
137.2789111298
 20
65.5728668459
 10
137.2809287042
 20
65.5919896409
 10
137.2835211779
 20
65.6107451036
 10
137.2866011615
 20
65.6282806688
 10
137.2901572297
 20
65.6444269176
 10
137.2942008078
 20
65.6593532688
 10
137.2986787829
 20
65.6727154143
 10
137.3036441241
 20
65.6845818156
 10
137.3090438622
 20
65.6948840112
 10
137.314665976
 20
65.7030723083
 10
137.3204397916
 20
65.7089634759
 10
137.3264359828
 20
65.7127407451
 10
137.3326545497
 20
65.7144041158
  0
LINE
  5
3BC
100
AcDbEntity
  8
DRAFT
100
AcDbLine
 62
7
  6
CONTINUOUS
 10
143.1445110415
 20
89.9621052632
 11
142.3399953193
 21
89.9621052632
  0
LINE
  5
3BD
100
AcDbEntity
  8
DRAFT
100
AcDbLine
 62
7
  6
CONTINUOUS
 10
129.024215207
 20
89.9621052632
 11
128.2196994849
 21
89.9621052632
  0
LWPOLYLINE
  5
3BE
100
AcDbEntity
  8
0
100
AcDbPolyline
 62
7
  6
CONTINUOUS
 90
2
 70
0
 43
0.3500000006
 10
157.4320973511
 20
90.1049623718
 10
155.932105957
 20
90.1049623718
  0
LINE
  5
3BF
100
AcDbEntity
  8
DRAFT
100
AcDbLine
 62
7
  6
CONTINUOUS
 10
145.6319796342
 20
90.2121052632
 11
144.8275959553
 21
90.2121052632
  0
LINE
  5
3C0
100
AcDbEntity
  8
DRAFT
100
AcDbLine
 62
7
  6
CONTINUOUS
 10
126.536614571
 20
90.2121052632
 11
125.7322308921
 21
90.2121052632
  0
LWPOLYLINE
  5
3C1
100
AcDbEntity
  8
RACCORDO
100
AcDbPolyline
 62
253
  6
CONTINUOUS
 90
4
 70
0
 10
144.8668811697
 20
65.7453907555
 10
144.8752904284
 20
65.720621651
 10
144.8803942354
 20
65.6949669884
 10
144.8821052632
 20
65.6688657259
  0
LINE
  5
3C2
100
AcDbEntity
  8
ASSI
100
AcDbLine
 62
7
  6
CONTINUOUS
 10
129.5821052632
 20
110.6122432632
 11
130.5132372632
 21
107.7121052632
  0
LINE
  5
3C3
100
AcDbEntity
  8
ASSI
100
AcDbLine
 62
7
  6
CONTINUOUS
 10
130.8032662632
 20
108.6153462632
 11
130.1621342632
 21
110.6122432632
  0
LINE
  5
3C4
100
AcDbEntity
  8
ASSI
100
AcDbLine
 62
7
  6
CONTINUOUS
 10
138.7996612632
 20
70.8371052632
 11
138.7996612632
 21
71.5871052632
  0
LINE
  5
3C5
100
AcDbEntity
  8
ASSI
100
AcDbLine
 62
7
  6
CONTINUOUS
 10
139.1996612632
 20
68.6640681333
 11
139.1996612632
 21
69.4148886385
  0
LINE
  5
3C6
100
AcDbEntity
  8
ASSI
100
AcDbLine
 62
7
  6
CONTINUOUS
 10
139.1996612632
 20
73.0093252632
 11
139.1996612632
 21
73.7601420585
  0
LINE
  5
3C7
100
AcDbEntity
  8
ASSI
100
AcDbLine
 62
7
  6
CONTINUOUS
 10
139.6236022632
 20
110.6122502632
 11
139.6236022632
 21
107.7121202632
  0
LINE
  5
3C8
100
AcDbEntity
  8
ASSI
100
AcDbLine
 62
7
  6
CONTINUOUS
 10
134.1511422632
 20
109.6245542632
 11
134.6995182632
 21
107.7121122632
  0
LINE
  5
3C9
100
AcDbEntity
  8
RACCORDO
100
AcDbLine
 62
253
  6
CONTINUOUS
 10
142.3803942354
 20
66.5380259897
 11
142.3821052632
 21
66.5119247272
  0
LINE
  5
3CA
100
AcDbEntity
  8
ASSI
100
AcDbLine
 62
7
  6
CONTINUOUS
 10
140.1956342632
 20
109.3699992632
 11
140.1956272632
 21
110.0757282632
  0
LINE
  5
3CB
100
AcDbEntity
  8
ASSI
100
AcDbLine
 62
7
  6
CONTINUOUS
 10
140.2036312632
 20
107.7121202632
 11
140.2036962632
 21
108.8334772632
  0
LWPOLYLINE
  5
3CC
100
AcDbEntity
  8
RACCORDO
100
AcDbPolyline
 62
253
  6
CONTINUOUS
 90
13
 70
0
 10
142.3821052632
 20
111.9122857991
 10
142.3803942354
 20
111.8861845366
 10
142.3752904284
 20
111.860529874
 10
142.3668811697
 20
111.8357607696
 10
142.3553103439
 20
111.8123010296
 10
142.3407759312
 20
111.7905520568
 10
142.3235266194
 20
111.770885982
 10
142.303857549
 20
111.7536392974
 10
142.2821052632
 20
111.7391070983
 10
142.2586419496
 20
111.7275380349
 10
142.2338690722
 20
111.7191300569
 10
142.2082105016
 20
111.7140270272
 10
142.1821052632
 20
111.7123162601
  0
LINE
  5
3CD
100
AcDbEntity
  8
0
100
AcDbLine
 62
7
  6
CONTINUOUS
 10
129.4745462632
 20
69.8996802632
 11
129.0727792632
 21
69.2270482632
  0
LINE
  5
3CE
100
AcDbEntity
  8
0
100
AcDbLine
 62
7
  6
CONTINUOUS
 10
129.1683512632
 20
69.0628532632
 11
129.6968322632
 21
69.8996802632
  0
LINE
  5
3CF
100
AcDbEntity
  8
ASSI
100
AcDbLine
 62
7
  6
CONTINUOUS
 10
134.9895252632
 20
108.7235742632
 11
134.4479572632
 21
110.6122432632
  0
LINE
  5
3D0
100
AcDbEntity
  8
RACCORDO
100
AcDbLine
 62
253
  6
CONTINUOUS
 10
142.1821052632
 20
111.7123162601
 11
142.1821052632
 21
111.5956672807
  0
LINE
  5
3D1
100
AcDbEntity
  8
RACCORDO
100
AcDbLine
 62
253
  6
CONTINUOUS
 10
142.1821052632
 20
66.7118942662
 11
142.1821052632
 21
66.8285432456
  0
LINE
  5
3D2
100
AcDbEntity
  8
RACCORDO
100
AcDbLine
 62
7
  6
CONTINUOUS
 10
142.3821052632
 20
112.512377196
 11
142.3821052632
 21
111.7956977463
  0
LINE
  5
3D3
100
AcDbEntity
  8
RACCORDO
100
AcDbLine
 62
7
  6
CONTINUOUS
 10
142.3821052632
 20
65.9118333304
 11
142.3821052632
 21
66.62851278
  0
LINE
  5
3D4
100
AcDbEntity
  8
RACCORDO
100
AcDbLine
 62
7
  6
CONTINUOUS
 10
143.1821052632
 20
65.9149634611
 11
143.1821052632
 21
66.8621052632
  0
LINE
  5
3D5
100
AcDbEntity
  8
RACCORDO
100
AcDbLine
 62
7
  6
CONTINUOUS
 10
143.1821052632
 20
111.5621052632
 11
143.1821052632
 21
112.5092470652
  0
LINE
  5
3D6
100
AcDbEntity
  8
ASSI
100
AcDbLine
 62
7
  6
CONTINUOUS
 10
143.5936752632
 20
69.7226532632
 11
143.5936752632
 21
69.3059882632
  0
LINE
  5
3D7
100
AcDbEntity
  8
ASSI
100
AcDbLine
 62
7
  6
CONTINUOUS
 10
143.6072822632
 20
73.1018082632
 11
143.6072822632
 21
72.6828512632
  0
LINE
  5
3D8
100
AcDbEntity
  8
ASSI
100
AcDbLine
 62
7
  6
CONTINUOUS
 10
143.9629302632
 20
72.6828512632
 11
143.9629302632
 21
71.6204922632
  0
LINE
  5
3D9
100
AcDbEntity
  8
ASSI
100
AcDbLine
 62
7
  6
CONTINUOUS
 10
143.9629302632
 20
71.1041362632
 11
143.9629302632
 21
69.7226532632
  0
LWPOLYLINE
  5
3DA
100
AcDbEntity
  8
RACCORDO
100
AcDbPolyline
 62
7
  6
CONTINUOUS
 90
22
 70
0
 10
144.8821052624
 20
112.5818731129
 10
144.8815520677
 20
112.5669835546
 10
144.8798941582
 20
112.5521846902
 10
144.8771425375
 20
112.5375582351
 10
144.8733149197
 20
112.5231869299
 10
144.8684338713
 20
112.509147375
 10
144.8625250098
 20
112.4955101757
 10
144.8556205134
 20
112.482349281
 10
144.8477591946
 20
112.4697383875
 10
144.8389827477
 20
112.4577446193
 10
144.8293352639
 20
112.4464300284
 10
144.8188730314
 20
112.4358622491
 10
144.8076649882
 20
112.4261092609
 10
144.7957887931
 20
112.4172323478
 10
144.7832990097
 20
112.409266362
 10
144.7702331307
 20
112.4022366772
 10
144.7567065585
 20
112.3962050166
 10
144.7427485943
 20
112.3911841171
 10
144.7282543521
 20
112.3871638001
 10
144.7132324128
 20
112.3842024271
 10
144.6978203338
 20
112.3823828755
 10
144.6821052632
 20
112.3817641646
  0
LWPOLYLINE
  5
3DB
100
AcDbEntity
  8
RACCORDO
100
AcDbPolyline
 62
253
  6
CONTINUOUS
 90
13
 70
0
 10
144.8821052632
 20
112.7553448004
 10
144.8803942354
 20
112.7292435379
 10
144.8752904284
 20
112.7035888753
 10
144.8668811697
 20
112.6788197708
 10
144.8553103439
 20
112.6553600309
 10
144.8407759312
 20
112.6336110581
 10
144.8235266194
 20
112.6139449833
 10
144.803857549
 20
112.5966982987
 10
144.7821052632
 20
112.5821660996
 10
144.7586419496
 20
112.5705970362
 10
144.7338690722
 20
112.5621890582
 10
144.7082105016
 20
112.5570860285
 10
144.6821052632
 20
112.5553752614
  0
LINE
  5
3DC
100
AcDbEntity
  8
DRAFT
100
AcDbLine
 62
7
  6
CONTINUOUS
 10
136.9003059777
 20
66.5771903106
 11
136.6821052632
 21
65.7628541578
  0
LINE
  5
3DD
100
AcDbEntity
  8
DRAFT
100
AcDbLine
 62
7
  6
CONTINUOUS
 10
136.9548561563
 20
65.6897931236
 11
136.6821052632
 21
64.6718729325
  0
LINE
  5
3DE
100
AcDbEntity
  8
RACCORDO
100
AcDbLine
 62
253
  6
CONTINUOUS
 10
122.3821052632
 20
64.6120748022
 11
123.0122940336
 21
65.2422635727
  0
LINE
  5
3DF
100
AcDbEntity
  8
RACCORDO
100
AcDbLine
 62
253
  6
CONTINUOUS
 10
122.5820748022
 20
64.4121052632
 11
123.2122635727
 21
65.0422940336
  0
LINE
  5
3E0
100
AcDbEntity
  8
RACCORDO
100
AcDbLine
 62
253
  6
CONTINUOUS
 10
122.3821052632
 20
113.8121357241
 11
123.0122940336
 21
113.1819469536
  0
LINE
  5
3E1
100
AcDbEntity
  8
RACCORDO
100
AcDbLine
 62
253
  6
CONTINUOUS
 10
122.5820748022
 20
114.0121052632
 11
123.2122635727
 21
113.3819164927
  0
LINE
  5
3E2
100
AcDbEntity
  8
DRAFT
100
AcDbLine
 62
7
  6
CONTINUOUS
 10
136.6821052632
 20
112.6613563685
 11
136.9003059777
 21
111.8470202157
  0
LINE
  5
3E3
100
AcDbEntity
  8
DRAFT
100
AcDbLine
 62
7
  6
CONTINUOUS
 10
136.6821052632
 20
113.7523375938
 11
136.9548561563
 21
112.7344174028
  0
LINE
  5
3E4
100
AcDbEntity
  8
RACCORDO
100
AcDbLine
 62
253
  6
CONTINUOUS
 10
148.1705149442
 20
62.8777906881
 11
148.2287548724
 21
62.2121052632
  0
LINE
  5
3E5
100
AcDbEntity
  8
RACCORDO
100
AcDbLine
 62
253
  6
CONTINUOUS
 10
148.3697538839
 20
63.0192120443
 11
148.4403665775
 21
62.2121052632
  0
LINE
  5
3E6
100
AcDbEntity
  8
RACCORDO
100
AcDbLine
 62
253
  6
CONTINUOUS
 10
144.8080627545
 20
115.1367423677
 11
144.8089543077
 21
115.0330328259
  0
LINE
  5
3E7
100
AcDbEntity
  8
RACCORDO
100
AcDbLine
 62
7
  6
CONTINUOUS
 10
144.2321052632
 20
115.2121052632
 11
144.2321052632
 21
114.2118314669
  0
LINE
  5
3E8
100
AcDbEntity
  8
RACCORDO
100
AcDbLine
 62
7
  6
CONTINUOUS
 10
144.2321052632
 20
64.2123790594
 11
144.2321052632
 21
63.2121052632
  0
LINE
  5
3E9
100
AcDbEntity
  8
ASSI
100
AcDbLine
 62
7
  6
CONTINUOUS
 10
144.4068092632
 20
69.7226532632
 11
144.4068092632
 21
71.1087962632
  0
LINE
  5
3EA
100
AcDbEntity
  8
ASSI
100
AcDbLine
 62
7
  6
CONTINUOUS
 10
144.4068092632
 20
71.6204922632
 11
144.4068092632
 21
72.6828512632
  0
LINE
  5
3EB
100
AcDbEntity
  8
DRAFT
100
AcDbLine
 62
7
  6
CONTINUOUS
 10
144.5033201201
 20
116.2121052632
 11
144.5033201201
 21
115.2121052632
  0
LINE
  5
3EC
100
AcDbEntity
  8
DRAFT
100
AcDbLine
 62
7
  6
CONTINUOUS
 10
144.5033201201
 20
63.2121052632
 11
144.5033201201
 21
62.2121052632
  0
LINE
  5
3ED
100
AcDbEntity
  8
RACCORDO
100
AcDbLine
 62
253
  6
CONTINUOUS
 10
144.6097193435
 20
115.0200066564
 11
144.6098315442
 21
114.8768108658
  0
LINE
  5
3EE
100
AcDbEntity
  8
RACCORDO
100
AcDbLine
 62
253
  6
CONTINUOUS
 10
144.609686329
 20
63.5918173767
 11
144.6098315442
 21
63.4434761131
  0
LINE
  5
3EF
100
AcDbEntity
  8
RACCORDO
100
AcDbLine
 62
253
  6
CONTINUOUS
 10
144.6821052632
 20
112.5553752614
 11
144.6821052632
 21
112.1817946256
  0
LINE
  5
3F0
100
AcDbEntity
  8
RACCORDO
100
AcDbLine
 62
253
  6
CONTINUOUS
 10
144.6821052632
 20
65.8688352649
 11
144.6821052632
 21
66.2424159007
  0
LINE
  5
3F1
100
AcDbEntity
  8
ASSI
100
AcDbLine
 62
7
  6
CONTINUOUS
 10
144.7623142632
 20
72.6828512632
 11
144.7623142632
 21
73.1018082632
  0
LINE
  5
3F2
100
AcDbEntity
  8
ASSI
100
AcDbLine
 62
7
  6
CONTINUOUS
 10
144.7759212632
 20
69.3059882632
 11
144.7759212632
 21
69.7226532632
  0
LINE
  5
3F3
100
AcDbEntity
  8
RACCORDO
100
AcDbLine
 62
253
  6
CONTINUOUS
 10
144.8089543077
 20
115.0330328259
 11
144.8090704838
 21
114.8768108658
  0
LINE
  5
3F4
100
AcDbEntity
  8
RACCORDO
100
AcDbLine
 62
253
  6
CONTINUOUS
 10
144.8089210118
 20
63.6064433113
 11
144.8090704838
 21
63.4434761131
  0
LINE
  5
3F5
100
AcDbEntity
  8
RACCORDO
100
AcDbLine
 62
7
  6
CONTINUOUS
 10
144.8821052632
 20
64.8687438635
 11
144.8821052632
 21
66.2121052632
  0
LINE
  5
3F6
100
AcDbEntity
  8
RACCORDO
100
AcDbLine
 62
7
  6
CONTINUOUS
 10
144.8821052632
 20
112.2121052632
 11
144.8821052632
 21
113.5554666628
  0
LINE
  5
3F7
100
AcDbEntity
  8
DRAFT
100
AcDbLine
 62
7
  6
CONTINUOUS
 10
145.6821052632
 20
113.3784864063
 11
145.6821052632
 21
112.2121052632
  0
LINE
  5
3F8
100
AcDbEntity
  8
DRAFT
100
AcDbLine
 62
7
  6
CONTINUOUS
 10
145.6821052632
 20
66.2121052632
 11
145.6821052632
 21
65.0457241201
  0
LINE
  5
3F9
100
AcDbEntity
  8
RACCORDO
100
AcDbLine
 62
7
  6
CONTINUOUS
 10
145.6821052632
 20
65.0457241201
 11
145.6821052632
 21
64.8711734708
  0
LINE
  5
3FA
100
AcDbEntity
  8
RACCORDO
100
AcDbLine
 62
7
  6
CONTINUOUS
 10
145.6821052632
 20
113.3784864063
 11
145.6821052632
 21
113.5530370555
  0
LWPOLYLINE
  5
3FB
100
AcDbEntity
  8
RACCORDO
100
AcDbPolyline
 62
253
  6
CONTINUOUS
 90
22
 70
0
 10
144.8090704838
 20
114.8768108658
 10
144.8089210118
 20
114.817767215
 10
144.8084930259
 20
114.7590409369
 10
144.8077865261
 20
114.7009525242
 10
144.8067947289
 20
114.6438203302
 10
144.8055244179
 20
114.5879551353
 10
144.8039959431
 20
114.5336587466
 10
144.8022051732
 20
114.481227914
 10
144.8001562395
 20
114.4309502911
 10
144.7978818867
 20
114.3830996743
 10
144.7953783643
 20
114.3379384775
 10
144.7926494228
 20
114.2957156925
 10
144.7897390576
 20
114.2566636858
 10
144.78664412
 20
114.2209974225
 10
144.7833677587
 20
114.1889147639
 10
144.7799634164
 20
114.1605945982
 10
144.7764290267
 20
114.1361934722
 10
144.7727666558
 20
114.1158471662
 10
144.7690359454
 20
114.099670071
 10
144.765256776
 20
114.0877519899
 10
144.7614092669
 20
114.0801586882
 10
144.7574934183
 20
114.0769327097
  0
LWPOLYLINE
  5
3FC
100
AcDbEntity
  8
RACCORDO
100
AcDbPolyline
 62
253
  6
CONTINUOUS
 90
13
 70
0
 10
144.6098315442
 20
63.4434761131
 10
144.6097192147
 20
63.4042033561
 10
144.6093856766
 20
63.3653391765
 10
144.6088309299
 20
63.3268835742
 10
144.6080508512
 20
63.2886468488
 10
144.607049564
 20
63.2508187007
 10
144.6058394377
 20
63.2139682315
 10
144.6044157498
 20
63.1781119131
 10
144.602783223
 20
63.1432332736
 10
144.600968395
 20
63.1098519984
 10
144.5989801119
 20
63.0781413161
 10
144.5968095277
 20
63.047927998
 10
144.5944566424
 20
63.0192120443
  0
LWPOLYLINE
  5
3FD
100
AcDbEntity
  8
RACCORDO
100
AcDbPolyline
 62
253
  6
CONTINUOUS
 90
22
 70
0
 10
144.6098315442
 20
114.8768108658
 10
144.609686329
 20
114.8323931496
 10
144.6092618928
 20
114.7886091925
 10
144.6085582356
 20
114.7454589945
 10
144.6075687022
 20
114.702690728
 10
144.6062999477
 20
114.6605562207
 10
144.6047719377
 20
114.6198109556
 10
144.602980519
 20
114.5804996096
 10
144.6009298447
 20
114.5425775059
 10
144.5986523394
 20
114.5066660972
 10
144.5961437619
 20
114.4727942102
 10
144.5934083534
 20
114.4409330182
 10
144.5904912616
 20
114.4116174936
 10
144.5873895355
 20
114.3848937857
 10
144.5841061262
 20
114.3607157452
 10
144.5806950351
 20
114.3394798955
 10
144.5771520666
 20
114.3212347669
 10
144.5734814164
 20
114.3059318291
 10
144.5697496736
 20
114.2938220151
 10
144.5659790345
 20
114.2849889692
 10
144.5621473029
 20
114.2793490471
 10
144.5582544787
 20
114.2769022487
  0
LWPOLYLINE
  5
3FE
100
AcDbEntity
  8
RACCORDO
100
AcDbPolyline
 62
253
  6
CONTINUOUS
 90
12
 70
0
 10
144.8090704838
 20
63.4434761131
 10
144.8086183567
 20
63.3391009767
 10
144.8080627151
 20
63.2874684221
 10
144.8072831913
 20
63.2365025063
 10
144.8062839488
 20
63.1864200495
 10
144.8050774779
 20
63.137431676
 10
144.8036611366
 20
63.0897471425
 10
144.8020375669
 20
63.0435715505
 10
144.800227185
 20
62.9991008811
 10
144.7982367962
 20
62.9565258686
 10
144.7960595953
 20
62.916030877
 10
144.7936955821
 20
62.8777906881
  0
LWPOLYLINE
  5
3FF
100
AcDbEntity
  8
RACCORDO
100
AcDbPolyline
 62
253
  6
CONTINUOUS
 90
13
 70
0
 10
148.3697538839
 20
115.404998482
 10
148.3674634244
 20
115.3773873486
 10
148.3653278889
 20
115.3477701929
 10
148.3633472775
 20
115.3161470149
 10
148.3614989497
 20
115.2821464477
 10
148.3598055459
 20
115.2461398581
 10
148.3583349875
 20
115.2092413468
 10
148.3571079986
 20
115.1714746404
 10
148.3561038551
 20
115.1328160122
 10
148.3553283068
 20
115.0943083834
 10
148.3547832701
 20
115.0562993941
 10
148.3544668285
 20
115.018441404
 10
148.3543789821
 20
114.9807344133
  0
LINE
  5
400
100
AcDbEntity
  8
RACCORDO
100
AcDbLine
 62
253
  6
CONTINUOUS
 10
148.2287548724
 20
116.2121052632
 11
148.1705149442
 21
115.5464198382
  0
LINE
  5
401
100
AcDbEntity
  8
RACCORDO
100
AcDbLine
 62
253
  6
CONTINUOUS
 10
148.4403665775
 20
116.2121052632
 11
148.3697538839
 21
115.404998482
  0
LINE
  5
402
100
AcDbEntity
  8
ASSI
100
AcDbLine
 62
7
  6
CONTINUOUS
 10
138.4737882632
 20
108.2824482632
 11
138.6568942632
 21
107.7121202632
  0
LINE
  5
403
100
AcDbEntity
  8
ASSI
100
AcDbLine
 62
7
  6
CONTINUOUS
 10
138.0157552632
 20
109.7090092632
 11
138.2968592632
 21
108.8334702632
  0
LINE
  5
404
100
AcDbEntity
  8
ASSI
100
AcDbLine
 62
7
  6
CONTINUOUS
 10
139.2369232632
 20
107.7121122632
 11
138.3057842632
 21
110.6122502632
  0
LINE
  5
405
100
AcDbEntity
  8
RACCORDO
100
AcDbLine
 62
253
  6
CONTINUOUS
 10
144.5238439488
 20
116.2121052632
 11
144.5944566424
 21
115.404998482
  0
LINE
  5
406
100
AcDbEntity
  8
RACCORDO
100
AcDbLine
 62
253
  6
CONTINUOUS
 10
144.7354556539
 20
116.2121052632
 11
144.7936955821
 21
115.5464198382
  0
LWPOLYLINE
  5
407
100
AcDbEntity
  8
RACCORDO
100
AcDbPolyline
 62
253
  6
CONTINUOUS
 90
12
 70
0
 10
144.5944566424
 20
115.404998482
 10
144.5968094576
 20
115.3762813125
 10
144.5989798809
 20
115.3460705462
 10
144.6009679122
 20
115.3143661829
 10
144.6027822577
 20
115.2809992819
 10
144.6044142113
 20
115.2461387839
 10
144.6058376546
 20
115.2102915116
 10
144.6070481712
 20
115.1734325111
 10
144.6080501776
 20
115.1355867362
 10
144.608830805
 20
115.0973358706
 10
144.6093857637
 20
115.0588738089
 10
144.6097193435
 20
115.0200066564
  0
LWPOLYLINE
  5
408
100
AcDbEntity
  8
RACCORDO
100
AcDbPolyline
 62
253
  6
CONTINUOUS
 90
13
 70
0
 10
148.4059560476
 20
64.1473082776
 10
148.4042155233
 20
64.1733828091
 10
148.3991026183
 20
64.1990124286
 10
148.3907045147
 20
64.2237594734
 10
148.3791644959
 20
64.2472013307
 10
148.3646795122
 20
64.2689376375
 10
148.3474968294
 20
64.2885971248
 10
148.327909764
 20
64.3058440068
 10
148.3062527582
 20
64.320383633
 10
148.2828957137
 20
64.3319675522
 10
148.2582375336
 20
64.3403978565
 10
148.2326992834
 20
64.3455305212
 10
148.2067171079
 20
64.3472778166
  0
LWPOLYLINE
  5
409
100
AcDbEntity
  8
RACCORDO
100
AcDbPolyline
 62
253
  6
CONTINUOUS
 90
10
 70
0
 10
144.7936955821
 20
115.5464198382
 10
144.7960595509
 20
115.5081798085
 10
144.7982367214
 20
115.4676849372
 10
144.8002270938
 20
115.425109996
 10
144.8020374759
 20
115.3806393103
 10
144.8036610597
 20
115.3344636347
 10
144.8050774218
 20
115.2867790392
 10
144.8062839251
 20
115.2377906826
 10
144.8072832066
 20
115.1877082725
 10
144.8080627545
 20
115.1367423677
  0
LWPOLYLINE
  5
40A
100
AcDbEntity
  8
RACCORDO
100
AcDbPolyline
 62
253
  6
CONTINUOUS
 90
9
 70
0
 10
148.1568338027
 20
63.2425130044
 10
148.1578273249
 20
63.1911788703
 10
148.1590422313
 20
63.1408045408
 10
148.1604933108
 20
63.0916602784
 10
148.1621657746
 20
63.0439519047
 10
148.1640092109
 20
62.9985240077
 10
148.1660068161
 20
62.9557153415
 10
148.1681753938
 20
62.9154365821
 10
148.1705149442
 20
62.8777906881
  0
LWPOLYLINE
  5
40B
100
AcDbEntity
  8
RACCORDO
100
AcDbPolyline
 62
253
  6
CONTINUOUS
 90
12
 70
0
 10
148.3544560161
 20
63.4065888511
 10
148.3547625527
 20
63.3693178538
 10
148.3552985919
 20
63.3316631212
 10
148.3560665496
 20
63.2931905607
 10
148.3570640098
 20
63.2543342649
 10
148.3582837254
 20
63.2163965112
 10
148.3597418359
 20
63.1794947953
 10
148.3614222017
 20
63.1435116216
 10
148.3632691561
 20
63.1093967806
 10
148.3652641434
 20
63.0774668691
 10
148.3674257194
 20
63.0474052904
 10
148.3697538839
 20
63.0192120443
  0
LWPOLYLINE
  5
40C
100
AcDbEntity
  8
RACCORDO
100
AcDbPolyline
 62
253
  6
CONTINUOUS
 90
3
 70
0
 10
148.1552218362
 20
63.3943194926
 10
148.1555310583
 20
63.3443380274
 10
148.1568338027
 20
63.2425130044
  0
LINE
  5
40D
100
AcDbEntity
  8
RACCORDO
100
AcDbLine
 62
253
  6
CONTINUOUS
 10
148.1519469536
 20
113.3784864063
 11
148.1519469536
 21
65.0457241201
  0
LINE
  5
40E
100
AcDbEntity
  8
RACCORDO
100
AcDbLine
 62
253
  6
CONTINUOUS
 10
148.1551400425
 20
63.5473996605
 11
148.1552218362
 21
63.3943194926
  0
LWPOLYLINE
  5
40F
100
AcDbEntity
  8
RACCORDO
100
AcDbPolyline
 62
253
  6
CONTINUOUS
 90
13
 70
0
 10
148.1705149442
 20
115.5464198382
 10
148.1682101441
 20
115.5094312412
 10
148.1660661782
 20
115.4697246866
 10
148.1640830466
 20
115.4273727882
 10
148.1622409738
 20
115.38221107
 10
148.1605597353
 20
115.3345979574
 10
148.1590986574
 20
115.2855110854
 10
148.1578750774
 20
115.2352724436
 10
148.1568716581
 20
115.1840362012
 10
148.1560957135
 20
115.1326533819
 10
148.1555496817
 20
115.0815876328
 10
148.1552311247
 20
115.0308747548
 10
148.1551400425
 20
114.8768108658
  0
LWPOLYLINE
  5
410
100
AcDbEntity
  8
RACCORDO
100
AcDbPolyline
 62
253
  6
CONTINUOUS
 90
13
 70
0
 10
148.4059560476
 20
114.2769022487
 10
148.4042153068
 20
114.2508260871
 10
148.3991018491
 20
114.2251952333
 10
148.3907029982
 20
114.2004473907
 10
148.3791621829
 20
114.1770051832
 10
148.3646764881
 20
114.1552689382
 10
148.3474932888
 20
114.1356098498
 10
148.3279060261
 20
114.1183636404
 10
148.3062491955
 20
114.1038248269
 10
148.2828926352
 20
114.0922416918
 10
148.2582352099
 20
114.0838120424
 10
148.2326979995
 20
114.0786798338
 10
148.206717108
 20
114.0769327097
  0
LINE
  5
411
100
AcDbEntity
  8
RACCORDO
100
AcDbLine
 62
253
  6
CONTINUOUS
 10
144.5944566424
 20
63.0192120443
 11
144.5238439488
 21
62.2121052632
  0
LINE
  5
412
100
AcDbEntity
  8
RACCORDO
100
AcDbLine
 62
253
  6
CONTINUOUS
 10
144.7936955821
 20
62.8777906881
 11
144.7354556539
 21
62.2121052632
  0
LWPOLYLINE
  5
413
100
AcDbEntity
  8
RACCORDO
100
AcDbPolyline
 62
253
  6
CONTINUOUS
 90
21
 70
0
 10
148.3545236701
 20
114.8324196362
 10
148.3549477793
 20
114.7886516088
 10
148.3556513095
 20
114.7455067836
 10
148.356640805
 20
114.7027310293
 10
148.3579097215
 20
114.6605784772
 10
148.3594384268
 20
114.619811521
 10
148.3612315385
 20
114.5804721499
 10
148.363284439
 20
114.5425183746
 10
148.3655636423
 20
114.5065866211
 10
148.3680730631
 20
114.4727133734
 10
148.3708087868
 20
114.4408621474
 10
148.3737255841
 20
114.4115599165
 10
148.3768262285
 20
114.384852485
 10
148.3801079465
 20
114.3606940486
 10
148.3835171878
 20
114.3394741682
 10
148.3870578606
 20
114.3212390466
 10
148.3907260568
 20
114.3059424809
 10
148.394456501
 20
114.2938354231
 10
148.3982274351
 20
114.2850015238
 10
148.4020606173
 20
114.2793571323
 10
148.4059560476
 20
114.2769022487
  0
LWPOLYLINE
  5
414
100
AcDbEntity
  8
RACCORDO
100
AcDbPolyline
 62
253
  6
CONTINUOUS
 90
22
 70
0
 10
148.1551400425
 20
114.8768108658
 10
148.1552894978
 20
114.8177670862
 10
148.1557174622
 20
114.7590406924
 10
148.1564239357
 20
114.7009521788
 10
148.1574156774
 20
114.6438199217
 10
148.1586859281
 20
114.5879546796
 10
148.160214411
 20
114.5336581977
 10
148.1620053187
 20
114.4812271881
 10
148.1640544585
 20
114.4309493613
 10
148.1663289757
 20
114.3830985903
 10
148.1688325804
 20
114.3379373171
 10
148.1715615625
 20
114.2957144998
 10
148.1744719369
 20
114.2566624828
 10
148.1775668477
 20
114.2209961935
 10
148.1808431508
 20
114.1889135433
 10
148.1842474283
 20
114.160593501
 10
148.1877817486
 20
114.1361926174
 10
148.1914440434
 20
114.1158465844
 10
148.1951746891
 20
114.0996697246
 10
148.1989538112
 20
114.0877518212
 10
148.2028012841
 20
114.0801586391
 10
148.206717108
 20
114.0769327097
  0
LINE
  5
415
100
AcDbEntity
  8
RACCORDO
100
AcDbLine
 62
253
  6
CONTINUOUS
 10
148.3519164927
 20
113.1819469536
 11
148.3519164927
 21
65.2422635727
  0
LINE
  5
416
100
AcDbEntity
  8
RACCORDO
100
AcDbLine
 62
253
  6
CONTINUOUS
 10
148.3543789821
 20
114.9807344133
 11
148.3545236701
 21
114.8324196362
  0
LINE
  5
417
100
AcDbEntity
  8
RACCORDO
100
AcDbLine
 62
253
  6
CONTINUOUS
 10
148.3543789821
 20
63.5473996605
 11
148.3544560161
 21
63.4065888511
  0
LINE
  5
418
100
AcDbEntity
  8
DRAFT
100
AcDbLine
 62
7
  6
CONTINUOUS
 10
148.4608904062
 20
116.2121052632
 11
148.4608904062
 21
115.2121052632
  0
LINE
  5
419
100
AcDbEntity
  8
DRAFT
100
AcDbLine
 62
7
  6
CONTINUOUS
 10
148.4608904062
 20
63.2121052632
 11
148.4608904062
 21
62.2121052632
  0
LINE
  5
41A
100
AcDbEntity
  8
RACCORDO
100
AcDbLine
 62
7
  6
CONTINUOUS
 10
148.7321052632
 20
115.2121052632
 11
148.7321052632
 21
114.2118314669
  0
LINE
  5
41B
100
AcDbEntity
  8
RACCORDO
100
AcDbLine
 62
7
  6
CONTINUOUS
 10
148.7321052632
 20
64.2123790594
 11
148.7321052632
 21
63.2121052632
  0
LINE
  5
41C
100
AcDbEntity
  8
RACCORDO
100
AcDbLine
 62
7
  6
CONTINUOUS
 10
148.9821052632
 20
64.6120748022
 11
148.9821052632
 21
113.8121357241
  0
LINE
  5
41D
100
AcDbEntity
  8
RACCORDO
100
AcDbLine
 62
7
  6
CONTINUOUS
 10
150.1821052632
 20
114.7121814156
 11
150.1821052632
 21
63.7120291107
  0
LWPOLYLINE
  5
41E
100
AcDbEntity
  8
RACCORDO
100
AcDbPolyline
 62
7
  6
CONTINUOUS
 90
19
 70
0
 10
148.3519164927
 20
65.2422635727
 10
148.3511582954
 20
65.2282775201
 10
148.3493467098
 20
65.2140795465
 10
148.3464277817
 20
65.1997526727
 10
148.3423520543
 20
65.1853917839
 10
148.3370800322
 20
65.1710933296
 10
148.3305822179
 20
65.1569553832
 10
148.3228488081
 20
65.1431190998
 10
148.3138553352
 20
65.1296794945
 10
148.3035463341
 20
65.1166882983
 10
148.2919322044
 20
65.1043131254
 10
148.2790091244
 20
65.092689638
 10
148.2646764519
 20
65.0818766096
 10
148.2490272974
 20
65.0721215322
 10
148.2320493538
 20
65.0635814806
 10
148.2134418404
 20
65.0563278635
 10
148.1931513607
 20
65.0506662141
 10
148.1714402117
 20
65.0470126056
 10
148.1485168672
 20
65.0457241201
  0
LWPOLYLINE
  5
41F
100
AcDbEntity
  8
RACCORDO
100
AcDbPolyline
 62
7
  6
CONTINUOUS
 90
25
 70
0
 10
135.0571052632
 20
66.5771903106
 10
135.101119519
 20
66.6278873043
 10
135.1474067619
 20
66.6739422156
 10
135.1959669917
 20
66.7153550446
 10
135.2473111012
 20
66.752137094
 10
135.3009281977
 20
66.7842770611
 10
135.3552856032
 20
66.8117410375
 10
135.4101405031
 20
66.834358878
 10
135.465735712
 20
66.8523007279
 10
135.5212669961
 20
66.866043115
 10
135.5765159644
 20
66.8756328822
 10
135.6317010078
 20
66.8810231867
 10
135.6866730651
 20
66.8825500272
 10
135.7413292766
 20
66.8803964373
 10
135.795772502
 20
66.8743793835
 10
135.8501622593
 20
66.8642857643
 10
135.9047765152
 20
66.8501999642
 10
135.959337303
 20
66.8320375988
 10
136.0131702415
 20
66.809332414
 10
136.0665108705
 20
66.7819134095
 10
136.1191236501
 20
66.7499515856
 10
136.1696275793
 20
66.7134936891
 10
136.2175623243
 20
66.6725553022
 10
136.263388219
 20
66.6271208427
 10
136.3071052632
 20
66.5771903106
  0
LWPOLYLINE
  5
420
100
AcDbEntity
  8
RACCORDO
100
AcDbPolyline
 62
253
  6
CONTINUOUS
 90
22
 70
0
 10
126.606717108
 20
64.3472778166
 10
126.6028012841
 20
64.3440518872
 10
126.5989538112
 20
64.3364587051
 10
126.5951746891
 20
64.3245408017
 10
126.5914440434
 20
64.3083639419
 10
126.5877817486
 20
64.288017909
 10
126.5842474282
 20
64.2636170254
 10
126.5808431508
 20
64.2352969831
 10
126.5775668477
 20
64.2032143328
 10
126.5744719369
 20
64.1675480435
 10
126.5715615625
 20
64.1284960266
 10
126.5688325804
 20
64.0862732092
 10
126.5663289757
 20
64.041111936
 10
126.5640544585
 20
63.993261165
 10
126.5620053187
 20
63.9429833382
 10
126.560214411
 20
63.8905523286
 10
126.5586859281
 20
63.8362558467
 10
126.5574156774
 20
63.7803906046
 10
126.5564239358
 20
63.7232583475
 10
126.5557174622
 20
63.6651698339
 10
126.5552894978
 20
63.6064434402
 10
126.5552311163
 20
63.3933357714
  0
LWPOLYLINE
  5
421
100
AcDbEntity
  8
RACCORDO
100
AcDbPolyline
 62
7
  6
CONTINUOUS
 90
22
 70
0
 10
135.0571052632
 20
111.5782122158
 10
135.1026292647
 20
111.526279521
 10
135.1516139823
 20
111.4789945085
 10
135.2040594159
 20
111.4363571782
 10
135.2603956599
 20
111.3981253895
 10
135.3201926199
 20
111.364541283
 10
135.3821600126
 20
111.3363312808
 10
135.4463478411
 20
111.3136128103
 10
135.5127061023
 20
111.296268444
 10
135.5797945036
 20
111.2846723224
 10
135.6476281906
 20
111.2789521984
 10
135.7161920178
 20
111.278980319
 10
135.7840002558
 20
111.284747565
 10
135.8510273734
 20
111.2963755196
 10
135.9172989017
 20
111.3137425997
 10
135.9814057055
 20
111.3364749364
 10
136.0432730277
 20
111.3646915883
 10
136.1029756254
 20
111.3982734968
 10
136.1593286343
 20
111.4364896182
 10
136.2119370994
 20
111.4790962712
 10
136.2611959757
 20
111.5263371371
 10
136.3071052632
 20
111.5782122158
  0
LINE
  5
422
100
AcDbEntity
  8
ASSI
100
AcDbLine
 62
7
  6
CONTINUOUS
 10
140.7099272632
 20
108.8334702632
 11
141.2911812632
 21
107.7121202632
  0
LINE
  5
423
100
AcDbEntity
  8
ASSI
100
AcDbLine
 62
7
  6
CONTINUOUS
 10
141.9444862632
 20
107.7121272632
 11
141.3270819998
 21
108.9032247005
  0
LINE
  5
424
100
AcDbEntity
  8
ASSI
100
AcDbLine
 62
7
  6
CONTINUOUS
 10
143.2174294395
 20
69.4933645773
 11
143.4092261996
 21
69.8350831499
  0
LWPOLYLINE
  5
425
100
AcDbEntity
  8
RACCORDO
100
AcDbPolyline
 62
7
  6
CONTINUOUS
 90
25
 70
0
 10
135.0571052632
 20
65.6897931236
 10
135.101119519
 20
65.7404901172
 10
135.1474067619
 20
65.7865450286
 10
135.1959669917
 20
65.8279578576
 10
135.2473111012
 20
65.864739907
 10
135.3009281977
 20
65.896879874
 10
135.3552856032
 20
65.9243438505
 10
135.4101405031
 20
65.9469616909
 10
135.465735712
 20
65.9649035408
 10
135.5212669961
 20
65.9786459279
 10
135.5765159644
 20
65.9882356952
 10
135.6317010078
 20
65.9936259996
 10
135.6866730651
 20
65.9951528401
 10
135.7413292766
 20
65.9929992502
 10
135.795772502
 20
65.9869821964
 10
135.8501622594
 20
65.9768885773
 10
135.9047765152
 20
65.9628027771
 10
135.959337303
 20
65.9446404117
 10
136.0131702415
 20
65.9219352269
 10
136.0665108705
 20
65.8945162224
 10
136.1191236501
 20
65.8625543985
 10
136.1696275793
 20
65.826096502
 10
136.2175623243
 20
65.7851581151
 10
136.263388219
 20
65.7397236556
 10
136.3071052632
 20
65.6897931236
  0
LWPOLYLINE
  5
426
100
AcDbEntity
  8
RACCORDO
100
AcDbPolyline
 62
253
  6
CONTINUOUS
 90
22
 70
0
 10
126.8059560476
 20
64.1473082776
 10
126.8020606173
 20
64.1448533937
 10
126.7982274351
 20
64.1392090021
 10
126.794456501
 20
64.1303751028
 10
126.7907260568
 20
64.1182680451
 10
126.7870578606
 20
64.1029714797
 10
126.7835171878
 20
64.0847363583
 10
126.7801079465
 20
64.0635164778
 10
126.7768262285
 20
64.0393580413
 10
126.7737255841
 20
64.0126506098
 10
126.7708087868
 20
63.9833483789
 10
126.7680730631
 20
63.9514971529
 10
126.7655636423
 20
63.9176239053
 10
126.763284439
 20
63.8816921517
 10
126.7612315385
 20
63.8437383765
 10
126.7594384267
 20
63.8043990054
 10
126.7579097215
 20
63.7636320491
 10
126.756640805
 20
63.7214794969
 10
126.7556513095
 20
63.6787037426
 10
126.7549477793
 20
63.6355589174
 10
126.7545236702
 20
63.59179089
 10
126.7543789821
 20
63.5473996605
  0
LWPOLYLINE
  5
427
100
AcDbEntity
  8
RACCORDO
100
AcDbPolyline
 62
253
  6
CONTINUOUS
 90
7
 70
0
 10
126.4821052632
 20
66.188817899
 10
126.5133382476
 20
66.2050261175
 10
126.5454113716
 20
66.2183242487
 10
126.5783246351
 20
66.2287122926
 10
126.6120780382
 20
66.2361902493
 10
126.6466715809
 20
66.2407581186
 10
126.6821052632
 20
66.2424159007
  0
LWPOLYLINE
  5
428
100
AcDbEntity
  8
RACCORDO
100
AcDbPolyline
 62
7
  6
CONTINUOUS
 90
25
 70
0
 10
135.0571052632
 20
112.6613563685
 10
135.1011036754
 20
112.6111341417
 10
135.1472322353
 20
112.5654628452
 10
135.1954909428
 20
112.5243424791
 10
135.2463239918
 20
112.4877633699
 10
135.2992871885
 20
112.4557351911
 10
135.3530479512
 20
112.4282869629
 10
135.4074675623
 20
112.4055710785
 10
135.4626847394
 20
112.3874351448
 10
135.5177830541
 20
112.3734510023
 10
135.5724368804
 20
112.3635881388
 10
135.6269718444
 20
112.3578770666
 10
135.6814483949
 20
112.355981163
 10
135.7357829216
 20
112.3576679965
 10
135.7900590348
 20
112.3631699987
 10
135.8445880156
 20
112.3728478414
 10
135.8998052578
 20
112.3866643575
 10
135.9552753674
 20
112.4046567142
 10
136.010003444
 20
112.4272970837
 10
136.0641650444
 20
112.4547552848
 10
136.1175846118
 20
112.4868614988
 10
136.1687405744
 20
112.5235784425
 10
136.217125742
 20
112.5648936881
 10
136.2632473049
 20
112.6108196635
 10
136.3071052632
 20
112.6613563685
  0
LWPOLYLINE
  5
429
100
AcDbEntity
  8
RACCORDO
100
AcDbPolyline
 62
253
  6
CONTINUOUS
 90
13
 70
0
 10
148.3697538839
 20
63.0192120443
 10
148.3666373471
 20
63.0014398527
 10
148.360423071
 20
62.9839483716
 10
148.3512092095
 20
62.9670138777
 10
148.339141295
 20
62.9509038502
 10
148.3244099393
 20
62.9358727457
 10
148.3072478232
 20
62.9221579794
 10
148.2879260208
 20
62.9099761752
 10
148.2667497189
 20
62.8995197438
 10
148.2440533955
 20
62.8909538437
 10
148.2201955374
 20
62.8844137726
 10
148.1955529778
 20
62.8800028306
 10
148.1705149442
 20
62.8777906881
  0
LINE
  5
42A
100
AcDbEntity
  8
ASSI
100
AcDbLine
 62
7
  6
CONTINUOUS
 10
141.2911812632
 20
107.7121202632
 11
141.9444862632
 21
107.7121272632
  0
LINE
  5
42B
100
AcDbEntity
  8
ASSI
100
AcDbLine
 62
7
  6
CONTINUOUS
 10
136.7946082632
 20
107.7121122632
 11
137.3746302632
 21
107.7121202632
  0
LINE
  5
42C
100
AcDbEntity
  8
ASSI
100
AcDbLine
 62
7
  6
CONTINUOUS
 10
133.5711202632
 20
107.7121122632
 11
134.1511422632
 21
107.7121122632
  0
LINE
  5
42D
100
AcDbEntity
  8
ASSI
100
AcDbLine
 62
7
  6
CONTINUOUS
 10
135.8279082632
 20
107.7121122632
 11
136.4079292632
 21
107.7121122632
  0
LINE
  5
42E
100
AcDbEntity
  8
ASSI
100
AcDbLine
 62
7
  6
CONTINUOUS
 10
139.6236022632
 20
107.7121202632
 11
140.2036312632
 21
107.7121202632
  0
LINE
  5
42F
100
AcDbEntity
  8
ASSI
100
AcDbLine
 62
7
  6
CONTINUOUS
 10
134.6995182632
 20
107.7121122632
 11
135.2795252632
 21
107.7121202632
  0
LINE
  5
430
100
AcDbEntity
  8
ASSI
100
AcDbLine
 62
7
  6
CONTINUOUS
 10
132.4110912632
 20
107.7121052632
 11
132.9911132632
 21
107.7121122632
  0
LINE
  5
431
100
AcDbEntity
  8
ASSI
100
AcDbLine
 62
7
  6
CONTINUOUS
 10
138.6568942632
 20
107.7121202632
 11
139.2369232632
 21
107.7121122632
  0
LINE
  5
432
100
AcDbEntity
  8
ASSI
100
AcDbLine
 62
7
  6
CONTINUOUS
 10
130.5132372632
 20
107.7121052632
 11
131.0932812632
 21
107.7121122632
  0
LWPOLYLINE
  5
433
100
AcDbEntity
  8
RACCORDO
100
AcDbPolyline
 62
253
  6
CONTINUOUS
 90
13
 70
0
 10
148.3697538839
 20
115.404998482
 10
148.3666375747
 20
115.4227698078
 10
148.3604237509
 20
115.4402606283
 10
148.3512104651
 20
115.457194687
 10
148.3391431469
 20
115.4733045104
 10
148.3244123139
 20
115.4883356254
 10
148.3072505701
 20
115.5020505818
 10
148.2879289032
 20
115.5142327254
 10
148.2667524625
 20
115.5246895802
 10
148.2440557672
 20
115.5332559028
 10
148.2201973281
 20
115.5397963423
 10
148.1955539684
 20
115.5442075604
 10
148.1705149445
 20
115.5464198395
  0
LINE
  5
434
100
AcDbEntity
  8
ASSI
100
AcDbLine
 62
7
  6
CONTINUOUS
 10
145.6910372632
 20
67.9830872632
 11
145.9084652632
 21
68.2913252632
  0
LINE
  5
435
100
AcDbEntity
  8
ASSI
100
AcDbLine
 62
7
  6
CONTINUOUS
 10
145.5758846518
 20
72.6056795906
 11
144.4068092632
 21
71.6204922632
  0
LINE
  5
436
100
AcDbEntity
  8
ASSI
100
AcDbLine
 62
7
  6
CONTINUOUS
 10
144.4068092632
 20
71.1087962632
 11
145.5216411612
 21
72.0482721772
  0
LINE
  5
437
100
AcDbEntity
  8
ASSI
100
AcDbLine
 62
7
  6
CONTINUOUS
 10
137.5577432632
 20
108.2824482632
 11
138.4737882632
 21
108.2824482632
  0
LINE
  5
438
100
AcDbEntity
  8
ASSI
100
AcDbLine
 62
7
  6
CONTINUOUS
 10
138.2968592632
 20
108.8334702632
 11
137.7346652632
 21
108.8334702632
  0
LINE
  5
439
100
AcDbEntity
  8
ASSI
100
AcDbLine
 62
7
  6
CONTINUOUS
 10
140.2036962632
 20
108.8334772632
 11
140.7099272632
 21
108.8334702632
  0
LINE
  5
43A
100
AcDbEntity
  8
ASSI
100
AcDbLine
 62
7
  6
CONTINUOUS
 10
140.9013216057
 20
109.3699992632
 11
140.1956342632
 21
109.3699992632
  0
LWPOLYLINE
  5
43B
100
AcDbEntity
  8
0
100
AcDbPolyline
 62
7
  6
CONTINUOUS
 90
3
 70
0
 43
0.3500000006
 10
156.7892438965
 20
90.6049625244
 10
156.7892438965
 20
89.1049620667
 10
154.4320964355
 20
89.7478155212
  0
LWPOLYLINE
  5
43C
100
AcDbEntity
  8
0
100
AcDbPolyline
 62
7
  6
CONTINUOUS
 90
8
 70
0
 43
0.3500000006
 10
157.4320973511
 20
86.9621081543
 10
157.4320973511
 20
87.8192460938
 10
157.0035283813
 20
88.2478150635
 10
156.1463904419
 20
88.2478150635
 10
155.7178214722
 20
87.8192460938
 10
155.7178214722
 20
86.9621081543
 10
154.4320964355
 20
86.9621081543
 10
154.4320964355
 20
88.2478150635
  0
LINE
  5
43D
100
AcDbEntity
  8
RACCORDO
100
AcDbLine
 62
253
  6
CONTINUOUS
 10
144.7574934183
 20
114.0769327097
 11
144.4325638531
 21
114.0121052632
  0
LINE
  5
43E
100
AcDbEntity
  8
DRAFT
100
AcDbLine
 62
7
  6
CONTINUOUS
 10
137.2715934865
 20
111.5956672807
 11
137.0036442941
 21
111.5782122158
  0
LINE
  5
43F
100
AcDbEntity
  8
RACCORDO
100
AcDbLine
 62
7
  6
CONTINUOUS
 10
134.4639045486
 20
111.8470202157
 11
134.0843216415
 21
111.8222929746
  0
LINE
  5
440
100
AcDbEntity
  8
RACCORDO
100
AcDbLine
 62
253
  6
CONTINUOUS
 10
130.0152519492
 20
111.7678901911
 11
129.7806062001
 21
111.7598585771
  0
LINE
  5
441
100
AcDbEntity
  8
RACCORDO
100
AcDbLine
 62
253
  6
CONTINUOUS
 10
130.3047308057
 20
111.7760542201
 11
130.0152519492
 21
111.7678901911
  0
LINE
  5
442
100
AcDbEntity
  8
RACCORDO
100
AcDbLine
 62
253
  6
CONTINUOUS
 10
130.8397421195
 20
111.7879859358
 11
130.3047308057
 21
111.7760542201
  0
LINE
  5
443
100
AcDbEntity
  8
RACCORDO
100
AcDbLine
 62
253
  6
CONTINUOUS
 10
131.4630313465
 20
111.798608104
 11
130.8397421195
 21
111.7879859358
  0
LINE
  5
444
100
AcDbEntity
  8
RACCORDO
100
AcDbLine
 62
253
  6
CONTINUOUS
 10
132.5456603417
 20
111.8116994226
 11
131.4630313465
 21
111.798608104
  0
LWPOLYLINE
  5
445
100
AcDbEntity
  8
RACCORDO
100
AcDbPolyline
 62
253
  6
CONTINUOUS
 90
3
 70
0
 10
134.0843216415
 20
111.8222929746
 10
133.9117473299
 20
111.8215071404
 10
132.5456603417
 20
111.8116994226
  0
LINE
  5
446
100
AcDbEntity
  8
ASSI
100
AcDbLine
 62
7
  6
CONTINUOUS
 10
140.1956272632
 20
110.0757282632
 11
140.9013045919
 21
110.0757282632
  0
LINE
  5
447
100
AcDbEntity
  8
ASSI
100
AcDbLine
 62
7
  6
CONTINUOUS
 10
136.4079292632
 20
110.6122432632
 11
135.5310932632
 21
110.6122432632
  0
LINE
  5
448
100
AcDbEntity
  8
ASSI
100
AcDbLine
 62
7
  6
CONTINUOUS
 10
134.4479572632
 20
110.6122432632
 11
133.5711202632
 21
110.6122432632
  0
LINE
  5
449
100
AcDbEntity
  8
ASSI
100
AcDbLine
 62
7
  6
CONTINUOUS
 10
132.9911202632
 20
110.6122432632
 11
132.4110992632
 21
110.6122432632
  0
LINE
  5
44A
100
AcDbEntity
  8
ASSI
100
AcDbLine
 62
7
  6
CONTINUOUS
 10
132.0244202632
 20
110.6122432632
 11
131.4443912632
 21
110.6122432632
  0
LINE
  5
44B
100
AcDbEntity
  8
ASSI
100
AcDbLine
 62
7
  6
CONTINUOUS
 10
130.1621342632
 20
110.6122432632
 11
129.5821052632
 21
110.6122432632
  0
LINE
  5
44C
100
AcDbEntity
  8
ASSI
100
AcDbLine
 62
7
  6
CONTINUOUS
 10
140.9818299366
 20
110.6122502632
 11
139.6236022632
 21
110.6122502632
  0
LINE
  5
44D
100
AcDbEntity
  8
ASSI
100
AcDbLine
 62
7
  6
CONTINUOUS
 10
138.3057842632
 20
110.6122502632
 11
137.7257332632
 21
110.6122502632
  0
LINE
  5
44E
100
AcDbEntity
  8
DRAFT
100
AcDbLine
 62
7
  6
CONTINUOUS
 10
143.1821052632
 20
111.5621052632
 11
137.0036442941
 21
111.5621052632
  0
LINE
  5
44F
100
AcDbEntity
  8
DRAFT
100
AcDbLine
 62
7
  6
CONTINUOUS
 10
134.3605662322
 20
111.5621052632
 11
128.1821052632
 21
111.5621052632
  0
LINE
  5
450
100
AcDbEntity
  8
RACCORDO
100
AcDbLine
 62
7
  6
CONTINUOUS
 10
137.0036442941
 20
111.5782122158
 11
136.3071052632
 21
111.5782122158
  0
LINE
  5
451
100
AcDbEntity
  8
RACCORDO
100
AcDbLine
 62
7
  6
CONTINUOUS
 10
134.3605662322
 20
111.5782122158
 11
135.0571052632
 21
111.5782122158
  0
LINE
  5
452
100
AcDbEntity
  8
RACCORDO
100
AcDbLine
 62
7
  6
CONTINUOUS
 10
129.1821052632
 20
111.5956672807
 11
134.0926170398
 21
111.5956672807
  0
LINE
  5
453
100
AcDbEntity
  8
RACCORDO
100
AcDbLine
 62
7
  6
CONTINUOUS
 10
137.2715934865
 20
111.5956672807
 11
142.1821052632
 21
111.5956672807
  0
LINE
  5
454
100
AcDbEntity
  8
RACCORDO
100
AcDbLine
 62
7
  6
CONTINUOUS
 10
134.4639045486
 20
111.8470202157
 11
135.0571052632
 21
111.8470202157
  0
LINE
  5
455
100
AcDbEntity
  8
RACCORDO
100
AcDbLine
 62
7
  6
CONTINUOUS
 10
136.3071052632
 20
111.8470202157
 11
136.9003059777
 21
111.8470202157
  0
LINE
  5
456
100
AcDbEntity
  8
RACCORDO
100
AcDbLine
 62
253
  6
CONTINUOUS
 10
137.2798888782
 20
111.822292975
 11
138.1978405345
 21
111.8169382071
  0
LINE
  5
457
100
AcDbEntity
  8
RACCORDO
100
AcDbLine
 62
253
  6
CONTINUOUS
 10
138.1978405345
 20
111.8169382071
 11
139.2395483638
 21
111.8072646311
  0
LINE
  5
458
100
AcDbEntity
  8
RACCORDO
100
AcDbLine
 62
253
  6
CONTINUOUS
 10
139.2395483638
 20
111.8072646311
 11
140.106553396
 21
111.7954255404
  0
LINE
  5
459
100
AcDbEntity
  8
RACCORDO
100
AcDbLine
 62
253
  6
CONTINUOUS
 10
140.106553396
 20
111.7954255404
 11
140.7068396015
 21
111.7842686605
  0
LINE
  5
45A
100
AcDbEntity
  8
RACCORDO
100
AcDbLine
 62
253
  6
CONTINUOUS
 10
140.7068396015
 20
111.7842686605
 11
141.0515624535
 21
111.7762566292
  0
LINE
  5
45B
100
AcDbEntity
  8
RACCORDO
100
AcDbLine
 62
253
  6
CONTINUOUS
 10
141.0515624535
 20
111.7762566292
 11
141.3428417917
 21
111.7680798122
  0
LINE
  5
45C
100
AcDbEntity
  8
RACCORDO
100
AcDbLine
 62
253
  6
CONTINUOUS
 10
141.3428417917
 20
111.7680798122
 11
141.5791098369
 21
111.7600281158
  0
LWPOLYLINE
  5
45D
100
AcDbEntity
  8
RACCORDO
100
AcDbPolyline
 62
253
  6
CONTINUOUS
 90
7
 70
0
 10
126.6821052632
 20
112.1817946256
 10
126.6467587303
 20
112.1834309113
 10
126.6122174772
 20
112.1879858828
 10
126.578481504
 20
112.1954595401
 10
126.5455508105
 20
112.2058518834
 10
126.5134253969
 20
112.2191629124
 10
126.4821052631
 20
112.2353926274
  0
LINE
  5
45E
100
AcDbEntity
  8
DRAFT
100
AcDbLine
 62
7
  6
CONTINUOUS
 10
134.0926170398
 20
111.5956672807
 11
134.3605662322
 21
111.5782122158
  0
LINE
  5
45F
100
AcDbEntity
  8
RACCORDO
100
AcDbLine
 62
7
  6
CONTINUOUS
 10
137.2798888782
 20
111.822292975
 11
136.9003059777
 21
111.8470202157
  0
LWPOLYLINE
  5
460
100
AcDbEntity
  8
RACCORDO
100
AcDbPolyline
 62
253
  6
CONTINUOUS
 90
12
 70
0
 10
129.1821052632
 20
111.7123162601
 10
129.1560000247
 20
111.7140270272
 10
129.1303414541
 20
111.7191300569
 10
129.1055685767
 20
111.7275380349
 10
129.0821052632
 20
111.7391070983
 10
129.0603529774
 20
111.7536392974
 10
129.0406839069
 20
111.7708859821
 10
129.0234345951
 20
111.7905520568
 10
129.0089001824
 20
111.8123010296
 10
128.9973293567
 20
111.8357607696
 10
128.9889200979
 20
111.860529874
 10
128.9838162909
 20
111.8861845366
  0
LWPOLYLINE
  5
461
100
AcDbEntity
  8
RACCORDO
100
AcDbPolyline
 62
253
  6
CONTINUOUS
 90
13
 70
0
 10
126.6821052632
 20
112.5553752614
 10
126.6560000247
 20
112.5570860285
 10
126.6303414541
 20
112.5621890582
 10
126.6055685767
 20
112.5705970362
 10
126.5821052632
 20
112.5821660996
 10
126.5603529774
 20
112.5966982987
 10
126.5406839069
 20
112.6139449833
 10
126.5234345951
 20
112.6336110581
 10
126.5089001824
 20
112.6553600309
 10
126.4973293567
 20
112.6788197708
 10
126.4889200979
 20
112.7035888753
 10
126.4838162909
 20
112.7292435379
 10
126.4821052632
 20
112.7553448004
  0
LINE
  5
462
100
AcDbEntity
  8
RACCORDO
100
AcDbLine
 62
253
  6
CONTINUOUS
 10
126.606717108
 20
114.0769327097
 11
126.9316466732
 21
114.0121052632
  0
LWPOLYLINE
  5
463
100
AcDbEntity
  8
RACCORDO
100
AcDbPolyline
 62
7
  6
CONTINUOUS
 90
16
 70
0
 10
137.2798888782
 20
111.822292975
 10
137.2733368614
 20
111.8240702046
 10
137.2670457651
 20
111.827976942
 10
137.2610155892
 20
111.8340131871
 10
137.2551789003
 20
111.8423759059
 10
137.2496031318
 20
111.8528681324
 10
137.2444905845
 20
111.8648989691
 10
137.239892576
 20
111.8784065551
 10
137.2357577886
 20
111.8934527514
 10
137.232134571
 20
111.9096322431
 10
137.2290164431
 20
111.9270688519
 10
137.2264098849
 20
111.9456387561
 10
137.2243826847
 20
111.9645651758
 10
137.2229574387
 20
111.9835891845
 10
137.2221115507
 20
112.0029697087
 10
137.2218450207
 20
112.0227067484
  0
LINE
  5
464
100
AcDbEntity
  8
RACCORDO
100
AcDbLine
 62
253
  6
CONTINUOUS
 10
144.5582544787
 20
114.2769022487
 11
144.2321052632
 21
114.2118314669
  0
LINE
  5
465
100
AcDbEntity
  8
RACCORDO
100
AcDbLine
 62
7
  6
CONTINUOUS
 10
134.6821052632
 20
112.6613563685
 11
134.1423655177
 21
112.6261960002
  0
LINE
  5
466
100
AcDbEntity
  8
RACCORDO
100
AcDbLine
 62
7
  6
CONTINUOUS
 10
134.40935437
 20
112.7344174028
 11
134.0315559766
 21
112.7098064105
  0
LINE
  5
467
100
AcDbEntity
  8
RACCORDO
100
AcDbLine
 62
7
  6
CONTINUOUS
 10
134.6821052632
 20
113.7523375938
 11
134.0878153391
 21
113.7136236529
  0
LWPOLYLINE
  5
468
100
AcDbEntity
  8
RACCORDO
100
AcDbPolyline
 62
253
  6
CONTINUOUS
 90
15
 70
0
 10
127.0818055863
 20
112.6016748634
 10
127.022546974
 20
112.5981664229
 10
126.9687539439
 20
112.5947073322
 10
126.9205094288
 20
112.5913001934
 10
126.8777304958
 20
112.5879424044
 10
126.8397379748
 20
112.5846485072
 10
126.8066498155
 20
112.5814431725
 10
126.7783480682
 20
112.5783017296
 10
126.7537997136
 20
112.5751647091
 10
126.7327033574
 20
112.5720471494
 10
126.7153603938
 20
112.568934012
 10
126.7016419862
 20
112.565720713
 10
126.6915051892
 20
112.5623723908
 10
126.6849929482
 20
112.558923907
 10
126.6821052632
 20
112.5553752614
  0
LWPOLYLINE
  5
469
100
AcDbEntity
  8
RACCORDO
100
AcDbPolyline
 62
253
  6
CONTINUOUS
 90
15
 70
0
 10
126.8992033621
 20
112.8021114896
 10
126.8371488492
 20
112.7985648824
 10
126.7810732277
 20
112.7950676271
 10
126.730749443
 20
112.7916220674
 10
126.6858913864
 20
112.7882258595
 10
126.6463353885
 20
112.7848952854
 10
126.6120425582
 20
112.7816556717
 10
126.5824312729
 20
112.7784816918
 10
126.5567331074
 20
112.7753136475
 10
126.5350021243
 20
112.7721674266
 10
126.5170663436
 20
112.7690271413
 10
126.5024458551
 20
112.76578543
 10
126.4914008654
 20
112.7624065056
 10
126.4844935337
 20
112.7589261553
 10
126.4821052632
 20
112.7553443791
  0
LINE
  5
46A
100
AcDbEntity
  8
RACCORDO
100
AcDbLine
 62
253
  6
CONTINUOUS
 10
127.2182874237
 20
112.608779749
 11
127.0818055863
 21
112.6016748634
  0
LWPOLYLINE
  5
46B
100
AcDbEntity
  8
RACCORDO
100
AcDbPolyline
 62
253
  6
CONTINUOUS
 90
12
 70
0
 10
129.5934930026
 20
111.7520540559
 10
129.517041376
 20
111.7482526861
 10
129.4499188332
 20
111.7445484048
 10
129.3923233173
 20
111.7409771445
 10
129.3440568851
 20
111.7375029726
 10
129.3024655611
 20
111.7340490212
 10
129.2668751194
 20
111.7306370733
 10
129.237959786
 20
111.7272453459
 10
129.2150882634
 20
111.7237316225
 10
129.1980501192
 20
111.7200484977
 10
129.1870557858
 20
111.7162433769
 10
129.1821052632
 20
111.7123162601
  0
LINE
  5
46C
100
AcDbEntity
  8
RACCORDO
100
AcDbLine
 62
253
  6
CONTINUOUS
 10
127.0415685968
 20
112.8092900786
 11
126.8992033621
 21
112.8021114896
  0
LWPOLYLINE
  5
46D
100
AcDbEntity
  8
RACCORDO
100
AcDbPolyline
 62
253
  6
CONTINUOUS
 90
12
 70
0
 10
129.4226131944
 20
111.9527516211
 10
129.339929626
 20
111.9488663502
 10
129.2681335379
 20
111.9450826108
 10
129.2069721115
 20
111.941438278
 10
129.1550089638
 20
111.9378954767
 10
129.110337204
 20
111.9343771609
 10
129.0729383469
 20
111.9309073763
 10
129.0423138669
 20
111.9274620772
 10
129.0172533588
 20
111.92389208
 10
128.99819338
 20
111.920147657
 10
128.9862442669
 20
111.916278536
 10
128.9821052632
 20
111.9122858514
  0
LINE
  5
46E
100
AcDbEntity
  8
RACCORDO
100
AcDbLine
 62
253
  6
CONTINUOUS
 10
127.3782299419
 20
112.6159562908
 11
127.2182874237
 21
112.608779749
  0
LINE
  5
46F
100
AcDbEntity
  8
RACCORDO
100
AcDbLine
 62
253
  6
CONTINUOUS
 10
127.2086980222
 20
112.8165349938
 11
127.0415685968
 21
112.8092900786
  0
LINE
  5
470
100
AcDbEntity
  8
RACCORDO
100
AcDbLine
 62
253
  6
CONTINUOUS
 10
129.7806062001
 20
111.7598585771
 11
129.5934930026
 21
111.7520540559
  0
LINE
  5
471
100
AcDbEntity
  8
RACCORDO
100
AcDbLine
 62
253
  6
CONTINUOUS
 10
129.6233327446
 20
111.9607194651
 11
129.4226131944
 21
111.9527516211
  0
LINE
  5
472
100
AcDbEntity
  8
RACCORDO
100
AcDbLine
 62
253
  6
CONTINUOUS
 10
127.5603728381
 20
112.6230597132
 11
127.3782299419
 21
112.6159562908
  0
LINE
  5
473
100
AcDbEntity
  8
RACCORDO
100
AcDbLine
 62
253
  6
CONTINUOUS
 10
127.3985124275
 20
112.8236945398
 11
127.2086980222
 21
112.8165349938
  0
LINE
  5
474
100
AcDbEntity
  8
RACCORDO
100
AcDbLine
 62
253
  6
CONTINUOUS
 10
127.8701463483
 20
112.6333841437
 11
127.5603728381
 21
112.6230597132
  0
LINE
  5
475
100
AcDbEntity
  8
RACCORDO
100
AcDbLine
 62
253
  6
CONTINUOUS
 10
129.8760199968
 20
111.9689056552
 11
129.6233327446
 21
111.9607194651
  0
LINE
  5
476
100
AcDbEntity
  8
RACCORDO
100
AcDbLine
 62
253
  6
CONTINUOUS
 10
127.7211644322
 20
112.834084924
 11
127.3985124275
 21
112.8236945398
  0
LINE
  5
477
100
AcDbEntity
  8
RACCORDO
100
AcDbLine
 62
253
  6
CONTINUOUS
 10
128.221076885
 20
112.6432303932
 11
127.8701463483
 21
112.6333841437
  0
LINE
  5
478
100
AcDbEntity
  8
RACCORDO
100
AcDbLine
 62
253
  6
CONTINUOUS
 10
130.1873928355
 20
111.9772112721
 11
129.8760199968
 21
111.9689056552
  0
LINE
  5
479
100
AcDbEntity
  8
RACCORDO
100
AcDbLine
 62
253
  6
CONTINUOUS
 10
128.2176592343
 20
112.8471760827
 11
127.7211644322
 21
112.834084924
  0
LINE
  5
47A
100
AcDbEntity
  8
RACCORDO
100
AcDbLine
 62
253
  6
CONTINUOUS
 10
128.7518290435
 20
112.6556033095
 11
128.221076885
 21
112.6432303932
  0
LINE
  5
47B
100
AcDbEntity
  8
RACCORDO
100
AcDbLine
 62
253
  6
CONTINUOUS
 10
130.7605672261
 20
111.9892661004
 11
130.1873928355
 21
111.9772112721
  0
LINE
  5
47C
100
AcDbEntity
  8
RACCORDO
100
AcDbLine
 62
253
  6
CONTINUOUS
 10
128.9422786836
 20
112.8622755139
 11
128.2176592343
 21
112.8471760827
  0
LINE
  5
47D
100
AcDbEntity
  8
RACCORDO
100
AcDbLine
 62
253
  6
CONTINUOUS
 10
129.510191441
 20
112.6697122784
 11
128.7518290435
 21
112.6556033095
  0
LINE
  5
47E
100
AcDbEntity
  8
RACCORDO
100
AcDbLine
 62
253
  6
CONTINUOUS
 10
129.9468712392
 20
112.878179751
 11
128.9422786836
 21
112.8622755139
  0
LINE
  5
47F
100
AcDbEntity
  8
RACCORDO
100
AcDbLine
 62
253
  6
CONTINUOUS
 10
131.6508442718
 20
112.0029087755
 11
130.7605672261
 21
111.9892661004
  0
LINE
  5
480
100
AcDbEntity
  8
RACCORDO
100
AcDbLine
 62
253
  6
CONTINUOUS
 10
130.7247343969
 20
112.6864911078
 11
129.510191441
 21
112.6697122784
  0
LINE
  5
481
100
AcDbEntity
  8
RACCORDO
100
AcDbLine
 62
253
  6
CONTINUOUS
 10
131.4872759003
 20
112.8951582408
 11
129.9468712392
 21
112.878179751
  0
LINE
  5
482
100
AcDbEntity
  8
RACCORDO
100
AcDbLine
 62
253
  6
CONTINUOUS
 10
132.7725060815
 20
112.0144826785
 11
131.6508442718
 21
112.0029087755
  0
LINE
  5
483
100
AcDbEntity
  8
RACCORDO
100
AcDbLine
 62
253
  6
CONTINUOUS
 10
132.4644951803
 20
112.7020881459
 11
130.7247343969
 21
112.6864911078
  0
LINE
  5
484
100
AcDbEntity
  8
RACCORDO
100
AcDbLine
 62
253
  6
CONTINUOUS
 10
133.5815638804
 20
112.9082908903
 11
131.4872759003
 21
112.8951582408
  0
LINE
  5
485
100
AcDbEntity
  8
RACCORDO
100
AcDbLine
 62
253
  6
CONTINUOUS
 10
134.1423653874
 20
112.0227070265
 11
132.7725060815
 21
112.0144826785
  0
LINE
  5
486
100
AcDbEntity
  8
RACCORDO
100
AcDbLine
 62
253
  6
CONTINUOUS
 10
134.0315559766
 20
112.7098064105
 11
132.4644951803
 21
112.7020881459
  0
LINE
  5
487
100
AcDbEntity
  8
RACCORDO
100
AcDbLine
 62
253
  6
CONTINUOUS
 10
134.0878152998
 20
112.9100635949
 11
133.5815638804
 21
112.9082908903
  0
LINE
  5
488
100
AcDbEntity
  8
RACCORDO
100
AcDbLine
 62
253
  6
CONTINUOUS
 10
126.6821052632
 20
112.1817946256
 11
128.1821052632
 21
112.1817946256
  0
LINE
  5
489
100
AcDbEntity
  8
RACCORDO
100
AcDbLine
 62
253
  6
CONTINUOUS
 10
143.1821052632
 20
112.1817946256
 11
144.6821052632
 21
112.1817946256
  0
LINE
  5
48A
100
AcDbEntity
  8
0
100
AcDbLine
 62
7
  6
CONTINUOUS
 10
145.6821052632
 20
112.2121052632
 11
144.8821052632
 21
112.2121052632
  0
LINE
  5
48B
100
AcDbEntity
  8
0
100
AcDbLine
 62
7
  6
CONTINUOUS
 10
126.4821052632
 20
112.2121052632
 11
125.6821052632
 21
112.2121052632
  0
LINE
  5
48C
100
AcDbEntity
  8
RACCORDO
100
AcDbLine
 62
253
  6
CONTINUOUS
 10
126.6821052632
 20
112.3817641646
 11
128.1821052632
 21
112.3817641646
  0
LINE
  5
48D
100
AcDbEntity
  8
RACCORDO
100
AcDbLine
 62
253
  6
CONTINUOUS
 10
143.1821052632
 20
112.3817641646
 11
144.6821052632
 21
112.3817641646
  0
LINE
  5
48E
100
AcDbEntity
  8
RACCORDO
100
AcDbLine
 62
7
  6
CONTINUOUS
 10
134.6821052632
 20
112.6613563685
 11
135.0571052632
 21
112.6613563685
  0
LINE
  5
48F
100
AcDbEntity
  8
RACCORDO
100
AcDbLine
 62
7
  6
CONTINUOUS
 10
136.3071052632
 20
112.6613563685
 11
136.6821052632
 21
112.6613563685
  0
LINE
  5
490
100
AcDbEntity
  8
RACCORDO
100
AcDbLine
 62
7
  6
CONTINUOUS
 10
136.9548561563
 20
112.7344174028
 11
136.3071052632
 21
112.7344174028
  0
LINE
  5
491
100
AcDbEntity
  8
RACCORDO
100
AcDbLine
 62
7
  6
CONTINUOUS
 10
135.0571052632
 20
112.7344174028
 11
134.40935437
 21
112.7344174028
  0
LINE
  5
492
100
AcDbEntity
  8
RACCORDO
100
AcDbLine
 62
253
  6
CONTINUOUS
 10
123.0122940336
 20
113.1819469536
 11
125.6821052632
 21
113.1819469536
  0
LINE
  5
493
100
AcDbEntity
  8
RACCORDO
100
AcDbLine
 62
7
  6
CONTINUOUS
 10
145.6821052632
 20
113.3784864063
 11
148.1519469536
 21
113.3784864063
  0
LINE
  5
494
100
AcDbEntity
  8
RACCORDO
100
AcDbLine
 62
253
  6
CONTINUOUS
 10
123.2122635727
 20
113.3819164927
 11
125.6821052632
 21
113.3819164927
  0
LINE
  5
495
100
AcDbEntity
  8
DRAFT
100
AcDbLine
 62
7
  6
CONTINUOUS
 10
134.6821052632
 20
113.7523375938
 11
136.6821052632
 21
113.7523375938
  0
LINE
  5
496
100
AcDbEntity
  8
RACCORDO
100
AcDbLine
 62
253
  6
CONTINUOUS
 10
137.2763952174
 20
112.9100635949
 11
138.5038376441
 21
112.9048676946
  0
LINE
  5
497
100
AcDbEntity
  8
RACCORDO
100
AcDbLine
 62
253
  6
CONTINUOUS
 10
137.3326545516
 20
112.7098064104
 11
138.5323933784
 21
112.7043831079
  0
LINE
  5
498
100
AcDbEntity
  8
RACCORDO
100
AcDbLine
 62
253
  6
CONTINUOUS
 10
137.2218451051
 20
112.0227070267
 11
138.1669032522
 21
112.0176573488
  0
LINE
  5
499
100
AcDbEntity
  8
RACCORDO
100
AcDbLine
 62
253
  6
CONTINUOUS
 10
138.5038376441
 20
112.9048676946
 11
139.6745119129
 21
112.8968744521
  0
LINE
  5
49A
100
AcDbEntity
  8
RACCORDO
100
AcDbLine
 62
253
  6
CONTINUOUS
 10
138.5323933784
 20
112.7043831079
 11
139.67409701
 21
112.6961679971
  0
LINE
  5
49B
100
AcDbEntity
  8
RACCORDO
100
AcDbLine
 62
253
  6
CONTINUOUS
 10
138.1669032522
 20
112.0176573488
 11
139.2493914422
 21
112.0083192571
  0
LINE
  5
49C
100
AcDbEntity
  8
RACCORDO
100
AcDbLine
 62
253
  6
CONTINUOUS
 10
139.6745119129
 20
112.8968744521
 11
140.8624937076
 21
112.8851689801
  0
LINE
  5
49D
100
AcDbEntity
  8
RACCORDO
100
AcDbLine
 62
253
  6
CONTINUOUS
 10
139.67409701
 20
112.6961679971
 11
140.819956621
 21
112.6843571498
  0
LINE
  5
49E
100
AcDbEntity
  8
RACCORDO
100
AcDbLine
 62
253
  6
CONTINUOUS
 10
139.2493914422
 20
112.0083192571
 11
140.1593442246
 21
111.9966853407
  0
LINE
  5
49F
100
AcDbEntity
  8
RACCORDO
100
AcDbLine
 62
253
  6
CONTINUOUS
 10
140.8624937076
 20
112.8851689801
 11
141.7620743406
 21
112.8732456218
  0
LINE
  5
4A0
100
AcDbEntity
  8
RACCORDO
100
AcDbLine
 62
253
  6
CONTINUOUS
 10
140.819956621
 20
112.6843571498
 11
141.6855949945
 21
112.6724128761
  0
LINE
  5
4A1
100
AcDbEntity
  8
RACCORDO
100
AcDbLine
 62
253
  6
CONTINUOUS
 10
141.7620743406
 20
112.8732456218
 11
142.5692420158
 21
112.8595015237
  0
LINE
  5
4A2
100
AcDbEntity
  8
RACCORDO
100
AcDbLine
 62
253
  6
CONTINUOUS
 10
140.1593442246
 20
111.9966853407
 11
140.7991106329
 21
111.9855149607
  0
LINE
  5
4A3
100
AcDbEntity
  8
RACCORDO
100
AcDbLine
 62
253
  6
CONTINUOUS
 10
141.6855949945
 20
112.6724128761
 11
142.4619766895
 21
112.6586896117
  0
LINE
  5
4A4
100
AcDbEntity
  8
RACCORDO
100
AcDbLine
 62
253
  6
CONTINUOUS
 10
140.7991106329
 20
111.9855149607
 11
141.1685694511
 21
111.9774107438
  0
LINE
  5
4A5
100
AcDbEntity
  8
RACCORDO
100
AcDbLine
 62
253
  6
CONTINUOUS
 10
142.5692420158
 20
112.8595015237
 11
143.1393574628
 21
112.8473463414
  0
LINE
  5
4A6
100
AcDbEntity
  8
RACCORDO
100
AcDbLine
 62
253
  6
CONTINUOUS
 10
142.4619766895
 20
112.6586896117
 11
143.009798252
 21
112.6465851364
  0
LINE
  5
4A7
100
AcDbEntity
  8
RACCORDO
100
AcDbLine
 62
253
  6
CONTINUOUS
 10
141.1685694511
 20
111.9774107438
 11
141.4817426338
 21
111.9690948407
  0
LINE
  5
4A8
100
AcDbEntity
  8
RACCORDO
100
AcDbLine
 62
253
  6
CONTINUOUS
 10
143.009798252
 20
112.6465851364
 11
143.3740303913
 21
112.6369378427
  0
LINE
  5
4A9
100
AcDbEntity
  8
RACCORDO
100
AcDbLine
 62
253
  6
CONTINUOUS
 10
143.1393574628
 20
112.8473463414
 11
143.6355449963
 21
112.8343056607
  0
LINE
  5
4AA
100
AcDbEntity
  8
RACCORDO
100
AcDbLine
 62
253
  6
CONTINUOUS
 10
143.3740303913
 20
112.6369378427
 11
143.6976781461
 21
112.6268144513
  0
LINE
  5
4AB
100
AcDbEntity
  8
RACCORDO
100
AcDbLine
 62
253
  6
CONTINUOUS
 10
141.4817426338
 20
111.9690948407
 11
141.7361256313
 21
111.9608895009
  0
LINE
  5
4AC
100
AcDbEntity
  8
RACCORDO
100
AcDbLine
 62
253
  6
CONTINUOUS
 10
143.6355449963
 20
112.8343056607
 11
143.9581946274
 21
112.823959089
  0
LWPOLYLINE
  5
4AD
100
AcDbEntity
  8
RACCORDO
100
AcDbPolyline
 62
7
  6
CONTINUOUS
 90
22
 70
0
 10
126.6821223607
 20
112.3817641642
 10
126.6671850289
 20
112.3823217419
 10
126.6523288502
 20
112.3839942017
 10
126.637636889
 20
112.3867726968
 10
126.6231911527
 20
112.3906422731
 10
126.609072743
 20
112.3955817393
 10
126.5953613496
 20
112.4015636314
 10
126.5821331253
 20
112.4085552409
 10
126.5694629954
 20
112.4165174827
 10
126.5574244171
 20
112.425404161
 10
126.5460864798
 20
112.4351635526
 10
126.5355102259
 20
112.4457423303
 10
126.5257515605
 20
112.4570848163
 10
126.5168650517
 20
112.4691289787
 10
126.5089017772
 20
112.4818071065
 10
126.5019062682
 20
112.4950499932
 10
126.4959161976
 20
112.5087904435
 10
126.4909696752
 20
112.5229458384
 10
126.4870997889
 20
112.5374183136
 10
126.4843261298
 20
112.5521196222
 10
126.4826592321
 20
112.5669731764
 10
126.4821052672
 20
112.5818957903
  0
LINE
  5
4AE
100
AcDbEntity
  8
RACCORDO
100
AcDbLine
 62
253
  6
CONTINUOUS
 10
143.6976781461
 20
112.6268144513
 11
143.8902729128
 21
112.6198040065
  0
LINE
  5
4AF
100
AcDbEntity
  8
RACCORDO
100
AcDbLine
 62
253
  6
CONTINUOUS
 10
143.9581946274
 20
112.823959089
 11
144.1482732644
 21
112.8168264698
  0
LWPOLYLINE
  5
4B0
100
AcDbEntity
  8
RACCORDO
100
AcDbPolyline
 62
253
  6
CONTINUOUS
 90
13
 70
0
 10
141.7361256313
 20
111.9608895009
 10
141.9383490347
 20
111.9528954392
 10
142.0216929924
 20
111.9489947
 10
142.0940598982
 20
111.9451955187
 10
142.1557038773
 20
111.9415359085
 10
142.2080723564
 20
111.9379778562
 10
142.2530717977
 20
111.9344454258
 10
142.2907214915
 20
111.9309633916
 10
142.3215383107
 20
111.9275069792
 10
142.3467513056
 20
111.9239259297
 10
142.3659249514
 20
111.9201701565
 10
142.3779430635
 20
111.9162897461
 10
142.3821052632
 20
111.9122858522
  0
LINE
  5
4B1
100
AcDbEntity
  8
RACCORDO
100
AcDbLine
 62
253
  6
CONTINUOUS
 10
143.8902729128
 20
112.6198040065
 11
144.061817884
 21
112.6126836526
  0
LWPOLYLINE
  5
4B2
100
AcDbEntity
  8
RACCORDO
100
AcDbPolyline
 62
253
  6
CONTINUOUS
 90
13
 70
0
 10
141.5791098369
 20
111.7600281158
 10
141.7676490319
 20
111.7521967297
 10
141.8447290581
 20
111.7483795476
 10
141.9123997082
 20
111.7446596565
 10
141.9704495958
 20
111.7410732334
 10
142.0190901072
 20
111.7375841014
 10
142.0609911634
 20
111.7341163253
 10
142.0968243497
 20
111.7306923716
 10
142.1259180806
 20
111.7272897739
 10
142.148927521
 20
111.7237651974
 10
142.166071059
 20
111.7200708638
 10
142.1771303064
 20
111.7162545513
 10
142.1821052632
 20
111.7123162601
  0
LINE
  5
4B3
100
AcDbEntity
  8
RACCORDO
100
AcDbLine
 62
253
  6
CONTINUOUS
 10
144.1482732644
 20
112.8168264698
 11
144.3160406014
 21
112.8095974033
  0
LWPOLYLINE
  5
4B4
100
AcDbEntity
  8
RACCORDO
100
AcDbPolyline
 62
253
  6
CONTINUOUS
 90
17
 70
0
 10
144.061817884
 20
112.6126836526
 10
144.2112034288
 20
112.6055247427
 10
144.2768765698
 20
112.6019861606
 10
144.3367144645
 20
112.598470536
 10
144.3910942797
 20
112.5950006051
 10
144.439931285
 20
112.5915785491
 10
144.4833102109
 20
112.5882021869
 10
144.5218624155
 20
112.5848877112
 10
144.5554592201
 20
112.5816599259
 10
144.5842293035
 20
112.578494027
 10
144.6091900601
 20
112.575331795
 10
144.6306394461
 20
112.5721887755
 10
144.6482795054
 20
112.5690494229
 10
144.6622337641
 20
112.5658088808
 10
144.6725433977
 20
112.5624321971
 10
144.6791672307
 20
112.558954324
 10
144.6821052632
 20
112.5553752614
  0
LWPOLYLINE
  5
4B5
100
AcDbEntity
  8
RACCORDO
100
AcDbPolyline
 62
253
  6
CONTINUOUS
 90
16
 70
0
 10
144.3160406014
 20
112.8095974033
 10
144.4593694269
 20
112.8024190501
 10
144.5219950017
 20
112.7988660576
 10
144.5786651364
 20
112.7953586805
 10
144.629598041
 20
112.7918988585
 10
144.6750613111
 20
112.7884846521
 10
144.7151870982
 20
112.7851339421
 10
144.7500053422
 20
112.7818721442
 10
144.7800964278
 20
112.7786738428
 10
144.8062185697
 20
112.7754806723
 10
144.8283114856
 20
112.7723090407
 10
144.8465507858
 20
112.7691425401
 10
144.8614193576
 20
112.7658735812
 10
144.8726515595
 20
112.762466301
 10
144.8796763061
 20
112.7589565626
 10
144.8821052632
 20
112.7553448194
  0
LINE
  5
4B6
100
AcDbEntity
  8
RACCORDO
100
AcDbLine
 62
7
  6
CONTINUOUS
 10
137.2218450086
 20
112.6261960002
 11
136.6821052632
 21
112.6613563685
  0
LINE
  5
4B7
100
AcDbEntity
  8
RACCORDO
100
AcDbLine
 62
7
  6
CONTINUOUS
 10
137.3326545516
 20
112.7098064104
 11
136.9548561563
 21
112.7344174028
  0
LINE
  5
4B8
100
AcDbEntity
  8
RACCORDO
100
AcDbLine
 62
7
  6
CONTINUOUS
 10
137.2763951872
 20
113.7136236529
 11
136.6821052632
 21
113.7523375938
  0
LWPOLYLINE
  5
4B9
100
AcDbEntity
  8
RACCORDO
100
AcDbPolyline
 62
253
  6
CONTINUOUS
 90
13
 70
0
 10
123.1574934183
 20
114.0769327097
 10
123.1315125267
 20
114.0786798338
 10
123.1059753162
 20
114.0838120424
 10
123.0813178908
 20
114.0922416917
 10
123.0579613306
 20
114.1038248269
 10
123.0363045001
 20
114.1183636403
 10
123.0167172374
 20
114.1356098497
 10
122.9995340381
 20
114.1552689381
 10
122.9850483433
 20
114.1770051832
 10
122.9735075281
 20
114.2004473906
 10
122.9651086772
 20
114.2251952333
 10
122.9599952196
 20
114.2508260871
 10
122.9582544787
 20
114.2769022487
  0
LINE
  5
4BA
100
AcDbEntity
  8
RACCORDO
100
AcDbLine
 62
253
  6
CONTINUOUS
 10
126.8059560476
 20
114.2769022487
 11
127.1321052632
 21
114.2118314669
  0
LWPOLYLINE
  5
4BB
100
AcDbEntity
  8
RACCORDO
100
AcDbPolyline
 62
7
  6
CONTINUOUS
 90
16
 70
0
 10
137.3326545516
 20
112.7098064104
 10
137.3264015703
 20
112.711497984
 10
137.3203789351
 20
112.7153078348
 10
137.3145866463
 20
112.7212359626
 10
137.3089552513
 20
112.7294704041
 10
137.3035542027
 20
112.7398231227
 10
137.2985918575
 20
112.7517300092
 10
137.2941204603
 20
112.7651269443
 10
137.2900877666
 20
112.7800780473
 10
137.2865454004
 20
112.7962115668
 10
137.2834845008
 20
112.8136641936
 10
137.2809139288
 20
112.8322992369
 10
137.2789118911
 20
112.8513348733
 10
137.2775044566
 20
112.8705104948
 10
137.2766655564
 20
112.8900867094
 10
137.2763951906
 20
112.9100635169
  0
LINE
  5
4BC
100
AcDbEntity
  8
RACCORDO
100
AcDbLine
 62
253
  6
CONTINUOUS
 10
123.1574934183
 20
114.0769327097
 11
122.8325638531
 21
114.0121052632
  0
LWPOLYLINE
  5
4BD
100
AcDbEntity
  8
RACCORDO
100
AcDbPolyline
 62
253
  6
CONTINUOUS
 90
13
 70
0
 10
144.7936955821
 20
115.5464198382
 10
144.7686565374
 20
115.5442075568
 10
144.7440131612
 20
115.5397963333
 10
144.7201547103
 20
115.5332558866
 10
144.6974580079
 20
115.5246895556
 10
144.6762815652
 20
115.5142326927
 10
144.6569599016
 20
115.5020505427
 10
144.6397981658
 20
115.4883355831
 10
144.6250673439
 20
115.4733044688
 10
144.6130000375
 20
115.4571946501
 10
144.6037867628
 20
115.4402605999
 10
144.5975729474
 20
115.4227697918
 10
144.5944566424
 20
115.404998482
  0
LWPOLYLINE
  5
4BE
100
AcDbEntity
  8
RACCORDO
100
AcDbPolyline
 62
253
  6
CONTINUOUS
 90
16
 70
0
 10
123.2122635727
 20
113.3819164927
 10
123.1913651014
 20
113.3808150976
 10
123.1706955094
 20
113.3775357057
 10
123.1504811694
 20
113.3721142327
 10
123.1309434681
 20
113.3646100544
 10
123.1122963817
 20
113.3551053562
 10
123.0947441324
 20
113.3437042334
 10
123.0784789519
 20
113.3305315505
 10
123.0636789758
 20
113.3157315744
 10
123.0505062929
 20
113.2994663939
 10
123.0391051701
 20
113.2819141446
 10
123.029600472
 20
113.2632670582
 10
123.0220962936
 20
113.2437293569
 10
123.0166748206
 20
113.2235150169
 10
123.0133954287
 20
113.2028454249
 10
123.0122940336
 20
113.1819469536
  0
LINE
  5
4BF
100
AcDbEntity
  8
RACCORDO
100
AcDbLine
 62
7
  6
CONTINUOUS
 10
148.7821357241
 20
114.0121052632
 11
148.5316466732
 21
114.0121052632
  0
LINE
  5
4C0
100
AcDbEntity
  8
RACCORDO
100
AcDbLine
 62
7
  6
CONTINUOUS
 10
144.4325638531
 20
114.0121052632
 11
126.9316466732
 21
114.0121052632
  0
LINE
  5
4C1
100
AcDbEntity
  8
RACCORDO
100
AcDbLine
 62
7
  6
CONTINUOUS
 10
122.8325638531
 20
114.0121052632
 11
122.5820748022
 21
114.0121052632
  0
LINE
  5
4C2
100
AcDbEntity
  8
RACCORDO
100
AcDbLine
 62
253
  6
CONTINUOUS
 10
123.1574934183
 20
114.0769327097
 11
126.606717108
 21
114.0769327097
  0
LINE
  5
4C3
100
AcDbEntity
  8
RACCORDO
100
AcDbLine
 62
253
  6
CONTINUOUS
 10
144.7574934183
 20
114.0769327097
 11
148.206717108
 21
114.0769327097
  0
LINE
  5
4C4
100
AcDbEntity
  8
RACCORDO
100
AcDbLine
 62
253
  6
CONTINUOUS
 10
123.0098315442
 20
114.8768108658
 11
126.7543789821
 21
114.8768108658
  0
LINE
  5
4C5
100
AcDbEntity
  8
RACCORDO
100
AcDbLine
 62
253
  6
CONTINUOUS
 10
148.3543789821
 20
114.8768108658
 11
144.6098315442
 21
114.8768108658
  0
LINE
  5
4C6
100
AcDbEntity
  8
RACCORDO
100
AcDbLine
 62
253
  6
CONTINUOUS
 10
126.7543789821
 20
114.9807344133
 11
123.0098315442
 21
114.9807344133
  0
LINE
  5
4C7
100
AcDbEntity
  8
RACCORDO
100
AcDbLine
 62
253
  6
CONTINUOUS
 10
144.6098315442
 20
114.9807344133
 11
148.3543789821
 21
114.9807344133
  0
LINE
  5
4C8
100
AcDbEntity
  8
DRAFT
100
AcDbLine
 62
7
  6
CONTINUOUS
 10
122.9033201201
 20
115.2121052632
 11
122.6321052632
 21
115.2121052632
  0
LINE
  5
4C9
100
AcDbEntity
  8
RACCORDO
100
AcDbLine
 62
7
  6
CONTINUOUS
 10
121.6820291107
 20
115.2121052632
 11
122.6321052632
 21
115.2121052632
  0
LINE
  5
4CA
100
AcDbEntity
  8
DRAFT
100
AcDbLine
 62
7
  6
CONTINUOUS
 10
126.8608904062
 20
115.2121052632
 11
144.5033201201
 21
115.2121052632
  0
LINE
  5
4CB
100
AcDbEntity
  8
DRAFT
100
AcDbLine
 62
7
  6
CONTINUOUS
 10
148.4608904062
 20
115.2121052632
 11
148.7321052632
 21
115.2121052632
  0
LINE
  5
4CC
100
AcDbEntity
  8
RACCORDO
100
AcDbLine
 62
7
  6
CONTINUOUS
 10
148.7321052632
 20
115.2121052632
 11
149.6821814156
 21
115.2121052632
  0
LINE
  5
4CD
100
AcDbEntity
  8
RACCORDO
100
AcDbLine
 62
253
  6
CONTINUOUS
 10
126.5705149442
 20
115.5464198382
 11
123.1936955821
 21
115.5464198382
  0
LINE
  5
4CE
100
AcDbEntity
  8
RACCORDO
100
AcDbLine
 62
253
  6
CONTINUOUS
 10
144.7936955821
 20
115.5464198382
 11
148.1705149442
 21
115.5464198382
  0
LWPOLYLINE
  5
4CF
100
AcDbEntity
  8
RACCORDO
100
AcDbPolyline
 62
7
  6
CONTINUOUS
 90
19
 70
0
 10
148.1485168672
 20
113.3784864063
 10
148.1714402117
 20
113.3771979207
 10
148.1931513607
 20
113.3735443122
 10
148.2134418404
 20
113.3678826629
 10
148.2320493538
 20
113.3606290457
 10
148.2490272974
 20
113.3520889941
 10
148.2646764519
 20
113.3423339167
 10
148.2790091244
 20
113.3315208883
 10
148.2919322044
 20
113.3198974009
 10
148.3035463341
 20
113.307522228
 10
148.3138553352
 20
113.2945310318
 10
148.3228488081
 20
113.2810914265
 10
148.3305822179
 20
113.2672551432
 10
148.3370800322
 20
113.2531171967
 10
148.3423520543
 20
113.2388187424
 10
148.3464277817
 20
113.2244578536
 10
148.3493467098
 20
113.2101309798
 10
148.3511582954
 20
113.1959330062
 10
148.3519164927
 20
113.1819469536
  0
LWPOLYLINE
  5
4D0
100
AcDbEntity
  8
RACCORDO
100
AcDbPolyline
 62
253
  6
CONTINUOUS
 90
13
 70
0
 10
144.7574934183
 20
114.0769327097
 10
144.7315125267
 20
114.0786798338
 10
144.7059753162
 20
114.0838120424
 10
144.6813178908
 20
114.0922416917
 10
144.6579613306
 20
114.1038248269
 10
144.6363045001
 20
114.1183636403
 10
144.6167172374
 20
114.1356098497
 10
144.5995340381
 20
114.1552689381
 10
144.5850483433
 20
114.1770051832
 10
144.5735075281
 20
114.2004473906
 10
144.5651086772
 20
114.2251952333
 10
144.5599952196
 20
114.2508260871
 10
144.5582544787
 20
114.2769022487
  0
LINE
  5
4D1
100
AcDbEntity
  8
RACCORDO
100
AcDbLine
 62
253
  6
CONTINUOUS
 10
148.206717108
 20
114.0769327097
 11
148.5316466732
 21
114.0121052632
  0
LWPOLYLINE
  5
4D2
100
AcDbEntity
  8
RACCORDO
100
AcDbPolyline
 62
253
  6
CONTINUOUS
 90
22
 70
0
 10
148.206717108
 20
64.3472778166
 10
148.2028012841
 20
64.3440518872
 10
148.1989538112
 20
64.3364587051
 10
148.1951746891
 20
64.3245408017
 10
148.1914440434
 20
64.3083639419
 10
148.1877817486
 20
64.288017909
 10
148.1842474282
 20
64.2636170254
 10
148.1808431508
 20
64.2352969831
 10
148.1775668477
 20
64.2032143328
 10
148.1744719369
 20
64.1675480435
 10
148.1715615625
 20
64.1284960266
 10
148.1688325804
 20
64.0862732092
 10
148.1663289757
 20
64.041111936
 10
148.1640544585
 20
63.993261165
 10
148.1620053187
 20
63.9429833382
 10
148.160214411
 20
63.8905523286
 10
148.1586859281
 20
63.8362558467
 10
148.1574156774
 20
63.7803906046
 10
148.1564239358
 20
63.7232583475
 10
148.1557174622
 20
63.6651698339
 10
148.1552894978
 20
63.6064434402
 10
148.1551400425
 20
63.5473996605
  0
LWPOLYLINE
  5
4D3
100
AcDbEntity
  8
RACCORDO
100
AcDbPolyline
 62
253
  6
CONTINUOUS
 90
22
 70
0
 10
148.4059560476
 20
64.1473082776
 10
148.4020606173
 20
64.1448533937
 10
148.3982274351
 20
64.1392090021
 10
148.394456501
 20
64.1303751028
 10
148.3907260568
 20
64.1182680451
 10
148.3870578606
 20
64.1029714797
 10
148.3835171878
 20
64.0847363583
 10
148.3801079465
 20
64.0635164778
 10
148.3768262285
 20
64.0393580413
 10
148.3737255841
 20
64.0126506098
 10
148.3708087868
 20
63.9833483789
 10
148.3680730631
 20
63.9514971529
 10
148.3655636423
 20
63.9176239053
 10
148.363284439
 20
63.8816921517
 10
148.3612315385
 20
63.8437383765
 10
148.3594384267
 20
63.8043990054
 10
148.3579097215
 20
63.7636320491
 10
148.356640805
 20
63.7214794969
 10
148.3556513095
 20
63.6787037426
 10
148.3549477793
 20
63.6355589174
 10
148.3545236702
 20
63.59179089
 10
148.3543789821
 20
63.5473996605
  0
LINE
  5
4D4
100
AcDbEntity
  8
RACCORDO
100
AcDbLine
 62
253
  6
CONTINUOUS
 10
122.9582544787
 20
114.2769022487
 11
122.6321052632
 21
114.2118314669
  0
LWPOLYLINE
  5
4D5
100
AcDbEntity
  8
RACCORDO
100
AcDbPolyline
 62
253
  6
CONTINUOUS
 90
13
 70
0
 10
123.1936955821
 20
115.5464198382
 10
123.1686565939
 20
115.5442075645
 10
123.1440132633
 20
115.5397963566
 10
123.1201548453
 20
115.5332559306
 10
123.0974581636
 20
115.5246896234
 10
123.0762817282
 20
115.514232784
 10
123.0569600564
 20
115.5020506527
 10
123.0397982991
 20
115.4883357033
 10
123.0250674472
 20
115.473304589
 10
123.0130001073
 20
115.4571947584
 10
123.0037868004
 20
115.4402606839
 10
122.99757296
 20
115.4227698393
 10
122.9944566424
 20
115.404998482
  0
LINE
  5
4D6
100
AcDbEntity
  8
RACCORDO
100
AcDbLine
 62
7
  6
CONTINUOUS
 10
122.9033201201
 20
116.2121052632
 11
126.8608904062
 21
116.2121052632
  0
LINE
  5
4D7
100
AcDbEntity
  8
RACCORDO
100
AcDbLine
 62
7
  6
CONTINUOUS
 10
144.5033201201
 20
116.2121052632
 11
148.4608904062
 21
116.2121052632
  0
LWPOLYLINE
  5
4D8
100
AcDbEntity
  8
0
100
AcDbPolyline
 62
7
  6
CONTINUOUS
 90
7
 70
0
 43
0.3500000006
 10
134.8249663696
 20
124.9621016235
 10
133.3249659119
 20
124.9621016235
 10
134.8249663696
 20
127.1049645996
 10
134.8249663696
 20
127.5335335693
 10
134.3963883362
 20
127.9621025391
 10
133.7535348816
 20
127.9621025391
 10
133.3249659119
 20
127.3192490845
  0
LINE
  5
4D9
100
AcDbEntity
  8
RACCORDO
100
AcDbLine
 62
253
  6
CONTINUOUS
 10
148.4059560476
 20
114.2769022487
 11
148.7321052632
 21
114.2118314669
  0
LWPOLYLINE
  5
4DA
100
AcDbEntity
  8
RACCORDO
100
AcDbPolyline
 62
253
  6
CONTINUOUS
 90
13
 70
0
 10
60.0200954354
 20
115.404998482
 10
59.9939153637
 20
115.3773873486
 10
59.9695060818
 20
115.3477701929
 10
59.9468675899
 20
115.3161470149
 10
59.9257411059
 20
115.2821464477
 10
59.9063854119
 20
115.2461398581
 10
59.8895768532
 20
115.2092413468
 10
59.8755523053
 20
115.1714746404
 10
59.8640748929
 20
115.1328160122
 10
59.8552103346
 20
115.0943083834
 10
59.8489805369
 20
115.0562993941
 10
59.8453635934
 20
115.018441404
 10
59.8443595041
 20
114.9807344133
  0
LINE
  5
4DB
100
AcDbEntity
  8
RACCORDO
100
AcDbLine
 62
7
  6
CONTINUOUS
 10
60.5617906526
 20
116.2121052632
 11
59.8961052277
 21
115.5464198382
  0
LINE
  5
4DC
100
AcDbEntity
  8
RACCORDO
100
AcDbLine
 62
253
  6
CONTINUOUS
 10
60.8272022166
 20
116.2121052632
 11
60.0200954354
 21
115.404998482
  0
LWPOLYLINE
  5
4DD
100
AcDbEntity
  8
0
100
AcDbPolyline
 62
7
  6
CONTINUOUS
 90
5
 70
0
 43
0.3500000006
 10
79.5832201538
 20
126.6763865662
 10
79.9403579407
 20
126.8906801147
 10
79.9403579407
 20
127.5335335693
 10
79.5832201538
 20
127.9621025391
 10
78.7260731506
 20
127.9621025391
  0
LINE
  5
4DE
100
AcDbEntity
  8
RACCORDO
100
AcDbLine
 62
7
  6
CONTINUOUS
 10
59.8961052277
 20
62.8777906881
 11
60.5617906526
 21
62.2121052632
  0
LINE
  5
4DF
100
AcDbEntity
  8
RACCORDO
100
AcDbLine
 62
253
  6
CONTINUOUS
 10
60.0200954354
 20
63.0192120443
 11
60.8272022166
 21
62.2121052632
  0
LINE
  5
4E0
100
AcDbEntity
  8
RACCORDO
100
AcDbLine
 62
7
  6
CONTINUOUS
 10
64.1617906526
 20
63.2121052632
 11
101.1705168559
 21
63.8580949819
  0
LINE
  5
4E1
100
AcDbEntity
  8
RACCORDO
100
AcDbLine
 62
253
  6
CONTINUOUS
 10
64.1617906526
 20
63.7120291107
 11
101.1705168559
 21
64.3580188295
  0
LINE
  5
4E2
100
AcDbEntity
  8
RACCORDO
100
AcDbLine
 62
7
  6
CONTINUOUS
 10
61.0617906526
 20
62.2121052632
 11
60.5617906526
 21
62.2121052632
  0
LINE
  5
4E3
100
AcDbEntity
  8
DRAFT
100
AcDbLine
 62
7
  6
CONTINUOUS
 10
61.0617906526
 20
63.2121052632
 11
64.1617906526
 21
63.2121052632
  0
LINE
  5
4E4
100
AcDbEntity
  8
RACCORDO
100
AcDbLine
 62
253
  6
CONTINUOUS
 10
59.8443595041
 20
63.4434761131
 11
59.6617906526
 21
63.4434761144
  0
LINE
  5
4E5
100
AcDbEntity
  8
RACCORDO
100
AcDbLine
 62
253
  6
CONTINUOUS
 10
59.8443595041
 20
63.5473996605
 11
59.6617906526
 21
63.5473996605
  0
LINE
  5
4E6
100
AcDbEntity
  8
RACCORDO
100
AcDbLine
 62
253
  6
CONTINUOUS
 10
101.6617906526
 20
64.3580188295
 11
101.1705168559
 21
64.3580188291
  0
LWPOLYLINE
  5
4E7
100
AcDbEntity
  8
RACCORDO
100
AcDbPolyline
 62
253
  6
CONTINUOUS
 90
22
 70
0
 10
60.4338880602
 20
64.1473082776
 10
60.3893630878
 20
64.1448533937
 10
60.345549615
 20
64.1392090021
 10
60.3024476417
 20
64.1303751028
 10
60.2598084684
 20
64.1182680451
 10
60.2178807947
 20
64.1029714797
 10
60.1774107189
 20
64.0847363583
 10
60.1384429127
 20
64.0635164778
 10
60.1009327044
 20
64.0393580413
 10
60.0654921763
 20
64.0126506098
 10
60.0321530312
 20
63.9833483789
 10
60.0008835663
 20
63.9514971529
 10
59.9722007555
 20
63.9176239053
 10
59.9461493418
 20
63.8816921517
 10
59.9226845821
 20
63.8437383765
 10
59.9021892209
 20
63.8043990054
 10
59.8847160401
 20
63.7636320491
 10
59.8702122578
 20
63.7214794969
 10
59.8589022731
 20
63.6787037426
 10
59.8508608858
 20
63.6355589174
 10
59.8460132961
 20
63.59179089
 10
59.8443595041
 20
63.5473996605
  0
LINE
  5
4E8
100
AcDbEntity
  8
RACCORDO
100
AcDbLine
 62
253
  6
CONTINUOUS
 10
64.1617906526
 20
64.2123790594
 11
60.4338880602
 21
64.1473082776
  0
LINE
  5
4E9
100
AcDbEntity
  8
RACCORDO
100
AcDbLine
 62
7
  6
CONTINUOUS
 10
64.1617906526
 20
64.4121052632
 11
60.4478287275
 21
64.3472778166
  0
LWPOLYLINE
  5
4EA
100
AcDbEntity
  8
RACCORDO
100
AcDbPolyline
 62
253
  6
CONTINUOUS
 90
13
 70
0
 10
59.8443595041
 20
63.4434761131
 10
59.8452400064
 20
63.4065888511
 10
59.8487437357
 20
63.3693178538
 10
59.8548706921
 20
63.3316631212
 10
59.8636484883
 20
63.2931905607
 10
59.8750495115
 20
63.2543342649
 10
59.8889909239
 20
63.2163965112
 10
59.9056572037
 20
63.1794947953
 10
59.9248638726
 20
63.1435116216
 10
59.9459746575
 20
63.1093967806
 10
59.9687774675
 20
63.0774668691
 10
59.9934843934
 20
63.0474052904
 10
60.0200954354
 20
63.0192120443
  0
LWPOLYLINE
  5
4EB
100
AcDbEntity
  8
RACCORDO
100
AcDbPolyline
 62
253
  6
CONTINUOUS
 90
13
 70
0
 10
60.4338880602
 20
64.1473082776
 10
60.4335852091
 20
64.1733828091
 10
60.4335851681
 20
64.1990124286
 10
60.4338879493
 20
64.2237594734
 10
60.4344883938
 20
64.2472013307
 10
60.4353762589
 20
64.2689376375
 10
60.4365363921
 20
64.2885971248
 10
60.4379489924
 20
64.3058440068
 10
60.4395899432
 20
64.320383633
 10
60.4414312191
 20
64.3319675522
 10
60.443441375
 20
64.3403978565
 10
60.4455860865
 20
64.3455305212
 10
60.447828727
 20
64.3472778166
  0
LINE
  5
4EC
100
AcDbEntity
  8
RACCORDO
100
AcDbLine
 62
7
  6
CONTINUOUS
 10
59.6617906526
 20
114.9807344133
 11
59.6617906526
 21
114.8768108658
  0
LINE
  5
4ED
100
AcDbEntity
  8
RACCORDO
100
AcDbLine
 62
7
  6
CONTINUOUS
 10
59.6617906526
 20
63.5473996605
 11
59.6617906526
 21
63.4434761131
  0
LINE
  5
4EE
100
AcDbEntity
  8
RACCORDO
100
AcDbLine
 62
253
  6
CONTINUOUS
 10
59.8443595041
 20
114.9807344133
 11
59.8443595041
 21
114.8768108658
  0
LINE
  5
4EF
100
AcDbEntity
  8
RACCORDO
100
AcDbLine
 62
253
  6
CONTINUOUS
 10
59.8443595041
 20
63.5473996605
 11
59.8443595041
 21
63.4434761131
  0
LWPOLYLINE
  5
4F0
100
AcDbEntity
  8
RACCORDO
100
AcDbPolyline
 62
253
  6
CONTINUOUS
 90
13
 70
0
 10
60.4338880602
 20
114.2769022487
 10
60.4335851942
 20
114.2508260871
 10
60.4335851755
 20
114.2251952333
 10
60.4338880045
 20
114.2004473907
 10
60.4344885098
 20
114.1770051832
 10
60.4353764362
 20
114.1552689382
 10
60.4365366206
 20
114.1356098498
 10
60.4379492503
 20
114.1183636404
 10
60.4395902014
 20
114.1038248269
 10
60.4414314513
 20
114.0922416918
 10
60.4434415565
 20
114.0838120424
 10
60.44558619
 20
114.0786798338
 10
60.4478287275
 20
114.0769327097
  0
LWPOLYLINE
  5
4F1
100
AcDbEntity
  8
RACCORDO
100
AcDbPolyline
 62
253
  6
CONTINUOUS
 90
22
 70
0
 10
59.8443595041
 20
114.8768108658
 10
59.8460132959
 20
114.8324196362
 10
59.8508608854
 20
114.7886516088
 10
59.8589022727
 20
114.7455067836
 10
59.8702122575
 20
114.7027310293
 10
59.88471604
 20
114.6605784772
 10
59.902189221
 20
114.619811521
 10
59.9226845822
 20
114.5804721499
 10
59.9461493418
 20
114.5425183746
 10
59.9722007555
 20
114.5065866211
 10
60.0008835663
 20
114.4727133734
 10
60.0321530312
 20
114.4408621474
 10
60.0654921762
 20
114.4115599165
 10
60.1009327044
 20
114.384852485
 10
60.1384429128
 20
114.3606940486
 10
60.1774107189
 20
114.3394741682
 10
60.2178807948
 20
114.3212390466
 10
60.2598084684
 20
114.3059424809
 10
60.3024476416
 20
114.2938354231
 10
60.3455496149
 20
114.2850015238
 10
60.3893630878
 20
114.2793571323
 10
60.4338880602
 20
114.2769022487
  0
LINE
  5
4F2
100
AcDbEntity
  8
DRAFT
100
AcDbLine
 62
7
  6
CONTINUOUS
 10
61.0617906526
 20
116.2121052632
 11
61.0617906526
 21
115.2121052632
  0
LINE
  5
4F3
100
AcDbEntity
  8
DRAFT
100
AcDbLine
 62
7
  6
CONTINUOUS
 10
61.0617906526
 20
63.2121052632
 11
61.0617906526
 21
62.2121052632
  0
LINE
  5
4F4
100
AcDbEntity
  8
RACCORDO
100
AcDbLine
 62
7
  6
CONTINUOUS
 10
64.1617906526
 20
63.2121052632
 11
64.1617906526
 21
115.2121052632
  0
LWPOLYLINE
  5
4F5
100
AcDbEntity
  8
0
100
AcDbPolyline
 62
7
  6
CONTINUOUS
 90
3
 70
0
 43
0.3500000006
 10
81.797505249
 20
135.2478112793
 10
81.7260740662
 20
135.0335267944
 10
81.5832207642
 20
134.7478201904
  0
LWPOLYLINE
  5
4F6
100
AcDbEntity
  8
0
100
AcDbPolyline
 62
7
  6
CONTINUOUS
 90
3
 70
0
 43
0.3500000006
 10
83.9403591614
 20
125.2478172913
 10
83.8689370422
 20
125.0335328064
 10
83.7260746765
 20
124.7478171387
  0
LWPOLYLINE
  5
4F7
100
AcDbEntity
  8
0
100
AcDbPolyline
 62
7
  6
CONTINUOUS
 90
2
 70
0
 43
0.3500000006
 10
77.3689350586
 20
134.9621046753
 10
77.3689350586
 20
136.4621141968
  0
LWPOLYLINE
  5
4F8
100
AcDbEntity
  8
0
100
AcDbPolyline
 62
7
  6
CONTINUOUS
 90
4
 70
0
 43
0.3500000006
 10
80.8689361267
 20
127.3192490845
 10
80.8689361267
 20
127.9621025391
 10
82.3689365845
 20
127.9621025391
 10
81.5117895813
 20
124.9621016235
  0
LWPOLYLINE
  5
4F9
100
AcDbEntity
  8
0
100
AcDbPolyline
 62
7
  6
CONTINUOUS
 90
4
 70
0
 43
0.3500000006
 10
84.9403594666
 20
127.3192490845
 10
84.9403594666
 20
127.9621025391
 10
86.4403599243
 20
127.9621025391
 10
85.5832219849
 20
124.9621016235
  0
LWPOLYLINE
  5
4FA
100
AcDbEntity
  8
RACCORDO
100
AcDbPolyline
 62
253
  6
CONTINUOUS
 90
13
 70
0
 10
60.0200954354
 20
63.0192120443
 10
60.0025959054
 20
63.0014398527
 10
59.9856481029
 20
62.9839483716
 10
59.9695197174
 20
62.9670138777
 10
59.9544654954
 20
62.9509038502
 10
59.9407232174
 20
62.9358727457
 10
59.9285099416
 20
62.9221579794
 10
59.9180185758
 20
62.9099761752
 10
59.9094148306
 20
62.8995197438
 10
59.9028346014
 20
62.8909538437
 10
59.8983818226
 20
62.8844137726
 10
59.8961268255
 20
62.8800028306
 10
59.8961052277
 20
62.8777906881
  0
LWPOLYLINE
  5
4FB
100
AcDbEntity
  8
RACCORDO
100
AcDbPolyline
 62
253
  6
CONTINUOUS
 90
13
 70
0
 10
60.0200954354
 20
115.404998482
 10
60.0025967428
 20
115.4227698078
 10
59.9856495543
 20
115.4402606283
 10
59.969521548
 20
115.457194687
 10
59.9544674739
 20
115.4733045104
 10
59.940725137
 20
115.4883356254
 10
59.9285116375
 20
115.5020505818
 10
59.9180199217
 20
115.5142327254
 10
59.9094157683
 20
115.5246895802
 10
59.9028351537
 20
115.5332559028
 10
59.8983820634
 20
115.5397963423
 10
59.8961268677
 20
115.5442075604
 10
59.896105229
 20
115.5464198395
  0
LINE
  5
4FC
100
AcDbEntity
  8
0
100
AcDbLine
 62
7
  6
CONTINUOUS
 10
101.6617906526
 20
103.0121052632
 11
101.8617906526
 21
103.0121052632
  0
LINE
  5
4FD
100
AcDbEntity
  8
0
100
AcDbLine
 62
7
  6
CONTINUOUS
 10
101.6617906526
 20
103.0504031343
 11
101.8617906526
 21
103.0504031343
  0
LINE
  5
4FE
100
AcDbEntity
  8
0
100
AcDbLine
 62
7
  6
CONTINUOUS
 10
101.6617906526
 20
103.1269988799
 11
101.8617906526
 21
103.1269988799
  0
LINE
  5
4FF
100
AcDbEntity
  8
0
100
AcDbLine
 62
7
  6
CONTINUOUS
 10
101.6617906526
 20
103.2801903644
 11
101.8617906526
 21
103.2801903644
  0
LINE
  5
500
100
AcDbEntity
  8
0
100
AcDbLine
 62
7
  6
CONTINUOUS
 10
101.6617906526
 20
103.4333818623
 11
101.8617906526
 21
103.4333818623
  0
LINE
  5
501
100
AcDbEntity
  8
0
100
AcDbLine
 62
7
  6
CONTINUOUS
 10
101.6617906526
 20
103.6248712012
 11
101.8617906526
 21
103.6248712012
  0
LINE
  5
502
100
AcDbEntity
  8
0
100
AcDbLine
 62
7
  6
CONTINUOUS
 10
101.6617906526
 20
104.1993392715
 11
101.8617906526
 21
104.1993392715
  0
LINE
  5
503
100
AcDbEntity
  8
0
100
AcDbLine
 62
7
  6
CONTINUOUS
 10
101.6617906526
 20
104.3908287176
 11
101.8617906526
 21
104.3908287176
  0
LINE
  5
504
100
AcDbEntity
  8
0
100
AcDbLine
 62
7
  6
CONTINUOUS
 10
101.6617906526
 20
104.5440201887
 11
101.8617906526
 21
104.5440201887
  0
LINE
  5
505
100
AcDbEntity
  8
0
100
AcDbLine
 62
7
  6
CONTINUOUS
 10
101.6617906526
 20
104.6972116598
 11
101.8617906526
 21
104.6972116598
  0
LINE
  5
506
100
AcDbEntity
  8
0
100
AcDbLine
 62
7
  6
CONTINUOUS
 10
101.6617906526
 20
104.7738073954
 11
101.8617906526
 21
104.7738073954
  0
LINE
  5
507
100
AcDbEntity
  8
0
100
AcDbLine
 62
7
  6
CONTINUOUS
 10
101.6617906526
 20
104.8121052632
 11
101.8617906526
 21
104.8121052632
  0
LINE
  5
508
100
AcDbEntity
  8
0
100
AcDbLine
 62
7
  6
CONTINUOUS
 10
101.6617906526
 20
105.6121052632
 11
101.8617906526
 21
105.6121052632
  0
LINE
  5
509
100
AcDbEntity
  8
0
100
AcDbLine
 62
7
  6
CONTINUOUS
 10
101.6617906526
 20
106.8376371392
 11
101.8617906526
 21
106.8376371392
  0
LINE
  5
50A
100
AcDbEntity
  8
0
100
AcDbLine
 62
7
  6
CONTINUOUS
 10
101.6617906526
 20
107.1440201887
 11
101.8617906526
 21
107.1440201887
  0
LINE
  5
50B
100
AcDbEntity
  8
0
100
AcDbLine
 62
7
  6
CONTINUOUS
 10
101.6617906526
 20
107.4121052632
 11
101.8617906526
 21
107.4121052632
  0
LINE
  5
50C
100
AcDbEntity
  8
RACCORDO
100
AcDbLine
 62
253
  6
CONTINUOUS
 10
101.1705168559
 20
64.3580188295
 11
101.1724770243
 21
64.2286535243
  0
LINE
  5
50D
100
AcDbEntity
  8
RACCORDO
100
AcDbLine
 62
253
  6
CONTINUOUS
 10
101.1724770243
 20
64.2286535243
 11
101.1737092151
 21
64.1081008519
  0
LINE
  5
50E
100
AcDbEntity
  8
RACCORDO
100
AcDbLine
 62
253
  6
CONTINUOUS
 10
101.1737092151
 20
64.1081008519
 11
101.1740825538
 21
64.0367258049
  0
LINE
  5
50F
100
AcDbEntity
  8
RACCORDO
100
AcDbLine
 62
253
  6
CONTINUOUS
 10
101.1739421065
 20
114.4756519768
 11
101.1741294886
 21
114.4196374161
  0
LINE
  5
510
100
AcDbEntity
  8
RACCORDO
100
AcDbLine
 62
253
  6
CONTINUOUS
 10
101.1705168559
 20
114.0661916968
 11
101.1705168559
 21
64.3580188295
  0
LWPOLYLINE
  5
511
100
AcDbEntity
  8
RACCORDO
100
AcDbPolyline
 62
253
  6
CONTINUOUS
 90
10
 70
0
 10
101.1740825538
 20
64.0367258049
 10
101.1740825538
 20
63.975109308
 10
101.1739421065
 20
63.9485585494
 10
101.1737092151
 20
63.9251228231
 10
101.1733856514
 20
63.90498042
 10
101.1729738769
 20
63.8882845766
 10
101.1724770243
 20
63.8751623091
 10
101.1718988736
 20
63.8657134472
 10
101.1712438229
 20
63.8600098745
 10
101.1705168559
 20
63.8580949819
  0
LINE
  5
512
100
AcDbEntity
  8
RACCORDO
100
AcDbLine
 62
253
  6
CONTINUOUS
 10
101.1741294886
 20
114.4196374161
 11
101.1739421065
 21
114.35288774
  0
LINE
  5
513
100
AcDbEntity
  8
RACCORDO
100
AcDbLine
 62
253
  6
CONTINUOUS
 10
101.1739421065
 20
114.35288774
 11
101.1729738769
 21
114.2371439331
  0
LWPOLYLINE
  5
514
100
AcDbEntity
  8
RACCORDO
100
AcDbPolyline
 62
253
  6
CONTINUOUS
 90
3
 70
0
 10
101.1729738769
 20
114.2371439331
 10
101.1712438229
 20
114.1097545057
 10
101.1705168559
 20
114.0661916968
  0
LWPOLYLINE
  5
515
100
AcDbEntity
  8
0
100
AcDbPolyline
 62
7
  6
CONTINUOUS
 90
10
 70
0
 43
0.3500000006
 10
83.8689370422
 20
125.4621017761
 10
83.9403591614
 20
125.3192484741
 10
83.9403591614
 20
125.2478172913
 10
83.7975058594
 20
125.1049639893
 10
83.7260746765
 20
125.1049639893
 10
83.6546434937
 20
125.1763951721
 10
83.6546434937
 20
125.2478172913
 10
83.7260746765
 20
125.390679657
 10
83.7975058594
 20
125.4621017761
 10
83.8689370422
 20
125.4621017761
  0
LINE
  5
516
100
AcDbEntity
  8
RACCORDO
100
AcDbLine
 62
7
  6
CONTINUOUS
 10
101.6617906526
 20
114.0661916968
 11
101.6617906526
 21
64.3580188295
  0
LINE
  5
517
100
AcDbEntity
  8
0
100
AcDbLine
 62
7
  6
CONTINUOUS
 10
101.8617906526
 20
107.4121052632
 11
101.8617906526
 21
105.6121052632
  0
LINE
  5
518
100
AcDbEntity
  8
0
100
AcDbLine
 62
7
  6
CONTINUOUS
 10
101.8617906526
 20
104.8121052632
 11
101.8617906526
 21
103.0121052632
  0
LWPOLYLINE
  5
519
100
AcDbEntity
  8
0
100
AcDbPolyline
 62
7
  6
CONTINUOUS
 90
10
 70
0
 43
0.3500000006
 10
81.7260740662
 20
135.4621138916
 10
81.797505249
 20
135.3192515259
 10
81.797505249
 20
135.2478112793
 10
81.654651947
 20
135.104967041
 10
81.5832207642
 20
135.104967041
 10
81.5117895813
 20
135.1763891602
 10
81.5117895813
 20
135.2478112793
 10
81.5832207642
 20
135.390673645
 10
81.654651947
 20
135.4621138916
 10
81.7260740662
 20
135.4621138916
  0
LINE
  5
51A
100
AcDbEntity
  8
RACCORDO
100
AcDbLine
 62
253
  6
CONTINUOUS
 10
101.6617906526
 20
114.0661916968
 11
101.1705168559
 21
114.0661916968
  0
LINE
  5
51B
100
AcDbEntity
  8
RACCORDO
100
AcDbLine
 62
7
  6
CONTINUOUS
 10
60.4478287275
 20
114.0769327097
 11
64.1617906526
 21
114.0121052632
  0
LINE
  5
51C
100
AcDbEntity
  8
RACCORDO
100
AcDbLine
 62
253
  6
CONTINUOUS
 10
60.4338880602
 20
114.2769022487
 11
64.1617906526
 21
114.2118314669
  0
LINE
  5
51D
100
AcDbEntity
  8
RACCORDO
100
AcDbLine
 62
253
  6
CONTINUOUS
 10
64.1617906526
 20
114.7121814156
 11
101.1705168559
 21
114.0661916968
  0
LINE
  5
51E
100
AcDbEntity
  8
RACCORDO
100
AcDbLine
 62
253
  6
CONTINUOUS
 10
59.8443595041
 20
114.8768108658
 11
59.6617906526
 21
114.8768108688
  0
LINE
  5
51F
100
AcDbEntity
  8
RACCORDO
100
AcDbLine
 62
253
  6
CONTINUOUS
 10
59.8443595041
 20
114.9807344133
 11
59.6617906526
 21
114.9807344133
  0
LINE
  5
520
100
AcDbEntity
  8
DRAFT
100
AcDbLine
 62
7
  6
CONTINUOUS
 10
61.0617906526
 20
115.2121052632
 11
64.1617906526
 21
115.2121052632
  0
LINE
  5
521
100
AcDbEntity
  8
RACCORDO
100
AcDbLine
 62
7
  6
CONTINUOUS
 10
60.5617906526
 20
116.2121052632
 11
61.0617906526
 21
116.2121052632
  0
LINE
  5
522
100
AcDbEntity
  8
RACCORDO
100
AcDbLine
 62
7
  6
CONTINUOUS
 10
64.1617906526
 20
115.2121052632
 11
101.1705168559
 21
114.5661155444
  0
LWPOLYLINE
  5
523
100
AcDbEntity
  8
RACCORDO
100
AcDbPolyline
 62
253
  6
CONTINUOUS
 90
8
 70
0
 10
101.1705168559
 20
114.5661155444
 10
101.1712438229
 20
114.5642006518
 10
101.1718988736
 20
114.5584970791
 10
101.1724770243
 20
114.5490482172
 10
101.1729738769
 20
114.5359259496
 10
101.1733856514
 20
114.5192301062
 10
101.1737092151
 20
114.4990877032
 10
101.1739421065
 20
114.4756519768
  0
LWPOLYLINE
  5
524
100
AcDbEntity
  8
0
100
AcDbPolyline
 62
7
  6
CONTINUOUS
 90
6
 70
0
 43
0.3500000006
 10
78.7260731506
 20
124.9621016235
 10
79.7975046387
 20
124.9621016235
 10
80.0117891235
 20
125.1763951721
 10
80.0117891235
 20
126.2478175964
 10
79.5832201538
 20
126.6763865662
 10
79.1546511841
 20
126.6763865662
  0
LWPOLYLINE
  5
525
100
AcDbEntity
  8
0
100
AcDbPolyline
 62
7
  6
CONTINUOUS
 90
7
 70
0
 43
0.3500000006
 10
84.297506012
 20
134.9621046753
 10
82.7975055542
 20
134.9621046753
 10
84.297506012
 20
137.1049676514
 10
84.297506012
 20
137.5335366211
 10
83.8689370422
 20
137.9621055908
 10
83.2260745239
 20
137.9621055908
 10
82.7975055542
 20
137.3192521362
  0
LWPOLYLINE
  5
526
100
AcDbEntity
  8
0
100
AcDbPolyline
 62
7
  6
CONTINUOUS
 90
7
 70
0
 43
0.3500000006
 10
80.2260736084
 20
134.9621046753
 10
78.7260731506
 20
134.9621046753
 10
80.2260736084
 20
137.1049676514
 10
80.2260736084
 20
137.5335366211
 10
79.7975046387
 20
137.9621055908
 10
79.1546511841
 20
137.9621055908
 10
78.7260731506
 20
137.3192521362
  0
LWPOLYLINE
  5
527
100
AcDbEntity
  8
0
100
AcDbPolyline
 62
7
  6
CONTINUOUS
 90
3
 70
0
 43
0.3500000006
 10
77.8689352112
 20
135.6049581299
 10
76.3689347534
 20
135.6049581299
 10
77.011788208
 20
137.9621055908
  0
ARC
  5
528
100
AcDbEntity
  8
DRAFT
100
AcDbCircle
 62
7
  6
CONTINUOUS
 10
135.6821052632
 20
89.2121052632
 40
10.0
100
AcDbArc
 50
185.7391704773
 51
264.2608295227
  0
ARC
  5
529
100
AcDbEntity
  8
DRAFT
100
AcDbCircle
 62
7
  6
CONTINUOUS
 10
135.6821052632
 20
89.2121052632
 40
10.0
100
AcDbArc
 50
275.7391704773
 51
354.2608295227
  0
ARC
  5
52A
100
AcDbEntity
  8
DRAFT
100
AcDbCircle
 62
7
  6
CONTINUOUS
 10
135.6821052632
 20
89.2121052632
 40
10.0
100
AcDbArc
 50
5.7391704773
 51
84.2608295227
  0
ARC
  5
52B
100
AcDbEntity
  8
DRAFT
100
AcDbCircle
 62
7
  6
CONTINUOUS
 10
135.6821052632
 20
89.2121052632
 40
10.0
100
AcDbArc
 50
95.7391704773
 51
174.2608295227
  0
ARC
  5
52C
100
AcDbEntity
  8
DRAFT
100
AcDbCircle
 62
7
  6
CONTINUOUS
 10
135.6821052632
 20
89.2121052632
 40
9.2
100
AcDbArc
 50
186.2401310983
 51
263.7598689017
  0
ARC
  5
52D
100
AcDbEntity
  8
DRAFT
100
AcDbCircle
 62
7
  6
CONTINUOUS
 10
135.6821052632
 20
89.2121052632
 40
9.2
100
AcDbArc
 50
276.2401310983
 51
353.7598689017
  0
ARC
  5
52E
100
AcDbEntity
  8
DRAFT
100
AcDbCircle
 62
7
  6
CONTINUOUS
 10
135.6821052632
 20
89.2121052632
 40
9.2
100
AcDbArc
 50
6.2401310983
 51
83.7598689017
  0
ARC
  5
52F
100
AcDbEntity
  8
DRAFT
100
AcDbCircle
 62
7
  6
CONTINUOUS
 10
135.6821052632
 20
89.2121052632
 40
9.2
100
AcDbArc
 50
96.2401310983
 51
173.7598689017
  0
ARC
  5
530
100
AcDbEntity
  8
DRAFT
100
AcDbCircle
 62
7
  6
CONTINUOUS
 10
135.6821052632
 20
89.2121052632
 40
7.5
100
AcDbArc
 50
275.7391704773
 51
354.2608295227
  0
ARC
  5
531
100
AcDbEntity
  8
DRAFT
100
AcDbCircle
 62
7
  6
CONTINUOUS
 10
135.6821052632
 20
89.2121052632
 40
7.5
100
AcDbArc
 50
185.7391704773
 51
264.2608295227
  0
ARC
  5
532
100
AcDbEntity
  8
DRAFT
100
AcDbCircle
 62
7
  6
CONTINUOUS
 10
135.6821052632
 20
89.2121052632
 40
7.5
100
AcDbArc
 50
5.7391704773
 51
84.2608295227
  0
ARC
  5
533
100
AcDbEntity
  8
DRAFT
100
AcDbCircle
 62
7
  6
CONTINUOUS
 10
135.6821052632
 20
89.2121052632
 40
7.5
100
AcDbArc
 50
95.7391704773
 51
174.2608295227
  0
ARC
  5
534
100
AcDbEntity
  8
DRAFT
100
AcDbCircle
 62
7
  6
CONTINUOUS
 10
135.6821052632
 20
89.2121052632
 40
6.7
100
AcDbArc
 50
276.4271773909
 51
353.5728226091
  0
ARC
  5
535
100
AcDbEntity
  8
DRAFT
100
AcDbCircle
 62
7
  6
CONTINUOUS
 10
135.6821052632
 20
89.2121052632
 40
6.7
100
AcDbArc
 50
186.4271773909
 51
263.5728226091
  0
ARC
  5
536
100
AcDbEntity
  8
DRAFT
100
AcDbCircle
 62
7
  6
CONTINUOUS
 10
135.6821052632
 20
89.2121052632
 40
6.7
100
AcDbArc
 50
6.4271773909
 51
83.5728226091
  0
ARC
  5
537
100
AcDbEntity
  8
DRAFT
100
AcDbCircle
 62
7
  6
CONTINUOUS
 10
135.6821052632
 20
89.2121052632
 40
6.7
100
AcDbArc
 50
96.4271773909
 51
173.5728226091
  0
ARC
  5
538
100
AcDbEntity
  8
ASSI
100
AcDbCircle
 62
7
  6
CONTINUOUS
 10
144.1821052632
 20
71.2121052632
 40
2.6237424326
100
AcDbArc
 50
292.0885384099
 51
273.4297309886
  0
ARC
  5
539
100
AcDbEntity
  8
ASSI
100
AcDbCircle
 62
7
  6
CONTINUOUS
 10
139.0996612632
 20
71.2121052632
 40
2.5499986575
100
AcDbArc
 50
87.752528914
 51
272.2474707913
  0
ARC
  5
53A
100
AcDbEntity
  8
ASSI
100
AcDbCircle
 62
7
  6
CONTINUOUS
 10
134.7145512632
 20
71.2121052632
 40
2.5499985399
100
AcDbArc
 50
87.7525290943
 51
272.2474708946
  0
ARC
  5
53B
100
AcDbEntity
  8
ASSI
100
AcDbCircle
 62
7
  6
CONTINUOUS
 10
144.1027482632
 20
66.2660122632
 40
2.3390187052
100
AcDbArc
 50
47.2312712626
 51
84.2012797514
  0
ARC
  5
53C
100
AcDbEntity
  8
ASSI
100
AcDbCircle
 62
7
  6
CONTINUOUS
 10
144.2868272632
 20
66.6448812632
 40
2.3109495123
100
AcDbArc
 50
45.4348886633
 51
67.565862588
  0
CIRCLE
  5
53D
100
AcDbEntity
  8
ASSI
100
AcDbCircle
 62
7
  6
CONTINUOUS
 10
144.1821052632
 20
71.2121052632
 40
2.20376
  0
ARC
  5
53E
100
AcDbEntity
  8
ASSI
100
AcDbCircle
 62
7
  6
CONTINUOUS
 10
144.1821052632
 20
71.2121052632
 40
1.9709567246
100
AcDbArc
 50
299.3041457634
 51
44.9957848417
  0
ARC
  5
53F
100
AcDbEntity
  8
ASSI
100
AcDbCircle
 62
7
  6
CONTINUOUS
 10
144.1821052632
 20
71.2121052632
 40
1.9709563643
100
AcDbArc
 50
134.9002846268
 51
240.6958542366
  0
ARC
  5
540
100
AcDbEntity
  8
ASSI
100
AcDbCircle
 62
7
  6
CONTINUOUS
 10
139.0996612632
 20
71.2121052632
 40
1.7999999246
100
AcDbArc
 50
86.8152613297
 51
167.975299864
  0
ARC
  5
541
100
AcDbEntity
  8
ASSI
100
AcDbCircle
 62
7
  6
CONTINUOUS
 10
134.7145512632
 20
71.2121052632
 40
1.7999999246
100
AcDbArc
 50
86.8152613297
 51
273.1847386475
  0
ARC
  5
542
100
AcDbEntity
  8
ASSI
100
AcDbCircle
 62
7
  6
CONTINUOUS
 10
139.0996612632
 20
71.2121052632
 40
1.7999968808
100
AcDbArc
 50
192.0247203293
 51
273.1847446393
  0
ARC
  5
543
100
AcDbEntity
  8
ASSI
100
AcDbCircle
 62
7
  6
CONTINUOUS
 10
144.1821052632
 20
71.2121052632
 40
1.5790921275
100
AcDbArc
 50
148.0267086216
 51
240.6958772397
  0
ARC
  5
544
100
AcDbEntity
  8
ASSI
100
AcDbCircle
 62
7
  6
CONTINUOUS
 10
144.1821052632
 20
71.2121052632
 40
1.5790919977
100
AcDbArc
 50
299.3041227603
 51
31.9732906925
  0
ARC
  5
545
100
AcDbEntity
  8
ASSI
100
AcDbCircle
 62
7
  6
CONTINUOUS
 10
140.9818162632
 20
109.7228622632
 40
0.8893898871
100
AcDbArc
 50
292.8428679257
 51
89.9991191359
  0
ARC
  5
546
100
AcDbEntity
  8
ASSI
100
AcDbCircle
 62
7
  6
CONTINUOUS
 10
140.9013102632
 20
109.7228622632
 40
0.352865
100
AcDbArc
 50
270.0018417375
 51
90.0009208609
  0
ARC
  5
547
100
AcDbEntity
  8
RACCORDO
100
AcDbCircle
 62
7
  6
CONTINUOUS
 10
60.4617906526
 20
63.5473996605
 40
0.8
100
AcDbArc
 50
91.0
 51
180.0
  0
ARC
  5
548
100
AcDbEntity
  8
RACCORDO
100
AcDbCircle
 62
7
  6
CONTINUOUS
 10
60.4617906526
 20
114.8768108658
 40
0.8
100
AcDbArc
 50
180.0
 51
269.0
  0
ARC
  5
549
100
AcDbEntity
  8
RACCORDO
100
AcDbCircle
 62
7
  6
CONTINUOUS
 10
60.4617906526
 20
63.4434761131
 40
0.8
100
AcDbArc
 50
180.0
 51
225.0
  0
ARC
  5
54A
100
AcDbEntity
  8
RACCORDO
100
AcDbCircle
 62
7
  6
CONTINUOUS
 10
60.4617906526
 20
114.9807344133
 40
0.8
100
AcDbArc
 50
135.0
 51
180.0
  0
ARC
  5
54B
100
AcDbEntity
  8
RACCORDO
100
AcDbCircle
 62
7
  6
CONTINUOUS
 10
101.1617906526
 20
114.0661916968
 40
0.5
100
AcDbArc
 50
0.0
 51
88.9999999984
  0
ARC
  5
54C
100
AcDbEntity
  8
RACCORDO
100
AcDbCircle
 62
7
  6
CONTINUOUS
 10
101.1617906526
 20
64.3580188295
 40
0.5
100
AcDbArc
 50
271.0
 51
360.0
  0
ELLIPSE
  5
54D
100
AcDbEntity
  8
RACCORDO
100
AcDbEllipse
 62
7
  6
CONTINUOUS
 10
121.6821814272
 20
63.7121814272
 30
0.0
 11
0.3536610946
 21
0.3536610946
 31
0.0
 40
0.9996954599
 41
2.3563467834
 42
3.9268385237
  0
ELLIPSE
  5
54E
100
AcDbEntity
  8
RACCORDO
100
AcDbEllipse
 62
7
  6
CONTINUOUS
 10
121.6821814272
 20
114.7120290991
 30
0.0
 11
0.3536610946
 21
-0.3536610946
 31
0.0
 40
0.9996954599
 41
2.3563467834
 42
3.9268385237
  0
ELLIPSE
  5
54F
100
AcDbEntity
  8
RACCORDO
100
AcDbEllipse
 62
7
  6
CONTINUOUS
 10
149.6820290991
 20
114.7120290991
 30
0.0
 11
-0.3536610946
 21
-0.3536610946
 31
0.0
 40
0.9996954599
 41
2.3563467834
 42
3.9268385237
  0
ELLIPSE
  5
550
100
AcDbEntity
  8
RACCORDO
100
AcDbEllipse
 62
7
  6
CONTINUOUS
 10
149.6820290991
 20
63.7121814272
 30
0.0
 11
-0.3536610946
 21
0.3536610946
 31
0.0
 40
0.9996954599
 41
2.3563467834
 42
3.9268385237
  0
ELLIPSE
  5
551
100
AcDbEntity
  8
RACCORDO
100
AcDbEllipse
 62
7
  6
CONTINUOUS
 10
135.6821052632
 20
64.8711734708
 30
0.0
 11
10.0
 21
0.0
 31
0.0
 40
0.0174550649
 41
-1.4296714465
 42
-0.0
  0
ELLIPSE
  5
552
100
AcDbEntity
  8
RACCORDO
100
AcDbEllipse
 62
7
  6
CONTINUOUS
 10
135.6821052632
 20
64.8687438635
 30
0.0
 11
9.2
 21
0.0
 31
0.0
 40
0.0174550649
 41
-1.3966246734
 42
-0.0
  0
ELLIPSE
  5
553
100
AcDbEntity
  8
RACCORDO
100
AcDbEllipse
 62
7
  6
CONTINUOUS
 10
135.6821052632
 20
112.5092470652
 30
0.0
 11
7.5
 21
-0.0
 31
0.0
 40
0.0174550649
 41
1.7529525087
 42
3.1415926536
  0
ELLIPSE
  5
554
100
AcDbEntity
  8
RACCORDO
100
AcDbEllipse
 62
7
  6
CONTINUOUS
 10
135.6821052632
 20
112.512377196
 30
0.0
 11
6.7
 21
0.0
 31
0.0
 40
0.0174550649
 41
1.8026807347
 42
3.1415926536
  0
ELLIPSE
  5
555
100
AcDbEntity
  8
RACCORDO
100
AcDbEllipse
 62
7
  6
CONTINUOUS
 10
135.6821052632
 20
64.8711734708
 30
0.0
 11
10.0
 21
0.0
 31
0.0
 40
0.0174550649
 41
-3.1415926536
 42
-1.7119212071
  0
ELLIPSE
  5
556
100
AcDbEntity
  8
RACCORDO
100
AcDbEllipse
 62
7
  6
CONTINUOUS
 10
135.6821052632
 20
113.5530370555
 30
0.0
 11
10.0
 21
-0.0
 31
0.0
 40
0.0174550649
 41
0.0
 42
1.4296714465
  0
ELLIPSE
  5
557
100
AcDbEntity
  8
RACCORDO
100
AcDbEllipse
 62
7
  6
CONTINUOUS
 10
135.6821052632
 20
113.5530370555
 30
0.0
 11
10.0
 21
0.0
 31
0.0
 40
0.0174550649
 41
1.7119212071
 42
3.1415926536
  0
ELLIPSE
  5
558
100
AcDbEntity
  8
RACCORDO
100
AcDbEllipse
 62
7
  6
CONTINUOUS
 10
135.6821052632
 20
65.9149634611
 30
0.0
 11
7.5
 21
0.0
 31
0.0
 40
0.0174550649
 41
3.1415926536
 42
4.5302327985
  0
ELLIPSE
  5
559
100
AcDbEntity
  8
RACCORDO
100
AcDbEllipse
 62
7
  6
CONTINUOUS
 10
135.6821052632
 20
65.9149634611
 30
0.0
 11
7.5
 21
0.0
 31
0.0
 40
0.0174550649
 41
-1.3886401449
 42
-0.0
  0
ELLIPSE
  5
55A
100
AcDbEntity
  8
RACCORDO
100
AcDbEllipse
 62
7
  6
CONTINUOUS
 10
135.6821052632
 20
112.5092470652
 30
0.0
 11
7.5
 21
-0.0
 31
0.0
 40
0.0174550649
 41
0.0
 42
1.3886401449
  0
ELLIPSE
  5
55B
100
AcDbEntity
  8
RACCORDO
100
AcDbEllipse
 62
7
  6
CONTINUOUS
 10
135.6821052632
 20
65.9118333304
 30
0.0
 11
6.7
 21
0.0
 31
0.0
 40
0.0174550649
 41
-1.3389119189
 42
-0.0
  0
ELLIPSE
  5
55C
100
AcDbEntity
  8
RACCORDO
100
AcDbEllipse
 62
7
  6
CONTINUOUS
 10
135.6821052632
 20
65.9118333304
 30
0.0
 11
6.7
 21
-0.0
 31
0.0
 40
0.0174550649
 41
-3.1415926535
 42
-1.8026807347
  0
ELLIPSE
  5
55D
100
AcDbEntity
  8
RACCORDO
100
AcDbEllipse
 62
7
  6
CONTINUOUS
 10
129.1821052632
 20
66.62851278
 30
0.0
 11
0.0
 21
0.2000304656
 31
0.0
 40
0.9998476952
 41
0.0
 42
1.5707963268
  0
ELLIPSE
  5
55E
100
AcDbEntity
  8
RACCORDO
100
AcDbEllipse
 62
7
  6
CONTINUOUS
 10
142.1821052632
 20
66.62851278
 30
0.0
 11
0.0
 21
0.2000304656
 31
0.0
 40
0.9998476952
 41
-1.5707963268
 42
0.0
  0
ELLIPSE
  5
55F
100
AcDbEntity
  8
RACCORDO
100
AcDbEllipse
 62
7
  6
CONTINUOUS
 10
129.1821052632
 20
111.7956977463
 30
0.0
 11
0.0
 21
0.2000304656
 31
0.0
 40
0.9998476952
 41
1.5707963268
 42
3.1415926536
  0
ELLIPSE
  5
560
100
AcDbEntity
  8
RACCORDO
100
AcDbEllipse
 62
7
  6
CONTINUOUS
 10
142.1821052632
 20
111.7956977463
 30
0.0
 11
0.0
 21
0.2000304656
 31
0.0
 40
0.9998476952
 41
-3.1415926536
 42
-1.5707963268
  0
ELLIPSE
  5
561
100
AcDbEntity
  8
RACCORDO
100
AcDbEllipse
 62
7
  6
CONTINUOUS
 10
135.6821052632
 20
112.512377196
 30
0.0
 11
6.7
 21
-0.0
 31
0.0
 40
0.0174550649
 41
0.0
 42
1.3389119189
  0
ELLIPSE
  5
562
100
AcDbEntity
  8
RACCORDO
100
AcDbEllipse
 62
7
  6
CONTINUOUS
 10
135.6821052632
 20
64.8687438635
 30
0.0
 11
9.2
 21
-0.0
 31
0.0
 40
0.0174550649
 41
3.1415926536
 42
4.538217327
  0
ELLIPSE
  5
563
100
AcDbEntity
  8
RACCORDO
100
AcDbEllipse
 62
7
  6
CONTINUOUS
 10
135.6821052632
 20
113.5554666628
 30
0.0
 11
9.2
 21
-0.0
 31
0.0
 40
0.0174550649
 41
1.7449679802
 42
3.1415926536
  0
ELLIPSE
  5
564
100
AcDbEntity
  8
RACCORDO
100
AcDbEllipse
 62
7
  6
CONTINUOUS
 10
135.6821052632
 20
113.5554666628
 30
0.0
 11
9.2
 21
-0.0
 31
0.0
 40
0.0174550649
 41
0.0
 42
1.3966246734
  0
ELLIPSE
  5
565
100
AcDbEntity
  8
RACCORDO
100
AcDbEllipse
 62
7
  6
CONTINUOUS
 10
126.9313412956
 20
64.2120747975
 30
0.0
 11
0.1969134736
 21
0.039286661
 31
0.0
 40
0.9960441251
 41
-0.1961674313
 42
1.3731078174
  0
ELLIPSE
  5
566
100
AcDbEntity
  8
RACCORDO
100
AcDbEllipse
 62
7
  6
CONTINUOUS
 10
122.8328692307
 20
64.2120747975
 30
0.0
 11
0.1969134736
 21
-0.039286661
 31
0.0
 40
0.9960441251
 41
1.7684848362
 42
3.3377600849
  0
ELLIPSE
  5
567
100
AcDbEntity
  8
RACCORDO
100
AcDbEllipse
 62
7
  6
CONTINUOUS
 10
122.5821357288
 20
64.6121357288
 30
0.0
 11
0.1414644378
 21
0.1414644378
 31
0.0
 40
0.9996954599
 41
-3.9268385238
 42
-2.3563467835
  0
ELLIPSE
  5
568
100
AcDbEntity
  8
RACCORDO
100
AcDbEllipse
 62
7
  6
CONTINUOUS
 10
122.5821357288
 20
113.8120747975
 30
0.0
 11
0.1414644378
 21
-0.1414644378
 31
0.0
 40
0.9996954599
 41
2.3563467834
 42
3.9268385237
  0
ELLIPSE
  5
569
100
AcDbEntity
  8
RACCORDO
100
AcDbEllipse
 62
7
  6
CONTINUOUS
 10
148.7820747975
 20
64.6121357288
 30
0.0
 11
-0.1414644378
 21
0.1414644378
 31
0.0
 40
0.9996954599
 41
-3.9268385237
 42
-2.3563467834
  0
ELLIPSE
  5
56A
100
AcDbEntity
  8
RACCORDO
100
AcDbEllipse
 62
7
  6
CONTINUOUS
 10
148.7820747975
 20
113.8120747975
 30
0.0
 11
0.1414644379
 21
0.1414644378
 31
0.0
 40
0.9996954599
 41
-0.78524587
 42
0.7852458703
  0
ELLIPSE
  5
56B
100
AcDbEntity
  8
RACCORDO
100
AcDbEllipse
 62
7
  6
CONTINUOUS
 10
148.5313412956
 20
114.2121357288
 30
0.0
 11
0.1969134736
 21
-0.039286661
 31
0.0
 40
0.9960441251
 41
-1.3731078174
 42
0.1961674313
  0
ELLIPSE
  5
56C
100
AcDbEntity
  8
RACCORDO
100
AcDbEllipse
 62
7
  6
CONTINUOUS
 10
144.4328692307
 20
114.2121357288
 30
0.0
 11
0.1969134736
 21
0.039286661
 31
0.0
 40
0.9960441251
 41
2.9454252223
 42
4.514700471
  0
ELLIPSE
  5
56D
100
AcDbEntity
  8
RACCORDO
100
AcDbEllipse
 62
7
  6
CONTINUOUS
 10
126.9313412956
 20
114.2121357288
 30
0.0
 11
0.1969134736
 21
-0.039286661
 31
0.0
 40
0.9960441251
 41
-1.3731078174
 42
0.1961674313
  0
ELLIPSE
  5
56E
100
AcDbEntity
  8
RACCORDO
100
AcDbEllipse
 62
7
  6
CONTINUOUS
 10
122.8328692307
 20
114.2121357288
 30
0.0
 11
0.1969134736
 21
0.039286661
 31
0.0
 40
0.9960441251
 41
2.9454252222
 42
4.514700471
  0
ELLIPSE
  5
56F
100
AcDbEntity
  8
RACCORDO
100
AcDbEllipse
 62
7
  6
CONTINUOUS
 10
148.5313412956
 20
64.2120747975
 30
0.0
 11
0.1969134736
 21
0.039286661
 31
0.0
 40
0.9960441251
 41
-0.1961674313
 42
1.3731078174
  0
ELLIPSE
  5
570
100
AcDbEntity
  8
RACCORDO
100
AcDbEllipse
 62
7
  6
CONTINUOUS
 10
144.4328692307
 20
64.2120747975
 30
0.0
 11
0.1969134736
 21
-0.039286661
 31
0.0
 40
0.9960441251
 41
1.7684848362
 42
3.3377600849
  0
ENDSEC
  0
SECTION
  2
OBJECTS
  0
DICTIONARY
  5
C
100
AcDbDictionary
280
0
281
1
  3
ACAD_GROUP
350
D
  3
ACAD_MLINESTYLE
350
17
  3
ACAD_LAYOUT
350
1A
  3
ACAD_PLOTSETTINGS
350
19
  3
ACAD_PLOTSTYLENAME
350
E
  0
DICTIONARY
  5
D
102
{ACAD_REACTORS
330
C
102
}
100
AcDbDictionary
280
0
281
1
  0
ACDBDICTIONARYWDFLT
  5
E
102
{ACAD_REACTORS
330
C
102
}
100
AcDbDictionary
281
1
  3
Normal
350
F
100
AcDbDictionaryWithDefault
340
F
  0
DICTIONARY
  5
17
102
{ACAD_REACTORS
330
C
102
}
100
AcDbDictionary
280
0
281
1
  3
Standard
350
18
  0
DICTIONARY
  5
19
102
{ACAD_REACTORS
330
C
102
}
100
AcDbDictionary
281
1
  0
DICTIONARY
  5
1A
102
{ACAD_REACTORS
330
C
102
}
100
AcDbDictionary
281
1
  3
Model
350
571
  3
Layout1
350
572
  0
ACDBPLACEHOLDER
  5
F
102
{ACAD_REACTORS
330
E
102
}
  0
MLINESTYLE
  5
18
102
{ACAD_REACTORS
330
17
102
}
100
AcDbMlineStyle
  2
STANDARD
 70
0
  3

 62
256
 51
90.0
 52
90.0
 71
2
 49
0.5
 62
256
  6
BYLAYER
 49
-0.5
 62
256
  6
BYLAYER
  0
LAYOUT
  5
571
102
{ACAD_REACTORS
330
1A
102
}
100
AcDbPlotSettings
  1

  2
none_device
  4
ISO_A4_(297.00_x_210.00_MM)
  6

 40
0.0
 41
0.0
 42
0.0
 43
0.0
 44
297.0
 45
210.0
 46
0.0
 47
0.0
 48
0.0
 49
0.0
140
0.0
141
0.0
142
1.0
143
1.0
 70
1024
 72
1
 73
0
 74
0
  7

 75
0
147
1.0
148
0.0
149
0.0
100
AcDbLayout
  1
Model
 70
0
 71
0
 10
0.0
 20
0.0
 11
297.0
 21
210.0
 12
0.0
 22
0.0
 32
0.0
 14
0.0
 24
0.0
 34
0.0
 15
0.0
 25
0.0
 35
0.0
146
0.0
 13
0.0
 23
0.0
 33
0.0
 16
1.0
 26
0.0
 36
0.0
 17
0.0
 27
1.0
 37
0.0
 76
0
330
20F
345
0
346
0
  0
LAYOUT
  5
572
102
{ACAD_REACTORS
330
1A
102
}
100
AcDbPlotSettings
  1

  2
none_device
  4
ISO_A4_(297.00_x_210.00_MM)
  6

 40
0.0
 41
0.0
 42
0.0
 43
0.0
 44
297.0
 45
210.0
 46
0.0
 47
0.0
 48
0.0
 49
0.0
140
0.0
141
0.0
142
1.0
143
1.0
 70
0
 72
1
 73
0
 74
0
  7

 75
0
147
1.0
148
0.0
149
0.0
100
AcDbLayout
  1
Layout1
 70
0
 71
1
 10
0.0
 20
0.0
 11
297.0
 21
210.0
 12
0.0
 22
0.0
 32
0.0
 14
0.0
 24
0.0
 34
0.0
 15
0.0
 25
0.0
 35
0.0
146
0.0
 13
0.0
 23
0.0
 33
0.0
 16
1.0
 26
0.0
 36
0.0
 17
0.0
 27
1.0
 37
0.0
 76
0
330
210
345
0
346
0
  0
ENDSEC
  0
EOF
