  0
SECTION
  2
HEADER
  9
$ACADVER
  1
AC1024
  9
$DWGCODEPAGE
  3
ANSI_1252
  9
$EXTMAX
 10
297.0
 20
210.0
 30
0.0
  9
$EXTMIN
 10
0.0
 20
0.0
 30
0.0
  9
$LIMMIN
 10
0.0
 20
0.0
  9
$LIMMAX
 10
297.0
 20
210.0
  9
$VIEWCTR
 10
148.5
 20
105.0
  9
$VIEWSIZE
 40
210.0
  9
$CLAYER
  8
0
  9
$LTSCALE
 40
16.335
  9
$CELTYPE
  6
BYLAYER
  9
$DIMSCALE
 40
1.0
  9
$DIMASZ
 40
3.0
  9
$DIMEXO
 40
0.5
  9
$DIMDLI
 40
11.286
  9
$DIMEXE
 40
1.5
  9
$DIMCEN
 40
2.673
  9
$DIMLFAC
 40
1.0
  9
$DIMBLK
  1
_FILLED
  9
$DIMALT
 70
0
  9
$DIMALTF
 40
0.0393700787
  9
$DIMTXT
 40
3.0
  9
$DIMTOL
 70
1
  9
$DIMLIM
 70
0
  9
$DIMTFAC
 40
1.0
  9
$DIMTP
 40
0.01
  9
$DIMTM
 40
0.01
  9
$DIMGAP
 40
0.625
  9
$DIMDSEP
 70
44
  9
$AUNITS
 70
0
  9
$PDMODE
 70
3
  9
$PDSIZE
 40
3.0
  9
$HANDSEED
  5
38A
  9
$TILEMODE
 70
1
  9
$MEASUREMENT
 70
1
  9
$INSUNITS
 70
4
  0
ENDSEC
  0
SECTION
  2
CLASSES
  0
CLASS
  1
ACDBDICTIONARYWDFLT
  2
AcDbDictionaryWithDefault
  3
AutoCAD 2000
 90
0
 91
1
280
0
281
0
  0
CLASS
  1
ACDBPLACEHOLDER
  2
AcDbPlaceHolder
  3
AutoCAD 2000
 90
0
 91
1
280
0
281
0
  0
CLASS
  1
LAYOUT
  2
AcDbLayout
  3
AutoCAD 2000
 90
0
 91
0
280
0
281
0
  0
ENDSEC
  0
SECTION
  2
TABLES
  0
TABLE
  2
VPORT
  5
8
100
AcDbSymbolTable
 70
2
  0
VPORT
  5
1F4
100
AcDbSymbolTableRecord
100
AcDbViewportTableRecord
  2
*ACTIVE
 70
0
 10
0.0
 20
0.0
 11
1.0
 21
1.0
 12
148.5
 22
105.0
 13
0.0
 23
0.0
 14
1.0
 24
1.0
 15
0.0
 25
0.0
 16
0.0
 26
0.0
 36
1.0
 17
0.0
 27
0.0
 37
0.0
 40
210.0
 41
1.4142857143
 42
50.0
 43
0.0
 44
0.0
 50
0.0
 51
0.0
 71
0
 72
100
 73
1
 74
1
 75
0
 76
0
 77
0
 78
0
  0
ENDTAB
  0
TABLE
  2
LTYPE
  5
5
100
AcDbSymbolTable
 70
6
  0
LTYPE
  5
14
100
AcDbSymbolTableRecord
100
AcDbLinetypeTableRecord
  2
BYBLOCK
 70
0
  3

 72
65
 73
0
 40
0.0
  0
LTYPE
  5
15
100
AcDbSymbolTableRecord
100
AcDbLinetypeTableRecord
  2
BYLAYER
 70
0
  3

 72
65
 73
0
 40
0.0
  0
LTYPE
  5
16
100
AcDbSymbolTableRecord
100
AcDbLinetypeTableRecord
  2
CONTINUOUS
 70
64
  3
Solid line
 72
65
 73
0
 40
0.0
  0
LTYPE
  5
1F5
100
AcDbSymbolTableRecord
100
AcDbLinetypeTableRecord
  2
CENTER
 70
64
  3
____ _ ____ _ ____ _ ____ _ ____ _ ____ _ ____
 72
65
 73
4
 40
0.6
 49
0.375
 74
0
 49
-0.075
 74
0
 49
0.075
 74
0
 49
-0.075
 74
0
  0
LTYPE
  5
1F6
100
AcDbSymbolTableRecord
100
AcDbLinetypeTableRecord
  2
HIDDEN
 70
64
  3
- - - - - - - - - - - - - - - - - - - -
 72
65
 73
2
 40
0.2
 49
0.1
 74
0
 49
-0.1
 74
0
  0
LTYPE
  5
1F7
100
AcDbSymbolTableRecord
100
AcDbLinetypeTableRecord
  2
PHANTOM
 70
64
  3
_____ _ _ _____ _ _ _____ _ _ _____
 72
65
 73
6
 40
0.8
 49
0.45
 74
0
 49
-0.05
 74
0
 49
0.1
 74
0
 49
-0.05
 74
0
 49
0.1
 74
0
 49
-0.05
 74
0
  0
LTYPE
  5
1F8
100
AcDbSymbolTableRecord
100
AcDbLinetypeTableRecord
  2
DOT
 70
64
  3
. . . . . . . . . . . . . . . . . . . .
 72
65
 73
2
 40
0.2
 49
0.1
 74
0
 49
-0.1
 74
0
  0
LTYPE
  5
1F9
100
AcDbSymbolTableRecord
100
AcDbLinetypeTableRecord
  2
DASHED
 70
64
  3
- - - - - - - - - - - - - - - - - - - -
 72
65
 73
2
 40
0.2
 49
0.1
 74
0
 49
-0.1
 74
0
  0
ENDTAB
  0
TABLE
  2
LAYER
  5
2
100
AcDbSymbolTable
 70
36
  0
LAYER
  5
10
100
AcDbSymbolTableRecord
100
AcDbLayerTableRecord
  2
0
 70
0
 62
7
  6
CONTINUOUS
370
-3
390
F
  0
LAYER
  5
1FA
100
AcDbSymbolTableRecord
100
AcDbLayerTableRecord
  2
DEFAULT_1
 70
0
 62
7
  6
CENTER
370
-3
390
F
  0
LAYER
  5
1FB
100
AcDbSymbolTableRecord
100
AcDbLayerTableRecord
  2
DEFAULT_2
 70
0
 62
7
  6
HIDDEN
370
-3
390
F
  0
LAYER
  5
1FC
100
AcDbSymbolTableRecord
100
AcDbLayerTableRecord
  2
DEFAULT_3
 70
0
 62
7
  6
PHANTOM
370
-3
390
F
  0
LAYER
  5
1FD
100
AcDbSymbolTableRecord
100
AcDbLayerTableRecord
  2
ASSI
 70
0
 62
7
  6
CONTINUOUS
370
-3
390
F
  0
LAYER
  5
1FE
100
AcDbSymbolTableRecord
100
AcDbLayerTableRecord
  2
COLOR9
 70
0
 62
7
  6
CONTINUOUS
370
-3
390
F
  0
LAYER
  5
1FF
100
AcDbSymbolTableRecord
100
AcDbLayerTableRecord
  2
COORDINATE
 70
0
 62
7
  6
CONTINUOUS
370
-3
390
F
  0
LAYER
  5
200
100
AcDbSymbolTableRecord
100
AcDbLayerTableRecord
  2
COORD_ORIGINE
 70
0
 62
7
  6
CONTINUOUS
370
-3
390
F
  0
LAYER
  5
201
100
AcDbSymbolTableRecord
100
AcDbLayerTableRecord
  2
COSMETICI
 70
0
 62
7
  6
CONTINUOUS
370
-3
390
F
  0
LAYER
  5
202
100
AcDbSymbolTableRecord
100
AcDbLayerTableRecord
  2
CURVE
 70
0
 62
7
  6
CONTINUOUS
370
-3
390
F
  0
LAYER
  5
203
100
AcDbSymbolTableRecord
100
AcDbLayerTableRecord
  2
DRAFT
 70
0
 62
7
  6
CONTINUOUS
370
-3
390
F
  0
LAYER
  5
204
100
AcDbSymbolTableRecord
100
AcDbLayerTableRecord
  2
IGS_SIMBOLO
 70
0
 62
7
  6
CONTINUOUS
370
-3
390
F
  0
LAYER
  5
205
100
AcDbSymbolTableRecord
100
AcDbLayerTableRecord
  2
NOTE
 70
0
 62
7
  6
CONTINUOUS
370
-3
390
F
  0
LAYER
  5
206
100
AcDbSymbolTableRecord
100
AcDbLayerTableRecord
  2
PIANI
 70
0
 62
7
  6
CONTINUOUS
370
-3
390
F
  0
LAYER
  5
207
100
AcDbSymbolTableRecord
100
AcDbLayerTableRecord
  2
PIANI_ORIGINE
 70
0
 62
7
  6
CONTINUOUS
370
-3
390
F
  0
LAYER
  5
208
100
AcDbSymbolTableRecord
100
AcDbLayerTableRecord
  2
PIANI_RIFERIMENTO
 70
0
 62
7
  6
CONTINUOUS
370
-3
390
F
  0
LAYER
  5
209
100
AcDbSymbolTableRecord
100
AcDbLayerTableRecord
  2
PUNTI
 70
0
 62
7
  6
CONTINUOUS
370
-3
390
F
  0
LAYER
  5
20A
100
AcDbSymbolTableRecord
100
AcDbLayerTableRecord
  2
RACCORDO
 70
0
 62
7
  6
CONTINUOUS
370
-3
390
F
  0
LAYER
  5
20B
100
AcDbSymbolTableRecord
100
AcDbLayerTableRecord
  2
SIMBOLI
 70
0
 62
7
  6
CONTINUOUS
370
-3
390
F
  0
LAYER
  5
20C
100
AcDbSymbolTableRecord
100
AcDbLayerTableRecord
  2
SMUSSO
 70
0
 62
7
  6
CONTINUOUS
370
-3
390
F
  0
LAYER
  5
20D
100
AcDbSymbolTableRecord
100
AcDbLayerTableRecord
  2
SNAPLINE
 70
0
 62
7
  6
CONTINUOUS
370
-3
390
F
  0
LAYER
  5
20E
100
AcDbSymbolTableRecord
100
AcDbLayerTableRecord
  2
SUPERFICI
 70
0
 62
7
  6
CONTINUOUS
370
-3
390
F
  0
LAYER
  5
20F
100
AcDbSymbolTableRecord
100
AcDbLayerTableRecord
  2
TRASH
 70
0
 62
7
  6
CONTINUOUS
370
-3
390
F
  0
LAYER
  5
210
100
AcDbSymbolTableRecord
100
AcDbLayerTableRecord
  2
XSEC_DATUMS
 70
0
 62
7
  6
CONTINUOUS
370
-3
390
F
  0
ENDTAB
  0
TABLE
  2
STYLE
  5
3
100
AcDbSymbolTable
 70
1
  0
STYLE
  5
11
100
AcDbSymbolTableRecord
100
AcDbTextStyleTableRecord
  2
STANDARD
 70
0
 40
0.0
 41
0.8
 50
0.0
 71
0
 42
0.2
  3
txt
  4

  0
STYLE
  5
211
100
AcDbSymbolTableRecord
100
AcDbTextStyleTableRecord
  2
TEXTSTYLE_1
 70
0
 40
0.0
 41
0.8
 50
0.0
 71
0
 42
0.2
  3
gdt
  4

  0
ENDTAB
  0
TABLE
  2
VIEW
  5
6
100
AcDbSymbolTable
 70
0
  0
ENDTAB
  0
TABLE
  2
UCS
  5
7
100
AcDbSymbolTable
 70
0
  0
ENDTAB
  0
TABLE
  2
APPID
  5
9
100
AcDbSymbolTable
 70
1
  0
APPID
  5
212
100
AcDbSymbolTableRecord
100
AcDbRegAppTableRecord
  2
ACAD
 70
0
  0
ENDTAB
  0
TABLE
  2
BLOCK_RECORD
  5
1
100
AcDbSymbolTable
 70
0
  0
BLOCK_RECORD
  5
213
100
AcDbSymbolTableRecord
100
AcDbBlockTableRecord
  2
*Model_Space
  0
BLOCK_RECORD
  5
214
100
AcDbSymbolTableRecord
100
AcDbBlockTableRecord
  2
*Paper_Space
  0
BLOCK_RECORD
  5
215
100
AcDbSymbolTableRecord
100
AcDbBlockTableRecord
  2
_FILLED
  0
BLOCK_RECORD
  5
216
100
AcDbSymbolTableRecord
100
AcDbBlockTableRecord
  2
*D0
  0
BLOCK_RECORD
  5
217
100
AcDbSymbolTableRecord
100
AcDbBlockTableRecord
  2
*D1
  0
BLOCK_RECORD
  5
218
100
AcDbSymbolTableRecord
100
AcDbBlockTableRecord
  2
*D2
  0
ENDTAB
  0
TABLE
  2
DIMSTYLE
  5
A
100
AcDbSymbolTable
 70
1
100
AcDbDimStyleTable
 71
0
  0
DIMSTYLE
105
219
100
AcDbSymbolTableRecord
100
AcDbDimStyleTableRecord
  2
STANDARD
 70
0
  3

  4

 40
1.0
 41
3.0
 42
0.5
 43
0.38
 44
1.5
 45
0.0
 46
0.0
 47
0.01
 48
0.01
140
3.0
141
0.09
142
0.0
143
25.4
144
1.0
145
0.0
146
1.0
147
0.625
 71
1
 72
0
 73
0
 74
0
 75
0
 76
0
 77
1
 78
8
 79
2
170
0
171
1
172
0
173
0
174
0
175
0
176
0
177
0
178
0
270
2
179
2
271
2
272
2
273
2
274
2
275
0
280
0
281
0
282
0
283
1
284
8
285
0
286
0
287
3
288
0
340
11
278
44
341
215
342
215
343
215
344
215
  0
DIMSTYLE
105
21A
100
AcDbSymbolTableRecord
100
AcDbDimStyleTableRecord
  2
DIMSTYLE_1
 70
0
  3

  4

 40
1.0
 41
3.0
 42
0.5
 43
0.38
 44
1.5
 45
0.0
 46
0.0
 47
0.0
 48
0.0
140
3.0
141
0.09
142
0.0
143
25.4
144
1.0
145
0.0
146
1.0
147
0.75
 71
0
 72
0
 73
0
 74
0
 75
0
 76
0
 77
1
 78
8
 79
2
170
0
171
1
172
0
173
0
174
0
175
0
176
0
177
0
178
0
270
2
179
2
271
2
272
2
273
2
274
2
275
0
280
0
281
0
282
0
283
1
284
8
285
0
286
0
287
3
288
0
340
11
278
44
341
215
342
215
343
215
344
215
  0
DIMSTYLE
105
21B
100
AcDbSymbolTableRecord
100
AcDbDimStyleTableRecord
  2
DIMSTYLE_2
 70
0
  3

  4

 40
1.0
 41
3.0
 42
0.5
 43
0.38
 44
1.5
 45
0.0
 46
0.0
 47
0.0
 48
0.0
140
3.0
141
0.09
142
0.0
143
25.4
144
1.0
145
0.0
146
1.0
147
0.75
 71
0
 72
0
 73
0
 74
0
 75
0
 76
0
 77
1
 78
8
 79
2
170
0
171
1
172
0
173
0
174
0
175
0
176
0
177
0
178
0
270
2
179
2
271
1
272
1
273
2
274
2
275
0
280
0
281
0
282
0
283
1
284
8
285
0
286
0
287
3
288
0
340
11
278
44
341
215
342
215
343
215
344
215
  0
ENDTAB
  0
ENDSEC
  0
SECTION
  2
BLOCKS
  0
BLOCK
  5
20
100
AcDbEntity
  8
0
100
AcDbBlockBegin
  2
*Model_Space
 70
0
 10
0.0
 20
0.0
 30
0.0
  3
*Model_Space
  1

  0
ENDBLK
  5
21
100
AcDbEntity
  8
0
100
AcDbBlockEnd
  0
BLOCK
  5
1C
100
AcDbEntity
  8
0
100
AcDbBlockBegin
  2
*Paper_Space
 70
0
 10
0.0
 20
0.0
 30
0.0
  3
*Paper_Space
  1

  0
ENDBLK
  5
1D
100
AcDbEntity
  8
0
100
AcDbBlockEnd
  0
BLOCK
  5
21C
100
AcDbEntity
  8
0
100
AcDbBlockBegin
  2
_FILLED
 70
64
 10
0.0
 20
0.0
  3
_FILLED
  1

  0
SOLID
  5
21D
100
AcDbEntity
  8
0
  6
BYBLOCK
 62
0
100
AcDbTrace
 10
0.0
 20
0.0
 11
-1.0
 21
0.3166666667
 12
-1.0
 22
-0.3166666667
 13
-1.0
 23
-0.3166666667
  0
ENDBLK
  5
21E
100
AcDbEntity
  8
0
  6
BYBLOCK
 62
0
100
AcDbBlockEnd
  0
BLOCK
  5
21F
100
AcDbEntity
  8
0
100
AcDbBlockBegin
 62
7
  6
CONTINUOUS
  2
*D0
 70
65
 10
0.0
 20
0.0
  3
*D0
  1

  0
LINE
  5
220
100
AcDbEntity
  8
0
100
AcDbLine
 62
7
  6
CONTINUOUS
 10
-52.0795251645
 20
6.3350355263
 11
-52.0795251645
 21
33.7350355263
  0
LINE
  5
221
100
AcDbEntity
  8
0
100
AcDbLine
 62
7
  6
CONTINUOUS
 10
-58.0795251645
 20
0.3350355263
 11
-58.0795251645
 21
33.7350355263
  0
LINE
  5
222
100
AcDbEntity
  8
0
100
AcDbLine
 62
7
  6
CONTINUOUS
 10
-52.0795251645
 20
32.2350355263
 11
-55.0795251645
 21
32.2350355263
  0
LINE
  5
223
100
AcDbEntity
  8
0
100
AcDbLine
 62
7
  6
CONTINUOUS
 10
-58.0795251645
 20
32.2350355263
 11
-55.0795251645
 21
32.2350355263
  0
INSERT
  5
224
100
AcDbEntity
  8
0
100
AcDbBlockReference
 62
7
  6
CONTINUOUS
  2
_FILLED
 10
-52.0795251645
 20
32.2350355263
 41
3.0
 42
3.0
 43
3.0
  0
INSERT
  5
225
100
AcDbEntity
  8
0
100
AcDbBlockReference
 62
7
  6
CONTINUOUS
  2
_FILLED
 10
-58.0795251645
 20
32.2350355263
 41
3.0
 42
3.0
 43
3.0
 50
180.0
  0
ENDBLK
  5
226
100
AcDbEntity
  8
0
  6
BYBLOCK
 62
0
100
AcDbBlockEnd
  0
BLOCK
  5
227
100
AcDbEntity
  8
0
100
AcDbBlockBegin
 62
7
  6
CONTINUOUS
  2
*D1
 70
65
 10
0.0
 20
0.0
  3
*D1
  1

  0
LINE
  5
228
100
AcDbEntity
  8
0
100
AcDbLine
 62
7
  6
CONTINUOUS
 10
-21.9854287816
 20
6.3350355263
 11
-21.9854287816
 21
33.7424335878
  0
LINE
  5
229
100
AcDbEntity
  8
0
100
AcDbLine
 62
7
  6
CONTINUOUS
 10
21.6836416106
 20
6.3350355263
 11
21.6836416106
 21
33.7424335878
  0
LINE
  5
22A
100
AcDbEntity
  8
0
100
AcDbLine
 62
7
  6
CONTINUOUS
 10
-21.9854287816
 20
32.2424335878
 11
-0.1508935855
 21
32.2424335878
  0
LINE
  5
22B
100
AcDbEntity
  8
0
100
AcDbLine
 62
7
  6
CONTINUOUS
 10
21.6836416106
 20
32.2424335878
 11
-0.1508935855
 21
32.2424335878
  0
INSERT
  5
22C
100
AcDbEntity
  8
0
100
AcDbBlockReference
 62
7
  6
CONTINUOUS
  2
_FILLED
 10
-21.9854287816
 20
32.2424335878
 41
3.0
 42
3.0
 43
3.0
 50
180.0
  0
INSERT
  5
22D
100
AcDbEntity
  8
0
100
AcDbBlockReference
 62
7
  6
CONTINUOUS
  2
_FILLED
 10
21.6836416106
 20
32.2424335878
 41
3.0
 42
3.0
 43
3.0
  0
ENDBLK
  5
22E
100
AcDbEntity
  8
0
  6
BYBLOCK
 62
0
100
AcDbBlockEnd
  0
BLOCK
  5
22F
100
AcDbEntity
  8
0
100
AcDbBlockBegin
 62
7
  6
CONTINUOUS
  2
*D2
 70
65
 10
0.0
 20
0.0
  3
*D2
  1

  0
LINE
  5
230
100
AcDbEntity
  8
0
100
AcDbLine
 62
7
  6
CONTINUOUS
 10
21.646687706
 20
22.0486838037
 11
33.2930748743
 21
22.0486838037
  0
LINE
  5
231
100
AcDbEntity
  8
0
100
AcDbLine
 62
7
  6
CONTINUOUS
 10
21.646687706
 20
-22.3786127511
 11
33.2930748743
 21
-22.3786127511
  0
LINE
  5
232
100
AcDbEntity
  8
0
100
AcDbLine
 62
7
  6
CONTINUOUS
 10
31.7930748743
 20
22.0486838037
 11
31.7930748743
 21
-0.1649644737
  0
LINE
  5
233
100
AcDbEntity
  8
0
100
AcDbLine
 62
7
  6
CONTINUOUS
 10
31.7930748743
 20
-22.3786127511
 11
31.7930748743
 21
-0.1649644737
  0
INSERT
  5
234
100
AcDbEntity
  8
0
100
AcDbBlockReference
 62
7
  6
CONTINUOUS
  2
_FILLED
 10
31.7930748743
 20
22.0486838037
 41
3.0
 42
3.0
 43
3.0
 50
90.0
  0
INSERT
  5
235
100
AcDbEntity
  8
0
100
AcDbBlockReference
 62
7
  6
CONTINUOUS
  2
_FILLED
 10
31.7930748743
 20
-22.3786127511
 41
3.0
 42
3.0
 43
3.0
 50
270.0
  0
ENDBLK
  5
236
100
AcDbEntity
  8
0
  6
BYBLOCK
 62
0
100
AcDbBlockEnd
  0
ENDSEC
  0
SECTION
  2
ENTITIES
  0
DIMENSION
  5
237
100
AcDbEntity
  8
0
100
AcDbDimension
 62
7
  6
CONTINUOUS
  2
*D0
 10
-58.0795251645
 20
32.2350355263
 11
-56.258096593
 21
32.2350355263
 70
160
 71
2
 72
2
 41
0.9
 42
6.0
  3
DIMSTYLE_1
100
AcDbAlignedDimension
 13
-52.0795251645
 23
5.8350355263
 14
-58.0795251645
 24
-0.1649644737
 50
180.0
100
AcDbRotatedDimension
  0
DIMENSION
  5
238
100
AcDbEntity
  8
0
100
AcDbDimension
 62
7
  6
CONTINUOUS
  2
*D1
 10
21.6836416106
 20
32.2424335878
 11
-4.4366078712
 21
32.2424335878
 70
160
 71
2
 72
2
 41
0.9
 42
43.6690703922
  3
DIMSTYLE_2
100
AcDbAlignedDimension
 13
-21.9854287816
 23
5.8350355263
 14
21.6836416106
 24
5.8350355263
100
AcDbRotatedDimension
  0
DIMENSION
  5
239
100
AcDbEntity
  8
0
100
AcDbDimension
 62
7
  6
CONTINUOUS
  2
*D2
 10
31.7930748743
 20
-22.3786127511
 11
31.7930748743
 21
-4.5578216165
 70
160
 71
2
 72
2
 41
0.9
 42
44.4272965548
  3
DIMSTYLE_2
100
AcDbAlignedDimension
 13
21.146687706
 23
22.0486838037
 14
21.146687706
 24
-22.3786127511
 50
270.0
100
AcDbRotatedDimension
  0
LWPOLYLINE
  5
23A
100
AcDbEntity
  8
RACCORDO
100
AcDbPolyline
 62
250
  6
CONTINUOUS
 90
16
 70
0
 10
-21.8692052079
 20
20.9711934758
 10
-21.8652250223
 20
20.978861456
 10
-21.8559897762
 20
20.9864481545
 10
-21.8415973456
 20
20.9938731665
 10
-21.8222002636
 20
21.0010578008
 10
-21.7980041026
 20
21.0079259137
 10
-21.7692652966
 20
21.0144047162
 10
-21.7362884229
 20
21.0204255451
 10
-21.6994229747
 20
21.025924591
 10
-21.6590596564
 20
21.0308435742
 10
-21.6156262434
 20
21.0351303627
 10
-21.5695830484
 20
21.0387395248
 10
-21.5214180429
 20
21.0416328102
 10
-21.4716416856
 20
21.0437795556
 10
-21.4207815123
 20
21.0451570096
 10
-21.3693765455
 20
21.0457505737
  0
LWPOLYLINE
  5
23B
100
AcDbEntity
  8
0
100
AcDbPolyline
 62
7
  6
CONTINUOUS
 90
5
 70
0
 43
0.3500000006
 10
-1.222322186
 20
34.7067174225
 10
-0.8651793008
 20
34.9210064392
 10
-0.8651793008
 20
35.5638598938
 10
-1.222322186
 20
35.9924333954
 10
-2.0794650822
 20
35.9924333954
  0
LWPOLYLINE
  5
23C
100
AcDbEntity
  8
RACCORDO
100
AcDbPolyline
 62
250
  6
CONTINUOUS
 90
16
 70
0
 10
-21.869205208
 20
-21.3011224232
 10
-21.8652259231
 20
-21.3087906042
 10
-21.855991439
 20
-21.3163775149
 10
-21.8415996261
 20
-21.3238027463
 10
-21.8222030145
 20
-21.3309876029
 10
-21.7980071766
 20
-21.3378559371
 10
-21.7692685492
 20
-21.3443349555
 10
-21.7362917151
 20
-21.3503559911
 10
-21.6994261753
 20
-21.3558552307
 10
-21.6590626446
 20
-21.3607743912
 10
-21.6156289111
 20
-21.3650613376
 10
-21.5695853018
 20
-21.3686706351
 10
-21.5214198044
 20
-21.3715640312
 10
-21.471642895
 20
-21.3737108607
 10
-21.4207821282
 20
-21.3750883706
 10
-21.3693765455
 20
-21.3756819615
  0
LWPOLYLINE
  5
23D
100
AcDbEntity
  8
RACCORDO
100
AcDbPolyline
 62
250
  6
CONTINUOUS
 90
16
 70
0
 10
-21.8813651677
 20
-21.7256596945
 10
-21.8785505412
 20
-21.7777766285
 10
-21.8703015736
 20
-21.8293238621
 10
-21.8567084141
 20
-21.8797377717
 10
-21.8379196458
 20
-21.9284671212
 10
-21.8141406652
 20
-21.9749790793
 10
-21.785631441
 20
-22.0187650481
 10
-21.7527036611
 20
-22.0593462425
 10
-21.7157173363
 20
-22.0962789063
 10
-21.6750768763
 20
-22.1291591618
 10
-21.6312266342
 20
-22.1576274586
 10
-21.5846460711
 20
-22.1813724805
 10
-21.5358445376
 20
-22.2001345463
 10
-21.4853556569
 20
-22.2137084771
 10
-21.4337314848
 20
-22.2219458295
 10
-21.3815365053
 20
-22.2247565077
  0
LWPOLYLINE
  5
23E
100
AcDbEntity
  8
RACCORDO
100
AcDbPolyline
 62
250
  6
CONTINUOUS
 90
16
 70
0
 10
-21.8813651677
 20
21.3957307471
 10
-21.878550444
 20
21.4478485927
 10
-21.87030122
 20
21.499396566
 10
-21.8567076952
 20
21.5498110259
 10
-21.8379185054
 20
21.5985407257
 10
-21.8141390973
 20
21.64505284
 10
-21.785629482
 20
21.6888387914
 10
-21.7527013923
 20
21.7294198111
 10
-21.7157148738
 20
21.7663521739
 10
-21.6750743482
 20
21.7992320504
 10
-21.6312241914
 20
21.827699922
 10
-21.5846438741
 20
21.8514445124
 10
-21.5358427196
 20
21.8702061911
 10
-21.4853543344
 20
21.8837798122
 10
-21.4337307738
 20
21.8920169577
 10
-21.3815365052
 20
21.8948275601
  0
LWPOLYLINE
  5
23F
100
AcDbEntity
  8
RACCORDO
100
AcDbPolyline
 62
250
  6
CONTINUOUS
 90
10
 70
0
 10
-21.8733190935
 20
21.2657190898
 10
-21.8740750058
 20
21.290131129
 10
-21.8748812766
 20
21.312426445
 10
-21.8757241041
 20
21.3322309122
 10
-21.876604665
 20
21.3495039291
 10
-21.8775217827
 20
21.3642860972
 10
-21.878458125
 20
21.3763250952
 10
-21.8794079146
 20
21.3855368159
 10
-21.8803769289
 20
21.3920053666
 10
-21.8813651677
 20
21.3957307471
  0
LINE
  5
240
100
AcDbEntity
  8
RACCORDO
100
AcDbLine
 62
250
  6
CONTINUOUS
 10
-21.8719599328
 20
21.2104605985
 11
-21.8733190935
 21
21.2657190898
  0
LINE
  5
241
100
AcDbEntity
  8
RACCORDO
100
AcDbLine
 62
250
  6
CONTINUOUS
 10
-21.3750478152
 20
21.7278935079
 11
-21.37676706
 21
21.8021475692
  0
LINE
  5
242
100
AcDbEntity
  8
RACCORDO
100
AcDbLine
 62
250
  6
CONTINUOUS
 10
-21.8708375468
 20
21.1481887155
 11
-21.8719599328
 21
21.2104605985
  0
LINE
  5
243
100
AcDbEntity
  8
RACCORDO
100
AcDbLine
 62
250
  6
CONTINUOUS
 10
-21.3734890016
 20
21.6346758159
 11
-21.3750478152
 21
21.7278935079
  0
LINE
  5
244
100
AcDbEntity
  8
RACCORDO
100
AcDbLine
 62
250
  6
CONTINUOUS
 10
-21.8699715191
 20
21.0800483375
 11
-21.8708375468
 21
21.1481887155
  0
LINE
  5
245
100
AcDbEntity
  8
RACCORDO
100
AcDbLine
 62
250
  6
CONTINUOUS
 10
-21.3715414767
 20
21.4640409925
 11
-21.3734890016
 21
21.6346758159
  0
LINE
  5
246
100
AcDbEntity
  8
RACCORDO
100
AcDbLine
 62
250
  6
CONTINUOUS
 10
-21.869205208
 20
20.9711934758
 11
-21.8699715191
 21
21.0800483375
  0
LINE
  5
247
100
AcDbEntity
  8
RACCORDO
100
AcDbLine
 62
250
  6
CONTINUOUS
 10
-21.3698209788
 20
21.1930178139
 11
-21.3715414767
 21
21.4640409925
  0
LINE
  5
248
100
AcDbEntity
  8
RACCORDO
100
AcDbLine
 62
250
  6
CONTINUOUS
 10
-21.8528271343
 20
15.8118031924
 11
-21.869205208
 21
20.9711934758
  0
LINE
  5
249
100
AcDbEntity
  8
RACCORDO
100
AcDbLine
 62
250
  6
CONTINUOUS
 10
-21.3529983849
 20
15.8574190808
 11
-21.3693765455
 21
21.0457530174
  0
LINE
  5
24A
100
AcDbEntity
  8
DRAFT
100
AcDbLine
 62
7
  6
CONTINUOUS
 10
-21.9478596614
 20
-21.0649644737
 11
-21.9854287816
 21
-6.1649644737
  0
LINE
  5
24B
100
AcDbEntity
  8
RACCORDO
100
AcDbLine
 62
250
  6
CONTINUOUS
 10
-21.3693765455
 20
21.0457530174
 11
-21.3698209788
 21
21.1930178139
  0
LINE
  5
24C
100
AcDbEntity
  8
RACCORDO
100
AcDbLine
 62
250
  6
CONTINUOUS
 10
-21.8443187538
 20
10.625019274
 11
-21.8528271343
 21
15.8118031924
  0
LINE
  5
24D
100
AcDbEntity
  8
RACCORDO
100
AcDbLine
 62
250
  6
CONTINUOUS
 10
-21.344490118
 20
10.6413334656
 11
-21.3529983849
 21
15.8574190808
  0
LINE
  5
24E
100
AcDbEntity
  8
DRAFT
100
AcDbLine
 62
7
  6
CONTINUOUS
 10
-21.9854287816
 20
5.8350355263
 11
-21.9854287816
 21
5.0023274764
  0
LINE
  5
24F
100
AcDbEntity
  8
DRAFT
100
AcDbLine
 62
7
  6
CONTINUOUS
 10
-21.9854287816
 20
-5.3322564237
 11
-21.9854287816
 21
-6.1649644737
  0
LINE
  5
250
100
AcDbEntity
  8
RACCORDO
100
AcDbLine
 62
7
  6
CONTINUOUS
 10
-21.9478596614
 20
-21.8784956949
 11
-21.9478596614
 21
-21.0649644737
  0
LINE
  5
251
100
AcDbEntity
  8
RACCORDO
100
AcDbLine
 62
7
  6
CONTINUOUS
 10
-21.9478596614
 20
20.7350355263
 11
-21.9478596614
 21
21.5485667475
  0
LINE
  5
252
100
AcDbEntity
  8
RACCORDO
100
AcDbLine
 62
250
  6
CONTINUOUS
 10
-21.8457059204
 20
-12.2532380969
 11
-21.8443187538
 21
10.625019274
  0
LINE
  5
253
100
AcDbEntity
  8
RACCORDO
100
AcDbLine
 62
250
  6
CONTINUOUS
 10
-21.3458773262
 20
-12.2769249132
 11
-21.344490118
 21
10.6413334656
  0
LINE
  5
254
100
AcDbEntity
  8
DRAFT
100
AcDbLine
 62
7
  6
CONTINUOUS
 10
-21.9854287816
 20
5.8350355263
 11
-21.9478596614
 21
20.7350355263
  0
LINE
  5
255
100
AcDbEntity
  8
RACCORDO
100
AcDbLine
 62
250
  6
CONTINUOUS
 10
-21.8561852399
 20
-17.4347731302
 11
-21.8457059204
 21
-12.2532380969
  0
LINE
  5
256
100
AcDbEntity
  8
RACCORDO
100
AcDbLine
 62
250
  6
CONTINUOUS
 10
-21.3563565375
 20
-17.4877185628
 11
-21.3458773262
 21
-12.2769249132
  0
LINE
  5
257
100
AcDbEntity
  8
RACCORDO
100
AcDbLine
 62
250
  6
CONTINUOUS
 10
-21.3705452638
 20
-21.6634446303
 11
-21.3563565375
 21
-17.4877185628
  0
LINE
  5
258
100
AcDbEntity
  8
RACCORDO
100
AcDbLine
 62
250
  6
CONTINUOUS
 10
-21.8696460804
 20
-21.3746489376
 11
-21.8561852399
 21
-17.4347731302
  0
LINE
  5
259
100
AcDbEntity
  8
RACCORDO
100
AcDbLine
 62
250
  6
CONTINUOUS
 10
-21.372132619
 20
-21.8545420492
 11
-21.3705452638
 21
-21.6634446303
  0
LINE
  5
25A
100
AcDbEntity
  8
RACCORDO
100
AcDbLine
 62
250
  6
CONTINUOUS
 10
-21.8703689359
 20
-21.4444834977
 11
-21.8696460804
 21
-21.3746489376
  0
LINE
  5
25B
100
AcDbEntity
  8
RACCORDO
100
AcDbLine
 62
250
  6
CONTINUOUS
 10
-21.3742424868
 20
-22.0134578345
 11
-21.372132619
 21
-21.8545420492
  0
LINE
  5
25C
100
AcDbEntity
  8
RACCORDO
100
AcDbLine
 62
250
  6
CONTINUOUS
 10
-21.8713656534
 20
-21.5099894985
 11
-21.8703689359
 21
-21.4444834977
  0
LINE
  5
25D
100
AcDbEntity
  8
RACCORDO
100
AcDbLine
 62
7
  6
CONTINUOUS
 10
0.3984911988
 20
-22.3786127511
 11
21.146687706
 21
-22.3786127511
  0
LINE
  5
25E
100
AcDbEntity
  8
RACCORDO
100
AcDbLine
 62
7
  6
CONTINUOUS
 10
-0.7002783699
 20
-22.3786127511
 11
-21.448474877
 21
-22.3786127511
  0
LINE
  5
25F
100
AcDbEntity
  8
RACCORDO
100
AcDbLine
 62
250
  6
CONTINUOUS
 10
0.4654295706
 20
-22.2247565075
 11
21.0797493342
 21
-22.2247565075
  0
LINE
  5
260
100
AcDbEntity
  8
RACCORDO
100
AcDbLine
 62
250
  6
CONTINUOUS
 10
-0.7672167417
 20
-22.2247565075
 11
-21.3815365052
 21
-22.2247565075
  0
LINE
  5
261
100
AcDbEntity
  8
RACCORDO
100
AcDbLine
 62
250
  6
CONTINUOUS
 10
0.4775895303
 20
-21.3756819648
 11
21.0675893745
 21
-21.3756819648
  0
LINE
  5
262
100
AcDbEntity
  8
RACCORDO
100
AcDbLine
 62
250
  6
CONTINUOUS
 10
-0.7793767014
 20
-21.3756819648
 11
-21.3693765455
 21
-21.3756819648
  0
LWPOLYLINE
  5
263
100
AcDbEntity
  8
RACCORDO
100
AcDbPolyline
 62
250
  6
CONTINUOUS
 90
6
 70
0
 10
-21.37676706
 20
21.8021475692
 10
-21.3776817667
 20
21.8316145593
 10
-21.378617605
 20
21.8557385573
 10
-21.3795694401
 20
21.8743812095
 10
-21.3805424068
 20
21.8874358652
 10
-21.3815365052
 20
21.8948275601
  0
LWPOLYLINE
  5
264
100
AcDbEntity
  8
RACCORDO
100
AcDbPolyline
 62
250
  6
CONTINUOUS
 90
8
 70
0
 10
-21.3815365052
 20
-22.2247565075
 10
-21.3805423348
 20
-22.2173648521
 10
-21.3795692989
 20
-22.204310192
 10
-21.3786173974
 20
-22.1856673986
 10
-21.3776815071
 20
-22.1615429464
 10
-21.3767667513
 20
-22.1320751582
 10
-21.3758884997
 20
-22.0974340591
 10
-21.3742424868
 20
-22.0134578345
  0
LINE
  5
265
100
AcDbEntity
  8
DRAFT
100
AcDbLine
 62
7
  6
CONTINUOUS
 10
-21.9854287816
 20
-5.3322564237
 11
-21.8656084269
 21
-5.0819539704
  0
LINE
  5
266
100
AcDbEntity
  8
DRAFT
100
AcDbLine
 62
7
  6
CONTINUOUS
 10
-21.8656084269
 20
4.752025023
 11
-21.9854287816
 21
5.0023274764
  0
LWPOLYLINE
  5
267
100
AcDbEntity
  8
RACCORDO
100
AcDbPolyline
 62
250
  6
CONTINUOUS
 90
12
 70
0
 10
-21.8813651677
 20
-21.7256596945
 10
-21.8803767859
 20
-21.7219359934
 10
-21.8794075084
 20
-21.7154648182
 10
-21.8784573352
 20
-21.7062461689
 10
-21.8775204198
 20
-21.6941956104
 10
-21.8766026088
 20
-21.6793975778
 10
-21.8757214415
 20
-21.6621053763
 10
-21.8748780751
 20
-21.6422735054
 10
-21.8740713524
 20
-21.6199474656
 10
-21.8733153421
 20
-21.5955170644
 10
-21.8726110717
 20
-21.5689483315
 10
-21.8713656534
 20
-21.5099894985
  0
LWPOLYLINE
  5
268
100
AcDbEntity
  8
RACCORDO
100
AcDbPolyline
 62
250
  6
CONTINUOUS
 90
7
 70
0
 10
21.5416374374
 20
-9.6554644737
 10
21.5376445768
 20
-9.6564413404
 10
21.5283986184
 20
-9.6574078577
 10
21.5139975181
 20
-9.658353786
 10
21.4945938472
 20
-9.6592691036
 10
21.4703931766
 20
-9.6601441134
 10
21.4416518985
 20
-9.660969545
  0
LWPOLYLINE
  5
269
100
AcDbEntity
  8
RACCORDO
100
AcDbPolyline
 62
250
  6
CONTINUOUS
 90
9
 70
0
 10
-21.8434246085
 20
-9.6554644737
 10
-21.8394317499
 20
-9.6564413404
 10
-21.8301857933
 20
-9.6574078577
 10
-21.8157846944
 20
-9.6583537861
 10
-21.7963810245
 20
-9.6592691037
 10
-21.7721803547
 20
-9.6601441135
 10
-21.743439077
 20
-9.6609695452
 10
-21.7104616891
 20
-9.6617366538
 10
-21.6332372668
 20
-9.6630640974
  0
LINE
  5
26A
100
AcDbEntity
  8
RACCORDO
100
AcDbLine
 62
250
  6
CONTINUOUS
 10
-21.9478596614
 20
-21.8784956949
 11
-21.8813651677
 21
-21.7256596945
  0
LINE
  5
26B
100
AcDbEntity
  8
RACCORDO
100
AcDbLine
 62
250
  6
CONTINUOUS
 10
-21.448474877
 20
-22.3786127511
 11
-21.3815365052
 21
-22.2247565075
  0
LINE
  5
26C
100
AcDbEntity
  8
RACCORDO
100
AcDbLine
 62
250
  6
CONTINUOUS
 10
-21.8813651677
 20
21.3957307471
 11
-21.9478596614
 21
21.5485667475
  0
LINE
  5
26D
100
AcDbEntity
  8
RACCORDO
100
AcDbLine
 62
250
  6
CONTINUOUS
 10
-21.3815365052
 20
21.8948275601
 11
-21.448474877
 21
22.0486838037
  0
LWPOLYLINE
  5
26E
100
AcDbEntity
  8
0
100
AcDbPolyline
 62
7
  6
CONTINUOUS
 90
3
 70
0
 43
0.3500000006
 10
0.7776778579
 20
33.2781481476
 10
0.706249295
 20
33.0638636627
 10
0.5633921338
 20
32.778147995
  0
LINE
  5
26F
100
AcDbEntity
  8
RACCORDO
100
AcDbLine
 62
250
  6
CONTINUOUS
 10
-0.7002783699
 20
22.0486838037
 11
-0.7672167417
 21
21.8948275601
  0
LINE
  5
270
100
AcDbEntity
  8
RACCORDO
100
AcDbLine
 62
250
  6
CONTINUOUS
 10
-0.2008935855
 20
21.5485667475
 11
-0.2673880792
 21
21.3957307471
  0
LWPOLYLINE
  5
271
100
AcDbEntity
  8
RACCORDO
100
AcDbPolyline
 62
250
  6
CONTINUOUS
 90
16
 70
0
 10
-0.022239132
 20
20.9711934758
 10
-0.018258667
 20
20.978861373
 10
-0.0090231844
 20
20.9864479858
 10
0.0053694377
 20
20.9938729111
 10
0.0247666657
 20
21.0010574592
 10
0.048962927
 20
21.007925488
 10
0.0777017884
 20
21.0144042097
 10
0.1106786742
 20
21.0204249626
 10
0.147544094
 20
21.0259239385
 10
0.1879073465
 20
21.030842859
 10
0.23134066
 20
21.0351295932
 10
0.2773837264
 20
21.0387387099
 10
0.3255485793
 20
21.0416319598
 10
0.3753247655
 20
21.0437786802
 10
0.4261847546
 20
21.0451561198
 10
0.4775895303
 20
21.0457496806
  0
LWPOLYLINE
  5
272
100
AcDbEntity
  8
RACCORDO
100
AcDbPolyline
 62
250
  6
CONTINUOUS
 90
7
 70
0
 10
-0.3053286384
 20
-9.6554644737
 10
-0.3093215005
 20
-9.6564413403
 10
-0.31856746
 20
-9.6574078576
 10
-0.3329685613
 20
-9.6583537859
 10
-0.3523722329
 20
-9.6592691035
 10
-0.376572904
 20
-9.6601441133
 10
-0.4053141824
 20
-9.6609695449
  0
LINE
  5
273
100
AcDbEntity
  8
RACCORDO
100
AcDbLine
 62
250
  6
CONTINUOUS
 10
21.4416518985
 20
-9.660969545
 11
21.3718103892
 21
-9.6624373119
  0
LINE
  5
274
100
AcDbEntity
  8
RACCORDO
100
AcDbLine
 62
250
  6
CONTINUOUS
 10
-0.4053141824
 20
-9.6609695449
 11
-0.4751556916
 21
-9.6624373118
  0
LINE
  5
275
100
AcDbEntity
  8
RACCORDO
100
AcDbLine
 62
250
  6
CONTINUOUS
 10
21.3718103892
 20
-9.6624373119
 11
21.288021204
 21
-9.6636103685
  0
LINE
  5
276
100
AcDbEntity
  8
RACCORDO
100
AcDbLine
 62
250
  6
CONTINUOUS
 10
-0.4751556916
 20
-9.6624373118
 11
-0.558944876
 21
-9.6636103683
  0
LINE
  5
277
100
AcDbEntity
  8
RACCORDO
100
AcDbLine
 62
250
  6
CONTINUOUS
 10
21.288021204
 20
-9.6636103685
 11
21.1938257328
 21
-9.6644391349
  0
LINE
  5
278
100
AcDbEntity
  8
RACCORDO
100
AcDbLine
 62
250
  6
CONTINUOUS
 10
-0.558944876
 20
-9.6636103683
 11
-0.6531403458
 21
-9.6644391346
  0
LINE
  5
279
100
AcDbEntity
  8
RACCORDO
100
AcDbLine
 62
250
  6
CONTINUOUS
 10
21.1938257328
 20
-9.6644391349
 11
21.0418087749
 21
-9.6649644733
  0
LINE
  5
27A
100
AcDbEntity
  8
RACCORDO
100
AcDbLine
 62
250
  6
CONTINUOUS
 10
-0.6531403458
 20
-9.6644391346
 11
-0.8051573009
 21
-9.664964473
  0
LINE
  5
27B
100
AcDbEntity
  8
RACCORDO
100
AcDbLine
 62
250
  6
CONTINUOUS
 10
-21.4458442677
 20
-9.66471285
 11
-0.8051573009
 21
-9.6649644737
  0
LINE
  5
27C
100
AcDbEntity
  8
RACCORDO
100
AcDbLine
 62
250
  6
CONTINUOUS
 10
0.4011218082
 20
-9.66471285
 11
21.0418087749
 21
-9.6649644737
  0
LINE
  5
27D
100
AcDbEntity
  8
RACCORDO
100
AcDbLine
 62
250
  6
CONTINUOUS
 10
-21.5437710149
 20
-9.6640703392
 11
-21.4458442677
 21
-9.66471285
  0
LINE
  5
27E
100
AcDbEntity
  8
RACCORDO
100
AcDbLine
 62
250
  6
CONTINUOUS
 10
0.303195061
 20
-9.6640703392
 11
0.4011218082
 21
-9.66471285
  0
LINE
  5
27F
100
AcDbEntity
  8
RACCORDO
100
AcDbLine
 62
250
  6
CONTINUOUS
 10
-21.6332372668
 20
-9.6630640974
 11
-21.5437710149
 21
-9.6640703392
  0
LINE
  5
280
100
AcDbEntity
  8
RACCORDO
100
AcDbLine
 62
250
  6
CONTINUOUS
 10
0.2137288092
 20
-9.6630640974
 11
0.303195061
 21
-9.6640703392
  0
LWPOLYLINE
  5
281
100
AcDbEntity
  8
RACCORDO
100
AcDbPolyline
 62
250
  6
CONTINUOUS
 90
9
 70
0
 10
0.0035414674
 20
-9.6554644737
 10
0.007534326
 20
-9.6564413404
 10
0.0167802826
 20
-9.6574078577
 10
0.0311813816
 20
-9.6583537861
 10
0.0505850514
 20
-9.6592691037
 10
0.0747857213
 20
-9.6601441135
 10
0.1035269989
 20
-9.6609695452
 10
0.1365043868
 20
-9.6617366538
 10
0.2137288092
 20
-9.6630640974
  0
LWPOLYLINE
  5
282
100
AcDbEntity
  8
RACCORDO
100
AcDbPolyline
 62
250
  6
CONTINUOUS
 90
16
 70
0
 10
-0.0222391322
 20
-21.3011224232
 10
-0.0182598459
 20
-21.308790604
 10
-0.0090253605
 20
-21.3163775145
 10
0.0053664533
 20
-21.3238027457
 10
0.0247630657
 20
-21.3309876022
 10
0.048958904
 20
-21.3378559361
 10
0.0776975317
 20
-21.3443349542
 10
0.1106743659
 20
-21.3503559896
 10
0.1475399056
 20
-21.3558552289
 10
0.187903436
 20
-21.3607743892
 10
0.231337169
 20
-21.3650613353
 10
0.2773807776
 20
-21.3686706326
 10
0.3255462743
 20
-21.3715640286
 10
0.3753231828
 20
-21.3737108581
 10
0.4261839487
 20
-21.3750883681
 10
0.4775895303
 20
-21.3756819593
  0
LINE
  5
283
100
AcDbEntity
  8
RACCORDO
100
AcDbLine
 62
250
  6
CONTINUOUS
 10
-0.7672167417
 20
-22.2247565075
 11
-0.7002783699
 21
-22.3786127511
  0
LINE
  5
284
100
AcDbEntity
  8
RACCORDO
100
AcDbLine
 62
250
  6
CONTINUOUS
 10
-0.2673880792
 20
-21.7256596945
 11
-0.2008935855
 21
-21.8784956949
  0
LWPOLYLINE
  5
285
100
AcDbEntity
  8
RACCORDO
100
AcDbPolyline
 62
250
  6
CONTINUOUS
 90
12
 70
0
 10
-0.2673880792
 20
21.3957307471
 10
-0.2683763181
 20
21.3920053666
 10
-0.2693453323
 20
21.3855368159
 10
-0.2702951219
 20
21.3763250951
 10
-0.2712314642
 20
21.3642860972
 10
-0.2721485819
 20
21.3495039291
 10
-0.2730291428
 20
21.3322309122
 10
-0.2738719703
 20
21.312426445
 10
-0.2746782411
 20
21.290131129
 10
-0.2754341534
 20
21.2657190898
 10
-0.276138913
 20
21.2391482057
 10
-0.277385938
 20
21.1801567589
  0
LWPOLYLINE
  5
286
100
AcDbEntity
  8
0
100
AcDbPolyline
 62
7
  6
CONTINUOUS
 90
2
 70
0
 43
0.3500000006
 10
-3.4366079893
 20
32.9924324799
 10
-3.4366079893
 20
34.4924329376
  0
LWPOLYLINE
  5
287
100
AcDbEntity
  8
RACCORDO
100
AcDbPolyline
 62
250
  6
CONTINUOUS
 90
8
 70
0
 10
-0.7672167417
 20
21.8948275601
 10
-0.7682108401
 20
21.8874358652
 10
-0.7691838068
 20
21.8743812095
 10
-0.7701356419
 20
21.8557385573
 10
-0.7710714803
 20
21.8316145593
 10
-0.771986187
 20
21.8021475692
 10
-0.7728643573
 20
21.7675073262
 10
-0.7745099698
 20
21.6835323885
  0
LINE
  5
288
100
AcDbEntity
  8
RACCORDO
100
AcDbLine
 62
7
  6
CONTINUOUS
 10
-0.2088099528
 20
20.0287519129
 11
-0.2449093434
 21
19.7856710446
  0
LWPOLYLINE
  5
289
100
AcDbEntity
  8
0
100
AcDbPolyline
 62
7
  6
CONTINUOUS
 90
2
 70
0
 43
0.3500000006
 10
31.0430757294
 20
-3.5578211288
 10
29.5430752716
 20
-3.5578211288
  0
LINE
  5
28A
100
AcDbEntity
  8
RACCORDO
100
AcDbLine
 62
7
  6
CONTINUOUS
 10
-0.2088099528
 20
-20.3586808602
 11
-0.2535734547
 21
-20.0572588497
  0
LWPOLYLINE
  5
28B
100
AcDbEntity
  8
RACCORDO
100
AcDbPolyline
 62
250
  6
CONTINUOUS
 90
16
 70
0
 10
-0.0343990919
 20
-21.7256596945
 10
-0.0315845006
 20
-21.7777763006
 10
-0.0233356257
 20
-21.8293232671
 10
-0.0097425987
 20
-21.879736977
 10
0.0090460161
 20
-21.9284661977
 10
0.0328248399
 20
-21.9749780963
 10
0.0613339197
 20
-22.0187640687
 10
0.0942615842
 20
-22.0593453243
 10
0.1312478351
 20
-22.0962780953
 10
0.1718882681
 20
-22.1291584877
 10
0.2157385386
 20
-22.1576269392
 10
0.2623191894
 20
-22.1813721187
 10
0.3111208611
 20
-22.200134327
 10
0.361609925
 20
-22.2137083724
 10
0.413234325
 20
-22.2219458016
 10
0.4654295706
 20
-22.2247565076
  0
LWPOLYLINE
  5
28C
100
AcDbEntity
  8
RACCORDO
100
AcDbPolyline
 62
250
  6
CONTINUOUS
 90
6
 70
0
 10
-0.7719864956
 20
-22.1320751582
 10
-0.7710717398
 20
-22.1615429464
 10
-0.7701358496
 20
-22.1856673986
 10
-0.7691839481
 20
-22.204310192
 10
-0.7682109121
 20
-22.2173648521
 10
-0.7672167417
 20
-22.2247565075
  0
LWPOLYLINE
  5
28D
100
AcDbEntity
  8
RACCORDO
100
AcDbPolyline
 62
250
  6
CONTINUOUS
 90
10
 70
0
 10
-0.2754379048
 20
-21.5955170644
 10
-0.2746818945
 20
-21.6199474656
 10
-0.2738751718
 20
-21.6422735054
 10
-0.2730318054
 20
-21.6621053763
 10
-0.2721506381
 20
-21.6793975778
 10
-0.2712328271
 20
-21.6941956104
 10
-0.2702959117
 20
-21.7062461689
 10
-0.2693457385
 20
-21.7154648182
 10
-0.268376461
 20
-21.7219359934
 10
-0.2673880792
 20
-21.7256596945
  0
LINE
  5
28E
100
AcDbEntity
  8
RACCORDO
100
AcDbLine
 62
250
  6
CONTINUOUS
 10
-0.2767957333
 20
-21.540275237
 11
-0.2754379048
 21
-21.5955170644
  0
LINE
  5
28F
100
AcDbEntity
  8
RACCORDO
100
AcDbLine
 62
250
  6
CONTINUOUS
 10
-0.7737060057
 20
-22.0578195378
 11
-0.7719864956
 21
-22.1320751582
  0
LINE
  5
290
100
AcDbEntity
  8
RACCORDO
100
AcDbLine
 62
250
  6
CONTINUOUS
 10
-0.2779168012
 20
-21.4780428202
 11
-0.2767957333
 21
-21.540275237
  0
LINE
  5
291
100
AcDbEntity
  8
RACCORDO
100
AcDbLine
 62
250
  6
CONTINUOUS
 10
-0.7752651074
 20
-21.964600864
 11
-0.7737060057
 21
-22.0578195378
  0
LINE
  5
292
100
AcDbEntity
  8
RACCORDO
100
AcDbLine
 62
250
  6
CONTINUOUS
 10
-0.2787820018
 20
-21.4099481363
 11
-0.2779168012
 21
-21.4780428202
  0
LINE
  5
293
100
AcDbEntity
  8
RACCORDO
100
AcDbLine
 62
250
  6
CONTINUOUS
 10
-0.777211805
 20
-21.7939665104
 11
-0.7752651074
 21
-21.964600864
  0
LINE
  5
294
100
AcDbEntity
  8
RACCORDO
100
AcDbLine
 62
250
  6
CONTINUOUS
 10
-0.2795480389
 20
-21.3011224232
 11
-0.2787820018
 21
-21.4099481363
  0
LINE
  5
295
100
AcDbEntity
  8
RACCORDO
100
AcDbLine
 62
250
  6
CONTINUOUS
 10
-0.7789322541
 20
-21.5229471218
 11
-0.777211805
 21
-21.7939665104
  0
LINE
  5
296
100
AcDbEntity
  8
RACCORDO
100
AcDbLine
 62
250
  6
CONTINUOUS
 10
-0.0130679432
 20
18.3956328867
 11
-0.0226800046
 21
21.0447199902
  0
LINE
  5
297
100
AcDbEntity
  8
RACCORDO
100
AcDbLine
 62
250
  6
CONTINUOUS
 10
-0.7957548616
 20
-16.1873480414
 11
-0.7793767014
 21
-21.3756819648
  0
LINE
  5
298
100
AcDbEntity
  8
RACCORDO
100
AcDbLine
 62
250
  6
CONTINUOUS
 10
-0.295926192
 20
-16.141699513
 11
-0.2795480389
 21
-21.3011224232
  0
LINE
  5
299
100
AcDbEntity
  8
RACCORDO
100
AcDbLine
 62
250
  6
CONTINUOUS
 10
-0.7793767014
 20
-21.3756819648
 11
-0.7789322541
 21
-21.5229471218
  0
LINE
  5
29A
100
AcDbEntity
  8
RACCORDO
100
AcDbLine
 62
250
  6
CONTINUOUS
 10
-0.0006200875
 20
13.2204444345
 11
-0.0130679432
 21
18.3956328867
  0
LINE
  5
29B
100
AcDbEntity
  8
RACCORDO
100
AcDbLine
 62
250
  6
CONTINUOUS
 10
-0.8042631296
 20
-10.9712624184
 11
-0.7957548616
 21
-16.1873480414
  0
LINE
  5
29C
100
AcDbEntity
  8
RACCORDO
100
AcDbLine
 62
250
  6
CONTINUOUS
 10
-0.3044345115
 20
-10.9549351275
 11
-0.295926192
 21
-16.141699513
  0
LINE
  5
29D
100
AcDbEntity
  8
RACCORDO
100
AcDbLine
 62
250
  6
CONTINUOUS
 10
0.0035414674
 20
9.3255355263
 11
-0.0006200875
 21
13.2204444345
  0
LINE
  5
29E
100
AcDbEntity
  8
RACCORDO
100
AcDbLine
 62
250
  6
CONTINUOUS
 10
-0.8074892963
 20
0.8905976504
 11
-0.8042631296
 21
-10.9712624184
  0
LINE
  5
29F
100
AcDbEntity
  8
RACCORDO
100
AcDbLine
 62
250
  6
CONTINUOUS
 10
-0.3076606333
 20
0.8895571375
 11
-0.3044345115
 21
-10.9549351275
  0
LINE
  5
2A0
100
AcDbEntity
  8
RACCORDO
100
AcDbLine
 62
7
  6
CONTINUOUS
 10
-0.2002026611
 20
20.4610133151
 11
-0.2008935855
 21
21.5485667475
  0
LINE
  5
2A1
100
AcDbEntity
  8
RACCORDO
100
AcDbLine
 62
7
  6
CONTINUOUS
 10
-0.1015845099
 20
-20.7909422625
 11
-0.1008935855
 21
-21.8784956949
  0
LINE
  5
2A2
100
AcDbEntity
  8
RACCORDO
100
AcDbLine
 62
250
  6
CONTINUOUS
 10
0.0012601207
 20
-12.2532610026
 11
0.0035414674
 21
9.3255355263
  0
LINE
  5
2A3
100
AcDbEntity
  8
RACCORDO
100
AcDbLine
 62
250
  6
CONTINUOUS
 10
-0.8009956733
 20
13.2517477461
 11
-0.8074892963
 21
0.8905976504
  0
LINE
  5
2A4
100
AcDbEntity
  8
RACCORDO
100
AcDbLine
 62
250
  6
CONTINUOUS
 10
-0.3011670344
 20
13.2204738701
 11
-0.3076606333
 21
0.8895571375
  0
LINE
  5
2A5
100
AcDbEntity
  8
RACCORDO
100
AcDbLine
 62
7
  6
CONTINUOUS
 10
-0.1015845099
 20
20.4610133151
 11
-0.1008935855
 21
21.5485667475
  0
LINE
  5
2A6
100
AcDbEntity
  8
RACCORDO
100
AcDbLine
 62
7
  6
CONTINUOUS
 10
-0.2002026611
 20
-20.7909422625
 11
-0.2008935855
 21
-21.8784956949
  0
LINE
  5
2A7
100
AcDbEntity
  8
RACCORDO
100
AcDbLine
 62
250
  6
CONTINUOUS
 10
-0.0092192449
 20
-17.4348024636
 11
0.0012601207
 21
-12.2532610026
  0
LINE
  5
2A8
100
AcDbEntity
  8
RACCORDO
100
AcDbLine
 62
250
  6
CONTINUOUS
 10
-0.7885479347
 20
18.4561512018
 11
-0.8009956733
 21
13.2517477461
  0
LINE
  5
2A9
100
AcDbEntity
  8
RACCORDO
100
AcDbLine
 62
250
  6
CONTINUOUS
 10
-0.2887191614
 20
18.3956556902
 11
-0.3011670344
 21
13.2204738701
  0
LINE
  5
2AA
100
AcDbEntity
  8
RACCORDO
100
AcDbLine
 62
250
  6
CONTINUOUS
 10
-0.7782080123
 20
21.3335168063
 11
-0.7885479347
 21
18.4561512018
  0
LINE
  5
2AB
100
AcDbEntity
  8
RACCORDO
100
AcDbLine
 62
250
  6
CONTINUOUS
 10
-0.279107107
 20
21.0447352103
 11
-0.2887191614
 21
18.3956556902
  0
LINE
  5
2AC
100
AcDbEntity
  8
RACCORDO
100
AcDbLine
 62
250
  6
CONTINUOUS
 10
-0.0226800641
 20
-21.3746641576
 11
-0.0092192449
 21
-17.4348024636
  0
LINE
  5
2AD
100
AcDbEntity
  8
RACCORDO
100
AcDbLine
 62
250
  6
CONTINUOUS
 10
-0.7766203271
 20
21.5246169865
 11
-0.7782080123
 21
21.3335168063
  0
LINE
  5
2AE
100
AcDbEntity
  8
RACCORDO
100
AcDbLine
 62
250
  6
CONTINUOUS
 10
-0.278383685
 20
21.1146044398
 11
-0.279107107
 21
21.0447352103
  0
LINE
  5
2AF
100
AcDbEntity
  8
RACCORDO
100
AcDbLine
 62
250
  6
CONTINUOUS
 10
-0.7745099698
 20
21.6835323885
 11
-0.7766203271
 21
21.5246169865
  0
LINE
  5
2B0
100
AcDbEntity
  8
RACCORDO
100
AcDbLine
 62
250
  6
CONTINUOUS
 10
-0.277385938
 20
21.1801567589
 11
-0.278383685
 21
21.1146044398
  0
LWPOLYLINE
  5
2B1
100
AcDbEntity
  8
RACCORDO
100
AcDbPolyline
 62
250
  6
CONTINUOUS
 90
16
 70
0
 10
-0.0343990919
 20
21.3957307471
 10
-0.0315843681
 20
21.4478485927
 10
-0.0233351441
 20
21.499396566
 10
-0.0097416193
 20
21.549811026
 10
0.0090475704
 20
21.5985407258
 10
0.0328269786
 20
21.6450528401
 10
0.0613365939
 20
21.6888387915
 10
0.0942646837
 20
21.7294198112
 10
0.1312512022
 20
21.766352174
 10
0.1718917277
 20
21.7992320505
 10
0.2157418846
 20
21.8276999221
 10
0.2623222018
 20
21.8514445124
 10
0.3111233563
 20
21.8702061911
 10
0.3616117415
 20
21.8837798122
 10
0.4132353021
 20
21.8920169577
 10
0.4654295706
 20
21.8948275601
  0
LWPOLYLINE
  5
2B2
100
AcDbEntity
  8
0
100
AcDbPolyline
 62
7
  6
CONTINUOUS
 90
2
 70
0
 43
0.3500000006
 10
31.0430757294
 20
-1.2006781998
 10
29.5430752716
 20
-1.2006781998
  0
LWPOLYLINE
  5
2B3
100
AcDbEntity
  8
RACCORDO
100
AcDbPolyline
 62
250
  6
CONTINUOUS
 90
16
 70
0
 10
-0.2673880792
 20
21.3957307471
 10
-0.2702026705
 20
21.4478473532
 10
-0.2784515453
 20
21.4993943197
 10
-0.2920445724
 20
21.5498080297
 10
-0.3108331872
 20
21.5985372503
 10
-0.3346120109
 20
21.6450491489
 10
-0.3631210907
 20
21.6888351214
 10
-0.3960487552
 20
21.7294163769
 10
-0.4330350061
 20
21.7663491479
 10
-0.4736754391
 20
21.7992295403
 10
-0.5175257096
 20
21.8276979918
 10
-0.5641063604
 20
21.8514431713
 10
-0.6129080321
 20
21.8702053796
 10
-0.6633970961
 20
21.883779425
 10
-0.715021496
 20
21.8920168542
 10
-0.7672167416
 20
21.8948275602
  0
LWPOLYLINE
  5
2B4
100
AcDbEntity
  8
RACCORDO
100
AcDbPolyline
 62
250
  6
CONTINUOUS
 90
6
 70
0
 10
0.4701993246
 20
21.8021462109
 10
0.4692845688
 20
21.831613999
 10
0.4683486785
 20
21.8557384512
 10
0.467396777
 20
21.8743812446
 10
0.4664237411
 20
21.8874359047
 10
0.4654295706
 20
21.8948275601
  0
LWPOLYLINE
  5
2B5
100
AcDbEntity
  8
RACCORDO
100
AcDbPolyline
 62
250
  6
CONTINUOUS
 90
10
 70
0
 10
-0.0263492662
 20
21.265588117
 10
-0.0271052766
 20
21.2900185183
 10
-0.0279119992
 20
21.312344558
 10
-0.0287553657
 20
21.332176429
 10
-0.0296365329
 20
21.3494686304
 10
-0.030554344
 20
21.364266663
 10
-0.0314912594
 20
21.3763172216
 10
-0.0324414326
 20
21.3855358709
 10
-0.0334107101
 20
21.3920070461
 10
-0.0343990919
 20
21.3957307471
  0
LINE
  5
2B6
100
AcDbEntity
  8
RACCORDO
100
AcDbLine
 62
250
  6
CONTINUOUS
 10
-0.0249914378
 20
21.2103462897
 11
-0.0263492662
 21
21.265588117
  0
LINE
  5
2B7
100
AcDbEntity
  8
RACCORDO
100
AcDbLine
 62
250
  6
CONTINUOUS
 10
0.4719188347
 20
21.7278905904
 11
0.4701993246
 21
21.8021462109
  0
LINE
  5
2B8
100
AcDbEntity
  8
RACCORDO
100
AcDbLine
 62
250
  6
CONTINUOUS
 10
-0.0238703699
 20
21.1481138728
 11
-0.0249914378
 21
21.2103462897
  0
LINE
  5
2B9
100
AcDbEntity
  8
RACCORDO
100
AcDbLine
 62
250
  6
CONTINUOUS
 10
0.4734779364
 20
21.6346719166
 11
0.4719188347
 21
21.7278905904
  0
LINE
  5
2BA
100
AcDbEntity
  8
RACCORDO
100
AcDbLine
 62
250
  6
CONTINUOUS
 10
0.475424634
 20
21.464037563
 11
0.4734779364
 21
21.6346719166
  0
LWPOLYLINE
  5
2BB
100
AcDbEntity
  8
RACCORDO
100
AcDbPolyline
 62
250
  6
CONTINUOUS
 90
3
 70
0
 10
-0.0226800046
 20
21.0447199902
 10
-0.0230051693
 20
21.080019189
 10
-0.0238703699
 20
21.1481138728
  0
LINE
  5
2BC
100
AcDbEntity
  8
RACCORDO
100
AcDbLine
 62
250
  6
CONTINUOUS
 10
0.477145083
 20
21.1930181745
 11
0.475424634
 21
21.464037563
  0
LINE
  5
2BD
100
AcDbEntity
  8
RACCORDO
100
AcDbLine
 62
250
  6
CONTINUOUS
 10
0.4939676905
 20
15.857419094
 11
0.4775895303
 21
21.0457530174
  0
LINE
  5
2BE
100
AcDbEntity
  8
RACCORDO
100
AcDbLine
 62
250
  6
CONTINUOUS
 10
0.4775895303
 20
21.0457530174
 11
0.477145083
 21
21.1930181745
  0
LINE
  5
2BF
100
AcDbEntity
  8
RACCORDO
100
AcDbLine
 62
250
  6
CONTINUOUS
 10
0.5024759585
 20
10.641333471
 11
0.4939676905
 21
15.857419094
  0
LWPOLYLINE
  5
2C0
100
AcDbEntity
  8
0
100
AcDbPolyline
 62
7
  6
CONTINUOUS
 90
4
 70
0
 43
0.3500000006
 10
1.7776778798
 20
35.3495754089
 10
1.7776778798
 20
35.9924333954
 10
3.2776779127
 20
35.9924333954
 10
2.4205348749
 20
32.9924324799
  0
LINE
  5
2C1
100
AcDbEntity
  8
RACCORDO
100
AcDbLine
 62
250
  6
CONTINUOUS
 10
0.5010887487
 20
-12.2769249037
 11
0.5024759585
 21
10.641333471
  0
LINE
  5
2C2
100
AcDbEntity
  8
RACCORDO
100
AcDbLine
 62
250
  6
CONTINUOUS
 10
0.4906095393
 20
-17.4877185509
 11
0.5010887487
 21
-12.2769249037
  0
LINE
  5
2C3
100
AcDbEntity
  8
RACCORDO
100
AcDbLine
 62
250
  6
CONTINUOUS
 10
0.4764208412
 20
-21.6634457537
 11
0.4906095393
 21
-17.4877185509
  0
LINE
  5
2C4
100
AcDbEntity
  8
RACCORDO
100
AcDbLine
 62
250
  6
CONTINUOUS
 10
0.474833156
 20
-21.8545459339
 11
0.4764208412
 21
-21.6634457537
  0
LINE
  5
2C5
100
AcDbEntity
  8
RACCORDO
100
AcDbLine
 62
250
  6
CONTINUOUS
 10
-0.023403486
 20
-21.4445333872
 11
-0.0226800641
 21
-21.3746641576
  0
LINE
  5
2C6
100
AcDbEntity
  8
RACCORDO
100
AcDbLine
 62
250
  6
CONTINUOUS
 10
0.4727227988
 20
-22.0134613359
 11
0.474833156
 21
-21.8545459339
  0
LINE
  5
2C7
100
AcDbEntity
  8
RACCORDO
100
AcDbLine
 62
250
  6
CONTINUOUS
 10
-0.024401233
 20
-21.5100857063
 11
-0.023403486
 21
-21.4445333872
  0
LWPOLYLINE
  5
2C8
100
AcDbEntity
  8
RACCORDO
100
AcDbPolyline
 62
250
  6
CONTINUOUS
 90
16
 70
0
 10
-0.2673880792
 20
-21.7256596945
 10
-0.270202803
 20
-21.7777775401
 10
-0.278452027
 20
-21.8293255134
 10
-0.2920455517
 20
-21.8797399734
 10
-0.3108347415
 20
-21.9284696731
 10
-0.3346141496
 20
-21.9749817874
 10
-0.363123765
 20
-22.0187677389
 10
-0.3960518547
 20
-22.0593487585
 10
-0.4330383732
 20
-22.0962811214
 10
-0.4736788988
 20
-22.1291609979
 10
-0.5175290556
 20
-22.1576288694
 10
-0.5641093729
 20
-22.1813734598
 10
-0.6129105274
 20
-22.2001351385
 10
-0.6633989125
 20
-22.2137087596
 10
-0.7150224732
 20
-22.2219459051
 10
-0.7672167417
 20
-22.2247565075
  0
LWPOLYLINE
  5
2C9
100
AcDbEntity
  8
RACCORDO
100
AcDbPolyline
 62
250
  6
CONTINUOUS
 90
8
 70
0
 10
0.4654295706
 20
-22.2247565075
 10
0.466423669
 20
-22.2173648125
 10
0.4673966358
 20
-22.2043101569
 10
0.4683484709
 20
-22.1856675047
 10
0.4692843092
 20
-22.1615435066
 10
0.4701990159
 20
-22.1320765165
 10
0.4710771862
 20
-22.0974362735
 10
0.4727227988
 20
-22.0134613359
  0
LINE
  5
2CA
100
AcDbEntity
  8
RACCORDO
100
AcDbLine
 62
7
  6
CONTINUOUS
 10
-0.0929772182
 20
-20.3586808602
 11
-0.0568778276
 21
-20.1155999919
  0
LWPOLYLINE
  5
2CB
100
AcDbEntity
  8
0
100
AcDbPolyline
 62
7
  6
CONTINUOUS
 90
2
 70
0
 43
0.3500000006
 10
31.0430757294
 20
2.8707496719
 10
29.5430752716
 20
2.8707496719
  0
LINE
  5
2CC
100
AcDbEntity
  8
RACCORDO
100
AcDbLine
 62
7
  6
CONTINUOUS
 10
-0.0929772182
 20
20.0287519129
 11
-0.0482137164
 21
19.7273299023
  0
LWPOLYLINE
  5
2CD
100
AcDbEntity
  8
RACCORDO
100
AcDbPolyline
 62
250
  6
CONTINUOUS
 90
12
 70
0
 10
-0.0343990919
 20
-21.7256596945
 10
-0.033410853
 20
-21.7219343139
 10
-0.0324418388
 20
-21.7154657633
 10
-0.0314920492
 20
-21.7062540425
 10
-0.0305557069
 20
-21.6942150445
 10
-0.0296385892
 20
-21.6794328765
 10
-0.0287580282
 20
-21.6621598596
 10
-0.0279152007
 20
-21.6423553924
 10
-0.0271089299
 20
-21.6200600764
 10
-0.0263530176
 20
-21.5956480372
 10
-0.0256482581
 20
-21.5690771531
 10
-0.024401233
 20
-21.5100857063
  0
LINE
  5
2CE
100
AcDbEntity
  8
RACCORDO
100
AcDbLine
 62
250
  6
CONTINUOUS
 10
-0.1008935855
 20
-21.8784956949
 11
-0.0343990919
 21
-21.7256596945
  0
LINE
  5
2CF
100
AcDbEntity
  8
RACCORDO
100
AcDbLine
 62
250
  6
CONTINUOUS
 10
0.3984911988
 20
-22.3786127511
 11
0.4654295706
 21
-22.2247565075
  0
LINE
  5
2D0
100
AcDbEntity
  8
RACCORDO
100
AcDbLine
 62
250
  6
CONTINUOUS
 10
21.146687706
 20
22.0486838037
 11
21.0797493342
 21
21.8948275601
  0
LWPOLYLINE
  5
2D1
100
AcDbEntity
  8
RACCORDO
100
AcDbPolyline
 62
250
  6
CONTINUOUS
 90
16
 70
0
 10
-0.2795480391
 20
-21.3011224232
 10
-0.2835285041
 20
-21.3087903203
 10
-0.2927639866
 20
-21.3163769332
 10
-0.3071566088
 20
-21.3238018585
 10
-0.3265538368
 20
-21.3309864066
 10
-0.350750098
 20
-21.3378544353
 10
-0.3794889594
 20
-21.344333157
 10
-0.4124658453
 20
-21.35035391
 10
-0.4493312651
 20
-21.3558528859
 10
-0.4896945175
 20
-21.3607718064
 10
-0.533127831
 20
-21.3650585405
 10
-0.5791708975
 20
-21.3686676573
 10
-0.6273357504
 20
-21.3715609072
 10
-0.6771119365
 20
-21.3737076275
 10
-0.7279719256
 20
-21.3750850672
 10
-0.7793767014
 20
-21.375678628
  0
LWPOLYLINE
  5
2D2
100
AcDbEntity
  8
RACCORDO
100
AcDbPolyline
 62
250
  6
CONTINUOUS
 90
7
 70
0
 10
0.0035414674
 20
9.3255355263
 10
0.0075343294
 20
9.326512393
 10
0.016780289
 20
9.3274789103
 10
0.0311813902
 20
9.3284248385
 10
0.0505850619
 20
9.3293401562
 10
0.074785733
 20
9.3302151659
 10
0.1035270113
 20
9.3310405975
  0
LINE
  5
2D3
100
AcDbEntity
  8
RACCORDO
100
AcDbLine
 62
250
  6
CONTINUOUS
 10
0.1035270113
 20
9.3310405975
 11
0.1733685206
 21
9.3325083644
  0
LINE
  5
2D4
100
AcDbEntity
  8
RACCORDO
100
AcDbLine
 62
250
  6
CONTINUOUS
 10
-21.7434390696
 20
9.3310405977
 11
-21.6735975603
 21
9.3325083646
  0
LINE
  5
2D5
100
AcDbEntity
  8
RACCORDO
100
AcDbLine
 62
250
  6
CONTINUOUS
 10
0.1733685206
 20
9.3325083644
 11
0.257157705
 21
9.3336814209
  0
LINE
  5
2D6
100
AcDbEntity
  8
RACCORDO
100
AcDbLine
 62
250
  6
CONTINUOUS
 10
-21.6735975603
 20
9.3325083646
 11
-21.589808375
 21
9.3336814211
  0
LINE
  5
2D7
100
AcDbEntity
  8
RACCORDO
100
AcDbLine
 62
250
  6
CONTINUOUS
 10
0.257157705
 20
9.3336814209
 11
0.3513531748
 21
9.3345101873
  0
LINE
  5
2D8
100
AcDbEntity
  8
RACCORDO
100
AcDbLine
 62
250
  6
CONTINUOUS
 10
-21.589808375
 20
9.3336814211
 11
-21.4956129038
 21
9.3345101875
  0
LINE
  5
2D9
100
AcDbEntity
  8
RACCORDO
100
AcDbLine
 62
250
  6
CONTINUOUS
 10
0.3513531748
 20
9.3345101873
 11
0.5033701299
 21
9.3350355256
  0
LINE
  5
2DA
100
AcDbEntity
  8
RACCORDO
100
AcDbLine
 62
250
  6
CONTINUOUS
 10
-21.4956129038
 20
9.3345101875
 11
-21.343595946
 21
9.3350355259
  0
LINE
  5
2DB
100
AcDbEntity
  8
RACCORDO
100
AcDbLine
 62
250
  6
CONTINUOUS
 10
-0.7029089793
 20
9.3347839026
 11
-21.343595946
 21
9.3350355263
  0
LINE
  5
2DC
100
AcDbEntity
  8
RACCORDO
100
AcDbLine
 62
250
  6
CONTINUOUS
 10
21.1440570966
 20
9.3347839026
 11
0.5033701299
 21
9.3350355263
  0
LINE
  5
2DD
100
AcDbEntity
  8
RACCORDO
100
AcDbLine
 62
250
  6
CONTINUOUS
 10
-0.6049822321
 20
9.3341413918
 11
-0.7029089793
 21
9.3347839026
  0
LINE
  5
2DE
100
AcDbEntity
  8
RACCORDO
100
AcDbLine
 62
250
  6
CONTINUOUS
 10
21.2419838439
 20
9.3341413918
 11
21.1440570966
 21
9.3347839026
  0
LINE
  5
2DF
100
AcDbEntity
  8
RACCORDO
100
AcDbLine
 62
250
  6
CONTINUOUS
 10
-0.5155159802
 20
9.33313515
 11
-0.6049822321
 21
9.3341413918
  0
LINE
  5
2E0
100
AcDbEntity
  8
RACCORDO
100
AcDbLine
 62
250
  6
CONTINUOUS
 10
21.3314500957
 20
9.33313515
 11
21.2419838439
 21
9.3341413918
  0
LWPOLYLINE
  5
2E1
100
AcDbEntity
  8
RACCORDO
100
AcDbPolyline
 62
250
  6
CONTINUOUS
 90
9
 70
0
 10
-0.3053286384
 20
9.3255355263
 10
-0.3093214971
 20
9.326512393
 10
-0.3185674537
 20
9.3274789104
 10
-0.3329685526
 20
9.3284248387
 10
-0.3523722224
 20
9.3293401564
 10
-0.3765728923
 20
9.3302151662
 10
-0.40531417
 20
9.3310405979
 10
-0.4382915579
 20
9.3318077064
 10
-0.5155159802
 20
9.33313515
  0
LWPOLYLINE
  5
2E2
100
AcDbEntity
  8
RACCORDO
100
AcDbPolyline
 62
250
  6
CONTINUOUS
 90
16
 70
0
 10
-0.2795480389
 20
20.9711934758
 10
-0.2835273252
 20
20.9788616567
 10
-0.2927618105
 20
20.9864485672
 10
-0.3071536243
 20
20.9938737983
 10
-0.3265502367
 20
21.0010586548
 10
-0.3507460751
 20
21.0079269887
 10
-0.3794847028
 20
21.0144060069
 10
-0.4124615369
 20
21.0204270422
 10
-0.4493270767
 20
21.0259262816
 10
-0.489690607
 20
21.0308454419
 10
-0.5331243401
 20
21.035132388
 10
-0.5791679487
 20
21.0387416852
 10
-0.6273334453
 20
21.0416350812
 10
-0.6771103538
 20
21.0437819107
 10
-0.7279711197
 20
21.0451594208
 10
-0.7793767014
 20
21.0457530119
  0
LINE
  5
2E3
100
AcDbEntity
  8
RACCORDO
100
AcDbLine
 62
250
  6
CONTINUOUS
 10
-0.0343990919
 20
21.3957307471
 11
-0.1008935855
 21
21.5485667475
  0
LINE
  5
2E4
100
AcDbEntity
  8
RACCORDO
100
AcDbLine
 62
250
  6
CONTINUOUS
 10
0.4654295706
 20
21.8948275601
 11
0.3984911988
 21
22.0486838037
  0
LINE
  5
2E5
100
AcDbEntity
  8
RACCORDO
100
AcDbLine
 62
250
  6
CONTINUOUS
 10
21.0797493342
 20
-22.2247565075
 11
21.146687706
 21
-22.3786127511
  0
LINE
  5
2E6
100
AcDbEntity
  8
RACCORDO
100
AcDbLine
 62
250
  6
CONTINUOUS
 10
21.6460724903
 20
21.5485667475
 11
21.5795779967
 21
21.3957307471
  0
LWPOLYLINE
  5
2E7
100
AcDbEntity
  8
0
100
AcDbPolyline
 62
7
  6
CONTINUOUS
 90
3
 70
0
 43
0.3500000006
 10
30.7573600616
 20
0.8707490616
 10
30.9716468124
 20
0.7993201447
 10
31.2573602142
 20
0.6564645767
  0
LINE
  5
2E8
100
AcDbEntity
  8
RACCORDO
100
AcDbLine
 62
250
  6
CONTINUOUS
 10
21.5795779967
 20
-21.7256596945
 11
21.6460724903
 21
-21.8784956949
  0
LWPOLYLINE
  5
2E9
100
AcDbEntity
  8
0
100
AcDbPolyline
 62
7
  6
CONTINUOUS
 90
10
 70
0
 43
0.3500000006
 10
30.5430755768
 20
0.7993201447
 10
30.6859311447
 20
0.8707490616
 10
30.7573600616
 20
0.8707490616
 10
30.9002178955
 20
0.7278934937
 10
30.9002178955
 20
0.6564645767
 10
30.8287889786
 20
0.5850356598
 10
30.7573600616
 20
0.5850356598
 10
30.6145044937
 20
0.6564645767
 10
30.5430755768
 20
0.7278934937
 10
30.5430755768
 20
0.7993201447
  0
LWPOLYLINE
  5
2EA
100
AcDbEntity
  8
RACCORDO
100
AcDbPolyline
 62
250
  6
CONTINUOUS
 90
7
 70
0
 10
-21.8434246085
 20
9.3255355263
 10
-21.8394317478
 20
9.326512393
 10
-21.8301857895
 20
9.3274789103
 10
-21.8157846891
 20
9.3284248386
 10
-21.7963810182
 20
9.3293401562
 10
-21.7721803476
 20
9.330215166
 10
-21.7434390696
 20
9.3310405977
  0
LWPOLYLINE
  5
2EB
100
AcDbEntity
  8
RACCORDO
100
AcDbPolyline
 62
250
  6
CONTINUOUS
 90
9
 70
0
 10
21.5416374374
 20
9.3255355263
 10
21.5376445788
 20
9.326512393
 10
21.5283986222
 20
9.3274789104
 10
21.5139975233
 20
9.3284248387
 10
21.4945938535
 20
9.3293401564
 10
21.4703931836
 20
9.3302151662
 10
21.441651906
 20
9.3310405979
 10
21.4086745181
 20
9.3318077064
 10
21.3314500957
 20
9.33313515
  0
LWPOLYLINE
  5
2EC
100
AcDbEntity
  8
RACCORDO
100
AcDbPolyline
 62
250
  6
CONTINUOUS
 90
12
 70
0
 10
21.5795779967
 20
21.3957307471
 10
21.5785896149
 20
21.392007046
 10
21.5776203374
 20
21.3855358708
 10
21.5766701642
 20
21.3763172215
 10
21.5757332488
 20
21.364266663
 10
21.5748154377
 20
21.3494686304
 10
21.5739342705
 20
21.332176429
 10
21.573090904
 20
21.312344558
 10
21.5722841814
 20
21.2900185183
 10
21.5715281711
 20
21.265588117
 10
21.5708239007
 20
21.2390193841
 10
21.5695784823
 20
21.1800605512
  0
LWPOLYLINE
  5
2ED
100
AcDbEntity
  8
0
100
AcDbPolyline
 62
7
  6
CONTINUOUS
 90
10
 70
0
 43
0.3500000006
 10
0.706249295
 20
33.4924326324
 10
0.7776778579
 20
33.3495747986
 10
0.7776778579
 20
33.2781481476
 10
0.6348207321
 20
33.1352903137
 10
0.5633921338
 20
33.1352903137
 10
0.491963571
 20
33.2067214966
 10
0.491963571
 20
33.2781481476
 10
0.5633921338
 20
33.4210059814
 10
0.6348207321
 20
33.4924326324
 10
0.706249295
 20
33.4924326324
  0
LWPOLYLINE
  5
2EE
100
AcDbEntity
  8
RACCORDO
100
AcDbPolyline
 62
250
  6
CONTINUOUS
 90
8
 70
0
 10
21.0797493342
 20
21.8948275601
 10
21.0787551638
 20
21.8874359047
 10
21.0777821278
 20
21.8743812446
 10
21.0768302263
 20
21.8557384512
 10
21.075894336
 20
21.831613999
 10
21.0749795802
 20
21.8021462109
 10
21.0741013286
 20
21.7675051117
 10
21.0724553158
 20
21.6835288872
  0
LINE
  5
2EF
100
AcDbEntity
  8
DRAFT
100
AcDbLine
 62
7
  6
CONTINUOUS
 10
21.6836416106
 20
5.0023274764
 11
21.5638212558
 21
4.752025023
  0
LINE
  5
2F0
100
AcDbEntity
  8
DRAFT
100
AcDbLine
 62
7
  6
CONTINUOUS
 10
21.5638212558
 20
-5.0819539704
 11
21.6836416106
 21
-5.3322564237
  0
LWPOLYLINE
  5
2F1
100
AcDbEntity
  8
RACCORDO
100
AcDbPolyline
 62
250
  6
CONTINUOUS
 90
6
 70
0
 10
21.0749798889
 20
-22.1320765165
 10
21.0758945956
 20
-22.1615435066
 10
21.076830434
 20
-22.1856675047
 10
21.077782269
 20
-22.2043101569
 10
21.0787552358
 20
-22.2173648125
 10
21.0797493342
 20
-22.2247565075
  0
LWPOLYLINE
  5
2F2
100
AcDbEntity
  8
RACCORDO
100
AcDbPolyline
 62
250
  6
CONTINUOUS
 90
11
 70
0
 10
21.5708271629
 20
-21.5690771531
 10
21.5715319224
 20
-21.5956480372
 10
21.5722878348
 20
-21.6200600764
 10
21.5730941055
 20
-21.6423553924
 10
21.573936933
 20
-21.6621598596
 10
21.574817494
 20
-21.6794328765
 10
21.5757346117
 20
-21.6942150446
 10
21.576670954
 20
-21.7062540426
 10
21.5776207436
 20
-21.7154657633
 10
21.5785897578
 20
-21.721934314
 10
21.5795779967
 20
-21.7256596945
  0
LINE
  5
2F3
100
AcDbEntity
  8
RACCORDO
100
AcDbLine
 62
250
  6
CONTINUOUS
 10
21.0732606441
 20
-22.0578224553
 11
21.0749798889
 21
-22.1320765165
  0
LINE
  5
2F4
100
AcDbEntity
  8
RACCORDO
100
AcDbLine
 62
250
  6
CONTINUOUS
 10
21.0717018305
 20
-21.9646047633
 11
21.0732606441
 21
-22.0578224553
  0
LINE
  5
2F5
100
AcDbEntity
  8
RACCORDO
100
AcDbLine
 62
250
  6
CONTINUOUS
 10
21.0697543056
 20
-21.7939699399
 11
21.0717018305
 21
-21.9646047633
  0
LINE
  5
2F6
100
AcDbEntity
  8
RACCORDO
100
AcDbLine
 62
250
  6
CONTINUOUS
 10
21.0512112139
 20
-16.1873480281
 11
21.0675893745
 21
-21.3756819648
  0
LINE
  5
2F7
100
AcDbEntity
  8
RACCORDO
100
AcDbLine
 62
250
  6
CONTINUOUS
 10
21.0675893745
 20
21.0457530174
 11
21.0512112143
 21
15.857419094
  0
LINE
  5
2F8
100
AcDbEntity
  8
RACCORDO
100
AcDbLine
 62
250
  6
CONTINUOUS
 10
21.069225492
 20
21.4002165351
 11
21.06777695
 21
21.1200242909
  0
LINE
  5
2F9
100
AcDbEntity
  8
RACCORDO
100
AcDbLine
 62
250
  6
CONTINUOUS
 10
21.0709980047
 20
21.5815988802
 11
21.069225492
 21
21.4002165351
  0
LINE
  5
2FA
100
AcDbEntity
  8
RACCORDO
100
AcDbLine
 62
250
  6
CONTINUOUS
 10
21.0724553158
 20
21.6835288872
 11
21.0709980047
 21
21.5815988802
  0
LWPOLYLINE
  5
2FB
100
AcDbEntity
  8
RACCORDO
100
AcDbPolyline
 62
250
  6
CONTINUOUS
 90
16
 70
0
 10
21.5795779967
 20
21.3957307471
 10
21.5767633701
 20
21.4478476811
 10
21.5685144025
 20
21.4993949147
 10
21.5549212431
 20
21.5498088244
 10
21.5361324747
 20
21.5985381738
 10
21.5123534941
 20
21.6450501319
 10
21.48384427
 20
21.6888361007
 10
21.4509164901
 20
21.7294172952
 10
21.4139301652
 20
21.7663499589
 10
21.3732897052
 20
21.7992302144
 10
21.3294394632
 20
21.8276985113
 10
21.2828589001
 20
21.8514435331
 10
21.2340573666
 20
21.8702055989
 10
21.1835684859
 20
21.8837795297
 10
21.1319443137
 20
21.8920168821
 10
21.0797493343
 20
21.8948275603
  0
LINE
  5
2FC
100
AcDbEntity
  8
RACCORDO
100
AcDbLine
 62
250
  6
CONTINUOUS
 10
21.5695801379
 20
-21.5100857063
 11
21.5708271629
 21
-21.5690771531
  0
LINE
  5
2FD
100
AcDbEntity
  8
RACCORDO
100
AcDbLine
 62
250
  6
CONTINUOUS
 10
21.5685823908
 20
-21.4445333872
 11
21.5695801379
 21
-21.5100857063
  0
LINE
  5
2FE
100
AcDbEntity
  8
RACCORDO
100
AcDbLine
 62
250
  6
CONTINUOUS
 10
21.5678589689
 20
-21.3746641576
 11
21.5685823908
 21
-21.4445333872
  0
LINE
  5
2FF
100
AcDbEntity
  8
RACCORDO
100
AcDbLine
 62
250
  6
CONTINUOUS
 10
21.5582469145
 20
-18.7255846376
 11
21.5678589689
 21
-21.3746641576
  0
LWPOLYLINE
  5
300
100
AcDbEntity
  8
RACCORDO
100
AcDbPolyline
 62
250
  6
CONTINUOUS
 90
4
 70
0
 10
21.0675893745
 20
-21.3756819648
 10
21.0677769398
 20
-21.4499528391
 10
21.0680338078
 20
-21.5229467613
 10
21.0697543056
 20
-21.7939699399
  0
LINE
  5
301
100
AcDbEntity
  8
DRAFT
100
AcDbLine
 62
7
  6
CONTINUOUS
 10
21.6460724903
 20
20.7350355263
 11
21.6836416106
 21
5.8350355263
  0
LINE
  5
302
100
AcDbEntity
  8
RACCORDO
100
AcDbLine
 62
250
  6
CONTINUOUS
 10
21.5457990415
 20
-13.5504028174
 11
21.5582469145
 21
-18.7255846376
  0
LINE
  5
303
100
AcDbEntity
  8
RACCORDO
100
AcDbLine
 62
250
  6
CONTINUOUS
 10
21.0427029469
 20
-10.971262413
 11
21.0512112139
 21
-16.1873480281
  0
LINE
  5
304
100
AcDbEntity
  8
RACCORDO
100
AcDbLine
 62
250
  6
CONTINUOUS
 10
21.5416374374
 20
-9.6554644737
 11
21.5457990415
 21
-13.5504028174
  0
LINE
  5
305
100
AcDbEntity
  8
RACCORDO
100
AcDbLine
 62
250
  6
CONTINUOUS
 10
21.0394767794
 20
0.8905954346
 11
21.0427029469
 21
-10.971262413
  0
LINE
  5
306
100
AcDbEntity
  8
RACCORDO
100
AcDbLine
 62
7
  6
CONTINUOUS
 10
21.6460724903
 20
21.5485667475
 11
21.6460724903
 21
20.7350355263
  0
LINE
  5
307
100
AcDbEntity
  8
RACCORDO
100
AcDbLine
 62
7
  6
CONTINUOUS
 10
21.6460724903
 20
-21.0649644737
 11
21.6460724903
 21
-21.8784956949
  0
LINE
  5
308
100
AcDbEntity
  8
DRAFT
100
AcDbLine
 62
7
  6
CONTINUOUS
 10
21.6836416106
 20
-6.1649644737
 11
21.6836416106
 21
-5.3322564237
  0
LINE
  5
309
100
AcDbEntity
  8
DRAFT
100
AcDbLine
 62
7
  6
CONTINUOUS
 10
21.6836416106
 20
5.0023274764
 11
21.6836416106
 21
5.8350355263
  0
LINE
  5
30A
100
AcDbEntity
  8
RACCORDO
100
AcDbLine
 62
250
  6
CONTINUOUS
 10
21.0459704017
 20
13.2517477582
 11
21.0394767794
 21
0.8905954346
  0
LINE
  5
30B
100
AcDbEntity
  8
RACCORDO
100
AcDbLine
 62
250
  6
CONTINUOUS
 10
21.5457989923
 20
13.2204444345
 11
21.5416374374
 21
-9.6554644737
  0
LINE
  5
30C
100
AcDbEntity
  8
RACCORDO
100
AcDbLine
 62
250
  6
CONTINUOUS
 10
21.0512112143
 20
15.857419094
 11
21.0459704017
 21
13.2517477582
  0
LINE
  5
30D
100
AcDbEntity
  8
RACCORDO
100
AcDbLine
 62
250
  6
CONTINUOUS
 10
21.06777695
 20
21.1200242909
 11
21.0675893745
 21
21.0457530174
  0
LINE
  5
30E
100
AcDbEntity
  8
DRAFT
100
AcDbLine
 62
7
  6
CONTINUOUS
 10
21.6836416106
 20
-6.1649644737
 11
21.6460724903
 21
-21.0649644737
  0
LINE
  5
30F
100
AcDbEntity
  8
RACCORDO
100
AcDbLine
 62
250
  6
CONTINUOUS
 10
21.5582468481
 20
18.3956328867
 11
21.5457989923
 21
13.2204444345
  0
LINE
  5
310
100
AcDbEntity
  8
RACCORDO
100
AcDbLine
 62
250
  6
CONTINUOUS
 10
21.5678589094
 20
21.0447199902
 11
21.5582468481
 21
18.3956328867
  0
LINE
  5
311
100
AcDbEntity
  8
RACCORDO
100
AcDbLine
 62
250
  6
CONTINUOUS
 10
21.5685817649
 20
21.1145545504
 11
21.5678589094
 21
21.0447199902
  0
LINE
  5
312
100
AcDbEntity
  8
RACCORDO
100
AcDbLine
 62
250
  6
CONTINUOUS
 10
21.5695784823
 20
21.1800605512
 11
21.5685817649
 21
21.1145545504
  0
LWPOLYLINE
  5
313
100
AcDbEntity
  8
RACCORDO
100
AcDbPolyline
 62
250
  6
CONTINUOUS
 90
16
 70
0
 10
21.5795779967
 20
-21.7256596945
 10
21.5767632729
 20
-21.77777754
 10
21.5685140489
 20
-21.8293255133
 10
21.5549205242
 20
-21.8797399733
 10
21.5361313344
 20
-21.9284696731
 10
21.5123519263
 20
-21.9749817874
 10
21.483842311
 20
-22.0187677388
 10
21.4509142212
 20
-22.0593487584
 10
21.4139277027
 20
-22.0962811213
 10
21.3732871772
 20
-22.1291609978
 10
21.3294370203
 20
-22.1576288693
 10
21.2828567031
 20
-22.1813734597
 10
21.2340555486
 20
-22.2001351384
 10
21.1835671634
 20
-22.2137087595
 10
21.1319436027
 20
-22.221945905
 10
21.0797493342
 20
-22.2247565075
  0
LINE
  5
314
100
AcDbEntity
  8
RACCORDO
100
AcDbLine
 62
250
  6
CONTINUOUS
 10
0.4775895303
 20
21.0457530174
 11
21.0675893745
 21
21.0457530174
  0
LINE
  5
315
100
AcDbEntity
  8
RACCORDO
100
AcDbLine
 62
250
  6
CONTINUOUS
 10
-0.7793767014
 20
21.0457530174
 11
-21.3693765455
 21
21.0457530174
  0
LINE
  5
316
100
AcDbEntity
  8
RACCORDO
100
AcDbLine
 62
250
  6
CONTINUOUS
 10
0.4654295706
 20
21.8948275601
 11
21.0797493342
 21
21.8948275601
  0
LINE
  5
317
100
AcDbEntity
  8
RACCORDO
100
AcDbLine
 62
250
  6
CONTINUOUS
 10
-0.7672167417
 20
21.8948275601
 11
-21.3815365052
 21
21.8948275601
  0
LINE
  5
318
100
AcDbEntity
  8
RACCORDO
100
AcDbLine
 62
7
  6
CONTINUOUS
 10
0.3984911988
 20
22.0486838037
 11
21.146687706
 21
22.0486838037
  0
LINE
  5
319
100
AcDbEntity
  8
RACCORDO
100
AcDbLine
 62
7
  6
CONTINUOUS
 10
-0.7002783699
 20
22.0486838037
 11
-21.448474877
 21
22.0486838037
  0
LWPOLYLINE
  5
31A
100
AcDbEntity
  8
0
100
AcDbPolyline
 62
7
  6
CONTINUOUS
 90
3
 70
0
 43
0.3500000006
 10
30.4002177429
 20
3.3707498245
 10
30.4002177429
 20
1.8707493668
 10
28.0430748138
 20
2.5136073532
  0
LWPOLYLINE
  5
31B
100
AcDbEntity
  8
0
100
AcDbPolyline
 62
7
  6
CONTINUOUS
 90
3
 70
0
 43
0.3500000006
 10
30.4002177429
 20
-0.7006780472
 10
30.4002177429
 20
-2.2006785049
 10
28.0430748138
 20
-1.5578216515
  0
LWPOLYLINE
  5
31C
100
AcDbEntity
  8
0
100
AcDbPolyline
 62
7
  6
CONTINUOUS
 90
3
 70
0
 43
0.3500000006
 10
30.4002177429
 20
-3.0578221092
 10
30.4002177429
 20
-4.557821434
 10
28.0430748138
 20
-3.9149645805
  0
LWPOLYLINE
  5
31D
100
AcDbEntity
  8
RACCORDO
100
AcDbPolyline
 62
250
  6
CONTINUOUS
 90
16
 70
0
 10
21.5674180369
 20
-21.3011224232
 10
21.5634378513
 20
-21.3087904034
 10
21.5542026051
 20
-21.3163771019
 10
21.5398101746
 20
-21.3238021139
 10
21.5204130925
 20
-21.3309867482
 10
21.4962169315
 20
-21.3378548611
 10
21.4674781255
 20
-21.3443336636
 10
21.4345012519
 20
-21.3503544925
 10
21.3976358036
 20
-21.3558535383
 10
21.3572724853
 20
-21.3607725216
 10
21.3138390723
 20
-21.3650593101
 10
21.2677958774
 20
-21.3686684721
 10
21.2196308719
 20
-21.3715617575
 10
21.1698545145
 20
-21.373708503
 10
21.1189943412
 20
-21.375085957
 10
21.0675893745
 20
-21.3756795211
  0
LWPOLYLINE
  5
31E
100
AcDbEntity
  8
0
100
AcDbPolyline
 62
7
  6
CONTINUOUS
 90
6
 70
0
 43
0.3500000006
 10
-2.0794650822
 20
32.9924324799
 10
-1.0080364265
 20
32.9924324799
 10
-0.7937507379
 20
33.2067214966
 10
-0.7937507379
 20
34.2781484528
 10
-1.222322186
 20
34.7067174225
 10
-1.6508935633
 20
34.7067174225
  0
LWPOLYLINE
  5
31F
100
AcDbEntity
  8
0
100
AcDbPolyline
 62
7
  6
CONTINUOUS
 90
3
 70
0
 43
0.3500000006
 10
-2.9366078367
 20
33.6352904663
 10
-4.4366080112
 20
33.6352904663
 10
-3.7937505913
 20
35.9924333954
  0
LWPOLYLINE
  5
320
100
AcDbEntity
  8
RACCORDO
100
AcDbPolyline
 62
250
  6
CONTINUOUS
 90
16
 70
0
 10
21.567418037
 20
20.9711934758
 10
21.5634387521
 20
20.9788616568
 10
21.5542042679
 20
20.9864485675
 10
21.5398124551
 20
20.9938737989
 10
21.5204158434
 20
21.0010586556
 10
21.4962200056
 20
21.0079269897
 10
21.4674813782
 20
21.0144060082
 10
21.4345045441
 20
21.0204270438
 10
21.3976390042
 20
21.0259262833
 10
21.3572754736
 20
21.0308454439
 10
21.31384174
 20
21.0351323902
 10
21.2677981308
 20
21.0387416877
 10
21.2196326334
 20
21.0416350838
 10
21.169855724
 20
21.0437819133
 10
21.1189949571
 20
21.0451594232
 10
21.0675893745
 20
21.0457530141
  0
LWPOLYLINE
  5
321
100
AcDbEntity
  8
0
100
AcDbPolyline
 62
7
  6
CONTINUOUS
 90
10
 70
0
 43
0.3500000006
 10
-55.1866659851
 20
35.9850373993
 10
-55.8295239716
 20
35.3421794128
 10
-56.2580974731
 20
34.4850369415
 10
-56.2580974731
 20
33.4136054535
 10
-55.8295239716
 20
32.9850364838
 10
-55.1866659851
 20
32.9850364838
 10
-54.7580970154
 20
33.4136054535
 10
-54.7580970154
 20
34.2707479248
 10
-55.1866659851
 20
34.6993214264
 10
-56.1152396393
 20
34.6993214264
  0
LINE
  5
322
100
AcDbEntity
  8
RACCORDO
100
AcDbLine
 62
7
  6
CONTINUOUS
 10
-56.070505269
 20
-22.2247565075
 11
-53.5142319826
 21
-22.3786127511
  0
LINE
  5
323
100
AcDbEntity
  8
RACCORDO
100
AcDbLine
 62
250
  6
CONTINUOUS
 10
-56.0535542473
 20
-21.7256596945
 11
-53.5142319826
 21
-21.8784956949
  0
LWPOLYLINE
  5
324
100
AcDbEntity
  8
RACCORDO
100
AcDbPolyline
 62
250
  6
CONTINUOUS
 90
4
 70
0
 10
-56.9759055026
 20
-21.3715617575
 10
-56.9888372877
 20
-21.373708503
 10
-56.9966394643
 20
-21.375085957
 10
-56.9992293439
 20
-21.3756795211
  0
LINE
  5
325
100
AcDbEntity
  8
RACCORDO
100
AcDbLine
 62
250
  6
CONTINUOUS
 10
-56.9079655683
 20
-21.3607725216
 11
-56.9759055026
 21
-21.3715617575
  0
LWPOLYLINE
  5
326
100
AcDbEntity
  8
RACCORDO
100
AcDbPolyline
 62
250
  6
CONTINUOUS
 90
3
 70
0
 10
-56.5179243739
 20
-21.3011224232
 10
-56.568667068
 20
-21.3087904034
 10
-56.9079655683
 20
-21.3607725216
  0
LINE
  5
327
100
AcDbEntity
  8
RACCORDO
100
AcDbLine
 62
250
  6
CONTINUOUS
 10
-57.9866193522
 20
-9.6648885829
 11
-57.9892669957
 21
-9.6649644733
  0
LINE
  5
328
100
AcDbEntity
  8
RACCORDO
100
AcDbLine
 62
250
  6
CONTINUOUS
 10
-57.5024457502
 20
-9.6554644737
 11
-57.9866193522
 21
-9.6648885829
  0
LWPOLYLINE
  5
329
100
AcDbEntity
  8
RACCORDO
100
AcDbPolyline
 62
250
  6
CONTINUOUS
 90
10
 70
0
 10
-56.5179243739
 20
20.9711934758
 10
-56.7024204409
 20
19.6844159843
 10
-56.8681579482
 20
18.3956328867
 10
-57.0151368959
 20
17.1048441829
 10
-57.1433808056
 20
15.8117705657
 10
-57.2528661556
 20
14.5166913423
 10
-57.3435223815
 20
13.2204444345
 10
-57.4153259618
 20
11.9233091496
 10
-57.4683004181
 20
10.6250061802
 10
-57.5024457502
 20
9.3255355263
  0
LWPOLYLINE
  5
32A
100
AcDbEntity
  8
RACCORDO
100
AcDbPolyline
 62
250
  6
CONTINUOUS
 90
19
 70
0
 10
-56.5179243739
 20
-21.3011224232
 10
-56.5108406083
 20
-21.3383792038
 10
-56.5010858622
 20
-21.3746641576
 10
-56.4886601355
 20
-21.4099772848
 10
-56.4734594933
 20
-21.4445333872
 10
-56.4555878706
 20
-21.4781176629
 10
-56.435357072
 20
-21.5100857063
 10
-56.4127256779
 20
-21.5403895458
 10
-56.3877351079
 20
-21.5690771531
 10
-56.3608214264
 20
-21.5956480372
 10
-56.331954299
 20
-21.6200600764
 10
-56.3011640601
 20
-21.6423553924
 10
-56.268977777
 20
-21.6621598596
 10
-56.2353505104
 20
-21.6794328765
 10
-56.2003271995
 20
-21.6942150446
 10
-56.1645697292
 20
-21.7062540426
 10
-56.1282987279
 20
-21.7154657633
 10
-56.0912935673
 20
-21.721934314
 10
-56.0535542473
 20
-21.7256596945
  0
LWPOLYLINE
  5
32B
100
AcDbEntity
  8
RACCORDO
100
AcDbPolyline
 62
250
  6
CONTINUOUS
 90
10
 70
0
 10
-57.5024457502
 20
-9.6554644737
 10
-57.468299717
 20
-10.9549482213
 10
-57.4153246342
 20
-12.2532610026
 10
-57.3435205019
 20
-13.5504028174
 10
-57.2528636641
 20
-14.8466529618
 10
-57.1433777767
 20
-16.1417321397
 10
-57.0151338072
 20
-17.4348024636
 10
-56.8681554115
 20
-18.7255846376
 10
-56.7024189337
 20
-20.0143579574
 10
-56.5179243739
 20
-21.3011224232
  0
LINE
  5
32C
100
AcDbEntity
  8
DRAFT
100
AcDbLine
 62
7
  6
CONTINUOUS
 10
-56.6552799042
 20
-5.0819539704
 11
-52.0795251645
 21
-5.3322564237
  0
LINE
  5
32D
100
AcDbEntity
  8
DRAFT
100
AcDbLine
 62
7
  6
CONTINUOUS
 10
-52.0795251645
 20
-5.2021981832
 11
-56.6565462478
 21
-4.9518264584
  0
LINE
  5
32E
100
AcDbEntity
  8
0
100
AcDbLine
 62
7
  6
CONTINUOUS
 10
-56.5681563947
 20
-3.5316444737
 11
-56.5606827672
 21
-4.4991904737
  0
LWPOLYLINE
  5
32F
100
AcDbEntity
  8
RACCORDO
100
AcDbPolyline
 62
250
  6
CONTINUOUS
 90
10
 70
0
 10
-57.5024457502
 20
9.3255355263
 10
-57.538067878
 20
7.216563159
 10
-57.5647844716
 20
5.1075767235
 10
-57.5825955309
 20
2.9985762199
 10
-57.5915010528
 20
0.8895521016
 10
-57.5915010404
 20
-1.2194860848
 10
-57.582595503
 20
-3.3285096996
 10
-57.5647844438
 20
-5.437509196
 10
-57.5380678595
 20
-7.5464941207
 10
-57.5024457502
 20
-9.6554644737
  0
LINE
  5
330
100
AcDbEntity
  8
0
100
AcDbLine
 62
7
  6
CONTINUOUS
 10
-56.6606865464
 20
-4.4991904737
 11
-56.5606827672
 21
-4.4991904737
  0
LINE
  5
331
100
AcDbEntity
  8
0
100
AcDbLine
 62
7
  6
CONTINUOUS
 10
-56.6646010658
 20
-4.0226954737
 11
-56.5645980719
 21
-4.0226954737
  0
LINE
  5
332
100
AcDbEntity
  8
0
100
AcDbLine
 62
7
  6
CONTINUOUS
 10
-56.6681586749
 20
-3.5316444737
 11
-56.5681563947
 21
-3.5316444737
  0
LINE
  5
333
100
AcDbEntity
  8
RACCORDO
100
AcDbLine
 62
250
  6
CONTINUOUS
 10
-56.0535542473
 20
21.3957307471
 11
-56.059503849
 21
21.4993949147
  0
LINE
  5
334
100
AcDbEntity
  8
RACCORDO
100
AcDbLine
 62
250
  6
CONTINUOUS
 10
-56.059503849
 20
21.4993949147
 11
-56.0646231061
 21
21.5985381738
  0
LWPOLYLINE
  5
335
100
AcDbEntity
  8
RACCORDO
100
AcDbPolyline
 62
250
  6
CONTINUOUS
 90
11
 70
0
 10
-56.0646231061
 20
21.5985381738
 10
-56.0686887175
 20
21.6888361007
 10
-56.0702689623
 20
21.7294172952
 10
-56.0715233334
 20
21.7663499589
 10
-56.0724381121
 20
21.7992302144
 10
-56.0730032937
 20
21.8276985113
 10
-56.073212696
 20
21.8514435331
 10
-56.0730640273
 20
21.8702055989
 10
-56.0725589121
 20
21.8837795297
 10
-56.0717028717
 20
21.8920168821
 10
-56.0705052652
 20
21.8948275603
  0
LINE
  5
336
100
AcDbEntity
  8
0
100
AcDbLine
 62
7
  6
CONTINUOUS
 10
-55.4766270413
 20
-1.8649644737
 11
-55.4766270413
 21
-1.311868883
  0
LINE
  5
337
100
AcDbEntity
  8
0
100
AcDbLine
 62
7
  6
CONTINUOUS
 10
-55.4766270413
 20
0.9819399356
 11
-55.4766270413
 21
1.5350355263
  0
LWPOLYLINE
  5
338
100
AcDbEntity
  8
RACCORDO
100
AcDbPolyline
 62
250
  6
CONTINUOUS
 90
9
 70
0
 10
-56.070269049
 20
-22.0593487584
 10
-56.0715233972
 20
-22.0962811213
 10
-56.072438152
 20
-22.1291609978
 10
-56.0730033112
 20
-22.1576288693
 10
-56.0732126951
 20
-22.1813734597
 10
-56.0730640144
 20
-22.2001351384
 10
-56.0725588949
 20
-22.2137087595
 10
-56.0717028598
 20
-22.221945905
 10
-56.070505269
 20
-22.2247565075
  0
LINE
  5
339
100
AcDbEntity
  8
RACCORDO
100
AcDbLine
 62
250
  6
CONTINUOUS
 10
-56.0667999971
 20
-21.9749817874
 11
-56.070269049
 21
-22.0593487584
  0
LINE
  5
33A
100
AcDbEntity
  8
RACCORDO
100
AcDbLine
 62
250
  6
CONTINUOUS
 10
-56.0621823082
 20
-21.8797399733
 11
-56.0667999971
 21
-21.9749817874
  0
LWPOLYLINE
  5
33B
100
AcDbEntity
  8
RACCORDO
100
AcDbPolyline
 62
250
  6
CONTINUOUS
 90
3
 70
0
 10
-56.0535542473
 20
-21.7256596945
 10
-56.0566173951
 20
-21.77777754
 10
-56.0621823082
 20
-21.8797399733
  0
LINE
  5
33C
100
AcDbEntity
  8
RACCORDO
100
AcDbLine
 62
7
  6
CONTINUOUS
 10
-56.6729928453
 20
-2.7172156464
 11
-54.1707989613
 21
-2.6735396897
  0
LINE
  5
33D
100
AcDbEntity
  8
0
100
AcDbLine
 62
7
  6
CONTINUOUS
 10
-56.6714069542
 20
-3.0102084737
 11
-56.5714053256
 21
-3.0102084737
  0
LINE
  5
33E
100
AcDbEntity
  8
0
100
AcDbLine
 62
250
  6
CONTINUOUS
 10
-56.6716024461
 20
-2.9757422928
 11
-56.5716008568
 21
-2.9757422928
  0
LINE
  5
33F
100
AcDbEntity
  8
0
100
AcDbLine
 62
7
  6
CONTINUOUS
 10
-56.6724743634
 20
-2.8165694737
 11
-56.572472949
 21
-2.8165694737
  0
LINE
  5
340
100
AcDbEntity
  8
0
100
AcDbLine
 62
7
  6
CONTINUOUS
 10
-56.6766270413
 20
-1.8649644737
 11
-55.4766270413
 21
-1.8649644737
  0
LINE
  5
341
100
AcDbEntity
  8
RACCORDO
100
AcDbLine
 62
7
  6
CONTINUOUS
 10
-53.6795251645
 20
-2.1736158421
 11
-53.6795251645
 21
-1.5149644737
  0
LINE
  5
342
100
AcDbEntity
  8
RACCORDO
100
AcDbLine
 62
7
  6
CONTINUOUS
 10
-53.6795251645
 20
1.1850355263
 11
-53.6795251645
 21
1.8436868948
  0
LINE
  5
343
100
AcDbEntity
  8
RACCORDO
100
AcDbLine
 62
7
  6
CONTINUOUS
 10
-53.5142319826
 20
22.0486838037
 11
-53.5142319826
 21
20.7350355263
  0
LINE
  5
344
100
AcDbEntity
  8
RACCORDO
100
AcDbLine
 62
7
  6
CONTINUOUS
 10
-53.5142319826
 20
-21.0649644737
 11
-53.5142319826
 21
-22.3786127511
  0
LINE
  5
345
100
AcDbEntity
  8
RACCORDO
100
AcDbLine
 62
7
  6
CONTINUOUS
 10
-54.3012921662
 20
-1.2149644737
 11
-53.9795251645
 21
-1.2149644737
  0
LINE
  5
346
100
AcDbEntity
  8
DRAFT
100
AcDbLine
 62
7
  6
CONTINUOUS
 10
-52.0795251645
 20
-6.1649644737
 11
-52.0795251645
 21
-5.2021981832
  0
LINE
  5
347
100
AcDbEntity
  8
DRAFT
100
AcDbLine
 62
7
  6
CONTINUOUS
 10
-52.0795251645
 20
4.8722692358
 11
-52.0795251645
 21
5.8350355263
  0
LINE
  5
348
100
AcDbEntity
  8
RACCORDO
100
AcDbLine
 62
7
  6
CONTINUOUS
 10
-54.3012921662
 20
0.8850355263
 11
-53.9795251645
 21
0.8850355263
  0
LINE
  5
349
100
AcDbEntity
  8
0
100
AcDbLine
 62
7
  6
CONTINUOUS
 10
-55.4766270413
 20
1.5350355263
 11
-56.6766270413
 21
1.5350355263
  0
LINE
  5
34A
100
AcDbEntity
  8
DRAFT
100
AcDbLine
 62
7
  6
CONTINUOUS
 10
-53.5142319826
 20
20.7350355263
 11
-52.0795251645
 21
5.8350355263
  0
LINE
  5
34B
100
AcDbEntity
  8
DRAFT
100
AcDbLine
 62
7
  6
CONTINUOUS
 10
-52.0795251645
 20
-6.1649644737
 11
-53.5142319826
 21
-21.0649644737
  0
LINE
  5
34C
100
AcDbEntity
  8
0
100
AcDbLine
 62
7
  6
CONTINUOUS
 10
-56.6715276524
 20
2.6590495263
 11
-56.5715260481
 21
2.6590495263
  0
LINE
  5
34D
100
AcDbEntity
  8
0
100
AcDbLine
 62
250
  6
CONTINUOUS
 10
-56.6714711639
 20
2.6690052743
 11
-56.5714695482
 21
2.6690052743
  0
LINE
  5
34E
100
AcDbEntity
  8
0
100
AcDbLine
 62
7
  6
CONTINUOUS
 10
-56.6706362535
 20
2.8122730035
 11
-56.5706344704
 21
2.8122730035
  0
LINE
  5
34F
100
AcDbEntity
  8
RACCORDO
100
AcDbLine
 62
7
  6
CONTINUOUS
 10
-56.6729928453
 20
2.387286699
 11
-54.1707989613
 21
2.3436107423
  0
LINE
  5
350
100
AcDbEntity
  8
0
100
AcDbLine
 62
250
  6
CONTINUOUS
 10
-56.661284022
 20
4.099978028
 11
-56.5612803627
 21
4.099978028
  0
LINE
  5
351
100
AcDbEntity
  8
0
100
AcDbLine
 62
7
  6
CONTINUOUS
 10
-56.55762689
 20
4.5075188181
 11
-56.6576312821
 21
4.5075188181
  0
LINE
  5
352
100
AcDbEntity
  8
DRAFT
100
AcDbLine
 62
7
  6
CONTINUOUS
 10
-52.0795251645
 20
4.8722692358
 11
-56.6565462478
 21
4.6218975111
  0
LINE
  5
353
100
AcDbEntity
  8
DRAFT
100
AcDbLine
 62
7
  6
CONTINUOUS
 10
-52.0795251645
 20
5.0023274764
 11
-56.6552799042
 21
4.752025023
  0
LWPOLYLINE
  5
354
100
AcDbEntity
  8
RACCORDO
100
AcDbPolyline
 62
250
  6
CONTINUOUS
 90
3
 70
0
 10
-57.5024457502
 20
9.3255355263
 10
-57.9866193738
 20
9.334959636
 10
-57.9892670175
 20
9.3350355263
  0
LWPOLYLINE
  5
355
100
AcDbEntity
  8
RACCORDO
100
AcDbPolyline
 62
250
  6
CONTINUOUS
 90
19
 70
0
 10
-56.0535542473
 20
21.3957307471
 10
-56.0912990258
 20
21.392007046
 10
-56.1283142401
 20
21.3855358708
 10
-56.1645998903
 20
21.3763172215
 10
-56.2003792453
 20
21.364266663
 10
-56.235429036
 20
21.3494686304
 10
-56.2690794561
 20
21.332176429
 10
-56.3012863211
 20
21.312344558
 10
-56.3320938154
 20
21.2900185183
 10
-56.3609646852
 20
21.265588117
 10
-56.3878596864
 20
21.2390193841
 10
-56.4128180631
 20
21.2103462897
 10
-56.4354202945
 20
21.1800605512
 10
-56.4556299185
 20
21.1481138728
 10
-56.4734833972
 20
21.1145545504
 10
-56.4886705956
 20
21.080019189
 10
-56.5010881354
 20
21.0447199902
 10
-56.5108393948
 20
21.0084447525
 10
-56.5179243739
 20
20.9711934758
  0
LINE
  5
356
100
AcDbEntity
  8
RACCORDO
100
AcDbLine
 62
250
  6
CONTINUOUS
 10
-53.5142319826
 20
21.5485667475
 11
-56.0535542473
 21
21.3957307471
  0
LINE
  5
357
100
AcDbEntity
  8
RACCORDO
100
AcDbLine
 62
7
  6
CONTINUOUS
 10
-53.5142319826
 20
22.0486838037
 11
-56.070505269
 21
21.8948275601
  0
LINE
  5
358
100
AcDbEntity
  8
RACCORDO
100
AcDbLine
 62
250
  6
CONTINUOUS
 10
-56.5179243739
 20
20.9711934758
 11
-56.8764156964
 21
21.0259262833
  0
LWPOLYLINE
  5
359
100
AcDbEntity
  8
RACCORDO
100
AcDbPolyline
 62
250
  6
CONTINUOUS
 90
6
 70
0
 10
-56.8764156964
 20
21.0259262833
 10
-56.9579955546
 20
21.0387416877
 10
-56.9759206121
 20
21.0416350838
 10
-56.9888529354
 20
21.0437819133
 10
-56.9966554628
 20
21.0451594232
 10
-56.9992455002
 20
21.0457530141
  0
ARC
  5
35A
100
AcDbEntity
  8
RACCORDO
100
AcDbCircle
 62
7
  6
CONTINUOUS
 10
31.9944865157
 20
-7.9549644737
 40
90.0
100
AcDbArc
 50
181.08868532
 51
188.5758796048
  0
ARC
  5
35B
100
AcDbEntity
  8
RACCORDO
100
AcDbCircle
 62
7
  6
CONTINUOUS
 10
-56.0104262773
 20
-21.2265628816
 40
1.0
100
AcDbArc
 50
188.5758796048
 51
266.5556531592
  0
ARC
  5
35C
100
AcDbEntity
  8
RACCORDO
100
AcDbCircle
 62
7
  6
CONTINUOUS
 10
-54.1795251645
 20
-2.1736158421
 40
0.5
100
AcDbArc
 50
271.0
 51
360.0
  0
ARC
  5
35D
100
AcDbEntity
  8
RACCORDO
100
AcDbCircle
 62
7
  6
CONTINUOUS
 10
-53.9795251645
 20
-1.5149644737
 40
0.3
100
AcDbArc
 50
0.0
 51
90.0
  0
ARC
  5
35E
100
AcDbEntity
  8
RACCORDO
100
AcDbCircle
 62
7
  6
CONTINUOUS
 10
31.9944865157
 20
7.6250355263
 40
90.0
100
AcDbArc
 50
171.4241203952
 51
178.91131468
  0
ARC
  5
35F
100
AcDbEntity
  8
0
100
AcDbCircle
 62
7
  6
CONTINUOUS
 10
-54.9795251645
 20
-0.1649644737
 40
1.25
100
AcDbArc
 50
57.1401196211
 51
302.8598803789
  0
ARC
  5
360
100
AcDbEntity
  8
RACCORDO
100
AcDbCircle
 62
7
  6
CONTINUOUS
 10
-56.0104262773
 20
20.8966339342
 40
1.0
100
AcDbArc
 50
93.4443468408
 51
171.4241203952
  0
ARC
  5
361
100
AcDbEntity
  8
RACCORDO
100
AcDbCircle
 62
7
  6
CONTINUOUS
 10
-54.1795251645
 20
1.8436868948
 40
0.5
100
AcDbArc
 50
0.0
 51
89.0
  0
ARC
  5
362
100
AcDbEntity
  8
RACCORDO
100
AcDbCircle
 62
7
  6
CONTINUOUS
 10
-53.9795251645
 20
1.1850355263
 40
0.3
100
AcDbArc
 50
270.0
 51
360.0
  0
ARC
  5
363
100
AcDbEntity
  8
RACCORDO
100
AcDbCircle
 62
7
  6
CONTINUOUS
 10
441.9204748355
 20
-0.1649644737
 40
500.0
100
AcDbArc
 50
178.91131468
 51
181.08868532
  0
ARC
  5
364
100
AcDbEntity
  8
DRAFT
100
AcDbCircle
 62
7
  6
CONTINUOUS
 10
441.9204748355
 20
-0.1649644737
 40
498.6
100
AcDbArc
 50
179.434963272
 51
180.565036728
  0
ARC
  5
365
100
AcDbEntity
  8
0
100
AcDbCircle
 62
7
  6
CONTINUOUS
 10
441.9204748355
 20
-0.1649644737
 40
498.5
100
AcDbArc
 50
179.4491774455
 51
179.7068530395
  0
ARC
  5
366
100
AcDbEntity
  8
0
100
AcDbCircle
 62
7
  6
CONTINUOUS
 10
441.9204748355
 20
-0.1649644737
 40
498.5
100
AcDbArc
 50
180.4981664717
 51
180.5508221051
  0
ARC
  5
367
100
AcDbEntity
  8
0
100
AcDbCircle
 62
7
  6
CONTINUOUS
 10
441.9204748355
 20
-0.1649644737
 40
498.5
100
AcDbArc
 50
180.2931471515
 51
180.3869569135
  0
ELLIPSE
  5
368
100
AcDbEntity
  8
DRAFT
100
AcDbEllipse
 62
7
  6
CONTINUOUS
 10
-34.9212740368
 20
-0.1649644737
 30
0.0
 11
-0.0
 21
498.6
 31
0.0
 40
0.0261859216
 41
-1.5806580781
 42
-1.5609345755
  0
ELLIPSE
  5
369
100
AcDbEntity
  8
RACCORDO
100
AcDbEllipse
 62
7
  6
CONTINUOUS
 10
-0.2512998859
 20
-19.5648549732
 30
0.0
 11
-0.0
 21
0.5
 31
0.0
 40
0.0261859216
 41
-4.4937046862
 42
-3.3161255788
  0
ELLIPSE
  5
36A
100
AcDbEntity
  8
RACCORDO
100
AcDbEllipse
 62
7
  6
CONTINUOUS
 10
-0.2403622059
 20
18.8008632915
 30
0.0
 11
-0.0
 21
1.0
 31
0.0
 40
0.0261859216
 41
0.1745329252
 42
1.3635987802
  0
ELLIPSE
  5
36B
100
AcDbEntity
  8
RACCORDO
100
AcDbEllipse
 62
7
  6
CONTINUOUS
 10
-0.7010649818
 20
21.5477789822
 30
0.0
 11
0.199903439
 21
0.4594732646
 31
0.0
 40
0.9978528039
 41
-1.1596396492
 42
0.4095839923
  0
ELLIPSE
  5
36C
100
AcDbEntity
  8
RACCORDO
100
AcDbEllipse
 62
7
  6
CONTINUOUS
 10
-0.7010649818
 20
-21.8777079296
 30
0.0
 11
-0.199903439
 21
0.4594732646
 31
0.0
 40
0.9978528039
 41
-3.5511766459
 42
-1.9819530044
  0
ELLIPSE
  5
36D
100
AcDbEntity
  8
RACCORDO
100
AcDbEllipse
 62
7
  6
CONTINUOUS
 10
-21.4476882651
 20
21.5477789822
 30
0.0
 11
-0.199903439
 21
0.4594732646
 31
0.0
 40
0.9978528039
 41
-0.4095839923
 42
1.1596396492
  0
ELLIPSE
  5
36E
100
AcDbEntity
  8
RACCORDO
100
AcDbEllipse
 62
7
  6
CONTINUOUS
 10
-21.4476882651
 20
-21.8777079296
 30
0.0
 11
0.199903439
 21
0.4594732646
 31
0.0
 40
0.9978528039
 41
-4.3012323028
 42
-2.7320086613
  0
ELLIPSE
  5
36F
100
AcDbEntity
  8
0
100
AcDbEllipse
 62
7
  6
CONTINUOUS
 10
-0.5426872552
 20
-10.7175160748
 30
0.0
 11
-0.0
 21
10.0
 31
0.0
 40
0.0261859216
 41
-1.6320207789
 42
-1.5427748951
  0
ELLIPSE
  5
370
100
AcDbEntity
  8
0
100
AcDbEllipse
 62
7
  6
CONTINUOUS
 10
2.0382310106
 20
-7.9549644737
 30
0.0
 11
-0.0
 21
88.6
 31
0.0
 40
0.0261859216
 41
-4.693387837
 42
-4.6843675487
  0
ELLIPSE
  5
371
100
AcDbEntity
  8
0
100
AcDbEllipse
 62
7
  6
CONTINUOUS
 10
12.7725207899
 20
-0.1649644737
 30
0.0
 11
-0.0
 21
498.6
 31
0.0
 40
0.0261859216
 41
1.5517951834
 42
1.5897974701
  0
ELLIPSE
  5
372
100
AcDbEntity
  8
0
100
AcDbEllipse
 62
7
  6
CONTINUOUS
 10
2.0382310106
 20
7.6250355263
 30
0.0
 11
-0.0
 21
88.6
 31
0.0
 40
0.0261859216
 41
1.5427748951
 42
1.5517951834
  0
ELLIPSE
  5
373
100
AcDbEntity
  8
0
100
AcDbEllipse
 62
7
  6
CONTINUOUS
 10
-0.5426872552
 20
10.3875871274
 30
0.0
 11
-0.0
 21
10.0
 31
0.0
 40
0.0261859216
 41
-1.5988177584
 42
-1.5095718747
  0
ELLIPSE
  5
374
100
AcDbEntity
  8
RACCORDO
100
AcDbEllipse
 62
7
  6
CONTINUOUS
 10
0.5027870969
 20
12.8350355263
 30
0.0
 11
-0.0
 21
30.0
 31
0.0
 40
0.0261859216
 41
1.3635987802
 42
1.6320207789
  0
ELLIPSE
  5
375
100
AcDbEntity
  8
RACCORDO
100
AcDbEllipse
 62
7
  6
CONTINUOUS
 10
-0.2106288078
 20
20.4226750141
 30
0.0
 11
-0.0
 21
0.4
 31
0.0
 40
0.0261859216
 41
-2.9670597284
 42
-1.4748032179
  0
ELLIPSE
  5
376
100
AcDbEntity
  8
RACCORDO
100
AcDbEllipse
 62
7
  6
CONTINUOUS
 10
-0.2106288078
 20
-20.7526039615
 30
0.0
 11
-0.0
 21
0.4
 31
0.0
 40
0.0261859216
 41
-1.6667894357
 42
-0.1745329252
  0
ELLIPSE
  5
377
100
AcDbEntity
  8
RACCORDO
100
AcDbEllipse
 62
7
  6
CONTINUOUS
 10
0.5027870969
 20
-13.1649644737
 30
0.0
 11
-0.0
 21
30.0
 31
0.0
 40
0.0261859216
 41
1.5095718747
 42
1.789480621
  0
ELLIPSE
  5
378
100
AcDbEntity
  8
DRAFT
100
AcDbEllipse
 62
7
  6
CONTINUOUS
 10
34.6194868657
 20
-0.1649644737
 30
0.0
 11
-0.0
 21
498.6
 31
0.0
 40
0.0261859216
 41
1.5609345755
 42
1.5806580781
  0
ELLIPSE
  5
379
100
AcDbEntity
  8
RACCORDO
100
AcDbEllipse
 62
7
  6
CONTINUOUS
 10
-0.0504872852
 20
19.2349260258
 30
0.0
 11
-0.0
 21
0.5
 31
0.0
 40
0.0261859216
 41
-1.3521120326
 42
-0.1745329252
  0
ELLIPSE
  5
37A
100
AcDbEntity
  8
RACCORDO
100
AcDbEllipse
 62
7
  6
CONTINUOUS
 10
-0.0614249652
 20
-19.1307922389
 30
0.0
 11
-0.0
 21
1.0
 31
0.0
 40
0.0261859216
 41
-2.9670597284
 42
-1.7779938734
  0
ELLIPSE
  5
37B
100
AcDbEntity
  8
RACCORDO
100
AcDbEllipse
 62
7
  6
CONTINUOUS
 10
0.3992778107
 20
-21.8777079296
 30
0.0
 11
0.199903439
 21
0.4594732646
 31
0.0
 40
0.9978528039
 41
-4.3012323028
 42
-2.7320086613
  0
ELLIPSE
  5
37C
100
AcDbEntity
  8
RACCORDO
100
AcDbEllipse
 62
7
  6
CONTINUOUS
 10
0.3992778107
 20
21.5477789822
 30
0.0
 11
-0.199903439
 21
0.4594732646
 31
0.0
 40
0.9978528039
 41
-0.4095839923
 42
1.1596396492
  0
ELLIPSE
  5
37D
100
AcDbEntity
  8
RACCORDO
100
AcDbEllipse
 62
7
  6
CONTINUOUS
 10
21.1459010941
 20
-21.8777079296
 30
0.0
 11
-0.199903439
 21
0.4594732646
 31
0.0
 40
0.9978528039
 41
-3.5511766459
 42
-1.9819530044
  0
ELLIPSE
  5
37E
100
AcDbEntity
  8
RACCORDO
100
AcDbEllipse
 62
7
  6
CONTINUOUS
 10
21.1459010941
 20
21.5477789822
 30
0.0
 11
0.199903439
 21
0.4594732646
 31
0.0
 40
0.9978528039
 41
-1.1596396492
 42
0.4095839923
  0
ELLIPSE
  5
37F
100
AcDbEntity
  8
0
100
AcDbEllipse
 62
7
  6
CONTINUOUS
 10
0.2409000842
 20
10.3875871274
 30
0.0
 11
-0.0
 21
10.0
 31
0.0
 40
0.0261859216
 41
1.5095718747
 42
1.5988177584
  0
ELLIPSE
  5
380
100
AcDbEntity
  8
0
100
AcDbEllipse
 62
7
  6
CONTINUOUS
 10
-2.3400181816
 20
7.6250355263
 30
0.0
 11
-0.0
 21
88.6
 31
0.0
 40
0.0261859216
 41
-1.5517951834
 42
-1.5427748951
  0
ELLIPSE
  5
381
100
AcDbEntity
  8
0
100
AcDbEllipse
 62
7
  6
CONTINUOUS
 10
-13.0743079609
 20
-0.1649644737
 30
0.0
 11
-0.0
 21
498.6
 31
0.0
 40
0.0261859216
 41
-1.5897974701
 42
-1.5517951834
  0
ELLIPSE
  5
382
100
AcDbEntity
  8
0
100
AcDbEllipse
 62
7
  6
CONTINUOUS
 10
-2.3400181816
 20
-7.9549644737
 30
0.0
 11
-0.0
 21
88.6
 31
0.0
 40
0.0261859216
 41
-1.5988177584
 42
-1.5897974701
  0
ELLIPSE
  5
383
100
AcDbEntity
  8
0
100
AcDbEllipse
 62
7
  6
CONTINUOUS
 10
0.2409000842
 20
-10.7175160748
 30
0.0
 11
-0.0
 21
10.0
 31
0.0
 40
0.0261859216
 41
1.5427748951
 42
1.6320207789
  0
ELLIPSE
  5
384
100
AcDbEntity
  8
RACCORDO
100
AcDbEllipse
 62
7
  6
CONTINUOUS
 10
-0.804574268
 20
-13.1649644737
 30
0.0
 11
-0.0
 21
30.0
 31
0.0
 40
0.0261859216
 41
-1.7779938734
 42
-1.5095718747
  0
ELLIPSE
  5
385
100
AcDbEntity
  8
RACCORDO
100
AcDbEllipse
 62
7
  6
CONTINUOUS
 10
-0.0911583632
 20
-20.7526039615
 30
0.0
 11
-0.0
 21
0.4
 31
0.0
 40
0.0261859216
 41
0.1745329252
 42
1.6667894357
  0
ELLIPSE
  5
386
100
AcDbEntity
  8
RACCORDO
100
AcDbEllipse
 62
7
  6
CONTINUOUS
 10
-0.0911583632
 20
20.4226750141
 30
0.0
 11
-0.0
 21
0.4
 31
0.0
 40
0.0261859216
 41
1.4748032179
 42
2.9670597284
  0
ELLIPSE
  5
387
100
AcDbEntity
  8
RACCORDO
100
AcDbEllipse
 62
7
  6
CONTINUOUS
 10
-0.804574268
 20
12.8350355263
 30
0.0
 11
-0.0
 21
30.0
 31
0.0
 40
0.0261859216
 41
-1.6320207789
 42
-1.3521120326
  0
ENDSEC
  0
SECTION
  2
OBJECTS
  0
DICTIONARY
  5
C
100
AcDbDictionary
280
0
281
1
  3
ACAD_GROUP
350
D
  3
ACAD_MLINESTYLE
350
17
  3
ACAD_LAYOUT
350
1A
  3
ACAD_PLOTSETTINGS
350
19
  3
ACAD_PLOTSTYLENAME
350
E
  0
DICTIONARY
  5
D
102
{ACAD_REACTORS
330
C
102
}
100
AcDbDictionary
280
0
281
1
  0
ACDBDICTIONARYWDFLT
  5
E
102
{ACAD_REACTORS
330
C
102
}
100
AcDbDictionary
281
1
  3
Normal
350
F
100
AcDbDictionaryWithDefault
340
F
  0
DICTIONARY
  5
17
102
{ACAD_REACTORS
330
C
102
}
100
AcDbDictionary
280
0
281
1
  3
Standard
350
18
  0
DICTIONARY
  5
19
102
{ACAD_REACTORS
330
C
102
}
100
AcDbDictionary
281
1
  0
DICTIONARY
  5
1A
102
{ACAD_REACTORS
330
C
102
}
100
AcDbDictionary
281
1
  3
Model
350
388
  3
Layout1
350
389
  0
ACDBPLACEHOLDER
  5
F
102
{ACAD_REACTORS
330
E
102
}
  0
MLINESTYLE
  5
18
102
{ACAD_REACTORS
330
17
102
}
100
AcDbMlineStyle
  2
STANDARD
 70
0
  3

 62
256
 51
90.0
 52
90.0
 71
2
 49
0.5
 62
256
  6
BYLAYER
 49
-0.5
 62
256
  6
BYLAYER
  0
LAYOUT
  5
388
102
{ACAD_REACTORS
330
1A
102
}
100
AcDbPlotSettings
  1

  2
none_device
  4
ISO_A4_(297.00_x_210.00_MM)
  6

 40
0.0
 41
0.0
 42
0.0
 43
0.0
 44
297.0
 45
210.0
 46
0.0
 47
0.0
 48
0.0
 49
0.0
140
0.0
141
0.0
142
1.0
143
1.0
 70
1024
 72
1
 73
0
 74
0
  7

 75
0
147
1.0
148
0.0
149
0.0
100
AcDbLayout
  1
Model
 70
0
 71
0
 10
0.0
 20
0.0
 11
297.0
 21
210.0
 12
0.0
 22
0.0
 32
0.0
 14
0.0
 24
0.0
 34
0.0
 15
0.0
 25
0.0
 35
0.0
146
0.0
 13
0.0
 23
0.0
 33
0.0
 16
1.0
 26
0.0
 36
0.0
 17
0.0
 27
1.0
 37
0.0
 76
0
330
213
345
0
346
0
  0
LAYOUT
  5
389
102
{ACAD_REACTORS
330
1A
102
}
100
AcDbPlotSettings
  1

  2
none_device
  4
ISO_A4_(297.00_x_210.00_MM)
  6

 40
0.0
 41
0.0
 42
0.0
 43
0.0
 44
297.0
 45
210.0
 46
0.0
 47
0.0
 48
0.0
 49
0.0
140
0.0
141
0.0
142
1.0
143
1.0
 70
0
 72
1
 73
0
 74
0
  7

 75
0
147
1.0
148
0.0
149
0.0
100
AcDbLayout
  1
Layout1
 70
0
 71
1
 10
0.0
 20
0.0
 11
297.0
 21
210.0
 12
0.0
 22
0.0
 32
0.0
 14
0.0
 24
0.0
 34
0.0
 15
0.0
 25
0.0
 35
0.0
146
0.0
 13
0.0
 23
0.0
 33
0.0
 16
1.0
 26
0.0
 36
0.0
 17
0.0
 27
1.0
 37
0.0
 76
0
330
214
345
0
346
0
  0
ENDSEC
  0
EOF
