  0
SECTION
  2
HEADER
  9
$ACADVER
  1
AC1024
  9
$DWGCODEPAGE
  3
ANSI_1252
  9
$EXTMAX
 10
558.8
 20
431.8
 30
0.0
  9
$EXTMIN
 10
0.0
 20
0.0
 30
0.0
  9
$LIMMIN
 10
0.0
 20
0.0
  9
$LIMMAX
 10
558.8
 20
431.8
  9
$VIEWCTR
 10
279.4
 20
215.9
  9
$VIEWSIZE
 40
431.8
  9
$CLAYER
  8
0
  9
$LTSCALE
 40
30.734
  9
$CELTYPE
  6
BYLAYER
  9
$DIMSCALE
 40
1.0
  9
$DIMASZ
 40
3.0
  9
$DIMEXO
 40
0.5
  9
$DIMDLI
 40
21.2344
  9
$DIMEXE
 40
1.5
  9
$DIMCEN
 40
5.0292
  9
$DIMLFAC
 40
1.0
  9
$DIMBLK
  1
_FILLED
  9
$DIMALT
 70
0
  9
$DIMALTF
 40
0.0393700787
  9
$DIMTXT
 40
3.0
  9
$DIMTOL
 70
1
  9
$DIMLIM
 70
0
  9
$DIMTFAC
 40
1.0
  9
$DIMTP
 40
0.01
  9
$DIMTM
 40
0.01
  9
$DIMGAP
 40
0.625
  9
$DIMDSEP
 70
44
  9
$AUNITS
 70
0
  9
$PDMODE
 70
3
  9
$PDSIZE
 40
3.0
  9
$HANDSEED
  5
42B
  9
$TILEMODE
 70
1
  9
$MEASUREMENT
 70
1
  9
$INSUNITS
 70
4
  0
ENDSEC
  0
SECTION
  2
CLASSES
  0
CLASS
  1
ACDBDICTIONARYWDFLT
  2
AcDbDictionaryWithDefault
  3
AutoCAD 2000
 90
0
 91
1
280
0
281
0
  0
CLASS
  1
ACDBPLACEHOLDER
  2
AcDbPlaceHolder
  3
AutoCAD 2000
 90
0
 91
1
280
0
281
0
  0
CLASS
  1
LAYOUT
  2
AcDbLayout
  3
AutoCAD 2000
 90
0
 91
0
280
0
281
0
  0
ENDSEC
  0
SECTION
  2
TABLES
  0
TABLE
  2
VPORT
  5
8
100
AcDbSymbolTable
 70
2
  0
VPORT
  5
1F4
100
AcDbSymbolTableRecord
100
AcDbViewportTableRecord
  2
*ACTIVE
 70
0
 10
0.0
 20
0.0
 11
1.0
 21
1.0
 12
279.4
 22
215.9
 13
0.0
 23
0.0
 14
1.0
 24
1.0
 15
0.0
 25
0.0
 16
0.0
 26
0.0
 36
1.0
 17
0.0
 27
0.0
 37
0.0
 40
431.8
 41
1.2941176471
 42
50.0
 43
0.0
 44
0.0
 50
0.0
 51
0.0
 71
0
 72
100
 73
1
 74
1
 75
0
 76
0
 77
0
 78
0
  0
ENDTAB
  0
TABLE
  2
LTYPE
  5
5
100
AcDbSymbolTable
 70
6
  0
LTYPE
  5
14
100
AcDbSymbolTableRecord
100
AcDbLinetypeTableRecord
  2
BYBLOCK
 70
0
  3

 72
65
 73
0
 40
0.0
  0
LTYPE
  5
15
100
AcDbSymbolTableRecord
100
AcDbLinetypeTableRecord
  2
BYLAYER
 70
0
  3

 72
65
 73
0
 40
0.0
  0
LTYPE
  5
16
100
AcDbSymbolTableRecord
100
AcDbLinetypeTableRecord
  2
CONTINUOUS
 70
64
  3
Solid line
 72
65
 73
0
 40
0.0
  0
LTYPE
  5
1F5
100
AcDbSymbolTableRecord
100
AcDbLinetypeTableRecord
  2
CENTER
 70
64
  3
____ _ ____ _ ____ _ ____ _ ____ _ ____ _ ____
 72
65
 73
4
 40
0.6
 49
0.375
 74
0
 49
-0.075
 74
0
 49
0.075
 74
0
 49
-0.075
 74
0
  0
LTYPE
  5
1F6
100
AcDbSymbolTableRecord
100
AcDbLinetypeTableRecord
  2
HIDDEN
 70
64
  3
- - - - - - - - - - - - - - - - - - - -
 72
65
 73
2
 40
0.2
 49
0.1
 74
0
 49
-0.1
 74
0
  0
LTYPE
  5
1F7
100
AcDbSymbolTableRecord
100
AcDbLinetypeTableRecord
  2
PHANTOM
 70
64
  3
_____ _ _ _____ _ _ _____ _ _ _____
 72
65
 73
6
 40
0.8
 49
0.45
 74
0
 49
-0.05
 74
0
 49
0.1
 74
0
 49
-0.05
 74
0
 49
0.1
 74
0
 49
-0.05
 74
0
  0
LTYPE
  5
1F8
100
AcDbSymbolTableRecord
100
AcDbLinetypeTableRecord
  2
DOT
 70
64
  3
. . . . . . . . . . . . . . . . . . . .
 72
65
 73
2
 40
0.2
 49
0.1
 74
0
 49
-0.1
 74
0
  0
LTYPE
  5
1F9
100
AcDbSymbolTableRecord
100
AcDbLinetypeTableRecord
  2
DASHED
 70
64
  3
- - - - - - - - - - - - - - - - - - - -
 72
65
 73
2
 40
0.2
 49
0.1
 74
0
 49
-0.1
 74
0
  0
ENDTAB
  0
TABLE
  2
LAYER
  5
2
100
AcDbSymbolTable
 70
36
  0
LAYER
  5
10
100
AcDbSymbolTableRecord
100
AcDbLayerTableRecord
  2
0
 70
0
 62
7
  6
CONTINUOUS
370
-3
390
F
  0
LAYER
  5
1FA
100
AcDbSymbolTableRecord
100
AcDbLayerTableRecord
  2
DEFAULT_1
 70
0
 62
7
  6
CENTER
370
-3
390
F
  0
LAYER
  5
1FB
100
AcDbSymbolTableRecord
100
AcDbLayerTableRecord
  2
DEFAULT_2
 70
0
 62
7
  6
HIDDEN
370
-3
390
F
  0
LAYER
  5
1FC
100
AcDbSymbolTableRecord
100
AcDbLayerTableRecord
  2
DEFAULT_3
 70
0
 62
7
  6
PHANTOM
370
-3
390
F
  0
LAYER
  5
1FD
100
AcDbSymbolTableRecord
100
AcDbLayerTableRecord
  2
ASSI
 70
0
 62
7
  6
CONTINUOUS
370
-3
390
F
  0
LAYER
  5
1FE
100
AcDbSymbolTableRecord
100
AcDbLayerTableRecord
  2
COLOR5
 70
0
 62
7
  6
CONTINUOUS
370
-3
390
F
  0
LAYER
  5
1FF
100
AcDbSymbolTableRecord
100
AcDbLayerTableRecord
  2
COORDINATE
 70
0
 62
7
  6
CONTINUOUS
370
-3
390
F
  0
LAYER
  5
200
100
AcDbSymbolTableRecord
100
AcDbLayerTableRecord
  2
COORD_ORIGINE
 70
0
 62
7
  6
CONTINUOUS
370
-3
390
F
  0
LAYER
  5
201
100
AcDbSymbolTableRecord
100
AcDbLayerTableRecord
  2
COPY_GEOM
 70
0
 62
7
  6
CONTINUOUS
370
-3
390
F
  0
LAYER
  5
202
100
AcDbSymbolTableRecord
100
AcDbLayerTableRecord
  2
CURVE
 70
0
 62
7
  6
CONTINUOUS
370
-3
390
F
  0
LAYER
  5
203
100
AcDbSymbolTableRecord
100
AcDbLayerTableRecord
  2
DRAFT
 70
0
 62
7
  6
CONTINUOUS
370
-3
390
F
  0
LAYER
  5
204
100
AcDbSymbolTableRecord
100
AcDbLayerTableRecord
  2
IGS
 70
0
 62
7
  6
CONTINUOUS
370
-3
390
F
  0
LAYER
  5
205
100
AcDbSymbolTableRecord
100
AcDbLayerTableRecord
  2
IMPORT_COPY_GEOM
 70
0
 62
7
  6
CONTINUOUS
370
-3
390
F
  0
LAYER
  5
206
100
AcDbSymbolTableRecord
100
AcDbLayerTableRecord
  2
INTF_1
 70
0
 62
7
  6
CONTINUOUS
370
-3
390
F
  0
LAYER
  5
207
100
AcDbSymbolTableRecord
100
AcDbLayerTableRecord
  2
INTF_7
 70
0
 62
7
  6
CONTINUOUS
370
-3
390
F
  0
LAYER
  5
208
100
AcDbSymbolTableRecord
100
AcDbLayerTableRecord
  2
NOTE
 70
0
 62
7
  6
CONTINUOUS
370
-3
390
F
  0
LAYER
  5
209
100
AcDbSymbolTableRecord
100
AcDbLayerTableRecord
  2
PIANI
 70
0
 62
7
  6
CONTINUOUS
370
-3
390
F
  0
LAYER
  5
20A
100
AcDbSymbolTableRecord
100
AcDbLayerTableRecord
  2
PIANI_ORIGINE
 70
0
 62
7
  6
CONTINUOUS
370
-3
390
F
  0
LAYER
  5
20B
100
AcDbSymbolTableRecord
100
AcDbLayerTableRecord
  2
PUNTI
 70
0
 62
7
  6
CONTINUOUS
370
-3
390
F
  0
LAYER
  5
20C
100
AcDbSymbolTableRecord
100
AcDbLayerTableRecord
  2
RACCORDO
 70
0
 62
7
  6
CONTINUOUS
370
-3
390
F
  0
LAYER
  5
20D
100
AcDbSymbolTableRecord
100
AcDbLayerTableRecord
  2
RGB__255__255__255__
 70
0
 62
7
  6
CONTINUOUS
370
-3
390
F
  0
LAYER
  5
20E
100
AcDbSymbolTableRecord
100
AcDbLayerTableRecord
  2
RGB____0____0____0__
 70
0
 62
7
  6
CONTINUOUS
370
-3
390
F
  0
LAYER
  5
20F
100
AcDbSymbolTableRecord
100
AcDbLayerTableRecord
  2
SMUSSO
 70
0
 62
7
  6
CONTINUOUS
370
-3
390
F
  0
LAYER
  5
210
100
AcDbSymbolTableRecord
100
AcDbLayerTableRecord
  2
SNAPLINE
 70
0
 62
7
  6
CONTINUOUS
370
-3
390
F
  0
LAYER
  5
211
100
AcDbSymbolTableRecord
100
AcDbLayerTableRecord
  2
SUPERFICI
 70
0
 62
7
  6
CONTINUOUS
370
-3
390
F
  0
LAYER
  5
212
100
AcDbSymbolTableRecord
100
AcDbLayerTableRecord
  2
TESTO
 70
0
 62
7
  6
CONTINUOUS
370
-3
390
F
  0
LAYER
  5
213
100
AcDbSymbolTableRecord
100
AcDbLayerTableRecord
  2
TRASH
 70
0
 62
7
  6
CONTINUOUS
370
-3
390
F
  0
LAYER
  5
214
100
AcDbSymbolTableRecord
100
AcDbLayerTableRecord
  2
XSEC_DATUMS
 70
0
 62
7
  6
CONTINUOUS
370
-3
390
F
  0
ENDTAB
  0
TABLE
  2
STYLE
  5
3
100
AcDbSymbolTable
 70
1
  0
STYLE
  5
11
100
AcDbSymbolTableRecord
100
AcDbTextStyleTableRecord
  2
STANDARD
 70
0
 40
0.0
 41
0.8
 50
0.0
 71
0
 42
0.2
  3
txt
  4

  0
STYLE
  5
215
100
AcDbSymbolTableRecord
100
AcDbTextStyleTableRecord
  2
TEXTSTYLE_1
 70
0
 40
0.0
 41
0.8
 50
0.0
 71
0
 42
0.2
  3
gdt
  4

  0
ENDTAB
  0
TABLE
  2
VIEW
  5
6
100
AcDbSymbolTable
 70
0
  0
ENDTAB
  0
TABLE
  2
UCS
  5
7
100
AcDbSymbolTable
 70
0
  0
ENDTAB
  0
TABLE
  2
APPID
  5
9
100
AcDbSymbolTable
 70
1
  0
APPID
  5
216
100
AcDbSymbolTableRecord
100
AcDbRegAppTableRecord
  2
ACAD
 70
0
  0
ENDTAB
  0
TABLE
  2
BLOCK_RECORD
  5
1
100
AcDbSymbolTable
 70
0
  0
BLOCK_RECORD
  5
217
100
AcDbSymbolTableRecord
100
AcDbBlockTableRecord
  2
*Model_Space
  0
BLOCK_RECORD
  5
218
100
AcDbSymbolTableRecord
100
AcDbBlockTableRecord
  2
*Paper_Space
  0
BLOCK_RECORD
  5
219
100
AcDbSymbolTableRecord
100
AcDbBlockTableRecord
  2
_FILLED
  0
BLOCK_RECORD
  5
21A
100
AcDbSymbolTableRecord
100
AcDbBlockTableRecord
  2
*D0
  0
BLOCK_RECORD
  5
21B
100
AcDbSymbolTableRecord
100
AcDbBlockTableRecord
  2
*D1
  0
BLOCK_RECORD
  5
21C
100
AcDbSymbolTableRecord
100
AcDbBlockTableRecord
  2
*D2
  0
BLOCK_RECORD
  5
21D
100
AcDbSymbolTableRecord
100
AcDbBlockTableRecord
  2
*D3
  0
ENDTAB
  0
TABLE
  2
DIMSTYLE
  5
A
100
AcDbSymbolTable
 70
1
100
AcDbDimStyleTable
 71
0
  0
DIMSTYLE
105
21E
100
AcDbSymbolTableRecord
100
AcDbDimStyleTableRecord
  2
STANDARD
 70
0
  3

  4

 40
1.0
 41
3.0
 42
0.5
 43
0.38
 44
1.5
 45
0.0
 46
0.0
 47
0.01
 48
0.01
140
3.0
141
0.09
142
0.0
143
25.4
144
1.0
145
0.0
146
1.0
147
0.625
 71
1
 72
0
 73
0
 74
0
 75
0
 76
0
 77
1
 78
8
 79
2
170
0
171
1
172
0
173
0
174
0
175
0
176
0
177
0
178
0
270
2
179
2
271
2
272
2
273
2
274
2
275
0
280
0
281
0
282
0
283
1
284
8
285
0
286
0
287
3
288
0
340
11
278
44
341
219
342
219
343
219
344
219
  0
DIMSTYLE
105
21F
100
AcDbSymbolTableRecord
100
AcDbDimStyleTableRecord
  2
DIMSTYLE_1
 70
0
  3

  4

 40
1.0
 41
3.0
 42
0.5
 43
0.38
 44
1.5
 45
0.0
 46
0.0
 47
0.0
 48
0.0
140
3.0
141
0.09
142
0.0
143
25.4
144
1.0
145
0.0
146
1.0
147
0.75
 71
0
 72
0
 73
0
 74
0
 75
0
 76
0
 77
1
 78
8
 79
2
170
0
171
1
172
0
173
0
174
0
175
0
176
0
177
0
178
0
270
2
179
2
271
2
272
2
273
2
274
2
275
0
280
0
281
0
282
0
283
1
284
8
285
0
286
0
287
3
288
0
340
11
278
44
341
219
342
219
343
219
344
219
  0
ENDTAB
  0
ENDSEC
  0
SECTION
  2
BLOCKS
  0
BLOCK
  5
20
100
AcDbEntity
  8
0
100
AcDbBlockBegin
  2
*Model_Space
 70
0
 10
0.0
 20
0.0
 30
0.0
  3
*Model_Space
  1

  0
ENDBLK
  5
21
100
AcDbEntity
  8
0
100
AcDbBlockEnd
  0
BLOCK
  5
1C
100
AcDbEntity
  8
0
100
AcDbBlockBegin
  2
*Paper_Space
 70
0
 10
0.0
 20
0.0
 30
0.0
  3
*Paper_Space
  1

  0
ENDBLK
  5
1D
100
AcDbEntity
  8
0
100
AcDbBlockEnd
  0
BLOCK
  5
220
100
AcDbEntity
  8
0
100
AcDbBlockBegin
  2
_FILLED
 70
64
 10
0.0
 20
0.0
  3
_FILLED
  1

  0
SOLID
  5
221
100
AcDbEntity
  8
0
  6
BYBLOCK
 62
0
100
AcDbTrace
 10
0.0
 20
0.0
 11
-1.0
 21
0.3166666667
 12
-1.0
 22
-0.3166666667
 13
-1.0
 23
-0.3166666667
  0
ENDBLK
  5
222
100
AcDbEntity
  8
0
  6
BYBLOCK
 62
0
100
AcDbBlockEnd
  0
BLOCK
  5
223
100
AcDbEntity
  8
0
100
AcDbBlockBegin
 62
7
  6
CONTINUOUS
  2
*D0
 70
65
 10
0.0
 20
0.0
  3
*D0
  1

  0
LINE
  5
224
100
AcDbEntity
  8
0
100
AcDbLine
 62
7
  6
CONTINUOUS
 10
-61.0
 20
39.0
 11
-61.0
 21
51.8032049737
  0
LINE
  5
225
100
AcDbEntity
  8
0
100
AcDbLine
 62
7
  6
CONTINUOUS
 10
61.0
 20
39.0
 11
61.0
 21
51.8032049737
  0
LINE
  5
226
100
AcDbEntity
  8
0
100
AcDbLine
 62
7
  6
CONTINUOUS
 10
-61.0
 20
50.3032049737
 11
0.0
 21
50.3032049737
  0
LINE
  5
227
100
AcDbEntity
  8
0
100
AcDbLine
 62
7
  6
CONTINUOUS
 10
61.0
 20
50.3032049737
 11
0.0
 21
50.3032049737
  0
INSERT
  5
228
100
AcDbEntity
  8
0
100
AcDbBlockReference
 62
7
  6
CONTINUOUS
  2
_FILLED
 10
-61.0
 20
50.3032049737
 41
3.0
 42
3.0
 43
3.0
 50
180.0
  0
INSERT
  5
229
100
AcDbEntity
  8
0
100
AcDbBlockReference
 62
7
  6
CONTINUOUS
  2
_FILLED
 10
61.0
 20
50.3032049737
 41
3.0
 42
3.0
 43
3.0
  0
ENDBLK
  5
22A
100
AcDbEntity
  8
0
  6
BYBLOCK
 62
0
100
AcDbBlockEnd
  0
BLOCK
  5
22B
100
AcDbEntity
  8
0
100
AcDbBlockBegin
 62
7
  6
CONTINUOUS
  2
*D1
 70
65
 10
0.0
 20
0.0
  3
*D1
  1

  0
LINE
  5
22C
100
AcDbEntity
  8
0
100
AcDbLine
 62
7
  6
CONTINUOUS
 10
57.5
 20
42.5
 11
70.9072736699
 21
42.5
  0
LINE
  5
22D
100
AcDbEntity
  8
0
100
AcDbLine
 62
7
  6
CONTINUOUS
 10
57.5
 20
-42.5
 11
70.9072736699
 21
-42.5
  0
LINE
  5
22E
100
AcDbEntity
  8
0
100
AcDbLine
 62
7
  6
CONTINUOUS
 10
69.4072736699
 20
42.5
 11
69.4072736699
 21
0.0
  0
LINE
  5
22F
100
AcDbEntity
  8
0
100
AcDbLine
 62
7
  6
CONTINUOUS
 10
69.4072736699
 20
-42.5
 11
69.4072736699
 21
0.0
  0
INSERT
  5
230
100
AcDbEntity
  8
0
100
AcDbBlockReference
 62
7
  6
CONTINUOUS
  2
_FILLED
 10
69.4072736699
 20
42.5
 41
3.0
 42
3.0
 43
3.0
 50
90.0
  0
INSERT
  5
231
100
AcDbEntity
  8
0
100
AcDbBlockReference
 62
7
  6
CONTINUOUS
  2
_FILLED
 10
69.4072736699
 20
-42.5
 41
3.0
 42
3.0
 43
3.0
 50
270.0
  0
ENDBLK
  5
232
100
AcDbEntity
  8
0
  6
BYBLOCK
 62
0
100
AcDbBlockEnd
  0
BLOCK
  5
233
100
AcDbEntity
  8
0
100
AcDbBlockBegin
 62
7
  6
CONTINUOUS
  2
*D2
 70
65
 10
0.0
 20
0.0
  3
*D2
  1

  0
LINE
  5
234
100
AcDbEntity
  8
0
100
AcDbLine
 62
7
  6
CONTINUOUS
 10
-89.9125022862
 20
43.0
 11
-89.9125022862
 21
52.0
  0
LINE
  5
235
100
AcDbEntity
  8
0
100
AcDbLine
 62
7
  6
CONTINUOUS
 10
-111.7125022862
 20
22.7
 11
-111.7125022862
 21
52.0
  0
LINE
  5
236
100
AcDbEntity
  8
0
100
AcDbLine
 62
7
  6
CONTINUOUS
 10
-89.9125022862
 20
50.5
 11
-100.8125022862
 21
50.5
  0
LINE
  5
237
100
AcDbEntity
  8
0
100
AcDbLine
 62
7
  6
CONTINUOUS
 10
-111.7125022862
 20
50.5
 11
-100.8125022862
 21
50.5
  0
INSERT
  5
238
100
AcDbEntity
  8
0
100
AcDbBlockReference
 62
7
  6
CONTINUOUS
  2
_FILLED
 10
-89.9125022862
 20
50.5
 41
3.0
 42
3.0
 43
3.0
  0
INSERT
  5
239
100
AcDbEntity
  8
0
100
AcDbBlockReference
 62
7
  6
CONTINUOUS
  2
_FILLED
 10
-111.7125022862
 20
50.5
 41
3.0
 42
3.0
 43
3.0
 50
180.0
  0
ENDBLK
  5
23A
100
AcDbEntity
  8
0
  6
BYBLOCK
 62
0
100
AcDbBlockEnd
  0
BLOCK
  5
23B
100
AcDbEntity
  8
0
100
AcDbBlockBegin
 62
7
  6
CONTINUOUS
  2
*D3
 70
65
 10
0.0
 20
0.0
  3
*D3
  1

  0
LINE
  5
23C
100
AcDbEntity
  8
0
100
AcDbLine
 62
7
  6
CONTINUOUS
 10
-82.9125022862
 20
23.3112971667
 11
-82.9125022862
 21
62.0
  0
LINE
  5
23D
100
AcDbEntity
  8
0
100
AcDbLine
 62
7
  6
CONTINUOUS
 10
-111.7125022862
 20
22.7
 11
-111.7125022862
 21
62.0
  0
LINE
  5
23E
100
AcDbEntity
  8
0
100
AcDbLine
 62
7
  6
CONTINUOUS
 10
-82.9125022862
 20
60.5
 11
-97.3125022862
 21
60.5
  0
LINE
  5
23F
100
AcDbEntity
  8
0
100
AcDbLine
 62
7
  6
CONTINUOUS
 10
-111.7125022862
 20
60.5
 11
-97.3125022862
 21
60.5
  0
INSERT
  5
240
100
AcDbEntity
  8
0
100
AcDbBlockReference
 62
7
  6
CONTINUOUS
  2
_FILLED
 10
-82.9125022862
 20
60.5
 41
3.0
 42
3.0
 43
3.0
  0
INSERT
  5
241
100
AcDbEntity
  8
0
100
AcDbBlockReference
 62
7
  6
CONTINUOUS
  2
_FILLED
 10
-111.7125022862
 20
60.5
 41
3.0
 42
3.0
 43
3.0
 50
180.0
  0
ENDBLK
  5
242
100
AcDbEntity
  8
0
  6
BYBLOCK
 62
0
100
AcDbBlockEnd
  0
ENDSEC
  0
SECTION
  2
ENTITIES
  0
DIMENSION
  5
243
100
AcDbEntity
  8
0
100
AcDbDimension
 62
7
  6
CONTINUOUS
  2
*D0
 10
61.0
 20
50.3032049737
 11
-3.2142857143
 21
50.3032049737
 70
160
 71
2
 72
2
 41
0.9
 42
122.0
  3
DIMSTYLE_1
100
AcDbAlignedDimension
 13
-61.0
 23
38.5
 14
61.0
 24
38.5
100
AcDbRotatedDimension
  0
DIMENSION
  5
244
100
AcDbEntity
  8
0
100
AcDbDimension
 62
7
  6
CONTINUOUS
  2
*D1
 10
69.4072736699
 20
-42.5
 11
69.4072736699
 21
-2.25
 70
160
 71
2
 72
2
 41
0.9
 42
85.0
  3
DIMSTYLE_1
100
AcDbAlignedDimension
 13
57.0
 23
42.5
 14
57.0
 24
-42.5
 50
270.0
100
AcDbRotatedDimension
  0
DIMENSION
  5
245
100
AcDbEntity
  8
0
100
AcDbDimension
 62
7
  6
CONTINUOUS
  2
*D2
 10
-111.7125022862
 20
50.5
 11
-104.8839308577
 21
50.5
 70
160
 71
2
 72
2
 41
0.9
 42
21.8
  3
DIMSTYLE_1
100
AcDbAlignedDimension
 13
-89.9125022862
 23
42.5
 14
-111.7125022862
 24
22.2
 50
180.0
100
AcDbRotatedDimension
  0
DIMENSION
  5
246
100
AcDbEntity
  8
0
100
AcDbDimension
 62
7
  6
CONTINUOUS
  2
*D3
 10
-111.7125022862
 20
60.5
 11
-101.7053594291
 21
60.5
 70
160
 71
2
 72
2
 41
0.9
 42
28.8
  3
DIMSTYLE_1
100
AcDbAlignedDimension
 13
-82.9125022862
 23
22.8112971667
 14
-111.7125022862
 24
22.2
 50
180.0
100
AcDbRotatedDimension
  0
LINE
  5
247
100
AcDbEntity
  8
DRAFT
100
AcDbLine
 62
7
  6
CONTINUOUS
 10
-61.0
 20
-38.5
 11
-61.0
 21
38.5
  0
LINE
  5
248
100
AcDbEntity
  8
ASSI
100
AcDbLine
 62
7
  6
CONTINUOUS
 10
-60.75
 20
-38.49
 11
-60.75
 21
37.5
  0
LINE
  5
249
100
AcDbEntity
  8
0
100
AcDbLine
 62
7
  6
CONTINUOUS
 10
-48.9694559627
 20
-42.5
 11
-49.0
 21
-42.4389072728
  0
LINE
  5
24A
100
AcDbEntity
  8
DRAFT
100
AcDbLine
 62
7
  6
CONTINUOUS
 10
-48.9694559627
 20
-42.5
 11
-49.0
 21
-42.4389072728
  0
LINE
  5
24B
100
AcDbEntity
  8
RACCORDO
100
AcDbLine
 62
250
  6
CONTINUOUS
 10
-57.0
 20
-42.2496120746
 11
-57.0
 21
-42.5
  0
LINE
  5
24C
100
AcDbEntity
  8
DRAFT
100
AcDbLine
 62
250
  6
CONTINUOUS
 10
-57.0
 20
42.3219583377
 11
-57.0
 21
42.5
  0
LINE
  5
24D
100
AcDbEntity
  8
RACCORDO
100
AcDbLine
 62
250
  6
CONTINUOUS
 10
-56.99
 20
-42.1067205393
 11
-56.99
 21
-42.25
  0
LINE
  5
24E
100
AcDbEntity
  8
RACCORDO
100
AcDbLine
 62
250
  6
CONTINUOUS
 10
-56.99
 20
42.1172542221
 11
-56.99
 21
42.1993909428
  0
LWPOLYLINE
  5
24F
100
AcDbEntity
  8
0
100
AcDbPolyline
 62
7
  6
CONTINUOUS
 90
3
 70
0
 43
0.3500000087
 10
-3.2142857319
 20
53.1960638245
 10
-2.357142799
 20
54.0532014282
 10
-2.357142799
 20
51.0532070251
  0
LINE
  5
250
100
AcDbEntity
  8
DRAFT
100
AcDbLine
 62
7
  6
CONTINUOUS
 10
57.0
 20
-42.5
 11
53.0305440373
 21
-42.5
  0
LINE
  5
251
100
AcDbEntity
  8
0
100
AcDbLine
 62
7
  6
CONTINUOUS
 10
-53.0305440373
 20
-42.5
 11
-48.9694559627
 21
-42.5
  0
LINE
  5
252
100
AcDbEntity
  8
DRAFT
100
AcDbLine
 62
7
  6
CONTINUOUS
 10
48.9694559627
 20
-42.5
 11
-48.9694559627
 21
-42.5
  0
LINE
  5
253
100
AcDbEntity
  8
0
100
AcDbLine
 62
7
  6
CONTINUOUS
 10
48.9694559627
 20
-42.5
 11
53.0305440373
 21
-42.5
  0
LINE
  5
254
100
AcDbEntity
  8
DRAFT
100
AcDbLine
 62
7
  6
CONTINUOUS
 10
-53.0305440373
 20
-42.5
 11
-57.0
 21
-42.5
  0
LINE
  5
255
100
AcDbEntity
  8
0
100
AcDbLine
 62
7
  6
CONTINUOUS
 10
-53.0
 20
-42.4389072728
 11
-49.0
 21
-42.4389072728
  0
LINE
  5
256
100
AcDbEntity
  8
DRAFT
100
AcDbLine
 62
7
  6
CONTINUOUS
 10
-53.0
 20
-42.4389072728
 11
-49.0
 21
-42.4389072728
  0
LINE
  5
257
100
AcDbEntity
  8
0
100
AcDbLine
 62
7
  6
CONTINUOUS
 10
49.0
 20
-42.4389072728
 11
53.0
 21
-42.4389072728
  0
LINE
  5
258
100
AcDbEntity
  8
DRAFT
100
AcDbLine
 62
7
  6
CONTINUOUS
 10
49.0
 20
-42.4389072728
 11
53.0
 21
-42.4389072728
  0
LINE
  5
259
100
AcDbEntity
  8
RACCORDO
100
AcDbLine
 62
250
  6
CONTINUOUS
 10
26.8
 20
-42.3971656547
 11
-26.8
 21
-42.3971656547
  0
LINE
  5
25A
100
AcDbEntity
  8
RACCORDO
100
AcDbLine
 62
250
  6
CONTINUOUS
 10
-57.0
 20
-42.3689346966
 11
-26.8
 21
-42.3689346966
  0
LINE
  5
25B
100
AcDbEntity
  8
RACCORDO
100
AcDbLine
 62
250
  6
CONTINUOUS
 10
57.0
 20
-42.3689346966
 11
26.8
 21
-42.3689346966
  0
LINE
  5
25C
100
AcDbEntity
  8
DRAFT
100
AcDbLine
 62
7
  6
CONTINUOUS
 10
-56.99
 20
-42.25
 11
-30.0785418101
 21
-42.25
  0
LINE
  5
25D
100
AcDbEntity
  8
DRAFT
100
AcDbLine
 62
7
  6
CONTINUOUS
 10
30.0785418101
 20
-42.25
 11
56.99
 21
-42.25
  0
LINE
  5
25E
100
AcDbEntity
  8
RACCORDO
100
AcDbLine
 62
250
  6
CONTINUOUS
 10
26.5428498098
 20
-42.2472113461
 11
-26.5428498098
 21
-42.2472113461
  0
LINE
  5
25F
100
AcDbEntity
  8
RACCORDO
100
AcDbLine
 62
7
  6
CONTINUOUS
 10
27.2499999901
 20
-42.2
 11
-27.2499999886
 21
-42.2
  0
LINE
  5
260
100
AcDbEntity
  8
RACCORDO
100
AcDbLine
 62
250
  6
CONTINUOUS
 10
-30.0644104684
 20
-42.0823346101
 11
-29.9947154997
 21
-42.0823346101
  0
LINE
  5
261
100
AcDbEntity
  8
RACCORDO
100
AcDbLine
 62
250
  6
CONTINUOUS
 10
29.9947154997
 20
-42.0823346101
 11
30.0644104684
 21
-42.0823346101
  0
LINE
  5
262
100
AcDbEntity
  8
RACCORDO
100
AcDbLine
 62
7
  6
CONTINUOUS
 10
-29.9912731322
 20
-42.0216303177
 11
29.9912731322
 21
-42.0216303177
  0
LINE
  5
263
100
AcDbEntity
  8
RACCORDO
100
AcDbLine
 62
250
  6
CONTINUOUS
 10
-30.0644554589
 20
-40.7513739496
 11
30.0644554589
 21
-40.7513739496
  0
LINE
  5
264
100
AcDbEntity
  8
RACCORDO
100
AcDbLine
 62
250
  6
CONTINUOUS
 10
-37.3473509763
 20
0.0001760453
 11
-37.3476191687
 21
22.2
  0
LINE
  5
265
100
AcDbEntity
  8
0
100
AcDbLine
 62
7
  6
CONTINUOUS
 10
-35.75
 20
-22.2
 11
-35.75
 21
22.2
  0
LINE
  5
266
100
AcDbEntity
  8
DRAFT
100
AcDbLine
 62
7
  6
CONTINUOUS
 10
-35.25
 20
-22.2
 11
-35.25
 21
22.2
  0
LINE
  5
267
100
AcDbEntity
  8
RACCORDO
100
AcDbLine
 62
250
  6
CONTINUOUS
 10
-35.2304947957
 20
22.2
 11
-35.2304947957
 21
-22.2
  0
LINE
  5
268
100
AcDbEntity
  8
RACCORDO
100
AcDbLine
 62
250
  6
CONTINUOUS
 10
-34.2306471005
 20
22.2
 11
-34.2306471005
 21
-22.2
  0
LINE
  5
269
100
AcDbEntity
  8
RACCORDO
100
AcDbLine
 62
250
  6
CONTINUOUS
 10
-37.3541477061
 20
-22.2
 11
-37.3473509763
 21
0.0001760453
  0
LINE
  5
26A
100
AcDbEntity
  8
RACCORDO
100
AcDbLine
 62
250
  6
CONTINUOUS
 10
61.0
 20
-38.5
 11
60.7496120746
 21
-38.5
  0
LINE
  5
26B
100
AcDbEntity
  8
RACCORDO
100
AcDbLine
 62
250
  6
CONTINUOUS
 10
-60.7496120746
 20
-38.5
 11
-61.0
 21
-38.5
  0
LINE
  5
26C
100
AcDbEntity
  8
RACCORDO
100
AcDbLine
 62
250
  6
CONTINUOUS
 10
60.6112537135
 20
-38.49
 11
60.75
 21
-38.49
  0
LINE
  5
26D
100
AcDbEntity
  8
RACCORDO
100
AcDbLine
 62
250
  6
CONTINUOUS
 10
-60.6112537135
 20
-38.49
 11
-60.75
 21
-38.49
  0
LINE
  5
26E
100
AcDbEntity
  8
RACCORDO
100
AcDbLine
 62
250
  6
CONTINUOUS
 10
-33.449999999
 20
-26.096995997
 11
-33.4469062613
 21
-27.9105692187
  0
LINE
  5
26F
100
AcDbEntity
  8
RACCORDO
100
AcDbLine
 62
250
  6
CONTINUOUS
 10
-33.45
 20
26.0978407616
 11
-33.45
 21
24.5
  0
LINE
  5
270
100
AcDbEntity
  8
RACCORDO
100
AcDbLine
 62
250
  6
CONTINUOUS
 10
-33.45
 20
-26.0970087231
 11
-33.45
 21
-24.5
  0
LINE
  5
271
100
AcDbEntity
  8
RACCORDO
100
AcDbLine
 62
250
  6
CONTINUOUS
 10
-33.45
 20
-22.9806471005
 11
-33.45
 21
-24.0
  0
LINE
  5
272
100
AcDbEntity
  8
RACCORDO
100
AcDbLine
 62
250
  6
CONTINUOUS
 10
-33.45
 20
22.9806471005
 11
-33.45
 21
24.0
  0
LINE
  5
273
100
AcDbEntity
  8
RACCORDO
100
AcDbLine
 62
250
  6
CONTINUOUS
 10
-30.0644554589
 20
-40.7513739496
 11
-30.0644104684
 21
-42.0823346101
  0
LINE
  5
274
100
AcDbEntity
  8
RACCORDO
100
AcDbLine
 62
250
  6
CONTINUOUS
 10
-33.45
 20
26.0978407628
 11
-33.4466818047
 21
27.8965327251
  0
LINE
  5
275
100
AcDbEntity
  8
0
100
AcDbLine
 62
7
  6
CONTINUOUS
 10
32.611334
 20
-32.450065
 11
32.031313
 21
-32.450073
  0
LINE
  5
276
100
AcDbEntity
  8
0
100
AcDbLine
 62
7
  6
CONTINUOUS
 10
30.516229
 20
-32.450065
 11
29.936222
 21
-32.450073
  0
LINE
  5
277
100
AcDbEntity
  8
0
100
AcDbLine
 62
7
  6
CONTINUOUS
 10
37.181191
 20
-32.450058
 11
36.527886
 21
-32.450065
  0
LINE
  5
278
100
AcDbEntity
  8
0
100
AcDbLine
 62
7
  6
CONTINUOUS
 10
27.647796
 20
-32.45008
 11
28.227817
 21
-32.450073
  0
LINE
  5
279
100
AcDbEntity
  8
0
100
AcDbLine
 62
7
  6
CONTINUOUS
 10
25.749941
 20
-32.45008
 11
26.329985
 21
-32.450073
  0
LINE
  5
27A
100
AcDbEntity
  8
0
100
AcDbLine
 62
7
  6
CONTINUOUS
 10
31.644634
 20
-32.450073
 11
31.064612
 21
-32.450073
  0
LINE
  5
27B
100
AcDbEntity
  8
0
100
AcDbLine
 62
7
  6
CONTINUOUS
 10
28.807825
 20
-32.450073
 11
29.387846
 21
-32.450073
  0
LINE
  5
27C
100
AcDbEntity
  8
0
100
AcDbLine
 62
7
  6
CONTINUOUS
 10
35.440335
 20
-32.450065
 11
34.860306
 21
-32.450065
  0
LINE
  5
27D
100
AcDbEntity
  8
0
100
AcDbLine
 62
7
  6
CONTINUOUS
 10
34.473627
 20
-32.450073
 11
33.893598
 21
-32.450065
  0
LINE
  5
27E
100
AcDbEntity
  8
0
100
AcDbLine
 62
7
  6
CONTINUOUS
 10
33.710492
 20
-31.879737
 11
32.794448
 21
-31.879737
  0
LINE
  5
27F
100
AcDbEntity
  8
0
100
AcDbLine
 62
7
  6
CONTINUOUS
 10
32.971369
 20
-31.328715
 11
33.533563
 21
-31.328715
  0
LINE
  5
280
100
AcDbEntity
  8
0
100
AcDbLine
 62
7
  6
CONTINUOUS
 10
35.946632
 20
-31.328715
 11
35.4404
 21
-31.328708
  0
LINE
  5
281
100
AcDbEntity
  8
0
100
AcDbLine
 62
7
  6
CONTINUOUS
 10
35.432338
 20
-30.792186
 11
36.1374209775
 21
-30.792186
  0
LINE
  5
282
100
AcDbEntity
  8
0
100
AcDbLine
 62
7
  6
CONTINUOUS
 10
36.138015
 20
-30.086456
 11
35.432331
 21
-30.086456
  0
LINE
  5
283
100
AcDbEntity
  8
0
100
AcDbLine
 62
7
  6
CONTINUOUS
 10
24.818809
 20
-29.549942
 11
25.398838
 21
-29.549942
  0
LINE
  5
284
100
AcDbEntity
  8
0
100
AcDbLine
 62
7
  6
CONTINUOUS
 10
26.681095
 20
-29.549942
 11
27.261124
 21
-29.549942
  0
LINE
  5
285
100
AcDbEntity
  8
0
100
AcDbLine
 62
7
  6
CONTINUOUS
 10
27.647803
 20
-29.549942
 11
28.227825
 21
-29.549942
  0
LINE
  5
286
100
AcDbEntity
  8
0
100
AcDbLine
 62
7
  6
CONTINUOUS
 10
28.807825
 20
-29.549942
 11
29.684661
 21
-29.549942
  0
LINE
  5
287
100
AcDbEntity
  8
0
100
AcDbLine
 62
7
  6
CONTINUOUS
 10
30.767797
 20
-29.549942
 11
31.644634
 21
-29.549942
  0
LINE
  5
288
100
AcDbEntity
  8
0
100
AcDbLine
 62
7
  6
CONTINUOUS
 10
32.962437
 20
-29.549935
 11
33.542488
 21
-29.549935
  0
LINE
  5
289
100
AcDbEntity
  8
0
100
AcDbLine
 62
7
  6
CONTINUOUS
 10
34.860306
 20
-29.549935
 11
36.218521
 21
-29.549935
  0
LINE
  5
28A
100
AcDbEntity
  8
RACCORDO
100
AcDbLine
 62
250
  6
CONTINUOUS
 10
-26.8
 20
-42.3971656547
 11
-26.8
 21
-42.2
  0
LINE
  5
28B
100
AcDbEntity
  8
RACCORDO
100
AcDbLine
 62
250
  6
CONTINUOUS
 10
-26.0
 20
-42.2
 11
-26.0
 21
-42.0216303177
  0
LINE
  5
28C
100
AcDbEntity
  8
0
100
AcDbLine
 62
7
  6
CONTINUOUS
 10
-53.0305440373
 20
-42.5
 11
-53.0
 21
-42.4389072728
  0
LINE
  5
28D
100
AcDbEntity
  8
DRAFT
100
AcDbLine
 62
7
  6
CONTINUOUS
 10
-53.0305440373
 20
-42.5
 11
-53.0
 21
-42.4389072728
  0
LINE
  5
28E
100
AcDbEntity
  8
RACCORDO
100
AcDbLine
 62
250
  6
CONTINUOUS
 10
29.9967053931
 20
-27.9129877751
 11
-29.9967053931
 21
-27.9129877751
  0
LINE
  5
28F
100
AcDbEntity
  8
RACCORDO
100
AcDbLine
 62
250
  6
CONTINUOUS
 10
33.45
 20
-26.0970087231
 11
29.9956002679
 21
-26.0973483423
  0
LINE
  5
290
100
AcDbEntity
  8
RACCORDO
100
AcDbLine
 62
250
  6
CONTINUOUS
 10
29.9956002681
 20
-26.0973483423
 11
-29.9956002681
 21
-26.0973483423
  0
LINE
  5
291
100
AcDbEntity
  8
0
100
AcDbLine
 62
7
  6
CONTINUOUS
 10
33.45
 20
-24.5
 11
-33.45
 21
-24.5
  0
LINE
  5
292
100
AcDbEntity
  8
RACCORDO
100
AcDbLine
 62
250
  6
CONTINUOUS
 10
-29.995600268
 20
-26.0973483423
 11
-33.45
 21
-26.0970087231
  0
LINE
  5
293
100
AcDbEntity
  8
DRAFT
100
AcDbLine
 62
7
  6
CONTINUOUS
 10
33.45
 20
-24.0
 11
-33.45
 21
-24.0
  0
LINE
  5
294
100
AcDbEntity
  8
RACCORDO
100
AcDbLine
 62
250
  6
CONTINUOUS
 10
-33.45
 20
-23.9804947957
 11
33.45
 21
-23.9804947957
  0
LINE
  5
295
100
AcDbEntity
  8
RACCORDO
100
AcDbLine
 62
250
  6
CONTINUOUS
 10
-33.45
 20
-22.9806471005
 11
33.45
 21
-22.9806471005
  0
LINE
  5
296
100
AcDbEntity
  8
RACCORDO
100
AcDbLine
 62
250
  6
CONTINUOUS
 10
-37.3541477061
 20
-22.2
 11
-35.75
 21
-22.2
  0
LINE
  5
297
100
AcDbEntity
  8
RACCORDO
100
AcDbLine
 62
250
  6
CONTINUOUS
 10
37.3541477061
 20
-22.2
 11
35.75
 21
-22.2
  0
LINE
  5
298
100
AcDbEntity
  8
RACCORDO
100
AcDbLine
 62
250
  6
CONTINUOUS
 10
34.2306471005
 20
-22.2
 11
35.25
 21
-22.2
  0
LINE
  5
299
100
AcDbEntity
  8
RACCORDO
100
AcDbLine
 62
250
  6
CONTINUOUS
 10
-34.2306471005
 20
-22.2
 11
-35.25
 21
-22.2
  0
LINE
  5
29A
100
AcDbEntity
  8
RACCORDO
100
AcDbLine
 62
7
  6
CONTINUOUS
 10
-30.0785418101
 20
-42.25
 11
-29.9947154997
 21
-42.0823346101
  0
LINE
  5
29B
100
AcDbEntity
  8
RACCORDO
100
AcDbLine
 62
250
  6
CONTINUOUS
 10
0.0035973713
 20
41.1387302073
 11
0.0034237419
 21
42.1104571092
  0
LINE
  5
29C
100
AcDbEntity
  8
RACCORDO
100
AcDbLine
 62
250
  6
CONTINUOUS
 10
-0.0028800049
 20
26.0974286779
 11
-0.0030240817
 21
27.9106135053
  0
LWPOLYLINE
  5
29D
100
AcDbEntity
  8
0
100
AcDbPolyline
 62
7
  6
CONTINUOUS
 90
4
 70
0
 43
0.3500000087
 10
68.2287032257
 20
-2.2499998718
 10
67.3715613586
 20
-2.2499998718
 10
66.9429882935
 20
-1.8214289383
 10
66.9429882935
 20
-1.1785714722
  0
LINE
  5
29E
100
AcDbEntity
  8
RACCORDO
100
AcDbLine
 62
250
  6
CONTINUOUS
 10
39.1628663956
 20
0.00011
 11
60.6108215333
 21
0.0003114602
  0
LINE
  5
29F
100
AcDbEntity
  8
RACCORDO
100
AcDbLine
 62
250
  6
CONTINUOUS
 10
37.3473509741
 20
0.0001760453
 11
39.1628681249
 21
0.0001431276
  0
LINE
  5
2A0
100
AcDbEntity
  8
RACCORDO
100
AcDbLine
 62
250
  6
CONTINUOUS
 10
-37.3473509734
 20
0.0001760453
 11
-60.6108215333
 21
0.0003114602
  0
LINE
  5
2A1
100
AcDbEntity
  8
RACCORDO
100
AcDbLine
 62
7
  6
CONTINUOUS
 10
30.0785418101
 20
-42.25
 11
29.9947154997
 21
-42.0823346101
  0
LINE
  5
2A2
100
AcDbEntity
  8
0
100
AcDbLine
 62
7
  6
CONTINUOUS
 10
25.749941
 20
-32.45008
 11
24.818809
 21
-29.549942
  0
LINE
  5
2A3
100
AcDbEntity
  8
0
100
AcDbLine
 62
7
  6
CONTINUOUS
 10
25.398838
 20
-29.549942
 11
26.03997
 21
-31.546839
  0
LINE
  5
2A4
100
AcDbEntity
  8
0
100
AcDbLine
 62
7
  6
CONTINUOUS
 10
36.527886
 20
-32.450065
 11
35.946632
 21
-31.328715
  0
LINE
  5
2A5
100
AcDbEntity
  8
0
100
AcDbLine
 62
7
  6
CONTINUOUS
 10
36.5637867907
 20
-31.2589606669
 11
37.181191
 21
-32.450058
  0
LINE
  5
2A6
100
AcDbEntity
  8
0
100
AcDbLine
 62
7
  6
CONTINUOUS
 10
29.936222
 20
-32.450073
 11
29.387846
 21
-30.537631
  0
LINE
  5
2A7
100
AcDbEntity
  8
0
100
AcDbLine
 62
7
  6
CONTINUOUS
 10
29.684661
 20
-29.549942
 11
30.226229
 21
-31.438611
  0
LINE
  5
2A8
100
AcDbEntity
  8
RACCORDO
100
AcDbLine
 62
250
  6
CONTINUOUS
 10
-37.3476185863
 20
22.2
 11
-39.1553059084
 21
22.1984654348
  0
LINE
  5
2A9
100
AcDbEntity
  8
RACCORDO
100
AcDbLine
 62
250
  6
CONTINUOUS
 10
-37.3476191687
 20
22.2
 11
-35.75
 21
22.2
  0
LINE
  5
2AA
100
AcDbEntity
  8
RACCORDO
100
AcDbLine
 62
250
  6
CONTINUOUS
 10
37.3476191687
 20
22.2
 11
35.75
 21
22.2
  0
LINE
  5
2AB
100
AcDbEntity
  8
RACCORDO
100
AcDbLine
 62
250
  6
CONTINUOUS
 10
34.2306471005
 20
22.2
 11
35.25
 21
22.2
  0
LINE
  5
2AC
100
AcDbEntity
  8
RACCORDO
100
AcDbLine
 62
250
  6
CONTINUOUS
 10
-34.2306471005
 20
22.2
 11
-35.25
 21
22.2
  0
LINE
  5
2AD
100
AcDbEntity
  8
RACCORDO
100
AcDbLine
 62
250
  6
CONTINUOUS
 10
33.45
 20
22.9806471005
 11
-33.45
 21
22.9806471005
  0
LINE
  5
2AE
100
AcDbEntity
  8
RACCORDO
100
AcDbLine
 62
250
  6
CONTINUOUS
 10
33.45
 20
23.9804947957
 11
-33.45
 21
23.9804947957
  0
LINE
  5
2AF
100
AcDbEntity
  8
DRAFT
100
AcDbLine
 62
7
  6
CONTINUOUS
 10
-33.45
 20
24.0
 11
33.45
 21
24.0
  0
LINE
  5
2B0
100
AcDbEntity
  8
0
100
AcDbLine
 62
7
  6
CONTINUOUS
 10
-33.45
 20
24.5
 11
33.45
 21
24.5
  0
LINE
  5
2B1
100
AcDbEntity
  8
RACCORDO
100
AcDbLine
 62
250
  6
CONTINUOUS
 10
37.3476191537
 20
22.2
 11
39.1553059081
 21
22.1984654348
  0
LINE
  5
2B2
100
AcDbEntity
  8
0
100
AcDbLine
 62
7
  6
CONTINUOUS
 10
33.533563
 20
-31.328715
 11
33.252459
 21
-30.453176
  0
LINE
  5
2B3
100
AcDbEntity
  8
0
100
AcDbLine
 62
7
  6
CONTINUOUS
 10
33.893598
 20
-32.450065
 11
33.710492
 21
-31.879737
  0
LINE
  5
2B4
100
AcDbEntity
  8
0
100
AcDbLine
 62
7
  6
CONTINUOUS
 10
33.542488
 20
-29.549935
 11
34.473627
 21
-32.450073
  0
LINE
  5
2B5
100
AcDbEntity
  8
RACCORDO
100
AcDbLine
 62
250
  6
CONTINUOUS
 10
29.9956002681
 20
-26.0973483423
 11
29.9967053931
 21
-27.9129877751
  0
LINE
  5
2B6
100
AcDbEntity
  8
RACCORDO
100
AcDbLine
 62
250
  6
CONTINUOUS
 10
26.000061901
 20
-42.2
 11
26.0000471468
 21
-42.0216303177
  0
LINE
  5
2B7
100
AcDbEntity
  8
RACCORDO
100
AcDbLine
 62
250
  6
CONTINUOUS
 10
26.8
 20
-42.2
 11
26.8
 21
-42.3971656547
  0
LINE
  5
2B8
100
AcDbEntity
  8
0
100
AcDbLine
 62
7
  6
CONTINUOUS
 10
27.647796
 20
-32.45008
 11
27.647803
 21
-29.549942
  0
LINE
  5
2B9
100
AcDbEntity
  8
0
100
AcDbLine
 62
7
  6
CONTINUOUS
 10
28.227817
 20
-32.450073
 11
28.227825
 21
-29.549942
  0
LINE
  5
2BA
100
AcDbEntity
  8
0
100
AcDbLine
 62
7
  6
CONTINUOUS
 10
28.807825
 20
-32.450073
 11
28.807825
 21
-29.549942
  0
LINE
  5
2BB
100
AcDbEntity
  8
0
100
AcDbLine
 62
7
  6
CONTINUOUS
 10
29.387846
 20
-32.450073
 11
29.387846
 21
-30.537631
  0
LINE
  5
2BC
100
AcDbEntity
  8
RACCORDO
100
AcDbLine
 62
250
  6
CONTINUOUS
 10
30.0644554589
 20
-40.7513739496
 11
30.0644104684
 21
-42.0823346101
  0
LINE
  5
2BD
100
AcDbEntity
  8
ASSI
100
AcDbLine
 62
250
  6
CONTINUOUS
 10
29.9937310895
 20
-30.6278008948
 11
29.9978105186
 21
-27.9129888598
  0
LINE
  5
2BE
100
AcDbEntity
  8
RACCORDO
100
AcDbLine
 62
250
  6
CONTINUOUS
 10
-33.45
 20
26.0978407616
 11
-0.0028800049
 21
26.0974286778
  0
LINE
  5
2BF
100
AcDbEntity
  8
RACCORDO
100
AcDbLine
 62
250
  6
CONTINUOUS
 10
-0.0028800049
 20
26.0974286778
 11
33.45
 21
26.0978407616
  0
LINE
  5
2C0
100
AcDbEntity
  8
0
100
AcDbLine
 62
7
  6
CONTINUOUS
 10
53.0305440373
 20
-42.5
 11
53.0
 21
-42.4389072728
  0
LINE
  5
2C1
100
AcDbEntity
  8
DRAFT
100
AcDbLine
 62
7
  6
CONTINUOUS
 10
53.0305440373
 20
-42.5
 11
53.0
 21
-42.4389072728
  0
LINE
  5
2C2
100
AcDbEntity
  8
RACCORDO
100
AcDbLine
 62
250
  6
CONTINUOUS
 10
33.45
 20
26.0978395833
 11
33.4466818062
 21
27.8965327337
  0
LINE
  5
2C3
100
AcDbEntity
  8
0
100
AcDbLine
 62
7
  6
CONTINUOUS
 10
31.064612
 20
-32.450073
 11
31.064605
 21
-30.537631
  0
LINE
  5
2C4
100
AcDbEntity
  8
0
100
AcDbLine
 62
7
  6
CONTINUOUS
 10
31.644634
 20
-29.549942
 11
31.644634
 21
-32.450073
  0
LINE
  5
2C5
100
AcDbEntity
  8
RACCORDO
100
AcDbLine
 62
250
  6
CONTINUOUS
 10
33.45
 20
26.0978407616
 11
33.45
 21
24.5
  0
LINE
  5
2C6
100
AcDbEntity
  8
RACCORDO
100
AcDbLine
 62
250
  6
CONTINUOUS
 10
33.45
 20
-26.0970087231
 11
33.45
 21
-24.5
  0
LINE
  5
2C7
100
AcDbEntity
  8
RACCORDO
100
AcDbLine
 62
250
  6
CONTINUOUS
 10
33.45
 20
-22.9806471005
 11
33.45
 21
-24.0
  0
LINE
  5
2C8
100
AcDbEntity
  8
RACCORDO
100
AcDbLine
 62
250
  6
CONTINUOUS
 10
33.45
 20
22.9806471005
 11
33.45
 21
24.0
  0
LINE
  5
2C9
100
AcDbEntity
  8
RACCORDO
100
AcDbLine
 62
250
  6
CONTINUOUS
 10
34.2306471005
 20
-22.2
 11
34.2306471005
 21
22.2
  0
LINE
  5
2CA
100
AcDbEntity
  8
0
100
AcDbLine
 62
7
  6
CONTINUOUS
 10
34.860306
 20
-32.450065
 11
34.860306
 21
-29.549935
  0
LINE
  5
2CB
100
AcDbEntity
  8
RACCORDO
100
AcDbLine
 62
250
  6
CONTINUOUS
 10
35.2304947957
 20
-22.2
 11
35.2304947957
 21
22.2
  0
LINE
  5
2CC
100
AcDbEntity
  8
DRAFT
100
AcDbLine
 62
7
  6
CONTINUOUS
 10
35.25
 20
22.2
 11
35.25
 21
-22.2
  0
LINE
  5
2CD
100
AcDbEntity
  8
RACCORDO
100
AcDbLine
 62
250
  6
CONTINUOUS
 10
33.45
 20
-26.0970087037
 11
33.4469062444
 21
-27.9105692114
  0
LINE
  5
2CE
100
AcDbEntity
  8
0
100
AcDbLine
 62
7
  6
CONTINUOUS
 10
26.03997
 20
-31.546839
 11
26.681095
 21
-29.549942
  0
LINE
  5
2CF
100
AcDbEntity
  8
0
100
AcDbLine
 62
7
  6
CONTINUOUS
 10
27.261124
 20
-29.549942
 11
26.329985
 21
-32.450073
  0
LINE
  5
2D0
100
AcDbEntity
  8
RACCORDO
100
AcDbLine
 62
250
  6
CONTINUOUS
 10
37.3473509763
 20
0.0001760453
 11
37.3541477061
 21
-22.2
  0
LINE
  5
2D1
100
AcDbEntity
  8
0
100
AcDbLine
 62
7
  6
CONTINUOUS
 10
35.432331
 20
-30.086456
 11
35.432338
 21
-30.792186
  0
LINE
  5
2D2
100
AcDbEntity
  8
0
100
AcDbLine
 62
7
  6
CONTINUOUS
 10
35.75
 20
22.2
 11
35.75
 21
-22.2
  0
LINE
  5
2D3
100
AcDbEntity
  8
RACCORDO
100
AcDbLine
 62
250
  6
CONTINUOUS
 10
37.3476191687
 20
22.2
 11
37.3473509763
 21
0.0001760453
  0
LINE
  5
2D4
100
AcDbEntity
  8
0
100
AcDbLine
 62
7
  6
CONTINUOUS
 10
35.4404
 20
-31.328708
 11
35.440335
 21
-32.450065
  0
LINE
  5
2D5
100
AcDbEntity
  8
0
100
AcDbLine
 62
7
  6
CONTINUOUS
 10
30.226229
 20
-31.438611
 11
30.767797
 21
-29.549942
  0
LINE
  5
2D6
100
AcDbEntity
  8
0
100
AcDbLine
 62
7
  6
CONTINUOUS
 10
31.064605
 20
-30.537631
 11
30.516229
 21
-32.450065
  0
LINE
  5
2D7
100
AcDbEntity
  8
RACCORDO
100
AcDbLine
 62
250
  6
CONTINUOUS
 10
60.6167891821
 20
38.49
 11
60.7484878323
 21
38.49
  0
LINE
  5
2D8
100
AcDbEntity
  8
RACCORDO
100
AcDbLine
 62
250
  6
CONTINUOUS
 10
-60.6167891821
 20
38.49
 11
-60.7484878323
 21
38.49
  0
LINE
  5
2D9
100
AcDbEntity
  8
RACCORDO
100
AcDbLine
 62
250
  6
CONTINUOUS
 10
-61.0
 20
38.5
 11
-60.8674049423
 21
38.5
  0
LINE
  5
2DA
100
AcDbEntity
  8
RACCORDO
100
AcDbLine
 62
250
  6
CONTINUOUS
 10
61.0
 20
38.5
 11
60.8674049423
 21
38.5
  0
LINE
  5
2DB
100
AcDbEntity
  8
0
100
AcDbLine
 62
7
  6
CONTINUOUS
 10
32.031313
 20
-32.450073
 11
32.962437
 21
-29.549935
  0
LINE
  5
2DC
100
AcDbEntity
  8
0
100
AcDbLine
 62
7
  6
CONTINUOUS
 10
33.252459
 20
-30.453176
 11
32.971369
 21
-31.328715
  0
LINE
  5
2DD
100
AcDbEntity
  8
0
100
AcDbLine
 62
7
  6
CONTINUOUS
 10
32.794448
 20
-31.879737
 11
32.611334
 21
-32.450065
  0
LINE
  5
2DE
100
AcDbEntity
  8
RACCORDO
100
AcDbLine
 62
7
  6
CONTINUOUS
 10
-57.9524652054
 20
42.0956501172
 11
-57.8638650149
 21
42.0956501172
  0
LINE
  5
2DF
100
AcDbEntity
  8
RACCORDO
100
AcDbLine
 62
7
  6
CONTINUOUS
 10
57.8638650149
 20
42.0956501172
 11
57.9525799753
 21
42.0956501172
  0
LINE
  5
2E0
100
AcDbEntity
  8
0
100
AcDbLine
 62
7
  6
CONTINUOUS
 10
56.99
 20
42.1993909428
 11
-56.99
 21
42.1993909428
  0
LINE
  5
2E1
100
AcDbEntity
  8
DRAFT
100
AcDbLine
 62
7
  6
CONTINUOUS
 10
57.0
 20
42.3219583377
 11
-57.0
 21
42.3219583377
  0
LINE
  5
2E2
100
AcDbEntity
  8
DRAFT
100
AcDbLine
 62
7
  6
CONTINUOUS
 10
-57.0
 20
42.5
 11
57.0
 21
42.5
  0
LWPOLYLINE
  5
2E3
100
AcDbEntity
  8
0
100
AcDbPolyline
 62
7
  6
CONTINUOUS
 90
13
 70
0
 43
0.3500000087
 10
66.9429882935
 20
-1.8214289383
 10
66.7287017609
 20
-2.107142894
 10
66.0858464264
 20
-2.107142894
 10
65.6572733612
 20
-1.8214289383
 10
65.6572733612
 20
-1.1785714722
 10
66.0858464264
 20
-0.8928575165
 10
66.7287017609
 20
-0.8928575165
 10
66.9429882935
 20
-1.1785714722
 10
67.3715613586
 20
-0.7500005386
 10
68.2287032257
 20
-0.7500005386
 10
68.6572720276
 20
-1.1785714722
 10
68.6572720276
 20
-1.8214289383
 10
68.2287032257
 20
-2.2499998718
  0
LWPOLYLINE
  5
2E4
100
AcDbEntity
  8
0
100
AcDbPolyline
 62
7
  6
CONTINUOUS
 90
7
 70
0
 43
0.3500000087
 10
2.357142799
 20
51.0532070251
 10
0.8571428663
 20
51.0532070251
 10
2.357142799
 20
53.1960638245
 10
2.357142799
 20
53.6246368896
 10
1.9285714658
 20
54.0532014282
 10
1.2857142661
 20
54.0532014282
 10
0.8571428663
 20
53.4103460938
  0
LWPOLYLINE
  5
2E5
100
AcDbEntity
  8
0
100
AcDbPolyline
 62
7
  6
CONTINUOUS
 90
7
 70
0
 43
0.3500000087
 10
-0.0
 20
51.0532070251
 10
-1.4999999993
 20
51.0532070251
 10
-0.0
 20
53.1960638245
 10
-0.0
 20
53.6246368896
 10
-0.4285714331
 20
54.0532014282
 10
-1.0714285995
 20
54.0532014282
 10
-1.4999999993
 20
53.4103460938
  0
LINE
  5
2E6
100
AcDbEntity
  8
RACCORDO
100
AcDbLine
 62
250
  6
CONTINUOUS
 10
56.99
 20
-42.1067205393
 11
56.99
 21
-42.25
  0
LINE
  5
2E7
100
AcDbEntity
  8
RACCORDO
100
AcDbLine
 62
250
  6
CONTINUOUS
 10
56.99
 20
42.1172542221
 11
56.99
 21
42.1993909428
  0
LINE
  5
2E8
100
AcDbEntity
  8
DRAFT
100
AcDbLine
 62
250
  6
CONTINUOUS
 10
57.0
 20
42.5
 11
57.0
 21
42.3219583377
  0
LINE
  5
2E9
100
AcDbEntity
  8
RACCORDO
100
AcDbLine
 62
250
  6
CONTINUOUS
 10
57.0
 20
-42.5
 11
57.0
 21
-42.2496120746
  0
LINE
  5
2EA
100
AcDbEntity
  8
ASSI
100
AcDbLine
 62
7
  6
CONTINUOUS
 10
60.75
 20
-38.49
 11
60.75
 21
37.5
  0
LINE
  5
2EB
100
AcDbEntity
  8
DRAFT
100
AcDbLine
 62
7
  6
CONTINUOUS
 10
61.0
 20
38.5
 11
61.0
 21
-38.5
  0
LINE
  5
2EC
100
AcDbEntity
  8
0
100
AcDbLine
 62
7
  6
CONTINUOUS
 10
48.9694559627
 20
-42.5
 11
49.0
 21
-42.4389072728
  0
LINE
  5
2ED
100
AcDbEntity
  8
DRAFT
100
AcDbLine
 62
7
  6
CONTINUOUS
 10
48.9694559627
 20
-42.5
 11
49.0
 21
-42.4389072728
  0
LWPOLYLINE
  5
2EE
100
AcDbEntity
  8
0
100
AcDbPolyline
 62
7
  6
CONTINUOUS
 90
8
 70
0
 43
0.3500000087
 10
68.6572720276
 20
0.1071434601
 10
68.6572720276
 20
0.9642853271
 10
68.2287032257
 20
1.3928562607
 10
67.3715613586
 20
1.3928562607
 10
66.9429882935
 20
0.9642853271
 10
66.9429882935
 20
0.1071434601
 10
65.6572733612
 20
0.1071434601
 10
65.6572733612
 20
1.3928562607
  0
LINE
  5
2EF
100
AcDbEntity
  8
RACCORDO
100
AcDbLine
 62
7
  6
CONTINUOUS
 10
-106.0625022748
 20
-42.2
 11
-100.9770003678
 21
-42.2
  0
LINE
  5
2F0
100
AcDbEntity
  8
RACCORDO
100
AcDbLine
 62
7
  6
CONTINUOUS
 10
-89.9125022862
 20
-42.5
 11
-97.4212284895
 21
-42.3689346966
  0
LINE
  5
2F1
100
AcDbEntity
  8
RACCORDO
100
AcDbLine
 62
7
  6
CONTINUOUS
 10
-107.7180460415
 20
-42.0823346101
 11
-98.1125022862
 21
-42.25
  0
LWPOLYLINE
  5
2F2
100
AcDbEntity
  8
0
100
AcDbPolyline
 62
7
  6
CONTINUOUS
 90
3
 70
0
 43
0.3500000087
 10
-102.5267883911
 20
53.3928580139
 10
-101.6696422607
 20
54.2500041443
 10
-101.6696422607
 20
51.2500012146
  0
LINE
  5
2F3
100
AcDbEntity
  8
SUPERFICI
100
AcDbLine
 62
7
  6
CONTINUOUS
 10
-88.3088940217
 20
-39.5703144605
 11
-89.9125022862
 21
-40.0
  0
LINE
  5
2F4
100
AcDbEntity
  8
RACCORDO
100
AcDbLine
 62
250
  6
CONTINUOUS
 10
-89.9125022862
 20
-38.5
 11
-97.9125022862
 21
-38.5
  0
LINE
  5
2F5
100
AcDbEntity
  8
RACCORDO
100
AcDbLine
 62
250
  6
CONTINUOUS
 10
-106.0612717177
 20
-38.49
 11
-98.1125022862
 21
-38.49
  0
LINE
  5
2F6
100
AcDbEntity
  8
RACCORDO
100
AcDbLine
 62
250
  6
CONTINUOUS
 10
-107.4906390317
 20
-38.5219539255
 11
-106.0612717177
 21
-38.49
  0
LINE
  5
2F7
100
AcDbEntity
  8
SUPERFICI
100
AcDbLine
 62
250
  6
CONTINUOUS
 10
-87.9125022862
 20
-36.7
 11
-89.9125022862
 21
-36.7
  0
LINE
  5
2F8
100
AcDbEntity
  8
0
100
AcDbLine
 62
7
  6
CONTINUOUS
 10
-98.1125022862
 20
-33.7
 11
-97.9125022862
 21
-33.7
  0
LINE
  5
2F9
100
AcDbEntity
  8
0
100
AcDbLine
 62
7
  6
CONTINUOUS
 10
-109.8894970691
 20
-32.450058
 11
-109.6893091666
 21
-32.450058
  0
LINE
  5
2FA
100
AcDbEntity
  8
0
100
AcDbLine
 62
7
  6
CONTINUOUS
 10
-97.9125022862
 20
-32.2
 11
-98.1125022862
 21
-32.2
  0
LINE
  5
2FB
100
AcDbEntity
  8
0
100
AcDbLine
 62
7
  6
CONTINUOUS
 10
-87.9125022862
 20
-31.4
 11
-87.8374796133
 21
-31.4
  0
LINE
  5
2FC
100
AcDbEntity
  8
0
100
AcDbLine
 62
7
  6
CONTINUOUS
 10
-109.940380391
 20
-31.2589606669
 11
-109.740274265
 21
-31.2589606669
  0
LINE
  5
2FD
100
AcDbEntity
  8
RACCORDO
100
AcDbLine
 62
250
  6
CONTINUOUS
 10
-87.7100591877
 20
-29.9435778714
 11
-87.9125022862
 21
-29.943577987
  0
LINE
  5
2FE
100
AcDbEntity
  8
0
100
AcDbLine
 62
7
  6
CONTINUOUS
 10
-109.9842585396
 20
-29.549935
 11
-109.7842188133
 21
-29.549935
  0
LINE
  5
2FF
100
AcDbEntity
  8
RACCORDO
100
AcDbLine
 62
7
  6
CONTINUOUS
 10
-98.1125022862
 20
-31.8930158461
 11
-97.9125022862
 21
-31.9
  0
LINE
  5
300
100
AcDbEntity
  8
RACCORDO
100
AcDbLine
 62
250
  6
CONTINUOUS
 10
-98.1125022862
 20
-31.131957376
 11
-97.9125022862
 21
-31.1389415299
  0
LINE
  5
301
100
AcDbEntity
  8
RACCORDO
100
AcDbLine
 62
250
  6
CONTINUOUS
 10
-107.6423025292
 20
41.1037738799
 11
-107.6423403054
 21
41.103694377
  0
LINE
  5
302
100
AcDbEntity
  8
RACCORDO
100
AcDbLine
 62
250
  6
CONTINUOUS
 10
-98.1125022862
 20
-27.7581655388
 11
-97.9125022862
 21
-27.7610584701
  0
LINE
  5
303
100
AcDbEntity
  8
RACCORDO
100
AcDbLine
 62
7
  6
CONTINUOUS
 10
-110.3738073295
 20
26.1532608063
 11
-110.3890070219
 21
26.1320539878
  0
LINE
  5
304
100
AcDbEntity
  8
RACCORDO
100
AcDbLine
 62
7
  6
CONTINUOUS
 10
-110.3890070219
 20
26.1320539878
 11
-110.4005000102
 21
26.116270268
  0
LINE
  5
305
100
AcDbEntity
  8
RACCORDO
100
AcDbLine
 62
7
  6
CONTINUOUS
 10
-110.4005000102
 20
26.116270268
 11
-110.4102713454
 21
26.1030165492
  0
LINE
  5
306
100
AcDbEntity
  8
RACCORDO
100
AcDbLine
 62
7
  6
CONTINUOUS
 10
-110.4139481769
 20
26.0980680396
 11
-110.4139730737
 21
26.0980346044
  0
LINE
  5
307
100
AcDbEntity
  8
RACCORDO
100
AcDbLine
 62
7
  6
CONTINUOUS
 10
-110.4102713454
 20
26.1030165492
 11
-110.4138002731
 21
26.098266689
  0
LINE
  5
308
100
AcDbEntity
  8
DRAFT
100
AcDbLine
 62
7
  6
CONTINUOUS
 10
-82.9125022862
 20
-25.5525159343
 11
-87.9125022862
 21
-25.5961502733
  0
LINE
  5
309
100
AcDbEntity
  8
DRAFT
100
AcDbLine
 62
7
  6
CONTINUOUS
 10
-87.9125022862
 20
-23.7599633743
 11
-82.9124356377
 21
-23.7163284537
  0
LINE
  5
30A
100
AcDbEntity
  8
RACCORDO
100
AcDbLine
 62
250
  6
CONTINUOUS
 10
-98.1125022862
 20
-25.9208078586
 11
-97.9125022862
 21
-25.9237007899
  0
LINE
  5
30B
100
AcDbEntity
  8
RACCORDO
100
AcDbLine
 62
7
  6
CONTINUOUS
 10
-110.6125022862
 20
-23.9825449351
 11
-110.7299546927
 21
-23.9804947957
  0
LWPOLYLINE
  5
30C
100
AcDbEntity
  8
RACCORDO
100
AcDbPolyline
 62
7
  6
CONTINUOUS
 90
20
 70
0
 10
-110.4148101364
 20
-26.096910451
 10
-110.3864727123
 20
-26.1356471665
 10
-110.3492481631
 20
-26.1885637893
 10
-110.3040243792
 20
-26.2562513035
 10
-110.2482035089
 20
-26.3456259217
 10
-110.1874494614
 20
-26.4515193412
 10
-110.1332541919
 20
-26.555225894
 10
-110.0890982842
 20
-26.6477083223
 10
-110.0500395215
 20
-26.7369472162
 10
-110.013314608
 20
-26.8288221417
 10
-109.9783870004
 20
-26.9253723718
 10
-109.9462929281
 20
-27.0245112209
 10
-109.9172195264
 20
-27.1261717509
 10
-109.8913447748
 20
-27.2303220426
 10
-109.8688724382
 20
-27.3368250758
 10
-109.8500143435
 20
-27.4454358984
 10
-109.8349496033
 20
-27.5559897992
 10
-109.8238408067
 20
-27.668405591
 10
-109.8168572042
 20
-27.782543225
 10
-109.8162807846
 20
-27.8073164757
  0
LINE
  5
30D
100
AcDbEntity
  8
RACCORDO
100
AcDbLine
 62
7
  6
CONTINUOUS
 10
-110.4147202743
 20
-26.0970313427
 11
-110.2949907875
 21
-26.2702558854
  0
LWPOLYLINE
  5
30E
100
AcDbEntity
  8
RACCORDO
100
AcDbPolyline
 62
7
  6
CONTINUOUS
 90
8
 70
0
 10
-110.2949907875
 20
-26.2702558854
 10
-110.1839233985
 20
-26.4579800795
 10
-110.0834869863
 20
-26.6600619614
 10
-109.9957299536
 20
-26.8761573044
 10
-109.922788811
 20
-27.1056221564
 10
-109.8668421577
 20
-27.3474814823
 10
-109.8300458161
 20
-27.6005064036
 10
-109.8145151387
 20
-27.8632002087
  0
LWPOLYLINE
  5
30F
100
AcDbEntity
  8
SUPERFICI
100
AcDbPolyline
 62
7
  6
CONTINUOUS
 90
7
 70
0
 10
-107.8722291093
 20
40.4061190294
 10
-108.1376051962
 20
39.5440311458
 10
-108.3852928647
 20
38.6725021812
 10
-108.6206472892
 20
37.7682912954
 10
-108.8429945406
 20
36.824741802
 10
-109.0483870882
 20
35.8479505171
 10
-109.2352693643
 20
34.8333668865
  0
LINE
  5
310
100
AcDbEntity
  8
SUPERFICI
100
AcDbLine
 62
7
  6
CONTINUOUS
 10
-107.642321807
 20
41.1037142466
 11
-107.8722301558
 21
40.4061158541
  0
LINE
  5
311
100
AcDbEntity
  8
RACCORDO
100
AcDbLine
 62
7
  6
CONTINUOUS
 10
-107.6423592449
 20
41.1036119547
 11
-107.6423371907
 21
41.1036759654
  0
LINE
  5
312
100
AcDbEntity
  8
RACCORDO
100
AcDbLine
 62
250
  6
CONTINUOUS
 10
-107.6423105346
 20
41.1037820544
 11
-107.6423395106
 21
41.103699856
  0
LINE
  5
313
100
AcDbEntity
  8
RACCORDO
100
AcDbLine
 62
250
  6
CONTINUOUS
 10
-110.4093746406
 20
-22.2
 11
-111.7125022862
 21
-22.2
  0
LINE
  5
314
100
AcDbEntity
  8
DRAFT
100
AcDbLine
 62
7
  6
CONTINUOUS
 10
-87.9125022862
 20
-22.7676628277
 11
-82.9125022862
 21
-22.8112971667
  0
LWPOLYLINE
  5
315
100
AcDbEntity
  8
0
100
AcDbPolyline
 62
7
  6
CONTINUOUS
 90
3
 70
0
 43
0.3500000087
 10
-100.0982133728
 20
51.5357151703
 10
-100.1696493225
 20
51.3214286377
 10
-100.3125041687
 20
51.035714682
  0
LWPOLYLINE
  5
316
100
AcDbEntity
  8
0
100
AcDbPolyline
 62
7
  6
CONTINUOUS
 90
3
 70
0
 43
0.3500000087
 10
-96.2767908142
 20
61.535712146
 10
-96.3482182373
 20
61.3214298767
 10
-96.4910730835
 20
61.0357116577
  0
LINE
  5
317
100
AcDbEntity
  8
SUPERFICI
100
AcDbLine
 62
7
  6
CONTINUOUS
 10
-109.5151751782
 20
-36.6130725316
 11
-109.4849976388
 21
-37.0439946075
  0
LINE
  5
318
100
AcDbEntity
  8
SUPERFICI
100
AcDbLine
 62
7
  6
CONTINUOUS
 10
-109.5457375267
 20
-36.1535977249
 11
-109.5151751782
 21
-36.6130725316
  0
LWPOLYLINE
  5
319
100
AcDbEntity
  8
RACCORDO
100
AcDbPolyline
 62
7
  6
CONTINUOUS
 90
79
 70
0
 10
-109.8284768838
 20
27.6000968227
 10
-109.8309302507
 20
27.5772748476
 10
-109.8335481483
 20
27.5545369013
 10
-109.8363289627
 20
27.5318841038
 10
-109.8392709787
 20
27.509318287
 10
-109.8423725604
 20
27.4868405236
 10
-109.8456320699
 20
27.4644518639
 10
-109.8490477525
 20
27.4421540674
 10
-109.8526179504
 20
27.4199481367
 10
-109.8563410044
 20
27.3978350519
 10
-109.8602151235
 20
27.3758165002
 10
-109.8642386306
 20
27.3538934141
 10
-109.8684098484
 20
27.3320667041
 10
-109.8727269524
 20
27.3103379848
 10
-109.8771882492
 20
27.288708119
 10
-109.8817920462
 20
27.267177948
 10
-109.8865364885
 20
27.2457490136
 10
-109.8914198692
 20
27.2244221096
 10
-109.896440483
 20
27.2031980083
 10
-109.9015964476
 20
27.1820781794
 10
-109.9068860455
 20
27.1610633479
 10
-109.9123075613
 20
27.1401542177
 10
-109.9178590882
 20
27.1193521866
 10
-109.9235389007
 20
27.0986579118
 10
-109.929345276
 20
27.0780720293
 10
-109.9352762858
 20
27.0575958656
 10
-109.9413301988
 20
27.0372300108
 10
-109.9475052878
 20
27.0169750339
 10
-109.9537996058
 20
26.9968321898
 10
-109.9602114174
 20
26.9768020059
 10
-109.9667389941
 20
26.9568849817
 10
-109.9733803769
 20
26.9370822902
 10
-109.9801338332
 20
26.9173943843
 10
-109.986997632
 20
26.8978217079
 10
-109.9939697954
 20
26.8783653813
 10
-110.0010485915
 20
26.8590257963
 10
-110.0082322928
 20
26.8398033293
 10
-110.0155189078
 20
26.8206990385
 10
-110.0229067077
 20
26.8017132547
 10
-110.0303939706
 20
26.7828462893
 10
-110.0379786965
 20
26.7640991315
 10
-110.045659163
 20
26.7454720502
 10
-110.0534336547
 20
26.7269652951
 10
-110.0613001661
 20
26.7085797878
 10
-110.0692569828
 20
26.6903157365
 10
-110.0773023987
 20
26.6721733308
 10
-110.0854344047
 20
26.6541534253
 10
-110.0936512971
 20
26.6362561689
 10
-110.1019513806
 20
26.6184816925
 10
-110.1103326452
 20
26.6008307854
 10
-110.1187933996
 20
26.5833035381
 10
-110.1273319616
 20
26.5659000246
 10
-110.1359463216
 20
26.5486209713
 10
-110.1446348036
 20
26.5314664109
 10
-110.1533957394
 20
26.5144363629
 10
-110.1622271197
 20
26.4975314966
 10
-110.1711272779
 20
26.4807518028
 10
-110.1800945689
 20
26.4640972339
 10
-110.189127007
 20
26.4475683645
 10
-110.1982199699
 20
26.4311704564
 10
-110.2073747401
 20
26.4148980492
 10
-110.2165984758
 20
26.3987357647
 10
-110.2258998232
 20
26.3826665289
 10
-110.2352676876
 20
26.3667076117
 10
-110.2446792497
 20
26.3508949055
 10
-110.2541395526
 20
26.3352164967
 10
-110.2636397843
 20
26.319683601
 10
-110.2731344503
 20
26.3043656238
 10
-110.2826202604
 20
26.2892615922
 10
-110.2920942599
 20
26.2743700534
 10
-110.3015090695
 20
26.2597581358
 10
-110.3108554884
 20
26.2454315068
 10
-110.3201343896
 20
26.2313804234
 10
-110.3293116874
 20
26.2176476342
 10
-110.338376899
 20
26.2042392483
 10
-110.3473312792
 20
26.191144095
 10
-110.3561574783
 20
26.1783783242
 10
-110.3650496036
 20
26.1656565424
 10
-110.3738073295
 20
26.1532608063
  0
LWPOLYLINE
  5
31A
100
AcDbEntity
  8
SUPERFICI
100
AcDbPolyline
 62
7
  6
CONTINUOUS
 90
6
 70
0
 10
-109.2352693643
 20
34.8333668865
 10
-109.4009495502
 20
33.7812298844
 10
-109.5427347925
 20
32.691426074
 10
-109.6582326102
 20
31.5589719005
 10
-109.7441269595
 20
30.3823811484
 10
-109.7966361595
 20
29.1637780687
  0
LINE
  5
31B
100
AcDbEntity
  8
SUPERFICI
100
AcDbLine
 62
7
  6
CONTINUOUS
 10
-109.5671761039
 20
-35.8153567376
 11
-109.5408274286
 21
-36.229131138
  0
LINE
  5
31C
100
AcDbEntity
  8
SUPERFICI
100
AcDbLine
 62
7
  6
CONTINUOUS
 10
-109.6002969981
 20
-35.262313574
 11
-109.5663961809
 21
-35.8279146542
  0
LINE
  5
31D
100
AcDbEntity
  8
SUPERFICI
100
AcDbLine
 62
7
  6
CONTINUOUS
 10
-109.6328756575
 20
-34.6742307249
 11
-109.5978549532
 21
-35.3045032452
  0
LINE
  5
31E
100
AcDbEntity
  8
SUPERFICI
100
AcDbLine
 62
7
  6
CONTINUOUS
 10
-109.6523101939
 20
-34.2975542059
 11
-109.6304190417
 21
-34.7203552788
  0
LINE
  5
31F
100
AcDbEntity
  8
SUPERFICI
100
AcDbLine
 62
7
  6
CONTINUOUS
 10
-109.6769995156
 20
-33.7842669742
 11
-109.6515729576
 21
-34.3122488574
  0
LINE
  5
320
100
AcDbEntity
  8
SUPERFICI
100
AcDbLine
 62
7
  6
CONTINUOUS
 10
-109.698980416
 20
-33.2864538684
 11
-109.6769995156
 21
-33.7842669742
  0
LINE
  5
321
100
AcDbEntity
  8
SUPERFICI
100
AcDbLine
 62
7
  6
CONTINUOUS
 10
-109.7184825893
 20
-32.8030460042
 11
-109.698980416
 21
-33.2864538684
  0
LINE
  5
322
100
AcDbEntity
  8
0
100
AcDbLine
 62
7
  6
CONTINUOUS
 10
-109.940380391
 20
-31.2589606669
 11
-109.9304310047
 21
-31.5213927453
  0
LINE
  5
323
100
AcDbEntity
  8
SUPERFICI
100
AcDbLine
 62
7
  6
CONTINUOUS
 10
-109.7315736762
 20
-32.450066967
 11
-109.7184825893
 21
-32.8030460042
  0
LWPOLYLINE
  5
324
100
AcDbEntity
  8
RACCORDO
100
AcDbPolyline
 62
7
  6
CONTINUOUS
 90
4
 70
0
 10
-109.8122673228
 20
27.9129660474
 10
-109.8122087773
 20
27.9086183452
 10
-109.8118758941
 20
27.9030126785
 10
-109.8110874124
 20
27.8965327255
  0
LWPOLYLINE
  5
325
100
AcDbEntity
  8
SUPERFICI
100
AcDbPolyline
 62
7
  6
CONTINUOUS
 90
3
 70
0
 10
-109.8070025421
 20
-29.0870769355
 10
-109.8068148155
 20
-29.1046109639
 10
-109.8064123019
 20
-29.1419648237
  0
LINE
  5
326
100
AcDbEntity
  8
SUPERFICI
100
AcDbLine
 62
7
  6
CONTINUOUS
 10
-109.8074633253
 20
-29.0435489146
 11
-109.8070025421
 21
-29.0870769355
  0
LINE
  5
327
100
AcDbEntity
  8
RACCORDO
100
AcDbLine
 62
250
  6
CONTINUOUS
 10
-109.8110887415
 20
27.8965327337
 11
-109.8103348053
 21
27.8161795407
  0
LINE
  5
328
100
AcDbEntity
  8
RACCORDO
100
AcDbLine
 62
7
  6
CONTINUOUS
 10
-109.8145151387
 20
-27.8632002087
 11
-109.8141379325
 21
-27.912122168
  0
LINE
  5
329
100
AcDbEntity
  8
SUPERFICI
100
AcDbLine
 62
7
  6
CONTINUOUS
 10
-109.8125104017
 20
-28.4507190885
 11
-109.8074633253
 21
-29.0435489146
  0
LINE
  5
32A
100
AcDbEntity
  8
SUPERFICI
100
AcDbLine
 62
7
  6
CONTINUOUS
 10
-109.8140761127
 20
-28.0361549965
 11
-109.8125104017
 21
-28.4507190885
  0
LINE
  5
32B
100
AcDbEntity
  8
RACCORDO
100
AcDbLine
 62
250
  6
CONTINUOUS
 10
-110.4144822181
 20
0.0001760453
 11
-110.4093746406
 21
-22.2
  0
LINE
  5
32C
100
AcDbEntity
  8
RACCORDO
100
AcDbLine
 62
7
  6
CONTINUOUS
 10
-111.7125022862
 20
-22.9806471005
 11
-111.7125022862
 21
22.9806471005
  0
LINE
  5
32D
100
AcDbEntity
  8
RACCORDO
100
AcDbLine
 62
250
  6
CONTINUOUS
 10
-110.7299546927
 20
-23.9804947957
 11
-110.7299546927
 21
23.9804947957
  0
LINE
  5
32E
100
AcDbEntity
  8
0
100
AcDbLine
 62
7
  6
CONTINUOUS
 10
-110.6125022862
 20
25.5
 11
-110.6125022862
 21
-25.5
  0
LINE
  5
32F
100
AcDbEntity
  8
RACCORDO
100
AcDbLine
 62
250
  6
CONTINUOUS
 10
-109.8125008301
 20
-0.0469346315
 11
-109.8124949291
 21
-0.1495525495
  0
LINE
  5
330
100
AcDbEntity
  8
RACCORDO
100
AcDbLine
 62
7
  6
CONTINUOUS
 10
-109.8124920872
 20
0.2393365183
 11
-109.8125008171
 21
-0.0469346315
  0
LINE
  5
331
100
AcDbEntity
  8
SUPERFICI
100
AcDbLine
 62
7
  6
CONTINUOUS
 10
-109.8126015339
 20
3.4981895163
 11
-109.8124924389
 21
0.2393363943
  0
LINE
  5
332
100
AcDbEntity
  8
RACCORDO
100
AcDbLine
 62
250
  6
CONTINUOUS
 10
-110.4142262487
 20
22.5233099879
 11
-110.4144822181
 21
0.0001760453
  0
LINE
  5
333
100
AcDbEntity
  8
RACCORDO
100
AcDbLine
 62
250
  6
CONTINUOUS
 10
-110.4141171712
 20
26.0978407616
 11
-110.4142262487
 21
22.5233099879
  0
LINE
  5
334
100
AcDbEntity
  8
RACCORDO
100
AcDbLine
 62
250
  6
CONTINUOUS
 10
-109.8111064303
 20
25.7431080992
 11
-109.8111513282
 21
24.2746697073
  0
LINE
  5
335
100
AcDbEntity
  8
SUPERFICI
100
AcDbLine
 62
7
  6
CONTINUOUS
 10
-109.8122515576
 20
18.6672913204
 11
-109.8126015339
 21
3.4981895163
  0
LINE
  5
336
100
AcDbEntity
  8
RACCORDO
100
AcDbLine
 62
250
  6
CONTINUOUS
 10
-109.8111513282
 20
24.2746697073
 11
-109.811169138
 21
23.9920342355
  0
LINE
  5
337
100
AcDbEntity
  8
SUPERFICI
100
AcDbLine
 62
7
  6
CONTINUOUS
 10
-109.8141376382
 20
-27.9121193408
 11
-109.8140761127
 21
-28.0361549965
  0
LINE
  5
338
100
AcDbEntity
  8
RACCORDO
100
AcDbLine
 62
250
  6
CONTINUOUS
 10
-109.8104763106
 20
27.8517670353
 11
-109.8121428936
 21
20.5651528521
  0
LINE
  5
339
100
AcDbEntity
  8
RACCORDO
100
AcDbLine
 62
250
  6
CONTINUOUS
 10
-109.8113137791
 20
23.1786696022
 11
-109.8115969181
 21
22.4307057642
  0
LINE
  5
33A
100
AcDbEntity
  8
RACCORDO
100
AcDbLine
 62
250
  6
CONTINUOUS
 10
-109.8101670564
 20
27.6316452868
 11
-109.8102784681
 21
27.4298132093
  0
LINE
  5
33B
100
AcDbEntity
  8
RACCORDO
100
AcDbLine
 62
250
  6
CONTINUOUS
 10
-110.4093200249
 20
-22.8509505752
 11
-110.4147363718
 21
-26.0970091229
  0
LWPOLYLINE
  5
33C
100
AcDbEntity
  8
RACCORDO
100
AcDbPolyline
 62
7
  6
CONTINUOUS
 90
4
 70
0
 10
-109.8122673281
 20
27.9129416514
 10
-109.8122831979
 20
27.9037663761
 10
-109.8124532244
 20
27.879986703
 10
-109.8128080831
 20
27.8562714243
  0
LINE
  5
33D
100
AcDbEntity
  8
RACCORDO
100
AcDbLine
 62
7
  6
CONTINUOUS
 10
-109.8122657972
 20
27.9139003359
 11
-109.8122673228
 21
27.9129660474
  0
LINE
  5
33E
100
AcDbEntity
  8
RACCORDO
100
AcDbLine
 62
250
  6
CONTINUOUS
 10
-110.4101981869
 20
-23.5501794558
 11
-110.4121648888
 21
-24.4268793308
  0
LINE
  5
33F
100
AcDbEntity
  8
RACCORDO
100
AcDbLine
 62
250
  6
CONTINUOUS
 10
-110.4121648888
 20
-24.4268793308
 11
-110.4136582688
 21
-25.3274082448
  0
LINE
  5
340
100
AcDbEntity
  8
RACCORDO
100
AcDbLine
 62
250
  6
CONTINUOUS
 10
-110.4138054377
 20
-25.6475560231
 11
-110.4143699569
 21
-26.0285415167
  0
LINE
  5
341
100
AcDbEntity
  8
SUPERFICI
100
AcDbLine
 62
7
  6
CONTINUOUS
 10
-109.8117058755
 20
28.2553603284
 11
-109.8122682451
 21
27.9144386775
  0
LINE
  5
342
100
AcDbEntity
  8
SUPERFICI
100
AcDbLine
 62
7
  6
CONTINUOUS
 10
-109.8117152945
 20
28.2535667023
 11
-109.8118129376
 21
28.2339806105
  0
LWPOLYLINE
  5
343
100
AcDbEntity
  8
RACCORDO
100
AcDbPolyline
 62
250
  6
CONTINUOUS
 90
3
 70
0
 10
-110.4143699569
 20
-26.0285415167
 10
-110.414619548
 20
-26.0893925001
 10
-110.4147370303
 20
-26.0970087231
  0
LINE
  5
344
100
AcDbEntity
  8
SUPERFICI
100
AcDbLine
 62
7
  6
CONTINUOUS
 10
-109.7966368255
 20
29.1637542034
 11
-109.8120786692
 21
27.923029351
  0
LWPOLYLINE
  5
345
100
AcDbEntity
  8
RACCORDO
100
AcDbPolyline
 62
7
  6
CONTINUOUS
 90
12
 70
0
 10
-109.8128080831
 20
27.8562714243
 10
-109.8133462935
 20
27.8326219616
 10
-109.8140663677
 20
27.809039714
 10
-109.8149667804
 20
27.7855267977
 10
-109.8160460136
 20
27.7620845654
 10
-109.8173025437
 20
27.7387143468
 10
-109.8187347929
 20
27.7154181882
 10
-109.8203412094
 20
27.6921973725
 10
-109.8221202363
 20
27.6690531599
 10
-109.8240702468
 20
27.6459875258
 10
-109.8261896583
 20
27.6230016833
 10
-109.8284768838
 20
27.6000968227
  0
LINE
  5
346
100
AcDbEntity
  8
RACCORDO
100
AcDbLine
 62
7
  6
CONTINUOUS
 10
-109.8122673463
 20
27.9129385551
 11
-109.8110874124
 21
27.8965327255
  0
LWPOLYLINE
  5
347
100
AcDbEntity
  8
RACCORDO
100
AcDbPolyline
 62
250
  6
CONTINUOUS
 90
3
 70
0
 10
-109.8110887415
 20
27.8965327337
 10
-109.8108607802
 20
27.8910059024
 10
-109.8106549047
 20
27.8764112281
  0
LINE
  5
348
100
AcDbEntity
  8
RACCORDO
100
AcDbLine
 62
250
  6
CONTINUOUS
 10
-104.8125022862
 20
-42.2
 11
-104.8125022862
 21
-42.133051065
  0
LINE
  5
349
100
AcDbEntity
  8
RACCORDO
100
AcDbLine
 62
7
  6
CONTINUOUS
 10
-100.1125022862
 20
42.0956501172
 11
-100.1125022862
 21
42.3219583377
  0
LWPOLYLINE
  5
34A
100
AcDbEntity
  8
0
100
AcDbPolyline
 62
7
  6
CONTINUOUS
 90
4
 70
0
 43
0.3500000087
 10
-99.3482126404
 20
61.6785755188
 10
-99.3482126404
 20
62.5357131226
 10
-98.9196481018
 20
62.9642861877
 10
-98.2767842407
 20
62.9642861877
  0
LWPOLYLINE
  5
34B
100
AcDbEntity
  8
0
100
AcDbPolyline
 62
7
  6
CONTINUOUS
 90
4
 70
0
 43
0.3500000087
 10
-99.0982123962
 20
51.6785700165
 10
-99.0982123962
 20
52.5357118835
 10
-98.6696478577
 20
52.9642849487
 10
-98.0267839966
 20
52.9642849487
  0
LINE
  5
34C
100
AcDbEntity
  8
0
100
AcDbLine
 62
7
  6
CONTINUOUS
 10
-98.1125022862
 20
-42.25
 11
-98.1125022862
 21
-38.49
  0
LINE
  5
34D
100
AcDbEntity
  8
ASSI
100
AcDbLine
 62
7
  6
CONTINUOUS
 10
-98.1125022862
 20
-38.49
 11
-98.1125022862
 21
37.5
  0
LINE
  5
34E
100
AcDbEntity
  8
RACCORDO
100
AcDbLine
 62
7
  6
CONTINUOUS
 10
-97.9125022862
 20
37.5
 11
-97.9125022862
 21
-41.869010849
  0
LINE
  5
34F
100
AcDbEntity
  8
RACCORDO
100
AcDbLine
 62
250
  6
CONTINUOUS
 10
-97.4212284895
 20
-38.5
 11
-97.4212284895
 21
-42.3689346966
  0
LINE
  5
350
100
AcDbEntity
  8
RACCORDO
100
AcDbLine
 62
7
  6
CONTINUOUS
 10
-109.8135326013
 20
-27.9105692114
 11
-109.8141379263
 21
-27.9121207722
  0
LINE
  5
351
100
AcDbEntity
  8
RACCORDO
100
AcDbLine
 62
250
  6
CONTINUOUS
 10
-110.4144822151
 20
0.0001760453
 11
-106.0860313047
 21
0.0003114602
  0
LWPOLYLINE
  5
352
100
AcDbEntity
  8
0
100
AcDbPolyline
 62
7
  6
CONTINUOUS
 90
4
 70
0
 43
0.3500000087
 10
-95.2767898376
 20
61.6785755188
 10
-95.2767898376
 20
62.5357131226
 10
-94.8482167725
 20
62.9642861877
 10
-94.205361438
 20
62.9642861877
  0
LINE
  5
353
100
AcDbEntity
  8
DRAFT
100
AcDbLine
 62
7
  6
CONTINUOUS
 10
-89.9125022862
 20
-42.5
 11
-89.9125022862
 21
42.5
  0
LINE
  5
354
100
AcDbEntity
  8
SUPERFICI
100
AcDbLine
 62
250
  6
CONTINUOUS
 10
-88.3088940217
 20
39.5703144605
 11
-88.3088940217
 21
-39.5703144605
  0
LINE
  5
355
100
AcDbEntity
  8
SUPERFICI
100
AcDbLine
 62
7
  6
CONTINUOUS
 10
-87.9125022862
 20
-39.0537266933
 11
-87.9125022862
 21
39.0537266933
  0
LINE
  5
356
100
AcDbEntity
  8
RACCORDO
100
AcDbLine
 62
7
  6
CONTINUOUS
 10
-87.7100591877
 20
-29.9435778714
 11
-87.8374796133
 21
-31.4
  0
LINE
  5
357
100
AcDbEntity
  8
DRAFT
100
AcDbLine
 62
7
  6
CONTINUOUS
 10
-82.9125022862
 20
-25.5525159343
 11
-82.9125022862
 21
25.5525159343
  0
LWPOLYLINE
  5
358
100
AcDbEntity
  8
0
100
AcDbPolyline
 62
7
  6
CONTINUOUS
 90
10
 70
0
 43
0.3500000087
 10
-100.1696493225
 20
51.7500017029
 10
-100.0982133728
 20
51.6071425934
 10
-100.0982133728
 20
51.5357151703
 10
-100.2410767456
 20
51.3928560608
 10
-100.3125041687
 20
51.3928560608
 10
-100.3839315918
 20
51.4642877472
 10
-100.3839315918
 20
51.5357151703
 10
-100.3125041687
 20
51.6785700165
 10
-100.2410767456
 20
51.7500017029
 10
-100.1696493225
 20
51.7500017029
  0
LINE
  5
359
100
AcDbEntity
  8
RACCORDO
100
AcDbLine
 62
7
  6
CONTINUOUS
 10
-110.6125022862
 20
23.9825449351
 11
-110.7299546927
 21
23.9804947957
  0
LINE
  5
35A
100
AcDbEntity
  8
DRAFT
100
AcDbLine
 62
7
  6
CONTINUOUS
 10
-87.9125022862
 20
22.7676628277
 11
-82.9125022862
 21
22.8112971667
  0
LINE
  5
35B
100
AcDbEntity
  8
DRAFT
100
AcDbLine
 62
250
  6
CONTINUOUS
 10
-97.9125022862
 20
22.2
 11
-98.1125022862
 21
22.2
  0
LINE
  5
35C
100
AcDbEntity
  8
RACCORDO
100
AcDbLine
 62
250
  6
CONTINUOUS
 10
-110.4142823865
 20
22.2
 11
-111.7125022862
 21
22.2
  0
LINE
  5
35D
100
AcDbEntity
  8
RACCORDO
100
AcDbLine
 62
250
  6
CONTINUOUS
 10
-110.4142823664
 20
22.2
 11
-109.8117087801
 21
22.1984654348
  0
LINE
  5
35E
100
AcDbEntity
  8
DRAFT
100
AcDbLine
 62
7
  6
CONTINUOUS
 10
-87.9125022862
 20
23.7599633743
 11
-82.9124356377
 21
23.7163284537
  0
LINE
  5
35F
100
AcDbEntity
  8
DRAFT
100
AcDbLine
 62
7
  6
CONTINUOUS
 10
-87.9125022862
 20
25.5961502733
 11
-82.9125022862
 21
25.5525159343
  0
LINE
  5
360
100
AcDbEntity
  8
0
100
AcDbLine
 62
7
  6
CONTINUOUS
 10
-100.5990811595
 20
41.7865788733
 11
-101.0118932291
 21
42.1993909428
  0
LWPOLYLINE
  5
361
100
AcDbEntity
  8
0
100
AcDbPolyline
 62
7
  6
CONTINUOUS
 90
10
 70
0
 43
0.3500000087
 10
-96.3482182373
 20
61.7500029419
 10
-96.2767908142
 20
61.6071395691
 10
-96.2767908142
 20
61.535712146
 10
-96.4196456604
 20
61.3928572998
 10
-96.4910730835
 20
61.3928572998
 10
-96.5625005066
 20
61.4642847229
 10
-96.5625005066
 20
61.535712146
 10
-96.4910730835
 20
61.6785755188
 10
-96.4196456604
 20
61.7500029419
 10
-96.3482182373
 20
61.7500029419
  0
LINE
  5
362
100
AcDbEntity
  8
DRAFT
100
AcDbLine
 62
7
  6
CONTINUOUS
 10
-97.9125022862
 20
31.4
 11
-98.1125022862
 21
31.3930158461
  0
LINE
  5
363
100
AcDbEntity
  8
RACCORDO
100
AcDbLine
 62
7
  6
CONTINUOUS
 10
-98.1125022862
 20
32.8
 11
-97.9125022862
 21
32.8
  0
LINE
  5
364
100
AcDbEntity
  8
SUPERFICI
100
AcDbLine
 62
250
  6
CONTINUOUS
 10
-87.9125022862
 20
36.7
 11
-89.9125022862
 21
36.7
  0
LINE
  5
365
100
AcDbEntity
  8
RACCORDO
100
AcDbLine
 62
250
  6
CONTINUOUS
 10
-105.7441449352
 20
38.49
 11
-98.1991343133
 21
38.49
  0
LINE
  5
366
100
AcDbEntity
  8
RACCORDO
100
AcDbLine
 62
250
  6
CONTINUOUS
 10
-89.9125022862
 20
38.5
 11
-97.5088680537
 21
38.5
  0
LINE
  5
367
100
AcDbEntity
  8
RACCORDO
100
AcDbLine
 62
7
  6
CONTINUOUS
 10
-106.2666413684
 20
42.1076689729
 11
-101.0118932291
 21
42.1993909428
  0
LINE
  5
368
100
AcDbEntity
  8
DRAFT
100
AcDbLine
 62
7
  6
CONTINUOUS
 10
-89.9125022862
 20
42.5
 11
-100.1125022862
 21
42.3219583377
  0
LWPOLYLINE
  5
369
100
AcDbEntity
  8
0
100
AcDbPolyline
 62
7
  6
CONTINUOUS
 90
7
 70
0
 43
0.3500000087
 10
-103.3839345215
 20
51.2500012146
 10
-104.8839274597
 20
51.2500012146
 10
-103.3839345215
 20
53.3928580139
 10
-103.3839345215
 20
53.8214310791
 10
-103.8124990601
 20
54.2500041443
 10
-104.4553629211
 20
54.2500041443
 10
-104.8839274597
 20
53.6071402832
  0
LWPOLYLINE
  5
36A
100
AcDbEntity
  8
0
100
AcDbPolyline
 62
7
  6
CONTINUOUS
 90
7
 70
0
 43
0.3500000087
 10
-100.2053587708
 20
61.2500024536
 10
-101.7053602356
 20
61.2500024536
 10
-100.2053587708
 20
63.3928592529
 10
-100.2053587708
 20
63.8214323181
 10
-100.6339318359
 20
64.2499968567
 10
-101.2767871704
 20
64.2499968567
 10
-101.7053602356
 20
63.6071415222
  0
LINE
  5
36B
100
AcDbEntity
  8
SUPERFICI
100
AcDbLine
 62
7
  6
CONTINUOUS
 10
-88.3088940217
 20
39.5703144605
 11
-89.9125022862
 21
40.0
  0
LWPOLYLINE
  5
36C
100
AcDbEntity
  8
0
100
AcDbPolyline
 62
7
  6
CONTINUOUS
 90
13
 70
0
 43
0.3500000087
 10
-98.6696478577
 20
52.9642849487
 10
-98.95535755
 20
53.178567218
 10
-98.95535755
 20
53.8214310791
 10
-98.6696478577
 20
54.2500041443
 10
-98.0267839966
 20
54.2500041443
 10
-97.7410743042
 20
53.8214310791
 10
-97.7410743042
 20
53.178567218
 10
-98.0267839966
 20
52.9642849487
 10
-97.598219458
 20
52.5357118835
 10
-97.598219458
 20
51.6785700165
 10
-98.0267839966
 20
51.2500012146
 10
-98.6696478577
 20
51.2500012146
 10
-99.0982123962
 20
51.6785700165
  0
LWPOLYLINE
  5
36D
100
AcDbEntity
  8
0
100
AcDbPolyline
 62
7
  6
CONTINUOUS
 90
13
 70
0
 43
0.3500000087
 10
-98.9196481018
 20
62.9642861877
 10
-99.2053577942
 20
63.178568457
 10
-99.2053577942
 20
63.8214323181
 10
-98.9196481018
 20
64.2499968567
 10
-98.2767842407
 20
64.2499968567
 10
-97.9910745483
 20
63.8214323181
 10
-97.9910745483
 20
63.178568457
 10
-98.2767842407
 20
62.9642861877
 10
-97.8482197021
 20
62.5357131226
 10
-97.8482197021
 20
61.6785755188
 10
-98.2767842407
 20
61.2500024536
 10
-98.9196481018
 20
61.2500024536
 10
-99.3482126404
 20
61.6785755188
  0
LWPOLYLINE
  5
36E
100
AcDbEntity
  8
0
100
AcDbPolyline
 62
7
  6
CONTINUOUS
 90
13
 70
0
 43
0.3500000087
 10
-94.8482167725
 20
62.9642861877
 10
-95.1339349915
 20
63.178568457
 10
-95.1339349915
 20
63.8214323181
 10
-94.8482167725
 20
64.2499968567
 10
-94.205361438
 20
64.2499968567
 10
-93.919643219
 20
63.8214323181
 10
-93.919643219
 20
63.178568457
 10
-94.205361438
 20
62.9642861877
 10
-93.7767883728
 20
62.5357131226
 10
-93.7767883728
 20
61.6785755188
 10
-94.205361438
 20
61.2500024536
 10
-94.8482167725
 20
61.2500024536
 10
-95.2767898376
 20
61.6785755188
  0
ARC
  5
36F
100
AcDbEntity
  8
DRAFT
100
AcDbCircle
 62
7
  6
CONTINUOUS
 10
-57.0
 20
-38.5
 40
4.0
100
AcDbArc
 50
180.0
 51
270.0
  0
ARC
  5
370
100
AcDbEntity
  8
RACCORDO
100
AcDbCircle
 62
250
  6
CONTINUOUS
 10
-57.0
 20
-38.5
 40
3.8689346966
100
AcDbArc
 50
180.0
 51
270.0
  0
ARC
  5
371
100
AcDbEntity
  8
0
100
AcDbCircle
 62
7
  6
CONTINUOUS
 10
-56.99
 20
-38.49
 40
3.76
100
AcDbArc
 50
180.0
 51
270.0
  0
ARC
  5
372
100
AcDbEntity
  8
RACCORDO
100
AcDbCircle
 62
250
  6
CONTINUOUS
 10
-56.9950825947
 20
-38.4905408653
 40
3.6161871019
100
AcDbArc
 50
179.9914303566
 51
270.080530023
  0
ARC
  5
373
100
AcDbEntity
  8
0
100
AcDbCircle
 62
7
  6
CONTINUOUS
 10
-33.45
 20
-22.2
 40
2.3
100
AcDbArc
 50
180.0
 51
270.0
  0
ARC
  5
374
100
AcDbEntity
  8
DRAFT
100
AcDbCircle
 62
7
  6
CONTINUOUS
 10
-33.45
 20
-22.2
 40
1.8
100
AcDbArc
 50
180.0
 51
270.0
  0
ARC
  5
375
100
AcDbEntity
  8
RACCORDO
100
AcDbCircle
 62
250
  6
CONTINUOUS
 10
-33.45
 20
-22.2
 40
1.7804947868
100
AcDbArc
 50
180.0
 51
270.0
  0
ARC
  5
376
100
AcDbEntity
  8
RACCORDO
100
AcDbCircle
 62
250
  6
CONTINUOUS
 10
-33.45
 20
-22.2
 40
0.7806392312
100
AcDbArc
 50
180.0
 51
270.0
  0
ARC
  5
377
100
AcDbEntity
  8
RACCORDO
100
AcDbCircle
 62
7
  6
CONTINUOUS
 10
-27.2499999891
 20
-41.45
 40
0.75
100
AcDbArc
 50
229.7886714079
 51
270.0000000398
  0
ARC
  5
378
100
AcDbEntity
  8
RACCORDO
100
AcDbCircle
 62
250
  6
CONTINUOUS
 10
-26.7999904129
 20
-42.0689303795
 40
0.3000043173
100
AcDbArc
 50
269.9981690322
 51
334.0881228908
  0
ARC
  5
379
100
AcDbEntity
  8
RACCORDO
100
AcDbCircle
 62
250
  6
CONTINUOUS
 10
-261.734665888
 20
37.5064979456
 40
322.6036006469
100
AcDbArc
 50
359.9988459371
 51
0.1764504938
  0
ARC
  5
37A
100
AcDbEntity
  8
RACCORDO
100
AcDbCircle
 62
250
  6
CONTINUOUS
 10
-54.9672373937
 20
36.9851228419
 40
5.918536708
100
AcDbArc
 50
120.2906155928
 51
121.0732542663
  0
ARC
  5
37B
100
AcDbEntity
  8
DRAFT
100
AcDbCircle
 62
7
  6
CONTINUOUS
 10
-57.0
 20
38.5
 40
4.0
100
AcDbArc
 50
90.0
 51
180.0
  0
ARC
  5
37C
100
AcDbEntity
  8
RACCORDO
100
AcDbCircle
 62
250
  6
CONTINUOUS
 10
-33.45
 20
22.2
 40
3.8979188961
100
AcDbArc
 50
90.0
 51
180.0
  0
ARC
  5
37D
100
AcDbEntity
  8
RACCORDO
100
AcDbCircle
 62
250
  6
CONTINUOUS
 10
-57.0377015683
 20
38.4896375783
 40
3.8297173932
100
AcDbArc
 50
177.7515583419
 51
179.8449693036
  0
ARC
  5
37E
100
AcDbEntity
  8
RACCORDO
100
AcDbCircle
 62
7
  6
CONTINUOUS
 10
-57.0
 20
38.5
 40
3.8219583377
100
AcDbArc
 50
90.0
 51
103.9651742307
  0
ARC
  5
37F
100
AcDbEntity
  8
RACCORDO
100
AcDbCircle
 62
250
  6
CONTINUOUS
 10
-57.0522653853
 20
38.4955904663
 40
3.8139760527
100
AcDbArc
 50
103.1869255555
 51
115.5026572704
  0
ARC
  5
380
100
AcDbEntity
  8
RACCORDO
100
AcDbCircle
 62
250
  6
CONTINUOUS
 10
-57.0534989119
 20
38.4985035798
 40
3.8108156816
100
AcDbArc
 50
115.5047758783
 51
118.4004704481
  0
ARC
  5
381
100
AcDbEntity
  8
RACCORDO
100
AcDbCircle
 62
250
  6
CONTINUOUS
 10
-56.9933363967
 20
38.493846531
 40
3.6234429063
100
AcDbArc
 50
89.9472426473
 51
180.0608231761
  0
ARC
  5
382
100
AcDbEntity
  8
0
100
AcDbCircle
 62
7
  6
CONTINUOUS
 10
-33.45
 20
22.2
 40
2.3
100
AcDbArc
 50
90.0
 51
180.0
  0
ARC
  5
383
100
AcDbEntity
  8
DRAFT
100
AcDbCircle
 62
7
  6
CONTINUOUS
 10
-33.45
 20
22.2
 40
1.8
100
AcDbArc
 50
90.0
 51
180.0
  0
ARC
  5
384
100
AcDbEntity
  8
RACCORDO
100
AcDbCircle
 62
250
  6
CONTINUOUS
 10
-33.45
 20
22.2
 40
1.7804947868
100
AcDbArc
 50
90.0
 51
180.0
  0
ARC
  5
385
100
AcDbEntity
  8
RACCORDO
100
AcDbCircle
 62
250
  6
CONTINUOUS
 10
-33.45
 20
22.2
 40
0.7806392312
100
AcDbArc
 50
90.0
 51
180.0
  0
ARC
  5
386
100
AcDbEntity
  8
DRAFT
100
AcDbCircle
 62
7
  6
CONTINUOUS
 10
57.0
 20
-38.5
 40
4.0
100
AcDbArc
 50
270.0
 51
360.0
  0
ARC
  5
387
100
AcDbEntity
  8
RACCORDO
100
AcDbCircle
 62
250
  6
CONTINUOUS
 10
57.0
 20
-38.5
 40
3.8689346966
100
AcDbArc
 50
270.0
 51
360.0
  0
ARC
  5
388
100
AcDbEntity
  8
0
100
AcDbCircle
 62
7
  6
CONTINUOUS
 10
56.99
 20
-38.49
 40
3.76
100
AcDbArc
 50
270.0
 51
360.0
  0
ARC
  5
389
100
AcDbEntity
  8
RACCORDO
100
AcDbCircle
 62
250
  6
CONTINUOUS
 10
56.9950825771
 20
-38.4905408748
 40
3.6161871059
100
AcDbArc
 50
269.919470255
 51
0.0085697939
  0
ARC
  5
38A
100
AcDbEntity
  8
0
100
AcDbCircle
 62
7
  6
CONTINUOUS
 10
33.45
 20
-22.2
 40
2.3
100
AcDbArc
 50
270.0
 51
360.0
  0
ARC
  5
38B
100
AcDbEntity
  8
DRAFT
100
AcDbCircle
 62
7
  6
CONTINUOUS
 10
33.45
 20
-22.2
 40
1.8
100
AcDbArc
 50
270.0
 51
360.0
  0
ARC
  5
38C
100
AcDbEntity
  8
RACCORDO
100
AcDbCircle
 62
250
  6
CONTINUOUS
 10
33.45
 20
-22.2
 40
1.7804947868
100
AcDbArc
 50
270.0
 51
360.0
  0
ARC
  5
38D
100
AcDbEntity
  8
0
100
AcDbCircle
 62
7
  6
CONTINUOUS
 10
36.218521
 20
-30.439323
 40
0.8893898871
100
AcDbArc
 50
292.842868527
 51
90.0
  0
ARC
  5
38E
100
AcDbEntity
  8
RACCORDO
100
AcDbCircle
 62
250
  6
CONTINUOUS
 10
33.45
 20
-22.2
 40
0.7806392312
100
AcDbArc
 50
270.0
 51
360.0
  0
ARC
  5
38F
100
AcDbEntity
  8
RACCORDO
100
AcDbCircle
 62
7
  6
CONTINUOUS
 10
27.25
 20
-41.45
 40
0.75
100
AcDbArc
 50
269.9999992452
 51
310.2113762881
  0
ARC
  5
390
100
AcDbEntity
  8
0
100
AcDbCircle
 62
7
  6
CONTINUOUS
 10
36.138015
 20
-30.439323
 40
0.352865
100
AcDbArc
 50
269.903544888
 51
90.0
  0
ARC
  5
391
100
AcDbEntity
  8
RACCORDO
100
AcDbCircle
 62
250
  6
CONTINUOUS
 10
26.7999895664
 20
-42.0689298639
 40
0.3000043173
100
AcDbArc
 50
205.9120362833
 51
270.0019926366
  0
ARC
  5
392
100
AcDbEntity
  8
RACCORDO
100
AcDbCircle
 62
250
  6
CONTINUOUS
 10
260.4403945654
 20
37.5084778492
 40
321.3093293707
100
AcDbArc
 50
179.8231917983
 51
180.0015117674
  0
ARC
  5
393
100
AcDbEntity
  8
RACCORDO
100
AcDbCircle
 62
250
  6
CONTINUOUS
 10
54.9664090581
 20
36.9838798284
 40
5.9200854246
100
AcDbArc
 50
58.9239572352
 51
59.7075756059
  0
ARC
  5
394
100
AcDbEntity
  8
DRAFT
100
AcDbCircle
 62
7
  6
CONTINUOUS
 10
57.0
 20
38.5
 40
4.0
100
AcDbArc
 50
0.0
 51
90.0
  0
ARC
  5
395
100
AcDbEntity
  8
RACCORDO
100
AcDbCircle
 62
250
  6
CONTINUOUS
 10
33.45
 20
22.2
 40
3.8979217963
100
AcDbArc
 50
0.0
 51
90.0
  0
ARC
  5
396
100
AcDbEntity
  8
RACCORDO
100
AcDbCircle
 62
250
  6
CONTINUOUS
 10
57.0377576663
 20
38.4896659138
 40
3.8296612189
100
AcDbArc
 50
0.154609039
 51
2.247615818
  0
ARC
  5
397
100
AcDbEntity
  8
RACCORDO
100
AcDbCircle
 62
7
  6
CONTINUOUS
 10
57.0
 20
38.5
 40
3.8219583377
100
AcDbArc
 50
76.0328463687
 51
90.0
  0
ARC
  5
398
100
AcDbEntity
  8
RACCORDO
100
AcDbCircle
 62
250
  6
CONTINUOUS
 10
57.0522404011
 20
38.495482776
 40
3.8140848059
100
AcDbArc
 50
64.492157598
 51
76.8110900348
  0
ARC
  5
399
100
AcDbEntity
  8
RACCORDO
100
AcDbCircle
 62
250
  6
CONTINUOUS
 10
57.0535120775
 20
38.4984812105
 40
3.8108310407
100
AcDbArc
 50
61.5936648144
 51
64.4900051629
  0
ARC
  5
39A
100
AcDbEntity
  8
RACCORDO
100
AcDbCircle
 62
250
  6
CONTINUOUS
 10
56.9933327701
 20
38.493846406
 40
3.6234449585
100
AcDbArc
 50
359.93917886
 51
90.0527000044
  0
ARC
  5
39B
100
AcDbEntity
  8
0
100
AcDbCircle
 62
7
  6
CONTINUOUS
 10
33.45
 20
22.2
 40
2.3
100
AcDbArc
 50
0.0
 51
90.0
  0
ARC
  5
39C
100
AcDbEntity
  8
DRAFT
100
AcDbCircle
 62
7
  6
CONTINUOUS
 10
33.45
 20
22.2
 40
1.8
100
AcDbArc
 50
0.0
 51
90.0
  0
ARC
  5
39D
100
AcDbEntity
  8
RACCORDO
100
AcDbCircle
 62
250
  6
CONTINUOUS
 10
33.45
 20
22.2
 40
1.7804947868
100
AcDbArc
 50
0.0
 51
90.0
  0
ARC
  5
39E
100
AcDbEntity
  8
RACCORDO
100
AcDbCircle
 62
250
  6
CONTINUOUS
 10
33.45
 20
22.2
 40
0.7806392312
100
AcDbArc
 50
0.0
 51
90.0
  0
ARC
  5
39F
100
AcDbEntity
  8
ASSI
100
AcDbCircle
 62
7
  6
CONTINUOUS
 10
-222.5089610755
 20
-33.1881565931
 40
112.7870565727
100
AcDbArc
 50
1.2858056827
 51
1.6240486485
  0
ARC
  5
3A0
100
AcDbEntity
  8
0
100
AcDbCircle
 62
7
  6
CONTINUOUS
 10
-198.8993461502
 20
-32.6385126117
 40
88.9710178107
100
AcDbArc
 50
1.0936211066
 51
1.343938862
  0
ARC
  5
3A1
100
AcDbEntity
  8
RACCORDO
100
AcDbCircle
 62
7
  6
CONTINUOUS
 10
-112.8525111114
 20
-27.9132846522
 40
3.04
100
AcDbArc
 50
34.965088054
 51
36.6801594817
  0
ARC
  5
3A2
100
AcDbEntity
  8
RACCORDO
100
AcDbCircle
 62
7
  6
CONTINUOUS
 10
-107.692214326
 20
-40.6025600588
 40
1.48
100
AcDbArc
 50
185.7708269052
 51
268.9999165998
  0
ARC
  5
3A3
100
AcDbEntity
  8
RACCORDO
100
AcDbCircle
 62
7
  6
CONTINUOUS
 10
-110.7125022862
 20
-22.9806471005
 40
1.0
100
AcDbArc
 50
180.0
 51
268.9999999979
  0
ARC
  5
3A4
100
AcDbEntity
  8
RACCORDO
100
AcDbCircle
 62
7
  6
CONTINUOUS
 10
-109.6125022862
 20
-25.5
 40
1.0
100
AcDbArc
 50
180.0
 51
216.6559622718
  0
ARC
  5
3A5
100
AcDbEntity
  8
0
100
AcDbCircle
 62
7
  6
CONTINUOUS
 10
-109.6125022862
 20
-25.5
 40
1.0
100
AcDbArc
 50
180.0
 51
216.6559622718
  0
ARC
  5
3A6
100
AcDbEntity
  8
RACCORDO
100
AcDbCircle
 62
7
  6
CONTINUOUS
 10
-106.0625022753
 20
-41.45
 40
0.75
100
AcDbArc
 50
240.0018885533
 51
270.0014566606
  0
ARC
  5
3A7
100
AcDbEntity
  8
SUPERFICI
100
AcDbCircle
 62
7
  6
CONTINUOUS
 10
-88.4473132968
 20
-39.0537266933
 40
0.5348110105
100
AcDbArc
 50
285.0
 51
360.0
  0
ARC
  5
3A8
100
AcDbEntity
  8
RACCORDO
100
AcDbCircle
 62
7
  6
CONTINUOUS
 10
-88.2081565368
 20
-29.9
 40
0.5
100
AcDbArc
 50
354.9999999999
 51
53.7308140227
  0
ARC
  5
3A9
100
AcDbEntity
  8
RACCORDO
100
AcDbCircle
 62
7
  6
CONTINUOUS
 10
-97.4125022862
 20
-41.869010849
 40
0.5
100
AcDbArc
 50
180.0
 51
269.0
  0
ARC
  5
3AA
100
AcDbEntity
  8
RACCORDO
100
AcDbCircle
 62
7
  6
CONTINUOUS
 10
-103.8125022862
 20
37.5
 40
5.9
100
AcDbArc
 50
0.0
 51
51.162140198
  0
ARC
  5
3AB
100
AcDbEntity
  8
RACCORDO
100
AcDbCircle
 62
250
  6
CONTINUOUS
 10
-103.1531053211
 20
37.5015021926
 40
5.7318768481
100
AcDbArc
 50
359.9849840991
 51
10.032155763
  0
ARC
  5
3AC
100
AcDbEntity
  8
0
100
AcDbCircle
 62
7
  6
CONTINUOUS
 10
-103.8125022862
 20
37.5
 40
5.7
100
AcDbArc
 50
10.0020963862
 51
48.8534055721
  0
ARC
  5
3AD
100
AcDbEntity
  8
ASSI
100
AcDbCircle
 62
7
  6
CONTINUOUS
 10
-103.8125022862
 20
37.5
 40
5.7
100
AcDbArc
 50
0.0
 51
10.0020963862
  0
ARC
  5
3AE
100
AcDbEntity
  8
RACCORDO
100
AcDbCircle
 62
7
  6
CONTINUOUS
 10
-112.8521353796
 20
27.9137890206
 40
3.0400000014
100
AcDbArc
 50
346.899939291
 51
348.5038789684
  0
ARC
  5
3AF
100
AcDbEntity
  8
RACCORDO
100
AcDbCircle
 62
7
  6
CONTINUOUS
 10
-106.2409078145
 20
40.6278927082
 40
1.48
100
AcDbArc
 50
91.0
 51
161.2492841419
  0
ARC
  5
3B0
100
AcDbEntity
  8
RACCORDO
100
AcDbCircle
 62
7
  6
CONTINUOUS
 10
-110.7125022862
 20
22.9806471005
 40
1.0
100
AcDbArc
 50
91.0
 51
180.0
  0
ARC
  5
3B1
100
AcDbEntity
  8
RACCORDO
100
AcDbCircle
 62
7
  6
CONTINUOUS
 10
-109.6125022862
 20
25.5
 40
1.0
100
AcDbArc
 50
143.2845903915
 51
180.0
  0
ARC
  5
3B2
100
AcDbEntity
  8
0
100
AcDbCircle
 62
7
  6
CONTINUOUS
 10
-109.6125022862
 20
25.5
 40
1.0
100
AcDbArc
 50
143.2845903915
 51
180.0
  0
ARC
  5
3B3
100
AcDbEntity
  8
SUPERFICI
100
AcDbCircle
 62
7
  6
CONTINUOUS
 10
-88.4473132968
 20
39.0537266933
 40
0.5348110105
100
AcDbArc
 50
0.0
 51
75.0
  0
ARC
  5
3B4
100
AcDbEntity
  8
0
100
AcDbCircle
 62
7
  6
CONTINUOUS
 10
50.2952697235
 20
-26.9952765613
 40
160.3095837171
100
AcDbArc
 50
180.9130916511
 51
181.1266728177
  0
ARC
  5
3B5
100
AcDbEntity
  8
0
100
AcDbCircle
 62
7
  6
CONTINUOUS
 10
32.9154751073
 20
-27.3369075309
 40
142.9315896322
100
AcDbArc
 50
180.8871530843
 51
181.1395409997
  0
ARC
  5
3B6
100
AcDbEntity
  8
ASSI
100
AcDbCircle
 62
7
  6
CONTINUOUS
 10
17.9901863598
 20
-27.8993372869
 40
127.8027550618
100
AcDbArc
 50
184.1032049313
 51
185.7714857692
  0
ARC
  5
3B7
100
AcDbEntity
  8
ASSI
100
AcDbCircle
 62
7
  6
CONTINUOUS
 10
17.9902384172
 20
-27.9007741924
 40
127.8027487622
100
AcDbArc
 50
180.6123267549
 51
180.7393689773
  0
ARC
  5
3B8
100
AcDbEntity
  8
ASSI
100
AcDbCircle
 62
7
  6
CONTINUOUS
 10
17.9662938699
 20
-27.9009762098
 40
127.7788066067
100
AcDbArc
 50
182.0402372694
 51
184.1032384997
  0
ARC
  5
3B9
100
AcDbEntity
  8
0
100
AcDbCircle
 62
7
  6
CONTINUOUS
 10
8.0143541435
 20
-27.9112715228
 40
118.0186343879
100
AcDbArc
 50
181.398900997
 51
181.7051771444
  0
ARC
  5
3BA
100
AcDbEntity
  8
0
100
AcDbCircle
 62
7
  6
CONTINUOUS
 10
6.3265921734
 20
-27.8852948196
 40
116.3277474371
100
AcDbArc
 50
181.6962579435
 51
182.2488979592
  0
ARC
  5
3BB
100
AcDbEntity
  8
0
100
AcDbCircle
 62
7
  6
CONTINUOUS
 10
-0.0215268218
 20
-28.0424312294
 40
109.9869495973
100
AcDbArc
 50
181.4457967302
 51
181.613730132
  0
ARC
  5
3BC
100
AcDbEntity
  8
0
100
AcDbCircle
 62
7
  6
CONTINUOUS
 10
-5.9096974206
 20
-28.2083338742
 40
104.0964422603
100
AcDbArc
 50
181.6137196676
 51
181.7923425911
  0
ARC
  5
3BD
100
AcDbEntity
  8
0
100
AcDbCircle
 62
7
  6
CONTINUOUS
 10
-12.2926021898
 20
-27.6829232726
 40
97.7132512179
100
AcDbArc
 50
182.251329282
 51
182.796398288
  0
ARC
  5
3BE
100
AcDbEntity
  8
ASSI
100
AcDbCircle
 62
7
  6
CONTINUOUS
 10
-12.6960912633
 20
-27.7032385027
 40
97.1093024102
100
AcDbArc
 50
182.0983924176
 51
182.8018031281
  0
SPLINE
  5
3BF
100
AcDbEntity
  8
RACCORDO
100
AcDbSpline
 62
7
  6
CONTINUOUS
 70
0
 71
3
 72
11
 73
7
 74
0
 42
0.0000001
 43
0.0000001
 44
0.0000000001
 40
0.0
 40
0.0
 40
0.0
 40
0.0
 40
0.2766153045
 40
0.5302021174
 40
0.7688886455
 40
1.0
 40
1.0
 40
1.0
 40
1.0
 10
26.5428498098
 20
-42.2472113461
 30
0.0
 10
26.5574609425
 20
-42.2717796504
 30
0.0
 10
26.5922914089
 20
-42.3151793452
 30
0.0
 10
26.65734058
 20
-42.3622355532
 30
0.0
 10
26.7274934338
 20
-42.3900545861
 30
0.0
 10
26.7761211703
 20
-42.3967489116
 30
0.0
 10
26.8
 20
-42.3971656547
 30
0.0
  0
SPLINE
  5
3C0
100
AcDbEntity
  8
RACCORDO
100
AcDbSpline
 62
7
  6
CONTINUOUS
 70
0
 71
3
 72
11
 73
7
 74
0
 42
0.0000001
 43
0.0000001
 44
0.0000000001
 40
0.0
 40
0.0
 40
0.0
 40
0.0
 40
0.2766153045
 40
0.5302021174
 40
0.7688886455
 40
1.0
 40
1.0
 40
1.0
 40
1.0
 10
-26.5428498098
 20
-42.2472113461
 30
0.0
 10
-26.5574609425
 20
-42.2717796504
 30
0.0
 10
-26.5922914089
 20
-42.3151793452
 30
0.0
 10
-26.65734058
 20
-42.3622355532
 30
0.0
 10
-26.7274934338
 20
-42.3900545861
 30
0.0
 10
-26.7761211703
 20
-42.3967489116
 30
0.0
 10
-26.8
 20
-42.3971656547
 30
0.0
  0
SPLINE
  5
3C1
100
AcDbEntity
  8
RACCORDO
100
AcDbSpline
 62
7
  6
CONTINUOUS
 70
0
 71
3
 72
17
 73
13
 74
0
 42
0.0000001
 43
0.0000001
 44
0.0000000001
 40
0.0
 40
0.0
 40
0.0
 40
0.0
 40
0.1252924562
 40
0.2505583214
 40
0.3757683189
 40
0.5007982853
 40
0.5634388506
 40
0.6260216191
 40
0.6884999364
 40
0.7509542592
 40
0.8750206236
 40
1.0
 40
1.0
 40
1.0
 40
1.0
 10
-57.9223610203
 20
42.2089905926
 30
0.0
 10
-57.9300395065
 20
42.2070810863
 30
0.0
 10
-57.9450794723
 20
42.2018783645
 30
0.0
 10
-57.965989884
 20
42.1904182909
 30
0.0
 10
-57.984493323
 20
42.175377881
 30
0.0
 10
-57.9968039816
 20
42.159534609
 30
0.0
 10
-58.0029553473
 20
42.1448640408
 30
0.0
 10
-58.0048435308
 20
42.1330055588
 30
0.0
 10
-58.0028477299
 20
42.1210641045
 30
0.0
 10
-57.9943899705
 20
42.1073396089
 30
0.0
 10
-57.9761598698
 20
42.097408879
 30
0.0
 10
-57.9603577892
 20
42.0956501175
 30
0.0
 10
-57.9524652054
 20
42.0956501172
 30
0.0
  0
SPLINE
  5
3C2
100
AcDbEntity
  8
RACCORDO
100
AcDbSpline
 62
250
  6
CONTINUOUS
 70
0
 71
3
 72
15
 73
11
 74
0
 42
0.0000001
 43
0.0000001
 44
0.0000000001
 40
0.0
 40
0.0
 40
0.0
 40
0.0
 40
0.1142077216
 40
0.2311646688
 40
0.3512003291
 40
0.4745351066
 40
0.601260721
 40
0.7313033201
 40
0.8643840998
 40
1.0
 40
1.0
 40
1.0
 40
1.0
 10
-58.8660420297
 20
41.8506675923
 30
0.0
 10
-58.9984396235
 20
41.7790790763
 30
0.0
 10
-59.2580854437
 20
41.618120165
 30
0.0
 10
-59.620296087
 20
41.3282376702
 30
0.0
 10
-59.9527511
 20
40.9874217544
 30
0.0
 10
-60.2474910525
 20
40.59714121
 30
0.0
 10
-60.4959304531
 20
40.1605046245
 30
0.0
 10
-60.6891683721
 20
39.6827545941
 30
0.0
 10
-60.8186888227
 20
39.1718442664
 30
0.0
 10
-60.8574582011
 20
38.8184759734
 30
0.0
 10
-60.8644704762
 20
38.6398874964
 30
0.0
  0
SPLINE
  5
3C3
100
AcDbEntity
  8
RACCORDO
100
AcDbSpline
 62
250
  6
CONTINUOUS
 70
0
 71
3
 72
13
 73
9
 74
0
 42
0.0000001
 43
0.0000001
 44
0.0000000001
 40
0.0
 40
0.0
 40
0.0
 40
0.0
 40
0.3788338468
 40
0.5358702065
 40
0.6704072546
 40
0.7824099568
 40
0.8727423704
 40
1.0
 40
1.0
 40
1.0
 40
1.0
 10
-60.7486567225
 20
38.447264656
 30
0.0
 10
-60.7653409506
 20
38.4503987015
 30
0.0
 10
-60.7888437625
 20
38.4555023935
 30
0.0
 10
-60.8176040333
 20
38.4642729655
 30
0.0
 10
-60.8344983216
 20
38.4707147575
 30
0.0
 10
-60.8480880581
 20
38.4775243146
 30
0.0
 10
-60.8601698602
 20
38.4856939353
 30
0.0
 10
-60.866846973
 20
38.4943247772
 30
0.0
 10
-60.8674049424
 20
38.4999999928
 30
0.0
  0
SPLINE
  5
3C4
100
AcDbEntity
  8
RACCORDO
100
AcDbSpline
 62
250
  6
CONTINUOUS
 70
0
 71
3
 72
13
 73
9
 74
0
 42
0.0000001
 43
0.0000001
 44
0.0000000001
 40
0.0
 40
0.0
 40
0.0
 40
0.0
 40
0.4180861348
 40
0.7296528638
 40
0.8424974821
 40
0.925539205
 40
0.9781689349
 40
1.0
 40
1.0
 40
1.0
 40
1.0
 10
-60.7500638806
 20
37.4996893285
 30
0.0
 10
-60.7666301449
 20
37.4996942075
 30
0.0
 10
-60.7955415456
 20
37.4997158977
 30
0.0
 10
-60.8289258215
 20
37.4997488116
 30
0.0
 10
-60.8490315267
 20
37.4998300273
 30
0.0
 10
-60.8588813333
 20
37.499840569
 30
0.0
 10
-60.8651169002
 20
37.4999577126
 30
0.0
 10
-60.8680731593
 20
37.4999222017
 30
0.0
 10
-60.8689346889
 20
37.5
 30
0.0
  0
LINE
  5
3C5
100
AcDbEntity
  8
RACCORDO
100
AcDbLine
 62
250
  6
CONTINUOUS
 10
-60.8689346934
 20
37.5
 11
-60.8689346966
 21
-38.5
  0
SPLINE
  5
3C6
100
AcDbEntity
  8
RACCORDO
100
AcDbSpline
 62
7
  6
CONTINUOUS
 70
0
 71
3
 72
17
 73
13
 74
0
 42
0.0000001
 43
0.0000001
 44
0.0000000001
 40
0.0
 40
0.0
 40
0.0
 40
0.0
 40
0.124979195
 40
0.2490461023
 40
0.311501231
 40
0.3739793749
 40
0.4365618316
 40
0.4992021587
 40
0.6242317299
 40
0.7494415023
 40
0.8747073909
 40
1.0
 40
1.0
 40
1.0
 40
1.0
 10
57.9525799753
 20
42.0956501172
 30
0.0
 10
57.9604700508
 20
42.0956501179
 30
0.0
 10
57.976267192
 20
42.0974084144
 30
0.0
 10
57.9944913544
 20
42.1073364185
 30
0.0
 10
58.0029464437
 20
42.121056609
 30
0.0
 10
58.0049418858
 20
42.1329942223
 30
0.0
 10
58.0030548393
 20
42.1448489754
 30
0.0
 10
57.9969062122
 20
42.1595151667
 30
0.0
 10
57.9846003311
 20
42.1753540474
 30
0.0
 10
57.9661034964
 20
42.1903905791
 30
0.0
 10
57.9452001881
 20
42.2018479258
 30
0.0
 10
57.9301651585
 20
42.2070495702
 30
0.0
 10
57.9224891581
 20
42.2089587399
 30
0.0
  0
SPLINE
  5
3C7
100
AcDbEntity
  8
RACCORDO
100
AcDbSpline
 62
250
  6
CONTINUOUS
 70
0
 71
3
 72
15
 73
11
 74
0
 42
0.0000001
 43
0.0000001
 44
0.0000000001
 40
0.0
 40
0.0
 40
0.0
 40
0.0
 40
0.1141928218
 40
0.2311382877
 40
0.3511678429
 40
0.4745021849
 40
0.6012322576
 40
0.7312828589
 40
0.8643736419
 40
1.0
 40
1.0
 40
1.0
 40
1.0
 10
58.8664062174
 20
41.850472866
 30
0.0
 10
58.9987665888
 20
41.7788869661
 30
0.0
 10
59.2583433958
 20
41.6179388951
 30
0.0
 10
59.6204668973
 20
41.3280876101
 30
0.0
 10
59.9528577799
 20
40.9873062827
 30
0.0
 10
60.247555344
 20
40.5970558963
 30
0.0
 10
60.4959686691
 20
40.1604414651
 30
0.0
 10
60.6891904624
 20
39.6827059702
 30
0.0
 10
60.8186996155
 20
39.1718058501
 30
0.0
 10
60.8574630364
 20
38.8184437909
 30
0.0
 10
60.8644726083
 20
38.6398584712
 30
0.0
  0
SPLINE
  5
3C8
100
AcDbEntity
  8
RACCORDO
100
AcDbSpline
 62
250
  6
CONTINUOUS
 70
0
 71
3
 72
13
 73
9
 74
0
 42
0.0000001
 43
0.0000001
 44
0.0000000001
 40
0.0
 40
0.0
 40
0.0
 40
0.0
 40
0.1270813263
 40
0.2173851285
 40
0.3293891105
 40
0.4639510247
 40
0.6210314935
 40
1.0
 40
1.0
 40
1.0
 40
1.0
 10
60.8674049425
 20
38.4999999928
 30
0.0
 10
60.8668464613
 20
38.4943350313
 30
0.0
 10
60.8601625694
 20
38.4857241118
 30
0.0
 10
60.8480864063
 20
38.4775756829
 30
0.0
 10
60.8344967449
 20
38.4707788656
 30
0.0
 10
60.8176030151
 20
38.4643476317
 30
0.0
 10
60.7888421852
 20
38.4555884022
 30
0.0
 10
60.7653402674
 20
38.4504888419
 30
0.0
 10
60.7486564593
 20
38.447356288
 30
0.0
  0
SPLINE
  5
3C9
100
AcDbEntity
  8
RACCORDO
100
AcDbSpline
 62
250
  6
CONTINUOUS
 70
0
 71
3
 72
13
 73
9
 74
0
 42
0.0000001
 43
0.0000001
 44
0.0000000001
 40
0.0
 40
0.0
 40
0.0
 40
0.0
 40
0.0218319884
 40
0.0744624088
 40
0.1575045688
 40
0.2703493571
 40
0.5819155746
 40
1.0
 40
1.0
 40
1.0
 40
1.0
 10
60.8689354224
 20
37.5
 30
0.0
 10
60.8680738408
 20
37.4999223121
 30
0.0
 10
60.865117517
 20
37.499957759
 30
0.0
 10
60.8588818148
 20
37.4998407876
 30
0.0
 10
60.8490319041
 20
37.4998302541
 30
0.0
 10
60.8289260668
 20
37.4997491562
 30
0.0
 10
60.7955416707
 20
37.4997162881
 30
0.0
 10
60.7666301795
 20
37.4996946299
 30
0.0
 10
60.7500638812
 20
37.4996897577
 30
0.0
  0
LINE
  5
3CA
100
AcDbEntity
  8
RACCORDO
100
AcDbLine
 62
250
  6
CONTINUOUS
 10
60.8689346934
 20
37.5
 11
60.8689346966
 21
-38.5
  0
SPLINE
  5
3CB
100
AcDbEntity
  8
0
100
AcDbSpline
 62
7
  6
CONTINUOUS
 70
0
 71
3
 72
11
 73
7
 74
0
 42
0.0000001
 43
0.0000001
 44
0.0000000001
 40
0.0
 40
0.0
 40
0.0
 40
0.0
 40
0.2660595553
 40
0.5180735637
 40
0.7593538059
 40
1.0
 40
1.0
 40
1.0
 40
1.0
 10
60.7484878323
 20
38.49
 30
0.0
 10
60.7473777149
 20
38.850608332
 30
0.0
 10
60.6413932593
 20
39.5568537567
 30
0.0
 10
60.2028725452
 20
40.5019500555
 30
0.0
 10
59.5515434082
 20
41.2686288975
 30
0.0
 10
59.0061031766
 20
41.643834762
 30
0.0
 10
58.7156672311
 20
41.792262726
 30
0.0
  0
SPLINE
  5
3CC
100
AcDbEntity
  8
0
100
AcDbSpline
 62
7
  6
CONTINUOUS
 70
0
 71
3
 72
11
 73
7
 74
0
 42
0.0000001
 43
0.0000001
 44
0.0000000001
 40
0.0
 40
0.0
 40
0.0
 40
0.0
 40
0.2406461941
 40
0.4819264363
 40
0.7339404447
 40
1.0
 40
1.0
 40
1.0
 40
1.0
 10
-58.7156672311
 20
41.792262726
 30
0.0
 10
-59.0061031766
 20
41.643834762
 30
0.0
 10
-59.5515434082
 20
41.2686288975
 30
0.0
 10
-60.2028725452
 20
40.5019500555
 30
0.0
 10
-60.6413932593
 20
39.5568537567
 30
0.0
 10
-60.7473777149
 20
38.850608332
 30
0.0
 10
-60.7484878323
 20
38.49
 30
0.0
  0
LINE
  5
3CD
100
AcDbEntity
  8
0
100
AcDbLine
 62
7
  6
CONTINUOUS
 10
58.7156672311
 20
41.792262726
 11
58.7062919482
 21
41.7865788733
  0
LINE
  5
3CE
100
AcDbEntity
  8
0
100
AcDbLine
 62
7
  6
CONTINUOUS
 10
-58.7156672311
 20
41.792262726
 11
-58.7062919482
 21
41.7865788733
  0
SPLINE
  5
3CF
100
AcDbEntity
  8
ASSI
100
AcDbSpline
 62
250
  6
CONTINUOUS
 70
0
 71
3
 72
9
 73
5
 74
0
 42
0.0000001
 43
0.0000001
 44
0.0000000001
 40
0.0
 40
0.0
 40
0.0
 40
0.0
 40
0.4994446139
 40
1.0
 40
1.0
 40
1.0
 40
1.0
 10
30.0234542971
 20
-40.7513313383
 30
0.0
 10
30.0867172996
 20
-39.3705304025
 30
0.0
 10
30.2549525055
 20
-36.6115441879
 30
0.0
 10
29.7625849726
 20
-33.8145055123
 30
0.0
 10
30.0022572093
 20
-32.4500720892
 30
0.0
  0
SPLINE
  5
3D0
100
AcDbEntity
  8
RACCORDO
100
AcDbSpline
 62
250
  6
CONTINUOUS
 70
0
 71
3
 72
9
 73
5
 74
0
 42
0.0000001
 43
0.0000001
 44
0.0000000001
 40
0.0
 40
0.0
 40
0.0
 40
0.0
 40
0.5008264757
 40
1.0
 40
1.0
 40
1.0
 40
1.0
 10
30.0644104684
 20
-42.0823346101
 30
0.0
 10
34.5594289469
 20
-42.082344445
 30
0.0
 10
43.5346289416
 20
-42.0861089767
 30
0.0
 10
52.5098303871
 20
-42.0958063127
 30
0.0
 10
56.99
 20
-42.1067205393
 30
0.0
  0
SPLINE
  5
3D1
100
AcDbEntity
  8
RACCORDO
100
AcDbSpline
 62
250
  6
CONTINUOUS
 70
0
 71
3
 72
12
 73
8
 74
0
 42
0.0000001
 43
0.0000001
 44
0.0000000001
 40
0.0
 40
0.0
 40
0.0
 40
0.0
 40
0.2504754393
 40
0.4382531655
 40
0.6258929988
 40
0.8132813907
 40
1.0
 40
1.0
 40
1.0
 40
1.0
 10
30.0645452255
 20
-40.7513411083
 30
0.0
 10
32.3296450769
 20
-40.7490282629
 30
0.0
 10
36.2928628665
 20
-40.752361674
 30
0.0
 10
41.9529293692
 20
-40.765092772
 30
0.0
 10
47.0424803403
 20
-40.7759728879
 30
0.0
 10
52.122517694
 20
-40.7726415286
 30
0.0
 10
55.5055064929
 20
-40.7386815501
 30
0.0
 10
57.1939498102
 20
-40.7210978117
 30
0.0
  0
SPLINE
  5
3D2
100
AcDbEntity
  8
RACCORDO
100
AcDbSpline
 62
250
  6
CONTINUOUS
 70
0
 71
3
 72
13
 73
9
 74
0
 42
0.0000001
 43
0.0000001
 44
0.0000000001
 40
0.0
 40
0.0
 40
0.0
 40
0.0
 40
0.3738493988
 40
0.6887296678
 40
0.8106243352
 40
0.9037225419
 40
0.965873787
 40
1.0
 40
1.0
 40
1.0
 40
1.0
 10
57.1939503069
 20
-40.721098041
 30
0.0
 10
57.1919657771
 20
-40.8982218543
 30
0.0
 10
57.1804090297
 20
-41.2243281159
 30
0.0
 10
57.1449356784
 20
-41.6076578249
 30
0.0
 10
57.1035967026
 20
-41.8547270977
 30
0.0
 10
57.0704525142
 20
-41.9834384804
 30
0.0
 10
57.0400401262
 20
-42.0649514569
 30
0.0
 10
57.0060445898
 20
-42.1046739239
 30
0.0
 10
56.989999991
 20
-42.1066795194
 30
0.0
  0
SPLINE
  5
3D3
100
AcDbEntity
  8
RACCORDO
100
AcDbSpline
 62
250
  6
CONTINUOUS
 70
0
 71
3
 72
11
 73
7
 74
0
 42
0.0000001
 43
0.0000001
 44
0.0000000001
 40
0.0
 40
0.0
 40
0.0
 40
0.0
 40
0.2489338669
 40
0.4986360942
 40
0.7491056615
 40
1.0
 40
1.0
 40
1.0
 40
1.0
 10
57.1939503069
 20
-40.721098041
 30
0.0
 10
57.4780436366
 20
-40.718070262
 30
0.0
 10
58.0516259413
 20
-40.5973247348
 30
0.0
 10
58.7776035762
 20
-40.1090888124
 30
0.0
 10
59.2745246384
 20
-39.3856415258
 30
0.0
 10
59.3971263743
 20
-38.8082916269
 30
0.0
 10
59.3994200922
 20
-38.5219538538
 30
0.0
  0
SPLINE
  5
3D4
100
AcDbEntity
  8
RACCORDO
100
AcDbSpline
 62
250
  6
CONTINUOUS
 70
0
 71
3
 72
18
 73
14
 74
0
 42
0.0000001
 43
0.0000001
 44
0.0000000001
 40
0.0
 40
0.0
 40
0.0
 40
0.0
 40
0.2011148277
 40
0.3905166042
 40
0.5617346629
 40
0.7099209347
 40
0.8308425934
 40
0.8800043916
 40
0.9211033195
 40
0.9537877206
 40
0.9778831676
 40
0.9932790881
 40
1.0
 40
1.0
 40
1.0
 40
1.0
 10
59.3994206934
 20
-38.5219539255
 30
0.0
 10
59.4807391627
 20
-38.5215929012
 30
0.0
 10
59.6386392052
 20
-38.5205884982
 30
0.0
 10
59.8657593667
 20
-38.5181984916
 30
0.0
 10
60.0714714651
 20
-38.5150172523
 30
0.0
 10
60.2494623418
 20
-38.5111503652
 30
0.0
 10
60.3781237463
 20
-38.5073042813
 30
0.0
 10
60.4634008707
 20
-38.5037686503
 30
0.0
 10
60.5131415586
 20
-38.5013179352
 30
0.0
 10
60.5523914019
 20
-38.4985466314
 30
0.0
 10
60.5820453127
 20
-38.4964335094
 30
0.0
 10
60.5994657774
 20
-38.4931099834
 30
0.0
 10
60.6095664598
 20
-38.492130318
 30
0.0
 10
60.6112537135
 20
-38.49
 30
0.0
  0
SPLINE
  5
3D5
100
AcDbEntity
  8
RACCORDO
100
AcDbSpline
 62
250
  6
CONTINUOUS
 70
0
 71
3
 72
9
 73
5
 74
0
 42
0.0000001
 43
0.0000001
 44
0.0000000001
 40
0.0
 40
0.0
 40
0.0
 40
0.0
 40
0.499996318
 40
1.0
 40
1.0
 40
1.0
 40
1.0
 10
60.6112537135
 20
-38.49
 30
0.0
 10
60.6087835619
 20
-32.0749958059
 30
0.0
 10
60.6120328125
 20
-19.2448912757
 30
0.0
 10
60.610821641
 20
-6.4147876913
 30
0.0
 10
60.6108215333
 20
0.0003114602
 30
0.0
  0
SPLINE
  5
3D6
100
AcDbEntity
  8
RACCORDO
100
AcDbSpline
 62
250
  6
CONTINUOUS
 70
0
 71
3
 72
12
 73
8
 74
0
 42
0.0000001
 43
0.0000001
 44
0.0000000001
 40
0.0
 40
0.0
 40
0.0
 40
0.0
 40
0.124995194
 40
0.249995764
 40
0.4999967433
 40
0.749998372
 40
1.0
 40
1.0
 40
1.0
 40
1.0
 10
59.3994206934
 20
-38.5219539255
 30
0.0
 10
59.4120182703
 20
-36.9169791196
 30
0.0
 10
59.4266685228
 20
-33.706882451
 30
0.0
 10
59.4424007015
 20
-27.2866021937
 30
0.0
 10
59.4529266071
 20
-19.2611353122
 30
0.0
 10
59.4611273136
 20
-9.6305693251
 30
0.0
 10
59.4633831756
 20
-3.2101834074
 30
0.0
 10
59.4633831065
 20
0.0000094098
 30
0.0
  0
SPLINE
  5
3D7
100
AcDbEntity
  8
RACCORDO
100
AcDbSpline
 62
250
  6
CONTINUOUS
 70
0
 71
3
 72
10
 73
6
 74
0
 42
0.0000001
 43
0.0000001
 44
0.0000000001
 40
0.0
 40
0.0
 40
0.0
 40
0.0
 40
0.5001035016
 40
0.750155709
 40
1.0
 40
1.0
 40
1.0
 40
1.0
 10
60.6108215333
 20
0.0003114602
 30
0.0
 10
60.6107901342
 20
6.4165876951
 30
0.0
 10
60.6113447365
 20
16.0410089248
 30
0.0
 10
60.6119763929
 20
28.8709028123
 30
0.0
 10
60.6110457462
 20
35.2845287165
 30
0.0
 10
60.6167891821
 20
38.49
 30
0.0
  0
SPLINE
  5
3D8
100
AcDbEntity
  8
RACCORDO
100
AcDbSpline
 62
250
  6
CONTINUOUS
 70
0
 71
3
 72
11
 73
7
 74
0
 42
0.0000001
 43
0.0000001
 44
0.0000000001
 40
0.0
 40
0.0
 40
0.0
 40
0.0
 40
0.250049719
 40
0.5000987505
 40
0.7501485748
 40
1.0
 40
1.0
 40
1.0
 40
1.0
 10
59.4633828231
 20
0.0000094098
 30
0.0
 10
59.4625811851
 20
3.2205317053
 30
0.0
 10
59.461809245
 20
9.6615588539
 30
0.0
 10
59.4637499713
 20
19.3231583327
 30
0.0
 10
59.4680352751
 20
28.9820171172
 30
0.0
 10
59.4514111687
 20
35.4208743085
 30
0.0
 10
59.3954470573
 20
38.6383560971
 30
0.0
  0
SPLINE
  5
3D9
100
AcDbEntity
  8
RACCORDO
100
AcDbSpline
 62
250
  6
CONTINUOUS
 70
0
 71
3
 72
14
 73
10
 74
0
 42
0.0000001
 43
0.0000001
 44
0.0000000001
 40
0.0
 40
0.0
 40
0.0
 40
0.0
 40
0.3842222601
 40
0.5531613042
 40
0.6998079567
 40
0.8201032118
 40
0.9109498771
 40
0.9702813962
 40
1.0
 40
1.0
 40
1.0
 40
1.0
 10
59.3954469617
 20
38.6383560423
 30
0.0
 10
59.5545163598
 20
38.6351932412
 30
0.0
 10
59.7835568432
 20
38.6268882337
 30
0.0
 10
60.0725159821
 20
38.6064152538
 30
0.0
 10
60.2524243423
 20
38.5883646156
 30
0.0
 10
60.3984532384
 20
38.5683232016
 30
0.0
 10
60.510238655
 20
38.5453270573
 30
0.0
 10
60.5777585933
 20
38.5247938081
 30
0.0
 10
60.6147267486
 20
38.5021320166
 30
0.0
 10
60.6167889828
 20
38.49
 30
0.0
  0
SPLINE
  5
3DA
100
AcDbEntity
  8
RACCORDO
100
AcDbSpline
 62
250
  6
CONTINUOUS
 70
0
 71
3
 72
11
 73
7
 74
0
 42
0.0000001
 43
0.0000001
 44
0.0000000001
 40
0.0
 40
0.0
 40
0.0
 40
0.0
 40
0.2494970498
 40
0.4997460035
 40
0.7502081227
 40
1.0
 40
1.0
 40
1.0
 40
1.0
 10
59.3954469617
 20
38.6383560423
 30
0.0
 10
59.3903426883
 20
38.9318941075
 30
0.0
 10
59.262562423
 20
39.5232072947
 30
0.0
 10
58.7648079507
 20
40.2751227231
 30
0.0
 10
58.0307670086
 20
40.8013291915
 30
0.0
 10
57.4389761624
 20
40.9403585753
 30
0.0
 10
57.1451128636
 20
40.9465901182
 30
0.0
  0
SPLINE
  5
3DB
100
AcDbEntity
  8
RACCORDO
100
AcDbSpline
 62
250
  6
CONTINUOUS
 70
0
 71
3
 72
14
 73
10
 74
0
 42
0.0000001
 43
0.0000001
 44
0.0000000001
 40
0.0
 40
0.0
 40
0.0
 40
0.0
 40
0.3854163784
 40
0.5539823053
 40
0.699981804
 40
0.8196100271
 40
0.9100042797
 40
0.9693648651
 40
1.0
 40
1.0
 40
1.0
 40
1.0
 10
57.1451127412
 20
40.9465898744
 30
0.0
 10
57.1413044306
 20
41.0999028108
 30
0.0
 10
57.1320953068
 20
41.3202746976
 30
0.0
 10
57.1103173867
 20
41.5978797765
 30
0.0
 10
57.0914111404
 20
41.7698786185
 30
0.0
 10
57.0705973356
 20
41.9094028516
 30
0.0
 10
57.0468016294
 20
42.0157267447
 30
0.0
 10
57.0255839283
 20
42.0809338181
 30
0.0
 10
57.002034453
 20
42.115313312
 30
0.0
 10
56.99
 20
42.1172542221
 30
0.0
  0
SPLINE
  5
3DC
100
AcDbEntity
  8
RACCORDO
100
AcDbSpline
 62
250
  6
CONTINUOUS
 70
0
 71
3
 72
10
 73
6
 74
0
 42
0.0000001
 43
0.0000001
 44
0.0000000001
 40
0.0
 40
0.0
 40
0.0
 40
0.0
 40
0.2497792917
 40
0.4998518003
 40
1.0
 40
1.0
 40
1.0
 40
1.0
 10
56.99
 20
42.1172542221
 30
0.0
 10
52.2453192997
 20
42.1082941122
 30
0.0
 10
42.7503635261
 20
42.1070533977
 30
0.0
 10
23.7548409129
 20
42.1096120387
 30
0.0
 10
9.5040021349
 20
42.1104152077
 30
0.0
 10
0.0034237419
 20
42.1104571092
 30
0.0
  0
SPLINE
  5
3DD
100
AcDbEntity
  8
RACCORDO
100
AcDbSpline
 62
250
  6
CONTINUOUS
 70
0
 71
3
 72
14
 73
10
 74
0
 42
0.0000001
 43
0.0000001
 44
0.0000000001
 40
0.0
 40
0.0
 40
0.0
 40
0.0
 40
0.0623200277
 40
0.1247824026
 40
0.2498045508
 40
0.3748374152
 40
0.4998683223
 40
0.7499326357
 40
1.0
 40
1.0
 40
1.0
 40
1.0
 10
57.1451127412
 20
40.9465898744
 30
0.0
 10
55.9583371582
 20
40.9717348484
 30
0.0
 10
53.5819463994
 20
41.0165467168
 30
0.0
 10
48.8240968712
 20
41.0732298697
 30
0.0
 10
42.8714512188
 20
41.1031216202
 30
0.0
 10
35.7270175735
 20
41.1189691494
 30
0.0
 10
26.2008226243
 20
41.1308093688
 30
0.0
 10
14.2930286408
 20
41.137770521
 30
0.0
 10
4.7667602806
 20
41.1394366006
 30
0.0
 10
0.0035973709
 20
41.1387312164
 30
0.0
  0
SPLINE
  5
3DE
100
AcDbEntity
  8
RACCORDO
100
AcDbSpline
 62
250
  6
CONTINUOUS
 70
0
 71
3
 72
10
 73
6
 74
0
 42
0.0000001
 43
0.0000001
 44
0.0000000001
 40
0.0
 40
0.0
 40
0.0
 40
0.0
 40
0.5001485539
 40
0.7502212156
 40
1.0
 40
1.0
 40
1.0
 40
1.0
 10
0.0034237419
 20
42.1104571092
 30
0.0
 10
-9.4983029653
 20
42.1104153369
 30
0.0
 10
-23.7508637557
 20
42.1096123692
 30
0.0
 10
-42.7486688621
 20
42.1070540949
 30
0.0
 10
-52.2447588183
 20
42.1082930238
 30
0.0
 10
-56.99
 20
42.1172542221
 30
0.0
  0
SPLINE
  5
3DF
100
AcDbEntity
  8
RACCORDO
100
AcDbSpline
 62
250
  6
CONTINUOUS
 70
0
 71
3
 72
14
 73
10
 74
0
 42
0.0000001
 43
0.0000001
 44
0.0000000001
 40
0.0
 40
0.0
 40
0.0
 40
0.0
 40
0.2500675394
 40
0.5001320267
 40
0.6251630215
 40
0.7501959513
 40
0.8752181172
 40
0.9376802886
 40
1.0
 40
1.0
 40
1.0
 40
1.0
 10
0.0035973713
 20
41.1387302073
 30
0.0
 10
-4.7601685737
 20
41.1394370146
 30
0.0
 10
-14.2876429668
 20
41.1377816898
 30
0.0
 10
-26.1969445366
 20
41.1307875395
 30
0.0
 10
-35.7243449966
 20
41.1189492913
 30
0.0
 10
-42.8696818022
 20
41.1031603715
 30
0.0
 10
-48.8230736003
 20
41.0731574375
 30
0.0
 10
-53.581514137
 20
41.0165913434
 30
0.0
 10
-55.9581936052
 20
40.9717358209
 30
0.0
 10
-57.145112622
 20
40.9465896368
 30
0.0
  0
SPLINE
  5
3E0
100
AcDbEntity
  8
RACCORDO
100
AcDbSpline
 62
250
  6
CONTINUOUS
 70
0
 71
3
 72
14
 73
10
 74
0
 42
0.0000001
 43
0.0000001
 44
0.0000000001
 40
0.0
 40
0.0
 40
0.0
 40
0.0
 40
0.3854194104
 40
0.5539858536
 40
0.6999852292
 40
0.8196127909
 40
0.9100060337
 40
0.9693655167
 40
1.0
 40
1.0
 40
1.0
 40
1.0
 10
-57.1451128656
 20
40.9465901222
 30
0.0
 10
-57.1413045099
 20
41.0999008666
 30
0.0
 10
-57.1320953317
 20
41.3202692788
 30
0.0
 10
-57.1103172907
 20
41.5978695316
 30
0.0
 10
-57.0914109645
 20
41.7698644013
 30
0.0
 10
-57.0705972542
 20
41.9093847786
 30
0.0
 10
-57.0468013575
 20
42.0157050238
 30
0.0
 10
-57.0255841668
 20
42.0809095262
 30
0.0
 10
-57.0020340494
 20
42.1152869376
 30
0.0
 10
-56.9899999995
 20
42.1172270227
 30
0.0
  0
SPLINE
  5
3E1
100
AcDbEntity
  8
RACCORDO
100
AcDbSpline
 62
250
  6
CONTINUOUS
 70
0
 71
3
 72
11
 73
7
 74
0
 42
0.0000001
 43
0.0000001
 44
0.0000000001
 40
0.0
 40
0.0
 40
0.0
 40
0.0
 40
0.2497922769
 40
0.5002542669
 40
0.7505030521
 40
1.0
 40
1.0
 40
1.0
 40
1.0
 10
-57.1451128656
 20
40.9465901222
 30
0.0
 10
-57.4389766222
 20
40.9403580895
 30
0.0
 10
-58.0307677856
 20
40.8013290159
 30
0.0
 10
-58.764808573
 20
40.2751219467
 30
0.0
 10
-59.2625625511
 20
39.5232068577
 30
0.0
 10
-59.3903426781
 20
38.9318939853
 30
0.0
 10
-59.3954469617
 20
38.6383560423
 30
0.0
  0
SPLINE
  5
3E2
100
AcDbEntity
  8
RACCORDO
100
AcDbSpline
 62
250
  6
CONTINUOUS
 70
0
 71
3
 72
14
 73
10
 74
0
 42
0.0000001
 43
0.0000001
 44
0.0000000001
 40
0.0
 40
0.0
 40
0.0
 40
0.0
 40
0.384221945
 40
0.5531608303
 40
0.6998073545
 40
0.8201025445
 40
0.9109492495
 40
0.9702809667
 40
1.0
 40
1.0
 40
1.0
 40
1.0
 10
-59.3954469745
 20
38.6383560496
 30
0.0
 10
-59.5545163423
 20
38.6351938502
 30
0.0
 10
-59.7835567851
 20
38.626889482
 30
0.0
 10
-60.0725158696
 20
38.6064168505
 30
0.0
 10
-60.2524241703
 20
38.5883662312
 30
0.0
 10
-60.3984531122
 20
38.568324634
 30
0.0
 10
-60.5102384863
 20
38.545328159
 30
0.0
 10
-60.5777588412
 20
38.5247944412
 30
0.0
 10
-60.6147268259
 20
38.5021321833
 30
0.0
 10
-60.6167891821
 20
38.49
 30
0.0
  0
SPLINE
  5
3E3
100
AcDbEntity
  8
RACCORDO
100
AcDbSpline
 62
250
  6
CONTINUOUS
 70
0
 71
3
 72
10
 73
6
 74
0
 42
0.0000001
 43
0.0000001
 44
0.0000000001
 40
0.0
 40
0.0
 40
0.0
 40
0.0
 40
0.2498440472
 40
0.4998963374
 40
1.0
 40
1.0
 40
1.0
 40
1.0
 10
-60.6167891821
 20
38.49
 30
0.0
 10
-60.6110457756
 20
35.2845318444
 30
0.0
 10
-60.6119760014
 20
28.8709080055
 30
0.0
 10
-60.6113444501
 20
16.0410141179
 30
0.0
 10
-60.6107901342
 20
6.4165897602
 30
0.0
 10
-60.6108215333
 20
0.0003114602
 30
0.0
  0
SPLINE
  5
3E4
100
AcDbEntity
  8
RACCORDO
100
AcDbSpline
 62
250
  6
CONTINUOUS
 70
0
 71
3
 72
11
 73
7
 74
0
 42
0.0000001
 43
0.0000001
 44
0.0000000001
 40
0.0
 40
0.0
 40
0.0
 40
0.0
 40
0.2498511851
 40
0.4999010907
 40
0.7499502022
 40
1.0
 40
1.0
 40
1.0
 40
1.0
 10
-59.3954469745
 20
38.6383560496
 30
0.0
 10
-59.4514110094
 20
35.4208941048
 30
0.0
 10
-59.4680715893
 20
28.9820726736
 30
0.0
 10
-59.4637403784
 20
19.3232650951
 30
0.0
 10
-59.4618121532
 20
9.6617128359
 30
0.0
 10
-59.4625811683
 20
3.220717163
 30
0.0
 10
-59.4633827761
 20
0.0002106157
 30
0.0
  0
SPLINE
  5
3E5
100
AcDbEntity
  8
RACCORDO
100
AcDbSpline
 62
250
  6
CONTINUOUS
 70
0
 71
3
 72
9
 73
5
 74
0
 42
0.0000001
 43
0.0000001
 44
0.0000000001
 40
0.0
 40
0.0
 40
0.0
 40
0.0
 40
0.5000036899
 40
1.0
 40
1.0
 40
1.0
 40
1.0
 10
-60.6108215333
 20
0.0003114602
 30
0.0
 10
-60.6108216429
 20
-6.4147877921
 30
0.0
 10
-60.612032664
 20
-19.2448913766
 30
0.0
 10
-60.6087836127
 20
-32.0749959068
 30
0.0
 10
-60.6112537135
 20
-38.49
 30
0.0
  0
SPLINE
  5
3E6
100
AcDbEntity
  8
RACCORDO
100
AcDbSpline
 62
250
  6
CONTINUOUS
 70
0
 71
3
 72
12
 73
8
 74
0
 42
0.0000001
 43
0.0000001
 44
0.0000000001
 40
0.0
 40
0.0
 40
0.0
 40
0.0
 40
0.250001632
 40
0.5000032644
 40
0.7500042479
 40
0.8750048204
 40
1.0
 40
1.0
 40
1.0
 40
1.0
 10
-59.4633831638
 20
0.0002106155
 30
0.0
 10
-59.4633832297
 20
-3.2099990204
 30
0.0
 10
-59.4611286574
 20
-9.6304185719
 30
0.0
 10
-59.4529224242
 20
-19.2610350071
 30
0.0
 10
-59.4423981716
 20
-27.2865439406
 30
0.0
 10
-59.4266676963
 20
-33.7068576344
 30
0.0
 10
-59.4120185105
 20
-36.9169709242
 30
0.0
 10
-59.3994206962
 20
-38.5219539258
 30
0.0
  0
SPLINE
  5
3E7
100
AcDbEntity
  8
RACCORDO
100
AcDbSpline
 62
250
  6
CONTINUOUS
 70
0
 71
3
 72
18
 73
14
 74
0
 42
0.0000001
 43
0.0000001
 44
0.0000000001
 40
0.0
 40
0.0
 40
0.0
 40
0.0
 40
0.2011187861
 40
0.3905231641
 40
0.5617423525
 40
0.709928422
 40
0.8308487865
 40
0.8800096532
 40
0.9211075326
 40
0.9537908254
 40
0.9778851576
 40
0.9932800096
 40
1.0
 40
1.0
 40
1.0
 40
1.0
 10
-59.3994200931
 20
-38.5219538537
 30
0.0
 10
-59.4807359577
 20
-38.521592856
 30
0.0
 10
-59.6386304872
 20
-38.5205884903
 30
0.0
 10
-59.8657420111
 20
-38.5181984965
 30
0.0
 10
-60.0714448986
 20
-38.5150172444
 30
0.0
 10
-60.2494264103
 20
-38.5111503325
 30
0.0
 10
-60.3780801915
 20
-38.5073042313
 30
0.0
 10
-60.463351544
 20
-38.5037685782
 30
0.0
 10
-60.5130884655
 20
-38.5013178792
 30
0.0
 10
-60.5523347825
 20
-38.4985465524
 30
0.0
 10
-60.5819861912
 20
-38.4964335239
 30
0.0
 10
-60.5994037909
 20
-38.4931099282
 30
0.0
 10
-60.6095038926
 20
-38.4921303747
 30
0.0
 10
-60.6111902348
 20
-38.4899999896
 30
0.0
  0
SPLINE
  5
3E8
100
AcDbEntity
  8
RACCORDO
100
AcDbSpline
 62
250
  6
CONTINUOUS
 70
0
 71
3
 72
11
 73
7
 74
0
 42
0.0000001
 43
0.0000001
 44
0.0000000001
 40
0.0
 40
0.0
 40
0.0
 40
0.0
 40
0.2508943361
 40
0.5013639047
 40
0.7510661331
 40
1.0
 40
1.0
 40
1.0
 40
1.0
 10
-59.3994200931
 20
-38.5219538537
 30
0.0
 10
-59.3971262202
 20
-38.8082916229
 30
0.0
 10
-59.2745246947
 20
-39.3856415163
 30
0.0
 10
-58.7776035715
 20
-40.1090888204
 30
0.0
 10
-58.0516259457
 20
-40.5973247392
 30
0.0
 10
-57.4780436362
 20
-40.7180702514
 30
0.0
 10
-57.1939503065
 20
-40.7210980408
 30
0.0
  0
SPLINE
  5
3E9
100
AcDbEntity
  8
RACCORDO
100
AcDbSpline
 62
250
  6
CONTINUOUS
 70
0
 71
3
 72
13
 73
9
 74
0
 42
0.0000001
 43
0.0000001
 44
0.0000000001
 40
0.0
 40
0.0
 40
0.0
 40
0.0
 40
0.3738463277
 40
0.6887266031
 40
0.8106220978
 40
0.9037213321
 40
0.9658734732
 40
1.0
 40
1.0
 40
1.0
 40
1.0
 10
-57.1939500662
 20
-40.7210979299
 30
0.0
 10
-57.1919660597
 20
-40.8982253162
 30
0.0
 10
-57.1804100129
 20
-41.2243393974
 30
0.0
 10
-57.1449371553
 20
-41.6076790673
 30
0.0
 10
-57.1035981104
 20
-41.854756362
 30
0.0
 10
-57.0704537125
 20
-41.9834730214
 30
0.0
 10
-57.0400408228
 20
-42.0649893549
 30
0.0
 10
-57.0060451437
 20
-42.1047144082
 30
0.0
 10
-56.99
 20
-42.1067205393
 30
0.0
  0
SPLINE
  5
3EA
100
AcDbEntity
  8
RACCORDO
100
AcDbSpline
 62
250
  6
CONTINUOUS
 70
0
 71
3
 72
9
 73
5
 74
0
 42
0.0000001
 43
0.0000001
 44
0.0000000001
 40
0.0
 40
0.0
 40
0.0
 40
0.0
 40
0.4991737793
 40
1.0
 40
1.0
 40
1.0
 40
1.0
 10
-56.99
 20
-42.1067205393
 30
0.0
 10
-52.5098280985
 20
-42.0958063435
 30
0.0
 10
-43.5346266531
 20
-42.0861089556
 30
0.0
 10
-34.5594266584
 20
-42.0823444042
 30
0.0
 10
-30.0644104684
 20
-42.0823346101
 30
0.0
  0
SPLINE
  5
3EB
100
AcDbEntity
  8
RACCORDO
100
AcDbSpline
 62
250
  6
CONTINUOUS
 70
0
 71
3
 72
12
 73
8
 74
0
 42
0.0000001
 43
0.0000001
 44
0.0000000001
 40
0.0
 40
0.0
 40
0.0
 40
0.0
 40
0.1243670113
 40
0.24913935
 40
0.4366341293
 40
0.6243277745
 40
1.0
 40
1.0
 40
1.0
 40
1.0
 10
-57.1939500662
 20
-40.7210979299
 30
0.0
 10
-56.0693306937
 20
-40.7328101344
 30
0.0
 10
-53.8164234032
 20
-40.7563812259
 30
0.0
 10
-49.8678682724
 20
-40.7768548821
 30
0.0
 10
-45.3465889814
 20
-40.7727586923
 30
0.0
 10
-38.5564038658
 20
-40.7571689783
 30
0.0
 10
-33.4617466574
 20
-40.7478721477
 30
0.0
 10
-30.0644554585
 20
-40.7513411382
 30
0.0
  0
SPLINE
  5
3EC
100
AcDbEntity
  8
RACCORDO
100
AcDbSpline
 62
250
  6
CONTINUOUS
 70
0
 71
3
 72
11
 73
7
 74
0
 42
0.0000001
 43
0.0000001
 44
0.0000000001
 40
0.0
 40
0.0
 40
0.0
 40
0.0
 40
0.2499657891
 40
0.500001489
 40
0.750052601
 40
1.0
 40
1.0
 40
1.0
 40
1.0
 10
33.4466818062
 20
27.8965327337
 30
0.0
 10
34.1883064264
 20
27.8920890125
 30
0.0
 10
35.6865164311
 20
27.5987351248
 30
0.0
 10
37.5882658753
 20
26.3364453527
 30
0.0
 10
38.8565518744
 20
24.438783391
 30
0.0
 10
39.1525613569
 20
22.9400437276
 30
0.0
 10
39.1553059136
 20
22.1984654357
 30
0.0
  0
SPLINE
  5
3ED
100
AcDbEntity
  8
RACCORDO
100
AcDbSpline
 62
250
  6
CONTINUOUS
 70
0
 71
3
 72
11
 73
7
 74
0
 42
0.0000001
 43
0.0000001
 44
0.0000000001
 40
0.0
 40
0.0
 40
0.0
 40
0.0
 40
0.4999999921
 40
0.7500000103
 40
0.8750000227
 40
1.0
 40
1.0
 40
1.0
 40
1.0
 10
-0.0030240817
 20
27.9106135053
 30
0.0
 10
5.5719352584
 20
27.9068799781
 30
0.0
 10
13.934381777
 20
27.9107462579
 30
0.0
 10
23.6905516994
 20
27.9255255631
 30
0.0
 10
29.2655214557
 20
27.9201029074
 30
0.0
 10
32.0529669685
 20
27.9048938783
 30
0.0
 10
33.4466818047
 20
27.8965327255
 30
0.0
  0
SPLINE
  5
3EE
100
AcDbEntity
  8
RACCORDO
100
AcDbSpline
 62
250
  6
CONTINUOUS
 70
0
 71
3
 72
11
 73
7
 74
0
 42
0.0000001
 43
0.0000001
 44
0.0000000001
 40
0.0
 40
0.0
 40
0.0
 40
0.0
 40
0.1249999761
 40
0.2499999824
 40
0.5000000043
 40
1.0
 40
1.0
 40
1.0
 40
1.0
 10
-33.4466818047
 20
27.8965327251
 30
0.0
 10
-32.0532190002
 20
27.9048949509
 30
0.0
 10
-29.2662774937
 20
27.9200820273
 30
0.0
 10
-23.6923158864
 20
27.9255358935
 30
0.0
 10
-13.9379099535
 20
27.9107458481
 30
0.0
 10
-5.5769754277
 20
27.9068762442
 30
0.0
 10
-0.0030240815
 20
27.9106109122
 30
0.0
  0
SPLINE
  5
3EF
100
AcDbEntity
  8
RACCORDO
100
AcDbSpline
 62
250
  6
CONTINUOUS
 70
0
 71
3
 72
11
 73
7
 74
0
 42
0.0000001
 43
0.0000001
 44
0.0000000001
 40
0.0
 40
0.0
 40
0.0
 40
0.0
 40
0.249952528
 40
0.4999843242
 40
0.750016509
 40
1.0
 40
1.0
 40
1.0
 40
1.0
 10
-39.1553059084
 20
22.1984654348
 30
0.0
 10
-39.1525684479
 20
22.9400592599
 30
0.0
 10
-38.8565678818
 20
24.4387647532
 30
0.0
 10
-37.5883089764
 20
26.3363653054
 30
0.0
 10
-35.6866187141
 20
27.598713965
 30
0.0
 10
-34.1883592052
 20
27.8920836915
 30
0.0
 10
-33.4466818056
 20
27.8965327304
 30
0.0
  0
SPLINE
  5
3F0
100
AcDbEntity
  8
RACCORDO
100
AcDbSpline
 62
250
  6
CONTINUOUS
 70
0
 71
3
 72
9
 73
5
 74
0
 42
0.0000001
 43
0.0000001
 44
0.0000000001
 40
0.0
 40
0.0
 40
0.0
 40
0.0
 40
0.50000009
 40
1.0
 40
1.0
 40
1.0
 40
1.0
 10
-39.1628665003
 20
0.000076942
 30
0.0
 10
-39.1700184576
 20
3.6998030832
 30
0.0
 10
-39.1628682636
 20
11.0992674725
 30
0.0
 10
-39.1690028382
 20
18.4987590673
 30
0.0
 10
-39.1553059081
 20
22.1984654348
 30
0.0
  0
SPLINE
  5
3F1
100
AcDbEntity
  8
RACCORDO
100
AcDbSpline
 62
250
  6
CONTINUOUS
 70
0
 71
3
 72
11
 73
7
 74
0
 42
0.0000001
 43
0.0000001
 44
0.0000000001
 40
0.0
 40
0.0
 40
0.0
 40
0.0
 40
0.2499998301
 40
0.6249999167
 40
0.8124999633
 40
1.0
 40
1.0
 40
1.0
 40
1.0
 10
-39.1165773213
 20
-22.1937909114
 30
0.0
 10
-39.1147003453
 20
-20.344299535
 30
0.0
 10
-39.1220737232
 20
-15.7205625087
 30
0.0
 10
-39.1406372406
 20
-9.709739258
 30
0.0
 10
-39.1563663828
 20
-4.161280967
 30
0.0
 10
-39.1628674585
 20
-1.3870435192
 30
0.0
 10
-39.162868125
 20
0.000076942
 30
0.0
  0
SPLINE
  5
3F2
100
AcDbEntity
  8
RACCORDO
100
AcDbSpline
 62
250
  6
CONTINUOUS
 70
0
 71
3
 72
9
 73
5
 74
0
 42
0.0000001
 43
0.0000001
 44
0.0000000001
 40
0.0
 40
0.0
 40
0.0
 40
0.0
 40
0.226287551
 40
1.0
 40
1.0
 40
1.0
 40
1.0
 10
-37.3541477061
 20
-22.2
 30
0.0
 10
-37.4870858876
 20
-22.1994170728
 30
0.0
 10
-38.0745611562
 20
-22.1970015012
 30
0.0
 10
-38.6620383919
 20
-22.1950799763
 30
0.0
 10
-39.1165773213
 20
-22.1937909114
 30
0.0
  0
SPLINE
  5
3F3
100
AcDbEntity
  8
RACCORDO
100
AcDbSpline
 62
250
  6
CONTINUOUS
 70
0
 71
3
 72
13
 73
9
 74
0
 42
0.0000001
 43
0.0000001
 44
0.0000000001
 40
0.0
 40
0.0
 40
0.0
 40
0.0
 40
0.1253263985
 40
0.2506385723
 40
0.4999470044
 40
0.7493866876
 40
0.8747057517
 40
1.0
 40
1.0
 40
1.0
 40
1.0
 10
-33.4469062613
 20
-27.9105692187
 30
0.0
 10
-33.8189603711
 20
-27.9096100703
 30
0.0
 10
-34.5651077287
 20
-27.83619032
 30
0.0
 10
-35.9931917197
 20
-27.4023033513
 30
0.0
 10
-37.5669369932
 20
-26.328728726
 30
0.0
 10
-38.6141329912
 20
-24.7408611821
 30
0.0
 10
-39.0441907496
 20
-23.3120527625
 30
0.0
 10
-39.1169306686
 20
-22.5657506721
 30
0.0
 10
-39.1165776401
 20
-22.1937909378
 30
0.0
  0
SPLINE
  5
3F4
100
AcDbEntity
  8
RACCORDO
100
AcDbSpline
 62
250
  6
CONTINUOUS
 70
0
 71
3
 72
11
 73
7
 74
0
 42
0.0000001
 43
0.0000001
 44
0.0000000001
 40
0.0
 40
0.0
 40
0.0
 40
0.0
 40
0.2500373605
 40
0.4999794688
 40
0.7500095531
 40
1.0
 40
1.0
 40
1.0
 40
1.0
 10
-33.45
 20
-26.0970087231
 30
0.0
 10
-33.9573215617
 20
-26.097242852
 30
0.0
 10
-34.9832668799
 20
-25.8952281133
 30
0.0
 10
-36.2788608173
 20
-25.0266149017
 30
0.0
 10
-37.1502532681
 20
-23.7331866573
 30
0.0
 10
-37.3546524634
 20
-22.7072261776
 30
0.0
 10
-37.3541477061
 20
-22.2
 30
0.0
  0
SPLINE
  5
3F5
100
AcDbEntity
  8
RACCORDO
100
AcDbSpline
 62
250
  6
CONTINUOUS
 70
0
 71
3
 72
8
 73
4
 74
0
 42
0.0000001
 43
0.0000001
 44
0.0000000001
 40
0.0
 40
0.0
 40
0.0
 40
0.0
 40
1.0
 40
1.0
 40
1.0
 40
1.0
 10
-29.9989178823
 20
-27.9129875726
 30
0.0
 10
-31.1482458932
 20
-27.9109959671
 30
0.0
 10
-32.2975799107
 20
-27.9133662683
 30
0.0
 10
-33.4469062436
 20
-27.9105692114
 30
0.0
  0
SPLINE
  5
3F6
100
AcDbEntity
  8
RACCORDO
100
AcDbSpline
 62
250
  6
CONTINUOUS
 70
0
 71
3
 72
9
 73
5
 74
0
 42
0.0000001
 43
0.0000001
 44
0.0000000001
 40
0.0
 40
0.0
 40
0.0
 40
0.0
 40
0.2267042693
 40
1.0
 40
1.0
 40
1.0
 40
1.0
 10
-29.9956002681
 20
-26.0973483423
 30
0.0
 10
-29.9959277132
 20
-26.2345524272
 30
0.0
 10
-29.9971276104
 20
-26.8397639562
 30
0.0
 10
-29.9984304946
 20
-27.4449819684
 30
0.0
 10
-29.9967053931
 20
-27.9129877751
 30
0.0
  0
SPLINE
  5
3F7
100
AcDbEntity
  8
RACCORDO
100
AcDbSpline
 62
250
  6
CONTINUOUS
 70
0
 71
3
 72
8
 73
4
 74
0
 42
0.0000001
 43
0.0000001
 44
0.0000000001
 40
0.0
 40
0.0
 40
0.0
 40
0.0
 40
1.0
 40
1.0
 40
1.0
 40
1.0
 10
33.4469062444
 20
-27.9105692114
 30
0.0
 10
32.296842419
 20
-27.913368027
 30
0.0
 10
31.1467709012
 20
-27.9109958363
 30
0.0
 10
29.9967054015
 20
-27.9129914159
 30
0.0
  0
SPLINE
  5
3F8
100
AcDbEntity
  8
RACCORDO
100
AcDbSpline
 62
250
  6
CONTINUOUS
 70
0
 71
3
 72
13
 73
9
 74
0
 42
0.0000001
 43
0.0000001
 44
0.0000000001
 40
0.0
 40
0.0
 40
0.0
 40
0.0
 40
0.1252939761
 40
0.2506135455
 40
0.5000529553
 40
0.7493610913
 40
0.8746733274
 40
1.0
 40
1.0
 40
1.0
 40
1.0
 10
39.1165776467
 20
-22.1937909385
 30
0.0
 10
39.1169391365
 20
-22.5657498338
 30
0.0
 10
39.0441832906
 20
-23.3120527529
 30
0.0
 10
38.6141194833
 20
-24.7408565888
 30
0.0
 10
37.5669374531
 20
-26.3287303792
 30
0.0
 10
35.9931983678
 20
-27.4023170794
 30
0.0
 10
34.5651084934
 20
-27.83619053
 30
0.0
 10
33.8189611393
 20
-27.9096019905
 30
0.0
 10
33.4469062597
 20
-27.910569218
 30
0.0
  0
SPLINE
  5
3F9
100
AcDbEntity
  8
RACCORDO
100
AcDbSpline
 62
250
  6
CONTINUOUS
 70
0
 71
3
 72
9
 73
5
 74
0
 42
0.0000001
 43
0.0000001
 44
0.0000000001
 40
0.0
 40
0.0
 40
0.0
 40
0.0
 40
0.2262880388
 40
1.0
 40
1.0
 40
1.0
 40
1.0
 10
37.3541413657
 20
-22.1999999998
 30
0.0
 10
37.4870803368
 20
-22.1994171265
 30
0.0
 10
38.0745578281
 20
-22.1970017448
 30
0.0
 10
38.6620372853
 20
-22.195080183
 30
0.0
 10
39.1165776467
 20
-22.1937909385
 30
0.0
  0
SPLINE
  5
3FA
100
AcDbEntity
  8
RACCORDO
100
AcDbSpline
 62
250
  6
CONTINUOUS
 70
0
 71
3
 72
11
 73
7
 74
0
 42
0.0000001
 43
0.0000001
 44
0.0000000001
 40
0.0
 40
0.0
 40
0.0
 40
0.0
 40
0.2499907139
 40
0.5000206626
 40
0.7499622975
 40
1.0
 40
1.0
 40
1.0
 40
1.0
 10
37.3541477061
 20
-22.2
 30
0.0
 10
37.3546554862
 20
-22.7072267041
 30
0.0
 10
37.1502500523
 20
-23.7331872579
 30
0.0
 10
36.2788608254
 20
-25.0266143929
 30
0.0
 10
34.9832674234
 20
-25.8952307982
 30
0.0
 10
33.9573222451
 20
-26.0972388319
 30
0.0
 10
33.45
 20
-26.0970087231
 30
0.0
  0
SPLINE
  5
3FB
100
AcDbEntity
  8
RACCORDO
100
AcDbSpline
 62
250
  6
CONTINUOUS
 70
0
 71
3
 72
10
 73
6
 74
0
 42
0.0000001
 43
0.0000001
 44
0.0000000001
 40
0.0
 40
0.0
 40
0.0
 40
0.0
 40
0.2500000585
 40
0.6250001951
 40
1.0
 40
1.0
 40
1.0
 40
1.0
 10
39.1628681249
 20
0.0001431276
 30
0.0
 10
39.1628672274
 20
-1.8493562034
 30
0.0
 10
39.1499302984
 20
-6.4730963522
 30
0.0
 10
39.1278743896
 20
-13.8710475128
 30
0.0
 10
39.1137618582
 20
-19.419545436
 30
0.0
 10
39.1165773213
 20
-22.1937909112
 30
0.0
  0
SPLINE
  5
3FC
100
AcDbEntity
  8
RACCORDO
100
AcDbSpline
 62
250
  6
CONTINUOUS
 70
0
 71
3
 72
9
 73
5
 74
0
 42
0.0000001
 43
0.0000001
 44
0.0000000001
 40
0.0
 40
0.0
 40
0.0
 40
0.0
 40
0.49999991
 40
1.0
 40
1.0
 40
1.0
 40
1.0
 10
39.1553059081
 20
22.1984654348
 30
0.0
 10
39.169001043
 20
18.4987700919
 30
0.0
 10
39.162866975
 20
11.0993005684
 30
0.0
 10
39.1700189622
 20
3.6998582369
 30
0.0
 10
39.1628666283
 20
0.0001431276
 30
0.0
  0
SPLINE
  5
3FD
100
AcDbEntity
  8
RACCORDO
100
AcDbSpline
 62
250
  6
CONTINUOUS
 70
0
 71
3
 72
18
 73
14
 74
0
 42
0.0000001
 43
0.0000001
 44
0.0000000001
 40
0.0
 40
0.0
 40
0.0
 40
0.0
 40
0.1236587689
 40
0.2492442606
 40
0.3123451378
 40
0.3751510376
 40
0.4376963333
 40
0.5001299662
 40
0.6249213021
 40
0.6873392671
 40
0.7498095141
 40
0.8748857376
 40
1.0
 40
1.0
 40
1.0
 40
1.0
 10
-30.0234542725
 20
-40.7513327527
 30
0.0
 10
-29.9092064215
 20
-40.2339539959
 30
0.0
 10
-29.8441213471
 20
-39.1556321779
 30
0.0
 10
-29.9697251285
 20
-37.8239155447
 30
0.0
 10
-30.0688053681
 20
-36.7507251227
 30
0.0
 10
-30.1083561618
 20
-35.9439090851
 30
0.0
 10
-30.1102928732
 20
-35.1391038485
 30
0.0
 10
-30.0817200262
 20
-34.0692093658
 30
0.0
 10
-30.0264081841
 20
-33.0009290037
 30
0.0
 10
-29.9903750905
 20
-31.9316777397
 30
0.0
 10
-29.9759597135
 20
-30.8606865589
 30
0.0
 10
-29.9839144016
 20
-29.5209912008
 30
0.0
 10
-29.9960501665
 20
-28.4490651044
 30
0.0
 10
-29.9978105186
 20
-27.9129888584
 30
0.0
  0
SPLINE
  5
3FE
100
AcDbEntity
  8
RACCORDO
100
AcDbSpline
 62
250
  6
CONTINUOUS
 70
0
 71
3
 72
13
 73
9
 74
0
 42
0.0000001
 43
0.0000001
 44
0.0000000001
 40
0.0
 40
0.0
 40
0.0
 40
0.0
 40
0.2432065673
 40
0.3671307642
 40
0.4922451277
 40
0.6183292442
 40
0.7451639532
 40
1.0
 40
1.0
 40
1.0
 40
1.0
 10
0.0034230324
 20
41.1387299689
 30
0.0
 10
0.006262978
 20
40.0663446979
 30
0.0
 10
0.0008156609
 20
38.4475242003
 30
0.0
 10
-0.0016490218
 20
36.2770314964
 30
0.0
 10
0.0016469582
 20
34.6229781112
 30
0.0
 10
0.0041462096
 20
32.9560836598
 30
0.0
 10
-0.0027226988
 20
30.7172248223
 30
0.0
 10
-0.00986011
 20
29.0342342225
 30
0.0
 10
0.000412428
 20
27.9106134079
 30
0.0
  0
SPLINE
  5
3FF
100
AcDbEntity
  8
0
100
AcDbSpline
 62
250
  6
CONTINUOUS
 70
0
 71
3
 72
8
 73
4
 74
0
 42
0.0000001
 43
0.0000001
 44
0.0000000001
 40
0.0
 40
0.0
 40
0.0
 40
0.0
 40
1.0
 40
1.0
 40
1.0
 40
1.0
 10
29.9046575279
 20
-32.3399944631
 30
0.0
 10
29.8939732244
 20
-31.836362142
 30
0.0
 10
29.9477095938
 20
-31.3286210254
 30
0.0
 10
30.053466796
 20
-30.8361019056
 30
0.0
  0
LINE
  5
400
100
AcDbEntity
  8
0
100
AcDbLine
 62
7
  6
CONTINUOUS
 10
-100.061971565
 20
41.792262726
 11
-100.5990811595
 21
41.7865788733
  0
LINE
  5
401
100
AcDbEntity
  8
RACCORDO
100
AcDbLine
 62
7
  6
CONTINUOUS
 10
-109.8121428936
 20
20.5651528521
 11
-109.8122503793
 21
18.6672913649
  0
LINE
  5
402
100
AcDbEntity
  8
RACCORDO
100
AcDbLine
 62
7
  6
CONTINUOUS
 10
-109.8122503793
 20
18.6672913649
 11
-109.8124921546
 21
0.2393365184
  0
SPLINE
  5
403
100
AcDbEntity
  8
RACCORDO
100
AcDbSpline
 62
7
  6
CONTINUOUS
 70
0
 71
3
 72
9
 73
5
 74
0
 42
0.0000001
 43
0.0000001
 44
0.0000000001
 40
0.0
 40
0.0
 40
0.0
 40
0.0
 40
0.4999999319
 40
1.0
 40
1.0
 40
1.0
 40
1.0
 10
-110.4147370042
 20
-26.0970087037
 30
0.0
 10
-110.222173232
 20
-26.3557676839
 30
0.0
 10
-109.9179585296
 20
-26.9387554973
 30
0.0
 10
-109.8136749523
 20
-27.5880214589
 30
0.0
 10
-109.8135326013
 20
-27.9105692114
 30
0.0
  0
SPLINE
  5
404
100
AcDbEntity
  8
RACCORDO
100
AcDbSpline
 62
7
  6
CONTINUOUS
 70
0
 71
3
 72
9
 73
5
 74
0
 42
0.0000001
 43
0.0000001
 44
0.0000000001
 40
0.0
 40
0.0
 40
0.0
 40
0.0
 40
0.4999999206
 40
1.0
 40
1.0
 40
1.0
 40
1.0
 10
-110.4141155911
 20
26.0978395833
 30
0.0
 10
-110.2226851822
 20
26.3545199279
 30
0.0
 10
-109.9195020618
 20
26.9324476997
 30
0.0
 10
-109.8130615757
 20
27.5763350231
 30
0.0
 10
-109.8110887415
 20
27.8965327337
 30
0.0
  0
SPLINE
  5
405
100
AcDbEntity
  8
RACCORDO
100
AcDbSpline
 62
250
  6
CONTINUOUS
 70
0
 71
3
 72
9
 73
5
 74
0
 42
0.0000001
 43
0.0000001
 44
0.0000000001
 40
0.0
 40
0.0
 40
0.0
 40
0.0
 40
0.4999997495
 40
1.0
 40
1.0
 40
1.0
 40
1.0
 10
-109.8124949291
 20
-0.1495525495
 30
0.0
 10
-109.8121787746
 20
-3.8235919398
 30
0.0
 10
-109.8025524375
 20
-11.1716691502
 30
0.0
 10
-109.8003754764
 20
-18.5197556815
 30
0.0
 10
-109.7927781158
 20
-22.1937909112
 30
0.0
  0
SPLINE
  5
406
100
AcDbEntity
  8
RACCORDO
100
AcDbSpline
 62
250
  6
CONTINUOUS
 70
0
 71
3
 72
18
 73
14
 74
0
 42
0.0000001
 43
0.0000001
 44
0.0000000001
 40
0.0
 40
0.0
 40
0.0
 40
0.0
 40
0.0032287907
 40
0.0129184819
 40
0.0293972478
 40
0.0528306981
 40
0.0833136598
 40
0.1209269037
 40
0.2177768818
 40
0.3442014355
 40
0.5048129662
 40
0.7144792853
 40
1.0
 40
1.0
 40
1.0
 40
1.0
 10
-109.1647169942
 20
-40.7513411083
 30
0.0
 10
-109.1647776019
 20
-40.7498255162
 30
0.0
 10
-109.1551466964
 20
-40.7510240992
 30
0.0
 10
-109.1448060117
 20
-40.7501753004
 30
0.0
 10
-109.1195478547
 20
-40.7526494774
 30
0.0
 10
-109.0874852877
 20
-40.7548242271
 30
0.0
 10
-109.0442462024
 20
-40.7581473296
 30
0.0
 10
-108.9671029564
 20
-40.7632239864
 30
0.0
 10
-108.8445911127
 20
-40.7697253055
 30
0.0
 10
-108.6643624179
 20
-40.7751260603
 30
0.0
 10
-108.4309037926
 20
-40.7728456387
 30
0.0
 10
-108.1234421652
 20
-40.7518222855
 30
0.0
 10
-107.8917506129
 20
-40.7311374689
 30
0.0
 10
-107.7579965317
 20
-40.7210978117
 30
0.0
  0
SPLINE
  5
407
100
AcDbEntity
  8
RACCORDO
100
AcDbSpline
 62
250
  6
CONTINUOUS
 70
0
 71
3
 72
11
 73
7
 74
0
 42
0.0000001
 43
0.0000001
 44
0.0000000001
 40
0.0
 40
0.0
 40
0.0
 40
0.0
 40
0.2511043715
 40
0.5015190515
 40
0.7510581588
 40
1.0
 40
1.0
 40
1.0
 40
1.0
 10
-107.7580000948
 20
-40.721098041
 30
0.0
 10
-107.7465540723
 20
-40.903302182
 30
0.0
 10
-107.6553215859
 20
-41.2664803842
 30
0.0
 10
-107.3319468633
 20
-41.7216304311
 30
0.0
 10
-106.8667100931
 20
-42.0277379519
 30
0.0
 10
-106.5019398728
 20
-42.1035212396
 30
0.0
 10
-106.3209763748
 20
-42.1066795194
 30
0.0
  0
SPLINE
  5
408
100
AcDbEntity
  8
RACCORDO
100
AcDbSpline
 62
250
  6
CONTINUOUS
 70
0
 71
3
 72
16
 73
12
 74
0
 42
0.0000001
 43
0.0000001
 44
0.0000000001
 40
0.0
 40
0.0
 40
0.0
 40
0.0
 40
0.00914882
 40
0.0251823434
 40
0.0830188922
 40
0.1751454005
 40
0.298604523
 40
0.4489020358
 40
0.6203543951
 40
0.8064687727
 40
1.0
 40
1.0
 40
1.0
 40
1.0
 10
-106.3209770895
 20
-42.1067205393
 30
0.0
 10
-106.3098365417
 20
-42.1068999323
 30
0.0
 10
-106.2826939454
 20
-42.0843458315
 30
0.0
 10
-106.2439725334
 20
-41.9923505663
 30
0.0
 10
-106.200033233
 20
-41.7923608405
 30
0.0
 10
-106.1574073215
 20
-41.4631204681
 30
0.0
 10
-106.1189490469
 20
-41.0186198151
 30
0.0
 10
-106.088244869
 20
-40.4774033232
 30
0.0
 10
-106.0667978943
 20
-39.8591680732
 30
0.0
 10
-106.0566133761
 20
-39.1880637823
 30
0.0
 10
-106.0582082572
 20
-38.7256742442
 30
0.0
 10
-106.0612717177
 20
-38.49
 30
0.0
  0
SPLINE
  5
409
100
AcDbEntity
  8
RACCORDO
100
AcDbSpline
 62
250
  6
CONTINUOUS
 70
0
 71
3
 72
14
 73
10
 74
0
 42
0.0000001
 43
0.0000001
 44
0.0000000001
 40
0.0
 40
0.0
 40
0.0
 40
0.0
 40
0.0329293352
 40
0.0598789293
 40
0.0947284439
 40
0.1878684866
 40
0.3102100833
 40
0.6261922149
 40
1.0
 40
1.0
 40
1.0
 40
1.0
 10
-107.7580000948
 20
-40.721098041
 30
0.0
 10
-107.7333895977
 20
-40.7192074556
 30
0.0
 10
-107.6989098051
 20
-40.6781858887
 30
0.0
 10
-107.6699486234
 20
-40.6160432668
 30
0.0
 10
-107.6317801481
 20
-40.5049499172
 30
0.0
 10
-107.5924631942
 20
-40.3218154938
 30
0.0
 10
-107.5345493027
 20
-39.9271621387
 30
0.0
 10
-107.4911485819
 20
-39.3194774802
 30
0.0
 10
-107.4848981197
 20
-38.8020920903
 30
0.0
 10
-107.4906357665
 20
-38.5219538538
 30
0.0
  0
SPLINE
  5
40A
100
AcDbEntity
  8
RACCORDO
100
AcDbSpline
 62
250
  6
CONTINUOUS
 70
0
 71
3
 72
13
 73
9
 74
0
 42
0.0000001
 43
0.0000001
 44
0.0000000001
 40
0.0
 40
0.0
 40
0.0
 40
0.0
 40
0.1249986213
 40
0.2499987923
 40
0.3749989914
 40
0.4999991942
 40
0.7499995912
 40
1.0
 40
1.0
 40
1.0
 40
1.0
 10
-106.0612717177
 20
-38.49
 30
0.0
 10
-106.0966419126
 20
-36.8866354903
 30
0.0
 10
-106.1104822086
 20
-33.6788271955
 30
0.0
 10
-106.0989165251
 20
-28.8676367453
 30
0.0
 10
-106.085878984
 20
-24.0563032478
 30
0.0
 10
-106.0774136527
 20
-17.6412155067
 30
0.0
 10
-106.0817114005
 20
-9.6223350386
 30
0.0
 10
-106.0860282184
 20
-3.2072383544
 30
0.0
 10
-106.0860313047
 20
0.0003114602
 30
0.0
  0
LINE
  5
40B
100
AcDbEntity
  8
RACCORDO
100
AcDbLine
 62
250
  6
CONTINUOUS
 10
-110.4093746406
 20
-22.2
 11
-110.4092600704
 21
-22.4100070477
  0
LINE
  5
40C
100
AcDbEntity
  8
RACCORDO
100
AcDbLine
 62
250
  6
CONTINUOUS
 10
-110.4092600704
 20
-22.4100070477
 11
-110.4093200249
 21
-22.8509505752
  0
SPLINE
  5
40D
100
AcDbEntity
  8
RACCORDO
100
AcDbSpline
 62
250
  6
CONTINUOUS
 70
0
 71
3
 72
11
 73
7
 74
0
 42
0.0000001
 43
0.0000001
 44
0.0000000001
 40
0.0
 40
0.0
 40
0.0
 40
0.0
 40
0.4151270761
 40
0.7248866328
 40
0.9213553927
 40
1.0
 40
1.0
 40
1.0
 40
1.0
 10
-110.4093662775
 20
-22.1999999998
 30
0.0
 10
-110.3240428621
 20
-22.1995065496
 30
0.0
 10
-110.1750827416
 20
-22.1982418462
 30
0.0
 10
-109.9856205871
 20
-22.1977631505
 30
0.0
 10
-109.8655872416
 20
-22.1944775142
 30
0.0
 10
-109.8088477691
 20
-22.1956583632
 30
0.0
 10
-109.7927914583
 20
-22.1937909385
 30
0.0
  0
SPLINE
  5
40E
100
AcDbEntity
  8
RACCORDO
100
AcDbSpline
 62
250
  6
CONTINUOUS
 70
0
 71
3
 72
22
 73
18
 74
0
 42
0.0000001
 43
0.0000001
 44
0.0000000001
 40
0.0
 40
0.0
 40
0.0
 40
0.0
 40
0.1942736094
 40
0.3812092367
 40
0.5537415192
 40
0.7053736273
 40
0.7715663619
 40
0.8304637084
 40
0.8813695051
 40
0.9236645704
 40
0.9568507196
 40
0.9699448966
 40
0.9806837791
 40
0.989053112
 40
0.9950557483
 40
0.9987013599
 40
1.0
 40
1.0
 40
1.0
 40
1.0
 10
-109.7927914583
 20
-22.1937909385
 30
0.0
 10
-109.7920287316
 20
-22.5640005702
 30
0.0
 10
-109.7920823326
 20
-23.2904407009
 30
0.0
 10
-109.7964223396
 20
-24.3456511412
 30
0.0
 10
-109.8028854458
 20
-25.3195887013
 30
0.0
 10
-109.8074418706
 20
-26.0634452767
 30
0.0
 10
-109.8090851482
 20
-26.5907689639
 30
0.0
 10
-109.8094393472
 20
-26.9261484696
 30
0.0
 10
-109.8096747133
 20
-27.2159903108
 30
0.0
 10
-109.8101927167
 20
-27.4568303407
 30
0.0
 10
-109.8107992034
 20
-27.6256297461
 30
0.0
 10
-109.8115043185
 20
-27.7342690714
 30
0.0
 10
-109.8118119539
 20
-27.7956652251
 30
0.0
 10
-109.8126223104
 20
-27.8434307307
 30
0.0
 10
-109.8121891178
 20
-27.8779543389
 30
0.0
 10
-109.8140324044
 20
-27.8984703718
 30
0.0
 10
-109.812666577
 20
-27.9082569434
 30
0.0
 10
-109.8135483687
 20
-27.910569218
 30
0.0
  0
SPLINE
  5
40F
100
AcDbEntity
  8
RACCORDO
100
AcDbSpline
 62
250
  6
CONTINUOUS
 70
0
 71
3
 72
13
 73
9
 74
0
 42
0.0000001
 43
0.0000001
 44
0.0000000001
 40
0.0
 40
0.0
 40
0.0
 40
0.0
 40
0.124997243
 40
0.2499972816
 40
0.3749976134
 40
0.4999980331
 40
0.749998971
 40
1.0
 40
1.0
 40
1.0
 40
1.0
 10
-107.4906390317
 20
-38.5219539255
 30
0.0
 10
-107.5235829273
 20
-36.9172376307
 30
0.0
 10
-107.5348306957
 20
-33.7068281627
 30
0.0
 10
-107.520830924
 20
-28.8917018011
 30
0.0
 10
-107.5061043864
 20
-24.0764196727
 30
0.0
 10
-107.4958675257
 20
-17.6560520363
 30
0.0
 10
-107.4986252783
 20
-9.6305653341
 30
0.0
 10
-107.5024044645
 20
-3.2101834441
 30
0.0
 10
-107.5024063347
 20
0.0000094098
 30
0.0
  0
SPLINE
  5
410
100
AcDbEntity
  8
RACCORDO
100
AcDbSpline
 62
250
  6
CONTINUOUS
 70
0
 71
3
 72
15
 73
11
 74
0
 42
0.0000001
 43
0.0000001
 44
0.0000000001
 40
0.0
 40
0.0
 40
0.0
 40
0.0
 40
0.250001008
 40
0.3750015528
 40
0.5000020968
 40
0.6250026327
 40
0.7500031788
 40
0.8750026649
 40
0.9375022494
 40
1.0
 40
1.0
 40
1.0
 40
1.0
 10
-106.0860313047
 20
0.0003114602
 30
0.0
 10
-106.0869307328
 20
3.2084562443
 30
0.0
 10
-106.0796150419
 20
8.0206763021
 30
0.0
 10
-106.0601219217
 20
14.4369389343
 30
0.0
 10
-106.0463588432
 20
19.2491316163
 30
0.0
 10
-106.039576844
 20
24.0613749145
 30
0.0
 10
-106.0403025429
 20
28.8734804825
 30
0.0
 10
-106.0280369801
 20
32.8839474326
 30
0.0
 10
-105.9353133966
 20
36.090919972
 30
0.0
 10
-105.826040222
 20
37.6921881271
 30
0.0
 10
-105.7441449352
 20
38.49
 30
0.0
  0
SPLINE
  5
411
100
AcDbEntity
  8
RACCORDO
100
AcDbSpline
 62
250
  6
CONTINUOUS
 70
0
 71
3
 72
14
 73
10
 74
0
 42
0.0000001
 43
0.0000001
 44
0.0000000001
 40
0.0
 40
0.0
 40
0.0
 40
0.0
 40
0.250009035
 40
0.3750135954
 40
0.500018152
 40
0.6250227009
 40
0.7500272476
 40
0.8750301524
 40
1.0
 40
1.0
 40
1.0
 40
1.0
 10
-107.5024054079
 20
0.0000094098
 30
0.0
 10
-107.5034892672
 20
3.2205340453
 30
0.0
 10
-107.496277095
 20
8.0513282426
 30
0.0
 10
-107.4765649081
 20
14.4923403879
 30
0.0
 10
-107.4625624557
 20
19.3231315886
 30
0.0
 10
-107.4555084637
 20
24.1538344089
 30
0.0
 10
-107.4568953021
 20
28.9849131246
 30
0.0
 10
-107.4417852289
 20
33.8140684557
 30
0.0
 10
-107.3269779171
 20
37.0364088281
 30
0.0
 10
-107.1680066288
 20
38.6383560971
 30
0.0
  0
SPLINE
  5
412
100
AcDbEntity
  8
RACCORDO
100
AcDbSpline
 62
250
  6
CONTINUOUS
 70
0
 71
3
 72
9
 73
5
 74
0
 42
0.0000001
 43
0.0000001
 44
0.0000000001
 40
0.0
 40
0.0
 40
0.0
 40
0.0
 40
0.3469521245
 40
1.0
 40
1.0
 40
1.0
 40
1.0
 10
-107.1680060928
 20
38.6383560423
 30
0.0
 10
-107.0034877749
 20
38.6197945308
 30
0.0
 10
-106.528740672
 20
38.5714545841
 30
0.0
 10
-106.0541427439
 20
38.5218327602
 30
0.0
 10
-105.7441449317
 20
38.49
 30
0.0
  0
SPLINE
  5
413
100
AcDbEntity
  8
RACCORDO
100
AcDbSpline
 62
250
  6
CONTINUOUS
 70
0
 71
3
 72
17
 73
13
 74
0
 42
0.0000001
 43
0.0000001
 44
0.0000000001
 40
0.0
 40
0.0
 40
0.0
 40
0.0
 40
0.1942622482
 40
0.381133264
 40
0.5534183482
 40
0.704462866
 40
0.8284283329
 40
0.9205590173
 40
0.9535800534
 40
0.977570702
 40
0.9925851261
 40
1.0
 40
1.0
 40
1.0
 40
1.0
 10
-105.7441449352
 20
38.49
 30
0.0
 10
-105.7298326431
 20
38.72551137
 30
0.0
 10
-105.7048123214
 20
39.1877611882
 30
0.0
 10
-105.6760302548
 20
39.8593326755
 30
0.0
 10
-105.6559377112
 20
40.4786663099
 30
0.0
 10
-105.6446752251
 20
41.0219261861
 30
0.0
 10
-105.6424560729
 20
41.4676229638
 30
0.0
 10
-105.6499887204
 20
41.7707181823
 30
0.0
 10
-105.6628506667
 20
41.9507547553
 30
0.0
 10
-105.6770173399
 20
42.0385384408
 30
0.0
 10
-105.6879639111
 20
42.0911742742
 30
0.0
 10
-105.7084982469
 20
42.1174100731
 30
0.0
 10
-105.7175028106
 20
42.1172542221
 30
0.0
  0
SPLINE
  5
414
100
AcDbEntity
  8
RACCORDO
100
AcDbSpline
 62
250
  6
CONTINUOUS
 70
0
 71
3
 72
15
 73
11
 74
0
 42
0.0000001
 43
0.0000001
 44
0.0000000001
 40
0.0
 40
0.0
 40
0.0
 40
0.0
 40
0.3713465043
 40
0.5395981446
 40
0.6885892712
 40
0.8131515639
 40
0.9084585051
 40
0.970495681
 40
0.9886863104
 40
1.0
 40
1.0
 40
1.0
 40
1.0
 10
-107.1680060928
 20
38.6383560423
 30
0.0
 10
-107.1395607109
 20
38.9249988517
 30
0.0
 10
-107.1069136327
 20
39.3423991554
 30
0.0
 10
-107.0780305353
 20
39.8757966804
 30
0.0
 10
-107.065322256
 20
40.2182004039
 30
0.0
 10
-107.0612893399
 20
40.5045823199
 30
0.0
 10
-107.0671405719
 20
40.7226602805
 30
0.0
 10
-107.0820480287
 20
40.8594559326
 30
0.0
 10
-107.1042244928
 20
40.9266239592
 30
0.0
 10
-107.1221022056
 20
40.9448242894
 30
0.0
 10
-107.1306986629
 20
40.9465901182
 30
0.0
  0
SPLINE
  5
415
100
AcDbEntity
  8
RACCORDO
100
AcDbSpline
 62
250
  6
CONTINUOUS
 70
0
 71
3
 72
11
 73
7
 74
0
 42
0.0000001
 43
0.0000001
 44
0.0000000001
 40
0.0
 40
0.0
 40
0.0
 40
0.0
 40
0.2506331319
 40
0.5008335289
 40
0.7505663173
 40
1.0
 40
1.0
 40
1.0
 40
1.0
 10
-107.1306975279
 20
40.9465898744
 30
0.0
 10
-107.0965158944
 20
41.1077267671
 30
0.0
 10
-106.9732095886
 20
41.4207470757
 30
0.0
 10
-106.6452742827
 20
41.8012586537
 30
0.0
 10
-106.2111006066
 20
42.0524319362
 30
0.0
 10
-105.8814119743
 20
42.1143931753
 30
0.0
 10
-105.7175028106
 20
42.1172542221
 30
0.0
  0
SPLINE
  5
416
100
AcDbEntity
  8
RACCORDO
100
AcDbSpline
 62
250
  6
CONTINUOUS
 70
0
 71
3
 72
13
 73
9
 74
0
 42
0.0000001
 43
0.0000001
 44
0.0000000001
 40
0.0
 40
0.0
 40
0.0
 40
0.0
 40
0.5631342258
 40
0.7318981719
 40
0.8464949327
 40
0.9203253326
 40
0.9647432965
 40
1.0
 40
1.0
 40
1.0
 40
1.0
 10
-107.1306975279
 20
40.9465898744
 30
0.0
 10
-107.2301274467
 20
40.9669964499
 30
0.0
 10
-107.3585460092
 20
40.9966594174
 30
0.0
 10
-107.5057200676
 20
41.038674106
 30
0.0
 10
-107.5663842879
 20
41.058229569
 30
0.0
 10
-107.606629032
 20
41.0743806617
 30
0.0
 10
-107.6292634584
 20
41.0849996531
 30
0.0
 10
-107.6444016433
 20
41.0976108102
 30
0.0
 10
-107.6423553114
 20
41.103627187
 30
0.0
  0
SPLINE
  5
417
100
AcDbEntity
  8
0
100
AcDbSpline
 62
7
  6
CONTINUOUS
 70
0
 71
3
 72
18
 73
14
 74
0
 42
0.0000001
 43
0.0000001
 44
0.0000000001
 40
0.0
 40
0.0
 40
0.0
 40
0.0
 40
0.0046077131
 40
0.0180054511
 40
0.0401659015
 40
0.0709956607
 40
0.1102924038
 40
0.1577997945
 40
0.2763232739
 40
0.423657725
 40
0.5962817307
 40
0.789952971
 40
1.0
 40
1.0
 40
1.0
 40
1.0
 10
-109.9842585062
 20
-29.5499331129
 30
0.0
 10
-109.9833189097
 20
-29.5499331129
 30
0.0
 10
-109.9839817413
 20
-29.5556445812
 30
0.0
 10
-109.9821330786
 20
-29.5618381485
 30
0.0
 10
-109.9818979155
 20
-29.5764572255
 30
0.0
 10
-109.9806224136
 20
-29.5947643028
 30
0.0
 10
-109.9796251674
 20
-29.618912637
 30
0.0
 10
-109.9778385258
 20
-29.6606599518
 30
0.0
 10
-109.9755376968
 20
-29.7245739544
 30
0.0
 10
-109.9725694638
 20
-29.8139164274
 30
0.0
 10
-109.9693686728
 20
-29.9186138202
 30
0.0
 10
-109.9659805899
 20
-30.0360891606
 30
0.0
 10
-109.9637284211
 20
-30.1183845066
 30
0.0
 10
-109.9625825488
 20
-30.1612015884
 30
0.0
  0
LINE
  5
418
100
AcDbEntity
  8
0
100
AcDbLine
 62
7
  6
CONTINUOUS
 10
-109.9625825488
 20
-30.1612015884
 11
-109.9577038823
 21
-30.3495207872
  0
LINE
  5
419
100
AcDbEntity
  8
0
100
AcDbLine
 62
7
  6
CONTINUOUS
 10
-109.9577038823
 20
-30.3495207872
 11
-109.9528027596
 21
-30.5517857149
  0
SPLINE
  5
41A
100
AcDbEntity
  8
0
100
AcDbSpline
 62
7
  6
CONTINUOUS
 70
0
 71
3
 72
9
 73
5
 74
0
 42
0.0000001
 43
0.0000001
 44
0.0000000001
 40
0.0
 40
0.0
 40
0.0
 40
0.0
 40
0.3135471084
 40
1.0
 40
1.0
 40
1.0
 40
1.0
 10
-109.9445350129
 20
-30.9404001902
 30
0.0
 10
-109.9439158587
 20
-30.97369199
 30
0.0
 10
-109.9420852483
 20
-31.07987126
 30
0.0
 10
-109.940418689
 20
-31.1860618892
 30
0.0
 10
-109.940380391
 20
-31.2589606669
 30
0.0
  0
SPLINE
  5
41B
100
AcDbEntity
  8
ASSI
100
AcDbSpline
 62
7
  6
CONTINUOUS
 70
0
 71
3
 72
9
 73
5
 74
0
 42
0.0000001
 43
0.0000001
 44
0.0000000001
 40
0.0
 40
0.0
 40
0.0
 40
0.0
 40
0.1675293907
 40
1.0
 40
1.0
 40
1.0
 40
1.0
 10
-109.740274265
 20
-31.2589606669
 30
0.0
 10
-109.7402924913
 20
-31.2253544919
 30
0.0
 10
-109.7422161823
 20
-31.0247605221
 30
0.0
 10
-109.7465646286
 20
-30.8242041471
 30
0.0
 10
-109.7503043797
 20
-30.6572534959
 30
0.0
  0
SPLINE
  5
41C
100
AcDbEntity
  8
ASSI
100
AcDbSpline
 62
7
  6
CONTINUOUS
 70
0
 71
3
 72
16
 73
12
 74
0
 42
0.0000001
 43
0.0000001
 44
0.0000000001
 40
0.0
 40
0.0
 40
0.0
 40
0.0
 40
0.4143374603
 40
0.5867230131
 40
0.7319580834
 40
0.8475387858
 40
0.9315847991
 40
0.9612912453
 40
0.9826228067
 40
0.9955206231
 40
1.0
 40
1.0
 40
1.0
 40
1.0
 10
-109.7672102184
 20
-29.991635986
 30
0.0
 10
-109.7689610064
 20
-29.9305972305
 30
0.0
 10
-109.771527433
 20
-29.8441540967
 30
0.0
 10
-109.7750916843
 20
-29.736365188
 30
0.0
 10
-109.7773411644
 20
-29.6725037028
 30
0.0
 10
-109.7794541517
 20
-29.6218740936
 30
0.0
 10
-109.7808634385
 20
-29.5877842967
 30
0.0
 10
-109.7822711695
 20
-29.5683562512
 30
0.0
 10
-109.782589842
 20
-29.5582182553
 30
0.0
 10
-109.783832482
 20
-29.553864361
 30
0.0
 10
-109.7835586223
 20
-29.5499331129
 30
0.0
 10
-109.7842187799
 20
-29.5499331129
 30
0.0
  0
SPLINE
  5
41D
100
AcDbEntity
  8
RACCORDO
100
AcDbSpline
 62
250
  6
CONTINUOUS
 70
0
 71
3
 72
16
 73
12
 74
0
 42
0.0000001
 43
0.0000001
 44
0.0000000001
 40
0.0
 40
0.0
 40
0.0
 40
0.0
 40
0.0992545173
 40
0.2037745712
 40
0.3150798697
 40
0.4348080917
 40
0.4982273198
 40
0.5640586662
 40
0.7026105092
 40
0.8489896017
 40
1.0
 40
1.0
 40
1.0
 40
1.0
 10
-100.1125022862
 20
42.2089637862
 30
0.0
 10
-99.9610667474
 20
42.1643036008
 30
0.0
 10
-99.6576914749
 20
42.0447891461
 30
0.0
 10
-99.2281211891
 20
41.7820508373
 30
0.0
 10
-98.8239335942
 20
41.4298358497
 30
0.0
 10
-98.5218161299
 20
41.0695012164
 30
0.0
 10
-98.3002815598
 20
40.7409159
 30
0.0
 10
-98.0864122113
 20
40.3721606522
 30
0.0
 10
-97.8543540795
 20
39.8630387411
 30
0.0
 10
-97.6415467595
 20
39.2016551986
 30
0.0
 10
-97.5455541071
 20
38.7373935519
 30
0.0
 10
-97.5088680537
 20
38.5
 30
0.0
  0
SPLINE
  5
41E
100
AcDbEntity
  8
RACCORDO
100
AcDbSpline
 62
250
  6
CONTINUOUS
 70
0
 71
3
 72
23
 73
19
 74
0
 42
0.0000001
 43
0.0000001
 44
0.0000000001
 40
0.0
 40
0.0
 40
0.0
 40
0.0
 40
0.195930398
 40
0.3838341156
 40
0.556649878
 40
0.6353402161
 40
0.7078801337
 40
0.7735864303
 40
0.8318406455
 40
0.882094924
 40
0.923877413
 40
0.9567973903
 40
0.9698357011
 40
0.9805514879
 40
0.9889226018
 40
0.9949356866
 40
0.9985936934
 40
1.0
 40
1.0
 40
1.0
 40
1.0
 10
-97.5088680524
 20
38.4999999928
 30
0.0
 10
-97.5399081671
 20
38.4945041638
 30
0.0
 10
-97.6007325756
 20
38.483826629
 30
0.0
 10
-97.6889893294
 20
38.4686121929
 30
0.0
 10
-97.7586985856
 20
38.4568413686
 30
0.0
 10
-97.8101345301
 20
38.4483309197
 30
0.0
 10
-97.8445831032
 20
38.4427199514
 30
0.0
 10
-97.8758017089
 20
38.4377305416
 30
0.0
 10
-97.903495378
 20
38.433409416
 30
0.0
 10
-97.9274051761
 20
38.4297950177
 30
0.0
 10
-97.9472994817
 20
38.4269221326
 30
0.0
 10
-97.9612980126
 20
38.4250351848
 30
0.0
 10
-97.9703379053
 20
38.4239420164
 30
0.0
 10
-97.9755027743
 20
38.4233797816
 30
0.0
 10
-97.9794570103
 20
38.423031102
 30
0.0
 10
-97.9825112859
 20
38.4228330574
 30
0.0
 10
-97.9840143981
 20
38.4228889049
 30
0.0
 10
-97.985140684
 20
38.422960892
 30
0.0
 10
-97.9851760871
 20
38.4231843632
 30
0.0
  0
SPLINE
  5
41F
100
AcDbEntity
  8
RACCORDO
100
AcDbSpline
 62
250
  6
CONTINUOUS
 70
0
 71
3
 72
27
 73
23
 74
0
 42
0.0000001
 43
0.0000001
 44
0.0000000001
 40
0.0
 40
0.0
 40
0.0
 40
0.0
 40
0.1960041609
 40
0.3839693058
 40
0.5568372576
 40
0.6355509392
 40
0.7081126103
 40
0.7738390383
 40
0.8321114849
 40
0.8823814304
 40
0.9241756859
 40
0.9417686185
 40
0.9571008456
 40
0.970137468
 40
0.9808469955
 40
0.9892045362
 40
0.9924952384
 40
0.9951907473
 40
0.997289568
 40
0.9987909354
 40
0.999694235
 40
1.0
 40
1.0
 40
1.0
 40
1.0
 10
-97.4212286827
 20
37.5
 30
0.0
 10
-97.4533260402
 20
37.4999490811
 30
0.0
 10
-97.5162043154
 20
37.4998600457
 30
0.0
 10
-97.6073912422
 20
37.4997621054
 30
0.0
 10
-97.6793708599
 20
37.4997102093
 30
0.0
 10
-97.7324521614
 20
37.499689225
 30
0.0
 10
-97.767988103
 20
37.49968385
 30
0.0
 10
-97.8001766159
 20
37.4996882764
 30
0.0
 10
-97.8287146531
 20
37.4997024011
 30
0.0
 10
-97.8533336024
 20
37.4997260988
 30
0.0
 10
-97.8712908554
 20
37.4997548998
 30
0.0
 10
-97.8835268499
 20
37.4997840904
 30
0.0
 10
-97.8910532945
 20
37.4998072259
 30
0.0
 10
-97.8974531594
 20
37.4998320167
 30
0.0
 10
-97.9027089962
 20
37.4998605071
 30
0.0
 10
-97.9063733024
 20
37.4998837964
 30
0.0
 10
-97.9087173443
 20
37.4999107993
 30
0.0
 10
-97.9100512462
 20
37.4999188195
 30
0.0
 10
-97.9110562217
 20
37.4999569994
 30
0.0
 10
-97.9118521679
 20
37.4999248894
 30
0.0
 10
-97.9121924943
 20
37.5000264483
 30
0.0
 10
-97.9124979487
 20
37.4999501161
 30
0.0
 10
-97.9125022815
 20
37.5
 30
0.0
  0
LINE
  5
420
100
AcDbEntity
  8
RACCORDO
100
AcDbLine
 62
250
  6
CONTINUOUS
 10
-97.4212286698
 20
37.5
 11
-97.4212284895
 21
-38.5
  0
ELLIPSE
  5
421
100
AcDbEntity
  8
RACCORDO
100
AcDbEllipse
 62
7
  6
CONTINUOUS
 10
-26.8
 20
-42.0911031781
 30
0.0
 11
-0.0
 21
0.3031002477
 31
0.0
 40
0.9897715436
 41
-2.1118483949
 42
-1.9383163658
  0
ELLIPSE
  5
422
100
AcDbEntity
  8
RACCORDO
100
AcDbEllipse
 62
7
  6
CONTINUOUS
 10
26.8
 20
-42.0911031781
 30
0.0
 11
0.0
 21
0.3031002477
 31
0.0
 40
0.9897715436
 41
-4.3448689414
 42
-4.1713369123
  0
ELLIPSE
  5
423
100
AcDbEntity
  8
ASSI
100
AcDbEllipse
 62
7
  6
CONTINUOUS
 10
60.6505061299
 20
37.5
 30
0.0
 11
0.0
 21
5.7
 31
0.0
 40
0.0174550649
 41
-1.5707963268
 42
-1.3962268128
  0
ELLIPSE
  5
424
100
AcDbEntity
  8
ASSI
100
AcDbEllipse
 62
7
  6
CONTINUOUS
 10
-60.6505061299
 20
37.5
 30
0.0
 11
0.0
 21
5.7
 31
0.0
 40
0.0174550649
 41
1.3962268128
 42
1.5707963268
  0
ELLIPSE
  5
425
100
AcDbEntity
  8
RACCORDO
100
AcDbEllipse
 62
7
  6
CONTINUOUS
 10
-29.9949409035
 20
-40.6025600066
 30
0.0
 11
0.0
 21
1.48
 31
0.0
 40
0.0087268678
 41
-3.1241393611
 42
-2.8536540193
  0
ELLIPSE
  5
426
100
AcDbEntity
  8
RACCORDO
100
AcDbEllipse
 62
7
  6
CONTINUOUS
 10
29.9949409035
 20
-40.6025600066
 30
0.0
 11
0.0
 21
1.48
 31
0.0
 40
0.0087268678
 41
-3.4295312879
 42
-3.1590459461
  0
ELLIPSE
  5
427
100
AcDbEntity
  8
0
100
AcDbEllipse
 62
7
  6
CONTINUOUS
 10
-56.99
 20
38.4241020879
 30
0.0
 11
0.0
 21
3.7752888549
 31
0.0
 40
0.9998476487
 41
0.0
 42
0.4720144209
  0
ELLIPSE
  5
428
100
AcDbEntity
  8
0
100
AcDbEllipse
 62
7
  6
CONTINUOUS
 10
56.99
 20
38.4241020879
 30
0.0
 11
-0.0
 21
3.7752888549
 31
0.0
 40
0.9998476487
 41
-0.4720144209
 42
0.0
  0
ENDSEC
  0
SECTION
  2
OBJECTS
  0
DICTIONARY
  5
C
100
AcDbDictionary
280
0
281
1
  3
ACAD_GROUP
350
D
  3
ACAD_MLINESTYLE
350
17
  3
ACAD_LAYOUT
350
1A
  3
ACAD_PLOTSETTINGS
350
19
  3
ACAD_PLOTSTYLENAME
350
E
  0
DICTIONARY
  5
D
102
{ACAD_REACTORS
330
C
102
}
100
AcDbDictionary
280
0
281
1
  0
ACDBDICTIONARYWDFLT
  5
E
102
{ACAD_REACTORS
330
C
102
}
100
AcDbDictionary
281
1
  3
Normal
350
F
100
AcDbDictionaryWithDefault
340
F
  0
DICTIONARY
  5
17
102
{ACAD_REACTORS
330
C
102
}
100
AcDbDictionary
280
0
281
1
  3
Standard
350
18
  0
DICTIONARY
  5
19
102
{ACAD_REACTORS
330
C
102
}
100
AcDbDictionary
281
1
  0
DICTIONARY
  5
1A
102
{ACAD_REACTORS
330
C
102
}
100
AcDbDictionary
281
1
  3
Model
350
429
  3
Layout1
350
42A
  0
ACDBPLACEHOLDER
  5
F
102
{ACAD_REACTORS
330
E
102
}
  0
MLINESTYLE
  5
18
102
{ACAD_REACTORS
330
17
102
}
100
AcDbMlineStyle
  2
STANDARD
 70
0
  3

 62
256
 51
90.0
 52
90.0
 71
2
 49
0.5
 62
256
  6
BYLAYER
 49
-0.5
 62
256
  6
BYLAYER
  0
LAYOUT
  5
429
102
{ACAD_REACTORS
330
1A
102
}
100
AcDbPlotSettings
  1

  2
none_device
  4
ANSI_C_(22.00_x_17.00_Inches)
  6

 40
0.0
 41
0.0
 42
0.0
 43
0.0
 44
558.8
 45
431.8
 46
0.0
 47
0.0
 48
0.0
 49
0.0
140
0.0
141
0.0
142
1.0
143
1.0
 70
1024
 72
1
 73
0
 74
0
  7

 75
0
147
1.0
148
0.0
149
0.0
100
AcDbLayout
  1
Model
 70
0
 71
0
 10
0.0
 20
0.0
 11
558.8
 21
431.8
 12
0.0
 22
0.0
 32
0.0
 14
0.0
 24
0.0
 34
0.0
 15
0.0
 25
0.0
 35
0.0
146
0.0
 13
0.0
 23
0.0
 33
0.0
 16
1.0
 26
0.0
 36
0.0
 17
0.0
 27
1.0
 37
0.0
 76
0
330
217
345
0
346
0
  0
LAYOUT
  5
42A
102
{ACAD_REACTORS
330
1A
102
}
100
AcDbPlotSettings
  1

  2
none_device
  4
ANSI_C_(22.00_x_17.00_Inches)
  6

 40
0.0
 41
0.0
 42
0.0
 43
0.0
 44
558.8
 45
431.8
 46
0.0
 47
0.0
 48
0.0
 49
0.0
140
0.0
141
0.0
142
1.0
143
1.0
 70
0
 72
1
 73
0
 74
0
  7

 75
0
147
1.0
148
0.0
149
0.0
100
AcDbLayout
  1
Layout1
 70
0
 71
1
 10
0.0
 20
0.0
 11
558.8
 21
431.8
 12
0.0
 22
0.0
 32
0.0
 14
0.0
 24
0.0
 34
0.0
 15
0.0
 25
0.0
 35
0.0
146
0.0
 13
0.0
 23
0.0
 33
0.0
 16
1.0
 26
0.0
 36
0.0
 17
0.0
 27
1.0
 37
0.0
 76
0
330
218
345
0
346
0
  0
ENDSEC
  0
EOF
