  0
SECTION
  2
HEADER
  9
$ACADVER
  1
AC1015
  9
$DWGCODEPAGE
  3
ANSI_1252
  9
$EXTMAX
 10
297.0
 20
210.0
 30
0.0
  9
$EXTMIN
 10
0.0
 20
0.0
 30
0.0
  9
$LIMMIN
 10
0.0
 20
0.0
  9
$LIMMAX
 10
297.0
 20
210.0
  9
$VIEWCTR
 10
148.5
 20
105.0
  9
$VIEWSIZE
 40
210.0
  9
$CLAYER
  8
0
  9
$LTSCALE
 40
16.335
  9
$CELTYPE
  6
BYLAYER
  9
$DIMSCALE
 40
1.0
  9
$DIMASZ
 40
3.0
  9
$DIMEXO
 40
1.85625
  9
$DIMDLI
 40
11.286
  9
$DIMEXE
 40
5.346
  9
$DIMCEN
 40
2.673
  9
$DIMLFAC
 40
1.0
  9
$DIMBLK
  1
_FILLED
  9
$DIMTXT
 40
3.0
  9
$DIMTOL
 70
1
  9
$DIMLIM
 70
0
  9
$DIMTFAC
 40
1.0
  9
$DIMTP
 40
0.01
  9
$DIMTM
 40
0.01
  9
$PDMODE
 70
3
  9
$PDSIZE
 40
3.0
  9
$HANDSEED
  5
304
  9
$TILEMODE
 70
1
  9
$MEASUREMENT
 70
1
  9
$INSUNITS
 70
4
  0
ENDSEC
  0
SECTION
  2
CLASSES
  0
CLASS
  1
ACDBDICTIONARYWDFLT
  2
AcDbDictionaryWithDefault
  3
AutoCAD 2000
 90
0
280
0
281
0
  0
CLASS
  1
ACDBPLACEHOLDER
  2
AcDbPlaceHolder
  3
AutoCAD 2000
 90
0
280
0
281
0
  0
CLASS
  1
LAYOUT
  2
AcDbLayout
  3
AutoCAD 2000
 90
0
280
0
281
0
  0
ENDSEC
  0
SECTION
  2
TABLES
  0
TABLE
  2
VPORT
  5
8
100
AcDbSymbolTable
 70
2
  0
VPORT
  5
1F4
100
AcDbSymbolTableRecord
100
AcDbViewportTableRecord
  2
*ACTIVE
 70
0
 10
0.0
 20
0.0
 11
1.0
 21
1.0
 12
148.5
 22
105.0
 13
0.0
 23
0.0
 14
1.0
 24
1.0
 15
0.0
 25
0.0
 16
0.0
 26
0.0
 36
1.0
 17
0.0
 27
0.0
 37
0.0
 40
210.0
 41
1.4142857143
 42
50.0
 43
0.0
 44
0.0
 50
0.0
 51
0.0
 71
0
 72
100
 73
1
 74
1
 75
0
 76
0
 77
0
 78
0
  0
ENDTAB
  0
TABLE
  2
LTYPE
  5
5
100
AcDbSymbolTable
 70
6
  0
LTYPE
  5
14
100
AcDbSymbolTableRecord
100
AcDbLinetypeTableRecord
  2
BYBLOCK
 70
0
  3

 72
65
 73
0
 40
0.0
  0
LTYPE
  5
15
100
AcDbSymbolTableRecord
100
AcDbLinetypeTableRecord
  2
BYLAYER
 70
0
  3

 72
65
 73
0
 40
0.0
  0
LTYPE
  5
16
100
AcDbSymbolTableRecord
100
AcDbLinetypeTableRecord
  2
CONTINUOUS
 70
64
  3
Solid line
 72
65
 73
0
 40
0.0
  0
LTYPE
  5
1F5
100
AcDbSymbolTableRecord
100
AcDbLinetypeTableRecord
  2
CENTER
 70
64
  3
____ _ ____ _ ____ _ ____ _ ____ _ ____ _ ____
 72
65
 73
4
 40
0.6
 49
0.375
 74
0
 49
-0.075
 74
0
 49
0.075
 74
0
 49
-0.075
 74
0
  0
LTYPE
  5
1F6
100
AcDbSymbolTableRecord
100
AcDbLinetypeTableRecord
  2
HIDDEN
 70
64
  3
- - - - - - - - - - - - - - - - - - - -
 72
65
 73
2
 40
0.2
 49
0.1
 74
0
 49
-0.1
 74
0
  0
LTYPE
  5
1F7
100
AcDbSymbolTableRecord
100
AcDbLinetypeTableRecord
  2
PHANTOM
 70
64
  3
_____ _ _ _____ _ _ _____ _ _ _____
 72
65
 73
6
 40
0.8
 49
0.45
 74
0
 49
-0.05
 74
0
 49
0.1
 74
0
 49
-0.05
 74
0
 49
0.1
 74
0
 49
-0.05
 74
0
  0
LTYPE
  5
1F8
100
AcDbSymbolTableRecord
100
AcDbLinetypeTableRecord
  2
DOT
 70
64
  3
. . . . . . . . . . . . . . . . . . . .
 72
65
 73
2
 40
0.2
 49
0.1
 74
0
 49
-0.1
 74
0
  0
LTYPE
  5
1F9
100
AcDbSymbolTableRecord
100
AcDbLinetypeTableRecord
  2
DASHED
 70
64
  3
- - - - - - - - - - - - - - - - - - - -
 72
65
 73
2
 40
0.2
 49
0.1
 74
0
 49
-0.1
 74
0
  0
ENDTAB
  0
TABLE
  2
LAYER
  5
2
100
AcDbSymbolTable
 70
36
  0
LAYER
  5
10
100
AcDbSymbolTableRecord
100
AcDbLayerTableRecord
  2
0
 70
0
 62
7
  6
CONTINUOUS
370
-3
390
F
  0
LAYER
  5
1FA
100
AcDbSymbolTableRecord
100
AcDbLayerTableRecord
  2
DEFAULT_1
 70
0
 62
7
  6
CENTER
370
-3
390
F
  0
LAYER
  5
1FB
100
AcDbSymbolTableRecord
100
AcDbLayerTableRecord
  2
DEFAULT_2
 70
0
 62
7
  6
HIDDEN
370
-3
390
F
  0
LAYER
  5
1FC
100
AcDbSymbolTableRecord
100
AcDbLayerTableRecord
  2
DEFAULT_3
 70
0
 62
7
  6
PHANTOM
370
-3
390
F
  0
LAYER
  5
1FD
100
AcDbSymbolTableRecord
100
AcDbLayerTableRecord
  2
ASSI
 70
0
 62
7
  6
CONTINUOUS
370
-3
390
F
  0
LAYER
  5
1FE
100
AcDbSymbolTableRecord
100
AcDbLayerTableRecord
  2
COORDINATE
 70
0
 62
7
  6
CONTINUOUS
370
-3
390
F
  0
LAYER
  5
1FF
100
AcDbSymbolTableRecord
100
AcDbLayerTableRecord
  2
COORD_ORIGINE
 70
0
 62
7
  6
CONTINUOUS
370
-3
390
F
  0
LAYER
  5
200
100
AcDbSymbolTableRecord
100
AcDbLayerTableRecord
  2
COPY_PUBLISH
 70
0
 62
7
  6
CONTINUOUS
370
-3
390
F
  0
LAYER
  5
201
100
AcDbSymbolTableRecord
100
AcDbLayerTableRecord
  2
COSMETIC
 70
0
 62
7
  6
CONTINUOUS
370
-3
390
F
  0
LAYER
  5
202
100
AcDbSymbolTableRecord
100
AcDbLayerTableRecord
  2
CURVE
 70
0
 62
7
  6
CONTINUOUS
370
-3
390
F
  0
LAYER
  5
203
100
AcDbSymbolTableRecord
100
AcDbLayerTableRecord
  2
DRAFT
 70
0
 62
7
  6
CONTINUOUS
370
-3
390
F
  0
LAYER
  5
204
100
AcDbSymbolTableRecord
100
AcDbLayerTableRecord
  2
IGES
 70
0
 62
7
  6
CONTINUOUS
370
-3
390
F
  0
LAYER
  5
205
100
AcDbSymbolTableRecord
100
AcDbLayerTableRecord
  2
IMPORT_IGES
 70
0
 62
7
  6
CONTINUOUS
370
-3
390
F
  0
LAYER
  5
206
100
AcDbSymbolTableRecord
100
AcDbLayerTableRecord
  2
INTF_6
 70
0
 62
7
  6
CONTINUOUS
370
-3
390
F
  0
LAYER
  5
207
100
AcDbSymbolTableRecord
100
AcDbLayerTableRecord
  2
NOTE
 70
0
 62
7
  6
CONTINUOUS
370
-3
390
F
  0
LAYER
  5
208
100
AcDbSymbolTableRecord
100
AcDbLayerTableRecord
  2
PIANI
 70
0
 62
7
  6
CONTINUOUS
370
-3
390
F
  0
LAYER
  5
209
100
AcDbSymbolTableRecord
100
AcDbLayerTableRecord
  2
PIANI_ORIGINE
 70
0
 62
7
  6
CONTINUOUS
370
-3
390
F
  0
LAYER
  5
20A
100
AcDbSymbolTableRecord
100
AcDbLayerTableRecord
  2
PIANI_RIFERIMENTO
 70
0
 62
7
  6
CONTINUOUS
370
-3
390
F
  0
LAYER
  5
20B
100
AcDbSymbolTableRecord
100
AcDbLayerTableRecord
  2
PUNTI
 70
0
 62
7
  6
CONTINUOUS
370
-3
390
F
  0
LAYER
  5
20C
100
AcDbSymbolTableRecord
100
AcDbLayerTableRecord
  2
RACCORDO
 70
0
 62
7
  6
CONTINUOUS
370
-3
390
F
  0
LAYER
  5
20D
100
AcDbSymbolTableRecord
100
AcDbLayerTableRecord
  2
SMUSSO
 70
0
 62
7
  6
CONTINUOUS
370
-3
390
F
  0
LAYER
  5
20E
100
AcDbSymbolTableRecord
100
AcDbLayerTableRecord
  2
SNAPLINE
 70
0
 62
7
  6
CONTINUOUS
370
-3
390
F
  0
LAYER
  5
20F
100
AcDbSymbolTableRecord
100
AcDbLayerTableRecord
  2
SUPERFICI
 70
0
 62
7
  6
CONTINUOUS
370
-3
390
F
  0
LAYER
  5
210
100
AcDbSymbolTableRecord
100
AcDbLayerTableRecord
  2
TRASH
 70
0
 62
7
  6
CONTINUOUS
370
-3
390
F
  0
ENDTAB
  0
TABLE
  2
STYLE
  5
3
100
AcDbSymbolTable
 70
1
  0
STYLE
  5
11
100
AcDbSymbolTableRecord
100
AcDbTextStyleTableRecord
  2
STANDARD
 70
0
 40
0.0
 41
0.8
 50
0.0
 71
0
 42
0.2
  3
txt
  4

  0
STYLE
  5
211
100
AcDbSymbolTableRecord
100
AcDbTextStyleTableRecord
  2
TEXTSTYLE_1
 70
0
 40
0.0
 41
0.8
 50
0.0
 71
0
 42
0.2
  3
gdt
  4

  0
ENDTAB
  0
TABLE
  2
VIEW
  5
6
100
AcDbSymbolTable
 70
0
  0
ENDTAB
  0
TABLE
  2
UCS
  5
7
100
AcDbSymbolTable
 70
0
  0
ENDTAB
  0
TABLE
  2
APPID
  5
9
100
AcDbSymbolTable
 70
1
  0
APPID
  5
212
100
AcDbSymbolTableRecord
100
AcDbRegAppTableRecord
  2
ACAD
 70
0
  0
ENDTAB
  0
TABLE
  2
BLOCK_RECORD
  5
1
100
AcDbSymbolTable
 70
0
  0
BLOCK_RECORD
  5
213
100
AcDbSymbolTableRecord
100
AcDbBlockTableRecord
  2
*Model_Space
  0
BLOCK_RECORD
  5
214
100
AcDbSymbolTableRecord
100
AcDbBlockTableRecord
  2
*Paper_Space
  0
BLOCK_RECORD
  5
215
100
AcDbSymbolTableRecord
100
AcDbBlockTableRecord
  2
_FILLED
  0
BLOCK_RECORD
  5
216
100
AcDbSymbolTableRecord
100
AcDbBlockTableRecord
  2
*D0
  0
BLOCK_RECORD
  5
217
100
AcDbSymbolTableRecord
100
AcDbBlockTableRecord
  2
*D1
  0
BLOCK_RECORD
  5
218
100
AcDbSymbolTableRecord
100
AcDbBlockTableRecord
  2
*D2
  0
ENDTAB
  0
TABLE
  2
DIMSTYLE
  5
A
100
AcDbSymbolTable
 70
1
100
AcDbDimStyleTable
 71
0
  0
DIMSTYLE
105
219
100
AcDbSymbolTableRecord
100
AcDbDimStyleTableRecord
  2
STANDARD
 70
0
  3

  4

 40
1.0
 41
3.0
 42
0.0625
 43
0.38
 44
0.18
 45
0.0
 46
0.0
 47
0.01
 48
0.01
140
3.0
141
0.09
142
0.0
143
25.4
144
1.0
145
0.0
146
1.0
147
0.09
 71
1.0
 72
0.0
 73
0
 74
0
 75
0
 76
0
 77
1
 78
8
170
0
171
2
172
0
173
0
174
0
175
0
176
0
177
0
178
0
270
2
271
2
272
2
273
2
274
2
275
0
280
0
281
0
282
0
283
1
284
8
285
0
286
0
287
3
288
0
340
11
341
215
342
215
343
215
344
215
  0
DIMSTYLE
105
21A
100
AcDbSymbolTableRecord
100
AcDbDimStyleTableRecord
  2
DIMSTYLE_1
 70
0
  3

  4

 40
1.0
 41
3.0
 42
0.0625
 43
0.38
 44
0.18
 45
0.0
 46
0.0
 47
0.0
 48
0.0
140
3.0
141
0.09
142
0.0
143
25.4
144
1.0
145
0.0
146
1.0
147
0.09
 71
0.0
 72
0.0
 73
0
 74
0
 75
0
 76
0
 77
1
 78
8
170
0
171
2
172
0
173
0
174
0
175
0
176
0
177
0
178
0
270
2
271
2
272
2
273
2
274
2
275
0
280
0
281
0
282
0
283
1
284
8
285
0
286
0
287
3
288
0
340
11
341
215
342
215
343
215
344
215
  0
DIMSTYLE
105
21B
100
AcDbSymbolTableRecord
100
AcDbDimStyleTableRecord
  2
DIMSTYLE_2
 70
0
  3

  4

 40
1.0
 41
3.0
 42
0.0625
 43
0.38
 44
0.18
 45
0.0
 46
0.0
 47
0.0
 48
0.0
140
3.0
141
0.09
142
0.0
143
25.4
144
1.0
145
0.0
146
1.0
147
0.09
 71
0.0
 72
0.0
 73
0
 74
0
 75
0
 76
0
 77
1
 78
8
170
0
171
2
172
0
173
0
174
0
175
0
176
0
177
0
178
0
270
2
271
1
272
1
273
2
274
2
275
0
280
0
281
0
282
0
283
1
284
8
285
0
286
0
287
3
288
0
340
11
341
215
342
215
343
215
344
215
  0
ENDTAB
  0
ENDSEC
  0
SECTION
  2
BLOCKS
  0
BLOCK
  5
20
100
AcDbEntity
  8
0
100
AcDbBlockBegin
  2
*Model_Space
 70
0
 10
0.0
 20
0.0
 30
0.0
  3
*Model_Space
  1

  0
ENDBLK
  5
21
100
AcDbEntity
  8
0
100
AcDbBlockEnd
  0
BLOCK
  5
1C
100
AcDbEntity
  8
0
100
AcDbBlockBegin
  2
*Paper_Space
 70
0
 10
0.0
 20
0.0
 30
0.0
  3
*Paper_Space
  1

  0
ENDBLK
  5
1D
100
AcDbEntity
  8
0
100
AcDbBlockEnd
  0
BLOCK
  5
21C
100
AcDbEntity
  8
0
100
AcDbBlockBegin
  2
_FILLED
 70
64
 10
0.0
 20
0.0
  3
_FILLED
  1

  0
SOLID
  5
21D
100
AcDbEntity
  8
0
  6
BYBLOCK
 62
0
100
AcDbTrace
 10
0.0
 20
0.0
 11
-1.0
 21
0.3166666667
 12
-1.0
 22
-0.3166666667
 13
-1.0
 23
-0.3166666667
  0
ENDBLK
  5
21E
100
AcDbEntity
  8
0
  6
BYBLOCK
 62
0
100
AcDbBlockEnd
  0
BLOCK
  5
21F
100
AcDbEntity
  8
0
100
AcDbBlockBegin
 62
7
  6
CONTINUOUS
  2
*D0
 70
65
 10
0.0
 20
0.0
  3
*D0
  1

  0
MTEXT
  5
220
100
AcDbEntity
  8
0
100
AcDbMText
 62
7
  6
CONTINUOUS
  7
STANDARD
 71
2
 72
1
 10
11.7609291606
 20
22.5989375964
 30
0.0
 11
1.0
 21
0.0
 31
0.0
 44
0.9
  1
44,7
 40
3.0
 41
8.7857142857
  0
LINE
  5
221
100
AcDbEntity
  8
0
100
AcDbLine
 62
7
  6
CONTINUOUS
 10
34.1109291606
 20
11.1489604417
 11
34.1109291606
 21
20.3489375964
  0
LINE
  5
222
100
AcDbEntity
  8
0
100
AcDbLine
 62
7
  6
CONTINUOUS
 10
-10.5890708394
 20
11.1489604417
 11
-10.5890708394
 21
20.3489375964
  0
LINE
  5
223
100
AcDbEntity
  8
0
100
AcDbLine
 62
7
  6
CONTINUOUS
 10
34.1109291606
 20
18.8489375964
 11
11.7609291606
 21
18.8489375964
  0
LINE
  5
224
100
AcDbEntity
  8
0
100
AcDbLine
 62
7
  6
CONTINUOUS
 10
-10.5890708394
 20
18.8489375964
 11
11.7609291606
 21
18.8489375964
  0
INSERT
  5
225
100
AcDbEntity
  8
0
100
AcDbBlockReference
 62
7
  6
CONTINUOUS
  2
_FILLED
 10
34.1109291606
 20
18.8489375964
 41
3.0
 42
3.0
 43
3.0
  0
INSERT
  5
226
100
AcDbEntity
  8
0
100
AcDbBlockReference
 62
7
  6
CONTINUOUS
  2
_FILLED
 10
-10.5890708394
 20
18.8489375964
 41
3.0
 42
3.0
 43
3.0
 50
180.0
  0
ENDBLK
  5
227
100
AcDbEntity
  8
0
  6
BYBLOCK
 62
0
100
AcDbBlockEnd
  0
BLOCK
  5
228
100
AcDbEntity
  8
0
100
AcDbBlockBegin
 62
7
  6
CONTINUOUS
  2
*D1
 70
65
 10
0.0
 20
0.0
  3
*D1
  1

  0
MTEXT
  5
229
100
AcDbEntity
  8
0
100
AcDbMText
 62
7
  6
CONTINUOUS
  7
STANDARD
 71
2
 72
1
 10
38.3609291606
 20
-0.1807187565
 30
0.0
 11
0.0
 21
1.0
 31
0.0
 44
0.9
  1
22,1
 40
3.0
 41
8.1428571429
  0
LINE
  5
22A
100
AcDbEntity
  8
0
100
AcDbLine
 62
7
  6
CONTINUOUS
 10
34.4109291595
 20
10.8489375964
 11
43.6109291606
 21
10.8489375964
  0
LINE
  5
22B
100
AcDbEntity
  8
0
100
AcDbLine
 62
7
  6
CONTINUOUS
 10
34.0974751
 20
-11.2103751093
 11
43.6109291606
 21
-11.2103751093
  0
LINE
  5
22C
100
AcDbEntity
  8
0
100
AcDbLine
 62
7
  6
CONTINUOUS
 10
42.1109291606
 20
10.8489375964
 11
42.1109291606
 21
-0.1807187565
  0
LINE
  5
22D
100
AcDbEntity
  8
0
100
AcDbLine
 62
7
  6
CONTINUOUS
 10
42.1109291606
 20
-11.2103751093
 11
42.1109291606
 21
-0.1807187565
  0
INSERT
  5
22E
100
AcDbEntity
  8
0
100
AcDbBlockReference
 62
7
  6
CONTINUOUS
  2
_FILLED
 10
42.1109291606
 20
10.8489375964
 41
3.0
 42
3.0
 43
3.0
 50
90.0
  0
INSERT
  5
22F
100
AcDbEntity
  8
0
100
AcDbBlockReference
 62
7
  6
CONTINUOUS
  2
_FILLED
 10
42.1109291606
 20
-11.2103751093
 41
3.0
 42
3.0
 43
3.0
 50
270.0
  0
ENDBLK
  5
230
100
AcDbEntity
  8
0
  6
BYBLOCK
 62
0
100
AcDbBlockEnd
  0
BLOCK
  5
231
100
AcDbEntity
  8
0
100
AcDbBlockBegin
 62
7
  6
CONTINUOUS
  2
*D2
 70
65
 10
0.0
 20
0.0
  3
*D2
  1

  0
MTEXT
  5
232
100
AcDbEntity
  8
0
100
AcDbMText
 62
7
  6
CONTINUOUS
  7
STANDARD
 71
2
 72
1
 10
-24.4799618643
 20
22.5989375964
 30
0.0
 11
1.0
 21
0.0
 31
0.0
 44
0.9
  1
6,5
 40
3.0
 41
6.2142857143
  0
LINE
  5
233
100
AcDbEntity
  8
0
100
AcDbLine
 62
7
  6
CONTINUOUS
 10
-21.2300224663
 20
7.8489375964
 11
-21.2300224663
 21
20.3489375964
  0
LINE
  5
234
100
AcDbEntity
  8
0
100
AcDbLine
 62
7
  6
CONTINUOUS
 10
-27.7299012623
 20
11.1007940077
 11
-27.7299012623
 21
20.3489375964
  0
LINE
  5
235
100
AcDbEntity
  8
0
100
AcDbLine
 62
7
  6
CONTINUOUS
 10
-21.2300224663
 20
18.8489375964
 11
-17.2300224663
 21
18.8489375964
  0
LINE
  5
236
100
AcDbEntity
  8
0
100
AcDbLine
 62
7
  6
CONTINUOUS
 10
-17.2300224663
 20
18.8489375964
 11
-24.4799618643
 21
18.8489375964
  0
LINE
  5
237
100
AcDbEntity
  8
0
100
AcDbLine
 62
7
  6
CONTINUOUS
 10
-27.7299012623
 20
18.8489375964
 11
-31.7299012623
 21
18.8489375964
  0
LINE
  5
238
100
AcDbEntity
  8
0
100
AcDbLine
 62
7
  6
CONTINUOUS
 10
-31.7299012623
 20
18.8489375964
 11
-24.4799618643
 21
18.8489375964
  0
INSERT
  5
239
100
AcDbEntity
  8
0
100
AcDbBlockReference
 62
7
  6
CONTINUOUS
  2
_FILLED
 10
-21.2300224663
 20
18.8489375964
 41
3.0
 42
3.0
 43
3.0
 50
180.0
  0
INSERT
  5
23A
100
AcDbEntity
  8
0
100
AcDbBlockReference
 62
7
  6
CONTINUOUS
  2
_FILLED
 10
-27.7299012623
 20
18.8489375964
 41
3.0
 42
3.0
 43
3.0
  0
ENDBLK
  5
23B
100
AcDbEntity
  8
0
  6
BYBLOCK
 62
0
100
AcDbBlockEnd
  0
ENDSEC
  0
SECTION
  2
ENTITIES
  0
DIMENSION
  5
23C
100
AcDbEntity
  8
0
100
AcDbDimension
 62
7
  6
CONTINUOUS
  2
*D0
 10
-10.5890708394
 20
18.8489375964
 11
7.3680720178
 21
21.0989375964
 70
160
 71
2
 42
44.7
  3
DIMSTYLE_1
100
AcDbAlignedDimension
 13
34.1109291606
 23
11.1489604417
 14
-10.5890708394
 24
11.1489604417
 50
180.0
100
AcDbRotatedDimension
  0
DIMENSION
  5
23D
100
AcDbEntity
  8
0
100
AcDbDimension
 62
7
  6
CONTINUOUS
  2
*D1
 10
42.1109291606
 20
-11.2103751093
 11
41.6852288834
 21
-3.8205623154
 70
160
 71
2
 42
22.0593127057
  3
DIMSTYLE_2
100
AcDbAlignedDimension
 13
34.4109291595
 23
10.8489375964
 14
34.0974751
 24
-11.2103751093
 50
270.0
100
AcDbRotatedDimension
  0
DIMENSION
  5
23E
100
AcDbEntity
  8
0
100
AcDbDimension
 62
7
  6
CONTINUOUS
  2
*D2
 10
-27.7299012623
 20
18.8489375964
 11
-27.5871047215
 21
21.0989375964
 70
160
 71
2
 42
6.499878796
  3
DIMSTYLE_1
100
AcDbAlignedDimension
 13
-21.2300224663
 23
7.8489375964
 14
-27.7299012623
 24
11.1007940077
 50
180.0
100
AcDbRotatedDimension
  0
LINE
  5
23F
100
AcDbEntity
  8
RACCORDO
100
AcDbLine
 62
7
  6
CONTINUOUS
 10
-10.5890708394
 20
-2.1510624036
 11
-10.5759966021
 21
-10.7124293815
  0
LINE
  5
240
100
AcDbEntity
  8
ASSI
100
AcDbLine
 62
7
  6
CONTINUOUS
 10
-10.5890708394
 20
-2.1510624036
 11
-10.5759966021
 21
-10.7124293815
  0
LINE
  5
241
100
AcDbEntity
  8
RACCORDO
100
AcDbLine
 62
7
  6
CONTINUOUS
 10
-10.5890708394
 20
10.6489604417
 11
-10.5890708394
 21
-2.1510624036
  0
LINE
  5
242
100
AcDbEntity
  8
ASSI
100
AcDbLine
 62
7
  6
CONTINUOUS
 10
-10.5890708394
 20
10.6489604417
 11
-10.5890708394
 21
-2.1510624036
  0
LINE
  5
243
100
AcDbEntity
  8
RACCORDO
100
AcDbLine
 62
253
  6
CONTINUOUS
 10
-9.9982304513
 20
10.6007940068
 11
-9.9982304513
 21
10.8009256498
  0
LINE
  5
244
100
AcDbEntity
  8
ASSI
100
AcDbLine
 62
253
  6
CONTINUOUS
 10
-9.9982304513
 20
10.6007940068
 11
-9.9982304513
 21
10.8009256498
  0
LINE
  5
245
100
AcDbEntity
  8
RACCORDO
100
AcDbLine
 62
253
  6
CONTINUOUS
 10
-10.5759966021
 20
-10.7124293815
 11
-10.5220549608
 21
-10.5504728582
  0
LINE
  5
246
100
AcDbEntity
  8
ASSI
100
AcDbLine
 62
253
  6
CONTINUOUS
 10
-10.5759966021
 20
-10.7124293815
 11
-10.5220549608
 21
-10.5504728582
  0
LINE
  5
247
100
AcDbEntity
  8
RACCORDO
100
AcDbLine
 62
253
  6
CONTINUOUS
 10
-10.0756167788
 20
-11.2103751093
 11
-10.0221313183
 21
-11.0497882415
  0
LINE
  5
248
100
AcDbEntity
  8
ASSI
100
AcDbLine
 62
253
  6
CONTINUOUS
 10
-10.0756167788
 20
-11.2103751093
 11
-10.0221313183
 21
-11.0497882415
  0
LINE
  5
249
100
AcDbEntity
  8
RACCORDO
100
AcDbLine
 62
7
  6
CONTINUOUS
 10
26.4025041676
 20
-11.2103751093
 11
26.7531941337
 21
-11.1785419513
  0
LINE
  5
24A
100
AcDbEntity
  8
ASSI
100
AcDbLine
 62
7
  6
CONTINUOUS
 10
26.4025041676
 20
-11.2103751093
 11
26.7531941337
 21
-11.1785419513
  0
LINE
  5
24B
100
AcDbEntity
  8
RACCORDO
100
AcDbLine
 62
7
  6
CONTINUOUS
 10
-2.8806458464
 20
-11.2103751093
 11
-3.2313358125
 21
-11.1785419513
  0
LINE
  5
24C
100
AcDbEntity
  8
ASSI
100
AcDbLine
 62
7
  6
CONTINUOUS
 10
-2.8806458464
 20
-11.2103751093
 11
-3.2313358125
 21
-11.1785419513
  0
LINE
  5
24D
100
AcDbEntity
  8
RACCORDO
100
AcDbLine
 62
7
  6
CONTINUOUS
 10
15.2025041676
 20
-11.2103751093
 11
15.5531941337
 21
-11.1785419513
  0
LINE
  5
24E
100
AcDbEntity
  8
ASSI
100
AcDbLine
 62
7
  6
CONTINUOUS
 10
15.2025041676
 20
-11.2103751093
 11
15.5531941337
 21
-11.1785419513
  0
LINE
  5
24F
100
AcDbEntity
  8
RACCORDO
100
AcDbLine
 62
7
  6
CONTINUOUS
 10
3.9025041676
 20
-11.2103751093
 11
4.2531941337
 21
-11.1785419513
  0
LINE
  5
250
100
AcDbEntity
  8
ASSI
100
AcDbLine
 62
7
  6
CONTINUOUS
 10
3.9025041676
 20
-11.2103751093
 11
4.2531941337
 21
-11.1785419513
  0
LINE
  5
251
100
AcDbEntity
  8
RACCORDO
100
AcDbLine
 62
7
  6
CONTINUOUS
 10
-10.0756167788
 20
-11.2103751093
 11
-7.2974958324
 21
-11.2103751093
  0
LINE
  5
252
100
AcDbEntity
  8
ASSI
100
AcDbLine
 62
7
  6
CONTINUOUS
 10
-10.0756167788
 20
-11.2103751093
 11
-7.2974958324
 21
-11.2103751093
  0
LINE
  5
253
100
AcDbEntity
  8
DRAFT
100
AcDbLine
 62
7
  6
CONTINUOUS
 10
-2.8806458464
 20
-11.2103751093
 11
3.9025041676
 21
-11.2103751093
  0
LINE
  5
254
100
AcDbEntity
  8
ASSI
100
AcDbLine
 62
7
  6
CONTINUOUS
 10
-2.8806458464
 20
-11.2103751093
 11
3.9025041676
 21
-11.2103751093
  0
LINE
  5
255
100
AcDbEntity
  8
DRAFT
100
AcDbLine
 62
7
  6
CONTINUOUS
 10
8.3193541536
 20
-11.2103751093
 11
15.2025041676
 21
-11.2103751093
  0
LINE
  5
256
100
AcDbEntity
  8
ASSI
100
AcDbLine
 62
7
  6
CONTINUOUS
 10
8.3193541536
 20
-11.2103751093
 11
15.2025041676
 21
-11.2103751093
  0
LINE
  5
257
100
AcDbEntity
  8
DRAFT
100
AcDbLine
 62
7
  6
CONTINUOUS
 10
19.6193541536
 20
-11.2103751093
 11
26.4025041676
 21
-11.2103751093
  0
LINE
  5
258
100
AcDbEntity
  8
ASSI
100
AcDbLine
 62
7
  6
CONTINUOUS
 10
19.6193541536
 20
-11.2103751093
 11
26.4025041676
 21
-11.2103751093
  0
LINE
  5
259
100
AcDbEntity
  8
RACCORDO
100
AcDbLine
 62
7
  6
CONTINUOUS
 10
30.8193541536
 20
-11.2103751093
 11
33.5974751
 21
-11.2103751093
  0
LINE
  5
25A
100
AcDbEntity
  8
ASSI
100
AcDbLine
 62
7
  6
CONTINUOUS
 10
30.8193541536
 20
-11.2103751093
 11
33.5974751
 21
-11.2103751093
  0
LINE
  5
25B
100
AcDbEntity
  8
RACCORDO
100
AcDbLine
 62
7
  6
CONTINUOUS
 10
-6.7736007855
 20
-11.1733011734
 11
-3.4045408932
 21
-11.1733011734
  0
LINE
  5
25C
100
AcDbEntity
  8
ASSI
100
AcDbLine
 62
7
  6
CONTINUOUS
 10
-6.7736007855
 20
-11.1733011734
 11
-3.4045408932
 21
-11.1733011734
  0
LINE
  5
25D
100
AcDbEntity
  8
RACCORDO
100
AcDbLine
 62
7
  6
CONTINUOUS
 10
4.4263992145
 20
-11.1733011734
 11
7.7954591068
 21
-11.1733011734
  0
LINE
  5
25E
100
AcDbEntity
  8
ASSI
100
AcDbLine
 62
7
  6
CONTINUOUS
 10
4.4263992145
 20
-11.1733011734
 11
7.7954591068
 21
-11.1733011734
  0
LINE
  5
25F
100
AcDbEntity
  8
RACCORDO
100
AcDbLine
 62
7
  6
CONTINUOUS
 10
15.7263992145
 20
-11.1733011734
 11
19.0954591068
 21
-11.1733011734
  0
LINE
  5
260
100
AcDbEntity
  8
ASSI
100
AcDbLine
 62
7
  6
CONTINUOUS
 10
15.7263992145
 20
-11.1733011734
 11
19.0954591068
 21
-11.1733011734
  0
LINE
  5
261
100
AcDbEntity
  8
RACCORDO
100
AcDbLine
 62
7
  6
CONTINUOUS
 10
26.9263992145
 20
-11.1733011734
 11
30.2954591068
 21
-11.1733011734
  0
LINE
  5
262
100
AcDbEntity
  8
ASSI
100
AcDbLine
 62
7
  6
CONTINUOUS
 10
26.9263992145
 20
-11.1733011734
 11
30.2954591068
 21
-11.1733011734
  0
LINE
  5
263
100
AcDbEntity
  8
RACCORDO
100
AcDbLine
 62
253
  6
CONTINUOUS
 10
33.5439896396
 20
-11.0497882415
 11
-10.0221313183
 21
-11.0497882415
  0
LINE
  5
264
100
AcDbEntity
  8
ASSI
100
AcDbLine
 62
253
  6
CONTINUOUS
 10
33.5439896396
 20
-11.0497882415
 11
-10.0221313183
 21
-11.0497882415
  0
LINE
  5
265
100
AcDbEntity
  8
RACCORDO
100
AcDbLine
 62
7
  6
CONTINUOUS
 10
8.3193541536
 20
-11.2103751093
 11
7.9686641875
 21
-11.1785419513
  0
LINE
  5
266
100
AcDbEntity
  8
ASSI
100
AcDbLine
 62
7
  6
CONTINUOUS
 10
8.3193541536
 20
-11.2103751093
 11
7.9686641875
 21
-11.1785419513
  0
LINE
  5
267
100
AcDbEntity
  8
RACCORDO
100
AcDbLine
 62
7
  6
CONTINUOUS
 10
19.6193541536
 20
-11.2103751093
 11
19.2686641875
 21
-11.1785419513
  0
LINE
  5
268
100
AcDbEntity
  8
ASSI
100
AcDbLine
 62
7
  6
CONTINUOUS
 10
19.6193541536
 20
-11.2103751093
 11
19.2686641875
 21
-11.1785419513
  0
LINE
  5
269
100
AcDbEntity
  8
RACCORDO
100
AcDbLine
 62
7
  6
CONTINUOUS
 10
-7.2974958324
 20
-11.2103751093
 11
-6.9468058663
 21
-11.1785419513
  0
LINE
  5
26A
100
AcDbEntity
  8
ASSI
100
AcDbLine
 62
7
  6
CONTINUOUS
 10
-7.2974958324
 20
-11.2103751093
 11
-6.9468058663
 21
-11.1785419513
  0
LINE
  5
26B
100
AcDbEntity
  8
RACCORDO
100
AcDbLine
 62
253
  6
CONTINUOUS
 10
33.5274626489
 20
-9.6135170393
 11
-10.0056043276
 21
-9.6135170394
  0
LINE
  5
26C
100
AcDbEntity
  8
ASSI
100
AcDbLine
 62
253
  6
CONTINUOUS
 10
33.5274626489
 20
-9.6135170393
 11
-10.0056043276
 21
-9.6135170394
  0
LINE
  5
26D
100
AcDbEntity
  8
RACCORDO
100
AcDbLine
 62
7
  6
CONTINUOUS
 10
30.8193541536
 20
-11.2103751093
 11
30.4686641875
 21
-11.1785419513
  0
LINE
  5
26E
100
AcDbEntity
  8
ASSI
100
AcDbLine
 62
7
  6
CONTINUOUS
 10
30.8193541536
 20
-11.2103751093
 11
30.4686641875
 21
-11.1785419513
  0
LINE
  5
26F
100
AcDbEntity
  8
CURVE
100
AcDbLine
 62
253
  6
CONTINUOUS
 10
8.2609291606
 20
-1.3238546098
 11
11.7609291606
 21
-4.8238546098
  0
LINE
  5
270
100
AcDbEntity
  8
CURVE
100
AcDbLine
 62
253
  6
CONTINUOUS
 10
11.7609291606
 20
-3.5510624036
 11
8.2609291606
 21
-0.0510624036
  0
LINE
  5
271
100
AcDbEntity
  8
RACCORDO
100
AcDbLine
 62
253
  6
CONTINUOUS
 10
33.9109291595
 20
10.8489375964
 11
33.8200430524
 21
10.8034980037
  0
LINE
  5
272
100
AcDbEntity
  8
ASSI
100
AcDbLine
 62
253
  6
CONTINUOUS
 10
33.9109291595
 20
10.8489375964
 11
33.8200430524
 21
10.8034980037
  0
LINE
  5
273
100
AcDbEntity
  8
CURVE
100
AcDbLine
 62
253
  6
CONTINUOUS
 10
8.2609291606
 20
-0.0510624036
 11
15.2609291606
 21
-0.0510624036
  0
LINE
  5
274
100
AcDbEntity
  8
RACCORDO
100
AcDbLine
 62
253
  6
CONTINUOUS
 10
-10.4981542702
 20
10.6035056191
 11
-10.5890708394
 21
10.6489604417
  0
LINE
  5
275
100
AcDbEntity
  8
ASSI
100
AcDbLine
 62
253
  6
CONTINUOUS
 10
-10.4981542702
 20
10.6035056191
 11
-10.5890708394
 21
10.6489604417
  0
LINE
  5
276
100
AcDbEntity
  8
RACCORDO
100
AcDbLine
 62
253
  6
CONTINUOUS
 10
-10.2981847312
 20
10.8034980037
 11
-10.3890708382
 21
10.8489375964
  0
LINE
  5
277
100
AcDbEntity
  8
ASSI
100
AcDbLine
 62
253
  6
CONTINUOUS
 10
-10.2981847312
 20
10.8034980037
 11
-10.3890708382
 21
10.8489375964
  0
LINE
  5
278
100
AcDbEntity
  8
RACCORDO
100
AcDbLine
 62
253
  6
CONTINUOUS
 10
34.1109291606
 20
10.6489604417
 11
34.0200125915
 21
10.6035056191
  0
LINE
  5
279
100
AcDbEntity
  8
ASSI
100
AcDbLine
 62
253
  6
CONTINUOUS
 10
34.1109291606
 20
10.6489604417
 11
34.0200125915
 21
10.6035056191
  0
LINE
  5
27A
100
AcDbEntity
  8
CURVE
100
AcDbLine
 62
253
  6
CONTINUOUS
 10
15.2609291606
 20
-0.0510624036
 11
11.7609291606
 21
-3.5510624036
  0
LINE
  5
27B
100
AcDbEntity
  8
CURVE
100
AcDbLine
 62
253
  6
CONTINUOUS
 10
11.7609291606
 20
-4.8238546098
 11
15.2609291606
 21
-1.3238546098
  0
LINE
  5
27C
100
AcDbEntity
  8
DRAFT
100
AcDbLine
 62
7
  6
CONTINUOUS
 10
31.5233951512
 20
10.8489375964
 11
31.2609291606
 21
10.822756993
  0
LINE
  5
27D
100
AcDbEntity
  8
ASSI
100
AcDbLine
 62
7
  6
CONTINUOUS
 10
31.5233951512
 20
10.8489375964
 11
31.2609291606
 21
10.822756993
  0
LINE
  5
27E
100
AcDbEntity
  8
DRAFT
100
AcDbLine
 62
7
  6
CONTINUOUS
 10
-8.00153683
 20
10.8489375964
 11
-7.7390708394
 21
10.822756993
  0
LINE
  5
27F
100
AcDbEntity
  8
ASSI
100
AcDbLine
 62
7
  6
CONTINUOUS
 10
-8.00153683
 20
10.8489375964
 11
-7.7390708394
 21
10.822756993
  0
LINE
  5
280
100
AcDbEntity
  8
RACCORDO
100
AcDbLine
 62
253
  6
CONTINUOUS
 10
33.5200762906
 20
10.6007940068
 11
-9.9982179694
 21
10.6007940068
  0
LINE
  5
281
100
AcDbEntity
  8
ASSI
100
AcDbLine
 62
253
  6
CONTINUOUS
 10
33.5200762906
 20
10.6007940068
 11
-9.9982179694
 21
10.6007940068
  0
LINE
  5
282
100
AcDbEntity
  8
RACCORDO
100
AcDbLine
 62
253
  6
CONTINUOUS
 10
33.5200887725
 20
10.8009256498
 11
-9.9982304513
 21
10.8009256498
  0
LINE
  5
283
100
AcDbEntity
  8
ASSI
100
AcDbLine
 62
7
  6
CONTINUOUS
 10
33.5200887725
 20
10.8009256498
 11
-9.9982304513
 21
10.8009256498
  0
LINE
  5
284
100
AcDbEntity
  8
DRAFT
100
AcDbLine
 62
7
  6
CONTINUOUS
 10
-7.7390708394
 20
10.822756993
 11
31.2609291606
 21
10.822756993
  0
LINE
  5
285
100
AcDbEntity
  8
ASSI
100
AcDbLine
 62
7
  6
CONTINUOUS
 10
-7.7390708394
 20
10.822756993
 11
31.2609291606
 21
10.822756993
  0
LINE
  5
286
100
AcDbEntity
  8
RACCORDO
100
AcDbLine
 62
7
  6
CONTINUOUS
 10
-10.3890708382
 20
10.8489375964
 11
-8.00153683
 21
10.8489375964
  0
LINE
  5
287
100
AcDbEntity
  8
ASSI
100
AcDbLine
 62
7
  6
CONTINUOUS
 10
-10.3890708382
 20
10.8489375964
 11
-8.00153683
 21
10.8489375964
  0
LINE
  5
288
100
AcDbEntity
  8
RACCORDO
100
AcDbLine
 62
7
  6
CONTINUOUS
 10
31.5233951512
 20
10.8489375964
 11
33.9109291595
 21
10.8489375964
  0
LINE
  5
289
100
AcDbEntity
  8
ASSI
100
AcDbLine
 62
7
  6
CONTINUOUS
 10
31.5233951512
 20
10.8489375964
 11
33.9109291595
 21
10.8489375964
  0
LINE
  5
28A
100
AcDbEntity
  8
RACCORDO
100
AcDbLine
 62
253
  6
CONTINUOUS
 10
33.5439896396
 20
-11.0497882415
 11
33.5974751
 21
-11.2103751093
  0
LINE
  5
28B
100
AcDbEntity
  8
ASSI
100
AcDbLine
 62
253
  6
CONTINUOUS
 10
33.5439896396
 20
-11.0497882415
 11
33.5974751
 21
-11.2103751093
  0
LINE
  5
28C
100
AcDbEntity
  8
RACCORDO
100
AcDbLine
 62
253
  6
CONTINUOUS
 10
34.043913282
 20
-10.5504728582
 11
34.0978549233
 21
-10.7124293815
  0
LINE
  5
28D
100
AcDbEntity
  8
ASSI
100
AcDbLine
 62
253
  6
CONTINUOUS
 10
34.043913282
 20
-10.5504728582
 11
34.0978549233
 21
-10.7124293815
  0
LINE
  5
28E
100
AcDbEntity
  8
RACCORDO
100
AcDbLine
 62
253
  6
CONTINUOUS
 10
33.5200887725
 20
10.6007940068
 11
33.5200887725
 21
10.8009256498
  0
LINE
  5
28F
100
AcDbEntity
  8
ASSI
100
AcDbLine
 62
253
  6
CONTINUOUS
 10
33.5200887725
 20
10.6007940068
 11
33.5200887725
 21
10.8009256498
  0
LINE
  5
290
100
AcDbEntity
  8
RACCORDO
100
AcDbLine
 62
7
  6
CONTINUOUS
 10
34.1109291606
 20
10.6489604417
 11
34.1109291606
 21
-2.1510624036
  0
LINE
  5
291
100
AcDbEntity
  8
ASSI
100
AcDbLine
 62
7
  6
CONTINUOUS
 10
34.1109291606
 20
10.6489604417
 11
34.1109291606
 21
-2.1510624036
  0
LINE
  5
292
100
AcDbEntity
  8
RACCORDO
100
AcDbLine
 62
7
  6
CONTINUOUS
 10
34.1109291606
 20
-2.1510624036
 11
34.0978549233
 21
-10.7124293815
  0
LINE
  5
293
100
AcDbEntity
  8
ASSI
100
AcDbLine
 62
7
  6
CONTINUOUS
 10
34.1109291606
 20
-2.1510624036
 11
34.0978549233
 21
-10.7124293815
  0
LINE
  5
294
100
AcDbEntity
  8
RACCORDO
100
AcDbLine
 62
7
  6
CONTINUOUS
 10
-25.8867896026
 20
-11.0497882415
 11
-22.8226096274
 21
-11.2103751093
  0
LINE
  5
295
100
AcDbEntity
  8
ASSI
100
AcDbLine
 62
7
  6
CONTINUOUS
 10
-25.8867896026
 20
-11.0497882415
 11
-22.8226096274
 21
-11.2103751093
  0
LINE
  5
296
100
AcDbEntity
  8
RACCORDO
100
AcDbLine
 62
253
  6
CONTINUOUS
 10
-25.8693595803
 20
-10.5504728582
 11
-22.7790450212
 21
-10.7124293815
  0
LINE
  5
297
100
AcDbEntity
  8
ASSI
100
AcDbLine
 62
253
  6
CONTINUOUS
 10
-25.8693595803
 20
-10.5504728582
 11
-22.7790450212
 21
-10.7124293815
  0
LINE
  5
298
100
AcDbEntity
  8
RACCORDO
100
AcDbLine
 62
253
  6
CONTINUOUS
 10
-26.816177636
 20
-9.5929682601
 11
-27.3070281638
 21
-9.6135307171
  0
LINE
  5
299
100
AcDbEntity
  8
ASSI
100
AcDbLine
 62
253
  6
CONTINUOUS
 10
-26.816177636
 20
-9.5929682601
 11
-27.3070281638
 21
-9.6135307171
  0
LINE
  5
29A
100
AcDbEntity
  8
RACCORDO
100
AcDbLine
 62
253
  6
CONTINUOUS
 10
-22.4300224663
 20
-6.9845540048
 11
-22.4528981866
 21
-6.984554004
  0
LINE
  5
29B
100
AcDbEntity
  8
ASSI
100
AcDbLine
 62
253
  6
CONTINUOUS
 10
-22.4300224663
 20
-6.9845540048
 11
-22.4528981866
 21
-6.984554004
  0
LINE
  5
29C
100
AcDbEntity
  8
RACCORDO
100
AcDbLine
 62
7
  6
CONTINUOUS
 10
-22.4300224663
 20
-6.7230833247
 11
-22.4300224663
 21
-6.9845540048
  0
LINE
  5
29D
100
AcDbEntity
  8
ASSI
100
AcDbLine
 62
7
  6
CONTINUOUS
 10
-22.4300224663
 20
-6.7230833247
 11
-22.4300224663
 21
-6.9845540048
  0
LINE
  5
29E
100
AcDbEntity
  8
RACCORDO
100
AcDbLine
 62
7
  6
CONTINUOUS
 10
-22.0300224663
 20
10.8489375964
 11
-22.0300224663
 21
-2.1510624036
  0
LINE
  5
29F
100
AcDbEntity
  8
ASSI
100
AcDbLine
 62
7
  6
CONTINUOUS
 10
-22.0300224663
 20
10.8489375964
 11
-22.0300224663
 21
-2.1510624036
  0
LINE
  5
2A0
100
AcDbEntity
  8
RACCORDO
100
AcDbLine
 62
7
  6
CONTINUOUS
 10
-22.0300224663
 20
-2.1510624036
 11
-22.8226096274
 21
-11.2103751093
  0
LINE
  5
2A1
100
AcDbEntity
  8
ASSI
100
AcDbLine
 62
7
  6
CONTINUOUS
 10
-22.0300224663
 20
-2.1510624036
 11
-22.8226096274
 21
-11.2103751093
  0
LINE
  5
2A2
100
AcDbEntity
  8
0
100
AcDbLine
 62
7
  6
CONTINUOUS
 10
-21.2300224663
 20
5.5489375964
 11
-21.2300224663
 21
7.3489375964
  0
LINE
  5
2A3
100
AcDbEntity
  8
0
100
AcDbLine
 62
7
  6
CONTINUOUS
 10
-22.0300224663
 20
5.5089375964
 11
-21.2300224663
 21
5.5489375964
  0
LINE
  5
2A4
100
AcDbEntity
  8
0
100
AcDbLine
 62
7
  6
CONTINUOUS
 10
-22.0300224663
 20
7.3889375964
 11
-21.2300224663
 21
7.3489375964
  0
LINE
  5
2A5
100
AcDbEntity
  8
RACCORDO
100
AcDbLine
 62
253
  6
CONTINUOUS
 10
-22.0300224663
 20
10.6489604417
 11
-27.2386292244
 21
10.6035056191
  0
LINE
  5
2A6
100
AcDbEntity
  8
ASSI
100
AcDbLine
 62
253
  6
CONTINUOUS
 10
-22.0300224663
 20
10.6489604417
 11
-27.2386292244
 21
10.6035056191
  0
LINE
  5
2A7
100
AcDbEntity
  8
RACCORDO
100
AcDbLine
 62
7
  6
CONTINUOUS
 10
-22.0300224663
 20
10.8489375964
 11
-27.5316466167
 21
10.8009256498
  0
LINE
  5
2A8
100
AcDbEntity
  8
ASSI
100
AcDbLine
 62
7
  6
CONTINUOUS
 10
-22.0300224663
 20
10.8489375964
 11
-27.5316466167
 21
10.8009256498
  0
ARC
  5
2A9
100
AcDbEntity
  8
RACCORDO
100
AcDbCircle
 62
253
  6
CONTINUOUS
 10
11.76092916
 20
6.4485273354
 40
1.4205643605
100
AcDbArc
 50
359.9802406462
 51
180.0197593538
  0
ARC
  5
2AA
100
AcDbEntity
  8
ASSI
100
AcDbCircle
 62
253
  6
CONTINUOUS
 10
11.76092916
 20
6.4485273354
 40
1.4205643605
100
AcDbArc
 50
359.9802406462
 51
180.0197593538
  0
ARC
  5
2AB
100
AcDbEntity
  8
RACCORDO
100
AcDbCircle
 62
253
  6
CONTINUOUS
 10
11.7609291613
 20
6.4479939298
 40
1.4205642984
100
AcDbArc
 50
179.9982461073
 51
0.0017538927
  0
ARC
  5
2AC
100
AcDbEntity
  8
ASSI
100
AcDbCircle
 62
253
  6
CONTINUOUS
 10
11.7609291613
 20
6.4479939298
 40
1.4205642984
100
AcDbArc
 50
179.9982461073
 51
0.0017538927
  0
CIRCLE
  5
2AD
100
AcDbEntity
  8
RACCORDO
100
AcDbCircle
 62
253
  6
CONTINUOUS
 10
11.7609291607
 20
6.4491230782
 40
1.3206291745
  0
CIRCLE
  5
2AE
100
AcDbEntity
  8
ASSI
100
AcDbCircle
 62
253
  6
CONTINUOUS
 10
11.7609291607
 20
6.4491230782
 40
1.3206291745
  0
CIRCLE
  5
2AF
100
AcDbEntity
  8
DRAFT
100
AcDbCircle
 62
7
  6
CONTINUOUS
 10
11.7609291606
 20
6.4489375964
 40
1.3
  0
CIRCLE
  5
2B0
100
AcDbEntity
  8
ASSI
100
AcDbCircle
 62
7
  6
CONTINUOUS
 10
11.7609291606
 20
6.4489375964
 40
1.3
  0
CIRCLE
  5
2B1
100
AcDbEntity
  8
DRAFT
100
AcDbCircle
 62
7
  6
CONTINUOUS
 10
11.7609291606
 20
6.4489375964
 40
1.225
  0
CIRCLE
  5
2B2
100
AcDbEntity
  8
RACCORDO
100
AcDbCircle
 62
253
  6
CONTINUOUS
 10
11.7609291606
 20
6.4489375964
 40
1.2068524201
  0
CIRCLE
  5
2B3
100
AcDbEntity
  8
RACCORDO
100
AcDbCircle
 62
253
  6
CONTINUOUS
 10
11.7609291606
 20
6.4489375964
 40
1.1180464865
  0
ARC
  5
2B4
100
AcDbEntity
  8
RACCORDO
100
AcDbCircle
 62
253
  6
CONTINUOUS
 10
-10.0219261512
 20
-10.5495822628
 40
0.5001711055
100
AcDbArc
 50
180.1020283288
 51
269.9765227258
  0
ARC
  5
2B5
100
AcDbEntity
  8
RACCORDO
100
AcDbCircle
 62
253
  6
CONTINUOUS
 10
33.5437844333
 20
-10.5495823016
 40
0.5001711055
100
AcDbArc
 50
270.0234817611
 51
359.8979761303
  0
ARC
  5
2B6
100
AcDbEntity
  8
ASSI
100
AcDbCircle
 62
253
  6
CONTINUOUS
 10
33.5437844333
 20
-10.5495823016
 40
0.5001711055
100
AcDbArc
 50
270.0234817611
 51
359.8979761303
  0
ARC
  5
2B7
100
AcDbEntity
  8
ASSI
100
AcDbCircle
 62
253
  6
CONTINUOUS
 10
-10.0219261512
 20
-10.5495822628
 40
0.5001711055
100
AcDbArc
 50
180.1020283288
 51
269.9765227258
  0
ARC
  5
2B8
100
AcDbEntity
  8
RACCORDO
100
AcDbCircle
 62
253
  6
CONTINUOUS
 10
-10.2981354504
 20
10.6034818076
 40
0.2000177349
100
AcDbArc
 50
90.0141167675
 51
179.9931791556
  0
ARC
  5
2B9
100
AcDbEntity
  8
RACCORDO
100
AcDbCircle
 62
253
  6
CONTINUOUS
 10
33.8199937785
 20
10.6034818145
 40
0.2000177349
100
AcDbArc
 50
0.0068188717
 51
89.9858852041
  0
ARC
  5
2BA
100
AcDbEntity
  8
ASSI
100
AcDbCircle
 62
253
  6
CONTINUOUS
 10
33.8199937785
 20
10.6034818145
 40
0.2000177349
100
AcDbArc
 50
0.0068188717
 51
89.9858852041
  0
ARC
  5
2BB
100
AcDbEntity
  8
ASSI
100
AcDbCircle
 62
253
  6
CONTINUOUS
 10
-10.2981354504
 20
10.6034818076
 40
0.2000177349
100
AcDbArc
 50
90.0141167675
 51
179.9931791556
  0
ARC
  5
2BC
100
AcDbEntity
  8
RACCORDO
100
AcDbCircle
 62
7
  6
CONTINUOUS
 10
-25.8082974208
 20
-9.5518433235
 40
1.5
100
AcDbArc
 50
182.3564266604
 51
267.0004495319
  0
ARC
  5
2BD
100
AcDbEntity
  8
ASSI
100
AcDbCircle
 62
7
  6
CONTINUOUS
 10
-25.8082974208
 20
-9.5518433235
 40
1.5
100
AcDbArc
 50
182.3564266604
 51
267.0004495319
  0
ARC
  5
2BE
100
AcDbEntity
  8
RACCORDO
100
AcDbCircle
 62
253
  6
CONTINUOUS
 10
-25.8170236182
 20
-9.5518433177
 40
1.0000000061
100
AcDbArc
 50
182.3569503067
 51
266.9999996841
  0
ARC
  5
2BF
100
AcDbEntity
  8
ASSI
100
AcDbCircle
 62
253
  6
CONTINUOUS
 10
-25.8170236182
 20
-9.5518433177
 40
1.0000000061
100
AcDbArc
 50
182.3569503067
 51
266.9999996841
  0
ARC
  5
2C0
100
AcDbEntity
  8
RACCORDO
100
AcDbCircle
 62
7
  6
CONTINUOUS
 10
-22.7300224663
 20
-6.9845540048
 40
0.3
100
AcDbArc
 50
335.0
 51
360.0
  0
ARC
  5
2C1
100
AcDbEntity
  8
ASSI
100
AcDbCircle
 62
7
  6
CONTINUOUS
 10
-22.7300224663
 20
-6.9845540048
 40
0.3
100
AcDbArc
 50
335.0
 51
360.0
  0
ARC
  5
2C2
100
AcDbEntity
  8
RACCORDO
100
AcDbCircle
 62
7
  6
CONTINUOUS
 10
-27.5299009168
 20
10.6009332686
 40
0.2
100
AcDbArc
 50
90.5001125223
 51
180.0398954802
  0
ARC
  5
2C3
100
AcDbEntity
  8
ASSI
100
AcDbCircle
 62
7
  6
CONTINUOUS
 10
-27.5299009168
 20
10.6009332686
 40
0.2
100
AcDbArc
 50
90.5001125223
 51
180.0398954802
  0
ARC
  5
2C4
100
AcDbEntity
  8
RACCORDO
100
AcDbCircle
 62
7
  6
CONTINUOUS
 10
472.2699775337
 20
10.9489375964
 40
500.0
100
AcDbArc
 50
180.0398943199
 51
182.3569484208
  0
ARC
  5
2C5
100
AcDbEntity
  8
ASSI
100
AcDbCircle
 62
7
  6
CONTINUOUS
 10
472.2699775337
 20
10.9489375964
 40
500.0
100
AcDbArc
 50
180.0398943199
 51
182.3569484208
  0
ARC
  5
2C6
100
AcDbEntity
  8
RACCORDO
100
AcDbCircle
 62
253
  6
CONTINUOUS
 10
472.2612456732
 20
10.9489374182
 40
499.4999943402
100
AcDbArc
 50
180.0396231952
 51
182.356949997
  0
ARC
  5
2C7
100
AcDbEntity
  8
ASSI
100
AcDbCircle
 62
253
  6
CONTINUOUS
 10
472.2612456732
 20
10.9489374182
 40
499.4999943402
100
AcDbArc
 50
180.0396231952
 51
182.356949997
  0
SPLINE
  5
2C8
100
AcDbEntity
  8
RACCORDO
100
AcDbSpline
 62
253
  6
CONTINUOUS
 70
0
 71
3
 72
18
 73
14
 74
12
 42
0.0000001
 43
0.0000001
 44
0.0000000001
 12
-0.299989706
 22
0.000000142
 32
0.0
 13
-0.2684874758
 23
0.133821893
 33
0.0
 40
0.0
 40
0.0
 40
0.0
 40
0.0
 40
0.1406746255
 40
0.2786286441
 40
0.4110478798
 40
0.5352794916
 40
0.6488611016
 40
0.7495250868
 40
0.8352602903
 40
0.9043609514
 40
0.955459893
 40
0.9875422799
 40
1.0
 40
1.0
 40
1.0
 40
1.0
 10
-9.9982304513
 20
10.8009256498
 30
0.0
 10
-10.0122974311
 20
10.8009256565
 30
0.0
 10
-10.0401593552
 20
10.8009426267
 30
0.0
 10
-10.0812626175
 20
10.8010191069
 30
0.0
 10
-10.1207217529
 20
10.8011440155
 30
0.0
 10
-10.1577427041
 20
10.8013176972
 30
0.0
 10
-10.1915906856
 20
10.801526396
 30
0.0
 10
-10.2215802317
 20
10.8017969739
 30
0.0
 10
-10.2471467411
 20
10.8020277676
 30
0.0
 10
-10.2676862183
 20
10.8024792179
 30
0.0
 10
-10.2830319081
 20
10.8024581508
 30
0.0
 10
-10.2923642803
 20
10.8034045383
 30
0.0
 10
-10.2970698173
 20
10.8029422985
 30
0.0
 10
-10.2981847312
 20
10.8034980037
 30
0.0
 11
-9.9982304513
 21
10.8009256498
 31
0.0
 11
-10.0404313828
 21
10.8009516815
 31
0.0
 11
-10.0818160955
 21
10.801029321
 31
0.0
 11
-10.1215402978
 21
10.8011570314
 31
0.0
 11
-10.1588080905
 21
10.8013322635
 31
0.0
 11
-10.1928806987
 21
10.8015515463
 31
0.0
 11
-10.2230777476
 21
10.8018105111
 31
0.0
 11
-10.2487957518
 21
10.8021039815
 31
0.0
 11
-10.2695227359
 21
10.802426101
 31
0.0
 11
-10.2848480234
 21
10.8027704843
 31
0.0
 11
-10.2944656834
 21
10.8031302319
 31
0.0
 11
-10.2981847312
 21
10.8034980037
 31
0.0
  0
SPLINE
  5
2C9
100
AcDbEntity
  8
RACCORDO
100
AcDbSpline
 62
253
  6
CONTINUOUS
 70
0
 71
3
 72
18
 73
14
 74
12
 42
0.0000001
 43
0.0000001
 44
0.0000000001
 12
-0.2684874777
 22
-0.1338218893
 32
0.0
 13
-0.299989706
 23
-0.000000142
 33
0.0
 40
0.0
 40
0.0
 40
0.0
 40
0.0
 40
0.01245772
 40
0.0445401068
 40
0.0956390483
 40
0.1647397093
 40
0.2504749128
 40
0.351138898
 40
0.4647205079
 40
0.5889521196
 40
0.7213713552
 40
0.8593253738
 40
1.0
 40
1.0
 40
1.0
 40
1.0
 10
33.8200430524
 20
10.8034980037
 30
0.0
 10
33.8189281385
 20
10.8029422985
 30
0.0
 10
33.8142226016
 20
10.8034045383
 30
0.0
 10
33.8048902294
 20
10.8024581508
 30
0.0
 10
33.7895445397
 20
10.8024792179
 30
0.0
 10
33.7690050624
 20
10.8020277676
 30
0.0
 10
33.7434385531
 20
10.8017969739
 30
0.0
 10
33.713449007
 20
10.801526396
 30
0.0
 10
33.6796010255
 20
10.8013176972
 30
0.0
 10
33.6425800743
 20
10.8011440155
 30
0.0
 10
33.6031209389
 20
10.8010191069
 30
0.0
 10
33.5620176766
 20
10.8009426267
 30
0.0
 10
33.5341557524
 20
10.8009256565
 30
0.0
 10
33.5200887725
 20
10.8009256498
 30
0.0
 11
33.8200430524
 21
10.8034980037
 31
0.0
 11
33.8163240047
 21
10.8031302319
 31
0.0
 11
33.8067063447
 21
10.8027704843
 31
0.0
 11
33.7913810572
 21
10.802426101
 31
0.0
 11
33.7706540731
 21
10.8021039815
 31
0.0
 11
33.744936069
 21
10.8018105111
 31
0.0
 11
33.7147390201
 21
10.8015515463
 31
0.0
 11
33.6806664119
 21
10.8013322635
 31
0.0
 11
33.6433986192
 21
10.8011570314
 31
0.0
 11
33.6036744169
 21
10.801029321
 31
0.0
 11
33.5622897042
 21
10.8009516815
 31
0.0
 11
33.5200887725
 21
10.8009256498
 31
0.0
  0
SPLINE
  5
2CA
100
AcDbEntity
  8
RACCORDO
100
AcDbSpline
 62
253
  6
CONTINUOUS
 70
0
 71
3
 72
21
 73
17
 74
15
 42
0.0000001
 43
0.0000001
 44
0.0000000001
 12
0.3113269094
 22
1.402385911
 32
0.0
 13
0.0006885319
 23
1.4365271365
 33
0.0
 40
0.0
 40
0.0
 40
0.0
 40
0.0
 40
0.0116253613
 40
0.0346870886
 40
0.0689537638
 40
0.1140486773
 40
0.1694730336
 40
0.2346119018
 40
0.3087402368
 40
0.3910339711
 40
0.4805783092
 40
0.5763759237
 40
0.6773619052
 40
0.7824150232
 40
0.8903612899
 40
1.0
 40
1.0
 40
1.0
 40
1.0
 10
-10.0221312493
 20
-11.0497882415
 30
0.0
 10
-10.0209248201
 20
-11.0443538272
 30
0.0
 10
-10.0200025614
 20
-11.0276747895
 30
0.0
 10
-10.0180580282
 20
-10.9947821411
 30
0.0
 10
-10.0165604639
 20
-10.9457220604
 30
0.0
 10
-10.0148747423
 20
-10.8812178971
 30
0.0
 10
-10.0133460103
 20
-10.801902392
 30
0.0
 10
-10.0118816572
 20
-10.7086891534
 30
0.0
 10
-10.010543833
 20
-10.6026040223
 30
0.0
 10
-10.0093358497
 20
-10.4848311833
 30
0.0
 10
-10.0082770019
 20
-10.3566800975
 30
0.0
 10
-10.0073785642
 20
-10.2195770368
 30
0.0
 10
-10.0066515224
 20
-10.0750465826
 30
0.0
 10
-10.0061042098
 20
-9.9246980178
 30
0.0
 10
-10.0057429926
 20
-9.7702055893
 30
0.0
 10
-10.0056294909
 20
-9.6660167001
 30
0.0
 10
-10.0056043276
 20
-9.6135170394
 30
0.0
 11
-10.0221312493
 21
-11.0497882415
 31
0.0
 11
-10.020300348
 21
-11.0331887603
 31
0.0
 11
-10.01849999
 21
-11.0001089152
 31
0.0
 11
-10.0167500749
 21
-10.9509150146
 31
0.0
 11
-10.0150702531
 21
-10.8861567238
 31
0.0
 11
-10.0134791469
 21
-10.8065540228
 31
0.0
 11
-10.0119944601
 21
-10.7129920393
 31
0.0
 11
-10.0106327281
 21
-10.6065133694
 31
0.0
 11
-10.0094090907
 21
-10.4883025062
 31
0.0
 11
-10.0083371518
 21
-10.3596740863
 31
0.0
 11
-10.0074288449
 21
-10.2220611953
 31
0.0
 11
-10.0066942642
 21
-10.0769939357
 31
0.0
 11
-10.0061415605
 21
-9.9260832757
 31
0.0
 11
-10.0057769086
 21
-9.7710159451
 31
0.0
 11
-10.0056043276
 21
-9.6135170394
 31
0.0
  0
SPLINE
  5
2CB
100
AcDbEntity
  8
RACCORDO
100
AcDbSpline
 62
253
  6
CONTINUOUS
 70
0
 71
3
 72
21
 73
17
 74
15
 42
0.0000001
 43
0.0000001
 44
0.0000000001
 12
0.0006885319
 22
-1.4365271366
 32
0.0
 13
0.3113269084
 23
-1.4023859114
 33
0.0
 40
0.0
 40
0.0
 40
0.0
 40
0.0
 40
0.1096387099
 40
0.2175849767
 40
0.3226380947
 40
0.4236240761
 40
0.5194216906
 40
0.6089660287
 40
0.6912597631
 40
0.765388098
 40
0.8305269663
 40
0.8859513226
 40
0.9310462361
 40
0.9653129114
 40
0.9883746386
 40
1.0
 40
1.0
 40
1.0
 40
1.0
 10
33.5274626489
 20
-9.6135170393
 30
0.0
 10
33.5274878121
 20
-9.6660166999
 30
0.0
 10
33.5276013138
 20
-9.7702055891
 30
0.0
 10
33.527962531
 20
-9.9246980175
 30
0.0
 10
33.5285098436
 20
-10.0750465823
 30
0.0
 10
33.5292368854
 20
-10.2195770365
 30
0.0
 10
33.5301353232
 20
-10.3566800973
 30
0.0
 10
33.5311941709
 20
-10.484831183
 30
0.0
 10
33.5324021542
 20
-10.602604022
 30
0.0
 10
33.5337399784
 20
-10.7086891532
 30
0.0
 10
33.5352043316
 20
-10.8019023917
 30
0.0
 10
33.5367330635
 20
-10.8812178969
 30
0.0
 10
33.5384187852
 20
-10.9457220603
 30
0.0
 10
33.5399163495
 20
-10.994782141
 30
0.0
 10
33.5418608827
 20
-11.0276747895
 30
0.0
 10
33.5427831413
 20
-11.0443538271
 30
0.0
 10
33.5439895706
 20
-11.0497882415
 30
0.0
 11
33.5274626489
 21
-9.6135170393
 31
0.0
 11
33.5276352298
 21
-9.7710159449
 31
0.0
 11
33.5279998817
 21
-9.9260832754
 31
0.0
 11
33.5285525855
 21
-10.0769939354
 31
0.0
 11
33.5292871661
 21
-10.222061195
 31
0.0
 11
33.5301954731
 21
-10.3596740861
 31
0.0
 11
33.5312674119
 21
-10.488302506
 31
0.0
 11
33.5324910493
 21
-10.6065133692
 31
0.0
 11
33.5338527814
 21
-10.712992039
 31
0.0
 11
33.5353374682
 21
-10.8065540226
 31
0.0
 11
33.5369285743
 21
-10.8861567236
 31
0.0
 11
33.5386083961
 21
-10.9509150145
 31
0.0
 11
33.5403583112
 21
-11.0001089151
 31
0.0
 11
33.5421586692
 21
-11.0331887602
 31
0.0
 11
33.5439895706
 21
-11.0497882415
 31
0.0
  0
SPLINE
  5
2CC
100
AcDbEntity
  8
RACCORDO
100
AcDbSpline
 62
253
  6
CONTINUOUS
 70
0
 71
3
 72
11
 73
7
 74
5
 42
0.0000001
 43
0.0000001
 44
0.0000000001
 12
0.0002437994
 22
-20.1964756175
 32
0.0
 13
0.0145100747
 23
-20.1964704066
 33
0.0
 40
0.0
 40
0.0
 40
0.0
 40
0.0
 40
0.2500744177
 40
0.5001049865
 40
0.750083017
 40
1.0
 40
1.0
 40
1.0
 40
1.0
 10
34.0200125915
 20
10.6035056191
 30
0.0
 10
34.0200329141
 20
8.9199649925
 30
0.0
 10
34.0203706564
 20
5.5531789331
 30
0.0
 10
34.0217685156
 20
0.5035013127
 30
0.0
 10
34.0240574452
 20
-4.5451161066
 30
0.0
 10
34.02617774
 20
-7.9104879432
 30
0.0
 10
34.0273865114
 20
-9.5929682601
 30
0.0
 11
34.0200125915
 21
10.6035056191
 31
0.0
 11
34.0205192762
 21
5.5528837643
 31
0.0
 11
34.0219172227
 21
0.5031476708
 31
0.0
 11
34.0242062956
 21
-4.5455270086
 31
0.0
 11
34.0273865114
 21
-9.5929682601
 31
0.0
  0
SPLINE
  5
2CD
100
AcDbEntity
  8
RACCORDO
100
AcDbSpline
 62
253
  6
CONTINUOUS
 70
0
 71
3
 72
21
 73
17
 74
15
 42
0.0000001
 43
0.0000001
 44
0.0000000001
 12
0.0006885301
 22
-0.957887823
 32
0.0
 13
0.3025944495
 23
-0.9088378044
 33
0.0
 40
0.0
 40
0.0
 40
0.0
 40
0.0
 40
0.1095890288
 40
0.2175144953
 40
0.3225483467
 40
0.423516912
 40
0.519299397
 40
0.6088312783
 40
0.6911156636
 40
0.7652382519
 40
0.8303754916
 40
0.8858030898
 40
0.9309078341
 40
0.965194018
 40
0.9882927082
 40
1.0
 40
1.0
 40
1.0
 40
1.0
 10
34.0273865114
 20
-9.5929682601
 30
0.0
 10
34.0274116632
 20
-9.6279595922
 30
0.0
 10
34.0275251499
 20
-9.6974110596
 30
0.0
 10
34.0278863242
 20
-9.800398891
 30
0.0
 10
34.0284336134
 20
-9.9006333878
 30
0.0
 10
34.029160659
 20
-9.9969894475
 30
0.0
 10
34.0300590912
 20
-10.0883940955
 30
0.0
 10
34.0311179823
 20
-10.1738309483
 30
0.0
 10
34.0323259148
 20
-10.2523488006
 30
0.0
 10
34.0336640444
 20
-10.3230754363
 30
0.0
 10
34.0351276712
 20
-10.3852185895
 30
0.0
 10
34.0366588254
 20
-10.4381025539
 30
0.0
 10
34.0383383702
 20
-10.4810959224
 30
0.0
 10
34.0398520389
 20
-10.5138388382
 30
0.0
 10
34.0417663857
 20
-10.5357213259
 30
0.0
 10
34.0427324282
 20
-10.5469261818
 30
0.0
 10
34.043913282
 20
-10.5504728582
 30
0.0
 11
34.0273865114
 21
-9.5929682601
 31
0.0
 11
34.0275590361
 21
-9.6979421417
 31
0.0
 11
34.0279236706
 21
-9.8013220155
 31
0.0
 11
34.028476356
 21
-9.9019311707
 31
0.0
 11
34.0292109321
 21
-9.9986449652
 31
0.0
 11
34.0301192405
 21
-10.0903893688
 31
0.0
 11
34.0311911924
 21
-10.1761441902
 31
0.0
 11
34.0324148532
 21
-10.2549539222
 31
0.0
 11
34.0337766197
 21
-10.325942005
 31
0.0
 11
34.0352613505
 21
-10.388318522
 31
0.0
 11
34.0368524987
 21
-10.4413881093
 31
0.0
 11
34.0385323711
 21
-10.4845607358
 31
0.0
 11
34.040282308
 21
-10.5173564082
 31
0.0
 11
34.0420827435
 21
-10.5394089938
 31
0.0
 11
34.043913282
 21
-10.5504728582
 31
0.0
  0
SPLINE
  5
2CE
100
AcDbEntity
  8
RACCORDO
100
AcDbSpline
 62
253
  6
CONTINUOUS
 70
0
 71
3
 72
11
 73
7
 74
5
 42
0.0000001
 43
0.0000001
 44
0.0000000001
 12
0.0002454386
 22
-20.2143127839
 32
0.0
 13
0.0145083669
 23
-20.2143075788
 33
0.0
 40
0.0
 40
0.0
 40
0.0
 40
0.0
 40
0.2500749619
 40
0.5001055662
 40
0.7500836323
 40
1.0
 40
1.0
 40
1.0
 40
1.0
 10
33.5200762906
 20
10.6007940068
 30
0.0
 10
33.52009675
 20
8.9157628405
 30
0.0
 10
33.5204529726
 20
5.5459993915
 30
0.0
 10
33.5218435767
 20
0.4918578392
 30
0.0
 10
33.524134397
 20
-4.5612147629
 30
0.0
 10
33.5262540291
 20
-7.9295549308
 30
0.0
 10
33.5274626552
 20
-9.6135170393
 30
0.0
 11
33.5200762906
 21
10.6007940068
 31
0.0
 11
33.5205957643
 21
5.5457005342
 31
0.0
 11
33.5219938083
 21
0.4915038851
 31
0.0
 11
33.5242827691
 21
-4.5616304136
 31
0.0
 11
33.5274626552
 21
-9.6135170393
 31
0.0
  0
SPLINE
  5
2CF
100
AcDbEntity
  8
RACCORDO
100
AcDbSpline
 62
253
  6
CONTINUOUS
 70
0
 71
3
 72
11
 73
7
 74
5
 42
0.0000001
 43
0.0000001
 44
0.0000000001
 12
0.0145083669
 22
20.214307579
 32
0.0
 13
0.0002454386
 23
20.214312784
 33
0.0
 40
0.0
 40
0.0
 40
0.0
 40
0.0
 40
0.2499163677
 40
0.4998944338
 40
0.7499250381
 40
1.0
 40
1.0
 40
1.0
 40
1.0
 10
-10.005604334
 20
-9.6135170394
 30
0.0
 10
-10.0043957078
 20
-7.9295549309
 30
0.0
 10
-10.0022760758
 20
-4.5612147629
 30
0.0
 10
-9.9999852555
 20
0.4918578392
 30
0.0
 10
-9.9985946514
 20
5.5459993915
 30
0.0
 10
-9.9982384287
 20
8.9157628405
 30
0.0
 10
-9.9982179694
 20
10.6007940068
 30
0.0
 11
-10.005604334
 21
-9.6135170394
 31
0.0
 11
-10.0024244479
 21
-4.5616304136
 31
0.0
 11
-10.0001354871
 21
0.4915038851
 31
0.0
 11
-9.9987374431
 21
5.5457005342
 31
0.0
 11
-9.9982179694
 21
10.6007940068
 31
0.0
  0
SPLINE
  5
2D0
100
AcDbEntity
  8
RACCORDO
100
AcDbSpline
 62
253
  6
CONTINUOUS
 70
0
 71
3
 72
21
 73
17
 74
15
 42
0.0000001
 43
0.0000001
 44
0.0000000001
 12
0.3025944467
 22
0.9088378053
 32
0.0
 13
0.0006885301
 23
0.957887823
 33
0.0
 40
0.0
 40
0.0
 40
0.0
 40
0.0
 40
0.0117072917
 40
0.034805982
 40
0.0690921658
 40
0.1141969101
 40
0.1696245083
 40
0.2347617479
 40
0.3088843362
 40
0.3911687215
 40
0.4807006028
 40
0.5764830878
 40
0.6774516531
 40
0.7824855045
 40
0.890410971
 40
1.0
 40
1.0
 40
1.0
 40
1.0
 10
-10.5220549608
 20
-10.5504728582
 30
0.0
 10
-10.520874107
 20
-10.5469261818
 30
0.0
 10
-10.5199080644
 20
-10.535721326
 30
0.0
 10
-10.5179937176
 20
-10.5138388382
 30
0.0
 10
-10.516480049
 20
-10.4810959225
 30
0.0
 10
-10.5148005042
 20
-10.438102554
 30
0.0
 10
-10.51326935
 20
-10.3852185896
 30
0.0
 10
-10.5118057232
 20
-10.3230754365
 30
0.0
 10
-10.5104675935
 20
-10.2523488007
 30
0.0
 10
-10.509259661
 20
-10.1738309485
 30
0.0
 10
-10.5082007699
 20
-10.0883940957
 30
0.0
 10
-10.5073023378
 20
-9.9969894477
 30
0.0
 10
-10.5065752921
 20
-9.900633388
 30
0.0
 10
-10.506028003
 20
-9.8003988912
 30
0.0
 10
-10.5056668286
 20
-9.6974110598
 30
0.0
 10
-10.5055533419
 20
-9.6279595922
 30
0.0
 10
-10.5055281901
 20
-9.5929682601
 30
0.0
 11
-10.5220549608
 21
-10.5504728582
 31
0.0
 11
-10.5202244222
 21
-10.5394089939
 31
0.0
 11
-10.5184239867
 21
-10.5173564083
 31
0.0
 11
-10.5166740498
 21
-10.4845607359
 31
0.0
 11
-10.5149941775
 21
-10.4413881094
 31
0.0
 11
-10.5134030292
 21
-10.3883185222
 31
0.0
 11
-10.5119182985
 21
-10.3259420052
 31
0.0
 11
-10.5105565319
 21
-10.2549539223
 31
0.0
 11
-10.5093328712
 21
-10.1761441904
 31
0.0
 11
-10.5082609192
 21
-10.090389369
 31
0.0
 11
-10.5073526109
 21
-9.9986449654
 31
0.0
 11
-10.5066180348
 21
-9.9019311709
 31
0.0
 11
-10.5060653493
 21
-9.8013220157
 31
0.0
 11
-10.5057007148
 21
-9.6979421419
 31
0.0
 11
-10.5055281901
 21
-9.5929682601
 31
0.0
  0
SPLINE
  5
2D1
100
AcDbEntity
  8
RACCORDO
100
AcDbSpline
 62
253
  6
CONTINUOUS
 70
0
 71
3
 72
11
 73
7
 74
5
 42
0.0000001
 43
0.0000001
 44
0.0000000001
 12
0.0145100747
 22
20.1964704066
 32
0.0
 13
0.0002437994
 23
20.1964756175
 33
0.0
 40
0.0
 40
0.0
 40
0.0
 40
0.0
 40
0.249916983
 40
0.4998950135
 40
0.7499255823
 40
1.0
 40
1.0
 40
1.0
 40
1.0
 10
-10.5055281901
 20
-9.5929682601
 30
0.0
 10
-10.5043194188
 20
-7.9104879432
 30
0.0
 10
-10.502199124
 20
-4.5451161066
 30
0.0
 10
-10.4999101944
 20
0.5035013127
 30
0.0
 10
-10.4985123352
 20
5.5531789331
 30
0.0
 10
-10.4981745929
 20
8.9199649925
 30
0.0
 10
-10.4981542702
 20
10.6035056191
 30
0.0
 11
-10.5055281901
 21
-9.5929682601
 31
0.0
 11
-10.5023479743
 21
-4.5455270086
 31
0.0
 11
-10.5000589015
 21
0.5031476708
 31
0.0
 11
-10.4986609549
 21
5.5528837643
 31
0.0
 11
-10.4981542702
 21
10.6035056191
 31
0.0
  0
SPLINE
  5
2D2
100
AcDbEntity
  8
RACCORDO
100
AcDbSpline
 62
253
  6
CONTINUOUS
 70
0
 71
3
 72
17
 73
13
 74
11
 42
0.0000001
 43
0.0000001
 44
0.0000000001
 12
0.1956282812
 22
-0.461440029
 32
0.0
 13
0.5011957657
 23
-0.0003594732
 33
0.0
 40
0.0
 40
0.0
 40
0.0
 40
0.0
 40
0.0160132903
 40
0.0548770558
 40
0.1162690414
 40
0.1988277038
 40
0.3006095192
 40
0.4191865661
 40
0.551717786
 40
0.6950219317
 40
0.8456561653
 40
1.0
 40
1.0
 40
1.0
 40
1.0
 10
-10.5055281901
 20
-9.5929682601
 30
0.0
 10
-10.5044839726
 20
-9.5954313178
 30
0.0
 10
-10.4931863314
 20
-9.5965756246
 30
0.0
 10
-10.4759536485
 20
-9.6002655902
 30
0.0
 10
-10.4444665985
 20
-9.6024816477
 30
0.0
 10
-10.4039373582
 20
-9.6053082235
 30
0.0
 10
-10.3532205984
 20
-9.6075879289
 30
0.0
 10
-10.2943542371
 20
-9.6096541225
 30
0.0
 10
-10.2284641766
 20
-9.6113039022
 30
0.0
 10
-10.1572312332
 20
-9.6125397008
 30
0.0
 10
-10.082340753
 20
-9.6133143845
 30
0.0
 10
-10.0313898347
 20
-9.6135122343
 30
0.0
 10
-10.0056043426
 20
-9.6135307284
 30
0.0
 11
-10.5055281901
 21
-9.5929682601
 31
0.0
 11
-10.4981600211
 21
-9.5961500013
 31
0.0
 11
-10.4789307541
 21
-9.5992551238
 31
0.0
 11
-10.4483034438
 21
-9.6022088542
 31
0.0
 11
-10.4070156179
 21
-9.6049400643
 31
0.0
 11
-10.3560615174
 21
-9.6073829846
 31
0.0
 11
-10.2966681539
 21
-9.609478788
 31
0.0
 11
-10.2302657628
 21
-9.6111770059
 31
0.0
 11
-10.1584533616
 21
-9.6124367439
 31
0.0
 11
-10.0829602452
 21
-9.6132276668
 31
0.0
 11
-10.0056043426
 21
-9.6135307284
 31
0.0
  0
SPLINE
  5
2D3
100
AcDbEntity
  8
RACCORDO
100
AcDbSpline
 62
253
  6
CONTINUOUS
 70
0
 71
3
 72
18
 73
14
 74
12
 42
0.0000001
 43
0.0000001
 44
0.0000000001
 12
-0.4999598993
 22
0.0000026839
 32
0.0
 13
-0.4768081841
 23
0.1503790427
 33
0.0
 40
0.0
 40
0.0
 40
0.0
 40
0.0
 40
0.1407570357
 40
0.2787072446
 40
0.4111226913
 40
0.5353461367
 40
0.6489169725
 40
0.7495704425
 40
0.8352997461
 40
0.9043974138
 40
0.9554947188
 40
0.9875693603
 40
1.0
 40
1.0
 40
1.0
 40
1.0
 10
-9.9982179694
 20
10.6007940017
 30
0.0
 10
-10.0216755938
 20
10.6007941276
 30
0.0
 10
-10.0681230872
 20
10.6008122293
 30
0.0
 10
-10.1366379588
 20
10.6008931811
 30
0.0
 10
-10.2023975505
 20
10.6010250402
 30
0.0
 10
-10.2640934906
 20
10.6012085112
 30
0.0
 10
-10.3204980332
 20
10.6014279292
 30
0.0
 10
-10.3704807904
 20
10.6017152954
 30
0.0
 10
-10.4130705091
 20
10.6019522922
 30
0.0
 10
-10.4473490031
 20
10.6024448127
 30
0.0
 10
-10.4728132561
 20
10.6023825116
 30
0.0
 10
-10.4885742225
 20
10.6034539296
 30
0.0
 10
-10.4961785933
 20
10.6028825166
 30
0.0
 10
-10.4981542702
 20
10.6035056191
 30
0.0
 11
-9.9982179694
 21
10.6007940017
 31
0.0
 11
-10.0685908373
 21
10.6008217919
 31
0.0
 11
-10.1375603609
 21
10.6009039326
 31
0.0
 11
-10.2037626369
 21
10.601038806
 31
0.0
 11
-10.2658691029
 21
10.6012237012
 31
0.0
 11
-10.3226494957
 21
10.6014549522
 31
0.0
 11
-10.3729714539
 21
10.6017279417
 31
0.0
 11
-10.4158315521
 21
10.6020372204
 31
0.0
 11
-10.4503759479
 21
10.6023766052
 31
0.0
 11
-10.4759199754
 21
10.6027393828
 31
0.0
 11
-10.4919515343
 21
10.6031182283
 31
0.0
 11
-10.4981542702
 21
10.6035056191
 31
0.0
  0
SPLINE
  5
2D4
100
AcDbEntity
  8
RACCORDO
100
AcDbSpline
 62
253
  6
CONTINUOUS
 70
0
 71
3
 72
18
 73
14
 74
12
 42
0.0000001
 43
0.0000001
 44
0.0000000001
 12
-0.4768081835
 22
-0.1503790444
 32
0.0
 13
-0.4999598993
 23
-0.0000026839
 33
0.0
 40
0.0
 40
0.0
 40
0.0
 40
0.0
 40
0.0124306396
 40
0.044505281
 40
0.095602586
 40
0.1647002536
 40
0.2504295571
 40
0.351083027
 40
0.4646538628
 40
0.5888773081
 40
0.7212927548
 40
0.8592429635
 40
1.0
 40
1.0
 40
1.0
 40
1.0
 10
34.0200125915
 20
10.6035056191
 30
0.0
 10
34.0180369146
 20
10.6028825166
 30
0.0
 10
34.0104325438
 20
10.6034539296
 30
0.0
 10
33.9946715774
 20
10.6023825116
 30
0.0
 10
33.9692073245
 20
10.6024448127
 30
0.0
 10
33.9349288305
 20
10.6019522922
 30
0.0
 10
33.8923391119
 20
10.6017152954
 30
0.0
 10
33.8423563547
 20
10.6014279292
 30
0.0
 10
33.7859518121
 20
10.6012085112
 30
0.0
 10
33.7242558721
 20
10.6010250402
 30
0.0
 10
33.6584962804
 20
10.6008931811
 30
0.0
 10
33.5899814087
 20
10.6008122293
 30
0.0
 10
33.5435339152
 20
10.6007941276
 30
0.0
 10
33.5200762906
 20
10.6007940016
 30
0.0
 11
34.0200125915
 21
10.6035056191
 31
0.0
 11
34.0138098556
 21
10.6031182283
 31
0.0
 11
33.9977782968
 21
10.6027393828
 31
0.0
 11
33.9722342693
 21
10.6023766052
 31
0.0
 11
33.9376898735
 21
10.6020372204
 31
0.0
 11
33.8948297754
 21
10.6017279417
 31
0.0
 11
33.8445078172
 21
10.6014549522
 31
0.0
 11
33.7877274245
 21
10.6012237012
 31
0.0
 11
33.7256209585
 21
10.601038806
 31
0.0
 11
33.6594186825
 21
10.6009039326
 31
0.0
 11
33.5904491589
 21
10.6008217919
 31
0.0
 11
33.5200762906
 21
10.6007940016
 31
0.0
  0
SPLINE
  5
2D5
100
AcDbEntity
  8
RACCORDO
100
AcDbSpline
 62
253
  6
CONTINUOUS
 70
0
 71
3
 72
17
 73
13
 74
11
 42
0.0000001
 43
0.0000001
 44
0.0000000001
 12
-0.195632535
 22
-0.4614382212
 32
0.0
 13
-0.5011957617
 23
-0.0003594721
 33
0.0
 40
0.0
 40
0.0
 40
0.0
 40
0.0
 40
0.0160133458
 40
0.0548771568
 40
0.1162691731
 40
0.1988278512
 40
0.3006096677
 40
0.4191867025
 40
0.551717899
 40
0.6950220123
 40
0.8456562072
 40
1.0
 40
1.0
 40
1.0
 40
1.0
 10
34.0273865114
 20
-9.5929682601
 30
0.0
 10
34.0263422676
 20
-9.5954313167
 30
0.0
 10
34.0150446425
 20
-9.5965756206
 30
0.0
 10
33.9978119062
 20
-9.6002655865
 30
0.0
 10
33.9663248584
 20
-9.6024816432
 30
0.0
 10
33.9257956029
 20
-9.6053082176
 30
0.0
 10
33.8750788455
 20
-9.6075879218
 30
0.0
 10
33.8162124894
 20
-9.6096541141
 30
0.0
 10
33.7503224411
 20
-9.6113038927
 30
0.0
 10
33.6790895139
 20
-9.6125396904
 30
0.0
 10
33.6041990532
 20
-9.6133143734
 30
0.0
 10
33.5532481487
 20
-9.613512223
 30
0.0
 10
33.5274626638
 20
-9.6135307171
 30
0.0
 11
34.0273865114
 21
-9.5929682601
 31
0.0
 11
34.0200183117
 21
-9.5961500001
 31
0.0
 11
34.0007890214
 21
-9.5992551213
 31
0.0
 11
33.9701616957
 21
-9.6022088501
 31
0.0
 11
33.9288738623
 21
-9.6049400587
 31
0.0
 11
33.8779197616
 21
-9.6073829777
 31
0.0
 11
33.8185264046
 21
-9.6094787797
 31
0.0
 11
33.7521240256
 21
-9.6111769965
 31
0.0
 11
33.6803116413
 21
-9.6124367336
 31
0.0
 11
33.6048185448
 21
-9.6132276558
 31
0.0
 11
33.5274626638
 21
-9.6135307171
 31
0.0
  0
SPLINE
  5
2D6
100
AcDbEntity
  8
ASSI
100
AcDbSpline
 62
253
  6
CONTINUOUS
 70
0
 71
3
 72
17
 73
13
 74
11
 42
0.0000001
 43
0.0000001
 44
0.0000000001
 12
0.1956282812
 22
-0.461440029
 32
0.0
 13
0.5011957657
 23
-0.0003594732
 33
0.0
 40
0.0
 40
0.0
 40
0.0
 40
0.0
 40
0.0160132903
 40
0.0548770558
 40
0.1162690414
 40
0.1988277038
 40
0.3006095192
 40
0.4191865661
 40
0.551717786
 40
0.6950219317
 40
0.8456561653
 40
1.0
 40
1.0
 40
1.0
 40
1.0
 10
-10.5055281901
 20
-9.5929682601
 30
0.0
 10
-10.5044839726
 20
-9.5954313178
 30
0.0
 10
-10.4931863314
 20
-9.5965756246
 30
0.0
 10
-10.4759536485
 20
-9.6002655902
 30
0.0
 10
-10.4444665985
 20
-9.6024816477
 30
0.0
 10
-10.4039373582
 20
-9.6053082235
 30
0.0
 10
-10.3532205984
 20
-9.6075879289
 30
0.0
 10
-10.2943542371
 20
-9.6096541225
 30
0.0
 10
-10.2284641766
 20
-9.6113039022
 30
0.0
 10
-10.1572312332
 20
-9.6125397008
 30
0.0
 10
-10.082340753
 20
-9.6133143845
 30
0.0
 10
-10.0313898347
 20
-9.6135122343
 30
0.0
 10
-10.0056043426
 20
-9.6135307284
 30
0.0
 11
-10.5055281901
 21
-9.5929682601
 31
0.0
 11
-10.4981600211
 21
-9.5961500013
 31
0.0
 11
-10.4789307541
 21
-9.5992551238
 31
0.0
 11
-10.4483034438
 21
-9.6022088542
 31
0.0
 11
-10.4070156179
 21
-9.6049400643
 31
0.0
 11
-10.3560615174
 21
-9.6073829846
 31
0.0
 11
-10.2966681539
 21
-9.609478788
 31
0.0
 11
-10.2302657628
 21
-9.6111770059
 31
0.0
 11
-10.1584533616
 21
-9.6124367439
 31
0.0
 11
-10.0829602452
 21
-9.6132276668
 31
0.0
 11
-10.0056043426
 21
-9.6135307284
 31
0.0
  0
SPLINE
  5
2D7
100
AcDbEntity
  8
ASSI
100
AcDbSpline
 62
253
  6
CONTINUOUS
 70
0
 71
3
 72
18
 73
14
 74
12
 42
0.0000001
 43
0.0000001
 44
0.0000000001
 12
-0.2684874777
 22
-0.1338218893
 32
0.0
 13
-0.299989706
 23
-0.000000142
 33
0.0
 40
0.0
 40
0.0
 40
0.0
 40
0.0
 40
0.01245772
 40
0.0445401068
 40
0.0956390483
 40
0.1647397093
 40
0.2504749128
 40
0.351138898
 40
0.4647205079
 40
0.5889521196
 40
0.7213713552
 40
0.8593253738
 40
1.0
 40
1.0
 40
1.0
 40
1.0
 10
33.8200430524
 20
10.8034980037
 30
0.0
 10
33.8189281385
 20
10.8029422985
 30
0.0
 10
33.8142226016
 20
10.8034045383
 30
0.0
 10
33.8048902294
 20
10.8024581508
 30
0.0
 10
33.7895445397
 20
10.8024792179
 30
0.0
 10
33.7690050624
 20
10.8020277676
 30
0.0
 10
33.7434385531
 20
10.8017969739
 30
0.0
 10
33.713449007
 20
10.801526396
 30
0.0
 10
33.6796010255
 20
10.8013176972
 30
0.0
 10
33.6425800743
 20
10.8011440155
 30
0.0
 10
33.6031209389
 20
10.8010191069
 30
0.0
 10
33.5620176766
 20
10.8009426267
 30
0.0
 10
33.5341557524
 20
10.8009256565
 30
0.0
 10
33.5200887725
 20
10.8009256498
 30
0.0
 11
33.8200430524
 21
10.8034980037
 31
0.0
 11
33.8163240047
 21
10.8031302319
 31
0.0
 11
33.8067063447
 21
10.8027704843
 31
0.0
 11
33.7913810572
 21
10.802426101
 31
0.0
 11
33.7706540731
 21
10.8021039815
 31
0.0
 11
33.744936069
 21
10.8018105111
 31
0.0
 11
33.7147390201
 21
10.8015515463
 31
0.0
 11
33.6806664119
 21
10.8013322635
 31
0.0
 11
33.6433986192
 21
10.8011570314
 31
0.0
 11
33.6036744169
 21
10.801029321
 31
0.0
 11
33.5622897042
 21
10.8009516815
 31
0.0
 11
33.5200887725
 21
10.8009256498
 31
0.0
  0
SPLINE
  5
2D8
100
AcDbEntity
  8
ASSI
100
AcDbSpline
 62
253
  6
CONTINUOUS
 70
0
 71
3
 72
18
 73
14
 74
12
 42
0.0000001
 43
0.0000001
 44
0.0000000001
 12
-0.4999598993
 22
0.0000026839
 32
0.0
 13
-0.4768081841
 23
0.1503790427
 33
0.0
 40
0.0
 40
0.0
 40
0.0
 40
0.0
 40
0.1407570357
 40
0.2787072446
 40
0.4111226913
 40
0.5353461367
 40
0.6489169725
 40
0.7495704425
 40
0.8352997461
 40
0.9043974138
 40
0.9554947188
 40
0.9875693603
 40
1.0
 40
1.0
 40
1.0
 40
1.0
 10
-9.9982179694
 20
10.6007940017
 30
0.0
 10
-10.0216755938
 20
10.6007941276
 30
0.0
 10
-10.0681230872
 20
10.6008122293
 30
0.0
 10
-10.1366379588
 20
10.6008931811
 30
0.0
 10
-10.2023975505
 20
10.6010250402
 30
0.0
 10
-10.2640934906
 20
10.6012085112
 30
0.0
 10
-10.3204980332
 20
10.6014279292
 30
0.0
 10
-10.3704807904
 20
10.6017152954
 30
0.0
 10
-10.4130705091
 20
10.6019522922
 30
0.0
 10
-10.4473490031
 20
10.6024448127
 30
0.0
 10
-10.4728132561
 20
10.6023825116
 30
0.0
 10
-10.4885742225
 20
10.6034539296
 30
0.0
 10
-10.4961785933
 20
10.6028825166
 30
0.0
 10
-10.4981542702
 20
10.6035056191
 30
0.0
 11
-9.9982179694
 21
10.6007940017
 31
0.0
 11
-10.0685908373
 21
10.6008217919
 31
0.0
 11
-10.1375603609
 21
10.6009039326
 31
0.0
 11
-10.2037626369
 21
10.601038806
 31
0.0
 11
-10.2658691029
 21
10.6012237012
 31
0.0
 11
-10.3226494957
 21
10.6014549522
 31
0.0
 11
-10.3729714539
 21
10.6017279417
 31
0.0
 11
-10.4158315521
 21
10.6020372204
 31
0.0
 11
-10.4503759479
 21
10.6023766052
 31
0.0
 11
-10.4759199754
 21
10.6027393828
 31
0.0
 11
-10.4919515343
 21
10.6031182283
 31
0.0
 11
-10.4981542702
 21
10.6035056191
 31
0.0
  0
SPLINE
  5
2D9
100
AcDbEntity
  8
ASSI
100
AcDbSpline
 62
253
  6
CONTINUOUS
 70
0
 71
3
 72
18
 73
14
 74
12
 42
0.0000001
 43
0.0000001
 44
0.0000000001
 12
-0.4768081835
 22
-0.1503790444
 32
0.0
 13
-0.4999598993
 23
-0.0000026839
 33
0.0
 40
0.0
 40
0.0
 40
0.0
 40
0.0
 40
0.0124306396
 40
0.044505281
 40
0.095602586
 40
0.1647002536
 40
0.2504295571
 40
0.351083027
 40
0.4646538628
 40
0.5888773081
 40
0.7212927548
 40
0.8592429635
 40
1.0
 40
1.0
 40
1.0
 40
1.0
 10
34.0200125915
 20
10.6035056191
 30
0.0
 10
34.0180369146
 20
10.6028825166
 30
0.0
 10
34.0104325438
 20
10.6034539296
 30
0.0
 10
33.9946715774
 20
10.6023825116
 30
0.0
 10
33.9692073245
 20
10.6024448127
 30
0.0
 10
33.9349288305
 20
10.6019522922
 30
0.0
 10
33.8923391119
 20
10.6017152954
 30
0.0
 10
33.8423563547
 20
10.6014279292
 30
0.0
 10
33.7859518121
 20
10.6012085112
 30
0.0
 10
33.7242558721
 20
10.6010250402
 30
0.0
 10
33.6584962804
 20
10.6008931811
 30
0.0
 10
33.5899814087
 20
10.6008122293
 30
0.0
 10
33.5435339152
 20
10.6007941276
 30
0.0
 10
33.5200762906
 20
10.6007940016
 30
0.0
 11
34.0200125915
 21
10.6035056191
 31
0.0
 11
34.0138098556
 21
10.6031182283
 31
0.0
 11
33.9977782968
 21
10.6027393828
 31
0.0
 11
33.9722342693
 21
10.6023766052
 31
0.0
 11
33.9376898735
 21
10.6020372204
 31
0.0
 11
33.8948297754
 21
10.6017279417
 31
0.0
 11
33.8445078172
 21
10.6014549522
 31
0.0
 11
33.7877274245
 21
10.6012237012
 31
0.0
 11
33.7256209585
 21
10.601038806
 31
0.0
 11
33.6594186825
 21
10.6009039326
 31
0.0
 11
33.5904491589
 21
10.6008217919
 31
0.0
 11
33.5200762906
 21
10.6007940016
 31
0.0
  0
SPLINE
  5
2DA
100
AcDbEntity
  8
ASSI
100
AcDbSpline
 62
253
  6
CONTINUOUS
 70
0
 71
3
 72
17
 73
13
 74
11
 42
0.0000001
 43
0.0000001
 44
0.0000000001
 12
-0.195632535
 22
-0.4614382212
 32
0.0
 13
-0.5011957617
 23
-0.0003594721
 33
0.0
 40
0.0
 40
0.0
 40
0.0
 40
0.0
 40
0.0160133458
 40
0.0548771568
 40
0.1162691731
 40
0.1988278512
 40
0.3006096677
 40
0.4191867025
 40
0.551717899
 40
0.6950220123
 40
0.8456562072
 40
1.0
 40
1.0
 40
1.0
 40
1.0
 10
34.0273865114
 20
-9.5929682601
 30
0.0
 10
34.0263422676
 20
-9.5954313167
 30
0.0
 10
34.0150446425
 20
-9.5965756206
 30
0.0
 10
33.9978119062
 20
-9.6002655865
 30
0.0
 10
33.9663248584
 20
-9.6024816432
 30
0.0
 10
33.9257956029
 20
-9.6053082176
 30
0.0
 10
33.8750788455
 20
-9.6075879218
 30
0.0
 10
33.8162124894
 20
-9.6096541141
 30
0.0
 10
33.7503224411
 20
-9.6113038927
 30
0.0
 10
33.6790895139
 20
-9.6125396904
 30
0.0
 10
33.6041990532
 20
-9.6133143734
 30
0.0
 10
33.5532481487
 20
-9.613512223
 30
0.0
 10
33.5274626638
 20
-9.6135307171
 30
0.0
 11
34.0273865114
 21
-9.5929682601
 31
0.0
 11
34.0200183117
 21
-9.5961500001
 31
0.0
 11
34.0007890214
 21
-9.5992551213
 31
0.0
 11
33.9701616957
 21
-9.6022088501
 31
0.0
 11
33.9288738623
 21
-9.6049400587
 31
0.0
 11
33.8779197616
 21
-9.6073829777
 31
0.0
 11
33.8185264046
 21
-9.6094787797
 31
0.0
 11
33.7521240256
 21
-9.6111769965
 31
0.0
 11
33.6803116413
 21
-9.6124367336
 31
0.0
 11
33.6048185448
 21
-9.6132276558
 31
0.0
 11
33.5274626638
 21
-9.6135307171
 31
0.0
  0
SPLINE
  5
2DB
100
AcDbEntity
  8
ASSI
100
AcDbSpline
 62
253
  6
CONTINUOUS
 70
0
 71
3
 72
11
 73
7
 74
5
 42
0.0000001
 43
0.0000001
 44
0.0000000001
 12
0.0002437994
 22
-20.1964756175
 32
0.0
 13
0.0145100747
 23
-20.1964704066
 33
0.0
 40
0.0
 40
0.0
 40
0.0
 40
0.0
 40
0.2500744177
 40
0.5001049865
 40
0.750083017
 40
1.0
 40
1.0
 40
1.0
 40
1.0
 10
34.0200125915
 20
10.6035056191
 30
0.0
 10
34.0200329141
 20
8.9199649925
 30
0.0
 10
34.0203706564
 20
5.5531789331
 30
0.0
 10
34.0217685156
 20
0.5035013127
 30
0.0
 10
34.0240574452
 20
-4.5451161066
 30
0.0
 10
34.02617774
 20
-7.9104879432
 30
0.0
 10
34.0273865114
 20
-9.5929682601
 30
0.0
 11
34.0200125915
 21
10.6035056191
 31
0.0
 11
34.0205192762
 21
5.5528837643
 31
0.0
 11
34.0219172227
 21
0.5031476708
 31
0.0
 11
34.0242062956
 21
-4.5455270086
 31
0.0
 11
34.0273865114
 21
-9.5929682601
 31
0.0
  0
SPLINE
  5
2DC
100
AcDbEntity
  8
ASSI
100
AcDbSpline
 62
253
  6
CONTINUOUS
 70
0
 71
3
 72
21
 73
17
 74
15
 42
0.0000001
 43
0.0000001
 44
0.0000000001
 12
0.0006885301
 22
-0.957887823
 32
0.0
 13
0.3025944495
 23
-0.9088378044
 33
0.0
 40
0.0
 40
0.0
 40
0.0
 40
0.0
 40
0.1095890288
 40
0.2175144953
 40
0.3225483467
 40
0.423516912
 40
0.519299397
 40
0.6088312783
 40
0.6911156636
 40
0.7652382519
 40
0.8303754916
 40
0.8858030898
 40
0.9309078341
 40
0.965194018
 40
0.9882927082
 40
1.0
 40
1.0
 40
1.0
 40
1.0
 10
34.0273865114
 20
-9.5929682601
 30
0.0
 10
34.0274116632
 20
-9.6279595922
 30
0.0
 10
34.0275251499
 20
-9.6974110596
 30
0.0
 10
34.0278863242
 20
-9.800398891
 30
0.0
 10
34.0284336134
 20
-9.9006333878
 30
0.0
 10
34.029160659
 20
-9.9969894475
 30
0.0
 10
34.0300590912
 20
-10.0883940955
 30
0.0
 10
34.0311179823
 20
-10.1738309483
 30
0.0
 10
34.0323259148
 20
-10.2523488006
 30
0.0
 10
34.0336640444
 20
-10.3230754363
 30
0.0
 10
34.0351276712
 20
-10.3852185895
 30
0.0
 10
34.0366588254
 20
-10.4381025539
 30
0.0
 10
34.0383383702
 20
-10.4810959224
 30
0.0
 10
34.0398520389
 20
-10.5138388382
 30
0.0
 10
34.0417663857
 20
-10.5357213259
 30
0.0
 10
34.0427324282
 20
-10.5469261818
 30
0.0
 10
34.043913282
 20
-10.5504728582
 30
0.0
 11
34.0273865114
 21
-9.5929682601
 31
0.0
 11
34.0275590361
 21
-9.6979421417
 31
0.0
 11
34.0279236706
 21
-9.8013220155
 31
0.0
 11
34.028476356
 21
-9.9019311707
 31
0.0
 11
34.0292109321
 21
-9.9986449652
 31
0.0
 11
34.0301192405
 21
-10.0903893688
 31
0.0
 11
34.0311911924
 21
-10.1761441902
 31
0.0
 11
34.0324148532
 21
-10.2549539222
 31
0.0
 11
34.0337766197
 21
-10.325942005
 31
0.0
 11
34.0352613505
 21
-10.388318522
 31
0.0
 11
34.0368524987
 21
-10.4413881093
 31
0.0
 11
34.0385323711
 21
-10.4845607358
 31
0.0
 11
34.040282308
 21
-10.5173564082
 31
0.0
 11
34.0420827435
 21
-10.5394089938
 31
0.0
 11
34.043913282
 21
-10.5504728582
 31
0.0
  0
SPLINE
  5
2DD
100
AcDbEntity
  8
ASSI
100
AcDbSpline
 62
253
  6
CONTINUOUS
 70
0
 71
3
 72
21
 73
17
 74
15
 42
0.0000001
 43
0.0000001
 44
0.0000000001
 12
0.3025944467
 22
0.9088378053
 32
0.0
 13
0.0006885301
 23
0.957887823
 33
0.0
 40
0.0
 40
0.0
 40
0.0
 40
0.0
 40
0.0117072917
 40
0.034805982
 40
0.0690921658
 40
0.1141969101
 40
0.1696245083
 40
0.2347617479
 40
0.3088843362
 40
0.3911687215
 40
0.4807006028
 40
0.5764830878
 40
0.6774516531
 40
0.7824855045
 40
0.890410971
 40
1.0
 40
1.0
 40
1.0
 40
1.0
 10
-10.5220549608
 20
-10.5504728582
 30
0.0
 10
-10.520874107
 20
-10.5469261818
 30
0.0
 10
-10.5199080644
 20
-10.535721326
 30
0.0
 10
-10.5179937176
 20
-10.5138388382
 30
0.0
 10
-10.516480049
 20
-10.4810959225
 30
0.0
 10
-10.5148005042
 20
-10.438102554
 30
0.0
 10
-10.51326935
 20
-10.3852185896
 30
0.0
 10
-10.5118057232
 20
-10.3230754365
 30
0.0
 10
-10.5104675935
 20
-10.2523488007
 30
0.0
 10
-10.509259661
 20
-10.1738309485
 30
0.0
 10
-10.5082007699
 20
-10.0883940957
 30
0.0
 10
-10.5073023378
 20
-9.9969894477
 30
0.0
 10
-10.5065752921
 20
-9.900633388
 30
0.0
 10
-10.506028003
 20
-9.8003988912
 30
0.0
 10
-10.5056668286
 20
-9.6974110598
 30
0.0
 10
-10.5055533419
 20
-9.6279595922
 30
0.0
 10
-10.5055281901
 20
-9.5929682601
 30
0.0
 11
-10.5220549608
 21
-10.5504728582
 31
0.0
 11
-10.5202244222
 21
-10.5394089939
 31
0.0
 11
-10.5184239867
 21
-10.5173564083
 31
0.0
 11
-10.5166740498
 21
-10.4845607359
 31
0.0
 11
-10.5149941775
 21
-10.4413881094
 31
0.0
 11
-10.5134030292
 21
-10.3883185222
 31
0.0
 11
-10.5119182985
 21
-10.3259420052
 31
0.0
 11
-10.5105565319
 21
-10.2549539223
 31
0.0
 11
-10.5093328712
 21
-10.1761441904
 31
0.0
 11
-10.5082609192
 21
-10.090389369
 31
0.0
 11
-10.5073526109
 21
-9.9986449654
 31
0.0
 11
-10.5066180348
 21
-9.9019311709
 31
0.0
 11
-10.5060653493
 21
-9.8013220157
 31
0.0
 11
-10.5057007148
 21
-9.6979421419
 31
0.0
 11
-10.5055281901
 21
-9.5929682601
 31
0.0
  0
SPLINE
  5
2DE
100
AcDbEntity
  8
ASSI
100
AcDbSpline
 62
253
  6
CONTINUOUS
 70
0
 71
3
 72
11
 73
7
 74
5
 42
0.0000001
 43
0.0000001
 44
0.0000000001
 12
0.0145100747
 22
20.1964704066
 32
0.0
 13
0.0002437994
 23
20.1964756175
 33
0.0
 40
0.0
 40
0.0
 40
0.0
 40
0.0
 40
0.249916983
 40
0.4998950135
 40
0.7499255823
 40
1.0
 40
1.0
 40
1.0
 40
1.0
 10
-10.5055281901
 20
-9.5929682601
 30
0.0
 10
-10.5043194188
 20
-7.9104879432
 30
0.0
 10
-10.502199124
 20
-4.5451161066
 30
0.0
 10
-10.4999101944
 20
0.5035013127
 30
0.0
 10
-10.4985123352
 20
5.5531789331
 30
0.0
 10
-10.4981745929
 20
8.9199649925
 30
0.0
 10
-10.4981542702
 20
10.6035056191
 30
0.0
 11
-10.5055281901
 21
-9.5929682601
 31
0.0
 11
-10.5023479743
 21
-4.5455270086
 31
0.0
 11
-10.5000589015
 21
0.5031476708
 31
0.0
 11
-10.4986609549
 21
5.5528837643
 31
0.0
 11
-10.4981542702
 21
10.6035056191
 31
0.0
  0
SPLINE
  5
2DF
100
AcDbEntity
  8
ASSI
100
AcDbSpline
 62
253
  6
CONTINUOUS
 70
0
 71
3
 72
11
 73
7
 74
5
 42
0.0000001
 43
0.0000001
 44
0.0000000001
 12
0.0002454386
 22
-20.2143127839
 32
0.0
 13
0.0145083669
 23
-20.2143075788
 33
0.0
 40
0.0
 40
0.0
 40
0.0
 40
0.0
 40
0.2500749619
 40
0.5001055662
 40
0.7500836323
 40
1.0
 40
1.0
 40
1.0
 40
1.0
 10
33.5200762906
 20
10.6007940068
 30
0.0
 10
33.52009675
 20
8.9157628405
 30
0.0
 10
33.5204529726
 20
5.5459993915
 30
0.0
 10
33.5218435767
 20
0.4918578392
 30
0.0
 10
33.524134397
 20
-4.5612147629
 30
0.0
 10
33.5262540291
 20
-7.9295549308
 30
0.0
 10
33.5274626552
 20
-9.6135170393
 30
0.0
 11
33.5200762906
 21
10.6007940068
 31
0.0
 11
33.5205957643
 21
5.5457005342
 31
0.0
 11
33.5219938083
 21
0.4915038851
 31
0.0
 11
33.5242827691
 21
-4.5616304136
 31
0.0
 11
33.5274626552
 21
-9.6135170393
 31
0.0
  0
SPLINE
  5
2E0
100
AcDbEntity
  8
ASSI
100
AcDbSpline
 62
253
  6
CONTINUOUS
 70
0
 71
3
 72
11
 73
7
 74
5
 42
0.0000001
 43
0.0000001
 44
0.0000000001
 12
0.0145083669
 22
20.214307579
 32
0.0
 13
0.0002454386
 23
20.214312784
 33
0.0
 40
0.0
 40
0.0
 40
0.0
 40
0.0
 40
0.2499163677
 40
0.4998944338
 40
0.7499250381
 40
1.0
 40
1.0
 40
1.0
 40
1.0
 10
-10.005604334
 20
-9.6135170394
 30
0.0
 10
-10.0043957078
 20
-7.9295549309
 30
0.0
 10
-10.0022760758
 20
-4.5612147629
 30
0.0
 10
-9.9999852555
 20
0.4918578392
 30
0.0
 10
-9.9985946514
 20
5.5459993915
 30
0.0
 10
-9.9982384287
 20
8.9157628405
 30
0.0
 10
-9.9982179694
 20
10.6007940068
 30
0.0
 11
-10.005604334
 21
-9.6135170394
 31
0.0
 11
-10.0024244479
 21
-4.5616304136
 31
0.0
 11
-10.0001354871
 21
0.4915038851
 31
0.0
 11
-9.9987374431
 21
5.5457005342
 31
0.0
 11
-9.9982179694
 21
10.6007940068
 31
0.0
  0
SPLINE
  5
2E1
100
AcDbEntity
  8
ASSI
100
AcDbSpline
 62
253
  6
CONTINUOUS
 70
0
 71
3
 72
18
 73
14
 74
12
 42
0.0000001
 43
0.0000001
 44
0.0000000001
 12
-0.299989706
 22
0.000000142
 32
0.0
 13
-0.2684874758
 23
0.133821893
 33
0.0
 40
0.0
 40
0.0
 40
0.0
 40
0.0
 40
0.1406746255
 40
0.2786286441
 40
0.4110478798
 40
0.5352794916
 40
0.6488611016
 40
0.7495250868
 40
0.8352602903
 40
0.9043609514
 40
0.955459893
 40
0.9875422799
 40
1.0
 40
1.0
 40
1.0
 40
1.0
 10
-9.9982304513
 20
10.8009256498
 30
0.0
 10
-10.0122974311
 20
10.8009256565
 30
0.0
 10
-10.0401593552
 20
10.8009426267
 30
0.0
 10
-10.0812626175
 20
10.8010191069
 30
0.0
 10
-10.1207217529
 20
10.8011440155
 30
0.0
 10
-10.1577427041
 20
10.8013176972
 30
0.0
 10
-10.1915906856
 20
10.801526396
 30
0.0
 10
-10.2215802317
 20
10.8017969739
 30
0.0
 10
-10.2471467411
 20
10.8020277676
 30
0.0
 10
-10.2676862183
 20
10.8024792179
 30
0.0
 10
-10.2830319081
 20
10.8024581508
 30
0.0
 10
-10.2923642803
 20
10.8034045383
 30
0.0
 10
-10.2970698173
 20
10.8029422985
 30
0.0
 10
-10.2981847312
 20
10.8034980037
 30
0.0
 11
-9.9982304513
 21
10.8009256498
 31
0.0
 11
-10.0404313828
 21
10.8009516815
 31
0.0
 11
-10.0818160955
 21
10.801029321
 31
0.0
 11
-10.1215402978
 21
10.8011570314
 31
0.0
 11
-10.1588080905
 21
10.8013322635
 31
0.0
 11
-10.1928806987
 21
10.8015515463
 31
0.0
 11
-10.2230777476
 21
10.8018105111
 31
0.0
 11
-10.2487957518
 21
10.8021039815
 31
0.0
 11
-10.2695227359
 21
10.802426101
 31
0.0
 11
-10.2848480234
 21
10.8027704843
 31
0.0
 11
-10.2944656834
 21
10.8031302319
 31
0.0
 11
-10.2981847312
 21
10.8034980037
 31
0.0
  0
SPLINE
  5
2E2
100
AcDbEntity
  8
ASSI
100
AcDbSpline
 62
253
  6
CONTINUOUS
 70
0
 71
3
 72
21
 73
17
 74
15
 42
0.0000001
 43
0.0000001
 44
0.0000000001
 12
0.3113269094
 22
1.402385911
 32
0.0
 13
0.0006885319
 23
1.4365271365
 33
0.0
 40
0.0
 40
0.0
 40
0.0
 40
0.0
 40
0.0116253613
 40
0.0346870886
 40
0.0689537638
 40
0.1140486773
 40
0.1694730336
 40
0.2346119018
 40
0.3087402368
 40
0.3910339711
 40
0.4805783092
 40
0.5763759237
 40
0.6773619052
 40
0.7824150232
 40
0.8903612899
 40
1.0
 40
1.0
 40
1.0
 40
1.0
 10
-10.0221312493
 20
-11.0497882415
 30
0.0
 10
-10.0209248201
 20
-11.0443538272
 30
0.0
 10
-10.0200025614
 20
-11.0276747895
 30
0.0
 10
-10.0180580282
 20
-10.9947821411
 30
0.0
 10
-10.0165604639
 20
-10.9457220604
 30
0.0
 10
-10.0148747423
 20
-10.8812178971
 30
0.0
 10
-10.0133460103
 20
-10.801902392
 30
0.0
 10
-10.0118816572
 20
-10.7086891534
 30
0.0
 10
-10.010543833
 20
-10.6026040223
 30
0.0
 10
-10.0093358497
 20
-10.4848311833
 30
0.0
 10
-10.0082770019
 20
-10.3566800975
 30
0.0
 10
-10.0073785642
 20
-10.2195770368
 30
0.0
 10
-10.0066515224
 20
-10.0750465826
 30
0.0
 10
-10.0061042098
 20
-9.9246980178
 30
0.0
 10
-10.0057429926
 20
-9.7702055893
 30
0.0
 10
-10.0056294909
 20
-9.6660167001
 30
0.0
 10
-10.0056043276
 20
-9.6135170394
 30
0.0
 11
-10.0221312493
 21
-11.0497882415
 31
0.0
 11
-10.020300348
 21
-11.0331887603
 31
0.0
 11
-10.01849999
 21
-11.0001089152
 31
0.0
 11
-10.0167500749
 21
-10.9509150146
 31
0.0
 11
-10.0150702531
 21
-10.8861567238
 31
0.0
 11
-10.0134791469
 21
-10.8065540228
 31
0.0
 11
-10.0119944601
 21
-10.7129920393
 31
0.0
 11
-10.0106327281
 21
-10.6065133694
 31
0.0
 11
-10.0094090907
 21
-10.4883025062
 31
0.0
 11
-10.0083371518
 21
-10.3596740863
 31
0.0
 11
-10.0074288449
 21
-10.2220611953
 31
0.0
 11
-10.0066942642
 21
-10.0769939357
 31
0.0
 11
-10.0061415605
 21
-9.9260832757
 31
0.0
 11
-10.0057769086
 21
-9.7710159451
 31
0.0
 11
-10.0056043276
 21
-9.6135170394
 31
0.0
  0
SPLINE
  5
2E3
100
AcDbEntity
  8
ASSI
100
AcDbSpline
 62
253
  6
CONTINUOUS
 70
0
 71
3
 72
21
 73
17
 74
15
 42
0.0000001
 43
0.0000001
 44
0.0000000001
 12
0.0006885319
 22
-1.4365271366
 32
0.0
 13
0.3113269084
 23
-1.4023859114
 33
0.0
 40
0.0
 40
0.0
 40
0.0
 40
0.0
 40
0.1096387099
 40
0.2175849767
 40
0.3226380947
 40
0.4236240761
 40
0.5194216906
 40
0.6089660287
 40
0.6912597631
 40
0.765388098
 40
0.8305269663
 40
0.8859513226
 40
0.9310462361
 40
0.9653129114
 40
0.9883746386
 40
1.0
 40
1.0
 40
1.0
 40
1.0
 10
33.5274626489
 20
-9.6135170393
 30
0.0
 10
33.5274878121
 20
-9.6660166999
 30
0.0
 10
33.5276013138
 20
-9.7702055891
 30
0.0
 10
33.527962531
 20
-9.9246980175
 30
0.0
 10
33.5285098436
 20
-10.0750465823
 30
0.0
 10
33.5292368854
 20
-10.2195770365
 30
0.0
 10
33.5301353232
 20
-10.3566800973
 30
0.0
 10
33.5311941709
 20
-10.484831183
 30
0.0
 10
33.5324021542
 20
-10.602604022
 30
0.0
 10
33.5337399784
 20
-10.7086891532
 30
0.0
 10
33.5352043316
 20
-10.8019023917
 30
0.0
 10
33.5367330635
 20
-10.8812178969
 30
0.0
 10
33.5384187852
 20
-10.9457220603
 30
0.0
 10
33.5399163495
 20
-10.994782141
 30
0.0
 10
33.5418608827
 20
-11.0276747895
 30
0.0
 10
33.5427831413
 20
-11.0443538271
 30
0.0
 10
33.5439895706
 20
-11.0497882415
 30
0.0
 11
33.5274626489
 21
-9.6135170393
 31
0.0
 11
33.5276352298
 21
-9.7710159449
 31
0.0
 11
33.5279998817
 21
-9.9260832754
 31
0.0
 11
33.5285525855
 21
-10.0769939354
 31
0.0
 11
33.5292871661
 21
-10.222061195
 31
0.0
 11
33.5301954731
 21
-10.3596740861
 31
0.0
 11
33.5312674119
 21
-10.488302506
 31
0.0
 11
33.5324910493
 21
-10.6065133692
 31
0.0
 11
33.5338527814
 21
-10.712992039
 31
0.0
 11
33.5353374682
 21
-10.8065540226
 31
0.0
 11
33.5369285743
 21
-10.8861567236
 31
0.0
 11
33.5386083961
 21
-10.9509150145
 31
0.0
 11
33.5403583112
 21
-11.0001089151
 31
0.0
 11
33.5421586692
 21
-11.0331887602
 31
0.0
 11
33.5439895706
 21
-11.0497882415
 31
0.0
  0
SPLINE
  5
2E4
100
AcDbEntity
  8
RACCORDO
100
AcDbSpline
 62
253
  6
CONTINUOUS
 70
0
 71
3
 72
15
 73
11
 74
9
 42
0.0000001
 43
0.0000001
 44
0.0000000001
 12
-0.0017453778
 22
0.2000612775
 32
0.0
 13
0.2000612729
 23
0.0017459083
 33
0.0
 40
0.0
 40
0.0
 40
0.0
 40
0.0
 40
0.1950020658
 40
0.3825082119
 40
0.5553167043
 40
0.7067913013
 40
0.8311172079
 40
0.9235272361
 40
0.9804964655
 40
1.0
 40
1.0
 40
1.0
 40
1.0
 10
-27.2386292244
 20
10.6035056191
 30
0.0
 10
-27.2387426752
 20
10.6165097399
 30
0.0
 10
-27.2389183193
 20
10.6420128774
 30
0.0
 10
-27.2390658633
 20
10.6790704448
 30
0.0
 10
-27.2389996266
 20
10.7131246219
 30
0.0
 10
-27.239007236
 20
10.7432761916
 30
0.0
 10
-27.2382744548
 20
10.7671832414
 30
0.0
 10
-27.2389498996
 20
10.7869777517
 30
0.0
 10
-27.2365583782
 20
10.7954246817
 30
0.0
 10
-27.2381846842
 20
10.8034866533
 30
0.0
 10
-27.2368840502
 20
10.8034980037
 30
0.0
 11
-27.2386292244
 21
10.6035056191
 31
0.0
 11
-27.2389025255
 21
10.6425185089
 31
0.0
 11
-27.2390312141
 21
10.6800324348
 31
0.0
 11
-27.2390103458
 21
10.7146060319
 31
0.0
 11
-27.2388407226
 21
10.7449109119
 31
0.0
 11
-27.2385288618
 21
10.769782703
 31
0.0
 11
-27.2380867461
 21
10.7882657879
 31
0.0
 11
-27.2375313626
 21
10.7996500192
 31
0.0
 11
-27.2368840502
 21
10.8034980037
 31
0.0
  0
LINE
  5
2E5
100
AcDbEntity
  8
RACCORDO
100
AcDbLine
 62
253
  6
CONTINUOUS
 10
-27.2386292244
 20
10.6035056191
 11
-27.7299012597
 21
10.6007940016
  0
SPLINE
  5
2E6
100
AcDbEntity
  8
RACCORDO
100
AcDbSpline
 62
253
  6
CONTINUOUS
 70
0
 71
3
 72
17
 73
13
 74
11
 42
0.0000001
 43
0.0000001
 44
0.0000000001
 12
-0.0261499573
 22
-0.4991229354
 32
0.0
 13
0.4991225191
 23
-0.0261579028
 33
0.0
 40
0.0
 40
0.0
 40
0.0
 40
0.0
 40
0.1563933181
 40
0.3089189061
 40
0.4538267206
 40
0.5875542932
 40
0.7068145503
 40
0.8086770505
 40
0.8906409733
 40
0.9506992977
 40
0.9873995059
 40
1.0
 40
1.0
 40
1.0
 40
1.0
 10
-25.8693595803
 20
-10.5504728582
 30
0.0
 10
-25.8707228065
 20
-10.5764926889
 30
0.0
 10
-25.87334537
 20
-10.627891677
 30
0.0
 10
-25.8769919755
 20
-10.7034162884
 30
0.0
 10
-25.8802312241
 20
-10.7751628733
 30
0.0
 10
-25.883032377
 20
-10.8414368041
 30
0.0
 10
-25.8851761397
 20
-10.9003841093
 30
0.0
 10
-25.8870768426
 20
-10.9512337596
 30
0.0
 10
-25.8873974034
 20
-10.9908290405
 30
0.0
 10
-25.8894266559
 20
-11.0230009006
 30
0.0
 10
-25.8863203677
 20
-11.0369108569
 30
0.0
 10
-25.888897752
 20
-11.0496777581
 30
0.0
 10
-25.8868013552
 20
-11.0497876256
 30
0.0
 11
-25.8693595803
 21
-10.5504728582
 31
0.0
 11
-25.8733422394
 21
-10.6285378836
 31
0.0
 11
-25.8770123272
 21
-10.7046829193
 31
0.0
 11
-25.8802795788
 21
-10.777035197
 31
0.0
 11
-25.883063637
 21
-10.8438152307
 31
0.0
 11
-25.8852960286
 21
-10.903380582
 31
0.0
 11
-25.8869218484
 21
-10.9542662562
 31
0.0
 11
-25.8879011099
 21
-10.9952207327
 31
0.0
 11
-25.8882097283
 21
-11.0252367464
 31
0.0
 11
-25.8878401132
 21
-11.043576061
 31
0.0
 11
-25.8868013552
 21
-11.0497876256
 31
0.0
  0
SPLINE
  5
2E7
100
AcDbEntity
  8
ASSI
100
AcDbSpline
 62
253
  6
CONTINUOUS
 70
0
 71
3
 72
15
 73
11
 74
9
 42
0.0000001
 43
0.0000001
 44
0.0000000001
 12
-0.0017453778
 22
0.2000612775
 32
0.0
 13
0.2000612729
 23
0.0017459083
 33
0.0
 40
0.0
 40
0.0
 40
0.0
 40
0.0
 40
0.1950020658
 40
0.3825082119
 40
0.5553167043
 40
0.7067913013
 40
0.8311172079
 40
0.9235272361
 40
0.9804964655
 40
1.0
 40
1.0
 40
1.0
 40
1.0
 10
-27.2386292244
 20
10.6035056191
 30
0.0
 10
-27.2387426752
 20
10.6165097399
 30
0.0
 10
-27.2389183193
 20
10.6420128774
 30
0.0
 10
-27.2390658633
 20
10.6790704448
 30
0.0
 10
-27.2389996266
 20
10.7131246219
 30
0.0
 10
-27.239007236
 20
10.7432761916
 30
0.0
 10
-27.2382744548
 20
10.7671832414
 30
0.0
 10
-27.2389498996
 20
10.7869777517
 30
0.0
 10
-27.2365583782
 20
10.7954246817
 30
0.0
 10
-27.2381846842
 20
10.8034866533
 30
0.0
 10
-27.2368840502
 20
10.8034980037
 30
0.0
 11
-27.2386292244
 21
10.6035056191
 31
0.0
 11
-27.2389025255
 21
10.6425185089
 31
0.0
 11
-27.2390312141
 21
10.6800324348
 31
0.0
 11
-27.2390103458
 21
10.7146060319
 31
0.0
 11
-27.2388407226
 21
10.7449109119
 31
0.0
 11
-27.2385288618
 21
10.769782703
 31
0.0
 11
-27.2380867461
 21
10.7882657879
 31
0.0
 11
-27.2375313626
 21
10.7996500192
 31
0.0
 11
-27.2368840502
 21
10.8034980037
 31
0.0
  0
LINE
  5
2E8
100
AcDbEntity
  8
ASSI
100
AcDbLine
 62
253
  6
CONTINUOUS
 10
-27.2386292244
 20
10.6035056191
 11
-27.7299012597
 21
10.6007940016
  0
SPLINE
  5
2E9
100
AcDbEntity
  8
ASSI
100
AcDbSpline
 62
253
  6
CONTINUOUS
 70
0
 71
3
 72
17
 73
13
 74
11
 42
0.0000001
 43
0.0000001
 44
0.0000000001
 12
-0.0261499573
 22
-0.4991229354
 32
0.0
 13
0.4991225191
 23
-0.0261579028
 33
0.0
 40
0.0
 40
0.0
 40
0.0
 40
0.0
 40
0.1563933181
 40
0.3089189061
 40
0.4538267206
 40
0.5875542932
 40
0.7068145503
 40
0.8086770505
 40
0.8906409733
 40
0.9506992977
 40
0.9873995059
 40
1.0
 40
1.0
 40
1.0
 40
1.0
 10
-25.8693595803
 20
-10.5504728582
 30
0.0
 10
-25.8707228065
 20
-10.5764926889
 30
0.0
 10
-25.87334537
 20
-10.627891677
 30
0.0
 10
-25.8769919755
 20
-10.7034162884
 30
0.0
 10
-25.8802312241
 20
-10.7751628733
 30
0.0
 10
-25.883032377
 20
-10.8414368041
 30
0.0
 10
-25.8851761397
 20
-10.9003841093
 30
0.0
 10
-25.8870768426
 20
-10.9512337596
 30
0.0
 10
-25.8873974034
 20
-10.9908290405
 30
0.0
 10
-25.8894266559
 20
-11.0230009006
 30
0.0
 10
-25.8863203677
 20
-11.0369108569
 30
0.0
 10
-25.888897752
 20
-11.0496777581
 30
0.0
 10
-25.8868013552
 20
-11.0497876256
 30
0.0
 11
-25.8693595803
 21
-10.5504728582
 31
0.0
 11
-25.8733422394
 21
-10.6285378836
 31
0.0
 11
-25.8770123272
 21
-10.7046829193
 31
0.0
 11
-25.8802795788
 21
-10.777035197
 31
0.0
 11
-25.883063637
 21
-10.8438152307
 31
0.0
 11
-25.8852960286
 21
-10.903380582
 31
0.0
 11
-25.8869218484
 21
-10.9542662562
 31
0.0
 11
-25.8879011099
 21
-10.9952207327
 31
0.0
 11
-25.8882097283
 21
-11.0252367464
 31
0.0
 11
-25.8878401132
 21
-11.043576061
 31
0.0
 11
-25.8868013552
 21
-11.0497876256
 31
0.0
  0
ELLIPSE
  5
2EA
100
AcDbEntity
  8
RACCORDO
100
AcDbEllipse
 62
7
  6
CONTINUOUS
 10
7.7954591068
 20
-11.1837827293
 30
0.0
 11
0.2
 21
-0.0
 31
0.0
 40
0.0524077793
 41
0.5235987756
 42
1.5707963268
  0
ELLIPSE
  5
2EB
100
AcDbEntity
  8
RACCORDO
100
AcDbEllipse
 62
7
  6
CONTINUOUS
 10
4.4263992145
 20
-11.1837827293
 30
0.0
 11
0.2
 21
-0.0
 31
0.0
 40
0.0524077793
 41
1.5707963268
 42
2.617993878
  0
ELLIPSE
  5
2EC
100
AcDbEntity
  8
RACCORDO
100
AcDbEllipse
 62
7
  6
CONTINUOUS
 10
19.0954591068
 20
-11.1837827293
 30
0.0
 11
0.2
 21
0.0
 31
0.0
 40
0.0524077793
 41
0.5235987756
 42
1.5707963268
  0
ELLIPSE
  5
2ED
100
AcDbEntity
  8
RACCORDO
100
AcDbEllipse
 62
7
  6
CONTINUOUS
 10
15.7263992145
 20
-11.1837827293
 30
0.0
 11
0.2
 21
-0.0
 31
0.0
 40
0.0524077793
 41
1.5707963268
 42
2.617993878
  0
ELLIPSE
  5
2EE
100
AcDbEntity
  8
RACCORDO
100
AcDbEllipse
 62
7
  6
CONTINUOUS
 10
-3.4045408932
 20
-11.1837827293
 30
0.0
 11
0.2
 21
-0.0
 31
0.0
 40
0.0524077793
 41
0.5235987756
 42
1.5707963268
  0
ELLIPSE
  5
2EF
100
AcDbEntity
  8
RACCORDO
100
AcDbEllipse
 62
7
  6
CONTINUOUS
 10
-6.7736007855
 20
-11.1837827293
 30
0.0
 11
0.2
 21
0.0
 31
0.0
 40
0.0524077793
 41
1.5707963268
 42
2.617993878
  0
ELLIPSE
  5
2F0
100
AcDbEntity
  8
RACCORDO
100
AcDbEllipse
 62
7
  6
CONTINUOUS
 10
26.9263992145
 20
-11.1837827293
 30
0.0
 11
0.2
 21
0.0
 31
0.0
 40
0.0524077793
 41
1.5707963268
 42
2.617993878
  0
ELLIPSE
  5
2F1
100
AcDbEntity
  8
RACCORDO
100
AcDbEllipse
 62
7
  6
CONTINUOUS
 10
30.2954591068
 20
-11.1837827293
 30
0.0
 11
0.2
 21
0.0
 31
0.0
 40
0.0524077793
 41
0.5235987756
 42
1.5707963268
  0
ELLIPSE
  5
2F2
100
AcDbEntity
  8
RACCORDO
100
AcDbEllipse
 62
7
  6
CONTINUOUS
 10
33.910898695
 20
10.6489299807
 30
0.0
 11
0.1789222233
 21
0.0894542984
 31
0.0
 40
0.9998096356
 41
-0.4635410001
 42
1.1071030277
  0
ELLIPSE
  5
2F3
100
AcDbEntity
  8
RACCORDO
100
AcDbEllipse
 62
7
  6
CONTINUOUS
 10
-10.3890403738
 20
10.6489299807
 30
0.0
 11
0.1789222233
 21
-0.0894542984
 31
0.0
 40
0.9998096356
 41
2.0344896259
 42
3.6051336536
  0
ELLIPSE
  5
2F4
100
AcDbEntity
  8
RACCORDO
100
AcDbEllipse
 62
7
  6
CONTINUOUS
 10
33.5977794545
 20
-10.7119741479
 30
0.0
 11
0.498078285
 21
0.0448076117
 31
0.0
 40
0.9965957691
 41
-1.6608206152
 42
-0.0909376769
  0
ELLIPSE
  5
2F5
100
AcDbEntity
  8
RACCORDO
100
AcDbEllipse
 62
7
  6
CONTINUOUS
 10
-10.0759211332
 20
-10.7119741479
 30
0.0
 11
0.498078285
 21
-0.0448076117
 31
0.0
 40
0.9965957691
 41
-3.0506549766
 42
-1.4807720384
  0
ELLIPSE
  5
2F6
100
AcDbEntity
  8
ASSI
100
AcDbEllipse
 62
7
  6
CONTINUOUS
 10
7.7954591068
 20
-11.1837827293
 30
0.0
 11
0.2
 21
-0.0
 31
0.0
 40
0.0524077793
 41
0.5235987756
 42
1.5707963268
  0
ELLIPSE
  5
2F7
100
AcDbEntity
  8
ASSI
100
AcDbEllipse
 62
7
  6
CONTINUOUS
 10
4.4263992145
 20
-11.1837827293
 30
0.0
 11
0.2
 21
-0.0
 31
0.0
 40
0.0524077793
 41
1.5707963268
 42
2.617993878
  0
ELLIPSE
  5
2F8
100
AcDbEntity
  8
ASSI
100
AcDbEllipse
 62
7
  6
CONTINUOUS
 10
19.0954591068
 20
-11.1837827293
 30
0.0
 11
0.2
 21
0.0
 31
0.0
 40
0.0524077793
 41
0.5235987756
 42
1.5707963268
  0
ELLIPSE
  5
2F9
100
AcDbEntity
  8
ASSI
100
AcDbEllipse
 62
7
  6
CONTINUOUS
 10
15.7263992145
 20
-11.1837827293
 30
0.0
 11
0.2
 21
-0.0
 31
0.0
 40
0.0524077793
 41
1.5707963268
 42
2.617993878
  0
ELLIPSE
  5
2FA
100
AcDbEntity
  8
ASSI
100
AcDbEllipse
 62
7
  6
CONTINUOUS
 10
-3.4045408932
 20
-11.1837827293
 30
0.0
 11
0.2
 21
-0.0
 31
0.0
 40
0.0524077793
 41
0.5235987756
 42
1.5707963268
  0
ELLIPSE
  5
2FB
100
AcDbEntity
  8
ASSI
100
AcDbEllipse
 62
7
  6
CONTINUOUS
 10
-6.7736007855
 20
-11.1837827293
 30
0.0
 11
0.2
 21
0.0
 31
0.0
 40
0.0524077793
 41
1.5707963268
 42
2.617993878
  0
ELLIPSE
  5
2FC
100
AcDbEntity
  8
ASSI
100
AcDbEllipse
 62
7
  6
CONTINUOUS
 10
26.9263992145
 20
-11.1837827293
 30
0.0
 11
0.2
 21
0.0
 31
0.0
 40
0.0524077793
 41
1.5707963268
 42
2.617993878
  0
ELLIPSE
  5
2FD
100
AcDbEntity
  8
ASSI
100
AcDbEllipse
 62
7
  6
CONTINUOUS
 10
30.2954591068
 20
-11.1837827293
 30
0.0
 11
0.2
 21
0.0
 31
0.0
 40
0.0524077793
 41
0.5235987756
 42
1.5707963268
  0
ELLIPSE
  5
2FE
100
AcDbEntity
  8
ASSI
100
AcDbEllipse
 62
7
  6
CONTINUOUS
 10
33.910898695
 20
10.6489299807
 30
0.0
 11
0.1789222233
 21
0.0894542984
 31
0.0
 40
0.9998096356
 41
-0.4635410001
 42
1.1071030277
  0
ELLIPSE
  5
2FF
100
AcDbEntity
  8
ASSI
100
AcDbEllipse
 62
7
  6
CONTINUOUS
 10
-10.3890403738
 20
10.6489299807
 30
0.0
 11
0.1789222233
 21
-0.0894542984
 31
0.0
 40
0.9998096356
 41
2.0344896259
 42
3.6051336536
  0
ELLIPSE
  5
300
100
AcDbEntity
  8
ASSI
100
AcDbEllipse
 62
7
  6
CONTINUOUS
 10
33.5977794545
 20
-10.7119741479
 30
0.0
 11
0.498078285
 21
0.0448076117
 31
0.0
 40
0.9965957691
 41
-1.6608206152
 42
-0.0909376769
  0
ELLIPSE
  5
301
100
AcDbEntity
  8
ASSI
100
AcDbEllipse
 62
7
  6
CONTINUOUS
 10
-10.0759211332
 20
-10.7119741479
 30
0.0
 11
0.498078285
 21
-0.0448076117
 31
0.0
 40
0.9965957691
 41
-3.0506549766
 42
-1.4807720384
  0
ENDSEC
  0
SECTION
  2
OBJECTS
  0
DICTIONARY
  5
C
100
AcDbDictionary
280
0
281
1
  3
ACAD_GROUP
350
D
  3
ACAD_MLINESTYLE
350
17
  3
ACAD_LAYOUT
350
1A
  3
ACAD_PLOTSETTINGS
350
19
  3
ACAD_PLOTSTYLENAME
350
E
  0
DICTIONARY
  5
D
102
{ACAD_REACTORS
330
C
102
}
100
AcDbDictionary
280
0
281
1
  0
ACDBDICTIONARYWDFLT
  5
E
102
{ACAD_REACTORS
330
C
102
}
100
AcDbDictionary
281
1
  3
Normal
350
F
100
AcDbDictionaryWithDefault
340
F
  0
DICTIONARY
  5
17
102
{ACAD_REACTORS
330
C
102
}
100
AcDbDictionary
280
0
281
1
  3
Standard
350
18
  0
DICTIONARY
  5
19
102
{ACAD_REACTORS
330
C
102
}
100
AcDbDictionary
281
1
  0
DICTIONARY
  5
1A
102
{ACAD_REACTORS
330
C
102
}
100
AcDbDictionary
281
1
  3
Model
350
302
  3
Layout1
350
303
  0
ACDBPLACEHOLDER
  5
F
102
{ACAD_REACTORS
330
E
102
}
  0
MLINESTYLE
  5
18
102
{ACAD_REACTORS
330
17
102
}
100
AcDbMlineStyle
  2
STANDARD
 70
0
  3

 62
256
 51
90.0
 52
90.0
 71
2
 49
0.5
 62
256
  6
BYLAYER
 49
-0.5
 62
256
  6
BYLAYER
  0
LAYOUT
  5
302
102
{ACAD_REACTORS
330
1A
102
}
100
AcDbPlotSettings
  1

  2
none_device
  4
ISO_A4_(297.00_x_210.00_MM)
  6

 40
0.0
 41
0.0
 42
0.0
 43
0.0
 44
297.0
 45
210.0
 46
0.0
 47
0.0
 48
0.0
 49
0.0
140
0.0
141
0.0
142
1.0
143
1.0
 70
1024
 72
1
 73
0
 74
0
  7

 75
0
147
1.0
148
0.0
149
0.0
100
AcDbLayout
  1
Model
 70
0
 71
0
 10
0.0
 20
0.0
 11
297.0
 21
210.0
 12
0.0
 22
0.0
 32
0.0
 14
0.0
 24
0.0
 34
0.0
 15
0.0
 25
0.0
 35
0.0
146
0.0
 13
0.0
 23
0.0
 33
0.0
 16
1.0
 26
0.0
 36
0.0
 17
0.0
 27
1.0
 37
0.0
 76
0
330
213
345
0
346
0
  0
LAYOUT
  5
303
102
{ACAD_REACTORS
330
1A
102
}
100
AcDbPlotSettings
  1

  2
none_device
  4
ISO_A4_(297.00_x_210.00_MM)
  6

 40
0.0
 41
0.0
 42
0.0
 43
0.0
 44
297.0
 45
210.0
 46
0.0
 47
0.0
 48
0.0
 49
0.0
140
0.0
141
0.0
142
1.0
143
1.0
 70
0
 72
1
 73
0
 74
0
  7

 75
0
147
1.0
148
0.0
149
0.0
100
AcDbLayout
  1
Layout1
 70
0
 71
1
 10
0.0
 20
0.0
 11
297.0
 21
210.0
 12
0.0
 22
0.0
 32
0.0
 14
0.0
 24
0.0
 34
0.0
 15
0.0
 25
0.0
 35
0.0
146
0.0
 13
0.0
 23
0.0
 33
0.0
 16
1.0
 26
0.0
 36
0.0
 17
0.0
 27
1.0
 37
0.0
 76
0
330
214
345
0
346
0
  0
ENDSEC
  0
EOF
