  0
SECTION
  2
HEADER
  9
$ACADVER
  1
AC1015
  9
$DWGCODEPAGE
  3
ANSI_1252
  9
$EXTMAX
 10
297.0
 20
210.0
 30
0.0
  9
$EXTMIN
 10
0.0
 20
0.0
 30
0.0
  9
$LIMMIN
 10
0.0
 20
0.0
  9
$LIMMAX
 10
297.0
 20
210.0
  9
$VIEWCTR
 10
148.5
 20
105.0
  9
$VIEWSIZE
 40
210.0
  9
$CLAYER
  8
0
  9
$LTSCALE
 40
16.335
  9
$CELTYPE
  6
BYLAYER
  9
$DIMSCALE
 40
1.0
  9
$DIMASZ
 40
3.0
  9
$DIMEXO
 40
1.85625
  9
$DIMDLI
 40
11.286
  9
$DIMEXE
 40
5.346
  9
$DIMCEN
 40
2.673
  9
$DIMLFAC
 40
1.0
  9
$DIMBLK
  1
_FILLED
  9
$DIMTXT
 40
3.0
  9
$DIMTOL
 70
1
  9
$DIMLIM
 70
0
  9
$DIMTFAC
 40
1.0
  9
$DIMTP
 40
0.01
  9
$DIMTM
 40
0.01
  9
$PDMODE
 70
3
  9
$PDSIZE
 40
3.0
  9
$HANDSEED
  5
6C1
  9
$TILEMODE
 70
1
  9
$MEASUREMENT
 70
1
  9
$INSUNITS
 70
4
  0
ENDSEC
  0
SECTION
  2
CLASSES
  0
CLASS
  1
ACDBDICTIONARYWDFLT
  2
AcDbDictionaryWithDefault
  3
AutoCAD 2000
 90
0
280
0
281
0
  0
CLASS
  1
ACDBPLACEHOLDER
  2
AcDbPlaceHolder
  3
AutoCAD 2000
 90
0
280
0
281
0
  0
CLASS
  1
LAYOUT
  2
AcDbLayout
  3
AutoCAD 2000
 90
0
280
0
281
0
  0
ENDSEC
  0
SECTION
  2
TABLES
  0
TABLE
  2
VPORT
  5
8
100
AcDbSymbolTable
 70
2
  0
VPORT
  5
1F4
100
AcDbSymbolTableRecord
100
AcDbViewportTableRecord
  2
*ACTIVE
 70
0
 10
0.0
 20
0.0
 11
1.0
 21
1.0
 12
148.5
 22
105.0
 13
0.0
 23
0.0
 14
1.0
 24
1.0
 15
0.0
 25
0.0
 16
0.0
 26
0.0
 36
1.0
 17
0.0
 27
0.0
 37
0.0
 40
210.0
 41
1.4142857143
 42
50.0
 43
0.0
 44
0.0
 50
0.0
 51
0.0
 71
0
 72
100
 73
1
 74
1
 75
0
 76
0
 77
0
 78
0
  0
ENDTAB
  0
TABLE
  2
LTYPE
  5
5
100
AcDbSymbolTable
 70
6
  0
LTYPE
  5
14
100
AcDbSymbolTableRecord
100
AcDbLinetypeTableRecord
  2
BYBLOCK
 70
0
  3

 72
65
 73
0
 40
0.0
  0
LTYPE
  5
15
100
AcDbSymbolTableRecord
100
AcDbLinetypeTableRecord
  2
BYLAYER
 70
0
  3

 72
65
 73
0
 40
0.0
  0
LTYPE
  5
16
100
AcDbSymbolTableRecord
100
AcDbLinetypeTableRecord
  2
CONTINUOUS
 70
64
  3
Solid line
 72
65
 73
0
 40
0.0
  0
LTYPE
  5
1F5
100
AcDbSymbolTableRecord
100
AcDbLinetypeTableRecord
  2
CENTER
 70
64
  3
____ _ ____ _ ____ _ ____ _ ____ _ ____ _ ____
 72
65
 73
4
 40
0.6
 49
0.375
 74
0
 49
-0.075
 74
0
 49
0.075
 74
0
 49
-0.075
 74
0
  0
LTYPE
  5
1F6
100
AcDbSymbolTableRecord
100
AcDbLinetypeTableRecord
  2
HIDDEN
 70
64
  3
- - - - - - - - - - - - - - - - - - - -
 72
65
 73
2
 40
0.2
 49
0.1
 74
0
 49
-0.1
 74
0
  0
LTYPE
  5
1F7
100
AcDbSymbolTableRecord
100
AcDbLinetypeTableRecord
  2
PHANTOM
 70
64
  3
_____ _ _ _____ _ _ _____ _ _ _____
 72
65
 73
6
 40
0.8
 49
0.45
 74
0
 49
-0.05
 74
0
 49
0.1
 74
0
 49
-0.05
 74
0
 49
0.1
 74
0
 49
-0.05
 74
0
  0
LTYPE
  5
1F8
100
AcDbSymbolTableRecord
100
AcDbLinetypeTableRecord
  2
DOT
 70
64
  3
. . . . . . . . . . . . . . . . . . . .
 72
65
 73
2
 40
0.2
 49
0.1
 74
0
 49
-0.1
 74
0
  0
LTYPE
  5
1F9
100
AcDbSymbolTableRecord
100
AcDbLinetypeTableRecord
  2
DASHED
 70
64
  3
- - - - - - - - - - - - - - - - - - - -
 72
65
 73
2
 40
0.2
 49
0.1
 74
0
 49
-0.1
 74
0
  0
ENDTAB
  0
TABLE
  2
LAYER
  5
2
100
AcDbSymbolTable
 70
36
  0
LAYER
  5
10
100
AcDbSymbolTableRecord
100
AcDbLayerTableRecord
  2
0
 70
0
 62
7
  6
CONTINUOUS
370
-3
390
F
  0
LAYER
  5
1FA
100
AcDbSymbolTableRecord
100
AcDbLayerTableRecord
  2
DEFAULT_1
 70
0
 62
7
  6
CENTER
370
-3
390
F
  0
LAYER
  5
1FB
100
AcDbSymbolTableRecord
100
AcDbLayerTableRecord
  2
DEFAULT_2
 70
0
 62
7
  6
HIDDEN
370
-3
390
F
  0
LAYER
  5
1FC
100
AcDbSymbolTableRecord
100
AcDbLayerTableRecord
  2
DEFAULT_3
 70
0
 62
7
  6
PHANTOM
370
-3
390
F
  0
LAYER
  5
1FD
100
AcDbSymbolTableRecord
100
AcDbLayerTableRecord
  2
ASSI
 70
0
 62
7
  6
CONTINUOUS
370
-3
390
F
  0
LAYER
  5
1FE
100
AcDbSymbolTableRecord
100
AcDbLayerTableRecord
  2
COLOR5
 70
0
 62
7
  6
CONTINUOUS
370
-3
390
F
  0
LAYER
  5
1FF
100
AcDbSymbolTableRecord
100
AcDbLayerTableRecord
  2
COORDINATE
 70
0
 62
7
  6
CONTINUOUS
370
-3
390
F
  0
LAYER
  5
200
100
AcDbSymbolTableRecord
100
AcDbLayerTableRecord
  2
COORD_ORIGINE
 70
0
 62
7
  6
CONTINUOUS
370
-3
390
F
  0
LAYER
  5
201
100
AcDbSymbolTableRecord
100
AcDbLayerTableRecord
  2
COPY_GEOMETRY
 70
0
 62
7
  6
CONTINUOUS
370
-3
390
F
  0
LAYER
  5
202
100
AcDbSymbolTableRecord
100
AcDbLayerTableRecord
  2
CURVE
 70
0
 62
7
  6
CONTINUOUS
370
-3
390
F
  0
LAYER
  5
203
100
AcDbSymbolTableRecord
100
AcDbLayerTableRecord
  2
DRAFT
 70
0
 62
7
  6
CONTINUOUS
370
-3
390
F
  0
LAYER
  5
204
100
AcDbSymbolTableRecord
100
AcDbLayerTableRecord
  2
IGES_SCRITTE
 70
0
 62
7
  6
CONTINUOUS
370
-3
390
F
  0
LAYER
  5
205
100
AcDbSymbolTableRecord
100
AcDbLayerTableRecord
  2
IMPORT_IGES
 70
0
 62
7
  6
CONTINUOUS
370
-3
390
F
  0
LAYER
  5
206
100
AcDbSymbolTableRecord
100
AcDbLayerTableRecord
  2
NOTE
 70
0
 62
7
  6
CONTINUOUS
370
-3
390
F
  0
LAYER
  5
207
100
AcDbSymbolTableRecord
100
AcDbLayerTableRecord
  2
PIANI
 70
0
 62
7
  6
CONTINUOUS
370
-3
390
F
  0
LAYER
  5
208
100
AcDbSymbolTableRecord
100
AcDbLayerTableRecord
  2
PIANI_COPIE_AGGANCI
 70
0
 62
7
  6
CONTINUOUS
370
-3
390
F
  0
LAYER
  5
209
100
AcDbSymbolTableRecord
100
AcDbLayerTableRecord
  2
PIANI_ORIGINE
 70
0
 62
7
  6
CONTINUOUS
370
-3
390
F
  0
LAYER
  5
20A
100
AcDbSymbolTableRecord
100
AcDbLayerTableRecord
  2
PUNTI
 70
0
 62
7
  6
CONTINUOUS
370
-3
390
F
  0
LAYER
  5
20B
100
AcDbSymbolTableRecord
100
AcDbLayerTableRecord
  2
RACCORDO
 70
0
 62
7
  6
CONTINUOUS
370
-3
390
F
  0
LAYER
  5
20C
100
AcDbSymbolTableRecord
100
AcDbLayerTableRecord
  2
SKELETON
 70
0
 62
7
  6
CONTINUOUS
370
-3
390
F
  0
LAYER
  5
20D
100
AcDbSymbolTableRecord
100
AcDbLayerTableRecord
  2
SMUSSO
 70
0
 62
7
  6
CONTINUOUS
370
-3
390
F
  0
LAYER
  5
20E
100
AcDbSymbolTableRecord
100
AcDbLayerTableRecord
  2
SNAPLINE
 70
0
 62
7
  6
CONTINUOUS
370
-3
390
F
  0
LAYER
  5
20F
100
AcDbSymbolTableRecord
100
AcDbLayerTableRecord
  2
SUPERFICI
 70
0
 62
7
  6
CONTINUOUS
370
-3
390
F
  0
LAYER
  5
210
100
AcDbSymbolTableRecord
100
AcDbLayerTableRecord
  2
TRASH
 70
0
 62
7
  6
CONTINUOUS
370
-3
390
F
  0
LAYER
  5
211
100
AcDbSymbolTableRecord
100
AcDbLayerTableRecord
  2
XSEC_DATUMS
 70
0
 62
7
  6
CONTINUOUS
370
-3
390
F
  0
ENDTAB
  0
TABLE
  2
STYLE
  5
3
100
AcDbSymbolTable
 70
1
  0
STYLE
  5
11
100
AcDbSymbolTableRecord
100
AcDbTextStyleTableRecord
  2
STANDARD
 70
0
 40
0.0
 41
0.8
 50
0.0
 71
0
 42
0.2
  3
txt
  4

  0
STYLE
  5
212
100
AcDbSymbolTableRecord
100
AcDbTextStyleTableRecord
  2
TEXTSTYLE_1
 70
0
 40
0.0
 41
0.8
 50
0.0
 71
0
 42
0.2
  3
gdt
  4

  0
ENDTAB
  0
TABLE
  2
VIEW
  5
6
100
AcDbSymbolTable
 70
0
  0
ENDTAB
  0
TABLE
  2
UCS
  5
7
100
AcDbSymbolTable
 70
0
  0
ENDTAB
  0
TABLE
  2
APPID
  5
9
100
AcDbSymbolTable
 70
1
  0
APPID
  5
213
100
AcDbSymbolTableRecord
100
AcDbRegAppTableRecord
  2
ACAD
 70
0
  0
ENDTAB
  0
TABLE
  2
BLOCK_RECORD
  5
1
100
AcDbSymbolTable
 70
0
  0
BLOCK_RECORD
  5
214
100
AcDbSymbolTableRecord
100
AcDbBlockTableRecord
  2
*Model_Space
  0
BLOCK_RECORD
  5
215
100
AcDbSymbolTableRecord
100
AcDbBlockTableRecord
  2
*Paper_Space
  0
BLOCK_RECORD
  5
216
100
AcDbSymbolTableRecord
100
AcDbBlockTableRecord
  2
_FILLED
  0
BLOCK_RECORD
  5
217
100
AcDbSymbolTableRecord
100
AcDbBlockTableRecord
  2
*D0
  0
BLOCK_RECORD
  5
218
100
AcDbSymbolTableRecord
100
AcDbBlockTableRecord
  2
*D1
  0
BLOCK_RECORD
  5
219
100
AcDbSymbolTableRecord
100
AcDbBlockTableRecord
  2
*D2
  0
ENDTAB
  0
TABLE
  2
DIMSTYLE
  5
A
100
AcDbSymbolTable
 70
1
100
AcDbDimStyleTable
 71
0
  0
DIMSTYLE
105
21A
100
AcDbSymbolTableRecord
100
AcDbDimStyleTableRecord
  2
STANDARD
 70
0
  3

  4

 40
1.0
 41
3.0
 42
0.0625
 43
0.38
 44
0.18
 45
0.0
 46
0.0
 47
0.01
 48
0.01
140
3.0
141
0.09
142
0.0
143
25.4
144
1.0
145
0.0
146
1.0
147
0.09
 71
1.0
 72
0.0
 73
0
 74
0
 75
0
 76
0
 77
1
 78
8
170
0
171
2
172
0
173
0
174
0
175
0
176
0
177
0
178
0
270
2
271
2
272
2
273
2
274
2
275
0
280
0
281
0
282
0
283
1
284
8
285
0
286
0
287
3
288
0
340
11
341
216
342
216
343
216
344
216
  0
DIMSTYLE
105
21B
100
AcDbSymbolTableRecord
100
AcDbDimStyleTableRecord
  2
DIMSTYLE_1
 70
0
  3

  4

 40
1.0
 41
3.0
 42
0.0625
 43
0.38
 44
0.18
 45
0.0
 46
0.0
 47
0.0
 48
0.0
140
3.0
141
0.09
142
0.0
143
25.4
144
1.0
145
0.0
146
1.0
147
0.09
 71
0.0
 72
0.0
 73
0
 74
0
 75
0
 76
0
 77
1
 78
8
170
0
171
2
172
0
173
0
174
0
175
0
176
0
177
0
178
0
270
2
271
2
272
2
273
2
274
2
275
0
280
0
281
0
282
0
283
1
284
8
285
0
286
0
287
3
288
0
340
11
341
216
342
216
343
216
344
216
  0
ENDTAB
  0
ENDSEC
  0
SECTION
  2
BLOCKS
  0
BLOCK
  5
20
100
AcDbEntity
  8
0
100
AcDbBlockBegin
  2
*Model_Space
 70
0
 10
0.0
 20
0.0
 30
0.0
  3
*Model_Space
  1

  0
ENDBLK
  5
21
100
AcDbEntity
  8
0
100
AcDbBlockEnd
  0
BLOCK
  5
1C
100
AcDbEntity
  8
0
100
AcDbBlockBegin
  2
*Paper_Space
 70
0
 10
0.0
 20
0.0
 30
0.0
  3
*Paper_Space
  1

  0
ENDBLK
  5
1D
100
AcDbEntity
  8
0
100
AcDbBlockEnd
  0
BLOCK
  5
21C
100
AcDbEntity
  8
0
100
AcDbBlockBegin
  2
_FILLED
 70
64
 10
0.0
 20
0.0
  3
_FILLED
  1

  0
SOLID
  5
21D
100
AcDbEntity
  8
0
  6
BYBLOCK
 62
0
100
AcDbTrace
 10
0.0
 20
0.0
 11
-1.0
 21
0.3166666667
 12
-1.0
 22
-0.3166666667
 13
-1.0
 23
-0.3166666667
  0
ENDBLK
  5
21E
100
AcDbEntity
  8
0
  6
BYBLOCK
 62
0
100
AcDbBlockEnd
  0
BLOCK
  5
21F
100
AcDbEntity
  8
0
100
AcDbBlockBegin
 62
7
  6
CONTINUOUS
  2
*D0
 70
65
 10
0.0
 20
0.0
  3
*D0
  1

  0
MTEXT
  5
220
100
AcDbEntity
  8
0
100
AcDbMText
 62
7
  6
CONTINUOUS
  7
STANDARD
 71
2
 72
1
 10
-75.0110239085
 20
58.0400053736
 30
0.0
 11
1.0
 21
0.0
 31
0.0
 44
0.9
  1
54,5
 40
3.0
 41
8.3571428571
  0
LINE
  5
221
100
AcDbEntity
  8
0
100
AcDbLine
 62
7
  6
CONTINUOUS
 10
-47.7610239085
 20
31.2100044301
 11
-47.7610239085
 21
55.7900053736
  0
LINE
  5
222
100
AcDbEntity
  8
0
100
AcDbLine
 62
7
  6
CONTINUOUS
 10
-102.2610239085
 20
17.9100053736
 11
-102.2610239085
 21
55.7900053736
  0
LINE
  5
223
100
AcDbEntity
  8
0
100
AcDbLine
 62
7
  6
CONTINUOUS
 10
-47.7610239085
 20
54.2900053736
 11
-75.0110239085
 21
54.2900053736
  0
LINE
  5
224
100
AcDbEntity
  8
0
100
AcDbLine
 62
7
  6
CONTINUOUS
 10
-102.2610239085
 20
54.2900053736
 11
-75.0110239085
 21
54.2900053736
  0
INSERT
  5
225
100
AcDbEntity
  8
0
100
AcDbBlockReference
 62
7
  6
CONTINUOUS
  2
_FILLED
 10
-47.7610239085
 20
54.2900053736
 41
3.0
 42
3.0
 43
3.0
  0
INSERT
  5
226
100
AcDbEntity
  8
0
100
AcDbBlockReference
 62
7
  6
CONTINUOUS
  2
_FILLED
 10
-102.2610239085
 20
54.2900053736
 41
3.0
 42
3.0
 43
3.0
 50
180.0
  0
ENDBLK
  5
227
100
AcDbEntity
  8
0
  6
BYBLOCK
 62
0
100
AcDbBlockEnd
  0
BLOCK
  5
228
100
AcDbEntity
  8
0
100
AcDbBlockBegin
 62
7
  6
CONTINUOUS
  2
*D1
 70
65
 10
0.0
 20
0.0
  3
*D1
  1

  0
MTEXT
  5
229
100
AcDbEntity
  8
0
100
AcDbMText
 62
7
  6
CONTINUOUS
  7
STANDARD
 71
2
 72
1
 10
0.0
 20
58.0400053736
 30
0.0
 11
1.0
 21
0.0
 31
0.0
 44
0.9
  1
68
 40
3.0
 41
4.7142857143
  0
LINE
  5
22A
100
AcDbEntity
  8
0
100
AcDbLine
 62
7
  6
CONTINUOUS
 10
34.0
 20
31.2100053736
 11
34.0
 21
55.7900053736
  0
LINE
  5
22B
100
AcDbEntity
  8
0
100
AcDbLine
 62
7
  6
CONTINUOUS
 10
-34.0
 20
31.2100053736
 11
-34.0
 21
55.7900053736
  0
LINE
  5
22C
100
AcDbEntity
  8
0
100
AcDbLine
 62
7
  6
CONTINUOUS
 10
34.0
 20
54.2900053736
 11
0.0
 21
54.2900053736
  0
LINE
  5
22D
100
AcDbEntity
  8
0
100
AcDbLine
 62
7
  6
CONTINUOUS
 10
-34.0
 20
54.2900053736
 11
0.0
 21
54.2900053736
  0
INSERT
  5
22E
100
AcDbEntity
  8
0
100
AcDbBlockReference
 62
7
  6
CONTINUOUS
  2
_FILLED
 10
34.0
 20
54.2900053736
 41
3.0
 42
3.0
 43
3.0
  0
INSERT
  5
22F
100
AcDbEntity
  8
0
100
AcDbBlockReference
 62
7
  6
CONTINUOUS
  2
_FILLED
 10
-34.0
 20
54.2900053736
 41
3.0
 42
3.0
 43
3.0
 50
180.0
  0
ENDBLK
  5
230
100
AcDbEntity
  8
0
  6
BYBLOCK
 62
0
100
AcDbBlockEnd
  0
BLOCK
  5
231
100
AcDbEntity
  8
0
100
AcDbBlockBegin
 62
7
  6
CONTINUOUS
  2
*D2
 70
65
 10
0.0
 20
0.0
  3
*D2
  1

  0
MTEXT
  5
232
100
AcDbEntity
  8
0
100
AcDbMText
 62
7
  6
CONTINUOUS
  7
STANDARD
 71
2
 72
1
 10
44.25
 20
-4.7899946264
 30
0.0
 11
0.0
 21
1.0
 31
0.0
 44
0.9
  1
83
 40
3.0
 41
4.5
  0
LINE
  5
233
100
AcDbEntity
  8
0
100
AcDbLine
 62
7
  6
CONTINUOUS
 10
28.5
 20
36.7100053736
 11
49.5
 21
36.7100053736
  0
LINE
  5
234
100
AcDbEntity
  8
0
100
AcDbLine
 62
7
  6
CONTINUOUS
 10
28.5
 20
-46.2899946264
 11
49.5
 21
-46.2899946264
  0
LINE
  5
235
100
AcDbEntity
  8
0
100
AcDbLine
 62
7
  6
CONTINUOUS
 10
48.0
 20
36.7100053736
 11
48.0
 21
-4.7899946264
  0
LINE
  5
236
100
AcDbEntity
  8
0
100
AcDbLine
 62
7
  6
CONTINUOUS
 10
48.0
 20
-46.2899946264
 11
48.0
 21
-4.7899946264
  0
INSERT
  5
237
100
AcDbEntity
  8
0
100
AcDbBlockReference
 62
7
  6
CONTINUOUS
  2
_FILLED
 10
48.0
 20
36.7100053736
 41
3.0
 42
3.0
 43
3.0
 50
90.0
  0
INSERT
  5
238
100
AcDbEntity
  8
0
100
AcDbBlockReference
 62
7
  6
CONTINUOUS
  2
_FILLED
 10
48.0
 20
-46.2899946264
 41
3.0
 42
3.0
 43
3.0
 50
270.0
  0
ENDBLK
  5
239
100
AcDbEntity
  8
0
  6
BYBLOCK
 62
0
100
AcDbBlockEnd
  0
ENDSEC
  0
SECTION
  2
ENTITIES
  0
DIMENSION
  5
23A
100
AcDbEntity
  8
0
100
AcDbDimension
 62
7
  6
CONTINUOUS
  2
*D0
 10
-102.2610239085
 20
54.2900053736
 11
-79.1895953371
 21
56.5400053736
 70
160
 71
2
 42
54.5
  3
DIMSTYLE_1
100
AcDbAlignedDimension
 13
-47.7610239085
 23
31.2100044301
 14
-102.2610239085
 24
17.9100053736
 50
180.0
100
AcDbRotatedDimension
  0
DIMENSION
  5
23B
100
AcDbEntity
  8
0
100
AcDbDimension
 62
7
  6
CONTINUOUS
  2
*D1
 10
-34.0
 20
54.2900053736
 11
-2.3571428571
 21
56.5400053736
 70
160
 71
2
 42
68.0
  3
DIMSTYLE_1
100
AcDbAlignedDimension
 13
34.0
 23
31.2100053736
 14
-34.0
 24
31.2100053736
 50
180.0
100
AcDbRotatedDimension
  0
DIMENSION
  5
23C
100
AcDbEntity
  8
0
100
AcDbDimension
 62
7
  6
CONTINUOUS
  2
*D2
 10
48.0
 20
-46.2899946264
 11
46.7581656363
 21
-6.8014871195
 70
160
 71
2
 42
83.0
  3
DIMSTYLE_1
100
AcDbAlignedDimension
 13
28.5
 23
36.7100053736
 14
28.5
 24
-46.2899946264
 50
270.0
100
AcDbRotatedDimension
  0
LINE
  5
23D
100
AcDbEntity
  8
SUPERFICI
100
AcDbLine
 62
7
  6
CONTINUOUS
 10
-27.9999663226
 20
-46.2900053736
 11
27.9999989492
 21
-46.2900021601
  0
LINE
  5
23E
100
AcDbEntity
  8
DRAFT
100
AcDbLine
 62
7
  6
CONTINUOUS
 10
28.0
 20
-46.2899946264
 11
-28.0
 21
-46.2899946264
  0
LINE
  5
23F
100
AcDbEntity
  8
RACCORDO
100
AcDbLine
 62
253
  6
CONTINUOUS
 10
33.99999988
 20
-40.2899946264
 11
33.7995212384
 21
-40.2899945981
  0
LINE
  5
240
100
AcDbEntity
  8
RACCORDO
100
AcDbLine
 62
253
  6
CONTINUOUS
 10
-33.7995212384
 20
-40.2899945981
 11
-33.99999988
 21
-40.2899946264
  0
LINE
  5
241
100
AcDbEntity
  8
0
100
AcDbLine
 62
7
  6
CONTINUOUS
 10
-29.122106287
 20
-40.0511722538
 11
-29.1716048889
 21
-39.9449219525
  0
LINE
  5
242
100
AcDbEntity
  8
0
100
AcDbLine
 62
7
  6
CONTINUOUS
 10
-26.877893713
 20
-40.5288169989
 11
-26.8283951111
 21
-40.6350673002
  0
LINE
  5
243
100
AcDbEntity
  8
SUPERFICI
100
AcDbLine
 62
7
  6
CONTINUOUS
 10
-34.0000081406
 20
30.7100011857
 11
-33.99999988
 21
-40.2900607944
  0
LINE
  5
244
100
AcDbEntity
  8
DRAFT
100
AcDbLine
 62
7
  6
CONTINUOUS
 10
-34.0
 20
-40.2899946264
 11
-34.0
 21
30.7100053736
  0
LINE
  5
245
100
AcDbEntity
  8
0
100
AcDbLine
 62
7
  6
CONTINUOUS
 10
19.780144
 20
-34.2900016264
 11
19.200122
 21
-34.2900096264
  0
LINE
  5
246
100
AcDbEntity
  8
0
100
AcDbLine
 62
7
  6
CONTINUOUS
 10
24.35
 20
-34.2899946264
 11
23.696695
 21
-34.2900016264
  0
LINE
  5
247
100
AcDbEntity
  8
0
100
AcDbLine
 62
7
  6
CONTINUOUS
 10
17.685039
 20
-34.2900016264
 11
17.105031
 21
-34.2900096264
  0
LINE
  5
248
100
AcDbEntity
  8
0
100
AcDbLine
 62
7
  6
CONTINUOUS
 10
15.396627
 20
-34.2900096264
 11
14.816605
 21
-34.2900166264
  0
LINE
  5
249
100
AcDbEntity
  8
0
100
AcDbLine
 62
7
  6
CONTINUOUS
 10
13.498794
 20
-34.2900096264
 11
12.918751
 21
-34.2900166264
  0
LINE
  5
24A
100
AcDbEntity
  8
0
100
AcDbLine
 62
7
  6
CONTINUOUS
 10
18.813443
 20
-34.2900096264
 11
18.233421
 21
-34.2900096264
  0
LINE
  5
24B
100
AcDbEntity
  8
0
100
AcDbLine
 62
7
  6
CONTINUOUS
 10
16.556656
 20
-34.2900096264
 11
15.976634
 21
-34.2900096264
  0
LINE
  5
24C
100
AcDbEntity
  8
0
100
AcDbLine
 62
7
  6
CONTINUOUS
 10
22.609144
 20
-34.2900016264
 11
22.029115
 21
-34.2900016264
  0
LINE
  5
24D
100
AcDbEntity
  8
0
100
AcDbLine
 62
7
  6
CONTINUOUS
 10
21.642437
 20
-34.2900096264
 11
21.062408
 21
-34.2900016264
  0
LINE
  5
24E
100
AcDbEntity
  8
0
100
AcDbLine
 62
7
  6
CONTINUOUS
 10
20.879302
 20
-33.7196736264
 11
19.963257
 21
-33.7196736264
  0
LINE
  5
24F
100
AcDbEntity
  8
0
100
AcDbLine
 62
7
  6
CONTINUOUS
 10
20.140179
 20
-33.1686516264
 11
20.702373
 21
-33.1686516264
  0
LINE
  5
250
100
AcDbEntity
  8
0
100
AcDbLine
 62
7
  6
CONTINUOUS
 10
23.115441
 20
-33.1686516264
 11
22.60921
 21
-33.1686446264
  0
LINE
  5
251
100
AcDbEntity
  8
0
100
AcDbLine
 62
7
  6
CONTINUOUS
 10
22.601148
 20
-32.6321226264
 11
23.306824
 21
-32.6321226264
  0
LINE
  5
252
100
AcDbEntity
  8
0
100
AcDbLine
 62
7
  6
CONTINUOUS
 10
-28.6
 20
-43.122149948
 11
-28.6
 21
-40.743801993
  0
LINE
  5
253
100
AcDbEntity
  8
0
100
AcDbLine
 62
7
  6
CONTINUOUS
 10
-28.6
 20
-39.8361872597
 11
-28.6
 21
-37.4578393047
  0
LINE
  5
254
100
AcDbEntity
  8
0
100
AcDbLine
 62
7
  6
CONTINUOUS
 10
23.306824
 20
-31.9263926264
 11
22.60114
 21
-31.9263926264
  0
LINE
  5
255
100
AcDbEntity
  8
0
100
AcDbLine
 62
7
  6
CONTINUOUS
 10
11.987619
 20
-31.3898786264
 11
12.567648
 21
-31.3898786264
  0
LINE
  5
256
100
AcDbEntity
  8
0
100
AcDbLine
 62
7
  6
CONTINUOUS
 10
13.849905
 20
-31.3898786264
 11
14.429934
 21
-31.3898786264
  0
LINE
  5
257
100
AcDbEntity
  8
0
100
AcDbLine
 62
7
  6
CONTINUOUS
 10
14.816612
 20
-31.3898786264
 11
15.396634
 21
-31.3898786264
  0
LINE
  5
258
100
AcDbEntity
  8
0
100
AcDbLine
 62
7
  6
CONTINUOUS
 10
15.976634
 20
-31.3898786264
 11
16.853471
 21
-31.3898786264
  0
LINE
  5
259
100
AcDbEntity
  8
0
100
AcDbLine
 62
7
  6
CONTINUOUS
 10
17.936606
 20
-31.3898786264
 11
18.813443
 21
-31.3898786264
  0
LINE
  5
25A
100
AcDbEntity
  8
0
100
AcDbLine
 62
7
  6
CONTINUOUS
 10
20.131247
 20
-31.3898716264
 11
20.711297
 21
-31.3898716264
  0
LINE
  5
25B
100
AcDbEntity
  8
0
100
AcDbLine
 62
7
  6
CONTINUOUS
 10
22.029115
 20
-31.3898716264
 11
23.38733
 21
-31.3898716264
  0
LINE
  5
25C
100
AcDbEntity
  8
RACCORDO
100
AcDbLine
 62
253
  6
CONTINUOUS
 10
22.2
 20
-28.8903312674
 11
-22.2
 21
-28.8903312674
  0
LINE
  5
25D
100
AcDbEntity
  8
RACCORDO
100
AcDbLine
 62
253
  6
CONTINUOUS
 10
-28.0000098903
 20
36.5128611675
 11
-28.00001
 21
36.7100161063
  0
LINE
  5
25E
100
AcDbEntity
  8
RACCORDO
100
AcDbLine
 62
253
  6
CONTINUOUS
 10
-28.0000098933
 20
-46.0928504334
 11
-28.00001
 21
-46.2900053736
  0
LINE
  5
25F
100
AcDbEntity
  8
0
100
AcDbLine
 62
7
  6
CONTINUOUS
 10
-27.4
 20
-37.4578393047
 11
-27.4
 21
-39.8361872597
  0
LINE
  5
260
100
AcDbEntity
  8
0
100
AcDbLine
 62
7
  6
CONTINUOUS
 10
-27.4
 20
-40.743801993
 11
-27.4
 21
-43.122149948
  0
LINE
  5
261
100
AcDbEntity
  8
RACCORDO
100
AcDbLine
 62
253
  6
CONTINUOUS
 10
-24.1000016985
 20
-4.7899935836
 11
-24.1007520549
 21
17.4100053736
  0
LINE
  5
262
100
AcDbEntity
  8
RACCORDO
100
AcDbLine
 62
253
  6
CONTINUOUS
 10
-24.1007520549
 20
-26.9899946264
 11
-24.1000016985
 21
-4.7899935836
  0
LINE
  5
263
100
AcDbEntity
  8
0
100
AcDbLine
 62
7
  6
CONTINUOUS
 10
22.2
 20
-27.2899946264
 11
-22.2
 21
-27.2899946264
  0
LINE
  5
264
100
AcDbEntity
  8
RACCORDO
100
AcDbLine
 62
7
  6
CONTINUOUS
 10
-14.1958892987
 20
-27.1899946264
 11
-8.3041107013
 21
-27.1899946264
  0
LINE
  5
265
100
AcDbEntity
  8
RACCORDO
100
AcDbLine
 62
7
  6
CONTINUOUS
 10
8.3041107013
 20
-27.1899946264
 11
14.1958892987
 21
-27.1899946264
  0
LINE
  5
266
100
AcDbEntity
  8
RACCORDO
100
AcDbLine
 62
253
  6
CONTINUOUS
 10
-24.1007520549
 20
-26.9899946264
 11
-22.5
 21
-26.9899946264
  0
LINE
  5
267
100
AcDbEntity
  8
RACCORDO
100
AcDbLine
 62
253
  6
CONTINUOUS
 10
24.1007520549
 20
-26.9899946264
 11
22.5
 21
-26.9899946264
  0
LINE
  5
268
100
AcDbEntity
  8
RACCORDO
100
AcDbLine
 62
253
  6
CONTINUOUS
 10
-22.2000000008
 20
-28.8903243766
 11
-22.196589176
 21
-30.6724158543
  0
LINE
  5
269
100
AcDbEntity
  8
0
100
AcDbLine
 62
7
  6
CONTINUOUS
 10
-22.5
 20
-26.9899946264
 11
-22.5
 21
17.4100053736
  0
LINE
  5
26A
100
AcDbEntity
  8
RACCORDO
100
AcDbLine
 62
7
  6
CONTINUOUS
 10
-22.4
 20
9.4058946724
 11
-22.4
 21
3.5141160749
  0
LINE
  5
26B
100
AcDbEntity
  8
RACCORDO
100
AcDbLine
 62
7
  6
CONTINUOUS
 10
-22.4
 20
-13.0941053276
 11
-22.4
 21
-18.9858839251
  0
LINE
  5
26C
100
AcDbEntity
  8
RACCORDO
100
AcDbLine
 62
253
  6
CONTINUOUS
 10
-22.2
 20
19.3103420147
 11
-22.2
 21
17.7100053736
  0
LINE
  5
26D
100
AcDbEntity
  8
RACCORDO
100
AcDbLine
 62
253
  6
CONTINUOUS
 10
-22.2
 20
-28.8903312674
 11
-22.2
 21
-27.2899946264
  0
LINE
  5
26E
100
AcDbEntity
  8
ASSI
100
AcDbLine
 62
7
  6
CONTINUOUS
 10
-22.16
 20
-15.5301336264
 11
-22.16
 21
-17.1472876264
  0
LINE
  5
26F
100
AcDbEntity
  8
ASSI
100
AcDbLine
 62
7
  6
CONTINUOUS
 10
-21.84
 20
-17.1472876264
 11
-21.84
 21
-15.5301336264
  0
LINE
  5
270
100
AcDbEntity
  8
ASSI
100
AcDbLine
 62
7
  6
CONTINUOUS
 10
-21.347299
 20
-19.1224586264
 11
-21.347299
 21
-18.8024586264
  0
LINE
  5
271
100
AcDbEntity
  8
ASSI
100
AcDbLine
 62
7
  6
CONTINUOUS
 10
-20.701022
 20
-18.2994736264
 11
-20.701022
 21
-17.9748736264
  0
LINE
  5
272
100
AcDbEntity
  8
ASSI
100
AcDbLine
 62
7
  6
CONTINUOUS
 10
-20.054453
 20
-17.4718886264
 11
-20.054453
 21
-17.1472876264
  0
LINE
  5
273
100
AcDbEntity
  8
RACCORDO
100
AcDbLine
 62
253
  6
CONTINUOUS
 10
-22.2
 20
19.310341981
 11
-22.196589143
 21
21.0924264316
  0
LINE
  5
274
100
AcDbEntity
  8
RACCORDO
100
AcDbLine
 62
7
  6
CONTINUOUS
 10
-22.4
 20
-18.9858839251
 11
-22.5
 21
-18.9876294316
  0
LINE
  5
275
100
AcDbEntity
  8
ASSI
100
AcDbLine
 62
7
  6
CONTINUOUS
 10
-22.5
 20
-19.1224586264
 11
-21.347299
 21
-19.1224586264
  0
LINE
  5
276
100
AcDbEntity
  8
ASSI
100
AcDbLine
 62
7
  6
CONTINUOUS
 10
-21.347299
 20
-18.8024586264
 11
-22.4
 21
-18.8024586264
  0
LINE
  5
277
100
AcDbEntity
  8
ASSI
100
AcDbLine
 62
7
  6
CONTINUOUS
 10
-22.4
 20
-18.2994736264
 11
-20.701022
 21
-18.2994736264
  0
LINE
  5
278
100
AcDbEntity
  8
ASSI
100
AcDbLine
 62
7
  6
CONTINUOUS
 10
-20.701022
 20
-17.9748736264
 11
-22.4
 21
-17.9748736264
  0
LINE
  5
279
100
AcDbEntity
  8
0
100
AcDbLine
 62
7
  6
CONTINUOUS
 10
15.092396
 20
-17.5031706264
 11
15.281616
 21
-17.5031706264
  0
LINE
  5
27A
100
AcDbEntity
  8
0
100
AcDbLine
 62
7
  6
CONTINUOUS
 10
15.958438
 20
-17.5031706264
 11
16.147545
 21
-17.5031706264
  0
LINE
  5
27B
100
AcDbEntity
  8
0
100
AcDbLine
 62
7
  6
CONTINUOUS
 10
16.676026
 20
-17.5031706264
 11
16.871021
 21
-17.5031706264
  0
LINE
  5
27C
100
AcDbEntity
  8
0
100
AcDbLine
 62
7
  6
CONTINUOUS
 10
17.717473
 20
-17.5031706264
 11
17.924132
 21
-17.5031706264
  0
LINE
  5
27D
100
AcDbEntity
  8
0
100
AcDbLine
 62
7
  6
CONTINUOUS
 10
18.097725
 20
-17.5031706264
 11
18.99672
 21
-17.5031706264
  0
LINE
  5
27E
100
AcDbEntity
  8
0
100
AcDbLine
 62
7
  6
CONTINUOUS
 10
19.297139
 20
-17.5031706264
 11
19.486246
 21
-17.5031706264
  0
LINE
  5
27F
100
AcDbEntity
  8
ASSI
100
AcDbLine
 62
7
  6
CONTINUOUS
 10
-22.4
 20
-17.4718886264
 11
-20.054453
 21
-17.4718886264
  0
LINE
  5
280
100
AcDbEntity
  8
0
100
AcDbLine
 62
7
  6
CONTINUOUS
 10
18.99672
 20
-17.3355786264
 11
18.286832
 21
-17.3355786264
  0
LINE
  5
281
100
AcDbEntity
  8
ASSI
100
AcDbLine
 62
7
  6
CONTINUOUS
 10
-20.054453
 20
-17.1472876264
 11
-21.84
 21
-17.1472876264
  0
LINE
  5
282
100
AcDbEntity
  8
ASSI
100
AcDbLine
 62
7
  6
CONTINUOUS
 10
-22.16
 20
-17.1472876264
 11
-22.4
 21
-17.1472876264
  0
LINE
  5
283
100
AcDbEntity
  8
0
100
AcDbLine
 62
7
  6
CONTINUOUS
 10
17.017324
 20
-17.0955146264
 11
17.578983
 21
-17.0955146264
  0
LINE
  5
284
100
AcDbEntity
  8
0
100
AcDbLine
 62
7
  6
CONTINUOUS
 10
17.510701
 20
-16.9279226264
 11
17.075755
 21
-16.9279226264
  0
LINE
  5
285
100
AcDbEntity
  8
0
100
AcDbLine
 62
7
  6
CONTINUOUS
 10
15.484538
 20
-16.2700116264
 11
15.958438
 21
-16.2700116264
  0
LINE
  5
286
100
AcDbEntity
  8
0
100
AcDbLine
 62
7
  6
CONTINUOUS
 10
16.147545
 20
-16.2700116264
 11
16.621445
 21
-16.2700116264
  0
LINE
  5
287
100
AcDbEntity
  8
0
100
AcDbLine
 62
7
  6
CONTINUOUS
 10
20.014727
 20
-16.1024196264
 11
19.792441
 21
-16.1024196264
  0
LINE
  5
288
100
AcDbEntity
  8
0
100
AcDbLine
 62
7
  6
CONTINUOUS
 10
18.988906
 20
-16.1024196264
 11
18.768546
 21
-16.1024196264
  0
LINE
  5
289
100
AcDbEntity
  8
0
100
AcDbLine
 62
7
  6
CONTINUOUS
 10
18.286832
 20
-16.1024196264
 11
18.097725
 21
-16.1024196264
  0
LINE
  5
28A
100
AcDbEntity
  8
0
100
AcDbLine
 62
7
  6
CONTINUOUS
 10
17.417053
 20
-16.1024196264
 11
17.202581
 21
-16.1024196264
  0
LINE
  5
28B
100
AcDbEntity
  8
0
100
AcDbLine
 62
7
  6
CONTINUOUS
 10
16.621445
 20
-16.1024196264
 11
15.484538
 21
-16.1024196264
  0
LINE
  5
28C
100
AcDbEntity
  8
0
100
AcDbLine
 62
7
  6
CONTINUOUS
 10
15.281616
 20
-16.1024196264
 11
15.092396
 21
-16.1024196264
  0
LINE
  5
28D
100
AcDbEntity
  8
RACCORDO
100
AcDbLine
 62
7
  6
CONTINUOUS
 10
22.5
 20
-18.9876294316
 11
22.4
 21
-18.9858839251
  0
LINE
  5
28E
100
AcDbEntity
  8
RACCORDO
100
AcDbLine
 62
7
  6
CONTINUOUS
 10
-14.1958892987
 20
17.6100053736
 11
-14.1976348052
 21
17.7100053736
  0
LINE
  5
28F
100
AcDbEntity
  8
0
100
AcDbLine
 62
7
  6
CONTINUOUS
 10
-14.0
 20
37.5126130257
 11
-14.0
 21
36.7100153066
  0
LINE
  5
290
100
AcDbEntity
  8
RACCORDO
100
AcDbLine
 62
7
  6
CONTINUOUS
 10
-14.0
 20
36.7100153066
 11
-14.0
 21
37.5126130257
  0
LINE
  5
291
100
AcDbEntity
  8
0
100
AcDbLine
 62
7
  6
CONTINUOUS
 10
-11.85
 20
39.9167292154
 11
-11.85
 21
39.4900053736
  0
LINE
  5
292
100
AcDbEntity
  8
RACCORDO
100
AcDbLine
 62
7
  6
CONTINUOUS
 10
-11.85
 20
39.4900053736
 11
-11.85
 21
39.9167292154
  0
LINE
  5
293
100
AcDbEntity
  8
RACCORDO
100
AcDbLine
 62
7
  6
CONTINUOUS
 10
-14.1976348052
 20
-27.2899946264
 11
-14.1958892987
 21
-27.1899946264
  0
LINE
  5
294
100
AcDbEntity
  8
ASSI
100
AcDbLine
 62
7
  6
CONTINUOUS
 10
-6.843988
 20
17.5848993736
 11
-6.8038204469
 21
17.7100053736
  0
LINE
  5
295
100
AcDbEntity
  8
RACCORDO
100
AcDbLine
 62
7
  6
CONTINUOUS
 10
22.4
 20
-13.0941053276
 11
22.5
 21
-13.0923598211
  0
LINE
  5
296
100
AcDbEntity
  8
ASSI
100
AcDbLine
 62
7
  6
CONTINUOUS
 10
-21.84
 20
-15.5301336264
 11
-22.16
 21
-15.5301336264
  0
LINE
  5
297
100
AcDbEntity
  8
0
100
AcDbLine
 62
7
  6
CONTINUOUS
 10
16.680895
 20
-15.4898036264
 11
16.870115
 21
-15.4898036264
  0
LINE
  5
298
100
AcDbEntity
  8
0
100
AcDbLine
 62
7
  6
CONTINUOUS
 10
17.193749
 20
-15.4898036264
 11
17.377194
 21
-15.4898036264
  0
LINE
  5
299
100
AcDbEntity
  8
0
100
AcDbLine
 62
7
  6
CONTINUOUS
 10
18.092856
 20
-15.4898036264
 11
18.305403
 21
-15.4898036264
  0
LINE
  5
29A
100
AcDbEntity
  8
0
100
AcDbLine
 62
7
  6
CONTINUOUS
 10
18.305403
 20
-14.0901856264
 11
18.122185
 21
-14.0901856264
  0
LINE
  5
29B
100
AcDbEntity
  8
0
100
AcDbLine
 62
7
  6
CONTINUOUS
 10
17.418072
 20
-14.0901856264
 11
17.193749
 21
-14.0901856264
  0
LINE
  5
29C
100
AcDbEntity
  8
0
100
AcDbLine
 62
7
  6
CONTINUOUS
 10
16.870115
 20
-14.0901856264
 11
16.680895
 21
-14.0901856264
  0
LINE
  5
29D
100
AcDbEntity
  8
0
100
AcDbLine
 62
7
  6
CONTINUOUS
 10
14.803866
 20
-13.4764366264
 11
14.987198
 21
-13.4764366264
  0
LINE
  5
29E
100
AcDbEntity
  8
0
100
AcDbLine
 62
7
  6
CONTINUOUS
 10
15.381152
 20
-13.4764366264
 11
15.568334
 21
-13.4764366264
  0
LINE
  5
29F
100
AcDbEntity
  8
0
100
AcDbLine
 62
7
  6
CONTINUOUS
 10
15.962288
 20
-13.4764366264
 11
16.14562
 21
-13.4764366264
  0
LINE
  5
2A0
100
AcDbEntity
  8
0
100
AcDbLine
 62
7
  6
CONTINUOUS
 10
16.313325
 20
-13.4764366264
 11
16.508321
 21
-13.4764366264
  0
LINE
  5
2A1
100
AcDbEntity
  8
0
100
AcDbLine
 62
7
  6
CONTINUOUS
 10
17.354773
 20
-13.4764366264
 11
17.561431
 21
-13.4764366264
  0
LINE
  5
2A2
100
AcDbEntity
  8
0
100
AcDbLine
 62
7
  6
CONTINUOUS
 10
17.744763
 20
-13.4764366264
 11
18.3121995402
 21
-13.4764366264
  0
LINE
  5
2A3
100
AcDbEntity
  8
0
100
AcDbLine
 62
7
  6
CONTINUOUS
 10
19.1625
 20
-13.4764366264
 11
20.196134
 21
-13.4764366264
  0
LINE
  5
2A4
100
AcDbEntity
  8
0
100
AcDbLine
 62
7
  6
CONTINUOUS
 10
18.2868345863
 20
-13.3145066264
 11
17.93387
 21
-13.3145066264
  0
LINE
  5
2A5
100
AcDbEntity
  8
0
100
AcDbLine
 62
7
  6
CONTINUOUS
 10
20.196134
 20
-13.3088446264
 11
19.35172
 21
-13.3088446264
  0
LINE
  5
2A6
100
AcDbEntity
  8
0
100
AcDbLine
 62
7
  6
CONTINUOUS
 10
16.654624
 20
-13.0687806264
 11
17.216283
 21
-13.0687806264
  0
LINE
  5
2A7
100
AcDbEntity
  8
0
100
AcDbLine
 62
7
  6
CONTINUOUS
 10
17.148
 20
-12.9011896264
 11
16.713168
 21
-12.9011896264
  0
LINE
  5
2A8
100
AcDbEntity
  8
0
100
AcDbLine
 62
7
  6
CONTINUOUS
 10
19.35172
 20
-12.8411736264
 11
20.118113
 21
-12.8411736264
  0
LINE
  5
2A9
100
AcDbEntity
  8
0
100
AcDbLine
 62
7
  6
CONTINUOUS
 10
20.118113
 20
-12.6735816264
 11
19.35172
 21
-12.6735816264
  0
LINE
  5
2AA
100
AcDbEntity
  8
0
100
AcDbLine
 62
7
  6
CONTINUOUS
 10
19.35172
 20
-12.2444106264
 11
20.182432
 21
-12.2444106264
  0
LINE
  5
2AB
100
AcDbEntity
  8
0
100
AcDbLine
 62
7
  6
CONTINUOUS
 10
17.93387
 20
-12.2387486264
 11
18.2868330675
 21
-12.2387486264
  0
LINE
  5
2AC
100
AcDbEntity
  8
0
100
AcDbLine
 62
7
  6
CONTINUOUS
 10
20.182432
 20
-12.0768186264
 11
19.1625
 21
-12.0768186264
  0
LINE
  5
2AD
100
AcDbEntity
  8
0
100
AcDbLine
 62
7
  6
CONTINUOUS
 10
18.3121980432
 20
-12.0768186264
 11
17.744763
 21
-12.0768186264
  0
LINE
  5
2AE
100
AcDbEntity
  8
0
100
AcDbLine
 62
7
  6
CONTINUOUS
 10
17.054353
 20
-12.0768186264
 11
16.839881
 21
-12.0768186264
  0
LINE
  5
2AF
100
AcDbEntity
  8
0
100
AcDbLine
 62
7
  6
CONTINUOUS
 10
16.14562
 20
-12.0768186264
 11
15.876454
 21
-12.0768186264
  0
LINE
  5
2B0
100
AcDbEntity
  8
0
100
AcDbLine
 62
7
  6
CONTINUOUS
 10
15.074957
 20
-12.0768186264
 11
14.803866
 21
-12.0768186264
  0
LINE
  5
2B1
100
AcDbEntity
  8
RACCORDO
100
AcDbLine
 62
7
  6
CONTINUOUS
 10
-22.5
 20
-13.0923598211
 11
-22.4
 21
-13.0941053276
  0
LINE
  5
2B2
100
AcDbEntity
  8
RACCORDO
100
AcDbLine
 62
7
  6
CONTINUOUS
 10
-8.3041107013
 20
-27.1899946264
 11
-8.3023651948
 21
-27.2899946264
  0
LINE
  5
2B3
100
AcDbEntity
  8
0
100
AcDbLine
 62
7
  6
CONTINUOUS
 10
-11.35
 20
39.4900053736
 11
-11.35
 21
38.9900053736
  0
LINE
  5
2B4
100
AcDbEntity
  8
0
100
AcDbLine
 62
7
  6
CONTINUOUS
 10
-10.1
 20
41.7569215943
 11
-10.1
 21
41.2900053736
  0
LINE
  5
2B5
100
AcDbEntity
  8
RACCORDO
100
AcDbLine
 62
7
  6
CONTINUOUS
 10
-10.1
 20
41.2900053736
 11
-10.1
 21
41.7569215943
  0
LINE
  5
2B6
100
AcDbEntity
  8
0
100
AcDbLine
 62
7
  6
CONTINUOUS
 10
-9.45
 20
41.2900053736
 11
-9.45
 21
40.7900053736
  0
LINE
  5
2B7
100
AcDbEntity
  8
0
100
AcDbLine
 62
7
  6
CONTINUOUS
 10
-8.35
 20
43.530126675
 11
-8.35
 21
43.0900053736
  0
LINE
  5
2B8
100
AcDbEntity
  8
RACCORDO
100
AcDbLine
 62
7
  6
CONTINUOUS
 10
-8.35
 20
43.0900053736
 11
-8.35
 21
43.530126675
  0
LINE
  5
2B9
100
AcDbEntity
  8
0
100
AcDbLine
 62
7
  6
CONTINUOUS
 10
-7.85
 20
43.0900053736
 11
-7.85
 21
42.5900053736
  0
LINE
  5
2BA
100
AcDbEntity
  8
RACCORDO
100
AcDbLine
 62
7
  6
CONTINUOUS
 10
-8.3023651948
 20
17.7100053736
 11
-8.3041107013
 21
17.6100053736
  0
LINE
  5
2BB
100
AcDbEntity
  8
0
100
AcDbLine
 62
7
  6
CONTINUOUS
 10
-29.171604981
 20
-40.635067251
 11
-29.1221062937
 21
-40.5288170088
  0
LINE
  5
2BC
100
AcDbEntity
  8
ASSI
100
AcDbLine
 62
7
  6
CONTINUOUS
 10
-4.9127127056
 20
17.7100053736
 11
-4.912713
 21
17.5848883736
  0
LINE
  5
2BD
100
AcDbEntity
  8
0
100
AcDbLine
 62
7
  6
CONTINUOUS
 10
-4.1
 20
45.2291647807
 11
-4.1
 21
44.8900053736
  0
LINE
  5
2BE
100
AcDbEntity
  8
RACCORDO
100
AcDbLine
 62
7
  6
CONTINUOUS
 10
-4.1
 20
44.8900053736
 11
-4.1
 21
45.2291647807
  0
LINE
  5
2BF
100
AcDbEntity
  8
ASSI
100
AcDbLine
 62
7
  6
CONTINUOUS
 10
-4.062681
 20
17.5848993736
 11
-4.0626807056
 21
17.7100053736
  0
LINE
  5
2C0
100
AcDbEntity
  8
0
100
AcDbLine
 62
7
  6
CONTINUOUS
 10
-3.6
 20
44.8900053736
 11
-3.6
 21
44.3900053736
  0
LINE
  5
2C1
100
AcDbEntity
  8
ASSI
100
AcDbLine
 62
7
  6
CONTINUOUS
 10
-0.708974
 20
17.5849093736
 11
-0.6731037334
 21
17.7100053736
  0
LINE
  5
2C2
100
AcDbEntity
  8
ASSI
100
AcDbLine
 62
7
  6
CONTINUOUS
 10
1.551572831
 20
17.7100053736
 11
1.511406
 21
17.5848993736
  0
LINE
  5
2C3
100
AcDbEntity
  8
0
100
AcDbLine
 62
7
  6
CONTINUOUS
 10
-26.828395019
 20
-39.9449220017
 11
-26.8778937063
 21
-40.0511722439
  0
LINE
  5
2C4
100
AcDbEntity
  8
RACCORDO
100
AcDbLine
 62
253
  6
CONTINUOUS
 10
33.7986593967
 20
-4.7899948569
 11
33.1086566349
 21
-4.7903655798
  0
LINE
  5
2C5
100
AcDbEntity
  8
RACCORDO
100
AcDbLine
 62
253
  6
CONTINUOUS
 10
-33.7986593967
 20
-4.7899948569
 11
-33.1086566349
 21
-4.7896236688
  0
LINE
  5
2C6
100
AcDbEntity
  8
ASSI
100
AcDbLine
 62
7
  6
CONTINUOUS
 10
19.157055
 20
-5.1649946264
 11
20.617556
 21
-5.1649946264
  0
LINE
  5
2C7
100
AcDbEntity
  8
RACCORDO
100
AcDbLine
 62
253
  6
CONTINUOUS
 10
24.1000016985
 20
-4.7899935836
 11
25.9000313842
 21
-4.7898415998
  0
LINE
  5
2C8
100
AcDbEntity
  8
RACCORDO
100
AcDbLine
 62
253
  6
CONTINUOUS
 10
-24.1000016985
 20
-4.7899935836
 11
-25.9000313814
 21
-4.790145567
  0
LINE
  5
2C9
100
AcDbEntity
  8
ASSI
100
AcDbLine
 62
7
  6
CONTINUOUS
 10
20.617556
 20
-4.4149946264
 11
19.1570519903
 21
-4.4149946264
  0
LINE
  5
2CA
100
AcDbEntity
  8
ASSI
100
AcDbLine
 62
7
  6
CONTINUOUS
 10
-3.212671
 20
17.7100053736
 11
-3.212671
 21
17.5848993736
  0
LINE
  5
2CB
100
AcDbEntity
  8
ASSI
100
AcDbLine
 62
7
  6
CONTINUOUS
 10
-2.362639
 20
17.5848993736
 11
-2.362639
 21
17.7100053736
  0
LINE
  5
2CC
100
AcDbEntity
  8
ASSI
100
AcDbLine
 62
7
  6
CONTINUOUS
 10
0.094689509
 20
17.7100053736
 11
0.09469
 21
17.5848993736
  0
LINE
  5
2CD
100
AcDbEntity
  8
RACCORDO
100
AcDbLine
 62
253
  6
CONTINUOUS
 10
0.0000001142
 20
36.5086667829
 11
-0.0
 21
19.3100062211
  0
LINE
  5
2CE
100
AcDbEntity
  8
RACCORDO
100
AcDbLine
 62
253
  6
CONTINUOUS
 10
0.0000001148
 20
-46.0886560429
 11
0.0
 21
-28.8899954738
  0
LINE
  5
2CF
100
AcDbEntity
  8
ASSI
100
AcDbLine
 62
7
  6
CONTINUOUS
 10
2.361438
 20
17.5849093736
 11
2.4016021275
 21
17.7100053736
  0
LINE
  5
2D0
100
AcDbEntity
  8
ASSI
100
AcDbLine
 62
7
  6
CONTINUOUS
 10
-7.7342216571
 20
17.7100053736
 11
-7.694051
 21
17.5848883736
  0
LINE
  5
2D1
100
AcDbEntity
  8
ASSI
100
AcDbLine
 62
7
  6
CONTINUOUS
 10
0.944722
 20
17.5848993736
 11
0.944722
 21
17.7100053736
  0
LINE
  5
2D2
100
AcDbEntity
  8
0
100
AcDbLine
 62
7
  6
CONTINUOUS
 10
3.6
 20
44.8900053736
 11
3.6
 21
44.3900053736
  0
LINE
  5
2D3
100
AcDbEntity
  8
0
100
AcDbLine
 62
7
  6
CONTINUOUS
 10
4.1
 20
45.2291647807
 11
4.1
 21
44.8900053736
  0
LINE
  5
2D4
100
AcDbEntity
  8
RACCORDO
100
AcDbLine
 62
7
  6
CONTINUOUS
 10
4.1
 20
44.8900053736
 11
4.1
 21
45.2291647807
  0
LINE
  5
2D5
100
AcDbEntity
  8
RACCORDO
100
AcDbLine
 62
7
  6
CONTINUOUS
 10
-22.4
 20
3.5141160749
 11
-22.5
 21
3.5123705684
  0
LINE
  5
2D6
100
AcDbEntity
  8
RACCORDO
100
AcDbLine
 62
7
  6
CONTINUOUS
 10
22.5
 20
3.5123705684
 11
22.4
 21
3.5141160749
  0
LINE
  5
2D7
100
AcDbEntity
  8
0
100
AcDbLine
 62
7
  6
CONTINUOUS
 10
12.918751
 20
-34.2900166264
 11
11.987619
 21
-31.3898786264
  0
LINE
  5
2D8
100
AcDbEntity
  8
0
100
AcDbLine
 62
7
  6
CONTINUOUS
 10
12.567648
 20
-31.3898786264
 11
13.20878
 21
-33.3867746264
  0
LINE
  5
2D9
100
AcDbEntity
  8
ASSI
100
AcDbLine
 62
7
  6
CONTINUOUS
 10
-1.5948580507
 20
17.7100053736
 11
-1.558985
 21
17.5848993736
  0
LINE
  5
2DA
100
AcDbEntity
  8
RACCORDO
100
AcDbLine
 62
7
  6
CONTINUOUS
 10
8.3041107013
 20
17.6100053736
 11
8.3023651948
 21
17.7100053736
  0
LINE
  5
2DB
100
AcDbEntity
  8
ASSI
100
AcDbLine
 62
7
  6
CONTINUOUS
 10
5.657345
 20
17.7100053736
 11
5.657345
 21
17.5849093736
  0
LINE
  5
2DC
100
AcDbEntity
  8
0
100
AcDbLine
 62
7
  6
CONTINUOUS
 10
7.85
 20
43.0900053736
 11
7.85
 21
42.5900053736
  0
LINE
  5
2DD
100
AcDbEntity
  8
0
100
AcDbLine
 62
7
  6
CONTINUOUS
 10
8.35
 20
43.530126675
 11
8.35
 21
43.0900053736
  0
LINE
  5
2DE
100
AcDbEntity
  8
RACCORDO
100
AcDbLine
 62
7
  6
CONTINUOUS
 10
8.35
 20
43.0900053736
 11
8.35
 21
43.530126675
  0
LINE
  5
2DF
100
AcDbEntity
  8
ASSI
100
AcDbLine
 62
7
  6
CONTINUOUS
 10
6.507388
 20
17.5849093736
 11
6.5073952316
 21
17.7100053736
  0
LINE
  5
2E0
100
AcDbEntity
  8
0
100
AcDbLine
 62
7
  6
CONTINUOUS
 10
18.768546
 20
-16.1024196264
 11
19.297139
 21
-16.9392466264
  0
LINE
  5
2E1
100
AcDbEntity
  8
0
100
AcDbLine
 62
7
  6
CONTINUOUS
 10
17.377194
 20
-14.3524406264
 11
18.092856
 21
-15.4898036264
  0
LINE
  5
2E2
100
AcDbEntity
  8
0
100
AcDbLine
 62
7
  6
CONTINUOUS
 10
18.122185
 20
-15.2266956264
 11
17.418072
 21
-14.0901856264
  0
LINE
  5
2E3
100
AcDbEntity
  8
0
100
AcDbLine
 62
7
  6
CONTINUOUS
 10
19.390674
 20
-16.7750516264
 11
18.988906
 21
-16.1024196264
  0
LINE
  5
2E4
100
AcDbEntity
  8
0
100
AcDbLine
 62
7
  6
CONTINUOUS
 10
23.696695
 20
-34.2900016264
 11
23.115441
 21
-33.1686516264
  0
LINE
  5
2E5
100
AcDbEntity
  8
0
100
AcDbLine
 62
7
  6
CONTINUOUS
 10
23.7325957907
 20
-33.0988972933
 11
24.35
 21
-34.2899946264
  0
LINE
  5
2E6
100
AcDbEntity
  8
0
100
AcDbLine
 62
7
  6
CONTINUOUS
 10
17.105031
 20
-34.2900096264
 11
16.556656
 21
-32.3775676264
  0
LINE
  5
2E7
100
AcDbEntity
  8
0
100
AcDbLine
 62
7
  6
CONTINUOUS
 10
16.853471
 20
-31.3898786264
 11
17.395039
 21
-33.2785466264
  0
LINE
  5
2E8
100
AcDbEntity
  8
0
100
AcDbLine
 62
7
  6
CONTINUOUS
 10
9.45
 20
41.2900053736
 11
9.45
 21
40.7900053736
  0
LINE
  5
2E9
100
AcDbEntity
  8
RACCORDO
100
AcDbLine
 62
7
  6
CONTINUOUS
 10
10.1
 20
41.2900053736
 11
10.1
 21
41.7569215943
  0
LINE
  5
2EA
100
AcDbEntity
  8
0
100
AcDbLine
 62
7
  6
CONTINUOUS
 10
11.35
 20
39.4900053736
 11
11.35
 21
38.9900053736
  0
LINE
  5
2EB
100
AcDbEntity
  8
0
100
AcDbLine
 62
7
  6
CONTINUOUS
 10
11.85
 20
39.9167292154
 11
11.85
 21
39.4900053736
  0
LINE
  5
2EC
100
AcDbEntity
  8
RACCORDO
100
AcDbLine
 62
7
  6
CONTINUOUS
 10
11.85
 20
39.4900053736
 11
11.85
 21
39.9167292154
  0
LINE
  5
2ED
100
AcDbEntity
  8
RACCORDO
100
AcDbLine
 62
7
  6
CONTINUOUS
 10
8.3023651948
 20
-27.2899946264
 11
8.3041107013
 21
-27.1899946264
  0
LINE
  5
2EE
100
AcDbEntity
  8
0
100
AcDbLine
 62
7
  6
CONTINUOUS
 10
26.828395019
 20
30.364932749
 11
26.8778937063
 21
30.4711829912
  0
LINE
  5
2EF
100
AcDbEntity
  8
RACCORDO
100
AcDbLine
 62
7
  6
CONTINUOUS
 10
22.4
 20
9.4058946724
 11
22.5
 21
9.4076401789
  0
LINE
  5
2F0
100
AcDbEntity
  8
RACCORDO
100
AcDbLine
 62
7
  6
CONTINUOUS
 10
-22.5
 20
9.4076401789
 11
-22.4
 21
9.4058946724
  0
LINE
  5
2F1
100
AcDbEntity
  8
0
100
AcDbLine
 62
7
  6
CONTINUOUS
 10
17.561431
 20
-13.4764366264
 11
17.054353
 21
-12.0768186264
  0
LINE
  5
2F2
100
AcDbEntity
  8
0
100
AcDbLine
 62
7
  6
CONTINUOUS
 10
17.924132
 20
-17.5031706264
 11
17.417053
 21
-16.1024196264
  0
LINE
  5
2F3
100
AcDbEntity
  8
0
100
AcDbLine
 62
7
  6
CONTINUOUS
 10
17.578983
 20
-17.0955146264
 11
17.717473
 21
-17.5031706264
  0
LINE
  5
2F4
100
AcDbEntity
  8
0
100
AcDbLine
 62
7
  6
CONTINUOUS
 10
17.216283
 20
-13.0687806264
 11
17.354773
 21
-13.4764366264
  0
LINE
  5
2F5
100
AcDbEntity
  8
0
100
AcDbLine
 62
7
  6
CONTINUOUS
 10
15.476673
 20
-13.2660336264
 11
15.074957
 21
-12.0768186264
  0
LINE
  5
2F6
100
AcDbEntity
  8
0
100
AcDbLine
 62
7
  6
CONTINUOUS
 10
14.987198
 20
-12.3032936264
 11
15.381152
 21
-13.4764366264
  0
LINE
  5
2F7
100
AcDbEntity
  8
0
100
AcDbLine
 62
7
  6
CONTINUOUS
 10
17.302082
 20
-16.3064086264
 11
17.510701
 21
-16.9279226264
  0
LINE
  5
2F8
100
AcDbEntity
  8
0
100
AcDbLine
 62
7
  6
CONTINUOUS
 10
16.939381
 20
-12.2796726264
 11
17.148
 21
-12.9011896264
  0
LINE
  5
2F9
100
AcDbEntity
  8
ASSI
100
AcDbLine
 62
7
  6
CONTINUOUS
 10
4.2004555189
 20
17.7100053736
 11
4.240618
 21
17.5849093736
  0
LINE
  5
2FA
100
AcDbEntity
  8
0
100
AcDbLine
 62
7
  6
CONTINUOUS
 10
20.702373
 20
-33.1686516264
 11
20.421268
 21
-32.2931126264
  0
LINE
  5
2FB
100
AcDbEntity
  8
0
100
AcDbLine
 62
7
  6
CONTINUOUS
 10
21.062408
 20
-34.2900016264
 11
20.879302
 21
-33.7196736264
  0
LINE
  5
2FC
100
AcDbEntity
  8
0
100
AcDbLine
 62
7
  6
CONTINUOUS
 10
20.711297
 20
-31.3898716264
 11
21.642437
 21
-34.2900096264
  0
LINE
  5
2FD
100
AcDbEntity
  8
ASSI
100
AcDbLine
 62
7
  6
CONTINUOUS
 10
5.090661
 20
17.5848993736
 11
5.0504935509
 21
17.7100053736
  0
LINE
  5
2FE
100
AcDbEntity
  8
RACCORDO
100
AcDbLine
 62
7
  6
CONTINUOUS
 10
14.1958892987
 20
-27.1899946264
 11
14.1976348052
 21
-27.2899946264
  0
LINE
  5
2FF
100
AcDbEntity
  8
0
100
AcDbLine
 62
7
  6
CONTINUOUS
 10
14.0
 20
37.5126130257
 11
14.0
 21
36.7100137071
  0
LINE
  5
300
100
AcDbEntity
  8
RACCORDO
100
AcDbLine
 62
7
  6
CONTINUOUS
 10
14.0
 20
36.7100137071
 11
14.0
 21
37.5126130257
  0
LINE
  5
301
100
AcDbEntity
  8
0
100
AcDbLine
 62
7
  6
CONTINUOUS
 10
14.803866
 20
-12.0768186264
 11
14.803866
 21
-13.4764366264
  0
LINE
  5
302
100
AcDbEntity
  8
0
100
AcDbLine
 62
7
  6
CONTINUOUS
 10
14.816605
 20
-34.2900166264
 11
14.816612
 21
-31.3898786264
  0
LINE
  5
303
100
AcDbEntity
  8
0
100
AcDbLine
 62
7
  6
CONTINUOUS
 10
14.987198
 20
-13.4764366264
 11
14.987198
 21
-12.3032936264
  0
LINE
  5
304
100
AcDbEntity
  8
0
100
AcDbLine
 62
7
  6
CONTINUOUS
 10
15.092396
 20
-16.1024196264
 11
15.092396
 21
-17.5031706264
  0
LINE
  5
305
100
AcDbEntity
  8
0
100
AcDbLine
 62
7
  6
CONTINUOUS
 10
15.281616
 20
-17.5031706264
 11
15.281616
 21
-16.1024196264
  0
LINE
  5
306
100
AcDbEntity
  8
0
100
AcDbLine
 62
7
  6
CONTINUOUS
 10
15.396634
 20
-31.3898786264
 11
15.396627
 21
-34.2900096264
  0
LINE
  5
307
100
AcDbEntity
  8
0
100
AcDbLine
 62
7
  6
CONTINUOUS
 10
15.484538
 20
-16.1024196264
 11
15.484538
 21
-16.2700116264
  0
LINE
  5
308
100
AcDbEntity
  8
0
100
AcDbLine
 62
7
  6
CONTINUOUS
 10
15.958438
 20
-16.2700116264
 11
15.958438
 21
-17.5031706264
  0
LINE
  5
309
100
AcDbEntity
  8
0
100
AcDbLine
 62
7
  6
CONTINUOUS
 10
15.962288
 20
-12.3010296264
 11
15.962288
 21
-13.4764366264
  0
LINE
  5
30A
100
AcDbEntity
  8
0
100
AcDbLine
 62
7
  6
CONTINUOUS
 10
15.976634
 20
-34.2900096264
 11
15.976634
 21
-31.3898786264
  0
LINE
  5
30B
100
AcDbEntity
  8
0
100
AcDbLine
 62
7
  6
CONTINUOUS
 10
16.14562
 20
-13.4764366264
 11
16.14562
 21
-12.0768186264
  0
LINE
  5
30C
100
AcDbEntity
  8
0
100
AcDbLine
 62
7
  6
CONTINUOUS
 10
16.147545
 20
-17.5031706264
 11
16.147545
 21
-16.2700116264
  0
LINE
  5
30D
100
AcDbEntity
  8
0
100
AcDbLine
 62
7
  6
CONTINUOUS
 10
16.556656
 20
-32.3775676264
 11
16.556656
 21
-34.2900096264
  0
LINE
  5
30E
100
AcDbEntity
  8
0
100
AcDbLine
 62
7
  6
CONTINUOUS
 10
16.621445
 20
-16.2700116264
 11
16.621445
 21
-16.1024196264
  0
LINE
  5
30F
100
AcDbEntity
  8
ASSI
100
AcDbLine
 62
7
  6
CONTINUOUS
 10
16.632446
 20
-7.3380316436
 11
16.632446
 21
-6.5872146445
  0
LINE
  5
310
100
AcDbEntity
  8
ASSI
100
AcDbLine
 62
7
  6
CONTINUOUS
 10
16.632446
 20
-2.9927746264
 11
16.632446
 21
-2.2419576264
  0
LINE
  5
311
100
AcDbEntity
  8
0
100
AcDbLine
 62
7
  6
CONTINUOUS
 10
16.680895
 20
-14.0901856264
 11
16.680895
 21
-15.4898036264
  0
LINE
  5
312
100
AcDbEntity
  8
RACCORDO
100
AcDbLine
 62
7
  6
CONTINUOUS
 10
14.1976348052
 20
17.7100053736
 11
14.1958892987
 21
17.6100053736
  0
LINE
  5
313
100
AcDbEntity
  8
0
100
AcDbLine
 62
7
  6
CONTINUOUS
 10
29.171604981
 20
31.0550779983
 11
29.1221062937
 21
30.9488277561
  0
LINE
  5
314
100
AcDbEntity
  8
ASSI
100
AcDbLine
 62
7
  6
CONTINUOUS
 10
8.0363682311
 20
17.7100053736
 11
8.101212
 21
17.5849093736
  0
LINE
  5
315
100
AcDbEntity
  8
ASSI
100
AcDbLine
 62
7
  6
CONTINUOUS
 10
9.058641
 20
17.5849203736
 11
9.0456382295
 21
17.6100053736
  0
LINE
  5
316
100
AcDbEntity
  8
0
100
AcDbLine
 62
7
  6
CONTINUOUS
 10
16.870115
 20
-15.4898036264
 11
16.870115
 21
-14.0901856264
  0
LINE
  5
317
100
AcDbEntity
  8
0
100
AcDbLine
 62
7
  6
CONTINUOUS
 10
17.193749
 20
-14.0901856264
 11
17.193749
 21
-15.4898036264
  0
LINE
  5
318
100
AcDbEntity
  8
0
100
AcDbLine
 62
7
  6
CONTINUOUS
 10
17.377194
 20
-15.4898036264
 11
17.377194
 21
-14.3524406264
  0
LINE
  5
319
100
AcDbEntity
  8
0
100
AcDbLine
 62
7
  6
CONTINUOUS
 10
17.744763
 20
-12.0768186264
 11
17.744763
 21
-13.4764366264
  0
LINE
  5
31A
100
AcDbEntity
  8
0
100
AcDbLine
 62
7
  6
CONTINUOUS
 10
17.93387
 20
-13.3145066264
 11
17.93387
 21
-12.2387486264
  0
LINE
  5
31B
100
AcDbEntity
  8
0
100
AcDbLine
 62
7
  6
CONTINUOUS
 10
18.097725
 20
-16.1024196264
 11
18.097725
 21
-17.5031706264
  0
LINE
  5
31C
100
AcDbEntity
  8
0
100
AcDbLine
 62
7
  6
CONTINUOUS
 10
18.122185
 20
-14.0901856264
 11
18.122185
 21
-15.2266956264
  0
LINE
  5
31D
100
AcDbEntity
  8
0
100
AcDbLine
 62
7
  6
CONTINUOUS
 10
18.233421
 20
-34.2900096264
 11
18.233414
 21
-32.3775676264
  0
LINE
  5
31E
100
AcDbEntity
  8
0
100
AcDbLine
 62
7
  6
CONTINUOUS
 10
18.286832
 20
-17.3355786264
 11
18.286832
 21
-16.1024196264
  0
LINE
  5
31F
100
AcDbEntity
  8
0
100
AcDbLine
 62
7
  6
CONTINUOUS
 10
18.305403
 20
-15.4898036264
 11
18.305403
 21
-14.0901856264
  0
LINE
  5
320
100
AcDbEntity
  8
0
100
AcDbLine
 62
7
  6
CONTINUOUS
 10
18.813443
 20
-31.3898786264
 11
18.813443
 21
-34.2900096264
  0
LINE
  5
321
100
AcDbEntity
  8
0
100
AcDbLine
 62
7
  6
CONTINUOUS
 10
18.99672
 20
-17.5031706264
 11
18.99672
 21
-17.3355786264
  0
LINE
  5
322
100
AcDbEntity
  8
0
100
AcDbLine
 62
7
  6
CONTINUOUS
 10
19.1625
 20
-12.0768186264
 11
19.1625
 21
-13.4764366264
  0
LINE
  5
323
100
AcDbEntity
  8
0
100
AcDbLine
 62
7
  6
CONTINUOUS
 10
19.297139
 20
-16.9392466264
 11
19.297139
 21
-17.5031706264
  0
LINE
  5
324
100
AcDbEntity
  8
0
100
AcDbLine
 62
7
  6
CONTINUOUS
 10
19.35172
 20
-13.3088446264
 11
19.35172
 21
-12.8411736264
  0
LINE
  5
325
100
AcDbEntity
  8
0
100
AcDbLine
 62
7
  6
CONTINUOUS
 10
19.35172
 20
-12.6735816264
 11
19.35172
 21
-12.2444106264
  0
LINE
  5
326
100
AcDbEntity
  8
0
100
AcDbLine
 62
7
  6
CONTINUOUS
 10
19.486246
 20
-17.5031706264
 11
19.486246
 21
-16.9392466264
  0
LINE
  5
327
100
AcDbEntity
  8
0
100
AcDbLine
 62
7
  6
CONTINUOUS
 10
20.118113
 20
-12.8411736264
 11
20.118113
 21
-12.6735816264
  0
LINE
  5
328
100
AcDbEntity
  8
0
100
AcDbLine
 62
7
  6
CONTINUOUS
 10
20.182432
 20
-12.2444106264
 11
20.182432
 21
-12.0768186264
  0
LINE
  5
329
100
AcDbEntity
  8
0
100
AcDbLine
 62
7
  6
CONTINUOUS
 10
20.196134
 20
-13.4764366264
 11
20.196134
 21
-13.3088446264
  0
LINE
  5
32A
100
AcDbEntity
  8
ASSI
100
AcDbLine
 62
7
  6
CONTINUOUS
 10
20.617556
 20
-5.1649946264
 11
20.617556
 21
-4.4149946264
  0
LINE
  5
32B
100
AcDbEntity
  8
0
100
AcDbLine
 62
7
  6
CONTINUOUS
 10
15.568334
 20
-13.4764366264
 11
15.962288
 21
-12.3010296264
  0
LINE
  5
32C
100
AcDbEntity
  8
0
100
AcDbLine
 62
7
  6
CONTINUOUS
 10
15.876454
 20
-12.0768186264
 11
15.476673
 21
-13.2660336264
  0
LINE
  5
32D
100
AcDbEntity
  8
0
100
AcDbLine
 62
7
  6
CONTINUOUS
 10
16.508321
 20
-13.4764366264
 11
16.654624
 21
-13.0687806264
  0
LINE
  5
32E
100
AcDbEntity
  8
0
100
AcDbLine
 62
7
  6
CONTINUOUS
 10
16.713168
 20
-12.9011896264
 11
16.939381
 21
-12.2796726264
  0
LINE
  5
32F
100
AcDbEntity
  8
0
100
AcDbLine
 62
7
  6
CONTINUOUS
 10
16.839881
 20
-12.0768186264
 11
16.313325
 21
-13.4764366264
  0
LINE
  5
330
100
AcDbEntity
  8
RACCORDO
100
AcDbLine
 62
253
  6
CONTINUOUS
 10
-24.1007520549
 20
17.4100053736
 11
-22.5
 21
17.4100053736
  0
LINE
  5
331
100
AcDbEntity
  8
RACCORDO
100
AcDbLine
 62
253
  6
CONTINUOUS
 10
24.1007520549
 20
17.4100053736
 11
22.5
 21
17.4100053736
  0
LINE
  5
332
100
AcDbEntity
  8
ASSI
100
AcDbLine
 62
7
  6
CONTINUOUS
 10
8.101212
 20
17.5849093736
 11
9.058641
 21
17.5849203736
  0
LINE
  5
333
100
AcDbEntity
  8
ASSI
100
AcDbLine
 62
7
  6
CONTINUOUS
 10
1.511406
 20
17.5848993736
 11
2.361438
 21
17.5849093736
  0
LINE
  5
334
100
AcDbEntity
  8
ASSI
100
AcDbLine
 62
7
  6
CONTINUOUS
 10
-3.212671
 20
17.5848993736
 11
-2.362639
 21
17.5848993736
  0
LINE
  5
335
100
AcDbEntity
  8
ASSI
100
AcDbLine
 62
7
  6
CONTINUOUS
 10
0.09469
 20
17.5848993736
 11
0.944722
 21
17.5848993736
  0
LINE
  5
336
100
AcDbEntity
  8
ASSI
100
AcDbLine
 62
7
  6
CONTINUOUS
 10
5.657345
 20
17.5849093736
 11
6.507388
 21
17.5849093736
  0
LINE
  5
337
100
AcDbEntity
  8
ASSI
100
AcDbLine
 62
7
  6
CONTINUOUS
 10
-1.558985
 20
17.5848993736
 11
-0.708974
 21
17.5849093736
  0
LINE
  5
338
100
AcDbEntity
  8
ASSI
100
AcDbLine
 62
7
  6
CONTINUOUS
 10
-4.912713
 20
17.5848883736
 11
-4.062681
 21
17.5848993736
  0
LINE
  5
339
100
AcDbEntity
  8
ASSI
100
AcDbLine
 62
7
  6
CONTINUOUS
 10
4.240618
 20
17.5849093736
 11
5.090661
 21
17.5848993736
  0
LINE
  5
33A
100
AcDbEntity
  8
ASSI
100
AcDbLine
 62
7
  6
CONTINUOUS
 10
-7.694051
 20
17.5848883736
 11
-6.843988
 21
17.5848993736
  0
LINE
  5
33B
100
AcDbEntity
  8
RACCORDO
100
AcDbLine
 62
7
  6
CONTINUOUS
 10
14.1958892987
 20
17.6100053736
 11
8.3041107013
 21
17.6100053736
  0
LINE
  5
33C
100
AcDbEntity
  8
RACCORDO
100
AcDbLine
 62
7
  6
CONTINUOUS
 10
-8.3041107013
 20
17.6100053736
 11
-14.1958892987
 21
17.6100053736
  0
LINE
  5
33D
100
AcDbEntity
  8
0
100
AcDbLine
 62
7
  6
CONTINUOUS
 10
-22.2
 20
17.7100053736
 11
22.2
 21
17.7100053736
  0
LINE
  5
33E
100
AcDbEntity
  8
RACCORDO
100
AcDbLine
 62
253
  6
CONTINUOUS
 10
-22.2
 20
19.3103420147
 11
22.2
 21
19.3103420147
  0
LINE
  5
33F
100
AcDbEntity
  8
RACCORDO
100
AcDbLine
 62
253
  6
CONTINUOUS
 10
22.2000000008
 20
19.3103351239
 11
22.196589176
 21
21.0924266016
  0
LINE
  5
340
100
AcDbEntity
  8
ASSI
100
AcDbLine
 62
7
  6
CONTINUOUS
 10
21.017556
 20
-7.3380317607
 11
21.017556
 21
-6.5872110863
  0
LINE
  5
341
100
AcDbEntity
  8
ASSI
100
AcDbLine
 62
7
  6
CONTINUOUS
 10
21.017556
 20
-2.9927746264
 11
21.017556
 21
-2.241957949
  0
LINE
  5
342
100
AcDbEntity
  8
0
100
AcDbLine
 62
7
  6
CONTINUOUS
 10
22.029115
 20
-34.2900016264
 11
22.029115
 21
-31.3898716264
  0
LINE
  5
343
100
AcDbEntity
  8
RACCORDO
100
AcDbLine
 62
253
  6
CONTINUOUS
 10
22.2
 20
19.3103420147
 11
22.2
 21
17.7100053736
  0
LINE
  5
344
100
AcDbEntity
  8
RACCORDO
100
AcDbLine
 62
253
  6
CONTINUOUS
 10
22.2
 20
-28.8903312674
 11
22.2
 21
-27.2899946264
  0
LINE
  5
345
100
AcDbEntity
  8
RACCORDO
100
AcDbLine
 62
7
  6
CONTINUOUS
 10
22.4
 20
-18.9858839251
 11
22.4
 21
-13.0941053276
  0
LINE
  5
346
100
AcDbEntity
  8
RACCORDO
100
AcDbLine
 62
7
  6
CONTINUOUS
 10
22.4
 20
3.5141160749
 11
22.4
 21
9.4058946724
  0
LINE
  5
347
100
AcDbEntity
  8
0
100
AcDbLine
 62
7
  6
CONTINUOUS
 10
22.5
 20
17.4100053736
 11
22.5
 21
-26.9899946264
  0
LINE
  5
348
100
AcDbEntity
  8
0
100
AcDbLine
 62
7
  6
CONTINUOUS
 10
22.60114
 20
-31.9263926264
 11
22.601148
 21
-32.6321226264
  0
LINE
  5
349
100
AcDbEntity
  8
RACCORDO
100
AcDbLine
 62
253
  6
CONTINUOUS
 10
24.1000016985
 20
-4.7899935836
 11
24.1007520549
 21
-26.9899946264
  0
LINE
  5
34A
100
AcDbEntity
  8
RACCORDO
100
AcDbLine
 62
253
  6
CONTINUOUS
 10
24.1007520549
 20
17.4100053736
 11
24.1000016985
 21
-4.7899935836
  0
LINE
  5
34B
100
AcDbEntity
  8
0
100
AcDbLine
 62
7
  6
CONTINUOUS
 10
22.60921
 20
-33.1686446264
 11
22.609144
 21
-34.2900016264
  0
LINE
  5
34C
100
AcDbEntity
  8
RACCORDO
100
AcDbLine
 62
253
  6
CONTINUOUS
 10
22.2
 20
-28.8903312337
 11
22.196589143
 21
-30.6724156844
  0
LINE
  5
34D
100
AcDbEntity
  8
0
100
AcDbLine
 62
7
  6
CONTINUOUS
 10
13.20878
 20
-33.3867746264
 11
13.849905
 21
-31.3898786264
  0
LINE
  5
34E
100
AcDbEntity
  8
0
100
AcDbLine
 62
7
  6
CONTINUOUS
 10
14.429934
 20
-31.3898786264
 11
13.498794
 21
-34.2900096264
  0
LINE
  5
34F
100
AcDbEntity
  8
0
100
AcDbLine
 62
7
  6
CONTINUOUS
 10
16.871021
 20
-17.5031706264
 11
17.017324
 21
-17.0955146264
  0
LINE
  5
350
100
AcDbEntity
  8
0
100
AcDbLine
 62
7
  6
CONTINUOUS
 10
17.075755
 20
-16.9279226264
 11
17.302082
 21
-16.3064086264
  0
LINE
  5
351
100
AcDbEntity
  8
0
100
AcDbLine
 62
7
  6
CONTINUOUS
 10
17.202581
 20
-16.1024196264
 11
16.676026
 21
-17.5031706264
  0
LINE
  5
352
100
AcDbEntity
  8
0
100
AcDbLine
 62
7
  6
CONTINUOUS
 10
27.4
 20
27.877850052
 11
27.4
 21
30.256198007
  0
LINE
  5
353
100
AcDbEntity
  8
0
100
AcDbLine
 62
7
  6
CONTINUOUS
 10
27.4
 20
31.1638127403
 11
27.4
 21
33.5421606953
  0
LINE
  5
354
100
AcDbEntity
  8
RACCORDO
100
AcDbLine
 62
253
  6
CONTINUOUS
 10
28.00001
 20
-46.2900021601
 11
28.0000098933
 21
-46.0928472106
  0
LINE
  5
355
100
AcDbEntity
  8
RACCORDO
100
AcDbLine
 62
253
  6
CONTINUOUS
 10
28.00001
 20
36.7100129074
 11
28.0000098903
 21
36.5128579593
  0
LINE
  5
356
100
AcDbEntity
  8
0
100
AcDbLine
 62
7
  6
CONTINUOUS
 10
28.6
 20
33.5421606953
 11
28.6
 21
31.1638127403
  0
LINE
  5
357
100
AcDbEntity
  8
0
100
AcDbLine
 62
7
  6
CONTINUOUS
 10
28.6
 20
30.256198007
 11
28.6
 21
27.877850052
  0
LINE
  5
358
100
AcDbEntity
  8
0
100
AcDbLine
 62
7
  6
CONTINUOUS
 10
17.395039
 20
-33.2785466264
 11
17.936606
 21
-31.3898786264
  0
LINE
  5
359
100
AcDbEntity
  8
0
100
AcDbLine
 62
7
  6
CONTINUOUS
 10
18.233414
 20
-32.3775676264
 11
17.685039
 21
-34.2900016264
  0
LINE
  5
35A
100
AcDbEntity
  8
0
100
AcDbLine
 62
7
  6
CONTINUOUS
 10
19.200122
 20
-34.2900096264
 11
20.131247
 21
-31.3898716264
  0
LINE
  5
35B
100
AcDbEntity
  8
0
100
AcDbLine
 62
7
  6
CONTINUOUS
 10
19.792441
 20
-16.1024196264
 11
19.390674
 21
-16.7750516264
  0
LINE
  5
35C
100
AcDbEntity
  8
0
100
AcDbLine
 62
7
  6
CONTINUOUS
 10
19.486246
 20
-16.9392466264
 11
20.014727
 21
-16.1024196264
  0
LINE
  5
35D
100
AcDbEntity
  8
0
100
AcDbLine
 62
7
  6
CONTINUOUS
 10
20.421268
 20
-32.2931126264
 11
20.140179
 21
-33.1686516264
  0
LINE
  5
35E
100
AcDbEntity
  8
0
100
AcDbLine
 62
7
  6
CONTINUOUS
 10
19.963257
 20
-33.7196736264
 11
19.780144
 21
-34.2900016264
  0
LINE
  5
35F
100
AcDbEntity
  8
RACCORDO
100
AcDbLine
 62
253
  6
CONTINUOUS
 10
34.0000081406
 20
30.7100053736
 11
33.7995295412
 21
30.7100053424
  0
LINE
  5
360
100
AcDbEntity
  8
RACCORDO
100
AcDbLine
 62
253
  6
CONTINUOUS
 10
-33.7995295412
 20
30.7100053424
 11
-34.0000081406
 21
30.7100053736
  0
LINE
  5
361
100
AcDbEntity
  8
DRAFT
100
AcDbLine
 62
7
  6
CONTINUOUS
 10
34.0
 20
30.7100053736
 11
34.0
 21
-40.2899946264
  0
LINE
  5
362
100
AcDbEntity
  8
SUPERFICI
100
AcDbLine
 62
7
  6
CONTINUOUS
 10
33.99999988
 20
-40.2900607944
 11
34.0000081406
 21
30.7100011857
  0
LINE
  5
363
100
AcDbEntity
  8
DRAFT
100
AcDbLine
 62
7
  6
CONTINUOUS
 10
-28.0
 20
36.7100053736
 11
28.0
 21
36.7100053736
  0
LINE
  5
364
100
AcDbEntity
  8
SUPERFICI
100
AcDbLine
 62
7
  6
CONTINUOUS
 10
28.0000124643
 20
36.7100129074
 11
-27.9999799857
 21
36.7100161063
  0
LINE
  5
365
100
AcDbEntity
  8
0
100
AcDbLine
 62
7
  6
CONTINUOUS
 10
-11.35
 20
38.9900053736
 11
-13.2588190451
 21
38.478538852
  0
LINE
  5
366
100
AcDbEntity
  8
RACCORDO
100
AcDbLine
 62
7
  6
CONTINUOUS
 10
-13.2588190451
 20
38.478538852
 11
-11.35
 21
38.9900053736
  0
LINE
  5
367
100
AcDbEntity
  8
RACCORDO
100
AcDbLine
 62
253
  6
CONTINUOUS
 10
-14.0
 20
37.5126130257
 11
14.0
 21
37.5126130257
  0
LINE
  5
368
100
AcDbEntity
  8
RACCORDO
100
AcDbLine
 62
253
  6
CONTINUOUS
 10
-13.2588190451
 20
38.478538852
 11
13.2588190451
 21
38.478538852
  0
LINE
  5
369
100
AcDbEntity
  8
0
100
AcDbLine
 62
7
  6
CONTINUOUS
 10
11.35
 20
38.9900053736
 11
-11.35
 21
38.9900053736
  0
LINE
  5
36A
100
AcDbEntity
  8
0
100
AcDbLine
 62
7
  6
CONTINUOUS
 10
11.85
 20
39.4900053736
 11
-11.85
 21
39.4900053736
  0
LINE
  5
36B
100
AcDbEntity
  8
RACCORDO
100
AcDbLine
 62
253
  6
CONTINUOUS
 10
-11.85
 20
39.9167292154
 11
11.85
 21
39.9167292154
  0
LINE
  5
36C
100
AcDbEntity
  8
RACCORDO
100
AcDbLine
 62
253
  6
CONTINUOUS
 10
-11.6276457135
 20
40.2065069633
 11
11.6276457135
 21
40.2065069633
  0
LINE
  5
36D
100
AcDbEntity
  8
0
100
AcDbLine
 62
7
  6
CONTINUOUS
 10
9.45
 20
40.7900053736
 11
-9.45
 21
40.7900053736
  0
LINE
  5
36E
100
AcDbEntity
  8
0
100
AcDbLine
 62
7
  6
CONTINUOUS
 10
10.1
 20
41.2900053736
 11
-10.1
 21
41.2900053736
  0
LINE
  5
36F
100
AcDbEntity
  8
0
100
AcDbLine
 62
7
  6
CONTINUOUS
 10
11.35
 20
38.9900053736
 11
13.2588190451
 21
38.478538852
  0
LINE
  5
370
100
AcDbEntity
  8
RACCORDO
100
AcDbLine
 62
7
  6
CONTINUOUS
 10
13.2588190451
 20
38.478538852
 11
11.35
 21
38.9900053736
  0
LINE
  5
371
100
AcDbEntity
  8
0
100
AcDbLine
 62
7
  6
CONTINUOUS
 10
26.877893713
 20
30.9488277462
 11
26.8283951111
 21
31.0550780475
  0
LINE
  5
372
100
AcDbEntity
  8
0
100
AcDbLine
 62
7
  6
CONTINUOUS
 10
29.122106287
 20
30.4711830011
 11
29.1716048889
 21
30.3649326998
  0
LINE
  5
373
100
AcDbEntity
  8
0
100
AcDbLine
 62
7
  6
CONTINUOUS
 10
-9.45
 20
40.7900053736
 11
-11.6276457135
 21
40.2065069633
  0
LINE
  5
374
100
AcDbEntity
  8
RACCORDO
100
AcDbLine
 62
7
  6
CONTINUOUS
 10
-11.6276457135
 20
40.2065069633
 11
-9.45
 21
40.7900053736
  0
LINE
  5
375
100
AcDbEntity
  8
0
100
AcDbLine
 62
7
  6
CONTINUOUS
 10
-7.85
 20
42.5900053736
 11
-9.8776457135
 21
42.0466993422
  0
LINE
  5
376
100
AcDbEntity
  8
RACCORDO
100
AcDbLine
 62
7
  6
CONTINUOUS
 10
-9.8776457135
 20
42.0466993422
 11
-7.85
 21
42.5900053736
  0
LINE
  5
377
100
AcDbEntity
  8
0
100
AcDbLine
 62
7
  6
CONTINUOUS
 10
-6.0
 20
44.3900053736
 11
-8.1276457135
 21
43.8199044229
  0
LINE
  5
378
100
AcDbEntity
  8
RACCORDO
100
AcDbLine
 62
7
  6
CONTINUOUS
 10
-8.1276457135
 20
43.8199044229
 11
-6.0
 21
44.3900053736
  0
LINE
  5
379
100
AcDbEntity
  8
0
100
AcDbLine
 62
7
  6
CONTINUOUS
 10
-1.0
 20
46.2900053736
 11
-3.8776457135
 21
45.5189425286
  0
LINE
  5
37A
100
AcDbEntity
  8
RACCORDO
100
AcDbLine
 62
7
  6
CONTINUOUS
 10
-3.8776457135
 20
45.5189425286
 11
-1.0
 21
46.2900053736
  0
LINE
  5
37B
100
AcDbEntity
  8
RACCORDO
100
AcDbLine
 62
253
  6
CONTINUOUS
 10
-10.1
 20
41.7569215943
 11
10.1
 21
41.7569215943
  0
LINE
  5
37C
100
AcDbEntity
  8
RACCORDO
100
AcDbLine
 62
253
  6
CONTINUOUS
 10
-9.8776457135
 20
42.0466993422
 11
9.8776457135
 21
42.0466993422
  0
LINE
  5
37D
100
AcDbEntity
  8
0
100
AcDbLine
 62
7
  6
CONTINUOUS
 10
7.85
 20
42.5900053736
 11
-7.85
 21
42.5900053736
  0
LINE
  5
37E
100
AcDbEntity
  8
0
100
AcDbLine
 62
7
  6
CONTINUOUS
 10
8.35
 20
43.0900053736
 11
-8.35
 21
43.0900053736
  0
LINE
  5
37F
100
AcDbEntity
  8
RACCORDO
100
AcDbLine
 62
253
  6
CONTINUOUS
 10
-8.35
 20
43.530126675
 11
8.35
 21
43.530126675
  0
LINE
  5
380
100
AcDbEntity
  8
RACCORDO
100
AcDbLine
 62
253
  6
CONTINUOUS
 10
-8.1276457135
 20
43.8199044229
 11
8.1276457135
 21
43.8199044229
  0
LINE
  5
381
100
AcDbEntity
  8
0
100
AcDbLine
 62
7
  6
CONTINUOUS
 10
6.0
 20
44.3900053736
 11
-6.0
 21
44.3900053736
  0
LINE
  5
382
100
AcDbEntity
  8
0
100
AcDbLine
 62
7
  6
CONTINUOUS
 10
4.1
 20
44.8900053736
 11
-4.1
 21
44.8900053736
  0
LINE
  5
383
100
AcDbEntity
  8
RACCORDO
100
AcDbLine
 62
253
  6
CONTINUOUS
 10
-4.1
 20
45.2291647807
 11
4.1
 21
45.2291647807
  0
LINE
  5
384
100
AcDbEntity
  8
0
100
AcDbLine
 62
7
  6
CONTINUOUS
 10
9.45
 20
40.7900053736
 11
11.6276457135
 21
40.2065069633
  0
LINE
  5
385
100
AcDbEntity
  8
RACCORDO
100
AcDbLine
 62
7
  6
CONTINUOUS
 10
11.6276457135
 20
40.2065069633
 11
9.45
 21
40.7900053736
  0
LINE
  5
386
100
AcDbEntity
  8
0
100
AcDbLine
 62
7
  6
CONTINUOUS
 10
7.85
 20
42.5900053736
 11
9.8776457135
 21
42.0466993422
  0
LINE
  5
387
100
AcDbEntity
  8
RACCORDO
100
AcDbLine
 62
7
  6
CONTINUOUS
 10
9.8776457135
 20
42.0466993422
 11
7.85
 21
42.5900053736
  0
LINE
  5
388
100
AcDbEntity
  8
0
100
AcDbLine
 62
7
  6
CONTINUOUS
 10
6.0
 20
44.3900053736
 11
8.1276457135
 21
43.8199044229
  0
LINE
  5
389
100
AcDbEntity
  8
RACCORDO
100
AcDbLine
 62
7
  6
CONTINUOUS
 10
8.1276457135
 20
43.8199044229
 11
6.0
 21
44.3900053736
  0
LINE
  5
38A
100
AcDbEntity
  8
0
100
AcDbLine
 62
7
  6
CONTINUOUS
 10
1.0
 20
46.2900053736
 11
3.8776457135
 21
45.5189425286
  0
LINE
  5
38B
100
AcDbEntity
  8
RACCORDO
100
AcDbLine
 62
7
  6
CONTINUOUS
 10
3.8776457135
 20
45.5189425286
 11
1.0
 21
46.2900053736
  0
LINE
  5
38C
100
AcDbEntity
  8
RACCORDO
100
AcDbLine
 62
253
  6
CONTINUOUS
 10
-3.8776457135
 20
45.5189425286
 11
3.8776457135
 21
45.5189425286
  0
LINE
  5
38D
100
AcDbEntity
  8
0
100
AcDbLine
 62
7
  6
CONTINUOUS
 10
1.0
 20
46.2900053736
 11
-1.0
 21
46.2900053736
  0
LINE
  5
38E
100
AcDbEntity
  8
RACCORDO
100
AcDbLine
 62
7
  6
CONTINUOUS
 10
-97.8099600277
 20
-46.0121890519
 11
-97.6352045954
 21
-46.0536692201
  0
LINE
  5
38F
100
AcDbEntity
  8
RACCORDO
100
AcDbLine
 62
7
  6
CONTINUOUS
 10
-49.8418262614
 20
-45.6630226993
 11
-85.7610239085
 21
-46.2899946264
  0
LINE
  5
390
100
AcDbEntity
  8
DRAFT
100
AcDbLine
 62
7
  6
CONTINUOUS
 10
-49.8418262614
 20
-45.6630226993
 11
-85.7610239085
 21
-46.2899946264
  0
LINE
  5
391
100
AcDbEntity
  8
RACCORDO
100
AcDbLine
 62
7
  6
CONTINUOUS
 10
-85.7610239085
 20
-46.2900053736
 11
-97.2960586781
 21
-46.0886536938
  0
LINE
  5
392
100
AcDbEntity
  8
RACCORDO
100
AcDbLine
 62
7
  6
CONTINUOUS
 10
-97.4680283754
 20
-46.0782306935
 11
-97.2960639212
 21
-46.0886536524
  0
LINE
  5
393
100
AcDbEntity
  8
RACCORDO
100
AcDbLine
 62
7
  6
CONTINUOUS
 10
-97.640408452
 20
-46.0526714143
 11
-97.4651369705
 21
-46.078529189
  0
LWPOLYLINE
  5
394
100
AcDbEntity
  8
RACCORDO
100
AcDbPolyline
 62
7
  6
CONTINUOUS
 90
8
 70
0
 10
-98.9133176518
 20
-45.2160647743
 10
-98.8079244226
 20
-45.3568360895
 10
-98.6908704731
 20
-45.4875013391
 10
-98.5631453454
 20
-45.6071247172
 10
-98.4257981707
 20
-45.7148775841
 10
-98.2799266266
 20
-45.8100366414
 10
-98.1266611409
 20
-45.8919847582
 10
-97.9672389722
 20
-45.9601743962
  0
LWPOLYLINE
  5
395
100
AcDbEntity
  8
RACCORDO
100
AcDbPolyline
 62
7
  6
CONTINUOUS
 90
9
 70
0
 10
-98.9180464138
 20
-45.2091018542
 10
-98.8139792472
 20
-45.3494133413
 10
-98.698096955
 20
-45.4800755166
 10
-98.571292658
 20
-45.6000995169
 10
-98.4345405464
 20
-45.7085798372
 10
-98.2888881569
 20
-45.8047004628
 10
-98.1354475179
 20
-45.8877407218
 10
-97.9753946518
 20
-45.9570766801
 10
-97.8029876255
 20
-46.0141649394
  0
LWPOLYLINE
  5
396
100
AcDbEntity
  8
RACCORDO
100
AcDbPolyline
 62
7
  6
CONTINUOUS
 90
8
 70
0
 10
-97.9754451531
 20
36.3770680679
 10
-98.1355120804
 20
36.3077200384
 10
-98.2889610593
 20
36.2246674922
 10
-98.434616527
 20
36.1285354902
 10
-98.5713668153
 20
36.0200459248
 10
-98.6981650363
 20
35.9000158962
 10
-98.814037852
 20
35.7693518495
 10
-98.9180931857
 20
35.6290433811
  0
LINE
  5
397
100
AcDbEntity
  8
RACCORDO
100
AcDbLine
 62
7
  6
CONTINUOUS
 10
-99.0094947503
 20
-45.0602046435
 11
-98.9133176518
 21
-45.2160647743
  0
LWPOLYLINE
  5
398
100
AcDbEntity
  8
RACCORDO
100
AcDbPolyline
 62
7
  6
CONTINUOUS
 90
9
 70
0
 10
-97.9674006849
 20
36.3801241535
 10
-98.1268283803
 20
36.3119152536
 10
-98.2800922465
 20
36.2299493777
 10
-98.4259555691
 20
36.134775611
 10
-98.5632888472
 20
36.0270124186
 10
-98.690995534
 20
35.907384259
 10
-98.8080277632
 20
35.7767207849
 10
-98.9133974205
 20
35.6359586124
 10
-99.0095284885
 20
35.4801546278
  0
LINE
  5
399
100
AcDbEntity
  8
RACCORDO
100
AcDbLine
 62
7
  6
CONTINUOUS
 10
-97.8031364726
 20
36.4341338281
 11
-97.9754451531
 21
36.3770680679
  0
LINE
  5
39A
100
AcDbEntity
  8
ASSI
100
AcDbLine
 62
7
  6
CONTINUOUS
 10
-48.2610239085
 20
-40.7899946264
 11
-48.7610239085
 21
-40.7899946264
  0
LINE
  5
39B
100
AcDbEntity
  8
RACCORDO
100
AcDbLine
 62
253
  6
CONTINUOUS
 10
-48.7610269679
 20
-40.2899946264
 11
-97.2463278299
 21
-40.2899945981
  0
LINE
  5
39C
100
AcDbEntity
  8
RACCORDO
100
AcDbLine
 62
7
  6
CONTINUOUS
 10
-102.0646023966
 20
-28.8852328987
 11
-102.0544752186
 21
-28.8987618787
  0
LINE
  5
39D
100
AcDbEntity
  8
RACCORDO
100
AcDbLine
 62
7
  6
CONTINUOUS
 10
-102.055955799
 20
-28.896773867
 11
-102.0456378456
 21
-28.9106998683
  0
LINE
  5
39E
100
AcDbEntity
  8
RACCORDO
100
AcDbLine
 62
7
  6
CONTINUOUS
 10
-99.0876160284
 20
-44.9038521402
 11
-99.0061443986
 21
-45.0662111067
  0
LINE
  5
39F
100
AcDbEntity
  8
RACCORDO
100
AcDbLine
 62
7
  6
CONTINUOUS
 10
-99.0062003474
 20
35.48612197
 11
-99.0876367641
 21
35.3238163884
  0
LINE
  5
3A0
100
AcDbEntity
  8
RACCORDO
100
AcDbLine
 62
7
  6
CONTINUOUS
 10
-102.0462838479
 20
-28.9098230151
 11
-102.0359573894
 21
-28.9239201211
  0
LINE
  5
3A1
100
AcDbEntity
  8
RACCORDO
100
AcDbLine
 62
7
  6
CONTINUOUS
 10
-102.0379187819
 20
-28.9212292534
 11
-102.0293000849
 21
-28.9331004616
  0
LINE
  5
3A2
100
AcDbEntity
  8
RACCORDO
100
AcDbLine
 62
7
  6
CONTINUOUS
 10
-102.0293000849
 20
-28.9331004616
 11
-102.01929853
 21
-28.9470311876
  0
LINE
  5
3A3
100
AcDbEntity
  8
RACCORDO
100
AcDbLine
 62
7
  6
CONTINUOUS
 10
-102.01929853
 20
-28.9470311876
 11
-102.0086445404
 21
-28.9620579022
  0
LINE
  5
3A4
100
AcDbEntity
  8
RACCORDO
100
AcDbLine
 62
7
  6
CONTINUOUS
 10
-102.00950315
 20
-28.9608396217
 11
-101.9996741035
 21
-28.9748635141
  0
LINE
  5
3A5
100
AcDbEntity
  8
RACCORDO
100
AcDbLine
 62
7
  6
CONTINUOUS
 10
-102.0016029048
 20
-28.9720980719
 11
-101.9909538461
 21
-28.9874496358
  0
LINE
  5
3A6
100
AcDbEntity
  8
RACCORDO
100
AcDbLine
 62
7
  6
CONTINUOUS
 10
-101.9931449714
 20
-28.9842742089
 11
-101.9838139078
 21
-28.9978580331
  0
LINE
  5
3A7
100
AcDbEntity
  8
RACCORDO
100
AcDbLine
 62
7
  6
CONTINUOUS
 10
-101.9838139078
 20
-28.9978580331
 11
-101.9733956681
 21
-29.0132159311
  0
LINE
  5
3A8
100
AcDbEntity
  8
RACCORDO
100
AcDbLine
 62
7
  6
CONTINUOUS
 10
-101.9733956681
 20
-29.0132159311
 11
-101.9633600526
 21
-29.0282057866
  0
LINE
  5
3A9
100
AcDbEntity
  8
RACCORDO
100
AcDbLine
 62
7
  6
CONTINUOUS
 10
-101.9658467392
 20
-29.0244732961
 11
-101.955002243
 21
-29.040840176
  0
LINE
  5
3AA
100
AcDbEntity
  8
RACCORDO
100
AcDbLine
 62
7
  6
CONTINUOUS
 10
-101.9565862542
 20
-29.0384349738
 11
-101.9462790979
 21
-29.0541764774
  0
LINE
  5
3AB
100
AcDbEntity
  8
RACCORDO
100
AcDbLine
 62
7
  6
CONTINUOUS
 10
-101.9477528168
 20
-29.0519125103
 11
-101.9392973866
 21
-29.0649630131
  0
LINE
  5
3AC
100
AcDbEntity
  8
RACCORDO
100
AcDbLine
 62
7
  6
CONTINUOUS
 10
-101.9404910143
 20
-29.063111701
 11
-101.9322187308
 21
-29.0760037715
  0
LINE
  5
3AD
100
AcDbEntity
  8
RACCORDO
100
AcDbLine
 62
7
  6
CONTINUOUS
 10
-101.9332202721
 20
-29.0744351747
 11
-101.9250554313
 21
-29.0872858232
  0
LINE
  5
3AE
100
AcDbEntity
  8
RACCORDO
100
AcDbLine
 62
7
  6
CONTINUOUS
 10
-101.9259439867
 20
-29.0858803166
 11
-101.917815657
 21
-29.0988023848
  0
LINE
  5
3AF
100
AcDbEntity
  8
RACCORDO
100
AcDbLine
 62
7
  6
CONTINUOUS
 10
-101.9186648464
 20
-29.0974455333
 11
-101.9105119973
 21
-29.1105393033
  0
LINE
  5
3B0
100
AcDbEntity
  8
RACCORDO
100
AcDbLine
 62
7
  6
CONTINUOUS
 10
-101.9113861769
 20
-29.1091281346
 11
-101.9031564655
 21
-29.1224828138
  0
LINE
  5
3B1
100
AcDbEntity
  8
RACCORDO
100
AcDbLine
 62
7
  6
CONTINUOUS
 10
-101.9041112597
 20
-29.1209253878
 11
-101.8957577771
 21
-29.1346240337
  0
LINE
  5
3B2
100
AcDbEntity
  8
RACCORDO
100
AcDbLine
 62
7
  6
CONTINUOUS
 10
-101.8968426788
 20
-29.1328355901
 11
-101.88832774
 21
-29.1469485587
  0
LINE
  5
3B3
100
AcDbEntity
  8
RACCORDO
100
AcDbLine
 62
7
  6
CONTINUOUS
 10
-101.8895836374
 20
-29.1448559322
 11
-101.8808772097
 21
-29.1594429691
  0
LINE
  5
3B4
100
AcDbEntity
  8
RACCORDO
100
AcDbLine
 62
7
  6
CONTINUOUS
 10
-101.8823372902
 20
-29.1569835619
 11
-101.8734119735
 21
-29.1721018943
  0
LINE
  5
3B5
100
AcDbEntity
  8
RACCORDO
100
AcDbLine
 62
7
  6
CONTINUOUS
 10
-101.8751061061
 20
-29.1692166653
 11
-101.8659368027
 21
-29.1849214754
  0
LINE
  5
3B6
100
AcDbEntity
  8
RACCORDO
100
AcDbLine
 62
7
  6
CONTINUOUS
 10
-101.8678931544
 20
-29.1815523132
 11
-101.8584542485
 21
-29.1979015526
  0
LINE
  5
3B7
100
AcDbEntity
  8
RACCORDO
100
AcDbLine
 62
7
  6
CONTINUOUS
 10
-101.8607014539
 20
-29.1939875301
 11
-101.8509669721
 21
-29.2110417666
  0
LINE
  5
3B8
100
AcDbEntity
  8
RACCORDO
100
AcDbLine
 62
7
  6
CONTINUOUS
 10
-101.8535333432
 20
-29.2065203997
 11
-101.8434779465
 21
-29.2243411868
  0
LINE
  5
3B9
100
AcDbEntity
  8
RACCORDO
100
AcDbLine
 62
7
  6
CONTINUOUS
 10
-101.8463918744
 20
-29.2191476466
 11
-101.8397337241
 21
-29.2310502657
  0
LINE
  5
3BA
100
AcDbEntity
  8
RACCORDO
100
AcDbLine
 62
7
  6
CONTINUOUS
 10
-101.8397337241
 20
-29.2310502657
 11
-101.832247442
 21
-29.2445870316
  0
LINE
  5
3BB
100
AcDbEntity
  8
RACCORDO
100
AcDbLine
 62
7
  6
CONTINUOUS
 10
-101.8321968806
 20
-29.2446790201
 11
-101.8251460694
 21
-29.2575822161
  0
LINE
  5
3BC
100
AcDbEntity
  8
RACCORDO
100
AcDbLine
 62
7
  6
CONTINUOUS
 10
-101.8251460694
 20
-29.2575822161
 11
-101.8172940293
 21
-29.2721311774
  0
LINE
  5
3BD
100
AcDbEntity
  8
RACCORDO
100
AcDbLine
 62
7
  6
CONTINUOUS
 10
-101.8181280027
 20
-29.2705767751
 11
-101.8098324916
 21
-29.2861370236
  0
LINE
  5
3BE
100
AcDbEntity
  8
RACCORDO
100
AcDbLine
 62
7
  6
CONTINUOUS
 10
-101.8111438369
 20
-29.2836625604
 11
-101.8023849812
 21
-29.3002972761
  0
LINE
  5
3BF
100
AcDbEntity
  8
RACCORDO
100
AcDbLine
 62
7
  6
CONTINUOUS
 10
-101.8041948018
 20
-29.2968392873
 11
-101.7949541289
 21
-29.3146113758
  0
LINE
  5
3C0
100
AcDbEntity
  8
RACCORDO
100
AcDbLine
 62
7
  6
CONTINUOUS
 10
-101.7972821254
 20
-29.3101066593
 11
-101.7904069629
 21
-29.323464507
  0
LINE
  5
3C1
100
AcDbEntity
  8
RACCORDO
100
AcDbLine
 62
7
  6
CONTINUOUS
 10
-101.7912459156
 20
-29.3218256552
 11
-101.7838454781
 21
-29.3363684328
  0
LINE
  5
3C2
100
AcDbEntity
  8
RACCORDO
100
AcDbLine
 62
7
  6
CONTINUOUS
 10
-101.7838454781
 20
-29.3363684328
 11
-101.7767740816
 21
-29.3504503432
  0
LINE
  5
3C3
100
AcDbEntity
  8
RACCORDO
100
AcDbLine
 62
7
  6
CONTINUOUS
 10
-101.7767740816
 20
-29.3504503432
 11
-101.7691188326
 21
-29.365906358
  0
LINE
  5
3C4
100
AcDbEntity
  8
RACCORDO
100
AcDbLine
 62
7
  6
CONTINUOUS
 10
-101.7700187393
 20
-29.3640777986
 11
-101.7617980997
 21
-29.3808995871
  0
LINE
  5
3C5
100
AcDbEntity
  8
RACCORDO
100
AcDbLine
 62
7
  6
CONTINUOUS
 10
-101.7633057342
 20
-29.3777945249
 11
-101.7545094831
 21
-29.3960408076
  0
LINE
  5
3C6
100
AcDbEntity
  8
RACCORDO
100
AcDbLine
 62
7
  6
CONTINUOUS
 10
-101.7566362848
 20
-29.3916001569
 11
-101.7500115394
 21
-29.4054944585
  0
LINE
  5
3C7
100
AcDbEntity
  8
RACCORDO
100
AcDbLine
 62
7
  6
CONTINUOUS
 10
-101.750878124
 20
-29.4036664671
 11
-101.7436429188
 21
-29.4190273641
  0
LINE
  5
3C8
100
AcDbEntity
  8
RACCORDO
100
AcDbLine
 62
7
  6
CONTINUOUS
 10
-101.7436429188
 20
-29.4190273641
 11
-101.7364470336
 21
-29.4345325907
  0
LINE
  5
3C9
100
AcDbEntity
  8
RACCORDO
100
AcDbLine
 62
7
  6
CONTINUOUS
 10
-101.7369010154
 20
-29.4335475056
 11
-101.7292908597
 21
-29.4501860156
  0
LINE
  5
3CA
100
AcDbEntity
  8
RACCORDO
100
AcDbLine
 62
7
  6
CONTINUOUS
 10
-101.7304175911
 20
-29.4477055806
 11
-101.7221716528
 21
-29.4659987722
  0
LINE
  5
3CB
100
AcDbEntity
  8
RACCORDO
100
AcDbLine
 62
7
  6
CONTINUOUS
 10
-101.7239836461
 20
-29.4619508429
 11
-101.717600383
 21
-29.4762828569
  0
LINE
  5
3CC
100
AcDbEntity
  8
RACCORDO
100
AcDbLine
 62
7
  6
CONTINUOUS
 10
-101.7186230853
 20
-29.4739730143
 11
-101.7115465899
 21
-29.4900646934
  0
LINE
  5
3CD
100
AcDbEntity
  8
RACCORDO
100
AcDbLine
 62
7
  6
CONTINUOUS
 10
-101.7115465899
 20
-29.4900646934
 11
-101.7044905869
 21
-29.5063697599
  0
LINE
  5
3CE
100
AcDbEntity
  8
RACCORDO
100
AcDbLine
 62
7
  6
CONTINUOUS
 10
-101.7049905087
 20
-29.5052057656
 11
-101.6974522055
 21
-29.5229035877
  0
LINE
  5
3CF
100
AcDbEntity
  8
RACCORDO
100
AcDbLine
 62
7
  6
CONTINUOUS
 10
-101.6987662869
 20
-29.5197957298
 11
-101.6904259318
 21
-29.5396890054
  0
LINE
  5
3D0
100
AcDbEntity
  8
RACCORDO
100
AcDbLine
 62
7
  6
CONTINUOUS
 10
-101.6925974011
 20
-29.5344708701
 11
-101.686485037
 21
-29.5492306914
  0
LINE
  5
3D1
100
AcDbEntity
  8
RACCORDO
100
AcDbLine
 62
7
  6
CONTINUOUS
 10
-101.6869155848
 20
-29.5481837068
 11
-101.6799002971
 21
-29.5653851436
  0
LINE
  5
3D2
100
AcDbEntity
  8
RACCORDO
100
AcDbLine
 62
7
  6
CONTINUOUS
 10
-101.6804303759
 20
-29.5640746863
 11
-101.6728873758
 21
-29.5828923827
  0
LINE
  5
3D3
100
AcDbEntity
  8
RACCORDO
100
AcDbLine
 62
7
  6
CONTINUOUS
 10
-101.6744345361
 20
-29.5790024797
 11
-101.6684986909
 21
-29.5940135404
  0
LINE
  5
3D4
100
AcDbEntity
  8
RACCORDO
100
AcDbLine
 62
7
  6
CONTINUOUS
 10
-99.1560725872
 20
-44.7287234116
 11
-99.0855884487
 21
-44.9083813735
  0
LINE
  5
3D5
100
AcDbEntity
  8
RACCORDO
100
AcDbLine
 62
7
  6
CONTINUOUS
 10
-101.6693823426
 20
-29.5917638524
 11
-101.662370019
 21
-29.609765376
  0
LINE
  5
3D6
100
AcDbEntity
  8
RACCORDO
100
AcDbLine
 62
7
  6
CONTINUOUS
 10
-101.6626240084
 20
-29.6091073246
 11
-101.6553567688
 21
-29.6281208741
  0
LINE
  5
3D7
100
AcDbEntity
  8
RACCORDO
100
AcDbLine
 62
7
  6
CONTINUOUS
 10
-101.6568115958
 20
-29.6242834221
 11
-101.6510626123
 21
-29.6395412654
  0
LINE
  5
3D8
100
AcDbEntity
  8
SUPERFICI
100
AcDbLine
 62
7
  6
CONTINUOUS
 10
-99.2190166593
 20
-44.5408010163
 11
-99.1560717586
 21
-44.728725212
  0
LINE
  5
3D9
100
AcDbEntity
  8
SUPERFICI
100
AcDbLine
 62
7
  6
CONTINUOUS
 10
-99.2874652428
 20
-44.3330462181
 11
-99.2151378851
 21
-44.5524677069
  0
LINE
  5
3DA
100
AcDbEntity
  8
RACCORDO
100
AcDbLine
 62
7
  6
CONTINUOUS
 10
-99.5097029406
 20
-43.6333040685
 11
-99.1560132026
 21
-44.7284931788
  0
LINE
  5
3DB
100
AcDbEntity
  8
SUPERFICI
100
AcDbLine
 62
7
  6
CONTINUOUS
 10
-99.3477225237
 20
-44.1472108926
 11
-99.2742266336
 21
-44.3735045431
  0
LINE
  5
3DC
100
AcDbEntity
  8
SUPERFICI
100
AcDbLine
 62
7
  6
CONTINUOUS
 10
-99.4173098514
 20
-43.9290851679
 11
-99.3417349841
 21
-44.1658010214
  0
LINE
  5
3DD
100
AcDbEntity
  8
SUPERFICI
100
AcDbLine
 62
7
  6
CONTINUOUS
 10
-99.4773257424
 20
-43.737783819
 11
-99.4052142788
 21
-43.9672780393
  0
LINE
  5
3DE
100
AcDbEntity
  8
SUPERFICI
100
AcDbLine
 62
7
  6
CONTINUOUS
 10
-99.5097029406
 20
-43.6333040685
 11
-99.4656301694
 21
-43.7753019567
  0
LINE
  5
3DF
100
AcDbEntity
  8
RACCORDO
100
AcDbLine
 62
7
  6
CONTINUOUS
 10
-99.5097247571
 20
-43.6332333583
 11
-99.5097029406
 21
-43.6333040685
  0
LINE
  5
3E0
100
AcDbEntity
  8
SUPERFICI
100
AcDbLine
 62
7
  6
CONTINUOUS
 10
-100.2569549719
 20
31.3215469882
 11
-100.3049758514
 21
31.1186388806
  0
LINE
  5
3E1
100
AcDbEntity
  8
SUPERFICI
100
AcDbLine
 62
7
  6
CONTINUOUS
 10
-100.2090302534
 20
31.5198897927
 11
-100.2569549719
 21
31.3215469882
  0
LINE
  5
3E2
100
AcDbEntity
  8
SUPERFICI
100
AcDbLine
 62
7
  6
CONTINUOUS
 10
-100.1714353315
 20
31.6727266888
 11
-100.2090302534
 21
31.5198897927
  0
LINE
  5
3E3
100
AcDbEntity
  8
RACCORDO
100
AcDbLine
 62
7
  6
CONTINUOUS
 10
-100.1714353315
 20
31.6727266888
 11
-100.1715292628
 21
31.6723477421
  0
LINE
  5
3E4
100
AcDbEntity
  8
SUPERFICI
100
AcDbLine
 62
7
  6
CONTINUOUS
 10
-99.4539185218
 20
34.2327656295
 11
-99.509741595
 21
34.0531895312
  0
LINE
  5
3E5
100
AcDbEntity
  8
SUPERFICI
100
AcDbLine
 62
7
  6
CONTINUOUS
 10
-99.3927881429
 20
34.4264018899
 11
-99.4539185218
 21
34.2327656295
  0
LINE
  5
3E6
100
AcDbEntity
  8
SUPERFICI
100
AcDbLine
 62
7
  6
CONTINUOUS
 10
-99.3165927826
 20
34.6635726941
 11
-99.3927881429
 21
34.4264018899
  0
LINE
  5
3E7
100
AcDbEntity
  8
SUPERFICI
100
AcDbLine
 62
7
  6
CONTINUOUS
 10
-99.242768898
 20
34.8891207587
 11
-99.3165927826
 21
34.6635726941
  0
LWPOLYLINE
  5
3E8
100
AcDbEntity
  8
SUPERFICI
100
AcDbPolyline
 62
7
  6
CONTINUOUS
 90
3
 70
0
 10
-99.1560717191
 20
35.1487360765
 10
-99.1678821447
 20
35.1137028562
 10
-99.242768898
 20
34.8891207587
  0
LINE
  5
3E9
100
AcDbEntity
  8
RACCORDO
100
AcDbLine
 62
7
  6
CONTINUOUS
 10
-101.6278500474
 20
20.12389728
 11
-101.6342075119
 21
20.1058107999
  0
LINE
  5
3EA
100
AcDbEntity
  8
RACCORDO
100
AcDbLine
 62
7
  6
CONTINUOUS
 10
-101.6331457781
 20
20.1088058049
 11
-101.6397594131
 21
20.0903109566
  0
LINE
  5
3EB
100
AcDbEntity
  8
RACCORDO
100
AcDbLine
 62
7
  6
CONTINUOUS
 10
-101.6385053598
 20
20.093788704
 11
-101.645378135
 21
20.0748912294
  0
LINE
  5
3EC
100
AcDbEntity
  8
RACCORDO
100
AcDbLine
 62
7
  6
CONTINUOUS
 10
-101.643927813
 20
20.0788463998
 11
-101.6510625339
 21
20.0595522224
  0
LINE
  5
3ED
100
AcDbEntity
  8
RACCORDO
100
AcDbLine
 62
7
  6
CONTINUOUS
 10
-101.6494121072
 20
20.0639794351
 11
-101.6568115154
 21
20.044294381
  0
LINE
  5
3EE
100
AcDbEntity
  8
RACCORDO
100
AcDbLine
 62
7
  6
CONTINUOUS
 10
-101.6549572067
 20
20.0491883414
 11
-101.6605621201
 21
20.0344735105
  0
LINE
  5
3EF
100
AcDbEntity
  8
RACCORDO
100
AcDbLine
 62
7
  6
CONTINUOUS
 10
-101.6597098539
 20
20.0366961065
 11
-101.6662258035
 21
20.0198354534
  0
LINE
  5
3F0
100
AcDbEntity
  8
RACCORDO
100
AcDbLine
 62
7
  6
CONTINUOUS
 10
-99.0856220045
 20
35.3283174262
 11
-99.1560725799
 21
35.1487341943
  0
LINE
  5
3F1
100
AcDbEntity
  8
RACCORDO
100
AcDbLine
 62
7
  6
CONTINUOUS
 10
-101.6655535516
 20
20.0215610791
 11
-101.6719472084
 21
20.0052746701
  0
LINE
  5
3F2
100
AcDbEntity
  8
RACCORDO
100
AcDbLine
 62
7
  6
CONTINUOUS
 10
-101.6714589663
 20
20.0065085717
 11
-101.6774249314
 21
19.9915391335
  0
LINE
  5
3F3
100
AcDbEntity
  8
RACCORDO
100
AcDbLine
 62
7
  6
CONTINUOUS
 10
-101.6774249314
 20
19.9915391335
 11
-101.6835591207
 21
19.9763864871
  0
LINE
  5
3F4
100
AcDbEntity
  8
RACCORDO
100
AcDbLine
 62
7
  6
CONTINUOUS
 10
-101.6835591207
 20
19.9763864871
 11
-101.6895339994
 21
19.9618511688
  0
LINE
  5
3F5
100
AcDbEntity
  8
RACCORDO
100
AcDbLine
 62
7
  6
CONTINUOUS
 10
-101.6895339994
 20
19.9618511688
 11
-101.6953894949
 21
19.9478124962
  0
LINE
  5
3F6
100
AcDbEntity
  8
RACCORDO
100
AcDbLine
 62
7
  6
CONTINUOUS
 10
-101.6953894949
 20
19.9478124962
 11
-101.7018714554
 21
19.9325010512
  0
LINE
  5
3F7
100
AcDbEntity
  8
RACCORDO
100
AcDbLine
 62
7
  6
CONTINUOUS
 10
-101.7013840033
 20
19.9336443178
 11
-101.7081229356
 21
19.917953769
  0
LINE
  5
3F8
100
AcDbEntity
  8
RACCORDO
100
AcDbLine
 62
7
  6
CONTINUOUS
 10
-101.7074299663
 20
19.919555937
 11
-101.7144279967
 21
19.9034923116
  0
LINE
  5
3F9
100
AcDbEntity
  8
RACCORDO
100
AcDbLine
 62
7
  6
CONTINUOUS
 10
-101.7135263646
 20
19.9055476536
 11
-101.7207855062
 21
19.8891170013
  0
LINE
  5
3FA
100
AcDbEntity
  8
RACCORDO
100
AcDbLine
 62
7
  6
CONTINUOUS
 10
-101.7196721219
 20
19.891619884
 11
-101.7271942663
 21
19.8748282916
  0
LINE
  5
3FB
100
AcDbEntity
  8
RACCORDO
100
AcDbLine
 62
7
  6
CONTINUOUS
 10
-101.7258661584
 20
19.877773034
 11
-101.7336530752
 21
19.8606266239
  0
LINE
  5
3FC
100
AcDbEntity
  8
RACCORDO
100
AcDbLine
 62
7
  6
CONTINUOUS
 10
-101.7321074481
 20
19.8640073728
 11
-101.7401607929
 21
19.8465122857
  0
LINE
  5
3FD
100
AcDbEntity
  8
RACCORDO
100
AcDbLine
 62
7
  6
CONTINUOUS
 10
-101.7383949063
 20
19.8503232859
 11
-101.7467162124
 21
19.832485695
  0
LINE
  5
3FE
100
AcDbEntity
  8
RACCORDO
100
AcDbLine
 62
7
  6
CONTINUOUS
 10
-101.7447274454
 20
19.836721148
 11
-101.753318123
 21
19.8185472576
  0
LINE
  5
3FF
100
AcDbEntity
  8
RACCORDO
100
AcDbLine
 62
7
  6
CONTINUOUS
 10
-101.7511040339
 20
19.8232011982
 11
-101.7599653787
 21
19.8046972266
  0
LINE
  5
400
100
AcDbEntity
  8
RACCORDO
100
AcDbLine
 62
7
  6
CONTINUOUS
 10
-101.7575235799
 20
19.8097637911
 11
-101.7639849892
 21
19.7964092707
  0
LINE
  5
401
100
AcDbEntity
  8
RACCORDO
100
AcDbLine
 62
7
  6
CONTINUOUS
 10
-101.7633056186
 20
19.7978055099
 11
-101.770487226
 21
19.7831378464
  0
LINE
  5
402
100
AcDbEntity
  8
RACCORDO
100
AcDbLine
 62
7
  6
CONTINUOUS
 10
-101.7700186216
 20
19.7840887847
 11
-101.7767739619
 21
19.7704613304
  0
LINE
  5
403
100
AcDbEntity
  8
RACCORDO
100
AcDbLine
 62
7
  6
CONTINUOUS
 10
-101.7767739619
 20
19.7704613304
 11
-101.7835704186
 21
19.7569235001
  0
LINE
  5
404
100
AcDbEntity
  8
RACCORDO
100
AcDbLine
 62
7
  6
CONTINUOUS
 10
-101.7835704186
 20
19.7569235001
 11
-101.7904068391
 21
19.7434754963
  0
LINE
  5
405
100
AcDbEntity
  8
RACCORDO
100
AcDbLine
 62
7
  6
CONTINUOUS
 10
-101.7902279768
 20
19.7438252156
 11
-101.7968826533
 21
19.7308890669
  0
LINE
  5
406
100
AcDbEntity
  8
RACCORDO
100
AcDbLine
 62
7
  6
CONTINUOUS
 10
-101.7968826533
 20
19.7308890669
 11
-101.8041946739
 21
19.7168502784
  0
LINE
  5
407
100
AcDbEntity
  8
RACCORDO
100
AcDbLine
 62
7
  6
CONTINUOUS
 10
-101.8035727146
 20
19.7180374097
 11
-101.8111437071
 21
19.7036735524
  0
LINE
  5
408
100
AcDbEntity
  8
RACCORDO
100
AcDbLine
 62
7
  6
CONTINUOUS
 10
-101.8102971196
 20
19.7052703952
 11
-101.8181278709
 21
19.6905877679
  0
LINE
  5
409
100
AcDbEntity
  8
RACCORDO
100
AcDbLine
 62
7
  6
CONTINUOUS
 10
-101.8170547627
 20
19.6925882875
 11
-101.8251459356
 21
19.6775932096
  0
LINE
  5
40A
100
AcDbEntity
  8
RACCORDO
100
AcDbLine
 62
7
  6
CONTINUOUS
 10
-101.8238445367
 20
19.679991341
 11
-101.8321967449
 21
19.6646900144
  0
LINE
  5
40B
100
AcDbEntity
  8
RACCORDO
100
AcDbLine
 62
7
  6
CONTINUOUS
 10
-101.8306653998
 20
19.6674796784
 11
-101.8392790824
 21
19.6518784189
  0
LINE
  5
40C
100
AcDbEntity
  8
RACCORDO
100
AcDbLine
 62
7
  6
CONTINUOUS
 10
-101.8375162485
 20
19.6550535266
 11
-101.8463917348
 21
19.6391586421
  0
LINE
  5
40D
100
AcDbEntity
  8
RACCORDO
100
AcDbLine
 62
7
  6
CONTINUOUS
 10
-101.8443960229
 20
19.6427130234
 11
-101.8535332017
 21
19.6265313958
  0
LINE
  5
40E
100
AcDbEntity
  8
RACCORDO
100
AcDbLine
 62
7
  6
CONTINUOUS
 10
-101.851303445
 20
19.6304586838
 11
-101.8607013106
 21
19.6139985267
  0
LINE
  5
40F
100
AcDbEntity
  8
RACCORDO
100
AcDbLine
 62
7
  6
CONTINUOUS
 10
-101.8582368086
 20
19.6182917459
 11
-101.8678930092
 21
19.6015633101
  0
LINE
  5
410
100
AcDbEntity
  8
RACCORDO
100
AcDbLine
 62
7
  6
CONTINUOUS
 10
-101.8651932855
 20
19.6062153301
 11
-101.8751059592
 21
19.5892276625
  0
LINE
  5
411
100
AcDbEntity
  8
RACCORDO
100
AcDbLine
 62
7
  6
CONTINUOUS
 10
-101.8721707366
 20
19.5942312455
 11
-101.8823371416
 21
19.5769945592
  0
LINE
  5
412
100
AcDbEntity
  8
RACCORDO
100
AcDbLine
 62
7
  6
CONTINUOUS
 10
-101.8791663681
 20
19.5823423288
 11
-101.8859585725
 21
19.5709174462
  0
LINE
  5
413
100
AcDbEntity
  8
RACCORDO
100
AcDbLine
 62
7
  6
CONTINUOUS
 10
-101.8861773437
 20
19.5705513684
 11
-101.8932013911
 21
19.5588601004
  0
LINE
  5
414
100
AcDbEntity
  8
RACCORDO
100
AcDbLine
 62
7
  6
CONTINUOUS
 10
-101.8932013911
 20
19.5588601004
 11
-101.9002355943
 21
19.5472712431
  0
LINE
  5
415
100
AcDbEntity
  8
RACCORDO
100
AcDbLine
 62
7
  6
CONTINUOUS
 10
-101.9002355943
 20
19.5472712431
 11
-101.9072769921
 21
19.5357874756
  0
LINE
  5
416
100
AcDbEntity
  8
RACCORDO
100
AcDbLine
 62
7
  6
CONTINUOUS
 10
-101.9072769921
 20
19.5357874756
 11
-101.9150252154
 21
19.523283128
  0
LINE
  5
417
100
AcDbEntity
  8
RACCORDO
100
AcDbLine
 62
7
  6
CONTINUOUS
 10
-101.9143232047
 20
19.5244104334
 11
-101.9223042821
 21
19.5116592787
  0
LINE
  5
418
100
AcDbEntity
  8
RACCORDO
100
AcDbLine
 62
7
  6
CONTINUOUS
 10
-101.9213711979
 20
19.5131427257
 11
-101.9295824953
 21
19.5001536325
  0
LINE
  5
419
100
AcDbEntity
  8
RACCORDO
100
AcDbLine
 62
7
  6
CONTINUOUS
 10
-101.9284178957
 20
19.501986923
 11
-101.9389797674
 21
19.4854668898
  0
LINE
  5
41A
100
AcDbEntity
  8
RACCORDO
100
AcDbLine
 62
7
  6
CONTINUOUS
 10
-101.9368565149
 20
19.4887688629
 11
-101.946011209
 21
19.4745992423
  0
LINE
  5
41B
100
AcDbEntity
  8
RACCORDO
100
AcDbLine
 62
7
  6
CONTINUOUS
 10
-101.9441229579
 20
19.4775076014
 11
-101.9530312772
 21
19.4638507235
  0
LINE
  5
41C
100
AcDbEntity
  8
RACCORDO
100
AcDbLine
 62
7
  6
CONTINUOUS
 10
-101.9513790882
 20
19.4663713874
 11
-101.9600367441
 21
19.4532237439
  0
LINE
  5
41D
100
AcDbEntity
  8
RACCORDO
100
AcDbLine
 62
7
  6
CONTINUOUS
 10
-101.9586214564
 20
19.4553627781
 11
-101.9694519587
 21
19.4390940294
  0
LINE
  5
41E
100
AcDbEntity
  8
RACCORDO
100
AcDbLine
 62
7
  6
CONTINUOUS
 10
-101.9670250044
 20
19.4427196931
 11
-101.9774678991
 21
19.427199289
  0
LINE
  5
41F
100
AcDbEntity
  8
RACCORDO
100
AcDbLine
 62
7
  6
CONTINUOUS
 10
-101.9766453773
 20
19.4284141833
 11
-101.9873873827
 21
19.4126477365
  0
LINE
  5
420
100
AcDbEntity
  8
RACCORDO
100
AcDbLine
 62
7
  6
CONTINUOUS
 10
-101.9843991229
 20
19.4170121295
 11
-101.9945114024
 21
19.4023091078
  0
LINE
  5
421
100
AcDbEntity
  8
RACCORDO
100
AcDbLine
 62
7
  6
CONTINUOUS
 10
-101.9945114024
 20
19.4023091078
 11
-102.005130181
 21
19.387068613
  0
LINE
  5
422
100
AcDbEntity
  8
RACCORDO
100
AcDbLine
 62
7
  6
CONTINUOUS
 10
-102.005130181
 20
19.387068613
 11
-102.0151593413
 21
19.3728567678
  0
LINE
  5
423
100
AcDbEntity
  8
RACCORDO
100
AcDbLine
 62
7
  6
CONTINUOUS
 10
-102.0151593413
 20
19.3728567678
 11
-102.0259221271
 21
19.3577974432
  0
LINE
  5
424
100
AcDbEntity
  8
RACCORDO
100
AcDbLine
 62
7
  6
CONTINUOUS
 10
-102.0251377709
 20
19.3588883059
 11
-102.0359572259
 21
19.3439310929
  0
LINE
  5
425
100
AcDbEntity
  8
RACCORDO
100
AcDbLine
 62
7
  6
CONTINUOUS
 10
-102.0348872886
 20
19.3454016076
 11
-102.0456376873
 21
19.3307108305
  0
LINE
  5
426
100
AcDbEntity
  8
RACCORDO
100
AcDbLine
 62
7
  6
CONTINUOUS
 10
-102.0444118842
 20
19.332376513
 11
-102.0544750964
 21
19.3187727901
  0
LINE
  5
427
100
AcDbEntity
  8
RACCORDO
100
AcDbLine
 62
7
  6
CONTINUOUS
 10
-102.0530485201
 20
19.3206915384
 11
-102.0619406221
 21
19.3087836646
  0
LINE
  5
428
100
AcDbEntity
  8
RACCORDO
100
AcDbLine
 62
7
  6
CONTINUOUS
 10
-102.0607698494
 20
19.3103441988
 11
-102.0643992882
 21
19.3055133864
  0
LINE
  5
429
100
AcDbEntity
  8
0
100
AcDbLine
 62
7
  6
CONTINUOUS
 10
-101.2650016079
 20
-34.2899946264
 11
-101.3388551309
 21
-34.2900016264
  0
LINE
  5
42A
100
AcDbEntity
  8
0
100
AcDbLine
 62
253
  6
CONTINUOUS
 10
-55.2749121715
 20
-33.8899946264
 11
-54.5610239085
 21
-33.8899946264
  0
LINE
  5
42B
100
AcDbEntity
  8
0
100
AcDbLine
 62
7
  6
CONTINUOUS
 10
-101.365690695
 20
-33.0988972933
 11
-101.4157924364
 21
-33.0988972933
  0
LINE
  5
42C
100
AcDbEntity
  8
0
100
AcDbLine
 62
7
  6
CONTINUOUS
 10
-101.4224184922
 20
-33.1686458123
 11
-101.4231001591
 21
-33.1686446264
  0
LINE
  5
42D
100
AcDbEntity
  8
RACCORDO
100
AcDbLine
 62
7
  6
CONTINUOUS
 10
-101.6518489274
 20
-29.637439464
 11
-101.64482977
 21
-29.656373908
  0
LINE
  5
42E
100
AcDbEntity
  8
RACCORDO
100
AcDbLine
 62
7
  6
CONTINUOUS
 10
-101.6453782114
 20
-29.6548802744
 11
-101.637801207
 21
-29.6757366267
  0
LINE
  5
42F
100
AcDbEntity
  8
RACCORDO
100
AcDbLine
 62
7
  6
CONTINUOUS
 10
-101.6397594874
 20
-29.6703000036
 11
-101.6342808076
 21
-29.6855936663
  0
LINE
  5
430
100
AcDbEntity
  8
RACCORDO
100
AcDbLine
 62
7
  6
CONTINUOUS
 10
-101.6342075842
 20
-29.685799849
 11
-101.62722859
 21
-29.7056745698
  0
LINE
  5
431
100
AcDbEntity
  8
RACCORDO
100
AcDbLine
 62
7
  6
CONTINUOUS
 10
-101.6287236389
 20
-29.7013791945
 11
-101.6233087318
 21
-29.7170375589
  0
LINE
  5
432
100
AcDbEntity
  8
RACCORDO
100
AcDbLine
 62
7
  6
CONTINUOUS
 10
-101.6236944597
 20
-29.7159128183
 11
-101.6166096744
 21
-29.7368078972
  0
LINE
  5
433
100
AcDbEntity
  8
RACCORDO
100
AcDbLine
 62
7
  6
CONTINUOUS
 10
-101.6179639894
 20
-29.7327743023
 11
-101.6126905312
 21
-29.7485887721
  0
LINE
  5
434
100
AcDbEntity
  8
RACCORDO
100
AcDbLine
 62
7
  6
CONTINUOUS
 10
-101.6130622911
 20
-29.7474642446
 11
-101.6059600949
 21
-29.7692110051
  0
LINE
  5
435
100
AcDbEntity
  8
RACCORDO
100
AcDbLine
 62
7
  6
CONTINUOUS
 10
-101.6074894216
 20
-29.764480452
 11
-101.6024153343
 21
-29.7802802554
  0
LINE
  5
436
100
AcDbEntity
  8
RACCORDO
100
AcDbLine
 62
7
  6
CONTINUOUS
 10
-101.6023617685
 20
-29.7804486658
 11
-101.5973086721
 21
-29.796492725
  0
LINE
  5
437
100
AcDbEntity
  8
RACCORDO
100
AcDbLine
 62
7
  6
CONTINUOUS
 10
-101.598878149
 20
-29.79147576
 11
-101.5918378569
 21
-29.8142273846
  0
LINE
  5
438
100
AcDbEntity
  8
RACCORDO
100
AcDbLine
 62
7
  6
CONTINUOUS
 10
-101.5923311796
 20
-29.8126120781
 11
-101.5874303784
 21
-29.8288060129
  0
LINE
  5
439
100
AcDbEntity
  8
RACCORDO
100
AcDbLine
 62
7
  6
CONTINUOUS
 10
-101.5883426479
 20
-29.8257664599
 11
-101.5814132202
 21
-29.8491544258
  0
LINE
  5
43A
100
AcDbEntity
  8
RACCORDO
100
AcDbLine
 62
7
  6
CONTINUOUS
 10
-101.582607348
 20
-29.8450738052
 11
-101.5779863328
 21
-29.8609860419
  0
LINE
  5
43B
100
AcDbEntity
  8
RACCORDO
100
AcDbLine
 62
7
  6
CONTINUOUS
 10
-101.5778631167
 20
-29.8614148685
 11
-101.5731987501
 21
-29.877828455
  0
LINE
  5
43C
100
AcDbEntity
  8
RACCORDO
100
AcDbLine
 62
7
  6
CONTINUOUS
 10
-101.5745860147
 20
-29.8729095194
 11
-101.5678836646
 21
-29.8969794913
  0
LINE
  5
43D
100
AcDbEntity
  8
RACCORDO
100
AcDbLine
 62
7
  6
CONTINUOUS
 10
-101.5686153053
 20
-29.8943138051
 11
-101.5641137903
 21
-29.9108702975
  0
LINE
  5
43E
100
AcDbEntity
  8
RACCORDO
100
AcDbLine
 62
7
  6
CONTINUOUS
 10
-101.5645832577
 20
-29.9091259883
 11
-101.5581024098
 21
-29.933586937
  0
LINE
  5
43F
100
AcDbEntity
  8
RACCORDO
100
AcDbLine
 62
7
  6
CONTINUOUS
 10
-101.5596952472
 20
-29.9274971493
 11
-101.5549231536
 21
-29.945901237
  0
LINE
  5
440
100
AcDbEntity
  8
RACCORDO
100
AcDbLine
 62
7
  6
CONTINUOUS
 10
-101.5553607092
 20
-29.9441935657
 11
-101.5511111624
 21
-29.9609588912
  0
LINE
  5
441
100
AcDbEntity
  8
RACCORDO
100
AcDbLine
 62
7
  6
CONTINUOUS
 10
-100.1715831283
 20
-41.2521196791
 11
-100.1714773879
 21
-41.252546275
  0
LINE
  5
442
100
AcDbEntity
  8
RACCORDO
100
AcDbLine
 62
7
  6
CONTINUOUS
 10
-101.5517875907
 20
-29.9582628742
 11
-101.5456512835
 21
-29.9831203605
  0
LINE
  5
443
100
AcDbEntity
  8
SUPERFICI
100
AcDbLine
 62
7
  6
CONTINUOUS
 10
-100.2315891775
 20
-41.0070180336
 11
-100.1714773879
 21
-41.252546275
  0
LINE
  5
444
100
AcDbEntity
  8
RACCORDO
100
AcDbLine
 62
7
  6
CONTINUOUS
 10
-101.546947624
 20
-29.9777923082
 11
-101.5426501927
 21
-29.995621282
  0
LINE
  5
445
100
AcDbEntity
  8
SUPERFICI
100
AcDbLine
 62
7
  6
CONTINUOUS
 10
-100.295399759
 20
-40.7394362179
 11
-100.2315891775
 21
-41.0070180336
  0
LINE
  5
446
100
AcDbEntity
  8
RACCORDO
100
AcDbLine
 62
7
  6
CONTINUOUS
 10
-101.5428711016
 20
-29.9946929872
 11
-101.5388825581
 21
-30.011660239
  0
LINE
  5
447
100
AcDbEntity
  8
SUPERFICI
100
AcDbLine
 62
7
  6
CONTINUOUS
 10
-100.3586599853
 20
-40.4665286536
 11
-100.295399759
 21
-40.7394362179
  0
LINE
  5
448
100
AcDbEntity
  8
RACCORDO
100
AcDbLine
 62
7
  6
CONTINUOUS
 10
-101.5396944183
 20
-30.0081704534
 11
-101.5339201467
 21
-30.0334162628
  0
LINE
  5
449
100
AcDbEntity
  8
SUPERFICI
100
AcDbLine
 62
7
  6
CONTINUOUS
 10
-100.4212445506
 20
-40.188403141
 11
-100.3586599853
 21
-40.4665286536
  0
LINE
  5
44A
100
AcDbEntity
  8
RACCORDO
100
AcDbLine
 62
7
  6
CONTINUOUS
 10
-101.534982984
 20
-30.0286932117
 11
-101.5311021697
 21
-30.0461150859
  0
LINE
  5
44B
100
AcDbEntity
  8
SUPERFICI
100
AcDbLine
 62
7
  6
CONTINUOUS
 10
-100.4624087971
 20
-40.0007050158
 11
-100.4212445506
 21
-40.188403141
  0
LINE
  5
44C
100
AcDbEntity
  8
RACCORDO
100
AcDbLine
 62
7
  6
CONTINUOUS
 10
-101.5311733601
 20
-30.0457910417
 11
-101.5274546242
 21
-30.0629530067
  0
LINE
  5
44D
100
AcDbEntity
  8
SUPERFICI
100
AcDbLine
 62
7
  6
CONTINUOUS
 10
-100.5030109357
 20
-39.8115995797
 11
-100.4624087971
 21
-40.0007050158
  0
LINE
  5
44E
100
AcDbEntity
  8
SUPERFICI
100
AcDbLine
 62
7
  6
CONTINUOUS
 10
-100.5430539819
 20
-39.6209917951
 11
-100.5030109357
 21
-39.8115995797
  0
LINE
  5
44F
100
AcDbEntity
  8
RACCORDO
100
AcDbLine
 62
7
  6
CONTINUOUS
 10
-101.5283310329
 20
-30.0588643517
 11
-101.5238277391
 21
-30.0801782211
  0
LINE
  5
450
100
AcDbEntity
  8
RACCORDO
100
AcDbLine
 62
7
  6
CONTINUOUS
 10
-101.5256067742
 20
-30.0716663709
 11
-101.5220490404
 21
-30.0888142574
  0
LINE
  5
451
100
AcDbEntity
  8
SUPERFICI
100
AcDbLine
 62
7
  6
CONTINUOUS
 10
-100.5825217968
 20
-39.4288723995
 11
-100.5430539819
 21
-39.6209917951
  0
LINE
  5
452
100
AcDbEntity
  8
RACCORDO
100
AcDbLine
 62
7
  6
CONTINUOUS
 10
-101.5229299797
 20
-30.0845210134
 11
-101.5185616942
 21
-30.1061327563
  0
LINE
  5
453
100
AcDbEntity
  8
SUPERFICI
100
AcDbLine
 62
7
  6
CONTINUOUS
 10
-100.6213986402
 20
-39.2352290745
 11
-100.5825217968
 21
-39.4288723995
  0
LINE
  5
454
100
AcDbEntity
  8
RACCORDO
100
AcDbLine
 62
7
  6
CONTINUOUS
 10
-101.5203012369
 20
-30.0974281448
 11
-101.5168532887
 21
-30.1148149523
  0
LINE
  5
455
100
AcDbEntity
  8
SUPERFICI
100
AcDbLine
 62
7
  6
CONTINUOUS
 10
-100.6596691709
 20
-39.0400457453
 11
-100.6213986402
 21
-39.2352290745
  0
LINE
  5
456
100
AcDbEntity
  8
RACCORDO
100
AcDbLine
 62
7
  6
CONTINUOUS
 10
-101.5177206527
 20
-30.1103900755
 11
-101.5151888504
 21
-30.1234066681
  0
LINE
  5
457
100
AcDbEntity
  8
SUPERFICI
100
AcDbLine
 62
7
  6
CONTINUOUS
 10
-100.7118539992
 20
-38.7660155335
 11
-100.6596691709
 21
-39.0400457453
  0
LINE
  5
458
100
AcDbEntity
  8
RACCORDO
100
AcDbLine
 62
7
  6
CONTINUOUS
 10
-100.7119508062
 20
-38.7654982419
 11
-100.7118539992
 21
-38.7660155335
  0
LINE
  5
459
100
AcDbEntity
  8
RACCORDO
100
AcDbLine
 62
7
  6
CONTINUOUS
 10
-101.4790273008
 20
-30.3636603431
 11
-101.47708118
 21
-30.381982975
  0
LINE
  5
45A
100
AcDbEntity
  8
RACCORDO
100
AcDbLine
 62
7
  6
CONTINUOUS
 10
-101.4770977062
 20
-30.3818227404
 11
-101.4752753264
 21
-30.4000315663
  0
LINE
  5
45B
100
AcDbEntity
  8
RACCORDO
100
AcDbLine
 62
7
  6
CONTINUOUS
 10
-101.2711158219
 20
-34.769286089
 11
-101.2710999225
 21
-34.7694564643
  0
LINE
  5
45C
100
AcDbEntity
  8
RACCORDO
100
AcDbLine
 62
7
  6
CONTINUOUS
 10
-101.475646482
 20
-30.3962304999
 11
-101.4735609118
 21
-30.4182857415
  0
LINE
  5
45D
100
AcDbEntity
  8
SUPERFICI
100
AcDbLine
 62
7
  6
CONTINUOUS
 10
-101.2886101092
 20
-34.5773226917
 11
-101.2710999226
 21
-34.7694564641
  0
LINE
  5
45E
100
AcDbEntity
  8
RACCORDO
100
AcDbLine
 62
7
  6
CONTINUOUS
 10
-101.4742740657
 20
-30.410546134
 11
-101.4727444148
 21
-30.4274295828
  0
LINE
  5
45F
100
AcDbEntity
  8
SUPERFICI
100
AcDbLine
 62
7
  6
CONTINUOUS
 10
-101.3049992244
 20
-34.3885595615
 11
-101.2886101092
 21
-34.5773226917
  0
LINE
  5
460
100
AcDbEntity
  8
SUPERFICI
100
AcDbLine
 62
7
  6
CONTINUOUS
 10
-101.3132333895
 20
-34.2900096264
 11
-101.3049992244
 21
-34.3885595615
  0
LINE
  5
461
100
AcDbEntity
  8
RACCORDO
100
AcDbLine
 62
7
  6
CONTINUOUS
 10
-101.4729648457
 20
-30.4249296328
 11
-101.4711933125
 21
-30.4457499134
  0
LINE
  5
462
100
AcDbEntity
  8
RACCORDO
100
AcDbLine
 62
7
  6
CONTINUOUS
 10
-101.4717195315
 20
-30.4393832317
 11
-101.4697519772
 21
-30.464113089
  0
LINE
  5
463
100
AcDbEntity
  8
RACCORDO
100
AcDbLine
 62
7
  6
CONTINUOUS
 10
-101.4705390799
 20
-30.4539066727
 11
-101.4690726958
 21
-30.473310368
  0
LINE
  5
464
100
AcDbEntity
  8
RACCORDO
100
AcDbLine
 62
7
  6
CONTINUOUS
 10
-101.4694244509
 20
-30.468499689
 11
-101.4677973308
 21
-30.4917357462
  0
LINE
  5
465
100
AcDbEntity
  8
RACCORDO
100
AcDbLine
 62
7
  6
CONTINUOUS
 10
-101.4683764359
 20
-30.4831644955
 11
-101.4672014216
 21
-30.5009635258
  0
LINE
  5
466
100
AcDbEntity
  8
RACCORDO
100
AcDbLine
 62
7
  6
CONTINUOUS
 10
-101.467396038
 20
-30.4979008099
 11
-101.4660935638
 21
-30.5194486965
  0
LINE
  5
467
100
AcDbEntity
  8
SUPERFICI
100
AcDbLine
 62
7
  6
CONTINUOUS
 10
-101.3078574118
 20
24.7746726553
 11
-101.3261574604
 21
24.5499203359
  0
LINE
  5
468
100
AcDbEntity
  8
SUPERFICI
100
AcDbLine
 62
7
  6
CONTINUOUS
 10
-101.2898441411
 20
24.9834362616
 11
-101.3094689885
 21
24.7554235122
  0
LINE
  5
469
100
AcDbEntity
  8
RACCORDO
100
AcDbLine
 62
7
  6
CONTINUOUS
 10
-101.4723521886
 20
20.8519490538
 11
-101.4739316606
 21
20.8342455085
  0
LINE
  5
46A
100
AcDbEntity
  8
SUPERFICI
100
AcDbLine
 62
7
  6
CONTINUOUS
 10
-101.2711026165
 20
25.1894383442
 11
-101.2915068697
 21
24.9646329395
  0
LINE
  5
46B
100
AcDbEntity
  8
RACCORDO
100
AcDbLine
 62
7
  6
CONTINUOUS
 10
-101.2711026165
 20
25.1894383439
 11
-101.2711114228
 21
25.1893439775
  0
LINE
  5
46C
100
AcDbEntity
  8
RACCORDO
100
AcDbLine
 62
7
  6
CONTINUOUS
 10
-101.4735609043
 20
20.8382965713
 11
-101.4756128178
 21
20.8165839547
  0
LINE
  5
46D
100
AcDbEntity
  8
RACCORDO
100
AcDbLine
 62
7
  6
CONTINUOUS
 10
-101.475275318
 20
20.8200423994
 11
-101.4773949849
 21
20.7989653685
  0
LINE
  5
46E
100
AcDbEntity
  8
RACCORDO
100
AcDbLine
 62
7
  6
CONTINUOUS
 10
-101.477097697
 20
20.8018335769
 11
-101.4792774747
 21
20.7813907178
  0
LINE
  5
46F
100
AcDbEntity
  8
RACCORDO
100
AcDbLine
 62
7
  6
CONTINUOUS
 10
-101.4790272907
 20
20.7836711829
 11
-101.4812596046
 21
20.7638608251
  0
LINE
  5
470
100
AcDbEntity
  8
RACCORDO
100
AcDbLine
 62
7
  6
CONTINUOUS
 10
-101.4810633347
 20
20.7655562876
 11
-101.483340667
 21
20.746376642
  0
LINE
  5
471
100
AcDbEntity
  8
RACCORDO
100
AcDbLine
 62
7
  6
CONTINUOUS
 10
-101.4832050705
 20
20.7474897967
 11
-101.4854517105
 21
20.7294727616
  0
LINE
  5
472
100
AcDbEntity
  8
RACCORDO
100
AcDbLine
 62
7
  6
CONTINUOUS
 10
-101.4854517105
 20
20.7294727616
 11
-101.4878024537
 21
20.711506224
  0
LINE
  5
473
100
AcDbEntity
  8
RACCORDO
100
AcDbLine
 62
7
  6
CONTINUOUS
 10
-101.4877967211
 20
20.7115490331
 11
-101.4901702626
 21
20.6942073316
  0
LINE
  5
474
100
AcDbEntity
  8
RACCORDO
100
AcDbLine
 62
7
  6
CONTINUOUS
 10
-101.4901702626
 20
20.6942073316
 11
-101.4928130513
 21
20.6757282964
  0
LINE
  5
475
100
AcDbEntity
  8
RACCORDO
100
AcDbLine
 62
7
  6
CONTINUOUS
 10
-101.4926398179
 20
20.6769149253
 11
-101.4954712461
 21
20.6579189411
  0
LINE
  5
476
100
AcDbEntity
  8
RACCORDO
100
AcDbLine
 62
7
  6
CONTINUOUS
 10
-101.4952046476
 20
20.6596725867
 11
-101.4982302692
 21
20.6401638439
  0
LINE
  5
477
100
AcDbEntity
  8
RACCORDO
100
AcDbLine
 62
7
  6
CONTINUOUS
 10
-101.497863983
 20
20.6424812162
 11
-101.5010892628
 21
20.6224639971
  0
LINE
  5
478
100
AcDbEntity
  8
RACCORDO
100
AcDbLine
 62
7
  6
CONTINUOUS
 10
-101.5006170451
 20
20.6253417053
 11
-101.5040473571
 21
20.6048203827
  0
LINE
  5
479
100
AcDbEntity
  8
RACCORDO
100
AcDbLine
 62
7
  6
CONTINUOUS
 10
-101.5034630678
 20
20.6082548
 11
-101.5071036976
 21
20.5872338187
  0
LINE
  5
47A
100
AcDbEntity
  8
RACCORDO
100
AcDbLine
 62
7
  6
CONTINUOUS
 10
-101.5064012536
 20
20.5912213739
 11
-101.5094307951
 21
20.5742422914
  0
LINE
  5
47B
100
AcDbEntity
  8
RACCORDO
100
AcDbLine
 62
7
  6
CONTINUOUS
 10
-101.5086684271
 20
20.5784622602
 11
-101.5125509007
 21
20.5573182715
  0
LINE
  5
47C
100
AcDbEntity
  8
RACCORDO
100
AcDbLine
 62
7
  6
CONTINUOUS
 10
-100.7119223595
 20
29.1856609987
 11
-100.7119474895
 21
29.1855267129
  0
LINE
  5
47D
100
AcDbEntity
  8
SUPERFICI
100
AcDbLine
 62
7
  6
CONTINUOUS
 10
-100.6650129199
 20
29.432424944
 11
-100.7119223595
 21
29.1856609988
  0
LINE
  5
47E
100
AcDbEntity
  8
RACCORDO
100
AcDbLine
 62
7
  6
CONTINUOUS
 10
-101.5118704667
 20
20.560963052
 11
-101.5157607453
 21
20.5404501602
  0
LINE
  5
47F
100
AcDbEntity
  8
SUPERFICI
100
AcDbLine
 62
7
  6
CONTINUOUS
 10
-100.6178658513
 20
29.673024583
 11
-100.6650129199
 21
29.432424944
  0
LINE
  5
480
100
AcDbEntity
  8
RACCORDO
100
AcDbLine
 62
7
  6
CONTINUOUS
 10
-101.5151685192
 20
20.543523201
 11
-101.5190594946
 21
20.5236387939
  0
LINE
  5
481
100
AcDbEntity
  8
SUPERFICI
100
AcDbLine
 62
7
  6
CONTINUOUS
 10
-100.5702378723
 20
29.909146985
 11
-100.6178658513
 21
29.673024583
  0
LINE
  5
482
100
AcDbEntity
  8
RACCORDO
100
AcDbLine
 62
7
  6
CONTINUOUS
 10
-101.5185616667
 20
20.526143642
 11
-101.5224463322
 21
20.5068848639
  0
LINE
  5
483
100
AcDbEntity
  8
SUPERFICI
100
AcDbLine
 62
7
  6
CONTINUOUS
 10
-100.5222574683
 20
30.1405202507
 11
-100.5702378723
 21
29.909146985
  0
LINE
  5
484
100
AcDbEntity
  8
RACCORDO
100
AcDbLine
 62
7
  6
CONTINUOUS
 10
-101.5220490115
 20
20.5088251461
 11
-101.5259204071
 21
20.4901891879
  0
LINE
  5
485
100
AcDbEntity
  8
SUPERFICI
100
AcDbLine
 62
7
  6
CONTINUOUS
 10
-100.4740309249
 20
30.3669988013
 11
-100.5222574683
 21
30.1405202507
  0
LINE
  5
486
100
AcDbEntity
  8
RACCORDO
100
AcDbLine
 62
7
  6
CONTINUOUS
 10
-101.5256296162
 20
20.4915686266
 11
-101.5293025327
 21
20.4743749856
  0
LINE
  5
487
100
AcDbEntity
  8
SUPERFICI
100
AcDbLine
 62
7
  6
CONTINUOUS
 10
-100.4256617228
 20
30.5884596121
 11
-100.4740309249
 21
30.3669988013
  0
LINE
  5
488
100
AcDbEntity
  8
RACCORDO
100
AcDbLine
 62
7
  6
CONTINUOUS
 10
-101.5293025327
 20
20.4743749856
 11
-101.5330668361
 21
20.4572449619
  0
LINE
  5
489
100
AcDbEntity
  8
SUPERFICI
100
AcDbLine
 62
7
  6
CONTINUOUS
 10
-100.3772737921
 20
30.8046966744
 11
-100.4256617228
 21
30.5884596121
  0
LINE
  5
48A
100
AcDbEntity
  8
RACCORDO
100
AcDbLine
 62
7
  6
CONTINUOUS
 10
-101.5331268479
 20
20.4569756848
 11
-101.5369215598
 21
20.4401794358
  0
LWPOLYLINE
  5
48B
100
AcDbEntity
  8
SUPERFICI
100
AcDbPolyline
 62
7
  6
CONTINUOUS
 90
3
 70
0
 10
-100.3049758514
 20
31.1186388806
 10
-100.329018683
 20
31.0153999394
 10
-100.3772737921
 20
30.8046966744
  0
LINE
  5
48C
100
AcDbEntity
  8
RACCORDO
100
AcDbLine
 62
7
  6
CONTINUOUS
 10
-101.5368574982
 20
20.4404593093
 11
-101.5406719247
 21
20.4240042263
  0
LINE
  5
48D
100
AcDbEntity
  8
RACCORDO
100
AcDbLine
 62
7
  6
CONTINUOUS
 10
-101.5406719247
 20
20.4240042263
 11
-101.5448983872
 21
20.4062451887
  0
LINE
  5
48E
100
AcDbEntity
  8
RACCORDO
100
AcDbLine
 62
7
  6
CONTINUOUS
 10
-101.544569266
 20
20.4076110699
 11
-101.549018546
 21
20.3893780201
  0
LINE
  5
48F
100
AcDbEntity
  8
RACCORDO
100
AcDbLine
 62
7
  6
CONTINUOUS
 10
-101.548548622
 20
20.3912805993
 11
-101.5532251993
 21
20.3725786053
  0
LINE
  5
490
100
AcDbEntity
  8
RACCORDO
100
AcDbLine
 62
7
  6
CONTINUOUS
 10
-101.5526090844
 20
20.3750135637
 11
-101.5575173725
 21
20.3558476166
  0
LINE
  5
491
100
AcDbEntity
  8
RACCORDO
100
AcDbLine
 62
7
  6
CONTINUOUS
 10
-101.5567497712
 20
20.3588105679
 11
-101.5618940449
 21
20.3391858663
  0
LINE
  5
492
100
AcDbEntity
  8
RACCORDO
100
AcDbLine
 62
7
  6
CONTINUOUS
 10
-101.5609697596
 20
20.342672341
 11
-101.5663541868
 21
20.3225941546
  0
LINE
  5
493
100
AcDbEntity
  8
RACCORDO
100
AcDbLine
 62
7
  6
CONTINUOUS
 10
-101.5652681193
 20
20.3265996022
 11
-101.5708968008
 21
20.30607312
  0
LINE
  5
494
100
AcDbEntity
  8
RACCORDO
100
AcDbLine
 62
7
  6
CONTINUOUS
 10
-101.5696439488
 20
20.3105929264
 11
-101.5740963042
 21
20.2946530125
  0
LINE
  5
495
100
AcDbEntity
  8
RACCORDO
100
AcDbLine
 62
7
  6
CONTINUOUS
 10
-101.5731987006
 20
20.2978393782
 11
-101.5786242342
 21
20.2787805489
  0
LINE
  5
496
100
AcDbEntity
  8
RACCORDO
100
AcDbLine
 62
7
  6
CONTINUOUS
 10
-101.5778630654
 20
20.2814257941
 11
-101.5832268192
 21
20.2629760807
  0
LINE
  5
497
100
AcDbEntity
  8
RACCORDO
100
AcDbLine
 62
7
  6
CONTINUOUS
 10
-101.5826072949
 20
20.2650847334
 11
-101.5879030954
 21
20.2472402757
  0
LINE
  5
498
100
AcDbEntity
  8
RACCORDO
100
AcDbLine
 62
7
  6
CONTINUOUS
 10
-101.5874303234
 20
20.2488169435
 11
-101.5926520921
 21
20.2315737916
  0
LINE
  5
499
100
AcDbEntity
  8
RACCORDO
100
AcDbLine
 62
7
  6
CONTINUOUS
 10
-101.5923311228
 20
20.2326230111
 11
-101.5973086134
 21
20.2165036604
  0
LINE
  5
49A
100
AcDbEntity
  8
RACCORDO
100
AcDbLine
 62
7
  6
CONTINUOUS
 10
-101.5973086134
 20
20.2165036604
 11
-101.6023617079
 21
20.2004596035
  0
LINE
  5
49B
100
AcDbEntity
  8
RACCORDO
100
AcDbLine
 62
7
  6
CONTINUOUS
 10
-101.6023617079
 20
20.2004596035
 11
-101.607325849
 21
20.1849958894
  0
LINE
  5
49C
100
AcDbEntity
  8
RACCORDO
100
AcDbLine
 62
7
  6
CONTINUOUS
 10
-101.607325849
 20
20.1849958894
 11
-101.6126904667
 21
20.1685997144
  0
LINE
  5
49D
100
AcDbEntity
  8
RACCORDO
100
AcDbLine
 62
7
  6
CONTINUOUS
 10
-101.6123561037
 20
20.1696123949
 11
-101.617963923
 21
20.1527852468
  0
LINE
  5
49E
100
AcDbEntity
  8
RACCORDO
100
AcDbLine
 62
7
  6
CONTINUOUS
 10
-101.6174542191
 20
20.1543010888
 11
-101.6233086635
 21
20.1370485056
  0
LINE
  5
49F
100
AcDbEntity
  8
RACCORDO
100
AcDbLine
 62
7
  6
CONTINUOUS
 10
-101.6226191891
 20
20.139062566
 11
-101.6287235686
 21
20.1213901433
  0
LINE
  5
4A0
100
AcDbEntity
  8
0
100
AcDbLine
 62
7
  6
CONTINUOUS
 10
-101.4441698178
 20
-31.3898716264
 11
-101.4941873634
 21
-31.3898716264
  0
LINE
  5
4A1
100
AcDbEntity
  8
0
100
AcDbLine
 62
253
  6
CONTINUOUS
 10
-55.2749121715
 20
-28.6899946264
 11
-54.5610239085
 21
-28.6899946317
  0
LINE
  5
4A2
100
AcDbEntity
  8
RACCORDO
100
AcDbLine
 62
7
  6
CONTINUOUS
 10
-101.5151685452
 20
-30.1235123182
 11
-101.5118704913
 21
-30.1409521722
  0
LINE
  5
4A3
100
AcDbEntity
  8
RACCORDO
100
AcDbLine
 62
7
  6
CONTINUOUS
 10
-101.5127064549
 20
-30.1364777802
 11
-101.5086684503
 21
-30.1584513836
  0
LINE
  5
4A4
100
AcDbEntity
  8
RACCORDO
100
AcDbLine
 62
7
  6
CONTINUOUS
 10
-101.5102736435
 20
-30.1496057204
 11
-101.5071037202
 21
-30.1672229436
  0
LINE
  5
4A5
100
AcDbEntity
  8
RACCORDO
100
AcDbLine
 62
7
  6
CONTINUOUS
 10
-101.5078910776
 20
-30.1627903422
 11
-101.5040473784
 21
-30.1848095106
  0
LINE
  5
4A6
100
AcDbEntity
  8
RACCORDO
100
AcDbLine
 62
7
  6
CONTINUOUS
 10
-101.5055594207
 20
-30.1760314941
 11
-101.5025559962
 21
-30.193624239
  0
LINE
  5
4A7
100
AcDbEntity
  8
RACCORDO
100
AcDbLine
 62
7
  6
CONTINUOUS
 10
-101.5032789215
 20
-30.1893314808
 11
-101.4996473385
 21
-30.211296114
  0
LINE
  5
4A8
100
AcDbEntity
  8
RACCORDO
100
AcDbLine
 62
7
  6
CONTINUOUS
 10
-101.5010502807
 20
-30.2026901452
 11
-101.498230288
 21
-30.2201529781
  0
LINE
  5
4A9
100
AcDbEntity
  8
RACCORDO
100
AcDbLine
 62
7
  6
CONTINUOUS
 10
-101.4988742011
 20
-30.2161073249
 11
-101.4954712637
 21
-30.2379080785
  0
LINE
  5
4AA
100
AcDbEntity
  8
RACCORDO
100
AcDbLine
 62
7
  6
CONTINUOUS
 10
-101.4967510047
 20
-30.2295853187
 11
-101.4941295105
 21
-30.2468060282
  0
LINE
  5
4AB
100
AcDbEntity
  8
RACCORDO
100
AcDbLine
 62
7
  6
CONTINUOUS
 10
-101.4946814321
 20
-30.2431239575
 11
-101.4915220325
 21
-30.2646422368
  0
LINE
  5
4AC
100
AcDbEntity
  8
RACCORDO
100
AcDbLine
 62
7
  6
CONTINUOUS
 10
-101.4926662267
 20
-30.2567230662
 11
-101.4902565237
 21
-30.2735802052
  0
LINE
  5
4AD
100
AcDbEntity
  8
RACCORDO
100
AcDbLine
 62
7
  6
CONTINUOUS
 10
-101.4907057848
 20
-30.2703849356
 11
-101.4878024679
 21
-30.291495371
  0
LINE
  5
4AE
100
AcDbEntity
  8
RACCORDO
100
AcDbLine
 62
7
  6
CONTINUOUS
 10
-101.4888008884
 20
-30.2841093828
 11
-101.4866141321
 21
-30.3004722742
  0
LINE
  5
4AF
100
AcDbEntity
  8
RACCORDO
100
AcDbLine
 62
7
  6
CONTINUOUS
 10
-101.486952322
 20
-30.2978962183
 11
-101.4843153362
 21
-30.3184642128
  0
LINE
  5
4B0
100
AcDbEntity
  8
RACCORDO
100
AcDbLine
 62
7
  6
CONTINUOUS
 10
-101.4851605582
 20
-30.3117477226
 11
-101.4832050826
 21
-30.3274789503
  0
LINE
  5
4B1
100
AcDbEntity
  8
RACCORDO
100
AcDbLine
 62
7
  6
CONTINUOUS
 10
-101.483426421
 20
-30.3256636971
 11
-101.4810633457
 21
-30.3455454445
  0
LINE
  5
4B2
100
AcDbEntity
  8
RACCORDO
100
AcDbLine
 62
7
  6
CONTINUOUS
 10
-101.4817507374
 20
-30.3396439361
 11
-101.4790273008
 21
-30.3636603431
  0
LINE
  5
4B3
100
AcDbEntity
  8
RACCORDO
100
AcDbLine
 62
7
  6
CONTINUOUS
 10
-101.4801340572
 20
-30.3536907076
 11
-101.478577248
 21
-30.3678037952
  0
LINE
  5
4B4
100
AcDbEntity
  8
RACCORDO
100
AcDbLine
 62
7
  6
CONTINUOUS
 10
-101.4664842637
 20
-30.5127083404
 11
-101.4655817843
 21
-30.5287057647
  0
LINE
  5
4B5
100
AcDbEntity
  8
RACCORDO
100
AcDbLine
 62
7
  6
CONTINUOUS
 10
-101.4656419876
 20
-30.5275892788
 11
-101.4646429269
 21
-30.5472482897
  0
LINE
  5
4B6
100
AcDbEntity
  8
RACCORDO
100
AcDbLine
 62
7
  6
CONTINUOUS
 10
-101.4648702602
 20
-30.542543316
 11
-101.463817544
 21
-30.5658276829
  0
LINE
  5
4B7
100
AcDbEntity
  8
RACCORDO
100
AcDbLine
 62
7
  6
CONTINUOUS
 10
-101.4641701351
 20
-30.5575701329
 11
-101.4634476041
 21
-30.5751308346
  0
LINE
  5
4B8
100
AcDbEntity
  8
RACCORDO
100
AcDbLine
 62
7
  6
CONTINUOUS
 10
-101.4635425721
 20
-30.5726718948
 11
-101.4627936107
 21
-30.5937634585
  0
LINE
  5
4B9
100
AcDbEntity
  8
RACCORDO
100
AcDbLine
 62
7
  6
CONTINUOUS
 10
-101.4629886697
 20
-30.5878482634
 11
-101.4622546439
 21
-30.6124301253
  0
LINE
  5
4BA
100
AcDbEntity
  8
RACCORDO
100
AcDbLine
 62
7
  6
CONTINUOUS
 10
-101.4625095297
 20
-30.6030988894
 11
-101.4620284805
 21
-30.6217759457
  0
LINE
  5
4BB
100
AcDbEntity
  8
RACCORDO
100
AcDbLine
 62
7
  6
CONTINUOUS
 10
-101.4621061985
 20
-30.6184259088
 11
-101.461663165
 21
-30.6404916474
  0
LINE
  5
4BC
100
AcDbEntity
  8
RACCORDO
100
AcDbLine
 62
7
  6
CONTINUOUS
 10
-101.4617798235
 20
-30.633828951
 11
-101.4614143389
 21
-30.6592386756
  0
LINE
  5
4BD
100
AcDbEntity
  8
SUPERFICI
100
AcDbLine
 62
7
  6
CONTINUOUS
 10
-101.4592032341
 20
-31.1996507182
 11
-101.4567881232
 21
-31.3889988286
  0
LINE
  5
4BE
100
AcDbEntity
  8
RACCORDO
100
AcDbLine
 62
7
  6
CONTINUOUS
 10
-101.4615315557
 20
-30.649307634
 11
-101.461333786
 21
-30.6686235354
  0
LINE
  5
4BF
100
AcDbEntity
  8
SUPERFICI
100
AcDbLine
 62
7
  6
CONTINUOUS
 10
-101.4607686353
 20
-31.00246454
 11
-101.459070514
 21
-31.2122220467
  0
LINE
  5
4C0
100
AcDbEntity
  8
RACCORDO
100
AcDbLine
 62
7
  6
CONTINUOUS
 10
-101.4613625292
 20
-30.6648640608
 11
-101.4612607444
 21
-30.6874153344
  0
LINE
  5
4C1
100
AcDbEntity
  8
SUPERFICI
100
AcDbLine
 62
7
  6
CONTINUOUS
 10
-101.4613537683
 20
-30.8143307599
 11
-101.4607166889
 21
-31.011760305
  0
LINE
  5
4C2
100
AcDbEntity
  8
RACCORDO
100
AcDbLine
 62
7
  6
CONTINUOUS
 10
-101.4612739413
 20
-30.6804978258
 11
-101.4612671945
 21
-30.6963004476
  0
LINE
  5
4C3
100
AcDbEntity
  8
0
100
AcDbLine
 62
7
  6
CONTINUOUS
 10
-102.2610239085
 20
18.7100053736
 11
-102.2610239085
 21
-28.2899946264
  0
LINE
  5
4C4
100
AcDbEntity
  8
RACCORDO
100
AcDbLine
 62
253
  6
CONTINUOUS
 10
-102.0610226347
 20
-4.7899935836
 11
-102.0604593146
 21
-26.9899946264
  0
LINE
  5
4C5
100
AcDbEntity
  8
RACCORDO
100
AcDbLine
 62
253
  6
CONTINUOUS
 10
-102.0604593146
 20
17.4100053736
 11
-102.0610226347
 21
-4.7899935836
  0
LINE
  5
4C6
100
AcDbEntity
  8
SUPERFICI
100
AcDbLine
 62
7
  6
CONTINUOUS
 10
-101.4611167079
 20
13.4272923801
 11
-101.4609353951
 21
3.5544041974
  0
LINE
  5
4C7
100
AcDbEntity
  8
SUPERFICI
100
AcDbLine
 62
7
  6
CONTINUOUS
 10
-101.4609353806
 20
-13.1335271561
 11
-101.4611166178
 21
-22.9983855062
  0
LINE
  5
4C8
100
AcDbEntity
  8
SUPERFICI
100
AcDbLine
 62
7
  6
CONTINUOUS
 10
-101.4612671945
 20
-30.6963006397
 11
-101.4613419507
 21
-30.8273199792
  0
LINE
  5
4C9
100
AcDbEntity
  8
SUPERFICI
100
AcDbLine
 62
7
  6
CONTINUOUS
 10
-101.461238587
 20
21.3048745834
 11
-101.4612671942
 21
21.116311258
  0
LINE
  5
4CA
100
AcDbEntity
  8
RACCORDO
100
AcDbLine
 62
7
  6
CONTINUOUS
 10
-101.4612671951
 20
21.1163113033
 11
-101.4612979673
 21
21.0945756124
  0
LINE
  5
4CB
100
AcDbEntity
  8
SUPERFICI
100
AcDbLine
 62
7
  6
CONTINUOUS
 10
-101.460301943
 20
21.4955446941
 11
-101.4612617782
 21
21.2952031729
  0
LINE
  5
4CC
100
AcDbEntity
  8
RACCORDO
100
AcDbLine
 62
7
  6
CONTINUOUS
 10
-101.4612825649
 20
21.0980266187
 11
-101.4614446137
 21
21.0763993855
  0
LINE
  5
4CD
100
AcDbEntity
  8
SUPERFICI
100
AcDbLine
 62
7
  6
CONTINUOUS
 10
-101.4586278624
 20
21.6717351047
 11
-101.4605001591
 21
21.467001805
  0
LINE
  5
4CE
100
AcDbEntity
  8
RACCORDO
100
AcDbLine
 62
7
  6
CONTINUOUS
 10
-101.4614143385
 20
21.0792494602
 11
-101.461700914
 21
21.0582518723
  0
LINE
  5
4CF
100
AcDbEntity
  8
SUPERFICI
100
AcDbLine
 62
7
  6
CONTINUOUS
 10
-101.4560030971
 20
21.8589430061
 11
-101.458796467
 21
21.657093069
  0
LINE
  5
4D0
100
AcDbEntity
  8
SUPERFICI
100
AcDbLine
 62
7
  6
CONTINUOUS
 10
-101.4525468989
 20
22.0445024373
 11
-101.4562624902
 21
21.8428717058
  0
LINE
  5
4D1
100
AcDbEntity
  8
RACCORDO
100
AcDbLine
 62
7
  6
CONTINUOUS
 10
-101.4616631643
 20
21.0605024355
 11
-101.4620663502
 21
21.0401341451
  0
LINE
  5
4D2
100
AcDbEntity
  8
SUPERFICI
100
AcDbLine
 62
7
  6
CONTINUOUS
 10
-101.4482684733
 20
22.229180408
 11
-101.452875432
 21
22.0286411143
  0
LINE
  5
4D3
100
AcDbEntity
  8
RACCORDO
100
AcDbLine
 62
7
  6
CONTINUOUS
 10
-101.4620284795
 20
21.0417867373
 11
-101.4625403911
 21
21.0220472697
  0
LINE
  5
4D4
100
AcDbEntity
  8
SUPERFICI
100
AcDbLine
 62
7
  6
CONTINUOUS
 10
-101.4430131545
 20
22.418755277
 11
-101.4486001543
 21
22.216050147
  0
LINE
  5
4D5
100
AcDbEntity
  8
RACCORDO
100
AcDbLine
 62
7
  6
CONTINUOUS
 10
-101.4625097102
 20
21.0231033952
 11
-101.4631062661
 21
21.0044535876
  0
LINE
  5
4D6
100
AcDbEntity
  8
SUPERFICI
100
AcDbLine
 62
7
  6
CONTINUOUS
 10
-101.4369086499
 20
22.6078046167
 11
-101.4435404304
 21
22.4010628999
  0
LINE
  5
4D7
100
AcDbEntity
  8
SUPERFICI
100
AcDbLine
 62
7
  6
CONTINUOUS
 10
-101.4301816435
 20
22.7908993333
 11
-101.4375639187
 21
22.5887171561
  0
LINE
  5
4D8
100
AcDbEntity
  8
RACCORDO
100
AcDbLine
 62
7
  6
CONTINUOUS
 10
-101.4631062661
 20
21.0044535876
 11
-101.4638121148
 21
20.9859698909
  0
LINE
  5
4D9
100
AcDbEntity
  8
SUPERFICI
100
AcDbLine
 62
7
  6
CONTINUOUS
 10
-101.4221722891
 20
22.9852543436
 11
-101.430337593
 21
22.7868871121
  0
LINE
  5
4DA
100
AcDbEntity
  8
RACCORDO
100
AcDbLine
 62
7
  6
CONTINUOUS
 10
-101.4638121148
 20
20.9859698909
 11
-101.4646086753
 21
20.9679814865
  0
LINE
  5
4DB
100
AcDbEntity
  8
SUPERFICI
100
AcDbLine
 62
7
  6
CONTINUOUS
 10
-101.4133650803
 20
23.177789701
 11
-101.4222275687
 21
22.9839829814
  0
LINE
  5
4DC
100
AcDbEntity
  8
SUPERFICI
100
AcDbLine
 62
7
  6
CONTINUOUS
 10
-101.4035483679
 20
23.3731898926
 11
-101.4134214367
 21
23.176614857
  0
LINE
  5
4DD
100
AcDbEntity
  8
RACCORDO
100
AcDbLine
 62
7
  6
CONTINUOUS
 10
-101.4646086753
 20
20.9679814865
 11
-101.465581781
 21
20.9487165739
  0
LINE
  5
4DE
100
AcDbEntity
  8
SUPERFICI
100
AcDbLine
 62
7
  6
CONTINUOUS
 10
-101.3923322322
 20
23.5777687277
 11
-101.4037435656
 21
23.3694679165
  0
LINE
  5
4DF
100
AcDbEntity
  8
RACCORDO
100
AcDbLine
 62
7
  6
CONTINUOUS
 10
-101.4655116062
 20
20.9500278551
 11
-101.4666334654
 21
20.9302120682
  0
LINE
  5
4E0
100
AcDbEntity
  8
SUPERFICI
100
AcDbLine
 62
7
  6
CONTINUOUS
 10
-101.3798612516
 20
23.7872683476
 11
-101.3926995244
 21
23.5713343622
  0
LINE
  5
4E1
100
AcDbEntity
  8
RACCORDO
100
AcDbLine
 62
7
  6
CONTINUOUS
 10
-101.4665203172
 20
20.932110029
 11
-101.4677973263
 21
20.9117465622
  0
LINE
  5
4E2
100
AcDbEntity
  8
SUPERFICI
100
AcDbLine
 62
7
  6
CONTINUOUS
 10
-101.3667698446
 20
23.9912413319
 11
-101.3810285421
 21
23.7683430706
  0
LINE
  5
4E3
100
AcDbEntity
  8
SUPERFICI
100
AcDbLine
 62
7
  6
CONTINUOUS
 10
-101.3525896831
 20
24.1974423241
 11
-101.3679788029
 21
23.9729965003
  0
LINE
  5
4E4
100
AcDbEntity
  8
RACCORDO
100
AcDbLine
 62
7
  6
CONTINUOUS
 10
-101.4676342052
 20
20.9142290334
 11
-101.4690726906
 21
20.8933211875
  0
LINE
  5
4E5
100
AcDbEntity
  8
SUPERFICI
100
AcDbLine
 62
7
  6
CONTINUOUS
 10
-101.3367593398
 20
24.4129234193
 11
-101.3536959373
 21
24.1818378373
  0
LINE
  5
4E6
100
AcDbEntity
  8
RACCORDO
100
AcDbLine
 62
7
  6
CONTINUOUS
 10
-101.4688526648
 20
20.8963857482
 11
-101.4704588712
 21
20.8749370668
  0
LINE
  5
4E7
100
AcDbEntity
  8
SUPERFICI
100
AcDbLine
 62
7
  6
CONTINUOUS
 10
-101.3242946159
 20
24.5734482366
 11
-101.3382640978
 21
24.3930300707
  0
LINE
  5
4E8
100
AcDbEntity
  8
RACCORDO
100
AcDbLine
 62
7
  6
CONTINUOUS
 10
-101.4701750709
 20
20.8785811839
 11
-101.47195518
 21
20.8565951594
  0
LINE
  5
4E9
100
AcDbEntity
  8
RACCORDO
100
AcDbLine
 62
7
  6
CONTINUOUS
 10
-101.471600786
 20
20.8608163436
 11
-101.4727444077
 21
20.8474404108
  0
LINE
  5
4EA
100
AcDbEntity
  8
RACCORDO
100
AcDbLine
 62
253
  6
CONTINUOUS
 10
-102.0604593146
 20
-26.9899946264
 11
-102.2610239085
 21
-26.9899946264
  0
LINE
  5
4EB
100
AcDbEntity
  8
ASSI
100
AcDbLine
 62
7
  6
CONTINUOUS
 10
-48.2610239085
 20
-21.7899946264
 11
-48.7610239085
 21
-21.7899946264
  0
LINE
  5
4EC
100
AcDbEntity
  8
0
100
AcDbLine
 62
7
  6
CONTINUOUS
 10
-48.7610239085
 20
-21.2899946264
 11
-48.5610239085
 21
-21.2899946264
  0
LINE
  5
4ED
100
AcDbEntity
  8
ASSI
100
AcDbLine
 62
7
  6
CONTINUOUS
 10
-48.2610239085
 20
-18.7899946264
 11
-48.5610239085
 21
-18.7899946264
  0
LINE
  5
4EE
100
AcDbEntity
  8
DRAFT
100
AcDbLine
 62
7
  6
CONTINUOUS
 10
-85.7610239085
 20
36.7100053736
 11
-85.7610239085
 21
-46.2899946264
  0
LINE
  5
4EF
100
AcDbEntity
  8
SUPERFICI
100
AcDbLine
 62
7
  6
CONTINUOUS
 10
-85.7610239085
 20
-46.2900021601
 11
-85.7610239085
 21
36.7100129074
  0
LINE
  5
4F0
100
AcDbEntity
  8
RACCORDO
100
AcDbLine
 62
253
  6
CONTINUOUS
 10
-97.2959391652
 20
-4.7899948569
 11
-98.7725561222
 21
-4.7903655798
  0
LINE
  5
4F1
100
AcDbEntity
  8
RACCORDO
100
AcDbLine
 62
253
  6
CONTINUOUS
 10
-102.0610226347
 20
-4.7899935836
 11
-101.4610174841
 21
-4.7898415998
  0
LINE
  5
4F2
100
AcDbEntity
  8
0
100
AcDbLine
 62
7
  6
CONTINUOUS
 10
-48.7610239085
 20
-6.5939248854
 11
-48.5610239085
 21
-6.5939246264
  0
LINE
  5
4F3
100
AcDbEntity
  8
0
100
AcDbLine
 62
7
  6
CONTINUOUS
 10
-48.7610239085
 20
-6.3937976208
 11
-48.5610239085
 21
-6.3937976264
  0
LINE
  5
4F4
100
AcDbEntity
  8
0
100
AcDbLine
 62
7
  6
CONTINUOUS
 10
-48.7610239085
 20
-6.3661156264
 11
-48.5610239085
 21
-6.3661156264
  0
LINE
  5
4F5
100
AcDbEntity
  8
0
100
AcDbLine
 62
7
  6
CONTINUOUS
 10
-48.7610239085
 20
-4.9050836264
 11
-48.5610239085
 21
-4.9050836264
  0
LINE
  5
4F6
100
AcDbEntity
  8
0
100
AcDbLine
 62
7
  6
CONTINUOUS
 10
-48.5610239085
 20
-4.8050856256
 11
-48.7610239085
 21
-4.8050856256
  0
LINE
  5
4F7
100
AcDbEntity
  8
0
100
AcDbLine
 62
7
  6
CONTINUOUS
 10
-48.7610239085
 20
-4.3311421235
 11
-48.5610239085
 21
-4.3311416264
  0
LINE
  5
4F8
100
AcDbEntity
  8
0
100
AcDbLine
 62
7
  6
CONTINUOUS
 10
-48.7610239085
 20
-4.2142593379
 11
-48.5610239085
 21
-4.2142596264
  0
LINE
  5
4F9
100
AcDbEntity
  8
0
100
AcDbLine
 62
7
  6
CONTINUOUS
 10
-77.7610239085
 20
37.5126130258
 11
-77.7610239085
 21
36.5703648542
  0
LINE
  5
4FA
100
AcDbEntity
  8
0
100
AcDbLine
 62
7
  6
CONTINUOUS
 10
-75.6110239085
 20
39.9167292155
 11
-75.6110239085
 21
39.4900053736
  0
LINE
  5
4FB
100
AcDbEntity
  8
0
100
AcDbLine
 62
7
  6
CONTINUOUS
 10
-75.1110239085
 20
39.4900053736
 11
-75.1110239085
 21
38.9900053736
  0
LINE
  5
4FC
100
AcDbEntity
  8
0
100
AcDbLine
 62
7
  6
CONTINUOUS
 10
-48.7610239085
 20
-2.5684800309
 11
-48.5610239085
 21
-2.5684800309
  0
LINE
  5
4FD
100
AcDbEntity
  8
0
100
AcDbLine
 62
7
  6
CONTINUOUS
 10
-48.5610239085
 20
-2.4889002962
 11
-48.7610239085
 21
-2.4889002962
  0
LINE
  5
4FE
100
AcDbEntity
  8
0
100
AcDbLine
 62
7
  6
CONTINUOUS
 10
-73.8610239085
 20
41.7569215942
 11
-73.8610239085
 21
41.2900053736
  0
LINE
  5
4FF
100
AcDbEntity
  8
0
100
AcDbLine
 62
7
  6
CONTINUOUS
 10
-73.2110239085
 20
41.2900053736
 11
-73.2110239085
 21
40.7900053736
  0
LINE
  5
500
100
AcDbEntity
  8
0
100
AcDbLine
 62
7
  6
CONTINUOUS
 10
-72.1110239085
 20
43.530126675
 11
-72.1110239085
 21
43.0900053736
  0
LINE
  5
501
100
AcDbEntity
  8
0
100
AcDbLine
 62
7
  6
CONTINUOUS
 10
-71.6110239085
 20
43.0900053736
 11
-71.6110239085
 21
42.5900053736
  0
LINE
  5
502
100
AcDbEntity
  8
0
100
AcDbLine
 62
7
  6
CONTINUOUS
 10
-67.8610239085
 20
45.2291647831
 11
-67.8610239085
 21
44.8900053736
  0
LINE
  5
503
100
AcDbEntity
  8
0
100
AcDbLine
 62
7
  6
CONTINUOUS
 10
-67.3610239085
 20
44.8900053736
 11
-67.3610239085
 21
44.3900053736
  0
LINE
  5
504
100
AcDbEntity
  8
ASSI
100
AcDbLine
 62
7
  6
CONTINUOUS
 10
-48.2610239085
 20
9.2100053736
 11
-48.5610239085
 21
9.2100053736
  0
LINE
  5
505
100
AcDbEntity
  8
0
100
AcDbLine
 62
7
  6
CONTINUOUS
 10
-48.7610239085
 20
11.7100053736
 11
-48.5610239085
 21
11.7100053736
  0
LINE
  5
506
100
AcDbEntity
  8
ASSI
100
AcDbLine
 62
7
  6
CONTINUOUS
 10
-48.7610239085
 20
12.2100053736
 11
-48.2610239085
 21
12.2100053736
  0
LINE
  5
507
100
AcDbEntity
  8
0
100
AcDbLine
 62
7
  6
CONTINUOUS
 10
-60.1610239085
 20
44.8900053736
 11
-60.1610239085
 21
44.3900053736
  0
LINE
  5
508
100
AcDbEntity
  8
0
100
AcDbLine
 62
7
  6
CONTINUOUS
 10
-59.6610239085
 20
45.2291647831
 11
-59.6610239085
 21
44.8900053736
  0
LINE
  5
509
100
AcDbEntity
  8
RACCORDO
100
AcDbLine
 62
253
  6
CONTINUOUS
 10
-102.0604593146
 20
17.4100053736
 11
-102.2610239085
 21
17.4100053736
  0
LINE
  5
50A
100
AcDbEntity
  8
0
100
AcDbLine
 62
7
  6
CONTINUOUS
 10
-55.9110239085
 20
43.0900053736
 11
-55.9110239085
 21
42.5900053736
  0
LINE
  5
50B
100
AcDbEntity
  8
0
100
AcDbLine
 62
7
  6
CONTINUOUS
 10
-55.4110239085
 20
43.530126675
 11
-55.4110239085
 21
43.0900053736
  0
LINE
  5
50C
100
AcDbEntity
  8
0
100
AcDbLine
 62
253
  6
CONTINUOUS
 10
-55.2749121715
 20
-33.8899946264
 11
-55.2749121715
 21
-28.6899946264
  0
LINE
  5
50D
100
AcDbEntity
  8
0
100
AcDbLine
 62
7
  6
CONTINUOUS
 10
-54.5610239085
 20
-33.8899946211
 11
-54.5610239085
 21
-28.6899946317
  0
LINE
  5
50E
100
AcDbEntity
  8
0
100
AcDbLine
 62
7
  6
CONTINUOUS
 10
-54.3110239085
 20
41.2900053736
 11
-54.3110239085
 21
40.7900053736
  0
LINE
  5
50F
100
AcDbEntity
  8
0
100
AcDbLine
 62
7
  6
CONTINUOUS
 10
-53.6610239085
 20
41.7569215942
 11
-53.6610239085
 21
41.2900053736
  0
LINE
  5
510
100
AcDbEntity
  8
0
100
AcDbLine
 62
7
  6
CONTINUOUS
 10
-52.4110239085
 20
39.4900053736
 11
-52.4110239085
 21
38.9900053736
  0
LINE
  5
511
100
AcDbEntity
  8
0
100
AcDbLine
 62
7
  6
CONTINUOUS
 10
-51.9110239085
 20
39.9167292155
 11
-51.9110239085
 21
39.4900053736
  0
LINE
  5
512
100
AcDbEntity
  8
RACCORDO
100
AcDbLine
 62
253
  6
CONTINUOUS
 10
-49.8418262614
 20
36.0830334465
 11
-49.8418262614
 21
30.7100053736
  0
LINE
  5
513
100
AcDbEntity
  8
0
100
AcDbLine
 62
253
  6
CONTINUOUS
 10
-49.8418262614
 20
30.7100053736
 11
-49.8418262614
 21
-27.7133921814
  0
LINE
  5
514
100
AcDbEntity
  8
0
100
AcDbLine
 62
253
  6
CONTINUOUS
 10
-49.8418262614
 20
-34.8665970672
 11
-49.8418262614
 21
-40.2899946264
  0
LINE
  5
515
100
AcDbEntity
  8
RACCORDO
100
AcDbLine
 62
253
  6
CONTINUOUS
 10
-49.8418262614
 20
-40.2899946264
 11
-49.8418262614
 21
-45.6630226993
  0
LINE
  5
516
100
AcDbEntity
  8
0
100
AcDbLine
 62
7
  6
CONTINUOUS
 10
-49.7610239085
 20
37.5126130258
 11
-49.7610239085
 21
36.0900053736
  0
LINE
  5
517
100
AcDbEntity
  8
0
100
AcDbLine
 62
7
  6
CONTINUOUS
 10
-49.0353391163
 20
-28.3899946264
 11
-49.0353391163
 21
-34.1899946264
  0
LINE
  5
518
100
AcDbEntity
  8
RACCORDO
100
AcDbLine
 62
7
  6
CONTINUOUS
 10
-48.7610691805
 20
34.9857946093
 11
-48.7610691805
 21
-44.565783862
  0
LINE
  5
519
100
AcDbEntity
  8
0
100
AcDbLine
 62
7
  6
CONTINUOUS
 10
-48.5610239085
 20
11.7100053736
 11
-48.5610239085
 21
-21.2899946264
  0
LINE
  5
51A
100
AcDbEntity
  8
RACCORDO
100
AcDbLine
 62
253
  6
CONTINUOUS
 10
-48.2610239085
 20
31.2100053736
 11
-48.2610239085
 21
9.2100053736
  0
LINE
  5
51B
100
AcDbEntity
  8
RACCORDO
100
AcDbLine
 62
253
  6
CONTINUOUS
 10
-48.2610239085
 20
-18.7899946264
 11
-48.2610239085
 21
-40.7899946264
  0
LINE
  5
51C
100
AcDbEntity
  8
RACCORDO
100
AcDbLine
 62
7
  6
CONTINUOUS
 10
-47.7610239085
 20
30.7097601077
 11
-47.7610239085
 21
9.7100059283
  0
LINE
  5
51D
100
AcDbEntity
  8
RACCORDO
100
AcDbLine
 62
7
  6
CONTINUOUS
 10
-47.7610239085
 20
-19.289995181
 11
-47.7610239085
 21
-40.2899944061
  0
LINE
  5
51E
100
AcDbEntity
  8
RACCORDO
100
AcDbLine
 62
253
  6
CONTINUOUS
 10
-48.7610269679
 20
30.7100053736
 11
-97.2463254176
 21
30.7100053424
  0
LINE
  5
51F
100
AcDbEntity
  8
ASSI
100
AcDbLine
 62
7
  6
CONTINUOUS
 10
-48.7610239085
 20
31.2100053736
 11
-48.2610239085
 21
31.2100053736
  0
LINE
  5
520
100
AcDbEntity
  8
0
100
AcDbLine
 62
7
  6
CONTINUOUS
 10
-50.2412476975
 20
36.0900053736
 11
-49.7610239085
 21
36.0900053736
  0
LINE
  5
521
100
AcDbEntity
  8
0
100
AcDbLine
 62
7
  6
CONTINUOUS
 10
-75.1110239085
 20
38.9900053736
 11
-77.0198429509
 21
38.4785388528
  0
LINE
  5
522
100
AcDbEntity
  8
0
100
AcDbLine
 62
7
  6
CONTINUOUS
 10
-73.2110239085
 20
40.7900053736
 11
-75.3886696165
 21
40.2065069648
  0
LINE
  5
523
100
AcDbEntity
  8
RACCORDO
100
AcDbLine
 62
7
  6
CONTINUOUS
 10
-97.4652381264
 20
36.498529605
 11
-97.6404119644
 21
36.4726814299
  0
LINE
  5
524
100
AcDbEntity
  8
RACCORDO
100
AcDbLine
 62
7
  6
CONTINUOUS
 10
-97.29606394
 20
36.5086643441
 11
-97.4679993396
 21
36.4982444057
  0
LINE
  5
525
100
AcDbEntity
  8
RACCORDO
100
AcDbLine
 62
7
  6
CONTINUOUS
 10
-85.7610239085
 20
36.7100129074
 11
-97.2964608825
 21
36.5086573789
  0
LINE
  5
526
100
AcDbEntity
  8
RACCORDO
100
AcDbLine
 62
7
  6
CONTINUOUS
 10
-97.2960586481
 20
36.5086644864
 11
-97.2959255977
 21
36.5086667829
  0
LINE
  5
527
100
AcDbEntity
  8
RACCORDO
100
AcDbLine
 62
253
  6
CONTINUOUS
 10
-77.7610239085
 20
37.5126130259
 11
-49.7610239085
 21
37.5126130259
  0
LINE
  5
528
100
AcDbEntity
  8
RACCORDO
100
AcDbLine
 62
253
  6
CONTINUOUS
 10
-77.0198429502
 20
38.4785388529
 11
-50.5022048668
 21
38.4785388529
  0
LINE
  5
529
100
AcDbEntity
  8
0
100
AcDbLine
 62
7
  6
CONTINUOUS
 10
-52.4110239085
 20
38.9900053736
 11
-75.1110239085
 21
38.9900053736
  0
LINE
  5
52A
100
AcDbEntity
  8
0
100
AcDbLine
 62
7
  6
CONTINUOUS
 10
-51.9110239085
 20
39.4900053736
 11
-75.6110239085
 21
39.4900053736
  0
LINE
  5
52B
100
AcDbEntity
  8
RACCORDO
100
AcDbLine
 62
7
  6
CONTINUOUS
 10
-49.8418262614
 20
36.0830334465
 11
-85.7610239085
 21
36.7100053736
  0
LINE
  5
52C
100
AcDbEntity
  8
0
100
AcDbLine
 62
7
  6
CONTINUOUS
 10
-71.6110239085
 20
42.5900053736
 11
-73.6386696244
 21
42.0466993415
  0
LINE
  5
52D
100
AcDbEntity
  8
0
100
AcDbLine
 62
7
  6
CONTINUOUS
 10
-69.7610239085
 20
44.3900053736
 11
-71.8886696225
 21
43.8199044228
  0
LINE
  5
52E
100
AcDbEntity
  8
0
100
AcDbLine
 62
7
  6
CONTINUOUS
 10
-64.7610239085
 20
46.2900053736
 11
-67.6386695656
 21
45.5189425437
  0
LINE
  5
52F
100
AcDbEntity
  8
RACCORDO
100
AcDbLine
 62
7
  6
CONTINUOUS
 10
-97.6353332146
 20
36.4736555165
 11
-97.8099902033
 21
36.4321911361
  0
LINE
  5
530
100
AcDbEntity
  8
RACCORDO
100
AcDbLine
 62
253
  6
CONTINUOUS
 10
-75.6110239085
 20
39.9167292155
 11
-51.9110239085
 21
39.9167292155
  0
LINE
  5
531
100
AcDbEntity
  8
RACCORDO
100
AcDbLine
 62
253
  6
CONTINUOUS
 10
-75.3886696159
 20
40.206506965
 11
-52.1333782011
 21
40.206506965
  0
LINE
  5
532
100
AcDbEntity
  8
0
100
AcDbLine
 62
7
  6
CONTINUOUS
 10
-54.3110239085
 20
40.7900053736
 11
-73.2110239085
 21
40.7900053736
  0
LINE
  5
533
100
AcDbEntity
  8
0
100
AcDbLine
 62
7
  6
CONTINUOUS
 10
-53.6610239085
 20
41.2900053736
 11
-73.8610239085
 21
41.2900053736
  0
LINE
  5
534
100
AcDbEntity
  8
RACCORDO
100
AcDbLine
 62
253
  6
CONTINUOUS
 10
-73.8610239085
 20
41.7569215942
 11
-53.6610239085
 21
41.7569215942
  0
LINE
  5
535
100
AcDbEntity
  8
RACCORDO
100
AcDbLine
 62
253
  6
CONTINUOUS
 10
-73.6386696295
 20
42.0466993402
 11
-53.8833781875
 21
42.0466993402
  0
LINE
  5
536
100
AcDbEntity
  8
0
100
AcDbLine
 62
7
  6
CONTINUOUS
 10
-55.9110239085
 20
42.5900053736
 11
-71.6110239085
 21
42.5900053736
  0
LINE
  5
537
100
AcDbEntity
  8
0
100
AcDbLine
 62
7
  6
CONTINUOUS
 10
-55.4110919245
 20
43.0900053736
 11
-72.1109558926
 21
43.0900053736
  0
LINE
  5
538
100
AcDbEntity
  8
RACCORDO
100
AcDbLine
 62
253
  6
CONTINUOUS
 10
-72.1110239085
 20
43.5301266749
 11
-55.4110239085
 21
43.5301266749
  0
LINE
  5
539
100
AcDbEntity
  8
RACCORDO
100
AcDbLine
 62
253
  6
CONTINUOUS
 10
-71.8886696285
 20
43.8199044212
 11
-55.6333781886
 21
43.8199044212
  0
LINE
  5
53A
100
AcDbEntity
  8
0
100
AcDbLine
 62
7
  6
CONTINUOUS
 10
-57.7610942117
 20
44.3900053736
 11
-69.7609536054
 21
44.3900053736
  0
LINE
  5
53B
100
AcDbEntity
  8
0
100
AcDbLine
 62
7
  6
CONTINUOUS
 10
-59.6610955708
 20
44.8900053736
 11
-67.8609522462
 21
44.8900053736
  0
LINE
  5
53C
100
AcDbEntity
  8
RACCORDO
100
AcDbLine
 62
253
  6
CONTINUOUS
 10
-67.8610239085
 20
45.2291647831
 11
-59.6610239085
 21
45.2291647831
  0
LINE
  5
53D
100
AcDbEntity
  8
RACCORDO
100
AcDbLine
 62
253
  6
CONTINUOUS
 10
-67.6386695656
 20
45.5189425437
 11
-59.8833782515
 21
45.5189425437
  0
LINE
  5
53E
100
AcDbEntity
  8
0
100
AcDbLine
 62
7
  6
CONTINUOUS
 10
-62.7611034555
 20
46.2900053736
 11
-64.7609443615
 21
46.2900053736
  0
LINE
  5
53F
100
AcDbEntity
  8
0
100
AcDbLine
 62
7
  6
CONTINUOUS
 10
-52.4110239085
 20
38.9900053736
 11
-50.5022048662
 21
38.4785388528
  0
LINE
  5
540
100
AcDbEntity
  8
0
100
AcDbLine
 62
7
  6
CONTINUOUS
 10
-54.3110239085
 20
40.7900053736
 11
-52.1333782005
 21
40.2065069648
  0
LINE
  5
541
100
AcDbEntity
  8
0
100
AcDbLine
 62
7
  6
CONTINUOUS
 10
-55.9110239085
 20
42.5900053736
 11
-53.8833781927
 21
42.0466993415
  0
LINE
  5
542
100
AcDbEntity
  8
0
100
AcDbLine
 62
7
  6
CONTINUOUS
 10
-57.7610239085
 20
44.3900053736
 11
-55.6333781945
 21
43.8199044228
  0
LINE
  5
543
100
AcDbEntity
  8
0
100
AcDbLine
 62
7
  6
CONTINUOUS
 10
-62.7610239085
 20
46.2900053736
 11
-59.8833782515
 21
45.5189425437
  0
ARC
  5
544
100
AcDbEntity
  8
0
100
AcDbCircle
 62
7
  6
CONTINUOUS
 10
-41.0098389156
 20
-106.6297623942
 40
68.1675678913
100
AcDbArc
 50
77.5622418143
 51
77.9769604184
  0
ARC
  5
545
100
AcDbEntity
  8
0
100
AcDbCircle
 62
7
  6
CONTINUOUS
 10
-34.6512172125
 20
-54.4508437351
 40
16.3392586119
100
AcDbArc
 50
63.8020617908
 51
63.9650284022
  0
ARC
  5
546
100
AcDbEntity
  8
0
100
AcDbCircle
 62
7
  6
CONTINUOUS
 10
-42.1604077314
 20
-46.9409967027
 40
16.3387675953
100
AcDbArc
 50
26.0349730838
 51
26.1979446202
  0
ARC
  5
547
100
AcDbEntity
  8
0
100
AcDbCircle
 62
7
  6
CONTINUOUS
 10
-42.1259263135
 20
-33.6558248145
 40
16.3003971223
100
AcDbArc
 50
333.8016338065
 51
333.9649905687
  0
ARC
  5
548
100
AcDbEntity
  8
0
100
AcDbCircle
 62
7
  6
CONTINUOUS
 10
-34.6325196475
 20
-26.1674939371
 40
16.2965948192
100
AcDbArc
 50
296.0350827721
 51
296.1984782953
  0
ARC
  5
549
100
AcDbEntity
  8
0
100
AcDbCircle
 62
7
  6
CONTINUOUS
 10
-40.435571292
 20
-34.4193917435
 40
14.5897650621
100
AcDbArc
 50
333.3130487244
 51
333.5527387092
  0
ARC
  5
54A
100
AcDbEntity
  8
0
100
AcDbCircle
 62
7
  6
CONTINUOUS
 10
-40.3953036777
 20
-46.1404172
 40
14.5447241032
100
AcDbArc
 50
26.4467334955
 51
26.6871679444
  0
ARC
  5
54B
100
AcDbEntity
  8
SUPERFICI
100
AcDbCircle
 62
7
  6
CONTINUOUS
 10
-27.9999972513
 20
-40.2899918777
 40
6.0000091571
100
AcDbArc
 50
180.0006581054
 51
270.0002953473
  0
ARC
  5
54C
100
AcDbEntity
  8
DRAFT
100
AcDbCircle
 62
7
  6
CONTINUOUS
 10
-28.0
 20
-40.2899946264
 40
6.0
100
AcDbArc
 50
180.0
 51
270.0
  0
ARC
  5
54D
100
AcDbEntity
  8
DRAFT
100
AcDbCircle
 62
7
  6
CONTINUOUS
 10
-27.9980719689
 20
-40.2857527829
 40
3.3021867771
100
AcDbArc
 50
359.9264010348
 51
180.0735942093
  0
CIRCLE
  5
54E
100
AcDbEntity
  8
DRAFT
100
AcDbCircle
 62
7
  6
CONTINUOUS
 10
-28.0
 20
-40.2899946264
 40
3.25
  0
CIRCLE
  5
54F
100
AcDbEntity
  8
0
100
AcDbCircle
 62
7
  6
CONTINUOUS
 10
-28.0
 20
-40.2899946264
 40
3.0
  0
ARC
  5
550
100
AcDbEntity
  8
0
100
AcDbCircle
 62
7
  6
CONTINUOUS
 10
-28.0
 20
-40.2899946264
 40
2.8950136038
100
AcDbArc
 50
258.0385857315
 51
281.9614142685
  0
ARC
  5
551
100
AcDbEntity
  8
0
100
AcDbCircle
 62
7
  6
CONTINUOUS
 10
-28.0
 20
-40.2899946264
 40
2.8950136038
100
AcDbArc
 50
78.0385857315
 51
101.9614142685
  0
ARC
  5
552
100
AcDbEntity
  8
0
100
AcDbCircle
 62
7
  6
CONTINUOUS
 10
-28.0
 20
-40.2899946264
 40
2.8155023425
100
AcDbArc
 50
102.3044249574
 51
257.6955750426
  0
ARC
  5
553
100
AcDbEntity
  8
0
100
AcDbCircle
 62
7
  6
CONTINUOUS
 10
-28.0
 20
-40.2899946264
 40
2.8155023425
100
AcDbArc
 50
282.3044249574
 51
77.6955750426
  0
ARC
  5
554
100
AcDbEntity
  8
0
100
AcDbCircle
 62
7
  6
CONTINUOUS
 10
-28.0
 20
-40.2899946264
 40
1.6874840352
100
AcDbArc
 50
172.230101045
 51
187.7632444202
  0
ARC
  5
555
100
AcDbEntity
  8
0
100
AcDbCircle
 62
7
  6
CONTINUOUS
 10
-28.0
 20
-40.2899946264
 40
1.6874840352
100
AcDbArc
 50
352.2301010241
 51
7.7632444202
  0
ARC
  5
556
100
AcDbEntity
  8
TRASH
100
AcDbCircle
 62
7
  6
CONTINUOUS
 10
-28.0
 20
-40.2899946264
 40
1.1472328625
100
AcDbArc
 50
347.9845776281
 51
12.0153200785
  0
ARC
  5
557
100
AcDbEntity
  8
TRASH
100
AcDbCircle
 62
7
  6
CONTINUOUS
 10
-28.0
 20
-40.2899946264
 40
1.1472328625
100
AcDbArc
 50
167.9845776281
 51
192.0153200785
  0
ARC
  5
558
100
AcDbEntity
  8
0
100
AcDbCircle
 62
7
  6
CONTINUOUS
 10
-28.0
 20
-40.2899946264
 40
0.7522905861
100
AcDbArc
 50
138.3509867785
 51
142.8981211086
  0
ARC
  5
559
100
AcDbEntity
  8
0
100
AcDbCircle
 62
7
  6
CONTINUOUS
 10
-28.0
 20
-40.2899946264
 40
0.7522905861
100
AcDbArc
 50
48.3509342563
 51
131.6490283615
  0
ARC
  5
55A
100
AcDbEntity
  8
0
100
AcDbCircle
 62
7
  6
CONTINUOUS
 10
-28.0
 20
-40.2899946264
 40
0.7522905861
100
AcDbArc
 50
37.1018788914
 51
41.6490663885
  0
ARC
  5
55B
100
AcDbEntity
  8
0
100
AcDbCircle
 62
7
  6
CONTINUOUS
 10
-28.0
 20
-40.2899946264
 40
0.7522905861
100
AcDbArc
 50
318.3509867785
 51
322.8981211086
  0
ARC
  5
55C
100
AcDbEntity
  8
0
100
AcDbCircle
 62
7
  6
CONTINUOUS
 10
-28.0
 20
-40.2899946264
 40
0.7522905861
100
AcDbArc
 50
228.3509342563
 51
311.6490283615
  0
ARC
  5
55D
100
AcDbEntity
  8
0
100
AcDbCircle
 62
7
  6
CONTINUOUS
 10
-28.0
 20
-40.2899946264
 40
0.7522905861
100
AcDbArc
 50
217.1018788914
 51
221.6490663885
  0
ARC
  5
55E
100
AcDbEntity
  8
0
100
AcDbCircle
 62
7
  6
CONTINUOUS
 10
-16.5972347453
 20
-99.3885909434
 40
60.7503985821
100
AcDbArc
 50
101.9634542625
 51
102.4284885029
  0
ARC
  5
55F
100
AcDbEntity
  8
0
100
AcDbCircle
 62
7
  6
CONTINUOUS
 10
-13.8395922719
 20
-33.6389925516
 40
16.3387675916
100
AcDbArc
 50
206.0349730838
 51
206.1979446203
  0
ARC
  5
560
100
AcDbEntity
  8
0
100
AcDbCircle
 62
7
  6
CONTINUOUS
 10
-21.3493565224
 20
-26.1303158054
 40
16.337955254
100
AcDbArc
 50
243.8020552904
 51
243.9650349025
  0
ARC
  5
561
100
AcDbEntity
  8
0
100
AcDbCircle
 62
7
  6
CONTINUOUS
 10
-13.8740736823
 20
-46.9241644403
 40
16.3003971269
100
AcDbArc
 50
153.8016338066
 51
153.9649905686
  0
ARC
  5
562
100
AcDbEntity
  8
0
100
AcDbCircle
 62
7
  6
CONTINUOUS
 10
-21.3674640508
 20
-54.412528567
 40
16.2966318515
100
AcDbArc
 50
116.0350829578
 51
116.1984781096
  0
ARC
  5
563
100
AcDbEntity
  8
0
100
AcDbCircle
 62
7
  6
CONTINUOUS
 10
-15.5644287083
 20
-46.160597509
 40
14.5897650617
100
AcDbArc
 50
153.3130487244
 51
153.5527387092
  0
ARC
  5
564
100
AcDbEntity
  8
0
100
AcDbCircle
 62
7
  6
CONTINUOUS
 10
-15.6046963219
 20
-34.4395720525
 40
14.5447241037
100
AcDbArc
 50
206.4467334955
 51
206.6871679444
  0
ARC
  5
565
100
AcDbEntity
  8
DRAFT
100
AcDbCircle
 62
253
  6
CONTINUOUS
 10
-17.5
 20
-31.2899946264
 40
8.5
100
AcDbArc
 50
28.8579436488
 51
126.0325656252
  0
ARC
  5
566
100
AcDbEntity
  8
RACCORDO
100
AcDbCircle
 62
7
  6
CONTINUOUS
 10
-17.5
 20
-31.2899946264
 40
8.0
100
AcDbArc
 50
30.8422934647
 51
128.7042795703
  0
ARC
  5
567
100
AcDbEntity
  8
DRAFT
100
AcDbCircle
 62
7
  6
CONTINUOUS
 10
-17.5
 20
-31.2899946264
 40
6.7587268678
100
AcDbArc
 50
37.3651047248
 51
137.7556647393
  0
ARC
  5
568
100
AcDbEntity
  8
RACCORDO
100
AcDbCircle
 62
7
  6
CONTINUOUS
 10
-17.5
 20
-31.2899946264
 40
6.7255114612
100
AcDbArc
 50
37.5600736155
 51
138.0315156884
  0
ARC
  5
569
100
AcDbEntity
  8
RACCORDO
100
AcDbCircle
 62
253
  6
CONTINUOUS
 10
-17.5
 20
-31.2899946264
 40
6.0255357179
100
AcDbArc
 50
42.8811645075
 51
138.4066527467
  0
ARC
  5
56A
100
AcDbEntity
  8
DRAFT
100
AcDbCircle
 62
7
  6
CONTINUOUS
 10
-17.5
 20
-31.2899946264
 40
5.7805440373
100
AcDbArc
 50
45.2189084865
 51
136.1836965213
  0
ARC
  5
56B
100
AcDbEntity
  8
DRAFT
100
AcDbCircle
 62
7
  6
CONTINUOUS
 10
-17.5
 20
-31.2899946264
 40
5.7412731322
100
AcDbArc
 50
45.6123437132
 51
135.7999748249
  0
ARC
  5
56C
100
AcDbEntity
  8
ASSI
100
AcDbCircle
 62
7
  6
CONTINUOUS
 10
-22.0
 20
-17.2899946264
 40
3.0
100
AcDbArc
 50
260.4065860679
 51
97.6695067007
  0
ARC
  5
56D
100
AcDbEntity
  8
ASSI
100
AcDbCircle
 62
7
  6
CONTINUOUS
 10
-22.0
 20
-17.2899946264
 40
2.68
100
AcDbArc
 50
259.246777948
 51
98.5831012904
  0
ARC
  5
56E
100
AcDbEntity
  8
ASSI
100
AcDbCircle
 62
7
  6
CONTINUOUS
 10
-6.189592
 20
-27.3820926264
 40
0.49219
100
AcDbArc
 50
10.8459071712
 51
169.1540928288
  0
ARC
  5
56F
100
AcDbEntity
  8
0
100
AcDbCircle
 62
7
  6
CONTINUOUS
 10
-22.2
 20
-26.9899946264
 40
0.3
100
AcDbArc
 50
180.0
 51
270.0
  0
ARC
  5
570
100
AcDbEntity
  8
0
100
AcDbCircle
 62
7
  6
CONTINUOUS
 10
-14.922624873
 20
26.361343867
 40
68.4863730366
100
AcDbArc
 50
257.5632077456
 51
257.9759958253
  0
ARC
  5
571
100
AcDbEntity
  8
0
100
AcDbCircle
 62
7
  6
CONTINUOUS
 10
-39.4027655339
 20
18.8086032242
 40
60.7504001406
100
AcDbArc
 50
281.9634542192
 51
282.4284884486
  0
ARC
  5
572
100
AcDbEntity
  8
ASSI
100
AcDbCircle
 62
253
  6
CONTINUOUS
 10
-17.5
 20
21.7100053736
 40
8.5
100
AcDbArc
 50
233.9499009213
 51
331.1432503009
  0
ARC
  5
573
100
AcDbEntity
  8
RACCORDO
100
AcDbCircle
 62
7
  6
CONTINUOUS
 10
-17.5
 20
21.7100053736
 40
8.0
100
AcDbArc
 50
231.2957204297
 51
329.1577065353
  0
ARC
  5
574
100
AcDbEntity
  8
SUPERFICI
100
AcDbCircle
 62
7
  6
CONTINUOUS
 10
-28.0000028528
 20
30.7100082264
 40
6.0000048868
100
AcDbArc
 50
89.9997816353
 51
180.000067234
  0
ARC
  5
575
100
AcDbEntity
  8
DRAFT
100
AcDbCircle
 62
7
  6
CONTINUOUS
 10
-28.0
 20
30.7100053736
 40
6.0
100
AcDbArc
 50
90.0
 51
180.0
  0
ARC
  5
576
100
AcDbEntity
  8
RACCORDO
100
AcDbCircle
 62
7
  6
CONTINUOUS
 10
-13.0
 20
37.5126130257
 40
1.0
100
AcDbArc
 50
105.0
 51
180.0
  0
ARC
  5
577
100
AcDbEntity
  8
RACCORDO
100
AcDbCircle
 62
7
  6
CONTINUOUS
 10
-3.8
 20
45.2291647807
 40
0.3
100
AcDbArc
 50
104.9999999924
 51
180.0
  0
ARC
  5
578
100
AcDbEntity
  8
RACCORDO
100
AcDbCircle
 62
7
  6
CONTINUOUS
 10
-11.55
 20
39.9167292154
 40
0.3
100
AcDbArc
 50
104.9999999999
 51
180.0
  0
ARC
  5
579
100
AcDbEntity
  8
RACCORDO
100
AcDbCircle
 62
7
  6
CONTINUOUS
 10
-9.8
 20
41.7569215943
 40
0.3
100
AcDbArc
 50
104.9999999999
 51
180.0
  0
ARC
  5
57A
100
AcDbEntity
  8
RACCORDO
100
AcDbCircle
 62
7
  6
CONTINUOUS
 10
-8.05
 20
43.530126675
 40
0.3
100
AcDbArc
 50
104.9999999998
 51
180.0
  0
ARC
  5
57B
100
AcDbEntity
  8
0
100
AcDbCircle
 62
7
  6
CONTINUOUS
 10
-22.2
 20
17.4100053736
 40
0.3
100
AcDbArc
 50
90.0
 51
180.0
  0
ARC
  5
57C
100
AcDbEntity
  8
0
100
AcDbCircle
 62
7
  6
CONTINUOUS
 10
14.9901610844
 20
-35.6297623942
 40
68.1675678913
100
AcDbArc
 50
77.5622418143
 51
77.9769604184
  0
ARC
  5
57D
100
AcDbEntity
  8
0
100
AcDbCircle
 62
7
  6
CONTINUOUS
 10
39.4027652546
 20
-28.388590943
 40
60.7503985818
100
AcDbArc
 50
101.9634542625
 51
102.4284885029
  0
ARC
  5
57E
100
AcDbEntity
  8
RACCORDO
100
AcDbCircle
 62
253
  6
CONTINUOUS
 10
17.5
 20
-31.2899946264
 40
8.4999986766
100
AcDbArc
 50
53.9502712595
 51
151.1445798583
  0
ARC
  5
57F
100
AcDbEntity
  8
RACCORDO
100
AcDbCircle
 62
7
  6
CONTINUOUS
 10
17.5
 20
-31.2899946264
 40
8.0
100
AcDbArc
 50
51.2957204297
 51
149.1577065353
  0
ARC
  5
580
100
AcDbEntity
  8
SUPERFICI
100
AcDbCircle
 62
7
  6
CONTINUOUS
 10
27.9999972513
 20
-40.2899918777
 40
6.0000091571
100
AcDbArc
 50
270.0000162136
 51
359.9993418946
  0
ARC
  5
581
100
AcDbEntity
  8
DRAFT
100
AcDbCircle
 62
7
  6
CONTINUOUS
 10
28.0
 20
-40.2899946264
 40
6.0
100
AcDbArc
 50
270.0
 51
360.0
  0
CIRCLE
  5
582
100
AcDbEntity
  8
RACCORDO
100
AcDbCircle
 62
253
  6
CONTINUOUS
 10
0.0
 20
-23.5899946264
 40
3.4999943975
  0
CIRCLE
  5
583
100
AcDbEntity
  8
RACCORDO
100
AcDbCircle
 62
7
  6
CONTINUOUS
 10
0.0
 20
-23.5899946264
 40
3.0
  0
ARC
  5
584
100
AcDbEntity
  8
ASSI
100
AcDbCircle
 62
7
  6
CONTINUOUS
 10
20.917556
 20
-4.7899946264
 40
2.5499986575
100
AcDbArc
 50
87.75252881
 51
272.2474707873
  0
ARC
  5
585
100
AcDbEntity
  8
ASSI
100
AcDbCircle
 62
7
  6
CONTINUOUS
 10
16.532446
 20
-4.7899946264
 40
2.5499985399
100
AcDbArc
 50
87.7525290943
 51
272.2474708905
  0
ARC
  5
586
100
AcDbEntity
  8
ASSI
100
AcDbCircle
 62
7
  6
CONTINUOUS
 10
16.532446
 20
-4.7899946264
 40
1.7999999246
100
AcDbArc
 50
86.8152613297
 51
273.1847386383
  0
ARC
  5
587
100
AcDbEntity
  8
ASSI
100
AcDbCircle
 62
7
  6
CONTINUOUS
 10
20.917556
 20
-4.7899946264
 40
1.7999999246
100
AcDbArc
 50
86.8152613297
 51
167.9752996292
  0
ARC
  5
588
100
AcDbEntity
  8
ASSI
100
AcDbCircle
 62
7
  6
CONTINUOUS
 10
20.917556
 20
-4.7899946264
 40
1.7999968808
100
AcDbArc
 50
192.0247203293
 51
273.1847449305
  0
CIRCLE
  5
589
100
AcDbEntity
  8
ASSI
100
AcDbCircle
 62
7
  6
CONTINUOUS
 10
0.0
 20
-23.5899946264
 40
1.3856406461
  0
ARC
  5
58A
100
AcDbEntity
  8
0
100
AcDbCircle
 62
7
  6
CONTINUOUS
 10
23.38733
 20
-32.2792596264
 40
0.8893898871
100
AcDbArc
 50
292.842868527
 51
90.0
  0
ARC
  5
58B
100
AcDbEntity
  8
0
100
AcDbCircle
 62
7
  6
CONTINUOUS
 10
23.306824
 20
-32.2792596264
 40
0.352865
100
AcDbArc
 50
270.0
 51
90.0
  0
ARC
  5
58C
100
AcDbEntity
  8
0
100
AcDbCircle
 62
7
  6
CONTINUOUS
 10
22.2
 20
-26.9899946264
 40
0.3
100
AcDbArc
 50
270.0
 51
360.0
  0
CIRCLE
  5
58D
100
AcDbEntity
  8
RACCORDO
100
AcDbCircle
 62
253
  6
CONTINUOUS
 10
0.0
 20
14.0100053736
 40
3.4999943972
  0
CIRCLE
  5
58E
100
AcDbEntity
  8
RACCORDO
100
AcDbCircle
 62
7
  6
CONTINUOUS
 10
0.0
 20
14.0100053736
 40
3.0
  0
CIRCLE
  5
58F
100
AcDbEntity
  8
ASSI
100
AcDbCircle
 62
7
  6
CONTINUOUS
 10
0.0
 20
14.0100053736
 40
1.3856406461
  0
ARC
  5
590
100
AcDbEntity
  8
RACCORDO
100
AcDbCircle
 62
7
  6
CONTINUOUS
 10
3.8
 20
45.2291647807
 40
0.3
100
AcDbArc
 50
0.0
 51
75.0000000076
  0
ARC
  5
591
100
AcDbEntity
  8
RACCORDO
100
AcDbCircle
 62
7
  6
CONTINUOUS
 10
8.05
 20
43.530126675
 40
0.3
100
AcDbArc
 50
0.0
 51
75.0000000002
  0
ARC
  5
592
100
AcDbEntity
  8
0
100
AcDbCircle
 62
7
  6
CONTINUOUS
 10
13.8395922653
 20
24.0590032956
 40
16.338767599
100
AcDbArc
 50
26.0349730838
 51
26.1979446202
  0
ARC
  5
593
100
AcDbEntity
  8
0
100
AcDbCircle
 62
7
  6
CONTINUOUS
 10
15.6046963227
 20
24.8595828002
 40
14.5447241028
100
AcDbArc
 50
26.4467334955
 51
26.6871679444
  0
ARC
  5
594
100
AcDbEntity
  8
RACCORDO
100
AcDbCircle
 62
253
  6
CONTINUOUS
 10
17.5
 20
21.7100053736
 40
8.4999986764
100
AcDbArc
 50
208.855420147
 51
306.0497287403
  0
ARC
  5
595
100
AcDbEntity
  8
RACCORDO
100
AcDbCircle
 62
7
  6
CONTINUOUS
 10
17.5
 20
21.7100053736
 40
8.0
100
AcDbArc
 50
210.8422934647
 51
308.7042795703
  0
ARC
  5
596
100
AcDbEntity
  8
DRAFT
100
AcDbCircle
 62
7
  6
CONTINUOUS
 10
17.5
 20
21.7100053736
 40
6.7587268678
100
AcDbArc
 50
217.3651047248
 51
317.7556647393
  0
ARC
  5
597
100
AcDbEntity
  8
RACCORDO
100
AcDbCircle
 62
7
  6
CONTINUOUS
 10
17.5
 20
21.7100053736
 40
6.7255114612
100
AcDbArc
 50
217.5600736155
 51
318.0315156884
  0
ARC
  5
598
100
AcDbEntity
  8
RACCORDO
100
AcDbCircle
 62
253
  6
CONTINUOUS
 10
17.5
 20
21.7100053736
 40
6.0255357179
100
AcDbArc
 50
222.8811645075
 51
318.4066527467
  0
ARC
  5
599
100
AcDbEntity
  8
DRAFT
100
AcDbCircle
 62
7
  6
CONTINUOUS
 10
17.5
 20
21.7100053736
 40
5.7805440373
100
AcDbArc
 50
225.2189084865
 51
316.1836965213
  0
ARC
  5
59A
100
AcDbEntity
  8
DRAFT
100
AcDbCircle
 62
7
  6
CONTINUOUS
 10
17.5
 20
21.7100053736
 40
5.7412731322
100
AcDbArc
 50
225.6123437132
 51
315.7999748249
  0
ARC
  5
59B
100
AcDbEntity
  8
0
100
AcDbCircle
 62
7
  6
CONTINUOUS
 10
13.8740736856
 20
37.3441751859
 40
16.3003971232
100
AcDbArc
 50
333.8016338065
 51
333.9649905686
  0
ARC
  5
59C
100
AcDbEntity
  8
0
100
AcDbCircle
 62
7
  6
CONTINUOUS
 10
15.5644287068
 20
36.5806082571
 40
14.5897650634
100
AcDbArc
 50
333.3130487244
 51
333.5527387092
  0
ARC
  5
59D
100
AcDbEntity
  8
RACCORDO
100
AcDbCircle
 62
7
  6
CONTINUOUS
 10
13.0
 20
37.5126130257
 40
1.0
100
AcDbArc
 50
0.0
 51
75.0
  0
ARC
  5
59E
100
AcDbEntity
  8
RACCORDO
100
AcDbCircle
 62
7
  6
CONTINUOUS
 10
11.55
 20
39.9167292154
 40
0.3
100
AcDbArc
 50
0.0
 51
75.0000000001
  0
ARC
  5
59F
100
AcDbEntity
  8
RACCORDO
100
AcDbCircle
 62
7
  6
CONTINUOUS
 10
9.8
 20
41.7569215943
 40
0.3
100
AcDbArc
 50
0.0
 51
75.0000000001
  0
ARC
  5
5A0
100
AcDbEntity
  8
0
100
AcDbCircle
 62
7
  6
CONTINUOUS
 10
16.5972344659
 20
89.8086032252
 40
60.7504001416
100
AcDbArc
 50
281.9634542192
 51
282.4284884486
  0
ARC
  5
5A1
100
AcDbEntity
  8
0
100
AcDbCircle
 62
7
  6
CONTINUOUS
 10
21.3487827867
 20
16.5491562632
 40
16.3392586138
100
AcDbArc
 50
63.8020617908
 51
63.9650284022
  0
ARC
  5
5A2
100
AcDbEntity
  8
0
100
AcDbCircle
 62
7
  6
CONTINUOUS
 10
42.1604077314
 20
37.36100745
 40
16.3387675952
100
AcDbArc
 50
206.0349730838
 51
206.1979446202
  0
ARC
  5
5A3
100
AcDbEntity
  8
0
100
AcDbCircle
 62
7
  6
CONTINUOUS
 10
34.6506434784
 20
44.8696841963
 40
16.3379552559
100
AcDbArc
 50
243.8020552904
 51
243.9650349025
  0
ARC
  5
5A4
100
AcDbEntity
  8
0
100
AcDbCircle
 62
7
  6
CONTINUOUS
 10
42.1259263177
 20
24.0758355597
 40
16.3003971269
100
AcDbArc
 50
153.8016338066
 51
153.9649905686
  0
ARC
  5
5A5
100
AcDbEntity
  8
0
100
AcDbCircle
 62
7
  6
CONTINUOUS
 10
34.6325359492
 20
16.587471433
 40
16.2966318515
100
AcDbArc
 50
116.0350829578
 51
116.1984781096
  0
ARC
  5
5A6
100
AcDbEntity
  8
0
100
AcDbCircle
 62
7
  6
CONTINUOUS
 10
21.3674803509
 20
44.8325060663
 40
16.2965948229
100
AcDbArc
 50
296.0350827721
 51
296.1984782953
  0
ARC
  5
5A7
100
AcDbEntity
  8
0
100
AcDbCircle
 62
7
  6
CONTINUOUS
 10
40.4355712917
 20
24.839402491
 40
14.5897650617
100
AcDbArc
 50
153.3130487244
 51
153.5527387092
  0
ARC
  5
5A8
100
AcDbEntity
  8
0
100
AcDbCircle
 62
7
  6
CONTINUOUS
 10
40.3953036781
 20
36.5604279475
 40
14.5447241037
100
AcDbArc
 50
206.4467334955
 51
206.6871679444
  0
ARC
  5
5A9
100
AcDbEntity
  8
SUPERFICI
100
AcDbCircle
 62
7
  6
CONTINUOUS
 10
28.0000028528
 20
30.7100082264
 40
6.0000048868
100
AcDbArc
 50
359.999932766
 51
89.9999082172
  0
ARC
  5
5AA
100
AcDbEntity
  8
DRAFT
100
AcDbCircle
 62
7
  6
CONTINUOUS
 10
28.0
 20
30.7100053736
 40
6.0
100
AcDbArc
 50
0.0
 51
90.0
  0
ARC
  5
5AB
100
AcDbEntity
  8
DRAFT
100
AcDbCircle
 62
7
  6
CONTINUOUS
 10
27.9980717571
 20
30.7057629116
 40
3.3021863009
100
AcDbArc
 50
179.9263902961
 51
0.0736049378
  0
CIRCLE
  5
5AC
100
AcDbEntity
  8
DRAFT
100
AcDbCircle
 62
7
  6
CONTINUOUS
 10
28.0
 20
30.7100053736
 40
3.25
  0
CIRCLE
  5
5AD
100
AcDbEntity
  8
0
100
AcDbCircle
 62
7
  6
CONTINUOUS
 10
28.0
 20
30.7100053736
 40
3.0
  0
ARC
  5
5AE
100
AcDbEntity
  8
0
100
AcDbCircle
 62
7
  6
CONTINUOUS
 10
28.0
 20
30.7100053736
 40
2.8950136038
100
AcDbArc
 50
258.0385857315
 51
281.9614142685
  0
ARC
  5
5AF
100
AcDbEntity
  8
0
100
AcDbCircle
 62
7
  6
CONTINUOUS
 10
28.0
 20
30.7100053736
 40
2.8950136038
100
AcDbArc
 50
78.0385857315
 51
101.9614142685
  0
ARC
  5
5B0
100
AcDbEntity
  8
0
100
AcDbCircle
 62
7
  6
CONTINUOUS
 10
28.0
 20
30.7100053736
 40
2.8155023425
100
AcDbArc
 50
102.3044249574
 51
257.6955750426
  0
ARC
  5
5B1
100
AcDbEntity
  8
0
100
AcDbCircle
 62
7
  6
CONTINUOUS
 10
28.0
 20
30.7100053736
 40
2.8155023425
100
AcDbArc
 50
282.3044249574
 51
77.6955750426
  0
ARC
  5
5B2
100
AcDbEntity
  8
0
100
AcDbCircle
 62
7
  6
CONTINUOUS
 10
28.0
 20
30.7100053736
 40
1.6874840352
100
AcDbArc
 50
172.230101045
 51
187.7632444202
  0
ARC
  5
5B3
100
AcDbEntity
  8
0
100
AcDbCircle
 62
7
  6
CONTINUOUS
 10
28.0
 20
30.7100053736
 40
1.6874840352
100
AcDbArc
 50
352.2301010241
 51
7.7632444202
  0
ARC
  5
5B4
100
AcDbEntity
  8
TRASH
100
AcDbCircle
 62
7
  6
CONTINUOUS
 10
28.0
 20
30.7100053736
 40
1.1472328625
100
AcDbArc
 50
347.9845776281
 51
12.0153200785
  0
ARC
  5
5B5
100
AcDbEntity
  8
TRASH
100
AcDbCircle
 62
7
  6
CONTINUOUS
 10
28.0
 20
30.7100053736
 40
1.1472328625
100
AcDbArc
 50
167.9845776281
 51
192.0153200785
  0
ARC
  5
5B6
100
AcDbEntity
  8
0
100
AcDbCircle
 62
7
  6
CONTINUOUS
 10
28.0
 20
30.7100053736
 40
0.7522905861
100
AcDbArc
 50
138.3509867785
 51
142.8981211086
  0
ARC
  5
5B7
100
AcDbEntity
  8
0
100
AcDbCircle
 62
7
  6
CONTINUOUS
 10
28.0
 20
30.7100053736
 40
0.7522905861
100
AcDbArc
 50
48.3509342563
 51
131.6490283615
  0
ARC
  5
5B8
100
AcDbEntity
  8
0
100
AcDbCircle
 62
7
  6
CONTINUOUS
 10
28.0
 20
30.7100053736
 40
0.7522905861
100
AcDbArc
 50
37.1018788914
 51
41.6490663885
  0
ARC
  5
5B9
100
AcDbEntity
  8
0
100
AcDbCircle
 62
7
  6
CONTINUOUS
 10
28.0
 20
30.7100053736
 40
0.7522905861
100
AcDbArc
 50
318.3509867785
 51
322.8981211086
  0
ARC
  5
5BA
100
AcDbEntity
  8
0
100
AcDbCircle
 62
7
  6
CONTINUOUS
 10
28.0
 20
30.7100053736
 40
0.7522905861
100
AcDbArc
 50
228.3509342563
 51
311.6490283615
  0
ARC
  5
5BB
100
AcDbEntity
  8
0
100
AcDbCircle
 62
7
  6
CONTINUOUS
 10
28.0
 20
30.7100053736
 40
0.7522905861
100
AcDbArc
 50
217.1018788914
 51
221.6490663885
  0
ARC
  5
5BC
100
AcDbEntity
  8
0
100
AcDbCircle
 62
7
  6
CONTINUOUS
 10
22.2
 20
17.4100053736
 40
0.3
100
AcDbArc
 50
0.0
 51
90.0
  0
ARC
  5
5BD
100
AcDbEntity
  8
0
100
AcDbCircle
 62
7
  6
CONTINUOUS
 10
41.0773751269
 20
97.3613438663
 40
68.4863730359
100
AcDbArc
 50
257.5632077456
 51
257.9759958253
  0
ARC
  5
5BE
100
AcDbEntity
  8
0
100
AcDbCircle
 62
253
  6
CONTINUOUS
 10
-68.8127514601
 20
-1754.188775744
 40
1726.5796060904
100
AcDbArc
 50
89.3704455829
 51
89.5166383156
  0
ARC
  5
5BF
100
AcDbEntity
  8
RACCORDO
100
AcDbCircle
 62
7
  6
CONTINUOUS
 10
-104.4620675846
 20
-30.6925110007
 40
3.0023564879
100
AcDbArc
 50
22.6905068064
 51
36.8883329929
  0
ARC
  5
5C0
100
AcDbEntity
  8
RACCORDO
100
AcDbCircle
 62
7
  6
CONTINUOUS
 10
-104.460007782
 20
-30.6913343761
 40
2.9999913582
100
AcDbArc
 50
0.3613238322
 51
36.8939735538
  0
ARC
  5
5C1
100
AcDbEntity
  8
RACCORDO
100
AcDbCircle
 62
253
  6
CONTINUOUS
 10
-97.0200127035
 20
-44.0959865063
 40
1.9972236026
100
AcDbArc
 50
198.883953449
 51
268.9753324625
  0
ARC
  5
5C2
100
AcDbEntity
  8
RACCORDO
100
AcDbCircle
 62
7
  6
CONTINUOUS
 10
-101.2610239085
 20
-28.2899946264
 40
1.0
100
AcDbArc
 50
180.0
 51
216.8940115946
  0
ARC
  5
5C3
100
AcDbEntity
  8
0
100
AcDbCircle
 62
7
  6
CONTINUOUS
 10
-101.2610239085
 20
-28.2899946264
 40
1.0
100
AcDbArc
 50
180.0
 51
216.8940115946
  0
ARC
  5
5C4
100
AcDbEntity
  8
0
100
AcDbCircle
 62
253
  6
CONTINUOUS
 10
-69.198189357
 20
1731.2968660957
 40
1766.2695397321
100
AcDbArc
 50
270.4850033984
 51
270.6279110261
  0
ARC
  5
5C5
100
AcDbEntity
  8
RACCORDO
100
AcDbCircle
 62
7
  6
CONTINUOUS
 10
-104.4599618138
 20
21.1112648558
 40
2.9999178302
100
AcDbArc
 50
323.1067254281
 51
359.6402036283
  0
ARC
  5
5C6
100
AcDbEntity
  8
RACCORDO
100
AcDbCircle
 62
253
  6
CONTINUOUS
 10
-97.0200140249
 20
34.5159865448
 40
1.9972166679
100
AcDbArc
 50
91.0246193873
 51
161.1157360539
  0
ARC
  5
5C7
100
AcDbEntity
  8
RACCORDO
100
AcDbCircle
 62
7
  6
CONTINUOUS
 10
-76.7610239085
 20
37.5126130257
 40
1.0
100
AcDbArc
 50
104.9999998361
 51
180.0
  0
ARC
  5
5C8
100
AcDbEntity
  8
RACCORDO
100
AcDbCircle
 62
7
  6
CONTINUOUS
 10
-101.2610239085
 20
18.7100053736
 40
1.0
100
AcDbArc
 50
143.1059884054
 51
180.0
  0
ARC
  5
5C9
100
AcDbEntity
  8
0
100
AcDbCircle
 62
7
  6
CONTINUOUS
 10
-101.2610239085
 20
18.7100053736
 40
1.0
100
AcDbArc
 50
143.1059884054
 51
180.0
  0
ARC
  5
5CA
100
AcDbEntity
  8
RACCORDO
100
AcDbCircle
 62
7
  6
CONTINUOUS
 10
-71.8110239085
 20
43.530126675
 40
0.3
100
AcDbArc
 50
105.0000000949
 51
180.0
  0
ARC
  5
5CB
100
AcDbEntity
  8
RACCORDO
100
AcDbCircle
 62
7
  6
CONTINUOUS
 10
-73.5610239085
 20
41.7569215943
 40
0.3
100
AcDbArc
 50
105.0000004607
 51
180.0
  0
ARC
  5
5CC
100
AcDbEntity
  8
RACCORDO
100
AcDbCircle
 62
7
  6
CONTINUOUS
 10
-75.3110239085
 20
39.9167292154
 40
0.3
100
AcDbArc
 50
104.9999989109
 51
180.0
  0
ARC
  5
5CD
100
AcDbEntity
  8
RACCORDO
100
AcDbCircle
 62
253
  6
CONTINUOUS
 10
-32.3269241564
 20
-664.1216886299
 40
627.2005046338
100
AcDbArc
 50
95.9411329971
 51
96.0982845775
  0
ARC
  5
5CE
100
AcDbEntity
  8
0
100
AcDbCircle
 62
7
  6
CONTINUOUS
 10
-56.6218620241
 20
-30.4331299215
 40
44.8889048574
100
AcDbArc
 50
181.2212686648
 51
182.0140015926
  0
ARC
  5
5CF
100
AcDbEntity
  8
RACCORDO
100
AcDbCircle
 62
7
  6
CONTINUOUS
 10
-57.5585440167
 20
-30.6898699886
 40
43.902530916
100
AcDbArc
 50
193.9215889447
 51
197.1467703308
  0
ARC
  5
5D0
100
AcDbEntity
  8
RACCORDO
100
AcDbCircle
 62
7
  6
CONTINUOUS
 10
-57.5606779335
 20
-30.6903837409
 40
43.9003396883
100
AcDbArc
 50
185.3314225125
 51
193.9210841122
  0
ARC
  5
5D1
100
AcDbEntity
  8
RACCORDO
100
AcDbCircle
 62
7
  6
CONTINUOUS
 10
-57.5806170988
 20
-30.6921702506
 40
43.8803207854
100
AcDbArc
 50
184.7036305289
 51
185.3312955747
  0
ARC
  5
5D2
100
AcDbEntity
  8
0
100
AcDbCircle
 62
7
  6
CONTINUOUS
 10
-57.683304173
 20
-30.4464717029
 40
43.8244202553
100
AcDbArc
 50
183.56124469
 51
185.0314718001
  0
ARC
  5
5D3
100
AcDbEntity
  8
0
100
AcDbCircle
 62
7
  6
CONTINUOUS
 10
-57.7759256222
 20
-30.4793769437
 40
43.7338896303
100
AcDbArc
 50
182.8385522283
 51
183.5261142788
  0
ARC
  5
5D4
100
AcDbEntity
  8
0
100
AcDbCircle
 62
7
  6
CONTINUOUS
 10
-59.8448479127
 20
-30.5790673341
 40
41.6664921398
100
AcDbArc
 50
183.3286633554
 51
183.5629266222
  0
ARC
  5
5D5
100
AcDbEntity
  8
0
100
AcDbCircle
 62
7
  6
CONTINUOUS
 10
-59.8312776305
 20
-30.3836447515
 40
41.6140429358
100
AcDbArc
 50
182.3677527147
 51
182.7546974087
  0
ARC
  5
5D6
100
AcDbEntity
  8
0
100
AcDbCircle
 62
7
  6
CONTINUOUS
 10
-59.9014418539
 20
-30.582323978
 40
41.6098045865
100
AcDbArc
 50
182.884236227
 51
183.3287113988
  0
ARC
  5
5D7
100
AcDbEntity
  8
0
100
AcDbCircle
 62
7
  6
CONTINUOUS
 10
-60.1180389291
 20
-30.5914272666
 40
41.3930108315
100
AcDbArc
 50
181.1052670123
 51
181.9949103058
  0
ARC
  5
5D8
100
AcDbEntity
  8
0
100
AcDbCircle
 62
7
  6
CONTINUOUS
 10
-61.695353575
 20
-30.3444761609
 40
39.8158284252
100
AcDbArc
 50
184.3490108351
 51
185.6870140407
  0
ARC
  5
5D9
100
AcDbEntity
  8
0
100
AcDbCircle
 62
7
  6
CONTINUOUS
 10
-61.6638177108
 20
-30.3422232926
 40
39.7974705799
100
AcDbArc
 50
185.5016300191
 51
185.6929054972
  0
ARC
  5
5DA
100
AcDbEntity
  8
0
100
AcDbCircle
 62
7
  6
CONTINUOUS
 10
-61.7197497744
 20
-30.3464146354
 40
39.7913553904
100
AcDbArc
 50
183.9664815835
 51
184.3488914844
  0
ARC
  5
5DB
100
AcDbEntity
  8
0
100
AcDbCircle
 62
7
  6
CONTINUOUS
 10
-61.6944590864
 20
-30.3450692705
 40
39.7666973972
100
AcDbArc
 50
184.3535368372
 51
185.5017810804
  0
ARC
  5
5DC
100
AcDbEntity
  8
0
100
AcDbCircle
 62
7
  6
CONTINUOUS
 10
-61.711399314
 20
-30.346373046
 40
39.7497071016
100
AcDbArc
 50
183.9707042721
 51
184.3535165519
  0
ARC
  5
5DD
100
AcDbEntity
  8
0
100
AcDbCircle
 62
7
  6
CONTINUOUS
 10
-66.5561430297
 20
-30.4850454745
 40
34.9416094096
100
AcDbArc
 50
182.475624256
 51
182.7113277144
  0
ARC
  5
5DE
100
AcDbEntity
  8
RACCORDO
100
AcDbCircle
 62
7
  6
CONTINUOUS
 10
-49.8610239085
 20
-44.5631902346
 40
1.1
100
AcDbArc
 50
271.0
 51
359.8648670373
  0
ARC
  5
5DF
100
AcDbEntity
  8
RACCORDO
100
AcDbCircle
 62
7
  6
CONTINUOUS
 10
-48.2610239085
 20
-40.2899946264
 40
0.5
100
AcDbArc
 50
270.0
 51
0.0000252418
  0
ARC
  5
5E0
100
AcDbEntity
  8
RACCORDO
100
AcDbCircle
 62
7
  6
CONTINUOUS
 10
-48.2610239085
 20
-22.2899946264
 40
0.5
100
AcDbArc
 50
359.9999747582
 51
90.0
  0
ARC
  5
5E1
100
AcDbEntity
  8
RACCORDO
100
AcDbCircle
 62
7
  6
CONTINUOUS
 10
-48.2610239085
 20
-19.2899946264
 40
0.5
100
AcDbArc
 50
359.99993665
 51
90.0
  0
ARC
  5
5E2
100
AcDbEntity
  8
RACCORDO
100
AcDbCircle
 62
253
  6
CONTINUOUS
 10
-32.3002240369
 20
654.7928163163
 40
627.4530358088
100
AcDbArc
 50
263.9017271092
 51
264.0588156495
  0
ARC
  5
5E3
100
AcDbEntity
  8
RACCORDO
100
AcDbCircle
 62
7
  6
CONTINUOUS
 10
-57.5561366523
 20
21.1097761215
 40
43.9049187802
100
AcDbArc
 50
171.7059757171
 51
174.6683625052
  0
ARC
  5
5E4
100
AcDbEntity
  8
RACCORDO
100
AcDbCircle
 62
7
  6
CONTINUOUS
 10
-57.5573237418
 20
21.1095611418
 40
43.9037911729
100
AcDbArc
 50
161.3512215898
 51
162.8200682294
  0
ARC
  5
5E5
100
AcDbEntity
  8
RACCORDO
100
AcDbCircle
 62
7
  6
CONTINUOUS
 10
-57.5585441843
 20
21.1098807825
 40
43.9025307421
100
AcDbArc
 50
162.8533041954
 51
166.0781829343
  0
ARC
  5
5E6
100
AcDbEntity
  8
RACCORDO
100
AcDbCircle
 62
7
  6
CONTINUOUS
 10
-57.5598700596
 20
21.1101551486
 40
43.9011778024
100
AcDbArc
 50
166.0786236938
 51
169.400232492
  0
ARC
  5
5E7
100
AcDbEntity
  8
RACCORDO
100
AcDbCircle
 62
7
  6
CONTINUOUS
 10
-57.5668001778
 20
21.1115112153
 40
43.8941164942
100
AcDbArc
 50
169.4004867247
 51
171.7062089783
  0
ARC
  5
5E8
100
AcDbEntity
  8
0
100
AcDbCircle
 62
7
  6
CONTINUOUS
 10
-63.7829405367
 20
-4.789019801
 40
11.4991269656
100
AcDbArc
 50
359.995142858
 51
89.8908532393
  0
ARC
  5
5E9
100
AcDbEntity
  8
0
100
AcDbCircle
 62
7
  6
CONTINUOUS
 10
-63.7829405367
 20
-4.7909694517
 40
11.4991269656
100
AcDbArc
 50
270.1091467607
 51
0.004857142
  0
ARC
  5
5EA
100
AcDbEntity
  8
0
100
AcDbCircle
 62
7
  6
CONTINUOUS
 10
-63.7600529926
 20
-4.7890321517
 40
11.4991239212
100
AcDbArc
 50
90.0048377576
 51
180.0047956071
  0
ARC
  5
5EB
100
AcDbEntity
  8
0
100
AcDbCircle
 62
7
  6
CONTINUOUS
 10
-63.7619936871
 20
-4.7909582569
 40
11.4991239212
100
AcDbArc
 50
270.0048320909
 51
0.0048013668
  0
ARC
  5
5EC
100
AcDbEntity
  8
0
100
AcDbCircle
 62
7
  6
CONTINUOUS
 10
-63.7602461436
 20
-4.7911523763
 40
11.4988829327
100
AcDbArc
 50
179.9942313213
 51
269.9961245852
  0
ARC
  5
5ED
100
AcDbEntity
  8
0
100
AcDbCircle
 62
7
  6
CONTINUOUS
 10
-63.7618034383
 20
-4.7888387012
 40
11.4988829327
100
AcDbArc
 50
359.9942404147
 51
89.9961157921
  0
ARC
  5
5EE
100
AcDbEntity
  8
0
100
AcDbCircle
 62
7
  6
CONTINUOUS
 10
-63.7819620117
 20
-4.791775624
 40
11.2480300958
100
AcDbArc
 50
179.9909280718
 51
0.0090719282
  0
ARC
  5
5EF
100
AcDbEntity
  8
0
100
AcDbCircle
 62
7
  6
CONTINUOUS
 10
-63.7819620117
 20
-4.7882134557
 40
11.2480293325
100
AcDbArc
 50
359.9909271904
 51
180.0090728096
  0
ARC
  5
5F0
100
AcDbEntity
  8
0
100
AcDbCircle
 62
7
  6
CONTINUOUS
 10
-63.7697453272
 20
-4.7916648061
 40
10.5481526678
100
AcDbArc
 50
179.9909280734
 51
0.0090719266
  0
ARC
  5
5F1
100
AcDbEntity
  8
0
100
AcDbCircle
 62
7
  6
CONTINUOUS
 10
-63.7697453272
 20
-4.7883242838
 40
10.5481519517
100
AcDbArc
 50
359.990927189
 51
180.009072811
  0
ARC
  5
5F2
100
AcDbEntity
  8
RACCORDO
100
AcDbCircle
 62
7
  6
CONTINUOUS
 10
-49.8610239085
 20
34.9832009819
 40
1.1
100
AcDbArc
 50
0.0
 51
89.0
  0
ARC
  5
5F3
100
AcDbEntity
  8
RACCORDO
100
AcDbCircle
 62
7
  6
CONTINUOUS
 10
-50.7610239085
 20
37.5126130257
 40
1.0
100
AcDbArc
 50
0.0
 51
75.0000001639
  0
ARC
  5
5F4
100
AcDbEntity
  8
RACCORDO
100
AcDbCircle
 62
7
  6
CONTINUOUS
 10
-48.2610239085
 20
12.7100053736
 40
0.5
100
AcDbArc
 50
270.0
 51
0.0000252419
  0
ARC
  5
5F5
100
AcDbEntity
  8
RACCORDO
100
AcDbCircle
 62
7
  6
CONTINUOUS
 10
-48.2610239085
 20
30.7100053736
 40
0.5
100
AcDbArc
 50
359.9999747581
 51
90.0
  0
ARC
  5
5F6
100
AcDbEntity
  8
RACCORDO
100
AcDbCircle
 62
7
  6
CONTINUOUS
 10
-48.2610239085
 20
9.7100053736
 40
0.5
100
AcDbArc
 50
270.0
 51
0.00006335
  0
ARC
  5
5F7
100
AcDbEntity
  8
RACCORDO
100
AcDbCircle
 62
7
  6
CONTINUOUS
 10
-67.5610239085
 20
45.2291647807
 40
0.3
100
AcDbArc
 50
104.9999888319
 51
180.0
  0
ARC
  5
5F8
100
AcDbEntity
  8
RACCORDO
100
AcDbCircle
 62
7
  6
CONTINUOUS
 10
-59.9610239085
 20
45.2291647807
 40
0.3
100
AcDbArc
 50
0.0
 51
75.0000111681
  0
ARC
  5
5F9
100
AcDbEntity
  8
RACCORDO
100
AcDbCircle
 62
7
  6
CONTINUOUS
 10
-55.7110239085
 20
43.530126675
 40
0.3
100
AcDbArc
 50
0.0
 51
74.9999999051
  0
ARC
  5
5FA
100
AcDbEntity
  8
RACCORDO
100
AcDbCircle
 62
7
  6
CONTINUOUS
 10
-53.9610239085
 20
41.7569215943
 40
0.3
100
AcDbArc
 50
0.0
 51
74.9999995393
  0
ARC
  5
5FB
100
AcDbEntity
  8
RACCORDO
100
AcDbCircle
 62
7
  6
CONTINUOUS
 10
-52.2110239085
 20
39.9167292154
 40
0.3
100
AcDbArc
 50
0.0
 51
75.0000010891
  0
LINE
  5
5FC
100
AcDbEntity
  8
0
100
AcDbLine
 62
7
  6
CONTINUOUS
 10
28.6
 20
30.1100055155
 11
28.6272974066
 21
30.0827081395
  0
LINE
  5
5FD
100
AcDbEntity
  8
0
100
AcDbLine
 62
7
  6
CONTINUOUS
 10
28.5197234842
 20
30.1902818895
 11
28.5204046482
 21
30.1896007255
  0
LINE
  5
5FE
100
AcDbEntity
  8
0
100
AcDbLine
 62
7
  6
CONTINUOUS
 10
27.3727024907
 20
30.0827078573
 11
27.4
 21
30.1100053673
  0
LINE
  5
5FF
100
AcDbEntity
  8
0
100
AcDbLine
 62
7
  6
CONTINUOUS
 10
27.4795953518
 20
30.1896007255
 11
27.4802765158
 21
30.1902818895
  0
LINE
  5
600
100
AcDbEntity
  8
0
100
AcDbLine
 62
7
  6
CONTINUOUS
 10
27.480282565
 20
31.2297321559
 11
27.5000533558
 21
31.2721392358
  0
SPLINE
  5
601
100
AcDbEntity
  8
0
100
AcDbSpline
 62
7
  6
CONTINUOUS
 70
0
 71
3
 72
9
 73
5
 74
3
 42
0.0000001
 43
0.0000001
 44
0.0000000001
 12
0.0452995647
 22
0.1041126532
 32
0.0
 13
0.0452995647
 23
0.1041126532
 33
0.0
 40
0.0
 40
0.0
 40
0.0
 40
0.0
 40
0.4996939835
 40
1.0
 40
1.0
 40
1.0
 40
1.0
 10
26.8101933044
 20
30.3775339607
 30
0.0
 10
26.817738611
 20
30.3948754495
 30
0.0
 10
26.8330832391
 20
30.4294745302
 30
0.0
 10
26.8474481749
 20
30.4644944166
 30
0.0
 10
26.8550027231
 20
30.4818571456
 30
0.0
 11
26.8101933044
 21
30.3775339607
 31
0.0
 11
26.8328292243
 21
30.4295584271
 31
0.0
 11
26.8550027231
 21
30.4818571456
 31
0.0
  0
SPLINE
  5
602
100
AcDbEntity
  8
0
100
AcDbSpline
 62
7
  6
CONTINUOUS
 70
0
 71
3
 72
9
 73
5
 74
3
 42
0.0000001
 43
0.0000001
 44
0.0000000001
 12
-0.5269772644
 22
0.0010793166
 32
0.0
 13
-0.5269783692
 23
-0.0000227564
 33
0.0
 40
0.0
 40
0.0
 40
0.0
 40
0.0
 40
0.4866884719
 40
1.0
 40
1.0
 40
1.0
 40
1.0
 10
26.8549604169
 20
30.4816521025
 30
0.0
 10
26.7694691637
 20
30.4818271995
 30
0.0
 10
26.593809738
 20
30.4820112933
 30
0.0
 10
26.4181502881
 20
30.4820639678
 30
0.0
 10
26.3279822641
 20
30.4820600741
 30
0.0
 11
26.8549604169
 21
30.4816521025
 31
0.0
 11
26.598486323
 21
30.4819752634
 31
0.0
 11
26.3279822641
 21
30.4820600741
 31
0.0
  0
LINE
  5
603
100
AcDbEntity
  8
TRASH
100
AcDbLine
 62
7
  6
CONTINUOUS
 10
26.8778937063
 20
30.4711829912
 11
26.8550027231
 21
30.4818571456
  0
LINE
  5
604
100
AcDbEntity
  8
TRASH
100
AcDbLine
 62
7
  6
CONTINUOUS
 10
26.8550027299
 20
30.9381535918
 11
26.877893713
 21
30.9488277462
  0
LINE
  5
605
100
AcDbEntity
  8
0
100
AcDbLine
 62
7
  6
CONTINUOUS
 10
28.5621339943
 20
30.210058878
 11
28.5197267822
 21
30.1902879387
  0
LINE
  5
606
100
AcDbEntity
  8
0
100
AcDbLine
 62
7
  6
CONTINUOUS
 10
26.3280087497
 20
30.9381448657
 11
26.8549920768
 21
30.9381981137
  0
LINE
  5
607
100
AcDbEntity
  8
0
100
AcDbLine
 62
7
  6
CONTINUOUS
 10
26.8550027299
 20
30.9381535918
 11
26.8099522509
 21
31.0423098318
  0
LINE
  5
608
100
AcDbEntity
  8
0
100
AcDbLine
 62
7
  6
CONTINUOUS
 10
29.1221028135
 20
30.4711793558
 11
28.6
 21
30.2277160867
  0
LINE
  5
609
100
AcDbEntity
  8
0
100
AcDbLine
 62
7
  6
CONTINUOUS
 10
27.4
 20
31.3100052318
 11
27.3727025934
 21
31.3373026078
  0
LINE
  5
60A
100
AcDbEntity
  8
0
100
AcDbLine
 62
7
  6
CONTINUOUS
 10
28.6
 20
31.1922951807
 11
29.1221066534
 21
30.9488301146
  0
LINE
  5
60B
100
AcDbEntity
  8
0
100
AcDbLine
 62
7
  6
CONTINUOUS
 10
28.5197234839
 20
31.2297288575
 11
28.5621335303
 21
31.2099523909
  0
LINE
  5
60C
100
AcDbEntity
  8
0
100
AcDbLine
 62
7
  6
CONTINUOUS
 10
26.8101933044
 20
30.3775339607
 11
26.828395019
 21
30.364932749
  0
SPLINE
  5
60D
100
AcDbEntity
  8
0
100
AcDbSpline
 62
7
  6
CONTINUOUS
 70
0
 71
3
 72
14
 73
10
 74
8
 42
0.0000001
 43
0.0000001
 44
0.0000000001
 12
-0.5489866675
 22
0.2730585867
 32
0.0
 13
-0.540741044
 23
0.289044073
 33
0.0
 40
0.0
 40
0.0
 40
0.0
 40
0.0
 40
0.1676248277
 40
0.3171576827
 40
0.4562893429
 40
0.5918233207
 40
0.7276155638
 40
0.864047256
 40
1.0
 40
1.0
 40
1.0
 40
1.0
 10
27.3727024907
 20
30.0827078573
 30
0.0
 10
27.3420278922
 20
30.0979649902
 30
0.0
 10
27.2840953423
 20
30.1270458731
 30
0.0
 10
27.2010057812
 20
30.169391021
 30
0.0
 10
27.1239492078
 20
30.2091270947
 30
0.0
 10
27.0495440737
 20
30.2478757938
 30
0.0
 10
26.9757639239
 20
30.2866287039
 30
0.0
 10
26.9020302626
 20
30.3256532193
 30
0.0
 10
26.8529000953
 20
30.3518339707
 30
0.0
 10
26.828395019
 20
30.364932749
 30
0.0
 11
27.3727024907
 21
30.0827078573
 31
0.0
 11
27.2808405336
 21
30.1288032009
 31
0.0
 11
27.1991463063
 21
30.1704236783
 31
0.0
 11
27.1233223684
 21
30.2095155703
 31
0.0
 11
27.0496133968
 21
30.2478944322
 31
0.0
 11
26.9758999156
 21
30.2866063993
 31
0.0
 11
26.9019622533
 21
30.3257338609
 31
0.0
 11
26.828395019
 21
30.364932749
 31
0.0
  0
LINE
  5
60E
100
AcDbEntity
  8
0
100
AcDbLine
 62
7
  6
CONTINUOUS
 10
27.4802765158
 20
31.2297288578
 11
27.4795953518
 21
31.2304100218
  0
SPLINE
  5
60F
100
AcDbEntity
  8
0
100
AcDbSpline
 62
7
  6
CONTINUOUS
 70
0
 71
3
 72
14
 73
10
 74
8
 42
0.0000001
 43
0.0000001
 44
0.0000000001
 12
0.5407409237
 22
0.2890440051
 32
0.0
 13
0.5489846067
 23
0.2730624198
 33
0.0
 40
0.0
 40
0.0
 40
0.0
 40
0.0
 40
0.1360891828
 40
0.2724205737
 40
0.4077679873
 40
0.5429185838
 40
0.6821509024
 40
0.8319710672
 40
1.0
 40
1.0
 40
1.0
 40
1.0
 10
26.8283951111
 20
31.0550780475
 30
0.0
 10
26.8529247745
 20
31.0681899683
 30
0.0
 10
26.9020615595
 20
31.0943739797
 30
0.0
 10
26.9757213173
 20
31.1333595262
 30
0.0
 10
27.0493333802
 20
31.1720243027
 30
0.0
 10
27.1236059243
 20
31.2107056281
 30
0.0
 10
27.2006626082
 20
31.2504434847
 30
0.0
 10
27.2838948016
 20
31.2928652488
 30
0.0
 10
27.3419541609
 20
31.3220084788
 30
0.0
 10
27.3727025934
 20
31.3373026078
 30
0.0
 11
26.8283951111
 21
31.0550780475
 31
0.0
 11
26.9020362479
 21
31.0943160989
 31
0.0
 11
26.9759195551
 21
31.1334147507
 31
0.0
 11
27.0493914028
 21
31.1720001735
 31
0.0
 11
27.1228912322
 21
31.2102716698
 31
0.0
 11
27.1987691279
 21
31.2493935457
 31
0.0
 11
27.2806192164
 21
31.2910961142
 31
0.0
 11
27.3727025934
 21
31.3373026078
 31
0.0
  0
LINE
  5
610
100
AcDbEntity
  8
0
100
AcDbLine
 62
7
  6
CONTINUOUS
 10
26.8099522509
 20
31.0423098318
 11
26.8283951111
 21
31.0550780475
  0
SPLINE
  5
611
100
AcDbEntity
  8
0
100
AcDbSpline
 62
7
  6
CONTINUOUS
 70
0
 71
3
 72
14
 73
10
 74
8
 42
0.0000001
 43
0.0000001
 44
0.0000000001
 12
-0.5407409237
 22
-0.2890440051
 32
0.0
 13
-0.5489846067
 23
-0.2730624198
 33
0.0
 40
0.0
 40
0.0
 40
0.0
 40
0.0
 40
0.1360891828
 40
0.2724205737
 40
0.4077679873
 40
0.5429185838
 40
0.6821509024
 40
0.8319710672
 40
1.0
 40
1.0
 40
1.0
 40
1.0
 10
29.1716048889
 20
30.3649326998
 30
0.0
 10
29.1470752255
 20
30.351820779
 30
0.0
 10
29.0979384405
 20
30.3256367676
 30
0.0
 10
29.0242786827
 20
30.2866512211
 30
0.0
 10
28.9506666198
 20
30.2479864446
 30
0.0
 10
28.8763940757
 20
30.2093051192
 30
0.0
 10
28.7993373918
 20
30.1695672626
 30
0.0
 10
28.7161051984
 20
30.1271454985
 30
0.0
 10
28.6580458391
 20
30.0980022685
 30
0.0
 10
28.6272974066
 20
30.0827081395
 30
0.0
 11
29.1716048889
 21
30.3649326998
 31
0.0
 11
29.0979637521
 21
30.3256946484
 31
0.0
 11
29.0240804449
 21
30.2865959966
 31
0.0
 11
28.9506085972
 21
30.2480105738
 31
0.0
 11
28.8771087678
 21
30.2097390775
 31
0.0
 11
28.8012308721
 21
30.1706172016
 31
0.0
 11
28.7193807836
 21
30.1289146331
 31
0.0
 11
28.6272974066
 21
30.0827081395
 31
0.0
  0
LINE
  5
612
100
AcDbEntity
  8
0
100
AcDbLine
 62
7
  6
CONTINUOUS
 10
29.1716048889
 20
30.3649326998
 11
29.190047748
 21
30.3777009148
  0
LINE
  5
613
100
AcDbEntity
  8
0
100
AcDbLine
 62
7
  6
CONTINUOUS
 10
29.171604981
 20
31.0550779983
 11
29.1898066956
 21
31.0424767866
  0
SPLINE
  5
614
100
AcDbEntity
  8
0
100
AcDbSpline
 62
7
  6
CONTINUOUS
 70
0
 71
3
 72
14
 73
10
 74
8
 42
0.0000001
 43
0.0000001
 44
0.0000000001
 12
0.5489866675
 22
-0.2730585867
 32
0.0
 13
0.540741044
 23
-0.289044073
 33
0.0
 40
0.0
 40
0.0
 40
0.0
 40
0.0
 40
0.1676248277
 40
0.3171576827
 40
0.4562893429
 40
0.5918233207
 40
0.7276155638
 40
0.864047256
 40
1.0
 40
1.0
 40
1.0
 40
1.0
 10
28.6272975093
 20
31.33730289
 30
0.0
 10
28.6579721078
 20
31.3220457571
 30
0.0
 10
28.7159046577
 20
31.2929648742
 30
0.0
 10
28.7989942188
 20
31.2506197263
 30
0.0
 10
28.8760507922
 20
31.2108836526
 30
0.0
 10
28.9504559263
 20
31.1721349535
 30
0.0
 10
29.0242360761
 20
31.1333820434
 30
0.0
 10
29.0979697374
 20
31.0943575279
 30
0.0
 10
29.1470999047
 20
31.0681767766
 30
0.0
 10
29.171604981
 20
31.0550779983
 30
0.0
 11
28.6272975093
 21
31.33730289
 31
0.0
 11
28.7191594664
 21
31.2912075464
 31
0.0
 11
28.8008536937
 21
31.249587069
 31
0.0
 11
28.8766776316
 21
31.210495177
 31
0.0
 11
28.9503866032
 21
31.1721163151
 31
0.0
 11
29.0241000844
 21
31.1334043479
 31
0.0
 11
29.0980377467
 21
31.0942768864
 31
0.0
 11
29.171604981
 21
31.0550779983
 31
0.0
  0
LINE
  5
615
100
AcDbEntity
  8
0
100
AcDbLine
 62
7
  6
CONTINUOUS
 10
27.5000529891
 20
30.1478718377
 11
27.4802765161
 21
30.1902818898
  0
LINE
  5
616
100
AcDbEntity
  8
0
100
AcDbLine
 62
7
  6
CONTINUOUS
 10
27.4802765161
 20
30.1902818898
 11
27.4378664697
 21
30.2100583564
  0
LINE
  5
617
100
AcDbEntity
  8
0
100
AcDbLine
 62
7
  6
CONTINUOUS
 10
27.4
 20
30.2277155666
 11
26.8778933466
 21
30.4711806327
  0
LINE
  5
618
100
AcDbEntity
  8
0
100
AcDbLine
 62
7
  6
CONTINUOUS
 10
26.8778971865
 20
30.9488313915
 11
27.4
 21
31.1922946606
  0
LINE
  5
619
100
AcDbEntity
  8
0
100
AcDbLine
 62
7
  6
CONTINUOUS
 10
27.4378660057
 20
31.2099518693
 11
27.4802732178
 21
31.2297228086
  0
LINE
  5
61A
100
AcDbEntity
  8
0
100
AcDbLine
 62
7
  6
CONTINUOUS
 10
28.519717435
 20
30.1902785914
 11
28.4999466442
 21
30.1478715115
  0
LINE
  5
61B
100
AcDbEntity
  8
0
100
AcDbLine
 62
7
  6
CONTINUOUS
 10
28.4999470109
 20
31.2721389096
 11
28.5197234839
 21
31.2297288575
  0
LINE
  5
61C
100
AcDbEntity
  8
0
100
AcDbLine
 62
7
  6
CONTINUOUS
 10
28.6
 20
31.31000538
 11
28.6272975093
 21
31.33730289
  0
LINE
  5
61D
100
AcDbEntity
  8
0
100
AcDbLine
 62
7
  6
CONTINUOUS
 10
28.5197234842
 20
31.2297288578
 11
28.5204046482
 21
31.2304100218
  0
SPLINE
  5
61E
100
AcDbEntity
  8
0
100
AcDbSpline
 62
7
  6
CONTINUOUS
 70
0
 71
3
 72
9
 73
5
 74
3
 42
0.0000001
 43
0.0000001
 44
0.0000000001
 12
-0.0452995647
 22
-0.1041126532
 32
0.0
 13
-0.0452995647
 23
-0.1041126532
 33
0.0
 40
0.0
 40
0.0
 40
0.0
 40
0.0
 40
0.4996939835
 40
1.0
 40
1.0
 40
1.0
 40
1.0
 10
29.1898066956
 20
31.0424767866
 30
0.0
 10
29.182261389
 20
31.0251352978
 30
0.0
 10
29.1669167609
 20
30.9905362171
 30
0.0
 10
29.1525518251
 20
30.9555163307
 30
0.0
 10
29.1449972769
 20
30.9381536017
 30
0.0
 11
29.1898066956
 21
31.0424767866
 31
0.0
 11
29.1671707757
 21
30.9904523202
 31
0.0
 11
29.1449972769
 21
30.9381536017
 31
0.0
  0
SPLINE
  5
61F
100
AcDbEntity
  8
0
100
AcDbSpline
 62
7
  6
CONTINUOUS
 70
0
 71
3
 72
9
 73
5
 74
3
 42
0.0000001
 43
0.0000001
 44
0.0000000001
 12
0.5269772644
 22
-0.0010793166
 32
0.0
 13
0.5269783692
 23
0.0000227564
 33
0.0
 40
0.0
 40
0.0
 40
0.0
 40
0.0
 40
0.4866884719
 40
1.0
 40
1.0
 40
1.0
 40
1.0
 10
29.1450395831
 20
30.9383586448
 30
0.0
 10
29.2305308363
 20
30.9381835478
 30
0.0
 10
29.406190262
 20
30.937999454
 30
0.0
 10
29.5818497119
 20
30.9379467795
 30
0.0
 10
29.6720177359
 20
30.9379506732
 30
0.0
 11
29.1450395831
 21
30.9383586448
 31
0.0
 11
29.401513677
 21
30.9380354839
 31
0.0
 11
29.6720177359
 21
30.9379506732
 31
0.0
  0
LINE
  5
620
100
AcDbEntity
  8
TRASH
100
AcDbLine
 62
7
  6
CONTINUOUS
 10
29.1221062937
 20
30.9488277561
 11
29.1449972769
 21
30.9381536017
  0
LINE
  5
621
100
AcDbEntity
  8
0
100
AcDbLine
 62
7
  6
CONTINUOUS
 10
29.1450079241
 20
30.4818126288
 11
29.6719912502
 21
30.4818658809
  0
LINE
  5
622
100
AcDbEntity
  8
0
100
AcDbLine
 62
7
  6
CONTINUOUS
 10
29.1449972701
 20
30.4818571555
 11
29.190047748
 21
30.3777009148
  0
LINE
  5
623
100
AcDbEntity
  8
TRASH
100
AcDbLine
 62
7
  6
CONTINUOUS
 10
29.122106287
 20
30.4711830011
 11
29.1449972701
 21
30.4818571555
  0
LINE
  5
624
100
AcDbEntity
  8
0
100
AcDbLine
 62
7
  6
CONTINUOUS
 10
-27.4
 20
-40.8899944845
 11
-27.3727025934
 21
-40.9172918605
  0
LINE
  5
625
100
AcDbEntity
  8
0
100
AcDbLine
 62
7
  6
CONTINUOUS
 10
-27.4802765158
 20
-40.8097181105
 11
-27.4795953518
 21
-40.8103992745
  0
LINE
  5
626
100
AcDbEntity
  8
0
100
AcDbLine
 62
7
  6
CONTINUOUS
 10
-28.6272975093
 20
-40.9172921427
 11
-28.6
 21
-40.8899946327
  0
LINE
  5
627
100
AcDbEntity
  8
0
100
AcDbLine
 62
7
  6
CONTINUOUS
 10
-28.5204046482
 20
-40.8103992745
 11
-28.5197234842
 21
-40.8097181105
  0
LINE
  5
628
100
AcDbEntity
  8
0
100
AcDbLine
 62
7
  6
CONTINUOUS
 10
-28.519717435
 20
-39.7702678441
 11
-28.4999466442
 21
-39.7278607642
  0
SPLINE
  5
629
100
AcDbEntity
  8
0
100
AcDbSpline
 62
7
  6
CONTINUOUS
 70
0
 71
3
 72
9
 73
5
 74
3
 42
0.0000001
 43
0.0000001
 44
0.0000000001
 12
0.0452995647
 22
0.1041126532
 32
0.0
 13
0.0452995647
 23
0.1041126532
 33
0.0
 40
0.0
 40
0.0
 40
0.0
 40
0.0
 40
0.4996939835
 40
1.0
 40
1.0
 40
1.0
 40
1.0
 10
-29.1898066956
 20
-40.6224660393
 30
0.0
 10
-29.182261389
 20
-40.6051245505
 30
0.0
 10
-29.1669167609
 20
-40.5705254698
 30
0.0
 10
-29.1525518251
 20
-40.5355055834
 30
0.0
 10
-29.1449972769
 20
-40.5181428544
 30
0.0
 11
-29.1898066956
 21
-40.6224660393
 31
0.0
 11
-29.1671707757
 21
-40.5704415729
 31
0.0
 11
-29.1449972769
 21
-40.5181428544
 31
0.0
  0
SPLINE
  5
62A
100
AcDbEntity
  8
0
100
AcDbSpline
 62
7
  6
CONTINUOUS
 70
0
 71
3
 72
9
 73
5
 74
3
 42
0.0000001
 43
0.0000001
 44
0.0000000001
 12
-0.5269772644
 22
0.0010793166
 32
0.0
 13
-0.5269783692
 23
-0.0000227564
 33
0.0
 40
0.0
 40
0.0
 40
0.0
 40
0.0
 40
0.4866884719
 40
1.0
 40
1.0
 40
1.0
 40
1.0
 10
-29.1450395831
 20
-40.5183478975
 30
0.0
 10
-29.2305308363
 20
-40.5181728005
 30
0.0
 10
-29.406190262
 20
-40.5179887067
 30
0.0
 10
-29.5818497119
 20
-40.5179360322
 30
0.0
 10
-29.6720177359
 20
-40.5179399259
 30
0.0
 11
-29.1450395831
 21
-40.5183478975
 31
0.0
 11
-29.401513677
 21
-40.5180247366
 31
0.0
 11
-29.6720177359
 21
-40.5179399259
 31
0.0
  0
LINE
  5
62B
100
AcDbEntity
  8
TRASH
100
AcDbLine
 62
7
  6
CONTINUOUS
 10
-29.1221062937
 20
-40.5288170088
 11
-29.1449972769
 21
-40.5181428544
  0
LINE
  5
62C
100
AcDbEntity
  8
TRASH
100
AcDbLine
 62
7
  6
CONTINUOUS
 10
-29.1449972701
 20
-40.0618464082
 11
-29.122106287
 21
-40.0511722538
  0
LINE
  5
62D
100
AcDbEntity
  8
0
100
AcDbLine
 62
7
  6
CONTINUOUS
 10
-27.4378660057
 20
-40.789941122
 11
-27.4802732178
 21
-40.8097120613
  0
LINE
  5
62E
100
AcDbEntity
  8
0
100
AcDbLine
 62
7
  6
CONTINUOUS
 10
-29.6719912503
 20
-40.0618551343
 11
-29.1450079232
 21
-40.0618018863
  0
LINE
  5
62F
100
AcDbEntity
  8
0
100
AcDbLine
 62
7
  6
CONTINUOUS
 10
-29.1449972701
 20
-40.0618464082
 11
-29.1900477491
 21
-39.9576901682
  0
LINE
  5
630
100
AcDbEntity
  8
0
100
AcDbLine
 62
7
  6
CONTINUOUS
 10
-26.8778971865
 20
-40.5288206442
 11
-27.4
 21
-40.7722839133
  0
LINE
  5
631
100
AcDbEntity
  8
0
100
AcDbLine
 62
7
  6
CONTINUOUS
 10
-28.6
 20
-39.6899947682
 11
-28.6272974066
 21
-39.6626973922
  0
LINE
  5
632
100
AcDbEntity
  8
0
100
AcDbLine
 62
7
  6
CONTINUOUS
 10
-27.4
 20
-39.8077048193
 11
-26.8778933466
 21
-40.0511698854
  0
LINE
  5
633
100
AcDbEntity
  8
0
100
AcDbLine
 62
7
  6
CONTINUOUS
 10
-27.4802765161
 20
-39.7702711425
 11
-27.4378664697
 21
-39.7900476091
  0
LINE
  5
634
100
AcDbEntity
  8
0
100
AcDbLine
 62
7
  6
CONTINUOUS
 10
-29.1898066956
 20
-40.6224660393
 11
-29.171604981
 21
-40.635067251
  0
SPLINE
  5
635
100
AcDbEntity
  8
0
100
AcDbSpline
 62
7
  6
CONTINUOUS
 70
0
 71
3
 72
14
 73
10
 74
8
 42
0.0000001
 43
0.0000001
 44
0.0000000001
 12
-0.5489866675
 22
0.2730585867
 32
0.0
 13
-0.540741044
 23
0.289044073
 33
0.0
 40
0.0
 40
0.0
 40
0.0
 40
0.0
 40
0.1676248277
 40
0.3171576827
 40
0.4562893429
 40
0.5918233207
 40
0.7276155638
 40
0.864047256
 40
1.0
 40
1.0
 40
1.0
 40
1.0
 10
-28.6272975093
 20
-40.9172921427
 30
0.0
 10
-28.6579721078
 20
-40.9020350098
 30
0.0
 10
-28.7159046577
 20
-40.8729541269
 30
0.0
 10
-28.7989942188
 20
-40.830608979
 30
0.0
 10
-28.8760507922
 20
-40.7908729053
 30
0.0
 10
-28.9504559263
 20
-40.7521242062
 30
0.0
 10
-29.0242360761
 20
-40.7133712961
 30
0.0
 10
-29.0979697374
 20
-40.6743467807
 30
0.0
 10
-29.1470999047
 20
-40.6481660293
 30
0.0
 10
-29.171604981
 20
-40.635067251
 30
0.0
 11
-28.6272975093
 21
-40.9172921427
 31
0.0
 11
-28.7191594664
 21
-40.8711967991
 31
0.0
 11
-28.8008536937
 21
-40.8295763217
 31
0.0
 11
-28.8766776316
 21
-40.7904844297
 31
0.0
 11
-28.9503866032
 21
-40.7521055678
 31
0.0
 11
-29.0241000844
 21
-40.7133936007
 31
0.0
 11
-29.0980377467
 21
-40.6742661391
 31
0.0
 11
-29.171604981
 21
-40.635067251
 31
0.0
  0
LINE
  5
636
100
AcDbEntity
  8
0
100
AcDbLine
 62
7
  6
CONTINUOUS
 10
-28.5197234842
 20
-39.7702711422
 11
-28.5204046482
 21
-39.7695899782
  0
SPLINE
  5
637
100
AcDbEntity
  8
0
100
AcDbSpline
 62
7
  6
CONTINUOUS
 70
0
 71
3
 72
14
 73
10
 74
8
 42
0.0000001
 43
0.0000001
 44
0.0000000001
 12
0.5407409237
 22
0.2890440051
 32
0.0
 13
0.5489846067
 23
0.2730624198
 33
0.0
 40
0.0
 40
0.0
 40
0.0
 40
0.0
 40
0.1360891828
 40
0.2724205737
 40
0.4077679873
 40
0.5429185838
 40
0.6821509024
 40
0.8319710672
 40
1.0
 40
1.0
 40
1.0
 40
1.0
 10
-29.1716048889
 20
-39.9449219525
 30
0.0
 10
-29.1470752255
 20
-39.9318100317
 30
0.0
 10
-29.0979384405
 20
-39.9056260203
 30
0.0
 10
-29.0242786827
 20
-39.8666404738
 30
0.0
 10
-28.9506666198
 20
-39.8279756973
 30
0.0
 10
-28.8763940757
 20
-39.7892943719
 30
0.0
 10
-28.7993373918
 20
-39.7495565153
 30
0.0
 10
-28.7161051984
 20
-39.7071347512
 30
0.0
 10
-28.6580458391
 20
-39.6779915212
 30
0.0
 10
-28.6272974066
 20
-39.6626973922
 30
0.0
 11
-29.1716048889
 21
-39.9449219525
 31
0.0
 11
-29.0979637521
 21
-39.9056839011
 31
0.0
 11
-29.0240804449
 21
-39.8665852493
 31
0.0
 11
-28.9506085972
 21
-39.8279998265
 31
0.0
 11
-28.8771087678
 21
-39.7897283302
 31
0.0
 11
-28.8012308721
 21
-39.7506064543
 31
0.0
 11
-28.7193807836
 21
-39.7089038858
 31
0.0
 11
-28.6272974066
 21
-39.6626973922
 31
0.0
  0
LINE
  5
638
100
AcDbEntity
  8
0
100
AcDbLine
 62
7
  6
CONTINUOUS
 10
-29.1900477491
 20
-39.9576901682
 11
-29.1716048889
 21
-39.9449219525
  0
SPLINE
  5
639
100
AcDbEntity
  8
0
100
AcDbSpline
 62
7
  6
CONTINUOUS
 70
0
 71
3
 72
14
 73
10
 74
8
 42
0.0000001
 43
0.0000001
 44
0.0000000001
 12
-0.5407409237
 22
-0.2890440051
 32
0.0
 13
-0.5489846067
 23
-0.2730624198
 33
0.0
 40
0.0
 40
0.0
 40
0.0
 40
0.0
 40
0.1360891828
 40
0.2724205737
 40
0.4077679873
 40
0.5429185838
 40
0.6821509024
 40
0.8319710672
 40
1.0
 40
1.0
 40
1.0
 40
1.0
 10
-26.8283951111
 20
-40.6350673002
 30
0.0
 10
-26.8529247745
 20
-40.648179221
 30
0.0
 10
-26.9020615595
 20
-40.6743632324
 30
0.0
 10
-26.9757213173
 20
-40.7133487789
 30
0.0
 10
-27.0493333802
 20
-40.7520135554
 30
0.0
 10
-27.1236059243
 20
-40.7906948808
 30
0.0
 10
-27.2006626082
 20
-40.8304327374
 30
0.0
 10
-27.2838948016
 20
-40.8728545015
 30
0.0
 10
-27.3419541609
 20
-40.9019977315
 30
0.0
 10
-27.3727025934
 20
-40.9172918605
 30
0.0
 11
-26.8283951111
 21
-40.6350673002
 31
0.0
 11
-26.9020362479
 21
-40.6743053516
 31
0.0
 11
-26.9759195551
 21
-40.7134040034
 31
0.0
 11
-27.0493914028
 21
-40.7519894262
 31
0.0
 11
-27.1228912322
 21
-40.7902609225
 31
0.0
 11
-27.1987691279
 21
-40.8293827984
 31
0.0
 11
-27.2806192164
 21
-40.8710853669
 31
0.0
 11
-27.3727025934
 21
-40.9172918605
 31
0.0
  0
LINE
  5
63A
100
AcDbEntity
  8
0
100
AcDbLine
 62
7
  6
CONTINUOUS
 10
-26.8283951111
 20
-40.6350673002
 11
-26.809952252
 21
-40.6222990852
  0
LINE
  5
63B
100
AcDbEntity
  8
0
100
AcDbLine
 62
7
  6
CONTINUOUS
 10
-26.828395019
 20
-39.9449220017
 11
-26.8101933044
 21
-39.9575232134
  0
SPLINE
  5
63C
100
AcDbEntity
  8
0
100
AcDbSpline
 62
7
  6
CONTINUOUS
 70
0
 71
3
 72
14
 73
10
 74
8
 42
0.0000001
 43
0.0000001
 44
0.0000000001
 12
0.5489866675
 22
-0.2730585867
 32
0.0
 13
0.540741044
 23
-0.289044073
 33
0.0
 40
0.0
 40
0.0
 40
0.0
 40
0.0
 40
0.1676248277
 40
0.3171576827
 40
0.4562893429
 40
0.5918233207
 40
0.7276155638
 40
0.864047256
 40
1.0
 40
1.0
 40
1.0
 40
1.0
 10
-27.3727024907
 20
-39.66269711
 30
0.0
 10
-27.3420278922
 20
-39.6779542429
 30
0.0
 10
-27.2840953423
 20
-39.7070351258
 30
0.0
 10
-27.2010057812
 20
-39.7493802737
 30
0.0
 10
-27.1239492078
 20
-39.7891163474
 30
0.0
 10
-27.0495440737
 20
-39.8278650465
 30
0.0
 10
-26.9757639239
 20
-39.8666179566
 30
0.0
 10
-26.9020302626
 20
-39.9056424721
 30
0.0
 10
-26.8529000953
 20
-39.9318232234
 30
0.0
 10
-26.828395019
 20
-39.9449220017
 30
0.0
 11
-27.3727024907
 21
-39.66269711
 31
0.0
 11
-27.2808405336
 21
-39.7087924536
 31
0.0
 11
-27.1991463063
 21
-39.750412931
 31
0.0
 11
-27.1233223684
 21
-39.789504823
 31
0.0
 11
-27.0496133968
 21
-39.8278836849
 31
0.0
 11
-26.9758999156
 21
-39.8665956521
 31
0.0
 11
-26.9019622533
 21
-39.9057231136
 31
0.0
 11
-26.828395019
 21
-39.9449220017
 31
0.0
  0
LINE
  5
63D
100
AcDbEntity
  8
0
100
AcDbLine
 62
7
  6
CONTINUOUS
 10
-28.4999470109
 20
-40.8521281623
 11
-28.5197234839
 21
-40.8097181102
  0
LINE
  5
63E
100
AcDbEntity
  8
0
100
AcDbLine
 62
7
  6
CONTINUOUS
 10
-28.5197234839
 20
-40.8097181102
 11
-28.5621335303
 21
-40.7899416436
  0
LINE
  5
63F
100
AcDbEntity
  8
0
100
AcDbLine
 62
7
  6
CONTINUOUS
 10
-28.6
 20
-40.7722844334
 11
-29.1221066534
 21
-40.5288193673
  0
LINE
  5
640
100
AcDbEntity
  8
0
100
AcDbLine
 62
7
  6
CONTINUOUS
 10
-29.1221028135
 20
-40.0511686085
 11
-28.6
 21
-39.8077053394
  0
LINE
  5
641
100
AcDbEntity
  8
0
100
AcDbLine
 62
7
  6
CONTINUOUS
 10
-28.5621339943
 20
-39.7900481307
 11
-28.5197267822
 21
-39.7702771914
  0
LINE
  5
642
100
AcDbEntity
  8
0
100
AcDbLine
 62
7
  6
CONTINUOUS
 10
-27.480282565
 20
-40.8097214086
 11
-27.5000533558
 21
-40.8521284885
  0
LINE
  5
643
100
AcDbEntity
  8
0
100
AcDbLine
 62
7
  6
CONTINUOUS
 10
-27.5000529891
 20
-39.7278610904
 11
-27.4802765161
 21
-39.7702711425
  0
LINE
  5
644
100
AcDbEntity
  8
0
100
AcDbLine
 62
7
  6
CONTINUOUS
 10
-27.4
 20
-39.68999462
 11
-27.3727024907
 21
-39.66269711
  0
LINE
  5
645
100
AcDbEntity
  8
0
100
AcDbLine
 62
7
  6
CONTINUOUS
 10
-27.4802765158
 20
-39.7702711422
 11
-27.4795953518
 21
-39.7695899782
  0
SPLINE
  5
646
100
AcDbEntity
  8
0
100
AcDbSpline
 62
7
  6
CONTINUOUS
 70
0
 71
3
 72
9
 73
5
 74
3
 42
0.0000001
 43
0.0000001
 44
0.0000000001
 12
-0.0452995647
 22
-0.1041126532
 32
0.0
 13
-0.0452995647
 23
-0.1041126532
 33
0.0
 40
0.0
 40
0.0
 40
0.0
 40
0.0
 40
0.4996939835
 40
1.0
 40
1.0
 40
1.0
 40
1.0
 10
-26.8101933044
 20
-39.9575232134
 30
0.0
 10
-26.817738611
 20
-39.9748647022
 30
0.0
 10
-26.8330832391
 20
-40.0094637829
 30
0.0
 10
-26.8474481749
 20
-40.0444836693
 30
0.0
 10
-26.8550027231
 20
-40.0618463983
 30
0.0
 11
-26.8101933044
 21
-39.9575232134
 31
0.0
 11
-26.8328292243
 21
-40.0095476798
 31
0.0
 11
-26.8550027231
 21
-40.0618463983
 31
0.0
  0
SPLINE
  5
647
100
AcDbEntity
  8
0
100
AcDbSpline
 62
7
  6
CONTINUOUS
 70
0
 71
3
 72
9
 73
5
 74
3
 42
0.0000001
 43
0.0000001
 44
0.0000000001
 12
0.5269772644
 22
-0.0010793166
 32
0.0
 13
0.5269783692
 23
0.0000227564
 33
0.0
 40
0.0
 40
0.0
 40
0.0
 40
0.0
 40
0.4866884719
 40
1.0
 40
1.0
 40
1.0
 40
1.0
 10
-26.8549604169
 20
-40.0616413552
 30
0.0
 10
-26.7694691637
 20
-40.0618164522
 30
0.0
 10
-26.593809738
 20
-40.062000546
 30
0.0
 10
-26.4181502881
 20
-40.0620532205
 30
0.0
 10
-26.3279822641
 20
-40.0620493268
 30
0.0
 11
-26.8549604169
 21
-40.0616413552
 31
0.0
 11
-26.598486323
 21
-40.0619645161
 31
0.0
 11
-26.3279822641
 21
-40.0620493268
 31
0.0
  0
LINE
  5
648
100
AcDbEntity
  8
TRASH
100
AcDbLine
 62
7
  6
CONTINUOUS
 10
-26.8778937063
 20
-40.0511722439
 11
-26.8550027231
 21
-40.0618463983
  0
LINE
  5
649
100
AcDbEntity
  8
0
100
AcDbLine
 62
7
  6
CONTINUOUS
 10
-26.8549920759
 20
-40.5181873712
 11
-26.3280087498
 21
-40.5181341191
  0
LINE
  5
64A
100
AcDbEntity
  8
0
100
AcDbLine
 62
7
  6
CONTINUOUS
 10
-26.8550027299
 20
-40.5181428445
 11
-26.809952252
 21
-40.6222990852
  0
LINE
  5
64B
100
AcDbEntity
  8
TRASH
100
AcDbLine
 62
7
  6
CONTINUOUS
 10
-26.877893713
 20
-40.5288169989
 11
-26.8550027299
 21
-40.5181428445
  0
SPLINE
  5
64C
100
AcDbEntity
  8
0
100
AcDbSpline
 62
7
  6
CONTINUOUS
 70
0
 71
3
 72
13
 73
9
 74
7
 42
0.0000001
 43
0.0000001
 44
0.0000000001
 12
0.0
 22
-0.771599165
 32
0.0
 13
-0.7715993302
 23
-0.0000030545
 33
0.0
 40
0.0
 40
0.0
 40
0.0
 40
0.0
 40
0.1705957624
 40
0.3141166687
 40
0.5170650684
 40
0.6977995383
 40
0.8426920075
 40
1.0
 40
1.0
 40
1.0
 40
1.0
 10
18.7064582022
 20
-12.7766277464
 30
0.0
 10
18.7064582022
 20
-12.820504929
 30
0.0
 10
18.7008500885
 20
-12.9012930693
 30
0.0
 10
18.6780865527
 20
-13.0327543758
 30
0.0
 10
18.6204726176
 20
-13.1583381642
 30
0.0
 10
18.5223229855
 20
-13.2577050781
 30
0.0
 10
18.4054784262
 20
-13.3060321432
 30
0.0
 10
18.3272941668
 20
-13.3145068145
 30
0.0
 10
18.2868345863
 20
-13.3145069747
 30
0.0
 11
18.7064582022
 21
-12.7766277464
 31
0.0
 11
18.6979419698
 21
-12.9079835158
 31
0.0
 11
18.6768231327
 21
-13.0166917388
 31
0.0
 11
18.6098430141
 21
-13.1582389042
 31
0.0
 11
18.5100239531
 21
-13.2556233539
 31
0.0
 11
18.4073173299
 21
-13.2997860695
 31
0.0
 11
18.2868345863
 21
-13.3145069747
 31
0.0
  0
SPLINE
  5
64D
100
AcDbEntity
  8
0
100
AcDbSpline
 62
7
  6
CONTINUOUS
 70
0
 71
3
 72
13
 73
9
 74
7
 42
0.0000001
 43
0.0000001
 44
0.0000000001
 12
0.7716007351
 22
-0.0000009492
 32
0.0
 13
0.0
 23
-0.7716006838
 33
0.0
 40
0.0
 40
0.0
 40
0.0
 40
0.0
 40
0.1573096512
 40
0.3022018352
 40
0.4829359494
 40
0.6858839496
 40
0.8294045734
 40
1.0
 40
1.0
 40
1.0
 40
1.0
 10
18.2868330675
 20
-12.238748518
 30
0.0
 10
18.3272931483
 20
-12.2387485678
 30
0.0
 10
18.40547795
 20
-12.2472231526
 30
0.0
 10
18.5223229855
 20
-12.2955504146
 30
0.0
 10
18.6204726176
 20
-12.3949173286
 30
0.0
 10
18.6780865527
 20
-12.520501117
 30
0.0
 10
18.7008500885
 20
-12.6519624234
 30
0.0
 10
18.7064582022
 20
-12.7327505638
 30
0.0
 10
18.7064582022
 20
-12.7766277464
 30
0.0
 11
18.2868330675
 21
-12.238748518
 31
0.0
 11
18.4073173299
 21
-12.2534694232
 31
0.0
 11
18.5100239531
 21
-12.2976321388
 31
0.0
 11
18.6098430141
 21
-12.3950165886
 31
0.0
 11
18.6768231327
 21
-12.5365637539
 31
0.0
 11
18.6979419698
 21
-12.6452719769
 31
0.0
 11
18.7064582022
 21
-12.7766277464
 31
0.0
  0
SPLINE
  5
64E
100
AcDbEntity
  8
0
100
AcDbSpline
 62
7
  6
CONTINUOUS
 70
0
 71
3
 72
13
 73
9
 74
7
 42
0.0000001
 43
0.0000001
 44
0.0000000001
 12
0.0
 22
0.8252147717
 32
0.0
 13
-0.7869730565
 23
0.2681579972
 33
0.0
 40
0.0
 40
0.0
 40
0.0
 40
0.0
 40
0.142790776
 40
0.31020178
 40
0.5150528839
 40
0.7535483583
 40
0.9417791667
 40
1.0
 40
1.0
 40
1.0
 40
1.0
 10
18.9005553734
 20
-12.7766277464
 30
0.0
 10
18.9005553734
 20
-12.7373500605
 30
0.0
 10
18.8997754288
 20
-12.6518037715
 30
0.0
 10
18.8732503001
 20
-12.5118570888
 30
0.0
 10
18.813620482
 20
-12.3535737503
 30
0.0
 10
18.7061978516
 20
-12.2117927254
 30
0.0
 10
18.5920303268
 20
-12.1390558681
 30
0.0
 10
18.5283991104
 20
-12.1142405555
 30
0.0
 10
18.5131263681
 20
-12.1090364281
 30
0.0
 11
18.9005553734
 21
-12.7766277464
 31
0.0
 11
18.8966175711
 21
-12.6588605048
 31
0.0
 11
18.87170527
 21
-12.5229752261
 31
0.0
 11
18.8100473248
 21
-12.3655747782
 31
0.0
 11
18.6889395701
 21
-12.210439085
 31
0.0
 11
18.5581499893
 21
-12.1266431631
 31
0.0
 11
18.5131263681
 21
-12.1090364281
 31
0.0
  0
SPLINE
  5
64F
100
AcDbEntity
  8
0
100
AcDbSpline
 62
7
  6
CONTINUOUS
 70
0
 71
3
 72
8
 73
4
 74
2
 42
0.0000001
 43
0.0000001
 44
0.0000000001
 12
-0.1935003598
 22
0.0659344923
 32
0.0
 13
-0.2029032188
 23
0.0000001237
 33
0.0
 40
0.0
 40
0.0
 40
0.0
 40
0.0
 40
1.0
 40
1.0
 40
1.0
 40
1.0
 10
18.5131263681
 20
-12.1090364281
 30
0.0
 10
18.4486262481
 20
-12.087058264
 30
0.0
 10
18.3798324494
 20
-12.0768186021
 30
0.0
 10
18.3121980432
 20
-12.0768185609
 30
0.0
 11
18.5131263681
 21
-12.1090364281
 31
0.0
 11
18.3121980432
 21
-12.0768185609
 31
0.0
  0
SPLINE
  5
650
100
AcDbEntity
  8
0
100
AcDbSpline
 62
7
  6
CONTINUOUS
 70
0
 71
3
 72
8
 73
4
 74
2
 42
0.0000001
 43
0.0000001
 44
0.0000000001
 12
0.202901773
 22
0.0000005769
 32
0.0
 13
0.1934989321
 23
0.0659340058
 33
0.0
 40
0.0
 40
0.0
 40
0.0
 40
0.0
 40
1.0
 40
1.0
 40
1.0
 40
1.0
 10
18.3121995402
 20
-13.4764369319
 30
0.0
 10
18.3798334646
 20
-13.4764367396
 30
0.0
 10
18.448626724
 20
-13.4661970666
 30
0.0
 10
18.5131263681
 20
-13.4442190647
 30
0.0
 11
18.3121995402
 21
-13.4764369319
 31
0.0
 11
18.5131263681
 21
-13.4442190647
 31
0.0
  0
SPLINE
  5
651
100
AcDbEntity
  8
0
100
AcDbSpline
 62
7
  6
CONTINUOUS
 70
0
 71
3
 72
13
 73
9
 74
7
 42
0.0000001
 43
0.0000001
 44
0.0000000001
 12
0.7869730565
 22
0.2681579972
 32
0.0
 13
-0.0
 23
0.8252147717
 33
0.0
 40
0.0
 40
0.0
 40
0.0
 40
0.0
 40
0.0582208333
 40
0.2464516417
 40
0.4849471161
 40
0.68979822
 40
0.857209224
 40
1.0
 40
1.0
 40
1.0
 40
1.0
 10
18.5131263681
 20
-13.4442190647
 30
0.0
 10
18.5283991104
 20
-13.4390149373
 30
0.0
 10
18.5920303268
 20
-13.4141996247
 30
0.0
 10
18.7061978516
 20
-13.3414627673
 30
0.0
 10
18.813620482
 20
-13.1996817424
 30
0.0
 10
18.8732503001
 20
-13.041398404
 30
0.0
 10
18.8997754288
 20
-12.9014517213
 30
0.0
 10
18.9005553734
 20
-12.8159054323
 30
0.0
 10
18.9005553734
 20
-12.7766277464
 30
0.0
 11
18.5131263681
 21
-13.4442190647
 31
0.0
 11
18.5581499893
 21
-13.4266123297
 31
0.0
 11
18.6889395701
 21
-13.3428164078
 31
0.0
 11
18.8100473248
 21
-13.1876807146
 31
0.0
 11
18.87170527
 21
-13.0302802667
 31
0.0
 11
18.8966175711
 21
-12.8943949879
 31
0.0
 11
18.9005553734
 21
-12.7766277464
 31
0.0
  0
SPLINE
  5
652
100
AcDbEntity
  8
RACCORDO
100
AcDbSpline
 62
253
  6
CONTINUOUS
 70
0
 71
3
 72
28
 73
24
 74
22
 42
0.0000001
 43
0.0000001
 44
0.0000000001
 12
22.195841185
 22
0.1892235632
 32
0.0
 13
22.1964873076
 23
-0.0843958981
 33
0.0
 40
0.0
 40
0.0
 40
0.0
 40
0.0
 40
0.0540680978
 40
0.113412234
 40
0.1788906721
 40
0.2503727151
 40
0.3253500174
 40
0.4010001529
 40
0.473852518
 40
0.5407305225
 40
0.6007332635
 40
0.6543569508
 40
0.7027132154
 40
0.7465805504
 40
0.7863841767
 40
0.8225592803
 40
0.8556279259
 40
0.8859790765
 40
0.913404289
 40
0.9381289707
 40
0.96059119
 40
0.9811217304
 40
1.0
 40
1.0
 40
1.0
 40
1.0
 10
-22.1965891419
 20
21.092426426
 30
0.0
 10
-21.7965601711
 20
21.0958367453
 30
0.0
 10
-20.9574562851
 20
21.101798629
 30
0.0
 10
-19.6338771496
 20
21.107678293
 30
0.0
 10
-18.1814466166
 20
21.1114119656
 30
0.0
 10
-16.6133451858
 20
21.1136105291
 30
0.0
 10
-14.969983602
 20
21.1148122906
 30
0.0
 10
-13.3164829141
 20
21.1155065139
 30
0.0
 10
-11.7229078891
 20
21.1158946813
 30
0.0
 10
-10.2451060815
 20
21.1161744635
 30
0.0
 10
-8.9095749891
 20
21.1163542311
 30
0.0
 10
-7.7110840668
 20
21.1164425004
 30
0.0
 10
-6.6319771153
 20
21.1164582989
 30
0.0
 10
-5.6551231735
 20
21.116388065
 30
0.0
 10
-4.768396225
 20
21.1162135897
 30
0.0
 10
-3.961567544
 20
21.1159277639
 30
0.0
 10
-3.2246766792
 20
21.1155249746
 30
0.0
 10
-2.5525253219
 20
21.1150025854
 30
0.0
 10
-1.9421101169
 20
21.1143497349
 30
0.0
 10
-1.3900643995
 20
21.1135595904
 30
0.0
 10
-0.8890318733
 20
21.1126137967
 30
0.0
 10
-0.4312567409
 20
21.1114900999
 30
0.0
 10
-0.1396770904
 20
21.110536888
 30
0.0
 10
-0.0
 20
21.1100058052
 30
0.0
 11
-22.1965891419
 21
21.092426426
 31
0.0
 11
-20.9964893408
 21
21.1010134586
 31
0.0
 11
-19.6792624519
 21
21.1070859813
 31
0.0
 11
-18.2258659688
 21
21.1110271179
 31
0.0
 11
-16.6392060164
 21
21.1134011227
 31
0.0
 11
-14.9749617725
 21
21.1147226529
 31
0.0
 11
-13.295782526
 21
21.1154649447
 31
0.0
 11
-11.6787042947
 21
21.1158901996
 31
0.0
 11
-10.1942368126
 21
21.1161698224
 31
0.0
 11
-8.8623771179
 21
21.1163462943
 31
0.0
 11
-7.672111025
 21
21.1164330599
 31
0.0
 11
-6.5987640527
 21
21.1164425507
 31
0.0
 11
-5.6250562718
 21
21.1163646554
 31
0.0
 11
-4.7415492193
 21
21.1161840083
 31
0.0
 11
-3.9385832389
 21
21.1158927252
 31
0.0
 11
-3.2045702738
 21
21.1154845671
 31
0.0
 11
-2.530876688
 21
21.1149512747
 31
0.0
 11
-1.9221292646
 21
21.1142897584
 31
0.0
 11
-1.3733247935
 21
21.113491885
 31
0.0
 11
-0.8747397373
 21
21.1125375842
 31
0.0
 11
-0.4190319954
 21
21.1113956409
 31
0.0
 11
-0.0
 21
21.1100058052
 31
0.0
  0
SPLINE
  5
653
100
AcDbEntity
  8
RACCORDO
100
AcDbSpline
 62
253
  6
CONTINUOUS
 70
0
 71
3
 72
17
 73
13
 74
11
 42
0.0000001
 43
0.0000001
 44
0.0000000001
 12
0.0891938791
 22
5.7680008562
 32
0.0
 13
5.768487383
 23
0.0484018355
 33
0.0
 40
0.0
 40
0.0
 40
0.0
 40
0.0
 40
0.0620567637
 40
0.1292100251
 40
0.203186835
 40
0.2848367169
 40
0.3749014914
 40
0.4751965739
 40
0.5876721274
 40
0.7144938022
 40
0.8555625096
 40
1.0
 40
1.0
 40
1.0
 40
1.0
 10
-25.8587174977
 20
17.4030620305
 30
0.0
 10
-25.8568724699
 20
17.5223765192
 30
0.0
 10
-25.8423858914
 20
17.7707720798
 30
0.0
 10
-25.784131102
 20
18.1576968705
 30
0.0
 10
-25.6769731077
 20
18.5733555556
 30
0.0
 10
-25.505621843
 20
19.0149657186
 30
0.0
 10
-25.2516004279
 20
19.4742504139
 30
0.0
 10
-24.8934635177
 20
19.9366913086
 30
0.0
 10
-24.4081215759
 20
20.3789297514
 30
0.0
 10
-23.7790027502
 20
20.761770129
 30
0.0
 10
-23.0247240964
 20
21.0253066565
 30
0.0
 10
-22.4743177555
 20
21.0900960794
 30
0.0
 10
-22.1965891419
 20
21.092426426
 30
0.0
 11
-25.8587174977
 21
17.4030620305
 31
0.0
 11
-25.8377537525
 21
17.7604339423
 31
0.0
 11
-25.7798789967
 21
18.143472737
 31
0.0
 11
-25.6730535078
 21
18.556635288
 31
0.0
 11
-25.5023108105
 21
18.9956114573
 31
0.0
 11
-25.250554668
 21
19.4500969665
 31
0.0
 11
-24.8962109057
 21
19.9074646833
 31
0.0
 11
-24.4167409398
 21
20.3446117424
 31
0.0
 11
-23.792040277
 21
20.7253745317
 31
0.0
 11
-23.024020415
 21
20.9944212813
 31
0.0
 11
-22.1965891419
 21
21.092426426
 31
0.0
  0
SPLINE
  5
654
100
AcDbEntity
  8
RACCORDO
100
AcDbSpline
 62
253
  6
CONTINUOUS
 70
0
 71
3
 72
27
 73
23
 74
21
 42
0.0000001
 43
0.0000001
 44
0.0000000001
 12
0.0462519615
 22
22.1932496697
 32
0.0
 13
0.3427269617
 23
22.1906513734
 33
0.0
 40
0.0
 40
0.0
 40
0.0
 40
0.0
 40
0.0200107833
 40
0.0418258196
 40
0.0657268679
 40
0.092078552
 40
0.1213292459
 40
0.1535802496
 40
0.1883506581
 40
0.2258705102
 40
0.2663525956
 40
0.3099323762
 40
0.3567731685
 40
0.4071828877
 40
0.4615457337
 40
0.5200689801
 40
0.5829925965
 40
0.6510545517
 40
0.7250451744
 40
0.806480875
 40
0.8977466629
 40
1.0
 40
1.0
 40
1.0
 40
1.0
 10
-25.9000310975
 20
-4.7899945096
 30
0.0
 10
-25.8997225848
 20
-4.6419597393
 30
0.0
 10
-25.8991860977
 20
-4.3325425604
 30
0.0
 10
-25.8985675407
 20
-3.846310957
 30
0.0
 10
-25.8980902362
 20
-3.3131706746
 30
0.0
 10
-25.8977435687
 20
-2.7250230287
 30
0.0
 10
-25.8975313378
 20
-2.0751043009
 30
0.0
 10
-25.8974624011
 20
-1.3629057897
 30
0.0
 10
-25.8975457423
 20
-0.5895339835
 30
0.0
 10
-25.8977941228
 20
0.244729406
 30
0.0
 10
-25.8982238777
 20
1.1441624033
 30
0.0
 10
-25.8988544349
 20
2.1125494322
 30
0.0
 10
-25.8997178582
 20
3.1543786199
 30
0.0
 10
-25.9008192441
 20
4.2759782162
 30
0.0
 10
-25.9021249588
 20
5.4840017085
 30
0.0
 10
-25.9035749413
 20
6.7845999741
 30
0.0
 10
-25.9050649383
 20
8.1865410855
 30
0.0
 10
-25.9060977887
 20
9.7029066551
 30
0.0
 10
-25.9058226207
 20
11.35622124
 30
0.0
 10
-25.9020338474
 20
13.1811887779
 30
0.0
 10
-25.8899553402
 20
15.2152177188
 30
0.0
 10
-25.8703991562
 20
16.646705979
 30
0.0
 10
-25.8587174977
 20
17.4030620305
 30
0.0
 11
-25.9000310975
 21
-4.7899945096
 31
0.0
 11
-25.8992419412
 21
-4.3458899354
 31
0.0
 11
-25.898616195
 21
-3.8617427433
 31
0.0
 11
-25.8981321872
 21
-3.3312998785
 31
0.0
 11
-25.8977804963
 21
-2.7464692109
 31
0.0
 11
-25.8975622315
 21
-2.0972998846
 31
0.0
 11
-25.8974876901
 21
-1.3815437571
 31
0.0
 11
-25.8975670524
 21
-0.6098737287
 31
0.0
 11
-25.8978116415
 21
0.2228154887
 31
0.0
 11
-25.8982379268
 21
1.1212463671
 31
0.0
 11
-25.898866325
 21
2.0884252163
 31
0.0
 11
-25.8997215498
 21
3.1279765191
 31
0.0
 11
-25.9008082702
 21
4.2467339043
 31
0.0
 11
-25.902098275
 21
5.4532240502
 31
0.0
 11
-25.9035277908
 21
6.7520471028
 31
0.0
 11
-25.9049391898
 21
8.1485289511
 31
0.0
 11
-25.905863442
 21
9.659047913
 31
0.0
 11
-25.9053341869
 21
11.3011437572
 31
0.0
 11
-25.901087698
 21
13.1084655291
 31
0.0
 11
-25.8879791758
 21
15.1339119264
 31
0.0
 11
-25.8587174977
 21
17.4030620305
 31
0.0
  0
SPLINE
  5
655
100
AcDbEntity
  8
RACCORDO
100
AcDbSpline
 62
253
  6
CONTINUOUS
 70
0
 71
3
 72
28
 73
24
 74
22
 42
0.0000001
 43
0.0000001
 44
0.0000000001
 12
-22.195841185
 22
-0.1892235632
 32
0.0
 13
-22.1964873076
 23
0.0843958981
 33
0.0
 40
0.0
 40
0.0
 40
0.0
 40
0.0
 40
0.0540680979
 40
0.1134122341
 40
0.1788906723
 40
0.2503727153
 40
0.3253500176
 40
0.4010001531
 40
0.4738525182
 40
0.5407305227
 40
0.6007332636
 40
0.6543569508
 40
0.7027132154
 40
0.7465805504
 40
0.7863841766
 40
0.8225592803
 40
0.8556279259
 40
0.8859790764
 40
0.913404289
 40
0.9381289707
 40
0.96059119
 40
0.9811217304
 40
1.0
 40
1.0
 40
1.0
 40
1.0
 10
22.1965891419
 20
-30.6724156787
 30
0.0
 10
21.7965601707
 20
-30.6758259981
 30
0.0
 10
20.9574562839
 20
-30.6817878817
 30
0.0
 10
19.6338771471
 20
-30.6876675457
 30
0.0
 10
18.1814466129
 20
-30.6914012183
 30
0.0
 10
16.6133451811
 20
-30.6935997818
 30
0.0
 10
14.9699835968
 20
-30.6948015433
 30
0.0
 10
13.3164829091
 20
-30.6954957666
 30
0.0
 10
11.722907885
 20
-30.695883934
 30
0.0
 10
10.2451060786
 20
-30.6961637162
 30
0.0
 10
8.9095749874
 20
-30.6963434838
 30
0.0
 10
7.711084066
 20
-30.6964317531
 30
0.0
 10
6.6319771151
 20
-30.6964475516
 30
0.0
 10
5.6551231739
 20
-30.6963773177
 30
0.0
 10
4.7683962257
 20
-30.6962028424
 30
0.0
 10
3.9615675448
 20
-30.6959170166
 30
0.0
 10
3.2246766801
 20
-30.6955142273
 30
0.0
 10
2.5525253228
 20
-30.6949918381
 30
0.0
 10
1.9421101177
 20
-30.6943389877
 30
0.0
 10
1.3900644002
 20
-30.6935488431
 30
0.0
 10
0.8890318738
 20
-30.6926030494
 30
0.0
 10
0.4312567411
 20
-30.6914793526
 30
0.0
 10
0.1396770905
 20
-30.6905261408
 30
0.0
 10
0.0
 20
-30.6899950579
 30
0.0
 11
22.1965891419
 21
-30.6724156787
 31
0.0
 11
20.9964893396
 21
-30.6810027113
 31
0.0
 11
19.6792624494
 21
-30.687075234
 31
0.0
 11
18.225865965
 21
-30.6910163706
 31
0.0
 11
16.6392060115
 21
-30.6933903754
 31
0.0
 11
14.974961767
 21
-30.6947119056
 31
0.0
 11
13.2957825208
 21
-30.6954541974
 31
0.0
 11
11.6787042905
 21
-30.6958794524
 31
0.0
 11
10.1942368097
 21
-30.6961590751
 31
0.0
 11
8.8623771164
 21
-30.696335547
 31
0.0
 11
7.6721110243
 21
-30.6964223126
 31
0.0
 11
6.5987640527
 21
-30.6964318034
 31
0.0
 11
5.6250562721
 21
-30.6963539081
 31
0.0
 11
4.74154922
 21
-30.696173261
 31
0.0
 11
3.9385832398
 21
-30.6958819779
 31
0.0
 11
3.2045702747
 21
-30.6954738198
 31
0.0
 11
2.5308766889
 21
-30.6949405274
 31
0.0
 11
1.9221292655
 21
-30.6942790111
 31
0.0
 11
1.3733247942
 21
-30.6934811377
 31
0.0
 11
0.8747397378
 21
-30.6925268369
 31
0.0
 11
0.4190319956
 21
-30.6913848936
 31
0.0
 11
0.0
 21
-30.6899950579
 31
0.0
  0
SPLINE
  5
656
100
AcDbEntity
  8
RACCORDO
100
AcDbSpline
 62
253
  6
CONTINUOUS
 70
0
 71
3
 72
17
 73
13
 74
11
 42
0.0000001
 43
0.0000001
 44
0.0000000001
 12
-0.0891938791
 22
-5.7680008562
 32
0.0
 13
-5.768487383
 23
-0.0484018355
 33
0.0
 40
0.0
 40
0.0
 40
0.0
 40
0.0
 40
0.0620567636
 40
0.129210025
 40
0.2031868349
 40
0.2848367167
 40
0.3749014912
 40
0.4751965736
 40
0.5876721272
 40
0.714493802
 40
0.8555625095
 40
1.0
 40
1.0
 40
1.0
 40
1.0
 10
25.8587174977
 20
-26.9830512832
 30
0.0
 10
25.8568724699
 20
-27.1023657718
 30
0.0
 10
25.8423858914
 20
-27.3507613323
 30
0.0
 10
25.784131102
 20
-27.7376861228
 30
0.0
 10
25.6769731079
 20
-28.1533448077
 30
0.0
 10
25.5056218433
 20
-28.5949549705
 30
0.0
 10
25.2516004285
 20
-29.0542396657
 30
0.0
 10
24.8934635186
 20
-29.5166805604
 30
0.0
 10
24.4081215771
 20
-29.9589190032
 30
0.0
 10
23.7790027514
 20
-30.3417593812
 30
0.0
 10
23.0247240972
 20
-30.6052959091
 30
0.0
 10
22.4743177558
 20
-30.6700853321
 30
0.0
 10
22.1965891419
 20
-30.6724156787
 30
0.0
 11
25.8587174977
 21
-26.9830512832
 31
0.0
 11
25.8377537526
 21
-27.3404231948
 31
0.0
 11
25.7798789968
 21
-27.7234619892
 31
0.0
 11
25.673053508
 21
-28.1366245401
 31
0.0
 11
25.5023108108
 21
-28.5756007092
 31
0.0
 11
25.2505546686
 21
-29.0300862183
 31
0.0
 11
24.8962109066
 21
-29.487453935
 31
0.0
 11
24.416740941
 21
-29.9246009942
 31
0.0
 11
23.7920402783
 21
-30.3053637838
 31
0.0
 11
23.0240204158
 21
-30.5744105338
 31
0.0
 11
22.1965891419
 21
-30.6724156787
 31
0.0
  0
SPLINE
  5
657
100
AcDbEntity
  8
RACCORDO
100
AcDbSpline
 62
253
  6
CONTINUOUS
 70
0
 71
3
 72
27
 73
23
 74
21
 42
0.0000001
 43
0.0000001
 44
0.0000000001
 12
-0.0462519662
 22
-22.1932499058
 32
0.0
 13
-0.3427269654
 23
-22.1906516095
 33
0.0
 40
0.0
 40
0.0
 40
0.0
 40
0.0
 40
0.0200106966
 40
0.0418257291
 40
0.0657267735
 40
0.0920784527
 40
0.1213291416
 40
0.1535801437
 40
0.1883505516
 40
0.2258704036
 40
0.26635249
 40
0.3099322728
 40
0.3567730681
 40
0.4071827912
 40
0.4615456426
 40
0.5200688959
 40
0.5829925206
 40
0.6510544857
 40
0.7250451202
 40
0.8064808348
 40
0.8977466403
 40
1.0
 40
1.0
 40
1.0
 40
1.0
 10
25.9000310968
 20
-4.789994507
 30
0.0
 10
25.8997225855
 20
-4.938028637
 30
0.0
 10
25.8991861007
 20
-5.2474451502
 30
0.0
 10
25.8985675429
 20
-5.7336760601
 30
0.0
 10
25.8980902379
 20
-6.2668162559
 30
0.0
 10
25.8977435698
 20
-6.8549638055
 30
0.0
 10
25.8975313384
 20
-7.5048824555
 30
0.0
 10
25.8974624011
 20
-8.2170809205
 30
0.0
 10
25.8975457418
 20
-8.9904527183
 30
0.0
 10
25.8977941218
 20
-9.8247161193
 30
0.0
 10
25.8982238762
 20
-10.7241491487
 30
0.0
 10
25.8988544331
 20
-11.6925362329
 30
0.0
 10
25.899717856
 20
-12.7343654989
 30
0.0
 10
25.9008192417
 20
-13.8559651983
 30
0.0
 10
25.9021249565
 20
-15.0639888232
 30
0.0
 10
25.9035749391
 20
-16.3645872551
 30
0.0
 10
25.9050649367
 20
-17.7665285679
 30
0.0
 10
25.9060977883
 20
-19.282894375
 30
0.0
 10
25.905822622
 20
-20.9362092408
 30
0.0
 10
25.9020338513
 20
-22.7611771187
 30
0.0
 10
25.889955346
 20
-24.7952064828
 30
0.0
 10
25.870399159
 20
-26.2266950561
 30
0.0
 10
25.8587174977
 20
-26.9830512832
 30
0.0
 11
25.9000310968
 21
-4.789994507
 31
0.0
 11
25.8992419445
 21
-5.2340971603
 31
0.0
 11
25.8986161975
 21
-5.7182442761
 31
0.0
 11
25.898132189
 21
-6.2486870578
 31
0.0
 11
25.8977804974
 21
-6.8335176247
 31
0.0
 11
25.897562232
 21
-7.4826868462
 31
0.0
 11
25.8974876901
 21
-8.1984429455
 31
0.0
 11
25.8975670519
 21
-8.9701129684
 31
0.0
 11
25.8978116405
 21
-9.8028021946
 31
0.0
 11
25.8982379253
 21
-10.7012331039
 31
0.0
 11
25.8988663232
 21
-11.6684120097
 31
0.0
 11
25.8997215477
 21
-12.7079633912
 31
0.0
 11
25.9008082679
 21
-13.826720876
 31
0.0
 11
25.9020982726
 21
-15.0332111525
 31
0.0
 11
25.9035277887
 21
-16.3320343732
 31
0.0
 11
25.9049391882
 21
-17.7285164215
 31
0.0
 11
25.9058634416
 21
-19.2390356191
 31
0.0
 11
25.9053341883
 21
-20.8811317405
 31
0.0
 11
25.9010877017
 21
-22.6884538422
 31
0.0
 11
25.8879791808
 21
-24.7139006524
 31
0.0
 11
25.8587174977
 21
-26.9830512832
 31
0.0
  0
LINE
  5
658
100
AcDbEntity
  8
RACCORDO
100
AcDbLine
 62
253
  6
CONTINUOUS
 10
25.9000310968
 20
-4.789994507
 11
33.1086565217
 21
-4.7899946237
  0
LINE
  5
659
100
AcDbEntity
  8
RACCORDO
100
AcDbLine
 62
253
  6
CONTINUOUS
 10
-33.1086565182
 20
-4.7899946237
 11
-25.9000310951
 21
-4.789994507
  0
SPLINE
  5
65A
100
AcDbEntity
  8
RACCORDO
100
AcDbSpline
 62
253
  6
CONTINUOUS
 70
0
 71
3
 72
27
 73
23
 74
21
 42
0.0000001
 43
0.0000001
 44
0.0000000001
 12
-0.3427741799
 22
22.1906500063
 32
0.0
 13
-0.046254227
 23
22.1932490272
 33
0.0
 40
0.0
 40
0.0
 40
0.0
 40
0.0
 40
0.1051190829
 40
0.2040621579
 40
0.2923061832
 40
0.3712340723
 40
0.4422075818
 40
0.5066106996
 40
0.5654179337
 40
0.6189856172
 40
0.6678595262
 40
0.7126869066
 40
0.7538542694
 40
0.791642293
 40
0.8263558994
 40
0.8584012946
 40
0.8879725633
 40
0.9147788925
 40
0.9390210987
 40
0.9611139559
 40
0.9813596414
 40
1.0
 40
1.0
 40
1.0
 40
1.0
 10
-25.8587174977
 20
-26.9830512832
 30
0.0
 10
-25.8707282002
 20
-26.2054976907
 30
0.0
 10
-25.8911896379
 20
-24.6960181033
 30
0.0
 10
-25.9030223779
 20
-22.5336219994
 30
0.0
 10
-25.906148946
 20
-20.5649675636
 30
0.0
 10
-25.905900353
 20
-18.8032229163
 30
0.0
 10
-25.9045182715
 20
-17.2178489371
 30
0.0
 10
-25.9029225609
 20
-15.7813230901
 30
0.0
 10
-25.9014758071
 20
-14.4735613995
 30
0.0
 10
-25.9002358352
 20
-13.2806809954
 30
0.0
 10
-25.8992442714
 20
-12.1912200801
 30
0.0
 10
-25.898509456
 20
-11.1934936505
 30
0.0
 10
-25.8979920873
 20
-10.2777778804
 30
0.0
 10
-25.8976614937
 20
-9.4368813595
 30
0.0
 10
-25.8974943562
 20
-8.6634669717
 30
0.0
 10
-25.897473069
 20
-7.9508381946
 30
0.0
 10
-25.8975850418
 20
-7.2967056103
 30
0.0
 10
-25.8978220142
 20
-6.700299227
 30
0.0
 10
-25.8981760635
 20
-6.1592164475
 30
0.0
 10
-25.8986449165
 20
-5.6666678777
 30
0.0
 10
-25.8992387146
 20
-5.2155606318
 30
0.0
 10
-25.8997436966
 20
-4.9278912135
 30
0.0
 10
-25.9000310951
 20
-4.789994507
 30
0.0
 11
-25.8587174977
 21
-26.9830512832
 31
0.0
 11
-25.8885712664
 21
-24.6503032538
 31
0.0
 11
-25.9019528379
 21
-22.4544709549
 31
0.0
 11
-25.905662501
 21
-20.4960485866
 31
0.0
 11
-25.9056674168
 21
-18.7443784854
 31
0.0
 11
-25.9044100984
 21
-17.1692427946
 31
0.0
 11
-25.9028777047
 21
-15.7399260813
 31
0.0
 11
-25.9014481356
 21
-14.4348004374
 31
0.0
 11
-25.9002265418
 21
-13.2459575436
 31
0.0
 11
-25.8992497743
 21
-12.1612847939
 31
0.0
 11
-25.898519162
 21
-11.1664176865
 31
0.0
 11
-25.8980052501
 21
-10.2527783112
 31
0.0
 11
-25.8976783471
 21
-9.4141375349
 31
0.0
 11
-25.8975149588
 21
-8.6437281673
 31
0.0
 11
-25.8974973099
 21
-7.9325351875
 31
0.0
 11
-25.8976144934
 21
-7.2762512438
 31
0.0
 11
-25.8978563136
 21
-6.68133046
 31
0.0
 11
-25.898214387
 21
-6.1433160926
 31
0.0
 11
-25.8986890033
 21
-5.6530029752
 31
0.0
 11
-25.8992885878
 21
-5.2036848587
 31
0.0
 11
-25.9000310951
 21
-4.789994507
 31
0.0
  0
SPLINE
  5
65B
100
AcDbEntity
  8
RACCORDO
100
AcDbSpline
 62
253
  6
CONTINUOUS
 70
0
 71
3
 72
17
 73
13
 74
11
 42
0.0000001
 43
0.0000001
 44
0.0000000001
 12
-0.0045707771
 22
2.9817939343
 32
0.0
 13
2.9817965151
 23
-0.0023453999
 33
0.0
 40
0.0
 40
0.0
 40
0.0
 40
0.0
 40
0.0619355125
 40
0.1289549731
 40
0.2029016733
 40
0.2847042035
 40
0.3750837726
 40
0.4757327574
 40
0.5884609431
 40
0.7153155513
 40
0.8560954072
 40
1.0
 40
1.0
 40
1.0
 40
1.0
 10
-24.1007520549
 20
17.4100053736
 30
0.0
 10
-24.1008464194
 20
17.4715650188
 30
0.0
 10
-24.094773748
 20
17.5998323831
 30
0.0
 10
-24.0647381199
 20
17.7996193964
 30
0.0
 10
-24.0075721408
 20
18.0140543786
 30
0.0
 10
-23.9158458857
 20
18.241569883
 30
0.0
 10
-23.7810178383
 20
18.4778987056
 30
0.0
 10
-23.5931855241
 20
18.7158682681
 30
0.0
 10
-23.3411154541
 20
18.9439224566
 30
0.0
 10
-23.0161324865
 20
19.1420064837
 30
0.0
 10
-22.6270628794
 20
19.2783755533
 30
0.0
 10
-22.3430314044
 20
19.3104545193
 30
0.0
 10
-22.2
 20
19.3103420147
 30
0.0
 11
-24.1007520549
 21
17.4100053736
 31
0.0
 11
-24.0920105368
 21
17.5944775265
 31
0.0
 11
-24.0623037033
 21
17.7920956242
 31
0.0
 11
-24.0055133853
 21
18.0051507806
 31
0.0
 11
-23.9143201704
 21
18.2313809037
 31
0.0
 11
-23.7807826775
 21
18.465463199
 31
0.0
 11
-23.5948384759
 21
18.7010342035
 31
0.0
 11
-23.3455599316
 21
18.9265233215
 31
0.0
 11
-23.0225587823
 21
19.1233656702
 31
0.0
 11
-22.6263756826
 21
19.2621161391
 31
0.0
 11
-22.2
 21
19.3103420147
 31
0.0
  0
SPLINE
  5
65C
100
AcDbEntity
  8
RACCORDO
100
AcDbSpline
 62
253
  6
CONTINUOUS
 70
0
 71
3
 72
18
 73
14
 74
12
 42
0.0000001
 43
0.0000001
 44
0.0000000001
 12
-2.9823217989
 22
-0.0024002434
 32
0.0
 13
0.0045688256
 23
2.9823192652
 33
0.0
 40
0.0
 40
0.0
 40
0.0
 40
0.0
 40
0.1394199376
 40
0.2723461655
 40
0.3906584264
 40
0.4961206766
 40
0.5908797283
 40
0.6760894953
 40
0.7532719255
 40
0.8237893378
 40
0.8880083323
 40
0.9461629446
 40
1.0
 40
1.0
 40
1.0
 40
1.0
 10
-22.2
 20
-28.8903312674
 30
0.0
 10
-22.3385983731
 20
-28.8904428147
 30
0.0
 10
-22.6103181691
 20
-28.8607142821
 30
0.0
 10
-22.9810647017
 20
-28.7362607321
 30
0.0
 10
-23.2903630791
 20
-28.5586438371
 30
0.0
 10
-23.534282543
 20
-28.3544672758
 30
0.0
 10
-23.7214176421
 20
-28.1397853668
 30
0.0
 10
-23.8610513924
 20
-27.9247473528
 30
0.0
 10
-23.9616978853
 20
-27.7155995509
 30
0.0
 10
-24.0305737223
 20
-27.5160487312
 30
0.0
 10
-24.0736339028
 20
-27.3288509146
 30
0.0
 10
-24.0962726039
 20
-27.1549093822
 30
0.0
 10
-24.1008340457
 20
-27.0435143889
 30
0.0
 10
-24.1007520549
 20
-26.9899946264
 30
0.0
 11
-22.2
 21
-28.8903312674
 31
0.0
 11
-22.6133232505
 21
-28.8450589386
 31
0.0
 11
-22.9891723589
 21
-28.7189901774
 31
0.0
 11
-23.2951655937
 21
-28.5432973183
 31
0.0
 11
-23.5363606155
 21
-28.3414326476
 31
0.0
 11
-23.7220593462
 21
-28.128407026
 31
0.0
 11
-23.8604529065
 21
-27.9152738853
 31
0.0
 11
-23.9602577296
 21
-27.7078536034
 31
0.0
 11
-24.0288645852
 21
-27.5090532509
 31
0.0
 11
-24.0717941894
 21
-27.322404819
 31
0.0
 11
-24.0941775518
 21
-27.1504194413
 31
0.0
 11
-24.1007520549
 21
-26.9899946264
 31
0.0
  0
SPLINE
  5
65D
100
AcDbEntity
  8
RACCORDO
100
AcDbSpline
 62
253
  6
CONTINUOUS
 70
0
 71
3
 72
17
 73
13
 74
11
 42
0.0000001
 43
0.0000001
 44
0.0000000001
 12
0.0045707771
 22
-2.9817939342
 32
0.0
 13
-2.9817965151
 23
0.0023453999
 33
0.0
 40
0.0
 40
0.0
 40
0.0
 40
0.0
 40
0.0619355124
 40
0.128954973
 40
0.2029016732
 40
0.2847042033
 40
0.3750837724
 40
0.4757327572
 40
0.5884609428
 40
0.7153155511
 40
0.8560954071
 40
1.0
 40
1.0
 40
1.0
 40
1.0
 10
24.1007520549
 20
-26.9899946264
 30
0.0
 10
24.1008464194
 20
-27.0515542714
 30
0.0
 10
24.094773748
 20
-27.1798216357
 30
0.0
 10
24.06473812
 20
-27.3796086489
 30
0.0
 10
24.0075721409
 20
-27.594043631
 30
0.0
 10
23.9158458859
 20
-27.8215591353
 30
0.0
 10
23.7810178386
 20
-28.0578879578
 30
0.0
 10
23.5931855246
 20
-28.2958575203
 30
0.0
 10
23.3411154547
 20
-28.5239117088
 30
0.0
 10
23.0161324871
 20
-28.7219957362
 30
0.0
 10
22.6270628798
 20
-28.858364806
 30
0.0
 10
22.3430314046
 20
-28.8904437721
 30
0.0
 10
22.2
 20
-28.8903312674
 30
0.0
 11
24.1007520549
 21
-26.9899946264
 31
0.0
 11
24.0920105368
 21
-27.1744667791
 31
0.0
 11
24.0623037033
 21
-27.3720848767
 31
0.0
 11
24.0055133854
 21
-27.585140033
 31
0.0
 11
23.9143201706
 21
-27.811370156
 31
0.0
 11
23.7807826778
 21
-28.0454524512
 31
0.0
 11
23.5948384764
 21
-28.2810234557
 31
0.0
 11
23.3455599322
 21
-28.5065125737
 31
0.0
 11
23.022558783
 21
-28.7033549226
 31
0.0
 11
22.6263756831
 21
-28.8421053917
 31
0.0
 11
22.2
 21
-28.8903312674
 31
0.0
  0
SPLINE
  5
65E
100
AcDbEntity
  8
RACCORDO
100
AcDbSpline
 62
253
  6
CONTINUOUS
 70
0
 71
3
 72
18
 73
14
 74
12
 42
0.0000001
 43
0.0000001
 44
0.0000000001
 12
2.9823217989
 22
0.0024002434
 32
0.0
 13
-0.0045688256
 23
-2.9823192652
 33
0.0
 40
0.0
 40
0.0
 40
0.0
 40
0.0
 40
0.1394199379
 40
0.2723461658
 40
0.3906584267
 40
0.4961206769
 40
0.5908797286
 40
0.6760894955
 40
0.7532719257
 40
0.823789338
 40
0.8880083324
 40
0.9461629446
 40
1.0
 40
1.0
 40
1.0
 40
1.0
 10
22.2
 20
19.3103420147
 30
0.0
 10
22.3385983733
 20
19.310453562
 30
0.0
 10
22.6103181696
 20
19.2807250293
 30
0.0
 10
22.9810647024
 20
19.156271479
 30
0.0
 10
23.2903630799
 20
18.9786545839
 30
0.0
 10
23.5342825436
 20
18.7744780225
 30
0.0
 10
23.7214176426
 20
18.5597961134
 30
0.0
 10
23.8610513928
 20
18.3447580995
 30
0.0
 10
23.9616978855
 20
18.1356102976
 30
0.0
 10
24.0305737224
 20
17.9360594781
 30
0.0
 10
24.0736339029
 20
17.7488616616
 30
0.0
 10
24.0962726039
 20
17.5749201293
 30
0.0
 10
24.1008340457
 20
17.4635251361
 30
0.0
 10
24.1007520549
 20
17.4100053736
 30
0.0
 11
22.2
 21
19.3103420147
 31
0.0
 11
22.6133232512
 21
19.2650696857
 31
0.0
 11
22.9891723598
 21
19.1390009244
 31
0.0
 11
23.2951655945
 21
18.9633080651
 31
0.0
 11
23.5363606162
 21
18.7614433942
 31
0.0
 11
23.7220593467
 21
18.5484177727
 31
0.0
 11
23.8604529068
 21
18.335284632
 31
0.0
 11
23.9602577299
 21
18.1278643502
 31
0.0
 11
24.0288645853
 21
17.9290639977
 31
0.0
 11
24.0717941894
 21
17.742415566
 31
0.0
 11
24.0941775518
 21
17.5704301884
 31
0.0
 11
24.1007520549
 21
17.4100053736
 31
0.0
  0
SPLINE
  5
65F
100
AcDbEntity
  8
RACCORDO
100
AcDbSpline
 62
253
  6
CONTINUOUS
 70
0
 71
3
 72
10
 73
6
 74
4
 42
0.0000001
 43
0.0000001
 44
0.0000000001
 12
1.7579581219
 22
-0.0086423598
 32
0.0
 13
1.7579704933
 23
-0.0055851097
 33
0.0
 40
0.0
 40
0.0
 40
0.0
 40
0.0
 40
0.3067482968
 40
0.6450311033
 40
1.0
 40
1.0
 40
1.0
 40
1.0
 10
24.1007520582
 20
17.4100053736
 30
0.0
 10
24.2805022781
 20
17.4091216973
 30
0.0
 10
24.658482252
 20
17.4074155329
 30
0.0
 10
25.24447087
 20
17.4051121227
 30
0.0
 10
25.650709245
 20
17.4037228819
 30
0.0
 10
25.8587175271
 20
17.4030620352
 30
0.0
 11
24.1007520582
 21
17.4100053736
 31
0.0
 11
24.6400036387
 21
17.4075487871
 31
0.0
 11
25.2346931938
 21
17.4051999898
 31
0.0
 11
25.8587175271
 21
17.4030620352
 31
0.0
  0
SPLINE
  5
660
100
AcDbEntity
  8
RACCORDO
100
AcDbSpline
 62
253
  6
CONTINUOUS
 70
0
 71
3
 72
10
 73
6
 74
4
 42
0.0000001
 43
0.0000001
 44
0.0000000001
 12
1.7579580943
 22
0.0086425868
 32
0.0
 13
1.7579704679
 23
0.0055847524
 33
0.0
 40
0.0
 40
0.0
 40
0.0
 40
0.0
 40
0.3067481974
 40
0.6450310102
 40
1.0
 40
1.0
 40
1.0
 40
1.0
 10
24.1007520646
 20
-26.9899946264
 30
0.0
 10
24.2805022234
 20
-26.989110927
 30
0.0
 10
24.6584821369
 20
-26.9874047182
 30
0.0
 10
25.244470746
 20
-26.985101288
 30
0.0
 10
25.6507091733
 20
-26.9837120893
 30
0.0
 10
25.858717507
 20
-26.9830512847
 30
0.0
 11
24.1007520646
 21
-26.9899946264
 31
0.0
 11
24.640003462
 21
-26.987537982
 31
0.0
 11
25.2346930191
 21
-26.985189169
 31
0.0
 11
25.858717507
 21
-26.9830512847
 31
0.0
  0
SPLINE
  5
661
100
AcDbEntity
  8
RACCORDO
100
AcDbSpline
 62
253
  6
CONTINUOUS
 70
0
 71
3
 72
10
 73
6
 74
4
 42
0.0000001
 43
0.0000001
 44
0.0000000001
 12
-1.7579581219
 22
0.0086423598
 32
0.0
 13
-1.7579704933
 23
0.0055851097
 33
0.0
 40
0.0
 40
0.0
 40
0.0
 40
0.0
 40
0.3067482968
 40
0.6450311033
 40
1.0
 40
1.0
 40
1.0
 40
1.0
 10
-24.1007520582
 20
-26.9899946264
 30
0.0
 10
-24.2805022781
 20
-26.98911095
 30
0.0
 10
-24.658482252
 20
-26.9874047856
 30
0.0
 10
-25.24447087
 20
-26.9851013754
 30
0.0
 10
-25.650709245
 20
-26.9837121346
 30
0.0
 10
-25.8587175271
 20
-26.9830512879
 30
0.0
 11
-24.1007520582
 21
-26.9899946264
 31
0.0
 11
-24.6400036387
 21
-26.9875380398
 31
0.0
 11
-25.2346931938
 21
-26.9851892425
 31
0.0
 11
-25.8587175271
 21
-26.9830512879
 31
0.0
  0
SPLINE
  5
662
100
AcDbEntity
  8
RACCORDO
100
AcDbSpline
 62
253
  6
CONTINUOUS
 70
0
 71
3
 72
10
 73
6
 74
4
 42
0.0000001
 43
0.0000001
 44
0.0000000001
 12
-1.7579580943
 22
-0.0086425868
 32
0.0
 13
-1.7579704679
 23
-0.0055847524
 33
0.0
 40
0.0
 40
0.0
 40
0.0
 40
0.0
 40
0.3067481974
 40
0.6450310102
 40
1.0
 40
1.0
 40
1.0
 40
1.0
 10
-24.1007520646
 20
17.4100053736
 30
0.0
 10
-24.2805022234
 20
17.4091216743
 30
0.0
 10
-24.6584821369
 20
17.4074154655
 30
0.0
 10
-25.244470746
 20
17.4051120353
 30
0.0
 10
-25.6507091733
 20
17.4037228366
 30
0.0
 10
-25.858717507
 20
17.403062032
 30
0.0
 11
-24.1007520646
 21
17.4100053736
 31
0.0
 11
-24.640003462
 21
17.4075487293
 31
0.0
 11
-25.2346930191
 21
17.4051999163
 31
0.0
 11
-25.858717507
 21
17.403062032
 31
0.0
  0
SPLINE
  5
663
100
AcDbEntity
  8
RACCORDO
100
AcDbSpline
 62
253
  6
CONTINUOUS
 70
0
 71
3
 72
23
 73
19
 74
17
 42
0.0000001
 43
0.0000001
 44
0.0000000001
 12
27.9999981499
 22
-0.0265362065
 32
0.0
 13
28.0000107224
 23
0.000324704
 33
0.0
 40
0.0
 40
0.0
 40
0.0
 40
0.0
 40
0.0760218922
 40
0.1599630767
 40
0.25296544
 40
0.3479373184
 40
0.4381632377
 40
0.5199744516
 40
0.5929048631
 40
0.6582352691
 40
0.7171846633
 40
0.7704538841
 40
0.818781471
 40
0.8628468172
 40
0.9024763653
 40
0.9381046319
 40
0.9704065007
 40
1.0
 40
1.0
 40
1.0
 40
1.0
 10
-28.0000098903
 20
36.5128611675
 30
0.0
 10
-27.2904722766
 20
36.5121887233
 30
0.0
 10
-25.797483185
 20
36.5112947437
 30
0.0
 10
-23.4364716238
 20
36.5105589716
 30
0.0
 10
-20.8985933699
 20
36.51012325
 30
0.0
 10
-18.3020575567
 20
36.5098259626
 30
0.0
 10
-15.8099725037
 20
36.5096037599
 30
0.0
 10
-13.523607885
 20
36.5094172139
 30
0.0
 10
-11.4696014783
 20
36.5092602267
 30
0.0
 10
-9.6289721361
 20
36.5091242824
 30
0.0
 10
-7.9718473099
 20
36.5090068623
 30
0.0
 10
-6.4734155214
 20
36.5089077767
 30
0.0
 10
-5.1139015667
 20
36.5088261489
 30
0.0
 10
-3.8816912715
 20
36.5087612671
 30
0.0
 10
-2.7680080111
 20
36.5087128601
 30
0.0
 10
-1.7641172475
 20
36.5086805535
 30
0.0
 10
-0.8538963089
 20
36.5086639489
 30
0.0
 10
-0.2762059851
 20
36.5086635798
 30
0.0
 10
0.0000001142
 20
36.5086667829
 30
0.0
 11
-28.0000098903
 21
36.5128611675
 31
0.0
 11
-25.8713965704
 21
36.5114358307
 31
0.0
 11
-23.5210426408
 21
36.5106373403
 31
0.0
 11
-20.9169755152
 21
36.5101509685
 31
0.0
 11
-18.2577619206
 21
36.5098324052
 31
0.0
 11
-15.7314352225
 21
36.5096001017
 31
0.0
 11
-13.4407203654
 21
36.5094125345
 31
0.0
 11
-11.3986680657
 21
36.5092557289
 31
0.0
 11
-9.5694160033
 21
36.5091208452
 31
0.0
 11
-7.9188323386
 21
36.5090044733
 31
0.0
 11
-6.427293587
 21
36.5089063129
 31
0.0
 11
-5.074120638
 21
36.5088255033
 31
0.0
 11
-3.8402904744
 21
36.5087610769
 31
0.0
 11
-2.7306627013
 21
36.5087134347
 31
0.0
 11
-1.7330708569
 21
36.5086819855
 31
0.0
 11
-0.8286181837
 21
36.5086662575
 31
0.0
 11
0.0000001142
 21
36.5086667829
 31
0.0
  0
SPLINE
  5
664
100
AcDbEntity
  8
RACCORDO
100
AcDbSpline
 62
253
  6
CONTINUOUS
 70
0
 71
3
 72
23
 73
19
 74
17
 42
0.0000001
 43
0.0000001
 44
0.0000000001
 12
28.1007587411
 22
0.1323418237
 32
0.0
 13
28.1010663999
 23
-0.0149455684
 33
0.0
 40
0.0
 40
0.0
 40
0.0
 40
0.0
 40
0.0775974063
 40
0.1620683785
 40
0.2551193241
 40
0.3499070992
 40
0.4398649625
 40
0.5214042778
 40
0.5940848265
 40
0.6591888412
 40
0.7179401036
 40
0.7710376766
 40
0.8192167351
 40
0.8631553409
 40
0.9026821896
 40
0.9382311724
 40
0.9704778906
 40
1.0
 40
1.0
 40
1.0
 40
1.0
 10
-28.1016821877
 20
35.1624214405
 30
0.0
 10
-27.374833523
 20
35.1658445679
 30
0.0
 10
-25.856731448
 20
35.1680656236
 30
0.0
 10
-23.4670242738
 20
35.1671883918
 30
0.0
 10
-20.9162931956
 20
35.1653571642
 30
0.0
 10
-18.3141670576
 20
35.1632457605
 30
0.0
 10
-15.8198704361
 20
35.1612261499
 30
0.0
 10
-13.5326527638
 20
35.1592888665
 30
0.0
 10
-11.4782415775
 20
35.1575537268
 30
0.0
 10
-9.6372866209
 20
35.155909706
 30
0.0
 10
-7.9797657745
 20
35.1544409728
 30
0.0
 10
-6.4807813026
 20
35.1531407575
 30
0.0
 10
-5.1205472432
 20
35.1520037604
 30
0.0
 10
-3.8874303901
 20
35.1510245774
 30
0.0
 10
-2.7726196664
 20
35.1502021392
 30
0.0
 10
-1.7673270539
 20
35.1495240656
 30
0.0
 10
-0.8557490098
 20
35.1489674735
 30
0.0
 10
-0.277159039
 20
35.1486514048
 30
0.0
 10
-0.0006247866
 20
35.1485043299
 30
0.0
 11
-28.1016821877
 21
35.1624214405
 31
0.0
 11
-25.9211175467
 21
35.1673345099
 31
0.0
 11
-23.5473928254
 21
35.1670858048
 31
0.0
 11
-20.9325622453
 21
35.1653284765
 31
0.0
 11
-18.2689251496
 21
35.1632098356
 31
0.0
 11
-15.7410137447
 21
35.161145808
 31
0.0
 11
-13.4496725175
 21
35.159219556
 31
0.0
 11
-11.4072720459
 21
35.157476393
 31
0.0
 11
-9.5777802625
 21
35.1558587847
 31
0.0
 11
-7.9268075493
 21
35.1543994535
 31
0.0
 11
-6.4347094728
 21
35.1531090125
 31
0.0
 11
-5.0808268289
 21
35.1519804278
 31
0.0
 11
-3.846105361
 21
35.1510039678
 31
0.0
 11
-2.7353589057
 21
35.150186977
 31
0.0
 11
-1.7363946627
 21
35.1495143628
 31
0.0
 11
-0.8302275347
 21
35.1489620311
 31
0.0
 11
-0.0006247866
 21
35.1485043299
 31
0.0
  0
SPLINE
  5
665
100
AcDbEntity
  8
RACCORDO
100
AcDbSpline
 62
253
  6
CONTINUOUS
 70
0
 71
3
 72
11
 73
7
 74
5
 42
0.0000001
 43
0.0000001
 44
0.0000000001
 12
-1.2924798738
 22
-0.4163985393
 32
0.0
 13
-0.0264793004
 23
-1.3576416369
 33
0.0
 40
0.0
 40
0.0
 40
0.0
 40
0.0
 40
0.0796846702
 40
0.286323506
 40
0.6027435571
 40
1.0
 40
1.0
 40
1.0
 40
1.0
 10
-28.0000098669
 20
36.5128611675
 30
0.0
 10
-28.0343401443
 20
36.5018009741
 30
0.0
 10
-28.0267169468
 20
36.3272849025
 30
0.0
 10
-28.0775712441
 20
36.0959301695
 30
0.0
 10
-28.0851076087
 20
35.6588517127
 30
0.0
 10
-28.0981758301
 20
35.3421987363
 30
0.0
 10
-28.1016821877
 20
35.1624214405
 30
0.0
 11
-28.0000098669
 21
36.5128611675
 31
0.0
 11
-28.0325585235
 21
36.4096688837
 31
0.0
 11
-28.0620897411
 21
36.1306323766
 31
0.0
 11
-28.0858656959
 21
35.701623976
 31
0.0
 11
-28.1016821877
 21
35.1624214405
 31
0.0
  0
SPLINE
  5
666
100
AcDbEntity
  8
RACCORDO
100
AcDbSpline
 62
253
  6
CONTINUOUS
 70
0
 71
3
 72
24
 73
20
 74
18
 42
0.0000001
 43
0.0000001
 44
0.0000000001
 12
28.0000104923
 22
-0.0003280218
 32
0.0
 13
27.9999979245
 23
0.026531268
 33
0.0
 40
0.0
 40
0.0
 40
0.0
 40
0.0
 40
0.0286747864
 40
0.0598489661
 40
0.0940539284
 40
0.1318835002
 40
0.1737450271
 40
0.2190579968
 40
0.2678105563
 40
0.3202737457
 40
0.37659812
 40
0.4370806375
 40
0.5026355675
 40
0.5742556036
 40
0.652968565
 40
0.7401820425
 40
0.8343409826
 40
0.9224029926
 40
1.0
 40
1.0
 40
1.0
 40
1.0
 10
0.0000001142
 20
36.5086667829
 30
0.0
 10
0.267631554
 20
36.5086636475
 30
0.0
 10
0.826222114
 20
36.5086637388
 30
0.0
 10
1.704059108
 20
36.5086789858
 30
0.0
 10
2.6673407978
 20
36.5087089039
 30
0.0
 10
3.7303710978
 20
36.508753745
 30
0.0
 10
4.8970761718
 20
36.5088135947
 30
0.0
 10
6.1657291684
 20
36.5088879766
 30
0.0
 10
7.5333310512
 20
36.5089763632
 30
0.0
 10
9.003706082
 20
36.5090783529
 30
0.0
 10
10.583560761
 20
36.5091932975
 30
0.0
 10
12.2856050643
 20
36.5093205244
 30
0.0
 10
14.1304089303
 20
36.5094642638
 30
0.0
 10
16.145363669
 20
36.5096312852
 30
0.0
 10
18.3624649251
 20
36.5098318495
 30
0.0
 10
20.7899293558
 20
36.5101085617
 30
0.0
 10
23.3046515955
 20
36.5105252513
 30
0.0
 10
25.7296199951
 20
36.5112559347
 30
0.0
 10
27.2757712083
 20
36.5121717103
 30
0.0
 10
28.0000098903
 20
36.5128579593
 30
0.0
 11
0.0000001142
 21
36.5086667829
 31
0.0
 11
0.8028944337
 21
36.5086659412
 31
0.0
 11
1.6757717938
 21
36.5086803937
 31
0.0
 11
2.633511096
 21
36.5087095395
 31
0.0
 11
3.692739503
 21
36.5087536855
 31
0.0
 11
4.8648626936
 21
36.508813318
 31
0.0
 11
6.1336263182
 21
36.5088873164
 31
0.0
 11
7.4986984925
 21
36.5089751625
 31
0.0
 11
8.9676683421
 21
36.5090766545
 31
0.0
 11
10.5447514108
 21
36.5091909791
 31
0.0
 11
12.2382625297
 21
36.5093178433
 31
0.0
 11
14.0738012518
 21
36.5094613079
 31
0.0
 11
16.0791630083
 21
36.509628209
 31
0.0
 11
18.2831267446
 21
36.5098328727
 31
0.0
 11
20.7251050127
 21
36.5101214112
 31
0.0
 11
23.3615562814
 21
36.5105962654
 31
0.0
 11
25.8272933497
 21
36.5114124981
 31
0.0
 11
28.0000098903
 21
36.5128579593
 31
0.0
  0
SPLINE
  5
667
100
AcDbEntity
  8
RACCORDO
100
AcDbSpline
 62
253
  6
CONTINUOUS
 70
0
 71
3
 72
24
 73
20
 74
18
 42
0.0000001
 43
0.0000001
 44
0.0000000001
 12
28.1023157685
 22
0.0149322329
 32
0.0
 13
28.1020079665
 23
-0.1323736082
 33
0.0
 40
0.0
 40
0.0
 40
0.0
 40
0.0
 40
0.0286478829
 40
0.0597684006
 40
0.0938969315
 40
0.1316282561
 40
0.173369022
 40
0.2185419264
 40
0.2671366101
 40
0.3194230477
 40
0.3755511591
 40
0.4358211138
 40
0.5011503686
 40
0.572531163
 40
0.6510112522
 40
0.7380478855
 40
0.8322285443
 40
0.9208136875
 40
1.0
 40
1.0
 40
1.0
 40
1.0
 10
-0.0006247873
 20
35.1485035879
 30
0.0
 10
0.2677324961
 20
35.1486461802
 30
0.0
 10
0.8276093142
 20
35.1489517573
 30
0.0
 10
1.7071830161
 20
35.1494860245
 30
0.0
 10
2.6718452586
 20
35.1501316516
 30
0.0
 10
3.7359919705
 20
35.1509093341
 30
0.0
 10
4.9035961103
 20
35.1518273369
 30
0.0
 10
6.1729620389
 20
35.1528793915
 30
0.0
 10
7.541113842
 20
35.1540566767
 30
0.0
 10
9.0118878252
 20
35.1553518197
 30
0.0
 10
10.5920291451
 20
35.1567655876
 30
0.0
 10
12.2943482574
 20
35.1582489773
 30
0.0
 10
14.1395459623
 20
35.1597930812
 30
0.0
 10
16.1553259155
 20
35.1615109711
 30
0.0
 10
18.3744484841
 20
35.1632903437
 30
0.0
 10
20.8071471926
 20
35.1652514154
 30
0.0
 10
23.3345050796
 20
35.1671132157
 30
0.0
 10
25.7883240634
 20
35.168114279
 30
0.0
 10
27.3599172438
 20
35.1659133765
 30
0.0
 10
28.1016820386
 20
35.1624193172
 30
0.0
 11
-0.0006247873
 21
35.1485035879
 31
0.0
 11
0.8044470545
 21
35.1489470419
 31
0.0
 11
1.6790056335
 21
35.1494775104
 31
0.0
 11
2.6380963062
 21
35.1501184059
 31
0.0
 11
3.6984337717
 21
35.1508911869
 31
0.0
 11
4.8714457639
 21
35.1518100543
 31
0.0
 11
6.1409087317
 21
35.1528592858
 31
0.0
 11
7.5065315683
 21
35.1540313247
 31
0.0
 11
8.9759011875
 21
35.1553234666
 31
0.0
 11
10.5532306981
 21
35.1567249628
 31
0.0
 11
12.2469555937
 21
35.158198314
 31
0.0
 11
14.082858544
 21
35.1597501468
 31
0.0
 11
16.0888237396
 21
35.1614382495
 31
0.0
 11
18.2942955747
 21
35.163227571
 31
0.0
 11
20.7402261002
 21
35.1651702644
 31
0.0
 11
23.3869204534
 21
35.1670023953
 31
0.0
 11
25.8763684464
 21
35.1673578466
 31
0.0
 11
28.1016820386
 21
35.1624193172
 31
0.0
  0
SPLINE
  5
668
100
AcDbEntity
  8
RACCORDO
100
AcDbSpline
 62
253
  6
CONTINUOUS
 70
0
 71
3
 72
17
 73
13
 74
11
 42
0.0000001
 43
0.0000001
 44
0.0000000001
 12
9.1024883821
 22
0.0047855567
 32
0.0
 13
-0.0106788939
 23
-9.1024833759
 33
0.0
 40
0.0
 40
0.0
 40
0.0
 40
0.0
 40
0.1242806834
 40
0.2510335627
 40
0.3779586358
 40
0.499446104
 40
0.6068462665
 40
0.7016069766
 40
0.7869163636
 40
0.864396996
 40
0.9351504162
 40
1.0
 40
1.0
 40
1.0
 40
1.0
 10
28.0000098903
 20
36.5128589696
 30
0.0
 10
28.3770977159
 20
36.5130572203
 30
0.0
 10
29.1408968067
 20
36.4386365288
 30
0.0
 10
30.2451039578
 20
36.1029420947
 30
0.0
 10
31.2537530402
 20
35.5589209321
 30
0.0
 10
32.0914897847
 20
34.8675105703
 30
0.0
 10
32.7279560747
 20
34.1135991397
 30
0.0
 10
33.1799868747
 20
33.3638896508
 30
0.0
 10
33.4861632359
 20
32.6423830012
 30
0.0
 10
33.6780014512
 20
31.9583993986
 30
0.0
 10
33.7791859178
 20
31.3185323789
 30
0.0
 10
33.7997627328
 20
30.9067694287
 30
0.0
 10
33.7995318922
 20
30.7100053424
 30
0.0
 11
28.0000098903
 21
36.5128589696
 31
0.0
 11
29.125922864
 21
36.4029618214
 31
0.0
 11
30.2298468838
 21
36.0675076214
 31
0.0
 11
31.2467044836
 21
35.519057397
 31
0.0
 11
32.0996450004
 21
34.8152313615
 31
0.0
 11
32.7303260656
 21
34.0682638329
 31
0.0
 11
33.17571732
 21
33.3295936812
 31
0.0
 11
33.4790461437
 21
32.6147600876
 31
0.0
 11
33.6694919565
 21
31.9356934887
 31
0.0
 11
33.7700609909
 21
31.2995618677
 31
0.0
 11
33.7995318922
 21
30.7100053424
 31
0.0
  0
SPLINE
  5
669
100
AcDbEntity
  8
RACCORDO
100
AcDbSpline
 62
253
  6
CONTINUOUS
 70
0
 71
3
 72
17
 73
13
 74
11
 42
0.0000001
 43
0.0000001
 44
0.0000000001
 12
6.8227259772
 22
-0.0337196611
 32
0.0
 13
0.537626529
 23
-6.801594261
 33
0.0
 40
0.0
 40
0.0
 40
0.0
 40
0.0
 40
0.1137617579
 40
0.2328228242
 40
0.3565382945
 40
0.480357822
 40
0.5944368637
 40
0.6972168577
 40
0.7886656775
 40
0.8686523149
 40
0.9384474417
 40
1.0
 40
1.0
 40
1.0
 40
1.0
 10
28.1016815822
 20
35.1624164108
 30
0.0
 10
28.3604033491
 20
35.1611377415
 30
0.0
 10
28.8910788453
 20
35.1030165099
 30
0.0
 10
29.6677521016
 20
34.8531689671
 30
0.0
 10
30.4035037471
 20
34.4513972328
 30
0.0
 10
31.0526349624
 20
33.9412681193
 30
0.0
 10
31.5930538556
 20
33.3834398831
 30
0.0
 10
32.0218781122
 20
32.8269085732
 30
0.0
 10
32.3454066136
 20
32.2920560112
 30
0.0
 10
32.5691235291
 20
31.7893623413
 30
0.0
 10
32.7039381284
 20
31.3265284922
 30
0.0
 10
32.7479487468
 20
31.0300262341
 30
0.0
 10
32.7589795095
 20
30.8904743918
 30
0.0
 11
28.1016815822
 21
35.1624164108
 31
0.0
 11
28.8733893249
 21
35.0792632439
 31
0.0
 11
29.6476056987
 21
34.8333555784
 31
0.0
 11
30.3901935176
 21
34.4320498359
 31
0.0
 11
31.0566644957
 21
33.9129174372
 31
0.0
 11
31.5992510036
 21
33.3548741314
 31
0.0
 11
32.0261592906
 21
32.7985482454
 31
0.0
 11
32.3466159277
 21
32.2631922937
 31
0.0
 11
32.5662102115
 21
31.7635889669
 31
0.0
 11
32.69796423
 21
31.3059797294
 31
0.0
 11
32.7589795095
 21
30.8904743918
 31
0.0
  0
SPLINE
  5
66A
100
AcDbEntity
  8
RACCORDO
100
AcDbSpline
 62
253
  6
CONTINUOUS
 70
0
 71
3
 72
11
 73
7
 74
5
 42
0.0000001
 43
0.0000001
 44
0.0000000001
 12
1.2924669641
 22
-0.4163881793
 32
0.0
 13
0.0264748859
 23
-1.3576262554
 33
0.0
 40
0.0
 40
0.0
 40
0.0
 40
0.0
 40
0.0796849267
 40
0.286323606
 40
0.6027434467
 40
1.0
 40
1.0
 40
1.0
 40
1.0
 10
28.0000098821
 20
36.5128403932
 30
0.0
 10
28.0343399273
 20
36.5017804393
 30
0.0
 10
28.0267188274
 20
36.3272666267
 30
0.0
 10
28.077571908
 20
36.0959143425
 30
0.0
 10
28.085108622
 20
35.6588411074
 30
0.0
 10
28.0981758082
 20
35.3421917198
 30
0.0
 10
28.1016815822
 20
35.1624164108
 30
0.0
 11
28.0000098821
 21
36.5128403932
 31
0.0
 11
28.0325592697
 21
36.4096492668
 31
0.0
 11
28.0620908293
 21
36.1306162232
 31
0.0
 11
28.0858664173
 21
35.7016129892
 31
0.0
 11
28.1016815822
 21
35.1624164108
 31
0.0
  0
SPLINE
  5
66B
100
AcDbEntity
  8
RACCORDO
100
AcDbSpline
 62
253
  6
CONTINUOUS
 70
0
 71
3
 72
25
 73
21
 74
19
 42
0.0000001
 43
0.0000001
 44
0.0000000001
 12
-0.0637846154
 22
-35.4999451684
 32
0.0
 13
-0.0003134715
 23
-35.5000024696
 33
0.0
 40
0.0
 40
0.0
 40
0.0
 40
0.0
 40
0.050087104
 40
0.1062380775
 40
0.1677583776
 40
0.234444423
 40
0.3067981726
 40
0.3849998739
 40
0.4646540857
 40
0.5406070448
 40
0.6106769772
 40
0.6738190689
 40
0.7300993262
 40
0.7808660224
 40
0.8268404038
 40
0.8687227369
 40
0.9065080356
 40
0.9405831292
 40
0.9715550068
 40
1.0
 40
1.0
 40
1.0
 40
1.0
 10
33.7995295412
 20
30.7100053424
 30
0.0
 10
33.7984646123
 20
30.1173088604
 30
0.0
 10
33.7968332764
 20
28.860159061
 30
0.0
 10
33.795718651
 20
26.8750183419
 30
0.0
 10
33.795394001
 20
24.6934565754
 30
0.0
 10
33.7955543974
 20
22.3201619499
 30
0.0
 10
33.7959881537
 20
19.7494707667
 30
0.0
 10
33.7965189644
 20
17.025322954
 30
0.0
 10
33.7970465834
 20
14.2585844907
 30
0.0
 10
33.7974862225
 20
11.5880719517
 30
0.0
 10
33.7978312429
 20
9.1129528354
 30
0.0
 10
33.7980880088
 20
6.8706273632
 30
0.0
 10
33.7982737825
 20
4.8567235305
 30
0.0
 10
33.7984088439
 20
3.0459709466
 30
0.0
 10
33.7985067443
 20
1.4055938083
 30
0.0
 10
33.7985761878
 20
-0.0811701166
 30
0.0
 10
33.7986228992
 20
-1.4271257934
 30
0.0
 10
33.7986509287
 20
-2.6439744043
 30
0.0
 10
33.7986633671
 20
-3.7502960603
 30
0.0
 10
33.7986623636
 20
-4.4533957472
 30
0.0
 10
33.7986593914
 20
-4.789994857
 30
0.0
 11
33.7995295412
 21
30.7100053424
 31
0.0
 11
33.7971320982
 21
28.9319146426
 31
0.0
 11
33.7958851698
 21
26.938555334
 31
0.0
 11
33.7954786923
 21
24.7545845673
 31
0.0
 11
33.7955881465
 21
22.3872297921
 31
0.0
 11
33.7959872258
 21
19.8186715357
 31
0.0
 11
33.7965137113
 21
17.0425109947
 31
0.0
 11
33.7970423553
 21
14.214786329
 31
0.0
 11
33.7974858874
 21
11.5184561311
 31
0.0
 11
33.7978318163
 21
9.0309733801
 31
0.0
 11
33.7980885115
 21
6.7894289839
 31
0.0
 11
33.7982736185
 21
4.7914797185
 31
0.0
 11
33.7984083744
 21
2.989261885
 31
0.0
 11
33.7985059408
 21
1.3571712337
 31
0.0
 11
33.798575325
 21
-0.1296516955
 31
0.0
 11
33.7986216791
 21
-1.471029889
 31
0.0
 11
33.7986492839
 21
-2.6806957965
 31
0.0
 11
33.7986612827
 21
-3.7801975276
 31
0.0
 11
33.7986593914
 21
-4.789994857
 31
0.0
  0
SPLINE
  5
66C
100
AcDbEntity
  8
RACCORDO
100
AcDbSpline
 62
253
  6
CONTINUOUS
 70
0
 71
3
 72
25
 73
21
 74
19
 42
0.0000001
 43
0.0000001
 44
0.0000000001
 12
2.8099285706
 22
-35.5759967424
 32
0.0
 13
-0.0358128057
 23
-35.6867757052
 33
0.0
 40
0.0
 40
0.0
 40
0.0
 40
0.0
 40
0.0524805495
 40
0.109936453
 40
0.1719904404
 40
0.2387337705
 40
0.3108716259
 40
0.3886924165
 40
0.4678905205
 40
0.5433825919
 40
0.6130240597
 40
0.6757772365
 40
0.7317147323
 40
0.7821761724
 40
0.8278760601
 40
0.8695087724
 40
0.9070673411
 40
0.9409355133
 40
0.9717156909
 40
1.0
 40
1.0
 40
1.0
 40
1.0
 10
32.7589812177
 20
30.8904747131
 30
0.0
 10
32.8081367495
 20
30.2681254271
 30
0.0
 10
32.8888440851
 20
28.9626029545
 30
0.0
 10
32.9581839362
 20
26.9177131651
 30
0.0
 10
33.0018005443
 20
24.7025182873
 30
0.0
 10
33.0302310299
 20
22.3124306857
 30
0.0
 10
33.0512093588
 20
19.7347139058
 30
0.0
 10
33.066527217
 20
17.008798406
 30
0.0
 10
33.0782669038
 20
14.2429658879
 30
0.0
 10
33.0867243075
 20
11.5744199508
 30
0.0
 10
33.0933306518
 20
9.1014919264
 30
0.0
 10
33.098150372
 20
6.8611736218
 30
0.0
 10
33.1018770066
 20
4.8490115397
 30
0.0
 10
33.1047178758
 20
3.0397072987
 30
0.0
 10
33.1068366678
 20
1.4005661548
 30
0.0
 10
33.1083297148
 20
-0.0850882413
 30
0.0
 10
33.1092405075
 20
-1.4299977524
 30
0.0
 10
33.1096086369
 20
-2.6458101345
 30
0.0
 10
33.1094616692
 20
-3.7512997042
 30
0.0
 10
33.1089935035
 20
-4.4539069819
 30
0.0
 10
33.1086558567
 20
-4.79036558
 30
0.0
 11
32.7589812177
 21
30.8904747131
 31
0.0
 11
32.8768999394
 21
29.0213280427
 31
0.0
 11
32.9516624359
 21
26.9722745215
 31
0.0
 11
32.9979312663
 21
24.7582500863
 31
0.0
 11
33.0280345103
 21
22.3765848751
 31
0.0
 11
33.0496194383
 21
19.8023066062
 31
0.0
 11
33.0658044093
 21
17.0251792705
 31
0.0
 11
33.0779354008
 21
14.1988789065
 31
0.0
 11
33.0867123399
 21
11.5048232279
 31
0.0
 11
33.0933229079
 21
9.0195513263
 31
0.0
 11
33.0982066702
 21
6.7800969806
 31
0.0
 11
33.1018990313
 21
4.7838705229
 31
0.0
 11
33.1047193932
 21
2.9830657313
 31
0.0
 11
33.1068173792
 21
1.3521846159
 31
0.0
 11
33.1082930837
 21
-0.1335526646
 31
0.0
 11
33.109182271
 21
-1.4738972607
 31
0.0
 11
33.1095277931
 21
-2.6825436842
 31
0.0
 11
33.1093559472
 21
-3.7809895202
 31
0.0
 11
33.1086558567
 21
-4.79036558
 31
0.0
  0
SPLINE
  5
66D
100
AcDbEntity
  8
RACCORDO
100
AcDbSpline
 62
253
  6
CONTINUOUS
 70
0
 71
3
 72
11
 73
7
 74
5
 42
0.0000001
 43
0.0000001
 44
0.0000000001
 12
-0.1760077328
 22
1.0528822702
 32
0.0
 13
-1.0656678853
 23
0.0623839335
 33
0.0
 40
0.0
 40
0.0
 40
0.0
 40
0.0
 40
0.0888684013
 40
0.2915616678
 40
0.6018501017
 40
1.0
 40
1.0
 40
1.0
 40
1.0
 10
33.7995349794
 20
30.7100057557
 30
0.0
 10
33.7943211375
 20
30.7411950771
 30
0.0
 10
33.6699173087
 20
30.7817517768
 30
0.0
 10
33.4817531299
 20
30.8241172997
 30
0.0
 10
33.1484489213
 20
30.8636755242
 30
0.0
 10
32.9004130711
 20
30.8821953275
 30
0.0
 10
32.7589812177
 20
30.8904747131
 30
0.0
 11
33.7995349794
 21
30.7100057557
 31
0.0
 11
33.7215731917
 21
30.764057406
 31
0.0
 11
33.5111335848
 21
30.8143829792
 31
0.0
 11
33.1827231124
 21
30.8575131739
 31
0.0
 11
32.7589812177
 21
30.8904747131
 31
0.0
  0
SPLINE
  5
66E
100
AcDbEntity
  8
RACCORDO
100
AcDbSpline
 62
253
  6
CONTINUOUS
 70
0
 71
3
 72
25
 73
21
 74
19
 42
0.0000001
 43
0.0000001
 44
0.0000000001
 12
0.0003053338
 22
-35.5000020006
 32
0.0
 13
0.0636852975
 23
-35.4999448776
 33
0.0
 40
0.0
 40
0.0
 40
0.0
 40
0.0
 40
0.0291162828
 40
0.0608540349
 40
0.0957975577
 40
0.1345483191
 40
0.1773139166
 40
0.223443615
 40
0.2732338042
 40
0.3269819378
 40
0.3844340408
 40
0.4462048249
 40
0.5136224812
 40
0.5874907162
 40
0.6658216793
 40
0.7451649267
 40
0.8206716976
 40
0.8877504237
 40
0.9472250534
 40
1.0
 40
1.0
 40
1.0
 40
1.0
 10
33.7986593914
 20
-4.789994857
 30
0.0
 10
33.7986623548
 20
-5.1345375567
 30
0.0
 10
33.7986630824
 20
-5.8546436771
 30
0.0
 10
33.7986495972
 20
-6.9882481736
 30
0.0
 10
33.7986197603
 20
-8.235860673
 30
0.0
 10
33.7985704131
 20
-9.6139693499
 30
0.0
 10
33.7984978505
 20
-11.1244477777
 30
0.0
 10
33.7983974386
 20
-12.7655594403
 30
0.0
 10
33.7982627324
 20
-14.536631119
 30
0.0
 10
33.7980851681
 20
-16.4416845903
 30
0.0
 10
33.7978518892
 20
-18.4885084382
 30
0.0
 10
33.7975506085
 20
-20.6970883063
 30
0.0
 10
33.7971695925
 20
-23.099925738
 30
0.0
 10
33.7966913594
 20
-25.6987252837
 30
0.0
 10
33.7961542242
 20
-28.4386443242
 30
0.0
 10
33.7956451954
 20
-31.1979527125
 30
0.0
 10
33.795374166
 20
-33.8241096626
 30
0.0
 10
33.7956215863
 20
-36.2151546489
 30
0.0
 10
33.7967133523
 20
-38.337206165
 30
0.0
 10
33.7984009091
 20
-39.6654920332
 30
0.0
 10
33.7995212384
 20
-40.2899945981
 30
0.0
 11
33.7986593914
 21
-4.789994857
 31
0.0
 11
33.7986609234
 21
-5.8236229562
 31
0.0
 11
33.7986478999
 21
-6.950313218
 31
0.0
 11
33.7986185059
 21
-8.1908083463
 31
0.0
 11
33.798569448
 21
-9.5664604541
 31
0.0
 11
33.7984965625
 21
-11.0846392481
 31
0.0
 11
33.7983961842
 21
-12.7222436293
 31
0.0
 11
33.7982614362
 21
-14.4897954408
 31
0.0
 11
33.7980828701
 21
-16.397854283
 31
0.0
 11
33.7978503612
 21
-18.4374040408
 31
0.0
 11
33.7975519805
 21
-20.630266982
 31
0.0
 11
33.7971720076
 21
-23.0235938846
 31
0.0
 11
33.7966959781
 21
-25.6459163323
 31
0.0
 11
33.7961618974
 21
-28.4266656259
 31
0.0
 11
33.7956759192
 21
-31.2433510277
 31
0.0
 11
33.7954616658
 21
-33.9238415353
 31
0.0
 11
33.7958038207
 21
-36.3051364231
 31
0.0
 11
33.7970360451
 21
-38.416485537
 31
0.0
 11
33.7995212384
 21
-40.2899945981
 31
0.0
  0
SPLINE
  5
66F
100
AcDbEntity
  8
RACCORDO
100
AcDbSpline
 62
253
  6
CONTINUOUS
 70
0
 71
3
 72
25
 73
21
 74
19
 42
0.0000001
 43
0.0000001
 44
0.0000000001
 12
0.0357973415
 22
-35.686018297
 32
0.0
 13
-2.8095804185
 23
-35.5752644575
 33
0.0
 40
0.0
 40
0.0
 40
0.0
 40
0.0
 40
0.0289311893
 40
0.0604733152
 40
0.095205538
 40
0.133724751
 40
0.1762365652
 40
0.222091935
 40
0.2715838282
 40
0.3250062101
 40
0.3821060247
 40
0.4435003544
 40
0.510509143
 40
0.5839419344
 40
0.6618656415
 40
0.7409082767
 40
0.8163993724
 40
0.8839654051
 40
0.9447398824
 40
1.0
 40
1.0
 40
1.0
 40
1.0
 10
33.1086566349
 20
-4.7903655798
 30
0.0
 10
33.1090018548
 20
-5.1345118963
 30
0.0
 10
33.1094748232
 20
-5.8538627662
 30
0.0
 10
33.1096061526
 20
-6.9863655585
 30
0.0
 10
33.1092003954
 20
-8.2329211414
 30
0.0
 10
33.1082318298
 20
-9.6099646748
 30
0.0
 10
33.1066738772
 20
-11.119321415
 30
0.0
 10
33.1045121057
 20
-12.7592013529
 30
0.0
 10
33.1016961781
 20
-14.5288654479
 30
0.0
 10
33.0981517113
 20
-16.4322850366
 30
0.0
 10
33.0937687742
 20
-18.4772868466
 30
0.0
 10
33.088051264
 20
-20.6839009911
 30
0.0
 10
33.0806634137
 20
-23.0847975703
 30
0.0
 10
33.0708228112
 20
-25.6823099437
 30
0.0
 10
33.0566107515
 20
-28.4229514559
 30
0.0
 10
33.0371820637
 20
-31.1880472499
 30
0.0
 10
33.0085422365
 20
-33.8298577326
 30
0.0
 10
32.9649004515
 20
-36.2541434185
 30
0.0
 10
32.8944864719
 20
-38.4371453724
 30
0.0
 10
32.8107280813
 20
-39.815165369
 30
0.0
 10
32.7589754999
 20
-40.4704631347
 30
0.0
 11
33.1086566349
 21
-4.7903655798
 31
0.0
 11
33.1093652432
 21
-5.8228048056
 31
0.0
 11
33.1095229185
 21
-6.9484182429
 31
0.0
 11
33.1091410365
 21
-8.1878735475
 31
0.0
 11
33.1081936121
 21
-9.5624712507
 31
0.0
 11
33.1066453397
 21
-11.0795486055
 31
0.0
 11
33.1044975214
 21
-12.7159435832
 31
0.0
 11
33.101693868
 21
-14.4821108531
 31
0.0
 11
33.0981468302
 21
-16.3885406097
 31
0.0
 11
33.0937316847
 21
-18.4262018809
 31
0.0
 11
33.0880545932
 21
-20.6171148035
 31
0.0
 11
33.0806280195
 21
-23.008381327
 31
0.0
 11
33.0704330857
 21
-25.6288867515
 31
0.0
 11
33.0558327822
 21
-28.4096366621
 31
0.0
 11
33.0350509067
 21
-31.2302784503
 31
0.0
 11
33.0041279435
 21
-33.9240789451
 31
0.0
 11
32.9574202886
 21
-36.3347903966
 31
0.0
 11
32.8816023538
 21
-38.5022649543
 31
0.0
 11
32.7589754999
 21
-40.4704631347
 31
0.0
  0
SPLINE
  5
670
100
AcDbEntity
  8
RACCORDO
100
AcDbSpline
 62
253
  6
CONTINUOUS
 70
0
 71
3
 72
17
 73
13
 74
11
 42
0.0000001
 43
0.0000001
 44
0.0000000001
 12
0.0106598387
 22
-9.1024910322
 32
0.0
 13
-9.1024960336
 23
0.0047521334
 33
0.0
 40
0.0
 40
0.0
 40
0.0
 40
0.0
 40
0.0649386115
 40
0.1357646804
 40
0.2132967008
 40
0.2986590427
 40
0.393531846
 40
0.5010146319
 40
0.6223842524
 40
0.7490799899
 40
0.8757985966
 40
1.0
 40
1.0
 40
1.0
 40
1.0
 10
33.7995314037
 20
-40.2899945981
 30
0.0
 10
33.7997621487
 20
-40.4870289744
 30
0.0
 10
33.7791317278
 20
-40.8992840911
 30
0.0
 10
33.6777181361
 20
-41.5397738987
 30
0.0
 10
33.4855312644
 20
-42.2242218518
 30
0.0
 10
33.1788239303
 20
-42.9462222162
 30
0.0
 10
32.7260193449
 20
-43.6963558352
 30
0.0
 10
32.0888985129
 20
-44.4500328085
 30
0.0
 10
31.251356351
 20
-45.1403907988
 30
0.0
 10
30.2435640511
 20
-45.6834830686
 30
0.0
 10
29.1403081124
 20
-46.0187070422
 30
0.0
 10
28.3768574873
 20
-46.0930445031
 30
0.0
 10
28.0000098933
 20
-46.0928477626
 30
0.0
 11
33.7995314037
 21
-40.2899945981
 31
0.0
 11
33.7699780285
 21
-40.8803588809
 31
0.0
 11
33.669179202
 21
-41.5171242043
 31
0.0
 11
33.4784058973
 21
-42.1965853462
 31
0.0
 11
33.174618656
 21
-42.9117486872
 31
0.0
 11
32.7283255394
 21
-43.6510672199
 31
0.0
 11
32.0966656702
 21
-44.3981934169
 31
0.0
 11
31.2441072767
 21
-45.1007982227
 31
0.0
 11
30.2288895508
 21
-45.6478932855
 31
0.0
 11
29.1252123506
 21
-45.9830900274
 31
0.0
 11
28.0000098933
 21
-46.0928477626
 31
0.0
  0
SPLINE
  5
671
100
AcDbEntity
  8
RACCORDO
100
AcDbSpline
 62
253
  6
CONTINUOUS
 70
0
 71
3
 72
17
 73
13
 74
11
 42
0.0000001
 43
0.0000001
 44
0.0000000001
 12
-0.5375825201
 22
-6.8016025694
 32
0.0
 13
-6.822730589
 23
-0.0337607334
 33
0.0
 40
0.0
 40
0.0
 40
0.0
 40
0.0
 40
0.061637531
 40
0.1315085727
 40
0.2115564757
 40
0.3030710318
 40
0.405972085
 40
0.5201227718
 40
0.6438001455
 40
0.7672824799
 40
0.8863081447
 40
1.0
 40
1.0
 40
1.0
 40
1.0
 10
32.7589735741
 20
-40.4704627722
 30
0.0
 10
32.7479284877
 20
-40.6102074352
 30
0.0
 10
32.7038418194
 20
-40.9070728602
 30
0.0
 10
32.568764061
 20
-41.3703610721
 30
0.0
 10
32.3447007006
 20
-41.873407675
 30
0.0
 10
32.0207073583
 20
-42.4086406988
 30
0.0
 10
31.591311259
 20
-42.9654788196
 30
0.0
 10
31.0505427793
 20
-43.5231350789
 30
0.0
 10
30.4016972722
 20
-44.0325017668
 30
0.0
 10
29.6666489866
 20
-44.4335678929
 30
0.0
 10
28.8906774418
 20
-44.6830673545
 30
0.0
 10
28.3602434053
 20
-44.741126098
 30
0.0
 10
28.1016804389
 20
-44.7424055381
 30
0.0
 11
32.7589735741
 21
-40.4704627722
 31
0.0
 11
32.6978411334
 21
-40.8865371739
 31
0.0
 11
32.5658327296
 21
-41.344612499
 31
0.0
 11
32.3459152782
 21
-41.8445307725
 31
0.0
 11
32.0250539989
 21
-42.3801677037
 31
0.0
 11
31.5974284602
 21
-42.9369848777
 31
0.0
 11
31.0542269433
 21
-43.4951126358
 31
0.0
 11
30.3882578103
 21
-44.0133117812
 31
0.0
 11
29.6469412113
 21
-44.4136253076
 31
0.0
 11
28.872919558
 21
-44.6593500014
 31
0.0
 11
28.1016804389
 21
-44.7424055381
 31
0.0
  0
SPLINE
  5
672
100
AcDbEntity
  8
RACCORDO
100
AcDbSpline
 62
253
  6
CONTINUOUS
 70
0
 71
3
 72
11
 73
7
 74
5
 42
0.0000001
 43
0.0000001
 44
0.0000000001
 12
-0.1759956577
 22
-1.052882893
 32
0.0
 13
-1.0656665108
 23
-0.0623838578
 33
0.0
 40
0.0
 40
0.0
 40
0.0
 40
0.0
 40
0.0888679081
 40
0.2915610595
 40
0.6018497037
 40
1.0
 40
1.0
 40
1.0
 40
1.0
 10
33.7995261086
 20
-40.2899946126
 30
0.0
 10
33.7943126533
 20
-40.3211837794
 30
0.0
 10
33.6699086236
 20
-40.3617403547
 30
0.0
 10
33.4817452898
 20
-40.4041055193
 30
0.0
 10
33.1484410487
 20
-40.4436636372
 30
0.0
 10
32.9004053865
 20
-40.4621833884
 30
0.0
 10
32.7589735741
 20
-40.4704627722
 30
0.0
 11
33.7995261086
 21
-40.2899946126
 31
0.0
 11
33.7215648951
 21
-40.3440459524
 31
0.0
 11
33.5111256404
 21
-40.3943712705
 31
0.0
 11
33.1827153502
 21
-40.4375012959
 31
0.0
 11
32.7589735741
 21
-40.4704627722
 31
0.0
  0
SPLINE
  5
673
100
AcDbEntity
  8
RACCORDO
100
AcDbSpline
 62
253
  6
CONTINUOUS
 70
0
 71
3
 72
23
 73
19
 74
17
 42
0.0000001
 43
0.0000001
 44
0.0000000001
 12
-27.9999979278
 22
0.0265312218
 32
0.0
 13
-28.0000104956
 23
-0.0003279214
 33
0.0
 40
0.0
 40
0.0
 40
0.0
 40
0.0
 40
0.0764868098
 40
0.1609365734
 40
0.2544935152
 40
0.3496286081
 40
0.4396882822
 40
0.5211765645
 40
0.5938345424
 40
0.6589636875
 40
0.7177466049
 40
0.7708816094
 40
0.8191021802
 40
0.8630777063
 40
0.9026319117
 40
0.9381982262
 40
0.970449272
 40
1.0
 40
1.0
 40
1.0
 40
1.0
 10
28.0000098933
 20
-46.0928472106
 30
0.0
 10
27.286133055
 20
-46.092170781
 30
0.0
 10
25.7840580014
 20
-46.0912742818
 30
0.0
 10
23.4087844187
 20
-46.0905387825
 30
0.0
 10
20.8594600407
 20
-46.0901046923
 30
0.0
 10
18.257776468
 20
-46.0898088066
 30
0.0
 10
15.7687337506
 20
-46.0895877268
 30
0.0
 10
13.4894775173
 20
-46.089402248
 30
0.0
 10
11.4429063063
 20
-46.0892461756
 30
0.0
 10
9.608251913
 20
-46.0891109328
 30
0.0
 10
7.9558120055
 20
-46.0889941089
 30
0.0
 10
6.4611855165
 20
-46.088895524
 30
0.0
 10
5.1047613969
 20
-46.0888143089
 30
0.0
 10
3.8750914489
 20
-46.0887497672
 30
0.0
 10
2.7635279373
 20
-46.0887016366
 30
0.0
 10
1.7613929488
 20
-46.0886695471
 30
0.0
 10
0.8526237844
 20
-46.0886531049
 30
0.0
 10
0.2758070124
 20
-46.0886528128
 30
0.0
 10
0.0000001147
 20
-46.0886560429
 30
0.0
 11
28.0000098933
 21
-46.0928472106
 31
0.0
 11
25.8583788951
 21
-46.0914160775
 31
0.0
 11
23.4937847614
 21
-46.0906172188
 31
0.0
 11
20.8741894551
 21
-46.0901316827
 31
0.0
 11
18.210405873
 21
-46.0898147803
 31
0.0
 11
15.6887340644
 21
-46.0895839062
 31
0.0
 11
13.4070613119
 21
-46.0893975984
 31
0.0
 11
11.3726371742
 21
-46.0892417269
 31
0.0
 11
9.5490204321
 21
-46.0891075307
 31
0.0
 11
7.9030981322
 21
-46.0889917475
 31
0.0
 11
6.4153174514
 21
-46.0888940806
 31
0.0
 11
5.0651409649
 21
-46.0888136756
 31
0.0
 11
3.8338257734
 21
-46.0887495865
 31
0.0
 11
2.7263076077
 21
-46.0887022174
 31
0.0
 11
1.7304504302
 21
-46.0886709811
 31
0.0
 11
0.8274208079
 21
-46.0886554114
 31
0.0
 11
0.0000001147
 21
-46.0886560429
 31
0.0
  0
SPLINE
  5
674
100
AcDbEntity
  8
RACCORDO
100
AcDbSpline
 62
253
  6
CONTINUOUS
 70
0
 71
3
 72
23
 73
19
 74
17
 42
0.0000001
 43
0.0000001
 44
0.0000000001
 12
-28.100757332
 22
-0.1323605895
 32
0.0
 13
-28.101065081
 23
0.0149422634
 33
0.0
 40
0.0
 40
0.0
 40
0.0
 40
0.0
 40
0.0780672695
 40
0.1630442457
 40
0.2566452717
 40
0.3515938299
 40
0.4413848836
 40
0.5226022045
 40
0.595011187
 40
0.6599146901
 40
0.7185001323
 40
0.7714640045
 40
0.8195364461
 40
0.8633855659
 40
0.9028373393
 40
0.9383245682
 40
0.9705205987
 40
1.0
 40
1.0
 40
1.0
 40
1.0
 10
28.1016808879
 20
-44.7424084078
 30
0.0
 10
27.3704310889
 20
-44.745852751
 30
0.0
 10
25.8431880119
 20
-44.7480582976
 30
0.0
 10
23.4391874095
 20
-44.7471610607
 30
0.0
 10
20.8770580275
 20
-44.7453085469
 30
0.0
 10
18.2698358446
 20
-44.7431998756
 30
0.0
 10
15.778611922
 20
-44.7411773227
 30
0.0
 10
13.4985167579
 20
-44.7392482316
 30
0.0
 10
11.4515437591
 20
-44.7375181887
 30
0.0
 10
9.6165640918
 20
-44.7358792179
 30
0.0
 10
7.9637271377
 20
-44.7344151784
 30
0.0
 10
6.4685470372
 20
-44.7331188023
 30
0.0
 10
5.1114023197
 20
-44.7319849424
 30
0.0
 10
3.880825655
 20
-44.731008327
 30
0.0
 10
2.768134883
 20
-44.7301879232
 30
0.0
 10
1.7645987921
 20
-44.72951139
 30
0.0
 10
0.854474082
 20
-44.7289559192
 30
0.0
 10
0.2767589785
 20
-44.7286404189
 30
0.0
 10
0.0006247866
 20
-44.7284935892
 30
0.0
 11
28.1016808879
 21
-44.7424084078
 31
0.0
 11
25.9079126731
 21
-44.7473285067
 31
0.0
 11
23.5199688141
 21
-44.7470587127
 31
0.0
 11
20.8896805207
 21
-44.7452803535
 31
0.0
 11
18.2215253727
 21
-44.7431593904
 31
0.0
 11
15.6983016139
 21
-44.7410970238
 31
0.0
 11
13.416008878
 21
-44.7391787815
 31
0.0
 11
11.3812398008
 21
-44.7374415981
 31
0.0
 11
9.5573826911
 21
-44.7358287253
 31
0.0
 11
7.9110697775
 21
-44.7343739362
 31
0.0
 11
6.4227289057
 21
-44.7330872846
 31
0.0
 11
5.0718423718
 21
-44.7319617465
 31
0.0
 11
3.8396356149
 21
-44.7309878121
 31
0.0
 11
2.7309989038
 21
-44.730172831
 31
0.0
 11
1.7337700608
 21
-44.7295017308
 31
0.0
 11
0.8290273534
 21
-44.7289504966
 31
0.0
 11
0.0006247866
 21
-44.7284935892
 31
0.0
  0
SPLINE
  5
675
100
AcDbEntity
  8
RACCORDO
100
AcDbSpline
 62
253
  6
CONTINUOUS
 70
0
 71
3
 72
11
 73
7
 74
5
 42
0.0000001
 43
0.0000001
 44
0.0000000001
 12
1.2924773595
 22
0.416403096
 32
0.0
 13
0.0264785082
 23
1.3576406563
 33
0.0
 40
0.0
 40
0.0
 40
0.0
 40
0.0
 40
0.0796847065
 40
0.2863235437
 40
0.6027435716
 40
1.0
 40
1.0
 40
1.0
 40
1.0
 10
28.0000093731
 20
-46.0928472102
 30
0.0
 10
28.0343395995
 20
-46.0817868907
 30
0.0
 10
28.0267162808
 20
-45.907271138
 30
0.0
 10
28.0775704501
 20
-45.675916354
 30
0.0
 10
28.08510659
 20
-45.2388383313
 30
0.0
 10
28.0981746353
 20
-44.9221855672
 30
0.0
 10
28.1016808879
 20
-44.7424084078
 30
0.0
 11
28.0000093731
 21
-46.0928472102
 31
0.0
 11
28.0325579163
 21
-45.9896549221
 31
0.0
 11
28.06208897
 21
-45.7106186028
 31
0.0
 11
28.0858646964
 21
-45.2816105366
 31
0.0
 11
28.1016808879
 21
-44.7424084078
 31
0.0
  0
SPLINE
  5
676
100
AcDbEntity
  8
RACCORDO
100
AcDbSpline
 62
253
  6
CONTINUOUS
 70
0
 71
3
 72
24
 73
20
 74
18
 42
0.0000001
 43
0.0000001
 44
0.0000000001
 12
-28.0000107251
 22
0.0003248016
 32
0.0
 13
-27.9999981525
 23
-0.0265362119
 33
0.0
 40
0.0
 40
0.0
 40
0.0
 40
0.0
 40
0.0287056064
 40
0.059916172
 40
0.0941648924
 40
0.1320470994
 40
0.1739698908
 40
0.2193476266
 40
0.2681739047
 40
0.3207212938
 40
0.3771350404
 40
0.4377080448
 40
0.5033836071
 40
0.5751833032
 40
0.6541314317
 40
0.7415195522
 40
0.8354649353
 40
0.9229123807
 40
1.0
 40
1.0
 40
1.0
 40
1.0
 10
0.0000001147
 20
-46.0886560429
 30
0.0
 10
-0.2679189808
 20
-46.088652935
 30
0.0
 10
-0.8271368007
 20
-46.0886530978
 30
0.0
 10
-1.7060094659
 20
-46.0886684861
 30
0.0
 10
-2.6705304366
 20
-46.0886985855
 30
0.0
 10
-3.7350322188
 20
-46.0887436509
 30
0.0
 10
-4.9034048516
 20
-46.088803766
 30
0.0
 10
-6.1739221857
 20
-46.0888784515
 30
0.0
 10
-7.5436024686
 20
-46.0889671802
 30
0.0
 10
-9.016285558
 20
-46.0890695468
 30
0.0
 10
-10.5986048005
 20
-46.0891848887
 30
0.0
 10
-12.3034537068
 20
-46.0893125566
 30
0.0
 10
-14.1519048622
 20
-46.0894568736
 30
0.0
 10
-16.1718572399
 20
-46.0896246669
 30
0.0
 10
-18.3944602371
 20
-46.0898263636
 30
0.0
 10
-20.8237563832
 20
-46.0901047379
 30
0.0
 10
-23.3323795075
 20
-46.0905235468
 30
0.0
 10
-25.7448644976
 20
-46.0912557437
 30
0.0
 10
-27.2805254938
 20
-46.0921685623
 30
0.0
 10
-28.0000098933
 20
-46.0928504334
 30
0.0
 11
0.0000001147
 21
-46.0886560429
 31
0.0
 11
-0.8037571718
 21
-46.0886553011
 31
0.0
 11
-1.6776533447
 21
-46.088669892
 31
0.0
 11
-2.6366178808
 21
-46.0886992162
 31
0.0
 11
-3.6973200837
 21
-46.0887435846
 31
0.0
 11
-4.8711586911
 21
-46.0888034845
 31
0.0
 11
-6.1417357791
 21
-46.088877783
 31
0.0
 11
-7.5088720862
 21
-46.0889659685
 31
0.0
 11
-8.9801995398
 21
-46.0890678388
 31
0.0
 11
-10.5597850473
 21
-46.0891825645
 31
0.0
 11
-12.2558298141
 21
-46.0893098554
 31
0.0
 11
-14.0947462584
 21
-46.0894538732
 31
0.0
 11
-16.1051385127
 21
-46.089621576
 31
0.0
 11
-18.3156869463
 21
-46.0898275535
 31
0.0
 11
-20.7625552423
 21
-46.0901183046
 31
0.0
 11
-23.3930269314
 21
-46.0905956839
 31
0.0
 11
-25.8415562052
 21
-46.0914112822
 31
0.0
 11
-28.0000098933
 21
-46.0928504334
 31
0.0
  0
SPLINE
  5
677
100
AcDbEntity
  8
RACCORDO
100
AcDbSpline
 62
253
  6
CONTINUOUS
 70
0
 71
3
 72
24
 73
20
 74
18
 42
0.0000001
 43
0.0000001
 44
0.0000000001
 12
-28.1023147625
 22
-0.0149355664
 32
0.0
 13
-28.1020070505
 23
0.1323548761
 33
0.0
 40
0.0
 40
0.0
 40
0.0
 40
0.0
 40
0.0286786569
 40
0.0598354635
 40
0.0940076115
 40
0.1317913833
 40
0.17359318
 40
0.2188305986
 40
0.2674987078
 40
0.3198689982
 40
0.3760860992
 40
0.4364462433
 40
0.5018957553
 40
0.5734556877
 40
0.6521709561
 40
0.7393833438
 40
0.8333549665
 40
0.9213284784
 40
1.0
 40
1.0
 40
1.0
 40
1.0
 10
0.0006247873
 20
-44.7284928487
 30
0.0
 10
-0.2680207607
 20
-44.728635626
 30
0.0
 10
-0.8285257662
 20
-44.7289416286
 30
0.0
 10
-1.7091362252
 20
-44.7294767181
 30
0.0
 10
-2.6750382432
 20
-44.7301234556
 30
0.0
 10
-3.7406564952
 20
-44.730902575
 30
0.0
 10
-4.9099279231
 20
-44.7318223203
 30
0.0
 10
-6.1811576491
 20
-44.7328763338
 30
0.0
 10
-7.5513870298
 20
-44.7340558405
 30
0.0
 10
-9.0244678583
 20
-44.7353533502
 30
0.0
 10
-10.6070730547
 20
-44.7367696827
 30
0.0
 10
-12.3121970567
 20
-44.7382549828
 30
0.0
 10
-14.1610441054
 20
-44.7398018645
 30
0.0
 10
-16.1818315773
 20
-44.7415255789
 30
0.0
 10
-18.4064815269
 20
-44.7433057168
 30
0.0
 10
-20.8410714085
 20
-44.7452734315
 30
0.0
 10
-23.3623880213
 20
-44.7471202039
 30
0.0
 10
-25.8036971443
 20
-44.748099992
 30
0.0
 10
-27.3647384594
 20
-44.7458812283
 30
0.0
 10
-28.1016810108
 20
-44.7424103751
 30
0.0
 11
0.0006247873
 21
-44.7284928487
 31
0.0
 11
-0.8053118481
 21
-44.7289368989
 31
0.0
 11
-1.6808901957
 21
-44.7294681756
 31
0.0
 11
-2.6412065775
 21
-44.7301101635
 31
0.0
 11
-3.7030178918
 21
-44.7308843739
 31
0.0
 11
-4.8777449466
 21
-44.7318050039
 31
0.0
 11
-6.1490208673
 21
-44.7328561555
 31
0.0
 11
-7.5167070805
 21
-44.7340303804
 31
0.0
 11
-8.9884331033
 21
-44.7353249519
 31
0.0
 11
-10.5682633696
 21
-44.736728892
 31
0.0
 11
-12.2645227361
 21
-44.738204121
 31
0.0
 11
-14.1038051278
 21
-44.7397587532
 31
0.0
 11
-16.1148044415
 21
-44.74145155
 31
0.0
 11
-18.3268852782
 21
-44.7432448389
 31
0.0
 11
-20.7777548188
 21
-44.7451924616
 31
0.0
 11
-23.4185746878
 21
-44.7470108133
 31
0.0
 11
-25.8908343367
 21
-44.7473420199
 31
0.0
 11
-28.1016810108
 21
-44.7424103751
 31
0.0
  0
SPLINE
  5
678
100
AcDbEntity
  8
RACCORDO
100
AcDbSpline
 62
253
  6
CONTINUOUS
 70
0
 71
3
 72
17
 73
13
 74
11
 42
0.0000001
 43
0.0000001
 44
0.0000000001
 12
-9.1025150426
 22
-0.0047580474
 32
0.0
 13
0.0106600396
 23
9.1025100442
 33
0.0
 40
0.0
 40
0.0
 40
0.0
 40
0.0
 40
0.1238292244
 40
0.2501968733
 40
0.3767126917
 40
0.4981829704
 40
0.6058393029
 40
0.7008313005
 40
0.7863437254
 40
0.8640124356
 40
0.9349570203
 40
1.0
 40
1.0
 40
1.0
 40
1.0
 10
-28.0000098933
 20
-46.0928477729
 30
0.0
 10
-28.3757290191
 20
-46.093044168
 30
0.0
 10
-29.136968471
 20
-46.01914673
 30
0.0
 10
-30.237837889
 20
-45.6856887568
 30
0.0
 10
-31.2451506208
 20
-45.1445217691
 30
0.0
 10
-32.0838535786
 20
-44.4550975394
 30
0.0
 10
-32.7226087635
 20
-43.7012092628
 30
0.0
 10
-33.1767872003
 20
-42.950319148
 30
0.0
 10
-33.4844760057
 20
-42.2273825725
 30
0.0
 10
-33.6773128233
 20
-41.5418287335
 30
0.0
 10
-33.7790640153
 20
-40.9002798219
 30
0.0
 10
-33.7997625239
 20
-40.4873460569
 30
0.0
 10
-33.7995314037
 20
-40.2899945981
 30
0.0
 11
-28.0000098933
 21
-46.0928477729
 31
0.0
 11
-29.1218750508
 21
-45.9837484194
 31
0.0
 11
-30.2227863677
 21
-45.6504308819
 31
0.0
 11
-31.2372641367
 21
-45.1054118543
 31
0.0
 11
-32.0914749249
 21
-44.4033693557
 31
0.0
 11
-32.7249979909
 21
-43.6557479098
 31
0.0
 11
-33.1725151253
 21
-42.9158992356
 31
0.0
 11
-33.4773269465
 21
-42.1996852738
 31
0.0
 11
-33.6687493055
 21
-41.5191125815
 31
0.0
 11
-33.7698817125
 21
-40.8813064965
 31
0.0
 11
-33.7995314037
 21
-40.2899945981
 31
0.0
  0
SPLINE
  5
679
100
AcDbEntity
  8
RACCORDO
100
AcDbSpline
 62
253
  6
CONTINUOUS
 70
0
 71
3
 72
17
 73
13
 74
11
 42
0.0000001
 43
0.0000001
 44
0.0000000001
 12
-6.82274351
 22
0.0337475365
 32
0.0
 13
-0.537583074
 23
6.8016154212
 33
0.0
 40
0.0
 40
0.0
 40
0.0
 40
0.0
 40
0.1133475474
 40
0.2320268894
 40
0.3553006525
 40
0.479040531
 40
0.5933495962
 40
0.6963764415
 40
0.7880643407
 40
0.8682666782
 40
0.9382618025
 40
1.0
 40
1.0
 40
1.0
 40
1.0
 10
-28.1016805245
 20
-44.7424072785
 30
0.0
 10
-28.359460939
 20
-44.7411322117
 30
0.0
 10
-28.8883144387
 20
-44.6834139836
 30
0.0
 10
-29.6625221491
 20
-44.4352291304
 30
0.0
 10
-30.39704594
 20
-44.0355633549
 30
0.0
 10
-31.0464694527
 20
-43.5268655912
 30
0.0
 10
-31.5882426879
 20
-42.9690702482
 30
0.0
 10
-32.0186432265
 20
-42.4116871815
 30
0.0
 10
-32.3435004433
 20
-41.875765018
 30
0.0
 10
-32.5682413877
 20
-41.3718869415
 30
0.0
 10
-32.7037142537
 20
-40.9078075306
 30
0.0
 10
-32.7479104431
 20
-40.6104359324
 30
0.0
 10
-32.7589735798
 20
-40.4704627737
 30
0.0
 11
-28.1016805245
 21
-44.7424072785
 31
0.0
 11
-28.8706105151
 21
-44.6598362132
 31
0.0
 11
-29.6425889539
 21
-44.4154804877
 31
0.0
 11
-30.383114714
 21
-44.0166952205
 31
0.0
 11
-31.0499816139
 21
-43.4989536236
 31
0.0
 11
-31.5944008668
 21
-42.9405014745
 31
0.0
 11
-32.0229270209
 21
-42.3832923387
 31
0.0
 11
-32.3447217085
 21
-41.8468346573
 31
0.0
 11
-32.5653095565
 21
-41.3460591158
 31
0.0
 11
-32.6976965341
 21
-40.8872109315
 31
0.0
 11
-32.7589735798
 21
-40.4704627737
 31
0.0
  0
SPLINE
  5
67A
100
AcDbEntity
  8
RACCORDO
100
AcDbSpline
 62
253
  6
CONTINUOUS
 70
0
 71
3
 72
11
 73
7
 74
5
 42
0.0000001
 43
0.0000001
 44
0.0000000001
 12
-1.292470587
 22
0.4163620381
 32
0.0
 13
-0.0264735024
 23
1.3576217141
 33
0.0
 40
0.0
 40
0.0
 40
0.0
 40
0.0
 40
0.0796845454
 40
0.2863230563
 40
0.6027430122
 40
1.0
 40
1.0
 40
1.0
 40
1.0
 10
-28.000010297
 20
-46.0928267611
 30
0.0
 10
-28.034340274
 20
-46.0817675545
 30
0.0
 10
-28.0267190576
 20
-45.9072533134
 30
0.0
 10
-28.0775718387
 20
-45.675903172
 30
0.0
 10
-28.0851080656
 20
-45.2388305626
 30
0.0
 10
-28.0981749299
 20
-44.9221821827
 30
0.0
 10
-28.1016805245
 20
-44.7424072785
 30
0.0
 11
-28.000010297
 21
-46.0928267611
 31
0.0
 11
-28.0325595454
 21
-45.9896365154
 31
0.0
 11
-28.0620907855
 21
-45.710604617
 31
0.0
 11
-28.0858659107
 21
-45.281602648
 31
0.0
 11
-28.1016805245
 21
-44.7424072785
 31
0.0
  0
SPLINE
  5
67B
100
AcDbEntity
  8
RACCORDO
100
AcDbSpline
 62
253
  6
CONTINUOUS
 70
0
 71
3
 72
25
 73
21
 74
19
 42
0.0000001
 43
0.0000001
 44
0.0000000001
 12
0.0637766297
 22
35.4999447244
 32
0.0
 13
0.000305084
 23
35.5000020113
 33
0.0
 40
0.0
 40
0.0
 40
0.0
 40
0.0
 40
0.0500863095
 40
0.1062364225
 40
0.1677558104
 40
0.2344408318
 40
0.3067935773
 40
0.3849947039
 40
0.4646490538
 40
0.540602701
 40
0.6106735155
 40
0.6738164361
 40
0.7300972895
 40
0.7808644649
 40
0.8268392353
 40
0.8687218912
 40
0.9065074641
 40
0.9405827846
 40
0.9715548491
 40
1.0
 40
1.0
 40
1.0
 40
1.0
 10
-33.7995212384
 20
-40.2899945981
 30
0.0
 10
-33.7984564598
 20
-39.6973075248
 30
0.0
 10
-33.7968253674
 20
-38.4401773257
 30
0.0
 10
-33.7957112181
 20
-36.4550670104
 30
0.0
 10
-33.7953870499
 20
-34.2735383665
 30
0.0
 10
-33.795547986
 20
-31.9002785645
 30
0.0
 10
-33.7959823319
 20
-29.329618215
 30
0.0
 10
-33.7965137797
 20
-26.6054874862
 30
0.0
 10
-33.7970420547
 20
-23.8387460827
 30
0.0
 10
-33.7974823316
 20
-21.168213363
 30
0.0
 10
-33.7978279435
 20
-18.6930658891
 30
0.0
 10
-33.7980852446
 20
-16.4507131457
 30
0.0
 10
-33.7982714975
 20
-14.4367868051
 30
0.0
 10
-33.798406989
 20
-12.626016917
 30
0.0
 10
-33.7985052783
 20
-10.9856257074
 30
0.0
 10
-33.7985750741
 20
-9.4988501349
 30
0.0
 10
-33.798622104
 20
-8.1528847264
 30
0.0
 10
-33.7986504215
 20
-6.9360279884
 30
0.0
 10
-33.7986631214
 20
-5.8296995837
 30
0.0
 10
-33.7986622841
 20
-5.1265958278
 30
0.0
 10
-33.7986593914
 20
-4.7899948569
 30
0.0
 11
-33.7995212384
 21
-40.2899945981
 31
0.0
 11
-33.7971241886
 21
-38.5119321246
 31
0.0
 11
-33.7958777158
 21
-36.5186033907
 31
0.0
 11
-33.79547173
 21
-34.3346650344
 31
0.0
 11
-33.7955817203
 21
-31.9673466419
 31
0.0
 11
-33.7959813885
 21
-29.3988240626
 31
0.0
 11
-33.7965085217
 21
-26.6226839631
 31
0.0
 11
-33.7970378361
 21
-23.7949544301
 31
0.0
 11
-33.7974820125
 21
-21.0985998374
 31
0.0
 11
-33.7978285363
 21
-18.6110858066
 31
0.0
 11
-33.7980857666
 21
-16.3695120123
 31
0.0
 11
-33.798271349
 21
-14.3715416111
 31
0.0
 11
-33.7984065328
 21
-12.5693067876
 31
0.0
 11
-33.7985044863
 21
-10.9372023496
 31
0.0
 11
-33.7985742227
 21
-9.4503679834
 31
0.0
 11
-33.7986208943
 21
-8.1089800707
 31
0.0
 11
-33.7986487853
 21
-6.8993061243
 31
0.0
 11
-33.7986610441
 21
-5.7997977697
 31
0.0
 11
-33.7986593914
 21
-4.7899948569
 31
0.0
  0
SPLINE
  5
67C
100
AcDbEntity
  8
RACCORDO
100
AcDbSpline
 62
253
  6
CONTINUOUS
 70
0
 71
3
 72
25
 73
21
 74
19
 42
0.0000001
 43
0.0000001
 44
0.0000000001
 12
-2.809943967
 22
35.5759944915
 32
0.0
 13
0.0358024883
 23
35.6867746839
 33
0.0
 40
0.0
 40
0.0
 40
0.0
 40
0.0
 40
0.0524797345
 40
0.1099347913
 40
0.1719878876
 40
0.238730212
 40
0.310867081
 40
0.3886873053
 40
0.467885548
 40
0.5433782994
 40
0.6130206395
 40
0.6757746357
 40
0.7317127201
 40
0.7821746336
 40
0.8278749055
 40
0.8695079367
 40
0.9070667763
 40
0.9409351727
 40
0.9717155351
 40
1.0
 40
1.0
 40
1.0
 40
1.0
 10
-32.7589754244
 20
-40.4704631206
 30
0.0
 10
-32.8081304622
 20
-39.8481235389
 30
0.0
 10
-32.8888297759
 20
-38.5426204133
 30
0.0
 10
-32.9581737923
 20
-36.4977613095
 30
0.0
 10
-33.0017903657
 20
-34.2825990909
 30
0.0
 10
-33.0302220219
 20
-31.892545887
 30
0.0
 10
-33.0512014087
 20
-29.3148596187
 30
0.0
 10
-33.0665202592
 20
-26.5889610255
 30
0.0
 10
-33.0782610764
 20
-23.8231255893
 30
0.0
 10
-33.0867193956
 20
-21.1545596175
 30
0.0
 10
-33.0933265862
 20
-18.6816034541
 30
0.0
 10
-33.0981470174
 20
-16.441258091
 30
0.0
 10
-33.1018742555
 20
-14.4290736874
 30
0.0
 10
-33.1047156524
 20
-12.6197522962
 30
0.0
 10
-33.1068349135
 20
-10.9805972052
 30
0.0
 10
-33.1083283823
 20
-9.4949312657
 30
0.0
 10
-33.1092395557
 20
-8.1500121104
 30
0.0
 10
-33.1096080292
 20
-6.9341916749
 30
0.0
 10
-33.1094613747
 20
-5.8286954189
 30
0.0
 10
-33.1089934083
 20
-5.1260841102
 30
0.0
 10
-33.1086558569
 20
-4.7896236686
 30
0.0
 11
-32.7589754244
 21
-40.4704631206
 31
0.0
 11
-32.8768884002
 21
-38.6013452846
 31
0.0
 11
-32.9516514965
 21
-36.5523220816
 31
0.0
 11
-32.9979212753
 21
-34.3383295387
 31
0.0
 11
-33.0280254211
 21
-31.9567002977
 31
0.0
 11
-33.0496113865
 21
-29.3824573144
 31
0.0
 11
-33.0657974078
 21
-26.6053502751
 31
0.0
 11
-33.0779295238
 21
-23.7790450483
 31
0.0
 11
-33.0867074379
 21
-21.0849651832
 31
0.0
 11
-33.0933188579
 21
-18.5996622284
 31
0.0
 11
-33.0982033386
 21
-16.3601787056
 31
0.0
 11
-33.1018962988
 21
-14.3639313029
 31
0.0
 11
-33.1047171858
 21
-12.5631096691
 31
0.0
 11
-33.1068156388
 21
-10.9322148904
 31
0.0
 11
-33.1082917651
 21
-9.4464662741
 31
0.0
 11
-33.1091813318
 21
-8.1061120469
 31
0.0
 11
-33.1095271959
 21
-6.8974576574
 31
0.0
 11
-33.1093556611
 21
-5.7990052587
 31
0.0
 11
-33.1086558569
 21
-4.7896236686
 31
0.0
  0
SPLINE
  5
67D
100
AcDbEntity
  8
RACCORDO
100
AcDbSpline
 62
253
  6
CONTINUOUS
 70
0
 71
3
 72
11
 73
7
 74
5
 42
0.0000001
 43
0.0000001
 44
0.0000000001
 12
0.1759966908
 22
-1.0528816288
 32
0.0
 13
1.0656654567
 23
-0.0623834435
 33
0.0
 40
0.0
 40
0.0
 40
0.0
 40
0.0
 40
0.0888681046
 40
0.2915612162
 40
0.6018497426
 40
1.0
 40
1.0
 40
1.0
 40
1.0
 10
-33.7995266761
 20
-40.2899945833
 30
0.0
 10
-33.7943131787
 20
-40.3211837815
 30
0.0
 10
-33.6699095433
 20
-40.3617407233
 30
0.0
 10
-33.4817461857
 20
-40.4041059087
 30
0.0
 10
-33.1484424815
 20
-40.4436641301
 30
0.0
 10
-32.9004070831
 20
-40.4621837926
 30
0.0
 10
-32.7589754244
 20
-40.4704631206
 30
0.0
 11
-33.7995266761
 21
-40.2899945833
 31
0.0
 11
-33.7215655026
 21
-40.3440461808
 31
0.0
 11
-33.5111265567
 21
-40.3943716698
 31
0.0
 11
-33.1827167365
 21
-40.4375017429
 31
0.0
 11
-32.7589754244
 21
-40.4704631206
 31
0.0
  0
SPLINE
  5
67E
100
AcDbEntity
  8
RACCORDO
100
AcDbSpline
 62
253
  6
CONTINUOUS
 70
0
 71
3
 72
25
 73
21
 74
19
 42
0.0000001
 43
0.0000001
 44
0.0000000001
 12
-0.0003137213
 22
35.5000024589
 32
0.0
 13
-0.0636932567
 23
35.4999453217
 33
0.0
 40
0.0
 40
0.0
 40
0.0
 40
0.0
 40
0.0291161592
 40
0.060853764
 40
0.0957971084
 40
0.1345476556
 40
0.177313015
 40
0.2234424515
 40
0.2732323393
 40
0.3269801371
 40
0.384431902
 40
0.446202267
 40
0.5136193536
 40
0.5874869097
 40
0.6658174429
 40
0.745160855
 40
0.8206684872
 40
0.8877484169
 40
0.9472241324
 40
1.0
 40
1.0
 40
1.0
 40
1.0
 10
-33.7986593914
 20
-4.7899948569
 30
0.0
 10
-33.7986624362
 20
-4.4454536164
 30
0.0
 10
-33.7986633339
 20
-3.7253506925
 30
0.0
 10
-33.7986501167
 20
-2.5917514978
 30
0.0
 10
-33.7986205749
 20
-1.3441453704
 30
0.0
 10
-33.7985715538
 20
0.0339558608
 30
0.0
 10
-33.7984993488
 20
1.5444258571
 30
0.0
 10
-33.7983993256
 20
3.1855280588
 30
0.0
 10
-33.7982650392
 20
4.9565891219
 30
0.0
 10
-33.798087927
 20
6.8616310762
 30
0.0
 10
-33.7978551343
 20
8.9084420152
 30
0.0
 10
-33.7975543788
 20
11.1170062095
 30
0.0
 10
-33.7971739352
 20
13.5198239372
 30
0.0
 10
-33.7966963215
 20
16.1186036555
 30
0.0
 10
-33.7961598343
 20
18.8585115595
 30
0.0
 10
-33.7956514476
 20
21.6178270384
 30
0.0
 10
-33.7953810166
 20
24.2440104054
 30
0.0
 10
-33.7956289618
 20
26.635092706
 30
0.0
 10
-33.7967212325
 20
28.7571822385
 30
0.0
 10
-33.7984090522
 20
30.0854918708
 30
0.0
 10
-33.7995295412
 20
30.7100053424
 30
0.0
 11
-33.7986593914
 21
-4.7899948569
 31
0.0
 11
-33.7986611677
 21
-3.7563711354
 31
0.0
 11
-33.7986484105
 21
-2.6296860854
 31
0.0
 11
-33.7986193099
 21
-1.3891972728
 31
0.0
 11
-33.7985705775
 21
-0.0135527535
 31
0.0
 11
-33.7984980513
 21
1.5046176076
 31
0.0
 11
-33.798398061
 21
3.1422127155
 31
0.0
 11
-33.7982637319
 21
4.9097538509
 31
0.0
 11
-33.7980856187
 21
6.8178007955
 31
0.0
 11
-33.7978535941
 21
8.8573385761
 31
0.0
 11
-33.7975557348
 21
11.0501866654
 31
0.0
 11
-33.7971763321
 21
13.4434933755
 31
0.0
 11
-33.7967009278
 21
16.0657917556
 31
0.0
 11
-33.7961675048
 21
18.846525827
 31
0.0
 11
-33.7956821813
 21
21.6632171091
 31
0.0
 11
-33.7954685352
 21
24.3437382303
 31
0.0
 11
-33.7958112235
 21
26.725075875
 31
0.0
 11
-33.7970439298
 21
28.8364635609
 31
0.0
 11
-33.7995295412
 21
30.7100053424
 31
0.0
  0
SPLINE
  5
67F
100
AcDbEntity
  8
RACCORDO
100
AcDbSpline
 62
253
  6
CONTINUOUS
 70
0
 71
3
 72
25
 73
21
 74
19
 42
0.0000001
 43
0.0000001
 44
0.0000000001
 12
-0.0358076588
 22
35.6860193135
 32
0.0
 13
2.8095649875
 23
35.5752667061
 33
0.0
 40
0.0
 40
0.0
 40
0.0
 40
0.0
 40
0.0289310672
 40
0.0604730478
 40
0.0952050946
 40
0.1337240962
 40
0.1762356755
 40
0.222090787
 40
0.271582383
 40
0.3250044338
 40
0.3821039152
 40
0.4434978318
 40
0.5105060584
 40
0.5839381776
 40
0.6618614565
 40
0.740904246
 40
0.8163961816
 40
0.8839633909
 40
0.9447389385
 40
1.0
 40
1.0
 40
1.0
 40
1.0
 10
-33.1086566349
 20
-4.7896236688
 30
0.0
 10
-33.1090019529
 20
-4.4454787947
 30
0.0
 10
-33.1094751255
 20
-3.726131085
 30
0.0
 10
-33.109606775
 20
-2.5936335347
 30
0.0
 10
-33.1092013682
 20
-1.3470842528
 30
0.0
 10
-33.1082331885
 20
0.0299519174
 30
0.0
 10
-33.1066756582
 20
1.5393003204
 30
0.0
 10
-33.1045143468
 20
3.179170905
 30
0.0
 10
-33.101698921
 20
4.9488245061
 30
0.0
 10
-33.0981550011
 20
6.8522327133
 30
0.0
 10
-33.0937726732
 20
8.8972217665
 30
0.0
 10
-33.0880558598
 20
11.1038204144
 30
0.0
 10
-33.0806688009
 20
13.50469747
 30
0.0
 10
-33.0708291922
 20
16.1021901465
 30
0.0
 10
-33.0566182389
 20
18.8428204883
 30
0.0
 10
-33.0371907484
 20
21.6079230971
 30
0.0
 10
-33.0085523685
 20
24.2497595126
 30
0.0
 10
-32.9649107291
 20
26.6740819473
 30
0.0
 10
-32.894501001
 20
28.8571221807
 30
0.0
 10
-32.8107344743
 20
30.2351657267
 30
0.0
 10
-32.7589812931
 20
30.8904747271
 30
0.0
 11
-33.1086566349
 21
-4.7896236688
 31
0.0
 11
-33.1093655366
 21
-3.7571887701
 31
0.0
 11
-33.1095235299
 21
-2.6315804861
 31
0.0
 11
-33.1091419964
 21
-1.3921314272
 31
0.0
 11
-33.1081949573
 21
-0.0175412279
 31
0.0
 11
-33.1066471096
 21
1.4995277868
 31
0.0
 11
-33.1044997508
 21
3.1359135971
 31
0.0
 11
-33.1016965985
 21
4.9020703144
 31
0.0
 11
-33.098150111
 21
6.8084883092
 31
0.0
 11
-33.0937355722
 21
8.8461377505
 31
0.0
 11
-33.088059168
 21
11.0370359947
 31
0.0
 11
-33.0806334003
 21
13.4282825369
 31
0.0
 11
-33.0704394775
 21
16.0487640511
 31
0.0
 11
-33.0558403394
 21
18.8294987649
 31
0.0
 11
-33.0350597703
 21
21.6501461475
 31
0.0
 11
-33.0041380007
 21
24.3439767112
 31
0.0
 11
-32.957431386
 21
26.7547302496
 31
0.0
 11
-32.8816140242
 21
28.9222431061
 31
0.0
 11
-32.7589812931
 21
30.8904747271
 31
0.0
  0
SPLINE
  5
680
100
AcDbEntity
  8
RACCORDO
100
AcDbSpline
 62
253
  6
CONTINUOUS
 70
0
 71
3
 72
17
 73
13
 74
11
 42
0.0000001
 43
0.0000001
 44
0.0000000001
 12
-0.0106792636
 22
9.1024638721
 32
0.0
 13
9.1024688821
 23
-0.0047790131
 33
0.0
 40
0.0
 40
0.0
 40
0.0
 40
0.0
 40
0.064744942
 40
0.1353790959
 40
0.2127218565
 40
0.2978808284
 40
0.3925218972
 40
0.4997470839
 40
0.6211221472
 40
0.7482302051
 40
0.8753413489
 40
1.0
 40
1.0
 40
1.0
 40
1.0
 10
-33.7995318922
 20
30.7100053424
 30
0.0
 10
-33.7997623683
 20
30.9064515075
 30
0.0
 10
-33.7792536669
 20
31.317532689
 30
0.0
 10
-33.6784075831
 20
31.9563338387
 30
0.0
 10
-33.4872213055
 20
32.6392046574
 30
0.0
 10
-33.1820292425
 20
33.3597692061
 30
0.0
 10
-32.73137636
 20
34.1087154788
 30
0.0
 10
-32.0965738793
 20
34.8623835551
 30
0.0
 10
-31.2600364351
 20
35.5547187883
 30
0.0
 10
-30.2509282722
 20
36.1006905455
 30
0.0
 10
-29.1442940921
 20
36.4381878455
 30
0.0
 10
-28.378243721
 20
36.5130575616
 30
0.0
 10
-28.0000098903
 20
36.5128589798
 30
0.0
 11
-33.7995318922
 21
30.7100053424
 31
0.0
 11
-33.7701572698
 21
31.2986117233
 31
0.0
 11
-33.6699226189
 21
31.9336956893
 31
0.0
 11
-33.4801289055
 21
32.6116401292
 31
0.0
 11
-33.1778262481
 21
33.3254198401
 31
0.0
 11
-32.7336619843
 21
34.0635555763
 31
0.0
 11
-32.1048539779
 21
34.8100165164
 31
0.0
 11
-31.2536609355
 21
35.5143473516
 31
0.0
 11
-30.2360572853
 21
36.0649157545
 31
0.0
 11
-29.1293116643
 21
36.4022907459
 31
0.0
 11
-28.0000098903
 21
36.5128589798
 31
0.0
  0
SPLINE
  5
681
100
AcDbEntity
  8
RACCORDO
100
AcDbSpline
 62
253
  6
CONTINUOUS
 70
0
 71
3
 72
17
 73
13
 74
11
 42
0.0000001
 43
0.0000001
 44
0.0000000001
 12
0.5376256732
 22
6.8015812743
 32
0.0
 13
6.8227128947
 23
0.0337335424
 33
0.0
 40
0.0
 40
0.0
 40
0.0
 40
0.0
 40
0.0614516274
 40
0.1311219341
 40
0.210952899
 40
0.3022279321
 40
0.4048814277
 40
0.5188004324
 40
0.6425459042
 40
0.7664738244
 40
0.8858885085
 40
1.0
 40
1.0
 40
1.0
 40
1.0
 10
-32.7589795023
 20
30.89047439
 30
0.0
 10
-32.7479668448
 20
31.0297971361
 30
0.0
 10
-32.7040659505
 20
31.3257909531
 30
0.0
 10
-32.5696476333
 20
31.7878285173
 30
0.0
 10
-32.3466109476
 20
32.2896855504
 30
0.0
 10
-32.023950014
 20
32.8238444483
 30
0.0
 10
-31.596134833
 20
33.379825688
 30
0.0
 10
-31.0567440785
 20
33.9374923728
 30
0.0
 10
-30.4082152366
 20
34.4482832001
 30
0.0
 10
-29.6719512385
 20
34.851473343
 30
0.0
 10
-28.8934829493
 20
35.1026610541
 30
0.0
 10
-28.3611983191
 20
35.1611350104
 30
0.0
 10
-28.101681671
 20
35.1624181387
 30
0.0
 11
-32.7589795023
 21
30.89047439
 31
0.0
 11
-32.6981089431
 21
31.3053041512
 31
0.0
 11
-32.5667346833
 21
31.7621355409
 31
0.0
 11
-32.3478145117
 21
32.2608737636
 31
0.0
 11
-32.0282935167
 21
32.7954063524
 31
0.0
 11
-31.6022896117
 21
33.3513364415
 31
0.0
 11
-31.0609295497
 21
33.9090468333
 31
0.0
 11
-30.3954257109
 21
34.4285951858
 31
0.0
 11
-29.6520356922
 21
34.8314607199
 31
0.0
 11
-28.875734278
 21
35.0787677035
 31
0.0
 11
-28.101681671
 21
35.1624181387
 31
0.0
  0
SPLINE
  5
682
100
AcDbEntity
  8
RACCORDO
100
AcDbSpline
 62
253
  6
CONTINUOUS
 70
0
 71
3
 72
11
 73
7
 74
5
 42
0.0000001
 43
0.0000001
 44
0.0000000001
 12
0.1759794324
 22
1.0528798983
 32
0.0
 13
1.0656607944
 23
0.0623851908
 33
0.0
 40
0.0
 40
0.0
 40
0.0
 40
0.0
 40
0.0888675606
 40
0.2915604869
 40
0.6018492186
 40
1.0
 40
1.0
 40
1.0
 40
1.0
 10
-33.7995260113
 20
30.710005077
 30
0.0
 10
-33.794313057
 20
30.741194033
 30
0.0
 10
-33.6699097085
 20
30.7817511352
 30
0.0
 10
-33.4817479061
 20
30.824116119
 30
0.0
 10
-33.1484452035
 20
30.8636748094
 30
0.0
 10
-32.9004107283
 20
30.8821948192
 30
0.0
 10
-32.7589795023
 20
30.89047439
 30
0.0
 11
-33.7995260113
 21
30.710005077
 31
0.0
 11
-33.7215658651
 21
30.7640564271
 31
0.0
 11
-33.5111280789
 21
30.8143819472
 31
0.0
 11
-33.182719507
 21
30.8575123613
 31
0.0
 11
-32.7589795023
 21
30.89047439
 31
0.0
  0
SPLINE
  5
683
100
AcDbEntity
  8
RACCORDO
100
AcDbSpline
 62
253
  6
CONTINUOUS
 70
0
 71
3
 72
18
 73
14
 74
12
 42
0.0000001
 43
0.0000001
 44
0.0000000001
 12
-5.7694995288
 22
0.0480452815
 32
0.0
 13
-0.0892653734
 23
5.7690090012
 33
0.0
 40
0.0
 40
0.0
 40
0.0
 40
0.0
 40
0.1399372157
 40
0.2731538211
 40
0.3914704016
 40
0.4967375694
 40
0.5911911327
 40
0.6760852517
 40
0.7530478626
 40
0.8234980772
 40
0.8877819212
 40
0.946060655
 40
1.0
 40
1.0
 40
1.0
 40
1.0
 10
-22.1965891419
 20
-30.6724156787
 30
0.0
 10
-22.4657117086
 20
-30.670174571
 30
0.0
 10
-22.992320909
 20
-30.6099550863
 30
0.0
 10
-23.7111207046
 20
-30.3692536225
 30
0.0
 10
-24.3100525095
 20
-30.0260362827
 30
0.0
 10
-24.7803520271
 20
-29.630376124
 30
0.0
 10
-25.1383157103
 20
-29.2134173955
 30
0.0
 10
-25.4026262873
 20
-28.7955022794
 30
0.0
 10
-25.5913077143
 20
-28.3893160128
 30
0.0
 10
-25.719945766
 20
-28.0022118466
 30
0.0
 10
-25.8011470143
 20
-27.6394242505
 30
0.0
 10
-25.8457408719
 20
-27.3025347859
 30
0.0
 10
-25.8571125258
 20
-27.0867768055
 30
0.0
 10
-25.8587174977
 20
-26.9830512832
 30
0.0
 11
-22.1965891419
 21
-30.6724156787
 31
0.0
 11
-22.9987012304
 21
-30.5801985228
 31
0.0
 11
-23.7273647373
 21
-30.3356052343
 31
0.0
 11
-24.3194438631
 21
-29.995818734
 31
0.0
 11
-24.7840784889
 21
-29.6046656271
 31
0.0
 11
-25.1390717558
 21
-29.1911796576
 31
0.0
 11
-25.4010536678
 21
-28.7773163911
 31
0.0
 11
-25.5883778494
 21
-28.3747110399
 31
0.0
 11
-25.7168061001
 21
-27.9890565458
 31
0.0
 11
-25.7980072768
 21
-27.6271559489
 31
0.0
 11
-25.8422574083
 21
-27.2938295074
 31
0.0
 11
-25.8587174977
 21
-26.9830512832
 31
0.0
  0
SPLINE
  5
684
100
AcDbEntity
  8
RACCORDO
100
AcDbSpline
 62
253
  6
CONTINUOUS
 70
0
 71
3
 72
28
 73
24
 74
22
 42
0.0000001
 43
0.0000001
 44
0.0000000001
 12
-22.1964871629
 22
-0.0843956127
 32
0.0
 13
-22.1958414646
 23
0.1891736475
 33
0.0
 40
0.0
 40
0.0
 40
0.0
 40
0.0
 40
0.0199390883
 40
0.0416777675
 40
0.0655208922
 40
0.0918414057
 40
0.1210947557
 40
0.1533749501
 40
0.1881988949
 40
0.2258178649
 40
0.2664483768
 40
0.3102350407
 40
0.3573543433
 40
0.4080986305
 40
0.4628486504
 40
0.5220925579
 40
0.5862040669
 40
0.6551810602
 40
0.7287825728
 40
0.8041380987
 40
0.8760038815
 40
0.9415459201
 40
1.0
 40
1.0
 40
1.0
 40
1.0
 10
0.0
 20
-30.6899950614
 30
0.0
 10
-0.1475259055
 20
-30.6905559852
 30
0.0
 10
-0.4558932549
 20
-30.6915540788
 30
0.0
 10
-0.9406732779
 20
-30.6927172954
 30
0.0
 10
-1.4726692206
 20
-30.6936855426
 30
0.0
 10
-2.0602656605
 20
-30.6944843994
 30
0.0
 10
-2.7102872026
 20
-30.6951329975
 30
0.0
 10
-3.423224774
 20
-30.6956398867
 30
0.0
 10
-4.1980586717
 20
-30.6960165451
 30
0.0
 10
-5.0346756395
 20
-30.6962685508
 30
0.0
 10
-5.9376067393
 20
-30.6964081112
 30
0.0
 10
-6.9108296929
 20
-30.6964493125
 30
0.0
 10
-7.9588832811
 20
-30.6964181624
 30
0.0
 10
-9.0880534492
 20
-30.6963219094
 30
0.0
 10
-10.3069321364
 20
-30.6961511461
 30
0.0
 10
-11.6247133161
 20
-30.6959013369
 30
0.0
 10
-13.0477581862
 20
-30.6955669734
 30
0.0
 10
-14.5770332294
 20
-30.6949950205
 30
0.0
 10
-16.1895012432
 20
-30.6939828354
 30
0.0
 10
-17.8233423911
 20
-30.6920638646
 30
0.0
 10
-19.3975498756
 20
-30.688498475
 30
0.0
 10
-20.8466980262
 20
-30.6825065626
 30
0.0
 10
-21.7641099784
 20
-30.6761016692
 30
0.0
 10
-22.1965891419
 20
-30.6724156787
 30
0.0
 11
0.0
 21
-30.6899950614
 31
0.0
 11
-0.442578518
 21
-30.6914518927
 31
0.0
 11
-0.9251028684
 21
-30.6926354866
 31
0.0
 11
-1.4543394019
 21
-30.6936135694
 31
0.0
 11
-2.0385660054
 21
-30.6944215354
 31
0.0
 11
-2.6878919715
 21
-30.6950811379
 31
0.0
 11
-3.4044038836
 21
-30.6956006693
 31
0.0
 11
-4.1773786192
 21
-30.6959835913
 31
0.0
 11
-5.0123936002
 21
-30.6962422145
 31
0.0
 11
-5.9142547428
 21
-30.6963882634
 31
0.0
 11
-6.8861718904
 21
-30.6964370243
 31
0.0
 11
-7.9320624462
 21
-30.69640964
 31
0.0
 11
-9.0584155015
 21
-30.6963145288
 31
0.0
 11
-10.2736823892
 21
-30.6961461796
 31
0.0
 11
-11.5886985027
 21
-30.6958986075
 31
0.0
 11
-13.011759032
 21
-30.6955436606
 31
0.0
 11
-14.542816928
 21
-30.6949451737
 31
0.0
 11
-16.1765233962
 21
-30.6938438525
 31
0.0
 11
-17.8491621041
 21
-30.69172237
 31
0.0
 11
-19.4443369145
 21
-30.6878724942
 31
0.0
 11
-20.8991367533
 21
-30.6815600649
 31
0.0
 11
-22.1965891419
 21
-30.6724156787
 31
0.0
  0
SPLINE
  5
685
100
AcDbEntity
  8
DRAFT
100
AcDbSpline
 62
7
  6
CONTINUOUS
 70
0
 71
3
 72
25
 73
21
 74
19
 42
0.0000001
 43
0.0000001
 44
0.0000000001
 12
-0.0125856319
 22
-10.3513415958
 32
0.0
 13
-0.0084827432
 23
10.3513457711
 33
0.0
 40
0.0
 40
0.0
 40
0.0
 40
0.0
 40
0.0809396342
 40
0.1603069606
 40
0.2366263257
 40
0.3076103344
 40
0.3741506539
 40
0.4393479418
 40
0.5055682857
 40
0.5699270584
 40
0.6309954118
 40
0.6867264063
 40
0.7353436617
 40
0.7780360491
 40
0.8166913061
 40
0.8532790274
 40
0.8897518649
 40
0.9266922502
 40
0.9635864246
 40
1.0
 40
1.0
 40
1.0
 40
1.0
 10
-24.6958571625
 20
-40.2899946264
 30
0.0
 10
-24.6961967213
 20
-40.5692725606
 30
0.0
 10
-24.7678095308
 20
-41.1249035771
 30
0.0
 10
-25.0740752613
 20
-41.8905026868
 30
0.0
 10
-25.5360797056
 20
-42.5310303542
 30
0.0
 10
-26.0980940478
 20
-43.0184968229
 30
0.0
 10
-26.7168620598
 20
-43.3554550542
 30
0.0
 10
-27.3755666819
 20
-43.5534008217
 30
0.0
 10
-28.0535044203
 20
-43.6116070683
 30
0.0
 10
-28.7145549965
 20
-43.5323311765
 30
0.0
 10
-29.3122953446
 20
-43.3367268335
 30
0.0
 10
-29.8158598625
 20
-43.0618703795
 30
0.0
 10
-30.2171494933
 20
-42.7482199888
 30
0.0
 10
-30.5283349902
 20
-42.4234698852
 30
0.0
 10
-30.7707720014
 20
-42.0954039747
 30
0.0
 10
-30.9621726592
 20
-41.7598385817
 30
0.0
 10
-31.1116097379
 20
-41.4100439549
 30
0.0
 10
-31.2201748458
 20
-41.044343979
 30
0.0
 10
-31.2857313377
 20
-40.6688064588
 30
0.0
 10
-31.3003972133
 20
-40.4156377962
 30
0.0
 10
-31.3005001756
 20
-40.2899946264
 30
0.0
 11
-24.6958571625
 21
-40.2899946264
 31
0.0
 11
-24.8031496809
 21
-41.1209307455
 31
0.0
 11
-25.1081195665
 21
-41.8837888038
 31
0.0
 11
-25.5702814885
 21
-42.5245068652
 31
0.0
 11
-26.1253130787
 21
-43.0060065772
 31
0.0
 11
-26.7302104766
 21
-43.335430165
 31
0.0
 11
-27.3765393312
 21
-43.529651396
 31
0.0
 11
-28.0594969577
 21
-43.5882847768
 31
0.0
 11
-28.7209592246
 21
-43.5089734432
 31
0.0
 11
-29.3217536564
 21
-43.3123854352
 31
0.0
 11
-29.8281362581
 21
-43.0360163455
 31
0.0
 11
-30.2246543914
 21
-42.7261161201
 31
0.0
 11
-30.5304125611
 21
-42.4070415252
 31
0.0
 11
-30.7682226563
 21
-42.0852440288
 31
0.0
 11
-30.9558690884
 21
-41.7562653701
 31
0.0
 11
-31.1041921134
 21
-41.4090780198
 31
0.0
 11
-31.2130202356
 21
-41.0425086968
 31
0.0
 11
-31.2786907709
 21
-40.6662927799
 31
0.0
 11
-31.3005001756
 21
-40.2899946264
 31
0.0
  0
SPLINE
  5
686
100
AcDbEntity
  8
RACCORDO
100
AcDbSpline
 62
253
  6
CONTINUOUS
 70
0
 71
3
 72
27
 73
23
 74
21
 42
0.0000001
 43
0.0000001
 44
0.0000000001
 12
0.3427741763
 22
-22.1906497702
 32
0.0
 13
0.0462542224
 23
-22.1932487911
 33
0.0
 40
0.0
 40
0.0
 40
0.0
 40
0.0
 40
0.1051190573
 40
0.2040621112
 40
0.2923061207
 40
0.3712339978
 40
0.442207498
 40
0.5066106083
 40
0.5654178368
 40
0.6189855166
 40
0.6678594231
 40
0.7126868016
 40
0.7538541637
 40
0.7916421876
 40
0.8263557948
 40
0.8584011908
 40
0.8879724614
 40
0.9147787956
 40
0.9390210057
 40
0.9611138664
 40
0.9813595552
 40
1.0
 40
1.0
 40
1.0
 40
1.0
 10
25.8587174977
 20
17.4030620305
 30
0.0
 10
25.8707281972
 20
16.6255086355
 30
0.0
 10
25.8911896314
 20
15.11602941
 30
0.0
 10
25.9030223741
 20
12.9536337915
 30
0.0
 10
25.9061489451
 20
10.9849797384
 30
0.0
 10
25.905900354
 20
9.2232353841
 30
0.0
 10
25.9045182736
 20
7.6378616346
 30
0.0
 10
25.9029225632
 20
6.2013359692
 30
0.0
 10
25.9014758096
 20
4.8935744168
 30
0.0
 10
25.9002358376
 20
3.7006941132
 30
0.0
 10
25.8992442735
 20
2.6112332687
 30
0.0
 10
25.8985094576
 20
1.6135068869
 30
0.0
 10
25.8979920885
 20
0.6977911434
 30
0.0
 10
25.8976614945
 20
-0.1431053706
 30
0.0
 10
25.8974943565
 20
-0.9165197636
 30
0.0
 10
25.8974730689
 20
-1.6291485594
 30
0.0
 10
25.8975850411
 20
-2.2832811941
 30
0.0
 10
25.897822013
 20
-2.8796876517
 30
0.0
 10
25.8981760616
 20
-3.4207705173
 30
0.0
 10
25.8986449142
 20
-3.9133191608
 30
0.0
 10
25.8992387116
 20
-4.3644270895
 30
0.0
 10
25.899743696
 20
-4.6520971665
 30
0.0
 10
25.9000310957
 20
-4.7899945096
 30
0.0
 11
25.8587174977
 21
17.4030620305
 31
0.0
 11
25.8885712609
 21
15.0703145937
 31
0.0
 11
25.9019528341
 21
12.8744827877
 31
0.0
 11
25.9056625
 21
10.9160607901
 31
0.0
 11
25.9056674177
 21
9.1643909736
 31
0.0
 11
25.9044101004
 21
7.5892555063
 31
0.0
 11
25.9028777071
 21
6.159938974
 31
0.0
 11
25.9014481381
 21
4.85481347
 31
0.0
 11
25.9002265441
 21
3.6659706703
 31
0.0
 11
25.8992497764
 21
2.5812979881
 31
0.0
 11
25.8985191636
 21
1.5864309313
 31
0.0
 11
25.8980052513
 21
0.6727915815
 31
0.0
 11
25.8976783478
 21
-0.165849191
 31
0.0
 11
25.8975149591
 21
-0.9362585675
 31
0.0
 11
25.8974973098
 21
-1.6474515578
 31
0.0
 11
25.8976144927
 21
-2.3037355384
 31
0.0
 11
25.8978563123
 21
-2.8986564257
 31
0.0
 11
25.8982143851
 21
-3.4366708756
 31
0.0
 11
25.8986890008
 21
-3.9269840651
 31
0.0
 11
25.8992885845
 21
-4.3763022482
 31
0.0
 11
25.9000310957
 21
-4.7899945096
 31
0.0
  0
SPLINE
  5
687
100
AcDbEntity
  8
RACCORDO
100
AcDbSpline
 62
253
  6
CONTINUOUS
 70
0
 71
3
 72
18
 73
14
 74
12
 42
0.0000001
 43
0.0000001
 44
0.0000000001
 12
5.7694995288
 22
-0.0480452815
 32
0.0
 13
0.0892653734
 23
-5.7690090011
 33
0.0
 40
0.0
 40
0.0
 40
0.0
 40
0.0
 40
0.1399372159
 40
0.2731538214
 40
0.3914704019
 40
0.4967375697
 40
0.591191133
 40
0.6760852519
 40
0.7530478628
 40
0.8234980773
 40
0.8877819213
 40
0.9460606551
 40
1.0
 40
1.0
 40
1.0
 40
1.0
 10
22.1965891419
 20
21.092426426
 30
0.0
 10
22.4657117091
 20
21.0901853183
 30
0.0
 10
22.99232091
 20
21.0299658334
 30
0.0
 10
23.7111207061
 20
20.7892643692
 30
0.0
 10
24.310052511
 20
20.446047029
 30
0.0
 10
24.7803520283
 20
20.0503868701
 30
0.0
 10
25.1383157112
 20
19.6334281416
 30
0.0
 10
25.4026262879
 20
19.2155130256
 30
0.0
 10
25.5913077147
 20
18.809326759
 30
0.0
 10
25.7199457662
 20
18.422222593
 30
0.0
 10
25.8011470144
 20
18.0594349972
 30
0.0
 10
25.845740872
 20
17.7225455329
 30
0.0
 10
25.8571125258
 20
17.5067875527
 30
0.0
 10
25.8587174977
 20
17.4030620305
 30
0.0
 11
22.1965891419
 21
21.092426426
 31
0.0
 11
22.9987012317
 21
21.0002092698
 31
0.0
 11
23.7273647389
 21
20.7556159808
 31
0.0
 11
24.3194438646
 21
20.4158294803
 31
0.0
 11
24.7840784901
 21
20.0246763732
 31
0.0
 11
25.1390717567
 21
19.6111904036
 31
0.0
 11
25.4010536684
 21
19.1973271373
 31
0.0
 11
25.5883778498
 21
18.7947217862
 31
0.0
 11
25.7168061003
 21
18.4090672922
 31
0.0
 11
25.7980072769
 21
18.0471666955
 31
0.0
 11
25.8422574083
 21
17.7138402544
 31
0.0
 11
25.8587174977
 21
17.4030620305
 31
0.0
  0
SPLINE
  5
688
100
AcDbEntity
  8
RACCORDO
100
AcDbSpline
 62
253
  6
CONTINUOUS
 70
0
 71
3
 72
28
 73
24
 74
22
 42
0.0000001
 43
0.0000001
 44
0.0000000001
 12
22.1964871629
 22
0.0843956127
 32
0.0
 13
22.1958414646
 23
-0.1891736475
 33
0.0
 40
0.0
 40
0.0
 40
0.0
 40
0.0
 40
0.0199390883
 40
0.0416777675
 40
0.0655208922
 40
0.0918414056
 40
0.1210947556
 40
0.15337495
 40
0.1881988948
 40
0.2258178648
 40
0.2664483766
 40
0.3102350405
 40
0.3573543432
 40
0.4080986302
 40
0.4628486502
 40
0.5220925576
 40
0.5862040666
 40
0.6551810598
 40
0.7287825725
 40
0.8041380984
 40
0.8760038813
 40
0.94154592
 40
1.0
 40
1.0
 40
1.0
 40
1.0
 10
0.0
 20
21.1100058087
 30
0.0
 10
0.1475259055
 20
21.1105667325
 30
0.0
 10
0.4558932548
 20
21.1115648261
 30
0.0
 10
0.9406732775
 20
21.1127280427
 30
0.0
 10
1.47266922
 20
21.1136962899
 30
0.0
 10
2.0602656596
 20
21.1144951467
 30
0.0
 10
2.7102872014
 20
21.1151437448
 30
0.0
 10
3.4232247725
 20
21.1156506339
 30
0.0
 10
4.1980586698
 20
21.1160272924
 30
0.0
 10
5.0346756372
 20
21.1162792981
 30
0.0
 10
5.9376067365
 20
21.1164188585
 30
0.0
 10
6.9108296896
 20
21.1164600598
 30
0.0
 10
7.9588832773
 20
21.1164289097
 30
0.0
 10
9.0880534447
 20
21.1163326567
 30
0.0
 10
10.3069321312
 20
21.1161618934
 30
0.0
 10
11.62471331
 20
21.1159120842
 30
0.0
 10
13.0477581792
 20
21.1155777207
 30
0.0
 10
14.5770332217
 20
21.1150057678
 30
0.0
 10
16.1895012354
 20
21.1139935827
 30
0.0
 10
17.8233423843
 20
21.1120746119
 30
0.0
 10
19.3975498707
 20
21.1085092223
 30
0.0
 10
20.8466980238
 20
21.1025173099
 30
0.0
 10
21.7641099776
 20
21.0961124165
 30
0.0
 10
22.1965891419
 20
21.092426426
 30
0.0
 11
0.0
 21
21.1100058087
 31
0.0
 11
0.4425785178
 21
21.11146264
 31
0.0
 11
0.9251028681
 21
21.1126462339
 31
0.0
 11
1.4543394013
 21
21.1136243167
 31
0.0
 11
2.0385660045
 21
21.1144322827
 31
0.0
 11
2.6878919703
 21
21.1150918851
 31
0.0
 11
3.4044038821
 21
21.1156114166
 31
0.0
 11
4.1773786173
 21
21.1159943386
 31
0.0
 11
5.0123935979
 21
21.1162529618
 31
0.0
 11
5.91425474
 21
21.1163990107
 31
0.0
 11
6.8861718871
 21
21.1164477716
 31
0.0
 11
7.9320624424
 21
21.1164203873
 31
0.0
 11
9.058415497
 21
21.1163252761
 31
0.0
 11
10.273682384
 21
21.1161569269
 31
0.0
 11
11.5886984967
 21
21.1159093548
 31
0.0
 11
13.0117590249
 21
21.1155544079
 31
0.0
 11
14.54281692
 21
21.114955921
 31
0.0
 11
16.176523388
 21
21.1138545998
 31
0.0
 11
17.8491620968
 21
21.1117331173
 31
0.0
 11
19.4443369095
 21
21.1078832415
 31
0.0
 11
20.8991367509
 21
21.1015708122
 31
0.0
 11
22.1965891419
 21
21.092426426
 31
0.0
  0
SPLINE
  5
689
100
AcDbEntity
  8
DRAFT
100
AcDbSpline
 62
7
  6
CONTINUOUS
 70
0
 71
3
 72
25
 73
21
 74
19
 42
0.0000001
 43
0.0000001
 44
0.0000000001
 12
0.0125856319
 22
10.351341596
 32
0.0
 13
0.0084827432
 23
-10.3513457713
 33
0.0
 40
0.0
 40
0.0
 40
0.0
 40
0.0
 40
0.0809396333
 40
0.1603069589
 40
0.2366263233
 40
0.3076103313
 40
0.3741506501
 40
0.4393479373
 40
0.505568281
 40
0.5699270538
 40
0.6309954076
 40
0.6867264028
 40
0.7353436585
 40
0.7780360463
 40
0.8166913036
 40
0.8532790254
 40
0.8897518633
 40
0.9266922492
 40
0.9635864241
 40
1.0
 40
1.0
 40
1.0
 40
1.0
 10
24.6958571625
 20
30.7100053736
 30
0.0
 10
24.6961967213
 20
30.9892833046
 30
0.0
 10
24.7678095292
 20
31.5449143153
 30
0.0
 10
25.0740752534
 20
32.3105134186
 30
0.0
 10
25.5360796893
 20
32.9510410827
 30
0.0
 10
26.0980940213
 20
33.4385075511
 30
0.0
 10
26.7168620232
 20
33.7754657856
 30
0.0
 10
27.3755666372
 20
33.9734115602
 30
0.0
 10
28.0535043723
 20
34.0316178163
 30
0.0
 10
28.7145549508
 20
33.952341934
 30
0.0
 10
29.3122953054
 20
33.7567375981
 30
0.0
 10
29.815859831
 20
33.4818811477
 30
0.0
 10
30.2171494686
 20
33.1682307585
 30
0.0
 10
30.5283349714
 20
32.8434806551
 30
0.0
 10
30.7707719876
 20
32.5154147434
 30
0.0
 10
30.96217265
 20
32.1798493479
 30
0.0
 10
31.1116097326
 20
31.8300547173
 30
0.0
 10
31.2201748436
 20
31.4643547366
 30
0.0
 10
31.2857313373
 20
31.0888172113
 30
0.0
 10
31.3003972133
 20
30.8356485452
 30
0.0
 10
31.3005001756
 20
30.7100053736
 30
0.0
 11
24.6958571625
 21
30.7100053736
 31
0.0
 11
24.8031496784
 21
31.5409414833
 31
0.0
 11
25.1081195581
 21
32.3037995359
 31
0.0
 11
25.570281472
 21
32.9445175945
 31
0.0
 11
26.1253130521
 21
33.4260173062
 31
0.0
 11
26.7302104394
 21
33.7554408968
 31
0.0
 11
27.3765392857
 21
33.9496621346
 31
0.0
 11
28.0594969088
 21
34.008295525
 31
0.0
 11
28.720959178
 21
33.928984201
 31
0.0
 11
29.3217536173
 21
33.7323961996
 31
0.0
 11
29.8281362271
 21
33.4560271134
 31
0.0
 11
30.224654367
 21
33.1461268897
 31
0.0
 11
30.5304125423
 21
32.827052295
 31
0.0
 11
30.7682226424
 21
32.5052547975
 31
0.0
 11
30.9558690789
 21
32.1762761365
 31
0.0
 11
31.1041921079
 21
31.8290887822
 31
0.0
 11
31.2130202332
 21
31.4625194544
 31
0.0
 11
31.2786907703
 21
31.0863035323
 31
0.0
 11
31.3005001756
 21
30.7100053736
 31
0.0
  0
SPLINE
  5
68A
100
AcDbEntity
  8
RACCORDO
100
AcDbSpline
 62
7
  6
CONTINUOUS
 70
0
 71
3
 72
9
 73
5
 74
3
 42
0.0000001
 43
0.0000001
 44
0.0000000001
 12
-0.0083613814
 22
-3.9757572728
 32
0.0
 13
0.0000005873
 23
-3.9757656216
 33
0.0
 40
0.0
 40
0.0
 40
0.0
 40
0.0
 40
0.5867418239
 40
1.0
 40
1.0
 40
1.0
 40
1.0
 10
-101.4591005312
 20
17.4030620305
 30
0.0
 10
-101.4607358552
 20
16.625481006
 30
0.0
 10
-101.4610688972
 20
15.300224484
 30
0.0
 10
-101.4611128105
 20
13.9749692557
 30
0.0
 10
-101.4611127296
 20
13.4272967058
 30
0.0
 11
-101.4591005312
 21
17.4030620305
 31
0.0
 11
-101.4610271374
 21
15.0703145937
 31
0.0
 11
-101.4611127296
 21
13.4272967058
 31
0.0
  0
SPLINE
  5
68B
100
AcDbEntity
  8
DRAFT
100
AcDbSpline
 62
7
  6
CONTINUOUS
 70
0
 71
3
 72
15
 73
11
 74
9
 42
0.0000001
 43
0.0000001
 44
0.0000000001
 12
-0.5482920698
 22
-3.5032816423
 32
0.0
 13
-3.256481662
 23
1.1415563441
 33
0.0
 40
0.0
 40
0.0
 40
0.0
 40
0.0
 40
0.1802084587
 40
0.373998516
 40
0.5661817273
 40
0.7394414754
 40
0.8757813922
 40
0.9590963052
 40
0.9964172291
 40
1.0
 40
1.0
 40
1.0
 40
1.0
 10
-99.6057588647
 20
30.7100053736
 30
0.0
 10
-99.6386944876
 20
30.4995650453
 30
0.0
 10
-99.7158444352
 20
30.0639561508
 30
0.0
 10
-99.8673698271
 20
29.4124911039
 30
0.0
 10
-100.0583633721
 20
28.7763719574
 30
0.0
 10
-100.2666818276
 20
28.2293630635
 30
0.0
 10
-100.4637369211
 20
27.7855240714
 30
0.0
 10
-100.6093673576
 20
27.562176731
 30
0.0
 10
-100.7099747811
 20
27.3961335864
 30
0.0
 10
-100.7543076907
 20
27.4068702945
 30
0.0
 10
-100.7581967666
 20
27.4082336061
 30
0.0
 11
-99.6057588647
 21
30.7100053736
 31
0.0
 11
-99.7183692828
 21
30.0809999069
 31
0.0
 11
-99.8749903008
 21
29.4119211029
 31
0.0
 11
-100.0722677434
 21
28.7596327817
 31
0.0
 11
-100.290383322
 21
28.1852879932
 31
0.0
 11
-100.4958466661
 21
27.7476691925
 31
0.0
 11
-100.6494270387
 21
27.4952980703
 31
0.0
 11
-100.7466273749
 21
27.4054912809
 31
0.0
 11
-100.7581967666
 21
27.4082336061
 31
0.0
  0
LINE
  5
68C
100
AcDbEntity
  8
RACCORDO
100
AcDbLine
 62
7
  6
CONTINUOUS
 10
-99.5022101707
 20
34.0775749383
 11
-99.5097365492
 21
34.0532058854
  0
SPLINE
  5
68D
100
AcDbEntity
  8
RACCORDO
100
AcDbSpline
 62
7
  6
CONTINUOUS
 70
0
 71
3
 72
12
 73
8
 74
6
 42
0.0000001
 43
0.0000001
 44
0.0000000001
 12
-0.0028350983
 22
-0.0222047333
 32
0.0
 13
-0.0000384901
 23
0.0000042118
 33
0.0
 40
0.0
 40
0.0
 40
0.0
 40
0.0
 40
0.3850261194
 40
0.6564611928
 40
0.8325329108
 40
0.9976276656
 40
1.0
 40
1.0
 40
1.0
 40
1.0
 10
-101.4600751779
 20
-30.6724156787
 30
0.0
 10
-101.4604390402
 20
-30.6752654794
 30
0.0
 10
-101.4608239658
 20
-30.6800309999
 30
0.0
 10
-101.4610319721
 20
-30.6866170287
 30
0.0
 10
-101.4610601748
 20
-30.6903610988
 30
0.0
 10
-101.461090883
 20
-30.6946844206
 30
0.0
 10
-101.4610932132
 20
-30.6947131363
 30
0.0
 10
-101.4610932436
 20
-30.694713133
 30
0.0
 11
-101.4600751779
 21
-30.6724156787
 31
0.0
 11
-101.4608145777
 21
-30.6810027113
 31
0.0
 11
-101.4610222434
 21
-30.687075234
 31
0.0
 11
-101.4610646193
 21
-30.6910163706
 31
0.0
 11
-101.4610931446
 21
-30.6947119056
 31
0.0
 11
-101.4610932436
 21
-30.694713133
 31
0.0
  0
LINE
  5
68E
100
AcDbEntity
  8
RACCORDO
100
AcDbLine
 62
7
  6
CONTINUOUS
 10
-101.4610174812
 20
-4.789994507
 11
-101.4609353817
 21
-13.1335271567
  0
SPLINE
  5
68F
100
AcDbEntity
  8
DRAFT
100
AcDbSpline
 62
7
  6
CONTINUOUS
 70
0
 71
3
 72
19
 73
15
 74
13
 42
0.0000001
 43
0.0000001
 44
0.0000000001
 12
1.8036300722
 22
0.2857689065
 32
0.0
 13
-0.5141606334
 23
-3.2852007305
 33
0.0
 40
0.0
 40
0.0
 40
0.0
 40
0.0
 40
0.0018325714
 40
0.0263482319
 40
0.0855164582
 40
0.168950118
 40
0.2626014494
 40
0.359034902
 40
0.4562845207
 40
0.5557116078
 40
0.660682974
 40
0.7716136389
 40
0.885648023
 40
1.0
 40
1.0
 40
1.0
 40
1.0
 10
-99.2893123031
 20
34.0083708281
 30
0.0
 10
-99.2882105428
 20
34.0085453921
 30
0.0
 10
-99.2730614404
 20
34.0082700667
 30
0.0
 10
-99.2603002576
 20
33.8654282797
 30
0.0
 10
-99.2782212822
 20
33.7183188249
 30
0.0
 10
-99.2994262637
 20
33.4402652248
 30
0.0
 10
-99.3306137439
 20
33.1443509997
 30
0.0
 10
-99.3620118824
 20
32.8258047424
 30
0.0
 10
-99.3940392566
 20
32.5029476121
 30
0.0
 10
-99.4270638404
 20
32.1701135482
 30
0.0
 10
-99.4628881218
 20
31.8224781375
 30
0.0
 10
-99.5033270993
 20
31.4590026343
 30
0.0
 10
-99.549989702
 20
31.0857983724
 30
0.0
 10
-99.5861604364
 20
30.8352284397
 30
0.0
 10
-99.6057588647
 20
30.7100053736
 30
0.0
 11
-99.2893123031
 21
34.0083708281
 31
0.0
 11
-99.2861575063
 21
34.008295525
 31
0.0
 11
-99.2673131845
 21
33.928984201
 31
0.0
 11
-99.2751900008
 21
33.7323961996
 31
0.0
 11
-99.2994631438
 21
33.4560271134
 31
0.0
 11
-99.3300773756
 21
33.1461268897
 31
0.0
 11
-99.361922385
 21
32.827052295
 31
0.0
 11
-99.3938115797
 21
32.5052547975
 31
0.0
 11
-99.4266565333
 21
32.1762761365
 31
0.0
 11
-99.4626682186
 21
31.8290887822
 31
0.0
 11
-99.5037646316
 21
31.4625194544
 31
0.0
 11
-99.5511335241
 21
31.0863035323
 31
0.0
 11
-99.6057588647
 21
30.7100053736
 31
0.0
  0
SPLINE
  5
690
100
AcDbEntity
  8
RACCORDO
100
AcDbSpline
 62
7
  6
CONTINUOUS
 70
0
 71
3
 72
10
 73
6
 74
4
 42
0.0000001
 43
0.0000001
 44
0.0000000001
 12
-0.0001966596
 22
-0.0000072427
 32
0.0
 13
0.0026414191
 23
-0.0206659211
 33
0.0
 40
0.0
 40
0.0
 40
0.0
 40
0.0
 40
0.2564137768
 40
0.5595414606
 40
1.0
 40
1.0
 40
1.0
 40
1.0
 10
-101.4611704161
 20
21.1136827427
 30
0.0
 10
-101.4611872249
 20
21.1136821236
 30
0.0
 10
-101.4609897683
 20
21.1063321048
 30
0.0
 10
-101.4608857091
 20
21.1011749158
 30
0.0
 10
-101.4604629897
 20
21.0954605864
 30
0.0
 10
-101.4600751779
 20
21.092426426
 30
0.0
 11
-101.4611704161
 21
21.1136827427
 31
0.0
 11
-101.4610354916
 21
21.1078832415
 31
0.0
 11
-101.4608426093
 21
21.1015708122
 31
0.0
 11
-101.4600751779
 21
21.092426426
 31
0.0
  0
SPLINE
  5
691
100
AcDbEntity
  8
RACCORDO
100
AcDbSpline
 62
7
  6
CONTINUOUS
 70
0
 71
3
 72
9
 73
5
 74
3
 42
0.0000001
 43
0.0000001
 44
0.0000000001
 12
-0.0000077726
 22
-3.9846621995
 32
0.0
 13
0.0083820924
 23
-3.9846537927
 33
0.0
 40
0.0
 40
0.0
 40
0.0
 40
0.0
 40
0.4305285888
 40
1.0
 40
1.0
 40
1.0
 40
1.0
 10
-101.4611145907
 20
-22.9983894566
 30
0.0
 10
-101.4611157061
 20
-23.5702264545
 30
0.0
 10
-101.4610721401
 20
-24.8984471377
 30
0.0
 10
-101.4606916518
 20
-26.2266691438
 30
0.0
 10
-101.4591005312
 20
-26.9830512832
 30
0.0
 11
-101.4611145907
 21
-22.9983894566
 31
0.0
 11
-101.4610157431
 21
-24.7139006524
 31
0.0
 11
-101.4591005312
 21
-26.9830512832
 31
0.0
  0
LINE
  5
692
100
AcDbEntity
  8
RACCORDO
100
AcDbLine
 62
7
  6
CONTINUOUS
 10
-101.4609353817
 20
-13.1335271567
 11
-101.4611145907
 21
-22.9983894566
  0
LINE
  5
693
100
AcDbEntity
  8
RACCORDO
100
AcDbLine
 62
7
  6
CONTINUOUS
 10
-101.4609353955
 20
3.5544042016
 11
-101.4610174812
 21
-4.7899945096
  0
LINE
  5
694
100
AcDbEntity
  8
RACCORDO
100
AcDbLine
 62
7
  6
CONTINUOUS
 10
-101.4611127296
 20
13.4272967058
 11
-101.4609353955
 21
3.5544042016
  0
SPLINE
  5
695
100
AcDbEntity
  8
DRAFT
100
AcDbSpline
 62
7
  6
CONTINUOUS
 70
0
 71
3
 72
14
 73
10
 74
8
 42
0.0000001
 43
0.0000001
 44
0.0000000001
 12
0.781732151
 22
3.3665276059
 32
0.0
 13
1.8746350185
 23
0.2970189994
 33
0.0
 40
0.0
 40
0.0
 40
0.0
 40
0.0
 40
0.247556915
 40
0.4762569761
 40
0.6696393603
 40
0.8161215122
 40
0.9175141368
 40
0.9789481205
 40
1.0
 40
1.0
 40
1.0
 40
1.0
 10
-100.3014496806
 20
30.7100053736
 30
0.0
 10
-100.2369419474
 20
30.9878077698
 30
0.0
 10
-100.1059028382
 20
31.5210182448
 30
0.0
 10
-99.9053299581
 20
32.2645513317
 30
0.0
 10
-99.7164748662
 20
32.8960088681
 30
0.0
 10
-99.5684082867
 20
33.3717222725
 30
0.0
 10
-99.431985364
 20
33.7254960694
 30
0.0
 10
-99.3808844078
 20
33.8899150774
 30
0.0
 10
-99.3024671666
 20
34.0062865587
 30
0.0
 10
-99.2893123031
 20
34.0083708281
 30
0.0
 11
-100.3014496806
 21
30.7100053736
 31
0.0
 11
-100.0975772882
 21
31.5409414833
 31
0.0
 11
-99.8907070993
 21
32.3037995359
 31
0.0
 11
-99.7005228607
 21
32.9445175945
 31
0.0
 11
-99.5441456141
 21
33.4260173062
 31
0.0
 11
-99.4246622737
 21
33.7554408968
 31
0.0
 11
-99.3388794891
 21
33.9496621346
 31
0.0
 11
-99.2893123031
 21
34.0083708281
 31
0.0
  0
SPLINE
  5
696
100
AcDbEntity
  8
RACCORDO
100
AcDbSpline
 62
253
  6
CONTINUOUS
 70
0
 71
3
 72
17
 73
13
 74
11
 42
0.0000001
 43
0.0000001
 44
0.0000000001
 12
0.0077131781
 22
-3.6893595735
 32
0.0
 13
-0.4844485721
 23
-3.6574230185
 33
0.0
 40
0.0
 40
0.0
 40
0.0
 40
0.0
 40
0.0968655021
 40
0.2006878849
 40
0.3126752475
 40
0.4316594019
 40
0.5548473784
 40
0.6788165528
 40
0.7973049012
 40
0.9005103371
 40
0.9734352356
 40
1.0
 40
1.0
 40
1.0
 40
1.0
 10
-101.4591005312
 20
-26.9830512832
 30
0.0
 10
-101.4588514842
 20
-27.1021751724
 30
0.0
 10
-101.4584141419
 20
-27.3489785857
 30
0.0
 10
-101.4580791351
 20
-27.7335032564
 30
0.0
 10
-101.4581242393
 20
-28.14522879
 30
0.0
 10
-101.4584571893
 20
-28.5807719927
 30
0.0
 10
-101.4590368586
 20
-29.0310412828
 30
0.0
 10
-101.4590626479
 20
-29.4807343644
 30
0.0
 10
-101.4604026326
 20
-29.9057367321
 30
0.0
 10
-101.4567576308
 20
-30.2683206128
 30
0.0
 10
-101.4642575803
 20
-30.5170285954
 30
0.0
 10
-101.4557854238
 20
-30.6400294851
 30
0.0
 10
-101.4600751779
 20
-30.6724156787
 30
0.0
 11
-101.4591005312
 21
-26.9830512832
 31
0.0
 11
-101.4584810961
 21
-27.3404231948
 31
0.0
 11
-101.4581481267
 21
-27.7234619892
 31
0.0
 11
-101.4581670273
 21
-28.1366245401
 31
0.0
 11
-101.4584908307
 21
-28.5756007092
 31
0.0
 11
-101.4589427459
 21
-29.0300862183
 31
0.0
 11
-101.4593042828
 21
-29.487453935
 31
0.0
 11
-101.4594328884
 21
-29.9246009942
 31
0.0
 11
-101.4593688048
 21
-30.3053637838
 31
0.0
 11
-101.4594432602
 21
-30.5744105338
 31
0.0
 11
-101.4600751779
 21
-30.6724156787
 31
0.0
  0
LINE
  5
697
100
AcDbEntity
  8
RACCORDO
100
AcDbLine
 62
253
  6
CONTINUOUS
 10
-101.4610174812
 20
-4.789994507
 11
-98.7725566173
 21
-4.7899946237
  0
SPLINE
  5
698
100
AcDbEntity
  8
0
100
AcDbSpline
 62
7
  6
CONTINUOUS
 70
0
 71
3
 72
10
 73
6
 74
4
 42
0.0000001
 43
0.0000001
 44
0.0000000001
 12
-0.0160431006
 22
0.5314234022
 32
0.0
 13
-0.0246625728
 23
0.5310725758
 33
0.0
 40
0.0
 40
0.0
 40
0.0
 40
0.0
 40
0.2738223115
 40
0.677392565
 40
1.0
 40
1.0
 40
1.0
 40
1.0
 10
-101.365690695
 20
-33.0988972933
 30
0.0
 10
-101.3671550147
 20
-33.0503920985
 30
0.0
 10
-101.3720674583
 20
-32.930435695
 30
0.0
 10
-101.3800179674
 20
-32.7534194703
 30
0.0
 10
-101.3859044647
 20
-32.624802396
 30
0.0
 10
-101.3885565745
 20
-32.5676930755
 30
0.0
 11
-101.365690695
 21
-33.0988972933
 31
0.0
 11
-101.3712038448
 21
-32.9534198429
 31
0.0
 11
-101.3806965681
 21
-32.7390655493
 31
0.0
 11
-101.3885565745
 21
-32.5676930755
 31
0.0
  0
LINE
  5
699
100
AcDbEntity
  8
0
100
AcDbLine
 62
7
  6
CONTINUOUS
 10
-101.3885565745
 20
-32.5676930755
 11
-101.3972334436
 21
-32.3836164537
  0
SPLINE
  5
69A
100
AcDbEntity
  8
0
100
AcDbSpline
 62
7
  6
CONTINUOUS
 70
0
 71
3
 72
9
 73
5
 74
3
 42
0.0000001
 43
0.0000001
 44
0.0000000001
 12
-0.0111621688
 22
0.2626260408
 32
0.0
 13
-0.014674481
 23
0.2583893691
 33
0.0
 40
0.0
 40
0.0
 40
0.0
 40
0.0
 40
0.6800559028
 40
1.0
 40
1.0
 40
1.0
 40
1.0
 10
-101.4097921761
 20
-32.1028590036
 30
0.0
 10
-101.4123224757
 20
-32.0433255405
 30
0.0
 10
-101.4161895701
 20
-31.9559730329
 30
0.0
 10
-101.4214735696
 20
-31.8702832416
 30
0.0
 10
-101.4230385742
 20
-31.8427265238
 30
0.0
 11
-101.4097921761
 21
-32.1028590036
 31
0.0
 11
-101.4182374411
 21
-31.9252853301
 31
0.0
 11
-101.4230385742
 21
-31.8427265238
 31
0.0
  0
SPLINE
  5
69B
100
AcDbEntity
  8
0
100
AcDbSpline
 62
7
  6
CONTINUOUS
 70
0
 71
3
 72
11
 73
7
 74
5
 42
0.0000001
 43
0.0000001
 44
0.0000000001
 12
-0.0253387204
 22
0.4461661004
 32
0.0
 13
-0.4522643295
 23
0.0
 33
0.0
 40
0.0
 40
0.0
 40
0.0
 40
0.0
 40
0.3256164519
 40
0.6998771111
 40
0.9256805256
 40
1.0
 40
1.0
 40
1.0
 40
1.0
 10
-101.4230385742
 20
-31.8427265238
 30
0.0
 10
-101.4257888089
 20
-31.7943001829
 30
0.0
 10
-101.4308665654
 20
-31.689278601
 30
0.0
 10
-101.4262386981
 20
-31.5374046849
 30
0.0
 10
-101.4541904016
 20
-31.4623464068
 30
0.0
 10
-101.4329658502
 20
-31.3898697393
 30
0.0
 10
-101.444169866
 20
-31.3898697393
 30
0.0
 11
-101.4230385742
 21
-31.8427265238
 31
0.0
 11
-101.4286571574
 21
-31.6944555837
 31
0.0
 11
-101.4363385206
 21
-31.5253652205
 31
0.0
 11
-101.4414132292
 21
-31.4233685553
 31
0.0
 11
-101.444169866
 21
-31.3898697393
 31
0.0
  0
LINE
  5
69C
100
AcDbEntity
  8
0
100
AcDbLine
 62
7
  6
CONTINUOUS
 10
-101.4606959738
 20
-32.6327455656
 11
-101.4585367631
 21
-32.6760528147
  0
SPLINE
  5
69D
100
AcDbEntity
  8
0
100
AcDbSpline
 62
7
  6
CONTINUOUS
 70
0
 71
3
 72
12
 73
8
 74
6
 42
0.0000001
 43
0.0000001
 44
0.0000000001
 12
0.6051768937
 22
0.0
 32
0.0
 13
0.0259467637
 23
-0.6064106669
 33
0.0
 40
0.0
 40
0.0
 40
0.0
 40
0.0
 40
0.0453741582
 40
0.1782067609
 40
0.3906953564
 40
0.6702679118
 40
1.0
 40
1.0
 40
1.0
 40
1.0
 10
-101.4941873153
 20
-31.3898697393
 30
0.0
 10
-101.4850341846
 20
-31.3898697393
 30
0.0
 10
-101.5016710569
 20
-31.447547737
 30
0.0
 10
-101.4801564004
 20
-31.5057981467
 30
0.0
 10
-101.4840168502
 20
-31.6427993747
 30
0.0
 10
-101.4727061579
 20
-31.8039093325
 30
0.0
 10
-101.4679928593
 20
-31.92767461
 30
0.0
 10
-101.4651410324
 20
-31.9943256285
 30
0.0
 11
-101.4941873153
 21
-31.3898697393
 31
0.0
 11
-101.4917914433
 21
-31.41722441
 31
0.0
 11
-101.4876722529
 21
-31.497506025
 31
0.0
 11
-101.4817726218
 21
-31.6259638095
 31
0.0
 11
-101.4741697752
 21
-31.7949837512
 31
0.0
 11
-101.4651410324
 21
-31.9943256285
 31
0.0
  0
LINE
  5
69E
100
AcDbEntity
  8
0
100
AcDbLine
 62
7
  6
CONTINUOUS
 10
-101.4586367827
 20
-32.1379211376
 11
-101.4449358323
 21
-32.4325712956
  0
LINE
  5
69F
100
AcDbEntity
  8
0
100
AcDbLine
 62
7
  6
CONTINUOUS
 10
-101.4449358323
 20
-32.4325712956
 11
-101.4320869322
 21
-32.7103755776
  0
SPLINE
  5
6A0
100
AcDbEntity
  8
0
100
AcDbSpline
 62
7
  6
CONTINUOUS
 70
0
 71
3
 72
10
 73
6
 74
4
 42
0.0000001
 43
0.0000001
 44
0.0000000001
 12
0.0177905568
 22
-0.3884561051
 32
0.0
 13
0.0117162117
 23
-0.388687372
 33
0.0
 40
0.0
 40
0.0
 40
0.0
 40
0.0
 40
0.3164442559
 40
0.714865691
 40
1.0
 40
1.0
 40
1.0
 40
1.0
 10
-101.4320869322
 20
-32.7103755776
 30
0.0
 10
-101.430210359
 20
-32.7513504786
 30
0.0
 10
-101.4260113394
 20
-32.84391996
 30
0.0
 10
-101.4203673299
 20
-32.9734165038
 30
0.0
 10
-101.416906001
 20
-33.0619545916
 30
0.0
 10
-101.4157924364
 20
-33.0988972933
 30
0.0
 11
-101.4320869322
 21
-32.7103755776
 31
0.0
 11
-101.4265250584
 21
-32.8333051786
 31
0.0
 11
-101.4198626968
 21
-32.9880935834
 31
0.0
 11
-101.4157924364
 21
-33.0988972933
 31
0.0
  0
SPLINE
  5
6A1
100
AcDbEntity
  8
RACCORDO
100
AcDbSpline
 62
253
  6
CONTINUOUS
 70
0
 71
3
 72
18
 73
14
 74
12
 42
0.0000001
 43
0.0000001
 44
0.0000000001
 12
0.0096990908
 22
-1.9003193327
 32
0.0
 13
-0.002187342
 23
-1.9003358677
 33
0.0
 40
0.0
 40
0.0
 40
0.0
 40
0.0
 40
0.0238234671
 40
0.0901636769
 40
0.1826171987
 40
0.2888429147
 40
0.4009417805
 40
0.5130972346
 40
0.622246454
 40
0.7268596623
 40
0.8250782518
 40
0.9155808262
 40
1.0
 40
1.0
 40
1.0
 40
1.0
 10
-102.060771317
 20
19.3103420147
 30
0.0
 10
-102.060694295
 20
19.295251283
 30
0.0
 10
-102.060499314
 20
19.2381378356
 30
0.0
 10
-102.0606264907
 20
19.1224594562
 30
0.0
 10
-102.0605954321
 20
18.9545841646
 30
0.0
 10
-102.0605940692
 20
18.7577230593
 30
0.0
 10
-102.0605067072
 20
18.5483819263
 30
0.0
 10
-102.0603845743
 20
18.3371889172
 30
0.0
 10
-102.0602611431
 20
18.130737671
 30
0.0
 10
-102.0601878305
 20
17.9331146444
 30
0.0
 10
-102.0601955809
 20
17.7473032382
 30
0.0
 10
-102.0602884139
 20
17.5742836816
 30
0.0
 10
-102.0603977634
 20
17.4634803016
 30
0.0
 10
-102.0604593146
 20
17.4100053736
 30
0.0
 11
-102.060771317
 21
19.3103420147
 31
0.0
 11
-102.0606092537
 21
19.2650696857
 31
0.0
 11
-102.0605857557
 21
19.1390009244
 31
0.0
 11
-102.0606018994
 21
18.9633080651
 31
0.0
 11
-102.060580659
 21
18.7614433942
 31
0.0
 11
-102.0605010081
 21
18.5484177727
 31
0.0
 11
-102.0603827684
 21
18.335284632
 31
0.0
 11
-102.0602674356
 21
18.1278643502
 31
0.0
 11
-102.0602004325
 21
17.9290639977
 31
0.0
 11
-102.0602118075
 21
17.742415566
 31
0.0
 11
-102.0603038388
 21
17.5704301884
 31
0.0
 11
-102.0604593146
 21
17.4100053736
 31
0.0
  0
SPLINE
  5
6A2
100
AcDbEntity
  8
RACCORDO
100
AcDbSpline
 62
253
  6
CONTINUOUS
 70
0
 71
3
 72
17
 73
13
 74
11
 42
0.0000001
 43
0.0000001
 44
0.0000000001
 12
0.0021881765
 22
-1.9003358535
 32
0.0
 13
-0.0092021223
 23
-1.9003211408
 33
0.0
 40
0.0
 40
0.0
 40
0.0
 40
0.0
 40
0.0970734259
 40
0.2010645098
 40
0.3131789108
 40
0.4322262868
 40
0.55540566
 40
0.6793684173
 40
0.798025849
 40
0.901608707
 40
0.9746223157
 40
1.0
 40
1.0
 40
1.0
 40
1.0
 10
-102.0604593146
 20
-26.9899946264
 30
0.0
 10
-102.06038851
 20
-27.0514853302
 30
0.0
 10
-102.0602663386
 20
-27.1788487268
 30
0.0
 10
-102.0601807588
 20
-27.3772305543
 30
0.0
 10
-102.0602053892
 20
-27.5895317019
 30
0.0
 10
-102.0603196076
 20
-27.8139875537
 30
0.0
 10
-102.0604627806
 20
-28.0459486818
 30
0.0
 10
-102.0605790597
 20
-28.2776628049
 30
0.0
 10
-102.0605963925
 20
-28.4969636878
 30
0.0
 10
-102.060635797
 20
-28.6839908567
 30
0.0
 10
-102.0604908328
 20
-28.8119308189
 30
0.0
 10
-102.0606934741
 20
-28.8742560175
 30
0.0
 10
-102.060771317
 20
-28.8903312674
 30
0.0
 11
-102.0604593146
 21
-26.9899946264
 31
0.0
 11
-102.0602862124
 21
-27.1744667791
 31
0.0
 11
-102.0602003304
 21
-27.3720848767
 31
0.0
 11
-102.0602184111
 21
-27.585140033
 31
0.0
 11
-102.0603222917
 21
-27.811370156
 31
0.0
 11
-102.0604579862
 21
-28.0454524512
 31
0.0
 11
-102.0605637839
 21
-28.2810234557
 31
0.0
 11
-102.0606024305
 21
-28.5065125737
 31
0.0
 11
-102.0605881609
 21
-28.7033549226
 31
0.0
 11
-102.06060712
 21
-28.8421053917
 31
0.0
 11
-102.060771317
 21
-28.8903312674
 31
0.0
  0
SPLINE
  5
6A3
100
AcDbEntity
  8
RACCORDO
100
AcDbSpline
 62
253
  6
CONTINUOUS
 70
0
 71
3
 72
10
 73
6
 74
4
 42
0.0000001
 43
0.0000001
 44
0.0000000001
 12
0.6013972752
 22
-0.003934363
 32
0.0
 13
0.5879391278
 23
-0.1265770275
 33
0.0
 40
0.0
 40
0.0
 40
0.0
 40
0.0
 40
0.5368732442
 40
0.8751486248
 40
1.0
 40
1.0
 40
1.0
 40
1.0
 10
-102.0604593189
 20
17.4100053736
 30
0.0
 10
-101.9528346169
 20
17.4093012889
 30
0.0
 10
-101.7769587226
 20
17.4112662501
 30
0.0
 10
-101.5776329949
 20
17.4008704767
 30
0.0
 10
-101.4835708586
 20
17.4083298072
 30
0.0
 10
-101.4591025223
 20
17.4030620352
 30
0.0
 11
-102.0604593189
 21
17.4100053736
 31
0.0
 11
-101.737587649
 21
17.4075487871
 31
0.0
 11
-101.5341589627
 21
17.4051999898
 31
0.0
 11
-101.4591025223
 21
17.4030620352
 31
0.0
  0
SPLINE
  5
6A4
100
AcDbEntity
  8
RACCORDO
100
AcDbSpline
 62
253
  6
CONTINUOUS
 70
0
 71
3
 72
10
 73
6
 74
4
 42
0.0000001
 43
0.0000001
 44
0.0000000001
 12
0.6013986469
 22
0.003934467
 32
0.0
 13
0.5879428967
 23
0.1265660409
 33
0.0
 40
0.0
 40
0.0
 40
0.0
 40
0.0
 40
0.5368729525
 40
0.8751483404
 40
1.0
 40
1.0
 40
1.0
 40
1.0
 10
-102.0604593275
 20
-26.9899946264
 30
0.0
 10
-101.9528344384
 20
-26.9892905234
 30
0.0
 10
-101.7769582815
 20
-26.9912551271
 30
0.0
 10
-101.5776318898
 20
-26.9808601495
 30
0.0
 10
-101.4835697058
 20
-26.9883186114
 30
0.0
 10
-101.459101157
 20
-26.9830512847
 30
0.0
 11
-102.0604593275
 21
-26.9899946264
 31
0.0
 11
-101.7375870966
 21
-26.987537982
 31
0.0
 11
-101.5341579419
 21
-26.985189169
 31
0.0
 11
-101.459101157
 21
-26.9830512847
 31
0.0
  0
SPLINE
  5
6A5
100
AcDbEntity
  8
DRAFT
100
AcDbSpline
 62
7
  6
CONTINUOUS
 70
0
 71
3
 72
15
 73
11
 74
9
 42
0.0000001
 43
0.0000001
 44
0.0000000001
 12
-3.0943420674
 22
1.0847184736
 32
0.0
 13
0.7621168145
 23
3.2820542069
 33
0.0
 40
0.0
 40
0.0
 40
0.0
 40
0.0
 40
0.0147448012
 40
0.0538391554
 40
0.1186079492
 40
0.213066612
 40
0.3465797024
 40
0.5288084877
 40
0.7524999113
 40
1.0
 40
1.0
 40
1.0
 40
1.0
 10
-100.7581967666
 20
27.4082336061
 30
0.0
 10
-100.7734052528
 20
27.4135649255
 30
0.0
 10
-100.82926912
 20
27.4566448903
 30
0.0
 10
-100.8144484291
 20
27.6027794682
 30
0.0
 10
-100.8198988632
 20
27.8183318669
 30
0.0
 10
-100.779564997
 20
28.1489131535
 30
0.0
 10
-100.7189491945
 20
28.6037734066
 30
0.0
 10
-100.6171788738
 20
29.2019199728
 30
0.0
 10
-100.477883003
 20
29.9222048293
 30
0.0
 10
-100.3643243404
 20
30.4392358046
 30
0.0
 10
-100.3014496806
 20
30.7100053736
 30
0.0
 11
-100.7581967666
 21
27.4082336061
 31
0.0
 11
-100.7993092923
 21
27.4389054877
 31
0.0
 11
-100.8198997451
 21
27.5690098517
 31
0.0
 11
-100.8147288937
 21
27.7871790717
 31
0.0
 11
-100.7845548988
 21
28.1040123395
 31
0.0
 11
-100.723839431
 21
28.5497521781
 31
0.0
 11
-100.6229955187
 21
29.1554116737
 31
0.0
 11
-100.4800038155
 21
29.8954239705
 31
0.0
 11
-100.3014496806
 21
30.7100053736
 31
0.0
  0
SPLINE
  5
6A6
100
AcDbEntity
  8
RACCORDO
100
AcDbSpline
 62
253
  6
CONTINUOUS
 70
0
 71
3
 72
8
 73
4
 74
2
 42
0.0000001
 43
0.0000001
 44
0.0000000001
 12
0.066960514
 22
0.0009954854
 32
0.0
 13
-0.0015329369
 23
-0.0838063803
 33
0.0
 40
0.0
 40
0.0
 40
0.0
 40
0.0
 40
1.0
 40
1.0
 40
1.0
 40
1.0
 10
-97.0557278572
 20
36.5128589696
 30
0.0
 10
-97.0334076858
 20
36.5131907981
 30
0.0
 10
-97.0278312146
 20
36.4921650347
 30
0.0
 10
-97.0283421936
 20
36.4642295746
 30
0.0
 11
-97.0557278572
 21
36.5128589696
 31
0.0
 11
-97.0283421936
 21
36.4642295746
 31
0.0
  0
SPLINE
  5
6A7
100
AcDbEntity
  8
RACCORDO
100
AcDbSpline
 62
253
  6
CONTINUOUS
 70
0
 71
3
 72
8
 73
4
 74
2
 42
0.0000001
 43
0.0000001
 44
0.0000000001
 12
-0.0010296902
 22
-0.0562936477
 32
0.0
 13
-0.0078206077
 23
-0.0618630951
 33
0.0
 40
0.0
 40
0.0
 40
0.0
 40
0.0
 40
1.0
 40
1.0
 40
1.0
 40
1.0
 10
-97.0283421936
 20
36.4642295746
 30
0.0
 10
-97.0286854237
 20
36.4454650254
 30
0.0
 10
-97.031775283
 20
36.4235828531
 30
0.0
 10
-97.0343821522
 20
36.4029618214
 30
0.0
 11
-97.0283421936
 21
36.4642295746
 31
0.0
 11
-97.0343821522
 21
36.4029618214
 31
0.0
  0
SPLINE
  5
6A8
100
AcDbEntity
  8
RACCORDO
100
AcDbSpline
 62
253
  6
CONTINUOUS
 70
0
 71
3
 72
16
 73
12
 74
10
 42
0.0000001
 43
0.0000001
 44
0.0000000001
 12
-0.9905779299
 22
-7.8357359018
 32
0.0
 13
-0.3885049363
 23
-5.6844082002
 33
0.0
 40
0.0
 40
0.0
 40
0.0
 40
0.0
 40
0.0589132091
 40
0.155362288
 40
0.2790908816
 40
0.4102976271
 40
0.5399793051
 40
0.6654552322
 40
0.7846595052
 40
0.8963684068
 40
1.0
 40
1.0
 40
1.0
 40
1.0
 10
-97.0343821522
 20
36.4029618214
 30
0.0
 10
-97.0538348604
 20
36.2490857056
 30
0.0
 10
-97.0342104218
 20
36.0284833175
 30
0.0
 10
-97.0915064855
 20
35.453874727
 30
0.0
 10
-97.1217642734
 20
34.8054255805
 30
0.0
 10
-97.153601811
 20
34.0700639011
 30
0.0
 10
-97.1695649583
 20
33.3378943893
 30
0.0
 10
-97.1793481238
 20
32.6265914274
 30
0.0
 10
-97.1906585331
 20
31.9499085997
 30
0.0
 10
-97.2107219063
 20
31.3147917017
 30
0.0
 10
-97.23290471
 20
30.9063667685
 30
0.0
 10
-97.2463251719
 20
30.7100053424
 30
0.0
 11
-97.0343821522
 21
36.4029618214
 31
0.0
 11
-97.0463598251
 21
36.0675076214
 31
0.0
 11
-97.0808705995
 21
35.519057397
 31
0.0
 11
-97.1209201847
 21
34.8152313615
 31
0.0
 11
-97.1509921742
 21
34.0682638329
 31
0.0
 11
-97.1687379928
 21
33.3295936812
 31
0.0
 11
-97.1798725652
 21
32.6147600876
 31
0.0
 11
-97.1926339626
 21
31.9356934887
 31
0.0
 11
-97.2137004979
 21
31.2995618677
 31
0.0
 11
-97.2463251719
 21
30.7100053424
 31
0.0
  0
SPLINE
  5
6A9
100
AcDbEntity
  8
RACCORDO
100
AcDbSpline
 62
253
  6
CONTINUOUS
 70
0
 71
3
 72
17
 73
13
 74
11
 42
0.0000001
 43
0.0000001
 44
0.0000000001
 12
4.2604206158
 22
-0.40410711
 32
0.0
 13
-0.2560238742
 23
-4.2718775914
 33
0.0
 40
0.0
 40
0.0
 40
0.0
 40
0.0
 40
0.0199644218
 40
0.0775508754
 40
0.1717540495
 40
0.2933941188
 40
0.4238570718
 40
0.5538653052
 40
0.6790724636
 40
0.7959177469
 40
0.9028578852
 40
1.0
 40
1.0
 40
1.0
 40
1.0
 10
-98.9097746182
 20
35.1624164108
 30
0.0
 10
-98.8814223402
 20
35.1597271559
 30
0.0
 10
-98.9006975253
 20
34.993154375
 30
0.0
 10
-98.9032460492
 20
34.801352954
 30
0.0
 10
-98.9534618346
 20
34.384770046
 30
0.0
 10
-98.9871527296
 20
33.9033010363
 30
0.0
 10
-99.0058133671
 20
33.3547991981
 30
0.0
 10
-98.996596292
 20
32.8054717456
 30
0.0
 10
-98.971687791
 20
32.2750611743
 30
0.0
 10
-98.9482308909
 20
31.7778158079
 30
0.0
 10
-98.9400630629
 20
31.3199580537
 30
0.0
 10
-98.9488349637
 20
31.0288007995
 30
0.0
 10
-98.9571251972
 20
30.8904743918
 30
0.0
 11
-98.9097746182
 21
35.1624164108
 31
0.0
 11
-98.8901454381
 21
35.0792632439
 31
0.0
 11
-98.9063908445
 21
34.8333555784
 31
0.0
 11
-98.9448721679
 21
34.4320498359
 31
0.0
 11
-98.983450731
 21
33.9129174372
 31
0.0
 11
-99.0010827472
 21
33.3548741314
 31
0.0
 11
-98.9936305451
 21
32.7985482454
 31
0.0
 11
-98.9711107728
 21
32.2631922937
 31
0.0
 11
-98.9501130026
 21
31.7635889669
 31
0.0
 11
-98.9436484815
 21
31.3059797294
 31
0.0
 11
-98.9571251972
 21
30.8904743918
 31
0.0
  0
SPLINE
  5
6AA
100
AcDbEntity
  8
RACCORDO
100
AcDbSpline
 62
253
  6
CONTINUOUS
 70
0
 71
3
 72
25
 73
21
 74
19
 42
0.0000001
 43
0.0000001
 44
0.0000000001
 12
-3.685575667
 22
-35.3156525622
 32
0.0
 13
-0.0177053161
 23
-35.5074424651
 33
0.0
 40
0.0
 40
0.0
 40
0.0
 40
0.0
 40
0.0502257065
 40
0.1064009209
 40
0.1679118136
 40
0.2345841128
 40
0.3069255619
 40
0.3851154863
 40
0.4647575697
 40
0.5406979803
 40
0.6107554484
 40
0.6738856628
 40
0.7301549149
 40
0.7809114344
 40
0.8268764474
 40
0.86875015
 40
0.9065276011
 40
0.9405955801
 40
0.9715609704
 40
1.0
 40
1.0
 40
1.0
 40
1.0
 10
-97.2463254176
 20
30.7100053424
 30
0.0
 10
-97.3080289648
 20
30.1187541425
 30
0.0
 10
-97.4002667269
 20
28.8621500937
 30
0.0
 10
-97.4647529339
 20
26.8755584082
 30
0.0
 10
-97.4831675729
 20
24.6934882712
 30
0.0
 10
-97.4740151103
 20
22.3201134701
 30
0.0
 10
-97.4491323595
 20
19.749445716
 30
0.0
 10
-97.4187094792
 20
17.0253260832
 30
0.0
 10
-97.388462882
 20
14.2586034479
 30
0.0
 10
-97.3632586996
 20
11.5880883426
 30
0.0
 10
-97.34347605
 20
9.112965005
 30
0.0
 10
-97.3287511135
 20
6.8706352894
 30
0.0
 10
-97.3180947943
 20
4.8567281743
 30
0.0
 10
-97.3103451241
 20
3.0459737864
 30
0.0
 10
-97.3047255306
 20
1.4055955919
 30
0.0
 10
-97.3007372413
 20
-0.0811689726
 30
0.0
 10
-97.2980521913
 20
-1.4271250826
 30
0.0
 10
-97.2964383208
 20
-2.6439740182
 30
0.0
 10
-97.2957182326
 20
-3.7502959447
 30
0.0
 10
-97.2957713244
 20
-4.4533957873
 30
0.0
 10
-97.2959391651
 20
-4.789994857
 30
0.0
 11
-97.2463254176
 21
30.7100053424
 31
0.0
 11
-97.3836616671
 21
28.9319146426
 31
0.0
 11
-97.4550841816
 21
26.938555334
 31
0.0
 11
-97.4783564807
 21
24.7545845673
 31
0.0
 11
-97.4720701311
 21
22.3872297921
 31
0.0
 11
-97.4491899938
 21
19.8186715357
 31
0.0
 11
-97.4190094458
 21
17.0425109947
 31
0.0
 11
-97.3887048882
 21
14.214786329
 31
0.0
 11
-97.363277222
 21
11.5184561311
 31
0.0
 11
-97.3434425793
 21
9.0309733801
 31
0.0
 11
-97.3287217232
 21
6.7894289839
 31
0.0
 11
-97.3181037351
 21
4.7914797185
 31
0.0
 11
-97.3103716359
 21
2.989261885
 31
0.0
 11
-97.3047712349
 21
1.3571712337
 31
0.0
 11
-97.3007863451
 21
-0.1296516955
 31
0.0
 11
-97.2981218048
 21
-1.471029889
 31
0.0
 11
-97.2965322791
 21
-2.6806957965
 31
0.0
 11
-97.2958375434
 21
-3.7801975276
 31
0.0
 11
-97.2959391651
 21
-4.789994857
 31
0.0
  0
SPLINE
  5
6AB
100
AcDbEntity
  8
RACCORDO
100
AcDbSpline
 62
253
  6
CONTINUOUS
 70
0
 71
3
 72
25
 73
21
 74
19
 42
0.0000001
 43
0.0000001
 44
0.0000000001
 12
-2.1372338526
 22
-35.6199527177
 32
0.0
 13
-0.0485624734
 23
-35.6839801849
 33
0.0
 40
0.0
 40
0.0
 40
0.0
 40
0.0
 40
0.0524203727
 40
0.1098459146
 40
0.1718918793
 40
0.2386401373
 40
0.3107896698
 40
0.3886244935
 40
0.4678359264
 40
0.5433389359
 40
0.6129891409
 40
0.6757492346
 40
0.7316922944
 40
0.7821583883
 40
0.8278622598
 40
0.8694984504
 40
0.9070600576
 40
0.9409309077
 40
0.9717134869
 40
1.0
 40
1.0
 40
1.0
 40
1.0
 10
-98.9571283061
 20
30.8904747131
 30
0.0
 10
-98.9944731712
 20
30.2680709804
 30
0.0
 10
-99.0399060955
 20
28.9619046406
 30
0.0
 10
-99.057622743
 20
26.9173203003
 30
0.0
 10
-99.0439104737
 20
24.702285663
 30
0.0
 10
-99.0128276725
 20
22.312327476
 30
0.0
 10
-98.9715148569
 20
19.7346929184
 30
0.0
 10
-98.9290135275
 20
17.0088162941
 30
0.0
 10
-98.8894820584
 20
14.2429996959
 30
0.0
 10
-98.8575672214
 20
11.5744447753
 30
0.0
 10
-98.8324991856
 20
9.1015101192
 30
0.0
 10
-98.8138956427
 20
6.8611850032
 30
0.0
 10
-98.800213045
 20
4.8490183838
 30
0.0
 10
-98.7901403473
 20
3.0397116255
 30
0.0
 10
-98.7827800332
 20
1.4005689724
 30
0.0
 10
-98.7775626905
 20
-0.0850863695
 30
0.0
 10
-98.774131018
 20
-1.4299965738
 30
0.0
 10
-98.7722233017
 20
-2.6458095254
 30
0.0
 10
-98.7716435666
 20
-3.7512996193
 30
0.0
 10
-98.7720992098
 20
-4.4539071228
 30
0.0
 10
-98.7725570975
 20
-4.79036558
 30
0.0
 11
-98.9571283061
 21
30.8904747131
 31
0.0
 11
-99.0300675522
 21
29.0213280427
 31
0.0
 11
-99.0522690949
 21
26.9722745215
 31
0.0
 11
-99.0418341389
 21
24.7582500863
 31
0.0
 11
-99.0125105836
 21
22.3765848751
 31
0.0
 11
-98.972778342
 21
19.8023066062
 31
0.0
 11
-98.9298646112
 21
17.0251792705
 31
0.0
 11
-98.8899769138
 21
14.1988789065
 31
0.0
 11
-98.8575859734
 21
11.5048232279
 31
0.0
 11
-98.83246715
 21
9.0195513263
 31
0.0
 11
-98.8138158998
 21
6.7800969806
 31
0.0
 11
-98.8002013075
 21
4.7838705229
 31
0.0
 11
-98.7901641853
 21
2.9830657313
 31
0.0
 11
-98.7828411374
 21
1.3521846159
 31
0.0
 11
-98.7776424902
 21
-0.1335526646
 31
0.0
 11
-98.774249826
 21
-1.4738972607
 31
0.0
 11
-98.7723861548
 21
-2.6825436842
 31
0.0
 11
-98.7718518018
 21
-3.7809895202
 31
0.0
 11
-98.7725570975
 21
-4.79036558
 31
0.0
  0
SPLINE
  5
6AC
100
AcDbEntity
  8
RACCORDO
100
AcDbSpline
 62
253
  6
CONTINUOUS
 70
0
 71
3
 72
25
 73
21
 74
19
 42
0.0000001
 43
0.0000001
 44
0.0000000001
 12
0.0177069487
 22
-35.5074075239
 32
0.0
 13
3.6856588644
 23
-35.3156087494
 33
0.0
 40
0.0
 40
0.0
 40
0.0
 40
0.0
 40
0.0291102068
 40
0.0608413424
 40
0.0957776048
 40
0.1345203597
 40
0.1772771935
 40
0.2233975484
 40
0.2731778202
 40
0.3269155074
 40
0.384356843
 40
0.446116609
 40
0.5135229792
 40
0.5873797862
 40
0.665699136
 40
0.7450296943
 40
0.8205214968
 40
0.8875884995
 40
0.9470839483
 40
1.0
 40
1.0
 40
1.0
 40
1.0
 10
-97.2959391651
 20
-4.789994857
 30
0.0
 10
-97.2957673474
 20
-5.1345375153
 30
0.0
 10
-97.2957204895
 20
-5.8546438049
 30
0.0
 10
-97.296485658
 20
-6.9882485895
 30
0.0
 10
-97.2981866309
 20
-8.2358614356
 30
0.0
 10
-97.3010045345
 20
-9.6139705718
 30
0.0
 10
-97.3051515317
 20
-11.1244496465
 30
0.0
 10
-97.3108931412
 20
-12.765562298
 30
0.0
 10
-97.3185985823
 20
-14.5366355278
 30
0.0
 10
-97.3287584611
 20
-16.4416914698
 30
0.0
 10
-97.3421092425
 20
-18.4885180842
 30
0.0
 10
-97.3593548232
 20
-20.6971007843
 30
0.0
 10
-97.3811667444
 20
-23.0999423203
 30
0.0
 10
-97.4085483494
 20
-25.6987346225
 30
0.0
 10
-97.4392967507
 20
-28.4386293829
 30
0.0
 10
-97.4684595531
 20
-31.1978980757
 30
0.0
 10
-97.4839026693
 20
-33.8241063394
 30
0.0
 10
-97.4699228377
 20
-36.2156645089
 30
0.0
 10
-97.4066207388
 20
-38.339270585
 30
0.0
 10
-97.3113380016
 20
-39.6670737386
 30
0.0
 10
-97.2463278299
 20
-40.2899945981
 30
0.0
 11
-97.2959391651
 21
-4.789994857
 31
0.0
 11
-97.2958445067
 21
-5.8236229562
 31
0.0
 11
-97.2965831053
 21
-6.950313218
 31
0.0
 11
-97.2982588027
 21
-8.1908083463
 31
0.0
 11
-97.3010601332
 21
-9.5664604541
 31
0.0
 11
-97.3052255833
 21
-11.0846392481
 31
0.0
 11
-97.3109652798
 21
-12.7222436293
 31
0.0
 11
-97.3186731348
 21
-14.4897954408
 31
0.0
 11
-97.32889036
 21
-16.397854283
 31
0.0
 11
-97.342197068
 21
-18.4374040408
 31
0.0
 11
-97.3592765067
 21
-20.630266982
 31
0.0
 11
-97.3810289788
 21
-23.0235938846
 31
0.0
 11
-97.4082829477
 21
-25.6459163323
 31
0.0
 11
-97.4388615854
 21
-28.4266656259
 31
0.0
 11
-97.4666842141
 21
-31.2433510277
 31
0.0
 11
-97.4789408014
 21
-33.9238415353
 31
0.0
 11
-97.4593230731
 21
-36.3051364231
 31
0.0
 11
-97.3887155897
 21
-38.416485537
 31
0.0
 11
-97.2463278299
 21
-40.2899945981
 31
0.0
  0
SPLINE
  5
6AD
100
AcDbEntity
  8
RACCORDO
100
AcDbSpline
 62
253
  6
CONTINUOUS
 70
0
 71
3
 72
25
 73
21
 74
19
 42
0.0000001
 43
0.0000001
 44
0.0000000001
 12
0.0485418102
 22
-35.6832211692
 32
0.0
 13
2.1374947647
 23
-35.6191766532
 33
0.0
 40
0.0
 40
0.0
 40
0.0
 40
0.0
 40
0.0289334448
 40
0.060478034
 40
0.0952130074
 40
0.1337353448
 40
0.1762507246
 40
0.2221101119
 40
0.2716065945
 40
0.3250343093
 40
0.3821403965
 40
0.4435422966
 40
0.5105604677
 40
0.5840050959
 40
0.6619427295
 40
0.7409990403
 40
0.8164978143
 40
0.8840576925
 40
0.9448024
 40
1.0
 40
1.0
 40
1.0
 40
1.0
 10
-98.7725561222
 20
-4.7903655798
 30
0.0
 10
-98.7720879616
 20
-5.1345117504
 30
0.0
 10
-98.7716343124
 20
-5.8538628692
 30
0.0
 10
-98.772271587
 20
-6.9863662181
 30
0.0
 10
-98.7742974056
 20
-8.232922406
 30
0.0
 10
-98.7779095727
 20
-9.6099666696
 30
0.0
 10
-98.7833387842
 20
-11.1193243571
 30
0.0
 10
-98.7908555489
 20
-12.759205695
 30
0.0
 10
-98.8008622863
 20
-14.5288719328
 30
0.0
 10
-98.8138993166
 20
-16.4322949117
 30
0.0
 10
-98.830777874
 20
-18.4773012002
 30
0.0
 10
-98.8525999901
 20
-20.6839199473
 30
0.0
 10
-98.88028689
 20
-23.0848247351
 30
0.0
 10
-98.9154496763
 20
-25.6823347211
 30
0.0
 10
-98.9574265107
 20
-28.4229463065
 30
0.0
 10
-99.0018481995
 20
-31.1879567202
 30
0.0
 10
-99.0395321681
 20
-33.8296133781
 30
0.0
 10
-99.0580021209
 20
-36.2537255754
 30
0.0
 10
-99.0427362934
 20
-38.4363819118
 30
0.0
 10
-98.9964599074
 20
-39.8150987795
 30
0.0
 10
-98.9571317137
 20
-40.4704631347
 30
0.0
 11
-98.7725561222
 21
-4.7903655798
 31
0.0
 11
-98.7718503766
 21
-5.8228048056
 31
0.0
 11
-98.7724399512
 21
-6.9484182429
 31
0.0
 11
-98.7744196988
 21
-8.1878735475
 31
0.0
 11
-98.7779971123
 21
-9.5624712507
 31
0.0
 11
-98.7834357494
 21
-11.0795486055
 31
0.0
 11
-98.7909381658
 21
-12.7159435832
 31
0.0
 11
-98.8009361004
 21
-14.4821108531
 31
0.0
 11
-98.8140309767
 21
-16.3885406097
 31
0.0
 11
-98.8308915266
 21
-18.4262018809
 31
0.0
 11
-98.8525128401
 21
-20.6171148035
 31
0.0
 11
-98.8801679548
 21
-23.008381327
 31
0.0
 11
-98.9154802481
 21
-25.6288867515
 31
0.0
 11
-98.95756733
 21
-28.4096366621
 31
0.0
 11
-99.0016622602
 21
-31.2302784503
 31
0.0
 11
-99.0377300522
 21
-33.9240789451
 31
0.0
 11
-99.0524363176
 21
-36.3347903966
 31
0.0
 11
-99.0322198365
 21
-38.5022649543
 31
0.0
 11
-98.9571317137
 21
-40.4704631347
 31
0.0
  0
SPLINE
  5
6AE
100
AcDbEntity
  8
RACCORDO
100
AcDbSpline
 62
253
  6
CONTINUOUS
 70
0
 71
3
 72
16
 73
12
 74
10
 42
0.0000001
 43
0.0000001
 44
0.0000000001
 12
0.3884779742
 22
-5.6845493038
 32
0.0
 13
0.9892016202
 23
-7.8355910331
 33
0.0
 40
0.0
 40
0.0
 40
0.0
 40
0.0
 40
0.1037709834
 40
0.2155883113
 40
0.3348588815
 40
0.4603896464
 40
0.5901821369
 40
0.7214139225
 40
0.8449251611
 40
0.9411335432
 40
1.0
 40
1.0
 40
1.0
 40
1.0
 10
-97.2463276919
 20
-40.2899945981
 30
0.0
 10
-97.2328901115
 20
-40.4866250219
 30
0.0
 10
-97.21068258
 20
-40.8955301207
 30
0.0
 10
-97.1906276068
 20
-41.5312598217
 30
0.0
 10
-97.1793269231
 20
-42.2083951629
 30
0.0
 10
-97.1695314339
 20
-42.9201563757
 30
0.0
 10
-97.1535237654
 20
-43.652703116
 30
0.0
 10
-97.1216397229
 20
-44.3879271057
 30
0.0
 10
-97.0913695652
 20
-45.0356032221
 30
0.0
 10
-97.0342178659
 20
-45.609147007
 30
0.0
 10
-97.0537953735
 20
-45.8293388671
 30
0.0
 10
-97.0343851087
 20
-45.9830900274
 30
0.0
 11
-97.2463276919
 21
-40.2899945981
 31
0.0
 11
-97.2136651338
 21
-40.8803588809
 31
0.0
 11
-97.1925998909
 21
-41.5171242043
 31
0.0
 11
-97.1798471597
 21
-42.1965853462
 31
0.0
 11
-97.1687009731
 21
-42.9117486872
 31
0.0
 11
-97.1509047255
 21
-43.6510672199
 31
0.0
 11
-97.1207740409
 21
-44.3981934169
 31
0.0
 11
-97.0807596551
 21
-45.1007982227
 31
0.0
 11
-97.0463373726
 21
-45.6478932855
 31
0.0
 11
-97.0343851087
 21
-45.9830900274
 31
0.0
  0
SPLINE
  5
6AF
100
AcDbEntity
  8
RACCORDO
100
AcDbSpline
 62
253
  6
CONTINUOUS
 70
0
 71
3
 72
8
 73
4
 74
2
 42
0.0000001
 43
0.0000001
 44
0.0000000001
 12
0.0078013317
 22
-0.0617953339
 32
0.0
 13
0.0010136155
 23
-0.0562273455
 33
0.0
 40
0.0
 40
0.0
 40
0.0
 40
0.0
 40
1.0
 40
1.0
 40
1.0
 40
1.0
 10
-97.0343851087
 20
-45.9830900274
 30
0.0
 10
-97.0317846648
 20
-46.003688472
 30
0.0
 10
-97.0287024449
 20
-46.0255463071
 30
0.0
 10
-97.028364573
 20
-46.0442887556
 30
0.0
 11
-97.0343851087
 21
-45.9830900274
 31
0.0
 11
-97.028364573
 21
-46.0442887556
 31
0.0
  0
SPLINE
  5
6B0
100
AcDbEntity
  8
RACCORDO
100
AcDbSpline
 62
253
  6
CONTINUOUS
 70
0
 71
3
 72
8
 73
4
 74
2
 42
0.0000001
 43
0.0000001
 44
0.0000000001
 12
0.0015085642
 22
-0.0836831721
 32
0.0
 13
-0.0668705605
 23
0.0009872277
 33
0.0
 40
0.0
 40
0.0
 40
0.0
 40
0.0
 40
1.0
 40
1.0
 40
1.0
 40
1.0
 10
-97.028364573
 20
-46.0442887556
 30
0.0
 10
-97.0278617183
 20
-46.0721831463
 30
0.0
 10
-97.0334376978
 20
-46.0931768385
 30
0.0
 10
-97.0557278846
 20
-46.0928477626
 30
0.0
 11
-97.028364573
 21
-46.0442887556
 31
0.0
 11
-97.0557278846
 21
-46.0928477626
 31
0.0
  0
SPLINE
  5
6B1
100
AcDbEntity
  8
RACCORDO
100
AcDbSpline
 62
253
  6
CONTINUOUS
 70
0
 71
3
 72
17
 73
13
 74
11
 42
0.0000001
 43
0.0000001
 44
0.0000000001
 12
0.2560366763
 22
-4.2718796988
 32
0.0
 13
-4.260374992
 23
-0.4046181755
 33
0.0
 40
0.0
 40
0.0
 40
0.0
 40
0.0
 40
0.0972750055
 40
0.2043241008
 40
0.3212431486
 40
0.4465156916
 40
0.5766384031
 40
0.7071217625
 40
0.8285441581
 40
0.9225144711
 40
0.9800578211
 40
1.0
 40
1.0
 40
1.0
 40
1.0
 10
-98.9571282088
 20
-40.4704627722
 30
0.0
 10
-98.9488262191
 20
-40.6089784793
 30
0.0
 10
-98.9400517552
 20
-40.9004816403
 30
0.0
 10
-98.9482666569
 20
-41.3587893297
 30
0.0
 10
-98.9717620323
 20
-41.8563872037
 30
0.0
 10
-98.9966631441
 20
-42.387161288
 30
0.0
 10
-99.0058022568
 20
-42.9367757211
 30
0.0
 10
-98.9870441055
 20
-43.4851565479
 30
0.0
 10
-98.9533247562
 20
-43.9660323806
 30
0.0
 10
-98.903224689
 20
-44.3818340689
 30
0.0
 10
-98.900663487
 20
-44.5733055679
 30
0.0
 10
-98.8814547195
 20
-44.7397158821
 30
0.0
 10
-98.9097751063
 20
-44.7424055381
 30
0.0
 11
-98.9571282088
 21
-40.4704627722
 31
0.0
 11
-98.9436445313
 21
-40.8865371739
 31
0.0
 11
-98.9501480466
 21
-41.344612499
 31
0.0
 11
-98.9711778281
 21
-41.8445307725
 31
0.0
 11
-98.9936843747
 21
-42.3801677037
 31
0.0
 11
-99.0010647548
 21
-42.9369848777
 31
0.0
 11
-98.9833287155
 21
-43.4951126358
 31
0.0
 11
-98.9447570603
 21
-44.0133117812
 31
0.0
 11
-98.906365668
 21
-44.4136253076
 31
0.0
 11
-98.8901464332
 21
-44.6593500014
 31
0.0
 11
-98.9097751063
 21
-44.7424055381
 31
0.0
  0
SPLINE
  5
6B2
100
AcDbEntity
  8
RACCORDO
100
AcDbSpline
 62
253
  6
CONTINUOUS
 70
0
 71
3
 72
20
 73
16
 74
14
 42
0.0000001
 43
0.0000001
 44
0.0000000001
 12
-0.2471284426
 22
-0.0222642213
 32
0.0
 13
-0.2185864063
 23
0.1279786841
 33
0.0
 40
0.0
 40
0.0
 40
0.0
 40
0.0
 40
0.3305521974
 40
0.5161888643
 40
0.6308312595
 40
0.7071530881
 40
0.7636858526
 40
0.8097960985
 40
0.8486387753
 40
0.8823218357
 40
0.9115183806
 40
0.9362770165
 40
0.9568080093
 40
0.9733493084
 40
1.0
 40
1.0
 40
1.0
 40
1.0
 10
-98.9097834552
 20
-44.7424084078
 30
0.0
 10
-98.9370130718
 20
-44.7448615702
 30
0.0
 10
-98.9796522403
 20
-44.7477482226
 30
0.0
 10
-99.0318585513
 20
-44.7476100149
 30
0.0
 10
-99.062968386
 20
-44.7457694221
 30
0.0
 10
-99.0833167005
 20
-44.7434745745
 30
0.0
 10
-99.0979566934
 20
-44.7412776239
 30
0.0
 10
-99.1094912108
 20
-44.7393014987
 30
0.0
 10
-99.1191451515
 20
-44.7375439679
 30
0.0
 10
-99.1273987372
 20
-44.7359101991
 30
0.0
 10
-99.1344997992
 20
-44.7344569026
 30
0.0
 10
-99.1405272296
 20
-44.7331775153
 30
0.0
 10
-99.1455098836
 20
-44.732035022
 30
0.0
 10
-99.1506553867
 20
-44.730860061
 30
0.0
 10
-99.1540157309
 20
-44.7296637653
 30
0.0
 10
-99.1559575572
 20
-44.7285268585
 30
0.0
 11
-98.9097834552
 21
-44.7424084078
 31
0.0
 11
-98.9916554458
 21
-44.7473285067
 31
0.0
 11
-99.0377165569
 21
-44.7470587127
 31
0.0
 11
-99.0661070542
 21
-44.7452803535
 31
0.0
 11
-99.0849255926
 21
-44.7431593904
 31
0.0
 11
-99.0988005927
 21
-44.7410970238
 31
0.0
 11
-99.110079945
 21
-44.7391787815
 31
0.0
 11
-99.119560102
 21
-44.7374415981
 31
0.0
 11
-99.1277607552
 21
-44.7358287253
 31
0.0
 11
-99.1348577013
 21
-44.7343739362
 31
0.0
 11
-99.140864797
 21
-44.7330872846
 31
0.0
 11
-99.1458332453
 21
-44.7319617465
 31
0.0
 11
-99.1498203995
 21
-44.7309878121
 31
0.0
 11
-99.1559575572
 21
-44.7285268585
 31
0.0
  0
SPLINE
  5
6B3
100
AcDbEntity
  8
RACCORDO
100
AcDbSpline
 62
253
  6
CONTINUOUS
 70
0
 71
3
 72
21
 73
17
 74
15
 42
0.0000001
 43
0.0000001
 44
0.0000000001
 12
0.2062159109
 22
0.1481428806
 32
0.0
 13
0.2471496304
 23
-0.0222675047
 33
0.0
 40
0.0
 40
0.0
 40
0.0
 40
0.0
 40
0.0133723535
 40
0.040425377
 40
0.0593490258
 40
0.0816486696
 40
0.107275845
 40
0.1360265218
 40
0.1677592922
 40
0.2034116628
 40
0.2446554698
 40
0.2946926628
 40
0.3641969065
 40
0.4764386009
 40
0.6661681265
 40
1.0
 40
1.0
 40
1.0
 40
1.0
 10
-99.155943304
 20
35.1485543129
 30
0.0
 10
-99.1550241067
 20
35.1492146526
 30
0.0
 10
-99.1520521176
 20
35.1507320528
 30
0.0
 10
-99.1471552362
 20
35.1516163135
 30
0.0
 10
-99.1416806314
 20
35.1529450603
 30
0.0
 10
-99.1362664332
 20
35.1540915847
 30
0.0
 10
-99.1300582997
 20
35.1553830673
 30
0.0
 10
-99.123073984
 20
35.1567835852
 30
0.0
 10
-99.1152631524
 20
35.1582759588
 30
0.0
 10
-99.1064147156
 20
35.1598401567
 30
0.0
 10
-99.0960625266
 20
35.1615950067
 30
0.0
 10
-99.0829005433
 20
35.1635142486
 30
0.0
 10
-99.0638459824
 20
35.1656799897
 30
0.0
 10
-99.0331636143
 20
35.167608162
 30
0.0
 10
-98.9805382313
 20
35.1678061285
 30
0.0
 10
-98.9372852153
 20
35.1648971848
 30
0.0
 10
-98.9097830739
 20
35.1624193172
 30
0.0
 11
-99.155943304
 21
35.1485543129
 31
0.0
 11
-99.1530181162
 21
35.1501184059
 31
0.0
 11
-99.1465215211
 21
35.1518100543
 31
0.0
 11
-99.1419443221
 21
35.1528592858
 31
0.0
 11
-99.1365361931
 21
35.1540313247
 31
0.0
 11
-99.1303094472
 21
35.1553234666
 31
0.0
 11
-99.1233139546
 21
35.1567249628
 31
0.0
 11
-99.1155785075
 21
35.158198314
 31
0.0
 11
-99.1068685085
 21
35.1597501468
 31
0.0
 11
-99.0967740053
 21
35.1614382495
 31
0.0
 11
-99.0844868413
 21
35.163227571
 31
0.0
 11
-99.0673490708
 21
35.1651702644
 31
0.0
 11
-99.0395565363
 21
35.1670023953
 31
0.0
 11
-98.992476359
 21
35.1673578466
 31
0.0
 11
-98.9097830739
 21
35.1624193172
 31
0.0
  0
SPLINE
  5
6B4
100
AcDbEntity
  8
RACCORDO
100
AcDbSpline
 62
253
  6
CONTINUOUS
 70
0
 71
3
 72
18
 73
14
 74
12
 42
0.0000001
 43
0.0000001
 44
0.0000000001
 12
0.4943711282
 22
-3.6560950904
 32
0.0
 13
-0.0077075036
 23
-3.6893596621
 33
0.0
 40
0.0
 40
0.0
 40
0.0
 40
0.0
 40
0.0249959505
 40
0.0912927593
 40
0.1833916049
 40
0.2894133255
 40
0.4014883725
 40
0.5136657133
 40
0.6227916006
 40
0.7273229386
 40
0.8254157917
 40
0.915763691
 40
1.0
 40
1.0
 40
1.0
 40
1.0
 10
-101.4600751779
 20
21.092426426
 30
0.0
 10
-101.4559560858
 20
21.0619639021
 30
0.0
 10
-101.4639003152
 20
20.9490691802
 30
0.0
 10
-101.4570020332
 20
20.7240648731
 30
0.0
 10
-101.460296993
 20
20.398643539
 30
0.0
 10
-101.4591420311
 20
20.0172512733
 30
0.0
 10
-101.4591819808
 20
19.6110592977
 30
0.0
 10
-101.458674417
 20
19.2010811577
 30
0.0
 10
-101.4582959644
 20
18.8003717899
 30
0.0
 10
-101.4580739275
 20
18.4169853698
 30
0.0
 10
-101.4581423659
 20
18.0566913031
 30
0.0
 10
-101.4584938031
 20
17.721356159
 30
0.0
 10
-101.458884114
 20
17.5066547107
 30
0.0
 10
-101.4591005312
 20
17.4030620305
 30
0.0
 11
-101.4600751779
 21
21.092426426
 31
0.0
 11
-101.4594533612
 21
21.0002092698
 31
0.0
 11
-101.4593621264
 21
20.7556159808
 31
0.0
 11
-101.4594305833
 21
20.4158294803
 31
0.0
 11
-101.4593627028
 21
20.0246763732
 31
0.0
 11
-101.4590899159
 21
19.6111904036
 31
0.0
 11
-101.4586902984
 21
19.1973271373
 31
0.0
 11
-101.4583156679
 21
18.7947217862
 31
0.0
 11
-101.4581203469
 21
18.4090672922
 31
0.0
 11
-101.4581980581
 21
18.0471666955
 31
0.0
 11
-101.4585459488
 21
17.7138402544
 31
0.0
 11
-101.4591005312
 21
17.4030620305
 31
0.0
  0
SPLINE
  5
6B5
100
AcDbEntity
  8
0
100
AcDbSpline
 62
7
  6
CONTINUOUS
 70
0
 71
3
 72
13
 73
9
 74
7
 42
0.0000001
 43
0.0000001
 44
0.0000000001
 12
-0.8418924662
 22
-0.6322675264
 32
0.0
 13
-0.7966974065
 23
-0.6883446754
 33
0.0
 40
0.0
 40
0.0
 40
0.0
 40
0.0
 40
0.1423055526
 40
0.2982108916
 40
0.4645912932
 40
0.638046537
 40
0.8174871489
 40
1.0
 40
1.0
 40
1.0
 40
1.0
 10
-49.0353391163
 20
-34.1899946264
 30
0.0
 10
-49.0752744405
 20
-34.2199863529
 30
0.0
 10
-49.1575821177
 20
-34.2846677718
 30
0.0
 10
-49.283573229
 20
-34.3881725991
 30
0.0
 10
-49.4165805321
 20
-34.5003374101
 30
0.0
 10
-49.5550225122
 20
-34.6188573707
 30
0.0
 10
-49.6972800405
 20
-34.7416237773
 30
0.0
 10
-49.7933570897
 20
-34.8247258354
 30
0.0
 10
-49.8418262614
 20
-34.8666030851
 30
0.0
 11
-49.0353391163
 21
-34.1899946264
 31
0.0
 11
-49.1535013328
 21
-34.2821178842
 31
0.0
 11
-49.2805147945
 21
-34.3861006002
 31
0.0
 11
-49.414544333
 21
-34.4988982741
 31
0.0
 11
-49.5533494773
 21
-34.6175811338
 31
0.0
 11
-49.6964407444
 21
-34.7409458796
 31
0.0
 11
-49.8418262614
 21
-34.8666030851
 31
0.0
  0
LINE
  5
6B6
100
AcDbEntity
  8
0
100
AcDbLine
 62
7
  6
CONTINUOUS
 10
-49.0353391163
 20
-34.1899946264
 11
-54.261023903
 21
-34.1899946264
  0
SPLINE
  5
6B7
100
AcDbEntity
  8
0
100
AcDbSpline
 62
253
  6
CONTINUOUS
 70
0
 71
3
 72
10
 73
6
 74
4
 42
0.0000001
 43
0.0000001
 44
0.0000000001
 12
-0.0061386747
 22
0.7195241284
 32
0.0
 13
-0.0318702996
 23
0.7188441685
 33
0.0
 40
0.0
 40
0.0
 40
0.0
 40
0.0
 40
0.4048616181
 40
0.754172048
 40
1.0
 40
1.0
 40
1.0
 40
1.0
 10
-54.2470618062
 20
-34.9093905621
 30
0.0
 10
-54.2478902441
 20
-34.8122879945
 30
0.0
 10
-54.2499636054
 20
-34.6314085654
 30
0.0
 10
-54.2544794934
 20
-34.3916037124
 30
0.0
 10
-54.2584123662
 20
-34.2489020258
 30
0.0
 10
-54.261023903
 20
-34.1899980292
 30
0.0
 11
-54.2470618062
 21
-34.9093905621
 31
0.0
 11
-54.2505003033
 21
-34.618092551
 31
0.0
 11
-54.2553758107
 21
-34.3667934123
 31
0.0
 11
-54.261023903
 21
-34.1899980292
 31
0.0
  0
SPLINE
  5
6B8
100
AcDbEntity
  8
0
100
AcDbSpline
 62
7
  6
CONTINUOUS
 70
0
 71
3
 72
11
 73
7
 74
5
 42
0.0000001
 43
0.0000001
 44
0.0000000001
 12
-0.4682124753
 22
-0.0007535442
 32
0.0
 13
0.0007352701
 23
0.4682125044
 33
0.0
 40
0.0
 40
0.0
 40
0.0
 40
0.0
 40
0.2497047197
 40
0.4999871579
 40
0.7502775587
 40
1.0
 40
1.0
 40
1.0
 40
1.0
 10
-54.261023903
 20
-34.1899946264
 30
0.0
 10
-54.2999955247
 20
-34.1900573475
 30
0.0
 10
-54.3788768241
 20
-34.1743692506
 30
0.0
 10
-54.478663969
 20
-34.1076419775
 30
0.0
 10
-54.5453980075
 20
-34.0078545988
 30
0.0
 10
-54.561085113
 20
-33.928969011
 30
0.0
 10
-54.5610239085
 20
-33.8899946211
 30
0.0
 11
-54.261023903
 21
-34.1899946264
 31
0.0
 11
-54.3756971156
 21
-34.1672092065
 31
0.0
 11
-54.4731497003
 21
-34.1021289646
 31
0.0
 11
-54.5382356942
 21
-34.0046757381
 31
0.0
 11
-54.5610239085
 21
-33.8899946211
 31
0.0
  0
SPLINE
  5
6B9
100
AcDbEntity
  8
0
100
AcDbSpline
 62
253
  6
CONTINUOUS
 70
0
 71
3
 72
14
 73
10
 74
8
 42
0.0000001
 43
0.0000001
 44
0.0000000001
 12
-1.6062960635
 22
-0.0157377483
 32
0.0
 13
0.0020681138
 23
1.606371826
 33
0.0
 40
0.0
 40
0.0
 40
0.0
 40
0.0
 40
0.1397988774
 40
0.2827683639
 40
0.4276104912
 40
0.5728556619
 40
0.7175332162
 40
0.860294546
 40
1.0
 40
1.0
 40
1.0
 40
1.0
 10
-54.2470619834
 20
-34.9093905624
 30
0.0
 10
-54.3219147789
 20
-34.9101239355
 30
0.0
 10
-54.4739870644
 20
-34.8944448219
 30
0.0
 10
-54.6927155158
 20
-34.8207198743
 30
0.0
 10
-54.8918424177
 20
-34.6979155569
 30
0.0
 10
-55.0585074456
 20
-34.5324780506
 30
0.0
 10
-55.1827030201
 20
-34.3344609287
 30
0.0
 10
-55.2580822761
 20
-34.1165714432
 30
0.0
 10
-55.2750084805
 20
-33.9648009281
 30
0.0
 10
-55.2749121715
 20
-33.8899946264
 30
0.0
 11
-54.2470619834
 21
-34.9093905624
 31
0.0
 11
-54.4704652258
 21
-34.886536662
 31
0.0
 11
-54.6880861884
 21
-34.8131479061
 31
0.0
 11
-54.8861266135
 21
-34.6910186543
 31
0.0
 11
-55.0517170659
 21
-34.5266499688
 31
0.0
 11
-55.1752017559
 21
-34.3297638466
 31
0.0
 11
-55.2502121521
 21
-34.113050309
 31
0.0
 11
-55.2749121715
 21
-33.8899946264
 31
0.0
  0
SPLINE
  5
6BA
100
AcDbEntity
  8
0
100
AcDbSpline
 62
7
  6
CONTINUOUS
 70
0
 71
3
 72
11
 73
7
 74
5
 42
0.0000001
 43
0.0000001
 44
0.0000000001
 12
-0.0007355783
 22
0.4682125047
 32
0.0
 13
0.4682124766
 23
-0.0007532218
 33
0.0
 40
0.0
 40
0.0
 40
0.0
 40
0.0
 40
0.2497225752
 40
0.500014872
 40
0.7502953882
 40
1.0
 40
1.0
 40
1.0
 40
1.0
 10
-54.5610239085
 20
-28.6899946317
 30
0.0
 10
-54.5610851387
 20
-28.6510202209
 30
0.0
 10
-54.5453978531
 20
-28.5721343298
 30
0.0
 10
-54.4786636796
 20
-28.4723469931
 30
0.0
 10
-54.3788765078
 20
-28.4056198414
 30
0.0
 10
-54.2999955081
 20
-28.389931932
 30
0.0
 10
-54.2610239032
 20
-28.3899946264
 30
0.0
 11
-54.5610239085
 21
-28.6899946317
 31
0.0
 11
-54.5382356248
 21
-28.5753134643
 31
0.0
 11
-54.473149001
 21
-28.4778595909
 31
0.0
 11
-54.375697078
 21
-28.4127799782
 31
0.0
 11
-54.2610239032
 21
-28.3899946264
 31
0.0
  0
SPLINE
  5
6BB
100
AcDbEntity
  8
0
100
AcDbSpline
 62
253
  6
CONTINUOUS
 70
0
 71
3
 72
14
 73
10
 74
8
 42
0.0000001
 43
0.0000001
 44
0.0000000001
 12
-0.0020690179
 22
1.6063718239
 32
0.0
 13
1.606296072
 23
-0.0157367861
 33
0.0
 40
0.0
 40
0.0
 40
0.0
 40
0.0
 40
0.1398175693
 40
0.2828337033
 40
0.4277239981
 40
0.5729699781
 40
0.7175998348
 40
0.8603140605
 40
1.0
 40
1.0
 40
1.0
 40
1.0
 10
-55.2749121715
 20
-28.6899946264
 30
0.0
 10
-55.2750085999
 20
-28.6151282917
 30
0.0
 10
-55.2580465493
 20
-28.4631601333
 30
0.0
 10
-55.1824802565
 20
-28.2449967061
 30
0.0
 10
-55.057997858
 20
-28.0468534541
 30
0.0
 10
-54.8911799921
 20
-27.8815690405
 30
0.0
 10
-54.6921806206
 20
-27.7590503678
 30
0.0
 10
-54.4737279558
 20
-27.685510707
 30
0.0
 10
-54.3218543087
 20
-27.6698659544
 30
0.0
 10
-54.2470619834
 20
-27.6705986904
 30
0.0
 11
-55.2749121715
 21
-28.6899946264
 31
0.0
 11
-55.2501723586
 21
-28.4667621514
 31
0.0
 11
-55.1749457892
 21
-28.2496903191
 31
0.0
 11
-55.0511315422
 21
-28.0526075752
 31
0.0
 11
-54.8853890225
 21
-27.8883903821
 31
0.0
 11
-54.6875471146
 21
-27.7665889655
 31
0.0
 11
-54.4702868052
 21
-27.6934140001
 31
0.0
 11
-54.2470619834
 21
-27.6705986904
 31
0.0
  0
SPLINE
  5
6BC
100
AcDbEntity
  8
0
100
AcDbSpline
 62
253
  6
CONTINUOUS
 70
0
 71
3
 72
10
 73
6
 74
4
 42
0.0000001
 43
0.0000001
 44
0.0000000001
 12
-0.0061077884
 22
-0.7195279124
 32
0.0
 13
-0.0318973721
 23
-0.7188464923
 33
0.0
 40
0.0
 40
0.0
 40
0.0
 40
0.0
 40
0.4048597704
 40
0.7541704723
 40
1.0
 40
1.0
 40
1.0
 40
1.0
 10
-54.2470619735
 20
-27.6705986904
 30
0.0
 10
-54.2478862395
 20
-27.7677013256
 30
0.0
 10
-54.2499552751
 20
-27.9485813293
 30
0.0
 10
-54.2544727313
 20
-28.1883873411
 30
0.0
 10
-54.2584101312
 20
-28.3310900618
 30
0.0
 10
-54.2610239032
 20
-28.3899946264
 30
0.0
 11
-54.2470619735
 21
-27.6705986904
 31
0.0
 11
-54.2504932323
 21
-27.9618968829
 31
0.0
 11
-54.2553704381
 21
-28.2131974146
 31
0.0
 11
-54.2610239032
 21
-28.3899946264
 31
0.0
  0
LINE
  5
6BD
100
AcDbEntity
  8
0
100
AcDbLine
 62
7
  6
CONTINUOUS
 10
-54.2610239032
 20
-28.3899946264
 11
-49.0353391163
 21
-28.3899946264
  0
SPLINE
  5
6BE
100
AcDbEntity
  8
0
100
AcDbSpline
 62
7
  6
CONTINUOUS
 70
0
 71
3
 72
13
 73
9
 74
7
 42
0.0000001
 43
0.0000001
 44
0.0000000001
 12
0.7966974119
 22
-0.6883446782
 32
0.0
 13
0.8418924747
 23
-0.6322675249
 33
0.0
 40
0.0
 40
0.0
 40
0.0
 40
0.0
 40
0.1826366888
 40
0.3621229741
 40
0.5355658483
 40
0.7018991827
 40
0.8577446293
 40
1.0
 40
1.0
 40
1.0
 40
1.0
 10
-49.8418262614
 20
-27.7133861676
 30
0.0
 10
-49.7933242024
 20
-27.7552918319
 30
0.0
 10
-49.6972021982
 20
-27.838432856
 30
0.0
 10
-49.5549026868
 20
-27.9612350291
 30
0.0
 10
-49.4164637599
 20
-28.0797511323
 30
0.0
 10
-49.2834875561
 20
-28.1918878594
 30
0.0
 10
-49.1575380976
 20
-28.2953565125
 30
0.0
 10
-49.0752603583
 20
-28.360013476
 30
0.0
 10
-49.0353391163
 20
-28.3899946264
 30
0.0
 11
-49.8418262614
 21
-27.7133861676
 31
0.0
 11
-49.6963420834
 21
-27.839128618
 31
0.0
 11
-49.553214124
 21
-27.9625244514
 31
0.0
 11
-49.4144182382
 21
-28.0811981005
 31
0.0
 11
-49.2804257002
 21
-28.1939627793
 31
0.0
 11
-49.1534601223
 21
-28.29790444
 31
0.0
 11
-49.0353391163
 21
-28.3899946264
 31
0.0
  0
ENDSEC
  0
SECTION
  2
OBJECTS
  0
DICTIONARY
  5
C
100
AcDbDictionary
280
0
281
1
  3
ACAD_GROUP
350
D
  3
ACAD_MLINESTYLE
350
17
  3
ACAD_LAYOUT
350
1A
  3
ACAD_PLOTSETTINGS
350
19
  3
ACAD_PLOTSTYLENAME
350
E
  0
DICTIONARY
  5
D
102
{ACAD_REACTORS
330
C
102
}
100
AcDbDictionary
280
0
281
1
  0
ACDBDICTIONARYWDFLT
  5
E
102
{ACAD_REACTORS
330
C
102
}
100
AcDbDictionary
281
1
  3
Normal
350
F
100
AcDbDictionaryWithDefault
340
F
  0
DICTIONARY
  5
17
102
{ACAD_REACTORS
330
C
102
}
100
AcDbDictionary
280
0
281
1
  3
Standard
350
18
  0
DICTIONARY
  5
19
102
{ACAD_REACTORS
330
C
102
}
100
AcDbDictionary
281
1
  0
DICTIONARY
  5
1A
102
{ACAD_REACTORS
330
C
102
}
100
AcDbDictionary
281
1
  3
Model
350
6BF
  3
Layout1
350
6C0
  0
ACDBPLACEHOLDER
  5
F
102
{ACAD_REACTORS
330
E
102
}
  0
MLINESTYLE
  5
18
102
{ACAD_REACTORS
330
17
102
}
100
AcDbMlineStyle
  2
STANDARD
 70
0
  3

 62
256
 51
90.0
 52
90.0
 71
2
 49
0.5
 62
256
  6
BYLAYER
 49
-0.5
 62
256
  6
BYLAYER
  0
LAYOUT
  5
6BF
102
{ACAD_REACTORS
330
1A
102
}
100
AcDbPlotSettings
  1

  2
none_device
  4
ISO_A4_(297.00_x_210.00_MM)
  6

 40
0.0
 41
0.0
 42
0.0
 43
0.0
 44
297.0
 45
210.0
 46
0.0
 47
0.0
 48
0.0
 49
0.0
140
0.0
141
0.0
142
1.0
143
1.0
 70
1024
 72
1
 73
0
 74
0
  7

 75
0
147
1.0
148
0.0
149
0.0
100
AcDbLayout
  1
Model
 70
0
 71
0
 10
0.0
 20
0.0
 11
297.0
 21
210.0
 12
0.0
 22
0.0
 32
0.0
 14
0.0
 24
0.0
 34
0.0
 15
0.0
 25
0.0
 35
0.0
146
0.0
 13
0.0
 23
0.0
 33
0.0
 16
1.0
 26
0.0
 36
0.0
 17
0.0
 27
1.0
 37
0.0
 76
0
330
214
345
0
346
0
  0
LAYOUT
  5
6C0
102
{ACAD_REACTORS
330
1A
102
}
100
AcDbPlotSettings
  1

  2
none_device
  4
ISO_A4_(297.00_x_210.00_MM)
  6

 40
0.0
 41
0.0
 42
0.0
 43
0.0
 44
297.0
 45
210.0
 46
0.0
 47
0.0
 48
0.0
 49
0.0
140
0.0
141
0.0
142
1.0
143
1.0
 70
0
 72
1
 73
0
 74
0
  7

 75
0
147
1.0
148
0.0
149
0.0
100
AcDbLayout
  1
Layout1
 70
0
 71
1
 10
0.0
 20
0.0
 11
297.0
 21
210.0
 12
0.0
 22
0.0
 32
0.0
 14
0.0
 24
0.0
 34
0.0
 15
0.0
 25
0.0
 35
0.0
146
0.0
 13
0.0
 23
0.0
 33
0.0
 16
1.0
 26
0.0
 36
0.0
 17
0.0
 27
1.0
 37
0.0
 76
0
330
215
345
0
346
0
  0
ENDSEC
  0
EOF
