  0
SECTION
  2
HEADER
  9
$ACADVER
  1
AC1021
  9
$DWGCODEPAGE
  3
ANSI_1252
  9
$EXTMAX
 10
297.0
 20
210.0
 30
0.0
  9
$EXTMIN
 10
0.0
 20
0.0
 30
0.0
  9
$LIMMIN
 10
0.0
 20
0.0
  9
$LIMMAX
 10
297.0
 20
210.0
  9
$VIEWCTR
 10
148.5
 20
105.0
  9
$VIEWSIZE
 40
210.0
  9
$CLAYER
  8
0
  9
$LTSCALE
 40
16.335
  9
$CELTYPE
  6
BYLAYER
  9
$DIMSCALE
 40
1.0
  9
$DIMASZ
 40
3.0
  9
$DIMEXO
 40
0.5
  9
$DIMDLI
 40
11.286
  9
$DIMEXE
 40
1.5
  9
$DIMCEN
 40
2.673
  9
$DIMLFAC
 40
1.0
  9
$DIMBLK
  1
_FILLED
  9
$DIMALT
 70
0
  9
$DIMALTF
 40
25.4
  9
$DIMTXT
 40
3.0
  9
$DIMTOL
 70
1
  9
$DIMLIM
 70
0
  9
$DIMTFAC
 40
1.0
  9
$DIMTP
 40
0.01
  9
$DIMTM
 40
0.01
  9
$DIMGAP
 40
0.625
  9
$DIMDSEP
 70
44
  9
$AUNITS
 70
0
  9
$PDMODE
 70
3
  9
$PDSIZE
 40
3.0
  9
$HANDSEED
  5
3B5
  9
$TILEMODE
 70
1
  9
$MEASUREMENT
 70
1
  9
$INSUNITS
 70
4
  0
ENDSEC
  0
SECTION
  2
CLASSES
  0
CLASS
  1
ACDBDICTIONARYWDFLT
  2
AcDbDictionaryWithDefault
  3
AutoCAD 2000
 90
0
 91
1
280
0
281
0
  0
CLASS
  1
ACDBPLACEHOLDER
  2
AcDbPlaceHolder
  3
AutoCAD 2000
 90
0
 91
1
280
0
281
0
  0
CLASS
  1
LAYOUT
  2
AcDbLayout
  3
AutoCAD 2000
 90
0
 91
0
280
0
281
0
  0
ENDSEC
  0
SECTION
  2
TABLES
  0
TABLE
  2
VPORT
  5
8
100
AcDbSymbolTable
 70
2
  0
VPORT
  5
1F4
100
AcDbSymbolTableRecord
100
AcDbViewportTableRecord
  2
*ACTIVE
 70
0
 10
0.0
 20
0.0
 11
1.0
 21
1.0
 12
148.5
 22
105.0
 13
0.0
 23
0.0
 14
1.0
 24
1.0
 15
0.0
 25
0.0
 16
0.0
 26
0.0
 36
1.0
 17
0.0
 27
0.0
 37
0.0
 40
210.0
 41
1.4142857143
 42
50.0
 43
0.0
 44
0.0
 50
0.0
 51
0.0
 71
0
 72
100
 73
1
 74
1
 75
0
 76
0
 77
0
 78
0
  0
ENDTAB
  0
TABLE
  2
LTYPE
  5
5
100
AcDbSymbolTable
 70
6
  0
LTYPE
  5
14
100
AcDbSymbolTableRecord
100
AcDbLinetypeTableRecord
  2
BYBLOCK
 70
0
  3

 72
65
 73
0
 40
0.0
  0
LTYPE
  5
15
100
AcDbSymbolTableRecord
100
AcDbLinetypeTableRecord
  2
BYLAYER
 70
0
  3

 72
65
 73
0
 40
0.0
  0
LTYPE
  5
16
100
AcDbSymbolTableRecord
100
AcDbLinetypeTableRecord
  2
CONTINUOUS
 70
64
  3
Solid line
 72
65
 73
0
 40
0.0
  0
LTYPE
  5
1F5
100
AcDbSymbolTableRecord
100
AcDbLinetypeTableRecord
  2
CENTER
 70
64
  3
____ _ ____ _ ____ _ ____ _ ____ _ ____ _ ____
 72
65
 73
4
 40
0.6
 49
0.375
 74
0
 49
-0.075
 74
0
 49
0.075
 74
0
 49
-0.075
 74
0
  0
LTYPE
  5
1F6
100
AcDbSymbolTableRecord
100
AcDbLinetypeTableRecord
  2
HIDDEN
 70
64
  3
- - - - - - - - - - - - - - - - - - - -
 72
65
 73
2
 40
0.2
 49
0.1
 74
0
 49
-0.1
 74
0
  0
LTYPE
  5
1F7
100
AcDbSymbolTableRecord
100
AcDbLinetypeTableRecord
  2
PHANTOM
 70
64
  3
_____ _ _ _____ _ _ _____ _ _ _____
 72
65
 73
6
 40
0.8
 49
0.45
 74
0
 49
-0.05
 74
0
 49
0.1
 74
0
 49
-0.05
 74
0
 49
0.1
 74
0
 49
-0.05
 74
0
  0
LTYPE
  5
1F8
100
AcDbSymbolTableRecord
100
AcDbLinetypeTableRecord
  2
DOT
 70
64
  3
. . . . . . . . . . . . . . . . . . . .
 72
65
 73
2
 40
0.2
 49
0.1
 74
0
 49
-0.1
 74
0
  0
LTYPE
  5
1F9
100
AcDbSymbolTableRecord
100
AcDbLinetypeTableRecord
  2
DASHED
 70
64
  3
- - - - - - - - - - - - - - - - - - - -
 72
65
 73
2
 40
0.2
 49
0.1
 74
0
 49
-0.1
 74
0
  0
ENDTAB
  0
TABLE
  2
LAYER
  5
2
100
AcDbSymbolTable
 70
36
  0
LAYER
  5
10
100
AcDbSymbolTableRecord
100
AcDbLayerTableRecord
  2
0
 70
0
 62
7
  6
CONTINUOUS
370
-3
390
F
  0
LAYER
  5
1FA
100
AcDbSymbolTableRecord
100
AcDbLayerTableRecord
  2
DEFAULT_1
 70
0
 62
7
  6
CENTER
370
-3
390
F
  0
LAYER
  5
1FB
100
AcDbSymbolTableRecord
100
AcDbLayerTableRecord
  2
DEFAULT_2
 70
0
 62
7
  6
HIDDEN
370
-3
390
F
  0
LAYER
  5
1FC
100
AcDbSymbolTableRecord
100
AcDbLayerTableRecord
  2
DEFAULT_3
 70
0
 62
7
  6
PHANTOM
370
-3
390
F
  0
LAYER
  5
1FD
100
AcDbSymbolTableRecord
100
AcDbLayerTableRecord
  2
ASSI
 70
0
 62
7
  6
CONTINUOUS
370
-3
390
F
  0
LAYER
  5
1FE
100
AcDbSymbolTableRecord
100
AcDbLayerTableRecord
  2
COORDINATE
 70
0
 62
7
  6
CONTINUOUS
370
-3
390
F
  0
LAYER
  5
1FF
100
AcDbSymbolTableRecord
100
AcDbLayerTableRecord
  2
COORD_ORIGINE
 70
0
 62
7
  6
CONTINUOUS
370
-3
390
F
  0
LAYER
  5
200
100
AcDbSymbolTableRecord
100
AcDbLayerTableRecord
  2
COPY_PUBLISH
 70
0
 62
7
  6
CONTINUOUS
370
-3
390
F
  0
LAYER
  5
201
100
AcDbSymbolTableRecord
100
AcDbLayerTableRecord
  2
COSMETIC
 70
0
 62
7
  6
CONTINUOUS
370
-3
390
F
  0
LAYER
  5
202
100
AcDbSymbolTableRecord
100
AcDbLayerTableRecord
  2
COSMETICI
 70
0
 62
7
  6
CONTINUOUS
370
-3
390
F
  0
LAYER
  5
203
100
AcDbSymbolTableRecord
100
AcDbLayerTableRecord
  2
CURVE
 70
0
 62
7
  6
CONTINUOUS
370
-3
390
F
  0
LAYER
  5
204
100
AcDbSymbolTableRecord
100
AcDbLayerTableRecord
  2
DRAFT
 70
0
 62
7
  6
CONTINUOUS
370
-3
390
F
  0
LAYER
  5
205
100
AcDbSymbolTableRecord
100
AcDbLayerTableRecord
  2
IGES
 70
0
 62
7
  6
CONTINUOUS
370
-3
390
F
  0
LAYER
  5
206
100
AcDbSymbolTableRecord
100
AcDbLayerTableRecord
  2
IMPORT_IGES
 70
0
 62
7
  6
CONTINUOUS
370
-3
390
F
  0
LAYER
  5
207
100
AcDbSymbolTableRecord
100
AcDbLayerTableRecord
  2
LIVELLO_1
 70
0
 62
7
  6
CONTINUOUS
370
-3
390
F
  0
LAYER
  5
208
100
AcDbSymbolTableRecord
100
AcDbLayerTableRecord
  2
NOTE
 70
0
 62
7
  6
CONTINUOUS
370
-3
390
F
  0
LAYER
  5
209
100
AcDbSymbolTableRecord
100
AcDbLayerTableRecord
  2
PIANI
 70
0
 62
7
  6
CONTINUOUS
370
-3
390
F
  0
LAYER
  5
20A
100
AcDbSymbolTableRecord
100
AcDbLayerTableRecord
  2
PIANI_ORIGINE
 70
0
 62
7
  6
CONTINUOUS
370
-3
390
F
  0
LAYER
  5
20B
100
AcDbSymbolTableRecord
100
AcDbLayerTableRecord
  2
PIANI_RIFERIMENTO
 70
0
 62
7
  6
CONTINUOUS
370
-3
390
F
  0
LAYER
  5
20C
100
AcDbSymbolTableRecord
100
AcDbLayerTableRecord
  2
PUNTI
 70
0
 62
7
  6
CONTINUOUS
370
-3
390
F
  0
LAYER
  5
20D
100
AcDbSymbolTableRecord
100
AcDbLayerTableRecord
  2
RACCORDO
 70
0
 62
7
  6
CONTINUOUS
370
-3
390
F
  0
LAYER
  5
20E
100
AcDbSymbolTableRecord
100
AcDbLayerTableRecord
  2
SIMBOLI
 70
0
 62
7
  6
CONTINUOUS
370
-3
390
F
  0
LAYER
  5
20F
100
AcDbSymbolTableRecord
100
AcDbLayerTableRecord
  2
SMUSSO
 70
0
 62
7
  6
CONTINUOUS
370
-3
390
F
  0
LAYER
  5
210
100
AcDbSymbolTableRecord
100
AcDbLayerTableRecord
  2
SNAPLINE
 70
0
 62
7
  6
CONTINUOUS
370
-3
390
F
  0
LAYER
  5
211
100
AcDbSymbolTableRecord
100
AcDbLayerTableRecord
  2
SUPERFICI
 70
0
 62
7
  6
CONTINUOUS
370
-3
390
F
  0
LAYER
  5
212
100
AcDbSymbolTableRecord
100
AcDbLayerTableRecord
  2
TRASH
 70
0
 62
7
  6
CONTINUOUS
370
-3
390
F
  0
LAYER
  5
213
100
AcDbSymbolTableRecord
100
AcDbLayerTableRecord
  2
WHITE
 70
0
 62
7
  6
CONTINUOUS
370
-3
390
F
  0
LAYER
  5
214
100
AcDbSymbolTableRecord
100
AcDbLayerTableRecord
  2
XSEC_DATUMS
 70
0
 62
7
  6
CONTINUOUS
370
-3
390
F
  0
ENDTAB
  0
TABLE
  2
STYLE
  5
3
100
AcDbSymbolTable
 70
1
  0
STYLE
  5
11
100
AcDbSymbolTableRecord
100
AcDbTextStyleTableRecord
  2
STANDARD
 70
0
 40
0.0
 41
0.8
 50
0.0
 71
0
 42
0.2
  3
txt
  4

  0
STYLE
  5
215
100
AcDbSymbolTableRecord
100
AcDbTextStyleTableRecord
  2
TEXTSTYLE_1
 70
0
 40
0.0
 41
0.8
 50
0.0
 71
0
 42
0.2
  3
gdt
  4

  0
ENDTAB
  0
TABLE
  2
VIEW
  5
6
100
AcDbSymbolTable
 70
0
  0
ENDTAB
  0
TABLE
  2
UCS
  5
7
100
AcDbSymbolTable
 70
0
  0
ENDTAB
  0
TABLE
  2
APPID
  5
9
100
AcDbSymbolTable
 70
1
  0
APPID
  5
216
100
AcDbSymbolTableRecord
100
AcDbRegAppTableRecord
  2
ACAD
 70
0
  0
ENDTAB
  0
TABLE
  2
BLOCK_RECORD
  5
1
100
AcDbSymbolTable
 70
0
  0
BLOCK_RECORD
  5
217
100
AcDbSymbolTableRecord
100
AcDbBlockTableRecord
  2
*Model_Space
  0
BLOCK_RECORD
  5
218
100
AcDbSymbolTableRecord
100
AcDbBlockTableRecord
  2
*Paper_Space
  0
BLOCK_RECORD
  5
219
100
AcDbSymbolTableRecord
100
AcDbBlockTableRecord
  2
_FILLED
  0
BLOCK_RECORD
  5
21A
100
AcDbSymbolTableRecord
100
AcDbBlockTableRecord
  2
*D0
  0
BLOCK_RECORD
  5
21B
100
AcDbSymbolTableRecord
100
AcDbBlockTableRecord
  2
*D1
  0
BLOCK_RECORD
  5
21C
100
AcDbSymbolTableRecord
100
AcDbBlockTableRecord
  2
*D2
  0
ENDTAB
  0
TABLE
  2
DIMSTYLE
  5
A
100
AcDbSymbolTable
 70
1
100
AcDbDimStyleTable
 71
0
  0
DIMSTYLE
105
21D
100
AcDbSymbolTableRecord
100
AcDbDimStyleTableRecord
  2
STANDARD
 70
0
  3

  4

 40
1.0
 41
3.0
 42
0.5
 43
0.38
 44
1.5
 45
0.0
 46
0.0
 47
0.01
 48
0.01
140
3.0
141
0.09
142
0.0
143
25.4
144
1.0
145
0.0
146
1.0
147
0.625
 71
1.0
 72
0.0
 73
0
 74
0
 75
0
 76
0
 77
1
 78
8
170
0
171
1
172
0
173
0
174
0
175
0
176
0
177
0
178
0
270
2
271
2
272
2
273
2
274
2
275
0
280
0
281
0
282
0
283
1
284
8
285
0
286
0
287
3
288
0
340
11
278
44
341
219
342
219
343
219
344
219
  0
DIMSTYLE
105
21E
100
AcDbSymbolTableRecord
100
AcDbDimStyleTableRecord
  2
DIMSTYLE_1
 70
0
  3

  4

 40
1.0
 41
3.0
 42
0.5
 43
0.38
 44
1.5
 45
0.0
 46
0.0
 47
0.0
 48
0.0
140
3.0
141
0.09
142
0.0
143
25.4
144
1.0
145
0.0
146
1.0
147
0.75
 71
0.0
 72
0.0
 73
0
 74
0
 75
0
 76
0
 77
1
 78
8
170
0
171
1
172
0
173
0
174
0
175
0
176
0
177
0
178
0
270
2
271
2
272
2
273
2
274
2
275
0
280
0
281
0
282
0
283
1
284
8
285
0
286
0
287
3
288
0
340
11
278
44
341
219
342
219
343
219
344
219
  0
DIMSTYLE
105
21F
100
AcDbSymbolTableRecord
100
AcDbDimStyleTableRecord
  2
DIMSTYLE_2
 70
0
  3

  4

 40
1.0
 41
3.0
 42
0.5
 43
0.38
 44
1.5
 45
0.0
 46
0.0
 47
0.0
 48
0.0
140
3.0
141
0.09
142
0.0
143
25.4
144
1.0
145
0.0
146
1.0
147
0.75
 71
0.0
 72
0.0
 73
0
 74
0
 75
0
 76
0
 77
1
 78
8
170
0
171
1
172
0
173
0
174
0
175
0
176
0
177
0
178
0
270
2
271
1
272
1
273
2
274
2
275
0
280
0
281
0
282
0
283
1
284
8
285
0
286
0
287
3
288
0
340
11
278
44
341
219
342
219
343
219
344
219
  0
ENDTAB
  0
ENDSEC
  0
SECTION
  2
BLOCKS
  0
BLOCK
  5
20
100
AcDbEntity
  8
0
100
AcDbBlockBegin
  2
*Model_Space
 70
0
 10
0.0
 20
0.0
 30
0.0
  3
*Model_Space
  1

  0
ENDBLK
  5
21
100
AcDbEntity
  8
0
100
AcDbBlockEnd
  0
BLOCK
  5
1C
100
AcDbEntity
  8
0
100
AcDbBlockBegin
  2
*Paper_Space
 70
0
 10
0.0
 20
0.0
 30
0.0
  3
*Paper_Space
  1

  0
ENDBLK
  5
1D
100
AcDbEntity
  8
0
100
AcDbBlockEnd
  0
BLOCK
  5
220
100
AcDbEntity
  8
0
100
AcDbBlockBegin
  2
_FILLED
 70
64
 10
0.0
 20
0.0
  3
_FILLED
  1

  0
SOLID
  5
221
100
AcDbEntity
  8
0
  6
BYBLOCK
 62
0
100
AcDbTrace
 10
0.0
 20
0.0
 11
-1.0
 21
0.3166666667
 12
-1.0
 22
-0.3166666667
 13
-1.0
 23
-0.3166666667
  0
ENDBLK
  5
222
100
AcDbEntity
  8
0
  6
BYBLOCK
 62
0
100
AcDbBlockEnd
  0
BLOCK
  5
223
100
AcDbEntity
  8
0
100
AcDbBlockBegin
 62
7
  6
CONTINUOUS
  2
*D0
 70
65
 10
0.0
 20
0.0
  3
*D0
  1

  0
MTEXT
  5
224
100
AcDbEntity
  8
0
100
AcDbMText
 62
7
  6
CONTINUOUS
  7
STANDARD
 71
2
 72
1
 10
-0.1318208554
 20
33.9867164801
 30
0.0
 11
1.0
 21
0.0
 31
0.0
 44
0.9
  1
44,7
 40
3.0
 41
13.1785714286
  0
LINE
  5
225
100
AcDbEntity
  8
0
100
AcDbLine
 62
7
  6
CONTINUOUS
 10
22.2181791446
 20
13.6252351926
 11
22.2181791446
 21
31.7367164801
  0
LINE
  5
226
100
AcDbEntity
  8
0
100
AcDbLine
 62
7
  6
CONTINUOUS
 10
-22.4818208554
 20
13.6252351926
 11
-22.4818208554
 21
31.7367164801
  0
LINE
  5
227
100
AcDbEntity
  8
0
100
AcDbLine
 62
7
  6
CONTINUOUS
 10
22.2181791446
 20
30.2367164801
 11
-0.1318208554
 21
30.2367164801
  0
LINE
  5
228
100
AcDbEntity
  8
0
100
AcDbLine
 62
7
  6
CONTINUOUS
 10
-22.4818208554
 20
30.2367164801
 11
-0.1318208554
 21
30.2367164801
  0
INSERT
  5
229
100
AcDbEntity
  8
0
100
AcDbBlockReference
 62
7
  6
CONTINUOUS
  2
_FILLED
 10
22.2181791446
 20
30.2367164801
 41
3.0
 42
3.0
 43
3.0
  0
INSERT
  5
22A
100
AcDbEntity
  8
0
100
AcDbBlockReference
 62
7
  6
CONTINUOUS
  2
_FILLED
 10
-22.4818208554
 20
30.2367164801
 41
3.0
 42
3.0
 43
3.0
 50
180.0
  0
ENDBLK
  5
22B
100
AcDbEntity
  8
0
  6
BYBLOCK
 62
0
100
AcDbBlockEnd
  0
BLOCK
  5
22C
100
AcDbEntity
  8
0
100
AcDbBlockBegin
 62
7
  6
CONTINUOUS
  2
*D1
 70
65
 10
0.0
 20
0.0
  3
*D1
  1

  0
MTEXT
  5
22D
100
AcDbEntity
  8
0
100
AcDbMText
 62
7
  6
CONTINUOUS
  7
STANDARD
 71
2
 72
1
 10
26.4681791446
 20
0.0252351926
 30
0.0
 11
0.0
 21
1.0
 31
0.0
 44
0.9
  1
44,4
 40
3.0
 41
13.1785714286
  0
LINE
  5
22E
100
AcDbEntity
  8
0
100
AcDbLine
 62
7
  6
CONTINUOUS
 10
22.2046454163
 20
22.2367164801
 11
31.7181791446
 21
22.2367164801
  0
LINE
  5
22F
100
AcDbEntity
  8
0
100
AcDbLine
 62
7
  6
CONTINUOUS
 10
22.2046454163
 20
-22.186246095
 11
31.7181791446
 21
-22.186246095
  0
LINE
  5
230
100
AcDbEntity
  8
0
100
AcDbLine
 62
7
  6
CONTINUOUS
 10
30.2181791446
 20
22.2367164801
 11
30.2181791446
 21
0.0252351926
  0
LINE
  5
231
100
AcDbEntity
  8
0
100
AcDbLine
 62
7
  6
CONTINUOUS
 10
30.2181791446
 20
-22.186246095
 11
30.2181791446
 21
0.0252351926
  0
INSERT
  5
232
100
AcDbEntity
  8
0
100
AcDbBlockReference
 62
7
  6
CONTINUOUS
  2
_FILLED
 10
30.2181791446
 20
22.2367164801
 41
3.0
 42
3.0
 43
3.0
 50
90.0
  0
INSERT
  5
233
100
AcDbEntity
  8
0
100
AcDbBlockReference
 62
7
  6
CONTINUOUS
  2
_FILLED
 10
30.2181791446
 20
-22.186246095
 41
3.0
 42
3.0
 43
3.0
 50
270.0
  0
ENDBLK
  5
234
100
AcDbEntity
  8
0
  6
BYBLOCK
 62
0
100
AcDbBlockEnd
  0
BLOCK
  5
235
100
AcDbEntity
  8
0
100
AcDbBlockBegin
 62
7
  6
CONTINUOUS
  2
*D2
 70
65
 10
0.0
 20
0.0
  3
*D2
  1

  0
MTEXT
  5
236
100
AcDbEntity
  8
0
100
AcDbMText
 62
7
  6
CONTINUOUS
  7
STANDARD
 71
1
 72
1
 10
-33.6065568958
 20
33.9867164801
 30
0.0
 11
1.0
 21
0.0
 31
0.0
 44
0.9
  1
6,7
 40
3.0
 41
9.6428571429
  0
LINE
  5
237
100
AcDbEntity
  8
0
100
AcDbLine
 62
7
  6
CONTINUOUS
 10
-39.3808092232
 20
13.6252351926
 11
-39.3808092232
 21
31.7367164801
  0
LINE
  5
238
100
AcDbEntity
  8
0
100
AcDbLine
 62
7
  6
CONTINUOUS
 10
-46.0806818616
 20
0.8821090935
 11
-46.0806818616
 21
31.7367164801
  0
LINE
  5
239
100
AcDbEntity
  8
0
100
AcDbLine
 62
7
  6
CONTINUOUS
 10
-39.3808092232
 20
30.2367164801
 11
-27.1779854672
 21
30.2367164801
  0
LINE
  5
23A
100
AcDbEntity
  8
0
100
AcDbLine
 62
7
  6
CONTINUOUS
 10
-27.1779854672
 20
30.2367164801
 11
-42.7307455424
 21
30.2367164801
  0
LINE
  5
23B
100
AcDbEntity
  8
0
100
AcDbLine
 62
7
  6
CONTINUOUS
 10
-46.0806818616
 20
30.2367164801
 11
-50.0806818616
 21
30.2367164801
  0
LINE
  5
23C
100
AcDbEntity
  8
0
100
AcDbLine
 62
7
  6
CONTINUOUS
 10
-50.0806818616
 20
30.2367164801
 11
-42.7307455424
 21
30.2367164801
  0
INSERT
  5
23D
100
AcDbEntity
  8
0
100
AcDbBlockReference
 62
7
  6
CONTINUOUS
  2
_FILLED
 10
-39.3808092232
 20
30.2367164801
 41
3.0
 42
3.0
 43
3.0
 50
180.0
  0
INSERT
  5
23E
100
AcDbEntity
  8
0
100
AcDbBlockReference
 62
7
  6
CONTINUOUS
  2
_FILLED
 10
-46.0806818616
 20
30.2367164801
 41
3.0
 42
3.0
 43
3.0
  0
ENDBLK
  5
23F
100
AcDbEntity
  8
0
  6
BYBLOCK
 62
0
100
AcDbBlockEnd
  0
ENDSEC
  0
SECTION
  2
ENTITIES
  0
DIMENSION
  5
240
100
AcDbEntity
  8
0
100
AcDbDimension
 62
7
  6
CONTINUOUS
  2
*D0
 10
-22.4818208554
 20
30.2367164801
 11
-0.5603922901
 21
30.2367164801
 70
160
 71
2
 42
44.7
  3
DIMSTYLE_1
100
AcDbAlignedDimension
 13
22.2181791446
 23
13.1252351926
 14
-22.4818208554
 24
13.1252351926
 50
180.0
100
AcDbRotatedDimension
  0
DIMENSION
  5
241
100
AcDbEntity
  8
0
100
AcDbDimension
 62
7
  6
CONTINUOUS
  2
*D1
 10
30.2181791446
 20
-22.186246095
 11
30.2181791446
 21
-0.4033359841
 70
160
 71
2
 42
44.4229625751
  3
DIMSTYLE_2
100
AcDbAlignedDimension
 13
21.7046454163
 23
22.2367164801
 14
21.7046454163
 24
-22.186246095
 50
270.0
100
AcDbRotatedDimension
  0
DIMENSION
  5
242
100
AcDbEntity
  8
0
100
AcDbDimension
 62
7
  6
CONTINUOUS
  2
*D2
 10
-46.0806818616
 20
30.2367164801
 11
-30.8208423615
 21
30.2367164801
 70
160
 71
1
 42
6.6998726384
  3
DIMSTYLE_1
100
AcDbAlignedDimension
 13
-39.3808092232
 23
13.1252351926
 14
-46.0806818616
 24
0.3821090935
 50
180.0
100
AcDbRotatedDimension
  0
LWPOLYLINE
  5
243
100
AcDbEntity
  8
ASSI
100
AcDbPolyline
 62
253
  6
CONTINUOUS
 90
15
 70
0
 10
-22.3808231412
 20
20.567141049
 10
-22.3797018798
 20
20.5682054305
 10
-22.3772436169
 20
20.569266959
 10
-22.3734549415
 20
20.570322789
 10
-22.3683460091
 20
20.5713700907
 10
-22.3619305136
 20
20.5724060567
 10
-22.3542256513
 20
20.5734279102
 10
-22.3452520745
 20
20.5744329123
 10
-22.3350338362
 20
20.575418369
 10
-22.3235983256
 20
20.5763816391
 10
-22.3109761946
 20
20.5773201404
 10
-22.2972012759
 20
20.5782313574
 10
-22.2823104921
 20
20.5791128477
 10
-22.2663437569
 20
20.5799622485
 10
-22.2493438677
 20
20.580777283
  0
LWPOLYLINE
  5
244
100
AcDbEntity
  8
ASSI
100
AcDbPolyline
 62
253
  6
CONTINUOUS
 90
17
 70
0
 10
-22.3808231412
 20
-20.5166706639
 10
-22.3797018909
 20
-20.5177350458
 10
-22.3772436382
 20
-20.5187965746
 10
-22.3734549722
 20
-20.5198524051
 10
-22.3683460484
 20
-20.5208997072
 10
-22.3619305606
 20
-20.5219356737
 10
-22.3542257052
 20
-20.5229575277
 10
-22.3452521344
 20
-20.5239625302
 10
-22.3350339013
 20
-20.5249479875
 10
-22.3235983949
 20
-20.525911258
 10
-22.3109762673
 20
-20.5268497598
 10
-22.2972013511
 20
-20.5277609773
 10
-22.282310569
 20
-20.5286424681
 10
-22.2663438346
 20
-20.5294918694
 10
-22.2493439455
 20
-20.5303069044
 10
-22.2313564685
 20
-20.5310853885
 10
-22.1926141254
 20
-20.5325244609
  0
LWPOLYLINE
  5
245
100
AcDbEntity
  8
ASSI
100
AcDbPolyline
 62
253
  6
CONTINUOUS
 90
31
 70
0
 10
-22.3973499119
 20
-21.474175262
 10
-22.3966416963
 20
-21.5002922016
 10
-22.3945667564
 20
-21.52633764
 10
-22.3911307727
 20
-21.5522402717
 10
-22.3863431521
 20
-21.5779291818
 10
-22.3802170018
 20
-21.6033340406
 10
-22.3727690935
 20
-21.6283852963
 10
-22.3640198176
 20
-21.6530143648
 10
-22.3539931273
 20
-21.677153818
 10
-22.3427164731
 20
-21.7007375684
 10
-22.3302207275
 20
-21.7237010495
 10
-22.3165401006
 20
-21.7459813932
 10
-22.3017120464
 20
-21.7675176016
 10
-22.2857771602
 20
-21.788250714
 10
-22.2687790677
 20
-21.8081239684
 10
-22.2507643053
 20
-21.8270829569
 10
-22.2317821927
 20
-21.8450757745
 10
-22.2118846981
 20
-21.8620531614
 10
-22.1911262957
 20
-21.8779686378
 10
-22.1695638168
 20
-21.8927786312
 10
-22.1472562937
 20
-21.9064425956
 10
-22.124264799
 20
-21.9189231223
 10
-22.1006522774
 20
-21.9301860429
 10
-22.0764833739
 20
-21.9402005223
 10
-22.051824257
 20
-21.9489391433
 10
-22.0267424369
 20
-21.9563779818
 10
-22.0013065814
 20
-21.9624966722
 10
-21.9755863274
 20
-21.967278463
 10
-21.9496520904
 20
-21.9707102627
 10
-21.9235748718
 20
-21.9727826761
 10
-21.8974260643
 20
-21.9734900294
  0
LWPOLYLINE
  5
246
100
AcDbEntity
  8
ASSI
100
AcDbPolyline
 62
253
  6
CONTINUOUS
 90
31
 70
0
 10
-22.3973499119
 20
21.5246456472
 10
-22.396641696
 20
21.5507625924
 10
-22.3945667552
 20
21.5768080361
 10
-22.3911307702
 20
21.6027106726
 10
-22.3863431478
 20
21.6283995869
 10
-22.3802169954
 20
21.6538044495
 10
-22.3727690847
 20
21.6788557082
 10
-22.3640198063
 20
21.7034847792
 10
-22.3539931134
 20
21.7276242343
 10
-22.3427164565
 20
21.751207986
 10
-22.3302207083
 20
21.7741714678
 10
-22.3165400789
 20
21.7964518116
 10
-22.3017120224
 20
21.8179880196
 10
-22.2857771343
 20
21.8387211312
 10
-22.2687790401
 20
21.8585943842
 10
-22.2507642763
 20
21.877553371
 10
-22.2317821628
 20
21.8955461865
 10
-22.2118846677
 20
21.9125235712
 10
-22.1911262652
 20
21.9284390451
 10
-22.1695637867
 20
21.9432490359
 10
-22.1472562645
 20
21.9569129976
 10
-22.1242647711
 20
21.9693935216
 10
-22.1006522513
 20
21.9806564396
 10
-22.0764833501
 20
21.9906709165
 10
-22.0518242357
 20
21.9994095353
 10
-22.0267424187
 20
22.0068483719
 10
-22.0013065664
 20
22.0129670605
 10
-21.9755863159
 20
22.0177488499
 10
-21.9496520826
 20
22.0211806487
 10
-21.9235748678
 20
22.0232530615
 10
-21.8974260643
 20
22.0239604145
  0
LINE
  5
247
100
AcDbEntity
  8
ASSI
100
AcDbLine
 62
7
  6
CONTINUOUS
 10
14.5123892703
 20
-22.186246095
 11
14.8604441177
 21
-22.1546521345
  0
LINE
  5
248
100
AcDbEntity
  8
ASSI
100
AcDbLine
 62
7
  6
CONTINUOUS
 10
-14.7760309812
 20
-22.186246095
 11
-15.1240858285
 21
-22.1546521345
  0
LWPOLYLINE
  5
249
100
AcDbEntity
  8
ASSI
100
AcDbPolyline
 62
253
  6
CONTINUOUS
 90
10
 70
0
 10
-22.391969001
 20
21.4587335247
 10
-22.392545253
 20
21.4708319709
 10
-22.3931292899
 20
21.4817774222
 10
-22.3937189378
 20
21.4915291972
 10
-22.3943142274
 20
21.5000828329
 10
-22.394915128
 20
21.5074427924
 10
-22.3955193733
 20
21.5135817828
 10
-22.3961262081
 20
21.5184907066
 10
-22.3967363876
 20
21.5221786614
 10
-22.3973499119
 20
21.5246456472
  0
LWPOLYLINE
  5
24A
100
AcDbEntity
  8
ASSI
100
AcDbPolyline
 62
253
  6
CONTINUOUS
 90
8
 70
0
 10
-21.8932053035
 20
21.959650784
 10
-21.8937949411
 20
21.974281704
 10
-21.8943901927
 20
21.9871205841
 10
-21.894991049
 20
21.9981517156
 10
-21.8955952991
 20
22.0073615492
 10
-21.8962022058
 20
22.0147387354
 10
-21.8968125063
 20
22.0202741668
 10
-21.8974262004
 20
22.0239610304
  0
LINE
  5
24B
100
AcDbEntity
  8
ASSI
100
AcDbLine
 62
253
  6
CONTINUOUS
 10
-22.3908399189
 20
21.4310692136
 11
-22.391969001
 21
21.4587335247
  0
LWPOLYLINE
  5
24C
100
AcDbEntity
  8
ASSI
100
AcDbPolyline
 62
253
  6
CONTINUOUS
 90
25
 70
0
 10
-22.373449328
 20
0.3793939843
 10
-22.3730192681
 20
0.3663151068
 10
-22.3717349132
 20
0.3532922251
 10
-22.3696017622
 20
0.3403810945
 10
-22.3666289479
 20
0.3276369918
 10
-22.362829198
 20
0.3151144787
 10
-22.3582187809
 20
0.3028671686
 10
-22.3528174356
 20
0.2909474962
 10
-22.3466482871
 20
0.2794064935
 10
-22.3397377481
 20
0.2682935715
 10
-22.3321154051
 20
0.2576563081
 10
-22.323813892
 20
0.2475402447
 10
-22.3148687508
 20
0.2379886915
 10
-22.3053182789
 20
0.2290425417
 10
-22.2952033652
 20
0.2207400962
 10
-22.2845673152
 20
0.2131169004
 10
-22.2734556655
 20
0.2062055913
 10
-22.261915989
 20
0.2000357581
 10
-22.2499976909
 20
0.1946338155
 10
-22.2377517975
 20
0.1900228906
 10
-22.2252307374
 20
0.1862227237
 10
-22.2124881175
 20
0.1832495842
 10
-22.1995784929
 20
0.1811162006
 10
-22.1865571339
 20
0.1798317061
 10
-22.173479789
 20
0.1794015997
  0
LINE
  5
24D
100
AcDbEntity
  8
ASSI
100
AcDbLine
 62
253
  6
CONTINUOUS
 10
-22.3897482323
 20
21.3989488451
 11
-22.3908399189
 21
21.4310692136
  0
LINE
  5
24E
100
AcDbEntity
  8
ASSI
100
AcDbLine
 62
253
  6
CONTINUOUS
 10
-21.892045026
 20
21.9250878034
 11
-21.8932053035
 21
21.959650784
  0
LINE
  5
24F
100
AcDbEntity
  8
ASSI
100
AcDbLine
 62
253
  6
CONTINUOUS
 10
-21.8909159772
 20
21.8836040182
 11
-21.892045026
 21
21.9250878034
  0
LINE
  5
250
100
AcDbEntity
  8
ASSI
100
AcDbLine
 62
253
  6
CONTINUOUS
 10
-22.3881906331
 20
21.3427074877
 11
-22.3897482323
 21
21.3989488451
  0
LINE
  5
251
100
AcDbEntity
  8
ASSI
100
AcDbLine
 62
253
  6
CONTINUOUS
 10
-22.3867451039
 20
21.2773796841
 11
-22.3881906331
 21
21.3427074877
  0
LINE
  5
252
100
AcDbEntity
  8
ASSI
100
AcDbLine
 62
253
  6
CONTINUOUS
 10
-21.8892932981
 20
21.808859083
 11
-21.8909159772
 21
21.8836040182
  0
LINE
  5
253
100
AcDbEntity
  8
ASSI
100
AcDbLine
 62
253
  6
CONTINUOUS
 10
-22.3850193565
 20
21.1773910316
 11
-22.3867451039
 21
21.2773796841
  0
LINE
  5
254
100
AcDbEntity
  8
ASSI
100
AcDbLine
 62
253
  6
CONTINUOUS
 10
-21.8872894112
 20
21.687164828
 11
-21.8892932981
 21
21.808859083
  0
LINE
  5
255
100
AcDbEntity
  8
ASSI
100
AcDbLine
 62
253
  6
CONTINUOUS
 10
-22.3832345446
 20
21.0346084142
 11
-22.3850193565
 21
21.1773910316
  0
LINE
  5
256
100
AcDbEntity
  8
ASSI
100
AcDbLine
 62
253
  6
CONTINUOUS
 10
-21.8847040418
 20
21.4624752949
 11
-21.8872894112
 21
21.687164828
  0
LINE
  5
257
100
AcDbEntity
  8
ASSI
100
AcDbLine
 62
253
  6
CONTINUOUS
 10
-22.3817083192
 20
20.842958739
 11
-22.3832345446
 21
21.0346084142
  0
LINE
  5
258
100
AcDbEntity
  8
ASSI
100
AcDbLine
 62
253
  6
CONTINUOUS
 10
-21.8822141689
 20
21.100252836
 11
-21.8847040418
 21
21.4624752949
  0
LINE
  5
259
100
AcDbEntity
  8
ASSI
100
AcDbLine
 62
7
  6
CONTINUOUS
 10
-22.4818208554
 20
-13.0747648074
 11
-22.4686669504
 21
-21.6883003672
  0
LINE
  5
25A
100
AcDbEntity
  8
ASSI
100
AcDbLine
 62
253
  6
CONTINUOUS
 10
-22.3808593039
 20
20.6023094549
 11
-22.3817083192
 21
20.842958739
  0
LINE
  5
25B
100
AcDbEntity
  8
ASSI
100
AcDbLine
 62
253
  6
CONTINUOUS
 10
-21.878681242
 20
17.2213839546
 11
-21.8822141689
 21
21.100252836
  0
LINE
  5
25C
100
AcDbEntity
  8
ASSI
100
AcDbLine
 62
7
  6
CONTINUOUS
 10
-22.4818208554
 20
-0.2747419622
 11
-22.4818208554
 21
-13.0747648074
  0
LINE
  5
25D
100
AcDbEntity
  8
ASSI
100
AcDbLine
 62
7
  6
CONTINUOUS
 10
-22.4818208554
 20
0.3252123473
 11
-22.4818208554
 21
13.1252351926
  0
LINE
  5
25E
100
AcDbEntity
  8
ASSI
100
AcDbLine
 62
253
  6
CONTINUOUS
 10
-22.373449328
 20
0.3793939843
 11
-22.3808593039
 21
20.6023094549
  0
LINE
  5
25F
100
AcDbEntity
  8
ASSI
100
AcDbLine
 62
253
  6
CONTINUOUS
 10
-21.8735255097
 20
0.1819739533
 11
-21.878681242
 21
17.2213839546
  0
LINE
  5
260
100
AcDbEntity
  8
ASSI
100
AcDbLine
 62
7
  6
CONTINUOUS
 10
-22.4818208554
 20
13.1252351926
 11
-22.4686669504
 21
21.7387707523
  0
LINE
  5
261
100
AcDbEntity
  8
ASSI
100
AcDbLine
 62
253
  6
CONTINUOUS
 10
-22.3813603005
 20
-20.7250244195
 11
-22.373449328
 21
-0.3289235992
  0
LINE
  5
262
100
AcDbEntity
  8
ASSI
100
AcDbLine
 62
253
  6
CONTINUOUS
 10
-21.8822141689
 20
-21.0497824512
 11
-21.8735255097
 21
-0.1315035681
  0
LINE
  5
263
100
AcDbEntity
  8
ASSI
100
AcDbLine
 62
253
  6
CONTINUOUS
 10
-22.3829314015
 20
-20.9535187765
 11
-22.3813603005
 21
-20.7250244195
  0
LINE
  5
264
100
AcDbEntity
  8
ASSI
100
AcDbLine
 62
253
  6
CONTINUOUS
 10
-21.8847040418
 20
-21.4120049101
 11
-21.8822141689
 21
-21.0497824512
  0
LINE
  5
265
100
AcDbEntity
  8
ASSI
100
AcDbLine
 62
253
  6
CONTINUOUS
 10
-22.3846278223
 20
-21.0998465942
 11
-22.3829314015
 21
-20.9535187765
  0
LINE
  5
266
100
AcDbEntity
  8
ASSI
100
AcDbLine
 62
253
  6
CONTINUOUS
 10
-21.8872894112
 20
-21.6366944431
 11
-21.8847040418
 21
-21.4120049101
  0
LINE
  5
267
100
AcDbEntity
  8
ASSI
100
AcDbLine
 62
253
  6
CONTINUOUS
 10
-22.3862906209
 20
-21.2032173487
 11
-22.3846278223
 21
-21.0998465942
  0
LINE
  5
268
100
AcDbEntity
  8
ASSI
100
AcDbLine
 62
253
  6
CONTINUOUS
 10
-21.8892932981
 20
-21.7583886981
 11
-21.8872894112
 21
-21.6366944431
  0
LINE
  5
269
100
AcDbEntity
  8
ASSI
100
AcDbLine
 62
253
  6
CONTINUOUS
 10
-22.38769511
 20
-21.2714191762
 11
-22.3862906209
 21
-21.2032173487
  0
LINE
  5
26A
100
AcDbEntity
  8
ASSI
100
AcDbLine
 62
253
  6
CONTINUOUS
 10
-21.8909159772
 20
-21.8331336333
 11
-21.8892932981
 21
-21.7583886981
  0
LINE
  5
26B
100
AcDbEntity
  8
ASSI
100
AcDbLine
 62
253
  6
CONTINUOUS
 10
-22.3892171942
 20
-21.3307667447
 11
-22.38769511
 21
-21.2714191762
  0
LINE
  5
26C
100
AcDbEntity
  8
ASSI
100
AcDbLine
 62
253
  6
CONTINUOUS
 10
-21.892045026
 20
-21.8746174185
 11
-21.8909159772
 21
-21.8331336333
  0
LINE
  5
26D
100
AcDbEntity
  8
ASSI
100
AcDbLine
 62
253
  6
CONTINUOUS
 10
-22.3902891286
 20
-21.3650905133
 11
-22.3892171942
 21
-21.3307667447
  0
LWPOLYLINE
  5
26E
100
AcDbEntity
  8
ASSI
100
AcDbPolyline
 62
253
  6
CONTINUOUS
 90
25
 70
0
 10
-22.373449328
 20
-0.3289235992
 10
-22.3730192692
 20
-0.3158447376
 10
-22.3717349173
 20
-0.3028218709
 10
-22.3696017711
 20
-0.2899107542
 10
-22.3666289632
 20
-0.277166664
 10
-22.3628292213
 20
-0.2646441621
 10
-22.3582188131
 20
-0.2523968612
 10
-22.3528174775
 20
-0.240477196
 10
-22.3466483392
 20
-0.2289361985
 10
-22.3397378103
 20
-0.2178232794
 10
-22.332115477
 20
-0.2071860167
 10
-22.323813973
 20
-0.197069952
 10
-22.3148688398
 20
-0.1875183953
 10
-22.3053183743
 20
-0.1785722402
 10
-22.2952034651
 20
-0.1702697878
 10
-22.2845674175
 20
-0.1626465837
 10
-22.2734557679
 20
-0.1557352653
 10
-22.2619160887
 20
-0.1495654222
 10
-22.2499977852
 20
-0.1441634694
 10
-22.2377518833
 20
-0.1395525346
 10
-22.2252308118
 20
-0.1357523585
 10
-22.2124881774
 20
-0.132779211
 10
-22.1995785356
 20
-0.1306458211
 10
-22.1865571565
 20
-0.1293613225
 10
-22.173479789
 20
-0.1289312145
  0
LINE
  5
26F
100
AcDbEntity
  8
ASSI
100
AcDbLine
 62
7
  6
CONTINUOUS
 10
3.3123892703
 20
-22.186246095
 11
3.6604441177
 21
-22.1546521345
  0
LINE
  5
270
100
AcDbEntity
  8
ASSI
100
AcDbLine
 62
7
  6
CONTINUOUS
 10
-7.9876107297
 20
-22.186246095
 11
-7.6395558823
 21
-22.1546521345
  0
LINE
  5
271
100
AcDbEntity
  8
ASSI
100
AcDbLine
 62
253
  6
CONTINUOUS
 10
21.9857021568
 20
-20.5303068979
 11
21.9487878314
 21
-20.5318252276
  0
LINE
  5
272
100
AcDbEntity
  8
ASSI
100
AcDbLine
 62
253
  6
CONTINUOUS
 10
21.9487878314
 20
-20.5318252276
 11
21.9083213236
 21
-20.5331811836
  0
LINE
  5
273
100
AcDbEntity
  8
ASSI
100
AcDbLine
 62
253
  6
CONTINUOUS
 10
21.9083213236
 20
-20.5331811836
 11
21.8647362122
 21
-20.5343602374
  0
LINE
  5
274
100
AcDbEntity
  8
ASSI
100
AcDbLine
 62
253
  6
CONTINUOUS
 10
21.8647362122
 20
-20.5343602374
 11
21.8184994899
 21
-20.5353497561
  0
LINE
  5
275
100
AcDbEntity
  8
ASSI
100
AcDbLine
 62
253
  6
CONTINUOUS
 10
21.8184994899
 20
-20.5353497561
 11
21.7701065603
 21
-20.5361391374
  0
LWPOLYLINE
  5
276
100
AcDbEntity
  8
ASSI
100
AcDbPolyline
 62
253
  6
CONTINUOUS
 90
3
 70
0
 10
21.7701065603
 20
-20.5361391374
 10
21.7200759297
 20
-20.5367199236
 10
21.6946134639
 20
-20.5369300596
  0
LINE
  5
277
100
AcDbEntity
  8
ASSI
100
AcDbLine
 62
7
  6
CONTINUOUS
 10
-21.9682871271
 20
-22.186246095
 11
-19.1876107297
 21
-22.186246095
  0
LINE
  5
278
100
AcDbEntity
  8
ASSI
100
AcDbLine
 62
7
  6
CONTINUOUS
 10
-14.7760309812
 20
-22.186246095
 11
-7.9876107297
 21
-22.186246095
  0
LINE
  5
279
100
AcDbEntity
  8
ASSI
100
AcDbLine
 62
7
  6
CONTINUOUS
 10
-3.5760309812
 20
-22.186246095
 11
3.3123892703
 21
-22.186246095
  0
LINE
  5
27A
100
AcDbEntity
  8
ASSI
100
AcDbLine
 62
7
  6
CONTINUOUS
 10
7.7239690188
 20
-22.186246095
 11
14.5123892703
 21
-22.186246095
  0
LINE
  5
27B
100
AcDbEntity
  8
ASSI
100
AcDbLine
 62
7
  6
CONTINUOUS
 10
18.9239690188
 20
-22.186246095
 11
21.7046454163
 21
-22.186246095
  0
LINE
  5
27C
100
AcDbEntity
  8
ASSI
100
AcDbLine
 62
7
  6
CONTINUOUS
 10
-18.6663508016
 20
-22.1494113565
 11
-15.2972909093
 21
-22.1494113565
  0
LINE
  5
27D
100
AcDbEntity
  8
ASSI
100
AcDbLine
 62
7
  6
CONTINUOUS
 10
-7.4663508016
 20
-22.1494113565
 11
-4.0972909093
 21
-22.1494113565
  0
LINE
  5
27E
100
AcDbEntity
  8
ASSI
100
AcDbLine
 62
7
  6
CONTINUOUS
 10
3.8336491984
 20
-22.1494113565
 11
7.2027090907
 21
-22.1494113565
  0
LINE
  5
27F
100
AcDbEntity
  8
ASSI
100
AcDbLine
 62
7
  6
CONTINUOUS
 10
15.0336491984
 20
-22.1494113565
 11
18.4027090907
 21
-22.1494113565
  0
LINE
  5
280
100
AcDbEntity
  8
ASSI
100
AcDbLine
 62
253
  6
CONTINUOUS
 10
21.6337845586
 20
-21.9734906453
 11
-21.8974262694
 21
-21.9734906454
  0
LINE
  5
281
100
AcDbEntity
  8
ASSI
100
AcDbLine
 62
253
  6
CONTINUOUS
 10
-22.0089045451
 20
-20.5364560577
 11
-21.9582551963
 21
-20.5369300706
  0
LINE
  5
282
100
AcDbEntity
  8
ASSI
100
AcDbLine
 62
253
  6
CONTINUOUS
 10
-22.0581823802
 20
-20.535770054
 11
-22.0089045451
 21
-20.5364560577
  0
LINE
  5
283
100
AcDbEntity
  8
ASSI
100
AcDbLine
 62
253
  6
CONTINUOUS
 10
-22.1055607139
 20
-20.5348794097
 11
-22.0581823802
 21
-20.535770054
  0
LINE
  5
284
100
AcDbEntity
  8
ASSI
100
AcDbLine
 62
253
  6
CONTINUOUS
 10
-22.1505319104
 20
-20.5337936676
 11
-22.1055607139
 21
-20.5348794097
  0
LINE
  5
285
100
AcDbEntity
  8
ASSI
100
AcDbLine
 62
253
  6
CONTINUOUS
 10
-22.1926141254
 20
-20.5325244609
 11
-22.1505319104
 21
-20.5337936676
  0
LINE
  5
286
100
AcDbEntity
  8
ASSI
100
AcDbLine
 62
7
  6
CONTINUOUS
 10
-3.5760309812
 20
-22.186246095
 11
-3.9240858285
 21
-22.1546521345
  0
LINE
  5
287
100
AcDbEntity
  8
ASSI
100
AcDbLine
 62
7
  6
CONTINUOUS
 10
7.7239690188
 20
-22.186246095
 11
7.3759141715
 21
-22.1546521345
  0
LINE
  5
288
100
AcDbEntity
  8
ASSI
100
AcDbLine
 62
7
  6
CONTINUOUS
 10
-19.1876107297
 20
-22.186246095
 11
-18.8395558823
 21
-22.1546521345
  0
LINE
  5
289
100
AcDbEntity
  8
ASSI
100
AcDbLine
 62
253
  6
CONTINUOUS
 10
21.6946134639
 20
-20.5369300596
 11
21.6172575828
 21
-20.5372331209
  0
LWPOLYLINE
  5
28A
100
AcDbEntity
  8
ASSI
100
AcDbPolyline
 62
253
  6
CONTINUOUS
 90
3
 70
0
 10
-21.9582551963
 20
-20.5369300706
 10
-21.9325853769
 20
-20.537085903
 10
21.6172575679
 20
-20.5372194431
  0
LINE
  5
28B
100
AcDbEntity
  8
ASSI
100
AcDbLine
 62
7
  6
CONTINUOUS
 10
18.9239690188
 20
-22.186246095
 11
18.5759141715
 21
-22.1546521345
  0
LWPOLYLINE
  5
28C
100
AcDbEntity
  8
ASSI
100
AcDbPolyline
 62
253
  6
CONTINUOUS
 90
9
 70
0
 10
-21.8974262004
 20
-21.9734906453
 10
-21.8968125063
 20
-21.9698037817
 10
-21.8962022058
 20
-21.9642683503
 10
-21.8955952991
 20
-21.9568911641
 10
-21.894991049
 20
-21.9476813306
 10
-21.8943901927
 20
-21.936650199
 10
-21.8937949411
 20
-21.923811319
 10
-21.8932053035
 20
-21.909180399
 10
-21.892045026
 20
-21.8746174185
  0
LWPOLYLINE
  5
28D
100
AcDbEntity
  8
CURVE
100
AcDbPolyline
 62
253
  6
CONTINUOUS
 90
90
 70
0
 10
-15.2582969057
 20
-13.0048498402
 10
-15.2576214602
 20
-13.0489895351
 10
-15.2556181616
 20
-13.0928670776
 10
-15.2523291383
 20
-13.1365771436
 10
-15.2477805303
 20
-13.1801998213
 10
-15.2419345247
 20
-13.2237568502
 10
-15.2347373202
 20
-13.2672553822
 10
-15.2261444922
 20
-13.3106795261
 10
-15.2161491216
 20
-13.3539212167
 10
-15.2047536661
 20
-13.3968493456
 10
-15.1919605876
 20
-13.4393478484
 10
-15.1777723652
 20
-13.4813608375
 10
-15.1621914825
 20
-13.5228474696
 10
-15.1452245025
 20
-13.563759589
 10
-15.1268943072
 20
-13.6040197912
 10
-15.1072278577
 20
-13.6435433597
 10
-15.0862521155
 20
-13.6822455777
 10
-15.0639940419
 20
-13.7200417287
 10
-15.0404805983
 20
-13.756847096
 10
-15.0157390401
 20
-13.792586812
 10
-14.9897977994
 20
-13.8272254058
 10
-14.9626856022
 20
-13.8607372554
 10
-14.9344311749
 20
-13.893096739
 10
-14.9050632433
 20
-13.9242782345
 10
-14.8746105339
 20
-13.9542561203
 10
-14.843107219
 20
-13.9830053734
 10
-14.8106092571
 20
-14.0105033674
 10
-14.7771780532
 20
-14.036728075
 10
-14.7428731404
 20
-14.0616540033
 10
-14.7077465657
 20
-14.0852417962
 10
-14.6718485045
 20
-14.1074486319
 10
-14.6352211975
 20
-14.1282302998
 10
-14.5978751485
 20
-14.147537033
 10
-14.5598129267
 20
-14.1653176758
 10
-14.5210421886
 20
-14.181534143
 10
-14.4815909409
 20
-14.1962006332
 10
-14.4414922774
 20
-14.2093444157
 10
-14.4007909363
 20
-14.220997831
 10
-14.3595782318
 20
-14.2312135049
 10
-14.3179571224
 20
-14.2400491345
 10
-14.2760271182
 20
-14.2475575087
 10
-14.2338739362
 20
-14.2537717825
 10
-14.191579845
 20
-14.2587202029
 10
-14.1492157311
 20
-14.2624099513
 10
-14.1068069523
 20
-14.2647639474
 10
-14.0643674841
 20
-14.2656840458
 10
-14.0219103807
 20
-14.2651030245
 10
-13.9794450102
 20
-14.2630773569
 10
-13.9369798193
 20
-14.2596944403
 10
-13.8945367701
 20
-14.2550248645
 10
-13.8521918864
 20
-14.2490719913
 10
-13.8100347075
 20
-14.2418223751
 10
-13.7681580868
 20
-14.2332542544
 10
-13.7266681351
 20
-14.2233126039
 10
-13.6856742772
 20
-14.2119340825
 10
-13.6452729735
 20
-14.1990604156
 10
-13.6055088257
 20
-14.1846535955
 10
-13.5664134708
 20
-14.1686806813
 10
-13.5280138557
 20
-14.1511216472
 10
-13.4903181667
 20
-14.1320081296
 10
-13.4533298999
 20
-14.1113846799
 10
-13.4170610768
 20
-14.0892965955
 10
-13.3815578206
 20
-14.0657921561
 10
-13.3468747797
 20
-14.0409203873
 10
-13.3130671446
 20
-14.0147256824
 10
-13.280192273
 20
-13.9872339066
 10
-13.2483080647
 20
-13.958466293
 10
-13.2174705556
 20
-13.928445402
 10
-13.1877283267
 20
-13.8971991036
 10
-13.1591280953
 20
-13.8647565954
 10
-13.1317095658
 20
-13.8311453211
 10
-13.1054843911
 20
-13.7963857104
 10
-13.080457211
 20
-13.7604964393
 10
-13.0566387465
 20
-13.7235076947
 10
-13.0340640419
 20
-13.6854957078
 10
-13.0127742224
 20
-13.6465482205
 10
-12.9928104133
 20
-13.6067529749
 10
-12.9742137398
 20
-13.5661977132
 10
-12.9570253272
 20
-13.5249701773
 10
-12.941277903
 20
-13.4831576981
 10
-12.9269706041
 20
-13.4408459614
 10
-12.9140941696
 20
-13.3981202418
 10
-12.9026393388
 20
-13.3550658138
 10
-12.8925968508
 20
-13.311767952
 10
-12.8839574448
 20
-13.268311931
 10
-12.8754221134
 20
-13.2160432613
 10
-12.8688354429
 20
-13.1636205471
 10
-12.8641389916
 20
-13.1109946976
 10
-12.8612743177
 20
-13.0581166222
 10
-12.8601829796
 20
-13.0049372301
  0
LWPOLYLINE
  5
28E
100
AcDbEntity
  8
CURVE
100
AcDbPolyline
 62
253
  6
CONTINUOUS
 90
91
 70
0
 10
-15.5790413116
 20
-13.0048823534
 10
-15.57813741
 20
-12.9508365322
 10
-15.5754969869
 20
-12.8971753603
 10
-15.5712223217
 20
-12.843762163
 10
-15.5653891994
 20
-12.7904849675
 10
-15.5579674255
 20
-12.7373306114
 10
-15.548900311
 20
-12.6843106345
 10
-15.538131029
 20
-12.6314584766
 10
-15.5256022001
 20
-12.5788951786
 10
-15.5112563071
 20
-12.5267636812
 10
-15.4950442638
 20
-12.4751924511
 10
-15.4769507096
 20
-12.4242520594
 10
-15.4569687148
 20
-12.373998603
 10
-15.4351050278
 20
-12.3244916248
 10
-15.4114211084
 20
-12.2758044517
 10
-15.3859920941
 20
-12.2280138564
 10
-15.3588884544
 20
-12.1812003325
 10
-15.3301619867
 20
-12.1354592558
 10
-15.2998598201
 20
-12.0908897231
 10
-15.2680255438
 20
-12.0475806831
 10
-15.2346885859
 20
-12.0055804944
 10
-15.1998748343
 20
-11.9649273678
 10
-15.1636101771
 20
-11.9256595141
 10
-15.1259205023
 20
-11.8878151441
 10
-15.0868316979
 20
-11.8514324687
 10
-15.0463804775
 20
-11.8165494489
 10
-15.004646858
 20
-11.7832030474
 10
-14.9617216817
 20
-11.751429977
 10
-14.9176957913
 20
-11.7212669505
 10
-14.8726600291
 20
-11.6927506809
 10
-14.8267052376
 20
-11.665917881
 10
-14.7799111659
 20
-11.64080202
 10
-14.7323131901
 20
-11.6174235923
 10
-14.6839355928
 20
-11.5957998485
 10
-14.6348026566
 20
-11.5759480395
 10
-14.5849386641
 20
-11.5578854157
 10
-14.5343678981
 20
-11.5416292281
 10
-14.4831294068
 20
-11.5271865551
 10
-14.4313213016
 20
-11.5145237878
 10
-14.3790564597
 20
-11.5035971448
 10
-14.326446296
 20
-11.4943641734
 10
-14.2735963765
 20
-11.486787734
 10
-14.2206108049
 20
-11.4808320153
 10
-14.1675782647
 20
-11.4764794926
 10
-14.1145257585
 20
-11.4737857875
 10
-14.0614648686
 20
-11.4728248078
 10
-14.0084079061
 20
-11.4736457423
 10
-13.9553700976
 20
-11.4761989018
 10
-13.9023673987
 20
-11.4804098776
 10
-13.8494293009
 20
-11.4862217601
 10
-13.7966394397
 20
-11.4936476349
 10
-13.7440949866
 20
-11.5027180866
 10
-13.6918957417
 20
-11.5134661405
 10
-13.6401520196
 20
-11.5259345857
 10
-13.5889767636
 20
-11.540168652
 10
-13.538467443
 20
-11.55620378
 10
-13.4886596312
 20
-11.5740362539
 10
-13.4395734279
 20
-11.5936525687
 10
-13.3912289323
 20
-11.6150392195
 10
-13.3436462441
 20
-11.6381827013
 10
-13.2968454628
 20
-11.663069509
 10
-13.2508582745
 20
-11.6896824878
 10
-13.2057627118
 20
-11.7179898829
 10
-13.1616483941
 20
-11.7479562894
 10
-13.1186049409
 20
-11.7795463027
 10
-13.0767219713
 20
-11.8127245178
 10
-13.0360891047
 20
-11.8474555301
 10
-12.9967864347
 20
-11.8837048677
 10
-12.9588559521
 20
-11.9214417909
 10
-12.9223301216
 20
-11.9606364927
 10
-12.8872414081
 20
-12.0012591665
 10
-12.8536222766
 20
-12.0432800054
 10
-12.8215051919
 20
-12.0866692025
 10
-12.7909265188
 20
-12.1313838459
 10
-12.7619382208
 20
-12.1773286028
 10
-12.7345961615
 20
-12.2243950355
 10
-12.7089562043
 20
-12.272474706
 10
-12.6850742127
 20
-12.3214591764
 10
-12.6630060501
 20
-12.371240009
 10
-12.6427981681
 20
-12.4217211161
 10
-12.6244593712
 20
-12.472855811
 10
-12.6079890521
 20
-12.5246097575
 10
-12.5933837854
 20
-12.5769318637
 10
-12.5806288739
 20
-12.6297040155
 10
-12.5697068028
 20
-12.682791343
 10
-12.5605888149
 20
-12.7360759938
 10
-12.5532011854
 20
-12.7895081829
 10
-12.5474589474
 20
-12.8430551426
 10
-12.5432839389
 20
-12.8967167074
 10
-12.5406252172
 20
-12.9506231211
 10
-12.5394386441
 20
-13.0049372301
  0
LWPOLYLINE
  5
28F
100
AcDbEntity
  8
CURVE
100
AcDbPolyline
 62
253
  6
CONTINUOUS
 90
91
 70
0
 10
-14.8760217979
 20
13.0326503899
 10
-14.8751180275
 20
13.0866883145
 10
-14.8724805259
 20
13.1403405683
 10
-14.8682101461
 20
13.1937438976
 10
-14.8623814478
 20
13.2470102471
 10
-14.8549638154
 20
13.3001523551
 10
-14.8459003397
 20
13.3531581584
 10
-14.8351341946
 20
13.4059939205
 10
-14.8226088864
 20
13.4585392128
 10
-14.8082680043
 20
13.5106519332
 10
-14.7920636352
 20
13.5622045629
 10
-14.7739818546
 20
13.6131279155
 10
-14.7540172358
 20
13.6633673875
 10
-14.7321762544
 20
13.7128638429
 10
-14.7085129965
 20
13.7615400163
 10
-14.6830934507
 20
13.80931411
 10
-14.6559823276
 20
13.8561026491
 10
-14.6272392258
 20
13.9018154507
 10
-14.5969224658
 20
13.9463606547
 10
-14.5650845841
 20
13.9896552184
 10
-14.5317549815
 20
14.0316513675
 10
-14.4969572747
 20
14.0723101448
 10
-14.4607150802
 20
14.1115925931
 10
-14.423052015
 20
14.1494597553
 10
-14.3839916957
 20
14.1858726742
 10
-14.3435687578
 20
14.2207921678
 10
-14.3018619126
 20
14.2541781537
 10
-14.2589608902
 20
14.2859903251
 10
-14.2149554204
 20
14.3161883749
 10
-14.1699352335
 20
14.3447319959
 10
-14.1239900595
 20
14.3715808811
 10
-14.0771990715
 20
14.39669921
 10
-14.0295992158
 20
14.4200691083
 10
-13.9812168817
 20
14.4416771882
 10
-13.9320784584
 20
14.4615100622
 10
-13.8822103352
 20
14.4795543424
 10
-13.8316389016
 20
14.4957966411
 10
-13.780404512
 20
14.5102326357
 10
-13.7286033824
 20
14.522894264
 10
-13.6763456936
 20
14.5338225289
 10
-13.6237404126
 20
14.5430578463
 10
-13.5708916497
 20
14.5506382839
 10
-13.5179023007
 20
14.5566013225
 10
-13.4648601887
 20
14.5609654869
 10
-13.4117928449
 20
14.5636734765
 10
-13.3587127272
 20
14.5646490349
 10
-13.3056326697
 20
14.5638409373
 10
-13.2525670103
 20
14.561298087
 10
-13.1995304629
 20
14.5570944195
 10
-13.1465518319
 20
14.5512863274
 10
-13.0937162844
 20
14.5438600327
 10
-13.0411230784
 20
14.534784215
 10
-12.9888734888
 20
14.524025743
 10
-12.9370768593
 20
14.5115442424
 10
-12.8858445506
 20
14.4972975282
 10
-12.8352731881
 20
14.481252183
 10
-12.7854004542
 20
14.4634098602
 10
-12.7362492959
 20
14.4437809809
 10
-12.68784266
 20
14.4223759661
 10
-12.6402034934
 20
14.3992052369
 10
-12.5933547431
 20
14.3742792144
 10
-12.547330331
 20
14.3476132454
 10
-12.5022080795
 20
14.3192423795
 10
-12.4580767862
 20
14.289206592
 10
-12.4150252487
 20
14.2575458582
 10
-12.3731422644
 20
14.2243001536
 10
-12.3325166309
 20
14.1895094535
 10
-12.2932276843
 20
14.1532119336
 10
-12.2553169149
 20
14.1154385716
 10
-12.2188163517
 20
14.0762185457
 10
-12.1837580237
 20
14.035581034
 10
-12.1501739598
 20
13.9935552145
 10
-12.118096189
 20
13.9501702655
 10
-12.0875604649
 20
13.9054684487
 10
-12.0586174401
 20
13.8595443603
 10
-12.031321492
 20
13.8125056801
 10
-12.005726998
 20
13.7644600879
 10
-11.9818883355
 20
13.7155152636
 10
-11.9598598817
 20
13.6657788869
 10
-11.9396869459
 20
13.6153462182
 10
-11.9213785641
 20
13.5642628392
 10
-11.9049347045
 20
13.5125619119
 10
-11.8903523502
 20
13.460293073
 10
-11.8776165455
 20
13.4075718573
 10
-11.8667093501
 20
13.354530274
 10
-11.8576017663
 20
13.301284028
 10
-11.8502205671
 20
13.2478836075
 10
-11.8444814681
 20
13.1943631964
 10
-11.8403068587
 20
13.1407241411
 10
-11.8376458228
 20
13.0868364373
 10
-11.836454118
 20
13.0325372434
  0
LWPOLYLINE
  5
290
100
AcDbEntity
  8
ASSI
100
AcDbPolyline
 62
253
  6
CONTINUOUS
 90
12
 70
0
 10
-22.3973499119
 20
-21.474175262
 10
-22.3967363876
 20
-21.4717082763
 10
-22.3961262081
 20
-21.4680203215
 10
-22.3955193733
 20
-21.4631113977
 10
-22.394915128
 20
-21.4569724073
 10
-22.3943142274
 20
-21.4496124479
 10
-22.3937189378
 20
-21.4410588121
 10
-22.3931292899
 20
-21.4313070372
 10
-22.392545253
 20
-21.4203615859
 10
-22.391969001
 20
-21.4082631397
 10
-22.3914005674
 20
-21.3950074816
 10
-22.3902891286
 20
-21.3650905133
  0
LINE
  5
291
100
AcDbEntity
  8
CURVE
100
AcDbLine
 62
253
  6
CONTINUOUS
 10
-9.3531145588
 20
-14.4628972298
 11
-9.6491996471
 21
-14.4628972298
  0
LINE
  5
292
100
AcDbEntity
  8
CURVE
100
AcDbLine
 62
253
  6
CONTINUOUS
 10
-11.6458525558
 20
-14.4628972298
 11
-11.9419024243
 21
-14.4628972298
  0
LWPOLYLINE
  5
293
100
AcDbEntity
  8
CURVE
100
AcDbPolyline
 62
253
  6
CONTINUOUS
 90
90
 70
0
 10
-12.8601829796
 20
-13.0049372301
 10
-12.8612681765
 20
-12.951914642
 10
-12.864114888
 20
-12.8992076416
 10
-12.868780267
 20
-12.8467648157
 10
-12.8753214661
 20
-12.7945347513
 10
-12.8837956379
 20
-12.7424660353
 10
-12.8923705086
 20
-12.6991814471
 10
-12.9023319947
 20
-12.6560625397
 10
-12.9136846799
 20
-12.61319865
 10
-12.9264331482
 20
-12.5706791148
 10
-12.9405819834
 20
-12.5285932709
 10
-12.9561357692
 20
-12.4870304552
 10
-12.9730929872
 20
-12.4460774674
 10
-12.9914277093
 20
-12.4058109591
 10
-13.0111079051
 20
-12.3663050447
 10
-13.0321015442
 20
-12.3276338385
 10
-13.0543765961
 20
-12.289871455
 10
-13.0779010306
 20
-12.2530920085
 10
-13.1026440087
 20
-12.2173620771
 10
-13.1285794576
 20
-12.182718094
 10
-13.1556824959
 20
-12.1491889559
 10
-13.1839282424
 20
-12.1168035596
 10
-13.2132918157
 20
-12.0855908018
 10
-13.2437483346
 20
-12.0555795794
 10
-13.2752664626
 20
-12.0267978761
 10
-13.3077890426
 20
-11.9992700241
 10
-13.3412524624
 20
-11.9730194427
 10
-13.3755951478
 20
-11.9480730576
 10
-13.4107636758
 20
-11.92447182
 10
-13.4467066614
 20
-11.902260188
 10
-13.4833806059
 20
-11.8814829317
 10
-13.5207735554
 20
-11.8621860715
 10
-13.5588814421
 20
-11.84441594
 10
-13.597695291
 20
-11.8282067476
 10
-13.6371864972
 20
-11.8135442169
 10
-13.6773215481
 20
-11.8004019482
 10
-13.718055591
 20
-11.7887487287
 10
-13.7592984113
 20
-11.7785340943
 10
-13.8009484537
 20
-11.7697027675
 10
-13.8429073441
 20
-11.7622040472
 10
-13.8850894321
 20
-11.7560055376
 10
-13.9274122484
 20
-11.7510794187
 10
-13.9698047529
 20
-11.7474175693
 10
-14.0122416226
 20
-11.7450906625
 10
-14.0547089638
 20
-11.7441890697
 10
-14.0971939357
 20
-11.7447747949
 10
-14.1396879079
 20
-11.7467963718
 10
-14.1821833029
 20
-11.7501739667
 10
-14.2246586279
 20
-11.7548437087
 10
-14.2670367289
 20
-11.7608055795
 10
-14.3092265364
 20
-11.7680755237
 10
-14.3511340693
 20
-11.7766768939
 10
-14.3926536983
 20
-11.7866626742
 10
-14.4336768823
 20
-11.7980932565
 10
-14.4741079257
 20
-11.8110239315
 10
-14.513902515
 20
-11.8254895836
 10
-14.5530291821
 20
-11.841519996
 10
-14.5914606988
 20
-11.8591330339
 10
-14.6291867954
 20
-11.8782988901
 10
-14.666201442
 20
-11.8989758394
 10
-14.7024904992
 20
-11.9211211599
 10
-14.7380073897
 20
-11.9446881413
 10
-14.7726974269
 20
-11.9696290767
 10
-14.806504273
 20
-11.9958989504
 10
-14.839364986
 20
-12.023463513
 10
-14.8712149727
 20
-12.0522912061
 10
-14.9019958921
 20
-12.0823523429
 10
-14.9316744121
 20
-12.1136247209
 10
-14.9602234523
 20
-12.1460880091
 10
-14.9876159329
 20
-12.1797218761
 10
-15.0138247736
 20
-12.214505991
 10
-15.0388228944
 20
-12.2504200225
 10
-15.0625824878
 20
-12.2874308739
 10
-15.0850728364
 20
-12.3254543872
 10
-15.1062624954
 20
-12.3643936387
 10
-15.1261200202
 20
-12.4041517048
 10
-15.1446139659
 20
-12.444631662
 10
-15.1617128879
 20
-12.4857365865
 10
-15.1773919563
 20
-12.5273804118
 10
-15.1916528015
 20
-12.5695204996
 10
-15.2045036689
 20
-12.6121250686
 10
-15.2159508246
 20
-12.6551466691
 10
-15.2259926176
 20
-12.6984751791
 10
-15.2346254177
 20
-12.7419848085
 10
-15.2418553198
 20
-12.7855711697
 10
-15.2477273194
 20
-12.829215487
 10
-15.252296137
 20
-12.8729203874
 10
-15.2556004266
 20
-12.916704238
 10
-15.2576145758
 20
-12.9606483664
 10
-15.2582969057
 20
-13.0048498402
  0
LWPOLYLINE
  5
294
100
AcDbEntity
  8
CURVE
100
AcDbPolyline
 62
253
  6
CONTINUOUS
 90
90
 70
0
 10
-14.555311521
 20
13.032624626
 10
-14.5546360951
 20
12.9884848274
 10
-14.5526327494
 20
12.9446070531
 10
-14.5493434528
 20
12.9008965673
 10
-14.5447942211
 20
12.8572732129
 10
-14.538947258
 20
12.8137151472
 10
-14.5317488141
 20
12.7702151063
 10
-14.5231544341
 20
12.7267889462
 10
-14.5131568388
 20
12.6835450018
 10
-14.5017580432
 20
12.6406147281
 10
-14.4889602544
 20
12.5981144558
 10
-14.4747664492
 20
12.5561000179
 10
-14.4591797966
 20
12.5146121233
 10
-14.4422074572
 20
12.473698801
 10
-14.4238725586
 20
12.4334373594
 10
-14.4042022197
 20
12.3939124273
 10
-14.3832235596
 20
12.3552086332
 10
-14.3609636975
 20
12.3174106058
 10
-14.3374497522
 20
12.2806029738
 10
-14.312709042
 20
12.2448605827
 10
-14.2867696805
 20
12.2102191466
 10
-14.2596599804
 20
12.1767045964
 10
-14.2314082545
 20
12.144342863
 10
-14.2020428154
 20
12.1131598776
 10
-14.171591976
 20
12.0831815711
 10
-14.1400896174
 20
12.0544331982
 10
-14.1075918953
 20
12.0269373087
 10
-14.0741605339
 20
12.0007157763
 10
-14.0398553566
 20
11.9757939779
 10
-14.0047285833
 20
11.9522113043
 10
-13.9688305333
 20
11.9300106494
 10
-13.9322035586
 20
11.9092362368
 10
-13.8948581438
 20
11.8899376074
 10
-13.8567968062
 20
11.8721656314
 10
-13.8180272235
 20
11.8559580201
 10
-13.778577715
 20
11.8412998491
 10
-13.7384817602
 20
11.828163035
 10
-13.6977843552
 20
11.8165145601
 10
-13.6565765634
 20
11.8063016702
 10
-13.6149609647
 20
11.797466677
 10
-13.5730366704
 20
11.7899567887
 10
-13.5308889183
 20
11.7837388002
 10
-13.4885994775
 20
11.7787844032
 10
-13.4462388587
 20
11.7750864795
 10
-13.4038325399
 20
11.7727226715
 10
-13.3613947406
 20
11.7717918119
 10
-13.3189386774
 20
11.7723618333
 10
-13.2764735555
 20
11.7743770667
 10
-13.2340075769
 20
11.7777509429
 10
-13.1915625695
 20
11.7824135376
 10
-13.1492148643
 20
11.7883615063
 10
-13.1070544181
 20
11.7956081492
 10
-13.0651744864
 20
11.8041751056
 10
-13.0236815196
 20
11.8141173703
 10
-12.9826852671
 20
11.8254982773
 10
-12.942282421
 20
11.8383760024
 10
-12.9025174452
 20
11.8527880903
 10
-12.8634217462
 20
11.8687669275
 10
-12.8250219533
 20
11.8863318908
 10
-12.7873255851
 20
11.9054503175
 10
-12.7503353829
 20
11.9260765351
 10
-12.7140627706
 20
11.9481643724
 10
-12.6785539035
 20
11.9716656629
 10
-12.6438636198
 20
11.9965317414
 10
-12.6100474462
 20
12.0227187765
 10
-12.5771636639
 20
12.0502022718
 10
-12.5452712424
 20
12.0789625644
 10
-12.5144273003
 20
12.1089784963
 10
-12.4846815508
 20
12.140222928
 10
-12.4560818559
 20
12.1726672245
 10
-12.4286685861
 20
12.2062841231
 10
-12.4024521453
 20
12.2410518487
 10
-12.3774354459
 20
12.2769499985
 10
-12.3536276849
 20
12.3139469357
 10
-12.3310631983
 20
12.3519660881
 10
-12.3097826064
 20
12.3909196498
 10
-12.2898265299
 20
12.4307198147
 10
-12.2712355893
 20
12.4712787769
 10
-12.2540504051
 20
12.5125087304
 10
-12.2383033955
 20
12.5543223409
 10
-12.2239941689
 20
12.5966341611
 10
-12.2111141314
 20
12.6393592156
 10
-12.199654689
 20
12.6824125288
 10
-12.1896072479
 20
12.7257091251
 10
-12.1809632141
 20
12.7691640291
 10
-12.1724233714
 20
12.8214318582
 10
-12.1658328138
 20
12.8738541898
 10
-12.1611322947
 20
12.9264799283
 10
-12.1582625681
 20
12.9793579781
 10
-12.1571643876
 20
13.0325372434
  0
LWPOLYLINE
  5
295
100
AcDbEntity
  8
ASSI
100
AcDbPolyline
 62
253
  6
CONTINUOUS
 90
85
 70
0
 10
-12.8024286232
 20
-4.4756649875
 10
-12.8015004108
 20
-4.4233150188
 10
-12.7986104841
 20
-4.370994889
 10
-12.7937588432
 20
-4.3187045986
 10
-12.7869449284
 20
-4.2663423385
 10
-12.7781692993
 20
-4.214009919
 10
-12.7674336346
 20
-4.162012771
 10
-12.7547175175
 20
-4.1103528148
 10
-12.7400413648
 20
-4.0590281331
 10
-12.7234681061
 20
-4.008338402
 10
-12.7049800733
 20
-3.9582930687
 10
-12.6845949346
 20
-3.9088826902
 10
-12.6624286233
 20
-3.8603786097
 10
-12.6384808626
 20
-3.8128104478
 10
-12.6127519294
 20
-3.766148589
 10
-12.5853585876
 20
-3.7205755231
 10
-12.5563044619
 20
-3.6761050967
 10
-12.5255859276
 20
-3.6327234685
 10
-12.4933088746
 20
-3.5905715971
 10
-12.4594628957
 20
-3.5496428054
 10
-12.4240583981
 20
-3.5099437754
 10
-12.3872324943
 20
-3.4716355055
 10
-12.3489711428
 20
-3.4347166697
 10
-12.3092883852
 20
-3.3991885988
 10
-12.2683634583
 20
-3.365216276
 10
-12.2261929299
 20
-3.3328103725
 10
-12.1827802323
 20
-3.3019602216
 10
-12.1383149002
 20
-3.2727988012
 10
-12.0927964491
 20
-3.2453358699
 10
-12.0462253635
 20
-3.2195616729
 10
-11.9987926312
 20
-3.1955799176
 10
-11.9504946773
 20
-3.1733972612
 10
-11.9013350767
 20
-3.1530070498
 10
-11.8515155418
 20
-3.1344930235
 10
-11.801031189
 20
-3.1178621096
 10
-11.749886902
 20
-3.1031073835
 10
-11.698299044
 20
-3.0902918071
 10
-11.6462658869
 20
-3.0794238301
 10
-11.5937891589
 20
-3.0704950046
 10
-11.5410904076
 20
-3.063542947
 10
-11.4881694916
 20
-3.0585760896
 10
-11.4350265524
 20
-3.055586001
 10
-11.3818835622
 20
-3.0545850016
 10
-11.3287405382
 20
-3.0555813031
 10
-11.2755974632
 20
-3.0585666938
 10
-11.2226762586
 20
-3.0635288595
 10
-11.1699770721
 20
-3.0704762212
 10
-11.117499756
 20
-3.0794003571
 10
-11.0654657877
 20
-3.0902636874
 10
-11.0138768412
 20
-3.1030746736
 10
-10.9627312425
 20
-3.1178248525
 10
-10.9122454469
 20
-3.1344512581
 10
-10.8624243135
 20
-3.1529608465
 10
-10.8132629833
 20
-3.1733466591
 10
-10.7649633348
 20
-3.1955248576
 10
-10.7175290722
 20
-3.2195020302
 10
-10.6709564913
 20
-3.2452715856
 10
-10.6254363582
 20
-3.2727299158
 10
-10.5809692236
 20
-3.3018866597
 10
-10.5375545369
 20
-3.3327321746
 10
-10.4953814118
 20
-3.3651339306
 10
-10.4544530405
 20
-3.3991027505
 10
-10.414766231
 20
-3.434627807
 10
-10.3765005206
 20
-3.4715440956
 10
-10.3396697344
 20
-3.5098506929
 10
-10.3042600474
 20
-3.5495485174
 10
-10.2704095222
 20
-3.5904753272
 10
-10.2381289409
 20
-3.6326241974
 10
-10.2074075214
 20
-3.6760020479
 10
-10.1783509807
 20
-3.7204674044
 10
-10.1509560791
 20
-3.766033177
 10
-10.1252260563
 20
-3.8126864504
 10
-10.1012763484
 20
-3.860247013
 10
-10.0791068632
 20
-3.9087443321
 10
-10.0587176928
 20
-3.9581489353
 10
-10.0402245498
 20
-4.0081922026
 10
-10.0236446221
 20
-4.0588844231
 10
-10.0089607218
 20
-4.1102153035
 10
-9.9962369979
 20
-4.1618853514
 10
-9.9854938542
 20
-4.2138971105
 10
-9.9767108869
 20
-4.2662480343
 10
-9.9698910329
 20
-4.3186309969
 10
-9.9650352712
 20
-4.3709436229
 10
-9.9621426227
 20
-4.4232882867
 10
-9.9612130876
 20
-4.4756649875
  0
LWPOLYLINE
  5
296
100
AcDbEntity
  8
ASSI
100
AcDbPolyline
 62
253
  6
CONTINUOUS
 90
85
 70
0
 10
-12.8024286232
 20
4.5261353726
 10
-12.8014843245
 20
4.5784751502
 10
-12.798579048
 20
4.6307845798
 10
-12.793712794
 20
4.683063661
 10
-12.7868849794
 20
4.7354141534
 10
-12.7780961872
 20
4.7877342961
 10
-12.7673481657
 20
4.8397188092
 10
-12.7546205123
 20
4.8913657707
 10
-12.7399336297
 20
4.9426771034
 10
-12.7233504737
 20
4.9933532958
 10
-12.7048533872
 20
5.0433849145
 10
-12.6844600275
 20
5.0927813957
 10
-12.662286322
 20
5.1412715334
 10
-12.6383319862
 20
5.1888257459
 10
-12.6125973047
 20
5.2354736195
 10
-12.5851990583
 20
5.2810327013
 10
-12.5561408699
 20
5.3254891451
 10
-12.5254191166
 20
5.3688568025
 10
-12.4931397116
 20
5.4109947687
 10
-12.4592922571
 20
5.4519097064
 10
-12.4238871508
 20
5.4915949589
 10
-12.3870614985
 20
5.5298896424
 10
-12.3488012659
 20
5.5667950839
 10
-12.3091204873
 20
5.6023099629
 10
-12.2681983708
 20
5.6362694254
 10
-12.2260314905
 20
5.6686628077
 10
-12.1826232724
 20
5.6995007803
 10
-12.1381632022
 20
5.7286504907
 10
-12.0926508083
 20
5.7561021846
 10
-12.0460865623
 20
5.7818656227
 10
-11.9986613645
 20
5.8058372255
 10
-11.9503716526
 20
5.8280103429
 10
-11.9012209889
 20
5.8483916307
 10
-11.8514109609
 20
5.8668974677
 10
-11.8009366999
 20
5.8835209367
 10
-11.7498030746
 20
5.8982689595
 10
-11.6982262791
 20
5.9110786739
 10
-11.6462045927
 20
5.9219416449
 10
-11.593739736
 20
5.9308663106
 10
-11.5410530652
 20
5.9378151187
 10
-11.4881444446
 20
5.9427796515
 10
-11.4350140098
 20
5.9457683283
 10
-11.3818835241
 20
5.9467688508
 10
-11.3287530047
 20
5.9457730222
 10
-11.2756224345
 20
5.9427890394
 10
-11.2227135256
 20
5.9378291944
 10
-11.17002642
 20
5.9308850782
 10
-11.1175609758
 20
5.9219650981
 10
-11.0655384789
 20
5.91110677
 10
-11.013960596
 20
5.898301642
 10
-10.9628256604
 20
5.8835581627
 10
-10.9123499582
 20
5.8669391983
 10
-10.8625383336
 20
5.8484377957
 10
-10.8133859424
 20
5.8280609035
 10
-10.765094538
 20
5.8058922405
 10
-10.7176678121
 20
5.7819252171
 10
-10.6711020729
 20
5.7561664173
 10
-10.6255879992
 20
5.728719321
 10
-10.5811261286
 20
5.6995742836
 10
-10.5377159234
 20
5.6687409435
 10
-10.4955464489
 20
5.6363517055
 10
-10.4546208905
 20
5.6023957428
 10
-10.4149360628
 20
5.5668838756
 10
-10.3766714748
 20
5.5299809796
 10
-10.3398409443
 20
5.4916879683
 10
-10.3044306534
 20
5.4520039216
 10
-10.2705786577
 20
5.4110909664
 10
-10.2382957292
 20
5.3689560022
 10
-10.2075710959
 20
5.3255921234
 10
-10.178510497
 20
5.2811407488
 10
-10.1511106944
 20
5.2355889569
 10
-10.1253749263
 20
5.1889496637
 10
-10.1014186462
 20
5.1414030452
 10
-10.0792417699
 20
5.0929196627
 10
-10.0588443817
 20
5.0435289504
 10
-10.0403421883
 20
4.9934993943
 10
-10.023752367
 20
4.9428207132
 10
-10.0090577404
 20
4.8915031854
 10
-9.9963224828
 20
4.8398461389
 10
-9.9855669837
 20
4.7878470253
 10
-9.9767708536
 20
4.7355083919
 10
-9.9699370983
 20
4.683137212
 10
-9.9650667199
 20
4.6308358107
 10
-9.9621587163
 20
4.5785018641
 10
-9.9612130876
 20
4.5261353726
  0
LWPOLYLINE
  5
297
100
AcDbEntity
  8
ASSI
100
AcDbPolyline
 62
253
  6
CONTINUOUS
 90
85
 70
0
 10
-12.7024438537
 20
-4.4747648074
 10
-12.7015592674
 20
-4.4262135235
 10
-12.6988775938
 20
-4.377555827
 10
-12.6943834681
 20
-4.3288590314
 10
-12.6880604204
 20
-4.2801674064
 10
-12.6798999549
 20
-4.2315752147
 10
-12.669910655
 20
-4.1832251093
 10
-12.6580954623
 20
-4.1351861361
 10
-12.6444603657
 20
-4.0875291477
 10
-12.6290388941
 20
-4.0403961544
 10
-12.6118516861
 20
-3.993857733
 10
-12.5929195879
 20
-3.9479770457
 10
-12.5722952857
 20
-3.902878799
 10
-12.5500235623
 20
-3.8586460279
 10
-12.5261303905
 20
-3.8153165492
 10
-12.5006496256
 20
-3.7729426504
 10
-12.4736272179
 20
-3.7315916819
 10
-12.4450982863
 20
-3.6913088479
 10
-12.4150787742
 20
-3.6521140018
 10
-12.3836027848
 20
-3.6140541638
 10
-12.3507201558
 20
-3.5771919724
 10
-12.3164686327
 20
-3.5415720062
 10
-12.2808874326
 20
-3.5072388873
 10
-12.2440316847
 20
-3.4742495061
 10
-12.2059664319
 20
-3.4426634904
 10
-12.1667481355
 20
-3.4125273993
 10
-12.1264289503
 20
-3.3838810236
 10
-12.0850717896
 20
-3.3567685289
 10
-12.0427388993
 20
-3.3312294055
 10
-11.9994864541
 20
-3.3072962564
 10
-11.9553704348
 20
-3.2849994353
 10
-11.9104524199
 20
-3.264369831
 10
-11.864795761
 20
-3.2454363086
 10
-11.8184602642
 20
-3.2282236907
 10
-11.7715087056
 20
-3.2127557168
 10
-11.7240087853
 20
-3.1990551043
 10
-11.6760288757
 20
-3.1871417427
 10
-11.6276363941
 20
-3.1770324172
 10
-11.5788989628
 20
-3.1687412991
 10
-11.5298862191
 20
-3.1622802113
 10
-11.4806676033
 20
-3.1576581667
 10
-11.4313113628
 20
-3.1548814334
 10
-11.3818857898
 20
-3.1539538027
 10
-11.3324601591
 20
-3.1548765718
 10
-11.2831037141
 20
-3.1576484452
 10
-11.2338846996
 20
-3.1622656398
 10
-11.1848713687
 20
-3.1687218945
 10
-11.1361331575
 20
-3.1770082053
 10
-11.0877396422
 20
-3.1871127717
 10
-11.039758392
 20
-3.1990214525
 10
-10.9922568863
 20
-3.2127174663
 10
-10.9453036083
 20
-3.2281809011
 10
-10.8989662373
 20
-3.2453890512
 10
-10.8533075744
 20
-3.2643181716
 10
-10.8083875951
 20
-3.2849433609
 10
-10.7642697627
 20
-3.3072356742
 10
-10.7210155219
 20
-3.3311642615
 10
-10.6786806556
 20
-3.3566988713
 10
-10.6373214331
 20
-3.3838068434
 10
-10.597000003
 20
-3.4124487518
 10
-10.5577788423
 20
-3.4425807888
 10
-10.5197099507
 20
-3.4741633886
 10
-10.4828500449
 20
-3.5071498898
 10
-10.4472643729
 20
-3.541480561
 10
-10.4130078201
 20
-3.5770988431
 10
-10.3801199443
 20
-3.6139598562
 10
-10.3486394376
 20
-3.652017904
 10
-10.3186162767
 20
-3.6912099623
 10
-10.2900842224
 20
-3.7314892264
 10
-10.2630592829
 20
-3.7728355085
 10
-10.2375768977
 20
-3.8152027365
 10
-10.2136823607
 20
-3.858524255
 10
-10.1914083271
 20
-3.9027499145
 10
-10.1707808624
 20
-3.9478419728
 10
-10.1518448537
 20
-3.9937174611
 10
-10.1346523037
 20
-4.0402540215
 10
-10.1192241843
 20
-4.087389419
 10
-10.1055818151
 20
-4.1350524099
 10
-10.0937591325
 20
-4.1831009999
 10
-10.0837624436
 20
-4.2314647206
 10
-10.0755951631
 20
-4.280074207
 10
-10.0692663843
 20
-4.328785701
 10
-10.0647678963
 20
-4.3775045214
 10
-10.0620834264
 20
-4.4261866906
 10
-10.0611978571
 20
-4.4747648074
  0
LWPOLYLINE
  5
298
100
AcDbEntity
  8
ASSI
100
AcDbPolyline
 62
253
  6
CONTINUOUS
 90
85
 70
0
 10
-12.7024438537
 20
4.5252351926
 10
-12.7015431544
 20
4.5737770073
 10
-12.6988460574
 20
4.6224246182
 10
-12.6943372045
 20
4.6711107421
 10
-12.6880001016
 20
4.7197911242
 10
-12.6798262878
 20
4.7683715424
 10
-12.6698244329
 20
4.8167094239
 10
-12.6579974728
 20
4.8647357641
 10
-12.6443513894
 20
4.9123797441
 10
-12.6289197804
 20
4.9594994424
 10
-12.6117232643
 20
5.0060243395
 10
-12.5927826685
 20
5.0518913007
 10
-12.5721507366
 20
5.0969756831
 10
-12.5498722138
 20
5.1411945339
 10
-12.5259730501
 20
5.184510043
 10
-12.5004871821
 20
5.2268698915
 10
-12.4734605385
 20
5.2682067787
 10
-12.4449282065
 20
5.3084755457
 10
-12.4149062092
 20
5.3476563193
 10
-12.3834286356
 20
5.3857021163
 10
-12.3505452879
 20
5.4225503614
 10
-12.316293965
 20
5.4581565114
 10
-12.2807138555
 20
5.492475995
 10
-12.2438600539
 20
5.5254519724
 10
-12.2057976463
 20
5.557024865
 10
-12.1665830549
 20
5.5871481705
 10
-12.1262683932
 20
5.6157821431
 10
-12.0849166105
 20
5.6428826618
 10
-12.0425899116
 20
5.6684102882
 10
-11.9993444166
 20
5.6923324669
 10
-11.9552361186
 20
5.714618894
 10
-11.9103265459
 20
5.7352387281
 10
-11.8646789881
 20
5.754163147
 10
-11.8183532416
 20
5.7713673776
 10
-11.7714120264
 20
5.7868277205
 10
-11.7239229708
 20
5.8005214941
 10
-11.6759544081
 20
5.8124288534
 10
-11.6275736867
 20
5.8225330448
 10
-11.5788483555
 20
5.8308199191
 10
-11.5298480017
 20
5.8372776815
 10
-11.4806419929
 20
5.8418973387
 10
-11.4312984979
 20
5.8446726316
 10
-11.3818857477
 20
5.8455997789
 10
-11.33247294
 20
5.8446774888
 10
-11.2831292409
 20
5.8419070514
 10
-11.2339228339
 20
5.8372922399
 10
-11.1849218936
 20
5.8308393061
 10
-11.1361957832
 20
5.8225572348
 10
-11.0878140293
 20
5.8124577982
 10
-11.0398441275
 20
5.8005551157
 10
-10.9923534881
 20
5.7868659368
 10
-10.9454105556
 20
5.771410129
 10
-10.8990829372
 20
5.7542103626
 10
-10.8534333781
 20
5.7352903421
 10
-10.8085218434
 20
5.7146749195
 10
-10.7644117349
 20
5.6923929967
 10
-10.721164447
 20
5.6684753763
 10
-10.6788357747
 20
5.6429522602
 10
-10.6374819327
 20
5.6158562607
 10
-10.5971650287
 20
5.5872267519
 10
-10.5579475758
 20
5.5571074973
 10
-10.5198815325
 20
5.5255380179
 10
-10.4830235763
 20
5.4925649179
 10
-10.4474389986
 20
5.4582478804
 10
-10.4131826507
 20
5.4226434142
 10
-10.3802940613
 20
5.385796348
 10
-10.3488119756
 20
5.3477523417
 10
-10.3187863347
 20
5.3085743567
 10
-10.2902508852
 20
5.2683091604
 10
-10.2632217143
 20
5.226976959
 10
-10.2377342296
 20
5.1846237782
 10
-10.2138337042
 20
5.1413162247
 10
-10.1915528746
 20
5.0971044809
 10
-10.1709177833
 20
5.0520262814
 10
-10.1519732804
 20
5.0061645134
 10
-10.134771426
 20
4.9596414747
 10
-10.119333173
 20
4.9125193733
 10
-10.1056798205
 20
4.8648693947
 10
-10.093845373
 20
4.8168334446
 10
-10.0838361306
 20
4.7684819582
 10
-10.0756555017
 20
4.7198842583
 10
-10.0693126658
 20
4.6711840219
 10
-10.0647994469
 20
4.622475889
 10
-10.0620995477
 20
4.5738038224
 10
-10.0611978571
 20
4.5252351926
  0
LINE
  5
299
100
AcDbEntity
  8
ASSI
100
AcDbLine
 62
253
  6
CONTINUOUS
 10
-22.4686669504
 20
-21.6883003672
 11
-22.3973499119
 21
-21.474175262
  0
LINE
  5
29A
100
AcDbEntity
  8
ASSI
100
AcDbLine
 62
253
  6
CONTINUOUS
 10
-21.9682871271
 20
-22.186246095
 11
-21.8974262694
 21
-21.9734906454
  0
LINE
  5
29B
100
AcDbEntity
  8
CURVE
100
AcDbLine
 62
253
  6
CONTINUOUS
 10
-7.9937207045
 20
-13.0829363968
 11
-9.3531145588
 21
-13.0829363968
  0
LINE
  5
29C
100
AcDbEntity
  8
CURVE
100
AcDbLine
 62
253
  6
CONTINUOUS
 10
-10.2864234238
 20
-13.0829363968
 11
-11.6458525558
 21
-13.0829363968
  0
LINE
  5
29D
100
AcDbEntity
  8
CURVE
100
AcDbLine
 62
253
  6
CONTINUOUS
 10
-11.6458525558
 20
-12.8115797302
 11
-10.2864234238
 21
-12.8115797302
  0
LINE
  5
29E
100
AcDbEntity
  8
CURVE
100
AcDbLine
 62
253
  6
CONTINUOUS
 10
-9.3531145588
 20
-12.8115797302
 11
-7.9937207045
 21
-12.8115797302
  0
LINE
  5
29F
100
AcDbEntity
  8
ASSI
100
AcDbLine
 62
253
  6
CONTINUOUS
 10
-22.3973499119
 20
21.5246456472
 11
-22.4686669504
 21
21.7387707523
  0
LINE
  5
2A0
100
AcDbEntity
  8
ASSI
100
AcDbLine
 62
253
  6
CONTINUOUS
 10
-21.8974262694
 20
22.0239610305
 11
-21.9682871271
 21
22.2367164801
  0
LWPOLYLINE
  5
2A1
100
AcDbEntity
  8
CURVE
100
AcDbPolyline
 62
253
  6
CONTINUOUS
 90
90
 70
0
 10
-12.1571643876
 20
13.0325372434
 10
-12.1582568862
 20
13.0855625858
 10
-12.161109622
 20
13.1382716968
 10
-12.1657799141
 20
13.1907157171
 10
-12.1723250813
 20
13.2429457879
 10
-12.1808024427
 20
13.29501305
 10
-12.1893795215
 20
13.3382952192
 10
-12.1993430362
 20
13.3814109735
 10
-12.2106978165
 20
13.4242714449
 10
-12.223448692
 20
13.4667877657
 10
-12.2376004922
 20
13.5088710679
 10
-12.2531580469
 20
13.5504324835
 10
-12.2701195665
 20
13.5913855586
 10
-12.288456786
 20
13.6316534949
 10
-12.308134821
 20
13.671161908
 10
-12.3291187873
 20
13.7098364133
 10
-12.3513738006
 20
13.7476026266
 10
-12.3748649767
 20
13.7843861633
 10
-12.3995622463
 20
13.8201202005
 10
-12.4254547996
 20
13.8547681608
 10
-12.4525366419
 20
13.8883010282
 10
-12.4807952311
 20
13.9206895949
 10
-12.5101918365
 20
13.9519038857
 10
-12.5406811801
 20
13.9819137338
 10
-12.572216372
 20
14.0106904734
 10
-12.604744074
 20
14.0382114448
 10
-12.638209336
 20
14.0644554896
 10
-12.6725573031
 20
14.089397601
 10
-12.7077335013
 20
14.1129973785
 10
-12.7436835515
 20
14.1352105735
 10
-12.7803617129
 20
14.1559924095
 10
-12.8177567964
 20
14.1752960002
 10
-12.8558662508
 20
14.1930739312
 10
-12.8946823661
 20
14.2092909858
 10
-12.9341767956
 20
14.2239607357
 10
-12.9743160339
 20
14.2371089499
 10
-13.0150551847
 20
14.2487663077
 10
-13.0563037886
 20
14.2589831299
 10
-13.0979599956
 20
14.2678146471
 10
-13.139925105
 20
14.2753115052
 10
-13.1821130136
 20
14.2815060087
 10
-13.2244407676
 20
14.2864258769
 10
-13.2668369639
 20
14.2900792653
 10
-13.3092764028
 20
14.2923960743
 10
-13.3517454353
 20
14.2932866401
 10
-13.3942313749
 20
14.2926896838
 10
-13.436725387
 20
14.2906574648
 10
-13.4792195995
 20
14.287270627
 10
-13.5216923585
 20
14.282593704
 10
-13.564066884
 20
14.2766267875
 10
-13.606252614
 20
14.269353859
 10
-13.6481560548
 20
14.2607515172
 10
-13.6896719849
 20
14.2507668309
 10
-13.7306922509
 20
14.2393394862
 10
-13.7711214127
 20
14.2264141256
 10
-13.8109148834
 20
14.2119552159
 10
-13.8500407892
 20
14.1959321803
 10
-13.8884715781
 20
14.1783264445
 10
-13.9261969842
 20
14.1591674454
 10
-13.9632110633
 20
14.1384966226
 10
-13.9994997194
 20
14.1163564737
 10
-14.0350162499
 20
14.0927937292
 10
-14.0697058009
 20
14.0678561779
 10
-14.1035118396
 20
14.0415888877
 10
-14.1363711202
 20
14.0140260444
 10
-14.1682187181
 20
13.9851991131
 10
-14.1989960936
 20
13.9551377543
 10
-14.228670246
 20
13.9238644112
 10
-14.2572145589
 20
13.8913997222
 10
-14.2846024161
 20
13.857764326
 10
-14.3108072015
 20
13.8229788611
 10
-14.3358022989
 20
13.7870639661
 10
-14.3595602696
 20
13.7500529634
 10
-14.3820503854
 20
13.7120299108
 10
-14.4032410957
 20
13.6730915499
 10
-14.4231008499
 20
13.6333346222
 10
-14.4415980974
 20
13.5928558694
 10
-14.4587012874
 20
13.5517520332
 10
-14.4743853754
 20
13.5101090033
 10
-14.4886513408
 20
13.467969263
 10
-14.5015066691
 20
13.4253644438
 10
-14.5129570646
 20
13.3823419168
 10
-14.5230011075
 20
13.3390120118
 10
-14.5316355968
 20
13.2955007983
 10
-14.5388669691
 20
13.2519128803
 10
-14.5447402103
 20
13.2082670004
 10
-14.5493099441
 20
13.1645604358
 10
-14.5526147637
 20
13.1207747309
 10
-14.5546291418
 20
13.0768285004
 10
-14.555311521
 20
13.032624626
  0
LINE
  5
2A2
100
AcDbEntity
  8
CURVE
100
AcDbLine
 62
253
  6
CONTINUOUS
 10
-11.9419024243
 20
-14.4628972298
 11
-11.9419024243
 21
-11.546977164
  0
LINE
  5
2A3
100
AcDbEntity
  8
CURVE
100
AcDbLine
 62
253
  6
CONTINUOUS
 10
-11.6458525558
 20
-11.818192786
 11
-11.6458525558
 21
-12.8115796958
  0
LINE
  5
2A4
100
AcDbEntity
  8
CURVE
100
AcDbLine
 62
253
  6
CONTINUOUS
 10
-11.6458525558
 20
-13.0829363968
 11
-11.6458525558
 21
-14.4628971943
  0
LINE
  5
2A5
100
AcDbEntity
  8
CURVE
100
AcDbLine
 62
253
  6
CONTINUOUS
 10
-11.2389181909
 20
11.5745772437
 11
-11.2389181909
 21
14.4904972934
  0
LINE
  5
2A6
100
AcDbEntity
  8
CURVE
100
AcDbLine
 62
253
  6
CONTINUOUS
 10
-10.9429033075
 20
14.070938632
 11
-10.9429033075
 21
11.5745773306
  0
LWPOLYLINE
  5
2A7
100
AcDbEntity
  8
CURVE
100
AcDbPolyline
 62
253
  6
CONTINUOUS
 90
91
 70
0
 10
-12.5394386441
 20
-13.0049372301
 10
-12.5406287156
 20
-13.0593445276
 10
-12.5432959657
 20
-13.1133383152
 10
-12.5474842031
 20
-13.1670812248
 10
-12.5532441319
 20
-13.2207036078
 10
-12.5606540386
 20
-13.2742066914
 10
-12.5697991051
 20
-13.3275594222
 10
-12.5807531555
 20
-13.3807130157
 10
-12.5935445821
 20
-13.4335477641
 10
-12.6081904192
 20
-13.4859262288
 10
-12.624704027
 20
-13.537727205
 10
-12.6430840689
 20
-13.588894423
 10
-12.6633255342
 20
-13.6393878472
 10
-12.6854155435
 20
-13.6891571719
 10
-12.7093097441
 20
-13.738111013
 10
-12.7349559145
 20
-13.7861477163
 10
-12.7623018336
 20
-13.8331656278
 10
-12.7912952801
 20
-13.8790630936
 10
-12.8218840326
 20
-13.9237384595
 10
-12.8540190234
 20
-13.9671016211
 10
-12.8876637986
 20
-14.0091086716
 10
-12.922785058
 20
-14.0497272538
 10
-12.9593495013
 20
-14.0889250105
 10
-12.9973238282
 20
-14.1266695843
 10
-13.0366747383
 20
-14.1629286182
 10
-13.0773601064
 20
-14.1976692107
 10
-13.1193025071
 20
-14.2308562844
 10
-13.1624156902
 20
-14.2624542177
 10
-13.2066134051
 20
-14.292427389
 10
-13.2518094016
 20
-14.3207401768
 10
-13.2979174294
 20
-14.3473569594
 10
-13.3448615129
 20
-14.3722455637
 10
-13.3926067765
 20
-14.3953876102
 10
-13.4411286191
 20
-14.4167681677
 10
-13.49040244
 20
-14.436372305
 10
-13.5404036382
 20
-14.454185091
 10
-13.5911076129
 20
-14.4701915944
 10
-13.6424748176
 20
-14.484387652
 10
-13.6944059238
 20
-14.4968121714
 10
-13.7467866574
 20
-14.5075148281
 10
-13.7995043683
 20
-14.516541518
 10
-13.8524529017
 20
-14.5239230184
 10
-13.9055277271
 20
-14.5296863271
 10
-13.9586400122
 20
-14.533840072
 10
-14.0117637192
 20
-14.5363194028
 10
-14.0648885086
 20
-14.5370410995
 10
-14.1180029108
 20
-14.5359509081
 10
-14.1710909338
 20
-14.5331104387
 10
-14.2241354552
 20
-14.5286102672
 10
-14.2771062239
 20
-14.522519196
 10
-14.3299204725
 20
-14.5148189323
 10
-14.3824823051
 20
-14.5054694094
 10
-14.4346937995
 20
-14.4944299745
 10
-14.4864489301
 20
-14.4816576298
 10
-14.5376396452
 20
-14.4671087913
 10
-14.5881716801
 20
-14.4507494891
 10
-14.6380059169
 20
-14.4325842096
 10
-14.6871170248
 20
-14.4126270531
 10
-14.7354796727
 20
-14.39089212
 10
-14.7830685297
 20
-14.3673935109
 10
-14.8298582648
 20
-14.3421453261
 10
-14.8758116932
 20
-14.3151664402
 10
-14.9208442153
 20
-14.2864948245
 10
-14.9648593775
 20
-14.2561732243
 10
-15.0077607264
 20
-14.2242443852
 10
-15.0494518084
 20
-14.1907510523
 10
-15.0898361701
 20
-14.1557359713
 10
-15.1288299196
 20
-14.1192411797
 10
-15.1663994119
 20
-14.0813058839
 10
-15.2025235637
 20
-14.0419685826
 10
-15.2371812917
 20
-14.0012677746
 10
-15.2703515126
 20
-13.9592419585
 10
-15.302013143
 20
-13.915929633
 10
-15.3321407247
 20
-13.8713792212
 10
-15.3606913007
 20
-13.8256788442
 10
-15.3876175388
 20
-13.7789265475
 10
-15.412867562
 20
-13.7312180856
 10
-15.4363713135
 20
-13.6826400485
 10
-15.4580541917
 20
-13.6332767349
 10
-15.4778563807
 20
-13.583206095
 10
-15.4957772093
 20
-13.5324806838
 10
-15.5118307924
 20
-13.4811467072
 10
-15.526038535
 20
-13.4292644535
 10
-15.5384510026
 20
-13.3769505384
 10
-15.549126051
 20
-13.3243356598
 10
-15.5581206289
 20
-13.2715316698
 10
-15.565488057
 20
-13.2185750377
 10
-15.5712807488
 20
-13.1654833874
 10
-15.5755254427
 20
-13.112248705
 10
-15.5781461763
 20
-13.0587604272
 10
-15.5790413116
 20
-13.0048823534
  0
LWPOLYLINE
  5
2A8
100
AcDbEntity
  8
CURVE
100
AcDbPolyline
 62
253
  6
CONTINUOUS
 90
91
 70
0
 10
-11.836454118
 20
13.0325372434
 10
-11.8376499743
 20
12.9781462537
 10
-11.8403214801
 20
12.9241678177
 10
-11.8445124595
 20
12.8704396334
 10
-11.8502736161
 20
12.8168315976
 10
-11.8576831733
 20
12.7633424026
 10
-11.8668262342
 20
12.71000294
 10
-11.8777765619
 20
12.6568618477
 10
-11.890562559
 20
12.6040387503
 10
-11.9052012881
 20
12.551671019
 10
-11.921706256
 20
12.4998798543
 10
-11.9400767472
 20
12.4487217727
 10
-11.9603084902
 20
12.3982371199
 10
-11.9823891829
 20
12.3484764376
 10
-12.0062744002
 20
12.299531051
 10
-12.0319116863
 20
12.2515024813
 10
-12.0592485852
 20
12.2044922499
 10
-12.0882326412
 20
12.1586018778
 10
-12.1188113983
 20
12.1139328863
 10
-12.1509355679
 20
12.0705752495
 10
-12.1845685304
 20
12.0285727525
 10
-12.2196768334
 20
11.9879576333
 10
-12.2562270243
 20
11.9487621299
 10
-12.2941856508
 20
11.9110184802
 10
-12.3335192605
 20
11.8747589221
 10
-12.3741856641
 20
11.8400162838
 10
-12.4161077254
 20
11.8068257535
 10
-12.4591995713
 20
11.7752231094
 10
-12.5033753286
 20
11.7452441298
 10
-12.5485491244
 20
11.716924593
 10
-12.5946350855
 20
11.6903002774
 10
-12.6415575396
 20
11.6654034648
 10
-12.6892816175
 20
11.6422524516
 10
-12.7377826507
 20
11.6208620376
 10
-12.7870359706
 20
11.6012470227
 10
-12.8370169086
 20
11.5834222069
 10
-12.8877007964
 20
11.56740239
 10
-12.9390480519
 20
11.5531917671
 10
-12.9909594394
 20
11.5407521128
 10
-13.0433208098
 20
11.5300345972
 10
-13.0960196098
 20
11.5209939891
 10
-13.1489496693
 20
11.5135994532
 10
-13.2020064141
 20
11.5078237534
 10
-13.2551009533
 20
11.5036579748
 10
-13.3082071291
 20
11.5011664877
 10
-13.3613144671
 20
11.5004319834
 10
-13.4144113733
 20
11.5015081807
 10
-13.4674817768
 20
11.5043329075
 10
-13.5205084868
 20
11.5088150186
 10
-13.5734612388
 20
11.5148851925
 10
-13.6262574716
 20
11.5225614006
 10
-13.6788015496
 20
11.5318834376
 10
-13.7309956837
 20
11.5428917799
 10
-13.7827334688
 20
11.5556296302
 10
-13.833906346
 20
11.5701408725
 10
-13.8844197258
 20
11.5864598549
 10
-13.9342348949
 20
11.6045827802
 10
-13.9833271097
 20
11.6244963151
 10
-14.0316716263
 20
11.646187126
 10
-14.0792437009
 20
11.6696418796
 10
-14.1260185896
 20
11.6948472424
 10
-14.1719596689
 20
11.721785108
 10
-14.216982796
 20
11.750418278
 10
-14.2609919481
 20
11.7807047811
 10
-14.3038911027
 20
11.8126026459
 10
-14.3455842372
 20
11.846069901
 10
-14.385975329
 20
11.881064575
 10
-14.4249812583
 20
11.9175450557
 10
-14.4625705181
 20
11.9554711674
 10
-14.4987245039
 20
11.9948030935
 10
-14.5334246116
 20
12.0355010173
 10
-14.5666522368
 20
12.0775251223
 10
-14.5983887753
 20
12.1208355919
 10
-14.6286079698
 20
12.1653842894
 10
-14.6572529507
 20
12.2110897981
 10
-14.6842591956
 20
12.2578623811
 10
-14.7095626916
 20
12.3056117208
 10
-14.7331014653
 20
12.3542451762
 10
-14.7548140533
 20
12.4036695258
 10
-14.7746509373
 20
12.4537996707
 10
-14.7926103812
 20
12.5045830028
 10
-14.808702594
 20
12.5559750372
 10
-14.8229454694
 20
12.6079164907
 10
-14.8353876385
 20
12.6602888889
 10
-14.8460854172
 20
12.7129589593
 10
-14.8550947608
 20
12.7658128396
 10
-14.8624701841
 20
12.8188143075
 10
-14.8682658416
 20
12.8719465508
 10
-14.8725101854
 20
12.9252183345
 10
-14.8751288577
 20
12.978740731
 10
-14.8760217979
 20
13.0326503899
  0
LINE
  5
2A9
100
AcDbEntity
  8
ASSI
100
AcDbLine
 62
253
  6
CONTINUOUS
 10
-22.4818208554
 20
0.3252123473
 11
-22.373449328
 21
0.3793939843
  0
LINE
  5
2AA
100
AcDbEntity
  8
CURVE
100
AcDbLine
 62
253
  6
CONTINUOUS
 10
-7.8908507072
 20
-11.818192786
 11
-9.3531145588
 21
-11.818192786
  0
LINE
  5
2AB
100
AcDbEntity
  8
CURVE
100
AcDbLine
 62
253
  6
CONTINUOUS
 10
-10.1835887042
 20
-11.818192786
 11
-11.6458525558
 21
-11.818192786
  0
LINE
  5
2AC
100
AcDbEntity
  8
CURVE
100
AcDbLine
 62
253
  6
CONTINUOUS
 10
-11.9419024243
 20
-11.5469772305
 11
-10.1835887042
 21
-11.5469772305
  0
LINE
  5
2AD
100
AcDbEntity
  8
CURVE
100
AcDbLine
 62
253
  6
CONTINUOUS
 10
-9.6491996471
 20
-11.5469772305
 11
-7.8908507072
 21
-11.5469772305
  0
LINE
  5
2AE
100
AcDbEntity
  8
ASSI
100
AcDbLine
 62
253
  6
CONTINUOUS
 10
-22.373449328
 20
-0.3289235992
 11
-22.4818208554
 21
-0.2747419622
  0
LINE
  5
2AF
100
AcDbEntity
  8
CURVE
100
AcDbLine
 62
253
  6
CONTINUOUS
 10
-10.2864234238
 20
-12.8115797302
 11
-10.2864234238
 21
-13.0829364006
  0
LINE
  5
2B0
100
AcDbEntity
  8
CURVE
100
AcDbLine
 62
253
  6
CONTINUOUS
 10
-10.1835887042
 20
-11.5469772305
 11
-10.1835887042
 21
-11.8181927734
  0
LINE
  5
2B1
100
AcDbEntity
  8
CURVE
100
AcDbLine
 62
253
  6
CONTINUOUS
 10
-9.6491996471
 20
-14.4628972298
 11
-9.6491996471
 21
-11.546977164
  0
LINE
  5
2B2
100
AcDbEntity
  8
CURVE
100
AcDbLine
 62
253
  6
CONTINUOUS
 10
-9.3531145588
 20
-11.818192786
 11
-9.3531145588
 21
-12.8115796958
  0
LINE
  5
2B3
100
AcDbEntity
  8
CURVE
100
AcDbLine
 62
253
  6
CONTINUOUS
 10
-9.3531145588
 20
-13.0829363968
 11
-9.3531145588
 21
-14.4628971943
  0
LINE
  5
2B4
100
AcDbEntity
  8
CURVE
100
AcDbLine
 62
253
  6
CONTINUOUS
 10
-9.1217586317
 20
12.0189714103
 11
-9.1217586317
 21
14.4904972137
  0
LINE
  5
2B5
100
AcDbEntity
  8
CURVE
100
AcDbLine
 62
253
  6
CONTINUOUS
 10
-8.8257075282
 20
14.490497243
 11
-8.8257075282
 21
11.5745771932
  0
LWPOLYLINE
  5
2B6
100
AcDbEntity
  8
ASSI
100
AcDbPolyline
 62
253
  6
CONTINUOUS
 90
85
 70
0
 10
-9.9612130876
 20
4.5261353726
 10
-9.9621413
 20
4.4737854039
 10
-9.9650312267
 20
4.4214652741
 10
-9.9698828677
 20
4.3691749837
 10
-9.9766967825
 20
4.3168127236
 10
-9.9854724115
 20
4.2644803041
 10
-9.9962080762
 20
4.2124831561
 10
-10.0089241933
 20
4.1608231999
 10
-10.023600346
 20
4.1094985182
 10
-10.0401736047
 20
4.0588087872
 10
-10.0586616375
 20
4.0087634538
 10
-10.0790467763
 20
3.9593530753
 10
-10.1012130876
 20
3.9108489948
 10
-10.1251608482
 20
3.8632808329
 10
-10.1508897814
 20
3.8166189741
 10
-10.1782831232
 20
3.7710459082
 10
-10.2073372489
 20
3.7265754818
 10
-10.2380557833
 20
3.6831938536
 10
-10.2703328362
 20
3.6410419822
 10
-10.3041788152
 20
3.6001131905
 10
-10.3395833127
 20
3.5604141605
 10
-10.3764092165
 20
3.5221058906
 10
-10.414670568
 20
3.4851870548
 10
-10.4543533257
 20
3.4496589839
 10
-10.4952782525
 20
3.4156866611
 10
-10.5374487809
 20
3.3832807576
 10
-10.5808614785
 20
3.3524306067
 10
-10.6253268106
 20
3.3232691863
 10
-10.6708452617
 20
3.295806255
 10
-10.7174163473
 20
3.270032058
 10
-10.7648490796
 20
3.2460503027
 10
-10.8131470335
 20
3.2238676463
 10
-10.8623066342
 20
3.2034774349
 10
-10.9121261691
 20
3.1849634086
 10
-10.9626105218
 20
3.1683324948
 10
-11.0137548089
 20
3.1535777686
 10
-11.0653426668
 20
3.1407621922
 10
-11.1173758239
 20
3.1298942152
 10
-11.169852552
 20
3.1209653897
 10
-11.2225513032
 20
3.1140133321
 10
-11.2754722192
 20
3.1090464747
 10
-11.3286151584
 20
3.1060563861
 10
-11.3817581486
 20
3.1050553867
 10
-11.4349011726
 20
3.1060516882
 10
-11.4880442476
 20
3.1090370789
 10
-11.5409654523
 20
3.1139992446
 10
-11.5936646387
 20
3.1209466064
 10
-11.6461419548
 20
3.1298707422
 10
-11.6981759231
 20
3.1407340725
 10
-11.7497648697
 20
3.1535450587
 10
-11.8009104684
 20
3.1682952376
 10
-11.8513962639
 20
3.1849216432
 10
-11.9012173973
 20
3.2034312316
 10
-11.9503787275
 20
3.2238170442
 10
-11.998678376
 20
3.2459952427
 10
-12.0461126387
 20
3.2699724154
 10
-12.0926852196
 20
3.2957419707
 10
-12.1382053527
 20
3.3232003009
 10
-12.1826724872
 20
3.3523570448
 10
-12.226087174
 20
3.3832025597
 10
-12.268260299
 20
3.4156043157
 10
-12.3091886703
 20
3.4495731356
 10
-12.3488754798
 20
3.4850981921
 10
-12.3871411902
 20
3.5220144807
 10
-12.4239719764
 20
3.560321078
 10
-12.4593816635
 20
3.6000189025
 10
-12.4932321886
 20
3.6409457124
 10
-12.52551277
 20
3.6830945825
 10
-12.5562341895
 20
3.726472433
 10
-12.5852907302
 20
3.7709377895
 10
-12.6126856318
 20
3.8165035621
 10
-12.6384156545
 20
3.8631568355
 10
-12.6623653625
 20
3.9107173981
 10
-12.6845348477
 20
3.9592147172
 10
-12.704924018
 20
4.0086193204
 10
-12.723417161
 20
4.0586625878
 10
-12.7399970887
 20
4.1093548082
 10
-12.754680989
 20
4.1606856886
 10
-12.767404713
 20
4.2123557365
 10
-12.7781478566
 20
4.2643674956
 10
-12.7869308239
 20
4.3167184194
 10
-12.7937506779
 20
4.369101382
 10
-12.7986064397
 20
4.4214140081
 10
-12.8014990881
 20
4.4737586718
 10
-12.8024286232
 20
4.5261353726
  0
LWPOLYLINE
  5
2B7
100
AcDbEntity
  8
ASSI
100
AcDbPolyline
 62
253
  6
CONTINUOUS
 90
85
 70
0
 10
-9.9612130876
 20
-4.4756649875
 10
-9.9621573864
 20
-4.5280047651
 10
-9.9650626628
 20
-4.5803141947
 10
-9.9699289169
 20
-4.6325932759
 10
-9.9767567314
 20
-4.6849437683
 10
-9.9855455236
 20
-4.737263911
 10
-9.9962935451
 20
-4.789248424
 10
-10.0090211985
 20
-4.8408953856
 10
-10.0237080812
 20
-4.8922067183
 10
-10.0402912371
 20
-4.9428829107
 10
-10.0587883236
 20
-4.9929145294
 10
-10.0791816833
 20
-5.0423110106
 10
-10.1013553888
 20
-5.0908011483
 10
-10.1253097246
 20
-5.1383553608
 10
-10.1510444062
 20
-5.1850032344
 10
-10.1784426525
 20
-5.2305623162
 10
-10.207500841
 20
-5.2750187599
 10
-10.2382225942
 20
-5.3183864174
 10
-10.2705019993
 20
-5.3605243836
 10
-10.3043494537
 20
-5.4014393213
 10
-10.33975456
 20
-5.4411245738
 10
-10.3765802124
 20
-5.4794192573
 10
-10.4148404449
 20
-5.5163246988
 10
-10.4545212235
 20
-5.5518395778
 10
-10.4954433401
 20
-5.5857990403
 10
-10.5376102203
 20
-5.6181924226
 10
-10.5810184384
 20
-5.6490303952
 10
-10.6254785087
 20
-5.6781801056
 10
-10.6709909025
 20
-5.7056317995
 10
-10.7175551486
 20
-5.7313952376
 10
-10.7649803463
 20
-5.7553668404
 10
-10.8132700583
 20
-5.7775399578
 10
-10.862420722
 20
-5.7979212456
 10
-10.9122307499
 20
-5.8164270826
 10
-10.962705011
 20
-5.8330505515
 10
-11.0138386363
 20
-5.8477985744
 10
-11.0654154318
 20
-5.8606082888
 10
-11.1174371182
 20
-5.8714712598
 10
-11.1699019748
 20
-5.8803959255
 10
-11.2225886456
 20
-5.8873447336
 10
-11.2754972663
 20
-5.8923092664
 10
-11.3286277011
 20
-5.8952979432
 10
-11.3817581867
 20
-5.8962984657
 10
-11.4348887061
 20
-5.8953026371
 10
-11.4880192764
 20
-5.8923186543
 10
-11.5409281853
 20
-5.8873588093
 10
-11.5936152908
 20
-5.8804146931
 10
-11.646080735
 20
-5.871494713
 10
-11.6981032319
 20
-5.8606363849
 10
-11.7496811148
 20
-5.8478312569
 10
-11.8008160504
 20
-5.8330877775
 10
-11.8512917527
 20
-5.8164688132
 10
-11.9011033772
 20
-5.7979674106
 10
-11.9502557684
 20
-5.7775905184
 10
-11.9985471728
 20
-5.7554218554
 10
-12.0459738988
 20
-5.731454832
 10
-12.0925396379
 20
-5.7056960321
 10
-12.1380537117
 20
-5.6782489359
 10
-12.1825155823
 20
-5.6491038985
 10
-12.2259257874
 20
-5.6182705584
 10
-12.2680952619
 20
-5.5858813204
 10
-12.3090208203
 20
-5.5519253577
 10
-12.348705648
 20
-5.5164134905
 10
-12.3869702361
 20
-5.4795105945
 10
-12.4238007666
 20
-5.4412175832
 10
-12.4592110574
 20
-5.4015335365
 10
-12.4930630531
 20
-5.3606205812
 10
-12.5253459816
 20
-5.3184856171
 10
-12.5560706149
 20
-5.2751217383
 10
-12.5851312138
 20
-5.2306703637
 10
-12.6125310164
 20
-5.1851185718
 10
-12.6382667846
 20
-5.1384792786
 10
-12.6622230646
 20
-5.0909326601
 10
-12.6843999409
 20
-5.0424492776
 10
-12.7047973291
 20
-4.9930585653
 10
-12.7232995226
 20
-4.9430290092
 10
-12.7398893439
 20
-4.892350328
 10
-12.7545839704
 20
-4.8410328003
 10
-12.767319228
 20
-4.7893757538
 10
-12.7780747271
 20
-4.7373766401
 10
-12.7868708573
 20
-4.6850380068
 10
-12.7937046125
 20
-4.6326668269
 10
-12.7985749909
 20
-4.5803654256
 10
-12.8014829945
 20
-4.528031479
 10
-12.8024286232
 20
-4.4756649875
  0
LWPOLYLINE
  5
2B8
100
AcDbEntity
  8
ASSI
100
AcDbPolyline
 62
253
  6
CONTINUOUS
 90
85
 70
0
 10
-10.0611978571
 20
4.5252351926
 10
-10.0620824434
 20
4.4766839087
 10
-10.0647641171
 20
4.4280262122
 10
-10.0692582427
 20
4.3793294165
 10
-10.0755812905
 20
4.3306377915
 10
-10.083741756
 20
4.2820455998
 10
-10.0937310559
 20
4.2336954944
 10
-10.1055462485
 20
4.1856565213
 10
-10.1191813451
 20
4.1379995328
 10
-10.1346028167
 20
4.0908665395
 10
-10.1517900247
 20
4.0443281181
 10
-10.1707221229
 20
3.9984474308
 10
-10.1913464251
 20
3.9533491842
 10
-10.2136181485
 20
3.909116413
 10
-10.2375113203
 20
3.8657869344
 10
-10.2629920852
 20
3.8234130355
 10
-10.2900144929
 20
3.7820620671
 10
-10.3185434245
 20
3.741779233
 10
-10.3485629366
 20
3.7025843869
 10
-10.380038926
 20
3.664524549
 10
-10.412921555
 20
3.6276623575
 10
-10.4471730781
 20
3.5920423913
 10
-10.4827542782
 20
3.5577092724
 10
-10.5196100262
 20
3.5247198912
 10
-10.557675279
 20
3.4931338755
 10
-10.5968935753
 20
3.4629977844
 10
-10.6372127606
 20
3.4343514087
 10
-10.6785699212
 20
3.407238914
 10
-10.7209028115
 20
3.3816997906
 10
-10.7641552567
 20
3.3577666415
 10
-10.808271276
 20
3.3354698204
 10
-10.8531892909
 20
3.3148402161
 10
-10.8988459498
 20
3.2959066937
 10
-10.9451814466
 20
3.2786940758
 10
-10.9921330053
 20
3.2632261019
 10
-11.0396329255
 20
3.2495254894
 10
-11.0876128351
 20
3.2376121278
 10
-11.1360053167
 20
3.2275028023
 10
-11.184742748
 20
3.2192116842
 10
-11.2337554918
 20
3.2127505965
 10
-11.2829741076
 20
3.2081285518
 10
-11.332330348
 20
3.2053518185
 10
-11.381755921
 20
3.2044241878
 10
-11.4311815517
 20
3.2053469569
 10
-11.4805379967
 20
3.2081188303
 10
-11.5297570112
 20
3.2127360249
 10
-11.5787703421
 20
3.2191922796
 10
-11.6275085534
 20
3.2274785904
 10
-11.6759020687
 20
3.2375831569
 10
-11.7238833188
 20
3.2494918376
 10
-11.7713848246
 20
3.2631878514
 10
-11.8183381025
 20
3.2786512863
 10
-11.8646754736
 20
3.2958594363
 10
-11.9103341364
 20
3.3147885567
 10
-11.9552541158
 20
3.335413746
 10
-11.9993719481
 20
3.3577060593
 10
-12.0426261889
 20
3.3816346466
 10
-12.0849610552
 20
3.4071692564
 10
-12.1263202777
 20
3.4342772285
 10
-12.1666417078
 20
3.4629191369
 10
-12.2058628685
 20
3.4930511739
 10
-12.2439317601
 20
3.5246337737
 10
-12.280791666
 20
3.5576202749
 10
-12.316377338
 20
3.5919509461
 10
-12.3506338908
 20
3.6275692282
 10
-12.3835217665
 20
3.6644302413
 10
-12.4150022732
 20
3.7024882891
 10
-12.4450254341
 20
3.7416803474
 10
-12.4735574885
 20
3.7819596116
 10
-12.500582428
 20
3.8233058937
 10
-12.5260648131
 20
3.8656731216
 10
-12.5499593502
 20
3.9089946402
 10
-12.5722333837
 20
3.9532202996
 10
-12.5928608484
 20
3.9983123579
 10
-12.6117968571
 20
4.0441878462
 10
-12.6289894072
 20
4.0907244066
 10
-12.6444175266
 20
4.1378598041
 10
-12.6580598957
 20
4.185522795
 10
-12.6698825784
 20
4.233571385
 10
-12.6798792672
 20
4.2819351057
 10
-12.6880465477
 20
4.3305445921
 10
-12.6943753266
 20
4.3792560861
 10
-12.6988738145
 20
4.4279749065
 10
-12.7015582844
 20
4.4766570757
 10
-12.7024438537
 20
4.5252351926
  0
LWPOLYLINE
  5
2B9
100
AcDbEntity
  8
ASSI
100
AcDbPolyline
 62
253
  6
CONTINUOUS
 90
85
 70
0
 10
-10.0611978571
 20
-4.4747648074
 10
-10.0620985565
 20
-4.5233066222
 10
-10.0647956535
 20
-4.5719542331
 10
-10.0693045064
 20
-4.620640357
 10
-10.0756416093
 20
-4.669320739
 10
-10.083815423
 20
-4.7179011573
 10
-10.0938172779
 20
-4.7662390388
 10
-10.105644238
 20
-4.814265379
 10
-10.1192903214
 20
-4.861909359
 10
-10.1347219304
 20
-4.9090290573
 10
-10.1519184465
 20
-4.9555539544
 10
-10.1708590423
 20
-5.0014209156
 10
-10.1914909743
 20
-5.046505298
 10
-10.2137694971
 20
-5.0907241488
 10
-10.2376686607
 20
-5.1340396578
 10
-10.2631545287
 20
-5.1763995064
 10
-10.2901811724
 20
-5.2177363936
 10
-10.3187135044
 20
-5.2580051606
 10
-10.3487355017
 20
-5.2971859342
 10
-10.3802130752
 20
-5.3352317312
 10
-10.4130964229
 20
-5.3720799763
 10
-10.4473477458
 20
-5.4076861263
 10
-10.4829278554
 20
-5.4420056099
 10
-10.519781657
 20
-5.4749815873
 10
-10.5578440645
 20
-5.5065544799
 10
-10.5970586559
 20
-5.5366777854
 10
-10.6373733177
 20
-5.565311758
 10
-10.6787251003
 20
-5.5924122767
 10
-10.7210517993
 20
-5.617939903
 10
-10.7642972942
 20
-5.6418620818
 10
-10.8084055922
 20
-5.6641485089
 10
-10.853315165
 20
-5.684768343
 10
-10.8989627228
 20
-5.7036927619
 10
-10.9452884692
 20
-5.7208969925
 10
-10.9922296844
 20
-5.7363573354
 10
-11.03971874
 20
-5.750051109
 10
-11.0876873027
 20
-5.7619584682
 10
-11.1360680242
 20
-5.7720626597
 10
-11.1847933553
 20
-5.7803495339
 10
-11.2337937091
 20
-5.7868072964
 10
-11.2829997179
 20
-5.7914269536
 10
-11.3323432129
 20
-5.7942022465
 10
-11.3817559631
 20
-5.7951293938
 10
-11.4311687708
 20
-5.7942071036
 10
-11.4805124699
 20
-5.7914366663
 10
-11.529718877
 20
-5.7868218548
 10
-11.5787198172
 20
-5.780368921
 10
-11.6274459276
 20
-5.7720868497
 10
-11.6758276816
 20
-5.7619874131
 10
-11.7237975833
 20
-5.7500847305
 10
-11.7712882227
 20
-5.7363955517
 10
-11.8182311552
 20
-5.7209397439
 10
-11.8645587736
 20
-5.7037399775
 10
-11.9102083328
 20
-5.684819957
 10
-11.9551198674
 20
-5.6642045344
 10
-11.9992299759
 20
-5.6419226116
 10
-12.0424772638
 20
-5.6180049912
 10
-12.0848059361
 20
-5.5924818751
 10
-12.1261597781
 20
-5.5653858756
 10
-12.1664766821
 20
-5.5367563668
 10
-12.205694135
 20
-5.5066371122
 10
-12.2437601783
 20
-5.4750676328
 10
-12.2806181345
 20
-5.4420945328
 10
-12.3162027122
 20
-5.4077774953
 10
-12.3504590601
 20
-5.3721730291
 10
-12.3833476495
 20
-5.3353259628
 10
-12.4148297353
 20
-5.2972819566
 10
-12.4448553761
 20
-5.2581039716
 10
-12.4733908256
 20
-5.2178387753
 10
-12.5004199966
 20
-5.1765065739
 10
-12.5259074812
 20
-5.1341533931
 10
-12.5498080067
 20
-5.0908458396
 10
-12.5720888362
 20
-5.0466340957
 10
-12.5927239275
 20
-5.0015558962
 10
-12.6116684304
 20
-4.9556941283
 10
-12.6288702848
 20
-4.9091710896
 10
-12.6443085378
 20
-4.8620489882
 10
-12.6579618903
 20
-4.8143990096
 10
-12.6697963379
 20
-4.7663630595
 10
-12.6798055802
 20
-4.7180115731
 10
-12.6879862091
 20
-4.6694138732
 10
-12.694329045
 20
-4.6207136368
 10
-12.6988422639
 20
-4.5720055039
 10
-12.7015421631
 20
-4.5233334373
 10
-12.7024438537
 20
-4.4747648074
  0
LINE
  5
2BA
100
AcDbEntity
  8
ASSI
100
AcDbLine
 62
253
  6
CONTINUOUS
 10
-22.2818208543
 20
0.1252351926
 11
-22.173479789
 21
0.1794015997
  0
LINE
  5
2BB
100
AcDbEntity
  8
ASSI
100
AcDbLine
 62
253
  6
CONTINUOUS
 10
-22.173479789
 20
-0.1289312145
 11
-22.2818208543
 21
-0.0747648074
  0
LINE
  5
2BC
100
AcDbEntity
  8
CURVE
100
AcDbLine
 62
253
  6
CONTINUOUS
 10
-7.9937207045
 20
-12.8115797302
 11
-7.9937207045
 21
-13.0829364006
  0
LINE
  5
2BD
100
AcDbEntity
  8
CURVE
100
AcDbLine
 62
253
  6
CONTINUOUS
 10
-7.8908507072
 20
-11.5469772305
 11
-7.8908507072
 21
-11.8181927734
  0
LWPOLYLINE
  5
2BE
100
AcDbEntity
  8
ASSI
100
AcDbPolyline
 62
253
  6
CONTINUOUS
 90
7
 70
0
 10
21.9098380781
 20
-0.1289312145
 10
21.909253797
 20
-0.1290546967
 10
21.9080141145
 20
-0.1291772873
 10
21.9061190307
 20
-0.1292989864
 10
21.9035614721
 20
-0.1294200656
 10
21.9003485121
 20
-0.1295402533
 10
21.8965013713
 20
-0.1296587339
  0
LWPOLYLINE
  5
2BF
100
AcDbEntity
  8
ASSI
100
AcDbPolyline
 62
253
  6
CONTINUOUS
 90
5
 70
0
 10
22.1098076172
 20
-0.3289235992
 10
22.108843579
 20
-0.3290537823
 10
22.1067745216
 20
-0.3291830889
 10
22.1036048817
 20
-0.3293114816
 10
22.0993415168
 20
-0.3294391663
  0
LINE
  5
2C0
100
AcDbEntity
  8
ASSI
100
AcDbLine
 62
7
  6
CONTINUOUS
 10
19.6306451352
 20
-0.0747648074
 11
19.3681791446
 21
-0.1009454108
  0
LINE
  5
2C1
100
AcDbEntity
  8
ASSI
100
AcDbLine
 62
7
  6
CONTINUOUS
 10
-19.894286846
 20
-0.0747648074
 11
-19.6318208554
 21
-0.1009454108
  0
LINE
  5
2C2
100
AcDbEntity
  8
ASSI
100
AcDbLine
 62
253
  6
CONTINUOUS
 10
21.8965013713
 20
-0.1296587339
 11
21.8868960328
 21
-0.1298905409
  0
LINE
  5
2C3
100
AcDbEntity
  8
ASSI
100
AcDbLine
 62
253
  6
CONTINUOUS
 10
22.0993415168
 20
-0.3294391663
 11
22.0875733239
 21
-0.3296908092
  0
LINE
  5
2C4
100
AcDbEntity
  8
ASSI
100
AcDbLine
 62
253
  6
CONTINUOUS
 10
21.8868960328
 20
-0.1298905409
 11
21.8679278638
 21
-0.1302208102
  0
LINE
  5
2C5
100
AcDbEntity
  8
ASSI
100
AcDbLine
 62
253
  6
CONTINUOUS
 10
22.0875733239
 20
-0.3296908092
 11
22.0620292977
 21
-0.3300540491
  0
LINE
  5
2C6
100
AcDbEntity
  8
ASSI
100
AcDbLine
 62
253
  6
CONTINUOUS
 10
21.8679278638
 20
-0.1302208102
 11
21.834731098
 21
-0.1306187069
  0
LINE
  5
2C7
100
AcDbEntity
  8
ASSI
100
AcDbLine
 62
253
  6
CONTINUOUS
 10
22.0620292977
 20
-0.3300540491
 11
21.9997860043
 21
-0.3306041173
  0
LINE
  5
2C8
100
AcDbEntity
  8
ASSI
100
AcDbLine
 62
253
  6
CONTINUOUS
 10
21.834731098
 20
-0.1306187069
 11
21.7583665024
 21
-0.1311603882
  0
LINE
  5
2C9
100
AcDbEntity
  8
ASSI
100
AcDbLine
 62
253
  6
CONTINUOUS
 10
21.9997860043
 20
-0.3306041173
 11
21.7937396471
 21
-0.3314442607
  0
LINE
  5
2CA
100
AcDbEntity
  8
ASSI
100
AcDbLine
 62
253
  6
CONTINUOUS
 10
-22.0341031524
 20
0.1815673396
 11
-21.9017501561
 21
0.181962333
  0
LWPOLYLINE
  5
2CB
100
AcDbEntity
  8
ASSI
100
AcDbPolyline
 62
253
  6
CONTINUOUS
 90
3
 70
0
 10
21.7583665024
 20
-0.1311603882
 10
21.6240414676
 20
-0.1315006251
 10
21.6098837989
 20
-0.1315035681
  0
LINE
  5
2CC
100
AcDbEntity
  8
ASSI
100
AcDbLine
 62
253
  6
CONTINUOUS
 10
-21.9017501561
 20
0.181962333
 11
-21.8735255097
 21
0.1819739533
  0
LINE
  5
2CD
100
AcDbEntity
  8
ASSI
100
AcDbLine
 62
253
  6
CONTINUOUS
 10
21.7937396471
 20
-0.3314442607
 11
-21.8735130278
 21
-0.3316387032
  0
LINE
  5
2CE
100
AcDbEntity
  8
ASSI
100
AcDbLine
 62
7
  6
CONTINUOUS
 10
21.6098837989
 20
-0.1315035681
 11
-21.8735255097
 21
-0.1315035681
  0
LINE
  5
2CF
100
AcDbEntity
  8
ASSI
100
AcDbLine
 62
7
  6
CONTINUOUS
 10
-19.6318208554
 20
-0.1009454108
 11
19.3681791446
 21
-0.1009454108
  0
LINE
  5
2D0
100
AcDbEntity
  8
ASSI
100
AcDbLine
 62
7
  6
CONTINUOUS
 10
-22.2818208543
 20
-0.0747648074
 11
-19.894286846
 21
-0.0747648074
  0
LINE
  5
2D1
100
AcDbEntity
  8
ASSI
100
AcDbLine
 62
7
  6
CONTINUOUS
 10
19.6306451352
 20
-0.0747648074
 11
22.0181791434
 21
-0.0747648074
  0
LINE
  5
2D2
100
AcDbEntity
  8
ASSI
100
AcDbLine
 62
7
  6
CONTINUOUS
 10
22.0181791434
 20
0.1252351926
 11
19.6306451352
 21
0.1252351926
  0
LINE
  5
2D3
100
AcDbEntity
  8
ASSI
100
AcDbLine
 62
7
  6
CONTINUOUS
 10
-19.894286846
 20
0.1252351926
 11
-22.2818208543
 21
0.1252351926
  0
LINE
  5
2D4
100
AcDbEntity
  8
ASSI
100
AcDbLine
 62
7
  6
CONTINUOUS
 10
19.3681791446
 20
0.1514157959
 11
-19.6318208554
 21
0.1514157959
  0
LINE
  5
2D5
100
AcDbEntity
  8
ASSI
100
AcDbLine
 62
7
  6
CONTINUOUS
 10
-21.8735255097
 20
0.1819739533
 11
21.6098837989
 21
0.1819739533
  0
LINE
  5
2D6
100
AcDbEntity
  8
ASSI
100
AcDbLine
 62
253
  6
CONTINUOUS
 10
-21.8735255097
 20
-0.1315035681
 11
-22.0095582534
 21
-0.1312189275
  0
LINE
  5
2D7
100
AcDbEntity
  8
ASSI
100
AcDbLine
 62
253
  6
CONTINUOUS
 10
21.6098837989
 20
0.1819739533
 11
21.7459165425
 21
0.1816893126
  0
LINE
  5
2D8
100
AcDbEntity
  8
ASSI
100
AcDbLine
 62
253
  6
CONTINUOUS
 10
-21.8735130278
 20
-0.3316387084
 11
-22.1979445595
 21
-0.3309768838
  0
LINE
  5
2D9
100
AcDbEntity
  8
ASSI
100
AcDbLine
 62
253
  6
CONTINUOUS
 10
21.7459165425
 20
0.1816893126
 11
21.7704614414
 21
0.1815673396
  0
LINE
  5
2DA
100
AcDbEntity
  8
ASSI
100
AcDbLine
 62
253
  6
CONTINUOUS
 10
-22.0095582534
 20
-0.1312189275
 11
-22.0887824463
 21
-0.1307090542
  0
LINE
  5
2DB
100
AcDbEntity
  8
ASSI
100
AcDbLine
 62
253
  6
CONTINUOUS
 10
-22.1979445595
 20
-0.3309768838
 11
-22.3036027145
 21
-0.3302836854
  0
LINE
  5
2DC
100
AcDbEntity
  8
ASSI
100
AcDbLine
 62
253
  6
CONTINUOUS
 10
-22.3036027145
 20
-0.3302836854
 11
-22.3352148833
 21
-0.3299352891
  0
LINE
  5
2DD
100
AcDbEntity
  8
ASSI
100
AcDbLine
 62
253
  6
CONTINUOUS
 10
-22.0887824463
 20
-0.1307090542
 11
-22.1240908121
 21
-0.1303252366
  0
LINE
  5
2DE
100
AcDbEntity
  8
ASSI
100
AcDbLine
 62
253
  6
CONTINUOUS
 10
-22.3352148833
 20
-0.3299352891
 11
-22.3512150346
 21
-0.3296908092
  0
LINE
  5
2DF
100
AcDbEntity
  8
ASSI
100
AcDbLine
 62
253
  6
CONTINUOUS
 10
-22.1240908121
 20
-0.1303252366
 11
-22.1448177954
 21
-0.1300031171
  0
LWPOLYLINE
  5
2E0
100
AcDbEntity
  8
ASSI
100
AcDbPolyline
 62
253
  6
CONTINUOUS
 90
9
 70
0
 10
-22.1448177954
 20
-0.1300031171
 10
-22.1556575032
 20
-0.129775491
 10
-22.1601430821
 20
-0.1296587339
 10
-22.1639902229
 20
-0.1295402533
 10
-22.1672031829
 20
-0.1294200656
 10
-22.1697607415
 20
-0.1292989864
 10
-22.1716558253
 20
-0.1291772873
 10
-22.1728955078
 20
-0.1290546967
 10
-22.173479789
 20
-0.1289312145
  0
LWPOLYLINE
  5
2E1
100
AcDbEntity
  8
ASSI
100
AcDbPolyline
 62
253
  6
CONTINUOUS
 90
6
 70
0
 10
-22.3512150346
 20
-0.3296908092
 10
-22.3629832276
 20
-0.3294391663
 10
-22.3672465925
 20
-0.3293114816
 10
-22.3704162324
 20
-0.3291830889
 10
-22.3724852898
 20
-0.3290537823
 10
-22.373449328
 20
-0.3289235992
  0
LINE
  5
2E2
100
AcDbEntity
  8
CURVE
100
AcDbLine
 62
253
  6
CONTINUOUS
 10
-10.8688905316
 20
14.490497243
 11
-9.1297666871
 21
12.0189714103
  0
LINE
  5
2E3
100
AcDbEntity
  8
CURVE
100
AcDbLine
 62
253
  6
CONTINUOUS
 10
-9.1957714076
 20
11.5745772437
 11
-10.9345777522
 21
14.070938632
  0
LINE
  5
2E4
100
AcDbEntity
  8
ASSI
100
AcDbLine
 62
7
  6
CONTINUOUS
 10
-19.894286846
 20
0.1252351926
 11
-19.6318208554
 21
0.1514157959
  0
LINE
  5
2E5
100
AcDbEntity
  8
ASSI
100
AcDbLine
 62
253
  6
CONTINUOUS
 10
-22.1601430821
 20
0.180129119
 11
-22.1505377436
 21
0.180360926
  0
LINE
  5
2E6
100
AcDbEntity
  8
ASSI
100
AcDbLine
 62
253
  6
CONTINUOUS
 10
-22.3629832276
 20
0.3799095514
 11
-22.3512150347
 21
0.3801611943
  0
LINE
  5
2E7
100
AcDbEntity
  8
ASSI
100
AcDbLine
 62
253
  6
CONTINUOUS
 10
-22.1505377436
 20
0.180360926
 11
-22.1315695747
 21
0.1806911953
  0
LINE
  5
2E8
100
AcDbEntity
  8
ASSI
100
AcDbLine
 62
253
  6
CONTINUOUS
 10
-22.3512150347
 20
0.3801611943
 11
-22.3256710085
 21
0.3805244343
  0
LINE
  5
2E9
100
AcDbEntity
  8
ASSI
100
AcDbLine
 62
253
  6
CONTINUOUS
 10
-22.1315695747
 20
0.1806911953
 11
-22.0983728089
 21
0.181089092
  0
LINE
  5
2EA
100
AcDbEntity
  8
ASSI
100
AcDbLine
 62
253
  6
CONTINUOUS
 10
-22.3256710085
 20
0.3805244343
 11
-22.2634277152
 21
0.3810745024
  0
LINE
  5
2EB
100
AcDbEntity
  8
ASSI
100
AcDbLine
 62
253
  6
CONTINUOUS
 10
-22.0983728089
 20
0.181089092
 11
-22.0341031524
 21
0.1815673396
  0
LINE
  5
2EC
100
AcDbEntity
  8
ASSI
100
AcDbLine
 62
253
  6
CONTINUOUS
 10
-22.2634277152
 20
0.3810745024
 11
-22.0573813579
 21
0.3819146459
  0
LINE
  5
2ED
100
AcDbEntity
  8
ASSI
100
AcDbLine
 62
253
  6
CONTINUOUS
 10
-22.0573813579
 20
0.3819146459
 11
21.609871317
 21
0.3821090883
  0
LINE
  5
2EE
100
AcDbEntity
  8
ASSI
100
AcDbLine
 62
253
  6
CONTINUOUS
 10
21.609871317
 20
0.3821090935
 11
21.9343028487
 21
0.3814472689
  0
LINE
  5
2EF
100
AcDbEntity
  8
ASSI
100
AcDbLine
 62
253
  6
CONTINUOUS
 10
21.9343028487
 20
0.3814472689
 11
22.0399610037
 21
0.3807540705
  0
LINE
  5
2F0
100
AcDbEntity
  8
ASSI
100
AcDbLine
 62
253
  6
CONTINUOUS
 10
21.7704614414
 20
0.1815673396
 11
21.8347310979
 21
0.181089092
  0
LINE
  5
2F1
100
AcDbEntity
  8
ASSI
100
AcDbLine
 62
253
  6
CONTINUOUS
 10
22.0399610037
 20
0.3807540705
 11
22.0715731725
 21
0.3804056742
  0
LINE
  5
2F2
100
AcDbEntity
  8
ASSI
100
AcDbLine
 62
253
  6
CONTINUOUS
 10
21.8347310979
 20
0.181089092
 11
21.8679278637
 21
0.1806911953
  0
LINE
  5
2F3
100
AcDbEntity
  8
ASSI
100
AcDbLine
 62
253
  6
CONTINUOUS
 10
22.0715731725
 20
0.3804056742
 11
22.0875733238
 21
0.3801611943
  0
LINE
  5
2F4
100
AcDbEntity
  8
ASSI
100
AcDbLine
 62
253
  6
CONTINUOUS
 10
21.8679278637
 20
0.1806911953
 11
21.8868960327
 21
0.180360926
  0
LWPOLYLINE
  5
2F5
100
AcDbEntity
  8
ASSI
100
AcDbPolyline
 62
253
  6
CONTINUOUS
 90
6
 70
0
 10
22.0875733238
 20
0.3801611943
 10
22.0993415167
 20
0.3799095514
 10
22.1036048817
 20
0.3797818668
 10
22.1067745216
 20
0.379653474
 10
22.108843579
 20
0.3795241675
 10
22.1098076172
 20
0.3793939843
  0
LWPOLYLINE
  5
2F6
100
AcDbEntity
  8
ASSI
100
AcDbPolyline
 62
253
  6
CONTINUOUS
 90
8
 70
0
 10
21.8868960327
 20
0.180360926
 10
21.8965013713
 20
0.180129119
 10
21.900348512
 20
0.1800106384
 10
21.903561472
 20
0.1798904508
 10
21.9061190307
 20
0.1797693715
 10
21.9080141145
 20
0.1796476725
 10
21.909253797
 20
0.1795250819
 10
21.9098380781
 20
0.1794015997
  0
LINE
  5
2F7
100
AcDbEntity
  8
ASSI
100
AcDbLine
 62
7
  6
CONTINUOUS
 10
19.6306451352
 20
0.1252351926
 11
19.3681791446
 21
0.1514157959
  0
LWPOLYLINE
  5
2F8
100
AcDbEntity
  8
ASSI
100
AcDbPolyline
 62
253
  6
CONTINUOUS
 90
5
 70
0
 10
-22.373449328
 20
0.3793939843
 10
-22.3724852899
 20
0.3795241675
 10
-22.3704162324
 20
0.379653474
 10
-22.3672465926
 20
0.3797818668
 10
-22.3629832276
 20
0.3799095514
  0
LWPOLYLINE
  5
2F9
100
AcDbEntity
  8
ASSI
100
AcDbPolyline
 62
253
  6
CONTINUOUS
 90
7
 70
0
 10
-22.173479789
 20
0.1794015997
 10
-22.1728955078
 20
0.1795250819
 10
-22.1716558253
 20
0.1796476725
 10
-22.1697607415
 20
0.1797693715
 10
-22.1672031829
 20
0.1798904508
 10
-22.1639902229
 20
0.1800106384
 10
-22.1601430821
 20
0.180129119
  0
LINE
  5
2FA
100
AcDbEntity
  8
ASSI
100
AcDbLine
 62
253
  6
CONTINUOUS
 10
22.0181791434
 20
-0.0747648074
 11
21.9098380781
 21
-0.1289312145
  0
LINE
  5
2FB
100
AcDbEntity
  8
ASSI
100
AcDbLine
 62
253
  6
CONTINUOUS
 10
22.2181791446
 20
-0.2747419622
 11
22.1098076172
 21
-0.3289235992
  0
LINE
  5
2FC
100
AcDbEntity
  8
ASSI
100
AcDbLine
 62
253
  6
CONTINUOUS
 10
21.9098380781
 20
0.1794015997
 11
22.0181791434
 21
0.1252351926
  0
LINE
  5
2FD
100
AcDbEntity
  8
ASSI
100
AcDbLine
 62
253
  6
CONTINUOUS
 10
22.1098076172
 20
0.3793939843
 11
22.2181791446
 21
0.3252123473
  0
LINE
  5
2FE
100
AcDbEntity
  8
CURVE
100
AcDbLine
 62
253
  6
CONTINUOUS
 10
-8.8257075282
 20
11.5745772437
 11
-9.1957714076
 21
11.5745772437
  0
LINE
  5
2FF
100
AcDbEntity
  8
CURVE
100
AcDbLine
 62
253
  6
CONTINUOUS
 10
-10.9429033075
 20
11.5745772437
 11
-11.2389181909
 21
11.5745772437
  0
LINE
  5
300
100
AcDbEntity
  8
ASSI
100
AcDbLine
 62
253
  6
CONTINUOUS
 10
21.7046454163
 20
22.2367164801
 11
21.6337845586
 21
22.0239610305
  0
LINE
  5
301
100
AcDbEntity
  8
ASSI
100
AcDbLine
 62
253
  6
CONTINUOUS
 10
22.2050252396
 20
21.7387707523
 11
22.133708201
 21
21.5246456472
  0
LINE
  5
302
100
AcDbEntity
  8
CURVE
100
AcDbLine
 62
253
  6
CONTINUOUS
 10
-11.2389181909
 20
14.490497243
 11
-10.8688905316
 21
14.490497243
  0
LINE
  5
303
100
AcDbEntity
  8
CURVE
100
AcDbLine
 62
253
  6
CONTINUOUS
 10
-9.1217586317
 20
14.490497243
 11
-8.8257075282
 21
14.490497243
  0
LINE
  5
304
100
AcDbEntity
  8
ASSI
100
AcDbLine
 62
253
  6
CONTINUOUS
 10
21.6337845586
 20
-21.9734906453
 11
21.7046454163
 21
-22.186246095
  0
LINE
  5
305
100
AcDbEntity
  8
ASSI
100
AcDbLine
 62
253
  6
CONTINUOUS
 10
22.133708201
 20
-21.474175262
 11
22.2050252396
 21
-21.6883003672
  0
LWPOLYLINE
  5
306
100
AcDbEntity
  8
ASSI
100
AcDbPolyline
 62
253
  6
CONTINUOUS
 90
12
 70
0
 10
22.133708201
 20
21.5246456472
 10
22.1330946768
 20
21.5221786614
 10
22.1324844972
 20
21.5184907066
 10
22.1318776625
 20
21.5135817828
 10
22.1312734172
 20
21.5074427924
 10
22.1306725166
 20
21.500082833
 10
22.130077227
 20
21.4915291973
 10
22.1294875791
 20
21.4817774223
 10
22.1289035421
 20
21.470831971
 10
22.1283272901
 20
21.4587335248
 10
22.1277588566
 20
21.4454778667
 10
22.1266474177
 20
21.4155608984
  0
LWPOLYLINE
  5
307
100
AcDbEntity
  8
ASSI
100
AcDbPolyline
 62
253
  6
CONTINUOUS
 90
10
 70
0
 10
21.6337844896
 20
22.0239610304
 10
21.6331707954
 20
22.0202741668
 10
21.632560495
 20
22.0147387354
 10
21.6319535882
 20
22.0073615493
 10
21.6313493382
 20
21.9981517157
 10
21.6307484818
 20
21.9871205841
 10
21.6301532303
 20
21.9742817041
 10
21.6295635927
 20
21.9596507841
 10
21.6289795599
 20
21.9432459572
 10
21.6278348967
 20
21.9051989882
  0
LWPOLYLINE
  5
308
100
AcDbEntity
  8
ASSI
100
AcDbPolyline
 62
253
  6
CONTINUOUS
 90
10
 70
0
 10
22.1283272901
 20
-21.4082631396
 10
22.1289035421
 20
-21.4203615858
 10
22.1294875791
 20
-21.4313070371
 10
22.130077227
 20
-21.4410588121
 10
22.1306725166
 20
-21.4496124478
 10
22.1312734172
 20
-21.4569724072
 10
22.1318776625
 20
-21.4631113976
 10
22.1324844972
 20
-21.4680203215
 10
22.1330946768
 20
-21.4717082763
 10
22.133708201
 20
-21.474175262
  0
LWPOLYLINE
  5
309
100
AcDbEntity
  8
ASSI
100
AcDbPolyline
 62
253
  6
CONTINUOUS
 90
8
 70
0
 10
21.6295635927
 20
-21.9091803989
 10
21.6301532303
 20
-21.9238113189
 10
21.6307484818
 20
-21.9366501989
 10
21.6313493382
 20
-21.9476813305
 10
21.6319535882
 20
-21.9568911641
 10
21.632560495
 20
-21.9642683502
 10
21.6331707954
 20
-21.9698037817
 10
21.6337844896
 20
-21.9734906453
  0
LINE
  5
30A
100
AcDbEntity
  8
ASSI
100
AcDbLine
 62
253
  6
CONTINUOUS
 10
21.6284033152
 20
-21.8746174183
 11
21.6295635927
 21
-21.9091803989
  0
LINE
  5
30B
100
AcDbEntity
  8
ASSI
100
AcDbLine
 62
253
  6
CONTINUOUS
 10
21.6272742664
 20
-21.8331336331
 11
21.6284033152
 21
-21.8746174183
  0
LINE
  5
30C
100
AcDbEntity
  8
ASSI
100
AcDbLine
 62
253
  6
CONTINUOUS
 10
21.6261826117
 20
-21.7849338594
 11
21.6272742664
 21
-21.8331336331
  0
LINE
  5
30D
100
AcDbEntity
  8
ASSI
100
AcDbLine
 62
253
  6
CONTINUOUS
 10
21.6278348967
 20
21.9051989882
 11
21.6261826117
 21
21.8354042447
  0
LINE
  5
30E
100
AcDbEntity
  8
ASSI
100
AcDbLine
 62
7
  6
CONTINUOUS
 10
18.9239690188
 20
22.2367164801
 11
18.5759141715
 21
22.2051225196
  0
LINE
  5
30F
100
AcDbEntity
  8
ASSI
100
AcDbLine
 62
253
  6
CONTINUOUS
 10
-22.1926140519
 20
20.5829948381
 11
-22.1505318433
 21
20.584264044
  0
LINE
  5
310
100
AcDbEntity
  8
ASSI
100
AcDbLine
 62
253
  6
CONTINUOUS
 10
-22.1505318433
 20
20.584264044
 11
-22.1055606555
 21
20.5853497854
  0
LINE
  5
311
100
AcDbEntity
  8
ASSI
100
AcDbLine
 62
253
  6
CONTINUOUS
 10
-22.1055606555
 20
20.5853497854
 11
-22.0581823326
 21
20.5862404291
  0
LINE
  5
312
100
AcDbEntity
  8
ASSI
100
AcDbLine
 62
253
  6
CONTINUOUS
 10
-22.0581823326
 20
20.5862404291
 11
-22.0089045099
 21
20.5869264323
  0
LINE
  5
313
100
AcDbEntity
  8
ASSI
100
AcDbLine
 62
253
  6
CONTINUOUS
 10
-22.0089045099
 20
20.5869264323
 11
-21.9582551747
 21
20.5874004448
  0
LINE
  5
314
100
AcDbEntity
  8
ASSI
100
AcDbLine
 62
253
  6
CONTINUOUS
 10
-21.9582551747
 20
20.5874004448
 11
-21.8808992937
 21
20.587703506
  0
LINE
  5
315
100
AcDbEntity
  8
ASSI
100
AcDbLine
 62
253
  6
CONTINUOUS
 10
21.6689436661
 20
20.5875562881
 11
-21.8808992787
 21
20.5876898282
  0
LINE
  5
316
100
AcDbEntity
  8
ASSI
100
AcDbLine
 62
253
  6
CONTINUOUS
 10
21.7200759583
 20
20.5871903195
 11
21.6689436661
 21
20.5875562881
  0
LINE
  5
317
100
AcDbEntity
  8
ASSI
100
AcDbLine
 62
253
  6
CONTINUOUS
 10
21.7701066019
 20
20.5866095329
 11
21.7200759583
 21
20.5871903195
  0
LINE
  5
318
100
AcDbEntity
  8
ASSI
100
AcDbLine
 62
253
  6
CONTINUOUS
 10
21.8184995431
 20
20.5858201509
 11
21.7701066019
 21
20.5866095329
  0
LINE
  5
319
100
AcDbEntity
  8
ASSI
100
AcDbLine
 62
253
  6
CONTINUOUS
 10
21.8647362752
 20
20.5848306315
 11
21.8184995431
 21
20.5858201509
  0
LWPOLYLINE
  5
31A
100
AcDbEntity
  8
ASSI
100
AcDbPolyline
 62
253
  6
CONTINUOUS
 90
3
 70
0
 10
21.9289724145
 20
20.582994846
 10
21.9083213942
 20
20.5836515769
 10
21.8647362752
 20
20.5848306315
  0
LINE
  5
31B
100
AcDbEntity
  8
ASSI
100
AcDbLine
 62
7
  6
CONTINUOUS
 10
-19.1876107297
 20
22.2367164801
 11
-18.8395558823
 21
22.2051225196
  0
LINE
  5
31C
100
AcDbEntity
  8
ASSI
100
AcDbLine
 62
253
  6
CONTINUOUS
 10
22.127198208
 20
-21.3805988285
 11
22.1283272901
 21
-21.4082631396
  0
LWPOLYLINE
  5
31D
100
AcDbEntity
  8
ASSI
100
AcDbPolyline
 62
253
  6
CONTINUOUS
 90
25
 70
0
 10
22.1098076172
 20
-0.3289235992
 10
22.1093775573
 20
-0.3158447217
 10
22.1080932024
 20
-0.30282184
 10
22.1059600514
 20
-0.2899107094
 10
22.102987237
 20
-0.2771666067
 10
22.0991874872
 20
-0.2646440936
 10
22.0945770701
 20
-0.2523967834
 10
22.0891757248
 20
-0.2404771111
 10
22.0830065763
 20
-0.2289361084
 10
22.0760960373
 20
-0.2178231864
 10
22.0684736942
 20
-0.2071859229
 10
22.0601721812
 20
-0.1970698596
 10
22.05122704
 20
-0.1875183064
 10
22.0416765681
 20
-0.1785721566
 10
22.0315616543
 20
-0.1702697111
 10
22.0209256043
 20
-0.1626465153
 10
22.0098139547
 20
-0.1557352062
 10
21.9982742782
 20
-0.149565373
 10
21.9863559801
 20
-0.1441634304
 10
21.9741100867
 20
-0.1395525055
 10
21.9615890266
 20
-0.1357523386
 10
21.9488464066
 20
-0.1327791991
 10
21.9359367821
 20
-0.1306458155
 10
21.9229154231
 20
-0.129361321
 10
21.9098380781
 20
-0.1289312145
  0
LINE
  5
31E
100
AcDbEntity
  8
ASSI
100
AcDbLine
 62
253
  6
CONTINUOUS
 10
22.1261065214
 20
-21.34847846
 11
22.127198208
 21
-21.3805988285
  0
LWPOLYLINE
  5
31F
100
AcDbEntity
  8
ASSI
100
AcDbPolyline
 62
253
  6
CONTINUOUS
 90
31
 70
0
 10
22.133708201
 20
21.5246456472
 10
22.1329999854
 20
21.5507625867
 10
22.1309250455
 20
21.5768080251
 10
22.1274890619
 20
21.6027106568
 10
22.1227014413
 20
21.6283995669
 10
22.1165752909
 20
21.6538044257
 10
22.1091273826
 20
21.6788556814
 10
22.1003781067
 20
21.7034847499
 10
22.0903514165
 20
21.7276242031
 10
22.0790747623
 20
21.7512079535
 10
22.0665790167
 20
21.7741714346
 10
22.0528983897
 20
21.7964517783
 10
22.0380703355
 20
21.8179879867
 10
22.0221354494
 20
21.8387210991
 10
22.0051373569
 20
21.8585943535
 10
21.9871225945
 20
21.877553342
 10
21.9681404819
 20
21.8955461596
 10
21.9482429873
 20
21.9125235465
 10
21.9274845849
 20
21.928439023
 10
21.9059221059
 20
21.9432490164
 10
21.8836145829
 20
21.9569129807
 10
21.8606230882
 20
21.9693935074
 10
21.8370105665
 20
21.980656428
 10
21.8128416631
 20
21.9906709074
 10
21.7881825461
 20
21.9994095284
 10
21.7631007261
 20
22.006848367
 10
21.7376648706
 20
22.0129670573
 10
21.7119446166
 20
22.0177488481
 10
21.6860103796
 20
22.0211806479
 10
21.659933161
 20
22.0232530613
 10
21.6337843535
 20
22.0239604145
  0
LINE
  5
320
100
AcDbEntity
  8
ASSI
100
AcDbLine
 62
253
  6
CONTINUOUS
 10
22.1245489223
 20
-21.2922371026
 11
22.1261065214
 21
-21.34847846
  0
LINE
  5
321
100
AcDbEntity
  8
ASSI
100
AcDbLine
 62
253
  6
CONTINUOUS
 10
22.1231033931
 20
-21.226909299
 11
22.1245489223
 21
-21.2922371026
  0
LINE
  5
322
100
AcDbEntity
  8
ASSI
100
AcDbLine
 62
253
  6
CONTINUOUS
 10
21.6241295468
 20
-21.6693715177
 11
21.6261826117
 21
-21.7849338594
  0
LINE
  5
323
100
AcDbEntity
  8
ASSI
100
AcDbLine
 62
253
  6
CONTINUOUS
 10
22.1213776456
 20
-21.1269206465
 11
22.1231033931
 21
-21.226909299
  0
LINE
  5
324
100
AcDbEntity
  8
ASSI
100
AcDbLine
 62
253
  6
CONTINUOUS
 10
21.6218622415
 20
-21.4920533459
 11
21.6241295468
 21
-21.6693715177
  0
LINE
  5
325
100
AcDbEntity
  8
ASSI
100
AcDbLine
 62
253
  6
CONTINUOUS
 10
22.1195928338
 20
-20.984138029
 11
22.1213776456
 21
-21.1269206465
  0
LINE
  5
326
100
AcDbEntity
  8
ASSI
100
AcDbLine
 62
253
  6
CONTINUOUS
 10
21.6190820852
 20
-21.1457635988
 11
21.6218622415
 21
-21.4920533459
  0
LINE
  5
327
100
AcDbEntity
  8
ASSI
100
AcDbLine
 62
253
  6
CONTINUOUS
 10
22.1180666083
 20
-20.7924883539
 11
22.1195928338
 21
-20.984138029
  0
LINE
  5
328
100
AcDbEntity
  8
ASSI
100
AcDbLine
 62
253
  6
CONTINUOUS
 10
22.1172175931
 20
-20.5518390698
 11
22.1180666083
 21
-20.7924883539
  0
LINE
  5
329
100
AcDbEntity
  8
ASSI
100
AcDbLine
 62
7
  6
CONTINUOUS
 10
22.2181791446
 20
13.1252351926
 11
22.2050252396
 21
21.7387707523
  0
LINE
  5
32A
100
AcDbEntity
  8
ASSI
100
AcDbLine
 62
253
  6
CONTINUOUS
 10
21.6173512806
 20
-20.6424027336
 11
21.6190820852
 21
-21.1457635988
  0
LINE
  5
32B
100
AcDbEntity
  8
ASSI
100
AcDbLine
 62
253
  6
CONTINUOUS
 10
22.1103154301
 20
-5.377363157
 11
22.1172175931
 21
-20.5518390698
  0
LINE
  5
32C
100
AcDbEntity
  8
ASSI
100
AcDbLine
 62
253
  6
CONTINUOUS
 10
21.6173512806
 20
-20.6424027336
 11
21.6098837989
 21
-0.1315035681
  0
LINE
  5
32D
100
AcDbEntity
  8
ASSI
100
AcDbLine
 62
253
  6
CONTINUOUS
 10
22.1098076172
 20
-0.3289235992
 11
22.1103154301
 21
-5.377363157
  0
LINE
  5
32E
100
AcDbEntity
  8
ASSI
100
AcDbLine
 62
7
  6
CONTINUOUS
 10
22.2181791446
 20
-0.2747419622
 11
22.2181791446
 21
-13.0747648074
  0
LINE
  5
32F
100
AcDbEntity
  8
ASSI
100
AcDbLine
 62
7
  6
CONTINUOUS
 10
22.2181791446
 20
0.3252123473
 11
22.2181791446
 21
13.1252351926
  0
LINE
  5
330
100
AcDbEntity
  8
ASSI
100
AcDbLine
 62
7
  6
CONTINUOUS
 10
22.2181791446
 20
-13.0747648074
 11
22.2050252396
 21
-21.6883003672
  0
LINE
  5
331
100
AcDbEntity
  8
ASSI
100
AcDbLine
 62
253
  6
CONTINUOUS
 10
21.6185724581
 20
21.1002528363
 11
21.6098837989
 21
0.1819739533
  0
LINE
  5
332
100
AcDbEntity
  8
ASSI
100
AcDbLine
 62
253
  6
CONTINUOUS
 10
22.1178821517
 20
20.8093807007
 11
22.1098076172
 21
0.3793939843
  0
LINE
  5
333
100
AcDbEntity
  8
ASSI
100
AcDbLine
 62
253
  6
CONTINUOUS
 10
21.621062331
 20
21.4624752952
 11
21.6185724581
 21
21.1002528363
  0
LINE
  5
334
100
AcDbEntity
  8
ASSI
100
AcDbLine
 62
253
  6
CONTINUOUS
 10
22.1192896907
 20
21.0039891616
 11
22.1178821517
 21
20.8093807007
  0
LINE
  5
335
100
AcDbEntity
  8
ASSI
100
AcDbLine
 62
253
  6
CONTINUOUS
 10
22.1209861114
 20
21.1503169794
 11
22.1192896907
 21
21.0039891616
  0
LINE
  5
336
100
AcDbEntity
  8
ASSI
100
AcDbLine
 62
253
  6
CONTINUOUS
 10
21.6236477004
 20
21.6871648282
 11
21.621062331
 21
21.4624752952
  0
LINE
  5
337
100
AcDbEntity
  8
ASSI
100
AcDbLine
 62
253
  6
CONTINUOUS
 10
22.1226489101
 20
21.2536877338
 11
22.1209861114
 21
21.1503169794
  0
LWPOLYLINE
  5
338
100
AcDbEntity
  8
ASSI
100
AcDbPolyline
 62
253
  6
CONTINUOUS
 90
3
 70
0
 10
21.6261826117
 20
21.8354042447
 10
21.6256515872
 20
21.8088590832
 10
21.6236477004
 20
21.6871648282
  0
LINE
  5
339
100
AcDbEntity
  8
ASSI
100
AcDbLine
 62
253
  6
CONTINUOUS
 10
22.1240533992
 20
21.3218895613
 11
22.1226489101
 21
21.2536877338
  0
LWPOLYLINE
  5
33A
100
AcDbEntity
  8
ASSI
100
AcDbPolyline
 62
253
  6
CONTINUOUS
 90
31
 70
0
 10
22.133708201
 20
-21.474175262
 10
22.1329999851
 20
-21.5002922073
 10
22.1309250444
 20
-21.526337651
 10
22.1274890594
 20
-21.5522402875
 10
22.122701437
 20
-21.5779292018
 10
22.1165752846
 20
-21.6033340643
 10
22.1091273739
 20
-21.6283853231
 10
22.1003780955
 20
-21.6530143941
 10
22.0903514025
 20
-21.6771538492
 10
22.0790747457
 20
-21.7007376008
 10
22.0665789975
 20
-21.7237010826
 10
22.0528983681
 20
-21.7459814265
 10
22.0380703116
 20
-21.7675176345
 10
22.0221354235
 20
-21.788250746
 10
22.0051373293
 20
-21.8081239991
 10
21.9871225655
 20
-21.8270829859
 10
21.968140452
 20
-21.8450758014
 10
21.9482429568
 20
-21.8620531861
 10
21.9274845544
 20
-21.87796866
 10
21.9059220758
 20
-21.8927786508
 10
21.8836145537
 20
-21.9064426124
 10
21.8606230603
 20
-21.9189231365
 10
21.8370105405
 20
-21.9301860545
 10
21.8128416392
 20
-21.9402005314
 10
21.7881825249
 20
-21.9489391502
 10
21.7631007078
 20
-21.9563779868
 10
21.7376648556
 20
-21.9624966754
 10
21.7119446051
 20
-21.9672784648
 10
21.6860103718
 20
-21.9707102636
 10
21.659933157
 20
-21.9727826764
 10
21.6337843535
 20
-21.9734900294
  0
LINE
  5
33B
100
AcDbEntity
  8
ASSI
100
AcDbLine
 62
253
  6
CONTINUOUS
 10
22.1255754834
 20
21.3812371298
 11
22.1240533992
 21
21.3218895613
  0
LINE
  5
33C
100
AcDbEntity
  8
ASSI
100
AcDbLine
 62
253
  6
CONTINUOUS
 10
22.1266474177
 20
21.4155608984
 11
22.1255754834
 21
21.3812371298
  0
LWPOLYLINE
  5
33D
100
AcDbEntity
  8
ASSI
100
AcDbPolyline
 62
253
  6
CONTINUOUS
 90
25
 70
0
 10
22.1098076172
 20
0.3793939843
 10
22.1093775584
 20
0.3663151227
 10
22.1080932065
 20
0.353292256
 10
22.1059600603
 20
0.3403811393
 10
22.1029872524
 20
0.3276370491
 10
22.0991875104
 20
0.3151145472
 10
22.0945771023
 20
0.3028672463
 10
22.0891757666
 20
0.2909475811
 10
22.0830066283
 20
0.2794065836
 10
22.0760960994
 20
0.2682936645
 10
22.0684737661
 20
0.2576564018
 10
22.0601722622
 20
0.2475403371
 10
22.0512271289
 20
0.2379887805
 10
22.0416766634
 20
0.2290426253
 10
22.0315617543
 20
0.2207401729
 10
22.0209257067
 20
0.2131169688
 10
22.009814057
 20
0.2062056504
 10
21.9982743779
 20
0.2000358073
 10
21.9863560743
 20
0.1946338546
 10
21.9741101725
 20
0.1900229197
 10
21.961589101
 20
0.1862227436
 10
21.9488464666
 20
0.1832495961
 10
21.9359368247
 20
0.1811162062
 10
21.9229154457
 20
0.1798317076
 10
21.9098380781
 20
0.1794015997
  0
LINE
  5
33E
100
AcDbEntity
  8
ASSI
100
AcDbLine
 62
7
  6
CONTINUOUS
 10
7.7239690188
 20
22.2367164801
 11
7.3759141715
 21
22.2051225196
  0
LINE
  5
33F
100
AcDbEntity
  8
ASSI
100
AcDbLine
 62
7
  6
CONTINUOUS
 10
-3.5760309812
 20
22.2367164801
 11
-3.9240858285
 21
22.2051225196
  0
LWPOLYLINE
  5
340
100
AcDbEntity
  8
ASSI
100
AcDbPolyline
 62
253
  6
CONTINUOUS
 90
3
 70
0
 10
-22.2493438677
 20
20.580777283
 10
-22.2124295422
 20
20.5822956127
 10
-22.1926140519
 20
20.5829948381
  0
LINE
  5
341
100
AcDbEntity
  8
ASSI
100
AcDbLine
 62
253
  6
CONTINUOUS
 10
-21.8974262694
 20
22.0239610305
 11
21.6337845586
 21
22.0239610305
  0
LINE
  5
342
100
AcDbEntity
  8
ASSI
100
AcDbLine
 62
7
  6
CONTINUOUS
 10
18.4027090907
 20
22.1998817416
 11
15.0336491984
 21
22.1998817416
  0
LINE
  5
343
100
AcDbEntity
  8
ASSI
100
AcDbLine
 62
7
  6
CONTINUOUS
 10
7.2027090907
 20
22.1998817416
 11
3.8336491984
 21
22.1998817416
  0
LINE
  5
344
100
AcDbEntity
  8
ASSI
100
AcDbLine
 62
7
  6
CONTINUOUS
 10
-4.0972909093
 20
22.1998817416
 11
-7.4663508016
 21
22.1998817416
  0
LINE
  5
345
100
AcDbEntity
  8
ASSI
100
AcDbLine
 62
7
  6
CONTINUOUS
 10
-15.2972909093
 20
22.1998817416
 11
-18.6663508016
 21
22.1998817416
  0
LINE
  5
346
100
AcDbEntity
  8
ASSI
100
AcDbLine
 62
7
  6
CONTINUOUS
 10
21.7046454163
 20
22.2367164801
 11
18.9239690188
 21
22.2367164801
  0
LINE
  5
347
100
AcDbEntity
  8
ASSI
100
AcDbLine
 62
7
  6
CONTINUOUS
 10
14.5123892703
 20
22.2367164801
 11
7.7239690188
 21
22.2367164801
  0
LINE
  5
348
100
AcDbEntity
  8
ASSI
100
AcDbLine
 62
7
  6
CONTINUOUS
 10
3.3123892703
 20
22.2367164801
 11
-3.5760309812
 21
22.2367164801
  0
LINE
  5
349
100
AcDbEntity
  8
ASSI
100
AcDbLine
 62
7
  6
CONTINUOUS
 10
-7.9876107297
 20
22.2367164801
 11
-14.7760309812
 21
22.2367164801
  0
LINE
  5
34A
100
AcDbEntity
  8
ASSI
100
AcDbLine
 62
7
  6
CONTINUOUS
 10
-19.1876107297
 20
22.2367164801
 11
-21.9682871271
 21
22.2367164801
  0
LINE
  5
34B
100
AcDbEntity
  8
ASSI
100
AcDbLine
 62
7
  6
CONTINUOUS
 10
-7.9876107297
 20
22.2367164801
 11
-7.6395558823
 21
22.2051225196
  0
LINE
  5
34C
100
AcDbEntity
  8
ASSI
100
AcDbLine
 62
7
  6
CONTINUOUS
 10
3.3123892703
 20
22.2367164801
 11
3.6604441177
 21
22.2051225196
  0
LINE
  5
34D
100
AcDbEntity
  8
ASSI
100
AcDbLine
 62
7
  6
CONTINUOUS
 10
-14.7760309812
 20
22.2367164801
 11
-15.1240858285
 21
22.2051225196
  0
LINE
  5
34E
100
AcDbEntity
  8
ASSI
100
AcDbLine
 62
7
  6
CONTINUOUS
 10
14.5123892703
 20
22.2367164801
 11
14.8604441177
 21
22.2051225196
  0
LWPOLYLINE
  5
34F
100
AcDbEntity
  8
ASSI
100
AcDbPolyline
 62
253
  6
CONTINUOUS
 90
15
 70
0
 10
22.1171814304
 20
-20.5166706639
 10
22.116060169
 20
-20.5177350454
 10
22.113601906
 20
-20.5187965738
 10
22.1098132307
 20
-20.5198524039
 10
22.1047042982
 20
-20.5208997056
 10
22.0982888027
 20
-20.5219356716
 10
22.0905839405
 20
-20.5229575251
 10
22.0816103637
 20
-20.5239625272
 10
22.0713921254
 20
-20.5249479839
 10
22.0599566147
 20
-20.525911254
 10
22.0473344838
 20
-20.5268497553
 10
22.0335595651
 20
-20.5277609723
 10
22.0186687813
 20
-20.5286424626
 10
22.002702046
 20
-20.5294918634
 10
21.9857021568
 20
-20.5303068979
  0
LWPOLYLINE
  5
350
100
AcDbEntity
  8
ASSI
100
AcDbPolyline
 62
253
  6
CONTINUOUS
 90
17
 70
0
 10
22.1171814304
 20
20.567141049
 10
22.11606018
 20
20.5682054309
 10
22.1136019273
 20
20.5692669597
 10
22.1098132614
 20
20.5703227902
 10
22.1047043375
 20
20.5713700923
 10
22.0982888498
 20
20.5724060588
 10
22.0905839944
 20
20.5734279128
 10
22.0816104236
 20
20.5744329153
 10
22.0713921904
 20
20.5754183726
 10
22.059956684
 20
20.5763816431
 10
22.0473345564
 20
20.5773201449
 10
22.0335596403
 20
20.5782313624
 10
22.0186688582
 20
20.5791128532
 10
22.0027021238
 20
20.5799622545
 10
21.9857022347
 20
20.5807772895
 10
21.9677147577
 20
20.5815557736
 10
21.9289724145
 20
20.582994846
  0
LINE
  5
351
100
AcDbEntity
  8
ASSI
100
AcDbLine
 62
7
  6
CONTINUOUS
 10
-44.2375763595
 20
-21.9734906453
 11
-40.1779605438
 21
-22.186246095
  0
LINE
  5
352
100
AcDbEntity
  8
ASSI
100
AcDbLine
 62
253
  6
CONTINUOUS
 10
-44.2201463372
 20
-21.474175262
 11
-40.1343959375
 21
-21.6883003672
  0
LINE
  5
353
100
AcDbEntity
  8
ASSI
100
AcDbLine
 62
253
  6
CONTINUOUS
 10
-45.6571461463
 20
-20.5371870026
 11
-45.6578149207
 21
-20.5372331209
  0
LINE
  5
354
100
AcDbEntity
  8
ASSI
100
AcDbLine
 62
253
  6
CONTINUOUS
 10
-45.6518021208
 20
-20.5369300596
 11
-45.6571461463
 21
-20.5371870026
  0
LINE
  5
355
100
AcDbEntity
  8
ASSI
100
AcDbLine
 62
253
  6
CONTINUOUS
 10
-45.1669643929
 20
-20.5166706639
 11
-45.6518021208
 21
-20.5369300596
  0
LINE
  5
356
100
AcDbEntity
  8
ASSI
100
AcDbLine
 62
253
  6
CONTINUOUS
 10
-39.7808092232
 20
-17.9082564086
 11
-39.8036849435
 21
-17.9082564078
  0
LWPOLYLINE
  5
357
100
AcDbEntity
  8
ASSI
100
AcDbPolyline
 62
253
  6
CONTINUOUS
 90
43
 70
0
 10
-45.1669643929
 20
-20.5166706639
 10
-45.1648926333
 20
-20.5518390698
 10
-45.1615979888
 20
-20.5868303636
 10
-45.1570804595
 20
-20.6216445455
 10
-45.1513314329
 20
-20.6563251973
 10
-45.1443595214
 20
-20.6908287371
 10
-45.1361905623
 20
-20.7250244193
 10
-45.1268200971
 20
-20.7589103154
 10
-45.1162525843
 20
-20.7924883539
 10
-45.1045272367
 20
-20.8256335745
 10
-45.0916398143
 20
-20.8583441028
 10
-45.0775945571
 20
-20.8906218132
 10
-45.0624433985
 20
-20.9223473691
 10
-45.046182243
 20
-20.9535187763
 10
-45.0288151862
 20
-20.984138029
 10
-45.0104064478
 20
-21.0140917726
 10
-44.9909521106
 20
-21.0433776114
 10
-44.9704560919
 20
-21.071997941
 10
-44.9489943628
 20
-21.0998465941
 10
-44.9265633832
 20
-21.1269206465
 10
-44.9031666932
 20
-21.1532230223
 10
-44.8788908839
 20
-21.178656326
 10
-44.8537326909
 20
-21.2032173486
 10
-44.8276953785
 20
-21.226909299
 10
-44.8008753311
 20
-21.2496444088
 10
-44.773269567
 20
-21.271419176
 10
-44.7448810678
 20
-21.2922371026
 10
-44.7158151629
 20
-21.3120209259
 10
-44.6860694195
 20
-21.3307667446
 10
-44.6556462702
 20
-21.34847846
 10
-44.6246583427
 20
-21.3650905131
 10
-44.5931035864
 20
-21.3805988285
 10
-44.5609840517
 20
-21.3950074815
 10
-44.528418518
 20
-21.4082631396
 10
-44.4954050626
 20
-21.4203615858
 10
-44.4619456082
 20
-21.4313070371
 10
-44.428164702
 20
-21.4410588121
 10
-44.3940605833
 20
-21.4496124478
 10
-44.3596350128
 20
-21.4569724072
 10
-44.3250178199
 20
-21.4631113976
 10
-44.2902522813
 20
-21.4680203215
 10
-44.2552951204
 20
-21.4717082763
 10
-44.2201463372
 20
-21.474175262
  0
LINE
  5
358
100
AcDbEntity
  8
CURVE
100
AcDbLine
 62
253
  6
CONTINUOUS
 10
-45.8895336653
 20
-13.8036743513
 11
-45.8687253739
 21
-14.5363194028
  0
LWPOLYLINE
  5
359
100
AcDbEntity
  8
ASSI
100
AcDbPolyline
 62
253
  6
CONTINUOUS
 90
9
 70
0
 10
-45.5891758676
 20
0.2062056504
 10
-45.5890282851
 20
0.2000358073
 10
-45.5888673925
 20
0.1946338546
 10
-45.5886938785
 20
0.1900229197
 10
-45.588508486
 20
0.1862227436
 10
-45.5883120088
 20
0.1832495961
 10
-45.588105288
 20
0.1811162062
 10
-45.5878892086
 20
0.1798317076
 10
-45.5876646958
 20
0.1794015997
  0
LINE
  5
35A
100
AcDbEntity
  8
CURVE
100
AcDbLine
 62
253
  6
CONTINUOUS
 10
-45.9332819515
 20
-12.1199456408
 11
-45.9485642532
 21
-11.4737857875
  0
LINE
  5
35B
100
AcDbEntity
  8
ASSI
100
AcDbLine
 62
253
  6
CONTINUOUS
 10
-45.5894286342
 20
0.2207401729
 11
-45.5891758676
 21
0.2062056504
  0
LINE
  5
35C
100
AcDbEntity
  8
ASSI
100
AcDbLine
 62
253
  6
CONTINUOUS
 10
-45.5896213683
 20
0.2379887805
 11
-45.5894286342
 21
0.2207401729
  0
LINE
  5
35D
100
AcDbEntity
  8
ASSI
100
AcDbLine
 62
253
  6
CONTINUOUS
 10
-45.58940987
 20
-0.3289235992
 11
-45.5897424965
 21
-0.2771666067
  0
LINE
  5
35E
100
AcDbEntity
  8
ASSI
100
AcDbLine
 62
253
  6
CONTINUOUS
 10
-45.589790991
 20
0.2682936645
 11
-45.5896213683
 21
0.2379887805
  0
LWPOLYLINE
  5
35F
100
AcDbEntity
  8
ASSI
100
AcDbPolyline
 62
253
  6
CONTINUOUS
 90
13
 70
0
 10
-45.58940987
 20
-0.3289235992
 10
-45.5853808135
 20
-2.0118351758
 10
-45.5756832858
 20
-3.6946483617
 10
-45.5603172868
 20
-5.377363157
 10
-45.5392825294
 20
-7.0599860589
 10
-45.5125793007
 20
-8.7425105701
 10
-45.480208462
 20
-10.4249171989
 10
-45.4421703355
 20
-12.1072058104
 10
-45.3984645989
 20
-13.7893765395
 10
-45.3490911469
 20
-15.4714102981
 10
-45.2940499443
 20
-17.1533007238
 10
-45.2333410263
 20
-18.835054179
 10
-45.1669643929
 20
-20.5166706639
  0
LINE
  5
360
100
AcDbEntity
  8
ASSI
100
AcDbLine
 62
253
  6
CONTINUOUS
 10
-45.5897424965
 20
-0.2771666067
 11
-45.5898146342
 21
-0.2289361084
  0
LINE
  5
361
100
AcDbEntity
  8
ASSI
100
AcDbLine
 62
253
  6
CONTINUOUS
 10
-45.5897854535
 20
0.3151145472
 11
-45.589790991
 21
0.2682936645
  0
LINE
  5
362
100
AcDbEntity
  8
ASSI
100
AcDbLine
 62
253
  6
CONTINUOUS
 10
-45.5898146342
 20
-0.2289361084
 11
-45.589694151
 21
-0.1970698596
  0
LWPOLYLINE
  5
363
100
AcDbEntity
  8
ASSI
100
AcDbPolyline
 62
253
  6
CONTINUOUS
 90
3
 70
0
 10
-45.58940987
 20
0.3793939843
 10
-45.5895165008
 20
0.3663151227
 10
-45.5897854535
 20
0.3151145472
  0
LINE
  5
364
100
AcDbEntity
  8
ASSI
100
AcDbLine
 62
253
  6
CONTINUOUS
 10
-45.589694151
 20
-0.1970698596
 11
-45.5895327359
 21
-0.1785721566
  0
LWPOLYLINE
  5
365
100
AcDbEntity
  8
ASSI
100
AcDbPolyline
 62
253
  6
CONTINUOUS
 90
11
 70
0
 10
-45.5895327359
 20
-0.1785721566
 10
-45.5893095074
 20
-0.1626465153
 10
-45.5891758669
 20
-0.1557352062
 10
-45.5890282844
 20
-0.149565373
 10
-45.5888673917
 20
-0.1441634304
 10
-45.5886938777
 20
-0.1395525055
 10
-45.5885084853
 20
-0.1357523386
 10
-45.5883120081
 20
-0.1327791991
 10
-45.5881052875
 20
-0.1306458155
 10
-45.5878892083
 20
-0.129361321
 10
-45.5876646958
 20
-0.1289312145
  0
LINE
  5
366
100
AcDbEntity
  8
CURVE
100
AcDbLine
 62
253
  6
CONTINUOUS
 10
-45.9490870327
 20
11.5015081807
 11
-45.9198049664
 21
12.7129589593
  0
LINE
  5
367
100
AcDbEntity
  8
CURVE
100
AcDbLine
 62
253
  6
CONTINUOUS
 10
-45.9203321336
 20
12.6921729036
 11
-45.8765361459
 21
14.3161883749
  0
LINE
  5
368
100
AcDbEntity
  8
CURVE
100
AcDbLine
 62
253
  6
CONTINUOUS
 10
-45.8693699618
 20
14.5646490349
 11
-45.8782094799
 21
14.2575458582
  0
LWPOLYLINE
  5
369
100
AcDbEntity
  8
ASSI
100
AcDbPolyline
 62
253
  6
CONTINUOUS
 90
13
 70
0
 10
-45.1669643929
 20
20.567141049
 10
-45.2333410263
 20
18.8855245642
 10
-45.2940499443
 20
17.2037711089
 10
-45.3490911469
 20
15.5218806832
 10
-45.3984645989
 20
13.8398469246
 10
-45.4421703355
 20
12.1576761955
 10
-45.480208462
 20
10.475387584
 10
-45.5125793007
 20
8.7929809552
 10
-45.5392825294
 20
7.110456444
 10
-45.5603172868
 20
5.4278335421
 10
-45.5756832858
 20
3.7451187468
 10
-45.5853808135
 20
2.0623055609
 10
-45.58940987
 20
0.3793939843
  0
LWPOLYLINE
  5
36A
100
AcDbEntity
  8
ASSI
100
AcDbPolyline
 62
253
  6
CONTINUOUS
 90
11
 70
0
 10
-44.2381083894
 20
21.9432490164
 10
-44.2386878668
 20
21.9693935074
 10
-44.2388659733
 20
21.980656428
 10
-44.2389689402
 20
21.9906709074
 10
-44.2389964854
 20
21.9994095284
 10
-44.2389485335
 20
22.006848367
 10
-44.238825216
 20
22.0129670573
 10
-44.2386268703
 20
22.0177488481
 10
-44.2383540394
 20
22.0211806479
 10
-44.2380074704
 20
22.0232530613
 10
-44.2375881121
 20
22.0239604145
  0
LWPOLYLINE
  5
36B
100
AcDbEntity
  8
ASSI
100
AcDbPolyline
 62
253
  6
CONTINUOUS
 90
10
 70
0
 10
-44.2386878668
 20
-21.9189231365
 10
-44.2388659732
 20
-21.9301860545
 10
-44.23896894
 20
-21.9402005314
 10
-44.2389964851
 20
-21.9489391502
 10
-44.2389485333
 20
-21.9563779868
 10
-44.2388252157
 20
-21.9624966754
 10
-44.23862687
 20
-21.9672784648
 10
-44.2383540393
 20
-21.9707102636
 10
-44.2380074703
 20
-21.9727826764
 10
-44.2375881121
 20
-21.9734900294
  0
LINE
  5
36C
100
AcDbEntity
  8
ASSI
100
AcDbLine
 62
253
  6
CONTINUOUS
 10
-44.2381083896
 20
-21.8927786508
 11
-44.2386878668
 21
-21.9189231365
  0
LINE
  5
36D
100
AcDbEntity
  8
ASSI
100
AcDbLine
 62
253
  6
CONTINUOUS
 10
-44.2201463372
 20
21.5246456472
 11
-44.2266162061
 21
21.6538044257
  0
LINE
  5
36E
100
AcDbEntity
  8
ASSI
100
AcDbLine
 62
253
  6
CONTINUOUS
 10
-44.2266162061
 20
21.6538044257
 11
-44.2320516856
 21
21.7741714346
  0
LINE
  5
36F
100
AcDbEntity
  8
ASSI
100
AcDbLine
 62
253
  6
CONTINUOUS
 10
-44.2320516856
 20
21.7741714346
 11
-44.2354036352
 21
21.8585943535
  0
LINE
  5
370
100
AcDbEntity
  8
ASSI
100
AcDbLine
 62
253
  6
CONTINUOUS
 10
-44.2354036352
 20
21.8585943535
 11
-44.2372368495
 21
21.9125235465
  0
LINE
  5
371
100
AcDbEntity
  8
ASSI
100
AcDbLine
 62
253
  6
CONTINUOUS
 10
-44.2372368495
 20
21.9125235465
 11
-44.2381083894
 21
21.9432490164
  0
LINE
  5
372
100
AcDbEntity
  8
ASSI
100
AcDbLine
 62
253
  6
CONTINUOUS
 10
-44.2372368499
 20
-21.8620531861
 11
-44.2381083896
 21
-21.8927786508
  0
LINE
  5
373
100
AcDbEntity
  8
ASSI
100
AcDbLine
 62
253
  6
CONTINUOUS
 10
-44.235403636
 20
-21.8081239991
 11
-44.2372368499
 21
-21.8620531861
  0
LINE
  5
374
100
AcDbEntity
  8
ASSI
100
AcDbLine
 62
253
  6
CONTINUOUS
 10
-44.2320516867
 20
-21.7237010826
 11
-44.235403636
 21
-21.8081239991
  0
LINE
  5
375
100
AcDbEntity
  8
ASSI
100
AcDbLine
 62
253
  6
CONTINUOUS
 10
-44.226616207
 20
-21.6033340643
 11
-44.2320516867
 21
-21.7237010826
  0
LINE
  5
376
100
AcDbEntity
  8
ASSI
100
AcDbLine
 62
253
  6
CONTINUOUS
 10
-44.2201463372
 20
-21.474175262
 11
-44.226616207
 21
-21.6033340643
  0
LINE
  5
377
100
AcDbEntity
  8
ASSI
100
AcDbLine
 62
253
  6
CONTINUOUS
 10
-39.3808092232
 20
-0.2747419622
 11
-45.58940987
 21
-0.3289235992
  0
LINE
  5
378
100
AcDbEntity
  8
ASSI
100
AcDbLine
 62
7
  6
CONTINUOUS
 10
-39.3808092232
 20
-0.0747648074
 11
-45.882427221
 21
-0.1315035681
  0
LINE
  5
379
100
AcDbEntity
  8
ASSI
100
AcDbLine
 62
253
  6
CONTINUOUS
 10
-45.58940987
 20
-0.3289235992
 11
-46.0806818616
 21
-0.3316387084
  0
LINE
  5
37A
100
AcDbEntity
  8
ASSI
100
AcDbLine
 62
7
  6
CONTINUOUS
 10
-45.882427221
 20
0.1819739533
 11
-39.3808092232
 21
0.1252351926
  0
LINE
  5
37B
100
AcDbEntity
  8
ASSI
100
AcDbLine
 62
7
  6
CONTINUOUS
 10
-39.7808092232
 20
17.9587267938
 11
-39.7808092232
 21
17.6972561137
  0
LINE
  5
37C
100
AcDbEntity
  8
ASSI
100
AcDbLine
 62
7
  6
CONTINUOUS
 10
-39.7808092232
 20
-17.6467857285
 11
-39.7808092232
 21
-17.9082564086
  0
LINE
  5
37D
100
AcDbEntity
  8
ASSI
100
AcDbLine
 62
7
  6
CONTINUOUS
 10
-39.3808092232
 20
-0.0747648074
 11
-39.3808092232
 21
-13.0747648074
  0
LINE
  5
37E
100
AcDbEntity
  8
ASSI
100
AcDbLine
 62
7
  6
CONTINUOUS
 10
-39.3808092232
 20
0.1252351926
 11
-39.3808092232
 21
13.1252351926
  0
LINE
  5
37F
100
AcDbEntity
  8
ASSI
100
AcDbLine
 62
253
  6
CONTINUOUS
 10
-46.0806818616
 20
0.3821090935
 11
-45.58940987
 21
0.3793939843
  0
LINE
  5
380
100
AcDbEntity
  8
ASSI
100
AcDbLine
 62
253
  6
CONTINUOUS
 10
-45.58940987
 20
0.3793939843
 11
-39.3808092232
 21
0.3252123473
  0
LINE
  5
381
100
AcDbEntity
  8
ASSI
100
AcDbLine
 62
7
  6
CONTINUOUS
 10
-39.3808092232
 20
13.1252351926
 11
-40.1779605438
 21
22.2367164801
  0
LINE
  5
382
100
AcDbEntity
  8
ASSI
100
AcDbLine
 62
7
  6
CONTINUOUS
 10
-39.3808092232
 20
-13.0747648074
 11
-40.1779605438
 21
-22.186246095
  0
LINE
  5
383
100
AcDbEntity
  8
ASSI
100
AcDbLine
 62
253
  6
CONTINUOUS
 10
-39.7808092232
 20
17.9587267938
 11
-39.8036849435
 21
17.9587267938
  0
LWPOLYLINE
  5
384
100
AcDbEntity
  8
ASSI
100
AcDbPolyline
 62
253
  6
CONTINUOUS
 90
43
 70
0
 10
-44.2201463372
 20
21.5246456472
 10
-44.2552951203
 20
21.5221786614
 10
-44.2902522811
 20
21.5184907066
 10
-44.3250178197
 20
21.5135817828
 10
-44.3596350125
 20
21.5074427924
 10
-44.394060583
 20
21.500082833
 10
-44.4281647017
 20
21.4915291973
 10
-44.4619456079
 20
21.4817774223
 10
-44.4954050624
 20
21.470831971
 10
-44.5284185177
 20
21.4587335248
 10
-44.5609840514
 20
21.4454778667
 10
-44.5931035861
 20
21.4310692137
 10
-44.6246583425
 20
21.4155608984
 10
-44.65564627
 20
21.3989488453
 10
-44.6860694192
 20
21.3812371298
 10
-44.7158151627
 20
21.3624913111
 10
-44.7448810676
 20
21.3427074879
 10
-44.7732695668
 20
21.3218895613
 10
-44.8008753309
 20
21.3001147941
 10
-44.8276953783
 20
21.2773796843
 10
-44.8537326907
 20
21.2536877338
 10
-44.8788908838
 20
21.2291267113
 10
-44.9031666931
 20
21.2036934076
 10
-44.9265633831
 20
21.1773910318
 10
-44.9489943627
 20
21.1503169794
 10
-44.9704560918
 20
21.1224683263
 10
-44.9909521105
 20
21.0938479967
 10
-45.0104064476
 20
21.0645621579
 10
-45.0288151861
 20
21.0346084144
 10
-45.0461822429
 20
21.0039891616
 10
-45.0624433984
 20
20.9728177544
 10
-45.077594557
 20
20.9410921985
 10
-45.0916398142
 20
20.9088144881
 10
-45.1045272366
 20
20.8761039598
 10
-45.1162525842
 20
20.8429587392
 10
-45.126820097
 20
20.8093807007
 10
-45.1361905622
 20
20.7754948046
 10
-45.1443595213
 20
20.7412991224
 10
-45.1513314328
 20
20.7067955826
 10
-45.1570804595
 20
20.6721149308
 10
-45.1615979888
 20
20.6373007489
 10
-45.1648926333
 20
20.602309455
 10
-45.1669643929
 20
20.567141049
  0
LINE
  5
385
100
AcDbEntity
  8
ASSI
100
AcDbLine
 62
253
  6
CONTINUOUS
 10
-40.1343959375
 20
21.7387707523
 11
-44.2201463372
 21
21.5246456472
  0
LINE
  5
386
100
AcDbEntity
  8
ASSI
100
AcDbLine
 62
7
  6
CONTINUOUS
 10
-40.1779605438
 20
22.2367164801
 11
-44.2375763593
 21
22.0239610305
  0
LINE
  5
387
100
AcDbEntity
  8
ASSI
100
AcDbLine
 62
253
  6
CONTINUOUS
 10
-45.1669643929
 20
20.567141049
 11
-45.6518023907
 21
20.5874004557
  0
LWPOLYLINE
  5
388
100
AcDbEntity
  8
ASSI
100
AcDbPolyline
 62
253
  6
CONTINUOUS
 90
3
 70
0
 10
-45.6518023907
 20
20.5874004557
 10
-45.6571464203
 20
20.587657399
 10
-45.6578151954
 20
20.5877035174
  0
CIRCLE
  5
389
100
AcDbEntity
  8
ASSI
100
AcDbCircle
 62
7
  6
CONTINUOUS
 10
-11.3818208554
 20
4.5252351926
 40
1.3
  0
CIRCLE
  5
38A
100
AcDbEntity
  8
ASSI
100
AcDbCircle
 62
7
  6
CONTINUOUS
 10
-11.3818208554
 20
-4.4747648074
 40
1.3
  0
CIRCLE
  5
38B
100
AcDbEntity
  8
DRAFT
100
AcDbCircle
 62
7
  6
CONTINUOUS
 10
-11.3818208554
 20
-4.4747648074
 40
1.225
  0
CIRCLE
  5
38C
100
AcDbEntity
  8
DRAFT
100
AcDbCircle
 62
7
  6
CONTINUOUS
 10
-11.3818208554
 20
4.5252351926
 40
1.225
  0
CIRCLE
  5
38D
100
AcDbEntity
  8
RACCORDO
100
AcDbCircle
 62
253
  6
CONTINUOUS
 10
-11.3818208554
 20
-4.4747648074
 40
1.2068524201
  0
CIRCLE
  5
38E
100
AcDbEntity
  8
RACCORDO
100
AcDbCircle
 62
253
  6
CONTINUOUS
 10
-11.3818208554
 20
4.5252351926
 40
1.2068524201
  0
CIRCLE
  5
38F
100
AcDbEntity
  8
RACCORDO
100
AcDbCircle
 62
253
  6
CONTINUOUS
 10
-11.3818208554
 20
-4.4747648074
 40
1.1180464865
  0
CIRCLE
  5
390
100
AcDbEntity
  8
RACCORDO
100
AcDbCircle
 62
253
  6
CONTINUOUS
 10
-11.3818208554
 20
4.5252351926
 40
1.1180464865
  0
ARC
  5
391
100
AcDbEntity
  8
ASSI
100
AcDbCircle
 62
7
  6
CONTINUOUS
 10
-44.1590841777
 20
-20.4755457273
 40
1.5
100
AcDbArc
 50
182.3564266661
 51
267.0004495404
  0
ARC
  5
392
100
AcDbEntity
  8
ASSI
100
AcDbCircle
 62
7
  6
CONTINUOUS
 10
-40.0808092232
 20
-17.9082564086
 40
0.3
100
AcDbArc
 50
335.0
 51
360.0
  0
ARC
  5
393
100
AcDbEntity
  8
ASSI
100
AcDbCircle
 62
7
  6
CONTINUOUS
 10
-45.8806819151
 20
-0.3314959528
 40
0.2
100
AcDbArc
 50
90.4999996495
 51
180.0408949932
  0
ARC
  5
394
100
AcDbEntity
  8
ASSI
100
AcDbCircle
 62
7
  6
CONTINUOUS
 10
-44.1590841777
 20
20.5260161124
 40
1.5
100
AcDbArc
 50
92.9995504596
 51
177.6435733339
  0
ARC
  5
395
100
AcDbEntity
  8
ASSI
100
AcDbCircle
 62
7
  6
CONTINUOUS
 10
-40.0808092232
 20
17.9587267938
 40
0.3
100
AcDbArc
 50
0.0
 51
25.0
  0
ARC
  5
396
100
AcDbEntity
  8
ASSI
100
AcDbCircle
 62
7
  6
CONTINUOUS
 10
-45.8806819151
 20
0.3819663379
 40
0.2
100
AcDbArc
 50
179.9591050068
 51
269.5000003505
  0
ARC
  5
397
100
AcDbEntity
  8
ASSI
100
AcDbCircle
 62
7
  6
CONTINUOUS
 10
453.9191907768
 20
0.0252351926
 40
500.0
100
AcDbArc
 50
177.6430515792
 51
179.9591052604
  0
ARC
  5
398
100
AcDbEntity
  8
CURVE
100
AcDbCircle
 62
253
  6
CONTINUOUS
 10
453.9191907768
 20
0.0252351926
 40
500.0
100
AcDbArc
 50
178.4215075059
 51
178.625633519
  0
ARC
  5
399
100
AcDbEntity
  8
ASSI
100
AcDbCircle
 62
7
  6
CONTINUOUS
 10
453.9191907768
 20
0.0252351926
 40
500.0
100
AcDbArc
 50
180.0408947396
 51
182.3569484208
  0
ELLIPSE
  5
39A
100
AcDbEntity
  8
ASSI
100
AcDbEllipse
 62
7
  6
CONTINUOUS
 10
7.2027090907
 20
22.2103632975
 30
0.0
 11
0.2
 21
-0.0
 31
0.0
 40
0.0524077793
 41
-1.5707963268
 42
-0.5235987756
  0
ELLIPSE
  5
39B
100
AcDbEntity
  8
ASSI
100
AcDbEllipse
 62
7
  6
CONTINUOUS
 10
-7.4663508016
 20
22.2103632975
 30
0.0
 11
0.2
 21
-0.0
 31
0.0
 40
0.0524077793
 41
-2.617993878
 42
-1.5707963268
  0
ELLIPSE
  5
39C
100
AcDbEntity
  8
ASSI
100
AcDbEllipse
 62
7
  6
CONTINUOUS
 10
-21.9685914816
 20
21.7383155187
 30
0.0
 11
0.498078285
 21
0.0448076117
 31
0.0
 40
0.9965957691
 41
1.4807720384
 42
3.0506549766
  0
ELLIPSE
  5
39D
100
AcDbEntity
  8
ASSI
100
AcDbEllipse
 62
7
  6
CONTINUOUS
 10
21.7049497707
 20
21.7383155187
 30
0.0
 11
0.498078285
 21
-0.0448076117
 31
0.0
 40
0.9965957691
 41
0.0909376769
 42
1.6608206152
  0
ELLIPSE
  5
39E
100
AcDbEntity
  8
ASSI
100
AcDbEllipse
 62
7
  6
CONTINUOUS
 10
22.018148679
 20
0.3252428082
 30
0.0
 11
0.1789222233
 21
-0.0894542984
 31
0.0
 40
0.9998096356
 41
-1.1071030277
 42
0.4635410001
  0
ELLIPSE
  5
39F
100
AcDbEntity
  8
ASSI
100
AcDbEllipse
 62
7
  6
CONTINUOUS
 10
-22.2817903898
 20
0.3252428082
 30
0.0
 11
0.1789222233
 21
0.0894542984
 31
0.0
 40
0.9998096356
 41
2.6780516535
 42
4.2486956813
  0
ELLIPSE
  5
3A0
100
AcDbEntity
  8
ASSI
100
AcDbEllipse
 62
7
  6
CONTINUOUS
 10
3.8336491984
 20
22.2103632975
 30
0.0
 11
0.2
 21
0.0
 31
0.0
 40
0.0524077793
 41
-2.617993878
 42
-1.5707963268
  0
ELLIPSE
  5
3A1
100
AcDbEntity
  8
ASSI
100
AcDbEllipse
 62
7
  6
CONTINUOUS
 10
-4.0972909093
 20
22.2103632975
 30
0.0
 11
0.2
 21
-0.0
 31
0.0
 40
0.0524077793
 41
-1.5707963268
 42
-0.5235987756
  0
ELLIPSE
  5
3A2
100
AcDbEntity
  8
ASSI
100
AcDbEllipse
 62
7
  6
CONTINUOUS
 10
15.0336491984
 20
22.2103632975
 30
0.0
 11
0.2
 21
-0.0
 31
0.0
 40
0.0524077793
 41
-2.617993878
 42
-1.5707963268
  0
ELLIPSE
  5
3A3
100
AcDbEntity
  8
ASSI
100
AcDbEllipse
 62
7
  6
CONTINUOUS
 10
18.4027090907
 20
22.2103632975
 30
0.0
 11
0.2
 21
0.0
 31
0.0
 40
0.0524077793
 41
-1.5707963268
 42
-0.5235987756
  0
ELLIPSE
  5
3A4
100
AcDbEntity
  8
ASSI
100
AcDbEllipse
 62
7
  6
CONTINUOUS
 10
-15.2972909093
 20
22.2103632975
 30
0.0
 11
0.2
 21
0.0
 31
0.0
 40
0.0524077793
 41
-1.5707963268
 42
-0.5235987756
  0
ELLIPSE
  5
3A5
100
AcDbEntity
  8
ASSI
100
AcDbEllipse
 62
7
  6
CONTINUOUS
 10
-18.6663508016
 20
22.2103632975
 30
0.0
 11
0.2
 21
0.0
 31
0.0
 40
0.0524077793
 41
-2.617993878
 42
-1.5707963268
  0
ELLIPSE
  5
3A6
100
AcDbEntity
  8
ASSI
100
AcDbEllipse
 62
7
  6
CONTINUOUS
 10
-7.4663508016
 20
-22.1598929124
 30
0.0
 11
0.2
 21
0.0
 31
0.0
 40
0.0524077793
 41
1.5707963268
 42
2.617993878
  0
ELLIPSE
  5
3A7
100
AcDbEntity
  8
ASSI
100
AcDbEllipse
 62
7
  6
CONTINUOUS
 10
7.2027090907
 20
-22.1598929124
 30
0.0
 11
0.2
 21
0.0
 31
0.0
 40
0.0524077793
 41
0.5235987756
 42
1.5707963268
  0
ELLIPSE
  5
3A8
100
AcDbEntity
  8
ASSI
100
AcDbEllipse
 62
7
  6
CONTINUOUS
 10
21.7049497707
 20
-21.6878451335
 30
0.0
 11
0.498078285
 21
0.0448076117
 31
0.0
 40
0.9965957691
 41
-1.6608206152
 42
-0.0909376769
  0
ELLIPSE
  5
3A9
100
AcDbEntity
  8
ASSI
100
AcDbEllipse
 62
7
  6
CONTINUOUS
 10
-22.2817903898
 20
-0.2747724231
 30
0.0
 11
0.1789222233
 21
-0.0894542984
 31
0.0
 40
0.9998096356
 41
2.0344896259
 42
3.6051336537
  0
ELLIPSE
  5
3AA
100
AcDbEntity
  8
ASSI
100
AcDbEllipse
 62
7
  6
CONTINUOUS
 10
-21.9685914816
 20
-21.6878451335
 30
0.0
 11
0.498078285
 21
-0.0448076117
 31
0.0
 40
0.9965957691
 41
-3.0506549766
 42
-1.4807720384
  0
ELLIPSE
  5
3AB
100
AcDbEntity
  8
ASSI
100
AcDbEllipse
 62
7
  6
CONTINUOUS
 10
22.018148679
 20
-0.2747724231
 30
0.0
 11
0.1789222233
 21
0.0894542984
 31
0.0
 40
0.9998096356
 41
-0.4635410001
 42
1.1071030277
  0
ELLIPSE
  5
3AC
100
AcDbEntity
  8
ASSI
100
AcDbEllipse
 62
7
  6
CONTINUOUS
 10
-4.0972909093
 20
-22.1598929124
 30
0.0
 11
0.2
 21
0.0
 31
0.0
 40
0.0524077793
 41
0.5235987756
 42
1.5707963268
  0
ELLIPSE
  5
3AD
100
AcDbEntity
  8
ASSI
100
AcDbEllipse
 62
7
  6
CONTINUOUS
 10
3.8336491984
 20
-22.1598929124
 30
0.0
 11
0.2
 21
0.0
 31
0.0
 40
0.0524077793
 41
1.5707963268
 42
2.617993878
  0
ELLIPSE
  5
3AE
100
AcDbEntity
  8
ASSI
100
AcDbEllipse
 62
7
  6
CONTINUOUS
 10
-15.2972909093
 20
-22.1598929124
 30
0.0
 11
0.2
 21
0.0
 31
0.0
 40
0.0524077793
 41
0.5235987756
 42
1.5707963268
  0
ELLIPSE
  5
3AF
100
AcDbEntity
  8
ASSI
100
AcDbEllipse
 62
7
  6
CONTINUOUS
 10
-18.6663508016
 20
-22.1598929124
 30
0.0
 11
0.2
 21
-0.0
 31
0.0
 40
0.0524077793
 41
1.5707963268
 42
2.617993878
  0
ELLIPSE
  5
3B0
100
AcDbEntity
  8
ASSI
100
AcDbEllipse
 62
7
  6
CONTINUOUS
 10
15.0336491984
 20
-22.1598929124
 30
0.0
 11
0.2
 21
0.0
 31
0.0
 40
0.0524077793
 41
1.5707963268
 42
2.617993878
  0
ELLIPSE
  5
3B1
100
AcDbEntity
  8
ASSI
100
AcDbEllipse
 62
7
  6
CONTINUOUS
 10
18.4027090907
 20
-22.1598929124
 30
0.0
 11
0.2
 21
0.0
 31
0.0
 40
0.0524077793
 41
0.5235987756
 42
1.5707963268
  0
ELLIPSE
  5
3B2
100
AcDbEntity
  8
CURVE
100
AcDbEllipse
 62
253
  6
CONTINUOUS
 10
453.9191907768
 20
0.0252351926
 30
0.0
 11
-0.0
 21
500.0
 31
0.0
 40
1.0
 41
1.5432022394
 42
1.5476955882
  0
ENDSEC
  0
SECTION
  2
OBJECTS
  0
DICTIONARY
  5
C
100
AcDbDictionary
280
0
281
1
  3
ACAD_GROUP
350
D
  3
ACAD_MLINESTYLE
350
17
  3
ACAD_LAYOUT
350
1A
  3
ACAD_PLOTSETTINGS
350
19
  3
ACAD_PLOTSTYLENAME
350
E
  0
DICTIONARY
  5
D
102
{ACAD_REACTORS
330
C
102
}
100
AcDbDictionary
280
0
281
1
  0
ACDBDICTIONARYWDFLT
  5
E
102
{ACAD_REACTORS
330
C
102
}
100
AcDbDictionary
281
1
  3
Normal
350
F
100
AcDbDictionaryWithDefault
340
F
  0
DICTIONARY
  5
17
102
{ACAD_REACTORS
330
C
102
}
100
AcDbDictionary
280
0
281
1
  3
Standard
350
18
  0
DICTIONARY
  5
19
102
{ACAD_REACTORS
330
C
102
}
100
AcDbDictionary
281
1
  0
DICTIONARY
  5
1A
102
{ACAD_REACTORS
330
C
102
}
100
AcDbDictionary
281
1
  3
Model
350
3B3
  3
Layout1
350
3B4
  0
ACDBPLACEHOLDER
  5
F
102
{ACAD_REACTORS
330
E
102
}
  0
MLINESTYLE
  5
18
102
{ACAD_REACTORS
330
17
102
}
100
AcDbMlineStyle
  2
STANDARD
 70
0
  3

 62
256
 51
90.0
 52
90.0
 71
2
 49
0.5
 62
256
  6
BYLAYER
 49
-0.5
 62
256
  6
BYLAYER
  0
LAYOUT
  5
3B3
102
{ACAD_REACTORS
330
1A
102
}
100
AcDbPlotSettings
  1

  2
none_device
  4
ISO_A4_(297.00_x_210.00_MM)
  6

 40
0.0
 41
0.0
 42
0.0
 43
0.0
 44
297.0
 45
210.0
 46
0.0
 47
0.0
 48
0.0
 49
0.0
140
0.0
141
0.0
142
1.0
143
1.0
 70
1024
 72
1
 73
0
 74
0
  7

 75
0
147
1.0
148
0.0
149
0.0
100
AcDbLayout
  1
Model
 70
0
 71
0
 10
0.0
 20
0.0
 11
297.0
 21
210.0
 12
0.0
 22
0.0
 32
0.0
 14
0.0
 24
0.0
 34
0.0
 15
0.0
 25
0.0
 35
0.0
146
0.0
 13
0.0
 23
0.0
 33
0.0
 16
1.0
 26
0.0
 36
0.0
 17
0.0
 27
1.0
 37
0.0
 76
0
330
217
345
0
346
0
  0
LAYOUT
  5
3B4
102
{ACAD_REACTORS
330
1A
102
}
100
AcDbPlotSettings
  1

  2
none_device
  4
ISO_A4_(297.00_x_210.00_MM)
  6

 40
0.0
 41
0.0
 42
0.0
 43
0.0
 44
297.0
 45
210.0
 46
0.0
 47
0.0
 48
0.0
 49
0.0
140
0.0
141
0.0
142
1.0
143
1.0
 70
0
 72
1
 73
0
 74
0
  7

 75
0
147
1.0
148
0.0
149
0.0
100
AcDbLayout
  1
Layout1
 70
0
 71
1
 10
0.0
 20
0.0
 11
297.0
 21
210.0
 12
0.0
 22
0.0
 32
0.0
 14
0.0
 24
0.0
 34
0.0
 15
0.0
 25
0.0
 35
0.0
146
0.0
 13
0.0
 23
0.0
 33
0.0
 16
1.0
 26
0.0
 36
0.0
 17
0.0
 27
1.0
 37
0.0
 76
0
330
218
345
0
346
0
  0
ENDSEC
  0
EOF
