  0
SECTION
  2
HEADER
  9
$ACADVER
  1
AC1021
  9
$DWGCODEPAGE
  3
ANSI_1252
  9
$EXTMAX
 10
297.0
 20
210.0
 30
0.0
  9
$EXTMIN
 10
0.0
 20
0.0
 30
0.0
  9
$LIMMIN
 10
0.0
 20
0.0
  9
$LIMMAX
 10
297.0
 20
210.0
  9
$VIEWCTR
 10
148.5
 20
105.0
  9
$VIEWSIZE
 40
210.0
  9
$CLAYER
  8
0
  9
$LTSCALE
 40
16.335
  9
$CELTYPE
  6
BYLAYER
  9
$DIMSCALE
 40
1.0
  9
$DIMASZ
 40
3.0
  9
$DIMEXO
 40
0.5
  9
$DIMDLI
 40
11.286
  9
$DIMEXE
 40
1.5
  9
$DIMCEN
 40
2.673
  9
$DIMLFAC
 40
1.0
  9
$DIMBLK
  1
_FILLED
  9
$DIMALT
 70
0
  9
$DIMALTF
 40
25.4
  9
$DIMTXT
 40
3.0
  9
$DIMTOL
 70
1
  9
$DIMLIM
 70
0
  9
$DIMTFAC
 40
1.0
  9
$DIMTP
 40
0.01
  9
$DIMTM
 40
0.01
  9
$DIMGAP
 40
0.625
  9
$DIMDSEP
 70
44
  9
$AUNITS
 70
0
  9
$PDMODE
 70
3
  9
$PDSIZE
 40
3.0
  9
$HANDSEED
  5
3E0
  9
$TILEMODE
 70
1
  9
$MEASUREMENT
 70
1
  9
$INSUNITS
 70
4
  0
ENDSEC
  0
SECTION
  2
CLASSES
  0
CLASS
  1
ACDBDICTIONARYWDFLT
  2
AcDbDictionaryWithDefault
  3
AutoCAD 2000
 90
0
 91
1
280
0
281
0
  0
CLASS
  1
ACDBPLACEHOLDER
  2
AcDbPlaceHolder
  3
AutoCAD 2000
 90
0
 91
1
280
0
281
0
  0
CLASS
  1
LAYOUT
  2
AcDbLayout
  3
AutoCAD 2000
 90
0
 91
0
280
0
281
0
  0
ENDSEC
  0
SECTION
  2
TABLES
  0
TABLE
  2
VPORT
  5
8
100
AcDbSymbolTable
 70
2
  0
VPORT
  5
1F4
100
AcDbSymbolTableRecord
100
AcDbViewportTableRecord
  2
*ACTIVE
 70
0
 10
0.0
 20
0.0
 11
1.0
 21
1.0
 12
148.5
 22
105.0
 13
0.0
 23
0.0
 14
1.0
 24
1.0
 15
0.0
 25
0.0
 16
0.0
 26
0.0
 36
1.0
 17
0.0
 27
0.0
 37
0.0
 40
210.0
 41
1.4142857143
 42
50.0
 43
0.0
 44
0.0
 50
0.0
 51
0.0
 71
0
 72
100
 73
1
 74
1
 75
0
 76
0
 77
0
 78
0
  0
ENDTAB
  0
TABLE
  2
LTYPE
  5
5
100
AcDbSymbolTable
 70
6
  0
LTYPE
  5
14
100
AcDbSymbolTableRecord
100
AcDbLinetypeTableRecord
  2
BYBLOCK
 70
0
  3

 72
65
 73
0
 40
0.0
  0
LTYPE
  5
15
100
AcDbSymbolTableRecord
100
AcDbLinetypeTableRecord
  2
BYLAYER
 70
0
  3

 72
65
 73
0
 40
0.0
  0
LTYPE
  5
16
100
AcDbSymbolTableRecord
100
AcDbLinetypeTableRecord
  2
CONTINUOUS
 70
64
  3
Solid line
 72
65
 73
0
 40
0.0
  0
LTYPE
  5
1F5
100
AcDbSymbolTableRecord
100
AcDbLinetypeTableRecord
  2
CENTER
 70
64
  3
____ _ ____ _ ____ _ ____ _ ____ _ ____ _ ____
 72
65
 73
4
 40
0.6
 49
0.375
 74
0
 49
-0.075
 74
0
 49
0.075
 74
0
 49
-0.075
 74
0
  0
LTYPE
  5
1F6
100
AcDbSymbolTableRecord
100
AcDbLinetypeTableRecord
  2
HIDDEN
 70
64
  3
- - - - - - - - - - - - - - - - - - - -
 72
65
 73
2
 40
0.2
 49
0.1
 74
0
 49
-0.1
 74
0
  0
LTYPE
  5
1F7
100
AcDbSymbolTableRecord
100
AcDbLinetypeTableRecord
  2
PHANTOM
 70
64
  3
_____ _ _ _____ _ _ _____ _ _ _____
 72
65
 73
6
 40
0.8
 49
0.45
 74
0
 49
-0.05
 74
0
 49
0.1
 74
0
 49
-0.05
 74
0
 49
0.1
 74
0
 49
-0.05
 74
0
  0
LTYPE
  5
1F8
100
AcDbSymbolTableRecord
100
AcDbLinetypeTableRecord
  2
DOT
 70
64
  3
. . . . . . . . . . . . . . . . . . . .
 72
65
 73
2
 40
0.2
 49
0.1
 74
0
 49
-0.1
 74
0
  0
LTYPE
  5
1F9
100
AcDbSymbolTableRecord
100
AcDbLinetypeTableRecord
  2
DASHED
 70
64
  3
- - - - - - - - - - - - - - - - - - - -
 72
65
 73
2
 40
0.2
 49
0.1
 74
0
 49
-0.1
 74
0
  0
ENDTAB
  0
TABLE
  2
LAYER
  5
2
100
AcDbSymbolTable
 70
36
  0
LAYER
  5
10
100
AcDbSymbolTableRecord
100
AcDbLayerTableRecord
  2
0
 70
0
 62
7
  6
CONTINUOUS
370
-3
390
F
  0
LAYER
  5
1FA
100
AcDbSymbolTableRecord
100
AcDbLayerTableRecord
  2
DEFAULT_1
 70
0
 62
7
  6
CENTER
370
-3
390
F
  0
LAYER
  5
1FB
100
AcDbSymbolTableRecord
100
AcDbLayerTableRecord
  2
DEFAULT_2
 70
0
 62
7
  6
HIDDEN
370
-3
390
F
  0
LAYER
  5
1FC
100
AcDbSymbolTableRecord
100
AcDbLayerTableRecord
  2
DEFAULT_3
 70
0
 62
7
  6
PHANTOM
370
-3
390
F
  0
LAYER
  5
1FD
100
AcDbSymbolTableRecord
100
AcDbLayerTableRecord
  2
ASSI
 70
0
 62
7
  6
CONTINUOUS
370
-3
390
F
  0
LAYER
  5
1FE
100
AcDbSymbolTableRecord
100
AcDbLayerTableRecord
  2
COLORE_MATERIALE
 70
0
 62
7
  6
CONTINUOUS
370
-3
390
F
  0
LAYER
  5
1FF
100
AcDbSymbolTableRecord
100
AcDbLayerTableRecord
  2
COORDINATE
 70
0
 62
7
  6
CONTINUOUS
370
-3
390
F
  0
LAYER
  5
200
100
AcDbSymbolTableRecord
100
AcDbLayerTableRecord
  2
COORD_ORIGINE
 70
0
 62
7
  6
CONTINUOUS
370
-3
390
F
  0
LAYER
  5
201
100
AcDbSymbolTableRecord
100
AcDbLayerTableRecord
  2
COPY
 70
0
 62
7
  6
CONTINUOUS
370
-3
390
F
  0
LAYER
  5
202
100
AcDbSymbolTableRecord
100
AcDbLayerTableRecord
  2
COSMETICI
 70
0
 62
7
  6
CONTINUOUS
370
-3
390
F
  0
LAYER
  5
203
100
AcDbSymbolTableRecord
100
AcDbLayerTableRecord
  2
CURVE
 70
0
 62
7
  6
CONTINUOUS
370
-3
390
F
  0
LAYER
  5
204
100
AcDbSymbolTableRecord
100
AcDbLayerTableRecord
  2
DRAFT
 70
0
 62
7
  6
CONTINUOUS
370
-3
390
F
  0
LAYER
  5
205
100
AcDbSymbolTableRecord
100
AcDbLayerTableRecord
  2
IGS
 70
0
 62
7
  6
CONTINUOUS
370
-3
390
F
  0
LAYER
  5
206
100
AcDbSymbolTableRecord
100
AcDbLayerTableRecord
  2
NOTE
 70
0
 62
7
  6
CONTINUOUS
370
-3
390
F
  0
LAYER
  5
207
100
AcDbSymbolTableRecord
100
AcDbLayerTableRecord
  2
PIANI
 70
0
 62
7
  6
CONTINUOUS
370
-3
390
F
  0
LAYER
  5
208
100
AcDbSymbolTableRecord
100
AcDbLayerTableRecord
  2
PIANI_ORIGINE
 70
0
 62
7
  6
CONTINUOUS
370
-3
390
F
  0
LAYER
  5
209
100
AcDbSymbolTableRecord
100
AcDbLayerTableRecord
  2
PIANI_RIFERIMENTO
 70
0
 62
7
  6
CONTINUOUS
370
-3
390
F
  0
LAYER
  5
20A
100
AcDbSymbolTableRecord
100
AcDbLayerTableRecord
  2
PUNTI
 70
0
 62
7
  6
CONTINUOUS
370
-3
390
F
  0
LAYER
  5
20B
100
AcDbSymbolTableRecord
100
AcDbLayerTableRecord
  2
RACCORDO
 70
0
 62
7
  6
CONTINUOUS
370
-3
390
F
  0
LAYER
  5
20C
100
AcDbSymbolTableRecord
100
AcDbLayerTableRecord
  2
SIMBOLI
 70
0
 62
7
  6
CONTINUOUS
370
-3
390
F
  0
LAYER
  5
20D
100
AcDbSymbolTableRecord
100
AcDbLayerTableRecord
  2
SMUSSO
 70
0
 62
7
  6
CONTINUOUS
370
-3
390
F
  0
LAYER
  5
20E
100
AcDbSymbolTableRecord
100
AcDbLayerTableRecord
  2
SNAPLINE
 70
0
 62
7
  6
CONTINUOUS
370
-3
390
F
  0
LAYER
  5
20F
100
AcDbSymbolTableRecord
100
AcDbLayerTableRecord
  2
SOLIDO
 70
0
 62
7
  6
CONTINUOUS
370
-3
390
F
  0
LAYER
  5
210
100
AcDbSymbolTableRecord
100
AcDbLayerTableRecord
  2
SUPERFICI
 70
0
 62
7
  6
CONTINUOUS
370
-3
390
F
  0
LAYER
  5
211
100
AcDbSymbolTableRecord
100
AcDbLayerTableRecord
  2
TRASH
 70
0
 62
7
  6
CONTINUOUS
370
-3
390
F
  0
ENDTAB
  0
TABLE
  2
STYLE
  5
3
100
AcDbSymbolTable
 70
1
  0
STYLE
  5
11
100
AcDbSymbolTableRecord
100
AcDbTextStyleTableRecord
  2
STANDARD
 70
0
 40
0.0
 41
0.8
 50
0.0
 71
0
 42
0.2
  3
txt
  4

  0
STYLE
  5
212
100
AcDbSymbolTableRecord
100
AcDbTextStyleTableRecord
  2
TEXTSTYLE_1
 70
0
 40
0.0
 41
0.8
 50
0.0
 71
0
 42
0.2
  3
gdt
  4

  0
ENDTAB
  0
TABLE
  2
VIEW
  5
6
100
AcDbSymbolTable
 70
0
  0
ENDTAB
  0
TABLE
  2
UCS
  5
7
100
AcDbSymbolTable
 70
0
  0
ENDTAB
  0
TABLE
  2
APPID
  5
9
100
AcDbSymbolTable
 70
1
  0
APPID
  5
213
100
AcDbSymbolTableRecord
100
AcDbRegAppTableRecord
  2
ACAD
 70
0
  0
ENDTAB
  0
TABLE
  2
BLOCK_RECORD
  5
1
100
AcDbSymbolTable
 70
0
  0
BLOCK_RECORD
  5
214
100
AcDbSymbolTableRecord
100
AcDbBlockTableRecord
  2
*Model_Space
  0
BLOCK_RECORD
  5
215
100
AcDbSymbolTableRecord
100
AcDbBlockTableRecord
  2
*Paper_Space
  0
BLOCK_RECORD
  5
216
100
AcDbSymbolTableRecord
100
AcDbBlockTableRecord
  2
_FILLED
  0
BLOCK_RECORD
  5
217
100
AcDbSymbolTableRecord
100
AcDbBlockTableRecord
  2
*D0
  0
BLOCK_RECORD
  5
218
100
AcDbSymbolTableRecord
100
AcDbBlockTableRecord
  2
*D1
  0
BLOCK_RECORD
  5
219
100
AcDbSymbolTableRecord
100
AcDbBlockTableRecord
  2
*D2
  0
ENDTAB
  0
TABLE
  2
DIMSTYLE
  5
A
100
AcDbSymbolTable
 70
1
100
AcDbDimStyleTable
 71
0
  0
DIMSTYLE
105
21A
100
AcDbSymbolTableRecord
100
AcDbDimStyleTableRecord
  2
STANDARD
 70
0
  3

  4

 40
1.0
 41
3.0
 42
0.5
 43
0.38
 44
1.5
 45
0.0
 46
0.0
 47
0.01
 48
0.01
140
3.0
141
0.09
142
0.0
143
25.4
144
1.0
145
0.0
146
1.0
147
0.625
 71
1.0
 72
0.0
 73
0
 74
0
 75
0
 76
0
 77
1
 78
8
170
0
171
1
172
0
173
0
174
0
175
0
176
0
177
0
178
0
270
2
271
2
272
2
273
2
274
2
275
0
280
0
281
0
282
0
283
1
284
8
285
0
286
0
287
3
288
0
340
11
278
44
341
216
342
216
343
216
344
216
  0
DIMSTYLE
105
21B
100
AcDbSymbolTableRecord
100
AcDbDimStyleTableRecord
  2
DIMSTYLE_1
 70
0
  3

  4

 40
1.0
 41
3.0
 42
0.5
 43
0.38
 44
1.5
 45
0.0
 46
0.0
 47
0.0
 48
0.0
140
3.0
141
0.09
142
0.0
143
25.4
144
1.0
145
0.0
146
1.0
147
0.75
 71
0.0
 72
0.0
 73
0
 74
0
 75
0
 76
0
 77
1
 78
8
170
0
171
1
172
0
173
0
174
0
175
0
176
0
177
0
178
0
270
2
271
2
272
2
273
2
274
2
275
0
280
0
281
0
282
0
283
1
284
8
285
0
286
0
287
3
288
0
340
11
278
44
341
216
342
216
343
216
344
216
  0
DIMSTYLE
105
21C
100
AcDbSymbolTableRecord
100
AcDbDimStyleTableRecord
  2
DIMSTYLE_2
 70
0
  3

  4

 40
1.0
 41
3.0
 42
0.5
 43
0.38
 44
1.5
 45
0.0
 46
0.0
 47
0.0
 48
0.0
140
3.0
141
0.09
142
0.0
143
25.4
144
1.0
145
0.0
146
1.0
147
0.75
 71
0.0
 72
0.0
 73
0
 74
0
 75
0
 76
0
 77
1
 78
8
170
0
171
1
172
0
173
0
174
0
175
0
176
0
177
0
178
0
270
2
271
1
272
1
273
2
274
2
275
0
280
0
281
0
282
0
283
1
284
8
285
0
286
0
287
3
288
0
340
11
278
44
341
216
342
216
343
216
344
216
  0
ENDTAB
  0
ENDSEC
  0
SECTION
  2
BLOCKS
  0
BLOCK
  5
20
100
AcDbEntity
  8
0
100
AcDbBlockBegin
  2
*Model_Space
 70
0
 10
0.0
 20
0.0
 30
0.0
  3
*Model_Space
  1

  0
ENDBLK
  5
21
100
AcDbEntity
  8
0
100
AcDbBlockEnd
  0
BLOCK
  5
1C
100
AcDbEntity
  8
0
100
AcDbBlockBegin
  2
*Paper_Space
 70
0
 10
0.0
 20
0.0
 30
0.0
  3
*Paper_Space
  1

  0
ENDBLK
  5
1D
100
AcDbEntity
  8
0
100
AcDbBlockEnd
  0
BLOCK
  5
21D
100
AcDbEntity
  8
0
100
AcDbBlockBegin
  2
_FILLED
 70
64
 10
0.0
 20
0.0
  3
_FILLED
  1

  0
SOLID
  5
21E
100
AcDbEntity
  8
0
  6
BYBLOCK
 62
0
100
AcDbTrace
 10
0.0
 20
0.0
 11
-1.0
 21
0.3166666667
 12
-1.0
 22
-0.3166666667
 13
-1.0
 23
-0.3166666667
  0
ENDBLK
  5
21F
100
AcDbEntity
  8
0
  6
BYBLOCK
 62
0
100
AcDbBlockEnd
  0
BLOCK
  5
220
100
AcDbEntity
  8
0
100
AcDbBlockBegin
 62
7
  6
CONTINUOUS
  2
*D0
 70
65
 10
0.0
 20
0.0
  3
*D0
  1

  0
MTEXT
  5
221
100
AcDbEntity
  8
0
100
AcDbMText
 62
7
  6
CONTINUOUS
  7
STANDARD
 71
2
 72
1
 10
-0.0004814214
 20
33.9436171831
 30
0.0
 11
1.0
 21
0.0
 31
0.0
 44
0.9
  1
22,2
 40
3.0
 41
13.1785714286
  0
LINE
  5
222
100
AcDbEntity
  8
0
100
AcDbLine
 62
7
  6
CONTINUOUS
 10
-11.1004814214
 20
22.1933883311
 11
-11.1004814214
 21
31.6936171831
  0
LINE
  5
223
100
AcDbEntity
  8
0
100
AcDbLine
 62
7
  6
CONTINUOUS
 10
11.0995185786
 20
22.1933883311
 11
11.0995185786
 21
31.6936171831
  0
LINE
  5
224
100
AcDbEntity
  8
0
100
AcDbLine
 62
7
  6
CONTINUOUS
 10
-11.1004814214
 20
30.1936171831
 11
-0.0004814214
 21
30.1936171831
  0
LINE
  5
225
100
AcDbEntity
  8
0
100
AcDbLine
 62
7
  6
CONTINUOUS
 10
11.0995185786
 20
30.1936171831
 11
-0.0004814214
 21
30.1936171831
  0
INSERT
  5
226
100
AcDbEntity
  8
0
100
AcDbBlockReference
 62
7
  6
CONTINUOUS
  2
_FILLED
 10
-11.1004814214
 20
30.1936171831
 41
3.0
 42
3.0
 43
3.0
 50
180.0
  0
INSERT
  5
227
100
AcDbEntity
  8
0
100
AcDbBlockReference
 62
7
  6
CONTINUOUS
  2
_FILLED
 10
11.0995185786
 20
30.1936171831
 41
3.0
 42
3.0
 43
3.0
  0
ENDBLK
  5
228
100
AcDbEntity
  8
0
  6
BYBLOCK
 62
0
100
AcDbBlockEnd
  0
BLOCK
  5
229
100
AcDbEntity
  8
0
100
AcDbBlockBegin
 62
7
  6
CONTINUOUS
  2
*D1
 70
65
 10
0.0
 20
0.0
  3
*D1
  1

  0
MTEXT
  5
22A
100
AcDbEntity
  8
0
100
AcDbMText
 62
7
  6
CONTINUOUS
  7
STANDARD
 71
2
 72
1
 10
15.4019998075
 20
-0.0563828169
 30
0.0
 11
0.0
 21
1.0
 31
0.0
 44
0.9
  1
44,5
 40
3.0
 41
12.8571428571
  0
LINE
  5
22B
100
AcDbEntity
  8
0
100
AcDbLine
 62
7
  6
CONTINUOUS
 10
11.0998991783
 20
22.1936171831
 11
20.6519998075
 21
22.1936171831
  0
LINE
  5
22C
100
AcDbEntity
  8
0
100
AcDbLine
 62
7
  6
CONTINUOUS
 10
11.0998991783
 20
-22.3063828169
 11
20.6519998075
 21
-22.3063828169
  0
LINE
  5
22D
100
AcDbEntity
  8
0
100
AcDbLine
 62
7
  6
CONTINUOUS
 10
19.1519998075
 20
22.1936171831
 11
19.1519998075
 21
-0.0563828169
  0
LINE
  5
22E
100
AcDbEntity
  8
0
100
AcDbLine
 62
7
  6
CONTINUOUS
 10
19.1519998075
 20
-22.3063828169
 11
19.1519998075
 21
-0.0563828169
  0
INSERT
  5
22F
100
AcDbEntity
  8
0
100
AcDbBlockReference
 62
7
  6
CONTINUOUS
  2
_FILLED
 10
19.1519998075
 20
22.1936171831
 41
3.0
 42
3.0
 43
3.0
 50
90.0
  0
INSERT
  5
230
100
AcDbEntity
  8
0
100
AcDbBlockReference
 62
7
  6
CONTINUOUS
  2
_FILLED
 10
19.1519998075
 20
-22.3063828169
 41
3.0
 42
3.0
 43
3.0
 50
270.0
  0
ENDBLK
  5
231
100
AcDbEntity
  8
0
  6
BYBLOCK
 62
0
100
AcDbBlockEnd
  0
BLOCK
  5
232
100
AcDbEntity
  8
0
100
AcDbBlockBegin
 62
7
  6
CONTINUOUS
  2
*D2
 70
65
 10
0.0
 20
0.0
  3
*D2
  1

  0
MTEXT
  5
233
100
AcDbEntity
  8
0
100
AcDbMText
 62
7
  6
CONTINUOUS
  7
STANDARD
 71
1
 72
1
 10
-22.5423103689
 20
33.9436171831
 30
0.0
 11
1.0
 21
0.0
 31
0.0
 44
0.9
  1
10,9
 40
3.0
 41
12.2142857143
  0
LINE
  5
234
100
AcDbEntity
  8
0
100
AcDbLine
 62
7
  6
CONTINUOUS
 10
-24.1082911623
 20
13.6065593231
 11
-24.1082911623
 21
31.6936171831
  0
LINE
  5
235
100
AcDbEntity
  8
0
100
AcDbLine
 62
7
  6
CONTINUOUS
 10
-35.0545739644
 20
0.8004910788
 11
-35.0545739644
 21
31.6936171831
  0
LINE
  5
236
100
AcDbEntity
  8
0
100
AcDbLine
 62
7
  6
CONTINUOUS
 10
-24.1082911623
 20
30.1936171831
 11
-29.5814325634
 21
30.1936171831
  0
LINE
  5
237
100
AcDbEntity
  8
0
100
AcDbLine
 62
7
  6
CONTINUOUS
 10
-29.5814325634
 20
30.1936171831
 11
-14.399453226
 21
30.1936171831
  0
LINE
  5
238
100
AcDbEntity
  8
0
100
AcDbLine
 62
7
  6
CONTINUOUS
 10
-35.0545739644
 20
30.1936171831
 11
-29.5814325634
 21
30.1936171831
  0
INSERT
  5
239
100
AcDbEntity
  8
0
100
AcDbBlockReference
 62
7
  6
CONTINUOUS
  2
_FILLED
 10
-24.1082911623
 20
30.1936171831
 41
3.0
 42
3.0
 43
3.0
  0
INSERT
  5
23A
100
AcDbEntity
  8
0
100
AcDbBlockReference
 62
7
  6
CONTINUOUS
  2
_FILLED
 10
-35.0545739644
 20
30.1936171831
 41
3.0
 42
3.0
 43
3.0
 50
180.0
  0
ENDBLK
  5
23B
100
AcDbEntity
  8
0
  6
BYBLOCK
 62
0
100
AcDbBlockEnd
  0
ENDSEC
  0
SECTION
  2
ENTITIES
  0
DIMENSION
  5
23C
100
AcDbEntity
  8
0
100
AcDbDimension
 62
7
  6
CONTINUOUS
  2
*D0
 10
11.0995185786
 20
30.1936171831
 11
-0.4290528874
 21
30.1936171831
 70
160
 71
2
 42
22.2
  3
DIMSTYLE_1
100
AcDbAlignedDimension
 13
-11.1004814214
 23
21.6933883311
 14
11.0995185786
 24
21.6933883311
100
AcDbRotatedDimension
  0
DIMENSION
  5
23D
100
AcDbEntity
  8
0
100
AcDbDimension
 62
7
  6
CONTINUOUS
  2
*D1
 10
19.1519998075
 20
-22.3063828169
 11
19.1519998075
 21
-0.4849538894
 70
160
 71
2
 42
44.5
  3
DIMSTYLE_1
100
AcDbAlignedDimension
 13
10.5998991783
 23
22.1936171831
 14
10.5998991783
 24
-22.3063828169
 50
270.0
100
AcDbRotatedDimension
  0
DIMENSION
  5
23E
100
AcDbEntity
  8
0
100
AcDbDimension
 62
7
  6
CONTINUOUS
  2
*D2
 10
-35.0545739644
 20
30.1936171831
 11
-18.8994528809
 21
30.1936171831
 70
160
 71
1
 42
10.9462828021
  3
DIMSTYLE_2
100
AcDbAlignedDimension
 13
-24.1082911623
 23
13.1065593231
 14
-35.0545739644
 24
0.3004910788
 50
180.0
100
AcDbRotatedDimension
  0
LINE
  5
23F
100
AcDbEntity
  8
RACCORDO
100
AcDbLine
 62
7
  6
CONTINUOUS
 10
2.4061429056
 20
-22.3063828169
 11
3.7917835516
 21
-22.1806041466
  0
LINE
  5
240
100
AcDbEntity
  8
RACCORDO
100
AcDbLine
 62
7
  6
CONTINUOUS
 10
-8.7938570944
 20
-22.3063828169
 11
-7.4082164484
 21
-22.1806041466
  0
LINE
  5
241
100
AcDbEntity
  8
RACCORDO
100
AcDbLine
 62
7
  6
CONTINUOUS
 10
-10.6008620212
 20
-22.3063828169
 11
-8.7938570944
 21
-22.3063828169
  0
LINE
  5
242
100
AcDbEntity
  8
DRAFT
100
AcDbLine
 62
7
  6
CONTINUOUS
 10
-2.4071057485
 20
-22.3063828169
 11
2.4061429056
 21
-22.3063828169
  0
LINE
  5
243
100
AcDbEntity
  8
RACCORDO
100
AcDbLine
 62
7
  6
CONTINUOUS
 10
8.7928942515
 20
-22.3063828169
 11
10.5998991783
 21
-22.3063828169
  0
LINE
  5
244
100
AcDbEntity
  8
RACCORDO
100
AcDbLine
 62
7
  6
CONTINUOUS
 10
-7.2350113676
 20
-22.1753633687
 11
-3.9659514753
 21
-22.1753633687
  0
LINE
  5
245
100
AcDbEntity
  8
RACCORDO
100
AcDbLine
 62
7
  6
CONTINUOUS
 10
3.9649886324
 20
-22.1753633687
 11
7.2340485247
 21
-22.1753633687
  0
LINE
  5
246
100
AcDbEntity
  8
RACCORDO
100
AcDbLine
 62
253
  6
CONTINUOUS
 10
10.4923809248
 20
-21.983565748
 11
-10.4933437677
 21
-21.983565748
  0
LINE
  5
247
100
AcDbEntity
  8
RACCORDO
100
AcDbLine
 62
7
  6
CONTINUOUS
 10
-2.4071057485
 20
-22.3063828169
 11
-3.7927463945
 21
-22.1806041466
  0
LINE
  5
248
100
AcDbEntity
  8
RACCORDO
100
AcDbLine
 62
7
  6
CONTINUOUS
 10
8.7928942515
 20
-22.3063828169
 11
7.4072536055
 21
-22.1806041466
  0
LWPOLYLINE
  5
249
100
AcDbEntity
  8
RACCORDO
100
AcDbPolyline
 62
253
  6
CONTINUOUS
 90
19
 70
0
 10
-10.9767407104
 20
20.4138371395
 10
-10.9762831154
 20
20.4144265812
 10
-10.9754122526
 20
20.4150155352
 10
-10.9741288425
 20
20.4156035142
 10
-10.972433947
 20
20.4161900316
 10
-10.9703289686
 20
20.4167746023
 10
-10.9678156489
 20
20.4173567424
 10
-10.9648960675
 20
20.4179359703
 10
-10.9615726401
 20
20.4185118067
 10
-10.9578481166
 20
20.4190837753
 10
-10.9537255787
 20
20.4196514027
 10
-10.9492084374
 20
20.4202142193
 10
-10.9443004305
 20
20.4207717593
 10
-10.9390056187
 20
20.4213235615
 10
-10.9333283833
 20
20.4218691693
 10
-10.9272734215
 20
20.4224081312
 10
-10.9208457435
 20
20.4229400014
 10
-10.9140506675
 20
20.4234643396
 10
-10.906893816
 20
20.4239807122
  0
LINE
  5
24A
100
AcDbEntity
  8
RACCORDO
100
AcDbLine
 62
253
  6
CONTINUOUS
 10
10.9059309731
 20
-20.5367463459
 11
10.8905559248
 21
-20.5377534917
  0
LINE
  5
24B
100
AcDbEntity
  8
RACCORDO
100
AcDbLine
 62
253
  6
CONTINUOUS
 10
10.8905559248
 20
-20.5377534917
 11
10.8738086315
 21
-20.5387237399
  0
LINE
  5
24C
100
AcDbEntity
  8
RACCORDO
100
AcDbLine
 62
253
  6
CONTINUOUS
 10
10.8738086315
 20
-20.5387237399
 11
10.8557445099
 21
-20.5396538799
  0
LINE
  5
24D
100
AcDbEntity
  8
RACCORDO
100
AcDbLine
 62
253
  6
CONTINUOUS
 10
10.8557445099
 20
-20.5396538799
 11
10.836423334
 21
-20.5405408339
  0
LINE
  5
24E
100
AcDbEntity
  8
RACCORDO
100
AcDbLine
 62
253
  6
CONTINUOUS
 10
10.836423334
 20
-20.5405408339
 11
10.8159090374
 21
-20.5413816669
  0
LINE
  5
24F
100
AcDbEntity
  8
RACCORDO
100
AcDbLine
 62
253
  6
CONTINUOUS
 10
10.8159090374
 20
-20.5413816669
 11
10.7830500068
 21
-20.5425503975
  0
LINE
  5
250
100
AcDbEntity
  8
RACCORDO
100
AcDbLine
 62
253
  6
CONTINUOUS
 10
10.7830500068
 20
-20.5425503975
 11
10.7479046199
 21
-20.5436004353
  0
LINE
  5
251
100
AcDbEntity
  8
RACCORDO
100
AcDbLine
 62
253
  6
CONTINUOUS
 10
10.7479046199
 20
-20.5436004353
 11
10.7107344519
 21
-20.5445239652
  0
LINE
  5
252
100
AcDbEntity
  8
RACCORDO
100
AcDbLine
 62
253
  6
CONTINUOUS
 10
10.7107344519
 20
-20.5445239652
 11
10.6718161478
 21
-20.5453141137
  0
LINE
  5
253
100
AcDbEntity
  8
RACCORDO
100
AcDbLine
 62
253
  6
CONTINUOUS
 10
10.6718161478
 20
-20.5453141137
 11
10.6314393636
 21
-20.545965
  0
LINE
  5
254
100
AcDbEntity
  8
RACCORDO
100
AcDbLine
 62
253
  6
CONTINUOUS
 10
10.6314393636
 20
-20.545965
 11
10.5899046101
 21
-20.5464717797
  0
LINE
  5
255
100
AcDbEntity
  8
RACCORDO
100
AcDbLine
 62
253
  6
CONTINUOUS
 10
10.5899046101
 20
-20.5464717797
 11
10.5475210164
 21
-20.5468306811
  0
LINE
  5
256
100
AcDbEntity
  8
RACCORDO
100
AcDbLine
 62
253
  6
CONTINUOUS
 10
10.5475210164
 20
-20.5468306811
 11
10.5046040294
 21
-20.547039033
  0
LINE
  5
257
100
AcDbEntity
  8
RACCORDO
100
AcDbLine
 62
253
  6
CONTINUOUS
 10
10.5046040294
 20
-20.547039033
 11
-10.4768168614
 21
-20.5470913235
  0
LINE
  5
258
100
AcDbEntity
  8
RACCORDO
100
AcDbLine
 62
253
  6
CONTINUOUS
 10
-10.534221749
 20
-20.5469169598
 11
-10.4768168628
 21
-20.5470934839
  0
LINE
  5
259
100
AcDbEntity
  8
RACCORDO
100
AcDbLine
 62
253
  6
CONTINUOUS
 10
-10.5908674546
 20
-20.5464717802
 11
-10.534221749
 21
-20.5469169598
  0
LINE
  5
25A
100
AcDbEntity
  8
RACCORDO
100
AcDbLine
 62
253
  6
CONTINUOUS
 10
-10.6460048394
 20
-20.5457638327
 11
-10.5908674546
 21
-20.5464717802
  0
LINE
  5
25B
100
AcDbEntity
  8
RACCORDO
100
AcDbLine
 62
253
  6
CONTINUOUS
 10
-10.6989047105
 20
-20.5448024799
 11
-10.6460048394
 21
-20.5457638327
  0
LINE
  5
25C
100
AcDbEntity
  8
RACCORDO
100
AcDbLine
 62
253
  6
CONTINUOUS
 10
-10.7366890151
 20
-20.5439226948
 11
-10.6989047105
 21
-20.5448024799
  0
LINE
  5
25D
100
AcDbEntity
  8
RACCORDO
100
AcDbLine
 62
253
  6
CONTINUOUS
 10
-10.7725391787
 20
-20.5429140033
 11
-10.7366890151
 21
-20.5439226948
  0
LINE
  5
25E
100
AcDbEntity
  8
RACCORDO
100
AcDbLine
 62
253
  6
CONTINUOUS
 10
-10.8061883805
 20
-20.5417839128
 11
-10.7725391787
 21
-20.5429140033
  0
LINE
  5
25F
100
AcDbEntity
  8
RACCORDO
100
AcDbLine
 62
253
  6
CONTINUOUS
 10
-10.8272740201
 20
-20.5409671934
 11
-10.8061883805
 21
-20.5417839128
  0
LINE
  5
260
100
AcDbEntity
  8
RACCORDO
100
AcDbLine
 62
253
  6
CONTINUOUS
 10
-10.8471999999
 20
-20.5401029423
 11
-10.8272740201
 21
-20.5409671934
  0
LINE
  5
261
100
AcDbEntity
  8
RACCORDO
100
AcDbLine
 62
253
  6
CONTINUOUS
 10
-10.8659003852
 20
-20.5391940193
 11
-10.8471999999
 21
-20.5401029423
  0
LINE
  5
262
100
AcDbEntity
  8
RACCORDO
100
AcDbLine
 62
253
  6
CONTINUOUS
 10
-10.8833132964
 20
-20.5382434319
 11
-10.8659003852
 21
-20.5391940193
  0
LWPOLYLINE
  5
263
100
AcDbEntity
  8
RACCORDO
100
AcDbPolyline
 62
253
  6
CONTINUOUS
 90
21
 70
0
 10
-10.9767407104
 20
-20.5266027732
 10
-10.9762831158
 20
-20.527192215
 10
-10.9754122532
 20
-20.527781169
 10
-10.9741288434
 20
-20.528369148
 10
-10.9724339483
 20
-20.5289556654
 10
-10.9703289701
 20
-20.529540236
 10
-10.9678156506
 20
-20.5301223761
 10
-10.9648960695
 20
-20.5307016041
 10
-10.9615726423
 20
-20.5312774406
 10
-10.957848119
 20
-20.5318494091
 10
-10.9537255813
 20
-20.5324170365
 10
-10.9492084403
 20
-20.5329798531
 10
-10.9443004335
 20
-20.5335373932
 10
-10.9390056219
 20
-20.5340891954
 10
-10.9333283866
 20
-20.5346348032
 10
-10.927273425
 20
-20.5351737651
 10
-10.9208457471
 20
-20.5357056353
 10
-10.9140506712
 20
-20.5362299736
 10
-10.9068938198
 20
-20.5367463461
 10
-10.8993811145
 20
-20.5372543257
 10
-10.8833132964
 20
-20.5382434319
  0
LINE
  5
264
100
AcDbEntity
  8
RACCORDO
100
AcDbLine
 62
253
  6
CONTINUOUS
 10
-10.9885129705
 20
21.3186629768
 11
-10.9892248642
 21
21.3316964855
  0
LINE
  5
265
100
AcDbEntity
  8
RACCORDO
100
AcDbLine
 62
253
  6
CONTINUOUS
 10
-10.9878113079
 20
21.3038923224
 11
-10.9885129705
 21
21.3186629768
  0
LINE
  5
266
100
AcDbEntity
  8
RACCORDO
100
AcDbLine
 62
253
  6
CONTINUOUS
 10
-10.9871213319
 20
21.2874134906
 11
-10.9878113079
 21
21.3038923224
  0
LINE
  5
267
100
AcDbEntity
  8
RACCORDO
100
AcDbLine
 62
253
  6
CONTINUOUS
 10
-10.9861111111
 20
21.2595632942
 11
-10.9871213319
 21
21.2874134906
  0
LINE
  5
268
100
AcDbEntity
  8
RACCORDO
100
AcDbLine
 62
253
  6
CONTINUOUS
 10
-10.9851341852
 20
21.2280553966
 11
-10.9861111111
 21
21.2595632942
  0
LINE
  5
269
100
AcDbEntity
  8
RACCORDO
100
AcDbLine
 62
253
  6
CONTINUOUS
 10
-10.4875409994
 20
21.7573696057
 11
-10.4885891072
 21
21.7915649381
  0
LINE
  5
26A
100
AcDbEntity
  8
RACCORDO
100
AcDbLine
 62
253
  6
CONTINUOUS
 10
-10.9838903963
 20
21.1805841857
 11
-10.9851341852
 21
21.2280553966
  0
LINE
  5
26B
100
AcDbEntity
  8
RACCORDO
100
AcDbLine
 62
253
  6
CONTINUOUS
 10
-10.4861872549
 20
21.7029193524
 11
-10.4875409994
 21
21.7573696057
  0
LINE
  5
26C
100
AcDbEntity
  8
RACCORDO
100
AcDbLine
 62
253
  6
CONTINUOUS
 10
-10.982442688
 20
21.112958017
 11
-10.9838903963
 21
21.1805841857
  0
LWPOLYLINE
  5
26D
100
AcDbEntity
  8
RACCORDO
100
AcDbPolyline
 62
253
  6
CONTINUOUS
 90
43
 70
0
 10
-10.9694183096
 20
0.2977759749
 10
-10.9692773603
 20
0.290298745
 10
-10.9688569868
 20
0.2828319706
 10
-10.968157777
 20
0.2753860928
 10
-10.9671807084
 20
0.2679715232
 10
-10.9659271475
 20
0.2605986297
 10
-10.9643988471
 20
0.253277722
 10
-10.9625979441
 20
0.2460190371
 10
-10.960526957
 20
0.238832725
 10
-10.9581887815
 20
0.2317288344
 10
-10.9555866872
 20
0.2247172987
 10
-10.9527243126
 20
0.2178079225
 10
-10.9496056604
 20
0.2110103671
 10
-10.9462350912
 20
0.2043341378
 10
-10.9426173184
 20
0.1977885701
 10
-10.9387574006
 20
0.1913828166
 10
-10.9346607353
 20
0.1851258348
 10
-10.9303330509
 20
0.1790263739
 10
-10.9257803989
 20
0.1730929629
 10
-10.9210091455
 20
0.1673338986
 10
-10.9160259622
 20
0.1617572339
 10
-10.9108378172
 20
0.1563707669
 10
-10.9054519653
 20
0.1511820296
 10
-10.8998759374
 20
0.1461982774
 10
-10.8941175308
 20
0.1414264793
 10
-10.8881847975
 20
0.1368733076
 10
-10.8820860333
 20
0.1325451293
 10
-10.8758297663
 20
0.1284479965
 10
-10.8694247447
 20
0.1245876382
 10
-10.8628799248
 20
0.1209694526
 10
-10.8562044584
 20
0.1175984989
 10
-10.8494076799
 20
0.1144794909
 10
-10.8424990933
 20
0.1116167898
 10
-10.8354883591
 20
0.1090143988
 10
-10.8283852805
 20
0.1066759566
 10
-10.8211997899
 20
0.1046047333
 10
-10.8139419349
 20
0.102803625
 10
-10.8066218643
 20
0.1012751503
 10
-10.7992498138
 20
0.1000214465
 10
-10.7918360921
 20
0.0990442666
 10
-10.7843910657
 20
0.098344977
 10
-10.7769251453
 20
0.0979245556
 10
-10.7694487706
 20
0.0977835903
  0
LINE
  5
26E
100
AcDbEntity
  8
RACCORDO
100
AcDbLine
 62
253
  6
CONTINUOUS
 10
-10.4845796391
 20
21.6211975904
 11
-10.4861872549
 21
21.7029193524
  0
LWPOLYLINE
  5
26F
100
AcDbEntity
  8
RACCORDO
100
AcDbPolyline
 62
253
  6
CONTINUOUS
 90
55
 70
0
 10
-10.993267584
 20
-21.4842508866
 10
-10.993043064
 20
-21.49876488
 10
-10.9923962401
 20
-21.5132666073
 10
-10.9913276588
 20
-21.527743813
 10
-10.9898382232
 20
-21.5421842621
 10
-10.9879291921
 20
-21.5565757508
 10
-10.9856021788
 20
-21.5709061166
 10
-10.9828591499
 20
-21.5851632487
 10
-10.9797024237
 20
-21.599335098
 10
-10.9761346678
 20
-21.6134096879
 10
-10.9721588975
 20
-21.6273751236
 10
-10.9677784727
 20
-21.6412196026
 10
-10.9629970954
 20
-21.6549314249
 10
-10.9578188065
 20
-21.6684990023
 10
-10.9522479822
 20
-21.6819108686
 10
-10.9462893304
 20
-21.6951556893
 10
-10.939947887
 20
-21.7082222709
 10
-10.9332290112
 20
-21.7210995707
 10
-10.9261383812
 20
-21.7337767058
 10
-10.9186819895
 20
-21.7462429626
 10
-10.9108661375
 20
-21.7584878057
 10
-10.9026974305
 20
-21.7705008867
 10
-10.8941827721
 20
-21.7822720532
 10
-10.8853293581
 20
-21.7937913572
 10
-10.8761446707
 20
-21.8050490635
 10
-10.8666364721
 20
-21.8160356581
 10
-10.8568127977
 20
-21.826741856
 10
-10.8466819497
 20
-21.8371586093
 10
-10.8362524898
 20
-21.8472771145
 10
-10.8255332322
 20
-21.8570888203
 10
-10.8145332358
 20
-21.8665854348
 10
-10.803261797
 20
-21.8757589321
 10
-10.7917284415
 20
-21.8846015597
 10
-10.7799429161
 20
-21.8931058444
 10
-10.7679151812
 20
-21.9012645992
 10
-10.7556554014
 20
-21.9090709289
 10
-10.7431739379
 20
-21.9165182363
 10
-10.7304813387
 20
-21.9236002276
 10
-10.7175883307
 20
-21.9303109176
 10
-10.70450581
 20
-21.9366446351
 10
-10.6912448328
 20
-21.9425960273
 10
-10.6778166062
 20
-21.9481600645
 10
-10.6642324785
 20
-21.9533320446
 10
-10.65050393
 20
-21.9581075966
 10
-10.6366425628
 20
-21.9624826846
 10
-10.6226600915
 20
-21.9664536112
 10
-10.6085683329
 20
-21.9700170204
 10
-10.594379196
 20
-21.9731699007
 10
-10.5801046725
 20
-21.9759095877
 10
-10.5657568259
 20
-21.978233766
 10
-10.5513477818
 20
-21.9801404713
 10
-10.5368897175
 20
-21.9816280923
 10
-10.5223948519
 20
-21.9826953717
 10
-10.5078754346
 20
-21.9833414076
 10
-10.4933437364
 20
-21.983565654
  0
LINE
  5
270
100
AcDbEntity
  8
RACCORDO
100
AcDbLine
 62
253
  6
CONTINUOUS
 10
-10.9806452609
 20
21.0042421449
 11
-10.982442688
 21
21.112958017
  0
LINE
  5
271
100
AcDbEntity
  8
RACCORDO
100
AcDbLine
 62
253
  6
CONTINUOUS
 10
-10.4825188434
 20
21.4830130766
 11
-10.4845796391
 21
21.6211975904
  0
LINE
  5
272
100
AcDbEntity
  8
RACCORDO
100
AcDbLine
 62
253
  6
CONTINUOUS
 10
-10.9787851249
 20
20.8440387043
 11
-10.9806452609
 21
21.0042421449
  0
LINE
  5
273
100
AcDbEntity
  8
RACCORDO
100
AcDbLine
 62
253
  6
CONTINUOUS
 10
-10.4802619837
 20
21.2692699426
 11
-10.4825188434
 21
21.4830130766
  0
LINE
  5
274
100
AcDbEntity
  8
RACCORDO
100
AcDbLine
 62
253
  6
CONTINUOUS
 10
-10.4782142007
 20
20.9638642273
 11
-10.4802619837
 21
21.2692699426
  0
LINE
  5
275
100
AcDbEntity
  8
RACCORDO
100
AcDbLine
 62
253
  6
CONTINUOUS
 10
-10.9772909289
 20
20.6251972317
 11
-10.9787851249
 21
20.8440387043
  0
LINE
  5
276
100
AcDbEntity
  8
RACCORDO
100
AcDbLine
 62
253
  6
CONTINUOUS
 10
-10.4769931528
 20
20.5941160899
 11
-10.4782142007
 21
20.9638642273
  0
LINE
  5
277
100
AcDbEntity
  8
RACCORDO
100
AcDbLine
 62
253
  6
CONTINUOUS
 10
-10.9767407104
 20
20.4138371395
 11
-10.9772909289
 21
20.6251972317
  0
LWPOLYLINE
  5
278
100
AcDbEntity
  8
RACCORDO
100
AcDbPolyline
 62
253
  6
CONTINUOUS
 90
3
 70
0
 10
-10.9742555137
 20
16.5837693873
 10
-10.9748287192
 20
17.5413860899
 10
-10.9767407104
 20
20.4138371395
  0
LINE
  5
279
100
AcDbEntity
  8
RACCORDO
100
AcDbLine
 62
253
  6
CONTINUOUS
 10
-10.4761475449
 20
19.4760676775
 11
-10.4769931528
 21
20.5941160899
  0
LWPOLYLINE
  5
27A
100
AcDbEntity
  8
RACCORDO
100
AcDbPolyline
 62
253
  6
CONTINUOUS
 90
3
 70
0
 10
-10.4743319278
 20
16.6008751427
 10
-10.4749050791
 20
17.5593389174
 10
-10.4761475449
 20
19.4760676775
  0
LWPOLYLINE
  5
27B
100
AcDbEntity
  8
RACCORDO
100
AcDbPolyline
 62
253
  6
CONTINUOUS
 90
3
 70
0
 10
-10.9718705035
 20
11.7948309486
 10
-10.9722833627
 20
12.7527185295
 10
-10.9742555137
 20
16.5837693873
  0
LWPOLYLINE
  5
27C
100
AcDbEntity
  8
RACCORDO
100
AcDbPolyline
 62
253
  6
CONTINUOUS
 90
3
 70
0
 10
-10.4719470751
 20
11.8077067398
 10
-10.4723599178
 20
12.7664417786
 10
-10.4743319278
 20
16.6008751427
  0
LWPOLYLINE
  5
27D
100
AcDbEntity
  8
RACCORDO
100
AcDbPolyline
 62
253
  6
CONTINUOUS
 90
3
 70
0
 10
-10.9700669541
 20
6.046706124
 10
-10.9705398236
 20
7.9628763209
 10
-10.9718705035
 20
11.7948309486
  0
LWPOLYLINE
  5
27E
100
AcDbEntity
  8
RACCORDO
100
AcDbPolyline
 62
253
  6
CONTINUOUS
 90
3
 70
0
 10
-10.4701434663
 20
6.0545035006
 10
-10.4706163857
 20
7.9723654493
 10
-10.4719470751
 20
11.8077067398
  0
LINE
  5
27F
100
AcDbEntity
  8
DRAFT
100
AcDbLine
 62
7
  6
CONTINUOUS
 10
-11.1004814214
 20
-4.1563828169
 11
-11.1004814214
 21
-13.2450378887
  0
LINE
  5
280
100
AcDbEntity
  8
RACCORDO
100
AcDbLine
 62
7
  6
CONTINUOUS
 10
-11.1004814214
 20
-13.2450378887
 11
-11.1004814214
 21
-21.8061539648
  0
LINE
  5
281
100
AcDbEntity
  8
DRAFT
100
AcDbLine
 62
7
  6
CONTINUOUS
 10
-11.1004814214
 20
4.0436171831
 11
-11.1004814214
 21
13.132272255
  0
LINE
  5
282
100
AcDbEntity
  8
RACCORDO
100
AcDbLine
 62
7
  6
CONTINUOUS
 10
-11.1004814214
 20
13.132272255
 11
-11.1004814214
 21
21.6933883311
  0
LINE
  5
283
100
AcDbEntity
  8
RACCORDO
100
AcDbLine
 62
7
  6
CONTINUOUS
 10
-11.0603347721
 20
-0.3650868394
 11
-11.0603347721
 21
-4.1563828169
  0
LINE
  5
284
100
AcDbEntity
  8
RACCORDO
100
AcDbLine
 62
7
  6
CONTINUOUS
 10
-11.0603347721
 20
0.2523212056
 11
-11.0603347721
 21
4.0436171831
  0
LWPOLYLINE
  5
285
100
AcDbEntity
  8
RACCORDO
100
AcDbPolyline
 62
253
  6
CONTINUOUS
 90
3
 70
0
 10
-10.9694183479
 20
0.2977759557
 10
-10.9695062022
 20
2.2141322028
 10
-10.9700669541
 20
6.046706124
  0
LWPOLYLINE
  5
286
100
AcDbEntity
  8
RACCORDO
100
AcDbPolyline
 62
253
  6
CONTINUOUS
 90
3
 70
0
 10
-10.4694944913
 20
0.1003559438
 10
-10.4695820474
 20
2.2185380935
 10
-10.4701434663
 20
6.0545035006
  0
LINE
  5
287
100
AcDbEntity
  8
RACCORDO
100
AcDbLine
 62
253
  6
CONTINUOUS
 10
-10.9697224062
 20
-4.2432115278
 11
-10.9694183479
 21
-0.4105415895
  0
LINE
  5
288
100
AcDbEntity
  8
RACCORDO
100
AcDbLine
 62
253
  6
CONTINUOUS
 10
-10.4696746406
 20
-3.2903164491
 11
-10.4694944913
 21
-0.2131215776
  0
LWPOLYLINE
  5
289
100
AcDbEntity
  8
RACCORDO
100
AcDbPolyline
 62
253
  6
CONTINUOUS
 90
4
 70
0
 10
-10.971141009
 20
-9.9916906126
 10
-10.970824377
 20
-9.0336827981
 10
-10.9705398236
 20
-8.0756419547
 10
-10.9697224062
 20
-4.2432115278
  0
LINE
  5
28A
100
AcDbEntity
  8
RACCORDO
100
AcDbLine
 62
253
  6
CONTINUOUS
 10
-10.4703638893
 20
-7.1262131114
 11
-10.4696746406
 21
-3.2903164491
  0
LWPOLYLINE
  5
28B
100
AcDbEntity
  8
RACCORDO
100
AcDbPolyline
 62
253
  6
CONTINUOUS
 90
3
 70
0
 10
-10.4712175908
 20
-10.0028749023
 10
-10.4709009528
 20
-9.0440195226
 10
-10.4703638893
 20
-7.1262131114
  0
LWPOLYLINE
  5
28C
100
AcDbEntity
  8
RACCORDO
100
AcDbPolyline
 62
253
  6
CONTINUOUS
 90
6
 70
0
 10
-10.9737143716
 20
-15.7388535706
 10
-10.973205299
 20
-14.7811179444
 10
-10.9727282961
 20
-13.8233281417
 10
-10.9722833627
 20
-12.8654841633
 10
-10.9718705035
 20
-11.9075965823
 10
-10.971141009
 20
-9.9916906126
  0
LWPOLYLINE
  5
28D
100
AcDbEntity
  8
RACCORDO
100
AcDbPolyline
 62
253
  6
CONTINUOUS
 90
6
 70
0
 10
-10.4737908322
 20
-15.7551154921
 10
-10.4732817986
 20
-14.7965324595
 10
-10.4728048272
 20
-13.8378952834
 10
-10.4723599178
 20
-12.8792074123
 10
-10.4719470751
 20
-11.9204723735
 10
-10.4712175908
 20
-10.0028749023
  0
LWPOLYLINE
  5
28E
100
AcDbEntity
  8
RACCORDO
100
AcDbPolyline
 62
253
  6
CONTINUOUS
 90
4
 70
0
 10
-10.9760713166
 20
-19.5691838378
 10
-10.9754339862
 20
-18.6117001546
 10
-10.9748287192
 20
-17.6541517237
 10
-10.9737143716
 20
-15.7388535706
  0
LWPOLYLINE
  5
28F
100
AcDbEntity
  8
RACCORDO
100
AcDbPolyline
 62
253
  6
CONTINUOUS
 90
4
 70
0
 10
-10.4761475449
 20
-19.5888333112
 10
-10.4755102841
 20
-18.6305032119
 10
-10.4749050791
 20
-17.6721045512
 10
-10.4737908322
 20
-15.7551154921
  0
LINE
  5
290
100
AcDbEntity
  8
RACCORDO
100
AcDbLine
 62
253
  6
CONTINUOUS
 10
-10.4776846599
 20
-20.9565302433
 11
-10.4761475449
 21
-19.5888333112
  0
LINE
  5
291
100
AcDbEntity
  8
RACCORDO
100
AcDbLine
 62
253
  6
CONTINUOUS
 10
-10.9773891347
 20
-20.7586283962
 11
-10.9760713166
 21
-19.5691838378
  0
LINE
  5
292
100
AcDbEntity
  8
RACCORDO
100
AcDbLine
 62
253
  6
CONTINUOUS
 10
-10.4796212461
 20
-21.302984527
 11
-10.4776846599
 21
-20.9565302433
  0
LINE
  5
293
100
AcDbEntity
  8
RACCORDO
100
AcDbLine
 62
253
  6
CONTINUOUS
 10
-10.9787851249
 20
-20.9568043381
 11
-10.9773891347
 21
-20.7586283962
  0
LINE
  5
294
100
AcDbEntity
  8
RACCORDO
100
AcDbLine
 62
253
  6
CONTINUOUS
 10
-10.4822449765
 20
-21.5739264206
 11
-10.4796212461
 21
-21.302984527
  0
LINE
  5
295
100
AcDbEntity
  8
RACCORDO
100
AcDbLine
 62
253
  6
CONTINUOUS
 10
-10.9806452609
 20
-21.1170077786
 11
-10.9787851249
 21
-20.9568043381
  0
LWPOLYLINE
  5
296
100
AcDbEntity
  8
RACCORDO
100
AcDbPolyline
 62
253
  6
CONTINUOUS
 90
55
 70
0
 10
-10.993267584
 20
21.3714852529
 10
-10.993043064
 20
21.3859992464
 10
-10.9923962401
 20
21.4005009739
 10
-10.9913276587
 20
21.4149781797
 10
-10.9898382231
 20
21.4294186289
 10
-10.987929192
 20
21.4438101178
 10
-10.9856021787
 20
21.4581404836
 10
-10.9828591498
 20
21.4723976158
 10
-10.9797024234
 20
21.4865694653
 10
-10.9761346675
 20
21.5006440552
 10
-10.9721588971
 20
21.514609491
 10
-10.9677784723
 20
21.5284539701
 10
-10.962997095
 20
21.5421657924
 10
-10.957818806
 20
21.5557333699
 10
-10.9522479816
 20
21.5691452362
 10
-10.9462893298
 20
21.582390057
 10
-10.9399478863
 20
21.5954566386
 10
-10.9332290105
 20
21.6083339384
 10
-10.9261383804
 20
21.6210110735
 10
-10.9186819886
 20
21.6334773303
 10
-10.9108661365
 20
21.6457221734
 10
-10.9026974295
 20
21.6577352544
 10
-10.894182771
 20
21.6695064209
 10
-10.885329357
 20
21.6810257249
 10
-10.8761446696
 20
21.6922834311
 10
-10.8666364709
 20
21.7032700257
 10
-10.8568127965
 20
21.7139762236
 10
-10.8466819484
 20
21.7243929768
 10
-10.8362524885
 20
21.7345114819
 10
-10.8255332309
 20
21.7443231877
 10
-10.8145332346
 20
21.7538198021
 10
-10.8032617958
 20
21.7629932994
 10
-10.7917284402
 20
21.7718359269
 10
-10.7799429148
 20
21.7803402116
 10
-10.7679151799
 20
21.7884989663
 10
-10.7556554002
 20
21.796305296
 10
-10.7431739366
 20
21.8037526033
 10
-10.7304813375
 20
21.8108345945
 10
-10.7175883296
 20
21.8175452845
 10
-10.7045058089
 20
21.8238790019
 10
-10.6912448317
 20
21.829830394
 10
-10.6778166051
 20
21.8353944312
 10
-10.6642324775
 20
21.8405664112
 10
-10.6505039291
 20
21.8453419632
 10
-10.636642562
 20
21.8497170511
 10
-10.6226600908
 20
21.8536879776
 10
-10.6085683322
 20
21.8572513868
 10
-10.5943791954
 20
21.8604042671
 10
-10.580104672
 20
21.8631439541
 10
-10.5657568254
 20
21.8654681323
 10
-10.5513477814
 20
21.8673748376
 10
-10.5368897173
 20
21.8688624586
 10
-10.5223948517
 20
21.869929738
 10
-10.5078754345
 20
21.8705757739
 10
-10.4933437364
 20
21.8708000203
  0
LINE
  5
297
100
AcDbEntity
  8
RACCORDO
100
AcDbLine
 62
253
  6
CONTINUOUS
 10
-10.4842707346
 20
-21.7158706018
 11
-10.4822449765
 21
-21.5739264206
  0
LWPOLYLINE
  5
298
100
AcDbEntity
  8
RACCORDO
100
AcDbPolyline
 62
253
  6
CONTINUOUS
 90
43
 70
0
 10
-10.9694183096
 20
-0.4105416086
 10
-10.9692773603
 20
-0.4030643791
 10
-10.9688569869
 20
-0.3955976052
 10
-10.9681577771
 20
-0.3881517277
 10
-10.9671807087
 20
-0.3807371585
 10
-10.9659271479
 20
-0.3733642653
 10
-10.9643988476
 20
-0.366043358
 10
-10.9625979448
 20
-0.3587846735
 10
-10.9605269579
 20
-0.3515983616
 10
-10.9581887826
 20
-0.3444944713
 10
-10.9555866885
 20
-0.3374829359
 10
-10.9527243142
 20
-0.3305735599
 10
-10.9496056622
 20
-0.3237760047
 10
-10.9462350933
 20
-0.3170997756
 10
-10.9426173207
 20
-0.3105542079
 10
-10.9387574032
 20
-0.3041484546
 10
-10.9346607382
 20
-0.2978914729
 10
-10.9303330541
 20
-0.291792012
 10
-10.9257804024
 20
-0.285858601
 10
-10.9210091491
 20
-0.2800995366
 10
-10.9160259661
 20
-0.2745228719
 10
-10.9108378214
 20
-0.2691364048
 10
-10.9054519696
 20
-0.2639476673
 10
-10.8998759419
 20
-0.258963915
 10
-10.8941175354
 20
-0.2541921166
 10
-10.8881848021
 20
-0.2496389448
 10
-10.882086038
 20
-0.2453107663
 10
-10.875829771
 20
-0.2412136332
 10
-10.8694247495
 20
-0.2373532747
 10
-10.8628799295
 20
-0.2337350888
 10
-10.856204463
 20
-0.2303641349
 10
-10.8494076844
 20
-0.2272451266
 10
-10.8424990976
 20
-0.2243824252
 10
-10.8354883632
 20
-0.2217800339
 10
-10.8283852843
 20
-0.2194415915
 10
-10.8211997934
 20
-0.217370368
 10
-10.813941938
 20
-0.2155692595
 10
-10.806621867
 20
-0.2140407846
 10
-10.7992498161
 20
-0.2127870805
 10
-10.7918360938
 20
-0.2118099005
 10
-10.7843910669
 20
-0.2111106108
 10
-10.7769251459
 20
-0.2106901894
 10
-10.7694487706
 20
-0.210549224
  0
LINE
  5
299
100
AcDbEntity
  8
RACCORDO
100
AcDbLine
 62
253
  6
CONTINUOUS
 10
-10.982442688
 20
-21.2257236507
 11
-10.9806452609
 21
-21.1170077786
  0
LINE
  5
29A
100
AcDbEntity
  8
RACCORDO
100
AcDbLine
 62
253
  6
CONTINUOUS
 10
-10.4858577601
 20
-21.8005316032
 11
-10.4842707346
 21
-21.7158706018
  0
LINE
  5
29B
100
AcDbEntity
  8
RACCORDO
100
AcDbLine
 62
253
  6
CONTINUOUS
 10
-10.9838903963
 20
-21.2933498194
 11
-10.982442688
 21
-21.2257236507
  0
LINE
  5
29C
100
AcDbEntity
  8
RACCORDO
100
AcDbLine
 62
253
  6
CONTINUOUS
 10
-10.4871974724
 20
-21.8574599417
 11
-10.4858577601
 21
-21.8005316032
  0
LINE
  5
29D
100
AcDbEntity
  8
RACCORDO
100
AcDbLine
 62
253
  6
CONTINUOUS
 10
-10.9851341852
 20
-21.3408210303
 11
-10.9838903963
 21
-21.2933498194
  0
LINE
  5
29E
100
AcDbEntity
  8
RACCORDO
100
AcDbLine
 62
253
  6
CONTINUOUS
 10
-10.9861111111
 20
-21.372328928
 11
-10.9851341852
 21
-21.3408210303
  0
LWPOLYLINE
  5
29F
100
AcDbEntity
  8
RACCORDO
100
AcDbPolyline
 62
253
  6
CONTINUOUS
 90
3
 70
0
 10
-10.4885891072
 20
-21.9043305719
 10
-10.4882368168
 20
-21.8935759283
 10
-10.4871974724
 20
-21.8574599417
  0
LINE
  5
2A0
100
AcDbEntity
  8
RACCORDO
100
AcDbLine
 62
253
  6
CONTINUOUS
 10
-10.9871213319
 20
-21.4001791243
 11
-10.9861111111
 21
-21.372328928
  0
LINE
  5
2A1
100
AcDbEntity
  8
RACCORDO
100
AcDbLine
 62
253
  6
CONTINUOUS
 10
-10.9878113079
 20
-21.4166579562
 11
-10.9871213319
 21
-21.4001791243
  0
LINE
  5
2A2
100
AcDbEntity
  8
RACCORDO
100
AcDbLine
 62
253
  6
CONTINUOUS
 10
-10.9885129705
 20
-21.4314286105
 11
-10.9878113079
 21
-21.4166579562
  0
LWPOLYLINE
  5
2A3
100
AcDbEntity
  8
RACCORDO
100
AcDbPolyline
 62
253
  6
CONTINUOUS
 90
12
 70
0
 10
-10.9892248642
 20
21.3316964855
 10
-10.9895844667
 20
21.3375580409
 10
-10.989946011
 20
21.3429749332
 10
-10.9903094999
 20
21.3479465519
 10
-10.9906749305
 20
21.3524735075
 10
-10.9910417996
 20
21.3565495677
 10
-10.991410111
 20
21.3601741149
 10
-10.9917798607
 20
21.3633477667
 10
-10.9921505344
 20
21.3660661442
 10
-10.9925219604
 20
21.368327788
 10
-10.9928943102
 20
21.3701341576
 10
-10.993267584
 20
21.3714852529
  0
LWPOLYLINE
  5
2A4
100
AcDbEntity
  8
RACCORDO
100
AcDbPolyline
 62
253
  6
CONTINUOUS
 90
9
 70
0
 10
-10.4903856312
 20
21.8354930678
 10
-10.4907510631
 20
21.8422814559
 10
-10.4911179318
 20
21.8483960957
 10
-10.4914862375
 20
21.8538341841
 10
-10.49185598
 20
21.858593233
 10
-10.4922266538
 20
21.8626710583
 10
-10.4925980903
 20
21.8660657942
 10
-10.4929704581
 20
21.8687758919
 10
-10.4933437572
 20
21.8708001142
  0
LINE
  5
2A5
100
AcDbEntity
  8
RACCORDO
100
AcDbLine
 62
253
  6
CONTINUOUS
 10
-10.4896605987
 20
21.819907869
 11
-10.4903856312
 21
21.8354930678
  0
LWPOLYLINE
  5
2A6
100
AcDbEntity
  8
RACCORDO
100
AcDbPolyline
 62
253
  6
CONTINUOUS
 90
3
 70
0
 10
-10.4885891072
 20
21.7915649381
 10
-10.4889438333
 20
21.8016691209
 10
-10.4896605987
 20
21.819907869
  0
LINE
  5
2A7
100
AcDbEntity
  8
RACCORDO
100
AcDbLine
 62
253
  6
CONTINUOUS
 10
-10.4893009982
 20
-21.9238838447
 11
-10.4885891072
 21
-21.9043305719
  0
LWPOLYLINE
  5
2A8
100
AcDbEntity
  8
RACCORDO
100
AcDbPolyline
 62
253
  6
CONTINUOUS
 90
11
 70
0
 10
-10.4933437572
 20
-21.983565748
 10
-10.4929704581
 20
-21.9815415256
 10
-10.4925980903
 20
-21.978831428
 10
-10.4922266538
 20
-21.975436692
 10
-10.49185598
 20
-21.9713588668
 10
-10.4914862375
 20
-21.9665998178
 10
-10.4911179318
 20
-21.9611617295
 10
-10.4907510631
 20
-21.9550470897
 10
-10.4903856312
 20
-21.9482587015
 10
-10.4900221417
 20
-21.9407996958
 10
-10.4893009982
 20
-21.9238838447
  0
LWPOLYLINE
  5
2A9
100
AcDbEntity
  8
RACCORDO
100
AcDbPolyline
 62
253
  6
CONTINUOUS
 90
13
 70
0
 10
-10.993267584
 20
-21.4842508866
 10
-10.9928943102
 20
-21.4828997913
 10
-10.9925219604
 20
-21.4810934217
 10
-10.9921505344
 20
-21.478831778
 10
-10.9917798607
 20
-21.4761134004
 10
-10.991410111
 20
-21.4729397486
 10
-10.9910417996
 20
-21.4693152015
 10
-10.9906749305
 20
-21.4652391412
 10
-10.9903094999
 20
-21.4607121857
 10
-10.989946011
 20
-21.4557405669
 10
-10.9895844667
 20
-21.4503236747
 10
-10.9892248642
 20
-21.4444621192
 10
-10.9885129705
 20
-21.4314286105
  0
LINE
  5
2AA
100
AcDbEntity
  8
RACCORDO
100
AcDbLine
 62
253
  6
CONTINUOUS
 10
-11.0603347721
 20
0.2523212056
 11
-10.9694183479
 21
0.2977759557
  0
LINE
  5
2AB
100
AcDbEntity
  8
RACCORDO
100
AcDbLine
 62
253
  6
CONTINUOUS
 10
-10.860334771
 20
0.0523440509
 11
-10.7694487706
 21
0.0977835903
  0
LINE
  5
2AC
100
AcDbEntity
  8
RACCORDO
100
AcDbLine
 62
253
  6
CONTINUOUS
 10
-10.9694183479
 20
-0.4105415895
 11
-11.0603347721
 21
-0.3650868394
  0
LINE
  5
2AD
100
AcDbEntity
  8
RACCORDO
100
AcDbLine
 62
253
  6
CONTINUOUS
 10
-10.7694487706
 20
-0.210549224
 11
-10.860334771
 21
-0.1651096847
  0
LINE
  5
2AE
100
AcDbEntity
  8
RACCORDO
100
AcDbLine
 62
253
  6
CONTINUOUS
 10
-11.1004814214
 20
-21.8061539648
 11
-10.993267584
 21
-21.4842508866
  0
LINE
  5
2AF
100
AcDbEntity
  8
DRAFT
100
AcDbLine
 62
7
  6
CONTINUOUS
 10
11.0593719292
 20
-4.1563828169
 11
11.0995185786
 21
-4.1563828169
  0
LINE
  5
2B0
100
AcDbEntity
  8
DRAFT
100
AcDbLine
 62
7
  6
CONTINUOUS
 10
-11.0603347721
 20
-4.1563828169
 11
-11.1004814214
 21
-4.1563828169
  0
LINE
  5
2B1
100
AcDbEntity
  8
RACCORDO
100
AcDbLine
 62
253
  6
CONTINUOUS
 10
-10.993267584
 20
21.3714852529
 11
-11.1004814214
 21
21.6933883311
  0
LINE
  5
2B2
100
AcDbEntity
  8
RACCORDO
100
AcDbLine
 62
253
  6
CONTINUOUS
 10
-10.6008620212
 20
-22.3063828169
 11
-10.4933437677
 21
-21.983565748
  0
LWPOLYLINE
  5
2B3
100
AcDbEntity
  8
RACCORDO
100
AcDbPolyline
 62
253
  6
CONTINUOUS
 90
8
 70
0
 10
10.7684859277
 20
-0.210549224
 10
10.7682103398
 20
-0.2106245812
 10
10.7676879841
 20
-0.2106997183
 10
10.7669188606
 20
-0.2107746352
 10
10.7659019242
 20
-0.2108493946
 10
10.7646382199
 20
-0.2109239339
 10
10.7631308835
 20
-0.2109980646
 10
10.7613793093
 20
-0.2110717846
  0
LWPOLYLINE
  5
2B4
100
AcDbEntity
  8
RACCORDO
100
AcDbPolyline
 62
253
  6
CONTINUOUS
 90
7
 70
0
 10
10.968455505
 20
-0.4105415965
 10
10.967997769
 20
-0.4106210412
 10
10.9671267731
 20
-0.4107002694
 10
10.9658432386
 20
-0.4107792727
 10
10.9641482333
 20
-0.4108580985
 10
10.9620431576
 20
-0.4109366826
 10
10.9595297326
 20
-0.4110148487
  0
LINE
  5
2B5
100
AcDbEntity
  8
RACCORDO
100
AcDbLine
 62
253
  6
CONTINUOUS
 10
-10.4933437677
 20
21.8708001142
 11
-10.6008620212
 21
22.1936171831
  0
LINE
  5
2B6
100
AcDbEntity
  8
DRAFT
100
AcDbLine
 62
7
  6
CONTINUOUS
 10
8.1744959056
 20
-0.1651096847
 11
7.9995185786
 21
-0.1825634202
  0
LINE
  5
2B7
100
AcDbEntity
  8
RACCORDO
100
AcDbLine
 62
253
  6
CONTINUOUS
 10
10.7613793093
 20
-0.2110717846
 11
10.7571502163
 21
-0.2112178166
  0
LINE
  5
2B8
100
AcDbEntity
  8
RACCORDO
100
AcDbLine
 62
253
  6
CONTINUOUS
 10
10.7571502163
 20
-0.2112178166
 11
10.7519652241
 21
-0.2113614819
  0
LINE
  5
2B9
100
AcDbEntity
  8
RACCORDO
100
AcDbLine
 62
253
  6
CONTINUOUS
 10
10.9595297326
 20
-0.4110148487
 11
10.9532864112
 21
-0.4111698942
  0
LINE
  5
2BA
100
AcDbEntity
  8
RACCORDO
100
AcDbLine
 62
253
  6
CONTINUOUS
 10
10.7519652241
 20
-0.2113614819
 11
10.7424368012
 21
-0.2115714816
  0
LINE
  5
2BB
100
AcDbEntity
  8
RACCORDO
100
AcDbLine
 62
253
  6
CONTINUOUS
 10
10.9532864112
 20
-0.4111698942
 11
10.940921757
 21
-0.4113981028
  0
LINE
  5
2BC
100
AcDbEntity
  8
RACCORDO
100
AcDbLine
 62
253
  6
CONTINUOUS
 10
10.7424368012
 20
-0.2115714816
 11
10.7265768861
 21
-0.2118388397
  0
LINE
  5
2BD
100
AcDbEntity
  8
RACCORDO
100
AcDbLine
 62
253
  6
CONTINUOUS
 10
10.940921757
 20
-0.4113981028
 11
10.9125583359
 21
-0.4117627036
  0
LINE
  5
2BE
100
AcDbEntity
  8
RACCORDO
100
AcDbLine
 62
253
  6
CONTINUOUS
 10
10.7265768861
 20
-0.2118388397
 11
10.6907610613
 21
-0.2122622384
  0
LINE
  5
2BF
100
AcDbEntity
  8
RACCORDO
100
AcDbLine
 62
253
  6
CONTINUOUS
 10
10.9125583359
 20
-0.4117627036
 11
10.8576119091
 21
-0.4122277318
  0
LINE
  5
2C0
100
AcDbEntity
  8
RACCORDO
100
AcDbLine
 62
253
  6
CONTINUOUS
 10
10.6907610613
 20
-0.2122622384
 11
10.6317607029
 21
-0.2127001278
  0
LINE
  5
2C1
100
AcDbEntity
  8
RACCORDO
100
AcDbLine
 62
253
  6
CONTINUOUS
 10
10.8576119091
 20
-0.4122277318
 11
10.7757235624
 21
-0.4126725031
  0
LINE
  5
2C2
100
AcDbEntity
  8
RACCORDO
100
AcDbLine
 62
253
  6
CONTINUOUS
 10
-10.6469229114
 20
0.0998489764
 11
-10.5790785669
 21
0.1001750277
  0
LINE
  5
2C3
100
AcDbEntity
  8
RACCORDO
100
AcDbLine
 62
253
  6
CONTINUOUS
 10
10.6317607029
 20
-0.2127001278
 11
10.5618809473
 21
-0.2129916048
  0
LINE
  5
2C4
100
AcDbEntity
  8
RACCORDO
100
AcDbLine
 62
253
  6
CONTINUOUS
 10
10.7757235624
 20
-0.4126725031
 11
10.6644893381
 21
-0.4130347967
  0
LINE
  5
2C5
100
AcDbEntity
  8
RACCORDO
100
AcDbLine
 62
253
  6
CONTINUOUS
 10
10.6644893381
 20
-0.4130347967
 11
10.5401948406
 21
-0.4132278369
  0
LINE
  5
2C6
100
AcDbEntity
  8
RACCORDO
100
AcDbLine
 62
253
  6
CONTINUOUS
 10
-10.5790785669
 20
0.1001750277
 11
-10.4953474746
 21
0.1003462045
  0
LWPOLYLINE
  5
2C7
100
AcDbEntity
  8
RACCORDO
100
AcDbPolyline
 62
253
  6
CONTINUOUS
 90
3
 70
0
 10
10.5618809473
 20
-0.2129916048
 10
10.477170251
 20
-0.2131204881
 10
10.4685316484
 20
-0.2131215776
  0
LINE
  5
2C8
100
AcDbEntity
  8
RACCORDO
100
AcDbLine
 62
253
  6
CONTINUOUS
 10
10.5401948406
 20
-0.4132278369
 11
10.4685295411
 21
-0.4132567125
  0
LINE
  5
2C9
100
AcDbEntity
  8
DRAFT
100
AcDbLine
 62
7
  6
CONTINUOUS
 10
7.9995185786
 20
-0.1825634202
 11
-8.0004814214
 21
-0.1825634202
  0
LINE
  5
2CA
100
AcDbEntity
  8
RACCORDO
100
AcDbLine
 62
7
  6
CONTINUOUS
 10
-10.860334771
 20
-0.1651096847
 11
-8.1754587485
 21
-0.1651096847
  0
LINE
  5
2CB
100
AcDbEntity
  8
RACCORDO
100
AcDbLine
 62
7
  6
CONTINUOUS
 10
8.1744959056
 20
-0.1651096847
 11
10.8593719281
 21
-0.1651096847
  0
LINE
  5
2CC
100
AcDbEntity
  8
RACCORDO
100
AcDbLine
 62
7
  6
CONTINUOUS
 10
10.8593719281
 20
0.0523440509
 11
8.1744959056
 21
0.0523440509
  0
LINE
  5
2CD
100
AcDbEntity
  8
RACCORDO
100
AcDbLine
 62
7
  6
CONTINUOUS
 10
-8.1754587485
 20
0.0523440509
 11
-10.860334771
 21
0.0523440509
  0
LINE
  5
2CE
100
AcDbEntity
  8
DRAFT
100
AcDbLine
 62
7
  6
CONTINUOUS
 10
-8.0004814214
 20
0.0697977865
 11
7.9995185786
 21
0.0697977865
  0
LINE
  5
2CF
100
AcDbEntity
  8
RACCORDO
100
AcDbLine
 62
253
  6
CONTINUOUS
 10
-10.4953474746
 20
0.1003462045
 11
10.477170251
 21
0.1003548543
  0
LINE
  5
2D0
100
AcDbEntity
  8
RACCORDO
100
AcDbLine
 62
253
  6
CONTINUOUS
 10
10.4685295411
 20
-0.4132567119
 11
-10.5974956729
 21
-0.4131640439
  0
LINE
  5
2D1
100
AcDbEntity
  8
RACCORDO
100
AcDbLine
 62
253
  6
CONTINUOUS
 10
10.4685316484
 20
-0.2131215776
 11
-10.5462934739
 21
-0.2130343382
  0
LINE
  5
2D2
100
AcDbEntity
  8
RACCORDO
100
AcDbLine
 62
253
  6
CONTINUOUS
 10
10.477170251
 20
0.1003548543
 11
10.5618809473
 21
0.1002259711
  0
LINE
  5
2D3
100
AcDbEntity
  8
RACCORDO
100
AcDbLine
 62
253
  6
CONTINUOUS
 10
-10.5974956729
 20
-0.4131640439
 11
-10.7169688368
 21
-0.4128934927
  0
LINE
  5
2D4
100
AcDbEntity
  8
RACCORDO
100
AcDbLine
 62
253
  6
CONTINUOUS
 10
-10.5462934739
 20
-0.2130343382
 11
-10.6179782888
 21
-0.212778414
  0
LINE
  5
2D5
100
AcDbEntity
  8
RACCORDO
100
AcDbLine
 62
253
  6
CONTINUOUS
 10
-10.7169688368
 20
-0.4128934927
 11
-10.8199479189
 21
-0.4124631228
  0
LINE
  5
2D6
100
AcDbEntity
  8
RACCORDO
100
AcDbLine
 62
253
  6
CONTINUOUS
 10
10.5618809473
 20
0.1002259711
 11
10.6317607029
 21
0.0999344941
  0
LINE
  5
2D7
100
AcDbEntity
  8
RACCORDO
100
AcDbLine
 62
253
  6
CONTINUOUS
 10
10.6317607029
 20
0.0999344941
 11
10.6459600685
 21
0.0998489764
  0
LINE
  5
2D8
100
AcDbEntity
  8
RACCORDO
100
AcDbLine
 62
253
  6
CONTINUOUS
 10
-10.6179782888
 20
-0.212778414
 11
-10.679766649
 21
-0.2123708597
  0
LINE
  5
2D9
100
AcDbEntity
  8
RACCORDO
100
AcDbLine
 62
253
  6
CONTINUOUS
 10
-10.8199479189
 20
-0.4124631228
 11
-10.8920560409
 21
-0.4119694039
  0
LINE
  5
2DA
100
AcDbEntity
  8
RACCORDO
100
AcDbLine
 62
253
  6
CONTINUOUS
 10
-10.679766649
 20
-0.2123708597
 11
-10.7183128668
 21
-0.2119661332
  0
LINE
  5
2DB
100
AcDbEntity
  8
RACCORDO
100
AcDbLine
 62
253
  6
CONTINUOUS
 10
-10.8920560409
 20
-0.4119694039
 11
-10.9316815066
 21
-0.4115465851
  0
LINE
  5
2DC
100
AcDbEntity
  8
RACCORDO
100
AcDbLine
 62
253
  6
CONTINUOUS
 10
-10.9316815066
 20
-0.4115465851
 11
-10.9464018757
 21
-0.4113226595
  0
LINE
  5
2DD
100
AcDbEntity
  8
RACCORDO
100
AcDbLine
 62
253
  6
CONTINUOUS
 10
-10.7183128668
 20
-0.2119661332
 11
-10.7397678323
 21
-0.2116397733
  0
LINE
  5
2DE
100
AcDbEntity
  8
RACCORDO
100
AcDbLine
 62
253
  6
CONTINUOUS
 10
-10.9464018757
 20
-0.4113226595
 11
-10.9542492541
 21
-0.4111698942
  0
LINE
  5
2DF
100
AcDbEntity
  8
RACCORDO
100
AcDbLine
 62
253
  6
CONTINUOUS
 10
-10.7397678323
 20
-0.2116397733
 11
-10.7499842699
 21
-0.211432251
  0
LINE
  5
2E0
100
AcDbEntity
  8
RACCORDO
100
AcDbLine
 62
253
  6
CONTINUOUS
 10
-10.7499842699
 20
-0.211432251
 11
-10.7556399033
 21
-0.2112899447
  0
LWPOLYLINE
  5
2E1
100
AcDbEntity
  8
RACCORDO
100
AcDbPolyline
 62
253
  6
CONTINUOUS
 90
8
 70
0
 10
-10.9542492541
 20
-0.4111698942
 10
-10.9604925755
 20
-0.4110148487
 10
-10.9630060005
 20
-0.4109366826
 10
-10.9651110762
 20
-0.4108580985
 10
-10.9668060815
 20
-0.4107792727
 10
-10.968089616
 20
-0.4107002694
 10
-10.9689606119
 20
-0.4106210412
 10
-10.9694183479
 20
-0.4105415965
  0
LWPOLYLINE
  5
2E2
100
AcDbEntity
  8
RACCORDO
100
AcDbPolyline
 62
253
  6
CONTINUOUS
 90
10
 70
0
 10
-10.7556399033
 20
-0.2112899447
 10
-10.7603469459
 20
-0.2111450961
 10
-10.7623421522
 20
-0.2110717846
 10
-10.7640937264
 20
-0.2109980646
 10
-10.7656010628
 20
-0.2109239339
 10
-10.766864767
 20
-0.2108493946
 10
-10.7678817035
 20
-0.2107746352
 10
-10.768650827
 20
-0.2106997183
 10
-10.7691731827
 20
-0.2106245812
 10
-10.7694487706
 20
-0.210549224
  0
LINE
  5
2E3
100
AcDbEntity
  8
DRAFT
100
AcDbLine
 62
7
  6
CONTINUOUS
 10
-8.1754587485
 20
-0.1651096847
 11
-8.0004814214
 21
-0.1825634202
  0
LINE
  5
2E4
100
AcDbEntity
  8
DRAFT
100
AcDbLine
 62
7
  6
CONTINUOUS
 10
-8.1754587485
 20
0.0523440509
 11
-8.0004814214
 21
0.0697977865
  0
LINE
  5
2E5
100
AcDbEntity
  8
RACCORDO
100
AcDbLine
 62
253
  6
CONTINUOUS
 10
-10.7623421522
 20
0.0983061509
 11
-10.7581130592
 21
0.0984521829
  0
LINE
  5
2E6
100
AcDbEntity
  8
RACCORDO
100
AcDbLine
 62
253
  6
CONTINUOUS
 10
-10.7581130592
 20
0.0984521829
 11
-10.752928067
 21
0.0985958481
  0
LINE
  5
2E7
100
AcDbEntity
  8
RACCORDO
100
AcDbLine
 62
253
  6
CONTINUOUS
 10
-10.9604925755
 20
0.298249215
 11
-10.9542492541
 21
0.2984042604
  0
LINE
  5
2E8
100
AcDbEntity
  8
RACCORDO
100
AcDbLine
 62
253
  6
CONTINUOUS
 10
-10.752928067
 20
0.0985958481
 11
-10.7433996441
 21
0.0988058479
  0
LINE
  5
2E9
100
AcDbEntity
  8
RACCORDO
100
AcDbLine
 62
253
  6
CONTINUOUS
 10
-10.9542492541
 20
0.2984042604
 11
-10.9418845999
 21
0.2986324691
  0
LINE
  5
2EA
100
AcDbEntity
  8
RACCORDO
100
AcDbLine
 62
253
  6
CONTINUOUS
 10
-10.7433996441
 20
0.0988058479
 11
-10.727539729
 21
0.0990732059
  0
LINE
  5
2EB
100
AcDbEntity
  8
RACCORDO
100
AcDbLine
 62
253
  6
CONTINUOUS
 10
-10.9418845999
 20
0.2986324691
 11
-10.9135211788
 21
0.2989970699
  0
LINE
  5
2EC
100
AcDbEntity
  8
RACCORDO
100
AcDbLine
 62
253
  6
CONTINUOUS
 10
-10.727539729
 20
0.0990732059
 11
-10.6917239042
 21
0.0994966047
  0
LINE
  5
2ED
100
AcDbEntity
  8
RACCORDO
100
AcDbLine
 62
253
  6
CONTINUOUS
 10
-10.9135211788
 20
0.2989970699
 11
-10.858574752
 21
0.299462098
  0
LINE
  5
2EE
100
AcDbEntity
  8
RACCORDO
100
AcDbLine
 62
253
  6
CONTINUOUS
 10
-10.6917239042
 20
0.0994966047
 11
-10.6469229114
 21
0.0998489764
  0
LINE
  5
2EF
100
AcDbEntity
  8
RACCORDO
100
AcDbLine
 62
253
  6
CONTINUOUS
 10
-10.858574752
 20
0.299462098
 11
-10.7766864053
 21
0.2999068694
  0
LINE
  5
2F0
100
AcDbEntity
  8
RACCORDO
100
AcDbLine
 62
253
  6
CONTINUOUS
 10
-10.7766864053
 20
0.2999068694
 11
-10.665452181
 21
0.300269163
  0
LINE
  5
2F1
100
AcDbEntity
  8
RACCORDO
100
AcDbLine
 62
253
  6
CONTINUOUS
 10
-10.665452181
 20
0.300269163
 11
-10.5411576835
 21
0.3004622032
  0
LINE
  5
2F2
100
AcDbEntity
  8
RACCORDO
100
AcDbLine
 62
253
  6
CONTINUOUS
 10
-10.5411576835
 20
0.3004622032
 11
10.4829101767
 21
0.3004898582
  0
LINE
  5
2F3
100
AcDbEntity
  8
RACCORDO
100
AcDbLine
 62
253
  6
CONTINUOUS
 10
10.4829101767
 20
0.3004898582
 11
10.5116238509
 21
0.3004805881
  0
LINE
  5
2F4
100
AcDbEntity
  8
RACCORDO
100
AcDbLine
 62
253
  6
CONTINUOUS
 10
10.5116238509
 20
0.3004805881
 11
10.6377152965
 21
0.3003273355
  0
LINE
  5
2F5
100
AcDbEntity
  8
RACCORDO
100
AcDbLine
 62
253
  6
CONTINUOUS
 10
10.6377152965
 20
0.3003273355
 11
10.752531422
 21
0.3000009448
  0
LINE
  5
2F6
100
AcDbEntity
  8
RACCORDO
100
AcDbLine
 62
253
  6
CONTINUOUS
 10
10.752531422
 20
0.3000009448
 11
10.838911283
 21
0.2995828352
  0
LINE
  5
2F7
100
AcDbEntity
  8
RACCORDO
100
AcDbLine
 62
253
  6
CONTINUOUS
 10
10.838911283
 20
0.2995828352
 11
10.9057630861
 21
0.2990671274
  0
LINE
  5
2F8
100
AcDbEntity
  8
RACCORDO
100
AcDbLine
 62
253
  6
CONTINUOUS
 10
10.6459600685
 20
0.0998489764
 11
10.7019784601
 21
0.0993822127
  0
LINE
  5
2F9
100
AcDbEntity
  8
RACCORDO
100
AcDbLine
 62
253
  6
CONTINUOUS
 10
10.9057630861
 20
0.2990671274
 11
10.936013615
 21
0.2987071142
  0
LINE
  5
2FA
100
AcDbEntity
  8
RACCORDO
100
AcDbLine
 62
253
  6
CONTINUOUS
 10
10.7019784601
 20
0.0993822127
 11
10.7308696923
 21
0.0990078999
  0
LINE
  5
2FB
100
AcDbEntity
  8
RACCORDO
100
AcDbLine
 62
253
  6
CONTINUOUS
 10
10.936013615
 20
0.2987071142
 11
10.9495617172
 21
0.2984809542
  0
LINE
  5
2FC
100
AcDbEntity
  8
RACCORDO
100
AcDbLine
 62
253
  6
CONTINUOUS
 10
10.7308696923
 20
0.0990078999
 11
10.7458450946
 21
0.0987366166
  0
LWPOLYLINE
  5
2FD
100
AcDbEntity
  8
RACCORDO
100
AcDbPolyline
 62
253
  6
CONTINUOUS
 90
9
 70
0
 10
10.9495617172
 20
0.2984809542
 10
10.9566100101
 20
0.298326955
 10
10.9595297326
 20
0.298249215
 10
10.9620431576
 20
0.2981710489
 10
10.9641482333
 20
0.2980924648
 10
10.9658432386
 20
0.298013639
 10
10.9671267731
 20
0.2979346357
 10
10.967997769
 20
0.2978554075
 10
10.968455505
 20
0.2977759628
  0
LINE
  5
2FE
100
AcDbEntity
  8
RACCORDO
100
AcDbLine
 62
253
  6
CONTINUOUS
 10
10.7458450946
 20
0.0987366166
 11
10.7546770604
 21
0.0985243109
  0
LWPOLYLINE
  5
2FF
100
AcDbEntity
  8
RACCORDO
100
AcDbPolyline
 62
253
  6
CONTINUOUS
 90
10
 70
0
 10
10.7546770604
 20
0.0985243109
 10
10.759384103
 20
0.0983794623
 10
10.7613793093
 20
0.0983061509
 10
10.7631308835
 20
0.0982324309
 10
10.7646382199
 20
0.0981583002
 10
10.7659019242
 20
0.0980837609
 10
10.7669188606
 20
0.0980090014
 10
10.7676879841
 20
0.0979340846
 10
10.7682103398
 20
0.0978589475
 10
10.7684859277
 20
0.0977835903
  0
LINE
  5
300
100
AcDbEntity
  8
DRAFT
100
AcDbLine
 62
7
  6
CONTINUOUS
 10
8.1744959056
 20
0.0523440509
 11
7.9995185786
 21
0.0697977865
  0
LINE
  5
301
100
AcDbEntity
  8
RACCORDO
100
AcDbLine
 62
253
  6
CONTINUOUS
 10
10.5998991783
 20
22.1936171831
 11
10.4923809248
 21
21.8708001142
  0
LWPOLYLINE
  5
302
100
AcDbEntity
  8
RACCORDO
100
AcDbPolyline
 62
253
  6
CONTINUOUS
 90
8
 70
0
 10
-10.7694487706
 20
0.0977835903
 10
-10.7691731827
 20
0.0978589475
 10
-10.768650827
 20
0.0979340846
 10
-10.7678817035
 20
0.0980090014
 10
-10.7668647671
 20
0.0980837609
 10
-10.7656010628
 20
0.0981583002
 10
-10.7640937264
 20
0.0982324309
 10
-10.7623421522
 20
0.0983061509
  0
LWPOLYLINE
  5
303
100
AcDbEntity
  8
RACCORDO
100
AcDbPolyline
 62
253
  6
CONTINUOUS
 90
7
 70
0
 10
-10.9694183479
 20
0.2977759628
 10
-10.9689606119
 20
0.2978554075
 10
-10.968089616
 20
0.2979346357
 10
-10.9668060815
 20
0.298013639
 10
-10.9651110762
 20
0.2980924648
 10
-10.9630060005
 20
0.2981710488
 10
-10.9604925755
 20
0.298249215
  0
LINE
  5
304
100
AcDbEntity
  8
RACCORDO
100
AcDbLine
 62
253
  6
CONTINUOUS
 10
10.4923809248
 20
-21.983565748
 11
10.5998991783
 21
-22.3063828169
  0
LWPOLYLINE
  5
305
100
AcDbEntity
  8
RACCORDO
100
AcDbPolyline
 62
253
  6
CONTINUOUS
 90
14
 70
0
 10
10.9923047411
 20
21.3714852529
 10
10.9919314673
 20
21.3701341576
 10
10.9915591175
 20
21.368327788
 10
10.9911876915
 20
21.3660661443
 10
10.9908170178
 20
21.3633477667
 10
10.9904472681
 20
21.3601741149
 10
10.9900789567
 20
21.3565495677
 10
10.9897120876
 20
21.3524735075
 10
10.989346657
 20
21.3479465519
 10
10.9889831681
 20
21.3429749332
 10
10.9886216238
 20
21.3375580409
 10
10.9882620213
 20
21.3316964855
 10
10.9879048548
 20
21.3253983297
 10
10.9871978365
 20
21.3114910235
  0
LINE
  5
306
100
AcDbEntity
  8
RACCORDO
100
AcDbLine
 62
253
  6
CONTINUOUS
 10
11.0995185786
 20
21.6933883311
 11
10.9923047411
 21
21.3714852529
  0
LINE
  5
307
100
AcDbEntity
  8
RACCORDO
100
AcDbLine
 62
253
  6
CONTINUOUS
 10
10.8593719281
 20
-0.1651096847
 11
10.7684859277
 21
-0.210549224
  0
LINE
  5
308
100
AcDbEntity
  8
DRAFT
100
AcDbLine
 62
7
  6
CONTINUOUS
 10
-11.0603347721
 20
4.0436171831
 11
-11.1004814214
 21
4.0436171831
  0
LINE
  5
309
100
AcDbEntity
  8
DRAFT
100
AcDbLine
 62
7
  6
CONTINUOUS
 10
11.0593719292
 20
4.0436171831
 11
11.0995185786
 21
4.0436171831
  0
LINE
  5
30A
100
AcDbEntity
  8
RACCORDO
100
AcDbLine
 62
253
  6
CONTINUOUS
 10
10.7684859277
 20
0.0977835903
 11
10.8593719281
 21
0.0523440509
  0
LINE
  5
30B
100
AcDbEntity
  8
RACCORDO
100
AcDbLine
 62
253
  6
CONTINUOUS
 10
10.9923047411
 20
-21.4842508866
 11
11.0995185786
 21
-21.8061539648
  0
LWPOLYLINE
  5
30C
100
AcDbEntity
  8
RACCORDO
100
AcDbPolyline
 62
253
  6
CONTINUOUS
 90
11
 70
0
 10
10.4923809143
 20
21.8708001142
 10
10.4920076152
 20
21.8687758919
 10
10.4916352474
 20
21.8660657942
 10
10.4912638109
 20
21.8626710583
 10
10.4908931371
 20
21.858593233
 10
10.4905233946
 20
21.8538341841
 10
10.4901550889
 20
21.8483960957
 10
10.4897882202
 20
21.8422814559
 10
10.4894227883
 20
21.8354930678
 10
10.4890592988
 20
21.8280340621
 10
10.4883381553
 20
21.8111182109
  0
LINE
  5
30D
100
AcDbEntity
  8
RACCORDO
100
AcDbLine
 62
253
  6
CONTINUOUS
 10
11.0593719292
 20
-0.3650868394
 11
10.968455505
 21
-0.4105415895
  0
LINE
  5
30E
100
AcDbEntity
  8
RACCORDO
100
AcDbLine
 62
253
  6
CONTINUOUS
 10
10.968455505
 20
0.2977759557
 11
11.0593719292
 21
0.2523212056
  0
LWPOLYLINE
  5
30F
100
AcDbEntity
  8
RACCORDO
100
AcDbPolyline
 62
253
  6
CONTINUOUS
 90
12
 70
0
 10
10.9882620213
 20
-21.4444621192
 10
10.9886216238
 20
-21.4503236747
 10
10.9889831681
 20
-21.4557405669
 10
10.989346657
 20
-21.4607121857
 10
10.9897120876
 20
-21.4652391412
 10
10.9900789567
 20
-21.4693152014
 10
10.9904472681
 20
-21.4729397486
 10
10.9908170178
 20
-21.4761134004
 10
10.9911876915
 20
-21.478831778
 10
10.9915591175
 20
-21.4810934217
 10
10.9919314673
 20
-21.4828997913
 10
10.9923047411
 20
-21.4842508866
  0
LWPOLYLINE
  5
310
100
AcDbEntity
  8
RACCORDO
100
AcDbPolyline
 62
253
  6
CONTINUOUS
 90
9
 70
0
 10
10.4894227883
 20
-21.9482587015
 10
10.4897882202
 20
-21.9550470897
 10
10.4901550889
 20
-21.9611617295
 10
10.4905233946
 20
-21.9665998178
 10
10.4908931371
 20
-21.9713588668
 10
10.4912638109
 20
-21.975436692
 10
10.4916352474
 20
-21.978831428
 10
10.4920076152
 20
-21.9815415256
 10
10.4923809143
 20
-21.983565748
  0
LINE
  5
311
100
AcDbEntity
  8
RACCORDO
100
AcDbLine
 62
253
  6
CONTINUOUS
 10
10.9875501276
 20
-21.4314286105
 11
10.9882620213
 21
-21.4444621192
  0
LINE
  5
312
100
AcDbEntity
  8
RACCORDO
100
AcDbLine
 62
253
  6
CONTINUOUS
 10
10.986848465
 20
-21.4166579562
 11
10.9875501276
 21
-21.4314286105
  0
LINE
  5
313
100
AcDbEntity
  8
RACCORDO
100
AcDbLine
 62
253
  6
CONTINUOUS
 10
10.4886977559
 20
-21.9326735027
 11
10.4894227883
 21
-21.9482587015
  0
LWPOLYLINE
  5
314
100
AcDbEntity
  8
RACCORDO
100
AcDbPolyline
 62
253
  6
CONTINUOUS
 90
3
 70
0
 10
10.9858183531
 20
-21.3913112192
 10
10.986158489
 20
-21.4001791243
 10
10.986848465
 20
-21.4166579562
  0
LINE
  5
315
100
AcDbEntity
  8
RACCORDO
100
AcDbLine
 62
253
  6
CONTINUOUS
 10
10.4879809904
 20
-21.9144347546
 11
10.4886977559
 21
-21.9326735027
  0
LINE
  5
316
100
AcDbEntity
  8
RACCORDO
100
AcDbLine
 62
253
  6
CONTINUOUS
 10
10.4872739739
 20
-21.8935759283
 11
10.4879809904
 21
-21.9144347546
  0
LINE
  5
317
100
AcDbEntity
  8
RACCORDO
100
AcDbLine
 62
253
  6
CONTINUOUS
 10
10.4862346295
 20
-21.8574599417
 11
10.4872739739
 21
-21.8935759283
  0
LINE
  5
318
100
AcDbEntity
  8
RACCORDO
100
AcDbLine
 62
253
  6
CONTINUOUS
 10
10.4848949172
 20
-21.8005316032
 11
10.4862346295
 21
-21.8574599417
  0
LINE
  5
319
100
AcDbEntity
  8
RACCORDO
100
AcDbLine
 62
253
  6
CONTINUOUS
 10
10.4830037043
 20
-21.697213955
 11
10.4848949172
 21
-21.8005316032
  0
LINE
  5
31A
100
AcDbEntity
  8
RACCORDO
100
AcDbLine
 62
253
  6
CONTINUOUS
 10
10.4824094933
 20
-21.6582430446
 11
10.4830037043
 21
-21.697213955
  0
LINE
  5
31B
100
AcDbEntity
  8
RACCORDO
100
AcDbLine
 62
253
  6
CONTINUOUS
 10
10.4842474893
 20
21.6556578771
 11
10.4824094933
 21
21.5454774109
  0
LINE
  5
31C
100
AcDbEntity
  8
RACCORDO
100
AcDbLine
 62
253
  6
CONTINUOUS
 10
10.4855577573
 20
21.7174629354
 11
10.4842474893
 21
21.6556578771
  0
LINE
  5
31D
100
AcDbEntity
  8
RACCORDO
100
AcDbLine
 62
253
  6
CONTINUOUS
 10
10.4865781565
 20
21.7573696057
 11
10.4855577573
 21
21.7174629354
  0
LINE
  5
31E
100
AcDbEntity
  8
RACCORDO
100
AcDbLine
 62
253
  6
CONTINUOUS
 10
10.4876262643
 20
21.7915649381
 11
10.4865781565
 21
21.7573696057
  0
LINE
  5
31F
100
AcDbEntity
  8
RACCORDO
100
AcDbLine
 62
253
  6
CONTINUOUS
 10
10.4883381553
 20
21.8111182109
 11
10.4876262643
 21
21.7915649381
  0
LINE
  5
320
100
AcDbEntity
  8
RACCORDO
100
AcDbLine
 62
253
  6
CONTINUOUS
 10
10.9865020171
 20
21.2958662804
 11
10.9858183531
 21
21.2785455855
  0
LINE
  5
321
100
AcDbEntity
  8
RACCORDO
100
AcDbLine
 62
253
  6
CONTINUOUS
 10
10.9871978365
 20
21.3114910235
 11
10.9865020171
 21
21.2958662804
  0
LINE
  5
322
100
AcDbEntity
  8
RACCORDO
100
AcDbLine
 62
253
  6
CONTINUOUS
 10
10.9848187723
 20
-21.3622284448
 11
10.9858183531
 21
-21.3913112192
  0
LINE
  5
323
100
AcDbEntity
  8
RACCORDO
100
AcDbLine
 62
253
  6
CONTINUOUS
 10
10.9835406472
 20
-21.3178509627
 11
10.9848187723
 21
-21.3622284448
  0
LINE
  5
324
100
AcDbEntity
  8
RACCORDO
100
AcDbLine
 62
253
  6
CONTINUOUS
 10
10.9820437148
 20
-21.2538381665
 11
10.9835406472
 21
-21.3178509627
  0
LWPOLYLINE
  5
325
100
AcDbEntity
  8
RACCORDO
100
AcDbPolyline
 62
253
  6
CONTINUOUS
 90
43
 70
0
 10
10.9684554667
 20
-0.4105416086
 10
10.9683145174
 20
-0.4030643787
 10
10.9678941439
 20
-0.3955976044
 10
10.9671949341
 20
-0.3881517265
 10
10.9662178655
 20
-0.3807371569
 10
10.9649643046
 20
-0.3733642634
 10
10.9634360042
 20
-0.3660433557
 10
10.9616351012
 20
-0.3587846709
 10
10.9595641141
 20
-0.3515983587
 10
10.9572259386
 20
-0.3444944681
 10
10.9546238443
 20
-0.3374829325
 10
10.9517614697
 20
-0.3305735562
 10
10.9486428175
 20
-0.3237760009
 10
10.9452722483
 20
-0.3170997715
 10
10.9416544755
 20
-0.3105542038
 10
10.9377945577
 20
-0.3041484504
 10
10.9336978924
 20
-0.2978914686
 10
10.929370208
 20
-0.2917920077
 10
10.924817556
 20
-0.2858585966
 10
10.9200463026
 20
-0.2800995323
 10
10.9150631193
 20
-0.2745228677
 10
10.9098749743
 20
-0.2691364007
 10
10.9044891224
 20
-0.2639476633
 10
10.8989130945
 20
-0.2589639111
 10
10.8931546879
 20
-0.254192113
 10
10.8872219546
 20
-0.2496389414
 10
10.8811231904
 20
-0.245310763
 10
10.8748669234
 20
-0.2412136302
 10
10.8684619018
 20
-0.237353272
 10
10.8619170819
 20
-0.2337350863
 10
10.8552416155
 20
-0.2303641326
 10
10.848444837
 20
-0.2272451246
 10
10.8415362504
 20
-0.2243824236
 10
10.8345255162
 20
-0.2217800325
 10
10.8274224376
 20
-0.2194415903
 10
10.820236947
 20
-0.217370367
 10
10.812979092
 20
-0.2155692588
 10
10.8056590214
 20
-0.2140407841
 10
10.7982869709
 20
-0.2127870802
 10
10.7908732492
 20
-0.2118099003
 10
10.7834282228
 20
-0.2111106107
 10
10.7759623024
 20
-0.2106901893
 10
10.7684859277
 20
-0.210549224
  0
LINE
  5
326
100
AcDbEntity
  8
RACCORDO
100
AcDbLine
 62
253
  6
CONTINUOUS
 10
10.9804177945
 20
-21.1654848653
 11
10.9820437148
 21
-21.2538381665
  0
LWPOLYLINE
  5
327
100
AcDbEntity
  8
RACCORDO
100
AcDbPolyline
 62
253
  6
CONTINUOUS
 90
55
 70
0
 10
10.9923047411
 20
21.3714852529
 10
10.9920802211
 20
21.3859992463
 10
10.9914333972
 20
21.4005009736
 10
10.9903648159
 20
21.4149781793
 10
10.9888753803
 20
21.4294186284
 10
10.9869663492
 20
21.4438101171
 10
10.9846393359
 20
21.4581404829
 10
10.9818963071
 20
21.4723976149
 10
10.9787395808
 20
21.4865694643
 10
10.9751718249
 20
21.5006440542
 10
10.9711960546
 20
21.5146094899
 10
10.9668156298
 20
21.5284539689
 10
10.9620342525
 20
21.5421657912
 10
10.9568559636
 20
21.5557333686
 10
10.9512851393
 20
21.5691452349
 10
10.9453264876
 20
21.5823900556
 10
10.9389850442
 20
21.5954566372
 10
10.9322661683
 20
21.608333937
 10
10.9251755383
 20
21.6210110721
 10
10.9177191466
 20
21.6334773289
 10
10.9099032946
 20
21.645722172
 10
10.9017345876
 20
21.657735253
 10
10.8932199292
 20
21.6695064195
 10
10.8843665152
 20
21.6810257235
 10
10.8751818278
 20
21.6922834298
 10
10.8656736292
 20
21.7032700244
 10
10.8558499548
 20
21.7139762223
 10
10.8457191068
 20
21.7243929755
 10
10.8352896469
 20
21.7345114807
 10
10.8245703893
 20
21.7443231866
 10
10.8135703929
 20
21.7538198011
 10
10.8022989541
 20
21.7629932984
 10
10.7907655986
 20
21.771835926
 10
10.7789800732
 20
21.7803402107
 10
10.7669523383
 20
21.7884989655
 10
10.7546925585
 20
21.7963052952
 10
10.742211095
 20
21.8037526026
 10
10.7295184958
 20
21.8108345939
 10
10.7166254878
 20
21.8175452839
 10
10.7035429671
 20
21.8238790014
 10
10.6902819899
 20
21.8298303935
 10
10.6768537633
 20
21.8353944308
 10
10.6632696356
 20
21.8405664109
 10
10.6495410871
 20
21.8453419629
 10
10.6356797199
 20
21.8497170509
 10
10.6216972486
 20
21.8536879774
 10
10.60760549
 20
21.8572513866
 10
10.5934163531
 20
21.860404267
 10
10.5791418296
 20
21.863143954
 10
10.564793983
 20
21.8654681323
 10
10.5503849389
 20
21.8673748376
 10
10.5359268746
 20
21.8688624585
 10
10.521432009
 20
21.869929738
 10
10.5069125917
 20
21.8705757739
 10
10.4923808935
 20
21.8708000203
  0
LINE
  5
328
100
AcDbEntity
  8
RACCORDO
100
AcDbLine
 62
253
  6
CONTINUOUS
 10
10.9785822415
 20
-21.0305263248
 11
10.9804177945
 21
-21.1654848653
  0
LINE
  5
329
100
AcDbEntity
  8
RACCORDO
100
AcDbLine
 62
253
  6
CONTINUOUS
 10
10.4802428483
 20
-21.4816316453
 11
10.4824094933
 21
-21.6582430446
  0
LINE
  5
32A
100
AcDbEntity
  8
RACCORDO
100
AcDbLine
 62
253
  6
CONTINUOUS
 10
10.9768954531
 20
-20.8399169754
 11
10.9785822415
 21
-21.0305263248
  0
LINE
  5
32B
100
AcDbEntity
  8
RACCORDO
100
AcDbLine
 62
253
  6
CONTINUOUS
 10
10.4780780395
 20
-21.2205623735
 11
10.4802428483
 21
-21.4816316453
  0
LINE
  5
32C
100
AcDbEntity
  8
RACCORDO
100
AcDbLine
 62
253
  6
CONTINUOUS
 10
10.4764042465
 20
-20.8641413039
 11
10.4780780395
 21
-21.2205623735
  0
LINE
  5
32D
100
AcDbEntity
  8
RACCORDO
100
AcDbLine
 62
253
  6
CONTINUOUS
 10
10.97590297
 20
-20.6119131362
 11
10.9768954531
 21
-20.8399169754
  0
LINE
  5
32E
100
AcDbEntity
  8
RACCORDO
100
AcDbLine
 62
253
  6
CONTINUOUS
 10
10.475184702
 20
-19.5888333112
 11
10.4758540185
 21
-20.5470913235
  0
LINE
  5
32F
100
AcDbEntity
  8
RACCORDO
100
AcDbLine
 62
253
  6
CONTINUOUS
 10
10.9751084737
 20
-19.5691838378
 11
10.97590297
 21
-20.6119131362
  0
LINE
  5
330
100
AcDbEntity
  8
RACCORDO
100
AcDbLine
 62
253
  6
CONTINUOUS
 10
10.4758540181
 20
-20.5470913235
 11
10.4764042465
 21
-20.8641413039
  0
LWPOLYLINE
  5
331
100
AcDbEntity
  8
RACCORDO
100
AcDbPolyline
 62
253
  6
CONTINUOUS
 90
5
 70
0
 10
10.4723189557
 20
-14.7965324595
 10
10.4728279893
 20
-15.7551154921
 10
10.4733690849
 20
-16.7136407764
 10
10.4739422362
 20
-17.6721045512
 10
10.475184702
 20
-19.5888333112
  0
LWPOLYLINE
  5
332
100
AcDbEntity
  8
RACCORDO
100
AcDbPolyline
 62
253
  6
CONTINUOUS
 90
5
 70
0
 10
10.9722424561
 20
-14.7811179444
 10
10.9727515287
 20
-15.7388535706
 10
10.9732926708
 20
-16.696535021
 10
10.9738658763
 20
-17.6541517237
 10
10.9751084737
 20
-19.5691838378
  0
LWPOLYLINE
  5
333
100
AcDbEntity
  8
RACCORDO
100
AcDbPolyline
 62
253
  6
CONTINUOUS
 90
5
 70
0
 10
10.470254748
 20
-10.0028749023
 10
10.4706034567
 20
-10.9616936946
 10
10.4709842322
 20
-11.9204723735
 10
10.4713970749
 20
-12.8792074123
 10
10.4723189557
 20
-14.7965324595
  0
LWPOLYLINE
  5
334
100
AcDbEntity
  8
RACCORDO
100
AcDbPolyline
 62
253
  6
CONTINUOUS
 90
5
 70
0
 10
10.9701781661
 20
-9.9916906126
 10
10.9705268762
 20
-10.9496653987
 10
10.9709076606
 20
-11.9075965823
 10
10.9713205198
 20
-12.8654841633
 10
10.9722424561
 20
-14.7811179444
  0
LINE
  5
335
100
AcDbEntity
  8
RACCORDO
100
AcDbLine
 62
253
  6
CONTINUOUS
 10
10.4691806234
 20
-6.1672691344
 11
10.470254748
 21
-10.0028749023
  0
LINE
  5
336
100
AcDbEntity
  8
RACCORDO
100
AcDbLine
 62
253
  6
CONTINUOUS
 10
10.9691041112
 20
-6.1594717577
 11
10.9701781661
 21
-9.9916906126
  0
LINE
  5
337
100
AcDbEntity
  8
RACCORDO
100
AcDbLine
 62
253
  6
CONTINUOUS
 10
10.4686192045
 20
-2.3313037272
 11
10.4691806234
 21
-6.1672691344
  0
LINE
  5
338
100
AcDbEntity
  8
RACCORDO
100
AcDbLine
 62
253
  6
CONTINUOUS
 10
10.4686192045
 20
-2.3313037272
 11
10.4685316484
 21
-0.2131215776
  0
LINE
  5
339
100
AcDbEntity
  8
RACCORDO
100
AcDbLine
 62
253
  6
CONTINUOUS
 10
10.9685433593
 20
-2.3268978366
 11
10.9691041112
 21
-6.1594717577
  0
LINE
  5
33A
100
AcDbEntity
  8
RACCORDO
100
AcDbLine
 62
253
  6
CONTINUOUS
 10
10.968455505
 20
-0.4105415895
 11
10.9685433593
 21
-2.3268978366
  0
LINE
  5
33B
100
AcDbEntity
  8
RACCORDO
100
AcDbLine
 62
7
  6
CONTINUOUS
 10
11.0593719292
 20
-0.3650868394
 11
11.0593719292
 21
-4.1563828169
  0
LINE
  5
33C
100
AcDbEntity
  8
RACCORDO
100
AcDbLine
 62
7
  6
CONTINUOUS
 10
11.0593719292
 20
0.2523212056
 11
11.0593719292
 21
4.0436171831
  0
LINE
  5
33D
100
AcDbEntity
  8
DRAFT
100
AcDbLine
 62
7
  6
CONTINUOUS
 10
11.0995185786
 20
-4.1563828169
 11
11.0995185786
 21
-13.2450378887
  0
LINE
  5
33E
100
AcDbEntity
  8
RACCORDO
100
AcDbLine
 62
7
  6
CONTINUOUS
 10
11.0995185786
 20
-13.2450378887
 11
11.0995185786
 21
-21.8061539648
  0
LINE
  5
33F
100
AcDbEntity
  8
DRAFT
100
AcDbLine
 62
7
  6
CONTINUOUS
 10
11.0995185786
 20
4.0436171831
 11
11.0995185786
 21
13.132272255
  0
LINE
  5
340
100
AcDbEntity
  8
RACCORDO
100
AcDbLine
 62
7
  6
CONTINUOUS
 10
11.0995185786
 20
13.132272255
 11
11.0995185786
 21
21.6933883311
  0
LINE
  5
341
100
AcDbEntity
  8
RACCORDO
100
AcDbLine
 62
253
  6
CONTINUOUS
 10
10.4687117977
 20
3.1775508154
 11
10.4685316484
 21
0.1003559438
  0
LINE
  5
342
100
AcDbEntity
  8
RACCORDO
100
AcDbLine
 62
253
  6
CONTINUOUS
 10
10.9686354168
 20
3.1722930047
 11
10.968455505
 21
0.2977759557
  0
LINE
  5
343
100
AcDbEntity
  8
RACCORDO
100
AcDbLine
 62
253
  6
CONTINUOUS
 10
10.4694010464
 20
7.0134474777
 11
10.4687117977
 21
3.1775508154
  0
LINE
  5
344
100
AcDbEntity
  8
RACCORDO
100
AcDbLine
 62
253
  6
CONTINUOUS
 10
10.9693245055
 20
7.004802449
 11
10.9686354168
 21
3.1722930047
  0
LWPOLYLINE
  5
345
100
AcDbEntity
  8
RACCORDO
100
AcDbPolyline
 62
253
  6
CONTINUOUS
 90
4
 70
0
 10
10.4718419843
 20
13.7251296497
 10
10.4713970749
 20
12.7664417786
 10
10.4709842322
 20
11.8077067398
 10
10.4694010464
 20
7.0134474777
  0
LWPOLYLINE
  5
346
100
AcDbEntity
  8
RACCORDO
100
AcDbPolyline
 62
253
  6
CONTINUOUS
 90
4
 70
0
 10
10.9717654532
 20
13.710562508
 10
10.9713205198
 20
12.7527185295
 10
10.9709076606
 20
11.7948309486
 10
10.9693245055
 20
7.004802449
  0
LWPOLYLINE
  5
347
100
AcDbEntity
  8
RACCORDO
100
AcDbPolyline
 62
253
  6
CONTINUOUS
 90
5
 70
0
 10
10.4758540185
 20
20.4343256898
 10
10.475184702
 20
19.4760676775
 10
10.4745474412
 20
18.5177375782
 10
10.4739422362
 20
17.5593389174
 10
10.4718419843
 20
13.7251296497
  0
LINE
  5
348
100
AcDbEntity
  8
RACCORDO
100
AcDbLine
 62
253
  6
CONTINUOUS
 10
10.9738658763
 20
17.5413860899
 11
10.9717654532
 21
13.710562508
  0
LINE
  5
349
100
AcDbEntity
  8
RACCORDO
100
AcDbLine
 62
253
  6
CONTINUOUS
 10
10.476721817
 20
20.8437646096
 11
10.4758540181
 21
20.4343256898
  0
LINE
  5
34A
100
AcDbEntity
  8
RACCORDO
100
AcDbLine
 62
253
  6
CONTINUOUS
 10
10.9764262918
 20
20.6458627624
 11
10.9738658763
 21
17.5413860899
  0
LINE
  5
34B
100
AcDbEntity
  8
RACCORDO
100
AcDbLine
 62
253
  6
CONTINUOUS
 10
10.4786584033
 20
21.1902188932
 11
10.476721817
 21
20.8437646096
  0
LINE
  5
34C
100
AcDbEntity
  8
RACCORDO
100
AcDbLine
 62
253
  6
CONTINUOUS
 10
10.977822282
 20
20.8440387043
 11
10.9764262918
 21
20.6458627624
  0
LINE
  5
34D
100
AcDbEntity
  8
RACCORDO
100
AcDbLine
 62
253
  6
CONTINUOUS
 10
10.4812821337
 20
21.4611607869
 11
10.4786584033
 21
21.1902188932
  0
LINE
  5
34E
100
AcDbEntity
  8
RACCORDO
100
AcDbLine
 62
253
  6
CONTINUOUS
 10
10.979682418
 20
21.0042421449
 11
10.977822282
 21
20.8440387043
  0
LINE
  5
34F
100
AcDbEntity
  8
RACCORDO
100
AcDbLine
 62
253
  6
CONTINUOUS
 10
10.4824094933
 20
21.5454774109
 11
10.4812821337
 21
21.4611607869
  0
LWPOLYLINE
  5
350
100
AcDbEntity
  8
RACCORDO
100
AcDbPolyline
 62
253
  6
CONTINUOUS
 90
55
 70
0
 10
10.9923047411
 20
-21.4842508866
 10
10.9920802211
 20
-21.4987648801
 10
10.9914333972
 20
-21.5132666076
 10
10.9903648159
 20
-21.5277438134
 10
10.9888753803
 20
-21.5421842627
 10
10.9869663491
 20
-21.5565757515
 10
10.9846393358
 20
-21.5709061174
 10
10.9818963069
 20
-21.5851632495
 10
10.9787395805
 20
-21.599335099
 10
10.9751718246
 20
-21.613409689
 10
10.9711960542
 20
-21.6273751247
 10
10.9668156294
 20
-21.6412196038
 10
10.9620342521
 20
-21.6549314262
 10
10.9568559631
 20
-21.6684990036
 10
10.9512851387
 20
-21.68191087
 10
10.9453264869
 20
-21.6951556907
 10
10.9389850434
 20
-21.7082222723
 10
10.9322661676
 20
-21.7210995721
 10
10.9251755375
 20
-21.7337767073
 10
10.9177191457
 20
-21.7462429641
 10
10.9099032936
 20
-21.7584878071
 10
10.9017345866
 20
-21.7705008881
 10
10.8932199282
 20
-21.7822720546
 10
10.8843665141
 20
-21.7937913586
 10
10.8751818267
 20
-21.8050490649
 10
10.865673628
 20
-21.8160356594
 10
10.8558499536
 20
-21.8267418573
 10
10.8457191055
 20
-21.8371586105
 10
10.8352896457
 20
-21.8472771156
 10
10.824570388
 20
-21.8570888214
 10
10.8135703917
 20
-21.8665854359
 10
10.8022989529
 20
-21.8757589332
 10
10.7907655973
 20
-21.8846015607
 10
10.778980072
 20
-21.8931058453
 10
10.766952337
 20
-21.9012646
 10
10.7546925573
 20
-21.9090709297
 10
10.7422110937
 20
-21.916518237
 10
10.7295184946
 20
-21.9236002283
 10
10.7166254867
 20
-21.9303109182
 10
10.703542966
 20
-21.9366446356
 10
10.6902819888
 20
-21.9425960277
 10
10.6768537622
 20
-21.9481600649
 10
10.6632696346
 20
-21.9533320449
 10
10.6495410862
 20
-21.9581075969
 10
10.6356797191
 20
-21.9624826848
 10
10.6216972479
 20
-21.9664536114
 10
10.6076054893
 20
-21.9700170205
 10
10.5934163525
 20
-21.9731699009
 10
10.5791418291
 20
-21.9759095878
 10
10.5647939825
 20
-21.978233766
 10
10.5503849385
 20
-21.9801404713
 10
10.5359268744
 20
-21.9816280923
 10
10.5214320088
 20
-21.9826953717
 10
10.5069125916
 20
-21.9833414076
 10
10.4923808935
 20
-21.983565654
  0
LINE
  5
351
100
AcDbEntity
  8
RACCORDO
100
AcDbLine
 62
253
  6
CONTINUOUS
 10
10.9814798451
 20
21.112958017
 11
10.979682418
 21
21.0042421449
  0
LWPOLYLINE
  5
352
100
AcDbEntity
  8
RACCORDO
100
AcDbPolyline
 62
253
  6
CONTINUOUS
 90
43
 70
0
 10
10.9684554667
 20
0.2977759749
 10
10.9683145174
 20
0.2902987454
 10
10.967894144
 20
0.2828319714
 10
10.9671949342
 20
0.275386094
 10
10.9662178658
 20
0.2679715247
 10
10.964964305
 20
0.2605986316
 10
10.9634360047
 20
0.2532777243
 10
10.9616351019
 20
0.2460190397
 10
10.959564115
 20
0.2388327279
 10
10.9572259397
 20
0.2317288375
 10
10.9546238456
 20
0.2247173022
 10
10.9517614713
 20
0.2178079261
 10
10.9486428193
 20
0.211010371
 10
10.9452722504
 20
0.2043341418
 10
10.9416544779
 20
0.1977885742
 10
10.9377945603
 20
0.1913828209
 10
10.9336978953
 20
0.1851258391
 10
10.9293702112
 20
0.1790263783
 10
10.9248175595
 20
0.1730929672
 10
10.9200463062
 20
0.1673339029
 10
10.9150631232
 20
0.1617572381
 10
10.9098749785
 20
0.1563707711
 10
10.9044891267
 20
0.1511820336
 10
10.898913099
 20
0.1461982812
 10
10.8931546925
 20
0.1414264829
 10
10.8872219593
 20
0.1368733111
 10
10.8811231951
 20
0.1325451326
 10
10.8748669282
 20
0.1284479995
 10
10.8684619066
 20
0.124587641
 10
10.8619170867
 20
0.1209694551
 10
10.8552416201
 20
0.1175985011
 10
10.8484448415
 20
0.1144794928
 10
10.8415362547
 20
0.1116167915
 10
10.8345255203
 20
0.1090144002
 10
10.8274224414
 20
0.1066759578
 10
10.8202369505
 20
0.1046047342
 10
10.8129790951
 20
0.1028036257
 10
10.8056590241
 20
0.1012751508
 10
10.7982869732
 20
0.1000214468
 10
10.7908732509
 20
0.0990442668
 10
10.783428224
 20
0.0983449771
 10
10.775962303
 20
0.0979245556
 10
10.7684859277
 20
0.0977835903
  0
LINE
  5
353
100
AcDbEntity
  8
RACCORDO
100
AcDbLine
 62
253
  6
CONTINUOUS
 10
10.9829275534
 20
21.1805841857
 11
10.9814798451
 21
21.112958017
  0
LINE
  5
354
100
AcDbEntity
  8
RACCORDO
100
AcDbLine
 62
253
  6
CONTINUOUS
 10
10.9841713423
 20
21.2280553966
 11
10.9829275534
 21
21.1805841857
  0
LINE
  5
355
100
AcDbEntity
  8
RACCORDO
100
AcDbLine
 62
253
  6
CONTINUOUS
 10
10.9851482682
 20
21.2595632943
 11
10.9841713423
 21
21.2280553966
  0
LINE
  5
356
100
AcDbEntity
  8
RACCORDO
100
AcDbLine
 62
253
  6
CONTINUOUS
 10
10.9858183531
 20
21.2785455855
 11
10.9851482682
 21
21.2595632943
  0
LWPOLYLINE
  5
357
100
AcDbEntity
  8
RACCORDO
100
AcDbPolyline
 62
253
  6
CONTINUOUS
 90
19
 70
0
 10
10.9757778675
 20
-20.5266027732
 10
10.9753202725
 20
-20.5271922149
 10
10.9744494097
 20
-20.5277811689
 10
10.9731659996
 20
-20.5283691479
 10
10.9714711041
 20
-20.5289556654
 10
10.9693661257
 20
-20.529540236
 10
10.966852806
 20
-20.5301223761
 10
10.9639332246
 20
-20.530701604
 10
10.9606097972
 20
-20.5312774405
 10
10.9568852737
 20
-20.531849409
 10
10.9527627358
 20
-20.5324170364
 10
10.9482455945
 20
-20.532979853
 10
10.9433375876
 20
-20.533537393
 10
10.9380427759
 20
-20.5340891952
 10
10.9323655404
 20
-20.534634803
 10
10.9263105786
 20
-20.535173765
 10
10.9198829006
 20
-20.5357056351
 10
10.9130878246
 20
-20.5362299734
 10
10.9059309731
 20
-20.5367463459
  0
LINE
  5
358
100
AcDbEntity
  8
RACCORDO
100
AcDbLine
 62
7
  6
CONTINUOUS
 10
8.7928942515
 20
22.1936171831
 11
7.4072536055
 21
22.0678385129
  0
LINE
  5
359
100
AcDbEntity
  8
RACCORDO
100
AcDbLine
 62
253
  6
CONTINUOUS
 10
-10.906893816
 20
20.4239807122
 11
-10.8915187677
 21
20.424987858
  0
LINE
  5
35A
100
AcDbEntity
  8
RACCORDO
100
AcDbLine
 62
253
  6
CONTINUOUS
 10
-10.8915187677
 20
20.424987858
 11
-10.8747714744
 21
20.4259581061
  0
LINE
  5
35B
100
AcDbEntity
  8
RACCORDO
100
AcDbLine
 62
253
  6
CONTINUOUS
 10
-10.8747714744
 20
20.4259581061
 11
-10.8567073528
 21
20.4268882461
  0
LINE
  5
35C
100
AcDbEntity
  8
RACCORDO
100
AcDbLine
 62
253
  6
CONTINUOUS
 10
-10.8567073528
 20
20.4268882461
 11
-10.8373861769
 21
20.4277752001
  0
LINE
  5
35D
100
AcDbEntity
  8
RACCORDO
100
AcDbLine
 62
253
  6
CONTINUOUS
 10
-10.8373861769
 20
20.4277752001
 11
-10.8168718803
 21
20.4286160332
  0
LINE
  5
35E
100
AcDbEntity
  8
RACCORDO
100
AcDbLine
 62
253
  6
CONTINUOUS
 10
-10.8168718803
 20
20.4286160332
 11
-10.7840128497
 21
20.4297847638
  0
LINE
  5
35F
100
AcDbEntity
  8
RACCORDO
100
AcDbLine
 62
253
  6
CONTINUOUS
 10
-10.7840128497
 20
20.4297847638
 11
-10.7488674628
 21
20.4308348016
  0
LINE
  5
360
100
AcDbEntity
  8
RACCORDO
100
AcDbLine
 62
253
  6
CONTINUOUS
 10
-10.7488674628
 20
20.4308348016
 11
-10.7116972947
 21
20.4317583315
  0
LINE
  5
361
100
AcDbEntity
  8
RACCORDO
100
AcDbLine
 62
253
  6
CONTINUOUS
 10
-10.7116972947
 20
20.4317583315
 11
-10.6727789907
 21
20.43254848
  0
LINE
  5
362
100
AcDbEntity
  8
RACCORDO
100
AcDbLine
 62
253
  6
CONTINUOUS
 10
-10.6727789907
 20
20.43254848
 11
-10.6324022065
 21
20.4331993662
  0
LINE
  5
363
100
AcDbEntity
  8
RACCORDO
100
AcDbLine
 62
253
  6
CONTINUOUS
 10
-10.6324022065
 20
20.4331993662
 11
-10.590867453
 21
20.433706146
  0
LINE
  5
364
100
AcDbEntity
  8
RACCORDO
100
AcDbLine
 62
253
  6
CONTINUOUS
 10
-10.590867453
 20
20.433706146
 11
-10.5484838593
 21
20.4340650474
  0
LINE
  5
365
100
AcDbEntity
  8
RACCORDO
100
AcDbLine
 62
253
  6
CONTINUOUS
 10
-10.5484838593
 20
20.4340650474
 11
-10.5055668723
 21
20.4342733993
  0
LINE
  5
366
100
AcDbEntity
  8
RACCORDO
100
AcDbLine
 62
253
  6
CONTINUOUS
 10
-10.5055668723
 20
20.4342733993
 11
10.4758540185
 21
20.4343256898
  0
LINE
  5
367
100
AcDbEntity
  8
RACCORDO
100
AcDbLine
 62
253
  6
CONTINUOUS
 10
10.5332589061
 20
20.434151326
 11
10.4758540199
 21
20.4343278502
  0
LINE
  5
368
100
AcDbEntity
  8
RACCORDO
100
AcDbLine
 62
253
  6
CONTINUOUS
 10
10.5899046118
 20
20.4337061465
 11
10.5332589061
 21
20.434151326
  0
LINE
  5
369
100
AcDbEntity
  8
RACCORDO
100
AcDbLine
 62
253
  6
CONTINUOUS
 10
10.6450419965
 20
20.432998199
 11
10.5899046118
 21
20.4337061465
  0
LINE
  5
36A
100
AcDbEntity
  8
RACCORDO
100
AcDbLine
 62
253
  6
CONTINUOUS
 10
10.6979418676
 20
20.4320368462
 11
10.6450419965
 21
20.432998199
  0
LINE
  5
36B
100
AcDbEntity
  8
RACCORDO
100
AcDbLine
 62
253
  6
CONTINUOUS
 10
10.7357261722
 20
20.431157061
 11
10.6979418676
 21
20.4320368462
  0
LINE
  5
36C
100
AcDbEntity
  8
RACCORDO
100
AcDbLine
 62
253
  6
CONTINUOUS
 10
10.7715763358
 20
20.4301483695
 11
10.7357261722
 21
20.431157061
  0
LINE
  5
36D
100
AcDbEntity
  8
RACCORDO
100
AcDbLine
 62
253
  6
CONTINUOUS
 10
10.8052255376
 20
20.4290182791
 11
10.7715763358
 21
20.4301483695
  0
LINE
  5
36E
100
AcDbEntity
  8
RACCORDO
100
AcDbLine
 62
253
  6
CONTINUOUS
 10
10.8263111772
 20
20.4282015597
 11
10.8052255376
 21
20.4290182791
  0
LINE
  5
36F
100
AcDbEntity
  8
RACCORDO
100
AcDbLine
 62
253
  6
CONTINUOUS
 10
10.846237157
 20
20.4273373086
 11
10.8263111772
 21
20.4282015597
  0
LINE
  5
370
100
AcDbEntity
  8
RACCORDO
100
AcDbLine
 62
253
  6
CONTINUOUS
 10
10.8649375423
 20
20.4264283855
 11
10.846237157
 21
20.4273373086
  0
LINE
  5
371
100
AcDbEntity
  8
RACCORDO
100
AcDbLine
 62
253
  6
CONTINUOUS
 10
10.8823504535
 20
20.4254777982
 11
10.8649375423
 21
20.4264283855
  0
LINE
  5
372
100
AcDbEntity
  8
RACCORDO
100
AcDbLine
 62
7
  6
CONTINUOUS
 10
-8.7938570944
 20
22.1936171831
 11
-7.4082164484
 21
22.0678385129
  0
LWPOLYLINE
  5
373
100
AcDbEntity
  8
RACCORDO
100
AcDbPolyline
 62
253
  6
CONTINUOUS
 90
21
 70
0
 10
10.9757778675
 20
20.4138371395
 10
10.9753202729
 20
20.4144265812
 10
10.9744494104
 20
20.4150155352
 10
10.9731660006
 20
20.4156035142
 10
10.9714711054
 20
20.4161900317
 10
10.9693661272
 20
20.4167746023
 10
10.9668528078
 20
20.4173567424
 10
10.9639332266
 20
20.4179359703
 10
10.9606097994
 20
20.4185118068
 10
10.9568852761
 20
20.4190837754
 10
10.9527627384
 20
20.4196514028
 10
10.9482455974
 20
20.4202142194
 10
10.9433375906
 20
20.4207717594
 10
10.938042779
 20
20.4213235616
 10
10.9323655437
 20
20.4218691695
 10
10.9263105821
 20
20.4224081314
 10
10.9198829042
 20
20.4229400016
 10
10.9130878283
 20
20.4234643398
 10
10.9059309769
 20
20.4239807124
 10
10.8984182716
 20
20.4244886919
 10
10.8823504535
 20
20.4254777982
  0
LINE
  5
374
100
AcDbEntity
  8
RACCORDO
100
AcDbLine
 62
7
  6
CONTINUOUS
 10
-2.4071057485
 20
22.1936171831
 11
-3.7927463945
 21
22.0678385129
  0
LINE
  5
375
100
AcDbEntity
  8
RACCORDO
100
AcDbLine
 62
253
  6
CONTINUOUS
 10
-10.4933437677
 20
21.8708001142
 11
10.4923809248
 21
21.8708001142
  0
LINE
  5
376
100
AcDbEntity
  8
RACCORDO
100
AcDbLine
 62
7
  6
CONTINUOUS
 10
7.2340485247
 20
22.0625977349
 11
3.9649886324
 21
22.0625977349
  0
LINE
  5
377
100
AcDbEntity
  8
RACCORDO
100
AcDbLine
 62
7
  6
CONTINUOUS
 10
-3.9659514753
 20
22.0625977349
 11
-7.2350113676
 21
22.0625977349
  0
LINE
  5
378
100
AcDbEntity
  8
RACCORDO
100
AcDbLine
 62
7
  6
CONTINUOUS
 10
10.5998991783
 20
22.1936171831
 11
8.7928942515
 21
22.1936171831
  0
LINE
  5
379
100
AcDbEntity
  8
DRAFT
100
AcDbLine
 62
7
  6
CONTINUOUS
 10
2.4061429056
 20
22.1936171831
 11
-2.4071057485
 21
22.1936171831
  0
LINE
  5
37A
100
AcDbEntity
  8
RACCORDO
100
AcDbLine
 62
7
  6
CONTINUOUS
 10
-8.7938570944
 20
22.1936171831
 11
-10.6008620212
 21
22.1936171831
  0
LINE
  5
37B
100
AcDbEntity
  8
RACCORDO
100
AcDbLine
 62
7
  6
CONTINUOUS
 10
2.4061429056
 20
22.1936171831
 11
3.7917835516
 21
22.0678385129
  0
LINE
  5
37C
100
AcDbEntity
  8
RACCORDO
100
AcDbLine
 62
7
  6
CONTINUOUS
 10
-33.2144179409
 20
-21.983565748
 11
-27.0547013238
 21
-22.3063828169
  0
LINE
  5
37D
100
AcDbEntity
  8
RACCORDO
100
AcDbLine
 62
253
  6
CONTINUOUS
 10
-33.1969779583
 20
-21.4842508866
 11
-27.0547013238
 21
-21.8061539648
  0
LWPOLYLINE
  5
37E
100
AcDbEntity
  8
RACCORDO
100
AcDbPolyline
 62
253
  6
CONTINUOUS
 90
3
 70
0
 10
-34.6338299389
 20
-20.547039033
 10
-34.6344493895
 20
-20.5470747276
 10
-34.6346556489
 20
-20.5470934834
  0
LINE
  5
37F
100
AcDbEntity
  8
RACCORDO
100
AcDbLine
 62
253
  6
CONTINUOUS
 10
-34.6313538555
 20
-20.5469169593
 11
-34.6338299389
 21
-20.547039033
  0
LINE
  5
380
100
AcDbEntity
  8
RACCORDO
100
AcDbLine
 62
253
  6
CONTINUOUS
 10
-34.5542409971
 20
-20.5436004353
 11
-34.6313538555
 21
-20.5469169593
  0
LINE
  5
381
100
AcDbEntity
  8
RACCORDO
100
AcDbLine
 62
253
  6
CONTINUOUS
 10
-34.1438019107
 20
-20.5266027732
 11
-34.5542409971
 21
-20.5436004353
  0
LINE
  5
382
100
AcDbEntity
  8
0
100
AcDbLine
 62
7
  6
CONTINUOUS
 10
-24.1082911623
 20
-13.2193249568
 11
-27.0547013238
 21
-13.2450378887
  0
LINE
  5
383
100
AcDbEntity
  8
0
100
AcDbLine
 62
7
  6
CONTINUOUS
 10
-24.1082911623
 20
-9.0934406769
 11
-27.0547013238
 21
-9.067727745
  0
LWPOLYLINE
  5
384
100
AcDbEntity
  8
RACCORDO
100
AcDbPolyline
 62
253
  6
CONTINUOUS
 90
70
 70
0
 10
-34.1438019107
 20
-20.5266027732
 10
-34.1426941388
 20
-20.5479992895
 10
-34.1411305872
 20
-20.5693482089
 10
-34.1391112558
 20
-20.5906495316
 10
-34.136634797
 20
-20.6119131362
 10
-34.1337025584
 20
-20.633129144
 10
-34.130318583
 20
-20.6542679191
 10
-34.1264822537
 20
-20.6753292127
 10
-34.1221941876
 20
-20.6963132737
 10
-34.1174602785
 20
-20.717191213
 10
-34.1122799146
 20
-20.7379628654
 10
-34.1066537078
 20
-20.7586283961
 10
-34.1005893873
 20
-20.7791594118
 10
-34.0940863552
 20
-20.7995557207
 10
-34.0871452094
 20
-20.8198175145
 10
-34.0797754733
 20
-20.8399169754
 10
-34.0719765517
 20
-20.8598538963
 10
-34.0637490398
 20
-20.8796284844
 10
-34.0551042463
 20
-20.8992135423
 10
-34.0460416006
 20
-20.9186088011
 10
-34.0365616732
 20
-20.9378145298
 10
-34.0266774844
 20
-20.956804338
 10
-34.0163884766
 20
-20.9755779324
 10
-34.0056952074
 20
-20.9941356064
 10
-33.9946123694
 20
-21.0124518498
 10
-33.9831394316
 20
-21.0305263248
 10
-33.971276925
 20
-21.0483593693
 10
-33.9590411363
 20
-21.0659264866
 10
-33.9464315454
 20
-21.0832273208
 10
-33.9334486723
 20
-21.1002622278
 10
-33.9201103636
 20
-21.1170077786
 10
-33.9064161369
 20
-21.1334635676
 10
-33.8923664746
 20
-21.1496300005
 10
-33.8779806707
 20
-21.1654848653
 10
-33.8632582563
 20
-21.1810277407
 10
-33.8481997003
 20
-21.196259048
 10
-33.8328257026
 20
-21.2111578391
 10
-33.8171358358
 20
-21.2257236507
 10
-33.8011305273
 20
-21.2399569461
 10
-33.7848317596
 20
-21.2538381665
 10
-33.7682391204
 20
-21.2673668349
 10
-33.7513530219
 20
-21.2805434283
 10
-33.7341966838
 20
-21.2933498194
 10
-33.7167697434
 20
-21.3057854922
 10
-33.6990725633
 20
-21.3178509627
 10
-33.6811294505
 20
-21.3295296511
 10
-33.6629400602
 20
-21.3408210303
 10
-33.6445047371
 20
-21.3517256275
 10
-33.6258488229
 20
-21.3622284448
 10
-33.6069720167
 20
-21.372328928
 10
-33.5878746193
 20
-21.3820276313
 10
-33.5685828749
 20
-21.3913112192
 10
-33.5490965069
 20
-21.4001791243
 10
-33.5294157919
 20
-21.4086319141
 10
-33.509567804
 20
-21.4166579562
 10
-33.4895523289
 20
-21.4242566572
 10
-33.469369581
 20
-21.4314286105
 10
-33.4490472774
 20
-21.4381639634
 10
-33.4285852188
 20
-21.4444621192
 10
-33.4079836046
 20
-21.4503236747
 10
-33.3872707499
 20
-21.4557405669
 10
-33.3664464827
 20
-21.4607121857
 10
-33.345510975
 20
-21.4652391412
 10
-33.3244930585
 20
-21.4693152014
 10
-33.303392517
 20
-21.4729397486
 10
-33.2822095667
 20
-21.4761134004
 10
-33.2609736877
 20
-21.478831778
 10
-33.2396947066
 20
-21.4810934217
 10
-33.2183627968
 20
-21.4828997913
 10
-33.1969779583
 20
-21.4842508866
  0
LWPOLYLINE
  5
385
100
AcDbEntity
  8
RACCORDO
100
AcDbPolyline
 62
253
  6
CONTINUOUS
 90
11
 70
0
 10
-34.5627111761
 20
0.1116167915
 10
-34.562611514
 20
0.1090144002
 10
-34.5625079366
 20
0.1066759578
 10
-34.5624005887
 20
0.1046047342
 10
-34.5622896204
 20
0.1028036257
 10
-34.5621751869
 20
0.1012751508
 10
-34.5620574482
 20
0.1000214468
 10
-34.5619365689
 20
0.0990442668
 10
-34.5618127181
 20
0.0983449771
 10
-34.5616860689
 20
0.0979245556
 10
-34.5615567985
 20
0.0977835903
  0
LINE
  5
386
100
AcDbEntity
  8
RACCORDO
100
AcDbLine
 62
253
  6
CONTINUOUS
 10
-34.5628982026
 20
0.1175985011
 11
-34.5627111761
 21
0.1116167915
  0
LINE
  5
387
100
AcDbEntity
  8
RACCORDO
100
AcDbLine
 62
253
  6
CONTINUOUS
 10
-34.5630679703
 20
0.124587641
 11
-34.5628982026
 21
0.1175985011
  0
LINE
  5
388
100
AcDbEntity
  8
RACCORDO
100
AcDbLine
 62
253
  6
CONTINUOUS
 10
-34.5632195299
 20
0.1325451326
 11
-34.5630679703
 21
0.124587641
  0
LINE
  5
389
100
AcDbEntity
  8
RACCORDO
100
AcDbLine
 62
253
  6
CONTINUOUS
 10
-34.5634109046
 20
0.1461982812
 11
-34.5632195299
 21
0.1325451326
  0
LINE
  5
38A
100
AcDbEntity
  8
RACCORDO
100
AcDbLine
 62
253
  6
CONTINUOUS
 10
-34.5635953383
 20
0.1673339029
 11
-34.5634109046
 21
0.1461982812
  0
LINE
  5
38B
100
AcDbEntity
  8
RACCORDO
100
AcDbLine
 62
253
  6
CONTINUOUS
 10
-34.5633019726
 20
-0.4105416086
 11
-34.563602688
 21
-0.3660433557
  0
LINE
  5
38C
100
AcDbEntity
  8
RACCORDO
100
AcDbLine
 62
253
  6
CONTINUOUS
 10
-34.5637067365
 20
0.1977885742
 11
-34.5635953383
 21
0.1673339029
  0
LWPOLYLINE
  5
38D
100
AcDbEntity
  8
RACCORDO
100
AcDbPolyline
 62
253
  6
CONTINUOUS
 90
22
 70
0
 10
-34.5632997802
 20
-0.4105415895
 10
-34.561702325
 20
-1.3687254869
 10
-34.5582666103
 20
-2.3268978366
 10
-34.552992636
 20
-3.2850586385
 10
-34.5458802878
 20
-4.2432115278
 10
-34.5369296801
 20
-5.2013528693
 10
-34.5261411556
 20
-6.1594717577
 10
-34.5135147754
 20
-7.1175680828
 10
-34.4990504783
 20
-8.0756419547
 10
-34.4827484239
 20
-9.0336827981
 10
-34.4646085918
 20
-9.9916906126
 10
-34.4446310024
 20
-10.9496653987
 10
-34.422815876
 20
-11.9075965823
 10
-34.3991631925
 20
-12.8654841633
 10
-34.373672972
 20
-13.8233281417
 10
-34.3463454959
 20
-14.7811179444
 10
-34.3171807437
 20
-15.7388535706
 10
-34.2861787359
 20
-16.696535021
 10
-34.2533398144
 20
-17.6541517237
 10
-34.2186640934
 20
-18.6117001546
 10
-34.1821514589
 20
-19.5691838378
 10
-34.1438019107
 20
-20.5266027732
  0
LINE
  5
38E
100
AcDbEntity
  8
RACCORDO
100
AcDbLine
 62
253
  6
CONTINUOUS
 10
-34.563602688
 20
-0.3660433557
 11
-34.5637133336
 21
-0.3237760009
  0
LINE
  5
38F
100
AcDbEntity
  8
RACCORDO
100
AcDbLine
 62
253
  6
CONTINUOUS
 10
-34.5636611634
 20
0.2388327279
 11
-34.5637067365
 21
0.1977885742
  0
LINE
  5
390
100
AcDbEntity
  8
RACCORDO
100
AcDbLine
 62
253
  6
CONTINUOUS
 10
-34.5637133336
 20
-0.3237760009
 11
-34.563656049
 21
-0.2917920077
  0
LINE
  5
391
100
AcDbEntity
  8
RACCORDO
100
AcDbLine
 62
253
  6
CONTINUOUS
 10
-34.563656049
 20
-0.2917920077
 11
-34.563513471
 21
-0.2691364007
  0
LWPOLYLINE
  5
392
100
AcDbEntity
  8
RACCORDO
100
AcDbPolyline
 62
253
  6
CONTINUOUS
 90
3
 70
0
 10
-34.5633019726
 20
0.2977759749
 10
-34.5633647652
 20
0.2902987454
 10
-34.5636611634
 20
0.2388327279
  0
LINE
  5
393
100
AcDbEntity
  8
RACCORDO
100
AcDbLine
 62
253
  6
CONTINUOUS
 10
-34.563513471
 20
-0.2691364007
 11
-34.5633520341
 21
-0.254192113
  0
LINE
  5
394
100
AcDbEntity
  8
RACCORDO
100
AcDbLine
 62
253
  6
CONTINUOUS
 10
-34.5633520341
 20
-0.254192113
 11
-34.5631460815
 21
-0.2412136302
  0
LINE
  5
395
100
AcDbEntity
  8
RACCORDO
100
AcDbLine
 62
253
  6
CONTINUOUS
 10
-34.5631460815
 20
-0.2412136302
 11
-34.5629853054
 21
-0.2337350863
  0
LWPOLYLINE
  5
396
100
AcDbEntity
  8
RACCORDO
100
AcDbPolyline
 62
253
  6
CONTINUOUS
 90
13
 70
0
 10
-34.5629853054
 20
-0.2337350863
 10
-34.5628067835
 20
-0.2272451246
 10
-34.5627111761
 20
-0.2243824236
 10
-34.562611514
 20
-0.2217800325
 10
-34.5625079366
 20
-0.2194415903
 10
-34.5624005887
 20
-0.217370367
 10
-34.5622896204
 20
-0.2155692588
 10
-34.5621751869
 20
-0.2140407841
 10
-34.5620574481
 20
-0.2127870802
 10
-34.5619365689
 20
-0.2118099003
 10
-34.5618127181
 20
-0.2111106107
 10
-34.5616860689
 20
-0.2106901893
 10
-34.5615567985
 20
-0.210549224
  0
LWPOLYLINE
  5
397
100
AcDbEntity
  8
RACCORDO
100
AcDbPolyline
 62
253
  6
CONTINUOUS
 90
22
 70
0
 10
-34.1438019107
 20
20.4138371395
 10
-34.1821514589
 20
19.4564182041
 10
-34.2186640934
 20
18.4989345209
 10
-34.2533398144
 20
17.5413860899
 10
-34.2861787359
 20
16.5837693873
 10
-34.3171807437
 20
15.6260879369
 10
-34.3463454959
 20
14.6683523106
 10
-34.373672972
 20
13.710562508
 10
-34.3991631925
 20
12.7527185295
 10
-34.422815876
 20
11.7948309486
 10
-34.4446310024
 20
10.836899765
 10
-34.4646085918
 20
9.8789249789
 10
-34.4827484239
 20
8.9209171644
 10
-34.4990504783
 20
7.9628763209
 10
-34.5135147754
 20
7.004802449
 10
-34.5261411556
 20
6.046706124
 10
-34.5369296801
 20
5.0885872356
 10
-34.5458802878
 20
4.1304458941
 10
-34.552992636
 20
3.1722930047
 10
-34.5582666103
 20
2.2141322028
 10
-34.561702325
 20
1.2559598532
 10
-34.5632997802
 20
0.2977759557
  0
LINE
  5
398
100
AcDbEntity
  8
RACCORDO
100
AcDbLine
 62
253
  6
CONTINUOUS
 10
-33.2125453223
 20
21.7139762223
 11
-33.2138954433
 21
21.7538198011
  0
LINE
  5
399
100
AcDbEntity
  8
RACCORDO
100
AcDbLine
 62
253
  6
CONTINUOUS
 10
-33.2138954433
 20
21.7538198011
 11
-33.2148991801
 21
21.7884989655
  0
LINE
  5
39A
100
AcDbEntity
  8
RACCORDO
100
AcDbLine
 62
253
  6
CONTINUOUS
 10
-33.2148991801
 20
21.7884989655
 11
-33.2154163306
 21
21.8108345939
  0
LINE
  5
39B
100
AcDbEntity
  8
RACCORDO
100
AcDbLine
 62
253
  6
CONTINUOUS
 10
-33.2154163306
 20
21.8108345939
 11
-33.2156465545
 21
21.8238790014
  0
LINE
  5
39C
100
AcDbEntity
  8
RACCORDO
100
AcDbLine
 62
253
  6
CONTINUOUS
 10
-33.2156465545
 20
21.8238790014
 11
-33.2157841908
 21
21.8353944308
  0
LWPOLYLINE
  5
39D
100
AcDbEntity
  8
RACCORDO
100
AcDbPolyline
 62
253
  6
CONTINUOUS
 90
12
 70
0
 10
-33.2158287743
 20
-21.9581075969
 10
-33.2158161119
 20
-21.9624826848
 10
-33.2157801544
 20
-21.9664536114
 10
-33.2157209322
 20
-21.9700170205
 10
-33.2156384954
 20
-21.9731699009
 10
-33.2155329135
 20
-21.9759095878
 10
-33.215404276
 20
-21.978233766
 10
-33.2152526914
 20
-21.9801404713
 10
-33.2150782878
 20
-21.9816280923
 10
-33.2148812127
 20
-21.9826953717
 10
-33.2146616327
 20
-21.9833414076
 10
-33.2144197332
 20
-21.983565654
  0
LWPOLYLINE
  5
39E
100
AcDbEntity
  8
RACCORDO
100
AcDbPolyline
 62
253
  6
CONTINUOUS
 90
13
 70
0
 10
-33.2157841908
 20
21.8353944308
 10
-33.2158287743
 20
21.8453419629
 10
-33.2158161119
 20
21.8497170509
 10
-33.2157801544
 20
21.8536879774
 10
-33.2157209322
 20
21.8572513866
 10
-33.2156384954
 20
21.860404267
 10
-33.2155329135
 20
21.863143954
 10
-33.215404276
 20
21.8654681323
 10
-33.2152526914
 20
21.8673748376
 10
-33.2150782878
 20
21.8688624585
 10
-33.2148812127
 20
21.869929738
 10
-33.2146616327
 20
21.8705757739
 10
-33.2144197332
 20
21.8708000203
  0
LINE
  5
39F
100
AcDbEntity
  8
RACCORDO
100
AcDbLine
 62
253
  6
CONTINUOUS
 10
-33.2157841908
 20
-21.9481600649
 11
-33.2158287743
 21
-21.9581075969
  0
LINE
  5
3A0
100
AcDbEntity
  8
RACCORDO
100
AcDbLine
 62
253
  6
CONTINUOUS
 10
-33.2156465545
 20
-21.9366446356
 11
-33.2157841908
 21
-21.9481600649
  0
LINE
  5
3A1
100
AcDbEntity
  8
RACCORDO
100
AcDbLine
 62
253
  6
CONTINUOUS
 10
-33.2154163306
 20
-21.9236002283
 11
-33.2156465545
 21
-21.9366446356
  0
LINE
  5
3A2
100
AcDbEntity
  8
RACCORDO
100
AcDbLine
 62
253
  6
CONTINUOUS
 10
-33.2148991801
 20
-21.9012646
 11
-33.2154163306
 21
-21.9236002283
  0
LINE
  5
3A3
100
AcDbEntity
  8
RACCORDO
100
AcDbLine
 62
253
  6
CONTINUOUS
 10
-33.2138954433
 20
-21.8665854359
 11
-33.2148991801
 21
-21.9012646
  0
LINE
  5
3A4
100
AcDbEntity
  8
RACCORDO
100
AcDbLine
 62
253
  6
CONTINUOUS
 10
-33.2125453223
 20
-21.8267418573
 11
-33.2138954433
 21
-21.8665854359
  0
LINE
  5
3A5
100
AcDbEntity
  8
DRAFT
100
AcDbLine
 62
7
  6
CONTINUOUS
 10
-29.3547013238
 20
-4.1563828169
 11
-27.0547013238
 21
-4.1563828169
  0
LINE
  5
3A6
100
AcDbEntity
  8
RACCORDO
100
AcDbLine
 62
253
  6
CONTINUOUS
 10
-33.1969779583
 20
21.3714852529
 11
-33.2006751618
 21
21.4438101171
  0
LINE
  5
3A7
100
AcDbEntity
  8
RACCORDO
100
AcDbLine
 62
253
  6
CONTINUOUS
 10
-33.2006751618
 20
21.4438101171
 11
-33.2041103282
 21
21.5146094899
  0
LINE
  5
3A8
100
AcDbEntity
  8
RACCORDO
100
AcDbLine
 62
253
  6
CONTINUOUS
 10
-33.2041103282
 20
21.5146094899
 11
-33.2072110022
 21
21.5823900556
  0
LINE
  5
3A9
100
AcDbEntity
  8
RACCORDO
100
AcDbLine
 62
253
  6
CONTINUOUS
 10
-33.2072110022
 20
21.5823900556
 11
-33.2099117836
 21
21.645722172
  0
LWPOLYLINE
  5
3AA
100
AcDbEntity
  8
RACCORDO
100
AcDbPolyline
 62
253
  6
CONTINUOUS
 90
3
 70
0
 10
-33.2099117836
 20
21.645722172
 10
-33.2121557071
 20
21.7032700244
 10
-33.2125453223
 20
21.7139762223
  0
LINE
  5
3AB
100
AcDbEntity
  8
RACCORDO
100
AcDbLine
 62
253
  6
CONTINUOUS
 10
-33.2099117837
 20
-21.7584878071
 11
-33.2125453223
 21
-21.8267418573
  0
LINE
  5
3AC
100
AcDbEntity
  8
RACCORDO
100
AcDbLine
 62
253
  6
CONTINUOUS
 10
-33.2060152322
 20
-21.6684990036
 11
-33.2099117837
 21
-21.7584878071
  0
LINE
  5
3AD
100
AcDbEntity
  8
RACCORDO
100
AcDbLine
 62
253
  6
CONTINUOUS
 10
-33.1999542582
 20
-21.5421842627
 11
-33.2060152322
 21
-21.6684990036
  0
LINE
  5
3AE
100
AcDbEntity
  8
RACCORDO
100
AcDbLine
 62
253
  6
CONTINUOUS
 10
-33.1969779583
 20
-21.4842508866
 11
-33.1999542582
 21
-21.5421842627
  0
LINE
  5
3AF
100
AcDbEntity
  8
RACCORDO
100
AcDbLine
 62
253
  6
CONTINUOUS
 10
-29.3547013238
 20
-0.3650868394
 11
-34.5632997802
 21
-0.4105415895
  0
LINE
  5
3B0
100
AcDbEntity
  8
RACCORDO
100
AcDbLine
 62
7
  6
CONTINUOUS
 10
-29.3547013238
 20
-0.1651096847
 11
-34.8563193227
 21
-0.2131215776
  0
LINE
  5
3B1
100
AcDbEntity
  8
RACCORDO
100
AcDbLine
 62
253
  6
CONTINUOUS
 10
-34.5632997802
 20
-0.4105415965
 11
-35.0545739644
 21
-0.4132567125
  0
LINE
  5
3B2
100
AcDbEntity
  8
RACCORDO
100
AcDbLine
 62
7
  6
CONTINUOUS
 10
-34.8563193227
 20
0.1003559438
 11
-29.3547013238
 21
0.0523440509
  0
LINE
  5
3B3
100
AcDbEntity
  8
RACCORDO
100
AcDbLine
 62
7
  6
CONTINUOUS
 10
-29.3547013238
 20
-0.1651096847
 11
-29.3547013238
 21
-4.1563828169
  0
LINE
  5
3B4
100
AcDbEntity
  8
RACCORDO
100
AcDbLine
 62
7
  6
CONTINUOUS
 10
-29.3547013238
 20
0.0523440509
 11
-29.3547013238
 21
4.0436171831
  0
LINE
  5
3B5
100
AcDbEntity
  8
RACCORDO
100
AcDbLine
 62
253
  6
CONTINUOUS
 10
-35.0545739644
 20
0.3004910788
 11
-34.5632997802
 21
0.2977759628
  0
LINE
  5
3B6
100
AcDbEntity
  8
RACCORDO
100
AcDbLine
 62
253
  6
CONTINUOUS
 10
-34.5632997802
 20
0.2977759557
 11
-29.3547013238
 21
0.2523212056
  0
LINE
  5
3B7
100
AcDbEntity
  8
DRAFT
100
AcDbLine
 62
7
  6
CONTINUOUS
 10
-27.0547013238
 20
-4.1563828169
 11
-27.0547013238
 21
-13.2450378887
  0
LINE
  5
3B8
100
AcDbEntity
  8
RACCORDO
100
AcDbLine
 62
7
  6
CONTINUOUS
 10
-27.0547013238
 20
-13.2450378887
 11
-27.0547013238
 21
-22.3063828169
  0
LINE
  5
3B9
100
AcDbEntity
  8
DRAFT
100
AcDbLine
 62
7
  6
CONTINUOUS
 10
-27.0547013238
 20
4.0436171831
 11
-27.0547013238
 21
13.132272255
  0
LINE
  5
3BA
100
AcDbEntity
  8
RACCORDO
100
AcDbLine
 62
7
  6
CONTINUOUS
 10
-27.0547013238
 20
13.132272255
 11
-27.0547013238
 21
22.1936171831
  0
LINE
  5
3BB
100
AcDbEntity
  8
DRAFT
100
AcDbLine
 62
7
  6
CONTINUOUS
 10
-29.3547013238
 20
4.0436171831
 11
-27.0547013238
 21
4.0436171831
  0
LINE
  5
3BC
100
AcDbEntity
  8
0
100
AcDbLine
 62
253
  6
CONTINUOUS
 10
-24.735121238
 20
13.1120295863
 11
-24.735121238
 21
8.97520478
  0
LINE
  5
3BD
100
AcDbEntity
  8
0
100
AcDbLine
 62
253
  6
CONTINUOUS
 10
-24.735121238
 20
-13.22479522
 11
-24.735121238
 21
-9.0879704137
  0
LINE
  5
3BE
100
AcDbEntity
  8
0
100
AcDbLine
 62
7
  6
CONTINUOUS
 10
-24.1082911623
 20
13.1065593231
 11
-24.1082911623
 21
8.9806750432
  0
LINE
  5
3BF
100
AcDbEntity
  8
0
100
AcDbLine
 62
7
  6
CONTINUOUS
 10
-24.1082911623
 20
-13.2193249568
 11
-24.1082911623
 21
-9.0934406769
  0
LINE
  5
3C0
100
AcDbEntity
  8
0
100
AcDbLine
 62
7
  6
CONTINUOUS
 10
-24.1082911623
 20
8.9806750432
 11
-27.0547013238
 21
8.9549621113
  0
LINE
  5
3C1
100
AcDbEntity
  8
0
100
AcDbLine
 62
7
  6
CONTINUOUS
 10
-27.0547013238
 20
13.132272255
 11
-24.1082911623
 21
13.1065593231
  0
LWPOLYLINE
  5
3C2
100
AcDbEntity
  8
RACCORDO
100
AcDbPolyline
 62
253
  6
CONTINUOUS
 90
70
 70
0
 10
-33.1969779583
 20
21.3714852529
 10
-33.2183627968
 20
21.3701341576
 10
-33.2396947066
 20
21.368327788
 10
-33.2609736877
 20
21.3660661443
 10
-33.2822095667
 20
21.3633477667
 10
-33.303392517
 20
21.3601741149
 10
-33.3244930585
 20
21.3565495677
 10
-33.345510975
 20
21.3524735075
 10
-33.3664464827
 20
21.3479465519
 10
-33.3872707499
 20
21.3429749332
 10
-33.4079836046
 20
21.3375580409
 10
-33.4285852188
 20
21.3316964855
 10
-33.4490472774
 20
21.3253983297
 10
-33.469369581
 20
21.3186629768
 10
-33.4895523289
 20
21.3114910235
 10
-33.509567804
 20
21.3038923225
 10
-33.5294157919
 20
21.2958662804
 10
-33.5490965069
 20
21.2874134906
 10
-33.5685828749
 20
21.2785455855
 10
-33.5878746193
 20
21.2692619975
 10
-33.6069720167
 20
21.2595632943
 10
-33.6258488229
 20
21.2494628111
 10
-33.6445047371
 20
21.2389599938
 10
-33.6629400602
 20
21.2280553966
 10
-33.6811294505
 20
21.2167640174
 10
-33.6990725633
 20
21.205085329
 10
-33.7167697434
 20
21.1930198585
 10
-33.7341966837
 20
21.1805841857
 10
-33.7513530219
 20
21.1677777946
 10
-33.7682391204
 20
21.1546012012
 10
-33.7848317596
 20
21.1410725328
 10
-33.8011305273
 20
21.1271913124
 10
-33.8171358358
 20
21.112958017
 10
-33.8328257026
 20
21.0983922054
 10
-33.8481997003
 20
21.0834934143
 10
-33.8632582563
 20
21.068262107
 10
-33.8779806707
 20
21.0527192316
 10
-33.8923664746
 20
21.0368643668
 10
-33.9064161369
 20
21.0206979339
 10
-33.9201103636
 20
21.0042421449
 10
-33.9334486722
 20
20.9874965941
 10
-33.9464315454
 20
20.9704616871
 10
-33.9590411363
 20
20.9531608529
 10
-33.971276925
 20
20.9355937356
 10
-33.9831394316
 20
20.9177606911
 10
-33.9946123694
 20
20.8996862161
 10
-34.0056952074
 20
20.8813699727
 10
-34.0163884766
 20
20.8628122987
 10
-34.0266774844
 20
20.8440387043
 10
-34.0365616732
 20
20.8250488961
 10
-34.0460416005
 20
20.8058431674
 10
-34.0551042462
 20
20.7864479085
 10
-34.0637490398
 20
20.7668628506
 10
-34.0719765517
 20
20.7470882626
 10
-34.0797754733
 20
20.7271513417
 10
-34.0871452094
 20
20.7070518808
 10
-34.0940863552
 20
20.686790087
 10
-34.1005893873
 20
20.6663937781
 10
-34.1066537078
 20
20.6458627624
 10
-34.1122799146
 20
20.6251972317
 10
-34.1174602785
 20
20.6044255793
 10
-34.1221941876
 20
20.58354764
 10
-34.1264822537
 20
20.562563579
 10
-34.130318583
 20
20.5415022854
 10
-34.1337025584
 20
20.5203635103
 10
-34.136634797
 20
20.4991475025
 10
-34.1391112558
 20
20.4778838979
 10
-34.1411305872
 20
20.4565825752
 10
-34.1426941388
 20
20.4352336557
 10
-34.1438019107
 20
20.4138371395
  0
LINE
  5
3C3
100
AcDbEntity
  8
RACCORDO
100
AcDbLine
 62
253
  6
CONTINUOUS
 10
-27.0547013238
 20
21.6933883311
 11
-33.1969779583
 21
21.3714852529
  0
LINE
  5
3C4
100
AcDbEntity
  8
RACCORDO
100
AcDbLine
 62
7
  6
CONTINUOUS
 10
-27.0547013238
 20
22.1936171831
 11
-33.2144179409
 21
21.8708001142
  0
LINE
  5
3C5
100
AcDbEntity
  8
RACCORDO
100
AcDbLine
 62
253
  6
CONTINUOUS
 10
-34.1438019107
 20
20.4138371395
 11
-34.5013326756
 21
20.4286160335
  0
LINE
  5
3C6
100
AcDbEntity
  8
RACCORDO
100
AcDbLine
 62
253
  6
CONTINUOUS
 10
-34.5013326756
 20
20.4286160335
 11
-34.6294992842
 21
20.4340650479
  0
LWPOLYLINE
  5
3C7
100
AcDbEntity
  8
RACCORDO
100
AcDbPolyline
 62
253
  6
CONTINUOUS
 90
5
 70
0
 10
-34.6294992842
 20
20.4340650479
 10
-34.6327978224
 20
20.4342207958
 10
-34.6338299518
 20
20.4342733998
 10
-34.6344494025
 20
20.4343090944
 10
-34.6346556618
 20
20.4343278502
  0
ARC
  5
3C8
100
AcDbEntity
  8
RACCORDO
100
AcDbCircle
 62
7
  6
CONTINUOUS
 10
464.9452986762
 20
-0.0563828169
 40
500.0
100
AcDbArc
 50
177.6512800169
 51
179.9591052605
  0
ARC
  5
3C9
100
AcDbEntity
  8
RACCORDO
100
AcDbCircle
 62
7
  6
CONTINUOUS
 10
464.9452986762
 20
-0.0563828169
 40
500.0
100
AcDbArc
 50
180.0408947395
 51
182.3487199831
  0
ARC
  5
3CA
100
AcDbEntity
  8
RACCORDO
100
AcDbCircle
 62
7
  6
CONTINUOUS
 10
-33.1359157988
 20
20.3728557182
 40
1.5
100
AcDbArc
 50
92.9999314439
 51
177.6513623599
  0
ARC
  5
3CB
100
AcDbEntity
  8
RACCORDO
100
AcDbCircle
 62
7
  6
CONTINUOUS
 10
-33.1359157988
 20
-20.4856213519
 40
1.5
100
AcDbArc
 50
182.3486376401
 51
267.0000685561
  0
ARC
  5
3CC
100
AcDbEntity
  8
RACCORDO
100
AcDbCircle
 62
7
  6
CONTINUOUS
 10
-34.8545739954
 20
0.3003483283
 40
0.2
100
AcDbArc
 50
179.959105165
 51
269.4999942098
  0
ARC
  5
3CD
100
AcDbEntity
  8
RACCORDO
100
AcDbCircle
 62
7
  6
CONTINUOUS
 10
-34.8545739954
 20
-0.413113962
 40
0.2
100
AcDbArc
 50
90.5000057902
 51
180.040894835
  0
ELLIPSE
  5
3CE
100
AcDbEntity
  8
RACCORDO
100
AcDbEllipse
 62
7
  6
CONTINUOUS
 10
-10.6004052574
 20
-21.8056966439
 30
0.0
 11
0.1582391023
 21
0.4751033573
 31
0.0
 40
0.9984778551
 41
-4.3904252414
 42
-2.8205423031
  0
ELLIPSE
  5
3CF
100
AcDbEntity
  8
RACCORDO
100
AcDbEllipse
 62
7
  6
CONTINUOUS
 10
3.9649886324
 20
-22.1858449245
 30
0.0
 11
0.2
 21
0.0
 31
0.0
 40
0.0524077793
 41
1.5707963268
 42
2.617993878
  0
ELLIPSE
  5
3D0
100
AcDbEntity
  8
RACCORDO
100
AcDbEllipse
 62
7
  6
CONTINUOUS
 10
10.5994424145
 20
-21.8056966439
 30
0.0
 11
-0.1582391023
 21
0.4751033573
 31
0.0
 40
0.9984778551
 41
-3.4626430041
 42
-1.8927600658
  0
ELLIPSE
  5
3D1
100
AcDbEntity
  8
RACCORDO
100
AcDbEllipse
 62
7
  6
CONTINUOUS
 10
7.2340485247
 20
-22.1858449245
 30
0.0
 11
0.2
 21
0.0
 31
0.0
 40
0.0524077793
 41
0.5235987756
 42
1.5707963268
  0
ELLIPSE
  5
3D2
100
AcDbEntity
  8
RACCORDO
100
AcDbEllipse
 62
7
  6
CONTINUOUS
 10
-3.9659514753
 20
-22.1858449245
 30
0.0
 11
0.2
 21
0.0
 31
0.0
 40
0.0524077793
 41
0.5235987756
 42
1.5707963268
  0
ELLIPSE
  5
3D3
100
AcDbEntity
  8
RACCORDO
100
AcDbEllipse
 62
7
  6
CONTINUOUS
 10
-7.2350113676
 20
-22.1858449245
 30
0.0
 11
0.2
 21
0.0
 31
0.0
 40
0.0524077793
 41
1.5707963268
 42
2.617993878
  0
ELLIPSE
  5
3D4
100
AcDbEntity
  8
RACCORDO
100
AcDbEllipse
 62
7
  6
CONTINUOUS
 10
10.8593414636
 20
-0.3651173003
 30
0.0
 11
0.1789222233
 21
0.0894542984
 31
0.0
 40
0.9998096356
 41
-0.4635410001
 42
1.1071030277
  0
ELLIPSE
  5
3D5
100
AcDbEntity
  8
RACCORDO
100
AcDbEllipse
 62
7
  6
CONTINUOUS
 10
-10.8603043065
 20
-0.3651173003
 30
0.0
 11
0.1789222233
 21
-0.0894542984
 31
0.0
 40
0.9998096356
 41
2.0344896259
 42
3.6051336537
  0
ELLIPSE
  5
3D6
100
AcDbEntity
  8
RACCORDO
100
AcDbEllipse
 62
7
  6
CONTINUOUS
 10
10.5994424145
 20
21.6929310101
 30
0.0
 11
0.1582391023
 21
0.4751033573
 31
0.0
 40
0.9984778551
 41
-1.2488325878
 42
0.3210503505
  0
ELLIPSE
  5
3D7
100
AcDbEntity
  8
RACCORDO
100
AcDbEllipse
 62
7
  6
CONTINUOUS
 10
-3.9659514753
 20
22.0730792908
 30
0.0
 11
0.2
 21
-0.0
 31
0.0
 40
0.0524077793
 41
-1.5707963268
 42
-0.5235987756
  0
ELLIPSE
  5
3D8
100
AcDbEntity
  8
RACCORDO
100
AcDbEllipse
 62
7
  6
CONTINUOUS
 10
-10.6004052574
 20
21.6929310101
 30
0.0
 11
-0.1582391023
 21
0.4751033573
 31
0.0
 40
0.9984778551
 41
-0.3210503505
 42
1.2488325878
  0
ELLIPSE
  5
3D9
100
AcDbEntity
  8
RACCORDO
100
AcDbEllipse
 62
7
  6
CONTINUOUS
 10
-7.2350113676
 20
22.0730792908
 30
0.0
 11
0.2
 21
0.0
 31
0.0
 40
0.0524077793
 41
-2.617993878
 42
-1.5707963268
  0
ELLIPSE
  5
3DA
100
AcDbEntity
  8
RACCORDO
100
AcDbEllipse
 62
7
  6
CONTINUOUS
 10
3.9649886324
 20
22.0730792908
 30
0.0
 11
0.2
 21
0.0
 31
0.0
 40
0.0524077793
 41
-2.617993878
 42
-1.5707963268
  0
ELLIPSE
  5
3DB
100
AcDbEntity
  8
RACCORDO
100
AcDbEllipse
 62
7
  6
CONTINUOUS
 10
7.2340485247
 20
22.0730792908
 30
0.0
 11
0.2
 21
-0.0
 31
0.0
 40
0.0524077793
 41
-1.5707963268
 42
-0.5235987756
  0
ELLIPSE
  5
3DC
100
AcDbEntity
  8
RACCORDO
100
AcDbEllipse
 62
7
  6
CONTINUOUS
 10
-10.8603043065
 20
0.2523516666
 30
0.0
 11
0.1789222233
 21
0.0894542984
 31
0.0
 40
0.9998096356
 41
2.6780516535
 42
4.2486956813
  0
ELLIPSE
  5
3DD
100
AcDbEntity
  8
RACCORDO
100
AcDbEllipse
 62
7
  6
CONTINUOUS
 10
10.8593414636
 20
0.2523516666
 30
0.0
 11
0.1789222233
 21
-0.0894542984
 31
0.0
 40
0.9998096356
 41
-1.1071030277
 42
0.4635410001
  0
ENDSEC
  0
SECTION
  2
OBJECTS
  0
DICTIONARY
  5
C
100
AcDbDictionary
280
0
281
1
  3
ACAD_GROUP
350
D
  3
ACAD_MLINESTYLE
350
17
  3
ACAD_LAYOUT
350
1A
  3
ACAD_PLOTSETTINGS
350
19
  3
ACAD_PLOTSTYLENAME
350
E
  0
DICTIONARY
  5
D
102
{ACAD_REACTORS
330
C
102
}
100
AcDbDictionary
280
0
281
1
  0
ACDBDICTIONARYWDFLT
  5
E
102
{ACAD_REACTORS
330
C
102
}
100
AcDbDictionary
281
1
  3
Normal
350
F
100
AcDbDictionaryWithDefault
340
F
  0
DICTIONARY
  5
17
102
{ACAD_REACTORS
330
C
102
}
100
AcDbDictionary
280
0
281
1
  3
Standard
350
18
  0
DICTIONARY
  5
19
102
{ACAD_REACTORS
330
C
102
}
100
AcDbDictionary
281
1
  0
DICTIONARY
  5
1A
102
{ACAD_REACTORS
330
C
102
}
100
AcDbDictionary
281
1
  3
Model
350
3DE
  3
Layout1
350
3DF
  0
ACDBPLACEHOLDER
  5
F
102
{ACAD_REACTORS
330
E
102
}
  0
MLINESTYLE
  5
18
102
{ACAD_REACTORS
330
17
102
}
100
AcDbMlineStyle
  2
STANDARD
 70
0
  3

 62
256
 51
90.0
 52
90.0
 71
2
 49
0.5
 62
256
  6
BYLAYER
 49
-0.5
 62
256
  6
BYLAYER
  0
LAYOUT
  5
3DE
102
{ACAD_REACTORS
330
1A
102
}
100
AcDbPlotSettings
  1

  2
none_device
  4
ISO_A4_(297.00_x_210.00_MM)
  6

 40
0.0
 41
0.0
 42
0.0
 43
0.0
 44
297.0
 45
210.0
 46
0.0
 47
0.0
 48
0.0
 49
0.0
140
0.0
141
0.0
142
1.0
143
1.0
 70
1024
 72
1
 73
0
 74
0
  7

 75
0
147
1.0
148
0.0
149
0.0
100
AcDbLayout
  1
Model
 70
0
 71
0
 10
0.0
 20
0.0
 11
297.0
 21
210.0
 12
0.0
 22
0.0
 32
0.0
 14
0.0
 24
0.0
 34
0.0
 15
0.0
 25
0.0
 35
0.0
146
0.0
 13
0.0
 23
0.0
 33
0.0
 16
1.0
 26
0.0
 36
0.0
 17
0.0
 27
1.0
 37
0.0
 76
0
330
214
345
0
346
0
  0
LAYOUT
  5
3DF
102
{ACAD_REACTORS
330
1A
102
}
100
AcDbPlotSettings
  1

  2
none_device
  4
ISO_A4_(297.00_x_210.00_MM)
  6

 40
0.0
 41
0.0
 42
0.0
 43
0.0
 44
297.0
 45
210.0
 46
0.0
 47
0.0
 48
0.0
 49
0.0
140
0.0
141
0.0
142
1.0
143
1.0
 70
0
 72
1
 73
0
 74
0
  7

 75
0
147
1.0
148
0.0
149
0.0
100
AcDbLayout
  1
Layout1
 70
0
 71
1
 10
0.0
 20
0.0
 11
297.0
 21
210.0
 12
0.0
 22
0.0
 32
0.0
 14
0.0
 24
0.0
 34
0.0
 15
0.0
 25
0.0
 35
0.0
146
0.0
 13
0.0
 23
0.0
 33
0.0
 16
1.0
 26
0.0
 36
0.0
 17
0.0
 27
1.0
 37
0.0
 76
0
330
215
345
0
346
0
  0
ENDSEC
  0
EOF
