  0
SECTION
  2
HEADER
  9
$ACADVER
  1
AC1015
  9
$DWGCODEPAGE
  3
ANSI_1252
  9
$EXTMAX
 10
297.0
 20
210.0
 30
0.0
  9
$EXTMIN
 10
0.0
 20
0.0
 30
0.0
  9
$LIMMIN
 10
0.0
 20
0.0
  9
$LIMMAX
 10
297.0
 20
210.0
  9
$VIEWCTR
 10
148.5
 20
105.0
  9
$VIEWSIZE
 40
210.0
  9
$CLAYER
  8
0
  9
$LTSCALE
 40
16.335
  9
$CELTYPE
  6
BYLAYER
  9
$DIMSCALE
 40
1.0
  9
$DIMASZ
 40
3.0
  9
$DIMEXO
 40
1.85625
  9
$DIMDLI
 40
11.286
  9
$DIMEXE
 40
5.346
  9
$DIMCEN
 40
2.673
  9
$DIMLFAC
 40
1.0
  9
$DIMBLK
  1
_FILLED
  9
$DIMTXT
 40
3.0
  9
$DIMTOL
 70
1
  9
$DIMLIM
 70
0
  9
$DIMTFAC
 40
1.0
  9
$DIMTP
 40
0.01
  9
$DIMTM
 40
0.01
  9
$PDMODE
 70
3
  9
$PDSIZE
 40
3.0
  9
$HANDSEED
  5
3ED
  9
$TILEMODE
 70
1
  9
$MEASUREMENT
 70
1
  9
$INSUNITS
 70
4
  0
ENDSEC
  0
SECTION
  2
CLASSES
  0
CLASS
  1
ACDBDICTIONARYWDFLT
  2
AcDbDictionaryWithDefault
  3
AutoCAD 2000
 90
0
280
0
281
0
  0
CLASS
  1
ACDBPLACEHOLDER
  2
AcDbPlaceHolder
  3
AutoCAD 2000
 90
0
280
0
281
0
  0
CLASS
  1
LAYOUT
  2
AcDbLayout
  3
AutoCAD 2000
 90
0
280
0
281
0
  0
ENDSEC
  0
SECTION
  2
TABLES
  0
TABLE
  2
VPORT
  5
8
100
AcDbSymbolTable
 70
2
  0
VPORT
  5
1F4
100
AcDbSymbolTableRecord
100
AcDbViewportTableRecord
  2
*ACTIVE
 70
0
 10
0.0
 20
0.0
 11
1.0
 21
1.0
 12
148.5
 22
105.0
 13
0.0
 23
0.0
 14
1.0
 24
1.0
 15
0.0
 25
0.0
 16
0.0
 26
0.0
 36
1.0
 17
0.0
 27
0.0
 37
0.0
 40
210.0
 41
1.4142857143
 42
50.0
 43
0.0
 44
0.0
 50
0.0
 51
0.0
 71
0
 72
100
 73
1
 74
1
 75
0
 76
0
 77
0
 78
0
  0
ENDTAB
  0
TABLE
  2
LTYPE
  5
5
100
AcDbSymbolTable
 70
6
  0
LTYPE
  5
14
100
AcDbSymbolTableRecord
100
AcDbLinetypeTableRecord
  2
BYBLOCK
 70
0
  3

 72
65
 73
0
 40
0.0
  0
LTYPE
  5
15
100
AcDbSymbolTableRecord
100
AcDbLinetypeTableRecord
  2
BYLAYER
 70
0
  3

 72
65
 73
0
 40
0.0
  0
LTYPE
  5
16
100
AcDbSymbolTableRecord
100
AcDbLinetypeTableRecord
  2
CONTINUOUS
 70
64
  3
Solid line
 72
65
 73
0
 40
0.0
  0
LTYPE
  5
1F5
100
AcDbSymbolTableRecord
100
AcDbLinetypeTableRecord
  2
CENTER
 70
64
  3
____ _ ____ _ ____ _ ____ _ ____ _ ____ _ ____
 72
65
 73
4
 40
0.6
 49
0.375
 74
0
 49
-0.075
 74
0
 49
0.075
 74
0
 49
-0.075
 74
0
  0
LTYPE
  5
1F6
100
AcDbSymbolTableRecord
100
AcDbLinetypeTableRecord
  2
HIDDEN
 70
64
  3
- - - - - - - - - - - - - - - - - - - -
 72
65
 73
2
 40
0.2
 49
0.1
 74
0
 49
-0.1
 74
0
  0
LTYPE
  5
1F7
100
AcDbSymbolTableRecord
100
AcDbLinetypeTableRecord
  2
PHANTOM
 70
64
  3
_____ _ _ _____ _ _ _____ _ _ _____
 72
65
 73
6
 40
0.8
 49
0.45
 74
0
 49
-0.05
 74
0
 49
0.1
 74
0
 49
-0.05
 74
0
 49
0.1
 74
0
 49
-0.05
 74
0
  0
LTYPE
  5
1F8
100
AcDbSymbolTableRecord
100
AcDbLinetypeTableRecord
  2
DOT
 70
64
  3
. . . . . . . . . . . . . . . . . . . .
 72
65
 73
2
 40
0.2
 49
0.1
 74
0
 49
-0.1
 74
0
  0
LTYPE
  5
1F9
100
AcDbSymbolTableRecord
100
AcDbLinetypeTableRecord
  2
DASHED
 70
64
  3
- - - - - - - - - - - - - - - - - - - -
 72
65
 73
2
 40
0.2
 49
0.1
 74
0
 49
-0.1
 74
0
  0
ENDTAB
  0
TABLE
  2
LAYER
  5
2
100
AcDbSymbolTable
 70
36
  0
LAYER
  5
10
100
AcDbSymbolTableRecord
100
AcDbLayerTableRecord
  2
0
 70
0
 62
7
  6
CONTINUOUS
370
-3
390
F
  0
LAYER
  5
1FA
100
AcDbSymbolTableRecord
100
AcDbLayerTableRecord
  2
DEFAULT_1
 70
0
 62
7
  6
CENTER
370
-3
390
F
  0
LAYER
  5
1FB
100
AcDbSymbolTableRecord
100
AcDbLayerTableRecord
  2
DEFAULT_2
 70
0
 62
7
  6
HIDDEN
370
-3
390
F
  0
LAYER
  5
1FC
100
AcDbSymbolTableRecord
100
AcDbLayerTableRecord
  2
DEFAULT_3
 70
0
 62
7
  6
PHANTOM
370
-3
390
F
  0
LAYER
  5
1FD
100
AcDbSymbolTableRecord
100
AcDbLayerTableRecord
  2
ASSI
 70
0
 62
7
  6
CONTINUOUS
370
-3
390
F
  0
LAYER
  5
1FE
100
AcDbSymbolTableRecord
100
AcDbLayerTableRecord
  2
COORDINATE
 70
0
 62
7
  6
CONTINUOUS
370
-3
390
F
  0
LAYER
  5
1FF
100
AcDbSymbolTableRecord
100
AcDbLayerTableRecord
  2
COPY_PUBLISH
 70
0
 62
7
  6
CONTINUOUS
370
-3
390
F
  0
LAYER
  5
200
100
AcDbSymbolTableRecord
100
AcDbLayerTableRecord
  2
COSMETIC
 70
0
 62
7
  6
CONTINUOUS
370
-3
390
F
  0
LAYER
  5
201
100
AcDbSymbolTableRecord
100
AcDbLayerTableRecord
  2
CURVE
 70
0
 62
7
  6
CONTINUOUS
370
-3
390
F
  0
LAYER
  5
202
100
AcDbSymbolTableRecord
100
AcDbLayerTableRecord
  2
DRAFT
 70
0
 62
7
  6
CONTINUOUS
370
-3
390
F
  0
LAYER
  5
203
100
AcDbSymbolTableRecord
100
AcDbLayerTableRecord
  2
IMPORT_IGES
 70
0
 62
7
  6
CONTINUOUS
370
-3
390
F
  0
LAYER
  5
204
100
AcDbSymbolTableRecord
100
AcDbLayerTableRecord
  2
INTFCLR_1
 70
0
 62
7
  6
CONTINUOUS
370
-3
390
F
  0
LAYER
  5
205
100
AcDbSymbolTableRecord
100
AcDbLayerTableRecord
  2
PIANI
 70
0
 62
7
  6
CONTINUOUS
370
-3
390
F
  0
LAYER
  5
206
100
AcDbSymbolTableRecord
100
AcDbLayerTableRecord
  2
PUNTI
 70
0
 62
7
  6
CONTINUOUS
370
-3
390
F
  0
LAYER
  5
207
100
AcDbSymbolTableRecord
100
AcDbLayerTableRecord
  2
RACCORDO
 70
0
 62
7
  6
CONTINUOUS
370
-3
390
F
  0
LAYER
  5
208
100
AcDbSymbolTableRecord
100
AcDbLayerTableRecord
  2
SNAPLINE
 70
0
 62
7
  6
CONTINUOUS
370
-3
390
F
  0
LAYER
  5
209
100
AcDbSymbolTableRecord
100
AcDbLayerTableRecord
  2
SUPERFICI
 70
0
 62
7
  6
CONTINUOUS
370
-3
390
F
  0
LAYER
  5
20A
100
AcDbSymbolTableRecord
100
AcDbLayerTableRecord
  2
TRASH
 70
0
 62
7
  6
CONTINUOUS
370
-3
390
F
  0
ENDTAB
  0
TABLE
  2
STYLE
  5
3
100
AcDbSymbolTable
 70
1
  0
STYLE
  5
11
100
AcDbSymbolTableRecord
100
AcDbTextStyleTableRecord
  2
STANDARD
 70
0
 40
0.0
 41
0.8
 50
0.0
 71
0
 42
0.2
  3
txt
  4

  0
STYLE
  5
20B
100
AcDbSymbolTableRecord
100
AcDbTextStyleTableRecord
  2
TEXTSTYLE_1
 70
0
 40
0.0
 41
0.8
 50
0.0
 71
0
 42
0.2
  3
gdt
  4

  0
ENDTAB
  0
TABLE
  2
VIEW
  5
6
100
AcDbSymbolTable
 70
0
  0
ENDTAB
  0
TABLE
  2
UCS
  5
7
100
AcDbSymbolTable
 70
0
  0
ENDTAB
  0
TABLE
  2
APPID
  5
9
100
AcDbSymbolTable
 70
1
  0
APPID
  5
20C
100
AcDbSymbolTableRecord
100
AcDbRegAppTableRecord
  2
ACAD
 70
0
  0
ENDTAB
  0
TABLE
  2
BLOCK_RECORD
  5
1
100
AcDbSymbolTable
 70
0
  0
BLOCK_RECORD
  5
20D
100
AcDbSymbolTableRecord
100
AcDbBlockTableRecord
  2
*Model_Space
  0
BLOCK_RECORD
  5
20E
100
AcDbSymbolTableRecord
100
AcDbBlockTableRecord
  2
*Paper_Space
  0
BLOCK_RECORD
  5
20F
100
AcDbSymbolTableRecord
100
AcDbBlockTableRecord
  2
_FILLED
  0
BLOCK_RECORD
  5
210
100
AcDbSymbolTableRecord
100
AcDbBlockTableRecord
  2
*D0
  0
BLOCK_RECORD
  5
211
100
AcDbSymbolTableRecord
100
AcDbBlockTableRecord
  2
*D1
  0
BLOCK_RECORD
  5
212
100
AcDbSymbolTableRecord
100
AcDbBlockTableRecord
  2
*D2
  0
ENDTAB
  0
TABLE
  2
DIMSTYLE
  5
A
100
AcDbSymbolTable
 70
1
100
AcDbDimStyleTable
 71
0
  0
DIMSTYLE
105
213
100
AcDbSymbolTableRecord
100
AcDbDimStyleTableRecord
  2
STANDARD
 70
0
  3

  4

 40
1.0
 41
3.0
 42
0.0625
 43
0.38
 44
0.18
 45
0.0
 46
0.0
 47
0.01
 48
0.01
140
3.0
141
0.09
142
0.0
143
25.4
144
1.0
145
0.0
146
1.0
147
0.09
 71
1.0
 72
0.0
 73
0
 74
0
 75
0
 76
0
 77
1
 78
8
170
0
171
2
172
0
173
0
174
0
175
0
176
0
177
0
178
0
270
2
271
2
272
2
273
2
274
2
275
0
280
0
281
0
282
0
283
1
284
8
285
0
286
0
287
3
288
0
340
11
341
20F
342
20F
343
20F
344
20F
  0
DIMSTYLE
105
214
100
AcDbSymbolTableRecord
100
AcDbDimStyleTableRecord
  2
DIMSTYLE_1
 70
0
  3

  4

 40
1.0
 41
3.0
 42
0.0625
 43
0.38
 44
0.18
 45
0.0
 46
0.0
 47
0.0
 48
0.0
140
3.0
141
0.09
142
0.0
143
25.4
144
1.0
145
0.0
146
1.0
147
0.09
 71
0.0
 72
0.0
 73
0
 74
0
 75
0
 76
0
 77
1
 78
8
170
0
171
2
172
0
173
0
174
0
175
0
176
0
177
0
178
0
270
2
271
2
272
2
273
2
274
2
275
0
280
0
281
0
282
0
283
1
284
8
285
0
286
0
287
3
288
0
340
11
341
20F
342
20F
343
20F
344
20F
  0
DIMSTYLE
105
215
100
AcDbSymbolTableRecord
100
AcDbDimStyleTableRecord
  2
DIMSTYLE_2
 70
0
  3

  4

 40
1.0
 41
3.0
 42
0.0625
 43
0.38
 44
0.18
 45
0.0
 46
0.0
 47
0.0
 48
0.0
140
3.0
141
0.09
142
0.0
143
25.4
144
1.0
145
0.0
146
1.0
147
0.09
 71
0.0
 72
0.0
 73
0
 74
0
 75
0
 76
0
 77
1
 78
8
170
0
171
2
172
0
173
0
174
0
175
0
176
0
177
0
178
0
270
2
271
1
272
1
273
2
274
2
275
0
280
0
281
0
282
0
283
1
284
8
285
0
286
0
287
3
288
0
340
11
341
20F
342
20F
343
20F
344
20F
  0
ENDTAB
  0
ENDSEC
  0
SECTION
  2
BLOCKS
  0
BLOCK
  5
20
100
AcDbEntity
  8
0
100
AcDbBlockBegin
  2
*Model_Space
 70
0
 10
0.0
 20
0.0
 30
0.0
  3
*Model_Space
  1

  0
ENDBLK
  5
21
100
AcDbEntity
  8
0
100
AcDbBlockEnd
  0
BLOCK
  5
1C
100
AcDbEntity
  8
0
100
AcDbBlockBegin
  2
*Paper_Space
 70
0
 10
0.0
 20
0.0
 30
0.0
  3
*Paper_Space
  1

  0
ENDBLK
  5
1D
100
AcDbEntity
  8
0
100
AcDbBlockEnd
  0
BLOCK
  5
216
100
AcDbEntity
  8
0
100
AcDbBlockBegin
  2
_FILLED
 70
64
 10
0.0
 20
0.0
  3
_FILLED
  1

  0
SOLID
  5
217
100
AcDbEntity
  8
0
  6
BYBLOCK
 62
0
100
AcDbTrace
 10
0.0
 20
0.0
 11
-1.0
 21
0.3166666667
 12
-1.0
 22
-0.3166666667
 13
-1.0
 23
-0.3166666667
  0
ENDBLK
  5
218
100
AcDbEntity
  8
0
  6
BYBLOCK
 62
0
100
AcDbBlockEnd
  0
BLOCK
  5
219
100
AcDbEntity
  8
0
100
AcDbBlockBegin
 62
7
  6
CONTINUOUS
  2
*D0
 70
65
 10
0.0
 20
0.0
  3
*D0
  1

  0
MTEXT
  5
21A
100
AcDbEntity
  8
0
100
AcDbMText
 62
7
  6
CONTINUOUS
  7
STANDARD
 71
2
 72
1
 10
93.9513517263
 20
0.4908834129
 30
0.0
 11
0.0
 21
1.0
 31
0.0
 44
0.9
  1
95
 40
3.0
 41
4.5
  0
LINE
  5
21B
100
AcDbEntity
  8
0
100
AcDbLine
 62
7
  6
CONTINUOUS
 10
87.2013517263
 20
47.9908834129
 11
99.2013517263
 21
47.9908834129
  0
LINE
  5
21C
100
AcDbEntity
  8
0
100
AcDbLine
 62
7
  6
CONTINUOUS
 10
87.2013517263
 20
-47.0091165871
 11
99.2013517263
 21
-47.0091165871
  0
LINE
  5
21D
100
AcDbEntity
  8
0
100
AcDbLine
 62
7
  6
CONTINUOUS
 10
97.7013517263
 20
47.9908834129
 11
97.7013517263
 21
0.4908834129
  0
LINE
  5
21E
100
AcDbEntity
  8
0
100
AcDbLine
 62
7
  6
CONTINUOUS
 10
97.7013517263
 20
-47.0091165871
 11
97.7013517263
 21
0.4908834129
  0
INSERT
  5
21F
100
AcDbEntity
  8
0
100
AcDbBlockReference
 62
7
  6
CONTINUOUS
  2
_FILLED
 10
97.7013517263
 20
47.9908834129
 41
3.0
 42
3.0
 43
3.0
 50
90.0
  0
INSERT
  5
220
100
AcDbEntity
  8
0
100
AcDbBlockReference
 62
7
  6
CONTINUOUS
  2
_FILLED
 10
97.7013517263
 20
-47.0091165871
 41
3.0
 42
3.0
 43
3.0
 50
270.0
  0
ENDBLK
  5
221
100
AcDbEntity
  8
0
  6
BYBLOCK
 62
0
100
AcDbBlockEnd
  0
BLOCK
  5
222
100
AcDbEntity
  8
0
100
AcDbBlockBegin
 62
7
  6
CONTINUOUS
  2
*D1
 70
65
 10
0.0
 20
0.0
  3
*D1
  1

  0
MTEXT
  5
223
100
AcDbEntity
  8
0
100
AcDbMText
 62
7
  6
CONTINUOUS
  7
STANDARD
 71
2
 72
1
 10
12.2013517263
 20
59.7408834129
 30
0.0
 11
1.0
 21
0.0
 31
0.0
 44
0.9
  1
155
 40
3.0
 41
6.0
  0
LINE
  5
224
100
AcDbEntity
  8
0
100
AcDbLine
 62
7
  6
CONTINUOUS
 10
89.7013517263
 20
45.4908834129
 11
89.7013517263
 21
57.4908834129
  0
LINE
  5
225
100
AcDbEntity
  8
0
100
AcDbLine
 62
7
  6
CONTINUOUS
 10
-65.2986482737
 20
45.4908834129
 11
-65.2986482737
 21
57.4908834129
  0
LINE
  5
226
100
AcDbEntity
  8
0
100
AcDbLine
 62
7
  6
CONTINUOUS
 10
89.7013517263
 20
55.9908834129
 11
12.2013517263
 21
55.9908834129
  0
LINE
  5
227
100
AcDbEntity
  8
0
100
AcDbLine
 62
7
  6
CONTINUOUS
 10
-65.2986482737
 20
55.9908834129
 11
12.2013517263
 21
55.9908834129
  0
INSERT
  5
228
100
AcDbEntity
  8
0
100
AcDbBlockReference
 62
7
  6
CONTINUOUS
  2
_FILLED
 10
89.7013517263
 20
55.9908834129
 41
3.0
 42
3.0
 43
3.0
  0
INSERT
  5
229
100
AcDbEntity
  8
0
100
AcDbBlockReference
 62
7
  6
CONTINUOUS
  2
_FILLED
 10
-65.2986482737
 20
55.9908834129
 41
3.0
 42
3.0
 43
3.0
 50
180.0
  0
ENDBLK
  5
22A
100
AcDbEntity
  8
0
  6
BYBLOCK
 62
0
100
AcDbBlockEnd
  0
BLOCK
  5
22B
100
AcDbEntity
  8
0
100
AcDbBlockBegin
 62
7
  6
CONTINUOUS
  2
*D2
 70
65
 10
0.0
 20
0.0
  3
*D2
  1

  0
MTEXT
  5
22C
100
AcDbEntity
  8
0
100
AcDbMText
 62
7
  6
CONTINUOUS
  7
STANDARD
 71
2
 72
1
 10
-83.4838072999
 20
59.7408834129
 30
0.0
 11
1.0
 21
0.0
 31
0.0
 44
0.9
  1
9
 40
3.0
 41
2.3571428571
  0
LINE
  5
22D
100
AcDbEntity
  8
0
100
AcDbLine
 62
7
  6
CONTINUOUS
 10
-87.9874449511
 20
24.6333457697
 11
-87.9807306801
 21
57.491802342
  0
LINE
  5
22E
100
AcDbEntity
  8
0
100
AcDbLine
 62
7
  6
CONTINUOUS
 10
-78.9881097672
 20
48.4908834025
 11
-78.9862709021
 21
57.4899644212
  0
LINE
  5
22F
100
AcDbEntity
  8
0
100
AcDbLine
 62
7
  6
CONTINUOUS
 10
-87.9810371889
 20
55.9918023733
 11
-83.4838072999
 21
55.9908834129
  0
LINE
  5
230
100
AcDbEntity
  8
0
100
AcDbLine
 62
7
  6
CONTINUOUS
 10
-78.9865774109
 20
55.9899644525
 11
-83.4838072999
 21
55.9908834129
  0
INSERT
  5
231
100
AcDbEntity
  8
0
100
AcDbBlockReference
 62
7
  6
CONTINUOUS
  2
_FILLED
 10
-87.9810371889
 20
55.9918023733
 41
3.0
 42
3.0
 43
3.0
 50
179.9882922258
  0
INSERT
  5
232
100
AcDbEntity
  8
0
100
AcDbBlockReference
 62
7
  6
CONTINUOUS
  2
_FILLED
 10
-78.9865774109
 20
55.9899644525
 41
3.0
 42
3.0
 43
3.0
 50
359.9882922258
  0
ENDBLK
  5
233
100
AcDbEntity
  8
0
  6
BYBLOCK
 62
0
100
AcDbBlockEnd
  0
ENDSEC
  0
SECTION
  2
ENTITIES
  0
DIMENSION
  5
234
100
AcDbEntity
  8
0
100
AcDbDimension
 62
7
  6
CONTINUOUS
  2
*D0
 10
97.7013517263
 20
-47.0091165871
 11
96.4595173625
 21
-1.5206090802
 70
160
 71
2
 42
95.0
  3
DIMSTYLE_1
100
AcDbAlignedDimension
 13
87.2013517263
 23
47.9908834129
 14
87.2013517263
 24
-47.0091165871
 50
270.0
100
AcDbRotatedDimension
  0
DIMENSION
  5
235
100
AcDbEntity
  8
0
100
AcDbDimension
 62
7
  6
CONTINUOUS
  2
*D1
 10
-65.2986482737
 20
55.9908834129
 11
9.2013517263
 21
58.2408834129
 70
160
 71
2
 42
155.0
  3
DIMSTYLE_1
100
AcDbAlignedDimension
 13
89.7013517263
 23
45.4908834129
 14
-65.2986482737
 24
45.4908834129
 50
180.0
100
AcDbRotatedDimension
  0
DIMENSION
  5
236
100
AcDbEntity
  8
0
100
AcDbDimension
 62
7
  6
CONTINUOUS
  2
*D2
 10
-78.9865774109
 20
55.9899644525
 11
-84.6623787285
 21
58.2408834129
 70
160
 71
2
 42
8.9944599658
  3
DIMSTYLE_2
100
AcDbAlignedDimension
 13
-87.9874449511
 23
24.6333457697
 14
-78.9881097672
 24
48.4908834025
 50
359.9882922258
100
AcDbRotatedDimension
  0
LINE
  5
237
100
AcDbEntity
  8
RACCORDO
100
AcDbLine
 62
7
  6
CONTINUOUS
 10
-65.2986482737
 20
44.9908834129
 11
-65.2986482737
 21
4.6926766396
  0
LINE
  5
238
100
AcDbEntity
  8
RACCORDO
100
AcDbLine
 62
7
  6
CONTINUOUS
 10
-65.2986482737
 20
-3.7109098137
 11
-65.2986482737
 21
-44.0091165871
  0
LINE
  5
239
100
AcDbEntity
  8
RACCORDO
100
AcDbLine
 62
7
  6
CONTINUOUS
 10
-65.1938327152
 20
-2.5706283556
 11
-65.1938327152
 21
3.5523951814
  0
LINE
  5
23A
100
AcDbEntity
  8
RACCORDO
100
AcDbLine
 62
253
  6
CONTINUOUS
 10
-65.0614347946
 20
12.2408806219
 11
-65.0614347946
 21
-11.259113796
  0
LINE
  5
23B
100
AcDbEntity
  8
RACCORDO
100
AcDbLine
 62
253
  6
CONTINUOUS
 10
-64.3445872271
 20
12.2408834199
 11
-64.3445872271
 21
-11.259116594
  0
LINE
  5
23C
100
AcDbEntity
  8
RACCORDO
100
AcDbLine
 62
253
  6
CONTINUOUS
 10
-62.2986482737
 20
47.9908834129
 11
-62.2986482737
 21
47.7596264026
  0
LINE
  5
23D
100
AcDbEntity
  8
RACCORDO
100
AcDbLine
 62
253
  6
CONTINUOUS
 10
-62.2986482737
 20
-47.0091165871
 11
-62.2986482737
 21
-46.7778647057
  0
LINE
  5
23E
100
AcDbEntity
  8
RACCORDO
100
AcDbLine
 62
7
  6
CONTINUOUS
 10
-65.275864678
 20
-3.215187383
 11
-65.2166163109
 21
-3.0663507863
  0
LINE
  5
23F
100
AcDbEntity
  8
RACCORDO
100
AcDbLine
 62
7
  6
CONTINUOUS
 10
-65.2166163109
 20
4.0481176121
 11
-65.275864678
 21
4.1969542089
  0
LINE
  5
240
100
AcDbEntity
  8
RACCORDO
100
AcDbLine
 62
253
  6
CONTINUOUS
 10
-47.5063491032
 20
12.2408832707
 11
-47.5063491052
 21
-11.2591164451
  0
LINE
  5
241
100
AcDbEntity
  8
RACCORDO
100
AcDbLine
 62
253
  6
CONTINUOUS
 10
-45.8373996667
 20
12.2408834666
 11
-45.8373996669
 21
-11.2591469332
  0
LINE
  5
242
100
AcDbEntity
  8
0
100
AcDbLine
 62
253
  6
CONTINUOUS
 10
-44.2406609764
 20
-11.2591044614
 11
-44.2406609764
 21
12.2408834041
  0
LINE
  5
243
100
AcDbEntity
  8
DRAFT
100
AcDbLine
 62
7
  6
CONTINUOUS
 10
-44.1486482737
 20
22.7408834129
 11
-44.1486482737
 21
-21.7591165871
  0
LINE
  5
244
100
AcDbEntity
  8
0
100
AcDbLine
 62
253
  6
CONTINUOUS
 10
-43.8486482737
 20
-22.0591165871
 11
-43.8486482737
 21
-22.1511067994
  0
LINE
  5
245
100
AcDbEntity
  8
0
100
AcDbLine
 62
253
  6
CONTINUOUS
 10
-43.8486482737
 20
23.0408834129
 11
-43.8486482737
 21
23.1328736266
  0
LINE
  5
246
100
AcDbEntity
  8
RACCORDO
100
AcDbLine
 62
253
  6
CONTINUOUS
 10
-43.8480827679
 20
24.7302651425
 11
-43.8488577736
 21
23.1328736286
  0
LINE
  5
247
100
AcDbEntity
  8
RACCORDO
100
AcDbLine
 62
253
  6
CONTINUOUS
 10
-29.5486482788
 20
-22.1511008093
 11
-29.5486526187
 21
-46.7739046921
  0
LINE
  5
248
100
AcDbEntity
  8
RACCORDO
100
AcDbLine
 62
253
  6
CONTINUOUS
 10
-29.5486526163
 20
47.755671518
 11
-29.5488562554
 21
23.1328675708
  0
LINE
  5
249
100
AcDbEntity
  8
SUPERFICI
100
AcDbLine
 62
7
  6
CONTINUOUS
 10
-62.2986482737
 20
-47.0091165871
 11
86.7013517263
 21
-47.0091165871
  0
LINE
  5
24A
100
AcDbEntity
  8
RACCORDO
100
AcDbLine
 62
253
  6
CONTINUOUS
 10
-29.5486526186
 20
-46.7739046921
 11
53.9513560685
 21
-46.7739046921
  0
LINE
  5
24B
100
AcDbEntity
  8
RACCORDO
100
AcDbLine
 62
253
  6
CONTINUOUS
 10
-29.5486482765
 20
-46.0099607694
 11
53.9513517264
 21
-46.0099607694
  0
LINE
  5
24C
100
AcDbEntity
  8
RACCORDO
100
AcDbLine
 62
253
  6
CONTINUOUS
 10
-65.2986482737
 20
-44.0091165871
 11
-65.0671090366
 21
-44.0091165871
  0
LINE
  5
24D
100
AcDbEntity
  8
RACCORDO
100
AcDbLine
 62
253
  6
CONTINUOUS
 10
89.7013517263
 20
-44.0091165871
 11
89.4698124768
 21
-44.0091099808
  0
LINE
  5
24E
100
AcDbEntity
  8
0
100
AcDbLine
 62
7
  6
CONTINUOUS
 10
70.7498500054
 20
-28.4464151126
 11
70.1676492819
 21
-28.4464151126
  0
LINE
  5
24F
100
AcDbEntity
  8
0
100
AcDbLine
 62
7
  6
CONTINUOUS
 10
69.240759637
 20
-28.4464151126
 11
68.6379236759
 21
-28.4464151126
  0
LINE
  5
250
100
AcDbEntity
  8
0
100
AcDbLine
 62
7
  6
CONTINUOUS
 10
68.4601867263
 20
-28.4464155871
 11
67.8222557263
 21
-28.4464155871
  0
LINE
  5
251
100
AcDbEntity
  8
0
100
AcDbLine
 62
7
  6
CONTINUOUS
 10
66.6741627263
 20
-28.4464155871
 11
66.0754577263
 21
-28.4464155871
  0
LINE
  5
252
100
AcDbEntity
  8
0
100
AcDbLine
 62
7
  6
CONTINUOUS
 10
65.9804137263
 20
-28.4464155871
 11
65.3882977263
 21
-28.4464155871
  0
LINE
  5
253
100
AcDbEntity
  8
0
100
AcDbLine
 62
7
  6
CONTINUOUS
 10
63.6187117263
 20
-28.4464155871
 11
63.0396637263
 21
-28.4464155871
  0
LINE
  5
254
100
AcDbEntity
  8
0
100
AcDbLine
 62
7
  6
CONTINUOUS
 10
62.7138277263
 20
-28.4464155871
 11
62.1085557263
 21
-28.4464155871
  0
LINE
  5
255
100
AcDbEntity
  8
0
100
AcDbLine
 62
7
  6
CONTINUOUS
 10
60.9518737263
 20
-28.4464155871
 11
60.4184777263
 21
-28.4464155871
  0
LINE
  5
256
100
AcDbEntity
  8
0
100
AcDbLine
 62
7
  6
CONTINUOUS
 10
64.5824427494
 20
-28.3464155871
 11
64.4218844653
 21
-28.3464155871
  0
LINE
  5
257
100
AcDbEntity
  8
0
100
AcDbLine
 62
7
  6
CONTINUOUS
 10
67.6654587263
 20
-27.8675415871
 11
66.8411797263
 21
-27.8675415871
  0
LINE
  5
258
100
AcDbEntity
  8
0
100
AcDbLine
 62
7
  6
CONTINUOUS
 10
66.9649907263
 20
-27.4196105871
 11
67.5444957263
 21
-27.4196105871
  0
LINE
  5
259
100
AcDbEntity
  8
0
100
AcDbLine
 62
7
  6
CONTINUOUS
 10
69.565291693
 20
-27.3116509984
 11
69.240759637
 21
-27.3116509984
  0
LINE
  5
25A
100
AcDbEntity
  8
0
100
AcDbLine
 62
7
  6
CONTINUOUS
 10
69.2206897484
 20
-26.8367578592
 11
69.5665963445
 21
-26.8367578592
  0
LINE
  5
25B
100
AcDbEntity
  8
0
100
AcDbLine
 62
7
  6
CONTINUOUS
 10
59.4992317263
 20
-25.5467615871
 11
60.1567427263
 21
-25.5467615871
  0
LINE
  5
25C
100
AcDbEntity
  8
0
100
AcDbLine
 62
7
  6
CONTINUOUS
 10
61.2790807263
 20
-25.5467615871
 11
61.8839387263
 21
-25.5467615871
  0
LINE
  5
25D
100
AcDbEntity
  8
0
100
AcDbLine
 62
7
  6
CONTINUOUS
 10
63.3014857263
 20
-25.5467615871
 11
63.9062567263
 21
-25.5467615871
  0
LINE
  5
25E
100
AcDbEntity
  8
0
100
AcDbLine
 62
7
  6
CONTINUOUS
 10
65.1104067263
 20
-25.5467615871
 11
65.7092637263
 21
-25.5467615871
  0
LINE
  5
25F
100
AcDbEntity
  8
0
100
AcDbLine
 62
7
  6
CONTINUOUS
 10
66.9849737263
 20
-25.5467615871
 11
67.5705017263
 21
-25.5467615871
  0
LINE
  5
260
100
AcDbEntity
  8
0
100
AcDbLine
 62
7
  6
CONTINUOUS
 10
62.1085557263
 20
-25.5465875871
 11
62.7138277263
 21
-25.5465875871
  0
LINE
  5
261
100
AcDbEntity
  8
RACCORDO
100
AcDbLine
 62
253
  6
CONTINUOUS
 10
-29.5486483179
 20
-25.4370870504
 11
53.951351685
 21
-25.4370844642
  0
LINE
  5
262
100
AcDbEntity
  8
RACCORDO
100
AcDbLine
 62
253
  6
CONTINUOUS
 10
-29.5486482608
 20
-23.7476683914
 11
53.9508246835
 21
-23.7476676767
  0
LINE
  5
263
100
AcDbEntity
  8
0
100
AcDbLine
 62
7
  6
CONTINUOUS
 10
70.1774091783
 20
-27.0771590359
 11
70.1340940124
 21
-27.0741896633
  0
LINE
  5
264
100
AcDbEntity
  8
0
100
AcDbLine
 62
7
  6
CONTINUOUS
 10
53.9515604442
 20
-22.1511270581
 11
-29.5486482788
 21
-22.1511270887
  0
LINE
  5
265
100
AcDbEntity
  8
DRAFT
100
AcDbLine
 62
7
  6
CONTINUOUS
 10
-43.8486482737
 20
-22.0591165871
 11
68.2513517263
 21
-22.0591165871
  0
LINE
  5
266
100
AcDbEntity
  8
0
100
AcDbLine
 62
253
  6
CONTINUOUS
 10
-44.1486482737
 20
-21.7591165871
 11
-44.2406477133
 21
-21.7591165871
  0
LINE
  5
267
100
AcDbEntity
  8
0
100
AcDbLine
 62
253
  6
CONTINUOUS
 10
68.5513517263
 20
-21.7591165871
 11
68.6433511658
 21
-21.7591165871
  0
LINE
  5
268
100
AcDbEntity
  8
RACCORDO
100
AcDbLine
 62
253
  6
CONTINUOUS
 10
-45.84005521
 20
-21.7592524086
 11
-44.2406477133
 21
-21.7591044699
  0
LINE
  5
269
100
AcDbEntity
  8
RACCORDO
100
AcDbLine
 62
253
  6
CONTINUOUS
 10
70.2427587582
 20
-21.7592759722
 11
68.6433511658
 21
-21.7591044327
  0
LINE
  5
26A
100
AcDbEntity
  8
RACCORDO
100
AcDbLine
 62
253
  6
CONTINUOUS
 10
89.4641382471
 20
-11.2591137906
 11
68.6433644488
 21
-11.259116587
  0
LINE
  5
26B
100
AcDbEntity
  8
RACCORDO
100
AcDbLine
 62
253
  6
CONTINUOUS
 10
-65.0614347946
 20
-11.2591137961
 11
-44.2406609964
 21
-11.2591044613
  0
LINE
  5
26C
100
AcDbEntity
  8
RACCORDO
100
AcDbLine
 62
253
  6
CONTINUOUS
 10
-44.2406609963
 20
12.2408834041
 11
-65.0614347946
 21
12.2408806219
  0
LINE
  5
26D
100
AcDbEntity
  8
RACCORDO
100
AcDbLine
 62
253
  6
CONTINUOUS
 10
68.6433644489
 20
12.2408834044
 11
89.4641382471
 21
12.2408806219
  0
LINE
  5
26E
100
AcDbEntity
  8
RACCORDO
100
AcDbLine
 62
253
  6
CONTINUOUS
 10
70.2427642978
 20
22.7409614205
 11
68.6433512439
 21
22.7408758965
  0
LINE
  5
26F
100
AcDbEntity
  8
0
100
AcDbLine
 62
253
  6
CONTINUOUS
 10
-44.1486482737
 20
22.7408834129
 11
-44.2406477133
 21
22.7408834129
  0
LINE
  5
270
100
AcDbEntity
  8
0
100
AcDbLine
 62
253
  6
CONTINUOUS
 10
68.5513517263
 20
22.7408834129
 11
68.6433512439
 21
22.7408834129
  0
LINE
  5
271
100
AcDbEntity
  8
DRAFT
100
AcDbLine
 62
7
  6
CONTINUOUS
 10
68.2513517263
 20
23.0408834129
 11
-43.8486482737
 21
23.0408834129
  0
LINE
  5
272
100
AcDbEntity
  8
0
100
AcDbLine
 62
7
  6
CONTINUOUS
 10
-29.5488569929
 20
23.132893884
 11
53.9513517314
 21
23.1328939146
  0
LINE
  5
273
100
AcDbEntity
  8
RACCORDO
100
AcDbLine
 62
253
  6
CONTINUOUS
 10
53.9513517133
 20
24.7294352173
 11
-29.5481212332
 21
24.7294345026
  0
LINE
  5
274
100
AcDbEntity
  8
RACCORDO
100
AcDbLine
 62
253
  6
CONTINUOUS
 10
-45.8400546765
 20
22.7409759394
 11
-44.2406477133
 21
22.7408712586
  0
LINE
  5
275
100
AcDbEntity
  8
RACCORDO
100
AcDbLine
 62
253
  6
CONTINUOUS
 10
53.9513517492
 20
26.4188538763
 11
-29.5486482589
 21
26.4188512901
  0
LINE
  5
276
100
AcDbEntity
  8
RACCORDO
100
AcDbLine
 62
253
  6
CONTINUOUS
 10
53.9513560709
 20
47.755671518
 11
53.9513517313
 21
23.1328676352
  0
LINE
  5
277
100
AcDbEntity
  8
RACCORDO
100
AcDbLine
 62
253
  6
CONTINUOUS
 10
53.9513560685
 20
-46.7739046921
 11
53.9515597067
 21
-22.151100745
  0
LINE
  5
278
100
AcDbEntity
  8
0
100
AcDbLine
 62
7
  6
CONTINUOUS
 10
64.4218844653
 20
-28.3464155871
 11
63.7493297263
 21
-26.5529965871
  0
LINE
  5
279
100
AcDbEntity
  8
0
100
AcDbLine
 62
7
  6
CONTINUOUS
 10
63.9062567263
 20
-25.5467615871
 11
64.5051357263
 21
-27.1566585871
  0
LINE
  5
27A
100
AcDbEntity
  8
0
100
AcDbLine
 62
7
  6
CONTINUOUS
 10
60.4184777263
 20
-28.4464155871
 11
59.4992317263
 21
-25.5467615871
  0
LINE
  5
27B
100
AcDbEntity
  8
0
100
AcDbLine
 62
7
  6
CONTINUOUS
 10
60.1567427263
 20
-25.5467615871
 11
60.7094697263
 21
-27.5426825871
  0
LINE
  5
27C
100
AcDbEntity
  8
RACCORDO
100
AcDbLine
 62
253
  6
CONTINUOUS
 10
89.7013517263
 20
44.9908834129
 11
89.4698124766
 21
44.990880387
  0
LINE
  5
27D
100
AcDbEntity
  8
RACCORDO
100
AcDbLine
 62
253
  6
CONTINUOUS
 10
-65.2986482737
 20
44.9908834129
 11
-65.0671090693
 21
44.9908851583
  0
LINE
  5
27E
100
AcDbEntity
  8
RACCORDO
100
AcDbLine
 62
253
  6
CONTINUOUS
 10
53.9513517288
 20
46.9917275952
 11
-29.5486482741
 21
46.9917275952
  0
LINE
  5
27F
100
AcDbEntity
  8
RACCORDO
100
AcDbLine
 62
253
  6
CONTINUOUS
 10
53.951356071
 20
47.755671518
 11
-29.5486526163
 21
47.755671518
  0
LINE
  5
280
100
AcDbEntity
  8
SUPERFICI
100
AcDbLine
 62
7
  6
CONTINUOUS
 10
86.7013517263
 20
47.9908834129
 11
-62.2986482737
 21
47.9908834129
  0
LINE
  5
281
100
AcDbEntity
  8
0
100
AcDbLine
 62
7
  6
CONTINUOUS
 10
69.9029360773
 20
-27.5670310421
 11
69.9028931578
 21
-27.5669168177
  0
LINE
  5
282
100
AcDbEntity
  8
0
100
AcDbLine
 62
7
  6
CONTINUOUS
 10
67.5705017263
 20
-25.5467615871
 11
68.4601867263
 21
-28.4464155871
  0
LINE
  5
283
100
AcDbEntity
  8
0
100
AcDbLine
 62
7
  6
CONTINUOUS
 10
67.8222557263
 20
-28.4464155871
 11
67.6654587263
 21
-27.8675415871
  0
LINE
  5
284
100
AcDbEntity
  8
0
100
AcDbLine
 62
7
  6
CONTINUOUS
 10
67.5444957263
 20
-27.4196105871
 11
67.2663657263
 21
-26.3435125871
  0
LINE
  5
285
100
AcDbEntity
  8
0
100
AcDbLine
 62
7
  6
CONTINUOUS
 10
65.7092637263
 20
-25.5467615871
 11
65.9804137263
 21
-28.4464155871
  0
LINE
  5
286
100
AcDbEntity
  8
0
100
AcDbLine
 62
7
  6
CONTINUOUS
 10
65.3882977263
 20
-28.4464155871
 11
65.2639427263
 21
-26.5608895871
  0
LINE
  5
287
100
AcDbEntity
  8
0
100
AcDbLine
 62
7
  6
CONTINUOUS
 10
62.1085557263
 20
-28.4464155871
 11
62.1085557263
 21
-25.5465875871
  0
LINE
  5
288
100
AcDbEntity
  8
0
100
AcDbLine
 62
7
  6
CONTINUOUS
 10
62.7138277263
 20
-25.5465875871
 11
62.7138277263
 21
-28.4464155871
  0
LINE
  5
289
100
AcDbEntity
  8
0
100
AcDbLine
 62
7
  6
CONTINUOUS
 10
63.7493297263
 20
-26.5529965871
 11
63.6187117263
 21
-28.4464155871
  0
LINE
  5
28A
100
AcDbEntity
  8
0
100
AcDbLine
 62
7
  6
CONTINUOUS
 10
63.0396637263
 20
-28.4464155871
 11
63.3014857263
 21
-25.5467615871
  0
LINE
  5
28B
100
AcDbEntity
  8
0
100
AcDbLine
 62
7
  6
CONTINUOUS
 10
60.7094697263
 20
-27.5426825871
 11
61.2790807263
 21
-25.5467615871
  0
LINE
  5
28C
100
AcDbEntity
  8
0
100
AcDbLine
 62
7
  6
CONTINUOUS
 10
61.8839387263
 20
-25.5467615871
 11
60.9518737263
 21
-28.4464155871
  0
LINE
  5
28D
100
AcDbEntity
  8
0
100
AcDbLine
 62
253
  6
CONTINUOUS
 10
68.2513517263
 20
-22.0591165871
 11
68.2513517263
 21
-22.1511068007
  0
LINE
  5
28E
100
AcDbEntity
  8
0
100
AcDbLine
 62
253
  6
CONTINUOUS
 10
68.2513517263
 20
23.0408834129
 11
68.2513517263
 21
23.1328729376
  0
LINE
  5
28F
100
AcDbEntity
  8
DRAFT
100
AcDbLine
 62
7
  6
CONTINUOUS
 10
68.5513517263
 20
-21.7591165871
 11
68.5513517263
 21
22.7408834129
  0
LINE
  5
290
100
AcDbEntity
  8
0
100
AcDbLine
 62
7
  6
CONTINUOUS
 10
68.6379236759
 20
-28.4464151126
 11
68.6379236759
 21
-25.580639413
  0
LINE
  5
291
100
AcDbEntity
  8
0
100
AcDbLine
 62
253
  6
CONTINUOUS
 10
68.6433644289
 20
12.2408834044
 11
68.6433644289
 21
-11.259116587
  0
LINE
  5
292
100
AcDbEntity
  8
0
100
AcDbLine
 62
7
  6
CONTINUOUS
 10
69.2206897484
 20
-26.0407465021
 11
69.2206897484
 21
-26.8367578592
  0
LINE
  5
293
100
AcDbEntity
  8
0
100
AcDbLine
 62
7
  6
CONTINUOUS
 10
69.240759637
 20
-27.3116509984
 11
69.240759637
 21
-28.4464151126
  0
LINE
  5
294
100
AcDbEntity
  8
RACCORDO
100
AcDbLine
 62
253
  6
CONTINUOUS
 10
70.2401031192
 20
-11.2591166495
 11
70.2401031196
 21
12.240883443
  0
LINE
  5
295
100
AcDbEntity
  8
RACCORDO
100
AcDbLine
 62
253
  6
CONTINUOUS
 10
71.9090525557
 20
-11.2591165241
 11
71.9090525577
 21
12.240883271
  0
LINE
  5
296
100
AcDbEntity
  8
RACCORDO
100
AcDbLine
 62
253
  6
CONTINUOUS
 10
68.2512698189
 20
-23.7484990005
 11
68.2515612264
 21
-22.1511068027
  0
LINE
  5
297
100
AcDbEntity
  8
0
100
AcDbLine
 62
7
  6
CONTINUOUS
 10
67.2663657263
 20
-26.3435125871
 11
66.9649907263
 21
-27.4196105871
  0
LINE
  5
298
100
AcDbEntity
  8
0
100
AcDbLine
 62
7
  6
CONTINUOUS
 10
66.8411797263
 20
-27.8675415871
 11
66.6741627263
 21
-28.4464155871
  0
LINE
  5
299
100
AcDbEntity
  8
0
100
AcDbLine
 62
7
  6
CONTINUOUS
 10
66.0754577263
 20
-28.4464155871
 11
66.9849737263
 21
-25.5467615871
  0
LINE
  5
29A
100
AcDbEntity
  8
0
100
AcDbLine
 62
7
  6
CONTINUOUS
 10
64.5051357263
 20
-27.1566585871
 11
65.1104067263
 21
-25.5467615871
  0
LINE
  5
29B
100
AcDbEntity
  8
0
100
AcDbLine
 62
7
  6
CONTINUOUS
 10
65.2639427263
 20
-26.5608895871
 11
64.5824427494
 21
-28.3464155871
  0
LINE
  5
29C
100
AcDbEntity
  8
RACCORDO
100
AcDbLine
 62
7
  6
CONTINUOUS
 10
89.6193197634
 20
4.0481176121
 11
89.6785681305
 21
4.1969542089
  0
LINE
  5
29D
100
AcDbEntity
  8
RACCORDO
100
AcDbLine
 62
7
  6
CONTINUOUS
 10
89.6785681305
 20
-3.215187383
 11
89.6193197634
 21
-3.0663507863
  0
LINE
  5
29E
100
AcDbEntity
  8
RACCORDO
100
AcDbLine
 62
253
  6
CONTINUOUS
 10
86.7013517263
 20
47.9908834129
 11
86.7013517263
 21
47.7596264027
  0
LINE
  5
29F
100
AcDbEntity
  8
RACCORDO
100
AcDbLine
 62
253
  6
CONTINUOUS
 10
86.7013517263
 20
-47.0091165871
 11
86.7013517263
 21
-46.7778647057
  0
LINE
  5
2A0
100
AcDbEntity
  8
RACCORDO
100
AcDbLine
 62
253
  6
CONTINUOUS
 10
88.7472906796
 20
-11.2591165886
 11
88.7472906796
 21
12.2408834199
  0
LINE
  5
2A1
100
AcDbEntity
  8
RACCORDO
100
AcDbLine
 62
253
  6
CONTINUOUS
 10
89.4641382471
 20
-11.2591137906
 11
89.4641382471
 21
12.2408806219
  0
LINE
  5
2A2
100
AcDbEntity
  8
RACCORDO
100
AcDbLine
 62
7
  6
CONTINUOUS
 10
89.5965361677
 20
-2.5706283556
 11
89.5965361677
 21
3.5523951814
  0
LINE
  5
2A3
100
AcDbEntity
  8
RACCORDO
100
AcDbLine
 62
7
  6
CONTINUOUS
 10
89.7013517263
 20
-44.0091165871
 11
89.7013517263
 21
-3.7109098137
  0
LINE
  5
2A4
100
AcDbEntity
  8
RACCORDO
100
AcDbLine
 62
7
  6
CONTINUOUS
 10
89.7013517263
 20
4.6926766396
 11
89.7013517263
 21
44.9908834129
  0
LWPOLYLINE
  5
2A5
100
AcDbEntity
  8
RACCORDO
100
AcDbPolyline
 62
7
  6
CONTINUOUS
 90
9
 70
0
 10
-83.6352972337
 20
47.7351676178
 10
-83.7849260545
 20
47.6910841862
 10
-83.9259368307
 20
47.6242347377
 10
-84.0548921957
 20
47.5362112774
 10
-84.1686191549
 20
47.4291385458
 10
-84.2643007338
 20
47.3056382961
 10
-84.3395910082
 20
47.1687169653
 10
-84.3926402501
 20
47.0217110386
 10
-84.4001069428
 20
46.9928539594
  0
LINE
  5
2A6
100
AcDbEntity
  8
RACCORDO
100
AcDbLine
 62
253
  6
CONTINUOUS
 10
-78.9882119368
 20
-44.0091165871
 11
-83.4062440034
 21
-44.0091099808
  0
LINE
  5
2A7
100
AcDbEntity
  8
RACCORDO
100
AcDbLine
 62
7
  6
CONTINUOUS
 10
-78.9882119368
 20
-47.0091165871
 11
-83.4805779218
 21
-46.7736816621
  0
LINE
  5
2A8
100
AcDbEntity
  8
0
100
AcDbLine
 62
7
  6
CONTINUOUS
 10
-87.0605706222
 20
-28.4464151126
 11
-87.0004138701
 21
-28.4464151126
  0
LINE
  5
2A9
100
AcDbEntity
  8
0
100
AcDbLine
 62
7
  6
CONTINUOUS
 10
-87.1577337296
 20
-27.0773215262
 11
-87.0976270904
 21
-27.0773215262
  0
LINE
  5
2AA
100
AcDbEntity
  8
0
100
AcDbLine
 62
7
  6
CONTINUOUS
 10
-87.15837699
 20
-27.0741896633
 11
-87.0983543965
 21
-27.0741896633
  0
LINE
  5
2AB
100
AcDbEntity
  8
0
100
AcDbLine
 62
7
  6
CONTINUOUS
 10
-87.1838324434
 20
-25.5155413457
 11
-87.2438841676
 21
-25.5155413457
  0
LINE
  5
2AC
100
AcDbEntity
  8
RACCORDO
100
AcDbLine
 62
253
  6
CONTINUOUS
 10
-87.7878191122
 20
-21.7592759722
 11
-87.9878316873
 21
-21.7594098579
  0
LWPOLYLINE
  5
2AD
100
AcDbEntity
  8
RACCORDO
100
AcDbPolyline
 62
7
  6
CONTINUOUS
 90
6
 70
0
 10
-87.5602452983
 20
25.0881673208
 10
-87.5908482549
 20
25.0331864726
 10
-87.6194870771
 20
24.9840684712
 10
-87.6442784461
 20
24.9432046695
 10
-87.6639317695
 20
24.9118197752
 10
-87.6790276207
 20
24.8882840707
  0
LINE
  5
2AE
100
AcDbEntity
  8
RACCORDO
100
AcDbLine
 62
7
  6
CONTINUOUS
 10
-87.5542258025
 20
25.0999501269
 11
-87.6553300475
 21
24.9257738994
  0
LINE
  5
2AF
100
AcDbEntity
  8
RACCORDO
100
AcDbLine
 62
7
  6
CONTINUOUS
 10
-87.6790276207
 20
24.8882840707
 11
-87.6905067653
 21
24.8707050983
  0
LINE
  5
2B0
100
AcDbEntity
  8
RACCORDO
100
AcDbLine
 62
7
  6
CONTINUOUS
 10
-87.6905067653
 20
24.8707050983
 11
-87.7003563013
 21
24.8558339297
  0
LINE
  5
2B1
100
AcDbEntity
  8
RACCORDO
100
AcDbLine
 62
7
  6
CONTINUOUS
 10
-87.7003563013
 20
24.8558339297
 11
-87.7070841867
 21
24.8457875915
  0
LINE
  5
2B2
100
AcDbEntity
  8
RACCORDO
100
AcDbLine
 62
7
  6
CONTINUOUS
 10
-87.7070841867
 20
24.8457875915
 11
-87.7162072848
 21
24.832307794
  0
LINE
  5
2B3
100
AcDbEntity
  8
RACCORDO
100
AcDbLine
 62
7
  6
CONTINUOUS
 10
-87.7162072848
 20
24.832307794
 11
-87.7261156073
 21
24.8178474259
  0
LINE
  5
2B4
100
AcDbEntity
  8
RACCORDO
100
AcDbLine
 62
7
  6
CONTINUOUS
 10
-87.6802023576
 20
24.8862255971
 11
-87.7890474631
 21
24.7302575238
  0
LINE
  5
2B5
100
AcDbEntity
  8
RACCORDO
100
AcDbLine
 62
7
  6
CONTINUOUS
 10
-87.7693162398
 20
-23.7768996341
 11
-87.6655402502
 21
-23.9281986959
  0
LINE
  5
2B6
100
AcDbEntity
  8
RACCORDO
100
AcDbLine
 62
7
  6
CONTINUOUS
 10
-87.698779167
 20
-23.8783498193
 11
-87.6643020862
 21
-23.9294628507
  0
LINE
  5
2B7
100
AcDbEntity
  8
RACCORDO
100
AcDbLine
 62
7
  6
CONTINUOUS
 10
-87.6643020862
 20
-23.9294628507
 11
-87.5778959405
 21
-24.07435719
  0
LINE
  5
2B8
100
AcDbEntity
  8
RACCORDO
100
AcDbLine
 62
7
  6
CONTINUOUS
 10
-87.6553301042
 20
-23.9440066787
 11
-87.5542240535
 21
-24.1181862846
  0
LWPOLYLINE
  5
2B9
100
AcDbEntity
  8
RACCORDO
100
AcDbPolyline
 62
7
  6
CONTINUOUS
 90
3
 70
0
 10
-87.3991920336
 20
25.4361512839
 10
-87.4298702703
 20
25.3600476748
 10
-87.4615563802
 20
25.2871657787
  0
LINE
  5
2BA
100
AcDbEntity
  8
RACCORDO
100
AcDbLine
 62
7
  6
CONTINUOUS
 10
-87.3807681226
 20
25.4866330945
 11
-87.4621147575
 21
25.2869872239
  0
LWPOLYLINE
  5
2BB
100
AcDbEntity
  8
RACCORDO
100
AcDbPolyline
 62
7
  6
CONTINUOUS
 90
4
 70
0
 10
-87.4615563802
 20
25.2871657787
 10
-87.4944355082
 20
25.2166542626
 10
-87.5279512512
 20
25.149316402
 10
-87.5602452983
 20
25.0881673208
  0
LINE
  5
2BC
100
AcDbEntity
  8
RACCORDO
100
AcDbLine
 62
7
  6
CONTINUOUS
 10
-87.4621147575
 20
25.2869872239
 11
-87.5542258025
 21
25.0999501269
  0
LINE
  5
2BD
100
AcDbEntity
  8
RACCORDO
100
AcDbLine
 62
7
  6
CONTINUOUS
 10
-87.5778959405
 20
-24.07435719
 11
-87.498366665
 21
-24.2267646238
  0
LINE
  5
2BE
100
AcDbEntity
  8
RACCORDO
100
AcDbLine
 62
7
  6
CONTINUOUS
 10
-87.5542240535
 20
-24.1181862846
 11
-87.4621121787
 21
-24.3052258887
  0
LINE
  5
2BF
100
AcDbEntity
  8
RACCORDO
100
AcDbLine
 62
7
  6
CONTINUOUS
 10
-87.498366665
 20
-24.2267646238
 11
-87.426690724
 21
-24.3858956017
  0
LINE
  5
2C0
100
AcDbEntity
  8
RACCORDO
100
AcDbLine
 62
7
  6
CONTINUOUS
 10
-87.4621121787
 20
-24.3052258887
 11
-87.380765496
 21
-24.504873255
  0
LWPOLYLINE
  5
2C1
100
AcDbEntity
  8
RACCORDO
100
AcDbPolyline
 62
7
  6
CONTINUOUS
 90
3
 70
0
 10
-87.426690724
 20
-24.3858956017
 10
-87.3633341508
 20
-24.5519546212
 10
-87.3085738579
 20
-24.7262587265
  0
LINE
  5
2C2
100
AcDbEntity
  8
SUPERFICI
100
AcDbLine
 62
7
  6
CONTINUOUS
 10
-85.3903571512
 20
42.2163269219
 11
-85.4889903729
 21
41.6622503756
  0
LINE
  5
2C3
100
AcDbEntity
  8
SUPERFICI
100
AcDbLine
 62
7
  6
CONTINUOUS
 10
-85.2943312795
 20
42.7423045425
 11
-85.3903571512
 21
42.2163269219
  0
LINE
  5
2C4
100
AcDbEntity
  8
SUPERFICI
100
AcDbLine
 62
7
  6
CONTINUOUS
 10
-85.1919486963
 20
43.2881078242
 11
-85.2943312795
 21
42.7423045425
  0
LINE
  5
2C5
100
AcDbEntity
  8
SUPERFICI
100
AcDbLine
 62
7
  6
CONTINUOUS
 10
-85.0880793518
 20
43.8259585236
 11
-85.1919486963
 21
43.2881078242
  0
LINE
  5
2C6
100
AcDbEntity
  8
SUPERFICI
100
AcDbLine
 62
7
  6
CONTINUOUS
 10
-85.0096415243
 20
44.2215533252
 11
-85.0880793518
 21
43.8259585236
  0
LINE
  5
2C7
100
AcDbEntity
  8
SUPERFICI
100
AcDbLine
 62
7
  6
CONTINUOUS
 10
-85.2542250927
 20
43.1085949056
 11
-85.3412245147
 21
42.6699591734
  0
LINE
  5
2C8
100
AcDbEntity
  8
SUPERFICI
100
AcDbLine
 62
7
  6
CONTINUOUS
 10
-84.9309478117
 20
44.609353472
 11
-85.0096415243
 21
44.2215533252
  0
LINE
  5
2C9
100
AcDbEntity
  8
SUPERFICI
100
AcDbLine
 62
7
  6
CONTINUOUS
 10
-85.1490116595
 20
43.6260169844
 11
-85.2542250927
 21
43.1085949056
  0
LINE
  5
2CA
100
AcDbEntity
  8
SUPERFICI
100
AcDbLine
 62
7
  6
CONTINUOUS
 10
-84.8521337929
 20
44.9886875519
 11
-84.9309478117
 21
44.609353472
  0
LINE
  5
2CB
100
AcDbEntity
  8
SUPERFICI
100
AcDbLine
 62
7
  6
CONTINUOUS
 10
-85.044827655
 20
44.1253021224
 11
-85.1490116595
 21
43.6260169844
  0
LINE
  5
2CC
100
AcDbEntity
  8
SUPERFICI
100
AcDbLine
 62
7
  6
CONTINUOUS
 10
-84.7733033944
 20
45.3591017186
 11
-84.8521337929
 21
44.9886875519
  0
LINE
  5
2CD
100
AcDbEntity
  8
SUPERFICI
100
AcDbLine
 62
7
  6
CONTINUOUS
 10
-84.9414135874
 20
44.6089525846
 11
-85.044827655
 21
44.1253021224
  0
LINE
  5
2CE
100
AcDbEntity
  8
SUPERFICI
100
AcDbLine
 62
7
  6
CONTINUOUS
 10
-84.6945320447
 20
45.7203235897
 11
-84.7733033944
 21
45.3591017186
  0
LINE
  5
2CF
100
AcDbEntity
  8
SUPERFICI
100
AcDbLine
 62
7
  6
CONTINUOUS
 10
-84.8387361455
 20
45.0781852304
 11
-84.9414135874
 21
44.6089525846
  0
LINE
  5
2D0
100
AcDbEntity
  8
SUPERFICI
100
AcDbLine
 62
7
  6
CONTINUOUS
 10
-84.6158529736
 20
46.0723038814
 11
-84.6945320447
 21
45.7203235897
  0
LINE
  5
2D1
100
AcDbEntity
  8
SUPERFICI
100
AcDbLine
 62
7
  6
CONTINUOUS
 10
-84.73677346
 20
45.5340333545
 11
-84.8387361455
 21
45.0781852304
  0
LINE
  5
2D2
100
AcDbEntity
  8
SUPERFICI
100
AcDbLine
 62
7
  6
CONTINUOUS
 10
-84.696226449
 20
45.7126171601
 11
-84.73677346
 21
45.5340333545
  0
LINE
  5
2D3
100
AcDbEntity
  8
SUPERFICI
100
AcDbLine
 62
7
  6
CONTINUOUS
 10
-84.5375278782
 20
46.4140231004
 11
-84.6158529736
 21
46.0723038814
  0
LINE
  5
2D4
100
AcDbEntity
  8
RACCORDO
100
AcDbLine
 62
7
  6
CONTINUOUS
 10
-87.199604121
 20
26.4163535885
 11
-87.1995899941
 21
26.4164146289
  0
LINE
  5
2D5
100
AcDbEntity
  8
SUPERFICI
100
AcDbLine
 62
7
  6
CONTINUOUS
 10
-84.460523862
 20
46.7416071002
 11
-84.5375278782
 21
46.4140231004
  0
LINE
  5
2D6
100
AcDbEntity
  8
SUPERFICI
100
AcDbLine
 62
7
  6
CONTINUOUS
 10
-84.4001101689
 20
46.9928470939
 11
-84.460523862
 21
46.7416071002
  0
LINE
  5
2D7
100
AcDbEntity
  8
RACCORDO
100
AcDbLine
 62
7
  6
CONTINUOUS
 10
-87.2577433959
 20
25.9217569068
 11
-87.312013644
 21
25.6984589646
  0
LINE
  5
2D8
100
AcDbEntity
  8
RACCORDO
100
AcDbLine
 62
7
  6
CONTINUOUS
 10
-87.312013644
 20
25.6984589646
 11
-87.3807681226
 21
25.4866330945
  0
LWPOLYLINE
  5
2D9
100
AcDbEntity
  8
RACCORDO
100
AcDbPolyline
 62
7
  6
CONTINUOUS
 90
3
 70
0
 10
-87.3424682641
 20
25.5958682558
 10
-87.3699915611
 20
25.5147940832
 10
-87.3991920336
 20
25.4361512839
  0
LINE
  5
2DA
100
AcDbEntity
  8
RACCORDO
100
AcDbLine
 62
253
  6
CONTINUOUS
 10
-87.9882110576
 20
-11.2591165834
 11
-83.514514757
 21
-11.2591137906
  0
LINE
  5
2DB
100
AcDbEntity
  8
RACCORDO
100
AcDbLine
 62
7
  6
CONTINUOUS
 10
-87.380765496
 20
-24.504873255
 11
-87.3120116166
 21
-24.7166991715
  0
LINE
  5
2DC
100
AcDbEntity
  8
RACCORDO
100
AcDbLine
 62
7
  6
CONTINUOUS
 10
-87.3120116166
 20
-24.7166991715
 11
-87.2577556408
 21
-24.939940699
  0
LINE
  5
2DD
100
AcDbEntity
  8
SUPERFICI
100
AcDbLine
 62
7
  6
CONTINUOUS
 10
-84.4744862855
 20
-45.7006101694
 11
-84.3999776631
 21
-46.0111334158
  0
LINE
  5
2DE
100
AcDbEntity
  8
SUPERFICI
100
AcDbLine
 62
7
  6
CONTINUOUS
 10
-84.5559043047
 20
-45.3524614952
 11
-84.4744862855
 21
-45.7006101694
  0
LINE
  5
2DF
100
AcDbEntity
  8
SUPERFICI
100
AcDbLine
 62
7
  6
CONTINUOUS
 10
-84.63290692
 20
-45.0146385286
 11
-84.5559043047
 21
-45.3524614952
  0
LINE
  5
2E0
100
AcDbEntity
  8
SUPERFICI
100
AcDbLine
 62
7
  6
CONTINUOUS
 10
-84.7760334349
 20
-44.3778979337
 11
-84.6937264538
 21
-44.7417881031
  0
LINE
  5
2E1
100
AcDbEntity
  8
SUPERFICI
100
AcDbLine
 62
7
  6
CONTINUOUS
 10
-84.7057858922
 20
-44.6871833585
 11
-84.63290692
 21
-45.0146385286
  0
LINE
  5
2E2
100
AcDbEntity
  8
SUPERFICI
100
AcDbLine
 62
7
  6
CONTINUOUS
 10
-84.877309334
 20
-43.921375471
 11
-84.7760334349
 21
-44.3778979337
  0
LINE
  5
2E3
100
AcDbEntity
  8
SUPERFICI
100
AcDbLine
 62
7
  6
CONTINUOUS
 10
-84.774890109
 20
-44.3696940381
 11
-84.7057858922
 21
-44.6871833585
  0
LINE
  5
2E4
100
AcDbEntity
  8
SUPERFICI
100
AcDbLine
 62
7
  6
CONTINUOUS
 10
-84.9799363919
 20
-43.4483582813
 11
-84.877309334
 21
-43.921375471
  0
LINE
  5
2E5
100
AcDbEntity
  8
SUPERFICI
100
AcDbLine
 62
7
  6
CONTINUOUS
 10
-84.8617123967
 20
-43.9610687024
 11
-84.774890109
 21
-44.3696940381
  0
LINE
  5
2E6
100
AcDbEntity
  8
SUPERFICI
100
AcDbLine
 62
7
  6
CONTINUOUS
 10
-85.0832946312
 20
-42.9606417865
 11
-84.9799363919
 21
-43.4483582813
  0
LINE
  5
2E7
100
AcDbEntity
  8
SUPERFICI
100
AcDbLine
 62
7
  6
CONTINUOUS
 10
-84.9430909794
 20
-43.5681407519
 11
-84.8617123967
 21
-43.9610687024
  0
LINE
  5
2E8
100
AcDbEntity
  8
SUPERFICI
100
AcDbLine
 62
7
  6
CONTINUOUS
 10
-85.1868860198
 20
-42.4595722069
 11
-85.0832946312
 21
-42.9606417865
  0
LINE
  5
2E9
100
AcDbEntity
  8
SUPERFICI
100
AcDbLine
 62
7
  6
CONTINUOUS
 10
-85.0196853463
 20
-43.1894710815
 11
-84.9430909794
 21
-43.5681407519
  0
LINE
  5
2EA
100
AcDbEntity
  8
SUPERFICI
100
AcDbLine
 62
7
  6
CONTINUOUS
 10
-85.2903898217
 20
-41.9457210183
 11
-85.1868860198
 21
-42.4595722069
  0
LINE
  5
2EB
100
AcDbEntity
  8
SUPERFICI
100
AcDbLine
 62
7
  6
CONTINUOUS
 10
-85.3413786034
 20
-41.6874063601
 11
-85.2903898217
 21
-41.9457210183
  0
LINE
  5
2EC
100
AcDbEntity
  8
SUPERFICI
100
AcDbLine
 62
7
  6
CONTINUOUS
 10
-85.1095709032
 20
-42.7340808463
 11
-85.0196853463
 21
-43.1894710815
  0
LINE
  5
2ED
100
AcDbEntity
  8
SUPERFICI
100
AcDbLine
 62
7
  6
CONTINUOUS
 10
-85.1931607291
 20
-42.2998599968
 11
-85.1095709032
 21
-42.7340808463
  0
LINE
  5
2EE
100
AcDbEntity
  8
SUPERFICI
100
AcDbLine
 62
7
  6
CONTINUOUS
 10
-85.2851543311
 20
-41.8100055133
 11
-85.1931607291
 21
-42.2998599968
  0
LINE
  5
2EF
100
AcDbEntity
  8
SUPERFICI
100
AcDbLine
 62
7
  6
CONTINUOUS
 10
-85.3815007756
 20
-41.2835651712
 11
-85.2851543311
 21
-41.8100055133
  0
LINE
  5
2F0
100
AcDbEntity
  8
SUPERFICI
100
AcDbLine
 62
7
  6
CONTINUOUS
 10
-85.4843462376
 20
-40.7068206346
 11
-85.3815007756
 21
-41.2835651712
  0
LINE
  5
2F1
100
AcDbEntity
  8
RACCORDO
100
AcDbLine
 62
7
  6
CONTINUOUS
 10
-87.2198685907
 20
26.1555144903
 11
-87.2577433959
 21
25.9217569068
  0
LINE
  5
2F2
100
AcDbEntity
  8
SUPERFICI
100
AcDbLine
 62
7
  6
CONTINUOUS
 10
-85.4889903729
 20
41.6622503756
 11
-85.5525644863
 21
41.2983259521
  0
LINE
  5
2F3
100
AcDbEntity
  8
0
100
AcDbLine
 62
7
  6
CONTINUOUS
 10
-87.1577692747
 20
-27.0773215262
 11
-87.15837699
 21
-27.0741896633
  0
LWPOLYLINE
  5
2F4
100
AcDbEntity
  8
RACCORDO
100
AcDbPolyline
 62
7
  6
CONTINUOUS
 90
4
 70
0
 10
-87.2633109754
 20
-24.909214026
 10
-87.2288955159
 20
-25.0995666613
 10
-87.2064668107
 20
-25.2960594068
 10
-87.1988935177
 20
-25.4233313863
  0
LINE
  5
2F5
100
AcDbEntity
  8
SUPERFICI
100
AcDbLine
 62
7
  6
CONTINUOUS
 10
-85.551898207
 20
-40.3203636502
 11
-85.4843462376
 21
-40.7068206346
  0
LWPOLYLINE
  5
2F6
100
AcDbEntity
  8
RACCORDO
100
AcDbPolyline
 62
7
  6
CONTINUOUS
 90
3
 70
0
 10
-87.2577556408
 20
-24.939940699
 10
-87.2198681051
 20
-25.1737520324
 10
-87.1996165721
 20
-25.4342205765
  0
LINE
  5
2F7
100
AcDbEntity
  8
RACCORDO
100
AcDbLine
 62
7
  6
CONTINUOUS
 10
-87.1995900043
 20
-25.4346475017
 11
-87.1996064538
 21
-25.4345177381
  0
LINE
  5
2F8
100
AcDbEntity
  8
SUPERFICI
100
AcDbLine
 62
7
  6
CONTINUOUS
 10
-87.1988935697
 20
-25.4233299762
 11
-87.1953203421
 21
-25.5155413457
  0
LINE
  5
2F9
100
AcDbEntity
  8
0
100
AcDbLine
 62
7
  6
CONTINUOUS
 10
-87.9876244504
 20
-23.1457112009
 11
-87.9875293444
 21
-23.1592144035
  0
LINE
  5
2FA
100
AcDbEntity
  8
RACCORDO
100
AcDbLine
 62
253
  6
CONTINUOUS
 10
-87.7901933231
 20
-11.2591166495
 11
-87.7901933243
 21
12.240883443
  0
LINE
  5
2FB
100
AcDbEntity
  8
RACCORDO
100
AcDbLine
 62
253
  6
CONTINUOUS
 10
-87.1986667464
 20
-11.2591165241
 11
-87.1986667464
 21
12.240883271
  0
LINE
  5
2FC
100
AcDbEntity
  8
0
100
AcDbLine
 62
7
  6
CONTINUOUS
 10
-87.9882119385
 20
-11.2591166137
 11
-87.9875223928
 21
-22.8578065582
  0
LINE
  5
2FD
100
AcDbEntity
  8
0
100
AcDbLine
 62
7
  6
CONTINUOUS
 10
-87.9875236693
 20
-22.8560484796
 11
-87.9876244504
 21
-23.1457112009
  0
LINE
  5
2FE
100
AcDbEntity
  8
0
100
AcDbLine
 62
7
  6
CONTINUOUS
 10
-87.9876289268
 20
-21.9996288389
 11
-87.9878352921
 21
-22.1098604379
  0
LINE
  5
2FF
100
AcDbEntity
  8
0
100
AcDbLine
 62
7
  6
CONTINUOUS
 10
-87.9875471207
 20
24.1333457802
 11
-87.9882110577
 21
-11.2591165871
  0
LINE
  5
300
100
AcDbEntity
  8
0
100
AcDbLine
 62
7
  6
CONTINUOUS
 10
-87.9875293448
 20
24.1409811814
 11
-87.9876244503
 21
24.1274780556
  0
LINE
  5
301
100
AcDbEntity
  8
SUPERFICI
100
AcDbLine
 62
7
  6
CONTINUOUS
 10
-87.1832601525
 20
26.8652897797
 11
-87.1996166449
 21
26.4159857474
  0
LINE
  5
302
100
AcDbEntity
  8
SUPERFICI
100
AcDbLine
 62
7
  6
CONTINUOUS
 10
-87.1670308723
 20
27.2627966213
 11
-87.1832601525
 21
26.8652897797
  0
LINE
  5
303
100
AcDbEntity
  8
SUPERFICI
100
AcDbLine
 62
7
  6
CONTINUOUS
 10
-87.1801561541
 20
26.8656553742
 11
-87.1988936226
 21
26.405096455
  0
LINE
  5
304
100
AcDbEntity
  8
SUPERFICI
100
AcDbLine
 62
7
  6
CONTINUOUS
 10
-87.1703590971
 20
27.0882645631
 11
-87.1801561541
 21
26.8656553742
  0
LWPOLYLINE
  5
305
100
AcDbEntity
  8
RACCORDO
100
AcDbPolyline
 62
7
  6
CONTINUOUS
 90
10
 70
0
 10
-87.1988935806
 20
26.4050979619
 10
-87.2036694548
 20
26.3153493987
 10
-87.2116710134
 20
26.2203542806
 10
-87.2226033748
 20
26.1262918891
 10
-87.2363338723
 20
26.033626317
 10
-87.2527548287
 20
25.9424336883
 10
-87.2717576982
 20
25.8527845761
 10
-87.2931370735
 20
25.7651141896
 10
-87.3167554115
 20
25.6794559864
 10
-87.3424682641
 20
25.5958682558
  0
LINE
  5
306
100
AcDbEntity
  8
RACCORDO
100
AcDbLine
 62
7
  6
CONTINUOUS
 10
-87.1996164584
 20
26.4159881753
 11
-87.2198685907
 21
26.1555144903
  0
LINE
  5
307
100
AcDbEntity
  8
RACCORDO
100
AcDbLine
 62
7
  6
CONTINUOUS
 10
-79.4229488407
 20
-3.215187383
 11
-80.5534750329
 21
-3.0663507863
  0
LINE
  5
308
100
AcDbEntity
  8
RACCORDO
100
AcDbLine
 62
253
  6
CONTINUOUS
 10
-84.4216585755
 20
-11.2591165886
 11
-84.4216585755
 21
12.2408834199
  0
LINE
  5
309
100
AcDbEntity
  8
RACCORDO
100
AcDbLine
 62
253
  6
CONTINUOUS
 10
-83.514514757
 20
-11.2591137906
 11
-83.514514757
 21
12.2408806219
  0
LINE
  5
30A
100
AcDbEntity
  8
RACCORDO
100
AcDbLine
 62
7
  6
CONTINUOUS
 10
-80.9882119368
 20
-2.5706283556
 11
-80.9882119368
 21
3.5523951814
  0
LINE
  5
30B
100
AcDbEntity
  8
RACCORDO
100
AcDbLine
 62
7
  6
CONTINUOUS
 10
-80.5534750329
 20
4.0481176121
 11
-79.4229488407
 21
4.1969542089
  0
LINE
  5
30C
100
AcDbEntity
  8
SUPERFICI
100
AcDbLine
 62
7
  6
CONTINUOUS
 10
-78.9882119368
 20
-47.0091165871
 11
-78.9882119368
 21
-44.0091165871
  0
LINE
  5
30D
100
AcDbEntity
  8
RACCORDO
100
AcDbLine
 62
7
  6
CONTINUOUS
 10
-78.9882119368
 20
-44.0091165871
 11
-78.9882119368
 21
-3.7109098137
  0
LINE
  5
30E
100
AcDbEntity
  8
RACCORDO
100
AcDbLine
 62
7
  6
CONTINUOUS
 10
-78.9882119368
 20
4.6926766396
 11
-78.9882119368
 21
44.9908834129
  0
LINE
  5
30F
100
AcDbEntity
  8
SUPERFICI
100
AcDbLine
 62
7
  6
CONTINUOUS
 10
-78.9882119368
 20
44.9908834129
 11
-78.9882119368
 21
47.9908834129
  0
LINE
  5
310
100
AcDbEntity
  8
RACCORDO
100
AcDbLine
 62
253
  6
CONTINUOUS
 10
-83.514514757
 20
12.2408806219
 11
-87.988211059
 21
12.240883402
  0
LINE
  5
311
100
AcDbEntity
  8
0
100
AcDbLine
 62
7
  6
CONTINUOUS
 10
-87.0983628187
 20
-27.0747457836
 11
-87.0978078809
 21
-27.0742227144
  0
LINE
  5
312
100
AcDbEntity
  8
RACCORDO
100
AcDbLine
 62
253
  6
CONTINUOUS
 10
-87.7878172549
 20
22.7409614205
 11
-87.9878339227
 21
22.7410550819
  0
LINE
  5
313
100
AcDbEntity
  8
RACCORDO
100
AcDbLine
 62
7
  6
CONTINUOUS
 10
-83.4806999056
 20
47.755442095
 11
-83.6352972337
 21
47.7351676178
  0
LINE
  5
314
100
AcDbEntity
  8
RACCORDO
100
AcDbLine
 62
7
  6
CONTINUOUS
 10
-78.9882119368
 20
47.9908834129
 11
-83.4806918796
 21
47.7554425157
  0
LINE
  5
315
100
AcDbEntity
  8
RACCORDO
100
AcDbLine
 62
253
  6
CONTINUOUS
 10
-78.9882119368
 20
44.9908834129
 11
-83.4062440081
 21
44.990880387
  0
ARC
  5
316
100
AcDbEntity
  8
RACCORDO
100
AcDbCircle
 62
253
  6
CONTINUOUS
 10
602.880933581
 20
-29.2352994581
 40
534.659694775
100
AcDbArc
 50
179.4120069756
 51
179.5917531676
  0
ARC
  5
317
100
AcDbEntity
  8
RACCORDO
100
AcDbCircle
 62
253
  6
CONTINUOUS
 10
602.7632705084
 20
30.0070861855
 40
534.5393106027
100
AcDbArc
 50
180.3858333058
 51
180.5656177452
  0
ARC
  5
318
100
AcDbEntity
  8
RACCORDO
100
AcDbCircle
 62
253
  6
CONTINUOUS
 10
-577.3899893332
 20
30.2067760753
 40
533.57140569
100
AcDbArc
 50
359.411912614
 51
359.5920253953
  0
ARC
  5
319
100
AcDbEntity
  8
RACCORDO
100
AcDbCircle
 62
253
  6
CONTINUOUS
 10
-569.1174301992
 20
-29.1518869258
 40
525.298526112
100
AcDbArc
 50
0.4064239274
 51
0.5893812192
  0
ARC
  5
31A
100
AcDbEntity
  8
RACCORDO
100
AcDbCircle
 62
253
  6
CONTINUOUS
 10
-50.6054078149
 20
537.2109968709
 40
514.492071865
100
AcDbArc
 50
270.3446304172
 51
270.5306949835
  0
ARC
  5
31B
100
AcDbEntity
  8
RACCORDO
100
AcDbCircle
 62
253
  6
CONTINUOUS
 10
75.0077761719
 20
-536.1539357886
 40
514.416777727
100
AcDbArc
 50
90.3446439778
 51
90.5307352923
  0
ARC
  5
31C
100
AcDbEntity
  8
RACCORDO
100
AcDbCircle
 62
253
  6
CONTINUOUS
 10
-50.5997895237
 20
-535.4589300938
 40
513.7217529633
100
AcDbArc
 50
89.4691355624
 51
89.6554789002
  0
ARC
  5
31D
100
AcDbEntity
  8
RACCORDO
100
AcDbCircle
 62
253
  6
CONTINUOUS
 10
75.0138857949
 20
534.4446487011
 40
511.7259385417
100
AcDbArc
 50
269.4657900127
 51
269.6528762073
  0
ARC
  5
31E
100
AcDbEntity
  8
RACCORDO
100
AcDbCircle
 62
253
  6
CONTINUOUS
 10
67.0011875305
 20
-351.3796650431
 40
325.9566531312
100
AcDbArc
 50
89.8747963094
 51
90.0256082968
  0
ARC
  5
31F
100
AcDbEntity
  8
RACCORDO
100
AcDbCircle
 62
253
  6
CONTINUOUS
 10
67.4095584076
 20
-178.2407525077
 40
152.8172521531
100
AcDbArc
 50
89.714935705
 51
89.8860532728
  0
ARC
  5
320
100
AcDbEntity
  8
RACCORDO
100
AcDbCircle
 62
253
  6
CONTINUOUS
 10
68.2578707933
 20
-21.7346396017
 40
3.6911791852
100
AcDbArc
 50
269.6417934775
 51
279.2577109468
  0
ARC
  5
321
100
AcDbEntity
  8
RACCORDO
100
AcDbCircle
 62
253
  6
CONTINUOUS
 10
68.261876053
 20
-21.7597427485
 40
3.665758667
100
AcDbArc
 50
279.2590455683
 51
285.7472845362
  0
ARC
  5
322
100
AcDbEntity
  8
SUPERFICI
100
AcDbCircle
 62
7
  6
CONTINUOUS
 10
86.7013517263
 20
44.9908834129
 40
3.0
100
AcDbArc
 50
0.0
 51
90.0
  0
ARC
  5
323
100
AcDbEntity
  8
SUPERFICI
100
AcDbCircle
 62
7
  6
CONTINUOUS
 10
-62.2986482737
 20
44.9908834129
 40
3.0
100
AcDbArc
 50
90.0
 51
180.0
  0
ARC
  5
324
100
AcDbEntity
  8
SUPERFICI
100
AcDbCircle
 62
7
  6
CONTINUOUS
 10
86.7013517263
 20
-44.0091165871
 40
3.0
100
AcDbArc
 50
270.0
 51
360.0
  0
ARC
  5
325
100
AcDbEntity
  8
SUPERFICI
100
AcDbCircle
 62
7
  6
CONTINUOUS
 10
-62.2986482737
 20
-44.0091165871
 40
3.0
100
AcDbArc
 50
180.0
 51
270.0
  0
ARC
  5
326
100
AcDbEntity
  8
RACCORDO
100
AcDbCircle
 62
253
  6
CONTINUOUS
 10
86.7042970556
 20
-44.0123009762
 40
2.7655742604
100
AcDbArc
 50
269.9389799358
 51
0.0661108167
  0
ARC
  5
327
100
AcDbEntity
  8
RACCORDO
100
AcDbCircle
 62
253
  6
CONTINUOUS
 10
86.7043044104
 20
44.9940729638
 40
2.7655660773
100
AcDbArc
 50
359.9338562419
 51
90.0611726649
  0
ARC
  5
328
100
AcDbEntity
  8
RACCORDO
100
AcDbCircle
 62
253
  6
CONTINUOUS
 10
-62.3016015913
 20
44.9940730576
 40
2.7655656352
100
AcDbArc
 50
89.9388142099
 51
180.0660468621
  0
ARC
  5
329
100
AcDbEntity
  8
RACCORDO
100
AcDbCircle
 62
253
  6
CONTINUOUS
 10
-62.3016302634
 20
-44.0123629522
 40
2.76550748
100
AcDbArc
 50
179.9327411447
 51
270.0617809603
  0
ARC
  5
32A
100
AcDbEntity
  8
0
100
AcDbCircle
 62
7
  6
CONTINUOUS
 10
69.6538178836
 20
-27.7371311264
 40
0.8756629375
100
AcDbArc
 50
22.7245758723
 51
26.5707246637
  0
ARC
  5
32B
100
AcDbEntity
  8
0
100
AcDbCircle
 62
253
  6
CONTINUOUS
 10
-43.8486535373
 20
-21.7591126203
 40
0.3919941759
100
AcDbArc
 50
180.0005798072
 51
270.000769349
  0
ARC
  5
32C
100
AcDbEntity
  8
0
100
AcDbCircle
 62
253
  6
CONTINUOUS
 10
68.2513593979
 20
22.7408810902
 40
0.3919918459
100
AcDbArc
 50
0.000339509
 51
90.0011213342
  0
ARC
  5
32D
100
AcDbEntity
  8
0
100
AcDbCircle
 62
253
  6
CONTINUOUS
 10
68.2513596185
 20
-21.7591152515
 40
0.3919915472
100
AcDbArc
 50
269.9988464223
 51
359.9998047804
  0
ARC
  5
32E
100
AcDbEntity
  8
0
100
AcDbCircle
 62
253
  6
CONTINUOUS
 10
-43.848656166
 20
22.7408820773
 40
0.3919915472
100
AcDbArc
 50
89.9988464202
 51
179.9998047799
  0
ARC
  5
32F
100
AcDbEntity
  8
0
100
AcDbCircle
 62
7
  6
CONTINUOUS
 10
70.0817400096
 20
-27.3729033576
 40
0.3016853009
100
AcDbArc
 50
70.978800072
 51
80.058953383
  0
ARC
  5
330
100
AcDbEntity
  8
DRAFT
100
AcDbCircle
 62
7
  6
CONTINUOUS
 10
-43.8486482737
 20
-21.7591165871
 40
0.3
100
AcDbArc
 50
180.0
 51
270.0
  0
ARC
  5
331
100
AcDbEntity
  8
DRAFT
100
AcDbCircle
 62
7
  6
CONTINUOUS
 10
68.2513517263
 20
-21.7591165871
 40
0.3
100
AcDbArc
 50
270.0
 51
360.0
  0
ARC
  5
332
100
AcDbEntity
  8
DRAFT
100
AcDbCircle
 62
7
  6
CONTINUOUS
 10
68.2513517263
 20
22.7408834129
 40
0.3
100
AcDbArc
 50
0.0
 51
90.0
  0
ARC
  5
333
100
AcDbEntity
  8
DRAFT
100
AcDbCircle
 62
7
  6
CONTINUOUS
 10
-43.8486482737
 20
22.7408834129
 40
0.3
100
AcDbArc
 50
90.0
 51
180.0
  0
ARC
  5
334
100
AcDbEntity
  8
RACCORDO
100
AcDbCircle
 62
253
  6
CONTINUOUS
 10
-235.3825079441
 20
-22.353689247
 40
148.1932047505
100
AcDbArc
 50
359.8022921583
 51
0.1678559726
  0
ARC
  5
335
100
AcDbEntity
  8
0
100
AcDbCircle
 62
7
  6
CONTINUOUS
 10
-177.1038331469
 20
-30.8136180769
 40
90.0857312005
100
AcDbArc
 50
2.6837705161
 51
2.9745371031
  0
ARC
  5
336
100
AcDbEntity
  8
0
100
AcDbCircle
 62
7
  6
CONTINUOUS
 10
-165.9799945841
 20
-30.2595787555
 40
78.8881050888
100
AcDbArc
 50
2.5654323724
 51
3.0165975017
  0
ARC
  5
337
100
AcDbEntity
  8
0
100
AcDbCircle
 62
7
  6
CONTINUOUS
 10
-127.9629838498
 20
-28.5320501426
 40
40.891955506
100
AcDbArc
 50
2.5400501888
 51
2.7144295922
  0
ARC
  5
338
100
AcDbEntity
  8
0
100
AcDbCircle
 62
7
  6
CONTINUOUS
 10
-113.1926384357
 20
-27.8705886454
 40
26.1068084219
100
AcDbArc
 50
2.4017986464
 51
2.526391485
  0
ARC
  5
339
100
AcDbEntity
  8
RACCORDO
100
AcDbCircle
 62
253
  6
CONTINUOUS
 10
-239.1649411924
 20
23.3257126096
 40
151.9756547924
100
AcDbArc
 50
0.019868344
 51
0.1770965159
  0
ARC
  5
33A
100
AcDbEntity
  8
RACCORDO
100
AcDbCircle
 62
253
  6
CONTINUOUS
 10
-226.2819574168
 20
23.3268368399
 40
139.0926739641
100
AcDbArc
 50
359.753357893
 51
0.0212454827
  0
ARC
  5
33B
100
AcDbEntity
  8
RACCORDO
100
AcDbCircle
 62
253
  6
CONTINUOUS
 10
-189.8065899223
 20
23.061733571
 40
102.0192769745
100
AcDbArc
 50
359.8198485497
 51
359.9878135374
  0
ARC
  5
33C
100
AcDbEntity
  8
RACCORDO
100
AcDbCircle
 62
7
  6
CONTINUOUS
 10
-90.1978661489
 20
-25.536333476
 40
3.0
100
AcDbArc
 50
5.7691529286
 51
36.6191678489
  0
ARC
  5
33D
100
AcDbEntity
  8
RACCORDO
100
AcDbCircle
 62
7
  6
CONTINUOUS
 10
-90.1931347528
 20
-25.5422426395
 40
2.9995133762
100
AcDbArc
 50
6.059345993
 51
36.7276831109
  0
ARC
  5
33E
100
AcDbEntity
  8
RACCORDO
100
AcDbCircle
 62
7
  6
CONTINUOUS
 10
-90.187931433
 20
-25.5423460933
 40
2.9943454208
100
AcDbArc
 50
2.2316511611
 51
6.0718242893
  0
ARC
  5
33F
100
AcDbEntity
  8
RACCORDO
100
AcDbCircle
 62
7
  6
CONTINUOUS
 10
-83.4282411828
 20
-45.7750521683
 40
1.0
100
AcDbArc
 50
193.6555291517
 51
267.0
  0
ARC
  5
340
100
AcDbEntity
  8
RACCORDO
100
AcDbCircle
 62
253
  6
CONTINUOUS
 10
-83.3481807223
 20
-45.7797739301
 40
0.9994487731
100
AcDbArc
 50
187.632790592
 51
266.984413801
  0
ARC
  5
341
100
AcDbEntity
  8
0
100
AcDbCircle
 62
7
  6
CONTINUOUS
 10
-87.5418890282
 20
-27.1387520041
 40
0.4481208484
100
AcDbArc
 50
6.358742452
 51
8.211784058
  0
ARC
  5
342
100
AcDbEntity
  8
RACCORDO
100
AcDbCircle
 62
7
  6
CONTINUOUS
 10
-86.9875675546
 20
-23.1504976297
 40
1.0
100
AcDbArc
 50
178.2406864711
 51
216.7268876698
  0
ARC
  5
343
100
AcDbEntity
  8
RACCORDO
100
AcDbCircle
 62
7
  6
CONTINUOUS
 10
-79.4882119368
 20
-3.7109098137
 40
0.5
100
AcDbArc
 50
0.0
 51
82.5
  0
ARC
  5
344
100
AcDbEntity
  8
RACCORDO
100
AcDbCircle
 62
7
  6
CONTINUOUS
 10
-80.4882119368
 20
-2.5706283556
 40
0.5
100
AcDbArc
 50
180.0
 51
262.5
  0
ARC
  5
345
100
AcDbEntity
  8
0
100
AcDbCircle
 62
7
  6
CONTINUOUS
 10
29.1105635266
 20
-19.79528329
 40
116.492825504
100
AcDbArc
 50
183.9603636706
 51
184.1786176843
  0
ARC
  5
346
100
AcDbEntity
  8
0
100
AcDbCircle
 62
7
  6
CONTINUOUS
 10
27.8558743738
 20
-19.8861695273
 40
115.1748580554
100
AcDbArc
 50
183.9297175651
 51
184.1432788396
  0
ARC
  5
347
100
AcDbEntity
  8
0
100
AcDbCircle
 62
7
  6
CONTINUOUS
 10
22.5080235967
 20
-20.2657411181
 40
109.8735609747
100
AcDbArc
 50
183.8156292071
 51
183.9534171558
  0
ARC
  5
348
100
AcDbEntity
  8
RACCORDO
100
AcDbCircle
 62
7
  6
CONTINUOUS
 10
15.2232326766
 20
-21.9591165871
 40
102.4814446134
100
AcDbArc
 50
183.6296546445
 51
192.8387440706
  0
ARC
  5
349
100
AcDbEntity
  8
RACCORDO
100
AcDbCircle
 62
7
  6
CONTINUOUS
 10
-86.9875675545
 20
24.1322644556
 40
1.0
100
AcDbArc
 50
143.2731460103
 51
183.0423768523
  0
ARC
  5
34A
100
AcDbEntity
  8
RACCORDO
100
AcDbCircle
 62
7
  6
CONTINUOUS
 10
-86.9958869489
 20
24.1398330383
 40
0.9887899834
100
AcDbArc
 50
143.3361901587
 51
153.8467489219
  0
ARC
  5
34B
100
AcDbEntity
  8
RACCORDO
100
AcDbCircle
 62
7
  6
CONTINUOUS
 10
-79.4882119368
 20
4.6926766396
 40
0.5
100
AcDbArc
 50
277.5
 51
360.0
  0
ARC
  5
34C
100
AcDbEntity
  8
RACCORDO
100
AcDbCircle
 62
7
  6
CONTINUOUS
 10
-80.4882119368
 20
3.5523951814
 40
0.5
100
AcDbArc
 50
97.5
 51
180.0
  0
ARC
  5
34D
100
AcDbEntity
  8
RACCORDO
100
AcDbCircle
 62
7
  6
CONTINUOUS
 10
-90.1970705739
 20
26.5266035009
 40
3.0041822268
100
AcDbArc
 50
331.7911307418
 51
333.2651565387
  0
ARC
  5
34E
100
AcDbEntity
  8
RACCORDO
100
AcDbCircle
 62
7
  6
CONTINUOUS
 10
-90.1974397854
 20
26.5209637737
 40
3.0
100
AcDbArc
 50
323.3320765966
 51
358.0494678918
  0
ARC
  5
34F
100
AcDbEntity
  8
RACCORDO
100
AcDbCircle
 62
7
  6
CONTINUOUS
 10
-90.1928090628
 20
26.5239898472
 40
2.9992198517
100
AcDbArc
 50
326.902935785
 51
357.773932628
  0
ARC
  5
350
100
AcDbEntity
  8
RACCORDO
100
AcDbCircle
 62
7
  6
CONTINUOUS
 10
-90.1909794023
 20
26.5232494734
 40
2.9972428389
100
AcDbArc
 50
337.5053444249
 51
338.6049845272
  0
ARC
  5
351
100
AcDbEntity
  8
RACCORDO
100
AcDbCircle
 62
7
  6
CONTINUOUS
 10
-90.1883143792
 20
26.5221351867
 40
2.9943542604
100
AcDbArc
 50
335.4969897066
 51
337.505533398
  0
ARC
  5
352
100
AcDbEntity
  8
RACCORDO
100
AcDbCircle
 62
7
  6
CONTINUOUS
 10
-90.1866416324
 20
26.5189834829
 40
2.9913044591
100
AcDbArc
 50
323.2751011136
 51
326.2850860106
  0
ARC
  5
353
100
AcDbEntity
  8
RACCORDO
100
AcDbCircle
 62
7
  6
CONTINUOUS
 10
-90.185157639
 20
26.5207100839
 40
2.9908907693
100
AcDbArc
 50
334.1041917897
 51
335.4967507745
  0
ARC
  5
354
100
AcDbEntity
  8
RACCORDO
100
AcDbCircle
 62
253
  6
CONTINUOUS
 10
-83.3482545611
 20
46.7615713199
 40
0.9994513412
100
AcDbArc
 50
93.0170687739
 51
172.3827386851
  0
ARC
  5
355
100
AcDbEntity
  8
RACCORDO
100
AcDbCircle
 62
7
  6
CONTINUOUS
 10
15.2232326766
 20
22.9408834129
 40
102.4814446134
100
AcDbArc
 50
167.1645022599
 51
178.0551474289
  0
SPLINE
  5
356
100
AcDbEntity
  8
0
100
AcDbSpline
 62
7
  6
CONTINUOUS
 70
0
 71
3
 72
8
 73
4
 74
2
 42
0.0000001
 43
0.0000001
 44
0.0000000001
 12
-0.0498904054
 22
0.1327837641
 32
0.0
 13
-0.1037709054
 23
0.1139219362
 33
0.0
 40
0.0
 40
0.0
 40
0.0
 40
0.0
 40
1.0
 40
1.0
 40
1.0
 40
1.0
 10
69.9029360972
 20
-27.5670310347
 30
0.0
 10
69.8863059621
 20
-27.52276978
 30
0.0
 10
69.8587579043
 20
-27.4795002098
 30
0.0
 10
69.8241676025
 20
-27.441526231
 30
0.0
 11
69.9029360972
 21
-27.5670310347
 31
0.0
 11
69.8241676025
 21
-27.441526231
 31
0.0
  0
SPLINE
  5
357
100
AcDbEntity
  8
0
100
AcDbSpline
 62
7
  6
CONTINUOUS
 70
0
 71
3
 72
8
 73
4
 74
2
 42
0.0000001
 43
0.0000001
 44
0.0000000001
 12
-0.1712434769
 22
0.1879947792
 32
0.0
 13
-0.2340576391
 23
0.0434466851
 33
0.0
 40
0.0
 40
0.0
 40
0.0
 40
0.0
 40
1.0
 40
1.0
 40
1.0
 40
1.0
 10
69.8241676025
 20
-27.441526231
 30
0.0
 10
69.7670864435
 20
-27.3788613046
 30
0.0
 10
69.6908279639
 20
-27.3306172441
 30
0.0
 10
69.6128087509
 20
-27.3161350157
 30
0.0
 11
69.8241676025
 21
-27.441526231
 31
0.0
 11
69.6128087509
 21
-27.3161350157
 31
0.0
  0
SPLINE
  5
358
100
AcDbEntity
  8
0
100
AcDbSpline
 62
7
  6
CONTINUOUS
 70
0
 71
3
 72
8
 73
4
 74
2
 42
0.0000001
 43
0.0000001
 44
0.0000000001
 12
-0.0474450788
 22
0.0088069392
 32
0.0
 13
-0.0474439701
 23
0.0
 33
0.0
 40
0.0
 40
0.0
 40
0.0
 40
0.0
 40
1.0
 40
1.0
 40
1.0
 40
1.0
 10
69.6128087509
 20
-27.3161350157
 30
0.0
 10
69.5969937246
 20
-27.3131993693
 30
0.0
 10
69.5811063497
 20
-27.3116509984
 30
0.0
 10
69.565291693
 20
-27.3116509984
 30
0.0
 11
69.6128087509
 21
-27.3161350157
 31
0.0
 11
69.565291693
 21
-27.3116509984
 31
0.0
  0
SPLINE
  5
359
100
AcDbEntity
  8
0
100
AcDbSpline
 62
7
  6
CONTINUOUS
 70
0
 71
3
 72
14
 73
10
 74
8
 42
0.0000001
 43
0.0000001
 44
0.0000000001
 12
3.1515659739
 22
0.4636490195
 32
0.0
 13
-2.6128562963
 23
-1.849459451
 33
0.0
 40
0.0
 40
0.0
 40
0.0
 40
0.0
 40
0.3324874238
 40
0.4721101095
 40
0.5789086288
 40
0.7428692898
 40
0.8532709428
 40
0.9396144634
 40
1.0
 40
1.0
 40
1.0
 40
1.0
 10
68.6379236759
 20
-25.580639413
 30
0.0
 10
68.9872090264
 20
-25.5292535903
 30
0.0
 10
69.4877942251
 20
-25.4881389958
 30
0.0
 10
70.109635804
 20
-25.5674877397
 30
0.0
 10
70.4817011044
 20
-25.8269890866
 30
0.0
 10
70.631536695
 20
-26.2344357237
 30
0.0
 10
70.5876939868
 20
-26.6292512202
 30
0.0
 10
70.4529527291
 20
-26.8598079163
 30
0.0
 10
70.3460588819
 20
-26.9975912932
 30
0.0
 10
70.293465972
 20
-27.0348181603
 30
0.0
 11
68.6379236759
 21
-25.580639413
 31
0.0
 11
69.6955339631
 21
-25.523829995
 31
0.0
 11
70.131640901
 21
-25.6111682576
 31
0.0
 11
70.4082433232
 21
-25.8092360967
 31
0.0
 11
70.6021634577
 21
-26.2941967965
 31
0.0
 11
70.5598363507
 21
-26.6433235714
 31
0.0
 11
70.4289601015
 21
-26.8852365338
 31
0.0
 11
70.293465972
 21
-27.0348181603
 31
0.0
  0
SPLINE
  5
35A
100
AcDbEntity
  8
0
100
AcDbSpline
 62
7
  6
CONTINUOUS
 70
0
 71
3
 72
9
 73
5
 74
3
 42
0.0000001
 43
0.0000001
 44
0.0000000001
 12
-0.1038694707
 22
-0.0735219822
 32
0.0
 13
-0.1292482413
 23
-0.0053022368
 33
0.0
 40
0.0
 40
0.0
 40
0.0
 40
0.0
 40
0.8694189532
 40
1.0
 40
1.0
 40
1.0
 40
1.0
 10
70.293465972
 20
-27.0348181603
 30
0.0
 10
70.2633639432
 20
-27.0561252952
 30
0.0
 10
70.2254998247
 20
-27.0732936907
 30
0.0
 10
70.1830349685
 20
-27.0769282453
 30
0.0
 10
70.1774091783
 20
-27.0771590359
 30
0.0
 11
70.293465972
 21
-27.0348181603
 31
0.0
 11
70.1940467302
 21
-27.0757482664
 31
0.0
 11
70.1774091783
 21
-27.0771590359
 31
0.0
  0
SPLINE
  5
35B
100
AcDbEntity
  8
0
100
AcDbSpline
 62
7
  6
CONTINUOUS
 70
0
 71
3
 72
10
 73
6
 74
4
 42
0.0000001
 43
0.0000001
 44
0.0000000001
 12
0.3468747144
 22
-0.1193971361
 32
0.0
 13
0.1677560695
 23
-0.3347383386
 33
0.0
 40
0.0
 40
0.0
 40
0.0
 40
0.0
 40
0.0407424345
 40
0.9798693234
 40
1.0
 40
1.0
 40
1.0
 40
1.0
 10
70.1800646741
 20
-27.0876906631
 30
0.0
 10
70.1847755142
 20
-27.0893121731
 30
0.0
 10
70.2968661771
 20
-27.1309688114
 30
0.0
 10
70.3816726434
 20
-27.2362865716
 30
0.0
 10
70.4358701627
 20
-27.3431990329
 30
0.0
 10
70.4369958438
 20
-27.3454452026
 30
0.0
 11
70.1800646741
 21
-27.0876906631
 31
0.0
 11
70.1940467302
 21
-27.0928826892
 31
0.0
 11
70.4335834602
 21
-27.3387143625
 31
0.0
 11
70.4369958438
 21
-27.3454452026
 31
0.0
  0
SPLINE
  5
35C
100
AcDbEntity
  8
0
100
AcDbSpline
 62
7
  6
CONTINUOUS
 70
0
 71
3
 72
10
 73
6
 74
4
 42
0.0000001
 43
0.0000001
 44
0.0000000001
 12
0.4249215028
 22
-1.0120987702
 32
0.0
 13
0.2849939569
 23
-1.0493259536
 33
0.0
 40
0.0
 40
0.0
 40
0.0
 40
0.0
 40
0.2535612484
 40
0.6424129974
 40
1.0
 40
1.0
 40
1.0
 40
1.0
 10
70.4615052772
 20
-27.3988610354
 30
0.0
 10
70.4974198194
 20
-27.4844040446
 30
0.0
 10
70.5542992144
 20
-27.7086693151
 30
0.0
 10
70.6489516792
 20
-28.0593900748
 30
0.0
 10
70.7158799605
 20
-28.3213400051
 30
0.0
 10
70.7498500054
 20
-28.4464151126
 30
0.0
 11
70.4615052772
 21
-27.3988610354
 31
0.0
 11
70.5429322805
 21
-27.661602014
 31
0.0
 11
70.6509003446
 21
-28.0703982476
 31
0.0
 11
70.7498500054
 21
-28.4464151126
 31
0.0
  0
SPLINE
  5
35D
100
AcDbEntity
  8
0
100
AcDbSpline
 62
7
  6
CONTINUOUS
 70
0
 71
3
 72
9
 73
5
 74
3
 42
0.0000001
 43
0.0000001
 44
0.0000000001
 12
-0.2537560619
 22
0.8826174532
 32
0.0
 13
-0.3230096504
 23
0.8596930992
 33
0.0
 40
0.0
 40
0.0
 40
0.0
 40
0.0
 40
0.1342545964
 40
1.0
 40
1.0
 40
1.0
 40
1.0
 10
70.1676492819
 20
-28.4464151126
 30
0.0
 10
70.1562933093
 20
-28.4069166293
 30
0.0
 10
70.0702707396
 20
-28.1131855794
 30
0.0
 10
69.996150784
 20
-27.8151228252
 30
0.0
 10
69.9029360773
 20
-27.5670310421
 30
0.0
 11
70.1676492819
 21
-28.4464151126
 31
0.0
 11
70.1334099948
 21
-28.3279690663
 31
0.0
 11
69.9029360773
 21
-27.5670310421
 31
0.0
  0
SPLINE
  5
35E
100
AcDbEntity
  8
0
100
AcDbSpline
 62
7
  6
CONTINUOUS
 70
0
 71
3
 72
8
 73
4
 74
2
 42
0.0000001
 43
0.0000001
 44
0.0000000001
 12
0.307817616
 22
0.0068753307
 32
0.0
 13
0.2572058783
 23
0.1684594518
 33
0.0
 40
0.0
 40
0.0
 40
0.0
 40
0.0
 40
1.0
 40
1.0
 40
1.0
 40
1.0
 10
69.5665963445
 20
-26.8367578592
 30
0.0
 10
69.6692022164
 20
-26.8344660823
 30
0.0
 10
69.7812925134
 20
-26.8145515678
 30
0.0
 10
69.8670278062
 20
-26.7583984172
 30
0.0
 11
69.5665963445
 21
-26.8367578592
 31
0.0
 11
69.8670278062
 21
-26.7583984172
 31
0.0
  0
SPLINE
  5
35F
100
AcDbEntity
  8
0
100
AcDbSpline
 62
7
  6
CONTINUOUS
 70
0
 71
3
 72
9
 73
5
 74
3
 42
0.0000001
 43
0.0000001
 44
0.0000000001
 12
0.3471896397
 22
0.2273951776
 32
0.0
 13
-0.0245587128
 23
0.4373823938
 33
0.0
 40
0.0
 40
0.0
 40
0.0
 40
0.0
 40
0.0924363554
 40
1.0
 40
1.0
 40
1.0
 40
1.0
 10
69.8670278062
 20
-26.7583984172
 30
0.0
 10
69.8777254545
 20
-26.7513918901
 30
0.0
 10
69.9890164168
 20
-26.6694898962
 30
0.0
 10
70.0441376581
 20
-26.5173251064
 30
0.0
 10
70.0367081265
 20
-26.3850076532
 30
0.0
 11
69.8670278062
 21
-26.7583984172
 31
0.0
 11
69.8978201753
 21
-26.7356500874
 31
0.0
 11
70.0367081265
 21
-26.3850076532
 31
0.0
  0
SPLINE
  5
360
100
AcDbEntity
  8
0
100
AcDbSpline
 62
7
  6
CONTINUOUS
 70
0
 71
3
 72
10
 73
6
 74
4
 42
0.0000001
 43
0.0000001
 44
0.0000000001
 12
-0.0441830457
 22
0.7868851437
 32
0.0
 13
-0.7491159715
 23
-0.0323284766
 33
0.0
 40
0.0
 40
0.0
 40
0.0
 40
0.0
 40
0.3549251365
 40
0.7132367659
 40
1.0
 40
1.0
 40
1.0
 40
1.0
 10
70.0367081265
 20
-26.3850076532
 30
0.0
 10
70.0314809019
 20
-26.2919125476
 30
0.0
 10
69.9638609782
 20
-26.1106078384
 30
0.0
 10
69.712770023
 20
-26.0136122249
 30
0.0
 10
69.5509935228
 20
-26.0061583541
 30
0.0
 10
69.4793872166
 20
-26.0092485603
 30
0.0
 11
70.0367081265
 21
-26.3850076532
 31
0.0
 11
69.9365791964
 21
-26.1392340988
 31
0.0
 11
69.6948653293
 21
-26.0236773118
 31
0.0
 11
69.4793872166
 21
-26.0092485603
 31
0.0
  0
SPLINE
  5
361
100
AcDbEntity
  8
0
100
AcDbSpline
 62
7
  6
CONTINUOUS
 70
0
 71
3
 72
8
 73
4
 74
2
 42
0.0000001
 43
0.0000001
 44
0.0000000001
 12
-0.2605510634
 22
-0.0112442122
 32
0.0
 13
-0.2563594288
 23
-0.0437437478
 33
0.0
 40
0.0
 40
0.0
 40
0.0
 40
0.0
 40
1.0
 40
1.0
 40
1.0
 40
1.0
 10
69.4793872166
 20
-26.0092485603
 30
0.0
 10
69.3925368621
 20
-26.012996631
 30
0.0
 10
69.3061428913
 20
-26.0261652528
 30
0.0
 10
69.2206897484
 20
-26.0407465021
 30
0.0
 11
69.4793872166
 21
-26.0092485603
 31
0.0
 11
69.2206897484
 21
-26.0407465021
 31
0.0
  0
SPLINE
  5
362
100
AcDbEntity
  8
RACCORDO
100
AcDbSpline
 62
253
  6
CONTINUOUS
 70
0
 71
3
 72
30
 73
26
 74
24
 42
0.0000001
 43
0.0000001
 44
0.0000000001
 12
0.0000889675
 22
-32.7948591165
 32
0.0
 13
1.0061791249
 23
-32.7794201908
 33
0.0
 40
0.0
 40
0.0
 40
0.0
 40
0.0
 40
0.0938294562
 40
0.1795329761
 40
0.2580079477
 40
0.3300030012
 40
0.3961671479
 40
0.4570514661
 40
0.5131407203
 40
0.5648704921
 40
0.6126299386
 40
0.6567329539
 40
0.6975162236
 40
0.735279645
 40
0.7700736748
 40
0.8019531304
 40
0.8311249528
 40
0.8578096937
 40
0.8821736878
 40
0.9044790038
 40
0.924694377
 40
0.9428610616
 40
0.9603135085
 40
0.9790358699
 40
1.0
 40
1.0
 40
1.0
 40
1.0
 10
-64.3445814209
 20
-11.259116594
 30
0.0
 10
-64.3445786383
 20
-12.2848245262
 30
0.0
 10
-64.3426676346
 20
-14.2474107566
 30
0.0
 10
-64.337341614
 20
-17.0678501757
 30
0.0
 10
-64.3348323923
 20
-19.6496096991
 30
0.0
 10
-64.33752495
 20
-22.0177718417
 30
0.0
 10
-64.342444577
 20
-24.193634408
 30
0.0
 10
-64.3478592734
 20
-26.1956189975
 30
0.0
 10
-64.3525801696
 20
-28.0398137853
 30
0.0
 10
-64.3554316403
 20
-29.7405365749
 30
0.0
 10
-64.3551807039
 20
-31.3102335706
 30
0.0
 10
-64.3515908926
 20
-32.7602628248
 30
0.0
 10
-64.3460084592
 20
-34.1010117341
 30
0.0
 10
-64.338857126
 20
-35.3399891168
 30
0.0
 10
-64.3310105831
 20
-36.4816269966
 30
0.0
 10
-64.3216476674
 20
-37.5293310077
 30
0.0
 10
-64.3102111966
 20
-38.4883605592
 30
0.0
 10
-64.2985304934
 20
-39.3652233109
 30
0.0
 10
-64.2880644388
 20
-40.1670337214
 30
0.0
 10
-64.2773778771
 20
-40.8981138749
 30
0.0
 10
-64.2676751464
 20
-41.5614535874
 30
0.0
 10
-64.2630819967
 20
-42.1718124755
 30
0.0
 10
-64.2474792734
 20
-42.7656782484
 30
0.0
 10
-64.2240222637
 20
-43.3898585498
 30
0.0
 10
-64.2101348822
 20
-43.8234764442
 30
0.0
 10
-64.2031036588
 20
-44.052540454
 30
0.0
 11
-64.3445814209
 21
-11.259116594
 31
0.0
 11
-64.3420908291
 21
-14.3362393826
 31
0.0
 11
-64.3376406027
 21
-17.1468707221
 31
0.0
 11
-64.3357070639
 21
-19.7204456329
 31
0.0
 11
-64.338058402
 21
-22.0815120993
 31
0.0
 11
-64.342742188
 21
-24.2513509134
 31
0.0
 11
-64.3479508853
 21
-26.2480367575
 31
0.0
 11
-64.3524204369
 21
-28.0874705166
 31
0.0
 11
-64.3549644303
 21
-29.7839391865
 31
0.0
 11
-64.3545457226
 21
-31.350203449
 31
0.0
 11
-64.35107824
 21
-32.7965514674
 31
0.0
 11
-64.3454987294
 21
-34.1340214135
 31
0.0
 11
-64.3384332086
 21
-35.3724473423
 31
0.0
 11
-64.3303820469
 21
-36.5134842427
 31
0.0
 11
-64.3208394327
 21
-37.5589229493
 31
0.0
 11
-64.3096545659
 21
-38.5155433681
 31
0.0
 11
-64.2982334283
 21
-39.3905911562
 31
0.0
 11
-64.2875532426
 21
-40.1895335264
 31
0.0
 11
-64.2770427303
 21
-40.920957709
 31
0.0
 11
-64.2681740034
 21
-41.5838587019
 31
0.0
 11
-64.2611251149
 21
-42.1795908631
 31
0.0
 11
-64.2468048623
 21
-42.7517622276
 31
0.0
 11
-64.225477799
 21
-43.3653889234
 31
0.0
 11
-64.2031036588
 21
-44.052540454
 31
0.0
  0
SPLINE
  5
363
100
AcDbEntity
  8
RACCORDO
100
AcDbSpline
 62
253
  6
CONTINUOUS
 70
0
 71
3
 72
11
 73
7
 74
5
 42
0.0000001
 43
0.0000001
 44
0.0000000001
 12
-0.0034738787
 22
-10.48733599
 32
0.0
 13
-0.0526582251
 23
-10.4872043628
 33
0.0
 40
0.0
 40
0.0
 40
0.0
 40
0.0
 40
0.2766871695
 40
0.5350358866
 40
0.7764409655
 40
1.0
 40
1.0
 40
1.0
 40
1.0
 10
-47.5069374928
 20
-11.2591164299
 30
0.0
 10
-47.5072578854
 20
-12.2263535336
 30
0.0
 10
-47.5095610464
 20
-14.096719438
 30
0.0
 10
-47.5089506274
 20
-16.8109871298
 30
0.0
 10
-47.5052451542
 20
-19.3395236565
 30
0.0
 10
-47.5068610188
 20
-20.9649438577
 30
0.0
 10
-47.5107850928
 20
-21.7464469518
 30
0.0
 11
-47.5069374928
 21
-11.2591164299
 31
0.0
 11
-47.5089115601
 21
-14.1608272286
 31
0.0
 11
-47.5083581178
 21
-16.8702171195
 31
0.0
 11
-47.5062313839
 21
-19.4019125366
 31
0.0
 11
-47.5107850928
 21
-21.7464469518
 31
0.0
  0
SPLINE
  5
364
100
AcDbEntity
  8
RACCORDO
100
AcDbSpline
 62
253
  6
CONTINUOUS
 70
0
 71
3
 72
29
 73
25
 74
23
 42
0.0000001
 43
0.0000001
 44
0.0000000001
 12
-0.0284398836
 22
-5.7892674822
 32
0.0
 13
5.789241457
 23
0.0333190743
 33
0.0
 40
0.0
 40
0.0
 40
0.0
 40
0.0
 40
0.044699448
 40
0.0884135706
 40
0.1322889612
 40
0.1763294469
 40
0.219202448
 40
0.2599375846
 40
0.2987438805
 40
0.3363599029
 40
0.3735255254
 40
0.4105631524
 40
0.4474533486
 40
0.4842904004
 40
0.5208739407
 40
0.5576016387
 40
0.5964333705
 40
0.639204473
 40
0.6869727861
 40
0.7388043691
 40
0.7952684392
 40
0.8571171489
 40
0.9251429221
 40
1.0
 40
1.0
 40
1.0
 40
1.0
 10
-47.5107850928
 20
-21.7464469518
 30
0.0
 10
-47.5112088418
 20
-21.832705972
 30
0.0
 10
-47.5058920729
 20
-22.0034122043
 30
0.0
 10
-47.480428562
 20
-22.2576056752
 30
0.0
 10
-47.4383616536
 20
-22.5083121099
 30
0.0
 10
-47.3796071621
 20
-22.7539787775
 30
0.0
 10
-47.3059328219
 20
-22.989241243
 30
0.0
 10
-47.2201393448
 20
-23.2095307305
 30
0.0
 10
-47.1246106539
 20
-23.4146087366
 30
0.0
 10
-47.0199038666
 20
-23.6073378542
 30
0.0
 10
-46.9054851895
 20
-23.790446466
 30
0.0
 10
-46.7812230956
 20
-23.9652930531
 30
0.0
 10
-46.6477811094
 20
-24.1324110016
 30
0.0
 10
-46.5059591693
 20
-24.2913142481
 30
0.0
 10
-46.3554369275
 20
-24.4415698097
 30
0.0
 10
-46.1935879932
 20
-24.5854084155
 30
0.0
 10
-46.0141329115
 20
-24.726857134
 30
0.0
 10
-45.8079666737
 20
-24.8680206318
 30
0.0
 10
-45.5702095686
 20
-25.0062567228
 30
0.0
 10
-45.2981575116
 20
-25.1362528018
 30
0.0
 10
-44.9905075359
 20
-25.2521834713
 30
0.0
 10
-44.6431198205
 20
-25.3472969614
 30
0.0
 10
-44.2526694863
 20
-25.4121712858
 30
0.0
 10
-43.976557407
 20
-25.4265779442
 30
0.0
 10
-43.8321021742
 20
-25.4257465547
 30
0.0
 11
-47.5107850928
 21
-21.7464469518
 31
0.0
 11
-47.5028418959
 21
-22.0051051989
 31
0.0
 11
-47.4776866752
 21
-22.2569277087
 31
0.0
 11
-47.4355755989
 21
-22.5074221226
 31
0.0
 11
-47.3762277202
 21
-22.7553840088
 31
0.0
 11
-47.3019798774
 21
-22.9922249015
 31
0.0
 11
-47.2163979969
 21
-23.2119776486
 31
0.0
 11
-47.1215429719
 21
-23.4156339029
 31
0.0
 11
-47.0175694212
 21
-23.6069819529
 31
0.0
 11
-46.9035804044
 21
-23.7894708328
 31
0.0
 11
-46.779458771
 21
-23.9643169907
 31
0.0
 11
-46.6462233214
 21
-24.131231251
 31
0.0
 11
-46.5041383348
 21
-24.2902676878
 31
0.0
 11
-46.3542337843
 21
-24.4398855921
 31
0.0
 11
-46.1953156645
 21
-24.5811517841
 31
0.0
 11
-46.0186835096
 21
-24.7202223261
 31
0.0
 11
-45.8143869741
 21
-24.8601393646
 31
0.0
 11
-45.5753175685
 21
-24.9991501389
 31
0.0
 11
-45.3046213872
 21
-25.1286333179
 31
0.0
 11
-44.9987318146
 21
-25.2439084097
 31
0.0
 11
-44.653373513
 21
-25.3384429907
 31
0.0
 11
-44.2648781894
 21
-25.403009577
 31
0.0
 11
-43.8321021742
 21
-25.4257465547
 31
0.0
  0
SPLINE
  5
365
100
AcDbEntity
  8
RACCORDO
100
AcDbSpline
 62
253
  6
CONTINUOUS
 70
0
 71
3
 72
14
 73
10
 74
8
 42
0.0000001
 43
0.0000001
 44
0.0000000001
 12
14.2831336442
 22
0.0974652174
 32
0.0
 13
14.2834651766
 23
-0.0053587461
 33
0.0
 40
0.0
 40
0.0
 40
0.0
 40
0.0
 40
0.1142024
 40
0.2339029376
 40
0.3647347653
 40
0.5060379761
 40
0.6584875747
 40
0.8225618204
 40
1.0
 40
1.0
 40
1.0
 40
1.0
 10
-43.8321021742
 20
-25.4257465547
 30
0.0
 10
-43.2883794604
 20
-25.4220363007
 30
0.0
 10
-42.1747137449
 20
-25.4228618153
 30
0.0
 10
-40.4381679547
 20
-25.4274791215
 30
0.0
 10
-38.5725815207
 20
-25.4322935175
 30
0.0
 10
-36.5510682003
 20
-25.4336554295
 30
0.0
 10
-34.3712824416
 20
-25.4332434957
 30
0.0
 10
-32.0194523719
 20
-25.433089011
 30
0.0
 10
-30.3934589933
 20
-25.4343307169
 30
0.0
 10
-29.548648307
 20
-25.4346476656
 30
0.0
 11
-43.8321021742
 21
-25.4257465547
 31
0.0
 11
-42.2008978146
 21
-25.4233514929
 31
0.0
 11
-40.4911638321
 21
-25.4273168985
 31
0.0
 11
-38.6224367393
 21
-25.4315937908
 31
0.0
 11
-36.6041378626
 21
-25.4333404935
 31
0.0
 11
-34.4266291768
 21
-25.4332970567
 31
0.0
 11
-32.0830802392
 21
-25.4334044501
 31
0.0
 11
-29.548648307
 21
-25.4346476656
 31
0.0
  0
SPLINE
  5
366
100
AcDbEntity
  8
RACCORDO
100
AcDbSpline
 62
253
  6
CONTINUOUS
 70
0
 71
3
 72
32
 73
28
 74
26
 42
0.0000001
 43
0.0000001
 44
0.0000000001
 12
32.7764501056
 22
-0.8945227481
 32
0.0
 13
32.7886543254
 23
0.0000396886
 33
0.0
 40
0.0
 40
0.0
 40
0.0
 40
0.0
 40
0.011084299
 40
0.0232644028
 40
0.0366639124
 40
0.0515207218
 40
0.0680809601
 40
0.0866073762
 40
0.1073406945
 40
0.1302674438
 40
0.1552963968
 40
0.1826290404
 40
0.2124319839
 40
0.2448740443
 40
0.280094168
 40
0.3182102033
 40
0.3594154842
 40
0.4039471233
 40
0.451997316
 40
0.5038254828
 40
0.5597524627
 40
0.62008053
 40
0.6851333476
 40
0.7552296384
 40
0.8307372674
 40
0.9121334502
 40
1.0
 40
1.0
 40
1.0
 40
1.0
 10
-62.3364732439
 20
-45.9125251186
 30
0.0
 10
-62.2153719192
 20
-45.9158301712
 30
0.0
 10
-61.961195739
 20
-45.9227260259
 30
0.0
 10
-61.5605919815
 20
-45.9324013015
 30
0.0
 10
-61.1187529128
 20
-45.9423907505
 30
0.0
 10
-60.6290617998
 20
-45.953830469
 30
0.0
 10
-60.0833265879
 20
-45.9655560832
 30
0.0
 10
-59.473301808
 20
-45.9747075362
 30
0.0
 10
-58.7936506501
 20
-45.9800732811
 30
0.0
 10
-58.0429373777
 20
-45.9863621013
 30
0.0
 10
-57.2200996244
 20
-45.9934124811
 30
0.0
 10
-56.3221118249
 20
-46.0012316913
 30
0.0
 10
-55.3430848123
 20
-46.0071594893
 30
0.0
 10
-54.2778396267
 20
-46.0107263433
 30
0.0
 10
-53.1217311756
 20
-46.0120813176
 30
0.0
 10
-51.8698443639
 20
-46.011291523
 30
0.0
 10
-50.5161893007
 20
-46.0088244019
 30
0.0
 10
-49.053958483
 20
-46.0062304552
 30
0.0
 10
-47.4756236473
 20
-46.0039065219
 30
0.0
 10
-45.7727419826
 20
-46.0021533139
 30
0.0
 10
-43.935667836
 20
-46.0014972519
 30
0.0
 10
-41.9540541629
 20
-46.0018780957
 30
0.0
 10
-39.8175766881
 20
-46.0032135263
 30
0.0
 10
-37.5151939178
 20
-46.0052269304
 30
0.0
 10
-35.0341855873
 20
-46.0074214853
 30
0.0
 10
-32.3589560034
 20
-46.00934364
 30
0.0
 10
-30.5089902529
 20
-46.0099616592
 30
0.0
 10
-29.5486482765
 20
-46.0099604968
 30
0.0
 11
-62.3364732439
 21
-45.9125251186
 31
0.0
 11
-61.9731635777
 21
-45.9222294676
 31
0.0
 11
-61.5739134559
 21
-45.9319817852
 31
0.0
 11
-61.1346777015
 21
-45.942082942
 31
0.0
 11
-60.6476709683
 21
-45.9532517812
 31
0.0
 11
-60.104800403
 21
-45.9645408378
 31
0.0
 11
-59.497412704
 21
-45.9736667718
 31
0.0
 11
-58.8176240036
 21
-45.9799359111
 31
0.0
 11
-58.0659127856
 21
-45.9861925432
 31
0.0
 11
-57.2452771433
 21
-45.9932149398
 31
0.0
 11
-56.3491071128
 21
-46.0006175435
 31
0.0
 11
-55.3719267863
 21
-46.0065627668
 31
0.0
 11
-54.3082016887
 21
-46.010254675
 31
0.0
 11
-53.1533821463
 21
-46.0117109211
 31
0.0
 11
-51.9036088018
 21
-46.0110742705
 31
0.0
 11
-50.552544839
 21
-46.0089011806
 31
0.0
 11
-49.0924145128
 21
-46.0063692743
 31
0.0
 11
-47.5169150176
 21
-46.0040792036
 31
0.0
 11
-45.8175400184
 21
-46.0023826434
 31
0.0
 11
-43.9837697442
 21
-46.0016759599
 31
0.0
 11
-42.0056936269
 21
-46.0020055027
 31
0.0
 11
-39.8726996493
 21
-46.0032644324
 31
0.0
 11
-37.5743373974
 21
-46.0051789185
 31
0.0
 11
-35.098544759
 21
-46.0072986145
 31
0.0
 11
-32.4296740856
 21
-46.0091283666
 31
0.0
 11
-29.5486482765
 21
-46.0099604968
 31
0.0
  0
SPLINE
  5
367
100
AcDbEntity
  8
RACCORDO
100
AcDbSpline
 62
253
  6
CONTINUOUS
 70
0
 71
3
 72
12
 73
8
 74
6
 42
0.0000001
 43
0.0000001
 44
0.0000000001
 12
0.0884905057
 22
-2.8860384169
 32
0.0
 13
2.88635357
 23
-0.0775331077
 33
0.0
 40
0.0
 40
0.0
 40
0.0
 40
0.0
 40
0.1948488937
 40
0.3992975325
 40
0.6045942086
 40
0.8079171979
 40
1.0
 40
1.0
 40
1.0
 40
1.0
 10
-64.2031036588
 20
-44.052540454
 30
0.0
 10
-64.1973562331
 20
-44.2399875848
 30
0.0
 10
-64.1248804231
 20
-44.6243447523
 30
0.0
 10
-63.8493632424
 20
-45.1466496806
 30
0.0
 10
-63.4231574791
 20
-45.5683287003
 30
0.0
 10
-62.902019304
 20
-45.8373914225
 30
0.0
 10
-62.5212795378
 20
-45.9075608598
 30
0.0
 10
-62.3364732439
 20
-45.9125251186
 30
0.0
 11
-64.2031036588
 21
-44.052540454
 31
0.0
 11
-64.1005515363
 21
-44.6057205333
 31
0.0
 11
-63.8253181392
 21
-45.1279550686
 31
0.0
 11
-63.4040088057
 21
-45.5449415549
 31
0.0
 11
-62.8822977739
 21
-45.8141499512
 31
0.0
 11
-62.3364732439
 21
-45.9125251186
 31
0.0
  0
SPLINE
  5
368
100
AcDbEntity
  8
RACCORDO
100
AcDbSpline
 62
253
  6
CONTINUOUS
 70
0
 71
3
 72
18
 73
14
 74
12
 42
0.0000001
 43
0.0000001
 44
0.0000000001
 12
2.8945460788
 22
0.0777406416
 32
0.0
 13
0.0888641497
 23
2.8942259367
 33
0.0
 40
0.0
 40
0.0
 40
0.0
 40
0.0
 40
0.1392491247
 40
0.265300979
 40
0.3797499976
 40
0.4839193846
 40
0.57891376
 40
0.6657619311
 40
0.7453166056
 40
0.818140582
 40
0.8845743029
 40
0.9449397948
 40
1.0
 40
1.0
 40
1.0
 40
1.0
 10
86.7391766964
 20
-45.9125251186
 30
0.0
 10
86.8735310324
 20
-45.9089166799
 30
0.0
 10
87.1295056844
 20
-45.8726615154
 30
0.0
 10
87.4767991116
 20
-45.7494369139
 30
0.0
 10
87.7670540908
 20
-45.5835312641
 30
0.0
 10
88.0028945275
 20
-45.3918627566
 30
0.0
 10
88.1898076878
 20
-45.1874662298
 30
0.0
 10
88.3337783017
 20
-44.979415799
 30
0.0
 10
88.440850553
 20
-44.7742241521
 30
0.0
 10
88.5167266432
 20
-44.5766784761
 30
0.0
 10
88.5667609787
 20
-44.3902783203
 30
0.0
 10
88.5958252447
 20
-44.2169229341
 30
0.0
 10
88.6041761519
 20
-44.1056593452
 30
0.0
 10
88.6058071113
 20
-44.052540454
 30
0.0
 11
86.7391766964
 21
-45.9125251186
 31
0.0
 11
87.1385616351
 21
-45.8571297525
 31
0.0
 11
87.4826265185
 21
-45.7353089025
 31
0.0
 11
87.7703117223
 21
-45.5708051895
 31
0.0
 11
88.0044277581
 21
-45.3806172906
 31
0.0
 11
88.1900327908
 21
-45.1776114081
 31
0.0
 11
88.333117714
 21
-44.970809022
 31
0.0
 11
88.4396758516
 21
-44.766578669
 31
0.0
 11
88.5152820492
 21
-44.5697305771
 31
0.0
 11
88.5651205824
 21
-44.3839340754
 31
0.0
 11
88.5939117394
 21
-44.211527843
 31
0.0
 11
88.6058071113
 21
-44.052540454
 31
0.0
  0
LINE
  5
369
100
AcDbEntity
  8
0
100
AcDbLine
 62
253
  6
CONTINUOUS
 10
-29.5486482788
 20
-22.1511270887
 11
-43.8486482737
 21
-22.1511067994
  0
SPLINE
  5
36A
100
AcDbEntity
  8
RACCORDO
100
AcDbSpline
 62
253
  6
CONTINUOUS
 70
0
 71
3
 72
30
 73
26
 74
24
 42
0.0000001
 43
0.0000001
 44
0.0000000001
 12
32.7886525041
 22
-0.0000396285
 32
0.0
 13
32.77645862
 23
0.8941439318
 33
0.0
 40
0.0
 40
0.0
 40
0.0
 40
0.0
 40
0.0863094635
 40
0.1664122406
 40
0.2407964769
 40
0.3098863457
 40
0.3740721123
 40
0.4337144662
 40
0.4891378328
 40
0.5406250109
 40
0.5884689908
 40
0.6329141868
 40
0.6741400336
 40
0.7123731305
 40
0.7478042091
 40
0.7805210508
 40
0.8106481079
 40
0.83842694
 40
0.8639516477
 40
0.8870100096
 40
0.9083794075
 40
0.9298881415
 40
0.9530779622
 40
0.9772377907
 40
1.0
 40
1.0
 40
1.0
 40
1.0
 10
53.9513517264
 20
-46.0099604967
 30
0.0
 10
54.8946753953
 20
-46.0099616368
 30
0.0
 10
56.7134864458
 20
-46.0093647232
 30
0.0
 10
59.3452831332
 20
-46.0074950081
 30
0.0
 10
61.7888770897
 20
-46.0053444555
 30
0.0
 10
64.0585053357
 20
-46.0033457006
 30
0.0
 10
66.1670118956
 20
-46.0019690768
 30
0.0
 10
68.1261501462
 20
-46.0014954716
 30
0.0
 10
69.9464985614
 20
-46.0020135219
 30
0.0
 10
71.6378953608
 20
-46.0036025301
 30
0.0
 10
73.2093047694
 20
-46.0058423094
 30
0.0
 10
74.668561876
 20
-46.0083351062
 30
0.0
 10
76.0227760255
 20
-46.0109185886
 30
0.0
 10
77.2784722349
 20
-46.0120769491
 30
0.0
 10
78.4411692859
 20
-46.011191331
 30
0.0
 10
79.5152674056
 20
-46.0081702862
 30
0.0
 10
80.5057196037
 20
-46.0027461779
 30
0.0
 10
81.4175497082
 20
-45.9954261237
 30
0.0
 10
82.2521165619
 20
-45.987851562
 30
0.0
 10
83.0166410097
 20
-45.981679857
 30
0.0
 10
83.7372722882
 20
-45.9757771534
 30
0.0
 10
84.4593169332
 20
-45.966678895
 30
0.0
 10
85.2117201969
 20
-45.9495859573
 30
0.0
 10
85.9778154363
 20
-45.9323309493
 30
0.0
 10
86.4904884928
 20
-45.9193093491
 30
0.0
 10
86.7391766964
 20
-45.9125251186
 30
0.0
 11
53.9513517264
 21
-46.0099604967
 31
0.0
 11
56.7813226186
 21
-46.009155446
 31
0.0
 11
59.407784136
 21
-46.0073735956
 31
0.0
 11
61.8467421257
 21
-46.0052932873
 31
0.0
 11
64.1121050247
 21
-46.0033876563
 31
0.0
 11
66.2166694192
 21
-46.0020861622
 31
0.0
 11
68.1722617891
 21
-46.0016621623
 31
0.0
 11
69.9895192064
 21
-46.0022314142
 31
0.0
 11
71.6777136882
 21
-46.0037816581
 31
0.0
 11
73.2464517887
 21
-46.005971955
 31
0.0
 11
74.7037477764
 21
-46.0084454817
 31
0.0
 11
76.0554857776
 21
-46.0107506628
 31
0.0
 11
77.3090971138
 21
-46.011739931
 31
0.0
 11
78.4708340212
 21
-46.0107558114
 31
0.0
 11
79.5435705196
 21
-46.0075948058
 31
0.0
 11
80.5313812211
 21
-46.002168555
 31
0.0
 11
81.442183972
 21
-45.9950625237
 31
0.0
 11
82.2790728338
 21
-45.9877539721
 31
0.0
 11
83.0350997079
 21
-45.9815153596
 31
0.0
 11
83.7357456918
 21
-45.975276409
 31
0.0
 11
84.4409239773
 21
-45.9657665004
 31
0.0
 11
85.2011203616
 21
-45.9498508954
 31
0.0
 11
85.9930782264
 21
-45.9315962685
 31
0.0
 11
86.7391766964
 21
-45.9125251186
 31
0.0
  0
LINE
  5
36B
100
AcDbEntity
  8
0
100
AcDbLine
 62
253
  6
CONTINUOUS
 10
68.2513517263
 20
-22.1511068007
 11
53.9515604442
 21
-22.1511270581
  0
LINE
  5
36C
100
AcDbEntity
  8
0
100
AcDbLine
 62
253
  6
CONTINUOUS
 10
68.6433512439
 20
22.7408834129
 11
68.6433644289
 21
12.2408834044
  0
LINE
  5
36D
100
AcDbEntity
  8
0
100
AcDbLine
 62
253
  6
CONTINUOUS
 10
68.6433644289
 20
-11.259116587
 11
68.6433511658
 21
-21.7591165871
  0
SPLINE
  5
36E
100
AcDbEntity
  8
RACCORDO
100
AcDbSpline
 62
253
  6
CONTINUOUS
 70
0
 71
3
 72
13
 73
9
 74
7
 42
0.0000001
 43
0.0000001
 44
0.0000000001
 12
5.5532641335
 22
0.0020988941
 32
0.0
 13
5.5532644807
 23
-0.0007430528
 33
0.0
 40
0.0
 40
0.0
 40
0.0
 40
0.0
 40
0.2127209626
 40
0.4079907914
 40
0.5875645506
 40
0.7528575445
 40
0.9051484779
 40
1.0
 40
1.0
 40
1.0
 40
1.0
 10
53.9513516742
 20
-25.4346475017
 30
0.0
 10
54.3451169048
 20
-25.4344986755
 30
0.0
 10
55.1003435573
 20
-25.4337756535
 30
0.0
 10
56.1879773464
 20
-25.4335037692
 30
0.0
 10
57.1878177388
 20
-25.4332015347
 30
0.0
 10
58.1081004671
 20
-25.4331781712
 30
0.0
 10
58.8715548411
 20
-25.4333031411
 30
0.0
 10
59.3290373124
 20
-25.4333786563
 30
0.0
 10
59.5046158419
 20
-25.4334021495
 30
0.0
 11
53.9513516742
 21
-25.4346475017
 31
0.0
 11
55.1326472077
 21
-25.4338899552
 31
0.0
 11
56.2170321468
 21
-25.4334866572
 31
0.0
 11
57.214252704
 21
-25.4332414705
 31
0.0
 11
58.1321684235
 21
-25.4332076706
 31
0.0
 11
58.9778802549
 21
-25.4333207847
 31
0.0
 11
59.5046158419
 21
-25.4334021495
 31
0.0
  0
LINE
  5
36F
100
AcDbEntity
  8
RACCORDO
100
AcDbLine
 62
253
  6
CONTINUOUS
 10
59.5046158419
 20
-25.4334021495
 11
60.0039045847
 21
-25.4334494157
  0
LINE
  5
370
100
AcDbEntity
  8
RACCORDO
100
AcDbLine
 62
253
  6
CONTINUOUS
 10
60.0039045847
 20
-25.4334494157
 11
60.7044073993
 21
-25.4334117976
  0
LINE
  5
371
100
AcDbEntity
  8
RACCORDO
100
AcDbLine
 62
253
  6
CONTINUOUS
 10
60.7044073993
 20
-25.4334117976
 11
61.351236184
 21
-25.4332107976
  0
LINE
  5
372
100
AcDbEntity
  8
RACCORDO
100
AcDbLine
 62
253
  6
CONTINUOUS
 10
61.351236184
 20
-25.4332107976
 11
61.9488360762
 21
-25.432836553
  0
LINE
  5
373
100
AcDbEntity
  8
RACCORDO
100
AcDbLine
 62
253
  6
CONTINUOUS
 10
61.9488360762
 20
-25.432836553
 11
62.1376611804
 21
-25.4326746492
  0
LINE
  5
374
100
AcDbEntity
  8
RACCORDO
100
AcDbLine
 62
253
  6
CONTINUOUS
 10
62.1376611804
 20
-25.4326746492
 11
62.3217900436
 21
-25.4324947169
  0
LINE
  5
375
100
AcDbEntity
  8
RACCORDO
100
AcDbLine
 62
253
  6
CONTINUOUS
 10
62.3217900436
 20
-25.4324947169
 11
62.6757670162
 21
-25.4320835683
  0
LINE
  5
376
100
AcDbEntity
  8
RACCORDO
100
AcDbLine
 62
253
  6
CONTINUOUS
 10
62.6757670162
 20
-25.4320835683
 11
63.0119373644
 21
-25.43160734
  0
LINE
  5
377
100
AcDbEntity
  8
RACCORDO
100
AcDbLine
 62
253
  6
CONTINUOUS
 10
63.0119373644
 20
-25.43160734
 11
63.3309170101
 21
-25.4310744595
  0
LINE
  5
378
100
AcDbEntity
  8
RACCORDO
100
AcDbLine
 62
253
  6
CONTINUOUS
 10
63.3309170101
 20
-25.4310744595
 11
63.4844185704
 21
-25.4307897814
  0
LINE
  5
379
100
AcDbEntity
  8
RACCORDO
100
AcDbLine
 62
253
  6
CONTINUOUS
 10
63.4844185704
 20
-25.4307897814
 11
63.9216235293
 21
-25.4298806316
  0
LINE
  5
37A
100
AcDbEntity
  8
RACCORDO
100
AcDbLine
 62
253
  6
CONTINUOUS
 10
63.9216235293
 20
-25.4298806316
 11
64.4541152762
 21
-25.4285783692
  0
LINE
  5
37B
100
AcDbEntity
  8
RACCORDO
100
AcDbLine
 62
253
  6
CONTINUOUS
 10
64.4541152762
 20
-25.4285783692
 11
64.5789188575
 21
-25.4282428016
  0
LINE
  5
37C
100
AcDbEntity
  8
RACCORDO
100
AcDbLine
 62
253
  6
CONTINUOUS
 10
64.5789188575
 20
-25.4282428016
 11
65.0471914738
 21
-25.4268743244
  0
LINE
  5
37D
100
AcDbEntity
  8
RACCORDO
100
AcDbLine
 62
253
  6
CONTINUOUS
 10
65.0471914738
 20
-25.4268743244
 11
65.7588688588
 21
-25.4247391449
  0
LINE
  5
37E
100
AcDbEntity
  8
RACCORDO
100
AcDbLine
 62
253
  6
CONTINUOUS
 10
65.7588688588
 20
-25.4247391449
 11
66.2618785362
 21
-25.4236673536
  0
LINE
  5
37F
100
AcDbEntity
  8
RACCORDO
100
AcDbLine
 62
253
  6
CONTINUOUS
 10
66.2618785362
 20
-25.4236673536
 11
66.8555015034
 21
-25.4230420739
  0
LINE
  5
380
100
AcDbEntity
  8
RACCORDO
100
AcDbLine
 62
253
  6
CONTINUOUS
 10
68.1698685608
 20
-25.4253904159
 11
68.2347941224
 21
-25.4257466503
  0
SPLINE
  5
381
100
AcDbEntity
  8
RACCORDO
100
AcDbSpline
 62
253
  6
CONTINUOUS
 70
0
 71
3
 72
26
 73
22
 74
20
 42
0.0000001
 43
0.0000001
 44
0.0000000001
 12
4.5788485952
 22
1.2910214873
 32
0.0
 13
-0.0236695898
 23
4.7551093225
 33
0.0
 40
0.0
 40
0.0
 40
0.0
 40
0.0
 40
0.0529335377
 40
0.1253363508
 40
0.1906736066
 40
0.2486670688
 40
0.3003699975
 40
0.347988272
 40
0.3941849906
 40
0.4405088289
 40
0.4870540533
 40
0.5337565435
 40
0.58002955
 40
0.6264495076
 40
0.6747425474
 40
0.7257300584
 40
0.7794200323
 40
0.8348155153
 40
0.8903311191
 40
0.9453336495
 40
1.0
 40
1.0
 40
1.0
 40
1.0
 10
69.2567440222
 20
-25.2879185277
 30
0.0
 10
69.3375355738
 20
-25.2651390828
 30
0.0
 10
69.5269869019
 20
-25.2046479064
 30
0.0
 10
69.8069543981
 20
-25.0896394792
 30
0.0
 10
70.082448483
 20
-24.946114528
 30
0.0
 10
70.3173680448
 20
-24.797990065
 30
0.0
 10
70.5180350943
 20
-24.6496356158
 30
0.0
 10
70.6942450881
 20
-24.5005800843
 30
0.0
 10
70.8550333841
 20
-24.3471293824
 30
0.0
 10
71.0050638469
 20
-24.1854628965
 30
0.0
 10
71.1460930754
 20
-24.0148615148
 30
0.0
 10
71.2770719755
 20
-23.8365143928
 30
0.0
 10
71.3969633905
 20
-23.6507565375
 30
0.0
 10
71.5063652157
 20
-23.4557328849
 30
0.0
 10
71.6065232732
 20
-23.2474632507
 30
0.0
 10
71.6970256952
 20
-23.0223177197
 30
0.0
 10
71.7750570907
 20
-22.7806647923
 30
0.0
 10
71.837398934
 20
-22.5270912994
 30
0.0
 10
71.8819968901
 20
-22.2676974235
 30
0.0
 10
71.9084616625
 20
-22.0070146832
 30
0.0
 10
71.9139198553
 20
-21.8330951193
 30
0.0
 10
71.9134885453
 20
-21.7464469617
 30
0.0
 11
69.2567440222
 21
-25.2879185277
 31
0.0
 11
69.4965916891
 21
-25.2113496797
 31
0.0
 11
69.8150144035
 21
-25.0804264324
 31
0.0
 11
70.090522609
 21
-24.9368183431
 31
0.0
 11
70.323770059
 21
-24.7896993921
 31
0.0
 11
70.5215050496
 21
-24.6435963213
 31
0.0
 11
70.6944300876
 21
-24.4974156374
 31
0.0
 11
70.8533073596
 21
-24.3457109461
 31
0.0
 11
71.0032444757
 21
-24.1843383901
 31
0.0
 11
71.1442691127
 21
-24.0137535565
 31
0.0
 11
71.275629023
 21
-23.834691277
 31
0.0
 11
71.394894196
 21
-23.6497814901
 31
0.0
 11
71.5028970977
 21
-23.4572738687
 31
0.0
 11
71.6024207812
 21
-23.2503191196
 31
0.0
 11
71.6928399752
 21
-23.0253560009
 31
0.0
 11
71.7713525104
 21
-22.782423186
 31
0.0
 11
71.834311569
 21
-22.5266429377
 31
0.0
 11
71.8791066248
 21
-22.2664852355
 31
0.0
 11
71.9054688715
 21
-22.0062709177
 31
0.0
 11
71.9134885453
 21
-21.7464469617
 31
0.0
  0
LINE
  5
382
100
AcDbEntity
  8
0
100
AcDbLine
 62
253
  6
CONTINUOUS
 10
53.9513517314
 20
23.1328939146
 11
68.2513517263
 21
23.1328729376
  0
SPLINE
  5
383
100
AcDbEntity
  8
RACCORDO
100
AcDbSpline
 62
253
  6
CONTINUOUS
 70
0
 71
3
 72
11
 73
7
 74
5
 42
0.0000001
 43
0.0000001
 44
0.0000000001
 12
-0.0524321396
 22
10.4872055432
 32
0.0
 13
-0.0034873788
 23
10.4873360332
 33
0.0
 40
0.0
 40
0.0
 40
0.0
 40
0.0
 40
0.2226645497
 40
0.4642863522
 40
0.723025595
 40
1.0
 40
1.0
 40
1.0
 40
1.0
 10
71.9134885453
 20
-21.7464469617
 30
0.0
 10
71.9095969524
 20
-20.9680706616
 30
0.0
 10
71.9078678711
 20
-19.3450200441
 30
0.0
 10
71.9116915043
 20
-16.8174875607
 30
0.0
 10
71.9122542931
 20
-14.1000929477
 30
0.0
 10
71.9099629171
 20
-12.2273577283
 30
0.0
 10
71.9096409456
 20
-11.259116509
 30
0.0
 11
71.9134885453
 21
-21.7464469617
 31
0.0
 11
71.9089008894
 21
-19.4112933832
 31
0.0
 11
71.9110684182
 21
-16.8773251344
 31
0.0
 11
71.9116161062
 21
-14.1638396561
 31
0.0
 11
71.9096409456
 21
-11.259116509
 31
0.0
  0
LINE
  5
384
100
AcDbEntity
  8
0
100
AcDbLine
 62
253
  6
CONTINUOUS
 10
-43.8486482737
 20
23.1328736266
 11
-29.5488569929
 21
23.132893884
  0
SPLINE
  5
385
100
AcDbEntity
  8
RACCORDO
100
AcDbSpline
 62
253
  6
CONTINUOUS
 70
0
 71
3
 72
30
 73
26
 74
24
 42
0.0000001
 43
0.0000001
 44
0.0000000001
 12
1.0061857563
 22
32.7794192921
 32
0.0
 13
0.0000928427
 23
32.7948584216
 33
0.0
 40
0.0
 40
0.0
 40
0.0
 40
0.0
 40
0.0212812746
 40
0.040258066
 40
0.0579728712
 40
0.076507833
 40
0.097185482
 40
0.1199817727
 40
0.1448984928
 40
0.1722098857
 40
0.202104106
 40
0.2348128556
 40
0.2705225743
 40
0.3092423137
 40
0.3510153191
 40
0.3961074691
 40
0.4447651788
 40
0.4972153315
 40
0.5537386224
 40
0.6146439463
 40
0.6803362504
 40
0.7512566113
 40
0.8278092173
 40
0.9103785142
 40
1.0
 40
1.0
 40
1.0
 40
1.0
 10
88.6058071113
 20
-44.052540454
 30
0.0
 10
88.6129447498
 20
-43.8200111792
 30
0.0
 10
88.6270312416
 20
-43.380148596
 30
0.0
 10
88.6509391327
 20
-42.7468604195
 30
0.0
 10
88.6661323763
 20
-42.1433056196
 30
0.0
 10
88.6708204308
 20
-41.521001933
 30
0.0
 10
88.680958509
 20
-40.843219671
 30
0.0
 10
88.6917350203
 20
-40.0956766198
 30
0.0
 10
88.70239843
 20
-39.2756075442
 30
0.0
 10
88.7143577368
 20
-38.3779571755
 30
0.0
 10
88.7257732682
 20
-37.3951126241
 30
0.0
 10
88.7348679107
 20
-36.3204329011
 30
0.0
 10
88.7427988081
 20
-35.1492654525
 30
0.0
 10
88.7497842433
 20
-33.8790030827
 30
0.0
 10
88.7551432577
 20
-32.5061666325
 30
0.0
 10
88.7581975127
 20
-31.0246842503
 30
0.0
 10
88.7578171395
 20
-29.4264801553
 30
0.0
 10
88.7544715668
 20
-27.7033192645
 30
0.0
 10
88.7496167723
 20
-25.8462755774
 30
0.0
 10
88.7442588539
 20
-23.8444745193
 30
0.0
 10
88.7396625841
 20
-21.6852877554
 30
0.0
 10
88.7375836729
 20
-19.3550457332
 30
0.0
 10
88.7404867236
 20
-16.8403118144
 30
0.0
 10
88.745540486
 20
-14.1211487374
 30
0.0
 10
88.7472820999
 20
-12.2388245682
 30
0.0
 10
88.7472848735
 20
-11.2591165886
 30
0.0
 11
88.6058071113
 21
-44.052540454
 31
0.0
 11
88.6285406221
 21
-43.3549944174
 31
0.0
 11
88.6501121035
 21
-42.7330271956
 31
0.0
 11
88.6642380548
 21
-42.1522444292
 31
0.0
 11
88.6713548732
 21
-41.5444346461
 31
0.0
 11
88.6805538905
 21
-40.8663764725
 31
0.0
 11
88.6912327286
 21
-40.1188516199
 31
0.0
 11
88.7020996193
 21
-39.3017835721
 31
0.0
 11
88.7137381915
 21
-38.4061859276
 31
0.0
 11
88.7249241188
 21
-37.4258730221
 31
0.0
 11
88.7343012892
 21
-36.3532351981
 31
0.0
 11
88.7423376647
 21
-35.1821676022
 31
0.0
 11
88.7492758339
 21
-33.9123781867
 31
0.0
 11
88.7545971288
 21
-32.5424487226
 31
0.0
 11
88.7575719366
 21
-31.063661042
 31
0.0
 11
88.7573909403
 21
-29.4679383503
 31
0.0
 11
88.7543723663
 21
-27.747845668
 31
0.0
 11
88.7497234764
 21
-25.8941781749
 31
0.0
 11
88.7445743939
 21
-23.8968033355
 31
0.0
 11
88.7402112498
 21
-21.7424379438
 31
0.0
 11
88.7384016264
 21
-19.4166154523
 31
0.0
 11
88.7406942875
 21
-16.9060846214
 31
0.0
 11
88.7449932405
 21
-14.1982396341
 31
0.0
 11
88.7472848735
 21
-11.2591165886
 31
0.0
  0
LINE
  5
386
100
AcDbEntity
  8
0
100
AcDbLine
 62
253
  6
CONTINUOUS
 10
-44.2406609764
 20
12.2408834041
 11
-44.2406477133
 21
22.7408834129
  0
LINE
  5
387
100
AcDbEntity
  8
0
100
AcDbLine
 62
253
  6
CONTINUOUS
 10
-44.2406477133
 20
-21.7591165871
 11
-44.2406609764
 21
-11.2591044614
  0
SPLINE
  5
388
100
AcDbEntity
  8
RACCORDO
100
AcDbSpline
 62
253
  6
CONTINUOUS
 70
0
 71
3
 72
38
 73
34
 74
32
 42
0.0000001
 43
0.0000001
 44
0.0000000001
 12
-0.0000922442
 22
32.7948699501
 32
0.0
 13
-1.0062695144
 23
32.7794282549
 33
0.0
 40
0.0
 40
0.0
 40
0.0
 40
0.0
 40
0.0830549695
 40
0.1596060282
 40
0.2302466258
 40
0.2954823557
 40
0.3557724568
 40
0.4115278172
 40
0.4631275571
 40
0.5109076428
 40
0.5551702932
 40
0.5961803597
 40
0.6341888973
 40
0.6694566342
 40
0.7021504214
 40
0.7323181153
 40
0.7599954745
 40
0.7852123625
 40
0.8080064718
 40
0.8285849576
 40
0.8472618251
 40
0.8643452599
 40
0.880040657
 40
0.8942468276
 40
0.9068475501
 40
0.9180776803
 40
0.9283790007
 40
0.9382087808
 40
0.9481319686
 40
0.9588534826
 40
0.9709698402
 40
0.9846746174
 40
1.0
 40
1.0
 40
1.0
 40
1.0
 10
88.7472848737
 20
12.2408834199
 30
0.0
 10
88.7472823199
 20
13.148809061
 30
0.0
 10
88.7457963406
 20
14.8935620182
 30
0.0
 10
88.7416602616
 20
17.4105278744
 30
0.0
 10
88.7384149702
 20
19.7327020299
 30
0.0
 10
88.7379560224
 20
21.8771200721
 30
0.0
 10
88.7401836869
 20
23.8588172779
 30
0.0
 10
88.7450327808
 20
25.6914455166
 30
0.0
 10
88.7507447726
 20
27.3873152578
 30
0.0
 10
88.7554271823
 20
28.9575538945
 30
0.0
 10
88.7579942274
 20
30.4120352418
 30
0.0
 10
88.7582597458
 20
31.7597001086
 30
0.0
 10
88.7562703609
 20
33.0090344282
 30
0.0
 10
88.7524872056
 20
34.1674534575
 30
0.0
 10
88.7476303156
 20
35.2401543522
 30
0.0
 10
88.7419627978
 20
36.2298748782
 30
0.0
 10
88.7358237607
 20
37.137855975
 30
0.0
 10
88.7295710099
 20
37.965229426
 30
0.0
 10
88.7220184879
 20
38.7149865224
 30
0.0
 10
88.7138883692
 20
39.3932394165
 30
0.0
 10
88.7057178165
 20
40.0090596613
 30
0.0
 10
88.698287561
 20
40.5715049281
 30
0.0
 10
88.6911867541
 20
41.0850781695
 30
0.0
 10
88.6853187136
 20
41.5496604821
 30
0.0
 10
88.6788599642
 20
41.965417026
 30
0.0
 10
88.6735772502
 20
42.338499667
 30
0.0
 10
88.669308497
 20
42.6813028829
 30
0.0
 10
88.6659576427
 20
43.0098268563
 30
0.0
 10
88.6611988999
 20
43.3429348366
 30
0.0
 10
88.6509653718
 20
43.7009293077
 30
0.0
 10
88.6368998093
 20
44.1001511745
 30
0.0
 10
88.6210286887
 20
44.5496699067
 30
0.0
 10
88.6109450204
 20
44.8668570934
 30
0.0
 10
88.605804532
 20
45.0343095201
 30
0.0
 11
88.7472848737
 21
12.2408834199
 31
0.0
 11
88.74536179
 21
14.9646596642
 31
0.0
 11
88.7416610445
 21
17.4751389509
 31
0.0
 11
88.7388075357
 21
19.7917864044
 31
0.0
 11
88.7384403857
 21
21.9311836523
 31
0.0
 11
88.740760511
 21
23.9083883151
 31
0.0
 11
88.7453815865
 21
25.73687227
 31
0.0
 11
88.7507723024
 21
27.429070442
 31
0.0
 11
88.7552118574
 21
28.9960058501
 31
0.0
 11
88.7576631887
 21
30.4475916442
 31
0.0
 11
88.7578498802
 21
31.7925114284
 31
0.0
 11
88.7558619994
 21
33.0389948924
 31
0.0
 11
88.7521428497
 21
34.1955897553
 31
0.0
 11
88.7472824897
 21
35.2677672404
 31
0.0
 11
88.7416289422
 21
36.257096684
 31
0.0
 11
88.7355158741
 21
37.1647514928
 31
0.0
 11
88.7290066283
 21
37.991710438
 31
0.0
 11
88.7215239815
 21
38.739202839
 31
0.0
 11
88.7134881909
 21
39.4140237589
 31
0.0
 11
88.7054928185
 21
40.0264770139
 31
0.0
 11
88.6980272229
 21
40.5866762929
 31
0.0
 11
88.6910693261
 21
41.1013577699
 31
0.0
 11
88.6848581232
 21
41.5672058821
 31
0.0
 11
88.6787273718
 21
41.9803994589
 31
0.0
 11
88.6735427735
 21
42.3486536241
 31
0.0
 11
88.6693741043
 21
42.6864583642
 31
0.0
 11
88.6657495881
 21
43.0088043481
 31
0.0
 11
88.6605784655
 21
43.3341929151
 31
0.0
 11
88.6510359611
 21
43.6856740602
 31
0.0
 11
88.6375065772
 21
44.0827980343
 31
0.0
 11
88.6219020444
 21
44.5319734489
 31
0.0
 11
88.605804532
 21
45.0343095201
 31
0.0
  0
SPLINE
  5
389
100
AcDbEntity
  8
RACCORDO
100
AcDbSpline
 62
253
  6
CONTINUOUS
 70
0
 71
3
 72
11
 73
7
 74
5
 42
0.0000001
 43
0.0000001
 44
0.0000000001
 12
0.0034677897
 22
10.4872068117
 32
0.0
 13
0.0540397923
 23
10.4870681526
 33
0.0
 40
0.0
 40
0.0
 40
0.0
 40
0.0
 40
0.2773119172
 40
0.5360755001
 40
0.7776570842
 40
1.0
 40
1.0
 40
1.0
 40
1.0
 10
71.9096409478
 20
12.2408832558
 30
0.0
 10
71.9099615009
 20
13.2102923981
 30
0.0
 10
71.9121689504
 20
15.0842694684
 30
0.0
 10
71.9118540859
 20
17.8027550699
 30
0.0
 10
71.9078130033
 20
20.3290762252
 30
0.0
 10
71.9096320145
 20
21.9508423693
 30
0.0
 10
71.9136371362
 20
22.7280841396
 30
0.0
 11
71.9096409478
 21
12.2408832558
 31
0.0
 11
71.9115965338
 21
15.1491101841
 31
0.0
 11
71.911153
 21
17.8628175055
 31
0.0
 11
71.9089021174
 21
20.3963326789
 31
0.0
 11
71.9136371362
 21
22.7280841396
 31
0.0
  0
SPLINE
  5
38A
100
AcDbEntity
  8
RACCORDO
100
AcDbSpline
 62
253
  6
CONTINUOUS
 70
0
 71
3
 72
29
 73
25
 74
23
 42
0.0000001
 43
0.0000001
 44
0.0000000001
 12
0.0289764945
 22
5.7881735569
 32
0.0
 13
-5.7881613792
 23
-0.031314689
 33
0.0
 40
0.0
 40
0.0
 40
0.0
 40
0.0
 40
0.0492729617
 40
0.0973082269
 40
0.1432481058
 40
0.1868611027
 40
0.2278769481
 40
0.2667285914
 40
0.3066402647
 40
0.3472157649
 40
0.3869659895
 40
0.4257324861
 40
0.4640849456
 40
0.5025388145
 40
0.5412912923
 40
0.5795613454
 40
0.6177340941
 40
0.6582304197
 40
0.7033259428
 40
0.752714822
 40
0.8063734077
 40
0.8649655157
 40
0.9292091589
 40
1.0
 40
1.0
 40
1.0
 40
1.0
 10
71.9136371362
 20
22.7280841396
 30
0.0
 10
71.9141130554
 20
22.8231509576
 30
0.0
 10
71.9074807819
 20
23.0110111945
 30
0.0
 10
71.8770363936
 20
23.2859402675
 30
0.0
 10
71.8292653834
 20
23.5473017382
 30
0.0
 10
71.7662939578
 20
23.7914430249
 30
0.0
 10
71.6911196008
 20
24.0176979367
 30
0.0
 10
71.6044447504
 20
24.2320879271
 30
0.0
 10
71.5049533429
 20
24.4399063734
 30
0.0
 10
71.3914841129
 20
24.6424484102
 30
0.0
 10
71.2658909383
 20
24.8350623025
 30
0.0
 10
71.1310940052
 20
25.0159941261
 30
0.0
 10
70.9875328834
 20
25.1867796769
 30
0.0
 10
70.83462453
 20
25.3492077091
 30
0.0
 10
70.6725813251
 20
25.5023304606
 30
0.0
 10
70.501502468
 20
25.6444492165
 30
0.0
 10
70.3192151077
 20
25.7776485414
 30
0.0
 10
70.1176588968
 20
25.9060173664
 30
0.0
 10
69.8886857911
 20
26.0305830916
 30
0.0
 10
69.627692624
 20
26.1478463012
 30
0.0
 10
69.3334019427
 20
26.2521877135
 30
0.0
 10
69.0031599889
 20
26.3372588766
 30
0.0
 10
68.633501574
 20
26.3952566382
 30
0.0
 10
68.3726461141
 20
26.4082315905
 30
0.0
 10
68.2360631767
 20
26.4074926594
 30
0.0
 11
71.9136371362
 21
22.7280841396
 31
0.0
 11
71.9037943727
 21
23.0131182733
 31
0.0
 11
71.8732843937
 21
23.2894791736
 31
0.0
 11
71.8252740189
 21
23.5510204441
 31
0.0
 11
71.7621979919
 21
23.7954560417
 31
0.0
 11
71.6873833774
 21
24.0207695781
 31
0.0
 11
71.6031024561
 21
24.2292618622
 31
0.0
 11
71.5033293071
 21
24.4376243017
 31
0.0
 11
71.3884327241
 21
24.6424619328
 31
0.0
 11
71.2628649933
 21
24.8352608695
 31
0.0
 11
71.1288865649
 21
25.0152627105
 31
0.0
 11
70.9861069012
 21
25.1852482096
 31
0.0
 11
70.8334864872
 21
25.3472638532
 31
0.0
 11
70.6703082428
 21
25.5011707509
 31
0.0
 11
70.4999458691
 21
25.6427554074
 31
0.0
 11
70.3215457109
 21
25.7731154017
 31
0.0
 11
70.1238499482
 21
25.8990559046
 31
0.0
 11
69.8945606032
 21
26.0237953006
 31
0.0
 11
69.6338207359
 21
26.1410097612
 31
0.0
 11
69.3410899187
 21
26.2448088794
 31
0.0
 11
69.0126723434
 21
26.3294350769
 31
0.0
 11
68.6453090872
 21
26.3870772711
 31
0.0
 11
68.2360631767
 21
26.4074926594
 31
0.0
  0
SPLINE
  5
38B
100
AcDbEntity
  8
RACCORDO
100
AcDbSpline
 62
253
  6
CONTINUOUS
 70
0
 71
3
 72
24
 73
20
 74
18
 42
0.0000001
 43
0.0000001
 44
0.0000000001
 12
-14.284515946
 22
-0.0776728711
 32
0.0
 13
-14.2847261006
 23
0.0053960508
 33
0.0
 40
0.0
 40
0.0
 40
0.0
 40
0.0
 40
0.0301934162
 40
0.062884156
 40
0.0982184822
 40
0.1364078144
 40
0.1776902537
 40
0.2222778776
 40
0.2703265599
 40
0.3220056732
 40
0.3775542496
 40
0.4372518245
 40
0.5014090151
 40
0.5703449545
 40
0.644394997
 40
0.7238716539
 40
0.8092190873
 40
0.9009571288
 40
1.0
 40
1.0
 40
1.0
 40
1.0
 10
68.2360631767
 20
26.4074926594
 30
0.0
 10
68.092297065
 20
26.406710923
 30
0.0
 10
67.792870916
 20
26.405627323
 30
0.0
 10
67.3251967663
 20
26.4048122409
 30
0.0
 10
66.8194486773
 20
26.4047084594
 30
0.0
 10
66.272790982
 20
26.4053165826
 30
0.0
 10
65.6820740268
 20
26.4065952584
 30
0.0
 10
65.0444132036
 20
26.4086977782
 30
0.0
 10
64.3572472039
 20
26.410665266
 30
0.0
 10
63.6178889221
 20
26.4123679445
 30
0.0
 10
62.823062784
 20
26.4137473402
 30
0.0
 10
61.968820626
 20
26.414666029
 30
0.0
 10
61.0508331813
 20
26.415148029
 30
0.0
 10
60.0645052714
 20
26.4152592346
 30
0.0
 10
59.0052325837
 20
26.4151240296
 30
0.0
 10
57.8678153254
 20
26.4148994297
 30
0.0
 10
56.6461753187
 20
26.4151051071
 30
0.0
 10
55.3313693062
 20
26.4154418989
 30
0.0
 10
54.422951834
 20
26.4162364822
 30
0.0
 10
53.9513517384
 20
26.4164146289
 30
0.0
 11
68.2360631767
 21
26.4074926594
 31
0.0
 11
67.8047617874
 21
26.4057998596
 31
0.0
 11
67.3377842647
 21
26.4049492021
 31
0.0
 11
66.8330430741
 21
26.4048177895
 31
0.0
 11
66.2875191877
 21
26.4053921396
 31
0.0
 11
65.6978121873
 21
26.4066682254
 31
0.0
 11
65.0608930742
 21
26.4085990861
 31
0.0
 11
64.3745335431
 21
26.410554013
 31
0.0
 11
63.6363134793
 21
26.412258217
 31
0.0
 11
62.842818407
 21
26.4136289095
 31
0.0
 11
61.990055357
 21
26.4145677847
 31
0.0
 11
61.0735875363
 21
26.415075364
 31
0.0
 11
60.0888564639
 21
26.4152184475
 31
0.0
 11
59.0310718193
 21
26.4151154528
 31
0.0
 11
57.8957694715
 21
26.4149717047
 31
0.0
 11
56.6766046831
 21
26.4151171789
 31
0.0
 11
55.3661518697
 21
26.4155629104
 31
0.0
 11
53.9513517384
 21
26.4164146289
 31
0.0
  0
SPLINE
  5
38C
100
AcDbEntity
  8
RACCORDO
100
AcDbSpline
 62
253
  6
CONTINUOUS
 70
0
 71
3
 72
28
 73
24
 74
22
 42
0.0000001
 43
0.0000001
 44
0.0000000001
 12
-32.77660459
 22
0.8977546609
 32
0.0
 13
-32.7888970824
 23
-0.0000393928
 33
0.0
 40
0.0
 40
0.0
 40
0.0
 40
0.0
 40
0.0188019996
 40
0.0397150341
 40
0.0629366278
 40
0.0883125707
 40
0.1157591087
 40
0.1454728092
 40
0.1776917074
 40
0.2124275482
 40
0.2497117073
 40
0.2898688451
 40
0.3332620393
 40
0.3802128927
 40
0.4309464392
 40
0.4856340304
 40
0.544454988
 40
0.6076222676
 40
0.6754298085
 40
0.7481965888
 40
0.8262389868
 40
0.9099850923
 40
1.0
 40
1.0
 40
1.0
 40
1.0
 10
86.739417134
 20
46.8940553555
 30
0.0
 10
86.5339952316
 20
46.8996818831
 30
0.0
 10
86.1000833901
 20
46.9114204736
 30
0.0
 10
85.4124336529
 20
46.9290468424
 30
0.0
 10
84.6528561586
 20
46.9442867213
 30
0.0
 10
83.8217959914
 20
46.9556814103
 30
0.0
 10
82.9197443003
 20
46.9640893768
 30
0.0
 10
81.9429019273
 20
46.9727549849
 30
0.0
 10
80.8863914166
 20
46.9820038771
 30
0.0
 10
79.7471177203
 20
46.9889008629
 30
0.0
 10
78.5210677433
 20
46.9928332016
 30
0.0
 10
77.2003905682
 20
46.9938984666
 30
0.0
 10
75.7740609501
 20
46.9923583063
 30
0.0
 10
74.2321377287
 20
46.9893123463
 30
0.0
 10
72.5667700874
 20
46.9865839611
 30
0.0
 10
70.7716656989
 20
46.9843140903
 30
0.0
 10
68.8406638706
 20
46.9833768061
 30
0.0
 10
66.7662657406
 20
46.983735125
 30
0.0
 10
64.53944524
 20
46.9849246126
 30
0.0
 10
62.1500455534
 20
46.9867451491
 30
0.0
 10
59.5864435253
 20
46.9889995569
 30
0.0
 10
56.8343255839
 20
46.9910775717
 30
0.0
 10
54.9351815769
 20
46.9917285047
 30
0.0
 10
53.9513517288
 20
46.9917273227
 30
0.0
 11
86.739417134
 21
46.8940553555
 31
0.0
 11
86.1231439172
 21
46.9106584987
 31
0.0
 11
85.4376428056
 21
46.9277975965
 31
0.0
 11
84.6763850293
 21
46.9430442965
 31
0.0
 11
83.8444187068
 21
46.9547863235
 31
0.0
 11
82.944522071
 21
46.9637936238
 31
0.0
 11
81.9702814516
 21
46.9724938939
 31
0.0
 11
80.9138960652
 21
46.9813055264
 31
0.0
 11
79.7749670908
 21
46.9882110475
 31
0.0
 11
78.5524673439
 21
46.9922614906
 31
0.0
 11
77.235759642
 21
46.9934719961
 31
0.0
 11
75.8129452361
 21
46.9921962735
 31
0.0
 11
74.2734809358
 21
46.989477165
 31
0.0
 11
72.6099861296
 21
46.9867545189
 31
0.0
 11
70.8168416312
 21
46.9845955729
 31
0.0
 11
68.8881675608
 21
46.9836038768
 31
0.0
 11
66.8169821432
 21
46.9838467091
 31
0.0
 11
64.5936479506
 21
46.9849770791
 31
0.0
 11
62.2077061382
 21
46.9867462943
 31
0.0
 11
59.6487828842
 21
46.9888935802
 31
0.0
 11
56.9028411408
 21
46.9908439496
 31
0.0
 11
53.9513517288
 21
46.9917273227
 31
0.0
  0
SPLINE
  5
38D
100
AcDbEntity
  8
RACCORDO
100
AcDbSpline
 62
253
  6
CONTINUOUS
 70
0
 71
3
 72
18
 73
14
 74
12
 42
0.0000001
 43
0.0000001
 44
0.0000000001
 12
-0.0888267875
 22
2.8939590222
 32
0.0
 13
-2.8942684876
 23
0.0780957235
 33
0.0
 40
0.0
 40
0.0
 40
0.0
 40
0.0
 40
0.0555275563
 40
0.1165290216
 40
0.1833937476
 40
0.2564856333
 40
0.3361535514
 40
0.4230200946
 40
0.5179891223
 40
0.6220279339
 40
0.7362142235
 40
0.8618086103
 40
1.0
 40
1.0
 40
1.0
 40
1.0
 10
88.605804532
 20
45.0343095201
 30
0.0
 10
88.6041604205
 20
45.0878743443
 30
0.0
 10
88.5956894748
 20
45.2001907305
 30
0.0
 10
88.5661723301
 20
45.3749623879
 30
0.0
 10
88.5154415182
 20
45.5624969605
 30
0.0
 10
88.4387979731
 20
45.7605709422
 30
0.0
 10
88.3309897332
 20
45.9657909026
 30
0.0
 10
88.1863839223
 20
46.1734969898
 30
0.0
 10
87.9990113237
 20
46.3772550881
 30
0.0
 10
87.7630108516
 20
46.5680316474
 30
0.0
 10
87.4731202054
 20
46.7328347953
 30
0.0
 10
87.1272281471
 20
46.8547492443
 30
0.0
 10
86.8727381288
 20
46.89045797
 30
0.0
 10
86.739417134
 20
46.8940553555
 30
0.0
 11
88.605804532
 21
45.0343095201
 31
0.0
 11
88.5937521853
 21
45.1946272745
 31
0.0
 11
88.5644533145
 21
45.3687990425
 31
0.0
 11
88.5139298777
 21
45.5556850248
 31
0.0
 11
88.4375631872
 21
45.753050356
 31
0.0
 11
88.3302999221
 21
45.9572575968
 31
0.0
 11
88.1866126162
 21
46.1636783596
 31
0.0
 11
88.0005104729
 21
46.3660943733
 31
0.0
 11
87.7662120593
 21
46.5554122729
 31
0.0
 11
87.4788249736
 21
46.7188412629
 31
0.0
 11
87.1357879483
 21
46.8394931235
 31
0.0
 11
86.739417134
 21
46.8940553555
 31
0.0
  0
SPLINE
  5
38E
100
AcDbEntity
  8
RACCORDO
100
AcDbSpline
 62
253
  6
CONTINUOUS
 70
0
 71
3
 72
30
 73
26
 74
24
 42
0.0000001
 43
0.0000001
 44
0.0000000001
 12
-0.0758326753
 22
32.7499111787
 32
0.0
 13
-0.0000124137
 23
32.7499989741
 33
0.0
 40
0.0
 40
0.0
 40
0.0
 40
0.0
 40
0.0207735621
 40
0.0393803441
 40
0.0570115543
 40
0.0756570423
 40
0.0963871649
 40
0.1191846953
 40
0.1440896184
 40
0.1713622283
 40
0.2012227456
 40
0.23393378
 40
0.2696646004
 40
0.308394949
 40
0.3501705061
 40
0.3952641873
 40
0.4439456059
 40
0.4964487843
 40
0.5530489865
 40
0.6140503193
 40
0.6798599747
 40
0.7509221266
 40
0.8276131435
 40
0.9102931907
 40
1.0
 40
1.0
 40
1.0
 40
1.0
 10
89.4698124768
 20
-44.0091099808
 30
0.0
 10
89.4692873719
 20
-43.7823325432
 30
0.0
 10
89.4684858447
 20
-43.3524311367
 30
0.0
 10
89.4678684345
 20
-42.7300552817
 30
0.0
 10
89.4675659674
 20
-42.1309107147
 30
0.0
 10
89.4671840391
 20
-41.5085863896
 30
0.0
 10
89.4666464423
 20
-40.8298631665
 30
0.0
 10
89.4660994265
 20
-40.0828077686
 30
0.0
 10
89.4655368471
 20
-39.2643302114
 30
0.0
 10
89.4650168404
 20
-38.3687483383
 30
0.0
 10
89.4646015381
 20
-37.3879496894
 30
0.0
 10
89.4642531728
 20
-36.3148155506
 30
0.0
 10
89.4639197462
 20
-35.1448524134
 30
0.0
 10
89.4636370797
 20
-33.8759348904
 30
0.0
 10
89.4634518854
 20
-32.5048061193
 30
0.0
 10
89.4634206166
 20
-31.0250448253
 30
0.0
 10
89.4635480793
 20
-29.4281736744
 30
0.0
 10
89.4637822658
 20
-27.7056896858
 30
0.0
 10
89.4640538346
 20
-25.8487133091
 30
0.0
 10
89.4643250423
 20
-23.8464745616
 30
0.0
 10
89.4645396224
 20
-21.6863595267
 30
0.0
 10
89.4646170923
 20
-19.3549654332
 30
0.0
 10
89.4644697617
 20
-16.839402907
 30
0.0
 10
89.4642259646
 20
-14.1203028859
 30
0.0
 10
89.4641386183
 20
-12.2384130952
 30
0.0
 10
89.4641382471
 20
-11.2591137906
 30
0.0
 11
89.4698124768
 21
-44.0091099808
 31
0.0
 11
89.468546109
 21
-43.3287770226
 31
0.0
 11
89.4679086815
 21
-42.7194052623
 31
0.0
 11
89.4675613718
 21
-42.1419832524
 31
0.0
 11
89.4671808145
 21
-41.5313436568
 31
0.0
 11
89.4666707683
 21
-40.8524323564
 31
0.0
 11
89.46612161
 21
-40.1058134618
 31
0.0
 11
89.4655684614
 21
-39.290177443
 31
0.0
 11
89.4650555858
 21
-38.3969996436
 31
0.0
 11
89.4646300856
 21
-37.419067826
 31
0.0
 11
89.4642706389
 21
-36.3477815423
 31
0.0
 11
89.4639407255
 21
-35.1775972586
 31
0.0
 11
89.4636623228
 21
-33.9091784103
 31
0.0
 11
89.4634817658
 21
-32.5410289713
 31
0.0
 11
89.4634453414
 21
-31.064210958
 31
0.0
 11
89.4635591027
 21
-29.4698945535
 31
0.0
 11
89.4637790214
 21
-27.7504155269
 31
0.0
 11
89.4640435994
 21
-25.8967589819
 31
0.0
 11
89.4643063633
 21
-23.8989654139
 31
0.0
 11
89.4645110908
 21
-21.7436992757
 31
0.0
 11
89.4645808007
 21
-19.4164138754
 31
0.0
 11
89.4644610642
 21
-16.9047831523
 31
0.0
 11
89.4642515639
 21
-14.1970117023
 31
0.0
 11
89.4641382471
 21
-11.2591137906
 31
0.0
  0
SPLINE
  5
38F
100
AcDbEntity
  8
RACCORDO
100
AcDbSpline
 62
253
  6
CONTINUOUS
 70
0
 71
3
 72
38
 73
34
 74
32
 42
0.0000001
 43
0.0000001
 44
0.0000000001
 12
0.0000146704
 22
32.7500025793
 32
0.0
 13
0.0758219208
 23
32.7499148088
 33
0.0
 40
0.0
 40
0.0
 40
0.0
 40
0.0
 40
0.0831347425
 40
0.1597842826
 40
0.2305394375
 40
0.2958978699
 40
0.3563059771
 40
0.4121713229
 40
0.4638551743
 40
0.5116925271
 40
0.5559899552
 40
0.5970177556
 40
0.6350314877
 40
0.6703003525
 40
0.7029997449
 40
0.7331775453
 40
0.7608689239
 40
0.786096598
 40
0.808879754
 40
0.8294328678
 40
0.848079927
 40
0.865143274
 40
0.8808315646
 40
0.895048971
 40
0.907653028
 40
0.9189037654
 40
0.9292503186
 40
0.9391527893
 40
0.949107793
 40
0.9597443509
 40
0.9716430469
 40
0.9850398764
 40
1.0
 40
1.0
 40
1.0
 40
1.0
 10
89.4641382471
 20
12.2408806219
 30
0.0
 10
89.4641386536
 20
13.1484349659
 30
0.0
 10
89.4642130952
 20
14.892746855
 30
0.0
 10
89.4644146731
 20
17.4094692375
 30
0.0
 10
89.4645720836
 20
19.732133556
 30
0.0
 10
89.46460583
 20
21.8774955574
 30
0.0
 10
89.4645083774
 20
23.8603104614
 30
0.0
 10
89.4642945542
 20
25.6938445013
 30
0.0
 10
89.4640098972
 20
27.3901477818
 30
0.0
 10
89.4637402677
 20
28.9601679515
 30
0.0
 10
89.4635375509
 20
30.4138595652
 30
0.0
 10
89.4634308374
 20
31.7603099885
 30
0.0
 10
89.4634308638
 20
33.0081985927
 30
0.0
 10
89.46353714
 20
34.1651687298
 30
0.0
 10
89.4637201376
 20
35.2365965949
 30
0.0
 10
89.4639504266
 20
36.2253035503
 30
0.0
 10
89.4642071275
 20
37.1324442314
 30
0.0
 10
89.464465564
 20
37.9588600342
 30
0.0
 10
89.4647410664
 20
38.7073497644
 30
0.0
 10
89.4650480464
 20
39.3840010912
 30
0.0
 10
89.465389151
 20
39.9982111393
 30
0.0
 10
89.4657487373
 20
40.5593135091
 30
0.0
 10
89.4661120514
 20
41.072058818
 30
0.0
 10
89.4664503821
 20
41.5361235452
 30
0.0
 10
89.466758018
 20
41.9517449891
 30
0.0
 10
89.4670421045
 20
42.3251096218
 30
0.0
 10
89.4672910176
 20
42.6689819531
 30
0.0
 10
89.4675034317
 20
42.9987092136
 30
0.0
 10
89.467675233
 20
43.3316023811
 30
0.0
 10
89.4678772859
 20
43.6862876647
 30
0.0
 10
89.4682172901
 20
44.0785461367
 30
0.0
 10
89.4688202069
 20
44.5180032828
 30
0.0
 10
89.4694343748
 20
44.8275661297
 30
0.0
 10
89.4698124766
 20
44.990880387
 30
0.0
 11
89.4641382471
 21
12.2408806219
 31
0.0
 11
89.4642337855
 21
14.9635436522
 31
0.0
 11
89.4644144648
 21
17.4738162814
 31
0.0
 11
89.4645551807
 21
19.7910477822
 31
0.0
 11
89.4645826237
 21
21.9315366113
 31
0.0
 11
89.4644828243
 21
23.9099022755
 31
0.0
 11
89.4642730138
 21
25.739492482
 31
0.0
 11
89.4640017003
 21
27.4321387284
 31
0.0
 11
89.4637423854
 21
28.9988121328
 31
0.0
 11
89.4635476855
 21
30.4495530043
 31
0.0
 11
89.4634466601
 21
31.7932135721
 31
0.0
 11
89.4634506334
 21
33.0381633951
 31
0.0
 11
89.4635554879
 21
34.1932188035
 31
0.0
 11
89.4637363716
 21
35.2641239735
 31
0.0
 11
89.4639653488
 21
36.2524469881
 31
0.0
 11
89.464219443
 21
37.1593396713
 31
0.0
 11
89.4644819202
 21
37.9855460214
 31
0.0
 11
89.4647612196
 21
38.7316943876
 31
0.0
 11
89.465069448
 21
39.4048088476
 31
0.0
 11
89.465407841
 21
40.0154999907
 31
0.0
 11
89.4657649283
 21
40.5743245349
 31
0.0
 11
89.4661252701
 21
41.0881159666
 31
0.0
 11
89.4664641377
 21
41.5537359393
 31
0.0
 11
89.4667704581
 21
41.9665187234
 31
0.0
 11
89.4670472458
 21
42.3349802988
 31
0.0
 11
89.4672899304
 21
42.6738298571
 31
0.0
 11
89.4674961552
 21
42.9981357308
 31
0.0
 11
89.4676742083
 21
43.3241620817
 31
0.0
 11
89.4678857207
 21
43.6725093139
 31
0.0
 11
89.4682339804
 21
44.0621914828
 31
0.0
 11
89.4688390798
 21
44.500937269
 31
0.0
 11
89.4698124766
 21
44.990880387
 31
0.0
  0
SPLINE
  5
390
100
AcDbEntity
  8
RACCORDO
100
AcDbSpline
 62
253
  6
CONTINUOUS
 70
0
 71
3
 72
37
 73
33
 74
31
 42
0.0000001
 43
0.0000001
 44
0.0000000001
 12
0.0757720166
 22
-32.7499196945
 32
0.0
 13
0.0000146857
 23
-32.7500073495
 33
0.0
 40
0.0
 40
0.0
 40
0.0
 40
0.0
 40
0.0154604513
 40
0.0292647575
 40
0.041535149
 40
0.0526132667
 40
0.063166795
 40
0.0738275857
 40
0.0851114628
 40
0.0975139139
 40
0.1114893338
 40
0.1271319867
 40
0.1443379893
 40
0.1631806903
 40
0.1839499634
 40
0.2069581399
 40
0.2324659778
 40
0.2605176678
 40
0.2911060676
 40
0.324271706
 40
0.3600974076
 40
0.3987432462
 40
0.4404493521
 40
0.485426983
 40
0.5339124579
 40
0.5862307186
 40
0.6427441124
 40
0.703771689
 40
0.769644255
 40
0.8406816006
 40
0.9172241772
 40
1.0
 40
1.0
 40
1.0
 40
1.0
 10
-65.0671090693
 20
44.9908851583
 30
0.0
 10
-65.0667185794
 20
44.8221089791
 30
0.0
 10
-65.0660880867
 20
44.502635897
 30
0.0
 10
-65.0654795135
 20
44.0492108031
 30
0.0
 10
-65.0651438401
 20
43.643625938
 30
0.0
 10
-65.0649421106
 20
43.2735286668
 30
0.0
 10
-65.0647556023
 20
42.9210028695
 30
0.0
 10
-65.0645167807
 20
42.5662308951
 30
0.0
 10
-65.0642395652
 20
42.1912748654
 30
0.0
 10
-65.0639242777
 20
41.7801341438
 30
0.0
 10
-65.0635845634
 20
41.3214101146
 30
0.0
 10
-65.0632199559
 20
40.8102473073
 30
0.0
 10
-65.0628412509
 20
40.2459499995
 30
0.0
 10
-65.0624695256
 20
39.6256870579
 30
0.0
 10
-65.0621346727
 20
38.9420836737
 30
0.0
 10
-65.0618381012
 20
38.1857191725
 30
0.0
 10
-65.0615696716
 20
37.349854921
 30
0.0
 10
-65.0613019473
 20
36.4312398764
 30
0.0
 10
-65.0610572233
 20
35.4290271471
 30
0.0
 10
-65.0608582322
 20
34.3419480953
 30
0.0
 10
-65.0607347139
 20
33.166908637
 30
0.0
 10
-65.060721049
 20
31.8986357146
 30
0.0
 10
-65.0608204262
 20
30.5304542113
 30
0.0
 10
-65.0610213539
 20
29.0548566661
 30
0.0
 10
-65.0612936412
 20
27.4634097474
 30
0.0
 10
-65.0615836597
 20
25.7460307237
 30
0.0
 10
-65.0618028423
 20
23.891733713
 30
0.0
 10
-65.061902594
 20
21.8894688262
 30
0.0
 10
-65.0618686688
 20
19.7286507605
 30
0.0
 10
-65.0617103159
 20
17.3984605796
 30
0.0
 10
-65.0615090937
 20
14.8837431404
 30
0.0
 10
-65.0614351998
 20
13.1445168906
 30
0.0
 10
-65.0614347946
 20
12.2408806219
 30
0.0
 11
-65.0671090693
 21
44.9908851583
 31
0.0
 11
-65.0661087012
 21
44.4845562536
 31
0.0
 11
-65.0654980892
 21
44.0324655343
 31
0.0
 11
-65.0651529588
 21
43.6306102722
 31
0.0
 11
-65.0649399806
 21
43.2678018987
 31
0.0
 11
-65.0647479626
 21
42.9221738214
 31
0.0
 11
-65.0645176191
 21
42.5730329253
 31
0.0
 11
-65.0642469775
 21
42.2034859655
 31
0.0
 11
-65.0639391199
 21
41.7973057167
 31
0.0
 11
-65.0636000055
 21
41.3396107393
 31
0.0
 11
-65.0632355595
 21
40.8273138726
 31
0.0
 11
-65.0628596793
 21
40.2638172856
 31
0.0
 11
-65.0624928411
 21
39.6467187993
 31
0.0
 11
-65.0621571579
 21
38.9665250335
 31
0.0
 11
-65.0618572534
 21
38.2130071427
 31
0.0
 11
-65.0615825281
 21
37.3776253119
 31
0.0
 11
-65.0613169412
 21
36.4589322938
 31
0.0
 11
-65.0610738876
 21
35.4571620054
 31
0.0
 11
-65.060877112
 21
34.3709871217
 31
0.0
 11
-65.0607557004
 21
33.1976951398
 31
0.0
 11
-65.0607383333
 21
31.9320436399
 31
0.0
 11
-65.0608317492
 21
30.5661683693
 31
0.0
 11
-65.0610243925
 21
29.0931506385
 31
0.0
 11
-65.0612859169
 21
27.5052510027
 31
0.0
 11
-65.0615620137
 21
25.7918275997
 31
0.0
 11
-65.0617767334
 21
23.9410135505
 31
0.0
 11
-65.0618789671
 21
21.9423599727
 31
0.0
 11
-65.0618514736
 21
19.785032952
 31
0.0
 11
-65.061709898
 21
17.4585593637
 31
0.0
 11
-65.0615296054
 21
14.9517894262
 31
0.0
 11
-65.0614347946
 21
12.2408806219
 31
0.0
  0
SPLINE
  5
391
100
AcDbEntity
  8
RACCORDO
100
AcDbSpline
 62
253
  6
CONTINUOUS
 70
0
 71
3
 72
30
 73
26
 74
24
 42
0.0000001
 43
0.0000001
 44
0.0000000001
 12
-0.0000135205
 22
-32.7500055762
 32
0.0
 13
-0.0758333887
 23
-32.7499177791
 33
0.0
 40
0.0
 40
0.0
 40
0.0
 40
0.0
 40
0.0939194236
 40
0.1797408897
 40
0.2583614058
 40
0.3304985692
 40
0.3967786808
 40
0.4577566004
 40
0.5139198169
 40
0.5656966238
 40
0.613474631
 40
0.6575775984
 40
0.6983646445
 40
0.7361399869
 40
0.7709551017
 40
0.8028321366
 40
0.831966667
 40
0.858615684
 40
0.8829704648
 40
0.9052785912
 40
0.9255516798
 40
0.9438234638
 40
0.9611834427
 40
0.9795357518
 40
1.0
 40
1.0
 40
1.0
 40
1.0
 10
-65.0614347946
 20
-11.259113796
 30
0.0
 10
-65.0614352179
 20
-12.2844010121
 30
0.0
 10
-65.0615309367
 20
-14.2465727252
 30
0.0
 10
-65.061787052
 20
-17.0670185402
 30
0.0
 10
-65.0619191701
 20
-19.6496746511
 30
0.0
 10
-65.0618109322
 20
-22.0190042748
 30
0.0
 10
-65.0615784231
 20
-24.1957355069
 30
0.0
 10
-65.0612997107
 20
-26.1980844496
 30
0.0
 10
-65.0610296713
 20
-28.0421056211
 30
0.0
 10
-65.0608103554
 20
-29.7420277314
 30
0.0
 10
-65.0607098739
 20
-31.3102921119
 30
0.0
 10
-65.0607727036
 20
-32.7585849201
 30
0.0
 10
-65.0609760726
 20
-34.097681936
 30
0.0
 10
-65.0612674757
 20
-35.3353865244
 30
0.0
 10
-65.0615983717
 20
-36.4758234597
 30
0.0
 10
-65.0619479763
 20
-37.5219315052
 30
0.0
 10
-65.0623705432
 20
-38.4788929357
 30
0.0
 10
-65.0628922156
 20
-39.3537363476
 30
0.0
 10
-65.0634469849
 20
-40.1540581314
 30
0.0
 10
-65.0639856914
 20
-40.8847760109
 30
0.0
 10
-65.0645100826
 20
-41.5490878243
 30
0.0
 10
-65.0648765263
 20
-42.1593824487
 30
0.0
 10
-65.0651780368
 20
-42.748708594
 30
0.0
 10
-65.0657991131
 20
-43.3619689505
 30
0.0
 10
-65.0665917455
 20
-43.7857157714
 30
0.0
 10
-65.0671090366
 20
-44.0091165871
 30
0.0
 11
-65.0614347946
 21
-11.259113796
 31
0.0
 11
-65.0615577634
 21
-14.3349754416
 31
0.0
 11
-65.0617748029
 21
-17.1456289251
 31
0.0
 11
-65.0618794465
 21
-19.7204512652
 31
0.0
 11
-65.0617829218
 21
-22.0829437638
 31
0.0
 11
-65.061560039
 21
-24.2536177789
 31
0.0
 11
-65.0612898831
 21
-26.2506449656
 31
0.0
 11
-65.0610282179
 21
-28.0899906011
 31
0.0
 11
-65.0608238147
 21
-29.7856813039
 31
0.0
 11
-65.0607364469
 21
-31.3504113047
 31
0.0
 11
-65.0608014104
 21
-32.7947837298
 31
0.0
 11
-65.0610003837
 21
-34.1305597043
 31
0.0
 11
-65.0612868248
 21
-35.3677023429
 31
0.0
 11
-65.0616164171
 21
-36.5078974994
 31
0.0
 11
-65.0619775046
 21
-37.5518705101
 31
0.0
 11
-65.0624082274
 21
-38.5060264452
 31
0.0
 11
-65.0629218761
 21
-39.37878175
 31
0.0
 11
-65.0634685846
 21
-40.1764007688
 31
0.0
 11
-65.0640087226
 21
-40.9069918335
 31
0.0
 11
-65.0645053357
 21
-41.5709354124
 31
0.0
 11
-65.0648734181
 21
-42.1693363251
 31
0.0
 11
-65.0652186599
 21
-42.7378756278
 31
0.0
 11
-65.0658570158
 21
-43.3389135127
 31
0.0
 11
-65.0671090366
 21
-44.0091165871
 31
0.0
  0
SPLINE
  5
392
100
AcDbEntity
  8
RACCORDO
100
AcDbSpline
 62
253
  6
CONTINUOUS
 70
0
 71
3
 72
28
 73
24
 74
22
 42
0.0000001
 43
0.0000001
 44
0.0000000001
 12
-32.7499299827
 22
-0.066441015
 32
0.0
 13
-32.7499973783
 23
0.0000148693
 33
0.0
 40
0.0
 40
0.0
 40
0.0
 40
0.0
 40
0.0183958429
 40
0.0389931691
 40
0.0620816086
 40
0.0874969938
 40
0.1150155981
 40
0.1447329248
 40
0.1768970339
 40
0.2115810917
 40
0.2488386098
 40
0.2889924888
 40
0.3324143415
 40
0.3794255158
 40
0.4302325803
 40
0.4850025186
 40
0.5439114643
 40
0.6071659564
 40
0.6750614125
 40
0.7479196608
 40
0.8260550805
 40
0.9098937549
 40
1.0
 40
1.0
 40
1.0
 40
1.0
 10
86.7013517263
 20
47.7596264027
 30
0.0
 10
86.5005308704
 20
47.7592189898
 30
0.0
 10
86.0748559806
 20
47.7585325207
 30
0.0
 10
85.3971320633
 20
47.7579055742
 30
0.0
 10
84.6427779742
 20
47.7575405233
 30
0.0
 10
83.8128665915
 20
47.7572093658
 30
0.0
 10
82.9105899124
 20
47.7567449293
 30
0.0
 10
81.9346397014
 20
47.7562060303
 30
0.0
 10
80.8804665637
 20
47.7557724191
 30
0.0
 10
79.7439796154
 20
47.7555218933
 30
0.0
 10
78.5202709987
 20
47.7554224948
 30
0.0
 10
77.2011747923
 20
47.755461594
 30
0.0
 10
75.7756011897
 20
47.7556024674
 30
0.0
 10
74.2337303231
 20
47.7557704483
 30
0.0
 10
72.567976196
 20
47.7559087535
 30
0.0
 10
70.7723380715
 20
47.7560126282
 30
0.0
 10
68.8408155365
 20
47.7560526299
 30
0.0
 10
66.7660061102
 20
47.7560388406
 30
0.0
 10
64.5389168105
 20
47.7559887534
 30
0.0
 10
62.1493773983
 20
47.7559073244
 30
0.0
 10
59.5857912009
 20
47.7558024052
 30
0.0
 10
56.8339143862
 20
47.7557031853
 30
0.0
 10
54.9350158341
 20
47.7556710714
 30
0.0
 10
53.951356071
 20
47.755671518
 30
0.0
 11
86.7013517263
 21
47.7596264027
 31
0.0
 11
86.0988887323
 21
47.7586364202
 31
0.0
 11
85.4243266758
 21
47.7579775005
 31
0.0
 11
84.6681804569
 21
47.7575630021
 31
0.0
 11
83.8358267368
 21
47.7572031133
 31
0.0
 11
82.9345926299
 21
47.7567518767
 31
0.0
 11
81.961350391
 21
47.7562427229
 31
0.0
 11
80.9079759901
 21
47.7558159842
 31
0.0
 11
79.7720732173
 21
47.7555534986
 31
0.0
 11
78.5518896016
 21
47.7554467661
 31
0.0
 11
77.2368501718
 21
47.7554751056
 31
0.0
 11
75.8147846125
 21
47.7556009004
 31
0.0
 11
74.2751687877
 21
47.7557595413
 31
0.0
 11
72.611237564
 21
47.7558984407
 31
0.0
 11
70.8175222316
 21
47.755999316
 31
0.0
 11
68.8882544151
 21
47.7560431641
 31
0.0
 11
66.8166699623
 21
47.7560339005
 31
0.0
 11
64.593093954
 21
47.755985829
 31
0.0
 11
62.2069865165
 21
47.7559066588
 31
0.0
 11
59.6480517252
 21
47.7558069577
 31
0.0
 11
56.9023353602
 21
47.755714097
 31
0.0
 11
53.951356071
 21
47.755671518
 31
0.0
  0
SPLINE
  5
393
100
AcDbEntity
  8
RACCORDO
100
AcDbSpline
 62
253
  6
CONTINUOUS
 70
0
 71
3
 72
25
 73
21
 74
19
 42
0.0000001
 43
0.0000001
 44
0.0000000001
 12
-32.7888967209
 22
0.0000399959
 32
0.0
 13
-32.7765917766
 23
-0.8982091536
 33
0.0
 40
0.0
 40
0.0
 40
0.0
 40
0.0
 40
0.1019344059
 40
0.1962668246
 40
0.2836164461
 40
0.3645257232
 40
0.4394882397
 40
0.50895071
 40
0.5732223859
 40
0.6325079233
 40
0.6869677553
 40
0.7369095555
 40
0.7826797162
 40
0.8241284168
 40
0.8614126572
 40
0.8948946305
 40
0.9250829571
 40
0.9524550512
 40
0.9773560658
 40
1.0
 40
1.0
 40
1.0
 40
1.0
 10
-29.5486482741
 20
46.9917273229
 30
0.0
 10
-30.6627538431
 20
46.9917286819
 30
0.0
 10
-32.8078780667
 20
46.9908942526
 30
0.0
 10
-35.9077004904
 20
46.9883693679
 30
0.0
 10
-38.777725944
 20
46.9858782775
 30
0.0
 10
-41.4360460138
 20
46.9841311838
 30
0.0
 10
-43.898866585
 20
46.9832915172
 30
0.0
 10
-46.1798445271
 20
46.9840577143
 30
0.0
 10
-48.2894772168
 20
46.9867224956
 30
0.0
 10
-50.2351351326
 20
46.9900653076
 30
0.0
 10
-52.0241726143
 20
46.9934992842
 30
0.0
 10
-53.6654964242
 20
46.9937404313
 30
0.0
 10
-55.164609682
 20
46.9899531236
 30
0.0
 10
-56.5253614772
 20
46.9818504871
 30
0.0
 10
-57.7517806465
 20
46.9708646883
 30
0.0
 10
-58.8551328987
 20
46.9610916945
 30
0.0
 10
-59.850140189
 20
46.9506475635
 30
0.0
 10
-60.7512943698
 20
46.9353619447
 30
0.0
 10
-61.569854799
 20
46.9147515112
 30
0.0
 10
-62.0893166779
 20
46.9008350202
 30
0.0
 10
-62.336713674
 20
46.8940553572
 30
0.0
 11
-29.5486482741
 21
46.9917273229
 31
0.0
 11
-32.8909647963
 21
46.9906157049
 31
0.0
 11
-35.9840198486
 21
46.9882785949
 31
0.0
 11
-38.8481165956
 21
46.9859216331
 31
0.0
 11
-41.5010419907
 21
46.9842336473
 31
0.0
 11
-43.9589801083
 21
46.9835588551
 31
0.0
 11
-46.2365777002
 21
46.9844424138
 31
0.0
 11
-48.3439735451
 21
46.9869575701
 31
0.0
 11
-50.2878781638
 21
46.9902239322
 31
0.0
 11
-52.0735537444
 21
46.9930437109
 31
0.0
 11
-53.7110902714
 21
46.9929857303
 31
0.0
 11
-55.2118378741
 21
46.9889338653
 31
0.0
 11
-56.5708710726
 21
46.9808633185
 31
0.0
 11
-57.7933363724
 21
46.970513933
 31
0.0
 11
-58.891127278
 21
46.9604574852
 31
0.0
 11
-59.8809052483
 21
46.9492059206
 31
0.0
 11
-60.7782706329
 21
46.9336175973
 31
0.0
 11
-61.5945093341
 21
46.9139011424
 31
0.0
 11
-62.336713674
 21
46.8940553572
 31
0.0
  0
SPLINE
  5
394
100
AcDbEntity
  8
RACCORDO
100
AcDbSpline
 62
253
  6
CONTINUOUS
 70
0
 71
3
 72
39
 73
35
 74
33
 42
0.0000001
 43
0.0000001
 44
0.0000000001
 12
-14.2834601517
 22
-0.005397694
 32
0.0
 13
-14.2832185271
 23
0.0832559112
 33
0.0
 40
0.0
 40
0.0
 40
0.0
 40
0.0
 40
0.0820563551
 40
0.1573095705
 40
0.2264470565
 40
0.2900271502
 40
0.3485509691
 40
0.402462502
 40
0.4521562299
 40
0.4979877453
 40
0.5402838969
 40
0.5793365945
 40
0.6154008407
 40
0.6487247488
 40
0.6795568654
 40
0.7080873339
 40
0.7344109026
 40
0.7586196707
 40
0.780938937
 40
0.8016779564
 40
0.8211410979
 40
0.8394398767
 40
0.8562261084
 40
0.8712450539
 40
0.8849370109
 40
0.897954546
 40
0.9107816531
 40
0.9235728761
 40
0.9364127803
 40
0.9492810334
 40
0.9621235352
 40
0.9749439953
 40
0.9876616368
 40
1.0
 40
1.0
 40
1.0
 40
1.0
 10
-29.5486482481
 20
26.4164143297
 30
0.0
 10
-29.9393311411
 20
26.4162666914
 30
0.0
 10
-30.6883059106
 20
26.4155465464
 30
0.0
 10
-31.7664551528
 20
26.4152741672
 30
0.0
 10
-32.7566360298
 20
26.4149717221
 30
0.0
 10
-33.6671657404
 20
26.4149537481
 30
0.0
 10
-34.5052023216
 20
26.4150978243
 30
0.0
 10
-35.277123785
 20
26.4152146478
 30
0.0
 10
-35.9886152517
 20
26.4152312293
 30
0.0
 10
-36.6448040943
 20
26.4151113537
 30
0.0
 10
-37.2503293086
 20
26.4148390235
 30
0.0
 10
-37.8093509468
 20
26.4144034212
 30
0.0
 10
-38.3256541905
 20
26.4138161099
 30
0.0
 10
-38.8028177693
 20
26.4130924211
 30
0.0
 10
-39.2441116333
 20
26.4122591991
 30
0.0
 10
-39.6520756006
 20
26.4113610095
 30
0.0
 10
-40.0285046037
 20
26.4104216136
 30
0.0
 10
-40.3753609565
 20
26.4094604874
 30
0.0
 10
-40.6956283048
 20
26.4085002746
 30
0.0
 10
-40.9933008117
 20
26.4075173996
 30
0.0
 10
-41.2718316209
 20
26.4067111707
 30
0.0
 10
-41.5315429582
 20
26.4060637473
 30
0.0
 10
-41.7700950985
 20
26.4055730767
 30
0.0
 10
-41.9867136734
 20
26.4052240189
 30
0.0
 10
-42.1853890382
 20
26.4049827881
 30
0.0
 10
-42.3736288097
 20
26.404831594
 30
0.0
 10
-42.5575800988
 20
26.4047670402
 30
0.0
 10
-42.7406856704
 20
26.4047964472
 30
0.0
 10
-42.9239871021
 20
26.4049246653
 30
0.0
 10
-43.1075325821
 20
26.4051548013
 30
0.0
 10
-43.290985311
 20
26.4054984496
 30
0.0
 10
-43.4737206745
 20
26.4059695315
 30
0.0
 10
-43.6540553009
 20
26.4065922561
 30
0.0
 10
-43.7733494585
 20
26.4071703926
 30
0.0
 10
-43.8320933046
 20
26.4075128065
 30
0.0
 11
-29.5486482481
 21
26.4164143297
 31
0.0
 11
-30.7206967678
 21
26.4156598629
 31
0.0
 11
-31.7955730714
 21
26.4152569498
 31
0.0
 11
-32.7830956389
 21
26.4150126324
 31
0.0
 11
-33.6912394378
 21
26.4149834835
 31
0.0
 11
-34.527162124
 21
26.4150986148
 31
0.0
 11
-35.2972054051
 21
26.4152005858
 31
0.0
 11
-36.007003838
 21
26.4152063041
 31
0.0
 11
-36.6616364951
 21
26.4150779724
 31
0.0
 11
-37.2657718701
 21
26.4147975805
 31
0.0
 11
-37.8235793861
 21
26.4143576976
 31
0.0
 11
-38.3387013087
 21
26.4137674345
 31
0.0
 11
-38.8146815062
 21
26.4130438133
 31
0.0
 11
-39.2550700649
 21
26.4122146052
 31
0.0
 11
-39.6625829153
 21
26.4113171113
 31
0.0
 11
-40.0385734161
 21
26.4103785051
 31
0.0
 11
-40.3843570913
 21
26.4094219342
 31
0.0
 11
-40.7031520164
 21
26.4084609884
 31
0.0
 11
-40.9993754948
 21
26.4075180881
 31
0.0
 11
-41.2773753594
 21
26.4067143109
 31
0.0
 11
-41.5387444509
 21
26.4060656061
 31
0.0
 11
-41.7785094363
 21
26.4055745602
 31
0.0
 11
-41.9930316826
 21
26.4052286958
 31
0.0
 11
-42.1886000762
 21
26.4049926239
 31
0.0
 11
-42.3745354748
 21
26.4048449846
 31
0.0
 11
-42.5577509506
 21
26.4047826222
 31
0.0
 11
-42.7404538845
 21
26.4048127883
 31
0.0
 11
-42.9238521125
 21
26.4049414965
 31
0.0
 11
-43.1076551586
 21
26.4051739483
 31
0.0
 11
-43.2910902074
 21
26.4055202097
 31
0.0
 11
-43.4742101294
 21
26.4059976123
 31
0.0
 11
-43.6558609274
 21
26.4066413072
 31
0.0
 11
-43.8320933046
 21
26.4075128065
 31
0.0
  0
SPLINE
  5
395
100
AcDbEntity
  8
RACCORDO
100
AcDbSpline
 62
253
  6
CONTINUOUS
 70
0
 71
3
 72
10
 73
6
 74
4
 42
0.0000001
 43
0.0000001
 44
0.0000000001
 12
0.0062312852
 22
-0.8668169663
 32
0.0
 13
0.51378124
 23
-0.6981685466
 33
0.0
 40
0.0
 40
0.0
 40
0.0
 40
0.0
 40
0.4931850187
 40
0.8512414312
 40
1.0
 40
1.0
 40
1.0
 40
1.0
 10
-62.3364732593
 20
-45.9125251727
 30
0.0
 10
-62.3354488671
 20
-46.0550255533
 30
0.0
 10
-62.3406404193
 20
-46.3055104278
 30
0.0
 10
-62.3043158576
 20
-46.5812368484
 30
0.0
 10
-62.3241247277
 20
-46.7432451878
 30
0.0
 10
-62.2986482737
 20
-46.7778647057
 30
0.0
 11
-62.3364732593
 21
-45.9125251727
 31
0.0
 11
-62.3293426029
 21
-46.3399778886
 31
0.0
 11
-62.3157888821
 21
-46.6500592046
 31
0.0
 11
-62.2986482737
 21
-46.7778647057
 31
0.0
  0
SPLINE
  5
396
100
AcDbEntity
  8
RACCORDO
100
AcDbSpline
 62
253
  6
CONTINUOUS
 70
0
 71
3
 72
10
 73
6
 74
4
 42
0.0000001
 43
0.0000001
 44
0.0000000001
 12
-0.865807858
 22
0.0072062999
 32
0.0
 13
-0.6611570833
 23
0.5590585738
 33
0.0
 40
0.0
 40
0.0
 40
0.0
 40
0.0
 40
0.4930322829
 40
0.8509470607
 40
1.0
 40
1.0
 40
1.0
 40
1.0
 10
-64.2031033817
 20
-44.0525403646
 30
0.0
 10
-64.3453937899
 20
-44.0513560518
 30
0.0
 10
-64.5964106439
 20
-44.0563970856
 30
0.0
 10
-64.8691394164
 20
-44.0172969915
 30
0.0
 10
-65.0341160219
 20
-44.0368930305
 30
0.0
 10
-65.0669651574
 20
-44.0091165893
 30
0.0
 11
-64.2031033817
 21
-44.0525403646
 31
0.0
 11
-64.6299105441
 21
-44.0443359722
 31
0.0
 11
-64.9394159033
 21
-44.0287775992
 31
0.0
 11
-65.0669651574
 21
-44.0091165893
 31
0.0
  0
SPLINE
  5
397
100
AcDbEntity
  8
RACCORDO
100
AcDbSpline
 62
253
  6
CONTINUOUS
 70
0
 71
3
 72
10
 73
6
 74
4
 42
0.0000001
 43
0.0000001
 44
0.0000000001
 12
-0.8659523014
 22
-0.0071885248
 32
0.0
 13
-0.6613146264
 23
-0.5590957236
 33
0.0
 40
0.0
 40
0.0
 40
0.0
 40
0.0
 40
0.4930172428
 40
0.8509347729
 40
1.0
 40
1.0
 40
1.0
 40
1.0
 10
-64.2031044207
 20
45.0343072428
 30
0.0
 10
-64.345414226
 20
45.0331258872
 30
0.0
 10
-64.5964675323
 20
45.0381694103
 30
0.0
 10
-64.8692469119
 20
44.9990748929
 30
0.0
 10
-65.0342503061
 20
45.0186639899
 30
0.0
 10
-65.0671099777
 20
44.9908834129
 30
0.0
 11
-64.2031044207
 21
45.0343072428
 31
0.0
 11
-64.6299698453
 21
45.0261099301
 31
0.0
 11
-64.9395293022
 21
45.0105515987
 31
0.0
 11
-65.0671099777
 21
44.9908834129
 31
0.0
  0
SPLINE
  5
398
100
AcDbEntity
  8
RACCORDO
100
AcDbSpline
 62
253
  6
CONTINUOUS
 70
0
 71
3
 72
10
 73
6
 74
4
 42
0.0000001
 43
0.0000001
 44
0.0000000001
 12
0.0062589255
 22
0.8670345606
 32
0.0
 13
0.516125282
 23
0.6967085451
 33
0.0
 40
0.0
 40
0.0
 40
0.0
 40
0.0
 40
0.4931660358
 40
0.8512273202
 40
1.0
 40
1.0
 40
1.0
 40
1.0
 10
-62.3367138137
 20
46.894055845
 30
0.0
 10
-62.3356849172
 20
47.0365865107
 30
0.0
 10
-62.3408825557
 20
47.287172161
 30
0.0
 10
-62.3044100829
 20
47.5628442585
 30
0.0
 10
-62.3242434008
 20
47.7250436147
 30
0.0
 10
-62.298648287
 20
47.7595940138
 30
0.0
 11
-62.3367138137
 21
46.894055845
 31
0.0
 11
-62.3295419728
 21
47.3215988351
 31
0.0
 11
-62.3159015384
 21
47.6317586327
 31
0.0
 11
-62.298648287
 21
47.7595940138
 31
0.0
  0
SPLINE
  5
399
100
AcDbEntity
  8
RACCORDO
100
AcDbSpline
 62
253
  6
CONTINUOUS
 70
0
 71
3
 72
10
 73
6
 74
4
 42
0.0000001
 43
0.0000001
 44
0.0000000001
 12
-0.0062664436
 22
0.8670673166
 32
0.0
 13
-0.5160046779
 23
0.6968386988
 33
0.0
 40
0.0
 40
0.0
 40
0.0
 40
0.0
 40
0.4931612687
 40
0.8512231104
 40
1.0
 40
1.0
 40
1.0
 40
1.0
 10
86.7394170455
 20
46.8940550462
 30
0.0
 10
86.7383869231
 20
47.0365897188
 30
0.0
 10
86.7435805061
 20
47.2871806324
 30
0.0
 10
86.7071148835
 20
47.5628715533
 30
0.0
 10
86.7269415832
 20
47.7250685713
 30
0.0
 10
86.7013517263
 20
47.7596264027
 30
0.0
 11
86.7394170455
 21
46.8940550462
 31
0.0
 11
86.7322427359
 21
47.3216100436
 31
0.0
 11
86.7186026565
 21
47.6317820996
 31
0.0
 11
86.7013517263
 21
47.7596264027
 31
0.0
  0
SPLINE
  5
39A
100
AcDbEntity
  8
RACCORDO
100
AcDbSpline
 62
253
  6
CONTINUOUS
 70
0
 71
3
 72
10
 73
6
 74
4
 42
0.0000001
 43
0.0000001
 44
0.0000000001
 12
0.8659546969
 22
-0.0071940607
 32
0.0
 13
0.6613399582
 23
-0.5590695407
 33
0.0
 40
0.0
 40
0.0
 40
0.0
 40
0.0
 40
0.4930161524
 40
0.8509337213
 40
1.0
 40
1.0
 40
1.0
 40
1.0
 10
88.6058045296
 20
45.0343095193
 30
0.0
 10
88.7481144139
 20
45.0331272566
 30
0.0
 10
88.9991674125
 20
45.0381690251
 30
0.0
 10
89.2719494608
 20
44.9990754842
 30
0.0
 10
89.4369513639
 20
45.0186628849
 30
0.0
 10
89.4698125261
 20
44.9908834129
 30
0.0
 11
88.6058045296
 21
45.0343095193
 31
0.0
 11
89.0326701745
 21
45.0261101675
 31
0.0
 11
89.342230512
 21
45.0105512824
 31
0.0
 11
89.4698125261
 21
44.9908834129
 31
0.0
  0
SPLINE
  5
39B
100
AcDbEntity
  8
RACCORDO
100
AcDbSpline
 62
253
  6
CONTINUOUS
 70
0
 71
3
 72
10
 73
6
 74
4
 42
0.0000001
 43
0.0000001
 44
0.0000000001
 12
0.8659545281
 22
0.0071483956
 32
0.0
 13
0.6611892402
 23
0.5592469338
 33
0.0
 40
0.0
 40
0.0
 40
0.0
 40
0.0
 40
0.4930138159
 40
0.8509306254
 40
1.0
 40
1.0
 40
1.0
 40
1.0
 10
88.6058064732
 20
-44.0525402481
 30
0.0
 10
88.7481156553
 20
-44.0513654955
 30
0.0
 10
88.9991714515
 20
-44.0564166841
 30
0.0
 10
89.2719429195
 20
-44.0173209271
 30
0.0
 10
89.4369581336
 20
-44.0369054506
 30
0.0
 10
89.4698124891
 20
-44.0091165871
 30
0.0
 11
88.6058064732
 21
-44.0525402481
 31
0.0
 11
89.0326701066
 21
-44.0443555894
 31
0.0
 11
89.3422295201
 21
-44.0287953203
 31
0.0
 11
89.4698124891
 21
-44.0091165871
 31
0.0
  0
SPLINE
  5
39C
100
AcDbEntity
  8
RACCORDO
100
AcDbSpline
 62
253
  6
CONTINUOUS
 70
0
 71
3
 72
10
 73
6
 74
4
 42
0.0000001
 43
0.0000001
 44
0.0000000001
 12
-0.0062257318
 22
-0.8667801956
 32
0.0
 13
-0.5138903256
 23
-0.6980425491
 33
0.0
 40
0.0
 40
0.0
 40
0.0
 40
0.0
 40
0.4931899457
 40
0.8512457164
 40
1.0
 40
1.0
 40
1.0
 40
1.0
 10
86.7391768797
 20
-45.9125257637
 30
0.0
 10
86.7381533903
 20
-46.0550215229
 30
0.0
 10
86.7433485287
 20
-46.3054997996
 30
0.0
 10
86.7070175993
 20
-46.581206677
 30
0.0
 10
86.726832871
 20
-46.7432158935
 30
0.0
 10
86.701351742
 20
-46.7778281666
 30
0.0
 11
86.7391768797
 21
-45.9125257637
 31
0.0
 11
86.7320481157
 21
-46.3399646261
 31
0.0
 11
86.7184941779
 21
-46.6500321832
 31
0.0
 11
86.701351742
 21
-46.7778281666
 31
0.0
  0
SPLINE
  5
39D
100
AcDbEntity
  8
RACCORDO
100
AcDbSpline
 62
253
  6
CONTINUOUS
 70
0
 71
3
 72
27
 73
23
 74
21
 42
0.0000001
 43
0.0000001
 44
0.0000000001
 12
-5.7889629439
 22
0.0336336452
 32
0.0
 13
0.0301783036
 23
-5.788981988
 33
0.0
 40
0.0
 40
0.0
 40
0.0
 40
0.0
 40
0.0714586871
 40
0.136262917
 40
0.1953201903
 40
0.2493403383
 40
0.2987529315
 40
0.3429903457
 40
0.3835003835
 40
0.4221596928
 40
0.4606938623
 40
0.4995493931
 40
0.5384986472
 40
0.5768991622
 40
0.6151469437
 40
0.6551641384
 40
0.6991724122
 40
0.7482138407
 40
0.8020577155
 40
0.8613153274
 40
0.9268870393
 40
1.0
 40
1.0
 40
1.0
 40
1.0
 10
-43.8320933046
 20
26.4075128065
 30
0.0
 10
-43.9699838685
 20
26.4083139452
 30
0.0
 10
-44.2332619068
 20
26.3952646785
 30
0.0
 10
-44.6061614434
 20
26.3363460753
 30
0.0
 10
-44.9388438357
 20
26.2497739441
 30
0.0
 10
-45.2344235798
 20
26.1440196393
 30
0.0
 10
-45.4942903051
 20
26.026387633
 30
0.0
 10
-45.7216498398
 20
25.9021091607
 30
0.0
 10
-45.9223389237
 20
25.7735945968
 30
0.0
 10
-46.1054057603
 20
25.6388969485
 30
0.0
 10
-46.2772669462
 20
25.4951145355
 30
0.0
 10
-46.4406027584
 20
25.3408943565
 30
0.0
 10
-46.5938605846
 20
25.177009585
 30
0.0
 10
-46.7365329069
 20
25.0053800501
 30
0.0
 10
-46.8704052235
 20
24.8242216106
 30
0.0
 10
-46.9987336241
 20
24.6260281687
 30
0.0
 10
-47.1233886755
 20
24.4012881753
 30
0.0
 10
-47.2419316155
 20
24.1434787584
 30
0.0
 10
-47.3486522293
 20
23.8489331239
 30
0.0
 10
-47.4361508794
 20
23.5149033791
 30
0.0
 10
-47.4970808425
 20
23.1372363958
 30
0.0
 10
-47.5115245226
 20
22.8692977366
 30
0.0
 10
-47.5107890476
 20
22.7282145324
 30
0.0
 11
-43.8320933046
 21
26.4075128065
 31
0.0
 11
-44.2452587093
 21
26.3869119981
 31
0.0
 11
-44.6158135992
 21
26.3283388754
 31
0.0
 11
-44.9466858502
 21
26.2422593549
 31
0.0
 11
-45.2411323699
 21
26.1369087799
 31
0.0
 11
-45.5017004893
 21
26.0188821416
 31
0.0
 11
-45.7263860074
 21
25.8959997569
 31
0.0
 11
-45.9238786105
 21
25.769532419
 31
0.0
 11
-46.1041602167
 21
25.6369222054
 31
0.0
 11
-46.2753141757
 21
25.493850505
 31
0.0
 11
-46.4388196511
 21
25.3393751848
 31
0.0
 11
-46.5929243001
 21
25.1747762646
 31
0.0
 11
-46.7350529098
 21
25.0038434056
 31
0.0
 11
-46.8665436864
 21
24.8256961963
 31
0.0
 11
-46.9923963413
 21
24.6312010136
 31
0.0
 11
-47.1159723375
 21
24.4084119284
 31
0.0
 11
-47.2345774377
 21
24.1504696869
 31
0.0
 11
-47.3407703957
 21
23.8574110791
 31
0.0
 11
-47.427942008
 21
23.5256255977
 31
0.0
 11
-47.4884451512
 21
23.1508797112
 31
0.0
 11
-47.5107890476
 21
22.7282145324
 31
0.0
  0
SPLINE
  5
39E
100
AcDbEntity
  8
RACCORDO
100
AcDbSpline
 62
253
  6
CONTINUOUS
 70
0
 71
3
 72
11
 73
7
 74
5
 42
0.0000001
 43
0.0000001
 44
0.0000000001
 12
0.0524624298
 22
-10.4872063041
 32
0.0
 13
0.0034873362
 23
-10.4873369456
 33
0.0
 40
0.0
 40
0.0
 40
0.0
 40
0.0
 40
0.2228179969
 40
0.4651779438
 40
0.723952065
 40
1.0
 40
1.0
 40
1.0
 40
1.0
 10
-47.5107890476
 20
22.7282145324
 30
0.0
 10
-47.5068925231
 20
21.949301765
 30
0.0
 10
-47.5050955061
 20
20.3231341725
 30
0.0
 10
-47.5091796306
 20
17.7923629125
 30
0.0
 10
-47.5094514
 20
15.0755043999
 30
0.0
 10
-47.5072583849
 20
13.2058858248
 30
0.0
 10
-47.5069374943
 20
12.2408832555
 30
0.0
 11
-47.5107890476
 21
22.7282145324
 31
0.0
 11
-47.5061854019
 21
20.3914515267
 31
0.0
 11
-47.5084667814
 21
17.8497419853
 31
0.0
 11
-47.5088881657
 21
15.1358904662
 31
0.0
 11
-47.5069374943
 21
12.2408832555
 31
0.0
  0
SPLINE
  5
39F
100
AcDbEntity
  8
RACCORDO
100
AcDbSpline
 62
253
  6
CONTINUOUS
 70
0
 71
3
 72
37
 73
33
 74
31
 42
0.0000001
 43
0.0000001
 44
0.0000000001
 12
-1.0063658562
 22
-32.7794223984
 32
0.0
 13
-0.0000922918
 23
-32.7948670527
 33
0.0
 40
0.0
 40
0.0
 40
0.0
 40
0.0
 40
0.0158374967
 40
0.0299568914
 40
0.0424422091
 40
0.0535908034
 40
0.0640922482
 40
0.0746838278
 40
0.0859254177
 40
0.0983129819
 40
0.1122856683
 40
0.1279291683
 40
0.1451452178
 40
0.1640145363
 40
0.1848155253
 40
0.207841493
 40
0.2333438857
 40
0.2613798081
 40
0.2919567363
 40
0.3251156684
 40
0.3609397103
 40
0.3995815311
 40
0.4412709952
 40
0.4862145476
 40
0.5346430789
 40
0.586877008
 40
0.6432794143
 40
0.7041877603
 40
0.7699366811
 40
0.8408591297
 40
0.9173035275
 40
1.0
 40
1.0
 40
1.0
 40
1.0
 10
-64.2031038977
 20
45.034307074
 30
0.0
 10
-64.2084166696
 20
44.8612590757
 30
0.0
 10
-64.2188264683
 20
44.5339463948
 30
0.0
 10
-64.2352910265
 20
44.0702757808
 30
0.0
 10
-64.249673488
 20
43.6578225337
 30
0.0
 10
-64.2598535737
 20
43.2847946091
 30
0.0
 10
-64.2639648804
 20
42.9323589075
 30
0.0
 10
-64.2679275828
 20
42.5789130685
 30
0.0
 10
-64.2725996382
 20
42.2048533344
 30
0.0
 10
-64.2786627776
 20
41.7938489409
 30
0.0
 10
-64.2853366879
 20
41.3347282809
 30
0.0
 10
-64.2923550709
 20
40.8228240099
 30
0.0
 10
-64.2997175293
 20
40.2573914813
 30
0.0
 10
-64.3079440555
 20
39.6355857278
 30
0.0
 10
-64.3165159621
 20
38.9502671881
 30
0.0
 10
-64.3246778547
 20
38.1924282222
 30
0.0
 10
-64.3316722059
 20
37.3554850235
 30
0.0
 10
-64.3380632128
 20
36.4359910457
 30
0.0
 10
-64.3440623122
 20
35.4327942872
 30
0.0
 10
-64.3491541697
 20
34.3444546356
 30
0.0
 10
-64.3531401266
 20
33.1679474005
 30
0.0
 10
-64.355428974
 20
31.8981826357
 30
0.0
 10
-64.3553909056
 20
30.5287247109
 30
0.0
 10
-64.3529707494
 20
29.0522843196
 30
0.0
 10
-64.3483001404
 20
27.4605810081
 30
0.0
 10
-64.3424955117
 20
25.7436170795
 30
0.0
 10
-64.3375229011
 20
23.890224851
 30
0.0
 10
-64.3352485304
 20
21.8890861378
 30
0.0
 10
-64.335710969
 20
19.7292187589
 30
0.0
 10
-64.338976955
 20
17.3995197095
 30
0.0
 10
-64.3431039085
 20
14.8845579026
 30
0.0
 10
-64.3445788771
 20
13.1448900271
 30
0.0
 10
-64.3445814212
 20
12.2408834199
 30
0.0
 11
-64.2031038977
 21
45.034307074
 31
0.0
 11
-64.2197620651
 21
44.5151856789
 31
0.0
 11
-64.2358727047
 21
44.0524223603
 31
0.0
 11
-64.2496370462
 21
43.6431994453
 31
0.0
 11
-64.25906653
 21
43.2777043947
 31
0.0
 11
-64.2639274411
 21
42.9333452129
 31
0.0
 11
-64.2679197228
 21
42.5860187123
 31
0.0
 11
-64.2725753826
 21
42.2173816652
 31
0.0
 11
-64.2783934602
 21
41.8111748055
 31
0.0
 11
-64.2850117123
 21
41.3529902114
 31
0.0
 11
-64.2920632934
 21
40.8400121721
 31
0.0
 11
-64.2995009954
 21
40.275463111
 31
0.0
 11
-64.3075938757
 21
39.65669924
 31
0.0
 11
-64.3160242347
 21
38.9745856649
 31
0.0
 11
-64.3240981691
 21
38.2194952792
 31
0.0
 11
-64.3312540074
 21
37.3831783153
 31
0.0
 11
-64.3377278744
 21
36.4637667603
 31
0.0
 11
-64.3436848429
 21
35.4610181578
 31
0.0
 11
-64.3487930001
 21
34.3735873863
 31
0.0
 11
-64.3527370884
 21
33.1987493159
 31
0.0
 11
-64.3549969958
 21
31.9314979534
 31
0.0
 11
-64.3550385057
 21
30.5642975225
 31
0.0
 11
-64.3527269131
 21
29.0903815102
 31
0.0
 11
-64.3483085111
 21
27.5021804104
 31
0.0
 11
-64.3428411337
 21
25.7891843757
 31
0.0
 11
-64.3381134863
 21
23.9394809987
 31
0.0
 11
-64.3357411334
 21
21.9420012986
 31
0.0
 11
-64.336109558
 21
19.7857742155
 31
0.0
 11
-64.3389815332
 21
17.4598837155
 31
0.0
 11
-64.3426733886
 21
14.9529025705
 31
0.0
 11
-64.3445814212
 21
12.2408834199
 31
0.0
  0
SPLINE
  5
3A0
100
AcDbEntity
  8
RACCORDO
100
AcDbSpline
 62
253
  6
CONTINUOUS
 70
0
 71
3
 72
18
 73
14
 74
12
 42
0.0000001
 43
0.0000001
 44
0.0000000001
 12
-2.8942688488
 22
-0.0780879397
 32
0.0
 13
-0.0888318364
 23
-2.8939590185
 33
0.0
 40
0.0
 40
0.0
 40
0.0
 40
0.0
 40
0.1384565462
 40
0.2640491777
 40
0.3781884982
 40
0.4821948786
 40
0.5771331817
 40
0.6639679479
 40
0.7436067092
 40
0.8166727425
 40
0.8835138972
 40
0.9444934269
 40
1.0
 40
1.0
 40
1.0
 40
1.0
 10
-62.336713674
 20
46.8940553572
 30
0.0
 10
-62.4702904969
 20
46.8904514284
 30
0.0
 10
-62.7250365965
 20
46.8546502856
 30
0.0
 10
-63.0710771442
 20
46.7325301985
 30
0.0
 10
-63.3608391278
 20
46.5676621962
 30
0.0
 10
-63.5966989818
 20
46.3768827095
 30
0.0
 10
-63.7839575651
 20
46.1731454007
 30
0.0
 10
-63.9284693791
 20
45.965482582
 30
0.0
 10
-64.0362052246
 20
45.7603198768
 30
0.0
 10
-64.1127976373
 20
45.5623079204
 30
0.0
 10
-64.1634954706
 20
45.3748361363
 30
0.0
 10
-64.1929940625
 20
45.2001266808
 30
0.0
 10
-64.201460314
 20
45.0878516567
 30
0.0
 10
-64.2031038977
 20
45.034307074
 30
0.0
 11
-62.336713674
 21
46.8940553572
 31
0.0
 11
-62.7338337388
 21
46.839306317
 31
0.0
 11
-63.076818052
 21
46.718519932
 31
0.0
 11
-63.3640282305
 21
46.5550549622
 31
0.0
 11
-63.598196964
 21
46.3657259717
 31
0.0
 11
-63.7841877927
 21
46.1633284487
 31
0.0
 11
-63.9277798334
 21
45.9569534636
 31
0.0
 11
-64.0349708933
 21
45.7528036412
 31
0.0
 11
-64.1112871124
 21
45.5554990293
 31
0.0
 11
-64.1617778293
 21
45.3686748883
 31
0.0
 11
-64.1910583099
 21
45.1945644205
 31
0.0
 11
-64.2031038977
 21
45.034307074
 31
0.0
  0
SPLINE
  5
3A1
100
AcDbEntity
  8
RACCORDO
100
AcDbSpline
 62
253
  6
CONTINUOUS
 70
0
 71
3
 72
32
 73
28
 74
26
 42
0.0000001
 43
0.0000001
 44
0.0000000001
 12
32.7499308767
 22
0.0660254087
 32
0.0
 13
32.7499974318
 23
-0.0000147702
 33
0.0
 40
0.0
 40
0.0
 40
0.0
 40
0.0
 40
0.0108371229
 40
0.0228073316
 40
0.036035752
 40
0.0507345102
 40
0.0671945626
 40
0.0857355946
 40
0.1065772968
 40
0.1295553648
 40
0.1545638364
 40
0.1818282389
 40
0.2115842499
 40
0.2440047382
 40
0.2792202143
 40
0.3173539016
 40
0.3586040387
 40
0.4031971982
 40
0.451316527
 40
0.5032222984
 40
0.5592307973
 40
0.6196426421
 40
0.6847809827
 40
0.7549636228
 40
0.8305589945
 40
0.912044429
 40
1.0
 40
1.0
 40
1.0
 40
1.0
 10
-62.2986482737
 20
-46.7778647057
 30
0.0
 10
-62.1803432649
 20
-46.7776261972
 30
0.0
 10
-61.9313636276
 20
-46.7771853755
 30
0.0
 10
-61.5379737152
 20
-46.7766547653
 30
0.0
 10
-61.1024274892
 20
-46.7762122926
 30
0.0
 10
-60.6178670335
 20
-46.7758733609
 30
0.0
 10
-60.0753105056
 20
-46.7756452053
 30
0.0
 10
-59.4656934933
 20
-46.7754635818
 30
0.0
 10
-58.7849215186
 20
-46.7751625652
 30
0.0
 10
-58.0335467247
 20
-46.7747366602
 30
0.0
 10
-57.2120574579
 20
-46.7742900829
 30
0.0
 10
-56.3165755889
 20
-46.7739572099
 30
0.0
 10
-55.340179171
 20
-46.7737589849
 30
0.0
 10
-54.2769835246
 20
-46.7736719962
 30
0.0
 10
-53.1223315836
 20
-46.7736851282
 30
0.0
 10
-51.8712893214
 20
-46.7737856147
 30
0.0
 10
-50.5178740273
 20
-46.7739317157
 30
0.0
 10
-49.0554488205
 20
-46.7740671025
 30
0.0
 10
-47.4766996133
 20
-46.7741847229
 30
0.0
 10
-45.7733329582
 20
-46.7742655732
 30
0.0
 10
-43.9357730122
 20
-46.7742958666
 30
0.0
 10
-41.9537575305
 20
-46.7742790214
 30
0.0
 10
-39.8170076873
 20
-46.7742191232
 30
0.0
 10
-37.5145043561
 20
-46.7741282877
 30
0.0
 10
-35.0335452646
 20
-46.7740263692
 30
0.0
 10
-32.3585650249
 20
-46.7739347285
 30
0.0
 10
-30.5088341936
 20
-46.7739042591
 30
0.0
 10
-29.5486526186
 20
-46.7739046921
 30
0.0
 11
-62.2986482737
 21
-46.7778647057
 31
0.0
 11
-61.9437330919
 21
-46.7772309811
 31
0.0
 11
-61.5517091548
 21
-46.7766939574
 31
0.0
 11
-61.1184786491
 21
-46.7762502447
 31
0.0
 11
-60.6370944785
 21
-46.7759079245
 31
0.0
 11
-60.0980278592
 21
-46.7756651175
 31
0.0
 11
-59.4908091451
 21
-46.7754573198
 31
0.0
 11
-58.8082435157
 21
-46.7751593869
 31
0.0
 11
-58.0557119558
 21
-46.7747520127
 31
0.0
 11
-57.2366846872
 21
-46.7743259224
 31
0.0
 11
-56.3437756392
 21
-46.7739913306
 31
0.0
 11
-55.3692663751
 21
-46.7737837314
 31
0.0
 11
-54.3074954718
 21
-46.7736903024
 31
0.0
 11
-53.1541887215
 21
-46.7736974918
 31
0.0
 11
-51.9053105632
 21
-46.7737884068
 31
0.0
 11
-50.5543686847
 21
-46.7739244496
 31
0.0
 11
-49.0939428316
 21
-46.7740593068
 31
0.0
 11
-47.5180349416
 21
-46.7741748108
 31
0.0
 11
-45.8181210627
 21
-46.774255004
 31
0.0
 11
-43.983842868
 21
-46.7742877249
 31
0.0
 11
-42.0053551057
 21
-46.7742732614
 31
0.0
 11
-39.8720746189
 21
-46.7742167584
 31
0.0
 11
-37.5735933386
 21
-46.7741300178
 31
0.0
 11
-35.0978451109
 21
-46.7740317199
 31
0.0
 11
-32.4291973432
 21
-46.773944757
 31
0.0
 11
-29.5486526186
 21
-46.7739046921
 31
0.0
  0
SPLINE
  5
3A2
100
AcDbEntity
  8
RACCORDO
100
AcDbSpline
 62
253
  6
CONTINUOUS
 70
0
 71
3
 72
30
 73
26
 74
24
 42
0.0000001
 43
0.0000001
 44
0.0000000001
 12
32.7499974124
 22
0.0000147883
 32
0.0
 13
32.7499309752
 23
-0.0659668938
 33
0.0
 40
0.0
 40
0.0
 40
0.0
 40
0.0
 40
0.0863962626
 40
0.166586226
 40
0.2410562605
 40
0.3102305345
 40
0.3744999627
 40
0.434224463
 40
0.4897279689
 40
0.5412921296
 40
0.5892052797
 40
0.6337125537
 40
0.6749866496
 40
0.7132424645
 40
0.7486729351
 40
0.781372399
 40
0.8114594036
 40
0.8391712865
 40
0.8646596728
 40
0.8877505548
 40
0.9092229821
 40
0.930775536
 40
0.9538179955
 40
0.9776776057
 40
1.0
 40
1.0
 40
1.0
 40
1.0
 10
53.9513560685
 20
-46.7739046921
 30
0.0
 10
54.8945151942
 20
-46.7739042662
 30
0.0
 10
56.7130813511
 20
-46.7739336924
 30
0.0
 10
59.3446119856
 20
-46.7740228956
 30
0.0
 10
61.788135925
 20
-46.7741228749
 30
0.0
 10
64.0578607028
 20
-46.7742131925
 30
0.0
 10
66.1666134121
 20
-46.7742749593
 30
0.0
 10
68.1261269161
 20
-46.7742959505
 30
0.0
 10
69.946941261
 20
-46.7742720355
 30
0.0
 10
71.6388150422
 20
-46.7741990807
 30
0.0
 10
73.210646632
 20
-46.7740874158
 30
0.0
 10
74.6701450211
 20
-46.7739570342
 30
0.0
 10
76.0242175066
 20
-46.7738118572
 30
0.0
 10
77.2792015662
 20
-46.7736996589
 30
0.0
 10
78.4405792389
 20
-46.7736668993
 30
0.0
 10
79.5127807398
 20
-46.77373086
 30
0.0
 10
80.5007209859
 20
-46.7739002731
 30
0.0
 10
81.4099402761
 20
-46.7741993177
 30
0.0
 10
82.2427851719
 20
-46.77462377
 30
0.0
 10
83.0075159931
 20
-46.7750662681
 30
0.0
 10
83.7292806968
 20
-46.7754133727
 30
0.0
 10
84.4505168319
 20
-46.775634647
 30
0.0
 10
85.197813026
 20
-46.7759478583
 30
0.0
 10
85.9535131076
 20
-46.7766085226
 30
0.0
 10
86.4576661019
 20
-46.7773738594
 30
0.0
 10
86.7013517263
 20
-46.7778647057
 30
0.0
 11
53.9513560685
 21
-46.7739046921
 31
0.0
 11
56.7808334454
 21
-46.7739434549
 31
0.0
 11
59.4070545374
 21
-46.7740281978
 31
0.0
 11
61.845947973
 21
-46.7741247668
 31
0.0
 11
64.1114052647
 21
-46.7742112123
 31
0.0
 11
66.2162288719
 21
-46.7742696564
 31
0.0
 11
68.1722061009
 21
-46.7742883854
 31
0.0
 11
69.9899457753
 21
-46.7742620518
 31
0.0
 11
71.6786719047
 21
-46.7741892153
 31
0.0
 11
73.2478274428
 21
-46.7740798144
 31
0.0
 11
74.7054405449
 21
-46.7739493733
 31
0.0
 11
76.0571670725
 21
-46.7738124898
 31
0.0
 11
77.3100449061
 21
-46.7737101696
 31
0.0
 11
78.4703927264
 21
-46.773683731
 31
0.0
 11
79.5413000818
 21
-46.7737533513
 31
0.0
 11
80.5266493908
 21
-46.7739316342
 31
0.0
 11
81.4342134308
 21
-46.7742357825
 31
0.0
 11
82.2689579158
 21
-46.7746471807
 31
0.0
 11
83.0251841276
 21
-46.7750637275
 31
0.0
 11
83.7284059876
 21
-46.7753925834
 31
0.0
 11
84.4342520299
 21
-46.7756424298
 31
0.0
 11
85.1888924314
 21
-46.7760003635
 31
0.0
 11
85.9702942825
 21
-46.7767098317
 31
0.0
 11
86.7013517263
 21
-46.7778647057
 31
0.0
  0
SPLINE
  5
3A3
100
AcDbEntity
  8
RACCORDO
100
AcDbSpline
 62
253
  6
CONTINUOUS
 70
0
 71
3
 72
11
 73
7
 74
5
 42
0.0000001
 43
0.0000001
 44
0.0000000001
 12
-0.0157755118
 22
10.5001479872
 32
0.0
 13
-0.0000435363
 23
10.5001598377
 33
0.0
 40
0.0
 40
0.0
 40
0.0
 40
0.0
 40
0.2235861809
 40
0.4648325741
 40
0.7231718633
 40
1.0
 40
1.0
 40
1.0
 40
1.0
 10
70.2427586781
 20
-21.7592759729
 30
0.0
 10
70.2415829493
 20
-20.9767133103
 30
0.0
 10
70.2412302017
 20
-19.3497738495
 30
0.0
 10
70.2413738341
 20
-16.8186340827
 30
0.0
 10
70.2406946166
 20
-14.1011443284
 30
0.0
 10
70.2402682413
 20
-12.2280298761
 30
0.0
 10
70.2402642239
 20
-11.2591166483
 30
0.0
 11
70.2427586781
 21
-21.7592759729
 31
0.0
 11
70.2413465769
 21
-19.4115857602
 31
0.0
 11
70.2412453889
 21
-16.8784600738
 31
0.0
 11
70.2407205305
 21
-14.1658562958
 31
0.0
 11
70.2402642239
 21
-11.2591166483
 31
0.0
  0
SPLINE
  5
3A4
100
AcDbEntity
  8
RACCORDO
100
AcDbSpline
 62
253
  6
CONTINUOUS
 70
0
 71
3
 72
28
 73
24
 74
22
 42
0.0000001
 43
0.0000001
 44
0.0000000001
 12
3.1248653457
 22
-0.0100467514
 32
0.0
 13
-0.0091722138
 23
3.124868035
 33
0.0
 40
0.0
 40
0.0
 40
0.0
 40
0.0
 40
0.0797702222
 40
0.1529602889
 40
0.2191889422
 40
0.2789527042
 40
0.3324300401
 40
0.3801355251
 40
0.4234627589
 40
0.4638035457
 40
0.5027002465
 40
0.5413991067
 40
0.5805790218
 40
0.6197902519
 40
0.6583254057
 40
0.6967673871
 40
0.7362091219
 40
0.7773442377
 40
0.820516478
 40
0.8655286184
 40
0.9113438711
 40
0.9565380252
 40
1.0
 40
1.0
 40
1.0
 40
1.0
 10
68.2512698074
 20
-23.7485002809
 30
0.0
 10
68.3343602084
 20
-23.7487674248
 30
0.0
 10
68.493916441
 20
-23.7391362784
 30
0.0
 10
68.7189033488
 20
-23.6974984383
 30
0.0
 10
68.9178348283
 20
-23.6372358393
 30
0.0
 10
69.0907913159
 20
-23.5655887733
 30
0.0
 10
69.2395572976
 20
-23.4878593374
 30
0.0
 10
69.3670153814
 20
-23.4075128984
 30
0.0
 10
69.4773964723
 20
-23.3264603078
 30
0.0
 10
69.5753078378
 20
-23.2444075672
 30
0.0
 10
69.6645705876
 20
-23.1599009836
 30
0.0
 10
69.7477211406
 20
-23.0710214256
 30
0.0
 10
69.8255374112
 20
-22.9770102641
 30
0.0
 10
69.8974374104
 20
-22.8786115946
 30
0.0
 10
69.9628480883
 20
-22.7766998589
 30
0.0
 10
70.0221688047
 20
-22.6708519668
 30
0.0
 10
70.076096725
 20
-22.5591327644
 30
0.0
 10
70.1245638548
 20
-22.4395896077
 30
0.0
 10
70.1666012059
 20
-22.3114986555
 30
0.0
 10
70.2006211557
 20
-22.1760067227
 30
0.0
 10
70.2252483142
 20
-22.0363559358
 30
0.0
 10
70.2397901795
 20
-21.8969328664
 30
0.0
 10
70.2428916391
 20
-21.8045469508
 30
0.0
 10
70.2427587582
 20
-21.7592759722
 30
0.0
 11
68.2512698074
 21
-23.7485002809
 31
0.0
 11
68.500086857
 21
-23.7334387163
 31
0.0
 11
68.7249841438
 21
-23.6918501966
 31
0.0
 11
68.9230720029
 21
-23.6319146231
 31
0.0
 11
69.095607229
 21
-23.5604380258
 31
0.0
 11
69.2436962699
 21
-23.4830074058
 31
0.0
 11
69.3698321742
 21
-23.4035543549
 31
0.0
 11
69.47897786
 21
-23.3234398086
 31
0.0
 11
69.5755992235
 21
-23.2424738858
 31
0.0
 11
69.6638464821
 21
-23.1588901813
 31
0.0
 11
69.7464657624
 21
-23.0705841067
 31
0.0
 11
69.8245439978
 21
-22.9762786
 31
0.0
 11
69.8968258463
 21
-22.8773389976
 31
0.0
 11
69.961869917
 21
-22.7759994061
 31
0.0
 11
70.0205884501
 21
-22.6712017789
 31
0.0
 11
70.0741431132
 21
-22.5601943703
 31
0.0
 11
70.1224294895
 21
-22.4410660163
 31
0.0
 11
70.164498571
 21
-22.3128849053
 31
0.0
 11
70.1987926916
 21
-22.1764720208
 31
0.0
 11
70.2236791175
 21
-22.0354843507
 31
0.0
 11
70.2382920437
 21
-21.8950160212
 31
0.0
 11
70.2427587582
 21
-21.7592759722
 31
0.0
  0
SPLINE
  5
3A5
100
AcDbEntity
  8
RACCORDO
100
AcDbSpline
 62
253
  6
CONTINUOUS
 70
0
 71
3
 72
38
 73
34
 74
32
 42
0.0000001
 43
0.0000001
 44
0.0000000001
 12
14.3004457821
 22
0.0003499108
 32
0.0
 13
14.300422879
 23
-0.0255963179
 33
0.0
 40
0.0
 40
0.0
 40
0.0
 40
0.0
 40
0.0826506855
 40
0.1585207177
 40
0.2282816837
 40
0.292481798
 40
0.3516203832
 40
0.4061368745
 40
0.4564293126
 40
0.5028544646
 40
0.5457342103
 40
0.5853595294
 40
0.6219944378
 40
0.6558774799
 40
0.6872300473
 40
0.7162422921
 40
0.743090147
 40
0.7679425531
 40
0.7909679771
 40
0.8123002781
 40
0.8319454205
 40
0.8498732584
 40
0.8660357564
 40
0.8805490897
 40
0.8939239591
 40
0.9067601866
 40
0.9193967371
 40
0.9319938019
 40
0.9449918563
 40
0.9583909636
 40
0.9720558326
 40
0.9859694858
 40
1.0
 40
1.0
 40
1.0
 40
1.0
 10
53.950824722
 20
-23.7469500928
 30
0.0
 10
54.3448052708
 20
-23.7469404527
 30
0.0
 10
55.100444248
 20
-23.7469503176
 30
0.0
 10
56.1886208583
 20
-23.7470467626
 30
0.0
 10
57.1888469979
 20
-23.7471912159
 30
0.0
 10
58.1093174169
 20
-23.7473518962
 30
0.0
 10
58.9571202411
 20
-23.7475047096
 30
0.0
 10
59.7386277446
 20
-23.7476363919
 30
0.0
 10
60.4595326647
 20
-23.7477398667
 30
0.0
 10
61.1249673719
 20
-23.7478128232
 30
0.0
 10
61.7395538957
 20
-23.7478557226
 30
0.0
 10
62.3074721379
 20
-23.7478712957
 30
0.0
 10
62.8325047566
 20
-23.7478631934
 30
0.0
 10
63.3181026954
 20
-23.7478348975
 30
0.0
 10
63.767364804
 20
-23.7477899724
 30
0.0
 10
64.1830914725
 20
-23.7477334168
 30
0.0
 10
64.567833072
 20
-23.7476691864
 30
0.0
 10
64.9240366008
 20
-23.7476001722
 30
0.0
 10
65.2539485024
 20
-23.7475285899
 30
0.0
 10
65.5590383388
 20
-23.7474561837
 30
0.0
 10
65.8398289262
 20
-23.7473949075
 30
0.0
 10
66.0959760212
 20
-23.747351818
 30
0.0
 10
66.3276607325
 20
-23.7473294735
 30
0.0
 10
66.5376422852
 20
-23.7473270492
 30
0.0
 10
66.7317681201
 20
-23.7473428717
 30
0.0
 10
66.9169476757
 20
-23.747377693
 30
0.0
 10
67.0984195751
 20
-23.7474342417
 30
0.0
 10
67.2806628642
 20
-23.7475156996
 30
0.0
 10
67.4665411063
 20
-23.747625475
 30
0.0
 10
67.6575093536
 20
-23.747767422
 30
0.0
 10
67.8528420599
 20
-23.7479491206
 30
0.0
 10
68.0511845209
 20
-23.7481770214
 30
0.0
 10
68.1843890568
 20
-23.7483792906
 30
0.0
 10
68.2512698189
 20
-23.7484990005
 30
0.0
 11
53.950824722
 21
-23.7469500928
 31
0.0
 11
55.1327663687
 21
-23.7469662639
 31
0.0
 11
56.2177416469
 21
-23.7470598554
 31
0.0
 11
57.2153545494
 21
-23.747200264
 31
0.0
 11
58.1334447906
 21
-23.7473570133
 31
0.0
 11
58.9791529091
 21
-23.7475069576
 31
0.0
 11
59.7587630261
 21
-23.7476364103
 31
0.0
 11
60.4779673028
 21
-23.7477382871
 31
0.0
 11
61.1418676695
 21
-23.7478100933
 31
0.0
 11
61.7550671467
 21
-23.7478523033
 31
0.0
 11
62.3217268728
 21
-23.7478674807
 31
0.0
 11
62.8456223945
 21
-23.7478591045
 31
0.0
 11
63.3301650012
 21
-23.7478306941
 31
0.0
 11
63.7785206883
 21
-23.7477860591
 31
0.0
 11
64.1934087197
 21
-23.7477297935
 31
0.0
 11
64.5773450066
 21
-23.747665817
 31
0.0
 11
64.932745487
 21
-23.7475970567
 31
0.0
 11
65.2620193064
 21
-23.7475256791
 31
0.0
 11
65.567080712
 21
-23.7474552861
 31
0.0
 11
65.8480149998
 21
-23.7473955695
 31
0.0
 11
66.1043910707
 21
-23.7473536283
 31
0.0
 11
66.3355219964
 21
-23.7473321616
 31
0.0
 11
66.5430691319
 21
-23.7473303367
 31
0.0
 11
66.7343357264
 21
-23.7473465469
 31
0.0
 11
66.917899498
 21
-23.7473816822
 31
0.0
 11
67.0986077942
 21
-23.7474383836
 31
0.0
 11
67.2787514192
 21
-23.7475190892
 31
0.0
 11
67.4646293587
 21
-23.7476290054
 31
0.0
 11
67.6562425117
 21
-23.7477723904
 31
0.0
 11
67.8516561451
 21
-23.7479550801
 31
0.0
 11
68.0506274512
 21
-23.748188582
 31
0.0
 11
68.2512698189
 21
-23.7484990005
 31
0.0
  0
SPLINE
  5
3A6
100
AcDbEntity
  8
RACCORDO
100
AcDbSpline
 62
253
  6
CONTINUOUS
 70
0
 71
3
 72
14
 73
10
 74
8
 42
0.0000001
 43
0.0000001
 44
0.0000000001
 12
14.2991013298
 22
0.0308245298
 32
0.0
 13
14.2991345499
 23
-0.0003384528
 33
0.0
 40
0.0
 40
0.0
 40
0.0
 40
0.0
 40
0.1150698657
 40
0.2348626316
 40
0.3654400866
 40
0.506505986
 40
0.6587423298
 40
0.8226651031
 40
1.0
 40
1.0
 40
1.0
 40
1.0
 10
-43.847782326
 20
-23.7484969717
 30
0.0
 10
-43.2993171029
 20
-23.7473146469
 30
0.0
 10
-42.1798716672
 20
-23.7473157852
 30
0.0
 10
-40.4380465856
 20
-23.7476089628
 30
0.0
 10
-38.5723138569
 20
-23.7479249949
 30
0.0
 10
-36.5519429491
 20
-23.7478317682
 30
0.0
 10
-34.3726356183
 20
-23.7474830268
 30
0.0
 10
-32.0204565625
 20
-23.7470330608
 30
0.0
 10
-30.3938934415
 20
-23.7469300528
 30
0.0
 10
-29.5486482579
 20
-23.7469500593
 30
0.0
 11
-43.847782326
 21
-23.7484969717
 31
0.0
 11
-42.202383226
 21
-23.7473607187
 31
0.0
 11
-40.4894503642
 21
-23.7476006034
 31
0.0
 11
-38.6223057819
 21
-23.7478520453
 31
0.0
 11
-36.6051855065
 21
-23.7477973979
 31
0.0
 11
-34.4283375656
 21
-23.7474810136
 31
0.0
 11
-32.0843838053
 21
-23.7470933173
 31
0.0
 11
-29.5486482579
 21
-23.7469500593
 31
0.0
  0
SPLINE
  5
3A7
100
AcDbEntity
  8
RACCORDO
100
AcDbSpline
 62
253
  6
CONTINUOUS
 70
0
 71
3
 72
11
 73
7
 74
5
 42
0.0000001
 43
0.0000001
 44
0.0000000001
 12
0.0004797663
 22
1.5973922802
 32
0.0
 13
-0.031045893
 23
1.5970906297
 33
0.0
 40
0.0
 40
0.0
 40
0.0
 40
0.0
 40
0.3138800394
 40
0.6452225718
 40
0.8983039194
 40
1.0
 40
1.0
 40
1.0
 40
1.0
 10
-43.8477822294
 20
-23.7484986985
 30
0.0
 10
-43.847732033
 20
-23.581368848
 30
0.0
 10
-43.8490124327
 20
-23.2378134075
 30
0.0
 10
-43.847736127
 20
-22.7594909255
 30
0.0
 10
-43.8496923701
 20
-22.3941747051
 30
0.0
 10
-43.8475952646
 20
-22.2052461387
 30
0.0
 10
-43.8486476798
 20
-22.1511068529
 30
0.0
 11
-43.8477822294
 21
-23.7484986985
 31
0.0
 11
-43.8484578269
 21
-23.2471095793
 31
0.0
 11
-43.8484274502
 21
-22.717825553
 31
0.0
 11
-43.8485420982
 21
-22.3135553601
 31
0.0
 11
-43.8486476798
 21
-22.1511068529
 31
0.0
  0
SPLINE
  5
3A8
100
AcDbEntity
  8
RACCORDO
100
AcDbSpline
 62
253
  6
CONTINUOUS
 70
0
 71
3
 72
29
 73
25
 74
23
 42
0.0000001
 43
0.0000001
 44
0.0000000001
 12
-0.0092066845
 22
-3.1257828927
 32
0.0
 13
3.1257777295
 23
0.010818573
 33
0.0
 40
0.0
 40
0.0
 40
0.0
 40
0.0
 40
0.0432586203
 40
0.0869565926
 40
0.1310764984
 40
0.1746815018
 40
0.2166548434
 40
0.2566106995
 40
0.2950631734
 40
0.3328854188
 40
0.3705400365
 40
0.4082747316
 40
0.4461122165
 40
0.4836677181
 40
0.5209347893
 40
0.5588149834
 40
0.5986773087
 40
0.6419552135
 40
0.6894147211
 40
0.7413261621
 40
0.7979858548
 40
0.8594186341
 40
0.9264275526
 40
1.0
 40
1.0
 40
1.0
 40
1.0
 10
-45.8400552548
 20
-21.7592524082
 30
0.0
 10
-45.8401880109
 20
-21.8043247599
 30
0.0
 10
-45.8371606148
 20
-21.8949664467
 30
0.0
 10
-45.8231832713
 20
-22.0309226229
 30
0.0
 10
-45.7999122415
 20
-22.1659753046
 30
0.0
 10
-45.7678254694
 20
-22.297359211
 30
0.0
 10
-45.7280884054
 20
-22.422080925
 30
0.0
 10
-45.6821557005
 20
-22.5388907498
 30
0.0
 10
-45.6308017913
 20
-22.6486512246
 30
0.0
 10
-45.5740925378
 20
-22.7530145375
 30
0.0
 10
-45.5117584678
 20
-22.8532374183
 30
0.0
 10
-45.4436473921
 20
-22.9496469796
 30
0.0
 10
-45.3700949102
 20
-23.0418394201
 30
0.0
 10
-45.2916148798
 20
-23.1292225792
 30
0.0
 10
-45.2081028568
 20
-23.2118706827
 30
0.0
 10
-45.1181559966
 20
-23.2911506354
 30
0.0
 10
-45.0187126244
 20
-23.3688077483
 30
0.0
 10
-44.9062376788
 20
-23.4455819385
 30
0.0
 10
-44.7776513602
 20
-23.5204078925
 30
0.0
 10
-44.6309550683
 20
-23.5909011376
 30
0.0
 10
-44.4651645688
 20
-23.6539154257
 30
0.0
 10
-44.2790083536
 20
-23.7055102473
 30
0.0
 10
-44.0710994702
 20
-23.7407055036
 30
0.0
 10
-43.9244392686
 20
-23.7487640148
 30
0.0
 10
-43.8477822294
 20
-23.7484986985
 30
0.0
 11
-45.8400552548
 21
-21.7592524082
 31
0.0
 11
-45.8356303429
 21
-21.8943976293
 31
0.0
 11
-45.8216967283
 21
-22.0302760553
 31
0.0
 11
-45.79826058
 21
-22.1661799633
 31
0.0
 11
-45.7658854562
 21
-22.2985795133
 31
0.0
 11
-45.7260517305
 21
-22.4235864989
 31
0.0
 11
-45.6803549372
 21
-22.5398202401
 31
0.0
 11
-45.6294391257
 21
-22.6486978025
 31
0.0
 11
-45.573007617
 21
-22.7525850031
 31
0.0
 11
-45.510844374
 21
-22.8525308834
 31
0.0
 11
-45.4427930154
 21
-22.9488711414
 31
0.0
 11
-45.3690297587
 21
-23.0413228222
 31
0.0
 11
-45.2905773051
 21
-23.1286487923
 31
0.0
 11
-45.2077978118
 21
-23.2106079746
 31
0.0
 11
-45.1189748002
 21
-23.2889048487
 31
0.0
 11
-45.0207640752
 21
-23.3655872522
 31
0.0
 11
-44.9090091612
 21
-23.4418168736
 31
0.0
 11
-44.7807859099
 21
-23.5164235255
 31
0.0
 11
-44.6345495583
 21
-23.5867422944
 31
0.0
 11
-44.468990688
 21
-23.6496472364
 31
0.0
 11
-44.2839263241
 21
-23.7008849716
 31
0.0
 11
-44.0774054152
 21
-23.7358282186
 31
0.0
 11
-43.8477822294
 21
-23.7484986985
 31
0.0
  0
SPLINE
  5
3A9
100
AcDbEntity
  8
RACCORDO
100
AcDbSpline
 62
253
  6
CONTINUOUS
 70
0
 71
3
 72
11
 73
7
 74
5
 42
0.0000001
 43
0.0000001
 44
0.0000000001
 12
-0.0000400036
 22
-10.5001059873
 32
0.0
 13
-0.0158491059
 23
-10.5000940258
 33
0.0
 40
0.0
 40
0.0
 40
0.0
 40
0.0
 40
0.2765419089
 40
0.5344882264
 40
0.7755188134
 40
1.0
 40
1.0
 40
1.0
 40
1.0
 10
-45.8375607718
 20
-11.2591469286
 30
0.0
 10
-45.8375644593
 20
-12.2270533795
 30
0.0
 10
-45.837993533
 20
-14.0977810024
 30
0.0
 10
-45.8386588249
 20
-16.8121242725
 30
0.0
 10
-45.8385468304
 20
-19.3442528552
 30
0.0
 10
-45.8388692679
 20
-20.97356122
 30
0.0
 10
-45.84005521
 20
-21.7592524086
 30
0.0
 11
-45.8375607718
 21
-11.2591469286
 31
0.0
 11
-45.8380163438
 21
-14.1628662458
 31
0.0
 11
-45.8385383012
 21
-16.8713298685
 31
0.0
 11
-45.8386500308
 21
-19.4021765765
 31
0.0
 11
-45.84005521
 21
-21.7592524086
 31
0.0
  0
SPLINE
  5
3AA
100
AcDbEntity
  8
RACCORDO
100
AcDbSpline
 62
253
  6
CONTINUOUS
 70
0
 71
3
 72
11
 73
7
 74
5
 42
0.0000001
 43
0.0000001
 44
0.0000000001
 12
0.01576743
 22
-10.5000811481
 32
0.0
 13
0.0000429952
 23
-10.5000929866
 33
0.0
 40
0.0
 40
0.0
 40
0.0
 40
0.0
 40
0.223734404
 40
0.4657189944
 40
0.7240953215
 40
1.0
 40
1.0
 40
1.0
 40
1.0
 10
-45.8400546919
 20
22.7409759411
 30
0.0
 10
-45.8388787864
 20
21.9578994752
 30
0.0
 10
-45.8385326673
 20
20.3278678723
 30
0.0
 10
-45.8386514351
 20
17.7935120907
 30
0.0
 10
-45.8379982322
 20
15.0765584191
 30
0.0
 10
-45.8375647256
 20
13.2065583918
 30
0.0
 10
-45.8375607714
 20
12.2408834653
 30
0.0
 11
-45.8400546919
 21
22.7409759411
 31
0.0
 11
-45.8386437413
 21
20.3917443184
 31
0.0
 11
-45.8385310753
 21
17.850883621
 31
0.0
 11
-45.8380167409
 21
15.1379082089
 31
0.0
 11
-45.8375607714
 21
12.2408834653
 31
0.0
  0
SPLINE
  5
3AB
100
AcDbEntity
  8
RACCORDO
100
AcDbSpline
 62
253
  6
CONTINUOUS
 70
0
 71
3
 72
27
 73
23
 74
21
 42
0.0000001
 43
0.0000001
 44
0.0000000001
 12
-3.1253669065
 22
0.010495274
 32
0.0
 13
0.0092856329
 23
-3.1253707345
 33
0.0
 40
0.0
 40
0.0
 40
0.0
 40
0.0
 40
0.0701385969
 40
0.1339592606
 40
0.1925315745
 40
0.246671632
 40
0.2962659199
 40
0.3402570982
 40
0.3808495181
 40
0.4202906702
 40
0.4599973464
 40
0.4999023038
 40
0.5394580393
 40
0.5788227335
 40
0.6179186712
 40
0.6584853147
 40
0.702802996
 40
0.7513760409
 40
0.8041031488
 40
0.8625562871
 40
0.9283851761
 40
1.0
 40
1.0
 40
1.0
 40
1.0
 10
-43.8480827683
 20
24.7302663398
 30
0.0
 10
-43.9211523849
 20
24.7305117144
 30
0.0
 10
-44.0608694783
 20
24.7231903246
 30
0.0
 10
-44.2592206454
 20
24.6912400714
 30
0.0
 10
-44.4373213177
 20
24.6443030681
 30
0.0
 10
-44.596551589
 20
24.586811907
 30
0.0
 10
-44.736743876
 20
24.5229441133
 30
0.0
 10
-44.8594316392
 20
24.4557151542
 30
0.0
 10
-44.9683576502
 20
24.3860530297
 30
0.0
 10
-45.0691270284
 20
24.3123924269
 30
0.0
 10
-45.1646850915
 20
24.233205337
 30
0.0
 10
-45.2553463901
 20
24.1482774732
 30
0.0
 10
-45.340326777
 20
24.058153285
 30
0.0
 10
-45.4190572928
 20
23.9636193652
 30
0.0
 10
-45.4925576088
 20
23.8636551193
 30
0.0
 10
-45.5625308668
 20
23.7549879651
 30
0.0
 10
-45.6299950632
 20
23.6332911259
 30
0.0
 10
-45.6937162469
 20
23.4954516192
 30
0.0
 10
-45.7510927793
 20
23.3390099027
 30
0.0
 10
-45.798828155
 20
23.160603113
 30
0.0
 10
-45.8321213755
 20
22.9589190672
 30
0.0
 10
-45.8402763394
 20
22.8155835643
 30
0.0
 10
-45.8400546765
 20
22.7409759394
 30
0.0
 11
-43.8480827683
 21
24.7302663398
 31
0.0
 11
-44.0669905532
 21
24.7187579352
 31
0.0
 11
-44.2639172502
 21
24.6870434409
 31
0.0
 11
-44.4409457182
 21
24.640436011
 31
0.0
 11
-44.600105848
 21
24.5829941364
 31
0.0
 11
-44.7411508894
 21
24.5187160335
 31
0.0
 11
-44.8617132606
 21
24.4526249185
 31
0.0
 11
-44.9686133048
 21
24.3843051103
 31
0.0
 11
-45.0681387486
 21
24.3115735843
 31
0.0
 11
-45.1636968849
 21
24.2323958545
 31
0.0
 11
-45.2546978553
 21
24.1471111146
 31
0.0
 11
-45.3395106767
 21
24.0571645096
 31
0.0
 11
-45.4182568567
 21
23.9626374112
 31
0.0
 11
-45.490630259
 21
23.8641871835
 31
0.0
 11
-45.5592723283
 21
23.7575895879
 31
0.0
 11
-45.6264078611
 21
23.6364376847
 31
0.0
 11
-45.6900716702
 21
23.4986224952
 31
0.0
 11
-45.7467987269
 21
23.34390144
 31
0.0
 11
-45.7940974446
 21
23.1674420061
 31
0.0
 11
-45.8276503275
 21
22.9644558124
 31
0.0
 11
-45.8400546765
 21
22.7409759394
 31
0.0
  0
SPLINE
  5
3AC
100
AcDbEntity
  8
RACCORDO
100
AcDbSpline
 62
253
  6
CONTINUOUS
 70
0
 71
3
 72
39
 73
35
 74
33
 42
0.0000001
 43
0.0000001
 44
0.0000000001
 12
-14.2999621818
 22
-0.0003496982
 32
0.0
 13
-14.2999392594
 23
0.0256066086
 33
0.0
 40
0.0
 40
0.0
 40
0.0
 40
0.0
 40
0.0820061171
 40
0.1572132259
 40
0.2262999254
 40
0.2898217635
 40
0.3482777522
 40
0.4021145111
 40
0.4517331621
 40
0.4974924758
 40
0.5397194481
 40
0.5787050683
 40
0.6147046808
 40
0.6479667289
 40
0.6787409818
 40
0.7072192008
 40
0.7334957432
 40
0.7576621541
 40
0.7799431244
 40
0.8006493143
 40
0.8200986308
 40
0.8384021705
 40
0.855207786
 40
0.8702558947
 40
0.8839837639
 40
0.8970454476
 40
0.9099267272
 40
0.9227811483
 40
0.9356904109
 40
0.948633399
 40
0.9615630178
 40
0.9744862345
 40
0.9873524588
 40
1.0
 40
1.0
 40
1.0
 40
1.0
 10
-29.5481212718
 20
24.7287169187
 30
0.0
 10
-29.9390160629
 20
24.7287073596
 30
0.0
 10
-30.6883971258
 20
24.7287169463
 30
0.0
 10
-31.7670905813
 20
24.7288100886
 30
0.0
 10
-32.7576758667
 20
24.7289512736
 30
0.0
 10
-33.6684143526
 20
24.7291128848
 30
0.0
 10
-34.5064616466
 20
24.7292700347
 30
0.0
 10
-35.2782372608
 20
24.7294028591
 30
0.0
 10
-35.9894922223
 20
24.7295030943
 30
0.0
 10
-36.6454073505
 20
24.7295734463
 30
0.0
 10
-37.250638502
 20
24.7296168358
 30
0.0
 10
-37.8093485348
 20
24.7296358485
 30
0.0
 10
-38.3253258759
 20
24.7296325923
 30
0.0
 10
-38.8021624688
 20
24.7296099591
 30
0.0
 10
-39.2431471798
 20
24.7295707005
 30
0.0
 10
-39.6508344
 20
24.7295194158
 30
0.0
 10
-40.0270243221
 20
24.7294603657
 30
0.0
 10
-40.3736741019
 20
24.7293965465
 30
0.0
 10
-40.6937719376
 20
24.7293305094
 30
0.0
 10
-40.9913850147
 20
24.7292622586
 30
0.0
 10
-41.2700390569
 20
24.7291971417
 30
0.0
 10
-41.5301004123
 20
24.72914445
 30
0.0
 10
-41.7691827359
 20
24.7291095194
 30
0.0
 10
-41.986454423
 20
24.7290938942
 30
0.0
 10
-42.185880083
 20
24.7290963049
 30
0.0
 10
-42.3749772171
 20
24.7291163662
 30
0.0
 10
-42.5599109228
 20
24.7291563424
 30
0.0
 10
-42.7441180835
 20
24.729220039
 30
0.0
 10
-42.9286193766
 20
24.7293097134
 30
0.0
 10
-43.1134790964
 20
24.72942648
 30
0.0
 10
-43.2984053102
 20
24.7295721946
 30
0.0
 10
-43.4829655886
 20
24.7297512126
 30
0.0
 10
-43.6661812577
 20
24.729969474
 30
0.0
 10
-43.7877964111
 20
24.7301571889
 30
0.0
 10
-43.8480827679
 20
24.7302651425
 30
0.0
 11
-29.5481212718
 21
24.7287169187
 31
0.0
 11
-30.7208056454
 21
24.7287323586
 31
0.0
 11
-31.7962644541
 21
24.7288231046
 31
0.0
 11
-32.7842016345
 21
24.728961046
 31
0.0
 11
-33.6925615037
 21
24.7291187573
 31
0.0
 11
-34.5284799171
 21
24.7292719274
 31
0.0
 11
-35.2983435223
 21
24.7294021563
 31
0.0
 11
-36.0078883483
 21
24.7295015441
 31
0.0
 11
-36.6622448007
 21
24.7295712176
 31
0.0
 11
-37.2660889057
 21
24.7296140019
 31
0.0
 11
-37.8235818013
 21
24.7296324353
 31
0.0
 11
-38.3383748979
 21
24.7296288394
 31
0.0
 11
-38.8140209278
 21
24.7296059736
 31
0.0
 11
-39.2540915788
 21
24.7295669248
 31
0.0
 11
-39.6613290304
 21
24.7295158947
 31
0.0
 11
-40.0370825884
 21
24.7294570165
 31
0.0
 11
-40.3826613451
 21
24.7293935613
 31
0.0
 11
-40.70127837
 21
24.7293276933
 31
0.0
 11
-40.9973760957
 21
24.729260663
 31
0.0
 11
-41.2755005781
 21
24.7291973494
 31
0.0
 11
-41.5372404995
 21
24.7291455737
 31
0.0
 11
-41.7775601631
 21
24.7291114309
 31
0.0
 11
-41.9927475478
 21
24.7290965926
 31
0.0
 11
-42.1890555589
 21
24.7290994953
 31
0.0
 11
-42.3758371407
 21
24.7291199079
 31
0.0
 11
-42.5600389467
 21
24.7291603537
 31
0.0
 11
-42.7438566712
 21
24.7292242361
 31
0.0
 11
-42.9284586166
 21
24.7293141095
 31
0.0
 11
-43.1135428194
 21
24.7294313445
 31
0.0
 11
-43.298435822
 21
24.7295778288
 31
0.0
 11
-43.4832372444
 21
24.7297583076
 31
0.0
 11
-43.6672236297
 21
24.7299816094
 31
0.0
 11
-43.8480827679
 21
24.7302651425
 31
0.0
  0
SPLINE
  5
3AD
100
AcDbEntity
  8
RACCORDO
100
AcDbSpline
 62
253
  6
CONTINUOUS
 70
0
 71
3
 72
24
 73
20
 74
18
 42
0.0000001
 43
0.0000001
 44
0.0000000001
 12
-14.2987993328
 22
-0.0241517122
 32
0.0
 13
-14.2988197255
 23
0.0003485748
 33
0.0
 40
0.0
 40
0.0
 40
0.0
 40
0.0
 40
0.0305609761
 40
0.063479631
 40
0.0989936372
 40
0.1373018595
 40
0.1786254059
 40
0.2231720595
 40
0.2711390677
 40
0.322732652
 40
0.3781846592
 40
0.4377838113
 40
0.5018429062
 40
0.5706801042
 40
0.6446334069
 40
0.7240291314
 40
0.809315407
 40
0.9010052336
 40
1.0
 40
1.0
 40
1.0
 40
1.0
 10
68.2501707779
 20
24.7302578544
 30
0.0
 10
68.1045090231
 20
24.7300118211
 30
0.0
 10
67.8019479591
 20
24.7296381461
 30
0.0
 10
67.3301173626
 20
24.7292792731
 30
0.0
 10
66.8213611647
 20
24.7290990081
 30
0.0
 10
66.2725449331
 20
24.7290828549
 30
0.0
 10
65.6806766495
 20
24.7291907655
 30
0.0
 10
65.0427719642
 20
24.7293460256
 30
0.0
 10
64.3559174648
 20
24.7294776738
 30
0.0
 10
63.6170850651
 20
24.7295794348
 30
0.0
 10
62.8228106839
 20
24.729636264
 30
0.0
 10
61.9691222714
 20
24.7296356833
 30
0.0
 10
61.0516363839
 20
24.7295785293
 30
0.0
 10
60.0657346972
 20
24.7294641893
 30
0.0
 10
59.0067344507
 20
24.7292903225
 30
0.0
 10
57.8693334125
 20
24.7290734343
 30
0.0
 10
56.6473952515
 20
24.7288675081
 30
0.0
 10
55.3320426913
 20
24.728724491
 30
0.0
 10
54.4231878165
 20
24.7287053828
 30
0.0
 10
53.9513517105
 20
24.7287168851
 30
0.0
 11
68.2501707779
 21
24.7302578544
 31
0.0
 11
67.8131852651
 21
24.7296852954
 31
0.0
 11
67.3424874946
 21
24.729319345
 31
0.0
 11
66.8346791579
 21
24.7291301834
 31
0.0
 11
66.286916794
 21
24.7291018778
 31
0.0
 11
65.6960388606
 21
24.7291937529
 31
0.0
 11
65.0590743068
 21
24.7293367699
 31
0.0
 11
64.3732027165
 21
24.7294684198
 31
0.0
 11
63.6354753615
 21
24.7295690576
 31
0.0
 11
62.8425771095
 21
24.7296256488
 31
0.0
 11
61.9903795777
 21
24.7296272621
 31
0.0
 11
61.0744101295
 21
24.7295720476
 31
0.0
 11
60.0901194514
 21
24.7294593927
 31
0.0
 11
59.0326745207
 21
24.7292900754
 31
0.0
 11
57.897409387
 21
24.7290828315
 31
0.0
 11
56.6779163232
 21
24.7288843652
 31
0.0
 11
55.3668600288
 21
24.7287467068
 31
0.0
 11
53.9513517105
 21
24.7287168851
 31
0.0
  0
SPLINE
  5
3AE
100
AcDbEntity
  8
RACCORDO
100
AcDbSpline
 62
253
  6
CONTINUOUS
 70
0
 71
3
 72
11
 73
7
 74
5
 42
0.0000001
 43
0.0000001
 44
0.0000000001
 12
-0.0037089132
 22
-1.5974660637
 32
0.0
 13
0.0000951634
 23
-1.5974703665
 33
0.0
 40
0.0
 40
0.0
 40
0.0
 40
0.0
 40
0.313885423
 40
0.6452340686
 40
0.8983071357
 40
1.0
 40
1.0
 40
1.0
 40
1.0
 10
68.2501707743
 20
24.7302579253
 30
0.0
 10
68.2497827164
 20
24.5631174882
 30
0.0
 10
68.2389331646
 20
24.2195626108
 30
0.0
 10
68.2551387597
 20
23.7412935405
 30
0.0
 10
68.2511304176
 20
23.3759316456
 30
0.0
 10
68.2513479064
 20
23.1870234088
 30
0.0
 10
68.2513511323
 20
23.1328729631
 30
0.0
 11
68.2501707743
 21
24.7302579253
 31
0.0
 11
68.2445490025
 21
24.2288667782
 31
0.0
 11
68.252064245
 21
23.6996004881
 31
0.0
 11
68.2514113885
 21
23.2953242894
 31
0.0
 11
68.2513511323
 21
23.1328729631
 31
0.0
  0
SPLINE
  5
3AF
100
AcDbEntity
  8
RACCORDO
100
AcDbSpline
 62
253
  6
CONTINUOUS
 70
0
 71
3
 72
29
 73
25
 74
23
 42
0.0000001
 43
0.0000001
 44
0.0000000001
 12
0.0095016654
 22
3.1261765367
 32
0.0
 13
-3.126172174
 23
-0.0108424312
 33
0.0
 40
0.0
 40
0.0
 40
0.0
 40
0.0
 40
0.0475679746
 40
0.0960061436
 40
0.1420641139
 40
0.1844181343
 40
0.2246168025
 40
0.2635548768
 40
0.3035758927
 40
0.3441495363
 40
0.3838691112
 40
0.4233231035
 40
0.4629233281
 40
0.5024845303
 40
0.5422541285
 40
0.5809815703
 40
0.6195715746
 40
0.6605390024
 40
0.7056921622
 40
0.7550339845
 40
0.8086568451
 40
0.8667894475
 40
0.9302388055
 40
1.0
 40
1.0
 40
1.0
 40
1.0
 10
70.2427643184
 20
22.7409614203
 30
0.0
 10
70.2429149767
 20
22.790530049
 30
0.0
 10
70.2391481816
 20
22.8906234906
 30
0.0
 10
70.2224384303
 20
23.0378472175
 30
0.0
 10
70.1961040332
 20
23.1781289366
 30
0.0
 10
70.1620737899
 20
23.3078676853
 30
0.0
 10
70.1217028198
 20
23.4279531963
 30
0.0
 10
70.0748495373
 20
23.543026296
 30
0.0
 10
70.0207913773
 20
23.6553363986
 30
0.0
 10
69.9593325209
 20
23.7647136178
 30
0.0
 10
69.8913578523
 20
23.8694564968
 30
0.0
 10
69.8176156958
 20
23.9689561897
 30
0.0
 10
69.7380739574
 20
24.0636665737
 30
0.0
 10
69.652694569
 20
24.1536050835
 30
0.0
 10
69.5626388203
 20
24.2375333301
 30
0.0
 10
69.4684461143
 20
24.3152046026
 30
0.0
 10
69.368695403
 20
24.3877396116
 30
0.0
 10
69.2589957791
 20
24.4575775857
 30
0.0
 10
69.1349778386
 20
24.5252507127
 30
0.0
 10
68.994193985
 20
24.5889033007
 30
0.0
 10
68.8359508415
 20
24.6455348873
 30
0.0
 10
68.6590425409
 20
24.6917232206
 30
0.0
 10
68.4618357458
 20
24.7232521913
 30
0.0
 10
68.3228659427
 20
24.7305100523
 30
0.0
 10
68.2501707743
 20
24.7302579253
 30
0.0
 11
70.2427643184
 21
22.7409614203
 31
0.0
 11
70.2373348841
 21
22.8895688431
 31
0.0
 11
70.2203009734
 21
23.0400346937
 31
0.0
 11
70.1936597251
 21
23.181534571
 31
0.0
 11
70.1600324209
 21
23.3095999977
 31
0.0
 11
70.1200402346
 21
23.4287354276
 31
0.0
 11
70.0741416312
 21
23.5414784508
 31
0.0
 11
70.0198772455
 21
23.6542114271
 31
0.0
 11
69.9577310441
 21
23.7647848345
 31
0.0
 11
69.8901467937
 21
23.8689520102
 31
0.0
 11
69.8167274156
 21
23.9680606722
 31
0.0
 11
69.7371106874
 21
24.0628609246
 31
0.0
 11
69.6519580064
 21
24.1525534135
 31
0.0
 11
69.5610044652
 21
24.2373162921
 31
0.0
 11
69.4675820926
 21
24.3143231417
 31
0.0
 11
69.3700203698
 21
24.3852854767
 31
0.0
 11
69.2619784167
 21
24.454055924
 31
0.0
 11
69.1380581193
 21
24.5216515718
 31
0.0
 11
68.9975111888
 21
24.585214355
 31
0.0
 11
68.839674676
 21
24.6416876227
 31
0.0
 11
68.6638294627
 21
24.6875740972
 31
0.0
 11
68.4679605309
 21
24.7188789274
 31
0.0
 11
68.2501707743
 21
24.7302579253
 31
0.0
  0
SPLINE
  5
3B0
100
AcDbEntity
  8
RACCORDO
100
AcDbSpline
 62
253
  6
CONTINUOUS
 70
0
 71
3
 72
11
 73
7
 74
5
 42
0.0000001
 43
0.0000001
 44
0.0000000001
 12
0.0000369402
 22
10.5000784881
 32
0.0
 13
0.0160244146
 23
10.5000662606
 33
0.0
 40
0.0
 40
0.0
 40
0.0
 40
0.0
 40
0.2771641942
 40
0.5355222038
 40
0.7767329037
 40
1.0
 40
1.0
 40
1.0
 40
1.0
 10
70.2402642241
 20
12.2408834422
 30
0.0
 10
70.240267637
 20
13.2109653734
 30
0.0
 10
70.2407078799
 20
15.0853070425
 30
0.0
 10
70.2413455111
 20
17.8038925591
 30
0.0
 10
70.2412596581
 20
20.3338364837
 30
0.0
 10
70.241571723
 20
21.9595216523
 30
0.0
 10
70.2427642978
 20
22.7409614205
 30
0.0
 11
70.2402642241
 21
12.2408834422
 31
0.0
 11
70.2407231727
 21
15.1511291997
 31
0.0
 11
70.2412340332
 21
17.8639085297
 31
0.0
 11
70.2413565654
 21
20.3966398084
 31
0.0
 11
70.2427642978
 21
22.7409614205
 31
0.0
  0
SPLINE
  5
3B1
100
AcDbEntity
  8
RACCORDO
100
AcDbSpline
 62
253
  6
CONTINUOUS
 70
0
 71
3
 72
25
 73
21
 74
19
 42
0.0000001
 43
0.0000001
 44
0.0000000001
 12
-32.7499973688
 22
-0.0000146683
 32
0.0
 13
-32.7499298404
 23
0.0665064389
 33
0.0
 40
0.0
 40
0.0
 40
0.0
 40
0.0
 40
0.1020389572
 40
0.1964778267
 40
0.2839342433
 40
0.3649472244
 40
0.4400107774
 40
0.5095755958
 40
0.5739446849
 40
0.6333149938
 40
0.6878355571
 40
0.7377891776
 40
0.7835337556
 40
0.8249235841
 40
0.8621458088
 40
0.8956621555
 40
0.9259363324
 40
0.9532520703
 40
0.9778353267
 40
1.0
 40
1.0
 40
1.0
 40
1.0
 10
-29.5486526163
 20
47.755671518
 30
0.0
 10
-30.6625778093
 20
47.7556710191
 30
0.0
 10
-32.8074605784
 20
47.7557122071
 30
0.0
 10
-35.9070758165
 20
47.7558321569
 30
0.0
 10
-38.7771575006
 20
47.7559468303
 30
0.0
 10
-41.4357253307
 20
47.7560229313
 30
0.0
 10
-43.8989765639
 20
47.7560563067
 30
0.0
 10
-46.1805319911
 20
47.7560239134
 30
0.0
 10
-48.2907695149
 20
47.755902846
 30
0.0
 10
-50.2367739298
 20
47.7557321297
 30
0.0
 10
-52.0254094867
 20
47.755527291
 30
0.0
 10
-53.6652975021
 20
47.7554112852
 30
0.0
 10
-55.1618416784
 20
47.7554861013
 30
0.0
 10
-56.5194014399
 20
47.7557715369
 30
0.0
 10
-57.743469597
 20
47.7563091094
 30
0.0
 10
-58.8461918326
 20
47.7569367785
 30
0.0
 10
-59.8407683369
 20
47.7573934708
 30
0.0
 10
-60.7378253173
 20
47.7577427518
 30
0.0
 10
-61.5463534267
 20
47.7583583729
 30
0.0
 10
-62.0566844415
 20
47.7591350381
 30
0.0
 10
-62.2986482737
 20
47.7596264026
 30
0.0
 11
-29.5486526163
 21
47.755671518
 31
0.0
 11
-32.8904281948
 21
47.7557250785
 31
0.0
 11
-35.9833009212
 21
47.7558357792
 31
0.0
 11
-38.847498333
 21
47.7559440253
 31
0.0
 11
-41.500673249
 21
47.75601787
 31
0.0
 11
-43.9590044114
 21
47.7560453191
 31
0.0
 11
-46.2372520313
 21
47.7560060788
 31
0.0
 11
-48.345339526
 21
47.7558886192
 31
0.0
 11
-50.2897169807
 21
47.7557184319
 31
0.0
 11
-52.0752652769
 21
47.7555351802
 31
0.0
 11
-53.7112462132
 21
47.7554424021
 31
0.0
 11
-55.2093810183
 21
47.7555304939
 31
0.0
 11
-56.5648977594
 21
47.7558355602
 31
0.0
 11
-57.7839254098
 21
47.7563546789
 31
0.0
 11
-58.8815855217
 21
47.7569357747
 31
0.0
 11
-59.8730646292
 21
47.7573961706
 31
0.0
 11
-60.7676548754
 21
47.7578127584
 31
0.0
 11
-61.5727561765
 21
47.7584857988
 31
0.0
 11
-62.2986482737
 21
47.7596264026
 31
0.0
  0
SPLINE
  5
3B2
100
AcDbEntity
  8
RACCORDO
100
AcDbSpline
 62
7
  6
CONTINUOUS
 70
0
 71
3
 72
9
 73
5
 74
3
 42
0.0000001
 43
0.0000001
 44
0.0000000001
 12
-0.2017609524
 22
-0.4099796246
 32
0.0
 13
-0.000178691
 23
-0.45776389
 33
0.0
 40
0.0
 40
0.0
 40
0.0
 40
0.0
 40
0.7909312733
 40
1.0
 40
1.0
 40
1.0
 40
1.0
 10
-87.8834429384
 20
24.5756655714
 30
0.0
 10
-87.9366359541
 20
24.4675770025
 30
0.0
 10
-87.9801129733
 20
24.3178157964
 30
0.0
 10
-87.9875548943
 20
24.1651635073
 30
0.0
 10
-87.9875673472
 20
24.1332621361
 30
0.0
 11
-87.8834429384
 21
24.5756655714
 31
0.0
 11
-87.9828680639
 21
24.2288667782
 31
0.0
 11
-87.9875673472
 21
24.1332621361
 31
0.0
  0
SPLINE
  5
3B3
100
AcDbEntity
  8
0
100
AcDbSpline
 62
7
  6
CONTINUOUS
 70
0
 71
3
 72
9
 73
5
 74
3
 42
0.0000001
 43
0.0000001
 44
0.0000000001
 12
-0.0000468385
 22
0.06144159
 32
0.0
 13
0.0133126456
 23
0.0427232579
 33
0.0
 40
0.0
 40
0.0
 40
0.0
 40
0.0
 40
0.8021715449
 40
1.0
 40
1.0
 40
1.0
 40
1.0
 10
-87.2477009568
 20
-25.580639413
 30
0.0
 10
-87.2477134809
 20
-25.5642105146
 30
0.0
 10
-87.2490687016
 20
-25.5503987142
 30
0.0
 10
-87.2455407462
 20
-25.5199745932
 30
0.0
 10
-87.2446628729
 20
-25.5171573012
 30
0.0
 11
-87.2477009568
 21
-25.580639413
 31
0.0
 11
-87.2467454977
 21
-25.5313619655
 31
0.0
 11
-87.2446628729
 21
-25.5171573012
 31
0.0
  0
SPLINE
  5
3B4
100
AcDbEntity
  8
0
100
AcDbSpline
 62
7
  6
CONTINUOUS
 70
0
 71
3
 72
8
 73
4
 74
2
 42
0.0000001
 43
0.0000001
 44
0.0000000001
 12
0.0007714491
 22
0.0024757528
 32
0.0
 13
0.0008632466
 23
0.0005371395
 33
0.0
 40
0.0
 40
0.0
 40
0.0
 40
0.0
 40
1.0
 40
1.0
 40
1.0
 40
1.0
 10
-87.2446628729
 20
-25.5171573012
 30
0.0
 10
-87.2444057231
 20
-25.5163320503
 30
0.0
 10
-87.2441331336
 20
-25.5157814983
 30
0.0
 10
-87.2438453847
 20
-25.5156024518
 30
0.0
 11
-87.2446628729
 21
-25.5171573012
 31
0.0
 11
-87.2438453847
 21
-25.5156024518
 31
0.0
  0
SPLINE
  5
3B5
100
AcDbEntity
  8
0
100
AcDbSpline
 62
7
  6
CONTINUOUS
 70
0
 71
3
 72
8
 73
4
 74
2
 42
0.0000001
 43
0.0000001
 44
0.0000000001
 12
0.0082569107
 22
-0.0569417337
 32
0.0
 13
0.0041338137
 23
-0.0574251877
 33
0.0
 40
0.0
 40
0.0
 40
0.0
 40
0.0
 40
1.0
 40
1.0
 40
1.0
 40
1.0
 10
-87.1584194635
 20
-27.0757475889
 30
0.0
 10
-87.15566716
 20
-27.0947281668
 30
0.0
 10
-87.1543501026
 20
-27.1138846913
 30
0.0
 10
-87.1529721647
 20
-27.1330264205
 30
0.0
 11
-87.1584194635
 21
-27.0757475889
 31
0.0
 11
-87.1529721647
 21
-27.1330264205
 31
0.0
  0
SPLINE
  5
3B6
100
AcDbEntity
  8
0
100
AcDbSpline
 62
7
  6
CONTINUOUS
 70
0
 71
3
 72
9
 73
5
 74
3
 42
0.0000001
 43
0.0000001
 44
0.0000000001
 12
0.012867818
 22
-0.1787542739
 32
0.0
 13
0.0123588129
 23
-0.1786787015
 33
0.0
 40
0.0
 40
0.0
 40
0.0
 40
0.0
 40
0.6428215324
 40
1.0
 40
1.0
 40
1.0
 40
1.0
 10
-87.1529721647
 20
-27.1330264205
 30
0.0
 10
-87.1502149279
 20
-27.1713287859
 30
0.0
 10
-87.1455464476
 20
-27.2308213887
 30
0.0
 10
-87.1413329538
 20
-27.2903702838
 30
0.0
 10
-87.1398615199
 20
-27.3116436788
 30
0.0
 11
-87.1529721647
 21
-27.1330264205
 31
0.0
 11
-87.1444009379
 21
-27.2478382992
 31
0.0
 11
-87.1398615199
 21
-27.3116436788
 31
0.0
  0
LINE
  5
3B7
100
AcDbEntity
  8
0
100
AcDbLine
 62
7
  6
CONTINUOUS
 10
-87.1398615199
 20
-27.3116436788
 11
-87.1375486311
 21
-27.3454404133
  0
LINE
  5
3B8
100
AcDbEntity
  8
0
100
AcDbLine
 62
7
  6
CONTINUOUS
 10
-87.1375486311
 20
-27.3454404133
 11
-87.1219864677
 21
-27.5773958236
  0
LINE
  5
3B9
100
AcDbEntity
  8
0
100
AcDbLine
 62
7
  6
CONTINUOUS
 10
-87.0725939239
 20
-28.2836498123
 11
-87.0605706222
 21
-28.4464151126
  0
SPLINE
  5
3BA
100
AcDbEntity
  8
RACCORDO
100
AcDbSpline
 62
253
  6
CONTINUOUS
 70
0
 71
3
 72
11
 73
7
 74
5
 42
0.0000001
 43
0.0000001
 44
0.0000000001
 12
0.0008121144
 22
10.4872053386
 32
0.0
 13
0.0478529767
 23
10.4870961932
 33
0.0
 40
0.0
 40
0.0
 40
0.0
 40
0.0
 40
0.2773119451
 40
0.5360756183
 40
0.7776571569
 40
1.0
 40
1.0
 40
1.0
 40
1.0
 10
-87.1981893086
 20
12.2408832558
 30
0.0
 10
-87.1981142389
 20
13.2102923595
 30
0.0
 10
-87.1967058961
 20
15.0842701471
 30
0.0
 10
-87.1947885346
 20
17.8027538898
 30
0.0
 10
-87.1949016969
 20
20.3290770444
 30
0.0
 10
-87.1941249325
 20
21.9508405451
 30
0.0
 10
-87.1905783436
 20
22.7280841396
 30
0.0
 11
-87.1981893086
 21
12.2408832558
 31
0.0
 11
-87.1966803455
 21
15.1491101841
 31
0.0
 11
-87.1950970795
 21
17.8628175055
 31
0.0
 11
-87.19467438
 21
20.3963326789
 31
0.0
 11
-87.1905783436
 21
22.7280841396
 31
0.0
  0
SPLINE
  5
3BB
100
AcDbEntity
  8
RACCORDO
100
AcDbSpline
 62
253
  6
CONTINUOUS
 70
0
 71
3
 72
25
 73
21
 74
19
 42
0.0000001
 43
0.0000001
 44
0.0000000001
 12
-0.0079840616
 22
2.612095095
 32
0.0
 13
-1.6344508126
 23
-2.0375656883
 33
0.0
 40
0.0
 40
0.0
 40
0.0
 40
0.0
 40
0.0862579805
 40
0.1660765631
 40
0.24584578
 40
0.3242658845
 40
0.3980774145
 40
0.4669896123
 40
0.532066482
 40
0.594091495
 40
0.6530120952
 40
0.7072154525
 40
0.7571218194
 40
0.8053364782
 40
0.8530915525
 40
0.8979659471
 40
0.9377043462
 40
0.9701022365
 40
0.9921698136
 40
1.0
 40
1.0
 40
1.0
 40
1.0
 10
-87.1900123695
 20
23.7954560417
 30
0.0
 10
-87.1902419326
 20
23.8705607243
 30
0.0
 10
-87.1907831712
 20
24.0151630042
 30
0.0
 10
-87.1918184544
 20
24.2292190333
 30
0.0
 10
-87.1929915341
 20
24.4364497692
 30
0.0
 10
-87.1942574283
 20
24.6384495179
 30
0.0
 10
-87.195625805
 20
24.8309951046
 30
0.0
 10
-87.1969106484
 20
25.0119230684
 30
0.0
 10
-87.1978519516
 20
25.1825903764
 30
0.0
 10
-87.1981531428
 20
25.344561545
 30
0.0
 10
-87.198053514
 20
25.4970610606
 30
0.0
 10
-87.1977515463
 20
25.6390221225
 30
0.0
 10
-87.1972990677
 20
25.7716155803
 30
0.0
 10
-87.1966759632
 20
25.8987525849
 30
0.0
 10
-87.1960986976
 20
26.0209386894
 30
0.0
 10
-87.1949645474
 20
26.1376937098
 30
0.0
 10
-87.1955741912
 20
26.2349334446
 30
0.0
 10
-87.1918423111
 20
26.3294659164
 30
0.0
 10
-87.198716266
 20
26.3583694234
 30
0.0
 10
-87.1915814936
 20
26.4128108324
 30
0.0
 10
-87.1958475118
 20
26.4074926594
 30
0.0
 11
-87.1900123695
 21
23.7954560417
 31
0.0
 11
-87.190846814
 21
24.0207695781
 31
0.0
 11
-87.1918473114
 21
24.2292618622
 31
0.0
 11
-87.1930194092
 21
24.4376243017
 31
0.0
 11
-87.1943121171
 21
24.6424619328
 31
0.0
 11
-87.1956559427
 21
24.8352608695
 31
0.0
 11
-87.1968854223
 21
25.0152627105
 31
0.0
 11
-87.197760547
 21
25.1852482096
 31
0.0
 11
-87.1980885742
 21
25.3472638532
 31
0.0
 11
-87.1980114449
 21
25.5011707509
 31
0.0
 11
-87.1977120293
 21
25.6427554074
 31
0.0
 11
-87.1972610194
 21
25.7731154017
 31
0.0
 11
-87.196678187
 21
25.8990559046
 31
0.0
 11
-87.1959768499
 21
26.0237953006
 31
0.0
 11
-87.1952484535
 21
26.1410097612
 31
0.0
 11
-87.1946311673
 21
26.2448088794
 31
0.0
 11
-87.1943229891
 21
26.3294350769
 31
0.0
 11
-87.1946030042
 21
26.3870772711
 31
0.0
 11
-87.1958475118
 21
26.4074926594
 31
0.0
  0
SPLINE
  5
3BC
100
AcDbEntity
  8
RACCORDO
100
AcDbSpline
 62
253
  6
CONTINUOUS
 70
0
 71
3
 72
8
 73
4
 74
2
 42
0.0000001
 43
0.0000001
 44
0.0000000001
 12
-0.0020246104
 22
-0.0025289907
 32
0.0
 13
-0.0015079634
 23
0.001165179
 33
0.0
 40
0.0
 40
0.0
 40
0.0
 40
0.0
 40
1.0
 40
1.0
 40
1.0
 40
1.0
 10
-87.1958475118
 20
26.4074926594
 30
0.0
 10
-87.1965223819
 20
26.4066496625
 30
0.0
 10
-87.1971111442
 20
26.4064223606
 30
0.0
 10
-87.1976137987
 20
26.4068107536
 30
0.0
 11
-87.1958475118
 21
26.4074926594
 31
0.0
 11
-87.1976137987
 21
26.4068107536
 31
0.0
  0
SPLINE
  5
3BD
100
AcDbEntity
  8
RACCORDO
100
AcDbSpline
 62
253
  6
CONTINUOUS
 70
0
 71
3
 72
18
 73
14
 74
12
 42
0.0000001
 43
0.0000001
 44
0.0000000001
 12
1.4705524577
 22
1.1412001131
 32
0.0
 13
-0.0738180581
 23
1.8599497637
 33
0.0
 40
0.0
 40
0.0
 40
0.0
 40
0.0
 40
0.0302934912
 40
0.0958044407
 40
0.1841907364
 40
0.2863651463
 40
0.3954258638
 40
0.5065297365
 40
0.6162579055
 40
0.7220282752
 40
0.8218713086
 40
0.9145324714
 40
1.0
 40
1.0
 40
1.0
 40
1.0
 10
-84.3387797559
 20
-45.9125251186
 30
0.0
 10
-84.3239303666
 20
-45.9010014734
 30
0.0
 10
-84.333517893
 20
-45.828813679
 30
0.0
 10
-84.3182721509
 20
-45.7242556757
 30
0.0
 10
-84.321133033
 20
-45.5611508024
 30
0.0
 10
-84.3190379108
 20
-45.3766803663
 30
0.0
 10
-84.3202863602
 20
-45.1762481119
 30
0.0
 10
-84.3219436088
 20
-44.9716858659
 30
0.0
 10
-84.3247545885
 20
-44.7690249343
 30
0.0
 10
-84.3283872652
 20
-44.5734056748
 30
0.0
 10
-84.3327769272
 20
-44.3883840344
 30
0.0
 10
-84.3377985681
 20
-44.2159832263
 30
0.0
 10
-84.3417495954
 20
-44.1055288905
 30
0.0
 10
-84.343852611
 20
-44.052540454
 30
0.0
 11
-84.3387797559
 21
-45.9125251186
 31
0.0
 11
-84.3282420963
 21
-45.8571297525
 31
0.0
 11
-84.3227853557
 21
-45.7353089025
 31
0.0
 11
-84.3202343156
 21
-45.5708051895
 31
0.0
 11
-84.3196230637
 21
-45.3806172906
 31
0.0
 11
-84.320340602
 21
-45.1776114081
 31
0.0
 11
-84.3221508099
 21
-44.970809022
 31
0.0
 11
-84.3249514111
 21
-44.766578669
 31
0.0
 11
-84.3286294968
 21
-44.5697305771
 31
0.0
 11
-84.3330560174
 21
-44.3839340754
 31
0.0
 11
-84.3381268947
 21
-44.211527843
 31
0.0
 11
-84.343852611
 21
-44.052540454
 31
0.0
  0
SPLINE
  5
3BE
100
AcDbEntity
  8
0
100
AcDbSpline
 62
7
  6
CONTINUOUS
 70
0
 71
3
 72
13
 73
9
 74
7
 42
0.0000001
 43
0.0000001
 44
0.0000000001
 12
0.1443027949
 22
0.0897897954
 32
0.0
 13
0.0317188483
 23
-0.596828567
 33
0.0
 40
0.0
 40
0.0
 40
0.0
 40
0.0
 40
0.0006183145
 40
0.0314735472
 40
0.1523202269
 40
0.4130774154
 40
0.7568434895
 40
1.0
 40
1.0
 40
1.0
 40
1.0
 10
-87.2438453847
 20
-25.5156024518
 30
0.0
 10
-87.2438156432
 20
-25.5155839457
 30
0.0
 10
-87.2422934927
 20
-25.5148439672
 30
0.0
 10
-87.2328999655
 20
-25.5623709248
 30
0.0
 10
-87.2314009461
 20
-25.6223238218
 30
0.0
 10
-87.2182156472
 20
-25.7807494853
 30
0.0
 10
-87.2100497915
 20
-25.9432216894
 30
0.0
 10
-87.2037866474
 20
-26.059699906
 30
0.0
 10
-87.2012157659
 20
-26.1080741566
 30
0.0
 11
-87.2438453847
 21
-25.5156024518
 31
0.0
 11
-87.2437556746
 21
-25.5155589469
 31
0.0
 11
-87.2388139174
 21
-25.5332458416
 31
0.0
 11
-87.2313528712
 21
-25.6047828486
 31
0.0
 11
-87.2206855405
 21
-25.7596122093
 31
0.0
 11
-87.208871608
 21
-25.9638721402
 31
0.0
 11
-87.2012157659
 21
-26.1080741566
 31
0.0
  0
SPLINE
  5
3BF
100
AcDbEntity
  8
0
100
AcDbSpline
 62
7
  6
CONTINUOUS
 70
0
 71
3
 72
11
 73
7
 74
5
 42
0.0000001
 43
0.0000001
 44
0.0000000001
 12
0.0151831347
 22
-0.3317344106
 32
0.0
 13
-0.0205183261
 23
-0.2856805242
 33
0.0
 40
0.0
 40
0.0
 40
0.0
 40
0.0
 40
0.3911598593
 40
0.7236945277
 40
0.9670557736
 40
1.0
 40
1.0
 40
1.0
 40
1.0
 10
-87.1709666915
 20
-26.7285254616
 30
0.0
 10
-87.1689870139
 20
-26.7717791901
 30
0.0
 10
-87.1653572919
 20
-26.8492667061
 30
0.0
 10
-87.1612113096
 20
-26.9787288056
 30
0.0
 10
-87.1574248419
 20
-27.0074328179
 30
0.0
 10
-87.1575134112
 20
-27.0710375241
 30
0.0
 10
-87.1577387313
 20
-27.0741746987
 30
0.0
 11
-87.1709666915
 21
-26.7285254616
 31
0.0
 11
-87.1652172392
 21
-26.8612100418
 31
0.0
 11
-87.1604580488
 21
-26.9740139816
 31
0.0
 11
-87.1575179785
 21
-27.0565892192
 31
0.0
 11
-87.1577387313
 21
-27.0741746987
 31
0.0
  0
SPLINE
  5
3C0
100
AcDbEntity
  8
RACCORDO
100
AcDbSpline
 62
253
  6
CONTINUOUS
 70
0
 71
3
 72
10
 73
6
 74
4
 42
0.0000001
 43
0.0000001
 44
0.0000000001
 12
0.0840982793
 22
-0.1140789968
 32
0.0
 13
-0.0000166041
 23
0.1392284423
 33
0.0
 40
0.0
 40
0.0
 40
0.0
 40
0.0
 40
0.1916054323
 40
0.7343279622
 40
1.0
 40
1.0
 40
1.0
 40
1.0
 10
-87.1958521135
 20
-25.4257466503
 30
0.0
 10
-87.1904808845
 20
-25.4330327022
 30
0.0
 10
-87.1999787169
 20
-25.3599299445
 30
0.0
 10
-87.1942039069
 20
-25.3352015584
 30
0.0
 10
-87.1934622605
 20
-25.3004698239
 30
0.0
 10
-87.1934637309
 20
-25.2881401226
 30
0.0
 11
-87.1958521135
 21
-25.4257466503
 31
0.0
 11
-87.1945020047
 21
-25.398624573
 31
0.0
 11
-87.1943738341
 21
-25.3217062522
 31
0.0
 11
-87.1934637309
 21
-25.2881401226
 31
0.0
  0
SPLINE
  5
3C1
100
AcDbEntity
  8
RACCORDO
100
AcDbSpline
 62
253
  6
CONTINUOUS
 70
0
 71
3
 72
8
 73
4
 74
2
 42
0.0000001
 43
0.0000001
 44
0.0000000001
 12
-0.0000085178
 22
0.0714233259
 32
0.0
 13
-0.0016301591
 23
0.0772853907
 33
0.0
 40
0.0
 40
0.0
 40
0.0
 40
0.0
 40
1.0
 40
1.0
 40
1.0
 40
1.0
 10
-87.1934637309
 20
-25.2881401226
 30
0.0
 10
-87.1934665702
 20
-25.2643323473
 30
0.0
 10
-87.1943836575
 20
-25.2371114766
 30
0.0
 10
-87.1949270439
 20
-25.2113496797
 30
0.0
 11
-87.1934637309
 21
-25.2881401226
 31
0.0
 11
-87.1949270439
 21
-25.2113496797
 31
0.0
  0
SPLINE
  5
3C2
100
AcDbEntity
  8
RACCORDO
100
AcDbSpline
 62
253
  6
CONTINUOUS
 70
0
 71
3
 72
21
 73
17
 74
15
 42
0.0000001
 43
0.0000001
 44
0.0000000001
 12
-0.0526082844
 22
2.4941441299
 32
0.0
 13
0.0076019904
 23
2.3463162317
 33
0.0
 40
0.0
 40
0.0
 40
0.0
 40
0.0
 40
0.0558002832
 40
0.1170067656
 40
0.179709232
 40
0.241978415
 40
0.3042804268
 40
0.3689366337
 40
0.437713478
 40
0.5104173048
 40
0.5867350797
 40
0.6655451945
 40
0.7475932283
 40
0.8357983038
 40
0.9316781404
 40
1.0
 40
1.0
 40
1.0
 40
1.0
 10
-87.1949270439
 20
-25.2113496797
 30
0.0
 10
-87.1959055629
 20
-25.1649583635
 30
0.0
 10
-87.1954163156
 20
-25.0776025165
 30
0.0
 10
-87.1967155393
 20
-24.9352469602
 30
0.0
 10
-87.1972670139
 20
-24.7901462214
 30
0.0
 10
-87.1978143396
 20
-24.6435419597
 30
0.0
 10
-87.1981230038
 20
-24.4955824886
 30
0.0
 10
-87.1981090685
 20
-24.3424857523
 30
0.0
 10
-87.197713277
 20
-24.1812674661
 30
0.0
 10
-87.1968195953
 20
-24.0109265104
 30
0.0
 10
-87.195522343
 20
-23.8327421215
 30
0.0
 10
-87.1941929018
 20
-23.6472492824
 30
0.0
 10
-87.1929357605
 20
-23.4524586359
 30
0.0
 10
-87.1917510439
 20
-23.2443168843
 30
0.0
 10
-87.1908225469
 20
-23.0469093061
 30
0.0
 10
-87.1903483542
 20
-22.9184864598
 30
0.0
 10
-87.1901752268
 20
-22.8650515637
 30
0.0
 11
-87.1949270439
 21
-25.2113496797
 31
0.0
 11
-87.195742578
 21
-25.0804264324
 31
0.0
 11
-87.1965757011
 21
-24.9368183431
 31
0.0
 11
-87.1972670552
 21
-24.7896993921
 31
0.0
 11
-87.1977740465
 21
-24.6435963213
 31
0.0
 11
-87.1980671163
 21
-24.4974156374
 31
0.0
 11
-87.1980514379
 21
-24.3457109461
 31
0.0
 11
-87.1976478237
 21
-24.1843383901
 31
0.0
 11
-87.1967780032
 21
-24.0137535565
 31
0.0
 11
-87.1955398611
 21
-23.834691277
 31
0.0
 11
-87.1942325896
 21
-23.6497814901
 31
0.0
 11
-87.1929903994
 21
-23.4572738687
 31
0.0
 11
-87.1918178797
 21
-23.2503191196
 31
0.0
 11
-87.1907654411
 21
-23.0253560009
 31
0.0
 11
-87.1901752268
 21
-22.8650515637
 31
0.0
  0
LINE
  5
3C3
100
AcDbEntity
  8
RACCORDO
100
AcDbLine
 62
253
  6
CONTINUOUS
 10
-87.1899416821
 20
-21.9195372254
 11
-87.1902391674
 21
-21.8329098186
  0
LINE
  5
3C4
100
AcDbEntity
  8
RACCORDO
100
AcDbLine
 62
253
  6
CONTINUOUS
 10
-87.1902391674
 20
-21.8329098186
 11
-87.1905980832
 21
-21.7464469617
  0
SPLINE
  5
3C5
100
AcDbEntity
  8
RACCORDO
100
AcDbSpline
 62
253
  6
CONTINUOUS
 70
0
 71
3
 72
11
 73
7
 74
5
 42
0.0000001
 43
0.0000001
 44
0.0000000001
 12
-0.047691057
 22
10.4872264742
 32
0.0
 13
-0.0008137397
 23
10.4873348805
 33
0.0
 40
0.0
 40
0.0
 40
0.0
 40
0.0
 40
0.2226644955
 40
0.4642862518
 40
0.7230255771
 40
1.0
 40
1.0
 40
1.0
 40
1.0
 10
-87.1905980832
 20
-21.7464469617
 30
0.0
 10
-87.1941377849
 20
-20.9680692975
 30
0.0
 10
-87.1949082699
 20
-19.3450207602
 30
0.0
 10
-87.1947428554
 20
-16.8174864726
 30
0.0
 10
-87.1967329706
 20
-14.1000936173
 30
0.0
 10
-87.1981141803
 20
-12.2273576843
 30
0.0
 10
-87.1981893087
 20
-11.259116509
 30
0.0
 11
-87.1905980832
 21
-21.7464469617
 31
0.0
 11
-87.194675167
 21
-19.4112933832
 31
0.0
 11
-87.1950721811
 21
-16.8773251344
 31
0.0
 11
-87.1966885456
 21
-14.1638396561
 31
0.0
 11
-87.1981893087
 21
-11.259116509
 31
0.0
  0
SPLINE
  5
3C6
100
AcDbEntity
  8
RACCORDO
100
AcDbSpline
 62
253
  6
CONTINUOUS
 70
0
 71
3
 72
30
 73
26
 74
24
 42
0.0000001
 43
0.0000001
 44
0.0000000001
 12
-1.3006510725
 22
32.7682407108
 32
0.0
 13
-0.0001851518
 23
32.7940435515
 33
0.0
 40
0.0
 40
0.0
 40
0.0
 40
0.0
 40
0.0212803367
 40
0.0402480277
 40
0.0579584041
 40
0.0764934133
 40
0.0971709807
 40
0.1199668073
 40
0.1448831044
 40
0.1721936543
 40
0.2020870769
 40
0.2347956392
 40
0.2705056063
 40
0.3092258529
 40
0.3509996176
 40
0.3960927973
 40
0.4447517571
 40
0.4972032238
 40
0.5537278467
 40
0.6146345712
 40
0.6803284203
 40
0.7512505262
 40
0.8278050181
 40
0.9103763035
 40
1.0
 40
1.0
 40
1.0
 40
1.0
 10
-84.343852611
 20
-44.052540454
 30
0.0
 10
-84.3530787086
 20
-43.8201007227
 30
0.0
 10
-84.3664936617
 20
-43.3803063627
 30
0.0
 10
-84.3744462188
 20
-42.7467754872
 30
0.0
 10
-84.3768632368
 20
-42.1432258709
 30
0.0
 10
-84.38344879
 20
-41.5210131822
 30
0.0
 10
-84.3912927093
 20
-40.8432239515
 30
0.0
 10
-84.3992200949
 20
-40.0956741503
 30
0.0
 10
-84.4073360109
 20
-39.2756151877
 30
0.0
 10
-84.4141614619
 20
-38.3779547254
 30
0.0
 10
-84.4190086622
 20
-37.3951007914
 30
0.0
 10
-84.4230371942
 20
-36.3204262256
 30
0.0
 10
-84.4270846324
 20
-35.1492619096
 30
0.0
 10
-84.4303291607
 20
-33.8789997315
 30
0.0
 10
-84.4322222287
 20
-32.5061632716
 30
0.0
 10
-84.4318518662
 20
-31.0246819474
 30
0.0
 10
-84.4295849634
 20
-29.4264809167
 30
0.0
 10
-84.42620579
 20
-27.7033206613
 30
0.0
 10
-84.4225588366
 20
-25.8462761108
 30
0.0
 10
-84.4190362461
 20
-23.84447395
 30
0.0
 10
-84.4163236083
 20
-21.6852863893
 30
0.0
 10
-84.4154482198
 20
-19.3550457552
 30
0.0
 10
-84.4174059286
 20
-16.8403127599
 30
0.0
 10
-84.4205247334
 20
-14.121147628
 30
0.0
 10
-84.421652128
 20
-12.2388243911
 30
0.0
 10
-84.4216576594
 20
-11.2591165886
 30
0.0
 11
-84.343852611
 21
-44.052540454
 31
0.0
 11
-84.3650581029
 21
-43.3549944174
 31
0.0
 11
-84.3737022349
 21
-42.7330271956
 31
0.0
 11
-84.3774494803
 21
-42.1522444292
 31
0.0
 11
-84.3832955788
 21
-41.5444346461
 31
0.0
 11
-84.3909206727
 21
-40.8663764725
 31
0.0
 11
-84.3988900516
 21
-40.1188516199
 31
0.0
 11
-84.4067790629
 21
-39.3017835721
 31
0.0
 11
-84.4135659883
 21
-38.4061859276
 31
0.0
 11
-84.4186722824
 21
-37.4258730221
 31
0.0
 11
-84.4228641754
 21
-36.3532351981
 31
0.0
 11
-84.4268020406
 21
-35.1821676022
 31
0.0
 11
-84.4300046147
 21
-33.9123781867
 31
0.0
 11
-84.4318144823
 21
-32.5424487226
 31
0.0
 11
-84.431584591
 21
-31.063661042
 31
0.0
 11
-84.4295048673
 21
-29.4679383503
 31
0.0
 11
-84.426292328
 21
-27.747845668
 31
0.0
 11
-84.422713623
 21
-25.8941781749
 31
0.0
 11
-84.4192895694
 21
-23.8968033355
 31
0.0
 11
-84.4166995183
 21
-21.7424379438
 31
0.0
 11
-84.4159016577
 21
-19.4166154523
 31
0.0
 11
-84.417503074
 21
-16.9060846214
 31
0.0
 11
-84.420199109
 21
-14.1982396341
 31
0.0
 11
-84.4216576594
 21
-11.2591165886
 31
0.0
  0
SPLINE
  5
3C7
100
AcDbEntity
  8
RACCORDO
100
AcDbSpline
 62
253
  6
CONTINUOUS
 70
0
 71
3
 72
16
 73
12
 74
10
 42
0.0000001
 43
0.0000001
 44
0.0000000001
 12
-0.0926340197
 22
0.07299897
 32
0.0
 13
0.066149991
 23
0.027008413
 33
0.0
 40
0.0
 40
0.0
 40
0.0
 40
0.0
 40
0.2002207692
 40
0.368292929
 40
0.5045312525
 40
0.6112104502
 40
0.7064703493
 40
0.8052374113
 40
0.8959237235
 40
0.9960311504
 40
1.0
 40
1.0
 40
1.0
 40
1.0
 10
-84.3388995336
 20
46.8940553555
 30
0.0
 10
-84.3450819518
 20
46.8989273255
 30
0.0
 10
-84.3557108902
 20
46.9090043813
 30
0.0
 10
-84.3658800179
 20
46.9263989626
 30
0.0
 10
-84.3703056519
 20
46.9419016852
 30
0.0
 10
-84.3743792901
 20
46.9547801717
 30
0.0
 10
-84.3818659116
 20
46.9639441009
 30
0.0
 10
-84.3900357238
 20
46.9723552459
 30
0.0
 10
-84.3951633726
 20
46.9803467977
 30
0.0
 10
-84.4020805085
 20
46.9912288034
 30
0.0
 10
-84.4000155668
 20
46.9923541375
 30
0.0
 10
-84.3999280536
 20
46.9923898683
 30
0.0
 11
-84.3388995336
 21
46.8940553555
 31
0.0
 11
-84.3556912314
 21
46.9106584987
 31
0.0
 11
-84.3656502468
 21
46.9277975965
 31
0.0
 11
-84.3707215725
 21
46.9430442965
 31
0.0
 11
-84.3752410711
 21
46.9547863235
 31
0.0
 11
-84.3819562266
 21
46.9637936238
 31
0.0
 11
-84.3897019058
 21
46.9724938939
 31
0.0
 11
-84.3957641119
 21
46.9813055264
 31
0.0
 11
-84.4001646778
 21
46.9922614906
 31
0.0
 11
-84.3999280536
 21
46.9923898683
 31
0.0
  0
SPLINE
  5
3C8
100
AcDbEntity
  8
RACCORDO
100
AcDbSpline
 62
253
  6
CONTINUOUS
 70
0
 71
3
 72
18
 73
14
 74
12
 42
0.0000001
 43
0.0000001
 44
0.0000000001
 12
0.0738164939
 22
1.859739477
 32
0.0
 13
-1.4714104443
 23
1.1397504557
 33
0.0
 40
0.0
 40
0.0
 40
0.0
 40
0.0
 40
0.0861923519
 40
0.1798127802
 40
0.2802523615
 40
0.3863123865
 40
0.4960403427
 40
0.606951609
 40
0.7157076846
 40
0.8174262101
 40
0.9052452353
 40
0.9701374074
 40
1.0
 40
1.0
 40
1.0
 40
1.0
 10
-84.3438529873
 20
45.0343095201
 30
0.0
 10
-84.3417321816
 20
45.0877412932
 30
0.0
 10
-84.3377476027
 20
45.1992274492
 30
0.0
 10
-84.3326989861
 20
45.3730235121
 30
0.0
 10
-84.3283024202
 20
45.5591693702
 30
0.0
 10
-84.3246841672
 20
45.7553165235
 30
0.0
 10
-84.3218981268
 20
45.9580150514
 30
0.0
 10
-84.3202648563
 20
46.1622458207
 30
0.0
 10
-84.3190402239
 20
46.3620631816
 30
0.0
 10
-84.3211100568
 20
46.5456956241
 30
0.0
 10
-84.3183548663
 20
46.7077314985
 30
0.0
 10
-84.3333490229
 20
46.8113831332
 30
0.0
 10
-84.3242528234
 20
46.8827100543
 30
0.0
 10
-84.3388995336
 20
46.8940553555
 30
0.0
 11
-84.3438529873
 21
45.0343095201
 31
0.0
 11
-84.3380834627
 21
45.1946272745
 31
0.0
 11
-84.3329738194
 21
45.3687990425
 31
0.0
 11
-84.3285414484
 21
45.5556850248
 31
0.0
 11
-84.3248780425
 21
45.753050356
 31
0.0
 11
-84.3221030021
 21
45.9572575968
 31
0.0
 11
-84.320318453
 21
46.1636783596
 31
0.0
 11
-84.3196174826
 21
46.3660943733
 31
0.0
 11
-84.3202365786
 21
46.5554122729
 31
0.0
 11
-84.3228010056
 21
46.7188412629
 31
0.0
 11
-84.328309885
 21
46.8394931235
 31
0.0
 11
-84.3388995336
 21
46.8940553555
 31
0.0
  0
SPLINE
  5
3C9
100
AcDbEntity
  8
RACCORDO
100
AcDbSpline
 62
253
  6
CONTINUOUS
 70
0
 71
3
 72
18
 73
14
 74
12
 42
0.0000001
 43
0.0000001
 44
0.0000000001
 12
0.0781958393
 22
2.7690542424
 32
0.0
 13
-2.7650797613
 23
-0.1676600743
 33
0.0
 40
0.0
 40
0.0
 40
0.0
 40
0.0
 40
0.0881539111
 40
0.1836068216
 40
0.2858728494
 40
0.3937553652
 40
0.5051637781
 40
0.6173790249
 40
0.7267964051
 40
0.8283132449
 40
0.9146572123
 40
0.97600312
 40
1.0
 40
1.0
 40
1.0
 40
1.0
 10
-83.4062439715
 20
44.990880387
 30
0.0
 10
-83.4039462151
 20
45.0722480409
 30
0.0
 10
-83.3995936918
 20
45.2417333789
 30
0.0
 10
-83.3939794393
 20
45.5056428879
 30
0.0
 10
-83.3890657117
 20
45.7877988922
 30
0.0
 10
-83.3850175295
 20
46.084653027
 30
0.0
 10
-83.3818174995
 20
46.3909012009
 30
0.0
 10
-83.3801460372
 20
46.6978390541
 30
0.0
 10
-83.3780632236
 20
46.9983007423
 30
0.0
 10
-83.3826252698
 20
47.2660004283
 30
0.0
 10
-83.3733500908
 20
47.5155663763
 30
0.0
 10
-83.4026294499
 20
47.6322966738
 30
0.0
 10
-83.3787407973
 20
47.7609675089
 30
0.0
 10
-83.4008585598
 20
47.7596264027
 30
0.0
 11
-83.4062439715
 21
44.990880387
 31
0.0
 11
-83.3999388411
 21
45.2349992481
 31
0.0
 11
-83.3942772985
 21
45.4993582856
 31
0.0
 11
-83.3893296814
 21
45.782608145
 31
0.0
 11
-83.3852177599
 21
46.0814314821
 31
0.0
 11
-83.3820825018
 21
46.3900344753
 31
0.0
 11
-83.3800509435
 21
46.7008818134
 31
0.0
 11
-83.3792491342
 21
47.0039841967
 31
0.0
 11
-83.3799745098
 21
47.2852009589
 31
0.0
 11
-83.3829071816
 21
47.5243694214
 31
0.0
 11
-83.3891354949
 21
47.6941931116
 31
0.0
 11
-83.4008585598
 21
47.7596264027
 31
0.0
  0
SPLINE
  5
3CA
100
AcDbEntity
  8
0
100
AcDbSpline
 62
7
  6
CONTINUOUS
 70
0
 71
3
 72
9
 73
5
 74
3
 42
0.0000001
 43
0.0000001
 44
0.0000000001
 12
0.0010196505
 22
0.0366877299
 32
0.0
 13
-0.0017361498
 23
0.0563281702
 33
0.0
 40
0.0
 40
0.0
 40
0.0
 40
0.0
 40
0.5183067734
 40
1.0
 40
1.0
 40
1.0
 40
1.0
 10
-87.0973470891
 20
-27.0742355211
 30
0.0
 10
-87.0971709251
 20
-27.0678970214
 30
0.0
 10
-87.0978463195
 20
-27.040132954
 30
0.0
 10
-87.0984509968
 20
-27.0188808556
 30
0.0
 10
-87.0987297607
 20
-27.0098365562
 30
0.0
 11
-87.0973470891
 21
-27.0742355211
 31
0.0
 11
-87.0978520505
 21
-27.0408658008
 31
0.0
 11
-87.0987297607
 21
-27.0098365562
 31
0.0
  0
SPLINE
  5
3CB
100
AcDbEntity
  8
0
100
AcDbSpline
 62
7
  6
CONTINUOUS
 70
0
 71
3
 72
9
 73
5
 74
3
 42
0.0000001
 43
0.0000001
 44
0.0000000001
 12
-0.0104344574
 22
0.3385386993
 32
0.0
 13
-0.010985751
 23
0.2620088898
 33
0.0
 40
0.0
 40
0.0
 40
0.0
 40
0.0
 40
0.3890117339
 40
1.0
 40
1.0
 40
1.0
 40
1.0
 10
-87.0987297607
 20
-27.0098365562
 30
0.0
 10
-87.1000828028
 20
-26.9659380474
 30
0.0
 10
-87.1028036437
 20
-26.9253214591
 30
0.0
 10
-87.1065270642
 20
-26.829891595
 30
0.0
 10
-87.1087644525
 20
-26.7765301425
 30
0.0
 11
-87.0987297607
 21
-27.0098365562
 31
0.0
 11
-87.1023514014
 21
-26.9260424884
 31
0.0
 11
-87.1087644525
 21
-26.7765301425
 31
0.0
  0
SPLINE
  5
3CC
100
AcDbEntity
  8
0
100
AcDbSpline
 62
7
  6
CONTINUOUS
 70
0
 71
3
 72
11
 73
7
 74
5
 42
0.0000001
 43
0.0000001
 44
0.0000000001
 12
-0.0322856424
 22
0.613021339
 32
0.0
 13
-0.1971282506
 23
-0.2858372376
 33
0.0
 40
0.0
 40
0.0
 40
0.0
 40
0.0
 40
0.4027217458
 40
0.7473426672
 40
0.9442525403
 40
1.0
 40
1.0
 40
1.0
 40
1.0
 10
-87.1394749175
 20
-26.138875913
 30
0.0
 10
-87.1438089609
 20
-26.0565835717
 30
0.0
 10
-87.1520609481
 20
-25.9075482201
 30
0.0
 10
-87.1639011678
 20
-25.6845850442
 30
0.0
 10
-87.1726999679
 20
-25.6080887052
 30
0.0
 10
-87.1790257772
 20
-25.511465326
 30
0.0
 10
-87.1826889103
 20
-25.5167768926
 30
0.0
 11
-87.1394749175
 21
-26.138875913
 31
0.0
 11
-87.1530274601
 21
-25.8879959104
 31
0.0
 11
-87.1662341361
 21
-25.6734034545
 31
0.0
 11
-87.1763610296
 21
-25.5509755222
 31
0.0
 11
-87.1826889103
 21
-25.5167768926
 31
0.0
  0
SPLINE
  5
3CD
100
AcDbEntity
  8
RACCORDO
100
AcDbSpline
 62
253
  6
CONTINUOUS
 70
0
 71
3
 72
11
 73
7
 74
5
 42
0.0000001
 43
0.0000001
 44
0.0000000001
 12
0.0005827934
 22
10.5000782859
 32
0.0
 13
0.0124257305
 23
10.5000709498
 33
0.0
 40
0.0
 40
0.0
 40
0.0
 40
0.0
 40
0.2771641993
 40
0.5355222138
 40
0.7767329188
 40
1.0
 40
1.0
 40
1.0
 40
1.0
 10
-87.7900741777
 20
12.2408834422
 30
0.0
 10
-87.7900203346
 20
13.2109653725
 30
0.0
 10
-87.789628482
 20
15.0853070521
 30
0.0
 10
-87.7890084745
 20
17.8038925371
 30
0.0
 10
-87.7888413099
 20
20.3338364941
 30
0.0
 10
-87.7887420071
 20
21.959521356
 30
0.0
 10
-87.7878172549
 20
22.7409614205
 30
0.0
 11
-87.7900741777
 21
12.2408834422
 31
0.0
 11
-87.7896051812
 21
15.1511291997
 31
0.0
 11
-87.7890705407
 21
17.8639085297
 31
0.0
 11
-87.7888393483
 21
20.3966398084
 31
0.0
 11
-87.7878172549
 21
22.7409614205
 31
0.0
  0
LINE
  5
3CE
100
AcDbEntity
  8
RACCORDO
100
AcDbLine
 62
253
  6
CONTINUOUS
 10
-87.7873152554
 20
23.0400346937
 11
-87.7879302909
 21
23.4287354276
  0
LINE
  5
3CF
100
AcDbEntity
  8
RACCORDO
100
AcDbLine
 62
253
  6
CONTINUOUS
 10
-87.7879302909
 20
23.4287354276
 11
-87.78800089
 21
23.4667702279
  0
SPLINE
  5
3D0
100
AcDbEntity
  8
RACCORDO
100
AcDbSpline
 62
253
  6
CONTINUOUS
 70
0
 71
3
 72
24
 73
20
 74
18
 42
0.0000001
 43
0.0000001
 44
0.0000000001
 12
-0.0024784011
 22
1.2634930213
 32
0.0
 13
-0.6264430183
 23
-1.0972646919
 33
0.0
 40
0.0
 40
0.0
 40
0.0
 40
0.0
 40
0.0591283527
 40
0.1483517932
 40
0.2358661254
 40
0.3183102196
 40
0.3967506466
 40
0.4717810236
 40
0.5427686395
 40
0.6098546624
 40
0.6708021563
 40
0.7269657662
 40
0.7813946355
 40
0.8348937684
 40
0.8852011838
 40
0.9298974848
 40
0.9662146446
 40
0.990991043
 40
1.0
 40
1.0
 40
1.0
 40
1.0
 10
-87.78800089
 20
23.4667702279
 30
0.0
 10
-87.7880497379
 20
23.4916729816
 30
0.0
 10
-87.7881857616
 20
23.5541534394
 30
0.0
 10
-87.7884682714
 20
23.6534916329
 30
0.0
 10
-87.788815122
 20
23.7626494515
 30
0.0
 10
-87.7891666882
 20
23.8672657879
 30
0.0
 10
-87.7894689897
 20
23.9666244985
 30
0.0
 10
-87.7897260703
 20
24.06115808
 30
0.0
 10
-87.7898020507
 20
24.1509106193
 30
0.0
 10
-87.7897618917
 20
24.2347295523
 30
0.0
 10
-87.7897107544
 20
24.3123129269
 30
0.0
 10
-87.7895621291
 20
24.384539476
 30
0.0
 10
-87.7893914712
 20
24.4537196088
 30
0.0
 10
-87.7892736731
 20
24.5201099564
 30
0.0
 10
-87.7888366008
 20
24.5835073768
 30
0.0
 10
-87.7892563852
 20
24.6361757851
 30
0.0
 10
-87.7875152861
 20
24.6878334124
 30
0.0
 10
-87.7908493784
 20
24.702923603
 30
0.0
 10
-87.7871665682
 20
24.7335529954
 30
0.0
 10
-87.7890477676
 20
24.7302579253
 30
0.0
 11
-87.78800089
 21
23.4667702279
 31
0.0
 11
-87.7881647863
 21
23.5414784508
 31
0.0
 11
-87.7884766469
 21
23.6542114271
 31
0.0
 11
-87.7888253806
 21
23.7647848345
 31
0.0
 11
-87.7891666965
 21
23.8689520102
 31
0.0
 11
-87.7894679043
 21
23.9680606722
 31
0.0
 11
-87.7897002895
 21
24.0628609246
 31
0.0
 11
-87.7897830648
 21
24.1525534135
 31
0.0
 11
-87.7897579872
 21
24.2373162921
 31
0.0
 11
-87.7896907506
 21
24.3143231417
 31
0.0
 11
-87.7895556747
 21
24.3852854767
 31
0.0
 11
-87.7893986173
 21
24.454055924
 31
0.0
 11
-87.7892106732
 21
24.5216515718
 31
0.0
 11
-87.788983647
 21
24.585214355
 31
0.0
 11
-87.7887984927
 21
24.6416876227
 31
0.0
 11
-87.7887074256
 21
24.6875740972
 31
0.0
 11
-87.7887545174
 21
24.7188789274
 31
0.0
 11
-87.7890477676
 21
24.7302579253
 31
0.0
  0
SPLINE
  5
3D1
100
AcDbEntity
  8
RACCORDO
100
AcDbSpline
 62
253
  6
CONTINUOUS
 70
0
 71
3
 72
38
 73
34
 74
32
 42
0.0000001
 43
0.0000001
 44
0.0000000001
 12
0.0002368972
 22
32.7510242205
 32
0.0
 13
1.4457282866
 23
32.7190992735
 33
0.0
 40
0.0
 40
0.0
 40
0.0
 40
0.0
 40
0.0831321678
 40
0.1597793889
 40
0.230532384
 40
0.2958887796
 40
0.3562950303
 40
0.4121587668
 40
0.4638412471
 40
0.5116773455
 40
0.5559735366
 40
0.5970000994
 40
0.6350126457
 40
0.6702804631
 40
0.7029790048
 40
0.7331561579
 40
0.7608470672
 40
0.7860744166
 40
0.8088574414
 40
0.8294106965
 40
0.8480582134
 40
0.8651222929
 40
0.8808114949
 40
0.8950298248
 40
0.9076347486
 40
0.9188862875
 40
0.9292334814
 40
0.9391363701
 40
0.9490916023
 40
0.9597285402
 40
0.9716285902
 40
0.985029627
 40
1.0
 40
1.0
 40
1.0
 40
1.0
 10
-83.514514757
 20
12.2408806219
 30
0.0
 10
-83.5145081925
 20
13.1484351688
 30
0.0
 10
-83.5130860571
 20
14.8927479966
 30
0.0
 10
-83.5092403553
 20
17.4094688519
 30
0.0
 10
-83.5062366354
 20
19.7321327275
 30
0.0
 10
-83.5055927508
 20
21.8774959559
 30
0.0
 10
-83.5074522502
 20
23.8603123294
 30
0.0
 10
-83.5115322465
 20
25.6938466792
 30
0.0
 10
-83.5169638202
 20
27.3901480455
 30
0.0
 10
-83.5221086511
 20
28.9601666101
 30
0.0
 10
-83.5259767203
 20
30.4138579246
 30
0.0
 10
-83.5280129377
 20
31.7603092502
 30
0.0
 10
-83.5280124342
 20
33.0081994841
 30
0.0
 10
-83.5259845583
 20
34.1651708211
 30
0.0
 10
-83.5224927518
 20
35.2365989566
 30
0.0
 10
-83.518098575
 20
36.2253057354
 30
0.0
 10
-83.5132004304
 20
37.132445867
 30
0.0
 10
-83.5082691607
 20
37.9588627449
 30
0.0
 10
-83.5030122462
 20
38.7073542023
 30
0.0
 10
-83.4971546975
 20
39.3840068565
 30
0.0
 10
-83.4906460257
 20
39.9982165518
 30
0.0
 10
-83.4837847167
 20
40.5593177413
 30
0.0
 10
-83.4768523041
 20
41.0720604022
 30
0.0
 10
-83.4703965819
 20
41.5361243183
 30
0.0
 10
-83.4645265405
 20
41.9517456938
 30
0.0
 10
-83.4591058803
 20
42.3251079527
 30
0.0
 10
-83.4543563574
 20
42.6689786411
 30
0.0
 10
-83.4503032453
 20
42.9987057085
 30
0.0
 10
-83.4470250342
 20
43.331604417
 30
0.0
 10
-83.4431694533
 20
43.6863016622
 30
0.0
 10
-83.4366813231
 20
44.0785877998
 30
0.0
 10
-83.4251743808
 20
44.5180890336
 30
0.0
 10
-83.413458372
 20
44.8276080137
 30
0.0
 10
-83.4062440081
 20
44.990880387
 30
0.0
 11
-83.514514757
 21
12.2408806219
 31
0.0
 11
-83.5126917754
 21
14.9635436522
 31
0.0
 11
-83.5092442089
 21
17.4738162814
 31
0.0
 11
-83.5065591903
 21
19.7910477822
 31
0.0
 11
-83.5060355459
 21
21.9315366113
 31
0.0
 11
-83.5079398313
 21
23.9099022755
 31
0.0
 11
-83.5119432551
 21
25.739492482
 31
0.0
 11
-83.5171202254
 21
27.4321387284
 31
0.0
 11
-83.5220682469
 21
28.9988121328
 31
0.0
 11
-83.5257833428
 21
30.4495530043
 31
0.0
 11
-83.5277110235
 21
31.7932135721
 31
0.0
 11
-83.5276352077
 21
33.0381633951
 31
0.0
 11
-83.5256344649
 21
34.1932188035
 31
0.0
 11
-83.5221829984
 21
35.2641239735
 31
0.0
 11
-83.5178138528
 21
36.2524469881
 31
0.0
 11
-83.5129654457
 21
37.1593396713
 31
0.0
 11
-83.5079570826
 21
37.9855460214
 31
0.0
 11
-83.5026277331
 21
38.7316943876
 31
0.0
 11
-83.4967463851
 21
39.4048088476
 31
0.0
 11
-83.4902894627
 21
40.0154999907
 31
0.0
 11
-83.4834758299
 21
40.5743245349
 31
0.0
 11
-83.4766000984
 21
41.0881159666
 31
0.0
 11
-83.4701341195
 21
41.5537359393
 31
0.0
 11
-83.464289179
 21
41.9665187234
 31
0.0
 11
-83.4590077555
 21
42.3349802988
 31
0.0
 11
-83.4543770577
 21
42.6738298571
 31
0.0
 11
-83.4504420532
 21
42.9981357308
 31
0.0
 11
-83.447044597
 21
43.3241620817
 31
0.0
 11
-83.4430086998
 21
43.6725093139
 31
0.0
 11
-83.4363635101
 21
44.0621914828
 31
0.0
 11
-83.4248175263
 21
44.500937269
 31
0.0
 11
-83.4062440081
 21
44.990880387
 31
0.0
  0
SPLINE
  5
3D2
100
AcDbEntity
  8
RACCORDO
100
AcDbSpline
 62
253
  6
CONTINUOUS
 70
0
 71
3
 72
14
 73
10
 74
8
 42
0.0000001
 43
0.0000001
 44
0.0000000001
 12
-0.0155114644
 22
0.0433142881
 32
0.0
 13
0.0903706006
 23
0.0714455114
 33
0.0
 40
0.0
 40
0.0
 40
0.0
 40
0.0
 40
0.1211447986
 40
0.2043260151
 40
0.3514808588
 40
0.4374053748
 40
0.5796293948
 40
0.7632507631
 40
1.0
 40
1.0
 40
1.0
 40
1.0
 10
-84.3982052584
 20
-46.0104930966
 30
0.0
 10
-84.3988316362
 20
-46.0087439963
 30
0.0
 10
-84.3942262541
 20
-45.9942455952
 30
0.0
 10
-84.3858438909
 20
-45.9864850465
 30
0.0
 10
-84.3752410579
 20
-45.9779904469
 30
0.0
 10
-84.3724135524
 20
-45.9635899613
 30
0.0
 10
-84.3695495808
 20
-45.947997818
 30
0.0
 10
-84.3577316654
 20
-45.9292821168
 30
0.0
 10
-84.3459114795
 20
-45.9181633421
 30
0.0
 10
-84.3387797559
 20
-45.9125251186
 30
0.0
 11
-84.3982052584
 21
-46.0104930966
 31
0.0
 11
-84.3932765341
 21
-45.9950625237
 31
0.0
 11
-84.387078892
 21
-45.9877539721
 31
0.0
 11
-84.3756030668
 21
-45.975276409
 31
0.0
 11
-84.3728564337
 21
-45.9657665004
 31
0.0
 11
-84.3689652705
 21
-45.9498508954
 31
0.0
 11
-84.3582772082
 21
-45.9315962685
 31
0.0
 11
-84.3387797559
 21
-45.9125251186
 31
0.0
  0
LINE
  5
3D3
100
AcDbEntity
  8
0
100
AcDbLine
 62
7
  6
CONTINUOUS
 10
-87.0004138701
 20
-28.4464151126
 11
-87.0123184106
 21
-28.2853526439
  0
LINE
  5
3D4
100
AcDbEntity
  8
0
100
AcDbLine
 62
7
  6
CONTINUOUS
 10
-87.0123184106
 20
-28.2853526439
 11
-87.0179732915
 21
-28.2076508037
  0
SPLINE
  5
3D5
100
AcDbEntity
  8
0
100
AcDbSpline
 62
7
  6
CONTINUOUS
 70
0
 71
3
 72
12
 73
8
 74
6
 42
0.0000001
 43
0.0000001
 44
0.0000000001
 12
-0.047294566
 22
0.6903654357
 32
0.0
 13
-0.0771495715
 23
0.6875005927
 33
0.0
 40
0.0
 40
0.0
 40
0.0
 40
0.0
 40
0.2803991861
 40
0.5407013995
 40
0.7644280702
 40
0.9322916336
 40
1.0
 40
1.0
 40
1.0
 40
1.0
 10
-87.0481922942
 20
-27.7794192527
 30
0.0
 10
-87.0526127468
 20
-27.7148932839
 30
0.0
 10
-87.060994563
 20
-27.5904553984
 30
0.0
 10
-87.0727923542
 20
-27.414535518
 30
0.0
 10
-87.0827966379
 20
-27.2644796707
 30
0.0
 10
-87.0911422835
 20
-27.1589136279
 30
0.0
 10
-87.0947838277
 20
-27.1046376504
 30
0.0
 10
-87.0965250515
 20
-27.0891211364
 30
0.0
 11
-87.0481922942
 21
-27.7794192527
 31
0.0
 11
-87.0612961756
 21
-27.5858315461
 31
0.0
 11
-87.0733446688
 21
-27.4061109696
 31
0.0
 11
-87.084014896
 21
-27.2516646807
 31
0.0
 11
-87.0926377339
 21
-27.1358269046
 31
0.0
 11
-87.0965250515
 21
-27.0891211364
 31
0.0
  0
SPLINE
  5
3D6
100
AcDbEntity
  8
RACCORDO
100
AcDbSpline
 62
253
  6
CONTINUOUS
 70
0
 71
3
 72
9
 73
5
 74
3
 42
0.0000001
 43
0.0000001
 44
0.0000000001
 12
0.2384948381
 22
-0.0145732414
 32
0.0
 13
0.0218669414
 23
0.2105097429
 33
0.0
 40
0.0
 40
0.0
 40
0.0
 40
0.0
 40
0.2822508967
 40
1.0
 40
1.0
 40
1.0
 40
1.0
 10
-83.4007606943
 20
-46.7778647057
 30
0.0
 10
-83.3783222336
 20
-46.7792358092
 30
0.0
 10
-83.4029127545
 20
-46.6490477007
 30
0.0
 10
-83.3881171326
 20
-46.5904225502
 30
0.0
 10
-83.3828854734
 20
-46.5400581572
 30
0.0
 11
-83.4007606943
 21
-46.7778647057
 31
0.0
 11
-83.3890659073
 21
-46.7114454922
 31
0.0
 11
-83.3828854734
 21
-46.5400581572
 31
0.0
  0
SPLINE
  5
3D7
100
AcDbEntity
  8
RACCORDO
100
AcDbSpline
 62
253
  6
CONTINUOUS
 70
0
 71
3
 72
16
 73
12
 74
10
 42
0.0000001
 43
0.0000001
 44
0.0000000001
 12
0.2316471268
 22
2.2300319071
 32
0.0
 13
-0.0714447986
 23
2.5301954678
 33
0.0
 40
0.0
 40
0.0
 40
0.0
 40
0.0
 40
0.0951230389
 40
0.2067591335
 40
0.3268828897
 40
0.4499391489
 40
0.571887786
 40
0.68964814
 40
0.8009167632
 40
0.9043229294
 40
1.0
 40
1.0
 40
1.0
 40
1.0
 10
-83.3828854734
 20
-46.5400581572
 30
0.0
 10
-83.3755404805
 20
-46.4693490199
 30
0.0
 10
-83.3826589023
 20
-46.2801548666
 30
0.0
 10
-83.3780576495
 20
-46.0111805681
 30
0.0
 10
-83.3801726919
 20
-45.7097370855
 30
0.0
 10
-83.3818694658
 20
-45.402252823
 30
0.0
 10
-83.3850968835
 20
-45.0960359847
 30
0.0
 10
-83.3891600274
 20
-44.7999710796
 30
0.0
 10
-83.3940665119
 20
-44.519516403
 30
0.0
 10
-83.3996493696
 20
-44.2577230603
 30
0.0
 10
-83.4039653963
 20
-44.0898038776
 30
0.0
 10
-83.4062439393
 20
-44.0091099808
 30
0.0
 11
-83.3828854734
 21
-46.5400581572
 31
0.0
 11
-83.3799676709
 21
-46.299300025
 31
0.0
 11
-83.3792545952
 21
-46.0167272005
 31
0.0
 11
-83.3800772479
 21
-45.7126705866
 31
0.0
 11
-83.3821372683
 21
-45.4011969086
 31
0.0
 11
-83.3853004078
 21
-45.0925362434
 31
0.0
 11
-83.389427882
 21
-44.7944893478
 31
0.0
 11
-83.3943688116
 21
-44.5128891118
 31
0.0
 11
-83.3999866361
 21
-44.2512073101
 31
0.0
 11
-83.4062439393
 21
-44.0091099808
 31
0.0
  0
SPLINE
  5
3D8
100
AcDbEntity
  8
RACCORDO
100
AcDbSpline
 62
253
  6
CONTINUOUS
 70
0
 71
3
 72
9
 73
5
 74
3
 42
0.0000001
 43
0.0000001
 44
0.0000000001
 12
0.0013047248
 22
-0.0004924162
 32
0.0
 13
0.0022413186
 23
-0.0040033822
 33
0.0
 40
0.0
 40
0.0
 40
0.0
 40
0.0
 40
0.5537591002
 40
1.0
 40
1.0
 40
1.0
 40
1.0
 10
-87.1993137022
 20
-25.4244441059
 30
0.0
 10
-87.1990728678
 20
-25.4245349992
 30
0.0
 10
-87.1985515183
 20
-25.4250231762
 30
0.0
 10
-87.1978740698
 20
-25.4260965142
 30
0.0
 10
-87.1975406805
 20
-25.4266920051
 30
0.0
 11
-87.1993137022
 21
-25.4244441059
 31
0.0
 11
-87.1984475961
 21
-25.4252551032
 31
0.0
 11
-87.1975406805
 21
-25.4266920051
 31
0.0
  0
SPLINE
  5
3D9
100
AcDbEntity
  8
RACCORDO
100
AcDbSpline
 62
253
  6
CONTINUOUS
 70
0
 71
3
 72
23
 73
19
 74
17
 42
0.0000001
 43
0.0000001
 44
0.0000000001
 12
0.6328795429
 22
-1.0973387887
 32
0.0
 13
0.0027293288
 23
1.2667602297
 33
0.0
 40
0.0
 40
0.0
 40
0.0
 40
0.0
 40
0.0118919888
 40
0.0447225302
 40
0.0920366064
 40
0.1484615494
 40
0.2095866463
 40
0.2723080285
 40
0.335551569
 40
0.3994672162
 40
0.4654493435
 40
0.5351593854
 40
0.6096057072
 40
0.6877104477
 40
0.7677096947
 40
0.850438606
 40
0.9380695399
 40
1.0
 40
1.0
 40
1.0
 40
1.0
 10
-87.7890614737
 20
-23.7485002809
 30
0.0
 10
-87.7865527415
 20
-23.7528501277
 30
0.0
 10
-87.7917066624
 20
-23.7122284568
 30
0.0
 10
-87.787149131
 20
-23.6924215734
 30
0.0
 10
-87.7894957742
 20
-23.6255765938
 30
0.0
 10
-87.7889732792
 20
-23.5592353162
 30
0.0
 10
-87.7894891312
 20
-23.4821106761
 30
0.0
 10
-87.789505675
 20
-23.4033947367
 30
0.0
 10
-87.7895971246
 20
-23.3231394608
 30
0.0
 10
-87.7897079115
 20
-23.2416059197
 30
0.0
 10
-87.789794762
 20
-23.1573147361
 30
0.0
 10
-87.7897090781
 20
-23.068584519
 30
0.0
 10
-87.789432246
 20
-22.9747336648
 30
0.0
 10
-87.7890679135
 20
-22.876539101
 30
0.0
 10
-87.7887395064
 20
-22.7748468305
 30
0.0
 10
-87.7884905329
 20
-22.6691319001
 30
0.0
 10
-87.7883003208
 20
-22.5710464809
 30
0.0
 10
-87.7881681452
 20
-22.5078936636
 30
0.0
 10
-87.7881118023
 20
-22.4817433157
 30
0.0
 11
-87.7890614737
 21
-23.7485002809
 31
0.0
 11
-87.7887726597
 21
-23.7334387163
 31
0.0
 11
-87.7887633873
 21
-23.6918501966
 31
0.0
 11
-87.7889000408
 21
-23.6319146231
 31
0.0
 11
-87.7891515152
 21
-23.5604380258
 31
0.0
 11
-87.7894009027
 21
-23.4830074058
 31
0.0
 11
-87.7895179084
 21
-23.4035543549
 31
0.0
 11
-87.7895996944
 21
-23.3234398086
 31
0.0
 11
-87.7897023704
 21
-23.2424738858
 31
0.0
 11
-87.7897660972
 21
-23.1588901813
 31
0.0
 11
-87.789682768
 21
-23.0705841067
 31
0.0
 11
-87.7894251349
 21
-22.9762786
 31
0.0
 11
-87.7890787162
 21
-22.8773389976
 31
0.0
 11
-87.7887577474
 21
-22.7759994061
 31
0.0
 11
-87.7885024628
 21
-22.6712017789
 31
0.0
 11
-87.7882759435
 21
-22.5601943703
 31
0.0
 11
-87.7881118023
 21
-22.4817433157
 31
0.0
  0
LINE
  5
3DA
100
AcDbEntity
  8
RACCORDO
100
AcDbLine
 62
253
  6
CONTINUOUS
 10
-87.7881118023
 20
-22.4817433157
 11
-87.7880228676
 21
-22.4410660163
  0
SPLINE
  5
3DB
100
AcDbEntity
  8
RACCORDO
100
AcDbSpline
 62
253
  6
CONTINUOUS
 70
0
 71
3
 72
12
 73
8
 74
6
 42
0.0000001
 43
0.0000001
 44
0.0000000001
 12
0.0015121667
 22
0.6817894378
 32
0.0
 13
-0.0015445721
 23
0.68178937
 33
0.0
 40
0.0
 40
0.0
 40
0.0
 40
0.0
 40
0.1880069095
 40
0.3880874881
 40
0.5948776651
 40
0.8009061907
 40
1.0
 40
1.0
 40
1.0
 40
1.0
 10
-87.7880228676
 20
-22.4410660163
 30
0.0
 10
-87.7879281017
 20
-22.3983389746
 30
0.0
 10
-87.7877237542
 20
-22.3101410114
 30
0.0
 10
-87.7874221316
 20
-22.174947237
 30
0.0
 10
-87.7873067872
 20
-22.0356574351
 30
0.0
 10
-87.7874814833
 20
-21.8965919578
 30
0.0
 10
-87.7877166073
 20
-21.8045226531
 30
0.0
 10
-87.7878191122
 20
-21.7592759722
 30
0.0
 11
-87.7880228676
 21
-22.4410660163
 31
0.0
 11
-87.7877318892
 21
-22.3128849053
 31
0.0
 11
-87.7874569042
 21
-22.1764720208
 31
0.0
 11
-87.7873557111
 21
-22.0354843507
 31
0.0
 11
-87.7875143606
 21
-21.8950160212
 31
0.0
 11
-87.7878191122
 21
-21.7592759722
 31
0.0
  0
SPLINE
  5
3DC
100
AcDbEntity
  8
RACCORDO
100
AcDbSpline
 62
253
  6
CONTINUOUS
 70
0
 71
3
 72
11
 73
7
 74
5
 42
0.0000001
 43
0.0000001
 44
0.0000000001
 12
-0.0126187907
 22
10.5001520666
 32
0.0
 13
-0.0005813776
 23
10.500159633
 33
0.0
 40
0.0
 40
0.0
 40
0.0
 40
0.0
 40
0.2235861657
 40
0.4648325638
 40
0.7231718581
 40
1.0
 40
1.0
 40
1.0
 40
1.0
 10
-87.7878191717
 20
-21.7592759729
 30
0.0
 10
-87.7887596341
 20
-20.9767130597
 30
0.0
 10
-87.7888398918
 20
-19.3497738352
 30
0.0
 10
-87.7889875402
 20
-16.8186340675
 30
0.0
 10
-87.7896397301
 20
-14.1011443362
 30
0.0
 10
-87.7900205308
 20
-12.2280298751
 30
0.0
 10
-87.790074178
 20
-11.2591166483
 30
0.0
 11
-87.7878191717
 21
-21.7592759729
 31
0.0
 11
-87.7888402312
 21
-19.4115857602
 31
0.0
 11
-87.7890581227
 21
-16.8784600738
 31
0.0
 11
-87.789608181
 21
-14.1658562958
 31
0.0
 11
-87.790074178
 21
-11.2591166483
 31
0.0
  0
SPLINE
  5
3DD
100
AcDbEntity
  8
RACCORDO
100
AcDbSpline
 62
253
  6
CONTINUOUS
 70
0
 71
3
 72
10
 73
6
 74
4
 42
0.0000001
 43
0.0000001
 44
0.0000000001
 12
-0.5912710832
 22
-0.0852061561
 32
0.0
 13
-0.5973316352
 23
-0.0075166798
 33
0.0
 40
0.0
 40
0.0
 40
0.0
 40
0.0
 40
0.1433057392
 40
0.4811154933
 40
1.0
 40
1.0
 40
1.0
 40
1.0
 10
-87.190614352
 20
-21.7464470326
 30
0.0
 10
-87.2188585319
 20
-21.7505172096
 30
0.0
 10
-87.3150926581
 20
-21.7497047375
 30
0.0
 10
-87.5137843722
 20
-21.7567576225
 30
0.0
 10
-87.6845074676
 20
-21.7579225026
 30
0.0
 10
-87.7878228445
 20
-21.7592225989
 30
0.0
 11
-87.190614352
 21
-21.7464470326
 31
0.0
 11
-87.276130574
 21
-21.7504063393
 31
0.0
 11
-87.4778848468
 21
-21.7547221711
 31
0.0
 11
-87.7878228445
 21
-21.7592225989
 31
0.0
  0
SPLINE
  5
3DE
100
AcDbEntity
  8
RACCORDO
100
AcDbSpline
 62
253
  6
CONTINUOUS
 70
0
 71
3
 72
10
 73
6
 74
4
 42
0.0000001
 43
0.0000001
 44
0.0000000001
 12
0.936877097
 22
0.057022344
 32
0.0
 13
0.9376898454
 23
0.0415691768
 33
0.0
 40
0.0
 40
0.0
 40
0.0
 40
0.0
 40
0.1741030895
 40
0.5323863367
 40
1.0
 40
1.0
 40
1.0
 40
1.0
 10
-84.3438479183
 20
-44.0525402481
 30
0.0
 10
-84.2894768527
 20
-44.0492309927
 30
0.0
 10
-84.123062586
 20
-44.0418656481
 30
0.0
 10
-83.8105514871
 20
-44.0270103529
 30
0.0
 10
-83.55240263
 20
-44.0155960254
 30
0.0
 10
-83.4062437687
 20
-44.0091165871
 30
0.0
 11
-84.3438479183
 21
-44.0525402481
 31
0.0
 11
-84.1806379708
 21
-44.0443555894
 31
0.0
 11
-83.8447096283
 21
-44.0287953203
 31
0.0
 11
-83.4062437687
 21
-44.0091165871
 31
0.0
  0
SPLINE
  5
3DF
100
AcDbEntity
  8
RACCORDO
100
AcDbSpline
 62
253
  6
CONTINUOUS
 70
0
 71
3
 72
10
 73
6
 74
4
 42
0.0000001
 43
0.0000001
 44
0.0000000001
 12
0.9368599297
 22
-0.057387262
 32
0.0
 13
0.9376961099
 23
-0.0415431238
 33
0.0
 40
0.0
 40
0.0
 40
0.0
 40
0.0
 40
0.1741027519
 40
0.5323862082
 40
1.0
 40
1.0
 40
1.0
 40
1.0
 10
-84.3438529697
 20
45.0343095193
 30
0.0
 10
-84.2894830058
 20
45.0309790925
 30
0.0
 10
-84.1230667732
 20
45.0236265851
 30
0.0
 10
-83.8105547888
 20
45.0087615667
 30
0.0
 10
-83.5524037735
 20
44.9973587922
 30
0.0
 10
-83.4062438957
 20
44.9908834129
 30
0.0
 11
-84.3438529697
 21
45.0343095193
 31
0.0
 11
-84.1806431871
 21
45.0261101675
 31
0.0
 11
-83.8447127529
 21
45.0105512824
 31
0.0
 11
-83.4062438957
 21
44.9908834129
 31
0.0
  0
SPLINE
  5
3E0
100
AcDbEntity
  8
RACCORDO
100
AcDbSpline
 62
253
  6
CONTINUOUS
 70
0
 71
3
 72
10
 73
6
 74
4
 42
0.0000001
 43
0.0000001
 44
0.0000000001
 12
-0.5912101868
 22
0.085864971
 32
0.0
 13
-0.5973650833
 23
0.0075654168
 33
0.0
 40
0.0
 40
0.0
 40
0.0
 40
0.0
 40
0.1432843118
 40
0.4810945652
 40
1.0
 40
1.0
 40
1.0
 40
1.0
 10
-87.1905765504
 20
22.728084132
 30
0.0
 10
-87.2188135987
 20
22.7321851664
 30
0.0
 10
-87.3150559075
 20
22.7313625071
 30
0.0
 10
-87.5137521447
 20
22.7384684812
 30
0.0
 10
-87.6844913935
 20
22.7396390729
 30
0.0
 10
-87.7878167229
 20
22.7409476515
 30
0.0
 11
-87.1905765504
 21
22.728084132
 31
0.0
 11
-87.2760835469
 21
22.7320713562
 31
0.0
 11
-87.4778489845
 21
22.7364171001
 31
0.0
 11
-87.7878167229
 21
22.7409476515
 31
0.0
  0
SPLINE
  5
3E1
100
AcDbEntity
  8
RACCORDO
100
AcDbSpline
 62
253
  6
CONTINUOUS
 70
0
 71
3
 72
30
 73
26
 74
24
 42
0.0000001
 43
0.0000001
 44
0.0000000001
 12
-1.4456118763
 22
32.7190897931
 32
0.0
 13
-0.0002368748
 23
32.7510096108
 33
0.0
 40
0.0
 40
0.0
 40
0.0
 40
0.0
 40
0.0207859834
 40
0.0393958869
 40
0.057027711
 40
0.0756739383
 40
0.0964055451
 40
0.1192046108
 40
0.1441108448
 40
0.1713842455
 40
0.2012448676
 40
0.2339555611
 40
0.2696857945
 40
0.3084152867
 40
0.3501896868
 40
0.3952819815
 40
0.4439619428
 40
0.496463657
 40
0.553062322
 40
0.6140619639
 40
0.6798696964
 40
0.750929667
 40
0.827618349
 40
0.9102959346
 40
1.0
 40
1.0
 40
1.0
 40
1.0
 10
-83.4062440034
 20
-44.0091099808
 30
0.0
 10
-83.4162601582
 20
-43.7824104955
 30
0.0
 10
-83.4315544246
 20
-43.3525695492
 30
0.0
 10
-83.4433381992
 20
-42.7300925257
 30
0.0
 10
-83.4491099783
 20
-42.1309074036
 30
0.0
 10
-83.4563977449
 20
-41.5085746594
 30
0.0
 10
-83.4666555014
 20
-40.8298661439
 30
0.0
 10
-83.4770931494
 20
-40.082813165
 30
0.0
 10
-83.487827749
 20
-39.2643406112
 30
0.0
 10
-83.4977500816
 20
-38.3687607157
 30
0.0
 10
-83.5056745938
 20
-37.3879564957
 30
0.0
 10
-83.5123218254
 20
-36.3148185881
 30
0.0
 10
-83.5186839841
 20
-35.1448559355
 30
0.0
 10
-83.524077587
 20
-33.8759386593
 30
0.0
 10
-83.5276113159
 20
-32.5048083429
 30
0.0
 10
-83.5282079624
 20
-31.0250440093
 30
0.0
 10
-83.525775825
 20
-29.4281718452
 30
0.0
 10
-83.5213072831
 20
-27.7056890922
 30
0.0
 10
-83.5161254456
 20
-25.8487138662
 30
0.0
 10
-83.5109504951
 20
-23.8464761738
 30
0.0
 10
-83.5068560626
 20
-21.6863613383
 30
0.0
 10
-83.5053778458
 20
-19.354964982
 30
0.0
 10
-83.5081890829
 20
-16.8394017962
 30
0.0
 10
-83.5128410046
 20
-14.1203043886
 30
0.0
 10
-83.5145076742
 20
-12.2384133597
 30
0.0
 10
-83.514514757
 20
-11.2591137906
 30
0.0
 11
-83.4062440034
 21
-44.0091099808
 31
0.0
 11
-83.4304077414
 21
-43.3287770226
 31
0.0
 11
-83.4425705829
 21
-42.7194052623
 31
0.0
 11
-83.449197647
 21
-42.1419832524
 31
0.0
 11
-83.456459113
 21
-41.5313436568
 31
0.0
 11
-83.4661913742
 21
-40.8524323564
 31
0.0
 11
-83.4766699381
 21
-40.1058134618
 31
0.0
 11
-83.4872246425
 21
-39.290177443
 31
0.0
 11
-83.4970108921
 21
-38.3969996436
 31
0.0
 11
-83.5051299195
 21
-37.419067826
 31
0.0
 11
-83.5119885701
 21
-36.3477815423
 31
0.0
 11
-83.5182836942
 21
-35.1775972586
 31
0.0
 11
-83.5235959327
 21
-33.9091784103
 31
0.0
 11
-83.5270411656
 21
-32.5410289713
 31
0.0
 11
-83.5277361858
 21
-31.064210958
 31
0.0
 11
-83.5255654893
 21
-29.4698945535
 31
0.0
 11
-83.5213691914
 21
-27.7504155269
 31
0.0
 11
-83.5163207415
 21
-25.8967589819
 31
0.0
 11
-83.5113069094
 21
-23.8989654139
 31
0.0
 11
-83.5074004743
 21
-21.7436992757
 31
0.0
 11
-83.5060703308
 21
-19.4164138754
 31
0.0
 11
-83.5083550398
 21
-16.9047831523
 31
0.0
 11
-83.5123525429
 21
-14.1970117023
 31
0.0
 11
-83.514514757
 21
-11.2591137906
 31
0.0
  0
SPLINE
  5
3E2
100
AcDbEntity
  8
RACCORDO
100
AcDbSpline
 62
253
  6
CONTINUOUS
 70
0
 71
3
 72
38
 73
34
 74
32
 42
0.0000001
 43
0.0000001
 44
0.0000000001
 12
0.0001829821
 22
32.7940552633
 32
0.0
 13
1.3007331686
 23
32.7682491731
 33
0.0
 40
0.0
 40
0.0
 40
0.0
 40
0.0
 40
0.0830570206
 40
0.1596099306
 40
0.2302522517
 40
0.2954896024
 40
0.355781171
 40
0.4115377954
 40
0.463138666
 40
0.5109198686
 40
0.5551836445
 40
0.5961947679
 40
0.6342042049
 40
0.669472645
 40
0.702166963
 40
0.7323350231
 40
0.7600125976
 40
0.785229513
 40
0.8080232625
 40
0.8286011152
 40
0.8472773344
 40
0.8643603417
 40
0.8800554881
 40
0.8942615657
 40
0.9068619403
 40
0.9180919402
 40
0.9283933501
 40
0.9382232189
 40
0.9481456543
 40
0.9588636993
 40
0.9709740433
 40
0.9846737701
 40
1.0
 40
1.0
 40
1.0
 40
1.0
 10
-84.4216576593
 20
12.2408834199
 30
0.0
 10
-84.4216525933
 20
13.1488089275
 30
0.0
 10
-84.4206896806
 20
14.8935611961
 30
0.0
 10
-84.4181047386
 20
17.4105281769
 30
0.0
 10
-84.4160565752
 20
19.7327026207
 30
0.0
 10
-84.4155683051
 20
21.8771196128
 30
0.0
 10
-84.4167525329
 20
23.8588155428
 30
0.0
 10
-84.4193894674
 20
25.6914447393
 30
0.0
 10
-84.4230470312
 20
27.3873165299
 30
0.0
 10
-84.4267034244
 20
28.9575555634
 30
0.0
 10
-84.4297253774
 20
30.4120355275
 30
0.0
 10
-84.4316489741
 20
31.7596987353
 30
0.0
 10
-84.4322584032
 20
33.0090321114
 30
0.0
 10
-84.4314067941
 20
34.1674514326
 30
0.0
 10
-84.4294122545
 20
35.2401522415
 30
0.0
 10
-84.4267308786
 20
36.229872774
 30
0.0
 10
-84.4236513064
 20
37.1378535507
 30
0.0
 10
-84.4205138149
 20
37.9652223725
 30
0.0
 10
-84.4173630685
 20
38.7149810405
 30
0.0
 10
-84.4136813692
 20
39.3932378631
 30
0.0
 10
-84.4092956467
 20
40.009063021
 30
0.0
 10
-84.4042919999
 20
40.5715068307
 30
0.0
 10
-84.3991021449
 20
41.0850818533
 30
0.0
 10
-84.3940265435
 20
41.5496540611
 30
0.0
 10
-84.389654085
 20
41.9654209289
 30
0.0
 10
-84.3854056259
 20
42.3385033204
 30
0.0
 10
-84.3816139012
 20
42.6813034618
 30
0.0
 10
-84.3782869646
 20
43.0098146665
 30
0.0
 10
-84.3760038323
 20
43.3428894179
 30
0.0
 10
-84.3741061649
 20
43.7008950063
 30
0.0
 10
-84.3700782454
 20
44.1001803177
 30
0.0
 10
-84.3609567253
 20
44.5497728688
 30
0.0
 10
-84.3504980992
 20
44.8669049468
 30
0.0
 10
-84.3438529873
 20
45.0343095201
 30
0.0
 11
-84.4216576593
 21
12.2408834199
 31
0.0
 11
-84.420425968
 21
14.9646596642
 31
0.0
 11
-84.4181014909
 21
17.4751389509
 31
0.0
 11
-84.4162671462
 21
19.7917864044
 31
0.0
 11
-84.4158618547
 21
21.9311836523
 31
0.0
 11
-84.4170702266
 21
23.9083883151
 31
0.0
 11
-84.4196820677
 21
25.73687227
 31
0.0
 11
-84.423187403
 21
27.429070442
 31
0.0
 11
-84.4267249377
 21
28.9960058501
 31
0.0
 11
-84.4296359157
 21
30.4475916442
 31
0.0
 11
-84.4314772052
 21
31.7925114284
 31
0.0
 11
-84.432009451
 21
33.0389948924
 31
0.0
 11
-84.4311611904
 21
34.1955897553
 31
0.0
 11
-84.4292029381
 21
35.2677672404
 31
0.0
 11
-84.4265397511
 21
36.257096684
 31
0.0
 11
-84.4234966794
 21
37.1647514928
 31
0.0
 11
-84.4203539766
 21
37.991710438
 31
0.0
 11
-84.4171007618
 21
38.739202839
 31
0.0
 11
-84.4133688437
 21
39.4140237589
 31
0.0
 11
-84.4089824224
 21
40.0264770139
 31
0.0
 11
-84.4040393816
 21
40.5866762929
 31
0.0
 11
-84.3988638314
 21
41.1013577699
 31
0.0
 11
-84.393868418
 21
41.5672058821
 31
0.0
 11
-84.3894331422
 21
41.9803994589
 31
0.0
 11
-84.385310938
 21
42.3486536241
 31
0.0
 11
-84.3816106837
 21
42.6864583642
 31
0.0
 11
-84.3784721952
 21
43.0088043481
 31
0.0
 11
-84.376144475
 21
43.3341929151
 31
0.0
 11
-84.3739235224
 21
43.6856740602
 31
0.0
 11
-84.3696201
 21
44.0827980343
 31
0.0
 11
-84.3604213175
 21
44.5319734489
 31
0.0
 11
-84.3438529873
 21
45.0343095201
 31
0.0
  0
ELLIPSE
  5
3E3
100
AcDbEntity
  8
RACCORDO
100
AcDbEllipse
 62
7
  6
CONTINUOUS
 10
89.6751478366
 20
-3.7109098137
 30
0.0
 11
0.0
 21
0.5
 31
0.0
 40
0.0524077793
 41
-1.5707963268
 42
-0.1308996939
  0
ELLIPSE
  5
3E4
100
AcDbEntity
  8
RACCORDO
100
AcDbEllipse
 62
7
  6
CONTINUOUS
 10
89.6751478366
 20
4.6926766396
 30
0.0
 11
-0.0
 21
0.5
 31
0.0
 40
0.0524077793
 41
-3.0106929597
 42
-1.5707963268
  0
ELLIPSE
  5
3E5
100
AcDbEntity
  8
RACCORDO
100
AcDbEllipse
 62
7
  6
CONTINUOUS
 10
-65.2724443841
 20
-3.7109098137
 30
0.0
 11
0.0
 21
0.5
 31
0.0
 40
0.0524077793
 41
0.1308996939
 42
1.5707963268
  0
ELLIPSE
  5
3E6
100
AcDbEntity
  8
RACCORDO
100
AcDbEllipse
 62
7
  6
CONTINUOUS
 10
-65.2724443841
 20
4.6926766396
 30
0.0
 11
-0.0
 21
0.5
 31
0.0
 40
0.0524077793
 41
-4.7123889804
 42
-3.2724923475
  0
ELLIPSE
  5
3E7
100
AcDbEntity
  8
RACCORDO
100
AcDbEllipse
 62
7
  6
CONTINUOUS
 10
-65.2200366048
 20
3.5523951814
 30
0.0
 11
-0.0
 21
0.5
 31
0.0
 40
0.0524077793
 41
-1.5707963268
 42
-0.1308996939
  0
ELLIPSE
  5
3E8
100
AcDbEntity
  8
RACCORDO
100
AcDbEllipse
 62
7
  6
CONTINUOUS
 10
-65.2200366048
 20
-2.5706283556
 30
0.0
 11
0.0
 21
0.5
 31
0.0
 40
0.0524077793
 41
-3.0106929597
 42
-1.5707963268
  0
ELLIPSE
  5
3E9
100
AcDbEntity
  8
RACCORDO
100
AcDbEllipse
 62
7
  6
CONTINUOUS
 10
89.6227400573
 20
3.5523951814
 30
0.0
 11
-0.0
 21
0.5
 31
0.0
 40
0.0524077793
 41
0.1308996939
 42
1.5707963268
  0
ELLIPSE
  5
3EA
100
AcDbEntity
  8
RACCORDO
100
AcDbEllipse
 62
7
  6
CONTINUOUS
 10
89.6227400573
 20
-2.5706283556
 30
0.0
 11
0.0
 21
0.5
 31
0.0
 40
0.0524077793
 41
1.5707963268
 42
3.0106929597
  0
ENDSEC
  0
SECTION
  2
OBJECTS
  0
DICTIONARY
  5
C
100
AcDbDictionary
280
0
281
1
  3
ACAD_GROUP
350
D
  3
ACAD_MLINESTYLE
350
17
  3
ACAD_LAYOUT
350
1A
  3
ACAD_PLOTSETTINGS
350
19
  3
ACAD_PLOTSTYLENAME
350
E
  0
DICTIONARY
  5
D
102
{ACAD_REACTORS
330
C
102
}
100
AcDbDictionary
280
0
281
1
  0
ACDBDICTIONARYWDFLT
  5
E
102
{ACAD_REACTORS
330
C
102
}
100
AcDbDictionary
281
1
  3
Normal
350
F
100
AcDbDictionaryWithDefault
340
F
  0
DICTIONARY
  5
17
102
{ACAD_REACTORS
330
C
102
}
100
AcDbDictionary
280
0
281
1
  3
Standard
350
18
  0
DICTIONARY
  5
19
102
{ACAD_REACTORS
330
C
102
}
100
AcDbDictionary
281
1
  0
DICTIONARY
  5
1A
102
{ACAD_REACTORS
330
C
102
}
100
AcDbDictionary
281
1
  3
Model
350
3EB
  3
Layout1
350
3EC
  0
ACDBPLACEHOLDER
  5
F
102
{ACAD_REACTORS
330
E
102
}
  0
MLINESTYLE
  5
18
102
{ACAD_REACTORS
330
17
102
}
100
AcDbMlineStyle
  2
STANDARD
 70
0
  3

 62
256
 51
90.0
 52
90.0
 71
2
 49
0.5
 62
256
  6
BYLAYER
 49
-0.5
 62
256
  6
BYLAYER
  0
LAYOUT
  5
3EB
102
{ACAD_REACTORS
330
1A
102
}
100
AcDbPlotSettings
  1

  2
none_device
  4
ISO_A4_(297.00_x_210.00_MM)
  6

 40
0.0
 41
0.0
 42
0.0
 43
0.0
 44
297.0
 45
210.0
 46
0.0
 47
0.0
 48
0.0
 49
0.0
140
0.0
141
0.0
142
1.0
143
1.0
 70
1024
 72
1
 73
0
 74
0
  7

 75
0
147
1.0
148
0.0
149
0.0
100
AcDbLayout
  1
Model
 70
0
 71
0
 10
0.0
 20
0.0
 11
297.0
 21
210.0
 12
0.0
 22
0.0
 32
0.0
 14
0.0
 24
0.0
 34
0.0
 15
0.0
 25
0.0
 35
0.0
146
0.0
 13
0.0
 23
0.0
 33
0.0
 16
1.0
 26
0.0
 36
0.0
 17
0.0
 27
1.0
 37
0.0
 76
0
330
20D
345
0
346
0
  0
LAYOUT
  5
3EC
102
{ACAD_REACTORS
330
1A
102
}
100
AcDbPlotSettings
  1

  2
none_device
  4
ISO_A4_(297.00_x_210.00_MM)
  6

 40
0.0
 41
0.0
 42
0.0
 43
0.0
 44
297.0
 45
210.0
 46
0.0
 47
0.0
 48
0.0
 49
0.0
140
0.0
141
0.0
142
1.0
143
1.0
 70
0
 72
1
 73
0
 74
0
  7

 75
0
147
1.0
148
0.0
149
0.0
100
AcDbLayout
  1
Layout1
 70
0
 71
1
 10
0.0
 20
0.0
 11
297.0
 21
210.0
 12
0.0
 22
0.0
 32
0.0
 14
0.0
 24
0.0
 34
0.0
 15
0.0
 25
0.0
 35
0.0
146
0.0
 13
0.0
 23
0.0
 33
0.0
 16
1.0
 26
0.0
 36
0.0
 17
0.0
 27
1.0
 37
0.0
 76
0
330
20E
345
0
346
0
  0
ENDSEC
  0
EOF
