  0
SECTION
  2
HEADER
  9
$ACADVER
  1
AC1015
  9
$DWGCODEPAGE
  3
ANSI_1252
  9
$EXTMAX
 10
297.0
 20
210.0
 30
0.0
  9
$EXTMIN
 10
0.0
 20
0.0
 30
0.0
  9
$LIMMIN
 10
0.0
 20
0.0
  9
$LIMMAX
 10
297.0
 20
210.0
  9
$VIEWCTR
 10
148.5
 20
105.0
  9
$VIEWSIZE
 40
210.0
  9
$CLAYER
  8
0
  9
$LTSCALE
 40
16.335
  9
$CELTYPE
  6
BYLAYER
  9
$DIMSCALE
 40
1.0
  9
$DIMASZ
 40
3.0
  9
$DIMEXO
 40
1.85625
  9
$DIMDLI
 40
11.286
  9
$DIMEXE
 40
5.346
  9
$DIMCEN
 40
2.673
  9
$DIMLFAC
 40
1.0
  9
$DIMBLK
  1
_FILLED
  9
$DIMTXT
 40
3.0
  9
$DIMTOL
 70
1
  9
$DIMLIM
 70
0
  9
$DIMTFAC
 40
1.0
  9
$DIMTP
 40
0.01
  9
$DIMTM
 40
0.01
  9
$PDMODE
 70
3
  9
$PDSIZE
 40
3.0
  9
$HANDSEED
  5
6FB
  9
$TILEMODE
 70
1
  9
$MEASUREMENT
 70
1
  9
$INSUNITS
 70
4
  0
ENDSEC
  0
SECTION
  2
CLASSES
  0
CLASS
  1
ACDBDICTIONARYWDFLT
  2
AcDbDictionaryWithDefault
  3
AutoCAD 2000
 90
0
280
0
281
0
  0
CLASS
  1
ACDBPLACEHOLDER
  2
AcDbPlaceHolder
  3
AutoCAD 2000
 90
0
280
0
281
0
  0
CLASS
  1
LAYOUT
  2
AcDbLayout
  3
AutoCAD 2000
 90
0
280
0
281
0
  0
ENDSEC
  0
SECTION
  2
TABLES
  0
TABLE
  2
VPORT
  5
8
100
AcDbSymbolTable
 70
2
  0
VPORT
  5
1F4
100
AcDbSymbolTableRecord
100
AcDbViewportTableRecord
  2
*ACTIVE
 70
0
 10
0.0
 20
0.0
 11
1.0
 21
1.0
 12
148.5
 22
105.0
 13
0.0
 23
0.0
 14
1.0
 24
1.0
 15
0.0
 25
0.0
 16
0.0
 26
0.0
 36
1.0
 17
0.0
 27
0.0
 37
0.0
 40
210.0
 41
1.4142857143
 42
50.0
 43
0.0
 44
0.0
 50
0.0
 51
0.0
 71
0
 72
100
 73
1
 74
1
 75
0
 76
0
 77
0
 78
0
  0
ENDTAB
  0
TABLE
  2
LTYPE
  5
5
100
AcDbSymbolTable
 70
6
  0
LTYPE
  5
14
100
AcDbSymbolTableRecord
100
AcDbLinetypeTableRecord
  2
BYBLOCK
 70
0
  3

 72
65
 73
0
 40
0.0
  0
LTYPE
  5
15
100
AcDbSymbolTableRecord
100
AcDbLinetypeTableRecord
  2
BYLAYER
 70
0
  3

 72
65
 73
0
 40
0.0
  0
LTYPE
  5
16
100
AcDbSymbolTableRecord
100
AcDbLinetypeTableRecord
  2
CONTINUOUS
 70
64
  3
Solid line
 72
65
 73
0
 40
0.0
  0
LTYPE
  5
1F5
100
AcDbSymbolTableRecord
100
AcDbLinetypeTableRecord
  2
CENTER
 70
64
  3
____ _ ____ _ ____ _ ____ _ ____ _ ____ _ ____
 72
65
 73
4
 40
0.6
 49
0.375
 74
0
 49
-0.075
 74
0
 49
0.075
 74
0
 49
-0.075
 74
0
  0
LTYPE
  5
1F6
100
AcDbSymbolTableRecord
100
AcDbLinetypeTableRecord
  2
HIDDEN
 70
64
  3
- - - - - - - - - - - - - - - - - - - -
 72
65
 73
2
 40
0.2
 49
0.1
 74
0
 49
-0.1
 74
0
  0
LTYPE
  5
1F7
100
AcDbSymbolTableRecord
100
AcDbLinetypeTableRecord
  2
PHANTOM
 70
64
  3
_____ _ _ _____ _ _ _____ _ _ _____
 72
65
 73
6
 40
0.8
 49
0.45
 74
0
 49
-0.05
 74
0
 49
0.1
 74
0
 49
-0.05
 74
0
 49
0.1
 74
0
 49
-0.05
 74
0
  0
LTYPE
  5
1F8
100
AcDbSymbolTableRecord
100
AcDbLinetypeTableRecord
  2
DOT
 70
64
  3
. . . . . . . . . . . . . . . . . . . .
 72
65
 73
2
 40
0.2
 49
0.1
 74
0
 49
-0.1
 74
0
  0
LTYPE
  5
1F9
100
AcDbSymbolTableRecord
100
AcDbLinetypeTableRecord
  2
DASHED
 70
64
  3
- - - - - - - - - - - - - - - - - - - -
 72
65
 73
2
 40
0.2
 49
0.1
 74
0
 49
-0.1
 74
0
  0
ENDTAB
  0
TABLE
  2
LAYER
  5
2
100
AcDbSymbolTable
 70
36
  0
LAYER
  5
10
100
AcDbSymbolTableRecord
100
AcDbLayerTableRecord
  2
0
 70
0
 62
7
  6
CONTINUOUS
370
-3
390
F
  0
LAYER
  5
1FA
100
AcDbSymbolTableRecord
100
AcDbLayerTableRecord
  2
DEFAULT_1
 70
0
 62
7
  6
CENTER
370
-3
390
F
  0
LAYER
  5
1FB
100
AcDbSymbolTableRecord
100
AcDbLayerTableRecord
  2
DEFAULT_2
 70
0
 62
7
  6
HIDDEN
370
-3
390
F
  0
LAYER
  5
1FC
100
AcDbSymbolTableRecord
100
AcDbLayerTableRecord
  2
DEFAULT_3
 70
0
 62
7
  6
PHANTOM
370
-3
390
F
  0
LAYER
  5
1FD
100
AcDbSymbolTableRecord
100
AcDbLayerTableRecord
  2
2125-CC-RF-VIMAR_65000
 70
0
 62
7
  6
CONTINUOUS
370
-3
390
F
  0
LAYER
  5
1FE
100
AcDbSymbolTableRecord
100
AcDbLayerTableRecord
  2
2125-CC-RF-VIMAR_65000_1
 70
0
 62
7
  6
CONTINUOUS
370
-3
390
F
  0
LAYER
  5
1FF
100
AcDbSymbolTableRecord
100
AcDbLayerTableRecord
  2
2125-CC-RF-VIMAR_65000_10
 70
0
 62
7
  6
CONTINUOUS
370
-3
390
F
  0
LAYER
  5
200
100
AcDbSymbolTableRecord
100
AcDbLayerTableRecord
  2
2125-CC-RF-VIMAR_65000_11
 70
0
 62
7
  6
CONTINUOUS
370
-3
390
F
  0
LAYER
  5
201
100
AcDbSymbolTableRecord
100
AcDbLayerTableRecord
  2
2125-CC-RF-VIMAR_65000_2
 70
0
 62
7
  6
CONTINUOUS
370
-3
390
F
  0
LAYER
  5
202
100
AcDbSymbolTableRecord
100
AcDbLayerTableRecord
  2
2125-CC-RF-VIMAR_65000_3
 70
0
 62
7
  6
CONTINUOUS
370
-3
390
F
  0
LAYER
  5
203
100
AcDbSymbolTableRecord
100
AcDbLayerTableRecord
  2
2125-CC-RF-VIMAR_65000_4
 70
0
 62
7
  6
CONTINUOUS
370
-3
390
F
  0
LAYER
  5
204
100
AcDbSymbolTableRecord
100
AcDbLayerTableRecord
  2
2125-CC-RF-VIMAR_65000_5
 70
0
 62
7
  6
CONTINUOUS
370
-3
390
F
  0
LAYER
  5
205
100
AcDbSymbolTableRecord
100
AcDbLayerTableRecord
  2
2125-CC-RF-VIMAR_65000_6
 70
0
 62
7
  6
CONTINUOUS
370
-3
390
F
  0
LAYER
  5
206
100
AcDbSymbolTableRecord
100
AcDbLayerTableRecord
  2
2125-CC-RF-VIMAR_65000_7
 70
0
 62
7
  6
CONTINUOUS
370
-3
390
F
  0
LAYER
  5
207
100
AcDbSymbolTableRecord
100
AcDbLayerTableRecord
  2
2125-CC-RF-VIMAR_65000_8
 70
0
 62
7
  6
CONTINUOUS
370
-3
390
F
  0
LAYER
  5
208
100
AcDbSymbolTableRecord
100
AcDbLayerTableRecord
  2
2125-CC-RF-VIMAR_65000_9
 70
0
 62
7
  6
CONTINUOUS
370
-3
390
F
  0
LAYER
  5
209
100
AcDbSymbolTableRecord
100
AcDbLayerTableRecord
  2
2125-DL-RF-FINE_VIMAR_110000
 70
0
 62
7
  6
CONTINUOUS
370
-3
390
F
  0
LAYER
  5
20A
100
AcDbSymbolTableRecord
100
AcDbLayerTableRecord
  2
2125-R1-RF-VIMAR_60000
 70
0
 62
7
  6
CONTINUOUS
370
-3
390
F
  0
LAYER
  5
20B
100
AcDbSymbolTableRecord
100
AcDbLayerTableRecord
  2
2125-R1-RF-VIMAR_60000_1
 70
0
 62
7
  6
CONTINUOUS
370
-3
390
F
  0
LAYER
  5
20C
100
AcDbSymbolTableRecord
100
AcDbLayerTableRecord
  2
2125-R1-RF-VIMAR_60000_2
 70
0
 62
7
  6
CONTINUOUS
370
-3
390
F
  0
LAYER
  5
20D
100
AcDbSymbolTableRecord
100
AcDbLayerTableRecord
  2
2125-R1-RF-VIMAR_60000_3
 70
0
 62
7
  6
CONTINUOUS
370
-3
390
F
  0
LAYER
  5
20E
100
AcDbSymbolTableRecord
100
AcDbLayerTableRecord
  2
2125-R1-RF-VIMAR_60000_4
 70
0
 62
7
  6
CONTINUOUS
370
-3
390
F
  0
LAYER
  5
20F
100
AcDbSymbolTableRecord
100
AcDbLayerTableRecord
  2
3216-CF-RF-VIMAR_100000
 70
0
 62
7
  6
CONTINUOUS
370
-3
390
F
  0
LAYER
  5
210
100
AcDbSymbolTableRecord
100
AcDbLayerTableRecord
  2
3216-CF-RF-VIMAR_100000_1
 70
0
 62
7
  6
CONTINUOUS
370
-3
390
F
  0
LAYER
  5
211
100
AcDbSymbolTableRecord
100
AcDbLayerTableRecord
  2
3216-CF-RF-VIMAR_100000_2
 70
0
 62
7
  6
CONTINUOUS
370
-3
390
F
  0
LAYER
  5
212
100
AcDbSymbolTableRecord
100
AcDbLayerTableRecord
  2
3216-CS2-RF_1_180000
 70
0
 62
7
  6
CONTINUOUS
370
-3
390
F
  0
LAYER
  5
213
100
AcDbSymbolTableRecord
100
AcDbLayerTableRecord
  2
3216-R1-RF-VIMAR_60000
 70
0
 62
7
  6
CONTINUOUS
370
-3
390
F
  0
LAYER
  5
214
100
AcDbSymbolTableRecord
100
AcDbLayerTableRecord
  2
3216-R1-RF-VIMAR_60000_1
 70
0
 62
7
  6
CONTINUOUS
370
-3
390
F
  0
LAYER
  5
215
100
AcDbSymbolTableRecord
100
AcDbLayerTableRecord
  2
3225-LED-1-1-VIMAR_110000
 70
0
 62
7
  6
CONTINUOUS
370
-3
390
F
  0
LAYER
  5
216
100
AcDbSymbolTableRecord
100
AcDbLayerTableRecord
  2
43000467A0
 70
0
 62
7
  6
CONTINUOUS
370
-3
390
F
  0
LAYER
  5
217
100
AcDbSymbolTableRecord
100
AcDbLayerTableRecord
  2
43000469B0
 70
0
 62
7
  6
CONTINUOUS
370
-3
390
F
  0
LAYER
  5
218
100
AcDbSymbolTableRecord
100
AcDbLayerTableRecord
  2
ASM0001
 70
0
 62
7
  6
CONTINUOUS
370
-3
390
F
  0
LAYER
  5
219
100
AcDbSymbolTableRecord
100
AcDbLayerTableRecord
  2
ASSI
 70
0
 62
7
  6
CONTINUOUS
370
-3
390
F
  0
LAYER
  5
21A
100
AcDbSymbolTableRecord
100
AcDbLayerTableRecord
  2
BGA132C50P14X14_800X800X110_110
 70
0
 62
7
  6
CONTINUOUS
370
-3
390
F
  0
LAYER
  5
21B
100
AcDbSymbolTableRecord
100
AcDbLayerTableRecord
  2
BIDONE
 70
0
 62
7
  6
CONTINUOUS
370
-3
390
F
  0
LAYER
  5
21C
100
AcDbSymbolTableRecord
100
AcDbLayerTableRecord
  2
CAPC1005X60N_60000
 70
0
 62
7
  6
CONTINUOUS
370
-3
390
F
  0
LAYER
  5
21D
100
AcDbSymbolTableRecord
100
AcDbLayerTableRecord
  2
CAPC1005X60N_60000_1
 70
0
 62
7
  6
CONTINUOUS
370
-3
390
F
  0
LAYER
  5
21E
100
AcDbSymbolTableRecord
100
AcDbLayerTableRecord
  2
CAPC1005X60N_60000_10
 70
0
 62
7
  6
CONTINUOUS
370
-3
390
F
  0
LAYER
  5
21F
100
AcDbSymbolTableRecord
100
AcDbLayerTableRecord
  2
CAPC1005X60N_60000_11
 70
0
 62
7
  6
CONTINUOUS
370
-3
390
F
  0
LAYER
  5
220
100
AcDbSymbolTableRecord
100
AcDbLayerTableRecord
  2
CAPC1005X60N_60000_12
 70
0
 62
7
  6
CONTINUOUS
370
-3
390
F
  0
LAYER
  5
221
100
AcDbSymbolTableRecord
100
AcDbLayerTableRecord
  2
CAPC1005X60N_60000_13
 70
0
 62
7
  6
CONTINUOUS
370
-3
390
F
  0
LAYER
  5
222
100
AcDbSymbolTableRecord
100
AcDbLayerTableRecord
  2
CAPC1005X60N_60000_14
 70
0
 62
7
  6
CONTINUOUS
370
-3
390
F
  0
LAYER
  5
223
100
AcDbSymbolTableRecord
100
AcDbLayerTableRecord
  2
CAPC1005X60N_60000_15
 70
0
 62
7
  6
CONTINUOUS
370
-3
390
F
  0
LAYER
  5
224
100
AcDbSymbolTableRecord
100
AcDbLayerTableRecord
  2
CAPC1005X60N_60000_16
 70
0
 62
7
  6
CONTINUOUS
370
-3
390
F
  0
LAYER
  5
225
100
AcDbSymbolTableRecord
100
AcDbLayerTableRecord
  2
CAPC1005X60N_60000_17
 70
0
 62
7
  6
CONTINUOUS
370
-3
390
F
  0
LAYER
  5
226
100
AcDbSymbolTableRecord
100
AcDbLayerTableRecord
  2
CAPC1005X60N_60000_18
 70
0
 62
7
  6
CONTINUOUS
370
-3
390
F
  0
LAYER
  5
227
100
AcDbSymbolTableRecord
100
AcDbLayerTableRecord
  2
CAPC1005X60N_60000_19
 70
0
 62
7
  6
CONTINUOUS
370
-3
390
F
  0
LAYER
  5
228
100
AcDbSymbolTableRecord
100
AcDbLayerTableRecord
  2
CAPC1005X60N_60000_2
 70
0
 62
7
  6
CONTINUOUS
370
-3
390
F
  0
LAYER
  5
229
100
AcDbSymbolTableRecord
100
AcDbLayerTableRecord
  2
CAPC1005X60N_60000_20
 70
0
 62
7
  6
CONTINUOUS
370
-3
390
F
  0
LAYER
  5
22A
100
AcDbSymbolTableRecord
100
AcDbLayerTableRecord
  2
CAPC1005X60N_60000_21
 70
0
 62
7
  6
CONTINUOUS
370
-3
390
F
  0
LAYER
  5
22B
100
AcDbSymbolTableRecord
100
AcDbLayerTableRecord
  2
CAPC1005X60N_60000_22
 70
0
 62
7
  6
CONTINUOUS
370
-3
390
F
  0
LAYER
  5
22C
100
AcDbSymbolTableRecord
100
AcDbLayerTableRecord
  2
CAPC1005X60N_60000_23
 70
0
 62
7
  6
CONTINUOUS
370
-3
390
F
  0
LAYER
  5
22D
100
AcDbSymbolTableRecord
100
AcDbLayerTableRecord
  2
CAPC1005X60N_60000_24
 70
0
 62
7
  6
CONTINUOUS
370
-3
390
F
  0
LAYER
  5
22E
100
AcDbSymbolTableRecord
100
AcDbLayerTableRecord
  2
CAPC1005X60N_60000_25
 70
0
 62
7
  6
CONTINUOUS
370
-3
390
F
  0
LAYER
  5
22F
100
AcDbSymbolTableRecord
100
AcDbLayerTableRecord
  2
CAPC1005X60N_60000_26
 70
0
 62
7
  6
CONTINUOUS
370
-3
390
F
  0
LAYER
  5
230
100
AcDbSymbolTableRecord
100
AcDbLayerTableRecord
  2
CAPC1005X60N_60000_27
 70
0
 62
7
  6
CONTINUOUS
370
-3
390
F
  0
LAYER
  5
231
100
AcDbSymbolTableRecord
100
AcDbLayerTableRecord
  2
CAPC1005X60N_60000_28
 70
0
 62
7
  6
CONTINUOUS
370
-3
390
F
  0
LAYER
  5
232
100
AcDbSymbolTableRecord
100
AcDbLayerTableRecord
  2
CAPC1005X60N_60000_29
 70
0
 62
7
  6
CONTINUOUS
370
-3
390
F
  0
LAYER
  5
233
100
AcDbSymbolTableRecord
100
AcDbLayerTableRecord
  2
CAPC1005X60N_60000_3
 70
0
 62
7
  6
CONTINUOUS
370
-3
390
F
  0
LAYER
  5
234
100
AcDbSymbolTableRecord
100
AcDbLayerTableRecord
  2
CAPC1005X60N_60000_30
 70
0
 62
7
  6
CONTINUOUS
370
-3
390
F
  0
LAYER
  5
235
100
AcDbSymbolTableRecord
100
AcDbLayerTableRecord
  2
CAPC1005X60N_60000_4
 70
0
 62
7
  6
CONTINUOUS
370
-3
390
F
  0
LAYER
  5
236
100
AcDbSymbolTableRecord
100
AcDbLayerTableRecord
  2
CAPC1005X60N_60000_5
 70
0
 62
7
  6
CONTINUOUS
370
-3
390
F
  0
LAYER
  5
237
100
AcDbSymbolTableRecord
100
AcDbLayerTableRecord
  2
CAPC1005X60N_60000_6
 70
0
 62
7
  6
CONTINUOUS
370
-3
390
F
  0
LAYER
  5
238
100
AcDbSymbolTableRecord
100
AcDbLayerTableRecord
  2
CAPC1005X60N_60000_7
 70
0
 62
7
  6
CONTINUOUS
370
-3
390
F
  0
LAYER
  5
239
100
AcDbSymbolTableRecord
100
AcDbLayerTableRecord
  2
CAPC1005X60N_60000_8
 70
0
 62
7
  6
CONTINUOUS
370
-3
390
F
  0
LAYER
  5
23A
100
AcDbSymbolTableRecord
100
AcDbLayerTableRecord
  2
CAPC1005X60N_60000_9
 70
0
 62
7
  6
CONTINUOUS
370
-3
390
F
  0
LAYER
  5
23B
100
AcDbSymbolTableRecord
100
AcDbLayerTableRecord
  2
CAPC1608N_80000
 70
0
 62
7
  6
CONTINUOUS
370
-3
390
F
  0
LAYER
  5
23C
100
AcDbSymbolTableRecord
100
AcDbLayerTableRecord
  2
CAPC1608N_80000_1
 70
0
 62
7
  6
CONTINUOUS
370
-3
390
F
  0
LAYER
  5
23D
100
AcDbSymbolTableRecord
100
AcDbLayerTableRecord
  2
CAPC1608N_80000_10
 70
0
 62
7
  6
CONTINUOUS
370
-3
390
F
  0
LAYER
  5
23E
100
AcDbSymbolTableRecord
100
AcDbLayerTableRecord
  2
CAPC1608N_80000_11
 70
0
 62
7
  6
CONTINUOUS
370
-3
390
F
  0
LAYER
  5
23F
100
AcDbSymbolTableRecord
100
AcDbLayerTableRecord
  2
CAPC1608N_80000_12
 70
0
 62
7
  6
CONTINUOUS
370
-3
390
F
  0
LAYER
  5
240
100
AcDbSymbolTableRecord
100
AcDbLayerTableRecord
  2
CAPC1608N_80000_13
 70
0
 62
7
  6
CONTINUOUS
370
-3
390
F
  0
LAYER
  5
241
100
AcDbSymbolTableRecord
100
AcDbLayerTableRecord
  2
CAPC1608N_80000_14
 70
0
 62
7
  6
CONTINUOUS
370
-3
390
F
  0
LAYER
  5
242
100
AcDbSymbolTableRecord
100
AcDbLayerTableRecord
  2
CAPC1608N_80000_15
 70
0
 62
7
  6
CONTINUOUS
370
-3
390
F
  0
LAYER
  5
243
100
AcDbSymbolTableRecord
100
AcDbLayerTableRecord
  2
CAPC1608N_80000_2
 70
0
 62
7
  6
CONTINUOUS
370
-3
390
F
  0
LAYER
  5
244
100
AcDbSymbolTableRecord
100
AcDbLayerTableRecord
  2
CAPC1608N_80000_3
 70
0
 62
7
  6
CONTINUOUS
370
-3
390
F
  0
LAYER
  5
245
100
AcDbSymbolTableRecord
100
AcDbLayerTableRecord
  2
CAPC1608N_80000_4
 70
0
 62
7
  6
CONTINUOUS
370
-3
390
F
  0
LAYER
  5
246
100
AcDbSymbolTableRecord
100
AcDbLayerTableRecord
  2
CAPC1608N_80000_5
 70
0
 62
7
  6
CONTINUOUS
370
-3
390
F
  0
LAYER
  5
247
100
AcDbSymbolTableRecord
100
AcDbLayerTableRecord
  2
CAPC1608N_80000_6
 70
0
 62
7
  6
CONTINUOUS
370
-3
390
F
  0
LAYER
  5
248
100
AcDbSymbolTableRecord
100
AcDbLayerTableRecord
  2
CAPC1608N_80000_7
 70
0
 62
7
  6
CONTINUOUS
370
-3
390
F
  0
LAYER
  5
249
100
AcDbSymbolTableRecord
100
AcDbLayerTableRecord
  2
CAPC1608N_80000_8
 70
0
 62
7
  6
CONTINUOUS
370
-3
390
F
  0
LAYER
  5
24A
100
AcDbSymbolTableRecord
100
AcDbLayerTableRecord
  2
CAPC1608N_80000_9
 70
0
 62
7
  6
CONTINUOUS
370
-3
390
F
  0
LAYER
  5
24B
100
AcDbSymbolTableRecord
100
AcDbLayerTableRecord
  2
CN-CSF_CSM_2-VIMAR_1150000
 70
0
 62
7
  6
CONTINUOUS
370
-3
390
F
  0
LAYER
  5
24C
100
AcDbSymbolTableRecord
100
AcDbLayerTableRecord
  2
CN-CSF_CSM_2-VIMAR_1150000_1
 70
0
 62
7
  6
CONTINUOUS
370
-3
390
F
  0
LAYER
  5
24D
100
AcDbSymbolTableRecord
100
AcDbLayerTableRecord
  2
CN-JACK-RCA-VIMAR_1580000
 70
0
 62
7
  6
CONTINUOUS
370
-3
390
F
  0
LAYER
  5
24E
100
AcDbSymbolTableRecord
100
AcDbLayerTableRecord
  2
CN-JACK-RCA-VIMAR_1580000_1
 70
0
 62
7
  6
CONTINUOUS
370
-3
390
F
  0
LAYER
  5
24F
100
AcDbSymbolTableRecord
100
AcDbLayerTableRecord
  2
CN1-REF_SQUAREHOLE14_SPEA-VIMAR
 70
0
 62
7
  6
CONTINUOUS
370
-3
390
F
  0
LAYER
  5
250
100
AcDbSymbolTableRecord
100
AcDbLayerTableRecord
  2
CN1-REF_SQUAREHOLE14_SPEA-VIM_1
 70
0
 62
7
  6
CONTINUOUS
370
-3
390
F
  0
LAYER
  5
251
100
AcDbSymbolTableRecord
100
AcDbLayerTableRecord
  2
CN1-REF_SQUAREHOLE14_SPEA-VIM_2
 70
0
 62
7
  6
CONTINUOUS
370
-3
390
F
  0
LAYER
  5
252
100
AcDbSymbolTableRecord
100
AcDbLayerTableRecord
  2
CN1-REF_SQUAREHOLE14_SPEA-VIM_3
 70
0
 62
7
  6
CONTINUOUS
370
-3
390
F
  0
LAYER
  5
253
100
AcDbSymbolTableRecord
100
AcDbLayerTableRecord
  2
CN10-ZIF_P0_5-VIMAR_200000
 70
0
 62
7
  6
CONTINUOUS
370
-3
390
F
  0
LAYER
  5
254
100
AcDbSymbolTableRecord
100
AcDbLayerTableRecord
  2
CN2-HEADER-PIH-P2_54-1_254000
 70
0
 62
7
  6
CONTINUOUS
370
-3
390
F
  0
LAYER
  5
255
100
AcDbSymbolTableRecord
100
AcDbLayerTableRecord
  2
CN30-ZIF_P0_5-VIMAR_200000
 70
0
 62
7
  6
CONTINUOUS
370
-3
390
F
  0
LAYER
  5
256
100
AcDbSymbolTableRecord
100
AcDbLayerTableRecord
  2
COLOR5
 70
0
 62
7
  6
CONTINUOUS
370
-3
390
F
  0
LAYER
  5
257
100
AcDbSymbolTableRecord
100
AcDbLayerTableRecord
  2
COLORE_MATERIALE
 70
0
 62
7
  6
CONTINUOUS
370
-3
390
F
  0
LAYER
  5
258
100
AcDbSymbolTableRecord
100
AcDbLayerTableRecord
  2
COORDINATE
 70
0
 62
7
  6
CONTINUOUS
370
-3
390
F
  0
LAYER
  5
259
100
AcDbSymbolTableRecord
100
AcDbLayerTableRecord
  2
COORD_ORIGINE
 70
0
 62
7
  6
CONTINUOUS
370
-3
390
F
  0
LAYER
  5
25A
100
AcDbSymbolTableRecord
100
AcDbLayerTableRecord
  2
COPY_PUBLISH
 70
0
 62
7
  6
CONTINUOUS
370
-3
390
F
  0
LAYER
  5
25B
100
AcDbSymbolTableRecord
100
AcDbLayerTableRecord
  2
COSMETIC
 70
0
 62
7
  6
CONTINUOUS
370
-3
390
F
  0
LAYER
  5
25C
100
AcDbSymbolTableRecord
100
AcDbLayerTableRecord
  2
CP-CE2-RF_570000
 70
0
 62
7
  6
CONTINUOUS
370
-3
390
F
  0
LAYER
  5
25D
100
AcDbSymbolTableRecord
100
AcDbLayerTableRecord
  2
CP-CE2-RF_570000_1
 70
0
 62
7
  6
CONTINUOUS
370
-3
390
F
  0
LAYER
  5
25E
100
AcDbSymbolTableRecord
100
AcDbLayerTableRecord
  2
CP-CE5-RF_650000
 70
0
 62
7
  6
CONTINUOUS
370
-3
390
F
  0
LAYER
  5
25F
100
AcDbSymbolTableRecord
100
AcDbLayerTableRecord
  2
CP-CE5-RF_650000_1
 70
0
 62
7
  6
CONTINUOUS
370
-3
390
F
  0
LAYER
  5
260
100
AcDbSymbolTableRecord
100
AcDbLayerTableRecord
  2
CP-CE8-RF-FINE-VIMAR_1080000
 70
0
 62
7
  6
CONTINUOUS
370
-3
390
F
  0
LAYER
  5
261
100
AcDbSymbolTableRecord
100
AcDbLayerTableRecord
  2
CP-CE8-RF-FINE-VIMAR_1080000_1
 70
0
 62
7
  6
CONTINUOUS
370
-3
390
F
  0
LAYER
  5
262
100
AcDbSymbolTableRecord
100
AcDbLayerTableRecord
  2
CP-DO-214AC-D-VIMAR_240000
 70
0
 62
7
  6
CONTINUOUS
370
-3
390
F
  0
LAYER
  5
263
100
AcDbSymbolTableRecord
100
AcDbLayerTableRecord
  2
CP-DO-214AC-D-VIMAR_240000_1
 70
0
 62
7
  6
CONTINUOUS
370
-3
390
F
  0
LAYER
  5
264
100
AcDbSymbolTableRecord
100
AcDbLayerTableRecord
  2
CP-DO-214AC-D-VIMAR_240000_2
 70
0
 62
7
  6
CONTINUOUS
370
-3
390
F
  0
LAYER
  5
265
100
AcDbSymbolTableRecord
100
AcDbLayerTableRecord
  2
CP-DO-214AC-VIMAR_240000
 70
0
 62
7
  6
CONTINUOUS
370
-3
390
F
  0
LAYER
  5
266
100
AcDbSymbolTableRecord
100
AcDbLayerTableRecord
  2
CP-L4-RF-FINE-VIMAR_470000
 70
0
 62
7
  6
CONTINUOUS
370
-3
390
F
  0
LAYER
  5
267
100
AcDbSymbolTableRecord
100
AcDbLayerTableRecord
  2
CP-L4-RF-FINE-VIMAR_470000_1
 70
0
 62
7
  6
CONTINUOUS
370
-3
390
F
  0
LAYER
  5
268
100
AcDbSymbolTableRecord
100
AcDbLayerTableRecord
  2
CURVE
 70
0
 62
7
  6
CONTINUOUS
370
-3
390
F
  0
LAYER
  5
269
100
AcDbSymbolTableRecord
100
AcDbLayerTableRecord
  2
CURVE_LED_TASTO
 70
0
 62
7
  6
CONTINUOUS
370
-3
390
F
  0
LAYER
  5
26A
100
AcDbSymbolTableRecord
100
AcDbLayerTableRecord
  2
DRAFT
 70
0
 62
7
  6
CONTINUOUS
370
-3
390
F
  0
LAYER
  5
26B
100
AcDbSymbolTableRecord
100
AcDbLayerTableRecord
  2
E4_MARK_10000
 70
0
 62
7
  6
CONTINUOUS
370
-3
390
F
  0
LAYER
  5
26C
100
AcDbSymbolTableRecord
100
AcDbLayerTableRecord
  2
E4_MARK_10000_1
 70
0
 62
7
  6
CONTINUOUS
370
-3
390
F
  0
LAYER
  5
26D
100
AcDbSymbolTableRecord
100
AcDbLayerTableRecord
  2
IGES_SCRITTE
 70
0
 62
7
  6
CONTINUOUS
370
-3
390
F
  0
LAYER
  5
26E
100
AcDbSymbolTableRecord
100
AcDbLayerTableRecord
  2
IMPORT_IGES
 70
0
 62
7
  6
CONTINUOUS
370
-3
390
F
  0
LAYER
  5
26F
100
AcDbSymbolTableRecord
100
AcDbLayerTableRecord
  2
INTF_2
 70
0
 62
7
  6
CONTINUOUS
370
-3
390
F
  0
LAYER
  5
270
100
AcDbSymbolTableRecord
100
AcDbLayerTableRecord
  2
INTF_BLANK
 70
0
 62
7
  6
CONTINUOUS
370
-3
390
F
  0
LAYER
  5
271
100
AcDbSymbolTableRecord
100
AcDbLayerTableRecord
  2
INTF_RED
 70
0
 62
7
  6
CONTINUOUS
370
-3
390
F
  0
LAYER
  5
272
100
AcDbSymbolTableRecord
100
AcDbLayerTableRecord
  2
LFCSP28-1-VIMAR_100000
 70
0
 62
7
  6
CONTINUOUS
370
-3
390
F
  0
LAYER
  5
273
100
AcDbSymbolTableRecord
100
AcDbLayerTableRecord
  2
LFCSP32-2-VIMAR_100000
 70
0
 62
7
  6
CONTINUOUS
370
-3
390
F
  0
LAYER
  5
274
100
AcDbSymbolTableRecord
100
AcDbLayerTableRecord
  2
LLP24_80000
 70
0
 62
7
  6
CONTINUOUS
370
-3
390
F
  0
LAYER
  5
275
100
AcDbSymbolTableRecord
100
AcDbLayerTableRecord
  2
LOGO_RESIST-RESTYLING_10000
 70
0
 62
7
  6
CONTINUOUS
370
-3
390
F
  0
LAYER
  5
276
100
AcDbSymbolTableRecord
100
AcDbLayerTableRecord
  2
LOGO_RESIST-RESTYLING_10000_1
 70
0
 62
7
  6
CONTINUOUS
370
-3
390
F
  0
LAYER
  5
277
100
AcDbSymbolTableRecord
100
AcDbLayerTableRecord
  2
L_SRR0604-RF-VIMAR_480000
 70
0
 62
7
  6
CONTINUOUS
370
-3
390
F
  0
LAYER
  5
278
100
AcDbSymbolTableRecord
100
AcDbLayerTableRecord
  2
L_SRR0604-RF-VIMAR_480000_1
 70
0
 62
7
  6
CONTINUOUS
370
-3
390
F
  0
LAYER
  5
279
100
AcDbSymbolTableRecord
100
AcDbLayerTableRecord
  2
MLF44-F1-RF-VIMAR_100000
 70
0
 62
7
  6
CONTINUOUS
370
-3
390
F
  0
LAYER
  5
27A
100
AcDbSymbolTableRecord
100
AcDbLayerTableRecord
  2
MM2-X-1-VIMAR_430000
 70
0
 62
7
  6
CONTINUOUS
370
-3
390
F
  0
LAYER
  5
27B
100
AcDbSymbolTableRecord
100
AcDbLayerTableRecord
  2
MM3-MPAK-RF-VIMAR_120000
 70
0
 62
7
  6
CONTINUOUS
370
-3
390
F
  0
LAYER
  5
27C
100
AcDbSymbolTableRecord
100
AcDbLayerTableRecord
  2
MM3-MPAK-RF-VIMAR_120000_1
 70
0
 62
7
  6
CONTINUOUS
370
-3
390
F
  0
LAYER
  5
27D
100
AcDbSymbolTableRecord
100
AcDbLayerTableRecord
  2
MM3-MPAK-RF-VIMAR_120000_2
 70
0
 62
7
  6
CONTINUOUS
370
-3
390
F
  0
LAYER
  5
27E
100
AcDbSymbolTableRecord
100
AcDbLayerTableRecord
  2
MM3-MPAK-RF-VIMAR_120000_3
 70
0
 62
7
  6
CONTINUOUS
370
-3
390
F
  0
LAYER
  5
27F
100
AcDbSymbolTableRecord
100
AcDbLayerTableRecord
  2
MM3-MPAK-RF-VIMAR_120000_4
 70
0
 62
7
  6
CONTINUOUS
370
-3
390
F
  0
LAYER
  5
280
100
AcDbSymbolTableRecord
100
AcDbLayerTableRecord
  2
MM3-MPAK-RF-VIMAR_120000_5
 70
0
 62
7
  6
CONTINUOUS
370
-3
390
F
  0
LAYER
  5
281
100
AcDbSymbolTableRecord
100
AcDbLayerTableRecord
  2
MM3-MPAK-RF-VIMAR_120000_6
 70
0
 62
7
  6
CONTINUOUS
370
-3
390
F
  0
LAYER
  5
282
100
AcDbSymbolTableRecord
100
AcDbLayerTableRecord
  2
MM3-SOT-223-RF-VIMAR_180000
 70
0
 62
7
  6
CONTINUOUS
370
-3
390
F
  0
LAYER
  5
283
100
AcDbSymbolTableRecord
100
AcDbLayerTableRecord
  2
MM3-SOT-89-RF-VIMAR_150000
 70
0
 62
7
  6
CONTINUOUS
370
-3
390
F
  0
LAYER
  5
284
100
AcDbSymbolTableRecord
100
AcDbLayerTableRecord
  2
MM3-SOT323-RF-VIMAR_100000
 70
0
 62
7
  6
CONTINUOUS
370
-3
390
F
  0
LAYER
  5
285
100
AcDbSymbolTableRecord
100
AcDbLayerTableRecord
  2
MM3-SOT323-RF-VIMAR_100000_1
 70
0
 62
7
  6
CONTINUOUS
370
-3
390
F
  0
LAYER
  5
286
100
AcDbSymbolTableRecord
100
AcDbLayerTableRecord
  2
MM3-SOT323-RF-VIMAR_100000_10
 70
0
 62
7
  6
CONTINUOUS
370
-3
390
F
  0
LAYER
  5
287
100
AcDbSymbolTableRecord
100
AcDbLayerTableRecord
  2
MM3-SOT323-RF-VIMAR_100000_11
 70
0
 62
7
  6
CONTINUOUS
370
-3
390
F
  0
LAYER
  5
288
100
AcDbSymbolTableRecord
100
AcDbLayerTableRecord
  2
MM3-SOT323-RF-VIMAR_100000_2
 70
0
 62
7
  6
CONTINUOUS
370
-3
390
F
  0
LAYER
  5
289
100
AcDbSymbolTableRecord
100
AcDbLayerTableRecord
  2
MM3-SOT323-RF-VIMAR_100000_3
 70
0
 62
7
  6
CONTINUOUS
370
-3
390
F
  0
LAYER
  5
28A
100
AcDbSymbolTableRecord
100
AcDbLayerTableRecord
  2
MM3-SOT323-RF-VIMAR_100000_4
 70
0
 62
7
  6
CONTINUOUS
370
-3
390
F
  0
LAYER
  5
28B
100
AcDbSymbolTableRecord
100
AcDbLayerTableRecord
  2
MM3-SOT323-RF-VIMAR_100000_5
 70
0
 62
7
  6
CONTINUOUS
370
-3
390
F
  0
LAYER
  5
28C
100
AcDbSymbolTableRecord
100
AcDbLayerTableRecord
  2
MM3-SOT323-RF-VIMAR_100000_6
 70
0
 62
7
  6
CONTINUOUS
370
-3
390
F
  0
LAYER
  5
28D
100
AcDbSymbolTableRecord
100
AcDbLayerTableRecord
  2
MM3-SOT323-RF-VIMAR_100000_7
 70
0
 62
7
  6
CONTINUOUS
370
-3
390
F
  0
LAYER
  5
28E
100
AcDbSymbolTableRecord
100
AcDbLayerTableRecord
  2
MM3-SOT323-RF-VIMAR_100000_8
 70
0
 62
7
  6
CONTINUOUS
370
-3
390
F
  0
LAYER
  5
28F
100
AcDbSymbolTableRecord
100
AcDbLayerTableRecord
  2
MM3-SOT323-RF-VIMAR_100000_9
 70
0
 62
7
  6
CONTINUOUS
370
-3
390
F
  0
LAYER
  5
290
100
AcDbSymbolTableRecord
100
AcDbLayerTableRecord
  2
MM4-SWITCH-9-VIMAR_290000
 70
0
 62
7
  6
CONTINUOUS
370
-3
390
F
  0
LAYER
  5
291
100
AcDbSymbolTableRecord
100
AcDbLayerTableRecord
  2
MM4-X-5-VIMAR_120000
 70
0
 62
7
  6
CONTINUOUS
370
-3
390
F
  0
LAYER
  5
292
100
AcDbSymbolTableRecord
100
AcDbLayerTableRecord
  2
MM5-FMT-RF_120000
 70
0
 62
7
  6
CONTINUOUS
370
-3
390
F
  0
LAYER
  5
293
100
AcDbSymbolTableRecord
100
AcDbLayerTableRecord
  2
MM6-SOT23-6L-RF_120000
 70
0
 62
7
  6
CONTINUOUS
370
-3
390
F
  0
LAYER
  5
294
100
AcDbSymbolTableRecord
100
AcDbLayerTableRecord
  2
MSOP8-T1-RF-VIMAR_86000
 70
0
 62
7
  6
CONTINUOUS
370
-3
390
F
  0
LAYER
  5
295
100
AcDbSymbolTableRecord
100
AcDbLayerTableRecord
  2
NO-PB_MARK_10000
 70
0
 62
7
  6
CONTINUOUS
370
-3
390
F
  0
LAYER
  5
296
100
AcDbSymbolTableRecord
100
AcDbLayerTableRecord
  2
NO-PB_MARK_10000_1
 70
0
 62
7
  6
CONTINUOUS
370
-3
390
F
  0
LAYER
  5
297
100
AcDbSymbolTableRecord
100
AcDbLayerTableRecord
  2
NOTE
 70
0
 62
7
  6
CONTINUOUS
370
-3
390
F
  0
LAYER
  5
298
100
AcDbSymbolTableRecord
100
AcDbLayerTableRecord
  2
PIANI
 70
0
 62
7
  6
CONTINUOUS
370
-3
390
F
  0
LAYER
  5
299
100
AcDbSymbolTableRecord
100
AcDbLayerTableRecord
  2
PIANI_DI_RIFERIMENTO
 70
0
 62
7
  6
CONTINUOUS
370
-3
390
F
  0
LAYER
  5
29A
100
AcDbSymbolTableRecord
100
AcDbLayerTableRecord
  2
PIANI_ORIGINE
 70
0
 62
7
  6
CONTINUOUS
370
-3
390
F
  0
LAYER
  5
29B
100
AcDbSymbolTableRecord
100
AcDbLayerTableRecord
  2
PIANI_RIFERIMENTO
 70
0
 62
7
  6
CONTINUOUS
370
-3
390
F
  0
LAYER
  5
29C
100
AcDbSymbolTableRecord
100
AcDbLayerTableRecord
  2
PSD25-VIMAR_0
 70
0
 62
7
  6
CONTINUOUS
370
-3
390
F
  0
LAYER
  5
29D
100
AcDbSymbolTableRecord
100
AcDbLayerTableRecord
  2
PUNTI
 70
0
 62
7
  6
CONTINUOUS
370
-3
390
F
  0
LAYER
  5
29E
100
AcDbSymbolTableRecord
100
AcDbLayerTableRecord
  2
RACCORDO
 70
0
 62
7
  6
CONTINUOUS
370
-3
390
F
  0
LAYER
  5
29F
100
AcDbSymbolTableRecord
100
AcDbLayerTableRecord
  2
RD-L50-9-VIMAR_1250000
 70
0
 62
7
  6
CONTINUOUS
370
-3
390
F
  0
LAYER
  5
2A0
100
AcDbSymbolTableRecord
100
AcDbLayerTableRecord
  2
RESC1005X40N_50000
 70
0
 62
7
  6
CONTINUOUS
370
-3
390
F
  0
LAYER
  5
2A1
100
AcDbSymbolTableRecord
100
AcDbLayerTableRecord
  2
RESC1005X40N_50000_1
 70
0
 62
7
  6
CONTINUOUS
370
-3
390
F
  0
LAYER
  5
2A2
100
AcDbSymbolTableRecord
100
AcDbLayerTableRecord
  2
RESC1005X40N_50000_2
 70
0
 62
7
  6
CONTINUOUS
370
-3
390
F
  0
LAYER
  5
2A3
100
AcDbSymbolTableRecord
100
AcDbLayerTableRecord
  2
RESC1005X40N_50000_3
 70
0
 62
7
  6
CONTINUOUS
370
-3
390
F
  0
LAYER
  5
2A4
100
AcDbSymbolTableRecord
100
AcDbLayerTableRecord
  2
RESC1005X40N_50000_4
 70
0
 62
7
  6
CONTINUOUS
370
-3
390
F
  0
LAYER
  5
2A5
100
AcDbSymbolTableRecord
100
AcDbLayerTableRecord
  2
RESC1005X40N_50000_5
 70
0
 62
7
  6
CONTINUOUS
370
-3
390
F
  0
LAYER
  5
2A6
100
AcDbSymbolTableRecord
100
AcDbLayerTableRecord
  2
RESC1005X40N_50000_6
 70
0
 62
7
  6
CONTINUOUS
370
-3
390
F
  0
LAYER
  5
2A7
100
AcDbSymbolTableRecord
100
AcDbLayerTableRecord
  2
RESC1005X40N_50000_7
 70
0
 62
7
  6
CONTINUOUS
370
-3
390
F
  0
LAYER
  5
2A8
100
AcDbSymbolTableRecord
100
AcDbLayerTableRecord
  2
RESC1005X40N_50000_8
 70
0
 62
7
  6
CONTINUOUS
370
-3
390
F
  0
LAYER
  5
2A9
100
AcDbSymbolTableRecord
100
AcDbLayerTableRecord
  2
RESC1608N_45000
 70
0
 62
7
  6
CONTINUOUS
370
-3
390
F
  0
LAYER
  5
2AA
100
AcDbSymbolTableRecord
100
AcDbLayerTableRecord
  2
RESC1608N_45000_1
 70
0
 62
7
  6
CONTINUOUS
370
-3
390
F
  0
LAYER
  5
2AB
100
AcDbSymbolTableRecord
100
AcDbLayerTableRecord
  2
RESC1608N_45000_10
 70
0
 62
7
  6
CONTINUOUS
370
-3
390
F
  0
LAYER
  5
2AC
100
AcDbSymbolTableRecord
100
AcDbLayerTableRecord
  2
RESC1608N_45000_11
 70
0
 62
7
  6
CONTINUOUS
370
-3
390
F
  0
LAYER
  5
2AD
100
AcDbSymbolTableRecord
100
AcDbLayerTableRecord
  2
RESC1608N_45000_12
 70
0
 62
7
  6
CONTINUOUS
370
-3
390
F
  0
LAYER
  5
2AE
100
AcDbSymbolTableRecord
100
AcDbLayerTableRecord
  2
RESC1608N_45000_13
 70
0
 62
7
  6
CONTINUOUS
370
-3
390
F
  0
LAYER
  5
2AF
100
AcDbSymbolTableRecord
100
AcDbLayerTableRecord
  2
RESC1608N_45000_14
 70
0
 62
7
  6
CONTINUOUS
370
-3
390
F
  0
LAYER
  5
2B0
100
AcDbSymbolTableRecord
100
AcDbLayerTableRecord
  2
RESC1608N_45000_15
 70
0
 62
7
  6
CONTINUOUS
370
-3
390
F
  0
LAYER
  5
2B1
100
AcDbSymbolTableRecord
100
AcDbLayerTableRecord
  2
RESC1608N_45000_16
 70
0
 62
7
  6
CONTINUOUS
370
-3
390
F
  0
LAYER
  5
2B2
100
AcDbSymbolTableRecord
100
AcDbLayerTableRecord
  2
RESC1608N_45000_17
 70
0
 62
7
  6
CONTINUOUS
370
-3
390
F
  0
LAYER
  5
2B3
100
AcDbSymbolTableRecord
100
AcDbLayerTableRecord
  2
RESC1608N_45000_18
 70
0
 62
7
  6
CONTINUOUS
370
-3
390
F
  0
LAYER
  5
2B4
100
AcDbSymbolTableRecord
100
AcDbLayerTableRecord
  2
RESC1608N_45000_19
 70
0
 62
7
  6
CONTINUOUS
370
-3
390
F
  0
LAYER
  5
2B5
100
AcDbSymbolTableRecord
100
AcDbLayerTableRecord
  2
RESC1608N_45000_2
 70
0
 62
7
  6
CONTINUOUS
370
-3
390
F
  0
LAYER
  5
2B6
100
AcDbSymbolTableRecord
100
AcDbLayerTableRecord
  2
RESC1608N_45000_20
 70
0
 62
7
  6
CONTINUOUS
370
-3
390
F
  0
LAYER
  5
2B7
100
AcDbSymbolTableRecord
100
AcDbLayerTableRecord
  2
RESC1608N_45000_21
 70
0
 62
7
  6
CONTINUOUS
370
-3
390
F
  0
LAYER
  5
2B8
100
AcDbSymbolTableRecord
100
AcDbLayerTableRecord
  2
RESC1608N_45000_22
 70
0
 62
7
  6
CONTINUOUS
370
-3
390
F
  0
LAYER
  5
2B9
100
AcDbSymbolTableRecord
100
AcDbLayerTableRecord
  2
RESC1608N_45000_23
 70
0
 62
7
  6
CONTINUOUS
370
-3
390
F
  0
LAYER
  5
2BA
100
AcDbSymbolTableRecord
100
AcDbLayerTableRecord
  2
RESC1608N_45000_24
 70
0
 62
7
  6
CONTINUOUS
370
-3
390
F
  0
LAYER
  5
2BB
100
AcDbSymbolTableRecord
100
AcDbLayerTableRecord
  2
RESC1608N_45000_25
 70
0
 62
7
  6
CONTINUOUS
370
-3
390
F
  0
LAYER
  5
2BC
100
AcDbSymbolTableRecord
100
AcDbLayerTableRecord
  2
RESC1608N_45000_3
 70
0
 62
7
  6
CONTINUOUS
370
-3
390
F
  0
LAYER
  5
2BD
100
AcDbSymbolTableRecord
100
AcDbLayerTableRecord
  2
RESC1608N_45000_4
 70
0
 62
7
  6
CONTINUOUS
370
-3
390
F
  0
LAYER
  5
2BE
100
AcDbSymbolTableRecord
100
AcDbLayerTableRecord
  2
RESC1608N_45000_5
 70
0
 62
7
  6
CONTINUOUS
370
-3
390
F
  0
LAYER
  5
2BF
100
AcDbSymbolTableRecord
100
AcDbLayerTableRecord
  2
RESC1608N_45000_6
 70
0
 62
7
  6
CONTINUOUS
370
-3
390
F
  0
LAYER
  5
2C0
100
AcDbSymbolTableRecord
100
AcDbLayerTableRecord
  2
RESC1608N_45000_7
 70
0
 62
7
  6
CONTINUOUS
370
-3
390
F
  0
LAYER
  5
2C1
100
AcDbSymbolTableRecord
100
AcDbLayerTableRecord
  2
RESC1608N_45000_8
 70
0
 62
7
  6
CONTINUOUS
370
-3
390
F
  0
LAYER
  5
2C2
100
AcDbSymbolTableRecord
100
AcDbLayerTableRecord
  2
RESC1608N_45000_9
 70
0
 62
7
  6
CONTINUOUS
370
-3
390
F
  0
LAYER
  5
2C3
100
AcDbSymbolTableRecord
100
AcDbLayerTableRecord
  2
SMUSSO
 70
0
 62
7
  6
CONTINUOUS
370
-3
390
F
  0
LAYER
  5
2C4
100
AcDbSymbolTableRecord
100
AcDbLayerTableRecord
  2
SNAPLINE
 70
0
 62
7
  6
CONTINUOUS
370
-3
390
F
  0
LAYER
  5
2C5
100
AcDbSymbolTableRecord
100
AcDbLayerTableRecord
  2
SOD123_135000
 70
0
 62
7
  6
CONTINUOUS
370
-3
390
F
  0
LAYER
  5
2C6
100
AcDbSymbolTableRecord
100
AcDbLayerTableRecord
  2
SOD123_135000_1
 70
0
 62
7
  6
CONTINUOUS
370
-3
390
F
  0
LAYER
  5
2C7
100
AcDbSymbolTableRecord
100
AcDbLayerTableRecord
  2
SOIC8-OPTO-RF-VIMAR_2_320000
 70
0
 62
7
  6
CONTINUOUS
370
-3
390
F
  0
LAYER
  5
2C8
100
AcDbSymbolTableRecord
100
AcDbLayerTableRecord
  2
SOIC8-OPTO-RF-VIMAR_2_320000_1
 70
0
 62
7
  6
CONTINUOUS
370
-3
390
F
  0
LAYER
  5
2C9
100
AcDbSymbolTableRecord
100
AcDbLayerTableRecord
  2
SOP6-T1-RF-VIMAR_510000
 70
0
 62
7
  6
CONTINUOUS
370
-3
390
F
  0
LAYER
  5
2CA
100
AcDbSymbolTableRecord
100
AcDbLayerTableRecord
  2
SOP8-T1-RF-FINE-VIMAR_150000
 70
0
 62
7
  6
CONTINUOUS
370
-3
390
F
  0
LAYER
  5
2CB
100
AcDbSymbolTableRecord
100
AcDbLayerTableRecord
  2
SUPERFICI
 70
0
 62
7
  6
CONTINUOUS
370
-3
390
F
  0
LAYER
  5
2CC
100
AcDbSymbolTableRecord
100
AcDbLayerTableRecord
  2
TLA05_60000
 70
0
 62
7
  6
CONTINUOUS
370
-3
390
F
  0
LAYER
  5
2CD
100
AcDbSymbolTableRecord
100
AcDbLayerTableRecord
  2
TP10_SMD_0
 70
0
 62
7
  6
CONTINUOUS
370
-3
390
F
  0
LAYER
  5
2CE
100
AcDbSymbolTableRecord
100
AcDbLayerTableRecord
  2
TP10_SMD_0_1
 70
0
 62
7
  6
CONTINUOUS
370
-3
390
F
  0
LAYER
  5
2CF
100
AcDbSymbolTableRecord
100
AcDbLayerTableRecord
  2
TP10_SMD_0_10
 70
0
 62
7
  6
CONTINUOUS
370
-3
390
F
  0
LAYER
  5
2D0
100
AcDbSymbolTableRecord
100
AcDbLayerTableRecord
  2
TP10_SMD_0_11
 70
0
 62
7
  6
CONTINUOUS
370
-3
390
F
  0
LAYER
  5
2D1
100
AcDbSymbolTableRecord
100
AcDbLayerTableRecord
  2
TP10_SMD_0_12
 70
0
 62
7
  6
CONTINUOUS
370
-3
390
F
  0
LAYER
  5
2D2
100
AcDbSymbolTableRecord
100
AcDbLayerTableRecord
  2
TP10_SMD_0_13
 70
0
 62
7
  6
CONTINUOUS
370
-3
390
F
  0
LAYER
  5
2D3
100
AcDbSymbolTableRecord
100
AcDbLayerTableRecord
  2
TP10_SMD_0_14
 70
0
 62
7
  6
CONTINUOUS
370
-3
390
F
  0
LAYER
  5
2D4
100
AcDbSymbolTableRecord
100
AcDbLayerTableRecord
  2
TP10_SMD_0_15
 70
0
 62
7
  6
CONTINUOUS
370
-3
390
F
  0
LAYER
  5
2D5
100
AcDbSymbolTableRecord
100
AcDbLayerTableRecord
  2
TP10_SMD_0_16
 70
0
 62
7
  6
CONTINUOUS
370
-3
390
F
  0
LAYER
  5
2D6
100
AcDbSymbolTableRecord
100
AcDbLayerTableRecord
  2
TP10_SMD_0_17
 70
0
 62
7
  6
CONTINUOUS
370
-3
390
F
  0
LAYER
  5
2D7
100
AcDbSymbolTableRecord
100
AcDbLayerTableRecord
  2
TP10_SMD_0_18
 70
0
 62
7
  6
CONTINUOUS
370
-3
390
F
  0
LAYER
  5
2D8
100
AcDbSymbolTableRecord
100
AcDbLayerTableRecord
  2
TP10_SMD_0_19
 70
0
 62
7
  6
CONTINUOUS
370
-3
390
F
  0
LAYER
  5
2D9
100
AcDbSymbolTableRecord
100
AcDbLayerTableRecord
  2
TP10_SMD_0_2
 70
0
 62
7
  6
CONTINUOUS
370
-3
390
F
  0
LAYER
  5
2DA
100
AcDbSymbolTableRecord
100
AcDbLayerTableRecord
  2
TP10_SMD_0_20
 70
0
 62
7
  6
CONTINUOUS
370
-3
390
F
  0
LAYER
  5
2DB
100
AcDbSymbolTableRecord
100
AcDbLayerTableRecord
  2
TP10_SMD_0_21
 70
0
 62
7
  6
CONTINUOUS
370
-3
390
F
  0
LAYER
  5
2DC
100
AcDbSymbolTableRecord
100
AcDbLayerTableRecord
  2
TP10_SMD_0_22
 70
0
 62
7
  6
CONTINUOUS
370
-3
390
F
  0
LAYER
  5
2DD
100
AcDbSymbolTableRecord
100
AcDbLayerTableRecord
  2
TP10_SMD_0_23
 70
0
 62
7
  6
CONTINUOUS
370
-3
390
F
  0
LAYER
  5
2DE
100
AcDbSymbolTableRecord
100
AcDbLayerTableRecord
  2
TP10_SMD_0_24
 70
0
 62
7
  6
CONTINUOUS
370
-3
390
F
  0
LAYER
  5
2DF
100
AcDbSymbolTableRecord
100
AcDbLayerTableRecord
  2
TP10_SMD_0_25
 70
0
 62
7
  6
CONTINUOUS
370
-3
390
F
  0
LAYER
  5
2E0
100
AcDbSymbolTableRecord
100
AcDbLayerTableRecord
  2
TP10_SMD_0_26
 70
0
 62
7
  6
CONTINUOUS
370
-3
390
F
  0
LAYER
  5
2E1
100
AcDbSymbolTableRecord
100
AcDbLayerTableRecord
  2
TP10_SMD_0_3
 70
0
 62
7
  6
CONTINUOUS
370
-3
390
F
  0
LAYER
  5
2E2
100
AcDbSymbolTableRecord
100
AcDbLayerTableRecord
  2
TP10_SMD_0_4
 70
0
 62
7
  6
CONTINUOUS
370
-3
390
F
  0
LAYER
  5
2E3
100
AcDbSymbolTableRecord
100
AcDbLayerTableRecord
  2
TP10_SMD_0_5
 70
0
 62
7
  6
CONTINUOUS
370
-3
390
F
  0
LAYER
  5
2E4
100
AcDbSymbolTableRecord
100
AcDbLayerTableRecord
  2
TP10_SMD_0_6
 70
0
 62
7
  6
CONTINUOUS
370
-3
390
F
  0
LAYER
  5
2E5
100
AcDbSymbolTableRecord
100
AcDbLayerTableRecord
  2
TP10_SMD_0_7
 70
0
 62
7
  6
CONTINUOUS
370
-3
390
F
  0
LAYER
  5
2E6
100
AcDbSymbolTableRecord
100
AcDbLayerTableRecord
  2
TP10_SMD_0_8
 70
0
 62
7
  6
CONTINUOUS
370
-3
390
F
  0
LAYER
  5
2E7
100
AcDbSymbolTableRecord
100
AcDbLayerTableRecord
  2
TP10_SMD_0_9
 70
0
 62
7
  6
CONTINUOUS
370
-3
390
F
  0
LAYER
  5
2E8
100
AcDbSymbolTableRecord
100
AcDbLayerTableRecord
  2
TR-8V-1-VIMAR_1054000
 70
0
 62
7
  6
CONTINUOUS
370
-3
390
F
  0
LAYER
  5
2E9
100
AcDbSymbolTableRecord
100
AcDbLayerTableRecord
  2
TR-MABAES0060_280000
 70
0
 62
7
  6
CONTINUOUS
370
-3
390
F
  0
LAYER
  5
2EA
100
AcDbSymbolTableRecord
100
AcDbLayerTableRecord
  2
TRASH
 70
0
 62
7
  6
CONTINUOUS
370
-3
390
F
  0
LAYER
  5
2EB
100
AcDbSymbolTableRecord
100
AcDbLayerTableRecord
  2
___SHELL
 70
0
 62
7
  6
CONTINUOUS
370
-3
390
F
  0
ENDTAB
  0
TABLE
  2
STYLE
  5
3
100
AcDbSymbolTable
 70
1
  0
STYLE
  5
11
100
AcDbSymbolTableRecord
100
AcDbTextStyleTableRecord
  2
STANDARD
 70
0
 40
0.0
 41
0.8
 50
0.0
 71
0
 42
0.2
  3
txt
  4

  0
STYLE
  5
2EC
100
AcDbSymbolTableRecord
100
AcDbTextStyleTableRecord
  2
TEXTSTYLE_1
 70
0
 40
0.0
 41
0.8
 50
0.0
 71
0
 42
0.2
  3
gdt
  4

  0
ENDTAB
  0
TABLE
  2
VIEW
  5
6
100
AcDbSymbolTable
 70
0
  0
ENDTAB
  0
TABLE
  2
UCS
  5
7
100
AcDbSymbolTable
 70
0
  0
ENDTAB
  0
TABLE
  2
APPID
  5
9
100
AcDbSymbolTable
 70
1
  0
APPID
  5
2ED
100
AcDbSymbolTableRecord
100
AcDbRegAppTableRecord
  2
ACAD
 70
0
  0
ENDTAB
  0
TABLE
  2
BLOCK_RECORD
  5
1
100
AcDbSymbolTable
 70
0
  0
BLOCK_RECORD
  5
2EE
100
AcDbSymbolTableRecord
100
AcDbBlockTableRecord
  2
*Model_Space
  0
BLOCK_RECORD
  5
2EF
100
AcDbSymbolTableRecord
100
AcDbBlockTableRecord
  2
*Paper_Space
  0
BLOCK_RECORD
  5
2F0
100
AcDbSymbolTableRecord
100
AcDbBlockTableRecord
  2
_FILLED
  0
BLOCK_RECORD
  5
2F1
100
AcDbSymbolTableRecord
100
AcDbBlockTableRecord
  2
*D0
  0
BLOCK_RECORD
  5
2F2
100
AcDbSymbolTableRecord
100
AcDbBlockTableRecord
  2
*D1
  0
BLOCK_RECORD
  5
2F3
100
AcDbSymbolTableRecord
100
AcDbBlockTableRecord
  2
*D2
  0
BLOCK_RECORD
  5
2F4
100
AcDbSymbolTableRecord
100
AcDbBlockTableRecord
  2
*D3
  0
ENDTAB
  0
TABLE
  2
DIMSTYLE
  5
A
100
AcDbSymbolTable
 70
1
100
AcDbDimStyleTable
 71
0
  0
DIMSTYLE
105
2F5
100
AcDbSymbolTableRecord
100
AcDbDimStyleTableRecord
  2
STANDARD
 70
0
  3

  4

 40
1.0
 41
3.0
 42
0.0625
 43
0.38
 44
0.18
 45
0.0
 46
0.0
 47
0.01
 48
0.01
140
3.0
141
0.09
142
0.0
143
25.4
144
1.0
145
0.0
146
1.0
147
0.09
 71
1.0
 72
0.0
 73
0
 74
0
 75
0
 76
0
 77
1
 78
8
170
0
171
2
172
0
173
0
174
0
175
0
176
0
177
0
178
0
270
2
271
2
272
2
273
2
274
2
275
0
280
0
281
0
282
0
283
1
284
8
285
0
286
0
287
3
288
0
340
11
341
2F0
342
2F0
343
2F0
344
2F0
  0
DIMSTYLE
105
2F6
100
AcDbSymbolTableRecord
100
AcDbDimStyleTableRecord
  2
DIMSTYLE_1
 70
0
  3

  4

 40
1.0
 41
3.0
 42
0.0625
 43
0.38
 44
0.18
 45
0.0
 46
0.0
 47
0.0
 48
0.0
140
3.0
141
0.09
142
0.0
143
25.4
144
1.0
145
0.0
146
1.0
147
0.09
 71
0.0
 72
0.0
 73
0
 74
0
 75
0
 76
0
 77
1
 78
8
170
0
171
2
172
0
173
0
174
0
175
0
176
0
177
0
178
0
270
2
271
2
272
2
273
2
274
2
275
0
280
0
281
0
282
0
283
1
284
8
285
0
286
0
287
3
288
0
340
11
341
2F0
342
2F0
343
2F0
344
2F0
  0
DIMSTYLE
105
2F7
100
AcDbSymbolTableRecord
100
AcDbDimStyleTableRecord
  2
DIMSTYLE_2
 70
0
  3

  4

 40
1.0
 41
3.0
 42
0.0625
 43
0.38
 44
0.18
 45
0.0
 46
0.0
 47
0.0
 48
0.0
140
3.0
141
0.09
142
0.0
143
25.4
144
1.0
145
0.0
146
1.0
147
0.09
 71
0.0
 72
0.0
 73
0
 74
0
 75
0
 76
0
 77
1
 78
8
170
0
171
2
172
0
173
0
174
0
175
0
176
0
177
0
178
0
270
2
271
1
272
1
273
2
274
2
275
0
280
0
281
0
282
0
283
1
284
8
285
0
286
0
287
3
288
0
340
11
341
2F0
342
2F0
343
2F0
344
2F0
  0
ENDTAB
  0
ENDSEC
  0
SECTION
  2
BLOCKS
  0
BLOCK
  5
20
100
AcDbEntity
  8
0
100
AcDbBlockBegin
  2
*Model_Space
 70
0
 10
0.0
 20
0.0
 30
0.0
  3
*Model_Space
  1

  0
ENDBLK
  5
21
100
AcDbEntity
  8
0
100
AcDbBlockEnd
  0
BLOCK
  5
1C
100
AcDbEntity
  8
0
100
AcDbBlockBegin
  2
*Paper_Space
 70
0
 10
0.0
 20
0.0
 30
0.0
  3
*Paper_Space
  1

  0
ENDBLK
  5
1D
100
AcDbEntity
  8
0
100
AcDbBlockEnd
  0
BLOCK
  5
2F8
100
AcDbEntity
  8
0
100
AcDbBlockBegin
  2
_FILLED
 70
64
 10
0.0
 20
0.0
  3
_FILLED
  1

  0
SOLID
  5
2F9
100
AcDbEntity
  8
0
  6
BYBLOCK
 62
0
100
AcDbTrace
 10
0.0
 20
0.0
 11
-1.0
 21
0.3166666667
 12
-1.0
 22
-0.3166666667
 13
-1.0
 23
-0.3166666667
  0
ENDBLK
  5
2FA
100
AcDbEntity
  8
0
  6
BYBLOCK
 62
0
100
AcDbBlockEnd
  0
BLOCK
  5
2FB
100
AcDbEntity
  8
0
100
AcDbBlockBegin
 62
7
  6
CONTINUOUS
  2
*D0
 70
65
 10
0.0
 20
0.0
  3
*D0
  1

  0
MTEXT
  5
2FC
100
AcDbEntity
  8
0
100
AcDbMText
 62
7
  6
CONTINUOUS
  7
STANDARD
 71
2
 72
1
 10
28.65
 20
0.0
 30
0.0
 11
0.0
 21
1.0
 31
0.0
 44
0.9
  1
49
 40
3.0
 41
4.7142857143
  0
LINE
  5
2FD
100
AcDbEntity
  8
0
100
AcDbLine
 62
7
  6
CONTINUOUS
 10
22.1500042308
 20
24.5
 11
33.9
 21
24.5
  0
LINE
  5
2FE
100
AcDbEntity
  8
0
100
AcDbLine
 62
7
  6
CONTINUOUS
 10
22.1500042308
 20
-24.5
 11
33.9
 21
-24.5
  0
LINE
  5
2FF
100
AcDbEntity
  8
0
100
AcDbLine
 62
7
  6
CONTINUOUS
 10
32.4
 20
24.5
 11
32.4
 21
0.0
  0
LINE
  5
300
100
AcDbEntity
  8
0
100
AcDbLine
 62
7
  6
CONTINUOUS
 10
32.4
 20
-24.5
 11
32.4
 21
0.0
  0
INSERT
  5
301
100
AcDbEntity
  8
0
100
AcDbBlockReference
 62
7
  6
CONTINUOUS
  2
_FILLED
 10
32.4
 20
24.5
 41
3.0
 42
3.0
 43
3.0
 50
90.0
  0
INSERT
  5
302
100
AcDbEntity
  8
0
100
AcDbBlockReference
 62
7
  6
CONTINUOUS
  2
_FILLED
 10
32.4
 20
-24.5
 41
3.0
 42
3.0
 43
3.0
 50
270.0
  0
ENDBLK
  5
303
100
AcDbEntity
  8
0
  6
BYBLOCK
 62
0
100
AcDbBlockEnd
  0
BLOCK
  5
304
100
AcDbEntity
  8
0
100
AcDbBlockBegin
 62
7
  6
CONTINUOUS
  2
*D1
 70
65
 10
0.0
 20
0.0
  3
*D1
  1

  0
MTEXT
  5
305
100
AcDbEntity
  8
0
100
AcDbMText
 62
7
  6
CONTINUOUS
  7
STANDARD
 71
2
 72
1
 10
0.0
 20
38.25
 30
0.0
 11
1.0
 21
0.0
 31
0.0
 44
0.9
  1
44,8
 40
3.0
 41
8.7857142857
  0
LINE
  5
306
100
AcDbEntity
  8
0
100
AcDbLine
 62
7
  6
CONTINUOUS
 10
22.4
 20
22.3999048084
 11
22.4
 21
36.0
  0
LINE
  5
307
100
AcDbEntity
  8
0
100
AcDbLine
 62
7
  6
CONTINUOUS
 10
-22.4
 20
22.3999048084
 11
-22.4
 21
36.0
  0
LINE
  5
308
100
AcDbEntity
  8
0
100
AcDbLine
 62
7
  6
CONTINUOUS
 10
22.4
 20
34.5
 11
0.0
 21
34.5
  0
LINE
  5
309
100
AcDbEntity
  8
0
100
AcDbLine
 62
7
  6
CONTINUOUS
 10
-22.4
 20
34.5
 11
0.0
 21
34.5
  0
INSERT
  5
30A
100
AcDbEntity
  8
0
100
AcDbBlockReference
 62
7
  6
CONTINUOUS
  2
_FILLED
 10
22.4
 20
34.5
 41
3.0
 42
3.0
 43
3.0
  0
INSERT
  5
30B
100
AcDbEntity
  8
0
100
AcDbBlockReference
 62
7
  6
CONTINUOUS
  2
_FILLED
 10
-22.4
 20
34.5
 41
3.0
 42
3.0
 43
3.0
 50
180.0
  0
ENDBLK
  5
30C
100
AcDbEntity
  8
0
  6
BYBLOCK
 62
0
100
AcDbBlockEnd
  0
BLOCK
  5
30D
100
AcDbEntity
  8
0
100
AcDbBlockBegin
 62
7
  6
CONTINUOUS
  2
*D2
 70
65
 10
0.0
 20
0.0
  3
*D2
  1

  0
MTEXT
  5
30E
100
AcDbEntity
  8
0
100
AcDbMText
 62
7
  6
CONTINUOUS
  7
STANDARD
 71
2
 72
1
 10
-57.4625909563
 20
38.25
 30
0.0
 11
1.0
 21
0.0
 31
0.0
 44
0.9
  1
36
 40
3.0
 41
4.5
  0
LINE
  5
30F
100
AcDbEntity
  8
0
100
AcDbLine
 62
7
  6
CONTINUOUS
 10
-39.4625909563
 20
-1.8249992318
 11
-39.4625909563
 21
36.0
  0
LINE
  5
310
100
AcDbEntity
  8
0
100
AcDbLine
 62
7
  6
CONTINUOUS
 10
-75.4625909563
 20
24.3443375673
 11
-75.4625909563
 21
36.0
  0
LINE
  5
311
100
AcDbEntity
  8
0
100
AcDbLine
 62
7
  6
CONTINUOUS
 10
-39.4625909563
 20
34.5
 11
-57.4625909563
 21
34.5
  0
LINE
  5
312
100
AcDbEntity
  8
0
100
AcDbLine
 62
7
  6
CONTINUOUS
 10
-75.4625909563
 20
34.5
 11
-57.4625909563
 21
34.5
  0
INSERT
  5
313
100
AcDbEntity
  8
0
100
AcDbBlockReference
 62
7
  6
CONTINUOUS
  2
_FILLED
 10
-39.4625909563
 20
34.5
 41
3.0
 42
3.0
 43
3.0
  0
INSERT
  5
314
100
AcDbEntity
  8
0
100
AcDbBlockReference
 62
7
  6
CONTINUOUS
  2
_FILLED
 10
-75.4625909563
 20
34.5
 41
3.0
 42
3.0
 43
3.0
 50
180.0
  0
ENDBLK
  5
315
100
AcDbEntity
  8
0
  6
BYBLOCK
 62
0
100
AcDbBlockEnd
  0
BLOCK
  5
316
100
AcDbEntity
  8
0
100
AcDbBlockBegin
 62
7
  6
CONTINUOUS
  2
*D3
 70
65
 10
0.0
 20
0.0
  3
*D3
  1

  0
MTEXT
  5
317
100
AcDbEntity
  8
0
100
AcDbMText
 62
7
  6
CONTINUOUS
  7
STANDARD
 71
2
 72
1
 10
-63.4250909563
 20
46.25
 30
0.0
 11
1.0
 21
0.0
 31
0.0
 44
0.9
  1
47,9
 40
3.0
 41
8.7857142857
  0
LINE
  5
318
100
AcDbEntity
  8
0
100
AcDbLine
 62
7
  6
CONTINUOUS
 10
-39.4625909563
 20
-1.8249992318
 11
-39.4625909563
 21
44.0
  0
LINE
  5
319
100
AcDbEntity
  8
0
100
AcDbLine
 62
7
  6
CONTINUOUS
 10
-87.3875909563
 20
13.1500083971
 11
-87.3875909563
 21
44.0
  0
LINE
  5
31A
100
AcDbEntity
  8
0
100
AcDbLine
 62
7
  6
CONTINUOUS
 10
-39.4625909563
 20
42.5
 11
-63.4250909563
 21
42.5
  0
LINE
  5
31B
100
AcDbEntity
  8
0
100
AcDbLine
 62
7
  6
CONTINUOUS
 10
-87.3875909563
 20
42.5
 11
-63.4250909563
 21
42.5
  0
INSERT
  5
31C
100
AcDbEntity
  8
0
100
AcDbBlockReference
 62
7
  6
CONTINUOUS
  2
_FILLED
 10
-39.4625909563
 20
42.5
 41
3.0
 42
3.0
 43
3.0
  0
INSERT
  5
31D
100
AcDbEntity
  8
0
100
AcDbBlockReference
 62
7
  6
CONTINUOUS
  2
_FILLED
 10
-87.3875909563
 20
42.5
 41
3.0
 42
3.0
 43
3.0
 50
180.0
  0
ENDBLK
  5
31E
100
AcDbEntity
  8
0
  6
BYBLOCK
 62
0
100
AcDbBlockEnd
  0
ENDSEC
  0
SECTION
  2
ENTITIES
  0
DIMENSION
  5
31F
100
AcDbEntity
  8
0
100
AcDbDimension
 62
7
  6
CONTINUOUS
  2
*D0
 10
32.4
 20
-24.5
 11
31.2061735237
 21
-2.1072778499
 70
160
 71
2
 42
49.0
  3
DIMSTYLE_1
100
AcDbAlignedDimension
 13
22.1500042308
 23
24.5
 14
22.1500042308
 24
-24.5
 50
270.0
100
AcDbRotatedDimension
  0
DIMENSION
  5
320
100
AcDbEntity
  8
0
100
AcDbDimension
 62
7
  6
CONTINUOUS
  2
*D1
 10
-22.4
 20
34.5
 11
-4.3928571429
 21
36.75
 70
160
 71
2
 42
44.8
  3
DIMSTYLE_1
100
AcDbAlignedDimension
 13
22.4
 23
22.3999048084
 14
-22.4
 24
22.3999048084
 50
180.0
100
AcDbRotatedDimension
  0
DIMENSION
  5
321
100
AcDbEntity
  8
0
100
AcDbDimension
 62
7
  6
CONTINUOUS
  2
*D2
 10
-75.4625909563
 20
34.5
 11
-59.7125909563
 21
36.75
 70
160
 71
2
 42
36.0
  3
DIMSTYLE_1
100
AcDbAlignedDimension
 13
-39.4625909563
 23
-1.8249992318
 14
-75.4625909563
 24
24.3443375673
 50
180.0
100
AcDbRotatedDimension
  0
DIMENSION
  5
322
100
AcDbEntity
  8
0
100
AcDbDimension
 62
7
  6
CONTINUOUS
  2
*D3
 10
-87.3875909563
 20
42.5
 11
-67.8179480992
 21
44.75
 70
160
 71
2
 42
47.925
  3
DIMSTYLE_2
100
AcDbAlignedDimension
 13
-39.4625909563
 23
-1.8249992318
 14
-87.3875909563
 24
13.1500083971
 50
180.0
100
AcDbRotatedDimension
  0
LINE
  5
323
100
AcDbEntity
  8
RACCORDO
100
AcDbLine
 62
7
  6
CONTINUOUS
 10
-21.9
 20
22.4084168358
 11
-21.9008289253
 21
22.407229086
  0
LINE
  5
324
100
AcDbEntity
  8
RACCORDO
100
AcDbLine
 62
253
  6
CONTINUOUS
 10
-19.7499957692
 20
24.5
 11
-19.7630943479
 21
24.4869014213
  0
LINE
  5
325
100
AcDbEntity
  8
RACCORDO
100
AcDbLine
 62
253
  6
CONTINUOUS
 10
-19.5
 20
24.2500042308
 11
-19.5130985787
 21
24.2369056521
  0
LINE
  5
326
100
AcDbEntity
  8
RACCORDO
100
AcDbLine
 62
253
  6
CONTINUOUS
 10
-19.7499957692
 20
-24.5
 11
-19.7630943479
 21
-24.4869014213
  0
LINE
  5
327
100
AcDbEntity
  8
RACCORDO
100
AcDbLine
 62
253
  6
CONTINUOUS
 10
-19.5
 20
-24.2500042308
 11
-19.5130985787
 21
-24.2369056521
  0
LINE
  5
328
100
AcDbEntity
  8
RACCORDO
100
AcDbLine
 62
7
  6
CONTINUOUS
 10
-21.9
 20
-22.4084168358
 11
-21.9008289253
 21
-22.407229086
  0
LINE
  5
329
100
AcDbEntity
  8
RACCORDO
100
AcDbLine
 62
253
  6
CONTINUOUS
 10
-22.3850747787
 20
21.9073668507
 11
-22.4
 21
21.8999048084
  0
LINE
  5
32A
100
AcDbEntity
  8
RACCORDO
100
AcDbLine
 62
253
  6
CONTINUOUS
 10
-22.4
 20
-21.8999048084
 11
-22.3850747787
 21
-21.9073668507
  0
LINE
  5
32B
100
AcDbEntity
  8
RACCORDO
100
AcDbLine
 62
7
  6
CONTINUOUS
 10
21.6500042308
 20
-24.5
 11
19.7499957692
 21
-24.5
  0
LINE
  5
32C
100
AcDbEntity
  8
RACCORDO
100
AcDbLine
 62
7
  6
CONTINUOUS
 10
2.7500042308
 20
-24.5
 11
0.8499957692
 21
-24.5
  0
LINE
  5
32D
100
AcDbEntity
  8
RACCORDO
100
AcDbLine
 62
7
  6
CONTINUOUS
 10
-0.8499957692
 20
-24.5
 11
-2.7500042308
 21
-24.5
  0
LINE
  5
32E
100
AcDbEntity
  8
RACCORDO
100
AcDbLine
 62
7
  6
CONTINUOUS
 10
-19.7499957692
 20
-24.5
 11
-21.6500042308
 21
-24.5
  0
LINE
  5
32F
100
AcDbEntity
  8
RACCORDO
100
AcDbLine
 62
7
  6
CONTINUOUS
 10
-21.6369056521
 20
-24.4869014213
 11
-19.7630943479
 21
-24.4869014213
  0
LINE
  5
330
100
AcDbEntity
  8
RACCORDO
100
AcDbLine
 62
7
  6
CONTINUOUS
 10
-2.7369056521
 20
-24.4869014213
 11
-0.8630943479
 21
-24.4869014213
  0
LINE
  5
331
100
AcDbEntity
  8
RACCORDO
100
AcDbLine
 62
7
  6
CONTINUOUS
 10
0.8630943479
 20
-24.4869014213
 11
2.7369056521
 21
-24.4869014213
  0
LINE
  5
332
100
AcDbEntity
  8
RACCORDO
100
AcDbLine
 62
7
  6
CONTINUOUS
 10
19.7630943479
 20
-24.4869014213
 11
21.6369056521
 21
-24.4869014213
  0
LINE
  5
333
100
AcDbEntity
  8
RACCORDO
100
AcDbLine
 62
253
  6
CONTINUOUS
 10
0.6130985787
 20
-24.2369056521
 11
2.9869014213
 21
-24.2369056521
  0
LINE
  5
334
100
AcDbEntity
  8
RACCORDO
100
AcDbLine
 62
253
  6
CONTINUOUS
 10
-0.6130985787
 20
-24.2369056521
 11
-2.9869014213
 21
-24.2369056521
  0
LINE
  5
335
100
AcDbEntity
  8
RACCORDO
100
AcDbLine
 62
253
  6
CONTINUOUS
 10
19.5130985787
 20
-24.2369056521
 11
21.8869014213
 21
-24.2369056521
  0
LINE
  5
336
100
AcDbEntity
  8
RACCORDO
100
AcDbLine
 62
253
  6
CONTINUOUS
 10
-19.5130985787
 20
-24.2369056521
 11
-21.8869014213
 21
-24.2369056521
  0
LINE
  5
337
100
AcDbEntity
  8
RACCORDO
100
AcDbLine
 62
253
  6
CONTINUOUS
 10
-21.8869014213
 20
-23.8443375673
 11
-21.8927192511
 21
-23.2669872981
  0
LINE
  5
338
100
AcDbEntity
  8
RACCORDO
100
AcDbLine
 62
253
  6
CONTINUOUS
 10
-21.6369056521
 20
-23.6278312164
 11
-21.6419962532
 21
-23.1226497308
  0
LINE
  5
339
100
AcDbEntity
  8
RACCORDO
100
AcDbLine
 62
7
  6
CONTINUOUS
 10
-22.4
 20
21.8999048084
 11
-22.4
 21
-21.8999048084
  0
LINE
  5
33A
100
AcDbEntity
  8
DRAFT
100
AcDbLine
 62
7
  6
CONTINUOUS
 10
-22.4
 20
-18.1215728753
 11
-22.4
 21
18.1215728753
  0
LINE
  5
33B
100
AcDbEntity
  8
ASSI
100
AcDbLine
 62
7
  6
CONTINUOUS
 10
-22.4
 20
-18.1215728753
 11
-22.4
 21
18.1215728753
  0
LINE
  5
33C
100
AcDbEntity
  8
RACCORDO
100
AcDbLine
 62
7
  6
CONTINUOUS
 10
-21.9
 20
-22.4084168358
 11
-21.9
 21
-24.2500042308
  0
LINE
  5
33D
100
AcDbEntity
  8
RACCORDO
100
AcDbLine
 62
7
  6
CONTINUOUS
 10
-21.9
 20
22.4084168358
 11
-21.9
 21
24.2500042308
  0
LINE
  5
33E
100
AcDbEntity
  8
RACCORDO
100
AcDbLine
 62
7
  6
CONTINUOUS
 10
-21.8927192511
 20
-23.2669872981
 11
-21.8927192511
 21
-22.3334109614
  0
LINE
  5
33F
100
AcDbEntity
  8
RACCORDO
100
AcDbLine
 62
7
  6
CONTINUOUS
 10
-21.8927192511
 20
22.3334109614
 11
-21.8927192511
 21
23.2669872981
  0
LINE
  5
340
100
AcDbEntity
  8
RACCORDO
100
AcDbLine
 62
7
  6
CONTINUOUS
 10
-21.8869014213
 20
24.2369056521
 11
-21.8869014213
 21
23.8443375673
  0
LINE
  5
341
100
AcDbEntity
  8
RACCORDO
100
AcDbLine
 62
7
  6
CONTINUOUS
 10
-21.8869014213
 20
-23.8443375673
 11
-21.8869014213
 21
-24.2369056521
  0
LINE
  5
342
100
AcDbEntity
  8
RACCORDO
100
AcDbLine
 62
253
  6
CONTINUOUS
 10
-21.8927192511
 20
23.2669872981
 11
-21.8869014213
 21
23.8443375673
  0
LINE
  5
343
100
AcDbEntity
  8
RACCORDO
100
AcDbLine
 62
253
  6
CONTINUOUS
 10
-21.6419962532
 20
23.1226497308
 11
-21.6369056521
 21
23.6278312164
  0
LINE
  5
344
100
AcDbEntity
  8
RACCORDO
100
AcDbLine
 62
7
  6
CONTINUOUS
 10
-19.4991695146
 20
22.4074811221
 11
-19.5072807489
 21
22.3344140523
  0
LINE
  5
345
100
AcDbEntity
  8
RACCORDO
100
AcDbLine
 62
253
  6
CONTINUOUS
 10
0.6130985787
 20
-23.8443375673
 11
2.9869014213
 21
-23.8443375673
  0
LINE
  5
346
100
AcDbEntity
  8
RACCORDO
100
AcDbLine
 62
253
  6
CONTINUOUS
 10
-0.6130985787
 20
-23.8443375673
 11
-2.9869014213
 21
-23.8443375673
  0
LINE
  5
347
100
AcDbEntity
  8
RACCORDO
100
AcDbLine
 62
253
  6
CONTINUOUS
 10
19.5130985787
 20
-23.8443375673
 11
21.8869014213
 21
-23.8443375673
  0
LINE
  5
348
100
AcDbEntity
  8
RACCORDO
100
AcDbLine
 62
253
  6
CONTINUOUS
 10
-19.5130985787
 20
-23.8443375673
 11
-21.8869014213
 21
-23.8443375673
  0
LINE
  5
349
100
AcDbEntity
  8
RACCORDO
100
AcDbLine
 62
7
  6
CONTINUOUS
 10
-15.5462073137
 20
-23.7953389668
 11
-6.9537926863
 21
-23.7953389668
  0
LINE
  5
34A
100
AcDbEntity
  8
RACCORDO
100
AcDbLine
 62
7
  6
CONTINUOUS
 10
6.9537926863
 20
-23.7953389668
 11
15.5462073137
 21
-23.7953389668
  0
LINE
  5
34B
100
AcDbEntity
  8
RACCORDO
100
AcDbLine
 62
253
  6
CONTINUOUS
 10
21.6369056521
 20
-23.6278312164
 11
19.7630943479
 21
-23.6278312164
  0
LINE
  5
34C
100
AcDbEntity
  8
RACCORDO
100
AcDbLine
 62
253
  6
CONTINUOUS
 10
2.7369056521
 20
-23.6278312164
 11
0.8630943479
 21
-23.6278312164
  0
LINE
  5
34D
100
AcDbEntity
  8
RACCORDO
100
AcDbLine
 62
253
  6
CONTINUOUS
 10
-0.8630943479
 20
-23.6278312164
 11
-2.7369056521
 21
-23.6278312164
  0
LINE
  5
34E
100
AcDbEntity
  8
RACCORDO
100
AcDbLine
 62
253
  6
CONTINUOUS
 10
-19.7630943479
 20
-23.6278312164
 11
-21.6369056521
 21
-23.6278312164
  0
LINE
  5
34F
100
AcDbEntity
  8
RACCORDO
100
AcDbLine
 62
253
  6
CONTINUOUS
 10
-15.1470826234
 20
-23.5953423515
 11
-7.3529173766
 21
-23.5953423515
  0
LINE
  5
350
100
AcDbEntity
  8
RACCORDO
100
AcDbLine
 62
253
  6
CONTINUOUS
 10
7.3529173766
 20
-23.5953423515
 11
15.1470826234
 21
-23.5953423515
  0
LINE
  5
351
100
AcDbEntity
  8
RACCORDO
100
AcDbLine
 62
7
  6
CONTINUOUS
 10
-21.6419962532
 20
-23.1226497308
 11
-19.7580037468
 21
-23.1226497308
  0
LINE
  5
352
100
AcDbEntity
  8
RACCORDO
100
AcDbLine
 62
7
  6
CONTINUOUS
 10
-2.7419962532
 20
-23.1226497308
 11
-0.8580037468
 21
-23.1226497308
  0
LINE
  5
353
100
AcDbEntity
  8
RACCORDO
100
AcDbLine
 62
7
  6
CONTINUOUS
 10
0.8580037468
 20
-23.1226497308
 11
2.7419962532
 21
-23.1226497308
  0
LINE
  5
354
100
AcDbEntity
  8
RACCORDO
100
AcDbLine
 62
7
  6
CONTINUOUS
 10
19.7580037468
 20
-23.1226497308
 11
21.6419962532
 21
-23.1226497308
  0
LINE
  5
355
100
AcDbEntity
  8
DRAFT
100
AcDbLine
 62
7
  6
CONTINUOUS
 10
19.4991695146
 20
-22.4074811221
 11
15.6491695146
 21
-22.4074811221
  0
LINE
  5
356
100
AcDbEntity
  8
DRAFT
100
AcDbLine
 62
7
  6
CONTINUOUS
 10
6.8508304854
 20
-22.4074811221
 11
3.0008304854
 21
-22.4074811221
  0
LINE
  5
357
100
AcDbEntity
  8
DRAFT
100
AcDbLine
 62
7
  6
CONTINUOUS
 10
0.5991695146
 20
-22.4074811221
 11
-0.5991695146
 21
-22.4074811221
  0
LINE
  5
358
100
AcDbEntity
  8
DRAFT
100
AcDbLine
 62
7
  6
CONTINUOUS
 10
-3.0008304854
 20
-22.4074811221
 11
-6.8508304854
 21
-22.4074811221
  0
LINE
  5
359
100
AcDbEntity
  8
DRAFT
100
AcDbLine
 62
7
  6
CONTINUOUS
 10
-15.6491695146
 20
-22.4074811221
 11
-19.4991695146
 21
-22.4074811221
  0
LINE
  5
35A
100
AcDbEntity
  8
RACCORDO
100
AcDbLine
 62
7
  6
CONTINUOUS
 10
15.1470826234
 20
-22.3475922207
 11
7.3529173766
 21
-22.3475922207
  0
LINE
  5
35B
100
AcDbEntity
  8
RACCORDO
100
AcDbLine
 62
7
  6
CONTINUOUS
 10
-7.3529173766
 20
-22.3475922207
 11
-15.1470826234
 21
-22.3475922207
  0
LINE
  5
35C
100
AcDbEntity
  8
RACCORDO
100
AcDbLine
 62
7
  6
CONTINUOUS
 10
-21.6427234819
 20
-22.3213883311
 11
-19.7572765181
 21
-22.3213883311
  0
LINE
  5
35D
100
AcDbEntity
  8
RACCORDO
100
AcDbLine
 62
7
  6
CONTINUOUS
 10
-2.7427234819
 20
-22.3213883311
 11
-0.8572765181
 21
-22.3213883311
  0
LINE
  5
35E
100
AcDbEntity
  8
RACCORDO
100
AcDbLine
 62
7
  6
CONTINUOUS
 10
0.8572765181
 20
-22.3213883311
 11
2.7427234819
 21
-22.3213883311
  0
LINE
  5
35F
100
AcDbEntity
  8
RACCORDO
100
AcDbLine
 62
7
  6
CONTINUOUS
 10
19.7572765181
 20
-22.3213883311
 11
21.6427234819
 21
-22.3213883311
  0
LINE
  5
360
100
AcDbEntity
  8
RACCORDO
100
AcDbLine
 62
253
  6
CONTINUOUS
 10
-21.7492759622
 20
-21.998725222
 11
21.7492759622
 21
-21.998725222
  0
LINE
  5
361
100
AcDbEntity
  8
RACCORDO
100
AcDbLine
 62
7
  6
CONTINUOUS
 10
-19.4991695146
 20
-22.4074811221
 11
-19.5072807489
 21
-22.3344140523
  0
LINE
  5
362
100
AcDbEntity
  8
RACCORDO
100
AcDbLine
 62
253
  6
CONTINUOUS
 10
-21.6427234819
 20
-23.1226497308
 11
-21.6427234819
 21
-22.3213883311
  0
LINE
  5
363
100
AcDbEntity
  8
RACCORDO
100
AcDbLine
 62
253
  6
CONTINUOUS
 10
-21.6427234819
 20
22.3213883311
 11
-21.6427234819
 21
23.1226497308
  0
LINE
  5
364
100
AcDbEntity
  8
RACCORDO
100
AcDbLine
 62
253
  6
CONTINUOUS
 10
-21.6369056521
 20
-23.6278312164
 11
-21.6369056521
 21
-24.4869014213
  0
LINE
  5
365
100
AcDbEntity
  8
RACCORDO
100
AcDbLine
 62
253
  6
CONTINUOUS
 10
-21.6369056521
 20
23.6278312164
 11
-21.6369056521
 21
24.4869014213
  0
LINE
  5
366
100
AcDbEntity
  8
RACCORDO
100
AcDbLine
 62
253
  6
CONTINUOUS
 10
-19.7630943479
 20
-23.6278312164
 11
-19.7630943479
 21
-24.4869014213
  0
LINE
  5
367
100
AcDbEntity
  8
RACCORDO
100
AcDbLine
 62
253
  6
CONTINUOUS
 10
-19.7630943479
 20
23.6278312164
 11
-19.7630943479
 21
24.4869014213
  0
LINE
  5
368
100
AcDbEntity
  8
RACCORDO
100
AcDbLine
 62
253
  6
CONTINUOUS
 10
-19.7572765181
 20
23.1226497308
 11
-19.7572765181
 21
22.3213883311
  0
LINE
  5
369
100
AcDbEntity
  8
RACCORDO
100
AcDbLine
 62
253
  6
CONTINUOUS
 10
-19.7572765181
 20
-22.3213883311
 11
-19.7572765181
 21
-23.1226497308
  0
LINE
  5
36A
100
AcDbEntity
  8
RACCORDO
100
AcDbLine
 62
253
  6
CONTINUOUS
 10
-21.7327491915
 20
-20.5624683248
 11
21.7327491915
 21
-20.5624683248
  0
LINE
  5
36B
100
AcDbEntity
  8
RACCORDO
100
AcDbLine
 62
253
  6
CONTINUOUS
 10
-19.7630943479
 20
23.6278312164
 11
-19.7580037468
 21
23.1226497308
  0
LINE
  5
36C
100
AcDbEntity
  8
RACCORDO
100
AcDbLine
 62
253
  6
CONTINUOUS
 10
-19.5130985787
 20
23.8443375673
 11
-19.5072807489
 21
23.2669872981
  0
LINE
  5
36D
100
AcDbEntity
  8
RACCORDO
100
AcDbLine
 62
7
  6
CONTINUOUS
 10
-19.5130985787
 20
-24.2369056521
 11
-19.5130985787
 21
-23.8443375673
  0
LINE
  5
36E
100
AcDbEntity
  8
RACCORDO
100
AcDbLine
 62
7
  6
CONTINUOUS
 10
-19.5130985787
 20
23.8443375673
 11
-19.5130985787
 21
24.2369056521
  0
LINE
  5
36F
100
AcDbEntity
  8
RACCORDO
100
AcDbLine
 62
7
  6
CONTINUOUS
 10
-19.5072807489
 20
23.2669872981
 11
-19.5072807489
 21
22.3344140523
  0
LINE
  5
370
100
AcDbEntity
  8
RACCORDO
100
AcDbLine
 62
7
  6
CONTINUOUS
 10
-19.5072807489
 20
-22.3344140523
 11
-19.5072807489
 21
-23.2669872981
  0
LINE
  5
371
100
AcDbEntity
  8
RACCORDO
100
AcDbLine
 62
7
  6
CONTINUOUS
 10
-19.5
 20
-22.4087268678
 11
-19.5
 21
-24.2500042308
  0
LINE
  5
372
100
AcDbEntity
  8
RACCORDO
100
AcDbLine
 62
7
  6
CONTINUOUS
 10
-19.5
 20
22.4087268678
 11
-19.5
 21
24.2500042308
  0
LINE
  5
373
100
AcDbEntity
  8
RACCORDO
100
AcDbLine
 62
253
  6
CONTINUOUS
 10
-19.7580037468
 20
-23.1226497308
 11
-19.7630943479
 21
-23.6278312164
  0
LINE
  5
374
100
AcDbEntity
  8
RACCORDO
100
AcDbLine
 62
253
  6
CONTINUOUS
 10
-19.5072807489
 20
-23.2669872981
 11
-19.5130985787
 21
-23.8443375673
  0
LINE
  5
375
100
AcDbEntity
  8
RACCORDO
100
AcDbLine
 62
253
  6
CONTINUOUS
 10
-0.8499957692
 20
24.5
 11
-0.8630943479
 21
24.4869014213
  0
LINE
  5
376
100
AcDbEntity
  8
RACCORDO
100
AcDbLine
 62
253
  6
CONTINUOUS
 10
-0.6
 20
24.2500042308
 11
-0.6130985787
 21
24.2369056521
  0
LINE
  5
377
100
AcDbEntity
  8
RACCORDO
100
AcDbLine
 62
253
  6
CONTINUOUS
 10
-0.8499957692
 20
-24.5
 11
-0.8630943479
 21
-24.4869014213
  0
LINE
  5
378
100
AcDbEntity
  8
RACCORDO
100
AcDbLine
 62
253
  6
CONTINUOUS
 10
-0.6
 20
-24.2500042308
 11
-0.6130985787
 21
-24.2369056521
  0
LINE
  5
379
100
AcDbEntity
  8
RACCORDO
100
AcDbLine
 62
7
  6
CONTINUOUS
 10
-15.6470741618
 20
23.7970741618
 11
-15.6470741618
 21
22.3736436632
  0
LINE
  5
37A
100
AcDbEntity
  8
RACCORDO
100
AcDbLine
 62
7
  6
CONTINUOUS
 10
-15.6470741618
 20
-22.3736436632
 11
-15.6470741618
 21
-23.7970741618
  0
LINE
  5
37B
100
AcDbEntity
  8
RACCORDO
100
AcDbLine
 62
253
  6
CONTINUOUS
 10
2.7500042308
 20
24.5
 11
2.7369056521
 21
24.4869014213
  0
LINE
  5
37C
100
AcDbEntity
  8
RACCORDO
100
AcDbLine
 62
253
  6
CONTINUOUS
 10
2.7500042308
 20
-24.5
 11
2.7369056521
 21
-24.4869014213
  0
LINE
  5
37D
100
AcDbEntity
  8
RACCORDO
100
AcDbLine
 62
253
  6
CONTINUOUS
 10
-15.1470826234
 20
23.5953423515
 11
-15.1470826234
 21
22.3475922207
  0
LINE
  5
37E
100
AcDbEntity
  8
RACCORDO
100
AcDbLine
 62
253
  6
CONTINUOUS
 10
-15.1470826234
 20
-22.3475922207
 11
-15.1470826234
 21
-23.5953423515
  0
LINE
  5
37F
100
AcDbEntity
  8
RACCORDO
100
AcDbLine
 62
253
  6
CONTINUOUS
 10
-22.3850747787
 20
-21.9073668507
 11
-22.2491998097
 21
-21.4994104546
  0
LINE
  5
380
100
AcDbEntity
  8
RACCORDO
100
AcDbLine
 62
253
  6
CONTINUOUS
 10
-21.7492759622
 20
-21.998725222
 11
-21.85891534
 21
-22.3279108386
  0
LINE
  5
381
100
AcDbEntity
  8
DRAFT
100
AcDbLine
 62
7
  6
CONTINUOUS
 10
-3.0008304854
 20
22.4074811221
 11
-3.0
 21
22.4087268678
  0
LINE
  5
382
100
AcDbEntity
  8
RACCORDO
100
AcDbLine
 62
253
  6
CONTINUOUS
 10
3.0
 20
24.2500042308
 11
2.9869014213
 21
24.2369056521
  0
LINE
  5
383
100
AcDbEntity
  8
RACCORDO
100
AcDbLine
 62
253
  6
CONTINUOUS
 10
3.0
 20
-24.2500042308
 11
2.9869014213
 21
-24.2369056521
  0
LINE
  5
384
100
AcDbEntity
  8
DRAFT
100
AcDbLine
 62
7
  6
CONTINUOUS
 10
-3.0
 20
-22.4087268678
 11
-3.0008304854
 21
-22.4074811221
  0
LINE
  5
385
100
AcDbEntity
  8
RACCORDO
100
AcDbLine
 62
253
  6
CONTINUOUS
 10
-22.2491998097
 20
21.4994104546
 11
-22.3850747787
 21
21.9073668507
  0
LINE
  5
386
100
AcDbEntity
  8
RACCORDO
100
AcDbLine
 62
253
  6
CONTINUOUS
 10
-21.85891534
 20
22.3279108386
 11
-21.7492759622
 21
21.998725222
  0
LINE
  5
387
100
AcDbEntity
  8
DRAFT
100
AcDbLine
 62
7
  6
CONTINUOUS
 10
0.5991695146
 20
22.4074811221
 11
0.6
 21
22.4087268678
  0
LINE
  5
388
100
AcDbEntity
  8
DRAFT
100
AcDbLine
 62
7
  6
CONTINUOUS
 10
0.6
 20
-22.4087268678
 11
0.5991695146
 21
-22.4074811221
  0
LINE
  5
389
100
AcDbEntity
  8
0
100
AcDbLine
 62
253
  6
CONTINUOUS
 10
-8.9999716732
 20
12.650008494
 11
-8.9999626807
 21
13.6499999998
  0
LINE
  5
38A
100
AcDbEntity
  8
0
100
AcDbLine
 62
253
  6
CONTINUOUS
 10
-8.9999626807
 20
5.3500000002
 11
-8.9999716732
 21
6.349991506
  0
LINE
  5
38B
100
AcDbEntity
  8
RACCORDO
100
AcDbLine
 62
253
  6
CONTINUOUS
 10
-7.3529173766
 20
-23.5953423515
 11
-7.3529173766
 21
-22.3475922207
  0
LINE
  5
38C
100
AcDbEntity
  8
RACCORDO
100
AcDbLine
 62
253
  6
CONTINUOUS
 10
-7.3529173766
 20
22.3475922207
 11
-7.3529173766
 21
23.5953423515
  0
LINE
  5
38D
100
AcDbEntity
  8
RACCORDO
100
AcDbLine
 62
7
  6
CONTINUOUS
 10
-6.8529258382
 20
-23.7970741618
 11
-6.8529258382
 21
-22.3736436632
  0
LINE
  5
38E
100
AcDbEntity
  8
RACCORDO
100
AcDbLine
 62
7
  6
CONTINUOUS
 10
-6.8529258382
 20
22.3736436632
 11
-6.8529258382
 21
23.7970741618
  0
LINE
  5
38F
100
AcDbEntity
  8
RACCORDO
100
AcDbLine
 62
253
  6
CONTINUOUS
 10
-2.9869014213
 20
-23.8443375673
 11
-2.9927192511
 21
-23.2669872981
  0
LINE
  5
390
100
AcDbEntity
  8
RACCORDO
100
AcDbLine
 62
253
  6
CONTINUOUS
 10
-2.7369056521
 20
-23.6278312164
 11
-2.7419962532
 21
-23.1226497308
  0
LINE
  5
391
100
AcDbEntity
  8
RACCORDO
100
AcDbLine
 62
7
  6
CONTINUOUS
 10
-3.0
 20
-22.4087268678
 11
-3.0
 21
-24.2500042308
  0
LINE
  5
392
100
AcDbEntity
  8
RACCORDO
100
AcDbLine
 62
7
  6
CONTINUOUS
 10
-3.0
 20
22.4087268678
 11
-3.0
 21
24.2500042308
  0
LINE
  5
393
100
AcDbEntity
  8
RACCORDO
100
AcDbLine
 62
7
  6
CONTINUOUS
 10
-2.9927192511
 20
-23.2669872981
 11
-2.9927192511
 21
-22.3344140523
  0
LINE
  5
394
100
AcDbEntity
  8
RACCORDO
100
AcDbLine
 62
7
  6
CONTINUOUS
 10
-2.9927192511
 20
22.3344140523
 11
-2.9927192511
 21
23.2669872981
  0
LINE
  5
395
100
AcDbEntity
  8
RACCORDO
100
AcDbLine
 62
7
  6
CONTINUOUS
 10
-2.9869014213
 20
24.2369056521
 11
-2.9869014213
 21
23.8443375673
  0
LINE
  5
396
100
AcDbEntity
  8
RACCORDO
100
AcDbLine
 62
7
  6
CONTINUOUS
 10
-2.9869014213
 20
-23.8443375673
 11
-2.9869014213
 21
-24.2369056521
  0
LINE
  5
397
100
AcDbEntity
  8
RACCORDO
100
AcDbLine
 62
253
  6
CONTINUOUS
 10
-2.7427234819
 20
-23.1226497308
 11
-2.7427234819
 21
-22.3213883311
  0
LINE
  5
398
100
AcDbEntity
  8
RACCORDO
100
AcDbLine
 62
253
  6
CONTINUOUS
 10
-2.7427234819
 20
22.3213883311
 11
-2.7427234819
 21
23.1226497308
  0
LINE
  5
399
100
AcDbEntity
  8
RACCORDO
100
AcDbLine
 62
253
  6
CONTINUOUS
 10
-2.7369056521
 20
-23.6278312164
 11
-2.7369056521
 21
-24.4869014213
  0
LINE
  5
39A
100
AcDbEntity
  8
RACCORDO
100
AcDbLine
 62
253
  6
CONTINUOUS
 10
-2.7369056521
 20
23.6278312164
 11
-2.7369056521
 21
24.4869014213
  0
LINE
  5
39B
100
AcDbEntity
  8
RACCORDO
100
AcDbLine
 62
253
  6
CONTINUOUS
 10
-2.9927192511
 20
23.2669872981
 11
-2.9869014213
 21
23.8443375673
  0
LINE
  5
39C
100
AcDbEntity
  8
RACCORDO
100
AcDbLine
 62
253
  6
CONTINUOUS
 10
-2.7419962532
 20
23.1226497308
 11
-2.7369056521
 21
23.6278312164
  0
LINE
  5
39D
100
AcDbEntity
  8
RACCORDO
100
AcDbLine
 62
7
  6
CONTINUOUS
 10
-0.5991695146
 20
22.4074811221
 11
-0.6072807489
 21
22.3344140523
  0
LINE
  5
39E
100
AcDbEntity
  8
DRAFT
100
AcDbLine
 62
7
  6
CONTINUOUS
 10
-19.4991695146
 20
-22.4074811221
 11
-19.5
 21
-22.4087268678
  0
LINE
  5
39F
100
AcDbEntity
  8
RACCORDO
100
AcDbLine
 62
253
  6
CONTINUOUS
 10
21.6500042308
 20
24.5
 11
21.6369056521
 21
24.4869014213
  0
LINE
  5
3A0
100
AcDbEntity
  8
RACCORDO
100
AcDbLine
 62
253
  6
CONTINUOUS
 10
21.6369056521
 20
-24.4869014213
 11
21.6500042308
 21
-24.5
  0
LINE
  5
3A1
100
AcDbEntity
  8
DRAFT
100
AcDbLine
 62
7
  6
CONTINUOUS
 10
-19.5
 20
22.4087268678
 11
-19.4991695146
 21
22.4074811221
  0
LINE
  5
3A2
100
AcDbEntity
  8
RACCORDO
100
AcDbLine
 62
7
  6
CONTINUOUS
 10
-0.5991695146
 20
-22.4074811221
 11
-0.6072807489
 21
-22.3344140523
  0
LINE
  5
3A3
100
AcDbEntity
  8
RACCORDO
100
AcDbLine
 62
253
  6
CONTINUOUS
 10
-0.8630943479
 20
23.6278312164
 11
-0.8580037468
 21
23.1226497308
  0
LINE
  5
3A4
100
AcDbEntity
  8
RACCORDO
100
AcDbLine
 62
253
  6
CONTINUOUS
 10
-0.6130985787
 20
23.8443375673
 11
-0.6072807489
 21
23.2669872981
  0
LINE
  5
3A5
100
AcDbEntity
  8
RACCORDO
100
AcDbLine
 62
253
  6
CONTINUOUS
 10
-0.8630943479
 20
-23.6278312164
 11
-0.8630943479
 21
-24.4869014213
  0
LINE
  5
3A6
100
AcDbEntity
  8
RACCORDO
100
AcDbLine
 62
253
  6
CONTINUOUS
 10
-0.8630943479
 20
23.6278312164
 11
-0.8630943479
 21
24.4869014213
  0
LINE
  5
3A7
100
AcDbEntity
  8
RACCORDO
100
AcDbLine
 62
253
  6
CONTINUOUS
 10
-0.8572765181
 20
23.1226497308
 11
-0.8572765181
 21
22.3213883311
  0
LINE
  5
3A8
100
AcDbEntity
  8
RACCORDO
100
AcDbLine
 62
253
  6
CONTINUOUS
 10
-0.8572765181
 20
-22.3213883311
 11
-0.8572765181
 21
-23.1226497308
  0
LINE
  5
3A9
100
AcDbEntity
  8
RACCORDO
100
AcDbLine
 62
7
  6
CONTINUOUS
 10
-0.6130985787
 20
-24.2369056521
 11
-0.6130985787
 21
-23.8443375673
  0
LINE
  5
3AA
100
AcDbEntity
  8
RACCORDO
100
AcDbLine
 62
7
  6
CONTINUOUS
 10
-0.6130985787
 20
23.8443375673
 11
-0.6130985787
 21
24.2369056521
  0
LINE
  5
3AB
100
AcDbEntity
  8
RACCORDO
100
AcDbLine
 62
7
  6
CONTINUOUS
 10
-0.6072807489
 20
23.2669872981
 11
-0.6072807489
 21
22.3344140523
  0
LINE
  5
3AC
100
AcDbEntity
  8
RACCORDO
100
AcDbLine
 62
7
  6
CONTINUOUS
 10
-0.6072807489
 20
-22.3344140523
 11
-0.6072807489
 21
-23.2669872981
  0
LINE
  5
3AD
100
AcDbEntity
  8
RACCORDO
100
AcDbLine
 62
7
  6
CONTINUOUS
 10
-0.6
 20
-22.4087268678
 11
-0.6
 21
-24.2500042308
  0
LINE
  5
3AE
100
AcDbEntity
  8
RACCORDO
100
AcDbLine
 62
7
  6
CONTINUOUS
 10
-0.6
 20
22.4087268678
 11
-0.6
 21
24.2500042308
  0
LINE
  5
3AF
100
AcDbEntity
  8
RACCORDO
100
AcDbLine
 62
253
  6
CONTINUOUS
 10
-0.8580037468
 20
-23.1226497308
 11
-0.8630943479
 21
-23.6278312164
  0
LINE
  5
3B0
100
AcDbEntity
  8
RACCORDO
100
AcDbLine
 62
253
  6
CONTINUOUS
 10
-0.6072807489
 20
-23.2669872981
 11
-0.6130985787
 21
-23.8443375673
  0
LINE
  5
3B1
100
AcDbEntity
  8
RACCORDO
100
AcDbLine
 62
7
  6
CONTINUOUS
 10
-3.0008304854
 20
-22.4074811221
 11
-2.9927192511
 21
-22.3344140523
  0
LINE
  5
3B2
100
AcDbEntity
  8
RACCORDO
100
AcDbLine
 62
253
  6
CONTINUOUS
 10
21.9
 20
24.2500042308
 11
21.8869014213
 21
24.2369056521
  0
LINE
  5
3B3
100
AcDbEntity
  8
RACCORDO
100
AcDbLine
 62
253
  6
CONTINUOUS
 10
21.8869014213
 20
-24.2369056521
 11
21.9
 21
-24.2500042308
  0
LINE
  5
3B4
100
AcDbEntity
  8
RACCORDO
100
AcDbLine
 62
7
  6
CONTINUOUS
 10
-3.0008304854
 20
22.4074811221
 11
-2.9927192511
 21
22.3344140523
  0
LINE
  5
3B5
100
AcDbEntity
  8
RACCORDO
100
AcDbLine
 62
253
  6
CONTINUOUS
 10
0.6130985787
 20
-23.8443375673
 11
0.6072807489
 21
-23.2669872981
  0
LINE
  5
3B6
100
AcDbEntity
  8
RACCORDO
100
AcDbLine
 62
253
  6
CONTINUOUS
 10
0.8630943479
 20
-23.6278312164
 11
0.8580037468
 21
-23.1226497308
  0
LINE
  5
3B7
100
AcDbEntity
  8
RACCORDO
100
AcDbLine
 62
7
  6
CONTINUOUS
 10
0.6000167767
 20
23.4088202791
 11
0.6
 21
23.4104851482
  0
LINE
  5
3B8
100
AcDbEntity
  8
RACCORDO
100
AcDbLine
 62
7
  6
CONTINUOUS
 10
0.6
 20
-22.4087268678
 11
0.6
 21
-24.2500042308
  0
LINE
  5
3B9
100
AcDbEntity
  8
RACCORDO
100
AcDbLine
 62
7
  6
CONTINUOUS
 10
0.6
 20
22.4087268678
 11
0.6
 21
24.2500042308
  0
LINE
  5
3BA
100
AcDbEntity
  8
RACCORDO
100
AcDbLine
 62
7
  6
CONTINUOUS
 10
0.6072807489
 20
-23.2669872981
 11
0.6072807489
 21
-22.3344140523
  0
LINE
  5
3BB
100
AcDbEntity
  8
RACCORDO
100
AcDbLine
 62
7
  6
CONTINUOUS
 10
0.6072807489
 20
22.3344140523
 11
0.6072807489
 21
23.2669872981
  0
LINE
  5
3BC
100
AcDbEntity
  8
RACCORDO
100
AcDbLine
 62
7
  6
CONTINUOUS
 10
0.6130985787
 20
24.2369056521
 11
0.6130985787
 21
23.8443375673
  0
LINE
  5
3BD
100
AcDbEntity
  8
RACCORDO
100
AcDbLine
 62
7
  6
CONTINUOUS
 10
0.6130985787
 20
-24.2369056521
 11
0.6130985787
 21
-23.8443375673
  0
LINE
  5
3BE
100
AcDbEntity
  8
RACCORDO
100
AcDbLine
 62
253
  6
CONTINUOUS
 10
0.8572765181
 20
-23.1226497308
 11
0.8572765181
 21
-22.3213883311
  0
LINE
  5
3BF
100
AcDbEntity
  8
RACCORDO
100
AcDbLine
 62
253
  6
CONTINUOUS
 10
0.8572765181
 20
22.3213883311
 11
0.8572765181
 21
23.1226497308
  0
LINE
  5
3C0
100
AcDbEntity
  8
RACCORDO
100
AcDbLine
 62
253
  6
CONTINUOUS
 10
0.8630943479
 20
24.4869014213
 11
0.8630943479
 21
23.6278312164
  0
LINE
  5
3C1
100
AcDbEntity
  8
RACCORDO
100
AcDbLine
 62
253
  6
CONTINUOUS
 10
0.8630943479
 20
-24.4869014213
 11
0.8630943479
 21
-23.6278312164
  0
LINE
  5
3C2
100
AcDbEntity
  8
RACCORDO
100
AcDbLine
 62
7
  6
CONTINUOUS
 10
0.6
 20
-23.4104851482
 11
0.6000247688
 21
-23.408002872
  0
LINE
  5
3C3
100
AcDbEntity
  8
RACCORDO
100
AcDbLine
 62
253
  6
CONTINUOUS
 10
0.6130985787
 20
23.8443375673
 11
0.6072807489
 21
23.2669872981
  0
LINE
  5
3C4
100
AcDbEntity
  8
RACCORDO
100
AcDbLine
 62
253
  6
CONTINUOUS
 10
0.8630943479
 20
23.6278312164
 11
0.8580037468
 21
23.1226497308
  0
LINE
  5
3C5
100
AcDbEntity
  8
RACCORDO
100
AcDbLine
 62
253
  6
CONTINUOUS
 10
-21.9
 20
-24.2500042308
 11
-21.8869014213
 21
-24.2369056521
  0
LINE
  5
3C6
100
AcDbEntity
  8
RACCORDO
100
AcDbLine
 62
253
  6
CONTINUOUS
 10
-21.6500042308
 20
-24.5
 11
-21.6369056521
 21
-24.4869014213
  0
LINE
  5
3C7
100
AcDbEntity
  8
RACCORDO
100
AcDbLine
 62
253
  6
CONTINUOUS
 10
-21.9
 20
24.2500042308
 11
-21.8869014213
 21
24.2369056521
  0
LINE
  5
3C8
100
AcDbEntity
  8
RACCORDO
100
AcDbLine
 62
253
  6
CONTINUOUS
 10
-21.6500042308
 20
24.5
 11
-21.6369056521
 21
24.4869014213
  0
LINE
  5
3C9
100
AcDbEntity
  8
RACCORDO
100
AcDbLine
 62
253
  6
CONTINUOUS
 10
2.7369056521
 20
23.6278312164
 11
2.7419962532
 21
23.1226497308
  0
LINE
  5
3CA
100
AcDbEntity
  8
RACCORDO
100
AcDbLine
 62
253
  6
CONTINUOUS
 10
2.9869014213
 20
23.8443375673
 11
2.9927192511
 21
23.2669872981
  0
LINE
  5
3CB
100
AcDbEntity
  8
RACCORDO
100
AcDbLine
 62
7
  6
CONTINUOUS
 10
2.9999832233
 20
-23.4088202791
 11
3.0
 21
-23.4104851482
  0
LINE
  5
3CC
100
AcDbEntity
  8
RACCORDO
100
AcDbLine
 62
253
  6
CONTINUOUS
 10
2.7369056521
 20
24.4869014213
 11
2.7369056521
 21
23.6278312164
  0
LINE
  5
3CD
100
AcDbEntity
  8
RACCORDO
100
AcDbLine
 62
253
  6
CONTINUOUS
 10
2.7369056521
 20
-24.4869014213
 11
2.7369056521
 21
-23.6278312164
  0
LINE
  5
3CE
100
AcDbEntity
  8
RACCORDO
100
AcDbLine
 62
253
  6
CONTINUOUS
 10
2.7427234819
 20
23.1226497308
 11
2.7427234819
 21
22.3213883311
  0
LINE
  5
3CF
100
AcDbEntity
  8
RACCORDO
100
AcDbLine
 62
253
  6
CONTINUOUS
 10
2.7427234819
 20
-22.3213883311
 11
2.7427234819
 21
-23.1226497308
  0
LINE
  5
3D0
100
AcDbEntity
  8
RACCORDO
100
AcDbLine
 62
7
  6
CONTINUOUS
 10
2.9869014213
 20
24.2369056521
 11
2.9869014213
 21
23.8443375673
  0
LINE
  5
3D1
100
AcDbEntity
  8
RACCORDO
100
AcDbLine
 62
7
  6
CONTINUOUS
 10
2.9869014213
 20
-24.2369056521
 11
2.9869014213
 21
-23.8443375673
  0
LINE
  5
3D2
100
AcDbEntity
  8
RACCORDO
100
AcDbLine
 62
7
  6
CONTINUOUS
 10
2.9927192511
 20
23.2669872981
 11
2.9927192511
 21
22.3344140523
  0
LINE
  5
3D3
100
AcDbEntity
  8
RACCORDO
100
AcDbLine
 62
7
  6
CONTINUOUS
 10
2.9927192511
 20
-22.3344140523
 11
2.9927192511
 21
-23.2669872981
  0
LINE
  5
3D4
100
AcDbEntity
  8
RACCORDO
100
AcDbLine
 62
7
  6
CONTINUOUS
 10
3.0
 20
-22.4087268678
 11
3.0
 21
-24.2500042308
  0
LINE
  5
3D5
100
AcDbEntity
  8
RACCORDO
100
AcDbLine
 62
7
  6
CONTINUOUS
 10
3.0
 20
22.4087268678
 11
3.0
 21
24.2500042308
  0
LINE
  5
3D6
100
AcDbEntity
  8
RACCORDO
100
AcDbLine
 62
7
  6
CONTINUOUS
 10
3.0
 20
23.4104851482
 11
2.9999752312
 21
23.408002872
  0
LINE
  5
3D7
100
AcDbEntity
  8
RACCORDO
100
AcDbLine
 62
253
  6
CONTINUOUS
 10
2.7369056521
 20
-23.6278312164
 11
2.7419962532
 21
-23.1226497308
  0
LINE
  5
3D8
100
AcDbEntity
  8
RACCORDO
100
AcDbLine
 62
253
  6
CONTINUOUS
 10
2.9869014213
 20
-23.8443375673
 11
2.9927192511
 21
-23.2669872981
  0
LINE
  5
3D9
100
AcDbEntity
  8
RACCORDO
100
AcDbLine
 62
7
  6
CONTINUOUS
 10
0.5991695146
 20
-22.4074811221
 11
0.6072807489
 21
-22.3344140523
  0
LINE
  5
3DA
100
AcDbEntity
  8
DRAFT
100
AcDbLine
 62
7
  6
CONTINUOUS
 10
19.4991695146
 20
22.4074811221
 11
19.5
 21
22.4087268678
  0
LINE
  5
3DB
100
AcDbEntity
  8
DRAFT
100
AcDbLine
 62
7
  6
CONTINUOUS
 10
19.5
 20
-22.4087268678
 11
19.4991695146
 21
-22.4074811221
  0
LINE
  5
3DC
100
AcDbEntity
  8
RACCORDO
100
AcDbLine
 62
7
  6
CONTINUOUS
 10
6.8529258382
 20
23.7970741618
 11
6.8529258382
 21
22.3736436632
  0
LINE
  5
3DD
100
AcDbEntity
  8
RACCORDO
100
AcDbLine
 62
7
  6
CONTINUOUS
 10
6.8529258382
 20
-22.3736436632
 11
6.8529258382
 21
-23.7970741618
  0
LINE
  5
3DE
100
AcDbEntity
  8
0
100
AcDbLine
 62
253
  6
CONTINUOUS
 10
7.0
 20
-15.25
 11
7.0
 21
-16.5
  0
LINE
  5
3DF
100
AcDbEntity
  8
0
100
AcDbLine
 62
253
  6
CONTINUOUS
 10
7.0
 20
-12.75
 11
7.0
 21
-11.5
  0
LINE
  5
3E0
100
AcDbEntity
  8
RACCORDO
100
AcDbLine
 62
253
  6
CONTINUOUS
 10
7.3529173766
 20
23.5953423515
 11
7.3529173766
 21
22.3475922207
  0
LINE
  5
3E1
100
AcDbEntity
  8
RACCORDO
100
AcDbLine
 62
253
  6
CONTINUOUS
 10
7.3529173766
 20
-22.3475922207
 11
7.3529173766
 21
-23.5953423515
  0
LINE
  5
3E2
100
AcDbEntity
  8
0
100
AcDbLine
 62
253
  6
CONTINUOUS
 10
9.0000283268
 20
12.650008494
 11
9.0000373193
 21
13.6499999998
  0
LINE
  5
3E3
100
AcDbEntity
  8
0
100
AcDbLine
 62
253
  6
CONTINUOUS
 10
9.0000373193
 20
5.3500000002
 11
9.0000283268
 21
6.349991506
  0
LINE
  5
3E4
100
AcDbEntity
  8
DRAFT
100
AcDbLine
 62
7
  6
CONTINUOUS
 10
-0.5991695146
 20
-22.4074811221
 11
-0.6
 21
-22.4087268678
  0
LINE
  5
3E5
100
AcDbEntity
  8
DRAFT
100
AcDbLine
 62
7
  6
CONTINUOUS
 10
-0.6
 20
22.4087268678
 11
-0.5991695146
 21
22.4074811221
  0
LINE
  5
3E6
100
AcDbEntity
  8
0
100
AcDbLine
 62
253
  6
CONTINUOUS
 10
14.0
 20
-15.25
 11
14.0
 21
-16.5
  0
LINE
  5
3E7
100
AcDbEntity
  8
0
100
AcDbLine
 62
253
  6
CONTINUOUS
 10
14.0
 20
-12.75
 11
14.0
 21
-11.5
  0
LINE
  5
3E8
100
AcDbEntity
  8
RACCORDO
100
AcDbLine
 62
253
  6
CONTINUOUS
 10
15.1470826234
 20
-23.5953423515
 11
15.1470826234
 21
-22.3475922207
  0
LINE
  5
3E9
100
AcDbEntity
  8
RACCORDO
100
AcDbLine
 62
253
  6
CONTINUOUS
 10
15.1470826234
 20
22.3475922207
 11
15.1470826234
 21
23.5953423515
  0
LINE
  5
3EA
100
AcDbEntity
  8
RACCORDO
100
AcDbLine
 62
7
  6
CONTINUOUS
 10
15.6470741618
 20
-23.7970741618
 11
15.6470741618
 21
-22.3736436632
  0
LINE
  5
3EB
100
AcDbEntity
  8
RACCORDO
100
AcDbLine
 62
7
  6
CONTINUOUS
 10
15.6470741618
 20
22.3736436632
 11
15.6470741618
 21
23.7970741618
  0
LINE
  5
3EC
100
AcDbEntity
  8
RACCORDO
100
AcDbLine
 62
253
  6
CONTINUOUS
 10
21.7492759622
 20
21.998725222
 11
21.85891534
 21
22.3279108386
  0
LINE
  5
3ED
100
AcDbEntity
  8
RACCORDO
100
AcDbLine
 62
253
  6
CONTINUOUS
 10
22.3850747787
 20
21.9073668507
 11
22.2491998097
 21
21.4994104546
  0
LINE
  5
3EE
100
AcDbEntity
  8
DRAFT
100
AcDbLine
 62
7
  6
CONTINUOUS
 10
3.0008304854
 20
-22.4074811221
 11
3.0
 21
-22.4087268678
  0
LINE
  5
3EF
100
AcDbEntity
  8
RACCORDO
100
AcDbLine
 62
253
  6
CONTINUOUS
 10
-3.0
 20
-24.2500042308
 11
-2.9869014213
 21
-24.2369056521
  0
LINE
  5
3F0
100
AcDbEntity
  8
RACCORDO
100
AcDbLine
 62
253
  6
CONTINUOUS
 10
-2.7500042308
 20
-24.5
 11
-2.7369056521
 21
-24.4869014213
  0
LINE
  5
3F1
100
AcDbEntity
  8
RACCORDO
100
AcDbLine
 62
253
  6
CONTINUOUS
 10
-3.0
 20
24.2500042308
 11
-2.9869014213
 21
24.2369056521
  0
LINE
  5
3F2
100
AcDbEntity
  8
RACCORDO
100
AcDbLine
 62
253
  6
CONTINUOUS
 10
-2.7500042308
 20
24.5
 11
-2.7369056521
 21
24.4869014213
  0
LINE
  5
3F3
100
AcDbEntity
  8
DRAFT
100
AcDbLine
 62
7
  6
CONTINUOUS
 10
3.0
 20
22.4087268678
 11
3.0008304854
 21
22.4074811221
  0
LINE
  5
3F4
100
AcDbEntity
  8
RACCORDO
100
AcDbLine
 62
253
  6
CONTINUOUS
 10
21.85891534
 20
-22.3279108386
 11
21.7492759622
 21
-21.998725222
  0
LINE
  5
3F5
100
AcDbEntity
  8
RACCORDO
100
AcDbLine
 62
253
  6
CONTINUOUS
 10
22.2491998097
 20
-21.4994104546
 11
22.3850747787
 21
-21.9073668507
  0
LINE
  5
3F6
100
AcDbEntity
  8
RACCORDO
100
AcDbLine
 62
253
  6
CONTINUOUS
 10
0.6
 20
-24.2500042308
 11
0.6130985787
 21
-24.2369056521
  0
LINE
  5
3F7
100
AcDbEntity
  8
RACCORDO
100
AcDbLine
 62
253
  6
CONTINUOUS
 10
0.8499957692
 20
-24.5
 11
0.8630943479
 21
-24.4869014213
  0
LINE
  5
3F8
100
AcDbEntity
  8
RACCORDO
100
AcDbLine
 62
253
  6
CONTINUOUS
 10
0.6
 20
24.2500042308
 11
0.6130985787
 21
24.2369056521
  0
LINE
  5
3F9
100
AcDbEntity
  8
RACCORDO
100
AcDbLine
 62
253
  6
CONTINUOUS
 10
0.8499957692
 20
24.5
 11
0.8630943479
 21
24.4869014213
  0
LINE
  5
3FA
100
AcDbEntity
  8
RACCORDO
100
AcDbLine
 62
253
  6
CONTINUOUS
 10
19.5130985787
 20
-23.8443375673
 11
19.5072807489
 21
-23.2669872981
  0
LINE
  5
3FB
100
AcDbEntity
  8
RACCORDO
100
AcDbLine
 62
253
  6
CONTINUOUS
 10
19.7630943479
 20
-23.6278312164
 11
19.7580037468
 21
-23.1226497308
  0
LINE
  5
3FC
100
AcDbEntity
  8
RACCORDO
100
AcDbLine
 62
7
  6
CONTINUOUS
 10
19.5000167767
 20
23.4088202791
 11
19.5
 21
23.4104851482
  0
LINE
  5
3FD
100
AcDbEntity
  8
RACCORDO
100
AcDbLine
 62
7
  6
CONTINUOUS
 10
19.5
 20
-22.4087268678
 11
19.5
 21
-24.2500042308
  0
LINE
  5
3FE
100
AcDbEntity
  8
RACCORDO
100
AcDbLine
 62
7
  6
CONTINUOUS
 10
19.5
 20
22.4087268678
 11
19.5
 21
24.2500042308
  0
LINE
  5
3FF
100
AcDbEntity
  8
RACCORDO
100
AcDbLine
 62
7
  6
CONTINUOUS
 10
19.5072807489
 20
-23.2669872981
 11
19.5072807489
 21
-22.3344140523
  0
LINE
  5
400
100
AcDbEntity
  8
RACCORDO
100
AcDbLine
 62
7
  6
CONTINUOUS
 10
19.5072807489
 20
22.3344140523
 11
19.5072807489
 21
23.2669872981
  0
LINE
  5
401
100
AcDbEntity
  8
RACCORDO
100
AcDbLine
 62
7
  6
CONTINUOUS
 10
19.5130985787
 20
24.2369056521
 11
19.5130985787
 21
23.8443375673
  0
LINE
  5
402
100
AcDbEntity
  8
RACCORDO
100
AcDbLine
 62
7
  6
CONTINUOUS
 10
19.5130985787
 20
-24.2369056521
 11
19.5130985787
 21
-23.8443375673
  0
LINE
  5
403
100
AcDbEntity
  8
RACCORDO
100
AcDbLine
 62
253
  6
CONTINUOUS
 10
19.7572765181
 20
-23.1226497308
 11
19.7572765181
 21
-22.3213883311
  0
LINE
  5
404
100
AcDbEntity
  8
RACCORDO
100
AcDbLine
 62
253
  6
CONTINUOUS
 10
19.7572765181
 20
22.3213883311
 11
19.7572765181
 21
23.1226497308
  0
LINE
  5
405
100
AcDbEntity
  8
RACCORDO
100
AcDbLine
 62
253
  6
CONTINUOUS
 10
19.7630943479
 20
24.4869014213
 11
19.7630943479
 21
23.6278312164
  0
LINE
  5
406
100
AcDbEntity
  8
RACCORDO
100
AcDbLine
 62
253
  6
CONTINUOUS
 10
19.7630943479
 20
-24.4869014213
 11
19.7630943479
 21
-23.6278312164
  0
LINE
  5
407
100
AcDbEntity
  8
RACCORDO
100
AcDbLine
 62
7
  6
CONTINUOUS
 10
19.5
 20
-23.4104851482
 11
19.5000247688
 21
-23.408002872
  0
LINE
  5
408
100
AcDbEntity
  8
RACCORDO
100
AcDbLine
 62
253
  6
CONTINUOUS
 10
19.5130985787
 20
23.8443375673
 11
19.5072807489
 21
23.2669872981
  0
LINE
  5
409
100
AcDbEntity
  8
RACCORDO
100
AcDbLine
 62
253
  6
CONTINUOUS
 10
19.7630943479
 20
23.6278312164
 11
19.7580037468
 21
23.1226497308
  0
LINE
  5
40A
100
AcDbEntity
  8
RACCORDO
100
AcDbLine
 62
7
  6
CONTINUOUS
 10
21.8999915391
 20
-23.4096455153
 11
21.899983223
 21
-23.40882025
  0
LINE
  5
40B
100
AcDbEntity
  8
RACCORDO
100
AcDbLine
 62
253
  6
CONTINUOUS
 10
21.6369056521
 20
23.6278312164
 11
21.6419962532
 21
23.1226497308
  0
LINE
  5
40C
100
AcDbEntity
  8
RACCORDO
100
AcDbLine
 62
253
  6
CONTINUOUS
 10
21.8869014213
 20
23.8443375673
 11
21.8927192511
 21
23.2669872981
  0
LINE
  5
40D
100
AcDbEntity
  8
RACCORDO
100
AcDbLine
 62
253
  6
CONTINUOUS
 10
21.6369056521
 20
24.4869014213
 11
21.6369056521
 21
23.6278312164
  0
LINE
  5
40E
100
AcDbEntity
  8
RACCORDO
100
AcDbLine
 62
253
  6
CONTINUOUS
 10
21.6369056521
 20
-23.6278312164
 11
21.6369056521
 21
-24.4869014213
  0
LINE
  5
40F
100
AcDbEntity
  8
RACCORDO
100
AcDbLine
 62
253
  6
CONTINUOUS
 10
21.6427234819
 20
23.1226497308
 11
21.6427234819
 21
22.3213883311
  0
LINE
  5
410
100
AcDbEntity
  8
RACCORDO
100
AcDbLine
 62
253
  6
CONTINUOUS
 10
21.6427234819
 20
-22.3213883311
 11
21.6427234819
 21
-23.1226497308
  0
LINE
  5
411
100
AcDbEntity
  8
RACCORDO
100
AcDbLine
 62
7
  6
CONTINUOUS
 10
21.8869014213
 20
24.2369056521
 11
21.8869014213
 21
23.8443375673
  0
LINE
  5
412
100
AcDbEntity
  8
RACCORDO
100
AcDbLine
 62
7
  6
CONTINUOUS
 10
21.8869014213
 20
-23.8443375673
 11
21.8869014213
 21
-24.2369056521
  0
LINE
  5
413
100
AcDbEntity
  8
RACCORDO
100
AcDbLine
 62
7
  6
CONTINUOUS
 10
21.8927192511
 20
23.2669872981
 11
21.8927192511
 21
22.3334109614
  0
LINE
  5
414
100
AcDbEntity
  8
RACCORDO
100
AcDbLine
 62
7
  6
CONTINUOUS
 10
21.8927192511
 20
-22.3334109614
 11
21.8927192511
 21
-23.2669872981
  0
LINE
  5
415
100
AcDbEntity
  8
RACCORDO
100
AcDbLine
 62
7
  6
CONTINUOUS
 10
21.9
 20
-22.4084168358
 11
21.9
 21
-24.2500042308
  0
LINE
  5
416
100
AcDbEntity
  8
RACCORDO
100
AcDbLine
 62
7
  6
CONTINUOUS
 10
21.9
 20
22.4084168358
 11
21.9
 21
24.2500042308
  0
LINE
  5
417
100
AcDbEntity
  8
DRAFT
100
AcDbLine
 62
7
  6
CONTINUOUS
 10
22.4
 20
18.1215728753
 11
22.4
 21
-18.1215728753
  0
LINE
  5
418
100
AcDbEntity
  8
ASSI
100
AcDbLine
 62
7
  6
CONTINUOUS
 10
22.4
 20
18.1215728753
 11
22.4
 21
-18.1215728753
  0
LINE
  5
419
100
AcDbEntity
  8
RACCORDO
100
AcDbLine
 62
7
  6
CONTINUOUS
 10
22.4
 20
21.8999048084
 11
22.4
 21
-21.8999048084
  0
LINE
  5
41A
100
AcDbEntity
  8
RACCORDO
100
AcDbLine
 62
7
  6
CONTINUOUS
 10
21.9
 20
23.4104851482
 11
21.8999752312
 21
23.408002872
  0
LINE
  5
41B
100
AcDbEntity
  8
RACCORDO
100
AcDbLine
 62
253
  6
CONTINUOUS
 10
21.6419962532
 20
-23.1226497308
 11
21.6369056521
 21
-23.6278312164
  0
LINE
  5
41C
100
AcDbEntity
  8
RACCORDO
100
AcDbLine
 62
253
  6
CONTINUOUS
 10
21.8927192511
 20
-23.2669872981
 11
21.8869014213
 21
-23.8443375673
  0
LINE
  5
41D
100
AcDbEntity
  8
RACCORDO
100
AcDbLine
 62
7
  6
CONTINUOUS
 10
19.4991695146
 20
-22.4074811221
 11
19.5072807489
 21
-22.3344140523
  0
LINE
  5
41E
100
AcDbEntity
  8
RACCORDO
100
AcDbLine
 62
253
  6
CONTINUOUS
 10
-21.7327491915
 20
20.5624683248
 11
21.7327491915
 21
20.5624683248
  0
LINE
  5
41F
100
AcDbEntity
  8
RACCORDO
100
AcDbLine
 62
253
  6
CONTINUOUS
 10
-21.7492759622
 20
21.998725222
 11
21.7492759622
 21
21.998725222
  0
LINE
  5
420
100
AcDbEntity
  8
RACCORDO
100
AcDbLine
 62
7
  6
CONTINUOUS
 10
-21.6427234819
 20
22.3213883311
 11
-19.7572765181
 21
22.3213883311
  0
LINE
  5
421
100
AcDbEntity
  8
RACCORDO
100
AcDbLine
 62
7
  6
CONTINUOUS
 10
-2.7427234819
 20
22.3213883311
 11
-0.8572765181
 21
22.3213883311
  0
LINE
  5
422
100
AcDbEntity
  8
RACCORDO
100
AcDbLine
 62
7
  6
CONTINUOUS
 10
0.8572765181
 20
22.3213883311
 11
2.7427234819
 21
22.3213883311
  0
LINE
  5
423
100
AcDbEntity
  8
RACCORDO
100
AcDbLine
 62
7
  6
CONTINUOUS
 10
19.7572765181
 20
22.3213883311
 11
21.6427234819
 21
22.3213883311
  0
LINE
  5
424
100
AcDbEntity
  8
RACCORDO
100
AcDbLine
 62
7
  6
CONTINUOUS
 10
15.1470826234
 20
22.3475922207
 11
7.3529173766
 21
22.3475922207
  0
LINE
  5
425
100
AcDbEntity
  8
RACCORDO
100
AcDbLine
 62
7
  6
CONTINUOUS
 10
-7.3529173766
 20
22.3475922207
 11
-15.1470826234
 21
22.3475922207
  0
LINE
  5
426
100
AcDbEntity
  8
DRAFT
100
AcDbLine
 62
7
  6
CONTINUOUS
 10
19.4991695146
 20
22.4074811221
 11
15.6491695146
 21
22.4074811221
  0
LINE
  5
427
100
AcDbEntity
  8
DRAFT
100
AcDbLine
 62
7
  6
CONTINUOUS
 10
6.8508304854
 20
22.4074811221
 11
3.0008304854
 21
22.4074811221
  0
LINE
  5
428
100
AcDbEntity
  8
DRAFT
100
AcDbLine
 62
7
  6
CONTINUOUS
 10
0.5991695146
 20
22.4074811221
 11
-0.5991695146
 21
22.4074811221
  0
LINE
  5
429
100
AcDbEntity
  8
DRAFT
100
AcDbLine
 62
7
  6
CONTINUOUS
 10
-3.0008304854
 20
22.4074811221
 11
-6.8508304854
 21
22.4074811221
  0
LINE
  5
42A
100
AcDbEntity
  8
DRAFT
100
AcDbLine
 62
7
  6
CONTINUOUS
 10
-15.6491695146
 20
22.4074811221
 11
-19.4991695146
 21
22.4074811221
  0
LINE
  5
42B
100
AcDbEntity
  8
RACCORDO
100
AcDbLine
 62
7
  6
CONTINUOUS
 10
-21.6427234819
 20
23.1226497308
 11
-19.7572765181
 21
23.1226497308
  0
LINE
  5
42C
100
AcDbEntity
  8
RACCORDO
100
AcDbLine
 62
7
  6
CONTINUOUS
 10
-2.7427234819
 20
23.1226497308
 11
-0.8572765181
 21
23.1226497308
  0
LINE
  5
42D
100
AcDbEntity
  8
RACCORDO
100
AcDbLine
 62
7
  6
CONTINUOUS
 10
0.8572765181
 20
23.1226497308
 11
2.7427234819
 21
23.1226497308
  0
LINE
  5
42E
100
AcDbEntity
  8
RACCORDO
100
AcDbLine
 62
7
  6
CONTINUOUS
 10
19.7572765181
 20
23.1226497308
 11
21.6427234819
 21
23.1226497308
  0
LINE
  5
42F
100
AcDbEntity
  8
RACCORDO
100
AcDbLine
 62
253
  6
CONTINUOUS
 10
15.1470826234
 20
23.5953423515
 11
7.3529173766
 21
23.5953423515
  0
LINE
  5
430
100
AcDbEntity
  8
RACCORDO
100
AcDbLine
 62
253
  6
CONTINUOUS
 10
-7.3529173766
 20
23.5953423515
 11
-15.1470826234
 21
23.5953423515
  0
LINE
  5
431
100
AcDbEntity
  8
RACCORDO
100
AcDbLine
 62
253
  6
CONTINUOUS
 10
-21.6369056521
 20
23.6278312164
 11
-19.7630943479
 21
23.6278312164
  0
LINE
  5
432
100
AcDbEntity
  8
RACCORDO
100
AcDbLine
 62
253
  6
CONTINUOUS
 10
-2.7369056521
 20
23.6278312164
 11
-0.8630943479
 21
23.6278312164
  0
LINE
  5
433
100
AcDbEntity
  8
RACCORDO
100
AcDbLine
 62
253
  6
CONTINUOUS
 10
0.8630943479
 20
23.6278312164
 11
2.7369056521
 21
23.6278312164
  0
LINE
  5
434
100
AcDbEntity
  8
RACCORDO
100
AcDbLine
 62
253
  6
CONTINUOUS
 10
19.7630943479
 20
23.6278312164
 11
21.6369056521
 21
23.6278312164
  0
LINE
  5
435
100
AcDbEntity
  8
RACCORDO
100
AcDbLine
 62
7
  6
CONTINUOUS
 10
15.5462073137
 20
23.7953389668
 11
6.9537926863
 21
23.7953389668
  0
LINE
  5
436
100
AcDbEntity
  8
RACCORDO
100
AcDbLine
 62
7
  6
CONTINUOUS
 10
-6.9537926863
 20
23.7953389668
 11
-15.5462073137
 21
23.7953389668
  0
LINE
  5
437
100
AcDbEntity
  8
RACCORDO
100
AcDbLine
 62
253
  6
CONTINUOUS
 10
0.6130985787
 20
23.8443375673
 11
2.9869014213
 21
23.8443375673
  0
LINE
  5
438
100
AcDbEntity
  8
RACCORDO
100
AcDbLine
 62
253
  6
CONTINUOUS
 10
-0.6130985787
 20
23.8443375673
 11
-2.9869014213
 21
23.8443375673
  0
LINE
  5
439
100
AcDbEntity
  8
RACCORDO
100
AcDbLine
 62
253
  6
CONTINUOUS
 10
19.5130985787
 20
23.8443375673
 11
21.8869014213
 21
23.8443375673
  0
LINE
  5
43A
100
AcDbEntity
  8
RACCORDO
100
AcDbLine
 62
253
  6
CONTINUOUS
 10
-19.5130985787
 20
23.8443375673
 11
-21.8869014213
 21
23.8443375673
  0
LINE
  5
43B
100
AcDbEntity
  8
RACCORDO
100
AcDbLine
 62
253
  6
CONTINUOUS
 10
21.8869014213
 20
24.2369056521
 11
19.5130985787
 21
24.2369056521
  0
LINE
  5
43C
100
AcDbEntity
  8
RACCORDO
100
AcDbLine
 62
253
  6
CONTINUOUS
 10
2.9869014213
 20
24.2369056521
 11
0.6130985787
 21
24.2369056521
  0
LINE
  5
43D
100
AcDbEntity
  8
RACCORDO
100
AcDbLine
 62
253
  6
CONTINUOUS
 10
-0.6130985787
 20
24.2369056521
 11
-2.9869014213
 21
24.2369056521
  0
LINE
  5
43E
100
AcDbEntity
  8
RACCORDO
100
AcDbLine
 62
253
  6
CONTINUOUS
 10
-19.5130985787
 20
24.2369056521
 11
-21.8869014213
 21
24.2369056521
  0
LINE
  5
43F
100
AcDbEntity
  8
RACCORDO
100
AcDbLine
 62
7
  6
CONTINUOUS
 10
21.6369056521
 20
24.4869014213
 11
19.7630943479
 21
24.4869014213
  0
LINE
  5
440
100
AcDbEntity
  8
RACCORDO
100
AcDbLine
 62
7
  6
CONTINUOUS
 10
2.7369056521
 20
24.4869014213
 11
0.8630943479
 21
24.4869014213
  0
LINE
  5
441
100
AcDbEntity
  8
RACCORDO
100
AcDbLine
 62
7
  6
CONTINUOUS
 10
-0.8630943479
 20
24.4869014213
 11
-2.7369056521
 21
24.4869014213
  0
LINE
  5
442
100
AcDbEntity
  8
RACCORDO
100
AcDbLine
 62
7
  6
CONTINUOUS
 10
-19.7630943479
 20
24.4869014213
 11
-21.6369056521
 21
24.4869014213
  0
LINE
  5
443
100
AcDbEntity
  8
RACCORDO
100
AcDbLine
 62
7
  6
CONTINUOUS
 10
-21.6500042308
 20
24.5
 11
-19.7499957692
 21
24.5
  0
LINE
  5
444
100
AcDbEntity
  8
RACCORDO
100
AcDbLine
 62
7
  6
CONTINUOUS
 10
-2.7500042308
 20
24.5
 11
-0.8499957692
 21
24.5
  0
LINE
  5
445
100
AcDbEntity
  8
RACCORDO
100
AcDbLine
 62
7
  6
CONTINUOUS
 10
0.8499957692
 20
24.5
 11
2.7500042308
 21
24.5
  0
LINE
  5
446
100
AcDbEntity
  8
RACCORDO
100
AcDbLine
 62
7
  6
CONTINUOUS
 10
19.7499957692
 20
24.5
 11
21.6500042308
 21
24.5
  0
LINE
  5
447
100
AcDbEntity
  8
RACCORDO
100
AcDbLine
 62
7
  6
CONTINUOUS
 10
21.9
 20
-22.4084168358
 11
21.9008289253
 21
-22.407229086
  0
LINE
  5
448
100
AcDbEntity
  8
RACCORDO
100
AcDbLine
 62
253
  6
CONTINUOUS
 10
19.5
 20
-24.2500042308
 11
19.5130985787
 21
-24.2369056521
  0
LINE
  5
449
100
AcDbEntity
  8
RACCORDO
100
AcDbLine
 62
253
  6
CONTINUOUS
 10
19.7499957692
 20
-24.5
 11
19.7630943479
 21
-24.4869014213
  0
LINE
  5
44A
100
AcDbEntity
  8
RACCORDO
100
AcDbLine
 62
253
  6
CONTINUOUS
 10
22.3850747787
 20
-21.9073668507
 11
22.4
 21
-21.8999048084
  0
LINE
  5
44B
100
AcDbEntity
  8
RACCORDO
100
AcDbLine
 62
253
  6
CONTINUOUS
 10
22.4
 20
21.8999048084
 11
22.3850747787
 21
21.9073668507
  0
LINE
  5
44C
100
AcDbEntity
  8
RACCORDO
100
AcDbLine
 62
253
  6
CONTINUOUS
 10
19.5
 20
24.2500042308
 11
19.5130985787
 21
24.2369056521
  0
LINE
  5
44D
100
AcDbEntity
  8
RACCORDO
100
AcDbLine
 62
253
  6
CONTINUOUS
 10
19.7499957692
 20
24.5
 11
19.7630943479
 21
24.4869014213
  0
LINE
  5
44E
100
AcDbEntity
  8
RACCORDO
100
AcDbLine
 62
7
  6
CONTINUOUS
 10
21.9
 20
22.4084168358
 11
21.9008289253
 21
22.407229086
  0
LINE
  5
44F
100
AcDbEntity
  8
RACCORDO
100
AcDbLine
 62
253
  6
CONTINUOUS
 10
-76.4625909563
 20
23.4104851482
 11
-75.7111365235
 21
23.8443375673
  0
LINE
  5
450
100
AcDbEntity
  8
RACCORDO
100
AcDbLine
 62
7
  6
CONTINUOUS
 10
-76.4625909563
 20
23.1226497308
 11
-75.5875909563
 21
23.6278312164
  0
LINE
  5
451
100
AcDbEntity
  8
RACCORDO
100
AcDbLine
 62
253
  6
CONTINUOUS
 10
-75.7111365235
 20
-23.8443375673
 11
-76.4625909563
 21
-23.4104851482
  0
LINE
  5
452
100
AcDbEntity
  8
RACCORDO
100
AcDbLine
 62
7
  6
CONTINUOUS
 10
-75.5875909563
 20
-23.6278312164
 11
-76.4625909563
 21
-23.1226497308
  0
LINE
  5
453
100
AcDbEntity
  8
0
100
AcDbLine
 62
7
  6
CONTINUOUS
 10
-87.3875909563
 20
12.65
 11
-87.3875909563
 21
6.35
  0
LINE
  5
454
100
AcDbEntity
  8
0
100
AcDbLine
 62
253
  6
CONTINUOUS
 10
-86.3875909563
 20
13.6499999998
 11
-86.3875909563
 21
5.3500000002
  0
LINE
  5
455
100
AcDbEntity
  8
RACCORDO
100
AcDbLine
 62
7
  6
CONTINUOUS
 10
-76.4625909563
 20
-24.5
 11
-75.7111365235
 21
-24.495628166
  0
LINE
  5
456
100
AcDbEntity
  8
RACCORDO
100
AcDbLine
 62
253
  6
CONTINUOUS
 10
-76.4625909563
 20
-24.2500042308
 11
-75.7111365235
 21
-24.2456323968
  0
LINE
  5
457
100
AcDbEntity
  8
ASSI
100
AcDbLine
 62
7
  6
CONTINUOUS
 10
-75.462882742
 20
-23.7941838677
 11
-68.9596820907
 21
-23.7563493531
  0
LINE
  5
458
100
AcDbEntity
  8
RACCORDO
100
AcDbLine
 62
253
  6
CONTINUOUS
 10
-75.7111365235
 20
-24.2456323968
 11
-75.4625909563
 21
-24.2456323968
  0
LINE
  5
459
100
AcDbEntity
  8
RACCORDO
100
AcDbLine
 62
253
  6
CONTINUOUS
 10
-78.7140453892
 20
-24.2369056521
 11
-78.9625909563
 21
-24.2369056521
  0
LINE
  5
45A
100
AcDbEntity
  8
RACCORDO
100
AcDbLine
 62
253
  6
CONTINUOUS
 10
-75.7111365235
 20
-23.8443375673
 11
-75.4625909563
 21
-23.8443375673
  0
LINE
  5
45B
100
AcDbEntity
  8
RACCORDO
100
AcDbLine
 62
253
  6
CONTINUOUS
 10
-78.7140453892
 20
-23.8443375673
 11
-78.9625909563
 21
-23.8443375673
  0
LINE
  5
45C
100
AcDbEntity
  8
RACCORDO
100
AcDbLine
 62
7
  6
CONTINUOUS
 10
-78.7140453892
 20
-24.4869014213
 11
-76.4625909563
 21
-24.5
  0
LINE
  5
45D
100
AcDbEntity
  8
RACCORDO
100
AcDbLine
 62
253
  6
CONTINUOUS
 10
-78.7140453892
 20
-24.2369056521
 11
-76.4625909563
 21
-24.2500042308
  0
LINE
  5
45E
100
AcDbEntity
  8
RACCORDO
100
AcDbLine
 62
7
  6
CONTINUOUS
 10
-77.8381340983
 20
-22.3279108386
 11
-84.1193698452
 21
-21.998725222
  0
LINE
  5
45F
100
AcDbEntity
  8
RACCORDO
100
AcDbLine
 62
253
  6
CONTINUOUS
 10
-84.1019280703
 20
-21.4994104546
 11
-76.3176563134
 21
-21.9073668507
  0
LINE
  5
460
100
AcDbEntity
  8
RACCORDO
100
AcDbLine
 62
7
  6
CONTINUOUS
 10
-76.4621161927
 20
-22.3997331273
 11
-76.4751463169
 21
-22.3990450391
  0
LINE
  5
461
100
AcDbEntity
  8
DRAFT
100
AcDbLine
 62
7
  6
CONTINUOUS
 10
-66.1006000105
 20
-22.2529300939
 11
-65.4625909563
 21
-22.2429074468
  0
LINE
  5
462
100
AcDbEntity
  8
ASSI
100
AcDbLine
 62
7
  6
CONTINUOUS
 10
-66.1006000105
 20
-22.2529300939
 11
-65.4625909563
 21
-22.2429074468
  0
LINE
  5
463
100
AcDbEntity
  8
RACCORDO
100
AcDbLine
 62
7
  6
CONTINUOUS
 10
-66.4538644208
 20
-22.3213820346
 11
-76.4625909563
 21
-22.4087268678
  0
LINE
  5
464
100
AcDbEntity
  8
RACCORDO
100
AcDbLine
 62
253
  6
CONTINUOUS
 10
-76.3176563134
 20
-21.9073668507
 11
-75.4625909563
 21
-21.8999048084
  0
LINE
  5
465
100
AcDbEntity
  8
RACCORDO
100
AcDbLine
 62
7
  6
CONTINUOUS
 10
-65.4625909563
 20
-20.9872686779
 11
-75.4625909563
 21
-20.9
  0
LINE
  5
466
100
AcDbEntity
  8
RACCORDO
100
AcDbLine
 62
7
  6
CONTINUOUS
 10
-65.9538647531
 20
-21.5659754333
 11
-75.4625909563
 21
-21.4
  0
LINE
  5
467
100
AcDbEntity
  8
RACCORDO
100
AcDbLine
 62
253
  6
CONTINUOUS
 10
-85.048746126
 20
-20.5419058565
 11
-85.5395827878
 21
-20.5624677401
  0
LINE
  5
468
100
AcDbEntity
  8
DRAFT
100
AcDbLine
 62
7
  6
CONTINUOUS
 10
-65.4625909563
 20
-20.1429074468
 11
-75.4625909563
 21
-20.3
  0
LINE
  5
469
100
AcDbEntity
  8
ASSI
100
AcDbLine
 62
7
  6
CONTINUOUS
 10
-65.4625909563
 20
-20.1429074468
 11
-75.4625909563
 21
-20.3
  0
LINE
  5
46A
100
AcDbEntity
  8
RACCORDO
100
AcDbLine
 62
7
  6
CONTINUOUS
 10
-65.4625909563
 20
-19.5429074468
 11
-40.3484543708
 21
-19.1483830629
  0
LINE
  5
46B
100
AcDbEntity
  8
ASSI
100
AcDbLine
 62
7
  6
CONTINUOUS
 10
-65.4625909563
 20
-19.5429074468
 11
-40.3484543708
 21
-19.1483830629
  0
LINE
  5
46C
100
AcDbEntity
  8
0
100
AcDbLine
 62
7
  6
CONTINUOUS
 10
-60.2578041965
 20
-19.4611441226
 11
-53.6578787611
 21
-19.3574642089
  0
LINE
  5
46D
100
AcDbEntity
  8
RACCORDO
100
AcDbLine
 62
253
  6
CONTINUOUS
 10
-75.4625909563
 20
-19.5357864376
 11
-65.4625909563
 21
-19.424705228
  0
LINE
  5
46E
100
AcDbEntity
  8
ASSI
100
AcDbLine
 62
253
  6
CONTINUOUS
 10
-75.4625909563
 20
-19.5357864376
 11
-65.4625909563
 21
-19.424705228
  0
LINE
  5
46F
100
AcDbEntity
  8
RACCORDO
100
AcDbLine
 62
253
  6
CONTINUOUS
 10
-39.4625909563
 20
-18.1215728753
 11
-75.4625909563
 21
-18.1215728753
  0
LINE
  5
470
100
AcDbEntity
  8
ASSI
100
AcDbLine
 62
253
  6
CONTINUOUS
 10
-39.4625909563
 20
-18.1215728753
 11
-75.4625909563
 21
-18.1215728753
  0
LINE
  5
471
100
AcDbEntity
  8
CURVE
100
AcDbLine
 62
7
  6
CONTINUOUS
 10
-72.8632334276
 20
14.7853985748
 11
-72.5466082316
 21
15.1020237708
  0
LINE
  5
472
100
AcDbEntity
  8
CURVE
100
AcDbLine
 62
7
  6
CONTINUOUS
 10
-72.8632334276
 20
14.3653771467
 11
-71.9027055067
 21
15.3259050676
  0
LINE
  5
473
100
AcDbEntity
  8
CURVE
100
AcDbLine
 62
7
  6
CONTINUOUS
 10
-72.6373789744
 20
14.171210172
 11
-72.229520624
 21
14.5790685223
  0
LINE
  5
474
100
AcDbEntity
  8
CURVE
100
AcDbLine
 62
7
  6
CONTINUOUS
 10
-72.1514965329
 20
14.6570926135
 11
-71.2588027819
 21
15.5497863644
  0
LINE
  5
475
100
AcDbEntity
  8
CURVE
100
AcDbLine
 62
7
  6
CONTINUOUS
 10
-72.3289074752
 20
14.0596602431
 11
-71.917073912
 21
14.4714938063
  0
LINE
  5
476
100
AcDbEntity
  8
CURVE
100
AcDbLine
 62
7
  6
CONTINUOUS
 10
-71.5325022306
 20
14.8560654877
 11
-70.6149000571
 21
15.7736676612
  0
LINE
  5
477
100
AcDbEntity
  8
CURVE
100
AcDbLine
 62
7
  6
CONTINUOUS
 10
-72.020435976
 20
13.9481103143
 11
-71.6046272
 21
14.3639190903
  0
LINE
  5
478
100
AcDbEntity
  8
CURVE
100
AcDbLine
 62
7
  6
CONTINUOUS
 10
-71.0602493693
 20
14.908296921
 11
-69.9709973322
 21
15.997548958
  0
LINE
  5
479
100
AcDbEntity
  8
CURVE
100
AcDbLine
 62
253
  6
CONTINUOUS
 10
-69.9639479153
 20
16.0
 11
-72.8632334276
 21
14.991935
  0
LINE
  5
47A
100
AcDbEntity
  8
CURVE
100
AcDbLine
 62
253
  6
CONTINUOUS
 10
-70.5784352717
 20
15.164584
 11
-69.9639479153
 21
15.373574
  0
LINE
  5
47B
100
AcDbEntity
  8
CURVE
100
AcDbLine
 62
253
  6
CONTINUOUS
 10
-72.3090461903
 20
14.606449
 11
-71.0602493693
 21
15.007869
  0
LINE
  5
47C
100
AcDbEntity
  8
CURVE
100
AcDbLine
 62
253
  6
CONTINUOUS
 10
-72.8702479563
 20
-14.22041
 11
-70.8743269563
 21
-14.790021
  0
LINE
  5
47D
100
AcDbEntity
  8
CURVE
100
AcDbLine
 62
253
  6
CONTINUOUS
 10
-69.9705949563
 20
-14.547617
 11
-72.8702479563
 21
-13.615552
  0
LINE
  5
47E
100
AcDbEntity
  8
RACCORDO
100
AcDbLine
 62
7
  6
CONTINUOUS
 10
-78.9625909563
 20
24.2369056521
 11
-78.9625909563
 21
23.8443375673
  0
LINE
  5
47F
100
AcDbEntity
  8
RACCORDO
100
AcDbLine
 62
7
  6
CONTINUOUS
 10
-78.9625909563
 20
-23.8443375673
 11
-78.9625909563
 21
-24.2369056521
  0
LINE
  5
480
100
AcDbEntity
  8
RACCORDO
100
AcDbLine
 62
253
  6
CONTINUOUS
 10
-78.7140453892
 20
24.2369056521
 11
-78.7140453892
 21
23.8443375673
  0
LINE
  5
481
100
AcDbEntity
  8
RACCORDO
100
AcDbLine
 62
253
  6
CONTINUOUS
 10
-78.7140453892
 20
-23.8443375673
 11
-78.7140453892
 21
-24.2369056521
  0
LINE
  5
482
100
AcDbEntity
  8
RACCORDO
100
AcDbLine
 62
7
  6
CONTINUOUS
 10
-77.9625909563
 20
23.1226497308
 11
-77.9625909563
 21
22.3213883311
  0
LINE
  5
483
100
AcDbEntity
  8
RACCORDO
100
AcDbLine
 62
7
  6
CONTINUOUS
 10
-77.9625909563
 20
-22.3213883311
 11
-77.9625909563
 21
-23.1226497308
  0
LINE
  5
484
100
AcDbEntity
  8
RACCORDO
100
AcDbLine
 62
253
  6
CONTINUOUS
 10
-77.7140453892
 20
23.2669872981
 11
-77.7140453892
 21
22.3334109614
  0
LINE
  5
485
100
AcDbEntity
  8
RACCORDO
100
AcDbLine
 62
253
  6
CONTINUOUS
 10
-77.7140453892
 20
-22.3334109614
 11
-77.7140453892
 21
-23.2669872981
  0
LINE
  5
486
100
AcDbEntity
  8
CURVE
100
AcDbLine
 62
7
  6
CONTINUOUS
 10
-72.8632334276
 20
12.6852914346
 11
-72.6373268623
 21
12.911198
  0
LINE
  5
487
100
AcDbEntity
  8
CURVE
100
AcDbLine
 62
7
  6
CONTINUOUS
 10
-71.7119644767
 20
13.8365603855
 11
-71.292180488
 21
14.2563443743
  0
LINE
  5
488
100
AcDbEntity
  8
CURVE
100
AcDbLine
 62
7
  6
CONTINUOUS
 10
-71.0602493693
 20
14.488275493
 11
-70.5784352717
 21
14.9700895905
  0
LINE
  5
489
100
AcDbEntity
  8
CURVE
100
AcDbLine
 62
7
  6
CONTINUOUS
 10
-70.2837000444
 20
15.2648248178
 11
-69.9639479153
 21
15.5845769469
  0
LINE
  5
48A
100
AcDbEntity
  8
CURVE
100
AcDbLine
 62
7
  6
CONTINUOUS
 10
-72.7997494342
 20
12.328754
 11
-72.2173054342
 21
12.911198
  0
LINE
  5
48B
100
AcDbEntity
  8
CURVE
100
AcDbLine
 62
7
  6
CONTINUOUS
 10
-71.4034929775
 20
13.7250104567
 11
-70.5784352717
 21
14.5500681625
  0
LINE
  5
48C
100
AcDbEntity
  8
CURVE
100
AcDbLine
 62
7
  6
CONTINUOUS
 10
-72.3797280062
 20
12.328754
 11
-71.7972840062
 21
12.911198
  0
LINE
  5
48D
100
AcDbEntity
  8
CURVE
100
AcDbLine
 62
7
  6
CONTINUOUS
 10
-71.0950214783
 20
13.6134605279
 11
-70.5784352717
 21
14.1300467345
  0
LINE
  5
48E
100
AcDbEntity
  8
CURVE
100
AcDbLine
 62
7
  6
CONTINUOUS
 10
-71.9597065782
 20
12.328754
 11
-71.3772625782
 21
12.911198
  0
LINE
  5
48F
100
AcDbEntity
  8
CURVE
100
AcDbLine
 62
7
  6
CONTINUOUS
 10
-70.7865499791
 20
13.5019105991
 11
-70.3524153967
 21
13.9360451815
  0
LINE
  5
490
100
AcDbEntity
  8
CURVE
100
AcDbLine
 62
253
  6
CONTINUOUS
 10
-68.1920594592
 20
16.0000010014
 11
-68.463454529
 21
15.7285721064
  0
LINE
  5
491
100
AcDbEntity
  8
CURVE
100
AcDbLine
 62
7
  6
CONTINUOUS
 10
-72.8632334276
 20
11.0052057225
 11
-72.4542402391
 21
11.4141989111
  0
LINE
  5
492
100
AcDbEntity
  8
CURVE
100
AcDbLine
 62
7
  6
CONTINUOUS
 10
-71.5396851502
 20
12.328754
 11
-70.9572411502
 21
12.911198
  0
LINE
  5
493
100
AcDbEntity
  8
CURVE
100
AcDbLine
 62
7
  6
CONTINUOUS
 10
-70.4780784799
 20
13.3903606702
 11
-70.0419943145
 21
13.8264448357
  0
LINE
  5
494
100
AcDbEntity
  8
CURVE
100
AcDbLine
 62
7
  6
CONTINUOUS
 10
-72.8632334276
 20
10.5851842945
 11
-71.6398315067
 21
11.8085862154
  0
LINE
  5
495
100
AcDbEntity
  8
CURVE
100
AcDbLine
 62
7
  6
CONTINUOUS
 10
-71.1196637221
 20
12.328754
 11
-70.5372197221
 21
12.911198
  0
LINE
  5
496
100
AcDbEntity
  8
CURVE
100
AcDbLine
 62
7
  6
CONTINUOUS
 10
-70.1696069807
 20
13.2788107414
 11
-69.9639479153
 21
13.4844698068
  0
LINE
  5
497
100
AcDbEntity
  8
CURVE
100
AcDbLine
 62
7
  6
CONTINUOUS
 10
-72.7360712941
 20
10.292325
 11
-72.1536262941
 21
10.87477
  0
LINE
  5
498
100
AcDbEntity
  8
CURVE
100
AcDbLine
 62
7
  6
CONTINUOUS
 10
-71.9392885354
 20
11.0891077587
 11
-70.8254227743
 21
12.2029735198
  0
LINE
  5
499
100
AcDbEntity
  8
CURVE
100
AcDbLine
 62
7
  6
CONTINUOUS
 10
-70.6996422941
 20
12.328754
 11
-70.1171982941
 21
12.911198
  0
LINE
  5
49A
100
AcDbEntity
  8
CURVE
100
AcDbLine
 62
7
  6
CONTINUOUS
 10
-72.3160498661
 20
10.292325
 11
-71.7336048661
 21
10.87477
  0
LINE
  5
49B
100
AcDbEntity
  8
CURVE
100
AcDbLine
 62
7
  6
CONTINUOUS
 10
-71.1391308686
 20
11.4692439975
 11
-69.9639479153
 21
12.6444269507
  0
LINE
  5
49C
100
AcDbEntity
  8
CURVE
100
AcDbLine
 62
253
  6
CONTINUOUS
 10
-68.463454529
 20
14.2357152224
 11
-68.1920594592
 21
14.416667366
  0
LINE
  5
49D
100
AcDbEntity
  8
CURVE
100
AcDbLine
 62
253
  6
CONTINUOUS
 10
-72.8632334276
 20
11.216139
 11
-70.5656864179
 21
12.328754
  0
LINE
  5
49E
100
AcDbEntity
  8
CURVE
100
AcDbLine
 62
253
  6
CONTINUOUS
 10
-69.9639479153
 20
12.027546
 11
-72.3904531007
 21
10.87477
  0
LINE
  5
49F
100
AcDbEntity
  8
RACCORDO
100
AcDbLine
 62
7
  6
CONTINUOUS
 10
-76.4625909563
 20
-22.4084168358
 11
-76.4625909563
 21
-24.2500042308
  0
LINE
  5
4A0
100
AcDbEntity
  8
RACCORDO
100
AcDbLine
 62
7
  6
CONTINUOUS
 10
-76.4625909563
 20
22.4084168358
 11
-76.4625909563
 21
24.2500042308
  0
LINE
  5
4A1
100
AcDbEntity
  8
RACCORDO
100
AcDbLine
 62
253
  6
CONTINUOUS
 10
-75.7111365235
 20
-24.2456323968
 11
-75.7111365235
 21
-23.8443375673
  0
LINE
  5
4A2
100
AcDbEntity
  8
RACCORDO
100
AcDbLine
 62
253
  6
CONTINUOUS
 10
-75.7111365235
 20
23.8443375673
 11
-75.7111365235
 21
24.2456323968
  0
LINE
  5
4A3
100
AcDbEntity
  8
DRAFT
100
AcDbLine
 62
7
  6
CONTINUOUS
 10
-75.4625909563
 20
18.1215728753
 11
-75.4625909563
 21
-18.1215728753
  0
LINE
  5
4A4
100
AcDbEntity
  8
ASSI
100
AcDbLine
 62
7
  6
CONTINUOUS
 10
-75.4625909563
 20
18.1215728753
 11
-75.4625909563
 21
-18.1215728753
  0
LINE
  5
4A5
100
AcDbEntity
  8
RACCORDO
100
AcDbLine
 62
7
  6
CONTINUOUS
 10
-75.4625909563
 20
-24.2456323968
 11
-75.4625909563
 21
-23.8443375673
  0
LINE
  5
4A6
100
AcDbEntity
  8
RACCORDO
100
AcDbLine
 62
7
  6
CONTINUOUS
 10
-75.4625909563
 20
22.4
 11
-75.4625909563
 21
-22.4
  0
LINE
  5
4A7
100
AcDbEntity
  8
RACCORDO
100
AcDbLine
 62
7
  6
CONTINUOUS
 10
-75.4625909563
 20
23.8443375673
 11
-75.4625909563
 21
24.2456323968
  0
LINE
  5
4A8
100
AcDbEntity
  8
CURVE
100
AcDbLine
 62
253
  6
CONTINUOUS
 10
-67.6492693196
 20
13.8285721064
 11
-67.7849667979
 21
13.6476199627
  0
LINE
  5
4A9
100
AcDbEntity
  8
CURVE
100
AcDbLine
 62
7
  6
CONTINUOUS
 10
-71.8960284381
 20
10.292325
 11
-71.3135834381
 21
10.87477
  0
LINE
  5
4AA
100
AcDbEntity
  8
CURVE
100
AcDbLine
 62
7
  6
CONTINUOUS
 10
-70.3389732018
 20
11.8493802362
 11
-69.9639479153
 21
12.2244055227
  0
LINE
  5
4AB
100
AcDbEntity
  8
CURVE
100
AcDbLine
 62
253
  6
CONTINUOUS
 10
-67.6492693196
 20
14.2357152224
 11
-67.3778741932
 21
14.5071436644
  0
LINE
  5
4AC
100
AcDbEntity
  8
CURVE
100
AcDbLine
 62
7
  6
CONTINUOUS
 10
-72.8632334276
 20
8.9050985824
 11
-72.7684849406
 21
8.9998470695
  0
LINE
  5
4AD
100
AcDbEntity
  8
CURVE
100
AcDbLine
 62
7
  6
CONTINUOUS
 10
-71.47600701
 20
10.292325
 11
-70.89356201
 21
10.87477
  0
LINE
  5
4AE
100
AcDbEntity
  8
CURVE
100
AcDbLine
 62
7
  6
CONTINUOUS
 10
-72.8632334276
 20
8.4850771544
 11
-72.1245451024
 21
9.2237654796
  0
LINE
  5
4AF
100
AcDbEntity
  8
CURVE
100
AcDbLine
 62
7
  6
CONTINUOUS
 10
-71.055985582
 20
10.292325
 11
-70.473540582
 21
10.87477
  0
LINE
  5
4B0
100
AcDbEntity
  8
CURVE
100
AcDbLine
 62
7
  6
CONTINUOUS
 10
-72.7436717377
 20
8.1846174163
 11
-71.4806052643
 21
9.4476838897
  0
LINE
  5
4B1
100
AcDbEntity
  8
CURVE
100
AcDbLine
 62
7
  6
CONTINUOUS
 10
-70.635964154
 20
10.292325
 11
-70.053519154
 21
10.87477
  0
LINE
  5
4B2
100
AcDbEntity
  8
CURVE
100
AcDbLine
 62
7
  6
CONTINUOUS
 10
-72.4351917211
 20
8.0730760049
 11
-72.024739478
 21
8.483528248
  0
LINE
  5
4B3
100
AcDbEntity
  8
CURVE
100
AcDbLine
 62
7
  6
CONTINUOUS
 10
-71.7456400126
 20
8.7626277134
 11
-70.8366654261
 21
9.6716022998
  0
LINE
  5
4B4
100
AcDbEntity
  8
CURVE
100
AcDbLine
 62
7
  6
CONTINUOUS
 10
-70.215942726
 20
10.292325
 11
-69.9639479153
 21
10.5443198106
  0
LINE
  5
4B5
100
AcDbEntity
  8
CURVE
100
AcDbLine
 62
253
  6
CONTINUOUS
 10
-67.3778741932
 20
13.0142865539
 11
-67.6492693196
 21
12.7428581119
  0
LINE
  5
4B6
100
AcDbEntity
  8
CURVE
100
AcDbLine
 62
253
  6
CONTINUOUS
 10
-66.5636889273
 20
13.8285721064
 11
-66.8350840253
 21
13.5571436644
  0
LINE
  5
4B7
100
AcDbEntity
  8
CURVE
100
AcDbLine
 62
7
  6
CONTINUOUS
 10
-72.1267117045
 20
7.9615345934
 11
-71.7122928681
 21
8.3759534298
  0
LINE
  5
4B8
100
AcDbEntity
  8
CURVE
100
AcDbLine
 62
7
  6
CONTINUOUS
 10
-71.1266462245
 20
8.9616000734
 11
-70.192725588
 21
9.8955207099
  0
LINE
  5
4B9
100
AcDbEntity
  8
CURVE
100
AcDbLine
 62
7
  6
CONTINUOUS
 10
-71.8182316879
 20
7.849993182
 11
-71.3998462583
 21
8.2683786116
  0
LINE
  5
4BA
100
AcDbEntity
  8
CURVE
100
AcDbLine
 62
7
  6
CONTINUOUS
 10
-71.0602493693
 20
8.6079755006
 11
-70.5784352717
 21
9.0897895982
  0
LINE
  5
4BB
100
AcDbEntity
  8
CURVE
100
AcDbLine
 62
7
  6
CONTINUOUS
 10
-70.5030503617
 20
9.1651745082
 11
-69.9639479153
 21
9.7042769546
  0
LINE
  5
4BC
100
AcDbEntity
  8
CURVE
100
AcDbLine
 62
7
  6
CONTINUOUS
 10
-71.5097516713
 20
7.7384517706
 11
-71.0873996485
 21
8.1608037934
  0
LINE
  5
4BD
100
AcDbEntity
  8
CURVE
100
AcDbLine
 62
7
  6
CONTINUOUS
 10
-71.0602493693
 20
8.1879540726
 11
-70.5784352717
 21
8.6697681702
  0
LINE
  5
4BE
100
AcDbEntity
  8
CURVE
100
AcDbLine
 62
253
  6
CONTINUOUS
 10
-69.9639479153
 20
9.975074
 11
-72.8632334276
 21
8.9669
  0
LINE
  5
4BF
100
AcDbEntity
  8
CURVE
100
AcDbLine
 62
253
  6
CONTINUOUS
 10
-70.8743269563
 20
-14.790021
 11
-72.8702479563
 21
-15.342748
  0
LINE
  5
4C0
100
AcDbEntity
  8
CURVE
100
AcDbLine
 62
253
  6
CONTINUOUS
 10
-69.9705949563
 20
-13.390935
 11
-72.8704219563
 21
-13.390935
  0
LINE
  5
4C1
100
AcDbEntity
  8
CURVE
100
AcDbLine
 62
253
  6
CONTINUOUS
 10
-56.9625939563
 20
-13.38511
 11
-57.7134109563
 21
-13.38511
  0
LINE
  5
4C2
100
AcDbEntity
  8
CURVE
100
AcDbLine
 62
253
  6
CONTINUOUS
 10
-61.3078509563
 20
-13.38511
 11
-62.0586679563
 21
-13.38511
  0
LINE
  5
4C3
100
AcDbEntity
  8
CURVE
100
AcDbLine
 62
253
  6
CONTINUOUS
 10
-72.8704219563
 20
-12.785664
 11
-69.9705949563
 21
-12.785664
  0
LINE
  5
4C4
100
AcDbEntity
  8
CURVE
100
AcDbLine
 62
253
  6
CONTINUOUS
 10
-69.9705949563
 20
-11.880779
 11
-71.8640139563
 21
-11.750162
  0
LINE
  5
4C5
100
AcDbEntity
  8
CURVE
100
AcDbLine
 62
253
  6
CONTINUOUS
 10
-72.8702479563
 20
-12.198005
 11
-69.9705949563
 21
-12.459827
  0
LINE
  5
4C6
100
AcDbEntity
  8
CURVE
100
AcDbLine
 62
253
  6
CONTINUOUS
 10
-72.8702479563
 20
-10.389084
 11
-71.2603519563
 21
-10.994355
  0
LINE
  5
4C7
100
AcDbEntity
  8
CURVE
100
AcDbLine
 62
253
  6
CONTINUOUS
 10
-69.9705949563
 20
-10.955216
 11
-71.8561209563
 21
-10.235548
  0
LINE
  5
4C8
100
AcDbEntity
  8
CURVE
100
AcDbLine
 62
253
  6
CONTINUOUS
 10
-72.8704219563
 20
-13.390935
 11
-72.8704219563
 21
-12.785664
  0
LINE
  5
4C9
100
AcDbEntity
  8
CURVE
100
AcDbLine
 62
253
  6
CONTINUOUS
 10
-72.8702479563
 20
-7.92899
 11
-72.8702479563
 21
-8.514517
  0
LINE
  5
4CA
100
AcDbEntity
  8
CURVE
100
AcDbLine
 62
253
  6
CONTINUOUS
 10
-72.8702479563
 20
-9.790227
 11
-72.8702479563
 21
-10.389084
  0
LINE
  5
4CB
100
AcDbEntity
  8
CURVE
100
AcDbLine
 62
253
  6
CONTINUOUS
 10
-72.8702479563
 20
-11.593234
 11
-72.8702479563
 21
-12.198005
  0
LINE
  5
4CC
100
AcDbEntity
  8
CURVE
100
AcDbLine
 62
253
  6
CONTINUOUS
 10
-72.8702479563
 20
-13.615552
 11
-72.8702479563
 21
-14.22041
  0
LINE
  5
4CD
100
AcDbEntity
  8
CURVE
100
AcDbLine
 62
253
  6
CONTINUOUS
 10
-72.8702479563
 20
-15.342748
 11
-72.8702479563
 21
-16.00026
  0
LINE
  5
4CE
100
AcDbEntity
  8
CURVE
100
AcDbLine
 62
253
  6
CONTINUOUS
 10
-72.8632334276
 20
14.991935
 11
-72.8632334276
 21
14.252884
  0
LINE
  5
4CF
100
AcDbEntity
  8
CURVE
100
AcDbLine
 62
253
  6
CONTINUOUS
 10
-72.8632334276
 20
8.9669
 11
-72.8632334276
 21
8.227849
  0
LINE
  5
4D0
100
AcDbEntity
  8
CURVE
100
AcDbLine
 62
253
  6
CONTINUOUS
 10
-72.8632334276
 20
3.58822
 11
-72.8632334276
 21
2.70079
  0
LINE
  5
4D1
100
AcDbEntity
  8
CURVE
100
AcDbLine
 62
253
  6
CONTINUOUS
 10
-72.8632334276
 20
5.171133
 11
-72.8632334276
 21
5.793739
  0
LINE
  5
4D2
100
AcDbEntity
  8
CURVE
100
AcDbLine
 62
253
  6
CONTINUOUS
 10
-72.8632334276
 20
10.292325
 11
-72.8632334276
 21
11.216139
  0
LINE
  5
4D3
100
AcDbEntity
  8
CURVE
100
AcDbLine
 62
253
  6
CONTINUOUS
 10
-72.8632334276
 20
12.328754
 11
-72.8632334276
 21
12.911198
  0
LINE
  5
4D4
100
AcDbEntity
  8
CURVE
100
AcDbLine
 62
253
  6
CONTINUOUS
 10
-72.38141933
 20
3.323396
 11
-72.38141933
 21
3.686612
  0
LINE
  5
4D5
100
AcDbEntity
  8
CURVE
100
AcDbLine
 62
7
  6
CONTINUOUS
 10
-71.2012716547
 20
7.6269103591
 11
-70.5784352717
 21
8.2497467421
  0
LINE
  5
4D6
100
AcDbEntity
  8
CURVE
100
AcDbLine
 62
7
  6
CONTINUOUS
 10
-72.8632334276
 20
5.5449271582
 11
-72.6144215858
 21
5.793739
  0
LINE
  5
4D7
100
AcDbEntity
  8
CURVE
100
AcDbLine
 62
7
  6
CONTINUOUS
 10
-70.8927916381
 20
7.5153689477
 11
-70.4593669186
 21
7.9487936672
  0
LINE
  5
4D8
100
AcDbEntity
  8
CURVE
100
AcDbLine
 62
7
  6
CONTINUOUS
 10
-72.8170061578
 20
5.171133
 11
-72.1944001578
 21
5.793739
  0
LINE
  5
4D9
100
AcDbEntity
  8
CURVE
100
AcDbLine
 62
7
  6
CONTINUOUS
 10
-70.5843116215
 20
7.4038275363
 11
-70.1489051357
 21
7.8392340221
  0
LINE
  5
4DA
100
AcDbEntity
  8
CURVE
100
AcDbLine
 62
7
  6
CONTINUOUS
 10
-72.3969847298
 20
5.171133
 11
-71.7743787298
 21
5.793739
  0
LINE
  5
4DB
100
AcDbEntity
  8
CURVE
100
AcDbLine
 62
7
  6
CONTINUOUS
 10
-70.2758316049
 20
7.2922861248
 11
-69.9639479153
 21
7.6041698144
  0
LINE
  5
4DC
100
AcDbEntity
  8
CURVE
100
AcDbLine
 62
7
  6
CONTINUOUS
 10
-72.6228159499
 20
4.5252803519
 11
-72.5486731952
 21
4.5994231066
  0
LINE
  5
4DD
100
AcDbEntity
  8
CURVE
100
AcDbLine
 62
7
  6
CONTINUOUS
 10
-71.9769633018
 20
5.171133
 11
-71.3543573018
 21
5.793739
  0
LINE
  5
4DE
100
AcDbEntity
  8
CURVE
100
AcDbLine
 62
7
  6
CONTINUOUS
 10
-70.4457620129
 20
6.7023342888
 11
-70.2813583018
 21
6.866738
  0
LINE
  5
4DF
100
AcDbEntity
  8
CURVE
100
AcDbLine
 62
7
  6
CONTINUOUS
 10
-69.9673515883
 20
7.1807447134
 11
-69.9639479153
 21
7.1841483864
  0
LINE
  5
4E0
100
AcDbEntity
  8
CURVE
100
AcDbLine
 62
7
  6
CONTINUOUS
 10
-72.8489128527
 20
3.879162021
 11
-71.9474651267
 21
4.7806097471
  0
LINE
  5
4E1
100
AcDbEntity
  8
CURVE
100
AcDbLine
 62
7
  6
CONTINUOUS
 10
-71.5569418737
 20
5.171133
 11
-70.9343358737
 21
5.793739
  0
LINE
  5
4E2
100
AcDbEntity
  8
CURVE
100
AcDbLine
 62
7
  6
CONTINUOUS
 10
-70.4457620129
 20
6.2823128608
 11
-69.9639479153
 21
6.7641269584
  0
LINE
  5
4E3
100
AcDbEntity
  8
CURVE
100
AcDbLine
 62
7
  6
CONTINUOUS
 10
-72.8632333097
 20
3.444820136
 11
-71.5913795506
 21
4.7166738951
  0
LINE
  5
4E4
100
AcDbEntity
  8
CURVE
100
AcDbLine
 62
7
  6
CONTINUOUS
 10
-71.1369204457
 20
5.171133
 11
-70.5143144457
 21
5.793739
  0
LINE
  5
4E5
100
AcDbEntity
  8
CURVE
100
AcDbLine
 62
7
  6
CONTINUOUS
 10
-70.4457620129
 20
5.8622914328
 11
-69.9639479153
 21
6.3441055304
  0
LINE
  5
4E6
100
AcDbEntity
  8
CURVE
100
AcDbLine
 62
253
  6
CONTINUOUS
 10
-70.5784352717
 20
9.139549
 11
-69.9639479153
 21
9.348431
  0
LINE
  5
4E7
100
AcDbEntity
  8
CURVE
100
AcDbLine
 62
253
  6
CONTINUOUS
 10
-72.3092101499
 20
8.581471
 11
-71.0602493693
 21
8.982943
  0
LINE
  5
4E8
100
AcDbEntity
  8
CURVE
100
AcDbLine
 62
253
  6
CONTINUOUS
 10
-69.9705949563
 20
-9.519077
 11
-72.8702479563
 21
-9.790227
  0
LINE
  5
4E9
100
AcDbEntity
  8
CURVE
100
AcDbLine
 62
253
  6
CONTINUOUS
 10
-71.8561209563
 20
-10.235548
 11
-69.9705949563
 21
-10.111193
  0
LINE
  5
4EA
100
AcDbEntity
  8
CURVE
100
AcDbLine
 62
253
  6
CONTINUOUS
 10
-59.1356309563
 20
-9.4
 11
-59.8856309563
 21
-9.4
  0
LINE
  5
4EB
100
AcDbEntity
  8
CURVE
100
AcDbLine
 62
253
  6
CONTINUOUS
 10
-56.9625938386
 20
-9.0
 11
-57.7134140048
 21
-9.0
  0
LINE
  5
4EC
100
AcDbEntity
  8
CURVE
100
AcDbLine
 62
253
  6
CONTINUOUS
 10
-61.3078509563
 20
-9.0
 11
-62.0586680741
 21
-9.0
  0
LINE
  5
4ED
100
AcDbEntity
  8
CURVE
100
AcDbLine
 62
253
  6
CONTINUOUS
 10
-70.9973989563
 20
-8.5345
 11
-72.0734969563
 21
-8.233126
  0
LINE
  5
4EE
100
AcDbEntity
  8
CURVE
100
AcDbLine
 62
253
  6
CONTINUOUS
 10
-69.9705949563
 20
-8.825329
 11
-70.5494689563
 21
-8.658312
  0
LINE
  5
4EF
100
AcDbEntity
  8
CURVE
100
AcDbLine
 62
253
  6
CONTINUOUS
 10
-72.8702479563
 20
-8.514517
 11
-69.9705949563
 21
-9.424033
  0
LINE
  5
4F0
100
AcDbEntity
  8
CURVE
100
AcDbLine
 62
253
  6
CONTINUOUS
 10
-71.5802518575
 20
-6.2788012718
 11
-71.5802518575
 21
-5.9328946758
  0
LINE
  5
4F1
100
AcDbEntity
  8
CURVE
100
AcDbLine
 62
253
  6
CONTINUOUS
 10
-71.5622484856
 20
3.323396
 11
-71.5622484856
 21
3.686612
  0
LINE
  5
4F2
100
AcDbEntity
  8
CURVE
100
AcDbLine
 62
253
  6
CONTINUOUS
 10
-71.1053587183
 20
-5.9341993273
 11
-71.1053587183
 21
-6.2587313832
  0
LINE
  5
4F3
100
AcDbEntity
  8
CURVE
100
AcDbLine
 62
253
  6
CONTINUOUS
 10
-71.080434388
 20
3.58822
 11
-71.080434388
 21
3.323396
  0
LINE
  5
4F4
100
AcDbEntity
  8
CURVE
100
AcDbLine
 62
253
  6
CONTINUOUS
 10
-71.0602493693
 20
15.007869
 11
-71.0602493693
 21
14.176491
  0
LINE
  5
4F5
100
AcDbEntity
  8
CURVE
100
AcDbLine
 62
253
  6
CONTINUOUS
 10
-71.0602493693
 20
8.982943
 11
-71.0602493693
 21
8.151456
  0
LINE
  5
4F6
100
AcDbEntity
  8
CURVE
100
AcDbLine
 62
253
  6
CONTINUOUS
 10
-70.9973989563
 20
-7.954996
 11
-70.9973989563
 21
-8.5345
  0
LINE
  5
4F7
100
AcDbEntity
  8
CURVE
100
AcDbLine
 62
253
  6
CONTINUOUS
 10
-70.5784352717
 20
7.990812
 11
-70.5784352717
 21
9.139549
  0
LINE
  5
4F8
100
AcDbEntity
  8
CURVE
100
AcDbLine
 62
253
  6
CONTINUOUS
 10
-70.5784352717
 20
14.015846
 11
-70.5784352717
 21
15.164584
  0
LINE
  5
4F9
100
AcDbEntity
  8
CURVE
100
AcDbLine
 62
253
  6
CONTINUOUS
 10
-70.5494689563
 20
-8.658312
 11
-70.5494689563
 21
-7.834033
  0
LINE
  5
4FA
100
AcDbEntity
  8
CURVE
100
AcDbLine
 62
253
  6
CONTINUOUS
 10
-70.4457620129
 20
5.793739
 11
-70.4457620129
 21
6.866738
  0
LINE
  5
4FB
100
AcDbEntity
  8
CURVE
100
AcDbLine
 62
7
  6
CONTINUOUS
 10
-72.8632333763
 20
3.0247986414
 11
-72.38141933
 21
3.5066126876
  0
LINE
  5
4FC
100
AcDbEntity
  8
CURVE
100
AcDbLine
 62
7
  6
CONTINUOUS
 10
-71.7949507323
 20
4.0930812854
 11
-71.3407390637
 21
4.547292954
  0
LINE
  5
4FD
100
AcDbEntity
  8
CURVE
100
AcDbLine
 62
7
  6
CONTINUOUS
 10
-70.7168990177
 20
5.171133
 11
-69.9639479153
 21
5.9240841023
  0
LINE
  5
4FE
100
AcDbEntity
  8
CURVE
100
AcDbLine
 62
7
  6
CONTINUOUS
 10
-72.7672205897
 20
2.70079
 11
-72.1446145897
 21
3.323396
  0
LINE
  5
4FF
100
AcDbEntity
  8
CURVE
100
AcDbLine
 62
7
  6
CONTINUOUS
 10
-71.5897326152
 20
3.8782779744
 11
-71.1822888124
 21
4.2857217772
  0
LINE
  5
500
100
AcDbEntity
  8
CURVE
100
AcDbLine
 62
7
  6
CONTINUOUS
 10
-70.2968775897
 20
5.171133
 11
-69.9639479153
 21
5.5040626743
  0
LINE
  5
501
100
AcDbEntity
  8
CURVE
100
AcDbLine
 62
7
  6
CONTINUOUS
 10
-72.3471991616
 20
2.70079
 11
-71.7245931616
 21
3.323396
  0
LINE
  5
502
100
AcDbEntity
  8
CURVE
100
AcDbLine
 62
7
  6
CONTINUOUS
 10
-71.5622483234
 20
3.4857408383
 11
-71.1019490834
 21
3.9460400783
  0
LINE
  5
503
100
AcDbEntity
  8
CURVE
100
AcDbLine
 62
7
  6
CONTINUOUS
 10
-71.9271777336
 20
2.70079
 11
-71.080434388
 21
3.5475333456
  0
LINE
  5
504
100
AcDbEntity
  8
CURVE
100
AcDbLine
 62
7
  6
CONTINUOUS
 10
-71.5071563056
 20
2.70079
 11
-70.8845503056
 21
3.323396
  0
LINE
  5
505
100
AcDbEntity
  8
CURVE
100
AcDbLine
 62
7
  6
CONTINUOUS
 10
-71.0871348776
 20
2.70079
 11
-70.4645288776
 21
3.323396
  0
LINE
  5
506
100
AcDbEntity
  8
CURVE
100
AcDbLine
 62
7
  6
CONTINUOUS
 10
-70.6671134495
 20
2.70079
 11
-70.0445074495
 21
3.323396
  0
LINE
  5
507
100
AcDbEntity
  8
CURVE
100
AcDbLine
 62
7
  6
CONTINUOUS
 10
-70.2470920215
 20
2.70079
 11
-69.9639479153
 21
2.9839341062
  0
LINE
  5
508
100
AcDbEntity
  8
CURVE
100
AcDbLine
 62
253
  6
CONTINUOUS
 10
-55.5013459563
 20
12.990161
 11
-54.2017009563
 21
13.563776
  0
LINE
  5
509
100
AcDbEntity
  8
CURVE
100
AcDbLine
 62
253
  6
CONTINUOUS
 10
-51.7632879563
 20
13.326954
 11
-50.4625909563
 21
13.89803
  0
LINE
  5
50A
100
AcDbEntity
  8
CURVE
100
AcDbLine
 62
253
  6
CONTINUOUS
 10
-69.9705946041
 20
-6.8615673444
 11
-72.8363703037
 21
-6.8615673444
  0
LINE
  5
50B
100
AcDbEntity
  8
CURVE
100
AcDbLine
 62
253
  6
CONTINUOUS
 10
-69.9705949563
 20
-12.785664
 11
-69.9705949563
 21
-13.390935
  0
LINE
  5
50C
100
AcDbEntity
  8
CURVE
100
AcDbLine
 62
253
  6
CONTINUOUS
 10
-69.9705949563
 20
-15.081013
 11
-69.9705949563
 21
-14.547617
  0
LINE
  5
50D
100
AcDbEntity
  8
CURVE
100
AcDbLine
 62
253
  6
CONTINUOUS
 10
-69.9705949563
 20
-12.459827
 11
-69.9705949563
 21
-11.880779
  0
LINE
  5
50E
100
AcDbEntity
  8
CURVE
100
AcDbLine
 62
253
  6
CONTINUOUS
 10
-69.9705949563
 20
-11.040105
 11
-69.9705949563
 21
-10.955216
  0
LINE
  5
50F
100
AcDbEntity
  8
CURVE
100
AcDbLine
 62
253
  6
CONTINUOUS
 10
-69.9705949563
 20
-10.111193
 11
-69.9705949563
 21
-9.519077
  0
LINE
  5
510
100
AcDbEntity
  8
CURVE
100
AcDbLine
 62
253
  6
CONTINUOUS
 10
-69.9705949563
 20
-9.424033
 11
-69.9705949563
 21
-8.825329
  0
LINE
  5
511
100
AcDbEntity
  8
CURVE
100
AcDbLine
 62
253
  6
CONTINUOUS
 10
-69.9705949563
 20
-7.677235
 11
-69.9705949563
 21
-7.039304
  0
LINE
  5
512
100
AcDbEntity
  8
CURVE
100
AcDbLine
 62
253
  6
CONTINUOUS
 10
-69.9705946041
 20
-4.7496410148
 11
-69.9705946041
 21
-5.3318417383
  0
LINE
  5
513
100
AcDbEntity
  8
CURVE
100
AcDbLine
 62
253
  6
CONTINUOUS
 10
-69.9705946041
 20
-6.2587313832
 11
-69.9705946041
 21
-6.8615673444
  0
LINE
  5
514
100
AcDbEntity
  8
CURVE
100
AcDbLine
 62
253
  6
CONTINUOUS
 10
-69.9639479153
 20
12.911198
 11
-69.9639479153
 21
12.027546
  0
LINE
  5
515
100
AcDbEntity
  8
CURVE
100
AcDbLine
 62
253
  6
CONTINUOUS
 10
-69.9639479153
 20
10.87477
 11
-69.9639479153
 21
10.292325
  0
LINE
  5
516
100
AcDbEntity
  8
CURVE
100
AcDbLine
 62
253
  6
CONTINUOUS
 10
-69.9639479153
 20
6.866738
 11
-69.9639479153
 21
5.171133
  0
LINE
  5
517
100
AcDbEntity
  8
CURVE
100
AcDbLine
 62
253
  6
CONTINUOUS
 10
-69.9639479153
 20
2.70079
 11
-69.9639479153
 21
3.323396
  0
LINE
  5
518
100
AcDbEntity
  8
CURVE
100
AcDbLine
 62
253
  6
CONTINUOUS
 10
-69.9639479153
 20
7.179514
 11
-69.9639479153
 21
7.773964
  0
LINE
  5
519
100
AcDbEntity
  8
CURVE
100
AcDbLine
 62
253
  6
CONTINUOUS
 10
-69.9639479153
 20
9.348431
 11
-69.9639479153
 21
9.975074
  0
LINE
  5
51A
100
AcDbEntity
  8
CURVE
100
AcDbLine
 62
253
  6
CONTINUOUS
 10
-69.9639479153
 20
13.20444
 11
-69.9639479153
 21
13.798889
  0
LINE
  5
51B
100
AcDbEntity
  8
CURVE
100
AcDbLine
 62
253
  6
CONTINUOUS
 10
-69.9639479153
 20
15.373574
 11
-69.9639479153
 21
16.0
  0
LINE
  5
51C
100
AcDbEntity
  8
ASSI
100
AcDbLine
 62
253
  6
CONTINUOUS
 10
-68.8880711296
 20
-22.3426250347
 11
-68.8880711296
 21
-23.7508007148
  0
LINE
  5
51D
100
AcDbEntity
  8
ASSI
100
AcDbLine
 62
253
  6
CONTINUOUS
 10
-68.8880711296
 20
22.3426250347
 11
-68.8880711296
 21
23.7508007148
  0
LINE
  5
51E
100
AcDbEntity
  8
CURVE
100
AcDbLine
 62
253
  6
CONTINUOUS
 10
-68.463454529
 20
15.7285721064
 11
-68.463454529
 21
15.3214294434
  0
LINE
  5
51F
100
AcDbEntity
  8
CURVE
100
AcDbLine
 62
253
  6
CONTINUOUS
 10
-68.463454529
 20
12.2000007749
 11
-68.463454529
 21
13.0142865539
  0
LINE
  5
520
100
AcDbEntity
  8
CURVE
100
AcDbLine
 62
253
  6
CONTINUOUS
 10
-68.463454529
 20
13.8285721064
 11
-68.463454529
 21
14.2357152224
  0
LINE
  5
521
100
AcDbEntity
  8
ASSI
100
AcDbLine
 62
7
  6
CONTINUOUS
 10
-68.4625909563
 20
-22.3389671529
 11
-68.4625909563
 21
-23.2563578147
  0
LINE
  5
522
100
AcDbEntity
  8
ASSI
100
AcDbLine
 62
7
  6
CONTINUOUS
 10
-68.4625909563
 20
22.3389671529
 11
-68.4625909563
 21
23.2563578147
  0
LINE
  5
523
100
AcDbEntity
  8
CURVE
100
AcDbLine
 62
253
  6
CONTINUOUS
 10
-51.0353019563
 20
15.260125
 11
-51.7632879563
 21
14.783798
  0
LINE
  5
524
100
AcDbEntity
  8
CURVE
100
AcDbLine
 62
253
  6
CONTINUOUS
 10
-55.5013459563
 20
11.0
 11
-54.2017009563
 21
11.622957
  0
LINE
  5
525
100
AcDbEntity
  8
CURVE
100
AcDbLine
 62
253
  6
CONTINUOUS
 10
-70.5494689563
 20
-7.834033
 11
-69.9705949563
 21
-7.677235
  0
LINE
  5
526
100
AcDbEntity
  8
CURVE
100
AcDbLine
 62
253
  6
CONTINUOUS
 10
-72.0734969563
 20
-8.233126
 11
-70.9973989563
 21
-7.954996
  0
LINE
  5
527
100
AcDbEntity
  8
CURVE
100
AcDbLine
 62
253
  6
CONTINUOUS
 10
-72.3762632146
 20
-6.2788012718
 11
-71.5802518575
 21
-6.2788012718
  0
LINE
  5
528
100
AcDbEntity
  8
CURVE
100
AcDbLine
 62
253
  6
CONTINUOUS
 10
-71.1053587183
 20
-6.2587313832
 11
-69.9705946041
 21
-6.2587313832
  0
LINE
  5
529
100
AcDbEntity
  8
CURVE
100
AcDbLine
 62
253
  6
CONTINUOUS
 10
-71.3412614503
 20
-5.30544429
 11
-71.3241270275
 21
-5.30544429
  0
LINE
  5
52A
100
AcDbEntity
  8
CURVE
100
AcDbLine
 62
253
  6
CONTINUOUS
 10
-67.6492693196
 20
12.7428581119
 11
-67.6492693196
 21
12.2000007749
  0
LINE
  5
52B
100
AcDbEntity
  8
CURVE
100
AcDbLine
 62
253
  6
CONTINUOUS
 10
-67.6492693196
 20
13.8285721064
 11
-67.6492693196
 21
14.2357152224
  0
LINE
  5
52C
100
AcDbEntity
  8
CURVE
100
AcDbLine
 62
253
  6
CONTINUOUS
 10
-66.9707815602
 20
11.6571436644
 11
-66.9707815602
 21
10.7071437776
  0
LINE
  5
52D
100
AcDbEntity
  8
CURVE
100
AcDbLine
 62
253
  6
CONTINUOUS
 10
-66.5636889273
 20
16.0000010014
 11
-66.5636889273
 21
15.0500010014
  0
LINE
  5
52E
100
AcDbEntity
  8
CURVE
100
AcDbLine
 62
253
  6
CONTINUOUS
 10
-66.5636889273
 20
14.2357152224
 11
-66.5636889273
 21
13.8285721064
  0
LINE
  5
52F
100
AcDbEntity
  8
CURVE
100
AcDbLine
 62
253
  6
CONTINUOUS
 10
-66.5636889273
 20
12.2000007749
 11
-66.5636889273
 21
12.7428581119
  0
LINE
  5
530
100
AcDbEntity
  8
RACCORDO
100
AcDbLine
 62
253
  6
CONTINUOUS
 10
-65.9538647531
 20
21.5659754333
 11
-65.9538647531
 21
20.9829813964
  0
LINE
  5
531
100
AcDbEntity
  8
RACCORDO
100
AcDbLine
 62
253
  6
CONTINUOUS
 10
-65.9538647531
 20
-20.9829813964
 11
-65.9538647531
 21
-21.5659754333
  0
LINE
  5
532
100
AcDbEntity
  8
DRAFT
100
AcDbLine
 62
7
  6
CONTINUOUS
 10
-65.4625909563
 20
22.2429074468
 11
-65.4625909563
 21
21.3214201115
  0
LINE
  5
533
100
AcDbEntity
  8
ASSI
100
AcDbLine
 62
7
  6
CONTINUOUS
 10
-65.4625909563
 20
22.2429074468
 11
-65.4625909563
 21
21.3214201115
  0
LINE
  5
534
100
AcDbEntity
  8
DRAFT
100
AcDbLine
 62
7
  6
CONTINUOUS
 10
-65.4625909563
 20
-22.2429074468
 11
-65.4625909563
 21
-21.3214201115
  0
LINE
  5
535
100
AcDbEntity
  8
ASSI
100
AcDbLine
 62
7
  6
CONTINUOUS
 10
-65.4625909563
 20
-22.2429074468
 11
-65.4625909563
 21
-21.3214201115
  0
LINE
  5
536
100
AcDbEntity
  8
RACCORDO
100
AcDbLine
 62
7
  6
CONTINUOUS
 10
-65.4625909563
 20
-21.3214201115
 11
-65.4625909563
 21
-19.043611109
  0
LINE
  5
537
100
AcDbEntity
  8
ASSI
100
AcDbLine
 62
7
  6
CONTINUOUS
 10
-65.4625909563
 20
-20.1429074468
 11
-65.4625909563
 21
-19.043611109
  0
LINE
  5
538
100
AcDbEntity
  8
ASSI
100
AcDbLine
 62
7
  6
CONTINUOUS
 10
-65.4625909563
 20
19.0429009696
 11
-65.4625909563
 21
20.1429074468
  0
LINE
  5
539
100
AcDbEntity
  8
RACCORDO
100
AcDbLine
 62
7
  6
CONTINUOUS
 10
-65.4625909563
 20
19.0429009696
 11
-65.4625909563
 21
21.3214201115
  0
LINE
  5
53A
100
AcDbEntity
  8
CURVE
100
AcDbLine
 62
253
  6
CONTINUOUS
 10
-53.6317919563
 20
13.219176
 11
-52.3321459563
 21
14.251428
  0
LINE
  5
53B
100
AcDbEntity
  8
RACCORDO
100
AcDbLine
 62
253
  6
CONTINUOUS
 10
-39.4625909563
 20
-2.3249992318
 11
-40.3484543708
 21
-2.3249992336
  0
LINE
  5
53C
100
AcDbEntity
  8
ASSI
100
AcDbLine
 62
253
  6
CONTINUOUS
 10
-39.4625909563
 20
-2.3249992318
 11
-40.3484543708
 21
-2.3249992336
  0
LINE
  5
53D
100
AcDbEntity
  8
RACCORDO
100
AcDbLine
 62
253
  6
CONTINUOUS
 10
-42.046883639
 20
-2.2656887748
 11
-40.3484543708
 21
-2.3249992318
  0
LINE
  5
53E
100
AcDbEntity
  8
ASSI
100
AcDbLine
 62
253
  6
CONTINUOUS
 10
-42.046883639
 20
-2.2656887748
 11
-40.3484543708
 21
-2.3249992318
  0
LINE
  5
53F
100
AcDbEntity
  8
RACCORDO
100
AcDbLine
 62
7
  6
CONTINUOUS
 10
-41.0625909563
 20
-1.3
 11
-40.4276914596
 21
-1.322171179
  0
LINE
  5
540
100
AcDbEntity
  8
ASSI
100
AcDbLine
 62
7
  6
CONTINUOUS
 10
-41.0625909563
 20
-1.3
 11
-40.4276914596
 21
-1.322171179
  0
LINE
  5
541
100
AcDbEntity
  8
CURVE
100
AcDbLine
 62
253
  6
CONTINUOUS
 10
-46.9625909563
 20
16.0
 11
-48.4625909563
 21
14.5
  0
LINE
  5
542
100
AcDbEntity
  8
CURVE
100
AcDbLine
 62
253
  6
CONTINUOUS
 10
-59.8856309563
 20
-9.4
 11
-59.8856309563
 21
-10.860504112
  0
LINE
  5
543
100
AcDbEntity
  8
CURVE
100
AcDbLine
 62
253
  6
CONTINUOUS
 10
-59.1356309563
 20
-10.860501
 11
-59.1356309563
 21
-9.4
  0
LINE
  5
544
100
AcDbEntity
  8
CURVE
100
AcDbLine
 62
253
  6
CONTINUOUS
 10
-44.0125909563
 20
14.771429
 11
-44.2840189563
 21
14.5
  0
LINE
  5
545
100
AcDbEntity
  8
CURVE
100
AcDbLine
 62
253
  6
CONTINUOUS
 10
-42.7911619563
 20
15.314286
 11
-42.5197329563
 21
15.585714
  0
LINE
  5
546
100
AcDbEntity
  8
CURVE
100
AcDbLine
 62
253
  6
CONTINUOUS
 10
-69.9705949563
 20
-7.039304
 11
-72.8702479563
 21
-7.92899
  0
LINE
  5
547
100
AcDbEntity
  8
CURVE
100
AcDbLine
 62
253
  6
CONTINUOUS
 10
-72.8632334276
 20
2.70079
 11
-69.9639479153
 21
2.70079
  0
LINE
  5
548
100
AcDbEntity
  8
CURVE
100
AcDbLine
 62
253
  6
CONTINUOUS
 10
-69.9639479153
 20
3.323396
 11
-71.080434388
 21
3.323396
  0
LINE
  5
549
100
AcDbEntity
  8
CURVE
100
AcDbLine
 62
253
  6
CONTINUOUS
 10
-71.5622484856
 20
3.323396
 11
-72.38141933
 21
3.323396
  0
LINE
  5
54A
100
AcDbEntity
  8
CURVE
100
AcDbLine
 62
253
  6
CONTINUOUS
 10
-72.8632334276
 20
8.227849
 11
-69.9639479153
 21
7.179514
  0
LINE
  5
54B
100
AcDbEntity
  8
CURVE
100
AcDbLine
 62
253
  6
CONTINUOUS
 10
-67.9206643894
 20
9.6214294434
 11
-68.463454529
 21
10.1642866105
  0
LINE
  5
54C
100
AcDbEntity
  8
CURVE
100
AcDbLine
 62
253
  6
CONTINUOUS
 10
-69.9639479153
 20
5.171133
 11
-72.8632334276
 21
5.171133
  0
LINE
  5
54D
100
AcDbEntity
  8
0
100
AcDbLine
 62
7
  6
CONTINUOUS
 10
-85.9339634516
 20
5.3500000002
 11
-86.3875909563
 21
5.3500000002
  0
LINE
  5
54E
100
AcDbEntity
  8
CURVE
100
AcDbLine
 62
253
  6
CONTINUOUS
 10
-72.8632334276
 20
5.793739
 11
-70.4457620129
 21
5.793739
  0
LINE
  5
54F
100
AcDbEntity
  8
0
100
AcDbLine
 62
7
  6
CONTINUOUS
 10
-52.7625909563
 20
5.9
 11
-52.9625909563
 21
5.9
  0
LINE
  5
550
100
AcDbEntity
  8
0
100
AcDbLine
 62
7
  6
CONTINUOUS
 10
-52.7625909563
 20
6.0
 11
-52.9625909563
 21
6.0
  0
LINE
  5
551
100
AcDbEntity
  8
CURVE
100
AcDbLine
 62
253
  6
CONTINUOUS
 10
-70.4457620129
 20
6.866738
 11
-69.9639479153
 21
6.866738
  0
LINE
  5
552
100
AcDbEntity
  8
RACCORDO
100
AcDbLine
 62
7
  6
CONTINUOUS
 10
-41.0625909563
 20
4.558884904
 11
-52.9625909563
 21
5.6
  0
LINE
  5
553
100
AcDbEntity
  8
ASSI
100
AcDbLine
 62
7
  6
CONTINUOUS
 10
-41.0625909563
 20
4.558884904
 11
-52.9625909563
 21
5.6
  0
LINE
  5
554
100
AcDbEntity
  8
CURVE
100
AcDbLine
 62
253
  6
CONTINUOUS
 10
-71.0602493693
 20
8.151456
 11
-72.3092101499
 21
8.581471
  0
LINE
  5
555
100
AcDbEntity
  8
CURVE
100
AcDbLine
 62
253
  6
CONTINUOUS
 10
-69.9639479153
 20
7.773964
 11
-70.5784352717
 21
7.990812
  0
LINE
  5
556
100
AcDbEntity
  8
CURVE
100
AcDbLine
 62
253
  6
CONTINUOUS
 10
-66.5636889273
 20
12.7428581119
 11
-66.8350840253
 21
13.0142865539
  0
LINE
  5
557
100
AcDbEntity
  8
CURVE
100
AcDbLine
 62
253
  6
CONTINUOUS
 10
-67.3778741932
 20
13.5571436644
 11
-67.6492693196
 21
13.8285721064
  0
LINE
  5
558
100
AcDbEntity
  8
CURVE
100
AcDbLine
 62
253
  6
CONTINUOUS
 10
-67.7849667979
 20
14.416667366
 11
-67.6492693196
 21
14.2357152224
  0
LINE
  5
559
100
AcDbEntity
  8
CURVE
100
AcDbLine
 62
253
  6
CONTINUOUS
 10
-55.5013459563
 20
13.730833
 11
-55.5013459563
 21
14.143532
  0
LINE
  5
55A
100
AcDbEntity
  8
CURVE
100
AcDbLine
 62
253
  6
CONTINUOUS
 10
-55.5013459563
 20
15.047303
 11
-55.5013459563
 21
15.994383
  0
LINE
  5
55B
100
AcDbEntity
  8
CURVE
100
AcDbLine
 62
253
  6
CONTINUOUS
 10
-54.8515239563
 20
15.934604
 11
-54.8515239563
 21
15.047303
  0
LINE
  5
55C
100
AcDbEntity
  8
CURVE
100
AcDbLine
 62
253
  6
CONTINUOUS
 10
-54.6597959563
 20
13.36159
 11
-54.6597959563
 21
12.618733
  0
LINE
  5
55D
100
AcDbEntity
  8
CURVE
100
AcDbLine
 62
253
  6
CONTINUOUS
 10
-54.2017009563
 20
16.007106
 11
-54.2017009563
 21
15.047303
  0
LINE
  5
55E
100
AcDbEntity
  8
CURVE
100
AcDbLine
 62
253
  6
CONTINUOUS
 10
-54.2017009563
 20
14.143532
 11
-54.2017009563
 21
13.730833
  0
LINE
  5
55F
100
AcDbEntity
  8
CURVE
100
AcDbLine
 62
253
  6
CONTINUOUS
 10
-71.8640139563
 20
-11.750162
 11
-69.9705949563
 21
-11.040105
  0
LINE
  5
560
100
AcDbEntity
  8
CURVE
100
AcDbLine
 62
253
  6
CONTINUOUS
 10
-71.2603519563
 20
-10.994355
 11
-72.8702479563
 21
-11.593234
  0
LINE
  5
561
100
AcDbEntity
  8
RACCORDO
100
AcDbLine
 62
7
  6
CONTINUOUS
 10
-41.0625909563
 20
10.641115096
 11
-52.9625909563
 21
9.6
  0
LINE
  5
562
100
AcDbEntity
  8
ASSI
100
AcDbLine
 62
7
  6
CONTINUOUS
 10
-41.0625909563
 20
10.641115096
 11
-52.9625909563
 21
9.6
  0
LINE
  5
563
100
AcDbEntity
  8
0
100
AcDbLine
 62
7
  6
CONTINUOUS
 10
-52.7625909563
 20
8.8
 11
-52.9625909563
 21
8.8
  0
LINE
  5
564
100
AcDbEntity
  8
0
100
AcDbLine
 62
7
  6
CONTINUOUS
 10
-52.7625909563
 20
8.9
 11
-52.9625909563
 21
8.9
  0
LINE
  5
565
100
AcDbEntity
  8
CURVE
100
AcDbLine
 62
253
  6
CONTINUOUS
 10
-66.9707815602
 20
10.7071437776
 11
-68.463454529
 21
11.1142865539
  0
LINE
  5
566
100
AcDbEntity
  8
CURVE
100
AcDbLine
 62
253
  6
CONTINUOUS
 10
-68.1920594592
 20
13.6476199627
 11
-68.463454529
 21
13.8285721064
  0
LINE
  5
567
100
AcDbEntity
  8
CURVE
100
AcDbLine
 62
253
  6
CONTINUOUS
 10
-66.8350840253
 20
14.5071436644
 11
-66.5636889273
 21
14.2357152224
  0
LINE
  5
568
100
AcDbEntity
  8
0
100
AcDbLine
 62
7
  6
CONTINUOUS
 10
-52.9625909563
 20
9.6
 11
-52.9625909563
 21
5.6
  0
LINE
  5
569
100
AcDbEntity
  8
ASSI
100
AcDbLine
 62
7
  6
CONTINUOUS
 10
-52.9625909563
 20
9.6
 11
-52.9625909563
 21
5.6
  0
LINE
  5
56A
100
AcDbEntity
  8
RACCORDO
100
AcDbLine
 62
7
  6
CONTINUOUS
 10
-52.7625909563
 20
9.4907011787
 11
-52.7625909563
 21
5.7092988213
  0
LINE
  5
56B
100
AcDbEntity
  8
CURVE
100
AcDbLine
 62
253
  6
CONTINUOUS
 10
-51.7632879563
 20
12.687752
 11
-51.7632879563
 21
11.632053
  0
LINE
  5
56C
100
AcDbEntity
  8
CURVE
100
AcDbLine
 62
253
  6
CONTINUOUS
 10
-68.463454529
 20
10.1642866105
 11
-66.5636889273
 21
10.1642866105
  0
LINE
  5
56D
100
AcDbEntity
  8
CURVE
100
AcDbLine
 62
253
  6
CONTINUOUS
 10
-69.9639479153
 20
10.292325
 11
-72.8632334276
 21
10.292325
  0
LINE
  5
56E
100
AcDbEntity
  8
CURVE
100
AcDbLine
 62
253
  6
CONTINUOUS
 10
-72.3904531007
 20
10.87477
 11
-69.9639479153
 21
10.87477
  0
LINE
  5
56F
100
AcDbEntity
  8
CURVE
100
AcDbLine
 62
253
  6
CONTINUOUS
 10
-47.7125909563
 20
11.0
 11
-46.2125909563
 21
11.0
  0
LINE
  5
570
100
AcDbEntity
  8
CURVE
100
AcDbLine
 62
253
  6
CONTINUOUS
 10
-54.2017009563
 20
11.0
 11
-55.5013459563
 21
11.0
  0
LINE
  5
571
100
AcDbEntity
  8
CURVE
100
AcDbLine
 62
253
  6
CONTINUOUS
 10
-66.5636889273
 20
11.3404770732
 11
-67.5135717281
 21
11.3404770732
  0
LINE
  5
572
100
AcDbEntity
  8
CURVE
100
AcDbLine
 62
253
  6
CONTINUOUS
 10
-50.4625909563
 20
11.355773
 11
-51.7632879563
 21
11.355773
  0
LINE
  5
573
100
AcDbEntity
  8
CURVE
100
AcDbLine
 62
253
  6
CONTINUOUS
 10
-71.0602493693
 20
14.176491
 11
-72.3090461903
 21
14.606449
  0
LINE
  5
574
100
AcDbEntity
  8
CURVE
100
AcDbLine
 62
253
  6
CONTINUOUS
 10
-69.9639479153
 20
13.798889
 11
-70.5784352717
 21
14.015846
  0
LINE
  5
575
100
AcDbEntity
  8
CURVE
100
AcDbLine
 62
253
  6
CONTINUOUS
 10
-72.8632334276
 20
14.252884
 11
-69.9639479153
 21
13.20444
  0
LINE
  5
576
100
AcDbEntity
  8
CURVE
100
AcDbLine
 62
253
  6
CONTINUOUS
 10
-68.463454529
 20
15.3214294434
 11
-68.0563618677
 21
15.0500010014
  0
LINE
  5
577
100
AcDbEntity
  8
CURVE
100
AcDbLine
 62
253
  6
CONTINUOUS
 10
-66.5636889273
 20
15.0500010014
 11
-67.9206643894
 21
16.0000010014
  0
LINE
  5
578
100
AcDbEntity
  8
CURVE
100
AcDbLine
 62
253
  6
CONTINUOUS
 10
-50.9173129563
 20
12.955526
 11
-50.9173129563
 21
13.698383
  0
LINE
  5
579
100
AcDbEntity
  8
CURVE
100
AcDbLine
 62
253
  6
CONTINUOUS
 10
-50.4625909563
 20
14.893364
 11
-50.4625909563
 21
14.146383
  0
LINE
  5
57A
100
AcDbEntity
  8
RACCORDO
100
AcDbLine
 62
7
  6
CONTINUOUS
 10
-77.9625909563
 20
-23.1226497308
 11
-78.8375909563
 21
-23.6278312164
  0
LINE
  5
57B
100
AcDbEntity
  8
RACCORDO
100
AcDbLine
 62
253
  6
CONTINUOUS
 10
-77.7140453892
 20
-23.2669872981
 11
-78.7140453892
 21
-23.8443375673
  0
LINE
  5
57C
100
AcDbEntity
  8
CURVE
100
AcDbLine
 62
253
  6
CONTINUOUS
 10
-72.8702479563
 20
-16.00026
 11
-69.9705949563
 21
-15.081013
  0
LINE
  5
57D
100
AcDbEntity
  8
CURVE
100
AcDbLine
 62
253
  6
CONTINUOUS
 10
-50.4625909563
 20
12.159902
 11
-51.7632879563
 21
12.159902
  0
LINE
  5
57E
100
AcDbEntity
  8
CURVE
100
AcDbLine
 62
253
  6
CONTINUOUS
 10
-67.6492693196
 20
12.2000007749
 11
-68.463454529
 21
12.2000007749
  0
LINE
  5
57F
100
AcDbEntity
  8
CURVE
100
AcDbLine
 62
253
  6
CONTINUOUS
 10
-55.5013459563
 20
12.245914
 11
-54.2017009563
 21
12.245914
  0
LINE
  5
580
100
AcDbEntity
  8
CURVE
100
AcDbLine
 62
253
  6
CONTINUOUS
 10
-70.5656864179
 20
12.328754
 11
-72.8632334276
 21
12.328754
  0
LINE
  5
581
100
AcDbEntity
  8
CURVE
100
AcDbLine
 62
253
  6
CONTINUOUS
 10
-52.3321459563
 20
12.830807
 11
-53.6317919563
 21
12.830807
  0
LINE
  5
582
100
AcDbEntity
  8
CURVE
100
AcDbLine
 62
253
  6
CONTINUOUS
 10
-72.8632334276
 20
12.911198
 11
-69.9639479153
 21
12.911198
  0
LINE
  5
583
100
AcDbEntity
  8
CURVE
100
AcDbLine
 62
253
  6
CONTINUOUS
 10
-66.8350840253
 20
13.0142865539
 11
-67.3778741932
 21
13.0142865539
  0
LINE
  5
584
100
AcDbEntity
  8
CURVE
100
AcDbLine
 62
253
  6
CONTINUOUS
 10
-52.3321459563
 20
13.219176
 11
-53.6317919563
 21
13.219176
  0
LINE
  5
585
100
AcDbEntity
  8
CURVE
100
AcDbLine
 62
253
  6
CONTINUOUS
 10
-66.8350840253
 20
13.5571436644
 11
-67.3778741932
 21
13.5571436644
  0
LINE
  5
586
100
AcDbEntity
  8
CURVE
100
AcDbLine
 62
253
  6
CONTINUOUS
 10
-67.7849667979
 20
13.6476199627
 11
-68.1920594592
 21
13.6476199627
  0
LINE
  5
587
100
AcDbEntity
  8
0
100
AcDbLine
 62
7
  6
CONTINUOUS
 10
-86.3875909563
 20
13.6499999998
 11
-85.7762302237
 21
13.6499999998
  0
LINE
  5
588
100
AcDbEntity
  8
CURVE
100
AcDbLine
 62
253
  6
CONTINUOUS
 10
-54.2017009563
 20
13.730833
 11
-55.5013459563
 21
13.730833
  0
LINE
  5
589
100
AcDbEntity
  8
RACCORDO
100
AcDbLine
 62
7
  6
CONTINUOUS
 10
-78.8375909563
 20
23.6278312164
 11
-77.9625909563
 21
23.1226497308
  0
LINE
  5
58A
100
AcDbEntity
  8
RACCORDO
100
AcDbLine
 62
253
  6
CONTINUOUS
 10
-78.7140453892
 20
23.8443375673
 11
-77.7140453892
 21
23.2669872981
  0
LINE
  5
58B
100
AcDbEntity
  8
DRAFT
100
AcDbLine
 62
7
  6
CONTINUOUS
 10
-48.5625909563
 20
19.3291674805
 11
-48.5625909563
 21
19.2774210318
  0
LINE
  5
58C
100
AcDbEntity
  8
CURVE
100
AcDbLine
 62
253
  6
CONTINUOUS
 10
-47.7125909563
 20
14.5
 11
-47.7125909563
 21
11.0
  0
LINE
  5
58D
100
AcDbEntity
  8
CURVE
100
AcDbLine
 62
253
  6
CONTINUOUS
 10
-50.4625909563
 20
14.146383
 11
-51.7632879563
 21
14.146383
  0
LINE
  5
58E
100
AcDbEntity
  8
CURVE
100
AcDbLine
 62
253
  6
CONTINUOUS
 10
-52.3321459563
 20
14.251428
 11
-53.6317919563
 21
14.251428
  0
LINE
  5
58F
100
AcDbEntity
  8
CURVE
100
AcDbLine
 62
253
  6
CONTINUOUS
 10
-68.1920594592
 20
14.416667366
 11
-67.7849667979
 21
14.416667366
  0
LINE
  5
590
100
AcDbEntity
  8
CURVE
100
AcDbLine
 62
253
  6
CONTINUOUS
 10
-48.4625909563
 20
14.5
 11
-47.7125909563
 21
14.5
  0
LINE
  5
591
100
AcDbEntity
  8
CURVE
100
AcDbLine
 62
253
  6
CONTINUOUS
 10
-46.2125909563
 20
14.5
 11
-45.4625909563
 21
14.5
  0
LINE
  5
592
100
AcDbEntity
  8
CURVE
100
AcDbLine
 62
253
  6
CONTINUOUS
 10
-44.2840189563
 20
14.5
 11
-44.6911619563
 21
14.5
  0
LINE
  5
593
100
AcDbEntity
  8
CURVE
100
AcDbLine
 62
253
  6
CONTINUOUS
 10
-67.3778741932
 20
14.5071436644
 11
-66.8350840253
 21
14.5071436644
  0
LINE
  5
594
100
AcDbEntity
  8
CURVE
100
AcDbLine
 62
253
  6
CONTINUOUS
 10
-54.2017009563
 20
15.047303
 11
-55.5013459563
 21
15.047303
  0
LINE
  5
595
100
AcDbEntity
  8
CURVE
100
AcDbLine
 62
253
  6
CONTINUOUS
 10
-51.0353019563
 20
15.260125
 11
-50.4625909563
 21
15.260125
  0
LINE
  5
596
100
AcDbEntity
  8
CURVE
100
AcDbLine
 62
253
  6
CONTINUOUS
 10
-43.4697329563
 20
15.314286
 11
-42.7911619563
 21
15.314286
  0
LINE
  5
597
100
AcDbEntity
  8
CURVE
100
AcDbLine
 62
253
  6
CONTINUOUS
 10
-67.9206643894
 20
16.0000010014
 11
-68.1920594592
 21
16.0000010014
  0
LINE
  5
598
100
AcDbEntity
  8
CURVE
100
AcDbLine
 62
253
  6
CONTINUOUS
 10
-54.2017009563
 20
12.416547
 11
-55.5013459563
 21
12.990161
  0
LINE
  5
599
100
AcDbEntity
  8
CURVE
100
AcDbLine
 62
253
  6
CONTINUOUS
 10
-54.2017009563
 20
11.622957
 11
-55.5013459563
 21
12.245914
  0
LINE
  5
59A
100
AcDbEntity
  8
CURVE
100
AcDbLine
 62
253
  6
CONTINUOUS
 10
-46.2125909563
 20
11.0
 11
-46.2125909563
 21
14.5
  0
LINE
  5
59B
100
AcDbEntity
  8
CURVE
100
AcDbLine
 62
253
  6
CONTINUOUS
 10
-44.9625909563
 20
14.771429
 11
-44.9625909563
 21
16.4
  0
LINE
  5
59C
100
AcDbEntity
  8
CURVE
100
AcDbLine
 62
253
  6
CONTINUOUS
 10
-42.7911619563
 20
16.4
 11
-43.4697329563
 21
16.4
  0
LINE
  5
59D
100
AcDbEntity
  8
RACCORDO
100
AcDbLine
 62
253
  6
CONTINUOUS
 10
-41.0625909563
 20
18.1215728753
 11
-75.4625909563
 21
18.1215728753
  0
LINE
  5
59E
100
AcDbEntity
  8
ASSI
100
AcDbLine
 62
253
  6
CONTINUOUS
 10
-41.0625909563
 20
18.1215728753
 11
-75.4625909563
 21
18.1215728753
  0
LINE
  5
59F
100
AcDbEntity
  8
CURVE
100
AcDbLine
 62
253
  6
CONTINUOUS
 10
-50.4625909563
 20
12.755879
 11
-51.7632879563
 21
13.326954
  0
LINE
  5
5A0
100
AcDbEntity
  8
CURVE
100
AcDbLine
 62
253
  6
CONTINUOUS
 10
-44.0125909563
 20
16.4
 11
-44.0125909563
 21
14.771429
  0
LINE
  5
5A1
100
AcDbEntity
  8
CURVE
100
AcDbLine
 62
253
  6
CONTINUOUS
 10
-43.4697329563
 20
16.4
 11
-43.4697329563
 21
14.5
  0
LINE
  5
5A2
100
AcDbEntity
  8
RACCORDO
100
AcDbLine
 62
253
  6
CONTINUOUS
 10
-65.4625909563
 20
19.424705228
 11
-75.4625909563
 21
19.5357864376
  0
LINE
  5
5A3
100
AcDbEntity
  8
ASSI
100
AcDbLine
 62
253
  6
CONTINUOUS
 10
-65.4625909563
 20
19.424705228
 11
-75.4625909563
 21
19.5357864376
  0
LINE
  5
5A4
100
AcDbEntity
  8
RACCORDO
100
AcDbLine
 62
7
  6
CONTINUOUS
 10
-65.4625909563
 20
19.5429074468
 11
-42.046883639
 21
19.1750641219
  0
LINE
  5
5A5
100
AcDbEntity
  8
ASSI
100
AcDbLine
 62
7
  6
CONTINUOUS
 10
-65.4625909563
 20
19.5429074468
 11
-42.046883639
 21
19.1750641219
  0
LINE
  5
5A6
100
AcDbEntity
  8
DRAFT
100
AcDbLine
 62
7
  6
CONTINUOUS
 10
-65.4625909563
 20
20.1429074468
 11
-75.4625909563
 21
20.3
  0
LINE
  5
5A7
100
AcDbEntity
  8
ASSI
100
AcDbLine
 62
7
  6
CONTINUOUS
 10
-65.4625909563
 20
20.1429074468
 11
-75.4625909563
 21
20.3
  0
LINE
  5
5A8
100
AcDbEntity
  8
RACCORDO
100
AcDbLine
 62
7
  6
CONTINUOUS
 10
-42.1451385499
 20
19.217150432
 11
-48.5625909563
 21
19.3291674805
  0
LINE
  5
5A9
100
AcDbEntity
  8
RACCORDO
100
AcDbLine
 62
253
  6
CONTINUOUS
 10
-85.048746126
 20
20.5419058565
 11
-85.5395969219
 21
20.5624683245
  0
LINE
  5
5AA
100
AcDbEntity
  8
CURVE
100
AcDbLine
 62
253
  6
CONTINUOUS
 10
-51.7632879563
 20
15.735452
 11
-51.0353019563
 21
15.260125
  0
LINE
  5
5AB
100
AcDbEntity
  8
CURVE
100
AcDbLine
 62
253
  6
CONTINUOUS
 10
-42.5197329563
 20
15.585714
 11
-42.5197329563
 21
16.128571
  0
LINE
  5
5AC
100
AcDbEntity
  8
RACCORDO
100
AcDbLine
 62
253
  6
CONTINUOUS
 10
-42.046883639
 20
18.2880019071
 11
-42.046883639
 21
10.5550006446
  0
LINE
  5
5AD
100
AcDbEntity
  8
ASSI
100
AcDbLine
 62
253
  6
CONTINUOUS
 10
-42.046883639
 20
18.2880019071
 11
-42.046883639
 21
10.5550006446
  0
LINE
  5
5AE
100
AcDbEntity
  8
RACCORDO
100
AcDbLine
 62
253
  6
CONTINUOUS
 10
-42.046883639
 20
-2.2656887748
 11
-42.046883639
 21
4.6449993554
  0
LINE
  5
5AF
100
AcDbEntity
  8
ASSI
100
AcDbLine
 62
253
  6
CONTINUOUS
 10
-42.046883639
 20
-2.2656887748
 11
-42.046883639
 21
4.6449993554
  0
LINE
  5
5B0
100
AcDbEntity
  8
RACCORDO
100
AcDbLine
 62
7
  6
CONTINUOUS
 10
-41.1625909563
 20
4.558884904
 11
-41.1625909563
 21
10.641115096
  0
LINE
  5
5B1
100
AcDbEntity
  8
RACCORDO
100
AcDbLine
 62
7
  6
CONTINUOUS
 10
-41.0625909563
 20
18.1751874894
 11
-41.0625909563
 21
10.641115096
  0
LINE
  5
5B2
100
AcDbEntity
  8
ASSI
100
AcDbLine
 62
7
  6
CONTINUOUS
 10
-41.0625909563
 20
18.1751874894
 11
-41.0625909563
 21
10.641115096
  0
LINE
  5
5B3
100
AcDbEntity
  8
RACCORDO
100
AcDbLine
 62
7
  6
CONTINUOUS
 10
-41.0625909563
 20
4.558884904
 11
-41.0625909563
 21
-1.3001149774
  0
LINE
  5
5B4
100
AcDbEntity
  8
ASSI
100
AcDbLine
 62
7
  6
CONTINUOUS
 10
-41.0625909563
 20
4.558884904
 11
-41.0625909563
 21
-1.3001149774
  0
LINE
  5
5B5
100
AcDbEntity
  8
RACCORDO
100
AcDbLine
 62
253
  6
CONTINUOUS
 10
-40.3484543708
 20
-2.3249992318
 11
-40.3484544131
 21
-18.2085442406
  0
LINE
  5
5B6
100
AcDbEntity
  8
ASSI
100
AcDbLine
 62
253
  6
CONTINUOUS
 10
-40.3484543708
 20
-2.3249992318
 11
-40.3484544131
 21
-18.2085442406
  0
LINE
  5
5B7
100
AcDbEntity
  8
RACCORDO
100
AcDbLine
 62
7
  6
CONTINUOUS
 10
-76.4621161927
 20
22.3997331273
 11
-76.4751463169
 21
22.3990450391
  0
LINE
  5
5B8
100
AcDbEntity
  8
RACCORDO
100
AcDbLine
 62
253
  6
CONTINUOUS
 10
-76.3176563134
 20
21.9073668507
 11
-84.1019280703
 21
21.4994104546
  0
LINE
  5
5B9
100
AcDbEntity
  8
RACCORDO
100
AcDbLine
 62
7
  6
CONTINUOUS
 10
-84.1193698452
 20
21.998725222
 11
-77.8381340983
 21
22.3279108386
  0
LINE
  5
5BA
100
AcDbEntity
  8
RACCORDO
100
AcDbLine
 62
7
  6
CONTINUOUS
 10
-65.9538647531
 20
21.5659754333
 11
-75.4625909563
 21
21.4
  0
LINE
  5
5BB
100
AcDbEntity
  8
RACCORDO
100
AcDbLine
 62
7
  6
CONTINUOUS
 10
-65.4625909563
 20
20.9872686779
 11
-75.4625909563
 21
20.9
  0
LINE
  5
5BC
100
AcDbEntity
  8
RACCORDO
100
AcDbLine
 62
253
  6
CONTINUOUS
 10
-75.4625909563
 20
21.8999048084
 11
-76.3176563134
 21
21.9073668507
  0
LINE
  5
5BD
100
AcDbEntity
  8
RACCORDO
100
AcDbLine
 62
7
  6
CONTINUOUS
 10
-66.4538644208
 20
22.3213820346
 11
-76.4625909563
 21
22.4084168358
  0
LINE
  5
5BE
100
AcDbEntity
  8
DRAFT
100
AcDbLine
 62
7
  6
CONTINUOUS
 10
-66.1006000105
 20
22.2529300939
 11
-65.4625909563
 21
22.2429074468
  0
LINE
  5
5BF
100
AcDbEntity
  8
ASSI
100
AcDbLine
 62
7
  6
CONTINUOUS
 10
-66.1006000105
 20
22.2529300939
 11
-65.4625909563
 21
22.2429074468
  0
LINE
  5
5C0
100
AcDbEntity
  8
CURVE
100
AcDbLine
 62
253
  6
CONTINUOUS
 10
-45.4625909563
 20
14.5
 11
-46.9625909563
 21
16.0
  0
LINE
  5
5C1
100
AcDbEntity
  8
RACCORDO
100
AcDbLine
 62
7
  6
CONTINUOUS
 10
-39.4625909563
 20
-2.321562006
 11
-39.4625909563
 21
-18.2484940937
  0
LINE
  5
5C2
100
AcDbEntity
  8
ASSI
100
AcDbLine
 62
7
  6
CONTINUOUS
 10
-39.4625909563
 20
-2.321562006
 11
-39.4625909563
 21
-18.2484940937
  0
LINE
  5
5C3
100
AcDbEntity
  8
RACCORDO
100
AcDbLine
 62
253
  6
CONTINUOUS
 10
-76.4625909563
 20
24.2500042308
 11
-78.7140453892
 21
24.2369056521
  0
LINE
  5
5C4
100
AcDbEntity
  8
RACCORDO
100
AcDbLine
 62
7
  6
CONTINUOUS
 10
-76.4625909563
 20
24.5
 11
-78.7140453892
 21
24.4869014213
  0
LINE
  5
5C5
100
AcDbEntity
  8
RACCORDO
100
AcDbLine
 62
253
  6
CONTINUOUS
 10
-75.7111365235
 20
23.8443375673
 11
-75.4625909563
 21
23.8443375673
  0
LINE
  5
5C6
100
AcDbEntity
  8
RACCORDO
100
AcDbLine
 62
253
  6
CONTINUOUS
 10
-78.7140453892
 20
23.8443375673
 11
-78.9625909563
 21
23.8443375673
  0
LINE
  5
5C7
100
AcDbEntity
  8
RACCORDO
100
AcDbLine
 62
253
  6
CONTINUOUS
 10
-78.7140453892
 20
24.2369056521
 11
-78.9625909563
 21
24.2369056521
  0
LINE
  5
5C8
100
AcDbEntity
  8
RACCORDO
100
AcDbLine
 62
253
  6
CONTINUOUS
 10
-75.7111365235
 20
24.2456323968
 11
-75.4625909563
 21
24.2456323968
  0
LINE
  5
5C9
100
AcDbEntity
  8
ASSI
100
AcDbLine
 62
7
  6
CONTINUOUS
 10
-75.462882742
 20
23.7941838677
 11
-68.9596820907
 21
23.7563493531
  0
LINE
  5
5CA
100
AcDbEntity
  8
RACCORDO
100
AcDbLine
 62
253
  6
CONTINUOUS
 10
-75.7111365235
 20
24.2456323968
 11
-76.4625909563
 21
24.2500042308
  0
LINE
  5
5CB
100
AcDbEntity
  8
RACCORDO
100
AcDbLine
 62
7
  6
CONTINUOUS
 10
-75.7111365235
 20
24.495628166
 11
-76.4625909563
 21
24.5
  0
LINE
  5
5CC
100
AcDbEntity
  8
CURVE
100
AcDbLine
 62
253
  6
CONTINUOUS
 10
-44.6911619563
 20
14.5
 11
-44.9625909563
 21
14.771429
  0
LINE
  5
5CD
100
AcDbEntity
  8
CURVE
100
AcDbLine
 62
253
  6
CONTINUOUS
 10
-42.5197329563
 20
16.128571
 11
-42.7911619563
 21
16.4
  0
ARC
  5
5CE
100
AcDbEntity
  8
RACCORDO
100
AcDbCircle
 62
7
  6
CONTINUOUS
 10
-21.8847081563
 20
-21.9071823991
 40
0.500365695
100
AcDbArc
 50
180.0211211093
 51
243.431041905
  0
ARC
  5
5CF
100
AcDbEntity
  8
RACCORDO
100
AcDbCircle
 62
253
  6
CONTINUOUS
 10
-21.7490638344
 20
-21.4985358934
 40
0.5001648574
100
AcDbArc
 50
180.1001899766
 51
269.9757011473
  0
ARC
  5
5D0
100
AcDbEntity
  8
RACCORDO
100
AcDbCircle
 62
7
  6
CONTINUOUS
 10
-21.8849260219
 20
-21.907489128
 40
0.4999929279
100
AcDbArc
 50
243.4376500525
 51
268.177328329
  0
ARC
  5
5D1
100
AcDbEntity
  8
RACCORDO
100
AcDbCircle
 62
7
  6
CONTINUOUS
 10
-2.7368954381
 20
-24.2368954381
 40
0.2500059834
100
AcDbArc
 50
180.0023408115
 51
269.9976591885
  0
ARC
  5
5D2
100
AcDbEntity
  8
RACCORDO
100
AcDbCircle
 62
7
  6
CONTINUOUS
 10
-0.8631045619
 20
-24.2368954381
 40
0.2500059834
100
AcDbArc
 50
270.0023408115
 51
359.9976591885
  0
ARC
  5
5D3
100
AcDbEntity
  8
RACCORDO
100
AcDbCircle
 62
7
  6
CONTINUOUS
 10
-21.6368954381
 20
-24.2368954381
 40
0.2500059834
100
AcDbArc
 50
180.0023408215
 51
269.9976591785
  0
ARC
  5
5D4
100
AcDbEntity
  8
RACCORDO
100
AcDbCircle
 62
7
  6
CONTINUOUS
 10
-19.7631045619
 20
-24.2368954381
 40
0.2500059834
100
AcDbArc
 50
270.0023408115
 51
359.9976591885
  0
ARC
  5
5D5
100
AcDbEntity
  8
RACCORDO
100
AcDbCircle
 62
7
  6
CONTINUOUS
 10
-2.7500125954
 20
-24.2500855651
 40
0.2499144351
100
AcDbArc
 50
209.9955094476
 51
270.0019176864
  0
ARC
  5
5D6
100
AcDbEntity
  8
RACCORDO
100
AcDbCircle
 62
7
  6
CONTINUOUS
 10
-0.8499144349
 20
-24.2500125954
 40
0.2499144351
100
AcDbArc
 50
299.9955094476
 51
0.0019176864
  0
ARC
  5
5D7
100
AcDbEntity
  8
RACCORDO
100
AcDbCircle
 62
7
  6
CONTINUOUS
 10
-21.6500125954
 20
-24.2500855651
 40
0.2499144351
100
AcDbArc
 50
209.9955094476
 51
270.0019176864
  0
ARC
  5
5D8
100
AcDbEntity
  8
RACCORDO
100
AcDbCircle
 62
7
  6
CONTINUOUS
 10
-19.7499144349
 20
-24.2500125954
 40
0.2499144351
100
AcDbArc
 50
299.9955094476
 51
0.0019176864
  0
ARC
  5
5D9
100
AcDbEntity
  8
RACCORDO
100
AcDbCircle
 62
7
  6
CONTINUOUS
 10
-2.7514409866
 20
-24.2498960882
 40
0.248559037
100
AcDbArc
 50
180.0249281439
 51
187.5678093652
  0
ARC
  5
5DA
100
AcDbEntity
  8
RACCORDO
100
AcDbCircle
 62
7
  6
CONTINUOUS
 10
-0.8501039118
 20
-24.2514409866
 40
0.248559037
100
AcDbArc
 50
270.0249281439
 51
277.5678093652
  0
ARC
  5
5DB
100
AcDbEntity
  8
RACCORDO
100
AcDbCircle
 62
7
  6
CONTINUOUS
 10
-21.6514409866
 20
-24.2498960882
 40
0.248559037
100
AcDbArc
 50
180.0249281439
 51
187.5678093652
  0
ARC
  5
5DC
100
AcDbEntity
  8
RACCORDO
100
AcDbCircle
 62
7
  6
CONTINUOUS
 10
-19.7501039118
 20
-24.2514409866
 40
0.248559037
100
AcDbArc
 50
270.0249281439
 51
277.5678093652
  0
CIRCLE
  5
5DD
100
AcDbEntity
  8
DRAFT
100
AcDbCircle
 62
7
  6
CONTINUOUS
 10
-9.0
 20
9.5
 40
5.0244370909
  0
CIRCLE
  5
5DE
100
AcDbEntity
  8
DRAFT
100
AcDbCircle
 62
7
  6
CONTINUOUS
 10
-9.0
 20
9.5
 40
4.5
  0
CIRCLE
  5
5DF
100
AcDbEntity
  8
0
100
AcDbCircle
 62
7
  6
CONTINUOUS
 10
-9.0
 20
9.5
 40
4.15
  0
CIRCLE
  5
5E0
100
AcDbEntity
  8
0
100
AcDbCircle
 62
253
  6
CONTINUOUS
 10
-9.0
 20
9.5
 40
3.1500083971
  0
CIRCLE
  5
5E1
100
AcDbEntity
  8
0
100
AcDbCircle
 62
7
  6
CONTINUOUS
 10
-9.0
 20
9.5
 40
3.0
  0
CIRCLE
  5
5E2
100
AcDbEntity
  8
0
100
AcDbCircle
 62
7
  6
CONTINUOUS
 10
-9.0
 20
9.5
 40
1.75
  0
ARC
  5
5E3
100
AcDbEntity
  8
RACCORDO
100
AcDbCircle
 62
7
  6
CONTINUOUS
 10
-21.8847082098
 20
21.90718232
 40
0.500365695
100
AcDbArc
 50
116.5689485743
 51
179.9788698342
  0
ARC
  5
5E4
100
AcDbEntity
  8
RACCORDO
100
AcDbCircle
 62
253
  6
CONTINUOUS
 10
-21.7490638343
 20
21.4985358938
 40
0.5001648569
100
AcDbArc
 50
90.0242988562
 51
179.8998100635
  0
ARC
  5
5E5
100
AcDbEntity
  8
RACCORDO
100
AcDbCircle
 62
7
  6
CONTINUOUS
 10
-21.8849260219
 20
21.907489128
 40
0.4999929279
100
AcDbArc
 50
91.822671671
 51
116.5623499475
  0
ARC
  5
5E6
100
AcDbEntity
  8
RACCORDO
100
AcDbCircle
 62
7
  6
CONTINUOUS
 10
-0.8631045619
 20
24.2368954381
 40
0.2500059834
100
AcDbArc
 50
0.0023408215
 51
89.9976591785
  0
ARC
  5
5E7
100
AcDbEntity
  8
RACCORDO
100
AcDbCircle
 62
7
  6
CONTINUOUS
 10
-2.7368954381
 20
24.2368954381
 40
0.2500059834
100
AcDbArc
 50
90.0023408115
 51
179.9976591885
  0
ARC
  5
5E8
100
AcDbEntity
  8
RACCORDO
100
AcDbCircle
 62
7
  6
CONTINUOUS
 10
-21.6368954381
 20
24.2368954381
 40
0.2500059834
100
AcDbArc
 50
90.0023408215
 51
179.9976591785
  0
ARC
  5
5E9
100
AcDbEntity
  8
RACCORDO
100
AcDbCircle
 62
7
  6
CONTINUOUS
 10
-19.7631045619
 20
24.2368954381
 40
0.2500059834
100
AcDbArc
 50
0.0023408115
 51
89.9976591885
  0
ARC
  5
5EA
100
AcDbEntity
  8
RACCORDO
100
AcDbCircle
 62
7
  6
CONTINUOUS
 10
-0.8499874046
 20
24.2500855651
 40
0.2499144351
100
AcDbArc
 50
29.9955094476
 51
90.0019176864
  0
ARC
  5
5EB
100
AcDbEntity
  8
RACCORDO
100
AcDbCircle
 62
7
  6
CONTINUOUS
 10
-2.7500855651
 20
24.2500125954
 40
0.2499144351
100
AcDbArc
 50
119.9955094476
 51
180.0019176864
  0
ARC
  5
5EC
100
AcDbEntity
  8
RACCORDO
100
AcDbCircle
 62
7
  6
CONTINUOUS
 10
-21.6500855651
 20
24.2500125954
 40
0.2499144351
100
AcDbArc
 50
119.9955094476
 51
180.0019176864
  0
ARC
  5
5ED
100
AcDbEntity
  8
RACCORDO
100
AcDbCircle
 62
7
  6
CONTINUOUS
 10
-19.7499874046
 20
24.2500855651
 40
0.2499144351
100
AcDbArc
 50
29.9955094476
 51
90.0019176864
  0
ARC
  5
5EE
100
AcDbEntity
  8
RACCORDO
100
AcDbCircle
 62
7
  6
CONTINUOUS
 10
-0.8485590134
 20
24.2498960882
 40
0.248559037
100
AcDbArc
 50
0.0249281439
 51
7.5678093652
  0
ARC
  5
5EF
100
AcDbEntity
  8
RACCORDO
100
AcDbCircle
 62
7
  6
CONTINUOUS
 10
-2.7498960882
 20
24.2514409866
 40
0.248559037
100
AcDbArc
 50
90.0249281439
 51
97.5678093652
  0
ARC
  5
5F0
100
AcDbEntity
  8
RACCORDO
100
AcDbCircle
 62
7
  6
CONTINUOUS
 10
-21.6498960882
 20
24.2514409866
 40
0.248559037
100
AcDbArc
 50
90.0249281439
 51
97.5678093651
  0
ARC
  5
5F1
100
AcDbEntity
  8
RACCORDO
100
AcDbCircle
 62
7
  6
CONTINUOUS
 10
-19.7485590134
 20
24.2498960882
 40
0.248559037
100
AcDbArc
 50
0.0249281439
 51
7.5678093652
  0
ARC
  5
5F2
100
AcDbEntity
  8
RACCORDO
100
AcDbCircle
 62
7
  6
CONTINUOUS
 10
0.8631045619
 20
-24.2368954381
 40
0.2500059834
100
AcDbArc
 50
180.0023408106
 51
269.9976591894
  0
ARC
  5
5F3
100
AcDbEntity
  8
RACCORDO
100
AcDbCircle
 62
7
  6
CONTINUOUS
 10
2.7368954381
 20
-24.2368954381
 40
0.2500059834
100
AcDbArc
 50
270.0023408106
 51
359.9976591894
  0
ARC
  5
5F4
100
AcDbEntity
  8
RACCORDO
100
AcDbCircle
 62
7
  6
CONTINUOUS
 10
0.8499874055
 20
-24.2500855654
 40
0.2499144347
100
AcDbArc
 50
209.99550971
 51
270.0019174674
  0
ARC
  5
5F5
100
AcDbEntity
  8
RACCORDO
100
AcDbCircle
 62
7
  6
CONTINUOUS
 10
2.7500855654
 20
-24.2500125945
 40
0.2499144347
100
AcDbArc
 50
299.99550971
 51
0.0019174674
  0
ARC
  5
5F6
100
AcDbEntity
  8
RACCORDO
100
AcDbCircle
 62
7
  6
CONTINUOUS
 10
0.8485590129
 20
-24.2498960873
 40
0.2485590364
100
AcDbArc
 50
180.024928356
 51
187.5678095956
  0
ARC
  5
5F7
100
AcDbEntity
  8
RACCORDO
100
AcDbCircle
 62
7
  6
CONTINUOUS
 10
2.7498960873
 20
-24.2514409871
 40
0.2485590364
100
AcDbArc
 50
270.024928356
 51
277.5678095956
  0
CIRCLE
  5
5F8
100
AcDbEntity
  8
0
100
AcDbCircle
 62
7
  6
CONTINUOUS
 10
6.999999989
 20
-14.0
 40
2.5000000119
  0
CIRCLE
  5
5F9
100
AcDbEntity
  8
0
100
AcDbCircle
 62
7
  6
CONTINUOUS
 10
7.0
 20
-14.0
 40
1.25
  0
CIRCLE
  5
5FA
100
AcDbEntity
  8
RACCORDO
100
AcDbCircle
 62
7
  6
CONTINUOUS
 10
7.0
 20
-14.0
 40
1.225
  0
CIRCLE
  5
5FB
100
AcDbEntity
  8
RACCORDO
100
AcDbCircle
 62
253
  6
CONTINUOUS
 10
7.0
 20
-14.0
 40
1.0459181267
  0
ARC
  5
5FC
100
AcDbEntity
  8
RACCORDO
100
AcDbCircle
 62
7
  6
CONTINUOUS
 10
21.8847082141
 20
-21.9071824209
 40
0.500365695
100
AcDbArc
 50
296.5689532975
 51
359.9788813838
  0
ARC
  5
5FD
100
AcDbEntity
  8
RACCORDO
100
AcDbCircle
 62
253
  6
CONTINUOUS
 10
21.7490638379
 20
-21.4985358902
 40
0.5001648569
100
AcDbArc
 50
270.0242984427
 51
359.8998096535
  0
ARC
  5
5FE
100
AcDbEntity
  8
RACCORDO
100
AcDbCircle
 62
7
  6
CONTINUOUS
 10
21.8849260219
 20
-21.907489128
 40
0.4999929279
100
AcDbArc
 50
271.822671671
 51
296.5623499475
  0
ARC
  5
5FF
100
AcDbEntity
  8
RACCORDO
100
AcDbCircle
 62
7
  6
CONTINUOUS
 10
19.7631045619
 20
-24.2368954381
 40
0.2500059834
100
AcDbArc
 50
180.0023408106
 51
269.9976591894
  0
ARC
  5
600
100
AcDbEntity
  8
RACCORDO
100
AcDbCircle
 62
7
  6
CONTINUOUS
 10
21.6368954381
 20
-24.2368954381
 40
0.2500059834
100
AcDbArc
 50
270.0023408106
 51
359.9976591894
  0
ARC
  5
601
100
AcDbEntity
  8
RACCORDO
100
AcDbCircle
 62
7
  6
CONTINUOUS
 10
19.7499874055
 20
-24.2500855654
 40
0.2499144347
100
AcDbArc
 50
209.99550971
 51
270.0019174674
  0
ARC
  5
602
100
AcDbEntity
  8
RACCORDO
100
AcDbCircle
 62
7
  6
CONTINUOUS
 10
21.6500125945
 20
-24.2500855654
 40
0.2499144347
100
AcDbArc
 50
269.9980825326
 51
330.00449029
  0
ARC
  5
603
100
AcDbEntity
  8
RACCORDO
100
AcDbCircle
 62
7
  6
CONTINUOUS
 10
19.7485590129
 20
-24.2498960873
 40
0.2485590364
100
AcDbArc
 50
180.0249283561
 51
187.5678095956
  0
ARC
  5
604
100
AcDbEntity
  8
RACCORDO
100
AcDbCircle
 62
7
  6
CONTINUOUS
 10
21.6514409871
 20
-24.2498960873
 40
0.2485590364
100
AcDbArc
 50
352.4321904044
 51
359.9750716439
  0
CIRCLE
  5
605
100
AcDbEntity
  8
0
100
AcDbCircle
 62
7
  6
CONTINUOUS
 10
13.9999999893
 20
-14.0
 40
2.5000000116
  0
CIRCLE
  5
606
100
AcDbEntity
  8
0
100
AcDbCircle
 62
7
  6
CONTINUOUS
 10
14.0
 20
-14.0
 40
1.25
  0
CIRCLE
  5
607
100
AcDbEntity
  8
DRAFT
100
AcDbCircle
 62
7
  6
CONTINUOUS
 10
9.0
 20
9.5
 40
5.0244370909
  0
CIRCLE
  5
608
100
AcDbEntity
  8
DRAFT
100
AcDbCircle
 62
7
  6
CONTINUOUS
 10
9.0
 20
9.5
 40
4.5
  0
CIRCLE
  5
609
100
AcDbEntity
  8
0
100
AcDbCircle
 62
7
  6
CONTINUOUS
 10
9.0
 20
9.5
 40
4.15
  0
CIRCLE
  5
60A
100
AcDbEntity
  8
0
100
AcDbCircle
 62
253
  6
CONTINUOUS
 10
9.0
 20
9.5
 40
3.1500083971
  0
CIRCLE
  5
60B
100
AcDbEntity
  8
0
100
AcDbCircle
 62
7
  6
CONTINUOUS
 10
9.0
 20
9.5
 40
3.0
  0
CIRCLE
  5
60C
100
AcDbEntity
  8
0
100
AcDbCircle
 62
7
  6
CONTINUOUS
 10
9.0
 20
9.5
 40
1.75
  0
ARC
  5
60D
100
AcDbEntity
  8
RACCORDO
100
AcDbCircle
 62
7
  6
CONTINUOUS
 10
21.8847082582
 20
21.9071823502
 40
0.500365695
100
AcDbArc
 50
0.0211267103
 51
63.4310548367
  0
ARC
  5
60E
100
AcDbEntity
  8
RACCORDO
100
AcDbCircle
 62
253
  6
CONTINUOUS
 10
21.7490638366
 20
21.4985358885
 40
0.5001648586
100
AcDbArc
 50
0.1001905419
 51
89.9757013981
  0
ARC
  5
60F
100
AcDbEntity
  8
RACCORDO
100
AcDbCircle
 62
7
  6
CONTINUOUS
 10
21.8849260219
 20
21.907489128
 40
0.4999929279
100
AcDbArc
 50
63.4376500525
 51
88.177328329
  0
ARC
  5
610
100
AcDbEntity
  8
RACCORDO
100
AcDbCircle
 62
7
  6
CONTINUOUS
 10
0.8631045619
 20
24.2368954381
 40
0.2500059834
100
AcDbArc
 50
90.0023408106
 51
179.9976591894
  0
ARC
  5
611
100
AcDbEntity
  8
RACCORDO
100
AcDbCircle
 62
7
  6
CONTINUOUS
 10
2.7368954381
 20
24.2368954381
 40
0.2500059834
100
AcDbArc
 50
0.0023408106
 51
89.9976591894
  0
ARC
  5
612
100
AcDbEntity
  8
RACCORDO
100
AcDbCircle
 62
7
  6
CONTINUOUS
 10
19.7631045619
 20
24.2368954381
 40
0.2500059834
100
AcDbArc
 50
90.0023408106
 51
179.9976591894
  0
ARC
  5
613
100
AcDbEntity
  8
RACCORDO
100
AcDbCircle
 62
7
  6
CONTINUOUS
 10
21.6368954381
 20
24.2368954381
 40
0.2500059834
100
AcDbArc
 50
0.0023408106
 51
89.9976591894
  0
ARC
  5
614
100
AcDbEntity
  8
RACCORDO
100
AcDbCircle
 62
7
  6
CONTINUOUS
 10
0.8499144346
 20
24.2500125945
 40
0.2499144347
100
AcDbArc
 50
119.99550971
 51
180.0019174674
  0
ARC
  5
615
100
AcDbEntity
  8
RACCORDO
100
AcDbCircle
 62
7
  6
CONTINUOUS
 10
2.7500125945
 20
24.2500855654
 40
0.2499144347
100
AcDbArc
 50
29.99550971
 51
90.0019174674
  0
ARC
  5
616
100
AcDbEntity
  8
RACCORDO
100
AcDbCircle
 62
7
  6
CONTINUOUS
 10
19.7499144346
 20
24.2500125945
 40
0.2499144347
100
AcDbArc
 50
119.99550971
 51
180.0019174674
  0
ARC
  5
617
100
AcDbEntity
  8
RACCORDO
100
AcDbCircle
 62
7
  6
CONTINUOUS
 10
21.6500125945
 20
24.2500855654
 40
0.2499144347
100
AcDbArc
 50
29.99550971
 51
90.0019174674
  0
ARC
  5
618
100
AcDbEntity
  8
RACCORDO
100
AcDbCircle
 62
7
  6
CONTINUOUS
 10
0.8501039127
 20
24.2514409871
 40
0.2485590364
100
AcDbArc
 50
90.024928356
 51
97.5678095957
  0
ARC
  5
619
100
AcDbEntity
  8
RACCORDO
100
AcDbCircle
 62
7
  6
CONTINUOUS
 10
2.7514409871
 20
24.2498960873
 40
0.2485590364
100
AcDbArc
 50
0.024928356
 51
7.5678095956
  0
ARC
  5
61A
100
AcDbEntity
  8
RACCORDO
100
AcDbCircle
 62
7
  6
CONTINUOUS
 10
19.7501039127
 20
24.2514409871
 40
0.2485590364
100
AcDbArc
 50
90.024928356
 51
97.5678095957
  0
ARC
  5
61B
100
AcDbEntity
  8
RACCORDO
100
AcDbCircle
 62
7
  6
CONTINUOUS
 10
21.6514409871
 20
24.2498960873
 40
0.2485590364
100
AcDbArc
 50
0.024928356
 51
7.5678095956
  0
ARC
  5
61C
100
AcDbEntity
  8
RACCORDO
100
AcDbCircle
 62
7
  6
CONTINUOUS
 10
-78.7125909563
 20
-24.2369056521
 40
0.25
100
AcDbArc
 50
180.0
 51
269.6666666667
  0
ARC
  5
61D
100
AcDbEntity
  8
RACCORDO
100
AcDbCircle
 62
7
  6
CONTINUOUS
 10
-78.7125909563
 20
-23.8443375673
 40
0.25
100
AcDbArc
 50
120.0
 51
180.0
  0
ARC
  5
61E
100
AcDbEntity
  8
RACCORDO
100
AcDbCircle
 62
7
  6
CONTINUOUS
 10
-75.7125909563
 20
-24.2456323968
 40
0.25
100
AcDbArc
 50
270.3333333333
 51
360.0
  0
ARC
  5
61F
100
AcDbEntity
  8
RACCORDO
100
AcDbCircle
 62
7
  6
CONTINUOUS
 10
-75.7125909563
 20
-23.8443375673
 40
0.25
100
AcDbArc
 50
0.0
 51
60.0
  0
ARC
  5
620
100
AcDbEntity
  8
RACCORDO
100
AcDbCircle
 62
7
  6
CONTINUOUS
 10
-84.0408659109
 20
-20.5007809198
 40
1.5
100
AcDbArc
 50
182.3569499908
 51
267.0
  0
ARC
  5
621
100
AcDbEntity
  8
RACCORDO
100
AcDbCircle
 62
253
  6
CONTINUOUS
 10
-84.0495912041
 20
-20.50078002
 40
1.0000009463
100
AcDbArc
 50
182.3569993619
 51
266.9999506289
  0
ARC
  5
622
100
AcDbEntity
  8
ASSI
100
AcDbCircle
 62
7
  6
CONTINUOUS
 10
-68.9625909563
 20
-23.2563578147
 40
0.5
100
AcDbArc
 50
270.3333333333
 51
360.0
  0
ARC
  5
623
100
AcDbEntity
  8
RACCORDO
100
AcDbCircle
 62
7
  6
CONTINUOUS
 10
-66.4625909563
 20
-21.3214201115
 40
1.0
100
AcDbArc
 50
270.5
 51
360.0
  0
ARC
  5
624
100
AcDbEntity
  8
RACCORDO
100
AcDbCircle
 62
7
  6
CONTINUOUS
 10
-40.3625909563
 20
-18.2484940937
 40
0.9
100
AcDbArc
 50
270.9
 51
360.0
  0
ARC
  5
625
100
AcDbEntity
  8
ASSI
100
AcDbCircle
 62
7
  6
CONTINUOUS
 10
-40.3625909563
 20
-18.2484940937
 40
0.9
100
AcDbArc
 50
270.9
 51
360.0
  0
ARC
  5
626
100
AcDbEntity
  8
RACCORDO
100
AcDbCircle
 62
7
  6
CONTINUOUS
 10
-40.4625909563
 20
-2.321562006
 40
1.0
100
AcDbArc
 50
0.0
 51
88.0
  0
ARC
  5
627
100
AcDbEntity
  8
ASSI
100
AcDbCircle
 62
7
  6
CONTINUOUS
 10
-40.4625909563
 20
-2.321562006
 40
1.0
100
AcDbArc
 50
0.0
 51
88.0
  0
ARC
  5
628
100
AcDbEntity
  8
0
100
AcDbCircle
 62
7
  6
CONTINUOUS
 10
-86.3875909563
 20
6.3500000001
 40
1.0
100
AcDbArc
 50
180.0004866768
 51
270.0
  0
ARC
  5
629
100
AcDbEntity
  8
0
100
AcDbCircle
 62
7
  6
CONTINUOUS
 10
-86.3875909563
 20
12.6499999999
 40
1.0
100
AcDbArc
 50
90.0
 51
179.9995133232
  0
ARC
  5
62A
100
AcDbEntity
  8
RACCORDO
100
AcDbCircle
 62
7
  6
CONTINUOUS
 10
-84.0408659109
 20
20.5007809198
 40
1.5
100
AcDbArc
 50
93.0
 51
177.6430500092
  0
ARC
  5
62B
100
AcDbEntity
  8
RACCORDO
100
AcDbCircle
 62
253
  6
CONTINUOUS
 10
-84.0495912078
 20
20.5007800237
 40
1.0000009424
100
AcDbArc
 50
93.0000491689
 51
177.6430008403
  0
ARC
  5
62C
100
AcDbEntity
  8
RACCORDO
100
AcDbCircle
 62
7
  6
CONTINUOUS
 10
-78.7125909563
 20
23.8443375673
 40
0.25
100
AcDbArc
 50
180.0
 51
240.0
  0
ARC
  5
62D
100
AcDbEntity
  8
RACCORDO
100
AcDbCircle
 62
7
  6
CONTINUOUS
 10
-78.7125909563
 20
24.2369056521
 40
0.25
100
AcDbArc
 50
90.3333333333
 51
180.0
  0
ARC
  5
62E
100
AcDbEntity
  8
RACCORDO
100
AcDbCircle
 62
7
  6
CONTINUOUS
 10
-75.7125909563
 20
24.2456323968
 40
0.25
100
AcDbArc
 50
0.0
 51
89.6666666667
  0
ARC
  5
62F
100
AcDbEntity
  8
RACCORDO
100
AcDbCircle
 62
7
  6
CONTINUOUS
 10
-75.7125909563
 20
23.8443375673
 40
0.25
100
AcDbArc
 50
300.0
 51
360.0
  0
ARC
  5
630
100
AcDbEntity
  8
RACCORDO
100
AcDbCircle
 62
7
  6
CONTINUOUS
 10
-66.4625909563
 20
21.3214201115
 40
1.0
100
AcDbArc
 50
0.0
 51
89.5
  0
ARC
  5
631
100
AcDbEntity
  8
ASSI
100
AcDbCircle
 62
7
  6
CONTINUOUS
 10
-68.9625909563
 20
23.2563578147
 40
0.5
100
AcDbArc
 50
0.0
 51
89.6666666667
  0
ARC
  5
632
100
AcDbEntity
  8
RACCORDO
100
AcDbCircle
 62
7
  6
CONTINUOUS
 10
-52.2625909563
 20
5.7092988213
 40
0.5
100
AcDbArc
 50
180.0
 51
195.0012032218
  0
ARC
  5
633
100
AcDbEntity
  8
RACCORDO
100
AcDbCircle
 62
7
  6
CONTINUOUS
 10
-52.2625909563
 20
9.4907011787
 40
0.5
100
AcDbArc
 50
164.9987967782
 51
180.0
  0
ARC
  5
634
100
AcDbEntity
  8
RACCORDO
100
AcDbCircle
 62
7
  6
CONTINUOUS
 10
-42.1625909563
 20
18.2173027369
 40
1.0
100
AcDbArc
 50
65.8831460626
 51
89.0
  0
ARC
  5
635
100
AcDbEntity
  8
RACCORDO
100
AcDbCircle
 62
7
  6
CONTINUOUS
 10
-42.0625909563
 20
18.1751874894
 40
1.0
100
AcDbArc
 50
0.0
 51
89.1
  0
ARC
  5
636
100
AcDbEntity
  8
ASSI
100
AcDbCircle
 62
7
  6
CONTINUOUS
 10
-42.0625909563
 20
18.1751874894
 40
1.0
100
AcDbArc
 50
0.0
 51
89.1
  0
ARC
  5
637
100
AcDbEntity
  8
RACCORDO
100
AcDbCircle
 62
7
  6
CONTINUOUS
 10
414.0374090437
 20
-0.0
 40
500.0
100
AcDbArc
 50
177.6430500092
 51
182.3569499908
  0
ARC
  5
638
100
AcDbEntity
  8
RACCORDO
100
AcDbCircle
 62
253
  6
CONTINUOUS
 10
414.0286764245
 20
0.0
 40
499.4999935895
100
AcDbArc
 50
177.643049979
 51
182.356950021
  0
SPLINE
  5
639
100
AcDbEntity
  8
RACCORDO
100
AcDbSpline
 62
7
  6
CONTINUOUS
 70
0
 71
3
 72
9
 73
5
 74
3
 42
0.0000001
 43
0.0000001
 44
0.0000000001
 12
-0.0971410767
 22
-0.0128743243
 32
0.0
 13
-0.0849087651
 23
-0.0490620603
 33
0.0
 40
0.0
 40
0.0
 40
0.0
 40
0.0
 40
0.6664791796
 40
1.0
 40
1.0
 40
1.0
 40
1.0
 10
0.8173688178
 20
24.4978349971
 30
0.0
 10
0.7957879828
 20
24.4949748407
 30
0.0
 10
0.7638251097
 20
24.4864673732
 30
0.0
 10
0.7344414683
 20
24.47195586
 30
0.0
 10
0.7250018546
 20
24.4665014538
 30
0.0
 11
0.8173688178
 21
24.4978349971
 31
0.0
 11
0.7543284844
 21
24.4809677767
 31
0.0
 11
0.7250018546
 21
24.4665014538
 31
0.0
  0
SPLINE
  5
63A
100
AcDbEntity
  8
RACCORDO
100
AcDbSpline
 62
7
  6
CONTINUOUS
 70
0
 71
3
 72
9
 73
5
 74
3
 42
0.0000001
 43
0.0000001
 44
0.0000000001
 12
-0.0128743243
 22
0.0971410767
 32
0.0
 13
-0.0490620603
 23
0.0849087651
 33
0.0
 40
0.0
 40
0.0
 40
0.0
 40
0.0
 40
0.6664791796
 40
1.0
 40
1.0
 40
1.0
 40
1.0
 10
2.9978349971
 20
24.2826311822
 30
0.0
 10
2.9949748407
 20
24.3042120172
 30
0.0
 10
2.9864673732
 20
24.3361748903
 30
0.0
 10
2.97195586
 20
24.3655585317
 30
0.0
 10
2.9665014538
 20
24.3749981454
 30
0.0
 11
2.9978349971
 21
24.2826311822
 31
0.0
 11
2.9809677767
 21
24.3456715156
 31
0.0
 11
2.9665014538
 21
24.3749981454
 31
0.0
  0
SPLINE
  5
63B
100
AcDbEntity
  8
RACCORDO
100
AcDbSpline
 62
7
  6
CONTINUOUS
 70
0
 71
3
 72
9
 73
5
 74
3
 42
0.0000001
 43
0.0000001
 44
0.0000000001
 12
-0.0971410767
 22
-0.0128743243
 32
0.0
 13
-0.0849087651
 23
-0.0490620603
 33
0.0
 40
0.0
 40
0.0
 40
0.0
 40
0.0
 40
0.6664791796
 40
1.0
 40
1.0
 40
1.0
 40
1.0
 10
19.7173688178
 20
24.4978349971
 30
0.0
 10
19.6957879828
 20
24.4949748407
 30
0.0
 10
19.6638251097
 20
24.4864673732
 30
0.0
 10
19.6344414683
 20
24.47195586
 30
0.0
 10
19.6250018546
 20
24.4665014538
 30
0.0
 11
19.7173688178
 21
24.4978349971
 31
0.0
 11
19.6543284844
 21
24.4809677767
 31
0.0
 11
19.6250018546
 21
24.4665014538
 31
0.0
  0
SPLINE
  5
63C
100
AcDbEntity
  8
RACCORDO
100
AcDbSpline
 62
7
  6
CONTINUOUS
 70
0
 71
3
 72
9
 73
5
 74
3
 42
0.0000001
 43
0.0000001
 44
0.0000000001
 12
-0.0128743243
 22
0.0971410767
 32
0.0
 13
-0.0490620603
 23
0.0849087651
 33
0.0
 40
0.0
 40
0.0
 40
0.0
 40
0.0
 40
0.6664791796
 40
1.0
 40
1.0
 40
1.0
 40
1.0
 10
21.8978349971
 20
24.2826311822
 30
0.0
 10
21.8949748407
 20
24.3042120172
 30
0.0
 10
21.8864673732
 20
24.3361748903
 30
0.0
 10
21.87195586
 20
24.3655585317
 30
0.0
 10
21.8665014538
 20
24.3749981454
 30
0.0
 11
21.8978349971
 21
24.2826311822
 31
0.0
 11
21.8809677767
 21
24.3456715156
 31
0.0
 11
21.8665014538
 21
24.3749981454
 31
0.0
  0
SPLINE
  5
63D
100
AcDbEntity
  8
RACCORDO
100
AcDbSpline
 62
7
  6
CONTINUOUS
 70
0
 71
3
 72
9
 73
5
 74
3
 42
0.0000001
 43
0.0000001
 44
0.0000000001
 12
0.0128743243
 22
-0.0971410767
 32
0.0
 13
0.0490620603
 23
-0.0849087651
 33
0.0
 40
0.0
 40
0.0
 40
0.0
 40
0.0
 40
0.6664791796
 40
1.0
 40
1.0
 40
1.0
 40
1.0
 10
19.5021650029
 20
-24.2826311822
 30
0.0
 10
19.5050251593
 20
-24.3042120172
 30
0.0
 10
19.5135326268
 20
-24.3361748903
 30
0.0
 10
19.52804414
 20
-24.3655585317
 30
0.0
 10
19.5334985462
 20
-24.3749981454
 30
0.0
 11
19.5021650029
 21
-24.2826311822
 31
0.0
 11
19.5190322233
 21
-24.3456715156
 31
0.0
 11
19.5334985462
 21
-24.3749981454
 31
0.0
  0
SPLINE
  5
63E
100
AcDbEntity
  8
RACCORDO
100
AcDbSpline
 62
7
  6
CONTINUOUS
 70
0
 71
3
 72
9
 73
5
 74
3
 42
0.0000001
 43
0.0000001
 44
0.0000000001
 12
-0.0128743243
 22
-0.0971410767
 32
0.0
 13
-0.0490620603
 23
-0.0849087651
 33
0.0
 40
0.0
 40
0.0
 40
0.0
 40
0.0
 40
0.6664791796
 40
1.0
 40
1.0
 40
1.0
 40
1.0
 10
21.8978349971
 20
-24.2826311822
 30
0.0
 10
21.8949748407
 20
-24.3042120172
 30
0.0
 10
21.8864673732
 20
-24.3361748903
 30
0.0
 10
21.87195586
 20
-24.3655585317
 30
0.0
 10
21.8665014538
 20
-24.3749981454
 30
0.0
 11
21.8978349971
 21
-24.2826311822
 31
0.0
 11
21.8809677767
 21
-24.3456715156
 31
0.0
 11
21.8665014538
 21
-24.3749981454
 31
0.0
  0
SPLINE
  5
63F
100
AcDbEntity
  8
RACCORDO
100
AcDbSpline
 62
7
  6
CONTINUOUS
 70
0
 71
3
 72
9
 73
5
 74
3
 42
0.0000001
 43
0.0000001
 44
0.0000000001
 12
0.0128743243
 22
-0.0971410767
 32
0.0
 13
0.0490620603
 23
-0.0849087651
 33
0.0
 40
0.0
 40
0.0
 40
0.0
 40
0.0
 40
0.6664791796
 40
1.0
 40
1.0
 40
1.0
 40
1.0
 10
0.6021650029
 20
-24.2826311822
 30
0.0
 10
0.6050251593
 20
-24.3042120172
 30
0.0
 10
0.6135326268
 20
-24.3361748903
 30
0.0
 10
0.62804414
 20
-24.3655585317
 30
0.0
 10
0.6334985462
 20
-24.3749981454
 30
0.0
 11
0.6021650029
 21
-24.2826311822
 31
0.0
 11
0.6190322233
 21
-24.3456715156
 31
0.0
 11
0.6334985462
 21
-24.3749981454
 31
0.0
  0
SPLINE
  5
640
100
AcDbEntity
  8
RACCORDO
100
AcDbSpline
 62
7
  6
CONTINUOUS
 70
0
 71
3
 72
9
 73
5
 74
3
 42
0.0000001
 43
0.0000001
 44
0.0000000001
 12
0.0971410767
 22
0.0128743243
 32
0.0
 13
0.0849087651
 23
0.0490620603
 33
0.0
 40
0.0
 40
0.0
 40
0.0
 40
0.0
 40
0.6664791796
 40
1.0
 40
1.0
 40
1.0
 40
1.0
 10
2.7826311822
 20
-24.4978349971
 30
0.0
 10
2.8042120172
 20
-24.4949748407
 30
0.0
 10
2.8361748903
 20
-24.4864673732
 30
0.0
 10
2.8655585317
 20
-24.47195586
 30
0.0
 10
2.8749981454
 20
-24.4665014538
 30
0.0
 11
2.7826311822
 21
-24.4978349971
 31
0.0
 11
2.8456715156
 21
-24.4809677767
 31
0.0
 11
2.8749981454
 21
-24.4665014538
 31
0.0
  0
SPLINE
  5
641
100
AcDbEntity
  8
RACCORDO
100
AcDbSpline
 62
7
  6
CONTINUOUS
 70
0
 71
3
 72
9
 73
5
 74
3
 42
0.0000001
 43
0.0000001
 44
0.0000000001
 12
0.0128743239
 22
-0.0971410768
 32
0.0
 13
0.0490620601
 23
-0.0849087654
 33
0.0
 40
0.0
 40
0.0
 40
0.0
 40
0.0
 40
0.6664791793
 40
1.0
 40
1.0
 40
1.0
 40
1.0
 10
-2.9978349972
 20
-24.2826311822
 30
0.0
 10
-2.9949748409
 20
-24.3042120172
 30
0.0
 10
-2.9864673735
 20
-24.3361748904
 30
0.0
 10
-2.9719558605
 20
-24.3655585319
 30
0.0
 10
-2.9665014543
 20
-24.3749981456
 30
0.0
 11
-2.9978349972
 21
-24.2826311822
 31
0.0
 11
-2.9809677771
 21
-24.3456715157
 31
0.0
 11
-2.9665014543
 21
-24.3749981456
 31
0.0
  0
SPLINE
  5
642
100
AcDbEntity
  8
RACCORDO
100
AcDbSpline
 62
7
  6
CONTINUOUS
 70
0
 71
3
 72
9
 73
5
 74
3
 42
0.0000001
 43
0.0000001
 44
0.0000000001
 12
0.0971410768
 22
0.0128743239
 32
0.0
 13
0.0849087654
 23
0.0490620601
 33
0.0
 40
0.0
 40
0.0
 40
0.0
 40
0.0
 40
0.6664791793
 40
1.0
 40
1.0
 40
1.0
 40
1.0
 10
-0.8173688178
 20
-24.4978349972
 30
0.0
 10
-0.7957879828
 20
-24.4949748409
 30
0.0
 10
-0.7638251096
 20
-24.4864673735
 30
0.0
 10
-0.7344414681
 20
-24.4719558605
 30
0.0
 10
-0.7250018544
 20
-24.4665014543
 30
0.0
 11
-0.8173688178
 21
-24.4978349972
 31
0.0
 11
-0.7543284843
 21
-24.4809677771
 31
0.0
 11
-0.7250018544
 21
-24.4665014543
 31
0.0
  0
SPLINE
  5
643
100
AcDbEntity
  8
RACCORDO
100
AcDbSpline
 62
7
  6
CONTINUOUS
 70
0
 71
3
 72
9
 73
5
 74
3
 42
0.0000001
 43
0.0000001
 44
0.0000000001
 12
0.0128743239
 22
-0.0971410768
 32
0.0
 13
0.0490620601
 23
-0.0849087654
 33
0.0
 40
0.0
 40
0.0
 40
0.0
 40
0.0
 40
0.6664791793
 40
1.0
 40
1.0
 40
1.0
 40
1.0
 10
-21.8978349972
 20
-24.2826311822
 30
0.0
 10
-21.8949748409
 20
-24.3042120172
 30
0.0
 10
-21.8864673735
 20
-24.3361748904
 30
0.0
 10
-21.8719558605
 20
-24.3655585319
 30
0.0
 10
-21.8665014543
 20
-24.3749981456
 30
0.0
 11
-21.8978349972
 21
-24.2826311822
 31
0.0
 11
-21.8809677771
 21
-24.3456715157
 31
0.0
 11
-21.8665014543
 21
-24.3749981456
 31
0.0
  0
SPLINE
  5
644
100
AcDbEntity
  8
RACCORDO
100
AcDbSpline
 62
7
  6
CONTINUOUS
 70
0
 71
3
 72
9
 73
5
 74
3
 42
0.0000001
 43
0.0000001
 44
0.0000000001
 12
0.0971410768
 22
0.0128743239
 32
0.0
 13
0.0849087654
 23
0.0490620601
 33
0.0
 40
0.0
 40
0.0
 40
0.0
 40
0.0
 40
0.6664791793
 40
1.0
 40
1.0
 40
1.0
 40
1.0
 10
-19.7173688178
 20
-24.4978349972
 30
0.0
 10
-19.6957879828
 20
-24.4949748409
 30
0.0
 10
-19.6638251096
 20
-24.4864673735
 30
0.0
 10
-19.6344414681
 20
-24.4719558605
 30
0.0
 10
-19.6250018544
 20
-24.4665014543
 30
0.0
 11
-19.7173688178
 21
-24.4978349972
 31
0.0
 11
-19.6543284843
 21
-24.4809677771
 31
0.0
 11
-19.6250018544
 21
-24.4665014543
 31
0.0
  0
SPLINE
  5
645
100
AcDbEntity
  8
RACCORDO
100
AcDbSpline
 62
7
  6
CONTINUOUS
 70
0
 71
3
 72
9
 73
5
 74
3
 42
0.0000001
 43
0.0000001
 44
0.0000000001
 12
-0.0128743239
 22
0.0971410768
 32
0.0
 13
-0.0490620601
 23
0.0849087654
 33
0.0
 40
0.0
 40
0.0
 40
0.0
 40
0.0
 40
0.6664791793
 40
1.0
 40
1.0
 40
1.0
 40
1.0
 10
-0.6021650028
 20
24.2826311822
 30
0.0
 10
-0.6050251591
 20
24.3042120172
 30
0.0
 10
-0.6135326265
 20
24.3361748904
 30
0.0
 10
-0.6280441395
 20
24.3655585319
 30
0.0
 10
-0.6334985457
 20
24.3749981456
 30
0.0
 11
-0.6021650028
 21
24.2826311822
 31
0.0
 11
-0.6190322229
 21
24.3456715157
 31
0.0
 11
-0.6334985457
 21
24.3749981456
 31
0.0
  0
SPLINE
  5
646
100
AcDbEntity
  8
RACCORDO
100
AcDbSpline
 62
7
  6
CONTINUOUS
 70
0
 71
3
 72
9
 73
5
 74
3
 42
0.0000001
 43
0.0000001
 44
0.0000000001
 12
-0.0971410768
 22
-0.0128743239
 32
0.0
 13
-0.0849087654
 23
-0.0490620601
 33
0.0
 40
0.0
 40
0.0
 40
0.0
 40
0.0
 40
0.6664791793
 40
1.0
 40
1.0
 40
1.0
 40
1.0
 10
-2.7826311822
 20
24.4978349972
 30
0.0
 10
-2.8042120172
 20
24.4949748409
 30
0.0
 10
-2.8361748904
 20
24.4864673735
 30
0.0
 10
-2.8655585319
 20
24.4719558605
 30
0.0
 10
-2.8749981456
 20
24.4665014543
 30
0.0
 11
-2.7826311822
 21
24.4978349972
 31
0.0
 11
-2.8456715157
 21
24.4809677771
 31
0.0
 11
-2.8749981456
 21
24.4665014543
 31
0.0
  0
SPLINE
  5
647
100
AcDbEntity
  8
RACCORDO
100
AcDbSpline
 62
7
  6
CONTINUOUS
 70
0
 71
3
 72
9
 73
5
 74
3
 42
0.0000001
 43
0.0000001
 44
0.0000000001
 12
-0.0971410768
 22
-0.0128743239
 32
0.0
 13
-0.0849087654
 23
-0.0490620601
 33
0.0
 40
0.0
 40
0.0
 40
0.0
 40
0.0
 40
0.6664791793
 40
1.0
 40
1.0
 40
1.0
 40
1.0
 10
-21.6826311822
 20
24.4978349972
 30
0.0
 10
-21.7042120172
 20
24.4949748409
 30
0.0
 10
-21.7361748904
 20
24.4864673735
 30
0.0
 10
-21.7655585319
 20
24.4719558605
 30
0.0
 10
-21.7749981456
 20
24.4665014543
 30
0.0
 11
-21.6826311822
 21
24.4978349972
 31
0.0
 11
-21.7456715157
 21
24.4809677771
 31
0.0
 11
-21.7749981456
 21
24.4665014543
 31
0.0
  0
SPLINE
  5
648
100
AcDbEntity
  8
RACCORDO
100
AcDbSpline
 62
7
  6
CONTINUOUS
 70
0
 71
3
 72
9
 73
5
 74
3
 42
0.0000001
 43
0.0000001
 44
0.0000000001
 12
-0.0128743239
 22
0.0971410768
 32
0.0
 13
-0.0490620601
 23
0.0849087654
 33
0.0
 40
0.0
 40
0.0
 40
0.0
 40
0.0
 40
0.6664791793
 40
1.0
 40
1.0
 40
1.0
 40
1.0
 10
-19.5021650028
 20
24.2826311822
 30
0.0
 10
-19.5050251591
 20
24.3042120172
 30
0.0
 10
-19.5135326265
 20
24.3361748904
 30
0.0
 10
-19.5280441395
 20
24.3655585319
 30
0.0
 10
-19.5334985457
 20
24.3749981456
 30
0.0
 11
-19.5021650028
 21
24.2826311822
 31
0.0
 11
-19.5190322229
 21
24.3456715157
 31
0.0
 11
-19.5334985457
 21
24.3749981456
 31
0.0
  0
SPLINE
  5
649
100
AcDbEntity
  8
RACCORDO
100
AcDbSpline
 62
7
  6
CONTINUOUS
 70
0
 71
3
 72
12
 73
8
 74
6
 42
0.0000001
 43
0.0000001
 44
0.0000000001
 12
-0.0031594254
 22
-0.313543278
 32
0.0
 13
-0.3135591956
 23
-0.0
 33
0.0
 40
0.0
 40
0.0
 40
0.0
 40
0.0
 40
0.1363357513
 40
0.2975671046
 40
0.4959424479
 40
0.733166537
 40
1.0
 40
1.0
 40
1.0
 40
1.0
 10
2.9927192511
 20
23.2669872981
 30
0.0
 10
2.9925756702
 20
23.2527382453
 30
0.0
 10
2.9836395401
 20
23.2214568388
 30
0.0
 10
2.9484440382
 20
23.1818192191
 30
0.0
 10
2.8941380777
 20
23.1496684232
 30
0.0
 10
2.8234418317
 20
23.1279872016
 30
0.0
 10
2.7706128439
 20
23.1226497308
 30
0.0
 10
2.7427234819
 20
23.1226497308
 30
0.0
 11
2.9927192511
 21
23.2669872981
 31
0.0
 11
2.9818300995
 21
23.2256480738
 31
0.0
 11
2.9496325467
 21
23.186671368
 31
0.0
 11
2.8968007617
 21
23.1538393304
 31
0.0
 11
2.8259571295
 21
23.131164925
 31
0.0
 11
2.7427234819
 21
23.1226497308
 31
0.0
  0
SPLINE
  5
64A
100
AcDbEntity
  8
RACCORDO
100
AcDbSpline
 62
7
  6
CONTINUOUS
 70
0
 71
3
 72
12
 73
8
 74
6
 42
0.0000001
 43
0.0000001
 44
0.0000000001
 12
0.00316672
 22
-0.3142672
 32
0.0
 13
0.3142831544
 23
0.0
 33
0.0
 40
0.0
 40
0.0
 40
0.0
 40
0.0
 40
0.1357657081
 40
0.2967195393
 40
0.494990308
 40
0.7319263554
 40
1.0
 40
1.0
 40
1.0
 40
1.0
 10
19.5072807489
 20
23.2669872981
 30
0.0
 10
19.5074240596
 20
23.2527650618
 30
0.0
 10
19.5163373878
 20
23.2215007234
 30
0.0
 10
19.5515307283
 20
23.1818268587
 30
0.0
 10
19.6059061907
 20
23.1496465533
 30
0.0
 10
19.6768570408
 20
23.1278858039
 30
0.0
 10
19.72992007
 20
23.1226497308
 30
0.0
 10
19.7580037468
 20
23.1226497308
 30
0.0
 11
19.5072807489
 21
23.2669872981
 31
0.0
 11
19.5181313772
 21
23.2257211285
 31
0.0
 11
19.5503278249
 21
23.186705249
 31
0.0
 11
19.6032535798
 21
23.1538146014
 31
0.0
 11
19.6741812284
 21
23.1311362826
 31
0.0
 11
19.7580037468
 21
23.1226497308
 31
0.0
  0
SPLINE
  5
64B
100
AcDbEntity
  8
RACCORDO
100
AcDbSpline
 62
253
  6
CONTINUOUS
 70
0
 71
3
 72
11
 73
7
 74
5
 42
0.0000001
 43
0.0000001
 44
0.0000000001
 12
-0.3641903123
 22
0.0009174661
 32
0.0
 13
-0.0012232437
 23
0.3641894136
 33
0.0
 40
0.0
 40
0.0
 40
0.0
 40
0.0
 40
0.2648536608
 40
0.5224784094
 40
0.7663738259
 40
1.0
 40
1.0
 40
1.0
 40
1.0
 10
19.7630943479
 20
23.6278312164
 30
0.0
 10
19.7309419688
 20
23.6279122144
 30
0.0
 10
19.666998965
 20
23.6387551625
 30
0.0
 10
19.5842997248
 20
23.6855972172
 30
0.0
 10
19.5271783657
 20
23.7573263904
 30
0.0
 10
19.5131938393
 20
23.8159761742
 30
0.0
 10
19.5130985787
 20
23.8443375673
 30
0.0
 11
19.7630943479
 21
23.6278312164
 31
0.0
 11
19.6680575569
 21
23.6443250563
 31
0.0
 11
19.5868160311
 21
23.6912600695
 31
0.0
 11
19.5324115092
 21
23.7614737636
 31
0.0
 11
19.5130985787
 21
23.8443375673
 31
0.0
  0
SPLINE
  5
64C
100
AcDbEntity
  8
RACCORDO
100
AcDbSpline
 62
253
  6
CONTINUOUS
 70
0
 71
3
 72
11
 73
7
 74
5
 42
0.0000001
 43
0.0000001
 44
0.0000000001
 12
-0.0012232437
 22
-0.3641894136
 32
0.0
 13
-0.3641903123
 23
-0.0009174661
 33
0.0
 40
0.0
 40
0.0
 40
0.0
 40
0.0
 40
0.2336261742
 40
0.4775215906
 40
0.7351463392
 40
1.0
 40
1.0
 40
1.0
 40
1.0
 10
21.8869014213
 20
23.8443375673
 30
0.0
 10
21.8868061607
 20
23.8159761742
 30
0.0
 10
21.8728216343
 20
23.7573263904
 30
0.0
 10
21.8157002752
 20
23.6855972172
 30
0.0
 10
21.733001035
 20
23.6387551625
 30
0.0
 10
21.6690580312
 20
23.6279122144
 30
0.0
 10
21.6369056521
 20
23.6278312164
 30
0.0
 11
21.8869014213
 21
23.8443375673
 31
0.0
 11
21.8675884908
 21
23.7614737636
 31
0.0
 11
21.8131839689
 21
23.6912600695
 31
0.0
 11
21.7319424431
 21
23.6443250563
 31
0.0
 11
21.6369056521
 21
23.6278312164
 31
0.0
  0
SPLINE
  5
64D
100
AcDbEntity
  8
RACCORDO
100
AcDbSpline
 62
7
  6
CONTINUOUS
 70
0
 71
3
 72
9
 73
5
 74
3
 42
0.0000001
 43
0.0000001
 44
0.0000000001
 12
-0.0037446804
 22
-0.0342080353
 32
0.0
 13
-0.0342730941
 23
-0.0030931103
 33
0.0
 40
0.0
 40
0.0
 40
0.0
 40
0.0
 40
0.2712951477
 40
1.0
 40
1.0
 40
1.0
 40
1.0
 10
21.8927192511
 20
22.3334109614
 30
0.0
 10
21.8923806132
 20
22.3303174701
 30
0.0
 10
21.8755151893
 20
22.3309869639
 30
0.0
 10
21.8672403299
 20
22.3286621601
 30
0.0
 10
21.85891534
 20
22.3279108386
 30
0.0
 11
21.8927192511
 21
22.3334109614
 31
0.0
 11
21.8838618725
 21
22.3304603475
 31
0.0
 11
21.85891534
 21
22.3279108386
 31
0.0
  0
SPLINE
  5
64E
100
AcDbEntity
  8
RACCORDO
100
AcDbSpline
 62
7
  6
CONTINUOUS
 70
0
 71
3
 72
12
 73
8
 74
6
 42
0.0000001
 43
0.0000001
 44
0.0000000001
 12
-0.0031594254
 22
-0.313543278
 32
0.0
 13
-0.3135591956
 23
0.0
 33
0.0
 40
0.0
 40
0.0
 40
0.0
 40
0.0
 40
0.1363357513
 40
0.2975671046
 40
0.4959424479
 40
0.733166537
 40
1.0
 40
1.0
 40
1.0
 40
1.0
 10
21.8927192511
 20
23.2669872981
 30
0.0
 10
21.8925756702
 20
23.2527382453
 30
0.0
 10
21.8836395401
 20
23.2214568388
 30
0.0
 10
21.8484440382
 20
23.1818192191
 30
0.0
 10
21.7941380777
 20
23.1496684232
 30
0.0
 10
21.7234418317
 20
23.1279872016
 30
0.0
 10
21.6706128439
 20
23.1226497308
 30
0.0
 10
21.6427234819
 20
23.1226497308
 30
0.0
 11
21.8927192511
 21
23.2669872981
 31
0.0
 11
21.8818300995
 21
23.2256480738
 31
0.0
 11
21.8496325467
 21
23.186671368
 31
0.0
 11
21.7968007617
 21
23.1538393304
 31
0.0
 11
21.7259571295
 21
23.131164925
 31
0.0
 11
21.6427234819
 21
23.1226497308
 31
0.0
  0
SPLINE
  5
64F
100
AcDbEntity
  8
RACCORDO
100
AcDbSpline
 62
7
  6
CONTINUOUS
 70
0
 71
3
 72
12
 73
8
 74
6
 42
0.0000001
 43
0.0000001
 44
0.0000000001
 12
0.0031594254
 22
0.313543278
 32
0.0
 13
0.3135591956
 23
0.0
 33
0.0
 40
0.0
 40
0.0
 40
0.0
 40
0.0
 40
0.1363357513
 40
0.2975671046
 40
0.4959424479
 40
0.733166537
 40
1.0
 40
1.0
 40
1.0
 40
1.0
 10
19.5072807489
 20
-23.2669872981
 30
0.0
 10
19.5074243298
 20
-23.2527382453
 30
0.0
 10
19.5163604599
 20
-23.2214568388
 30
0.0
 10
19.5515559618
 20
-23.1818192191
 30
0.0
 10
19.6058619223
 20
-23.1496684232
 30
0.0
 10
19.6765581683
 20
-23.1279872016
 30
0.0
 10
19.7293871561
 20
-23.1226497308
 30
0.0
 10
19.7572765181
 20
-23.1226497308
 30
0.0
 11
19.5072807489
 21
-23.2669872981
 31
0.0
 11
19.5181699005
 21
-23.2256480738
 31
0.0
 11
19.5503674533
 21
-23.186671368
 31
0.0
 11
19.6031992383
 21
-23.1538393304
 31
0.0
 11
19.6740428705
 21
-23.131164925
 31
0.0
 11
19.7572765181
 21
-23.1226497308
 31
0.0
  0
SPLINE
  5
650
100
AcDbEntity
  8
RACCORDO
100
AcDbSpline
 62
253
  6
CONTINUOUS
 70
0
 71
3
 72
11
 73
7
 74
5
 42
0.0000001
 43
0.0000001
 44
0.0000000001
 12
0.0012232437
 22
0.3641894136
 32
0.0
 13
0.3641903123
 23
0.0009174661
 33
0.0
 40
0.0
 40
0.0
 40
0.0
 40
0.0
 40
0.2336261742
 40
0.4775215906
 40
0.7351463392
 40
1.0
 40
1.0
 40
1.0
 40
1.0
 10
19.5130985787
 20
-23.8443375673
 30
0.0
 10
19.5131938393
 20
-23.8159761742
 30
0.0
 10
19.5271783657
 20
-23.7573263904
 30
0.0
 10
19.5842997248
 20
-23.6855972172
 30
0.0
 10
19.666998965
 20
-23.6387551625
 30
0.0
 10
19.7309419688
 20
-23.6279122144
 30
0.0
 10
19.7630943479
 20
-23.6278312164
 30
0.0
 11
19.5130985787
 21
-23.8443375673
 31
0.0
 11
19.5324115092
 21
-23.7614737636
 31
0.0
 11
19.5868160311
 21
-23.6912600695
 31
0.0
 11
19.6680575569
 21
-23.6443250563
 31
0.0
 11
19.7630943479
 21
-23.6278312164
 31
0.0
  0
SPLINE
  5
651
100
AcDbEntity
  8
RACCORDO
100
AcDbSpline
 62
7
  6
CONTINUOUS
 70
0
 71
3
 72
9
 73
5
 74
3
 42
0.0000001
 43
0.0000001
 44
0.0000000001
 12
0.0342730941
 22
-0.0030931103
 32
0.0
 13
0.0037446804
 23
-0.0342080353
 33
0.0
 40
0.0
 40
0.0
 40
0.0
 40
0.0
 40
0.7287048523
 40
1.0
 40
1.0
 40
1.0
 40
1.0
 10
21.85891534
 20
-22.3279108386
 30
0.0
 10
21.8672403299
 20
-22.3286621601
 30
0.0
 10
21.8755151893
 20
-22.3309869639
 30
0.0
 10
21.8923806132
 20
-22.3303174701
 30
0.0
 10
21.8927192511
 20
-22.3334109614
 30
0.0
 11
21.85891534
 21
-22.3279108386
 31
0.0
 11
21.8838618725
 21
-22.3304603475
 31
0.0
 11
21.8927192511
 21
-22.3334109614
 31
0.0
  0
SPLINE
  5
652
100
AcDbEntity
  8
RACCORDO
100
AcDbSpline
 62
7
  6
CONTINUOUS
 70
0
 71
3
 72
12
 73
8
 74
6
 42
0.0000001
 43
0.0000001
 44
0.0000000001
 12
-0.00316672
 22
0.3142672
 32
0.0
 13
-0.3142831544
 23
0.0
 33
0.0
 40
0.0
 40
0.0
 40
0.0
 40
0.0
 40
0.1357657081
 40
0.2967195393
 40
0.494990308
 40
0.7319263554
 40
1.0
 40
1.0
 40
1.0
 40
1.0
 10
21.8927192511
 20
-23.2669872981
 30
0.0
 10
21.8925759404
 20
-23.2527650618
 30
0.0
 10
21.8836626122
 20
-23.2215007234
 30
0.0
 10
21.8484692717
 20
-23.1818268587
 30
0.0
 10
21.7940938093
 20
-23.1496465533
 30
0.0
 10
21.7231429592
 20
-23.1278858039
 30
0.0
 10
21.67007993
 20
-23.1226497308
 30
0.0
 10
21.6419962532
 20
-23.1226497308
 30
0.0
 11
21.8927192511
 21
-23.2669872981
 31
0.0
 11
21.8818686228
 21
-23.2257211285
 31
0.0
 11
21.8496721751
 21
-23.186705249
 31
0.0
 11
21.7967464202
 21
-23.1538146014
 31
0.0
 11
21.7258187716
 21
-23.1311362826
 31
0.0
 11
21.6419962532
 21
-23.1226497308
 31
0.0
  0
SPLINE
  5
653
100
AcDbEntity
  8
RACCORDO
100
AcDbSpline
 62
253
  6
CONTINUOUS
 70
0
 71
3
 72
11
 73
7
 74
5
 42
0.0000001
 43
0.0000001
 44
0.0000000001
 12
-0.0012232437
 22
0.3641894136
 32
0.0
 13
-0.3641903123
 23
0.0009174661
 33
0.0
 40
0.0
 40
0.0
 40
0.0
 40
0.0
 40
0.2336261741
 40
0.4775215906
 40
0.7351463392
 40
1.0
 40
1.0
 40
1.0
 40
1.0
 10
21.8869014213
 20
-23.8443375673
 30
0.0
 10
21.8868061607
 20
-23.8159761742
 30
0.0
 10
21.8728216343
 20
-23.7573263904
 30
0.0
 10
21.8157002752
 20
-23.6855972172
 30
0.0
 10
21.733001035
 20
-23.6387551625
 30
0.0
 10
21.6690580312
 20
-23.6279122144
 30
0.0
 10
21.6369056521
 20
-23.6278312164
 30
0.0
 11
21.8869014213
 21
-23.8443375673
 31
0.0
 11
21.8675884908
 21
-23.7614737636
 31
0.0
 11
21.8131839689
 21
-23.6912600695
 31
0.0
 11
21.7319424431
 21
-23.6443250563
 31
0.0
 11
21.6369056521
 21
-23.6278312164
 31
0.0
  0
SPLINE
  5
654
100
AcDbEntity
  8
RACCORDO
100
AcDbSpline
 62
7
  6
CONTINUOUS
 70
0
 71
3
 72
12
 73
8
 74
6
 42
0.0000001
 43
0.0000001
 44
0.0000000001
 12
0.0031594254
 22
0.313543278
 32
0.0
 13
0.3135591956
 23
0.0
 33
0.0
 40
0.0
 40
0.0
 40
0.0
 40
0.0
 40
0.1363357513
 40
0.2975671046
 40
0.4959424479
 40
0.733166537
 40
1.0
 40
1.0
 40
1.0
 40
1.0
 10
0.6072807489
 20
-23.2669872981
 30
0.0
 10
0.6074243298
 20
-23.2527382453
 30
0.0
 10
0.6163604599
 20
-23.2214568388
 30
0.0
 10
0.6515559618
 20
-23.1818192191
 30
0.0
 10
0.7058619223
 20
-23.1496684232
 30
0.0
 10
0.7765581683
 20
-23.1279872016
 30
0.0
 10
0.8293871561
 20
-23.1226497308
 30
0.0
 10
0.8572765181
 20
-23.1226497308
 30
0.0
 11
0.6072807489
 21
-23.2669872981
 31
0.0
 11
0.6181699005
 21
-23.2256480738
 31
0.0
 11
0.6503674533
 21
-23.186671368
 31
0.0
 11
0.7031992383
 21
-23.1538393304
 31
0.0
 11
0.7740428705
 21
-23.131164925
 31
0.0
 11
0.8572765181
 21
-23.1226497308
 31
0.0
  0
SPLINE
  5
655
100
AcDbEntity
  8
RACCORDO
100
AcDbSpline
 62
253
  6
CONTINUOUS
 70
0
 71
3
 72
11
 73
7
 74
5
 42
0.0000001
 43
0.0000001
 44
0.0000000001
 12
0.0012232437
 22
0.3641894136
 32
0.0
 13
0.3641903123
 23
0.0009174661
 33
0.0
 40
0.0
 40
0.0
 40
0.0
 40
0.0
 40
0.2336261742
 40
0.4775215906
 40
0.7351463392
 40
1.0
 40
1.0
 40
1.0
 40
1.0
 10
0.6130985787
 20
-23.8443375673
 30
0.0
 10
0.6131938393
 20
-23.8159761742
 30
0.0
 10
0.6271783657
 20
-23.7573263904
 30
0.0
 10
0.6842997248
 20
-23.6855972172
 30
0.0
 10
0.766998965
 20
-23.6387551625
 30
0.0
 10
0.8309419688
 20
-23.6279122144
 30
0.0
 10
0.8630943479
 20
-23.6278312164
 30
0.0
 11
0.6130985787
 21
-23.8443375673
 31
0.0
 11
0.6324115092
 21
-23.7614737636
 31
0.0
 11
0.6868160311
 21
-23.6912600695
 31
0.0
 11
0.7680575569
 21
-23.6443250563
 31
0.0
 11
0.8630943479
 21
-23.6278312164
 31
0.0
  0
SPLINE
  5
656
100
AcDbEntity
  8
RACCORDO
100
AcDbSpline
 62
7
  6
CONTINUOUS
 70
0
 71
3
 72
12
 73
8
 74
6
 42
0.0000001
 43
0.0000001
 44
0.0000000001
 12
-0.00316672
 22
0.3142672
 32
0.0
 13
-0.3142831544
 23
0.0
 33
0.0
 40
0.0
 40
0.0
 40
0.0
 40
0.0
 40
0.1357657081
 40
0.2967195393
 40
0.494990308
 40
0.7319263554
 40
1.0
 40
1.0
 40
1.0
 40
1.0
 10
2.9927192511
 20
-23.2669872981
 30
0.0
 10
2.9925759404
 20
-23.2527650618
 30
0.0
 10
2.9836626122
 20
-23.2215007234
 30
0.0
 10
2.9484692717
 20
-23.1818268587
 30
0.0
 10
2.8940938093
 20
-23.1496465533
 30
0.0
 10
2.8231429592
 20
-23.1278858039
 30
0.0
 10
2.77007993
 20
-23.1226497308
 30
0.0
 10
2.7419962532
 20
-23.1226497308
 30
0.0
 11
2.9927192511
 21
-23.2669872981
 31
0.0
 11
2.9818686228
 21
-23.2257211285
 31
0.0
 11
2.9496721751
 21
-23.186705249
 31
0.0
 11
2.8967464202
 21
-23.1538146014
 31
0.0
 11
2.8258187716
 21
-23.1311362826
 31
0.0
 11
2.7419962532
 21
-23.1226497308
 31
0.0
  0
SPLINE
  5
657
100
AcDbEntity
  8
RACCORDO
100
AcDbSpline
 62
253
  6
CONTINUOUS
 70
0
 71
3
 72
11
 73
7
 74
5
 42
0.0000001
 43
0.0000001
 44
0.0000000001
 12
0.3641903123
 22
-0.0009174661
 32
0.0
 13
0.0012232437
 23
-0.3641894136
 33
0.0
 40
0.0
 40
0.0
 40
0.0
 40
0.0
 40
0.2648536608
 40
0.5224784094
 40
0.7663738259
 40
1.0
 40
1.0
 40
1.0
 40
1.0
 10
2.7369056521
 20
-23.6278312164
 30
0.0
 10
2.7690580312
 20
-23.6279122144
 30
0.0
 10
2.833001035
 20
-23.6387551625
 30
0.0
 10
2.9157002752
 20
-23.6855972172
 30
0.0
 10
2.9728216343
 20
-23.7573263904
 30
0.0
 10
2.9868061607
 20
-23.8159761742
 30
0.0
 10
2.9869014213
 20
-23.8443375673
 30
0.0
 11
2.7369056521
 21
-23.6278312164
 31
0.0
 11
2.8319424431
 21
-23.6443250563
 31
0.0
 11
2.9131839689
 21
-23.6912600695
 31
0.0
 11
2.9675884908
 21
-23.7614737636
 31
0.0
 11
2.9869014213
 21
-23.8443375673
 31
0.0
  0
SPLINE
  5
658
100
AcDbEntity
  8
RACCORDO
100
AcDbSpline
 62
7
  6
CONTINUOUS
 70
0
 71
3
 72
12
 73
8
 74
6
 42
0.0000001
 43
0.0000001
 44
0.0000000001
 12
-0.0031594254
 22
0.313543278
 32
0.0
 13
-0.3135591956
 23
0.0
 33
0.0
 40
0.0
 40
0.0
 40
0.0
 40
0.0
 40
0.1363357513
 40
0.2975671046
 40
0.4959424479
 40
0.733166537
 40
1.0
 40
1.0
 40
1.0
 40
1.0
 10
-0.6072807489
 20
-23.2669872981
 30
0.0
 10
-0.6074243298
 20
-23.2527382453
 30
0.0
 10
-0.6163604599
 20
-23.2214568388
 30
0.0
 10
-0.6515559618
 20
-23.1818192191
 30
0.0
 10
-0.7058619223
 20
-23.1496684232
 30
0.0
 10
-0.7765581683
 20
-23.1279872016
 30
0.0
 10
-0.8293871561
 20
-23.1226497308
 30
0.0
 10
-0.8572765181
 20
-23.1226497308
 30
0.0
 11
-0.6072807489
 21
-23.2669872981
 31
0.0
 11
-0.6181699005
 21
-23.2256480738
 31
0.0
 11
-0.6503674533
 21
-23.186671368
 31
0.0
 11
-0.7031992383
 21
-23.1538393304
 31
0.0
 11
-0.7740428705
 21
-23.131164925
 31
0.0
 11
-0.8572765181
 21
-23.1226497308
 31
0.0
  0
SPLINE
  5
659
100
AcDbEntity
  8
RACCORDO
100
AcDbSpline
 62
253
  6
CONTINUOUS
 70
0
 71
3
 72
11
 73
7
 74
5
 42
0.0000001
 43
0.0000001
 44
0.0000000001
 12
-0.0012232543
 22
0.3641925536
 32
0.0
 13
-0.3641934522
 23
0.000917474
 33
0.0
 40
0.0
 40
0.0
 40
0.0
 40
0.0
 40
0.2320250085
 40
0.47587978
 40
0.7334116474
 40
1.0
 40
1.0
 40
1.0
 40
1.0
 10
-0.6130985787
 20
-23.8443375673
 30
0.0
 10
-0.6131931872
 20
-23.8161703072
 30
0.0
 10
-0.6270252407
 20
-23.7577304425
 30
0.0
 10
-0.6838174573
 20
-23.686001985
 30
0.0
 10
-0.7665764613
 20
-23.6388632538
 30
0.0
 10
-0.8307311038
 20
-23.6279127456
 30
0.0
 10
-0.8630943479
 20
-23.6278312164
 30
0.0
 11
-0.6130985787
 21
-23.8443375673
 31
0.0
 11
-0.6321533535
 21
-23.7620117087
 31
0.0
 11
-0.6863551826
 21
-23.6916591456
 31
0.0
 11
-0.7674532992
 21
-23.6445424634
 31
0.0
 11
-0.8630943479
 21
-23.6278312164
 31
0.0
  0
SPLINE
  5
65A
100
AcDbEntity
  8
RACCORDO
100
AcDbSpline
 62
7
  6
CONTINUOUS
 70
0
 71
3
 72
11
 73
7
 74
5
 42
0.0000001
 43
0.0000001
 44
0.0000000001
 12
-0.4494325074
 22
-0.003465227
 32
0.0
 13
-0.379851086
 23
-0.2402389207
 33
0.0
 40
0.0
 40
0.0
 40
0.0
 40
0.0
 40
0.2018563251
 40
0.4484393042
 40
0.7201275271
 40
1.0
 40
1.0
 40
1.0
 40
1.0
 10
15.5462073137
 20
23.7953389668
 30
0.0
 10
15.5159670489
 20
23.7951058075
 30
0.0
 10
15.4504371472
 20
23.7726289655
 30
0.0
 10
15.355070853
 20
23.7235704265
 30
0.0
 10
15.2523064072
 20
23.6618911311
 30
0.0
 10
15.1825192443
 20
23.6177544384
 30
0.0
 10
15.1470826234
 20
23.5953423515
 30
0.0
 11
15.5462073137
 21
23.7953389668
 31
0.0
 11
15.4582177221
 21
23.7732350403
 31
0.0
 11
15.3588267299
 21
23.7242068179
 31
0.0
 11
15.2536582815
 21
23.6621565025
 31
0.0
 11
15.1470826234
 21
23.5953423515
 31
0.0
  0
SPLINE
  5
65B
100
AcDbEntity
  8
RACCORDO
100
AcDbSpline
 62
7
  6
CONTINUOUS
 70
0
 71
3
 72
11
 73
7
 74
5
 42
0.0000001
 43
0.0000001
 44
0.0000000001
 12
0.4494325074
 22
-0.003465227
 32
0.0
 13
0.379851086
 23
-0.2402389207
 33
0.0
 40
0.0
 40
0.0
 40
0.0
 40
0.0
 40
0.2018563251
 40
0.4484393042
 40
0.7201275271
 40
1.0
 40
1.0
 40
1.0
 40
1.0
 10
6.9537926863
 20
23.7953389668
 30
0.0
 10
6.9840329511
 20
23.7951058075
 30
0.0
 10
7.0495628528
 20
23.7726289655
 30
0.0
 10
7.144929147
 20
23.7235704265
 30
0.0
 10
7.2476935928
 20
23.6618911311
 30
0.0
 10
7.3174807557
 20
23.6177544384
 30
0.0
 10
7.3529173766
 20
23.5953423515
 30
0.0
 11
6.9537926863
 21
23.7953389668
 31
0.0
 11
7.0417822779
 21
23.7732350403
 31
0.0
 11
7.1411732701
 21
23.7242068179
 31
0.0
 11
7.2463417185
 21
23.6621565025
 31
0.0
 11
7.3529173766
 21
23.5953423515
 31
0.0
  0
SPLINE
  5
65C
100
AcDbEntity
  8
RACCORDO
100
AcDbSpline
 62
253
  6
CONTINUOUS
 70
0
 71
3
 72
11
 73
7
 74
5
 42
0.0000001
 43
0.0000001
 44
0.0000000001
 12
0.0012232543
 22
0.3641925536
 32
0.0
 13
0.3641934522
 23
0.000917474
 33
0.0
 40
0.0
 40
0.0
 40
0.0
 40
0.0
 40
0.2320250085
 40
0.47587978
 40
0.7334116474
 40
1.0
 40
1.0
 40
1.0
 40
1.0
 10
-2.9869014213
 20
-23.8443375673
 30
0.0
 10
-2.9868068128
 20
-23.8161703072
 30
0.0
 10
-2.9729747593
 20
-23.7577304425
 30
0.0
 10
-2.9161825427
 20
-23.686001985
 30
0.0
 10
-2.8334235387
 20
-23.6388632538
 30
0.0
 10
-2.7692688962
 20
-23.6279127456
 30
0.0
 10
-2.7369056521
 20
-23.6278312164
 30
0.0
 11
-2.9869014213
 21
-23.8443375673
 31
0.0
 11
-2.9678466465
 21
-23.7620117087
 31
0.0
 11
-2.9136448174
 21
-23.6916591456
 31
0.0
 11
-2.8325467008
 21
-23.6445424634
 31
0.0
 11
-2.7369056521
 21
-23.6278312164
 31
0.0
  0
SPLINE
  5
65D
100
AcDbEntity
  8
RACCORDO
100
AcDbSpline
 62
7
  6
CONTINUOUS
 70
0
 71
3
 72
11
 73
7
 74
5
 42
0.0000001
 43
0.0000001
 44
0.0000000001
 12
0.4494325074
 22
0.003465227
 32
0.0
 13
0.379851086
 23
0.2402389207
 33
0.0
 40
0.0
 40
0.0
 40
0.0
 40
0.0
 40
0.2018563251
 40
0.4484393042
 40
0.7201275271
 40
1.0
 40
1.0
 40
1.0
 40
1.0
 10
6.9537926863
 20
-23.7953389668
 30
0.0
 10
6.9840329511
 20
-23.7951058075
 30
0.0
 10
7.0495628528
 20
-23.7726289655
 30
0.0
 10
7.144929147
 20
-23.7235704265
 30
0.0
 10
7.2476935928
 20
-23.6618911311
 30
0.0
 10
7.3174807557
 20
-23.6177544384
 30
0.0
 10
7.3529173766
 20
-23.5953423515
 30
0.0
 11
6.9537926863
 21
-23.7953389668
 31
0.0
 11
7.0417822779
 21
-23.7732350403
 31
0.0
 11
7.1411732701
 21
-23.7242068179
 31
0.0
 11
7.2463417185
 21
-23.6621565025
 31
0.0
 11
7.3529173766
 21
-23.5953423515
 31
0.0
  0
SPLINE
  5
65E
100
AcDbEntity
  8
RACCORDO
100
AcDbSpline
 62
7
  6
CONTINUOUS
 70
0
 71
3
 72
11
 73
7
 74
5
 42
0.0000001
 43
0.0000001
 44
0.0000000001
 12
-0.4494325074
 22
0.003465227
 32
0.0
 13
-0.379851086
 23
0.2402389207
 33
0.0
 40
0.0
 40
0.0
 40
0.0
 40
0.0
 40
0.2018563251
 40
0.4484393042
 40
0.7201275271
 40
1.0
 40
1.0
 40
1.0
 40
1.0
 10
15.5462073137
 20
-23.7953389668
 30
0.0
 10
15.5159670489
 20
-23.7951058075
 30
0.0
 10
15.4504371472
 20
-23.7726289655
 30
0.0
 10
15.355070853
 20
-23.7235704265
 30
0.0
 10
15.2523064072
 20
-23.6618911311
 30
0.0
 10
15.1825192443
 20
-23.6177544384
 30
0.0
 10
15.1470826234
 20
-23.5953423515
 30
0.0
 11
15.5462073137
 21
-23.7953389668
 31
0.0
 11
15.4582177221
 21
-23.7732350403
 31
0.0
 11
15.3588267299
 21
-23.7242068179
 31
0.0
 11
15.2536582815
 21
-23.6621565025
 31
0.0
 11
15.1470826234
 21
-23.5953423515
 31
0.0
  0
SPLINE
  5
65F
100
AcDbEntity
  8
RACCORDO
100
AcDbSpline
 62
7
  6
CONTINUOUS
 70
0
 71
3
 72
12
 73
8
 74
6
 42
0.0000001
 43
0.0000001
 44
0.0000000001
 12
0.00316672
 22
0.3142672
 32
0.0
 13
0.3142831544
 23
-0.0
 33
0.0
 40
0.0
 40
0.0
 40
0.0
 40
0.0
 40
0.1357657081
 40
0.2967195393
 40
0.494990308
 40
0.7319263554
 40
1.0
 40
1.0
 40
1.0
 40
1.0
 10
-2.9927192511
 20
-23.2669872981
 30
0.0
 10
-2.9925759404
 20
-23.2527650618
 30
0.0
 10
-2.9836626122
 20
-23.2215007234
 30
0.0
 10
-2.9484692717
 20
-23.1818268587
 30
0.0
 10
-2.8940938093
 20
-23.1496465533
 30
0.0
 10
-2.8231429592
 20
-23.1278858039
 30
0.0
 10
-2.77007993
 20
-23.1226497308
 30
0.0
 10
-2.7419962532
 20
-23.1226497308
 30
0.0
 11
-2.9927192511
 21
-23.2669872981
 31
0.0
 11
-2.9818686228
 21
-23.2257211285
 31
0.0
 11
-2.9496721751
 21
-23.186705249
 31
0.0
 11
-2.8967464202
 21
-23.1538146014
 31
0.0
 11
-2.8258187716
 21
-23.1311362826
 31
0.0
 11
-2.7419962532
 21
-23.1226497308
 31
0.0
  0
SPLINE
  5
660
100
AcDbEntity
  8
RACCORDO
100
AcDbSpline
 62
7
  6
CONTINUOUS
 70
0
 71
3
 72
11
 73
7
 74
5
 42
0.0000001
 43
0.0000001
 44
0.0000000001
 12
-0.4494325074
 22
-0.003465227
 32
0.0
 13
-0.379851086
 23
-0.2402389207
 33
0.0
 40
0.0
 40
0.0
 40
0.0
 40
0.0
 40
0.2018563251
 40
0.4484393042
 40
0.7201275271
 40
1.0
 40
1.0
 40
1.0
 40
1.0
 10
-6.9537926863
 20
23.7953389668
 30
0.0
 10
-6.9840329511
 20
23.7951058075
 30
0.0
 10
-7.0495628528
 20
23.7726289655
 30
0.0
 10
-7.144929147
 20
23.7235704265
 30
0.0
 10
-7.2476935928
 20
23.6618911311
 30
0.0
 10
-7.3174807557
 20
23.6177544384
 30
0.0
 10
-7.3529173766
 20
23.5953423515
 30
0.0
 11
-6.9537926863
 21
23.7953389668
 31
0.0
 11
-7.0417822779
 21
23.7732350403
 31
0.0
 11
-7.1411732701
 21
23.7242068179
 31
0.0
 11
-7.2463417185
 21
23.6621565025
 31
0.0
 11
-7.3529173766
 21
23.5953423515
 31
0.0
  0
SPLINE
  5
661
100
AcDbEntity
  8
RACCORDO
100
AcDbSpline
 62
7
  6
CONTINUOUS
 70
0
 71
3
 72
11
 73
7
 74
5
 42
0.0000001
 43
0.0000001
 44
0.0000000001
 12
0.4494325074
 22
-0.003465227
 32
0.0
 13
0.379851086
 23
-0.2402389207
 33
0.0
 40
0.0
 40
0.0
 40
0.0
 40
0.0
 40
0.2018563251
 40
0.4484393042
 40
0.7201275271
 40
1.0
 40
1.0
 40
1.0
 40
1.0
 10
-15.5462073137
 20
23.7953389668
 30
0.0
 10
-15.5159670489
 20
23.7951058075
 30
0.0
 10
-15.4504371472
 20
23.7726289655
 30
0.0
 10
-15.355070853
 20
23.7235704265
 30
0.0
 10
-15.2523064072
 20
23.6618911311
 30
0.0
 10
-15.1825192443
 20
23.6177544384
 30
0.0
 10
-15.1470826234
 20
23.5953423515
 30
0.0
 11
-15.5462073137
 21
23.7953389668
 31
0.0
 11
-15.4582177221
 21
23.7732350403
 31
0.0
 11
-15.3588267299
 21
23.7242068179
 31
0.0
 11
-15.2536582815
 21
23.6621565025
 31
0.0
 11
-15.1470826234
 21
23.5953423515
 31
0.0
  0
SPLINE
  5
662
100
AcDbEntity
  8
RACCORDO
100
AcDbSpline
 62
7
  6
CONTINUOUS
 70
0
 71
3
 72
12
 73
8
 74
6
 42
0.0000001
 43
0.0000001
 44
0.0000000001
 12
-0.00316672
 22
0.3142672
 32
0.0
 13
-0.3142831544
 23
0.0
 33
0.0
 40
0.0
 40
0.0
 40
0.0
 40
0.0
 40
0.1357657081
 40
0.2967195393
 40
0.494990308
 40
0.7319263554
 40
1.0
 40
1.0
 40
1.0
 40
1.0
 10
-19.5072807489
 20
-23.2669872981
 30
0.0
 10
-19.5074240596
 20
-23.2527650618
 30
0.0
 10
-19.5163373878
 20
-23.2215007234
 30
0.0
 10
-19.5515307283
 20
-23.1818268587
 30
0.0
 10
-19.6059061907
 20
-23.1496465533
 30
0.0
 10
-19.6768570408
 20
-23.1278858039
 30
0.0
 10
-19.72992007
 20
-23.1226497308
 30
0.0
 10
-19.7580037468
 20
-23.1226497308
 30
0.0
 11
-19.5072807489
 21
-23.2669872981
 31
0.0
 11
-19.5181313772
 21
-23.2257211285
 31
0.0
 11
-19.5503278249
 21
-23.186705249
 31
0.0
 11
-19.6032535798
 21
-23.1538146014
 31
0.0
 11
-19.6741812284
 21
-23.1311362826
 31
0.0
 11
-19.7580037468
 21
-23.1226497308
 31
0.0
  0
SPLINE
  5
663
100
AcDbEntity
  8
RACCORDO
100
AcDbSpline
 62
253
  6
CONTINUOUS
 70
0
 71
3
 72
11
 73
7
 74
5
 42
0.0000001
 43
0.0000001
 44
0.0000000001
 12
-0.0012232543
 22
0.3641925536
 32
0.0
 13
-0.3641934522
 23
0.000917474
 33
0.0
 40
0.0
 40
0.0
 40
0.0
 40
0.0
 40
0.2320250085
 40
0.47587978
 40
0.7334116474
 40
1.0
 40
1.0
 40
1.0
 40
1.0
 10
-19.5130985787
 20
-23.8443375673
 30
0.0
 10
-19.5131931872
 20
-23.8161703072
 30
0.0
 10
-19.5270252407
 20
-23.7577304425
 30
0.0
 10
-19.5838174573
 20
-23.686001985
 30
0.0
 10
-19.6665764613
 20
-23.6388632538
 30
0.0
 10
-19.7307311038
 20
-23.6279127456
 30
0.0
 10
-19.7630943479
 20
-23.6278312164
 30
0.0
 11
-19.5130985787
 21
-23.8443375673
 31
0.0
 11
-19.5321533535
 21
-23.7620117087
 31
0.0
 11
-19.5863551826
 21
-23.6916591456
 31
0.0
 11
-19.6674532992
 21
-23.6445424634
 31
0.0
 11
-19.7630943479
 21
-23.6278312164
 31
0.0
  0
SPLINE
  5
664
100
AcDbEntity
  8
RACCORDO
100
AcDbSpline
 62
253
  6
CONTINUOUS
 70
0
 71
3
 72
11
 73
7
 74
5
 42
0.0000001
 43
0.0000001
 44
0.0000000001
 12
0.0012232543
 22
0.3641925536
 32
0.0
 13
0.3641934522
 23
0.000917474
 33
0.0
 40
0.0
 40
0.0
 40
0.0
 40
0.0
 40
0.2320250085
 40
0.47587978
 40
0.7334116474
 40
1.0
 40
1.0
 40
1.0
 40
1.0
 10
-21.8869014213
 20
-23.8443375673
 30
0.0
 10
-21.8868068128
 20
-23.8161703072
 30
0.0
 10
-21.8729747593
 20
-23.7577304425
 30
0.0
 10
-21.8161825427
 20
-23.686001985
 30
0.0
 10
-21.7334235387
 20
-23.6388632538
 30
0.0
 10
-21.6692688962
 20
-23.6279127456
 30
0.0
 10
-21.6369056521
 20
-23.6278312164
 30
0.0
 11
-21.8869014213
 21
-23.8443375673
 31
0.0
 11
-21.8678466465
 21
-23.7620117087
 31
0.0
 11
-21.8136448174
 21
-23.6916591456
 31
0.0
 11
-21.7325467008
 21
-23.6445424634
 31
0.0
 11
-21.6369056521
 21
-23.6278312164
 31
0.0
  0
SPLINE
  5
665
100
AcDbEntity
  8
RACCORDO
100
AcDbSpline
 62
7
  6
CONTINUOUS
 70
0
 71
3
 72
12
 73
8
 74
6
 42
0.0000001
 43
0.0000001
 44
0.0000000001
 12
0.0031594254
 22
0.313543278
 32
0.0
 13
0.3135591956
 23
0.0
 33
0.0
 40
0.0
 40
0.0
 40
0.0
 40
0.0
 40
0.1363357513
 40
0.2975671046
 40
0.4959424479
 40
0.733166537
 40
1.0
 40
1.0
 40
1.0
 40
1.0
 10
-21.8927192511
 20
-23.2669872981
 30
0.0
 10
-21.8925756702
 20
-23.2527382453
 30
0.0
 10
-21.8836395401
 20
-23.2214568388
 30
0.0
 10
-21.8484440382
 20
-23.1818192191
 30
0.0
 10
-21.7941380777
 20
-23.1496684232
 30
0.0
 10
-21.7234418317
 20
-23.1279872016
 30
0.0
 10
-21.6706128439
 20
-23.1226497308
 30
0.0
 10
-21.6427234819
 20
-23.1226497308
 30
0.0
 11
-21.8927192511
 21
-23.2669872981
 31
0.0
 11
-21.8818300995
 21
-23.2256480738
 31
0.0
 11
-21.8496325467
 21
-23.186671368
 31
0.0
 11
-21.7968007617
 21
-23.1538393304
 31
0.0
 11
-21.7259571295
 21
-23.131164925
 31
0.0
 11
-21.6427234819
 21
-23.1226497308
 31
0.0
  0
SPLINE
  5
666
100
AcDbEntity
  8
RACCORDO
100
AcDbSpline
 62
7
  6
CONTINUOUS
 70
0
 71
3
 72
10
 73
6
 74
4
 42
0.0000001
 43
0.0000001
 44
0.0000000001
 12
0.0037555946
 22
0.0343077379
 32
0.0
 13
0.0343729863
 23
0.0031021255
 33
0.0
 40
0.0
 40
0.0
 40
0.0
 40
0.0
 40
0.1304413719
 40
0.4640963937
 40
1.0
 40
1.0
 40
1.0
 40
1.0
 10
-21.8927192511
 20
-22.3334109614
 30
0.0
 10
-21.8925559561
 20
-22.3319192453
 30
0.0
 10
-21.8853430356
 20
-22.3308592406
 30
0.0
 10
-21.8757216498
 20
-22.3292173887
 30
0.0
 10
-21.8650555424
 20
-22.3284649854
 30
0.0
 10
-21.85891534
 20
-22.3279108386
 30
0.0
 11
-21.8927192511
 21
-22.3334109614
 31
0.0
 11
-21.888718413
 21
-22.3313469278
 31
0.0
 11
-21.8773289685
 21
-22.3296488731
 31
0.0
 11
-21.85891534
 21
-22.3279108386
 31
0.0
  0
SPLINE
  5
667
100
AcDbEntity
  8
RACCORDO
100
AcDbSpline
 62
7
  6
CONTINUOUS
 70
0
 71
3
 72
11
 73
7
 74
5
 42
0.0000001
 43
0.0000001
 44
0.0000000001
 12
0.4494325074
 22
0.003465227
 32
0.0
 13
0.379851086
 23
0.2402389207
 33
0.0
 40
0.0
 40
0.0
 40
0.0
 40
0.0
 40
0.2018563251
 40
0.4484393042
 40
0.7201275271
 40
1.0
 40
1.0
 40
1.0
 40
1.0
 10
-15.5462073137
 20
-23.7953389668
 30
0.0
 10
-15.5159670489
 20
-23.7951058075
 30
0.0
 10
-15.4504371472
 20
-23.7726289655
 30
0.0
 10
-15.355070853
 20
-23.7235704265
 30
0.0
 10
-15.2523064072
 20
-23.6618911311
 30
0.0
 10
-15.1825192443
 20
-23.6177544384
 30
0.0
 10
-15.1470826234
 20
-23.5953423515
 30
0.0
 11
-15.5462073137
 21
-23.7953389668
 31
0.0
 11
-15.4582177221
 21
-23.7732350403
 31
0.0
 11
-15.3588267299
 21
-23.7242068179
 31
0.0
 11
-15.2536582815
 21
-23.6621565025
 31
0.0
 11
-15.1470826234
 21
-23.5953423515
 31
0.0
  0
SPLINE
  5
668
100
AcDbEntity
  8
RACCORDO
100
AcDbSpline
 62
253
  6
CONTINUOUS
 70
0
 71
3
 72
11
 73
7
 74
5
 42
0.0000001
 43
0.0000001
 44
0.0000000001
 12
-0.0012232491
 22
-0.3641909974
 32
0.0
 13
-0.3641918961
 23
-0.0009174701
 33
0.0
 40
0.0
 40
0.0
 40
0.0
 40
0.0
 40
0.2331625878
 40
0.4766705428
 40
0.7338113025
 40
1.0
 40
1.0
 40
1.0
 40
1.0
 10
-0.6130985787
 20
23.8443375673
 30
0.0
 10
-0.6131936507
 20
23.8160323288
 30
0.0
 10
-0.6271232425
 20
23.7574890854
 30
0.0
 10
-0.6840557728
 20
23.6858279894
 30
0.0
 10
-0.7667238064
 20
23.6388297018
 30
0.0
 10
-0.8307797591
 20
23.6279126231
 30
0.0
 10
-0.8630943479
 20
23.6278312164
 30
0.0
 11
-0.6130985787
 21
23.8443375673
 31
0.0
 11
-0.6323366638
 21
23.761629308
 31
0.0
 11
-0.6865771902
 21
23.6914666374
 31
0.0
 11
-0.7675926926
 21
23.6444921687
 31
0.0
 11
-0.8630943479
 21
23.6278312164
 31
0.0
  0
SPLINE
  5
669
100
AcDbEntity
  8
RACCORDO
100
AcDbSpline
 62
7
  6
CONTINUOUS
 70
0
 71
3
 72
12
 73
8
 74
6
 42
0.0000001
 43
0.0000001
 44
0.0000000001
 12
-0.00316672
 22
-0.3142672
 32
0.0
 13
-0.3142831544
 23
0.0
 33
0.0
 40
0.0
 40
0.0
 40
0.0
 40
0.0
 40
0.1357657081
 40
0.2967195393
 40
0.494990308
 40
0.7319263554
 40
1.0
 40
1.0
 40
1.0
 40
1.0
 10
-0.6072807489
 20
23.2669872981
 30
0.0
 10
-0.6074240596
 20
23.2527650618
 30
0.0
 10
-0.6163373878
 20
23.2215007234
 30
0.0
 10
-0.6515307283
 20
23.1818268587
 30
0.0
 10
-0.7059061907
 20
23.1496465533
 30
0.0
 10
-0.7768570408
 20
23.1278858039
 30
0.0
 10
-0.82992007
 20
23.1226497308
 30
0.0
 10
-0.8580037468
 20
23.1226497308
 30
0.0
 11
-0.6072807489
 21
23.2669872981
 31
0.0
 11
-0.6181313772
 21
23.2257211285
 31
0.0
 11
-0.6503278249
 21
23.186705249
 31
0.0
 11
-0.7032535798
 21
23.1538146014
 31
0.0
 11
-0.7741812284
 21
23.1311362826
 31
0.0
 11
-0.8580037468
 21
23.1226497308
 31
0.0
  0
SPLINE
  5
66A
100
AcDbEntity
  8
RACCORDO
100
AcDbSpline
 62
7
  6
CONTINUOUS
 70
0
 71
3
 72
11
 73
7
 74
5
 42
0.0000001
 43
0.0000001
 44
0.0000000001
 12
-0.4494325074
 22
0.003465227
 32
0.0
 13
-0.379851086
 23
0.2402389207
 33
0.0
 40
0.0
 40
0.0
 40
0.0
 40
0.0
 40
0.2018563251
 40
0.4484393042
 40
0.7201275271
 40
1.0
 40
1.0
 40
1.0
 40
1.0
 10
-6.9537926863
 20
-23.7953389668
 30
0.0
 10
-6.9840329511
 20
-23.7951058075
 30
0.0
 10
-7.0495628528
 20
-23.7726289655
 30
0.0
 10
-7.144929147
 20
-23.7235704265
 30
0.0
 10
-7.2476935928
 20
-23.6618911311
 30
0.0
 10
-7.3174807557
 20
-23.6177544384
 30
0.0
 10
-7.3529173766
 20
-23.5953423515
 30
0.0
 11
-6.9537926863
 21
-23.7953389668
 31
0.0
 11
-7.0417822779
 21
-23.7732350403
 31
0.0
 11
-7.1411732701
 21
-23.7242068179
 31
0.0
 11
-7.2463417185
 21
-23.6621565025
 31
0.0
 11
-7.3529173766
 21
-23.5953423515
 31
0.0
  0
SPLINE
  5
66B
100
AcDbEntity
  8
RACCORDO
100
AcDbSpline
 62
7
  6
CONTINUOUS
 70
0
 71
3
 72
12
 73
8
 74
6
 42
0.0000001
 43
0.0000001
 44
0.0000000001
 12
0.00316672
 22
-0.3142672
 32
0.0
 13
0.3142831544
 23
0.0
 33
0.0
 40
0.0
 40
0.0
 40
0.0
 40
0.0
 40
0.1357657081
 40
0.2967195393
 40
0.494990308
 40
0.7319263554
 40
1.0
 40
1.0
 40
1.0
 40
1.0
 10
-2.9927192511
 20
23.2669872981
 30
0.0
 10
-2.9925759404
 20
23.2527650618
 30
0.0
 10
-2.9836626122
 20
23.2215007234
 30
0.0
 10
-2.9484692717
 20
23.1818268587
 30
0.0
 10
-2.8940938093
 20
23.1496465533
 30
0.0
 10
-2.8231429592
 20
23.1278858039
 30
0.0
 10
-2.77007993
 20
23.1226497308
 30
0.0
 10
-2.7419962532
 20
23.1226497308
 30
0.0
 11
-2.9927192511
 21
23.2669872981
 31
0.0
 11
-2.9818686228
 21
23.2257211285
 31
0.0
 11
-2.9496721751
 21
23.186705249
 31
0.0
 11
-2.8967464202
 21
23.1538146014
 31
0.0
 11
-2.8258187716
 21
23.1311362826
 31
0.0
 11
-2.7419962532
 21
23.1226497308
 31
0.0
  0
SPLINE
  5
66C
100
AcDbEntity
  8
RACCORDO
100
AcDbSpline
 62
253
  6
CONTINUOUS
 70
0
 71
3
 72
11
 73
7
 74
5
 42
0.0000001
 43
0.0000001
 44
0.0000000001
 12
0.0012232491
 22
-0.3641909974
 32
0.0
 13
0.3641918961
 23
-0.0009174701
 33
0.0
 40
0.0
 40
0.0
 40
0.0
 40
0.0
 40
0.2331625878
 40
0.4766705428
 40
0.7338113025
 40
1.0
 40
1.0
 40
1.0
 40
1.0
 10
-2.9869014213
 20
23.8443375673
 30
0.0
 10
-2.9868063493
 20
23.8160323288
 30
0.0
 10
-2.9728767575
 20
23.7574890854
 30
0.0
 10
-2.9159442272
 20
23.6858279894
 30
0.0
 10
-2.8332761936
 20
23.6388297018
 30
0.0
 10
-2.7692202409
 20
23.6279126231
 30
0.0
 10
-2.7369056521
 20
23.6278312164
 30
0.0
 11
-2.9869014213
 21
23.8443375673
 31
0.0
 11
-2.9676633362
 21
23.761629308
 31
0.0
 11
-2.9134228098
 21
23.6914666374
 31
0.0
 11
-2.8324073074
 21
23.6444921687
 31
0.0
 11
-2.7369056521
 21
23.6278312164
 31
0.0
  0
SPLINE
  5
66D
100
AcDbEntity
  8
RACCORDO
100
AcDbSpline
 62
253
  6
CONTINUOUS
 70
0
 71
3
 72
11
 73
7
 74
5
 42
0.0000001
 43
0.0000001
 44
0.0000000001
 12
-0.0012232491
 22
-0.3641909974
 32
0.0
 13
-0.3641918961
 23
-0.0009174701
 33
0.0
 40
0.0
 40
0.0
 40
0.0
 40
0.0
 40
0.2331625878
 40
0.4766705428
 40
0.7338113025
 40
1.0
 40
1.0
 40
1.0
 40
1.0
 10
-19.5130985787
 20
23.8443375673
 30
0.0
 10
-19.5131936507
 20
23.8160323288
 30
0.0
 10
-19.5271232425
 20
23.7574890854
 30
0.0
 10
-19.5840557728
 20
23.6858279894
 30
0.0
 10
-19.6667238064
 20
23.6388297018
 30
0.0
 10
-19.7307797591
 20
23.6279126231
 30
0.0
 10
-19.7630943479
 20
23.6278312164
 30
0.0
 11
-19.5130985787
 21
23.8443375673
 31
0.0
 11
-19.5323366638
 21
23.761629308
 31
0.0
 11
-19.5865771902
 21
23.6914666374
 31
0.0
 11
-19.6675926926
 21
23.6444921687
 31
0.0
 11
-19.7630943479
 21
23.6278312164
 31
0.0
  0
SPLINE
  5
66E
100
AcDbEntity
  8
RACCORDO
100
AcDbSpline
 62
7
  6
CONTINUOUS
 70
0
 71
3
 72
12
 73
8
 74
6
 42
0.0000001
 43
0.0000001
 44
0.0000000001
 12
-0.00316672
 22
-0.3142672
 32
0.0
 13
-0.3142831544
 23
0.0
 33
0.0
 40
0.0
 40
0.0
 40
0.0
 40
0.0
 40
0.1357657081
 40
0.2967195393
 40
0.494990308
 40
0.7319263554
 40
1.0
 40
1.0
 40
1.0
 40
1.0
 10
-19.5072807489
 20
23.2669872981
 30
0.0
 10
-19.5074240596
 20
23.2527650618
 30
0.0
 10
-19.5163373878
 20
23.2215007234
 30
0.0
 10
-19.5515307283
 20
23.1818268587
 30
0.0
 10
-19.6059061907
 20
23.1496465533
 30
0.0
 10
-19.6768570408
 20
23.1278858039
 30
0.0
 10
-19.72992007
 20
23.1226497308
 30
0.0
 10
-19.7580037468
 20
23.1226497308
 30
0.0
 11
-19.5072807489
 21
23.2669872981
 31
0.0
 11
-19.5181313772
 21
23.2257211285
 31
0.0
 11
-19.5503278249
 21
23.186705249
 31
0.0
 11
-19.6032535798
 21
23.1538146014
 31
0.0
 11
-19.6741812284
 21
23.1311362826
 31
0.0
 11
-19.7580037468
 21
23.1226497308
 31
0.0
  0
SPLINE
  5
66F
100
AcDbEntity
  8
RACCORDO
100
AcDbSpline
 62
7
  6
CONTINUOUS
 70
0
 71
3
 72
10
 73
6
 74
4
 42
0.0000001
 43
0.0000001
 44
0.0000000001
 12
-0.0343729863
 22
0.0031021255
 32
0.0
 13
-0.0037555946
 23
0.0343077379
 33
0.0
 40
0.0
 40
0.0
 40
0.0
 40
0.0
 40
0.5359036063
 40
0.8695586281
 40
1.0
 40
1.0
 40
1.0
 40
1.0
 10
-21.85891534
 20
22.3279108386
 30
0.0
 10
-21.8650555424
 20
22.3284649854
 30
0.0
 10
-21.8757216498
 20
22.3292173887
 30
0.0
 10
-21.8853430356
 20
22.3308592406
 30
0.0
 10
-21.8925559561
 20
22.3319192453
 30
0.0
 10
-21.8927192511
 20
22.3334109614
 30
0.0
 11
-21.85891534
 21
22.3279108386
 31
0.0
 11
-21.8773289685
 21
22.3296488731
 31
0.0
 11
-21.888718413
 21
22.3313469278
 31
0.0
 11
-21.8927192511
 21
22.3334109614
 31
0.0
  0
SPLINE
  5
670
100
AcDbEntity
  8
RACCORDO
100
AcDbSpline
 62
7
  6
CONTINUOUS
 70
0
 71
3
 72
12
 73
8
 74
6
 42
0.0000001
 43
0.0000001
 44
0.0000000001
 12
0.00316672
 22
-0.3142672
 32
0.0
 13
0.3142831544
 23
0.0
 33
0.0
 40
0.0
 40
0.0
 40
0.0
 40
0.0
 40
0.1357657081
 40
0.2967195393
 40
0.494990308
 40
0.7319263554
 40
1.0
 40
1.0
 40
1.0
 40
1.0
 10
-21.8927192511
 20
23.2669872981
 30
0.0
 10
-21.8925759404
 20
23.2527650618
 30
0.0
 10
-21.8836626122
 20
23.2215007234
 30
0.0
 10
-21.8484692717
 20
23.1818268587
 30
0.0
 10
-21.7940938093
 20
23.1496465533
 30
0.0
 10
-21.7231429592
 20
23.1278858039
 30
0.0
 10
-21.67007993
 20
23.1226497308
 30
0.0
 10
-21.6419962532
 20
23.1226497308
 30
0.0
 11
-21.8927192511
 21
23.2669872981
 31
0.0
 11
-21.8818686228
 21
23.2257211285
 31
0.0
 11
-21.8496721751
 21
23.186705249
 31
0.0
 11
-21.7967464202
 21
23.1538146014
 31
0.0
 11
-21.7258187716
 21
23.1311362826
 31
0.0
 11
-21.6419962532
 21
23.1226497308
 31
0.0
  0
SPLINE
  5
671
100
AcDbEntity
  8
RACCORDO
100
AcDbSpline
 62
253
  6
CONTINUOUS
 70
0
 71
3
 72
11
 73
7
 74
5
 42
0.0000001
 43
0.0000001
 44
0.0000000001
 12
0.0012232491
 22
-0.3641909974
 32
0.0
 13
0.3641918961
 23
-0.0009174701
 33
0.0
 40
0.0
 40
0.0
 40
0.0
 40
0.0
 40
0.2331625878
 40
0.4766705428
 40
0.7338113025
 40
1.0
 40
1.0
 40
1.0
 40
1.0
 10
-21.8869014213
 20
23.8443375673
 30
0.0
 10
-21.8868063493
 20
23.8160323288
 30
0.0
 10
-21.8728767575
 20
23.7574890854
 30
0.0
 10
-21.8159442272
 20
23.6858279894
 30
0.0
 10
-21.7332761936
 20
23.6388297018
 30
0.0
 10
-21.6692202409
 20
23.6279126231
 30
0.0
 10
-21.6369056521
 20
23.6278312164
 30
0.0
 11
-21.8869014213
 21
23.8443375673
 31
0.0
 11
-21.8676633362
 21
23.761629308
 31
0.0
 11
-21.8134228098
 21
23.6914666374
 31
0.0
 11
-21.7324073074
 21
23.6444921687
 31
0.0
 11
-21.6369056521
 21
23.6278312164
 31
0.0
  0
SPLINE
  5
672
100
AcDbEntity
  8
RACCORDO
100
AcDbSpline
 62
253
  6
CONTINUOUS
 70
0
 71
3
 72
12
 73
8
 74
6
 42
0.0000001
 43
0.0000001
 44
0.0000000001
 12
0.1958408934
 22
0.4611476607
 32
0.0
 13
0.5010096719
 23
0.0003593232
 33
0.0
 40
0.0
 40
0.0
 40
0.0
 40
0.0
 40
0.0545574379
 40
0.1985486299
 40
0.4189841145
 40
0.6949158385
 40
1.0
 40
1.0
 40
1.0
 40
1.0
 10
-22.2326730389
 20
20.5419058565
 30
0.0
 10
-22.2291115131
 20
20.5502922014
 30
0.0
 10
-22.185044582
 20
20.5448616677
 30
0.0
 10
-22.1249767481
 20
20.5581285647
 30
0.0
 10
-22.0131268695
 20
20.5577989707
 30
0.0
 10
-21.8812280341
 20
20.5622020073
 30
0.0
 10
-21.7836992301
 20
20.5624309407
 30
0.0
 10
-21.7327491915
 20
20.562467482
 30
0.0
 11
-22.2326730389
 21
20.5419058565
 31
0.0
 11
-22.2060720005
 21
20.5481925079
 31
0.0
 11
-22.1341553285
 21
20.5538772191
 31
0.0
 11
-22.0238082844
 21
20.5584157391
 31
0.0
 11
-21.8855954319
 21
20.5613735527
 31
0.0
 11
-21.7327491915
 21
20.562467482
 31
0.0
  0
SPLINE
  5
673
100
AcDbEntity
  8
RACCORDO
100
AcDbSpline
 62
253
  6
CONTINUOUS
 70
0
 71
3
 72
14
 73
10
 74
8
 42
0.0000001
 43
0.0000001
 44
0.0000000001
 12
-0.0006923233
 22
1.4364936626
 32
0.0
 13
-0.3108908509
 23
1.4024483594
 33
0.0
 40
0.0
 40
0.0
 40
0.0
 40
0.0
 40
0.2176160813
 40
0.4236373638
 40
0.6090080073
 40
0.7653613593
 40
0.8859559566
 40
0.9653129863
 40
1.0
 40
1.0
 40
1.0
 40
1.0
 10
-21.7327491915
 20
20.5624683248
 30
0.0
 10
-21.7327994118
 20
20.6666696987
 30
0.0
 10
-21.7331268279
 20
20.8695230972
 30
0.0
 10
-21.7344187324
 20
21.1611220022
 30
0.0
 10
-21.7361425715
 20
21.4234270947
 30
0.0
 10
-21.7390709698
 20
21.6446896078
 30
0.0
 10
-21.740686231
 20
21.8155223057
 30
0.0
 10
-21.746079386
 20
21.9273498061
 30
0.0
 10
-21.7456813371
 20
21.9825096401
 30
0.0
 10
-21.7492759622
 20
21.998725222
 30
0.0
 11
-21.7327491915
 21
20.5624683248
 31
0.0
 11
-21.7332865279
 21
20.875072021
 31
0.0
 11
-21.7345737859
 21
21.1710175225
 31
0.0
 11
-21.7365543644
 21
21.4372939423
 31
0.0
 11
-21.7391385145
 21
21.6618797012
 31
0.0
 11
-21.742215212
 21
21.8350857722
 31
0.0
 11
-21.7456441544
 21
21.9490300735
 31
0.0
 11
-21.7492759622
 21
21.998725222
 31
0.0
  0
SPLINE
  5
674
100
AcDbEntity
  8
RACCORDO
100
AcDbSpline
 62
253
  6
CONTINUOUS
 70
0
 71
3
 72
14
 73
10
 74
8
 42
0.0000001
 43
0.0000001
 44
0.0000000001
 12
-0.0006904541
 22
0.9578595488
 32
0.0
 13
-0.3016372601
 23
0.9091261493
 33
0.0
 40
0.0
 40
0.0
 40
0.0
 40
0.0
 40
0.2168088975
 40
0.4230298769
 40
0.6086471234
 40
0.7652485168
 40
0.886002419
 40
0.9653861113
 40
1.0
 40
1.0
 40
1.0
 40
1.0
 10
-22.2326730391
 20
20.5419058565
 30
0.0
 10
-22.232722938
 20
20.6111300141
 30
0.0
 10
-22.2330502634
 20
20.7462014
 30
0.0
 10
-22.2343355302
 20
20.9405155107
 30
0.0
 10
-22.2360714779
 20
21.1156632224
 30
0.0
 10
-22.2389703288
 20
21.2633275988
 30
0.0
 10
-22.2406719598
 20
21.3775418624
 30
0.0
 10
-22.2459013638
 20
21.451751836
 30
0.0
 10
-22.2457195302
 20
21.4889209908
 30
0.0
 10
-22.2491998097
 20
21.4994104546
 30
0.0
 11
-22.2326730391
 21
20.5419058565
 31
0.0
 11
-22.2332071218
 21
20.7495776964
 31
0.0
 11
-22.2344933851
 21
20.9471042941
 31
0.0
 11
-22.2364750323
 21
21.1248885486
 31
0.0
 11
-22.2390629105
 21
21.2748684025
 31
0.0
 11
-22.2421447634
 21
21.3904926462
 31
0.0
 11
-22.2455790631
 21
21.4664534985
 31
0.0
 11
-22.2491998097
 21
21.4994104546
 31
0.0
  0
SPLINE
  5
675
100
AcDbEntity
  8
RACCORDO
100
AcDbSpline
 62
253
  6
CONTINUOUS
 70
0
 71
3
 72
12
 73
8
 74
6
 42
0.0000001
 43
0.0000001
 44
0.0000000001
 12
0.1955557965
 22
-0.4612688269
 32
0.0
 13
0.5010098513
 23
-0.0003593463
 33
0.0
 40
0.0
 40
0.0
 40
0.0
 40
0.0
 40
0.0545505204
 40
0.1985386417
 40
0.4189749011
 40
0.6949104024
 40
1.0
 40
1.0
 40
1.0
 40
1.0
 10
-22.2326730391
 20
-20.5419058565
 30
0.0
 10
-22.2291171489
 20
-20.5502933413
 30
0.0
 10
-22.1850414146
 20
-20.5448604718
 30
0.0
 10
-22.1249849197
 20
-20.5581301651
 30
0.0
 10
-22.0131295781
 20
-20.5577992044
 30
0.0
 10
-21.8812310613
 20
-20.5622029764
 30
0.0
 10
-21.7837001562
 20
-20.5624317804
 30
0.0
 10
-21.7327491915
 20
-20.5624683246
 30
0.0
 11
-22.2326730391
 21
-20.5419058565
 31
0.0
 11
-22.2060756021
 21
-20.5481927201
 31
0.0
 11
-22.1341604655
 21
-20.5538776601
 31
0.0
 11
-22.0238130016
 21
-20.5584163834
 31
0.0
 11
-21.8855982098
 21
-20.561374339
 31
0.0
 11
-21.7327491915
 21
-20.5624683246
 31
0.0
  0
SPLINE
  5
676
100
AcDbEntity
  8
RACCORDO
100
AcDbSpline
 62
253
  6
CONTINUOUS
 70
0
 71
3
 72
10
 73
6
 74
4
 42
0.0000001
 43
0.0000001
 44
0.0000000001
 12
0.029516461
 22
41.1249291934
 32
0.0
 13
-0.0295164549
 23
41.1249291934
 33
0.0
 40
0.0
 40
0.0
 40
0.0
 40
0.0
 40
0.3332915601
 40
0.6667084399
 40
1.0
 40
1.0
 40
1.0
 40
1.0
 10
-21.7327491915
 20
-20.5624683248
 30
0.0
 10
-21.7294699957
 20
-15.9936043887
 30
0.0
 10
-21.7250999145
 20
-6.8541568667
 30
0.0
 10
-21.7250999136
 20
6.8541568649
 30
0.0
 10
-21.7294699964
 20
15.9936043878
 30
0.0
 10
-21.7327491915
 20
20.5624683248
 30
0.0
 11
-21.7327491915
 21
-20.5624683248
 31
0.0
 11
-21.7261928454
 21
-6.8558745541
 31
0.0
 11
-21.7261928452
 21
6.8558745515
 31
0.0
 11
-21.7327491915
 21
20.5624683248
 31
0.0
  0
SPLINE
  5
677
100
AcDbEntity
  8
RACCORDO
100
AcDbSpline
 62
253
  6
CONTINUOUS
 70
0
 71
3
 72
10
 73
6
 74
4
 42
0.0000001
 43
0.0000001
 44
0.0000000001
 12
0.0295164608
 22
41.0838042493
 32
0.0
 13
-0.0295164548
 23
41.0838042493
 33
0.0
 40
0.0
 40
0.0
 40
0.0
 40
0.0
 40
0.3332914014
 40
0.6667089372
 40
1.0
 40
1.0
 40
1.0
 40
1.0
 10
-22.2326730391
 20
-20.5419058565
 30
0.0
 10
-22.2293938449
 20
-15.9776129584
 30
0.0
 10
-22.2250237593
 20
-6.8472980736
 30
0.0
 10
-22.2250237618
 20
6.8473073473
 30
0.0
 10
-22.2293938489
 20
15.9776175952
 30
0.0
 10
-22.2326730391
 20
20.5419058565
 30
0.0
 11
-22.2326730391
 21
-20.5419058565
 31
0.0
 11
-22.2261166945
 21
-6.8490251979
 31
0.0
 11
-22.2261166977
 21
6.8490391085
 31
0.0
 11
-22.2326730391
 21
20.5419058565
 31
0.0
  0
SPLINE
  5
678
100
AcDbEntity
  8
RACCORDO
100
AcDbSpline
 62
253
  6
CONTINUOUS
 70
0
 71
3
 72
14
 73
10
 74
8
 42
0.0000001
 43
0.0000001
 44
0.0000000001
 12
0.3111440752
 22
1.4023921964
 32
0.0
 13
0.0006936293
 23
1.4364936571
 33
0.0
 40
0.0
 40
0.0
 40
0.0
 40
0.0
 40
0.0346842111
 40
0.114042709
 40
0.2346306748
 40
0.3909822548
 40
0.5763602418
 40
0.7823736694
 40
1.0
 40
1.0
 40
1.0
 40
1.0
 10
-21.7492759622
 20
-21.998725222
 30
0.0
 10
-21.7456786999
 20
-21.9825115997
 30
0.0
 10
-21.7460827454
 20
-21.9273510715
 30
0.0
 10
-21.7406847401
 20
-21.8155284749
 30
0.0
 10
-21.7390720702
 20
-21.6446985577
 30
0.0
 10
-21.7361425674
 20
-21.4234367724
 30
0.0
 10
-21.7344187174
 20
-21.1611326995
 30
0.0
 10
-21.7331268005
 20
-20.8695291561
 30
0.0
 10
-21.7327995089
 20
-20.666674606
 30
0.0
 10
-21.7327491915
 20
-20.5624683248
 30
0.0
 11
-21.7492759622
 21
-21.998725222
 31
0.0
 11
-21.7456444084
 21
-21.9490340918
 31
0.0
 11
-21.7422153579
 21
-21.8350876841
 31
0.0
 11
-21.7391388841
 21
-21.6618911373
 31
0.0
 11
-21.7365546485
 21
-21.4373079257
 31
0.0
 11
-21.734573735
 21
-21.1710209602
 31
0.0
 11
-21.7332865562
 21
-20.8750867429
 31
0.0
 11
-21.7327491915
 21
-20.5624683248
 31
0.0
  0
SPLINE
  5
679
100
AcDbEntity
  8
RACCORDO
100
AcDbSpline
 62
253
  6
CONTINUOUS
 70
0
 71
3
 72
14
 73
10
 74
8
 42
0.0000001
 43
0.0000001
 44
0.0000000001
 12
0.3019716335
 22
0.9090151608
 32
0.0
 13
0.0006915352
 23
0.9578595679
 33
0.0
 40
0.0
 40
0.0
 40
0.0
 40
0.0
 40
0.0345862372
 40
0.113917666
 40
0.2345682956
 40
0.3911265066
 40
0.5768066027
 40
0.7830848485
 40
1.0
 40
1.0
 40
1.0
 40
1.0
 10
-22.2491998097
 20
-21.4994104546
 30
0.0
 10
-22.2457184556
 20
-21.4889306499
 30
0.0
 10
-22.2459060162
 20
-21.4517851427
 30
0.0
 10
-22.2406739366
 20
-21.3776351656
 30
0.0
 10
-22.2389742043
 20
-21.2634836018
 30
0.0
 10
-22.2360735268
 20
-21.1158463222
 30
0.0
 10
-22.2343367931
 20
-20.9406738853
 30
0.0
 10
-22.2330504649
 20
-20.7462875537
 30
0.0
 10
-22.2327230406
 20
-20.6111639409
 30
0.0
 10
-22.2326730391
 20
-20.5419058565
 30
0.0
 11
-22.2491998097
 21
-21.4994104546
 31
0.0
 11
-22.2455808381
 21
-21.4664799484
 31
0.0
 11
-22.242147487
 21
-21.3905691639
 31
0.0
 11
-22.239066663
 21
-21.2750438463
 31
0.0
 11
-22.2364780507
 21
-21.1251053707
 31
0.0
 11
-22.2344946877
 21
-20.9472609269
 31
0.0
 11
-22.2332075626
 21
-20.7496794763
 31
0.0
 11
-22.2326730391
 21
-20.5419058565
 31
0.0
  0
SPLINE
  5
67A
100
AcDbEntity
  8
RACCORDO
100
AcDbSpline
 62
253
  6
CONTINUOUS
 70
0
 71
3
 72
14
 73
10
 74
8
 42
0.0000001
 43
0.0000001
 44
0.0000000001
 12
-0.3108908799
 22
-1.402448353
 32
0.0
 13
-0.0006923236
 23
-1.4364936626
 33
0.0
 40
0.0
 40
0.0
 40
0.0
 40
0.0
 40
0.0346870137
 40
0.1140440434
 40
0.2346386407
 40
0.3909919927
 40
0.5763626362
 40
0.7823839187
 40
1.0
 40
1.0
 40
1.0
 40
1.0
 10
21.7492759622
 20
21.998725222
 30
0.0
 10
21.7456813368
 20
21.9825096402
 30
0.0
 10
21.7460793865
 20
21.927349806
 30
0.0
 10
21.7406862308
 20
21.8155223058
 30
0.0
 10
21.7390709699
 20
21.6446896078
 30
0.0
 10
21.7361425714
 20
21.4234270947
 30
0.0
 10
21.7344187325
 20
21.1611220022
 30
0.0
 10
21.7331268279
 20
20.8695230972
 30
0.0
 10
21.7327994118
 20
20.6666696987
 30
0.0
 10
21.7327491915
 20
20.5624683248
 30
0.0
 11
21.7492759622
 21
21.998725222
 31
0.0
 11
21.7456441544
 21
21.9490300735
 31
0.0
 11
21.742215212
 21
21.8350857722
 31
0.0
 11
21.7391385145
 21
21.6618797012
 31
0.0
 11
21.7365543644
 21
21.4372939423
 31
0.0
 11
21.7345737859
 21
21.1710175225
 31
0.0
 11
21.7332865279
 21
20.875072021
 31
0.0
 11
21.7327491915
 21
20.5624683248
 31
0.0
  0
SPLINE
  5
67B
100
AcDbEntity
  8
RACCORDO
100
AcDbSpline
 62
253
  6
CONTINUOUS
 70
0
 71
3
 72
14
 73
10
 74
8
 42
0.0000001
 43
0.0000001
 44
0.0000000001
 12
-0.3016372255
 22
-0.9091261608
 32
0.0
 13
-0.0006904542
 23
-0.9578595488
 33
0.0
 40
0.0
 40
0.0
 40
0.0
 40
0.0
 40
0.0346138886
 40
0.113997581
 40
0.2347514832
 40
0.3913528766
 40
0.5769701231
 40
0.7831911025
 40
1.0
 40
1.0
 40
1.0
 40
1.0
 10
22.2491998097
 20
21.4994104546
 30
0.0
 10
22.2457195306
 20
21.4889209907
 30
0.0
 10
22.2459013633
 20
21.4517518362
 30
0.0
 10
22.24067196
 20
21.3775418623
 30
0.0
 10
22.2389703287
 20
21.2633275989
 30
0.0
 10
22.2360714779
 20
21.1156632224
 30
0.0
 10
22.2343355302
 20
20.9405155107
 30
0.0
 10
22.2330502634
 20
20.7462014
 30
0.0
 10
22.232722938
 20
20.6111300141
 30
0.0
 10
22.2326730391
 20
20.5419058565
 30
0.0
 11
22.2491998097
 21
21.4994104546
 31
0.0
 11
22.2455790631
 21
21.4664534985
 31
0.0
 11
22.2421447634
 21
21.3904926462
 31
0.0
 11
22.2390629105
 21
21.2748684025
 31
0.0
 11
22.2364750323
 21
21.1248885486
 31
0.0
 11
22.2344933851
 21
20.9471042941
 31
0.0
 11
22.2332071218
 21
20.7495776964
 31
0.0
 11
22.2326730391
 21
20.5419058565
 31
0.0
  0
SPLINE
  5
67C
100
AcDbEntity
  8
RACCORDO
100
AcDbSpline
 62
253
  6
CONTINUOUS
 70
0
 71
3
 72
12
 73
8
 74
6
 42
0.0000001
 43
0.0000001
 44
0.0000000001
 12
-0.1955558426
 22
0.4612688073
 32
0.0
 13
-0.5010098512
 23
0.0003593464
 33
0.0
 40
0.0
 40
0.0
 40
0.0
 40
0.0
 40
0.0545505215
 40
0.1985386432
 40
0.4189749024
 40
0.6949104031
 40
1.0
 40
1.0
 40
1.0
 40
1.0
 10
22.2326730391
 20
20.5419058565
 30
0.0
 10
22.229117148
 20
20.5502933411
 30
0.0
 10
22.1850414151
 20
20.544860472
 30
0.0
 10
22.1249849184
 20
20.5581301648
 30
0.0
 10
22.0131295777
 20
20.5577992044
 30
0.0
 10
21.8812310609
 20
20.5622029763
 30
0.0
 10
21.783700156
 20
20.5624317802
 30
0.0
 10
21.7327491915
 20
20.5624683245
 30
0.0
 11
22.2326730391
 21
20.5419058565
 31
0.0
 11
22.2060756015
 21
20.5481927201
 31
0.0
 11
22.1341604647
 21
20.5538776601
 31
0.0
 11
22.023813001
 21
20.5584163833
 31
0.0
 11
21.8855982095
 21
20.5613743388
 31
0.0
 11
21.7327491915
 21
20.5624683245
 31
0.0
  0
SPLINE
  5
67D
100
AcDbEntity
  8
RACCORDO
100
AcDbSpline
 62
253
  6
CONTINUOUS
 70
0
 71
3
 72
10
 73
6
 74
4
 42
0.0000001
 43
0.0000001
 44
0.0000000001
 12
-0.0295164549
 22
-41.1249291934
 32
0.0
 13
0.029516461
 23
-41.1249291934
 33
0.0
 40
0.0
 40
0.0
 40
0.0
 40
0.0
 40
0.3332915601
 40
0.6667084399
 40
1.0
 40
1.0
 40
1.0
 40
1.0
 10
21.7327491915
 20
20.5624683248
 30
0.0
 10
21.7294699964
 20
15.9936043878
 30
0.0
 10
21.7250999136
 20
6.8541568649
 30
0.0
 10
21.7250999145
 20
-6.8541568667
 30
0.0
 10
21.7294699957
 20
-15.9936043887
 30
0.0
 10
21.7327491915
 20
-20.5624683248
 30
0.0
 11
21.7327491915
 21
20.5624683248
 31
0.0
 11
21.7261928452
 21
6.8558745515
 31
0.0
 11
21.7261928454
 21
-6.8558745541
 31
0.0
 11
21.7327491915
 21
-20.5624683248
 31
0.0
  0
SPLINE
  5
67E
100
AcDbEntity
  8
RACCORDO
100
AcDbSpline
 62
253
  6
CONTINUOUS
 70
0
 71
3
 72
10
 73
6
 74
4
 42
0.0000001
 43
0.0000001
 44
0.0000000001
 12
-0.0295164548
 22
-41.0838042493
 32
0.0
 13
0.0295164608
 23
-41.0838042493
 33
0.0
 40
0.0
 40
0.0
 40
0.0
 40
0.0
 40
0.3332910628
 40
0.6667085986
 40
1.0
 40
1.0
 40
1.0
 40
1.0
 10
22.2326730391
 20
20.5419058565
 30
0.0
 10
22.2293938489
 20
15.9776175952
 30
0.0
 10
22.2250237618
 20
6.8473073473
 30
0.0
 10
22.2250237593
 20
-6.8472980736
 30
0.0
 10
22.2293938449
 20
-15.9776129584
 30
0.0
 10
22.2326730391
 20
-20.5419058565
 30
0.0
 11
22.2326730391
 21
20.5419058565
 31
0.0
 11
22.2261166977
 21
6.8490391085
 31
0.0
 11
22.2261166945
 21
-6.8490251979
 31
0.0
 11
22.2326730391
 21
-20.5419058565
 31
0.0
  0
SPLINE
  5
67F
100
AcDbEntity
  8
RACCORDO
100
AcDbSpline
 62
253
  6
CONTINUOUS
 70
0
 71
3
 72
12
 73
8
 74
6
 42
0.0000001
 43
0.0000001
 44
0.0000000001
 12
-0.1957589173
 22
-0.4611825256
 32
0.0
 13
-0.501009727
 23
-0.0003592996
 33
0.0
 40
0.0
 40
0.0
 40
0.0
 40
0.0
 40
0.0545554623
 40
0.1985457754
 40
0.4189814806
 40
0.6949142842
 40
1.0
 40
1.0
 40
1.0
 40
1.0
 10
22.232673039
 20
-20.5419058565
 30
0.0
 10
22.2291131329
 20
-20.5502925318
 30
0.0
 10
22.1850436714
 20
-20.5448613475
 30
0.0
 10
22.1249790911
 20
-20.5581290425
 30
0.0
 10
22.0131276442
 20
-20.5577990651
 30
0.0
 10
21.8812289013
 20
-20.5622023087
 30
0.0
 10
21.7836994953
 20
-20.562431201
 30
0.0
 10
21.7327491915
 20
-20.5624677401
 30
0.0
 11
22.232673039
 21
-20.5419058565
 31
0.0
 11
22.2060730319
 21
-20.5481925811
 31
0.0
 11
22.1341567995
 21
-20.5538773666
 31
0.0
 11
22.0238096352
 21
-20.5584159488
 31
0.0
 11
21.8855962274
 21
-20.5613738015
 31
0.0
 11
21.7327491915
 21
-20.5624677401
 31
0.0
  0
SPLINE
  5
680
100
AcDbEntity
  8
RACCORDO
100
AcDbSpline
 62
253
  6
CONTINUOUS
 70
0
 71
3
 72
14
 73
10
 74
8
 42
0.0000001
 43
0.0000001
 44
0.0000000001
 12
0.0006936292
 22
-1.4364936571
 32
0.0
 13
0.3111440314
 23
-1.4023922061
 33
0.0
 40
0.0
 40
0.0
 40
0.0
 40
0.0
 40
0.2176263306
 40
0.4236397582
 40
0.6090177452
 40
0.7653693252
 40
0.885957291
 40
0.9653157889
 40
1.0
 40
1.0
 40
1.0
 40
1.0
 10
21.7327491915
 20
-20.5624683248
 30
0.0
 10
21.7327995088
 20
-20.666674606
 30
0.0
 10
21.7331268005
 20
-20.8695291561
 30
0.0
 10
21.7344187174
 20
-21.1611326995
 30
0.0
 10
21.7361425674
 20
-21.4234367724
 30
0.0
 10
21.7390720701
 20
-21.6446985577
 30
0.0
 10
21.7406847405
 20
-21.8155284748
 30
0.0
 10
21.7460827448
 20
-21.9273510716
 30
0.0
 10
21.7456787004
 20
-21.9825115995
 30
0.0
 10
21.7492759622
 20
-21.998725222
 30
0.0
 11
21.7327491915
 21
-20.5624683248
 31
0.0
 11
21.7332865562
 21
-20.8750867429
 31
0.0
 11
21.734573735
 21
-21.1710209602
 31
0.0
 11
21.7365546485
 21
-21.4373079257
 31
0.0
 11
21.7391388841
 21
-21.6618911373
 31
0.0
 11
21.7422153579
 21
-21.8350876841
 31
0.0
 11
21.7456444084
 21
-21.9490340918
 31
0.0
 11
21.7492759622
 21
-21.998725222
 31
0.0
  0
SPLINE
  5
681
100
AcDbEntity
  8
RACCORDO
100
AcDbSpline
 62
253
  6
CONTINUOUS
 70
0
 71
3
 72
14
 73
10
 74
8
 42
0.0000001
 43
0.0000001
 44
0.0000000001
 12
0.0006915354
 22
-0.9578595679
 32
0.0
 13
0.3019715821
 23
-0.9090151779
 33
0.0
 40
0.0
 40
0.0
 40
0.0
 40
0.0
 40
0.2169151515
 40
0.4231933973
 40
0.6088734934
 40
0.7654317044
 40
0.8860823339
 40
0.9654137628
 40
1.0
 40
1.0
 40
1.0
 40
1.0
 10
22.2326730391
 20
-20.5419058565
 30
0.0
 10
22.2327230406
 20
-20.6111639409
 30
0.0
 10
22.2330504649
 20
-20.7462875537
 30
0.0
 10
22.2343367931
 20
-20.9406738853
 30
0.0
 10
22.2360735269
 20
-21.1158463222
 30
0.0
 10
22.2389742041
 20
-21.2634836018
 30
0.0
 10
22.240673937
 20
-21.3776351655
 30
0.0
 10
22.2459060156
 20
-21.4517851429
 30
0.0
 10
22.2457184562
 20
-21.4889306498
 30
0.0
 10
22.2491998097
 20
-21.4994104546
 30
0.0
 11
22.2326730391
 21
-20.5419058565
 31
0.0
 11
22.2332075626
 21
-20.7496794763
 31
0.0
 11
22.2344946877
 21
-20.9472609269
 31
0.0
 11
22.2364780507
 21
-21.1251053707
 31
0.0
 11
22.239066663
 21
-21.2750438463
 31
0.0
 11
22.242147487
 21
-21.3905691638
 31
0.0
 11
22.2455808381
 21
-21.4664799484
 31
0.0
 11
22.2491998097
 21
-21.4994104546
 31
0.0
  0
SPLINE
  5
682
100
AcDbEntity
  8
RACCORDO
100
AcDbSpline
 62
7
  6
CONTINUOUS
 70
0
 71
3
 72
12
 73
8
 74
6
 42
0.0000001
 43
0.0000001
 44
0.0000000001
 12
0.00316672
 22
-0.3142672
 32
0.0
 13
0.3142831544
 23
-0.0
 33
0.0
 40
0.0
 40
0.0
 40
0.0
 40
0.0
 40
0.1357657081
 40
0.2967195393
 40
0.494990308
 40
0.7319263554
 40
1.0
 40
1.0
 40
1.0
 40
1.0
 10
0.6072807489
 20
23.2669872981
 30
0.0
 10
0.6074240596
 20
23.2527650618
 30
0.0
 10
0.6163373878
 20
23.2215007234
 30
0.0
 10
0.6515307283
 20
23.1818268587
 30
0.0
 10
0.7059061907
 20
23.1496465533
 30
0.0
 10
0.7768570408
 20
23.1278858039
 30
0.0
 10
0.82992007
 20
23.1226497308
 30
0.0
 10
0.8580037468
 20
23.1226497308
 30
0.0
 11
0.6072807489
 21
23.2669872981
 31
0.0
 11
0.6181313772
 21
23.2257211285
 31
0.0
 11
0.6503278249
 21
23.186705249
 31
0.0
 11
0.7032535798
 21
23.1538146014
 31
0.0
 11
0.7741812284
 21
23.1311362826
 31
0.0
 11
0.8580037468
 21
23.1226497308
 31
0.0
  0
SPLINE
  5
683
100
AcDbEntity
  8
RACCORDO
100
AcDbSpline
 62
253
  6
CONTINUOUS
 70
0
 71
3
 72
11
 73
7
 74
5
 42
0.0000001
 43
0.0000001
 44
0.0000000001
 12
-0.3641903123
 22
0.0009174661
 32
0.0
 13
-0.0012232437
 23
0.3641894136
 33
0.0
 40
0.0
 40
0.0
 40
0.0
 40
0.0
 40
0.2648536608
 40
0.5224784094
 40
0.7663738259
 40
1.0
 40
1.0
 40
1.0
 40
1.0
 10
0.8630943479
 20
23.6278312164
 30
0.0
 10
0.8309419688
 20
23.6279122144
 30
0.0
 10
0.766998965
 20
23.6387551625
 30
0.0
 10
0.6842997248
 20
23.6855972172
 30
0.0
 10
0.6271783657
 20
23.7573263904
 30
0.0
 10
0.6131938393
 20
23.8159761742
 30
0.0
 10
0.6130985787
 20
23.8443375673
 30
0.0
 11
0.8630943479
 21
23.6278312164
 31
0.0
 11
0.7680575569
 21
23.6443250563
 31
0.0
 11
0.6868160311
 21
23.6912600695
 31
0.0
 11
0.6324115092
 21
23.7614737636
 31
0.0
 11
0.6130985787
 21
23.8443375673
 31
0.0
  0
SPLINE
  5
684
100
AcDbEntity
  8
RACCORDO
100
AcDbSpline
 62
253
  6
CONTINUOUS
 70
0
 71
3
 72
35
 73
31
 74
29
 42
0.0000001
 43
0.0000001
 44
0.0000000001
 12
0.0062756547
 22
16.144211653
 32
0.0
 13
0.00627582
 23
-16.144211653
 33
0.0
 40
0.0
 40
0.0
 40
0.0
 40
0.0
 40
0.0339420148
 40
0.0661567072
 40
0.097174351
 40
0.1274710629
 40
0.157511858
 40
0.1876706372
 40
0.2177466062
 40
0.2475535445
 40
0.2784768601
 40
0.3124198291
 40
0.3512209636
 40
0.3956776476
 40
0.4454345876
 40
0.4993571314
 40
0.5534150215
 40
0.6034878011
 40
0.6483119971
 40
0.687470962
 40
0.7216878586
 40
0.7527565763
 40
0.7825944908
 40
0.8126474334
 40
0.8428062133
 40
0.8728480125
 40
0.9031133231
 40
0.9340670523
 40
0.9661844456
 40
1.0
 40
1.0
 40
1.0
 40
1.0
 10
-14.143512611
 20
9.5
 30
0.0
 10
-14.1434416082
 20
9.6826556901
 30
0.0
 10
-14.1243041676
 20
10.0389639612
 30
0.0
 10
-14.0420988771
 20
10.5562493065
 30
0.0
 10
-13.9140231155
 20
11.0438343707
 30
0.0
 10
-13.7437336424
 20
11.505805429
 30
0.0
 10
-13.5325143799
 20
11.9454154942
 30
0.0
 10
-13.281356142
 20
12.3621134318
 30
0.0
 10
-12.9927197551
 20
12.7522145572
 30
0.0
 10
-12.6659954262
 20
13.11654901
 30
0.0
 10
-12.2907006568
 20
13.4622822043
 30
0.0
 10
-11.8432496847
 20
13.7972276264
 30
0.0
 10
-11.2972052174
 20
14.1159659023
 30
0.0
 10
-10.6350912099
 20
14.3940464834
 30
0.0
 10
-9.8594683845
 20
14.5918000275
 30
0.0
 10
-9.0097262526
 20
14.6657056057
 30
0.0
 10
-8.1579835652
 20
14.5949148854
 30
0.0
 10
-7.3774157303
 20
14.3984938432
 30
0.0
 10
-6.7095106593
 20
14.1195874689
 30
0.0
 10
-6.1584941705
 20
13.79861545
 30
0.0
 10
-5.7077044954
 20
13.4611091099
 30
0.0
 10
-5.330878562
 20
13.11344494
 30
0.0
 10
-5.0039752832
 20
12.748159374
 30
0.0
 10
-4.7157185138
 20
12.357726051
 30
0.0
 10
-4.4650380947
 20
11.9408788526
 30
0.0
 10
-4.2543299227
 20
11.5012051034
 30
0.0
 10
-4.0846570047
 20
11.0395503785
 30
0.0
 10
-3.9572370478
 20
10.552870107
 30
0.0
 10
-3.8755599751
 20
10.0370760135
 30
0.0
 10
-3.8565581291
 20
9.681975156
 30
0.0
 10
-3.856487389
 20
9.5
 30
0.0
 11
-14.143512611
 21
9.5
 31
0.0
 11
-14.1141103693
 21
10.0471777258
 31
0.0
 11
-14.0324958425
 21
10.5608149146
 31
0.0
 11
-13.9052739535
 21
11.0451398119
 31
0.0
 11
-13.7361071002
 21
11.5040707345
 31
0.0
 11
-13.5260720214
 21
11.9412156836
 31
0.0
 11
-13.274731504
 21
12.3582163717
 31
0.0
 11
-12.985929141
 21
12.7485428525
 31
0.0
 11
-12.6646568038
 21
13.1067979607
 31
0.0
 11
-12.297480132
 21
13.4450500423
 31
0.0
 11
-11.8587887335
 21
13.7734319793
 31
0.0
 11
-11.3177917976
 21
14.0892112271
 31
0.0
 11
-10.6560595654
 21
14.3671137726
 31
0.0
 11
-9.8776686848
 21
14.5655502813
 31
0.0
 11
-9.010404414
 21
14.6409651153
 31
0.0
 11
-8.1406799645
 21
14.56869327
 31
0.0
 11
-7.3567285371
 21
14.3714435307
 31
0.0
 11
-6.68895388
 21
14.0926097054
 31
0.0
 11
-6.1426793121
 21
13.774413017
 31
0.0
 11
-5.7004764514
 21
13.4433423852
 31
0.0
 11
-5.3318270132
 21
13.1032246406
 31
0.0
 11
-5.0105879917
 21
12.7442682759
 31
0.0
 11
-4.722410936
 21
12.3539418912
 31
0.0
 11
-4.4714874489
 21
11.9366901163
 31
0.0
 11
-4.2618832215
 21
11.4993204398
 31
0.0
 11
-4.0933289836
 21
11.0407042311
 31
0.0
 11
-3.9667578202
 21
10.5572754249
 31
0.0
 11
-3.8856717154
 21
10.0451448768
 31
0.0
 11
-3.856487389
 21
9.5
 31
0.0
  0
SPLINE
  5
685
100
AcDbEntity
  8
RACCORDO
100
AcDbSpline
 62
253
  6
CONTINUOUS
 70
0
 71
3
 72
35
 73
31
 74
29
 42
0.0000001
 43
0.0000001
 44
0.0000000001
 12
0.0059106599
 22
-16.151961384
 32
0.0
 13
0.0059103547
 23
16.1519613841
 33
0.0
 40
0.0
 40
0.0
 40
0.0
 40
0.0
 40
0.0339936886
 40
0.0662323773
 40
0.0972546132
 40
0.1275441949
 40
0.157573772
 40
0.187723116
 40
0.2177900664
 40
0.2475892799
 40
0.2785090642
 40
0.3124509044
 40
0.3512508651
 40
0.395701989
 40
0.4454485535
 40
0.4993560383
 40
0.5533989155
 40
0.603461322
 40
0.6482799114
 40
0.6874378364
 40
0.7216538298
 40
0.7527192865
 40
0.7825496055
 40
0.8125935089
 40
0.8427427224
 40
0.8727730055
 40
0.9030307194
 40
0.9339888424
 40
0.9661307991
 40
1.0
 40
1.0
 40
1.0
 40
1.0
 10
-3.856487389
 20
9.5
 30
0.0
 10
-3.856420414
 20
9.3169784181
 30
0.0
 10
-3.875357861
 20
8.9600756724
 30
0.0
 10
-3.9574228618
 20
8.4420732801
 30
0.0
 10
-4.0854012772
 20
7.9540917705
 30
0.0
 10
-4.2555879893
 20
7.4919096702
 30
0.0
 10
-4.4666998914
 20
7.0521543591
 30
0.0
 10
-4.7177651979
 20
6.6353142571
 30
0.0
 10
-5.006340071
 20
6.2450531423
 30
0.0
 10
-5.3330467312
 20
5.8805337643
 30
0.0
 10
-5.7083861529
 20
5.5345852456
 30
0.0
 10
-6.1559573081
 20
5.1994036183
 30
0.0
 10
-6.7021780559
 20
4.8804466562
 30
0.0
 10
-7.364496773
 20
4.6021976451
 30
0.0
 10
-8.1403194651
 20
4.4043437837
 30
0.0
 10
-8.9902515279
 20
4.3304033258
 30
0.0
 10
-9.8421857489
 20
4.40122094
 30
0.0
 10
-10.6229574358
 20
4.5977360441
 30
0.0
 10
-11.2910724869
 20
4.8768070316
 30
0.0
 10
-11.8422710517
 20
5.1979965934
 30
0.0
 10
-12.2931867689
 20
5.5357403966
 30
0.0
 10
-12.6700618552
 20
5.8836216022
 30
0.0
 10
-12.9969502678
 20
6.2490926845
 30
0.0
 10
-13.2851468544
 20
6.6396847011
 30
0.0
 10
-13.5357347304
 20
7.0566707479
 30
0.0
 10
-13.7463354933
 20
7.4964841309
 30
0.0
 10
-13.9159065806
 20
7.9583435652
 30
0.0
 10
-14.0432325477
 20
8.4454181653
 30
0.0
 10
-14.1247750548
 20
8.9619402941
 30
0.0
 10
-14.1435793373
 20
9.3176486584
 30
0.0
 10
-14.143512611
 20
9.5
 30
0.0
 11
-3.856487389
 21
9.5
 31
0.0
 11
-3.8855933176
 21
8.9517072131
 31
0.0
 11
-3.967061535
 21
8.4374016055
 31
0.0
 11
-4.0941761301
 21
7.9527233455
 31
0.0
 11
-4.2632264347
 21
7.4936220055
 31
0.0
 11
-4.4731407506
 21
7.0563618031
 31
0.0
 11
-4.7243921191
 21
6.639212458
 31
0.0
 11
-5.0131301435
 21
6.2487296664
 31
0.0
 11
-5.334373378
 21
5.8903058096
 31
0.0
 11
-5.7015994202
 21
5.5518378325
 31
0.0
 11
-6.1404180165
 21
5.223217315
 31
0.0
 11
-6.681608322
 21
4.90721049
 31
0.0
 11
-7.34354598
 21
4.6291392732
 31
0.0
 11
-8.1221362564
 21
4.4306023971
 31
0.0
 11
-8.9895728988
 21
4.3551538305
 31
0.0
 11
-9.8594722552
 21
4.4274514229
 31
0.0
 11
-10.6436273512
 21
4.6247953572
 31
0.0
 11
-11.3116116405
 21
4.9037936235
 31
0.0
 11
-11.8580858489
 21
5.2222171126
 31
0.0
 11
-12.3004219512
 21
5.5535278583
 31
0.0
 11
-12.6691259199
 21
5.8938638671
 31
0.0
 11
-12.9903386208
 21
6.2529894343
 31
0.0
 11
-13.2784525291
 21
6.6434704295
 31
0.0
 11
-13.5292874091
 21
7.060867884
 31
0.0
 11
-13.7387708405
 21
7.4983473238
 31
0.0
 11
-13.9072086808
 21
7.9571254372
 31
0.0
 11
-14.033675242
 21
8.4409029191
 31
0.0
 11
-14.1146202254
 21
8.9537094398
 31
0.0
 11
-14.143512611
 21
9.5
 31
0.0
  0
SPLINE
  5
686
100
AcDbEntity
  8
RACCORDO
100
AcDbSpline
 62
253
  6
CONTINUOUS
 70
0
 71
3
 72
35
 73
31
 74
29
 42
0.0000001
 43
0.0000001
 44
0.0000000001
 12
0.0062756547
 22
16.144211653
 32
0.0
 13
0.00627582
 23
-16.144211653
 33
0.0
 40
0.0
 40
0.0
 40
0.0
 40
0.0
 40
0.0339420148
 40
0.0661567072
 40
0.097174351
 40
0.1274710629
 40
0.157511858
 40
0.1876706372
 40
0.2177466062
 40
0.2475535445
 40
0.2784768601
 40
0.3124198291
 40
0.3512209636
 40
0.3956776476
 40
0.4454345876
 40
0.4993571314
 40
0.5534150215
 40
0.6034878011
 40
0.6483119971
 40
0.687470962
 40
0.7216878586
 40
0.7527565763
 40
0.7825944908
 40
0.8126474334
 40
0.8428062133
 40
0.8728480125
 40
0.9031133231
 40
0.9340670523
 40
0.9661844456
 40
1.0
 40
1.0
 40
1.0
 40
1.0
 10
3.856487389
 20
9.5
 30
0.0
 10
3.8565583918
 20
9.6826556901
 30
0.0
 10
3.8756958324
 20
10.0389639612
 30
0.0
 10
3.9579011229
 20
10.5562493065
 30
0.0
 10
4.0859768845
 20
11.0438343707
 30
0.0
 10
4.2562663576
 20
11.505805429
 30
0.0
 10
4.4674856201
 20
11.9454154942
 30
0.0
 10
4.718643858
 20
12.3621134318
 30
0.0
 10
5.0072802449
 20
12.7522145572
 30
0.0
 10
5.3340045738
 20
13.11654901
 30
0.0
 10
5.7092993432
 20
13.4622822043
 30
0.0
 10
6.1567503153
 20
13.7972276264
 30
0.0
 10
6.7027947826
 20
14.1159659023
 30
0.0
 10
7.3649087901
 20
14.3940464834
 30
0.0
 10
8.1405316155
 20
14.5918000275
 30
0.0
 10
8.9902737474
 20
14.6657056057
 30
0.0
 10
9.8420164348
 20
14.5949148854
 30
0.0
 10
10.6225842697
 20
14.3984938432
 30
0.0
 10
11.2904893407
 20
14.1195874689
 30
0.0
 10
11.8415058295
 20
13.79861545
 30
0.0
 10
12.2922955046
 20
13.4611091099
 30
0.0
 10
12.669121438
 20
13.11344494
 30
0.0
 10
12.9960247168
 20
12.748159374
 30
0.0
 10
13.2842814862
 20
12.357726051
 30
0.0
 10
13.5349619053
 20
11.9408788526
 30
0.0
 10
13.7456700773
 20
11.5012051034
 30
0.0
 10
13.9153429953
 20
11.0395503785
 30
0.0
 10
14.0427629522
 20
10.552870107
 30
0.0
 10
14.1244400249
 20
10.0370760135
 30
0.0
 10
14.1434418709
 20
9.681975156
 30
0.0
 10
14.143512611
 20
9.5
 30
0.0
 11
3.856487389
 21
9.5
 31
0.0
 11
3.8858896307
 21
10.0471777258
 31
0.0
 11
3.9675041575
 21
10.5608149146
 31
0.0
 11
4.0947260465
 21
11.0451398119
 31
0.0
 11
4.2638928998
 21
11.5040707345
 31
0.0
 11
4.4739279786
 21
11.9412156836
 31
0.0
 11
4.725268496
 21
12.3582163717
 31
0.0
 11
5.014070859
 21
12.7485428525
 31
0.0
 11
5.3353431962
 21
13.1067979607
 31
0.0
 11
5.702519868
 21
13.4450500423
 31
0.0
 11
6.1412112665
 21
13.7734319793
 31
0.0
 11
6.6822082024
 21
14.0892112271
 31
0.0
 11
7.3439404346
 21
14.3671137726
 31
0.0
 11
8.1223313152
 21
14.5655502813
 31
0.0
 11
8.989595586
 21
14.6409651153
 31
0.0
 11
9.8593200355
 21
14.56869327
 31
0.0
 11
10.6432714629
 21
14.3714435307
 31
0.0
 11
11.31104612
 21
14.0926097054
 31
0.0
 11
11.8573206879
 21
13.774413017
 31
0.0
 11
12.2995235486
 21
13.4433423852
 31
0.0
 11
12.6681729868
 21
13.1032246406
 31
0.0
 11
12.9894120083
 21
12.7442682759
 31
0.0
 11
13.277589064
 21
12.3539418912
 31
0.0
 11
13.5285125511
 21
11.9366901163
 31
0.0
 11
13.7381167785
 21
11.4993204398
 31
0.0
 11
13.9066710164
 21
11.0407042311
 31
0.0
 11
14.0332421798
 21
10.5572754249
 31
0.0
 11
14.1143282846
 21
10.0451448768
 31
0.0
 11
14.143512611
 21
9.5
 31
0.0
  0
SPLINE
  5
687
100
AcDbEntity
  8
RACCORDO
100
AcDbSpline
 62
253
  6
CONTINUOUS
 70
0
 71
3
 72
35
 73
31
 74
29
 42
0.0000001
 43
0.0000001
 44
0.0000000001
 12
0.0059106599
 22
-16.151961384
 32
0.0
 13
0.0059103547
 23
16.1519613841
 33
0.0
 40
0.0
 40
0.0
 40
0.0
 40
0.0
 40
0.0339936886
 40
0.0662323773
 40
0.0972546132
 40
0.1275441949
 40
0.157573772
 40
0.187723116
 40
0.2177900664
 40
0.2475892799
 40
0.2785090642
 40
0.3124509044
 40
0.3512508651
 40
0.395701989
 40
0.4454485535
 40
0.4993560383
 40
0.5533989155
 40
0.603461322
 40
0.6482799114
 40
0.6874378364
 40
0.7216538298
 40
0.7527192865
 40
0.7825496055
 40
0.8125935089
 40
0.8427427224
 40
0.8727730055
 40
0.9030307194
 40
0.9339888424
 40
0.9661307991
 40
1.0
 40
1.0
 40
1.0
 40
1.0
 10
14.143512611
 20
9.5
 30
0.0
 10
14.143579586
 20
9.3169784181
 30
0.0
 10
14.124642139
 20
8.9600756724
 30
0.0
 10
14.0425771382
 20
8.4420732801
 30
0.0
 10
13.9145987228
 20
7.9540917705
 30
0.0
 10
13.7444120107
 20
7.4919096702
 30
0.0
 10
13.5333001086
 20
7.0521543591
 30
0.0
 10
13.2822348021
 20
6.6353142571
 30
0.0
 10
12.993659929
 20
6.2450531423
 30
0.0
 10
12.6669532688
 20
5.8805337643
 30
0.0
 10
12.2916138471
 20
5.5345852456
 30
0.0
 10
11.8440426919
 20
5.1994036183
 30
0.0
 10
11.2978219441
 20
4.8804466562
 30
0.0
 10
10.635503227
 20
4.6021976451
 30
0.0
 10
9.8596805349
 20
4.4043437837
 30
0.0
 10
9.0097484721
 20
4.3304033258
 30
0.0
 10
8.1578142511
 20
4.40122094
 30
0.0
 10
7.3770425642
 20
4.5977360441
 30
0.0
 10
6.7089275131
 20
4.8768070316
 30
0.0
 10
6.1577289483
 20
5.1979965934
 30
0.0
 10
5.7068132311
 20
5.5357403966
 30
0.0
 10
5.3299381448
 20
5.8836216022
 30
0.0
 10
5.0030497322
 20
6.2490926845
 30
0.0
 10
4.7148531456
 20
6.6396847011
 30
0.0
 10
4.4642652696
 20
7.0566707479
 30
0.0
 10
4.2536645067
 20
7.4964841309
 30
0.0
 10
4.0840934194
 20
7.9583435652
 30
0.0
 10
3.9567674523
 20
8.4454181653
 30
0.0
 10
3.8752249452
 20
8.9619402941
 30
0.0
 10
3.8564206627
 20
9.3176486584
 30
0.0
 10
3.856487389
 20
9.5
 30
0.0
 11
14.143512611
 21
9.5
 31
0.0
 11
14.1144066824
 21
8.9517072131
 31
0.0
 11
14.032938465
 21
8.4374016055
 31
0.0
 11
13.9058238699
 21
7.9527233455
 31
0.0
 11
13.7367735653
 21
7.4936220055
 31
0.0
 11
13.5268592494
 21
7.0563618031
 31
0.0
 11
13.2756078809
 21
6.639212458
 31
0.0
 11
12.9868698565
 21
6.2487296664
 31
0.0
 11
12.665626622
 21
5.8903058096
 31
0.0
 11
12.2984005798
 21
5.5518378325
 31
0.0
 11
11.8595819835
 21
5.223217315
 31
0.0
 11
11.318391678
 21
4.90721049
 31
0.0
 11
10.65645402
 21
4.6291392732
 31
0.0
 11
9.8778637436
 21
4.4306023971
 31
0.0
 11
9.0104271012
 21
4.3551538305
 31
0.0
 11
8.1405277448
 21
4.4274514229
 31
0.0
 11
7.3563726488
 21
4.6247953572
 31
0.0
 11
6.6883883595
 21
4.9037936235
 31
0.0
 11
6.1419141511
 21
5.2222171126
 31
0.0
 11
5.6995780488
 21
5.5535278583
 31
0.0
 11
5.3308740801
 21
5.8938638671
 31
0.0
 11
5.0096613792
 21
6.2529894343
 31
0.0
 11
4.7215474709
 21
6.6434704295
 31
0.0
 11
4.4707125909
 21
7.060867884
 31
0.0
 11
4.2612291595
 21
7.4983473238
 31
0.0
 11
4.0927913192
 21
7.9571254372
 31
0.0
 11
3.966324758
 21
8.4409029191
 31
0.0
 11
3.8853797746
 21
8.9537094398
 31
0.0
 11
3.856487389
 21
9.5
 31
0.0
  0
SPLINE
  5
688
100
AcDbEntity
  8
RACCORDO
100
AcDbSpline
 62
253
  6
CONTINUOUS
 70
0
 71
3
 72
35
 73
31
 74
29
 42
0.0000001
 43
0.0000001
 44
0.0000000001
 12
0.0056767985
 22
-18.3622670359
 32
0.0
 13
0.0056761684
 23
18.3622670361
 33
0.0
 40
0.0
 40
0.0
 40
0.0
 40
0.0
 40
0.0339994518
 40
0.0662629257
 40
0.0973066408
 40
0.1276143457
 40
0.1576585986
 40
0.1878192294
 40
0.2178939009
 40
0.2476966846
 40
0.2786155665
 40
0.3125514748
 40
0.3513394822
 40
0.3957717724
 40
0.4454924195
 40
0.4993677402
 40
0.5533757376
 40
0.6034068088
 40
0.6482017337
 40
0.6873444394
 40
0.7215528121
 40
0.7526167668
 40
0.7824506101
 40
0.8125022632
 40
0.842662571
 40
0.8727073861
 40
0.902983232
 40
0.9339629143
 40
0.966129791
 40
1.0
 40
1.0
 40
1.0
 40
1.0
 10
14.8434059976
 20
9.5133186461
 30
0.0
 10
14.8434703336
 20
9.3052163082
 30
0.0
 10
14.8219611452
 20
8.8992885798
 30
0.0
 10
14.7287491378
 20
8.3100664788
 30
0.0
 10
14.5833577984
 20
7.7548755897
 30
0.0
 10
14.3900112794
 20
7.2290461322
 30
0.0
 10
14.1501722681
 20
6.7287368006
 30
0.0
 10
13.8649423205
 20
6.2544990163
 30
0.0
 10
13.5370971994
 20
5.8104993182
 30
0.0
 10
13.1659322292
 20
5.3957887189
 30
0.0
 10
12.7395221899
 20
5.0022112258
 30
0.0
 10
12.2310547052
 20
4.6208837629
 30
0.0
 10
11.6105040618
 20
4.2580068418
 30
0.0
 10
10.8580269614
 20
3.9414326574
 30
0.0
 10
9.9765600184
 20
3.7163271082
 30
0.0
 10
9.0108832041
 20
3.6322237795
 30
0.0
 10
8.0429687864
 20
3.7128369675
 30
0.0
 10
7.1559645843
 20
3.9364488242
 30
0.0
 10
6.3969875879
 20
4.2539578184
 30
0.0
 10
5.7708413441
 20
4.6193627067
 30
0.0
 10
5.2586085129
 20
5.0035951845
 30
0.0
 10
4.8304712212
 20
5.399368331
 30
0.0
 10
4.4591091566
 20
5.8151637677
 30
0.0
 10
4.131701776
 20
6.25954323
 30
0.0
 10
3.8470224206
 20
6.7339490085
 30
0.0
 10
3.6077723008
 20
7.2343254986
 30
0.0
 10
3.4151322889
 20
7.7597899719
 30
0.0
 10
3.2704900164
 20
8.3139529975
 30
0.0
 10
3.1778831946
 20
8.9014658391
 30
0.0
 10
3.1565299181
 20
9.3060073723
 30
0.0
 10
3.1565940024
 20
9.5133186461
 30
0.0
 11
14.8434059976
 21
9.5133186461
 31
0.0
 11
14.8103493743
 21
8.8898873795
 31
0.0
 11
14.7177947761
 21
8.304731329
 31
0.0
 11
14.5733803479
 21
7.7532949218
 31
0.0
 11
14.3813219406
 21
7.2309673699
 31
0.0
 11
14.1428398407
 21
6.733495968
 31
0.0
 11
13.8573950574
 21
6.2589064712
 31
0.0
 11
13.5293594951
 21
5.8146534163
 31
0.0
 11
13.1643968105
 21
5.4068775115
 31
0.0
 11
12.7471994359
 21
5.0218113377
 31
0.0
 11
12.2486699516
 21
4.6479502513
 31
0.0
 11
11.6338297992
 21
4.2884347461
 31
0.0
 11
10.8817854558
 21
3.9720716758
 31
0.0
 11
9.997183136
 21
3.7461995143
 31
0.0
 11
9.0116389749
 21
3.6603862426
 31
0.0
 11
8.023349773
 21
3.7426773414
 31
0.0
 11
7.1325288993
 21
3.9672176255
 31
0.0
 11
6.3737049507
 21
4.284632757
 31
0.0
 11
5.7529209615
 21
4.646885633
 31
0.0
 11
5.2504268922
 21
5.0237990453
 31
0.0
 11
4.8315652059
 21
5.4109893907
 31
0.0
 11
4.466644511
 21
5.8195678742
 31
0.0
 11
4.1393247882
 21
6.2638237178
 31
0.0
 11
3.8543622848
 21
6.7386960365
 31
0.0
 11
3.6163780928
 21
7.2364172642
 31
0.0
 11
3.4250226
 21
7.758379707
 31
0.0
 11
3.2813517773
 21
8.3087952227
 31
0.0
 11
3.1893989843
 21
8.8922505754
 31
0.0
 11
3.1565940024
 21
9.5133186461
 31
0.0
  0
SPLINE
  5
689
100
AcDbEntity
  8
RACCORDO
100
AcDbSpline
 62
253
  6
CONTINUOUS
 70
0
 71
3
 72
35
 73
31
 74
29
 42
0.0000001
 43
0.0000001
 44
0.0000000001
 12
0.0064995119
 22
18.3545056842
 32
0.0
 13
0.006499618
 23
-18.3545056842
 33
0.0
 40
0.0
 40
0.0
 40
0.0
 40
0.0
 40
0.0339460247
 40
0.0661840626
 40
0.0972220947
 40
0.12753613
 40
0.1575910511
 40
0.1877607918
 40
0.2178443698
 40
0.2476549614
 40
0.2785776503
 40
0.312515191
 40
0.351305171
 40
0.3957441716
 40
0.4454766914
 40
0.4993688201
 40
0.5533935783
 40
0.6034365202
 40
0.6482382071
 40
0.6873827582
 40
0.7215925423
 40
0.7526600348
 40
0.782501555
 40
0.8125621336
 40
0.84273168
 40
0.8727874573
 40
0.9030700945
 40
0.9340442851
 40
0.9661851506
 40
1.0
 40
1.0
 40
1.0
 40
1.0
 10
3.1565940024
 20
9.5133186461
 30
0.0
 10
3.1566675466
 20
9.7210061474
 30
0.0
 10
3.1783676852
 20
10.1262635835
 30
0.0
 10
3.2716880293
 20
10.714686468
 30
0.0
 10
3.4171448618
 20
11.2694512297
 30
0.0
 10
3.6105696212
 20
11.7950731223
 30
0.0
 10
3.8504992976
 20
12.2952562138
 30
0.0
 10
4.1358114954
 20
12.7693764164
 30
0.0
 10
4.463711914
 20
13.2132417253
 30
0.0
 10
4.8348915192
 20
13.6277919302
 30
0.0
 10
5.261255256
 20
14.0211768308
 30
0.0
 10
5.7696026608
 20
14.4022908833
 30
0.0
 10
6.3899853383
 20
14.7649757884
 30
0.0
 10
7.1422818199
 20
15.0814111573
 30
0.0
 10
8.0235939563
 20
15.3064419608
 30
0.0
 10
8.9891410736
 20
15.3905207047
 30
0.0
 10
9.9569241882
 20
15.3099236423
 30
0.0
 10
10.8437695626
 20
15.0863797056
 30
0.0
 10
11.6025604888
 20
14.769005061
 30
0.0
 10
12.2285325542
 20
14.4037905097
 30
0.0
 10
12.7406387968
 20
14.0197724669
 30
0.0
 10
13.1687246568
 20
13.6241936021
 30
0.0
 10
13.5400980943
 20
13.2085591577
 30
0.0
 10
13.867559183
 20
12.7643126465
 30
0.0
 10
14.1523202793
 20
12.2900207561
 30
0.0
 10
14.3916610592
 20
11.7897642414
 30
0.0
 10
14.5843782336
 20
11.2645003194
 30
0.0
 10
14.7290822584
 20
10.7107612769
 30
0.0
 10
14.8217911161
 20
10.1240601403
 30
0.0
 10
14.8433327364
 20
9.7202035945
 30
0.0
 10
14.8434059976
 20
9.5133186461
 30
0.0
 11
3.1565940024
 21
9.5133186461
 31
0.0
 11
3.1899313242
 21
10.1354886835
 31
0.0
 11
3.2826014527
 21
10.7199002338
 31
0.0
 11
3.4270930123
 21
11.2709595293
 31
0.0
 11
3.6192456132
 21
11.7931256073
 31
0.0
 11
3.8578337927
 21
12.2905046984
 31
0.0
 11
4.1433565165
 21
12.764969265
 31
0.0
 11
4.4714505899
 21
13.2090921608
 31
0.0
 11
4.8364409476
 21
13.616725194
 31
0.0
 11
5.2535863938
 21
14.0015968386
 31
0.0
 11
5.7519871726
 21
14.3752404824
 31
0.0
 11
6.3666391908
 21
14.7345530694
 31
0.0
 11
7.1185016384
 21
15.0507768371
 31
0.0
 11
8.0029496829
 21
15.2765742648
 31
0.0
 11
8.9883858029
 21
15.3623645571
 31
0.0
 11
9.9765643031
 21
15.2800879875
 31
0.0
 11
10.8672265689
 21
15.0556156856
 31
0.0
 11
11.6258643983
 21
14.7383348988
 31
0.0
 11
12.2464535238
 21
14.3762836426
 31
0.0
 11
12.7488121749
 21
13.9995889911
 31
0.0
 11
13.1676160473
 21
13.6125956282
 31
0.0
 11
13.5325611722
 21
13.2041605026
 31
0.0
 11
13.8599379898
 21
12.7600329583
 31
0.0
 11
14.1449777466
 21
12.2852822462
 31
0.0
 11
14.3830679858
 21
11.7876471825
 31
0.0
 11
14.5745174796
 21
11.2658367228
 31
0.0
 11
14.7182624412
 21
10.7157932514
 31
0.0
 11
14.8103250421
 21
10.1330912944
 31
0.0
 11
14.8434059976
 21
9.5133186461
 31
0.0
  0
SPLINE
  5
68A
100
AcDbEntity
  8
RACCORDO
100
AcDbSpline
 62
253
  6
CONTINUOUS
 70
0
 71
3
 72
11
 73
7
 74
5
 42
0.0000001
 43
0.0000001
 44
0.0000000001
 12
-0.0012232437
 22
-0.3641894136
 32
0.0
 13
-0.3641903123
 23
-0.0009174661
 33
0.0
 40
0.0
 40
0.0
 40
0.0
 40
0.0
 40
0.2336261742
 40
0.4775215906
 40
0.7351463392
 40
1.0
 40
1.0
 40
1.0
 40
1.0
 10
2.9869014213
 20
23.8443375673
 30
0.0
 10
2.9868061607
 20
23.8159761742
 30
0.0
 10
2.9728216343
 20
23.7573263904
 30
0.0
 10
2.9157002752
 20
23.6855972172
 30
0.0
 10
2.833001035
 20
23.6387551625
 30
0.0
 10
2.7690580312
 20
23.6279122144
 30
0.0
 10
2.7369056521
 20
23.6278312164
 30
0.0
 11
2.9869014213
 21
23.8443375673
 31
0.0
 11
2.9675884908
 21
23.7614737636
 31
0.0
 11
2.9131839689
 21
23.6912600695
 31
0.0
 11
2.8319424431
 21
23.6443250563
 31
0.0
 11
2.7369056521
 21
23.6278312164
 31
0.0
  0
SPLINE
  5
68B
100
AcDbEntity
  8
RACCORDO
100
AcDbSpline
 62
253
  6
CONTINUOUS
 70
0
 71
3
 72
35
 73
31
 74
29
 42
0.0000001
 43
0.0000001
 44
0.0000000001
 12
0.0056767985
 22
-18.3622670359
 32
0.0
 13
0.0056761684
 23
18.3622670361
 33
0.0
 40
0.0
 40
0.0
 40
0.0
 40
0.0
 40
0.0339994518
 40
0.0662629257
 40
0.0973066408
 40
0.1276143457
 40
0.1576585986
 40
0.1878192294
 40
0.2178939009
 40
0.2476966846
 40
0.2786155665
 40
0.3125514748
 40
0.3513394822
 40
0.3957717724
 40
0.4454924195
 40
0.4993677402
 40
0.5533757376
 40
0.6034068088
 40
0.6482017337
 40
0.6873444394
 40
0.7215528121
 40
0.7526167668
 40
0.7824506101
 40
0.8125022632
 40
0.842662571
 40
0.8727073861
 40
0.902983232
 40
0.9339629143
 40
0.966129791
 40
1.0
 40
1.0
 40
1.0
 40
1.0
 10
-3.1565940024
 20
9.5133186461
 30
0.0
 10
-3.1565296664
 20
9.3052163082
 30
0.0
 10
-3.1780388548
 20
8.8992885798
 30
0.0
 10
-3.2712508622
 20
8.3100664788
 30
0.0
 10
-3.4166422016
 20
7.7548755897
 30
0.0
 10
-3.6099887206
 20
7.2290461322
 30
0.0
 10
-3.8498277319
 20
6.7287368006
 30
0.0
 10
-4.1350576795
 20
6.2544990163
 30
0.0
 10
-4.4629028006
 20
5.8104993182
 30
0.0
 10
-4.8340677708
 20
5.3957887189
 30
0.0
 10
-5.2604778101
 20
5.0022112258
 30
0.0
 10
-5.7689452948
 20
4.6208837629
 30
0.0
 10
-6.3894959382
 20
4.2580068418
 30
0.0
 10
-7.1419730386
 20
3.9414326574
 30
0.0
 10
-8.0234399816
 20
3.7163271082
 30
0.0
 10
-8.9891167959
 20
3.6322237795
 30
0.0
 10
-9.9570312136
 20
3.7128369675
 30
0.0
 10
-10.8440354157
 20
3.9364488242
 30
0.0
 10
-11.6030124121
 20
4.2539578184
 30
0.0
 10
-12.2291586559
 20
4.6193627067
 30
0.0
 10
-12.7413914871
 20
5.0035951845
 30
0.0
 10
-13.1695287788
 20
5.399368331
 30
0.0
 10
-13.5408908434
 20
5.8151637677
 30
0.0
 10
-13.868298224
 20
6.25954323
 30
0.0
 10
-14.1529775794
 20
6.7339490085
 30
0.0
 10
-14.3922276992
 20
7.2343254986
 30
0.0
 10
-14.5848677111
 20
7.7597899719
 30
0.0
 10
-14.7295099836
 20
8.3139529975
 30
0.0
 10
-14.8221168054
 20
8.9014658391
 30
0.0
 10
-14.8434700819
 20
9.3060073723
 30
0.0
 10
-14.8434059976
 20
9.5133186461
 30
0.0
 11
-3.1565940024
 21
9.5133186461
 31
0.0
 11
-3.1896506257
 21
8.8898873795
 31
0.0
 11
-3.2822052239
 21
8.304731329
 31
0.0
 11
-3.4266196521
 21
7.7532949218
 31
0.0
 11
-3.6186780594
 21
7.2309673699
 31
0.0
 11
-3.8571601593
 21
6.733495968
 31
0.0
 11
-4.1426049426
 21
6.2589064712
 31
0.0
 11
-4.4706405049
 21
5.8146534163
 31
0.0
 11
-4.8356031895
 21
5.4068775115
 31
0.0
 11
-5.2528005641
 21
5.0218113377
 31
0.0
 11
-5.7513300484
 21
4.6479502513
 31
0.0
 11
-6.3661702008
 21
4.2884347461
 31
0.0
 11
-7.1182145442
 21
3.9720716758
 31
0.0
 11
-8.002816864
 21
3.7461995143
 31
0.0
 11
-8.988361025
 21
3.6603862426
 31
0.0
 11
-9.976650227
 21
3.7426773414
 31
0.0
 11
-10.8674711007
 21
3.9672176255
 31
0.0
 11
-11.6262950493
 21
4.284632757
 31
0.0
 11
-12.2470790385
 21
4.646885633
 31
0.0
 11
-12.7495731078
 21
5.0237990453
 31
0.0
 11
-13.1684347941
 21
5.4109893907
 31
0.0
 11
-13.533355489
 21
5.8195678742
 31
0.0
 11
-13.8606752118
 21
6.2638237178
 31
0.0
 11
-14.1456377152
 21
6.7386960365
 31
0.0
 11
-14.3836219072
 21
7.2364172642
 31
0.0
 11
-14.5749774
 21
7.758379707
 31
0.0
 11
-14.7186482227
 21
8.3087952227
 31
0.0
 11
-14.8106010157
 21
8.8922505754
 31
0.0
 11
-14.8434059976
 21
9.5133186461
 31
0.0
  0
SPLINE
  5
68C
100
AcDbEntity
  8
RACCORDO
100
AcDbSpline
 62
253
  6
CONTINUOUS
 70
0
 71
3
 72
35
 73
31
 74
29
 42
0.0000001
 43
0.0000001
 44
0.0000000001
 12
0.0064995119
 22
18.3545056842
 32
0.0
 13
0.006499618
 23
-18.3545056842
 33
0.0
 40
0.0
 40
0.0
 40
0.0
 40
0.0
 40
0.0339460247
 40
0.0661840626
 40
0.0972220947
 40
0.12753613
 40
0.1575910511
 40
0.1877607918
 40
0.2178443698
 40
0.2476549614
 40
0.2785776503
 40
0.312515191
 40
0.351305171
 40
0.3957441716
 40
0.4454766914
 40
0.4993688201
 40
0.5533935783
 40
0.6034365202
 40
0.6482382071
 40
0.6873827582
 40
0.7215925423
 40
0.7526600348
 40
0.782501555
 40
0.8125621336
 40
0.84273168
 40
0.8727874573
 40
0.9030700945
 40
0.9340442851
 40
0.9661851506
 40
1.0
 40
1.0
 40
1.0
 40
1.0
 10
-14.8434059976
 20
9.5133186461
 30
0.0
 10
-14.8433324534
 20
9.7210061474
 30
0.0
 10
-14.8216323148
 20
10.1262635835
 30
0.0
 10
-14.7283119707
 20
10.714686468
 30
0.0
 10
-14.5828551382
 20
11.2694512297
 30
0.0
 10
-14.3894303788
 20
11.7950731223
 30
0.0
 10
-14.1495007024
 20
12.2952562138
 30
0.0
 10
-13.8641885046
 20
12.7693764164
 30
0.0
 10
-13.536288086
 20
13.2132417253
 30
0.0
 10
-13.1651084808
 20
13.6277919302
 30
0.0
 10
-12.738744744
 20
14.0211768308
 30
0.0
 10
-12.2303973392
 20
14.4022908833
 30
0.0
 10
-11.6100146617
 20
14.7649757884
 30
0.0
 10
-10.8577181801
 20
15.0814111573
 30
0.0
 10
-9.9764060437
 20
15.3064419608
 30
0.0
 10
-9.0108589264
 20
15.3905207047
 30
0.0
 10
-8.0430758118
 20
15.3099236423
 30
0.0
 10
-7.1562304374
 20
15.0863797056
 30
0.0
 10
-6.3974395112
 20
14.769005061
 30
0.0
 10
-5.7714674458
 20
14.4037905097
 30
0.0
 10
-5.2593612032
 20
14.0197724669
 30
0.0
 10
-4.8312753432
 20
13.6241936021
 30
0.0
 10
-4.4599019057
 20
13.2085591577
 30
0.0
 10
-4.132440817
 20
12.7643126465
 30
0.0
 10
-3.8476797207
 20
12.2900207561
 30
0.0
 10
-3.6083389408
 20
11.7897642414
 30
0.0
 10
-3.4156217664
 20
11.2645003194
 30
0.0
 10
-3.2709177416
 20
10.7107612769
 30
0.0
 10
-3.1782088839
 20
10.1240601403
 30
0.0
 10
-3.1566672636
 20
9.7202035945
 30
0.0
 10
-3.1565940024
 20
9.5133186461
 30
0.0
 11
-14.8434059976
 21
9.5133186461
 31
0.0
 11
-14.8100686758
 21
10.1354886835
 31
0.0
 11
-14.7173985473
 21
10.7199002338
 31
0.0
 11
-14.5729069877
 21
11.2709595293
 31
0.0
 11
-14.3807543868
 21
11.7931256073
 31
0.0
 11
-14.1421662073
 21
12.2905046984
 31
0.0
 11
-13.8566434835
 21
12.764969265
 31
0.0
 11
-13.5285494101
 21
13.2090921608
 31
0.0
 11
-13.1635590524
 21
13.616725194
 31
0.0
 11
-12.7464136062
 21
14.0015968386
 31
0.0
 11
-12.2480128274
 21
14.3752404824
 31
0.0
 11
-11.6333608092
 21
14.7345530694
 31
0.0
 11
-10.8814983616
 21
15.0507768371
 31
0.0
 11
-9.9970503171
 21
15.2765742648
 31
0.0
 11
-9.0116141971
 21
15.3623645571
 31
0.0
 11
-8.0234356969
 21
15.2800879875
 31
0.0
 11
-7.1327734311
 21
15.0556156856
 31
0.0
 11
-6.3741356017
 21
14.7383348988
 31
0.0
 11
-5.7535464762
 21
14.3762836426
 31
0.0
 11
-5.2511878251
 21
13.9995889911
 31
0.0
 11
-4.8323839527
 21
13.6125956282
 31
0.0
 11
-4.4674388278
 21
13.2041605026
 31
0.0
 11
-4.1400620102
 21
12.7600329583
 31
0.0
 11
-3.8550222534
 21
12.2852822462
 31
0.0
 11
-3.6169320142
 21
11.7876471825
 31
0.0
 11
-3.4254825204
 21
11.2658367228
 31
0.0
 11
-3.2817375588
 21
10.7157932514
 31
0.0
 11
-3.1896749579
 21
10.1330912944
 31
0.0
 11
-3.1565940024
 21
9.5133186461
 31
0.0
  0
SPLINE
  5
68D
100
AcDbEntity
  8
RACCORDO
100
AcDbSpline
 62
253
  6
CONTINUOUS
 70
0
 71
3
 72
11
 73
7
 74
5
 42
0.0000001
 43
0.0000001
 44
0.0000000001
 12
-0.001454398
 22
0.2499982374
 32
0.0
 13
0.2499982371
 23
0.0014544472
 33
0.0
 40
0.0
 40
0.0
 40
0.0
 40
0.0
 40
0.3843218262
 40
0.7098963651
 40
0.9261605606
 40
1.0
 40
1.0
 40
1.0
 40
1.0
 10
-78.7140453892
 20
24.2369056521
 30
0.0
 10
-78.7142317081
 20
24.2689322451
 30
0.0
 10
-78.7126444194
 20
24.3261278631
 30
0.0
 10
-78.7193853687
 20
24.4102065236
 30
0.0
 10
-78.7064525185
 20
24.4480038327
 30
0.0
 10
-78.7201986324
 20
24.4868656228
 30
0.0
 10
-78.7140453892
 20
24.4869014213
 30
0.0
 11
-78.7140453892
 21
24.2369056521
 31
0.0
 11
-78.7144926441
 21
24.3329860161
 31
0.0
 11
-78.7146477838
 21
24.4143803065
 31
0.0
 11
-78.7144864181
 21
24.4684466483
 31
0.0
 11
-78.7140453892
 21
24.4869014213
 31
0.0
  0
SPLINE
  5
68E
100
AcDbEntity
  8
RACCORDO
100
AcDbSpline
 62
7
  6
CONTINUOUS
 70
0
 71
3
 72
11
 73
7
 74
5
 42
0.0000001
 43
0.0000001
 44
0.0000000001
 12
-0.0014543976
 22
0.2499981764
 32
0.0
 13
0.2499981761
 23
0.0014544468
 33
0.0
 40
0.0
 40
0.0
 40
0.0
 40
0.0
 40
0.3826696105
 40
0.7070808014
 40
0.9238509539
 40
1.0
 40
1.0
 40
1.0
 40
1.0
 10
-76.4625909563
 20
24.2500042308
 30
0.0
 10
-76.4627764743
 20
24.2818931324
 30
0.0
 10
-76.4612104265
 20
24.338879399
 30
0.0
 10
-76.4678871769
 20
24.4226898453
 30
0.0
 10
-76.4549788967
 20
24.4606624683
 30
0.0
 10
-76.4689366639
 20
24.4999630818
 30
0.0
 10
-76.4625909563
 20
24.5
 30
0.0
 11
-76.4625909563
 21
24.2500042308
 31
0.0
 11
-76.4630368061
 21
24.3456715156
 31
0.0
 11
-76.4631933673
 21
24.426774943
 31
0.0
 11
-76.4630368061
 21
24.4809677767
 31
0.0
 11
-76.4625909563
 21
24.5
 31
0.0
  0
SPLINE
  5
68F
100
AcDbEntity
  8
RACCORDO
100
AcDbSpline
 62
253
  6
CONTINUOUS
 70
0
 71
3
 72
11
 73
7
 74
5
 42
0.0000001
 43
0.0000001
 44
0.0000000001
 12
0.001454398
 22
0.2499982374
 32
0.0
 13
-0.2499982371
 23
0.0014544472
 33
0.0
 40
0.0
 40
0.0
 40
0.0
 40
0.0
 40
0.3843218246
 40
0.7098963748
 40
0.9261605565
 40
1.0
 40
1.0
 40
1.0
 40
1.0
 10
-75.7111365235
 20
24.2456323968
 30
0.0
 10
-75.7109502045
 20
24.2776589897
 30
0.0
 10
-75.7125374932
 20
24.3348546084
 30
0.0
 10
-75.7057965439
 20
24.4189332687
 30
0.0
 10
-75.7187293936
 20
24.4567305785
 30
0.0
 10
-75.7049832799
 20
24.4955923675
 30
0.0
 10
-75.7111365235
 20
24.495628166
 30
0.0
 11
-75.7111365235
 21
24.2456323968
 31
0.0
 11
-75.7106892686
 21
24.3417127604
 31
0.0
 11
-75.7105341289
 21
24.4231070536
 31
0.0
 11
-75.7106954946
 21
24.477173392
 31
0.0
 11
-75.7111365235
 21
24.495628166
 31
0.0
  0
SPLINE
  5
690
100
AcDbEntity
  8
RACCORDO
100
AcDbSpline
 62
253
  6
CONTINUOUS
 70
0
 71
3
 72
11
 73
7
 74
5
 42
0.0000001
 43
0.0000001
 44
0.0000000001
 12
0.1246373144
 22
-0.215885468
 32
0.0
 13
-0.2158836413
 23
-0.1246404784
 33
0.0
 40
0.0
 40
0.0
 40
0.0
 40
0.0
 40
0.383610324
 40
0.7082159319
 40
0.9246829794
 40
1.0
 40
1.0
 40
1.0
 40
1.0
 10
-75.7111365235
 20
23.8443375673
 30
0.0
 10
-75.6951991366
 20
23.8167322692
 30
0.0
 10
-75.6684051458
 20
23.7665051491
 30
0.0
 10
-75.6211151244
 20
23.6971579279
 30
0.0
 10
-75.6136514652
 20
23.6579329636
 30
0.0
 10
-75.5821710521
 20
23.6309603995
 30
0.0
 10
-75.5875909563
 20
23.6278312164
 30
0.0
 11
-75.7111365235
 21
23.8443375673
 31
0.0
 11
-75.6634074435
 21
23.7614737636
 31
0.0
 11
-75.6231860645
 21
23.6912600695
 31
0.0
 11
-75.5965607714
 21
23.6443250564
 31
0.0
 11
-75.5875909563
 21
23.6278312164
 31
0.0
  0
SPLINE
  5
691
100
AcDbEntity
  8
RACCORDO
100
AcDbSpline
 62
7
  6
CONTINUOUS
 70
0
 71
3
 72
11
 73
7
 74
5
 42
0.0000001
 43
0.0000001
 44
0.0000000001
 12
0.1246373069
 22
-0.2158854549
 32
0.0
 13
-0.2158836282
 23
-0.1246404709
 33
0.0
 40
0.0
 40
0.0
 40
0.0
 40
0.0
 40
0.3828907181
 40
0.7072619023
 40
0.923914324
 40
1.0
 40
1.0
 40
1.0
 40
1.0
 10
-76.4625909563
 20
23.4104851482
 30
0.0
 10
-76.446683467
 20
23.3829316359
 30
0.0
 10
-76.4199175647
 20
23.332769454
 30
0.0
 10
-76.3726877728
 20
23.263487913
 30
0.0
 10
-76.3651850617
 20
23.2242058235
 30
0.0
 10
-76.3335701719
 20
23.1971399154
 30
0.0
 10
-76.3390453892
 20
23.1939787973
 30
0.0
 11
-76.4625909563
 21
23.4104851482
 31
0.0
 11
-76.4149512445
 21
23.3277768889
 31
0.0
 11
-76.3747583699
 21
23.2576142183
 31
0.0
 11
-76.3481089821
 21
23.2106397496
 31
0.0
 11
-76.3390453892
 21
23.1939787973
 31
0.0
  0
SPLINE
  5
692
100
AcDbEntity
  8
RACCORDO
100
AcDbSpline
 62
7
  6
CONTINUOUS
 70
0
 71
3
 72
9
 73
5
 74
3
 42
0.0000001
 43
0.0000001
 44
0.0000000001
 12
-0.1240356278
 22
-0.0065920553
 32
0.0
 13
-0.1240404501
 23
-0.0065006845
 33
0.0
 40
0.0
 40
0.0
 40
0.0
 40
0.0
 40
0.5199616574
 40
1.0
 40
1.0
 40
1.0
 40
1.0
 10
-77.7140453892
 20
22.3334109614
 30
0.0
 10
-77.7355433127
 20
22.3322684228
 30
0.0
 10
-77.7769074326
 20
22.3304431437
 30
0.0
 10
-77.818286041
 20
22.3289510312
 30
0.0
 10
-77.8381340983
 20
22.3279108386
 30
0.0
 11
-77.7140453892
 21
22.3334109614
 31
0.0
 11
-77.7785627425
 21
22.3304603475
 31
0.0
 11
-77.8381340983
 21
22.3279108386
 31
0.0
  0
SPLINE
  5
693
100
AcDbEntity
  8
RACCORDO
100
AcDbSpline
 62
7
  6
CONTINUOUS
 70
0
 71
3
 72
12
 73
8
 74
6
 42
0.0000001
 43
0.0000001
 44
0.0000000001
 12
-0.2489097542
 22
-0.1437117616
 32
0.0
 13
-0.2461314079
 23
-0.1484368582
 33
0.0
 40
0.0
 40
0.0
 40
0.0
 40
0.0
 40
0.2874701681
 40
0.5581272763
 40
0.7856651242
 40
0.9422058565
 40
1.0
 40
1.0
 40
1.0
 40
1.0
 10
-77.7140453892
 20
23.2669872981
 30
0.0
 10
-77.7378967655
 20
23.25321635
 30
0.0
 10
-77.784192558
 20
23.2264592271
 30
0.0
 10
-77.8493469031
 20
23.188766567
 30
0.0
 10
-77.9035740887
 20
23.1572371701
 30
0.0
 10
-77.9402131313
 20
23.1360275224
 30
0.0
 10
-77.957849305
 20
23.1255093245
 30
0.0
 10
-77.9625909563
 20
23.1226497308
 30
0.0
 11
-77.7140453892
 21
23.2669872981
 31
0.0
 11
-77.7855842807
 21
23.2256480738
 31
0.0
 11
-77.8529071668
 21
23.186671368
 31
0.0
 11
-77.9094670388
 21
23.1538393304
 31
0.0
 11
-77.9483284373
 21
23.131164925
 31
0.0
 11
-77.9625909563
 21
23.1226497308
 31
0.0
  0
SPLINE
  5
694
100
AcDbEntity
  8
RACCORDO
100
AcDbSpline
 62
7
  6
CONTINUOUS
 70
0
 71
3
 72
9
 73
5
 74
3
 42
0.0000001
 43
0.0000001
 44
0.0000000001
 12
0.1240404501
 22
-0.0065006845
 32
0.0
 13
0.1240356278
 23
-0.0065920553
 33
0.0
 40
0.0
 40
0.0
 40
0.0
 40
0.0
 40
0.4800383426
 40
1.0
 40
1.0
 40
1.0
 40
1.0
 10
-77.8381340983
 20
-22.3279108386
 30
0.0
 10
-77.818286041
 20
-22.3289510312
 30
0.0
 10
-77.7769074326
 20
-22.3304431437
 30
0.0
 10
-77.7355433127
 20
-22.3322684228
 30
0.0
 10
-77.7140453892
 20
-22.3334109614
 30
0.0
 11
-77.8381340983
 21
-22.3279108386
 31
0.0
 11
-77.7785627425
 21
-22.3304603475
 31
0.0
 11
-77.7140453892
 21
-22.3334109614
 31
0.0
  0
SPLINE
  5
695
100
AcDbEntity
  8
RACCORDO
100
AcDbSpline
 62
7
  6
CONTINUOUS
 70
0
 71
3
 72
12
 73
8
 74
6
 42
0.0000001
 43
0.0000001
 44
0.0000000001
 12
-0.2489097554
 22
0.1437117623
 32
0.0
 13
-0.2461279857
 23
0.148442548
 33
0.0
 40
0.0
 40
0.0
 40
0.0
 40
0.0
 40
0.2869624875
 40
0.5578922054
 40
0.7858362466
 40
0.9424027397
 40
1.0
 40
1.0
 40
1.0
 40
1.0
 10
-77.7140453892
 20
-23.2669872981
 30
0.0
 10
-77.7378546434
 20
-23.2532406698
 30
0.0
 10
-77.7841309455
 20
-23.226494831
 30
0.0
 10
-77.8492995776
 20
-23.1887941233
 30
0.0
 10
-77.9035849962
 20
-23.1572305956
 30
0.0
 10
-77.9402437172
 20
-23.1360099732
 30
0.0
 10
-77.9578655238
 20
-23.1254996922
 30
0.0
 10
-77.9625909563
 20
-23.1226497308
 30
0.0
 11
-77.7140453892
 21
-23.2669872981
 31
0.0
 11
-77.7854579693
 21
-23.2257211285
 31
0.0
 11
-77.8528487133
 21
-23.186705249
 31
0.0
 11
-77.909509555
 21
-23.1538146014
 31
0.0
 11
-77.9483772427
 21
-23.1311362826
 31
0.0
 11
-77.9625909563
 21
-23.1226497308
 31
0.0
  0
SPLINE
  5
696
100
AcDbEntity
  8
RACCORDO
100
AcDbSpline
 62
253
  6
CONTINUOUS
 70
0
 71
3
 72
11
 73
7
 74
5
 42
0.0000001
 43
0.0000001
 44
0.0000000001
 12
-0.1246373144
 22
0.215885468
 32
0.0
 13
0.2158836413
 23
0.1246404784
 33
0.0
 40
0.0
 40
0.0
 40
0.0
 40
0.0
 40
0.3836103239
 40
0.7082159319
 40
0.9246829795
 40
1.0
 40
1.0
 40
1.0
 40
1.0
 10
-78.7140453892
 20
-23.8443375673
 30
0.0
 10
-78.729982776
 20
-23.8167322692
 30
0.0
 10
-78.7567767669
 20
-23.7665051491
 30
0.0
 10
-78.8040667882
 20
-23.6971579279
 30
0.0
 10
-78.8115304475
 20
-23.6579329636
 30
0.0
 10
-78.8430108606
 20
-23.6309603995
 30
0.0
 10
-78.8375909563
 20
-23.6278312164
 30
0.0
 11
-78.7140453892
 21
-23.8443375673
 31
0.0
 11
-78.7617744692
 21
-23.7614737636
 31
0.0
 11
-78.8019958482
 21
-23.6912600695
 31
0.0
 11
-78.8286211413
 21
-23.6443250563
 31
0.0
 11
-78.8375909563
 21
-23.6278312164
 31
0.0
  0
SPLINE
  5
697
100
AcDbEntity
  8
RACCORDO
100
AcDbSpline
 62
253
  6
CONTINUOUS
 70
0
 71
3
 72
11
 73
7
 74
5
 42
0.0000001
 43
0.0000001
 44
0.0000000001
 12
-0.001454398
 22
-0.2499982374
 32
0.0
 13
0.2499982371
 23
-0.0014544472
 33
0.0
 40
0.0
 40
0.0
 40
0.0
 40
0.0
 40
0.3843218246
 40
0.7098963748
 40
0.9261605565
 40
1.0
 40
1.0
 40
1.0
 40
1.0
 10
-78.7140453892
 20
-24.2369056521
 30
0.0
 10
-78.7142317081
 20
-24.268932245
 30
0.0
 10
-78.7126444194
 20
-24.3261278637
 30
0.0
 10
-78.7193853688
 20
-24.410206524
 30
0.0
 10
-78.7064525191
 20
-24.4480038337
 30
0.0
 10
-78.7201986327
 20
-24.4868656228
 30
0.0
 10
-78.7140453892
 20
-24.4869014213
 30
0.0
 11
-78.7140453892
 21
-24.2369056521
 31
0.0
 11
-78.7144926441
 21
-24.3329860157
 31
0.0
 11
-78.7146477838
 21
-24.4143803089
 31
0.0
 11
-78.7144864181
 21
-24.4684466472
 31
0.0
 11
-78.7140453892
 21
-24.4869014213
 31
0.0
  0
SPLINE
  5
698
100
AcDbEntity
  8
RACCORDO
100
AcDbSpline
 62
7
  6
CONTINUOUS
 70
0
 71
3
 72
11
 73
7
 74
5
 42
0.0000001
 43
0.0000001
 44
0.0000000001
 12
0.0014543976
 22
-0.2499981764
 32
0.0
 13
-0.2499981761
 23
-0.0014544468
 33
0.0
 40
0.0
 40
0.0
 40
0.0
 40
0.0
 40
0.3826696105
 40
0.7070808014
 40
0.9238509539
 40
1.0
 40
1.0
 40
1.0
 40
1.0
 10
-76.4625909563
 20
-24.2500042308
 30
0.0
 10
-76.4624054384
 20
-24.2818931324
 30
0.0
 10
-76.4639714862
 20
-24.338879399
 30
0.0
 10
-76.4572947358
 20
-24.4226898453
 30
0.0
 10
-76.470203016
 20
-24.4606624683
 30
0.0
 10
-76.4562452488
 20
-24.4999630818
 30
0.0
 10
-76.4625909563
 20
-24.5
 30
0.0
 11
-76.4625909563
 21
-24.2500042308
 31
0.0
 11
-76.4621451066
 21
-24.3456715156
 31
0.0
 11
-76.4619885453
 21
-24.426774943
 31
0.0
 11
-76.4621451066
 21
-24.4809677767
 31
0.0
 11
-76.4625909563
 21
-24.5
 31
0.0
  0
SPLINE
  5
699
100
AcDbEntity
  8
RACCORDO
100
AcDbSpline
 62
253
  6
CONTINUOUS
 70
0
 71
3
 72
11
 73
7
 74
5
 42
0.0000001
 43
0.0000001
 44
0.0000000001
 12
0.001454398
 22
-0.2499982374
 32
0.0
 13
-0.2499982371
 23
-0.0014544472
 33
0.0
 40
0.0
 40
0.0
 40
0.0
 40
0.0
 40
0.3843218262
 40
0.7098963651
 40
0.9261605606
 40
1.0
 40
1.0
 40
1.0
 40
1.0
 10
-75.7111365235
 20
-24.2456323968
 30
0.0
 10
-75.7109502045
 20
-24.2776589898
 30
0.0
 10
-75.7125374932
 20
-24.3348546078
 30
0.0
 10
-75.705796544
 20
-24.4189332683
 30
0.0
 10
-75.7187293942
 20
-24.4567305774
 30
0.0
 10
-75.7049832803
 20
-24.4955923675
 30
0.0
 10
-75.7111365235
 20
-24.495628166
 30
0.0
 11
-75.7111365235
 21
-24.2456323968
 31
0.0
 11
-75.7106892686
 21
-24.3417127608
 31
0.0
 11
-75.7105341289
 21
-24.4231070512
 31
0.0
 11
-75.7106954946
 21
-24.477173393
 31
0.0
 11
-75.7111365235
 21
-24.495628166
 31
0.0
  0
SPLINE
  5
69A
100
AcDbEntity
  8
RACCORDO
100
AcDbSpline
 62
253
  6
CONTINUOUS
 70
0
 71
3
 72
11
 73
7
 74
5
 42
0.0000001
 43
0.0000001
 44
0.0000000001
 12
0.1246373144
 22
0.215885468
 32
0.0
 13
-0.2158836413
 23
0.1246404784
 33
0.0
 40
0.0
 40
0.0
 40
0.0
 40
0.0
 40
0.3836103239
 40
0.7082159319
 40
0.9246829795
 40
1.0
 40
1.0
 40
1.0
 40
1.0
 10
-75.7111365235
 20
-23.8443375673
 30
0.0
 10
-75.6951991366
 20
-23.8167322692
 30
0.0
 10
-75.6684051458
 20
-23.7665051491
 30
0.0
 10
-75.6211151244
 20
-23.6971579279
 30
0.0
 10
-75.6136514652
 20
-23.6579329636
 30
0.0
 10
-75.5821710521
 20
-23.6309603995
 30
0.0
 10
-75.5875909563
 20
-23.6278312164
 30
0.0
 11
-75.7111365235
 21
-23.8443375673
 31
0.0
 11
-75.6634074435
 21
-23.7614737636
 31
0.0
 11
-75.6231860645
 21
-23.6912600695
 31
0.0
 11
-75.5965607714
 21
-23.6443250563
 31
0.0
 11
-75.5875909563
 21
-23.6278312164
 31
0.0
  0
SPLINE
  5
69B
100
AcDbEntity
  8
RACCORDO
100
AcDbSpline
 62
7
  6
CONTINUOUS
 70
0
 71
3
 72
11
 73
7
 74
5
 42
0.0000001
 43
0.0000001
 44
0.0000000001
 12
0.1253642695
 22
0.2171451639
 32
0.0
 13
0.217143194
 23
-0.1253676815
 33
0.0
 40
0.0
 40
0.0
 40
0.0
 40
0.0
 40
0.3824510306
 40
0.706909136
 40
0.9238007172
 40
1.0
 40
1.0
 40
1.0
 40
1.0
 10
-76.4625909563
 20
-23.4121645826
 30
0.0
 10
-76.4466090583
 20
-23.3844821187
 30
0.0
 10
-76.4163916868
 20
-23.3359602686
 30
0.0
 10
-76.3798015098
 20
-23.2599861452
 30
0.0
 10
-76.3493342271
 20
-23.2336778996
 30
0.0
 10
-76.3416519087
 20
-23.1924739225
 30
0.0
 10
-76.3361365235
 20
-23.1956582316
 30
0.0
 11
-76.4625909563
 21
-23.4121645826
 31
0.0
 11
-76.4145619173
 21
-23.3291653642
 31
0.0
 11
-76.3736493303
 21
-23.258848293
 31
0.0
 11
-76.3461045974
 21
-23.2119576547
 31
0.0
 11
-76.3361365235
 21
-23.1956582316
 31
0.0
  0
SPLINE
  5
69C
100
AcDbEntity
  8
RACCORDO
100
AcDbSpline
 62
7
  6
CONTINUOUS
 70
0
 71
3
 72
12
 73
8
 74
6
 42
0.0000001
 43
0.0000001
 44
0.0000000001
 12
-0.0109036576
 22
0.4998596615
 32
0.0
 13
0.2333125718
 23
0.4422033636
 33
0.0
 40
0.0
 40
0.0
 40
0.0
 40
0.0
 40
0.3030358887
 40
0.5776030971
 40
0.7979008769
 40
0.9432218509
 40
1.0
 40
1.0
 40
1.0
 40
1.0
 10
-76.3176563134
 20
21.9073668507
 30
0.0
 10
-76.3187577133
 20
21.9578586563
 30
0.0
 10
-76.3208878031
 20
22.0542017111
 30
0.0
 10
-76.3216119159
 20
22.1867902408
 30
0.0
 10
-76.325102527
 20
22.2944664048
 30
0.0
 10
-76.3190793492
 20
22.3629092041
 30
0.0
 10
-76.3245264918
 20
22.3988599232
 30
0.0
 10
-76.3201108065
 20
22.407229086
 30
0.0
 11
-76.3176563134
 21
21.9073668507
 31
0.0
 11
-76.3205507638
 21
22.0588506511
 31
0.0
 11
-76.3223535425
 21
22.1961165335
 31
0.0
 11
-76.322894825
 21
22.3062593725
 31
0.0
 11
-76.3221232221
 21
22.3789126481
 31
0.0
 11
-76.3201108065
 21
22.407229086
 31
0.0
  0
SPLINE
  5
69D
100
AcDbEntity
  8
RACCORDO
100
AcDbSpline
 62
253
  6
CONTINUOUS
 70
0
 71
3
 72
12
 73
8
 74
6
 42
0.0000001
 43
0.0000001
 44
0.0000000001
 12
-0.0261472691
 22
0.4990709999
 32
0.0
 13
0.4990705853
 23
0.0261551811
 33
0.0
 40
0.0
 40
0.0
 40
0.0
 40
0.0
 40
0.3089468271
 40
0.5876099958
 40
0.8087564819
 40
0.9507924544
 40
1.0
 40
1.0
 40
1.0
 40
1.0
 10
-84.1019280703
 20
21.4994104546
 30
0.0
 10
-84.1046207756
 20
21.5508059219
 30
0.0
 10
-84.1102769773
 20
21.6494713363
 30
0.0
 10
-84.1131439225
 20
21.7806006204
 30
0.0
 10
-84.1248558092
 20
21.8963351252
 30
0.0
 10
-84.1115282094
 20
21.9480400766
 30
0.0
 10
-84.1275558554
 20
21.9982962114
 30
0.0
 10
-84.1193698425
 20
21.9987252221
 30
0.0
 11
-84.1019280703
 21
21.4994104546
 31
0.0
 11
-84.1095807339
 21
21.6536185582
 31
0.0
 11
-84.1156320453
 21
21.792750471
 31
0.0
 11
-84.1194903044
 21
21.9032022729
 31
0.0
 11
-84.1207782241
 21
21.9741738439
 31
0.0
 11
-84.1193698425
 21
21.9987252221
 31
0.0
  0
SPLINE
  5
69E
100
AcDbEntity
  8
RACCORDO
100
AcDbSpline
 62
7
  6
CONTINUOUS
 70
0
 71
3
 72
12
 73
8
 74
6
 42
0.0000001
 43
0.0000001
 44
0.0000000001
 12
-0.0109036576
 22
-0.4998596615
 32
0.0
 13
0.2333125718
 23
-0.4422033636
 33
0.0
 40
0.0
 40
0.0
 40
0.0
 40
0.0
 40
0.3030358887
 40
0.5776030971
 40
0.7979008769
 40
0.9432218509
 40
1.0
 40
1.0
 40
1.0
 40
1.0
 10
-76.3176563134
 20
-21.9073668507
 30
0.0
 10
-76.3187577133
 20
-21.9578586563
 30
0.0
 10
-76.3208878031
 20
-22.0542017111
 30
0.0
 10
-76.3216119159
 20
-22.1867902408
 30
0.0
 10
-76.325102527
 20
-22.2944664048
 30
0.0
 10
-76.3190793492
 20
-22.3629092041
 30
0.0
 10
-76.3245264918
 20
-22.3988599232
 30
0.0
 10
-76.3201108065
 20
-22.407229086
 30
0.0
 11
-76.3176563134
 21
-21.9073668507
 31
0.0
 11
-76.3205507638
 21
-22.0588506511
 31
0.0
 11
-76.3223535425
 21
-22.1961165335
 31
0.0
 11
-76.322894825
 21
-22.3062593725
 31
0.0
 11
-76.3221232221
 21
-22.3789126481
 31
0.0
 11
-76.3201108065
 21
-22.407229086
 31
0.0
  0
SPLINE
  5
69F
100
AcDbEntity
  8
RACCORDO
100
AcDbSpline
 62
253
  6
CONTINUOUS
 70
0
 71
3
 72
12
 73
8
 74
6
 42
0.0000001
 43
0.0000001
 44
0.0000000001
 12
-0.0261472363
 22
-0.4990710012
 32
0.0
 13
0.4990705849
 23
-0.0261551811
 33
0.0
 40
0.0
 40
0.0
 40
0.0
 40
0.0
 40
0.3089507474
 40
0.587614713
 40
0.8087596435
 40
0.9507934524
 40
1.0
 40
1.0
 40
1.0
 40
1.0
 10
-84.1019280703
 20
-21.4994104546
 30
0.0
 10
-84.1046208064
 20
-21.5508065742
 30
0.0
 10
-84.1102770546
 20
-21.6494727929
 30
0.0
 10
-84.1131439776
 20
-21.7806025662
 30
0.0
 10
-84.1248557998
 20
-21.8963365666
 30
0.0
 10
-84.1115283661
 20
-21.9480409334
 30
0.0
 10
-84.1275556921
 20
-21.9982962199
 30
0.0
 10
-84.1193698452
 20
-21.998725222
 30
0.0
 11
-84.1019280703
 21
-21.4994104546
 31
0.0
 11
-84.1095808171
 21
-21.6536205156
 31
0.0
 11
-84.1156321266
 21
-21.7927528269
 31
0.0
 11
-84.1194903376
 21
-21.9032038525
 31
0.0
 11
-84.1207782171
 21
-21.9741743428
 31
0.0
 11
-84.1193698452
 21
-21.998725222
 31
0.0
  0
SPLINE
  5
6A0
100
AcDbEntity
  8
RACCORDO
100
AcDbSpline
 62
253
  6
CONTINUOUS
 70
0
 71
3
 72
11
 73
7
 74
5
 42
0.0000001
 43
0.0000001
 44
0.0000000001
 12
-0.1246373144
 22
-0.215885468
 32
0.0
 13
0.2158836413
 23
-0.1246404784
 33
0.0
 40
0.0
 40
0.0
 40
0.0
 40
0.0
 40
0.3836103239
 40
0.7082159319
 40
0.9246829795
 40
1.0
 40
1.0
 40
1.0
 40
1.0
 10
-78.7140453892
 20
23.8443375673
 30
0.0
 10
-78.729982776
 20
23.8167322692
 30
0.0
 10
-78.7567767669
 20
23.7665051491
 30
0.0
 10
-78.8040667882
 20
23.6971579279
 30
0.0
 10
-78.8115304475
 20
23.6579329636
 30
0.0
 10
-78.8430108606
 20
23.6309603995
 30
0.0
 10
-78.8375909563
 20
23.6278312164
 30
0.0
 11
-78.7140453892
 21
23.8443375673
 31
0.0
 11
-78.7617744692
 21
23.7614737636
 31
0.0
 11
-78.8019958482
 21
23.6912600695
 31
0.0
 11
-78.8286211413
 21
23.6443250563
 31
0.0
 11
-78.8375909563
 21
23.6278312164
 31
0.0
  0
SPLINE
  5
6A1
100
AcDbEntity
  8
RACCORDO
100
AcDbSpline
 62
253
  6
CONTINUOUS
 70
0
 71
3
 72
17
 73
13
 74
11
 42
0.0000001
 43
0.0000001
 44
0.0000000001
 12
25.1206491156
 22
0.6286829287
 32
0.0
 13
25.0988572241
 23
1.2205000028
 33
0.0
 40
0.0
 40
0.0
 40
0.0
 40
0.0
 40
0.1562548872
 40
0.3001130163
 40
0.4265392896
 40
0.5380394864
 40
0.6372798364
 40
0.7259344206
 40
0.8053343534
 40
0.8766783459
 40
0.941163483
 40
1.0
 40
1.0
 40
1.0
 40
1.0
 10
-65.4625909563
 20
-19.0429008016
 30
0.0
 10
-64.1541828918
 20
-19.0101558749
 30
0.0
 10
-61.6412136656
 20
-18.9455626814
 30
0.0
 10
-58.0697799716
 20
-18.8479255313
 30
0.0
 10
-54.8732456868
 20
-18.7546360849
 30
0.0
 10
-52.0504499585
 20
-18.6665684288
 30
0.0
 10
-49.5440590714
 20
-18.5828961216
 30
0.0
 10
-47.3065781676
 20
-18.5029164138
 30
0.0
 10
-45.3028006416
 20
-18.4262077613
 30
0.0
 10
-43.5015153958
 20
-18.352371349
 30
0.0
 10
-41.8725268504
 20
-18.2809133381
 30
0.0
 10
-40.8406975266
 20
-18.232480897
 30
0.0
 10
-40.3484544131
 20
-18.2085442406
 30
0.0
 11
-65.4625909563
 21
-19.0429008016
 31
0.0
 11
-61.5374400017
 21
-18.941781939
 31
0.0
 11
-57.9238555614
 21
-18.8427526461
 31
0.0
 11
-54.7483095531
 21
-18.7498570514
 31
0.0
 11
-51.9478439886
 21
-18.6622882351
 31
0.0
 11
-49.4554758884
 21
-18.5789026076
 31
0.0
 11
-47.2291456682
 21
-18.4991555971
 31
0.0
 11
-45.2354094806
 21
-18.422679732
 31
0.0
 11
-43.4441507493
 21
-18.3491182036
 31
0.0
 11
-41.8252975344
 21
-18.2779748712
 31
0.0
 11
-40.3484544131
 21
-18.2085442406
 31
0.0
  0
SPLINE
  5
6A2
100
AcDbEntity
  8
RACCORDO
100
AcDbSpline
 62
253
  6
CONTINUOUS
 70
0
 71
3
 72
13
 73
9
 74
7
 42
0.0000001
 43
0.0000001
 44
0.0000000001
 12
-0.0000669542
 22
0.886365093
 32
0.0
 13
-0.8863649454
 23
0.0005158733
 33
0.0
 40
0.0
 40
0.0
 40
0.0
 40
0.0
 40
0.0350199533
 40
0.1346970258
 40
0.2930286049
 40
0.4995627869
 40
0.7405690071
 40
1.0
 40
1.0
 40
1.0
 40
1.0
 10
-39.4625909563
 20
-2.321562006
 30
0.0
 10
-39.4625917379
 20
-2.3112151846
 30
0.0
 10
-39.5244224491
 20
-2.3177787345
 30
0.0
 10
-39.5901603701
 20
-2.3005219089
 30
0.0
 10
-39.73834483
 20
-2.3007434841
 30
0.0
 10
-39.912856843
 20
-2.2937698097
 30
0.0
 10
-40.1232586263
 20
-2.291639948
 30
0.0
 10
-40.2707341501
 20
-2.2907096102
 30
0.0
 10
-40.3473843294
 20
-2.2906649991
 30
0.0
 11
-39.4625909563
 21
-2.321562006
 31
0.0
 11
-39.4926056665
 21
-2.3136482462
 31
0.0
 11
-39.5806466785
 21
-2.3062623273
 31
0.0
 11
-39.7208418298
 21
-2.2998968917
 31
0.0
 11
-39.9038403831
 21
-2.294976508
 31
0.0
 11
-40.1174367005
 21
-2.2918293505
 31
0.0
 11
-40.3473843294
 21
-2.2906649991
 31
0.0
  0
LINE
  5
6A3
100
AcDbEntity
  8
RACCORDO
100
AcDbLine
 62
253
  6
CONTINUOUS
 10
-40.3473840104
 20
-2.2906643517
 11
-40.3484543708
 21
-2.3249992318
  0
SPLINE
  5
6A4
100
AcDbEntity
  8
RACCORDO
100
AcDbSpline
 62
253
  6
CONTINUOUS
 70
0
 71
3
 72
14
 73
10
 74
8
 42
0.0000001
 43
0.0000001
 44
0.0000000001
 12
0.9825549948
 22
-0.0381757862
 32
0.0
 13
-0.0304056636
 23
-0.9828261312
 33
0.0
 40
0.0
 40
0.0
 40
0.0
 40
0.0
 40
0.0345994133
 40
0.1102331363
 40
0.2292539647
 40
0.3854998663
 40
0.5719649617
 40
0.7800172285
 40
1.0
 40
1.0
 40
1.0
 40
1.0
 10
-40.4276914596
 20
-1.322171179
 30
0.0
 10
-40.4163595175
 20
-1.3226114656
 30
0.0
 10
-40.3942296149
 20
-1.3617384217
 30
0.0
 10
-40.3792530179
 20
-1.429482242
 30
0.0
 10
-40.3622371191
 20
-1.5463592392
 30
0.0
 10
-40.351085146
 20
-1.6961537043
 30
0.0
 10
-40.3440876232
 20
-1.8769806777
 30
0.0
 10
-40.3421931944
 20
-2.0782808694
 30
0.0
 10
-40.3451544364
 20
-2.2185960796
 30
0.0
 10
-40.3473840104
 20
-2.2906643517
 30
0.0
 11
-40.4276914596
 21
-1.322171179
 31
0.0
 11
-40.4039382079
 21
-1.346527778
 31
0.0
 11
-40.3825821465
 21
-1.4177658972
 31
0.0
 11
-40.3652948218
 21
-1.5335148152
 31
0.0
 11
-40.352630459
 21
-1.6866279822
 31
0.0
 11
-40.3452099111
 21
-1.8698282061
 31
0.0
 11
-40.3432413525
 21
-2.0743957688
 31
0.0
 11
-40.3473840104
 21
-2.2906643517
 31
0.0
  0
SPLINE
  5
6A5
100
AcDbEntity
  8
RACCORDO
100
AcDbSpline
 62
7
  6
CONTINUOUS
 70
0
 71
3
 72
16
 73
12
 74
10
 42
0.0000001
 43
0.0000001
 44
0.0000000001
 12
0.9918498971
 22
0.9579406146
 32
0.0
 13
0.0
 23
1.3789185761
 33
0.0
 40
0.0
 40
0.0
 40
0.0
 40
0.0
 40
0.1702711256
 40
0.3354418895
 40
0.4880345871
 40
0.6225804804
 40
0.735483631
 40
0.8381815221
 40
0.9237661769
 40
0.9802549701
 40
1.0
 40
1.0
 40
1.0
 40
1.0
 10
-42.046883639
 20
-2.2656887748
 30
0.0
 10
-41.9905891729
 20
-2.2113188992
 30
0.0
 10
-41.8797514625
 20
-2.1041365893
 30
0.0
 10
-41.7187373163
 20
-1.9479675407
 30
0.0
 10
-41.569624198
 20
-1.8030437552
 30
0.0
 10
-41.4382604012
 20
-1.6745462383
 30
0.0
 10
-41.3225905216
 20
-1.5621514676
 30
0.0
 10
-41.2261432479
 20
-1.464284054
 30
0.0
 10
-41.1402981597
 20
-1.3870075793
 30
0.0
 10
-41.0998860553
 20
-1.3301987192
 30
0.0
 10
-41.0625909563
 20
-1.3091905736
 30
0.0
 10
-41.0625909563
 20
-1.3001149774
 30
0.0
 11
-42.046883639
 21
-2.2656887748
 31
0.0
 11
-41.8781093444
 21
-2.1024662578
 31
0.0
 11
-41.7146092351
 21
-1.9439071803
 31
0.0
 11
-41.5637797443
 21
-1.797196392
 31
0.0
 11
-41.4310092347
 21
-1.6676102504
 31
0.0
 11
-41.3198176625
 21
-1.5586422713
 31
0.0
 11
-41.2189552165
 21
-1.4592403901
 31
0.0
 11
-41.1352998186
 21
-1.3759989198
 31
0.0
 11
-41.0806855431
 21
-1.3204591153
 31
0.0
 11
-41.0625909563
 21
-1.3001149774
 31
0.0
  0
SPLINE
  5
6A6
100
AcDbEntity
  8
RACCORDO
100
AcDbSpline
 62
253
  6
CONTINUOUS
 70
0
 71
3
 72
14
 73
10
 74
8
 42
0.0000001
 43
0.0000001
 44
0.0000000001
 12
0.0125140215
 22
-0.9399247378
 32
0.0
 13
-0.9397439335
 23
-0.0222812265
 33
0.0
 40
0.0
 40
0.0
 40
0.0
 40
0.0
 40
0.225862291
 40
0.4382793591
 40
0.6274048206
 40
0.7844707951
 40
0.9021963069
 40
0.9751344474
 40
1.0
 40
1.0
 40
1.0
 40
1.0
 10
-40.3484545478
 20
-18.2085502196
 30
0.0
 10
-40.3475123993
 20
-18.2793147378
 30
0.0
 10
-40.345785589
 20
-18.416742472
 30
0.0
 10
-40.3443944839
 20
-18.6128756952
 30
0.0
 10
-40.3423638679
 20
-18.7892762518
 30
0.0
 10
-40.3453518103
 20
-18.9307938092
 30
0.0
 10
-40.3386188618
 20
-19.0490290652
 30
0.0
 10
-40.3535148562
 20
-19.0995886632
 30
0.0
 10
-40.3406654779
 20
-19.148186213
 30
0.0
 10
-40.348454562
 20
-19.1483708913
 30
0.0
 11
-40.3484545478
 21
-18.2085502196
 31
0.0
 11
-40.3459331344
 21
-18.4208476162
 31
0.0
 11
-40.3441835131
 21
-18.6205137023
 31
0.0
 11
-40.3432883591
 21
-18.7982909029
 31
0.0
 11
-40.3432886707
 21
-18.9459341815
 31
0.0
 11
-40.3441829743
 21
-19.0565934954
 31
0.0
 11
-40.3459316381
 21
-19.1251336306
 31
0.0
 11
-40.348454562
 21
-19.1483708913
 31
0.0
  0
SPLINE
  5
6A7
100
AcDbEntity
  8
RACCORDO
100
AcDbSpline
 62
253
  6
CONTINUOUS
 70
0
 71
3
 72
14
 73
10
 74
8
 42
0.0000001
 43
0.0000001
 44
0.0000000001
 12
23.420889353
 22
-0.5861421127
 32
0.0
 13
23.4045016945
 23
-1.0540024154
 33
0.0
 40
0.0
 40
0.0
 40
0.0
 40
0.0
 40
0.140261514
 40
0.2844959719
 40
0.4308447636
 40
0.5774498796
 40
0.7224608513
 40
0.8639586702
 40
1.0
 40
1.0
 40
1.0
 40
1.0
 10
-65.4625909564
 20
19.0429009683
 30
0.0
 10
-64.3675744901
 20
19.015496575
 30
0.0
 10
-62.1465561977
 20
18.9586502851
 30
0.0
 10
-58.783137081
 20
18.8678821099
 30
0.0
 10
-55.3703615392
 20
18.7698117643
 30
0.0
 10
-51.9517485708
 20
18.6640144852
 30
0.0
 10
-48.5713054448
 20
18.5498922114
 30
0.0
 10
-45.2737316527
 20
18.4267022617
 30
0.0
 10
-43.1082101504
 20
18.3357978705
 30
0.0
 10
-42.046883639
 20
18.2880019071
 30
0.0
 11
-65.4625909564
 21
19.0429009683
 31
0.0
 11
-62.1775920838
 21
18.9586930919
 31
0.0
 11
-58.799669847
 21
18.8673506187
 31
0.0
 11
-55.3723998793
 21
18.7686084679
 31
0.0
 11
-51.939357046
 21
18.6620133142
 31
0.0
 11
-48.5439581966
 21
18.546908044
 31
0.0
 11
-45.2312504674
 21
18.4225145961
 31
0.0
 11
-42.046883639
 21
18.2880019071
 31
0.0
  0
SPLINE
  5
6A8
100
AcDbEntity
  8
RACCORDO
100
AcDbSpline
 62
253
  6
CONTINUOUS
 70
0
 71
3
 72
13
 73
9
 74
7
 42
0.0000001
 43
0.0000001
 44
0.0000000001
 12
0.8871440944
 22
-0.0139363731
 32
0.0
 13
0.0020003064
 23
-0.8872512978
 33
0.0
 40
0.0
 40
0.0
 40
0.0
 40
0.0
 40
0.0329354668
 40
0.130081261
 40
0.285851334
 40
0.491218846
 40
0.7340339503
 40
1.0
 40
1.0
 40
1.0
 40
1.0
 10
-42.046883639
 20
19.1750641219
 30
0.0
 10
-42.0371441374
 20
19.1749111216
 30
0.0
 10
-42.0538510475
 20
19.1136670487
 30
0.0
 10
-42.0351486822
 20
19.050648441
 30
0.0
 10
-42.0441706732
 20
18.9034308109
 30
0.0
 10
-42.0411621749
 20
18.7295791224
 30
0.0
 10
-42.0436968005
 20
18.5166870991
 30
0.0
 10
-42.0470609769
 20
18.3666614813
 30
0.0
 10
-42.046883639
 20
18.2880019071
 30
0.0
 11
-42.046883639
 21
19.1750641219
 31
0.0
 11
-42.0439876265
 21
19.1459858686
 31
0.0
 11
-42.0421602085
 21
19.0598122917
 31
0.0
 11
-42.0415368772
 21
18.9216061467
 31
0.0
 11
-42.0421514697
 21
18.7393941285
 31
0.0
 11
-42.0439695924
 21
18.5239632365
 31
0.0
 11
-42.046883639
 21
18.2880019071
 31
0.0
  0
SPLINE
  5
6A9
100
AcDbEntity
  8
RACCORDO
100
AcDbSpline
 62
253
  6
CONTINUOUS
 70
0
 71
3
 72
13
 73
9
 74
7
 42
0.0000001
 43
0.0000001
 44
0.0000000001
 12
0.8835792919
 22
0.000833502
 32
0.0
 13
0.4771982599
 23
0.5907470641
 33
0.0
 40
0.0
 40
0.0
 40
0.0
 40
0.0
 40
0.260496555
 40
0.5025937142
 40
0.7102033309
 40
0.8695940499
 40
0.9704489767
 40
1.0
 40
1.0
 40
1.0
 40
1.0
 10
-40.3484544131
 20
-18.2085506776
 30
0.0
 10
-40.2717312925
 20
-18.2084783028
 30
0.0
 10
-40.1240182655
 20
-18.2071404586
 30
0.0
 10
-39.913621951
 20
-18.2022869399
 30
0.0
 10
-39.7380723746
 20
-18.1933558518
 30
0.0
 10
-39.5914371864
 20
-18.1856084328
 30
0.0
 10
-39.5235576099
 20
-18.1708630657
 30
0.0
 10
-39.4692627027
 20
-18.16611249
 30
0.0
 10
-39.4645621371
 20
-18.1602934299
 30
0.0
 11
-40.3484544131
 21
-18.2085506776
 31
0.0
 11
-40.1182938351
 21
-18.2065281786
 31
0.0
 11
-39.9044523515
 21
-18.2010309071
 31
0.0
 11
-39.7212146414
 21
-18.192426082
 31
0.0
 11
-39.5808213236
 21
-18.1812885377
 31
0.0
 11
-39.4926504421
 21
-18.1683623083
 31
0.0
 11
-39.4645621371
 21
-18.1602934299
 31
0.0
  0
SPLINE
  5
6AA
100
AcDbEntity
  8
RACCORDO
100
AcDbSpline
 62
253
  6
CONTINUOUS
 70
0
 71
3
 72
8
 73
4
 74
2
 42
0.0000001
 43
0.0000001
 44
0.0000000001
 12
0.003773322
 22
0.0046711799
 32
0.0
 13
0.000000012
 23
0.0069866782
 33
0.0
 40
0.0
 40
0.0
 40
0.0
 40
0.0
 40
1.0
 40
1.0
 40
1.0
 40
1.0
 10
-39.4645621371
 20
-18.1602934299
 30
0.0
 10
-39.4633043631
 20
-18.15873637
 30
0.0
 10
-39.4625909603
 20
-18.1568397503
 30
0.0
 10
-39.4625909563
 20
-18.1545108575
 30
0.0
 11
-39.4645621371
 21
-18.1602934299
 31
0.0
 11
-39.4625909563
 21
-18.1545108575
 31
0.0
  0
SPLINE
  5
6AB
100
AcDbEntity
  8
RACCORDO
100
AcDbSpline
 62
253
  6
CONTINUOUS
 70
0
 71
3
 72
13
 73
9
 74
7
 42
0.0000001
 43
0.0000001
 44
0.0000000001
 12
0.0
 22
1.0015457134
 32
0.0
 13
-1.0015441396
 23
0.0017755007
 33
0.0
 40
0.0
 40
0.0
 40
0.0
 40
0.0
 40
0.0441101947
 40
0.1455704826
 40
0.3030433279
 40
0.5071159196
 40
0.7446267491
 40
1.0
 40
1.0
 40
1.0
 40
1.0
 10
-41.0625909563
 20
18.1751874894
 30
0.0
 10
-41.0625909563
 20
18.1899136149
 30
0.0
 10
-41.1199738878
 20
18.2158461575
 30
0.0
 10
-41.2082341278
 20
18.2352474448
 30
0.0
 10
-41.3668265245
 20
18.2582261952
 30
0.0
 10
-41.5640512665
 20
18.2742151646
 30
0.0
 10
-41.7972541322
 20
18.2852858292
 30
0.0
 10
-41.9616277781
 20
18.2878507686
 30
0.0
 10
-42.046883639
 20
18.2880019071
 30
0.0
 11
-41.0625909563
 21
18.1751874894
 31
0.0
 11
-41.0959908543
 21
18.2041041932
 31
0.0
 11
-41.1939594419
 21
18.2310892671
 31
0.0
 11
-41.3499524374
 21
18.2543401136
 31
0.0
 11
-41.5535495406
 21
18.2723035809
 31
0.0
 11
-41.7911505065
 21
18.2837797132
 31
0.0
 11
-42.046883639
 21
18.2880019071
 31
0.0
  0
SPLINE
  5
6AC
100
AcDbEntity
  8
ASSI
100
AcDbSpline
 62
253
  6
CONTINUOUS
 70
0
 71
3
 72
13
 73
9
 74
7
 42
0.0000001
 43
0.0000001
 44
0.0000000001
 12
-0.0000669542
 22
0.886365093
 32
0.0
 13
-0.8863649454
 23
0.0005158733
 33
0.0
 40
0.0
 40
0.0
 40
0.0
 40
0.0
 40
0.0350199533
 40
0.1346970258
 40
0.2930286049
 40
0.4995627869
 40
0.7405690071
 40
1.0
 40
1.0
 40
1.0
 40
1.0
 10
-39.4625909563
 20
-2.321562006
 30
0.0
 10
-39.4625917379
 20
-2.3112151846
 30
0.0
 10
-39.5244224491
 20
-2.3177787345
 30
0.0
 10
-39.5901603701
 20
-2.3005219089
 30
0.0
 10
-39.73834483
 20
-2.3007434841
 30
0.0
 10
-39.912856843
 20
-2.2937698097
 30
0.0
 10
-40.1232586263
 20
-2.291639948
 30
0.0
 10
-40.2707341501
 20
-2.2907096102
 30
0.0
 10
-40.3473843294
 20
-2.2906649991
 30
0.0
 11
-39.4625909563
 21
-2.321562006
 31
0.0
 11
-39.4926056665
 21
-2.3136482462
 31
0.0
 11
-39.5806466785
 21
-2.3062623273
 31
0.0
 11
-39.7208418298
 21
-2.2998968917
 31
0.0
 11
-39.9038403831
 21
-2.294976508
 31
0.0
 11
-40.1174367005
 21
-2.2918293505
 31
0.0
 11
-40.3473843294
 21
-2.2906649991
 31
0.0
  0
LINE
  5
6AD
100
AcDbEntity
  8
ASSI
100
AcDbLine
 62
253
  6
CONTINUOUS
 10
-40.3473840104
 20
-2.2906643517
 11
-40.3484543708
 21
-2.3249992318
  0
SPLINE
  5
6AE
100
AcDbEntity
  8
ASSI
100
AcDbSpline
 62
253
  6
CONTINUOUS
 70
0
 71
3
 72
14
 73
10
 74
8
 42
0.0000001
 43
0.0000001
 44
0.0000000001
 12
0.9825549948
 22
-0.0381757862
 32
0.0
 13
-0.0304056636
 23
-0.9828261312
 33
0.0
 40
0.0
 40
0.0
 40
0.0
 40
0.0
 40
0.0345994133
 40
0.1102331363
 40
0.2292539647
 40
0.3854998663
 40
0.5719649617
 40
0.7800172285
 40
1.0
 40
1.0
 40
1.0
 40
1.0
 10
-40.4276914596
 20
-1.322171179
 30
0.0
 10
-40.4163595175
 20
-1.3226114656
 30
0.0
 10
-40.3942296149
 20
-1.3617384217
 30
0.0
 10
-40.3792530179
 20
-1.429482242
 30
0.0
 10
-40.3622371191
 20
-1.5463592392
 30
0.0
 10
-40.351085146
 20
-1.6961537043
 30
0.0
 10
-40.3440876232
 20
-1.8769806777
 30
0.0
 10
-40.3421931944
 20
-2.0782808694
 30
0.0
 10
-40.3451544364
 20
-2.2185960796
 30
0.0
 10
-40.3473840104
 20
-2.2906643517
 30
0.0
 11
-40.4276914596
 21
-1.322171179
 31
0.0
 11
-40.4039382079
 21
-1.346527778
 31
0.0
 11
-40.3825821465
 21
-1.4177658972
 31
0.0
 11
-40.3652948218
 21
-1.5335148152
 31
0.0
 11
-40.352630459
 21
-1.6866279822
 31
0.0
 11
-40.3452099111
 21
-1.8698282061
 31
0.0
 11
-40.3432413525
 21
-2.0743957688
 31
0.0
 11
-40.3473840104
 21
-2.2906643517
 31
0.0
  0
SPLINE
  5
6AF
100
AcDbEntity
  8
ASSI
100
AcDbSpline
 62
7
  6
CONTINUOUS
 70
0
 71
3
 72
16
 73
12
 74
10
 42
0.0000001
 43
0.0000001
 44
0.0000000001
 12
0.9918498971
 22
0.9579406146
 32
0.0
 13
0.0
 23
1.3789185761
 33
0.0
 40
0.0
 40
0.0
 40
0.0
 40
0.0
 40
0.1702711256
 40
0.3354418895
 40
0.4880345871
 40
0.6225804804
 40
0.735483631
 40
0.8381815221
 40
0.9237661769
 40
0.9802549701
 40
1.0
 40
1.0
 40
1.0
 40
1.0
 10
-42.046883639
 20
-2.2656887748
 30
0.0
 10
-41.9905891729
 20
-2.2113188992
 30
0.0
 10
-41.8797514625
 20
-2.1041365893
 30
0.0
 10
-41.7187373163
 20
-1.9479675407
 30
0.0
 10
-41.569624198
 20
-1.8030437552
 30
0.0
 10
-41.4382604012
 20
-1.6745462383
 30
0.0
 10
-41.3225905216
 20
-1.5621514676
 30
0.0
 10
-41.2261432479
 20
-1.464284054
 30
0.0
 10
-41.1402981597
 20
-1.3870075793
 30
0.0
 10
-41.0998860553
 20
-1.3301987192
 30
0.0
 10
-41.0625909563
 20
-1.3091905736
 30
0.0
 10
-41.0625909563
 20
-1.3001149774
 30
0.0
 11
-42.046883639
 21
-2.2656887748
 31
0.0
 11
-41.8781093444
 21
-2.1024662578
 31
0.0
 11
-41.7146092351
 21
-1.9439071803
 31
0.0
 11
-41.5637797443
 21
-1.797196392
 31
0.0
 11
-41.4310092347
 21
-1.6676102504
 31
0.0
 11
-41.3198176625
 21
-1.5586422713
 31
0.0
 11
-41.2189552165
 21
-1.4592403901
 31
0.0
 11
-41.1352998186
 21
-1.3759989198
 31
0.0
 11
-41.0806855431
 21
-1.3204591153
 31
0.0
 11
-41.0625909563
 21
-1.3001149774
 31
0.0
  0
SPLINE
  5
6B0
100
AcDbEntity
  8
ASSI
100
AcDbSpline
 62
253
  6
CONTINUOUS
 70
0
 71
3
 72
14
 73
10
 74
8
 42
0.0000001
 43
0.0000001
 44
0.0000000001
 12
0.0125140215
 22
-0.9399247378
 32
0.0
 13
-0.9397439335
 23
-0.0222812265
 33
0.0
 40
0.0
 40
0.0
 40
0.0
 40
0.0
 40
0.225862291
 40
0.4382793591
 40
0.6274048206
 40
0.7844707951
 40
0.9021963069
 40
0.9751344474
 40
1.0
 40
1.0
 40
1.0
 40
1.0
 10
-40.3484545478
 20
-18.2085502196
 30
0.0
 10
-40.3475123993
 20
-18.2793147378
 30
0.0
 10
-40.345785589
 20
-18.416742472
 30
0.0
 10
-40.3443944839
 20
-18.6128756952
 30
0.0
 10
-40.3423638679
 20
-18.7892762518
 30
0.0
 10
-40.3453518103
 20
-18.9307938092
 30
0.0
 10
-40.3386188618
 20
-19.0490290652
 30
0.0
 10
-40.3535148562
 20
-19.0995886632
 30
0.0
 10
-40.3406654779
 20
-19.148186213
 30
0.0
 10
-40.348454562
 20
-19.1483708913
 30
0.0
 11
-40.3484545478
 21
-18.2085502196
 31
0.0
 11
-40.3459331344
 21
-18.4208476162
 31
0.0
 11
-40.3441835131
 21
-18.6205137023
 31
0.0
 11
-40.3432883591
 21
-18.7982909029
 31
0.0
 11
-40.3432886707
 21
-18.9459341815
 31
0.0
 11
-40.3441829743
 21
-19.0565934954
 31
0.0
 11
-40.3459316381
 21
-19.1251336306
 31
0.0
 11
-40.348454562
 21
-19.1483708913
 31
0.0
  0
SPLINE
  5
6B1
100
AcDbEntity
  8
ASSI
100
AcDbSpline
 62
253
  6
CONTINUOUS
 70
0
 71
3
 72
14
 73
10
 74
8
 42
0.0000001
 43
0.0000001
 44
0.0000000001
 12
23.420889353
 22
-0.5861421127
 32
0.0
 13
23.4045016945
 23
-1.0540024154
 33
0.0
 40
0.0
 40
0.0
 40
0.0
 40
0.0
 40
0.140261514
 40
0.2844959719
 40
0.4308447636
 40
0.5774498796
 40
0.7224608513
 40
0.8639586702
 40
1.0
 40
1.0
 40
1.0
 40
1.0
 10
-65.4625909564
 20
19.0429009683
 30
0.0
 10
-64.3675744901
 20
19.015496575
 30
0.0
 10
-62.1465561977
 20
18.9586502851
 30
0.0
 10
-58.783137081
 20
18.8678821099
 30
0.0
 10
-55.3703615392
 20
18.7698117643
 30
0.0
 10
-51.9517485708
 20
18.6640144852
 30
0.0
 10
-48.5713054448
 20
18.5498922114
 30
0.0
 10
-45.2737316527
 20
18.4267022617
 30
0.0
 10
-43.1082101504
 20
18.3357978705
 30
0.0
 10
-42.046883639
 20
18.2880019071
 30
0.0
 11
-65.4625909564
 21
19.0429009683
 31
0.0
 11
-62.1775920838
 21
18.9586930919
 31
0.0
 11
-58.799669847
 21
18.8673506187
 31
0.0
 11
-55.3723998793
 21
18.7686084679
 31
0.0
 11
-51.939357046
 21
18.6620133142
 31
0.0
 11
-48.5439581966
 21
18.546908044
 31
0.0
 11
-45.2312504674
 21
18.4225145961
 31
0.0
 11
-42.046883639
 21
18.2880019071
 31
0.0
  0
SPLINE
  5
6B2
100
AcDbEntity
  8
ASSI
100
AcDbSpline
 62
253
  6
CONTINUOUS
 70
0
 71
3
 72
13
 73
9
 74
7
 42
0.0000001
 43
0.0000001
 44
0.0000000001
 12
0.8871440944
 22
-0.0139363731
 32
0.0
 13
0.0020003064
 23
-0.8872512978
 33
0.0
 40
0.0
 40
0.0
 40
0.0
 40
0.0
 40
0.0329354668
 40
0.130081261
 40
0.285851334
 40
0.491218846
 40
0.7340339503
 40
1.0
 40
1.0
 40
1.0
 40
1.0
 10
-42.046883639
 20
19.1750641219
 30
0.0
 10
-42.0371441374
 20
19.1749111216
 30
0.0
 10
-42.0538510475
 20
19.1136670487
 30
0.0
 10
-42.0351486822
 20
19.050648441
 30
0.0
 10
-42.0441706732
 20
18.9034308109
 30
0.0
 10
-42.0411621749
 20
18.7295791224
 30
0.0
 10
-42.0436968005
 20
18.5166870991
 30
0.0
 10
-42.0470609769
 20
18.3666614813
 30
0.0
 10
-42.046883639
 20
18.2880019071
 30
0.0
 11
-42.046883639
 21
19.1750641219
 31
0.0
 11
-42.0439876265
 21
19.1459858686
 31
0.0
 11
-42.0421602085
 21
19.0598122917
 31
0.0
 11
-42.0415368772
 21
18.9216061467
 31
0.0
 11
-42.0421514697
 21
18.7393941285
 31
0.0
 11
-42.0439695924
 21
18.5239632365
 31
0.0
 11
-42.046883639
 21
18.2880019071
 31
0.0
  0
SPLINE
  5
6B3
100
AcDbEntity
  8
ASSI
100
AcDbSpline
 62
253
  6
CONTINUOUS
 70
0
 71
3
 72
13
 73
9
 74
7
 42
0.0000001
 43
0.0000001
 44
0.0000000001
 12
0.8835792919
 22
0.000833502
 32
0.0
 13
0.4771982599
 23
0.5907470641
 33
0.0
 40
0.0
 40
0.0
 40
0.0
 40
0.0
 40
0.260496555
 40
0.5025937142
 40
0.7102033309
 40
0.8695940499
 40
0.9704489767
 40
1.0
 40
1.0
 40
1.0
 40
1.0
 10
-40.3484544131
 20
-18.2085506776
 30
0.0
 10
-40.2717312925
 20
-18.2084783028
 30
0.0
 10
-40.1240182655
 20
-18.2071404586
 30
0.0
 10
-39.913621951
 20
-18.2022869399
 30
0.0
 10
-39.7380723746
 20
-18.1933558518
 30
0.0
 10
-39.5914371864
 20
-18.1856084328
 30
0.0
 10
-39.5235576099
 20
-18.1708630657
 30
0.0
 10
-39.4692627027
 20
-18.16611249
 30
0.0
 10
-39.4645621371
 20
-18.1602934299
 30
0.0
 11
-40.3484544131
 21
-18.2085506776
 31
0.0
 11
-40.1182938351
 21
-18.2065281786
 31
0.0
 11
-39.9044523515
 21
-18.2010309071
 31
0.0
 11
-39.7212146414
 21
-18.192426082
 31
0.0
 11
-39.5808213236
 21
-18.1812885377
 31
0.0
 11
-39.4926504421
 21
-18.1683623083
 31
0.0
 11
-39.4645621371
 21
-18.1602934299
 31
0.0
  0
SPLINE
  5
6B4
100
AcDbEntity
  8
ASSI
100
AcDbSpline
 62
253
  6
CONTINUOUS
 70
0
 71
3
 72
8
 73
4
 74
2
 42
0.0000001
 43
0.0000001
 44
0.0000000001
 12
0.003773322
 22
0.0046711799
 32
0.0
 13
0.000000012
 23
0.0069866782
 33
0.0
 40
0.0
 40
0.0
 40
0.0
 40
0.0
 40
1.0
 40
1.0
 40
1.0
 40
1.0
 10
-39.4645621371
 20
-18.1602934299
 30
0.0
 10
-39.4633043631
 20
-18.15873637
 30
0.0
 10
-39.4625909603
 20
-18.1568397503
 30
0.0
 10
-39.4625909563
 20
-18.1545108575
 30
0.0
 11
-39.4645621371
 21
-18.1602934299
 31
0.0
 11
-39.4625909563
 21
-18.1545108575
 31
0.0
  0
SPLINE
  5
6B5
100
AcDbEntity
  8
ASSI
100
AcDbSpline
 62
253
  6
CONTINUOUS
 70
0
 71
3
 72
13
 73
9
 74
7
 42
0.0000001
 43
0.0000001
 44
0.0000000001
 12
0.0
 22
1.0015457134
 32
0.0
 13
-1.0015441396
 23
0.0017755007
 33
0.0
 40
0.0
 40
0.0
 40
0.0
 40
0.0
 40
0.0441101947
 40
0.1455704826
 40
0.3030433279
 40
0.5071159196
 40
0.7446267491
 40
1.0
 40
1.0
 40
1.0
 40
1.0
 10
-41.0625909563
 20
18.1751874894
 30
0.0
 10
-41.0625909563
 20
18.1899136149
 30
0.0
 10
-41.1199738878
 20
18.2158461575
 30
0.0
 10
-41.2082341278
 20
18.2352474448
 30
0.0
 10
-41.3668265245
 20
18.2582261952
 30
0.0
 10
-41.5640512665
 20
18.2742151646
 30
0.0
 10
-41.7972541322
 20
18.2852858292
 30
0.0
 10
-41.9616277781
 20
18.2878507686
 30
0.0
 10
-42.046883639
 20
18.2880019071
 30
0.0
 11
-41.0625909563
 21
18.1751874894
 31
0.0
 11
-41.0959908543
 21
18.2041041932
 31
0.0
 11
-41.1939594419
 21
18.2310892671
 31
0.0
 11
-41.3499524374
 21
18.2543401136
 31
0.0
 11
-41.5535495406
 21
18.2723035809
 31
0.0
 11
-41.7911505065
 21
18.2837797132
 31
0.0
 11
-42.046883639
 21
18.2880019071
 31
0.0
  0
SPLINE
  5
6B6
100
AcDbEntity
  8
ASSI
100
AcDbSpline
 62
253
  6
CONTINUOUS
 70
0
 71
3
 72
17
 73
13
 74
11
 42
0.0000001
 43
0.0000001
 44
0.0000000001
 12
25.1206491156
 22
0.6286829287
 32
0.0
 13
25.0988572241
 23
1.2205000028
 33
0.0
 40
0.0
 40
0.0
 40
0.0
 40
0.0
 40
0.1562548872
 40
0.3001130163
 40
0.4265392896
 40
0.5380394864
 40
0.6372798364
 40
0.7259344206
 40
0.8053343534
 40
0.8766783459
 40
0.941163483
 40
1.0
 40
1.0
 40
1.0
 40
1.0
 10
-65.4625909563
 20
-19.0429008016
 30
0.0
 10
-64.1541828918
 20
-19.0101558749
 30
0.0
 10
-61.6412136656
 20
-18.9455626814
 30
0.0
 10
-58.0697799716
 20
-18.8479255313
 30
0.0
 10
-54.8732456868
 20
-18.7546360849
 30
0.0
 10
-52.0504499585
 20
-18.6665684288
 30
0.0
 10
-49.5440590714
 20
-18.5828961216
 30
0.0
 10
-47.3065781676
 20
-18.5029164138
 30
0.0
 10
-45.3028006416
 20
-18.4262077613
 30
0.0
 10
-43.5015153958
 20
-18.352371349
 30
0.0
 10
-41.8725268504
 20
-18.2809133381
 30
0.0
 10
-40.8406975266
 20
-18.232480897
 30
0.0
 10
-40.3484544131
 20
-18.2085442406
 30
0.0
 11
-65.4625909563
 21
-19.0429008016
 31
0.0
 11
-61.5374400017
 21
-18.941781939
 31
0.0
 11
-57.9238555614
 21
-18.8427526461
 31
0.0
 11
-54.7483095531
 21
-18.7498570514
 31
0.0
 11
-51.9478439886
 21
-18.6622882351
 31
0.0
 11
-49.4554758884
 21
-18.5789026076
 31
0.0
 11
-47.2291456682
 21
-18.4991555971
 31
0.0
 11
-45.2354094806
 21
-18.422679732
 31
0.0
 11
-43.4441507493
 21
-18.3491182036
 31
0.0
 11
-41.8252975344
 21
-18.2779748712
 31
0.0
 11
-40.3484544131
 21
-18.2085442406
 31
0.0
  0
SPLINE
  5
6B7
100
AcDbEntity
  8
CURVE
100
AcDbSpline
 62
253
  6
CONTINUOUS
 70
0
 71
3
 72
13
 73
9
 74
7
 42
0.0000001
 43
0.0000001
 44
0.0000000001
 12
0.683075367
 22
0.0
 32
0.0
 13
0.0852984129
 23
-0.6778122809
 33
0.0
 40
0.0
 40
0.0
 40
0.0
 40
0.0
 40
0.2490838052
 40
0.374533896
 40
0.5000519652
 40
0.6245887679
 40
0.7501041777
 40
1.0
 40
1.0
 40
1.0
 40
1.0
 10
-71.9718336902
 20
4.1187598859
 30
0.0
 10
-71.9151193529
 20
4.1187598859
 30
0.0
 10
-71.8280432908
 20
4.1109493822
 30
0.0
 10
-71.7235208323
 20
4.06390433
 30
0.0
 10
-71.6537225986
 20
4.012329032
 30
0.0
 10
-71.6064559267
 20
3.9389348662
 30
0.0
 10
-71.5740695886
 20
3.8288651387
 30
0.0
 10
-71.5693533617
 20
3.74307295
 30
0.0
 10
-71.5622481227
 20
3.6866121309
 30
0.0
 11
-71.9718336902
 21
4.1187598859
 31
0.0
 11
-71.8031871164
 21
4.0962409458
 31
0.0
 11
-71.724986411
 21
4.0611974199
 31
0.0
 11
-71.6573221127
 21
4.0085354483
 31
0.0
 11
-71.6103671632
 21
3.9375915065
 31
0.0
 11
-71.584318145
 21
3.8558979327
 31
0.0
 11
-71.5622481227
 21
3.6866121309
 31
0.0
  0
SPLINE
  5
6B8
100
AcDbEntity
  8
CURVE
100
AcDbSpline
 62
253
  6
CONTINUOUS
 70
0
 71
3
 72
13
 73
9
 74
7
 42
0.0000001
 43
0.0000001
 44
0.0000000001
 12
0.0852984129
 22
0.6778122809
 32
0.0
 13
0.683075367
 23
0.0
 33
0.0
 40
0.0
 40
0.0
 40
0.0
 40
0.0
 40
0.2498958223
 40
0.3754112321
 40
0.4999480348
 40
0.625466104
 40
0.7509161948
 40
1.0
 40
1.0
 40
1.0
 40
1.0
 10
-72.3814192576
 20
3.6866121309
 30
0.0
 10
-72.3743140186
 20
3.74307295
 30
0.0
 10
-72.3695977917
 20
3.8288651387
 30
0.0
 10
-72.3372114536
 20
3.9389348662
 30
0.0
 10
-72.2899447817
 20
4.012329032
 30
0.0
 10
-72.220146548
 20
4.06390433
 30
0.0
 10
-72.1156240895
 20
4.1109493822
 30
0.0
 10
-72.0285480274
 20
4.1187598859
 30
0.0
 10
-71.9718336902
 20
4.1187598859
 30
0.0
 11
-72.3814192576
 21
3.6866121309
 31
0.0
 11
-72.3593492353
 21
3.8558979327
 31
0.0
 11
-72.3333002171
 21
3.9375915065
 31
0.0
 11
-72.2863452676
 21
4.0085354483
 31
0.0
 11
-72.2186809693
 21
4.0611974199
 31
0.0
 11
-72.1404802639
 21
4.0962409458
 31
0.0
 11
-71.9718336902
 21
4.1187598859
 31
0.0
  0
SPLINE
  5
6B9
100
AcDbEntity
  8
CURVE
100
AcDbSpline
 62
253
  6
CONTINUOUS
 70
0
 71
3
 72
15
 73
11
 74
9
 42
0.0000001
 43
0.0000001
 44
0.0000000001
 12
-1.7069819214
 22
0.0
 32
0.0
 13
-0.0632144179
 23
-1.7060214822
 33
0.0
 40
0.0
 40
0.0
 40
0.0
 40
0.0
 40
0.1248422398
 40
0.2498703829
 40
0.3748908473
 40
0.5000349268
 40
0.6250591679
 40
0.7501226803
 40
0.8750366983
 40
1.0
 40
1.0
 40
1.0
 40
1.0
 10
-71.9718336902
 20
4.7815268003
 30
0.0
 10
-72.0428681723
 20
4.7815268003
 30
0.0
 10
-72.185475029
 20
4.7716793422
 30
0.0
 10
-72.3926043462
 20
4.711971095
 30
0.0
 10
-72.5749104799
 20
4.5935077121
 30
0.0
 10
-72.7076144865
 20
4.4217453666
 30
0.0
 10
-72.7897552941
 20
4.222990041
 30
0.0
 10
-72.8376162072
 20
4.0142900433
 30
0.0
 10
-72.8575416362
 20
3.8014483285
 30
0.0
 10
-72.8606001262
 20
3.6592834165
 30
0.0
 10
-72.863233287
 20
3.5882200575
 30
0.0
 11
-71.9718336902
 21
4.7815268003
 31
0.0
 11
-72.1842326088
 21
4.7642105591
 31
0.0
 11
-72.3884446706
 21
4.7021878845
 31
0.0
 11
-72.5665906005
 21
4.584670781
 31
0.0
 11
-72.6992185933
 21
4.4171904032
 31
0.0
 11
-72.7840415919
 21
4.2213330331
 31
0.0
 11
-72.8329747838
 21
4.0135100265
 31
0.0
 11
-72.8549848484
 21
3.8013969153
 31
0.0
 11
-72.863233287
 21
3.5882200575
 31
0.0
  0
SPLINE
  5
6BA
100
AcDbEntity
  8
CURVE
100
AcDbSpline
 62
253
  6
CONTINUOUS
 70
0
 71
3
 72
15
 73
11
 74
9
 42
0.0000001
 43
0.0000001
 44
0.0000000001
 12
-0.0632144179
 22
1.7060214822
 32
0.0
 13
-1.7069819214
 23
-0.0
 33
0.0
 40
0.0
 40
0.0
 40
0.0
 40
0.0
 40
0.1249633017
 40
0.2498773197
 40
0.3749408321
 40
0.4999650732
 40
0.6251091527
 40
0.7501296171
 40
0.8751577602
 40
1.0
 40
1.0
 40
1.0
 40
1.0
 10
-71.0804340933
 20
3.5882200575
 30
0.0
 10
-71.0830672541
 20
3.6592834165
 30
0.0
 10
-71.0861257441
 20
3.8014483285
 30
0.0
 10
-71.1060511732
 20
4.0142900433
 30
0.0
 10
-71.1539120862
 20
4.222990041
 30
0.0
 10
-71.2360528938
 20
4.4217453666
 30
0.0
 10
-71.3687569004
 20
4.5935077121
 30
0.0
 10
-71.5510630341
 20
4.711971095
 30
0.0
 10
-71.7581923513
 20
4.7716793422
 30
0.0
 10
-71.900799208
 20
4.7815268003
 30
0.0
 10
-71.9718336902
 20
4.7815268003
 30
0.0
 11
-71.0804340933
 21
3.5882200575
 31
0.0
 11
-71.0886825319
 21
3.8013969153
 31
0.0
 11
-71.1106925965
 21
4.0135100265
 31
0.0
 11
-71.1596257884
 21
4.2213330331
 31
0.0
 11
-71.244448787
 21
4.4171904032
 31
0.0
 11
-71.3770767798
 21
4.584670781
 31
0.0
 11
-71.5552227097
 21
4.7021878845
 31
0.0
 11
-71.7594347715
 21
4.7642105591
 31
0.0
 11
-71.9718336902
 21
4.7815268003
 31
0.0
  0
SPLINE
  5
6BB
100
AcDbEntity
  8
CURVE
100
AcDbSpline
 62
253
  6
CONTINUOUS
 70
0
 71
3
 72
12
 73
8
 74
6
 42
0.0000001
 43
0.0000001
 44
0.0000000001
 12
-0.054353065
 22
-0.4683090812
 32
0.0
 13
0.0826242523
 23
-0.484217909
 33
0.0
 40
0.0
 40
0.0
 40
0.0
 40
0.0
 40
0.3333333333
 40
0.5
 40
0.6666666667
 40
0.8333333333
 40
1.0
 40
1.0
 40
1.0
 40
1.0
 10
-72.3933341887
 20
-5.8046410597
 30
0.0
 10
-72.3993734181
 20
-5.8566754021
 30
0.0
 10
-72.4044226048
 20
-5.9350363175
 30
0.0
 10
-72.4032629432
 20
-6.0398007045
 30
0.0
 10
-72.3984429877
 20
-6.1187264099
 30
0.0
 10
-72.389318774
 20
-6.1984983856
 30
0.0
 10
-72.3808534509
 20
-6.2519002769
 30
0.0
 10
-72.3762632146
 20
-6.2788012718
 30
0.0
 11
-72.3933341887
 21
-5.8046410597
 31
0.0
 11
-72.4034750302
 21
-5.9612510114
 31
0.0
 11
-72.402604575
 21
-6.0398594404
 31
0.0
 11
-72.3977256114
 21
-6.1188674549
 31
0.0
 11
-72.3887231455
 21
-6.1985535291
 31
0.0
 11
-72.3762632146
 21
-6.2788012718
 31
0.0
  0
SPLINE
  5
6BC
100
AcDbEntity
  8
CURVE
100
AcDbSpline
 62
253
  6
CONTINUOUS
 70
0
 71
3
 72
15
 73
11
 74
9
 42
0.0000001
 43
0.0000001
 44
0.0000000001
 12
-0.5448062092
 22
-0.0085210355
 32
0.0
 13
-0.0669849445
 23
-0.5771460687
 33
0.0
 40
0.0
 40
0.0
 40
0.0
 40
0.0
 40
0.125
 40
0.25
 40
0.375
 40
0.5
 40
0.625
 40
0.75
 40
0.875
 40
1.0
 40
1.0
 40
1.0
 40
1.0
 10
-72.030856735
 20
-5.4627200261
 30
0.0
 10
-72.0535569937
 20
-5.4630750693
 30
0.0
 10
-72.0980604058
 20
-5.4681907162
 30
0.0
 10
-72.1630394022
 20
-5.4877013277
 30
0.0
 10
-72.223587325
 20
-5.5183191668
 30
0.0
 10
-72.2773549291
 20
-5.5593496596
 30
0.0
 10
-72.3217909896
 20
-5.6105362735
 30
0.0
 10
-72.3563701182
 20
-5.66943505
 30
0.0
 10
-72.3810247521
 20
-5.7342585268
 30
0.0
 10
-72.3905431495
 20
-5.7805933068
 30
0.0
 10
-72.3933341889
 20
-5.8046410597
 30
0.0
 11
-72.030856735
 21
-5.4627200261
 31
0.0
 11
-72.0977643855
 21
-5.4701635731
 31
0.0
 11
-72.1623008899
 21
-5.4895525323
 31
0.0
 11
-72.2224572719
 21
-5.5200546091
 31
0.0
 11
-72.2757996718
 21
-5.5610423465
 31
0.0
 11
-72.3201481676
 21
-5.611821634
 31
0.0
 11
-72.3547160358
 21
-5.6704225
 31
0.0
 11
-72.3792952458
 21
-5.735038309
 31
0.0
 11
-72.3933341889
 21
-5.8046410597
 31
0.0
  0
SPLINE
  5
6BD
100
AcDbEntity
  8
CURVE
100
AcDbSpline
 62
253
  6
CONTINUOUS
 70
0
 71
3
 72
18
 73
14
 74
12
 42
0.0000001
 43
0.0000001
 44
0.0000000001
 12
-0.0168499245
 22
0.7543933265
 32
0.0
 13
-0.7231598917
 23
-0.011158578
 33
0.0
 40
0.0
 40
0.0
 40
0.0
 40
0.0
 40
0.0909090909
 40
0.1818181818
 40
0.2727272727
 40
0.3636363636
 40
0.4545454545
 40
0.5454545455
 40
0.6363636364
 40
0.7272727273
 40
0.8181818182
 40
0.9090909091
 40
1.0
 40
1.0
 40
1.0
 40
1.0
 10
-71.5802518575
 20
-5.9328946758
 30
0.0
 10
-71.5807624613
 20
-5.9100342719
 30
0.0
 10
-71.5835033146
 20
-5.8638562855
 30
0.0
 10
-71.5945199661
 20
-5.7916368863
 30
0.0
 10
-71.6139209816
 20
-5.7213303736
 30
0.0
 10
-71.6414882076
 20
-5.6583552779
 30
0.0
 10
-71.6766984537
 20
-5.6042781292
 30
0.0
 10
-71.7204904135
 20
-5.558664941
 30
0.0
 10
-71.7714269997
 20
-5.5212854805
 30
0.0
 10
-71.8302588355
 20
-5.4919349261
 30
0.0
 10
-71.8966141554
 20
-5.4727099635
 30
0.0
 10
-71.9648706845
 20
-5.4634743572
 30
0.0
 10
-72.0089427988
 20
-5.4623818874
 30
0.0
 10
-72.030856735
 20
-5.4627200261
 30
0.0
 11
-71.5802518575
 21
-5.9328946758
 31
0.0
 11
-71.5846542098
 21
-5.8633642155
 31
0.0
 11
-71.5959173601
 21
-5.7919557007
 31
0.0
 11
-71.6152820167
 21
-5.7225522764
 31
0.0
 11
-71.6427620443
 21
-5.659838269
 31
0.0
 11
-71.6781287393
 21
-5.6056887893
 31
0.0
 11
-71.7216811846
 21
-5.560037229
 31
0.0
 11
-71.7727428747
 21
-5.5226236315
 31
0.0
 11
-71.8315127495
 21
-5.4936225247
 31
0.0
 11
-71.8969310236
 21
-5.4743748562
 31
0.0
 11
-71.9645126249
 21
-5.4647405075
 31
0.0
 11
-72.030856735
 21
-5.4627200261
 31
0.0
  0
SPLINE
  5
6BE
100
AcDbEntity
  8
CURVE
100
AcDbSpline
 62
253
  6
CONTINUOUS
 70
0
 71
3
 72
14
 73
10
 74
8
 42
0.0000001
 43
0.0000001
 44
0.0000000001
 12
-0.5227855625
 22
-0.196532405
 32
0.0
 13
0.0
 23
-0.4553640042
 33
0.0
 40
0.0
 40
0.0
 40
0.0
 40
0.0
 40
0.25
 40
0.375
 40
0.5
 40
0.625
 40
0.75
 40
0.875
 40
1.0
 40
1.0
 40
1.0
 40
1.0
 10
-70.8501077963
 20
-5.5966034314
 30
0.0
 10
-70.8936732598
 20
-5.6129811319
 30
0.0
 10
-70.9495334645
 20
-5.644722733
 30
0.0
 10
-71.0074777649
 20
-5.6943250697
 30
0.0
 10
-71.0430167425
 20
-5.7348911666
 30
0.0
 10
-71.0708521975
 20
-5.7790536145
 30
0.0
 10
-71.0904181181
 20
-5.8268399433
 30
0.0
 10
-71.1025572012
 20
-5.879200318
 30
0.0
 10
-71.1053587183
 20
-5.9152258271
 30
0.0
 10
-71.1053587183
 20
-5.9341993273
 30
0.0
 11
-70.8501077963
 21
-5.5966034314
 31
0.0
 11
-70.9626415419
 21
-5.6577300006
 31
0.0
 11
-71.0061578903
 21
-5.6948857937
 31
0.0
 11
-71.0417328221
 21
-5.7354905584
 31
0.0
 11
-71.0694739418
 21
-5.7796575947
 31
0.0
 11
-71.0891803118
 21
-5.8276022843
 31
0.0
 11
-71.1012343999
 21
-5.8794799662
 31
0.0
 11
-71.1053587183
 21
-5.9341993273
 31
0.0
  0
SPLINE
  5
6BF
100
AcDbEntity
  8
CURVE
100
AcDbSpline
 62
253
  6
CONTINUOUS
 70
0
 71
3
 72
12
 73
8
 74
6
 42
0.0000001
 43
0.0000001
 44
0.0000000001
 12
-0.9520247785
 22
-0.2737109466
 32
0.0
 13
-0.7923861185
 23
-0.2977337139
 33
0.0
 40
0.0
 40
0.0
 40
0.0
 40
0.0
 40
0.1666666667
 40
0.3333333333
 40
0.5
 40
0.6666666667
 40
1.0
 40
1.0
 40
1.0
 40
1.0
 10
-69.9705946041
 20
-5.3318417383
 30
0.0
 10
-70.0234848695
 20
-5.347047902
 30
0.0
 10
-70.1278579867
 20
-5.3776038959
 30
0.0
 10
-70.2804419886
 20
-5.422581055
 30
0.0
 10
-70.4296209783
 20
-5.4651226617
 30
0.0
 10
-70.6235356852
 20
-5.519794131
 30
0.0
 10
-70.7619432261
 20
-5.5634762205
 30
0.0
 10
-70.8499861281
 20
-5.5965577443
 30
0.0
 11
-69.9705946041
 21
-5.3318417383
 31
0.0
 11
-70.1271953744
 21
-5.3774610906
 31
0.0
 11
-70.2798744865
 21
-5.4221751296
 31
0.0
 11
-70.4289971517
 21
-5.4648663276
 31
0.0
 11
-70.5742760652
 21
-5.5064238734
 31
0.0
 11
-70.8499861281
 21
-5.5965577443
 31
0.0
  0
SPLINE
  5
6C0
100
AcDbEntity
  8
CURVE
100
AcDbSpline
 62
253
  6
CONTINUOUS
 70
0
 71
3
 72
10
 73
6
 74
4
 42
0.0000001
 43
0.0000001
 44
0.0000000001
 12
0.808824272
 22
0.2203572676
 32
0.0
 13
0.7578864325
 23
0.2058398084
 33
0.0
 40
0.0
 40
0.0
 40
0.0
 40
0.0
 40
0.3333333333
 40
0.6666666667
 40
1.0
 40
1.0
 40
1.0
 40
1.0
 10
-70.7553456608
 20
-4.9565418369
 30
0.0
 10
-70.6654762972
 20
-4.932057696
 30
0.0
 10
-70.487326345
 20
-4.8848103969
 30
0.0
 10
-70.2256243955
 20
-4.8167944452
 30
0.0
 10
-70.0548042077
 20
-4.7725121046
 30
0.0
 10
-69.9705946041
 20
-4.7496410148
 30
0.0
 11
-70.7553456608
 21
-4.9565418369
 31
0.0
 11
-70.4882468415
 21
-4.8852862297
 31
0.0
 11
-70.2265363401
 21
-4.817059852
 31
0.0
 11
-69.9705946041
 21
-4.7496410148
 31
0.0
  0
SPLINE
  5
6C1
100
AcDbEntity
  8
CURVE
100
AcDbSpline
 62
253
  6
CONTINUOUS
 70
0
 71
3
 72
16
 73
12
 74
10
 42
0.0000001
 43
0.0000001
 44
0.0000000001
 12
0.247488713
 22
0.6206613491
 32
0.0
 13
0.8182963992
 23
0.2229378678
 33
0.0
 40
0.0
 40
0.0
 40
0.0
 40
0.0
 40
0.1111111111
 40
0.2222222222
 40
0.3333333333
 40
0.4444444444
 40
0.5555555556
 40
0.6666666667
 40
0.7777777778
 40
0.8888888889
 40
1.0
 40
1.0
 40
1.0
 40
1.0
 10
-71.3241270275
 20
-5.30544429
 30
0.0
 10
-71.3149607789
 20
-5.2824568327
 30
0.0
 10
-71.2917945634
 20
-5.2394526245
 30
0.0
 10
-71.2434826084
 20
-5.1818237382
 30
0.0
 10
-71.1873283167
 20
-5.1337205952
 30
0.0
 10
-71.1256465518
 20
-5.0930159526
 30
0.0
 10
-71.0618621681
 20
-5.0592590218
 30
0.0
 10
-70.9945332813
 20
-5.0298956681
 30
0.0
 10
-70.922497855
 20
-5.0037699095
 30
0.0
 10
-70.8439521029
 20
-4.9802330468
 30
0.0
 10
-70.7856529347
 20
-4.9647987954
 30
0.0
 10
-70.7553456607
 20
-4.9565418373
 30
0.0
 11
-71.3241270275
 21
-5.30544429
 31
0.0
 11
-71.2895341248
 21
-5.2405988622
 31
0.0
 11
-71.2421755523
 21
-5.1834113621
 31
0.0
 11
-71.1864070712
 21
-5.1349536786
 31
0.0
 11
-71.1252961153
 21
-5.0941739046
 31
0.0
 11
-71.0612714176
 21
-5.0599912847
 31
0.0
 11
-70.993748858
 21
-5.0304352673
 31
0.0
 11
-70.9214128007
 21
-5.0042013921
 31
0.0
 11
-70.8424682695
 21
-4.9802972944
 31
0.0
 11
-70.7553456607
 21
-4.9565418373
 31
0.0
  0
SPLINE
  5
6C2
100
AcDbEntity
  8
CURVE
100
AcDbSpline
 62
253
  6
CONTINUOUS
 70
0
 71
3
 72
36
 73
32
 74
30
 42
0.0000001
 43
0.0000001
 44
0.0000000001
 12
0.8548834058
 22
2.3697159683
 32
0.0
 13
0.0957934223
 23
-0.7423990226
 33
0.0
 40
0.0
 40
0.0
 40
0.0
 40
0.0
 40
0.0277777778
 40
0.0555555556
 40
0.0833333333
 40
0.1111111111
 40
0.1388888889
 40
0.1666666667
 40
0.1944444444
 40
0.2222222222
 40
0.25
 40
0.2777777778
 40
0.3333333333
 40
0.3888888889
 40
0.4444444444
 40
0.5
 40
0.5555555556
 40
0.6111111111
 40
0.6666666667
 40
0.7222222222
 40
0.7777777778
 40
0.8055555556
 40
0.8333333333
 40
0.8611111111
 40
0.875
 40
0.8888888889
 40
0.9027777778
 40
0.9166666667
 40
0.9444444444
 40
0.9722222222
 40
1.0
 40
1.0
 40
1.0
 40
1.0
 10
-72.805841459
 20
-5.3678501192
 30
0.0
 10
-72.7979258719
 20
-5.3459083047
 30
0.0
 10
-72.7786327202
 20
-5.3029285815
 30
0.0
 10
-72.7399073788
 20
-5.2391332973
 30
0.0
 10
-72.6912633485
 20
-5.1744382061
 30
0.0
 10
-72.6344793107
 20
-5.1136447399
 30
0.0
 10
-72.5706897675
 20
-5.0588560901
 30
0.0
 10
-72.501028402
 20
-5.0112192064
 30
0.0
 10
-72.4270003245
 20
-4.9715455017
 30
0.0
 10
-72.3509003064
 20
-4.9409251935
 30
0.0
 10
-72.2775421964
 20
-4.9196162354
 30
0.0
 10
-72.1818970726
 20
-4.9009378873
 30
0.0
 10
-72.0720217847
 20
-4.8926592364
 30
0.0
 10
-71.954002903
 20
-4.8981501021
 30
0.0
 10
-71.8478000651
 20
-4.9165110478
 30
0.0
 10
-71.7545816859
 20
-4.9444737439
 30
0.0
 10
-71.6733820252
 20
-4.9790885495
 30
0.0
 10
-71.6033397391
 20
-5.0180156554
 30
0.0
 10
-71.5436298585
 20
-5.0596022783
 30
0.0
 10
-71.4933506117
 20
-5.1029720777
 30
0.0
 10
-71.4580340945
 20
-5.1388286614
 30
0.0
 10
-71.4326668194
 20
-5.1666711043
 30
0.0
 10
-71.4148529174
 20
-5.187096956
 30
0.0
 10
-71.4009893533
 20
-5.2035325639
 30
0.0
 10
-71.3903376696
 20
-5.2163987068
 30
0.0
 10
-71.3824721874
 20
-5.2259969666
 30
0.0
 10
-71.3748117452
 20
-5.2356869111
 30
0.0
 10
-71.3651409399
 20
-5.248721859
 30
0.0
 10
-71.3546313209
 20
-5.2650787813
 30
0.0
 10
-71.3455015235
 20
-5.28491871
 30
0.0
 10
-71.3421484265
 20
-5.298570225
 30
0.0
 10
-71.3412614503
 20
-5.30544429
 30
0.0
 11
-72.805841459
 21
-5.3678501192
 31
0.0
 11
-72.7770017845
 21
-5.3030409649
 31
0.0
 11
-72.738254264
 21
-5.2389833294
 31
0.0
 11
-72.6899066805
 21
-5.1750884769
 31
0.0
 11
-72.6333117264
 21
-5.1146455427
 31
0.0
 11
-72.5697111304
 21
-5.0600480512
 31
0.0
 11
-72.5003006166
 21
-5.0125464029
 31
0.0
 11
-72.4266550011
 21
-4.9730544011
 31
0.0
 11
-72.3513572911
 21
-4.9424770852
 31
0.0
 11
-72.2778129076
 21
-4.9208329349
 31
0.0
 11
-72.2064537614
 21
-4.9066120933
 31
0.0
 11
-72.0743270287
 21
-4.8952301109
 31
0.0
 11
-71.9559722436
 21
-4.9002951154
 31
0.0
 11
-71.8499641416
 21
-4.9181113396
 31
0.0
 11
-71.7565848057
 21
-4.9455824288
 31
0.0
 11
-71.6752415876
 21
-4.9798072662
 31
0.0
 11
-71.6050618067
 21
-5.0184589082
 31
0.0
 11
-71.5452016308
 21
-5.0598994744
 31
0.0
 11
-71.4946671828
 21
-5.1029150946
 31
0.0
 11
-71.4519327706
 21
-5.1457190368
 31
0.0
 11
-71.4328687451
 21
-5.1665951075
 31
0.0
 11
-71.4150491882
 21
-5.1869797689
 31
0.0
 11
-71.3983630297
 21
-5.206725571
 31
0.0
 11
-71.3903582164
 21
-5.2163901489
 31
0.0
 11
-71.3825063607
 21
-5.2260122474
 31
0.0
 11
-71.3748796349
 21
-5.2357012888
 31
0.0
 11
-71.3676639004
 21
-5.2454673379
 31
0.0
 11
-71.3552116118
 21
-5.2651140516
 31
0.0
 11
-71.3461848821
 21
-5.285024934
 31
0.0
 11
-71.3412614503
 21
-5.30544429
 31
0.0
  0
SPLINE
  5
6C3
100
AcDbEntity
  8
CURVE
100
AcDbSpline
 62
253
  6
CONTINUOUS
 70
0
 71
3
 72
15
 73
11
 74
9
 42
0.0000001
 43
0.0000001
 44
0.0000000001
 12
-0.2615945469
 22
1.778139149
 32
0.0
 13
0.4910430079
 23
1.3591865235
 33
0.0
 40
0.0
 40
0.0
 40
0.0
 40
0.0
 40
0.125
 40
0.25
 40
0.375
 40
0.5
 40
0.625
 40
0.75
 40
0.875
 40
1.0
 40
1.0
 40
1.0
 40
1.0
 10
-72.8363703037
 20
-6.8615673444
 30
0.0
 10
-72.8472700765
 20
-6.7874782131
 30
0.0
 10
-72.8668376383
 20
-6.644042684
 30
0.0
 10
-72.8880582346
 20
-6.4448334114
 30
0.0
 10
-72.901167965
 20
-6.255786699
 30
0.0
 10
-72.9058184739
 20
-6.0736626226
 30
0.0
 10
-72.9011753639
 20
-5.8942581166
 30
0.0
 10
-72.886508395
 20
-5.7164116688
 30
0.0
 10
-72.858350767
 20
-5.5397562178
 30
0.0
 10
-72.8263015844
 20
-5.424482891
 30
0.0
 10
-72.805841459
 20
-5.3678501192
 30
0.0
 11
-72.8363703037
 21
-6.8615673444
 31
0.0
 11
-72.8654825139
 21
-6.6467000208
 31
0.0
 11
-72.8867064236
 21
-6.4465271715
 31
0.0
 11
-72.8997580948
 21
-6.2569404717
 31
0.0
 11
-72.9042695374
 21
-6.0741158843
 31
0.0
 11
-72.8995047208
 21
-5.8945177929
 31
0.0
 11
-72.8842599518
 21
-5.7166101683
 31
0.0
 11
-72.8550314093
 21
-5.5403804613
 31
0.0
 11
-72.805841459
 21
-5.3678501192
 31
0.0
  0
ELLIPSE
  5
6C4
100
AcDbEntity
  8
RACCORDO
100
AcDbEllipse
 62
7
  6
CONTINUOUS
 10
-21.899923836
 20
-21.8999809608
 30
0.0
 11
0.4473055582
 21
-0.2236357461
 31
0.0
 40
0.9998096356
 41
-2.6780516535
 42
-1.5707153716
  0
ELLIPSE
  5
6C5
100
AcDbEntity
  8
RACCORDO
100
AcDbEllipse
 62
7
  6
CONTINUOUS
 10
21.899923836
 20
21.8999809608
 30
0.0
 11
0.4473055582
 21
-0.2236357461
 31
0.0
 40
0.9998096356
 41
0.4635410001
 42
1.570877282
  0
ELLIPSE
  5
6C6
100
AcDbEntity
  8
RACCORDO
100
AcDbEllipse
 62
7
  6
CONTINUOUS
 10
-21.899923836
 20
21.8999809608
 30
0.0
 11
0.4473055582
 21
0.2236357461
 31
0.0
 40
0.9998096356
 41
1.5707153668
 42
2.6780516535
  0
ELLIPSE
  5
6C7
100
AcDbEntity
  8
RACCORDO
100
AcDbEllipse
 62
7
  6
CONTINUOUS
 10
21.899923836
 20
-21.8999809608
 30
0.0
 11
0.4473055582
 21
0.2236357461
 31
0.0
 40
0.9998096356
 41
-1.5708772868
 42
-0.4635410001
  0
ELLIPSE
  5
6C8
100
AcDbEntity
  8
RACCORDO
100
AcDbEllipse
 62
7
  6
CONTINUOUS
 10
2.7427234819
 20
22.3344902759
 30
0.0
 11
0.25
 21
0.0
 31
0.0
 40
0.0524077793
 41
-1.5707963268
 42
-0.0058177642
  0
ELLIPSE
  5
6C9
100
AcDbEntity
  8
RACCORDO
100
AcDbEllipse
 62
7
  6
CONTINUOUS
 10
19.7572765181
 20
22.3344902759
 30
0.0
 11
0.25
 21
0.0
 31
0.0
 40
0.0524077793
 41
-3.1357748894
 42
-1.5707963268
  0
ELLIPSE
  5
6CA
100
AcDbEntity
  8
RACCORDO
100
AcDbEllipse
 62
7
  6
CONTINUOUS
 10
21.6427234819
 20
22.3344902759
 30
0.0
 11
0.25
 21
-0.0
 31
0.0
 40
0.0524077793
 41
-1.5707963268
 42
-0.5261092631
  0
ELLIPSE
  5
6CB
100
AcDbEntity
  8
RACCORDO
100
AcDbEllipse
 62
7
  6
CONTINUOUS
 10
19.7572765181
 20
-22.3344902759
 30
0.0
 11
0.25
 21
0.0
 31
0.0
 40
0.0524077793
 41
1.5707963268
 42
3.1357748894
  0
ELLIPSE
  5
6CC
100
AcDbEntity
  8
RACCORDO
100
AcDbEllipse
 62
7
  6
CONTINUOUS
 10
21.6427234819
 20
-22.3344902759
 30
0.0
 11
0.25
 21
0.0
 31
0.0
 40
0.0524077793
 41
0.5261092631
 42
1.5707963268
  0
ELLIPSE
  5
6CD
100
AcDbEntity
  8
RACCORDO
100
AcDbEllipse
 62
7
  6
CONTINUOUS
 10
0.8572765181
 20
-22.3344902759
 30
0.0
 11
0.25
 21
0.0
 31
0.0
 40
0.0524077793
 41
1.5707963268
 42
3.1357748894
  0
ELLIPSE
  5
6CE
100
AcDbEntity
  8
RACCORDO
100
AcDbEllipse
 62
7
  6
CONTINUOUS
 10
2.7427234819
 20
-22.3344902759
 30
0.0
 11
0.25
 21
0.0
 31
0.0
 40
0.0524077793
 41
0.0058177642
 42
1.5707963268
  0
ELLIPSE
  5
6CF
100
AcDbEntity
  8
RACCORDO
100
AcDbEllipse
 62
7
  6
CONTINUOUS
 10
15.1470826234
 20
22.3737961104
 30
0.0
 11
0.5
 21
0.0
 31
0.0
 40
0.0524077793
 41
-1.5707963268
 42
-0.0058177642
  0
ELLIPSE
  5
6D0
100
AcDbEntity
  8
RACCORDO
100
AcDbEllipse
 62
7
  6
CONTINUOUS
 10
-0.8572765181
 20
-22.3344902759
 30
0.0
 11
0.25
 21
0.0
 31
0.0
 40
0.0524077793
 41
0.0058177642
 42
1.5707963268
  0
ELLIPSE
  5
6D1
100
AcDbEntity
  8
RACCORDO
100
AcDbEllipse
 62
7
  6
CONTINUOUS
 10
15.1470826234
 20
23.7970910851
 30
0.0
 11
0.5
 21
-0.0
 31
0.0
 40
0.0058178298
 41
-0.6464131586
 42
-0.0058177642
  0
ELLIPSE
  5
6D2
100
AcDbEntity
  8
RACCORDO
100
AcDbEllipse
 62
7
  6
CONTINUOUS
 10
7.3529173766
 20
23.7970910851
 30
0.0
 11
0.5
 21
0.0
 31
0.0
 40
0.0058178298
 41
-3.1357748894
 42
-2.495179495
  0
ELLIPSE
  5
6D3
100
AcDbEntity
  8
RACCORDO
100
AcDbEllipse
 62
7
  6
CONTINUOUS
 10
7.3529173766
 20
22.3737961104
 30
0.0
 11
0.5
 21
0.0
 31
0.0
 40
0.0524077793
 41
-3.1357748894
 42
-1.5707963268
  0
ELLIPSE
  5
6D4
100
AcDbEntity
  8
RACCORDO
100
AcDbEllipse
 62
7
  6
CONTINUOUS
 10
15.1470826234
 20
-23.7970910851
 30
0.0
 11
0.5
 21
0.0
 31
0.0
 40
0.0058178298
 41
0.0058177642
 42
0.6464131586
  0
ELLIPSE
  5
6D5
100
AcDbEntity
  8
RACCORDO
100
AcDbEllipse
 62
7
  6
CONTINUOUS
 10
-2.7427234819
 20
-22.3344902759
 30
0.0
 11
0.25
 21
0.0
 31
0.0
 40
0.0524077793
 41
1.5707963268
 42
3.1357748894
  0
ELLIPSE
  5
6D6
100
AcDbEntity
  8
RACCORDO
100
AcDbEllipse
 62
7
  6
CONTINUOUS
 10
15.1470826234
 20
-22.3737961104
 30
0.0
 11
0.5
 21
-0.0
 31
0.0
 40
0.0524077793
 41
0.0058177642
 42
1.5707963268
  0
ELLIPSE
  5
6D7
100
AcDbEntity
  8
RACCORDO
100
AcDbEllipse
 62
7
  6
CONTINUOUS
 10
7.3529173766
 20
-22.3737961104
 30
0.0
 11
0.5
 21
-0.0
 31
0.0
 40
0.0524077793
 41
1.5707963268
 42
3.1357748894
  0
ELLIPSE
  5
6D8
100
AcDbEntity
  8
RACCORDO
100
AcDbEllipse
 62
7
  6
CONTINUOUS
 10
7.3529173766
 20
-23.7970910851
 30
0.0
 11
0.5
 21
-0.0
 31
0.0
 40
0.0058178298
 41
2.495179495
 42
3.1357748894
  0
ELLIPSE
  5
6D9
100
AcDbEntity
  8
RACCORDO
100
AcDbEllipse
 62
7
  6
CONTINUOUS
 10
-7.3529173766
 20
22.3737961104
 30
0.0
 11
0.5
 21
-0.0
 31
0.0
 40
0.0524077793
 41
-1.5707963268
 42
-0.0058177642
  0
ELLIPSE
  5
6DA
100
AcDbEntity
  8
RACCORDO
100
AcDbEllipse
 62
7
  6
CONTINUOUS
 10
-7.3529173766
 20
23.7970910851
 30
0.0
 11
0.5
 21
-0.0
 31
0.0
 40
0.0058178298
 41
-0.6464131586
 42
-0.0058177642
  0
ELLIPSE
  5
6DB
100
AcDbEntity
  8
RACCORDO
100
AcDbEllipse
 62
7
  6
CONTINUOUS
 10
-19.7572765181
 20
-22.3344902759
 30
0.0
 11
0.25
 21
0.0
 31
0.0
 40
0.0524077793
 41
0.0058177642
 42
1.5707963268
  0
ELLIPSE
  5
6DC
100
AcDbEntity
  8
RACCORDO
100
AcDbEllipse
 62
7
  6
CONTINUOUS
 10
-15.1470826234
 20
23.7970910851
 30
0.0
 11
0.5
 21
-0.0
 31
0.0
 40
0.0058178298
 41
-3.1357748894
 42
-2.495179495
  0
ELLIPSE
  5
6DD
100
AcDbEntity
  8
RACCORDO
100
AcDbEllipse
 62
7
  6
CONTINUOUS
 10
-15.1470826234
 20
22.3737961104
 30
0.0
 11
0.5
 21
0.0
 31
0.0
 40
0.0524077793
 41
-3.1357748894
 42
-1.5707963268
  0
ELLIPSE
  5
6DE
100
AcDbEntity
  8
RACCORDO
100
AcDbEllipse
 62
7
  6
CONTINUOUS
 10
-7.3529173766
 20
-23.7970910851
 30
0.0
 11
0.5
 21
0.0
 31
0.0
 40
0.0058178298
 41
0.0058177642
 42
0.6464131586
  0
ELLIPSE
  5
6DF
100
AcDbEntity
  8
RACCORDO
100
AcDbEllipse
 62
7
  6
CONTINUOUS
 10
-21.6427234819
 20
-22.3344902759
 30
0.0
 11
0.25
 21
0.0
 31
0.0
 40
0.0524077793
 41
1.5707963268
 42
2.6154833905
  0
ELLIPSE
  5
6E0
100
AcDbEntity
  8
RACCORDO
100
AcDbEllipse
 62
7
  6
CONTINUOUS
 10
-7.3529173766
 20
-22.3737961104
 30
0.0
 11
0.5
 21
-0.0
 31
0.0
 40
0.0524077793
 41
0.0058177642
 42
1.5707963268
  0
ELLIPSE
  5
6E1
100
AcDbEntity
  8
RACCORDO
100
AcDbEllipse
 62
7
  6
CONTINUOUS
 10
-0.8572765181
 20
22.3344902759
 30
0.0
 11
0.25
 21
0.0
 31
0.0
 40
0.0524077793
 41
-1.5707963268
 42
-0.0058177642
  0
ELLIPSE
  5
6E2
100
AcDbEntity
  8
RACCORDO
100
AcDbEllipse
 62
7
  6
CONTINUOUS
 10
-15.1470826234
 20
-22.3737961104
 30
0.0
 11
0.5
 21
0.0
 31
0.0
 40
0.0524077793
 41
1.5707963268
 42
3.1357748894
  0
ELLIPSE
  5
6E3
100
AcDbEntity
  8
RACCORDO
100
AcDbEllipse
 62
7
  6
CONTINUOUS
 10
-2.7427234819
 20
22.3344902759
 30
0.0
 11
0.25
 21
0.0
 31
0.0
 40
0.0524077793
 41
-3.1357748894
 42
-1.5707963268
  0
ELLIPSE
  5
6E4
100
AcDbEntity
  8
RACCORDO
100
AcDbEllipse
 62
7
  6
CONTINUOUS
 10
-19.7572765181
 20
22.3344902759
 30
0.0
 11
0.25
 21
0.0
 31
0.0
 40
0.0524077793
 41
-1.5707963268
 42
-0.0058177642
  0
ELLIPSE
  5
6E5
100
AcDbEntity
  8
RACCORDO
100
AcDbEllipse
 62
7
  6
CONTINUOUS
 10
-21.6427234819
 20
22.3344902759
 30
0.0
 11
0.25
 21
0.0
 31
0.0
 40
0.0524077793
 41
-2.6154833905
 42
-1.5707963268
  0
ELLIPSE
  5
6E6
100
AcDbEntity
  8
RACCORDO
100
AcDbEllipse
 62
7
  6
CONTINUOUS
 10
-15.1470826234
 20
-23.7970910851
 30
0.0
 11
0.5
 21
-0.0
 31
0.0
 40
0.0058178298
 41
2.495179495
 42
3.1357748894
  0
ELLIPSE
  5
6E7
100
AcDbEntity
  8
RACCORDO
100
AcDbEllipse
 62
7
  6
CONTINUOUS
 10
-21.9087644278
 20
21.9782649497
 30
0.0
 11
-0.2441762974
 21
2.3066033254
 31
0.0
 40
0.023266293
 41
-1.4186755657
 42
-1.386198609
  0
ELLIPSE
  5
6E8
100
AcDbEntity
  8
RACCORDO
100
AcDbEllipse
 62
7
  6
CONTINUOUS
 10
-21.9087644278
 20
-21.9782649497
 30
0.0
 11
0.2441762974
 21
2.3066033254
 31
0.0
 40
0.023266293
 41
-1.7553940446
 42
-1.7229170879
  0
ELLIPSE
  5
6E9
100
AcDbEntity
  8
RACCORDO
100
AcDbEllipse
 62
7
  6
CONTINUOUS
 10
0.8572765181
 20
22.3344902759
 30
0.0
 11
0.25
 21
-0.0
 31
0.0
 40
0.0524077793
 41
-3.1357748894
 42
-1.5707963268
  0
ELLIPSE
  5
6EA
100
AcDbEntity
  8
RACCORDO
100
AcDbEllipse
 62
7
  6
CONTINUOUS
 10
-65.9625909563
 20
-22.0658992808
 30
0.0
 11
-0.0162532559
 21
0.4997357619
 31
0.0
 40
1.0
 41
-0.9513621385
 42
-0.0499655319
  0
ELLIPSE
  5
6EB
100
AcDbEntity
  8
RACCORDO
100
AcDbEllipse
 62
7
  6
CONTINUOUS
 10
-65.9625909563
 20
22.0658992808
 30
0.0
 11
-0.0073505573
 21
0.4999459664
 31
0.0
 40
1.0
 41
-3.1388410052
 42
-2.2374443986
  0
ELLIPSE
  5
6EC
100
AcDbEntity
  8
RACCORDO
100
AcDbEllipse
 62
7
  6
CONTINUOUS
 10
-74.9561137929
 20
21.9782649497
 30
0.0
 11
42.9720690761
 21
2.2519182643
 31
0.0
 40
0.0116195205
 41
1.6019342201
 42
1.6052406624
  0
ELLIPSE
  5
6ED
100
AcDbEntity
  8
RACCORDO
100
AcDbEllipse
 62
7
  6
CONTINUOUS
 10
-74.9561137929
 20
21.9782649497
 30
0.0
 11
42.9720690762
 21
2.2519182643
 31
0.0
 40
0.0116195205
 41
1.6055440735
 42
1.6344111767
  0
ELLIPSE
  5
6EE
100
AcDbEntity
  8
RACCORDO
100
AcDbEllipse
 62
7
  6
CONTINUOUS
 10
-74.9561137929
 20
-21.9782649497
 30
0.0
 11
42.9720690761
 21
-2.2519182643
 31
0.0
 40
0.0116195205
 41
-1.6052406624
 42
-1.6019342201
  0
ELLIPSE
  5
6EF
100
AcDbEntity
  8
RACCORDO
100
AcDbEllipse
 62
7
  6
CONTINUOUS
 10
-74.9561137929
 20
-21.9782649497
 30
0.0
 11
42.9720690761
 21
-2.2519182643
 31
0.0
 40
0.0116195205
 41
-1.6344111767
 42
-1.6055440735
  0
ELLIPSE
  5
6F0
100
AcDbEntity
  8
CURVE
100
AcDbEllipse
 62
253
  6
CONTINUOUS
 10
-54.8515239563
 20
14.143532
 30
0.0
 11
0.6498215682
 21
0.0013641209
 31
0.0
 40
1.0
 41
-0.0020992207
 42
3.1394934329
  0
ELLIPSE
  5
6F1
100
AcDbEntity
  8
CURVE
100
AcDbEllipse
 62
253
  6
CONTINUOUS
 10
-59.5106309563
 20
-9.1
 30
0.0
 11
0.2848178508
 21
2.5340426092
 31
0.0
 40
1.0
 41
-4.6396878621
 42
-1.4620126802
  0
ELLIPSE
  5
6F2
100
AcDbEntity
  8
CURVE
100
AcDbEllipse
 62
253
  6
CONTINUOUS
 10
-59.5106309563
 20
-9.1
 30
0.0
 11
-0.0616022873
 21
1.7989454929
 31
0.0
 40
1.0
 41
1.4809819726
 42
2.8974918738
  0
ELLIPSE
  5
6F3
100
AcDbEntity
  8
CURVE
100
AcDbEllipse
 62
253
  6
CONTINUOUS
 10
-59.5106309563
 20
-9.1
 30
0.0
 11
0.0470489654
 21
1.7993818844
 31
0.0
 40
1.0
 41
-2.9055803556
 42
-1.4890707204
  0
ELLIPSE
  5
6F4
100
AcDbEntity
  8
CURVE
100
AcDbEllipse
 62
253
  6
CONTINUOUS
 10
-59.5106309563
 20
-13.48511
 30
0.0
 11
0.363416535
 21
2.5239692897
 31
0.0
 40
1.0
 41
-4.6086114745
 42
-1.4309362891
  0
ELLIPSE
  5
6F5
100
AcDbEntity
  8
CURVE
100
AcDbEllipse
 62
253
  6
CONTINUOUS
 10
-59.5106309563
 20
-13.48511
 30
0.0
 11
1.7865711688
 21
-0.2194611294
 31
0.0
 40
1.0
 41
-2.9904625693
 42
0.1778111367
  0
ELLIPSE
  5
6F6
100
AcDbEntity
  8
CURVE
100
AcDbEllipse
 62
253
  6
CONTINUOUS
 10
-59.5106309563
 20
-9.1
 30
0.0
 11
2.4397804676
 21
-0.7415958625
 31
0.0
 40
1.0
 41
0.2919426855
 42
0.3343116879
  0
ELLIPSE
  5
6F7
100
AcDbEntity
  8
CURVE
100
AcDbEllipse
 62
253
  6
CONTINUOUS
 10
-59.5106309563
 20
-13.48511
 30
0.0
 11
-0.4121707738
 21
2.5164673267
 31
0.0
 40
1.0
 41
-1.7362874761
 42
-1.6939184737
  0
ELLIPSE
  5
6F8
100
AcDbEntity
  8
CURVE
100
AcDbEllipse
 62
253
  6
CONTINUOUS
 10
-59.5106309563
 20
-13.48511
 30
0.0
 11
1.7992307596
 21
-0.0526156071
 31
0.0
 40
1.0
 41
3.1152435363
 42
3.1997308351
  0
ENDSEC
  0
SECTION
  2
OBJECTS
  0
DICTIONARY
  5
C
100
AcDbDictionary
280
0
281
1
  3
ACAD_GROUP
350
D
  3
ACAD_MLINESTYLE
350
17
  3
ACAD_LAYOUT
350
1A
  3
ACAD_PLOTSETTINGS
350
19
  3
ACAD_PLOTSTYLENAME
350
E
  0
DICTIONARY
  5
D
102
{ACAD_REACTORS
330
C
102
}
100
AcDbDictionary
280
0
281
1
  0
ACDBDICTIONARYWDFLT
  5
E
102
{ACAD_REACTORS
330
C
102
}
100
AcDbDictionary
281
1
  3
Normal
350
F
100
AcDbDictionaryWithDefault
340
F
  0
DICTIONARY
  5
17
102
{ACAD_REACTORS
330
C
102
}
100
AcDbDictionary
280
0
281
1
  3
Standard
350
18
  0
DICTIONARY
  5
19
102
{ACAD_REACTORS
330
C
102
}
100
AcDbDictionary
281
1
  0
DICTIONARY
  5
1A
102
{ACAD_REACTORS
330
C
102
}
100
AcDbDictionary
281
1
  3
Model
350
6F9
  3
Layout1
350
6FA
  0
ACDBPLACEHOLDER
  5
F
102
{ACAD_REACTORS
330
E
102
}
  0
MLINESTYLE
  5
18
102
{ACAD_REACTORS
330
17
102
}
100
AcDbMlineStyle
  2
STANDARD
 70
0
  3

 62
256
 51
90.0
 52
90.0
 71
2
 49
0.5
 62
256
  6
BYLAYER
 49
-0.5
 62
256
  6
BYLAYER
  0
LAYOUT
  5
6F9
102
{ACAD_REACTORS
330
1A
102
}
100
AcDbPlotSettings
  1

  2
none_device
  4
ISO_A4_(297.00_x_210.00_MM)
  6

 40
0.0
 41
0.0
 42
0.0
 43
0.0
 44
297.0
 45
210.0
 46
0.0
 47
0.0
 48
0.0
 49
0.0
140
0.0
141
0.0
142
1.0
143
1.0
 70
1024
 72
1
 73
0
 74
0
  7

 75
0
147
1.0
148
0.0
149
0.0
100
AcDbLayout
  1
Model
 70
0
 71
0
 10
0.0
 20
0.0
 11
297.0
 21
210.0
 12
0.0
 22
0.0
 32
0.0
 14
0.0
 24
0.0
 34
0.0
 15
0.0
 25
0.0
 35
0.0
146
0.0
 13
0.0
 23
0.0
 33
0.0
 16
1.0
 26
0.0
 36
0.0
 17
0.0
 27
1.0
 37
0.0
 76
0
330
2EE
345
0
346
0
  0
LAYOUT
  5
6FA
102
{ACAD_REACTORS
330
1A
102
}
100
AcDbPlotSettings
  1

  2
none_device
  4
ISO_A4_(297.00_x_210.00_MM)
  6

 40
0.0
 41
0.0
 42
0.0
 43
0.0
 44
297.0
 45
210.0
 46
0.0
 47
0.0
 48
0.0
 49
0.0
140
0.0
141
0.0
142
1.0
143
1.0
 70
0
 72
1
 73
0
 74
0
  7

 75
0
147
1.0
148
0.0
149
0.0
100
AcDbLayout
  1
Layout1
 70
0
 71
1
 10
0.0
 20
0.0
 11
297.0
 21
210.0
 12
0.0
 22
0.0
 32
0.0
 14
0.0
 24
0.0
 34
0.0
 15
0.0
 25
0.0
 35
0.0
146
0.0
 13
0.0
 23
0.0
 33
0.0
 16
1.0
 26
0.0
 36
0.0
 17
0.0
 27
1.0
 37
0.0
 76
0
330
2EF
345
0
346
0
  0
ENDSEC
  0
EOF
