  0
SECTION
  2
HEADER
  9
$ACADVER
  1
AC1015
  9
$DWGCODEPAGE
  3
ANSI_1252
  9
$EXTMAX
 10
297.0
 20
210.0
 30
0.0
  9
$EXTMIN
 10
0.0
 20
0.0
 30
0.0
  9
$LIMMIN
 10
0.0
 20
0.0
  9
$LIMMAX
 10
297.0
 20
210.0
  9
$VIEWCTR
 10
148.5
 20
105.0
  9
$VIEWSIZE
 40
210.0
  9
$CLAYER
  8
0
  9
$LTSCALE
 40
16.335
  9
$CELTYPE
  6
BYLAYER
  9
$DIMSCALE
 40
1.0
  9
$DIMASZ
 40
3.0
  9
$DIMEXO
 40
1.85625
  9
$DIMDLI
 40
11.286
  9
$DIMEXE
 40
5.346
  9
$DIMCEN
 40
2.673
  9
$DIMLFAC
 40
1.0
  9
$DIMBLK
  1
_FILLED
  9
$DIMTXT
 40
3.0
  9
$DIMTOL
 70
1
  9
$DIMLIM
 70
0
  9
$DIMTFAC
 40
1.0
  9
$DIMTP
 40
0.01
  9
$DIMTM
 40
0.01
  9
$PDMODE
 70
3
  9
$PDSIZE
 40
3.0
  9
$HANDSEED
  5
64D
  9
$TILEMODE
 70
1
  9
$MEASUREMENT
 70
1
  9
$INSUNITS
 70
4
  0
ENDSEC
  0
SECTION
  2
CLASSES
  0
CLASS
  1
ACDBDICTIONARYWDFLT
  2
AcDbDictionaryWithDefault
  3
AutoCAD 2000
 90
0
280
0
281
0
  0
CLASS
  1
ACDBPLACEHOLDER
  2
AcDbPlaceHolder
  3
AutoCAD 2000
 90
0
280
0
281
0
  0
CLASS
  1
LAYOUT
  2
AcDbLayout
  3
AutoCAD 2000
 90
0
280
0
281
0
  0
ENDSEC
  0
SECTION
  2
TABLES
  0
TABLE
  2
VPORT
  5
8
100
AcDbSymbolTable
 70
2
  0
VPORT
  5
1F4
100
AcDbSymbolTableRecord
100
AcDbViewportTableRecord
  2
*ACTIVE
 70
0
 10
0.0
 20
0.0
 11
1.0
 21
1.0
 12
148.5
 22
105.0
 13
0.0
 23
0.0
 14
1.0
 24
1.0
 15
0.0
 25
0.0
 16
0.0
 26
0.0
 36
1.0
 17
0.0
 27
0.0
 37
0.0
 40
210.0
 41
1.4142857143
 42
50.0
 43
0.0
 44
0.0
 50
0.0
 51
0.0
 71
0
 72
100
 73
1
 74
1
 75
0
 76
0
 77
0
 78
0
  0
ENDTAB
  0
TABLE
  2
LTYPE
  5
5
100
AcDbSymbolTable
 70
6
  0
LTYPE
  5
14
100
AcDbSymbolTableRecord
100
AcDbLinetypeTableRecord
  2
BYBLOCK
 70
0
  3

 72
65
 73
0
 40
0.0
  0
LTYPE
  5
15
100
AcDbSymbolTableRecord
100
AcDbLinetypeTableRecord
  2
BYLAYER
 70
0
  3

 72
65
 73
0
 40
0.0
  0
LTYPE
  5
16
100
AcDbSymbolTableRecord
100
AcDbLinetypeTableRecord
  2
CONTINUOUS
 70
64
  3
Solid line
 72
65
 73
0
 40
0.0
  0
LTYPE
  5
1F5
100
AcDbSymbolTableRecord
100
AcDbLinetypeTableRecord
  2
CENTER
 70
64
  3
____ _ ____ _ ____ _ ____ _ ____ _ ____ _ ____
 72
65
 73
4
 40
0.6
 49
0.375
 74
0
 49
-0.075
 74
0
 49
0.075
 74
0
 49
-0.075
 74
0
  0
LTYPE
  5
1F6
100
AcDbSymbolTableRecord
100
AcDbLinetypeTableRecord
  2
HIDDEN
 70
64
  3
- - - - - - - - - - - - - - - - - - - -
 72
65
 73
2
 40
0.2
 49
0.1
 74
0
 49
-0.1
 74
0
  0
LTYPE
  5
1F7
100
AcDbSymbolTableRecord
100
AcDbLinetypeTableRecord
  2
PHANTOM
 70
64
  3
_____ _ _ _____ _ _ _____ _ _ _____
 72
65
 73
6
 40
0.8
 49
0.45
 74
0
 49
-0.05
 74
0
 49
0.1
 74
0
 49
-0.05
 74
0
 49
0.1
 74
0
 49
-0.05
 74
0
  0
LTYPE
  5
1F8
100
AcDbSymbolTableRecord
100
AcDbLinetypeTableRecord
  2
DOT
 70
64
  3
. . . . . . . . . . . . . . . . . . . .
 72
65
 73
2
 40
0.2
 49
0.1
 74
0
 49
-0.1
 74
0
  0
LTYPE
  5
1F9
100
AcDbSymbolTableRecord
100
AcDbLinetypeTableRecord
  2
DASHED
 70
64
  3
- - - - - - - - - - - - - - - - - - - -
 72
65
 73
2
 40
0.2
 49
0.1
 74
0
 49
-0.1
 74
0
  0
ENDTAB
  0
TABLE
  2
LAYER
  5
2
100
AcDbSymbolTable
 70
36
  0
LAYER
  5
10
100
AcDbSymbolTableRecord
100
AcDbLayerTableRecord
  2
0
 70
0
 62
7
  6
CONTINUOUS
370
-3
390
F
  0
LAYER
  5
1FA
100
AcDbSymbolTableRecord
100
AcDbLayerTableRecord
  2
DEFAULT_1
 70
0
 62
7
  6
CENTER
370
-3
390
F
  0
LAYER
  5
1FB
100
AcDbSymbolTableRecord
100
AcDbLayerTableRecord
  2
DEFAULT_2
 70
0
 62
7
  6
HIDDEN
370
-3
390
F
  0
LAYER
  5
1FC
100
AcDbSymbolTableRecord
100
AcDbLayerTableRecord
  2
DEFAULT_3
 70
0
 62
7
  6
PHANTOM
370
-3
390
F
  0
LAYER
  5
1FD
100
AcDbSymbolTableRecord
100
AcDbLayerTableRecord
  2
ASSI
 70
0
 62
7
  6
CONTINUOUS
370
-3
390
F
  0
LAYER
  5
1FE
100
AcDbSymbolTableRecord
100
AcDbLayerTableRecord
  2
COLOR5
 70
0
 62
7
  6
CONTINUOUS
370
-3
390
F
  0
LAYER
  5
1FF
100
AcDbSymbolTableRecord
100
AcDbLayerTableRecord
  2
COORDINATE
 70
0
 62
7
  6
CONTINUOUS
370
-3
390
F
  0
LAYER
  5
200
100
AcDbSymbolTableRecord
100
AcDbLayerTableRecord
  2
COORD_ORIGINE
 70
0
 62
7
  6
CONTINUOUS
370
-3
390
F
  0
LAYER
  5
201
100
AcDbSymbolTableRecord
100
AcDbLayerTableRecord
  2
COPY_PUBLISH
 70
0
 62
7
  6
CONTINUOUS
370
-3
390
F
  0
LAYER
  5
202
100
AcDbSymbolTableRecord
100
AcDbLayerTableRecord
  2
COSMETIC
 70
0
 62
7
  6
CONTINUOUS
370
-3
390
F
  0
LAYER
  5
203
100
AcDbSymbolTableRecord
100
AcDbLayerTableRecord
  2
COSMETICHE
 70
0
 62
7
  6
CONTINUOUS
370
-3
390
F
  0
LAYER
  5
204
100
AcDbSymbolTableRecord
100
AcDbLayerTableRecord
  2
COSMETICI
 70
0
 62
7
  6
CONTINUOUS
370
-3
390
F
  0
LAYER
  5
205
100
AcDbSymbolTableRecord
100
AcDbLayerTableRecord
  2
CURVE
 70
0
 62
7
  6
CONTINUOUS
370
-3
390
F
  0
LAYER
  5
206
100
AcDbSymbolTableRecord
100
AcDbLayerTableRecord
  2
DRAFT
 70
0
 62
7
  6
CONTINUOUS
370
-3
390
F
  0
LAYER
  5
207
100
AcDbSymbolTableRecord
100
AcDbLayerTableRecord
  2
IMPORT_IGES
 70
0
 62
7
  6
CONTINUOUS
370
-3
390
F
  0
LAYER
  5
208
100
AcDbSymbolTableRecord
100
AcDbLayerTableRecord
  2
INTF_1
 70
0
 62
7
  6
CONTINUOUS
370
-3
390
F
  0
LAYER
  5
209
100
AcDbSymbolTableRecord
100
AcDbLayerTableRecord
  2
NOTE
 70
0
 62
7
  6
CONTINUOUS
370
-3
390
F
  0
LAYER
  5
20A
100
AcDbSymbolTableRecord
100
AcDbLayerTableRecord
  2
PIANI
 70
0
 62
7
  6
CONTINUOUS
370
-3
390
F
  0
LAYER
  5
20B
100
AcDbSymbolTableRecord
100
AcDbLayerTableRecord
  2
PIANI_ORIGINE
 70
0
 62
7
  6
CONTINUOUS
370
-3
390
F
  0
LAYER
  5
20C
100
AcDbSymbolTableRecord
100
AcDbLayerTableRecord
  2
PIANI_RIFERIMENTO
 70
0
 62
7
  6
CONTINUOUS
370
-3
390
F
  0
LAYER
  5
20D
100
AcDbSymbolTableRecord
100
AcDbLayerTableRecord
  2
PIANI_SFORMI
 70
0
 62
7
  6
CONTINUOUS
370
-3
390
F
  0
LAYER
  5
20E
100
AcDbSymbolTableRecord
100
AcDbLayerTableRecord
  2
PUNTI
 70
0
 62
7
  6
CONTINUOUS
370
-3
390
F
  0
LAYER
  5
20F
100
AcDbSymbolTableRecord
100
AcDbLayerTableRecord
  2
RACCORDO
 70
0
 62
7
  6
CONTINUOUS
370
-3
390
F
  0
LAYER
  5
210
100
AcDbSymbolTableRecord
100
AcDbLayerTableRecord
  2
RGB____0____0____0__
 70
0
 62
7
  6
CONTINUOUS
370
-3
390
F
  0
LAYER
  5
211
100
AcDbSymbolTableRecord
100
AcDbLayerTableRecord
  2
SIMBOLI
 70
0
 62
7
  6
CONTINUOUS
370
-3
390
F
  0
LAYER
  5
212
100
AcDbSymbolTableRecord
100
AcDbLayerTableRecord
  2
SMUSSO
 70
0
 62
7
  6
CONTINUOUS
370
-3
390
F
  0
LAYER
  5
213
100
AcDbSymbolTableRecord
100
AcDbLayerTableRecord
  2
SNAPLINE
 70
0
 62
7
  6
CONTINUOUS
370
-3
390
F
  0
LAYER
  5
214
100
AcDbSymbolTableRecord
100
AcDbLayerTableRecord
  2
SUPERFICI
 70
0
 62
7
  6
CONTINUOUS
370
-3
390
F
  0
LAYER
  5
215
100
AcDbSymbolTableRecord
100
AcDbLayerTableRecord
  2
TRASH
 70
0
 62
7
  6
CONTINUOUS
370
-3
390
F
  0
LAYER
  5
216
100
AcDbSymbolTableRecord
100
AcDbLayerTableRecord
  2
XSEC_DATUMS
 70
0
 62
7
  6
CONTINUOUS
370
-3
390
F
  0
ENDTAB
  0
TABLE
  2
STYLE
  5
3
100
AcDbSymbolTable
 70
1
  0
STYLE
  5
11
100
AcDbSymbolTableRecord
100
AcDbTextStyleTableRecord
  2
STANDARD
 70
0
 40
0.0
 41
0.8
 50
0.0
 71
0
 42
0.2
  3
txt
  4

  0
STYLE
  5
217
100
AcDbSymbolTableRecord
100
AcDbTextStyleTableRecord
  2
TEXTSTYLE_1
 70
0
 40
0.0
 41
0.8
 50
0.0
 71
0
 42
0.2
  3
gdt
  4

  0
ENDTAB
  0
TABLE
  2
VIEW
  5
6
100
AcDbSymbolTable
 70
0
  0
ENDTAB
  0
TABLE
  2
UCS
  5
7
100
AcDbSymbolTable
 70
0
  0
ENDTAB
  0
TABLE
  2
APPID
  5
9
100
AcDbSymbolTable
 70
1
  0
APPID
  5
218
100
AcDbSymbolTableRecord
100
AcDbRegAppTableRecord
  2
ACAD
 70
0
  0
ENDTAB
  0
TABLE
  2
BLOCK_RECORD
  5
1
100
AcDbSymbolTable
 70
0
  0
BLOCK_RECORD
  5
219
100
AcDbSymbolTableRecord
100
AcDbBlockTableRecord
  2
*Model_Space
  0
BLOCK_RECORD
  5
21A
100
AcDbSymbolTableRecord
100
AcDbBlockTableRecord
  2
*Paper_Space
  0
BLOCK_RECORD
  5
21B
100
AcDbSymbolTableRecord
100
AcDbBlockTableRecord
  2
_FILLED
  0
BLOCK_RECORD
  5
21C
100
AcDbSymbolTableRecord
100
AcDbBlockTableRecord
  2
*D0
  0
BLOCK_RECORD
  5
21D
100
AcDbSymbolTableRecord
100
AcDbBlockTableRecord
  2
*D1
  0
BLOCK_RECORD
  5
21E
100
AcDbSymbolTableRecord
100
AcDbBlockTableRecord
  2
*D2
  0
BLOCK_RECORD
  5
21F
100
AcDbSymbolTableRecord
100
AcDbBlockTableRecord
  2
*D3
  0
ENDTAB
  0
TABLE
  2
DIMSTYLE
  5
A
100
AcDbSymbolTable
 70
1
100
AcDbDimStyleTable
 71
0
  0
DIMSTYLE
105
220
100
AcDbSymbolTableRecord
100
AcDbDimStyleTableRecord
  2
STANDARD
 70
0
  3

  4

 40
1.0
 41
3.0
 42
0.0625
 43
0.38
 44
0.18
 45
0.0
 46
0.0
 47
0.01
 48
0.01
140
3.0
141
0.09
142
0.0
143
25.4
144
1.0
145
0.0
146
1.0
147
0.09
 71
1.0
 72
0.0
 73
0
 74
0
 75
0
 76
0
 77
1
 78
8
170
0
171
2
172
0
173
0
174
0
175
0
176
0
177
0
178
0
270
2
271
2
272
2
273
2
274
2
275
0
280
0
281
0
282
0
283
1
284
8
285
0
286
0
287
3
288
0
340
11
341
21B
342
21B
343
21B
344
21B
  0
DIMSTYLE
105
221
100
AcDbSymbolTableRecord
100
AcDbDimStyleTableRecord
  2
DIMSTYLE_1
 70
0
  3

  4

 40
1.0
 41
3.0
 42
0.0625
 43
0.38
 44
0.18
 45
0.0
 46
0.0
 47
0.0
 48
0.0
140
3.0
141
0.09
142
0.0
143
25.4
144
1.0
145
0.0
146
1.0
147
0.09
 71
0.0
 72
0.0
 73
0
 74
0
 75
0
 76
0
 77
1
 78
8
170
0
171
2
172
0
173
0
174
0
175
0
176
0
177
0
178
0
270
2
271
2
272
2
273
2
274
2
275
0
280
0
281
0
282
0
283
1
284
8
285
0
286
0
287
3
288
0
340
11
341
21B
342
21B
343
21B
344
21B
  0
ENDTAB
  0
ENDSEC
  0
SECTION
  2
BLOCKS
  0
BLOCK
  5
20
100
AcDbEntity
  8
0
100
AcDbBlockBegin
  2
*Model_Space
 70
0
 10
0.0
 20
0.0
 30
0.0
  3
*Model_Space
  1

  0
ENDBLK
  5
21
100
AcDbEntity
  8
0
100
AcDbBlockEnd
  0
BLOCK
  5
1C
100
AcDbEntity
  8
0
100
AcDbBlockBegin
  2
*Paper_Space
 70
0
 10
0.0
 20
0.0
 30
0.0
  3
*Paper_Space
  1

  0
ENDBLK
  5
1D
100
AcDbEntity
  8
0
100
AcDbBlockEnd
  0
BLOCK
  5
222
100
AcDbEntity
  8
0
100
AcDbBlockBegin
  2
_FILLED
 70
64
 10
0.0
 20
0.0
  3
_FILLED
  1

  0
SOLID
  5
223
100
AcDbEntity
  8
0
  6
BYBLOCK
 62
0
100
AcDbTrace
 10
0.0
 20
0.0
 11
-1.0
 21
0.3166666667
 12
-1.0
 22
-0.3166666667
 13
-1.0
 23
-0.3166666667
  0
ENDBLK
  5
224
100
AcDbEntity
  8
0
  6
BYBLOCK
 62
0
100
AcDbBlockEnd
  0
BLOCK
  5
225
100
AcDbEntity
  8
0
100
AcDbBlockBegin
 62
7
  6
CONTINUOUS
  2
*D0
 70
65
 10
0.0
 20
0.0
  3
*D0
  1

  0
MTEXT
  5
226
100
AcDbEntity
  8
0
100
AcDbMText
 62
7
  6
CONTINUOUS
  7
STANDARD
 71
2
 72
1
 10
-1.6828080136
 20
38.6135582966
 30
0.0
 11
1.0
 21
0.0
 31
0.0
 44
0.9
  1
44,8
 40
3.0
 41
8.7857142857
  0
LINE
  5
227
100
AcDbEntity
  8
0
100
AcDbLine
 62
7
  6
CONTINUOUS
 10
-24.0828080136
 20
21.9047074837
 11
-24.0828080136
 21
36.3635582966
  0
LINE
  5
228
100
AcDbEntity
  8
0
100
AcDbLine
 62
7
  6
CONTINUOUS
 10
20.7171919864
 20
21.9047074837
 11
20.7171919864
 21
36.3635582966
  0
LINE
  5
229
100
AcDbEntity
  8
0
100
AcDbLine
 62
7
  6
CONTINUOUS
 10
-24.0828080136
 20
34.8635582966
 11
-1.6828080136
 21
34.8635582966
  0
LINE
  5
22A
100
AcDbEntity
  8
0
100
AcDbLine
 62
7
  6
CONTINUOUS
 10
20.7171919864
 20
34.8635582966
 11
-1.6828080136
 21
34.8635582966
  0
INSERT
  5
22B
100
AcDbEntity
  8
0
100
AcDbBlockReference
 62
7
  6
CONTINUOUS
  2
_FILLED
 10
-24.0828080136
 20
34.8635582966
 41
3.0
 42
3.0
 43
3.0
 50
180.0
  0
INSERT
  5
22C
100
AcDbEntity
  8
0
100
AcDbBlockReference
 62
7
  6
CONTINUOUS
  2
_FILLED
 10
20.7171919864
 20
34.8635582966
 41
3.0
 42
3.0
 43
3.0
  0
ENDBLK
  5
22D
100
AcDbEntity
  8
0
  6
BYBLOCK
 62
0
100
AcDbBlockEnd
  0
BLOCK
  5
22E
100
AcDbEntity
  8
0
100
AcDbBlockBegin
 62
7
  6
CONTINUOUS
  2
*D1
 70
65
 10
0.0
 20
0.0
  3
*D1
  1

  0
MTEXT
  5
22F
100
AcDbEntity
  8
0
100
AcDbMText
 62
7
  6
CONTINUOUS
  7
STANDARD
 71
2
 72
1
 10
31.5371919864
 20
0.0045551788
 30
0.0
 11
0.0
 21
1.0
 31
0.0
 44
0.9
  1
49
 40
3.0
 41
4.7142857143
  0
LINE
  5
230
100
AcDbEntity
  8
0
100
AcDbLine
 62
7
  6
CONTINUOUS
 10
1.5671954134
 20
24.5045551788
 11
36.7871919864
 21
24.5045551788
  0
LINE
  5
231
100
AcDbEntity
  8
0
100
AcDbLine
 62
7
  6
CONTINUOUS
 10
-0.2578114405
 20
-24.4954448212
 11
36.7871919864
 21
-24.4954448212
  0
LINE
  5
232
100
AcDbEntity
  8
0
100
AcDbLine
 62
7
  6
CONTINUOUS
 10
35.2871919864
 20
24.5045551788
 11
35.2871919864
 21
0.0045551788
  0
LINE
  5
233
100
AcDbEntity
  8
0
100
AcDbLine
 62
7
  6
CONTINUOUS
 10
35.2871919864
 20
-24.4954448212
 11
35.2871919864
 21
0.0045551788
  0
INSERT
  5
234
100
AcDbEntity
  8
0
100
AcDbBlockReference
 62
7
  6
CONTINUOUS
  2
_FILLED
 10
35.2871919864
 20
24.5045551788
 41
3.0
 42
3.0
 43
3.0
 50
90.0
  0
INSERT
  5
235
100
AcDbEntity
  8
0
100
AcDbBlockReference
 62
7
  6
CONTINUOUS
  2
_FILLED
 10
35.2871919864
 20
-24.4954448212
 41
3.0
 42
3.0
 43
3.0
 50
270.0
  0
ENDBLK
  5
236
100
AcDbEntity
  8
0
  6
BYBLOCK
 62
0
100
AcDbBlockEnd
  0
BLOCK
  5
237
100
AcDbEntity
  8
0
100
AcDbBlockBegin
 62
7
  6
CONTINUOUS
  2
*D2
 70
65
 10
0.0
 20
0.0
  3
*D2
  1

  0
MTEXT
  5
238
100
AcDbEntity
  8
0
100
AcDbMText
 62
7
  6
CONTINUOUS
  7
STANDARD
 71
2
 72
1
 10
-46.1381502551
 20
39.1170212721
 30
0.0
 11
1.0
 21
0.0
 31
0.0
 44
0.9
  1
22,1
 40
3.0
 41
8.1428571429
  0
LINE
  5
239
100
AcDbEntity
  8
0
100
AcDbLine
 62
7
  6
CONTINUOUS
 10
-35.0881502551
 20
12.5045551788
 11
-35.0881502551
 21
36.8670212721
  0
LINE
  5
23A
100
AcDbEntity
  8
0
100
AcDbLine
 62
7
  6
CONTINUOUS
 10
-57.1881502551
 20
21.9047074837
 11
-57.1881502551
 21
36.8670212721
  0
LINE
  5
23B
100
AcDbEntity
  8
0
100
AcDbLine
 62
7
  6
CONTINUOUS
 10
-35.0881502551
 20
35.3670212721
 11
-46.1381502551
 21
35.3670212721
  0
LINE
  5
23C
100
AcDbEntity
  8
0
100
AcDbLine
 62
7
  6
CONTINUOUS
 10
-57.1881502551
 20
35.3670212721
 11
-46.1381502551
 21
35.3670212721
  0
INSERT
  5
23D
100
AcDbEntity
  8
0
100
AcDbBlockReference
 62
7
  6
CONTINUOUS
  2
_FILLED
 10
-35.0881502551
 20
35.3670212721
 41
3.0
 42
3.0
 43
3.0
 50
360.0
  0
INSERT
  5
23E
100
AcDbEntity
  8
0
100
AcDbBlockReference
 62
7
  6
CONTINUOUS
  2
_FILLED
 10
-57.1881502551
 20
35.3670212721
 41
3.0
 42
3.0
 43
3.0
 50
180.0
  0
ENDBLK
  5
23F
100
AcDbEntity
  8
0
  6
BYBLOCK
 62
0
100
AcDbBlockEnd
  0
BLOCK
  5
240
100
AcDbEntity
  8
0
100
AcDbBlockBegin
 62
7
  6
CONTINUOUS
  2
*D3
 70
65
 10
0.0
 20
0.0
  3
*D3
  1

  0
MTEXT
  5
241
100
AcDbEntity
  8
0
100
AcDbMText
 62
7
  6
CONTINUOUS
  7
STANDARD
 71
2
 72
1
 10
-58.1381502547
 20
49.1170212721
 30
0.0
 11
1.0
 21
0.0
 31
0.0
 44
0.9
  1
46,1
 40
3.0
 41
8.1428571429
  0
LINE
  5
242
100
AcDbEntity
  8
0
100
AcDbLine
 62
7
  6
CONTINUOUS
 10
-35.0881502551
 20
10.7045551788
 11
-35.0881502551
 21
46.8670212721
  0
LINE
  5
243
100
AcDbEntity
  8
0
100
AcDbLine
 62
7
  6
CONTINUOUS
 10
-81.1881502543
 20
0.5045551788
 11
-81.1881502543
 21
46.8670212721
  0
LINE
  5
244
100
AcDbEntity
  8
0
100
AcDbLine
 62
7
  6
CONTINUOUS
 10
-35.0881502551
 20
45.3670212721
 11
-58.1381502547
 21
45.3670212721
  0
LINE
  5
245
100
AcDbEntity
  8
0
100
AcDbLine
 62
7
  6
CONTINUOUS
 10
-81.1881502543
 20
45.3670212721
 11
-58.1381502547
 21
45.3670212721
  0
INSERT
  5
246
100
AcDbEntity
  8
0
100
AcDbBlockReference
 62
7
  6
CONTINUOUS
  2
_FILLED
 10
-35.0881502551
 20
45.3670212721
 41
3.0
 42
3.0
 43
3.0
  0
INSERT
  5
247
100
AcDbEntity
  8
0
100
AcDbBlockReference
 62
7
  6
CONTINUOUS
  2
_FILLED
 10
-81.1881502543
 20
45.3670212721
 41
3.0
 42
3.0
 43
3.0
 50
180.0
  0
ENDBLK
  5
248
100
AcDbEntity
  8
0
  6
BYBLOCK
 62
0
100
AcDbBlockEnd
  0
ENDSEC
  0
SECTION
  2
ENTITIES
  0
DIMENSION
  5
249
100
AcDbEntity
  8
0
100
AcDbDimension
 62
7
  6
CONTINUOUS
  2
*D0
 10
20.7171919864
 20
34.8635582966
 11
-6.0756651564
 21
37.1135582966
 70
160
 71
2
 42
44.8
  3
DIMSTYLE_1
100
AcDbAlignedDimension
 13
-24.0828080136
 23
21.9047074837
 14
20.7171919864
 24
21.9047074837
100
AcDbRotatedDimension
  0
DIMENSION
  5
24A
100
AcDbEntity
  8
0
100
AcDbDimension
 62
7
  6
CONTINUOUS
  2
*D1
 10
35.2871919864
 20
-24.4954448212
 11
34.0933655102
 21
-2.1027226711
 70
160
 71
2
 42
49.0
  3
DIMSTYLE_1
100
AcDbAlignedDimension
 13
1.5671954134
 23
24.5045551788
 14
-0.2578114405
 24
-24.4954448212
 50
270.0
100
AcDbRotatedDimension
  0
DIMENSION
  5
24B
100
AcDbEntity
  8
0
100
AcDbDimension
 62
7
  6
CONTINUOUS
  2
*D2
 10
-57.1881502551
 20
35.3670212721
 11
-50.2095788265
 21
37.6170212721
 70
160
 71
2
 42
22.1
  3
DIMSTYLE_1
100
AcDbAlignedDimension
 13
-35.0881502551
 23
12.5045551788
 14
-57.1881502551
 24
21.9047074837
 50
180.0
100
AcDbRotatedDimension
  0
DIMENSION
  5
24C
100
AcDbEntity
  8
0
100
AcDbDimension
 62
7
  6
CONTINUOUS
  2
*D3
 10
-81.1881502543
 20
45.3670212721
 11
-62.2095788261
 21
47.6170212721
 70
160
 71
2
 42
46.0999999992
  3
DIMSTYLE_1
100
AcDbAlignedDimension
 13
-35.0881502551
 23
10.7045551788
 14
-81.1881502543
 24
0.5045551788
 50
180.0
100
AcDbRotatedDimension
  0
LINE
  5
24D
100
AcDbEntity
  8
RACCORDO
100
AcDbLine
 62
253
  6
CONTINUOUS
 10
-21.4498285563
 20
24.4875312092
 11
-21.4328045866
 21
24.5045551788
  0
LINE
  5
24E
100
AcDbEntity
  8
RACCORDO
100
AcDbLine
 62
253
  6
CONTINUOUS
 10
-21.1998319832
 20
24.2375346361
 11
-21.1828080136
 21
24.2545586058
  0
LINE
  5
24F
100
AcDbEntity
  8
RACCORDO
100
AcDbLine
 62
253
  6
CONTINUOUS
 10
-21.4498285563
 20
-24.4784208515
 11
-21.4328045866
 21
-24.4954448212
  0
LINE
  5
250
100
AcDbEntity
  8
RACCORDO
100
AcDbLine
 62
253
  6
CONTINUOUS
 10
-21.1998319832
 20
-24.2284242785
 11
-21.1828080136
 21
-24.2454482481
  0
LINE
  5
251
100
AcDbEntity
  8
DRAFT
100
AcDbLine
 62
7
  6
CONTINUOUS
 10
-24.0328080136
 20
-21.5954448212
 11
-24.0502630785
 21
-21.018094552
  0
LINE
  5
252
100
AcDbEntity
  8
DRAFT
100
AcDbLine
 62
7
  6
CONTINUOUS
 10
-24.0502630785
 20
21.0272049097
 11
-24.0328080136
 21
21.6045551788
  0
LINE
  5
253
100
AcDbEntity
  8
RACCORDO
100
AcDbLine
 62
253
  6
CONTINUOUS
 10
-23.4907840439
 20
-23.8897823885
 11
-23.4960200795
 21
-23.3124321193
  0
LINE
  5
254
100
AcDbEntity
  8
RACCORDO
100
AcDbLine
 62
253
  6
CONTINUOUS
 10
-23.2407874709
 20
-23.6732760375
 11
-23.245369002
 21
-23.168094552
  0
LINE
  5
255
100
AcDbEntity
  8
DRAFT
100
AcDbLine
 62
7
  6
CONTINUOUS
 10
-23.502571978
 20
23.1772049097
 11
-23.5078080136
 21
23.7545551788
  0
LINE
  5
256
100
AcDbEntity
  8
DRAFT
100
AcDbLine
 62
7
  6
CONTINUOUS
 10
-21.1828080136
 20
-23.7454448212
 11
-21.1880440492
 21
-23.168094552
  0
LINE
  5
257
100
AcDbEntity
  8
RACCORDO
100
AcDbLine
 62
253
  6
CONTINUOUS
 10
-21.4498285563
 20
23.6823863952
 11
-21.4452470251
 21
23.1772049097
  0
LINE
  5
258
100
AcDbEntity
  8
RACCORDO
100
AcDbLine
 62
253
  6
CONTINUOUS
 10
-21.1998319832
 20
23.8988927461
 11
-21.1945959476
 21
23.321542477
  0
LINE
  5
259
100
AcDbEntity
  8
RACCORDO
100
AcDbLine
 62
7
  6
CONTINUOUS
 10
-24.0828080136
 20
21.4047074837
 11
-24.0828080136
 21
-21.395597126
  0
LINE
  5
25A
100
AcDbEntity
  8
ASSI
100
AcDbLine
 62
7
  6
CONTINUOUS
 10
-24.0828080136
 20
21.4047074837
 11
-24.0828080136
 21
-21.395597126
  0
LINE
  5
25B
100
AcDbEntity
  8
DRAFT
100
AcDbLine
 62
7
  6
CONTINUOUS
 10
-24.0502630785
 20
-21.018094552
 11
-24.0502630785
 21
21.0272049097
  0
LINE
  5
25C
100
AcDbEntity
  8
RACCORDO
100
AcDbLine
 62
7
  6
CONTINUOUS
 10
-24.0328080136
 20
21.854097675
 11
-24.0328080136
 21
21.6045551788
  0
LINE
  5
25D
100
AcDbEntity
  8
RACCORDO
100
AcDbLine
 62
7
  6
CONTINUOUS
 10
-24.0328080136
 20
-21.8449873173
 11
-24.0328080136
 21
-21.5954448212
  0
LINE
  5
25E
100
AcDbEntity
  8
RACCORDO
100
AcDbLine
 62
7
  6
CONTINUOUS
 10
-23.5078080136
 20
24.2545586058
 11
-23.5078080136
 21
23.7545551788
  0
LINE
  5
25F
100
AcDbEntity
  8
RACCORDO
100
AcDbLine
 62
7
  6
CONTINUOUS
 10
-23.5078080136
 20
-23.7454448212
 11
-23.5078080136
 21
-24.2454482481
  0
LINE
  5
260
100
AcDbEntity
  8
DRAFT
100
AcDbLine
 62
7
  6
CONTINUOUS
 10
-23.502571978
 20
-23.168094552
 11
-23.502571978
 21
-22.3454448212
  0
LINE
  5
261
100
AcDbEntity
  8
DRAFT
100
AcDbLine
 62
7
  6
CONTINUOUS
 10
-23.502571978
 20
22.3545551788
 11
-23.502571978
 21
23.1772049097
  0
LINE
  5
262
100
AcDbEntity
  8
RACCORDO
100
AcDbLine
 62
7
  6
CONTINUOUS
 10
-23.4960200795
 20
23.321542477
 11
-23.4960200795
 21
22.2889768534
  0
LINE
  5
263
100
AcDbEntity
  8
RACCORDO
100
AcDbLine
 62
7
  6
CONTINUOUS
 10
-23.4960200795
 20
-22.2798664957
 11
-23.4960200795
 21
-23.3124321193
  0
LINE
  5
264
100
AcDbEntity
  8
RACCORDO
100
AcDbLine
 62
7
  6
CONTINUOUS
 10
-23.4907840439
 20
24.2375346361
 11
-23.4907840439
 21
23.8988927461
  0
LINE
  5
265
100
AcDbEntity
  8
RACCORDO
100
AcDbLine
 62
7
  6
CONTINUOUS
 10
-23.4907840439
 20
-23.8897823885
 11
-23.4907840439
 21
-24.2284242785
  0
LINE
  5
266
100
AcDbEntity
  8
RACCORDO
100
AcDbLine
 62
253
  6
CONTINUOUS
 10
-23.2460235065
 20
23.1772049097
 11
-23.2460235065
 21
22.2759435099
  0
LINE
  5
267
100
AcDbEntity
  8
RACCORDO
100
AcDbLine
 62
253
  6
CONTINUOUS
 10
-23.2460235065
 20
-22.2668331522
 11
-23.2460235065
 21
-23.168094552
  0
LINE
  5
268
100
AcDbEntity
  8
RACCORDO
100
AcDbLine
 62
253
  6
CONTINUOUS
 10
-23.2407874709
 20
-23.6732760375
 11
-23.2407874709
 21
-24.4784208515
  0
LINE
  5
269
100
AcDbEntity
  8
RACCORDO
100
AcDbLine
 62
253
  6
CONTINUOUS
 10
-23.2407874709
 20
23.6823863952
 11
-23.2407874709
 21
24.4875312092
  0
LINE
  5
26A
100
AcDbEntity
  8
RACCORDO
100
AcDbLine
 62
253
  6
CONTINUOUS
 10
-21.4498285563
 20
-23.6732760375
 11
-21.4498285563
 21
-24.4784208515
  0
LINE
  5
26B
100
AcDbEntity
  8
RACCORDO
100
AcDbLine
 62
253
  6
CONTINUOUS
 10
-21.4498285563
 20
23.6823863952
 11
-21.4498285563
 21
24.4875312092
  0
LINE
  5
26C
100
AcDbEntity
  8
RACCORDO
100
AcDbLine
 62
253
  6
CONTINUOUS
 10
-21.4445925207
 20
-23.168094552
 11
-21.4445925207
 21
-22.2668331522
  0
LINE
  5
26D
100
AcDbEntity
  8
RACCORDO
100
AcDbLine
 62
253
  6
CONTINUOUS
 10
-21.4445925207
 20
22.2759435099
 11
-21.4445925207
 21
23.1772049097
  0
LINE
  5
26E
100
AcDbEntity
  8
RACCORDO
100
AcDbLine
 62
7
  6
CONTINUOUS
 10
-21.1998319832
 20
-24.2284242785
 11
-21.1998319832
 21
-23.8897823885
  0
LINE
  5
26F
100
AcDbEntity
  8
RACCORDO
100
AcDbLine
 62
7
  6
CONTINUOUS
 10
-21.1998319832
 20
23.8988927461
 11
-21.1998319832
 21
24.2375346361
  0
LINE
  5
270
100
AcDbEntity
  8
RACCORDO
100
AcDbLine
 62
7
  6
CONTINUOUS
 10
-21.1945959476
 20
-23.3124321193
 11
-21.1945959476
 21
-22.2798664957
  0
LINE
  5
271
100
AcDbEntity
  8
RACCORDO
100
AcDbLine
 62
7
  6
CONTINUOUS
 10
-21.1945959476
 20
22.2889768534
 11
-21.1945959476
 21
23.321542477
  0
LINE
  5
272
100
AcDbEntity
  8
DRAFT
100
AcDbLine
 62
7
  6
CONTINUOUS
 10
-21.1880440492
 20
23.1772049097
 11
-21.1880440492
 21
22.3545551788
  0
LINE
  5
273
100
AcDbEntity
  8
DRAFT
100
AcDbLine
 62
7
  6
CONTINUOUS
 10
-21.1880440492
 20
-22.3454448212
 11
-21.1880440492
 21
-23.168094552
  0
LINE
  5
274
100
AcDbEntity
  8
RACCORDO
100
AcDbLine
 62
7
  6
CONTINUOUS
 10
-21.1828080136
 20
-24.2454482481
 11
-21.1828080136
 21
-23.7454448212
  0
LINE
  5
275
100
AcDbEntity
  8
RACCORDO
100
AcDbLine
 62
7
  6
CONTINUOUS
 10
-21.1828080136
 20
23.7545551788
 11
-21.1828080136
 21
24.2545586058
  0
LINE
  5
276
100
AcDbEntity
  8
RACCORDO
100
AcDbLine
 62
253
  6
CONTINUOUS
 10
-23.4960200795
 20
23.321542477
 11
-23.4907840439
 21
23.8988927461
  0
LINE
  5
277
100
AcDbEntity
  8
RACCORDO
100
AcDbLine
 62
253
  6
CONTINUOUS
 10
-23.245369002
 20
23.1772049097
 11
-23.2407874709
 21
23.6823863952
  0
LINE
  5
278
100
AcDbEntity
  8
DRAFT
100
AcDbLine
 62
7
  6
CONTINUOUS
 10
-23.5078080136
 20
-23.7454448212
 11
-23.502571978
 21
-23.168094552
  0
LINE
  5
279
100
AcDbEntity
  8
DRAFT
100
AcDbLine
 62
7
  6
CONTINUOUS
 10
-21.1880440492
 20
23.1772049097
 11
-21.1828080136
 21
23.7545551788
  0
LINE
  5
27A
100
AcDbEntity
  8
RACCORDO
100
AcDbLine
 62
253
  6
CONTINUOUS
 10
-21.4452470251
 20
-23.168094552
 11
-21.4498285563
 21
-23.6732760375
  0
LINE
  5
27B
100
AcDbEntity
  8
RACCORDO
100
AcDbLine
 62
253
  6
CONTINUOUS
 10
-21.1945959476
 20
-23.3124321193
 11
-21.1998319832
 21
-23.8897823885
  0
LINE
  5
27C
100
AcDbEntity
  8
DRAFT
100
AcDbLine
 62
7
  6
CONTINUOUS
 10
-8.4958981026
 20
23.7914650898
 11
-8.4828080136
 21
23.8045551788
  0
LINE
  5
27D
100
AcDbEntity
  8
RACCORDO
100
AcDbLine
 62
7
  6
CONTINUOUS
 10
-23.2578114405
 20
-24.4954448212
 11
-21.4328045866
 21
-24.4954448212
  0
LINE
  5
27E
100
AcDbEntity
  8
RACCORDO
100
AcDbLine
 62
7
  6
CONTINUOUS
 10
-4.4328114405
 20
-24.4954448212
 11
-2.6078045866
 21
-24.4954448212
  0
LINE
  5
27F
100
AcDbEntity
  8
RACCORDO
100
AcDbLine
 62
7
  6
CONTINUOUS
 10
-0.7578114405
 20
-24.4954448212
 11
1.0671954134
 21
-24.4954448212
  0
LINE
  5
280
100
AcDbEntity
  8
RACCORDO
100
AcDbLine
 62
7
  6
CONTINUOUS
 10
18.0671885595
 20
-24.4954448212
 11
19.8921954134
 21
-24.4954448212
  0
LINE
  5
281
100
AcDbEntity
  8
RACCORDO
100
AcDbLine
 62
7
  6
CONTINUOUS
 10
-23.2407874709
 20
-24.4784208515
 11
-21.4498285563
 21
-24.4784208515
  0
LINE
  5
282
100
AcDbEntity
  8
RACCORDO
100
AcDbLine
 62
7
  6
CONTINUOUS
 10
-4.4157874709
 20
-24.4784208515
 11
-2.6248285563
 21
-24.4784208515
  0
LINE
  5
283
100
AcDbEntity
  8
RACCORDO
100
AcDbLine
 62
7
  6
CONTINUOUS
 10
-0.7407874709
 20
-24.4784208515
 11
1.0501714437
 21
-24.4784208515
  0
LINE
  5
284
100
AcDbEntity
  8
RACCORDO
100
AcDbLine
 62
7
  6
CONTINUOUS
 10
18.0842125291
 20
-24.4784208515
 11
19.8751714437
 21
-24.4784208515
  0
LINE
  5
285
100
AcDbEntity
  8
RACCORDO
100
AcDbLine
 62
253
  6
CONTINUOUS
 10
1.3001680168
 20
-24.2284242785
 11
-0.9907840439
 21
-24.2284242785
  0
LINE
  5
286
100
AcDbEntity
  8
RACCORDO
100
AcDbLine
 62
253
  6
CONTINUOUS
 10
-2.3748319832
 20
-24.2284242785
 11
-4.6657840439
 21
-24.2284242785
  0
LINE
  5
287
100
AcDbEntity
  8
RACCORDO
100
AcDbLine
 62
253
  6
CONTINUOUS
 10
17.8342159561
 20
-24.2284242785
 11
20.1251680168
 21
-24.2284242785
  0
LINE
  5
288
100
AcDbEntity
  8
RACCORDO
100
AcDbLine
 62
253
  6
CONTINUOUS
 10
-21.1998319832
 20
-24.2284242785
 11
-23.4907840439
 21
-24.2284242785
  0
LINE
  5
289
100
AcDbEntity
  8
RACCORDO
100
AcDbLine
 62
253
  6
CONTINUOUS
 10
-0.9907840439
 20
-23.8897823885
 11
1.3001680168
 21
-23.8897823885
  0
LINE
  5
28A
100
AcDbEntity
  8
RACCORDO
100
AcDbLine
 62
253
  6
CONTINUOUS
 10
-2.3748319832
 20
-23.8897823885
 11
-4.6657840439
 21
-23.8897823885
  0
LINE
  5
28B
100
AcDbEntity
  8
RACCORDO
100
AcDbLine
 62
253
  6
CONTINUOUS
 10
17.8342159561
 20
-23.8897823885
 11
20.1251680168
 21
-23.8897823885
  0
LINE
  5
28C
100
AcDbEntity
  8
RACCORDO
100
AcDbLine
 62
253
  6
CONTINUOUS
 10
-21.1998319832
 20
-23.8897823885
 11
-23.4907840439
 21
-23.8897823885
  0
LINE
  5
28D
100
AcDbEntity
  8
ASSI
100
AcDbLine
 62
7
  6
CONTINUOUS
 10
-17.3828080136
 20
-23.7954448212
 11
-16.4328080136
 21
-23.7954448212
  0
LINE
  5
28E
100
AcDbEntity
  8
ASSI
100
AcDbLine
 62
7
  6
CONTINUOUS
 10
-9.4328080136
 20
-23.7954448212
 11
-8.4828080136
 21
-23.7954448212
  0
LINE
  5
28F
100
AcDbEntity
  8
DRAFT
100
AcDbLine
 62
7
  6
CONTINUOUS
 10
14.0171919864
 20
-23.7954448212
 11
5.1171919864
 21
-23.7954448212
  0
LINE
  5
290
100
AcDbEntity
  8
ASSI
100
AcDbLine
 62
7
  6
CONTINUOUS
 10
5.1171919864
 20
-23.7954448212
 11
6.0671919864
 21
-23.7954448212
  0
LINE
  5
291
100
AcDbEntity
  8
ASSI
100
AcDbLine
 62
7
  6
CONTINUOUS
 10
13.0671919864
 20
-23.7954448212
 11
14.0171919864
 21
-23.7954448212
  0
LINE
  5
292
100
AcDbEntity
  8
DRAFT
100
AcDbLine
 62
7
  6
CONTINUOUS
 10
-8.4828080136
 20
-23.7954448212
 11
-17.3828080136
 21
-23.7954448212
  0
LINE
  5
293
100
AcDbEntity
  8
DRAFT
100
AcDbLine
 62
7
  6
CONTINUOUS
 10
13.0671919864
 20
-23.7849727499
 11
6.0671919864
 21
-23.7849727499
  0
LINE
  5
294
100
AcDbEntity
  8
DRAFT
100
AcDbLine
 62
7
  6
CONTINUOUS
 10
-9.4328080136
 20
-23.7849727499
 11
-16.4328080136
 21
-23.7849727499
  0
LINE
  5
295
100
AcDbEntity
  8
DRAFT
100
AcDbLine
 62
7
  6
CONTINUOUS
 10
-17.3697179246
 20
-23.7823547321
 11
-16.4328080136
 21
-23.7823547321
  0
LINE
  5
296
100
AcDbEntity
  8
DRAFT
100
AcDbLine
 62
7
  6
CONTINUOUS
 10
14.0041018974
 20
-23.7823547321
 11
13.0671919864
 21
-23.7823547321
  0
LINE
  5
297
100
AcDbEntity
  8
DRAFT
100
AcDbLine
 62
7
  6
CONTINUOUS
 10
-9.4328080136
 20
-23.7823547321
 11
-8.4958981026
 21
-23.7823547321
  0
LINE
  5
298
100
AcDbEntity
  8
DRAFT
100
AcDbLine
 62
7
  6
CONTINUOUS
 10
6.0671919864
 20
-23.7823547321
 11
5.1302820754
 21
-23.7823547321
  0
LINE
  5
299
100
AcDbEntity
  8
RACCORDO
100
AcDbLine
 62
253
  6
CONTINUOUS
 10
19.8751714437
 20
-23.6732760375
 11
18.0842125291
 21
-23.6732760375
  0
LINE
  5
29A
100
AcDbEntity
  8
RACCORDO
100
AcDbLine
 62
253
  6
CONTINUOUS
 10
1.0501714437
 20
-23.6732760375
 11
-0.7407874709
 21
-23.6732760375
  0
LINE
  5
29B
100
AcDbEntity
  8
RACCORDO
100
AcDbLine
 62
253
  6
CONTINUOUS
 10
-2.6248285563
 20
-23.6732760375
 11
-4.4157874709
 21
-23.6732760375
  0
LINE
  5
29C
100
AcDbEntity
  8
RACCORDO
100
AcDbLine
 62
253
  6
CONTINUOUS
 10
-21.4498285563
 20
-23.6732760375
 11
-23.2407874709
 21
-23.6732760375
  0
LINE
  5
29D
100
AcDbEntity
  8
RACCORDO
100
AcDbLine
 62
7
  6
CONTINUOUS
 10
-23.2460235065
 20
-23.168094552
 11
-21.4445925207
 21
-23.168094552
  0
LINE
  5
29E
100
AcDbEntity
  8
RACCORDO
100
AcDbLine
 62
7
  6
CONTINUOUS
 10
19.8804074793
 20
-23.168094552
 11
18.0789764935
 21
-23.168094552
  0
LINE
  5
29F
100
AcDbEntity
  8
DRAFT
100
AcDbLine
 62
7
  6
CONTINUOUS
 10
-17.3880440492
 20
-23.168094552
 11
-17.377571978
 21
-23.168094552
  0
LINE
  5
2A0
100
AcDbEntity
  8
DRAFT
100
AcDbLine
 62
7
  6
CONTINUOUS
 10
14.022428022
 20
-23.168094552
 11
14.0119559508
 21
-23.168094552
  0
LINE
  5
2A1
100
AcDbEntity
  8
RACCORDO
100
AcDbLine
 62
7
  6
CONTINUOUS
 10
-0.7460235065
 20
-23.168094552
 11
1.0554074793
 21
-23.168094552
  0
LINE
  5
2A2
100
AcDbEntity
  8
RACCORDO
100
AcDbLine
 62
7
  6
CONTINUOUS
 10
-2.6195925207
 20
-23.168094552
 11
-4.4210235065
 21
-23.168094552
  0
LINE
  5
2A3
100
AcDbEntity
  8
DRAFT
100
AcDbLine
 62
7
  6
CONTINUOUS
 10
5.1119559508
 20
-23.168094552
 11
5.122428022
 21
-23.168094552
  0
LINE
  5
2A4
100
AcDbEntity
  8
DRAFT
100
AcDbLine
 62
7
  6
CONTINUOUS
 10
-8.477571978
 20
-23.168094552
 11
-8.4880440492
 21
-23.168094552
  0
LINE
  5
2A5
100
AcDbEntity
  8
RACCORDO
100
AcDbLine
 62
7
  6
CONTINUOUS
 10
-21.1880440492
 20
-22.3954448212
 11
-17.3880440492
 21
-22.3954448212
  0
LINE
  5
2A6
100
AcDbEntity
  8
ASSI
100
AcDbLine
 62
7
  6
CONTINUOUS
 10
-21.1880440492
 20
-22.3954448212
 11
-17.3880440492
 21
-22.3954448212
  0
LINE
  5
2A7
100
AcDbEntity
  8
DRAFT
100
AcDbLine
 62
7
  6
CONTINUOUS
 10
-8.477571978
 20
-22.3954448212
 11
-4.677571978
 21
-22.3954448212
  0
LINE
  5
2A8
100
AcDbEntity
  8
ASSI
100
AcDbLine
 62
7
  6
CONTINUOUS
 10
-8.477571978
 20
-22.3954448212
 11
-4.677571978
 21
-22.3954448212
  0
LINE
  5
2A9
100
AcDbEntity
  8
DRAFT
100
AcDbLine
 62
7
  6
CONTINUOUS
 10
-2.3630440492
 20
-22.3954448212
 11
-1.002571978
 21
-22.3954448212
  0
LINE
  5
2AA
100
AcDbEntity
  8
ASSI
100
AcDbLine
 62
7
  6
CONTINUOUS
 10
-2.3630440492
 20
-22.3954448212
 11
-1.002571978
 21
-22.3954448212
  0
LINE
  5
2AB
100
AcDbEntity
  8
DRAFT
100
AcDbLine
 62
7
  6
CONTINUOUS
 10
1.3119559508
 20
-22.3954448212
 11
5.1119559508
 21
-22.3954448212
  0
LINE
  5
2AC
100
AcDbEntity
  8
ASSI
100
AcDbLine
 62
7
  6
CONTINUOUS
 10
1.3119559508
 20
-22.3954448212
 11
5.1119559508
 21
-22.3954448212
  0
LINE
  5
2AD
100
AcDbEntity
  8
RACCORDO
100
AcDbLine
 62
7
  6
CONTINUOUS
 10
14.022428022
 20
-22.3954448212
 11
17.822428022
 21
-22.3954448212
  0
LINE
  5
2AE
100
AcDbEntity
  8
ASSI
100
AcDbLine
 62
7
  6
CONTINUOUS
 10
14.022428022
 20
-22.3954448212
 11
17.822428022
 21
-22.3954448212
  0
LINE
  5
2AF
100
AcDbEntity
  8
RACCORDO
100
AcDbLine
 62
7
  6
CONTINUOUS
 10
20.1674013117
 20
-22.3454448212
 11
20.1369559508
 21
-22.3454448212
  0
LINE
  5
2B0
100
AcDbEntity
  8
DRAFT
100
AcDbLine
 62
7
  6
CONTINUOUS
 10
17.822428022
 20
-22.3454448212
 11
14.0119559508
 21
-22.3454448212
  0
LINE
  5
2B1
100
AcDbEntity
  8
DRAFT
100
AcDbLine
 62
7
  6
CONTINUOUS
 10
-1.002571978
 20
-22.3454448212
 11
-2.3630440492
 21
-22.3454448212
  0
LINE
  5
2B2
100
AcDbEntity
  8
DRAFT
100
AcDbLine
 62
7
  6
CONTINUOUS
 10
1.3119559508
 20
-22.3454448212
 11
5.122428022
 21
-22.3454448212
  0
LINE
  5
2B3
100
AcDbEntity
  8
DRAFT
100
AcDbLine
 62
7
  6
CONTINUOUS
 10
-4.677571978
 20
-22.3454448212
 11
-8.4880440492
 21
-22.3454448212
  0
LINE
  5
2B4
100
AcDbEntity
  8
DRAFT
100
AcDbLine
 62
7
  6
CONTINUOUS
 10
-17.377571978
 20
-22.3454448212
 11
-21.1880440492
 21
-22.3454448212
  0
LINE
  5
2B5
100
AcDbEntity
  8
RACCORDO
100
AcDbLine
 62
7
  6
CONTINUOUS
 10
-23.502571978
 20
-22.3454448212
 11
-23.5330173389
 21
-22.3454448212
  0
LINE
  5
2B6
100
AcDbEntity
  8
0
100
AcDbLine
 62
7
  6
CONTINUOUS
 10
-16.4328080136
 20
-22.2930370419
 11
-9.4328080136
 21
-22.2930370419
  0
LINE
  5
2B7
100
AcDbEntity
  8
0
100
AcDbLine
 62
7
  6
CONTINUOUS
 10
6.0671919864
 20
-22.2930370419
 11
13.0671919864
 21
-22.2930370419
  0
LINE
  5
2B8
100
AcDbEntity
  8
RACCORDO
100
AcDbLine
 62
7
  6
CONTINUOUS
 10
-23.2460235065
 20
-22.2668331522
 11
-21.4445925207
 21
-22.2668331522
  0
LINE
  5
2B9
100
AcDbEntity
  8
RACCORDO
100
AcDbLine
 62
7
  6
CONTINUOUS
 10
19.8804074793
 20
-22.2668331522
 11
18.0789764935
 21
-22.2668331522
  0
LINE
  5
2BA
100
AcDbEntity
  8
DRAFT
100
AcDbLine
 62
7
  6
CONTINUOUS
 10
14.0041018974
 20
-22.2668331522
 11
13.0671919864
 21
-22.2668331522
  0
LINE
  5
2BB
100
AcDbEntity
  8
DRAFT
100
AcDbLine
 62
7
  6
CONTINUOUS
 10
6.0671919864
 20
-22.2668331522
 11
5.1302820754
 21
-22.2668331522
  0
LINE
  5
2BC
100
AcDbEntity
  8
RACCORDO
100
AcDbLine
 62
7
  6
CONTINUOUS
 10
-4.4210235065
 20
-22.2668331522
 11
-2.6195925207
 21
-22.2668331522
  0
LINE
  5
2BD
100
AcDbEntity
  8
RACCORDO
100
AcDbLine
 62
7
  6
CONTINUOUS
 10
1.0554074793
 20
-22.2668331522
 11
-0.7460235065
 21
-22.2668331522
  0
LINE
  5
2BE
100
AcDbEntity
  8
DRAFT
100
AcDbLine
 62
7
  6
CONTINUOUS
 10
-8.4958981026
 20
-22.2668331522
 11
-9.4328080136
 21
-22.2668331522
  0
LINE
  5
2BF
100
AcDbEntity
  8
DRAFT
100
AcDbLine
 62
7
  6
CONTINUOUS
 10
-16.4328080136
 20
-22.2668331522
 11
-17.3697179246
 21
-22.2668331522
  0
LINE
  5
2C0
100
AcDbEntity
  8
DRAFT
100
AcDbLine
 62
7
  6
CONTINUOUS
 10
-8.4828080136
 20
-23.7954448212
 11
-8.4958981026
 21
-23.7823547321
  0
LINE
  5
2C1
100
AcDbEntity
  8
DRAFT
100
AcDbLine
 62
7
  6
CONTINUOUS
 10
-17.3880440492
 20
-23.168094552
 11
-17.3828080136
 21
-23.7454135712
  0
LINE
  5
2C2
100
AcDbEntity
  8
DRAFT
100
AcDbLine
 62
7
  6
CONTINUOUS
 10
-17.3828080136
 20
23.7545239288
 11
-17.377571978
 21
23.1772049097
  0
LINE
  5
2C3
100
AcDbEntity
  8
DRAFT
100
AcDbLine
 62
7
  6
CONTINUOUS
 10
-17.3880440492
 20
-22.3454448212
 11
-17.3880440492
 21
-23.168094552
  0
LINE
  5
2C4
100
AcDbEntity
  8
DRAFT
100
AcDbLine
 62
7
  6
CONTINUOUS
 10
-17.3880440492
 20
22.3545551788
 11
-17.3880440492
 21
23.1772049097
  0
LINE
  5
2C5
100
AcDbEntity
  8
DRAFT
100
AcDbLine
 62
7
  6
CONTINUOUS
 10
-17.3828080136
 20
23.8045551788
 11
-17.3828080136
 21
23.7545239288
  0
LINE
  5
2C6
100
AcDbEntity
  8
DRAFT
100
AcDbLine
 62
7
  6
CONTINUOUS
 10
-17.3828080136
 20
-23.7954448212
 11
-17.3828080136
 21
-23.7454135712
  0
LINE
  5
2C7
100
AcDbEntity
  8
ASSI
100
AcDbLine
 62
7
  6
CONTINUOUS
 10
-17.3828080136
 20
-23.7954448212
 11
-17.3828080136
 21
-23.7454135712
  0
LINE
  5
2C8
100
AcDbEntity
  8
ASSI
100
AcDbLine
 62
7
  6
CONTINUOUS
 10
-17.3828080136
 20
23.7545239288
 11
-17.3828080136
 21
23.8045551788
  0
LINE
  5
2C9
100
AcDbEntity
  8
DRAFT
100
AcDbLine
 62
7
  6
CONTINUOUS
 10
-17.377571978
 20
-22.3454448212
 11
-17.377571978
 21
-23.168094552
  0
LINE
  5
2CA
100
AcDbEntity
  8
DRAFT
100
AcDbLine
 62
7
  6
CONTINUOUS
 10
-17.377571978
 20
22.3545551788
 11
-17.377571978
 21
23.1772049097
  0
LINE
  5
2CB
100
AcDbEntity
  8
DRAFT
100
AcDbLine
 62
7
  6
CONTINUOUS
 10
-17.3697179246
 20
23.7914650898
 11
-17.3697179246
 21
22.2759435099
  0
LINE
  5
2CC
100
AcDbEntity
  8
DRAFT
100
AcDbLine
 62
7
  6
CONTINUOUS
 10
-17.3697179246
 20
-22.2668331522
 11
-17.3697179246
 21
-23.7823547321
  0
LINE
  5
2CD
100
AcDbEntity
  8
DRAFT
100
AcDbLine
 62
7
  6
CONTINUOUS
 10
-17.3828080136
 20
23.7545239288
 11
-17.3880440492
 21
23.1772049097
  0
LINE
  5
2CE
100
AcDbEntity
  8
DRAFT
100
AcDbLine
 62
7
  6
CONTINUOUS
 10
-17.377571978
 20
-23.168094552
 11
-17.3828080136
 21
-23.7454135712
  0
LINE
  5
2CF
100
AcDbEntity
  8
RACCORDO
100
AcDbLine
 62
253
  6
CONTINUOUS
 10
-2.6248285563
 20
24.4875312092
 11
-2.6078045866
 21
24.5045551788
  0
LINE
  5
2D0
100
AcDbEntity
  8
RACCORDO
100
AcDbLine
 62
253
  6
CONTINUOUS
 10
-2.3748319832
 20
24.2375346361
 11
-2.3578080136
 21
24.2545586058
  0
LINE
  5
2D1
100
AcDbEntity
  8
RACCORDO
100
AcDbLine
 62
253
  6
CONTINUOUS
 10
20.0338870577
 20
-21.944062088
 11
-23.3995030849
 21
-21.944062088
  0
LINE
  5
2D2
100
AcDbEntity
  8
RACCORDO
100
AcDbLine
 62
253
  6
CONTINUOUS
 10
20.0173602149
 20
-20.507654372
 11
0.4910990737
 21
-20.5076447373
  0
LINE
  5
2D3
100
AcDbEntity
  8
RACCORDO
100
AcDbLine
 62
253
  6
CONTINUOUS
 10
-3.8567153103
 20
-20.5076446389
 11
-23.3829762421
 21
-20.507654372
  0
LINE
  5
2D4
100
AcDbEntity
  8
RACCORDO
100
AcDbLine
 62
253
  6
CONTINUOUS
 10
-2.6248285563
 20
-24.4784208515
 11
-2.6078045866
 21
-24.4954448212
  0
LINE
  5
2D5
100
AcDbEntity
  8
RACCORDO
100
AcDbLine
 62
253
  6
CONTINUOUS
 10
-2.3748319832
 20
-24.2284242785
 11
-2.3578080136
 21
-24.2454482481
  0
LINE
  5
2D6
100
AcDbEntity
  8
DRAFT
100
AcDbLine
 62
7
  6
CONTINUOUS
 10
-16.4328080136
 20
-23.7823547321
 11
-16.4328080136
 21
-22.2668331522
  0
LINE
  5
2D7
100
AcDbEntity
  8
DRAFT
100
AcDbLine
 62
7
  6
CONTINUOUS
 10
-16.4328080136
 20
22.2759435099
 11
-16.4328080136
 21
23.7914650898
  0
LINE
  5
2D8
100
AcDbEntity
  8
RACCORDO
100
AcDbLine
 62
253
  6
CONTINUOUS
 10
-23.8994269324
 20
-21.4447473206
 11
-24.0328080136
 21
-21.8452159691
  0
LINE
  5
2D9
100
AcDbEntity
  8
RACCORDO
100
AcDbLine
 62
253
  6
CONTINUOUS
 10
-23.3995030849
 20
-21.944062088
 11
-23.5331886133
 21
-22.3454448212
  0
LINE
  5
2DA
100
AcDbEntity
  8
RACCORDO
100
AcDbLine
 62
253
  6
CONTINUOUS
 10
1.0501714437
 20
24.4875312092
 11
1.0671954134
 21
24.5045551788
  0
LINE
  5
2DB
100
AcDbEntity
  8
RACCORDO
100
AcDbLine
 62
253
  6
CONTINUOUS
 10
1.3001680168
 20
24.2375346361
 11
1.3171919864
 21
24.2545586058
  0
LINE
  5
2DC
100
AcDbEntity
  8
RACCORDO
100
AcDbLine
 62
253
  6
CONTINUOUS
 10
1.0501714437
 20
-24.4784208515
 11
1.0671954134
 21
-24.4954448212
  0
LINE
  5
2DD
100
AcDbEntity
  8
RACCORDO
100
AcDbLine
 62
253
  6
CONTINUOUS
 10
1.3001680168
 20
-24.2284242785
 11
1.3171919864
 21
-24.2454482481
  0
LINE
  5
2DE
100
AcDbEntity
  8
0
100
AcDbLine
 62
7
  6
CONTINUOUS
 10
-9.9323871274
 20
-13.0585185652
 11
-9.6602216004
 21
-13.4434187447
  0
LINE
  5
2DF
100
AcDbEntity
  8
RACCORDO
100
AcDbLine
 62
253
  6
CONTINUOUS
 10
-24.0328080136
 20
21.8543263268
 11
-23.8994269324
 21
21.4538576783
  0
LINE
  5
2E0
100
AcDbEntity
  8
RACCORDO
100
AcDbLine
 62
253
  6
CONTINUOUS
 10
-23.5331886133
 20
22.3545551788
 11
-23.3995030849
 21
21.9531724457
  0
LINE
  5
2E1
100
AcDbEntity
  8
0
100
AcDbLine
 62
7
  6
CONTINUOUS
 10
-10.4328080136
 20
-11.16717253
 11
-10.4328080136
 21
-11.6001852319
  0
LINE
  5
2E2
100
AcDbEntity
  8
DRAFT
100
AcDbLine
 62
7
  6
CONTINUOUS
 10
-9.4328080136
 20
23.7914650898
 11
-9.4328080136
 21
22.2759435099
  0
LINE
  5
2E3
100
AcDbEntity
  8
DRAFT
100
AcDbLine
 62
7
  6
CONTINUOUS
 10
-9.4328080136
 20
-22.2668331522
 11
-9.4328080136
 21
-23.7823547321
  0
LINE
  5
2E4
100
AcDbEntity
  8
DRAFT
100
AcDbLine
 62
7
  6
CONTINUOUS
 10
-8.4880440492
 20
-23.168094552
 11
-8.4828080136
 21
-23.7454135712
  0
LINE
  5
2E5
100
AcDbEntity
  8
DRAFT
100
AcDbLine
 62
7
  6
CONTINUOUS
 10
-8.4828080136
 20
23.7545551788
 11
-8.477571978
 21
23.1772049097
  0
LINE
  5
2E6
100
AcDbEntity
  8
DRAFT
100
AcDbLine
 62
7
  6
CONTINUOUS
 10
-8.4958981026
 20
-23.7823547321
 11
-8.4958981026
 21
-22.2668331522
  0
LINE
  5
2E7
100
AcDbEntity
  8
DRAFT
100
AcDbLine
 62
7
  6
CONTINUOUS
 10
-8.4958981026
 20
22.2759435099
 11
-8.4958981026
 21
23.7914650898
  0
LINE
  5
2E8
100
AcDbEntity
  8
DRAFT
100
AcDbLine
 62
7
  6
CONTINUOUS
 10
-8.4880440492
 20
-22.3454448212
 11
-8.4880440492
 21
-23.168094552
  0
LINE
  5
2E9
100
AcDbEntity
  8
DRAFT
100
AcDbLine
 62
7
  6
CONTINUOUS
 10
-8.4880440492
 20
22.3545551788
 11
-8.4880440492
 21
23.1772049097
  0
LINE
  5
2EA
100
AcDbEntity
  8
DRAFT
100
AcDbLine
 62
7
  6
CONTINUOUS
 10
-8.4828080136
 20
23.8045551788
 11
-8.4828080136
 21
23.7545551788
  0
LINE
  5
2EB
100
AcDbEntity
  8
DRAFT
100
AcDbLine
 62
7
  6
CONTINUOUS
 10
-8.4828080136
 20
-23.7954448212
 11
-8.4828080136
 21
-23.7454135712
  0
LINE
  5
2EC
100
AcDbEntity
  8
ASSI
100
AcDbLine
 62
7
  6
CONTINUOUS
 10
-8.4828080136
 20
-23.7954448212
 11
-8.4828080136
 21
-23.7454135712
  0
LINE
  5
2ED
100
AcDbEntity
  8
ASSI
100
AcDbLine
 62
7
  6
CONTINUOUS
 10
-8.4828080136
 20
23.7545551788
 11
-8.4828080136
 21
23.8045551788
  0
LINE
  5
2EE
100
AcDbEntity
  8
DRAFT
100
AcDbLine
 62
7
  6
CONTINUOUS
 10
-8.477571978
 20
-22.3454448212
 11
-8.477571978
 21
-23.168094552
  0
LINE
  5
2EF
100
AcDbEntity
  8
DRAFT
100
AcDbLine
 62
7
  6
CONTINUOUS
 10
-8.477571978
 20
22.3545551788
 11
-8.477571978
 21
23.1772049097
  0
LINE
  5
2F0
100
AcDbEntity
  8
DRAFT
100
AcDbLine
 62
7
  6
CONTINUOUS
 10
-8.4828080136
 20
23.7545551788
 11
-8.4880440492
 21
23.1772049097
  0
LINE
  5
2F1
100
AcDbEntity
  8
DRAFT
100
AcDbLine
 62
7
  6
CONTINUOUS
 10
-8.477571978
 20
-23.168094552
 11
-8.4828080136
 21
-23.7454135712
  0
LINE
  5
2F2
100
AcDbEntity
  8
DRAFT
100
AcDbLine
 62
7
  6
CONTINUOUS
 10
14.0041018974
 20
23.7914650898
 11
14.0171919864
 21
23.8045551788
  0
LINE
  5
2F3
100
AcDbEntity
  8
DRAFT
100
AcDbLine
 62
7
  6
CONTINUOUS
 10
14.0171919864
 20
-23.7954448212
 11
14.0041018974
 21
-23.7823547321
  0
LINE
  5
2F4
100
AcDbEntity
  8
RACCORDO
100
AcDbLine
 62
253
  6
CONTINUOUS
 10
-4.6657840439
 20
-23.8897823885
 11
-4.6710200795
 21
-23.3124321193
  0
LINE
  5
2F5
100
AcDbEntity
  8
RACCORDO
100
AcDbLine
 62
253
  6
CONTINUOUS
 10
-4.4157874709
 20
-23.6732760375
 11
-4.420369002
 21
-23.168094552
  0
LINE
  5
2F6
100
AcDbEntity
  8
DRAFT
100
AcDbLine
 62
7
  6
CONTINUOUS
 10
-4.6828080136
 20
23.7545551788
 11
-4.677571978
 21
23.1772049097
  0
LINE
  5
2F7
100
AcDbEntity
  8
DRAFT
100
AcDbLine
 62
7
  6
CONTINUOUS
 10
-2.3630440492
 20
-23.168094552
 11
-2.3578080136
 21
-23.7454448212
  0
LINE
  5
2F8
100
AcDbEntity
  8
RACCORDO
100
AcDbLine
 62
253
  6
CONTINUOUS
 10
-2.6248285563
 20
23.6823863952
 11
-2.6202470251
 21
23.1772049097
  0
LINE
  5
2F9
100
AcDbEntity
  8
RACCORDO
100
AcDbLine
 62
253
  6
CONTINUOUS
 10
-2.3748319832
 20
23.8988927461
 11
-2.3695959476
 21
23.321542477
  0
LINE
  5
2FA
100
AcDbEntity
  8
RACCORDO
100
AcDbLine
 62
7
  6
CONTINUOUS
 10
-4.6828080136
 20
24.2545586058
 11
-4.6828080136
 21
23.7545551788
  0
LINE
  5
2FB
100
AcDbEntity
  8
RACCORDO
100
AcDbLine
 62
7
  6
CONTINUOUS
 10
-4.6828080136
 20
-23.7454448212
 11
-4.6828080136
 21
-24.2454482481
  0
LINE
  5
2FC
100
AcDbEntity
  8
DRAFT
100
AcDbLine
 62
7
  6
CONTINUOUS
 10
-4.677571978
 20
-23.168094552
 11
-4.677571978
 21
-22.3454448212
  0
LINE
  5
2FD
100
AcDbEntity
  8
DRAFT
100
AcDbLine
 62
7
  6
CONTINUOUS
 10
-4.677571978
 20
22.3545551788
 11
-4.677571978
 21
23.1772049097
  0
LINE
  5
2FE
100
AcDbEntity
  8
RACCORDO
100
AcDbLine
 62
7
  6
CONTINUOUS
 10
-4.6710200795
 20
23.321542477
 11
-4.6710200795
 21
22.2889768534
  0
LINE
  5
2FF
100
AcDbEntity
  8
RACCORDO
100
AcDbLine
 62
7
  6
CONTINUOUS
 10
-4.6710200795
 20
-22.2798664957
 11
-4.6710200795
 21
-23.3124321193
  0
LINE
  5
300
100
AcDbEntity
  8
RACCORDO
100
AcDbLine
 62
7
  6
CONTINUOUS
 10
-4.6657840439
 20
24.2375346361
 11
-4.6657840439
 21
23.8988927461
  0
LINE
  5
301
100
AcDbEntity
  8
RACCORDO
100
AcDbLine
 62
7
  6
CONTINUOUS
 10
-4.6657840439
 20
-23.8897823885
 11
-4.6657840439
 21
-24.2284242785
  0
LINE
  5
302
100
AcDbEntity
  8
RACCORDO
100
AcDbLine
 62
253
  6
CONTINUOUS
 10
-4.4210235065
 20
23.1772049097
 11
-4.4210235065
 21
22.2759435099
  0
LINE
  5
303
100
AcDbEntity
  8
RACCORDO
100
AcDbLine
 62
253
  6
CONTINUOUS
 10
-4.4210235065
 20
-22.2668331522
 11
-4.4210235065
 21
-23.168094552
  0
LINE
  5
304
100
AcDbEntity
  8
RACCORDO
100
AcDbLine
 62
253
  6
CONTINUOUS
 10
-4.4157874709
 20
-23.6732760375
 11
-4.4157874709
 21
-24.4784208515
  0
LINE
  5
305
100
AcDbEntity
  8
RACCORDO
100
AcDbLine
 62
253
  6
CONTINUOUS
 10
-4.4157874709
 20
23.6823863952
 11
-4.4157874709
 21
24.4875312092
  0
LINE
  5
306
100
AcDbEntity
  8
RACCORDO
100
AcDbLine
 62
253
  6
CONTINUOUS
 10
-2.6248285563
 20
-23.6732760375
 11
-2.6248285563
 21
-24.4784208515
  0
LINE
  5
307
100
AcDbEntity
  8
RACCORDO
100
AcDbLine
 62
253
  6
CONTINUOUS
 10
-2.6248285563
 20
23.6823863952
 11
-2.6248285563
 21
24.4875312092
  0
LINE
  5
308
100
AcDbEntity
  8
RACCORDO
100
AcDbLine
 62
253
  6
CONTINUOUS
 10
-2.6195925207
 20
-23.168094552
 11
-2.6195925207
 21
-22.2668331522
  0
LINE
  5
309
100
AcDbEntity
  8
RACCORDO
100
AcDbLine
 62
253
  6
CONTINUOUS
 10
-2.6195925207
 20
22.2759435099
 11
-2.6195925207
 21
23.1772049097
  0
LINE
  5
30A
100
AcDbEntity
  8
RACCORDO
100
AcDbLine
 62
7
  6
CONTINUOUS
 10
-2.3748319832
 20
-24.2284242785
 11
-2.3748319832
 21
-23.8897823885
  0
LINE
  5
30B
100
AcDbEntity
  8
RACCORDO
100
AcDbLine
 62
7
  6
CONTINUOUS
 10
-2.3748319832
 20
23.8988927461
 11
-2.3748319832
 21
24.2375346361
  0
LINE
  5
30C
100
AcDbEntity
  8
RACCORDO
100
AcDbLine
 62
7
  6
CONTINUOUS
 10
-2.3695959476
 20
-23.3124321193
 11
-2.3695959476
 21
-22.2798664957
  0
LINE
  5
30D
100
AcDbEntity
  8
RACCORDO
100
AcDbLine
 62
7
  6
CONTINUOUS
 10
-2.3695959476
 20
22.2889768534
 11
-2.3695959476
 21
23.321542477
  0
LINE
  5
30E
100
AcDbEntity
  8
DRAFT
100
AcDbLine
 62
7
  6
CONTINUOUS
 10
-2.3630440492
 20
23.1772049097
 11
-2.3630440492
 21
22.3545551788
  0
LINE
  5
30F
100
AcDbEntity
  8
DRAFT
100
AcDbLine
 62
7
  6
CONTINUOUS
 10
-2.3630440492
 20
-22.3454448212
 11
-2.3630440492
 21
-23.168094552
  0
LINE
  5
310
100
AcDbEntity
  8
RACCORDO
100
AcDbLine
 62
7
  6
CONTINUOUS
 10
-2.3578080136
 20
-24.2454482481
 11
-2.3578080136
 21
-23.7454448212
  0
LINE
  5
311
100
AcDbEntity
  8
RACCORDO
100
AcDbLine
 62
7
  6
CONTINUOUS
 10
-2.3578080136
 20
23.7545551788
 11
-2.3578080136
 21
24.2545586058
  0
LINE
  5
312
100
AcDbEntity
  8
RACCORDO
100
AcDbLine
 62
253
  6
CONTINUOUS
 10
-4.6710200795
 20
23.321542477
 11
-4.6657840439
 21
23.8988927461
  0
LINE
  5
313
100
AcDbEntity
  8
RACCORDO
100
AcDbLine
 62
253
  6
CONTINUOUS
 10
-4.420369002
 20
23.1772049097
 11
-4.4157874709
 21
23.6823863952
  0
LINE
  5
314
100
AcDbEntity
  8
DRAFT
100
AcDbLine
 62
7
  6
CONTINUOUS
 10
-4.677571978
 20
-23.168094552
 11
-4.6828080136
 21
-23.7454448212
  0
LINE
  5
315
100
AcDbEntity
  8
DRAFT
100
AcDbLine
 62
7
  6
CONTINUOUS
 10
-2.3578080136
 20
23.7545551788
 11
-2.3630440492
 21
23.1772049097
  0
LINE
  5
316
100
AcDbEntity
  8
RACCORDO
100
AcDbLine
 62
253
  6
CONTINUOUS
 10
-2.6202470251
 20
-23.168094552
 11
-2.6248285563
 21
-23.6732760375
  0
LINE
  5
317
100
AcDbEntity
  8
RACCORDO
100
AcDbLine
 62
253
  6
CONTINUOUS
 10
-2.3695959476
 20
-23.3124321193
 11
-2.3748319832
 21
-23.8897823885
  0
LINE
  5
318
100
AcDbEntity
  8
RACCORDO
100
AcDbLine
 62
253
  6
CONTINUOUS
 10
19.8751714437
 20
24.4875312092
 11
19.8921954134
 21
24.5045551788
  0
LINE
  5
319
100
AcDbEntity
  8
RACCORDO
100
AcDbLine
 62
253
  6
CONTINUOUS
 10
20.1251680168
 20
24.2375346361
 11
20.1421919864
 21
24.2545586058
  0
LINE
  5
31A
100
AcDbEntity
  8
RACCORDO
100
AcDbLine
 62
253
  6
CONTINUOUS
 10
19.8751714437
 20
-24.4784208515
 11
19.8921954134
 21
-24.4954448212
  0
LINE
  5
31B
100
AcDbEntity
  8
RACCORDO
100
AcDbLine
 62
253
  6
CONTINUOUS
 10
20.1251680168
 20
-24.2284242785
 11
20.1421919864
 21
-24.2454482481
  0
LINE
  5
31C
100
AcDbEntity
  8
RACCORDO
100
AcDbLine
 62
253
  6
CONTINUOUS
 10
-0.9907840439
 20
-23.8897823885
 11
-0.9960200795
 21
-23.3124321193
  0
LINE
  5
31D
100
AcDbEntity
  8
RACCORDO
100
AcDbLine
 62
253
  6
CONTINUOUS
 10
-0.7407874709
 20
-23.6732760375
 11
-0.745369002
 21
-23.168094552
  0
LINE
  5
31E
100
AcDbEntity
  8
DRAFT
100
AcDbLine
 62
7
  6
CONTINUOUS
 10
-1.002571978
 20
23.1772049097
 11
-1.0078080136
 21
23.7545551788
  0
LINE
  5
31F
100
AcDbEntity
  8
DRAFT
100
AcDbLine
 62
7
  6
CONTINUOUS
 10
1.3171919864
 20
-23.7454448212
 11
1.3119559508
 21
-23.168094552
  0
LINE
  5
320
100
AcDbEntity
  8
RACCORDO
100
AcDbLine
 62
253
  6
CONTINUOUS
 10
1.0501714437
 20
23.6823863952
 11
1.0547529749
 21
23.1772049097
  0
LINE
  5
321
100
AcDbEntity
  8
RACCORDO
100
AcDbLine
 62
253
  6
CONTINUOUS
 10
1.3001680168
 20
23.8988927461
 11
1.3054040524
 21
23.321542477
  0
LINE
  5
322
100
AcDbEntity
  8
RACCORDO
100
AcDbLine
 62
7
  6
CONTINUOUS
 10
-1.0078080136
 20
24.2545586058
 11
-1.0078080136
 21
23.7545551788
  0
LINE
  5
323
100
AcDbEntity
  8
RACCORDO
100
AcDbLine
 62
7
  6
CONTINUOUS
 10
-1.0078080136
 20
-23.7454448212
 11
-1.0078080136
 21
-24.2454482481
  0
LINE
  5
324
100
AcDbEntity
  8
DRAFT
100
AcDbLine
 62
7
  6
CONTINUOUS
 10
-1.002571978
 20
23.1772049097
 11
-1.002571978
 21
22.3545551788
  0
LINE
  5
325
100
AcDbEntity
  8
DRAFT
100
AcDbLine
 62
7
  6
CONTINUOUS
 10
-1.002571978
 20
-22.3454448212
 11
-1.002571978
 21
-23.168094552
  0
LINE
  5
326
100
AcDbEntity
  8
RACCORDO
100
AcDbLine
 62
7
  6
CONTINUOUS
 10
-0.9960200795
 20
23.321542477
 11
-0.9960200795
 21
22.2889768534
  0
LINE
  5
327
100
AcDbEntity
  8
RACCORDO
100
AcDbLine
 62
7
  6
CONTINUOUS
 10
-0.9960200795
 20
-22.2798664957
 11
-0.9960200795
 21
-23.3124321193
  0
LINE
  5
328
100
AcDbEntity
  8
RACCORDO
100
AcDbLine
 62
7
  6
CONTINUOUS
 10
-0.9907840439
 20
24.2375346361
 11
-0.9907840439
 21
23.8988927461
  0
LINE
  5
329
100
AcDbEntity
  8
RACCORDO
100
AcDbLine
 62
7
  6
CONTINUOUS
 10
-0.9907840439
 20
-23.8897823885
 11
-0.9907840439
 21
-24.2284242785
  0
LINE
  5
32A
100
AcDbEntity
  8
RACCORDO
100
AcDbLine
 62
253
  6
CONTINUOUS
 10
-0.7460235065
 20
23.1772049097
 11
-0.7460235065
 21
22.2759435099
  0
LINE
  5
32B
100
AcDbEntity
  8
RACCORDO
100
AcDbLine
 62
253
  6
CONTINUOUS
 10
-0.7460235065
 20
-22.2668331522
 11
-0.7460235065
 21
-23.168094552
  0
LINE
  5
32C
100
AcDbEntity
  8
RACCORDO
100
AcDbLine
 62
253
  6
CONTINUOUS
 10
-0.7407874709
 20
-23.6732760375
 11
-0.7407874709
 21
-24.4784208515
  0
LINE
  5
32D
100
AcDbEntity
  8
RACCORDO
100
AcDbLine
 62
253
  6
CONTINUOUS
 10
-0.7407874709
 20
23.6823863952
 11
-0.7407874709
 21
24.4875312092
  0
LINE
  5
32E
100
AcDbEntity
  8
RACCORDO
100
AcDbLine
 62
253
  6
CONTINUOUS
 10
1.0501714437
 20
-23.6732760375
 11
1.0501714437
 21
-24.4784208515
  0
LINE
  5
32F
100
AcDbEntity
  8
RACCORDO
100
AcDbLine
 62
253
  6
CONTINUOUS
 10
1.0501714437
 20
23.6823863952
 11
1.0501714437
 21
24.4875312092
  0
LINE
  5
330
100
AcDbEntity
  8
RACCORDO
100
AcDbLine
 62
253
  6
CONTINUOUS
 10
1.0554074793
 20
-23.168094552
 11
1.0554074793
 21
-22.2668331522
  0
LINE
  5
331
100
AcDbEntity
  8
RACCORDO
100
AcDbLine
 62
253
  6
CONTINUOUS
 10
1.0554074793
 20
22.2759435099
 11
1.0554074793
 21
23.1772049097
  0
LINE
  5
332
100
AcDbEntity
  8
RACCORDO
100
AcDbLine
 62
7
  6
CONTINUOUS
 10
1.3001680168
 20
-24.2284242785
 11
1.3001680168
 21
-23.8897823885
  0
LINE
  5
333
100
AcDbEntity
  8
RACCORDO
100
AcDbLine
 62
7
  6
CONTINUOUS
 10
1.3001680168
 20
23.8988927461
 11
1.3001680168
 21
24.2375346361
  0
LINE
  5
334
100
AcDbEntity
  8
RACCORDO
100
AcDbLine
 62
7
  6
CONTINUOUS
 10
1.3054040524
 20
-23.3124321193
 11
1.3054040524
 21
-22.2798664957
  0
LINE
  5
335
100
AcDbEntity
  8
RACCORDO
100
AcDbLine
 62
7
  6
CONTINUOUS
 10
1.3054040524
 20
22.2889768534
 11
1.3054040524
 21
23.321542477
  0
LINE
  5
336
100
AcDbEntity
  8
DRAFT
100
AcDbLine
 62
7
  6
CONTINUOUS
 10
1.3119559508
 20
-23.168094552
 11
1.3119559508
 21
-22.3454448212
  0
LINE
  5
337
100
AcDbEntity
  8
DRAFT
100
AcDbLine
 62
7
  6
CONTINUOUS
 10
1.3119559508
 20
22.3545551788
 11
1.3119559508
 21
23.1772049097
  0
LINE
  5
338
100
AcDbEntity
  8
RACCORDO
100
AcDbLine
 62
7
  6
CONTINUOUS
 10
1.3171919864
 20
-24.2454482481
 11
1.3171919864
 21
-23.7454448212
  0
LINE
  5
339
100
AcDbEntity
  8
RACCORDO
100
AcDbLine
 62
7
  6
CONTINUOUS
 10
1.3171919864
 20
23.7545551788
 11
1.3171919864
 21
24.2545586058
  0
LINE
  5
33A
100
AcDbEntity
  8
RACCORDO
100
AcDbLine
 62
253
  6
CONTINUOUS
 10
-0.9960200795
 20
23.321542477
 11
-0.9907840439
 21
23.8988927461
  0
LINE
  5
33B
100
AcDbEntity
  8
RACCORDO
100
AcDbLine
 62
253
  6
CONTINUOUS
 10
-0.745369002
 20
23.1772049097
 11
-0.7407874709
 21
23.6823863952
  0
LINE
  5
33C
100
AcDbEntity
  8
DRAFT
100
AcDbLine
 62
7
  6
CONTINUOUS
 10
-1.0078080136
 20
-23.7454448212
 11
-1.002571978
 21
-23.168094552
  0
LINE
  5
33D
100
AcDbEntity
  8
DRAFT
100
AcDbLine
 62
7
  6
CONTINUOUS
 10
1.3119559508
 20
23.1772049097
 11
1.3171919864
 21
23.7545551788
  0
LINE
  5
33E
100
AcDbEntity
  8
RACCORDO
100
AcDbLine
 62
253
  6
CONTINUOUS
 10
1.0547529749
 20
-23.168094552
 11
1.0501714437
 21
-23.6732760375
  0
LINE
  5
33F
100
AcDbEntity
  8
RACCORDO
100
AcDbLine
 62
253
  6
CONTINUOUS
 10
1.3054040524
 20
-23.3124321193
 11
1.3001680168
 21
-23.8897823885
  0
LINE
  5
340
100
AcDbEntity
  8
RACCORDO
100
AcDbLine
 62
253
  6
CONTINUOUS
 10
-23.4907840439
 20
-24.2284242785
 11
-23.5078080136
 21
-24.2454482481
  0
LINE
  5
341
100
AcDbEntity
  8
RACCORDO
100
AcDbLine
 62
253
  6
CONTINUOUS
 10
-23.2407874709
 20
-24.4784208515
 11
-23.2578114405
 21
-24.4954448212
  0
LINE
  5
342
100
AcDbEntity
  8
RACCORDO
100
AcDbLine
 62
253
  6
CONTINUOUS
 10
-23.4907840439
 20
24.2375346361
 11
-23.5078080136
 21
24.2545586058
  0
LINE
  5
343
100
AcDbEntity
  8
RACCORDO
100
AcDbLine
 62
253
  6
CONTINUOUS
 10
-23.2407874709
 20
24.4875312092
 11
-23.2578114405
 21
24.5045551788
  0
LINE
  5
344
100
AcDbEntity
  8
DRAFT
100
AcDbLine
 62
7
  6
CONTINUOUS
 10
5.1119559508
 20
-23.168094552
 11
5.1171919864
 21
-23.7454135712
  0
LINE
  5
345
100
AcDbEntity
  8
DRAFT
100
AcDbLine
 62
7
  6
CONTINUOUS
 10
5.1171919864
 20
23.7545239288
 11
5.122428022
 21
23.1772049097
  0
LINE
  5
346
100
AcDbEntity
  8
DRAFT
100
AcDbLine
 62
7
  6
CONTINUOUS
 10
5.1119559508
 20
-22.3454448212
 11
5.1119559508
 21
-23.168094552
  0
LINE
  5
347
100
AcDbEntity
  8
DRAFT
100
AcDbLine
 62
7
  6
CONTINUOUS
 10
5.1119559508
 20
22.3545551788
 11
5.1119559508
 21
23.1772049097
  0
LINE
  5
348
100
AcDbEntity
  8
DRAFT
100
AcDbLine
 62
7
  6
CONTINUOUS
 10
5.1171919864
 20
23.8045551788
 11
5.1171919864
 21
23.7545239288
  0
LINE
  5
349
100
AcDbEntity
  8
DRAFT
100
AcDbLine
 62
7
  6
CONTINUOUS
 10
5.1171919864
 20
-23.7954448212
 11
5.1171919864
 21
-23.7454135712
  0
LINE
  5
34A
100
AcDbEntity
  8
ASSI
100
AcDbLine
 62
7
  6
CONTINUOUS
 10
5.1171919864
 20
-23.7954448212
 11
5.1171919864
 21
-23.7454135712
  0
LINE
  5
34B
100
AcDbEntity
  8
ASSI
100
AcDbLine
 62
7
  6
CONTINUOUS
 10
5.1171919864
 20
23.7545239288
 11
5.1171919864
 21
23.8045551788
  0
LINE
  5
34C
100
AcDbEntity
  8
DRAFT
100
AcDbLine
 62
7
  6
CONTINUOUS
 10
5.122428022
 20
-22.3454448212
 11
5.122428022
 21
-23.168094552
  0
LINE
  5
34D
100
AcDbEntity
  8
DRAFT
100
AcDbLine
 62
7
  6
CONTINUOUS
 10
5.122428022
 20
22.3545551788
 11
5.122428022
 21
23.1772049097
  0
LINE
  5
34E
100
AcDbEntity
  8
DRAFT
100
AcDbLine
 62
7
  6
CONTINUOUS
 10
5.1302820754
 20
23.7914650898
 11
5.1302820754
 21
22.2759435099
  0
LINE
  5
34F
100
AcDbEntity
  8
DRAFT
100
AcDbLine
 62
7
  6
CONTINUOUS
 10
5.1302820754
 20
-22.2668331522
 11
5.1302820754
 21
-23.7823547321
  0
LINE
  5
350
100
AcDbEntity
  8
DRAFT
100
AcDbLine
 62
7
  6
CONTINUOUS
 10
5.1171919864
 20
23.7545239288
 11
5.1119559508
 21
23.1772049097
  0
LINE
  5
351
100
AcDbEntity
  8
DRAFT
100
AcDbLine
 62
7
  6
CONTINUOUS
 10
5.122428022
 20
-23.168094552
 11
5.1171919864
 21
-23.7454135712
  0
LINE
  5
352
100
AcDbEntity
  8
DRAFT
100
AcDbLine
 62
7
  6
CONTINUOUS
 10
-17.3828080136
 20
-23.7954448212
 11
-17.3697179246
 21
-23.7823547321
  0
LINE
  5
353
100
AcDbEntity
  8
DRAFT
100
AcDbLine
 62
7
  6
CONTINUOUS
 10
-17.3828080136
 20
23.8045551788
 11
-17.3697179246
 21
23.7914650898
  0
LINE
  5
354
100
AcDbEntity
  8
DRAFT
100
AcDbLine
 62
7
  6
CONTINUOUS
 10
6.0671919864
 20
-23.7823547321
 11
6.0671919864
 21
-22.2668331522
  0
LINE
  5
355
100
AcDbEntity
  8
DRAFT
100
AcDbLine
 62
7
  6
CONTINUOUS
 10
6.0671919864
 20
22.2759435099
 11
6.0671919864
 21
23.7914650898
  0
LINE
  5
356
100
AcDbEntity
  8
0
100
AcDbLine
 62
7
  6
CONTINUOUS
 10
7.0671919864
 20
-11.16717253
 11
7.0671919864
 21
-11.6001852319
  0
LINE
  5
357
100
AcDbEntity
  8
DRAFT
100
AcDbLine
 62
7
  6
CONTINUOUS
 10
13.0671919864
 20
23.7914650898
 11
13.0671919864
 21
22.2759435099
  0
LINE
  5
358
100
AcDbEntity
  8
DRAFT
100
AcDbLine
 62
7
  6
CONTINUOUS
 10
13.0671919864
 20
-22.2668331522
 11
13.0671919864
 21
-23.7823547321
  0
LINE
  5
359
100
AcDbEntity
  8
RACCORDO
100
AcDbLine
 62
253
  6
CONTINUOUS
 10
20.0338870577
 20
21.9531724457
 11
20.1675725862
 21
22.3545551788
  0
LINE
  5
35A
100
AcDbEntity
  8
RACCORDO
100
AcDbLine
 62
253
  6
CONTINUOUS
 10
20.5338109053
 20
21.4538576783
 11
20.6671919864
 21
21.8543263268
  0
LINE
  5
35B
100
AcDbEntity
  8
0
100
AcDbLine
 62
7
  6
CONTINUOUS
 10
6.5667711003
 20
-13.0585185652
 11
6.2946055733
 21
-13.4434187447
  0
LINE
  5
35C
100
AcDbEntity
  8
RACCORDO
100
AcDbLine
 62
253
  6
CONTINUOUS
 10
20.1675725862
 20
-22.3454448212
 11
20.0338870577
 21
-21.944062088
  0
LINE
  5
35D
100
AcDbEntity
  8
RACCORDO
100
AcDbLine
 62
253
  6
CONTINUOUS
 10
20.6671919864
 20
-21.8452159691
 11
20.5338109053
 21
-21.4447473206
  0
LINE
  5
35E
100
AcDbEntity
  8
DRAFT
100
AcDbLine
 62
7
  6
CONTINUOUS
 10
14.0119559508
 20
-23.168094552
 11
14.0171919864
 21
-23.7454135712
  0
LINE
  5
35F
100
AcDbEntity
  8
DRAFT
100
AcDbLine
 62
7
  6
CONTINUOUS
 10
14.0171919864
 20
23.7545551788
 11
14.022428022
 21
23.1772049097
  0
LINE
  5
360
100
AcDbEntity
  8
DRAFT
100
AcDbLine
 62
7
  6
CONTINUOUS
 10
14.0041018974
 20
-23.7823547321
 11
14.0041018974
 21
-22.2668331522
  0
LINE
  5
361
100
AcDbEntity
  8
DRAFT
100
AcDbLine
 62
7
  6
CONTINUOUS
 10
14.0041018974
 20
22.2759435099
 11
14.0041018974
 21
23.7914650898
  0
LINE
  5
362
100
AcDbEntity
  8
DRAFT
100
AcDbLine
 62
7
  6
CONTINUOUS
 10
14.0119559508
 20
-22.3454448212
 11
14.0119559508
 21
-23.168094552
  0
LINE
  5
363
100
AcDbEntity
  8
DRAFT
100
AcDbLine
 62
7
  6
CONTINUOUS
 10
14.0119559508
 20
22.3545551788
 11
14.0119559508
 21
23.1772049097
  0
LINE
  5
364
100
AcDbEntity
  8
DRAFT
100
AcDbLine
 62
7
  6
CONTINUOUS
 10
14.0171919864
 20
23.8045551788
 11
14.0171919864
 21
23.7545551788
  0
LINE
  5
365
100
AcDbEntity
  8
DRAFT
100
AcDbLine
 62
7
  6
CONTINUOUS
 10
14.0171919864
 20
-23.7954448212
 11
14.0171919864
 21
-23.7454135712
  0
LINE
  5
366
100
AcDbEntity
  8
ASSI
100
AcDbLine
 62
7
  6
CONTINUOUS
 10
14.0171919864
 20
-23.7954448212
 11
14.0171919864
 21
-23.7454135712
  0
LINE
  5
367
100
AcDbEntity
  8
ASSI
100
AcDbLine
 62
7
  6
CONTINUOUS
 10
14.0171919864
 20
23.7545551788
 11
14.0171919864
 21
23.8045551788
  0
LINE
  5
368
100
AcDbEntity
  8
DRAFT
100
AcDbLine
 62
7
  6
CONTINUOUS
 10
14.022428022
 20
-22.3454448212
 11
14.022428022
 21
-23.168094552
  0
LINE
  5
369
100
AcDbEntity
  8
DRAFT
100
AcDbLine
 62
7
  6
CONTINUOUS
 10
14.022428022
 20
22.3545551788
 11
14.022428022
 21
23.1772049097
  0
LINE
  5
36A
100
AcDbEntity
  8
DRAFT
100
AcDbLine
 62
7
  6
CONTINUOUS
 10
14.0171919864
 20
23.7545551788
 11
14.0119559508
 21
23.1772049097
  0
LINE
  5
36B
100
AcDbEntity
  8
DRAFT
100
AcDbLine
 62
7
  6
CONTINUOUS
 10
14.022428022
 20
-23.168094552
 11
14.0171919864
 21
-23.7454135712
  0
LINE
  5
36C
100
AcDbEntity
  8
RACCORDO
100
AcDbLine
 62
253
  6
CONTINUOUS
 10
-4.6657840439
 20
-24.2284242785
 11
-4.6828080136
 21
-24.2454482481
  0
LINE
  5
36D
100
AcDbEntity
  8
RACCORDO
100
AcDbLine
 62
253
  6
CONTINUOUS
 10
-4.4157874709
 20
-24.4784208515
 11
-4.4328114405
 21
-24.4954448212
  0
LINE
  5
36E
100
AcDbEntity
  8
RACCORDO
100
AcDbLine
 62
253
  6
CONTINUOUS
 10
-0.9907840439
 20
-24.2284242785
 11
-1.0078080136
 21
-24.2454482481
  0
LINE
  5
36F
100
AcDbEntity
  8
RACCORDO
100
AcDbLine
 62
253
  6
CONTINUOUS
 10
-4.6657840439
 20
24.2375346361
 11
-4.6828080136
 21
24.2545586058
  0
LINE
  5
370
100
AcDbEntity
  8
RACCORDO
100
AcDbLine
 62
253
  6
CONTINUOUS
 10
-4.4157874709
 20
24.4875312092
 11
-4.4328114405
 21
24.5045551788
  0
LINE
  5
371
100
AcDbEntity
  8
RACCORDO
100
AcDbLine
 62
253
  6
CONTINUOUS
 10
-0.9907840439
 20
24.2375346361
 11
-1.0078080136
 21
24.2545586058
  0
LINE
  5
372
100
AcDbEntity
  8
RACCORDO
100
AcDbLine
 62
253
  6
CONTINUOUS
 10
17.8342159561
 20
-23.8897823885
 11
17.8289799205
 21
-23.3124321193
  0
LINE
  5
373
100
AcDbEntity
  8
RACCORDO
100
AcDbLine
 62
253
  6
CONTINUOUS
 10
18.0842125291
 20
-23.6732760375
 11
18.079630998
 21
-23.168094552
  0
LINE
  5
374
100
AcDbEntity
  8
DRAFT
100
AcDbLine
 62
7
  6
CONTINUOUS
 10
17.8171919864
 20
23.7545551788
 11
17.822428022
 21
23.1772049097
  0
LINE
  5
375
100
AcDbEntity
  8
DRAFT
100
AcDbLine
 62
7
  6
CONTINUOUS
 10
20.1369559508
 20
-23.168094552
 11
20.1421919864
 21
-23.7454448212
  0
LINE
  5
376
100
AcDbEntity
  8
RACCORDO
100
AcDbLine
 62
253
  6
CONTINUOUS
 10
19.8751714437
 20
23.6823863952
 11
19.8797529749
 21
23.1772049097
  0
LINE
  5
377
100
AcDbEntity
  8
RACCORDO
100
AcDbLine
 62
253
  6
CONTINUOUS
 10
20.1251680168
 20
23.8988927461
 11
20.1304040524
 21
23.321542477
  0
LINE
  5
378
100
AcDbEntity
  8
RACCORDO
100
AcDbLine
 62
7
  6
CONTINUOUS
 10
17.8171919864
 20
24.2545586058
 11
17.8171919864
 21
23.7545551788
  0
LINE
  5
379
100
AcDbEntity
  8
RACCORDO
100
AcDbLine
 62
7
  6
CONTINUOUS
 10
17.8171919864
 20
-23.7454448212
 11
17.8171919864
 21
-24.2454482481
  0
LINE
  5
37A
100
AcDbEntity
  8
DRAFT
100
AcDbLine
 62
7
  6
CONTINUOUS
 10
17.822428022
 20
23.1772049097
 11
17.822428022
 21
22.3545551788
  0
LINE
  5
37B
100
AcDbEntity
  8
DRAFT
100
AcDbLine
 62
7
  6
CONTINUOUS
 10
17.822428022
 20
-22.3454448212
 11
17.822428022
 21
-23.168094552
  0
LINE
  5
37C
100
AcDbEntity
  8
RACCORDO
100
AcDbLine
 62
7
  6
CONTINUOUS
 10
17.8289799205
 20
23.321542477
 11
17.8289799205
 21
22.2889768534
  0
LINE
  5
37D
100
AcDbEntity
  8
RACCORDO
100
AcDbLine
 62
7
  6
CONTINUOUS
 10
17.8289799205
 20
-22.2798664957
 11
17.8289799205
 21
-23.3124321193
  0
LINE
  5
37E
100
AcDbEntity
  8
RACCORDO
100
AcDbLine
 62
7
  6
CONTINUOUS
 10
17.8342159561
 20
24.2375346361
 11
17.8342159561
 21
23.8988927461
  0
LINE
  5
37F
100
AcDbEntity
  8
RACCORDO
100
AcDbLine
 62
7
  6
CONTINUOUS
 10
17.8342159561
 20
-23.8897823885
 11
17.8342159561
 21
-24.2284242785
  0
LINE
  5
380
100
AcDbEntity
  8
RACCORDO
100
AcDbLine
 62
253
  6
CONTINUOUS
 10
18.0789764935
 20
23.1772049097
 11
18.0789764935
 21
22.2759435099
  0
LINE
  5
381
100
AcDbEntity
  8
RACCORDO
100
AcDbLine
 62
253
  6
CONTINUOUS
 10
18.0789764935
 20
-22.2668331522
 11
18.0789764935
 21
-23.168094552
  0
LINE
  5
382
100
AcDbEntity
  8
RACCORDO
100
AcDbLine
 62
253
  6
CONTINUOUS
 10
18.0842125291
 20
-23.6732760375
 11
18.0842125291
 21
-24.4784208515
  0
LINE
  5
383
100
AcDbEntity
  8
RACCORDO
100
AcDbLine
 62
253
  6
CONTINUOUS
 10
18.0842125291
 20
23.6823863952
 11
18.0842125291
 21
24.4875312092
  0
LINE
  5
384
100
AcDbEntity
  8
RACCORDO
100
AcDbLine
 62
253
  6
CONTINUOUS
 10
19.8751714437
 20
-23.6732760375
 11
19.8751714437
 21
-24.4784208515
  0
LINE
  5
385
100
AcDbEntity
  8
RACCORDO
100
AcDbLine
 62
253
  6
CONTINUOUS
 10
19.8751714437
 20
23.6823863952
 11
19.8751714437
 21
24.4875312092
  0
LINE
  5
386
100
AcDbEntity
  8
RACCORDO
100
AcDbLine
 62
253
  6
CONTINUOUS
 10
19.8804074793
 20
-23.168094552
 11
19.8804074793
 21
-22.2668331522
  0
LINE
  5
387
100
AcDbEntity
  8
RACCORDO
100
AcDbLine
 62
253
  6
CONTINUOUS
 10
19.8804074793
 20
22.2759435099
 11
19.8804074793
 21
23.1772049097
  0
LINE
  5
388
100
AcDbEntity
  8
RACCORDO
100
AcDbLine
 62
7
  6
CONTINUOUS
 10
20.1251680168
 20
-24.2284242785
 11
20.1251680168
 21
-23.8897823885
  0
LINE
  5
389
100
AcDbEntity
  8
RACCORDO
100
AcDbLine
 62
7
  6
CONTINUOUS
 10
20.1251680168
 20
23.8988927461
 11
20.1251680168
 21
24.2375346361
  0
LINE
  5
38A
100
AcDbEntity
  8
RACCORDO
100
AcDbLine
 62
7
  6
CONTINUOUS
 10
20.1304040524
 20
-23.3124321193
 11
20.1304040524
 21
-22.2798664957
  0
LINE
  5
38B
100
AcDbEntity
  8
RACCORDO
100
AcDbLine
 62
7
  6
CONTINUOUS
 10
20.1304040524
 20
22.2889768534
 11
20.1304040524
 21
23.321542477
  0
LINE
  5
38C
100
AcDbEntity
  8
DRAFT
100
AcDbLine
 62
7
  6
CONTINUOUS
 10
20.1369559508
 20
-23.168094552
 11
20.1369559508
 21
-22.3454448212
  0
LINE
  5
38D
100
AcDbEntity
  8
DRAFT
100
AcDbLine
 62
7
  6
CONTINUOUS
 10
20.1369559508
 20
22.3545551788
 11
20.1369559508
 21
23.1772049097
  0
LINE
  5
38E
100
AcDbEntity
  8
RACCORDO
100
AcDbLine
 62
7
  6
CONTINUOUS
 10
20.1421919864
 20
-24.2454482481
 11
20.1421919864
 21
-23.7454448212
  0
LINE
  5
38F
100
AcDbEntity
  8
RACCORDO
100
AcDbLine
 62
7
  6
CONTINUOUS
 10
20.1421919864
 20
23.7545551788
 11
20.1421919864
 21
24.2545586058
  0
LINE
  5
390
100
AcDbEntity
  8
RACCORDO
100
AcDbLine
 62
7
  6
CONTINUOUS
 10
20.6671919864
 20
21.854097675
 11
20.6671919864
 21
21.6045551788
  0
LINE
  5
391
100
AcDbEntity
  8
RACCORDO
100
AcDbLine
 62
7
  6
CONTINUOUS
 10
20.6671919864
 20
-21.8449873173
 11
20.6671919864
 21
-21.5954448212
  0
LINE
  5
392
100
AcDbEntity
  8
DRAFT
100
AcDbLine
 62
7
  6
CONTINUOUS
 10
20.6846470514
 20
-21.018094552
 11
20.6846470514
 21
21.0272049097
  0
LINE
  5
393
100
AcDbEntity
  8
RACCORDO
100
AcDbLine
 62
7
  6
CONTINUOUS
 10
20.7171919864
 20
-21.395597126
 11
20.7171919864
 21
21.4047074837
  0
LINE
  5
394
100
AcDbEntity
  8
ASSI
100
AcDbLine
 62
7
  6
CONTINUOUS
 10
20.7171919864
 20
-21.395597126
 11
20.7171919864
 21
21.4047074837
  0
LINE
  5
395
100
AcDbEntity
  8
RACCORDO
100
AcDbLine
 62
253
  6
CONTINUOUS
 10
17.8289799205
 20
23.321542477
 11
17.8342159561
 21
23.8988927461
  0
LINE
  5
396
100
AcDbEntity
  8
RACCORDO
100
AcDbLine
 62
253
  6
CONTINUOUS
 10
18.079630998
 20
23.1772049097
 11
18.0842125291
 21
23.6823863952
  0
LINE
  5
397
100
AcDbEntity
  8
DRAFT
100
AcDbLine
 62
7
  6
CONTINUOUS
 10
17.822428022
 20
-23.168094552
 11
17.8171919864
 21
-23.7454448212
  0
LINE
  5
398
100
AcDbEntity
  8
DRAFT
100
AcDbLine
 62
7
  6
CONTINUOUS
 10
20.1421919864
 20
23.7545551788
 11
20.1369559508
 21
23.1772049097
  0
LINE
  5
399
100
AcDbEntity
  8
RACCORDO
100
AcDbLine
 62
253
  6
CONTINUOUS
 10
19.8797529749
 20
-23.168094552
 11
19.8751714437
 21
-23.6732760375
  0
LINE
  5
39A
100
AcDbEntity
  8
RACCORDO
100
AcDbLine
 62
253
  6
CONTINUOUS
 10
20.1304040524
 20
-23.3124321193
 11
20.1251680168
 21
-23.8897823885
  0
LINE
  5
39B
100
AcDbEntity
  8
RACCORDO
100
AcDbLine
 62
253
  6
CONTINUOUS
 10
-0.7407874709
 20
-24.4784208515
 11
-0.7578114405
 21
-24.4954448212
  0
LINE
  5
39C
100
AcDbEntity
  8
RACCORDO
100
AcDbLine
 62
253
  6
CONTINUOUS
 10
-0.7407874709
 20
24.4875312092
 11
-0.7578114405
 21
24.5045551788
  0
LINE
  5
39D
100
AcDbEntity
  8
DRAFT
100
AcDbLine
 62
7
  6
CONTINUOUS
 10
20.6846470514
 20
21.0272049097
 11
20.6671919864
 21
21.6045551788
  0
LINE
  5
39E
100
AcDbEntity
  8
DRAFT
100
AcDbLine
 62
7
  6
CONTINUOUS
 10
20.6671919864
 20
-21.5954448212
 11
20.6846470514
 21
-21.018094552
  0
LINE
  5
39F
100
AcDbEntity
  8
DRAFT
100
AcDbLine
 62
7
  6
CONTINUOUS
 10
5.1171919864
 20
-23.7954448212
 11
5.1302820754
 21
-23.7823547321
  0
LINE
  5
3A0
100
AcDbEntity
  8
RACCORDO
100
AcDbLine
 62
253
  6
CONTINUOUS
 10
20.0173602149
 20
20.5167647286
 11
-23.3829762421
 21
20.5167647286
  0
LINE
  5
3A1
100
AcDbEntity
  8
RACCORDO
100
AcDbLine
 62
253
  6
CONTINUOUS
 10
20.0338870577
 20
21.9531724457
 11
-23.3995030849
 21
21.9531724457
  0
LINE
  5
3A2
100
AcDbEntity
  8
RACCORDO
100
AcDbLine
 62
7
  6
CONTINUOUS
 10
-23.2460235065
 20
22.2759435099
 11
-21.4445925207
 21
22.2759435099
  0
LINE
  5
3A3
100
AcDbEntity
  8
RACCORDO
100
AcDbLine
 62
7
  6
CONTINUOUS
 10
19.8804074793
 20
22.2759435099
 11
18.0789764935
 21
22.2759435099
  0
LINE
  5
3A4
100
AcDbEntity
  8
DRAFT
100
AcDbLine
 62
7
  6
CONTINUOUS
 10
14.0041018974
 20
22.2759435099
 11
13.0671919864
 21
22.2759435099
  0
LINE
  5
3A5
100
AcDbEntity
  8
DRAFT
100
AcDbLine
 62
7
  6
CONTINUOUS
 10
6.0671919864
 20
22.2759435099
 11
5.1302820754
 21
22.2759435099
  0
LINE
  5
3A6
100
AcDbEntity
  8
RACCORDO
100
AcDbLine
 62
7
  6
CONTINUOUS
 10
-4.4210235065
 20
22.2759435099
 11
-2.6195925207
 21
22.2759435099
  0
LINE
  5
3A7
100
AcDbEntity
  8
RACCORDO
100
AcDbLine
 62
7
  6
CONTINUOUS
 10
1.0554074793
 20
22.2759435099
 11
-0.7460235065
 21
22.2759435099
  0
LINE
  5
3A8
100
AcDbEntity
  8
DRAFT
100
AcDbLine
 62
7
  6
CONTINUOUS
 10
-8.4958981026
 20
22.2759435099
 11
-9.4328080136
 21
22.2759435099
  0
LINE
  5
3A9
100
AcDbEntity
  8
DRAFT
100
AcDbLine
 62
7
  6
CONTINUOUS
 10
-16.4328080136
 20
22.2759435099
 11
-17.3697179246
 21
22.2759435099
  0
LINE
  5
3AA
100
AcDbEntity
  8
0
100
AcDbLine
 62
7
  6
CONTINUOUS
 10
-16.4328080136
 20
22.3021473996
 11
-9.4328080136
 21
22.3021473996
  0
LINE
  5
3AB
100
AcDbEntity
  8
0
100
AcDbLine
 62
7
  6
CONTINUOUS
 10
6.0671919864
 20
22.3021473996
 11
13.0671919864
 21
22.3021473996
  0
LINE
  5
3AC
100
AcDbEntity
  8
RACCORDO
100
AcDbLine
 62
7
  6
CONTINUOUS
 10
20.1674013117
 20
22.3545551788
 11
20.1369559508
 21
22.3545551788
  0
LINE
  5
3AD
100
AcDbEntity
  8
DRAFT
100
AcDbLine
 62
7
  6
CONTINUOUS
 10
17.822428022
 20
22.3545551788
 11
14.0119559508
 21
22.3545551788
  0
LINE
  5
3AE
100
AcDbEntity
  8
DRAFT
100
AcDbLine
 62
7
  6
CONTINUOUS
 10
-1.002571978
 20
22.3545551788
 11
-2.3630440492
 21
22.3545551788
  0
LINE
  5
3AF
100
AcDbEntity
  8
DRAFT
100
AcDbLine
 62
7
  6
CONTINUOUS
 10
1.3119559508
 20
22.3545551788
 11
5.122428022
 21
22.3545551788
  0
LINE
  5
3B0
100
AcDbEntity
  8
DRAFT
100
AcDbLine
 62
7
  6
CONTINUOUS
 10
-4.677571978
 20
22.3545551788
 11
-8.4880440492
 21
22.3545551788
  0
LINE
  5
3B1
100
AcDbEntity
  8
DRAFT
100
AcDbLine
 62
7
  6
CONTINUOUS
 10
-17.377571978
 20
22.3545551788
 11
-21.1880440492
 21
22.3545551788
  0
LINE
  5
3B2
100
AcDbEntity
  8
RACCORDO
100
AcDbLine
 62
7
  6
CONTINUOUS
 10
-23.502571978
 20
22.3545551788
 11
-23.5330173389
 21
22.3545551788
  0
LINE
  5
3B3
100
AcDbEntity
  8
RACCORDO
100
AcDbLine
 62
7
  6
CONTINUOUS
 10
-21.1880440492
 20
22.4045551788
 11
-17.3880440492
 21
22.4045551788
  0
LINE
  5
3B4
100
AcDbEntity
  8
ASSI
100
AcDbLine
 62
7
  6
CONTINUOUS
 10
-21.1880440492
 20
22.4045551788
 11
-17.3880440492
 21
22.4045551788
  0
LINE
  5
3B5
100
AcDbEntity
  8
DRAFT
100
AcDbLine
 62
7
  6
CONTINUOUS
 10
-8.477571978
 20
22.4045551788
 11
-4.677571978
 21
22.4045551788
  0
LINE
  5
3B6
100
AcDbEntity
  8
ASSI
100
AcDbLine
 62
7
  6
CONTINUOUS
 10
-8.477571978
 20
22.4045551788
 11
-4.677571978
 21
22.4045551788
  0
LINE
  5
3B7
100
AcDbEntity
  8
DRAFT
100
AcDbLine
 62
7
  6
CONTINUOUS
 10
-2.3630440492
 20
22.4045551788
 11
-1.002571978
 21
22.4045551788
  0
LINE
  5
3B8
100
AcDbEntity
  8
ASSI
100
AcDbLine
 62
7
  6
CONTINUOUS
 10
-2.3630440492
 20
22.4045551788
 11
-1.002571978
 21
22.4045551788
  0
LINE
  5
3B9
100
AcDbEntity
  8
DRAFT
100
AcDbLine
 62
7
  6
CONTINUOUS
 10
1.3119559508
 20
22.4045551788
 11
5.1119559508
 21
22.4045551788
  0
LINE
  5
3BA
100
AcDbEntity
  8
ASSI
100
AcDbLine
 62
7
  6
CONTINUOUS
 10
1.3119559508
 20
22.4045551788
 11
5.1119559508
 21
22.4045551788
  0
LINE
  5
3BB
100
AcDbEntity
  8
RACCORDO
100
AcDbLine
 62
7
  6
CONTINUOUS
 10
14.022428022
 20
22.4045551788
 11
17.822428022
 21
22.4045551788
  0
LINE
  5
3BC
100
AcDbEntity
  8
ASSI
100
AcDbLine
 62
7
  6
CONTINUOUS
 10
14.022428022
 20
22.4045551788
 11
17.822428022
 21
22.4045551788
  0
LINE
  5
3BD
100
AcDbEntity
  8
DRAFT
100
AcDbLine
 62
7
  6
CONTINUOUS
 10
5.1171919864
 20
23.8045551788
 11
5.1302820754
 21
23.7914650898
  0
LINE
  5
3BE
100
AcDbEntity
  8
RACCORDO
100
AcDbLine
 62
7
  6
CONTINUOUS
 10
-23.2460235065
 20
23.1772049097
 11
-21.4445925207
 21
23.1772049097
  0
LINE
  5
3BF
100
AcDbEntity
  8
RACCORDO
100
AcDbLine
 62
7
  6
CONTINUOUS
 10
19.8804074793
 20
23.1772049097
 11
18.0789764935
 21
23.1772049097
  0
LINE
  5
3C0
100
AcDbEntity
  8
DRAFT
100
AcDbLine
 62
7
  6
CONTINUOUS
 10
-17.3880440492
 20
23.1772049097
 11
-17.377571978
 21
23.1772049097
  0
LINE
  5
3C1
100
AcDbEntity
  8
DRAFT
100
AcDbLine
 62
7
  6
CONTINUOUS
 10
14.022428022
 20
23.1772049097
 11
14.0119559508
 21
23.1772049097
  0
LINE
  5
3C2
100
AcDbEntity
  8
RACCORDO
100
AcDbLine
 62
7
  6
CONTINUOUS
 10
-0.7460235065
 20
23.1772049097
 11
1.0554074793
 21
23.1772049097
  0
LINE
  5
3C3
100
AcDbEntity
  8
RACCORDO
100
AcDbLine
 62
7
  6
CONTINUOUS
 10
-2.6195925207
 20
23.1772049097
 11
-4.4210235065
 21
23.1772049097
  0
LINE
  5
3C4
100
AcDbEntity
  8
DRAFT
100
AcDbLine
 62
7
  6
CONTINUOUS
 10
5.1119559508
 20
23.1772049097
 11
5.122428022
 21
23.1772049097
  0
LINE
  5
3C5
100
AcDbEntity
  8
DRAFT
100
AcDbLine
 62
7
  6
CONTINUOUS
 10
-8.477571978
 20
23.1772049097
 11
-8.4880440492
 21
23.1772049097
  0
LINE
  5
3C6
100
AcDbEntity
  8
RACCORDO
100
AcDbLine
 62
253
  6
CONTINUOUS
 10
-23.2407874709
 20
23.6823863952
 11
-21.4498285563
 21
23.6823863952
  0
LINE
  5
3C7
100
AcDbEntity
  8
RACCORDO
100
AcDbLine
 62
253
  6
CONTINUOUS
 10
-4.4157874709
 20
23.6823863952
 11
-2.6248285563
 21
23.6823863952
  0
LINE
  5
3C8
100
AcDbEntity
  8
RACCORDO
100
AcDbLine
 62
253
  6
CONTINUOUS
 10
-0.7407874709
 20
23.6823863952
 11
1.0501714437
 21
23.6823863952
  0
LINE
  5
3C9
100
AcDbEntity
  8
RACCORDO
100
AcDbLine
 62
253
  6
CONTINUOUS
 10
18.0842125291
 20
23.6823863952
 11
19.8751714437
 21
23.6823863952
  0
LINE
  5
3CA
100
AcDbEntity
  8
DRAFT
100
AcDbLine
 62
7
  6
CONTINUOUS
 10
5.1302820754
 20
23.7914650898
 11
6.0671919864
 21
23.7914650898
  0
LINE
  5
3CB
100
AcDbEntity
  8
DRAFT
100
AcDbLine
 62
7
  6
CONTINUOUS
 10
-8.4958981026
 20
23.7914650898
 11
-9.4328080136
 21
23.7914650898
  0
LINE
  5
3CC
100
AcDbEntity
  8
DRAFT
100
AcDbLine
 62
7
  6
CONTINUOUS
 10
13.0671919864
 20
23.7914650898
 11
14.0041018974
 21
23.7914650898
  0
LINE
  5
3CD
100
AcDbEntity
  8
DRAFT
100
AcDbLine
 62
7
  6
CONTINUOUS
 10
-16.4328080136
 20
23.7914650898
 11
-17.3697179246
 21
23.7914650898
  0
LINE
  5
3CE
100
AcDbEntity
  8
DRAFT
100
AcDbLine
 62
7
  6
CONTINUOUS
 10
-16.4328080136
 20
23.7940831076
 11
-9.4328080136
 21
23.7940831076
  0
LINE
  5
3CF
100
AcDbEntity
  8
DRAFT
100
AcDbLine
 62
7
  6
CONTINUOUS
 10
6.0671919864
 20
23.7940831076
 11
13.0671919864
 21
23.7940831076
  0
LINE
  5
3D0
100
AcDbEntity
  8
ASSI
100
AcDbLine
 62
7
  6
CONTINUOUS
 10
14.0171919864
 20
23.8045551788
 11
13.0671919864
 21
23.8045551788
  0
LINE
  5
3D1
100
AcDbEntity
  8
DRAFT
100
AcDbLine
 62
7
  6
CONTINUOUS
 10
-17.3828080136
 20
23.8045551788
 11
-8.4828080136
 21
23.8045551788
  0
LINE
  5
3D2
100
AcDbEntity
  8
ASSI
100
AcDbLine
 62
7
  6
CONTINUOUS
 10
6.0671919864
 20
23.8045551788
 11
5.1171919864
 21
23.8045551788
  0
LINE
  5
3D3
100
AcDbEntity
  8
DRAFT
100
AcDbLine
 62
7
  6
CONTINUOUS
 10
5.1171919864
 20
23.8045551788
 11
14.0171919864
 21
23.8045551788
  0
LINE
  5
3D4
100
AcDbEntity
  8
ASSI
100
AcDbLine
 62
7
  6
CONTINUOUS
 10
-8.4828080136
 20
23.8045551788
 11
-9.4328080136
 21
23.8045551788
  0
LINE
  5
3D5
100
AcDbEntity
  8
ASSI
100
AcDbLine
 62
7
  6
CONTINUOUS
 10
-16.4328080136
 20
23.8045551788
 11
-17.3828080136
 21
23.8045551788
  0
LINE
  5
3D6
100
AcDbEntity
  8
RACCORDO
100
AcDbLine
 62
253
  6
CONTINUOUS
 10
1.3001680168
 20
23.8988927461
 11
-0.9907840439
 21
23.8988927461
  0
LINE
  5
3D7
100
AcDbEntity
  8
RACCORDO
100
AcDbLine
 62
253
  6
CONTINUOUS
 10
-2.3748319832
 20
23.8988927461
 11
-4.6657840439
 21
23.8988927461
  0
LINE
  5
3D8
100
AcDbEntity
  8
RACCORDO
100
AcDbLine
 62
253
  6
CONTINUOUS
 10
17.8342159561
 20
23.8988927461
 11
20.1251680168
 21
23.8988927461
  0
LINE
  5
3D9
100
AcDbEntity
  8
RACCORDO
100
AcDbLine
 62
253
  6
CONTINUOUS
 10
-21.1998319832
 20
23.8988927461
 11
-23.4907840439
 21
23.8988927461
  0
LINE
  5
3DA
100
AcDbEntity
  8
RACCORDO
100
AcDbLine
 62
253
  6
CONTINUOUS
 10
-0.9907840439
 20
24.2375346361
 11
1.3001680168
 21
24.2375346361
  0
LINE
  5
3DB
100
AcDbEntity
  8
RACCORDO
100
AcDbLine
 62
253
  6
CONTINUOUS
 10
-2.3748319832
 20
24.2375346361
 11
-4.6657840439
 21
24.2375346361
  0
LINE
  5
3DC
100
AcDbEntity
  8
RACCORDO
100
AcDbLine
 62
253
  6
CONTINUOUS
 10
17.8342159561
 20
24.2375346361
 11
20.1251680168
 21
24.2375346361
  0
LINE
  5
3DD
100
AcDbEntity
  8
RACCORDO
100
AcDbLine
 62
253
  6
CONTINUOUS
 10
-21.1998319832
 20
24.2375346361
 11
-23.4907840439
 21
24.2375346361
  0
LINE
  5
3DE
100
AcDbEntity
  8
RACCORDO
100
AcDbLine
 62
7
  6
CONTINUOUS
 10
19.8751714437
 20
24.4875312092
 11
18.0842125291
 21
24.4875312092
  0
LINE
  5
3DF
100
AcDbEntity
  8
RACCORDO
100
AcDbLine
 62
7
  6
CONTINUOUS
 10
1.0501714437
 20
24.4875312092
 11
-0.7407874709
 21
24.4875312092
  0
LINE
  5
3E0
100
AcDbEntity
  8
RACCORDO
100
AcDbLine
 62
7
  6
CONTINUOUS
 10
-2.6248285563
 20
24.4875312092
 11
-4.4157874709
 21
24.4875312092
  0
LINE
  5
3E1
100
AcDbEntity
  8
RACCORDO
100
AcDbLine
 62
7
  6
CONTINUOUS
 10
-21.4498285563
 20
24.4875312092
 11
-23.2407874709
 21
24.4875312092
  0
LINE
  5
3E2
100
AcDbEntity
  8
RACCORDO
100
AcDbLine
 62
7
  6
CONTINUOUS
 10
19.8921954134
 20
24.5045551788
 11
18.0671885595
 21
24.5045551788
  0
LINE
  5
3E3
100
AcDbEntity
  8
RACCORDO
100
AcDbLine
 62
7
  6
CONTINUOUS
 10
1.0671954134
 20
24.5045551788
 11
-0.7578114405
 21
24.5045551788
  0
LINE
  5
3E4
100
AcDbEntity
  8
RACCORDO
100
AcDbLine
 62
7
  6
CONTINUOUS
 10
-2.6078045866
 20
24.5045551788
 11
-4.4328114405
 21
24.5045551788
  0
LINE
  5
3E5
100
AcDbEntity
  8
RACCORDO
100
AcDbLine
 62
7
  6
CONTINUOUS
 10
-21.4328045866
 20
24.5045551788
 11
-23.2578114405
 21
24.5045551788
  0
LINE
  5
3E6
100
AcDbEntity
  8
RACCORDO
100
AcDbLine
 62
253
  6
CONTINUOUS
 10
17.8342159561
 20
-24.2284242785
 11
17.8171919864
 21
-24.2454482481
  0
LINE
  5
3E7
100
AcDbEntity
  8
RACCORDO
100
AcDbLine
 62
253
  6
CONTINUOUS
 10
18.0842125291
 20
-24.4784208515
 11
18.0671885595
 21
-24.4954448212
  0
LINE
  5
3E8
100
AcDbEntity
  8
RACCORDO
100
AcDbLine
 62
253
  6
CONTINUOUS
 10
17.8342159561
 20
24.2375346361
 11
17.8171919864
 21
24.2545586058
  0
LINE
  5
3E9
100
AcDbEntity
  8
RACCORDO
100
AcDbLine
 62
253
  6
CONTINUOUS
 10
18.0842125291
 20
24.4875312092
 11
18.0671885595
 21
24.5045551788
  0
LWPOLYLINE
  5
3EA
100
AcDbEntity
  8
0
100
AcDbPolyline
 62
7
  6
CONTINUOUS
 90
10
 70
0
 10
-81.1881502551
 20
0.0045551788
 10
-81.1779739307
 20
-0.6433608554
 10
-81.1422808049
 20
-1.3710690306
 10
-81.0810068918
 20
-2.0970761397
 10
-80.994245712
 20
-2.8204826622
 10
-80.8820909213
 20
-3.5403877505
 10
-80.7446365386
 20
-4.2558892648
 10
-80.5820064895
 20
-4.9660933436
 10
-80.3944467966
 20
-5.6701318357
 10
-80.1793469425
 20
-6.3760543466
  0
LINE
  5
3EB
100
AcDbEntity
  8
0
100
AcDbLine
 62
7
  6
CONTINUOUS
 10
-80.1158725382
 20
-7.2251852319
 11
-80.1158725382
 21
-7.8025355011
  0
LWPOLYLINE
  5
3EC
100
AcDbEntity
  8
0
100
AcDbPolyline
 62
7
  6
CONTINUOUS
 90
13
 70
0
 10
-79.4304035982
 20
8.348896067
 10
-79.682462765
 20
7.7519329034
 10
-79.9433617893
 20
7.0716645893
 10
-80.1801675888
 20
6.3826334601
 10
-80.3926028694
 20
5.685700324
 10
-80.580389926
 20
4.9817272588
 10
-80.7432508638
 20
4.2715776711
 10
-80.8809384934
 20
3.5561194565
 10
-80.9933277184
 20
2.8362462394
 10
-81.0803241906
 20
2.1128601229
 10
-81.1418339221
 20
1.386861943
 10
-81.1777630583
 20
0.659151234
 10
-81.1881502551
 20
0.0045551788
  0
LINE
  5
3ED
100
AcDbEntity
  8
0
100
AcDbLine
 62
7
  6
CONTINUOUS
 10
-79.4278590157
 20
8.3546654709
 11
-79.4304035982
 21
8.3488960668
  0
LWPOLYLINE
  5
3EE
100
AcDbEntity
  8
0
100
AcDbPolyline
 62
7
  6
CONTINUOUS
 90
25
 70
0
 10
-67.9204447862
 20
19.3137545124
 10
-68.4832990568
 20
19.0880384691
 10
-69.1127280764
 20
18.8125191884
 10
-69.7326372383
 20
18.5162643136
 10
-70.34233398
 20
18.1995449861
 10
-70.9411316251
 20
17.8627083451
 10
-71.5283612237
 20
17.5062000904
 10
-72.1033949792
 20
17.1304524208
 10
-72.6656092252
 20
16.7358949149
 10
-73.214348864
 20
16.3229812924
 10
-73.7489916597
 20
15.8921444886
 10
-74.268920404
 20
15.4438233251
 10
-74.7735528419
 20
14.9785557858
 10
-75.26238084
 20
14.4969042629
 10
-75.7348966219
 20
13.9994324375
 10
-76.1905668029
 20
13.4867339892
 10
-76.6288888427
 20
12.9593730173
 10
-77.0493605156
 20
12.4179133246
 10
-77.4514721272
 20
11.8629637232
 10
-77.8348307227
 20
11.2951659398
 10
-78.1990765885
 20
10.715181588
 10
-78.5438310321
 20
10.1237059423
 10
-78.868732626
 20
9.5214123161
 10
-79.1734335629
 20
8.9089497753
 10
-79.4278590167
 20
8.3546654686
  0
LINE
  5
3EF
100
AcDbEntity
  8
RACCORDO
100
AcDbLine
 62
7
  6
CONTINUOUS
 10
-58.1881502551
 20
-22.3454448212
 11
-57.1881502551
 21
-22.2930370419
  0
LINE
  5
3F0
100
AcDbEntity
  8
RACCORDO
100
AcDbLine
 62
253
  6
CONTINUOUS
 10
-58.1881502551
 20
-21.8449873173
 11
-57.1881502551
 21
-21.792579538
  0
LINE
  5
3F1
100
AcDbEntity
  8
RACCORDO
100
AcDbLine
 62
7
  6
CONTINUOUS
 10
-39.3243051575
 20
-22.0836302451
 11
-57.1881502551
 21
-22.3954448212
  0
LINE
  5
3F2
100
AcDbEntity
  8
ASSI
100
AcDbLine
 62
7
  6
CONTINUOUS
 10
-39.3243051575
 20
-22.0836302451
 11
-57.1881502551
 21
-22.3954448212
  0
LINE
  5
3F3
100
AcDbEntity
  8
RACCORDO
100
AcDbLine
 62
7
  6
CONTINUOUS
 10
-57.1881502551
 20
-23.7954448212
 11
-50.6837869874
 21
-23.7386821029
  0
LINE
  5
3F4
100
AcDbEntity
  8
ASSI
100
AcDbLine
 62
7
  6
CONTINUOUS
 10
-57.1881502551
 20
-23.7954448212
 11
-50.6837869874
 21
-23.7386821029
  0
LINE
  5
3F5
100
AcDbEntity
  8
RACCORDO
100
AcDbLine
 62
253
  6
CONTINUOUS
 10
-60.4394592461
 20
-24.2284242785
 11
-60.6881502551
 21
-24.2284242785
  0
LINE
  5
3F6
100
AcDbEntity
  8
RACCORDO
100
AcDbLine
 62
253
  6
CONTINUOUS
 10
-60.6881502551
 20
-23.8897823885
 11
-60.4394592461
 21
-23.8897823885
  0
LINE
  5
3F7
100
AcDbEntity
  8
RACCORDO
100
AcDbLine
 62
7
  6
CONTINUOUS
 10
-60.4394592461
 20
-24.4784208515
 11
-57.1881502551
 21
-24.4954448212
  0
LINE
  5
3F8
100
AcDbEntity
  8
RACCORDO
100
AcDbLine
 62
253
  6
CONTINUOUS
 10
-60.4394592461
 20
-24.2284242785
 11
-57.1881502551
 21
-24.2454482481
  0
LINE
  5
3F9
100
AcDbEntity
  8
RACCORDO
100
AcDbLine
 62
7
  6
CONTINUOUS
 10
-58.1881502551
 20
-22.3454448212
 11
-65.8469890505
 21
-21.944062088
  0
LINE
  5
3FA
100
AcDbEntity
  8
RACCORDO
100
AcDbLine
 62
253
  6
CONTINUOUS
 10
-58.1881502551
 20
-21.8452159691
 11
-65.8295472756
 21
-21.4447473206
  0
LINE
  5
3FB
100
AcDbEntity
  8
DRAFT
100
AcDbLine
 62
7
  6
CONTINUOUS
 10
-57.1881502551
 20
23.7545551788
 11
-58.1881502551
 21
23.1772049097
  0
LINE
  5
3FC
100
AcDbEntity
  8
RACCORDO
100
AcDbLine
 62
253
  6
CONTINUOUS
 10
-67.2672223288
 20
-20.5076544145
 11
-66.7763694635
 21
-20.4871422051
  0
LINE
  5
3FD
100
AcDbEntity
  8
RACCORDO
100
AcDbLine
 62
253
  6
CONTINUOUS
 10
-41.3794240519
 20
-21.1196496194
 11
-57.1881502551
 21
-21.395597126
  0
LINE
  5
3FE
100
AcDbEntity
  8
ASSI
100
AcDbLine
 62
253
  6
CONTINUOUS
 10
-41.3794240519
 20
-21.1196496194
 11
-57.1881502551
 21
-21.395597126
  0
LINE
  5
3FF
100
AcDbEntity
  8
DRAFT
100
AcDbLine
 62
7
  6
CONTINUOUS
 10
-37.3881515077
 20
-20.7226528498
 11
-38.2609570988
 21
-20.7302697088
  0
LINE
  5
400
100
AcDbEntity
  8
ASSI
100
AcDbLine
 62
7
  6
CONTINUOUS
 10
-37.3881515077
 20
-20.7226528498
 11
-38.2609570988
 21
-20.7302697088
  0
LINE
  5
401
100
AcDbEntity
  8
RACCORDO
100
AcDbLine
 62
253
  6
CONTINUOUS
 10
-40.8881502551
 20
-21.1196547837
 11
-41.3794240519
 21
-21.1196547837
  0
LINE
  5
402
100
AcDbEntity
  8
ASSI
100
AcDbLine
 62
253
  6
CONTINUOUS
 10
-40.8881502551
 20
-21.1196547837
 11
-41.3794240519
 21
-21.1196547837
  0
LINE
  5
403
100
AcDbEntity
  8
DRAFT
100
AcDbLine
 62
7
  6
CONTINUOUS
 10
-58.1881502551
 20
-23.168094552
 11
-57.1881502551
 21
-23.7454448212
  0
LINE
  5
404
100
AcDbEntity
  8
RACCORDO
100
AcDbLine
 62
7
  6
CONTINUOUS
 10
-73.9874938892
 20
-11.9181068329
 11
-79.6158725382
 21
-8.6685609048
  0
LWPOLYLINE
  5
405
100
AcDbEntity
  8
RACCORDO
100
AcDbPolyline
 62
7
  6
CONTINUOUS
 90
3
 70
0
 10
-79.5580802664
 20
-7.0630384837
 10
-79.4730371201
 20
-7.1260066312
 10
-79.3773318042
 20
-7.1976448236
  0
LWPOLYLINE
  5
406
100
AcDbEntity
  8
RACCORDO
100
AcDbPolyline
 62
7
  6
CONTINUOUS
 90
13
 70
0
 10
-79.3773318042
 20
-7.1976448236
 10
-79.2707115193
 20
-7.2783497069
 10
-79.1538656498
 20
-7.3677986411
 10
-79.027636621
 20
-7.4655269524
 10
-78.8918907695
 20
-7.5717903055
 10
-78.7472289737
 20
-7.686258596
 10
-78.5943954259
 20
-7.8084743331
 10
-78.4333463128
 20
-7.9386048451
 10
-78.2646712116
 20
-8.076295977
 10
-78.0889829388
 20
-8.2211588659
 10
-77.9061042939
 20
-8.373449085
 10
-77.716277706
 20
-8.5330728164
 10
-77.5203070335
 20
-8.6994487021
  0
LINE
  5
407
100
AcDbEntity
  8
RACCORDO
100
AcDbLine
 62
7
  6
CONTINUOUS
 10
-77.5203070335
 20
-8.6994487021
 11
-77.3524350346
 21
-8.8431978813
  0
LWPOLYLINE
  5
408
100
AcDbEntity
  8
RACCORDO
100
AcDbPolyline
 62
7
  6
CONTINUOUS
 90
22
 70
0
 10
-77.3524451876
 20
-8.8431888717
 10
-77.1967509771
 20
-8.9774784558
 10
-76.9907336327
 20
-9.1565455439
 10
-76.7797874637
 20
-9.3414563009
 10
-76.5644340512
 20
-9.5317891741
 10
-76.3450790131
 20
-9.7272241914
 10
-76.1220032517
 20
-9.9275430166
 10
-75.8956163766
 20
-10.1323957883
 10
-75.6663789173
 20
-10.3413890487
 10
-75.4346241202
 20
-10.5542401396
 10
-75.2007928513
 20
-10.7705478377
 10
-74.9653374597
 20
-10.9899136674
 10
-74.7285957228
 20
-11.2120680551
 10
-74.4909477932
 20
-11.4366865366
 10
-74.2529277486
 20
-11.6632994732
 10
-74.0151001767
 20
-11.8914242496
 10
-73.7778301087
 20
-12.1207552809
 10
-73.5416610806
 20
-12.3508068239
 10
-73.3074191664
 20
-12.5808213565
 10
-73.0756633602
 20
-12.8102844572
 10
-72.846699763
 20
-13.0389243494
 10
-72.673518065
 20
-13.2132272108
  0
LWPOLYLINE
  5
409
100
AcDbEntity
  8
RACCORDO
100
AcDbPolyline
 62
7
  6
CONTINUOUS
 90
6
 70
0
 10
-73.9903043373
 20
-11.91648422
 10
-73.7746082682
 20
-12.1250113768
 10
-73.5387146987
 20
-12.3548484193
 10
-73.3047389151
 20
-12.5846518851
 10
-73.073228305
 20
-12.8139136052
 10
-72.8444915918
 20
-13.0423546293
  0
LINE
  5
40A
100
AcDbEntity
  8
RACCORDO
100
AcDbLine
 62
7
  6
CONTINUOUS
 10
-68.6645441688
 20
-17.1666640112
 11
-68.2943513578
 21
-17.525294446
  0
LINE
  5
40B
100
AcDbEntity
  8
RACCORDO
100
AcDbLine
 62
7
  6
CONTINUOUS
 10
-68.8855065415
 20
-16.9517941963
 11
-68.4573565314
 21
-17.3668758866
  0
LWPOLYLINE
  5
40C
100
AcDbEntity
  8
RACCORDO
100
AcDbPolyline
 62
7
  6
CONTINUOUS
 90
16
 70
0
 10
-72.8444915918
 20
-13.0423546293
 10
-72.4522976921
 20
-13.4374465052
 10
-72.1756595797
 20
-13.7152785057
 10
-71.900833847
 20
-13.9902045932
 10
-71.6282258621
 20
-14.2619054765
 10
-71.3582144923
 20
-14.5300902755
 10
-71.0911713245
 20
-14.7944712065
 10
-70.8274724587
 20
-15.0547604906
 10
-70.5675008301
 20
-15.3106655482
 10
-70.3116341733
 20
-15.5618933014
 10
-70.0602300097
 20
-15.8081640011
 10
-69.8136319642
 20
-16.0492046808
 10
-69.5721827719
 20
-16.2847379101
 10
-69.3362163843
 20
-16.5144998055
 10
-69.1060675488
 20
-16.7382412014
 10
-68.6645441688
 20
-17.1666640112
  0
LWPOLYLINE
  5
40D
100
AcDbEntity
  8
RACCORDO
100
AcDbPolyline
 62
7
  6
CONTINUOUS
 90
15
 70
0
 10
-72.6735195485
 20
-13.213228439
 10
-72.4544926395
 20
-13.4340791134
 10
-72.1779540226
 20
-13.7119051222
 10
-71.9032401118
 20
-13.9868291575
 10
-71.6307512571
 20
-14.258528014
 10
-71.3608585678
 20
-14.5267072923
 10
-71.0939246075
 20
-14.7910774798
 10
-70.8303241823
 20
-15.0513462026
 10
-70.5704420795
 20
-15.3072174897
 10
-70.3146547509
 20
-15.5583981837
 10
-70.0633219831
 20
-15.8046087622
 10
-69.8167919367
 20
-16.0455793263
 10
-69.5754103091
 20
-16.2810371436
 10
-69.3395124033
 20
-16.5107230267
 10
-68.8855065415
 20
-16.9517941963
  0
LWPOLYLINE
  5
40E
100
AcDbEntity
  8
RACCORDO
100
AcDbPolyline
 62
7
  6
CONTINUOUS
 90
8
 70
0
 10
-68.2943162035
 20
-17.5248029255
 10
-68.2125222694
 20
-17.6084818833
 10
-68.1016803861
 20
-17.7364111851
 10
-67.9954057831
 20
-17.8759838877
 10
-67.8941294061
 20
-18.026168608
 10
-67.7987320496
 20
-18.1852765474
 10
-67.7103949378
 20
-18.3509439219
 10
-67.629410567
 20
-18.521977824
  0
LWPOLYLINE
  5
40F
100
AcDbEntity
  8
RACCORDO
100
AcDbPolyline
 62
7
  6
CONTINUOUS
 90
8
 70
0
 10
-68.2943510302
 20
-17.5252941073
 10
-68.2099548369
 20
-17.6117596066
 10
-68.0992708995
 20
-17.7398996409
 10
-67.9931260046
 20
-17.879653038
 10
-67.8920121887
 20
-18.0299266173
 10
-67.7968027493
 20
-18.189090473
 10
-67.7086490822
 20
-18.354745501
 10
-67.6278510232
 20
-18.5257929651
  0
LINE
  5
410
100
AcDbEntity
  8
0
100
AcDbLine
 62
7
  6
CONTINUOUS
 10
-79.883250131
 20
-6.8222714037
 11
-80.1158725382
 21
-7.2251852319
  0
LINE
  5
411
100
AcDbEntity
  8
RACCORDO
100
AcDbLine
 62
7
  6
CONTINUOUS
 10
-37.3881502551
 20
-16.9954448212
 11
-39.9201291163
 21
-16.9954448212
  0
LINE
  5
412
100
AcDbEntity
  8
ASSI
100
AcDbLine
 62
7
  6
CONTINUOUS
 10
-37.3881502551
 20
-16.9954448212
 11
-39.9201291163
 21
-16.9954448212
  0
LINE
  5
413
100
AcDbEntity
  8
RACCORDO
100
AcDbLine
 62
253
  6
CONTINUOUS
 10
-36.8881502551
 20
-15.9954448212
 11
-41.3794240519
 21
-15.9954448212
  0
LINE
  5
414
100
AcDbEntity
  8
ASSI
100
AcDbLine
 62
253
  6
CONTINUOUS
 10
-36.8881502551
 20
-15.9954448212
 11
-41.3794240519
 21
-15.9954448212
  0
LINE
  5
415
100
AcDbEntity
  8
0
100
AcDbLine
 62
7
  6
CONTINUOUS
 10
-36.8881502551
 20
-15.7496448212
 11
-36.6881502551
 21
-15.7496448212
  0
LINE
  5
416
100
AcDbEntity
  8
ASSI
100
AcDbLine
 62
7
  6
CONTINUOUS
 10
-36.8881502551
 20
-15.7496448212
 11
-36.6881502551
 21
-15.7496448212
  0
LINE
  5
417
100
AcDbEntity
  8
0
100
AcDbLine
 62
7
  6
CONTINUOUS
 10
-36.8881502551
 20
-15.7371148212
 11
-36.6881502551
 21
-15.7371148212
  0
LINE
  5
418
100
AcDbEntity
  8
ASSI
100
AcDbLine
 62
7
  6
CONTINUOUS
 10
-36.8881502551
 20
-15.7371148212
 11
-36.6881502551
 21
-15.7371148212
  0
LINE
  5
419
100
AcDbEntity
  8
RACCORDO
100
AcDbLine
 62
253
  6
CONTINUOUS
 10
-75.5782394388
 20
-10.4223391925
 11
-80.1158725382
 21
-7.8025355011
  0
LINE
  5
41A
100
AcDbEntity
  8
0
100
AcDbLine
 62
7
  6
CONTINUOUS
 10
-80.1158725382
 20
-7.2251852319
 11
-77.433200568
 21
-8.774026616
  0
LINE
  5
41B
100
AcDbEntity
  8
0
100
AcDbLine
 62
7
  6
CONTINUOUS
 10
-79.8655320541
 20
-6.7923691086
 11
-79.7816584541
 21
-6.8407935541
  0
LINE
  5
41C
100
AcDbEntity
  8
RACCORDO
100
AcDbLine
 62
7
  6
CONTINUOUS
 10
-67.629410567
 20
-18.521977824
 11
-67.554743247
 21
-18.701154878
  0
LINE
  5
41D
100
AcDbEntity
  8
RACCORDO
100
AcDbLine
 62
7
  6
CONTINUOUS
 10
-67.5560843705
 20
-18.6974843147
 11
-67.4899600211
 21
-18.8789088263
  0
LINE
  5
41E
100
AcDbEntity
  8
RACCORDO
100
AcDbLine
 62
7
  6
CONTINUOUS
 10
-67.4911616534
 20
-18.8751733491
 11
-67.4337547726
 21
-19.0579821556
  0
LWPOLYLINE
  5
41F
100
AcDbEntity
  8
RACCORDO
100
AcDbPolyline
 62
7
  6
CONTINUOUS
 90
18
 70
0
 10
-67.2798511638
 20
20.2068447855
 10
-67.2849870503
 20
20.1383019559
 10
-67.2948895696
 20
20.0698835625
 10
-67.30949545
 20
20.0023128331
 10
-67.3287348825
 20
19.935912709
 10
-67.3525159199
 20
19.8710005125
 10
-67.3807249237
 20
19.8078864341
 10
-67.4132270921
 20
19.7468720937
 10
-67.4498670919
 20
19.6882491045
 10
-67.4904698144
 20
19.6322976447
 10
-67.5348412143
 20
19.5792851187
 10
-67.5827692386
 20
19.5294648816
 10
-67.6340248333
 20
19.4830750356
 10
-67.6883630421
 20
19.4403372877
 10
-67.7455241765
 20
19.4014558908
 10
-67.8052350562
 20
19.3666166682
 10
-67.8672103147
 20
19.3359861252
 10
-67.9204446744
 20
19.3137542225
  0
LINE
  5
420
100
AcDbEntity
  8
0
100
AcDbLine
 62
7
  6
CONTINUOUS
 10
-36.8881502551
 20
-12.2537748212
 11
-36.6881502551
 21
-12.2537748212
  0
LINE
  5
421
100
AcDbEntity
  8
ASSI
100
AcDbLine
 62
7
  6
CONTINUOUS
 10
-36.8881502551
 20
-12.2537748212
 11
-36.6881502551
 21
-12.2537748212
  0
LINE
  5
422
100
AcDbEntity
  8
0
100
AcDbLine
 62
7
  6
CONTINUOUS
 10
-36.8881502551
 20
-12.2412448212
 11
-36.6881502551
 21
-12.2412448212
  0
LINE
  5
423
100
AcDbEntity
  8
ASSI
100
AcDbLine
 62
7
  6
CONTINUOUS
 10
-36.8881502551
 20
-12.2412448212
 11
-36.6881502551
 21
-12.2412448212
  0
LINE
  5
424
100
AcDbEntity
  8
RACCORDO
100
AcDbLine
 62
7
  6
CONTINUOUS
 10
-67.4347671837
 20
-19.0543091831
 11
-67.3863103742
 21
-19.2376025574
  0
LINE
  5
425
100
AcDbEntity
  8
RACCORDO
100
AcDbLine
 62
7
  6
CONTINUOUS
 10
-67.3871469882
 20
-19.2340221
 11
-67.3482083424
 21
-19.4152572104
  0
LINE
  5
426
100
AcDbEntity
  8
RACCORDO
100
AcDbLine
 62
7
  6
CONTINUOUS
 10
-67.3488481597
 20
-19.411769802
 11
-67.3195733641
 21
-19.5897115987
  0
LINE
  5
427
100
AcDbEntity
  8
RACCORDO
100
AcDbLine
 62
7
  6
CONTINUOUS
 10
-67.320033428
 20
-19.5863598115
 11
-67.300369975
 21
-19.7611453685
  0
LINE
  5
428
100
AcDbEntity
  8
RACCORDO
100
AcDbLine
 62
7
  6
CONTINUOUS
 10
-67.3006209314
 20
-19.7579403948
 11
-67.2920297496
 21
-19.8934844265
  0
LINE
  5
429
100
AcDbEntity
  8
RACCORDO
100
AcDbLine
 62
7
  6
CONTINUOUS
 10
-67.2920410289
 20
-19.8940123616
 11
-67.2920618058
 21
-19.8934856857
  0
LINE
  5
42A
100
AcDbEntity
  8
RACCORDO
100
AcDbLine
 62
7
  6
CONTINUOUS
 10
-45.453287958
 20
-2.8073993
 11
-44.1297930134
 21
-2.6916084961
  0
LINE
  5
42B
100
AcDbEntity
  8
0
100
AcDbLine
 62
7
  6
CONTINUOUS
 10
-44.1297930134
 20
-2.6916084961
 11
-45.453287958
 21
-2.8073993
  0
LINE
  5
42C
100
AcDbEntity
  8
RACCORDO
100
AcDbLine
 62
253
  6
CONTINUOUS
 10
-36.8881502551
 20
-5.4867173003
 11
-37.3794240519
 21
-5.4867173003
  0
LINE
  5
42D
100
AcDbEntity
  8
ASSI
100
AcDbLine
 62
253
  6
CONTINUOUS
 10
-36.8881502551
 20
-5.4867173003
 11
-37.3794240519
 21
-5.4867173003
  0
LINE
  5
42E
100
AcDbEntity
  8
RACCORDO
100
AcDbLine
 62
7
  6
CONTINUOUS
 10
-46.6881502551
 20
-4.0954448212
 11
-45.8881502551
 21
-4.0954448212
  0
LINE
  5
42F
100
AcDbEntity
  8
RACCORDO
100
AcDbLine
 62
253
  6
CONTINUOUS
 10
-46.6881502551
 20
-3.2954448212
 11
-45.8881502551
 21
-3.2954448212
  0
LINE
  5
430
100
AcDbEntity
  8
0
100
AcDbLine
 62
7
  6
CONTINUOUS
 10
-40.5381808427
 20
-3.2954448212
 11
-44.0381196675
 21
-3.2954448212
  0
LINE
  5
431
100
AcDbEntity
  8
RACCORDO
100
AcDbLine
 62
253
  6
CONTINUOUS
 10
-37.3794240519
 20
-5.4867223458
 11
-47.1794240519
 21
-5.315657664
  0
LINE
  5
432
100
AcDbEntity
  8
ASSI
100
AcDbLine
 62
253
  6
CONTINUOUS
 10
-37.3794240519
 20
-5.4867223458
 11
-47.1794240519
 21
-5.315657664
  0
LINE
  5
433
100
AcDbEntity
  8
RACCORDO
100
AcDbLine
 62
7
  6
CONTINUOUS
 10
-46.6881502551
 20
-4.3243851849
 11
-37.3794240519
 21
-4.4868696051
  0
LINE
  5
434
100
AcDbEntity
  8
ASSI
100
AcDbLine
 62
7
  6
CONTINUOUS
 10
-46.6881502551
 20
-4.3243851849
 11
-37.3794240519
 21
-4.4868696051
  0
LINE
  5
435
100
AcDbEntity
  8
RACCORDO
100
AcDbLine
 62
7
  6
CONTINUOUS
 10
-60.6881502551
 20
-24.2284242785
 11
-60.6881502551
 21
-23.8897823885
  0
LINE
  5
436
100
AcDbEntity
  8
RACCORDO
100
AcDbLine
 62
7
  6
CONTINUOUS
 10
-60.6881502551
 20
23.8988927461
 11
-60.6881502551
 21
24.2375346361
  0
LINE
  5
437
100
AcDbEntity
  8
RACCORDO
100
AcDbLine
 62
253
  6
CONTINUOUS
 10
-60.4394592461
 20
-24.2284242785
 11
-60.4394592461
 21
-23.8897823885
  0
LINE
  5
438
100
AcDbEntity
  8
RACCORDO
100
AcDbLine
 62
253
  6
CONTINUOUS
 10
-60.4394592461
 20
23.8988927461
 11
-60.4394592461
 21
24.2375346361
  0
LINE
  5
439
100
AcDbEntity
  8
RACCORDO
100
AcDbLine
 62
7
  6
CONTINUOUS
 10
-59.6881502551
 20
-23.168094552
 11
-59.6881502551
 21
-22.2668331522
  0
LINE
  5
43A
100
AcDbEntity
  8
RACCORDO
100
AcDbLine
 62
7
  6
CONTINUOUS
 10
-59.6881502551
 20
22.2759435099
 11
-59.6881502551
 21
23.1772049097
  0
LINE
  5
43B
100
AcDbEntity
  8
RACCORDO
100
AcDbLine
 62
253
  6
CONTINUOUS
 10
-59.4394592461
 20
-23.3124321193
 11
-59.4394592461
 21
-22.2798664957
  0
LINE
  5
43C
100
AcDbEntity
  8
RACCORDO
100
AcDbLine
 62
253
  6
CONTINUOUS
 10
-59.4394592461
 20
22.2889768534
 11
-59.4394592461
 21
23.321542477
  0
LINE
  5
43D
100
AcDbEntity
  8
RACCORDO
100
AcDbLine
 62
7
  6
CONTINUOUS
 10
-58.1881502551
 20
21.854097675
 11
-58.1881502551
 21
21.6045551788
  0
LINE
  5
43E
100
AcDbEntity
  8
DRAFT
100
AcDbLine
 62
7
  6
CONTINUOUS
 10
-58.1881502551
 20
-23.168094552
 11
-58.1881502551
 21
-22.3454448212
  0
LINE
  5
43F
100
AcDbEntity
  8
RACCORDO
100
AcDbLine
 62
7
  6
CONTINUOUS
 10
-58.1881502551
 20
-21.8449873173
 11
-58.1881502551
 21
-21.5954448212
  0
LINE
  5
440
100
AcDbEntity
  8
DRAFT
100
AcDbLine
 62
7
  6
CONTINUOUS
 10
-58.1881502551
 20
22.3545551788
 11
-58.1881502551
 21
23.1772049097
  0
LINE
  5
441
100
AcDbEntity
  8
ASSI
100
AcDbLine
 62
7
  6
CONTINUOUS
 10
-37.8881502551
 20
-3.0954448212
 11
-40.5381502551
 21
-3.0954448212
  0
LINE
  5
442
100
AcDbEntity
  8
ASSI
100
AcDbLine
 62
7
  6
CONTINUOUS
 10
-44.0381502551
 20
-3.0954448212
 11
-45.8881502551
 21
-3.0954448212
  0
LINE
  5
443
100
AcDbEntity
  8
0
100
AcDbLine
 62
7
  6
CONTINUOUS
 10
-37.8881502551
 20
-2.7954448212
 11
-45.31664764
 21
-2.7954448212
  0
LINE
  5
444
100
AcDbEntity
  8
0
100
AcDbLine
 62
7
  6
CONTINUOUS
 10
-45.5898285338
 20
-2.7954448212
 11
-45.8881502551
 21
-2.7954448212
  0
LINE
  5
445
100
AcDbEntity
  8
RACCORDO
100
AcDbLine
 62
7
  6
CONTINUOUS
 10
-41.9127228527
 20
-1.4954448212
 11
-38.2137421666
 21
-1.4954448212
  0
LINE
  5
446
100
AcDbEntity
  8
0
100
AcDbLine
 62
7
  6
CONTINUOUS
 10
-41.9127228527
 20
-1.4954448212
 11
-43.4558495665
 21
-1.4954448212
  0
LINE
  5
447
100
AcDbEntity
  8
RACCORDO
100
AcDbLine
 62
7
  6
CONTINUOUS
 10
-43.2664594907
 20
-0.1954448212
 11
-44.1881502551
 21
-0.1954448212
  0
LINE
  5
448
100
AcDbEntity
  8
DRAFT
100
AcDbLine
 62
7
  6
CONTINUOUS
 10
-57.1881502551
 20
23.7545551788
 11
-57.1881502551
 21
22.4045551788
  0
LINE
  5
449
100
AcDbEntity
  8
DRAFT
100
AcDbLine
 62
7
  6
CONTINUOUS
 10
-57.1881502551
 20
-23.7454135712
 11
-57.1881502551
 21
-22.3954448212
  0
LINE
  5
44A
100
AcDbEntity
  8
ASSI
100
AcDbLine
 62
7
  6
CONTINUOUS
 10
-57.1881502551
 20
-23.7454135712
 11
-57.1881502551
 21
-22.197610267
  0
LINE
  5
44B
100
AcDbEntity
  8
RACCORDO
100
AcDbLine
 62
7
  6
CONTINUOUS
 10
-57.1881502551
 20
-23.7454448212
 11
-57.1881502551
 21
-24.4954448212
  0
LINE
  5
44C
100
AcDbEntity
  8
RACCORDO
100
AcDbLine
 62
7
  6
CONTINUOUS
 10
-57.1881502551
 20
-22.3954448212
 11
-57.1881502551
 21
22.3021473996
  0
LINE
  5
44D
100
AcDbEntity
  8
ASSI
100
AcDbLine
 62
7
  6
CONTINUOUS
 10
-57.1881502551
 20
-21.7330788839
 11
-57.1881502551
 21
21.7421892412
  0
LINE
  5
44E
100
AcDbEntity
  8
RACCORDO
100
AcDbLine
 62
7
  6
CONTINUOUS
 10
-57.1881502551
 20
22.3537997691
 11
-57.1881502551
 21
22.4045551788
  0
LINE
  5
44F
100
AcDbEntity
  8
ASSI
100
AcDbLine
 62
7
  6
CONTINUOUS
 10
-57.1881502551
 20
22.4007499807
 11
-57.1881502551
 21
23.7545551788
  0
LINE
  5
450
100
AcDbEntity
  8
RACCORDO
100
AcDbLine
 62
7
  6
CONTINUOUS
 10
-57.1881502551
 20
23.7545551788
 11
-57.1881502551
 21
24.5045551788
  0
LINE
  5
451
100
AcDbEntity
  8
RACCORDO
100
AcDbLine
 62
7
  6
CONTINUOUS
 10
-43.2664595174
 20
1.0045551788
 11
-44.1881502551
 21
1.0045551788
  0
LINE
  5
452
100
AcDbEntity
  8
SMUSSO
100
AcDbLine
 62
7
  6
CONTINUOUS
 10
-42.8551238231
 20
4.9045551788
 11
-44.9161089265
 21
4.9045551788
  0
LINE
  5
453
100
AcDbEntity
  8
SMUSSO
100
AcDbLine
 62
7
  6
CONTINUOUS
 10
-42.8860426332
 20
4.9545551788
 11
-44.8739553176
 21
4.9545551788
  0
LINE
  5
454
100
AcDbEntity
  8
SMUSSO
100
AcDbLine
 62
7
  6
CONTINUOUS
 10
-37.1881502551
 20
6.2045551788
 11
-45.8881502551
 21
6.2045551788
  0
LINE
  5
455
100
AcDbEntity
  8
SMUSSO
100
AcDbLine
 62
7
  6
CONTINUOUS
 10
-37.1881502551
 20
6.3045551788
 11
-45.8881502551
 21
6.3045551788
  0
LINE
  5
456
100
AcDbEntity
  8
RACCORDO
100
AcDbLine
 62
7
  6
CONTINUOUS
 10
-36.9881502551
 20
6.4545551788
 11
-36.3881502551
 21
6.4545551788
  0
LINE
  5
457
100
AcDbEntity
  8
0
100
AcDbLine
 62
7
  6
CONTINUOUS
 10
-36.3881502551
 20
6.4545551788
 11
-36.9881502551
 21
6.4545551788
  0
LINE
  5
458
100
AcDbEntity
  8
0
100
AcDbLine
 62
7
  6
CONTINUOUS
 10
-36.1881502551
 20
7.2045551788
 11
-35.2881502551
 21
7.2045551788
  0
LINE
  5
459
100
AcDbEntity
  8
RACCORDO
100
AcDbLine
 62
7
  6
CONTINUOUS
 10
-45.453287958
 20
3.6165096577
 11
-44.1297930134
 21
3.5007188538
  0
LINE
  5
45A
100
AcDbEntity
  8
0
100
AcDbLine
 62
7
  6
CONTINUOUS
 10
-44.1297930134
 20
3.5007188538
 11
-45.453287958
 21
3.6165096577
  0
LINE
  5
45B
100
AcDbEntity
  8
RACCORDO
100
AcDbLine
 62
7
  6
CONTINUOUS
 10
-50.1881502551
 20
-23.2387011413
 11
-50.1881502551
 21
-22.2732593667
  0
LINE
  5
45C
100
AcDbEntity
  8
ASSI
100
AcDbLine
 62
7
  6
CONTINUOUS
 10
-50.1881502551
 20
-23.2387011413
 11
-50.1881502551
 21
-22.2732593667
  0
LINE
  5
45D
100
AcDbEntity
  8
RACCORDO
100
AcDbLine
 62
7
  6
CONTINUOUS
 10
-50.1881502551
 20
22.2823697243
 11
-50.1881502551
 21
23.247811499
  0
LINE
  5
45E
100
AcDbEntity
  8
ASSI
100
AcDbLine
 62
7
  6
CONTINUOUS
 10
-50.1881502551
 20
22.2823697243
 11
-50.1881502551
 21
23.247811499
  0
LINE
  5
45F
100
AcDbEntity
  8
RACCORDO
100
AcDbLine
 62
253
  6
CONTINUOUS
 10
-47.1794240519
 20
21.2300001796
 11
-47.1794240519
 21
-5.315657664
  0
LINE
  5
460
100
AcDbEntity
  8
ASSI
100
AcDbLine
 62
253
  6
CONTINUOUS
 10
-47.1794240519
 20
21.2300001796
 11
-47.1794240519
 21
-5.315657664
  0
LINE
  5
461
100
AcDbEntity
  8
RACCORDO
100
AcDbLine
 62
7
  6
CONTINUOUS
 10
-46.6881502551
 20
21.7299283655
 11
-46.6881502551
 21
19.2045551788
  0
LINE
  5
462
100
AcDbEntity
  8
ASSI
100
AcDbLine
 62
7
  6
CONTINUOUS
 10
-46.6881502551
 20
21.7299283655
 11
-46.6881502551
 21
19.2045551788
  0
LINE
  5
463
100
AcDbEntity
  8
ASSI
100
AcDbLine
 62
7
  6
CONTINUOUS
 10
-46.6881502551
 20
-3.8954275489
 11
-46.6881502551
 21
-4.4633230693
  0
LINE
  5
464
100
AcDbEntity
  8
RACCORDO
100
AcDbLine
 62
7
  6
CONTINUOUS
 10
-46.6881502551
 20
-4.4633230693
 11
-46.6881502551
 21
-3.2954448212
  0
LINE
  5
465
100
AcDbEntity
  8
0
100
AcDbLine
 62
7
  6
CONTINUOUS
 10
-46.6881502551
 20
-3.2954448212
 11
-46.6881502551
 21
19.2045551788
  0
LINE
  5
466
100
AcDbEntity
  8
0
100
AcDbLine
 62
7
  6
CONTINUOUS
 10
-45.4681593243
 20
21.0045551788
 11
-45.5381502551
 21
20.2045551788
  0
LINE
  5
467
100
AcDbEntity
  8
SMUSSO
100
AcDbLine
 62
7
  6
CONTINUOUS
 10
-42.8655495462
 20
14.5045551788
 11
-42.8860426332
 21
14.4545551788
  0
LINE
  5
468
100
AcDbEntity
  8
SMUSSO
100
AcDbLine
 62
7
  6
CONTINUOUS
 10
-44.904857017
 20
4.9045551788
 11
-44.8739553176
 21
4.9545551788
  0
LINE
  5
469
100
AcDbEntity
  8
RACCORDO
100
AcDbLine
 62
7
  6
CONTINUOUS
 10
-36.1881502551
 20
9.2045551788
 11
-35.0881502551
 21
9.2045551788
  0
LINE
  5
46A
100
AcDbEntity
  8
RACCORDO
100
AcDbLine
 62
7
  6
CONTINUOUS
 10
-35.0881502551
 20
10.2045551788
 11
-36.1881502551
 21
10.2045551788
  0
LINE
  5
46B
100
AcDbEntity
  8
RACCORDO
100
AcDbLine
 62
7
  6
CONTINUOUS
 10
-45.8881502551
 20
-3.2954448212
 11
-45.8881502551
 21
-4.0954448212
  0
LINE
  5
46C
100
AcDbEntity
  8
0
100
AcDbLine
 62
7
  6
CONTINUOUS
 10
-45.8881502551
 20
-3.2954448212
 11
-45.8881502551
 21
19.2045551788
  0
LINE
  5
46D
100
AcDbEntity
  8
0
100
AcDbLine
 62
253
  6
CONTINUOUS
 10
-45.6881502551
 20
19.4045551788
 11
-45.6881502551
 21
20.2045551788
  0
LINE
  5
46E
100
AcDbEntity
  8
0
100
AcDbLine
 62
253
  6
CONTINUOUS
 10
-45.6679389957
 20
3.5753338181
 11
-45.6679389957
 21
6.2045551788
  0
LINE
  5
46F
100
AcDbEntity
  8
0
100
AcDbLine
 62
253
  6
CONTINUOUS
 10
-45.6679389957
 20
13.2045551788
 11
-45.6679389957
 21
17.2045551788
  0
LINE
  5
470
100
AcDbEntity
  8
RACCORDO
100
AcDbLine
 62
253
  6
CONTINUOUS
 10
-45.453287958
 20
3.6165096577
 11
-45.453287958
 21
-2.8073993
  0
LINE
  5
471
100
AcDbEntity
  8
0
100
AcDbLine
 62
7
  6
CONTINUOUS
 10
-44.9161089265
 20
14.5045551788
 11
-44.9161089265
 21
13.2045551788
  0
LINE
  5
472
100
AcDbEntity
  8
0
100
AcDbLine
 62
7
  6
CONTINUOUS
 10
-44.9161089265
 20
6.2045551788
 11
-44.9161089265
 21
4.9045551788
  0
LINE
  5
473
100
AcDbEntity
  8
SMUSSO
100
AcDbLine
 62
7
  6
CONTINUOUS
 10
-44.8739553176
 20
14.4545551788
 11
-44.8739553176
 21
13.2045551788
  0
LINE
  5
474
100
AcDbEntity
  8
SMUSSO
100
AcDbLine
 62
7
  6
CONTINUOUS
 10
-44.8739553176
 20
6.2045551788
 11
-44.8739553176
 21
4.9545551788
  0
LINE
  5
475
100
AcDbEntity
  8
0
100
AcDbLine
 62
7
  6
CONTINUOUS
 10
-44.1881502551
 20
-0.1954448212
 11
-44.1881502551
 21
1.0045551788
  0
LINE
  5
476
100
AcDbEntity
  8
DRAFT
100
AcDbLine
 62
7
  6
CONTINUOUS
 10
-44.1881502551
 20
17.2045551788
 11
-44.1881502551
 21
17.9263723483
  0
LINE
  5
477
100
AcDbEntity
  8
ASSI
100
AcDbLine
 62
7
  6
CONTINUOUS
 10
-44.1881502551
 20
17.2045551788
 11
-44.1881502551
 21
17.9263723483
  0
LINE
  5
478
100
AcDbEntity
  8
RACCORDO
100
AcDbLine
 62
253
  6
CONTINUOUS
 10
-44.1297930134
 20
3.5007188538
 11
-44.1297930134
 21
1.0045551788
  0
LINE
  5
479
100
AcDbEntity
  8
RACCORDO
100
AcDbLine
 62
253
  6
CONTINUOUS
 10
-44.1297930134
 20
-0.1954448212
 11
-44.1297930134
 21
-2.6916084961
  0
LINE
  5
47A
100
AcDbEntity
  8
RACCORDO
100
AcDbLine
 62
253
  6
CONTINUOUS
 10
-44.0881502551
 20
20.2045551788
 11
-44.0881502551
 21
19.4045551788
  0
LINE
  5
47B
100
AcDbEntity
  8
0
100
AcDbLine
 62
7
  6
CONTINUOUS
 10
-44.0381502551
 20
17.9276813785
 11
-44.0381502551
 21
17.2045551788
  0
LINE
  5
47C
100
AcDbEntity
  8
0
100
AcDbLine
 62
7
  6
CONTINUOUS
 10
-44.0381502551
 20
-2.7954448212
 11
-44.0381502551
 21
-3.2954448212
  0
LINE
  5
47D
100
AcDbEntity
  8
RACCORDO
100
AcDbLine
 62
253
  6
CONTINUOUS
 10
-43.7995950108
 20
3.2657370834
 11
-43.7995950108
 21
1.0045551788
  0
LINE
  5
47E
100
AcDbEntity
  8
RACCORDO
100
AcDbLine
 62
253
  6
CONTINUOUS
 10
-43.7995950108
 20
-0.1954448212
 11
-43.7995950108
 21
-2.4566267257
  0
LINE
  5
47F
100
AcDbEntity
  8
0
100
AcDbLine
 62
7
  6
CONTINUOUS
 10
-43.7881502551
 20
19.4045551788
 11
-43.7881502551
 21
19.3539354906
  0
LINE
  5
480
100
AcDbEntity
  8
RACCORDO
100
AcDbLine
 62
7
  6
CONTINUOUS
 10
-43.5881502551
 20
20.2045551788
 11
-43.5881502551
 21
19.4045551788
  0
LINE
  5
481
100
AcDbEntity
  8
0
100
AcDbLine
 62
7
  6
CONTINUOUS
 10
-43.4914162199
 20
2.4426310512
 11
-43.4914162199
 21
2.4298293533
  0
LINE
  5
482
100
AcDbEntity
  8
0
100
AcDbLine
 62
7
  6
CONTINUOUS
 10
-43.4914162199
 20
-1.6207053931
 11
-43.4914162199
 21
-1.6335206935
  0
LINE
  5
483
100
AcDbEntity
  8
RACCORDO
100
AcDbLine
 62
253
  6
CONTINUOUS
 10
-43.4417036457
 20
20.2045551788
 11
-43.4417036457
 21
19.4045551788
  0
LINE
  5
484
100
AcDbEntity
  8
0
100
AcDbLine
 62
7
  6
CONTINUOUS
 10
-36.1881502551
 20
12.2045551788
 11
-35.2881502551
 21
12.2045551788
  0
LINE
  5
485
100
AcDbEntity
  8
0
100
AcDbLine
 62
7
  6
CONTINUOUS
 10
-36.3881502551
 20
12.9545551788
 11
-36.9881502551
 21
12.9545551788
  0
LINE
  5
486
100
AcDbEntity
  8
SMUSSO
100
AcDbLine
 62
7
  6
CONTINUOUS
 10
-37.1881502551
 20
13.1045551788
 11
-45.8881502551
 21
13.1045551788
  0
LINE
  5
487
100
AcDbEntity
  8
SMUSSO
100
AcDbLine
 62
7
  6
CONTINUOUS
 10
-37.1881502551
 20
13.2045551788
 11
-45.8881502551
 21
13.2045551788
  0
LINE
  5
488
100
AcDbEntity
  8
SMUSSO
100
AcDbLine
 62
7
  6
CONTINUOUS
 10
-44.8739553176
 20
14.4545551788
 11
-42.8860426332
 21
14.4545551788
  0
LINE
  5
489
100
AcDbEntity
  8
SMUSSO
100
AcDbLine
 62
7
  6
CONTINUOUS
 10
-42.8551238231
 20
14.5045551788
 11
-44.9161089265
 21
14.5045551788
  0
LINE
  5
48A
100
AcDbEntity
  8
SMUSSO
100
AcDbLine
 62
7
  6
CONTINUOUS
 10
-42.8860426332
 20
14.4545551788
 11
-42.8860426332
 21
13.2045551788
  0
LINE
  5
48B
100
AcDbEntity
  8
SMUSSO
100
AcDbLine
 62
7
  6
CONTINUOUS
 10
-42.8860426332
 20
6.2045551788
 11
-42.8860426332
 21
4.9545551788
  0
LINE
  5
48C
100
AcDbEntity
  8
0
100
AcDbLine
 62
7
  6
CONTINUOUS
 10
-42.8551238231
 20
14.5045551788
 11
-42.8551238231
 21
13.2045551788
  0
LINE
  5
48D
100
AcDbEntity
  8
0
100
AcDbLine
 62
7
  6
CONTINUOUS
 10
-42.8551238231
 20
6.2045551788
 11
-42.8551238231
 21
4.9045551788
  0
LINE
  5
48E
100
AcDbEntity
  8
0
100
AcDbLine
 62
7
  6
CONTINUOUS
 10
-42.6381502551
 20
22.1049781599
 11
-42.6381502551
 21
21.9162238246
  0
LINE
  5
48F
100
AcDbEntity
  8
0
100
AcDbLine
 62
7
  6
CONTINUOUS
 10
-41.9381502551
 20
21.9162238246
 11
-41.9381502551
 21
22.1049781599
  0
LINE
  5
490
100
AcDbEntity
  8
0
100
AcDbLine
 62
253
  6
CONTINUOUS
 10
-41.9127228527
 20
-1.4954448212
 11
-41.9127228527
 21
6.2045551788
  0
LINE
  5
491
100
AcDbEntity
  8
0
100
AcDbLine
 62
253
  6
CONTINUOUS
 10
-41.9127228527
 20
13.2045551788
 11
-41.9127228527
 21
17.2045551788
  0
LINE
  5
492
100
AcDbEntity
  8
DRAFT
100
AcDbLine
 62
7
  6
CONTINUOUS
 10
-41.6881502551
 20
19.3172798542
 11
-41.6881502551
 21
17.9481895178
  0
LINE
  5
493
100
AcDbEntity
  8
ASSI
100
AcDbLine
 62
7
  6
CONTINUOUS
 10
-41.6881502551
 20
19.3172798542
 11
-41.6881502551
 21
17.9481895178
  0
LINE
  5
494
100
AcDbEntity
  8
RACCORDO
100
AcDbLine
 62
253
  6
CONTINUOUS
 10
-41.3794240519
 20
-15.9954448212
 11
-41.3794240519
 21
-21.1196496194
  0
LINE
  5
495
100
AcDbEntity
  8
ASSI
100
AcDbLine
 62
253
  6
CONTINUOUS
 10
-41.3794240519
 20
-15.9954448212
 11
-41.3794240519
 21
-21.1196496194
  0
LINE
  5
496
100
AcDbEntity
  8
RACCORDO
100
AcDbLine
 62
7
  6
CONTINUOUS
 10
-40.8881502551
 20
-16.8563731864
 11
-40.8881502551
 21
-21.4254766123
  0
LINE
  5
497
100
AcDbEntity
  8
ASSI
100
AcDbLine
 62
7
  6
CONTINUOUS
 10
-40.8881502551
 20
-16.8563731864
 11
-40.8881502551
 21
-21.4254766123
  0
LINE
  5
498
100
AcDbEntity
  8
0
100
AcDbLine
 62
7
  6
CONTINUOUS
 10
-40.7881502551
 20
19.4045551788
 11
-40.7881502551
 21
19.2045551788
  0
LINE
  5
499
100
AcDbEntity
  8
0
100
AcDbLine
 62
7
  6
CONTINUOUS
 10
-40.5381502551
 20
19.2045551788
 11
-40.5381502551
 21
17.2045551788
  0
LINE
  5
49A
100
AcDbEntity
  8
0
100
AcDbLine
 62
7
  6
CONTINUOUS
 10
-40.5381502551
 20
-2.7954448212
 11
-40.5381502551
 21
-3.2954448212
  0
LINE
  5
49B
100
AcDbEntity
  8
RACCORDO
100
AcDbLine
 62
253
  6
CONTINUOUS
 10
-39.4224648302
 20
20.2045551788
 11
-39.4224648302
 21
19.4045551788
  0
LINE
  5
49C
100
AcDbEntity
  8
DRAFT
100
AcDbLine
 62
7
  6
CONTINUOUS
 10
-58.1881502551
 20
-21.5954448212
 11
-57.1881502551
 21
-21.018094552
  0
LINE
  5
49D
100
AcDbEntity
  8
DRAFT
100
AcDbLine
 62
7
  6
CONTINUOUS
 10
-45.8881502551
 20
17.9115366731
 11
-41.6881502551
 21
17.9481895178
  0
LINE
  5
49E
100
AcDbEntity
  8
ASSI
100
AcDbLine
 62
7
  6
CONTINUOUS
 10
-45.8881502551
 20
17.9115366731
 11
-41.6881502551
 21
17.9481895178
  0
LINE
  5
49F
100
AcDbEntity
  8
SMUSSO
100
AcDbLine
 62
7
  6
CONTINUOUS
 10
-38.6881502551
 20
17.9743701212
 11
-40.5381502551
 21
17.9582254158
  0
LINE
  5
4A0
100
AcDbEntity
  8
ASSI
100
AcDbLine
 62
7
  6
CONTINUOUS
 10
-38.6881502551
 20
17.9743701212
 11
-40.5381502551
 21
17.9582254158
  0
LINE
  5
4A1
100
AcDbEntity
  8
0
100
AcDbLine
 62
7
  6
CONTINUOUS
 10
-45.8881502551
 20
17.2045551788
 11
-45.8454617712
 21
17.2045551788
  0
LINE
  5
4A2
100
AcDbEntity
  8
RACCORDO
100
AcDbLine
 62
7
  6
CONTINUOUS
 10
-41.9127228527
 20
17.2045551788
 11
-38.2137421666
 21
17.2045551788
  0
LINE
  5
4A3
100
AcDbEntity
  8
0
100
AcDbLine
 62
7
  6
CONTINUOUS
 10
-41.9127228527
 20
17.2045551788
 11
-45.8454617712
 21
17.2045551788
  0
LINE
  5
4A4
100
AcDbEntity
  8
DRAFT
100
AcDbLine
 62
7
  6
CONTINUOUS
 10
-44.1881502551
 20
17.8609175165
 11
-45.8881502551
 21
17.8905911269
  0
LINE
  5
4A5
100
AcDbEntity
  8
ASSI
100
AcDbLine
 62
7
  6
CONTINUOUS
 10
-44.1881502551
 20
17.8609175165
 11
-45.8881502551
 21
17.8905911269
  0
LINE
  5
4A6
100
AcDbEntity
  8
DRAFT
100
AcDbLine
 62
7
  6
CONTINUOUS
 10
-57.1881502551
 20
21.0272049097
 11
-58.1881502551
 21
21.6045551788
  0
LINE
  5
4A7
100
AcDbEntity
  8
SMUSSO
100
AcDbLine
 62
7
  6
CONTINUOUS
 10
-42.8860426332
 20
4.9545551788
 11
-42.8655495462
 21
4.9045551788
  0
LINE
  5
4A8
100
AcDbEntity
  8
0
100
AcDbLine
 62
7
  6
CONTINUOUS
 10
-39.1081411859
 20
21.0045551788
 11
-39.0381502551
 21
20.2045551788
  0
LINE
  5
4A9
100
AcDbEntity
  8
RACCORDO
100
AcDbLine
 62
7
  6
CONTINUOUS
 10
-39.1881502551
 20
20.2045551788
 11
-39.1881502551
 21
19.4045551788
  0
LINE
  5
4AA
100
AcDbEntity
  8
SMUSSO
100
AcDbLine
 62
7
  6
CONTINUOUS
 10
-39.1878456686
 20
19.2736368753
 11
-39.1878456686
 21
17.9700093454
  0
LINE
  5
4AB
100
AcDbEntity
  8
ASSI
100
AcDbLine
 62
7
  6
CONTINUOUS
 10
-39.1878456686
 20
19.2736368753
 11
-39.1878456686
 21
17.9700093454
  0
LINE
  5
4AC
100
AcDbEntity
  8
SMUSSO
100
AcDbLine
 62
7
  6
CONTINUOUS
 10
-38.6881502551
 20
19.2649146594
 11
-38.6881502551
 21
17.9743701212
  0
LINE
  5
4AD
100
AcDbEntity
  8
ASSI
100
AcDbLine
 62
7
  6
CONTINUOUS
 10
-38.6881502551
 20
19.2649146594
 11
-38.6881502551
 21
17.9743701212
  0
LINE
  5
4AE
100
AcDbEntity
  8
SMUSSO
100
AcDbLine
 62
7
  6
CONTINUOUS
 10
-38.2609570988
 20
-21.0649171541
 11
-38.2609570988
 21
-20.7302697088
  0
LINE
  5
4AF
100
AcDbEntity
  8
ASSI
100
AcDbLine
 62
7
  6
CONTINUOUS
 10
-38.2609570988
 20
-21.0649171541
 11
-38.2609570988
 21
-20.7302697088
  0
LINE
  5
4B0
100
AcDbEntity
  8
0
100
AcDbLine
 62
7
  6
CONTINUOUS
 10
-37.8881502551
 20
-1.3360317732
 11
-37.8881502551
 21
-2.7954448212
  0
LINE
  5
4B1
100
AcDbEntity
  8
RACCORDO
100
AcDbLine
 62
7
  6
CONTINUOUS
 10
-37.8859671919
 20
17.0451421308
 11
-37.8859671919
 21
13.2045551788
  0
LINE
  5
4B2
100
AcDbEntity
  8
RACCORDO
100
AcDbLine
 62
7
  6
CONTINUOUS
 10
-37.8859671919
 20
6.2045551788
 11
-37.8859671919
 21
-1.3360317732
  0
LINE
  5
4B3
100
AcDbEntity
  8
ASSI
100
AcDbLine
 62
7
  6
CONTINUOUS
 10
-37.5881502551
 20
-1.2954448212
 11
-37.5881502551
 21
-2.7954448212
  0
LINE
  5
4B4
100
AcDbEntity
  8
0
100
AcDbLine
 62
7
  6
CONTINUOUS
 10
-37.3881502551
 20
-16.9954448212
 11
-37.3881502551
 21
-20.7226706375
  0
LINE
  5
4B5
100
AcDbEntity
  8
ASSI
100
AcDbLine
 62
7
  6
CONTINUOUS
 10
-37.3881502551
 20
-16.9954448212
 11
-37.3881502551
 21
-20.7226706375
  0
LINE
  5
4B6
100
AcDbEntity
  8
RACCORDO
100
AcDbLine
 62
253
  6
CONTINUOUS
 10
-37.3794240519
 20
-5.4867223458
 11
-37.3794240519
 21
-15.9954397688
  0
LINE
  5
4B7
100
AcDbEntity
  8
ASSI
100
AcDbLine
 62
253
  6
CONTINUOUS
 10
-37.3794240519
 20
-5.4867223458
 11
-37.3794240519
 21
-15.9954397688
  0
LINE
  5
4B8
100
AcDbEntity
  8
SMUSSO
100
AcDbLine
 62
7
  6
CONTINUOUS
 10
-37.1881502551
 20
13.2045551788
 11
-37.1881502551
 21
6.2045551788
  0
LINE
  5
4B9
100
AcDbEntity
  8
RACCORDO
100
AcDbLine
 62
253
  6
CONTINUOUS
 10
-36.9881502551
 20
12.9545551788
 11
-36.9881502551
 21
6.4545551788
  0
LINE
  5
4BA
100
AcDbEntity
  8
RACCORDO
100
AcDbLine
 62
7
  6
CONTINUOUS
 10
-36.8881502551
 20
-4.9867934527
 11
-36.8881502551
 21
-16.4954448212
  0
LINE
  5
4BB
100
AcDbEntity
  8
ASSI
100
AcDbLine
 62
7
  6
CONTINUOUS
 10
-36.8881502551
 20
-4.9867934527
 11
-36.8881502551
 21
-16.4954448212
  0
LINE
  5
4BC
100
AcDbEntity
  8
0
100
AcDbLine
 62
7
  6
CONTINUOUS
 10
-36.6881502551
 20
-12.2412448212
 11
-36.6881502551
 21
-15.7496448212
  0
LINE
  5
4BD
100
AcDbEntity
  8
ASSI
100
AcDbLine
 62
7
  6
CONTINUOUS
 10
-36.6881502551
 20
-12.2412448212
 11
-36.6881502551
 21
-15.7496448212
  0
LINE
  5
4BE
100
AcDbEntity
  8
RACCORDO
100
AcDbLine
 62
253
  6
CONTINUOUS
 10
-36.3881502551
 20
12.9545551788
 11
-36.3881502551
 21
6.4545551788
  0
LINE
  5
4BF
100
AcDbEntity
  8
RACCORDO
100
AcDbLine
 62
7
  6
CONTINUOUS
 10
-36.1881502551
 20
12.7545551788
 11
-36.1881502551
 21
6.6545551788
  0
LINE
  5
4C0
100
AcDbEntity
  8
RACCORDO
100
AcDbLine
 62
7
  6
CONTINUOUS
 10
-59.6881502551
 20
-23.168094552
 11
-60.5631502551
 21
-23.6732760375
  0
LINE
  5
4C1
100
AcDbEntity
  8
RACCORDO
100
AcDbLine
 62
253
  6
CONTINUOUS
 10
-59.4394592461
 20
-23.3124321193
 11
-60.4394592461
 21
-23.8897823885
  0
LINE
  5
4C2
100
AcDbEntity
  8
RACCORDO
100
AcDbLine
 62
253
  6
CONTINUOUS
 10
-65.8295472756
 20
21.4538576783
 11
-58.1881502551
 21
21.8543263268
  0
LINE
  5
4C3
100
AcDbEntity
  8
RACCORDO
100
AcDbLine
 62
7
  6
CONTINUOUS
 10
-65.8469890505
 20
21.9531724457
 11
-58.1881502551
 21
22.3545551788
  0
LINE
  5
4C4
100
AcDbEntity
  8
0
100
AcDbLine
 62
253
  6
CONTINUOUS
 10
-46.6881502551
 20
19.2045551788
 11
-45.8881502551
 21
19.2045551788
  0
LINE
  5
4C5
100
AcDbEntity
  8
0
100
AcDbLine
 62
7
  6
CONTINUOUS
 10
-40.5381808427
 20
19.2045551788
 11
-41.6881502551
 21
19.2045551788
  0
LINE
  5
4C6
100
AcDbEntity
  8
RACCORDO
100
AcDbLine
 62
7
  6
CONTINUOUS
 10
-39.1881502551
 20
19.4045551788
 11
-45.6881502551
 21
19.4045551788
  0
LINE
  5
4C7
100
AcDbEntity
  8
RACCORDO
100
AcDbLine
 62
7
  6
CONTINUOUS
 10
-43.4417036457
 20
20.2045551788
 11
-39.1881502551
 21
20.2045551788
  0
LINE
  5
4C8
100
AcDbEntity
  8
0
100
AcDbLine
 62
7
  6
CONTINUOUS
 10
-39.0381502551
 20
20.2045551788
 11
-39.1489065498
 21
20.2045551788
  0
LINE
  5
4C9
100
AcDbEntity
  8
RACCORDO
100
AcDbLine
 62
7
  6
CONTINUOUS
 10
-43.5881502551
 20
20.2045551788
 11
-45.6881502551
 21
20.2045551788
  0
LINE
  5
4CA
100
AcDbEntity
  8
0
100
AcDbLine
 62
7
  6
CONTINUOUS
 10
-39.1081411859
 20
21.0045551788
 11
-39.1476952435
 21
21.0045551788
  0
LINE
  5
4CB
100
AcDbEntity
  8
0
100
AcDbLine
 62
7
  6
CONTINUOUS
 10
-45.4286052667
 20
21.0045551788
 11
-45.4681593243
 21
21.0045551788
  0
LINE
  5
4CC
100
AcDbEntity
  8
RACCORDO
100
AcDbLine
 62
253
  6
CONTINUOUS
 10
-46.6881502551
 20
21.230004518
 11
-47.1794240519
 21
21.230004518
  0
LINE
  5
4CD
100
AcDbEntity
  8
ASSI
100
AcDbLine
 62
253
  6
CONTINUOUS
 10
-46.6881502551
 20
21.230004518
 11
-47.1794240519
 21
21.230004518
  0
LINE
  5
4CE
100
AcDbEntity
  8
0
100
AcDbLine
 62
253
  6
CONTINUOUS
 10
-45.4037283378
 20
21.2853352905
 11
-39.1725721724
 21
21.2853352905
  0
LINE
  5
4CF
100
AcDbEntity
  8
0
100
AcDbLine
 62
253
  6
CONTINUOUS
 10
-45.2969410886
 20
21.4445183948
 11
-39.2793594216
 21
21.4445183948
  0
LINE
  5
4D0
100
AcDbEntity
  8
SMUSSO
100
AcDbLine
 62
7
  6
CONTINUOUS
 10
-38.6881502551
 20
19.2649146594
 11
-40.7881502551
 21
19.3015702958
  0
LINE
  5
4D1
100
AcDbEntity
  8
ASSI
100
AcDbLine
 62
7
  6
CONTINUOUS
 10
-38.6881502551
 20
19.2649146594
 11
-40.7881502551
 21
19.3015702958
  0
LINE
  5
4D2
100
AcDbEntity
  8
DRAFT
100
AcDbLine
 62
7
  6
CONTINUOUS
 10
-41.6881502551
 20
19.3172798542
 11
-45.6884548416
 21
19.3871054305
  0
LINE
  5
4D3
100
AcDbEntity
  8
ASSI
100
AcDbLine
 62
7
  6
CONTINUOUS
 10
-41.6881502551
 20
19.3172798542
 11
-45.6884548416
 21
19.3871054305
  0
LINE
  5
4D4
100
AcDbEntity
  8
RACCORDO
100
AcDbLine
 62
253
  6
CONTINUOUS
 10
-47.1794240519
 20
21.2300001796
 11
-57.1881502551
 21
21.4047074837
  0
LINE
  5
4D5
100
AcDbEntity
  8
ASSI
100
AcDbLine
 62
253
  6
CONTINUOUS
 10
-47.1794240519
 20
21.2300001796
 11
-57.1881502551
 21
21.4047074837
  0
LINE
  5
4D6
100
AcDbEntity
  8
RACCORDO
100
AcDbLine
 62
7
  6
CONTINUOUS
 10
-47.1794240519
 20
22.2298522131
 11
-57.1881502551
 21
22.4045551788
  0
LINE
  5
4D7
100
AcDbEntity
  8
ASSI
100
AcDbLine
 62
7
  6
CONTINUOUS
 10
-47.1794240519
 20
22.2298522131
 11
-57.1881502551
 21
22.4045551788
  0
LINE
  5
4D8
100
AcDbEntity
  8
RACCORDO
100
AcDbLine
 62
253
  6
CONTINUOUS
 10
-67.2672142858
 20
20.516764441
 11
-66.7763694635
 21
20.4962525627
  0
LINE
  5
4D9
100
AcDbEntity
  8
RACCORDO
100
AcDbLine
 62
253
  6
CONTINUOUS
 10
-57.1881502551
 20
21.8016898957
 11
-58.1881502551
 21
21.854097675
  0
LINE
  5
4DA
100
AcDbEntity
  8
RACCORDO
100
AcDbLine
 62
7
  6
CONTINUOUS
 10
-57.1881502551
 20
22.3021473996
 11
-58.1881502551
 21
22.3545551788
  0
LINE
  5
4DB
100
AcDbEntity
  8
RACCORDO
100
AcDbLine
 62
7
  6
CONTINUOUS
 10
-60.5631502551
 20
23.6823863952
 11
-59.6881502551
 21
23.1772049097
  0
LINE
  5
4DC
100
AcDbEntity
  8
RACCORDO
100
AcDbLine
 62
253
  6
CONTINUOUS
 10
-60.4394592461
 20
23.8988927461
 11
-59.4394592461
 21
23.321542477
  0
LINE
  5
4DD
100
AcDbEntity
  8
DRAFT
100
AcDbLine
 62
7
  6
CONTINUOUS
 10
-45.2632790354
 20
17.8796839592
 11
-44.5881502551
 21
17.2045551788
  0
LINE
  5
4DE
100
AcDbEntity
  8
ASSI
100
AcDbLine
 62
7
  6
CONTINUOUS
 10
-45.2632790354
 20
17.8796839592
 11
-44.5881502551
 21
17.2045551788
  0
LINE
  5
4DF
100
AcDbEntity
  8
SMUSSO
100
AcDbLine
 62
7
  6
CONTINUOUS
 10
-44.8739553176
 20
14.4545551788
 11
-44.904857017
 21
14.5045551788
  0
LINE
  5
4E0
100
AcDbEntity
  8
RACCORDO
100
AcDbLine
 62
253
  6
CONTINUOUS
 10
-35.2881502551
 20
7.2045551789
 11
-35.2881502551
 21
9.2045551788
  0
LINE
  5
4E1
100
AcDbEntity
  8
RACCORDO
100
AcDbLine
 62
253
  6
CONTINUOUS
 10
-35.2881502551
 20
10.2045551788
 11
-35.2881502551
 21
12.2045551788
  0
LINE
  5
4E2
100
AcDbEntity
  8
RACCORDO
100
AcDbLine
 62
7
  6
CONTINUOUS
 10
-35.0881502551
 20
12.0045551788
 11
-35.0881502551
 21
10.2045551788
  0
LINE
  5
4E3
100
AcDbEntity
  8
RACCORDO
100
AcDbLine
 62
7
  6
CONTINUOUS
 10
-35.0881502551
 20
9.2045551788
 11
-35.0881502551
 21
7.4045551788
  0
LINE
  5
4E4
100
AcDbEntity
  8
RACCORDO
100
AcDbLine
 62
253
  6
CONTINUOUS
 10
-60.4394592461
 20
24.2375346361
 11
-57.1881502551
 21
24.2545586058
  0
LINE
  5
4E5
100
AcDbEntity
  8
RACCORDO
100
AcDbLine
 62
7
  6
CONTINUOUS
 10
-60.4394592461
 20
24.4875312092
 11
-57.1881502551
 21
24.5045551788
  0
LINE
  5
4E6
100
AcDbEntity
  8
RACCORDO
100
AcDbLine
 62
253
  6
CONTINUOUS
 10
-60.4394592461
 20
23.8988927461
 11
-60.6881502551
 21
23.8988927461
  0
LINE
  5
4E7
100
AcDbEntity
  8
RACCORDO
100
AcDbLine
 62
253
  6
CONTINUOUS
 10
-60.6881502551
 20
24.2375346361
 11
-60.4394592461
 21
24.2375346361
  0
LINE
  5
4E8
100
AcDbEntity
  8
RACCORDO
100
AcDbLine
 62
7
  6
CONTINUOUS
 10
-57.1881502551
 20
23.8045551788
 11
-50.6837869874
 21
23.7477924605
  0
LINE
  5
4E9
100
AcDbEntity
  8
ASSI
100
AcDbLine
 62
7
  6
CONTINUOUS
 10
-57.1881502551
 20
23.8045551788
 11
-50.6837869874
 21
23.7477924605
  0
ARC
  5
4EA
100
AcDbEntity
  8
0
100
AcDbCircle
 62
7
  6
CONTINUOUS
 10
-8.2276346894
 20
-11.6009015131
 40
2.2051734405
100
AcDbArc
 50
168.9072785009
 51
179.9813892666
  0
ARC
  5
4EB
100
AcDbEntity
  8
RACCORDO
100
AcDbCircle
 62
253
  6
CONTINUOUS
 10
-23.3992872404
 20
-21.4438795244
 40
0.5001623718
100
AcDbArc
 50
180.0994142454
 51
269.9752750715
  0
ARC
  5
4EC
100
AcDbEntity
  8
RACCORDO
100
AcDbCircle
 62
7
  6
CONTINUOUS
 10
-23.5327827192
 20
-21.8454744511
 40
0.5000037286
100
AcDbArc
 50
179.9441814206
 51
264.97393851
  0
ARC
  5
4ED
100
AcDbEntity
  8
RACCORDO
100
AcDbCircle
 62
7
  6
CONTINUOUS
 10
-23.5329569566
 20
-21.8464385962
 40
0.4990062286
100
AcDbArc
 50
264.9841689335
 51
269.9930669257
  0
ARC
  5
4EE
100
AcDbEntity
  8
0
100
AcDbCircle
 62
7
  6
CONTINUOUS
 10
-2.5212094107
 20
-11.0437329886
 40
0.474469227
100
AcDbArc
 50
212.9892010944
 51
213.8849873716
  0
ARC
  5
4EF
100
AcDbEntity
  8
0
100
AcDbCircle
 62
7
  6
CONTINUOUS
 10
-2.5397848441
 20
-11.055597839
 40
0.4524284951
100
AcDbArc
 50
209.2660689788
 51
213.0097233353
  0
ARC
  5
4F0
100
AcDbEntity
  8
RACCORDO
100
AcDbCircle
 62
7
  6
CONTINUOUS
 10
-23.2407654384
 20
-24.228402058
 40
0.2500199245
100
AcDbArc
 50
180.0050921719
 51
269.9949508995
  0
ARC
  5
4F1
100
AcDbEntity
  8
RACCORDO
100
AcDbCircle
 62
7
  6
CONTINUOUS
 10
-4.4157654383
 20
-24.228402058
 40
0.2500199245
100
AcDbArc
 50
180.0050921765
 51
269.9949508953
  0
ARC
  5
4F2
100
AcDbEntity
  8
RACCORDO
100
AcDbCircle
 62
7
  6
CONTINUOUS
 10
-21.4498505335
 20
-24.2284023012
 40
0.2500198143
100
AcDbArc
 50
270.0050364407
 51
359.9949635593
  0
ARC
  5
4F3
100
AcDbEntity
  8
RACCORDO
100
AcDbCircle
 62
7
  6
CONTINUOUS
 10
-2.6248505335
 20
-24.2284023012
 40
0.2500198142
100
AcDbArc
 50
270.0050364341
 51
359.9949635659
  0
ARC
  5
4F4
100
AcDbEntity
  8
0
100
AcDbCircle
 62
7
  6
CONTINUOUS
 10
-1.9681965503
 20
-11.1518703105
 40
0.2293092621
100
AcDbArc
 50
135.4195484339
 51
140.3472702532
  0
ARC
  5
4F5
100
AcDbEntity
  8
0
100
AcDbCircle
 62
7
  6
CONTINUOUS
 10
-1.9871783744
 20
-11.1359272189
 40
0.2045209108
100
AcDbArc
 50
140.3926764268
 51
143.563516052
  0
ARC
  5
4F6
100
AcDbEntity
  8
0
100
AcDbCircle
 62
7
  6
CONTINUOUS
 10
-1.9871783744
 20
-10.8932905011
 40
0.2045209108
100
AcDbArc
 50
216.436483948
 51
219.6073235732
  0
ARC
  5
4F7
100
AcDbEntity
  8
RACCORDO
100
AcDbCircle
 62
253
  6
CONTINUOUS
 10
-57.7498018553
 20
1.7158144131
 40
58.2953650154
100
AcDbArc
 50
337.5906105619
 51
338.1522109834
  0
ARC
  5
4F8
100
AcDbEntity
  8
RACCORDO
100
AcDbCircle
 62
253
  6
CONTINUOUS
 10
-39.2775757752
 20
2.5321865737
 40
40.9522694905
100
AcDbArc
 50
326.7961575234
 51
327.6479224735
  0
ARC
  5
4F9
100
AcDbEntity
  8
RACCORDO
100
AcDbCircle
 62
253
  6
CONTINUOUS
 10
-23.3992872397
 20
21.4529898815
 40
0.5001623724
100
AcDbArc
 50
90.024724999
 51
179.900585687
  0
ARC
  5
4FA
100
AcDbEntity
  8
RACCORDO
100
AcDbCircle
 62
7
  6
CONTINUOUS
 10
-23.5327827192
 20
21.8545848088
 40
0.5000037286
100
AcDbArc
 50
95.02606149
 51
180.0558185794
  0
ARC
  5
4FB
100
AcDbEntity
  8
RACCORDO
100
AcDbCircle
 62
7
  6
CONTINUOUS
 10
-23.5329569566
 20
21.8555489539
 40
0.4990062286
100
AcDbArc
 50
90.0069330743
 51
95.0158310665
  0
ARC
  5
4FC
100
AcDbEntity
  8
RACCORDO
100
AcDbCircle
 62
7
  6
CONTINUOUS
 10
-21.4498505862
 20
24.2375123858
 40
0.2500199347
100
AcDbArc
 50
0.0050990191
 51
89.9949514829
  0
ARC
  5
4FD
100
AcDbEntity
  8
RACCORDO
100
AcDbCircle
 62
7
  6
CONTINUOUS
 10
-2.6248505862
 20
24.2375123858
 40
0.2500199347
100
AcDbArc
 50
0.0050990155
 51
89.994951487
  0
ARC
  5
4FE
100
AcDbEntity
  8
RACCORDO
100
AcDbCircle
 62
7
  6
CONTINUOUS
 10
-23.2407654936
 20
24.2375126589
 40
0.2500198142
100
AcDbArc
 50
90.0050364359
 51
179.9949635641
  0
ARC
  5
4FF
100
AcDbEntity
  8
RACCORDO
100
AcDbCircle
 62
7
  6
CONTINUOUS
 10
-4.4157654936
 20
24.2375126589
 40
0.2500198143
100
AcDbArc
 50
90.0050364436
 51
179.9949635564
  0
ARC
  5
500
100
AcDbEntity
  8
RACCORDO
100
AcDbCircle
 62
253
  6
CONTINUOUS
 10
-1.7320108999
 20
0.0039320341
 40
20.2707324306
100
AcDbArc
 50
179.9982386637
 51
208.7992347042
  0
ARC
  5
501
100
AcDbEntity
  8
RACCORDO
100
AcDbCircle
 62
253
  6
CONTINUOUS
 10
-1.6315695606
 20
0.0039387182
 40
20.2686968638
100
AcDbArc
 50
331.21747568
 51
0.0017426173
  0
ARC
  5
502
100
AcDbEntity
  8
RACCORDO
100
AcDbCircle
 62
253
  6
CONTINUOUS
 10
-1.6660870615
 20
0.0031117926
 40
19.414904348
100
AcDbArc
 50
179.995740389
 51
208.7366718854
  0
ARC
  5
503
100
AcDbEntity
  8
RACCORDO
100
AcDbCircle
 62
253
  6
CONTINUOUS
 10
-1.6978676912
 20
0.0031176629
 40
19.4132430731
100
AcDbArc
 50
331.2805583831
 51
0.00424265
  0
ARC
  5
504
100
AcDbEntity
  8
0
100
AcDbCircle
 62
253
  6
CONTINUOUS
 10
-1.5409216441
 20
-16.8940976296
 40
6.2625725048
100
AcDbArc
 50
78.340453799
 51
79.264337558
  0
ARC
  5
505
100
AcDbEntity
  8
0
100
AcDbCircle
 62
253
  6
CONTINUOUS
 10
-1.824694383
 20
-16.8940976296
 40
6.2625725048
100
AcDbArc
 50
100.735662442
 51
101.659546201
  0
ARC
  5
506
100
AcDbEntity
  8
0
100
AcDbCircle
 62
7
  6
CONTINUOUS
 10
4.8426237246
 20
-11.602788053
 40
2.2245697845
100
AcDbArc
 50
0.0670379961
 51
11.0442942365
  0
ARC
  5
507
100
AcDbEntity
  8
RACCORDO
100
AcDbCircle
 62
253
  6
CONTINUOUS
 10
20.0336712155
 20
-21.443879521
 40
0.5001623724
100
AcDbArc
 50
270.0247246663
 51
359.9005853636
  0
ARC
  5
508
100
AcDbEntity
  8
RACCORDO
100
AcDbCircle
 62
7
  6
CONTINUOUS
 10
20.167166692
 20
-21.8454744511
 40
0.5000037286
100
AcDbArc
 50
275.02606149
 51
0.0558185794
  0
ARC
  5
509
100
AcDbEntity
  8
RACCORDO
100
AcDbCircle
 62
7
  6
CONTINUOUS
 10
20.1673409295
 20
-21.8464385962
 40
0.4990062286
100
AcDbArc
 50
270.0069330743
 51
275.0158310665
  0
ARC
  5
50A
100
AcDbEntity
  8
0
100
AcDbCircle
 62
7
  6
CONTINUOUS
 10
-0.825831183
 20
-11.055597839
 40
0.4524284951
100
AcDbArc
 50
326.9902766647
 51
330.7339310212
  0
ARC
  5
50B
100
AcDbEntity
  8
RACCORDO
100
AcDbCircle
 62
7
  6
CONTINUOUS
 10
-0.7407654383
 20
-24.228402058
 40
0.2500199245
100
AcDbArc
 50
180.0050921755
 51
269.994950896
  0
ARC
  5
50C
100
AcDbEntity
  8
RACCORDO
100
AcDbCircle
 62
7
  6
CONTINUOUS
 10
18.0842345616
 20
-24.228402058
 40
0.2500199245
100
AcDbArc
 50
180.0050921665
 51
269.9949509035
  0
ARC
  5
50D
100
AcDbEntity
  8
RACCORDO
100
AcDbCircle
 62
7
  6
CONTINUOUS
 10
1.0501494665
 20
-24.2284023012
 40
0.2500198142
100
AcDbArc
 50
270.0050364384
 51
359.9949635616
  0
ARC
  5
50E
100
AcDbEntity
  8
RACCORDO
100
AcDbCircle
 62
7
  6
CONTINUOUS
 10
19.8751494665
 20
-24.2284023012
 40
0.2500198142
100
AcDbArc
 50
270.0050364363
 51
359.9949635637
  0
ARC
  5
50F
100
AcDbEntity
  8
0
100
AcDbCircle
 62
7
  6
CONTINUOUS
 10
-1.3971752578
 20
-11.1516559515
 40
0.2289844421
100
AcDbArc
 50
39.6504286352
 51
44.4924452481
  0
ARC
  5
510
100
AcDbEntity
  8
0
100
AcDbCircle
 62
7
  6
CONTINUOUS
 10
-1.3784376527
 20
-11.1359272189
 40
0.2045209108
100
AcDbArc
 50
36.436483948
 51
39.6073235732
  0
ARC
  5
511
100
AcDbEntity
  8
0
100
AcDbCircle
 62
7
  6
CONTINUOUS
 10
-1.3784376527
 20
-10.8932905011
 40
0.2045209108
100
AcDbArc
 50
320.3926764268
 51
323.563516052
  0
ARC
  5
512
100
AcDbEntity
  8
RACCORDO
100
AcDbCircle
 62
253
  6
CONTINUOUS
 10
53.8223653845
 20
1.4872942392
 40
57.6888549656
100
AcDbArc
 50
201.8447806951
 51
202.4122860172
  0
ARC
  5
513
100
AcDbEntity
  8
RACCORDO
100
AcDbCircle
 62
253
  6
CONTINUOUS
 10
35.9366981153
 20
2.5487202302
 40
40.9819203411
100
AcDbArc
 50
212.3530926499
 51
213.2042442704
  0
ARC
  5
514
100
AcDbEntity
  8
RACCORDO
100
AcDbCircle
 62
253
  6
CONTINUOUS
 10
-1.7320094301
 20
0.005177956
 40
20.2707339004
100
AcDbArc
 50
151.2007664183
 51
180.0017602958
  0
ARC
  5
515
100
AcDbEntity
  8
RACCORDO
100
AcDbCircle
 62
253
  6
CONTINUOUS
 10
-1.6315710346
 20
0.0051712511
 40
20.2686983377
100
AcDbArc
 50
359.9982584798
 51
28.7825225107
  0
ARC
  5
516
100
AcDbEntity
  8
RACCORDO
100
AcDbCircle
 62
253
  6
CONTINUOUS
 10
-1.6660863319
 20
0.0059983862
 40
19.4149050776
100
AcDbArc
 50
151.2633287154
 51
180.0042590828
  0
ARC
  5
517
100
AcDbEntity
  8
RACCORDO
100
AcDbCircle
 62
253
  6
CONTINUOUS
 10
-1.6978683903
 20
0.0059925075
 40
19.4132437722
100
AcDbArc
 50
359.9957579028
 51
28.7194403433
  0
ARC
  5
518
100
AcDbEntity
  8
RACCORDO
100
AcDbCircle
 62
253
  6
CONTINUOUS
 10
20.0336712161
 20
21.4529898792
 40
0.5001623718
100
AcDbArc
 50
0.0994145736
 51
89.9752754011
  0
ARC
  5
519
100
AcDbEntity
  8
RACCORDO
100
AcDbCircle
 62
7
  6
CONTINUOUS
 10
20.167166692
 20
21.8545848088
 40
0.5000037286
100
AcDbArc
 50
359.9441814206
 51
84.97393851
  0
ARC
  5
51A
100
AcDbEntity
  8
RACCORDO
100
AcDbCircle
 62
7
  6
CONTINUOUS
 10
20.1673409295
 20
21.8555489539
 40
0.4990062286
100
AcDbArc
 50
84.9841689336
 51
89.9930669257
  0
ARC
  5
51B
100
AcDbEntity
  8
RACCORDO
100
AcDbCircle
 62
7
  6
CONTINUOUS
 10
1.0501494138
 20
24.2375123858
 40
0.2500199347
100
AcDbArc
 50
0.0050990179
 51
89.9949514831
  0
ARC
  5
51C
100
AcDbEntity
  8
RACCORDO
100
AcDbCircle
 62
7
  6
CONTINUOUS
 10
19.8751494137
 20
24.2375123858
 40
0.2500199348
100
AcDbArc
 50
0.0050990277
 51
89.994951474
  0
ARC
  5
51D
100
AcDbEntity
  8
RACCORDO
100
AcDbCircle
 62
7
  6
CONTINUOUS
 10
-0.7407654936
 20
24.2375126589
 40
0.2500198142
100
AcDbArc
 50
90.0050364341
 51
179.9949635659
  0
ARC
  5
51E
100
AcDbEntity
  8
RACCORDO
100
AcDbCircle
 62
7
  6
CONTINUOUS
 10
18.0842345064
 20
24.2375126589
 40
0.2500198142
100
AcDbArc
 50
90.005036436
 51
179.994963564
  0
ARC
  5
51F
100
AcDbEntity
  8
RACCORDO
100
AcDbCircle
 62
253
  6
CONTINUOUS
 10
-112.1579039476
 20
-48.6672900761
 40
53.0391225194
100
AcDbArc
 50
49.244259777
 51
50.7586495605
  0
ARC
  5
520
100
AcDbEntity
  8
RACCORDO
100
AcDbCircle
 62
253
  6
CONTINUOUS
 10
-104.3831784213
 20
-39.1338605495
 40
40.7373940702
100
AcDbArc
 50
50.7455633829
 51
51.858529267
  0
ARC
  5
521
100
AcDbEntity
  8
RACCORDO
100
AcDbCircle
 62
253
  6
CONTINUOUS
 10
-99.5593700459
 20
-32.9905225542
 40
32.9265136037
100
AcDbArc
 50
51.944800202
 51
52.3355194436
  0
ARC
  5
522
100
AcDbEntity
  8
RACCORDO
100
AcDbCircle
 62
7
  6
CONTINUOUS
 10
-65.7684851161
 20
-20.4461177859
 40
1.5
100
AcDbArc
 50
182.3511842701
 51
267.0
  0
ARC
  5
523
100
AcDbEntity
  8
RACCORDO
100
AcDbCircle
 62
253
  6
CONTINUOUS
 10
-65.7772112991
 20
-20.4461177658
 40
1.0000000211
100
AcDbArc
 50
182.3511870003
 51
266.9999988996
  0
ARC
  5
524
100
AcDbEntity
  8
RACCORDO
100
AcDbCircle
 62
7
  6
CONTINUOUS
 10
-60.4381502551
 20
-23.8897823885
 40
0.25
100
AcDbArc
 50
120.0
 51
180.0
  0
ARC
  5
525
100
AcDbEntity
  8
RACCORDO
100
AcDbCircle
 62
7
  6
CONTINUOUS
 10
-60.4381502551
 20
-24.2284242785
 40
0.25
100
AcDbArc
 50
180.0
 51
269.7
  0
ARC
  5
526
100
AcDbEntity
  8
RACCORDO
100
AcDbCircle
 62
253
  6
CONTINUOUS
 10
-67.9821977917
 20
-17.20256949
 40
0.4489855952
100
AcDbArc
 50
224.5990627498
 51
225.9089918028
  0
ARC
  5
527
100
AcDbEntity
  8
RACCORDO
100
AcDbCircle
 62
253
  6
CONTINUOUS
 10
-41.3462961713
 20
-20.4863902784
 40
1.6322854484
100
AcDbArc
 50
268.8513220163
 51
270.9762638992
  0
ARC
  5
528
100
AcDbEntity
  8
ASSI
100
AcDbCircle
 62
253
  6
CONTINUOUS
 10
-41.3462961713
 20
-20.4863902784
 40
1.6322854484
100
AcDbArc
 50
268.8513220163
 51
270.9762638992
  0
ARC
  5
529
100
AcDbEntity
  8
RACCORDO
100
AcDbCircle
 62
7
  6
CONTINUOUS
 10
-50.6881502551
 20
-23.2387011413
 40
0.5
100
AcDbArc
 50
270.5
 51
360.0
  0
ARC
  5
52A
100
AcDbEntity
  8
ASSI
100
AcDbCircle
 62
7
  6
CONTINUOUS
 10
-50.6881502551
 20
-23.2387011413
 40
0.5
100
AcDbArc
 50
270.5
 51
360.0
  0
ARC
  5
52B
100
AcDbEntity
  8
ASSI
100
AcDbCircle
 62
7
  6
CONTINUOUS
 10
-41.4163655892
 20
-21.7182715062
 40
0.4049437698
100
AcDbArc
 50
292.2641583076
 51
298.643017722
  0
ARC
  5
52C
100
AcDbEntity
  8
ASSI
100
AcDbCircle
 62
7
  6
CONTINUOUS
 10
-41.4071009371
 20
-21.7399059451
 40
0.3814122652
100
AcDbArc
 50
291.0612564885
 51
292.2075034711
  0
ARC
  5
52D
100
AcDbEntity
  8
ASSI
100
AcDbCircle
 62
7
  6
CONTINUOUS
 10
-41.3766154423
 20
-21.9889207243
 40
0.1294492852
100
AcDbArc
 50
268.9363679846
 51
270.6614858783
  0
ARC
  5
52E
100
AcDbEntity
  8
RACCORDO
100
AcDbCircle
 62
7
  6
CONTINUOUS
 10
-41.3766213785
 20
-21.9906122408
 40
0.1277579525
100
AcDbArc
 50
268.9249480571
 51
270.6729058058
  0
ARC
  5
52F
100
AcDbEntity
  8
RACCORDO
100
AcDbCircle
 62
7
  6
CONTINUOUS
 10
-37.3881502551
 20
-16.4954448212
 40
0.5
100
AcDbArc
 50
270.0
 51
360.0
  0
ARC
  5
530
100
AcDbEntity
  8
ASSI
100
AcDbCircle
 62
7
  6
CONTINUOUS
 10
-37.3881502551
 20
-16.4954448212
 40
0.5
100
AcDbArc
 50
270.0
 51
360.0
  0
ARC
  5
531
100
AcDbEntity
  8
RACCORDO
100
AcDbCircle
 62
7
  6
CONTINUOUS
 10
-79.2281105394
 20
-6.067590071
 40
1.0000002818
100
AcDbArc
 50
197.9667166946
 51
229.0382614663
  0
ARC
  5
532
100
AcDbEntity
  8
RACCORDO
100
AcDbCircle
 62
7
  6
CONTINUOUS
 10
-79.1158725382
 20
-7.8025355011
 40
1.0
100
AcDbArc
 50
180.0
 51
240.0
  0
ARC
  5
533
100
AcDbEntity
  8
RACCORDO
100
AcDbCircle
 62
253
  6
CONTINUOUS
 10
-77.0488806274
 20
-8.4909221587
 40
0.4650207608
100
AcDbArc
 50
215.7924195181
 51
228.1429132454
  0
ARC
  5
534
100
AcDbEntity
  8
RACCORDO
100
AcDbCircle
 62
253
  6
CONTINUOUS
 10
-77.0539959295
 20
-8.4959313087
 40
0.457876814
100
AcDbArc
 50
228.2014076969
 51
229.3227078831
  0
ARC
  5
535
100
AcDbEntity
  8
RACCORDO
100
AcDbCircle
 62
7
  6
CONTINUOUS
 10
-65.7684851161
 20
20.4552281436
 40
1.5
100
AcDbArc
 50
93.0
 51
177.648815773
  0
ARC
  5
536
100
AcDbEntity
  8
RACCORDO
100
AcDbCircle
 62
253
  6
CONTINUOUS
 10
-65.7772112993
 20
20.4552281237
 40
1.0000000209
100
AcDbArc
 50
93.0000010891
 51
177.648813011
  0
ARC
  5
537
100
AcDbEntity
  8
RACCORDO
100
AcDbCircle
 62
7
  6
CONTINUOUS
 10
-60.4381502551
 20
23.8988927461
 40
0.25
100
AcDbArc
 50
180.0
 51
240.0
  0
ARC
  5
538
100
AcDbEntity
  8
RACCORDO
100
AcDbCircle
 62
7
  6
CONTINUOUS
 10
-60.4381502551
 20
24.2375346361
 40
0.25
100
AcDbArc
 50
90.3
 51
180.0
  0
ARC
  5
539
100
AcDbEntity
  8
0
100
AcDbCircle
 62
7
  6
CONTINUOUS
 10
-50.1881502551
 20
0.4045551788
 40
7.0
100
AcDbArc
 50
16.9270387468
 51
24.1257251973
  0
ARC
  5
53A
100
AcDbEntity
  8
0
100
AcDbCircle
 62
7
  6
CONTINUOUS
 10
-50.1881502551
 20
0.4045551788
 40
7.0
100
AcDbArc
 50
335.8742748027
 51
343.0729612532
  0
ARC
  5
53B
100
AcDbEntity
  8
0
100
AcDbCircle
 62
7
  6
CONTINUOUS
 10
-49.9226510437
 20
0.5347937309
 40
6.7046208968
100
AcDbArc
 50
9.3647724856
 51
16.4182019071
  0
ARC
  5
53C
100
AcDbEntity
  8
0
100
AcDbCircle
 62
7
  6
CONTINUOUS
 10
-49.92216885
 20
0.2742778531
 40
6.7041435615
100
AcDbArc
 50
343.5810626847
 51
350.6334121227
  0
ARC
  5
53D
100
AcDbEntity
  8
0
100
AcDbCircle
 62
7
  6
CONTINUOUS
 10
-48.9199606376
 20
0.8116846936
 40
5.6711663704
100
AcDbArc
 50
2.8152098219
 51
8.0847503803
  0
ARC
  5
53E
100
AcDbEntity
  8
0
100
AcDbCircle
 62
7
  6
CONTINUOUS
 10
-48.8626693802
 20
-0.0080398577
 40
5.6136764888
100
AcDbArc
 50
351.8882431288
 51
357.2117896191
  0
ARC
  5
53F
100
AcDbEntity
  8
0
100
AcDbCircle
 62
7
  6
CONTINUOUS
 10
-48.019703379
 20
0.9812530973
 40
4.7561880233
100
AcDbArc
 50
7.5875464124
 51
7.7881258101
  0
ARC
  5
540
100
AcDbEntity
  8
0
100
AcDbCircle
 62
7
  6
CONTINUOUS
 10
-48.0197003065
 20
-0.1721431464
 40
4.7561849249
100
AcDbArc
 50
352.2097986719
 51
352.4124546779
  0
ARC
  5
541
100
AcDbEntity
  8
0
100
AcDbCircle
 62
7
  6
CONTINUOUS
 10
-44.8679463464
 20
1.2503592671
 40
1.6202406344
100
AcDbArc
 50
351.2740570964
 51
354.32793811
  0
ARC
  5
542
100
AcDbEntity
  8
0
100
AcDbCircle
 62
7
  6
CONTINUOUS
 10
-44.8549947142
 20
-0.4396140787
 40
1.6071909602
100
AcDbArc
 50
5.6597089171
 51
8.7383831692
  0
ARC
  5
543
100
AcDbEntity
  8
RACCORDO
100
AcDbCircle
 62
7
  6
CONTINUOUS
 10
-37.3881502551
 20
-4.9867934913
 40
0.5
100
AcDbArc
 50
0.0000044173
 51
89.0000000771
  0
ARC
  5
544
100
AcDbEntity
  8
ASSI
100
AcDbCircle
 62
7
  6
CONTINUOUS
 10
-37.3881502551
 20
-4.9867934913
 40
0.5
100
AcDbArc
 50
0.0000044173
 51
89.0000000771
  0
ARC
  5
545
100
AcDbEntity
  8
RACCORDO
100
AcDbCircle
 62
7
  6
CONTINUOUS
 10
-44.1646553105
 20
-2.2931306168
 40
0.4
100
AcDbArc
 50
275.0000000001
 51
335.8742748027
  0
ARC
  5
546
100
AcDbEntity
  8
RACCORDO
100
AcDbCircle
 62
7
  6
CONTINUOUS
 10
-44.1646553105
 20
3.1022409745
 40
0.4
100
AcDbArc
 50
24.1257251973
 51
84.9999999999
  0
ARC
  5
547
100
AcDbEntity
  8
RACCORDO
100
AcDbCircle
 62
7
  6
CONTINUOUS
 10
-45.4881502551
 20
3.2180317784
 40
0.4
100
AcDbArc
 50
85.0
 51
180.0
  0
ARC
  5
548
100
AcDbEntity
  8
RACCORDO
100
AcDbCircle
 62
7
  6
CONTINUOUS
 10
-45.4881502551
 20
-2.4089214207
 40
0.4
100
AcDbArc
 50
180.0
 51
275.0
  0
ARC
  5
549
100
AcDbEntity
  8
ASSI
100
AcDbCircle
 62
7
  6
CONTINUOUS
 10
-37.8881502551
 20
-2.7954448212
 40
0.3
100
AcDbArc
 50
270.0
 51
360.0
  0
ARC
  5
54A
100
AcDbEntity
  8
ASSI
100
AcDbCircle
 62
7
  6
CONTINUOUS
 10
-37.8881502551
 20
-1.2954448212
 40
0.3
100
AcDbArc
 50
0.0
 51
90.0
  0
ARC
  5
54B
100
AcDbEntity
  8
RACCORDO
100
AcDbCircle
 62
7
  6
CONTINUOUS
 10
-35.2881502551
 20
7.4045551788
 40
0.2
100
AcDbArc
 50
270.0
 51
360.0
  0
ARC
  5
54C
100
AcDbEntity
  8
RACCORDO
100
AcDbCircle
 62
7
  6
CONTINUOUS
 10
-36.3881502551
 20
6.6545551788
 40
0.2
100
AcDbArc
 50
270.0
 51
360.0
  0
ARC
  5
54D
100
AcDbEntity
  8
RACCORDO
100
AcDbCircle
 62
7
  6
CONTINUOUS
 10
-36.9881502551
 20
6.6545551788
 40
0.2
100
AcDbArc
 50
180.0
 51
270.0
  0
ARC
  5
54E
100
AcDbEntity
  8
RACCORDO
100
AcDbCircle
 62
7
  6
CONTINUOUS
 10
-34.5458548447
 20
19.8652103312
 40
49.8397466654
100
AcDbArc
 50
239.7043053309
 51
240.0348644104
  0
ARC
  5
54F
100
AcDbEntity
  8
0
100
AcDbCircle
 62
7
  6
CONTINUOUS
 10
-42.2881502551
 20
14.7618422783
 40
7.1629376174
100
AcDbArc
 50
87.1992620474
 51
92.8007379526
  0
ARC
  5
550
100
AcDbEntity
  8
0
100
AcDbCircle
 62
7
  6
CONTINUOUS
 10
-42.2881502551
 20
15.7045551788
 40
6.4807406984
100
AcDbArc
 50
62.337238166
 51
84.8612239836
  0
ARC
  5
551
100
AcDbEntity
  8
0
100
AcDbCircle
 62
7
  6
CONTINUOUS
 10
-42.2881502551
 20
15.7045551788
 40
6.4807406984
100
AcDbArc
 50
95.1387760164
 51
117.662761834
  0
ARC
  5
552
100
AcDbEntity
  8
0
100
AcDbCircle
 62
7
  6
CONTINUOUS
 10
-42.4803775449
 20
16.2176843307
 40
5.9542343735
100
AcDbArc
 50
93.1417336096
 51
93.7385872465
  0
ARC
  5
553
100
AcDbEntity
  8
0
100
AcDbCircle
 62
7
  6
CONTINUOUS
 10
-45.6881502551
 20
19.2045551788
 40
1.0
100
AcDbArc
 50
90.0
 51
180.0
  0
ARC
  5
554
100
AcDbEntity
  8
RACCORDO
100
AcDbCircle
 62
7
  6
CONTINUOUS
 10
-47.1881502551
 20
21.7299283043
 40
0.5
100
AcDbArc
 50
0.0000070126
 51
89.0000001224
  0
ARC
  5
555
100
AcDbEntity
  8
RACCORDO
100
AcDbCircle
 62
7
  6
CONTINUOUS
 10
-50.6881502551
 20
23.247811499
 40
0.5
100
AcDbArc
 50
0.0
 51
89.5
  0
ARC
  5
556
100
AcDbEntity
  8
ASSI
100
AcDbCircle
 62
7
  6
CONTINUOUS
 10
-47.1881502551
 20
21.7299283043
 40
0.5
100
AcDbArc
 50
0.0000070126
 51
89.0000001224
  0
ARC
  5
557
100
AcDbEntity
  8
ASSI
100
AcDbCircle
 62
7
  6
CONTINUOUS
 10
-50.6881502551
 20
23.247811499
 40
0.5
100
AcDbArc
 50
0.0
 51
89.5
  0
ARC
  5
558
100
AcDbEntity
  8
RACCORDO
100
AcDbCircle
 62
7
  6
CONTINUOUS
 10
-35.2881502551
 20
12.0045551788
 40
0.2
100
AcDbArc
 50
0.0
 51
90.0
  0
ARC
  5
559
100
AcDbEntity
  8
RACCORDO
100
AcDbCircle
 62
7
  6
CONTINUOUS
 10
-36.3881502551
 20
12.7545551788
 40
0.2
100
AcDbArc
 50
0.0
 51
90.0
  0
ARC
  5
55A
100
AcDbEntity
  8
RACCORDO
100
AcDbCircle
 62
7
  6
CONTINUOUS
 10
-36.9881502551
 20
12.7545551788
 40
0.2
100
AcDbArc
 50
90.0
 51
180.0
  0
ARC
  5
55B
100
AcDbEntity
  8
0
100
AcDbCircle
 62
7
  6
CONTINUOUS
 10
-45.6881502551
 20
19.2045551788
 40
0.2
100
AcDbArc
 50
90.0
 51
180.0
  0
ARC
  5
55C
100
AcDbEntity
  8
RACCORDO
100
AcDbCircle
 62
7
  6
CONTINUOUS
 10
432.3118497449
 20
0.0045551788
 40
500.0
100
AcDbArc
 50
177.6488141051
 51
182.3511847901
  0
ARC
  5
55D
100
AcDbEntity
  8
RACCORDO
100
AcDbCircle
 62
253
  6
CONTINUOUS
 10
432.302171039
 20
0.0045551788
 40
499.4990482991
100
AcDbArc
 50
177.6488096178
 51
182.3511903822
  0
ARC
  5
55E
100
AcDbEntity
  8
RACCORDO
100
AcDbCircle
 62
253
  6
CONTINUOUS
 10
397.3992598197
 20
0.005781526
 40
465.6996300939
100
AcDbArc
 50
178.8522001431
 51
180.0001508795
  0
ARC
  5
55F
100
AcDbEntity
  8
RACCORDO
100
AcDbCircle
 62
253
  6
CONTINUOUS
 10
397.3910580111
 20
0.0032465793
 40
465.6914282855
100
AcDbArc
 50
179.999838998
 51
181.1478099812
  0
ARC
  5
560
100
AcDbEntity
  8
RACCORDO
100
AcDbCircle
 62
253
  6
CONTINUOUS
 10
395.3550822206
 20
-0.1169679309
 40
463.6534580848
100
AcDbArc
 50
181.1387743986
 51
181.3776529699
  0
SPLINE
  5
561
100
AcDbEntity
  8
0
100
AcDbSpline
 62
7
  6
CONTINUOUS
 70
0
 71
3
 72
9
 73
5
 74
3
 42
0.0000001
 43
0.0000001
 44
0.0000000001
 12
0.0
 22
0.0933508999
 32
0.0
 13
0.0554180004
 23
0.0751214733
 33
0.0
 40
0.0
 40
0.0
 40
0.0
 40
0.0
 40
0.4785091849
 40
1.0
 40
1.0
 40
1.0
 40
1.0
 10
-2.1828080136
 20
-11.1012114004
 30
0.0
 10
-2.1828080136
 20
-11.0863216461
 30
0.0
 10
-2.176895847
 20
-11.0550303536
 30
0.0
 10
-2.1613519977
 20
-11.0275142357
 30
0.0
 10
-2.1517186716
 20
-11.0144558496
 30
0.0
 11
-2.1828080136
 21
-11.1012114004
 31
0.0
 11
-2.1749445852
 21
-11.05723971
 31
0.0
 11
-2.1517186716
 21
-11.0144558496
 31
0.0
  0
SPLINE
  5
562
100
AcDbEntity
  8
0
100
AcDbSpline
 62
7
  6
CONTINUOUS
 70
0
 71
3
 72
9
 73
5
 74
3
 42
0.0000001
 43
0.0000001
 44
0.0000000001
 12
0.0554180004
 22
-0.0751214733
 32
0.0
 13
0.0
 23
-0.0933508999
 33
0.0
 40
0.0
 40
0.0
 40
0.0
 40
0.0
 40
0.5214908151
 40
1.0
 40
1.0
 40
1.0
 40
1.0
 10
-1.2138973555
 20
-11.0144558496
 30
0.0
 10
-1.2042640295
 20
-11.0275142357
 30
0.0
 10
-1.1887201801
 20
-11.0550303536
 30
0.0
 10
-1.1828080136
 20
-11.0863216461
 30
0.0
 10
-1.1828080136
 20
-11.1012114004
 30
0.0
 11
-1.2138973555
 21
-11.0144558496
 31
0.0
 11
-1.190671442
 21
-11.05723971
 31
0.0
 11
-1.1828080136
 21
-11.1012114004
 31
0.0
  0
SPLINE
  5
563
100
AcDbEntity
  8
0
100
AcDbSpline
 62
7
  6
CONTINUOUS
 70
0
 71
3
 72
9
 73
5
 74
3
 42
0.0000001
 43
0.0000001
 44
0.0000000001
 12
-0.0261090944
 22
-0.0315738429
 32
0.0
 13
-0.0309543872
 23
-0.0268406088
 33
0.0
 40
0.0
 40
0.0
 40
0.0
 40
0.0
 40
0.2411051398
 40
1.0
 40
1.0
 40
1.0
 40
1.0
 10
-1.2208682473
 20
-11.0236771777
 30
0.0
 10
-1.2229665929
 20
-11.0262147163
 30
0.0
 10
-1.2319143076
 20
-11.036536291
 30
0.0
 10
-1.2417736374
 20
-11.0460532031
 30
0.0
 10
-1.2496040125
 20
-11.0528429364
 30
0.0
 11
-1.2208682473
 21
-11.0236771777
 31
0.0
 11
-1.2273342666
 21
-11.0311451094
 31
0.0
 11
-1.2496040125
 21
-11.0528429364
 31
0.0
  0
SPLINE
  5
564
100
AcDbEntity
  8
0
100
AcDbSpline
 62
7
  6
CONTINUOUS
 70
0
 71
3
 72
13
 73
9
 74
7
 42
0.0000001
 43
0.0000001
 44
0.0000000001
 12
-0.6924112589
 22
-0.6003911376
 32
0.0
 13
-0.6924112589
 23
0.6003911376
 33
0.0
 40
0.0
 40
0.0
 40
0.0
 40
0.0
 40
0.103485059
 40
0.224583336
 40
0.5
 40
0.775416664
 40
0.896514941
 40
1.0
 40
1.0
 40
1.0
 40
1.0
 10
-1.2496040125
 20
-11.0528429364
 30
0.0
 10
-1.2734887525
 20
-11.0735534405
 30
0.0
 10
-1.3324544665
 20
-11.110283582
 30
0.0
 10
-1.4763174318
 20
-11.1634092648
 30
0.0
 10
-1.6828080136
 20
-11.1881453377
 30
0.0
 10
-1.8892985954
 20
-11.1634092648
 30
0.0
 10
-2.0331615606
 20
-11.110283582
 30
0.0
 10
-2.0921272747
 20
-11.0735534405
 30
0.0
 10
-2.1160120146
 20
-11.0528429364
 30
0.0
 11
-1.2496040125
 21
-11.0528429364
 31
0.0
 11
-1.3290302241
 21
-11.1046708147
 31
0.0
 11
-1.4326402921
 21
-11.1444446162
 31
0.0
 11
-1.6828080136
 21
-11.1780063196
 31
0.0
 11
-1.9329757351
 21
-11.1444446162
 31
0.0
 11
-2.0365858031
 21
-11.1046708147
 31
0.0
 11
-2.1160120146
 21
-11.0528429364
 31
0.0
  0
SPLINE
  5
565
100
AcDbEntity
  8
0
100
AcDbSpline
 62
7
  6
CONTINUOUS
 70
0
 71
3
 72
9
 73
5
 74
3
 42
0.0000001
 43
0.0000001
 44
0.0000000001
 12
-0.0309532972
 22
0.0268396637
 32
0.0
 13
-0.0261081751
 23
0.0315727311
 33
0.0
 40
0.0
 40
0.0
 40
0.0
 40
0.0
 40
0.2592529473
 40
1.0
 40
1.0
 40
1.0
 40
1.0
 10
-2.1160120146
 20
-11.0528429364
 30
0.0
 10
-2.1186869258
 20
-11.0505235158
 30
0.0
 10
-2.1288384707
 20
-11.0413892023
 30
0.0
 10
-2.1383012619
 20
-11.0314729803
 30
0.0
 10
-2.1447477798
 20
-11.0236771777
 30
0.0
 11
-2.1160120146
 21
-11.0528429364
 31
0.0
 11
-2.1239042691
 21
-11.0457347667
 31
0.0
 11
-2.1447477798
 21
-11.0236771777
 31
0.0
  0
SPLINE
  5
566
100
AcDbEntity
  8
0
100
AcDbSpline
 62
7
  6
CONTINUOUS
 70
0
 71
3
 72
35
 73
31
 74
29
 42
0.0000001
 43
0.0000001
 44
0.0000000001
 12
2.3416395548
 22
-1.9877855989
 32
0.0
 13
-2.7214012683
 23
-1.4242691208
 33
0.0
 40
0.0
 40
0.0
 40
0.0
 40
0.0
 40
0.003044391
 40
0.0048788672
 40
0.0054895479
 40
0.0061150574
 40
0.0079919733
 40
0.0111382815
 40
0.0155739851
 40
0.0212926304
 40
0.0282500626
 40
0.0364006809
 40
0.0457003975
 40
0.0561067706
 40
0.0800600253
 40
0.1078319942
 40
0.1389646868
 40
0.1730189995
 40
0.2096008179
 40
0.2483281924
 40
0.3307735618
 40
0.4178211481
 40
0.5071496927
 40
0.5966051793
 40
0.684011864
 40
0.7671070032
 40
0.8433305729
 40
0.9098010905
 40
0.9631765305
 40
1.0
 40
1.0
 40
1.0
 40
1.0
 10
-0.1844158053
 20
-11.2616247262
 30
0.0
 10
-0.1820395165
 20
-11.263641925
 30
0.0
 10
-0.1777040607
 20
-11.2671785753
 30
0.0
 10
-0.17450902
 20
-11.2698011679
 30
0.0
 10
-0.1704375164
 20
-11.2727666611
 30
0.0
 10
-0.1746511712
 20
-11.2698033794
 30
0.0
 10
-0.1782680492
 20
-11.2675557427
 30
0.0
 10
-0.1872283161
 20
-11.2619661437
 30
0.0
 10
-0.1987004406
 20
-11.255375372
 30
0.0
 10
-0.2141980161
 20
-11.2468800012
 30
0.0
 10
-0.2330874525
 20
-11.2371004692
 30
0.0
 10
-0.2555362788
 20
-11.2260744461
 30
0.0
 10
-0.2814004457
 20
-11.2140619743
 30
0.0
 10
-0.3223474688
 20
-11.1961165035
 30
0.0
 10
-0.3814841857
 20
-11.1726198918
 30
0.0
 10
-0.4614976807
 20
-11.1443708529
 30
0.0
 10
-0.5523770126
 20
-11.1160188032
 30
0.0
 10
-0.6529510616
 20
-11.0886970666
 30
0.0
 10
-0.7619655338
 20
-11.063037601
 30
0.0
 10
-0.9203353116
 20
-11.0311735169
 30
0.0
 10
-1.1313032917
 20
-10.9994495647
 30
0.0
 10
-1.3953738882
 20
-10.9756363529
 30
0.0
 10
-1.6675642085
 20
-10.9669960153
 30
0.0
 10
-1.9401655761
 20
-10.9739381855
 30
0.0
 10
-2.2055598774
 20
-10.9960352742
 30
0.0
 10
-2.4557514811
 20
-11.0320553903
 30
0.0
 10
-2.6822205277
 20
-11.0792403671
 30
0.0
 10
-2.8757375286
 20
-11.1333102095
 30
0.0
 10
-3.0267303175
 20
-11.1878401037
 30
0.0
 10
-3.1110798056
 20
-11.2257937528
 30
0.0
 10
-3.1444836179
 20
-11.2432759297
 30
0.0
 11
-0.1844158053
 21
-11.2616247262
 31
0.0
 11
-0.1772113448
 21
-11.2675861274
 31
0.0
 11
-0.1727728868
 21
-11.2710574771
 31
0.0
 11
-0.1712655103
 21
-11.2721738365
 31
0.0
 11
-0.1728458517
 21
-11.2710811746
 31
0.0
 11
-0.1776705472
 21
-11.2679254603
 31
0.0
 11
-0.1858962332
 21
-11.2628526623
 31
0.0
 11
-0.1976774709
 21
-11.2560092748
 31
0.0
 11
-0.2130794801
 21
-11.2475644024
 31
0.0
 11
-0.2320461344
 21
-11.2377178603
 31
0.0
 11
-0.2545126432
 21
-11.2266716563
 31
0.0
 11
-0.2804142161
 21
-11.2146277982
 31
0.0
 11
-0.3096860624
 21
-11.201788294
 31
0.0
 11
-0.3780034305
 21
-11.1744771316
 31
0.0
 11
-0.4584088925
 21
-11.1459872016
 31
0.0
 11
-0.5496788307
 21
-11.1174529868
 31
0.0
 11
-0.6505935788
 21
-11.0899312556
 31
0.0
 11
-0.7599528367
 21
-11.0641210148
 31
0.0
 11
-0.8765618855
 21
-11.0406181669
 31
0.0
 11
-1.1269244721
 21
-11.0025710381
 31
0.0
 11
-1.3932030172
 21
-10.9784025309
 31
0.0
 11
-1.6674415003
 21
-10.9696148386
 31
0.0
 11
-1.9421203805
 21
-10.9766576438
 31
0.0
 11
-2.2096539401
 21
-10.9991346361
 31
0.0
 11
-2.4622412064
 21
-11.035788342
 31
0.0
 11
-2.6913502831
 21
-11.0839980388
 31
0.0
 11
-2.8878062763
 21
-11.1395864563
 31
0.0
 11
-3.0417786864
 21
-11.1958980057
 31
0.0
 11
-3.1444836179
 21
-11.2432759297
 31
0.0
  0
SPLINE
  5
567
100
AcDbEntity
  8
RACCORDO
100
AcDbSpline
 62
7
  6
CONTINUOUS
 70
0
 71
3
 72
23
 73
19
 74
17
 42
0.0000001
 43
0.0000001
 44
0.0000000001
 12
10.1476950597
 22
-14.3510079802
 32
0.0
 13
10.1476950597
 23
14.3510079802
 33
0.0
 40
0.0
 40
0.0
 40
0.0
 40
0.0
 40
0.0506690212
 40
0.1044995756
 40
0.1621016896
 40
0.2237212554
 40
0.289078327
 40
0.3575352819
 40
0.428198427
 40
0.5000058513
 40
0.5718129057
 40
0.6424753135
 40
0.7109312567
 40
0.7762865131
 40
0.8379042388
 40
0.8955039158
 40
0.9493321041
 40
1.0
 40
1.0
 40
1.0
 40
1.0
 10
-9.6602216004
 20
-13.4434187447
 30
0.0
 10
-9.4888303417
 20
-13.6858025872
 30
0.0
 10
-9.0776870136
 20
-14.1461361576
 30
0.0
 10
-8.3254270317
 20
-14.7319453094
 30
0.0
 10
-7.4405900031
 20
-15.2331132036
 30
0.0
 10
-6.4405126686
 20
-15.6502011882
 30
0.0
 10
-5.3422886117
 20
-15.9803790989
 30
0.0
 10
-4.1669817798
 20
-16.2199648402
 30
0.0
 10
-2.9384393163
 20
-16.3654098637
 30
0.0
 10
-1.6827072859
 20
-16.4141821998
 30
0.0
 10
-0.4269804439
 20
-16.3653916722
 30
0.0
 10
0.8015482253
 20
-16.2199361052
 30
0.0
 10
1.9768316561
 20
-15.980339885
 30
0.0
 10
3.075025296
 20
-15.6501556412
 30
0.0
 10
4.0750633543
 20
-15.2330667615
 30
0.0
 10
4.9598617001
 20
-14.7319097052
 30
0.0
 10
5.7120874253
 20
-14.1461140822
 30
0.0
 10
6.1232181209
 20
-13.6857972043
 30
0.0
 10
6.2946055733
 20
-13.4434187447
 30
0.0
 11
-9.6602216004
 21
-13.4434187447
 31
0.0
 11
-9.0727742038
 21
-14.1127688565
 31
0.0
 11
-8.3306437491
 21
-14.6996499424
 31
0.0
 11
-7.4526423048
 21
-15.2037678077
 31
0.0
 11
-6.4547447415
 21
-15.6247046565
 31
0.0
 11
-5.3556081641
 21
-15.9586141391
 31
0.0
 11
-4.1770818836
 21
-16.2011383183
 31
0.0
 11
-2.9438484751
 21
-16.348430953
 31
0.0
 11
-1.6827052636
 21
-16.3978348747
 31
0.0
 11
-0.4215692355
 21
-16.3484136632
 31
0.0
 11
0.8116496698
 21
-16.2011088825
 31
0.0
 11
1.9901555688
 21
-15.9585738766
 31
0.0
 11
3.0892571895
 21
-15.6246590838
 31
0.0
 11
4.0871191988
 21
-15.2037211648
 31
0.0
 11
4.9650781088
 21
-14.6996152428
 31
0.0
 11
5.7071712395
 21
-14.1127540063
 31
0.0
 11
6.2946055733
 21
-13.4434187447
 31
0.0
  0
SPLINE
  5
568
100
AcDbEntity
  8
0
100
AcDbSpline
 62
7
  6
CONTINUOUS
 70
0
 71
3
 72
11
 73
7
 74
5
 42
0.0000001
 43
0.0000001
 44
0.0000000001
 12
0.903726228
 22
1.2780919652
 32
0.0
 13
0.0
 23
1.5653243008
 33
0.0
 40
0.0
 40
0.0
 40
0.0
 40
0.0
 40
0.2661936059
 40
0.5189934782
 40
0.762161216
 40
1.0
 40
1.0
 40
1.0
 40
1.0
 10
6.5667700266
 20
-13.0585183754
 30
0.0
 10
6.6469587411
 20
-12.9451117391
 30
0.0
 10
6.7898991719
 20
-12.713988373
 30
0.0
 10
6.9491772099
 20
-12.3479884725
 30
0.0
 10
7.0454767958
 20
-11.9757465153
 30
0.0
 10
7.0671919864
 20
-11.724283508
 30
0.0
 10
7.0671919864
 20
-11.6001852319
 30
0.0
 11
6.5667700266
 21
-13.0585183754
 31
0.0
 11
6.7845173741
 21
-12.7032610766
 31
0.0
 11
6.9411718109
 21
-12.3398759011
 31
0.0
 11
7.0355933011
 21
-11.9711366603
 31
0.0
 11
7.0671919864
 21
-11.6001852319
 31
0.0
  0
SPLINE
  5
569
100
AcDbEntity
  8
0
100
AcDbSpline
 62
7
  6
CONTINUOUS
 70
0
 71
3
 72
11
 73
7
 74
5
 42
0.0000001
 43
0.0000001
 44
0.0000000001
 12
0.0
 22
-1.5653243008
 32
0.0
 13
0.903726228
 23
-1.2780919652
 33
0.0
 40
0.0
 40
0.0
 40
0.0
 40
0.0
 40
0.237838784
 40
0.4810065218
 40
0.7338063941
 40
1.0
 40
1.0
 40
1.0
 40
1.0
 10
-10.4328080136
 20
-11.6001852319
 30
0.0
 10
-10.4328080136
 20
-11.724283508
 30
0.0
 10
-10.4110928229
 20
-11.9757465153
 30
0.0
 10
-10.314793237
 20
-12.3479884725
 30
0.0
 10
-10.155515199
 20
-12.713988373
 30
0.0
 10
-10.0125747682
 20
-12.9451117391
 30
0.0
 10
-9.9323860537
 20
-13.0585183754
 30
0.0
 11
-10.4328080136
 21
-11.6001852319
 31
0.0
 11
-10.4012093283
 21
-11.9711366603
 31
0.0
 11
-10.306787838
 21
-12.3398759011
 31
0.0
 11
-10.1501334013
 21
-12.7032610766
 31
0.0
 11
-9.9323860537
 21
-13.0585183754
 31
0.0
  0
SPLINE
  5
56A
100
AcDbEntity
  8
RACCORDO
100
AcDbSpline
 62
253
  6
CONTINUOUS
 70
0
 71
3
 72
33
 73
29
 74
27
 42
0.0000001
 43
0.0000001
 44
0.0000000001
 12
0.0000000004
 22
20.4828072378
 32
0.0
 13
-0.0000000001
 23
-20.4828072378
 33
0.0
 40
0.0
 40
0.0
 40
0.0
 40
0.0
 40
0.020332493
 40
0.0412558752
 40
0.0632502935
 40
0.0867153025
 40
0.1119379246
 40
0.1390783691
 40
0.1682037956
 40
0.1992951624
 40
0.2494154247
 40
0.3032764719
 40
0.3601883244
 40
0.4193228025
 40
0.4797585922
 40
0.5405227275
 40
0.6006308491
 40
0.6591236474
 40
0.7151048856
 40
0.7677865817
 40
0.8165381439
 40
0.8609476133
 40
0.900904919
 40
0.9367115113
 40
0.9533332882
 40
0.9692904459
 40
0.9847752568
 40
1.0
 40
1.0
 40
1.0
 40
1.0
 10
6.7785168518
 20
-12.0331979338
 30
0.0
 10
6.7785168518
 20
-11.8943757552
 30
0.0
 10
6.7502672795
 20
-11.6119774476
 30
0.0
 10
6.6253334205
 20
-11.196133916
 30
0.0
 10
6.4192816173
 20
-10.7900289033
 30
0.0
 10
6.135436925
 20
-10.397638427
 30
0.0
 10
5.7768950434
 20
-10.022259586
 30
0.0
 10
5.3474686299
 20
-9.6667945046
 30
0.0
 10
4.8510649816
 20
-9.3345377224
 30
0.0
 10
4.1897944864
 20
-8.9719419599
 30
0.0
 10
3.3395861146
 20
-8.6096718005
 30
0.0
 10
2.289905221
 20
-8.2807169918
 30
0.0
 10
1.1555181609
 20
-8.0315995387
 30
0.0
 10
-0.0394289711
 20
-7.8676478461
 30
0.0
 10
-1.2695087938
 20
-7.7924242981
 30
0.0
 10
-2.5084217175
 20
-7.8075176297
 30
0.0
 10
-3.7296849043
 20
-7.9125898307
 30
0.0
 10
-4.9072211048
 20
-8.1053845342
 30
0.0
 10
-6.0159626208
 20
-8.3817961244
 30
0.0
 10
-7.0324842414
 20
-8.735943971
 30
0.0
 10
-7.9355356335
 20
-9.1604263807
 30
0.0
 10
-8.7065727262
 20
-9.6470022473
 30
0.0
 10
-9.3295413591
 20
-10.186465382
 30
0.0
 10
-9.7237651041
 20
-10.6857042451
 30
0.0
 10
-9.9432323042
 20
-11.099080323
 30
0.0
 10
-10.0587698124
 20
-11.407314807
 30
0.0
 10
-10.1284677993
 20
-11.7192641354
 30
0.0
 10
-10.144132879
 20
-11.92924944
 30
0.0
 10
-10.144132879
 20
-12.0331979338
 30
0.0
 11
6.7785168518
 21
-12.0331979338
 31
0.0
 11
6.7377403583
 21
-11.618732431
 31
0.0
 11
6.61593488
 21
-11.2078366655
 31
0.0
 11
6.4141434151
 21
-10.8050499358
 31
0.0
 11
6.1344368637
 21
-10.4141935332
 31
0.0
 11
5.7793851604
 21
-10.0389003739
 31
0.0
 11
5.3525265054
 21
-9.6827678302
 31
0.0
 11
4.8578590111
 21
-9.3493005518
 31
0.0
 11
4.3002521943
 21
-9.0416678476
 31
0.0
 11
3.3575846424
 21
-8.6351054502
 31
0.0
 11
2.3058173365
 21
-8.3021010654
 31
0.0
 11
1.1677221234
 21
-8.0498519935
 31
0.0
 11
-0.0320854242
 21
-7.8838264931
 31
0.0
 11
-1.2676334193
 21
-7.8076407456
 31
0.0
 11
-2.5121596541
 21
-7.8229237368
 31
0.0
 11
-3.7387357981
 21
-7.9293319641
 31
0.0
 11
-4.9208168823
 21
-8.1245755088
 31
0.0
 11
-6.0327905507
 21
-8.4044459436
 31
0.0
 11
-7.0505947375
 21
-8.7628655275
 31
0.0
 11
-7.9522211018
 21
-9.1920620444
 31
0.0
 11
-8.7181425441
 21
-9.6827678388
 31
0.0
 11
-9.3317391832
 21
-10.2243761667
 31
0.0
 11
-9.7797594502
 21
-10.8050499519
 31
0.0
 11
-9.9385348914
 21
-11.1062206918
 31
0.0
 11
-10.0525331499
 21
-11.4125434147
 31
0.0
 11
-10.1211776816
 21
-11.7221984755
 31
0.0
 11
-10.144132879
 21
-12.0331979338
 31
0.0
  0
SPLINE
  5
56B
100
AcDbEntity
  8
RACCORDO
100
AcDbSpline
 62
253
  6
CONTINUOUS
 70
0
 71
3
 72
9
 73
5
 74
3
 42
0.0000001
 43
0.0000001
 44
0.0000000001
 12
0.2700600114
 22
0.3819396122
 32
0.0
 13
0.2062165717
 23
0.4198630762
 33
0.0
 40
0.0
 40
0.0
 40
0.0
 40
0.0
 40
0.2563146908
 40
1.0
 40
1.0
 40
1.0
 40
1.0
 10
6.2946069946
 20
-13.4434185593
 30
0.0
 10
6.3176804441
 20
-13.4107863147
 30
0.0
 10
6.4053479891
 20
-13.2818369296
 30
0.0
 10
6.4832849066
 20
-13.1461870062
 30
0.0
 10
6.5344049849
 20
-13.0421050057
 30
0.0
 11
6.2946069946
 21
-13.4434185593
 31
0.0
 11
6.3619821283
 21
-13.3442428644
 31
0.0
 11
6.5344049849
 21
-13.0421050057
 31
0.0
  0
SPLINE
  5
56C
100
AcDbEntity
  8
RACCORDO
100
AcDbSpline
 62
253
  6
CONTINUOUS
 70
0
 71
3
 72
9
 73
5
 74
3
 42
0.0000001
 43
0.0000001
 44
0.0000000001
 12
0.4606479005
 22
0.9378928323
 32
0.0
 13
0.0
 23
1.0449112178
 33
0.0
 40
0.0
 40
0.0
 40
0.0
 40
0.0
 40
0.5103747174
 40
1.0
 40
1.0
 40
1.0
 40
1.0
 10
6.5344049849
 20
-13.0421050057
 30
0.0
 10
6.6127726656
 20
-12.8825460759
 30
0.0
 10
6.7354159661
 20
-12.5532084582
 30
0.0
 10
6.7785168518
 20
-12.2037362505
 30
0.0
 10
6.7785168518
 20
-12.0331979338
 30
0.0
 11
6.5344049849
 21
-13.0421050057
 31
0.0
 11
6.71724135
 21
-12.5411301834
 31
0.0
 11
6.7785168518
 21
-12.0331979338
 31
0.0
  0
SPLINE
  5
56D
100
AcDbEntity
  8
0
100
AcDbSpline
 62
7
  6
CONTINUOUS
 70
0
 71
3
 72
31
 73
27
 74
25
 42
0.0000001
 43
0.0000001
 44
0.0000000001
 12
3.8843583916
 22
19.9559061551
 32
0.0
 13
3.8843583916
 23
-19.9559061551
 33
0.0
 40
0.0
 40
0.0
 40
0.0
 40
0.0
 40
0.0204203013
 40
0.0417939732
 40
0.0644715544
 40
0.0887172125
 40
0.1146958143
 40
0.1424828939
 40
0.1720899826
 40
0.2034647371
 40
0.2710694071
 40
0.3441445465
 40
0.4210773161
 40
0.5
 40
0.5789226839
 40
0.6558554535
 40
0.7289305929
 40
0.7965352629
 40
0.8279100174
 40
0.8575171061
 40
0.8853041857
 40
0.9112827875
 40
0.9355284456
 40
0.9582060268
 40
0.9795796987
 40
1.0
 40
1.0
 40
1.0
 40
1.0
 10
-10.3916091234
 20
-11.1766320803
 30
0.0
 10
-10.3651692005
 20
-11.0407968746
 30
0.0
 10
-10.285546047
 20
-10.7672136919
 30
0.0
 10
-10.0942133564
 20
-10.3724916603
 30
0.0
 10
-9.8316026431
 20
-9.9894964256
 30
0.0
 10
-9.5003702386
 20
-9.6212893894
 30
0.0
 10
-9.1035439025
 20
-9.2704693438
 30
0.0
 10
-8.6445149847
 20
-8.9396553822
 30
0.0
 10
-8.1270036978
 20
-8.6316055577
 30
0.0
 10
-7.3454087204
 20
-8.2446940408
 30
0.0
 10
-6.2483874198
 20
-7.839467716
 30
0.0
 10
-4.8133176071
 20
-7.4886807301
 30
0.0
 10
-3.2744256781
 20
-7.2733880859
 30
0.0
 10
-1.6828080136
 20
-7.2008093929
 30
0.0
 10
-0.0911903491
 20
-7.2733880859
 30
0.0
 10
1.4477015799
 20
-7.4886807301
 30
0.0
 10
2.8827713926
 20
-7.839467716
 30
0.0
 10
3.9797926932
 20
-8.2446940408
 30
0.0
 10
4.7613876707
 20
-8.6316055577
 30
0.0
 10
5.2788989576
 20
-8.9396553822
 30
0.0
 10
5.7379278754
 20
-9.2704693438
 30
0.0
 10
6.1347542115
 20
-9.6212893894
 30
0.0
 10
6.4659866159
 20
-9.9894964256
 30
0.0
 10
6.7285973293
 20
-10.3724916603
 30
0.0
 10
6.9199300198
 20
-10.7672136919
 30
0.0
 10
6.9995531733
 20
-11.0407968746
 30
0.0
 10
7.0259930963
 20
-11.1766320803
 30
0.0
 11
-10.3916091234
 21
-11.1766320803
 31
0.0
 11
-10.2767608024
 21
-10.7776805584
 31
0.0
 11
-10.0889836247
 21
-10.3858116569
 31
0.0
 11
-9.8299776611
 21
-10.0043953413
 31
0.0
 11
-9.5018855854
 21
-9.6365226297
 31
0.0
 11
-9.1074842299
 21
-9.2852442279
 31
0.0
 11
-8.6501749935
 21
-8.9535717891
 31
0.0
 11
-8.1337370724
 21
-8.6443705055
 31
0.0
 11
-7.5626669535
 21
-8.3602099605
 31
0.0
 11
-6.2761653028
 21
-7.8764981958
 31
0.0
 11
-4.8342191144
 21
-7.5188050258
 31
0.0
 11
-3.2856317022
 21
-7.2992328654
 31
0.0
 11
-1.6828080136
 21
-7.2252073429
 31
0.0
 11
-0.0799843249
 21
-7.2992328654
 31
0.0
 11
1.4686030872
 21
-7.5188050258
 31
0.0
 11
2.9105492757
 21
-7.8764981958
 31
0.0
 11
4.1970509264
 21
-8.3602099605
 31
0.0
 11
4.7681210453
 21
-8.6443705055
 31
0.0
 11
5.2845589663
 21
-8.9535717891
 31
0.0
 11
5.7418682027
 21
-9.2852442279
 31
0.0
 11
6.1362695583
 21
-9.6365226297
 31
0.0
 11
6.464361634
 21
-10.0043953413
 31
0.0
 11
6.7233675975
 21
-10.3858116569
 31
0.0
 11
6.9111447752
 21
-10.7776805584
 31
0.0
 11
7.0259930963
 21
-11.1766320803
 31
0.0
  0
SPLINE
  5
56E
100
AcDbEntity
  8
RACCORDO
100
AcDbSpline
 62
253
  6
CONTINUOUS
 70
0
 71
3
 72
32
 73
28
 74
26
 42
0.0000001
 43
0.0000001
 44
0.0000000001
 12
0.0
 22
-18.3851282361
 32
0.0
 13
-0.0
 23
18.3851282361
 33
0.0
 40
0.0
 40
0.0
 40
0.0
 40
0.0
 40
0.0203336401
 40
0.0412580111
 40
0.0632538055
 40
0.0867205035
 40
0.1119448433
 40
0.1390870788
 40
0.1682145061
 40
0.1993080278
 40
0.2494317437
 40
0.3032965314
 40
0.3602123539
 40
0.4193509598
 40
0.47979098
 40
0.5405593693
 40
0.6006716955
 40
0.6591685787
 40
0.7151537129
 40
0.7678390495
 40
0.8165939917
 40
0.8610065152
 40
0.9009664564
 40
0.9367756024
 40
0.9692888184
 40
0.9847743632
 40
1.0
 40
1.0
 40
1.0
 40
1.0
 10
-9.2781074752
 20
-12.4662106357
 30
0.0
 10
-9.2781074752
 20
-12.590822829
 30
0.0
 10
-9.2527532365
 20
-12.8443137038
 30
0.0
 10
-9.1406066975
 20
-13.2175907254
 30
0.0
 10
-8.9556454325
 20
-13.5821276475
 30
0.0
 10
-8.7008559771
 20
-13.9343590085
 30
0.0
 10
-8.3790124593
 20
-14.2713194294
 30
0.0
 10
-7.9935386053
 20
-14.5904027283
 30
0.0
 10
-7.5479426068
 20
-14.8886534535
 30
0.0
 10
-6.9543538572
 20
-15.2141391564
 30
0.0
 10
-6.1911643359
 20
-15.5393321678
 30
0.0
 10
-5.2489177934
 20
-15.8346190643
 30
0.0
 10
-4.2306344386
 20
-16.0582402152
 30
0.0
 10
-3.1579889972
 20
-16.2054120868
 30
0.0
 10
-2.0538065105
 20
-16.272936695
 30
0.0
 10
-0.9416949442
 20
-16.2593881107
 30
0.0
 10
0.1545733108
 20
-16.1650696002
 30
0.0
 10
1.2115895783
 20
-15.9920076344
 30
0.0
 10
2.2068525678
 20
-15.7438828164
 30
0.0
 10
3.1193314411
 20
-15.425990704
 30
0.0
 10
3.9299624121
 20
-15.0449215103
 30
0.0
 10
4.6220592552
 20
-14.6082466762
 30
0.0
 10
5.1813403255
 20
-14.1236732041
 30
0.0
 10
5.5958372271
 20
-13.5994836212
 30
0.0
 10
5.813785563
 20
-13.1273066761
 30
0.0
 10
5.8984111099
 20
-12.7480194333
 30
0.0
 10
5.912491448
 20
-12.5595190642
 30
0.0
 10
5.912491448
 20
-12.4662106357
 30
0.0
 11
-9.2781074752
 21
-12.4662106357
 31
0.0
 11
-9.2415073162
 21
-12.8382512477
 31
0.0
 11
-9.1321711166
 21
-13.2070839551
 31
0.0
 11
-8.9510343839
 21
-13.5686433612
 31
0.0
 11
-8.6999574925
 21
-13.9194985444
 31
0.0
 11
-8.3812472256
 21
-14.2563818374
 31
0.0
 11
-7.9980791793
 21
-14.5760640264
 31
0.0
 11
-7.5540413916
 21
-14.8754016204
 31
0.0
 11
-7.0535059636
 21
-15.1515493951
 31
0.0
 11
-6.2073208224
 21
-15.5165014284
 31
0.0
 11
-5.2632014164
 21
-15.8154236323
 31
0.0
 11
-4.2415893359
 21
-16.0418558365
 31
0.0
 11
-3.1645810018
 21
-16.1908892366
 31
0.0
 11
-2.0554899484
 21
-16.2592776087
 31
0.0
 11
-0.9383395502
 21
-16.2455587494
 31
0.0
 11
0.1626978496
 21
-16.1500411227
 31
0.0
 11
1.2237940265
 21
-15.9747800898
 31
0.0
 11
2.2219578415
 21
-15.723553351
 31
0.0
 11
3.1355898563
 21
-15.4018171758
 31
0.0
 11
3.944934673
 21
-15.0165474901
 31
0.0
 11
4.6324631769
 21
-14.5760640081
 31
0.0
 11
5.1832552828
 21
-14.0898890673
 31
0.0
 11
5.5854183762
 21
-13.5686433206
 31
0.0
 11
5.8302716836
 21
-13.0233329026
 31
0.0
 11
5.8918875424
 21
-12.7453766161
 31
0.0
 11
5.912491448
 21
-12.4662106357
 31
0.0
  0
SPLINE
  5
56F
100
AcDbEntity
  8
0
100
AcDbSpline
 62
7
  6
CONTINUOUS
 70
0
 71
3
 72
9
 73
5
 74
3
 42
0.0000001
 43
0.0000001
 44
0.0000000001
 12
0.0239786617
 22
-0.1119074396
 32
0.0
 13
0.055909112
 23
-0.099862017
 33
0.0
 40
0.0
 40
0.0
 40
0.0
 40
0.0
 40
0.2428849118
 40
1.0
 40
1.0
 40
1.0
 40
1.0
 10
-2.9754150197
 20
-11.1701671871
 30
0.0
 10
-2.973473668
 20
-11.1792273967
 30
0.0
 10
-2.9639771807
 20
-11.2162024298
 30
0.0
 10
-2.948574762
 20
-11.2515723647
 30
0.0
 10
-2.9344648846
 20
-11.2767747113
 30
0.0
 11
-2.9754150197
 21
-11.1701671871
 31
0.0
 11
-2.968512152
 21
-11.1970940623
 31
0.0
 11
-2.9344648846
 21
-11.2767747113
 31
0.0
  0
SPLINE
  5
570
100
AcDbEntity
  8
0
100
AcDbSpline
 62
7
  6
CONTINUOUS
 70
0
 71
3
 72
17
 73
13
 74
11
 42
0.0000001
 43
0.0000001
 44
0.0000000001
 12
1.5099280818
 22
-2.248422665
 32
0.0
 13
1.4745916511
 23
2.2717541141
 33
0.0
 40
0.0
 40
0.0
 40
0.0
 40
0.0
 40
0.0958136488
 40
0.1525860667
 40
0.2148724305
 40
0.3527450539
 40
0.5010439183
 40
0.6491681946
 40
0.7865480974
 40
0.8484988643
 40
0.9049010988
 40
1.0
 40
1.0
 40
1.0
 40
1.0
 10
-2.9150940235
 20
-11.3082626828
 30
0.0
 10
-2.8668701172
 20
-11.3800725427
 30
0.0
 10
-2.7602729703
 20
-11.474165154
 30
0.0
 10
-2.5915618506
 20
-11.5696152049
 30
0.0
 10
-2.3767074795
 20
-11.658793874
 30
0.0
 10
-2.068935156
 20
-11.7324635334
 30
0.0
 10
-1.6764285994
 20
-11.7614122471
 30
0.0
 10
-1.284511593
 20
-11.7305681969
 30
0.0
 10
-0.9780146559
 20
-11.6553831827
 30
0.0
 10
-0.7647927392
 20
-11.5650751188
 30
0.0
 10
-0.5980209082
 20
-11.4688271933
 30
0.0
 10
-0.4931785576
 20
-11.3740862201
 30
0.0
 10
-0.4464345424
 20
-11.3020724467
 30
0.0
 11
-2.9150940235
 21
-11.3082626828
 31
0.0
 11
-2.7277904776
 21
-11.4878655549
 31
0.0
 11
-2.5945088554
 21
-11.5645364635
 31
0.0
 11
-2.439004011
 21
-11.6299288081
 31
0.0
 11
-2.0767799501
 21
-11.7206436414
 31
0.0
 11
-1.67629548
 21
-11.7512031769
 31
0.0
 11
-1.2764434305
 21
-11.7186391027
 31
0.0
 11
-0.9160552191
 21
-11.6261136597
 31
0.0
 11
-0.761867677
 21
-11.5599450662
 31
0.0
 11
-0.630129756
 21
-11.4826131543
 31
0.0
 11
-0.4464345424
 21
-11.3020724467
 31
0.0
  0
SPLINE
  5
571
100
AcDbEntity
  8
0
100
AcDbSpline
 62
7
  6
CONTINUOUS
 70
0
 71
3
 72
9
 73
5
 74
3
 42
0.0000001
 43
0.0000001
 44
0.0000000001
 12
0.0560283737
 22
0.1000750363
 32
0.0
 13
0.0239465834
 23
0.1121639545
 33
0.0
 40
0.0
 40
0.0
 40
0.0
 40
0.0
 40
0.2587388089
 40
1.0
 40
1.0
 40
1.0
 40
1.0
 10
-0.4311511425
 20
-11.2767747113
 30
0.0
 10
-0.4263189043
 20
-11.2681436127
 30
0.0
 10
-0.408777993
 20
-11.2341722136
 30
0.0
 10
-0.3960646035
 20
-11.1976322729
 30
0.0
 10
-0.3901477125
 20
-11.1699180107
 30
0.0
 11
-0.4311511425
 21
-11.2767747113
 31
0.0
 11
-0.4175650575
 21
-11.2503922211
 31
0.0
 11
-0.3901477125
 21
-11.1699180107
 31
0.0
  0
SPLINE
  5
572
100
AcDbEntity
  8
RACCORDO
100
AcDbSpline
 62
253
  6
CONTINUOUS
 70
0
 71
3
 72
10
 73
6
 74
4
 42
0.0000001
 43
0.0000001
 44
0.0000000001
 12
0.0
 22
1.329399143
 32
0.0
 13
-0.7571086392
 23
1.0927436066
 33
0.0
 40
0.0
 40
0.0
 40
0.0
 40
0.0
 40
0.2385706538
 40
0.4822641568
 40
1.0
 40
1.0
 40
1.0
 40
1.0
 10
5.912491448
 20
-12.4662106357
 30
0.0
 10
5.912491448
 20
-12.3604920947
 30
0.0
 10
5.894333287
 20
-12.1463419782
 30
0.0
 10
5.7851344227
 20
-11.7153364801
 30
0.0
 10
5.6246643163
 20
-11.4116192719
 30
0.0
 10
5.4940035564
 20
-11.2230350944
 30
0.0
 11
5.912491448
 21
-12.4662106357
 31
0.0
 11
5.8860823265
 21
-12.1501564515
 31
0.0
 11
5.8071393242
 21
-11.835955992
 31
0.0
 11
5.4940035564
 21
-11.2230350944
 31
0.0
  0
SPLINE
  5
573
100
AcDbEntity
  8
RACCORDO
100
AcDbSpline
 62
253
  6
CONTINUOUS
 70
0
 71
3
 72
23
 73
19
 74
17
 42
0.0000001
 43
0.0000001
 44
0.0000000001
 12
-8.9540439117
 22
12.9234745595
 32
0.0
 13
-8.9540439739
 23
-12.9234745164
 33
0.0
 40
0.0
 40
0.0
 40
0.0
 40
0.0
 40
0.0453773205
 40
0.0962944654
 40
0.1529528577
 40
0.215031688
 40
0.2818300008
 40
0.3523789088
 40
0.425525547
 40
0.4999999982
 40
0.5744744494
 40
0.6476210879
 40
0.7181699961
 40
0.7849683093
 40
0.8470471404
 40
0.9037055327
 40
0.9546226779
 40
1.0
 40
1.0
 40
1.0
 40
1.0
 10
5.4940035564
 20
-11.2230350944
 30
0.0
 10
5.3585667161
 20
-11.0275575452
 30
0.0
 10
5.0195783732
 20
-10.6477275154
 30
0.0
 10
4.3827510476
 20
-10.1557034128
 30
0.0
 10
3.6050601877
 20
-9.719234689
 30
0.0
 10
2.7043472718
 20
-9.347833206
 30
0.0
 10
1.7010040946
 20
-9.04956039
 30
0.0
 10
0.6182774604
 20
-8.8313368772
 30
0.0
 10
-0.5185590094
 20
-8.6982808513
 30
0.0
 10
-1.6828079608
 20
-8.653567272
 30
0.0
 10
-2.8470569139
 20
-8.6982808436
 30
0.0
 10
-3.9838933871
 20
-8.8313368623
 30
0.0
 10
-5.0666200277
 20
-9.0495603654
 30
0.0
 10
-6.0699632141
 20
-9.3478331757
 30
0.0
 10
-6.9706761391
 20
-9.7192346533
 30
0.0
 10
-7.7483670095
 20
-10.1557033711
 30
0.0
 10
-8.385194352
 20
-10.6477274682
 30
0.0
 10
-8.7241827077
 20
-11.0275575006
 30
0.0
 10
-8.8596195534
 20
-11.2230350557
 30
0.0
 11
5.4940035564
 21
-11.2230350944
 31
0.0
 11
5.0253261145
 21
-10.6851383152
 31
0.0
 11
4.3965229957
 21
-10.1896957739
 31
0.0
 11
3.6225888737
 21
-9.7486149863
 31
0.0
 11
2.72198128
 21
-9.3724150946
 31
0.0
 11
1.7162161758
 21
-9.0700794546
 31
0.0
 11
0.6293175319
 21
-8.8488146449
 31
0.0
 11
-0.5127754488
 21
-8.7138981803
 31
0.0
 11
-1.6828079609
 21
-8.6685609048
 31
0.0
 11
-2.8528404731
 21
-8.7138981725
 31
0.0
 11
-3.9949334591
 21
-8.8488146293
 31
0.0
 11
-5.0818321085
 21
-9.0700794302
 31
0.0
 11
-6.0875972202
 21
-9.3724150634
 31
0.0
 11
-6.9882048289
 21
-9.7486149519
 31
0.0
 11
-7.7621389573
 21
-10.1896957305
 31
0.0
 11
-8.3909420891
 21
-10.6851382645
 31
0.0
 11
-8.8596195534
 21
-11.2230350557
 31
0.0
  0
SPLINE
  5
574
100
AcDbEntity
  8
RACCORDO
100
AcDbSpline
 62
253
  6
CONTINUOUS
 70
0
 71
3
 72
10
 73
6
 74
4
 42
0.0000001
 43
0.0000001
 44
0.0000000001
 12
-0.7571086732
 22
-1.0927436445
 32
0.0
 13
0.0
 23
-1.3293991935
 33
0.0
 40
0.0
 40
0.0
 40
0.0
 40
0.0
 40
0.5177358554
 40
0.7614293483
 40
1.0
 40
1.0
 40
1.0
 40
1.0
 10
-8.8596195534
 20
-11.2230350557
 30
0.0
 10
-8.9902803223
 20
-11.4116192442
 30
0.0
 10
-9.1507504504
 20
-11.7153364566
 30
0.0
 10
-9.2599493209
 20
-12.1463419719
 30
0.0
 10
-9.2781074752
 20
-12.3604920917
 30
0.0
 10
-9.2781074752
 20
-12.4662106357
 30
0.0
 11
-8.8596195534
 21
-11.2230350557
 31
0.0
 11
-9.1727553551
 21
-11.8359559835
 31
0.0
 11
-9.2516983577
 21
-12.1501564419
 31
0.0
 11
-9.2781074752
 21
-12.4662106357
 31
0.0
  0
SPLINE
  5
575
100
AcDbEntity
  8
0
100
AcDbSpline
 62
253
  6
CONTINUOUS
 70
0
 71
3
 72
27
 73
23
 74
21
 42
0.0000001
 43
0.0000001
 44
0.0000000001
 12
0.0
 22
-8.9274522913
 32
0.0
 13
-0.0
 23
8.9274522913
 33
0.0
 40
0.0
 40
0.0
 40
0.0
 40
0.0
 40
0.0203337268
 40
0.0412713844
 40
0.086627013
 40
0.1118585862
 40
0.1390153505
 40
0.168155493
 40
0.199265484
 40
0.2494127988
 40
0.3033042657
 40
0.419320717
 40
0.5405049445
 40
0.6590829639
 40
0.7150953821
 40
0.7678057038
 40
0.81658586
 40
0.8610184154
 40
0.9009964698
 40
0.9368239249
 40
0.969363563
 40
1.0
 40
1.0
 40
1.0
 40
1.0
 10
-5.3727374295
 20
-12.4662106357
 30
0.0
 10
-5.3727374295
 20
-12.5267200943
 30
0.0
 10
-5.360367908
 20
-12.6498562568
 30
0.0
 10
-5.2858932603
 20
-12.8980237537
 30
0.0
 10
-5.1371490165
 20
-13.132643314
 30
0.0
 10
-4.9359938713
 20
-13.3431242954
 30
0.0
 10
-4.7486141592
 20
-13.498155837
 30
0.0
 10
-4.5321993858
 20
-13.6430912832
 30
0.0
 10
-4.2437974232
 20
-13.8011843024
 30
0.0
 10
-3.8730364688
 20
-13.9592199764
 30
0.0
 10
-3.2473350483
 20
-14.1551509742
 30
0.0
 10
-2.3895631214
 20
-14.3031628048
 30
0.0
 10
-1.3278807069
 20
-14.3284363142
 30
0.0
 10
-0.4502166195
 20
-14.2222916493
 30
0.0
 10
0.2068364955
 20
-14.05857318
 30
0.0
 10
0.6501446817
 20
-13.9041090282
 30
0.0
 10
1.0439797194
 20
-13.7190275908
 30
0.0
 10
1.3801579064
 20
-13.5067905706
 30
0.0
 10
1.6519169727
 20
-13.2715138278
 30
0.0
 10
1.8533208031
 20
-13.0166374909
 30
0.0
 10
1.9782352916
 20
-12.7463530846
 30
0.0
 10
2.0071214024
 20
-12.5573790788
 30
0.0
 10
2.0071214024
 20
-12.4662106357
 30
0.0
 11
-5.3727374295
 21
-12.4662106357
 31
0.0
 11
-5.3549387387
 21
-12.6468643317
 31
0.0
 11
-5.3018239216
 21
-12.8260789512
 31
0.0
 11
-5.0918306333
 21
-13.1722799004
 31
0.0
 11
-4.9370350495
 21
-13.3359183474
 31
0.0
 11
-4.7508459103
 21
-13.4911958612
 31
0.0
 11
-4.5351535266
 21
-13.6366378685
 31
0.0
 11
-4.2919706782
 21
-13.7707933753
 31
0.0
 11
-3.8808901652
 21
-13.9480985997
 31
0.0
 11
-3.4222135546
 21
-14.0933086743
 31
0.0
 11
-2.4026705315
 21
-14.2757132251
 31
0.0
 11
-1.3211305926
 21
-14.3022893142
 31
0.0
 11
-0.2707373015
 21
-14.1707329692
 31
0.0
 11
0.214186544
 21
-14.0486794686
 31
0.0
 11
0.6580397027
 21
-13.892380246
 31
0.0
 11
1.0512490805
 21
-13.7052134549
 31
0.0
 11
1.3852298831
 21
-13.4911958612
 31
0.0
 11
1.6528379772
 21
-13.255049573
 31
0.0
 11
1.8482201515
 21
-13.0018135516
 31
0.0
 11
1.9671534511
 21
-12.7367799023
 31
0.0
 11
2.0071214024
 21
-12.4662106357
 31
0.0
  0
SPLINE
  5
576
100
AcDbEntity
  8
0
100
AcDbSpline
 62
253
  6
CONTINUOUS
 70
0
 71
3
 72
15
 73
11
 74
9
 42
0.0000001
 43
0.0000001
 44
0.0000000001
 12
0.0
 22
3.0481513732
 32
0.0
 13
-2.9852369688
 23
0.6161063499
 33
0.0
 40
0.0
 40
0.0
 40
0.0
 40
0.0
 40
0.0898313319
 40
0.1852546062
 40
0.2903364777
 40
0.4076077616
 40
0.5379556994
 40
0.6810609714
 40
0.8356924449
 40
1.0
 40
1.0
 40
1.0
 40
1.0
 10
2.0071214024
 20
-12.4662106357
 30
0.0
 10
2.0071214024
 20
-12.3749374698
 30
0.0
 10
1.9781655045
 20
-12.185732922
 30
0.0
 10
1.8529601958
 20
-11.9151538867
 30
0.0
 10
1.6511082956
 20
-11.6600363887
 30
0.0
 10
1.3787647472
 20
-11.4245801944
 30
0.0
 10
1.0418921048
 20
-11.2122369693
 30
0.0
 10
0.6472669831
 20
-11.0271259703
 30
0.0
 10
0.2031683851
 20
-10.8727513182
 30
0.0
 10
-0.1117826555
 20
-10.7944922861
 30
0.0
 10
-0.2752816513
 20
-10.7607486434
 30
0.0
 11
2.0071214024
 21
-12.4662106357
 31
0.0
 11
1.967063241
 21
-12.1953371209
 31
0.0
 11
1.847862942
 21
-11.9300193958
 31
0.0
 11
1.6520492864
 21
-11.6765384415
 31
0.0
 11
1.3838630618
 21
-11.4402034095
 31
0.0
 11
1.0491839881
 21
-11.2260695837
 31
0.0
 11
0.6551876619
 21
-11.0388717392
 31
0.0
 11
0.2104942469
 21
-10.8826370035
 31
0.0
 11
-0.2752816513
 21
-10.7607486434
 31
0.0
  0
SPLINE
  5
577
100
AcDbEntity
  8
0
100
AcDbSpline
 62
253
  6
CONTINUOUS
 70
0
 71
3
 72
11
 73
7
 74
5
 42
0.0000001
 43
0.0000001
 44
0.0000000001
 12
-2.5846819874
 22
0.4901249843
 32
0.0
 13
-2.5846819874
 23
-0.4901249843
 33
0.0
 40
0.0
 40
0.0
 40
0.0
 40
0.0
 40
0.2469123198
 40
0.5
 40
0.7530876802
 40
1.0
 40
1.0
 40
1.0
 40
1.0
 10
-0.3743410098
 20
-10.7411386665
 30
0.0
 10
-0.5870709517
 20
-10.7007993676
 30
0.0
 10
-1.0222228049
 20
-10.6409344607
 30
0.0
 10
-1.6828080136
 20
-10.6113053103
 30
0.0
 10
-2.3433932222
 20
-10.6409344607
 30
0.0
 10
-2.7785450755
 20
-10.7007993676
 30
0.0
 10
-2.9912750173
 20
-10.7411386665
 30
0.0
 11
-0.3743410098
 21
-10.7411386665
 31
0.0
 11
-1.0176854674
 21
-10.6514754429
 31
0.0
 11
-1.6828080136
 21
-10.6212626806
 31
0.0
 11
-2.3479305598
 21
-10.6514754429
 31
0.0
 11
-2.9912750173
 21
-10.7411386665
 31
0.0
  0
SPLINE
  5
578
100
AcDbEntity
  8
0
100
AcDbSpline
 62
253
  6
CONTINUOUS
 70
0
 71
3
 72
15
 73
11
 74
9
 42
0.0000001
 43
0.0000001
 44
0.0000000001
 12
-2.9852369688
 22
-0.6161063499
 32
0.0
 13
0.0
 23
-3.0481513732
 33
0.0
 40
0.0
 40
0.0
 40
0.0
 40
0.0
 40
0.1643075551
 40
0.3189390286
 40
0.4620443006
 40
0.5923922384
 40
0.7096635223
 40
0.8147453938
 40
0.9101686681
 40
1.0
 40
1.0
 40
1.0
 40
1.0
 10
-3.0903343758
 20
-10.7607486434
 30
0.0
 10
-3.2538333717
 20
-10.7944922861
 30
0.0
 10
-3.5687844123
 20
-10.8727513182
 30
0.0
 10
-4.0128830102
 20
-11.0271259703
 30
0.0
 10
-4.4075081319
 20
-11.2122369693
 30
0.0
 10
-4.7443807743
 20
-11.4245801944
 30
0.0
 10
-5.0167243227
 20
-11.6600363887
 30
0.0
 10
-5.218576223
 20
-11.9151538867
 30
0.0
 10
-5.3437815316
 20
-12.185732922
 30
0.0
 10
-5.3727374295
 20
-12.3749374698
 30
0.0
 10
-5.3727374295
 20
-12.4662106357
 30
0.0
 11
-3.0903343758
 21
-10.7607486434
 31
0.0
 11
-3.5761102741
 21
-10.8826370035
 31
0.0
 11
-4.020803689
 21
-11.0388717392
 31
0.0
 11
-4.4148000153
 21
-11.2260695837
 31
0.0
 11
-4.7494790889
 21
-11.4402034095
 31
0.0
 11
-5.0176653135
 21
-11.6765384415
 31
0.0
 11
-5.2134789691
 21
-11.9300193958
 31
0.0
 11
-5.3326792682
 21
-12.1953371209
 31
0.0
 11
-5.3727374295
 21
-12.4662106357
 31
0.0
  0
SPLINE
  5
579
100
AcDbEntity
  8
RACCORDO
100
AcDbSpline
 62
253
  6
CONTINUOUS
 70
0
 71
3
 72
9
 73
5
 74
3
 42
0.0000001
 43
0.0000001
 44
0.0000000001
 12
-0.0
 22
-1.0449110961
 32
0.0
 13
0.4606477989
 23
-0.9378927467
 33
0.0
 40
0.0
 40
0.0
 40
0.0
 40
0.0
 40
0.489625284
 40
1.0
 40
1.0
 40
1.0
 40
1.0
 10
-10.144132879
 20
-12.0331979338
 30
0.0
 10
-10.144132879
 20
-12.2037362312
 30
0.0
 10
-10.1010319975
 20
-12.5532083969
 30
0.0
 10
-9.9783887301
 20
-12.8825459821
 30
0.0
 10
-9.9000210669
 20
-13.0421048969
 30
0.0
 11
-10.144132879
 21
-12.0331979338
 31
0.0
 11
-10.082857388
 21
-12.5411301262
 31
0.0
 11
-9.9000210669
 21
-13.0421048969
 31
0.0
  0
SPLINE
  5
57A
100
AcDbEntity
  8
RACCORDO
100
AcDbSpline
 62
253
  6
CONTINUOUS
 70
0
 71
3
 72
9
 73
5
 74
3
 42
0.0000001
 43
0.0000001
 44
0.0000000001
 12
0.206220699
 22
-0.4198715337
 32
0.0
 13
0.2700654606
 23
-0.381947285
 33
0.0
 40
0.0
 40
0.0
 40
0.0
 40
0.0
 40
0.2441290917
 40
1.0
 40
1.0
 40
1.0
 40
1.0
 10
-9.9000210669
 20
-13.0421048969
 30
0.0
 10
-9.8832395762
 20
-13.0762725156
 30
0.0
 10
-9.8115198832
 20
-13.2147567303
 30
0.0
 10
-9.7282678261
 20
-13.3471843803
 30
0.0
 10
-9.6602229511
 20
-13.4434186607
 30
0.0
 11
-9.9000210669
 21
-13.0421048969
 31
0.0
 11
-9.8475345317
 21
-13.1435276014
 31
0.0
 11
-9.6602229511
 21
-13.4434186607
 31
0.0
  0
SPLINE
  5
57B
100
AcDbEntity
  8
0
100
AcDbSpline
 62
7
  6
CONTINUOUS
 70
0
 71
3
 72
20
 73
16
 74
14
 42
0.0000001
 43
0.0000001
 44
0.0000000001
 12
0.0
 22
-1.2083061333
 32
0.0
 13
0.0
 23
1.2083061333
 33
0.0
 40
0.0
 40
0.0
 40
0.0
 40
0.0
 40
0.0410632829
 40
0.0865189622
 40
0.138906898
 40
0.1991409921
 40
0.3031748768
 40
0.4193213196
 40
0.5406367589
 40
0.6593563996
 40
0.7680882208
 40
0.8611990551
 40
0.936799759
 40
0.9693979151
 40
1.0
 40
1.0
 40
1.0
 40
1.0
 10
-1.1828080136
 20
-11.1012114004
 30
0.0
 10
-1.1828080136
 20
-11.1177504059
 30
0.0
 10
-1.1902294186
 20
-11.152833994
 30
0.0
 10
-1.2206348822
 20
-11.2008240149
 30
0.0
 10
-1.2683422584
 20
-11.2438586713
 30
0.0
 10
-1.3437360544
 20
-11.2886022781
 30
0.0
 10
-1.4509711333
 20
-11.3265971493
 30
0.0
 10
-1.5870007883
 20
-11.3501167136
 30
0.0
 10
-1.7309325995
 20
-11.3535348339
 30
0.0
 10
-1.870897803
 20
-11.3366292005
 30
0.0
 10
-1.9956314749
 20
-11.3005854358
 30
0.0
 10
-2.0954707136
 20
-11.2486436506
 30
0.0
 10
-2.1551585281
 20
-11.190410689
 30
0.0
 10
-2.178841885
 20
-11.1391142633
 30
0.0
 10
-2.1828080136
 20
-11.1135369627
 30
0.0
 10
-2.1828080136
 20
-11.1012114004
 30
0.0
 11
-1.1828080136
 21
-11.1012114004
 31
0.0
 11
-1.1924469298
 21
-11.1498831543
 31
0.0
 11
-1.2208682473
 21
-11.1968822585
 31
0.0
 11
-1.2670999597
 21
-11.2401211629
 31
0.0
 11
-1.329254623
 21
-11.2779880957
 31
0.0
 11
-1.4471215674
 21
-11.3216810626
 31
0.0
 11
-1.5852691295
 21
-11.3463933182
 31
0.0
 11
-1.7318109588
 21
-11.3499993107
 31
0.0
 11
-1.8741497298
 21
-11.3321812835
 31
0.0
 11
-1.9999962059
 21
-11.294449104
 31
0.0
 11
-2.0985160674
 21
-11.2401211629
 31
0.0
 11
-2.161259792
 21
-11.1737296935
 31
0.0
 11
-2.1773687057
 21
-11.1377858355
 31
0.0
 11
-2.1828080136
 21
-11.1012114004
 31
0.0
  0
SPLINE
  5
57C
100
AcDbEntity
  8
RACCORDO
100
AcDbSpline
 62
7
  6
CONTINUOUS
 70
0
 71
3
 72
13
 73
9
 74
7
 42
0.0000001
 43
0.0000001
 44
0.0000000001
 12
0.3145499964
 22
0.0
 32
0.0
 13
0.002852503
 23
0.3145370621
 33
0.0
 40
0.0
 40
0.0
 40
0.0
 40
0.0
 40
0.3264462126
 40
0.6055466145
 40
0.7220416879
 40
0.8241875487
 40
0.9152460045
 40
1.0
 40
1.0
 40
1.0
 40
1.0
 10
1.0547529749
 20
23.1772049097
 30
0.0
 10
1.0889808599
 20
23.1772049097
 30
0.0
 10
1.152686261
 20
23.1847418768
 30
0.0
 10
1.2244784252
 20
23.2123997774
 30
0.0
 10
1.2667730362
 20
23.2434792262
 30
0.0
 10
1.2886014159
 20
23.2679091261
 30
0.0
 10
1.3021030698
 20
23.2941417559
 30
0.0
 10
1.3053234654
 20
23.312656386
 30
0.0
 10
1.3054040524
 20
23.321542477
 30
0.0
 11
1.0547529749
 21
23.1772049097
 31
0.0
 11
1.1566510963
 21
23.1898818912
 31
0.0
 11
1.2377995685
 21
23.2233810028
 31
0.0
 11
1.2670928976
 21
23.2453957431
 31
0.0
 11
1.2881997624
 21
23.2696204388
 31
0.0
 11
1.300982321
 21
23.2952523601
 31
0.0
 11
1.3054040524
 21
23.321542477
 31
0.0
  0
SPLINE
  5
57D
100
AcDbEntity
  8
RACCORDO
100
AcDbSpline
 62
253
  6
CONTINUOUS
 70
0
 71
3
 72
11
 73
7
 74
5
 42
0.0000001
 43
0.0000001
 44
0.0000000001
 12
0.3642214703
 22
0.0008257884
 32
0.0
 13
0.0011010188
 23
0.3642207423
 33
0.0
 40
0.0
 40
0.0
 40
0.0
 40
0.0
 40
0.2662357453
 40
0.5233327532
 40
0.7668031567
 40
1.0
 40
1.0
 40
1.0
 40
1.0
 10
19.8751714437
 20
23.6823863952
 30
0.0
 10
19.9074943686
 20
23.68245968
 30
0.0
 10
19.9715634927
 20
23.6933569152
 30
0.0
 10
20.054223377
 20
23.7403737534
 30
0.0
 10
20.1111741253
 20
23.8120231482
 30
0.0
 10
20.1250824321
 20
23.870581037
 30
0.0
 10
20.1251680168
 20
23.8988927461
 30
0.0
 11
19.8751714437
 21
23.6823863952
 31
0.0
 11
19.9707011655
 21
23.69903163
 31
0.0
 11
20.0517066248
 21
23.7460066989
 31
0.0
 11
20.1059480186
 21
23.8161604462
 31
0.0
 11
20.1251680168
 21
23.8988927461
 31
0.0
  0
SPLINE
  5
57E
100
AcDbEntity
  8
RACCORDO
100
AcDbSpline
 62
253
  6
CONTINUOUS
 70
0
 71
3
 72
11
 73
7
 74
5
 42
0.0000001
 43
0.0000001
 44
0.0000000001
 12
0.0011010187
 22
-0.3642207076
 32
0.0
 13
0.3642214356
 23
-0.0008257883
 33
0.0
 40
0.0
 40
0.0
 40
0.0
 40
0.0
 40
0.2331983104
 40
0.4766700817
 40
0.7337692773
 40
1.0
 40
1.0
 40
1.0
 40
1.0
 10
17.8342159561
 20
23.8988927461
 30
0.0
 10
17.8343015413
 20
23.8705808616
 30
0.0
 10
17.8482100388
 20
23.8120226423
 30
0.0
 10
17.9051613825
 20
23.7403728721
 30
0.0
 10
17.987821534
 20
23.6933568399
 30
0.0
 10
18.0518902171
 20
23.6824596786
 30
0.0
 10
18.0842125291
 20
23.6823863952
 30
0.0
 11
17.8342159561
 21
23.8988927461
 31
0.0
 11
17.8534361889
 21
23.8161599604
 31
0.0
 11
17.9076781145
 21
23.7460060054
 31
0.0
 11
17.9886845821
 21
23.6990311045
 31
0.0
 11
18.0842125291
 21
23.6823863952
 31
0.0
  0
SPLINE
  5
57F
100
AcDbEntity
  8
RACCORDO
100
AcDbSpline
 62
7
  6
CONTINUOUS
 70
0
 71
3
 72
13
 73
9
 74
7
 42
0.0000001
 43
0.0000001
 44
0.0000000001
 12
0.002852503
 22
-0.3145370621
 32
0.0
 13
0.3145499964
 23
0.0
 33
0.0
 40
0.0
 40
0.0
 40
0.0
 40
0.0
 40
0.0847539955
 40
0.1758124513
 40
0.2779583121
 40
0.3944533855
 40
0.6735537874
 40
1.0
 40
1.0
 40
1.0
 40
1.0
 10
17.8289799205
 20
23.321542477
 30
0.0
 10
17.8290605075
 20
23.312656386
 30
0.0
 10
17.832280903
 20
23.2941417559
 30
0.0
 10
17.845782557
 20
23.2679091261
 30
0.0
 10
17.8676109367
 20
23.2434792262
 30
0.0
 10
17.9099055477
 20
23.2123997774
 30
0.0
 10
17.9816977118
 20
23.1847418768
 30
0.0
 10
18.045403113
 20
23.1772049097
 30
0.0
 10
18.079630998
 20
23.1772049097
 30
0.0
 11
17.8289799205
 21
23.321542477
 31
0.0
 11
17.8334016519
 21
23.2952523601
 31
0.0
 11
17.8461842105
 21
23.2696204388
 31
0.0
 11
17.8672910753
 21
23.2453957431
 31
0.0
 11
17.8965844044
 21
23.2233810028
 31
0.0
 11
17.9777328766
 21
23.1898818912
 31
0.0
 11
18.079630998
 21
23.1772049097
 31
0.0
  0
SPLINE
  5
580
100
AcDbEntity
  8
RACCORDO
100
AcDbSpline
 62
7
  6
CONTINUOUS
 70
0
 71
3
 72
13
 73
9
 74
7
 42
0.0000001
 43
0.0000001
 44
0.0000000001
 12
0.3145499964
 22
0.0
 32
0.0
 13
0.002852503
 23
0.3145370621
 33
0.0
 40
0.0
 40
0.0
 40
0.0
 40
0.0
 40
0.3264462126
 40
0.6055466145
 40
0.7220416879
 40
0.8241875487
 40
0.9152460045
 40
1.0
 40
1.0
 40
1.0
 40
1.0
 10
19.8797529749
 20
23.1772049097
 30
0.0
 10
19.9139808599
 20
23.1772049097
 30
0.0
 10
19.977686261
 20
23.1847418768
 30
0.0
 10
20.0494784252
 20
23.2123997774
 30
0.0
 10
20.0917730362
 20
23.2434792262
 30
0.0
 10
20.1136014159
 20
23.2679091261
 30
0.0
 10
20.1271030698
 20
23.2941417559
 30
0.0
 10
20.1303234654
 20
23.312656386
 30
0.0
 10
20.1304040524
 20
23.321542477
 30
0.0
 11
19.8797529749
 21
23.1772049097
 31
0.0
 11
19.9816510963
 21
23.1898818912
 31
0.0
 11
20.0627995685
 21
23.2233810028
 31
0.0
 11
20.0920928976
 21
23.2453957431
 31
0.0
 11
20.1131997624
 21
23.2696204388
 31
0.0
 11
20.125982321
 21
23.2952523601
 31
0.0
 11
20.1304040524
 21
23.321542477
 31
0.0
  0
SPLINE
  5
581
100
AcDbEntity
  8
RACCORDO
100
AcDbSpline
 62
253
  6
CONTINUOUS
 70
0
 71
3
 72
11
 73
7
 74
5
 42
0.0000001
 43
0.0000001
 44
0.0000000001
 12
-0.3642214703
 22
-0.0008257884
 32
0.0
 13
-0.0011010188
 23
-0.3642207423
 33
0.0
 40
0.0
 40
0.0
 40
0.0
 40
0.0
 40
0.2662357453
 40
0.5233327532
 40
0.7668031567
 40
1.0
 40
1.0
 40
1.0
 40
1.0
 10
-23.2407874709
 20
-23.6732760375
 30
0.0
 10
-23.2731103957
 20
-23.6733493223
 30
0.0
 10
-23.3371795198
 20
-23.6842465575
 30
0.0
 10
-23.4198394042
 20
-23.7312633957
 30
0.0
 10
-23.4767901525
 20
-23.8029127905
 30
0.0
 10
-23.4906984592
 20
-23.8614706793
 30
0.0
 10
-23.4907840439
 20
-23.8897823885
 30
0.0
 11
-23.2407874709
 21
-23.6732760375
 31
0.0
 11
-23.3363171927
 21
-23.6899212723
 31
0.0
 11
-23.417322652
 21
-23.7368963412
 31
0.0
 11
-23.4715640458
 21
-23.8070500885
 31
0.0
 11
-23.4907840439
 21
-23.8897823885
 31
0.0
  0
SPLINE
  5
582
100
AcDbEntity
  8
RACCORDO
100
AcDbSpline
 62
253
  6
CONTINUOUS
 70
0
 71
3
 72
11
 73
7
 74
5
 42
0.0000001
 43
0.0000001
 44
0.0000000001
 12
-0.0011010187
 22
0.3642207076
 32
0.0
 13
-0.3642214356
 23
0.0008257883
 33
0.0
 40
0.0
 40
0.0
 40
0.0
 40
0.0
 40
0.2331983104
 40
0.4766700817
 40
0.7337692773
 40
1.0
 40
1.0
 40
1.0
 40
1.0
 10
-21.1998319832
 20
-23.8897823885
 30
0.0
 10
-21.1999175684
 20
-23.8614705039
 30
0.0
 10
-21.213826066
 20
-23.8029122846
 30
0.0
 10
-21.2707774097
 20
-23.7312625144
 30
0.0
 10
-21.3534375611
 20
-23.6842464822
 30
0.0
 10
-21.4175062443
 20
-23.6733493209
 30
0.0
 10
-21.4498285563
 20
-23.6732760375
 30
0.0
 11
-21.1998319832
 21
-23.8897823885
 31
0.0
 11
-21.219052216
 21
-23.8070496027
 31
0.0
 11
-21.2732941417
 21
-23.7368956477
 31
0.0
 11
-21.3543006092
 21
-23.6899207468
 31
0.0
 11
-21.4498285563
 21
-23.6732760375
 31
0.0
  0
SPLINE
  5
583
100
AcDbEntity
  8
RACCORDO
100
AcDbSpline
 62
7
  6
CONTINUOUS
 70
0
 71
3
 72
13
 73
9
 74
7
 42
0.0000001
 43
0.0000001
 44
0.0000000001
 12
-0.002852503
 22
0.3145370621
 32
0.0
 13
-0.3145499964
 23
0.0
 33
0.0
 40
0.0
 40
0.0
 40
0.0
 40
0.0
 40
0.0847539955
 40
0.1758124513
 40
0.2779583121
 40
0.3944533855
 40
0.6735537874
 40
1.0
 40
1.0
 40
1.0
 40
1.0
 10
-21.1945959476
 20
-23.3124321193
 30
0.0
 10
-21.1946765346
 20
-23.3035460283
 30
0.0
 10
-21.1978969302
 20
-23.2850313982
 30
0.0
 10
-21.2113985841
 20
-23.2587987684
 30
0.0
 10
-21.2332269638
 20
-23.2343688686
 30
0.0
 10
-21.2755215748
 20
-23.2032894198
 30
0.0
 10
-21.347313739
 20
-23.1756315191
 30
0.0
 10
-21.4110191401
 20
-23.168094552
 30
0.0
 10
-21.4452470251
 20
-23.168094552
 30
0.0
 11
-21.1945959476
 21
-23.3124321193
 31
0.0
 11
-21.199017679
 21
-23.2861420024
 31
0.0
 11
-21.2118002376
 21
-23.2605100811
 31
0.0
 11
-21.2329071024
 21
-23.2362853854
 31
0.0
 11
-21.2622004315
 21
-23.2142706452
 31
0.0
 11
-21.3433489037
 21
-23.1807715335
 31
0.0
 11
-21.4452470251
 21
-23.168094552
 31
0.0
  0
SPLINE
  5
584
100
AcDbEntity
  8
RACCORDO
100
AcDbSpline
 62
7
  6
CONTINUOUS
 70
0
 71
3
 72
13
 73
9
 74
7
 42
0.0000001
 43
0.0000001
 44
0.0000000001
 12
-0.3145499964
 22
0.0
 32
0.0
 13
-0.002852503
 23
-0.3145370621
 33
0.0
 40
0.0
 40
0.0
 40
0.0
 40
0.0
 40
0.3264462126
 40
0.6055466145
 40
0.7220416879
 40
0.8241875487
 40
0.9152460045
 40
1.0
 40
1.0
 40
1.0
 40
1.0
 10
-23.245369002
 20
-23.168094552
 30
0.0
 10
-23.279596887
 20
-23.168094552
 30
0.0
 10
-23.3433022882
 20
-23.1756315191
 30
0.0
 10
-23.4150944523
 20
-23.2032894198
 30
0.0
 10
-23.4573890633
 20
-23.2343688686
 30
0.0
 10
-23.479217443
 20
-23.2587987684
 30
0.0
 10
-23.492719097
 20
-23.2850313982
 30
0.0
 10
-23.4959394925
 20
-23.3035460283
 30
0.0
 10
-23.4960200795
 20
-23.3124321193
 30
0.0
 11
-23.245369002
 21
-23.168094552
 31
0.0
 11
-23.3472671234
 21
-23.1807715335
 31
0.0
 11
-23.4284155956
 21
-23.2142706452
 31
0.0
 11
-23.4577089247
 21
-23.2362853854
 31
0.0
 11
-23.4788157895
 21
-23.2605100811
 31
0.0
 11
-23.4915983481
 21
-23.2861420024
 31
0.0
 11
-23.4960200795
 21
-23.3124321193
 31
0.0
  0
SPLINE
  5
585
100
AcDbEntity
  8
RACCORDO
100
AcDbSpline
 62
253
  6
CONTINUOUS
 70
0
 71
3
 72
11
 73
7
 74
5
 42
0.0000001
 43
0.0000001
 44
0.0000000001
 12
-0.0011010187
 22
0.3642207076
 32
0.0
 13
-0.3642214356
 23
0.0008257883
 33
0.0
 40
0.0
 40
0.0
 40
0.0
 40
0.0
 40
0.2331983104
 40
0.4766700817
 40
0.7337692773
 40
1.0
 40
1.0
 40
1.0
 40
1.0
 10
-2.3748319832
 20
-23.8897823885
 30
0.0
 10
-2.3749175684
 20
-23.8614705039
 30
0.0
 10
-2.388826066
 20
-23.8029122846
 30
0.0
 10
-2.4457774097
 20
-23.7312625144
 30
0.0
 10
-2.5284375611
 20
-23.6842464822
 30
0.0
 10
-2.5925062443
 20
-23.6733493209
 30
0.0
 10
-2.6248285563
 20
-23.6732760375
 30
0.0
 11
-2.3748319832
 21
-23.8897823885
 31
0.0
 11
-2.394052216
 21
-23.8070496027
 31
0.0
 11
-2.4482941417
 21
-23.7368956477
 31
0.0
 11
-2.5293006092
 21
-23.6899207468
 31
0.0
 11
-2.6248285563
 21
-23.6732760375
 31
0.0
  0
SPLINE
  5
586
100
AcDbEntity
  8
RACCORDO
100
AcDbSpline
 62
253
  6
CONTINUOUS
 70
0
 71
3
 72
11
 73
7
 74
5
 42
0.0000001
 43
0.0000001
 44
0.0000000001
 12
-0.3642214703
 22
-0.0008257884
 32
0.0
 13
-0.0011010188
 23
-0.3642207423
 33
0.0
 40
0.0
 40
0.0
 40
0.0
 40
0.0
 40
0.2662357453
 40
0.5233327532
 40
0.7668031567
 40
1.0
 40
1.0
 40
1.0
 40
1.0
 10
-4.4157874709
 20
-23.6732760375
 30
0.0
 10
-4.4481103957
 20
-23.6733493223
 30
0.0
 10
-4.5121795198
 20
-23.6842465575
 30
0.0
 10
-4.5948394042
 20
-23.7312633957
 30
0.0
 10
-4.6517901525
 20
-23.8029127905
 30
0.0
 10
-4.6656984592
 20
-23.8614706793
 30
0.0
 10
-4.6657840439
 20
-23.8897823885
 30
0.0
 11
-4.4157874709
 21
-23.6732760375
 31
0.0
 11
-4.5113171927
 21
-23.6899212723
 31
0.0
 11
-4.592322652
 21
-23.7368963412
 31
0.0
 11
-4.6465640458
 21
-23.8070500885
 31
0.0
 11
-4.6657840439
 21
-23.8897823885
 31
0.0
  0
SPLINE
  5
587
100
AcDbEntity
  8
RACCORDO
100
AcDbSpline
 62
7
  6
CONTINUOUS
 70
0
 71
3
 72
13
 73
9
 74
7
 42
0.0000001
 43
0.0000001
 44
0.0000000001
 12
-0.3145499964
 22
-0.0
 32
0.0
 13
-0.002852503
 23
-0.3145370621
 33
0.0
 40
0.0
 40
0.0
 40
0.0
 40
0.0
 40
0.3264462126
 40
0.6055466145
 40
0.7220416879
 40
0.8241875487
 40
0.9152460045
 40
1.0
 40
1.0
 40
1.0
 40
1.0
 10
-4.420369002
 20
-23.168094552
 30
0.0
 10
-4.454596887
 20
-23.168094552
 30
0.0
 10
-4.5183022882
 20
-23.1756315191
 30
0.0
 10
-4.5900944523
 20
-23.2032894198
 30
0.0
 10
-4.6323890633
 20
-23.2343688686
 30
0.0
 10
-4.654217443
 20
-23.2587987684
 30
0.0
 10
-4.667719097
 20
-23.2850313982
 30
0.0
 10
-4.6709394925
 20
-23.3035460283
 30
0.0
 10
-4.6710200795
 20
-23.3124321193
 30
0.0
 11
-4.420369002
 21
-23.168094552
 31
0.0
 11
-4.5222671234
 21
-23.1807715335
 31
0.0
 11
-4.6034155956
 21
-23.2142706452
 31
0.0
 11
-4.6327089247
 21
-23.2362853854
 31
0.0
 11
-4.6538157895
 21
-23.2605100811
 31
0.0
 11
-4.6665983481
 21
-23.2861420024
 31
0.0
 11
-4.6710200795
 21
-23.3124321193
 31
0.0
  0
SPLINE
  5
588
100
AcDbEntity
  8
RACCORDO
100
AcDbSpline
 62
7
  6
CONTINUOUS
 70
0
 71
3
 72
13
 73
9
 74
7
 42
0.0000001
 43
0.0000001
 44
0.0000000001
 12
-0.002852503
 22
0.3145370621
 32
0.0
 13
-0.3145499964
 23
0.0
 33
0.0
 40
0.0
 40
0.0
 40
0.0
 40
0.0
 40
0.0847539955
 40
0.1758124513
 40
0.2779583121
 40
0.3944533855
 40
0.6735537874
 40
1.0
 40
1.0
 40
1.0
 40
1.0
 10
-2.3695959476
 20
-23.3124321193
 30
0.0
 10
-2.3696765346
 20
-23.3035460283
 30
0.0
 10
-2.3728969302
 20
-23.2850313982
 30
0.0
 10
-2.3863985841
 20
-23.2587987684
 30
0.0
 10
-2.4082269638
 20
-23.2343688686
 30
0.0
 10
-2.4505215748
 20
-23.2032894198
 30
0.0
 10
-2.522313739
 20
-23.1756315191
 30
0.0
 10
-2.5860191401
 20
-23.168094552
 30
0.0
 10
-2.6202470251
 20
-23.168094552
 30
0.0
 11
-2.3695959476
 21
-23.3124321193
 31
0.0
 11
-2.374017679
 21
-23.2861420024
 31
0.0
 11
-2.3868002376
 21
-23.2605100811
 31
0.0
 11
-2.4079071024
 21
-23.2362853854
 31
0.0
 11
-2.4372004315
 21
-23.2142706452
 31
0.0
 11
-2.5183489037
 21
-23.1807715335
 31
0.0
 11
-2.6202470251
 21
-23.168094552
 31
0.0
  0
SPLINE
  5
589
100
AcDbEntity
  8
RACCORDO
100
AcDbSpline
 62
253
  6
CONTINUOUS
 70
0
 71
3
 72
11
 73
7
 74
5
 42
0.0000001
 43
0.0000001
 44
0.0000000001
 12
-0.3642214703
 22
-0.0008257884
 32
0.0
 13
-0.0011010188
 23
-0.3642207423
 33
0.0
 40
0.0
 40
0.0
 40
0.0
 40
0.0
 40
0.2662357453
 40
0.5233327532
 40
0.7668031567
 40
1.0
 40
1.0
 40
1.0
 40
1.0
 10
-0.7407874709
 20
-23.6732760375
 30
0.0
 10
-0.7731103957
 20
-23.6733493223
 30
0.0
 10
-0.8371795198
 20
-23.6842465575
 30
0.0
 10
-0.9198394042
 20
-23.7312633957
 30
0.0
 10
-0.9767901525
 20
-23.8029127905
 30
0.0
 10
-0.9906984592
 20
-23.8614706793
 30
0.0
 10
-0.9907840439
 20
-23.8897823885
 30
0.0
 11
-0.7407874709
 21
-23.6732760375
 31
0.0
 11
-0.8363171927
 21
-23.6899212723
 31
0.0
 11
-0.917322652
 21
-23.7368963412
 31
0.0
 11
-0.9715640458
 21
-23.8070500885
 31
0.0
 11
-0.9907840439
 21
-23.8897823885
 31
0.0
  0
SPLINE
  5
58A
100
AcDbEntity
  8
RACCORDO
100
AcDbSpline
 62
253
  6
CONTINUOUS
 70
0
 71
3
 72
11
 73
7
 74
5
 42
0.0000001
 43
0.0000001
 44
0.0000000001
 12
-0.0011010187
 22
0.3642207076
 32
0.0
 13
-0.3642214356
 23
0.0008257883
 33
0.0
 40
0.0
 40
0.0
 40
0.0
 40
0.0
 40
0.2331983104
 40
0.4766700817
 40
0.7337692773
 40
1.0
 40
1.0
 40
1.0
 40
1.0
 10
1.3001680168
 20
-23.8897823885
 30
0.0
 10
1.3000824316
 20
-23.8614705039
 30
0.0
 10
1.286173934
 20
-23.8029122846
 30
0.0
 10
1.2292225903
 20
-23.7312625144
 30
0.0
 10
1.1465624389
 20
-23.6842464822
 30
0.0
 10
1.0824937557
 20
-23.6733493209
 30
0.0
 10
1.0501714437
 20
-23.6732760375
 30
0.0
 11
1.3001680168
 21
-23.8897823885
 31
0.0
 11
1.280947784
 21
-23.8070496027
 31
0.0
 11
1.2267058583
 21
-23.7368956477
 31
0.0
 11
1.1456993908
 21
-23.6899207468
 31
0.0
 11
1.0501714437
 21
-23.6732760375
 31
0.0
  0
SPLINE
  5
58B
100
AcDbEntity
  8
RACCORDO
100
AcDbSpline
 62
7
  6
CONTINUOUS
 70
0
 71
3
 72
13
 73
9
 74
7
 42
0.0000001
 43
0.0000001
 44
0.0000000001
 12
-0.002852503
 22
0.3145370621
 32
0.0
 13
-0.3145499964
 23
0.0
 33
0.0
 40
0.0
 40
0.0
 40
0.0
 40
0.0
 40
0.0847539955
 40
0.1758124513
 40
0.2779583121
 40
0.3944533855
 40
0.6735537874
 40
1.0
 40
1.0
 40
1.0
 40
1.0
 10
1.3054040524
 20
-23.3124321193
 30
0.0
 10
1.3053234654
 20
-23.3035460283
 30
0.0
 10
1.3021030698
 20
-23.2850313982
 30
0.0
 10
1.2886014159
 20
-23.2587987684
 30
0.0
 10
1.2667730362
 20
-23.2343688686
 30
0.0
 10
1.2244784252
 20
-23.2032894198
 30
0.0
 10
1.152686261
 20
-23.1756315191
 30
0.0
 10
1.0889808599
 20
-23.168094552
 30
0.0
 10
1.0547529749
 20
-23.168094552
 30
0.0
 11
1.3054040524
 21
-23.3124321193
 31
0.0
 11
1.300982321
 21
-23.2861420024
 31
0.0
 11
1.2881997624
 21
-23.2605100811
 31
0.0
 11
1.2670928976
 21
-23.2362853854
 31
0.0
 11
1.2377995685
 21
-23.2142706452
 31
0.0
 11
1.1566510963
 21
-23.1807715335
 31
0.0
 11
1.0547529749
 21
-23.168094552
 31
0.0
  0
SPLINE
  5
58C
100
AcDbEntity
  8
RACCORDO
100
AcDbSpline
 62
7
  6
CONTINUOUS
 70
0
 71
3
 72
13
 73
9
 74
7
 42
0.0000001
 43
0.0000001
 44
0.0000000001
 12
-0.3145499964
 22
0.0
 32
0.0
 13
-0.002852503
 23
-0.3145370621
 33
0.0
 40
0.0
 40
0.0
 40
0.0
 40
0.0
 40
0.3264462126
 40
0.6055466145
 40
0.7220416879
 40
0.8241875487
 40
0.9152460045
 40
1.0
 40
1.0
 40
1.0
 40
1.0
 10
-0.745369002
 20
-23.168094552
 30
0.0
 10
-0.779596887
 20
-23.168094552
 30
0.0
 10
-0.8433022882
 20
-23.1756315191
 30
0.0
 10
-0.9150944523
 20
-23.2032894198
 30
0.0
 10
-0.9573890633
 20
-23.2343688686
 30
0.0
 10
-0.979217443
 20
-23.2587987684
 30
0.0
 10
-0.992719097
 20
-23.2850313982
 30
0.0
 10
-0.9959394925
 20
-23.3035460283
 30
0.0
 10
-0.9960200795
 20
-23.3124321193
 30
0.0
 11
-0.745369002
 21
-23.168094552
 31
0.0
 11
-0.8472671234
 21
-23.1807715335
 31
0.0
 11
-0.9284155956
 21
-23.2142706452
 31
0.0
 11
-0.9577089247
 21
-23.2362853854
 31
0.0
 11
-0.9788157895
 21
-23.2605100811
 31
0.0
 11
-0.9915983481
 21
-23.2861420024
 31
0.0
 11
-0.9960200795
 21
-23.3124321193
 31
0.0
  0
SPLINE
  5
58D
100
AcDbEntity
  8
RACCORDO
100
AcDbSpline
 62
253
  6
CONTINUOUS
 70
0
 71
3
 72
11
 73
7
 74
5
 42
0.0000001
 43
0.0000001
 44
0.0000000001
 12
-0.0011010187
 22
0.3642207076
 32
0.0
 13
-0.3642214356
 23
0.0008257883
 33
0.0
 40
0.0
 40
0.0
 40
0.0
 40
0.0
 40
0.2331983104
 40
0.4766700817
 40
0.7337692773
 40
1.0
 40
1.0
 40
1.0
 40
1.0
 10
20.1251680168
 20
-23.8897823885
 30
0.0
 10
20.1250824316
 20
-23.8614705039
 30
0.0
 10
20.111173934
 20
-23.8029122846
 30
0.0
 10
20.0542225903
 20
-23.7312625144
 30
0.0
 10
19.9715624389
 20
-23.6842464822
 30
0.0
 10
19.9074937557
 20
-23.6733493209
 30
0.0
 10
19.8751714437
 20
-23.6732760375
 30
0.0
 11
20.1251680168
 21
-23.8897823885
 31
0.0
 11
20.105947784
 21
-23.8070496027
 31
0.0
 11
20.0517058583
 21
-23.7368956477
 31
0.0
 11
19.9706993908
 21
-23.6899207468
 31
0.0
 11
19.8751714437
 21
-23.6732760375
 31
0.0
  0
SPLINE
  5
58E
100
AcDbEntity
  8
RACCORDO
100
AcDbSpline
 62
253
  6
CONTINUOUS
 70
0
 71
3
 72
11
 73
7
 74
5
 42
0.0000001
 43
0.0000001
 44
0.0000000001
 12
-0.3642214703
 22
-0.0008257884
 32
0.0
 13
-0.0011010188
 23
-0.3642207423
 33
0.0
 40
0.0
 40
0.0
 40
0.0
 40
0.0
 40
0.2662357453
 40
0.5233327532
 40
0.7668031567
 40
1.0
 40
1.0
 40
1.0
 40
1.0
 10
18.0842125291
 20
-23.6732760375
 30
0.0
 10
18.0518896043
 20
-23.6733493223
 30
0.0
 10
17.9878204802
 20
-23.6842465575
 30
0.0
 10
17.9051605958
 20
-23.7312633957
 30
0.0
 10
17.8482098475
 20
-23.8029127905
 30
0.0
 10
17.8343015408
 20
-23.8614706793
 30
0.0
 10
17.8342159561
 20
-23.8897823885
 30
0.0
 11
18.0842125291
 21
-23.6732760375
 31
0.0
 11
17.9886828073
 21
-23.6899212723
 31
0.0
 11
17.907677348
 21
-23.7368963412
 31
0.0
 11
17.8534359542
 21
-23.8070500885
 31
0.0
 11
17.8342159561
 21
-23.8897823885
 31
0.0
  0
SPLINE
  5
58F
100
AcDbEntity
  8
RACCORDO
100
AcDbSpline
 62
7
  6
CONTINUOUS
 70
0
 71
3
 72
13
 73
9
 74
7
 42
0.0000001
 43
0.0000001
 44
0.0000000001
 12
-0.002852503
 22
0.3145370621
 32
0.0
 13
-0.3145499964
 23
0.0
 33
0.0
 40
0.0
 40
0.0
 40
0.0
 40
0.0
 40
0.0847539955
 40
0.1758124513
 40
0.2779583121
 40
0.3944533855
 40
0.6735537874
 40
1.0
 40
1.0
 40
1.0
 40
1.0
 10
20.1304040524
 20
-23.3124321193
 30
0.0
 10
20.1303234654
 20
-23.3035460283
 30
0.0
 10
20.1271030698
 20
-23.2850313982
 30
0.0
 10
20.1136014159
 20
-23.2587987684
 30
0.0
 10
20.0917730362
 20
-23.2343688686
 30
0.0
 10
20.0494784252
 20
-23.2032894198
 30
0.0
 10
19.977686261
 20
-23.1756315191
 30
0.0
 10
19.9139808599
 20
-23.168094552
 30
0.0
 10
19.8797529749
 20
-23.168094552
 30
0.0
 11
20.1304040524
 21
-23.3124321193
 31
0.0
 11
20.125982321
 21
-23.2861420024
 31
0.0
 11
20.1131997624
 21
-23.2605100811
 31
0.0
 11
20.0920928976
 21
-23.2362853854
 31
0.0
 11
20.0627995685
 21
-23.2142706452
 31
0.0
 11
19.9816510963
 21
-23.1807715335
 31
0.0
 11
19.8797529749
 21
-23.168094552
 31
0.0
  0
SPLINE
  5
590
100
AcDbEntity
  8
RACCORDO
100
AcDbSpline
 62
7
  6
CONTINUOUS
 70
0
 71
3
 72
13
 73
9
 74
7
 42
0.0000001
 43
0.0000001
 44
0.0000000001
 12
-0.3145499964
 22
0.0
 32
0.0
 13
-0.002852503
 23
-0.3145370621
 33
0.0
 40
0.0
 40
0.0
 40
0.0
 40
0.0
 40
0.3264462126
 40
0.6055466145
 40
0.7220416879
 40
0.8241875487
 40
0.9152460045
 40
1.0
 40
1.0
 40
1.0
 40
1.0
 10
18.079630998
 20
-23.168094552
 30
0.0
 10
18.045403113
 20
-23.168094552
 30
0.0
 10
17.9816977118
 20
-23.1756315191
 30
0.0
 10
17.9099055477
 20
-23.2032894198
 30
0.0
 10
17.8676109367
 20
-23.2343688686
 30
0.0
 10
17.845782557
 20
-23.2587987684
 30
0.0
 10
17.832280903
 20
-23.2850313982
 30
0.0
 10
17.8290605075
 20
-23.3035460283
 30
0.0
 10
17.8289799205
 20
-23.3124321193
 30
0.0
 11
18.079630998
 21
-23.168094552
 31
0.0
 11
17.9777328766
 21
-23.1807715335
 31
0.0
 11
17.8965844044
 21
-23.2142706452
 31
0.0
 11
17.8672910753
 21
-23.2362853854
 31
0.0
 11
17.8461842105
 21
-23.2605100811
 31
0.0
 11
17.8334016519
 21
-23.2861420024
 31
0.0
 11
17.8289799205
 21
-23.3124321193
 31
0.0
  0
SPLINE
  5
591
100
AcDbEntity
  8
RACCORDO
100
AcDbSpline
 62
253
  6
CONTINUOUS
 70
0
 71
3
 72
18
 73
14
 74
12
 42
0.0000001
 43
0.0000001
 44
0.0000000001
 12
10.582184579
 22
0.0
 32
0.0
 13
1.9710169062
 23
10.3970054737
 33
0.0
 40
0.0
 40
0.0
 40
0.0
 40
0.0
 40
0.1579624164
 40
0.3119226142
 40
0.4581384207
 40
0.5933721475
 40
0.7152232547
 40
0.770773337
 40
0.8226973836
 40
0.8711571254
 40
0.916480696
 40
0.9591939379
 40
1.0
 40
1.0
 40
1.0
 40
1.0
 10
-1.6828080136
 20
-16.5831979338
 30
0.0
 10
-1.1256121978
 20
-16.5831979338
 30
0.0
 10
-0.0246309962
 20
-16.5329167075
 30
0.0
 10
1.5781117236
 20
-16.3082744288
 30
0.0
 10
3.0728392792
 20
-15.9422183491
 30
0.0
 10
4.4100142568
 20
-15.4469733264
 30
0.0
 10
5.3866862686
 20
-14.9240361062
 30
0.0
 10
6.0431728959
 20
-14.4495124893
 30
0.0
 10
6.4552780804
 20
-14.0836081398
 30
0.0
 10
6.7988285014
 20
-13.6996090308
 30
0.0
 10
7.0707428247
 20
-13.3002939458
 30
0.0
 10
7.2681265907
 20
-12.8889018377
 30
0.0
 10
7.3497798366
 20
-12.6039785194
 30
0.0
 10
7.3765896494
 20
-12.4625582357
 30
0.0
 11
-1.6828080136
 21
-16.5831979338
 31
0.0
 11
-0.013006785
 21
-16.5059421861
 31
0.0
 11
1.6000354978
 21
-16.2768089692
 31
0.0
 11
3.1016264468
 21
-15.9035687927
 31
0.0
 11
4.4407572398
 21
-15.3989054592
 31
0.0
 11
5.5719399956
 21
-14.7799472895
 31
0.0
 11
6.0472402279
 21
-14.4340470248
 31
0.0
 11
6.4567788427
 21
-14.0677203473
 31
0.0
 11
6.7970654626
 21
-13.684081138
 31
0.0
 11
7.0652064504
 21
-13.2864153902
 31
0.0
 11
7.2589397013
 21
-12.8780394675
 31
0.0
 11
7.3765896494
 21
-12.4625582357
 31
0.0
  0
SPLINE
  5
592
100
AcDbEntity
  8
RACCORDO
100
AcDbSpline
 62
253
  6
CONTINUOUS
 70
0
 71
3
 72
13
 73
9
 74
7
 42
0.0000001
 43
0.0000001
 44
0.0000000001
 12
3.4139125016
 22
-2.4494319221
 32
0.0
 13
-0.6238105019
 23
-4.155162544
 33
0.0
 40
0.0
 40
0.0
 40
0.0
 40
0.0
 40
0.2772674103
 40
0.5302751724
 40
0.6501144756
 40
0.767157893
 40
0.8831547495
 40
1.0
 40
1.0
 40
1.0
 40
1.0
 10
5.5530519876
 20
-8.9115811051
 30
0.0
 10
5.8685742137
 20
-9.1379636536
 30
0.0
 10
6.4362969381
 20
-9.6257258812
 30
0.0
 10
6.9773793248
 20
-10.3720579054
 30
0.0
 10
7.2514575044
 20
-11.0036559837
 30
0.0
 10
7.3770930577
 20
-11.4838317916
 30
0.0
 10
7.4235976444
 20
-11.973746775
 30
0.0
 10
7.4008767302
 20
-12.3007705523
 30
0.0
 10
7.3765802988
 20
-12.4626075551
 30
0.0
 11
5.5530519876
 21
-8.9115811051
 31
0.0
 11
6.4277174524
 21
-9.6811201397
 31
0.0
 11
7.0413742876
 21
-10.5491883978
 31
0.0
 11
7.2406878599
 21
-11.0115937291
 31
0.0
 11
7.3643499071
 21
-11.4875766651
 31
0.0
 11
7.410165272
 21
-11.9728057197
 31
0.0
 11
7.3765802988
 21
-12.4626075551
 31
0.0
  0
LINE
  5
593
100
AcDbEntity
  8
RACCORDO
100
AcDbLine
 62
253
  6
CONTINUOUS
 10
5.5458864459
 20
-8.9064473686
 11
5.5530519876
 21
-8.9115811051
  0
SPLINE
  5
594
100
AcDbEntity
  8
RACCORDO
100
AcDbSpline
 62
253
  6
CONTINUOUS
 70
0
 71
3
 72
14
 73
10
 74
8
 42
0.0000001
 43
0.0000001
 44
0.0000000001
 12
7.5783569455
 22
-0.0000477753
 32
0.0
 13
6.1634666396
 23
-4.4094413454
 33
0.0
 40
0.0
 40
0.0
 40
0.0
 40
0.0
 40
0.2701193807
 40
0.4025571513
 40
0.5318344577
 40
0.6569871594
 40
0.7771537579
 40
0.8916403395
 40
1.0
 40
1.0
 40
1.0
 40
1.0
 10
-1.6828080136
 20
-7.0253940433
 30
0.0
 10
-1.0004543187
 20
-7.025398345
 30
0.0
 10
0.0179011704
 20
-7.081732133
 30
0.0
 10
1.3478395403
 20
-7.2764014915
 30
0.0
 10
2.3043392864
 20
-7.4807197253
 30
0.0
 10
3.2140287788
 20
-7.7445020338
 30
0.0
 10
4.0648605597
 20
-8.0674302742
 30
0.0
 10
4.8447102255
 20
-8.4479973732
 30
0.0
 10
5.3232627283
 20
-8.7471788461
 30
0.0
 10
5.5458864459
 20
-8.9064473686
 30
0.0
 11
-1.6828080136
 21
-7.0253940433
 31
0.0
 11
0.3609304604
 21
-7.1419793548
 31
0.0
 11
1.3538500565
 21
-7.2884220866
 31
0.0
 11
2.3116488512
 21
-7.4944616876
 31
0.0
 11
3.2220666899
 21
-7.7603568988
 31
0.0
 11
4.072681833
 21
-8.0855726813
 31
0.0
 11
4.8512247025
 21
-8.468503195
 31
0.0
 11
5.5458864459
 21
-8.9064473686
 31
0.0
  0
SPLINE
  5
595
100
AcDbEntity
  8
RACCORDO
100
AcDbSpline
 62
253
  6
CONTINUOUS
 70
0
 71
3
 72
13
 73
9
 74
7
 42
0.0000001
 43
0.0000001
 44
0.0000000001
 12
-0.6210256931
 22
4.150557141
 32
0.0
 13
3.4085327443
 23
2.4484080591
 33
0.0
 40
0.0
 40
0.0
 40
0.0
 40
0.0
 40
0.1168487614
 40
0.2328578828
 40
0.3499130133
 40
0.4697580924
 40
0.7227595109
 40
1.0
 40
1.0
 40
1.0
 40
1.0
 10
-10.7424724111
 20
-12.4611485837
 30
0.0
 10
-10.7666611055
 20
-12.2994860967
 30
0.0
 10
-10.7892179649
 20
-11.9728206079
 30
0.0
 10
-10.7426456662
 20
-11.4834624999
 30
0.0
 10
-10.6171230706
 20
-11.0038254714
 30
0.0
 10
-10.3434411638
 20
-10.3729316777
 30
0.0
 10
-9.803296205
 20
-9.6273405291
 30
0.0
 10
-9.2365387954
 20
-9.1398930975
 30
0.0
 10
-8.921544367
 20
-8.9136271483
 30
0.0
 11
-10.7424724111
 21
-12.4611485837
 31
0.0
 11
-10.775815208
 21
-11.9718971845
 31
0.0
 11
-10.7299320221
 21
-11.4872016003
 31
0.0
 11
-10.6063761211
 21
-11.0117409895
 31
0.0
 11
-10.4073414577
 21
-10.5498372685
 31
0.0
 11
-9.7947069648
 21
-9.682618049
 31
0.0
 11
-8.921544367
 21
-8.9136271483
 31
0.0
  0
SPLINE
  5
596
100
AcDbEntity
  8
RACCORDO
100
AcDbSpline
 62
253
  6
CONTINUOUS
 70
0
 71
3
 72
18
 73
14
 74
12
 42
0.0000001
 43
0.0000001
 44
0.0000000001
 12
-10.5836628555
 22
0.0
 32
0.0
 13
-1.9647691728
 23
10.399692377
 33
0.0
 40
0.0
 40
0.0
 40
0.0
 40
0.0
 40
0.1579744784
 40
0.3119447034
 40
0.4581667111
 40
0.5934015223
 40
0.7152481632
 40
0.7707942137
 40
0.822713366
 40
0.871167823
 40
0.9164863761
 40
0.9591957325
 40
1.0
 40
1.0
 40
1.0
 40
1.0
 10
-1.6828080136
 20
-16.5831979338
 30
0.0
 10
-2.24012422
 20
-16.5831979338
 30
0.0
 10
-3.341337524
 20
-16.5328953599
 30
0.0
 10
-4.9443973235
 20
-16.308158431
 30
0.0
 10
-6.439374099
 20
-15.941951619
 30
0.0
 10
-7.7767015813
 20
-15.4465099346
 30
0.0
 10
-8.7534148806
 20
-14.9233678934
 30
0.0
 10
-9.4098549645
 20
-14.4486654867
 30
0.0
 10
-9.8218833718
 20
-14.0826326055
 30
0.0
 10
-10.1653187609
 20
-13.6985040954
 30
0.0
 10
-10.437078714
 20
-13.299060689
 30
0.0
 10
-10.6342674769
 20
-12.8875440353
 30
0.0
 10
-10.7157579898
 20
-12.6025503199
 30
0.0
 10
-10.7424816455
 20
-12.4610997099
 30
0.0
 11
-1.6828080136
 21
-16.5831979338
 31
0.0
 11
-3.3529692458
 21
-16.5059085825
 31
0.0
 11
-4.9663346038
 21
-16.2766768466
 31
0.0
 11
-6.4681769502
 21
-15.903279958
 31
0.0
 11
-7.8074567361
 21
-15.3984125638
 31
0.0
 11
-8.9386612251
 21
-14.7792173637
 31
0.0
 11
-9.4139188339
 21
-14.4331915124
 31
0.0
 11
-9.8233771171
 21
-14.0667376227
 31
0.0
 11
-10.1635448552
 21
-13.6829720119
 31
0.0
 11
-10.4315281764
 21
-13.2851832393
 31
0.0
 11
-10.625065296
 21
-12.8766899653
 31
0.0
 11
-10.7424816455
 21
-12.4610997099
 31
0.0
  0
SPLINE
  5
597
100
AcDbEntity
  8
RACCORDO
100
AcDbSpline
 62
253
  6
CONTINUOUS
 70
0
 71
3
 72
14
 73
10
 74
8
 42
0.0000001
 43
0.0000001
 44
0.0000000001
 12
6.1639340933
 22
4.4149350031
 32
0.0
 13
7.5819347522
 23
-0.0000420379
 33
0.0
 40
0.0
 40
0.0
 40
0.0
 40
0.0
 40
0.1083472195
 40
0.2228249952
 40
0.3429869707
 40
0.4681392469
 40
0.597419863
 40
0.7298638442
 40
1.0
 40
1.0
 40
1.0
 40
1.0
 10
-8.9144133359
 20
-8.9085121852
 30
0.0
 10
-8.6917982959
 20
-8.7490635412
 30
0.0
 10
-8.2132045795
 20
-8.4495404372
 30
0.0
 10
-7.4331778503
 20
-8.0685452604
 30
0.0
 10
-6.5820588091
 20
-7.7452556247
 30
0.0
 10
-5.671991168
 20
-7.4811820123
 30
0.0
 10
-4.715041498
 20
-7.2766435363
 30
0.0
 10
-3.3844232805
 20
-7.0817717499
 30
0.0
 10
-2.3655262495
 20
-7.025390258
 30
0.0
 10
-1.6828080136
 20
-7.0253940433
 30
0.0
 11
-8.9144133359
 21
-8.9085121852
 31
0.0
 11
-8.2197144448
 21
-8.4700770297
 31
0.0
 11
-7.4410017668
 21
-8.0867150855
 31
0.0
 11
-6.5901035682
 21
-7.7611339918
 31
0.0
 11
-5.6793088903
 21
-7.4949434249
 31
0.0
 11
-4.7210594769
 21
-7.2886799903
 31
0.0
 11
-3.7276359131
 21
-7.1420840947
 31
0.0
 11
-1.6828080136
 21
-7.0253940433
 31
0.0
  0
LINE
  5
598
100
AcDbEntity
  8
RACCORDO
100
AcDbLine
 62
253
  6
CONTINUOUS
 10
-8.921544367
 20
-8.9136271483
 11
-8.9144133359
 21
-8.9085121852
  0
SPLINE
  5
599
100
AcDbEntity
  8
RACCORDO
100
AcDbSpline
 62
253
  6
CONTINUOUS
 70
0
 71
3
 72
13
 73
9
 74
7
 42
0.0000001
 43
0.0000001
 44
0.0000000001
 12
-3.6638916667
 22
-2.917426452
 32
0.0
 13
-3.8262527281
 23
-2.7009756216
 33
0.0
 40
0.0
 40
0.0
 40
0.0
 40
0.0
 40
0.1145661316
 40
0.2347155528
 40
0.3584316512
 40
0.4845150566
 40
0.7409282996
 40
1.0
 40
1.0
 40
1.0
 40
1.0
 10
4.9789001898
 20
-16.4656084389
 30
0.0
 10
4.8389808915
 20
-16.5770211932
 30
0.0
 10
4.5573684305
 20
-16.8115656612
 30
0.0
 10
4.131599427
 20
-17.1746428958
 30
0.0
 10
3.691175527
 20
-17.5482869902
 30
0.0
 10
3.0831410209
 20
-18.0531298989
 30
0.0
 10
2.2975741234
 20
-18.6748786229
 30
0.0
 10
1.6469766552
 20
-19.1489060837
 30
0.0
 10
1.316552055
 20
-19.3821548661
 30
0.0
 11
4.9789001898
 21
-16.4656084389
 31
0.0
 11
4.5647347738
 21
-16.8067519791
 31
0.0
 11
4.1356803268
 21
-17.1708540287
 31
0.0
 11
3.6933415654
 21
-17.5451182302
 31
0.0
 11
3.2387174277
 21
-17.9219812792
 31
0.0
 11
2.296025918
 21
-18.66598474
 31
0.0
 11
1.316552055
 21
-19.3821548661
 31
0.0
  0
SPLINE
  5
59A
100
AcDbEntity
  8
RACCORDO
100
AcDbSpline
 62
253
  6
CONTINUOUS
 70
0
 71
3
 72
11
 73
7
 74
5
 42
0.0000001
 43
0.0000001
 44
0.0000000001
 12
-0.5894562304
 22
-4.7430477697
 32
0.0
 13
-3.7387026959
 23
-2.9775934821
 33
0.0
 40
0.0
 40
0.0
 40
0.0
 40
0.0
 40
0.2367378307
 40
0.479509399
 40
0.7328921046
 40
1.0
 40
1.0
 40
1.0
 40
1.0
 10
7.3765896494
 20
-12.4625582357
 30
0.0
 10
7.3300741196
 20
-12.8368445156
 30
0.0
 10
7.153643508
 20
-13.5871396565
 30
0.0
 10
6.6510248859
 20
-14.6497467037
 30
0.0
 10
5.9212841849
 20
-15.6313295623
 30
0.0
 10
5.3117791927
 20
-16.2004955294
 30
0.0
 10
4.9789001898
 20
-16.4656084389
 30
0.0
 11
7.3765896494
 21
-12.4625582357
 31
0.0
 11
7.118712042
 21
-13.5642770584
 31
0.0
 11
6.6261955726
 21
-14.6148986241
 31
0.0
 11
5.9078937595
 21
-15.5899312636
 31
0.0
 11
4.9789001898
 21
-16.4656084389
 31
0.0
  0
SPLINE
  5
59B
100
AcDbEntity
  8
RACCORDO
100
AcDbSpline
 62
253
  6
CONTINUOUS
 70
0
 71
3
 72
11
 73
7
 74
5
 42
0.0000001
 43
0.0000001
 44
0.0000000001
 12
-3.7404716266
 22
2.9785276403
 32
0.0
 13
-0.5877733333
 23
4.7452373388
 33
0.0
 40
0.0
 40
0.0
 40
0.0
 40
0.0
 40
0.2671263158
 40
0.5205267389
 40
0.763285443
 40
1.0
 40
1.0
 40
1.0
 40
1.0
 10
-8.3444083978
 20
-16.466031349
 30
0.0
 10
-8.6774678661
 20
-16.2008169773
 30
0.0
 10
-9.2872669298
 20
-15.6313622429
 30
0.0
 10
-10.0171728494
 20
-14.6492258344
 30
0.0
 10
-10.5198389287
 20
-13.5861358931
 30
0.0
 10
-10.6961034774
 20
-12.8355219614
 30
0.0
 10
-10.7424816455
 20
-12.4610997099
 30
0.0
 11
-8.3444083978
 21
-16.466031349
 31
0.0
 11
-9.2738413235
 21
-15.5899263961
 31
0.0
 11
-9.9923565896
 21
-14.6143271589
 31
0.0
 11
-10.484867055
 21
-13.5632436818
 31
0.0
 11
-10.7424816455
 21
-12.4610997099
 31
0.0
  0
SPLINE
  5
59C
100
AcDbEntity
  8
RACCORDO
100
AcDbSpline
 62
253
  6
CONTINUOUS
 70
0
 71
3
 72
13
 73
9
 74
7
 42
0.0000001
 43
0.0000001
 44
0.0000000001
 12
-3.8263750638
 22
2.700357515
 32
0.0
 13
-3.6636284303
 23
2.9173452937
 33
0.0
 40
0.0
 40
0.0
 40
0.0
 40
0.0
 40
0.2590974147
 40
0.5155202217
 40
0.6416044787
 40
0.7653152585
 40
0.8854553211
 40
1.0
 40
1.0
 40
1.0
 40
1.0
 10
-4.6820904049
 20
-19.3822096857
 30
0.0
 10
-5.0125583672
 20
-19.1489911354
 30
0.0
 10
-5.6631367156
 20
-18.6749172467
 30
0.0
 10
-6.4487401298
 20
-18.0532149167
 30
0.0
 10
-7.0567816487
 20
-17.5484354786
 30
0.0
 10
-7.49719917
 20
-17.1748663301
 30
0.0
 10
-7.9229438503
 20
-16.8118943893
 30
0.0
 10
-8.2045253503
 20
-16.5774201423
 30
0.0
 10
-8.3444083978
 20
-16.466031349
 30
0.0
 11
-4.6820904049
 21
-19.3822096857
 31
0.0
 11
-5.661622435
 21
-18.6660276565
 31
0.0
 11
-6.6043278172
 21
-17.9220756303
 31
0.0
 11
-7.0589567036
 21
-17.5452627336
 31
0.0
 11
-7.501286527
 21
-17.1710756599
 31
0.0
 11
-7.9303232153
 21
-16.8070680535
 31
0.0
 11
-8.3444083978
 21
-16.466031349
 31
0.0
  0
SPLINE
  5
59D
100
AcDbEntity
  8
RACCORDO
100
AcDbSpline
 62
253
  6
CONTINUOUS
 70
0
 71
3
 72
9
 73
5
 74
3
 42
0.0000001
 43
0.0000001
 44
0.0000000001
 12
-1.0968448299
 22
0.4877742941
 32
0.0
 13
-0.9807623076
 23
0.6921687936
 33
0.0
 40
0.0
 40
0.0
 40
0.0
 40
0.0
 40
0.2501033102
 40
1.0
 40
1.0
 40
1.0
 40
1.0
 10
-3.6414582461
 20
-19.9783489955
 30
0.0
 10
-3.7328997537
 20
-19.9376843403
 30
0.0
 10
-4.094054024
 20
-19.7651251496
 30
0.0
 10
-4.4369336023
 20
-19.5552280481
 30
0.0
 10
-4.6820904049
 20
-19.3822096857
 30
0.0
 11
-3.6414582461
 21
-19.9783489955
 31
0.0
 11
-3.9124083982
 21
-19.8490335422
 31
0.0
 11
-4.6820904049
 21
-19.3822096857
 31
0.0
  0
SPLINE
  5
59E
100
AcDbEntity
  8
RACCORDO
100
AcDbSpline
 62
253
  6
CONTINUOUS
 70
0
 71
3
 72
17
 73
13
 74
11
 42
0.0000001
 43
0.0000001
 44
0.0000000001
 12
-3.6351371412
 22
-1.6169157037
 32
0.0
 13
-3.635136308
 23
1.6169175769
 33
0.0
 40
0.0
 40
0.0
 40
0.0
 40
0.0
 40
0.0625438863
 40
0.1250136446
 40
0.2498729769
 40
0.3748712452
 40
0.499999987
 40
0.6251287303
 40
0.7501270038
 40
0.8749863483
 40
0.9374561169
 40
1.0
 40
1.0
 40
1.0
 40
1.0
 10
0.275842219
 20
-19.9783489955
 30
0.0
 10
0.2000570176
 20
-20.0120583928
 30
0.0
 10
0.043027709
 20
-20.0669401388
 30
0.0
 10
-0.2787230705
 20
-20.1470190665
 30
0.0
 10
-0.6890547638
 20
-20.2091028984
 30
0.0
 10
-1.1850812191
 20
-20.247488128
 30
0.0
 10
-1.682807964
 20
-20.2592608332
 30
0.0
 10
-2.1805347171
 20
-20.2474881282
 30
0.0
 10
-2.6765611933
 20
-20.2091028889
 30
0.0
 10
-3.0868929392
 20
-20.1470191163
 30
0.0
 10
-3.4086437218
 20
-20.0669401161
 30
0.0
 10
-3.5656730661
 20
-20.0120584301
 30
0.0
 10
-3.6414582461
 20
-19.9783489955
 30
0.0
 11
0.275842219
 21
-19.9783489955
 31
0.0
 11
0.0419470688
 21
-20.0632638983
 31
0.0
 11
-0.1989310172
 21
-20.1244892623
 31
0.0
 11
-0.6894336718
 21
-20.2030595505
 31
0.0
 11
-1.1851323443
 21
-20.243040157
 31
0.0
 11
-1.6828079621
 21
-20.2553352337
 31
0.0
 11
-2.1804835861
 21
-20.243040156
 31
0.0
 11
-2.6761822801
 21
-20.2030595559
 31
0.0
 11
-3.1666849864
 21
-20.1244892847
 31
0.0
 11
-3.4075631084
 21
-20.0632638942
 31
0.0
 11
-3.6414582461
 21
-19.9783489955
 31
0.0
  0
SPLINE
  5
59F
100
AcDbEntity
  8
RACCORDO
100
AcDbSpline
 62
253
  6
CONTINUOUS
 70
0
 71
3
 72
9
 73
5
 74
3
 42
0.0000001
 43
0.0000001
 44
0.0000000001
 12
-0.9808303755
 22
-0.6922369286
 32
0.0
 13
-1.0969315642
 23
-0.4878128066
 33
0.0
 40
0.0
 40
0.0
 40
0.0
 40
0.0
 40
0.7498966717
 40
1.0
 40
1.0
 40
1.0
 40
1.0
 10
1.316552055
 20
-19.3821548661
 30
0.0
 10
1.0713782436
 20
-19.5551902557
 30
0.0
 10
0.7284734289
 20
-19.7651074914
 30
0.0
 10
0.367290964
 20
-19.9376811266
 30
0.0
 10
0.275842219
 20
-19.9783489955
 30
0.0
 11
1.316552055
 21
-19.3821548661
 31
0.0
 11
0.5468135396
 21
-19.8490227408
 31
0.0
 11
0.275842219
 21
-19.9783489955
 31
0.0
  0
SPLINE
  5
5A0
100
AcDbEntity
  8
RACCORDO
100
AcDbSpline
 62
253
  6
CONTINUOUS
 70
0
 71
3
 72
9
 73
5
 74
3
 42
0.0000001
 43
0.0000001
 44
0.0000000001
 12
-0.0293722296
 22
41.0244105558
 32
0.0
 13
0.0293722286
 23
41.0244105558
 33
0.0
 40
0.0
 40
0.0
 40
0.0
 40
0.0
 40
0.2499465965
 40
1.0
 40
1.0
 40
1.0
 40
1.0
 10
20.0173602149
 20
-20.507654372
 30
0.0
 10
20.014913052
 20
-17.089683775
 30
0.0
 10
20.007574156
 20
-3.4148786116
 30
0.0
 10
20.0100166349
 20
10.259931807
 30
0.0
 10
20.0173602149
 20
20.5167647286
 30
0.0
 11
20.0173602149
 21
-20.507654372
 31
0.0
 11
20.0118554626
 21
-10.2537414305
 31
0.0
 11
20.0173602149
 21
20.5167647286
 31
0.0
  0
SPLINE
  5
5A1
100
AcDbEntity
  8
RACCORDO
100
AcDbSpline
 62
253
  6
CONTINUOUS
 70
0
 71
3
 72
9
 73
5
 74
3
 42
0.0000001
 43
0.0000001
 44
0.0000000001
 12
0.0293722286
 22
-41.0244105558
 32
0.0
 13
-0.0293722296
 23
-41.0244105558
 33
0.0
 40
0.0
 40
0.0
 40
0.0
 40
0.0
 40
0.2499465965
 40
1.0
 40
1.0
 40
1.0
 40
1.0
 10
-23.3829762421
 20
20.5167647286
 30
0.0
 10
-23.3805290792
 20
17.0987941316
 30
0.0
 10
-23.373190183
 20
3.4239889681
 30
0.0
 10
-23.3756326618
 20
-10.2508214504
 30
0.0
 10
-23.3829762421
 20
-20.507654372
 30
0.0
 11
-23.3829762421
 21
20.5167647286
 31
0.0
 11
-23.3774714898
 21
10.262851787
 31
0.0
 11
-23.3829762421
 21
-20.507654372
 31
0.0
  0
SPLINE
  5
5A2
100
AcDbEntity
  8
RACCORDO
100
AcDbSpline
 62
253
  6
CONTINUOUS
 70
0
 71
3
 72
9
 73
5
 74
3
 42
0.0000001
 43
0.0000001
 44
0.0000000001
 12
-1.2100800165
 22
0.4990691858
 32
0.0
 13
-1.0952364549
 23
0.7168129508
 33
0.0
 40
0.0
 40
0.0
 40
0.0
 40
0.0
 40
0.2501072548
 40
1.0
 40
1.0
 40
1.0
 40
1.0
 10
-3.8567153103
 20
-20.5076446389
 30
0.0
 10
-3.957598574
 20
-20.4660376975
 30
0.0
 10
-4.3566488824
 20
-20.2893120736
 30
0.0
 10
-4.7379124557
 20
-20.0732460815
 30
0.0
 10
-5.0116824129
 20
-19.8940684711
 30
0.0
 11
-3.8567153103
 21
-20.5076446389
 31
0.0
 11
-4.1560967034
 21
-20.375176093
 31
0.0
 11
-5.0116824129
 21
-19.8940684711
 31
0.0
  0
SPLINE
  5
5A3
100
AcDbEntity
  8
RACCORDO
100
AcDbSpline
 62
253
  6
CONTINUOUS
 70
0
 71
3
 72
15
 73
11
 74
9
 42
0.0000001
 43
0.0000001
 44
0.0000000001
 12
-17.9988730133
 22
3.1215303841
 32
0.0
 13
-8.8067347842
 23
16.0045244893
 33
0.0
 40
0.0
 40
0.0
 40
0.0
 40
0.0
 40
0.1250140021
 40
0.2500208337
 40
0.3750224958
 40
0.5000219615
 40
0.6250171279
 40
0.7500091088
 40
0.8750012318
 40
1.0
 40
1.0
 40
1.0
 40
1.0
 10
-5.0116824129
 20
-19.8940684711
 30
0.0
 10
-5.7617194627
 20
-19.7639901357
 30
0.0
 10
-7.2495160693
 20
-19.4258491101
 30
0.0
 10
-9.4136920651
 20
-18.6839773665
 30
0.0
 10
-11.4850510353
 20
-17.7118357932
 30
0.0
 10
-13.4360180286
 20
-16.5162772127
 30
0.0
 10
-15.2410678636
 20
-15.1099332039
 30
0.0
 10
-16.8739984623
 20
-13.506698613
 30
0.0
 10
-18.3115320666
 20
-11.726389438
 30
0.0
 10
-19.1249499126
 20
-10.4347717843
 30
0.0
 10
-19.4918935793
 20
-9.7679231685
 30
0.0
 11
-5.0116824129
 21
-19.8940684711
 31
0.0
 11
-7.2383133622
 21
-19.386724248
 31
0.0
 11
-9.3982655377
 21
-18.6455819659
 31
0.0
 11
-11.4650079355
 21
-17.6745877011
 31
0.0
 11
-13.4117280822
 21
-16.4811257485
 31
0.0
 11
-15.2124017068
 21
-15.0771006072
 31
0.0
 11
-16.8414296845
 21
-13.477189918
 31
0.0
 11
-18.2752718314
 21
-11.7002389039
 31
0.0
 11
-19.4918935793
 21
-9.7679231685
 31
0.0
  0
SPLINE
  5
5A4
100
AcDbEntity
  8
RACCORDO
100
AcDbSpline
 62
253
  6
CONTINUOUS
 70
0
 71
3
 72
9
 73
5
 74
3
 42
0.0000001
 43
0.0000001
 44
0.0000000001
 12
0.0293722285
 22
-40.9833862144
 32
0.0
 13
-0.0293722295
 23
-40.9833862144
 33
0.0
 40
0.0
 40
0.0
 40
0.0
 40
0.0
 40
0.2499465965
 40
1.0
 40
1.0
 40
1.0
 40
1.0
 10
-23.8829000897
 20
20.4962525627
 30
0.0
 10
-23.8804529268
 20
17.0816999301
 30
0.0
 10
-23.8731140306
 20
3.4205695455
 30
0.0
 10
-23.8755565094
 20
-10.2405660995
 30
0.0
 10
-23.8829000897
 20
-20.4871422051
 30
0.0
 11
-23.8829000897
 21
20.4962525627
 31
0.0
 11
-23.8773953373
 21
10.2525935132
 31
0.0
 11
-23.8829000897
 21
-20.4871422051
 31
0.0
  0
LINE
  5
5A5
100
AcDbEntity
  8
RACCORDO
100
AcDbLine
 62
253
  6
CONTINUOUS
 10
-19.4918935793
 20
-9.7679231685
 11
-19.4955195738
 21
-9.761330526
  0
SPLINE
  5
5A6
100
AcDbEntity
  8
RACCORDO
100
AcDbSpline
 62
253
  6
CONTINUOUS
 70
0
 71
3
 72
15
 73
11
 74
9
 42
0.0000001
 43
0.0000001
 44
0.0000000001
 12
1.7025820308
 22
0.1510088053
 32
0.0
 13
0.2643851813
 23
1.6886946754
 33
0.0
 40
0.0
 40
0.0
 40
0.0
 40
0.0
 40
0.0983860035
 40
0.2120844102
 40
0.3388914384
 40
0.4746510773
 40
0.614121508
 40
0.7516529012
 40
0.8818059408
 40
1.0
 40
1.0
 40
1.0
 40
1.0
 10
-9.4377591759
 20
-17.6610857028
 30
0.0
 10
-9.3819224287
 20
-17.6561333185
 30
0.0
 10
-9.2631974658
 20
-17.6261966176
 30
0.0
 10
-9.0894783309
 20
-17.5397813815
 30
0.0
 10
-8.9151890507
 20
-17.4134893527
 30
0.0
 10
-8.7497920139
 20
-17.2540680972
 30
0.0
 10
-8.6021957325
 20
-17.0701873785
 30
0.0
 10
-8.4805194574
 20
-16.8718959735
 30
0.0
 10
-8.3914255913
 20
-16.6701721001
 30
0.0
 10
-8.3548234893
 20
-16.5325620349
 30
0.0
 10
-8.3444072367
 20
-16.4660308088
 30
0.0
 11
-9.4377591759
 21
-17.6610857028
 31
0.0
 11
-9.2739231939
 21
-17.6231622664
 31
0.0
 11
-9.0988532896
 21
-17.53878887
 31
0.0
 11
-8.9225089901
 21
-17.4127654265
 31
0.0
 11
-8.7549223214
 21
-17.2522612728
 31
0.0
 11
-8.6056270989
 21
-17.066407316
 31
0.0
 11
-8.4831165592
 21
-16.865776587
 31
0.0
 11
-8.3943601889
 21
-16.6617827536
 31
0.0
 11
-8.3444072367
 21
-16.4660308088
 31
0.0
  0
LINE
  5
5A7
100
AcDbEntity
  8
RACCORDO
100
AcDbLine
 62
253
  6
CONTINUOUS
 10
-19.4955195833
 20
9.7704408761
 11
-19.4918934522
 21
9.7770337671
  0
SPLINE
  5
5A8
100
AcDbEntity
  8
RACCORDO
100
AcDbSpline
 62
253
  6
CONTINUOUS
 70
0
 71
3
 72
26
 73
22
 74
20
 42
0.0000001
 43
0.0000001
 44
0.0000000001
 12
20.8396542692
 22
37.8718234315
 32
0.0
 13
20.8277698884
 23
-37.8783605976
 33
0.0
 40
0.0
 40
0.0
 40
0.0
 40
0.0
 40
0.0624931808
 40
0.1249829167
 40
0.1874737605
 40
0.2499648307
 40
0.3124577027
 40
0.3749545934
 40
0.4374560029
 40
0.4687217002
 40
0.4999851889
 40
0.5312486948
 40
0.562514397
 40
0.5937803439
 40
0.6250456874
 40
0.6875425323
 40
0.7500353839
 40
0.8125261174
 40
0.875017071
 40
0.9375066323
 40
1.0
 40
1.0
 40
1.0
 40
1.0
 10
-19.4918934522
 20
9.7770337671
 30
0.0
 10
-19.0577813583
 20
10.5659440032
 30
0.0
 10
-18.0777914196
 20
12.0850178466
 30
0.0
 10
-16.3094150309
 20
14.1377175886
 30
0.0
 10
-14.2785387679
 20
15.931451898
 30
0.0
 10
-12.0268902968
 20
17.4380959602
 30
0.0
 10
-9.5970240797
 20
18.6360251869
 30
0.0
 10
-7.0337614269
 20
19.5117353692
 30
0.0
 10
-4.8224313558
 20
19.967708692
 30
0.0
 10
-3.0311799721
 20
20.1687397073
 30
0.0
 10
-1.6794402257
 20
20.2260465032
 30
0.0
 10
-0.3277840188
 20
20.1681379259
 30
0.0
 10
1.0160871
 20
20.0169243126
 30
0.0
 10
2.3482460152
 20
19.7837947945
 30
0.0
 10
4.1011419818
 20
19.3639336951
 30
0.0
 10
6.2376303145
 20
18.6329275679
 30
0.0
 10
8.6669929526
 20
17.4344896171
 30
0.0
 10
10.9182453955
 20
15.9271348093
 30
0.0
 10
12.9484208913
 20
14.1326361386
 30
0.0
 10
14.7160805934
 20
12.0793138675
 30
0.0
 10
15.6955251755
 20
10.5598923424
 30
0.0
 10
16.1293910027
 20
9.7708435704
 30
0.0
 11
-19.4918934522
 21
9.7770337671
 31
0.0
 11
-18.0280287871
 21
12.0474069254
 31
0.0
 11
-16.2656731423
 21
14.0945493485
 31
0.0
 11
-14.241752024
 21
15.8835970182
 31
0.0
 11
-11.9972227191
 21
17.386623742
 31
0.0
 11
-9.5748679598
 21
18.5822906487
 31
0.0
 11
-7.0188286517
 21
19.456946895
 31
0.0
 11
-4.3731056635
 21
20.0042729399
 31
0.0
 11
-3.0298118318
 21
20.1531589415
 31
0.0
 11
-1.6794544079
 21
20.206844392
 31
0.0
 11
-0.3291189794
 21
20.1525900106
 31
0.0
 11
1.0141271762
 21
20.003272587
 31
0.0
 11
2.3454005419
 21
19.7701508308
 31
0.0
 11
3.6596590447
 21
19.4550498924
 31
0.0
 11
6.2153374827
 21
18.5793458805
 31
0.0
 11
8.6373469502
 21
17.3829816828
 31
0.0
 11
10.8814030587
 21
15.8792746997
 31
0.0
 11
12.9046783324
 21
14.0894895025
 31
0.0
 11
14.6662981265
 21
12.041723779
 31
0.0
 11
16.1293910027
 21
9.7708435704
 31
0.0
  0
SPLINE
  5
5A9
100
AcDbEntity
  8
RACCORDO
100
AcDbSpline
 62
253
  6
CONTINUOUS
 70
0
 71
3
 72
15
 73
11
 74
9
 42
0.0000001
 43
0.0000001
 44
0.0000000001
 12
-1.7025335605
 22
0.1511228847
 32
0.0
 13
-0.2645995474
 23
1.6886224357
 33
0.0
 40
0.0
 40
0.0
 40
0.0
 40
0.0
 40
0.0983841802
 40
0.2120838779
 40
0.3388935098
 40
0.4746554046
 40
0.61412665
 40
0.7516571634
 40
0.8818081839
 40
1.0
 40
1.0
 40
1.0
 40
1.0
 10
6.0722926929
 20
-17.6606164987
 30
0.0
 10
6.0164585701
 20
-17.655660465
 30
0.0
 10
5.8977386549
 20
-17.6257175612
 30
0.0
 10
5.7240250067
 20
-17.5392991785
 30
0.0
 10
5.5497369347
 20
-17.413008147
 30
0.0
 10
5.384337511
 20
-17.2535924263
 30
0.0
 10
5.2367353794
 20
-17.0697218201
 30
0.0
 10
5.115049256
 20
-16.8714442127
 30
0.0
 10
5.0259407438
 20
-16.6697356464
 30
0.0
 10
4.9893244923
 20
-16.5321354643
 30
0.0
 10
4.9788999919
 20
-16.4656083468
 30
0.0
 11
6.0722926929
 21
-17.6606164987
 31
0.0
 11
5.9084655688
 21
-17.6226852809
 31
0.0
 11
5.7333999433
 21
-17.5383079275
 31
0.0
 11
5.5570560197
 21
-17.4122846346
 31
0.0
 11
5.3894664924
 21
-17.2517853886
 31
0.0
 11
5.2401652212
 21
-17.0659413382
 31
0.0
 11
5.1176447359
 21
-16.8653246003
 31
0.0
 11
5.02887346
 21
-16.6613464387
 31
0.0
 11
4.9788999919
 21
-16.4656083468
 31
0.0
  0
SPLINE
  5
5AA
100
AcDbEntity
  8
RACCORDO
100
AcDbSpline
 62
253
  6
CONTINUOUS
 70
0
 71
3
 72
14
 73
10
 74
8
 42
0.0000001
 43
0.0000001
 44
0.0000000001
 12
-1.7534167672
 22
-0.6009988862
 32
0.0
 13
-0.065090691
 23
1.8524128111
 33
0.0
 40
0.0
 40
0.0
 40
0.0
 40
0.0
 40
0.2673917055
 40
0.4065173809
 40
0.542710888
 40
0.6718092645
 40
0.7909769117
 40
0.8995810502
 40
1.0
 40
1.0
 40
1.0
 40
1.0
 10
8.8698918067
 20
-13.1513711779
 30
0.0
 10
8.7136087734
 20
-13.2049385503
 30
0.0
 10
8.4556858963
 20
-13.2333536577
 30
0.0
 10
8.1233370213
 20
-13.1826828585
 30
0.0
 10
7.8855538882
 20
-13.1007608775
 30
0.0
 10
7.6788201177
 20
-12.9804440102
 30
0.0
 10
7.5159838762
 20
-12.8285013941
 30
0.0
 10
7.4081131668
 20
-12.6534802955
 30
0.0
 10
7.3787695033
 20
-12.5244890861
 30
0.0
 10
7.3765907237
 20
-12.462483303
 30
0.0
 11
8.8698918067
 21
-13.1513711779
 31
0.0
 11
8.3781889552
 21
-13.2136042461
 31
0.0
 11
8.1232583704
 21
-13.1747318103
 31
0.0
 11
7.884894793
 21
-13.0916058867
 31
0.0
 11
7.6789469923
 21
-12.969762862
 31
0.0
 11
7.5191197839
 21
-12.8172998616
 31
0.0
 11
7.4160482184
 21
-12.6443851557
 31
0.0
 11
7.3765907237
 21
-12.462483303
 31
0.0
  0
SPLINE
  5
5AB
100
AcDbEntity
  8
RACCORDO
100
AcDbSpline
 62
253
  6
CONTINUOUS
 70
0
 71
3
 72
15
 73
11
 74
9
 42
0.0000001
 43
0.0000001
 44
0.0000000001
 12
-8.8048858554
 22
-16.0130632563
 32
0.0
 13
-18.0053691535
 23
-3.1226417377
 33
0.0
 40
0.0
 40
0.0
 40
0.0
 40
0.0
 40
0.1249963024
 40
0.2499886752
 40
0.3749812356
 40
0.4999772643
 40
0.6249763093
 40
0.7499781519
 40
0.8749857198
 40
1.0
 40
1.0
 40
1.0
 40
1.0
 10
16.1293910127
 20
-9.7617332047
 30
0.0
 10
15.7625316211
 20
-10.4289244371
 30
0.0
 10
14.9491856689
 20
-11.721213695
 30
0.0
 10
13.5118284023
 20
-13.5027278761
 30
0.0
 10
11.8785273777
 20
-15.1067785212
 30
0.0
 10
10.0732891071
 20
-16.5142393281
 30
0.0
 10
8.1216123157
 20
-17.7102637041
 30
0.0
 10
6.0496004933
 20
-18.6829253149
 30
0.0
 10
3.8847843845
 20
-19.4254981685
 30
0.0
 10
2.396462314
 20
-19.7638869072
 30
0.0
 10
1.6461528928
 20
-19.8940118435
 30
0.0
 11
16.1293910127
 21
-9.7617332047
 31
0.0
 11
14.9129475532
 21
-11.6950813095
 31
0.0
 11
13.479172013
 21
-13.4731502707
 31
0.0
 11
11.8498922784
 21
-15.0739952794
 31
0.0
 11
10.0489055243
 21
-16.4789840504
 31
0.0
 11
8.1015818763
 21
-17.6730230605
 31
0.0
 11
6.034179878
 21
-18.6445584888
 31
0.0
 11
3.8735546399
 21
-19.3863190263
 31
0.0
 11
1.6461528928
 21
-19.8940118435
 31
0.0
  0
SPLINE
  5
5AC
100
AcDbEntity
  8
RACCORDO
100
AcDbSpline
 62
253
  6
CONTINUOUS
 70
0
 71
3
 72
13
 73
9
 74
7
 42
0.0000001
 43
0.0000001
 44
0.0000000001
 12
-0.7008904678
 22
-0.8671750705
 32
0.0
 13
-0.9502478801
 23
0.5833258242
 33
0.0
 40
0.0
 40
0.0
 40
0.0
 40
0.0
 40
0.3083963772
 40
0.5835821419
 40
0.7039401783
 40
0.811990511
 40
0.9094523733
 40
1.0
 40
1.0
 40
1.0
 40
1.0
 10
6.5037432977
 20
-8.4964424581
 30
0.0
 10
6.431692604
 20
-8.5855870081
 30
0.0
 10
6.2788814691
 20
-8.7416828868
 30
0.0
 10
6.0566034448
 20
-8.886029675
 30
0.0
 10
5.8792218715
 20
-8.9484689688
 30
0.0
 10
5.7584769186
 20
-8.9663141626
 30
0.0
 10
5.647685454
 20
-8.9560253516
 30
0.0
 10
5.5817323305
 20
-8.9291881765
 30
0.0
 10
5.5530514337
 20
-8.9115819202
 30
0.0
 11
6.5037432977
 21
-8.4964424581
 31
0.0
 11
6.2613989778
 21
-8.7403926784
 31
0.0
 11
6.000732693
 21
-8.9022573821
 31
0.0
 11
5.8737261234
 21
-8.9456045551
 31
0.0
 11
5.7543439931
 21
-8.9618088261
 31
0.0
 11
5.6462814153
 21
-8.9503290163
 31
0.0
 11
5.5530514337
 21
-8.9115819202
 31
0.0
  0
SPLINE
  5
5AD
100
AcDbEntity
  8
RACCORDO
100
AcDbSpline
 62
253
  6
CONTINUOUS
 70
0
 71
3
 72
13
 73
9
 74
7
 42
0.0000001
 43
0.0000001
 44
0.0000000001
 12
-0.6992022736
 22
-0.8668711719
 32
0.0
 13
-0.9502722783
 23
0.5808029314
 33
0.0
 40
0.0
 40
0.0
 40
0.0
 40
0.0
 40
0.3084824039
 40
0.5836968041
 40
0.704048306
 40
0.8120779847
 40
0.9095037377
 40
1.0
 40
1.0
 40
1.0
 40
1.0
 10
6.4949111525
 20
-8.4901768675
 30
0.0
 10
6.4230139531
 20
-8.5793150351
 30
0.0
 10
6.2705381606
 20
-8.7354358526
 30
0.0
 10
6.0487059558
 20
-8.8799631296
 30
0.0
 10
5.8716394819
 20
-8.9426348075
 30
0.0
 10
5.7510932439
 20
-8.960681479
 30
0.0
 10
5.6404516252
 20
-8.9506288535
 30
0.0
 10
5.5745518091
 20
-8.9239675334
 30
0.0
 10
5.5458864459
 20
-8.9064473685
 30
0.0
 11
6.4949111525
 21
-8.4901768675
 31
0.0
 11
6.2530673814
 21
-8.7341952527
 31
0.0
 11
5.9929180759
 21
-8.8962757418
 31
0.0
 11
5.8661408397
 21
-8.9397884313
 31
0.0
 11
5.7469507563
 21
-8.9561930781
 31
0.0
 11
5.6390315249
 21
-8.9449431766
 31
0.0
 11
5.5458864459
 21
-8.9064473685
 31
0.0
  0
SPLINE
  5
5AE
100
AcDbEntity
  8
RACCORDO
100
AcDbSpline
 62
253
  6
CONTINUOUS
 70
0
 71
3
 72
9
 73
5
 74
3
 42
0.0000001
 43
0.0000001
 44
0.0000000001
 12
-1.0953135125
 22
-0.7168841143
 32
0.0
 13
-1.2101757539
 23
-0.4991083737
 33
0.0
 40
0.0
 40
0.0
 40
0.0
 40
0.0
 40
0.7498927275
 40
1.0
 40
1.0
 40
1.0
 40
1.0
 10
1.6461528928
 20
-19.8940118435
 30
0.0
 10
1.3723636804
 20
-20.0732072381
 30
0.0
 10
0.9910718254
 20
-20.2892940937
 30
0.0
 10
0.5919903261
 20
-20.4660345259
 30
0.0
 10
0.4910990737
 20
-20.5076447373
 30
0.0
 11
1.6461528928
 21
-19.8940118435
 31
0.0
 11
0.7905038896
 21
-20.3751651287
 31
0.0
 11
0.4910990737
 21
-20.5076447373
 31
0.0
  0
SPLINE
  5
5AF
100
AcDbEntity
  8
RACCORDO
100
AcDbSpline
 62
253
  6
CONTINUOUS
 70
0
 71
3
 72
13
 73
9
 74
7
 42
0.0000001
 43
0.0000001
 44
0.0000000001
 12
0.7000004405
 22
-0.8672151934
 32
0.0
 13
0.9501220109
 23
0.5825212209
 33
0.0
 40
0.0
 40
0.0
 40
0.0
 40
0.0
 40
0.3084808958
 40
0.5836983393
 40
0.7040481062
 40
0.8120740053
 40
0.9094977239
 40
1.0
 40
1.0
 40
1.0
 40
1.0
 10
-9.8642833446
 20
-8.4926691388
 30
0.0
 10
-9.7923044237
 20
-8.5818422453
 30
0.0
 10
-9.6396524771
 20
-8.7380054996
 30
0.0
 10
-9.4175784445
 20
-8.8825048186
 30
0.0
 10
-9.2403419598
 20
-8.9450858818
 30
0.0
 10
-9.1196975202
 20
-8.963035656
 30
0.0
 10
-9.00898851
 20
-8.9528539486
 30
0.0
 10
-8.9430756174
 20
-8.9260860188
 30
0.0
 10
-8.9144128826
 20
-8.9085128533
 30
0.0
 11
-9.8642833446
 21
-8.4926691388
 31
0.0
 11
-9.6221660564
 21
-8.7367480005
 31
0.0
 11
-9.3617365332
 21
-8.8987852346
 31
0.0
 11
-9.2348402827
 21
-8.9422301625
 31
0.0
 11
-9.1155570887
 21
-8.9585362781
 31
0.0
 11
-9.0075781191
 21
-8.9471593967
 31
0.0
 11
-8.9144128826
 21
-8.9085128533
 31
0.0
  0
SPLINE
  5
5B0
100
AcDbEntity
  8
RACCORDO
100
AcDbSpline
 62
253
  6
CONTINUOUS
 70
0
 71
3
 72
13
 73
9
 74
7
 42
0.0000001
 43
0.0000001
 44
0.0000000001
 12
0.7016861389
 22
-0.8674925018
 32
0.0
 13
0.9500773276
 23
0.5850297
 33
0.0
 40
0.0
 40
0.0
 40
0.0
 40
0.0
 40
0.3083936891
 40
0.5835811953
 40
0.7039373328
 40
0.8119842549
 40
0.9094450165
 40
1.0
 40
1.0
 40
1.0
 40
1.0
 10
-9.8730691302
 20
-8.4989384271
 30
0.0
 10
-9.8009372712
 20
-8.5881148314
 30
0.0
 10
-9.6479516489
 20
-8.7442473307
 30
0.0
 10
-9.425434902
 20
-8.8885592075
 30
0.0
 10
-9.247886348
 20
-8.9509034376
 30
0.0
 10
-9.1270450419
 20
-8.9686493997
 30
0.0
 10
-9.0161877726
 20
-8.9582301177
 30
0.0
 10
-8.9502224459
 20
-8.9312862665
 30
0.0
 10
-8.921544367
 20
-8.9136271483
 30
0.0
 11
-9.8730691302
 21
-8.4989384271
 31
0.0
 11
-9.6304538349
 21
-8.7429399517
 31
0.0
 11
-9.3695114158
 21
-8.9047532715
 31
0.0
 11
-9.2423879373
 21
-8.9480296067
 31
0.0
 11
-9.1229145626
 21
-8.9641331564
 31
0.0
 11
-9.0147936806
 21
-8.9525251627
 31
0.0
 11
-8.921544367
 21
-8.9136271483
 31
0.0
  0
SPLINE
  5
5B1
100
AcDbEntity
  8
RACCORDO
100
AcDbSpline
 62
253
  6
CONTINUOUS
 70
0
 71
3
 72
11
 73
7
 74
5
 42
0.0000001
 43
0.0000001
 44
0.0000000001
 12
-0.6993309109
 22
-5.3942639651
 32
0.0
 13
-4.3123056457
 23
-3.3152929683
 33
0.0
 40
0.0
 40
0.0
 40
0.0
 40
0.0
 40
0.2349911636
 40
0.4769890479
 40
0.7309079008
 40
1.0
 40
1.0
 40
1.0
 40
1.0
 10
8.8698951275
 20
-13.1513754591
 30
0.0
 10
8.815116266
 20
-13.5739102478
 30
0.0
 10
8.6076507429
 20
-14.4219423537
 30
0.0
 10
8.0195065189
 20
-15.6198555119
 30
0.0
 10
7.1676954844
 20
-16.7249973925
 30
0.0
 10
6.4591201947
 20
-17.3632263361
 30
0.0
 10
6.0723177351
 20
-17.6605993843
 30
0.0
 11
8.8698951275
 21
-13.1513754591
 31
0.0
 11
8.5678950224
 21
-14.3933993229
 31
0.0
 11
7.9926339972
 21
-15.577369829
 31
0.0
 11
7.1548395832
 21
-16.6754251351
 31
0.0
 11
6.0723177351
 21
-17.6605993843
 31
0.0
  0
SPLINE
  5
5B2
100
AcDbEntity
  8
RACCORDO
100
AcDbSpline
 62
253
  6
CONTINUOUS
 70
0
 71
3
 72
14
 73
10
 74
8
 42
0.0000001
 43
0.0000001
 44
0.0000000001
 12
1.75332055
 22
-0.6013558924
 32
0.0
 13
0.0648540511
 23
1.8524459
 33
0.0
 40
0.0
 40
0.0
 40
0.0
 40
0.0
 40
0.2674126555
 40
0.406539707
 40
0.5427291477
 40
0.6718198345
 40
0.7909791389
 40
0.899578323
 40
1.0
 40
1.0
 40
1.0
 40
1.0
 10
-12.2358026655
 20
-13.1496983958
 30
0.0
 10
-12.0795159641
 20
-13.2033017878
 30
0.0
 10
-11.8215815821
 20
-13.2317764514
 30
0.0
 10
-11.4892068635
 20
-13.1811650979
 30
0.0
 10
-11.2514136798
 20
-13.0992798906
 30
0.0
 10
-11.0446751561
 20
-12.9789876742
 30
0.0
 10
-10.8818409194
 20
-12.8270556729
 30
0.0
 10
-10.7739813488
 20
-12.6520301681
 30
0.0
 10
-10.7446544545
 20
-12.5230340219
 30
0.0
 10
-10.742483537
 20
-12.4610254474
 30
0.0
 11
-12.2358026655
 21
-13.1496983958
 31
0.0
 11
-11.7440675538
 21
-13.212038512
 31
0.0
 11
-11.4891239421
 21
-13.1732117517
 31
0.0
 11
-11.2507520794
 21
-13.0901222384
 31
0.0
 11
-11.0448022722
 21
-12.9683043189
 31
0.0
 11
-10.8849802783
 21
-12.8158539788
 31
0.0
 11
-10.7819213845
 21
-12.6429392787
 31
0.0
 11
-10.742483537
 21
-12.4610254474
 31
0.0
  0
SPLINE
  5
5B3
100
AcDbEntity
  8
RACCORDO
100
AcDbSpline
 62
253
  6
CONTINUOUS
 70
0
 71
3
 72
18
 73
14
 74
12
 42
0.0000001
 43
0.0000001
 44
0.0000000001
 12
-0.0006886929
 22
-0.9579909577
 32
0.0
 13
-0.302094501
 23
-0.9091127882
 33
0.0
 40
0.0
 40
0.0
 40
0.0
 40
0.0
 40
0.1908030279
 40
0.3736604626
 40
0.5423556464
 40
0.69115203
 40
0.8149956331
 40
0.8662061792
 40
0.9096845388
 40
0.9450533919
 40
0.9720263476
 40
0.9903725907
 40
1.0
 40
1.0
 40
1.0
 40
1.0
 10
-23.8829000897
 20
-20.4871422051
 30
0.0
 10
-23.8829438912
 20
-20.5480713969
 30
0.0
 10
-23.8832182532
 20
-20.6673924949
 30
0.0
 10
-23.8841958828
 20
-20.8405806401
 30
0.0
 10
-23.8856949778
 20
-21.0003509595
 30
0.0
 10
-23.8876641697
 20
-21.1412687795
 30
0.0
 10
-23.8897197094
 20
-21.2446664057
 30
0.0
 10
-23.8916369292
 20
-21.3144220686
 30
0.0
 10
-23.8930290737
 20
-21.3559358607
 30
0.0
 10
-23.8945160989
 20
-21.3896810076
 30
0.0
 10
-23.8958941419
 20
-21.4154463189
 30
0.0
 10
-23.8975184894
 20
-21.4328532055
 30
0.0
 10
-23.89845747
 20
-21.4418298537
 30
0.0
 10
-23.8994269324
 20
-21.4447473206
 30
0.0
 11
-23.8829000897
 21
-20.4871422051
 31
0.0
 11
-23.8833281726
 21
-20.6699293265
 31
0.0
 11
-23.8843349307
 21
-20.8451022477
 31
0.0
 11
-23.885885982
 21
-21.0067033067
 31
0.0
 11
-23.8879286058
 21
-21.1492342979
 31
0.0
 11
-23.8903932745
 21
-21.267849777
 31
0.0
 11
-23.8917582432
 21
-21.3168900374
 31
0.0
 11
-23.8931961547
 21
-21.3585170963
 31
0.0
 11
-23.8946948066
 21
-21.3923669875
 31
0.0
 11
-23.896241883
 21
-21.4181604872
 31
0.0
 11
-23.8978244188
 21
-21.4356646344
 31
0.0
 11
-23.8994269324
 21
-21.4447473206
 31
0.0
  0
SPLINE
  5
5B4
100
AcDbEntity
  8
RACCORDO
100
AcDbSpline
 62
253
  6
CONTINUOUS
 70
0
 71
3
 72
12
 73
8
 74
6
 42
0.0000001
 43
0.0000001
 44
0.0000000001
 12
-4.6006911521
 22
1.8594537182
 32
0.0
 13
-4.2892234486
 23
2.4952934526
 33
0.0
 40
0.0
 40
0.0
 40
0.0
 40
0.0
 40
0.2528533654
 40
0.5047241054
 40
0.7545568236
 40
0.8780973688
 40
1.0
 40
1.0
 40
1.0
 40
1.0
 10
-5.011682039
 20
-19.8940687259
 30
0.0
 10
-5.399448786
 20
-19.7373456824
 30
0.0
 10
-6.1672492742
 20
-19.408710827
 30
0.0
 10
-7.2909690448
 20
-18.8645754778
 30
0.0
 10
-8.2015502788
 20
-18.3736664959
 30
0.0
 10
-8.9129082897
 20
-17.9673135924
 30
0.0
 10
-9.263443163
 20
-17.7624958658
 30
0.0
 10
-9.437732371
 20
-17.6611015866
 30
0.0
 11
-5.011682039
 21
-19.8940687259
 31
0.0
 11
-6.1646926485
 21
-19.3992020811
 31
0.0
 11
-7.2898461621
 21
-18.8550112328
 31
0.0
 11
-8.3821214024
 21
-18.2686057659
 31
0.0
 11
-8.914756182
 21
-17.9650977324
 31
0.0
 11
-9.437732371
 21
-17.6611015866
 31
0.0
  0
SPLINE
  5
5B5
100
AcDbEntity
  8
RACCORDO
100
AcDbSpline
 62
253
  6
CONTINUOUS
 70
0
 71
3
 72
13
 73
9
 74
7
 42
0.0000001
 43
0.0000001
 44
0.0000000001
 12
-6.0945166745
 22
-11.1093383232
 32
0.0
 13
-11.6443631096
 23
-4.996932984
 33
0.0
 40
0.0
 40
0.0
 40
0.0
 40
0.0
 40
0.125054626
 40
0.2501033296
 40
0.375151055
 40
0.5001988648
 40
0.7500906265
 40
1.0
 40
1.0
 40
1.0
 40
1.0
 10
15.3237731586
 20
-9.3316418673
 30
0.0
 10
15.0697239907
 20
-9.7947332505
 30
0.0
 10
14.5216742735
 20
-10.6996139031
 30
0.0
 10
13.5870631495
 20
-11.981395156
 30
0.0
 10
12.5476760184
 20
-13.1799754
 30
0.0
 10
11.0337005635
 20
-14.6552834406
 30
0.0
 10
8.9194993086
 20
-16.2558473433
 30
0.0
 10
7.0423295652
 20
-17.2443392537
 30
0.0
 10
6.0723177351
 20
-17.6605993843
 30
0.0
 11
15.3237731586
 21
-9.3316418673
 31
0.0
 11
14.5029026802
 21
-10.6870470236
 31
0.0
 11
13.5695950591
 21
-11.9675354214
 31
0.0
 11
12.5315829587
 21
-13.1647009291
 31
0.0
 11
11.3969048057
 21
-14.270677083
 31
0.0
 11
8.873043996
 21
-16.1828675305
 31
0.0
 11
6.0723177351
 21
-17.6605993843
 31
0.0
  0
SPLINE
  5
5B6
100
AcDbEntity
  8
RACCORDO
100
AcDbSpline
 62
253
  6
CONTINUOUS
 70
0
 71
3
 72
14
 73
10
 74
8
 42
0.0000001
 43
0.0000001
 44
0.0000000001
 12
4.4708306989
 22
-3.1856726815
 32
0.0
 13
-0.705672106
 23
-5.4441587459
 33
0.0
 40
0.0
 40
0.0
 40
0.0
 40
0.0
 40
0.2699884278
 40
0.3980442987
 40
0.5220682607
 40
0.6429621209
 40
0.7619339574
 40
0.8804291266
 40
1.0
 40
1.0
 40
1.0
 40
1.0
 10
6.5037437277
 20
-8.4964429132
 30
0.0
 10
6.9061012449
 20
-8.7831411661
 30
0.0
 10
7.4629497919
 20
-9.2644806326
 30
0.0
 10
8.062758208
 20
-10.0106294556
 30
0.0
 10
8.4192869628
 20
-10.5951285775
 30
0.0
 10
8.6841901509
 20
-11.2085544229
 30
0.0
 10
8.85267864
 20
-11.8449587601
 30
0.0
 10
8.9209718372
 20
-12.4972716308
 30
0.0
 10
8.8980210708
 20
-12.9343878538
 30
0.0
 10
8.8698951275
 20
-13.1513754591
 30
0.0
 11
6.5037437277
 21
-8.4964429132
 31
0.0
 11
7.6157157566
 21
-9.476394619
 31
0.0
 11
8.054835494
 21
-10.0253636006
 31
0.0
 11
8.4079639034
 21
-10.6074833893
 31
0.0
 11
8.6698804996
 21
-11.2172861323
 31
0.0
 11
8.8362795939
 21
-11.848853324
 31
0.0
 11
8.9037986188
 21
-12.4958430349
 31
0.0
 11
8.8698951275
 21
-13.1513754591
 31
0.0
  0
SPLINE
  5
5B7
100
AcDbEntity
  8
RACCORDO
100
AcDbSpline
 62
253
  6
CONTINUOUS
 70
0
 71
3
 72
13
 73
9
 74
7
 42
0.0000001
 43
0.0000001
 44
0.0000000001
 12
-11.6388180629
 22
4.9938256317
 32
0.0
 13
-6.094992505
 23
11.1018668117
 33
0.0
 40
0.0
 40
0.0
 40
0.0
 40
0.0
 40
0.125058944
 40
0.2501162034
 40
0.5000108915
 40
0.7498893731
 40
0.874940417
 40
1.0
 40
1.0
 40
1.0
 40
1.0
 10
-9.4377477827
 20
-17.6610949295
 30
0.0
 10
-9.9229272148
 20
-17.4529207428
 30
0.0
 10
-10.8772653145
 20
-16.9978083755
 30
0.0
 10
-12.704666071
 20
-15.9376434045
 30
0.0
 10
-14.8188131697
 20
-14.3390589487
 30
0.0
 10
-16.6388526028
 20
-12.411455115
 30
0.0
 10
-17.8842465819
 20
-10.7047419778
 30
0.0
 10
-18.4322944915
 20
-9.8003671
 30
0.0
 10
-18.6863735652
 20
-9.3375688219
 30
0.0
 11
-9.4377477827
 21
-17.6610949295
 31
0.0
 11
-10.8672133736
 21
-16.9790038179
 31
0.0
 11
-12.2371094935
 21
-16.1840590432
 31
0.0
 11
-14.7600570078
 21
-14.2732175104
 31
0.0
 11
-16.9321753753
 21
-11.9716567065
 31
0.0
 11
-17.8654920419
 21
-10.6921164664
 31
0.0
 11
-18.6863735652
 21
-9.3375688219
 31
0.0
  0
SPLINE
  5
5B8
100
AcDbEntity
  8
RACCORDO
100
AcDbSpline
 62
253
  6
CONTINUOUS
 70
0
 71
3
 72
11
 73
7
 74
5
 42
0.0000001
 43
0.0000001
 44
0.0000000001
 12
-4.3144098275
 22
3.3163128781
 32
0.0
 13
-0.6976581041
 23
5.3967894562
 33
0.0
 40
0.0
 40
0.0
 40
0.0
 40
0.0
 40
0.269115558
 40
0.5230498378
 40
0.7650284078
 40
1.0
 40
1.0
 40
1.0
 40
1.0
 10
-9.4377477827
 20
-17.6610949295
 30
0.0
 10
-9.8247727188
 20
-17.3636044659
 30
0.0
 10
-10.5337203538
 20
-16.725067012
 30
0.0
 10
-11.3857573908
 20
-15.6192994805
 30
0.0
 10
-11.9738791722
 20
-14.4207923227
 30
0.0
 10
-12.1811643829
 20
-13.5724022398
 30
0.0
 10
-12.2358076614
 20
-13.149704836
 30
0.0
 11
-9.4377477827
 21
-17.6610949295
 31
0.0
 11
-10.5208336089
 21
-16.6754352584
 31
0.0
 11
-11.3588862076
 21
-15.5767400239
 31
0.0
 11
-11.9340857097
 21
-14.3922404336
 31
0.0
 11
-12.2358076614
 21
-13.149704836
 31
0.0
  0
SPLINE
  5
5B9
100
AcDbEntity
  8
RACCORDO
100
AcDbSpline
 62
253
  6
CONTINUOUS
 70
0
 71
3
 72
12
 73
8
 74
6
 42
0.0000001
 43
0.0000001
 44
0.0000000001
 12
-4.2893128992
 22
-2.4958282531
 32
0.0
 13
-4.600877418
 23
-1.8599168801
 33
0.0
 40
0.0
 40
0.0
 40
0.0
 40
0.0
 40
0.1219072217
 40
0.245448344
 40
0.4952819716
 40
0.7471525297
 40
1.0
 40
1.0
 40
1.0
 40
1.0
 10
6.072350769
 20
-17.6605853311
 30
0.0
 10
5.8980513629
 20
-17.7620051605
 30
0.0
 10
5.5474975962
 20
-17.9668635986
 30
0.0
 10
4.8361211869
 20
-18.3733197059
 30
0.0
 10
3.9255297772
 20
-18.8643655584
 30
0.0
 10
2.8017862841
 20
-19.4086379739
 30
0.0
 10
2.0339254941
 20
-19.7372538981
 30
0.0
 10
1.6461520887
 20
-19.8940123241
 30
0.0
 11
6.072350769
 21
-17.6605853311
 31
0.0
 11
5.5493414646
 21
-17.9646538273
 31
0.0
 11
5.0166955062
 21
-18.2682344259
 31
0.0
 11
3.9244017748
 21
-18.8547978647
 31
0.0
 11
2.7992090623
 21
-19.3991058904
 31
0.0
 11
1.6461520887
 21
-19.8940123241
 31
0.0
  0
SPLINE
  5
5BA
100
AcDbEntity
  8
RACCORDO
100
AcDbSpline
 62
253
  6
CONTINUOUS
 70
0
 71
3
 72
18
 73
14
 74
12
 42
0.0000001
 43
0.0000001
 44
0.0000000001
 12
-0.5012692217
 22
-0.0003586486
 32
0.0
 13
-0.1960638422
 23
-0.4613349445
 33
0.0
 40
0.0
 40
0.0
 40
0.0
 40
0.0
 40
0.1924046668
 40
0.3777367298
 40
0.5487760428
 40
0.6992861766
 40
0.8235712928
 40
0.8743997531
 40
0.9170239738
 40
0.9510899595
 40
0.9762838217
 40
0.9924809373
 40
1.0
 40
1.0
 40
1.0
 40
1.0
 10
-23.3829762421
 20
20.5167647722
 30
0.0
 10
-23.4151250879
 20
20.5167417703
 30
0.0
 10
-23.4782412758
 20
20.51644855
 30
0.0
 10
-23.5699291742
 20
20.515278439
 30
0.0
 10
-23.6546068879
 20
20.5134284931
 30
0.0
 10
-23.7290573236
 20
20.5109759061
 30
0.0
 10
-23.7834207046
 20
20.508396258
 30
0.0
 10
-23.8197043585
 20
20.5059897787
 30
0.0
 10
-23.8409835892
 20
20.5042378008
 30
0.0
 10
-23.8577966471
 20
20.5024124491
 30
0.0
 10
-23.8705564578
 20
20.5006386145
 30
0.0
 10
-23.8780065911
 20
20.4987956682
 30
0.0
 10
-23.8824086842
 20
20.4974088315
 30
0.0
 10
-23.8829000897
 20
20.4962525627
 30
0.0
 11
-23.3829762421
 21
20.5167647722
 31
0.0
 11
-23.4794217329
 21
20.5163101706
 31
0.0
 11
-23.5723151555
 21
20.5151017089
 31
0.0
 11
-23.6580304962
 21
20.5131851241
 31
0.0
 11
-23.7334334033
 21
20.5106320543
 31
0.0
 11
-23.7956568554
 21
20.5075382226
 31
0.0
 11
-23.8210779282
 21
20.5058248263
 31
0.0
 11
-23.8423678865
 21
20.5040212649
 31
0.0
 11
-23.8593406182
 21
20.5021439891
 31
0.0
 11
-23.871820532
 21
20.5002097857
 31
0.0
 11
-23.8796967381
 21
20.4982386318
 31
0.0
 11
-23.8829000897
 21
20.4962525627
 31
0.0
  0
SPLINE
  5
5BB
100
AcDbEntity
  8
RACCORDO
100
AcDbSpline
 62
253
  6
CONTINUOUS
 70
0
 71
3
 72
18
 73
14
 74
12
 42
0.0000001
 43
0.0000001
 44
0.0000000001
 12
-0.501269097
 22
0.0003586335
 32
0.0
 13
-0.1961686994
 23
0.4612902315
 33
0.0
 40
0.0
 40
0.0
 40
0.0
 40
0.0
 40
0.1924030719
 40
0.3777337789
 40
0.5487721726
 40
0.6992819486
 40
0.8235673266
 40
0.8743961475
 40
0.917020874
 40
0.9510875009
 40
0.9762821268
 40
0.9924801032
 40
1.0
 40
1.0
 40
1.0
 40
1.0
 10
-23.3829762421
 20
-20.5076541157
 30
0.0
 10
-23.4151248135
 20
-20.507631115
 30
0.0
 10
-23.4782404926
 20
-20.5073379019
 30
0.0
 10
-23.5699277219
 20
-20.5061678158
 30
0.0
 10
-23.6546049744
 20
-20.504317906
 30
0.0
 10
-23.7290552255
 20
-20.5018653604
 30
0.0
 10
-23.7834186335
 20
-20.4992857549
 30
0.0
 10
-23.8197024781
 20
-20.4968793095
 30
0.0
 10
-23.8409819396
 20
-20.49512736
 30
0.0
 10
-23.857795364
 20
-20.4933020077
 30
0.0
 10
-23.8705554459
 20
-20.4915282313
 30
0.0
 10
-23.8780061938
 20
-20.4896851945
 30
0.0
 10
-23.8824083668
 20
-20.48829849
 30
0.0
 10
-23.8829000896
 20
-20.4871422051
 30
0.0
 11
-23.3829762421
 21
-20.5076541157
 31
0.0
 11
-23.4794209096
 21
-20.5071995256
 31
0.0
 11
-23.5723136296
 21
-20.5059910903
 31
0.0
 11
-23.6580284888
 21
-20.5040745437
 31
0.0
 11
-23.7334311992
 21
-20.5015215196
 31
0.0
 11
-23.7956547697
 21
-20.4984277369
 31
0.0
 11
-23.8210760189
 21
-20.4967143648
 31
0.0
 11
-23.8423662283
 21
-20.4949108271
 31
0.0
 11
-23.8593392816
 21
-20.4930335738
 31
0.0
 11
-23.8718195829
 21
-20.4910993915
 31
0.0
 11
-23.8796962366
 21
-20.4891282569
 31
0.0
 11
-23.8829000896
 21
-20.4871422051
 31
0.0
  0
SPLINE
  5
5BC
100
AcDbEntity
  8
RACCORDO
100
AcDbSpline
 62
253
  6
CONTINUOUS
 70
0
 71
3
 72
18
 73
14
 74
12
 42
0.0000001
 43
0.0000001
 44
0.0000000001
 12
-0.3020945023
 22
0.9091127878
 32
0.0
 13
-0.0006886928
 23
0.9579909577
 33
0.0
 40
0.0
 40
0.0
 40
0.0
 40
0.0
 40
0.0096274093
 40
0.0279736525
 40
0.0549466081
 40
0.0903154612
 40
0.1337938208
 40
0.1850043669
 40
0.30884797
 40
0.4576443536
 40
0.6263395374
 40
0.809196972
 40
1.0
 40
1.0
 40
1.0
 40
1.0
 10
20.5338109053
 20
-21.4447473206
 30
0.0
 10
20.5328414428
 20
-21.4418298537
 30
0.0
 10
20.5319024622
 20
-21.4328532055
 30
0.0
 10
20.5302781148
 20
-21.4154463189
 30
0.0
 10
20.5289000717
 20
-21.3896810076
 30
0.0
 10
20.5274130466
 20
-21.3559358607
 30
0.0
 10
20.526020902
 20
-21.3144220687
 30
0.0
 10
20.5241036823
 20
-21.2446664057
 30
0.0
 10
20.5220481426
 20
-21.1412687795
 30
0.0
 10
20.5200789506
 20
-21.0003509594
 30
0.0
 10
20.5185798557
 20
-20.8405806401
 30
0.0
 10
20.5176022261
 20
-20.6673924949
 30
0.0
 10
20.5173278641
 20
-20.5480713969
 30
0.0
 10
20.5172840625
 20
-20.4871422051
 30
0.0
 11
20.5338109053
 21
-21.4447473206
 31
0.0
 11
20.5322083917
 21
-21.4356646344
 31
0.0
 11
20.5306258558
 21
-21.4181604871
 31
0.0
 11
20.5290787795
 21
-21.3923669875
 31
0.0
 11
20.5275801276
 21
-21.3585170963
 31
0.0
 11
20.526142216
 21
-21.3168900375
 31
0.0
 11
20.5247772473
 21
-21.267849777
 31
0.0
 11
20.5223125787
 21
-21.1492342979
 31
0.0
 11
20.5202699549
 21
-21.0067033067
 31
0.0
 11
20.5187189036
 21
-20.8451022477
 31
0.0
 11
20.5177121455
 21
-20.6699293265
 31
0.0
 11
20.5172840625
 21
-20.4871422051
 31
0.0
  0
SPLINE
  5
5BD
100
AcDbEntity
  8
RACCORDO
100
AcDbSpline
 62
253
  6
CONTINUOUS
 70
0
 71
3
 72
9
 73
5
 74
3
 42
0.0000001
 43
0.0000001
 44
0.0000000001
 12
-0.0293722295
 22
40.9833862144
 32
0.0
 13
0.0293722285
 23
40.9833862144
 33
0.0
 40
0.0
 40
0.0
 40
0.0
 40
0.0
 40
0.2499465965
 40
1.0
 40
1.0
 40
1.0
 40
1.0
 10
20.5172840625
 20
-20.4871422051
 30
0.0
 10
20.5148368996
 20
-17.0725895724
 30
0.0
 10
20.5074980036
 20
-3.4114591878
 30
0.0
 10
20.5099404825
 20
10.2496764572
 30
0.0
 10
20.5172840625
 20
20.4962525627
 30
0.0
 11
20.5172840625
 21
-20.4871422051
 31
0.0
 11
20.5117793102
 21
-10.2434831555
 31
0.0
 11
20.5172840625
 21
20.4962525627
 31
0.0
  0
SPLINE
  5
5BE
100
AcDbEntity
  8
RACCORDO
100
AcDbSpline
 62
253
  6
CONTINUOUS
 70
0
 71
3
 72
18
 73
14
 74
12
 42
0.0000001
 43
0.0000001
 44
0.0000000001
 12
0.0006886009
 22
0.9579909566
 32
0.0
 13
0.3020660174
 23
0.9091222515
 33
0.0
 40
0.0
 40
0.0
 40
0.0
 40
0.0
 40
0.1908029634
 40
0.3736602844
 40
0.5423555689
 40
0.6911520039
 40
0.8149957148
 40
0.8662063959
 40
0.9096848504
 40
0.9450536545
 40
0.9720264176
 40
0.9903724299
 40
1.0
 40
1.0
 40
1.0
 40
1.0
 10
20.5172840625
 20
20.4962525627
 30
0.0
 10
20.5173278582
 20
20.5571817339
 30
0.0
 10
20.5176022279
 20
20.6765027749
 30
0.0
 10
20.5185798639
 20
20.8496908951
 30
0.0
 10
20.5200789512
 20
21.0094612265
 30
0.0
 10
20.5220481417
 20
21.1503791297
 30
0.0
 10
20.5241036848
 20
21.253776849
 30
0.0
 10
20.5260208984
 20
21.3235326208
 30
0.0
 10
20.5274130445
 20
21.3650464685
 30
0.0
 10
20.5289000549
 20
21.3987915749
 30
0.0
 10
20.5302781335
 20
21.4245567191
 30
0.0
 10
20.5319024202
 20
21.4419635546
 30
0.0
 10
20.532841518
 20
21.4509401323
 30
0.0
 10
20.5338109053
 20
21.4538576783
 30
0.0
 11
20.5172840625
 21
20.4962525627
 31
0.0
 11
20.5177121466
 21
20.6790396221
 31
0.0
 11
20.5187189088
 21
20.8542124342
 31
0.0
 11
20.5202699562
 21
21.0158135896
 31
0.0
 11
20.5223125782
 21
21.1583446298
 31
0.0
 11
20.524777246
 21
21.2769602121
 31
0.0
 11
20.5261422137
 21
21.3260006019
 31
0.0
 11
20.5275801245
 21
21.3676277517
 31
0.0
 11
20.529078777
 21
21.4014775958
 31
0.0
 11
20.5306258547
 21
21.4272709106
 31
0.0
 11
20.5322083916
 21
21.4447748357
 31
0.0
 11
20.5338109053
 21
21.4538576783
 31
0.0
  0
SPLINE
  5
5BF
100
AcDbEntity
  8
RACCORDO
100
AcDbSpline
 62
253
  6
CONTINUOUS
 70
0
 71
3
 72
18
 73
14
 74
12
 42
0.0000001
 43
0.0000001
 44
0.0000000001
 12
0.5012692217
 22
0.0003586486
 32
0.0
 13
0.1960638349
 23
0.4613349476
 33
0.0
 40
0.0
 40
0.0
 40
0.0
 40
0.0
 40
0.1924046668
 40
0.37773673
 40
0.5487760431
 40
0.6992861769
 40
0.823571293
 40
0.8743997534
 40
0.917023974
 40
0.9510899597
 40
0.9762838219
 40
0.9924809374
 40
1.0
 40
1.0
 40
1.0
 40
1.0
 10
20.0173602149
 20
-20.5076544145
 30
0.0
 10
20.0495090608
 20
-20.5076314126
 30
0.0
 10
20.1126252488
 20
-20.5073381924
 30
0.0
 10
20.2043131471
 20
-20.5061680813
 30
0.0
 10
20.2889908608
 20
-20.5043181354
 30
0.0
 10
20.3634412966
 20
-20.5018655484
 30
0.0
 10
20.4178046776
 20
-20.4992859003
 30
0.0
 10
20.4540883314
 20
-20.496879421
 30
0.0
 10
20.4753675621
 20
-20.4951274431
 30
0.0
 10
20.4921806201
 20
-20.4933020914
 30
0.0
 10
20.5049404307
 20
-20.4915282568
 30
0.0
 10
20.512390564
 20
-20.4896853105
 30
0.0
 10
20.5167926571
 20
-20.4882984738
 30
0.0
 10
20.5172840625
 20
-20.4871422051
 30
0.0
 11
20.0173602149
 21
-20.5076544145
 31
0.0
 11
20.1138057058
 21
-20.5071998129
 31
0.0
 11
20.2066991285
 21
-20.5059913512
 31
0.0
 11
20.2924144692
 21
-20.5040747664
 31
0.0
 11
20.3678173762
 21
-20.5015216966
 31
0.0
 11
20.4300408284
 21
-20.4984278649
 31
0.0
 11
20.4554619011
 21
-20.4967144686
 31
0.0
 11
20.4767518595
 21
-20.4949109072
 31
0.0
 11
20.4937245912
 21
-20.4930336314
 31
0.0
 11
20.5062045049
 21
-20.491099428
 31
0.0
 11
20.514080711
 21
-20.4891282741
 31
0.0
 11
20.5172840625
 21
-20.4871422051
 31
0.0
  0
SPLINE
  5
5C0
100
AcDbEntity
  8
RACCORDO
100
AcDbSpline
 62
253
  6
CONTINUOUS
 70
0
 71
3
 72
14
 73
10
 74
8
 42
0.0000001
 43
0.0000001
 44
0.0000000001
 12
-0.7029083298
 22
5.4383411737
 32
0.0
 13
4.4636813056
 23
3.1851505528
 33
0.0
 40
0.0
 40
0.0
 40
0.0
 40
0.0
 40
0.1195750502
 40
0.2380805347
 40
0.3570604023
 40
0.4779558442
 40
0.601976895
 40
0.7300274959
 40
1.0
 40
1.0
 40
1.0
 40
1.0
 10
-12.2358076614
 20
-13.149704836
 30
0.0
 10
-12.2638244277
 20
-12.9329415297
 30
0.0
 10
-12.2866248805
 20
-12.4962830219
 30
0.0
 10
-12.2182800277
 20
-11.8446729491
 30
0.0
 10
-12.0499255939
 20
-11.208959148
 30
0.0
 10
-11.7853508821
 20
-10.5961959114
 30
0.0
 10
-11.4293871674
 20
-10.0122693416
 30
0.0
 10
-10.830634672
 20
-9.2667067288
 30
0.0
 10
-10.2747595366
 20
-8.785572784
 30
0.0
 10
-9.8730691302
 20
-8.4989384271
 30
0.0
 11
-12.2358076614
 21
-13.149704836
 31
0.0
 11
-12.269480539
 21
-12.4948708351
 31
0.0
 11
-12.2019105178
 21
-11.8485592167
 31
0.0
 11
-12.0356411433
 21
-11.2176657806
 31
0.0
 11
-11.7740559907
 21
-10.6085170249
 31
0.0
 11
-11.4214851059
 21
-10.0269661061
 31
0.0
 11
-10.9831257048
 21
-9.4784303034
 31
0.0
 11
-9.8730691302
 21
-8.4989384271
 31
0.0
  0
SPLINE
  5
5C1
100
AcDbEntity
  8
RACCORDO
100
AcDbSpline
 62
253
  6
CONTINUOUS
 70
0
 71
3
 72
18
 73
14
 74
12
 42
0.0000001
 43
0.0000001
 44
0.0000000001
 12
0.501269084
 22
-0.0003586355
 32
0.0
 13
0.1961791656
 23
-0.4612857663
 33
0.0
 40
0.0
 40
0.0
 40
0.0
 40
0.0
 40
0.1924029016
 40
0.3777334652
 40
0.548771764
 40
0.6992815066
 40
0.8235669169
 40
0.8743957774
 40
0.9170205581
 40
0.9510872521
 40
0.9762819566
 40
0.9924800202
 40
1.0
 40
1.0
 40
1.0
 40
1.0
 10
20.017360215
 20
20.516764441
 30
0.0
 10
20.049508757
 20
20.5167414402
 30
0.0
 10
20.1126243821
 20
20.5164482275
 30
0.0
 10
20.2043115408
 20
20.5152781437
 30
0.0
 10
20.2889887457
 20
20.5134282375
 30
0.0
 10
20.3634389791
 20
20.5109756964
 30
0.0
 10
20.4178023919
 20
20.5083960956
 30
0.0
 10
20.4540862577
 20
20.5059896541
 30
0.0
 10
20.475365744
 20
20.5042377077
 30
0.0
 10
20.4921792065
 20
20.5024123557
 30
0.0
 10
20.5049393168
 20
20.5006385856
 30
0.0
 10
20.5123901264
 20
20.49879554
 30
0.0
 10
20.516792308
 20
20.4974088493
 30
0.0
 10
20.5172840625
 20
20.4962525627
 30
0.0
 11
20.017360215
 21
20.516764441
 31
0.0
 11
20.1138047945
 21
20.5163098515
 31
0.0
 11
20.2066974403
 21
20.5151014187
 31
0.0
 11
20.2924122498
 21
20.5131848761
 31
0.0
 11
20.3678149416
 21
20.5106318569
 31
0.0
 11
20.430038527
 21
20.5075380795
 31
0.0
 11
20.4554597956
 21
20.5058247102
 31
0.0
 11
20.476750032
 21
20.5040211752
 31
0.0
 11
20.4937231189
 21
20.5021439245
 31
0.0
 11
20.5062034601
 21
20.5002097447
 31
0.0
 11
20.5140801592
 21
20.4982386124
 31
0.0
 11
20.5172840625
 21
20.4962525627
 31
0.0
  0
LINE
  5
5C2
100
AcDbEntity
  8
RACCORDO
100
AcDbLine
 62
253
  6
CONTINUOUS
 10
15.3271586121
 20
-9.3253336917
 11
15.3238341982
 21
-9.3316635153
  0
LINE
  5
5C3
100
AcDbEntity
  8
RACCORDO
100
AcDbLine
 62
253
  6
CONTINUOUS
 10
6.4949111525
 20
-8.4901768675
 11
6.5037437277
 21
-8.4964429132
  0
SPLINE
  5
5C4
100
AcDbEntity
  8
RACCORDO
100
AcDbSpline
 62
253
  6
CONTINUOUS
 70
0
 71
3
 72
18
 73
14
 74
12
 42
0.0000001
 43
0.0000001
 44
0.0000000001
 12
0.3111112575
 22
-1.4025754241
 32
0.0
 13
0.0006898624
 23
-1.4366654304
 33
0.0
 40
0.0
 40
0.0
 40
0.0
 40
0.0
 40
0.009547883
 40
0.0278603566
 40
0.0548136324
 40
0.0901717562
 40
0.1336481245
 40
0.1848625398
 40
0.3087225273
 40
0.4575443686
 40
0.6262695346
 40
0.8091611973
 40
1.0
 40
1.0
 40
1.0
 40
1.0
 10
-23.3995030849
 20
21.9531724457
 30
0.0
 10
-23.3985129336
 20
21.9487085703
 30
0.0
 10
-23.3976075285
 20
21.9353306661
 30
0.0
 10
-23.395961539
 20
21.9091788363
 30
0.0
 10
-23.3945953073
 20
21.8705671075
 30
0.0
 10
-23.3931037821
 20
21.8199385155
 30
0.0
 10
-23.3917133127
 20
21.7576709634
 30
0.0
 10
-23.3897952065
 20
21.6530286095
 30
0.0
 10
-23.3877401778
 20
21.4979301095
 30
0.0
 10
-23.3857708625
 20
21.2865546795
 30
0.0
 10
-23.384271896
 20
21.0469045452
 30
0.0
 10
-23.3832943431
 20
20.7871304353
 30
0.0
 10
-23.3830201262
 20
20.6081552321
 30
0.0
 10
-23.382976242
 20
20.5167647286
 30
0.0
 11
-23.3995030849
 21
21.9531724457
 31
0.0
 11
-23.3979004392
 21
21.9395492753
 31
0.0
 11
-23.3963179369
 21
21.913288012
 31
0.0
 11
-23.3947709209
 21
21.8745960828
 31
0.0
 11
-23.3932722781
 21
21.8238203941
 31
0.0
 11
-23.3918342822
 21
21.7613759468
 31
0.0
 11
-23.3904692109
 21
21.6878106222
 31
0.0
 11
-23.3880045075
 21
21.5098823094
 31
0.0
 11
-23.3859619193
 21
21.2960848472
 31
0.0
 11
-23.3844109362
 21
21.0536881679
 31
0.0
 11
-23.3834042841
 21
20.7909359366
 31
0.0
 11
-23.382976242
 21
20.5167647286
 31
0.0
  0
LINE
  5
5C5
100
AcDbEntity
  8
RACCORDO
100
AcDbLine
 62
253
  6
CONTINUOUS
 10
-18.6864350043
 20
-9.3375906244
 11
-18.6897635956
 21
-9.3312575735
  0
SPLINE
  5
5C6
100
AcDbEntity
  8
RACCORDO
100
AcDbSpline
 62
253
  6
CONTINUOUS
 70
0
 71
3
 72
18
 73
14
 74
12
 42
0.0000001
 43
0.0000001
 44
0.0000000001
 12
0.0006898624
 22
1.4366654304
 32
0.0
 13
0.3111112482
 23
1.4025754262
 33
0.0
 40
0.0
 40
0.0
 40
0.0
 40
0.0
 40
0.1908388027
 40
0.3737304654
 40
0.5424556314
 40
0.6912774727
 40
0.8151374602
 40
0.8663518755
 40
0.9098282438
 40
0.9451863676
 40
0.9721396434
 40
0.9904521169
 40
1.0
 40
1.0
 40
1.0
 40
1.0
 10
20.0173602149
 20
20.5167647286
 30
0.0
 10
20.0174040991
 20
20.6081552321
 30
0.0
 10
20.0176783159
 20
20.7871304353
 30
0.0
 10
20.0186558688
 20
21.0469045452
 30
0.0
 10
20.0201548353
 20
21.2865546795
 30
0.0
 10
20.0221241506
 20
21.4979301095
 30
0.0
 10
20.0241791794
 20
21.6530286095
 30
0.0
 10
20.0260972856
 20
21.7576709634
 30
0.0
 10
20.0274877549
 20
21.8199385155
 30
0.0
 10
20.0289792801
 20
21.8705671075
 30
0.0
 10
20.0303455118
 20
21.9091788363
 30
0.0
 10
20.0319915014
 20
21.9353306661
 30
0.0
 10
20.0328969064
 20
21.9487085703
 30
0.0
 10
20.0338870577
 20
21.9531724457
 30
0.0
 11
20.0173602149
 21
20.5167647286
 31
0.0
 11
20.0177882569
 21
20.7909359366
 31
0.0
 11
20.018794909
 21
21.0536881679
 31
0.0
 11
20.0203458922
 21
21.2960848472
 31
0.0
 11
20.0223884803
 21
21.5098823094
 31
0.0
 11
20.0248531838
 21
21.6878106222
 31
0.0
 11
20.0262182551
 21
21.7613759468
 31
0.0
 11
20.027656251
 21
21.8238203941
 31
0.0
 11
20.0291548937
 21
21.8745960828
 31
0.0
 11
20.0307019098
 21
21.913288012
 31
0.0
 11
20.0322844121
 21
21.9395492752
 31
0.0
 11
20.0338870577
 21
21.9531724457
 31
0.0
  0
SPLINE
  5
5C7
100
AcDbEntity
  8
RACCORDO
100
AcDbSpline
 62
253
  6
CONTINUOUS
 70
0
 71
3
 72
18
 73
14
 74
12
 42
0.0000001
 43
0.0000001
 44
0.0000000001
 12
-0.0006899296
 22
-1.4366654302
 32
0.0
 13
-0.3111409014
 23
-1.4025688482
 33
0.0
 40
0.0
 40
0.0
 40
0.0
 40
0.0
 40
0.1908388046
 40
0.3737304668
 40
0.5424556324
 40
0.6912774736
 40
0.8151374606
 40
0.8663518805
 40
0.9098282438
 40
0.9451863502
 40
0.9721396433
 40
0.9904521806
 40
1.0
 40
1.0
 40
1.0
 40
1.0
 10
-23.382976242
 20
-20.507654372
 30
0.0
 10
-23.3830201305
 20
-20.5990448765
 30
0.0
 10
-23.3832943458
 20
-20.7780200802
 30
0.0
 10
-23.3842718793
 20
-21.0377941907
 30
0.0
 10
-23.3857708777
 20
-21.2774443243
 30
0.0
 10
-23.3877402057
 20
-21.4888197536
 30
0.0
 10
-23.3897952398
 20
-21.6439182557
 30
0.0
 10
-23.3917133299
 20
-21.7485606089
 30
0.0
 10
-23.3931037868
 20
-21.810828154
 30
0.0
 10
-23.3945953366
 20
-21.8614567393
 30
0.0
 10
-23.3959615497
 20
-21.900068508
 30
0.0
 10
-23.3976075463
 20
-21.9262203276
 30
0.0
 10
-23.3985128458
 20
-21.9395982633
 30
0.0
 10
-23.3995030849
 20
-21.944062088
 30
0.0
 11
-23.382976242
 21
-20.507654372
 31
0.0
 11
-23.3834042837
 21
-20.7818255828
 31
0.0
 11
-23.3844109284
 21
-21.0445778133
 31
0.0
 11
-23.3859619327
 21
-21.2869744918
 31
0.0
 11
-23.3880045351
 21
-21.5007719537
 31
0.0
 11
-23.3904692374
 21
-21.6787002659
 31
0.0
 11
-23.3918342983
 21
-21.7522655971
 31
0.0
 11
-23.39327229
 21
-21.8147100375
 31
0.0
 11
-23.3947709421
 21
-21.8654857008
 31
0.0
 11
-23.3963179505
 21
-21.9041776552
 31
0.0
 11
-23.397900415
 21
-21.9304390125
 31
0.0
 11
-23.3995030849
 21
-21.944062088
 31
0.0
  0
LINE
  5
5C8
100
AcDbEntity
  8
RACCORDO
100
AcDbLine
 62
253
  6
CONTINUOUS
 10
-9.8730691302
 20
-8.4989384271
 11
-9.8642835395
 21
-8.4926693449
  0
SPLINE
  5
5C9
100
AcDbEntity
  8
RACCORDO
100
AcDbSpline
 62
253
  6
CONTINUOUS
 70
0
 71
3
 72
14
 73
10
 74
8
 42
0.0000001
 43
0.0000001
 44
0.0000000001
 12
8.5694211511
 22
-0.0001204293
 32
0.0
 13
6.9879706744
 23
-4.960165797
 33
0.0
 40
0.0
 40
0.0
 40
0.0
 40
0.0
 40
0.1327253491
 40
0.2647169733
 40
0.3952321758
 40
0.5235168367
 40
0.6488158966
 40
0.7704146149
 40
1.0
 40
1.0
 40
1.0
 40
1.0
 10
-1.6827759371
 20
-6.3760546775
 30
0.0
 10
-1.3036494659
 20
-6.3760600055
 30
0.0
 10
-0.5473355262
 20
-6.3959217647
 30
0.0
 10
0.578560834
 20
-6.4863271334
 30
0.0
 10
1.6849080992
 20
-6.6402544317
 30
0.0
 10
2.7603541017
 20
-6.8614402438
 30
0.0
 10
3.7928581634
 20
-7.1534784546
 30
0.0
 10
5.0683106215
 20
-7.63019506
 30
0.0
 10
5.9601325065
 20
-8.1105830093
 30
0.0
 10
6.4949111525
 20
-8.4901768675
 30
0.0
 11
-1.6827759371
 21
-6.3760546775
 31
0.0
 11
-0.5457962328
 21
-6.4062056785
 31
0.0
 11
0.5815950865
 21
-6.4976251005
 31
0.0
 11
1.6891743366
 21
-6.653110308
 31
0.0
 11
2.7656040419
 21
-6.8763034428
 31
0.0
 11
3.7982596424
 21
-7.1704817678
 31
0.0
 11
4.7734690865
 21
-7.5376252993
 31
0.0
 11
6.4949111525
 21
-8.4901768675
 31
0.0
  0
SPLINE
  5
5CA
100
AcDbEntity
  8
RACCORDO
100
AcDbSpline
 62
253
  6
CONTINUOUS
 70
0
 71
3
 72
18
 73
14
 74
12
 42
0.0000001
 43
0.0000001
 44
0.0000000001
 12
-0.3111409112
 22
1.402568846
 32
0.0
 13
-0.0006899296
 23
1.4366654302
 33
0.0
 40
0.0
 40
0.0
 40
0.0
 40
0.0
 40
0.0095478194
 40
0.0278603567
 40
0.0548136498
 40
0.0901717562
 40
0.1336481195
 40
0.1848625394
 40
0.3087225264
 40
0.4575443676
 40
0.6262695332
 40
0.8091611954
 40
1.0
 40
1.0
 40
1.0
 40
1.0
 10
20.0338870577
 20
-21.944062088
 30
0.0
 10
20.0328968186
 20
-21.9395982633
 30
0.0
 10
20.0319915191
 20
-21.9262203276
 30
0.0
 10
20.0303455226
 20
-21.900068508
 30
0.0
 10
20.0289793095
 20
-21.8614567393
 30
0.0
 10
20.0274877596
 20
-21.810828154
 30
0.0
 10
20.0260973027
 20
-21.7485606089
 30
0.0
 10
20.0241792127
 20
-21.6439182557
 30
0.0
 10
20.0221241785
 20
-21.4888197536
 30
0.0
 10
20.0201548506
 20
-21.2774443243
 30
0.0
 10
20.0186558521
 20
-21.0377941907
 30
0.0
 10
20.0176783186
 20
-20.7780200802
 30
0.0
 10
20.0174041033
 20
-20.5990448765
 30
0.0
 10
20.0173602149
 20
-20.507654372
 30
0.0
 11
20.0338870577
 21
-21.944062088
 31
0.0
 11
20.0322843879
 21
-21.9304390125
 31
0.0
 11
20.0307019234
 21
-21.9041776552
 31
0.0
 11
20.0291549149
 21
-21.8654857007
 31
0.0
 11
20.0276562629
 21
-21.8147100375
 31
0.0
 11
20.0262182712
 21
-21.7522655971
 31
0.0
 11
20.0248532103
 21
-21.6787002659
 31
0.0
 11
20.0223885079
 21
-21.5007719537
 31
0.0
 11
20.0203459055
 21
-21.2869744918
 31
0.0
 11
20.0187949013
 21
-21.0445778133
 31
0.0
 11
20.0177882565
 21
-20.7818255828
 31
0.0
 11
20.0173602149
 21
-20.507654372
 31
0.0
  0
SPLINE
  5
5CB
100
AcDbEntity
  8
RACCORDO
100
AcDbSpline
 62
253
  6
CONTINUOUS
 70
0
 71
3
 72
17
 73
13
 74
11
 42
0.0000001
 43
0.0000001
 44
0.0000000001
 12
-3.0205054725
 22
-3.7654998792
 32
0.0
 13
-3.0207509113
 23
3.7653029866
 33
0.0
 40
0.0
 40
0.0
 40
0.0
 40
0.0
 40
0.06298033
 40
0.1254165563
 40
0.2492677928
 40
0.3739706794
 40
0.4999999237
 40
0.6260291853
 40
0.7507321184
 40
0.8745834267
 40
0.937019682
 40
1.0
 40
1.0
 40
1.0
 40
1.0
 10
0.4910876894
 20
-20.5076447373
 30
0.0
 10
0.4276768789
 20
-20.5866955457
 30
0.0
 10
0.2863315619
 20
-20.732295914
 30
0.0
 10
-0.0324046965
 20
-20.9775266913
 30
0.0
 10
-0.4875338337
 20
-21.1985365604
 30
0.0
 10
-1.0758607606
 20
-21.3433566565
 30
0.0
 10
-1.6828077477
 20
-21.3890573025
 30
0.0
 10
-2.2897546557
 20
-21.3433566774
 30
0.0
 10
-2.8780822915
 20
-21.1985369153
 30
0.0
 10
-3.3332102132
 20
-20.9775259747
 30
0.0
 10
-3.6519496344
 20
-20.732297311
 30
0.0
 10
-3.7932878588
 20
-20.5866912986
 30
0.0
 10
-3.8567038098
 20
-20.5076446389
 30
0.0
 11
0.4910876894
 21
-20.5076447373
 31
0.0
 11
0.2809211
 21
-20.7273255409
 31
0.0
 11
0.0422590589
 21
-20.911390559
 31
0.0
 11
-0.492899043
 21
-21.1779331916
 31
0.0
 11
-1.0762796218
 21
-21.3263884271
 31
0.0
 11
-1.6828076942
 21
-21.3737701295
 31
0.0
 11
-2.2893358567
 21
-21.3263885122
 31
0.0
 11
-2.8727166709
 21
-21.1779332927
 31
0.0
 11
-3.4078751253
 21
-20.9113905903
 31
0.0
 11
-3.646537072
 21
-20.7273252198
 31
0.0
 11
-3.8567038098
 21
-20.5076446389
 31
0.0
  0
SPLINE
  5
5CC
100
AcDbEntity
  8
RACCORDO
100
AcDbSpline
 62
253
  6
CONTINUOUS
 70
0
 71
3
 72
11
 73
7
 74
5
 42
0.0000001
 43
0.0000001
 44
0.0000000001
 12
0.3642214703
 22
0.0008257884
 32
0.0
 13
0.0011010188
 23
0.3642207423
 33
0.0
 40
0.0
 40
0.0
 40
0.0
 40
0.0
 40
0.2662357453
 40
0.5233327532
 40
0.7668031567
 40
1.0
 40
1.0
 40
1.0
 40
1.0
 10
-21.4498285563
 20
23.6823863952
 30
0.0
 10
-21.4175056314
 20
23.68245968
 30
0.0
 10
-21.3534365073
 20
23.6933569152
 30
0.0
 10
-21.270776623
 20
23.7403737534
 30
0.0
 10
-21.2138258747
 20
23.8120231482
 30
0.0
 10
-21.1999175679
 20
23.870581037
 30
0.0
 10
-21.1998319832
 20
23.8988927461
 30
0.0
 11
-21.4498285563
 21
23.6823863952
 31
0.0
 11
-21.3542988345
 21
23.69903163
 31
0.0
 11
-21.2732933752
 21
23.7460066989
 31
0.0
 11
-21.2190519814
 21
23.8161604462
 31
0.0
 11
-21.1998319832
 21
23.8988927461
 31
0.0
  0
SPLINE
  5
5CD
100
AcDbEntity
  8
RACCORDO
100
AcDbSpline
 62
253
  6
CONTINUOUS
 70
0
 71
3
 72
11
 73
7
 74
5
 42
0.0000001
 43
0.0000001
 44
0.0000000001
 12
0.0011010187
 22
-0.3642207076
 32
0.0
 13
0.3642214356
 23
-0.0008257883
 33
0.0
 40
0.0
 40
0.0
 40
0.0
 40
0.0
 40
0.2331983104
 40
0.4766700817
 40
0.7337692773
 40
1.0
 40
1.0
 40
1.0
 40
1.0
 10
-23.4907840439
 20
23.8988927461
 30
0.0
 10
-23.4906984587
 20
23.8705808616
 30
0.0
 10
-23.4767899612
 20
23.8120226423
 30
0.0
 10
-23.4198386175
 20
23.7403728721
 30
0.0
 10
-23.337178466
 20
23.6933568399
 30
0.0
 10
-23.2731097829
 20
23.6824596786
 30
0.0
 10
-23.2407874709
 20
23.6823863952
 30
0.0
 11
-23.4907840439
 21
23.8988927461
 31
0.0
 11
-23.4715638111
 21
23.8161599604
 31
0.0
 11
-23.4173218855
 21
23.7460060054
 31
0.0
 11
-23.3363154179
 21
23.6990311045
 31
0.0
 11
-23.2407874709
 21
23.6823863952
 31
0.0
  0
SPLINE
  5
5CE
100
AcDbEntity
  8
RACCORDO
100
AcDbSpline
 62
253
  6
CONTINUOUS
 70
0
 71
3
 72
18
 73
14
 74
12
 42
0.0000001
 43
0.0000001
 44
0.0000000001
 12
0.3020660145
 22
-0.9091222525
 32
0.0
 13
0.0006886009
 23
-0.9579909566
 33
0.0
 40
0.0
 40
0.0
 40
0.0
 40
0.0
 40
0.0096275701
 40
0.0279735824
 40
0.0549463455
 40
0.0903151496
 40
0.1337936041
 40
0.1850042852
 40
0.3088479961
 40
0.4576444311
 40
0.6263397156
 40
0.8091970366
 40
1.0
 40
1.0
 40
1.0
 40
1.0
 10
-23.8994269324
 20
21.4538576783
 30
0.0
 10
-23.8984575452
 20
21.4509401322
 30
0.0
 10
-23.8975184473
 20
21.4419635545
 30
0.0
 10
-23.8958941607
 20
21.424556719
 30
0.0
 10
-23.8945160821
 20
21.3987915749
 30
0.0
 10
-23.8930290716
 20
21.3650464685
 30
0.0
 10
-23.8916369256
 20
21.3235326209
 30
0.0
 10
-23.8897197119
 20
21.253776849
 30
0.0
 10
-23.8876641688
 20
21.1503791297
 30
0.0
 10
-23.8856949784
 20
21.0094612265
 30
0.0
 10
-23.884195891
 20
20.8496908951
 30
0.0
 10
-23.8832182551
 20
20.6765027749
 30
0.0
 10
-23.8829438854
 20
20.5571817339
 30
0.0
 10
-23.8829000897
 20
20.4962525627
 30
0.0
 11
-23.8994269324
 21
21.4538576783
 31
0.0
 11
-23.8978244188
 21
21.4447748357
 31
0.0
 11
-23.8962418819
 21
21.4272709105
 31
0.0
 11
-23.8946948041
 21
21.4014775958
 31
0.0
 11
-23.8931961517
 21
21.3676277517
 31
0.0
 11
-23.8917582408
 21
21.3260006019
 31
0.0
 11
-23.8903932731
 21
21.2769602121
 31
0.0
 11
-23.8879286053
 21
21.1583446298
 31
0.0
 11
-23.8858859834
 21
21.0158135897
 31
0.0
 11
-23.884334936
 21
20.8542124342
 31
0.0
 11
-23.8833281738
 21
20.6790396221
 31
0.0
 11
-23.8829000897
 21
20.4962525627
 31
0.0
  0
SPLINE
  5
5CF
100
AcDbEntity
  8
RACCORDO
100
AcDbSpline
 62
7
  6
CONTINUOUS
 70
0
 71
3
 72
13
 73
9
 74
7
 42
0.0000001
 43
0.0000001
 44
0.0000000001
 12
0.002852503
 22
-0.3145370621
 32
0.0
 13
0.3145499964
 23
0.0
 33
0.0
 40
0.0
 40
0.0
 40
0.0
 40
0.0
 40
0.0847539955
 40
0.1758124513
 40
0.2779583121
 40
0.3944533855
 40
0.6735537874
 40
1.0
 40
1.0
 40
1.0
 40
1.0
 10
-23.4960200795
 20
23.321542477
 30
0.0
 10
-23.4959394925
 20
23.312656386
 30
0.0
 10
-23.492719097
 20
23.2941417559
 30
0.0
 10
-23.479217443
 20
23.2679091261
 30
0.0
 10
-23.4573890633
 20
23.2434792262
 30
0.0
 10
-23.4150944523
 20
23.2123997774
 30
0.0
 10
-23.3433022882
 20
23.1847418768
 30
0.0
 10
-23.279596887
 20
23.1772049097
 30
0.0
 10
-23.245369002
 20
23.1772049097
 30
0.0
 11
-23.4960200795
 21
23.321542477
 31
0.0
 11
-23.4915983481
 21
23.2952523601
 31
0.0
 11
-23.4788157895
 21
23.2696204388
 31
0.0
 11
-23.4577089247
 21
23.2453957431
 31
0.0
 11
-23.4284155956
 21
23.2233810028
 31
0.0
 11
-23.3472671234
 21
23.1898818912
 31
0.0
 11
-23.245369002
 21
23.1772049097
 31
0.0
  0
SPLINE
  5
5D0
100
AcDbEntity
  8
RACCORDO
100
AcDbSpline
 62
7
  6
CONTINUOUS
 70
0
 71
3
 72
13
 73
9
 74
7
 42
0.0000001
 43
0.0000001
 44
0.0000000001
 12
0.3145499964
 22
0.0
 32
0.0
 13
0.002852503
 23
0.3145370621
 33
0.0
 40
0.0
 40
0.0
 40
0.0
 40
0.0
 40
0.3264462126
 40
0.6055466145
 40
0.7220416879
 40
0.8241875487
 40
0.9152460045
 40
1.0
 40
1.0
 40
1.0
 40
1.0
 10
-21.4452470251
 20
23.1772049097
 30
0.0
 10
-21.4110191401
 20
23.1772049097
 30
0.0
 10
-21.347313739
 20
23.1847418768
 30
0.0
 10
-21.2755215748
 20
23.2123997774
 30
0.0
 10
-21.2332269638
 20
23.2434792262
 30
0.0
 10
-21.2113985841
 20
23.2679091261
 30
0.0
 10
-21.1978969302
 20
23.2941417559
 30
0.0
 10
-21.1946765346
 20
23.312656386
 30
0.0
 10
-21.1945959476
 20
23.321542477
 30
0.0
 11
-21.4452470251
 21
23.1772049097
 31
0.0
 11
-21.3433489037
 21
23.1898818912
 31
0.0
 11
-21.2622004315
 21
23.2233810028
 31
0.0
 11
-21.2329071024
 21
23.2453957431
 31
0.0
 11
-21.2118002376
 21
23.2696204388
 31
0.0
 11
-21.199017679
 21
23.2952523601
 31
0.0
 11
-21.1945959476
 21
23.321542477
 31
0.0
  0
SPLINE
  5
5D1
100
AcDbEntity
  8
RACCORDO
100
AcDbSpline
 62
253
  6
CONTINUOUS
 70
0
 71
3
 72
11
 73
7
 74
5
 42
0.0000001
 43
0.0000001
 44
0.0000000001
 12
0.3642214703
 22
0.0008257884
 32
0.0
 13
0.0011010188
 23
0.3642207423
 33
0.0
 40
0.0
 40
0.0
 40
0.0
 40
0.0
 40
0.2662357453
 40
0.5233327532
 40
0.7668031567
 40
1.0
 40
1.0
 40
1.0
 40
1.0
 10
-2.6248285563
 20
23.6823863952
 30
0.0
 10
-2.5925056314
 20
23.68245968
 30
0.0
 10
-2.5284365073
 20
23.6933569152
 30
0.0
 10
-2.445776623
 20
23.7403737534
 30
0.0
 10
-2.3888258747
 20
23.8120231482
 30
0.0
 10
-2.3749175679
 20
23.870581037
 30
0.0
 10
-2.3748319832
 20
23.8988927461
 30
0.0
 11
-2.6248285563
 21
23.6823863952
 31
0.0
 11
-2.5292988345
 21
23.69903163
 31
0.0
 11
-2.4482933752
 21
23.7460066989
 31
0.0
 11
-2.3940519814
 21
23.8161604462
 31
0.0
 11
-2.3748319832
 21
23.8988927461
 31
0.0
  0
SPLINE
  5
5D2
100
AcDbEntity
  8
RACCORDO
100
AcDbSpline
 62
253
  6
CONTINUOUS
 70
0
 71
3
 72
11
 73
7
 74
5
 42
0.0000001
 43
0.0000001
 44
0.0000000001
 12
0.0011010187
 22
-0.3642207076
 32
0.0
 13
0.3642214356
 23
-0.0008257883
 33
0.0
 40
0.0
 40
0.0
 40
0.0
 40
0.0
 40
0.2331983104
 40
0.4766700817
 40
0.7337692773
 40
1.0
 40
1.0
 40
1.0
 40
1.0
 10
-4.6657840439
 20
23.8988927461
 30
0.0
 10
-4.6656984587
 20
23.8705808616
 30
0.0
 10
-4.6517899612
 20
23.8120226423
 30
0.0
 10
-4.5948386175
 20
23.7403728721
 30
0.0
 10
-4.512178466
 20
23.6933568399
 30
0.0
 10
-4.4481097829
 20
23.6824596786
 30
0.0
 10
-4.4157874709
 20
23.6823863952
 30
0.0
 11
-4.6657840439
 21
23.8988927461
 31
0.0
 11
-4.6465638111
 21
23.8161599604
 31
0.0
 11
-4.5923218855
 21
23.7460060054
 31
0.0
 11
-4.5113154179
 21
23.6990311045
 31
0.0
 11
-4.4157874709
 21
23.6823863952
 31
0.0
  0
SPLINE
  5
5D3
100
AcDbEntity
  8
RACCORDO
100
AcDbSpline
 62
7
  6
CONTINUOUS
 70
0
 71
3
 72
13
 73
9
 74
7
 42
0.0000001
 43
0.0000001
 44
0.0000000001
 12
0.002852503
 22
-0.3145370621
 32
0.0
 13
0.3145499964
 23
-0.0
 33
0.0
 40
0.0
 40
0.0
 40
0.0
 40
0.0
 40
0.0847539955
 40
0.1758124513
 40
0.2779583121
 40
0.3944533855
 40
0.6735537874
 40
1.0
 40
1.0
 40
1.0
 40
1.0
 10
-4.6710200795
 20
23.321542477
 30
0.0
 10
-4.6709394925
 20
23.312656386
 30
0.0
 10
-4.667719097
 20
23.2941417559
 30
0.0
 10
-4.654217443
 20
23.2679091261
 30
0.0
 10
-4.6323890633
 20
23.2434792262
 30
0.0
 10
-4.5900944523
 20
23.2123997774
 30
0.0
 10
-4.5183022882
 20
23.1847418768
 30
0.0
 10
-4.454596887
 20
23.1772049097
 30
0.0
 10
-4.420369002
 20
23.1772049097
 30
0.0
 11
-4.6710200795
 21
23.321542477
 31
0.0
 11
-4.6665983481
 21
23.2952523601
 31
0.0
 11
-4.6538157895
 21
23.2696204388
 31
0.0
 11
-4.6327089247
 21
23.2453957431
 31
0.0
 11
-4.6034155956
 21
23.2233810028
 31
0.0
 11
-4.5222671234
 21
23.1898818912
 31
0.0
 11
-4.420369002
 21
23.1772049097
 31
0.0
  0
SPLINE
  5
5D4
100
AcDbEntity
  8
RACCORDO
100
AcDbSpline
 62
7
  6
CONTINUOUS
 70
0
 71
3
 72
13
 73
9
 74
7
 42
0.0000001
 43
0.0000001
 44
0.0000000001
 12
0.3145499964
 22
0.0
 32
0.0
 13
0.002852503
 23
0.3145370621
 33
0.0
 40
0.0
 40
0.0
 40
0.0
 40
0.0
 40
0.3264462126
 40
0.6055466145
 40
0.7220416879
 40
0.8241875487
 40
0.9152460045
 40
1.0
 40
1.0
 40
1.0
 40
1.0
 10
-2.6202470251
 20
23.1772049097
 30
0.0
 10
-2.5860191401
 20
23.1772049097
 30
0.0
 10
-2.522313739
 20
23.1847418768
 30
0.0
 10
-2.4505215748
 20
23.2123997774
 30
0.0
 10
-2.4082269638
 20
23.2434792262
 30
0.0
 10
-2.3863985841
 20
23.2679091261
 30
0.0
 10
-2.3728969302
 20
23.2941417559
 30
0.0
 10
-2.3696765346
 20
23.312656386
 30
0.0
 10
-2.3695959476
 20
23.321542477
 30
0.0
 11
-2.6202470251
 21
23.1772049097
 31
0.0
 11
-2.5183489037
 21
23.1898818912
 31
0.0
 11
-2.4372004315
 21
23.2233810028
 31
0.0
 11
-2.4079071024
 21
23.2453957431
 31
0.0
 11
-2.3868002376
 21
23.2696204388
 31
0.0
 11
-2.374017679
 21
23.2952523601
 31
0.0
 11
-2.3695959476
 21
23.321542477
 31
0.0
  0
SPLINE
  5
5D5
100
AcDbEntity
  8
RACCORDO
100
AcDbSpline
 62
253
  6
CONTINUOUS
 70
0
 71
3
 72
11
 73
7
 74
5
 42
0.0000001
 43
0.0000001
 44
0.0000000001
 12
0.0011010187
 22
-0.3642207076
 32
0.0
 13
0.3642214356
 23
-0.0008257883
 33
0.0
 40
0.0
 40
0.0
 40
0.0
 40
0.0
 40
0.2331983104
 40
0.4766700817
 40
0.7337692773
 40
1.0
 40
1.0
 40
1.0
 40
1.0
 10
-0.9907840439
 20
23.8988927461
 30
0.0
 10
-0.9906984587
 20
23.8705808616
 30
0.0
 10
-0.9767899612
 20
23.8120226423
 30
0.0
 10
-0.9198386175
 20
23.7403728721
 30
0.0
 10
-0.837178466
 20
23.6933568399
 30
0.0
 10
-0.7731097829
 20
23.6824596786
 30
0.0
 10
-0.7407874709
 20
23.6823863952
 30
0.0
 11
-0.9907840439
 21
23.8988927461
 31
0.0
 11
-0.9715638111
 21
23.8161599604
 31
0.0
 11
-0.9173218855
 21
23.7460060054
 31
0.0
 11
-0.8363154179
 21
23.6990311045
 31
0.0
 11
-0.7407874709
 21
23.6823863952
 31
0.0
  0
SPLINE
  5
5D6
100
AcDbEntity
  8
RACCORDO
100
AcDbSpline
 62
253
  6
CONTINUOUS
 70
0
 71
3
 72
11
 73
7
 74
5
 42
0.0000001
 43
0.0000001
 44
0.0000000001
 12
0.3642214703
 22
0.0008257884
 32
0.0
 13
0.0011010188
 23
0.3642207423
 33
0.0
 40
0.0
 40
0.0
 40
0.0
 40
0.0
 40
0.2662357453
 40
0.5233327532
 40
0.7668031567
 40
1.0
 40
1.0
 40
1.0
 40
1.0
 10
1.0501714437
 20
23.6823863952
 30
0.0
 10
1.0824943686
 20
23.68245968
 30
0.0
 10
1.1465634927
 20
23.6933569152
 30
0.0
 10
1.229223377
 20
23.7403737534
 30
0.0
 10
1.2861741253
 20
23.8120231482
 30
0.0
 10
1.3000824321
 20
23.870581037
 30
0.0
 10
1.3001680168
 20
23.8988927461
 30
0.0
 11
1.0501714437
 21
23.6823863952
 31
0.0
 11
1.1457011655
 21
23.69903163
 31
0.0
 11
1.2267066248
 21
23.7460066989
 31
0.0
 11
1.2809480186
 21
23.8161604462
 31
0.0
 11
1.3001680168
 21
23.8988927461
 31
0.0
  0
SPLINE
  5
5D7
100
AcDbEntity
  8
RACCORDO
100
AcDbSpline
 62
253
  6
CONTINUOUS
 70
0
 71
3
 72
14
 73
10
 74
8
 42
0.0000001
 43
0.0000001
 44
0.0000000001
 12
6.9888800986
 22
4.966882858
 32
0.0
 13
8.5740521513
 23
-0.0002531626
 33
0.0
 40
0.0
 40
0.0
 40
0.0
 40
0.0
 40
0.2295712434
 40
0.35116716
 40
0.4764662662
 40
0.6047533896
 40
0.7352727779
 40
0.8672694965
 40
1.0
 40
1.0
 40
1.0
 40
1.0
 10
-9.8642835395
 20
-8.4926693449
 30
0.0
 10
-9.3294682414
 20
-8.1125848537
 30
0.0
 10
-8.4373908721
 20
-7.6315711365
 30
0.0
 10
-7.1614232259
 20
-7.1542667037
 30
0.0
 10
-6.1284137911
 20
-6.8618777043
 30
0.0
 10
-5.0523917395
 20
-6.6404451084
 30
0.0
 10
-3.9454207576
 20
-6.4863677928
 30
0.0
 10
-2.8188750499
 20
-6.3958975869
 30
0.0
 10
-2.0621220234
 20
-6.3760434767
 30
0.0
 10
-1.6827759371
 20
-6.3760546775
 30
0.0
 11
-9.8642835395
 21
-8.4926693449
 31
0.0
 11
-8.1424389468
 21
-7.5389000802
 31
0.0
 11
-7.1668264841
 21
-7.1712970809
 31
0.0
 11
-6.1336681389
 21
-6.8767642324
 31
0.0
 11
-5.0566621999
 21
-6.653320096
 31
0.0
 11
-3.9484579688
 21
-6.4976810151
 31
0.0
 11
-2.8204150184
 21
-6.4061943574
 31
0.0
 11
-1.6827759371
 21
-6.3760546775
 31
0.0
  0
SPLINE
  5
5D8
100
AcDbEntity
  8
RACCORDO
100
AcDbSpline
 62
7
  6
CONTINUOUS
 70
0
 71
3
 72
13
 73
9
 74
7
 42
0.0000001
 43
0.0000001
 44
0.0000000001
 12
0.002852503
 22
-0.3145370621
 32
0.0
 13
0.3145499964
 23
-0.0
 33
0.0
 40
0.0
 40
0.0
 40
0.0
 40
0.0
 40
0.0847539955
 40
0.1758124513
 40
0.2779583121
 40
0.3944533855
 40
0.6735537874
 40
1.0
 40
1.0
 40
1.0
 40
1.0
 10
-0.9960200795
 20
23.321542477
 30
0.0
 10
-0.9959394925
 20
23.312656386
 30
0.0
 10
-0.992719097
 20
23.2941417559
 30
0.0
 10
-0.979217443
 20
23.2679091261
 30
0.0
 10
-0.9573890633
 20
23.2434792262
 30
0.0
 10
-0.9150944523
 20
23.2123997774
 30
0.0
 10
-0.8433022882
 20
23.1847418768
 30
0.0
 10
-0.779596887
 20
23.1772049097
 30
0.0
 10
-0.745369002
 20
23.1772049097
 30
0.0
 11
-0.9960200795
 21
23.321542477
 31
0.0
 11
-0.9915983481
 21
23.2952523601
 31
0.0
 11
-0.9788157895
 21
23.2696204388
 31
0.0
 11
-0.9577089247
 21
23.2453957431
 31
0.0
 11
-0.9284155956
 21
23.2233810028
 31
0.0
 11
-0.8472671234
 21
23.1898818912
 31
0.0
 11
-0.745369002
 21
23.1772049097
 31
0.0
  0
SPLINE
  5
5D9
100
AcDbEntity
  8
RACCORDO
100
AcDbSpline
 62
253
  6
CONTINUOUS
 70
0
 71
3
 72
27
 73
23
 74
21
 42
0.0000001
 43
0.0000001
 44
0.0000000001
 12
19.8690216419
 22
36.1907975593
 32
0.0
 13
19.8575610745
 23
-36.1970871363
 33
0.0
 40
0.0
 40
0.0
 40
0.0
 40
0.0
 40
0.0624906011
 40
0.1249776411
 40
0.1874659736
 40
0.2499550574
 40
0.312446669
 40
0.3749427349
 40
0.4062078095
 40
0.4374733326
 40
0.4687382249
 40
0.5000001383
 40
0.5312620745
 40
0.562526978
 40
0.5937924873
 40
0.6250575259
 40
0.6875535418
 40
0.7500451397
 40
0.8125339001
 40
0.8750223525
 40
0.9375092101
 40
1.0
 40
1.0
 40
1.0
 40
1.0
 10
-18.6863734431
 20
9.34667941
 30
0.0
 10
-18.2724977415
 20
10.1005409741
 30
0.0
 10
-17.3379036277
 20
11.5522310215
 30
0.0
 10
-15.6507801258
 20
13.5142512983
 30
0.0
 10
-13.7124307619
 20
15.2288473952
 30
0.0
 10
-11.5625813107
 20
16.6689314464
 30
0.0
 10
-9.2421098291
 20
17.8132196215
 30
0.0
 10
-7.2010002532
 20
18.5099032971
 30
0.0
 10
-5.5263896852
 20
18.9091074997
 30
0.0
 10
-4.2538554124
 20
19.1305535115
 30
0.0
 10
-2.9704873871
 20
19.2754094482
 30
0.0
 10
-1.6795720395
 20
19.3330752594
 30
0.0
 10
-0.3886880847
 20
19.2748074934
 30
0.0
 10
0.8946358741
 20
19.1295892541
 30
0.0
 10
2.1671103562
 20
18.9077934257
 30
0.0
 10
3.8415741716
 20
18.5079549015
 30
0.0
 10
5.8823363986
 20
17.8102875724
 30
0.0
 10
8.2025133302
 20
16.665452709
 30
0.0
 10
10.3519494817
 20
15.2247279922
 30
0.0
 10
12.2896359359
 20
13.5093886799
 30
0.0
 10
13.976066802
 20
11.5467726895
 30
0.0
 10
14.9101349244
 20
10.0947470879
 30
0.0
 10
15.3237731502
 20
9.340752232
 30
0.0
 11
-18.6863734431
 21
9.34667941
 31
0.0
 11
-17.2903348352
 21
11.5163520567
 31
0.0
 11
-15.6089196822
 21
13.4730042157
 31
0.0
 11
-13.6771973633
 21
15.1830828062
 31
0.0
 11
-11.5341900918
 21
16.6196063131
 31
0.0
 11
-9.2207470609
 21
17.76179711
 31
0.0
 11
-6.779239036
 21
18.5964263761
 31
0.0
 11
-5.523689901
 21
18.8960997755
 31
0.0
 11
-4.2520339809
 21
19.1177905263
 31
0.0
 11
-2.9691804187
 21
19.2608816728
 31
0.0
 11
-1.6795776112
 21
19.3137536091
 31
0.0
 11
-0.3899970247
 21
19.2603196618
 31
0.0
 11
0.8928122944
 21
19.1168282858
 31
0.0
 11
2.1644025723
 21
18.8947646137
 31
0.0
 11
3.4198385047
 21
18.594623744
 31
0.0
 11
5.860994079
 21
17.7589705438
 31
0.0
 11
8.1741056965
 21
16.6161100147
 31
0.0
 11
10.3166699528
 21
15.1789498011
 31
0.0
 11
12.2477726236
 21
13.4681640404
 31
0.0
 11
13.9284790826
 21
11.5109130294
 31
0.0
 11
15.3237731502
 21
9.340752232
 31
0.0
  0
LINE
  5
5DA
100
AcDbEntity
  8
RACCORDO
100
AcDbLine
 62
253
  6
CONTINUOUS
 10
15.3238341921
 20
9.3407738808
 11
15.3271587312
 21
9.3344438188
  0
LINE
  5
5DB
100
AcDbEntity
  8
RACCORDO
100
AcDbLine
 62
253
  6
CONTINUOUS
 10
-18.6897636013
 20
9.3403679237
 11
-18.6864348845
 21
9.3467012134
  0
SPLINE
  5
5DC
100
AcDbEntity
  8
0
100
AcDbSpline
 62
7
  6
CONTINUOUS
 70
0
 71
3
 72
9
 73
5
 74
3
 42
0.0000001
 43
0.0000001
 44
0.0000000001
 12
0.159677079
 22
0.0800130452
 32
0.0
 13
0.1755359536
 23
0.0329543009
 33
0.0
 40
0.0
 40
0.0
 40
0.0
 40
0.0
 40
0.259987682
 40
1.0
 40
1.0
 40
1.0
 40
1.0
 10
-41.9381502551
 20
22.1049781599
 30
0.0
 10
-41.9243122306
 20
22.1119122953
 30
0.0
 10
-41.8702961913
 20
22.1369420594
 30
0.0
 10
-41.8128916194
 20
22.1549276861
 30
0.0
 10
-41.7695920301
 20
22.1630565489
 30
0.0
 11
-41.9381502551
 21
22.1049781599
 31
0.0
 11
-41.8959961778
 21
22.1244510174
 31
0.0
 11
-41.7695920301
 21
22.1630565489
 31
0.0
  0
LINE
  5
5DD
100
AcDbEntity
  8
0
100
AcDbLine
 62
7
  6
CONTINUOUS
 10
-41.7076808981
 20
22.1592476832
 11
-41.7695946724
 21
22.1629624511
  0
SPLINE
  5
5DE
100
AcDbEntity
  8
0
100
AcDbSpline
 62
7
  6
CONTINUOUS
 70
0
 71
3
 72
9
 73
5
 74
3
 42
0.0000001
 43
0.0000001
 44
0.0000000001
 12
-0.1597591478
 22
0.0800541693
 32
0.0
 13
-0.1756261734
 23
0.0329712383
 33
0.0
 40
0.0
 40
0.0
 40
0.0
 40
0.0
 40
0.512291023
 40
1.0
 40
1.0
 40
1.0
 40
1.0
 10
-42.6381502551
 20
22.1049781599
 30
0.0
 10
-42.6654313142
 20
22.118648504
 30
0.0
 10
-42.7203615573
 20
22.1421934619
 30
0.0
 10
-42.7781543519
 20
22.1576023693
 30
0.0
 10
-42.806705839
 20
22.1629624923
 30
0.0
 11
-42.6381502551
 21
22.1049781599
 31
0.0
 11
-42.7224631091
 21
22.140637003
 31
0.0
 11
-42.806705839
 21
22.1629624923
 31
0.0
  0
SPLINE
  5
5DF
100
AcDbEntity
  8
0
100
AcDbSpline
 62
7
  6
CONTINUOUS
 70
0
 71
3
 72
9
 73
5
 74
3
 42
0.0000001
 43
0.0000001
 44
0.0000000001
 12
-0.1752239637
 22
-0.0918494137
 32
0.0
 13
-0.0174616148
 23
-0.1970655837
 33
0.0
 40
0.0
 40
0.0
 40
0.0
 40
0.0
 40
0.5000791155
 40
1.0
 40
1.0
 40
1.0
 40
1.0
 10
-45.2969410886
 20
21.4445183948
 30
0.0
 10
-45.3261497035
 20
21.4292077369
 30
0.0
 10
-45.3778491872
 20
21.3834284012
 30
0.0
 10
-45.4008185292
 20
21.3181743575
 30
0.0
 10
-45.4037283378
 20
21.2853352905
 30
0.0
 11
-45.2969410886
 21
21.4445183948
 31
0.0
 11
-45.3706725591
 21
21.3785509396
 31
0.0
 11
-45.4037283378
 21
21.2853352905
 31
0.0
  0
SPLINE
  5
5E0
100
AcDbEntity
  8
0
100
AcDbSpline
 62
7
  6
CONTINUOUS
 70
0
 71
3
 72
9
 73
5
 74
3
 42
0.0000001
 43
0.0000001
 44
0.0000000001
 12
-0.0174616147
 22
0.1970655834
 32
0.0
 13
-0.1752239635
 23
0.0918494135
 33
0.0
 40
0.0
 40
0.0
 40
0.0
 40
0.0
 40
0.4999228887
 40
1.0
 40
1.0
 40
1.0
 40
1.0
 10
-39.1725721724
 20
21.2853352905
 30
0.0
 10
-39.1754819927
 20
21.3181744891
 30
0.0
 10
-39.1984514164
 20
21.3834285387
 30
0.0
 10
-39.2501509238
 20
21.4292077983
 30
0.0
 10
-39.2793594216
 20
21.4445183948
 30
0.0
 11
-39.1725721724
 21
21.2853352905
 31
0.0
 11
-39.2056281796
 21
21.3785512791
 31
0.0
 11
-39.2793594216
 21
21.4445183948
 31
0.0
  0
LINE
  5
5E1
100
AcDbEntity
  8
0
100
AcDbLine
 62
7
  6
CONTINUOUS
 10
-45.4037283378
 20
21.2853352905
 11
-45.4286052667
 21
21.0045551788
  0
LINE
  5
5E2
100
AcDbEntity
  8
0
100
AcDbLine
 62
7
  6
CONTINUOUS
 10
-39.1476952435
 20
21.0045551788
 11
-39.1725721724
 21
21.2853352905
  0
SPLINE
  5
5E3
100
AcDbEntity
  8
RACCORDO
100
AcDbSpline
 62
253
  6
CONTINUOUS
 70
0
 71
3
 72
9
 73
5
 74
3
 42
0.0000001
 43
0.0000001
 44
0.0000000001
 12
-0.3538905782
 22
0.0268314551
 32
0.0
 13
-0.2550826267
 23
0.2467616702
 33
0.0
 40
0.0
 40
0.0
 40
0.0
 40
0.0
 40
0.5171942702
 40
1.0
 40
1.0
 40
1.0
 40
1.0
 10
-67.972302817
 20
-17.6606164987
 30
0.0
 10
-68.0333128767
 20
-17.6559908071
 30
0.0
 10
-68.1512037695
 20
-17.6304418077
 30
0.0
 10
-68.2532619503
 20
-17.5645130249
 30
0.0
 10
-68.2943137348
 20
-17.5248003755
 30
0.0
 11
-67.972302817
 21
-17.6606164987
 31
0.0
 11
-68.1510227745
 21
-17.6187620301
 31
0.0
 11
-68.2943137348
 21
-17.5248003755
 31
0.0
  0
SPLINE
  5
5E4
100
AcDbEntity
  8
RACCORDO
100
AcDbSpline
 62
253
  6
CONTINUOUS
 70
0
 71
3
 72
12
 73
8
 74
6
 42
0.0000001
 43
0.0000001
 44
0.0000000001
 12
-0.1177063017
 22
-0.0847338767
 32
0.0
 13
-0.1019148987
 23
0.1031889371
 33
0.0
 40
0.0
 40
0.0
 40
0.0
 40
0.0
 40
0.4050796476
 40
0.705363789
 40
0.8152753895
 40
0.8991359582
 40
1.0
 40
1.0
 40
1.0
 40
1.0
 10
-72.5463629254
 20
-13.1513711779
 30
0.0
 10
-72.5622564011
 20
-13.1628125009
 30
0.0
 10
-72.5904023917
 20
-13.1821689181
 30
0.0
 10
-72.6241339095
 20
-13.2024013065
 30
0.0
 10
-72.6462486956
 20
-13.2121632955
 30
0.0
 10
-72.6593088681
 20
-13.216379047
 30
0.0
 10
-72.6700875026
 20
-13.2166925562
 30
0.0
 10
-72.6735140188
 20
-13.2132232052
 30
0.0
 11
-72.5463629254
 21
-13.1513711779
 31
0.0
 11
-72.5949263621
 21
-13.1844340058
 31
0.0
 11
-72.6327550606
 21
-13.2060138957
 31
0.0
 11
-72.6473876489
 21
-13.2123382255
 31
0.0
 11
-72.6590890422
 21
-13.2156556402
 31
0.0
 11
-72.6735140188
 21
-13.2132232052
 31
0.0
  0
SPLINE
  5
5E5
100
AcDbEntity
  8
RACCORDO
100
AcDbSpline
 62
253
  6
CONTINUOUS
 70
0
 71
3
 72
9
 73
5
 74
3
 42
0.0000001
 43
0.0000001
 44
0.0000000001
 12
0.0335554309
 22
-0.2844860476
 32
0.0
 13
0.1676681921
 23
-0.2322620407
 33
0.0
 40
0.0
 40
0.0
 40
0.0
 40
0.0
 40
0.5165116314
 40
1.0
 40
1.0
 40
1.0
 40
1.0
 10
-77.5247809624
 20
-8.4964424581
 30
0.0
 10
-77.5190037056
 20
-8.5454225756
 30
0.0
 10
-77.4977582536
 20
-8.6395168145
 30
0.0
 10
-77.453100001
 20
-8.7254577209
 30
0.0
 10
-77.4260781274
 20
-8.7628897192
 30
0.0
 11
-77.5247809624
 21
-8.4964424581
 31
0.0
 11
-77.4908104927
 21
-8.6404489324
 31
0.0
 11
-77.4260781274
 21
-8.7628897192
 31
0.0
  0
SPLINE
  5
5E6
100
AcDbEntity
  8
RACCORDO
100
AcDbSpline
 62
253
  6
CONTINUOUS
 70
0
 71
3
 72
9
 73
5
 74
3
 42
0.0000001
 43
0.0000001
 44
0.0000000001
 12
0.0465424636
 22
-0.3919660409
 32
0.0
 13
0.2994009979
 23
-0.2572209568
 33
0.0
 40
0.0
 40
0.0
 40
0.0
 40
0.0
 40
0.5193869064
 40
1.0
 40
1.0
 40
1.0
 40
1.0
 10
-77.5320741114
 20
-8.4901768675
 30
0.0
 10
-77.5240162627
 20
-8.5580375439
 30
0.0
 10
-77.4892319086
 20
-8.6879607079
 30
0.0
 10
-77.4072217932
 20
-8.7961148333
 30
0.0
 10
-77.3592564466
 20
-8.8373227532
 30
0.0
 11
-77.5320741114
 21
-8.4901768675
 31
0.0
 11
-77.4751434349
 21
-8.6871258485
 31
0.0
 11
-77.3592564466
 21
-8.8373227532
 31
0.0
  0
SPLINE
  5
5E7
100
AcDbEntity
  8
RACCORDO
100
AcDbSpline
 62
253
  6
CONTINUOUS
 70
0
 71
3
 72
21
 73
17
 74
15
 42
0.0000001
 43
0.0000001
 44
0.0000000001
 12
-0.1246761234
 22
0.2159513006
 32
0.0
 13
0.2159498205
 23
0.124678687
 33
0.0
 40
0.0
 40
0.0
 40
0.0
 40
0.0
 40
0.1950567068
 40
0.3829095638
 40
0.555756556
 40
0.7072039415
 40
0.7731000365
 40
0.831538382
 40
0.8819452735
 40
0.9238856831
 40
0.9569345375
 40
0.9807438825
 40
0.9891286791
 40
0.9951427672
 40
0.9987691609
 40
1.0
 40
1.0
 40
1.0
 40
1.0
 10
-60.4394592461
 20
-23.8897823885
 30
0.0
 10
-60.4475655507
 20
-23.8757414719
 30
0.0
 10
-60.463466617
 20
-23.8481711858
 30
0.0
 10
-60.4865094819
 20
-23.8081347568
 30
0.0
 10
-60.5077062416
 20
-23.7712182551
 30
0.0
 10
-60.5238210479
 20
-23.7430724557
 30
0.0
 10
-60.5351833383
 20
-23.7231644679
 30
0.0
 10
-60.5423707093
 20
-23.7105417271
 30
0.0
 10
-60.5485522525
 20
-23.6996431968
 30
0.0
 10
-60.5536902704
 20
-23.6905629749
 30
0.0
 10
-60.5576795892
 20
-23.6834156063
 30
0.0
 10
-60.5603732983
 20
-23.6786444627
 30
0.0
 10
-60.5618088407
 20
-23.6758956591
 30
0.0
 10
-60.5626499772
 20
-23.6745058359
 30
0.0
 10
-60.5628167678
 20
-23.6738204257
 30
0.0
 10
-60.5632388549
 20
-23.6733271906
 30
0.0
 10
-60.5631502551
 20
-23.6732760375
 30
0.0
 11
-60.4394592461
 21
-23.8897823885
 31
0.0
 11
-60.4637593328
 21
-23.8476487749
 31
0.0
 11
-60.4871244043
 21
-23.8070496027
 31
0.0
 11
-60.5085838058
 21
-23.7696709722
 31
0.0
 11
-60.5273437965
 21
-23.7368956477
 31
0.0
 11
-60.5354881969
 21
-23.7226243913
 31
0.0
 11
-60.5426967904
 21
-23.7099602566
 31
0.0
 11
-60.5488987552
 21
-23.6990275675
 31
0.0
 11
-60.5540406155
 21
-23.6899207468
 31
0.0
 11
-60.5580701272
 21
-23.6827320951
 31
0.0
 11
-60.5609447081
 21
-23.6775373691
 31
0.0
 11
-60.5619423086
 21
-23.6756999025
 31
0.0
 11
-60.562643883
 21
-23.6743744724
 31
0.0
 11
-60.5630472567
 21
-23.6735651577
 31
0.0
 11
-60.5631502551
 21
-23.6732760375
 31
0.0
  0
SPLINE
  5
5E8
100
AcDbEntity
  8
RACCORDO
100
AcDbSpline
 62
253
  6
CONTINUOUS
 70
0
 71
3
 72
21
 73
17
 74
15
 42
0.0000001
 43
0.0000001
 44
0.0000000001
 12
-0.2500055185
 22
0.0013090378
 32
0.0
 13
0.0013090019
 23
0.2500055187
 33
0.0
 40
0.0
 40
0.0
 40
0.0
 40
0.0
 40
0.0012384407
 40
0.0048700036
 40
0.0108900873
 40
0.0192820228
 40
0.0431088886
 40
0.0761794467
 40
0.1181454674
 40
0.1685796924
 40
0.2270451223
 40
0.2929667501
 40
0.4444496604
 40
0.6172940816
 40
0.8050851425
 40
1.0
 40
1.0
 40
1.0
 40
1.0
 10
-60.4394592461
 20
-24.4784208515
 30
0.0
 10
-60.4395624517
 20
-24.4784203111
 30
0.0
 10
-60.4394582209
 20
-24.4777829571
 30
0.0
 10
-60.4396486783
 20
-24.4770990665
 30
0.0
 10
-60.4396212961
 20
-24.4754712816
 30
0.0
 10
-60.4397446949
 20
-24.4723608703
 30
0.0
 10
-60.4397858204
 20
-24.4668646558
 30
0.0
 10
-60.4398759967
 20
-24.4586526338
 30
0.0
 10
-60.4399274014
 20
-24.4481863228
 30
0.0
 10
-60.4399718627
 20
-24.4356173943
 30
0.0
 10
-60.4399962196
 20
-24.4210472535
 30
0.0
 10
-60.4400074192
 20
-24.3980577547
 30
0.0
 10
-60.4399723229
 20
-24.3655355611
 30
0.0
 10
-60.4398656287
 20
-24.3228577319
 30
0.0
 10
-60.4396950101
 20
-24.2765604853
 30
0.0
 10
-60.439544294
 20
-24.2446675418
 30
0.0
 10
-60.4394592461
 20
-24.2284242785
 30
0.0
 11
-60.4394592461
 21
-24.4784208515
 31
0.0
 11
-60.4395216883
 21
-24.4781175921
 31
0.0
 11
-60.4395809342
 21
-24.477211604
 31
0.0
 11
-60.4396368266
 21
-24.4757075673
 31
0.0
 11
-60.4396892087
 21
-24.4736101624
 31
0.0
 11
-60.439782814
 21
-24.4676539683
 31
0.0
 11
-60.4398605599
 21
-24.4593863985
 31
0.0
 11
-60.4399217404
 21
-24.4488946963
 31
0.0
 11
-60.4399658665
 21
-24.4362857661
 31
0.0
 11
-60.4399924677
 21
-24.4216689098
 31
0.0
 11
-60.4400013365
 21
-24.4051879155
 31
0.0
 11
-60.4399658665
 21
-24.3673158495
 31
0.0
 11
-60.4398605599
 21
-24.3241033263
 31
0.0
 11
-60.4396892087
 21
-24.2771541938
 31
0.0
 11
-60.4394592461
 21
-24.2284242785
 31
0.0
  0
SPLINE
  5
5E9
100
AcDbEntity
  8
RACCORDO
100
AcDbSpline
 62
253
  6
CONTINUOUS
 70
0
 71
3
 72
12
 73
8
 74
6
 42
0.0000001
 43
0.0000001
 44
0.0000000001
 12
1.2458901018
 22
-1.9935723514
 32
0.0
 13
0.0969119587
 23
-2.3488680122
 33
0.0
 40
0.0
 40
0.0
 40
0.0
 40
0.0
 40
0.1475078012
 40
0.2886982301
 40
0.5517239336
 40
0.7885919732
 40
1.0
 40
1.0
 40
1.0
 40
1.0
 10
-67.9723229823
 20
-17.6605853311
 30
0.0
 10
-67.9110634791
 20
-17.7586078225
 30
0.0
 10
-67.8022150022
 20
-17.9574531107
 30
0.0
 10
-67.6260380585
 20
-18.3525527515
 30
0.0
 10
-67.4644156039
 20
-18.8294994747
 30
0.0
 10
-67.3400463115
 20
-19.3736192696
 30
0.0
 10
-67.2990667684
 20
-19.723622812
 30
0.0
 10
-67.2922374464
 20
-19.8891459959
 30
0.0
 11
-67.9723229823
 21
-17.6605853311
 31
0.0
 11
-67.8041827163
 21
-17.9638658462
 31
0.0
 11
-67.6682573356
 21
-18.2666777824
 31
0.0
 11
-67.4685134818
 21
-18.851865474
 31
0.0
 11
-67.3460370335
 21
-19.3950744617
 31
0.0
 11
-67.2922374464
 21
-19.8891459959
 31
0.0
  0
LINE
  5
5EA
100
AcDbEntity
  8
RACCORDO
100
AcDbLine
 62
253
  6
CONTINUOUS
 10
-67.2922374464
 20
-19.8891459959
 11
-67.2920403634
 21
-19.8940123241
  0
SPLINE
  5
5EB
100
AcDbEntity
  8
RACCORDO
100
AcDbSpline
 62
7
  6
CONTINUOUS
 70
0
 71
3
 72
12
 73
8
 74
6
 42
0.0000001
 43
0.0000001
 44
0.0000000001
 12
0.0
 22
-0.50046844
 32
0.0
 13
0.0112777486
 23
-0.5003665333
 33
0.0
 40
0.0
 40
0.0
 40
0.0
 40
0.0
 40
0.194918434
 40
0.3825330178
 40
0.7069558408
 40
0.9238430038
 40
1.0
 40
1.0
 40
1.0
 40
1.0
 10
-58.1881502551
 20
-21.8449873173
 30
0.0
 10
-58.1881502551
 20
-21.8775041589
 30
0.0
 10
-58.1890222626
 20
-21.941315722
 30
0.0
 10
-58.1896622218
 20
-22.0592512886
 30
0.0
 10
-58.1891814013
 20
-22.1808509334
 30
0.0
 10
-58.1892369925
 20
-22.283862952
 30
0.0
 10
-58.1884365483
 20
-22.3327426838
 30
0.0
 10
-58.1881502551
 20
-22.3454448212
 30
0.0
 11
-58.1881502551
 21
-21.8449873173
 31
0.0
 11
-58.1889024137
 21
-21.9425349421
 31
0.0
 11
-58.1894308045
 21
-22.0364286335
 31
0.0
 11
-58.1892562286
 21
-22.1987919238
 31
0.0
 11
-58.1887967479
 21
-22.3073361314
 31
0.0
 11
-58.1881502551
 21
-22.3454448212
 31
0.0
  0
SPLINE
  5
5EC
100
AcDbEntity
  8
RACCORDO
100
AcDbSpline
 62
253
  6
CONTINUOUS
 70
0
 71
3
 72
9
 73
5
 74
3
 42
0.0000001
 43
0.0000001
 44
0.0000000001
 12
4.2882187591
 22
-4.3348300826
 32
0.0
 13
4.3732042675
 23
-4.2490771239
 33
0.0
 40
0.0
 40
0.0
 40
0.0
 40
0.0
 40
0.5314153005
 40
1.0
 40
1.0
 40
1.0
 40
1.0
 10
-72.5463668179
 20
-13.1513754591
 30
0.0
 10
-71.7867584644
 20
-13.9192404694
 30
0.0
 10
-70.3452282689
 20
-15.3522090009
 30
0.0
 10
-68.8889161975
 20
-16.7700381573
 30
0.0
 10
-68.205843995
 20
-17.4337223331
 30
0.0
 11
-72.5463668179
 21
-13.1513754591
 31
0.0
 11
-70.2504816257
 21
-15.4379678818
 31
0.0
 11
-68.205843995
 21
-17.4337223331
 31
0.0
  0
LINE
  5
5ED
100
AcDbEntity
  8
RACCORDO
100
AcDbLine
 62
253
  6
CONTINUOUS
 10
-68.205843995
 20
-17.4337223331
 11
-67.9723227977
 21
-17.6605993843
  0
SPLINE
  5
5EE
100
AcDbEntity
  8
RACCORDO
100
AcDbSpline
 62
253
  6
CONTINUOUS
 70
0
 71
3
 72
9
 73
5
 74
3
 42
0.0000001
 43
0.0000001
 44
0.0000000001
 12
0.1538945956
 22
-6.3974030902
 32
0.0
 13
0.2116251935
 23
-6.3957536399
 33
0.0
 40
0.0
 40
0.0
 40
0.0
 40
0.0
 40
0.5852929808
 40
1.0
 40
1.0
 40
1.0
 40
1.0
 10
-68.1643535896
 20
-11.2642465332
 30
0.0
 10
-68.134329114
 20
-12.5123649079
 30
0.0
 10
-68.0741840906
 20
-14.6446292239
 30
0.0
 10
-68.0015769488
 20
-16.7764780751
 30
0.0
 10
-67.9723227977
 20
-17.6605993843
 30
0.0
 11
-68.1643535896
 21
-11.2642465332
 31
0.0
 11
-68.0596550726
 21
-15.0082212577
 31
0.0
 11
-67.9723227977
 21
-17.6605993843
 31
0.0
  0
SPLINE
  5
5EF
100
AcDbEntity
  8
RACCORDO
100
AcDbSpline
 62
253
  6
CONTINUOUS
 70
0
 71
3
 72
11
 73
7
 74
5
 42
0.0000001
 43
0.0000001
 44
0.0000000001
 12
5.1665504884
 22
-4.4475589753
 32
0.0
 13
4.7943459896
 23
-4.8464699855
 33
0.0
 40
0.0
 40
0.0
 40
0.0
 40
0.0
 40
0.2176677259
 40
0.4635548269
 40
0.7281360517
 40
1.0
 40
1.0
 40
1.0
 40
1.0
 10
-77.5247818737
 20
-8.4964429132
 30
0.0
 10
-77.1499181084
 20
-8.8191395958
 30
0.0
 10
-76.3594412399
 20
-9.5155130723
 30
0.0
 10
-75.1387968518
 20
-10.6326767213
 30
0.0
 10
-73.8487676732
 20
-11.8560359429
 30
0.0
 10
-72.9808367613
 20
-12.7121819705
 30
0.0
 10
-72.5463668179
 20
-13.1513754591
 30
0.0
 11
-77.5247818737
 21
-8.4964429132
 31
0.0
 11
-76.4105114497
 21
-9.476394619
 31
0.0
 11
-75.1733859873
 21
-10.6074833893
 31
0.0
 11
-73.8648248405
 21
-11.848853324
 31
0.0
 11
-72.5463668179
 21
-13.1513754591
 31
0.0
  0
LINE
  5
5F0
100
AcDbEntity
  8
RACCORDO
100
AcDbLine
 62
253
  6
CONTINUOUS
 10
-68.207079562
 20
-9.3253336917
 11
-68.2066476518
 21
-9.3316635153
  0
LINE
  5
5F1
100
AcDbEntity
  8
RACCORDO
100
AcDbLine
 62
253
  6
CONTINUOUS
 10
-77.5320741114
 20
-8.4901768675
 11
-77.5247818737
 21
-8.4964429132
  0
SPLINE
  5
5F2
100
AcDbEntity
  8
RACCORDO
100
AcDbSpline
 62
253
  6
CONTINUOUS
 70
0
 71
3
 72
20
 73
16
 74
14
 42
0.0000001
 43
0.0000001
 44
0.0000000001
 12
0.8612336982
 22
-0.3273347958
 32
0.0
 13
0.7293569975
 23
-0.5629475301
 33
0.0
 40
0.0
 40
0.0
 40
0.0
 40
0.0
 40
0.00387204
 40
0.0087036921
 40
0.0154665602
 40
0.0347883438
 40
0.0618422221
 40
0.0966387344
 40
0.1392067864
 40
0.1895791559
 40
0.2477888452
 40
0.3878638838
 40
0.5597462363
 40
0.7637264357
 40
1.0
 40
1.0
 40
1.0
 40
1.0
 10
-80.1793468239
 20
-6.3760546775
 30
0.0
 10
-80.1782352468
 20
-6.376477162
 30
0.0
 10
-80.1762731099
 20
-6.3784348758
 30
0.0
 10
-80.1722842616
 20
-6.3809679259
 30
0.0
 10
-80.1646070809
 20
-6.3865865276
 30
0.0
 10
-80.1512634035
 20
-6.3959594276
 30
0.0
 10
-80.1309967043
 20
-6.410486936
 30
0.0
 10
-80.104914423
 20
-6.4291398803
 30
0.0
 10
-80.0730707617
 20
-6.4520535476
 30
0.0
 10
-80.0354512727
 20
-6.4792490472
 30
0.0
 10
-79.9736827696
 20
-6.5241541298
 30
0.0
 10
-79.8820270738
 20
-6.5914098335
 30
0.0
 10
-79.7548920807
 20
-6.6859827408
 30
0.0
 10
-79.6048370491
 20
-6.7992364905
 30
0.0
 10
-79.4975136916
 20
-6.8814760028
 30
0.0
 10
-79.4400710991
 20
-6.9258125427
 30
0.0
 11
-80.1793468239
 21
-6.3760546775
 31
0.0
 11
-80.1764335206
 21
-6.3781136906
 31
0.0
 11
-80.1728016138
 21
-6.3806878006
 31
0.0
 11
-80.1677208373
 21
-6.3842947419
 31
0.0
 11
-80.1532165763
 21
-6.3946164061
 31
0.0
 11
-80.1329285399
 21
-6.4090972602
 31
0.0
 11
-80.1068633963
 21
-6.4277632625
 31
0.0
 11
-80.0750241584
 21
-6.450664165
 31
0.0
 11
-80.0374131041
 21
-6.4778545045
 31
0.0
 11
-79.9940325134
 21
-6.5093888271
 31
0.0
 11
-79.8899776641
 21
-6.5857322025
 31
0.0
 11
-79.7629022546
 21
-6.6802335971
 31
0.0
 11
-79.6128815108
 21
-6.7934305827
 31
0.0
 11
-79.4400710991
 21
-6.9258125427
 31
0.0
  0
LINE
  5
5F3
100
AcDbEntity
  8
RACCORDO
100
AcDbLine
 62
253
  6
CONTINUOUS
 10
-79.2627962354
 20
-7.0636178093
 11
-79.2235480295
 21
-7.0943806195
  0
LINE
  5
5F4
100
AcDbEntity
  8
RACCORDO
100
AcDbLine
 62
253
  6
CONTINUOUS
 10
-68.2066476437
 20
9.3407738808
 11
-68.2070795701
 21
9.3344438188
  0
LINE
  5
5F5
100
AcDbEntity
  8
RACCORDO
100
AcDbLine
 62
253
  6
CONTINUOUS
 10
-72.6762571493
 20
-13.211661444
 11
-72.6777572798
 21
-13.2095925657
  0
SPLINE
  5
5F6
100
AcDbEntity
  8
RACCORDO
100
AcDbSpline
 62
253
  6
CONTINUOUS
 70
0
 71
3
 72
21
 73
17
 74
15
 42
0.0000001
 43
0.0000001
 44
0.0000000001
 12
-0.4991947832
 22
-0.02616169
 32
0.0
 13
0.0261537433
 23
-0.4991951996
 33
0.0
 40
0.0
 40
0.0
 40
0.0
 40
0.0
 40
0.0014788692
 40
0.0051916134
 40
0.011255161
 40
0.0196761159
 40
0.0435524168
 40
0.0766325766
 40
0.1185729986
 40
0.1690035847
 40
0.2274321423
 40
0.2932879702
 40
0.4447375548
 40
0.6174756871
 40
0.8050549841
 40
1.0
 40
1.0
 40
1.0
 40
1.0
 10
-65.8469890505
 20
21.9531724457
 30
0.0
 10
-65.8472351318
 20
21.9531595491
 30
0.0
 10
-65.8475180988
 20
21.9520282124
 30
0.0
 10
-65.8477843485
 20
21.9504334464
 30
0.0
 10
-65.8480282526
 20
21.9472665545
 30
0.0
 10
-65.848306635
 20
21.9409659369
 30
0.0
 10
-65.8484350559
 20
21.9300079047
 30
0.0
 10
-65.8483468314
 20
21.9135594372
 30
0.0
 10
-65.848002618
 20
21.8926467725
 30
0.0
 10
-65.8474052306
 20
21.8675306417
 30
0.0
 10
-65.8465565073
 20
21.8384293668
 30
0.0
 10
-65.845025828
 20
21.7925107159
 30
0.0
 10
-65.8425232623
 20
21.7275665438
 30
0.0
 10
-65.8388372355
 20
21.6423721425
 30
0.0
 10
-65.8344741334
 20
21.5499533246
 30
0.0
 10
-65.8312467896
 20
21.486296217
 30
0.0
 10
-65.8295472756
 20
21.4538576783
 30
0.0
 11
-65.8469890505
 21
21.9531724457
 31
0.0
 11
-65.8473833466
 21
21.9525471207
 31
0.0
 11
-65.8477142826
 21
21.9507209381
 31
0.0
 11
-65.8479810538
 21
21.9477016553
 31
0.0
 11
-65.8481828557
 21
21.9434970296
 31
0.0
 11
-65.8483883872
 21
21.9315635177
 31
0.0
 11
-65.8483277252
 21
21.9150275236
 31
0.0
 11
-65.8480027257
 21
21.8940648709
 31
0.0
 11
-65.8474159745
 21
21.8688624663
 31
0.0
 11
-65.846573537
 21
21.8396673596
 31
0.0
 11
-65.8454837235
 21
21.8067654022
 31
0.0
 11
-65.8426042105
 21
21.7311135876
 31
0.0
 11
-65.8388898731
 21
21.6448452002
 31
0.0
 11
-65.8344787311
 21
21.5511819046
 31
0.0
 11
-65.8295472756
 21
21.4538576783
 31
0.0
  0
SPLINE
  5
5F7
100
AcDbEntity
  8
RACCORDO
100
AcDbSpline
 62
7
  6
CONTINUOUS
 70
0
 71
3
 72
12
 73
8
 74
6
 42
0.0000001
 43
0.0000001
 44
0.0000000001
 12
-0.0112777486
 22
-0.5003665333
 32
0.0
 13
0.0
 23
-0.50046844
 33
0.0
 40
0.0
 40
0.0
 40
0.0
 40
0.0
 40
0.0761569962
 40
0.2930441592
 40
0.6174669822
 40
0.805081566
 40
1.0
 40
1.0
 40
1.0
 40
1.0
 10
-58.1881502551
 20
22.3545551788
 30
0.0
 10
-58.1884365483
 20
22.3418530415
 30
0.0
 10
-58.1892369925
 20
22.2929733097
 30
0.0
 10
-58.1891814013
 20
22.1899612911
 30
0.0
 10
-58.1896622218
 20
22.0683616463
 30
0.0
 10
-58.1890222626
 20
21.9504260797
 30
0.0
 10
-58.1881502551
 20
21.8866145166
 30
0.0
 10
-58.1881502551
 20
21.854097675
 30
0.0
 11
-58.1881502551
 21
22.3545551788
 31
0.0
 11
-58.1887967479
 21
22.3164464891
 31
0.0
 11
-58.1892562286
 21
22.2079022814
 31
0.0
 11
-58.1894308045
 21
22.0455389912
 31
0.0
 11
-58.1889024137
 21
21.9516452998
 31
0.0
 11
-58.1881502551
 21
21.854097675
 31
0.0
  0
SPLINE
  5
5F8
100
AcDbEntity
  8
RACCORDO
100
AcDbSpline
 62
7
  6
CONTINUOUS
 70
0
 71
3
 72
10
 73
6
 74
4
 42
0.0000001
 43
0.0000001
 44
0.0000000001
 12
0.2470511738
 22
0.1471364492
 32
0.0
 13
0.2490186178
 23
0.1437739222
 33
0.0
 40
0.0
 40
0.0
 40
0.0
 40
0.0
 40
0.086531514
 40
0.4709630139
 40
1.0
 40
1.0
 40
1.0
 40
1.0
 10
-59.6881502551
 20
23.1772049097
 30
0.0
 10
-59.6810243511
 20
23.1814488896
 30
0.0
 10
-59.6421776175
 20
23.2044405814
 30
0.0
 10
-59.5591157283
 20
23.2522734363
 30
0.0
 10
-59.4833725991
 20
23.2961885695
 30
0.0
 10
-59.4394592461
 20
23.321542477
 30
0.0
 11
-59.6881502551
 21
23.1772049097
 31
0.0
 11
-59.6667402925
 21
23.1898818912
 31
0.0
 11
-59.5711501862
 21
23.2453957431
 31
0.0
 11
-59.4394592461
 21
23.321542477
 31
0.0
  0
SPLINE
  5
5F9
100
AcDbEntity
  8
RACCORDO
100
AcDbSpline
 62
253
  6
CONTINUOUS
 70
0
 71
3
 72
21
 73
17
 74
15
 42
0.0000001
 43
0.0000001
 44
0.0000000001
 12
-0.2159498198
 22
0.1246786866
 32
0.0
 13
0.124676123
 23
0.2159512999
 33
0.0
 40
0.0
 40
0.0
 40
0.0
 40
0.0
 40
0.0012309956
 40
0.0048577891
 40
0.0108724035
 40
0.0192577379
 40
0.0430677323
 40
0.0761167291
 40
0.1180576822
 40
0.1684649141
 40
0.2269030746
 40
0.2927992599
 40
0.4442465838
 40
0.617092682
 40
0.8049439107
 40
1.0
 40
1.0
 40
1.0
 40
1.0
 10
-60.5631502551
 20
23.6823863952
 30
0.0
 10
-60.5632388662
 20
23.6824375548
 30
0.0
 10
-60.562816715
 20
23.6829308414
 30
0.0
 10
-60.5626499147
 20
23.6836163212
 30
0.0
 10
-60.5618087022
 20
23.6850062534
 30
0.0
 10
-60.5603730952
 20
23.6877551806
 30
0.0
 10
-60.5576793318
 20
23.6925264207
 30
0.0
 10
-60.5536899608
 20
23.6996738878
 30
0.0
 10
-60.5485518981
 20
23.7087541821
 30
0.0
 10
-60.5423703244
 20
23.719652762
 30
0.0
 10
-60.5351829428
 20
23.7322755201
 30
0.0
 10
-60.523820657
 20
23.7521834956
 30
0.0
 10
-60.5077058865
 20
23.7803292324
 30
0.0
 10
-60.4865092328
 20
23.8172455472
 30
0.0
 10
-60.4634664984
 20
23.85728175
 30
0.0
 10
-60.4475655251
 20
23.8848518741
 30
0.0
 10
-60.4394592461
 20
23.8988927461
 30
0.0
 11
-60.5631502551
 21
23.6823863952
 31
0.0
 11
-60.5630472371
 21
23.6826755498
 31
0.0
 11
-60.5626438141
 21
23.6834849513
 31
0.0
 11
-60.561942175
 21
23.6848104957
 31
0.0
 11
-60.5609445085
 21
23.6866480791
 31
0.0
 11
-60.5580698492
 21
23.6918429467
 31
0.0
 11
-60.5540403213
 21
23.69903163
 31
0.0
 11
-60.5488983928
 21
23.7081385678
 31
0.0
 11
-60.5426963843
 21
23.7190713296
 31
0.0
 11
-60.5354878127
 21
23.7317354237
 31
0.0
 11
-60.5273434001
 21
23.7460066989
 31
0.0
 11
-60.5085834162
 21
23.7787820095
 31
0.0
 11
-60.4871241251
 21
23.8161604462
 31
0.0
 11
-60.463759256
 21
23.8567592662
 31
0.0
 11
-60.4394592461
 21
23.8988927461
 31
0.0
  0
SPLINE
  5
5FA
100
AcDbEntity
  8
RACCORDO
100
AcDbSpline
 62
253
  6
CONTINUOUS
 70
0
 71
3
 72
21
 73
17
 74
15
 42
0.0000001
 43
0.0000001
 44
0.0000000001
 12
-0.4991947837
 22
0.02616169
 32
0.0
 13
0.0261537536
 23
0.4991951996
 33
0.0
 40
0.0
 40
0.0
 40
0.0
 40
0.0
 40
0.0014788699
 40
0.0051916148
 40
0.0112551632
 40
0.019676119
 40
0.0435524214
 40
0.0766325843
 40
0.1185730097
 40
0.169003598
 40
0.2274321592
 40
0.2932879889
 40
0.4447375763
 40
0.6174757071
 40
0.8050549917
 40
1.0
 40
1.0
 40
1.0
 40
1.0
 10
-65.8469890505
 20
-21.944062088
 30
0.0
 10
-65.8472351319
 20
-21.9440491914
 30
0.0
 10
-65.8475180995
 20
-21.9429178547
 30
0.0
 10
-65.8477843494
 20
-21.9413230882
 30
0.0
 10
-65.8480282539
 20
-21.938156196
 30
0.0
 10
-65.8483066368
 20
-21.9318555779
 30
0.0
 10
-65.8484350585
 20
-21.9208975448
 30
0.0
 10
-65.8483468345
 20
-21.9044490759
 30
0.0
 10
-65.8480026216
 20
-21.8835364097
 30
0.0
 10
-65.8474052346
 20
-21.8584202774
 30
0.0
 10
-65.8465565113
 20
-21.8293190011
 30
0.0
 10
-65.8450258321
 20
-21.7834003488
 30
0.0
 10
-65.842523266
 20
-21.7184561762
 30
0.0
 10
-65.8388372383
 20
-21.6332617767
 30
0.0
 10
-65.834474135
 20
-21.5408429624
 30
0.0
 10
-65.8312467902
 20
-21.4771858581
 30
0.0
 10
-65.8295472756
 20
-21.4447473206
 30
0.0
 11
-65.8469890505
 21
-21.944062088
 31
0.0
 11
-65.8473833471
 21
-21.9434367629
 31
0.0
 11
-65.8477142834
 21
-21.94161058
 31
0.0
 11
-65.847981055
 21
-21.9385912968
 31
0.0
 11
-65.8481828573
 21
-21.9343866707
 31
0.0
 11
-65.8483883896
 21
-21.922453158
 31
0.0
 11
-65.8483277283
 21
-21.9059171624
 31
0.0
 11
-65.8480027292
 21
-21.884954508
 31
0.0
 11
-65.8474159784
 21
-21.8597521022
 31
0.0
 11
-65.846573541
 21
-21.8305569937
 31
0.0
 11
-65.8454837275
 21
-21.7976550353
 31
0.0
 11
-65.8426042142
 21
-21.7220032192
 31
0.0
 11
-65.8388898758
 21
-21.6357348325
 31
0.0
 11
-65.8344787327
 21
-21.5420715431
 31
0.0
 11
-65.8295472756
 21
-21.4447473206
 31
0.0
  0
SPLINE
  5
5FB
100
AcDbEntity
  8
RACCORDO
100
AcDbSpline
 62
253
  6
CONTINUOUS
 70
0
 71
3
 72
21
 73
17
 74
15
 42
0.0000001
 43
0.0000001
 44
0.0000000001
 12
-0.0013090019
 22
0.2500055227
 32
0.0
 13
0.2500055225
 23
0.0013090378
 33
0.0
 40
0.0
 40
0.0
 40
0.0
 40
0.0
 40
0.1949175104
 40
0.3827157676
 40
0.5555641092
 40
0.7070467403
 40
0.7729674987
 40
0.8314332864
 40
0.8818659651
 40
0.9238296935
 40
0.9568995691
 40
0.9807240104
 40
0.9891139418
 40
0.9951320648
 40
0.9987621395
 40
1.0
 40
1.0
 40
1.0
 40
1.0
 10
-60.4394592461
 20
24.2375346361
 30
0.0
 10
-60.4395442952
 20
24.2537781208
 30
0.0
 10
-60.4396950129
 20
24.2856718857
 30
0.0
 10
-60.439865637
 20
24.3319702805
 30
0.0
 10
-60.4399723273
 20
24.3746490135
 30
0.0
 10
-60.4400074241
 20
24.4071714386
 30
0.0
 10
-60.4399962141
 20
24.4301608718
 30
0.0
 10
-60.4399718547
 20
24.4447308415
 30
0.0
 10
-60.4399273855
 20
24.4572994799
 30
0.0
 10
-60.4398759679
 20
24.4677654146
 30
0.0
 10
-60.4397858067
 20
24.4759769857
 30
0.0
 10
-60.4397446848
 20
24.4814727728
 30
0.0
 10
-60.4396213071
 20
24.4845826637
 30
0.0
 10
-60.4396486442
 20
24.4862099532
 30
0.0
 10
-60.4394582849
 20
24.4868936019
 30
0.0
 10
-60.4395624034
 20
24.4875306691
 30
0.0
 10
-60.4394592461
 20
24.4875312092
 30
0.0
 11
-60.4394592461
 21
24.2375346361
 31
0.0
 11
-60.4396892104
 21
24.2862652156
 31
0.0
 11
-60.4398605674
 21
24.3332161479
 31
0.0
 11
-60.4399658722
 21
24.3764296519
 31
0.0
 11
-60.4400013374
 21
24.4143016487
 31
0.0
 11
-60.4399924628
 21
24.4307824259
 31
0.0
 11
-60.4399658566
 21
24.4453993719
 31
0.0
 11
-60.4399217222
 21
24.4580079157
 31
0.0
 11
-60.4398605367
 21
24.4684990449
 31
0.0
 11
-60.4397827978
 21
24.4767664443
 31
0.0
 11
-60.4396892021
 21
24.4827220324
 31
0.0
 11
-60.439636823
 21
24.4848189362
 31
0.0
 11
-60.4395809326
 21
24.4863224824
 31
0.0
 11
-60.439521688
 21
24.4872280978
 31
0.0
 11
-60.4394592461
 21
24.4875312092
 31
0.0
  0
SPLINE
  5
5FC
100
AcDbEntity
  8
RACCORDO
100
AcDbSpline
 62
253
  6
CONTINUOUS
 70
0
 71
3
 72
33
 73
29
 74
27
 42
0.0000001
 43
0.0000001
 44
0.0000000001
 12
-5.0252911568
 22
-8.6193541753
 32
0.0
 13
-0.1982770063
 23
-9.9753447978
 33
0.0
 40
0.0
 40
0.0
 40
0.0
 40
0.0
 40
0.0000893157
 40
0.0003541067
 40
0.0007892243
 40
0.0013898869
 40
0.0021516207
 40
0.0030708303
 40
0.0053508905
 40
0.0081780873
 40
0.0115245687
 40
0.0153770959
 40
0.0197258876
 40
0.0298793093
 40
0.041973954
 40
0.0560265994
 40
0.0720539811
 40
0.0900588712
 40
0.1100321504
 40
0.155834817
 40
0.209349735
 40
0.2704407552
 40
0.3389293165
 40
0.4145682529
 40
0.4970774566
 40
0.586132869
 40
0.7824007893
 40
1.0
 40
1.0
 40
1.0
 40
1.0
 10
-67.9204449188
 20
19.3137540852
 30
0.0
 10
-67.9205945313
 20
19.3134974706
 30
0.0
 10
-67.9204613807
 20
19.3122358685
 30
0.0
 10
-67.9210233686
 20
19.3097165259
 30
0.0
 10
-67.9213455092
 20
19.3053671077
 30
0.0
 10
-67.9220227554
 20
19.2994419813
 30
0.0
 10
-67.9227277874
 20
19.2918808258
 30
0.0
 10
-67.9239637767
 20
19.2787681173
 30
0.0
 10
-67.9254109745
 20
19.2587735924
 30
0.0
 10
-67.9268867431
 20
19.2306969814
 30
0.0
 10
-67.9282331721
 20
19.1973786031
 30
0.0
 10
-67.9295568201
 20
19.1589960401
 30
0.0
 10
-67.9313320126
 20
19.0979777669
 30
0.0
 10
-67.9331973474
 20
19.0095417369
 30
0.0
 10
-67.9357928878
 20
18.8888419863
 30
0.0
 10
-67.9390985444
 20
18.7486173539
 30
0.0
 10
-67.9433628023
 20
18.5887545269
 30
0.0
 10
-67.9486351244
 20
18.4092216607
 30
0.0
 10
-67.9572170671
 20
18.1307178662
 30
0.0
 10
-67.9700934287
 20
17.7341924868
 30
0.0
 10
-67.9879280469
 20
17.2010082984
 30
0.0
 10
-68.0083345943
 20
16.5924198176
 30
0.0
 10
-68.0310186775
 20
15.9102869087
 30
0.0
 10
-68.0553969344
 20
15.156939179
 30
0.0
 10
-68.0809938951
 20
14.3351948685
 30
0.0
 10
-68.1171272239
 20
13.1124011217
 30
0.0
 10
-68.1618803007
 20
11.4403896401
 30
0.0
 10
-68.192418714
 20
10.0642946167
 30
0.0
 10
-68.206800354
 20
9.340752232
 30
0.0
 11
-67.9204449188
 21
19.3137540852
 31
0.0
 11
-67.9205518752
 21
19.312869396
 31
0.0
 11
-67.9208555627
 21
19.3102450052
 31
0.0
 11
-67.9213280986
 21
19.3059294938
 31
0.0
 11
-67.921944124
 21
19.2999682384
 31
0.0
 11
-67.9226801731
 21
19.2924039065
 31
0.0
 11
-67.9235201487
 21
19.2832712095
 31
0.0
 11
-67.9252128409
 21
19.2605853922
 31
0.0
 11
-67.9267439426
 21
19.2324191433
 31
0.0
 11
-67.9281346193
 21
19.1990592175
 31
0.0
 11
-67.929467529
 21
19.1606444578
 31
0.0
 11
-67.9307359484
 21
19.117273736
 31
0.0
 11
-67.9330675387
 21
19.0159966837
 31
0.0
 11
-67.9356913734
 21
18.8953531301
 31
0.0
 11
-67.9390113953
 21
18.7551847719
 31
0.0
 11
-67.943254941
 21
18.5953308495
 31
0.0
 11
-67.948483997
 21
18.4157665072
 31
0.0
 11
-67.9546046831
 21
18.216580824
 31
0.0
 11
-67.9693294325
 21
17.759830472
 31
0.0
 11
-67.9870924945
 21
17.2261908237
 31
0.0
 11
-68.0074836889
 21
16.6170076446
 31
0.0
 11
-68.0301316133
 21
15.9340511017
 31
0.0
 11
-68.0545125286
 21
15.1797715305
 31
0.0
 11
-68.0801052387
 21
14.3569491185
 31
0.0
 11
-68.1063383751
 21
13.4688025415
 31
0.0
 11
-68.1585675396
 21
11.5112722899
 31
0.0
 11
-68.206800354
 21
9.340752232
 31
0.0
  0
SPLINE
  5
5FD
100
AcDbEntity
  8
RACCORDO
100
AcDbSpline
 62
7
  6
CONTINUOUS
 70
0
 71
3
 72
16
 73
12
 74
10
 42
0.0000001
 43
0.0000001
 44
0.0000000001
 12
-0.3818175655
 22
-1.0002444762
 32
0.0
 13
-1.0704786431
 23
-0.0186852905
 33
0.0
 40
0.0
 40
0.0
 40
0.0
 40
0.0
 40
0.1183308414
 40
0.2392761397
 40
0.3006991053
 40
0.3626507949
 40
0.4878654312
 40
0.61460025
 40
0.7424614219
 40
0.8710648589
 40
1.0
 40
1.0
 40
1.0
 40
1.0
 10
-38.4437601367
 20
-21.5750690742
 30
0.0
 10
-38.4588204013
 20
-21.614522331
 30
0.0
 10
-38.4998532231
 20
-21.6904513967
 30
0.0
 10
-38.569319459
 20
-21.7729883743
 30
0.0
 10
-38.6333436558
 20
-21.8322901363
 30
0.0
 10
-38.7029362828
 20
-21.8874358821
 30
0.0
 10
-38.7979975541
 20
-21.9474076285
 30
0.0
 10
-38.9211659487
 20
-22.0047625487
 30
0.0
 10
-39.0513906539
 20
-22.0475454587
 30
0.0
 10
-39.1864201203
 20
-22.0751869108
 30
0.0
 10
-39.2782977192
 20
-22.0828271816
 30
0.0
 10
-39.3243051575
 20
-22.0836302451
 30
0.0
 11
-38.4437601367
 21
-21.5750690742
 31
0.0
 11
-38.5028884198
 21
-21.687114536
 31
0.0
 11
-38.5855593634
 21
-21.7867786574
 31
0.0
 11
-38.6337524706
 21
-21.8315230827
 31
0.0
 11
-38.6856951462
 21
-21.8727707536
 31
0.0
 11
-38.7988720537
 21
-21.9446252901
 31
0.0
 11
-38.9217814597
 21
-22.0021091839
 31
0.0
 11
-39.0518094407
 21
-22.0449175408
 31
0.0
 11
-39.1867143049
 21
-22.0724623946
 31
0.0
 11
-39.3243051575
 21
-22.0836302451
 31
0.0
  0
SPLINE
  5
5FE
100
AcDbEntity
  8
RACCORDO
100
AcDbSpline
 62
253
  6
CONTINUOUS
 70
0
 71
3
 72
32
 73
28
 74
26
 42
0.0000001
 43
0.0000001
 44
0.0000000001
 12
0.9998443381
 22
-0.018198772
 32
0.0
 13
-0.0087245516
 23
-0.9999718885
 33
0.0
 40
0.0
 40
0.0
 40
0.0
 40
0.0
 40
0.0003710795
 40
0.0013009336
 40
0.0028221295
 40
0.0049396101
 40
0.0076540624
 40
0.0109644521
 40
0.0148693065
 40
0.0193668192
 40
0.0301285532
 40
0.0432248361
 40
0.0586243589
 40
0.0762907825
 40
0.09618126
 40
0.1182485499
 40
0.1424391886
 40
0.168695283
 40
0.2271459109
 40
0.2930380829
 40
0.3657376229
 40
0.4445446752
 40
0.5287005186
 40
0.6173949684
 40
0.7097739366
 40
0.8049487063
 40
1.0
 40
1.0
 40
1.0
 40
1.0
 10
-37.3794240536
 20
-4.4868696051
 30
0.0
 10
-37.3793003797
 20
-4.4868718562
 30
0.0
 10
-37.3791339868
 20
-4.4874297863
 30
0.0
 10
-37.3789648826
 20
-4.4882251976
 30
0.0
 10
-37.3787727794
 20
-4.4898081755
 30
0.0
 10
-37.3785878985
 20
-4.4918866805
 30
0.0
 10
-37.3784027763
 20
-4.4946067718
 30
0.0
 10
-37.3782231706
 20
-4.497907517
 30
0.0
 10
-37.3780481501
 20
-4.5018094181
 30
0.0
 10
-37.3778077708
 20
-4.5081923941
 30
0.0
 10
-37.3775325096
 20
-4.5176408568
 30
0.0
 10
-37.3772408253
 20
-4.5307234763
 30
0.0
 10
-37.3769737321
 20
-4.5461088264
 30
0.0
 10
-37.3767322115
 20
-4.5637595012
 30
0.0
 10
-37.3765173251
 20
-4.5836332956
 30
0.0
 10
-37.3763298302
 20
-4.6056822003
 30
0.0
 10
-37.3761702919
 20
-4.6298532682
 30
0.0
 10
-37.3759891222
 20
-4.6661523098
 30
0.0
 10
-37.3758446641
 20
-4.7163522884
 30
0.0
 10
-37.3757919717
 20
-4.7820337343
 30
0.0
 10
-37.3758561577
 20
-4.8545007112
 30
0.0
 10
-37.3760369356
 20
-4.9330554519
 30
0.0
 10
-37.3763329526
 20
-5.0169415647
 30
0.0
 10
-37.37674156
 20
-5.1053512694
 30
0.0
 10
-37.3772589696
 20
-5.1974334762
 30
0.0
 10
-37.3780943537
 20
-5.3249670317
 30
0.0
 10
-37.3788568528
 20
-5.4217070748
 30
0.0
 10
-37.3794240979
 20
-5.486722345
 30
0.0
 11
-37.3794240536
 21
-4.4868696051
 31
0.0
 11
-37.3792126512
 21
-4.4871745834
 31
0.0
 11
-37.3790066206
 21
-4.4880813344
 31
0.0
 11
-37.3788060874
 21
-4.4895892698
 31
0.0
 11
-37.3786111771
 21
-4.491697782
 31
0.0
 11
-37.3784220099
 21
-4.4944056619
 31
0.0
 11
-37.3782386998
 21
-4.4977110054
 31
0.0
 11
-37.3780613604
 21
-4.5016118696
 31
0.0
 11
-37.3778901032
 21
-4.5061061653
 31
0.0
 11
-37.3775662279
 21
-4.5168631318
 31
0.0
 11
-37.3772678337
 21
-4.5299561452
 31
0.0
 11
-37.3769956355
 21
-4.5453534154
 31
0.0
 11
-37.3767503054
 21
-4.5630183112
 31
0.0
 11
-37.3765324267
 21
-4.5829077932
 31
0.0
 11
-37.3763425267
 21
-4.6049744856
 31
0.0
 11
-37.3761810588
 21
-4.629164826
 31
0.0
 11
-37.3760484165
 21
-4.6554208466
 31
0.0
 11
-37.3758708105
 21
-4.7138717861
 31
0.0
 11
-37.3758114191
 21
-4.7797645868
 31
0.0
 11
-37.375870815
 21
-4.8524648257
 31
0.0
 11
-37.3760484259
 21
-4.9312724618
 31
0.0
 11
-37.376342541
 21
-5.0154286285
 31
0.0
 11
-37.376750325
 21
-5.1041230232
 31
0.0
 11
-37.3772678576
 21
-5.1965014607
 31
0.0
 11
-37.3778901351
 21
-5.2916751429
 31
0.0
 11
-37.3794240979
 21
-5.486722345
 31
0.0
  0
SPLINE
  5
5FF
100
AcDbEntity
  8
RACCORDO
100
AcDbSpline
 62
253
  6
CONTINUOUS
 70
0
 71
3
 72
32
 73
28
 74
26
 42
0.0000001
 43
0.0000001
 44
0.0000000001
 12
0.9998414044
 22
-0.0183203224
 32
0.0
 13
-0.0087254594
 23
-0.9999711669
 33
0.0
 40
0.0
 40
0.0
 40
0.0
 40
0.0
 40
0.0003710848
 40
0.0013009382
 40
0.0028221266
 40
0.0049396006
 40
0.0076540508
 40
0.0109644413
 40
0.0148692972
 40
0.0193668103
 40
0.0301285418
 40
0.0432248219
 40
0.0586243423
 40
0.0762907631
 40
0.0961812373
 40
0.1182485239
 40
0.142439159
 40
0.1686952499
 40
0.2271458706
 40
0.2930380358
 40
0.3657375703
 40
0.4445446188
 40
0.528700461
 40
0.6173949129
 40
0.7097738872
 40
0.8049486678
 40
1.0
 40
1.0
 40
1.0
 40
1.0
 10
-47.1794240538
 20
22.2298522131
 30
0.0
 10
-47.1793003785
 20
22.229849947
 30
0.0
 10
-47.1791340172
 20
22.2292920254
 30
0.0
 10
-47.1789648806
 20
22.2284966072
 30
0.0
 10
-47.1787727802
 20
22.2269136425
 30
0.0
 10
-47.1785878865
 20
22.2248351424
 30
0.0
 10
-47.1784027673
 20
22.2221150566
 30
0.0
 10
-47.1782231638
 20
22.2188143131
 30
0.0
 10
-47.1780481473
 20
22.214912414
 30
0.0
 10
-47.1778077694
 20
22.2085294426
 30
0.0
 10
-47.1775325052
 20
22.1990809885
 30
0.0
 10
-47.1772408203
 20
22.1859983809
 30
0.0
 10
-47.1769737287
 20
22.1706130443
 30
0.0
 10
-47.1767322082
 20
22.1529623849
 30
0.0
 10
-47.1765173217
 20
22.133088608
 30
0.0
 10
-47.1763298272
 20
22.1110397223
 30
0.0
 10
-47.1761702894
 20
22.0868686752
 30
0.0
 10
-47.1759891201
 20
22.0505696642
 30
0.0
 10
-47.1758446629
 20
22.0003697273
 30
0.0
 10
-47.1757919718
 20
21.9346883348
 30
0.0
 10
-47.1758561589
 20
21.862221415
 30
0.0
 10
-47.1760369374
 20
21.7836667338
 30
0.0
 10
-47.1763329549
 20
21.6997806818
 30
0.0
 10
-47.1767415617
 20
21.6113710379
 30
0.0
 10
-47.1772589706
 20
21.5192888904
 30
0.0
 10
-47.1780943632
 20
21.3917554076
 30
0.0
 10
-47.1788567873
 20
21.2950154164
 30
0.0
 10
-47.1794240914
 20
21.2300001803
 30
0.0
 11
-47.1794240538
 21
22.2298522131
 31
0.0
 11
-47.1792126634
 21
22.2295472204
 31
0.0
 11
-47.1790066293
 21
22.2286404717
 31
0.0
 11
-47.1788060862
 21
22.2271325461
 31
0.0
 11
-47.1786111687
 21
22.2250240429
 31
0.0
 11
-47.1784220006
 21
22.2223161671
 31
0.0
 11
-47.1782386931
 21
22.219010825
 31
0.0
 11
-47.178061357
 21
22.2151099619
 31
0.0
 11
-47.1778901011
 21
22.210615669
 31
0.0
 11
-47.1775662242
 21
22.1998587127
 31
0.0
 11
-47.1772678291
 21
22.1867657116
 31
0.0
 11
-47.1769956318
 21
22.1713684547
 31
0.0
 11
-47.176750302
 21
22.1537035743
 31
0.0
 11
-47.1765324234
 21
22.1338141097
 31
0.0
 11
-47.1763425237
 21
22.1117474365
 31
0.0
 11
-47.1761810562
 21
22.0875571169
 31
0.0
 11
-47.1760484144
 21
22.0613011186
 31
0.0
 11
-47.1758708093
 21
22.002850228
 31
0.0
 11
-47.1758114191
 21
21.936957481
 31
0.0
 11
-47.1758708161
 21
21.8642572995
 31
0.0
 11
-47.1760484276
 21
21.7854497234
 31
0.0
 11
-47.1763425431
 21
21.7012936181
 31
0.0
 11
-47.1767503267
 21
21.6125992846
 31
0.0
 11
-47.1772678597
 21
21.5202209069
 31
0.0
 11
-47.1778901336
 21
21.4250472818
 31
0.0
 11
-47.1794240914
 21
21.2300001803
 31
0.0
  0
SPLINE
  5
600
100
AcDbEntity
  8
RACCORDO
100
AcDbSpline
 62
7
  6
CONTINUOUS
 70
0
 71
3
 72
17
 73
13
 74
11
 42
0.0000001
 43
0.0000001
 44
0.0000000001
 12
0.0
 22
-0.9921454394
 32
0.0
 13
-0.5774401992
 23
-0.8067932755
 33
0.0
 40
0.0
 40
0.0
 40
0.0
 40
0.0
 40
0.0394860088
 40
0.0838751656
 40
0.1330184677
 40
0.1864551885
 40
0.2436347051
 40
0.3040141426
 40
0.4324425986
 40
0.5684843581
 40
0.7096578019
 40
1.0
 40
1.0
 40
1.0
 40
1.0
 10
-46.6881502551
 20
-4.4633230693
 30
0.0
 10
-46.6881502551
 20
-4.4763816905
 30
0.0
 10
-46.6912159394
 20
-4.5041262705
 30
0.0
 10
-46.7021898453
 20
-4.5468068363
 30
0.0
 10
-46.7188065054
 20
-4.592544428
 30
0.0
 10
-46.7402224595
 20
-4.6408743805
 30
0.0
 10
-46.7656855018
 20
-4.6913879599
 30
0.0
 10
-46.8049953587
 20
-4.7626273042
 30
0.0
 10
-46.8608795284
 20
-4.8544294368
 30
0.0
 10
-46.9344164071
 20
-4.9666442848
 30
0.0
 10
-47.0405950624
 20
-5.1214375263
 30
0.0
 10
-47.1235389663
 20
-5.2375756197
 30
0.0
 10
-47.1794240519
 20
-5.315657664
 30
0.0
 11
-46.6881502551
 21
-4.4633230693
 31
0.0
 11
-46.6918908585
 21
-4.5023199431
 31
0.0
 11
-46.7024414885
 21
-4.545077981
 31
0.0
 11
-46.7188152299
 21
-4.5910037385
 31
0.0
 11
-46.7401043153
 21
-4.639558625
 31
0.0
 11
-46.7655119764
 21
-4.6902812892
 31
0.0
 11
-46.794356911
 21
-4.7427846297
 31
0.0
 11
-46.8601469094
 21
-4.8519059282
 31
0.0
 11
-46.9338730369
 21
-4.9649644347
 31
0.0
 11
-47.0129257441
 21
-5.0805877819
 31
0.0
 11
-47.1794240519
 21
-5.315657664
 31
0.0
  0
SPLINE
  5
601
100
AcDbEntity
  8
RACCORDO
100
AcDbSpline
 62
7
  6
CONTINUOUS
 70
0
 71
3
 72
9
 73
5
 74
3
 42
0.0000001
 43
0.0000001
 44
0.0000000001
 12
0.0421819132
 22
0.0004762478
 32
0.0
 13
0.0414924494
 23
0.0076103388
 33
0.0
 40
0.0
 40
0.0
 40
0.0
 40
0.0
 40
0.5413116619
 40
1.0
 40
1.0
 40
1.0
 40
1.0
 10
-41.3751209697
 20
-22.1183613824
 30
0.0
 10
-41.3675097825
 20
-22.1182754496
 30
0.0
 10
-41.3534669617
 20
-22.1170503803
 30
0.0
 10
-41.3395626881
 20
-22.1149366006
 30
0.0
 10
-41.3332186539
 20
-22.1137730093
 30
0.0
 11
-41.3751209697
 21
-22.1183613824
 31
0.0
 11
-41.352347294
 21
-22.1166887526
 31
0.0
 11
-41.3332186539
 21
-22.1137730093
 31
0.0
  0
SPLINE
  5
602
100
AcDbEntity
  8
RACCORDO
100
AcDbSpline
 62
7
  6
CONTINUOUS
 70
0
 71
3
 72
9
 73
5
 74
3
 42
0.0000001
 43
0.0000001
 44
0.0000000001
 12
0.0721467181
 22
0.0132327925
 32
0.0
 13
0.0679099422
 23
0.0277217511
 33
0.0
 40
0.0
 40
0.0
 40
0.0
 40
0.0
 40
0.2486684746
 40
1.0
 40
1.0
 40
1.0
 40
1.0
 10
-41.3332186539
 20
-22.1137730093
 30
0.0
 10
-41.3272384491
 20
-22.1126761499
 30
0.0
 10
-41.3033137965
 20
-22.1076020043
 30
0.0
 10
-41.2799492077
 20
-22.0999682078
 30
0.0
 10
-41.2629415808
 20
-22.093025466
 30
0.0
 11
-41.3332186539
 21
-22.1137730093
 31
0.0
 11
-41.3153744675
 21
-22.1099943112
 31
0.0
 11
-41.2629415808
 21
-22.093025466
 31
0.0
  0
SPLINE
  5
603
100
AcDbEntity
  8
RACCORDO
100
AcDbSpline
 62
7
  6
CONTINUOUS
 70
0
 71
3
 72
15
 73
11
 74
9
 42
0.0000001
 43
0.0000001
 44
0.0000000001
 12
0.5718422094
 22
0.2334336753
 32
0.0
 13
0.1404863562
 23
0.6014635292
 33
0.0
 40
0.0
 40
0.0
 40
0.0
 40
0.0
 40
0.1051149246
 40
0.2160505796
 40
0.3335064541
 40
0.4575275376
 40
0.5875638402
 40
0.722498078
 40
0.8606822153
 40
1.0
 40
1.0
 40
1.0
 40
1.0
 10
-41.2629415808
 20
-22.093025466
 30
0.0
 10
-41.2429051973
 20
-22.0848463449
 30
0.0
 10
-41.2030927704
 20
-22.0645217174
 30
0.0
 10
-41.1470763901
 20
-22.0244479273
 30
0.0
 10
-41.0940418415
 20
-21.9746462183
 30
0.0
 10
-41.0448345354
 20
-21.9158714439
 30
0.0
 10
-41.000365253
 20
-21.8490854129
 30
0.0
 10
-40.961638721
 20
-21.7755084443
 30
0.0
 10
-40.9297327487
 20
-21.696672827
 30
0.0
 10
-40.9137224527
 20
-21.6417001175
 30
0.0
 10
-40.90719837
 20
-21.6137685954
 30
0.0
 11
-41.2629415808
 21
-22.093025466
 31
0.0
 11
-41.2049995838
 21
-22.0637352428
 31
0.0
 11
-41.1491130042
 21
-22.0240913322
 31
0.0
 11
-41.0960604255
 21
-21.9746092019
 31
0.0
 11
-41.0467289883
 21
-21.9160065728
 31
0.0
 11
-41.0020905084
 21
-21.8492362993
 31
0.0
 11
-40.9631974555
 21
-21.775525371
 31
0.0
 11
-40.9311736216
 21
-21.6964111363
 31
0.0
 11
-40.90719837
 21
-21.6137685954
 31
0.0
  0
SPLINE
  5
604
100
AcDbEntity
  8
RACCORDO
100
AcDbSpline
 62
7
  6
CONTINUOUS
 70
0
 71
3
 72
11
 73
7
 74
5
 42
0.0000001
 43
0.0000001
 44
0.0000000001
 12
-0.972416355
 22
0.0
 32
0.0
 13
-0.9641435465
 23
0.1265732558
 33
0.0
 40
0.0
 40
0.0
 40
0.0
 40
0.0
 40
0.2408776141
 40
0.4883430419
 40
0.7416490484
 40
1.0
 40
1.0
 40
1.0
 40
1.0
 10
-39.9201291163
 20
-16.9954448212
 30
0.0
 10
-39.9982068935
 20
-16.9954448212
 30
0.0
 10
-40.156511169
 20
-16.9898890857
 30
0.0
 10
-40.3961346172
 20
-16.9700452512
 30
0.0
 10
-40.6406491414
 20
-16.9422981743
 30
0.0
 10
-40.8051211208
 20
-16.9209694564
 30
0.0
 10
-40.8881502551
 20
-16.9100693494
 30
0.0
 11
-39.9201291163
 21
-16.9954448212
 31
0.0
 11
-40.1542484131
 21
-16.9881367132
 31
0.0
 11
-40.3941260109
 21
-16.9690036786
 31
0.0
 11
-40.6389424083
 21
-16.9418387418
 31
0.0
 11
-40.8881502551
 21
-16.9100693494
 31
0.0
  0
SPLINE
  5
605
100
AcDbEntity
  8
RACCORDO
100
AcDbSpline
 62
253
  6
CONTINUOUS
 70
0
 71
3
 72
32
 73
28
 74
26
 42
0.0000001
 43
0.0000001
 44
0.0000000001
 12
0.0000001847
 22
-1.0002008695
 32
0.0
 13
-1.0002008386
 23
-0.000248577
 33
0.0
 40
0.0
 40
0.0
 40
0.0
 40
0.0
 40
0.1950557138
 40
0.290233695
 40
0.3826160229
 40
0.4713136842
 40
0.5554723643
 40
0.6342817118
 40
0.706982886
 40
0.7728759416
 40
0.8313266274
 40
0.8575824178
 40
0.8817725164
 40
0.9038390191
 40
0.9237284491
 40
0.9413935507
 40
0.9567914618
 40
0.9698858264
 40
0.9806453178
 40
0.9851415821
 40
0.9890451004
 40
0.9923540645
 40
0.9950670001
 40
0.9971828727
 40
0.9987023728
 40
0.999630466
 40
1.0
 40
1.0
 40
1.0
 40
1.0
 10
-37.3794240538
 20
-15.9954397688
 30
0.0
 10
-37.3794240418
 20
-16.0604714003
 30
0.0
 10
-37.379505479
 20
-16.1572354286
 30
0.0
 10
-37.3797827768
 20
-16.2847994324
 30
0.0
 10
-37.3800688293
 20
-16.3769034908
 30
0.0
 10
-37.3804316624
 20
-16.4653334113
 30
0.0
 10
-37.3808676669
 20
-16.5492377109
 30
0.0
 10
-37.3813724265
 20
-16.6278082918
 30
0.0
 10
-37.3819406952
 20
-16.7002885096
 30
0.0
 10
-37.3825666662
 20
-16.7659803929
 30
0.0
 10
-37.3831493205
 20
-16.8161869953
 30
0.0
 10
-37.3836473758
 20
-16.8524897409
 30
0.0
 10
-37.3840179379
 20
-16.8766625661
 30
0.0
 10
-37.3843979451
 20
-16.8987124117
 30
0.0
 10
-37.3847863682
 20
-16.9185863145
 30
0.0
 10
-37.3851820316
 20
-16.93623625
 30
0.0
 10
-37.3855835072
 20
-16.9516200013
 30
0.0
 10
-37.38598948
 20
-16.9647001457
 30
0.0
 10
-37.3863473111
 20
-16.9741458467
 30
0.0
 10
-37.386643487
 20
-16.980526081
 30
0.0
 10
-37.3868526409
 20
-16.9844257232
 30
0.0
 10
-37.3870610722
 20
-16.987723936
 30
0.0
 10
-37.3872701238
 20
-16.9904414065
 30
0.0
 10
-37.3874728755
 20
-16.9925167425
 30
0.0
 10
-37.3876795769
 20
-16.9940971299
 30
0.0
 10
-37.3878542854
 20
-16.9948886302
 30
0.0
 10
-37.3880270902
 20
-16.9954447905
 30
0.0
 10
-37.388150293
 20
-16.9954448211
 30
0.0
 11
-37.3794240538
 21
-15.9954397688
 31
0.0
 11
-37.3795917275
 21
-16.1905345913
 31
0.0
 11
-37.3797998099
 21
-16.2857314634
 31
0.0
 11
-37.3800883155
 21
-16.3781318977
 31
0.0
 11
-37.3804544623
 21
-16.4668466201
 31
0.0
 11
-37.3808947246
 21
-16.5510210537
 31
0.0
 11
-37.381404861
 21
-16.6298445809
 31
0.0
 11
-37.381979958
 21
-16.7025580843
 31
0.0
 11
-37.3826144763
 21
-16.7684613213
 31
0.0
 11
-37.3833023043
 21
-16.8269197017
 31
0.0
 11
-37.3836641575
 21
-16.853178273
 31
0.0
 11
-37.3840368187
 21
-16.8773703605
 31
0.0
 11
-37.3844193875
 21
-16.8994379798
 31
0.0
 11
-37.3848109421
 21
-16.9193275512
 31
0.0
 11
-37.3852105427
 21
-16.9369916818
 31
0.0
 11
-37.3856172306
 21
-16.9523873153
 31
0.0
 11
-37.3860300111
 21
-16.9654778037
 31
0.0
 11
-37.3864478911
 21
-16.9762313401
 31
0.0
 11
-37.386658437
 21
-16.9807235763
 31
0.0
 11
-37.3868698882
 21
-16.9846221485
 31
0.0
 11
-37.3870821149
 21
-16.9879249659
 31
0.0
 11
-37.3872949862
 21
-16.9906300837
 31
0.0
 11
-37.3875083713
 21
-16.992735596
 31
0.0
 11
-37.3877221386
 21
-16.9942402926
 31
0.0
 11
-37.3879361565
 21
-16.9951435642
 31
0.0
 11
-37.388150293
 21
-16.9954448211
 31
0.0
  0
LINE
  5
606
100
AcDbEntity
  8
RACCORDO
100
AcDbLine
 62
253
  6
CONTINUOUS
 10
-40.9071982897
 20
-21.6137685948
 11
-39.8885894129
 21
-21.5977667002
  0
LINE
  5
607
100
AcDbEntity
  8
RACCORDO
100
AcDbLine
 62
253
  6
CONTINUOUS
 10
-39.8885894129
 20
-21.5977667002
 11
-38.443760141
 21
-21.5750690692
  0
SPLINE
  5
608
100
AcDbEntity
  8
RACCORDO
100
AcDbSpline
 62
7
  6
CONTINUOUS
 70
0
 71
3
 72
17
 73
13
 74
11
 42
0.0000001
 43
0.0000001
 44
0.0000000001
 12
0.5769689508
 22
-0.8160816085
 32
0.0
 13
-0.0
 23
-0.9994410247
 33
0.0
 40
0.0
 40
0.0
 40
0.0
 40
0.0
 40
0.2899031426
 40
0.4309417046
 40
0.5669461518
 40
0.695457984
 40
0.7559250239
 40
0.8132171581
 40
0.8667800676
 40
0.9160427132
 40
0.9605127324
 40
1.0
 40
1.0
 40
1.0
 40
1.0
 10
-41.3794240519
 20
-15.9954448212
 30
0.0
 10
-41.3236690145
 20
-16.0743063621
 30
0.0
 10
-41.2409046255
 20
-16.191624009
 30
0.0
 10
-41.1349072277
 20
-16.3479646149
 30
0.0
 10
-41.0614134432
 20
-16.4613492794
 30
0.0
 10
-41.0055001747
 20
-16.5541080187
 30
0.0
 10
-40.9661122175
 20
-16.6260943752
 30
0.0
 10
-40.9405617437
 20
-16.6771506161
 30
0.0
 10
-40.9190433796
 20
-16.7259897779
 30
0.0
 10
-40.9023214795
 20
-16.7721843988
 30
0.0
 10
-40.8912574706
 20
-16.8152436383
 30
0.0
 10
-40.8881502551
 20
-16.8432181214
 30
0.0
 10
-40.8881502551
 20
-16.8563731864
 30
0.0
 11
-41.3794240519
 21
-15.9954448212
 31
0.0
 11
-41.2133076772
 21
-16.2328374318
 31
0.0
 11
-41.1343784733
 21
-16.3496270923
 31
0.0
 11
-41.0606967663
 21
-16.4638529323
 31
0.0
 11
-40.9948516045
 21
-16.574130979
 31
0.0
 11
-40.9659397684
 21
-16.6271996351
 31
0.0
 11
-40.9404422076
 21
-16.6784694559
 31
0.0
 11
-40.9190476211
 21
-16.7275413465
 31
0.0
 11
-40.9025664231
 21
-16.7739360237
 31
0.0
 11
-40.8919281334
 21
-16.8170892296
 31
0.0
 11
-40.8881502551
 21
-16.8563731864
 31
0.0
  0
SPLINE
  5
609
100
AcDbEntity
  8
RACCORDO
100
AcDbSpline
 62
253
  6
CONTINUOUS
 70
0
 71
3
 72
22
 73
18
 74
16
 42
0.0000001
 43
0.0000001
 44
0.0000000001
 12
0.169934242
 22
0.9842031381
 32
0.0
 13
-0.0087137703
 23
0.9987279579
 33
0.0
 40
0.0
 40
0.0
 40
0.0
 40
0.0
 40
0.0034413246
 40
0.0091287728
 40
0.0170549611
 40
0.0272035468
 40
0.0540758668
 40
0.0895061921
 40
0.1331753968
 40
0.1846890631
 40
0.2435814707
 40
0.3093199348
 40
0.3813096966
 40
0.4588993533
 40
0.6280254723
 40
0.8105902989
 40
1.0
 40
1.0
 40
1.0
 40
1.0
 10
-41.3790183853
 20
-22.1183477048
 30
0.0
 10
-41.3788234524
 20
-22.1172187173
 30
0.0
 10
-41.3785560932
 20
-22.1141859583
 30
0.0
 10
-41.3782066494
 20
-22.1085213204
 30
0.0
 10
-41.3778875402
 20
-22.1006150992
 30
0.0
 10
-41.3774320566
 20
-22.0856587703
 30
0.0
 10
-41.3769690975
 20
-22.0615415164
 30
0.0
 10
-41.3765293169
 20
-22.0262640929
 30
0.0
 10
-41.3761894497
 20
-21.9827811758
 30
0.0
 10
-41.3759510631
 20
-21.9314866671
 30
0.0
 10
-41.3758200119
 20
-21.8728443635
 30
0.0
 10
-41.375797931
 20
-21.8073850081
 30
0.0
 10
-41.3758857705
 20
-21.7357009774
 30
0.0
 10
-41.3761571485
 20
-21.6295972183
 30
0.0
 10
-41.3767761884
 20
-21.486681487
 30
0.0
 10
-41.377894954
 20
-21.3065405746
 30
0.0
 10
-41.3788739414
 20
-21.1827058749
 30
0.0
 10
-41.3794240989
 20
-21.1196496203
 30
0.0
 11
-41.3790183853
 21
-22.1183477048
 31
0.0
 11
-41.3786332905
 21
-22.1149322683
 31
0.0
 11
-41.3782692947
 21
-22.1092635128
 31
0.0
 11
-41.3779288399
 21
-22.1013544299
 31
0.0
 11
-41.3776119466
 21
-22.0912233227
 31
0.0
 11
-41.3770497451
 21
-22.0643900529
 31
0.0
 11
-41.376588073
 21
-22.0290064614
 31
0.0
 11
-41.3762309964
 21
-21.9853926075
 31
0.0
 11
-41.3759817851
 21
-21.9339431142
 31
0.0
 11
-41.3758426847
 21
-21.875123546
 31
0.0
 11
-41.3758149573
 21
-21.8094662109
 31
0.0
 11
-41.3758988537
 21
-21.7375653355
 31
0.0
 11
-41.376093615
 21
-21.6600716715
 31
0.0
 11
-41.376807685
 21
-21.4911557685
 31
0.0
 11
-41.3779313638
 21
-21.3088196947
 31
0.0
 11
-41.3794240989
 21
-21.1196496203
 31
0.0
  0
SPLINE
  5
60A
100
AcDbEntity
  8
RACCORDO
100
AcDbSpline
 62
7
  6
CONTINUOUS
 70
0
 71
3
 72
9
 73
5
 74
3
 42
0.0000001
 43
0.0000001
 44
0.0000000001
 12
-0.0000000155
 22
-0.1895678089
 32
0.0
 13
-0.0431175961
 23
-0.1845990983
 33
0.0
 40
0.0
 40
0.0
 40
0.0
 40
0.0
 40
0.5003724708
 40
1.0
 40
1.0
 40
1.0
 40
1.0
 10
-40.8881502551
 20
-21.4254766123
 30
0.0
 10
-40.8881502577
 20
-21.4570947833
 30
0.0
 10
-40.8904051438
 20
-21.520331365
 30
0.0
 10
-40.900017377
 20
-21.5830249976
 30
0.0
 10
-40.9071982897
 20
-21.6137685948
 30
0.0
 11
-40.8881502551
 21
-21.4254766123
 31
0.0
 11
-40.8922489017
 21
-21.520242533
 31
0.0
 11
-40.9071982897
 21
-21.6137685948
 31
0.0
  0
SPLINE
  5
60B
100
AcDbEntity
  8
ASSI
100
AcDbSpline
 62
7
  6
CONTINUOUS
 70
0
 71
3
 72
11
 73
7
 74
5
 42
0.0000001
 43
0.0000001
 44
0.0000000001
 12
-0.3806973347
 22
-0.9973098163
 32
0.0
 13
-1.0673379202
 23
-0.018630469
 33
0.0
 40
0.0
 40
0.0
 40
0.0
 40
0.0
 40
0.2386974708
 40
0.4872815623
 40
0.7421716609
 40
1.0
 40
1.0
 40
1.0
 40
1.0
 10
-38.4437601367
 20
-21.5750690742
 30
0.0
 10
-38.4740506337
 20
-21.6544208511
 30
0.0
 10
-38.5785706716
 20
-21.8002764964
 30
0.0
 10
-38.7955833001
 20
-21.9555360409
 30
0.0
 10
-39.0500266038
 20
-22.055303172
 30
0.0
 10
-39.2325751697
 20
-22.0820290908
 30
0.0
 10
-39.3243051575
 20
-22.0836302451
 30
0.0
 11
-38.4437601367
 21
-21.5750690742
 31
0.0
 11
-38.5855593634
 21
-21.7867786574
 31
0.0
 11
-38.7988720537
 21
-21.9446252901
 31
0.0
 11
-39.0518094407
 21
-22.0449175408
 31
0.0
 11
-39.3243051575
 21
-22.0836302451
 31
0.0
  0
SPLINE
  5
60C
100
AcDbEntity
  8
ASSI
100
AcDbSpline
 62
7
  6
CONTINUOUS
 70
0
 71
3
 72
13
 73
9
 74
7
 42
0.0000001
 43
0.0000001
 44
0.0000000001
 12
0.0
 22
-0.9918227028
 32
0.0
 13
-0.5772523627
 23
-0.8065308324
 33
0.0
 40
0.0
 40
0.0
 40
0.0
 40
0.0
 40
0.083678875
 40
0.1862282208
 40
0.30380422
 40
0.4322744663
 40
0.7095633253
 40
1.0
 40
1.0
 40
1.0
 40
1.0
 10
-46.6881502551
 20
-4.4633230693
 30
0.0
 10
-46.6881502551
 20
-4.4909879386
 30
0.0
 10
-46.7017440205
 20
-4.5521735193
 30
0.0
 10
-46.7406854927
 20
-4.6447523776
 30
0.0
 10
-46.7951818542
 20
-4.7464956788
 30
0.0
 10
-46.8851751346
 20
-4.8942899644
 30
0.0
 10
-47.0145262217
 20
-5.0848016457
 30
0.0
 10
-47.1235389663
 20
-5.2375756197
 30
0.0
 10
-47.1794240519
 20
-5.315657664
 30
0.0
 11
-46.6881502551
 21
-4.4633230693
 31
0.0
 11
-46.7024414885
 21
-4.545077981
 31
0.0
 11
-46.7401043153
 21
-4.639558625
 31
0.0
 11
-46.794356911
 21
-4.7427846297
 31
0.0
 11
-46.8601469094
 21
-4.8519059282
 31
0.0
 11
-47.0129257441
 21
-5.0805877819
 31
0.0
 11
-47.1794240519
 21
-5.315657664
 31
0.0
  0
SPLINE
  5
60D
100
AcDbEntity
  8
ASSI
100
AcDbSpline
 62
7
  6
CONTINUOUS
 70
0
 71
3
 72
10
 73
6
 74
4
 42
0.0000001
 43
0.0000001
 44
0.0000000001
 12
0.1078941038
 22
0.0012181603
 32
0.0
 13
0.10069392
 23
0.0387731354
 33
0.0
 40
0.0
 40
0.0
 40
0.0
 40
0.0
 40
0.2780989039
 40
0.5189956662
 40
1.0
 40
1.0
 40
1.0
 40
1.0
 10
-41.3751209697
 20
-22.1183613824
 30
0.0
 10
-41.3651192257
 20
-22.1182484594
 30
0.0
 10
-41.3464845706
 20
-22.1162981979
 30
0.0
 10
-41.3111120861
 20
-22.1097586079
 30
0.0
 10
-41.2861791273
 20
-22.1020553142
 30
0.0
 10
-41.27003439
 20
-22.0958386321
 30
0.0
 11
-41.3751209697
 21
-22.1183613824
 31
0.0
 11
-41.3452282063
 21
-22.1157438623
 31
0.0
 11
-41.3196723757
 21
-22.1109967151
 31
0.0
 11
-41.27003439
 21
-22.0958386321
 31
0.0
  0
SPLINE
  5
60E
100
AcDbEntity
  8
ASSI
100
AcDbSpline
 62
7
  6
CONTINUOUS
 70
0
 71
3
 72
10
 73
6
 74
4
 42
0.0000001
 43
0.0000001
 44
0.0000000001
 12
0.5006049921
 22
0.2728225851
 32
0.0
 13
0.1296750994
 23
0.5551773498
 33
0.0
 40
0.0
 40
0.0
 40
0.0
 40
0.0
 40
0.46139648
 40
0.7256086275
 40
1.0
 40
1.0
 40
1.0
 40
1.0
 10
-41.2222554233
 20
-22.0736596042
 30
0.0
 10
-41.1452629628
 20
-22.0316998107
 30
0.0
 10
-41.0440824437
 20
-21.9287087352
 30
0.0
 10
-40.952206813
 20
-21.7623038278
 30
0.0
 10
-40.9190589462
 20
-21.6645472204
 30
0.0
 10
-40.90719837
 20
-21.6137685954
 30
0.0
 11
-41.2222554233
 21
-22.0736596042
 31
0.0
 11
-41.0305422158
 21
-21.8935423781
 31
0.0
 11
-40.9570732866
 21
-21.7620412189
 31
0.0
 11
-40.90719837
 21
-21.6137685954
 31
0.0
  0
SPLINE
  5
60F
100
AcDbEntity
  8
ASSI
100
AcDbSpline
 62
7
  6
CONTINUOUS
 70
0
 71
3
 72
13
 73
9
 74
7
 42
0.0000001
 43
0.0000001
 44
0.0000000001
 12
0.5767836217
 22
-0.8158194737
 32
0.0
 13
-0.0
 23
-0.9991199928
 33
0.0
 40
0.0
 40
0.0
 40
0.0
 40
0.0
 40
0.2899962928
 40
0.5671124229
 40
0.6956655478
 40
0.8134420446
 40
0.9162381076
 40
1.0
 40
1.0
 40
1.0
 40
1.0
 10
-41.3794240519
 20
-15.9954448212
 30
0.0
 10
-41.3236690145
 20
-16.0743063621
 30
0.0
 10
-41.2148635317
 20
-16.2286702298
 30
0.0
 10
-41.085687952
 20
-16.4211276906
 30
0.0
 10
-40.9956666364
 20
-16.5704333906
 30
0.0
 10
-40.9410279283
 20
-16.6732624113
 30
0.0
 10
-40.9019102437
 20
-16.7667453015
 30
0.0
 10
-40.8881502551
 20
-16.828477126
 30
0.0
 10
-40.8881502551
 20
-16.8563731864
 30
0.0
 11
-41.3794240519
 21
-15.9954448212
 31
0.0
 11
-41.2133076772
 21
-16.2328374318
 31
0.0
 11
-41.0606967663
 21
-16.4638529323
 31
0.0
 11
-40.9948516045
 21
-16.574130979
 31
0.0
 11
-40.9404422076
 21
-16.6784694559
 31
0.0
 11
-40.9025664231
 21
-16.7739360237
 31
0.0
 11
-40.8881502551
 21
-16.8563731864
 31
0.0
  0
SPLINE
  5
610
100
AcDbEntity
  8
ASSI
100
AcDbSpline
 62
253
  6
CONTINUOUS
 70
0
 71
3
 72
17
 73
13
 74
11
 42
0.0000001
 43
0.0000001
 44
0.0000000001
 12
0.1699337293
 22
0.9842001683
 32
0.0
 13
-0.008713744
 23
0.9987249443
 33
0.0
 40
0.0
 40
0.0
 40
0.0
 40
0.0
 40
0.0091263147
 40
0.027200836
 40
0.054073237
 40
0.0895036692
 40
0.1846866953
 40
0.3093178846
 40
0.4588977206
 40
0.6280243499
 40
0.8105897274
 40
1.0
 40
1.0
 40
1.0
 40
1.0
 10
-41.3790183853
 20
-22.1183477048
 30
0.0
 10
-41.3785014291
 20
-22.1153536647
 30
0.0
 10
-41.3781587425
 20
-22.1062698522
 30
0.0
 10
-41.3774389962
 20
-22.0883068511
 30
0.0
 10
-41.3769867001
 20
-22.0615375289
 30
0.0
 10
-41.3763027857
 20
-22.0091189423
 30
0.0
 10
-41.3758795109
 20
-21.9241375082
 30
0.0
 10
-41.3757458938
 20
-21.8011609237
 30
0.0
 10
-41.3760554236
 20
-21.6535637301
 30
0.0
 10
-41.3767755463
 20
-21.486681563
 30
0.0
 10
-41.377895151
 20
-21.3065405513
 30
0.0
 10
-41.3788739414
 20
-21.1827058749
 30
0.0
 10
-41.3794240989
 20
-21.1196496203
 30
0.0
 11
-41.3790183853
 21
-22.1183477048
 31
0.0
 11
-41.3782692947
 21
-22.1092635128
 31
0.0
 11
-41.3776119466
 21
-22.0912233227
 31
0.0
 11
-41.3770497451
 21
-22.0643900529
 31
0.0
 11
-41.376588073
 21
-22.0290064614
 31
0.0
 11
-41.3759817851
 21
-21.9339431142
 31
0.0
 11
-41.3758149573
 21
-21.8094662109
 31
0.0
 11
-41.376093615
 21
-21.6600716715
 31
0.0
 11
-41.376807685
 21
-21.4911557685
 31
0.0
 11
-41.3779313638
 21
-21.3088196947
 31
0.0
 11
-41.3794240989
 21
-21.1196496203
 31
0.0
  0
SPLINE
  5
611
100
AcDbEntity
  8
ASSI
100
AcDbSpline
 62
7
  6
CONTINUOUS
 70
0
 71
3
 72
8
 73
4
 74
2
 42
0.0000001
 43
0.0000001
 44
0.0000000001
 12
-0.0000000155
 22
-0.1892530007
 32
0.0
 13
-0.0430459923
 23
-0.1842925414
 33
0.0
 40
0.0
 40
0.0
 40
0.0
 40
0.0
 40
1.0
 40
1.0
 40
1.0
 40
1.0
 10
-40.8881502551
 20
-21.4254766123
 30
0.0
 10
-40.8881502603
 20
-21.4885609459
 30
0.0
 10
-40.8928496256
 20
-21.5523377476
 30
0.0
 10
-40.9071982897
 20
-21.6137685948
 30
0.0
 11
-40.8881502551
 21
-21.4254766123
 31
0.0
 11
-40.9071982897
 21
-21.6137685948
 31
0.0
  0
LINE
  5
612
100
AcDbEntity
  8
ASSI
100
AcDbLine
 62
253
  6
CONTINUOUS
 10
-39.8885894129
 20
-21.5977667002
 11
-38.443760141
 21
-21.5750690692
  0
LINE
  5
613
100
AcDbEntity
  8
ASSI
100
AcDbLine
 62
253
  6
CONTINUOUS
 10
-40.9071982897
 20
-21.6137685948
 11
-39.8885894129
 21
-21.5977667002
  0
SPLINE
  5
614
100
AcDbEntity
  8
ASSI
100
AcDbSpline
 62
7
  6
CONTINUOUS
 70
0
 71
3
 72
9
 73
5
 74
3
 42
0.0000001
 43
0.0000001
 44
0.0000000001
 12
-0.9722609035
 22
0.0
 32
0.0
 13
-0.9639894176
 23
0.1265530217
 33
0.0
 40
0.0
 40
0.0
 40
0.0
 40
0.0
 40
0.488278206
 40
1.0
 40
1.0
 40
1.0
 40
1.0
 10
-39.9201291163
 20
-16.9954448212
 30
0.0
 10
-40.0783737195
 20
-16.9954448212
 30
0.0
 10
-40.4023356794
 20
-16.972966685
 30
0.0
 10
-40.7237187904
 20
-16.9316559958
 30
0.0
 10
-40.8881502551
 20
-16.9100693494
 30
0.0
 11
-39.9201291163
 21
-16.9954448212
 31
0.0
 11
-40.3941260109
 21
-16.9690036786
 31
0.0
 11
-40.8881502551
 21
-16.9100693494
 31
0.0
  0
SPLINE
  5
615
100
AcDbEntity
  8
ASSI
100
AcDbSpline
 62
253
  6
CONTINUOUS
 70
0
 71
3
 72
24
 73
20
 74
18
 42
0.0000001
 43
0.0000001
 44
0.0000000001
 12
0.0000001847
 22
-1.0001803275
 32
0.0
 13
-1.0001802966
 23
-0.0002485718
 33
0.0
 40
0.0
 40
0.0
 40
0.0
 40
0.0
 40
0.1950597199
 40
0.3826238606
 40
0.5554837259
 40
0.6342946921
 40
0.7069973594
 40
0.7728917683
 40
0.8313436546
 40
0.8817905631
 40
0.9237473286
 40
0.941412793
 40
0.9568110204
 40
0.9699056538
 40
0.9806653663
 40
0.9890652649
 40
0.9950871346
 40
0.9987218702
 40
1.0
 40
1.0
 40
1.0
 40
1.0
 10
-37.3794240538
 20
-15.9954397688
 30
0.0
 10
-37.3794240418
 20
-16.0604714003
 30
0.0
 10
-37.3795315425
 20
-16.1880357177
 30
0.0
 10
-37.3800120444
 20
-16.3732298138
 30
0.0
 10
-37.3806779707
 20
-16.5196665004
 30
0.0
 10
-37.3813723804
 20
-16.6278082846
 30
0.0
 10
-37.3819407091
 20
-16.7002885339
 30
0.0
 10
-37.382566653
 20
-16.7659803149
 30
0.0
 10
-37.3832429432
 20
-16.8242516825
 30
0.0
 10
-37.3839631188
 20
-16.8745398726
 30
0.0
 10
-37.3846211419
 20
-16.9112328605
 30
0.0
 10
-37.3851829075
 20
-16.9362339525
 30
0.0
 10
-37.3855806701
 20
-16.9516270844
 30
0.0
 10
-37.3859977423
 20
-16.9646795868
 30
0.0
 10
-37.3863739265
 20
-16.9755027588
 30
0.0
 10
-37.3868611631
 20
-16.983688922
 30
0.0
 10
-37.3870729232
 20
-16.9901499502
 30
0.0
 10
-37.3877662588
 20
-16.9929735038
 30
0.0
 10
-37.3877241729
 20
-16.9954447152
 30
0.0
 10
-37.388150293
 20
-16.9954448211
 30
0.0
 11
-37.3794240538
 21
-15.9954397688
 31
0.0
 11
-37.3795917275
 21
-16.1905345913
 31
0.0
 11
-37.3800883155
 21
-16.3781318977
 31
0.0
 11
-37.3808947246
 21
-16.5510210537
 31
0.0
 11
-37.381404861
 21
-16.6298445809
 31
0.0
 11
-37.381979958
 21
-16.7025580843
 31
0.0
 11
-37.3826144763
 21
-16.7684613213
 31
0.0
 11
-37.3833023043
 21
-16.8269197017
 31
0.0
 11
-37.3840368187
 21
-16.8773703605
 31
0.0
 11
-37.3848109421
 21
-16.9193275512
 31
0.0
 11
-37.3852105427
 21
-16.9369916818
 31
0.0
 11
-37.3856172306
 21
-16.9523873153
 31
0.0
 11
-37.3860300111
 21
-16.9654778037
 31
0.0
 11
-37.3864478911
 21
-16.9762313401
 31
0.0
 11
-37.3868698882
 21
-16.9846221485
 31
0.0
 11
-37.3872949862
 21
-16.9906300837
 31
0.0
 11
-37.3877221386
 21
-16.9942402926
 31
0.0
 11
-37.388150293
 21
-16.9954448211
 31
0.0
  0
SPLINE
  5
616
100
AcDbEntity
  8
ASSI
100
AcDbSpline
 62
253
  6
CONTINUOUS
 70
0
 71
3
 72
24
 73
20
 74
18
 42
0.0000001
 43
0.0000001
 44
0.0000000001
 12
0.999823999
 22
-0.0181984018
 32
0.0
 13
-0.0087243742
 23
-0.9999515469
 33
0.0
 40
0.0
 40
0.0
 40
0.0
 40
0.0
 40
0.0012816287
 40
0.0049196699
 40
0.0109444811
 40
0.0193469628
 40
0.0301089157
 40
0.043205465
 40
0.0586053011
 40
0.076272084
 40
0.1182306762
 40
0.1686784189
 40
0.2271302358
 40
0.2930237482
 40
0.3657247671
 40
0.4445334226
 40
0.6173872058
 40
0.8049447385
 40
1.0
 40
1.0
 40
1.0
 40
1.0
 10
-37.3794240536
 20
-4.4868696051
 30
0.0
 10
-37.3789969192
 20
-4.4868773797
 30
0.0
 10
-37.379063494
 20
-4.4893430389
 30
0.0
 10
-37.3783925768
 20
-4.4921826224
 30
0.0
 10
-37.3782385385
 20
-4.4986425565
 30
0.0
 10
-37.3778223942
 20
-4.5068356859
 30
0.0
 10
-37.3775410004
 20
-4.5176611286
 30
0.0
 10
-37.3772379095
 20
-4.5307164924
 30
0.0
 10
-37.3769746335
 20
-4.546111092
 30
0.0
 10
-37.3766312051
 20
-4.5711129935
 30
0.0
 10
-37.3762935577
 20
-4.6078046307
 30
0.0
 10
-37.3760123577
 20
-4.6580884748
 30
0.0
 10
-37.3758446518
 20
-4.7163523657
 30
0.0
 10
-37.3757919854
 20
-4.7820337101
 30
0.0
 10
-37.3758561114
 20
-4.8545007188
 30
0.0
 10
-37.3761052522
 20
-4.9626204767
 30
0.0
 10
-37.3767168495
 20
-5.1090244756
 30
0.0
 10
-37.3778518002
 20
-5.294174686
 30
0.0
 10
-37.3788568528
 20
-5.4217070748
 30
0.0
 10
-37.3794240979
 20
-5.486722345
 30
0.0
 11
-37.3794240536
 21
-4.4868696051
 31
0.0
 11
-37.3790066206
 21
-4.4880813344
 31
0.0
 11
-37.3786111771
 21
-4.491697782
 31
0.0
 11
-37.3782386998
 21
-4.4977110054
 31
0.0
 11
-37.3778901032
 21
-4.5061061653
 31
0.0
 11
-37.3775662279
 21
-4.5168631318
 31
0.0
 11
-37.3772678337
 21
-4.5299561452
 31
0.0
 11
-37.3769956355
 21
-4.5453534154
 31
0.0
 11
-37.3767503054
 21
-4.5630183112
 31
0.0
 11
-37.3763425267
 21
-4.6049744856
 31
0.0
 11
-37.3760484165
 21
-4.6554208466
 31
0.0
 11
-37.3758708105
 21
-4.7138717861
 31
0.0
 11
-37.3758114191
 21
-4.7797645868
 31
0.0
 11
-37.375870815
 21
-4.8524648257
 31
0.0
 11
-37.3760484259
 21
-4.9312724618
 31
0.0
 11
-37.376750325
 21
-5.1041230232
 31
0.0
 11
-37.3778901351
 21
-5.2916751429
 31
0.0
 11
-37.3794240979
 21
-5.486722345
 31
0.0
  0
SPLINE
  5
617
100
AcDbEntity
  8
ASSI
100
AcDbSpline
 62
253
  6
CONTINUOUS
 70
0
 71
3
 72
24
 73
20
 74
18
 42
0.0000001
 43
0.0000001
 44
0.0000000001
 12
0.9998210704
 22
-0.0183199498
 32
0.0
 13
-0.0087252819
 23
-0.9999508302
 33
0.0
 40
0.0
 40
0.0
 40
0.0
 40
0.0
 40
0.0012816384
 40
0.0049196654
 40
0.0109444752
 40
0.0193469587
 40
0.0301089091
 40
0.0432054555
 40
0.0586052891
 40
0.0762720692
 40
0.1182306545
 40
0.1686783899
 40
0.2271301993
 40
0.2930237047
 40
0.3657247177
 40
0.4445333689
 40
0.6173871522
 40
0.8049447009
 40
1.0
 40
1.0
 40
1.0
 40
1.0
 10
-47.1794240538
 20
22.2298522131
 30
0.0
 10
-47.1789969175
 20
22.2298443866
 30
0.0
 10
-47.1790635192
 20
22.2273788429
 30
0.0
 10
-47.1783925463
 20
22.2245391583
 30
0.0
 10
-47.1782385414
 20
22.2180792917
 30
0.0
 10
-47.1778223905
 20
22.209886143
 30
0.0
 10
-47.177540997
 20
22.1990607193
 30
0.0
 10
-47.1772379042
 20
22.1860053638
 30
0.0
 10
-47.1769746302
 20
22.1706107791
 30
0.0
 10
-47.1766312017
 20
22.1456088988
 30
0.0
 10
-47.1762935547
 20
22.1089172936
 30
0.0
 10
-47.1760123556
 20
22.0586334923
 30
0.0
 10
-47.1758446506
 20
22.00036965
 30
0.0
 10
-47.1757919855
 20
21.934688359
 30
0.0
 10
-47.1758561125
 20
21.8622214074
 30
0.0
 10
-47.176105255
 20
21.7541017295
 30
0.0
 10
-47.1767168451
 20
21.6076978302
 30
0.0
 10
-47.1778518262
 20
21.4225477334
 30
0.0
 10
-47.1788567873
 20
21.2950154164
 30
0.0
 10
-47.1794240914
 20
21.2300001803
 30
0.0
 11
-47.1794240538
 21
22.2298522131
 31
0.0
 11
-47.1790066293
 21
22.2286404717
 31
0.0
 11
-47.1786111687
 21
22.2250240429
 31
0.0
 11
-47.1782386931
 21
22.219010825
 31
0.0
 11
-47.1778901011
 21
22.210615669
 31
0.0
 11
-47.1775662242
 21
22.1998587127
 31
0.0
 11
-47.1772678291
 21
22.1867657116
 31
0.0
 11
-47.1769956318
 21
22.1713684547
 31
0.0
 11
-47.176750302
 21
22.1537035743
 31
0.0
 11
-47.1763425237
 21
22.1117474365
 31
0.0
 11
-47.1760484144
 21
22.0613011186
 31
0.0
 11
-47.1758708093
 21
22.002850228
 31
0.0
 11
-47.1758114191
 21
21.936957481
 31
0.0
 11
-47.1758708161
 21
21.8642572995
 31
0.0
 11
-47.1760484276
 21
21.7854497234
 31
0.0
 11
-47.1767503267
 21
21.6125992846
 31
0.0
 11
-47.1778901336
 21
21.4250472818
 31
0.0
 11
-47.1794240914
 21
21.2300001803
 31
0.0
  0
SPLINE
  5
618
100
AcDbEntity
  8
RACCORDO
100
AcDbSpline
 62
7
  6
CONTINUOUS
 70
0
 71
3
 72
9
 73
5
 74
3
 42
0.0000001
 43
0.0000001
 44
0.0000000001
 12
0.3736031498
 22
0.0
 32
0.0
 13
0.2431514378
 23
0.2836488883
 33
0.0
 40
0.0
 40
0.0
 40
0.0
 40
0.0
 40
0.4867697052
 40
1.0
 40
1.0
 40
1.0
 40
1.0
 10
-38.2137421666
 20
-1.4954448212
 30
0.0
 10
-38.1531226015
 20
-1.4954448212
 30
0.0
 10
-38.0266324518
 20
-1.4667408584
 30
0.0
 10
-37.9275647533
 20
-1.3845575073
 30
0.0
 10
-37.8859671919
 20
-1.3360317732
 30
0.0
 11
-38.2137421666
 21
-1.4954448212
 31
0.0
 11
-38.0364770615
 21
-1.4548287221
 31
0.0
 11
-37.8859671919
 21
-1.3360317732
 31
0.0
  0
SPLINE
  5
619
100
AcDbEntity
  8
RACCORDO
100
AcDbSpline
 62
7
  6
CONTINUOUS
 70
0
 71
3
 72
9
 73
5
 74
3
 42
0.0000001
 43
0.0000001
 44
0.0000000001
 12
-0.2431514391
 22
0.2836488899
 32
0.0
 13
-0.3736031519
 23
0.0
 33
0.0
 40
0.0
 40
0.0
 40
0.0
 40
0.0
 40
0.5132316653
 40
1.0
 40
1.0
 40
1.0
 40
1.0
 10
-37.8859671919
 20
17.0451421308
 30
0.0
 10
-37.9275648646
 20
17.0936679949
 30
0.0
 10
-38.0266326319
 20
17.1758513164
 30
0.0
 10
-38.1531227719
 20
17.2045551788
 30
0.0
 10
-38.2137421666
 20
17.2045551788
 30
0.0
 11
-37.8859671919
 21
17.0451421308
 31
0.0
 11
-38.0364775329
 21
17.1639393107
 31
0.0
 11
-38.2137421666
 21
17.2045551788
 31
0.0
  0
ELLIPSE
  5
61A
100
AcDbEntity
  8
RACCORDO
100
AcDbEllipse
 62
7
  6
CONTINUOUS
 10
-23.0826556855
 20
-21.3952924931
 30
0.0
 11
0.7073221892
 21
0.7073221892
 31
0.0
 40
0.9996954599
 41
8.6395320906
 42
8.956963217
  0
ELLIPSE
  5
61B
100
AcDbEntity
  8
RACCORDO
100
AcDbEllipse
 62
7
  6
CONTINUOUS
 10
-23.0826556855
 20
21.4044028508
 30
0.0
 11
0.7073221892
 21
-0.7073221892
 31
0.0
 40
0.9996954599
 41
9.8925927041
 42
10.2100238309
  0
ELLIPSE
  5
61C
100
AcDbEntity
  8
RACCORDO
100
AcDbEllipse
 62
7
  6
CONTINUOUS
 10
19.7170396584
 20
21.4044028508
 30
0.0
 11
-0.7073221892
 21
-0.7073221892
 31
0.0
 40
0.9996954599
 41
8.6395320906
 42
8.956963217
  0
ELLIPSE
  5
61D
100
AcDbEntity
  8
RACCORDO
100
AcDbEllipse
 62
7
  6
CONTINUOUS
 10
19.7170396584
 20
-21.3952924931
 30
0.0
 11
-0.7073221892
 21
0.7073221892
 31
0.0
 40
0.9996954599
 41
9.8925927041
 42
10.2100238309
  0
ELLIPSE
  5
61E
100
AcDbEntity
  8
ASSI
100
AcDbEllipse
 62
7
  6
CONTINUOUS
 10
-23.0826556855
 20
-21.3952924931
 30
0.0
 11
0.7073221892
 21
0.7073221892
 31
0.0
 40
0.9996954599
 41
8.6395320906
 42
8.956963217
  0
ELLIPSE
  5
61F
100
AcDbEntity
  8
ASSI
100
AcDbEllipse
 62
7
  6
CONTINUOUS
 10
-23.0826556855
 20
21.4044028508
 30
0.0
 11
0.7073221892
 21
-0.7073221892
 31
0.0
 40
0.9996954599
 41
9.8925927041
 42
10.2100238309
  0
ELLIPSE
  5
620
100
AcDbEntity
  8
ASSI
100
AcDbEllipse
 62
7
  6
CONTINUOUS
 10
19.7170396584
 20
21.4044028508
 30
0.0
 11
-0.7073221892
 21
-0.7073221892
 31
0.0
 40
0.9996954599
 41
8.6395320906
 42
8.956963217
  0
ELLIPSE
  5
621
100
AcDbEntity
  8
ASSI
100
AcDbEllipse
 62
7
  6
CONTINUOUS
 10
19.7170396584
 20
-21.3952924931
 30
0.0
 11
-0.7073221892
 21
0.7073221892
 31
0.0
 40
0.9996954599
 41
9.8925927041
 42
10.2100238309
  0
ELLIPSE
  5
622
100
AcDbEntity
  8
RACCORDO
100
AcDbEllipse
 62
7
  6
CONTINUOUS
 10
18.0671954134
 20
-24.2454413942
 30
0.0
 11
0.1767815417
 21
0.1767815418
 31
0.0
 40
0.9999725851
 41
-3.9269771094
 42
-2.3562081979
  0
ELLIPSE
  5
623
100
AcDbEntity
  8
RACCORDO
100
AcDbEllipse
 62
7
  6
CONTINUOUS
 10
19.8921885594
 20
-24.2454413942
 30
0.0
 11
0.1767815418
 21
-0.1767815418
 31
0.0
 40
0.9999725851
 41
0.4712289989
 42
0.7853844556
  0
ELLIPSE
  5
624
100
AcDbEntity
  8
RACCORDO
100
AcDbEllipse
 62
7
  6
CONTINUOUS
 10
19.8921885594
 20
-24.2454413942
 30
0.0
 11
-0.1767815417
 21
0.1767815418
 31
0.0
 40
0.9999725851
 41
-3.6128216656
 42
-2.6703636546
  0
ELLIPSE
  5
625
100
AcDbEntity
  8
RACCORDO
100
AcDbEllipse
 62
7
  6
CONTINUOUS
 10
19.8921885594
 20
-24.2454413942
 30
0.0
 11
0.1767815417
 21
-0.1767815418
 31
0.0
 40
0.9999725851
 41
-0.7853844557
 42
-0.4712290121
  0
ELLIPSE
  5
626
100
AcDbEntity
  8
RACCORDO
100
AcDbEllipse
 62
7
  6
CONTINUOUS
 10
1.0671885594
 20
-24.2454413942
 30
0.0
 11
0.1767815418
 21
-0.1767815417
 31
0.0
 40
0.9999725851
 41
-0.7853844558
 42
0.7853844557
  0
ELLIPSE
  5
627
100
AcDbEntity
  8
RACCORDO
100
AcDbEllipse
 62
7
  6
CONTINUOUS
 10
-0.7578045866
 20
-24.2454413942
 30
0.0
 11
0.1767815417
 21
0.1767815418
 31
0.0
 40
0.9999725851
 41
-3.9269771094
 42
-2.3562081979
  0
ELLIPSE
  5
628
100
AcDbEntity
  8
RACCORDO
100
AcDbEllipse
 62
7
  6
CONTINUOUS
 10
18.0671954134
 20
24.2545517519
 30
0.0
 11
-0.1767815418
 21
0.1767815417
 31
0.0
 40
0.9999725851
 41
0.6787856801
 42
0.7853844556
  0
ELLIPSE
  5
629
100
AcDbEntity
  8
RACCORDO
100
AcDbEllipse
 62
7
  6
CONTINUOUS
 10
18.0671954134
 20
24.2545517519
 30
0.0
 11
0.1767815418
 21
-0.1767815417
 31
0.0
 40
0.9999725851
 41
-2.6703636552
 42
-2.4628069738
  0
ELLIPSE
  5
62A
100
AcDbEntity
  8
RACCORDO
100
AcDbEllipse
 62
7
  6
CONTINUOUS
 10
18.0671954134
 20
24.2545517519
 30
0.0
 11
-0.1767815418
 21
0.1767815417
 31
0.0
 40
0.9999725851
 41
-0.7853844558
 42
0.471228999
  0
ELLIPSE
  5
62B
100
AcDbEntity
  8
RACCORDO
100
AcDbEllipse
 62
7
  6
CONTINUOUS
 10
19.8921885594
 20
24.2545517519
 30
0.0
 11
0.1767815417
 21
0.1767815418
 31
0.0
 40
0.9999725851
 41
-0.7853844558
 42
0.7853844559
  0
ELLIPSE
  5
62C
100
AcDbEntity
  8
RACCORDO
100
AcDbEllipse
 62
7
  6
CONTINUOUS
 10
1.0671885594
 20
24.2545517519
 30
0.0
 11
0.1767815418
 21
0.1767815417
 31
0.0
 40
0.9999725851
 41
-0.7853844554
 42
0.7853844558
  0
ELLIPSE
  5
62D
100
AcDbEntity
  8
RACCORDO
100
AcDbEllipse
 62
7
  6
CONTINUOUS
 10
-0.7578045866
 20
24.2545517519
 30
0.0
 11
-0.1767815417
 21
0.1767815418
 31
0.0
 40
0.9999725851
 41
-0.7853844557
 42
0.7853844556
  0
ELLIPSE
  5
62E
100
AcDbEntity
  8
RACCORDO
100
AcDbEllipse
 62
7
  6
CONTINUOUS
 10
-2.6078114406
 20
-24.2454413942
 30
0.0
 11
0.1767815418
 21
-0.1767815418
 31
0.0
 40
0.9999725851
 41
-0.7853844557
 42
0.7853844557
  0
ELLIPSE
  5
62F
100
AcDbEntity
  8
RACCORDO
100
AcDbEllipse
 62
7
  6
CONTINUOUS
 10
-4.4328045866
 20
-24.2454413942
 30
0.0
 11
0.1767815417
 21
0.1767815418
 31
0.0
 40
0.9999725851
 41
-3.9269771094
 42
-2.3562081979
  0
ELLIPSE
  5
630
100
AcDbEntity
  8
RACCORDO
100
AcDbEllipse
 62
7
  6
CONTINUOUS
 10
-21.4328114406
 20
-24.2454413942
 30
0.0
 11
0.1767815418
 21
-0.1767815417
 31
0.0
 40
0.9999725851
 41
-0.785384456
 42
0.7853844556
  0
ELLIPSE
  5
631
100
AcDbEntity
  8
RACCORDO
100
AcDbEllipse
 62
7
  6
CONTINUOUS
 10
-23.2578045866
 20
-24.2454413942
 30
0.0
 11
0.1767815418
 21
0.1767815418
 31
0.0
 40
0.9999725851
 41
-3.9269771093
 42
-2.3562081979
  0
ELLIPSE
  5
632
100
AcDbEntity
  8
RACCORDO
100
AcDbEllipse
 62
7
  6
CONTINUOUS
 10
-4.4328045866
 20
24.2545517519
 30
0.0
 11
-0.1767815416
 21
0.1767815419
 31
0.0
 40
0.9999725851
 41
0.4712289996
 42
0.7853844559
  0
ELLIPSE
  5
633
100
AcDbEntity
  8
RACCORDO
100
AcDbEllipse
 62
7
  6
CONTINUOUS
 10
-4.4328045866
 20
24.2545517519
 30
0.0
 11
0.1767815418
 21
-0.1767815417
 31
0.0
 40
0.9999725851
 41
2.6703636413
 42
3.6128216523
  0
ELLIPSE
  5
634
100
AcDbEntity
  8
RACCORDO
100
AcDbEllipse
 62
7
  6
CONTINUOUS
 10
-4.4328045866
 20
24.2545517519
 30
0.0
 11
-0.1767815417
 21
0.1767815418
 31
0.0
 40
0.9999725851
 41
-0.7853844554
 42
-0.4712290118
  0
ELLIPSE
  5
635
100
AcDbEntity
  8
RACCORDO
100
AcDbEllipse
 62
7
  6
CONTINUOUS
 10
-2.6078114406
 20
24.2545517519
 30
0.0
 11
0.1767815418
 21
0.1767815417
 31
0.0
 40
0.9999725851
 41
-0.7853844554
 42
0.7853844557
  0
ELLIPSE
  5
636
100
AcDbEntity
  8
RACCORDO
100
AcDbEllipse
 62
7
  6
CONTINUOUS
 10
-23.2578045866
 20
24.2545517519
 30
0.0
 11
-0.1767815418
 21
0.1767815418
 31
0.0
 40
0.9999725851
 41
-0.4712290121
 42
0.7853844556
  0
ELLIPSE
  5
637
100
AcDbEntity
  8
RACCORDO
100
AcDbEllipse
 62
7
  6
CONTINUOUS
 10
-23.2578045866
 20
24.2545517519
 30
0.0
 11
0.1767815417
 21
-0.1767815418
 31
0.0
 40
0.9999725851
 41
2.3562081979
 42
2.6703636415
  0
ELLIPSE
  5
638
100
AcDbEntity
  8
RACCORDO
100
AcDbEllipse
 62
7
  6
CONTINUOUS
 10
-21.4328114406
 20
24.2545517519
 30
0.0
 11
0.1767815418
 21
0.1767815417
 31
0.0
 40
0.9999725851
 41
-0.7853844555
 42
0.7853844562
  0
ELLIPSE
  5
639
100
AcDbEntity
  8
RACCORDO
100
AcDbEllipse
 62
7
  6
CONTINUOUS
 10
-0.7460235065
 20
22.2890454547
 30
0.0
 11
0.25
 21
0.0
 31
0.0
 40
0.0524077793
 41
-3.1363566658
 42
-1.5707963268
  0
ELLIPSE
  5
63A
100
AcDbEntity
  8
RACCORDO
100
AcDbEllipse
 62
7
  6
CONTINUOUS
 10
1.0554074793
 20
22.2890454547
 30
0.0
 11
0.25
 21
0.0
 31
0.0
 40
0.0524077793
 41
-1.5707963268
 42
-0.0052359878
  0
ELLIPSE
  5
63B
100
AcDbEntity
  8
RACCORDO
100
AcDbEllipse
 62
7
  6
CONTINUOUS
 10
18.0789764935
 20
22.2890454547
 30
0.0
 11
0.25
 21
-0.0
 31
0.0
 40
0.0524077793
 41
-3.1363566658
 42
-1.5707963268
  0
ELLIPSE
  5
63C
100
AcDbEntity
  8
RACCORDO
100
AcDbEllipse
 62
7
  6
CONTINUOUS
 10
19.8804074793
 20
22.2890454547
 30
0.0
 11
0.25
 21
0.0
 31
0.0
 40
0.0524077793
 41
-1.5707963268
 42
-0.0052359878
  0
ELLIPSE
  5
63D
100
AcDbEntity
  8
RACCORDO
100
AcDbEllipse
 62
7
  6
CONTINUOUS
 10
-21.4445925207
 20
-22.2799350971
 30
0.0
 11
0.25
 21
-0.0
 31
0.0
 40
0.0524077793
 41
0.0052359878
 42
1.5707963268
  0
ELLIPSE
  5
63E
100
AcDbEntity
  8
RACCORDO
100
AcDbEllipse
 62
7
  6
CONTINUOUS
 10
-23.2460235065
 20
-22.2799350971
 30
0.0
 11
0.25
 21
-0.0
 31
0.0
 40
0.0524077793
 41
1.5707963268
 42
3.1363566658
  0
ELLIPSE
  5
63F
100
AcDbEntity
  8
RACCORDO
100
AcDbEllipse
 62
7
  6
CONTINUOUS
 10
-4.4210235065
 20
-22.2799350971
 30
0.0
 11
0.25
 21
-0.0
 31
0.0
 40
0.0524077793
 41
1.5707963268
 42
3.1363566658
  0
ELLIPSE
  5
640
100
AcDbEntity
  8
RACCORDO
100
AcDbEllipse
 62
7
  6
CONTINUOUS
 10
-2.6195925207
 20
-22.2799350971
 30
0.0
 11
0.25
 21
-0.0
 31
0.0
 40
0.0524077793
 41
0.0052359878
 42
1.5707963268
  0
ELLIPSE
  5
641
100
AcDbEntity
  8
RACCORDO
100
AcDbEllipse
 62
7
  6
CONTINUOUS
 10
1.0554074793
 20
-22.2799350971
 30
0.0
 11
0.25
 21
0.0
 31
0.0
 40
0.0524077793
 41
0.0052359878
 42
1.5707963268
  0
ELLIPSE
  5
642
100
AcDbEntity
  8
RACCORDO
100
AcDbEllipse
 62
7
  6
CONTINUOUS
 10
-0.7460235065
 20
-22.2799350971
 30
0.0
 11
0.25
 21
0.0
 31
0.0
 40
0.0524077793
 41
1.5707963268
 42
3.1363566658
  0
ELLIPSE
  5
643
100
AcDbEntity
  8
RACCORDO
100
AcDbEllipse
 62
7
  6
CONTINUOUS
 10
19.8804074793
 20
-22.2799350971
 30
0.0
 11
0.25
 21
-0.0
 31
0.0
 40
0.0524077793
 41
0.0052359878
 42
1.5707963268
  0
ELLIPSE
  5
644
100
AcDbEntity
  8
RACCORDO
100
AcDbEllipse
 62
7
  6
CONTINUOUS
 10
18.0789764935
 20
-22.2799350971
 30
0.0
 11
0.25
 21
0.0
 31
0.0
 40
0.0524077793
 41
1.5707963268
 42
3.1363566658
  0
ELLIPSE
  5
645
100
AcDbEntity
  8
RACCORDO
100
AcDbEllipse
 62
7
  6
CONTINUOUS
 10
-23.2460235065
 20
22.2890454547
 30
0.0
 11
0.25
 21
0.0
 31
0.0
 40
0.0524077793
 41
-3.1363566658
 42
-1.5707963268
  0
ELLIPSE
  5
646
100
AcDbEntity
  8
RACCORDO
100
AcDbEllipse
 62
7
  6
CONTINUOUS
 10
-21.4445925207
 20
22.2890454547
 30
0.0
 11
0.25
 21
0.0
 31
0.0
 40
0.0524077793
 41
-1.5707963268
 42
-0.0052359878
  0
ELLIPSE
  5
647
100
AcDbEntity
  8
RACCORDO
100
AcDbEllipse
 62
7
  6
CONTINUOUS
 10
-4.4210235065
 20
22.2890454547
 30
0.0
 11
0.25
 21
0.0
 31
0.0
 40
0.0524077793
 41
-3.1363566658
 42
-1.5707963268
  0
ELLIPSE
  5
648
100
AcDbEntity
  8
RACCORDO
100
AcDbEllipse
 62
7
  6
CONTINUOUS
 10
-2.6195925207
 20
22.2890454547
 30
0.0
 11
0.25
 21
0.0
 31
0.0
 40
0.0524077793
 41
-1.5707963268
 42
-0.0052359878
  0
ELLIPSE
  5
649
100
AcDbEntity
  8
RACCORDO
100
AcDbEllipse
 62
7
  6
CONTINUOUS
 10
-42.3881502551
 20
-15.6361197743
 30
0.0
 11
0.1743913783
 21
10.003047717
 31
0.0
 40
0.4995435372
 41
-2.1977261386
 42
-2.1357285061
  0
ELLIPSE
  5
64A
100
AcDbEntity
  8
ASSI
100
AcDbEllipse
 62
7
  6
CONTINUOUS
 10
-42.3881502551
 20
-15.6361197743
 30
0.0
 11
0.1743913783
 21
10.003047717
 31
0.0
 40
0.4995435372
 41
-2.1977261386
 42
-2.1357285061
  0
ENDSEC
  0
SECTION
  2
OBJECTS
  0
DICTIONARY
  5
C
100
AcDbDictionary
280
0
281
1
  3
ACAD_GROUP
350
D
  3
ACAD_MLINESTYLE
350
17
  3
ACAD_LAYOUT
350
1A
  3
ACAD_PLOTSETTINGS
350
19
  3
ACAD_PLOTSTYLENAME
350
E
  0
DICTIONARY
  5
D
102
{ACAD_REACTORS
330
C
102
}
100
AcDbDictionary
280
0
281
1
  0
ACDBDICTIONARYWDFLT
  5
E
102
{ACAD_REACTORS
330
C
102
}
100
AcDbDictionary
281
1
  3
Normal
350
F
100
AcDbDictionaryWithDefault
340
F
  0
DICTIONARY
  5
17
102
{ACAD_REACTORS
330
C
102
}
100
AcDbDictionary
280
0
281
1
  3
Standard
350
18
  0
DICTIONARY
  5
19
102
{ACAD_REACTORS
330
C
102
}
100
AcDbDictionary
281
1
  0
DICTIONARY
  5
1A
102
{ACAD_REACTORS
330
C
102
}
100
AcDbDictionary
281
1
  3
Model
350
64B
  3
Layout1
350
64C
  0
ACDBPLACEHOLDER
  5
F
102
{ACAD_REACTORS
330
E
102
}
  0
MLINESTYLE
  5
18
102
{ACAD_REACTORS
330
17
102
}
100
AcDbMlineStyle
  2
STANDARD
 70
0
  3

 62
256
 51
90.0
 52
90.0
 71
2
 49
0.5
 62
256
  6
BYLAYER
 49
-0.5
 62
256
  6
BYLAYER
  0
LAYOUT
  5
64B
102
{ACAD_REACTORS
330
1A
102
}
100
AcDbPlotSettings
  1

  2
none_device
  4
ISO_A4_(297.00_x_210.00_MM)
  6

 40
0.0
 41
0.0
 42
0.0
 43
0.0
 44
297.0
 45
210.0
 46
0.0
 47
0.0
 48
0.0
 49
0.0
140
0.0
141
0.0
142
1.0
143
1.0
 70
1024
 72
1
 73
0
 74
0
  7

 75
0
147
1.0
148
0.0
149
0.0
100
AcDbLayout
  1
Model
 70
0
 71
0
 10
0.0
 20
0.0
 11
297.0
 21
210.0
 12
0.0
 22
0.0
 32
0.0
 14
0.0
 24
0.0
 34
0.0
 15
0.0
 25
0.0
 35
0.0
146
0.0
 13
0.0
 23
0.0
 33
0.0
 16
1.0
 26
0.0
 36
0.0
 17
0.0
 27
1.0
 37
0.0
 76
0
330
219
345
0
346
0
  0
LAYOUT
  5
64C
102
{ACAD_REACTORS
330
1A
102
}
100
AcDbPlotSettings
  1

  2
none_device
  4
ISO_A4_(297.00_x_210.00_MM)
  6

 40
0.0
 41
0.0
 42
0.0
 43
0.0
 44
297.0
 45
210.0
 46
0.0
 47
0.0
 48
0.0
 49
0.0
140
0.0
141
0.0
142
1.0
143
1.0
 70
0
 72
1
 73
0
 74
0
  7

 75
0
147
1.0
148
0.0
149
0.0
100
AcDbLayout
  1
Layout1
 70
0
 71
1
 10
0.0
 20
0.0
 11
297.0
 21
210.0
 12
0.0
 22
0.0
 32
0.0
 14
0.0
 24
0.0
 34
0.0
 15
0.0
 25
0.0
 35
0.0
146
0.0
 13
0.0
 23
0.0
 33
0.0
 16
1.0
 26
0.0
 36
0.0
 17
0.0
 27
1.0
 37
0.0
 76
0
330
21A
345
0
346
0
  0
ENDSEC
  0
EOF
