0
SECTION
2
HEADER
9
$ACADVER
1
AC1015
9
$DWGCODEPAGE
3
ANSI_1252
9
$EXTMAX
10
431.8000000000
20
558.8000000000
30
0.0000000000
9
$EXTMIN
10
0.0000000000
20
0.0000000000
30
0.0000000000
9
$LIMMIN
10
0.0000000000
20
0.0000000000
9
$LIMMAX
10
431.8000000000
20
558.8000000000
9
$VIEWCTR
10
215.9000000000
20
279.4000000000
9
$VIEWSIZE
40
558.8000000000
9
$CLAYER
8
0
9
$LTSCALE
40
36.4254814815
9
$CELTYPE
6
BYLAYER
9
$DIMSCALE
40
1
9
$DIMASZ
40
3.0000000000
9
$DIMEXO
40
4.1392592593
9
$DIMDLI
40
25.1666962963
9
$DIMEXE
40
11.9210666667
9
$DIMCEN
40
5.9605333333
9
$DIMLFAC
40
1.0000000000
9
$DIMBLK
1
_FILLED
9
$DIMTXT
40
3.0000000000
9
$DIMTOL
70
1
9
$DIMLIM
70
0
9
$DIMTFAC
40
1.0000000000
9
$DIMTP
40
0.0100000000
9
$DIMTM
40
0.0100000000
9
$PDMODE
70
3
9
$PDSIZE
40
3.0000000000
9
$HANDSEED
5
5C4
9
$MEASUREMENT
70
1
9
$INSUNITS
70
4
0
ENDSEC
0
SECTION
2
CLASSES
0
CLASS
1
ACDBDICTIONARYWDFLT
2
AcDbDictionaryWithDefault
3
AutoCAD 2000
90
0
280
0
281
0
0
CLASS
1
ACDBPLACEHOLDER
2
AcDbPlaceHolder
3
AutoCAD 2000
90
0
280
0
281
0
0
CLASS
1
LAYOUT
2
AcDbLayout
3
AutoCAD 2000
90
0
280
0
281
0
0
ENDSEC
0
SECTION
2
TABLES
0
TABLE
2
VPORT
5
8
100
AcDbSymbolTable
70
2
0
VPORT
5
1F4
100
AcDbSymbolTableRecord
100
AcDbViewportTableRecord
2
*ACTIVE
70
0
10
0.0
20
0.0
11
1.0
21
1.0
12
215.9000000000
22
279.4000000000
13
0.0
23
0.0
14
1.0
24
1.0
15
0.0
25
0.0
16
0.0
26
0.0
36
1.0
17
0.0
27
0.0
37
0.0
40
558.8000000000
41
0.7727272727
42
50.0
43
0.0
44
0.0
50
0.0
51
0.0
71
0
72
100
73
1
74
1
75
0
76
0
77
0
78
0
0
ENDTAB
0
TABLE
2
LTYPE
5
5
100
AcDbSymbolTable
70
6
0
LTYPE
5
14
100
AcDbSymbolTableRecord
100
AcDbLinetypeTableRecord
2
BYBLOCK
70
0
3

72
65
73
0
40
0.0
0
LTYPE
5
15
100
AcDbSymbolTableRecord
100
AcDbLinetypeTableRecord
2
BYLAYER
70
0
3

72
65
73
0
40
0.0
0
LTYPE
5
16
100
AcDbSymbolTableRecord
100
AcDbLinetypeTableRecord
2
CONTINUOUS
70
64
3
Solid line
72
65
73
0
40
0
0
LTYPE
5
1F5
100
AcDbSymbolTableRecord
100
AcDbLinetypeTableRecord
2
CENTER
70
64
3
____ _ ____ _ ____ _ ____ _ ____ _ ____ _ ____
72
65
73
4
40
0.6
49
0.375
74
0
49
-0.075
74
0
49
0.075
74
0
49
-0.075
74
0
0
LTYPE
5
1F6
100
AcDbSymbolTableRecord
100
AcDbLinetypeTableRecord
2
HIDDEN
70
64
3
- - - - - - - - - - - - - - - - - - - -
72
65
73
2
40
0.2
49
0.1
74
0
49
-0.1
74
0
0
LTYPE
5
1F7
100
AcDbSymbolTableRecord
100
AcDbLinetypeTableRecord
2
PHANTOM
70
64
3
_____ _ _ _____ _ _ _____ _ _ _____
72
65
73
6
40
0.8
49
0.45
74
0
49
-0.05
74
0
49
0.1
74
0
49
-0.05
74
0
49
0.1
74
0
49
-0.05
74
0
0
LTYPE
5
1F8
100
AcDbSymbolTableRecord
100
AcDbLinetypeTableRecord
2
DOT
70
64
3
. . . . . . . . . . . . . . . . . . . .
72
65
73
2
40
0.2
49
0.1
74
0
49
-0.1
74
0
0
LTYPE
5
1F9
100
AcDbSymbolTableRecord
100
AcDbLinetypeTableRecord
2
DASHED
70
64
3
- - - - - - - - - - - - - - - - - - - -
72
65
73
2
40
0.2
49
0.1
74
0
49
-0.1
74
0
0
ENDTAB
0
TABLE
2
LAYER
5
2
100
AcDbSymbolTable
70
36
0
LAYER
5
10
100
AcDbSymbolTableRecord
100
AcDbLayerTableRecord
2
0
70
0
62
7
6
CONTINUOUS
370
-3
390
F
0
LAYER
5
1FA
100
AcDbSymbolTableRecord
100
AcDbLayerTableRecord
2
DEFAULT_1
70
0
62
7
6
CENTER
370
-3
390
F
0
LAYER
5
1FB
100
AcDbSymbolTableRecord
100
AcDbLayerTableRecord
2
DEFAULT_2
70
0
62
9
6
HIDDEN
370
-3
390
F
0
LAYER
5
1FC
100
AcDbSymbolTableRecord
100
AcDbLayerTableRecord
2
DEFAULT_3
70
0
62
7
6
PHANTOM
370
-3
390
F
0
LAYER
5
1FD
100
AcDbSymbolTableRecord
100
AcDbLayerTableRecord
2
_2D_DELETED_OBJS
70
0
62
7
6
CONTINUOUS
370
-3
390
F
0
LAYER
5
1FE
100
AcDbSymbolTableRecord
100
AcDbLayerTableRecord
2
_BLACK_HOLE
70
0
62
7
6
CONTINUOUS
370
-3
390
F
0
LAYER
5
1FF
100
AcDbSymbolTableRecord
100
AcDbLayerTableRecord
2
ASSI
70
0
62
7
6
CONTINUOUS
370
-3
390
F
0
LAYER
5
200
100
AcDbSymbolTableRecord
100
AcDbLayerTableRecord
2
COORDINATE
70
0
62
7
6
CONTINUOUS
370
-3
390
F
0
LAYER
5
201
100
AcDbSymbolTableRecord
100
AcDbLayerTableRecord
2
COORD_ORIGINE
70
0
62
7
6
CONTINUOUS
370
-3
390
F
0
LAYER
5
202
100
AcDbSymbolTableRecord
100
AcDbLayerTableRecord
2
CURVE
70
0
62
7
6
CONTINUOUS
370
-3
390
F
0
LAYER
5
203
100
AcDbSymbolTableRecord
100
AcDbLayerTableRecord
2
DRAFT
70
0
62
7
6
CONTINUOUS
370
-3
390
F
0
LAYER
5
204
100
AcDbSymbolTableRecord
100
AcDbLayerTableRecord
2
IMPORT
70
0
62
7
6
CONTINUOUS
370
-3
390
F
0
LAYER
5
205
100
AcDbSymbolTableRecord
100
AcDbLayerTableRecord
2
NOTE
70
0
62
7
6
CONTINUOUS
370
-3
390
F
0
LAYER
5
206
100
AcDbSymbolTableRecord
100
AcDbLayerTableRecord
2
PIANI
70
0
62
7
6
CONTINUOUS
370
-3
390
F
0
LAYER
5
207
100
AcDbSymbolTableRecord
100
AcDbLayerTableRecord
2
PIANI_ORIGINE
70
0
62
7
6
CONTINUOUS
370
-3
390
F
0
LAYER
5
208
100
AcDbSymbolTableRecord
100
AcDbLayerTableRecord
2
PUNTI
70
0
62
7
6
CONTINUOUS
370
-3
390
F
0
LAYER
5
209
100
AcDbSymbolTableRecord
100
AcDbLayerTableRecord
2
RACCORDO
70
0
62
7
6
CONTINUOUS
370
-3
390
F
0
LAYER
5
20A
100
AcDbSymbolTableRecord
100
AcDbLayerTableRecord
2
SMUSSO
70
0
62
7
6
CONTINUOUS
370
-3
390
F
0
LAYER
5
20B
100
AcDbSymbolTableRecord
100
AcDbLayerTableRecord
2
SNAPLINE
70
0
62
7
6
CONTINUOUS
370
-3
390
F
0
LAYER
5
20C
100
AcDbSymbolTableRecord
100
AcDbLayerTableRecord
2
SUPERFICI
70
0
62
7
6
CONTINUOUS
370
-3
390
F
0
LAYER
5
20D
100
AcDbSymbolTableRecord
100
AcDbLayerTableRecord
2
TRASH
70
0
62
7
6
CONTINUOUS
370
-3
390
F
0
ENDTAB
0
TABLE
2
STYLE
5
3
100
AcDbSymbolTable
70
1
0
STYLE
5
11
100
AcDbSymbolTableRecord
100
AcDbTextStyleTableRecord
2
STANDARD
70
0
40
0.0
41
0.8000000000
50
0.0
71
0
42
0.2
3
txt
4

0
ENDTAB
0
TABLE
2
VIEW
5
6
100
AcDbSymbolTable
70
0
0
ENDTAB
0
TABLE
2
UCS
5
7
100
AcDbSymbolTable
70
0
0
ENDTAB
0
TABLE
2
APPID
5
9
100
AcDbSymbolTable
70
1
0
APPID
5
20E
100
AcDbSymbolTableRecord
100
AcDbRegAppTableRecord
2
ACAD
70
0
0
ENDTAB
0
TABLE
2
BLOCK_RECORD
5
1
100
AcDbSymbolTable
70
0
0
BLOCK_RECORD
5
1F
100
AcDbSymbolTableRecord
100
AcDbBlockTableRecord
2
*MODEL_SPACE
0
BLOCK_RECORD
5
1B
100
AcDbSymbolTableRecord
100
AcDbBlockTableRecord
2
*PAPER_SPACE
0
BLOCK_RECORD
5
20F
100
AcDbSymbolTableRecord
100
AcDbBlockTableRecord
2
_FILLED
0
BLOCK_RECORD
5
210
100
AcDbSymbolTableRecord
100
AcDbBlockTableRecord
2
*D0
0
BLOCK_RECORD
5
211
100
AcDbSymbolTableRecord
100
AcDbBlockTableRecord
2
*D1
0
BLOCK_RECORD
5
212
100
AcDbSymbolTableRecord
100
AcDbBlockTableRecord
2
*D2
0
ENDTAB
0
TABLE
2
DIMSTYLE
5
A
100
AcDbSymbolTable
70
1
100
AcDbDimStyleTable
71
0
0
DIMSTYLE
105
213
100
AcDbSymbolTableRecord
100
AcDbDimStyleTableRecord
2
STANDARD
70
0
3

4

40
1.0
41
3.0000000000
42
0.0625
43
0.38
44
0.18
45
0.0
46
0.0
47
0.0100000000
48
0.0100000000
140
3.0000000000
141
0.09
142
0.0
143
25.4
144
1.0000000000
145
0.0
146
1.0000000000
147
0.09
71
1
72
0
73
0
74
0
75
0
76
0
77
1
78
8
170
0
171
2
172
0
173
0
174
0
175
0
176
0
177
0
178
0
270
2
271
2
272
2
273
2
274
2
275
0
280
0
281
0
282
0
283
1
284
8
285
0
286
0
287
3
288
0
340
11
341
20F
342
20F
343
20F
344
20F
0
DIMSTYLE
105
214
100
AcDbSymbolTableRecord
100
AcDbDimStyleTableRecord
2
DIMSTYLE_1
70
0
3

4

40
1.0
41
3.0000000000
42
0.0625
43
0.38
44
0.18
45
0.0
46
0.0
47
0.0000000000
48
0.0000000000
140
3.0000000000
141
0.09
142
0.0
143
25.4
144
1.0000000000
145
0.0
146
1.0000000000
147
0.09
71
0
72
0
73
0
74
0
75
0
76
0
77
1
78
8
170
0
171
2
172
0
173
0
174
0
175
0
176
0
177
0
178
0
270
2
271
2
272
2
273
2
274
2
275
0
280
0
281
0
282
0
283
1
284
8
285
0
286
0
287
3
288
0
340
11
341
20F
342
20F
343
20F
344
20F
0
ENDTAB
0
ENDSEC
0
SECTION
2
BLOCKS
0
BLOCK
5
20
100
AcDbEntity
8
0
100
AcDbBlockBegin
2
*MODEL_SPACE
70
0
10
0.0
20
0.0
30
0.0
3
*MODEL_SPACE
1

0
ENDBLK
5
21
100
AcDbEntity
8
0
100
AcDbBlockEnd
0
BLOCK
5
1C
100
AcDbEntity
8
0
100
AcDbBlockBegin
2
*PAPER_SPACE
70
0
10
0.0
20
0.0
30
0.0
3
*PAPER_SPACE
1

0
ENDBLK
5
1D
100
AcDbEntity
8
0
100
AcDbBlockEnd
0
BLOCK
5
215
100
AcDbEntity
8
0
100
AcDbBlockBegin
62
0
6
CONTINUOUS
2
*D0
70
65
10
0.0000000000
20
0.0000000000
3
*D0
1

0
TEXT
5
216
100
AcDbEntity
8
0
100
AcDbText
62
0
6
CONTINUOUS
10
-18.6635203637
20
30.6033892514
7
STANDARD
40
3.0000000000
1
7,9
41
0.7142857143
72
0
100
AcDbText
0
LINE
5
217
100
AcDbEntity
8
0
100
AcDbLine
62
0
6
CONTINUOUS
10
-11.4992346494
20
21.5535110953
11
-11.4992346494
21
31.3533892514
0
LINE
5
218
100
AcDbEntity
8
0
100
AcDbLine
62
0
6
CONTINUOUS
10
-19.3992346494
20
0.5033892514
11
-19.3992346494
21
31.3533892514
0
LINE
5
219
100
AcDbEntity
8
0
100
AcDbLine
62
0
6
CONTINUOUS
10
-11.4992346494
20
29.8533892514
11
-7.4992346494
21
29.8533892514
0
LINE
5
21A
100
AcDbEntity
8
0
100
AcDbLine
62
0
6
CONTINUOUS
10
-7.4992346494
20
29.8533892514
11
-15.4492346494
21
29.8533892514
0
LINE
5
21B
100
AcDbEntity
8
0
100
AcDbLine
62
0
6
CONTINUOUS
10
-19.3992346494
20
29.8533892514
11
-23.3992346494
21
29.8533892514
0
LINE
5
21C
100
AcDbEntity
8
0
100
AcDbLine
62
0
6
CONTINUOUS
10
-23.3992346494
20
29.8533892514
11
-15.4492346494
21
29.8533892514
0
INSERT
5
21D
100
AcDbEntity
8
0
100
AcDbBlockReference
62
0
6
CONTINUOUS
2
_FILLED
10
-11.4992346494
20
29.8533892514
41
  3.000000
42
  3.000000
43
  3.000000
50
180.000000
0
INSERT
5
21E
100
AcDbEntity
8
0
100
AcDbBlockReference
62
0
6
CONTINUOUS
2
_FILLED
10
-19.3992346494
20
29.8533892514
41
  3.000000
42
  3.000000
43
  3.000000
0
ENDBLK
5
21F
100
AcDbEntity
8
0
6
BYBLOCK
62
0
100
AcDbBlockEnd
0
BLOCK
5
220
100
AcDbEntity
8
0
100
AcDbBlockBegin
62
0
6
CONTINUOUS
2
*D1
70
65
10
0.0000000000
20
0.0000000000
3
*D1
1

0
TEXT
5
221
100
AcDbEntity
8
0
100
AcDbText
62
0
6
CONTINUOUS
10
20.0768529415
20
30.6033892514
7
STANDARD
40
3.0000000000
1
22,2
41
0.7321428571
72
0
100
AcDbText
0
LINE
5
222
100
AcDbEntity
8
0
100
AcDbLine
62
0
6
CONTINUOUS
10
13.3697100844
20
21.5535110953
11
13.3697100844
21
31.3533892514
0
LINE
5
223
100
AcDbEntity
8
0
100
AcDbLine
62
0
6
CONTINUOUS
10
35.5697100844
20
21.5535110953
11
35.5697100844
21
31.3533892514
0
LINE
5
224
100
AcDbEntity
8
0
100
AcDbLine
62
0
6
CONTINUOUS
10
13.3697100844
20
29.8533892514
11
24.4697100844
21
29.8533892514
0
LINE
5
225
100
AcDbEntity
8
0
100
AcDbLine
62
0
6
CONTINUOUS
10
35.5697100844
20
29.8533892514
11
24.4697100844
21
29.8533892514
0
INSERT
5
226
100
AcDbEntity
8
0
100
AcDbBlockReference
62
0
6
CONTINUOUS
2
_FILLED
10
13.3697100844
20
29.8533892514
41
  3.000000
42
  3.000000
43
  3.000000
50
180.000000
0
INSERT
5
227
100
AcDbEntity
8
0
100
AcDbBlockReference
62
0
6
CONTINUOUS
2
_FILLED
10
35.5697100844
20
29.8533892514
41
  3.000000
42
  3.000000
43
  3.000000
0
ENDBLK
5
228
100
AcDbEntity
8
0
6
BYBLOCK
62
0
100
AcDbBlockEnd
0
BLOCK
5
229
100
AcDbEntity
8
0
100
AcDbBlockBegin
62
0
6
CONTINUOUS
2
*D2
70
65
10
0.0000000000
20
0.0000000000
3
*D2
1

0
TEXT
5
22A
100
AcDbEntity
8
0
100
AcDbText
62
0
6
CONTINUOUS
10
42.8197100844
20
-4.2823250343
7
STANDARD
40
3.0000000000
1
43,7
50
90.0000000000
41
0.7142857143
72
0
100
AcDbText
0
LINE
5
22B
100
AcDbEntity
8
0
100
AcDbLine
62
0
6
CONTINUOUS
10
35.2698319283
20
21.8533892514
11
45.0697100844
21
21.8533892514
0
LINE
5
22C
100
AcDbEntity
8
0
100
AcDbLine
62
0
6
CONTINUOUS
10
35.2698319283
20
-21.8466107486
11
45.0697100844
21
-21.8466107486
0
LINE
5
22D
100
AcDbEntity
8
0
100
AcDbLine
62
0
6
CONTINUOUS
10
43.5697100844
20
21.8533892514
11
43.5697100844
21
0.0033892514
0
LINE
5
22E
100
AcDbEntity
8
0
100
AcDbLine
62
0
6
CONTINUOUS
10
43.5697100844
20
-21.8466107486
11
43.5697100844
21
0.0033892514
0
INSERT
5
22F
100
AcDbEntity
8
0
100
AcDbBlockReference
62
0
6
CONTINUOUS
2
_FILLED
10
43.5697100844
20
21.8533892514
41
  3.000000
42
  3.000000
43
  3.000000
50
 90.000000
0
INSERT
5
230
100
AcDbEntity
8
0
100
AcDbBlockReference
62
0
6
CONTINUOUS
2
_FILLED
10
43.5697100844
20
-21.8466107486
41
  3.000000
42
  3.000000
43
  3.000000
50
270.000000
0
ENDBLK
5
231
100
AcDbEntity
8
0
6
BYBLOCK
62
0
100
AcDbBlockEnd
0
BLOCK
5
232
100
AcDbEntity
8
0
100
AcDbBlockBegin
2
_FILLED
70
64
10
0.0000000000
20
0.0000000000
3
_FILLED
1

0
SOLID
5
233
100
AcDbEntity
8
0
6
BYBLOCK
62
0
100
AcDbTrace
10
0.0000000000
20
0.0000000000
11
-1.0000000000
21
0.3166666667
12
-1.0000000000
22
-0.3166666667
13
-1.0000000000
23
-0.3166666667
0
ENDBLK
5
234
100
AcDbEntity
8
0
6
BYBLOCK
62
0
100
AcDbBlockEnd
0
ENDSEC
0
SECTION
2
ENTITIES
0
DIMENSION
5
235
100
AcDbEntity
8
0
100
AcDbDimension
62
0
6
CONTINUOUS
2
*D0
10
-19.3992346494
20
29.8533892514
11
-15.4492346494
21
32.1033892514
70
160
42
7.900000
3
DIMSTYLE_1
100
AcDbAlignedDimension
13
-11.4992346494
23
21.5535110953
14
-19.3992346494
24
0.5033892514
50
180.000000
100
AcDbRotatedDimension
0
DIMENSION
5
236
100
AcDbEntity
8
0
100
AcDbDimension
62
0
6
CONTINUOUS
2
*D1
10
35.5697100844
20
29.8533892514
11
24.4697100844
21
32.1033892514
70
160
42
22.200000
3
DIMSTYLE_1
100
AcDbAlignedDimension
13
13.3697100844
23
21.5535110953
14
35.5697100844
24
21.5535110953
100
AcDbRotatedDimension
0
DIMENSION
5
237
100
AcDbEntity
8
0
100
AcDbDimension
62
0
6
CONTINUOUS
2
*D2
10
43.5697100844
20
-21.8466107486
11
41.3197100844
21
0.0033892514
70
160
42
43.700000
3
DIMSTYLE_1
100
AcDbAlignedDimension
13
35.2698319283
23
21.8533892514
14
35.2698319283
24
-21.8466107486
50
270.000000
100
AcDbRotatedDimension
0
LINE
5
238
100
AcDbEntity
8
0
100
AcDbLine
62
9
6
CONTINUOUS
10
-17.3981262340
20
-20.9250604465
11
-17.3692573190
21
-20.9317844908
0
LINE
5
239
100
AcDbEntity
8
0
100
AcDbLine
62
9
6
CONTINUOUS
10
-17.4275610618
20
-20.9168252858
11
-17.3981262340
21
-20.9250604465
0
LINE
5
23A
100
AcDbEntity
8
0
100
AcDbLine
62
9
6
CONTINUOUS
10
-17.4575417894
20
-20.9071190713
11
-17.4275610618
21
-20.9168252858
0
LINE
5
23B
100
AcDbEntity
8
0
100
AcDbLine
62
0
6
CONTINUOUS
10
13.9599497681
20
-21.8183653129
11
13.8630432035
21
-21.7855516195
0
LINE
5
23C
100
AcDbEntity
8
0
100
AcDbLine
62
9
6
CONTINUOUS
10
-17.4875862113
20
-20.8957685711
11
-17.4575417894
21
-20.9071190713
0
LINE
5
23D
100
AcDbEntity
8
0
100
AcDbLine
62
9
6
CONTINUOUS
10
24.0002695805
20
-14.2136771794
11
23.9551313232
21
-14.1952795755
0
LINE
5
23E
100
AcDbEntity
8
0
100
AcDbLine
62
9
6
CONTINUOUS
10
-17.5177063119
20
-20.8827200206
11
-17.4875862113
21
-20.8957685711
0
LINE
5
23F
100
AcDbEntity
8
0
100
AcDbLine
62
9
6
CONTINUOUS
10
23.9551313232
20
-14.1952795755
11
23.9097171886
21
-14.1745406131
0
LINE
5
240
100
AcDbEntity
8
0
100
AcDbLine
62
9
6
CONTINUOUS
10
24.9844797699
20
-11.8066935536
11
25.0299122580
21
-11.8274503944
0
LINE
5
241
100
AcDbEntity
8
0
100
AcDbLine
62
9
6
CONTINUOUS
10
13.8698855036
20
-21.6392001051
11
13.9962306967
21
-21.6981413117
0
LINE
5
242
100
AcDbEntity
8
0
100
AcDbLine
62
9
6
CONTINUOUS
10
-17.5478901069
20
-20.8680271844
11
-17.5177063119
21
-20.8827200206
0
LINE
5
243
100
AcDbEntity
8
0
100
AcDbLine
62
0
6
CONTINUOUS
10
13.8630432035
20
-21.7855516195
11
13.7699899755
21
-21.7393038748
0
LINE
5
244
100
AcDbEntity
8
0
100
AcDbLine
62
9
6
CONTINUOUS
10
15.5459877802
20
-4.6944020973
11
15.5847213767
21
-4.7137540188
0
LINE
5
245
100
AcDbEntity
8
0
100
AcDbLine
62
9
6
CONTINUOUS
10
23.9097171886
20
-14.1745406131
11
23.8638158107
21
-14.1514802788
0
LINE
5
246
100
AcDbEntity
8
0
100
AcDbLine
62
9
6
CONTINUOUS
10
25.0299122580
20
-11.8274503944
11
25.0758334756
21
-11.8505316980
0
LINE
5
247
100
AcDbEntity
8
0
100
AcDbLine
62
9
6
CONTINUOUS
10
15.8486217084
20
-4.1453968054
11
15.8447450590
21
-4.1433875391
0
LINE
5
248
100
AcDbEntity
8
0
100
AcDbLine
62
9
6
CONTINUOUS
10
-17.5776194381
20
-20.8516781250
11
-17.5478901069
21
-20.8680271844
0
LINE
5
249
100
AcDbEntity
8
0
100
AcDbLine
62
9
6
CONTINUOUS
10
23.8638158107
20
-14.1514802788
11
23.8176385556
21
-14.1260785378
0
LINE
5
24A
100
AcDbEntity
8
0
100
AcDbLine
62
9
6
CONTINUOUS
10
25.0758334756
20
-11.8505316980
11
25.1220314314
21
-11.8759572709
0
LINE
5
24B
100
AcDbEntity
8
0
100
AcDbLine
62
9
6
CONTINUOUS
10
15.5074752053
20
-4.6715667056
11
15.5459877802
21
-4.6944020973
0
LINE
5
24C
100
AcDbEntity
8
0
100
AcDbLine
62
9
6
CONTINUOUS
10
15.6168434153
20
-4.5011447037
11
15.6412489644
21
-4.5156990226
0
LINE
5
24D
100
AcDbEntity
8
0
100
AcDbLine
62
9
6
CONTINUOUS
10
23.8176385556
20
-14.1260785378
11
23.7712731815
21
-14.0977529886
0
LINE
5
24E
100
AcDbEntity
8
0
100
AcDbLine
62
9
6
CONTINUOUS
10
25.1220314314
20
-11.8759572709
11
25.1684168846
21
-11.9043101062
0
LINE
5
24F
100
AcDbEntity
8
0
100
AcDbLine
62
9
6
CONTINUOUS
10
-17.6068879411
20
-20.8336107966
11
-17.5776194381
21
-20.8516781250
0
LINE
5
250
100
AcDbEntity
8
0
100
AcDbLine
62
9
6
CONTINUOUS
10
15.8447450590
20
-4.1433875391
11
15.8410647048
21
-4.1410394039
0
LINE
5
251
100
AcDbEntity
8
0
100
AcDbLine
62
9
6
CONTINUOUS
10
13.4818533102
20
-20.2941607175
11
13.4961303368
21
-20.3034828552
0
LINE
5
252
100
AcDbEntity
8
0
100
AcDbLine
62
0
6
CONTINUOUS
10
13.7699899755
20
-21.7393038748
11
13.6822118618
21
-21.6805954798
0
LINE
5
253
100
AcDbEntity
8
0
100
AcDbLine
62
9
6
CONTINUOUS
10
23.7712731815
20
-14.0977529886
11
23.7245479210
21
-14.0664615451
0
LINE
5
254
100
AcDbEntity
8
0
100
AcDbLine
62
9
6
CONTINUOUS
10
25.1684168846
20
-11.9043101062
11
25.2151614660
21
-11.9356320914
0
LINE
5
255
100
AcDbEntity
8
0
100
AcDbLine
62
9
6
CONTINUOUS
10
-17.6357019803
20
-20.8138872449
11
-17.6068879411
21
-20.8336107966
0
LINE
5
256
100
AcDbEntity
8
0
100
AcDbLine
62
9
6
CONTINUOUS
10
13.7556854281
20
-21.5592217171
11
13.8698855036
21
-21.6392001051
0
LINE
5
257
100
AcDbEntity
8
0
100
AcDbLine
62
9
6
CONTINUOUS
10
15.4708599761
20
-4.6455581238
11
15.5074752053
21
-4.6715667056
0
LINE
5
258
100
AcDbEntity
8
0
100
AcDbLine
62
0
6
CONTINUOUS
10
15.5948322121
20
-4.4643764357
11
15.6438181145
21
-4.4992106436
0
LINE
5
259
100
AcDbEntity
8
0
100
AcDbLine
62
9
6
CONTINUOUS
10
15.5934678643
20
-4.4844796156
11
15.6168434153
21
-4.5011447037
0
LINE
5
25A
100
AcDbEntity
8
0
100
AcDbLine
62
9
6
CONTINUOUS
10
23.7245479210
20
-14.0664615451
11
23.6776345416
21
-14.0322462114
0
LINE
5
25B
100
AcDbEntity
8
0
100
AcDbLine
62
9
6
CONTINUOUS
10
25.2151614660
20
-11.9356320914
11
25.2620935447
21
-11.9698812686
0
LINE
5
25C
100
AcDbEntity
8
0
100
AcDbLine
62
9
6
CONTINUOUS
10
-17.6635624909
20
-20.7926816689
11
-17.6357019803
21
-20.8138872449
0
LINE
5
25D
100
AcDbEntity
8
0
100
AcDbLine
62
9
6
CONTINUOUS
10
15.8410647048
20
-4.1410394039
11
15.8375733455
21
-4.1383604671
0
LINE
5
25E
100
AcDbEntity
8
0
100
AcDbLine
62
9
6
CONTINUOUS
10
23.6776345416
20
-14.0322462114
11
23.6311361034
21
-13.9946507009
0
LINE
5
25F
100
AcDbEntity
8
0
100
AcDbLine
62
9
6
CONTINUOUS
10
25.2620935447
20
-11.9698812686
11
25.3086089877
21
-12.0075148452
0
LINE
5
260
100
AcDbEntity
8
0
100
AcDbLine
62
9
6
CONTINUOUS
10
15.5712936358
20
-4.4657320109
11
15.5934678643
21
-4.4844796156
0
LINE
5
261
100
AcDbEntity
8
0
100
AcDbLine
62
9
6
CONTINUOUS
10
-17.6904384451
20
-20.7699356715
11
-17.6635624909
21
-20.7926816689
0
LINE
5
262
100
AcDbEntity
8
0
100
AcDbLine
62
9
6
CONTINUOUS
10
15.4362710991
20
-4.6160435428
11
15.4708599761
21
-4.6455581238
0
LINE
5
263
100
AcDbEntity
8
0
100
AcDbLine
62
0
6
CONTINUOUS
10
13.6822118618
20
-21.6805954798
11
13.6039741955
21
-21.6123466375
0
LINE
5
264
100
AcDbEntity
8
0
100
AcDbLine
62
9
6
CONTINUOUS
10
23.6311361034
20
-13.9946507009
11
23.5849952006
21
-13.9536800981
0
LINE
5
265
100
AcDbEntity
8
0
100
AcDbLine
62
9
6
CONTINUOUS
10
25.3086089877
20
-12.0075148452
11
25.3547654699
21
-12.0485277110
0
LINE
5
266
100
AcDbEntity
8
0
100
AcDbLine
62
9
6
CONTINUOUS
10
15.8375733455
20
-4.1383604671
11
15.8343517886
21
-4.1354121262
0
LINE
5
267
100
AcDbEntity
8
0
100
AcDbLine
62
9
6
CONTINUOUS
10
-17.7163608707
20
-20.7457076498
11
-17.6904384451
21
-20.7699356715
0
LINE
5
268
100
AcDbEntity
8
0
100
AcDbLine
62
9
6
CONTINUOUS
10
23.5849952006
20
-13.9536800981
11
23.5392692391
21
-13.9093291957
0
LINE
5
269
100
AcDbEntity
8
0
100
AcDbLine
62
9
6
CONTINUOUS
10
13.6570990390
20
-21.4606353132
11
13.7556854281
21
-21.5592217171
0
LINE
5
26A
100
AcDbEntity
8
0
100
AcDbLine
62
9
6
CONTINUOUS
10
-17.7409237859
20
-20.7203469947
11
-17.7163608707
21
-20.7457076498
0
LINE
5
26B
100
AcDbEntity
8
0
100
AcDbLine
62
9
6
CONTINUOUS
10
-17.7640745796
20
-20.6938125771
11
-17.7409237859
21
-20.7203469947
0
LINE
5
26C
100
AcDbEntity
8
0
100
AcDbLine
62
0
6
CONTINUOUS
10
13.6039741955
20
-21.6123466375
11
13.5357253532
21
-21.5341089712
0
LINE
5
26D
100
AcDbEntity
8
0
100
AcDbLine
62
9
6
CONTINUOUS
10
-17.7858658630
20
-20.6661455261
11
-17.7640745796
21
-20.6938125771
0
LINE
5
26E
100
AcDbEntity
8
0
100
AcDbLine
62
9
6
CONTINUOUS
10
-17.8060494870
20
-20.6378186196
11
-17.7858658630
21
-20.6661455261
0
LINE
5
26F
100
AcDbEntity
8
0
100
AcDbLine
62
9
6
CONTINUOUS
10
-17.8245630818
20
-20.6088155074
11
-17.8060494870
21
-20.6378186196
0
LINE
5
270
100
AcDbEntity
8
0
100
AcDbLine
62
9
6
CONTINUOUS
10
-17.8414690173
20
-20.5791525397
11
-17.8245630818
21
-20.6088155074
0
LINE
5
271
100
AcDbEntity
8
0
100
AcDbLine
62
9
6
CONTINUOUS
10
-17.8567062537
20
-20.5493515451
11
-17.8414690173
21
-20.5791525397
0
LINE
5
272
100
AcDbEntity
8
0
100
AcDbLine
62
9
6
CONTINUOUS
10
-17.3135793537
20
-20.9411128375
11
-17.2873331909
21
-20.9441083661
0
LINE
5
273
100
AcDbEntity
8
0
100
AcDbLine
62
9
6
CONTINUOUS
10
13.5337524692
20
-20.3125279739
11
13.5936017195
21
-20.3210272867
0
LINE
5
274
100
AcDbEntity
8
0
100
AcDbLine
62
9
6
CONTINUOUS
10
-17.3409343037
20
-20.9370374813
11
-17.3135793537
21
-20.9411128375
0
LINE
5
275
100
AcDbEntity
8
0
100
AcDbLine
62
9
6
CONTINUOUS
10
24.2779874390
20
-14.2871716810
11
24.2308658240
21
-14.2792524589
0
LINE
5
276
100
AcDbEntity
8
0
100
AcDbLine
62
9
6
CONTINUOUS
10
-17.3692573190
20
-20.9317844908
11
-17.3409343037
21
-20.9370374813
0
LINE
5
277
100
AcDbEntity
8
0
100
AcDbLine
62
0
6
CONTINUOUS
10
14.0621314472
20
-21.8387183559
11
13.9599497681
21
-21.8183653129
0
LINE
5
278
100
AcDbEntity
8
0
100
AcDbLine
62
9
6
CONTINUOUS
10
24.2308658240
20
-14.2792524589
11
24.1840735797
21
-14.2696000166
0
LINE
5
279
100
AcDbEntity
8
0
100
AcDbLine
62
9
6
CONTINUOUS
10
24.7086450257
20
-11.7226555379
11
24.7554543362
21
-11.7323153204
0
LINE
5
27A
100
AcDbEntity
8
0
100
AcDbLine
62
9
6
CONTINUOUS
10
15.7154980389
20
-4.5455772478
11
15.7397590282
21
-4.5513194832
0
LINE
5
27B
100
AcDbEntity
8
0
100
AcDbLine
62
9
6
CONTINUOUS
10
13.4961303368
20
-20.3034828552
11
13.5337524692
21
-20.3125279739
0
LINE
5
27C
100
AcDbEntity
8
0
100
AcDbLine
62
9
6
CONTINUOUS
10
15.6624882716
20
-4.7414188881
11
15.7005719721
21
-4.7505987667
0
LINE
5
27D
100
AcDbEntity
8
0
100
AcDbLine
62
9
6
CONTINUOUS
10
24.1840735797
20
-14.2696000166
11
24.1376320852
21
-14.2582470883
0
LINE
5
27E
100
AcDbEntity
8
0
100
AcDbLine
62
9
6
CONTINUOUS
10
24.7554543362
20
-11.7323153204
11
24.8019121686
21
-11.7436766940
0
LINE
5
27F
100
AcDbEntity
8
0
100
AcDbLine
62
9
6
CONTINUOUS
10
15.5697100844
20
-4.0966107486
11
15.5710796106
21
-4.0969681848
0
LINE
5
280
100
AcDbEntity
8
0
100
AcDbLine
62
9
6
CONTINUOUS
10
13.9962306967
20
-21.6981413117
11
14.1308835586
21
-21.7342551284
0
LINE
5
281
100
AcDbEntity
8
0
100
AcDbLine
62
0
6
CONTINUOUS
10
15.6970376908
20
-4.5239206666
11
15.7556639051
21
-4.5397207016
0
LINE
5
282
100
AcDbEntity
8
0
100
AcDbLine
62
9
6
CONTINUOUS
10
24.1376320852
20
-14.2582470883
11
24.0915199615
21
-14.2451609226
0
LINE
5
283
100
AcDbEntity
8
0
100
AcDbLine
62
9
6
CONTINUOUS
10
24.8019121686
20
-11.7436766940
11
24.8480402194
21
-11.7567725821
0
LINE
5
284
100
AcDbEntity
8
0
100
AcDbLine
62
9
6
CONTINUOUS
10
15.6234943134
20
-4.7293281788
11
15.6624882716
21
-4.7414188881
0
LINE
5
285
100
AcDbEntity
8
0
100
AcDbLine
62
9
6
CONTINUOUS
10
15.6908053681
20
-4.5378033672
11
15.7154980389
21
-4.5455772478
0
LINE
5
286
100
AcDbEntity
8
0
100
AcDbLine
62
9
6
CONTINUOUS
10
15.8568392833
20
-4.1483857385
11
15.8526873527
21
-4.1470752704
0
LINE
5
287
100
AcDbEntity
8
0
100
AcDbLine
62
9
6
CONTINUOUS
10
24.0915199615
20
-14.2451609226
11
24.0456783007
21
-14.2302557789
0
LINE
5
288
100
AcDbEntity
8
0
100
AcDbLine
62
9
6
CONTINUOUS
10
24.8480402194
20
-11.7567725821
11
24.8938982750
21
-11.7716892774
0
LINE
5
289
100
AcDbEntity
8
0
100
AcDbLine
62
9
6
CONTINUOUS
10
24.0456783007
20
-14.2302557789
11
24.0002695805
21
-14.2136771794
0
LINE
5
28A
100
AcDbEntity
8
0
100
AcDbLine
62
9
6
CONTINUOUS
10
24.8938982750
20
-11.7716892774
11
24.9393240200
21
-11.7882810229
0
LINE
5
28B
100
AcDbEntity
8
0
100
AcDbLine
62
9
6
CONTINUOUS
10
15.6660198608
20
-4.5279005011
11
15.6908053681
21
-4.5378033672
0
LINE
5
28C
100
AcDbEntity
8
0
100
AcDbLine
62
9
6
CONTINUOUS
10
33.2734003080
20
4.5346790039
11
33.2486148007
21
4.5445818700
0
LINE
5
28D
100
AcDbEntity
8
0
100
AcDbLine
62
9
6
CONTINUOUS
10
15.5847213767
20
-4.7137540188
11
15.6234943134
21
-4.7293281788
0
LINE
5
28E
100
AcDbEntity
8
0
100
AcDbLine
62
9
6
CONTINUOUS
10
33.3546987921
20
4.7205325216
11
33.3159258554
21
4.7361066816
0
LINE
5
28F
100
AcDbEntity
8
0
100
AcDbLine
62
9
6
CONTINUOUS
10
24.9393240200
20
-11.7882810229
11
24.9844797699
21
-11.8066935536
0
LINE
5
290
100
AcDbEntity
8
0
100
AcDbLine
62
9
6
CONTINUOUS
10
15.8526873527
20
-4.1470752704
11
15.8486217084
21
-4.1453968054
0
LINE
5
291
100
AcDbEntity
8
0
100
AcDbLine
62
9
6
CONTINUOUS
10
33.0867328161
20
4.1538537732
11
33.0907984604
21
4.1521753082
0
LINE
5
292
100
AcDbEntity
8
0
100
AcDbLine
62
0
6
CONTINUOUS
10
15.6438181145
20
-4.4992106436
11
15.6970376908
21
-4.5239206666
0
LINE
5
293
100
AcDbEntity
8
0
100
AcDbLine
62
0
6
CONTINUOUS
10
33.2956020543
20
4.5059891464
11
33.2423824780
21
4.5306991694
0
LINE
5
294
100
AcDbEntity
8
0
100
AcDbLine
62
9
6
CONTINUOUS
10
15.6412489644
20
-4.5156990226
11
15.6660198608
21
-4.5279005011
0
LINE
5
295
100
AcDbEntity
8
0
100
AcDbLine
62
9
6
CONTINUOUS
10
33.2981712044
20
4.5224775254
11
33.2734003080
21
4.5346790039
0
LINE
5
296
100
AcDbEntity
8
0
100
AcDbLine
62
9
6
CONTINUOUS
10
33.3934323886
20
4.7011806001
11
33.3546987921
21
4.7205325216
0
LINE
5
297
100
AcDbEntity
8
0
100
AcDbLine
62
9
6
CONTINUOUS
10
33.0907984604
20
4.1521753082
11
33.0946751098
21
4.1501660419
0
LINE
5
298
100
AcDbEntity
8
0
100
AcDbLine
62
9
6
CONTINUOUS
10
33.4319449636
20
4.6783452084
11
33.3934323886
21
4.7011806001
0
LINE
5
299
100
AcDbEntity
8
0
100
AcDbLine
62
9
6
CONTINUOUS
10
33.3225767535
20
4.5079232065
11
33.2981712044
21
4.5224775254
0
LINE
5
29A
100
AcDbEntity
8
0
100
AcDbLine
62
9
6
CONTINUOUS
10
33.0946751098
20
4.1501660419
11
33.0983554640
21
4.1478179067
0
LINE
5
29B
100
AcDbEntity
8
0
100
AcDbLine
62
9
6
CONTINUOUS
10
33.4685601927
20
4.6523366266
11
33.4319449636
21
4.6783452084
0
LINE
5
29C
100
AcDbEntity
8
0
100
AcDbLine
62
0
6
CONTINUOUS
10
33.3445879567
20
4.4711549385
11
33.2956020543
21
4.5059891464
0
LINE
5
29D
100
AcDbEntity
8
0
100
AcDbLine
62
9
6
CONTINUOUS
10
33.3459523045
20
4.4912581184
11
33.3225767535
21
4.5079232065
0
LINE
5
29E
100
AcDbEntity
8
0
100
AcDbLine
62
9
6
CONTINUOUS
10
33.0983554640
20
4.1478179067
11
33.1018468233
21
4.1451389699
0
LINE
5
29F
100
AcDbEntity
8
0
100
AcDbLine
62
9
6
CONTINUOUS
10
33.3681265330
20
4.4725105137
11
33.3459523045
21
4.4912581184
0
LINE
5
2A0
100
AcDbEntity
8
0
100
AcDbLine
62
9
6
CONTINUOUS
10
33.5031490697
20
4.6228220456
11
33.4685601927
21
4.6523366266
0
LINE
5
2A1
100
AcDbEntity
8
0
100
AcDbLine
62
9
6
CONTINUOUS
10
33.1018468233
20
4.1451389699
11
33.1050683802
21
4.1421906290
0
LINE
5
2A2
100
AcDbEntity
8
0
100
AcDbLine
62
9
6
CONTINUOUS
10
25.3547654699
20
-12.0485277110
11
25.4005053165
21
-12.0929248681
0
LINE
5
2A3
100
AcDbEntity
8
0
100
AcDbLine
62
9
6
CONTINUOUS
10
15.5505517224
20
-4.4449960041
11
15.5712936358
21
-4.4657320109
0
LINE
5
2A4
100
AcDbEntity
8
0
100
AcDbLine
62
9
6
CONTINUOUS
10
33.3888684464
20
4.4517745069
11
33.3681265330
21
4.4725105137
0
LINE
5
2A5
100
AcDbEntity
8
0
100
AcDbLine
62
9
6
CONTINUOUS
10
15.4035795680
20
-4.5833557440
11
15.4362710991
21
-4.6160435428
0
LINE
5
2A6
100
AcDbEntity
8
0
100
AcDbLine
62
0
6
CONTINUOUS
10
15.4622922468
20
-2.9466107486
11
15.4697100844
21
-2.9540285862
0
LINE
5
2A7
100
AcDbEntity
8
0
100
AcDbLine
62
9
6
CONTINUOUS
10
34.6696658565
20
-21.7464446768
11
34.7698319283
21
-21.8466107486
0
LINE
5
2A8
100
AcDbEntity
8
0
100
AcDbLine
62
9
6
CONTINUOUS
10
35.4695440126
20
-20.9465665206
11
35.5697100844
21
-21.0467325925
0
LINE
5
2A9
100
AcDbEntity
8
0
100
AcDbLine
62
9
6
CONTINUOUS
10
15.4581717499
20
4.2149409129
11
15.4697100844
21
4.2034025783
0
LINE
5
2AA
100
AcDbEntity
8
0
100
AcDbLine
62
9
6
CONTINUOUS
10
33.4812484190
20
-4.2081624101
11
33.4697100844
21
-4.1966240755
0
LINE
5
2AB
100
AcDbEntity
8
0
100
AcDbLine
62
9
6
CONTINUOUS
10
13.4698761562
20
20.9533450235
11
13.3697100844
21
21.0535110953
0
LINE
5
2AC
100
AcDbEntity
8
0
100
AcDbLine
62
9
6
CONTINUOUS
10
14.2697543124
20
21.7532231796
11
14.1695882405
21
21.8533892514
0
LINE
5
2AD
100
AcDbEntity
8
0
100
AcDbLine
62
0
6
CONTINUOUS
10
33.4771279220
20
2.9533892514
11
33.4697100844
21
2.9608070890
0
LINE
5
2AE
100
AcDbEntity
8
0
100
AcDbLine
62
9
6
CONTINUOUS
10
33.5358406008
20
4.5901342468
11
33.5031490697
21
4.6228220456
0
LINE
5
2AF
100
AcDbEntity
8
0
100
AcDbLine
62
0
6
CONTINUOUS
10
15.5512529478
20
-4.4206322398
11
15.5948322121
21
-4.4643764357
0
LINE
5
2B0
100
AcDbEntity
8
0
100
AcDbLine
62
0
6
CONTINUOUS
10
33.3881672210
20
4.4274107426
11
33.3445879567
21
4.4711549385
0
LINE
5
2B1
100
AcDbEntity
8
0
100
AcDbLine
62
9
6
CONTINUOUS
10
23.5392692391
20
-13.9093291957
11
23.4947334969
21
-13.8611262442
0
LINE
5
2B2
100
AcDbEntity
8
0
100
AcDbLine
62
9
6
CONTINUOUS
10
25.4005053165
20
-12.0929248681
11
25.4450513697
21
-12.1411786701
0
LINE
5
2B3
100
AcDbEntity
8
0
100
AcDbLine
62
9
6
CONTINUOUS
10
15.8343517886
20
-4.1354121262
11
15.8314067977
21
-4.1321880702
0
LINE
5
2B4
100
AcDbEntity
8
0
100
AcDbLine
62
9
6
CONTINUOUS
10
33.1050683802
20
4.1421906290
11
33.1080133711
21
4.1389665730
0
LINE
5
2B5
100
AcDbEntity
8
0
100
AcDbLine
62
9
6
CONTINUOUS
10
15.3740746877
20
-4.5488033989
11
15.4035795680
21
-4.5833557440
0
LINE
5
2B6
100
AcDbEntity
8
0
100
AcDbLine
62
9
6
CONTINUOUS
10
15.5318221530
20
-4.4228580719
11
15.5505517224
21
-4.4449960041
0
LINE
5
2B7
100
AcDbEntity
8
0
100
AcDbLine
62
9
6
CONTINUOUS
10
23.4947334969
20
-13.8611262442
11
23.4512894709
21
-13.8090487427
0
LINE
5
2B8
100
AcDbEntity
8
0
100
AcDbLine
62
9
6
CONTINUOUS
10
25.4450513697
20
-12.1411786701
11
25.4885023750
21
-12.1933116779
0
LINE
5
2B9
100
AcDbEntity
8
0
100
AcDbLine
62
9
6
CONTINUOUS
10
15.8314067977
20
-4.1321880702
11
15.8287316093
21
-4.1286946098
0
LINE
5
2BA
100
AcDbEntity
8
0
100
AcDbLine
62
9
6
CONTINUOUS
10
23.4512894709
20
-13.8090487427
11
23.4090356642
21
-13.7531190157
0
LINE
5
2BB
100
AcDbEntity
8
0
100
AcDbLine
62
9
6
CONTINUOUS
10
25.4885023750
20
-12.1933116779
11
25.5307595870
21
-12.2493011704
0
LINE
5
2BC
100
AcDbEntity
8
0
100
AcDbLine
62
9
6
CONTINUOUS
10
15.5152048924
20
-4.3995753590
11
15.5318221530
21
-4.4228580719
0
LINE
5
2BD
100
AcDbEntity
8
0
100
AcDbLine
62
9
6
CONTINUOUS
10
15.3480969213
20
-4.5122912172
11
15.3740746877
21
-4.5488033989
0
LINE
5
2BE
100
AcDbEntity
8
0
100
AcDbLine
62
0
6
CONTINUOUS
10
15.5165992136
20
-4.3716206467
11
15.5512529478
21
-4.4206322398
0
LINE
5
2BF
100
AcDbEntity
8
0
100
AcDbLine
62
9
6
CONTINUOUS
10
13.5771206741
20
-21.3464352362
11
13.6570990390
21
-21.4606353132
0
LINE
5
2C0
100
AcDbEntity
8
0
100
AcDbLine
62
0
6
CONTINUOUS
10
13.5357253532
20
-21.5341089712
11
13.4770169582
21
-21.4463308575
0
LINE
5
2C1
100
AcDbEntity
8
0
100
AcDbLine
62
9
6
CONTINUOUS
10
23.4090356642
20
-13.7531190157
11
23.3690428650
21
-13.6929325213
0
LINE
5
2C2
100
AcDbEntity
8
0
100
AcDbLine
62
9
6
CONTINUOUS
10
15.8287316093
20
-4.1286946098
11
15.8263867401
21
-4.1250120747
0
LINE
5
2C3
100
AcDbEntity
8
0
100
AcDbLine
62
9
6
CONTINUOUS
10
-17.8702163765
20
-20.5194183264
11
-17.8567062537
21
-20.5493515451
0
LINE
5
2C4
100
AcDbEntity
8
0
100
AcDbLine
62
9
6
CONTINUOUS
10
-17.8820578001
20
-20.4893470808
11
-17.8702163765
21
-20.5194183264
0
LINE
5
2C5
100
AcDbEntity
8
0
100
AcDbLine
62
9
6
CONTINUOUS
10
34.7950825757
20
-20.3474635510
11
34.6576887024
21
-20.3484322426
0
LINE
5
2C6
100
AcDbEntity
8
0
100
AcDbLine
62
0
6
CONTINUOUS
10
14.1695882405
20
-21.8466107486
11
34.7698319283
21
-21.8466107486
0
LINE
5
2C7
100
AcDbEntity
8
0
100
AcDbLine
62
9
6
CONTINUOUS
10
34.6696658565
20
-21.7464446768
11
14.2697543124
21
-21.7464446768
0
LINE
5
2C8
100
AcDbEntity
8
0
100
AcDbLine
62
9
6
CONTINUOUS
10
34.6576887024
20
-20.3484322415
11
14.2817314664
21
-20.3484322415
0
LINE
5
2C9
100
AcDbEntity
8
0
100
AcDbLine
62
9
6
CONTINUOUS
10
14.1443376030
20
-20.3474635443
11
14.2817314664
21
-20.3484322358
0
LINE
5
2CA
100
AcDbEntity
8
0
100
AcDbLine
62
0
6
CONTINUOUS
10
-17.2377450612
20
-21.7464446768
11
-11.4992346494
21
-21.8466107486
0
LINE
5
2CB
100
AcDbEntity
8
0
100
AcDbLine
62
9
6
CONTINUOUS
10
-17.2377450612
20
-20.9465665206
11
-11.4992346494
21
-21.0467325925
0
LINE
5
2CC
100
AcDbEntity
8
0
100
AcDbLine
62
9
6
CONTINUOUS
10
14.0110265676
20
-20.3449108934
11
14.1443376030
21
-20.3474635443
0
LINE
5
2CD
100
AcDbEntity
8
0
100
AcDbLine
62
9
6
CONTINUOUS
10
24.4697100844
20
-14.3013790047
11
24.4212936466
21
-14.3004467679
0
LINE
5
2CE
100
AcDbEntity
8
0
100
AcDbLine
62
9
6
CONTINUOUS
10
-17.2620550934
20
-20.9459262605
11
-17.2377450612
21
-20.9465665206
0
LINE
5
2CF
100
AcDbEntity
8
0
100
AcDbLine
62
9
6
CONTINUOUS
10
13.8857598619
20
-20.3408501383
11
14.0110265676
21
-20.3449108934
0
LINE
5
2D0
100
AcDbEntity
8
0
100
AcDbLine
62
9
6
CONTINUOUS
10
13.7722599405
20
-20.3354019493
11
13.8857598619
21
-20.3408501383
0
LINE
5
2D1
100
AcDbEntity
8
0
100
AcDbLine
62
9
6
CONTINUOUS
10
24.4212936466
20
-14.3004467679
11
24.3732013503
21
-14.2977688311
0
LINE
5
2D2
100
AcDbEntity
8
0
100
AcDbLine
62
9
6
CONTINUOUS
10
24.5181453224
20
-11.7014450175
11
24.5662560819
21
-11.7041250202
0
LINE
5
2D3
100
AcDbEntity
8
0
100
AcDbLine
62
9
6
CONTINUOUS
10
13.6738995933
20
-20.3287282262
11
13.7722599405
21
-20.3354019493
0
LINE
5
2D4
100
AcDbEntity
8
0
100
AcDbLine
62
9
6
CONTINUOUS
10
-17.2873331909
20
-20.9441083661
11
-17.2620550934
21
-20.9459262605
0
LINE
5
2D5
100
AcDbEntity
8
0
100
AcDbLine
62
0
6
CONTINUOUS
10
14.1695882405
20
-21.8466107486
11
14.0621314472
21
-21.8387183559
0
LINE
5
2D6
100
AcDbEntity
8
0
100
AcDbLine
62
9
6
CONTINUOUS
10
15.5710796106
20
-4.0969681848
11
15.5751731842
21
-4.0973217051
0
LINE
5
2D7
100
AcDbEntity
8
0
100
AcDbLine
62
9
6
CONTINUOUS
10
14.1308835586
20
-21.7342551284
11
14.2697543124
21
-21.7464446768
0
LINE
5
2D8
100
AcDbEntity
8
0
100
AcDbLine
62
9
6
CONTINUOUS
10
24.3732013503
20
-14.2977688311
11
24.3254331955
21
-14.2933451919
0
LINE
5
2D9
100
AcDbEntity
8
0
100
AcDbLine
62
9
6
CONTINUOUS
10
24.5662560819
20
-11.7041250202
11
24.6140423631
21
-11.7085520556
0
LINE
5
2DA
100
AcDbEntity
8
0
100
AcDbLine
62
9
6
CONTINUOUS
10
13.5936017195
20
-20.3210272867
11
13.6738995933
21
-20.3287282262
0
LINE
5
2DB
100
AcDbEntity
8
0
100
AcDbLine
62
9
6
CONTINUOUS
10
15.7633673659
20
-4.5551929554
11
15.7862299893
21
-4.5573863017
0
LINE
5
2DC
100
AcDbEntity
8
0
100
AcDbLine
62
9
6
CONTINUOUS
10
15.7373683217
20
-4.7570586898
11
15.7732544135
21
-4.7606077893
0
LINE
5
2DD
100
AcDbEntity
8
0
100
AcDbLine
62
0
6
CONTINUOUS
10
15.7556639051
20
-4.5397207016
11
15.8196967575
21
-4.5466107486
0
LINE
5
2DE
100
AcDbEntity
8
0
100
AcDbLine
62
9
6
CONTINUOUS
10
24.3254331955
20
-14.2933451919
11
24.2779874390
21
-14.2871716810
0
LINE
5
2DF
100
AcDbEntity
8
0
100
AcDbLine
62
9
6
CONTINUOUS
10
24.6140423631
20
-11.7085520556
11
24.6615059336
21
-11.7147302841
0
LINE
5
2E0
100
AcDbEntity
8
0
100
AcDbLine
62
9
6
CONTINUOUS
10
15.8653335310
20
-4.1498778871
11
15.8610432640
21
-4.1493158112
0
LINE
5
2E1
100
AcDbEntity
8
0
100
AcDbLine
62
9
6
CONTINUOUS
10
33.4812484190
20
-4.2081624101
11
33.4845545483
21
-4.2086476232
0
LINE
5
2E2
100
AcDbEntity
8
0
100
AcDbLine
62
9
6
CONTINUOUS
10
15.4581717499
20
4.2149409129
11
15.4548656205
21
4.2154261260
0
LINE
5
2E3
100
AcDbEntity
8
0
100
AcDbLine
62
9
6
CONTINUOUS
10
15.7397590282
20
-4.5513194832
11
15.7633673659
21
-4.5551929554
0
LINE
5
2E4
100
AcDbEntity
8
0
100
AcDbLine
62
9
6
CONTINUOUS
10
33.1996611406
20
4.5580979860
11
33.1760528030
21
4.5619714582
0
LINE
5
2E5
100
AcDbEntity
8
0
100
AcDbLine
62
9
6
CONTINUOUS
10
24.6615059336
20
-11.7147302841
11
24.7086450257
21
-11.7226555379
0
LINE
5
2E6
100
AcDbEntity
8
0
100
AcDbLine
62
9
6
CONTINUOUS
10
15.7005719721
20
-4.7505987667
11
15.7373683217
21
-4.7570586898
0
LINE
5
2E7
100
AcDbEntity
8
0
100
AcDbLine
62
9
6
CONTINUOUS
10
33.2388481967
20
4.7573772695
11
33.2020518471
21
4.7638371926
0
LINE
5
2E8
100
AcDbEntity
8
0
100
AcDbLine
62
9
6
CONTINUOUS
10
15.8610432640
20
-4.1493158112
11
15.8568392833
21
-4.1483857385
0
LINE
5
2E9
100
AcDbEntity
8
0
100
AcDbLine
62
9
6
CONTINUOUS
10
33.0783769048
20
4.1560943140
11
33.0825808855
21
4.1551642413
0
LINE
5
2EA
100
AcDbEntity
8
0
100
AcDbLine
62
9
6
CONTINUOUS
10
33.2239221299
20
4.5523557506
11
33.1996611406
21
4.5580979860
0
LINE
5
2EB
100
AcDbEntity
8
0
100
AcDbLine
62
9
6
CONTINUOUS
10
33.2769318972
20
4.7481973909
11
33.2388481967
21
4.7573772695
0
LINE
5
2EC
100
AcDbEntity
8
0
100
AcDbLine
62
9
6
CONTINUOUS
10
33.3697100844
20
4.1033892514
11
33.3683405582
21
4.1037466876
0
LINE
5
2ED
100
AcDbEntity
8
0
100
AcDbLine
62
0
6
CONTINUOUS
10
33.2423824780
20
4.5306991694
11
33.1837562637
21
4.5464992044
0
LINE
5
2EE
100
AcDbEntity
8
0
100
AcDbLine
62
9
6
CONTINUOUS
10
33.3159258554
20
4.7361066816
11
33.2769318972
21
4.7481973909
0
LINE
5
2EF
100
AcDbEntity
8
0
100
AcDbLine
62
9
6
CONTINUOUS
10
33.2486148007
20
4.5445818700
11
33.2239221299
21
4.5523557506
0
LINE
5
2F0
100
AcDbEntity
8
0
100
AcDbLine
62
9
6
CONTINUOUS
10
33.0825808855
20
4.1551642413
11
33.0867328161
21
4.1538537732
0
LINE
5
2F1
100
AcDbEntity
8
0
100
AcDbLine
62
0
6
CONTINUOUS
10
34.9794704007
20
21.8251438157
11
35.0763769653
21
21.7923301223
0
LINE
5
2F2
100
AcDbEntity
8
0
100
AcDbLine
62
9
6
CONTINUOUS
10
35.0695346181
20
21.6459786351
11
34.9431894327
21
21.7049198288
0
LINE
5
2F3
100
AcDbEntity
8
0
100
AcDbLine
62
0
6
CONTINUOUS
10
35.0763769653
20
21.7923301223
11
35.1694301933
21
21.7460823776
0
LINE
5
2F4
100
AcDbEntity
8
0
100
AcDbLine
62
9
6
CONTINUOUS
10
35.4575668586
20
20.3009392203
11
35.4432898368
21
20.3102613582
0
LINE
5
2F5
100
AcDbEntity
8
0
100
AcDbLine
62
0
6
CONTINUOUS
10
35.1694301933
20
21.7460823776
11
35.2572083070
21
21.6873739826
0
LINE
5
2F6
100
AcDbEntity
8
0
100
AcDbLine
62
9
6
CONTINUOUS
10
35.1837346932
20
21.5660002598
11
35.0695346181
21
21.6459786351
0
LINE
5
2F7
100
AcDbEntity
8
0
100
AcDbLine
62
0
6
CONTINUOUS
10
35.2572083070
20
21.6873739826
11
35.3354459733
21
21.6191251403
0
LINE
5
2F8
100
AcDbEntity
8
0
100
AcDbLine
62
9
6
CONTINUOUS
10
35.2823210886
20
21.4674138651
11
35.1837346932
21
21.5660002598
0
LINE
5
2F9
100
AcDbEntity
8
0
100
AcDbLine
62
0
6
CONTINUOUS
10
35.3354459733
20
21.6191251403
11
35.4036948156
21
21.5408874740
0
LINE
5
2FA
100
AcDbEntity
8
0
100
AcDbLine
62
9
6
CONTINUOUS
10
33.5653454811
20
4.5555819017
11
33.5358406008
21
4.5901342468
0
LINE
5
2FB
100
AcDbEntity
8
0
100
AcDbLine
62
9
6
CONTINUOUS
10
33.4075980158
20
4.4296365747
11
33.3888684464
21
4.4517745069
0
LINE
5
2FC
100
AcDbEntity
8
0
100
AcDbLine
62
9
6
CONTINUOUS
10
33.1080133711
20
4.1389665730
11
33.1106885595
21
4.1354731126
0
LINE
5
2FD
100
AcDbEntity
8
0
100
AcDbLine
62
9
6
CONTINUOUS
10
33.4242152764
20
4.4063538618
11
33.4075980158
21
4.4296365747
0
LINE
5
2FE
100
AcDbEntity
8
0
100
AcDbLine
62
9
6
CONTINUOUS
10
33.5913232475
20
4.5190697200
11
33.5653454811
21
4.5555819017
0
LINE
5
2FF
100
AcDbEntity
8
0
100
AcDbLine
62
0
6
CONTINUOUS
10
33.4228209552
20
4.3783991495
11
33.3881672210
21
4.4274107426
0
LINE
5
300
100
AcDbEntity
8
0
100
AcDbLine
62
9
6
CONTINUOUS
10
25.5307595870
20
-12.2493011704
11
25.5707496125
21
-12.3095515501
0
LINE
5
301
100
AcDbEntity
8
0
100
AcDbLine
62
9
6
CONTINUOUS
10
35.4691196794
20
-20.9459262605
11
35.4695440126
21
-20.9465665206
0
LINE
5
302
100
AcDbEntity
8
0
100
AcDbLine
62
9
6
CONTINUOUS
10
33.1106885595
20
4.1354731126
11
33.1130334287
21
4.1317905775
0
LINE
5
303
100
AcDbEntity
8
0
100
AcDbLine
62
9
6
CONTINUOUS
10
13.4703334973
20
20.9525946588
11
13.4698761562
21
20.9533450235
0
LINE
5
304
100
AcDbEntity
8
0
100
AcDbLine
62
9
6
CONTINUOUS
10
15.5007028344
20
-4.3753046642
11
15.5152048924
21
-4.3995753590
0
LINE
5
305
100
AcDbEntity
8
0
100
AcDbLine
62
9
6
CONTINUOUS
10
33.4387173344
20
4.3820831670
11
33.4242152764
21
4.4063538618
0
LINE
5
306
100
AcDbEntity
8
0
100
AcDbLine
62
9
6
CONTINUOUS
10
15.3253058058
20
-4.4739144698
11
15.3480969213
21
-4.5122912172
0
LINE
5
307
100
AcDbEntity
8
0
100
AcDbLine
62
9
6
CONTINUOUS
10
23.3690428650
20
-13.6929325213
11
23.3311808730
21
-13.6284152770
0
LINE
5
308
100
AcDbEntity
8
0
100
AcDbLine
62
9
6
CONTINUOUS
10
25.5707496125
20
-12.3095515501
11
25.6086027860
21
-12.3741369748
0
LINE
5
309
100
AcDbEntity
8
0
100
AcDbLine
62
9
6
CONTINUOUS
10
23.3311808730
20
-13.6284152770
11
23.2955798884
21
-13.5596410267
0
LINE
5
30A
100
AcDbEntity
8
0
100
AcDbLine
62
9
6
CONTINUOUS
10
15.8263867401
20
-4.1250120747
11
15.8243799616
21
-4.1211330447
0
LINE
5
30B
100
AcDbEntity
8
0
100
AcDbLine
62
9
6
CONTINUOUS
10
25.6086027860
20
-12.3741369748
11
25.6441887730
21
-12.4429830612
0
LINE
5
30C
100
AcDbEntity
8
0
100
AcDbLine
62
9
6
CONTINUOUS
10
15.3059692575
20
-4.4352676854
11
15.3253058058
21
-4.4739144698
0
LINE
5
30D
100
AcDbEntity
8
0
100
AcDbLine
62
0
6
CONTINUOUS
10
13.4770169582
20
-21.4463308575
11
13.4307692135
21
-21.3532776295
0
LINE
5
30E
100
AcDbEntity
8
0
100
AcDbLine
62
9
6
CONTINUOUS
10
15.4885196839
20
-4.3506445761
11
15.5007028344
21
-4.3753046642
0
LINE
5
30F
100
AcDbEntity
8
0
100
AcDbLine
62
9
6
CONTINUOUS
10
13.5181794926
20
-21.2200900575
11
13.5771206741
21
-21.3464352362
0
LINE
5
310
100
AcDbEntity
8
0
100
AcDbLine
62
0
6
CONTINUOUS
10
15.4920439737
20
-4.3185558535
11
15.5165992136
21
-4.3716206467
0
LINE
5
311
100
AcDbEntity
8
0
100
AcDbLine
62
9
6
CONTINUOUS
10
-17.8923447289
20
-20.4596422292
11
-17.8820578001
21
-20.4893470808
0
LINE
5
312
100
AcDbEntity
8
0
100
AcDbLine
62
9
6
CONTINUOUS
10
-17.9010313258
20
-20.4303221161
11
-17.8923447289
21
-20.4596422292
0
LINE
5
313
100
AcDbEntity
8
0
100
AcDbLine
62
9
6
CONTINUOUS
10
-17.9081634279
20
-20.4013683969
11
-17.9010313258
21
-20.4303221161
0
LINE
5
314
100
AcDbEntity
8
0
100
AcDbLine
62
9
6
CONTINUOUS
10
35.3458184794
20
-20.3210272897
11
35.2655206077
21
-20.3287282301
0
LINE
5
315
100
AcDbEntity
8
0
100
AcDbLine
62
9
6
CONTINUOUS
10
34.8085365880
20
-21.7342551324
11
34.6696658565
21
-21.7464446768
0
LINE
5
316
100
AcDbEntity
8
0
100
AcDbLine
62
9
6
CONTINUOUS
10
-18.6962627743
20
-20.3474635510
11
-18.7081108488
21
-20.3484322426
0
LINE
5
317
100
AcDbEntity
8
0
100
AcDbLine
62
0
6
CONTINUOUS
10
34.8772887216
20
-21.8387183559
11
34.7698319283
21
-21.8466107486
0
LINE
5
318
100
AcDbEntity
8
0
100
AcDbLine
62
9
6
CONTINUOUS
10
-18.4289388732
20
-20.3287282301
11
-18.6962627743
21
-20.3474635510
0
LINE
5
319
100
AcDbEntity
8
0
100
AcDbLine
62
9
6
CONTINUOUS
10
-17.9239157544
20
-20.2941607175
11
-18.4289388732
21
-20.3287282301
0
LINE
5
31A
100
AcDbEntity
8
0
100
AcDbLine
62
9
6
CONTINUOUS
10
35.2655206077
20
-20.3287282301
11
35.1671602591
21
-20.3354019542
0
LINE
5
31B
100
AcDbEntity
8
0
100
AcDbLine
62
9
6
CONTINUOUS
10
24.3147588300
20
-11.7103385424
11
24.4697100844
21
-11.7005120490
0
LINE
5
31C
100
AcDbEntity
8
0
100
AcDbLine
62
9
6
CONTINUOUS
10
24.6240598999
20
-14.2916897882
11
24.4697100844
21
-14.3013790047
0
LINE
5
31D
100
AcDbEntity
8
0
100
AcDbLine
62
9
6
CONTINUOUS
10
35.1671602591
20
-20.3354019542
11
35.0536603330
21
-20.3408501440
0
LINE
5
31E
100
AcDbEntity
8
0
100
AcDbLine
62
9
6
CONTINUOUS
10
33.0740866378
20
-4.1498778871
11
33.0697100844
21
-4.1500719663
0
LINE
5
31F
100
AcDbEntity
8
0
100
AcDbLine
62
9
6
CONTINUOUS
10
33.3574738459
20
-4.0976674415
11
33.3480958492
21
-4.0980015966
0
LINE
5
320
100
AcDbEntity
8
0
100
AcDbLine
62
9
6
CONTINUOUS
10
35.0536603330
20
-20.3408501440
11
34.9283936201
21
-20.3449108997
0
LINE
5
321
100
AcDbEntity
8
0
100
AcDbLine
62
9
6
CONTINUOUS
10
33.1311899213
20
-4.5580772585
11
33.1527882768
21
-4.5574113575
0
LINE
5
322
100
AcDbEntity
8
0
100
AcDbLine
62
9
6
CONTINUOUS
10
15.4456493262
20
-4.2091182562
11
15.4307998001
21
-4.2095601673
0
LINE
5
323
100
AcDbEntity
8
0
100
AcDbLine
62
9
6
CONTINUOUS
10
33.3480958492
20
-4.0980015966
11
33.3362155847
21
-4.0983205129
0
LINE
5
324
100
AcDbEntity
8
0
100
AcDbLine
62
9
6
CONTINUOUS
10
15.4307998001
20
-4.2095601673
11
15.4107632534
21
-4.2099600776
0
LINE
5
325
100
AcDbEntity
8
0
100
AcDbLine
62
9
6
CONTINUOUS
10
34.9283936201
20
-20.3449108997
11
34.7950825757
21
-20.3474635510
0
LINE
5
326
100
AcDbEntity
8
0
100
AcDbLine
62
9
6
CONTINUOUS
10
33.3362155847
20
-4.0983205129
11
33.3054949897
21
-4.0988988568
0
LINE
5
327
100
AcDbEntity
8
0
100
AcDbLine
62
9
6
CONTINUOUS
10
33.1311899213
20
-4.7612460667
11
33.1655012341
21
-4.7606009017
0
LINE
5
328
100
AcDbEntity
8
0
100
AcDbLine
62
9
6
CONTINUOUS
10
-19.3710332578
20
-4.0986604465
11
-19.4711699172
21
-4.1000302649
0
LINE
5
329
100
AcDbEntity
8
0
100
AcDbLine
62
9
6
CONTINUOUS
10
33.3054949897
20
-4.0988988568
11
33.2666548585
21
-4.0993771972
0
LINE
5
32A
100
AcDbEntity
8
0
100
AcDbLine
62
9
6
CONTINUOUS
10
15.4107632534
20
-4.2099600776
11
15.3576751595
21
-4.2105874519
0
LINE
5
32B
100
AcDbEntity
8
0
100
AcDbLine
62
9
6
CONTINUOUS
10
33.2666548585
20
-4.0993771972
11
33.1969631198
21
-4.0998628988
0
LINE
5
32C
100
AcDbEntity
8
0
100
AcDbLine
62
9
6
CONTINUOUS
10
15.3576751595
20
-4.2105874519
11
15.2927180240
21
-4.2109255383
0
LINE
5
32D
100
AcDbEntity
8
0
100
AcDbLine
62
9
6
CONTINUOUS
10
33.5817450093
20
4.2173659547
11
33.6467021449
21
4.2177040412
0
LINE
5
32E
100
AcDbEntity
8
0
100
AcDbLine
62
9
6
CONTINUOUS
10
33.1969631198
20
-4.0998628988
11
33.1197100844
21
-4.1000302649
0
LINE
5
32F
100
AcDbEntity
8
0
100
AcDbLine
62
9
6
CONTINUOUS
10
15.7424570490
20
4.1066414016
11
15.8197100844
21
4.1068087677
0
LINE
5
330
100
AcDbEntity
8
0
100
AcDbLine
62
9
6
CONTINUOUS
10
15.2927180240
20
-4.2109255383
11
15.2581793652
21
-4.2109719842
0
LINE
5
331
100
AcDbEntity
8
0
100
AcDbLine
62
9
6
CONTINUOUS
10
33.6467021449
20
4.2177040412
11
33.6812408036
21
4.2177504870
0
LINE
5
332
100
AcDbEntity
8
0
100
AcDbLine
62
9
6
CONTINUOUS
10
15.8082302475
20
-4.7612460667
11
33.1311899213
21
-4.7612460667
0
LINE
5
333
100
AcDbEntity
8
0
100
AcDbLine
62
0
6
CONTINUOUS
10
15.8082302475
20
-4.5580772585
11
33.1311899213
21
-4.5580772585
0
LINE
5
334
100
AcDbEntity
8
0
100
AcDbLine
62
9
6
CONTINUOUS
10
15.8697100844
20
-4.3966107486
11
16.5697100844
21
-4.3966107486
0
LINE
5
335
100
AcDbEntity
8
0
100
AcDbLine
62
0
6
CONTINUOUS
10
16.5697100844
20
-4.3966107486
11
32.3697100844
21
-4.3966107486
0
LINE
5
336
100
AcDbEntity
8
0
100
AcDbLine
62
9
6
CONTINUOUS
10
32.3697100844
20
-4.3966107486
11
33.0697100844
21
-4.3966107486
0
LINE
5
337
100
AcDbEntity
8
0
100
AcDbLine
62
9
6
CONTINUOUS
10
33.0697100844
20
-4.1500719663
11
15.8697100844
21
-4.1500719663
0
LINE
5
338
100
AcDbEntity
8
0
100
AcDbLine
62
0
6
CONTINUOUS
10
15.4697100844
20
-2.9540285862
11
15.5697100844
21
-2.9540285862
0
LINE
5
339
100
AcDbEntity
8
0
100
AcDbLine
62
0
6
CONTINUOUS
10
33.3697100844
20
-2.9540285862
11
33.4697100844
21
-2.9540285862
0
LINE
5
33A
100
AcDbEntity
8
0
100
AcDbLine
62
9
6
CONTINUOUS
10
33.4771279220
20
-2.8966107486
11
33.1197100844
21
-2.8966107486
0
LINE
5
33B
100
AcDbEntity
8
DEFAULT_3
100
AcDbLine
62
9
6
PHANTOM
10
15.5697100844
20
-2.8966107486
11
15.4622922468
21
-2.8966107486
0
LINE
5
33C
100
AcDbEntity
8
0
100
AcDbLine
62
9
6
CONTINUOUS
10
15.8197100844
20
-2.8966107486
11
15.5697100844
21
-2.8966107486
0
LINE
5
33D
100
AcDbEntity
8
0
100
AcDbLine
62
9
6
CONTINUOUS
10
15.4622922468
20
2.9033892514
11
15.8197100844
21
2.9033892514
0
LINE
5
33E
100
AcDbEntity
8
0
100
AcDbLine
62
9
6
CONTINUOUS
10
33.1197100844
20
2.9033892514
11
33.4771279220
21
2.9033892514
0
LINE
5
33F
100
AcDbEntity
8
0
100
AcDbLine
62
0
6
CONTINUOUS
10
15.4697100844
20
2.9608070890
11
15.5697100844
21
2.9608070890
0
LINE
5
340
100
AcDbEntity
8
0
100
AcDbLine
62
0
6
CONTINUOUS
10
33.3697100844
20
2.9608070890
11
33.4697100844
21
2.9608070890
0
LINE
5
341
100
AcDbEntity
8
0
100
AcDbLine
62
9
6
CONTINUOUS
10
15.8697100844
20
4.1568504691
11
33.0697100844
21
4.1568504691
0
LINE
5
342
100
AcDbEntity
8
0
100
AcDbLine
62
9
6
CONTINUOUS
10
33.0697100844
20
4.4033892514
11
32.3697100844
21
4.4033892514
0
LINE
5
343
100
AcDbEntity
8
0
100
AcDbLine
62
0
6
CONTINUOUS
10
32.3697100844
20
4.4033892514
11
16.5697100844
21
4.4033892514
0
LINE
5
344
100
AcDbEntity
8
0
100
AcDbLine
62
9
6
CONTINUOUS
10
16.5697100844
20
4.4033892514
11
15.8697100844
21
4.4033892514
0
LINE
5
345
100
AcDbEntity
8
0
100
AcDbLine
62
0
6
CONTINUOUS
10
33.1311899213
20
4.5648557614
11
15.8082302475
21
4.5648557614
0
LINE
5
346
100
AcDbEntity
8
0
100
AcDbLine
62
9
6
CONTINUOUS
10
33.1311899213
20
4.7680245695
11
15.8082302475
21
4.7680245695
0
LINE
5
347
100
AcDbEntity
8
0
100
AcDbLine
62
9
6
CONTINUOUS
10
15.7424558358
20
-4.0998629018
11
15.8197100844
21
-4.1000302649
0
LINE
5
348
100
AcDbEntity
8
0
100
AcDbLine
62
9
6
CONTINUOUS
10
33.1969643330
20
4.1066414046
11
33.1197100844
21
4.1068087677
0
LINE
5
349
100
AcDbEntity
8
0
100
AcDbLine
62
9
6
CONTINUOUS
10
33.6132013287
20
-4.2107960641
11
33.6812408036
21
-4.2109719842
0
LINE
5
34A
100
AcDbEntity
8
0
100
AcDbLine
62
9
6
CONTINUOUS
10
15.3262188401
20
4.2175745669
11
15.2581793652
21
4.2177504870
0
LINE
5
34B
100
AcDbEntity
8
0
100
AcDbLine
62
9
6
CONTINUOUS
10
15.6727637714
20
-4.0993771951
11
15.7424558358
21
-4.0998629018
0
LINE
5
34C
100
AcDbEntity
8
0
100
AcDbLine
62
9
6
CONTINUOUS
10
33.2666563974
20
4.1061556979
11
33.1969643330
21
4.1066414046
0
LINE
5
34D
100
AcDbEntity
8
0
100
AcDbLine
62
9
6
CONTINUOUS
10
33.5532784117
20
-4.2103059704
11
33.6132013287
21
-4.2107960641
0
LINE
5
34E
100
AcDbEntity
8
0
100
AcDbLine
62
9
6
CONTINUOUS
10
15.3861417571
20
4.2170844732
11
15.3262188401
21
4.2175745669
0
LINE
5
34F
100
AcDbEntity
8
0
100
AcDbLine
62
9
6
CONTINUOUS
10
15.6339238781
20
-4.0988988510
11
15.6727637714
21
-4.0993771951
0
LINE
5
350
100
AcDbEntity
8
0
100
AcDbLine
62
9
6
CONTINUOUS
10
33.3054962907
20
4.1056773538
11
33.2666563974
21
4.1061556979
0
LINE
5
351
100
AcDbEntity
8
0
100
AcDbLine
62
9
6
CONTINUOUS
10
-19.3710354156
20
4.1054389926
11
-19.4711699172
21
4.1068087677
0
LINE
5
352
100
AcDbEntity
8
0
100
AcDbLine
62
9
6
CONTINUOUS
10
33.5286569172
20
-4.2099600777
11
33.5532784117
21
-4.2103059704
0
LINE
5
353
100
AcDbEntity
8
0
100
AcDbLine
62
9
6
CONTINUOUS
10
15.4107632517
20
4.2167385805
11
15.3861417571
21
4.2170844732
0
LINE
5
354
100
AcDbEntity
8
0
100
AcDbLine
62
9
6
CONTINUOUS
10
15.7732544135
20
-4.7606077893
11
15.8082302475
21
-4.7612460667
0
LINE
5
355
100
AcDbEntity
8
0
100
AcDbLine
62
9
6
CONTINUOUS
10
33.1661657553
20
4.7673862921
11
33.1311899213
21
4.7680245695
0
LINE
5
356
100
AcDbEntity
8
0
100
AcDbLine
62
9
6
CONTINUOUS
10
15.6032037335
20
-4.0983205058
11
15.6339238781
21
-4.0988988510
0
LINE
5
357
100
AcDbEntity
8
0
100
AcDbLine
62
9
6
CONTINUOUS
10
33.3362164353
20
4.1050990086
11
33.3054962907
21
4.1056773538
0
LINE
5
358
100
AcDbEntity
8
0
100
AcDbLine
62
9
6
CONTINUOUS
10
24.4697100844
20
-11.7005120490
11
24.5181453224
21
-11.7014450175
0
LINE
5
359
100
AcDbEntity
8
0
100
AcDbLine
62
9
6
CONTINUOUS
10
33.5086203708
20
-4.2095601673
11
33.5286569172
21
-4.2099600777
0
LINE
5
35A
100
AcDbEntity
8
0
100
AcDbLine
62
9
6
CONTINUOUS
10
15.4307997981
20
4.2163386701
11
15.4107632517
21
4.2167385805
0
LINE
5
35B
100
AcDbEntity
8
0
100
AcDbLine
62
9
6
CONTINUOUS
10
15.5913237200
20
-4.0980015901
11
15.6032037335
21
-4.0983205058
0
LINE
5
35C
100
AcDbEntity
8
0
100
AcDbLine
62
9
6
CONTINUOUS
10
33.3480964488
20
4.1047800929
11
33.3362164353
21
4.1050990086
0
LINE
5
35D
100
AcDbEntity
8
0
100
AcDbLine
62
9
6
CONTINUOUS
10
33.4937708449
20
-4.2091182562
11
33.5086203708
21
-4.2095601673
0
LINE
5
35E
100
AcDbEntity
8
0
100
AcDbLine
62
9
6
CONTINUOUS
10
15.4456493240
20
4.2158967590
11
15.4307997981
21
4.2163386701
0
LINE
5
35F
100
AcDbEntity
8
0
100
AcDbLine
62
9
6
CONTINUOUS
10
15.7862299893
20
-4.5573863017
11
15.8082302475
21
-4.5580772585
0
LINE
5
360
100
AcDbEntity
8
0
100
AcDbLine
62
9
6
CONTINUOUS
10
33.1531901795
20
4.5641648045
11
33.1311899213
21
4.5648557614
0
LINE
5
361
100
AcDbEntity
8
0
100
AcDbLine
62
9
6
CONTINUOUS
10
15.5819459554
20
-4.0976674361
11
15.5913237200
21
-4.0980015901
0
LINE
5
362
100
AcDbEntity
8
0
100
AcDbLine
62
9
6
CONTINUOUS
10
33.3574742135
20
4.1044459389
11
33.3480964488
21
4.1047800929
0
LINE
5
363
100
AcDbEntity
8
0
100
AcDbLine
62
9
6
CONTINUOUS
10
15.8697100844
20
-4.1500719663
11
15.8653335310
21
-4.1498778871
0
LINE
5
364
100
AcDbEntity
8
0
100
AcDbLine
62
9
6
CONTINUOUS
10
33.0697100844
20
4.1568504691
11
33.0740866378
21
4.1566563899
0
LINE
5
365
100
AcDbEntity
8
0
100
AcDbLine
62
9
6
CONTINUOUS
10
15.5751731842
20
-4.0973217051
11
15.5819459554
21
-4.0976674361
0
LINE
5
366
100
AcDbEntity
8
0
100
AcDbLine
62
9
6
CONTINUOUS
10
33.3642469846
20
4.1041002079
11
33.3574742135
21
4.1044459389
0
LINE
5
367
100
AcDbEntity
8
0
100
AcDbLine
62
9
6
CONTINUOUS
10
33.4845545483
20
-4.2086476232
11
33.4937708449
21
-4.2091182562
0
LINE
5
368
100
AcDbEntity
8
0
100
AcDbLine
62
9
6
CONTINUOUS
10
15.4548656205
20
4.2154261260
11
15.4456493240
21
4.2158967590
0
LINE
5
369
100
AcDbEntity
8
0
100
AcDbLine
62
9
6
CONTINUOUS
10
-17.9239157544
20
20.3009392203
11
-18.4289388338
21
20.3355067302
0
LINE
5
36A
100
AcDbEntity
8
0
100
AcDbLine
62
9
6
CONTINUOUS
10
-18.4289388338
20
20.3355067302
11
-18.6962627077
21
20.3542420492
0
LINE
5
36B
100
AcDbEntity
8
0
100
AcDbLine
62
9
6
CONTINUOUS
10
-18.6962627077
20
20.3542420492
11
-18.7081107807
21
20.3552107408
0
LINE
5
36C
100
AcDbEntity
8
0
100
AcDbLine
62
9
6
CONTINUOUS
10
33.3683405582
20
4.1037466876
11
33.3642469846
21
4.1041002079
0
LINE
5
36D
100
AcDbEntity
8
0
100
AcDbLine
62
9
6
CONTINUOUS
10
33.1760528030
20
4.5619714582
11
33.1531901795
21
4.5641648045
0
LINE
5
36E
100
AcDbEntity
8
0
100
AcDbLine
62
9
6
CONTINUOUS
10
35.3458184597
20
20.3278057904
11
35.2655205867
21
20.3355067302
0
LINE
5
36F
100
AcDbEntity
8
0
100
AcDbLine
62
9
6
CONTINUOUS
10
33.2020518471
20
4.7638371926
11
33.1661657553
21
4.7673862921
0
LINE
5
370
100
AcDbEntity
8
0
100
AcDbLine
62
0
6
CONTINUOUS
10
33.1837562637
20
4.5464992044
11
33.1197234113
21
4.5533892514
0
LINE
5
371
100
AcDbEntity
8
0
100
AcDbLine
62
9
6
CONTINUOUS
10
33.0740866378
20
4.1566563899
11
33.0783769048
21
4.1560943140
0
LINE
5
372
100
AcDbEntity
8
0
100
AcDbLine
62
9
6
CONTINUOUS
10
35.4056677079
20
20.3193064772
11
35.3458184597
21
20.3278057904
0
LINE
5
373
100
AcDbEntity
8
0
100
AcDbLine
62
0
6
CONTINUOUS
10
34.8772887216
20
21.8454968587
11
34.9794704007
21
21.8251438157
0
LINE
5
374
100
AcDbEntity
8
0
100
AcDbLine
62
9
6
CONTINUOUS
10
35.4432898368
20
20.3102613582
11
35.4056677079
21
20.3193064772
0
LINE
5
375
100
AcDbEntity
8
0
100
AcDbLine
62
9
6
CONTINUOUS
10
34.9431894327
20
21.7049198288
11
34.8085365868
21
21.7410336354
0
LINE
5
376
100
AcDbEntity
8
0
100
AcDbLine
62
9
6
CONTINUOUS
10
35.3622994652
20
21.3532137901
11
35.2823210886
21
21.4674138651
0
LINE
5
377
100
AcDbEntity
8
0
100
AcDbLine
62
0
6
CONTINUOUS
10
35.4036948156
20
21.5408874740
11
35.4624032106
21
21.4531093603
0
LINE
5
378
100
AcDbEntity
8
0
100
AcDbLine
62
9
6
CONTINUOUS
10
33.6141143630
20
4.4806929726
11
33.5913232475
21
4.5190697200
0
LINE
5
379
100
AcDbEntity
8
0
100
AcDbLine
62
9
6
CONTINUOUS
10
33.1130334287
20
4.1317905775
11
33.1150402072
21
4.1279115475
0
LINE
5
37A
100
AcDbEntity
8
0
100
AcDbLine
62
9
6
CONTINUOUS
10
33.6334509113
20
4.4420461882
11
33.6141143630
21
4.4806929726
0
LINE
5
37B
100
AcDbEntity
8
0
100
AcDbLine
62
0
6
CONTINUOUS
10
35.4624032106
20
21.4531093603
11
35.5086509553
21
21.3600561323
0
LINE
5
37C
100
AcDbEntity
8
0
100
AcDbLine
62
9
6
CONTINUOUS
10
33.4509004849
20
4.3574230789
11
33.4387173344
21
4.3820831670
0
LINE
5
37D
100
AcDbEntity
8
0
100
AcDbLine
62
0
6
CONTINUOUS
10
33.4473761951
20
4.3253343563
11
33.4228209552
21
4.3783991495
0
LINE
5
37E
100
AcDbEntity
8
0
100
AcDbLine
62
9
6
CONTINUOUS
10
23.2955798884
20
-13.5596410267
11
23.2637013010
21
-13.4864267910
0
LINE
5
37F
100
AcDbEntity
8
0
100
AcDbLine
62
9
6
CONTINUOUS
10
25.6441887730
20
-12.4429830612
11
25.6760431764
21
-12.5162713730
0
LINE
5
380
100
AcDbEntity
8
0
100
AcDbLine
62
9
6
CONTINUOUS
10
15.8243799616
20
-4.1211330447
11
15.8227035024
21
-4.1170649399
0
LINE
5
381
100
AcDbEntity
8
0
100
AcDbLine
62
9
6
CONTINUOUS
10
15.2903562985
20
-4.3965095392
11
15.3059692575
21
-4.4352676854
0
LINE
5
382
100
AcDbEntity
8
0
100
AcDbLine
62
9
6
CONTINUOUS
10
15.4786013554
20
-4.3259188025
11
15.4885196839
21
-4.3506445761
0
LINE
5
383
100
AcDbEntity
8
0
100
AcDbLine
62
9
6
CONTINUOUS
10
23.2637013010
20
-13.4864267910
11
23.2354028777
21
-13.4086421411
0
LINE
5
384
100
AcDbEntity
8
0
100
AcDbLine
62
9
6
CONTINUOUS
10
25.6760431764
20
-12.5162713730
11
25.7043081442
21
-12.5941327122
0
LINE
5
385
100
AcDbEntity
8
0
100
AcDbLine
62
0
6
CONTINUOUS
10
13.4307692135
20
-21.3532776295
11
13.3979555201
21
-21.2563710649
0
LINE
5
386
100
AcDbEntity
8
0
100
AcDbLine
62
9
6
CONTINUOUS
10
15.4707966037
20
-4.3012508804
11
15.4786013554
21
-4.3259188025
0
LINE
5
387
100
AcDbEntity
8
0
100
AcDbLine
62
9
6
CONTINUOUS
10
15.8227035024
20
-4.1170649399
11
15.8213945649
21
-4.1129103504
0
LINE
5
388
100
AcDbEntity
8
0
100
AcDbLine
62
9
6
CONTINUOUS
10
15.2781979066
20
-4.3574813549
11
15.2903562985
21
-4.3965095392
0
LINE
5
389
100
AcDbEntity
8
0
100
AcDbLine
62
9
6
CONTINUOUS
10
-17.9139927503
20
-20.3732304588
11
-17.9081634279
21
-20.4013683969
0
LINE
5
38A
100
AcDbEntity
8
0
100
AcDbLine
62
9
6
CONTINUOUS
10
-17.2399562895
20
-21.7342551324
11
-17.2377450612
21
-21.7464446768
0
LINE
5
38B
100
AcDbEntity
8
0
100
AcDbLine
62
9
6
CONTINUOUS
10
-17.9186031980
20
-20.3460580973
11
-17.9139927503
21
-20.3732304588
0
LINE
5
38C
100
AcDbEntity
8
0
100
AcDbLine
62
9
6
CONTINUOUS
10
-17.9239157544
20
-20.2941607175
11
-17.9219108661
21
-20.3197015169
0
LINE
5
38D
100
AcDbEntity
8
0
100
AcDbLine
62
9
6
CONTINUOUS
10
-18.1962113365
20
-15.7867429644
11
-17.9239157544
21
-20.2941607175
0
LINE
5
38E
100
AcDbEntity
8
0
100
AcDbLine
62
0
6
CONTINUOUS
10
34.9794704007
20
-21.8183653129
11
34.8772887216
21
-21.8387183559
0
LINE
5
38F
100
AcDbEntity
8
0
100
AcDbLine
62
9
6
CONTINUOUS
10
24.1657645366
20
-11.7367873213
11
24.3147588300
21
-11.7103385424
0
LINE
5
390
100
AcDbEntity
8
0
100
AcDbLine
62
9
6
CONTINUOUS
10
24.7725907043
20
-14.2654109556
11
24.6240598999
21
-14.2916897882
0
LINE
5
391
100
AcDbEntity
8
0
100
AcDbLine
62
9
6
CONTINUOUS
10
33.1751755725
20
-4.5553051333
11
33.1982433844
21
-4.5515991102
0
LINE
5
392
100
AcDbEntity
8
0
100
AcDbLine
62
9
6
CONTINUOUS
10
15.4581717520
20
-4.2081624101
11
15.4548656227
21
-4.2086476232
0
LINE
5
393
100
AcDbEntity
8
0
100
AcDbLine
62
9
6
CONTINUOUS
10
35.4056677236
20
-20.3125279758
11
35.3458184794
21
-20.3210272897
0
LINE
5
394
100
AcDbEntity
8
0
100
AcDbLine
62
9
6
CONTINUOUS
10
33.0783769048
20
-4.1493158112
11
33.0740866378
21
-4.1498778871
0
LINE
5
395
100
AcDbEntity
8
0
100
AcDbLine
62
0
6
CONTINUOUS
10
33.1197234113
20
-4.5466107486
11
33.1837562637
21
-4.5397207016
0
LINE
5
396
100
AcDbEntity
8
0
100
AcDbLine
62
0
6
CONTINUOUS
10
15.8196967575
20
4.5533892514
11
15.7556639051
21
4.5464992044
0
LINE
5
397
100
AcDbEntity
8
0
100
AcDbLine
62
9
6
CONTINUOUS
10
33.1655012341
20
-4.7606009017
11
33.2006448456
21
-4.7571986098
0
LINE
5
398
100
AcDbEntity
8
0
100
AcDbLine
62
9
6
CONTINUOUS
10
15.7739189347
20
4.7673794045
11
15.7387753232
21
4.7639771126
0
LINE
5
399
100
AcDbEntity
8
0
100
AcDbLine
62
9
6
CONTINUOUS
10
33.1527882768
20
-4.5574113575
11
33.1751755725
21
-4.5553051333
0
LINE
5
39A
100
AcDbEntity
8
0
100
AcDbLine
62
9
6
CONTINUOUS
10
15.7866318920
20
4.5641898603
11
15.7642445963
21
4.5620836361
0
LINE
5
39B
100
AcDbEntity
8
0
100
AcDbLine
62
9
6
CONTINUOUS
10
33.3683405108
20
-4.0969681869
11
33.3642468077
21
-4.0973217090
0
LINE
5
39C
100
AcDbEntity
8
0
100
AcDbLine
62
9
6
CONTINUOUS
10
15.5710796580
20
4.1037466897
11
15.5751733611
21
4.1041002118
0
LINE
5
39D
100
AcDbEntity
8
0
100
AcDbLine
62
9
6
CONTINUOUS
10
33.3642468077
20
-4.0973217090
11
33.3574738459
21
-4.0976674415
0
LINE
5
39E
100
AcDbEntity
8
0
100
AcDbLine
62
9
6
CONTINUOUS
10
15.4548656227
20
-4.2086476232
11
15.4456493262
21
-4.2091182562
0
LINE
5
39F
100
AcDbEntity
8
0
100
AcDbLine
62
9
6
CONTINUOUS
10
33.4845545461
20
4.2154261260
11
33.4937708426
21
4.2158967590
0
LINE
5
3A0
100
AcDbEntity
8
0
100
AcDbLine
62
9
6
CONTINUOUS
10
15.5751733611
20
4.1041002118
11
15.5819463229
21
4.1044459443
0
LINE
5
3A1
100
AcDbEntity
8
DEFAULT_3
100
AcDbLine
62
9
6
PHANTOM
10
15.8653335310
20
4.1566563899
11
15.8697100844
21
4.1568504691
0
LINE
5
3A2
100
AcDbEntity
8
0
100
AcDbLine
62
9
6
CONTINUOUS
10
15.5819463229
20
4.1044459443
11
15.5913243196
21
4.1047800994
0
LINE
5
3A3
100
AcDbEntity
8
0
100
AcDbLine
62
9
6
CONTINUOUS
10
13.8857598743
20
20.3476286292
11
14.0110265766
21
20.3516893831
0
LINE
5
3A4
100
AcDbEntity
8
0
100
AcDbLine
62
9
6
CONTINUOUS
10
15.8082302475
20
4.5648557614
11
15.7866318920
21
4.5641898603
0
LINE
5
3A5
100
AcDbEntity
8
0
100
AcDbLine
62
9
6
CONTINUOUS
10
33.4937708426
20
4.2158967590
11
33.5086203687
21
4.2163386701
0
LINE
5
3A6
100
AcDbEntity
8
0
100
AcDbLine
62
9
6
CONTINUOUS
10
-17.2377450612
20
20.9533450235
11
-17.2633735948
21
20.9526292233
0
LINE
5
3A7
100
AcDbEntity
8
0
100
AcDbLine
62
9
6
CONTINUOUS
10
15.5913243196
20
4.1047800994
11
15.6032045841
21
4.1050990157
0
LINE
5
3A8
100
AcDbEntity
8
0
100
AcDbLine
62
9
6
CONTINUOUS
10
33.5086203687
20
4.2163386701
11
33.5286569154
21
4.2167385805
0
LINE
5
3A9
100
AcDbEntity
8
0
100
AcDbLine
62
9
6
CONTINUOUS
10
14.0110265766
20
20.3516893831
11
14.1443376077
21
20.3542420332
0
LINE
5
3AA
100
AcDbEntity
8
0
100
AcDbLine
62
9
6
CONTINUOUS
10
15.6032045841
20
4.1050990157
11
15.6339251791
21
4.1056773596
0
LINE
5
3AB
100
AcDbEntity
8
0
100
AcDbLine
62
9
6
CONTINUOUS
10
15.8082302475
20
4.7680245695
11
15.7739189347
21
4.7673794045
0
LINE
5
3AC
100
AcDbEntity
8
0
100
AcDbLine
62
9
6
CONTINUOUS
10
-11.4992346494
20
21.0535110953
11
-17.2377450612
21
20.9533450235
0
LINE
5
3AD
100
AcDbEntity
8
0
100
AcDbLine
62
0
6
CONTINUOUS
10
-11.4992346494
20
21.8533892514
11
-17.2377450612
21
21.7532231796
0
LINE
5
3AE
100
AcDbEntity
8
0
100
AcDbLine
62
9
6
CONTINUOUS
10
15.6339251791
20
4.1056773596
11
15.6727653103
21
4.1061557001
0
LINE
5
3AF
100
AcDbEntity
8
0
100
AcDbLine
62
9
6
CONTINUOUS
10
33.5286569154
20
4.2167385805
11
33.5817450093
21
4.2173659547
0
LINE
5
3B0
100
AcDbEntity
8
0
100
AcDbLine
62
9
6
CONTINUOUS
10
15.6727653103
20
4.1061557001
11
15.7424570490
21
4.1066414016
0
LINE
5
3B1
100
AcDbEntity
8
0
100
AcDbLine
62
9
6
CONTINUOUS
10
14.1443376077
20
20.3542420332
11
14.2817314664
21
20.3552107243
0
LINE
5
3B2
100
AcDbEntity
8
0
100
AcDbLine
62
9
6
CONTINUOUS
10
34.6576887024
20
20.3552107443
11
14.2817314664
21
20.3552107443
0
LINE
5
3B3
100
AcDbEntity
8
0
100
AcDbLine
62
9
6
CONTINUOUS
10
34.6696658565
20
21.7532231796
11
14.2697543124
21
21.7532231796
0
LINE
5
3B4
100
AcDbEntity
8
0
100
AcDbLine
62
0
6
CONTINUOUS
10
14.1695882405
20
21.8533892514
11
34.7698319283
21
21.8533892514
0
LINE
5
3B5
100
AcDbEntity
8
0
100
AcDbLine
62
9
6
CONTINUOUS
10
34.7950825692
20
20.3542420492
11
34.6576887024
21
20.3552107408
0
LINE
5
3B6
100
AcDbEntity
8
0
100
AcDbLine
62
9
6
CONTINUOUS
10
34.9283936078
20
20.3516893982
11
34.7950825692
21
20.3542420492
0
LINE
5
3B7
100
AcDbEntity
8
0
100
AcDbLine
62
9
6
CONTINUOUS
10
35.0536603160
20
20.3476286429
11
34.9283936078
21
20.3516893982
0
LINE
5
3B8
100
AcDbEntity
8
0
100
AcDbLine
62
9
6
CONTINUOUS
10
35.1671602390
20
20.3421804537
11
35.0536603160
21
20.3476286429
0
LINE
5
3B9
100
AcDbEntity
8
0
100
AcDbLine
62
9
6
CONTINUOUS
10
35.2655205867
20
20.3355067302
11
35.1671602390
21
20.3421804537
0
LINE
5
3BA
100
AcDbEntity
8
0
100
AcDbLine
62
0
6
CONTINUOUS
10
34.7698319283
20
21.8533892514
11
34.8772887216
21
21.8454968587
0
LINE
5
3BB
100
AcDbEntity
8
0
100
AcDbLine
62
9
6
CONTINUOUS
10
34.8085365868
20
21.7410336354
11
34.6696658565
21
21.7532231796
0
LINE
5
3BC
100
AcDbEntity
8
0
100
AcDbLine
62
9
6
CONTINUOUS
10
35.4212406603
20
21.2268686040
11
35.3622994652
21
21.3532137901
0
LINE
5
3BD
100
AcDbEntity
8
0
100
AcDbLine
62
9
6
CONTINUOUS
10
33.1150402072
20
4.1279115475
11
33.1167166664
21
4.1238434427
0
LINE
5
3BE
100
AcDbEntity
8
0
100
AcDbLine
62
9
6
CONTINUOUS
10
33.6490638703
20
4.4032880420
11
33.6334509113
21
4.4420461882
0
LINE
5
3BF
100
AcDbEntity
8
0
100
AcDbLine
62
9
6
CONTINUOUS
10
33.4608188134
20
4.3326973053
11
33.4509004849
21
4.3574230789
0
LINE
5
3C0
100
AcDbEntity
8
0
100
AcDbLine
62
0
6
CONTINUOUS
10
35.5086509553
20
21.3600561323
11
35.5414646487
21
21.2631495677
0
LINE
5
3C1
100
AcDbEntity
8
0
100
AcDbLine
62
9
6
CONTINUOUS
10
33.4686235652
20
4.3080293832
11
33.4608188134
21
4.3326973053
0
LINE
5
3C2
100
AcDbEntity
8
0
100
AcDbLine
62
9
6
CONTINUOUS
10
33.1167166664
20
4.1238434427
11
33.1180256039
21
4.1196888532
0
LINE
5
3C3
100
AcDbEntity
8
0
100
AcDbLine
62
9
6
CONTINUOUS
10
33.6612222622
20
4.3642598577
11
33.6490638703
21
4.4032880420
0
LINE
5
3C4
100
AcDbEntity
8
0
100
AcDbLine
62
9
6
CONTINUOUS
10
23.2354028777
20
-13.4086421411
11
23.2108268515
21
-13.3264172106
0
LINE
5
3C5
100
AcDbEntity
8
0
100
AcDbLine
62
9
6
CONTINUOUS
10
25.7043081442
20
-12.5941327122
11
25.7288415285
21
-12.6764359836
0
LINE
5
3C6
100
AcDbEntity
8
0
100
AcDbLine
62
9
6
CONTINUOUS
10
13.4820656962
20
-21.0854372272
11
13.5181794926
21
-21.2200900575
0
LINE
5
3C7
100
AcDbEntity
8
0
100
AcDbLine
62
0
6
CONTINUOUS
10
15.4764142640
20
-4.2602236631
11
15.4920439737
21
-4.3185558535
0
LINE
5
3C8
100
AcDbEntity
8
0
100
AcDbLine
62
9
6
CONTINUOUS
10
15.2689549323
20
-4.3193016496
11
15.2781979066
21
-4.3574813549
0
LINE
5
3C9
100
AcDbEntity
8
0
100
AcDbLine
62
9
6
CONTINUOUS
10
15.4650147819
20
-4.2769705788
11
15.4707966037
21
-4.3012508804
0
LINE
5
3CA
100
AcDbEntity
8
0
100
AcDbLine
62
9
6
CONTINUOUS
10
13.4708054622
20
20.9505467802
11
13.4703334973
21
20.9525946588
0
LINE
5
3CB
100
AcDbEntity
8
0
100
AcDbLine
62
9
6
CONTINUOUS
10
14.2702116365
20
21.7512029284
11
14.2697543124
21
21.7532231796
0
LINE
5
3CC
100
AcDbEntity
8
0
100
AcDbLine
62
9
6
CONTINUOUS
10
15.8213945649
20
-4.1129103504
11
15.8204655498
21
-4.1087034732
0
LINE
5
3CD
100
AcDbEntity
8
0
100
AcDbLine
62
0
6
CONTINUOUS
10
13.3979555201
20
-21.2563710649
11
13.3776024771
21
-21.1541893858
0
LINE
5
3CE
100
AcDbEntity
8
0
100
AcDbLine
62
9
6
CONTINUOUS
10
-17.9219108661
20
-20.3197015169
11
-17.9186031980
21
-20.3460580973
0
LINE
5
3CF
100
AcDbEntity
8
0
100
AcDbLine
62
9
6
CONTINUOUS
10
14.2706835757
20
21.7468972583
11
14.2702116365
21
21.7512029284
0
LINE
5
3D0
100
AcDbEntity
8
0
100
AcDbLine
62
0
6
CONTINUOUS
10
15.4697100844
20
-4.1966240755
11
15.4764142640
21
-4.2602236631
0
LINE
5
3D1
100
AcDbEntity
8
0
100
AcDbLine
62
9
6
CONTINUOUS
10
-17.2416762948
20
-21.6981413253
11
-17.2399562895
21
-21.7342551324
0
LINE
5
3D2
100
AcDbEntity
8
0
100
AcDbLine
62
9
6
CONTINUOUS
10
-18.4004331611
20
-11.2777550590
11
-18.1962113365
21
-15.7867429644
0
LINE
5
3D3
100
AcDbEntity
8
0
100
AcDbLine
62
0
6
CONTINUOUS
10
-19.1552440639
20
-12.0935037349
11
-19.1563632621
21
-12.0657385495
0
LINE
5
3D4
100
AcDbEntity
8
0
100
AcDbLine
62
0
6
CONTINUOUS
10
-19.1699752829
20
-11.7227806282
11
-19.1708457566
21
-11.7005064329
0
LINE
5
3D5
100
AcDbEntity
8
0
100
AcDbLine
62
9
6
CONTINUOUS
10
-18.5365812281
20
-6.7671970011
11
-18.4004331611
21
-11.2777550590
0
LINE
5
3D6
100
AcDbEntity
8
0
100
AcDbLine
62
9
6
CONTINUOUS
10
-17.2428528359
20
-21.6392001309
11
-17.2416762948
21
-21.6981413253
0
LINE
5
3D7
100
AcDbEntity
8
0
100
AcDbLine
62
9
6
CONTINUOUS
10
-17.2377450612
20
20.9533450235
11
-17.2399562896
21
21.0922157564
0
LINE
5
3D8
100
AcDbEntity
8
0
100
AcDbLine
62
9
6
CONTINUOUS
10
-18.6046557216
20
-2.2540248898
11
-18.5365812281
21
-6.7671970011
0
LINE
5
3D9
100
AcDbEntity
8
0
100
AcDbLine
62
9
6
CONTINUOUS
10
-17.2399562896
20
21.0922157564
11
-17.2416762949
21
21.2268686040
0
LINE
5
3DA
100
AcDbEntity
8
0
100
AcDbLine
62
9
6
CONTINUOUS
10
-17.2416762949
20
21.2268686040
11
-17.2428528360
21
21.3532137901
0
LINE
5
3DB
100
AcDbEntity
8
0
100
AcDbLine
62
9
6
CONTINUOUS
10
-17.2434501779
20
-21.5592217549
11
-17.2428528359
21
-21.6392001309
0
LINE
5
3DC
100
AcDbEntity
8
0
100
AcDbLine
62
9
6
CONTINUOUS
10
-17.2428528360
20
21.3532137901
11
-17.2434501780
21
21.4674138651
0
LINE
5
3DD
100
AcDbEntity
8
0
100
AcDbLine
62
9
6
CONTINUOUS
10
-19.1583846727
20
-13.8995674552
11
-19.1583846727
21
-12.0936540420
0
LINE
5
3DE
100
AcDbEntity
8
0
100
AcDbLine
62
9
6
CONTINUOUS
10
-18.6046564576
20
2.2607173739
11
-18.6046557216
21
-2.2540248898
0
LINE
5
3DF
100
AcDbEntity
8
0
100
AcDbLine
62
9
6
CONTINUOUS
10
-17.2434501780
20
21.4674138651
11
-17.2434501779
21
21.5660002598
0
LINE
5
3E0
100
AcDbEntity
8
0
100
AcDbLine
62
9
6
CONTINUOUS
10
-17.2434501779
20
-21.4606353598
11
-17.2434501779
21
-21.5592217549
0
LINE
5
3E1
100
AcDbEntity
8
0
100
AcDbLine
62
9
6
CONTINUOUS
10
-17.2428528359
20
-21.3464352847
11
-17.2434501779
21
-21.4606353598
0
LINE
5
3E2
100
AcDbEntity
8
0
100
AcDbLine
62
9
6
CONTINUOUS
10
-17.2434501779
20
21.5660002598
11
-17.2428528359
21
21.6459786351
0
LINE
5
3E3
100
AcDbEntity
8
0
100
AcDbLine
62
9
6
CONTINUOUS
10
-17.2416762948
20
-21.2200900989
11
-17.2428528359
21
-21.3464352847
0
LINE
5
3E4
100
AcDbEntity
8
0
100
AcDbLine
62
9
6
CONTINUOUS
10
-17.2399562895
20
-21.0854372522
11
-17.2416762948
21
-21.2200900989
0
LINE
5
3E5
100
AcDbEntity
8
0
100
AcDbLine
62
9
6
CONTINUOUS
10
-18.5365828841
20
6.7738980870
11
-18.6046564576
21
2.2607173739
0
LINE
5
3E6
100
AcDbEntity
8
0
100
AcDbLine
62
9
6
CONTINUOUS
10
-17.2377450612
20
-20.9465665206
11
-17.2399562895
21
-21.0854372522
0
LINE
5
3E7
100
AcDbEntity
8
0
100
AcDbLine
62
9
6
CONTINUOUS
10
34.9431894347
20
-21.6981413253
11
34.8085365880
21
-21.7342551324
0
LINE
5
3E8
100
AcDbEntity
8
0
100
AcDbLine
62
9
6
CONTINUOUS
10
33.3697100844
20
-4.0966107486
11
33.3683405108
21
-4.0969681869
0
LINE
5
3E9
100
AcDbEntity
8
0
100
AcDbLine
62
9
6
CONTINUOUS
10
35.4432898459
20
-20.3034828561
11
35.4056677236
21
-20.3125279758
0
LINE
5
3EA
100
AcDbEntity
8
0
100
AcDbLine
62
9
6
CONTINUOUS
10
33.2366207559
20
-4.7510391893
11
33.2737371175
21
-4.7423200272
0
LINE
5
3EB
100
AcDbEntity
8
0
100
AcDbLine
62
9
6
CONTINUOUS
10
33.1982433844
20
-4.5515991102
11
33.2218789555
21
-4.5461317257
0
LINE
5
3EC
100
AcDbEntity
8
0
100
AcDbLine
62
9
6
CONTINUOUS
10
33.0825808855
20
-4.1483857385
11
33.0783769048
21
-4.1493158112
0
LINE
5
3ED
100
AcDbEntity
8
0
100
AcDbLine
62
9
6
CONTINUOUS
10
33.2006448456
20
-4.7571986098
11
33.2366207559
21
-4.7510391893
0
LINE
5
3EE
100
AcDbEntity
8
0
100
AcDbLine
62
9
6
CONTINUOUS
10
15.7387753232
20
4.7639771126
11
15.7027994129
21
4.7578176921
0
LINE
5
3EF
100
AcDbEntity
8
0
100
AcDbLine
62
9
6
CONTINUOUS
10
15.7642445963
20
4.5620836361
11
15.7411767844
21
4.5583776130
0
LINE
5
3F0
100
AcDbEntity
8
0
100
AcDbLine
62
9
6
CONTINUOUS
10
33.4812484169
20
4.2149409129
11
33.4845545461
21
4.2154261260
0
LINE
5
3F1
100
AcDbEntity
8
0
100
AcDbLine
62
9
6
CONTINUOUS
10
13.5337524807
20
20.3193064723
11
13.5936017338
21
20.3278057831
0
LINE
5
3F2
100
AcDbEntity
8
0
100
AcDbLine
62
9
6
CONTINUOUS
10
15.8610432640
20
4.1560943140
11
15.8653335310
21
4.1566563899
0
LINE
5
3F3
100
AcDbEntity
8
0
100
AcDbLine
62
9
6
CONTINUOUS
10
-17.2898811514
20
20.9506522337
11
-17.3172677311
21
20.9474140548
0
LINE
5
3F4
100
AcDbEntity
8
0
100
AcDbLine
62
9
6
CONTINUOUS
10
13.5936017338
20
20.3278057831
11
13.6738996087
21
20.3355067205
0
LINE
5
3F5
100
AcDbEntity
8
0
100
AcDbLine
62
9
6
CONTINUOUS
10
14.1308835808
20
21.7410336352
11
14.2697543124
21
21.7532231796
0
LINE
5
3F6
100
AcDbEntity
8
0
100
AcDbLine
62
9
6
CONTINUOUS
10
-17.2633735948
20
20.9526292233
11
-17.2898811514
21
20.9506522337
0
LINE
5
3F7
100
AcDbEntity
8
0
100
AcDbLine
62
0
6
CONTINUOUS
10
14.0621314472
20
21.8454968587
11
14.1695882405
21
21.8533892514
0
LINE
5
3F8
100
AcDbEntity
8
0
100
AcDbLine
62
9
6
CONTINUOUS
10
13.6738996087
20
20.3355067205
11
13.7722599551
21
20.3421804418
0
LINE
5
3F9
100
AcDbEntity
8
0
100
AcDbLine
62
9
6
CONTINUOUS
10
13.7722599551
20
20.3421804418
11
13.8857598743
21
20.3476286292
0
LINE
5
3FA
100
AcDbEntity
8
0
100
AcDbLine
62
9
6
CONTINUOUS
10
35.4573544679
20
21.0922157564
11
35.4212406603
21
21.2268686040
0
LINE
5
3FB
100
AcDbEntity
8
0
100
AcDbLine
62
0
6
CONTINUOUS
10
33.4630059048
20
4.2670021659
11
33.4473761951
21
4.3253343563
0
LINE
5
3FC
100
AcDbEntity
8
0
100
AcDbLine
62
9
6
CONTINUOUS
10
35.4686784486
20
-20.9441083661
11
35.4691196794
21
-20.9459262605
0
LINE
5
3FD
100
AcDbEntity
8
0
100
AcDbLine
62
9
6
CONTINUOUS
10
33.6704652365
20
4.3260801525
11
33.6612222622
21
4.3642598577
0
LINE
5
3FE
100
AcDbEntity
8
0
100
AcDbLine
62
9
6
CONTINUOUS
10
33.4744053869
20
4.2837490816
11
33.4686235652
21
4.3080293832
0
LINE
5
3FF
100
AcDbEntity
8
0
100
AcDbLine
62
9
6
CONTINUOUS
10
34.6692415296
20
-21.7446390572
11
34.6696658565
21
-21.7464446768
0
LINE
5
400
100
AcDbEntity
8
0
100
AcDbLine
62
9
6
CONTINUOUS
10
33.1180256039
20
4.1196888532
11
33.1189546190
21
4.1154819760
0
LINE
5
401
100
AcDbEntity
8
0
100
AcDbLine
62
9
6
CONTINUOUS
10
23.2108268515
20
-13.3264172106
11
23.1918613110
21
-13.2399598559
0
LINE
5
402
100
AcDbEntity
8
0
100
AcDbLine
62
9
6
CONTINUOUS
10
25.7288415285
20
-12.6764359836
11
25.7477524874
21
-12.7629698917
0
LINE
5
403
100
AcDbEntity
8
0
100
AcDbLine
62
9
6
CONTINUOUS
10
15.2624476591
20
-4.2823432688
11
15.2689549323
21
-4.3193016496
0
LINE
5
404
100
AcDbEntity
8
0
100
AcDbLine
62
9
6
CONTINUOUS
10
15.4611016426
20
-4.2532952381
11
15.4650147819
21
-4.2769705788
0
LINE
5
405
100
AcDbEntity
8
0
100
AcDbLine
62
9
6
CONTINUOUS
10
23.1918613110
20
-13.2399598559
11
23.1783633333
21
-13.1490336796
0
LINE
5
406
100
AcDbEntity
8
0
100
AcDbLine
62
9
6
CONTINUOUS
10
25.7477524874
20
-12.7629698917
11
25.7611835194
21
-12.8539709193
0
LINE
5
407
100
AcDbEntity
8
0
100
AcDbLine
62
9
6
CONTINUOUS
10
13.4712920509
20
20.9472013876
11
13.4708054622
21
20.9505467802
0
LINE
5
408
100
AcDbEntity
8
0
100
AcDbLine
62
9
6
CONTINUOUS
10
15.8204655498
20
-4.1087034732
11
15.8199040563
21
-4.1044101114
0
LINE
5
409
100
AcDbEntity
8
0
100
AcDbLine
62
9
6
CONTINUOUS
10
13.4717958366
20
20.9426463360
11
13.4712920509
21
20.9472013876
0
LINE
5
40A
100
AcDbEntity
8
0
100
AcDbLine
62
0
6
CONTINUOUS
10
33.4697100844
20
4.2034025783
11
33.4630059048
21
4.2670021659
0
LINE
5
40B
100
AcDbEntity
8
0
100
AcDbLine
62
9
6
CONTINUOUS
10
15.2588558034
20
-4.2462333787
11
15.2624476591
21
-4.2823432688
0
LINE
5
40C
100
AcDbEntity
8
0
100
AcDbLine
62
9
6
CONTINUOUS
10
33.6805643654
20
4.2530118815
11
33.6769725097
21
4.2891217716
0
LINE
5
40D
100
AcDbEntity
8
0
100
AcDbLine
62
9
6
CONTINUOUS
10
15.4588773445
20
-4.2303199904
11
15.4611016426
21
-4.2532952381
0
LINE
5
40E
100
AcDbEntity
8
0
100
AcDbLine
62
9
6
CONTINUOUS
10
33.4805428243
20
4.2370984932
11
33.4783185262
21
4.2600737409
0
LINE
5
40F
100
AcDbEntity
8
0
100
AcDbLine
62
9
6
CONTINUOUS
10
35.4672484576
20
-20.9317844908
11
35.4677428376
21
-20.9370374813
0
LINE
5
410
100
AcDbEntity
8
0
100
AcDbLine
62
9
6
CONTINUOUS
10
13.4723142462
20
20.9367937704
11
13.4717958366
21
20.9426463360
0
LINE
5
411
100
AcDbEntity
8
0
100
AcDbLine
62
9
6
CONTINUOUS
10
13.4698761562
20
-20.9465665206
11
13.4820656962
21
-21.0854372272
0
LINE
5
412
100
AcDbEntity
8
0
100
AcDbLine
62
9
6
CONTINUOUS
10
23.1783633333
20
-13.1490336796
11
23.1704758413
21
-13.0538747567
0
LINE
5
413
100
AcDbEntity
8
0
100
AcDbLine
62
9
6
CONTINUOUS
10
25.7611835194
20
-12.8539709193
11
25.7689921260
21
-12.9492022416
0
LINE
5
414
100
AcDbEntity
8
0
100
AcDbLine
62
0
6
CONTINUOUS
10
13.3776024771
20
-21.1541893858
11
13.3697100844
21
-21.0467325925
0
LINE
5
415
100
AcDbEntity
8
0
100
AcDbLine
62
9
6
CONTINUOUS
10
14.2711701300
20
21.7400616309
11
14.2706835757
21
21.7468972583
0
LINE
5
416
100
AcDbEntity
8
0
100
AcDbLine
62
9
6
CONTINUOUS
10
13.4728395602
20
20.9293801259
11
13.4723142462
21
20.9367937704
0
LINE
5
417
100
AcDbEntity
8
0
100
AcDbLine
62
9
6
CONTINUOUS
10
13.4733721282
20
20.9203588139
11
13.4728395602
21
20.9293801259
0
LINE
5
418
100
AcDbEntity
8
0
100
AcDbLine
62
9
6
CONTINUOUS
10
14.2716738677
20
21.7304208304
11
14.2711701300
21
21.7400616309
0
LINE
5
419
100
AcDbEntity
8
0
100
AcDbLine
62
9
6
CONTINUOUS
10
13.4739116007
20
20.9097764230
11
13.4733721282
21
20.9203588139
0
LINE
5
41A
100
AcDbEntity
8
0
100
AcDbLine
62
9
6
CONTINUOUS
10
15.8199040563
20
-4.1044101114
11
15.8197100844
21
-4.1000302649
0
LINE
5
41B
100
AcDbEntity
8
0
100
AcDbLine
62
9
6
CONTINUOUS
10
13.4744492102
20
20.8975091543
11
13.4739116007
21
20.9097764230
0
LINE
5
41C
100
AcDbEntity
8
0
100
AcDbLine
62
9
6
CONTINUOUS
10
14.2721922204
20
21.7177381863
11
14.2716738677
21
21.7304208304
0
LINE
5
41D
100
AcDbEntity
8
0
100
AcDbLine
62
9
6
CONTINUOUS
10
13.4755190872
20
20.8678015037
11
13.4744492102
21
20.8975091543
0
LINE
5
41E
100
AcDbEntity
8
0
100
AcDbLine
62
9
6
CONTINUOUS
10
14.2727174835
20
21.7018825654
11
14.2721922204
21
21.7177381863
0
LINE
5
41F
100
AcDbEntity
8
0
100
AcDbLine
62
9
6
CONTINUOUS
10
15.4581717499
20
-4.2081624101
11
15.4588773445
21
-4.2303199904
0
LINE
5
420
100
AcDbEntity
8
0
100
AcDbLine
62
9
6
CONTINUOUS
10
13.4765538248
20
20.8314529163
11
13.4755190872
21
20.8678015037
0
LINE
5
421
100
AcDbEntity
8
0
100
AcDbLine
62
9
6
CONTINUOUS
10
14.2737894487
20
21.6598975098
11
14.2727174835
21
21.7018825654
0
LINE
5
422
100
AcDbEntity
8
0
100
AcDbLine
62
9
6
CONTINUOUS
10
13.4775359623
20
20.7887607894
11
13.4765538248
21
20.8314529163
0
LINE
5
423
100
AcDbEntity
8
0
100
AcDbLine
62
9
6
CONTINUOUS
10
15.2581793652
20
-4.2109719842
11
15.2588558034
21
-4.2462333787
0
LINE
5
424
100
AcDbEntity
8
0
100
AcDbLine
62
9
6
CONTINUOUS
10
14.2748628798
20
21.6036672208
11
14.2737894487
21
21.6598975098
0
LINE
5
425
100
AcDbEntity
8
0
100
AcDbLine
62
9
6
CONTINUOUS
10
13.4788559176
20
20.7145599723
11
13.4775359623
21
20.7887607894
0
LINE
5
426
100
AcDbEntity
8
0
100
AcDbLine
62
9
6
CONTINUOUS
10
14.2764316106
20
21.4921199912
11
14.2748628798
21
21.6036672208
0
LINE
5
427
100
AcDbEntity
8
0
100
AcDbLine
62
9
6
CONTINUOUS
10
13.4802523102
20
20.6026752170
11
13.4788559176
21
20.7145599723
0
LINE
5
428
100
AcDbEntity
8
0
100
AcDbLine
62
0
6
CONTINUOUS
10
-11.4992346494
20
21.8533892514
11
-11.4992346494
21
-21.8466107486
0
LINE
5
429
100
AcDbEntity
8
0
100
AcDbLine
62
9
6
CONTINUOUS
10
-17.2428528359
20
21.6459786351
11
-17.2416762949
21
21.7049198288
0
LINE
5
42A
100
AcDbEntity
8
0
100
AcDbLine
62
9
6
CONTINUOUS
10
-18.4004348171
20
11.2844733486
11
-18.5365828841
21
6.7738980870
0
LINE
5
42B
100
AcDbEntity
8
0
100
AcDbLine
62
9
6
CONTINUOUS
10
-18.1962124405
20
15.7934870597
11
-18.4004348171
21
11.2844733486
0
LINE
5
42C
100
AcDbEntity
8
0
100
AcDbLine
62
9
6
CONTINUOUS
10
-17.2416762949
20
21.7049198288
11
-17.2399562895
21
21.7410336354
0
LINE
5
42D
100
AcDbEntity
8
0
100
AcDbLine
62
9
6
CONTINUOUS
10
-17.9239157544
20
20.3009392203
11
-18.1962124405
21
15.7934870597
0
LINE
5
42E
100
AcDbEntity
8
0
100
AcDbLine
62
9
6
CONTINUOUS
10
-17.9220530236
20
20.3251647879
11
-17.9239157544
21
20.3009392203
0
LINE
5
42F
100
AcDbEntity
8
0
100
AcDbLine
62
0
6
CONTINUOUS
10
33.1837562637
20
-4.5397207016
11
33.2423824780
21
-4.5239206666
0
LINE
5
430
100
AcDbEntity
8
0
100
AcDbLine
62
0
6
CONTINUOUS
10
15.7556639051
20
4.5464992044
11
15.6970376908
21
4.5306991694
0
LINE
5
431
100
AcDbEntity
8
0
100
AcDbLine
62
9
6
CONTINUOUS
10
15.5697100844
20
4.1033892514
11
15.5710796580
21
4.1037466897
0
LINE
5
432
100
AcDbEntity
8
0
100
AcDbLine
62
9
6
CONTINUOUS
10
15.7027994129
20
4.7578176921
11
15.6656830513
21
4.7490985300
0
LINE
5
433
100
AcDbEntity
8
0
100
AcDbLine
62
9
6
CONTINUOUS
10
15.7411767844
20
4.5583776130
11
15.7175412133
21
4.5529102286
0
LINE
5
434
100
AcDbEntity
8
0
100
AcDbLine
62
9
6
CONTINUOUS
10
15.8568392833
20
4.1551642413
11
15.8610432640
21
4.1560943140
0
LINE
5
435
100
AcDbEntity
8
0
100
AcDbLine
62
0
6
CONTINUOUS
10
13.9599497681
20
21.8251438157
11
14.0621314472
21
21.8454968587
0
LINE
5
436
100
AcDbEntity
8
0
100
AcDbLine
62
9
6
CONTINUOUS
10
-17.3456787634
20
20.9430059265
11
-17.3749688187
21
20.9373366089
0
LINE
5
437
100
AcDbEntity
8
0
100
AcDbLine
62
9
6
CONTINUOUS
10
-17.3172677311
20
20.9474140548
11
-17.3456787634
21
20.9430059265
0
LINE
5
438
100
AcDbEntity
8
0
100
AcDbLine
62
0
6
CONTINUOUS
10
35.5414646487
20
21.2631495677
11
35.5618176917
21
21.1609678886
0
LINE
5
439
100
AcDbEntity
8
0
100
AcDbLine
62
9
6
CONTINUOUS
10
33.6769725097
20
4.2891217716
11
33.6704652365
21
4.3260801525
0
LINE
5
43A
100
AcDbEntity
8
0
100
AcDbLine
62
9
6
CONTINUOUS
10
33.4783185262
20
4.2600737409
11
33.4744053869
21
4.2837490816
0
LINE
5
43B
100
AcDbEntity
8
0
100
AcDbLine
62
9
6
CONTINUOUS
10
35.4682203201
20
-20.9411128375
11
35.4686784486
21
-20.9441083661
0
LINE
5
43C
100
AcDbEntity
8
0
100
AcDbLine
62
9
6
CONTINUOUS
10
33.1189546190
20
4.1154819760
11
33.1195161125
21
4.1111886142
0
LINE
5
43D
100
AcDbEntity
8
0
100
AcDbLine
62
9
6
CONTINUOUS
10
35.4677428376
20
-20.9370374813
11
35.4682203201
21
-20.9411128375
0
LINE
5
43E
100
AcDbEntity
8
0
100
AcDbLine
62
9
6
CONTINUOUS
10
34.6688002953
20
-21.7408280834
11
34.6692415296
21
-21.7446390572
0
LINE
5
43F
100
AcDbEntity
8
0
100
AcDbLine
62
9
6
CONTINUOUS
10
35.4695440126
20
20.9533450235
11
35.4573544679
21
21.0922157564
0
LINE
5
440
100
AcDbEntity
8
0
100
AcDbLine
62
9
6
CONTINUOUS
10
34.6683421536
20
-21.7347575727
11
34.6688002953
21
-21.7408280834
0
LINE
5
441
100
AcDbEntity
8
0
100
AcDbLine
62
9
6
CONTINUOUS
10
35.4667445488
20
-20.9250604465
11
35.4672484576
21
-20.9317844908
0
LINE
5
442
100
AcDbEntity
8
0
100
AcDbLine
62
0
6
CONTINUOUS
10
35.5618176917
20
21.1609678886
11
35.5697100844
21
21.0535110953
0
LINE
5
443
100
AcDbEntity
8
0
100
AcDbLine
62
9
6
CONTINUOUS
10
35.4662307620
20
-20.9168252858
11
35.4667445488
21
-20.9250604465
0
LINE
5
444
100
AcDbEntity
8
0
100
AcDbLine
62
9
6
CONTINUOUS
10
34.6678646450
20
-21.7261409818
11
34.6683421536
21
-21.7347575727
0
LINE
5
445
100
AcDbEntity
8
0
100
AcDbLine
62
9
6
CONTINUOUS
10
35.4657074464
20
-20.9071190713
11
35.4662307620
21
-20.9168252858
0
LINE
5
446
100
AcDbEntity
8
0
100
AcDbLine
62
9
6
CONTINUOUS
10
35.4651830191
20
-20.8957685711
11
35.4657074464
21
-20.9071190713
0
LINE
5
447
100
AcDbEntity
8
0
100
AcDbLine
62
9
6
CONTINUOUS
10
33.1195161125
20
4.1111886142
11
33.1197100844
21
4.1068087677
0
LINE
5
448
100
AcDbEntity
8
0
100
AcDbLine
62
9
6
CONTINUOUS
10
34.6673702290
20
-21.7147250364
11
34.6678646450
21
-21.7261409818
0
LINE
5
449
100
AcDbEntity
8
0
100
AcDbLine
62
9
6
CONTINUOUS
10
35.4646572708
20
-20.8827200206
11
35.4651830191
21
-20.8957685711
0
LINE
5
44A
100
AcDbEntity
8
0
100
AcDbLine
62
9
6
CONTINUOUS
10
34.6668662834
20
-21.7003540094
11
34.6673702290
21
-21.7147250364
0
LINE
5
44B
100
AcDbEntity
8
0
100
AcDbLine
62
9
6
CONTINUOUS
10
35.4636114833
20
-20.8516781250
11
35.4646572708
21
-20.8827200206
0
LINE
5
44C
100
AcDbEntity
8
0
100
AcDbLine
62
9
6
CONTINUOUS
10
33.4812484190
20
4.2149409129
11
33.4805428243
21
4.2370984932
0
LINE
5
44D
100
AcDbEntity
8
0
100
AcDbLine
62
9
6
CONTINUOUS
10
34.6658291093
20
-21.6618981200
11
34.6668662834
21
-21.7003540094
0
LINE
5
44E
100
AcDbEntity
8
0
100
AcDbLine
62
9
6
CONTINUOUS
10
35.4625976487
20
-20.8138872449
11
35.4636114833
21
-20.8516781250
0
LINE
5
44F
100
AcDbEntity
8
0
100
AcDbLine
62
9
6
CONTINUOUS
10
35.4611897425
20
-20.7457076498
11
35.4625976487
21
-20.8138872449
0
LINE
5
450
100
AcDbEntity
8
0
100
AcDbLine
62
9
6
CONTINUOUS
10
34.6647788642
20
-21.6097011422
11
34.6658291093
21
-21.6618981200
0
LINE
5
451
100
AcDbEntity
8
0
100
AcDbLine
62
9
6
CONTINUOUS
10
33.6812408036
20
4.2177504870
11
33.6805643654
21
4.2530118815
0
LINE
5
452
100
AcDbEntity
8
0
100
AcDbLine
62
9
6
CONTINUOUS
10
35.4599765284
20
-20.6661455261
11
35.4611897425
21
-20.7457076498
0
LINE
5
453
100
AcDbEntity
8
0
100
AcDbLine
62
9
6
CONTINUOUS
10
34.6632221109
20
-21.5044187313
11
34.6647788642
21
-21.6097011422
0
LINE
5
454
100
AcDbEntity
8
0
100
AcDbLine
62
9
6
CONTINUOUS
10
35.4587400048
20
-20.5493515451
11
35.4599765284
21
-20.6661455261
0
LINE
5
455
100
AcDbEntity
8
0
100
AcDbLine
62
9
6
CONTINUOUS
10
34.6613112353
20
-21.3160674683
11
34.6632221109
21
-21.5044187313
0
LINE
5
456
100
AcDbEntity
8
0
100
AcDbLine
62
9
6
CONTINUOUS
10
14.2787338229
20
21.2415918483
11
14.2764316106
21
21.4921199912
0
LINE
5
457
100
AcDbEntity
8
0
100
AcDbLine
62
9
6
CONTINUOUS
10
13.4813534932
20
20.4569961764
11
13.4802523102
21
20.6026752170
0
LINE
5
458
100
AcDbEntity
8
0
100
AcDbLine
62
9
6
CONTINUOUS
10
34.6588616886
20
-20.8952089382
11
34.6613112353
21
-21.3160674683
0
LINE
5
459
100
AcDbEntity
8
0
100
AcDbLine
62
9
6
CONTINUOUS
10
35.4577400653
20
-20.3732304588
11
35.4587400048
21
-20.5493515451
0
LINE
5
45A
100
AcDbEntity
8
0
100
AcDbLine
62
9
6
CONTINUOUS
10
14.2812316195
20
20.6896319683
11
14.2787338229
21
21.2415918483
0
LINE
5
45B
100
AcDbEntity
8
0
100
AcDbLine
62
9
6
CONTINUOUS
10
13.4818533102
20
20.3009392203
11
13.4813534932
21
20.4569961764
0
LINE
5
45C
100
AcDbEntity
8
0
100
AcDbLine
62
9
6
CONTINUOUS
10
34.6577236974
20
-20.4029320332
11
34.6588616886
21
-20.8952089382
0
LINE
5
45D
100
AcDbEntity
8
0
100
AcDbLine
62
9
6
CONTINUOUS
10
13.4866062666
20
15.7934870597
11
13.4818533102
21
20.3009392203
0
LINE
5
45E
100
AcDbEntity
8
0
100
AcDbLine
62
9
6
CONTINUOUS
10
14.2864844258
20
15.8373892157
11
14.2812316195
21
20.6896319683
0
LINE
5
45F
100
AcDbEntity
8
0
100
AcDbLine
62
9
6
CONTINUOUS
10
13.4901709814
20
11.2844733486
11
13.4866062666
21
15.7934870597
0
LINE
5
460
100
AcDbEntity
8
0
100
AcDbLine
62
9
6
CONTINUOUS
10
14.2900491455
20
11.3159638815
11
14.2864844258
21
15.8373892157
0
LINE
5
461
100
AcDbEntity
8
0
100
AcDbLine
62
9
6
CONTINUOUS
10
13.4925474548
20
6.7738980870
11
13.4901709814
21
11.2844733486
0
LINE
5
462
100
AcDbEntity
8
0
100
AcDbLine
62
9
6
CONTINUOUS
10
14.2924256255
20
6.7919638799
11
14.2900491455
21
11.3159638815
0
LINE
5
463
100
AcDbEntity
8
0
100
AcDbLine
62
9
6
CONTINUOUS
10
13.4937356834
20
2.2607173739
11
13.4925474548
21
6.7738980870
0
LINE
5
464
100
AcDbEntity
8
0
100
AcDbLine
62
9
6
CONTINUOUS
10
14.2936138660
20
2.2664190880
11
14.2924256255
21
6.7919638799
0
LINE
5
465
100
AcDbEntity
8
0
100
AcDbLine
62
0
6
CONTINUOUS
10
13.3697100844
20
-21.0467325925
11
13.3697100844
21
21.0535110953
0
LINE
5
466
100
AcDbEntity
8
0
100
AcDbLine
62
9
6
CONTINUOUS
10
13.4937356706
20
-2.2540248898
11
13.4937356834
21
2.2607173739
0
LINE
5
467
100
AcDbEntity
8
0
100
AcDbLine
62
9
6
CONTINUOUS
10
14.2936138668
20
-2.2596405717
11
14.2936138660
21
2.2664190880
0
LINE
5
468
100
AcDbEntity
8
0
100
AcDbLine
62
9
6
CONTINUOUS
10
15.2580014064
20
2.3547511216
11
15.2581793652
21
-4.2109719842
0
LINE
5
469
100
AcDbEntity
8
0
100
AcDbLine
62
9
6
CONTINUOUS
10
15.4579937911
20
2.3531741250
11
15.4581717499
21
-4.2081624101
0
LINE
5
46A
100
AcDbEntity
8
0
100
AcDbLine
62
0
6
CONTINUOUS
10
15.4622922468
20
2.9533892514
11
15.4622922468
21
-2.9466107486
0
LINE
5
46B
100
AcDbEntity
8
0
100
AcDbLine
62
0
6
CONTINUOUS
10
15.4697100844
20
-4.1966240755
11
15.4697100844
21
-2.9540285862
0
LINE
5
46C
100
AcDbEntity
8
0
100
AcDbLine
62
0
6
CONTINUOUS
10
15.4697100844
20
2.9608070890
11
15.4697100844
21
4.2034025783
0
LINE
5
46D
100
AcDbEntity
8
0
100
AcDbLine
62
9
6
CONTINUOUS
10
15.5180817701
20
2.9033892514
11
15.5180817701
21
-2.8966107486
0
LINE
5
46E
100
AcDbEntity
8
0
100
AcDbLine
62
9
6
CONTINUOUS
10
15.5697100844
20
4.1033892514
11
15.5697100844
21
3.4033892514
0
LINE
5
46F
100
AcDbEntity
8
0
100
AcDbLine
62
0
6
CONTINUOUS
10
15.5697100844
20
3.4033892514
11
15.5697100844
21
-3.3966107486
0
LINE
5
470
100
AcDbEntity
8
0
100
AcDbLine
62
9
6
CONTINUOUS
10
15.5697100844
20
-3.3966107486
11
15.5697100844
21
-4.0966107486
0
LINE
5
471
100
AcDbEntity
8
0
100
AcDbLine
62
9
6
CONTINUOUS
10
15.8082302475
20
-4.5580772585
11
15.8082302475
21
-4.7612460667
0
LINE
5
472
100
AcDbEntity
8
0
100
AcDbLine
62
9
6
CONTINUOUS
10
15.8082302475
20
4.5648557614
11
15.8082302475
21
4.7680245695
0
LINE
5
473
100
AcDbEntity
8
0
100
AcDbLine
62
9
6
CONTINUOUS
10
15.8197100844
20
-4.1000302649
11
15.8197100844
21
4.1068087677
0
LINE
5
474
100
AcDbEntity
8
0
100
AcDbLine
62
9
6
CONTINUOUS
10
15.8697100844
20
-4.3966107486
11
15.8697100844
21
-4.1500719663
0
LINE
5
475
100
AcDbEntity
8
0
100
AcDbLine
62
9
6
CONTINUOUS
10
15.8697100844
20
4.4033892514
11
15.8697100844
21
4.1568504691
0
LINE
5
476
100
AcDbEntity
8
0
100
AcDbLine
62
9
6
CONTINUOUS
10
24.4697100844
20
-14.3013790050
11
24.4697100844
21
-14.1966107946
0
LINE
5
477
100
AcDbEntity
8
0
100
AcDbLine
62
9
6
CONTINUOUS
10
24.4697100844
20
-11.7005120493
11
24.4697100844
21
-11.7966107023
0
LINE
5
478
100
AcDbEntity
8
0
100
AcDbLine
62
9
6
CONTINUOUS
10
33.0697100844
20
-4.3966107486
11
33.0697100844
21
-4.1500719663
0
LINE
5
479
100
AcDbEntity
8
0
100
AcDbLine
62
9
6
CONTINUOUS
10
33.0697100844
20
4.4033892514
11
33.0697100844
21
4.1568504691
0
LINE
5
47A
100
AcDbEntity
8
0
100
AcDbLine
62
9
6
CONTINUOUS
10
33.1197100844
20
4.1068087677
11
33.1197100844
21
-4.1000302649
0
LINE
5
47B
100
AcDbEntity
8
0
100
AcDbLine
62
9
6
CONTINUOUS
10
33.1311899213
20
-4.5580772585
11
33.1311899213
21
-4.7612460667
0
LINE
5
47C
100
AcDbEntity
8
0
100
AcDbLine
62
9
6
CONTINUOUS
10
33.1311899213
20
4.5648557614
11
33.1311899213
21
4.7680245695
0
LINE
5
47D
100
AcDbEntity
8
0
100
AcDbLine
62
9
6
CONTINUOUS
10
33.3697100844
20
-4.0966107486
11
33.3697100844
21
-3.3966107486
0
LINE
5
47E
100
AcDbEntity
8
0
100
AcDbLine
62
0
6
CONTINUOUS
10
33.3697100844
20
-3.3966107486
11
33.3697100844
21
3.4033892514
0
LINE
5
47F
100
AcDbEntity
8
0
100
AcDbLine
62
9
6
CONTINUOUS
10
33.3697100844
20
3.4033892514
11
33.3697100844
21
4.1033892514
0
LINE
5
480
100
AcDbEntity
8
0
100
AcDbLine
62
9
6
CONTINUOUS
10
33.4213383987
20
2.9033892514
11
33.4213383987
21
-2.8966107486
0
LINE
5
481
100
AcDbEntity
8
0
100
AcDbLine
62
0
6
CONTINUOUS
10
33.4697100844
20
-4.1966240755
11
33.4697100844
21
-2.9540285862
0
LINE
5
482
100
AcDbEntity
8
0
100
AcDbLine
62
0
6
CONTINUOUS
10
33.4697100844
20
2.9608070890
11
33.4697100844
21
4.2034025783
0
LINE
5
483
100
AcDbEntity
8
0
100
AcDbLine
62
0
6
CONTINUOUS
10
33.4771279220
20
2.9533892514
11
33.4771279220
21
-2.9466107486
0
LINE
5
484
100
AcDbEntity
8
0
100
AcDbLine
62
9
6
CONTINUOUS
10
33.4812484190
20
-4.2081624101
11
33.4812484190
21
4.2149409129
0
LINE
5
485
100
AcDbEntity
8
0
100
AcDbLine
62
9
6
CONTINUOUS
10
33.6812408036
20
-4.2109719842
11
33.6812408036
21
4.2177504870
0
LINE
5
486
100
AcDbEntity
8
0
100
AcDbLine
62
9
6
CONTINUOUS
10
15.2581793652
20
4.2177504870
11
15.2580014064
21
2.3547511216
0
LINE
5
487
100
AcDbEntity
8
0
100
AcDbLine
62
9
6
CONTINUOUS
10
15.4581717499
20
4.2149409129
11
15.4579937911
21
2.3531741250
0
LINE
5
488
100
AcDbEntity
8
0
100
AcDbLine
62
9
6
CONTINUOUS
10
13.4925474259
20
-6.7671970011
11
13.4937356706
21
-2.2540248898
0
LINE
5
489
100
AcDbEntity
8
0
100
AcDbLine
62
9
6
CONTINUOUS
10
14.2924256272
20
-6.7851853649
11
14.2936138668
21
-2.2596405717
0
LINE
5
48A
100
AcDbEntity
8
0
100
AcDbLine
62
9
6
CONTINUOUS
10
13.4901709525
20
-11.2777550590
11
13.4925474259
21
-6.7671970011
0
LINE
5
48B
100
AcDbEntity
8
0
100
AcDbLine
62
9
6
CONTINUOUS
10
14.2900491472
20
-11.3091853692
11
14.2924256272
21
-6.7851853649
0
LINE
5
48C
100
AcDbEntity
8
0
100
AcDbLine
62
9
6
CONTINUOUS
10
23.1704758413
20
-13.0538747567
11
23.1705156919
21
-12.9553996891
0
LINE
5
48D
100
AcDbEntity
8
0
100
AcDbLine
62
9
6
CONTINUOUS
10
13.4866062473
20
-15.7867429644
11
13.4901709525
21
-11.2777550590
0
LINE
5
48E
100
AcDbEntity
8
0
100
AcDbLine
62
9
6
CONTINUOUS
10
14.2864844269
20
-15.8306107075
11
14.2900491472
21
-11.3091853692
0
LINE
5
48F
100
AcDbEntity
8
0
100
AcDbLine
62
9
6
CONTINUOUS
10
13.4812866653
20
-20.4624148731
11
13.4866062473
21
-15.7867429644
0
LINE
5
490
100
AcDbEntity
8
0
100
AcDbLine
62
9
6
CONTINUOUS
10
14.2802576107
20
-20.9670388024
11
14.2864844269
21
-15.8306107075
0
LINE
5
491
100
AcDbEntity
8
0
100
AcDbLine
62
9
6
CONTINUOUS
10
25.7689921260
20
-12.9492022416
11
25.7688599708
21
-13.0477426326
0
LINE
5
492
100
AcDbEntity
8
0
100
AcDbLine
62
9
6
CONTINUOUS
10
14.2775901732
20
-21.3750923652
11
14.2802576107
21
-20.9670388024
0
LINE
5
493
100
AcDbEntity
8
0
100
AcDbLine
62
9
6
CONTINUOUS
10
13.4800789047
20
-20.6125929733
11
13.4812866653
21
-20.4624148731
0
LINE
5
494
100
AcDbEntity
8
0
100
AcDbLine
62
9
6
CONTINUOUS
10
14.2756157055
20
-21.5481455603
11
14.2775901732
21
-21.3750923652
0
LINE
5
495
100
AcDbEntity
8
0
100
AcDbLine
62
9
6
CONTINUOUS
10
13.4785999352
20
-20.7240129755
11
13.4800789047
21
-20.6125929733
0
LINE
5
496
100
AcDbEntity
8
0
100
AcDbLine
62
9
6
CONTINUOUS
10
14.2740495078
20
-21.6408211093
11
14.2756157055
21
-21.5481455603
0
LINE
5
497
100
AcDbEntity
8
0
100
AcDbLine
62
9
6
CONTINUOUS
10
13.4772401541
20
-20.7958144892
11
13.4785999352
21
-20.7240129755
0
LINE
5
498
100
AcDbEntity
8
0
100
AcDbLine
62
9
6
CONTINUOUS
10
15.2588621936
20
4.2538559346
11
15.2581793652
21
4.2177504870
0
LINE
5
499
100
AcDbEntity
8
0
100
AcDbLine
62
9
6
CONTINUOUS
10
14.2730100412
20
-21.6849325579
11
14.2740495078
21
-21.6408211093
0
LINE
5
49A
100
AcDbEntity
8
0
100
AcDbLine
62
9
6
CONTINUOUS
10
13.4762482756
20
-20.8362425612
11
13.4772401541
21
-20.7958144892
0
LINE
5
49B
100
AcDbEntity
8
0
100
AcDbLine
62
9
6
CONTINUOUS
10
14.2725017810
20
-21.7019678614
11
14.2730100412
21
-21.6849325579
0
LINE
5
49C
100
AcDbEntity
8
0
100
AcDbLine
62
9
6
CONTINUOUS
10
13.4752193246
20
-20.8701063746
11
13.4762482756
21
-20.8362425612
0
LINE
5
49D
100
AcDbEntity
8
0
100
AcDbLine
62
9
6
CONTINUOUS
10
15.4589102450
20
4.2376098786
11
15.4581717499
21
4.2149409129
0
LINE
5
49E
100
AcDbEntity
8
0
100
AcDbLine
62
9
6
CONTINUOUS
10
14.2720043247
20
-21.7158894205
11
14.2725017810
21
-21.7019678614
0
LINE
5
49F
100
AcDbEntity
8
0
100
AcDbLine
62
9
6
CONTINUOUS
10
13.4746942584
20
-20.8845105015
11
13.4752193246
21
-20.8701063746
0
LINE
5
4A0
100
AcDbEntity
8
0
100
AcDbLine
62
9
6
CONTINUOUS
10
13.4741712433
20
-20.8972801067
11
13.4746942584
21
-20.8845105015
0
LINE
5
4A1
100
AcDbEntity
8
0
100
AcDbLine
62
9
6
CONTINUOUS
10
14.2715173154
20
-21.7269186829
11
14.2720043247
21
-21.7158894205
0
LINE
5
4A2
100
AcDbEntity
8
0
100
AcDbLine
62
9
6
CONTINUOUS
10
15.8197100844
20
4.1068087677
11
15.8199040563
21
4.1111886142
0
LINE
5
4A3
100
AcDbEntity
8
0
100
AcDbLine
62
9
6
CONTINUOUS
10
13.4736505104
20
-20.9083624109
11
13.4741712433
21
-20.8972801067
0
LINE
5
4A4
100
AcDbEntity
8
0
100
AcDbLine
62
9
6
CONTINUOUS
10
13.4731318287
20
-20.9178101934
11
13.4736505104
21
-20.9083624109
0
LINE
5
4A5
100
AcDbEntity
8
0
100
AcDbLine
62
9
6
CONTINUOUS
10
14.2710480771
20
-21.7352195663
11
14.2715173154
21
-21.7269186829
0
LINE
5
4A6
100
AcDbEntity
8
0
100
AcDbLine
62
9
6
CONTINUOUS
10
13.4726235909
20
-20.9258118067
11
13.4731318287
21
-20.9178101934
0
LINE
5
4A7
100
AcDbEntity
8
0
100
AcDbLine
62
0
6
CONTINUOUS
10
13.3697100844
20
21.0535110953
11
13.3776024771
21
21.1609678886
0
LINE
5
4A8
100
AcDbEntity
8
0
100
AcDbLine
62
9
6
CONTINUOUS
10
-17.9189664585
20
20.3502996868
11
-17.9220530236
21
20.3251647879
0
LINE
5
4A9
100
AcDbEntity
8
0
100
AcDbLine
62
9
6
CONTINUOUS
10
-17.9146560590
20
20.3763439172
11
-17.9189664585
21
20.3502996868
0
LINE
5
4AA
100
AcDbEntity
8
0
100
AcDbLine
62
9
6
CONTINUOUS
10
-17.2399562895
20
21.7410336354
11
-17.2377450612
21
21.7532231796
0
LINE
5
4AB
100
AcDbEntity
8
0
100
AcDbLine
62
9
6
CONTINUOUS
10
13.9962307341
20
21.7049198281
11
14.1308835808
21
21.7410336352
0
LINE
5
4AC
100
AcDbEntity
8
0
100
AcDbLine
62
9
6
CONTINUOUS
10
-17.3749688187
20
20.9373366089
11
-17.4047016086
21
20.9301323817
0
LINE
5
4AD
100
AcDbEntity
8
0
100
AcDbLine
62
9
6
CONTINUOUS
10
13.4961303434
20
20.3102613558
11
13.5337524807
21
20.3193064723
0
LINE
5
4AE
100
AcDbEntity
8
0
100
AcDbLine
62
9
6
CONTINUOUS
10
34.6529357419
20
-15.8306107075
11
34.6577236974
21
-20.4029320332
0
LINE
5
4AF
100
AcDbEntity
8
0
100
AcDbLine
62
9
6
CONTINUOUS
10
35.4528139215
20
-15.7867429644
11
35.4577400653
21
-20.3732304588
0
LINE
5
4B0
100
AcDbEntity
8
0
100
AcDbLine
62
9
6
CONTINUOUS
10
34.6493710216
20
-11.3091853692
11
34.6529357419
21
-15.8306107075
0
LINE
5
4B1
100
AcDbEntity
8
0
100
AcDbLine
62
9
6
CONTINUOUS
10
35.4492492163
20
-11.2777550590
11
35.4528139215
21
-15.7867429644
0
LINE
5
4B2
100
AcDbEntity
8
0
100
AcDbLine
62
9
6
CONTINUOUS
10
34.6469945416
20
-6.7851853649
11
34.6493710216
21
-11.3091853692
0
LINE
5
4B3
100
AcDbEntity
8
0
100
AcDbLine
62
9
6
CONTINUOUS
10
35.4468727430
20
-6.7671970011
11
35.4492492163
21
-11.2777550590
0
LINE
5
4B4
100
AcDbEntity
8
0
100
AcDbLine
62
9
6
CONTINUOUS
10
34.6458063020
20
-2.2596405717
11
34.6469945416
21
-6.7851853649
0
LINE
5
4B5
100
AcDbEntity
8
0
100
AcDbLine
62
9
6
CONTINUOUS
10
35.4456844982
20
-2.2540248898
11
35.4468727430
21
-6.7671970011
0
LINE
5
4B6
100
AcDbEntity
8
0
100
AcDbLine
62
9
6
CONTINUOUS
10
34.6458063028
20
2.2664190880
11
34.6458063020
21
-2.2596405717
0
LINE
5
4B7
100
AcDbEntity
8
0
100
AcDbLine
62
9
6
CONTINUOUS
10
35.4456844854
20
2.2607173739
11
35.4456844982
21
-2.2540248898
0
LINE
5
4B8
100
AcDbEntity
8
0
100
AcDbLine
62
0
6
CONTINUOUS
10
35.5697100844
20
-21.0467325925
11
35.5697100844
21
21.0535110953
0
LINE
5
4B9
100
AcDbEntity
8
0
100
AcDbLine
62
9
6
CONTINUOUS
10
34.6469945433
20
6.7919638799
11
34.6458063028
21
2.2664190880
0
LINE
5
4BA
100
AcDbEntity
8
0
100
AcDbLine
62
9
6
CONTINUOUS
10
35.4468727140
20
6.7738980870
11
35.4456844854
21
2.2607173739
0
LINE
5
4BB
100
AcDbEntity
8
0
100
AcDbLine
62
9
6
CONTINUOUS
10
34.6493710233
20
11.3159638815
11
34.6469945433
21
6.7919638799
0
LINE
5
4BC
100
AcDbEntity
8
0
100
AcDbLine
62
9
6
CONTINUOUS
10
35.4492491874
20
11.2844733486
11
35.4468727140
21
6.7738980870
0
LINE
5
4BD
100
AcDbEntity
8
0
100
AcDbLine
62
9
6
CONTINUOUS
10
34.6529357430
20
15.8373892157
11
34.6493710233
21
11.3159638815
0
LINE
5
4BE
100
AcDbEntity
8
0
100
AcDbLine
62
9
6
CONTINUOUS
10
35.4528139022
20
15.7934870597
11
35.4492491874
21
11.2844733486
0
LINE
5
4BF
100
AcDbEntity
8
0
100
AcDbLine
62
9
6
CONTINUOUS
10
34.6577212200
20
20.4069199576
11
34.6529357430
21
15.8373892157
0
LINE
5
4C0
100
AcDbEntity
8
0
100
AcDbLine
62
9
6
CONTINUOUS
10
35.4580823747
20
20.4599325969
11
35.4528139022
21
15.7934870597
0
LINE
5
4C1
100
AcDbEntity
8
0
100
AcDbLine
62
9
6
CONTINUOUS
10
34.6596406966
20
21.0721116372
11
34.6577212200
21
20.4069199576
0
LINE
5
4C2
100
AcDbEntity
8
0
100
AcDbLine
62
9
6
CONTINUOUS
10
34.6611645716
20
21.3048605860
11
34.6596406966
21
21.0721116372
0
LINE
5
4C3
100
AcDbEntity
8
0
100
AcDbLine
62
9
6
CONTINUOUS
10
35.4592076202
20
20.6065988133
11
35.4580823747
21
20.4599325969
0
LINE
5
4C4
100
AcDbEntity
8
0
100
AcDbLine
62
9
6
CONTINUOUS
10
34.6635693167
20
21.5379758547
11
34.6611645716
21
21.3048605860
0
LINE
5
4C5
100
AcDbEntity
8
0
100
AcDbLine
62
9
6
CONTINUOUS
10
35.4606223013
20
20.7183314074
11
35.4592076202
21
20.6065988133
0
LINE
5
4C6
100
AcDbEntity
8
0
100
AcDbLine
62
9
6
CONTINUOUS
10
34.6651562633
20
21.6368744243
11
34.6635693167
21
21.5379758547
0
LINE
5
4C7
100
AcDbEntity
8
0
100
AcDbLine
62
9
6
CONTINUOUS
10
35.4619510946
20
20.7919666188
11
35.4606223013
21
20.7183314074
0
LINE
5
4C8
100
AcDbEntity
8
0
100
AcDbLine
62
9
6
CONTINUOUS
10
33.6805579752
20
-4.2470774318
11
33.6812408036
21
-4.2109719842
0
LINE
5
4C9
100
AcDbEntity
8
0
100
AcDbLine
62
9
6
CONTINUOUS
10
34.6662248299
20
21.6847836727
11
34.6651562633
21
21.6368744243
0
LINE
5
4CA
100
AcDbEntity
8
0
100
AcDbLine
62
9
6
CONTINUOUS
10
35.4629354612
20
20.8341363157
11
35.4619510946
21
20.7919666188
0
LINE
5
4CB
100
AcDbEntity
8
0
100
AcDbLine
62
9
6
CONTINUOUS
10
34.6667518622
20
21.7034933650
11
34.6662248299
21
21.6847836727
0
LINE
5
4CC
100
AcDbEntity
8
0
100
AcDbLine
62
9
6
CONTINUOUS
10
35.4639689849
20
20.8699129073
11
35.4629354612
21
20.8341363157
0
LINE
5
4CD
100
AcDbEntity
8
0
100
AcDbLine
62
9
6
CONTINUOUS
10
33.4805099238
20
-4.2308313758
11
33.4812484190
21
-4.2081624101
0
LINE
5
4CE
100
AcDbEntity
8
0
100
AcDbLine
62
9
6
CONTINUOUS
10
34.6672708001
20
21.7188961063
11
34.6667518622
21
21.7034933650
0
LINE
5
4CF
100
AcDbEntity
8
0
100
AcDbLine
62
9
6
CONTINUOUS
10
35.4650340595
20
20.8990365230
11
35.4639689849
21
20.8699129073
0
LINE
5
4D0
100
AcDbEntity
8
0
100
AcDbLine
62
9
6
CONTINUOUS
10
34.6677820063
20
21.7311907638
11
34.6672708001
21
21.7188961063
0
LINE
5
4D1
100
AcDbEntity
8
0
100
AcDbLine
62
9
6
CONTINUOUS
10
33.1197100844
20
-4.1000302649
11
33.1195161125
21
-4.1044101114
0
LINE
5
4D2
100
AcDbEntity
8
0
100
AcDbLine
62
9
6
CONTINUOUS
10
35.4655678960
20
20.9110293841
11
35.4650340595
21
20.8990365230
0
LINE
5
4D3
100
AcDbEntity
8
0
100
AcDbLine
62
9
6
CONTINUOUS
10
35.4661026996
20
20.9213483377
11
35.4655678960
21
20.9110293841
0
LINE
5
4D4
100
AcDbEntity
8
0
100
AcDbLine
62
9
6
CONTINUOUS
10
34.6682778756
20
21.7405167077
11
34.6677820063
21
21.7311907638
0
LINE
5
4D5
100
AcDbEntity
8
0
100
AcDbLine
62
9
6
CONTINUOUS
10
35.4666297752
20
20.9301323817
11
35.4661026996
21
20.9213483377
0
LINE
5
4D6
100
AcDbEntity
8
0
100
AcDbLine
62
9
6
CONTINUOUS
10
35.4671487630
20
20.9373366089
11
35.4666297752
21
20.9301323817
0
LINE
5
4D7
100
AcDbEntity
8
0
100
AcDbLine
62
9
6
CONTINUOUS
10
34.6687558728
20
21.7471163817
11
34.6682778756
21
21.7405167077
0
LINE
5
4D8
100
AcDbEntity
8
0
100
AcDbLine
62
9
6
CONTINUOUS
10
13.4721261547
20
-20.9323286322
11
13.4726235909
21
-20.9258118067
0
LINE
5
4D9
100
AcDbEntity
8
0
100
AcDbLine
62
9
6
CONTINUOUS
10
14.2705990512
20
-21.7410519557
11
14.2710480771
21
-21.7352195663
0
LINE
5
4DA
100
AcDbEntity
8
0
100
AcDbLine
62
9
6
CONTINUOUS
10
23.1705156919
20
-12.9553996891
11
23.1783763937
21
-12.8532552330
0
LINE
5
4DB
100
AcDbEntity
8
0
100
AcDbLine
62
9
6
CONTINUOUS
10
25.7688599708
20
-13.0477426326
11
25.7608926363
21
-13.1499462569
0
LINE
5
4DC
100
AcDbEntity
8
0
100
AcDbLine
62
9
6
CONTINUOUS
10
13.4698761562
20
20.9533450235
11
13.4820657006
21
21.0922157550
0
LINE
5
4DD
100
AcDbEntity
8
0
100
AcDbLine
62
9
6
CONTINUOUS
10
13.4716391625
20
-20.9373992884
11
13.4721261547
21
-20.9323286322
0
LINE
5
4DE
100
AcDbEntity
8
0
100
AcDbLine
62
9
6
CONTINUOUS
10
15.4612450321
20
4.2611614632
11
15.4589102450
21
4.2376098786
0
LINE
5
4DF
100
AcDbEntity
8
0
100
AcDbLine
62
9
6
CONTINUOUS
10
15.2626378244
20
4.2908689872
11
15.2588621936
21
4.2538559346
0
LINE
5
4E0
100
AcDbEntity
8
0
100
AcDbLine
62
0
6
CONTINUOUS
10
15.4764142640
20
4.2670021659
11
15.4697100844
21
4.2034025783
0
LINE
5
4E1
100
AcDbEntity
8
0
100
AcDbLine
62
9
6
CONTINUOUS
10
14.2701677963
20
-21.7447075489
11
14.2705990512
21
-21.7410519557
0
LINE
5
4E2
100
AcDbEntity
8
0
100
AcDbLine
62
9
6
CONTINUOUS
10
13.4711699345
20
-20.9413279845
11
13.4716391625
21
-20.9373992884
0
LINE
5
4E3
100
AcDbEntity
8
0
100
AcDbLine
62
9
6
CONTINUOUS
10
15.8199040563
20
4.1111886142
11
15.8204655498
21
4.1154819760
0
LINE
5
4E4
100
AcDbEntity
8
0
100
AcDbLine
62
9
6
CONTINUOUS
10
-17.9092125436
20
20.4034429552
11
-17.9146560590
21
20.3763439172
0
LINE
5
4E5
100
AcDbEntity
8
0
100
AcDbLine
62
9
6
CONTINUOUS
10
-17.9025451940
20
20.4314513246
11
-17.9092125436
21
20.4034429552
0
LINE
5
4E6
100
AcDbEntity
8
0
100
AcDbLine
62
0
6
CONTINUOUS
10
35.5697100844
20
-21.0467325925
11
35.5618176917
21
-21.1541893858
0
LINE
5
4E7
100
AcDbEntity
8
0
100
AcDbLine
62
9
6
CONTINUOUS
10
35.4695440126
20
-20.9465665206
11
35.4573544682
21
-21.0854372522
0
LINE
5
4E8
100
AcDbEntity
8
0
100
AcDbLine
62
9
6
CONTINUOUS
10
35.4676600228
20
20.9430059265
11
35.4671487630
21
20.9373366089
0
LINE
5
4E9
100
AcDbEntity
8
0
100
AcDbLine
62
9
6
CONTINUOUS
10
33.4781751367
20
-4.2543829604
11
33.4805099238
21
-4.2308313758
0
LINE
5
4EA
100
AcDbEntity
8
0
100
AcDbLine
62
9
6
CONTINUOUS
10
33.6767823444
20
-4.2840904844
11
33.6805579752
21
-4.2470774318
0
LINE
5
4EB
100
AcDbEntity
8
0
100
AcDbLine
62
0
6
CONTINUOUS
10
33.4630059048
20
-4.2602236631
11
33.4697100844
21
-4.1966240755
0
LINE
5
4EC
100
AcDbEntity
8
0
100
AcDbLine
62
9
6
CONTINUOUS
10
34.6692185331
20
21.7512691479
11
34.6687558728
21
21.7471163817
0
LINE
5
4ED
100
AcDbEntity
8
0
100
AcDbLine
62
9
6
CONTINUOUS
10
35.4681559392
20
20.9474140548
11
35.4676600228
21
20.9430059265
0
LINE
5
4EE
100
AcDbEntity
8
0
100
AcDbLine
62
9
6
CONTINUOUS
10
33.1195161125
20
-4.1044101114
11
33.1189546190
21
-4.1087034732
0
LINE
5
4EF
100
AcDbEntity
8
0
100
AcDbLine
62
9
6
CONTINUOUS
10
35.4686339737
20
20.9506522337
11
35.4681559392
21
20.9474140548
0
LINE
5
4F0
100
AcDbEntity
8
0
100
AcDbLine
62
9
6
CONTINUOUS
10
23.1783763937
20
-12.8532552330
11
23.1941644380
21
-12.7477943567
0
LINE
5
4F1
100
AcDbEntity
8
0
100
AcDbLine
62
9
6
CONTINUOUS
10
25.7608926363
20
-13.1499462569
11
25.7449845398
21
-13.2554586272
0
LINE
5
4F2
100
AcDbEntity
8
0
100
AcDbLine
62
9
6
CONTINUOUS
10
13.4707209108
20
-20.9442161234
11
13.4711699345
21
-20.9413279845
0
LINE
5
4F3
100
AcDbEntity
8
0
100
AcDbLine
62
9
6
CONTINUOUS
10
15.4653643055
20
4.2854679815
11
15.4612450321
21
4.2611614632
0
LINE
5
4F4
100
AcDbEntity
8
0
100
AcDbLine
62
9
6
CONTINUOUS
10
15.2695062575
20
4.3287896393
11
15.2626378244
21
4.2908689872
0
LINE
5
4F5
100
AcDbEntity
8
0
100
AcDbLine
62
0
6
CONTINUOUS
10
13.3776024771
20
21.1609678886
11
13.3979555201
21
21.2631495677
0
LINE
5
4F6
100
AcDbEntity
8
0
100
AcDbLine
62
9
6
CONTINUOUS
10
15.8204655498
20
4.1154819760
11
15.8213945649
21
4.1196888532
0
LINE
5
4F7
100
AcDbEntity
8
0
100
AcDbLine
62
9
6
CONTINUOUS
10
-17.8943818548
20
20.4599325969
11
-17.9025451940
21
20.4314513246
0
LINE
5
4F8
100
AcDbEntity
8
0
100
AcDbLine
62
9
6
CONTINUOUS
10
-17.8846815458
20
20.4889047497
11
-17.8943818548
21
20.4599325969
0
LINE
5
4F9
100
AcDbEntity
8
0
100
AcDbLine
62
9
6
CONTINUOUS
10
33.4740558633
20
-4.2786894787
11
33.4781751367
21
-4.2543829604
0
LINE
5
4FA
100
AcDbEntity
8
0
100
AcDbLine
62
9
6
CONTINUOUS
10
33.6699139113
20
-4.3220111365
11
33.6767823444
21
-4.2840904844
0
LINE
5
4FB
100
AcDbEntity
8
0
100
AcDbLine
62
0
6
CONTINUOUS
10
35.5618176917
20
-21.1541893858
11
35.5414646487
21
-21.2563710649
0
LINE
5
4FC
100
AcDbEntity
8
0
100
AcDbLine
62
9
6
CONTINUOUS
10
33.1189546190
20
-4.1087034732
11
33.1180256039
21
-4.1129103504
0
LINE
5
4FD
100
AcDbEntity
8
0
100
AcDbLine
62
9
6
CONTINUOUS
10
34.6696658565
20
21.7532231796
11
34.6692185331
21
21.7512691479
0
LINE
5
4FE
100
AcDbEntity
8
0
100
AcDbLine
62
9
6
CONTINUOUS
10
35.4690966649
20
20.9526292233
11
35.4686339737
21
20.9506522337
0
LINE
5
4FF
100
AcDbEntity
8
0
100
AcDbLine
62
9
6
CONTINUOUS
10
14.2697543124
20
-21.7464446768
11
14.2701677963
21
-21.7447075489
0
LINE
5
500
100
AcDbEntity
8
0
100
AcDbLine
62
9
6
CONTINUOUS
10
15.4714790715
20
4.3104662387
11
15.4653643055
21
4.2854679815
0
LINE
5
501
100
AcDbEntity
8
0
100
AcDbLine
62
9
6
CONTINUOUS
10
23.1941644380
20
-12.7477943567
11
23.2205161564
21
-12.6409931034
0
LINE
5
502
100
AcDbEntity
8
0
100
AcDbLine
62
9
6
CONTINUOUS
10
13.4702896514
20
-20.9459623021
11
13.4707209108
21
-20.9442161234
0
LINE
5
503
100
AcDbEntity
8
0
100
AcDbLine
62
9
6
CONTINUOUS
10
25.7449845398
20
-13.2554586272
11
25.7185005970
21
-13.3622956585
0
LINE
5
504
100
AcDbEntity
8
0
100
AcDbLine
62
9
6
CONTINUOUS
10
15.2793133355
20
4.3680816116
11
15.2695062575
21
4.3287896393
0
LINE
5
505
100
AcDbEntity
8
0
100
AcDbLine
62
0
6
CONTINUOUS
10
15.4920439737
20
4.3253343563
11
15.4764142640
21
4.2670021659
0
LINE
5
506
100
AcDbEntity
8
0
100
AcDbLine
62
9
6
CONTINUOUS
10
13.4820657006
20
21.0922157550
11
13.5181795077
21
21.2268686017
0
LINE
5
507
100
AcDbEntity
8
0
100
AcDbLine
62
9
6
CONTINUOUS
10
-17.8734852473
20
20.5183498055
11
-17.8846815458
21
20.4889047497
0
LINE
5
508
100
AcDbEntity
8
0
100
AcDbLine
62
9
6
CONTINUOUS
10
33.4679410973
20
-4.3036877359
11
33.4740558633
21
-4.2786894787
0
LINE
5
509
100
AcDbEntity
8
0
100
AcDbLine
62
9
6
CONTINUOUS
10
33.6601068333
20
-4.3613031088
11
33.6699139113
21
-4.3220111365
0
LINE
5
50A
100
AcDbEntity
8
0
100
AcDbLine
62
0
6
CONTINUOUS
10
33.4473761951
20
-4.3185558535
11
33.4630059048
21
-4.2602236631
0
LINE
5
50B
100
AcDbEntity
8
0
100
AcDbLine
62
9
6
CONTINUOUS
10
35.4573544682
20
-21.0854372522
11
35.4212406611
21
-21.2200900989
0
LINE
5
50C
100
AcDbEntity
8
0
100
AcDbLine
62
9
6
CONTINUOUS
10
15.8213945649
20
4.1196888532
11
15.8227035024
21
4.1238434427
0
LINE
5
50D
100
AcDbEntity
8
0
100
AcDbLine
62
9
6
CONTINUOUS
10
15.2922132158
20
4.4082811704
11
15.2793133355
21
4.3680816116
0
LINE
5
50E
100
AcDbEntity
8
0
100
AcDbLine
62
9
6
CONTINUOUS
10
15.4797545558
20
4.3358738835
11
15.4714790715
21
4.3104662387
0
LINE
5
50F
100
AcDbEntity
8
0
100
AcDbLine
62
0
6
CONTINUOUS
10
13.3979555201
20
21.2631495677
11
13.4307692135
21
21.3600561323
0
LINE
5
510
100
AcDbEntity
8
0
100
AcDbLine
62
9
6
CONTINUOUS
10
-17.8606437457
20
20.5477774029
11
-17.8734852473
21
20.5183498055
0
LINE
5
511
100
AcDbEntity
8
0
100
AcDbLine
62
9
6
CONTINUOUS
10
-17.8461027657
20
20.5771968373
11
-17.8606437457
21
20.5477774029
0
LINE
5
512
100
AcDbEntity
8
0
100
AcDbLine
62
9
6
CONTINUOUS
10
33.1180256039
20
-4.1129103504
11
33.1167166664
21
-4.1170649399
0
LINE
5
513
100
AcDbEntity
8
0
100
AcDbLine
62
9
6
CONTINUOUS
10
33.6472069530
20
-4.4015026676
11
33.6601068333
21
-4.3613031088
0
LINE
5
514
100
AcDbEntity
8
0
100
AcDbLine
62
9
6
CONTINUOUS
10
33.4596656131
20
-4.3290953807
11
33.4679410973
21
-4.3036877359
0
LINE
5
515
100
AcDbEntity
8
0
100
AcDbLine
62
0
6
CONTINUOUS
10
35.5414646487
20
-21.2563710649
11
35.5086509553
21
-21.3532776295
0
LINE
5
516
100
AcDbEntity
8
0
100
AcDbLine
62
9
6
CONTINUOUS
10
23.2205161564
20
-12.6409931034
11
23.2574354857
21
-12.5322949778
0
LINE
5
517
100
AcDbEntity
8
0
100
AcDbLine
62
9
6
CONTINUOUS
10
25.7185005970
20
-13.3622956585
11
25.6814406014
21
-13.4710098015
0
LINE
5
518
100
AcDbEntity
8
0
100
AcDbLine
62
9
6
CONTINUOUS
10
15.8227035024
20
4.1238434427
11
15.8243799616
21
4.1279115475
0
LINE
5
519
100
AcDbEntity
8
0
100
AcDbLine
62
9
6
CONTINUOUS
10
15.4902362132
20
4.3612107602
11
15.4797545558
21
4.3358738835
0
LINE
5
51A
100
AcDbEntity
8
0
100
AcDbLine
62
9
6
CONTINUOUS
10
15.3086683714
20
4.4479971370
11
15.2922132158
21
4.4082811704
0
LINE
5
51B
100
AcDbEntity
8
0
100
AcDbLine
62
0
6
CONTINUOUS
10
15.5165992136
20
4.3783991495
11
15.4920439737
21
4.3253343563
0
LINE
5
51C
100
AcDbEntity
8
0
100
AcDbLine
62
9
6
CONTINUOUS
10
13.5181795077
20
21.2268686017
11
13.5771207021
21
21.3532137875
0
LINE
5
51D
100
AcDbEntity
8
0
100
AcDbLine
62
0
6
CONTINUOUS
10
13.4307692135
20
21.3600561323
11
13.4770169582
21
21.4531093603
0
LINE
5
51E
100
AcDbEntity
8
0
100
AcDbLine
62
9
6
CONTINUOUS
10
-17.8299165826
20
20.6065988133
11
-17.8461027657
21
20.5771968373
0
LINE
5
51F
100
AcDbEntity
8
0
100
AcDbLine
62
9
6
CONTINUOUS
10
33.1167166664
20
-4.1170649399
11
33.1150402072
21
-4.1211330447
0
LINE
5
520
100
AcDbEntity
8
0
100
AcDbLine
62
9
6
CONTINUOUS
10
33.4491839556
20
-4.3544322574
11
33.4596656131
21
-4.3290953807
0
LINE
5
521
100
AcDbEntity
8
0
100
AcDbLine
62
9
6
CONTINUOUS
10
33.6307517974
20
-4.4412186342
11
33.6472069530
21
-4.4015026676
0
LINE
5
522
100
AcDbEntity
8
0
100
AcDbLine
62
9
6
CONTINUOUS
10
23.2574354857
20
-12.5322949778
11
23.3049184891
21
-12.4222563644
0
LINE
5
523
100
AcDbEntity
8
0
100
AcDbLine
62
9
6
CONTINUOUS
10
25.6814406014
20
-13.4710098015
11
25.6338047595
21
-13.5810484322
0
LINE
5
524
100
AcDbEntity
8
0
100
AcDbLine
62
0
6
CONTINUOUS
10
33.4228209552
20
-4.3716206467
11
33.4473761951
21
-4.3185558535
0
LINE
5
525
100
AcDbEntity
8
0
100
AcDbLine
62
9
6
CONTINUOUS
10
15.5030623021
20
4.3863497980
11
15.4902362132
21
4.3612107602
0
LINE
5
526
100
AcDbEntity
8
0
100
AcDbLine
62
9
6
CONTINUOUS
10
15.3290255241
20
4.4873481516
11
15.3086683714
21
4.4479971370
0
LINE
5
527
100
AcDbEntity
8
0
100
AcDbLine
62
9
6
CONTINUOUS
10
15.8243799616
20
4.1279115475
11
15.8263867401
21
4.1317905775
0
LINE
5
528
100
AcDbEntity
8
0
100
AcDbLine
62
9
6
CONTINUOUS
10
-17.8120988091
20
20.6354650831
11
-17.8299165826
21
20.6065988133
0
LINE
5
529
100
AcDbEntity
8
0
100
AcDbLine
62
9
6
CONTINUOUS
10
-17.7925877959
20
20.6637862217
11
-17.8120988091
21
20.6354650831
0
LINE
5
52A
100
AcDbEntity
8
0
100
AcDbLine
62
9
6
CONTINUOUS
10
35.4212406611
20
-21.2200900989
11
35.3622994667
21
-21.3464352847
0
LINE
5
52B
100
AcDbEntity
8
0
100
AcDbLine
62
0
6
CONTINUOUS
10
35.5086509553
20
-21.3532776295
11
35.4624032106
21
-21.4463308575
0
LINE
5
52C
100
AcDbEntity
8
0
100
AcDbLine
62
9
6
CONTINUOUS
10
33.4363578667
20
-4.3795712952
11
33.4491839556
21
-4.3544322574
0
LINE
5
52D
100
AcDbEntity
8
0
100
AcDbLine
62
9
6
CONTINUOUS
10
33.1150402072
20
-4.1211330447
11
33.1130334287
21
-4.1250120747
0
LINE
5
52E
100
AcDbEntity
8
0
100
AcDbLine
62
9
6
CONTINUOUS
10
33.6103946447
20
-4.4805696488
11
33.6307517974
21
-4.4412186342
0
LINE
5
52F
100
AcDbEntity
8
0
100
AcDbLine
62
9
6
CONTINUOUS
10
23.3049184891
20
-12.4222563644
11
23.3655896873
21
-12.3145228820
0
LINE
5
530
100
AcDbEntity
8
0
100
AcDbLine
62
9
6
CONTINUOUS
10
25.6338047595
20
-13.5810484322
11
25.5729586061
21
-13.6887701234
0
LINE
5
531
100
AcDbEntity
8
0
100
AcDbLine
62
9
6
CONTINUOUS
10
15.3529379521
20
4.5262155778
11
15.3290255241
21
4.4873481516
0
LINE
5
532
100
AcDbEntity
8
0
100
AcDbLine
62
9
6
CONTINUOUS
10
15.5182633218
20
4.4109526217
11
15.5030623021
21
4.3863497980
0
LINE
5
533
100
AcDbEntity
8
0
100
AcDbLine
62
9
6
CONTINUOUS
10
15.8263867401
20
4.1317905775
11
15.8287316093
21
4.1354731126
0
LINE
5
534
100
AcDbEntity
8
0
100
AcDbLine
62
0
6
CONTINUOUS
10
13.4770169582
20
21.4531093603
11
13.5357253532
21
21.5408874740
0
LINE
5
535
100
AcDbEntity
8
0
100
AcDbLine
62
9
6
CONTINUOUS
10
-17.7714451923
20
20.6915716542
11
-17.7925877959
21
20.6637862217
0
LINE
5
536
100
AcDbEntity
8
0
100
AcDbLine
62
9
6
CONTINUOUS
10
33.5864822167
20
-4.5194370750
11
33.6103946447
21
-4.4805696488
0
LINE
5
537
100
AcDbEntity
8
0
100
AcDbLine
62
9
6
CONTINUOUS
10
33.4211568470
20
-4.4041741189
11
33.4363578667
21
-4.3795712952
0
LINE
5
538
100
AcDbEntity
8
0
100
AcDbLine
62
9
6
CONTINUOUS
10
35.4695440126
20
20.9533450235
11
35.4690966649
21
20.9526292233
0
LINE
5
539
100
AcDbEntity
8
0
100
AcDbLine
62
9
6
CONTINUOUS
10
33.1130334287
20
-4.1250120747
11
33.1106885595
21
-4.1286946098
0
LINE
5
53A
100
AcDbEntity
8
0
100
AcDbLine
62
9
6
CONTINUOUS
10
13.4698761562
20
-20.9465665206
11
13.4702896514
21
-20.9459623021
0
LINE
5
53B
100
AcDbEntity
8
0
100
AcDbLine
62
9
6
CONTINUOUS
10
13.5771207021
20
21.3532137875
11
13.6570990781
21
21.4674138626
0
LINE
5
53C
100
AcDbEntity
8
0
100
AcDbLine
62
0
6
CONTINUOUS
10
15.5512529478
20
4.4274107426
11
15.5165992136
21
4.3783991495
0
LINE
5
53D
100
AcDbEntity
8
0
100
AcDbLine
62
9
6
CONTINUOUS
10
15.3798279628
20
4.5628523409
11
15.3529379521
21
4.5262155778
0
LINE
5
53E
100
AcDbEntity
8
0
100
AcDbLine
62
9
6
CONTINUOUS
10
15.5355042117
20
4.4342914979
11
15.5182633218
21
4.4109526217
0
LINE
5
53F
100
AcDbEntity
8
0
100
AcDbLine
62
9
6
CONTINUOUS
10
-17.7488695590
20
20.7183314074
11
-17.7714451923
21
20.6915716542
0
LINE
5
540
100
AcDbEntity
8
0
100
AcDbLine
62
0
6
CONTINUOUS
10
35.4624032106
20
-21.4463308575
11
35.4036948156
21
-21.5341089712
0
LINE
5
541
100
AcDbEntity
8
0
100
AcDbLine
62
9
6
CONTINUOUS
10
23.3655896873
20
-12.3145228820
11
23.4399198765
21
-12.2082348164
0
LINE
5
542
100
AcDbEntity
8
0
100
AcDbLine
62
9
6
CONTINUOUS
10
35.3622994667
20
-21.3464352847
11
35.2823210907
21
-21.4606353598
0
LINE
5
543
100
AcDbEntity
8
0
100
AcDbLine
62
9
6
CONTINUOUS
10
25.5729586061
20
-13.6887701234
11
25.4983904198
21
-13.7950586111
0
LINE
5
544
100
AcDbEntity
8
0
100
AcDbLine
62
0
6
CONTINUOUS
10
33.3881672210
20
-4.4206322398
11
33.4228209552
21
-4.3716206467
0
LINE
5
545
100
AcDbEntity
8
0
100
AcDbLine
62
9
6
CONTINUOUS
10
33.5595922060
20
-4.5560738381
11
33.5864822167
21
-4.5194370750
0
LINE
5
546
100
AcDbEntity
8
0
100
AcDbLine
62
9
6
CONTINUOUS
10
33.4039159572
20
-4.4275129951
11
33.4211568470
21
-4.4041741189
0
LINE
5
547
100
AcDbEntity
8
DEFAULT_3
100
AcDbLine
62
9
6
PHANTOM
10
15.8287316093
20
4.1354731126
11
15.8314067977
21
4.1389665730
0
LINE
5
548
100
AcDbEntity
8
0
100
AcDbLine
62
0
6
CONTINUOUS
10
13.5357253532
20
21.5408874740
11
13.6039741955
21
21.6191251403
0
LINE
5
549
100
AcDbEntity
8
0
100
AcDbLine
62
9
6
CONTINUOUS
10
-17.7248040963
20
20.7440316097
11
-17.7488695590
21
20.7183314074
0
LINE
5
54A
100
AcDbEntity
8
0
100
AcDbLine
62
9
6
CONTINUOUS
10
-17.6993056039
20
20.7687061329
11
-17.7248040963
21
20.7440316097
0
LINE
5
54B
100
AcDbEntity
8
0
100
AcDbLine
62
9
6
CONTINUOUS
10
33.1106885595
20
-4.1286946098
11
33.1080133711
21
-4.1321880702
0
LINE
5
54C
100
AcDbEntity
8
0
100
AcDbLine
62
9
6
CONTINUOUS
10
23.4399198765
20
-12.2082348164
11
23.5274382607
21
-12.1042520870
0
LINE
5
54D
100
AcDbEntity
8
0
100
AcDbLine
62
9
6
CONTINUOUS
10
25.4983904198
20
-13.7950586111
11
25.4106119220
21
-13.8990303297
0
LINE
5
54E
100
AcDbEntity
8
0
100
AcDbLine
62
9
6
CONTINUOUS
10
15.5546787938
20
4.4561846158
11
15.5355042117
21
4.4342914979
0
LINE
5
54F
100
AcDbEntity
8
0
100
AcDbLine
62
9
6
CONTINUOUS
10
15.4099720289
20
4.5970293883
11
15.3798279628
21
4.5628523409
0
LINE
5
550
100
AcDbEntity
8
DEFAULT_3
100
AcDbLine
62
9
6
PHANTOM
10
15.8314067977
20
4.1389665730
11
15.8343517886
21
4.1421906290
0
LINE
5
551
100
AcDbEntity
8
0
100
AcDbLine
62
9
6
CONTINUOUS
10
13.6570990781
20
21.4674138626
11
13.7556854732
21
21.5660002577
0
LINE
5
552
100
AcDbEntity
8
0
100
AcDbLine
62
9
6
CONTINUOUS
10
-17.6727430414
20
20.7919666188
11
-17.6993056039
21
20.7687061329
0
LINE
5
553
100
AcDbEntity
8
0
100
AcDbLine
62
0
6
CONTINUOUS
10
35.4036948156
20
-21.5341089712
11
35.3354459733
21
-21.6123466375
0
LINE
5
554
100
AcDbEntity
8
0
100
AcDbLine
62
9
6
CONTINUOUS
10
33.3847413750
20
-4.4494061129
11
33.4039159572
21
-4.4275129951
0
LINE
5
555
100
AcDbEntity
8
0
100
AcDbLine
62
9
6
CONTINUOUS
10
33.5294481399
20
-4.5902508855
11
33.5595922060
21
-4.5560738381
0
LINE
5
556
100
AcDbEntity
8
0
100
AcDbLine
62
9
6
CONTINUOUS
10
33.1080133711
20
-4.1321880702
11
33.1050683802
21
-4.1354121262
0
LINE
5
557
100
AcDbEntity
8
0
100
AcDbLine
62
0
6
CONTINUOUS
10
15.5948322121
20
4.4711549385
11
15.5512529478
21
4.4274107426
0
LINE
5
558
100
AcDbEntity
8
0
100
AcDbLine
62
0
6
CONTINUOUS
10
33.3445879567
20
-4.4643764357
11
33.3881672210
21
-4.4206322398
0
LINE
5
559
100
AcDbEntity
8
0
100
AcDbLine
62
0
6
CONTINUOUS
10
15.4622922468
20
2.9533892514
11
15.4697100844
21
2.9608070890
0
LINE
5
55A
100
AcDbEntity
8
0
100
AcDbLine
62
9
6
CONTINUOUS
10
34.7698319283
20
21.8533892514
11
34.6696658565
21
21.7532231796
0
LINE
5
55B
100
AcDbEntity
8
0
100
AcDbLine
62
9
6
CONTINUOUS
10
35.5697100844
20
21.0535110953
11
35.4695440126
21
20.9533450235
0
LINE
5
55C
100
AcDbEntity
8
0
100
AcDbLine
62
9
6
CONTINUOUS
10
15.4697100844
20
-4.1966240755
11
15.4581717499
21
-4.2081624101
0
LINE
5
55D
100
AcDbEntity
8
0
100
AcDbLine
62
9
6
CONTINUOUS
10
33.4697100844
20
4.2034025783
11
33.4812484190
21
4.2149409129
0
LINE
5
55E
100
AcDbEntity
8
0
100
AcDbLine
62
9
6
CONTINUOUS
10
13.3697100844
20
-21.0467325925
11
13.4698761562
21
-20.9465665206
0
LINE
5
55F
100
AcDbEntity
8
0
100
AcDbLine
62
9
6
CONTINUOUS
10
14.1695882405
20
-21.8466107486
11
14.2697543124
21
-21.7464446768
0
LINE
5
560
100
AcDbEntity
8
0
100
AcDbLine
62
0
6
CONTINUOUS
10
33.4771279220
20
-2.9466107486
11
33.4697100844
21
-2.9540285862
0
LINE
5
561
100
AcDbEntity
8
0
100
AcDbLine
62
9
6
CONTINUOUS
10
15.5756780403
20
4.4764731004
11
15.5546787938
21
4.4561846158
0
LINE
5
562
100
AcDbEntity
8
0
100
AcDbLine
62
9
6
CONTINUOUS
10
15.4430936777
20
4.6289757965
11
15.4099720289
21
4.5970293883
0
LINE
5
563
100
AcDbEntity
8
0
100
AcDbLine
62
9
6
CONTINUOUS
10
15.8343517886
20
4.1421906290
11
15.8375733455
21
4.1451389699
0
LINE
5
564
100
AcDbEntity
8
0
100
AcDbLine
62
0
6
CONTINUOUS
10
13.6039741955
20
21.6191251403
11
13.6822118618
21
21.6873739826
0
LINE
5
565
100
AcDbEntity
8
0
100
AcDbLine
62
9
6
CONTINUOUS
10
-17.6450779148
20
20.8137584859
11
-17.6727430414
21
20.7919666188
0
LINE
5
566
100
AcDbEntity
8
0
100
AcDbLine
62
9
6
CONTINUOUS
10
35.2823210907
20
-21.4606353598
11
35.1837346956
21
-21.5592217549
0
LINE
5
567
100
AcDbEntity
8
0
100
AcDbLine
62
9
6
CONTINUOUS
10
33.3637421285
20
-4.4696945976
11
33.3847413750
21
-4.4494061129
0
LINE
5
568
100
AcDbEntity
8
0
100
AcDbLine
62
9
6
CONTINUOUS
10
33.4963264911
20
-4.6221972937
11
33.5294481399
21
-4.5902508855
0
LINE
5
569
100
AcDbEntity
8
0
100
AcDbLine
62
9
6
CONTINUOUS
10
23.5274382607
20
-12.1042520870
11
23.6293569723
21
-12.0088001843
0
LINE
5
56A
100
AcDbEntity
8
0
100
AcDbLine
62
9
6
CONTINUOUS
10
25.4106119220
20
-13.8990303297
11
25.3085238110
21
-13.9943933776
0
LINE
5
56B
100
AcDbEntity
8
0
100
AcDbLine
62
9
6
CONTINUOUS
10
33.1050683802
20
-4.1354121262
11
33.1018468233
21
-4.1383604671
0
LINE
5
56C
100
AcDbEntity
8
0
100
AcDbLine
62
9
6
CONTINUOUS
10
15.4777857992
20
4.6576316983
11
15.4430936777
21
4.6289757965
0
LINE
5
56D
100
AcDbEntity
8
0
100
AcDbLine
62
9
6
CONTINUOUS
10
15.5979143837
20
4.4946550666
11
15.5756780403
21
4.4764731004
0
LINE
5
56E
100
AcDbEntity
8
0
100
AcDbLine
62
9
6
CONTINUOUS
10
-17.6163487182
20
20.8341363157
11
-17.6450779148
21
20.8137584859
0
LINE
5
56F
100
AcDbEntity
8
0
100
AcDbLine
62
9
6
CONTINUOUS
10
13.7556854732
20
21.5660002577
11
13.8698855483
21
21.6459786337
0
LINE
5
570
100
AcDbEntity
8
0
100
AcDbLine
62
9
6
CONTINUOUS
10
-17.5870398939
20
20.8528754957
11
-17.6163487182
21
20.8341363157
0
LINE
5
571
100
AcDbEntity
8
0
100
AcDbLine
62
0
6
CONTINUOUS
10
35.3354459733
20
-21.6123466375
11
35.2572083070
21
-21.6805954798
0
LINE
5
572
100
AcDbEntity
8
0
100
AcDbLine
62
9
6
CONTINUOUS
10
33.4616343696
20
-4.6508531955
11
33.4963264911
21
-4.6221972937
0
LINE
5
573
100
AcDbEntity
8
0
100
AcDbLine
62
9
6
CONTINUOUS
10
33.3415057851
20
-4.4878765638
11
33.3637421285
21
-4.4696945976
0
LINE
5
574
100
AcDbEntity
8
0
100
AcDbLine
62
9
6
CONTINUOUS
10
15.8375733455
20
4.1451389699
11
15.8410647048
21
4.1478179067
0
LINE
5
575
100
AcDbEntity
8
0
100
AcDbLine
62
9
6
CONTINUOUS
10
33.1018468233
20
-4.1383604671
11
33.0983554640
21
-4.1410394039
0
LINE
5
576
100
AcDbEntity
8
0
100
AcDbLine
62
0
6
CONTINUOUS
10
15.6438181145
20
4.5059891464
11
15.5948322121
21
4.4711549385
0
LINE
5
577
100
AcDbEntity
8
0
100
AcDbLine
62
9
6
CONTINUOUS
10
15.6210998749
20
4.5106581090
11
15.5979143837
21
4.4946550666
0
LINE
5
578
100
AcDbEntity
8
0
100
AcDbLine
62
9
6
CONTINUOUS
10
15.5140721279
20
4.6826634358
11
15.4777857992
21
4.6576316983
0
LINE
5
579
100
AcDbEntity
8
0
100
AcDbLine
62
0
6
CONTINUOUS
10
13.6822118618
20
21.6873739826
11
13.7699899755
21
21.7460823776
0
LINE
5
57A
100
AcDbEntity
8
0
100
AcDbLine
62
9
6
CONTINUOUS
10
13.4818533102
20
20.3009392203
11
13.4961303434
21
20.3102613558
0
LINE
5
57B
100
AcDbEntity
8
0
100
AcDbLine
62
9
6
CONTINUOUS
10
-17.5571381835
20
20.8699129073
11
-17.5870398939
21
20.8528754957
0
LINE
5
57C
100
AcDbEntity
8
0
100
AcDbLine
62
9
6
CONTINUOUS
10
23.6293569723
20
-12.0088001843
11
23.7488945110
21
-11.9212580967
0
LINE
5
57D
100
AcDbEntity
8
0
100
AcDbLine
62
9
6
CONTINUOUS
10
25.3085238110
20
-13.9943933776
11
25.1889294523
21
-14.0817118946
0
LINE
5
57E
100
AcDbEntity
8
0
100
AcDbLine
62
0
6
CONTINUOUS
10
33.2956020543
20
-4.4992106436
11
33.3445879567
21
-4.4643764357
0
LINE
5
57F
100
AcDbEntity
8
0
100
AcDbLine
62
9
6
CONTINUOUS
10
33.3183202939
20
-4.5038796062
11
33.3415057851
21
-4.4878765638
0
LINE
5
580
100
AcDbEntity
8
0
100
AcDbLine
62
9
6
CONTINUOUS
10
33.4253480410
20
-4.6758849330
11
33.4616343696
21
-4.6508531955
0
LINE
5
581
100
AcDbEntity
8
0
100
AcDbLine
62
9
6
CONTINUOUS
10
15.8410647048
20
4.1478179067
11
15.8447450590
21
4.1501660419
0
LINE
5
582
100
AcDbEntity
8
0
100
AcDbLine
62
9
6
CONTINUOUS
10
33.0983554640
20
-4.1410394039
11
33.0946751098
21
-4.1433875391
0
LINE
5
583
100
AcDbEntity
8
0
100
AcDbLine
62
9
6
CONTINUOUS
10
15.6450756803
20
4.5245232722
11
15.6210998749
21
4.5106581090
0
LINE
5
584
100
AcDbEntity
8
0
100
AcDbLine
62
9
6
CONTINUOUS
10
15.5519289292
20
4.7044046948
11
15.5140721279
21
4.6826634358
0
LINE
5
585
100
AcDbEntity
8
0
100
AcDbLine
62
9
6
CONTINUOUS
10
-17.5266568454
20
20.8853116689
11
-17.5571381835
21
20.8699129073
0
LINE
5
586
100
AcDbEntity
8
0
100
AcDbLine
62
0
6
CONTINUOUS
10
13.7699899755
20
21.7460823776
11
13.8630432035
21
21.7923301223
0
LINE
5
587
100
AcDbEntity
8
0
100
AcDbLine
62
9
6
CONTINUOUS
10
-17.4961200971
20
20.8990365230
11
-17.5266568454
21
20.8853116689
0
LINE
5
588
100
AcDbEntity
8
0
100
AcDbLine
62
9
6
CONTINUOUS
10
35.1837346956
20
-21.5592217549
11
35.0695346205
21
-21.6392001309
0
LINE
5
589
100
AcDbEntity
8
0
100
AcDbLine
62
0
6
CONTINUOUS
10
35.2572083070
20
-21.6805954798
11
35.1694301933
21
-21.7393038748
0
LINE
5
58A
100
AcDbEntity
8
0
100
AcDbLine
62
9
6
CONTINUOUS
10
35.4575668586
20
-20.2941607175
11
35.4432898459
21
-20.3034828561
0
LINE
5
58B
100
AcDbEntity
8
0
100
AcDbLine
62
9
6
CONTINUOUS
10
23.7488945110
20
-11.9212580967
11
23.8828323770
21
-11.8422474642
0
LINE
5
58C
100
AcDbEntity
8
0
100
AcDbLine
62
9
6
CONTINUOUS
10
25.1889294523
20
-14.0817118946
11
25.0550254805
21
-14.1604224426
0
LINE
5
58D
100
AcDbEntity
8
0
100
AcDbLine
62
9
6
CONTINUOUS
10
33.2943444885
20
-4.5177447694
11
33.3183202939
21
-4.5038796062
0
LINE
5
58E
100
AcDbEntity
8
0
100
AcDbLine
62
9
6
CONTINUOUS
10
33.3874912396
20
-4.6976261920
11
33.4253480410
21
-4.6758849330
0
LINE
5
58F
100
AcDbEntity
8
0
100
AcDbLine
62
9
6
CONTINUOUS
10
15.8447450590
20
4.1501660419
11
15.8486217084
21
4.1521753082
0
LINE
5
590
100
AcDbEntity
8
0
100
AcDbLine
62
9
6
CONTINUOUS
10
15.5898778897
20
4.7227966270
11
15.5519289292
21
4.7044046948
0
LINE
5
591
100
AcDbEntity
8
0
100
AcDbLine
62
9
6
CONTINUOUS
10
15.6693180625
20
4.5361246661
11
15.6450756803
21
4.5245232722
0
LINE
5
592
100
AcDbEntity
8
0
100
AcDbLine
62
9
6
CONTINUOUS
10
13.8698855483
20
21.6459786337
11
13.9962307341
21
21.7049198281
0
LINE
5
593
100
AcDbEntity
8
0
100
AcDbLine
62
9
6
CONTINUOUS
10
-17.4655366295
20
20.9110293841
11
-17.4961200971
21
20.8990365230
0
LINE
5
594
100
AcDbEntity
8
0
100
AcDbLine
62
9
6
CONTINUOUS
10
33.0946751098
20
-4.1433875391
11
33.0907984604
21
-4.1453968054
0
LINE
5
595
100
AcDbEntity
8
0
100
AcDbLine
62
9
6
CONTINUOUS
10
33.3495422791
20
-4.7160181242
11
33.3874912396
21
-4.6976261920
0
LINE
5
596
100
AcDbEntity
8
0
100
AcDbLine
62
9
6
CONTINUOUS
10
33.2701021063
20
-4.5293461633
11
33.2943444885
21
-4.5177447694
0
LINE
5
597
100
AcDbEntity
8
0
100
AcDbLine
62
0
6
CONTINUOUS
10
15.6970376908
20
4.5306991694
11
15.6438181145
21
4.5059891464
0
LINE
5
598
100
AcDbEntity
8
0
100
AcDbLine
62
0
6
CONTINUOUS
10
33.2423824780
20
-4.5239206666
11
33.2956020543
21
-4.4992106436
0
LINE
5
599
100
AcDbEntity
8
0
100
AcDbLine
62
9
6
CONTINUOUS
10
23.8828323770
20
-11.8422474642
11
24.0227272041
21
-11.7798582133
0
LINE
5
59A
100
AcDbEntity
8
0
100
AcDbLine
62
9
6
CONTINUOUS
10
15.8486217084
20
4.1521753082
11
15.8526873527
21
4.1538537732
0
LINE
5
59B
100
AcDbEntity
8
0
100
AcDbLine
62
9
6
CONTINUOUS
10
15.6277343909
20
4.7376222330
11
15.5898778897
21
4.7227966270
0
LINE
5
59C
100
AcDbEntity
8
0
100
AcDbLine
62
9
6
CONTINUOUS
10
15.6935112737
20
4.5455326161
11
15.6693180625
21
4.5361246661
0
LINE
5
59D
100
AcDbEntity
8
0
100
AcDbLine
62
0
6
CONTINUOUS
10
13.8630432035
20
21.7923301223
11
13.9599497681
21
21.8251438157
0
LINE
5
59E
100
AcDbEntity
8
0
100
AcDbLine
62
9
6
CONTINUOUS
10
-17.4348977518
20
20.9213483377
11
-17.4655366295
21
20.9110293841
0
LINE
5
59F
100
AcDbEntity
8
0
100
AcDbLine
62
9
6
CONTINUOUS
10
-17.4047016086
20
20.9301323817
11
-17.4348977518
21
20.9213483377
0
LINE
5
5A0
100
AcDbEntity
8
0
100
AcDbLine
62
0
6
CONTINUOUS
10
35.1694301933
20
-21.7393038748
11
35.0763769653
21
-21.7855516195
0
LINE
5
5A1
100
AcDbEntity
8
0
100
AcDbLine
62
9
6
CONTINUOUS
10
35.0695346205
20
-21.6392001309
11
34.9431894347
21
-21.6981413253
0
LINE
5
5A2
100
AcDbEntity
8
0
100
AcDbLine
62
9
6
CONTINUOUS
10
25.0550254805
20
-14.1604224426
11
24.9153024976
21
-14.2225422994
0
LINE
5
5A3
100
AcDbEntity
8
0
100
AcDbLine
62
9
6
CONTINUOUS
10
33.0907984604
20
-4.1453968054
11
33.0867328161
21
-4.1470752704
0
LINE
5
5A4
100
AcDbEntity
8
0
100
AcDbLine
62
9
6
CONTINUOUS
10
33.3116857779
20
-4.7308437302
11
33.3495422791
21
-4.7160181242
0
LINE
5
5A5
100
AcDbEntity
8
0
100
AcDbLine
62
9
6
CONTINUOUS
10
33.2459088951
20
-4.5387541132
11
33.2701021063
21
-4.5293461633
0
LINE
5
5A6
100
AcDbEntity
8
0
100
AcDbLine
62
9
6
CONTINUOUS
10
15.8526873527
20
4.1538537732
11
15.8568392833
21
4.1551642413
0
LINE
5
5A7
100
AcDbEntity
8
0
100
AcDbLine
62
9
6
CONTINUOUS
10
15.7175412133
20
4.5529102286
11
15.6935112737
21
4.5455326161
0
LINE
5
5A8
100
AcDbEntity
8
0
100
AcDbLine
62
9
6
CONTINUOUS
10
15.6656830513
20
4.7490985300
11
15.6277343909
21
4.7376222330
0
LINE
5
5A9
100
AcDbEntity
8
0
100
AcDbLine
62
0
6
CONTINUOUS
10
35.0763769653
20
-21.7855516195
11
34.9794704007
21
-21.8183653129
0
LINE
5
5AA
100
AcDbEntity
8
0
100
AcDbLine
62
9
6
CONTINUOUS
10
33.0867328161
20
-4.1470752704
11
33.0825808855
21
-4.1483857385
0
LINE
5
5AB
100
AcDbEntity
8
0
100
AcDbLine
62
9
6
CONTINUOUS
10
33.2218789555
20
-4.5461317257
11
33.2459088951
21
-4.5387541132
0
LINE
5
5AC
100
AcDbEntity
8
0
100
AcDbLine
62
9
6
CONTINUOUS
10
33.2737371175
20
-4.7423200272
11
33.3116857779
21
-4.7308437302
0
LINE
5
5AD
100
AcDbEntity
8
0
100
AcDbLine
62
9
6
CONTINUOUS
10
24.0227272041
20
-11.7798582133
11
24.1657645366
21
-11.7367873213
0
LINE
5
5AE
100
AcDbEntity
8
0
100
AcDbLine
62
9
6
CONTINUOUS
10
24.9153024976
20
-14.2225422994
11
24.7725907043
21
-14.2654109556
0
CIRCLE
5
5AF
100
AcDbEntity
8
0
100
AcDbCircle
62
9
6
CONTINUOUS
10
24.4697100844
20
-12.9966107486
40
0.9029566839
0
ARC
5
5B0
100
AcDbEntity
8
0
100
AcDbCircle
62
9
6
CONTINUOUS
10
33.0697100844
20
4.1033892514
40
0.3000000000
100
AcDbArc
50
0.0000000000
51
90.0000000000
0
ARC
5
5B1
100
AcDbEntity
8
0
100
AcDbCircle
62
9
6
CONTINUOUS
10
33.0697100844
20
-4.0966107486
40
0.3000000000
100
AcDbArc
50
270.0000000000
51
360.0000000000
0
ARC
5
5B2
100
AcDbEntity
8
0
100
AcDbCircle
62
9
6
CONTINUOUS
10
15.8697100844
20
4.1033892514
40
0.3000000000
100
AcDbArc
50
90.0000000000
51
180.0000000000
0
ARC
5
5B3
100
AcDbEntity
8
0
100
AcDbCircle
62
9
6
CONTINUOUS
10
15.8697100844
20
-4.0966107486
40
0.3000000000
100
AcDbArc
50
180.0000000000
51
270.0000000000
0
CIRCLE
5
5B4
100
AcDbEntity
8
0
100
AcDbCircle
62
0
6
CONTINUOUS
10
24.4697100844
20
-12.9966107486
40
0.9939257687
0
CIRCLE
5
5B5
100
AcDbEntity
8
0
100
AcDbCircle
62
0
6
CONTINUOUS
10
24.4697100844
20
-12.9966107486
40
1.0000000000
0
ARC
5
5B6
100
AcDbEntity
8
0
100
AcDbCircle
62
0
6
CONTINUOUS
10
32.3697100844
20
-3.3966107486
40
1.0000000000
100
AcDbArc
50
270.0000000000
51
360.0000000000
0
ARC
5
5B7
100
AcDbEntity
8
0
100
AcDbCircle
62
0
6
CONTINUOUS
10
32.3697100844
20
3.4033892514
40
1.0000000000
100
AcDbArc
50
0.0000000000
51
90.0000000000
0
ARC
5
5B8
100
AcDbEntity
8
0
100
AcDbCircle
62
0
6
CONTINUOUS
10
16.5697100844
20
-3.3966107486
40
1.0000000000
100
AcDbArc
50
180.0000000000
51
270.0000000000
0
ARC
5
5B9
100
AcDbEntity
8
0
100
AcDbCircle
62
0
6
CONTINUOUS
10
16.5697100844
20
3.4033892514
40
1.0000000000
100
AcDbArc
50
90.0000000000
51
180.0000000000
0
CIRCLE
5
5BA
100
AcDbEntity
8
0
100
AcDbCircle
62
0
6
CONTINUOUS
10
24.4697100844
20
-12.9966107486
40
1.2000000000
0
ARC
5
5BB
100
AcDbEntity
8
0
100
AcDbCircle
62
0
6
CONTINUOUS
10
-19.2205051929
20
-4.1466088312
40
0.2500000000
100
AcDbArc
50
180.7937174793
51
234.3171846332
0
ARC
5
5BC
100
AcDbEntity
8
0
100
AcDbCircle
62
0
6
CONTINUOUS
10
280.5007653506
20
0.0033892514
40
300.0000000000
100
AcDbArc
50
179.2067219955
51
180.7932780045
0
ARC
5
5BD
100
AcDbEntity
8
0
100
AcDbCircle
62
0
6
CONTINUOUS
10
-19.2205051929
20
4.1533873340
40
0.2500000000
100
AcDbArc
50
125.6828153668
51
179.2062825207
0
ARC
5
5BE
100
AcDbEntity
8
0
100
AcDbCircle
62
0
6
CONTINUOUS
10
-19.0587931725
20
-12.1026836091
40
0.1000000000
100
AcDbArc
50
166.2926422140
51
174.8193829711
0
ARC
5
5BF
100
AcDbEntity
8
0
100
AcDbCircle
62
0
6
CONTINUOUS
10
-19.0587931725
20
-13.8905378881
40
0.1000000000
100
AcDbArc
50
185.1806170292
51
261.9827225650
0
ARC
5
5C0
100
AcDbEntity
8
0
100
AcDbCircle
62
0
6
CONTINUOUS
10
-9.1992346494
20
-12.9966107486
40
10.0000000000
100
AcDbArc
50
174.8193829706
51
185.1806170294
0
ARC
5
5C1
100
AcDbEntity
8
0
100
AcDbCircle
62
0
6
CONTINUOUS
10
-17.2115664515
20
-20.2466731340
40
1.5000000000
100
AcDbArc
50
183.8898991621
51
269.0000000000
0
ARC
5
5C2
100
AcDbEntity
8
0
100
AcDbCircle
62
0
6
CONTINUOUS
10
280.6007653506
20
0.0033892514
40
300.0000000000
100
AcDbArc
50
176.1101008379
51
183.8898991621
0
ARC
5
5C3
100
AcDbEntity
8
0
100
AcDbCircle
62
0
6
CONTINUOUS
10
-17.2115664515
20
20.2534516368
40
1.5000000000
100
AcDbArc
50
91.0000000000
51
176.1101008379
0
ENDSEC
0
SECTION
2
OBJECTS
0
DICTIONARY
5
C
100
AcDbDictionary
280
0
281
1
3
ACAD_GROUP
350
D
3
ACAD_MLINESTYLE
350
17
3
ACAD_LAYOUT
350
1A
3
ACAD_PLOTSETTINGS
350
19
3
ACAD_PLOTSTYLENAME
350
E
0
DICTIONARY
5
D
102
{ACAD_REACTORS
330
C
102
}
100
AcDbDictionary
280
0
281
1
0
ACDBDICTIONARYWDFLT
5
E
102
{ACAD_REACTORS
330
C
102
}
100
AcDbDictionary
281
1
3
Normal
350
F
100
AcDbDictionaryWithDefault
340
F
0
DICTIONARY
5
17
102
{ACAD_REACTORS
330
C
102
}
100
AcDbDictionary
280
0
281
1
3
Standard
350
18
0
DICTIONARY
5
19
102
{ACAD_REACTORS
330
C
102
}
100
AcDbDictionary
281
1
0
DICTIONARY
5
1A
102
{ACAD_REACTORS
330
C
102
}
100
AcDbDictionary
281
1
3
Layout1
350
1E
3
Model
350
22
0
ACDBPLACEHOLDER
5
F
102
{ACAD_REACTORS
330
E
102
}
0
MLINESTYLE
5
18
102
{ACAD_REACTORS
330
17
102
}
100
AcDbMlineStyle
2
STANDARD
70
0
3

62
256
51
90.0
52
90.0
71
2
49
0.5
62
256
6
BYLAYER
49
-0.5
62
256
6
BYLAYER
0
LAYOUT
5
1E
102
{ACAD_REACTORS
330
1A
102
}
100
AcDbPlotSettings
1

2

4

6

40
0.0
41
0.0
42
0.0
43
0.0
44
0.0
45
0.0
46
0.0
47
0.0
48
0.0
49
0.0
140
0.0
141
0.0
142
1.0
143
1.0
70
0
72
0
73
0
74
0
7

75
0
147
1.0
148
0.0
149
0.0
100
AcDbLayout
1
Layout1
70
0
71
0
10
0.0
20
0.0
11
0.0
21
0.0
12
0.0
22
0.0
32
0.0
14
0.0
24
0.0
34
0.0
15
0.0
25
0.0
35
0.0
146
0.0
13
0.0
23
0.0
33
0.0
16
0.0
26
0.0
36
0.0
17
0.0
27
0.0
37
0.0
76
0
330
1B
331
0
345
0
346
0
0
LAYOUT
5
22
102
{ACAD_REACTORS
330
1A
102
}
100
AcDbPlotSettings
1

2

4

6

40
0.0
41
0.0
42
0.0
43
0.0
44
0.0
45
0.0
46
0.0
47
0.0
48
0.0
49
0.0
140
0.0
141
0.0
142
1.0
143
1.0
70
0
72
0
73
0
74
0
7

75
0
147
1.0
148
0.0
149
0.0
100
AcDbLayout
1
Model
70
0
71
0
10
0.0
20
0.0
11
0.0
21
0.0
12
0.0
22
0.0
32
0.0
14
0.0
24
0.0
34
0.0
15
0.0
25
0.0
35
0.0
146
0.0
13
0.0
23
0.0
33
0.0
16
0.0
26
0.0
36
0.0
17
0.0
27
0.0
37
0.0
76
0
330
1F
331
0
345
0
346
0
0
ENDSEC
0
EOF
