0
SECTION
2
HEADER
9
$ACADVER
1
AC1014
9
$HANDSEED
5
       44C
9
$EXTMAX
10
297.0000000000
20
210.0000000000
9
$EXTMIN
10
0.0000000000
20
0.0000000000
9
$LIMMIN
10
0.0000000000
20
0.0000000000
9
$LIMMAX
10
297.0000000000
20
210.0000000000
9
$VIEWCTR
10
148.5000000000
20
105.0000000000
9
$VIEWSIZE
40
210.0000000000
9
$CLAYER
8
0
9
$LTSCALE
40
16.3350000000
9
$CELTYPE
6
BYLAYER
9
$DIMSCALE
40
1
9
$DIMASZ
40
3.0000000000
9
$DIMEXO
40
1.8562500000
9
$DIMDLI
40
11.2860000000
9
$DIMEXE
40
5.3460000000
9
$DIMCEN
40
2.6730000000
9
$DIMLFAC
40
1.0000000000
9
$DIMTXT
40
3.0000000000
9
$DIMTOL
70
1
9
$DIMLIM
70
0
9
$DIMTFAC
40
1.0000000000
9
$DIMTP
40
0.0100000000
9
$DIMTM
40
0.0100000000
9
$MEASUREMENT
70
1
0
ENDSEC
0
SECTION
2
CLASSES
0
ENDSEC
0
SECTION
2
TABLES
0
TABLE
2
VPORT
5
8
100
AcDbSymbolTable
70
2
0
VPORT
5
1F4
100
AcDbSymbolTableRecord
100
AcDbViewportTableRecord
2
*ACTIVE
70
0
10
0.0
20
0.0
11
1.0
21
1.0
12
148.5000000000
22
105.0000000000
13
0.0
23
0.0
14
1.0
24
1.0
15
0.0
25
0.0
16
0.0
26
0.0
36
1.0
17
0.0
27
0.0
37
0.0
40
210.0000000000
41
1.4142857143
42
50.0
43
0.0
44
0.0
50
0.0
51
0.0
71
0
72
100
73
1
74
1
75
0
76
0
77
0
78
0
0
ENDTAB
0
TABLE
2
LTYPE
5
5
100
AcDbSymbolTable
70
6
0
LTYPE
5
14
100
AcDbSymbolTableRecord
100
AcDbLinetypeTableRecord
2
BYBLOCK
70
0
3

72
65
73
0
40
0.0
0
LTYPE
5
15
100
AcDbSymbolTableRecord
100
AcDbLinetypeTableRecord
2
BYLAYER
70
0
3

72
65
73
0
40
0.0
0
LTYPE
5
16
100
AcDbSymbolTableRecord
100
AcDbLinetypeTableRecord
2
CONTINUOUS
70
64
3
Solid line
72
65
73
0
40
0
0
LTYPE
5
1F5
100
AcDbSymbolTableRecord
100
AcDbLinetypeTableRecord
2
CENTER
70
64
3
____ _ ____ _ ____ _ ____ _ ____ _ ____ _ ____
72
65
73
4
40
0.6
49
0.375
74
0
49
-0.075
74
0
49
0.075
74
0
49
-0.075
74
0
0
LTYPE
5
1F6
100
AcDbSymbolTableRecord
100
AcDbLinetypeTableRecord
2
HIDDEN
70
64
3
- - - - - - - - - - - - - - - - - - - -
72
65
73
2
40
0.2
49
0.1
74
0
49
-0.1
74
0
0
LTYPE
5
1F7
100
AcDbSymbolTableRecord
100
AcDbLinetypeTableRecord
2
PHANTOM
70
64
3
_____ _ _ _____ _ _ _____ _ _ _____
72
65
73
6
40
0.8
49
0.45
74
0
49
-0.05
74
0
49
0.1
74
0
49
-0.05
74
0
49
0.1
74
0
49
-0.05
74
0
0
LTYPE
5
1F8
100
AcDbSymbolTableRecord
100
AcDbLinetypeTableRecord
2
DOT
70
64
3
. . . . . . . . . . . . . . . . . . . .
72
65
73
2
40
0.2
49
0.1
74
0
49
-0.1
74
0
0
LTYPE
5
1F9
100
AcDbSymbolTableRecord
100
AcDbLinetypeTableRecord
2
DASHED
70
64
3
- - - - - - - - - - - - - - - - - - - -
72
65
73
2
40
0.2
49
0.1
74
0
49
-0.1
74
0
0
ENDTAB
0
TABLE
2
LAYER
5
2
100
AcDbSymbolTable
70
36
0
LAYER
5
10
100
AcDbSymbolTableRecord
100
AcDbLayerTableRecord
2
0
70
0
62
7
6
CONTINUOUS
0
LAYER
5
1FA
100
AcDbSymbolTableRecord
100
AcDbLayerTableRecord
2
DEFAULT_1
70
0
62
7
6
CENTER
0
LAYER
5
1FB
100
AcDbSymbolTableRecord
100
AcDbLayerTableRecord
2
DEFAULT_2
70
0
62
8
6
HIDDEN
0
LAYER
5
1FC
100
AcDbSymbolTableRecord
100
AcDbLayerTableRecord
2
DEFAULT_3
70
0
62
7
6
PHANTOM
0
LAYER
5
1FD
100
AcDbSymbolTableRecord
100
AcDbLayerTableRecord
2
ASSI
70
0
62
7
6
CONTINUOUS
0
LAYER
5
1FE
100
AcDbSymbolTableRecord
100
AcDbLayerTableRecord
2
COORDINATE
70
0
62
7
6
CONTINUOUS
0
LAYER
5
1FF
100
AcDbSymbolTableRecord
100
AcDbLayerTableRecord
2
COORD_ORIGINE
70
0
62
7
6
CONTINUOUS
0
LAYER
5
200
100
AcDbSymbolTableRecord
100
AcDbLayerTableRecord
2
COSMETICI
70
0
62
7
6
CONTINUOUS
0
LAYER
5
201
100
AcDbSymbolTableRecord
100
AcDbLayerTableRecord
2
CURVE
70
0
62
7
6
CONTINUOUS
0
LAYER
5
202
100
AcDbSymbolTableRecord
100
AcDbLayerTableRecord
2
DRAFT
70
0
62
7
6
CONTINUOUS
0
LAYER
5
203
100
AcDbSymbolTableRecord
100
AcDbLayerTableRecord
2
NOTE
70
0
62
7
6
CONTINUOUS
0
LAYER
5
204
100
AcDbSymbolTableRecord
100
AcDbLayerTableRecord
2
PIANI
70
0
62
7
6
CONTINUOUS
0
LAYER
5
205
100
AcDbSymbolTableRecord
100
AcDbLayerTableRecord
2
PIANI_ORIGINE
70
0
62
7
6
CONTINUOUS
0
LAYER
5
206
100
AcDbSymbolTableRecord
100
AcDbLayerTableRecord
2
PIANI_RIFERIMENTO
70
0
62
7
6
CONTINUOUS
0
LAYER
5
207
100
AcDbSymbolTableRecord
100
AcDbLayerTableRecord
2
PUNTI
70
0
62
7
6
CONTINUOUS
0
LAYER
5
208
100
AcDbSymbolTableRecord
100
AcDbLayerTableRecord
2
RACCORDO
70
0
62
7
6
CONTINUOUS
0
LAYER
5
209
100
AcDbSymbolTableRecord
100
AcDbLayerTableRecord
2
SMUSSO
70
0
62
7
6
CONTINUOUS
0
LAYER
5
20A
100
AcDbSymbolTableRecord
100
AcDbLayerTableRecord
2
SNAPLINE
70
0
62
7
6
CONTINUOUS
0
LAYER
5
20B
100
AcDbSymbolTableRecord
100
AcDbLayerTableRecord
2
SUPERFICI
70
0
62
7
6
CONTINUOUS
0
LAYER
5
20C
100
AcDbSymbolTableRecord
100
AcDbLayerTableRecord
2
TRASH
70
0
62
7
6
CONTINUOUS
0
ENDTAB
0
TABLE
2
STYLE
5
3
100
AcDbSymbolTable
70
1
0
STYLE
5
11
100
AcDbSymbolTableRecord
100
AcDbTextStyleTableRecord
2
STANDARD
70
0
40
0.0
41
0.8000000000
50
0.0
71
0
42
0.2
3
txt
4

0
ENDTAB
0
TABLE
2
VIEW
5
6
100
AcDbSymbolTable
70
0
0
ENDTAB
0
TABLE
2
UCS
5
7
100
AcDbSymbolTable
70
0
0
ENDTAB
0
TABLE
2
APPID
5
9
100
AcDbSymbolTable
70
1
0
APPID
5
20D
100
AcDbSymbolTableRecord
100
AcDbRegAppTableRecord
2
ACAD
70
0
0
ENDTAB
0
TABLE
2
DIMSTYLE
5
A
100
AcDbSymbolTable
70
1
0
DIMSTYLE
105
20E
100
AcDbSymbolTableRecord
100
AcDbDimStyleTableRecord
2
STANDARD
70
0
3

4

5

6

7

40
1.0
41
3.0000000000
42
0.0625
43
0.38
44
0.18
45
0.0
46
0.0
47
0.0100000000
48
0.0100000000
140
3.0000000000
141
0.09
142
0.0
143
25.4
144
1.0000000000
145
0.0
146
1.0000000000
147
0.09
71
1
72
0
73
0
74
0
75
0
76
0
77
1
78
8
170
0
171
2
172
0
173
0
174
0
175
0
176
0
177
0
178
0
270
2
271
2
272
2
273
2
274
2
340
11
275
0
280
0
281
0
282
0
283
1
284
8
285
0
286
0
287
3
288
0
0
DIMSTYLE
105
20F
100
AcDbSymbolTableRecord
100
AcDbDimStyleTableRecord
2
DIMSTYLE_1
70
0
3

4

5

6

7

40
1.0
41
3.0000000000
42
0.0625
43
0.38
44
0.18
45
0.0
46
0.0
47
0.0000000000
48
0.0000000000
140
3.0000000000
141
0.09
142
0.0
143
25.4
144
1.0000000000
145
0.0
146
1.0000000000
147
0.09
71
0
72
0
73
0
74
0
75
0
76
0
77
1
78
8
170
0
171
2
172
0
173
0
174
0
175
0
176
0
177
0
178
0
270
2
271
2
272
2
273
2
274
2
340
11
275
0
280
0
281
0
282
0
283
1
284
8
285
0
286
0
287
3
288
0
0
DIMSTYLE
105
210
100
AcDbSymbolTableRecord
100
AcDbDimStyleTableRecord
2
DIMSTYLE_2
70
0
3

4

5

6

7

40
1.0
41
3.0000000000
42
0.0625
43
0.38
44
0.18
45
0.0
46
0.0
47
0.0000000000
48
0.0000000000
140
3.0000000000
141
0.09
142
0.0
143
25.4
144
1.0000000000
145
0.0
146
1.0000000000
147
0.09
71
0
72
0
73
0
74
0
75
0
76
0
77
1
78
8
170
0
171
2
172
0
173
0
174
0
175
0
176
0
177
0
178
0
270
2
271
1
272
1
273
2
274
2
340
11
275
0
280
0
281
0
282
0
283
1
284
8
285
0
286
0
287
3
288
0
0
ENDTAB
0
TABLE
2
BLOCK_RECORD
5
1
100
AcDbSymbolTable
70
0
0
BLOCK_RECORD
5
1B
100
AcDbSymbolTableRecord
100
AcDbBlockTableRecord
2
*MODEL_SPACE
0
BLOCK_RECORD
5
1C
100
AcDbSymbolTableRecord
100
AcDbBlockTableRecord
2
*PAPER_SPACE
0
BLOCK_RECORD
5
211
100
AcDbSymbolTableRecord
100
AcDbBlockTableRecord
2
*D0
0
BLOCK_RECORD
5
212
100
AcDbSymbolTableRecord
100
AcDbBlockTableRecord
2
*D1
0
BLOCK_RECORD
5
213
100
AcDbSymbolTableRecord
100
AcDbBlockTableRecord
2
*D2
0
BLOCK_RECORD
5
214
100
AcDbSymbolTableRecord
100
AcDbBlockTableRecord
2
*D3
0
ENDTAB
0
ENDSEC
0
SECTION
2
BLOCKS
0
BLOCK
5
1E
100
AcDbEntity
8
0
100
AcDbBlockBegin
2
*MODEL_SPACE
70
0
10
0.0
20
0.0
30
0.0
3
*MODEL_SPACE
1

0
ENDBLK
5
1F
100
AcDbEntity
8
0
100
AcDbBlockEnd
0
BLOCK
5
20
100
AcDbEntity
8
0
100
AcDbBlockBegin
2
*PAPER_SPACE
70
0
10
0.0
20
0.0
30
0.0
3
*PAPER_SPACE
1

0
ENDBLK
5
21
100
AcDbEntity
8
0
100
AcDbBlockEnd
0
BLOCK
5
215
100
AcDbEntity
8
0
100
AcDbBlockBegin
62
7
6
CONTINUOUS
2
*D0
70
65
10
0.0000000000
20
0.0000000000
3
*D0
1

0
TEXT
5
216
100
AcDbEntity
8
0
100
AcDbText
62
7
6
CONTINUOUS
10
-22.2510523807
20
22.8547269440
7
STANDARD
40
3.0000000000
1
44,3
41
0.7142857143
72
0
100
AcDbText
0
LINE
5
217
100
AcDbEntity
8
0
100
AcDbLine
62
7
6
CONTINUOUS
10
5.2539594696
20
10.6384298087
11
5.2539594696
21
23.6047269440
0
LINE
5
218
100
AcDbEntity
8
0
100
AcDbLine
62
7
6
CONTINUOUS
10
-39.0460405304
20
10.6384298087
11
-39.0460405304
21
23.6047269440
0
LINE
5
219
100
AcDbEntity
8
0
100
AcDbLine
62
7
6
CONTINUOUS
10
5.2539594696
20
22.1047269440
11
-16.8960405304
21
22.1047269440
0
LINE
5
21A
100
AcDbEntity
8
0
100
AcDbLine
62
7
6
CONTINUOUS
10
-39.0460405304
20
22.1047269440
11
-16.8960405304
21
22.1047269440
0
SOLID
5
21B
100
AcDbEntity
8
0
100
AcDbTrace
62
7
6
CONTINUOUS
10
2.2539594696
20
21.1547269440
11
5.2539594696
21
22.1047269440
12
2.2539594696
22
23.0547269440
13
2.2539594696
23
23.0547269440
0
SOLID
5
21C
100
AcDbEntity
8
0
100
AcDbTrace
62
7
6
CONTINUOUS
10
-36.0460405304
20
23.0547269440
11
-39.0460405304
21
22.1047269440
12
-36.0460405304
22
21.1547269440
13
-36.0460405304
23
21.1547269440
0
ENDBLK
5
21D
100
AcDbEntity
8
0
100
AcDbBlockEnd
0
BLOCK
5
21E
100
AcDbEntity
8
0
100
AcDbBlockBegin
62
7
6
CONTINUOUS
2
*D1
70
65
10
0.0000000000
20
0.0000000000
3
*D1
1

0
TEXT
5
21F
100
AcDbEntity
8
0
100
AcDbText
62
7
6
CONTINUOUS
10
12.7539594696
20
-12.8668154447
7
STANDARD
40
3.0000000000
1
49
50
90.0000000000
41
0.7857142857
72
0
100
AcDbText
0
LINE
5
220
100
AcDbEntity
8
0
100
AcDbLine
62
7
6
CONTINUOUS
10
3.3539594696
20
14.1047269440
11
15.0039594696
21
14.1047269440
0
LINE
5
221
100
AcDbEntity
8
0
100
AcDbLine
62
7
6
CONTINUOUS
10
5.2539594696
20
-34.8952730560
11
15.0039594696
21
-34.8952730560
0
LINE
5
222
100
AcDbEntity
8
0
100
AcDbLine
62
7
6
CONTINUOUS
10
13.5039594696
20
14.1047269440
11
13.5039594696
21
-10.3952730560
0
LINE
5
223
100
AcDbEntity
8
0
100
AcDbLine
62
7
6
CONTINUOUS
10
13.5039594696
20
-34.8952730560
11
13.5039594696
21
-10.3952730560
0
SOLID
5
224
100
AcDbEntity
8
0
100
AcDbTrace
62
7
6
CONTINUOUS
10
14.4539594696
20
11.1047269440
11
13.5039594696
21
14.1047269440
12
12.5539594696
22
11.1047269440
13
12.5539594696
23
11.1047269440
0
SOLID
5
225
100
AcDbEntity
8
0
100
AcDbTrace
62
7
6
CONTINUOUS
10
12.5539594696
20
-31.8952730560
11
13.5039594696
21
-34.8952730560
12
14.4539594696
22
-31.8952730560
13
14.4539594696
23
-31.8952730560
0
ENDBLK
5
226
100
AcDbEntity
8
0
100
AcDbBlockEnd
0
BLOCK
5
227
100
AcDbEntity
8
0
100
AcDbBlockBegin
62
7
6
CONTINUOUS
2
*D2
70
65
10
0.0000000000
20
0.0000000000
3
*D2
1

0
TEXT
5
228
100
AcDbEntity
8
0
100
AcDbText
62
7
6
CONTINUOUS
10
-59.3444831671
20
22.8547269440
7
STANDARD
40
3.0000000000
1
10
41
0.6785714286
72
0
100
AcDbText
0
LINE
5
229
100
AcDbEntity
8
0
100
AcDbLine
62
7
6
CONTINUOUS
10
-53.1566423560
20
11.0047269440
11
-53.1566423560
21
23.6047269440
0
LINE
5
22A
100
AcDbEntity
8
0
100
AcDbLine
62
7
6
CONTINUOUS
10
-63.1566423560
20
11.9870433986
11
-63.1566423560
21
23.6047269440
0
LINE
5
22B
100
AcDbEntity
8
0
100
AcDbLine
62
7
6
CONTINUOUS
10
-53.1566423560
20
22.1047269440
11
-58.1566423560
21
22.1047269440
0
LINE
5
22C
100
AcDbEntity
8
0
100
AcDbLine
62
7
6
CONTINUOUS
10
-63.1566423560
20
22.1047269440
11
-58.1566423560
21
22.1047269440
0
SOLID
5
22D
100
AcDbEntity
8
0
100
AcDbTrace
62
7
6
CONTINUOUS
10
-56.1566423560
20
21.1547269440
11
-53.1566423560
21
22.1047269440
12
-56.1566423560
22
23.0547269440
13
-56.1566423560
23
23.0547269440
0
SOLID
5
22E
100
AcDbEntity
8
0
100
AcDbTrace
62
7
6
CONTINUOUS
10
-60.1566423560
20
23.0547269440
11
-63.1566423560
21
22.1047269440
12
-60.1566423560
22
21.1547269440
13
-60.1566423560
23
21.1547269440
0
ENDBLK
5
22F
100
AcDbEntity
8
0
100
AcDbBlockEnd
0
BLOCK
5
230
100
AcDbEntity
8
0
100
AcDbBlockBegin
62
7
6
CONTINUOUS
2
*D3
70
65
10
0.0000000000
20
0.0000000000
3
*D3
1

0
TEXT
5
231
100
AcDbEntity
8
0
100
AcDbText
62
7
6
CONTINUOUS
10
-68.0543008328
20
32.8547269440
7
STANDARD
40
3.0000000000
1
24,7
41
0.7321428571
72
0
100
AcDbText
0
LINE
5
232
100
AcDbEntity
8
0
100
AcDbLine
62
7
6
CONTINUOUS
10
-53.1566423560
20
9.1089673243
11
-53.1566423560
21
33.6047269440
0
LINE
5
233
100
AcDbEntity
8
0
100
AcDbLine
62
7
6
CONTINUOUS
10
-77.8662459626
20
-29.6577509842
11
-77.8662459626
21
33.6047269440
0
LINE
5
234
100
AcDbEntity
8
0
100
AcDbLine
62
7
6
CONTINUOUS
10
-53.1566423560
20
32.1047269440
11
-65.5114441593
21
32.1047269440
0
LINE
5
235
100
AcDbEntity
8
0
100
AcDbLine
62
7
6
CONTINUOUS
10
-77.8662459626
20
32.1047269440
11
-65.5114441593
21
32.1047269440
0
SOLID
5
236
100
AcDbEntity
8
0
100
AcDbTrace
62
7
6
CONTINUOUS
10
-56.1566423560
20
31.1547269440
11
-53.1566423560
21
32.1047269440
12
-56.1566423560
22
33.0547269440
13
-56.1566423560
23
33.0547269440
0
SOLID
5
237
100
AcDbEntity
8
0
100
AcDbTrace
62
7
6
CONTINUOUS
10
-74.8662459626
20
33.0547269440
11
-77.8662459626
21
32.1047269440
12
-74.8662459626
22
31.1547269440
13
-74.8662459626
23
31.1547269440
0
ENDBLK
5
238
100
AcDbEntity
8
0
100
AcDbBlockEnd
0
ENDSEC
0
SECTION
2
ENTITIES
0
DIMENSION
5
239
100
AcDbEntity
8
0
100
AcDbDimension
62
7
6
CONTINUOUS
2
*D0
10
-39.0460405304
20
22.1047269440
11
-17.9653380950
21
24.3547269440
70
160
3
DIMSTYLE_1
100
AcDbAlignedDimension
13
5.2539594696
23
10.6384298087
14
-39.0460405304
24
10.6384298087
50
180.000000
100
AcDbRotatedDimension
0
DIMENSION
5
23A
100
AcDbEntity
8
0
100
AcDbDimension
62
7
6
CONTINUOUS
2
*D1
10
13.5039594696
20
-34.8952730560
11
11.2539594696
21
-10.5096725875
70
160
3
DIMSTYLE_1
100
AcDbAlignedDimension
13
3.3539594696
23
14.1047269440
14
5.2539594696
24
-34.8952730560
50
270.000000
100
AcDbRotatedDimension
0
DIMENSION
5
23B
100
AcDbEntity
8
0
100
AcDbDimension
62
7
6
CONTINUOUS
2
*D2
10
-63.1566423560
20
22.1047269440
11
-57.3087688814
21
24.3547269440
70
160
3
DIMSTYLE_1
100
AcDbAlignedDimension
13
-53.1566423560
23
11.0047269440
14
-63.1566423560
24
11.9870433986
50
180.000000
100
AcDbRotatedDimension
0
DIMENSION
5
23C
100
AcDbEntity
8
0
100
AcDbDimension
62
7
6
CONTINUOUS
2
*D3
10
-77.8662459626
20
32.1047269440
11
-63.6614436899
21
34.3547269440
70
160
3
DIMSTYLE_2
100
AcDbAlignedDimension
13
-53.1566423560
23
9.1089673243
14
-77.8662459626
24
-29.6577509842
50
180.000000
100
AcDbRotatedDimension
0
LINE
5
23D
100
AcDbEntity
8
0
100
AcDbLine
62
7
6
CONTINUOUS
10
-39.0352753738
20
10.2682604844
11
-38.9350734648
21
10.8684041719
0
LINE
5
23E
100
AcDbEntity
8
0
100
AcDbLine
62
9
6
CONTINUOUS
10
-39.0460405304
20
10.1384298087
11
-38.9458744585
21
10.7383588556
0
LINE
5
23F
100
AcDbEntity
8
0
100
AcDbLine
62
7
6
CONTINUOUS
10
4.7539594696
20
-34.8952730560
11
2.8539594696
21
-34.8952730560
0
LINE
5
240
100
AcDbEntity
8
0
100
AcDbLine
62
7
6
CONTINUOUS
10
-14.1460405304
20
-34.8952730560
11
-16.0460405304
21
-34.8952730560
0
LINE
5
241
100
AcDbEntity
8
0
100
AcDbLine
62
9
6
CONTINUOUS
10
2.6039594696
20
-34.6452730560
11
5.0039594696
21
-34.6452730560
0
LINE
5
242
100
AcDbEntity
8
0
100
AcDbLine
62
9
6
CONTINUOUS
10
-13.8960405304
20
-34.6452730560
11
-16.2960405304
21
-34.6452730560
0
LINE
5
243
100
AcDbEntity
8
0
100
AcDbLine
62
7
6
CONTINUOUS
10
-39.0460405304
20
10.1384298087
11
-39.0460405304
21
-31.6480050468
0
LINE
5
244
100
AcDbEntity
8
0
100
AcDbLine
62
9
6
CONTINUOUS
10
2.6039594696
20
-34.2396106233
11
5.0039594696
21
-34.2396106233
0
LINE
5
245
100
AcDbEntity
8
0
100
AcDbLine
62
9
6
CONTINUOUS
10
-13.8960405304
20
-34.2396106233
11
-16.2960405304
21
-34.2396106233
0
LINE
5
246
100
AcDbEntity
8
0
100
AcDbLine
62
7
6
CONTINUOUS
10
-1.2431740837
20
-34.1952730560
11
-10.0489069771
21
-34.1952730560
0
LINE
5
247
100
AcDbEntity
8
0
100
AcDbLine
62
9
6
CONTINUOUS
10
4.7539594696
20
-34.0231042724
11
2.8539594696
21
-34.0231042724
0
LINE
5
248
100
AcDbEntity
8
0
100
AcDbLine
62
9
6
CONTINUOUS
10
-14.1460405304
20
-34.0231042724
11
-16.0460405304
21
-34.0231042724
0
LINE
5
249
100
AcDbEntity
8
0
100
AcDbLine
62
9
6
CONTINUOUS
10
-16.0460405304
20
-33.5900915705
11
-14.1460405304
21
-33.5900915705
0
LINE
5
24A
100
AcDbEntity
8
0
100
AcDbLine
62
9
6
CONTINUOUS
10
2.8539594696
20
-33.5900915705
11
4.7539594696
21
-33.5900915705
0
LINE
5
24B
100
AcDbEntity
8
0
100
AcDbLine
62
9
6
CONTINUOUS
10
2.6039594696
20
-33.3735852195
11
5.0039594696
21
-33.3735852195
0
LINE
5
24C
100
AcDbEntity
8
0
100
AcDbLine
62
9
6
CONTINUOUS
10
-13.8960405304
20
-33.3735852195
11
-16.2960405304
21
-33.3735852195
0
LINE
5
24D
100
AcDbEntity
8
0
100
AcDbLine
62
9
6
CONTINUOUS
10
4.7539594696
20
-33.0249771320
11
2.8539594696
21
-33.0249771320
0
LINE
5
24E
100
AcDbEntity
8
0
100
AcDbLine
62
9
6
CONTINUOUS
10
-14.1460405304
20
-33.0249771320
11
-16.0460405304
21
-33.0249771320
0
LINE
5
24F
100
AcDbEntity
8
0
100
AcDbLine
62
7
6
CONTINUOUS
10
-16.2434468551
20
-32.8301831859
11
4.9513657944
21
-32.8301831859
0
LINE
5
250
100
AcDbEntity
8
0
100
AcDbLine
62
7
6
CONTINUOUS
10
-38.2461623742
20
-32.4419210324
11
4.4540813135
21
-32.4419210324
0
LINE
5
251
100
AcDbEntity
8
0
100
AcDbLine
62
7
6
CONTINUOUS
10
4.9097956021
20
-32.3000830206
11
5.4515942749
21
-32.3000830206
0
LINE
5
252
100
AcDbEntity
8
0
100
AcDbLine
62
7
6
CONTINUOUS
10
5.0079935812
20
-32.2202730560
11
5.4629400671
21
-32.2202730560
0
LINE
5
253
100
AcDbEntity
8
0
100
AcDbLine
62
9
6
CONTINUOUS
10
4.3539152417
20
-31.6431530873
11
-38.1459963024
21
-31.6431530873
0
LINE
5
254
100
AcDbEntity
8
0
100
AcDbLine
62
7
6
CONTINUOUS
10
5.2539594696
20
-30.3489218045
11
5.4629400671
21
-30.3489218045
0
LINE
5
255
100
AcDbEntity
8
0
100
AcDbLine
62
9
6
CONTINUOUS
10
4.3419380877
20
-30.0763687136
11
-38.1340191484
21
-30.0763687136
0
LINE
5
256
100
AcDbEntity
8
0
100
AcDbLine
62
7
6
CONTINUOUS
10
-34.1460405304
20
-20.2320347999
11
-34.1460405304
21
-23.7274982796
0
LINE
5
257
100
AcDbEntity
8
0
100
AcDbLine
62
9
6
CONTINUOUS
10
-38.9458744585
20
-30.8492371017
11
-39.0460405304
21
-31.6480050468
0
LINE
5
258
100
AcDbEntity
8
0
100
AcDbLine
62
9
6
CONTINUOUS
10
-38.1459963024
20
-31.6431530873
11
-38.2461623742
21
-32.4419210324
0
LINE
5
259
100
AcDbEntity
8
0
100
AcDbLine
62
9
6
CONTINUOUS
10
-33.9460405304
20
-20.2076609312
11
-33.9460405304
21
-23.6815724620
0
LINE
5
25A
100
AcDbEntity
8
0
100
AcDbLine
62
9
6
CONTINUOUS
10
-33.6460405304
20
-19.9098970857
11
-33.6460405319
21
-19.7342709544
0
LINE
5
25B
100
AcDbEntity
8
0
100
AcDbLine
62
9
6
CONTINUOUS
10
-33.6460405304
20
-23.9793363074
11
-33.6460405304
21
-24.2266690241
0
LINE
5
25C
100
AcDbEntity
8
0
100
AcDbLine
62
7
6
CONTINUOUS
10
-16.6597571041
20
11.8645350697
11
-16.6558989270
21
11.8697277771
0
LINE
5
25D
100
AcDbEntity
8
0
100
AcDbLine
62
7
6
CONTINUOUS
10
-16.6757719967
20
11.8429358916
11
-16.6740818431
21
11.8452049644
0
LINE
5
25E
100
AcDbEntity
8
0
100
AcDbLine
62
7
6
CONTINUOUS
10
-33.6460405304
20
-24.2266690241
11
-22.6460405304
21
-24.2266690241
0
LINE
5
25F
100
AcDbEntity
8
0
100
AcDbLine
62
9
6
CONTINUOUS
10
-33.6460405304
20
-24.2022194065
11
-22.6460405304
21
-24.2022194065
0
LINE
5
260
100
AcDbEntity
8
0
100
AcDbLine
62
9
6
CONTINUOUS
10
-33.6460405304
20
-23.9793363074
11
-22.6460405304
21
-23.9793363074
0
LINE
5
261
100
AcDbEntity
8
0
100
AcDbLine
62
7
6
CONTINUOUS
10
-16.6740820634
20
-32.6357521302
11
-16.6757465992
21
-32.6335176369
0
LINE
5
262
100
AcDbEntity
8
0
100
AcDbLine
62
7
6
CONTINUOUS
10
-16.6552681889
20
-32.6611095910
11
-16.6597571039
21
-32.6550811821
0
LINE
5
263
100
AcDbEntity
8
0
100
AcDbLine
62
9
6
CONTINUOUS
10
-22.6460405304
20
-19.9098970857
11
-33.6460405304
21
-19.9098970857
0
LINE
5
264
100
AcDbEntity
8
0
100
AcDbLine
62
7
6
CONTINUOUS
10
-22.6460405304
20
-19.7342709544
11
-33.6460405316
21
-19.7342709544
0
LINE
5
265
100
AcDbEntity
8
0
100
AcDbLine
62
9
6
CONTINUOUS
10
-22.6460405304
20
-19.9098970857
11
-22.6460405304
21
-19.7342709544
0
LINE
5
266
100
AcDbEntity
8
0
100
AcDbLine
62
9
6
CONTINUOUS
10
-22.6460405304
20
-23.9793363074
11
-22.6460405304
21
-24.2266690241
0
LINE
5
267
100
AcDbEntity
8
0
100
AcDbLine
62
9
6
CONTINUOUS
10
-22.3460405304
20
-23.6815724620
11
-22.3460405304
21
-20.2076609312
0
LINE
5
268
100
AcDbEntity
8
0
100
AcDbLine
62
7
6
CONTINUOUS
10
-22.1460405304
20
-23.7274982796
11
-22.1460405304
21
-20.2320347999
0
LINE
5
269
100
AcDbEntity
8
0
100
AcDbLine
62
7
6
CONTINUOUS
10
5.2539594696
20
-10.3952730560
11
5.4201751580
21
-10.3952730560
0
LINE
5
26A
100
AcDbEntity
8
0
100
AcDbLine
62
7
6
CONTINUOUS
10
-16.2960405304
20
-33.0171223528
11
-16.2960405304
21
-34.6452730560
0
LINE
5
26B
100
AcDbEntity
8
0
100
AcDbLine
62
7
6
CONTINUOUS
10
-16.2960405304
20
12.2265762408
11
-16.2960405304
21
13.8547269440
0
LINE
5
26C
100
AcDbEntity
8
0
100
AcDbLine
62
9
6
CONTINUOUS
10
-16.0460405301
20
12.0396370739
11
-16.0460405304
21
14.1047269440
0
LINE
5
26D
100
AcDbEntity
8
0
100
AcDbLine
62
9
6
CONTINUOUS
10
-16.0460405288
20
-32.8301831859
11
-16.0460405304
21
-34.8952730560
0
LINE
5
26E
100
AcDbEntity
8
0
100
AcDbLine
62
9
6
CONTINUOUS
10
-14.1460405304
20
-32.8301831859
11
-14.1460405304
21
-34.8952730560
0
LINE
5
26F
100
AcDbEntity
8
0
100
AcDbLine
62
9
6
CONTINUOUS
10
-14.1460405304
20
12.0396370739
11
-14.1460405304
21
14.1047269440
0
LINE
5
270
100
AcDbEntity
8
0
100
AcDbLine
62
7
6
CONTINUOUS
10
-13.8960405304
20
-33.0171223528
11
-13.8960405304
21
-34.6452730560
0
LINE
5
271
100
AcDbEntity
8
0
100
AcDbLine
62
7
6
CONTINUOUS
10
-13.8960405304
20
12.2265762408
11
-13.8960405304
21
13.8547269440
0
LINE
5
272
100
AcDbEntity
8
0
100
AcDbLine
62
7
6
CONTINUOUS
10
-10.0489120621
20
-34.1952730560
11
-10.0489120621
21
-32.8301831859
0
LINE
5
273
100
AcDbEntity
8
0
100
AcDbLine
62
7
6
CONTINUOUS
10
-10.0489120621
20
12.0396370739
11
-10.0489120621
21
13.4047269440
0
LINE
5
274
100
AcDbEntity
8
0
100
AcDbLine
62
9
6
CONTINUOUS
10
-9.5489120621
20
-34.1952730560
11
-9.5489120621
21
-32.8301831859
0
LINE
5
275
100
AcDbEntity
8
0
100
AcDbLine
62
9
6
CONTINUOUS
10
-9.5489120621
20
12.0396370739
11
-9.5489120621
21
13.4047269440
0
LINE
5
276
100
AcDbEntity
8
0
100
AcDbLine
62
9
6
CONTINUOUS
10
-1.7431689986
20
13.4047269440
11
-1.7431689986
21
12.0396370739
0
LINE
5
277
100
AcDbEntity
8
0
100
AcDbLine
62
9
6
CONTINUOUS
10
-1.7431689986
20
-32.8301831859
11
-1.7431689986
21
-34.1952730560
0
LINE
5
278
100
AcDbEntity
8
0
100
AcDbLine
62
7
6
CONTINUOUS
10
-1.2431689986
20
13.4047269440
11
-1.2431689986
21
12.0396370739
0
LINE
5
279
100
AcDbEntity
8
0
100
AcDbLine
62
7
6
CONTINUOUS
10
-1.2431689986
20
-32.8301831859
11
-1.2431689986
21
-34.1952730560
0
LINE
5
27A
100
AcDbEntity
8
0
100
AcDbLine
62
7
6
CONTINUOUS
10
2.6039594696
20
-34.6452730560
11
2.6039594696
21
-33.0171223528
0
LINE
5
27B
100
AcDbEntity
8
0
100
AcDbLine
62
7
6
CONTINUOUS
10
2.6039594696
20
12.2265762408
11
2.6039594696
21
13.8547269440
0
LINE
5
27C
100
AcDbEntity
8
0
100
AcDbLine
62
9
6
CONTINUOUS
10
2.8539594712
20
-32.8301831859
11
2.8539594696
21
-34.8952730560
0
LINE
5
27D
100
AcDbEntity
8
0
100
AcDbLine
62
9
6
CONTINUOUS
10
2.8539594697
20
12.0396370739
11
2.8539594696
21
14.1047269440
0
LINE
5
27E
100
AcDbEntity
8
0
100
AcDbLine
62
7
6
CONTINUOUS
10
5.2539594696
20
9.5583756925
11
5.4629400671
21
9.5583756925
0
LINE
5
27F
100
AcDbEntity
8
0
100
AcDbLine
62
9
6
CONTINUOUS
10
4.4540813135
20
-32.4419210324
11
4.3539152417
21
-31.6431530873
0
LINE
5
280
100
AcDbEntity
8
0
100
AcDbLine
62
9
6
CONTINUOUS
10
5.2539594696
20
-31.6480050468
11
5.1537933978
21
-30.8492371017
0
LINE
5
281
100
AcDbEntity
8
0
100
AcDbLine
62
7
6
CONTINUOUS
10
5.4201751580
20
-10.3952730560
11
5.4629400671
21
-30.3489218045
0
LINE
5
282
100
AcDbEntity
8
0
100
AcDbLine
62
9
6
CONTINUOUS
10
4.7539594696
20
-32.8301831859
11
4.7539594696
21
-34.8952730560
0
LINE
5
283
100
AcDbEntity
8
0
100
AcDbLine
62
9
6
CONTINUOUS
10
4.7539594681
20
12.0396370739
11
4.7539594696
21
14.1047269440
0
LINE
5
284
100
AcDbEntity
8
0
100
AcDbLine
62
7
6
CONTINUOUS
10
5.0039594696
20
-33.0171223528
11
5.0039594696
21
-34.6452730560
0
LINE
5
285
100
AcDbEntity
8
0
100
AcDbLine
62
7
6
CONTINUOUS
10
5.0039594696
20
12.2265762408
11
5.0039594696
21
13.8547269440
0
LINE
5
286
100
AcDbEntity
8
0
100
AcDbLine
62
7
6
CONTINUOUS
10
5.2539594696
20
10.1384298087
11
5.2539594696
21
-31.6480050468
0
LINE
5
287
100
AcDbEntity
8
0
100
AcDbLine
62
7
6
CONTINUOUS
10
5.4515942749
20
11.5394085934
11
5.4515942749
21
11.5095369086
0
LINE
5
288
100
AcDbEntity
8
0
100
AcDbLine
62
7
6
CONTINUOUS
10
5.4515942749
20
-32.3299547054
11
5.4515942749
21
-32.3000830206
0
LINE
5
289
100
AcDbEntity
8
0
100
AcDbLine
62
7
6
CONTINUOUS
10
5.4629400671
20
11.4297269440
11
5.4629400671
21
9.5583756925
0
LINE
5
28A
100
AcDbEntity
8
0
100
AcDbLine
62
7
6
CONTINUOUS
10
5.4629400671
20
-30.3489218045
11
5.4629400671
21
-32.2202730560
0
LINE
5
28B
100
AcDbEntity
8
0
100
AcDbLine
62
7
6
CONTINUOUS
10
5.5039594696
20
-32.2775895106
11
5.5039594696
21
11.4870433986
0
LINE
5
28C
100
AcDbEntity
8
0
100
AcDbLine
62
7
6
CONTINUOUS
10
5.4629400671
20
9.5583756925
11
5.4201751580
21
-10.3952730560
0
LINE
5
28D
100
AcDbEntity
8
0
100
AcDbLine
62
9
6
CONTINUOUS
10
-38.1340191484
20
10.3238754897
11
4.3419380877
21
10.3238754897
0
LINE
5
28E
100
AcDbEntity
8
0
100
AcDbLine
62
7
6
CONTINUOUS
10
4.7584721409
20
11.4297269440
11
5.4629400671
21
11.4297269440
0
LINE
5
28F
100
AcDbEntity
8
0
100
AcDbLine
62
7
6
CONTINUOUS
10
4.5723611944
20
11.5095369086
11
5.4515942749
21
11.5095369086
0
LINE
5
290
100
AcDbEntity
8
0
100
AcDbLine
62
7
6
CONTINUOUS
10
-38.1447328965
20
11.5404919981
11
4.3526518358
21
11.5404919981
0
LINE
5
291
100
AcDbEntity
8
0
100
AcDbLine
62
7
6
CONTINUOUS
10
4.9513657944
20
12.0396370739
11
-16.2434468551
21
12.0396370739
0
LINE
5
292
100
AcDbEntity
8
0
100
AcDbLine
62
9
6
CONTINUOUS
10
2.8539594696
20
12.2344310200
11
4.7539594696
21
12.2344310200
0
LINE
5
293
100
AcDbEntity
8
0
100
AcDbLine
62
9
6
CONTINUOUS
10
-14.1460405304
20
12.2344310200
11
-16.0460405304
21
12.2344310200
0
LINE
5
294
100
AcDbEntity
8
0
100
AcDbLine
62
9
6
CONTINUOUS
10
2.6039594696
20
12.5830391075
11
5.0039594696
21
12.5830391075
0
LINE
5
295
100
AcDbEntity
8
0
100
AcDbLine
62
9
6
CONTINUOUS
10
-13.8960405304
20
12.5830391075
11
-16.2960405304
21
12.5830391075
0
LINE
5
296
100
AcDbEntity
8
0
100
AcDbLine
62
9
6
CONTINUOUS
10
-16.0460405304
20
12.7995454585
11
-14.1460405304
21
12.7995454585
0
LINE
5
297
100
AcDbEntity
8
0
100
AcDbLine
62
9
6
CONTINUOUS
10
2.8539594696
20
12.7995454585
11
4.7539594696
21
12.7995454585
0
LINE
5
298
100
AcDbEntity
8
0
100
AcDbLine
62
9
6
CONTINUOUS
10
4.7539594696
20
13.2325581603
11
2.8539594696
21
13.2325581603
0
LINE
5
299
100
AcDbEntity
8
0
100
AcDbLine
62
9
6
CONTINUOUS
10
-14.1460405304
20
13.2325581603
11
-16.0460405304
21
13.2325581603
0
LINE
5
29A
100
AcDbEntity
8
0
100
AcDbLine
62
7
6
CONTINUOUS
10
-1.2431740837
20
13.4047269440
11
-10.0489069771
21
13.4047269440
0
LINE
5
29B
100
AcDbEntity
8
0
100
AcDbLine
62
9
6
CONTINUOUS
10
2.6039594696
20
13.4490645113
11
5.0039594696
21
13.4490645113
0
LINE
5
29C
100
AcDbEntity
8
0
100
AcDbLine
62
9
6
CONTINUOUS
10
-13.8960405304
20
13.4490645113
11
-16.2960405304
21
13.4490645113
0
LINE
5
29D
100
AcDbEntity
8
0
100
AcDbLine
62
9
6
CONTINUOUS
10
2.6039594696
20
13.8547269440
11
5.0039594696
21
13.8547269440
0
LINE
5
29E
100
AcDbEntity
8
0
100
AcDbLine
62
9
6
CONTINUOUS
10
-13.8960405304
20
13.8547269440
11
-16.2960405304
21
13.8547269440
0
LINE
5
29F
100
AcDbEntity
8
0
100
AcDbLine
62
7
6
CONTINUOUS
10
-16.0460405304
20
14.1047269440
11
-14.1460405304
21
14.1047269440
0
LINE
5
2A0
100
AcDbEntity
8
0
100
AcDbLine
62
7
6
CONTINUOUS
10
2.8539594696
20
14.1047269440
11
4.7539594696
21
14.1047269440
0
LINE
5
2A1
100
AcDbEntity
8
0
100
AcDbLine
62
7
6
CONTINUOUS
10
5.4629400671
20
-32.2202730560
11
5.4515942749
21
-32.3000830206
0
LINE
5
2A2
100
AcDbEntity
8
0
100
AcDbLine
62
9
6
CONTINUOUS
10
5.1537933978
20
10.7383588556
11
5.2539594696
21
10.1384298087
0
LINE
5
2A3
100
AcDbEntity
8
0
100
AcDbLine
62
7
6
CONTINUOUS
10
5.1429537675
20
10.8686353692
11
5.2431943131
21
10.2682604844
0
LINE
5
2A4
100
AcDbEntity
8
0
100
AcDbLine
62
7
6
CONTINUOUS
10
5.4515942749
20
11.5095369086
11
5.4629400671
21
11.4297269440
0
LINE
5
2A5
100
AcDbEntity
8
0
100
AcDbLine
62
7
6
CONTINUOUS
10
5.3676760425
20
-32.6550811829
11
5.3661105808
21
-32.6572050944
0
LINE
5
2A6
100
AcDbEntity
8
0
100
AcDbLine
62
7
6
CONTINUOUS
10
5.3844602433
20
-32.6324425805
11
5.3820012311
21
-32.6357528498
0
LINE
5
2A7
100
AcDbEntity
8
0
100
AcDbLine
62
9
6
CONTINUOUS
10
5.4884780390
20
-32.2930708610
11
5.5039594696
21
-32.2775895106
0
LINE
5
2A8
100
AcDbEntity
8
0
100
AcDbLine
62
9
6
CONTINUOUS
10
5.4515942749
20
-32.3299547054
11
5.4573138770
21
-32.3242396118
0
LINE
5
2A9
100
AcDbEntity
8
0
100
AcDbLine
62
9
6
CONTINUOUS
10
5.4515942749
20
11.5394085934
11
5.4573138769
21
11.5336934978
0
LINE
5
2AA
100
AcDbEntity
8
0
100
AcDbLine
62
9
6
CONTINUOUS
10
5.4884780390
20
11.5025247488
11
5.5039594696
21
11.4870433986
0
LINE
5
2AB
100
AcDbEntity
8
0
100
AcDbLine
62
7
6
CONTINUOUS
10
5.3820010026
20
11.8452060181
11
5.3836655385
21
11.8429715249
0
LINE
5
2AC
100
AcDbEntity
8
0
100
AcDbLine
62
7
6
CONTINUOUS
10
5.3631871282
20
11.8705634790
11
5.3676760432
21
11.8645350701
0
LINE
5
2AD
100
AcDbEntity
8
0
100
AcDbLine
62
7
6
CONTINUOUS
10
-66.4066423560
20
-34.8952730560
11
-63.4066423560
21
-34.8952730560
0
LINE
5
2AE
100
AcDbEntity
8
0
100
AcDbLine
62
9
6
CONTINUOUS
10
-63.1566423560
20
-34.6452730560
11
-66.6566423560
21
-34.6452730560
0
LINE
5
2AF
100
AcDbEntity
8
0
100
AcDbLine
62
9
6
CONTINUOUS
10
-63.1566423560
20
-34.2396106233
11
-63.4066423560
21
-34.2396106233
0
LINE
5
2B0
100
AcDbEntity
8
0
100
AcDbLine
62
9
6
CONTINUOUS
10
-66.4066423560
20
-34.2396106233
11
-66.6566423560
21
-34.2396106233
0
LINE
5
2B1
100
AcDbEntity
8
0
100
AcDbLine
62
7
6
CONTINUOUS
10
-56.6566423560
20
-34.1952730560
11
-63.1566423560
21
-34.1952730560
0
LINE
5
2B2
100
AcDbEntity
8
0
100
AcDbLine
62
9
6
CONTINUOUS
10
-65.4099220879
20
-32.8292266319
11
-64.4099524888
21
-32.8100299106
0
LINE
5
2B3
100
AcDbEntity
8
0
100
AcDbLine
62
9
6
CONTINUOUS
10
-64.4066423560
20
-32.9996672878
11
-65.4066423560
21
-33.0171223528
0
LINE
5
2B4
100
AcDbEntity
8
0
100
AcDbLine
62
7
6
CONTINUOUS
10
-66.1566423560
20
-32.8301831859
11
-65.8114811936
21
-32.8241583754
0
LINE
5
2B5
100
AcDbEntity
8
0
100
AcDbLine
62
7
6
CONTINUOUS
10
-64.0261230509
20
-32.7929948331
11
-54.1391899496
21
-32.6204177738
0
LINE
5
2B6
100
AcDbEntity
8
0
100
AcDbLine
62
9
6
CONTINUOUS
10
-66.1566423560
20
-32.3299547054
11
-65.8289665697
21
-32.3242396118
0
LINE
5
2B7
100
AcDbEntity
8
0
100
AcDbLine
62
9
6
CONTINUOUS
10
-64.0435729219
20
-32.2930708610
11
-63.1566423560
21
-32.2775895106
0
LINE
5
2B8
100
AcDbEntity
8
0
100
AcDbLine
62
9
6
CONTINUOUS
10
-64.4066423560
20
-33.3735852195
11
-64.1566423560
21
-33.3735852195
0
LINE
5
2B9
100
AcDbEntity
8
0
100
AcDbLine
62
9
6
CONTINUOUS
10
-65.4066423560
20
-33.3735852195
11
-65.6566423560
21
-33.3735852195
0
LINE
5
2BA
100
AcDbEntity
8
0
100
AcDbLine
62
7
6
CONTINUOUS
10
-70.8914763621
20
-32.4419210324
11
-76.5750056140
21
-31.6431530873
0
LINE
5
2BB
100
AcDbEntity
8
0
100
AcDbLine
62
9
6
CONTINUOUS
10
-70.7939957364
20
-31.6480050468
11
-76.4775249883
21
-30.8492371017
0
LINE
5
2BC
100
AcDbEntity
8
0
100
AcDbLine
62
7
6
CONTINUOUS
10
-65.5066423560
20
-32.2202730560
11
-66.1566423560
21
-32.3000830206
0
LINE
5
2BD
100
AcDbEntity
8
0
100
AcDbLine
62
7
6
CONTINUOUS
10
-63.1566423560
20
-31.2952730560
11
-53.1566423560
21
-31.2952730560
0
LINE
5
2BE
100
AcDbEntity
8
0
100
AcDbLine
62
7
6
CONTINUOUS
10
-63.1566423560
20
-31.7952730560
11
-53.2192078035
21
-31.9687316213
0
LINE
5
2BF
100
AcDbEntity
8
0
100
AcDbLine
62
9
6
CONTINUOUS
10
-77.8640366107
20
-30.0763687154
11
-77.0790728024
21
-30.1180710606
0
LINE
5
2C0
100
AcDbEntity
8
0
100
AcDbLine
62
9
6
CONTINUOUS
10
-64.1566423560
20
13.0160518094
11
-63.4066423560
21
13.4490645113
0
LINE
5
2C1
100
AcDbEntity
8
0
100
AcDbLine
62
7
6
CONTINUOUS
10
-64.0316423560
20
12.7995454585
11
-63.2816423560
21
13.2325581603
0
LINE
5
2C2
100
AcDbEntity
8
0
100
AcDbLine
62
7
6
CONTINUOUS
10
-69.8618780780
20
-28.7192521337
11
-65.6978161615
21
-28.7919361048
0
LINE
5
2C3
100
AcDbEntity
8
0
100
AcDbLine
62
9
6
CONTINUOUS
10
-63.4066423560
20
-34.2396106233
11
-64.1566423560
21
-33.8065979214
0
LINE
5
2C4
100
AcDbEntity
8
0
100
AcDbLine
62
7
6
CONTINUOUS
10
-63.2816423560
20
-34.0231042724
11
-64.0316423560
21
-33.5900915705
0
LINE
5
2C5
100
AcDbEntity
8
0
100
AcDbLine
62
9
6
CONTINUOUS
10
-70.1566423560
20
-28.2193282861
11
-69.8618780780
21
-28.2193282861
0
LINE
5
2C6
100
AcDbEntity
8
0
100
AcDbLine
62
9
6
CONTINUOUS
10
-69.8618780780
20
-28.2193282861
11
-65.7593309308
21
-28.2909385129
0
LINE
5
2C7
100
AcDbEntity
8
0
100
AcDbLine
62
7
6
CONTINUOUS
10
-77.4888432068
20
-24.2266690241
11
-77.6879693633
21
-24.2022194065
0
LINE
5
2C8
100
AcDbEntity
8
0
100
AcDbLine
62
9
6
CONTINUOUS
10
-77.4494101940
20
-23.7277558766
11
-77.8255439219
21
-23.6815724620
0
LINE
5
2C9
100
AcDbEntity
8
0
100
AcDbLine
62
9
6
CONTINUOUS
10
-66.4066423560
20
13.4490645113
11
-66.5316423560
21
13.2325581603
0
LINE
5
2CA
100
AcDbEntity
8
0
100
AcDbLine
62
7
6
CONTINUOUS
10
-63.1566423560
20
4.4650246013
11
-53.1566423560
21
8.1047269440
0
LINE
5
2CB
100
AcDbEntity
8
0
100
AcDbLine
62
9
6
CONTINUOUS
10
-53.1566423560
20
8.6089673243
11
-63.1566423560
21
5.0618607120
0
LINE
5
2CC
100
AcDbEntity
8
0
100
AcDbLine
62
9
6
CONTINUOUS
10
-63.1566423560
20
-25.8524068240
11
-53.1566423560
21
-29.3995134364
0
LINE
5
2CD
100
AcDbEntity
8
0
100
AcDbLine
62
7
6
CONTINUOUS
10
-53.1566423560
20
-28.8952730560
11
-63.1566423560
21
-25.2555707133
0
LINE
5
2CE
100
AcDbEntity
8
0
100
AcDbLine
62
9
6
CONTINUOUS
10
-66.4066423560
20
-34.2396106233
11
-66.5316423560
21
-34.0231042724
0
LINE
5
2CF
100
AcDbEntity
8
0
100
AcDbLine
62
9
6
CONTINUOUS
10
-65.6566423560
20
13.0160518094
11
-65.7816423560
21
12.7995454585
0
LINE
5
2D0
100
AcDbEntity
8
0
100
AcDbLine
62
9
6
CONTINUOUS
10
-77.1653160868
20
-20.2363538577
11
-77.3990012200
21
-20.2076609312
0
LINE
5
2D1
100
AcDbEntity
8
0
100
AcDbLine
62
9
6
CONTINUOUS
10
-65.6566423560
20
-33.8065979214
11
-65.7816423560
21
-33.5900915705
0
LINE
5
2D2
100
AcDbEntity
8
0
100
AcDbLine
62
7
6
CONTINUOUS
10
-77.8621047249
20
-23.9793363074
11
-77.3624404170
21
-19.9098970857
0
LINE
5
2D3
100
AcDbEntity
8
0
100
AcDbLine
62
9
6
CONTINUOUS
10
-77.6879693633
20
-24.2022194065
11
-77.1395573180
21
-19.7357617241
0
LINE
5
2D4
100
AcDbEntity
8
0
100
AcDbLine
62
7
6
CONTINUOUS
10
-77.1229689053
20
-19.7377985250
11
-77.1395573180
21
-19.7357617241
0
LINE
5
2D5
100
AcDbEntity
8
0
100
AcDbLine
62
7
6
CONTINUOUS
10
-70.1566423560
20
-28.4192978252
11
-70.1566423560
21
-26.4571783200
0
LINE
5
2D6
100
AcDbEntity
8
0
100
AcDbLine
62
9
6
CONTINUOUS
10
-69.8618780780
20
-28.2193282861
11
-69.8618780780
21
-24.0565159248
0
LINE
5
2D7
100
AcDbEntity
8
0
100
AcDbLine
62
7
6
CONTINUOUS
10
-65.5657860553
20
10.9323457943
11
-70.8914763621
21
-32.4419210324
0
LINE
5
2D8
100
AcDbEntity
8
0
100
AcDbLine
62
7
6
CONTINUOUS
10
-65.5066423560
20
9.5583756925
11
-67.9566423560
21
-10.3952730560
0
LINE
5
2D9
100
AcDbEntity
8
0
100
AcDbLine
62
7
6
CONTINUOUS
10
-67.9566423560
20
-10.3952730560
11
-65.5066423560
21
-30.3489218045
0
LINE
5
2DA
100
AcDbEntity
8
0
100
AcDbLine
62
9
6
CONTINUOUS
10
-65.4099220879
20
-32.8292266319
11
-65.4066423560
21
-33.0171223528
0
LINE
5
2DB
100
AcDbEntity
8
0
100
AcDbLine
62
7
6
CONTINUOUS
10
-66.6566423560
20
13.8547269440
11
-66.6566423560
21
13.4490645113
0
LINE
5
2DC
100
AcDbEntity
8
0
100
AcDbLine
62
7
6
CONTINUOUS
10
-66.6566423560
20
-34.2396106233
11
-66.6566423560
21
-34.6452730560
0
LINE
5
2DD
100
AcDbEntity
8
0
100
AcDbLine
62
9
6
CONTINUOUS
10
-66.4066423560
20
14.1047269440
11
-66.4066423560
21
13.4490645113
0
LINE
5
2DE
100
AcDbEntity
8
0
100
AcDbLine
62
9
6
CONTINUOUS
10
-66.4066423560
20
-34.2396106233
11
-66.4066423560
21
-34.8952730560
0
LINE
5
2DF
100
AcDbEntity
8
0
100
AcDbLine
62
7
6
CONTINUOUS
10
-66.1566423560
20
-32.8301831859
11
-66.1566423560
21
-32.3000830206
0
LINE
5
2E0
100
AcDbEntity
8
0
100
AcDbLine
62
7
6
CONTINUOUS
10
-66.1566423560
20
11.5095369086
11
-66.1566423560
21
12.0396370739
0
LINE
5
2E1
100
AcDbEntity
8
0
100
AcDbLine
62
7
6
CONTINUOUS
10
-65.6566423560
20
12.5830391075
11
-65.6566423560
21
12.2344310200
0
LINE
5
2E2
100
AcDbEntity
8
0
100
AcDbLine
62
7
6
CONTINUOUS
10
-65.6566423560
20
-33.0249771320
11
-65.6566423560
21
-33.3735852195
0
LINE
5
2E3
100
AcDbEntity
8
0
100
AcDbLine
62
7
6
CONTINUOUS
10
-65.5066423560
20
11.4297269440
11
-65.5066423560
21
9.5583756925
0
LINE
5
2E4
100
AcDbEntity
8
0
100
AcDbLine
62
7
6
CONTINUOUS
10
-65.5066423560
20
-30.3489218045
11
-65.5066423560
21
-32.2202730560
0
LINE
5
2E5
100
AcDbEntity
8
0
100
AcDbLine
62
9
6
CONTINUOUS
10
-65.4066423560
20
12.5830391075
11
-65.4066423560
21
12.2265762408
0
LINE
5
2E6
100
AcDbEntity
8
0
100
AcDbLine
62
9
6
CONTINUOUS
10
-65.4066423560
20
-33.0171223528
11
-65.4066423560
21
-33.3735852195
0
LINE
5
2E7
100
AcDbEntity
8
0
100
AcDbLine
62
9
6
CONTINUOUS
10
-65.4099220880
20
12.0386805199
11
-65.4066423560
21
12.2265762408
0
LINE
5
2E8
100
AcDbEntity
8
0
100
AcDbLine
62
9
6
CONTINUOUS
10
-64.4099524888
20
-32.8100299106
11
-64.4066423560
21
-32.9996672878
0
LINE
5
2E9
100
AcDbEntity
8
0
100
AcDbLine
62
9
6
CONTINUOUS
10
-64.4066423560
20
-33.3735852195
11
-64.4066423560
21
-32.9996672878
0
LINE
5
2EA
100
AcDbEntity
8
0
100
AcDbLine
62
9
6
CONTINUOUS
10
-64.4066423560
20
12.2091211758
11
-64.4066423560
21
12.5830391075
0
LINE
5
2EB
100
AcDbEntity
8
0
100
AcDbLine
62
7
6
CONTINUOUS
10
-64.1566423560
20
-33.3735852195
11
-64.1566423560
21
-32.9918125086
0
LINE
5
2EC
100
AcDbEntity
8
0
100
AcDbLine
62
7
6
CONTINUOUS
10
-64.1566423560
20
12.2012663966
11
-64.1566423560
21
12.5830391075
0
LINE
5
2ED
100
AcDbEntity
8
0
100
AcDbLine
62
9
6
CONTINUOUS
10
-64.4099524889
20
12.0194837986
11
-64.4066423560
21
12.2091211758
0
LINE
5
2EE
100
AcDbEntity
8
0
100
AcDbLine
62
9
6
CONTINUOUS
10
-63.4066423560
20
14.1047269440
11
-63.4066423560
21
13.4490645113
0
LINE
5
2EF
100
AcDbEntity
8
0
100
AcDbLine
62
9
6
CONTINUOUS
10
-63.4066423560
20
-34.2396106233
11
-63.4066423560
21
-34.8952730560
0
LINE
5
2F0
100
AcDbEntity
8
0
100
AcDbLine
62
7
6
CONTINUOUS
10
-63.1566423560
20
13.8547269440
11
-63.1566423560
21
13.4490645113
0
LINE
5
2F1
100
AcDbEntity
8
0
100
AcDbLine
62
7
6
CONTINUOUS
10
-63.1566423560
20
-34.2396106233
11
-63.1566423560
21
-34.6452730560
0
LINE
5
2F2
100
AcDbEntity
8
0
100
AcDbLine
62
7
6
CONTINUOUS
10
-63.1566423560
20
-32.7778179911
11
-63.1566423560
21
11.9872718791
0
LINE
5
2F3
100
AcDbEntity
8
0
100
AcDbLine
62
7
6
CONTINUOUS
10
-62.9566423560
20
4.4333399440
11
-62.9566423560
21
2.3278959440
0
LINE
5
2F4
100
AcDbEntity
8
0
100
AcDbLine
62
7
6
CONTINUOUS
10
-62.9566423560
20
1.9945579440
11
-62.9566423560
21
1.4945399440
0
LINE
5
2F5
100
AcDbEntity
8
0
100
AcDbLine
62
7
6
CONTINUOUS
10
-62.9566423560
20
0.9945329440
11
-62.9566423560
21
-1.4509920560
0
LINE
5
2F6
100
AcDbEntity
8
0
100
AcDbLine
62
7
6
CONTINUOUS
10
-62.9566423560
20
-1.7843360560
11
-62.9566423560
21
-3.8897790560
0
LINE
5
2F7
100
AcDbEntity
8
0
100
AcDbLine
62
7
6
CONTINUOUS
10
-62.9566423560
20
-4.2231230560
11
-62.9566423560
21
-6.2238860560
0
LINE
5
2F8
100
AcDbEntity
8
0
100
AcDbLine
62
7
6
CONTINUOUS
10
-63.1566423560
20
-6.2238860560
11
-62.9566423560
21
-6.2238860560
0
LINE
5
2F9
100
AcDbEntity
8
0
100
AcDbLine
62
7
6
CONTINUOUS
10
-63.1566423560
20
-5.6606920560
11
-62.9566423560
21
-5.6606920560
0
LINE
5
2FA
100
AcDbEntity
8
0
100
AcDbLine
62
7
6
CONTINUOUS
10
-63.1566423560
20
-5.1596110560
11
-62.9566423560
21
-5.1596110560
0
LINE
5
2FB
100
AcDbEntity
8
0
100
AcDbLine
62
7
6
CONTINUOUS
10
-63.1566423560
20
-4.7231480560
11
-62.9566423560
21
-4.7231480560
0
LINE
5
2FC
100
AcDbEntity
8
0
100
AcDbLine
62
7
6
CONTINUOUS
10
-63.1566423560
20
-4.2231230560
11
-62.9566423560
21
-4.2231230560
0
LINE
5
2FD
100
AcDbEntity
8
0
100
AcDbLine
62
7
6
CONTINUOUS
10
-63.1566423560
20
-3.8897790560
11
-62.9566423560
21
-3.8897790560
0
LINE
5
2FE
100
AcDbEntity
8
0
100
AcDbLine
62
7
6
CONTINUOUS
10
-63.1566423560
20
-3.3897540560
11
-62.9566423560
21
-3.3897540560
0
LINE
5
2FF
100
AcDbEntity
8
0
100
AcDbLine
62
7
6
CONTINUOUS
10
-63.1566423560
20
-3.2319040560
11
-62.9566423560
21
-3.2319040560
0
LINE
5
300
100
AcDbEntity
8
0
100
AcDbLine
62
7
6
CONTINUOUS
10
-56.1566423560
20
12.9047269440
11
-56.1566423560
21
11.8650864246
0
LINE
5
301
100
AcDbEntity
8
0
100
AcDbLine
62
7
6
CONTINUOUS
10
-56.1566423560
20
-32.6556325366
11
-56.1566423560
21
-33.6952730560
0
LINE
5
302
100
AcDbEntity
8
0
100
AcDbLine
62
7
6
CONTINUOUS
10
-63.1566423560
20
-2.4422110560
11
-62.9566423560
21
-2.4422110560
0
LINE
5
303
100
AcDbEntity
8
0
100
AcDbLine
62
7
6
CONTINUOUS
10
-63.1566423560
20
-2.2843540560
11
-62.9566423560
21
-2.2843540560
0
LINE
5
304
100
AcDbEntity
8
0
100
AcDbLine
62
7
6
CONTINUOUS
10
-63.1566423560
20
-1.7843360560
11
-62.9566423560
21
-1.7843360560
0
LINE
5
305
100
AcDbEntity
8
0
100
AcDbLine
62
7
6
CONTINUOUS
10
-63.1566423560
20
-1.4509920560
11
-62.9566423560
21
-1.4509920560
0
LINE
5
306
100
AcDbEntity
8
0
100
AcDbLine
62
7
6
CONTINUOUS
10
-63.1566423560
20
-0.9509730560
11
-62.9566423560
21
-0.9509730560
0
LINE
5
307
100
AcDbEntity
8
0
100
AcDbLine
62
7
6
CONTINUOUS
10
-63.1566423560
20
-0.4782290560
11
-62.9566423560
21
-0.4782290560
0
LINE
5
308
100
AcDbEntity
8
0
100
AcDbLine
62
7
6
CONTINUOUS
10
-63.1566423560
20
0.0217769440
11
-62.9566423560
21
0.0217769440
0
LINE
5
309
100
AcDbEntity
8
0
100
AcDbLine
62
7
6
CONTINUOUS
10
-63.1566423560
20
0.4945149440
11
-62.9566423560
21
0.4945149440
0
LINE
5
30A
100
AcDbEntity
8
0
100
AcDbLine
62
7
6
CONTINUOUS
10
-53.1566423560
20
10.8300239667
11
-53.1566423560
21
8.1050207907
0
LINE
5
30B
100
AcDbEntity
8
0
100
AcDbLine
62
7
6
CONTINUOUS
10
-53.1566423560
20
-28.8955669027
11
-53.1566423560
21
-31.6205700787
0
LINE
5
30C
100
AcDbEntity
8
0
100
AcDbLine
62
9
6
CONTINUOUS
10
-64.1566423560
20
-33.8065979214
11
-64.0316423560
21
-33.5900915705
0
LINE
5
30D
100
AcDbEntity
8
0
100
AcDbLine
62
7
6
CONTINUOUS
10
-63.1566423560
20
0.9945329440
11
-62.9566423560
21
0.9945329440
0
LINE
5
30E
100
AcDbEntity
8
0
100
AcDbLine
62
7
6
CONTINUOUS
10
-63.1566423560
20
1.4945399440
11
-62.9566423560
21
1.4945399440
0
LINE
5
30F
100
AcDbEntity
8
0
100
AcDbLine
62
7
6
CONTINUOUS
10
-63.1566423560
20
1.9945579440
11
-62.9566423560
21
1.9945579440
0
LINE
5
310
100
AcDbEntity
8
0
100
AcDbLine
62
7
6
CONTINUOUS
10
-63.1566423560
20
2.3278959440
11
-62.9566423560
21
2.3278959440
0
LINE
5
311
100
AcDbEntity
8
0
100
AcDbLine
62
9
6
CONTINUOUS
10
-64.1566423560
20
13.0160518094
11
-64.0316423560
21
12.7995454585
0
LINE
5
312
100
AcDbEntity
8
0
100
AcDbLine
62
9
6
CONTINUOUS
10
-63.4066423560
20
-34.2396106233
11
-63.2816423560
21
-34.0231042724
0
LINE
5
313
100
AcDbEntity
8
0
100
AcDbLine
62
7
6
CONTINUOUS
10
-63.1566423560
20
3.1306019440
11
-62.9566423560
21
3.1306019440
0
LINE
5
314
100
AcDbEntity
8
0
100
AcDbLine
62
7
6
CONTINUOUS
10
-63.1566423560
20
3.6306399440
11
-62.9566423560
21
3.6306399440
0
LINE
5
315
100
AcDbEntity
8
0
100
AcDbLine
62
7
6
CONTINUOUS
10
-63.1566423560
20
4.4333399440
11
-62.9566423560
21
4.4333399440
0
LINE
5
316
100
AcDbEntity
8
0
100
AcDbLine
62
9
6
CONTINUOUS
10
-63.4066423560
20
13.4490645113
11
-63.2816423560
21
13.2325581603
0
LINE
5
317
100
AcDbEntity
8
0
100
AcDbLine
62
9
6
CONTINUOUS
10
-65.9876663170
20
7.4964067919
11
-65.7593309308
21
7.5003924009
0
LINE
5
318
100
AcDbEntity
8
0
100
AcDbLine
62
7
6
CONTINUOUS
10
-65.9261515476
20
7.9974043838
11
-65.6978161615
21
8.0013899928
0
LINE
5
319
100
AcDbEntity
8
0
100
AcDbLine
62
7
6
CONTINUOUS
10
-65.7816423560
20
-33.5900915705
11
-66.5316423560
21
-34.0231042724
0
LINE
5
31A
100
AcDbEntity
8
0
100
AcDbLine
62
9
6
CONTINUOUS
10
-65.6566423560
20
-33.8065979214
11
-66.4066423560
21
-34.2396106233
0
LINE
5
31B
100
AcDbEntity
8
0
100
AcDbLine
62
9
6
CONTINUOUS
10
-72.9034899988
20
10.3238715586
11
-72.1317746275
21
10.1744391582
0
LINE
5
31C
100
AcDbEntity
8
0
100
AcDbLine
62
7
6
CONTINUOUS
10
-66.5316423560
20
13.2325581603
11
-65.7816423560
21
12.7995454585
0
LINE
5
31D
100
AcDbEntity
8
0
100
AcDbLine
62
9
6
CONTINUOUS
10
-66.4066423560
20
13.4490645113
11
-65.6566423560
21
13.0160518094
0
LINE
5
31E
100
AcDbEntity
8
0
100
AcDbLine
62
7
6
CONTINUOUS
10
-63.1566423560
20
11.0047269440
11
-53.2192078035
21
11.1781855093
0
LINE
5
31F
100
AcDbEntity
8
0
100
AcDbLine
62
7
6
CONTINUOUS
10
-63.1566423560
20
10.5047269440
11
-53.1566423560
21
10.5047269440
0
LINE
5
320
100
AcDbEntity
8
0
100
AcDbLine
62
9
6
CONTINUOUS
10
-64.0435729218
20
11.5025247488
11
-63.1566423560
21
11.4870433986
0
LINE
5
321
100
AcDbEntity
8
0
100
AcDbLine
62
9
6
CONTINUOUS
10
-66.1566423560
20
11.5394085934
11
-65.8289665743
21
11.5336934978
0
LINE
5
322
100
AcDbEntity
8
0
100
AcDbLine
62
9
6
CONTINUOUS
10
-71.3712102797
20
10.7383588556
11
-65.6632666810
21
10.1384298087
0
LINE
5
323
100
AcDbEntity
8
0
100
AcDbLine
62
7
6
CONTINUOUS
10
-71.2737296540
20
11.5322748412
11
-65.5657860553
21
10.9323457943
0
LINE
5
324
100
AcDbEntity
8
0
100
AcDbLine
62
7
6
CONTINUOUS
10
-66.1566423560
20
11.5095369086
11
-65.5066423560
21
11.4297269440
0
LINE
5
325
100
AcDbEntity
8
0
100
AcDbLine
62
9
6
CONTINUOUS
10
-64.4066423560
20
12.5830391075
11
-64.1566423560
21
12.5830391075
0
LINE
5
326
100
AcDbEntity
8
0
100
AcDbLine
62
9
6
CONTINUOUS
10
-65.4066423560
20
12.5830391075
11
-65.6566423560
21
12.5830391075
0
LINE
5
327
100
AcDbEntity
8
0
100
AcDbLine
62
7
6
CONTINUOUS
10
-63.1566423560
20
13.4047269440
11
-56.6566423560
21
13.4047269440
0
LINE
5
328
100
AcDbEntity
8
0
100
AcDbLine
62
9
6
CONTINUOUS
10
-63.1566423560
20
13.4490645113
11
-63.4066423560
21
13.4490645113
0
LINE
5
329
100
AcDbEntity
8
0
100
AcDbLine
62
9
6
CONTINUOUS
10
-66.4066423560
20
13.4490645113
11
-66.6566423560
21
13.4490645113
0
LINE
5
32A
100
AcDbEntity
8
0
100
AcDbLine
62
7
6
CONTINUOUS
10
-66.1566423560
20
12.0396370739
11
-65.8114814401
21
12.0336122677
0
LINE
5
32B
100
AcDbEntity
8
0
100
AcDbLine
62
7
6
CONTINUOUS
10
-64.0261212277
20
12.0024486892
11
-54.1391899496
21
11.8298716618
0
LINE
5
32C
100
AcDbEntity
8
0
100
AcDbLine
62
9
6
CONTINUOUS
10
-65.4066423560
20
12.2265762408
11
-64.4066423560
21
12.2091211758
0
LINE
5
32D
100
AcDbEntity
8
0
100
AcDbLine
62
9
6
CONTINUOUS
10
-65.4099220880
20
12.0386805199
11
-64.4099524889
21
12.0194837986
0
LINE
5
32E
100
AcDbEntity
8
0
100
AcDbLine
62
9
6
CONTINUOUS
10
-63.1566423560
20
13.8547269440
11
-66.6566423560
21
13.8547269440
0
LINE
5
32F
100
AcDbEntity
8
0
100
AcDbLine
62
7
6
CONTINUOUS
10
-66.4066423560
20
14.1047269440
11
-63.4066423560
21
14.1047269440
0
ARC
5
330
100
AcDbEntity
8
0
100
AcDbCircle
62
7
6
CONTINUOUS
10
-16.0460405304
20
13.8547269440
40
0.2500000000
100
AcDbArc
50
90.0000000000
51
180.0000000000
0
ARC
5
331
100
AcDbEntity
8
0
100
AcDbCircle
62
7
6
CONTINUOUS
10
-14.1460405304
20
13.8547269440
40
0.2500000000
100
AcDbArc
50
0.0000000000
51
90.0000000000
0
ARC
5
332
100
AcDbEntity
8
0
100
AcDbCircle
62
7
6
CONTINUOUS
10
4.7539594696
20
13.8547269440
40
0.2500000000
100
AcDbArc
50
0.0000000000
51
90.0000000000
0
ARC
5
333
100
AcDbEntity
8
0
100
AcDbCircle
62
7
6
CONTINUOUS
10
2.8539594696
20
13.8547269440
40
0.2500000000
100
AcDbArc
50
90.0000000000
51
180.0000000000
0
ARC
5
334
100
AcDbEntity
8
0
100
AcDbCircle
62
7
6
CONTINUOUS
10
-14.1460405304
20
-34.6452730560
40
0.2500000000
100
AcDbArc
50
270.0000000000
51
360.0000000000
0
ARC
5
335
100
AcDbEntity
8
0
100
AcDbCircle
62
7
6
CONTINUOUS
10
-16.0460405304
20
-34.6452730560
40
0.2500000000
100
AcDbArc
50
180.0000000000
51
270.0000000000
0
ARC
5
336
100
AcDbEntity
8
0
100
AcDbCircle
62
7
6
CONTINUOUS
10
2.8539594696
20
-34.6452730560
40
0.2500000000
100
AcDbArc
50
180.0000000000
51
270.0000000000
0
ARC
5
337
100
AcDbEntity
8
0
100
AcDbCircle
62
7
6
CONTINUOUS
10
4.7539594696
20
-34.6452730560
40
0.2500000000
100
AcDbArc
50
270.0000000000
51
360.0000000000
0
ARC
5
338
100
AcDbEntity
8
0
100
AcDbCircle
62
7
6
CONTINUOUS
10
-77.6635954946
20
-24.0037101761
40
0.2000000000
100
AcDbArc
50
173.0000000000
51
263.0000000000
0
ARC
5
339
100
AcDbEntity
8
0
100
AcDbCircle
62
7
6
CONTINUOUS
10
-77.1639311866
20
-19.9342709544
40
0.2000000000
100
AcDbArc
50
83.0000000000
51
173.0000000000
0
ARC
5
33A
100
AcDbEntity
8
0
100
AcDbCircle
62
7
6
CONTINUOUS
10
-71.4305223489
20
10.0404919981
40
1.5000000000
100
AcDbArc
50
84.0000000000
51
169.1101008379
0
ARC
5
33B
100
AcDbEntity
8
0
100
AcDbCircle
62
7
6
CONTINUOUS
10
221.6940996857
20
-46.3528228277
40
300.0000000000
100
AcDbArc
50
169.1101008379
51
176.8898991621
0
ARC
5
33C
100
AcDbEntity
8
0
100
AcDbCircle
62
7
6
CONTINUOUS
10
-76.3662459626
20
-30.1577509842
40
1.5000000000
100
AcDbArc
50
176.8898991621
51
262.0000000000
0
ARC
5
33D
100
AcDbEntity
8
0
100
AcDbCircle
62
7
6
CONTINUOUS
10
-69.8566423560
20
-28.4192978252
40
0.3000000000
100
AcDbArc
50
180.0000000000
51
269.0000000000
0
ARC
5
33E
100
AcDbEntity
8
0
100
AcDbCircle
62
7
6
CONTINUOUS
10
-65.9066423560
20
12.5830391075
40
0.2500000000
100
AcDbArc
50
0.0000000000
51
60.0000000000
0
ARC
5
33F
100
AcDbEntity
8
0
100
AcDbCircle
62
7
6
CONTINUOUS
10
-66.4066423560
20
13.4490645113
40
0.2500000000
100
AcDbArc
50
180.0000000000
51
240.0000000000
0
ARC
5
340
100
AcDbEntity
8
0
100
AcDbCircle
62
7
6
CONTINUOUS
10
-63.4066423560
20
13.4490645113
40
0.2500000000
100
AcDbArc
50
300.0000000000
51
360.0000000000
0
ARC
5
341
100
AcDbEntity
8
0
100
AcDbCircle
62
7
6
CONTINUOUS
10
-63.9066423560
20
12.5830391075
40
0.2500000000
100
AcDbArc
50
120.0000000000
51
180.0000000000
0
ARC
5
342
100
AcDbEntity
8
0
100
AcDbCircle
62
7
6
CONTINUOUS
10
-56.6566423560
20
12.9047269440
40
0.5000000000
100
AcDbArc
50
0.0000000000
51
90.0000000000
0
ARC
5
343
100
AcDbEntity
8
0
100
AcDbCircle
62
7
6
CONTINUOUS
10
-56.6566423560
20
-33.6952730560
40
0.5000000000
100
AcDbArc
50
270.0000000000
51
360.0000000000
0
ARC
5
344
100
AcDbEntity
8
0
100
AcDbCircle
62
7
6
CONTINUOUS
10
-54.1566423560
20
-31.6205700787
40
1.0000000000
100
AcDbArc
50
271.0000000000
51
360.0000000000
0
ARC
5
345
100
AcDbEntity
8
0
100
AcDbCircle
62
7
6
CONTINUOUS
10
-54.1566423560
20
10.8300239667
40
1.0000000000
100
AcDbArc
50
0.0000000000
51
89.0000000000
0
ARC
5
346
100
AcDbEntity
8
0
100
AcDbCircle
62
7
6
CONTINUOUS
10
-66.4066423560
20
13.8547269440
40
0.2500000000
100
AcDbArc
50
90.0000000000
51
180.0000000000
0
ARC
5
347
100
AcDbEntity
8
0
100
AcDbCircle
62
7
6
CONTINUOUS
10
-63.4066423560
20
13.8547269440
40
0.2500000000
100
AcDbArc
50
0.0000000000
51
90.0000000000
0
ARC
5
348
100
AcDbEntity
8
0
100
AcDbCircle
62
7
6
CONTINUOUS
10
-65.9066423560
20
-33.3735852195
40
0.2500000000
100
AcDbArc
50
300.0000000000
51
360.0000000000
0
ARC
5
349
100
AcDbEntity
8
0
100
AcDbCircle
62
7
6
CONTINUOUS
10
-66.4066423560
20
-34.6452730560
40
0.2500000000
100
AcDbArc
50
180.0000000000
51
270.0000000000
0
ARC
5
34A
100
AcDbEntity
8
0
100
AcDbCircle
62
7
6
CONTINUOUS
10
-66.4066423560
20
-34.2396106233
40
0.2500000000
100
AcDbArc
50
120.0000000000
51
180.0000000000
0
ARC
5
34B
100
AcDbEntity
8
0
100
AcDbCircle
62
7
6
CONTINUOUS
10
-63.9566451516
20
12.2012664454
40
0.1999987575
100
AcDbArc
50
180.0000139794
51
269.0000000000
0
ARC
5
34C
100
AcDbEntity
8
0
100
AcDbCircle
62
7
6
CONTINUOUS
10
-63.4066423560
20
-34.6452730560
40
0.2500000000
100
AcDbArc
50
270.0000000000
51
360.0000000000
0
ARC
5
34D
100
AcDbEntity
8
0
100
AcDbCircle
62
7
6
CONTINUOUS
10
-63.9066423560
20
-33.3735852195
40
0.2500000000
100
AcDbArc
50
180.0000000000
51
240.0000000000
0
ARC
5
34E
100
AcDbEntity
8
0
100
AcDbCircle
62
7
6
CONTINUOUS
10
-65.8566423560
20
12.2344310200
40
0.2000000000
100
AcDbArc
50
268.9991990114
51
360.0000000000
0
ARC
5
34F
100
AcDbEntity
8
0
100
AcDbCircle
62
7
6
CONTINUOUS
10
-63.4066423560
20
-34.2396106233
40
0.2500000000
100
AcDbArc
50
0.0000000000
51
60.0000000000
0
ARC
5
350
100
AcDbEntity
8
0
100
AcDbCircle
62
7
6
CONTINUOUS
10
-63.9566423560
20
-32.9918125086
40
0.2000000000
100
AcDbArc
50
90.9991990117
51
180.0000000000
0
ARC
5
351
100
AcDbEntity
8
0
100
AcDbCircle
62
7
6
CONTINUOUS
10
-65.8566395605
20
-33.0249770832
40
0.1999987575
100
AcDbArc
50
359.9999860206
51
91.0000000000
0
ARC
5
352
100
AcDbEntity
8
0
100
AcDbCircle
62
9
6
CONTINUOUS
10
-63.9066423560
20
12.5830391075
40
0.5000000000
100
AcDbArc
50
120.0000000000
51
180.0000000000
0
ARC
5
353
100
AcDbEntity
8
0
100
AcDbCircle
62
9
6
CONTINUOUS
10
-65.9066423560
20
12.5830391075
40
0.5000000000
100
AcDbArc
50
0.0000000000
51
60.0000000000
0
ARC
5
354
100
AcDbEntity
8
0
100
AcDbCircle
62
9
6
CONTINUOUS
10
-65.9066423560
20
-33.3735852195
40
0.5000000000
100
AcDbArc
50
300.0000000000
51
360.0000000000
0
ARC
5
355
100
AcDbEntity
8
0
100
AcDbCircle
62
9
6
CONTINUOUS
10
-63.9066423560
20
-33.3735852195
40
0.5000000000
100
AcDbArc
50
180.0000000000
51
240.0000000000
0
SPLINE
5
356
100
AcDbEntity
8
0
100
AcDbSpline
62
7
6
CONTINUOUS
70
0
71
3
72
14
73
10
74
8
42
0.0000001000
43
0.0000001000
44
0.0000000001
12
-0.7820003904
22
-0.0000000024
32
0.0000000000
13
0.0000000000
23
-0.7820003903
33
0.0000000000
40
0.0000000000
40
0.0000000000
40
0.0000000000
40
0.0000000000
40
0.1433455978
40
0.2865744515
40
0.4296225039
40
0.5724603343
40
0.7150984337
40
0.8575855949
40
1.0000000000
40
1.0000000000
40
1.0000000000
40
1.0000000000
10
-33.6460405319
20
-19.7342709544
30
0.0000000000
10
-33.6834059697
20
-19.7342709545
30
0.0000000000
10
-33.7583749526
20
-19.7426759220
30
0.0000000000
10
-33.8649600222
20
-19.7798560756
30
0.0000000000
10
-33.9605756608
20
-19.8397136022
30
0.0000000000
10
-34.0403679324
20
-19.9192159381
30
0.0000000000
10
-34.1003800703
20
-20.0143839315
30
0.0000000000
10
-34.1376236205
20
-20.1203775735
30
0.0000000000
10
-34.1460405304
20
-20.1949120931
30
0.0000000000
10
-34.1460405304
20
-20.2320347999
30
0.0000000000
11
-33.6460405319
21
-19.7342709544
31
0.0000000000
11
-33.7574365263
21
-19.7467815864
31
0.0000000000
11
-33.8631940829
21
-19.7836660495
31
0.0000000000
11
-33.9580015027
21
-19.8430379747
31
0.0000000000
11
-34.0371193257
21
-19.9218865010
31
0.0000000000
11
-34.0966110455
21
-20.0162400232
31
0.0000000000
11
-34.1335275526
21
-20.1213718720
31
0.0000000000
11
-34.1460405304
21
-20.2320347999
31
0.0000000000
0
SPLINE
5
357
100
AcDbEntity
8
0
100
AcDbSpline
62
7
6
CONTINUOUS
70
0
71
3
72
8
73
4
74
2
42
0.0000001000
43
0.0000001000
44
0.0000000001
12
0.0000000000
22
0.0371406762
32
0.0000000000
13
-0.0027954748
23
0.0371072050
33
0.0000000000
40
0.0000000000
40
0.0000000000
40
0.0000000000
40
0.0000000000
40
1.0000000000
40
1.0000000000
40
1.0000000000
40
1.0000000000
10
-22.1460405304
20
-20.2320347999
30
0.0000000000
10
-22.1460405304
20
-20.2196545745
30
0.0000000000
10
-22.1465084661
20
-20.2072593378
30
0.0000000000
10
-22.1474402910
20
-20.1948902695
30
0.0000000000
11
-22.1460405304
21
-20.2320347999
31
0.0000000000
11
-22.1474402910
21
-20.1948902695
31
0.0000000000
0
SPLINE
5
358
100
AcDbEntity
8
0
100
AcDbSpline
62
7
6
CONTINUOUS
70
0
71
3
72
14
73
10
74
8
42
0.0000001000
43
0.0000001000
44
0.0000000001
12
-0.0560635063
22
0.7441884492
32
0.0000000000
13
-0.7448597163
23
-0.0000000009
33
0.0000000000
40
0.0000000000
40
0.0000000000
40
0.0000000000
40
0.0000000000
40
0.0996038499
40
0.2491939858
40
0.3989752165
40
0.5489775084
40
0.6991885810
40
0.8495565704
40
1.0000000000
40
1.0000000000
40
1.0000000000
40
1.0000000000
10
-22.1474402910
20
-20.1948902695
30
0.0000000000
10
-22.1493016714
20
-20.1701822580
30
0.0000000000
10
-22.1585895939
20
-20.1086277357
30
0.0000000000
10
-22.1916870329
20
-20.0144109014
30
0.0000000000
10
-22.2517038003
20
-19.9192242807
30
0.0000000000
10
-22.3315149059
20
-19.8397034345
30
0.0000000000
10
-22.4271490370
20
-19.7798417752
30
0.0000000000
10
-22.5337317387
20
-19.7426716170
30
0.0000000000
10
-22.6086874476
20
-19.7342709544
30
0.0000000000
10
-22.6460405310
20
-19.7342709544
30
0.0000000000
11
-22.1474402910
21
-20.1948902695
31
0.0000000000
11
-22.1585452974
21
-20.1214077254
31
0.0000000000
11
-22.1954534220
21
-20.0162743637
31
0.0000000000
11
-22.2549523398
21
-19.9218982426
31
0.0000000000
11
-22.3340925430
21
-19.8430276546
31
0.0000000000
11
-22.4289223837
21
-19.7836490567
31
0.0000000000
11
-22.5346809037
21
-19.7467733134
31
0.0000000000
11
-22.6460405310
21
-19.7342709544
31
0.0000000000
0
SPLINE
5
359
100
AcDbEntity
8
0
100
AcDbSpline
62
9
6
CONTINUOUS
70
0
71
3
72
12
73
8
74
6
42
0.0000001000
43
0.0000001000
44
0.0000000001
12
-0.2038098965
22
-0.0000000214
32
0.0000000000
13
0.0000000000
23
-0.2038098965
33
0.0000000000
40
0.0000000000
40
0.0000000000
40
0.0000000000
40
0.0000000000
40
0.3032940752
40
0.5773775049
40
0.7960810059
40
0.9393983855
40
1.0000000000
40
1.0000000000
40
1.0000000000
40
1.0000000000
10
-33.9460405304
20
-23.6815724620
30
0.0000000000
10
-33.9666453084
20
-23.6815724641
30
0.0000000000
10
-34.0060536479
20
-23.6823300418
30
0.0000000000
10
-34.0593698434
20
-23.6853583845
30
0.0000000000
10
-34.1041336113
20
-23.6905252918
30
0.0000000000
10
-34.1287717008
20
-23.6955000034
30
0.0000000000
10
-34.1460405304
20
-23.7018292601
30
0.0000000000
10
-34.1460405304
20
-23.7059463297
30
0.0000000000
11
-33.9460405304
21
-23.6815724620
31
0.0000000000
11
-34.0078433525
21
-23.6827653864
31
0.0000000000
11
-34.0635968844
21
-23.6862274029
31
0.0000000000
11
-34.1078434607
21
-23.6916196592
31
0.0000000000
11
-34.1362516852
21
-23.6984143400
31
0.0000000000
11
-34.1460405304
21
-23.7059463297
31
0.0000000000
0
SPLINE
5
35A
100
AcDbEntity
8
0
100
AcDbSpline
62
9
6
CONTINUOUS
70
0
71
3
72
14
73
10
74
8
42
0.0000001000
43
0.0000001000
44
0.0000000001
12
0.0000000000
22
-0.4684996562
32
0.0000000000
13
0.4684996562
23
-0.0000000000
33
0.0000000000
40
0.0000000000
40
0.0000000000
40
0.0000000000
40
0.0000000000
40
0.1419408598
40
0.2845451724
40
0.4274293057
40
0.5704307166
40
0.7137279670
40
0.8571333992
40
1.0000000000
40
1.0000000000
40
1.0000000000
40
1.0000000000
10
-33.9460405304
20
-23.6815724620
30
0.0000000000
10
-33.9460405304
20
-23.7037388766
30
0.0000000000
10
-33.9409991570
20
-23.7483371381
30
0.0000000000
10
-33.9186377818
20
-23.8118085707
30
0.0000000000
10
-33.8825401355
20
-23.8688359772
30
0.0000000000
10
-33.8345536599
20
-23.9164317691
30
0.0000000000
10
-33.7771058669
20
-23.9522038850
30
0.0000000000
10
-33.7132158746
20
-23.9743479423
30
0.0000000000
10
-33.6683515148
20
-23.9793363074
30
0.0000000000
10
-33.6460405304
20
-23.9793363074
30
0.0000000000
11
-33.9460405304
21
-23.6815724620
31
0.0000000000
11
-33.9385611552
21
-23.7476497531
31
0.0000000000
11
-33.9163781231
21
-23.8106695811
31
0.0000000000
11
-33.8805815177
21
-23.8672356746
31
0.0000000000
11
-33.8330237347
21
-23.9144239811
31
0.0000000000
11
-33.7760432245
21
-23.9499245597
31
0.0000000000
11
-33.7125618250
21
-23.9719243168
31
0.0000000000
11
-33.6460405304
21
-23.9793363074
31
0.0000000000
0
SPLINE
5
35B
100
AcDbEntity
8
0
100
AcDbSpline
62
9
6
CONTINUOUS
70
0
71
3
72
12
73
8
74
6
42
0.0000001000
43
0.0000001000
44
0.0000000001
12
-0.2038099069
22
0.0000000000
32
0.0000000000
13
0.0000000000
23
-0.2038099069
33
0.0000000000
40
0.0000000000
40
0.0000000000
40
0.0000000000
40
0.0000000000
40
0.3032968905
40
0.5773809034
40
0.7960832936
40
0.9393991155
40
1.0000000000
40
1.0000000000
40
1.0000000000
40
1.0000000000
10
-33.9460405304
20
-20.2076609312
30
0.0000000000
10
-33.9666455007
20
-20.2076609312
30
0.0000000000
10
-34.0060540740
20
-20.2084185182
30
0.0000000000
10
-34.0593704290
20
-20.2114468871
30
0.0000000000
10
-34.1041340308
20
-20.2166138297
30
0.0000000000
10
-34.1287719587
20
-20.2215885158
30
0.0000000000
10
-34.1460405304
20
-20.2279177797
30
0.0000000000
10
-34.1460405304
20
-20.2320347999
30
0.0000000000
11
-33.9460405304
21
-20.2076609312
31
0.0000000000
11
-34.0078439292
21
-20.2088538733
31
0.0000000000
11
-34.0635975808
21
-20.2123159259
31
0.0000000000
11
-34.1078439292
21
-20.2177081993
31
0.0000000000
11
-34.1362518336
21
-20.2245028603
31
0.0000000000
11
-34.1460405304
21
-20.2320347999
31
0.0000000000
0
SPLINE
5
35C
100
AcDbEntity
8
0
100
AcDbSpline
62
9
6
CONTINUOUS
70
0
71
3
72
14
73
10
74
8
42
0.0000001000
43
0.0000001000
44
0.0000000001
12
-0.4684996599
22
0.0000000000
32
0.0000000000
13
0.0000000000
23
-0.4684996599
33
0.0000000000
40
0.0000000000
40
0.0000000000
40
0.0000000000
40
0.0000000000
40
0.1429801384
40
0.2864216906
40
0.4297707220
40
0.5727717920
40
0.7156037551
40
0.8581718956
40
1.0000000000
40
1.0000000000
40
1.0000000000
40
1.0000000000
10
-33.6460405304
20
-19.9098970857
30
0.0000000000
10
-33.6683692458
20
-19.9098970857
30
0.0000000000
10
-33.7132572466
20
-19.9148922292
30
0.0000000000
10
-33.7771734359
20
-19.9370584585
30
0.0000000000
10
-33.8346225555
20
-19.9728554428
30
0.0000000000
10
-33.8825944191
20
-20.0204658119
30
0.0000000000
10
-33.9186670129
20
-20.0774919705
30
0.0000000000
10
-33.9410060069
20
-20.1409373951
30
0.0000000000
10
-33.9460405304
20
-20.1855121250
30
0.0000000000
10
-33.9460405304
20
-20.2076609312
30
0.0000000000
11
-33.6460405304
21
-19.9098970857
31
0.0000000000
11
-33.7126140504
21
-19.9173207107
31
0.0000000000
11
-33.7761071463
21
-19.9393383939
31
0.0000000000
11
-33.8330980413
21
-19.9748681768
31
0.0000000000
11
-33.8806407238
21
-20.0220714713
31
0.0000000000
11
-33.9164079055
21
-20.0786272574
31
0.0000000000
11
-33.9385728770
21
-20.1416354762
31
0.0000000000
11
-33.9460405304
21
-20.2076609312
31
0.0000000000
0
SPLINE
5
35D
100
AcDbEntity
8
0
100
AcDbSpline
62
9
6
CONTINUOUS
70
0
71
3
72
12
73
8
74
6
42
0.0000001000
43
0.0000001000
44
0.0000000001
12
0.2038099043
22
0.0000000214
32
0.0000000000
13
0.0000000000
23
-0.2038099043
33
0.0000000000
40
0.0000000000
40
0.0000000000
40
0.0000000000
40
0.0000000000
40
0.3032940626
40
0.5773774802
40
0.7960809731
40
0.9393983542
40
1.0000000000
40
1.0000000000
40
1.0000000000
40
1.0000000000
10
-22.3460405304
20
-20.2076609312
30
0.0000000000
10
-22.3254357524
20
-20.2076609291
30
0.0000000000
10
-22.2860274133
20
-20.2084185004
30
0.0000000000
10
-22.2327112160
20
-20.2114468364
30
0.0000000000
10
-22.1879474517
20
-20.2166137464
30
0.0000000000
10
-22.1633093523
20
-20.2215884566
30
0.0000000000
10
-22.1460405304
20
-20.2279177289
30
0.0000000000
10
-22.1460405304
20
-20.2320348008
30
0.0000000000
11
-22.3460405304
21
-20.2076609312
31
0.0000000000
11
-22.2842377082
21
-20.2088538451
31
0.0000000000
11
-22.2284841763
21
-20.2123158563
31
0.0000000000
11
-22.1842376000
21
-20.2177081130
31
0.0000000000
11
-22.1558293755
21
-20.2245027999
31
0.0000000000
11
-22.1460405304
21
-20.2320348008
31
0.0000000000
0
SPLINE
5
35E
100
AcDbEntity
8
0
100
AcDbSpline
62
9
6
CONTINUOUS
70
0
71
3
72
14
73
10
74
8
42
0.0000001000
43
0.0000001000
44
0.0000000001
12
0.0000000000
22
0.4684996562
32
0.0000000000
13
-0.4684996562
23
0.0000000000
33
0.0000000000
40
0.0000000000
40
0.0000000000
40
0.0000000000
40
0.0000000000
40
0.1419408598
40
0.2845451724
40
0.4274293057
40
0.5704307166
40
0.7137279670
40
0.8571333992
40
1.0000000000
40
1.0000000000
40
1.0000000000
40
1.0000000000
10
-22.3460405304
20
-20.2076609312
30
0.0000000000
10
-22.3460405304
20
-20.1854945165
30
0.0000000000
10
-22.3510819038
20
-20.1408962551
30
0.0000000000
10
-22.3734432789
20
-20.0774248225
30
0.0000000000
10
-22.4095409252
20
-20.0203974160
30
0.0000000000
10
-22.4575274008
20
-19.9728016241
30
0.0000000000
10
-22.5149751939
20
-19.9370295082
30
0.0000000000
10
-22.5788651861
20
-19.9148854509
30
0.0000000000
10
-22.6237295459
20
-19.9098970857
30
0.0000000000
10
-22.6460405304
20
-19.9098970857
30
0.0000000000
11
-22.3460405304
21
-20.2076609312
31
0.0000000000
11
-22.3535199055
21
-20.1415836401
31
0.0000000000
11
-22.3757029376
21
-20.0785638121
31
0.0000000000
11
-22.4114995430
21
-20.0219977186
31
0.0000000000
11
-22.4590573260
21
-19.9748094120
31
0.0000000000
11
-22.5160378362
21
-19.9393088334
31
0.0000000000
11
-22.5795192357
21
-19.9173090763
31
0.0000000000
11
-22.6460405304
21
-19.9098970857
31
0.0000000000
0
SPLINE
5
35F
100
AcDbEntity
8
0
100
AcDbSpline
62
9
6
CONTINUOUS
70
0
71
3
72
12
73
8
74
6
42
0.0000001000
43
0.0000001000
44
0.0000000001
12
0.2038099069
22
0.0000000000
32
0.0000000000
13
0.0000000000
23
-0.2038099069
33
0.0000000000
40
0.0000000000
40
0.0000000000
40
0.0000000000
40
0.0000000000
40
0.3032968905
40
0.5773809034
40
0.7960832936
40
0.9393991155
40
1.0000000000
40
1.0000000000
40
1.0000000000
40
1.0000000000
10
-22.3460405304
20
-23.6815724620
30
0.0000000000
10
-22.3254355600
20
-23.6815724620
30
0.0000000000
10
-22.2860269867
20
-23.6823300490
30
0.0000000000
10
-22.2327106317
20
-23.6853584178
30
0.0000000000
10
-22.1879470299
20
-23.6905253605
30
0.0000000000
10
-22.1633091020
20
-23.6955000465
30
0.0000000000
10
-22.1460405304
20
-23.7018293104
30
0.0000000000
10
-22.1460405304
20
-23.7059463306
30
0.0000000000
11
-22.3460405304
21
-23.6815724620
31
0.0000000000
11
-22.2842371315
21
-23.6827654040
31
0.0000000000
11
-22.2284834799
21
-23.6862274567
31
0.0000000000
11
-22.1842371315
21
-23.6916197301
31
0.0000000000
11
-22.1558292271
21
-23.6984143910
31
0.0000000000
11
-22.1460405304
21
-23.7059463306
31
0.0000000000
0
SPLINE
5
360
100
AcDbEntity
8
0
100
AcDbSpline
62
9
6
CONTINUOUS
70
0
71
3
72
9
73
5
74
3
42
0.0000001000
43
0.0000001000
44
0.0000000001
12
-0.0000000001
22
-0.1482080843
32
0.0000000000
13
0.0440901996
23
-0.1418354289
33
0.0000000000
40
0.0000000000
40
0.0000000000
40
0.0000000000
40
0.0000000000
40
0.7500324765
40
1.0000000000
40
1.0000000000
40
1.0000000000
40
1.0000000000
10
-34.1460405304
20
-23.7059463306
30
0.0000000000
10
-34.1460405304
20
-23.7429999561
30
0.0000000000
10
-34.1404172180
20
-23.7925837844
30
0.0000000000
10
-34.1274961794
20
-23.8404231110
30
0.0000000000
10
-34.1238224734
20
-23.8522411946
30
0.0000000000
11
-34.1460405304
21
-23.7059463306
31
0.0000000000
11
-34.1334998701
21
-23.8163975520
31
0.0000000000
11
-34.1238224734
21
-23.8522411946
31
0.0000000000
0
SPLINE
5
361
100
AcDbEntity
8
0
100
AcDbSpline
62
9
6
CONTINUOUS
70
0
71
3
72
13
73
9
74
7
42
0.0000001000
43
0.0000001000
44
0.0000000001
12
0.1881986571
22
-0.6054233706
32
0.0000000000
13
0.6326249979
23
0.0000000008
33
0.0000000000
40
0.0000000000
40
0.0000000000
40
0.0000000000
40
0.0000000000
40
0.1172230384
40
0.2933043090
40
0.4695402762
40
0.6461875887
40
0.8230077981
40
1.0000000000
40
1.0000000000
40
1.0000000000
40
1.0000000000
10
-34.1238224734
20
-23.8522411946
30
0.0000000000
10
-34.1164687340
20
-23.8758977170
30
0.0000000000
10
-34.0936188570
20
-23.9336832700
30
0.0000000000
10
-34.0401890489
20
-24.0180528141
30
0.0000000000
10
-33.9603412454
20
-24.0972738728
30
0.0000000000
10
-33.8647471755
20
-24.1568661777
30
0.0000000000
10
-33.7582401367
20
-24.1938602603
30
0.0000000000
10
-33.6833637608
20
-24.2022194065
30
0.0000000000
10
-33.6460405304
20
-24.2022194065
30
0.0000000000
11
-34.1238224734
21
-23.8522411946
31
0.0000000000
11
-34.0965229233
21
-23.9212753550
31
0.0000000000
11
-34.0369365517
21
-24.0153920744
31
0.0000000000
11
-33.9578054807
21
-24.0939323747
31
0.0000000000
11
-33.8629849264
21
-24.1530717143
31
0.0000000000
11
-33.7573163448
21
-24.1897733272
31
0.0000000000
11
-33.6460405304
21
-24.2022194065
31
0.0000000000
0
SPLINE
5
362
100
AcDbEntity
8
0
100
AcDbSpline
62
9
6
CONTINUOUS
70
0
71
3
72
14
73
10
74
8
42
0.0000001000
43
0.0000001000
44
0.0000000001
12
0.7808330826
22
-0.0000000007
32
0.0000000000
13
-0.0000000010
23
0.7808330826
33
0.0000000000
40
0.0000000000
40
0.0000000000
40
0.0000000000
40
0.0000000000
40
0.1434040933
40
0.2866585272
40
0.4297820070
40
0.5725670284
40
0.7152215533
40
0.8576444257
40
1.0000000000
40
1.0000000000
40
1.0000000000
40
1.0000000000
10
-22.6460405304
20
-24.2022194065
30
0.0000000000
10
-22.6087156436
20
-24.2022194065
30
0.0000000000
10
-22.5338386005
20
-24.1938598063
30
0.0000000000
10
-22.4273300080
20
-24.1568643637
30
0.0000000000
10
-22.3317360581
20
-24.0972710995
30
0.0000000000
10
-22.2518892109
20
-24.0180490803
30
0.0000000000
10
-22.1917966061
20
-23.9231568454
30
0.0000000000
10
-22.1544770955
20
-23.8173915161
30
0.0000000000
10
-22.1460405303
20
-23.7429983113
30
0.0000000000
10
-22.1460405304
20
-23.7059463306
30
0.0000000000
11
-22.6460405304
21
-24.2022194065
31
0.0000000000
11
-22.5347598396
21
-24.1897722223
31
0.0000000000
11
-22.4290944226
21
-24.1530708961
31
0.0000000000
11
-22.3342709031
21
-24.0939286723
31
0.0000000000
11
-22.2551407789
21
-24.0153874323
31
0.0000000000
11
-22.1955573131
21
-23.9212736560
31
0.0000000000
11
-22.1585800775
21
-23.8163927121
31
0.0000000000
11
-22.1460405304
21
-23.7059463306
31
0.0000000000
0
SPLINE
5
363
100
AcDbEntity
8
0
100
AcDbSpline
62
9
6
CONTINUOUS
70
0
71
3
72
14
73
10
74
8
42
0.0000001000
43
0.0000001000
44
0.0000000001
12
0.4684996599
22
0.0000000000
32
0.0000000000
13
0.0000000000
23
0.4684996599
33
0.0000000000
40
0.0000000000
40
0.0000000000
40
0.0000000000
40
0.0000000000
40
0.1429801384
40
0.2864216906
40
0.4297707220
40
0.5727717920
40
0.7156037551
40
0.8581718956
40
1.0000000000
40
1.0000000000
40
1.0000000000
40
1.0000000000
10
-22.6460405304
20
-23.9793363074
30
0.0000000000
10
-22.6237118150
20
-23.9793363074
30
0.0000000000
10
-22.5788238141
20
-23.9743411640
30
0.0000000000
10
-22.5149076248
20
-23.9521749346
30
0.0000000000
10
-22.4574585052
20
-23.9163779504
30
0.0000000000
10
-22.4094866416
20
-23.8687675813
30
0.0000000000
10
-22.3734140478
20
-23.8117414227
30
0.0000000000
10
-22.3510750538
20
-23.7482959981
30
0.0000000000
10
-22.3460405304
20
-23.7037212682
30
0.0000000000
10
-22.3460405304
20
-23.6815724620
30
0.0000000000
11
-22.6460405304
21
-23.9793363074
31
0.0000000000
11
-22.5794670103
21
-23.9719126824
31
0.0000000000
11
-22.5159739144
21
-23.9498949993
31
0.0000000000
11
-22.4589830194
21
-23.9143652164
31
0.0000000000
11
-22.4114403369
21
-23.8671619219
31
0.0000000000
11
-22.3756731552
21
-23.8106061357
31
0.0000000000
11
-22.3535081837
21
-23.7475979169
31
0.0000000000
11
-22.3460405304
21
-23.6815724620
31
0.0000000000
0
SPLINE
5
364
100
AcDbEntity
8
0
100
AcDbSpline
62
7
6
CONTINUOUS
70
0
71
3
72
8
73
4
74
2
42
0.0000001000
43
0.0000001000
44
0.0000000001
12
-0.0075525187
22
-0.0102005123
32
0.0000000000
13
-0.0072930618
23
-0.0103878724
33
0.0000000000
40
0.0000000000
40
0.0000000000
40
0.0000000000
40
0.0000000000
40
1.0000000000
40
1.0000000000
40
1.0000000000
40
1.0000000000
10
-16.6757683420
20
11.8429331856
30
0.0000000000
10
-16.6782858482
20
11.8395330148
30
0.0000000000
10
-16.6807606093
20
11.8361008904
30
0.0000000000
10
-16.6831916299
20
11.8326382663
30
0.0000000000
11
-16.6757683420
21
11.8429331856
31
0.0000000000
11
-16.6831916299
21
11.8326382663
31
0.0000000000
0
SPLINE
5
365
100
AcDbEntity
8
0
100
AcDbSpline
62
7
6
CONTINUOUS
70
0
71
3
72
8
73
4
74
2
42
0.0000001000
43
0.0000001000
44
0.0000000001
12
-0.0149909238
22
-0.0213523220
32
0.0000000000
13
-0.0138561463
23
-0.0220876286
33
0.0000000000
40
0.0000000000
40
0.0000000000
40
0.0000000000
40
0.0000000000
40
1.0000000000
40
1.0000000000
40
1.0000000000
40
1.0000000000
10
-16.6831916299
20
11.8326382663
30
0.0000000000
10
-16.6881886045
20
11.8255208256
30
0.0000000000
10
-16.6930007713
20
11.8182745205
30
0.0000000000
10
-16.6976194867
20
11.8109119776
30
0.0000000000
11
-16.6831916299
21
11.8326382663
31
0.0000000000
11
-16.6976194867
21
11.8109119776
31
0.0000000000
0
SPLINE
5
366
100
AcDbEntity
8
0
100
AcDbSpline
62
7
6
CONTINUOUS
70
0
71
3
72
8
73
4
74
2
42
0.0000001000
43
0.0000001000
44
0.0000000001
12
-0.0135898004
22
-0.0216630554
32
0.0000000000
13
-0.0124614911
23
-0.0223180622
33
0.0000000000
40
0.0000000000
40
0.0000000000
40
0.0000000000
40
0.0000000000
40
1.0000000000
40
1.0000000000
40
1.0000000000
40
1.0000000000
10
-16.6976194867
20
11.8109119776
30
0.0000000000
10
-16.7021494202
20
11.8036909591
30
0.0000000000
10
-16.7064932679
20
11.7963581286
30
0.0000000000
10
-16.7106470983
20
11.7889187746
30
0.0000000000
11
-16.6976194867
21
11.8109119776
31
0.0000000000
11
-16.7106470983
21
11.7889187746
31
0.0000000000
0
SPLINE
5
367
100
AcDbEntity
8
0
100
AcDbSpline
62
7
6
CONTINUOUS
70
0
71
3
72
8
73
4
74
2
42
0.0000001000
43
0.0000001000
44
0.0000000001
12
-0.0237533673
22
-0.0425413882
32
0.0000000000
13
-0.0195292505
23
-0.0447537508
33
0.0000000000
40
0.0000000000
40
0.0000000000
40
0.0000000000
40
0.0000000000
40
1.0000000000
40
1.0000000000
40
1.0000000000
40
1.0000000000
10
-16.7106470983
20
11.7889187746
30
0.0000000000
10
-16.7185648874
20
11.7747383118
30
0.0000000000
10
-16.7257922718
20
11.7601708089
30
0.0000000000
10
-16.7323020220
20
11.7452528919
30
0.0000000000
11
-16.7106470983
21
11.7889187746
31
0.0000000000
11
-16.7323020220
21
11.7452528919
31
0.0000000000
0
SPLINE
5
368
100
AcDbEntity
8
0
100
AcDbSpline
62
7
6
CONTINUOUS
70
0
71
3
72
8
73
4
74
2
42
0.0000001000
43
0.0000001000
44
0.0000000001
12
-0.0178097960
22
-0.0408134029
32
0.0000000000
13
-0.0141442214
23
-0.0420948729
33
0.0000000000
40
0.0000000000
40
0.0000000000
40
0.0000000000
40
0.0000000000
40
1.0000000000
40
1.0000000000
40
1.0000000000
40
1.0000000000
10
-16.7323020220
20
11.7452528919
30
0.0000000000
10
-16.7382386207
20
11.7316484243
30
0.0000000000
10
-16.7435783903
20
11.7177525307
30
0.0000000000
10
-16.7482931308
20
11.7037209064
30
0.0000000000
11
-16.7323020220
21
11.7452528919
31
0.0000000000
11
-16.7482931308
21
11.7037209064
31
0.0000000000
0
SPLINE
5
369
100
AcDbEntity
8
0
100
AcDbSpline
62
7
6
CONTINUOUS
70
0
71
3
72
13
73
9
74
7
42
0.0000001000
43
0.0000001000
44
0.0000000001
12
-0.0424090834
22
-0.1262144390
32
0.0000000000
13
0.0045030030
23
0.0205588229
33
0.0000000000
40
0.0000000000
40
0.0000000000
40
0.0000000000
40
0.0000000000
40
0.1531555803
40
0.5480987348
40
0.8174512661
40
0.9543910381
40
0.9852169775
40
1.0000000000
40
1.0000000000
40
1.0000000000
40
1.0000000000
10
-16.7482931308
20
11.7037209064
30
0.0000000000
10
-16.7504581934
20
11.6972774246
30
0.0000000000
10
-16.7577346306
20
11.6741156692
30
0.0000000000
10
-16.7660172065
20
11.6393127887
30
0.0000000000
10
-16.7715177086
20
11.6023867753
30
0.0000000000
10
-16.7733096073
20
11.5856590672
30
0.0000000000
10
-16.7744481393
20
11.5753429177
30
0.0000000000
10
-16.7744550217
20
11.5750441319
30
0.0000000000
10
-16.7744328324
20
11.5751454391
30
0.0000000000
11
-16.7482931308
21
11.7037209064
31
0.0000000000
11
-16.7543901785
21
11.6843196710
31
0.0000000000
11
-16.7665225668
21
11.6331412716
31
0.0000000000
11
-16.7719328638
21
11.5976804336
31
0.0000000000
11
-16.7739835322
21
11.5795590549
31
0.0000000000
11
-16.7744213990
21
11.5754772095
31
0.0000000000
11
-16.7744328324
21
11.5751454391
31
0.0000000000
0
SPLINE
5
36A
100
AcDbEntity
8
0
100
AcDbSpline
62
7
6
CONTINUOUS
70
0
71
3
72
10
73
6
74
4
42
0.0000001000
43
0.0000001000
44
0.0000000001
12
-0.0130356303
22
-0.0177691805
32
0.0000000000
13
-0.0132060348
23
-0.0176429051
33
0.0000000000
40
0.0000000000
40
0.0000000000
40
0.0000000000
40
0.0000000000
40
0.2868072671
40
0.7153802109
40
1.0000000000
40
1.0000000000
40
1.0000000000
40
1.0000000000
10
-16.6602997573
20
11.8637950589
30
0.0000000000
10
-16.6615459951
20
11.8620962822
30
0.0000000000
10
-16.6646602721
20
11.8578632965
30
0.0000000000
10
-16.6690338657
20
11.8519611442
30
0.0000000000
10
-16.6721675562
20
11.8477625451
30
0.0000000000
10
-16.6734204558
20
11.8460887051
30
0.0000000000
11
-16.6602997573
21
11.8637950589
31
0.0000000000
11
-16.6640454526
21
11.8587038604
31
0.0000000000
11
-16.6696686855
21
11.8511154010
31
0.0000000000
11
-16.6734204558
21
11.8460887051
31
0.0000000000
0
SPLINE
5
36B
100
AcDbEntity
8
0
100
AcDbSpline
62
7
6
CONTINUOUS
70
0
71
3
72
8
73
4
74
2
42
0.0000001000
43
0.0000001000
44
0.0000000001
12
-0.0006614598
22
-0.0008836923
32
0.0000000000
13
-0.0006618894
23
-0.0008833706
33
0.0000000000
40
0.0000000000
40
0.0000000000
40
0.0000000000
40
0.0000000000
40
1.0000000000
40
1.0000000000
40
1.0000000000
40
1.0000000000
10
-16.6734204558
20
11.8460887051
30
0.0000000000
10
-16.6736409424
20
11.8457941410
30
0.0000000000
10
-16.6738615006
20
11.8454996305
30
0.0000000000
10
-16.6740821304
20
11.8452051736
30
0.0000000000
11
-16.6734204558
21
11.8460887051
31
0.0000000000
11
-16.6740821304
21
11.8452051736
31
0.0000000000
0
SPLINE
5
36C
100
AcDbEntity
8
0
100
AcDbSpline
62
7
6
CONTINUOUS
70
0
71
3
72
8
73
4
74
2
42
0.0000001000
43
0.0000001000
44
0.0000000001
12
0.0201707119
22
0.0267771963
32
0.0000000000
13
0.0219234263
23
0.0253693425
33
0.0000000000
40
0.0000000000
40
0.0000000000
40
0.0000000000
40
0.0000000000
40
1.0000000000
40
1.0000000000
40
1.0000000000
40
1.0000000000
10
-16.6558979756
20
11.8697270605
30
0.0000000000
10
-16.6491744050
20
11.8786527925
30
0.0000000000
10
-16.6421505394
20
11.8873529739
30
0.0000000000
10
-16.6348427306
20
11.8958094214
30
0.0000000000
11
-16.6558979756
21
11.8697270605
31
0.0000000000
11
-16.6348427306
21
11.8958094214
31
0.0000000000
0
SPLINE
5
36D
100
AcDbEntity
8
0
100
AcDbSpline
62
7
6
CONTINUOUS
70
0
71
3
72
8
73
4
74
2
42
0.0000001000
43
0.0000001000
44
0.0000000001
12
0.0332672053
22
0.0384961325
32
0.0000000000
13
0.0370186268
23
0.0349382303
33
0.0000000000
40
0.0000000000
40
0.0000000000
40
0.0000000000
40
0.0000000000
40
1.0000000000
40
1.0000000000
40
1.0000000000
40
1.0000000000
10
-16.6348427306
20
11.8958094214
30
0.0000000000
10
-16.6237536622
20
11.9086414655
30
0.0000000000
10
-16.6120107903
20
11.9209122918
30
0.0000000000
10
-16.5996712480
20
11.9325583686
30
0.0000000000
11
-16.6348427306
21
11.8958094214
31
0.0000000000
11
-16.5996712480
21
11.9325583686
31
0.0000000000
0
SPLINE
5
36E
100
AcDbEntity
8
0
100
AcDbSpline
62
7
6
CONTINUOUS
70
0
71
3
72
9
73
5
74
3
42
0.0000001000
43
0.0000001000
44
0.0000000001
12
0.1045703474
22
0.0986936360
32
0.0000000000
13
0.1282771693
23
0.0649404797
33
0.0000000000
40
0.0000000000
40
0.0000000000
40
0.0000000000
40
0.0000000000
40
0.3537961455
40
1.0000000000
40
1.0000000000
40
1.0000000000
40
1.0000000000
10
-16.5996712480
20
11.9325583686
30
0.0000000000
10
-16.5873390527
20
11.9441975112
30
0.0000000000
10
-16.5507977973
20
11.9753316462
30
0.0000000000
10
-16.5099510251
20
12.0009739342
30
0.0000000000
10
-16.4823199580
20
12.0149621970
30
0.0000000000
11
-16.5996712480
21
11.9325583686
31
0.0000000000
11
-16.5609438131
21
11.9655403612
31
0.0000000000
11
-16.4823199580
21
12.0149621970
31
0.0000000000
0
SPLINE
5
36F
100
AcDbEntity
8
0
100
AcDbSpline
62
7
6
CONTINUOUS
70
0
71
3
72
8
73
4
74
2
42
0.0000001000
43
0.0000001000
44
0.0000000001
12
0.0458767166
22
0.0222263650
32
0.0000000000
13
0.0477356119
23
0.0173664327
33
0.0000000000
40
0.0000000000
40
0.0000000000
40
0.0000000000
40
0.0000000000
40
1.0000000000
40
1.0000000000
40
1.0000000000
40
1.0000000000
10
-16.4744502011
20
12.0188602566
30
0.0000000000
10
-16.4591579622
20
12.0262690449
30
0.0000000000
10
-16.4435094216
20
12.0328917089
30
0.0000000000
10
-16.4275975510
20
12.0386805199
30
0.0000000000
11
-16.4744502011
21
12.0188602566
31
0.0000000000
11
-16.4275975510
21
12.0386805199
31
0.0000000000
0
SPLINE
5
370
100
AcDbEntity
8
0
100
AcDbSpline
62
7
6
CONTINUOUS
70
0
71
3
72
8
73
4
74
2
42
0.0000001000
43
0.0000001000
44
0.0000000001
12
-0.0565625410
22
-0.0205610885
32
0.0000000000
13
-0.0536753211
23
-0.0271768514
33
0.0000000000
40
0.0000000000
40
0.0000000000
40
0.0000000000
40
0.0000000000
40
1.0000000000
40
1.0000000000
40
1.0000000000
40
1.0000000000
10
-16.4271749721
20
12.0389689682
30
0.0000000000
10
-16.4460291525
20
12.0321152721
30
0.0000000000
10
-16.4644845186
20
12.0241324249
30
0.0000000000
10
-16.4823762923
20
12.0150734745
30
0.0000000000
11
-16.4271749721
21
12.0389689682
31
0.0000000000
11
-16.4823762923
21
12.0150734745
31
0.0000000000
0
SPLINE
5
371
100
AcDbEntity
8
0
100
AcDbSpline
62
7
6
CONTINUOUS
70
0
71
3
72
9
73
5
74
3
42
0.0000001000
43
0.0000001000
44
0.0000000001
12
-0.1720897309
22
-0.0871323533
32
0.0000000000
13
-0.1266777260
23
-0.1455645510
33
0.0000000000
40
0.0000000000
40
0.0000000000
40
0.0000000000
40
0.0000000000
40
0.7507530377
40
1.0000000000
40
1.0000000000
40
1.0000000000
40
1.0000000000
10
-16.4823762923
20
12.0150734745
30
0.0000000000
10
-16.5254419218
20
11.9932685149
30
0.0000000000
10
-16.5784558300
20
11.9559199317
30
0.0000000000
10
-16.6230055269
20
11.9094028372
30
0.0000000000
10
-16.6335302064
20
11.8973089965
30
0.0000000000
11
-16.4823762923
21
12.0150734745
31
0.0000000000
11
-16.6002719426
21
11.9320217411
31
0.0000000000
11
-16.6335302064
21
11.8973089965
31
0.0000000000
0
SPLINE
5
372
100
AcDbEntity
8
0
100
AcDbSpline
62
7
6
CONTINUOUS
70
0
71
3
72
8
73
4
74
2
42
0.0000001000
43
0.0000001000
44
0.0000000001
12
-0.0233244981
22
-0.0268020291
32
0.0000000000
13
-0.0213635048
23
-0.0283532021
33
0.0000000000
40
0.0000000000
40
0.0000000000
40
0.0000000000
40
0.0000000000
40
1.0000000000
40
1.0000000000
40
1.0000000000
40
1.0000000000
10
-16.6335302064
20
11.8973089965
30
0.0000000000
10
-16.6413050391
20
11.8883749868
30
0.0000000000
10
-16.6487637964
20
11.8791683409
30
0.0000000000
10
-16.6558849646
20
11.8697172735
30
0.0000000000
11
-16.6335302064
21
11.8973089965
31
0.0000000000
11
-16.6558849646
21
11.8697172735
31
0.0000000000
0
SPLINE
5
373
100
AcDbEntity
8
0
100
AcDbSpline
62
7
6
CONTINUOUS
70
0
71
3
72
8
73
4
74
2
42
0.0000001000
43
0.0000001000
44
0.0000000001
12
-0.0066406165
22
0.0146717855
32
0.0000000000
13
-0.0061639775
23
0.0148773127
33
0.0000000000
40
0.0000000000
40
0.0000000000
40
0.0000000000
40
0.0000000000
40
1.0000000000
40
1.0000000000
40
1.0000000000
40
1.0000000000
10
-16.7515538106
20
-32.4837905686
30
0.0000000000
10
-16.7537673495
20
-32.4788999735
30
0.0000000000
10
-16.7559021056
20
-32.4739738772
30
0.0000000000
10
-16.7579567648
20
-32.4690147729
30
0.0000000000
11
-16.7515538106
21
-32.4837905686
31
0.0000000000
11
-16.7579567648
21
-32.4690147729
31
0.0000000000
0
SPLINE
5
374
100
AcDbEntity
8
0
100
AcDbSpline
62
7
6
CONTINUOUS
70
0
71
3
72
8
73
4
74
2
42
0.0000001000
43
0.0000001000
44
0.0000000001
12
-0.0110825618
22
0.0267487573
32
0.0000000000
13
-0.0095148613
23
0.0273448477
33
0.0000000000
40
0.0000000000
40
0.0000000000
40
0.0000000000
40
0.0000000000
40
1.0000000000
40
1.0000000000
40
1.0000000000
40
1.0000000000
10
-16.7579567648
20
-32.4690147729
30
0.0000000000
10
-16.7616509521
20
-32.4600985205
30
0.0000000000
10
-16.7650862142
20
-32.4510755650
30
0.0000000000
10
-16.7682578346
20
-32.4419606157
30
0.0000000000
11
-16.7579567648
21
-32.4690147729
31
0.0000000000
11
-16.7682578346
21
-32.4419606157
31
0.0000000000
0
SPLINE
5
375
100
AcDbEntity
8
0
100
AcDbSpline
62
7
6
CONTINUOUS
70
0
71
3
72
9
73
5
74
3
42
0.0000001000
43
0.0000001000
44
0.0000000001
12
-0.0349646136
22
0.0472049272
32
0.0000000000
13
-0.0291833820
23
0.0509949247
33
0.0000000000
40
0.0000000000
40
0.0000000000
40
0.0000000000
40
0.0000000000
40
0.1150315201
40
1.0000000000
40
1.0000000000
40
1.0000000000
40
1.0000000000
10
-16.6757464178
20
-32.6335175026
30
0.0000000000
10
-16.6770870954
20
-32.6317074845
30
0.0000000000
10
-16.6886350854
20
-32.6158934399
30
0.0000000000
10
-16.6992436262
20
-32.5994031235
30
0.0000000000
10
-16.7078524173
20
-32.5843601565
30
0.0000000000
11
-16.6757464178
21
-32.6335175026
31
0.0000000000
11
-16.6797314300
21
-32.6280603087
31
0.0000000000
11
-16.7078524173
21
-32.5843601565
31
0.0000000000
0
SPLINE
5
376
100
AcDbEntity
8
0
100
AcDbSpline
62
7
6
CONTINUOUS
70
0
71
3
72
8
73
4
74
2
42
0.0000001000
43
0.0000001000
44
0.0000000001
12
-0.0258176232
22
0.0451136113
32
0.0000000000
13
-0.0210132687
23
0.0475691331
33
0.0000000000
40
0.0000000000
40
0.0000000000
40
0.0000000000
40
0.0000000000
40
1.0000000000
40
1.0000000000
40
1.0000000000
40
1.0000000000
10
-16.7078524173
20
-32.5843601565
30
0.0000000000
10
-16.7164582917
20
-32.5693222861
30
0.0000000000
10
-16.7242852609
20
-32.5538351634
30
0.0000000000
10
-16.7312896838
20
-32.5379787858
30
0.0000000000
11
-16.7078524173
21
-32.5843601565
31
0.0000000000
11
-16.7312896838
21
-32.5379787858
31
0.0000000000
0
SPLINE
5
377
100
AcDbEntity
8
0
100
AcDbSpline
62
7
6
CONTINUOUS
70
0
71
3
72
8
73
4
74
2
42
0.0000001000
43
0.0000001000
44
0.0000000001
12
-0.0210003890
22
0.0475399765
32
0.0000000000
13
-0.0159404762
23
0.0495132413
33
0.0000000000
40
0.0000000000
40
0.0000000000
40
0.0000000000
40
0.0000000000
40
1.0000000000
40
1.0000000000
40
1.0000000000
40
1.0000000000
10
-16.7312896838
20
-32.5379787858
30
0.0000000000
10
-16.7382898135
20
-32.5221321269
30
0.0000000000
10
-16.7444684049
20
-32.5059166655
30
0.0000000000
10
-16.7497818970
20
-32.4894122518
30
0.0000000000
11
-16.7312896838
21
-32.5379787858
31
0.0000000000
11
-16.7497818970
21
-32.4894122518
31
0.0000000000
0
SPLINE
5
378
100
AcDbEntity
8
0
100
AcDbSpline
62
7
6
CONTINUOUS
70
0
71
3
72
8
73
4
74
2
42
0.0000001000
43
0.0000001000
44
0.0000000001
12
-0.0150621550
22
0.0467850586
32
0.0000000000
13
-0.0103921706
23
0.0480554101
33
0.0000000000
40
0.0000000000
40
0.0000000000
40
0.0000000000
40
0.0000000000
40
1.0000000000
40
1.0000000000
40
1.0000000000
40
1.0000000000
10
-16.7497818970
20
-32.4894122518
30
0.0000000000
10
-16.7548026153
20
-32.4738172323
30
0.0000000000
10
-16.7590509419
20
-32.4579642257
30
0.0000000000
10
-16.7625149988
20
-32.4419457556
30
0.0000000000
11
-16.7497818970
21
-32.4894122518
31
0.0000000000
11
-16.7625149988
21
-32.4419457556
31
0.0000000000
0
SPLINE
5
379
100
AcDbEntity
8
0
100
AcDbSpline
62
7
6
CONTINUOUS
70
0
71
3
72
9
73
5
74
3
42
0.0000001000
43
0.0000001000
44
0.0000000001
12
0.0122987807
22
-0.0563317639
32
0.0000000000
13
0.0179309811
23
-0.0525674209
33
0.0000000000
40
0.0000000000
40
0.0000000000
40
0.0000000000
40
0.0000000000
40
0.0594323106
40
1.0000000000
40
1.0000000000
40
1.0000000000
40
1.0000000000
10
-16.7628133453
20
-32.4419268688
30
0.0000000000
10
-16.7625696969
20
-32.4430428444
30
0.0000000000
10
-16.7584155386
20
-32.4617779948
30
0.0000000000
10
-16.7533844578
20
-32.4794024612
30
0.0000000000
10
-16.7477626906
20
-32.4958835337
30
0.0000000000
11
-16.7628133453
21
-32.4419268688
31
0.0000000000
11
-16.7620728170
21
-32.4452658678
31
0.0000000000
11
-16.7477626906
21
-32.4958835337
31
0.0000000000
0
SPLINE
5
37A
100
AcDbEntity
8
0
100
AcDbSpline
62
7
6
CONTINUOUS
70
0
71
3
72
8
73
4
74
2
42
0.0000001000
43
0.0000001000
44
0.0000000001
12
0.0062859970
22
-0.0184283642
32
0.0000000000
13
0.0070185897
23
-0.0183010009
33
0.0000000000
40
0.0000000000
40
0.0000000000
40
0.0000000000
40
0.0000000000
40
1.0000000000
40
1.0000000000
40
1.0000000000
40
1.0000000000
10
-16.7477626906
20
-32.4958835337
30
0.0000000000
10
-16.7456673583
20
-32.5020263218
30
0.0000000000
10
-16.7434484308
20
-32.5081557833
30
0.0000000000
10
-16.7411089009
20
-32.5142561169
30
0.0000000000
11
-16.7477626906
21
-32.4958835337
31
0.0000000000
11
-16.7411089009
21
-32.5142561169
31
0.0000000000
0
SPLINE
5
37B
100
AcDbEntity
8
0
100
AcDbSpline
62
7
6
CONTINUOUS
70
0
71
3
72
8
73
4
74
2
42
0.0000001000
43
0.0000001000
44
0.0000000001
12
0.0073250793
22
-0.0191001738
32
0.0000000000
13
0.0081030653
23
-0.0188559209
33
0.0000000000
40
0.0000000000
40
0.0000000000
40
0.0000000000
40
0.0000000000
40
1.0000000000
40
1.0000000000
40
1.0000000000
40
1.0000000000
10
-16.7411089009
20
-32.5142561169
30
0.0000000000
10
-16.7386672078
20
-32.5206228415
30
0.0000000000
10
-16.7360941493
20
-32.5269578388
30
0.0000000000
10
-16.7333931276
20
-32.5332431457
30
0.0000000000
11
-16.7411089009
21
-32.5142561169
31
0.0000000000
11
-16.7333931276
21
-32.5332431457
31
0.0000000000
0
SPLINE
5
37C
100
AcDbEntity
8
0
100
AcDbSpline
62
7
6
CONTINUOUS
70
0
71
3
72
10
73
6
74
4
42
0.0000001000
43
0.0000001000
44
0.0000000001
12
0.0458518763
22
-0.1066978141
32
0.0000000000
13
0.0689836060
23
-0.0931479225
33
0.0000000000
40
0.0000000000
40
0.0000000000
40
0.0000000000
40
0.0000000000
40
0.1810861704
40
0.7500018568
40
1.0000000000
40
1.0000000000
40
1.0000000000
40
1.0000000000
10
-16.7333931276
20
-32.5332431457
30
0.0000000000
10
-16.7306254140
20
-32.5396836452
30
0.0000000000
10
-16.7186059380
20
-32.5661420747
30
0.0000000000
10
-16.6995907241
20
-32.5997845654
30
0.0000000000
10
-16.6814921784
20
-32.6257531372
30
0.0000000000
10
-16.6757435873
20
-32.6335154064
30
0.0000000000
11
-16.7333931276
21
-32.5332431457
31
0.0000000000
11
-16.7246905660
21
-32.5523887942
31
0.0000000000
11
-16.6923069517
21
-32.6097503470
31
0.0000000000
11
-16.6757435873
21
-32.6335154064
31
0.0000000000
0
SPLINE
5
37D
100
AcDbEntity
8
0
100
AcDbSpline
62
7
6
CONTINUOUS
70
0
71
3
72
8
73
4
74
2
42
0.0000001000
43
0.0000001000
44
0.0000000001
12
-0.0064409981
22
0.0087855876
32
0.0000000000
13
-0.0062470563
23
0.0089243961
33
0.0000000000
40
0.0000000000
40
0.0000000000
40
0.0000000000
40
0.0000000000
40
1.0000000000
40
1.0000000000
40
1.0000000000
40
1.0000000000
10
-16.6597566818
20
-32.6550808726
30
0.0000000000
10
-16.6619036811
20
-32.6521523434
30
0.0000000000
10
-16.6640186374
20
-32.6492003675
30
0.0000000000
10
-16.6661009895
20
-32.6462255688
30
0.0000000000
11
-16.6597566818
21
-32.6550808726
31
0.0000000000
11
-16.6661009895
21
-32.6462255688
31
0.0000000000
0
SPLINE
5
37E
100
AcDbEntity
8
0
100
AcDbSpline
62
7
6
CONTINUOUS
70
0
71
3
72
9
73
5
74
3
42
0.0000001000
43
0.0000001000
44
0.0000000001
12
-0.1274500738
22
0.1820721447
32
0.0000000000
13
-0.0366545073
23
0.2195179961
33
0.0000000000
40
0.0000000000
40
0.0000000000
40
0.0000000000
40
0.0000000000
40
0.6866019779
40
1.0000000000
40
1.0000000000
40
1.0000000000
40
1.0000000000
10
-16.6661009895
20
-32.6462255688
30
0.0000000000
10
-16.6952701471
20
-32.6045552039
30
0.0000000000
10
-16.7284358280
20
-32.5373421587
30
0.0000000000
10
-16.7457331107
20
-32.4649487330
30
0.0000000000
10
-16.7495622607
20
-32.4420165644
30
0.0000000000
11
-16.6661009895
21
-32.6462255688
31
0.0000000000
11
-16.7333326749
21
-32.5098158376
31
0.0000000000
11
-16.7495622607
21
-32.4420165644
31
0.0000000000
0
SPLINE
5
37F
100
AcDbEntity
8
0
100
AcDbSpline
62
7
6
CONTINUOUS
70
0
71
3
72
10
73
6
74
4
42
0.0000001000
43
0.0000001000
44
0.0000000001
12
0.0144263187
22
-0.0192536621
32
0.0000000000
13
0.0142232229
23
-0.0194041755
33
0.0000000000
40
0.0000000000
40
0.0000000000
40
0.0000000000
40
0.0000000000
40
0.3065675675
40
0.6991406423
40
1.0000000000
40
1.0000000000
40
1.0000000000
40
1.0000000000
10
-16.6740817008
20
-32.6357518589
30
0.0000000000
10
-16.6726074870
20
-32.6377193750
30
0.0000000000
10
-16.6692527708
20
-32.6422118444
30
0.0000000000
10
-16.6644781411
20
-32.6486551940
30
0.0000000000
10
-16.6611835009
20
-32.6531352065
30
0.0000000000
10
-16.6597571043
20
-32.6550811824
30
0.0000000000
11
-16.6740817008
21
-32.6357518589
31
0.0000000000
11
-16.6696686423
21
-32.6416615710
31
0.0000000000
11
-16.6640454479
21
-32.6492499787
31
0.0000000000
11
-16.6597571043
21
-32.6550811824
31
0.0000000000
0
SPLINE
5
380
100
AcDbEntity
8
0
100
AcDbSpline
62
7
6
CONTINUOUS
70
0
71
3
72
8
73
4
74
2
42
0.0000001000
43
0.0000001000
44
0.0000000001
12
0.0226094846
22
-0.0298750238
32
0.0000000000
13
0.0247871593
23
-0.0281396771
33
0.0000000000
40
0.0000000000
40
0.0000000000
40
0.0000000000
40
0.0000000000
40
1.0000000000
40
1.0000000000
40
1.0000000000
40
1.0000000000
10
-16.6552507156
20
-32.6610963708
30
0.0000000000
10
-16.6477142207
20
-32.6710547121
30
0.0000000000
10
-16.6398020537
20
-32.6807403472
30
0.0000000000
10
-16.6315396673
20
-32.6901202396
30
0.0000000000
11
-16.6552507156
21
-32.6610963708
31
0.0000000000
11
-16.6315396673
21
-32.6901202396
31
0.0000000000
0
SPLINE
5
381
100
AcDbEntity
8
0
100
AcDbSpline
62
7
6
CONTINUOUS
70
0
71
3
72
8
73
4
74
2
42
0.0000001000
43
0.0000001000
44
0.0000000001
12
0.0322228083
22
-0.0365810140
32
0.0000000000
13
0.0356061717
23
-0.0332631435
33
0.0000000000
40
0.0000000000
40
0.0000000000
40
0.0000000000
40
0.0000000000
40
1.0000000000
40
1.0000000000
40
1.0000000000
40
1.0000000000
10
-16.6315396673
20
-32.6901202396
30
0.0000000000
10
-16.6207987312
20
-32.7023139109
30
0.0000000000
10
-16.6094659426
20
-32.7139908929
30
0.0000000000
10
-16.5975972187
20
-32.7250786074
30
0.0000000000
11
-16.6315396673
21
-32.6901202396
31
0.0000000000
11
-16.5975972187
21
-32.7250786074
31
0.0000000000
0
SPLINE
5
382
100
AcDbEntity
8
0
100
AcDbSpline
62
7
6
CONTINUOUS
70
0
71
3
72
8
73
4
74
2
42
0.0000001000
43
0.0000001000
44
0.0000000001
12
0.1072772118
22
-0.1002179432
32
0.0000000000
13
0.1317277765
23
-0.0648302119
33
0.0000000000
40
0.0000000000
40
0.0000000000
40
0.0000000000
40
0.0000000000
40
1.0000000000
40
1.0000000000
40
1.0000000000
40
1.0000000000
10
-16.5975972187
20
-32.7250786074
30
0.0000000000
10
-16.5618381481
20
-32.7584845885
30
0.0000000000
10
-16.5212141454
20
-32.7865415166
30
0.0000000000
10
-16.4773048865
20
-32.8081515873
30
0.0000000000
11
-16.5975972187
21
-32.7250786074
31
0.0000000000
11
-16.4773048865
21
-32.8081515873
31
0.0000000000
0
SPLINE
5
383
100
AcDbEntity
8
0
100
AcDbSpline
62
7
6
CONTINUOUS
70
0
71
3
72
8
73
4
74
2
42
0.0000001000
43
0.0000001000
44
0.0000000001
12
0.0489042321
22
-0.0240683614
32
0.0000000000
13
0.0512519085
23
-0.0186237181
33
0.0000000000
40
0.0000000000
40
0.0000000000
40
0.0000000000
40
0.0000000000
40
1.0000000000
40
1.0000000000
40
1.0000000000
40
1.0000000000
10
-16.4773048865
20
-32.8081515873
30
0.0000000000
10
-16.4610034759
20
-32.8161743744
30
0.0000000000
10
-16.4442492641
20
-32.8233086026
30
0.0000000000
10
-16.4271652946
20
-32.8295165086
30
0.0000000000
11
-16.4773048865
21
-32.8081515873
31
0.0000000000
11
-16.4271652946
21
-32.8295165086
31
0.0000000000
0
SPLINE
5
384
100
AcDbEntity
8
0
100
AcDbSpline
62
7
6
CONTINUOUS
70
0
71
3
72
11
73
7
74
5
42
0.0000001000
43
0.0000001000
44
0.0000000001
12
0.2777975874
22
-0.2777975879
32
0.0000000000
13
0.3922423374
23
0.0000000000
33
0.0000000000
40
0.0000000000
40
0.0000000000
40
0.0000000000
40
0.0000000000
40
0.2499994775
40
0.4999992599
40
0.7499998477
40
1.0000000000
40
1.0000000000
40
1.0000000000
40
1.0000000000
10
-16.5971525628
20
-32.6836604118
30
0.0000000000
10
-16.5740028122
20
-32.7068101624
30
0.0000000000
10
-16.5231448604
20
-32.7485512695
30
0.0000000000
10
-16.4360996104
20
-32.7950783244
30
0.0000000000
10
-16.3416887401
20
-32.8237322396
30
0.0000000000
10
-16.2761337365
20
-32.8301831859
30
0.0000000000
10
-16.2434468551
20
-32.8301831859
30
0.0000000000
11
-16.5971525628
21
-32.6836604118
31
0.0000000000
11
-16.5213518584
21
-32.7458704698
31
0.0000000000
11
-16.4348721174
21
-32.7920994203
31
0.0000000000
11
-16.3410350906
21
-32.8205693310
31
0.0000000000
11
-16.2434468551
21
-32.8301831859
31
0.0000000000
0
SPLINE
5
385
100
AcDbEntity
8
0
100
AcDbSpline
62
7
6
CONTINUOUS
70
0
71
3
72
8
73
4
74
2
42
0.0000001000
43
0.0000001000
44
0.0000000001
12
0.0066406165
22
-0.0146717855
32
0.0000000000
13
0.0061639775
23
-0.0148773127
33
0.0000000000
40
0.0000000000
40
0.0000000000
40
0.0000000000
40
0.0000000000
40
1.0000000000
40
1.0000000000
40
1.0000000000
40
1.0000000000
10
5.4594727499
20
11.6932444566
30
0.0000000000
10
5.4616862888
20
11.6883538614
30
0.0000000000
10
5.4638210449
20
11.6834277652
30
0.0000000000
10
5.4658757041
20
11.6784686609
30
0.0000000000
11
5.4594727499
21
11.6932444566
31
0.0000000000
11
5.4658757041
21
11.6784686609
31
0.0000000000
0
SPLINE
5
386
100
AcDbEntity
8
0
100
AcDbSpline
62
7
6
CONTINUOUS
70
0
71
3
72
9
73
5
74
3
42
0.0000001000
43
0.0000001000
44
0.0000000001
12
0.0751810997
22
-0.1814563289
32
0.0000000000
13
0.0000000000
23
-0.1961214590
33
0.0000000000
40
0.0000000000
40
0.0000000000
40
0.0000000000
40
0.0000000000
40
0.5000004355
40
1.0000000000
40
1.0000000000
40
1.0000000000
40
1.0000000000
10
5.4658757041
20
11.6784686609
30
0.0000000000
10
5.4784058983
20
11.6482259131
30
0.0000000000
10
5.4975085234
20
11.5852852836
30
0.0000000000
10
5.5039594696
20
11.5197302800
30
0.0000000000
10
5.5039594696
20
11.4870433986
30
0.0000000000
11
5.4658757041
21
11.6784686609
31
0.0000000000
11
5.4943456148
21
11.5846316341
31
0.0000000000
11
5.5039594696
21
11.4870433986
31
0.0000000000
0
SPLINE
5
387
100
AcDbEntity
8
0
100
AcDbSpline
62
7
6
CONTINUOUS
70
0
71
3
72
9
73
5
74
3
42
0.0000001000
43
0.0000001000
44
0.0000000001
12
0.0349646136
22
-0.0472049272
32
0.0000000000
13
0.0291833820
23
-0.0509949247
33
0.0000000000
40
0.0000000000
40
0.0000000000
40
0.0000000000
40
0.0000000000
40
0.1150315201
40
1.0000000000
40
1.0000000000
40
1.0000000000
40
1.0000000000
10
5.3836653571
20
11.8429713906
30
0.0000000000
10
5.3850060347
20
11.8411613724
30
0.0000000000
10
5.3965540247
20
11.8253473279
30
0.0000000000
10
5.4071625655
20
11.8088570115
30
0.0000000000
10
5.4157713566
20
11.7938140445
30
0.0000000000
11
5.3836653571
21
11.8429713906
31
0.0000000000
11
5.3876503693
21
11.8375141967
31
0.0000000000
11
5.4157713566
21
11.7938140445
31
0.0000000000
0
SPLINE
5
388
100
AcDbEntity
8
0
100
AcDbSpline
62
7
6
CONTINUOUS
70
0
71
3
72
8
73
4
74
2
42
0.0000001000
43
0.0000001000
44
0.0000000001
12
0.0258176232
22
-0.0451136113
32
0.0000000000
13
0.0210132687
23
-0.0475691331
33
0.0000000000
40
0.0000000000
40
0.0000000000
40
0.0000000000
40
0.0000000000
40
1.0000000000
40
1.0000000000
40
1.0000000000
40
1.0000000000
10
5.4157713566
20
11.7938140445
30
0.0000000000
10
5.4243772310
20
11.7787761741
30
0.0000000000
10
5.4322042002
20
11.7632890514
30
0.0000000000
10
5.4392086231
20
11.7474326737
30
0.0000000000
11
5.4157713566
21
11.7938140445
31
0.0000000000
11
5.4392086231
21
11.7474326737
31
0.0000000000
0
SPLINE
5
389
100
AcDbEntity
8
0
100
AcDbSpline
62
7
6
CONTINUOUS
70
0
71
3
72
8
73
4
74
2
42
0.0000001000
43
0.0000001000
44
0.0000000001
12
0.0210003890
22
-0.0475399765
32
0.0000000000
13
0.0159404762
23
-0.0495132413
33
0.0000000000
40
0.0000000000
40
0.0000000000
40
0.0000000000
40
0.0000000000
40
1.0000000000
40
1.0000000000
40
1.0000000000
40
1.0000000000
10
5.4392086231
20
11.7474326737
30
0.0000000000
10
5.4462087528
20
11.7315860149
30
0.0000000000
10
5.4523873442
20
11.7153705535
30
0.0000000000
10
5.4577008363
20
11.6988661398
30
0.0000000000
11
5.4392086231
21
11.7474326737
31
0.0000000000
11
5.4577008363
21
11.6988661398
31
0.0000000000
0
SPLINE
5
38A
100
AcDbEntity
8
0
100
AcDbSpline
62
7
6
CONTINUOUS
70
0
71
3
72
8
73
4
74
2
42
0.0000001000
43
0.0000001000
44
0.0000000001
12
0.0478502078
22
-0.1486291155
32
0.0000000000
13
-0.0000639003
23
-0.1553518627
33
0.0000000000
40
0.0000000000
40
0.0000000000
40
0.0000000000
40
0.0000000000
40
1.0000000000
40
1.0000000000
40
1.0000000000
40
1.0000000000
10
5.4577008363
20
11.6988661398
30
0.0000000000
10
5.4736509055
20
11.6493231013
30
0.0000000000
10
5.4818057072
20
11.5971763603
30
0.0000000000
10
5.4817844071
20
11.5453924061
30
0.0000000000
11
5.4577008363
21
11.6988661398
31
0.0000000000
11
5.4817844071
21
11.5453924061
31
0.0000000000
0
SPLINE
5
38B
100
AcDbEntity
8
0
100
AcDbSpline
62
7
6
CONTINUOUS
70
0
71
3
72
10
73
6
74
4
42
0.0000001000
43
0.0000001000
44
0.0000000001
12
0.0060662477
22
-0.0402306073
32
0.0000000000
13
-0.0041795086
23
0.0341725345
33
0.0000000000
40
0.0000000000
40
0.0000000000
40
0.0000000000
40
0.0000000000
40
0.3757031991
40
0.8122701336
40
1.0000000000
40
1.0000000000
40
1.0000000000
40
1.0000000000
10
5.4808786792
20
11.5847259603
30
0.0000000000
10
5.4816383821
20
11.5796877044
30
0.0000000000
10
5.4827884468
20
11.5720743546
30
0.0000000000
10
5.4810097734
20
11.5879947375
30
0.0000000000
10
5.4801051952
20
11.5956058946
30
0.0000000000
10
5.4798436556
20
11.5977442964
30
0.0000000000
11
5.4808786792
21
11.5847259603
31
0.0000000000
11
5.4821471385
21
11.5770401915
31
0.0000000000
11
5.4806678327
21
11.5908179544
31
0.0000000000
11
5.4798436556
21
11.5977442964
31
0.0000000000
0
SPLINE
5
38C
100
AcDbEntity
8
0
100
AcDbSpline
62
7
6
CONTINUOUS
70
0
71
3
72
8
73
4
74
2
42
0.0000001000
43
0.0000001000
44
0.0000000001
12
-0.0025084968
22
0.0205099933
32
0.0000000000
13
-0.0026642773
23
0.0171907070
33
0.0000000000
40
0.0000000000
40
0.0000000000
40
0.0000000000
40
0.0000000000
40
1.0000000000
40
1.0000000000
40
1.0000000000
40
1.0000000000
10
5.4798436556
20
11.5977442964
30
0.0000000000
10
5.4790074900
20
11.6045809608
30
0.0000000000
10
5.4782783698
20
11.6098811490
30
0.0000000000
10
5.4773902773
20
11.6156113846
30
0.0000000000
11
5.4798436556
21
11.5977442964
31
0.0000000000
11
5.4773902773
21
11.6156113846
31
0.0000000000
0
SPLINE
5
38D
100
AcDbEntity
8
0
100
AcDbSpline
62
7
6
CONTINUOUS
70
0
71
3
72
9
73
5
74
3
42
0.0000001000
43
0.0000001000
44
0.0000000001
12
-0.0129229997
22
0.0833830246
32
0.0000000000
13
-0.0296267680
23
0.0868554135
33
0.0000000000
40
0.0000000000
40
0.0000000000
40
0.0000000000
40
0.0000000000
40
0.4307410949
40
1.0000000000
40
1.0000000000
40
1.0000000000
40
1.0000000000
10
5.4773902773
20
11.6156113846
30
0.0000000000
10
5.4755347883
20
11.6275835497
30
0.0000000000
10
5.4696160857
20
11.6597360254
30
0.0000000000
10
5.4613033971
20
11.6888563492
30
0.0000000000
10
5.4556816299
20
11.7053374217
30
0.0000000000
11
5.4773902773
21
11.6156113846
31
0.0000000000
11
5.4699917563
21
11.6547197558
31
0.0000000000
11
5.4556816299
21
11.7053374217
31
0.0000000000
0
SPLINE
5
38E
100
AcDbEntity
8
0
100
AcDbSpline
62
7
6
CONTINUOUS
70
0
71
3
72
8
73
4
74
2
42
0.0000001000
43
0.0000001000
44
0.0000000001
12
-0.0062859970
22
0.0184283642
32
0.0000000000
13
-0.0070185897
23
0.0183010009
33
0.0000000000
40
0.0000000000
40
0.0000000000
40
0.0000000000
40
0.0000000000
40
1.0000000000
40
1.0000000000
40
1.0000000000
40
1.0000000000
10
5.4556816299
20
11.7053374217
30
0.0000000000
10
5.4535862976
20
11.7114802098
30
0.0000000000
10
5.4513673701
20
11.7176096713
30
0.0000000000
10
5.4490278402
20
11.7237100049
30
0.0000000000
11
5.4556816299
21
11.7053374217
31
0.0000000000
11
5.4490278402
21
11.7237100049
31
0.0000000000
0
SPLINE
5
38F
100
AcDbEntity
8
0
100
AcDbSpline
62
7
6
CONTINUOUS
70
0
71
3
72
8
73
4
74
2
42
0.0000001000
43
0.0000001000
44
0.0000000001
12
-0.0073250793
22
0.0191001738
32
0.0000000000
13
-0.0081030653
23
0.0188559209
33
0.0000000000
40
0.0000000000
40
0.0000000000
40
0.0000000000
40
0.0000000000
40
1.0000000000
40
1.0000000000
40
1.0000000000
40
1.0000000000
10
5.4490278402
20
11.7237100049
30
0.0000000000
10
5.4465861471
20
11.7300767295
30
0.0000000000
10
5.4440130886
20
11.7364117267
30
0.0000000000
10
5.4413120669
20
11.7426970337
30
0.0000000000
11
5.4490278402
21
11.7237100049
31
0.0000000000
11
5.4413120669
21
11.7426970337
31
0.0000000000
0
SPLINE
5
390
100
AcDbEntity
8
0
100
AcDbSpline
62
7
6
CONTINUOUS
70
0
71
3
72
10
73
6
74
4
42
0.0000001000
43
0.0000001000
44
0.0000000001
12
-0.0458518763
22
0.1066978141
32
0.0000000000
13
-0.0689836060
23
0.0931479225
33
0.0000000000
40
0.0000000000
40
0.0000000000
40
0.0000000000
40
0.0000000000
40
0.1810861704
40
0.7500018568
40
1.0000000000
40
1.0000000000
40
1.0000000000
40
1.0000000000
10
5.4413120669
20
11.7426970337
30
0.0000000000
10
5.4385443533
20
11.7491375332
30
0.0000000000
10
5.4265248773
20
11.7755959626
30
0.0000000000
10
5.4075096634
20
11.8092384534
30
0.0000000000
10
5.3894111177
20
11.8352070252
30
0.0000000000
10
5.3836625266
20
11.8429692944
30
0.0000000000
11
5.4413120669
21
11.7426970337
31
0.0000000000
11
5.4326095053
21
11.7618426822
31
0.0000000000
11
5.4002258909
21
11.8192042350
31
0.0000000000
11
5.3836625266
21
11.8429692944
31
0.0000000000
0
SPLINE
5
391
100
AcDbEntity
8
0
100
AcDbSpline
62
7
6
CONTINUOUS
70
0
71
3
72
8
73
4
74
2
42
0.0000001000
43
0.0000001000
44
0.0000000001
12
0.0064409981
22
-0.0087855876
32
0.0000000000
13
0.0062470563
23
-0.0089243961
33
0.0000000000
40
0.0000000000
40
0.0000000000
40
0.0000000000
40
0.0000000000
40
1.0000000000
40
1.0000000000
40
1.0000000000
40
1.0000000000
10
5.3676756211
20
11.8645347606
30
0.0000000000
10
5.3698226204
20
11.8616062314
30
0.0000000000
10
5.3719375767
20
11.8586542555
30
0.0000000000
10
5.3740199288
20
11.8556794568
30
0.0000000000
11
5.3676756211
21
11.8645347606
31
0.0000000000
11
5.3740199288
21
11.8556794568
31
0.0000000000
0
SPLINE
5
392
100
AcDbEntity
8
0
100
AcDbSpline
62
7
6
CONTINUOUS
70
0
71
3
72
9
73
5
74
3
42
0.0000001000
43
0.0000001000
44
0.0000000001
12
0.1750219285
22
-0.2500321650
32
0.0000000000
13
-0.0001263925
23
-0.3041680844
33
0.0000000000
40
0.0000000000
40
0.0000000000
40
0.0000000000
40
0.0000000000
40
0.4999800511
40
1.0000000000
40
1.0000000000
40
1.0000000000
40
1.0000000000
10
5.3740199288
20
11.8556794568
30
0.0000000000
10
5.4031890864
20
11.8140090919
30
0.0000000000
10
5.4487341477
20
11.7217081897
30
0.0000000000
10
5.4643539556
20
11.6196379210
30
0.0000000000
10
5.4643328894
20
11.5689412176
30
0.0000000000
11
5.3740199288
21
11.8556794568
31
0.0000000000
11
5.4412516142
21
11.7192697256
31
0.0000000000
11
5.4643328894
21
11.5689412176
31
0.0000000000
0
SPLINE
5
393
100
AcDbEntity
8
0
100
AcDbSpline
62
7
6
CONTINUOUS
70
0
71
3
72
10
73
6
74
4
42
0.0000001000
43
0.0000001000
44
0.0000000001
12
-0.0144263187
22
0.0192536621
32
0.0000000000
13
-0.0142232229
23
0.0194041755
33
0.0000000000
40
0.0000000000
40
0.0000000000
40
0.0000000000
40
0.0000000000
40
0.3065675685
40
0.6991406434
40
1.0000000000
40
1.0000000000
40
1.0000000000
40
1.0000000000
10
5.3820006401
20
11.8452057469
30
0.0000000000
10
5.3805264263
20
11.8471732630
30
0.0000000000
10
5.3771717101
20
11.8516657324
30
0.0000000000
10
5.3723970803
20
11.8581090820
30
0.0000000000
10
5.3691024402
20
11.8625890945
30
0.0000000000
10
5.3676760436
20
11.8645350704
30
0.0000000000
11
5.3820006401
21
11.8452057469
31
0.0000000000
11
5.3775875816
21
11.8511154590
31
0.0000000000
11
5.3719643872
21
11.8587038668
31
0.0000000000
11
5.3676760436
21
11.8645350704
31
0.0000000000
0
SPLINE
5
394
100
AcDbEntity
8
0
100
AcDbSpline
62
7
6
CONTINUOUS
70
0
71
3
72
8
73
4
74
2
42
0.0000001000
43
0.0000001000
44
0.0000000001
12
-0.0226094846
22
0.0298750238
32
0.0000000000
13
-0.0247871593
23
0.0281396771
33
0.0000000000
40
0.0000000000
40
0.0000000000
40
0.0000000000
40
0.0000000000
40
1.0000000000
40
1.0000000000
40
1.0000000000
40
1.0000000000
10
5.3631696549
20
11.8705502588
30
0.0000000000
10
5.3556331600
20
11.8805086001
30
0.0000000000
10
5.3477209930
20
11.8901942352
30
0.0000000000
10
5.3394586066
20
11.8995741276
30
0.0000000000
11
5.3631696549
21
11.8705502588
31
0.0000000000
11
5.3394586066
21
11.8995741276
31
0.0000000000
0
SPLINE
5
395
100
AcDbEntity
8
0
100
AcDbSpline
62
7
6
CONTINUOUS
70
0
71
3
72
8
73
4
74
2
42
0.0000001000
43
0.0000001000
44
0.0000000001
12
-0.0322228083
22
0.0365810140
32
0.0000000000
13
-0.0356061717
23
0.0332631435
33
0.0000000000
40
0.0000000000
40
0.0000000000
40
0.0000000000
40
0.0000000000
40
1.0000000000
40
1.0000000000
40
1.0000000000
40
1.0000000000
10
5.3394586066
20
11.8995741276
30
0.0000000000
10
5.3287176705
20
11.9117677989
30
0.0000000000
10
5.3173848819
20
11.9234447809
30
0.0000000000
10
5.3055161580
20
11.9345324954
30
0.0000000000
11
5.3394586066
21
11.8995741276
31
0.0000000000
11
5.3055161580
21
11.9345324954
31
0.0000000000
0
SPLINE
5
396
100
AcDbEntity
8
0
100
AcDbSpline
62
7
6
CONTINUOUS
70
0
71
3
72
8
73
4
74
2
42
0.0000001000
43
0.0000001000
44
0.0000000001
12
-0.1072772118
22
0.1002179432
32
0.0000000000
13
-0.1317277765
23
0.0648302119
33
0.0000000000
40
0.0000000000
40
0.0000000000
40
0.0000000000
40
0.0000000000
40
1.0000000000
40
1.0000000000
40
1.0000000000
40
1.0000000000
10
5.3055161580
20
11.9345324954
30
0.0000000000
10
5.2697570874
20
11.9679384765
30
0.0000000000
10
5.2291330847
20
11.9959954046
30
0.0000000000
10
5.1852238258
20
12.0176054752
30
0.0000000000
11
5.3055161580
21
11.9345324954
31
0.0000000000
11
5.1852238258
21
12.0176054752
31
0.0000000000
0
SPLINE
5
397
100
AcDbEntity
8
0
100
AcDbSpline
62
7
6
CONTINUOUS
70
0
71
3
72
8
73
4
74
2
42
0.0000001000
43
0.0000001000
44
0.0000000001
12
-0.0489042321
22
0.0240683614
32
0.0000000000
13
-0.0512519085
23
0.0186237181
33
0.0000000000
40
0.0000000000
40
0.0000000000
40
0.0000000000
40
0.0000000000
40
1.0000000000
40
1.0000000000
40
1.0000000000
40
1.0000000000
10
5.1852238258
20
12.0176054752
30
0.0000000000
10
5.1689224151
20
12.0256282624
30
0.0000000000
10
5.1521682034
20
12.0327624906
30
0.0000000000
10
5.1350842339
20
12.0389703966
30
0.0000000000
11
5.1852238258
21
12.0176054752
31
0.0000000000
11
5.1350842339
21
12.0389703966
31
0.0000000000
0
SPLINE
5
398
100
AcDbEntity
8
0
100
AcDbSpline
62
7
6
CONTINUOUS
70
0
71
3
72
11
73
7
74
5
42
0.0000001000
43
0.0000001000
44
0.0000000001
12
-0.2777975874
22
0.2777975879
32
0.0000000000
13
-0.3922423374
23
0.0000000000
33
0.0000000000
40
0.0000000000
40
0.0000000000
40
0.0000000000
40
0.0000000000
40
0.2499994775
40
0.4999992599
40
0.7499998477
40
1.0000000000
40
1.0000000000
40
1.0000000000
40
1.0000000000
10
5.3050715021
20
11.8931142998
30
0.0000000000
10
5.2819217515
20
11.9162640504
30
0.0000000000
10
5.2310637997
20
11.9580051575
30
0.0000000000
10
5.1440185497
20
12.0045322123
30
0.0000000000
10
5.0496076794
20
12.0331861276
30
0.0000000000
10
4.9840526758
20
12.0396370739
30
0.0000000000
10
4.9513657944
20
12.0396370739
30
0.0000000000
11
5.3050715021
21
11.8931142998
31
0.0000000000
11
5.2292707977
21
11.9553243578
31
0.0000000000
11
5.1427910567
21
12.0015533083
31
0.0000000000
11
5.0489540299
21
12.0300232190
31
0.0000000000
11
4.9513657944
21
12.0396370739
31
0.0000000000
0
SPLINE
5
399
100
AcDbEntity
8
0
100
AcDbSpline
62
7
6
CONTINUOUS
70
0
71
3
72
8
73
4
74
2
42
0.0000001000
43
0.0000001000
44
0.0000000001
12
0.0234407480
22
0.0318321681
32
0.0000000000
13
0.0208587250
23
0.0335543098
33
0.0000000000
40
0.0000000000
40
0.0000000000
40
0.0000000000
40
0.0000000000
40
1.0000000000
40
1.0000000000
40
1.0000000000
40
1.0000000000
10
5.3844565457
20
-32.6324398577
30
0.0000000000
10
5.3922701284
20
-32.6218291350
30
0.0000000000
10
5.3996683358
20
-32.6109093661
30
0.0000000000
10
5.4066212442
20
-32.5997245962
30
0.0000000000
11
5.3844565457
21
-32.6324398577
31
0.0000000000
11
5.4066212442
21
-32.5997245962
31
0.0000000000
0
SPLINE
5
39A
100
AcDbEntity
8
0
100
AcDbSpline
62
7
6
CONTINUOUS
70
0
71
3
72
14
73
10
74
8
42
0.0000001000
43
0.0000001000
44
0.0000000001
12
0.1319317604
22
0.2122315327
32
0.0000000000
13
-0.0078993623
23
-0.0342173337
33
0.0000000000
40
0.0000000000
40
0.0000000000
40
0.0000000000
40
0.0000000000
40
0.2977437971
40
0.5572386170
40
0.7672084466
40
0.9052484049
40
0.9765901732
40
0.9924527419
40
1.0000000000
40
1.0000000000
40
1.0000000000
40
1.0000000000
10
5.4066212442
20
-32.5997245962
30
0.0000000000
10
5.4197151986
20
-32.5786610554
30
0.0000000000
10
5.4412653319
20
-32.5374808980
30
0.0000000000
10
5.4628584656
20
-32.4768818764
30
0.0000000000
10
5.4742073836
20
-32.4283444540
30
0.0000000000
10
5.4795244786
20
-32.3921353430
30
0.0000000000
10
5.4812573918
20
-32.3759558063
30
0.0000000000
10
5.4823600341
20
-32.3659447928
30
0.0000000000
10
5.4823696569
20
-32.3656322987
30
0.0000000000
10
5.4823497840
20
-32.3657183811
30
0.0000000000
11
5.4066212442
21
-32.5997245962
31
0.0000000000
11
5.4410696310
21
-32.5338451516
31
0.0000000000
11
5.4628949026
21
-32.4728395507
31
0.0000000000
11
5.4747907772
21
-32.4217805193
31
0.0000000000
11
5.4799164242
21
-32.3876971575
31
0.0000000000
11
5.4819143930
21
-32.3699965345
31
0.0000000000
11
5.4823361366
21
-32.3660583945
31
0.0000000000
11
5.4823497840
21
-32.3657183811
31
0.0000000000
0
SPLINE
5
39B
100
AcDbEntity
8
0
100
AcDbSpline
62
7
6
CONTINUOUS
70
0
71
3
72
8
73
4
74
2
42
0.0000001000
43
0.0000001000
44
0.0000000001
12
-0.0384178308
22
-0.0350014015
32
0.0000000000
13
-0.0418948896
23
-0.0308292201
33
0.0000000000
40
0.0000000000
40
0.0000000000
40
0.0000000000
40
0.0000000000
40
1.0000000000
40
1.0000000000
40
1.0000000000
40
1.0000000000
10
5.3185873652
20
-32.7055418596
30
0.0000000000
10
5.3057814216
20
-32.7172089934
30
0.0000000000
10
5.2923650223
20
-32.7282140920
30
0.0000000000
10
5.2784000591
20
-32.7384904987
30
0.0000000000
11
5.3185873652
21
-32.7055418596
31
0.0000000000
11
5.2784000591
21
-32.7384904987
31
0.0000000000
0
SPLINE
5
39C
100
AcDbEntity
8
0
100
AcDbSpline
62
7
6
CONTINUOUS
70
0
71
3
72
8
73
4
74
2
42
0.0000001000
43
0.0000001000
44
0.0000000001
12
0.0018707499
22
0.0025500642
32
0.0000000000
13
0.0018742452
23
0.0025474964
33
0.0000000000
40
0.0000000000
40
0.0000000000
40
0.0000000000
40
0.0000000000
40
1.0000000000
40
1.0000000000
40
1.0000000000
40
1.0000000000
10
5.3682186626
20
-32.6543412172
30
0.0000000000
10
5.3688422459
20
-32.6534911959
30
0.0000000000
10
5.3694664113
20
-32.6526416015
30
0.0000000000
10
5.3700911597
20
-32.6517924361
30
0.0000000000
11
5.3682186626
21
-32.6543412172
31
0.0000000000
11
5.3700911597
21
-32.6517924361
31
0.0000000000
0
SPLINE
5
39D
100
AcDbEntity
8
0
100
AcDbSpline
62
7
6
CONTINUOUS
70
0
71
3
72
10
73
6
74
4
42
0.0000001000
43
0.0000001000
44
0.0000000001
12
0.0118392348
22
0.0160920291
32
0.0000000000
13
0.0119793998
23
0.0159879601
33
0.0000000000
40
0.0000000000
40
0.0000000000
40
0.0000000000
40
0.0000000000
40
0.1580679003
40
0.6308281093
40
1.0000000000
40
1.0000000000
40
1.0000000000
40
1.0000000000
10
5.3700911597
20
-32.6517924361
30
0.0000000000
10
5.3707149607
20
-32.6509445583
30
0.0000000000
10
5.3732067876
20
-32.6475624966
30
0.0000000000
10
5.3771715696
20
-32.6422120336
30
0.0000000000
10
5.3805262247
20
-32.6377196449
30
0.0000000000
10
5.3820003772
20
-32.6357522097
30
0.0000000000
11
5.3700911597
21
-32.6517924361
31
0.0000000000
11
5.3719643071
21
-32.6492500874
31
0.0000000000
11
5.3775875017
21
-32.6416616783
31
0.0000000000
11
5.3820003772
21
-32.6357522097
31
0.0000000000
0
SPLINE
5
39E
100
AcDbEntity
8
0
100
AcDbSpline
62
7
6
CONTINUOUS
70
0
71
3
72
8
73
4
74
2
42
0.0000001000
43
0.0000001000
44
0.0000000001
12
0.0327314541
22
0.0119026134
32
0.0000000000
13
0.0318231601
23
0.0141504745
33
0.0000000000
40
0.0000000000
40
0.0000000000
40
0.0000000000
40
0.0000000000
40
1.0000000000
40
1.0000000000
40
1.0000000000
40
1.0000000000
10
5.1351112586
20
-32.8295320163
30
0.0000000000
10
5.1460217433
20
-32.8255644785
30
0.0000000000
10
5.1567940128
20
-32.8212174520
30
0.0000000000
10
5.1674017329
20
-32.8165006272
30
0.0000000000
11
5.1351112586
21
-32.8295320163
31
0.0000000000
11
5.1674017329
21
-32.8165006272
31
0.0000000000
0
SPLINE
5
39F
100
AcDbEntity
8
0
100
AcDbSpline
62
7
6
CONTINUOUS
70
0
71
3
72
11
73
7
74
5
42
0.0000001000
43
0.0000001000
44
0.0000000001
12
0.2186621071
22
0.0972302114
32
0.0000000000
13
0.1493688917
23
0.1869156653
33
0.0000000000
40
0.0000000000
40
0.0000000000
40
0.0000000000
40
0.0000000000
40
0.2842905621
40
0.5598332746
40
0.8267538353
40
1.0000000000
40
1.0000000000
40
1.0000000000
40
1.0000000000
10
5.1674017329
20
-32.8165006272
30
0.0000000000
10
5.1881229240
20
-32.8072867500
30
0.0000000000
10
5.2276912437
20
-32.7863637825
30
0.0000000000
10
5.2814671016
20
-32.7479483732
30
0.0000000000
10
5.3233202172
20
-32.7089577687
30
0.0000000000
10
5.3463709512
20
-32.6824393709
30
0.0000000000
10
5.3549968137
20
-32.6716452302
30
0.0000000000
11
5.1674017329
21
-32.8165006272
31
0.0000000000
11
5.2274961453
21
-32.7847242958
31
0.0000000000
11
5.2811088318
21
-32.7464262463
31
0.0000000000
11
5.3278091712
21
-32.7029209268
31
0.0000000000
11
5.3549968137
21
-32.6716452302
31
0.0000000000
0
SPLINE
5
3A0
100
AcDbEntity
8
0
100
AcDbSpline
62
7
6
CONTINUOUS
70
0
71
3
72
8
73
4
74
2
42
0.0000001000
43
0.0000001000
44
0.0000000001
12
0.0113761771
22
0.0142358003
32
0.0000000000
13
0.0108504914
23
0.0146400980
33
0.0000000000
40
0.0000000000
40
0.0000000000
40
0.0000000000
40
0.0000000000
40
1.0000000000
40
1.0000000000
40
1.0000000000
40
1.0000000000
10
5.3549968137
20
-32.6716452302
30
0.0000000000
10
5.3587888727
20
-32.6668999634
30
0.0000000000
10
5.3624945970
20
-32.6620857589
30
0.0000000000
10
5.3661114275
20
-32.6572057262
30
0.0000000000
11
5.3549968137
21
-32.6716452302
31
0.0000000000
11
5.3661114275
21
-32.6572057262
31
0.0000000000
0
SPLINE
5
3A1
100
AcDbEntity
8
0
100
AcDbSpline
62
7
6
CONTINUOUS
70
0
71
3
72
9
73
5
74
3
42
0.0000001000
43
0.0000001000
44
0.0000000001
12
-0.0000005827
22
0.0621791276
32
0.0000000000
13
0.0190122768
23
0.0591871160
33
0.0000000000
40
0.0000000000
40
0.0000000000
40
0.0000000000
40
0.0000000000
40
0.4411896172
40
1.0000000000
40
1.0000000000
40
1.0000000000
40
1.0000000000
10
-13.8960425053
20
-33.0171270096
30
0.0000000000
10
-13.8960425910
20
-33.0079827478
30
0.0000000000
10
-13.8946204366
20
-32.9872635583
30
0.0000000000
10
-13.8899821610
20
-32.9669818823
30
0.0000000000
10
-13.8864407418
20
-32.9559570907
30
0.0000000000
11
-13.8960425053
21
-33.0171270096
31
0.0000000000
11
-13.8941616990
21
-32.9897857265
31
0.0000000000
11
-13.8864407418
21
-32.9559570907
31
0.0000000000
0
SPLINE
5
3A2
100
AcDbEntity
8
0
100
AcDbSpline
62
7
6
CONTINUOUS
70
0
71
3
72
12
73
8
74
6
42
0.0000001000
43
0.0000001000
44
0.0000000001
12
0.0547940788
22
0.1705794385
32
0.0000000000
13
0.1631765675
23
0.0630036549
33
0.0000000000
40
0.0000000000
40
0.0000000000
40
0.0000000000
40
0.0000000000
40
0.0941099440
40
0.3649293483
40
0.6182308939
40
0.8524511237
40
1.0000000000
40
1.0000000000
40
1.0000000000
40
1.0000000000
10
-13.8864407418
20
-32.9559570907
30
0.0000000000
10
-13.8847218526
20
-32.9506060169
30
0.0000000000
10
-13.8771891478
20
-32.9301383128
30
0.0000000000
10
-13.8588894601
20
-32.8978185621
30
0.0000000000
10
-13.8274475432
20
-32.8645183828
30
0.0000000000
10
-13.7970004246
20
-32.8430637935
30
0.0000000000
10
-13.7745138193
20
-32.8334601107
30
0.0000000000
10
-13.7664883129
20
-32.8303614045
30
0.0000000000
11
-13.8864407418
21
-32.9559570907
31
0.0000000000
11
-13.8806192836
21
-32.9401418154
31
0.0000000000
11
-13.8567111051
21
-32.8980734579
31
0.0000000000
11
-13.8258033957
21
-32.8650135255
31
0.0000000000
11
-13.7912704917
21
-32.8413754878
31
0.0000000000
11
-13.7664883129
21
-32.8303614045
31
0.0000000000
0
SPLINE
5
3A3
100
AcDbEntity
8
0
100
AcDbSpline
62
7
6
CONTINUOUS
70
0
71
3
72
9
73
5
74
3
42
0.0000001000
43
0.0000001000
44
0.0000000001
12
0.0357506030
22
-0.0143223844
32
0.0000000000
13
0.0362771814
23
-0.0229313477
33
0.0000000000
40
0.0000000000
40
0.0000000000
40
0.0000000000
40
0.0000000000
40
0.7202091992
40
1.0000000000
40
1.0000000000
40
1.0000000000
40
1.0000000000
10
-16.4272140710
20
-32.8296183800
30
0.0000000000
10
-16.4186314333
20
-32.8330567510
30
0.0000000000
10
-16.4042844984
20
-32.8390962929
30
0.0000000000
10
-16.3917794793
20
-32.8463934251
30
0.0000000000
10
-16.3883961388
20
-32.8485320852
30
0.0000000000
11
-16.4272140710
21
-32.8296183800
31
0.0000000000
11
-16.3989212484
21
-32.8424085320
31
0.0000000000
11
-16.3883961388
21
-32.8485320852
31
0.0000000000
0
SPLINE
5
3A4
100
AcDbEntity
8
0
100
AcDbSpline
62
7
6
CONTINUOUS
70
0
71
3
72
8
73
4
74
2
42
0.0000001000
43
0.0000001000
44
0.0000000001
12
0.0107714118
22
-0.0068087701
32
0.0000000000
13
0.0100943598
23
-0.0074589134
33
0.0000000000
40
0.0000000000
40
0.0000000000
40
0.0000000000
40
0.0000000000
40
1.0000000000
40
1.0000000000
40
1.0000000000
40
1.0000000000
10
-16.3883961388
20
-32.8485320852
30
0.0000000000
10
-16.3848056682
20
-32.8508016752
30
0.0000000000
10
-16.3813452147
20
-32.8531804939
30
0.0000000000
10
-16.3779804281
20
-32.8556667983
30
0.0000000000
11
-16.3883961388
21
-32.8485320852
31
0.0000000000
11
-16.3779804281
21
-32.8556667983
31
0.0000000000
0
SPLINE
5
3A5
100
AcDbEntity
8
0
100
AcDbSpline
62
7
6
CONTINUOUS
70
0
71
3
72
12
73
8
74
6
42
0.0000001000
43
0.0000001000
44
0.0000000001
12
0.1411298273
22
-0.1042834984
32
0.0000000000
13
0.0093631742
23
-0.1772515316
33
0.0000000000
40
0.0000000000
40
0.0000000000
40
0.0000000000
40
0.0000000000
40
0.0727060840
40
0.2909824349
40
0.5168532805
40
0.7525750929
40
1.0000000000
40
1.0000000000
40
1.0000000000
40
1.0000000000
10
-16.3779804281
20
-32.8556667983
30
0.0000000000
10
-16.3745600957
20
-32.8581941466
30
0.0000000000
10
-16.3612669497
20
-32.8687535322
30
0.0000000000
10
-16.3394410951
20
-32.8906172470
30
0.0000000000
10
-16.3173024837
20
-32.9243700032
30
0.0000000000
10
-16.3017430761
20
-32.9635808162
30
0.0000000000
10
-16.2970911461
20
-32.9919652295
30
0.0000000000
10
-16.2963189186
20
-33.0065840441
30
0.0000000000
11
-16.3779804281
21
-32.8556667983
31
0.0000000000
11
-16.3679799058
21
-32.8635802041
31
0.0000000000
11
-16.3407986123
21
-32.8910838344
31
0.0000000000
11
-16.3187968216
21
-32.9245061893
31
0.0000000000
11
-16.3034163865
21
-32.9633299144
31
0.0000000000
11
-16.2963189186
21
-33.0065840441
31
0.0000000000
0
SPLINE
5
3A6
100
AcDbEntity
8
0
100
AcDbSpline
62
7
6
CONTINUOUS
70
0
71
3
72
8
73
4
74
2
42
0.0000001000
43
0.0000001000
44
0.0000000001
12
0.0005564086
22
-0.0105332088
32
0.0000000000
13
-0.0000004189
23
-0.0105479302
33
0.0000000000
40
0.0000000000
40
0.0000000000
40
0.0000000000
40
0.0000000000
40
1.0000000000
40
1.0000000000
40
1.0000000000
40
1.0000000000
10
-16.2963189186
20
-33.0065840441
30
0.0000000000
10
-16.2961334490
20
-33.0100951137
30
0.0000000000
10
-16.2960408551
20
-33.0136109615
30
0.0000000000
10
-16.2960409947
20
-33.0171269382
30
0.0000000000
11
-16.2963189186
21
-33.0065840441
31
0.0000000000
11
-16.2960409947
21
-33.0171269382
31
0.0000000000
0
SPLINE
5
3A7
100
AcDbEntity
8
0
100
AcDbSpline
62
7
6
CONTINUOUS
70
0
71
3
72
9
73
5
74
3
42
0.0000001000
43
0.0000001000
44
0.0000000001
12
0.0000005827
22
-0.0621791276
32
0.0000000000
13
-0.0190122768
23
-0.0591871160
33
0.0000000000
40
0.0000000000
40
0.0000000000
40
0.0000000000
40
0.0000000000
40
0.4411896172
40
1.0000000000
40
1.0000000000
40
1.0000000000
40
1.0000000000
10
2.6039614446
20
12.2265808976
30
0.0000000000
10
2.6039615303
20
12.2174366358
30
0.0000000000
10
2.6025393759
20
12.1967174463
30
0.0000000000
10
2.5979011003
20
12.1764357703
30
0.0000000000
10
2.5943596811
20
12.1654109786
30
0.0000000000
11
2.6039614446
21
12.2265808976
31
0.0000000000
11
2.6020806383
21
12.1992396145
31
0.0000000000
11
2.5943596811
21
12.1654109786
31
0.0000000000
0
SPLINE
5
3A8
100
AcDbEntity
8
0
100
AcDbSpline
62
7
6
CONTINUOUS
70
0
71
3
72
12
73
8
74
6
42
0.0000001000
43
0.0000001000
44
0.0000000001
12
-0.0547940788
22
-0.1705794385
32
0.0000000000
13
-0.1631765675
23
-0.0630036549
33
0.0000000000
40
0.0000000000
40
0.0000000000
40
0.0000000000
40
0.0000000000
40
0.0941099440
40
0.3649293483
40
0.6182308939
40
0.8524511237
40
1.0000000000
40
1.0000000000
40
1.0000000000
40
1.0000000000
10
2.5943596811
20
12.1654109786
30
0.0000000000
10
2.5926407919
20
12.1600599048
30
0.0000000000
10
2.5851080870
20
12.1395922008
30
0.0000000000
10
2.5668083994
20
12.1072724500
30
0.0000000000
10
2.5353664825
20
12.0739722708
30
0.0000000000
10
2.5049193639
20
12.0525176815
30
0.0000000000
10
2.4824327586
20
12.0429139987
30
0.0000000000
10
2.4744072522
20
12.0398152925
30
0.0000000000
11
2.5943596811
21
12.1654109786
31
0.0000000000
11
2.5885382229
21
12.1495957034
31
0.0000000000
11
2.5646300443
21
12.1075273458
31
0.0000000000
11
2.5337223350
21
12.0744674134
31
0.0000000000
11
2.4991894309
21
12.0508293758
31
0.0000000000
11
2.4744072522
21
12.0398152925
31
0.0000000000
0
SPLINE
5
3A9
100
AcDbEntity
8
0
100
AcDbSpline
62
7
6
CONTINUOUS
70
0
71
3
72
9
73
5
74
3
42
0.0000001000
43
0.0000001000
44
0.0000000001
12
-0.0357506030
22
0.0143223844
32
0.0000000000
13
-0.0362771814
23
0.0229313477
33
0.0000000000
40
0.0000000000
40
0.0000000000
40
0.0000000000
40
0.0000000000
40
0.7202091992
40
1.0000000000
40
1.0000000000
40
1.0000000000
40
1.0000000000
10
5.1351330103
20
12.0390722680
30
0.0000000000
10
5.1265503726
20
12.0425106390
30
0.0000000000
10
5.1122034377
20
12.0485501809
30
0.0000000000
10
5.0996984186
20
12.0558473131
30
0.0000000000
10
5.0963150781
20
12.0579859732
30
0.0000000000
11
5.1351330103
21
12.0390722680
31
0.0000000000
11
5.1068401877
21
12.0518624200
31
0.0000000000
11
5.0963150781
21
12.0579859732
31
0.0000000000
0
SPLINE
5
3AA
100
AcDbEntity
8
0
100
AcDbSpline
62
7
6
CONTINUOUS
70
0
71
3
72
8
73
4
74
2
42
0.0000001000
43
0.0000001000
44
0.0000000001
12
-0.0107714118
22
0.0068087701
32
0.0000000000
13
-0.0100943598
23
0.0074589134
33
0.0000000000
40
0.0000000000
40
0.0000000000
40
0.0000000000
40
0.0000000000
40
1.0000000000
40
1.0000000000
40
1.0000000000
40
1.0000000000
10
5.0963150781
20
12.0579859732
30
0.0000000000
10
5.0927246075
20
12.0602555632
30
0.0000000000
10
5.0892641540
20
12.0626343819
30
0.0000000000
10
5.0858993674
20
12.0651206863
30
0.0000000000
11
5.0963150781
21
12.0579859732
31
0.0000000000
11
5.0858993674
21
12.0651206863
31
0.0000000000
0
SPLINE
5
3AB
100
AcDbEntity
8
0
100
AcDbSpline
62
7
6
CONTINUOUS
70
0
71
3
72
12
73
8
74
6
42
0.0000001000
43
0.0000001000
44
0.0000000001
12
-0.1411298273
22
0.1042834984
32
0.0000000000
13
-0.0093631742
23
0.1772515316
33
0.0000000000
40
0.0000000000
40
0.0000000000
40
0.0000000000
40
0.0000000000
40
0.0727060840
40
0.2909824349
40
0.5168532805
40
0.7525750929
40
1.0000000000
40
1.0000000000
40
1.0000000000
40
1.0000000000
10
5.0858993674
20
12.0651206863
30
0.0000000000
10
5.0824790350
20
12.0676480346
30
0.0000000000
10
5.0691858890
20
12.0782074202
30
0.0000000000
10
5.0473600343
20
12.1000711350
30
0.0000000000
10
5.0252214230
20
12.1338238912
30
0.0000000000
10
5.0096620154
20
12.1730347042
30
0.0000000000
10
5.0050100853
20
12.2014191175
30
0.0000000000
10
5.0042378578
20
12.2160379320
30
0.0000000000
11
5.0858993674
21
12.0651206863
31
0.0000000000
11
5.0758988451
21
12.0730340921
31
0.0000000000
11
5.0487175516
21
12.1005377224
31
0.0000000000
11
5.0267157609
21
12.1339600773
31
0.0000000000
11
5.0113353258
21
12.1727838024
31
0.0000000000
11
5.0042378578
21
12.2160379320
31
0.0000000000
0
SPLINE
5
3AC
100
AcDbEntity
8
0
100
AcDbSpline
62
7
6
CONTINUOUS
70
0
71
3
72
8
73
4
74
2
42
0.0000001000
43
0.0000001000
44
0.0000000001
12
-0.0005564086
22
0.0105332088
32
0.0000000000
13
0.0000004189
23
0.0105479302
33
0.0000000000
40
0.0000000000
40
0.0000000000
40
0.0000000000
40
0.0000000000
40
1.0000000000
40
1.0000000000
40
1.0000000000
40
1.0000000000
10
5.0042378578
20
12.2160379320
30
0.0000000000
10
5.0040523883
20
12.2195490016
30
0.0000000000
10
5.0039597944
20
12.2230648495
30
0.0000000000
10
5.0039599340
20
12.2265808262
30
0.0000000000
11
5.0042378578
21
12.2160379320
31
0.0000000000
11
5.0039599340
21
12.2265808262
31
0.0000000000
0
SPLINE
5
3AD
100
AcDbEntity
8
0
100
AcDbSpline
62
7
6
CONTINUOUS
70
0
71
3
72
13
73
9
74
7
42
0.0000001000
43
0.0000001000
44
0.0000000001
12
-0.2206951037
22
0.0819995244
32
0.0000000000
13
-0.0116785717
23
0.2309533958
33
0.0000000000
40
0.0000000000
40
0.0000000000
40
0.0000000000
40
0.0000000000
40
0.0766804461
40
0.2415254630
40
0.4186397998
40
0.6032118824
40
0.7965026280
40
1.0000000000
40
1.0000000000
40
1.0000000000
40
1.0000000000
10
-13.7663769032
20
12.0397907634
30
0.0000000000
10
-13.7720179029
20
12.0418866835
30
0.0000000000
10
-13.7906006232
20
12.0493544861
30
0.0000000000
10
-13.8172435767
20
12.0661231049
30
0.0000000000
10
-13.8475818538
20
12.0937994358
30
0.0000000000
10
-13.8723426718
20
12.1288852418
30
0.0000000000
10
-13.8898408636
20
12.1704518384
30
0.0000000000
10
-13.8949919109
20
12.2008210171
30
0.0000000000
10
-13.8957840971
20
12.2164871535
30
0.0000000000
11
-13.7663769032
21
12.0397907634
31
0.0000000000
11
-13.7834936128
21
12.0468509042
31
0.0000000000
11
-13.8159841494
21
12.0666256471
31
0.0000000000
11
-13.8460243626
21
12.0943317055
31
0.0000000000
11
-13.8706448571
21
12.1290804164
31
0.0000000000
11
-13.8879219457
21
12.1701965123
31
0.0000000000
11
-13.8957840971
21
12.2164871535
31
0.0000000000
0
SPLINE
5
3AE
100
AcDbEntity
8
0
100
AcDbSpline
62
7
6
CONTINUOUS
70
0
71
3
72
8
73
4
74
2
42
0.0000001000
43
0.0000001000
44
0.0000000001
12
-0.0005097467
22
0.0100806617
32
0.0000000000
13
0.0000003243
23
0.0100935380
33
0.0000000000
40
0.0000000000
40
0.0000000000
40
0.0000000000
40
0.0000000000
40
1.0000000000
40
1.0000000000
40
1.0000000000
40
1.0000000000
10
-13.8957840971
20
12.2164871535
30
0.0000000000
10
-13.8959540127
20
12.2198473740
30
0.0000000000
10
-13.8960388367
20
12.2232117789
30
0.0000000000
10
-13.8960387286
20
12.2265762916
30
0.0000000000
11
-13.8957840971
21
12.2164871535
31
0.0000000000
11
-13.8960387286
21
12.2265762916
31
0.0000000000
0
SPLINE
5
3AF
100
AcDbEntity
8
0
100
AcDbSpline
62
7
6
CONTINUOUS
70
0
71
3
72
9
73
5
74
3
42
0.0000001000
43
0.0000001000
44
0.0000000001
12
0.0000009034
22
-0.0676264951
32
0.0000000000
13
-0.0224545109
23
-0.0637862058
33
0.0000000000
40
0.0000000000
40
0.0000000000
40
0.0000000000
40
0.0000000000
40
0.2531000196
40
1.0000000000
40
1.0000000000
40
1.0000000000
40
1.0000000000
10
-16.2960423584
20
12.2265763152
30
0.0000000000
10
-16.2960422822
20
12.2208708928
30
0.0000000000
10
-16.2970061622
20
12.1983314301
30
0.0000000000
10
-16.3017840362
20
12.1761140900
30
0.0000000000
10
-16.3073744608
20
12.1602334514
30
0.0000000000
11
-16.2960423584
21
12.2265763152
31
0.0000000000
11
-16.2967745213
21
12.2094820509
31
0.0000000000
11
-16.3073744608
21
12.1602334514
31
0.0000000000
0
SPLINE
5
3B0
100
AcDbEntity
8
0
100
AcDbSpline
62
7
6
CONTINUOUS
70
0
71
3
72
10
73
6
74
4
42
0.0000001000
43
0.0000001000
44
0.0000000001
12
-0.0399003290
22
-0.1133442899
32
0.0000000000
13
-0.0968280277
23
-0.0708230472
33
0.0000000000
40
0.0000000000
40
0.0000000000
40
0.0000000000
40
0.0000000000
40
0.3959757559
40
0.7671367563
40
1.0000000000
40
1.0000000000
40
1.0000000000
40
1.0000000000
10
-16.3073744608
20
12.1602334514
30
0.0000000000
10
-16.3126409817
20
12.1452729211
30
0.0000000000
10
-16.3263202028
20
12.1175161346
30
0.0000000000
10
-16.3518327948
20
12.0864026113
30
0.0000000000
10
-16.3704733332
20
12.0707646299
30
0.0000000000
10
-16.3779892294
20
12.0652672684
30
0.0000000000
11
-16.3073744608
21
12.1602334514
31
0.0000000000
11
-16.3283326376
21
12.1176543016
31
0.0000000000
11
-16.3565808506
21
12.0832910936
31
0.0000000000
11
-16.3779892294
21
12.0652672684
31
0.0000000000
0
SPLINE
5
3B1
100
AcDbEntity
8
0
100
AcDbSpline
62
7
6
CONTINUOUS
70
0
71
3
72
10
73
6
74
4
42
0.0000001000
43
0.0000001000
44
0.0000000001
12
-0.0450318546
22
-0.0329377065
32
0.0000000000
13
-0.0545623742
23
-0.0192662127
33
0.0000000000
40
0.0000000000
40
0.0000000000
40
0.0000000000
40
0.0000000000
40
0.2411131885
40
0.9149263822
40
1.0000000000
40
1.0000000000
40
1.0000000000
40
1.0000000000
10
-16.3779892294
20
12.0652672684
30
0.0000000000
10
-16.3816084874
20
12.0626200300
30
0.0000000000
10
-16.3956321206
20
12.0530424165
30
0.0000000000
10
-16.4118980855
20
12.0446231891
30
0.0000000000
10
-16.4256267811
20
12.0395900544
30
0.0000000000
10
-16.4271740539
20
12.0390437056
30
0.0000000000
11
-16.3779892294
21
12.0652672684
31
0.0000000000
11
-16.3890594888
21
12.0577021907
31
0.0000000000
11
-16.4225661218
21
12.0407355574
31
0.0000000000
11
-16.4271740539
21
12.0390437056
31
0.0000000000
0
SPLINE
5
3B2
100
AcDbEntity
8
0
100
AcDbSpline
62
7
6
CONTINUOUS
70
0
71
3
72
9
73
5
74
3
42
0.0000001000
43
0.0000001000
44
0.0000000001
12
-0.0000005827
22
0.0621791276
32
0.0000000000
13
0.0190122768
23
0.0591871160
33
0.0000000000
40
0.0000000000
40
0.0000000000
40
0.0000000000
40
0.0000000000
40
0.4411896172
40
1.0000000000
40
1.0000000000
40
1.0000000000
40
1.0000000000
10
5.0039574947
20
-33.0171270096
30
0.0000000000
10
5.0039574090
20
-33.0079827478
30
0.0000000000
10
5.0053795634
20
-32.9872635583
30
0.0000000000
10
5.0100178390
20
-32.9669818823
30
0.0000000000
10
5.0135592582
20
-32.9559570907
30
0.0000000000
11
5.0039574947
21
-33.0171270096
31
0.0000000000
11
5.0058383010
21
-32.9897857265
31
0.0000000000
11
5.0135592582
21
-32.9559570907
31
0.0000000000
0
SPLINE
5
3B3
100
AcDbEntity
8
0
100
AcDbSpline
62
7
6
CONTINUOUS
70
0
71
3
72
11
73
7
74
5
42
0.0000001000
43
0.0000001000
44
0.0000000001
12
0.0383298063
22
0.1193245143
32
0.0000000000
13
0.0995255416
23
0.0739114597
33
0.0000000000
40
0.0000000000
40
0.0000000000
40
0.0000000000
40
0.0000000000
40
0.1345341441
40
0.5216819335
40
0.8837872034
40
1.0000000000
40
1.0000000000
40
1.0000000000
40
1.0000000000
10
5.0135592582
20
-32.9559570907
30
0.0000000000
10
5.0152781474
20
-32.9506060169
30
0.0000000000
10
5.0228108522
20
-32.9301383128
30
0.0000000000
10
5.0411105399
20
-32.8978185621
30
0.0000000000
10
5.0662119032
20
-32.8712336722
30
0.0000000000
10
5.0815730962
20
-32.8588669528
30
0.0000000000
10
5.0854284767
20
-32.8560038003
30
0.0000000000
11
5.0135592582
21
-32.9559570907
31
0.0000000000
11
5.0193807164
21
-32.9401418154
31
0.0000000000
11
5.0432888949
21
-32.8980734579
31
0.0000000000
11
5.0741966043
21
-32.8650135255
31
0.0000000000
11
5.0854284767
21
-32.8560038003
31
0.0000000000
0
SPLINE
5
3B4
100
AcDbEntity
8
0
100
AcDbSpline
62
7
6
CONTINUOUS
70
0
71
3
72
9
73
5
74
3
42
0.0000001000
43
0.0000001000
44
0.0000000001
12
0.0441992055
22
0.0328240143
32
0.0000000000
13
0.0500733241
23
0.0190345376
33
0.0000000000
40
0.0000000000
40
0.0000000000
40
0.0000000000
40
0.0000000000
40
0.4922660618
40
1.0000000000
40
1.0000000000
40
1.0000000000
40
1.0000000000
10
5.0854284767
20
-32.8560038003
30
0.0000000000
10
5.0926810663
20
-32.8506177509
30
0.0000000000
10
5.1082998182
20
-32.8406934894
30
0.0000000000
10
5.1266887203
20
-32.8329501389
30
0.0000000000
10
5.1351633623
20
-32.8297286453
30
0.0000000000
11
5.0854284767
21
-32.8560038003
31
0.0000000000
11
5.1087295083
21
-32.8413754878
31
0.0000000000
11
5.1351633623
21
-32.8297286453
31
0.0000000000
0
SPLINE
5
3B5
100
AcDbEntity
8
0
100
AcDbSpline
62
7
6
CONTINUOUS
70
0
71
3
72
13
73
9
74
7
42
0.0000001000
43
0.0000001000
44
0.0000000001
12
0.1977489480
22
-0.0798592444
32
0.0000000000
13
0.0121905840
23
-0.2307764057
33
0.0000000000
40
0.0000000000
40
0.0000000000
40
0.0000000000
40
0.0000000000
40
0.1252307285
40
0.2877769875
40
0.4554276510
40
0.6289113882
40
0.8099613190
40
1.0000000000
40
1.0000000000
40
1.0000000000
40
1.0000000000
10
2.4743545430
20
-32.8302492631
30
0.0000000000
10
2.4826092913
20
-32.8335828736
30
0.0000000000
10
2.5048000078
20
-32.8430614730
30
0.0000000000
10
2.5328665006
20
-32.8628768061
30
0.0000000000
10
2.5605589049
20
-32.8906172470
30
0.0000000000
10
2.5826975163
20
-32.9243700032
30
0.0000000000
10
2.5982569239
20
-32.9635808162
30
0.0000000000
10
2.6029088539
20
-32.9919652295
30
0.0000000000
10
2.6036810814
20
-33.0065840441
30
0.0000000000
11
2.4743545430
21
-32.8302492631
31
0.0000000000
11
2.5010787516
21
-32.8424085320
31
0.0000000000
11
2.5320200942
21
-32.8635802041
31
0.0000000000
11
2.5592013877
21
-32.8910838344
31
0.0000000000
11
2.5812031784
21
-32.9245061893
31
0.0000000000
11
2.5965836135
21
-32.9633299144
31
0.0000000000
11
2.6036810814
21
-33.0065840441
31
0.0000000000
0
SPLINE
5
3B6
100
AcDbEntity
8
0
100
AcDbSpline
62
7
6
CONTINUOUS
70
0
71
3
72
8
73
4
74
2
42
0.0000001000
43
0.0000001000
44
0.0000000001
12
0.0005564086
22
-0.0105332088
32
0.0000000000
13
-0.0000004189
23
-0.0105479302
33
0.0000000000
40
0.0000000000
40
0.0000000000
40
0.0000000000
40
0.0000000000
40
1.0000000000
40
1.0000000000
40
1.0000000000
40
1.0000000000
10
2.6036810814
20
-33.0065840441
30
0.0000000000
10
2.6038665510
20
-33.0100951137
30
0.0000000000
10
2.6039591449
20
-33.0136109615
30
0.0000000000
10
2.6039590053
20
-33.0171269382
30
0.0000000000
11
2.6036810814
21
-33.0065840441
31
0.0000000000
11
2.6039590053
21
-33.0171269382
31
0.0000000000
0
SPLINE
5
3B7
100
AcDbEntity
8
0
100
AcDbSpline
62
7
6
CONTINUOUS
70
0
71
3
72
9
73
5
74
3
42
0.0000001000
43
0.0000001000
44
0.0000000001
12
0.0152781656
22
0.1420694081
32
0.0000000000
13
0.0546660936
23
0.1319416300
33
0.0000000000
40
0.0000000000
40
0.0000000000
40
0.0000000000
40
0.0000000000
40
0.3123613668
40
1.0000000000
40
1.0000000000
40
1.0000000000
40
1.0000000000
10
-16.7931686784
20
11.5405196825
30
0.0000000000
10
-16.7915779089
20
11.5553120140
30
0.0000000000
10
-16.7843769997
20
11.6024600352
30
0.0000000000
10
-16.7704869933
20
11.6482258054
30
0.0000000000
10
-16.7579568206
20
11.6784685261
30
0.0000000000
11
-16.7931686784
21
11.5405196825
31
0.0000000000
11
-16.7864266845
21
11.5846315890
31
0.0000000000
11
-16.7579568206
21
11.6784685261
31
0.0000000000
0
SPLINE
5
3B8
100
AcDbEntity
8
0
100
AcDbSpline
62
7
6
CONTINUOUS
70
0
71
3
72
8
73
4
74
2
42
0.0000001000
43
0.0000001000
44
0.0000000001
12
0.0051970411
22
0.0125435353
32
0.0000000000
13
0.0055363097
23
0.0123982661
33
0.0000000000
40
0.0000000000
40
0.0000000000
40
0.0000000000
40
0.0000000000
40
1.0000000000
40
1.0000000000
40
1.0000000000
40
1.0000000000
10
-16.7579568206
20
11.6784685261
30
0.0000000000
10
-16.7562244736
20
11.6826497046
30
0.0000000000
10
-16.7544351879
20
11.6868074186
30
0.0000000000
10
-16.7525897514
20
11.6909401740
30
0.0000000000
11
-16.7579568206
21
11.6784685261
31
0.0000000000
11
-16.7525897514
21
11.6909401740
31
0.0000000000
0
SPLINE
5
3B9
100
AcDbEntity
8
0
100
AcDbSpline
62
7
6
CONTINUOUS
70
0
71
3
72
8
73
4
74
2
42
0.0000001000
43
0.0000001000
44
0.0000000001
12
-0.0000631258
22
0.1553522067
32
0.0000000000
13
0.0478505589
23
0.1486293504
33
0.0000000000
40
0.0000000000
40
0.0000000000
40
0.0000000000
40
0.0000000000
40
1.0000000000
40
1.0000000000
40
1.0000000000
40
1.0000000000
10
-16.7738672975
20
11.5453890210
30
0.0000000000
10
-16.7738883394
20
11.5971730899
30
0.0000000000
10
-16.7657333445
20
11.6493198967
30
0.0000000000
10
-16.7497831582
20
11.6988630135
30
0.0000000000
11
-16.7738672975
21
11.5453890210
31
0.0000000000
11
-16.7497831582
21
11.6988630135
31
0.0000000000
0
SPLINE
5
3BA
100
AcDbEntity
8
0
100
AcDbSpline
62
7
6
CONTINUOUS
70
0
71
3
72
8
73
4
74
2
42
0.0000001000
43
0.0000001000
44
0.0000000001
12
0.0159405922
22
0.0495133165
32
0.0000000000
13
0.0210004588
23
0.0475400632
33
0.0000000000
40
0.0000000000
40
0.0000000000
40
0.0000000000
40
0.0000000000
40
1.0000000000
40
1.0000000000
40
1.0000000000
40
1.0000000000
10
-16.7497831582
20
11.6988630135
30
0.0000000000
10
-16.7444696274
20
11.7153674523
30
0.0000000000
10
-16.7382910060
20
11.7315829401
30
0.0000000000
10
-16.7312908530
20
11.7474296279
30
0.0000000000
11
-16.7497831582
21
11.6988630135
31
0.0000000000
11
-16.7312908530
21
11.7474296279
31
0.0000000000
0
SPLINE
5
3BB
100
AcDbEntity
8
0
100
AcDbSpline
62
7
6
CONTINUOUS
70
0
71
3
72
9
73
5
74
3
42
0.0000001000
43
0.0000001000
44
0.0000000001
12
0.0447496063
22
0.1013025065
32
0.0000000000
13
0.0658651189
23
0.0889385142
33
0.0000000000
40
0.0000000000
40
0.0000000000
40
0.0000000000
40
0.0000000000
40
0.9393105386
40
1.0000000000
40
1.0000000000
40
1.0000000000
40
1.0000000000
10
-16.7312908530
20
11.7474296279
30
0.0000000000
10
-16.7172795941
20
11.7791477985
30
0.0000000000
10
-16.6988591379
20
11.8113423283
30
0.0000000000
10
-16.6771042570
20
11.8411365487
30
0.0000000000
10
-16.6757718175
20
11.8429357588
30
0.0000000000
11
-16.7312908530
21
11.7474296279
31
0.0000000000
11
-16.6797325596
21
11.8375113174
31
0.0000000000
11
-16.6757718175
21
11.8429357588
31
0.0000000000
0
SPLINE
5
3BC
100
AcDbEntity
8
0
100
AcDbSpline
62
7
6
CONTINUOUS
70
0
71
3
72
10
73
6
74
4
42
0.0000001000
43
0.0000001000
44
0.0000000001
12
-0.0001309039
22
0.3150247530
32
0.0000000000
13
0.1868965360
23
0.2549287980
33
0.0000000000
40
0.0000000000
40
0.0000000000
40
0.0000000000
40
0.0000000000
40
0.4827878083
40
0.9655370938
40
1.0000000000
40
1.0000000000
40
1.0000000000
40
1.0000000000
10
-16.7564139501
20
11.5689412176
30
0.0000000000
10
-16.7564350163
20
11.6196379210
30
0.0000000000
10
-16.7408152084
20
11.7217081898
30
0.0000000000
10
-16.6936445076
20
11.8173035872
30
0.0000000000
10
-16.6619036813
20
11.8616062312
30
0.0000000000
10
-16.6597566820
20
11.8645347603
30
0.0000000000
11
-16.7564139501
21
11.5689412176
31
0.0000000000
11
-16.7333326749
21
11.7192697256
31
0.0000000000
11
-16.6661009895
21
11.8556794568
31
0.0000000000
11
-16.6597566820
21
11.8645347603
31
0.0000000000
0
SPLINE
5
3BD
100
AcDbEntity
8
0
100
AcDbSpline
62
7
6
CONTINUOUS
70
0
71
3
72
11
73
7
74
5
42
0.0000001000
43
0.0000001000
44
0.0000000001
12
-0.3922423365
22
0.0000000000
32
0.0000000000
13
-0.2777975873
23
-0.2777975867
33
0.0000000000
40
0.0000000000
40
0.0000000000
40
0.0000000000
40
0.0000000000
40
0.2500000360
40
0.5000003710
40
0.7499998934
40
1.0000000000
40
1.0000000000
40
1.0000000000
40
1.0000000000
10
-16.2434468551
20
12.0396370739
30
0.0000000000
10
-16.2761337212
20
12.0396370739
30
0.0000000000
10
-16.3416886762
20
12.0331861354
30
0.0000000000
10
-16.4360994713
20
12.0045322627
30
0.0000000000
10
-16.5231447517
20
11.9580052357
30
0.0000000000
10
-16.5740027527
20
11.9162641099
30
0.0000000000
10
-16.5971525615
20
11.8931143011
30
0.0000000000
11
-16.2434468551
21
12.0396370739
31
0.0000000000
11
-16.3410350455
21
12.0300232280
31
0.0000000000
11
-16.4348719826
21
12.0015533641
31
0.0000000000
11
-16.5213516517
21
11.9553244959
31
0.0000000000
11
-16.5971525615
21
11.8931143011
31
0.0000000000
0
SPLINE
5
3BE
100
AcDbEntity
8
0
100
AcDbSpline
62
7
6
CONTINUOUS
70
0
71
3
72
8
73
4
74
2
42
0.0000001000
43
0.0000001000
44
0.0000000001
12
-0.0058907169
22
0.0075535693
32
0.0000000000
13
-0.0057443322
23
0.0076652095
33
0.0000000000
40
0.0000000000
40
0.0000000000
40
0.0000000000
40
0.0000000000
40
1.0000000000
40
1.0000000000
40
1.0000000000
40
1.0000000000
10
-16.6682640000
20
-32.6433614703
30
0.0000000000
10
-16.6702275723
20
-32.6408436139
30
0.0000000000
10
-16.6721669413
20
-32.6383069417
30
0.0000000000
10
-16.6740817187
20
-32.6357518718
30
0.0000000000
11
-16.6682640000
21
-32.6433614703
31
0.0000000000
11
-16.6740817187
21
-32.6357518718
31
0.0000000000
0
SPLINE
5
3BF
100
AcDbEntity
8
0
100
AcDbSpline
62
7
6
CONTINUOUS
70
0
71
3
72
8
73
4
74
2
42
0.0000001000
43
0.0000001000
44
0.0000000001
12
-0.0477356119
22
0.0173664327
32
0.0000000000
13
-0.0458767166
23
0.0222263650
33
0.0000000000
40
0.0000000000
40
0.0000000000
40
0.0000000000
40
0.0000000000
40
1.0000000000
40
1.0000000000
40
1.0000000000
40
1.0000000000
10
-16.4275975510
20
-32.8292266319
30
0.0000000000
10
-16.4435094216
20
-32.8234378210
30
0.0000000000
10
-16.4591579623
20
-32.8168151569
30
0.0000000000
10
-16.4744502011
20
-32.8094063686
30
0.0000000000
11
-16.4275975510
21
-32.8292266319
31
0.0000000000
11
-16.4744502011
21
-32.8094063686
31
0.0000000000
0
SPLINE
5
3C0
100
AcDbEntity
8
0
100
AcDbSpline
62
7
6
CONTINUOUS
70
0
71
3
72
9
73
5
74
3
42
0.0000001000
43
0.0000001000
44
0.0000000001
12
-0.1830273253
22
0.0886731319
32
0.0000000000
13
-0.1329818246
23
0.1538838594
33
0.0000000000
40
0.0000000000
40
0.0000000000
40
0.0000000000
40
0.0000000000
40
0.4998218486
40
1.0000000000
40
1.0000000000
40
1.0000000000
40
1.0000000000
10
-16.4744502011
20
-32.8094063686
30
0.0000000000
10
-16.5049438865
20
-32.7946327790
30
0.0000000000
10
-16.5631184690
20
-32.7588211289
30
0.0000000000
10
-16.6126711962
20
-32.7120119815
30
0.0000000000
10
-16.6348427306
20
-32.6863555334
30
0.0000000000
11
-16.4744502011
21
-32.8094063686
31
0.0000000000
11
-16.5609438131
21
-32.7560864732
31
0.0000000000
11
-16.6348427306
21
-32.6863555334
31
0.0000000000
0
SPLINE
5
3C1
100
AcDbEntity
8
0
100
AcDbSpline
62
7
6
CONTINUOUS
70
0
71
3
72
8
73
4
74
2
42
0.0000001000
43
0.0000001000
44
0.0000000001
12
-0.0212387299
22
0.0245770257
32
0.0000000000
13
-0.0195952227
23
0.0258999135
33
0.0000000000
40
0.0000000000
40
0.0000000000
40
0.0000000000
40
0.0000000000
40
1.0000000000
40
1.0000000000
40
1.0000000000
40
1.0000000000
10
-16.6348427306
20
-32.6863555334
30
0.0000000000
10
-16.6419223073
20
-32.6781631914
30
0.0000000000
10
-16.6487353996
20
-32.6697421022
30
0.0000000000
10
-16.6552671405
20
-32.6611087977
30
0.0000000000
11
-16.6348427306
21
-32.6863555334
31
0.0000000000
11
-16.6552671405
21
-32.6611087977
31
0.0000000000
0
SPLINE
5
3C2
100
AcDbEntity
8
0
100
AcDbSpline
62
7
6
CONTINUOUS
70
0
71
3
72
8
73
4
74
2
42
0.0000001000
43
0.0000001000
44
0.0000000001
12
0.0058907169
22
-0.0075535693
32
0.0000000000
13
0.0057443322
23
-0.0076652095
33
0.0000000000
40
0.0000000000
40
0.0000000000
40
0.0000000000
40
0.0000000000
40
1.0000000000
40
1.0000000000
40
1.0000000000
40
1.0000000000
10
5.3761829393
20
11.8528153583
30
0.0000000000
10
5.3781465116
20
11.8502975019
30
0.0000000000
10
5.3800858806
20
11.8477608297
30
0.0000000000
10
5.3820006579
20
11.8452057598
30
0.0000000000
11
5.3761829393
21
11.8528153583
31
0.0000000000
11
5.3820006579
21
11.8452057598
31
0.0000000000
0
SPLINE
5
3C3
100
AcDbEntity
8
0
100
AcDbSpline
62
7
6
CONTINUOUS
70
0
71
3
72
8
73
4
74
2
42
0.0000001000
43
0.0000001000
44
0.0000000001
12
0.0477356119
22
-0.0173664327
32
0.0000000000
13
0.0458767166
23
-0.0222263650
33
0.0000000000
40
0.0000000000
40
0.0000000000
40
0.0000000000
40
0.0000000000
40
1.0000000000
40
1.0000000000
40
1.0000000000
40
1.0000000000
10
5.1355164902
20
12.0386805199
30
0.0000000000
10
5.1514283609
20
12.0328917089
30
0.0000000000
10
5.1670769015
20
12.0262690449
30
0.0000000000
10
5.1823691404
20
12.0188602566
30
0.0000000000
11
5.1355164902
21
12.0386805199
31
0.0000000000
11
5.1823691404
21
12.0188602566
31
0.0000000000
0
SPLINE
5
3C4
100
AcDbEntity
8
0
100
AcDbSpline
62
7
6
CONTINUOUS
70
0
71
3
72
9
73
5
74
3
42
0.0000001000
43
0.0000001000
44
0.0000000001
12
0.1830273253
22
-0.0886731319
32
0.0000000000
13
0.1329818246
23
-0.1538838594
33
0.0000000000
40
0.0000000000
40
0.0000000000
40
0.0000000000
40
0.0000000000
40
0.4998218486
40
1.0000000000
40
1.0000000000
40
1.0000000000
40
1.0000000000
10
5.1823691404
20
12.0188602566
30
0.0000000000
10
5.2128628258
20
12.0040866670
30
0.0000000000
10
5.2710374083
20
11.9682750169
30
0.0000000000
10
5.3205901355
20
11.9214658695
30
0.0000000000
10
5.3427616699
20
11.8958094213
30
0.0000000000
11
5.1823691404
21
12.0188602566
31
0.0000000000
11
5.2688627524
21
11.9655403612
31
0.0000000000
11
5.3427616699
21
11.8958094213
31
0.0000000000
0
SPLINE
5
3C5
100
AcDbEntity
8
0
100
AcDbSpline
62
7
6
CONTINUOUS
70
0
71
3
72
8
73
4
74
2
42
0.0000001000
43
0.0000001000
44
0.0000000001
12
0.0212387299
22
-0.0245770257
32
0.0000000000
13
0.0195952227
23
-0.0258999134
33
0.0000000000
40
0.0000000000
40
0.0000000000
40
0.0000000000
40
0.0000000000
40
1.0000000000
40
1.0000000000
40
1.0000000000
40
1.0000000000
10
5.3427616699
20
11.8958094213
30
0.0000000000
10
5.3498412466
20
11.8876170794
30
0.0000000000
10
5.3566543389
20
11.8791959902
30
0.0000000000
10
5.3631860798
20
11.8705626857
30
0.0000000000
11
5.3427616699
21
11.8958094213
31
0.0000000000
11
5.3631860798
21
11.8705626857
31
0.0000000000
0
SPLINE
5
3C6
100
AcDbEntity
8
0
100
AcDbSpline
62
7
6
CONTINUOUS
70
0
71
3
72
9
73
5
74
3
42
0.0000001000
43
0.0000001000
44
0.0000000001
12
0.0000000000
22
-0.1961213137
32
0.0000000000
13
-0.0751809908
23
-0.1814562158
33
0.0000000000
40
0.0000000000
40
0.0000000000
40
0.0000000000
40
0.0000000000
40
0.4999997011
40
1.0000000000
40
1.0000000000
40
1.0000000000
40
1.0000000000
10
5.5039594696
20
-32.2775895106
30
0.0000000000
10
5.5039594696
20
-32.3102763767
30
0.0000000000
10
5.4975085312
20
-32.3758313317
30
0.0000000000
10
5.4784059326
20
-32.4387719174
30
0.0000000000
10
5.4658757599
20
-32.4690146381
30
0.0000000000
11
5.5039594696
21
-32.2775895106
31
0.0000000000
11
5.4943456238
21
-32.3751777010
31
0.0000000000
11
5.4658757599
21
-32.4690146381
31
0.0000000000
0
SPLINE
5
3C7
100
AcDbEntity
8
0
100
AcDbSpline
62
7
6
CONTINUOUS
70
0
71
3
72
8
73
4
74
2
42
0.0000001000
43
0.0000001000
44
0.0000000001
12
-0.0052270958
22
-0.0126160750
32
0.0000000000
13
-0.0055702859
23
-0.0124690945
33
0.0000000000
40
0.0000000000
40
0.0000000000
40
0.0000000000
40
0.0000000000
40
1.0000000000
40
1.0000000000
40
1.0000000000
40
1.0000000000
10
5.4658757599
20
-32.4690146381
30
0.0000000000
10
5.4641333947
20
-32.4732199965
30
0.0000000000
10
5.4623334303
20
-32.4774016182
30
0.0000000000
10
5.4604766684
20
-32.4815579831
30
0.0000000000
11
5.4658757599
21
-32.4690146381
31
0.0000000000
11
5.4604766684
21
-32.4815579831
31
0.0000000000
0
SPLINE
5
3C8
100
AcDbEntity
8
0
100
AcDbSpline
62
7
6
CONTINUOUS
70
0
71
3
72
9
73
5
74
3
42
0.0000001000
43
0.0000001000
44
0.0000000001
12
-0.0646228967
22
-0.1310406053
32
0.0000000000
13
-0.0996034893
23
-0.1068954192
33
0.0000000000
40
0.0000000000
40
0.0000000000
40
0.0000000000
40
0.0000000000
40
0.4484552207
40
1.0000000000
40
1.0000000000
40
1.0000000000
40
1.0000000000
10
5.4523836592
20
-32.4987866927
30
0.0000000000
10
5.4427235007
20
-32.5183753072
30
0.0000000000
10
5.4183247305
20
-32.5606504320
30
0.0000000000
10
5.3879934614
20
-32.5989576157
30
0.0000000000
10
5.3696815332
20
-32.6186101525
30
0.0000000000
11
5.4523836592
21
-32.4987866927
31
0.0000000000
11
5.4196468917
21
-32.5554943072
31
0.0000000000
11
5.3696815332
21
-32.6186101525
31
0.0000000000
0
SPLINE
5
3C9
100
AcDbEntity
8
0
100
AcDbSpline
62
7
6
CONTINUOUS
70
0
71
3
72
10
73
6
74
4
42
0.0000001000
43
0.0000001000
44
0.0000000001
12
0.0001295210
22
-0.3160926902
32
0.0000000000
13
-0.1881224883
23
-0.2554140664
33
0.0000000000
40
0.0000000000
40
0.0000000000
40
0.0000000000
40
0.0000000000
40
0.4914778745
40
0.9829156018
40
1.0000000000
40
1.0000000000
40
1.0000000000
40
1.0000000000
10
5.4817844026
20
-32.3359385236
30
0.0000000000
10
5.4818056215
20
-32.3877227115
30
0.0000000000
10
5.4654965992
20
-32.4920123702
30
0.0000000000
10
5.4171836887
20
-32.5875198147
30
0.0000000000
10
5.3855314438
20
-32.6309879607
30
0.0000000000
10
5.3844601239
20
-32.6324424926
30
0.0000000000
11
5.4817844026
21
-32.3359385236
31
0.0000000000
11
5.4577006735
21
-32.4894129418
31
0.0000000000
11
5.3876502367
21
-32.6280614781
31
0.0000000000
11
5.3844601239
21
-32.6324424926
31
0.0000000000
0
SPLINE
5
3CA
100
AcDbEntity
8
0
100
AcDbSpline
62
7
6
CONTINUOUS
70
0
71
3
72
11
73
7
74
5
42
0.0000001000
43
0.0000001000
44
0.0000000001
12
0.3922423365
22
0.0000000000
32
0.0000000000
13
0.2777975873
23
0.2777975867
33
0.0000000000
40
0.0000000000
40
0.0000000000
40
0.0000000000
40
0.0000000000
40
0.2500000360
40
0.5000003710
40
0.7499998934
40
1.0000000000
40
1.0000000000
40
1.0000000000
40
1.0000000000
10
4.9513657944
20
-32.8301831859
30
0.0000000000
10
4.9840526605
20
-32.8301831859
30
0.0000000000
10
5.0496076155
20
-32.8237322475
30
0.0000000000
10
5.1440184106
20
-32.7950783748
30
0.0000000000
10
5.2310636910
20
-32.7485513478
30
0.0000000000
10
5.2819216920
20
-32.7068102219
30
0.0000000000
10
5.3050715008
20
-32.6836604131
30
0.0000000000
11
4.9513657944
21
-32.8301831859
31
0.0000000000
11
5.0489539848
21
-32.8205693400
31
0.0000000000
11
5.1427909219
21
-32.7920994761
31
0.0000000000
11
5.2292705910
21
-32.7458706079
31
0.0000000000
11
5.3050715008
21
-32.6836604131
31
0.0000000000
0
SPLINE
5
3CB
100
AcDbEntity
8
0
100
AcDbSpline
62
7
6
CONTINUOUS
70
0
71
3
72
11
73
7
74
5
42
0.0000001000
43
0.0000001000
44
0.0000000001
12
0.2777975879
22
0.2777975874
32
0.0000000000
13
0.0000000000
23
0.3922423374
33
0.0000000000
40
0.0000000000
40
0.0000000000
40
0.0000000000
40
0.0000000000
40
0.2499994775
40
0.4999992599
40
0.7499998477
40
1.0000000000
40
1.0000000000
40
1.0000000000
40
1.0000000000
10
5.3050715008
20
-32.6836604131
30
0.0000000000
10
5.3282212514
20
-32.6605106625
30
0.0000000000
10
5.3699623585
20
-32.6096527107
30
0.0000000000
10
5.4164894134
20
-32.5226074607
30
0.0000000000
10
5.4451433286
20
-32.4281965904
30
0.0000000000
10
5.4515942749
20
-32.3626415868
30
0.0000000000
10
5.4515942749
20
-32.3299547054
30
0.0000000000
11
5.3050715008
21
-32.6836604131
31
0.0000000000
11
5.3672815588
21
-32.6078597087
31
0.0000000000
11
5.4135105093
21
-32.5213799677
31
0.0000000000
11
5.4419804200
21
-32.4275429409
31
0.0000000000
11
5.4515942749
21
-32.3299547054
31
0.0000000000
0
SPLINE
5
3CC
100
AcDbEntity
8
0
100
AcDbSpline
62
9
6
CONTINUOUS
70
0
71
3
72
11
73
7
74
5
42
0.0000001000
43
0.0000001000
44
0.0000000001
12
0.0000000000
22
-0.3645143837
32
0.0000000000
13
0.3645143837
23
-0.0000000000
33
0.0000000000
40
0.0000000000
40
0.0000000000
40
0.0000000000
40
0.0000000000
40
0.2320556365
40
0.4757923621
40
0.7332637475
40
1.0000000000
40
1.0000000000
40
1.0000000000
40
1.0000000000
10
-16.2960405304
20
13.4490645113
30
0.0000000000
10
-16.2960405304
20
13.4208686389
30
0.0000000000
10
-16.2823742714
20
13.3623313789
30
0.0000000000
10
-16.2255969374
20
13.2904776660
30
0.0000000000
10
-16.1427044448
20
13.2433742046
30
0.0000000000
10
-16.0784502639
20
13.2325581603
30
0.0000000000
10
-16.0460405304
20
13.2325581603
30
0.0000000000
11
-16.2960405304
21
13.4490645113
31
0.0000000000
11
-16.2771970742
21
13.3666024645
31
0.0000000000
11
-16.2230441397
21
13.2961681683
31
0.0000000000
11
-16.1418539862
21
13.2490899222
31
0.0000000000
11
-16.0460405304
21
13.2325581603
31
0.0000000000
0
SPLINE
5
3CD
100
AcDbEntity
8
0
100
AcDbSpline
62
9
6
CONTINUOUS
70
0
71
3
72
9
73
5
74
3
42
0.0000001000
43
0.0000001000
44
0.0000000001
12
0.0002601681
22
-0.0484178554
32
0.0000000000
13
-0.0426578516
23
-0.0057450990
33
0.0000000000
40
0.0000000000
40
0.0000000000
40
0.0000000000
40
0.0000000000
40
0.2622658604
40
1.0000000000
40
1.0000000000
40
1.0000000000
40
1.0000000000
10
-13.8960405123
20
-33.0171254895
30
0.0000000000
10
-13.8960177679
20
-33.0213582730
30
0.0000000000
10
-13.9216076173
20
-33.0169230992
30
0.0000000000
10
-13.9336976592
20
-33.0203446548
30
0.0000000000
10
-13.9441877103
20
-33.0217574400
30
0.0000000000
11
-13.8960405123
21
-33.0171254895
31
0.0000000000
11
-13.9085118932
21
-33.0195722961
31
0.0000000000
11
-13.9441877103
21
-33.0217574400
31
0.0000000000
0
SPLINE
5
3CE
100
AcDbEntity
8
0
100
AcDbSpline
62
9
6
CONTINUOUS
70
0
71
3
72
10
73
6
74
4
42
0.0000001000
43
0.0000001000
44
0.0000000001
12
-0.1777566390
22
-0.0239400121
32
0.0000000000
13
-0.2018896317
23
-0.0000009296
33
0.0000000000
40
0.0000000000
40
0.0000000000
40
0.0000000000
40
0.0000000000
40
0.2721745567
40
0.6156081544
40
1.0000000000
40
1.0000000000
40
1.0000000000
40
1.0000000000
10
-13.9441877103
20
-33.0217574400
30
0.0000000000
10
-13.9603146551
20
-33.0239293940
30
0.0000000000
10
-14.0051879277
20
-33.0229006515
30
0.0000000000
10
-14.0707370395
20
-33.0250354217
30
0.0000000000
10
-14.1201722876
20
-33.0249770129
30
0.0000000000
10
-14.1460405304
20
-33.0249771320
30
0.0000000000
11
-13.9441877103
21
-33.0217574400
31
0.0000000000
11
-13.9991099969
21
-33.0234777104
31
0.0000000000
11
-14.0684367726
21
-33.0245890334
31
0.0000000000
11
-14.1460405304
21
-33.0249771320
31
0.0000000000
0
SPLINE
5
3CF
100
AcDbEntity
8
0
100
AcDbSpline
62
9
6
CONTINUOUS
70
0
71
3
72
10
73
6
74
4
42
0.0000001000
43
0.0000001000
44
0.0000000001
12
-0.0719830237
22
-0.0039034648
32
0.0000000000
13
-0.0713783714
23
-0.0023117232
33
0.0000000000
40
0.0000000000
40
0.0000000000
40
0.0000000000
40
0.0000000000
40
0.4262895297
40
0.8686292396
40
1.0000000000
40
1.0000000000
40
1.0000000000
40
1.0000000000
10
-16.3081850337
20
-32.8259387936
30
0.0000000000
10
-16.3184135701
20
-32.8264934623
30
0.0000000000
10
-16.3392411484
20
-32.8276705864
30
0.0000000000
10
-16.3634309178
20
-32.8289799988
30
0.0000000000
10
-16.3770170846
20
-32.8294272424
30
0.0000000000
10
-16.3801427615
20
-32.8295284733
30
0.0000000000
11
-16.3081850337
21
-32.8259387936
31
0.0000000000
11
-16.3389007079
21
-32.8276392671
31
0.0000000000
11
-16.3707797455
21
-32.8292064799
31
0.0000000000
11
-16.3801427615
21
-32.8295284733
31
0.0000000000
0
SPLINE
5
3D0
100
AcDbEntity
8
0
100
AcDbSpline
62
9
6
CONTINUOUS
70
0
71
3
72
11
73
7
74
5
42
0.0000001000
43
0.0000001000
44
0.0000000001
12
-0.0463032329
22
-0.0014996176
32
0.0000000000
13
-0.0277297771
23
0.0274165715
33
0.0000000000
40
0.0000000000
40
0.0000000000
40
0.0000000000
40
0.0000000000
40
0.3441538037
40
0.7238529039
40
0.9414902551
40
1.0000000000
40
1.0000000000
40
1.0000000000
40
1.0000000000
10
-16.3801427615
20
-32.8295284733
30
0.0000000000
10
-16.3854545728
20
-32.8297005063
30
0.0000000000
10
-16.3967158433
20
-32.8300551677
30
0.0000000000
10
-16.4124524309
20
-32.8309135993
30
0.0000000000
10
-16.4205956013
20
-32.8294938594
30
0.0000000000
10
-16.4268168008
20
-32.8302627381
30
0.0000000000
10
-16.4273576215
20
-32.8297280259
30
0.0000000000
11
-16.3801427615
21
-32.8295284733
31
0.0000000000
11
-16.3963521917
21
-32.8301067723
31
0.0000000000
11
-16.4141238020
21
-32.8303188227
31
0.0000000000
11
-16.4243058807
21
-32.8299982731
31
0.0000000000
11
-16.4273576215
21
-32.8297280259
31
0.0000000000
0
SPLINE
5
3D1
100
AcDbEntity
8
0
100
AcDbSpline
62
9
6
CONTINUOUS
70
0
71
3
72
10
73
6
74
4
42
0.0000001000
43
0.0000001000
44
0.0000000001
12
-0.0711468823
22
0.0038665503
32
0.0000000000
13
-0.0705447714
23
0.0022652218
33
0.0000000000
40
0.0000000000
40
0.0000000000
40
0.0000000000
40
0.0000000000
40
0.4300164758
40
0.8682270936
40
1.0000000000
40
1.0000000000
40
1.0000000000
40
1.0000000000
10
-16.3081920254
20
12.0353912998
30
0.0000000000
10
-16.3183901360
20
12.0359455266
30
0.0000000000
10
-16.3389636162
20
12.0370980715
30
0.0000000000
10
-16.3628667074
20
12.0384132200
30
0.0000000000
10
-16.3762107407
20
12.0388482539
30
0.0000000000
10
-16.3793093705
20
12.0389477522
30
0.0000000000
11
-16.3081920254
21
12.0353912998
31
0.0000000000
11
-16.3388135613
21
12.0370845699
31
0.0000000000
11
-16.3700258176
21
12.0386302919
31
0.0000000000
11
-16.3793093705
21
12.0389477522
31
0.0000000000
0
SPLINE
5
3D2
100
AcDbEntity
8
0
100
AcDbSpline
62
9
6
CONTINUOUS
70
0
71
3
72
11
73
7
74
5
42
0.0000001000
43
0.0000001000
44
0.0000000001
12
-0.0471335636
22
0.0015134782
32
0.0000000000
13
-0.0285523330
23
-0.0277523212
33
0.0000000000
40
0.0000000000
40
0.0000000000
40
0.0000000000
40
0.0000000000
40
0.3425270792
40
0.7260705254
40
0.9431346451
40
1.0000000000
40
1.0000000000
40
1.0000000000
40
1.0000000000
10
-16.3793093705
20
12.0389477522
30
0.0000000000
10
-16.3846908778
20
12.0391205546
30
0.0000000000
10
-16.3961856456
20
12.0394799724
30
0.0000000000
10
-16.4122330991
20
12.0404090702
30
0.0000000000
10
-16.4205613466
20
12.0389292367
30
0.0000000000
10
-16.4268139266
20
12.0397065941
30
0.0000000000
10
-16.4273551395
20
12.0391805455
30
0.0000000000
11
-16.3793093705
21
12.0389477522
31
0.0000000000
11
-16.3957275431
21
12.0395388630
31
0.0000000000
11
-16.4140008108
21
12.0397805078
31
0.0000000000
11
-16.4243378831
21
12.0394439185
31
0.0000000000
11
-16.4273551395
21
12.0391805455
31
0.0000000000
0
SPLINE
5
3D3
100
AcDbEntity
8
0
100
AcDbSpline
62
9
6
CONTINUOUS
70
0
71
3
72
9
73
5
74
3
42
0.0000001000
43
0.0000001000
44
0.0000000001
12
-0.0002601681
22
0.0484178554
32
0.0000000000
13
0.0426578516
23
0.0057450990
33
0.0000000000
40
0.0000000000
40
0.0000000000
40
0.0000000000
40
0.0000000000
40
0.2622658604
40
1.0000000000
40
1.0000000000
40
1.0000000000
40
1.0000000000
10
2.6039594516
20
12.2265793775
30
0.0000000000
10
2.6039367072
20
12.2308121610
30
0.0000000000
10
2.6295265566
20
12.2263769872
30
0.0000000000
10
2.6416165985
20
12.2297985427
30
0.0000000000
10
2.6521066496
20
12.2312113280
30
0.0000000000
11
2.6039594516
21
12.2265793775
31
0.0000000000
11
2.6164308325
21
12.2290261841
31
0.0000000000
11
2.6521066496
21
12.2312113280
31
0.0000000000
0
SPLINE
5
3D4
100
AcDbEntity
8
0
100
AcDbSpline
62
9
6
CONTINUOUS
70
0
71
3
72
10
73
6
74
4
42
0.0000001000
43
0.0000001000
44
0.0000000001
12
0.1777566390
22
0.0239400121
32
0.0000000000
13
0.2018896317
23
0.0000009296
33
0.0000000000
40
0.0000000000
40
0.0000000000
40
0.0000000000
40
0.0000000000
40
0.2721745567
40
0.6156081544
40
1.0000000000
40
1.0000000000
40
1.0000000000
40
1.0000000000
10
2.6521066496
20
12.2312113280
30
0.0000000000
10
2.6682335944
20
12.2333832820
30
0.0000000000
10
2.7131068670
20
12.2323545395
30
0.0000000000
10
2.7786559788
20
12.2344893097
30
0.0000000000
10
2.8280912269
20
12.2344309009
30
0.0000000000
10
2.8539594696
20
12.2344310200
30
0.0000000000
11
2.6521066496
21
12.2312113280
31
0.0000000000
11
2.7070289362
21
12.2329315984
31
0.0000000000
11
2.7763557119
21
12.2340429213
31
0.0000000000
11
2.8539594696
21
12.2344310200
31
0.0000000000
0
SPLINE
5
3D5
100
AcDbEntity
8
0
100
AcDbSpline
62
9
6
CONTINUOUS
70
0
71
3
72
11
73
7
74
5
42
0.0000001000
43
0.0000001000
44
0.0000000001
12
0.0000000000
22
0.3645127889
32
0.0000000000
13
-0.3645127889
23
0.0000000000
33
0.0000000000
40
0.0000000000
40
0.0000000000
40
0.0000000000
40
0.0000000000
40
0.2332175100
40
0.4765997713
40
0.7336719567
40
1.0000000000
40
1.0000000000
40
1.0000000000
40
1.0000000000
10
-13.8960405304
20
-33.8065979214
30
0.0000000000
10
-13.8960405304
20
-33.7782609997
30
0.0000000000
10
-13.9098064059
20
-33.7196176135
30
0.0000000000
10
-13.9667279291
20
-33.6478332839
30
0.0000000000
10
-14.0495273224
20
-33.6008736556
30
0.0000000000
10
-14.1136805377
20
-33.5900915705
30
0.0000000000
10
-14.1460405304
20
-33.5900915705
30
0.0000000000
11
-13.8960405304
21
-33.8065979214
31
0.0000000000
11
-13.9150706472
21
-33.7237445279
31
0.0000000000
11
-13.9692638351
21
-33.6535048125
31
0.0000000000
11
-14.0503696723
21
-33.6065721351
31
0.0000000000
11
-14.1460405304
21
-33.5900915705
31
0.0000000000
0
SPLINE
5
3D6
100
AcDbEntity
8
0
100
AcDbSpline
62
9
6
CONTINUOUS
70
0
71
3
72
11
73
7
74
5
42
0.0000001000
43
0.0000001000
44
0.0000000001
12
0.0000000000
22
-0.3645127889
32
0.0000000000
13
0.3645127889
23
0.0000000000
33
0.0000000000
40
0.0000000000
40
0.0000000000
40
0.0000000000
40
0.0000000000
40
0.2332175100
40
0.4765997713
40
0.7336719567
40
1.0000000000
40
1.0000000000
40
1.0000000000
40
1.0000000000
10
-16.2960405304
20
13.0160518094
30
0.0000000000
10
-16.2960405304
20
12.9877148877
30
0.0000000000
10
-16.2822746548
20
12.9290715015
30
0.0000000000
10
-16.2253531317
20
12.8572871719
30
0.0000000000
10
-16.1425537383
20
12.8103275436
30
0.0000000000
10
-16.0784005230
20
12.7995454585
30
0.0000000000
10
-16.0460405304
20
12.7995454585
30
0.0000000000
11
-16.2960405304
21
13.0160518094
31
0.0000000000
11
-16.2770104135
21
12.9331984159
31
0.0000000000
11
-16.2228172257
21
12.8629587005
31
0.0000000000
11
-16.1417113884
21
12.8160260231
31
0.0000000000
11
-16.0460405304
21
12.7995454585
31
0.0000000000
0
SPLINE
5
3D7
100
AcDbEntity
8
0
100
AcDbSpline
62
9
6
CONTINUOUS
70
0
71
3
72
9
73
5
74
3
42
0.0000001000
43
0.0000001000
44
0.0000000001
12
0.0000059907
22
0.0482116067
32
0.0000000000
13
-0.0424770716
23
0.0057242708
33
0.0000000000
40
0.0000000000
40
0.0000000000
40
0.0000000000
40
0.0000000000
40
0.2620884843
40
1.0000000000
40
1.0000000000
40
1.0000000000
40
1.0000000000
10
-13.8960405304
20
12.2265762573
30
0.0000000000
10
-13.8960400070
20
12.2307881596
30
0.0000000000
10
-13.9214409792
20
12.2263891993
30
0.0000000000
10
-13.9334990334
20
12.2297919401
30
0.0000000000
10
-13.9439471402
20
12.2311999419
30
0.0000000000
11
-13.8960405304
21
12.2265762573
31
0.0000000000
11
-13.9084380816
21
12.2290182277
31
0.0000000000
11
-13.9439471402
21
12.2311999419
31
0.0000000000
0
SPLINE
5
3D8
100
AcDbEntity
8
0
100
AcDbSpline
62
9
6
CONTINUOUS
70
0
71
3
72
10
73
6
74
4
42
0.0000001000
43
0.0000001000
44
0.0000000001
12
-0.1780874139
22
0.0239993142
32
0.0000000000
13
-0.2021304383
23
-0.0000018301
33
0.0000000000
40
0.0000000000
40
0.0000000000
40
0.0000000000
40
0.0000000000
40
0.2714608706
40
0.6150906569
40
1.0000000000
40
1.0000000000
40
1.0000000000
40
1.0000000000
10
-13.9439471402
20
12.2311999419
30
0.0000000000
10
-13.9600617283
20
12.2333715668
30
0.0000000000
10
-14.0049314291
20
12.2323473266
30
0.0000000000
10
-14.0705653246
20
12.2344898436
30
0.0000000000
10
-14.1201065656
20
12.2344312548
30
0.0000000000
10
-14.1460405304
20
12.2344310200
30
0.0000000000
11
-13.9439471402
21
12.2311999419
31
0.0000000000
11
-13.9987905628
21
12.2329236835
31
0.0000000000
11
-14.0682396132
21
12.2340411085
31
0.0000000000
11
-14.1460405304
21
12.2344310200
31
0.0000000000
0
SPLINE
5
3D9
100
AcDbEntity
8
0
100
AcDbSpline
62
9
6
CONTINUOUS
70
0
71
3
72
8
73
4
74
2
42
0.0000001000
43
0.0000001000
44
0.0000000001
12
0.0029870908
22
-0.0156095890
32
0.0000000000
13
0.0024925820
23
-0.0156896389
33
0.0000000000
40
0.0000000000
40
0.0000000000
40
0.0000000000
40
0.0000000000
40
1.0000000000
40
1.0000000000
40
1.0000000000
40
1.0000000000
10
5.4795242574
20
11.5967164661
30
0.0000000000
10
5.4805199543
20
11.5915132698
30
0.0000000000
10
5.4814334426
20
11.5862951678
30
0.0000000000
10
5.4822643033
20
11.5810652882
30
0.0000000000
11
5.4795242574
21
11.5967164661
31
0.0000000000
11
5.4822643033
21
11.5810652882
31
0.0000000000
0
SPLINE
5
3DA
100
AcDbEntity
8
0
100
AcDbSpline
62
9
6
CONTINUOUS
70
0
71
3
72
8
73
4
74
2
42
0.0000001000
43
0.0000001000
44
0.0000000001
12
0.0123998442
22
-0.0780512241
32
0.0000000000
13
-0.0000239653
23
-0.0786447625
33
0.0000000000
40
0.0000000000
40
0.0000000000
40
0.0000000000
40
0.0000000000
40
1.0000000000
40
1.0000000000
40
1.0000000000
40
1.0000000000
10
5.4822643033
20
11.5810652882
30
0.0000000000
10
5.4863975847
20
11.5550482135
30
0.0000000000
10
5.4884860275
20
11.5287396696
30
0.0000000000
10
5.4884780390
20
11.5025247488
30
0.0000000000
11
5.4822643033
21
11.5810652882
31
0.0000000000
11
5.4884780390
21
11.5025247488
31
0.0000000000
0
SPLINE
5
3DB
100
AcDbEntity
8
0
100
AcDbSpline
62
9
6
CONTINUOUS
70
0
71
3
72
11
73
7
74
5
42
0.0000001000
43
0.0000001000
44
0.0000000001
12
0.0000000000
22
-0.3645143837
32
0.0000000000
13
0.3645143837
23
0.0000000000
33
0.0000000000
40
0.0000000000
40
0.0000000000
40
0.0000000000
40
0.0000000000
40
0.2320556365
40
0.4757923621
40
0.7332637475
40
1.0000000000
40
1.0000000000
40
1.0000000000
40
1.0000000000
10
2.6039594696
20
13.4490645113
30
0.0000000000
10
2.6039594696
20
13.4208686389
30
0.0000000000
10
2.6176257286
20
13.3623313789
30
0.0000000000
10
2.6744030626
20
13.2904776660
30
0.0000000000
10
2.7572955552
20
13.2433742046
30
0.0000000000
10
2.8215497361
20
13.2325581603
30
0.0000000000
10
2.8539594696
20
13.2325581603
30
0.0000000000
11
2.6039594696
21
13.4490645113
31
0.0000000000
11
2.6228029258
21
13.3666024645
31
0.0000000000
11
2.6769558603
21
13.2961681683
31
0.0000000000
11
2.7581460138
21
13.2490899222
31
0.0000000000
11
2.8539594696
21
13.2325581603
31
0.0000000000
0
SPLINE
5
3DC
100
AcDbEntity
8
0
100
AcDbSpline
62
9
6
CONTINUOUS
70
0
71
3
72
11
73
7
74
5
42
0.0000001000
43
0.0000001000
44
0.0000000001
12
0.0000000000
22
-0.3645127889
32
0.0000000000
13
-0.3645127889
23
-0.0000000000
33
0.0000000000
40
0.0000000000
40
0.0000000000
40
0.0000000000
40
0.0000000000
40
0.2332175100
40
0.4765997713
40
0.7336719567
40
1.0000000000
40
1.0000000000
40
1.0000000000
40
1.0000000000
10
-13.8960405304
20
13.0160518094
30
0.0000000000
10
-13.8960405304
20
12.9877148877
30
0.0000000000
10
-13.9098064059
20
12.9290715015
30
0.0000000000
10
-13.9667279291
20
12.8572871719
30
0.0000000000
10
-14.0495273224
20
12.8103275436
30
0.0000000000
10
-14.1136805377
20
12.7995454585
30
0.0000000000
10
-14.1460405304
20
12.7995454585
30
0.0000000000
11
-13.8960405304
21
13.0160518094
31
0.0000000000
11
-13.9150706472
21
12.9331984159
31
0.0000000000
11
-13.9692638351
21
12.8629587005
31
0.0000000000
11
-14.0503696723
21
12.8160260231
31
0.0000000000
11
-14.1460405304
21
12.7995454585
31
0.0000000000
0
SPLINE
5
3DD
100
AcDbEntity
8
0
100
AcDbSpline
62
7
6
CONTINUOUS
70
0
71
3
72
11
73
7
74
5
42
0.0000001000
43
0.0000001000
44
0.0000000001
12
-0.2777975879
22
-0.2777975874
32
0.0000000000
13
-0.0000000000
23
-0.3922423374
33
0.0000000000
40
0.0000000000
40
0.0000000000
40
0.0000000000
40
0.0000000000
40
0.2499994775
40
0.4999992599
40
0.7499998477
40
1.0000000000
40
1.0000000000
40
1.0000000000
40
1.0000000000
10
-16.5971525615
20
11.8931143011
30
0.0000000000
10
-16.6203023121
20
11.8699645505
30
0.0000000000
10
-16.6620434192
20
11.8191065987
30
0.0000000000
10
-16.7085704741
20
11.7320613487
30
0.0000000000
10
-16.7372243894
20
11.6376504784
30
0.0000000000
10
-16.7436753356
20
11.5720954747
30
0.0000000000
10
-16.7436753356
20
11.5394085934
30
0.0000000000
11
-16.5971525615
21
11.8931143011
31
0.0000000000
11
-16.6593626195
21
11.8173135967
31
0.0000000000
11
-16.7055915700
21
11.7308338557
31
0.0000000000
11
-16.7340614807
21
11.6369968289
31
0.0000000000
11
-16.7436753356
21
11.5394085934
31
0.0000000000
0
SPLINE
5
3DE
100
AcDbEntity
8
0
100
AcDbSpline
62
9
6
CONTINUOUS
70
0
71
3
72
11
73
7
74
5
42
0.0000001000
43
0.0000001000
44
0.0000000001
12
0.0000000000
22
-0.3645143837
32
0.0000000000
13
-0.3645143837
23
0.0000000000
33
0.0000000000
40
0.0000000000
40
0.0000000000
40
0.0000000000
40
0.0000000000
40
0.2320556365
40
0.4757923621
40
0.7332637475
40
1.0000000000
40
1.0000000000
40
1.0000000000
40
1.0000000000
10
-13.8960405304
20
13.4490645113
30
0.0000000000
10
-13.8960405304
20
13.4208686389
30
0.0000000000
10
-13.9097067893
20
13.3623313789
30
0.0000000000
10
-13.9664841233
20
13.2904776660
30
0.0000000000
10
-14.0493766159
20
13.2433742046
30
0.0000000000
10
-14.1136307968
20
13.2325581603
30
0.0000000000
10
-14.1460405304
20
13.2325581603
30
0.0000000000
11
-13.8960405304
21
13.4490645113
31
0.0000000000
11
-13.9148839865
21
13.3666024645
31
0.0000000000
11
-13.9690369210
21
13.2961681683
31
0.0000000000
11
-14.0502270745
21
13.2490899222
31
0.0000000000
11
-14.1460405304
21
13.2325581603
31
0.0000000000
0
SPLINE
5
3DF
100
AcDbEntity
8
0
100
AcDbSpline
62
9
6
CONTINUOUS
70
0
71
3
72
11
73
7
74
5
42
0.0000001000
43
0.0000001000
44
0.0000000001
12
0.0000000000
22
-0.3645143837
32
0.0000000000
13
-0.3645143837
23
0.0000000000
33
0.0000000000
40
0.0000000000
40
0.0000000000
40
0.0000000000
40
0.0000000000
40
0.2320556365
40
0.4757923621
40
0.7332637475
40
1.0000000000
40
1.0000000000
40
1.0000000000
40
1.0000000000
10
5.0039594696
20
13.4490645113
30
0.0000000000
10
5.0039594696
20
13.4208686389
30
0.0000000000
10
4.9902932107
20
13.3623313789
30
0.0000000000
10
4.9335158767
20
13.2904776660
30
0.0000000000
10
4.8506233841
20
13.2433742046
30
0.0000000000
10
4.7863692032
20
13.2325581603
30
0.0000000000
10
4.7539594696
20
13.2325581603
30
0.0000000000
11
5.0039594696
21
13.4490645113
31
0.0000000000
11
4.9851160135
21
13.3666024645
31
0.0000000000
11
4.9309630790
21
13.2961681683
31
0.0000000000
11
4.8497729255
21
13.2490899222
31
0.0000000000
11
4.7539594696
21
13.2325581603
31
0.0000000000
0
SPLINE
5
3E0
100
AcDbEntity
8
0
100
AcDbSpline
62
9
6
CONTINUOUS
70
0
71
3
72
11
73
7
74
5
42
0.0000001000
43
0.0000001000
44
0.0000000001
12
0.0000000000
22
0.3645127889
32
0.0000000000
13
0.3645127889
23
0.0000000000
33
0.0000000000
40
0.0000000000
40
0.0000000000
40
0.0000000000
40
0.0000000000
40
0.2332175100
40
0.4765997713
40
0.7336719567
40
1.0000000000
40
1.0000000000
40
1.0000000000
40
1.0000000000
10
-16.2960405304
20
-34.2396106233
30
0.0000000000
10
-16.2960405304
20
-34.2112737016
30
0.0000000000
10
-16.2822746548
20
-34.1526303154
30
0.0000000000
10
-16.2253531317
20
-34.0808459858
30
0.0000000000
10
-16.1425537383
20
-34.0338863575
30
0.0000000000
10
-16.0784005230
20
-34.0231042724
30
0.0000000000
10
-16.0460405304
20
-34.0231042724
30
0.0000000000
11
-16.2960405304
21
-34.2396106233
31
0.0000000000
11
-16.2770104135
21
-34.1567572298
31
0.0000000000
11
-16.2228172257
21
-34.0865175144
31
0.0000000000
11
-16.1417113884
21
-34.0395848370
31
0.0000000000
11
-16.0460405304
21
-34.0231042724
31
0.0000000000
0
SPLINE
5
3E1
100
AcDbEntity
8
0
100
AcDbSpline
62
9
6
CONTINUOUS
70
0
71
3
72
9
73
5
74
3
42
0.0000001000
43
0.0000001000
44
0.0000000001
12
0.0002601681
22
-0.0484178554
32
0.0000000000
13
-0.0426578516
23
-0.0057450990
33
0.0000000000
40
0.0000000000
40
0.0000000000
40
0.0000000000
40
0.0000000000
40
0.2622658604
40
1.0000000000
40
1.0000000000
40
1.0000000000
40
1.0000000000
10
5.0039594877
20
-33.0171254895
30
0.0000000000
10
5.0039822321
20
-33.0213582730
30
0.0000000000
10
4.9783923827
20
-33.0169230992
30
0.0000000000
10
4.9663023408
20
-33.0203446548
30
0.0000000000
10
4.9558122897
20
-33.0217574400
30
0.0000000000
11
5.0039594877
21
-33.0171254895
31
0.0000000000
11
4.9914881068
21
-33.0195722961
31
0.0000000000
11
4.9558122897
21
-33.0217574400
31
0.0000000000
0
SPLINE
5
3E2
100
AcDbEntity
8
0
100
AcDbSpline
62
9
6
CONTINUOUS
70
0
71
3
72
10
73
6
74
4
42
0.0000001000
43
0.0000001000
44
0.0000000001
12
-0.1777566390
22
-0.0239400121
32
0.0000000000
13
-0.2018896317
23
-0.0000009296
33
0.0000000000
40
0.0000000000
40
0.0000000000
40
0.0000000000
40
0.0000000000
40
0.2721745567
40
0.6156081544
40
1.0000000000
40
1.0000000000
40
1.0000000000
40
1.0000000000
10
4.9558122897
20
-33.0217574400
30
0.0000000000
10
4.9396853449
20
-33.0239293940
30
0.0000000000
10
4.8948120723
20
-33.0229006515
30
0.0000000000
10
4.8292629605
20
-33.0250354217
30
0.0000000000
10
4.7798277124
20
-33.0249770129
30
0.0000000000
10
4.7539594696
20
-33.0249771320
30
0.0000000000
11
4.9558122897
21
-33.0217574400
31
0.0000000000
11
4.9008900031
21
-33.0234777104
31
0.0000000000
11
4.8315632274
21
-33.0245890334
31
0.0000000000
11
4.7539594696
21
-33.0249771320
31
0.0000000000
0
SPLINE
5
3E3
100
AcDbEntity
8
0
100
AcDbSpline
62
9
6
CONTINUOUS
70
0
71
3
72
11
73
7
74
5
42
0.0000001000
43
0.0000001000
44
0.0000000001
12
0.0000000000
22
0.3645143837
32
0.0000000000
13
0.3645143837
23
0.0000000000
33
0.0000000000
40
0.0000000000
40
0.0000000000
40
0.0000000000
40
0.0000000000
40
0.2320556365
40
0.4757923621
40
0.7332637475
40
1.0000000000
40
1.0000000000
40
1.0000000000
40
1.0000000000
10
2.6039594696
20
-34.2396106233
30
0.0000000000
10
2.6039594696
20
-34.2114147509
30
0.0000000000
10
2.6176257286
20
-34.1528774909
30
0.0000000000
10
2.6744030626
20
-34.0810237780
30
0.0000000000
10
2.7572955552
20
-34.0339203166
30
0.0000000000
10
2.8215497361
20
-34.0231042724
30
0.0000000000
10
2.8539594696
20
-34.0231042724
30
0.0000000000
11
2.6039594696
21
-34.2396106233
31
0.0000000000
11
2.6228029258
21
-34.1571485765
31
0.0000000000
11
2.6769558603
21
-34.0867142803
31
0.0000000000
11
2.7581460138
21
-34.0396360343
31
0.0000000000
11
2.8539594696
21
-34.0231042724
31
0.0000000000
0
SPLINE
5
3E4
100
AcDbEntity
8
0
100
AcDbSpline
62
9
6
CONTINUOUS
70
0
71
3
72
11
73
7
74
5
42
0.0000001000
43
0.0000001000
44
0.0000000001
12
0.0000000000
22
0.3645143837
32
0.0000000000
13
-0.3645143837
23
0.0000000000
33
0.0000000000
40
0.0000000000
40
0.0000000000
40
0.0000000000
40
0.0000000000
40
0.2320556365
40
0.4757923621
40
0.7332637475
40
1.0000000000
40
1.0000000000
40
1.0000000000
40
1.0000000000
10
-13.8960405304
20
-34.2396106233
30
0.0000000000
10
-13.8960405304
20
-34.2114147509
30
0.0000000000
10
-13.9097067893
20
-34.1528774909
30
0.0000000000
10
-13.9664841233
20
-34.0810237780
30
0.0000000000
10
-14.0493766159
20
-34.0339203166
30
0.0000000000
10
-14.1136307968
20
-34.0231042724
30
0.0000000000
10
-14.1460405304
20
-34.0231042724
30
0.0000000000
11
-13.8960405304
21
-34.2396106233
31
0.0000000000
11
-13.9148839865
21
-34.1571485765
31
0.0000000000
11
-13.9690369210
21
-34.0867142803
31
0.0000000000
11
-14.0502270745
21
-34.0396360343
31
0.0000000000
11
-14.1460405304
21
-34.0231042724
31
0.0000000000
0
SPLINE
5
3E5
100
AcDbEntity
8
0
100
AcDbSpline
62
9
6
CONTINUOUS
70
0
71
3
72
10
73
6
74
4
42
0.0000001000
43
0.0000001000
44
0.0000000001
12
0.0719830237
22
0.0039034648
32
0.0000000000
13
0.0713783714
23
0.0023117232
33
0.0000000000
40
0.0000000000
40
0.0000000000
40
0.0000000000
40
0.0000000000
40
0.4262895297
40
0.8686292396
40
1.0000000000
40
1.0000000000
40
1.0000000000
40
1.0000000000
10
5.0161039730
20
12.0353926815
30
0.0000000000
10
5.0263325094
20
12.0359473503
30
0.0000000000
10
5.0471600877
20
12.0371244744
30
0.0000000000
10
5.0713498571
20
12.0384338868
30
0.0000000000
10
5.0849360239
20
12.0388811303
30
0.0000000000
10
5.0880617008
20
12.0389823613
30
0.0000000000
11
5.0161039730
21
12.0353926815
31
0.0000000000
11
5.0468196472
21
12.0370931551
31
0.0000000000
11
5.0786986848
21
12.0386603679
31
0.0000000000
11
5.0880617008
21
12.0389823613
31
0.0000000000
0
SPLINE
5
3E6
100
AcDbEntity
8
0
100
AcDbSpline
62
9
6
CONTINUOUS
70
0
71
3
72
11
73
7
74
5
42
0.0000001000
43
0.0000001000
44
0.0000000001
12
0.0463032329
22
0.0014996176
32
0.0000000000
13
0.0277297771
23
-0.0274165715
33
0.0000000000
40
0.0000000000
40
0.0000000000
40
0.0000000000
40
0.0000000000
40
0.3441538037
40
0.7238529039
40
0.9414902551
40
1.0000000000
40
1.0000000000
40
1.0000000000
40
1.0000000000
10
5.0880617008
20
12.0389823613
30
0.0000000000
10
5.0933735121
20
12.0391543943
30
0.0000000000
10
5.1046347826
20
12.0395090557
30
0.0000000000
10
5.1203713702
20
12.0403674873
30
0.0000000000
10
5.1285145406
20
12.0389477474
30
0.0000000000
10
5.1347357401
20
12.0397166261
30
0.0000000000
10
5.1352765608
20
12.0391819139
30
0.0000000000
11
5.0880617008
21
12.0389823613
31
0.0000000000
11
5.1042711310
21
12.0395606603
31
0.0000000000
11
5.1220427413
21
12.0397727107
31
0.0000000000
11
5.1322248200
21
12.0394521611
31
0.0000000000
11
5.1352765608
21
12.0391819139
31
0.0000000000
0
SPLINE
5
3E7
100
AcDbEntity
8
0
100
AcDbSpline
62
9
6
CONTINUOUS
70
0
71
3
72
11
73
7
74
5
42
0.0000001000
43
0.0000001000
44
0.0000000001
12
0.0000000000
22
0.3645127889
32
0.0000000000
13
-0.3645127889
23
0.0000000000
33
0.0000000000
40
0.0000000000
40
0.0000000000
40
0.0000000000
40
0.0000000000
40
0.2332175100
40
0.4765997713
40
0.7336719567
40
1.0000000000
40
1.0000000000
40
1.0000000000
40
1.0000000000
10
5.0039594696
20
-34.2396106233
30
0.0000000000
10
5.0039594696
20
-34.2112737016
30
0.0000000000
10
4.9901935941
20
-34.1526303154
30
0.0000000000
10
4.9332720709
20
-34.0808459858
30
0.0000000000
10
4.8504726776
20
-34.0338863575
30
0.0000000000
10
4.7863194623
20
-34.0231042724
30
0.0000000000
10
4.7539594696
20
-34.0231042724
30
0.0000000000
11
5.0039594696
21
-34.2396106233
31
0.0000000000
11
4.9849293528
21
-34.1567572298
31
0.0000000000
11
4.9307361649
21
-34.0865175144
31
0.0000000000
11
4.8496303277
21
-34.0395848370
31
0.0000000000
11
4.7539594696
21
-34.0231042724
31
0.0000000000
0
SPLINE
5
3E8
100
AcDbEntity
8
0
100
AcDbSpline
62
9
6
CONTINUOUS
70
0
71
3
72
11
73
7
74
5
42
0.0000001000
43
0.0000001000
44
0.0000000001
12
0.0000000000
22
-0.3645127889
32
0.0000000000
13
0.3645127889
23
0.0000000000
33
0.0000000000
40
0.0000000000
40
0.0000000000
40
0.0000000000
40
0.0000000000
40
0.2332175100
40
0.4765997713
40
0.7336719567
40
1.0000000000
40
1.0000000000
40
1.0000000000
40
1.0000000000
10
2.6039594696
20
13.0160518094
30
0.0000000000
10
2.6039594696
20
12.9877148877
30
0.0000000000
10
2.6177253452
20
12.9290715015
30
0.0000000000
10
2.6746468683
20
12.8572871719
30
0.0000000000
10
2.7574462617
20
12.8103275436
30
0.0000000000
10
2.8215994770
20
12.7995454585
30
0.0000000000
10
2.8539594696
20
12.7995454585
30
0.0000000000
11
2.6039594696
21
13.0160518094
31
0.0000000000
11
2.6229895865
21
12.9331984159
31
0.0000000000
11
2.6771827743
21
12.8629587005
31
0.0000000000
11
2.7582886116
21
12.8160260231
31
0.0000000000
11
2.8539594696
21
12.7995454585
31
0.0000000000
0
SPLINE
5
3E9
100
AcDbEntity
8
0
100
AcDbSpline
62
9
6
CONTINUOUS
70
0
71
3
72
8
73
4
74
2
42
0.0000001000
43
0.0000001000
44
0.0000000001
12
0.0029040084
22
0.0379676305
32
0.0000000000
13
0.0057833109
23
0.0377084698
33
0.0000000000
40
0.0000000000
40
0.0000000000
40
0.0000000000
40
0.0000000000
40
1.0000000000
40
1.0000000000
40
1.0000000000
40
1.0000000000
10
-16.7791090143
20
11.5405324419
30
0.0000000000
10
-16.7781410115
20
11.5531883188
30
0.0000000000
10
-16.7766902225
20
11.5658226660
30
0.0000000000
10
-16.7747624521
20
11.5783921559
30
0.0000000000
11
-16.7791090143
21
11.5405324419
31
0.0000000000
11
-16.7747624521
21
11.5783921559
31
0.0000000000
0
SPLINE
5
3EA
100
AcDbEntity
8
0
100
AcDbSpline
62
9
6
CONTINUOUS
70
0
71
3
72
8
73
4
74
2
42
0.0000001000
43
0.0000001000
44
0.0000000001
12
0.0028158974
22
0.0183602752
32
0.0000000000
13
0.0034923610
23
0.0182530161
33
0.0000000000
40
0.0000000000
40
0.0000000000
40
0.0000000000
40
0.0000000000
40
1.0000000000
40
1.0000000000
40
1.0000000000
40
1.0000000000
10
-16.7747624521
20
11.5783921559
30
0.0000000000
10
-16.7738238197
20
11.5845122476
30
0.0000000000
10
-16.7727721083
20
11.5906169635
30
0.0000000000
10
-16.7716079879
20
11.5967013023
30
0.0000000000
11
-16.7747624521
21
11.5783921559
31
0.0000000000
11
-16.7716079879
21
11.5967013023
31
0.0000000000
0
SPLINE
5
3EB
100
AcDbEntity
8
0
100
AcDbSpline
62
9
6
CONTINUOUS
70
0
71
3
72
11
73
7
74
5
42
0.0000001000
43
0.0000001000
44
0.0000000001
12
0.0000000000
22
-0.3645127889
32
0.0000000000
13
-0.3645127889
23
0.0000000000
33
0.0000000000
40
0.0000000000
40
0.0000000000
40
0.0000000000
40
0.0000000000
40
0.2332175100
40
0.4765997713
40
0.7336719567
40
1.0000000000
40
1.0000000000
40
1.0000000000
40
1.0000000000
10
5.0039594696
20
13.0160518094
30
0.0000000000
10
5.0039594696
20
12.9877148877
30
0.0000000000
10
4.9901935941
20
12.9290715015
30
0.0000000000
10
4.9332720709
20
12.8572871719
30
0.0000000000
10
4.8504726776
20
12.8103275436
30
0.0000000000
10
4.7863194623
20
12.7995454585
30
0.0000000000
10
4.7539594696
20
12.7995454585
30
0.0000000000
11
5.0039594696
21
13.0160518094
31
0.0000000000
11
4.9849293528
21
12.9331984159
31
0.0000000000
11
4.9307361649
21
12.8629587005
31
0.0000000000
11
4.8496303277
21
12.8160260231
31
0.0000000000
11
4.7539594696
21
12.7995454585
31
0.0000000000
0
SPLINE
5
3EC
100
AcDbEntity
8
0
100
AcDbSpline
62
9
6
CONTINUOUS
70
0
71
3
72
11
73
7
74
5
42
0.0000001000
43
0.0000001000
44
0.0000000001
12
0.0000000000
22
0.3645127889
32
0.0000000000
13
-0.3645127889
23
0.0000000000
33
0.0000000000
40
0.0000000000
40
0.0000000000
40
0.0000000000
40
0.0000000000
40
0.2332175100
40
0.4765997713
40
0.7336719567
40
1.0000000000
40
1.0000000000
40
1.0000000000
40
1.0000000000
10
5.0039594696
20
-33.8065979214
30
0.0000000000
10
5.0039594696
20
-33.7782609997
30
0.0000000000
10
4.9901935941
20
-33.7196176135
30
0.0000000000
10
4.9332720709
20
-33.6478332839
30
0.0000000000
10
4.8504726776
20
-33.6008736556
30
0.0000000000
10
4.7863194623
20
-33.5900915705
30
0.0000000000
10
4.7539594696
20
-33.5900915705
30
0.0000000000
11
5.0039594696
21
-33.8065979214
31
0.0000000000
11
4.9849293528
21
-33.7237445279
31
0.0000000000
11
4.9307361649
21
-33.6535048125
31
0.0000000000
11
4.8496303277
21
-33.6065721351
31
0.0000000000
11
4.7539594696
21
-33.5900915705
31
0.0000000000
0
SPLINE
5
3ED
100
AcDbEntity
8
0
100
AcDbSpline
62
9
6
CONTINUOUS
70
0
71
3
72
9
73
5
74
3
42
0.0000001000
43
0.0000001000
44
0.0000000001
12
-0.0030163630
22
-0.0040258137
32
0.0000000000
13
-0.0006654828
23
-0.0050435673
33
0.0000000000
40
0.0000000000
40
0.0000000000
40
0.0000000000
40
0.0000000000
40
0.8182434343
40
1.0000000000
40
1.0000000000
40
1.0000000000
40
1.0000000000
10
-16.7738663250
20
11.5453914710
30
0.0000000000
10
-16.7746890314
20
11.5442934391
30
0.0000000000
10
-16.7747871660
20
11.5424890792
30
0.0000000000
10
-16.7749952123
20
11.5407932972
30
0.0000000000
10
-16.7750355309
20
11.5404877300
30
0.0000000000
11
-16.7738663250
21
11.5453914710
31
0.0000000000
11
-16.7749232157
21
11.5414133231
31
0.0000000000
11
-16.7750355309
21
11.5404877300
31
0.0000000000
0
SPLINE
5
3EE
100
AcDbEntity
8
0
100
AcDbSpline
62
9
6
CONTINUOUS
70
0
71
3
72
10
73
6
74
4
42
0.0000001000
43
0.0000001000
44
0.0000000001
12
-0.0154151182
22
-0.0210302357
32
0.0000000000
13
-0.0156108681
23
-0.0208853567
33
0.0000000000
40
0.0000000000
40
0.0000000000
40
0.0000000000
40
0.0000000000
40
0.3764656534
40
0.7511906533
40
1.0000000000
40
1.0000000000
40
1.0000000000
40
1.0000000000
10
-16.7564145599
20
11.5689403887
30
0.0000000000
10
-16.7583489808
20
11.5663013349
30
0.0000000000
10
-16.7622180806
20
11.5610421671
30
0.0000000000
10
-16.7673931859
20
11.5540591420
30
0.0000000000
10
-16.7706327463
20
11.5497144324
30
0.0000000000
10
-16.7719274563
20
11.5479822751
30
0.0000000000
11
-16.7564145599
21
11.5689403887
31
0.0000000000
11
-16.7622316651
21
11.5610333925
31
0.0000000000
11
-16.7680494011
21
11.5531832815
31
0.0000000000
11
-16.7719274563
21
11.5479822751
31
0.0000000000
0
SPLINE
5
3EF
100
AcDbEntity
8
0
100
AcDbSpline
62
9
6
CONTINUOUS
70
0
71
3
72
8
73
4
74
2
42
0.0000001000
43
0.0000001000
44
0.0000000001
12
-0.0019373563
22
-0.0025919364
32
0.0000000000
13
-0.0019403815
23
-0.0025896704
33
0.0000000000
40
0.0000000000
40
0.0000000000
40
0.0000000000
40
0.0000000000
40
1.0000000000
40
1.0000000000
40
1.0000000000
40
1.0000000000
10
-16.7719274563
20
11.5479822751
30
0.0000000000
10
-16.7725732417
20
11.5471182963
30
0.0000000000
10
-16.7732195312
20
11.5462546945
30
0.0000000000
10
-16.7738663250
20
11.5453914710
30
0.0000000000
11
-16.7719274563
21
11.5479822751
31
0.0000000000
11
-16.7738663250
21
11.5453914710
31
0.0000000000
0
SPLINE
5
3F0
100
AcDbEntity
8
0
100
AcDbSpline
62
9
6
CONTINUOUS
70
0
71
3
72
12
73
8
74
6
42
0.0000001000
43
0.0000001000
44
0.0000000001
12
-0.2503389869
22
0.0000011533
32
0.0000000000
13
0.0013519705
23
0.2501813853
33
0.0000000000
40
0.0000000000
40
0.0000000000
40
0.0000000000
40
0.0000000000
40
0.3099985709
40
0.5869657482
40
0.8064650028
40
0.9492421028
40
1.0000000000
40
1.0000000000
40
1.0000000000
40
1.0000000000
10
2.8539594696
20
-33.0249771320
30
0.0000000000
10
2.8280912269
20
-33.0249770128
30
0.0000000000
10
2.7786559753
20
-33.0250354222
30
0.0000000000
10
2.7131068769
20
-33.0229006506
30
0.0000000000
10
2.6553286176
20
-33.0242252484
30
0.0000000000
10
2.6295265751
20
-33.0169230906
30
0.0000000000
10
2.6039365777
20
-33.0213582899
30
0.0000000000
10
2.6039594520
20
-33.0171253962
30
0.0000000000
11
2.8539594696
21
-33.0249771320
31
0.0000000000
11
2.7763557119
21
-33.0245890335
31
0.0000000000
11
2.7070289362
21
-33.0234777104
31
0.0000000000
11
2.6521066496
21
-33.0217574403
31
0.0000000000
11
2.6164308325
21
-33.0195722952
31
0.0000000000
11
2.6039594520
21
-33.0171253962
31
0.0000000000
0
SPLINE
5
3F1
100
AcDbEntity
8
0
100
AcDbSpline
62
9
6
CONTINUOUS
70
0
71
3
72
13
73
9
74
7
42
0.0000001000
43
0.0000001000
44
0.0000000001
12
-0.0019471222
22
0.0240772436
32
0.0000000000
13
-0.0172665346
23
-0.0235516947
33
0.0000000000
40
0.0000000000
40
0.0000000000
40
0.0000000000
40
0.0000000000
40
0.0433496751
40
0.3298244256
40
0.5967112251
40
0.8001390290
40
0.9290891267
40
1.0000000000
40
1.0000000000
40
1.0000000000
40
1.0000000000
10
-16.7518169289
20
11.5404848620
30
0.0000000000
10
-16.7518450646
20
11.5408327755
30
0.0000000000
10
-16.7520357875
20
11.5434813923
30
0.0000000000
10
-16.7530911298
20
11.5498701797
30
0.0000000000
10
-16.7537339822
20
11.5567445903
30
0.0000000000
10
-16.7547053240
20
11.5632095109
30
0.0000000000
10
-16.7548577739
20
11.5658020883
30
0.0000000000
10
-16.7560064316
20
11.5694970791
30
0.0000000000
10
-16.7564145599
20
11.5689403887
30
0.0000000000
11
-16.7518169289
21
11.5404848620
31
0.0000000000
11
-16.7519019810
21
11.5415442529
31
0.0000000000
11
-16.7529894558
21
11.5498391959
31
0.0000000000
11
-16.7539047213
21
11.5575791646
31
0.0000000000
11
-16.7546712996
21
11.5634702013
31
0.0000000000
11
-16.7553264285
21
11.5671785071
31
0.0000000000
11
-16.7564145599
21
11.5689403887
31
0.0000000000
0
SPLINE
5
3F2
100
AcDbEntity
8
0
100
AcDbSpline
62
9
6
CONTINUOUS
70
0
71
3
72
11
73
7
74
5
42
0.0000001000
43
0.0000001000
44
0.0000000001
12
0.0000000000
22
0.3645127889
32
0.0000000000
13
0.3645127889
23
-0.0000000000
33
0.0000000000
40
0.0000000000
40
0.0000000000
40
0.0000000000
40
0.0000000000
40
0.2332175100
40
0.4765997713
40
0.7336719567
40
1.0000000000
40
1.0000000000
40
1.0000000000
40
1.0000000000
10
2.6039594696
20
-33.8065979214
30
0.0000000000
10
2.6039594696
20
-33.7782609997
30
0.0000000000
10
2.6177253452
20
-33.7196176135
30
0.0000000000
10
2.6746468683
20
-33.6478332839
30
0.0000000000
10
2.7574462617
20
-33.6008736556
30
0.0000000000
10
2.8215994770
20
-33.5900915705
30
0.0000000000
10
2.8539594696
20
-33.5900915705
30
0.0000000000
11
2.6039594696
21
-33.8065979214
31
0.0000000000
11
2.6229895865
21
-33.7237445279
31
0.0000000000
11
2.6771827743
21
-33.6535048125
31
0.0000000000
11
2.7582886116
21
-33.6065721351
31
0.0000000000
11
2.8539594696
21
-33.5900915705
31
0.0000000000
0
SPLINE
5
3F3
100
AcDbEntity
8
0
100
AcDbSpline
62
7
6
CONTINUOUS
70
0
71
3
72
10
73
6
74
4
42
0.0000001000
43
0.0000001000
44
0.0000000001
12
0.0627077336
22
-0.2728390289
32
0.0000000000
13
0.1979095687
23
-0.1979095690
33
0.0000000000
40
0.0000000000
40
0.0000000000
40
0.0000000000
40
0.0000000000
40
0.2981709210
40
0.6490850504
40
1.0000000000
40
1.0000000000
40
1.0000000000
40
1.0000000000
10
-16.7309671276
20
-32.4419818081
30
0.0000000000
10
-16.7247345867
20
-32.4690993629
30
0.0000000000
10
-16.7062394383
20
-32.5269684437
30
0.0000000000
10
-16.6620434975
20
-32.6096526020
30
0.0000000000
10
-16.6203023716
20
-32.6605106030
30
0.0000000000
10
-16.5971525628
20
-32.6836604118
30
0.0000000000
11
-16.7309671276
21
-32.4419818081
31
0.0000000000
11
-16.7055916258
21
-32.5213798329
31
0.0000000000
11
-16.6593627576
21
-32.6078595020
31
0.0000000000
11
-16.5971525628
21
-32.6836604118
31
0.0000000000
0
SPLINE
5
3F4
100
AcDbEntity
8
0
100
AcDbSpline
62
9
6
CONTINUOUS
70
0
71
3
72
12
73
8
74
6
42
0.0000001000
43
0.0000001000
44
0.0000000001
12
-0.2503421830
22
0.0000022634
32
0.0000000000
13
0.0000308835
23
-0.2503401672
33
0.0000000000
40
0.0000000000
40
0.0000000000
40
0.0000000000
40
0.0000000000
40
0.3107821994
40
0.5882345987
40
0.8074166162
40
0.9495261819
40
1.0000000000
40
1.0000000000
40
1.0000000000
40
1.0000000000
10
-16.0460405304
20
12.2344310200
30
0.0000000000
10
-16.0719744951
20
12.2344312545
30
0.0000000000
10
-16.1215157385
20
12.2344898434
30
0.0000000000
10
-16.1871496249
20
12.2323473265
30
0.0000000000
10
-16.2448585993
20
12.2336646491
30
0.0000000000
10
-16.2706400474
20
12.2263891998
30
0.0000000000
10
-16.2960410500
20
12.2307881553
30
0.0000000000
10
-16.2960405304
20
12.2265762807
30
0.0000000000
11
-16.0460405304
21
12.2344310200
31
0.0000000000
11
-16.1238414475
21
12.2340411083
31
0.0000000000
11
-16.1932904979
21
12.2329236836
31
0.0000000000
11
-16.2481339205
21
12.2311999420
31
0.0000000000
11
-16.2836429791
21
12.2290182272
31
0.0000000000
11
-16.2960405304
21
12.2265762807
31
0.0000000000
0
SPLINE
5
3F5
100
AcDbEntity
8
0
100
AcDbSpline
62
9
6
CONTINUOUS
70
0
71
3
72
12
73
8
74
6
42
0.0000001000
43
0.0000001000
44
0.0000000001
12
0.0152558997
22
-0.0205604789
32
0.0000000000
13
0.0027071851
23
-0.0255683559
33
0.0000000000
40
0.0000000000
40
0.0000000000
40
0.0000000000
40
0.0000000000
40
0.1313938485
40
0.2693873560
40
0.4624861878
40
0.7102221709
40
1.0000000000
40
1.0000000000
40
1.0000000000
40
1.0000000000
10
5.4817842028
20
11.5453928928
30
0.0000000000
10
5.4824523800
20
11.5444923860
30
0.0000000000
10
5.4826761695
20
11.5420470974
30
0.0000000000
10
5.4833651983
20
11.5382289600
30
0.0000000000
10
5.4839105647
20
11.5332905690
30
0.0000000000
10
5.4845876474
20
11.5270989784
30
0.0000000000
10
5.4850825830
20
11.5225502012
30
0.0000000000
10
5.4853440771
20
11.5200804870
30
0.0000000000
11
5.4817842028
21
11.5453928928
31
0.0000000000
11
5.4827129271
21
11.5421596545
31
0.0000000000
11
5.4832516035
21
11.5386680168
31
0.0000000000
11
5.4838577787
21
11.5337615536
31
0.0000000000
11
5.4845480069
21
11.5274566210
31
0.0000000000
11
5.4853440771
21
11.5200804870
31
0.0000000000
0
SPLINE
5
3F6
100
AcDbEntity
8
0
100
AcDbSpline
62
9
6
CONTINUOUS
70
0
71
3
72
8
73
4
74
2
42
0.0000001000
43
0.0000001000
44
0.0000000001
12
0.0008120141
22
-0.0076691715
32
0.0000000000
13
0.0011471697
23
-0.0074784358
33
0.0000000000
40
0.0000000000
40
0.0000000000
40
0.0000000000
40
0.0000000000
40
1.0000000000
40
1.0000000000
40
1.0000000000
40
1.0000000000
10
5.4853440771
20
11.5200804870
30
0.0000000000
10
5.4856147485
20
11.5175240965
30
0.0000000000
10
5.4858797097
20
11.5149490274
30
0.0000000000
10
5.4862620996
20
11.5124562154
30
0.0000000000
11
5.4853440771
21
11.5200804870
31
0.0000000000
11
5.4862620996
21
11.5124562154
31
0.0000000000
0
SPLINE
5
3F7
100
AcDbEntity
8
0
100
AcDbSpline
62
9
6
CONTINUOUS
70
0
71
3
72
9
73
5
74
3
42
0.0000001000
43
0.0000001000
44
0.0000000001
12
0.0015249189
22
-0.0099409945
32
0.0000000000
13
0.0072300975
23
-0.0072062536
33
0.0000000000
40
0.0000000000
40
0.0000000000
40
0.0000000000
40
0.0000000000
40
0.6405506199
40
1.0000000000
40
1.0000000000
40
1.0000000000
40
1.0000000000
10
5.4862620996
20
11.5124562154
30
0.0000000000
10
5.4865876955
20
11.5103336454
30
0.0000000000
10
5.4872289143
20
11.5071130838
30
0.0000000000
10
5.4876117544
20
11.5033881766
30
0.0000000000
10
5.4884780390
20
11.5025247488
30
0.0000000000
11
5.4862620996
21
11.5124562154
31
0.0000000000
11
5.4873031476
21
11.5060008444
31
0.0000000000
11
5.4884780390
21
11.5025247488
31
0.0000000000
0
SPLINE
5
3F8
100
AcDbEntity
8
0
100
AcDbSpline
62
9
6
CONTINUOUS
70
0
71
3
72
10
73
6
74
4
42
0.0000001000
43
0.0000001000
44
0.0000000001
12
0.0154134135
22
-0.0210279100
32
0.0000000000
13
0.0156091404
23
-0.0208830481
33
0.0000000000
40
0.0000000000
40
0.0000000000
40
0.0000000000
40
0.0000000000
40
0.3764344993
40
0.7512009426
40
1.0000000000
40
1.0000000000
40
1.0000000000
40
1.0000000000
10
5.4643346239
20
11.5689388600
30
0.0000000000
10
5.4662686707
20
11.5663003164
30
0.0000000000
10
5.4701373966
20
11.5610416589
30
0.0000000000
10
5.4753119281
20
11.5540594050
30
0.0000000000
10
5.4785512949
20
11.5497149608
30
0.0000000000
10
5.4798458080
20
11.5479830666
30
0.0000000000
11
5.4643346239
21
11.5689388600
31
0.0000000000
11
5.4701506044
21
11.5610333925
31
0.0000000000
11
5.4759683403
21
11.5531832816
31
0.0000000000
11
5.4798458080
21
11.5479830666
31
0.0000000000
0
SPLINE
5
3F9
100
AcDbEntity
8
0
100
AcDbSpline
62
9
6
CONTINUOUS
70
0
71
3
72
8
73
4
74
2
42
0.0000001000
43
0.0000001000
44
0.0000000001
12
0.0019368840
22
-0.0025913049
32
0.0000000000
13
0.0019399058
23
-0.0025890415
33
0.0000000000
40
0.0000000000
40
0.0000000000
40
0.0000000000
40
0.0000000000
40
1.0000000000
40
1.0000000000
40
1.0000000000
40
1.0000000000
10
5.4798458080
20
11.5479830666
30
0.0000000000
10
5.4804914360
20
11.5471192983
30
0.0000000000
10
5.4811375676
20
11.5462559066
30
0.0000000000
10
5.4817842028
20
11.5453928928
30
0.0000000000
11
5.4798458080
21
11.5479830666
31
0.0000000000
11
5.4817842028
21
11.5453928928
31
0.0000000000
0
SPLINE
5
3FA
100
AcDbEntity
8
0
100
AcDbSpline
62
9
6
CONTINUOUS
70
0
71
3
72
14
73
10
74
8
42
0.0000001000
43
0.0000001000
44
0.0000000001
12
0.0255918899
22
-0.0258445731
32
0.0000000000
13
0.0216762968
23
-0.0292065908
33
0.0000000000
40
0.0000000000
40
0.0000000000
40
0.0000000000
40
0.0000000000
40
0.0521969405
40
0.2241732509
40
0.4629592101
40
0.6821735262
40
0.8431916983
40
0.9440459353
40
1.0000000000
40
1.0000000000
40
1.0000000000
40
1.0000000000
10
5.4573138769
20
11.5336934978
30
0.0000000000
10
5.4577591497
20
11.5332438286
30
0.0000000000
10
5.4596858774
20
11.5375926330
30
0.0000000000
10
5.4595840836
20
11.5414710527
30
0.0000000000
10
5.4610252080
20
11.5498685505
30
0.0000000000
10
5.4616611879
20
11.5568728861
30
0.0000000000
10
5.4626433416
20
11.5633262116
30
0.0000000000
10
5.4627911060
20
11.5658888673
30
0.0000000000
10
5.4639303315
20
11.5694836025
30
0.0000000000
10
5.4643346239
20
11.5689388600
30
0.0000000000
11
5.4573138769
21
11.5336934978
31
0.0000000000
11
5.4585492653
21
11.5351350414
31
0.0000000000
11
5.4597793165
21
11.5412679426
31
0.0000000000
11
5.4609130932
21
11.5498786267
31
0.0000000000
11
5.4618491475
21
11.5577966451
31
0.0000000000
11
5.4626100749
21
11.5636034755
31
0.0000000000
11
5.4632530826
21
11.5672148999
31
0.0000000000
11
5.4643346239
21
11.5689388600
31
0.0000000000
0
SPLINE
5
3FB
100
AcDbEntity
8
0
100
AcDbSpline
62
7
6
CONTINUOUS
70
0
71
3
72
11
73
7
74
5
42
0.0000001000
43
0.0000001000
44
0.0000000001
12
0.0000000000
22
0.3922423365
32
0.0000000000
13
-0.2777975867
23
0.2777975873
33
0.0000000000
40
0.0000000000
40
0.0000000000
40
0.0000000000
40
0.0000000000
40
0.2500000360
40
0.5000003710
40
0.7499998934
40
1.0000000000
40
1.0000000000
40
1.0000000000
40
1.0000000000
10
5.4515942749
20
11.5394085934
30
0.0000000000
10
5.4515942749
20
11.5720954595
30
0.0000000000
10
5.4451433365
20
11.6376504145
30
0.0000000000
10
5.4164894638
20
11.7320612096
30
0.0000000000
10
5.3699624368
20
11.8191064900
30
0.0000000000
10
5.3282213109
20
11.8699644909
30
0.0000000000
10
5.3050715021
20
11.8931142998
30
0.0000000000
11
5.4515942749
21
11.5394085934
31
0.0000000000
11
5.4419804290
21
11.6369967837
31
0.0000000000
11
5.4135105651
21
11.7308337209
31
0.0000000000
11
5.3672816969
21
11.8173133899
31
0.0000000000
11
5.3050715021
21
11.8931142998
31
0.0000000000
0
SPLINE
5
3FC
100
AcDbEntity
8
0
100
AcDbSpline
62
9
6
CONTINUOUS
70
0
71
3
72
8
73
4
74
2
42
0.0000001000
43
0.0000001000
44
0.0000000001
12
0.0000231453
22
-0.0759537557
32
0.0000000000
13
-0.0115699331
23
-0.0754370123
33
0.0000000000
40
0.0000000000
40
0.0000000000
40
0.0000000000
40
0.0000000000
40
1.0000000000
40
1.0000000000
40
1.0000000000
40
1.0000000000
10
5.4884780390
20
-32.2930708610
30
0.0000000000
10
5.4884857541
20
-32.3183887795
30
0.0000000000
10
5.4865380516
20
-32.3437940237
30
0.0000000000
10
5.4826814072
20
-32.3689396945
30
0.0000000000
11
5.4884780390
21
-32.2930708610
31
0.0000000000
11
5.4826814072
21
-32.3689396945
31
0.0000000000
0
SPLINE
5
3FD
100
AcDbEntity
8
0
100
AcDbSpline
62
9
6
CONTINUOUS
70
0
71
3
72
8
73
4
74
2
42
0.0000001000
43
0.0000001000
44
0.0000000001
12
-0.0028181644
22
-0.0183746872
32
0.0000000000
13
-0.0034956893
23
-0.0182672456
33
0.0000000000
40
0.0000000000
40
0.0000000000
40
0.0000000000
40
0.0000000000
40
1.0000000000
40
1.0000000000
40
1.0000000000
40
1.0000000000
10
5.4826814072
20
-32.3689396945
30
0.0000000000
10
5.4817420191
20
-32.3750645902
30
0.0000000000
10
5.4806893744
20
-32.3811740856
30
0.0000000000
10
5.4795241446
20
-32.3872631674
30
0.0000000000
11
5.4826814072
21
-32.3689396945
31
0.0000000000
11
5.4795241446
21
-32.3872631674
31
0.0000000000
0
SPLINE
5
3FE
100
AcDbEntity
8
0
100
AcDbSpline
62
9
6
CONTINUOUS
70
0
71
3
72
9
73
5
74
3
42
0.0000001000
43
0.0000001000
44
0.0000000001
12
-0.0657187819
22
-0.1476429739
32
0.0000000000
13
-0.1092396430
23
-0.1190930732
33
0.0000000000
40
0.0000000000
40
0.0000000000
40
0.0000000000
40
0.0000000000
40
0.6481307893
40
1.0000000000
40
1.0000000000
40
1.0000000000
40
1.0000000000
10
5.4453053281
20
-32.4964460502
30
0.0000000000
10
5.4311072061
20
-32.5283433693
30
0.0000000000
10
5.4040568498
20
-32.5752324366
30
0.0000000000
10
5.3698941283
20
-32.6169884290
30
0.0000000000
10
5.3570814393
20
-32.6309568242
30
0.0000000000
11
5.4453053281
21
-32.4964460502
31
0.0000000000
11
5.3930551523
21
-32.5869675968
31
0.0000000000
11
5.3570814393
21
-32.6309568242
31
0.0000000000
0
SPLINE
5
3FF
100
AcDbEntity
8
0
100
AcDbSpline
62
9
6
CONTINUOUS
70
0
71
3
72
12
73
8
74
6
42
0.0000001000
43
0.0000001000
44
0.0000000001
12
0.0154922485
22
0.0208551760
32
0.0000000000
13
0.0027315042
23
0.0259705875
33
0.0000000000
40
0.0000000000
40
0.0000000000
40
0.0000000000
40
0.0000000000
40
0.1653330706
40
0.3426440317
40
0.5881323187
40
0.8916194925
40
1.0000000000
40
1.0000000000
40
1.0000000000
40
1.0000000000
10
5.4817842265
20
-32.3359389732
30
0.0000000000
10
5.4826380201
20
-32.3347896231
30
0.0000000000
10
5.4827980042
20
-32.3315957992
30
0.0000000000
10
5.4836542794
20
-32.3266744245
30
0.0000000000
10
5.4842763012
20
-32.3203688062
30
0.0000000000
10
5.4849091122
20
-32.3147403462
30
0.0000000000
10
5.4852718064
20
-32.3111697794
30
0.0000000000
10
5.4853704870
20
-32.3102315442
30
0.0000000000
11
5.4817842265
21
-32.3359389732
31
0.0000000000
11
5.4828713118
21
-32.3317834986
31
0.0000000000
11
5.4835104413
21
-32.3272215552
31
0.0000000000
11
5.4842382890
21
-32.3208854958
31
0.0000000000
11
5.4850785847
21
-32.3130458760
31
0.0000000000
11
5.4853704870
21
-32.3102315442
31
0.0000000000
0
SPLINE
5
400
100
AcDbEntity
8
0
100
AcDbSpline
62
9
6
CONTINUOUS
70
0
71
3
72
10
73
6
74
4
42
0.0000001000
43
0.0000001000
44
0.0000000001
12
0.0018400893
22
0.0174951963
32
0.0000000000
13
0.0123215807
23
0.0124288727
33
0.0000000000
40
0.0000000000
40
0.0000000000
40
0.0000000000
40
0.0000000000
40
0.3258148042
40
0.7556079970
40
1.0000000000
40
1.0000000000
40
1.0000000000
40
1.0000000000
10
5.4853704870
20
-32.3102315442
30
0.0000000000
10
5.4855703298
20
-32.3083314796
30
0.0000000000
10
5.4860646065
20
-32.3039377031
30
0.0000000000
10
5.4871432056
20
-32.2984212835
30
0.0000000000
10
5.4874742738
20
-32.2940833667
30
0.0000000000
10
5.4884780390
20
-32.2930708610
30
0.0000000000
11
5.4853704870
21
-32.3102315442
31
0.0000000000
11
5.4860562212
21
-32.3045842578
31
0.0000000000
11
5.4871821985
21
-32.2971470369
31
0.0000000000
11
5.4884780390
21
-32.2930708610
31
0.0000000000
0
SPLINE
5
401
100
AcDbEntity
8
0
100
AcDbSpline
62
9
6
CONTINUOUS
70
0
71
3
72
10
73
6
74
4
42
0.0000001000
43
0.0000001000
44
0.0000000001
12
0.0001309038
22
-0.3150247545
32
0.0000000000
13
-0.1868965376
23
-0.2549287986
33
0.0000000000
40
0.0000000000
40
0.0000000000
40
0.0000000000
40
0.0000000000
40
0.4827878059
40
0.9655370891
40
1.0000000000
40
1.0000000000
40
1.0000000000
40
1.0000000000
10
5.4643328894
20
-32.3594873296
30
0.0000000000
10
5.4643539557
20
-32.4101840330
30
0.0000000000
10
5.4487341477
20
-32.5122543017
30
0.0000000000
10
5.4015634467
20
-32.6078496996
30
0.0000000000
10
5.3698226200
20
-32.6521523440
30
0.0000000000
10
5.3676756204
20
-32.6550808735
30
0.0000000000
11
5.4643328894
21
-32.3594873296
31
0.0000000000
11
5.4412516142
21
-32.5098158376
31
0.0000000000
11
5.3740199288
21
-32.6462255688
31
0.0000000000
11
5.3676756204
21
-32.6550808735
31
0.0000000000
0
SPLINE
5
402
100
AcDbEntity
8
0
100
AcDbSpline
62
9
6
CONTINUOUS
70
0
71
3
72
10
73
6
74
4
42
0.0000001000
43
0.0000001000
44
0.0000000001
12
0.0154134285
22
0.0210279306
32
0.0000000000
13
0.0156091556
23
0.0208830685
33
0.0000000000
40
0.0000000000
40
0.0000000000
40
0.0000000000
40
0.0000000000
40
0.3764342676
40
0.7512003438
40
1.0000000000
40
1.0000000000
40
1.0000000000
40
1.0000000000
10
5.4643346218
20
-32.3594849748
30
0.0000000000
10
5.4662686693
20
-32.3568464303
30
0.0000000000
10
5.4701373959
20
-32.3515877718
30
0.0000000000
10
5.4753119325
20
-32.3446055111
30
0.0000000000
10
5.4785513036
20
-32.3402610611
30
0.0000000000
10
5.4798458211
20
-32.3385291610
30
0.0000000000
11
5.4643346218
21
-32.3594849748
31
0.0000000000
11
5.4701506044
21
-32.3515795045
31
0.0000000000
11
5.4759683403
21
-32.3437293936
31
0.0000000000
11
5.4798458211
21
-32.3385291610
31
0.0000000000
0
SPLINE
5
403
100
AcDbEntity
8
0
100
AcDbSpline
62
9
6
CONTINUOUS
70
0
71
3
72
8
73
4
74
2
42
0.0000001000
43
0.0000001000
44
0.0000000001
12
0.0019368945
22
0.0025913189
32
0.0000000000
13
0.0019399163
23
0.0025890556
33
0.0000000000
40
0.0000000000
40
0.0000000000
40
0.0000000000
40
0.0000000000
40
1.0000000000
40
1.0000000000
40
1.0000000000
40
1.0000000000
10
5.4798458211
20
-32.3385291610
30
0.0000000000
10
5.4804914526
20
-32.3376653881
30
0.0000000000
10
5.4811375877
20
-32.3368019917
30
0.0000000000
10
5.4817842265
20
-32.3359389732
30
0.0000000000
11
5.4798458211
21
-32.3385291610
31
0.0000000000
11
5.4817842265
21
-32.3359389732
31
0.0000000000
0
SPLINE
5
404
100
AcDbEntity
8
0
100
AcDbSpline
62
9
6
CONTINUOUS
70
0
71
3
72
14
73
10
74
8
42
0.0000001000
43
0.0000001000
44
0.0000000001
12
0.0255218452
22
0.0258553387
32
0.0000000000
13
0.0216743917
23
0.0291561978
33
0.0000000000
40
0.0000000000
40
0.0000000000
40
0.0000000000
40
0.0000000000
40
0.0689354161
40
0.2539417207
40
0.4783808590
40
0.6853371255
40
0.8434730625
40
0.9445243136
40
1.0000000000
40
1.0000000000
40
1.0000000000
40
1.0000000000
10
5.4573138770
20
-32.3242396118
30
0.0000000000
10
5.4579003300
20
-32.3236454956
30
0.0000000000
10
5.4596517085
20
-32.3290019086
30
0.0000000000
10
5.4598171542
20
-32.3327667715
30
0.0000000000
10
5.4610531438
20
-32.3410136201
30
0.0000000000
10
5.4617008582
20
-32.3476724840
30
0.0000000000
10
5.4626501282
20
-32.3539193171
30
0.0000000000
10
5.4627902856
20
-32.3564492927
30
0.0000000000
10
5.4639338212
20
-32.3600241282
30
0.0000000000
10
5.4643346218
20
-32.3594849748
30
0.0000000000
11
5.4573138770
21
-32.3242396118
31
0.0000000000
11
5.4587286043
21
-32.3263061686
31
0.0000000000
11
5.4599422267
21
-32.3329169564
31
0.0000000000
11
5.4609823532
21
-32.3410041998
31
0.0000000000
11
5.4618645080
21
-32.3484709744
31
0.0000000000
11
5.4626128729
21
-32.3541670900
31
0.0000000000
11
5.4632581289
21
-32.3577811232
31
0.0000000000
11
5.4643346218
21
-32.3594849748
31
0.0000000000
0
SPLINE
5
405
100
AcDbEntity
8
0
100
AcDbSpline
62
9
6
CONTINUOUS
70
0
71
3
72
12
73
8
74
6
42
0.0000001000
43
0.0000001000
44
0.0000000001
12
0.2503389869
22
-0.0000011533
32
0.0000000000
13
-0.0013519705
23
-0.2501813853
33
0.0000000000
40
0.0000000000
40
0.0000000000
40
0.0000000000
40
0.0000000000
40
0.3099985709
40
0.5869657482
40
0.8064650028
40
0.9492421028
40
1.0000000000
40
1.0000000000
40
1.0000000000
40
1.0000000000
10
4.7539594696
20
12.2344310200
30
0.0000000000
10
4.7798277124
20
12.2344309008
30
0.0000000000
10
4.8292629640
20
12.2344893102
30
0.0000000000
10
4.8948120624
20
12.2323545386
30
0.0000000000
10
4.9525903217
20
12.2336791364
30
0.0000000000
10
4.9783923642
20
12.2263769786
30
0.0000000000
10
5.0039823616
20
12.2308121779
30
0.0000000000
10
5.0039594872
20
12.2265792842
30
0.0000000000
11
4.7539594696
21
12.2344310200
31
0.0000000000
11
4.8315632274
21
12.2340429215
31
0.0000000000
11
4.9008900031
21
12.2329315984
31
0.0000000000
11
4.9558122897
21
12.2312113283
31
0.0000000000
11
4.9914881068
21
12.2290261832
31
0.0000000000
11
5.0039594872
21
12.2265792842
31
0.0000000000
0
SPLINE
5
406
100
AcDbEntity
8
0
100
AcDbSpline
62
9
6
CONTINUOUS
70
0
71
3
72
11
73
7
74
5
42
0.0000001000
43
0.0000001000
44
0.0000000001
12
0.0722189712
22
-0.0039165990
32
0.0000000000
13
0.0715878973
23
-0.0022085220
33
0.0000000000
40
0.0000000000
40
0.0000000000
40
0.0000000000
40
0.0000000000
40
0.0093984205
40
0.4570405663
40
0.8740492185
40
1.0000000000
40
1.0000000000
40
1.0000000000
40
1.0000000000
10
5.0161016786
20
-32.8259418919
30
0.0000000000
10
5.0163279267
20
-32.8259541618
30
0.0000000000
10
5.0273299731
20
-32.8265510285
30
0.0000000000
10
5.0483435115
20
-32.8277016515
30
0.0000000000
10
5.0723740054
20
-32.8290456564
30
0.0000000000
10
5.0852738417
20
-32.8294532749
30
0.0000000000
10
5.0882793589
20
-32.8295459966
30
0.0000000000
11
5.0161016786
21
-32.8259418919
31
0.0000000000
11
5.0167804051
21
-32.8259787114
31
0.0000000000
11
5.0491302538
21
-32.8277513244
31
0.0000000000
11
5.0792744572
21
-32.8292464576
31
0.0000000000
11
5.0882793589
21
-32.8295459966
31
0.0000000000
0
SPLINE
5
407
100
AcDbEntity
8
0
100
AcDbSpline
62
9
6
CONTINUOUS
70
0
71
3
72
11
73
7
74
5
42
0.0000001000
43
0.0000001000
44
0.0000000001
12
0.0462199857
22
-0.0014259094
32
0.0000000000
13
0.0241361965
23
0.0305636907
33
0.0000000000
40
0.0000000000
40
0.0000000000
40
0.0000000000
40
0.0000000000
40
0.3417753172
40
0.7232707126
40
0.9407246923
40
1.0000000000
40
1.0000000000
40
1.0000000000
40
1.0000000000
10
5.0882793589
20
-32.8295459966
30
0.0000000000
10
5.0935449757
20
-32.8297084435
30
0.0000000000
10
5.1047734552
20
-32.8300403038
30
0.0000000000
10
5.1204815706
20
-32.8309363240
30
0.0000000000
10
5.1286308066
20
-32.8294799126
30
0.0000000000
10
5.1348717159
20
-32.8302487125
30
0.0000000000
10
5.1353486094
20
-32.8296448218
30
0.0000000000
11
5.0882793589
21
-32.8295459966
31
0.0000000000
11
5.1043463088
21
-32.8301018042
31
0.0000000000
11
5.1221716650
21
-32.8303234787
31
0.0000000000
11
5.1323272635
21
-32.8299827262
31
0.0000000000
11
5.1353486094
21
-32.8296448218
31
0.0000000000
0
SPLINE
5
408
100
AcDbEntity
8
0
100
AcDbSpline
62
9
6
CONTINUOUS
70
0
71
3
72
12
73
8
74
6
42
0.0000001000
43
0.0000001000
44
0.0000000001
12
-0.2503389869
22
0.0000011533
32
0.0000000000
13
0.0013519705
23
0.2501813853
33
0.0000000000
40
0.0000000000
40
0.0000000000
40
0.0000000000
40
0.0000000000
40
0.3099985709
40
0.5869657482
40
0.8064650028
40
0.9492421028
40
1.0000000000
40
1.0000000000
40
1.0000000000
40
1.0000000000
10
-16.0460405304
20
-33.0249771320
30
0.0000000000
10
-16.0719087731
20
-33.0249770128
30
0.0000000000
10
-16.1213440247
20
-33.0250354222
30
0.0000000000
10
-16.1868931231
20
-33.0229006506
30
0.0000000000
10
-16.2446713824
20
-33.0242252484
30
0.0000000000
10
-16.2704734249
20
-33.0169230906
30
0.0000000000
10
-16.2960634223
20
-33.0213582899
30
0.0000000000
10
-16.2960405480
20
-33.0171253962
30
0.0000000000
11
-16.0460405304
21
-33.0249771320
31
0.0000000000
11
-16.1236442881
21
-33.0245890335
31
0.0000000000
11
-16.1929710638
21
-33.0234777104
31
0.0000000000
11
-16.2478933504
21
-33.0217574403
31
0.0000000000
11
-16.2835691675
21
-33.0195722952
31
0.0000000000
11
-16.2960405480
21
-33.0171253962
31
0.0000000000
0
SPLINE
5
409
100
AcDbEntity
8
0
100
AcDbSpline
62
9
6
CONTINUOUS
70
0
71
3
72
11
73
7
74
5
42
0.0000001000
43
0.0000001000
44
0.0000000001
12
0.0000000000
22
0.3645127889
32
0.0000000000
13
0.3645127889
23
-0.0000000000
33
0.0000000000
40
0.0000000000
40
0.0000000000
40
0.0000000000
40
0.0000000000
40
0.2332175100
40
0.4765997713
40
0.7336719567
40
1.0000000000
40
1.0000000000
40
1.0000000000
40
1.0000000000
10
-16.2960405304
20
-33.8065979214
30
0.0000000000
10
-16.2960405304
20
-33.7782609997
30
0.0000000000
10
-16.2822746548
20
-33.7196176135
30
0.0000000000
10
-16.2253531317
20
-33.6478332839
30
0.0000000000
10
-16.1425537383
20
-33.6008736556
30
0.0000000000
10
-16.0784005230
20
-33.5900915705
30
0.0000000000
10
-16.0460405304
20
-33.5900915705
30
0.0000000000
11
-16.2960405304
21
-33.8065979214
31
0.0000000000
11
-16.2770104135
21
-33.7237445279
31
0.0000000000
11
-16.2228172257
21
-33.6535048125
31
0.0000000000
11
-16.1417113884
21
-33.6065721351
31
0.0000000000
11
-16.0460405304
21
-33.5900915705
31
0.0000000000
0
SPLINE
5
40A
100
AcDbEntity
8
0
100
AcDbSpline
62
7
6
CONTINUOUS
70
0
71
3
72
18
73
14
74
12
42
0.0000001000
43
0.0000001000
44
0.0000000001
12
-1.1289954714
22
0.0000927327
32
0.0000000000
13
-0.1860861075
23
-1.1120808586
33
0.0000000000
40
0.0000000000
40
0.0000000000
40
0.0000000000
40
0.0000000000
40
0.0292114328
40
0.1453485474
40
0.2574956648
40
0.3656669428
40
0.4698756061
40
0.5701131280
40
0.6663831906
40
0.7586866657
40
0.8465930724
40
0.9290877069
40
1.0000000000
40
1.0000000000
40
1.0000000000
40
1.0000000000
10
-38.1447140820
20
11.5404513497
30
0.0000000000
10
-38.1557072738
20
11.5404522527
30
0.0000000000
10
-38.2104069693
20
11.5393310555
30
0.0000000000
10
-38.3068292008
20
11.5273950285
30
0.0000000000
10
-38.4286924652
20
11.4918211483
30
0.0000000000
10
-38.5394706779
20
11.4397539509
30
0.0000000000
10
-38.6374849032
20
11.3742619238
30
0.0000000000
10
-38.7217222628
20
11.2983994432
30
0.0000000000
10
-38.7917781277
20
11.2150947210
30
0.0000000000
10
-38.8476806876
20
11.1271920548
30
0.0000000000
10
-38.8898015859
20
11.0376480593
30
0.0000000000
10
-38.9183991225
20
10.9513967866
30
0.0000000000
10
-38.9306257786
20
10.8949713305
30
0.0000000000
10
-38.9350243761
20
10.8686845959
30
0.0000000000
11
-38.1447140820
21
11.5404513497
31
0.0000000000
11
-38.1776828263
21
11.5397747383
31
0.0000000000
11
-38.3075986831
21
11.5237018733
31
0.0000000000
11
-38.4289425865
21
11.4882776934
31
0.0000000000
11
-38.5392903095
21
11.4364154859
31
0.0000000000
11
-38.6369555986
21
11.3711578319
31
0.0000000000
11
-38.7209133749
21
11.2955492903
31
0.0000000000
11
-38.7907560790
21
11.2125009986
31
0.0000000000
11
-38.8465907805
21
11.1247104948
31
0.0000000000
11
-38.8887724347
21
11.0350519991
31
0.0000000000
11
-38.9180501798
21
10.9467960070
31
0.0000000000
11
-38.9350243761
21
10.8686845959
31
0.0000000000
0
SPLINE
5
40B
100
AcDbEntity
8
0
100
AcDbSpline
62
7
6
CONTINUOUS
70
0
71
3
72
8
73
4
74
2
42
0.0000001000
43
0.0000001000
44
0.0000000001
12
0.0215261534
22
-0.1288810815
32
0.0000000000
13
0.0000000000
23
-0.1303791654
33
0.0000000000
40
0.0000000000
40
0.0000000000
40
0.0000000000
40
0.0000000000
40
1.0000000000
40
1.0000000000
40
1.0000000000
40
1.0000000000
10
5.2431657964
20
10.2684118900
30
0.0000000000
10
5.2503411808
20
10.2254515295
30
0.0000000000
10
5.2539594696
20
10.1818895305
30
0.0000000000
10
5.2539594696
20
10.1384298087
30
0.0000000000
11
5.2431657964
21
10.2684118900
31
0.0000000000
11
5.2539594696
21
10.1384298087
31
0.0000000000
0
SPLINE
5
40C
100
AcDbEntity
8
0
100
AcDbSpline
62
7
6
CONTINUOUS
70
0
71
3
72
20
73
16
74
14
42
0.0000001000
43
0.0000001000
44
0.0000000001
12
-0.1861015845
22
1.1123282045
32
0.0000000000
13
-1.1287885858
23
-0.0000649760
33
0.0000000000
40
0.0000000000
40
0.0000000000
40
0.0000000000
40
0.0000000000
40
0.0566663909
40
0.1259619419
40
0.2008933875
40
0.2792583168
40
0.3590765572
40
0.4410666648
40
0.5254079656
40
0.6122812949
40
0.7018594634
40
0.7943247258
40
0.8898666027
40
0.9886708292
40
1.0000000000
40
1.0000000000
40
1.0000000000
40
1.0000000000
10
5.1429515048
20
10.8686350462
30
0.0000000000
10
5.1394362697
20
10.8896455878
30
0.0000000000
10
5.1298504706
20
10.9360574671
30
0.0000000000
10
5.1081539227
20
11.0084981604
30
0.0000000000
10
5.0761339916
20
11.0859527415
30
0.0000000000
10
5.0340643559
20
11.1630065113
30
0.0000000000
10
4.9821653922
20
11.2370914944
30
0.0000000000
10
4.9206782686
20
11.3064874438
30
0.0000000000
10
4.8495067836
20
11.3699955963
30
0.0000000000
10
4.7688504379
20
11.4261160945
30
0.0000000000
10
4.6791307727
20
11.4732282293
30
0.0000000000
10
4.5810414908
20
11.5096139743
30
0.0000000000
10
4.4755862465
20
11.5334893644
30
0.0000000000
10
4.3983338553
20
11.5401248469
30
0.0000000000
10
4.3568958259
20
11.5404537164
30
0.0000000000
10
4.3526330797
20
11.5404534710
30
0.0000000000
11
5.1429515048
21
10.8686350462
31
0.0000000000
11
5.1299983612
21
10.9312035879
31
0.0000000000
11
5.1075690141
21
11.0060455293
31
0.0000000000
11
5.0752867356
21
11.0841197327
31
0.0000000000
11
5.0329436947
21
11.1616691057
31
0.0000000000
11
4.9813075878
21
11.2353766233
31
0.0000000000
11
4.9200011025
21
11.3045673158
31
0.0000000000
11
4.8490472450
21
11.3678803870
31
0.0000000000
11
4.7686450795
21
11.4238232175
31
0.0000000000
11
4.6792242128
21
11.4707779975
31
0.0000000000
11
4.5814776600
21
11.5070353329
31
0.0000000000
11
4.4764136565
21
11.5308232033
31
0.0000000000
11
4.3654203398
21
11.5403519381
31
0.0000000000
11
4.3526330797
21
11.5404534710
31
0.0000000000
0
SPLINE
5
40D
100
AcDbEntity
8
0
100
AcDbSpline
62
7
6
CONTINUOUS
70
0
71
3
72
12
73
8
74
6
42
0.0000001000
43
0.0000001000
44
0.0000000001
12
-0.7294523263
22
0.0000000000
32
0.0000000000
13
-0.0768574404
23
0.7281586299
33
0.0000000000
40
0.0000000000
40
0.0000000000
40
0.0000000000
40
0.0000000000
40
0.2141269971
40
0.4294604613
40
0.6427888361
40
0.8574647856
40
1.0000000000
40
1.0000000000
40
1.0000000000
40
1.0000000000
10
-33.6460405304
20
-24.2266690241
30
0.0000000000
10
-33.6981056758
20
-24.2266690241
30
0.0000000000
10
-33.8032584114
20
-24.2101173077
30
0.0000000000
10
-33.9447590001
20
-24.1380476517
30
0.0000000000
10
-34.0572901296
20
-24.0256650665
30
0.0000000000
10
-34.1214258602
20
-23.9001569832
30
0.0000000000
10
-34.1396383571
20
-23.8141697271
30
0.0000000000
10
-34.1432899877
20
-23.7795736450
30
0.0000000000
11
-33.6460405304
21
-24.2266690241
31
0.0000000000
11
-33.8003245772
21
-24.2023082528
31
0.0000000000
11
-33.9403091688
21
-24.1310550026
31
0.0000000000
11
-34.0504083376
21
-24.0210843645
31
0.0000000000
11
-34.1216103187
21
-23.8816119852
31
0.0000000000
11
-34.1432899877
21
-23.7795736450
31
0.0000000000
0
SPLINE
5
40E
100
AcDbEntity
8
0
100
AcDbSpline
62
7
6
CONTINUOUS
70
0
71
3
72
8
73
4
74
2
42
0.0000001000
43
0.0000001000
44
0.0000000001
12
-0.0054857773
22
0.0519730559
32
0.0000000000
13
0.0000000000
23
0.0520653948
33
0.0000000000
40
0.0000000000
40
0.0000000000
40
0.0000000000
40
0.0000000000
40
1.0000000000
40
1.0000000000
40
1.0000000000
40
1.0000000000
10
-34.1432899877
20
-23.7795736450
30
0.0000000000
10
-34.1451185801
20
-23.7622492930
30
0.0000000000
10
-34.1460405304
20
-23.7448534112
30
0.0000000000
10
-34.1460405304
20
-23.7274982796
30
0.0000000000
11
-34.1432899877
21
-23.7795736450
31
0.0000000000
11
-34.1460405304
21
-23.7274982796
31
0.0000000000
0
SPLINE
5
40F
100
AcDbEntity
8
0
100
AcDbSpline
62
7
6
CONTINUOUS
70
0
71
3
72
8
73
4
74
2
42
0.0000001000
43
0.0000001000
44
0.0000000001
12
0.0000000000
22
-0.0520364597
32
0.0000000000
13
-0.0054796125
23
-0.0519442950
33
0.0000000000
40
0.0000000000
40
0.0000000000
40
0.0000000000
40
0.0000000000
40
1.0000000000
40
1.0000000000
40
1.0000000000
40
1.0000000000
10
-22.1460405304
20
-23.7274982796
30
0.0000000000
10
-22.1460405304
20
-23.7448437662
30
0.0000000000
10
-22.1469614220
20
-23.7622299122
30
0.0000000000
10
-22.1487879594
20
-23.7795446772
30
0.0000000000
11
-22.1460405304
21
-23.7274982796
31
0.0000000000
11
-22.1487879594
21
-23.7795446772
31
0.0000000000
0
SPLINE
5
410
100
AcDbEntity
8
0
100
AcDbSpline
62
7
6
CONTINUOUS
70
0
71
3
72
12
73
8
74
6
42
0.0000001000
43
0.0000001000
44
0.0000000001
12
-0.0768168046
22
-0.7281892238
32
0.0000000000
13
-0.7294812483
23
-0.0000000000
33
0.0000000000
40
0.0000000000
40
0.0000000000
40
0.0000000000
40
0.0000000000
40
0.1426069694
40
0.3577811725
40
0.5710978842
40
0.7859159426
40
1.0000000000
40
1.0000000000
40
1.0000000000
40
1.0000000000
10
-22.1487879594
20
-23.7795446772
30
0.0000000000
10
-22.1524394967
20
-23.8141596299
30
0.0000000000
10
-22.1706816102
20
-23.9002880245
30
0.0000000000
10
-22.2349424979
20
-24.0259074828
30
0.0000000000
10
-22.3475642096
20
-24.1381979622
30
0.0000000000
10
-22.4889628510
20
-24.2101402086
30
0.0000000000
10
-22.5939837619
20
-24.2266690241
30
0.0000000000
10
-22.6460405304
20
-24.2266690241
30
0.0000000000
11
-22.1487879594
21
-23.7795446772
31
0.0000000000
11
-22.1704793626
21
-23.8816384935
31
0.0000000000
11
-22.2419096697
21
-24.0214093559
31
0.0000000000
11
-22.3520954116
21
-24.1312899400
31
0.0000000000
11
-22.4917806879
21
-24.2023160917
31
0.0000000000
11
-22.6460405304
21
-24.2266690241
31
0.0000000000
0
SPLINE
5
411
100
AcDbEntity
8
0
100
AcDbSpline
62
7
6
CONTINUOUS
70
0
71
3
72
15
73
11
74
9
42
0.0000001000
43
0.0000001000
44
0.0000000001
12
0.0000000000
22
-1.2497746756
32
0.0000000000
13
-1.2497746756
23
0.0000000000
33
0.0000000000
40
0.0000000000
40
0.0000000000
40
0.0000000000
40
0.0000000000
40
0.1245409531
40
0.2491517967
40
0.3738923854
40
0.4988016821
40
0.6238934018
40
0.7491534954
40
0.8745418556
40
1.0000000000
40
1.0000000000
40
1.0000000000
40
1.0000000000
10
5.2539594696
20
-31.6480050468
30
0.0000000000
10
5.2539594696
20
-31.6998877565
30
0.0000000000
10
5.2436431097
20
-31.8039739017
30
0.0000000000
10
5.1978156557
20
-31.9538543161
30
0.0000000000
10
5.1233987757
20
-32.0920284009
30
0.0000000000
10
5.0232588088
20
-32.2131036295
30
0.0000000000
10
4.9012591246
20
-32.3124510451
30
0.0000000000
10
4.7620744340
20
-32.3862556926
30
0.0000000000
10
4.6111321774
20
-32.4316952263
30
0.0000000000
10
4.5063461174
20
-32.4419210324
30
0.0000000000
10
4.4540813135
20
-32.4419210324
30
0.0000000000
11
5.2539594696
21
-31.6480050468
31
0.0000000000
11
5.2385933847
21
-31.8028928242
31
0.0000000000
11
5.1930820942
21
-31.9518299287
31
0.0000000000
11
5.1191698834
21
-32.0890926540
31
0.0000000000
11
5.0196951895
21
-32.2094032582
31
0.0000000000
11
4.8984810730
21
-32.3081363719
31
0.0000000000
11
4.7601876464
21
-32.3814975185
31
0.0000000000
11
4.6101321971
21
-32.4266694986
31
0.0000000000
11
4.4540813135
21
-32.4419210324
31
0.0000000000
0
SPLINE
5
412
100
AcDbEntity
8
0
100
AcDbSpline
62
7
6
CONTINUOUS
70
0
71
3
72
8
73
4
74
2
42
0.0000001000
43
0.0000001000
44
0.0000000001
12
0.0000000000
22
0.1303791600
32
0.0000000000
13
0.0215261517
23
0.1288810767
33
0.0000000000
40
0.0000000000
40
0.0000000000
40
0.0000000000
40
0.0000000000
40
1.0000000000
40
1.0000000000
40
1.0000000000
40
1.0000000000
10
-39.0460405304
20
10.1384298087
30
0.0000000000
10
-39.0460405304
20
10.1818895287
30
0.0000000000
10
-39.0424222418
20
10.2254515259
30
0.0000000000
10
-39.0352468579
20
10.2684118848
30
0.0000000000
11
-39.0460405304
21
10.1384298087
31
0.0000000000
11
-39.0352468579
21
10.2684118848
31
0.0000000000
0
SPLINE
5
413
100
AcDbEntity
8
0
100
AcDbSpline
62
7
6
CONTINUOUS
70
0
71
3
72
15
73
11
74
9
42
0.0000001000
43
0.0000001000
44
0.0000000001
12
-1.2497746757
22
0.0000000000
32
0.0000000000
13
0.0000000000
23
1.2497746757
33
0.0000000000
40
0.0000000000
40
0.0000000000
40
0.0000000000
40
0.0000000000
40
0.1254582045
40
0.2508466948
40
0.3761069218
40
0.5011986972
40
0.6261079373
40
0.7508483924
40
0.8754591065
40
1.0000000000
40
1.0000000000
40
1.0000000000
40
1.0000000000
10
-38.2461623742
20
-32.4419210324
30
0.0000000000
10
-38.2984272032
20
-32.4419210324
30
0.0000000000
10
-38.4032133427
20
-32.4316952136
30
0.0000000000
10
-38.5541557223
20
-32.3862556108
30
0.0000000000
10
-38.6933405035
20
-32.3124508435
30
0.0000000000
10
-38.8153401766
20
-32.2131033247
30
0.0000000000
10
-38.9154800398
20
-32.0920280847
30
0.0000000000
10
-38.9898967991
20
-31.9538540897
30
0.0000000000
10
-39.0357241832
20
-31.8039737977
30
0.0000000000
10
-39.0460405304
20
-31.6998877317
30
0.0000000000
10
-39.0460405304
20
-31.6480050468
30
0.0000000000
11
-38.2461623742
21
-32.4419210324
31
0.0000000000
11
-38.4022133318
21
-32.4266694840
31
0.0000000000
11
-38.5522689280
21
-32.3814974277
31
0.0000000000
11
-38.6905624724
21
-32.3081361473
31
0.0000000000
11
-38.8117765883
21
-32.2094029227
31
0.0000000000
11
-38.9112511704
21
-32.0890923178
31
0.0000000000
11
-38.9851632464
21
-31.9518297095
31
0.0000000000
11
-39.0306744602
21
-31.8028927507
31
0.0000000000
11
-39.0460405304
21
-31.6480050468
31
0.0000000000
0
SPLINE
5
414
100
AcDbEntity
8
0
100
AcDbSpline
62
9
6
CONTINUOUS
70
0
71
3
72
13
73
9
74
7
42
0.0000001000
43
0.0000001000
44
0.0000000001
12
-0.0915078065
22
1.5641979368
32
0.0000000000
13
-0.0008774266
23
1.5668720733
33
0.0000000000
40
0.0000000000
40
0.0000000000
40
0.0000000000
40
0.0000000000
40
0.0615927763
40
0.1772294068
40
0.3398396457
40
0.5395261726
40
0.7641517453
40
1.0000000000
40
1.0000000000
40
1.0000000000
40
1.0000000000
10
4.3539152417
20
-31.6431530873
30
0.0000000000
10
4.3520365017
20
-31.6110386561
30
0.0000000000
10
4.3504226670
20
-31.5184531961
30
0.0000000000
10
4.3475386168
20
-31.3410044674
30
0.0000000000
10
4.3454655931
20
-31.0913803050
30
0.0000000000
10
4.3435865309
20
-30.7848461709
30
0.0000000000
10
4.3423813550
20
-30.4400508020
30
0.0000000000
10
4.3420070675
20
-30.1995500615
30
0.0000000000
10
4.3419380877
20
-30.0763687136
30
0.0000000000
11
4.3539152417
21
-31.6431530873
31
0.0000000000
11
4.3509280440
21
-31.5466913132
31
0.0000000000
11
4.3481366502
21
-31.3655249813
31
0.0000000000
11
4.3457093154
21
-31.1107470620
31
0.0000000000
11
4.3437956813
21
-30.7978696225
31
0.0000000000
11
4.3425128154
21
-30.4459123684
31
0.0000000000
11
4.3419380877
21
-30.0763687136
31
0.0000000000
0
SPLINE
5
415
100
AcDbEntity
8
0
100
AcDbSpline
62
9
6
CONTINUOUS
70
0
71
3
72
13
73
9
74
7
42
0.0000001000
43
0.0000001000
44
0.0000000001
12
-0.0907964327
22
0.7256964714
32
0.0000000000
13
-0.0008714795
23
0.7313539508
33
0.0000000000
40
0.0000000000
40
0.0000000000
40
0.0000000000
40
0.0000000000
40
0.0613209221
40
0.1770219636
40
0.3399107115
40
0.5400399734
40
0.7650819494
40
1.0000000000
40
1.0000000000
40
1.0000000000
40
1.0000000000
10
5.1537933978
20
-30.8492371017
30
0.0000000000
10
5.1519374908
20
-30.8344036427
30
0.0000000000
10
5.1502958704
20
-30.7912083640
30
0.0000000000
10
5.1474244497
20
-30.7084408515
30
0.0000000000
10
5.1453412824
20
-30.5917287413
30
0.0000000000
10
5.1434625041
20
-30.4483897607
30
0.0000000000
10
5.1422579986
20
-30.2874707248
30
0.0000000000
10
5.1418844859
20
-30.1753404754
30
0.0000000000
10
5.1418162438
20
-30.1180710606
30
0.0000000000
11
5.1537933978
21
-30.8492371017
31
0.0000000000
11
5.1508177116
21
-30.8044886006
31
0.0000000000
11
5.1480198927
21
-30.7199163929
31
0.0000000000
11
5.1455878764
21
-30.6008118062
31
0.0000000000
11
5.1436711638
21
-30.4544589265
31
0.0000000000
11
5.1423875241
21
-30.2898784772
31
0.0000000000
11
5.1418162438
21
-30.1180710606
31
0.0000000000
0
SPLINE
5
416
100
AcDbEntity
8
0
100
AcDbSpline
62
9
6
CONTINUOUS
70
0
71
3
72
12
73
8
74
6
42
0.0000001000
43
0.0000001000
44
0.0000000001
12
1.2460362205
22
0.0030265120
32
0.0000000000
13
0.0003832002
23
1.2460398372
33
0.0000000000
40
0.0000000000
40
0.0000000000
40
0.0000000000
40
0.0000000000
40
0.2008338167
40
0.4014397203
40
0.6015267085
40
0.8010002955
40
1.0000000000
40
1.0000000000
40
1.0000000000
40
1.0000000000
10
4.3539152417
20
-31.6431530873
30
0.0000000000
10
4.4373306450
20
-31.6429504786
30
0.0000000000
10
4.6051537141
20
-31.6163014312
30
0.0000000000
10
4.8314695834
20
-31.5015747827
30
0.0000000000
10
5.0114500330
20
-31.3231074877
30
0.0000000000
10
5.1271074995
20
-31.0985652872
30
0.0000000000
10
5.1537679789
20
-30.9318909548
30
0.0000000000
10
5.1537933978
20
-30.8492371017
30
0.0000000000
11
4.3539152417
21
-31.6431530873
31
0.0000000000
11
4.6010474563
21
-31.6037931641
31
0.0000000000
11
4.8239966123
21
-31.4907659336
31
0.0000000000
11
5.0009471509
21
-31.3151323401
31
0.0000000000
11
5.1145853780
21
-31.0940792384
31
0.0000000000
11
5.1537933978
21
-30.8492371017
31
0.0000000000
0
SPLINE
5
417
100
AcDbEntity
8
0
100
AcDbSpline
62
9
6
CONTINUOUS
70
0
71
3
72
11
73
7
74
5
42
0.0000001000
43
0.0000001000
44
0.0000000001
12
-0.0477821099
22
40.4002249080
32
0.0000000000
13
0.0485866741
23
40.4002239484
33
0.0000000000
40
0.0000000000
40
0.0000000000
40
0.0000000000
40
0.0000000000
40
0.2514194057
40
0.5020848082
40
0.7517075061
40
1.0000000000
40
1.0000000000
40
1.0000000000
40
1.0000000000
10
4.3419380877
20
-30.0763687136
30
0.0000000000
10
4.3379336378
20
-26.6905685353
30
0.0000000000
10
4.3319226524
20
-19.9291196258
30
0.0000000000
10
4.3289043464
20
-9.8060616524
30
0.0000000000
10
4.3318975829
20
0.2748869891
30
0.0000000000
10
4.3379168522
20
6.9801847038
30
0.0000000000
10
4.3419380877
20
10.3238754897
30
0.0000000000
11
4.3419380877
21
-30.0763687136
31
0.0000000000
11
4.3329153727
21
-19.9189650817
31
0.0000000000
11
4.3299066462
21
-9.7920198069
31
0.0000000000
11
4.3329153726
21
0.2927999357
31
0.0000000000
11
4.3419380877
21
10.3238754897
31
0.0000000000
0
SPLINE
5
418
100
AcDbEntity
8
0
100
AcDbSpline
62
9
6
CONTINUOUS
70
0
71
3
72
11
73
7
74
5
42
0.0000001000
43
0.0000001000
44
0.0000000001
12
-0.0477821100
22
40.2924908718
32
0.0000000000
13
0.0485866719
23
40.2924899097
33
0.0000000000
40
0.0000000000
40
0.0000000000
40
0.0000000000
40
0.0000000000
40
0.2514187795
40
0.5020848667
40
0.7517082426
40
1.0000000000
40
1.0000000000
40
1.0000000000
40
1.0000000000
10
5.1418162438
20
-30.1180710606
30
0.0000000000
10
5.1378118039
20
-26.7413081010
30
0.0000000000
10
5.1318008128
20
-19.9978889394
30
0.0000000000
10
5.1287824971
20
-9.9018158824
30
0.0000000000
10
5.1317757455
20
0.1522586517
30
0.0000000000
10
5.1377950204
20
6.8396747822
30
0.0000000000
10
5.1418162438
20
10.1744391582
30
0.0000000000
11
5.1418162438
21
-30.1180710606
31
0.0000000000
11
5.1327935438
21
-19.9877790768
31
0.0000000000
11
5.1297848023
21
-9.8878113914
31
0.0000000000
11
5.1327935465
21
0.1701428253
31
0.0000000000
11
5.1418162438
21
10.1744391582
31
0.0000000000
0
SPLINE
5
419
100
AcDbEntity
8
0
100
AcDbSpline
62
9
6
CONTINUOUS
70
0
71
3
72
12
73
8
74
6
42
0.0000001000
43
0.0000001000
44
0.0000000001
12
0.8027927421
22
0.0009492345
32
0.0000000000
13
0.2454376877
23
-0.7643542564
33
0.0000000000
40
0.0000000000
40
0.0000000000
40
0.0000000000
40
0.0000000000
40
0.3046472017
40
0.5802120985
40
0.8004385434
40
0.9445118285
40
1.0000000000
40
1.0000000000
40
1.0000000000
40
1.0000000000
10
4.3419380877
20
-30.0763687154
30
0.0000000000
10
4.4234609418
20
-30.0762723216
30
0.0000000000
10
4.5795787261
20
-30.0767863215
30
0.0000000000
10
4.7904310984
20
-30.0842275185
30
0.0000000000
10
4.9700064831
20
-30.0867863719
30
0.0000000000
10
5.0651927237
20
-30.1075249977
30
0.0000000000
10
5.1372766143
20
-30.1039335206
30
0.0000000000
10
5.1418162438
20
-30.1180710606
30
0.0000000000
11
4.3419380877
21
-30.0763687154
31
0.0000000000
11
4.5865002800
21
-30.0781574196
31
0.0000000000
11
4.8076465896
21
-30.0839306189
31
0.0000000000
11
4.9842031141
21
-30.0931355482
31
0.0000000000
11
5.0992652501
21
-30.1048908710
31
0.0000000000
11
5.1418162438
21
-30.1180710606
31
0.0000000000
0
SPLINE
5
41A
100
AcDbEntity
8
0
100
AcDbSpline
62
9
6
CONTINUOUS
70
0
71
3
72
13
73
9
74
7
42
0.0000001000
43
0.0000001000
44
0.0000000001
12
0.0006876331
22
1.2075678145
32
0.0000000000
13
0.3038590582
23
0.0418575008
33
0.0000000000
40
0.0000000000
40
0.0000000000
40
0.0000000000
40
0.0000000000
40
0.2917785784
40
0.5514430044
40
0.7631433473
40
0.9140190463
40
0.9948904730
40
1.0000000000
40
1.0000000000
40
1.0000000000
40
1.0000000000
10
4.3419380877
20
10.3238754897
30
0.0000000000
10
4.3420049666
20
10.4413229632
30
0.0000000000
10
4.3414863386
20
10.6617690802
30
0.0000000000
10
4.3459918894
20
10.9748053451
30
0.0000000000
10
4.3388802037
20
11.2095880009
30
0.0000000000
10
4.3608057372
20
11.4230966703
30
0.0000000000
10
4.3336207477
20
11.4666948475
30
0.0000000000
10
4.3531447189
20
11.5328975242
30
0.0000000000
10
4.3536622443
20
11.5329688149
30
0.0000000000
11
4.3419380877
21
10.3238754897
31
0.0000000000
11
4.3425128154
21
10.6762174984
31
0.0000000000
11
4.3437956813
21
10.9897773283
31
0.0000000000
11
4.3457093154
21
11.2454127278
31
0.0000000000
11
4.3481366502
21
11.4275892251
31
0.0000000000
11
4.3509280440
21
11.5252070709
31
0.0000000000
11
4.3536622443
21
11.5329688149
31
0.0000000000
0
SPLINE
5
41B
100
AcDbEntity
8
0
100
AcDbSpline
62
9
6
CONTINUOUS
70
0
71
3
72
13
73
9
74
7
42
0.0000001000
43
0.0000001000
44
0.0000000001
12
0.0006849262
22
0.5652325525
32
0.0000000000
13
0.0933595018
23
-0.5574695605
33
0.0000000000
40
0.0000000000
40
0.0000000000
40
0.0000000000
40
0.0000000000
40
0.2898471771
40
0.5493182518
40
0.7609189415
40
0.9116163993
40
0.9922734267
40
1.0000000000
40
1.0000000000
40
1.0000000000
40
1.0000000000
10
5.1418162438
20
10.1744391582
30
0.0000000000
10
5.1418824185
20
10.2290495115
30
0.0000000000
10
5.1415592071
20
10.3320749321
30
0.0000000000
10
5.1453215898
20
10.4772607520
30
0.0000000000
10
5.1401860321
20
10.5895044001
30
0.0000000000
10
5.1576916508
20
10.6838579083
30
0.0000000000
10
5.1368415014
20
10.7125737116
30
0.0000000000
10
5.1535529481
20
10.7397946320
30
0.0000000000
10
5.1537933978
20
10.7383588556
30
0.0000000000
11
5.1418162438
21
10.1744391582
31
0.0000000000
11
5.1423875241
21
10.3382693422
31
0.0000000000
11
5.1436711638
21
10.4849253301
31
0.0000000000
11
5.1455878764
21
10.6045136567
31
0.0000000000
11
5.1480198927
21
10.6896581017
31
0.0000000000
11
5.1508177116
21
10.7351621819
31
0.0000000000
11
5.1537933978
21
10.7383588556
31
0.0000000000
0
SPLINE
5
41C
100
AcDbEntity
8
0
100
AcDbSpline
62
9
6
CONTINUOUS
70
0
71
3
72
12
73
8
74
6
42
0.0000001000
43
0.0000001000
44
0.0000000001
12
0.8315348666
22
-0.0009667488
32
0.0000000000
13
0.0763852826
23
-0.8280195997
33
0.0000000000
40
0.0000000000
40
0.0000000000
40
0.0000000000
40
0.0000000000
40
0.2942454671
40
0.5614202350
40
0.7774191911
40
0.9245351593
40
1.0000000000
40
1.0000000000
40
1.0000000000
40
1.0000000000
10
4.3419380877
20
10.3238715586
30
0.0000000000
10
4.4234965428
20
10.3237767381
30
0.0000000000
10
4.5794062080
20
10.3189774935
30
0.0000000000
10
4.7931532662
20
10.3002630960
30
0.0000000000
10
4.9682355682
20
10.2682419889
30
0.0000000000
10
5.0792407651
20
10.2369335726
30
0.0000000000
10
5.1398947760
20
10.1952679473
30
0.0000000000
10
5.1418162437
20
10.1744391582
30
0.0000000000
11
4.3419380877
21
10.3238715586
31
0.0000000000
11
4.5864980429
21
10.3163520115
31
0.0000000000
11
4.8076427909
21
10.2950819775
31
0.0000000000
11
4.9841989774
21
10.2620979371
31
0.0000000000
11
5.0992623499
21
10.2205579239
31
0.0000000000
11
5.1418162437
21
10.1744391582
31
0.0000000000
0
SPLINE
5
41D
100
AcDbEntity
8
0
100
AcDbSpline
62
9
6
CONTINUOUS
70
0
71
3
72
13
73
9
74
7
42
0.0000001000
43
0.0000001000
44
0.0000000001
12
0.0933594994
22
0.5574695609
32
0.0000000000
13
0.0006849263
23
-0.5652325524
33
0.0000000000
40
0.0000000000
40
0.0000000000
40
0.0000000000
40
0.0000000000
40
0.0077265734
40
0.0883836006
40
0.2390810585
40
0.4506817482
40
0.7101528228
40
1.0000000000
40
1.0000000000
40
1.0000000000
40
1.0000000000
10
-38.9458744585
20
10.7383588556
30
0.0000000000
10
-38.9456340089
20
10.7397946320
30
0.0000000000
10
-38.9289225623
20
10.7125737114
30
0.0000000000
10
-38.9497727113
20
10.6838579084
30
0.0000000000
10
-38.9322670929
20
10.5895044001
30
0.0000000000
10
-38.9374026505
20
10.4772607520
30
0.0000000000
10
-38.9336402679
20
10.3320749321
30
0.0000000000
10
-38.9339634792
20
10.2290495115
30
0.0000000000
10
-38.9338973045
20
10.1744391582
30
0.0000000000
11
-38.9458744585
21
10.7383588556
31
0.0000000000
11
-38.9428987723
21
10.7351621818
31
0.0000000000
11
-38.9401009534
21
10.6896581017
31
0.0000000000
11
-38.9376689371
21
10.6045136567
31
0.0000000000
11
-38.9357522245
21
10.4849253301
31
0.0000000000
11
-38.9344685848
21
10.3382693422
31
0.0000000000
11
-38.9338973045
21
10.1744391582
31
0.0000000000
0
SPLINE
5
41E
100
AcDbEntity
8
0
100
AcDbSpline
62
9
6
CONTINUOUS
70
0
71
3
72
11
73
7
74
5
42
0.0000001000
43
0.0000001000
44
0.0000000001
12
0.0485866742
22
-40.4002239484
32
0.0000000000
13
-0.0477821099
23
-40.4002249080
33
0.0000000000
40
0.0000000000
40
0.0000000000
40
0.0000000000
40
0.0000000000
40
0.2482924939
40
0.4979151918
40
0.7485805943
40
1.0000000000
40
1.0000000000
40
1.0000000000
40
1.0000000000
10
-38.1340191484
20
10.3238754897
30
0.0000000000
10
-38.1299979129
20
6.9801847038
30
0.0000000000
10
-38.1239786436
20
0.2748869891
30
0.0000000000
10
-38.1209854071
20
-9.8060616524
30
0.0000000000
10
-38.1240037131
20
-19.9291196258
30
0.0000000000
10
-38.1300146985
20
-26.6905685353
30
0.0000000000
10
-38.1340191484
20
-30.0763687136
30
0.0000000000
11
-38.1340191484
21
10.3238754897
31
0.0000000000
11
-38.1249964333
21
0.2927999357
31
0.0000000000
11
-38.1219877069
21
-9.7920198069
31
0.0000000000
11
-38.1249964334
21
-19.9189650817
31
0.0000000000
11
-38.1340191484
21
-30.0763687136
31
0.0000000000
0
SPLINE
5
41F
100
AcDbEntity
8
0
100
AcDbSpline
62
9
6
CONTINUOUS
70
0
71
3
72
11
73
7
74
5
42
0.0000001000
43
0.0000001000
44
0.0000000001
12
0.0485866719
22
-40.2924899097
32
0.0000000000
13
-0.0477821100
23
-40.2924908718
33
0.0000000000
40
0.0000000000
40
0.0000000000
40
0.0000000000
40
0.0000000000
40
0.2482917574
40
0.4979151333
40
0.7485812205
40
1.0000000000
40
1.0000000000
40
1.0000000000
40
1.0000000000
10
-38.9338973045
20
10.1744391582
30
0.0000000000
10
-38.9298760811
20
6.8396747822
30
0.0000000000
10
-38.9238568062
20
0.1522586517
30
0.0000000000
10
-38.9208635578
20
-9.9018158824
30
0.0000000000
10
-38.9238818736
20
-19.9978889394
30
0.0000000000
10
-38.9298928646
20
-26.7413081010
30
0.0000000000
10
-38.9338973045
20
-30.1180710606
30
0.0000000000
11
-38.9338973045
21
10.1744391582
31
0.0000000000
11
-38.9248746073
21
0.1701428253
31
0.0000000000
11
-38.9218658631
21
-9.8878113914
31
0.0000000000
11
-38.9248746045
21
-19.9877790768
31
0.0000000000
11
-38.9338973045
21
-30.1180710606
31
0.0000000000
0
SPLINE
5
420
100
AcDbEntity
8
0
100
AcDbSpline
62
9
6
CONTINUOUS
70
0
71
3
72
12
73
8
74
6
42
0.0000001000
43
0.0000001000
44
0.0000000001
12
-0.8315372060
22
-0.0009669406
32
0.0000000000
13
-0.0763195041
23
-0.8280280148
33
0.0000000000
40
0.0000000000
40
0.0000000000
40
0.0000000000
40
0.0000000000
40
0.2942473375
40
0.5614232974
40
0.7774222506
40
0.9245368396
40
1.0000000000
40
1.0000000000
40
1.0000000000
40
1.0000000000
10
-38.1340191484
20
10.3238754828
30
0.0000000000
10
-38.2155783514
20
10.3237806429
30
0.0000000000
10
-38.3714893076
20
10.3189811773
30
0.0000000000
10
-38.5852377718
20
10.3002664560
30
0.0000000000
10
-38.7603204121
20
10.2682439415
30
0.0000000000
10
-38.8713248990
20
10.2369359757
30
0.0000000000
10
-38.9319775342
20
10.1952676952
30
0.0000000000
10
-38.9338973045
20
10.1744391582
30
0.0000000000
11
-38.1340191484
21
10.3238754828
31
0.0000000000
11
-38.3785813401
21
10.3163556666
31
0.0000000000
11
-38.5997276493
21
10.2950849821
31
0.0000000000
11
-38.7762841737
21
10.2621000117
31
0.0000000000
11
-38.8913463100
21
10.2205589381
31
0.0000000000
11
-38.9338973045
21
10.1744391582
31
0.0000000000
0
SPLINE
5
421
100
AcDbEntity
8
0
100
AcDbSpline
62
9
6
CONTINUOUS
70
0
71
3
72
13
73
9
74
7
42
0.0000001000
43
0.0000001000
44
0.0000000001
12
-0.0008774266
22
-1.5668720733
32
0.0000000000
13
-0.0915078080
23
-1.5641979367
33
0.0000000000
40
0.0000000000
40
0.0000000000
40
0.0000000000
40
0.0000000000
40
0.2358482547
40
0.4604738274
40
0.6601603543
40
0.8227705932
40
0.9384072237
40
1.0000000000
40
1.0000000000
40
1.0000000000
40
1.0000000000
10
-38.1340191484
20
-30.0763687136
30
0.0000000000
10
-38.1340881282
20
-30.1995500615
30
0.0000000000
10
-38.1344624157
20
-30.4400508020
30
0.0000000000
10
-38.1356675916
20
-30.7848461709
30
0.0000000000
10
-38.1375466538
20
-31.0913803050
30
0.0000000000
10
-38.1396196775
20
-31.3410044674
30
0.0000000000
10
-38.1425037277
20
-31.5184531961
30
0.0000000000
10
-38.1441175624
20
-31.6110386561
30
0.0000000000
10
-38.1459963024
20
-31.6431530873
30
0.0000000000
11
-38.1340191484
21
-30.0763687136
31
0.0000000000
11
-38.1345938761
21
-30.4459123684
31
0.0000000000
11
-38.1358767420
21
-30.7978696225
31
0.0000000000
11
-38.1377903761
21
-31.1107470620
31
0.0000000000
11
-38.1402177109
21
-31.3655249813
31
0.0000000000
11
-38.1430091047
21
-31.5466913132
31
0.0000000000
11
-38.1459963024
21
-31.6431530873
31
0.0000000000
0
SPLINE
5
422
100
AcDbEntity
8
0
100
AcDbSpline
62
9
6
CONTINUOUS
70
0
71
3
72
13
73
9
74
7
42
0.0000001000
43
0.0000001000
44
0.0000000001
12
-0.0008714794
22
-0.7313539508
32
0.0000000000
13
-0.0907964309
23
-0.7256964717
33
0.0000000000
40
0.0000000000
40
0.0000000000
40
0.0000000000
40
0.0000000000
40
0.2349180506
40
0.4599600266
40
0.6600892885
40
0.8229780364
40
0.9386790780
40
1.0000000000
40
1.0000000000
40
1.0000000000
40
1.0000000000
10
-38.9338973045
20
-30.1180710606
30
0.0000000000
10
-38.9339655466
20
-30.1753404754
30
0.0000000000
10
-38.9343390593
20
-30.2874707248
30
0.0000000000
10
-38.9355435648
20
-30.4483897607
30
0.0000000000
10
-38.9374223431
20
-30.5917287413
30
0.0000000000
10
-38.9395055104
20
-30.7084408515
30
0.0000000000
10
-38.9423769310
20
-30.7912083640
30
0.0000000000
10
-38.9440185516
20
-30.8344036427
30
0.0000000000
10
-38.9458744585
20
-30.8492371017
30
0.0000000000
11
-38.9338973045
21
-30.1180710606
31
0.0000000000
11
-38.9344685848
21
-30.2898784772
31
0.0000000000
11
-38.9357522245
21
-30.4544589265
31
0.0000000000
11
-38.9376689371
21
-30.6008118062
31
0.0000000000
11
-38.9401009534
21
-30.7199163928
31
0.0000000000
11
-38.9428987723
21
-30.8044886007
31
0.0000000000
11
-38.9458744585
21
-30.8492371017
31
0.0000000000
0
SPLINE
5
423
100
AcDbEntity
8
0
100
AcDbSpline
62
9
6
CONTINUOUS
70
0
71
3
72
12
73
8
74
6
42
0.0000001000
43
0.0000001000
44
0.0000000001
12
-0.8027924598
22
0.0009491748
32
0.0000000000
13
-0.2456323398
23
-0.7642914288
33
0.0000000000
40
0.0000000000
40
0.0000000000
40
0.0000000000
40
0.0000000000
40
0.3046445219
40
0.5802075656
40
0.8004336505
40
0.9445084780
40
1.0000000000
40
1.0000000000
40
1.0000000000
40
1.0000000000
10
-38.1340191484
20
-30.0763698346
30
0.0000000000
10
-38.2155412568
20
-30.0762734476
30
0.0000000000
10
-38.3716574266
20
-30.0767874643
30
0.0000000000
10
-38.5825097495
20
-30.0842283715
30
0.0000000000
10
-38.7620815178
20
-30.0867873589
30
0.0000000000
10
-38.8572753174
20
-30.1075253171
30
0.0000000000
10
-38.9293538003
20
-30.1039338290
30
0.0000000000
10
-38.9338973044
20
-30.1180710606
30
0.0000000000
11
-38.1340191484
21
-30.0763698346
31
0.0000000000
11
-38.3785791036
21
-30.0781584950
31
0.0000000000
11
-38.5997238516
21
-30.0839315279
31
0.0000000000
11
-38.7762800381
21
-30.0931361933
31
0.0000000000
11
-38.8913434106
21
-30.1048911958
31
0.0000000000
11
-38.9338973044
21
-30.1180710606
31
0.0000000000
0
SPLINE
5
424
100
AcDbEntity
8
0
100
AcDbSpline
62
9
6
CONTINUOUS
70
0
71
3
72
12
73
8
74
6
42
0.0000001000
43
0.0000001000
44
0.0000000001
12
-1.2460362226
22
0.0030265008
32
0.0000000000
13
-0.0003831981
23
1.2460398392
33
0.0000000000
40
0.0000000000
40
0.0000000000
40
0.0000000000
40
0.0000000000
40
0.2008316480
40
0.4014361896
40
0.6015229632
40
0.8009976993
40
1.0000000000
40
1.0000000000
40
1.0000000000
40
1.0000000000
10
-38.1459963024
20
-31.6431530873
30
0.0000000000
10
-38.2294108051
20
-31.6429504816
30
0.0000000000
10
-38.3972323726
20
-31.6163019630
30
0.0000000000
10
-38.6235472998
20
-31.5015770685
30
0.0000000000
10
-38.8035286390
20
-31.3231109415
30
0.0000000000
10
-38.9191879489
20
-31.0985679666
30
0.0000000000
10
-38.9458490394
20
-30.9318920332
30
0.0000000000
10
-38.9458744585
20
-30.8492371017
30
0.0000000000
11
-38.1459963024
21
-31.6431530873
31
0.0000000000
11
-38.3931259157
21
-31.6037940096
31
0.0000000000
11
-38.6160740637
21
-31.4907685431
31
0.0000000000
11
-38.7930254214
21
-31.3151361537
31
0.0000000000
11
-38.9066654186
21
-31.0940823517
31
0.0000000000
11
-38.9458744585
21
-30.8492371017
31
0.0000000000
0
SPLINE
5
425
100
AcDbEntity
8
0
100
AcDbSpline
62
9
6
CONTINUOUS
70
0
71
3
72
13
73
9
74
7
42
0.0000001000
43
0.0000001000
44
0.0000000001
12
0.3038594160
22
-0.0418596694
32
0.0000000000
13
0.0006876331
23
-1.2075678115
33
0.0000000000
40
0.0000000000
40
0.0000000000
40
0.0000000000
40
0.0000000000
40
0.0051095246
40
0.0859809515
40
0.2368566508
40
0.4485569943
40
0.7082214209
40
1.0000000000
40
1.0000000000
40
1.0000000000
40
1.0000000000
10
-38.1457433042
20
11.5329688148
30
0.0000000000
10
-38.1452257785
20
11.5328975204
30
0.0000000000
10
-38.1257018087
20
11.4666948470
30
0.0000000000
10
-38.1528867979
20
11.4230966703
30
0.0000000000
10
-38.1309612644
20
11.2095880009
30
0.0000000000
10
-38.1380729501
20
10.9748053451
30
0.0000000000
10
-38.1335673993
20
10.6617690802
30
0.0000000000
10
-38.1340860273
20
10.4413229632
30
0.0000000000
10
-38.1340191484
20
10.3238754897
30
0.0000000000
11
-38.1457433042
21
11.5329688148
31
0.0000000000
11
-38.1430091047
21
11.5252070709
31
0.0000000000
11
-38.1402177109
21
11.4275892251
31
0.0000000000
11
-38.1377903761
21
11.2454127278
31
0.0000000000
11
-38.1358767420
21
10.9897773283
31
0.0000000000
11
-38.1345938761
21
10.6762174984
31
0.0000000000
11
-38.1340191484
21
10.3238754897
31
0.0000000000
0
SPLINE
5
426
100
AcDbEntity
8
0
100
AcDbSpline
62
9
6
CONTINUOUS
70
0
71
3
72
8
73
4
74
2
42
0.0000001000
43
0.0000001000
44
0.0000000001
12
-0.0215621297
22
-0.1291228635
32
0.0000000000
13
-0.0000398859
23
-0.1302527612
33
0.0000000000
40
0.0000000000
40
0.0000000000
40
0.0000000000
40
0.0000000000
40
1.0000000000
40
1.0000000000
40
1.0000000000
40
1.0000000000
10
-38.9350259382
20
10.8683960026
30
0.0000000000
10
-38.9422133148
20
10.8253550481
30
0.0000000000
10
-38.9458611632
20
10.7817764426
30
0.0000000000
10
-38.9458744585
20
10.7383588556
30
0.0000000000
11
-38.9350259382
21
10.8683960026
31
0.0000000000
11
-38.9458744585
21
10.7383588556
31
0.0000000000
0
SPLINE
5
427
100
AcDbEntity
8
0
100
AcDbSpline
62
9
6
CONTINUOUS
70
0
71
3
72
8
73
4
74
2
42
0.0000001000
43
0.0000001000
44
0.0000000001
12
0.0215622084
22
-0.1291230892
32
0.0000000000
13
0.0000398858
23
-0.1302529812
33
0.0000000000
40
0.0000000000
40
0.0000000000
40
0.0000000000
40
0.0000000000
40
1.0000000000
40
1.0000000000
40
1.0000000000
40
1.0000000000
10
5.1429448371
20
10.8683962277
30
0.0000000000
10
5.1501322399
20
10.8253551979
30
0.0000000000
10
5.1537801026
20
10.7817765160
30
0.0000000000
10
5.1537933978
20
10.7383588556
30
0.0000000000
11
5.1429448371
21
10.8683962277
31
0.0000000000
11
5.1537933978
21
10.7383588556
31
0.0000000000
0
SPLINE
5
428
100
AcDbEntity
8
0
100
AcDbSpline
62
9
6
CONTINUOUS
70
0
71
3
72
13
73
9
74
7
42
0.0000001000
43
0.0000001000
44
0.0000000001
12
-1.0270228044
22
0.1446724693
32
0.0000000000
13
0.0559307878
23
1.0356532775
33
0.0000000000
40
0.0000000000
40
0.0000000000
40
0.0000000000
40
0.0000000000
40
0.1660100378
40
0.3329690347
40
0.4999667277
40
0.6669813750
40
0.8339531105
40
1.0000000000
40
1.0000000000
40
1.0000000000
40
1.0000000000
10
-76.4775249883
20
-30.8492371017
30
0.0000000000
10
-76.5343570198
20
-30.8412314076
30
0.0000000000
10
-76.6468617340
20
-30.8110103818
30
0.0000000000
10
-76.7991605575
20
-30.7257168712
30
0.0000000000
10
-76.9262306114
20
-30.6053988955
30
0.0000000000
10
-77.0198241191
20
-30.4575299898
30
0.0000000000
10
-77.0741892811
20
-30.2916307028
30
0.0000000000
10
-77.0821685135
20
-30.1753933957
30
0.0000000000
10
-77.0790728024
20
-30.1180710606
30
0.0000000000
11
-76.4775249883
21
-30.8492371017
31
0.0000000000
11
-76.6437877627
21
-30.8044886006
31
0.0000000000
11
-76.7948942659
21
-30.7199163929
31
0.0000000000
11
-76.9206465310
21
-30.6008118062
31
0.0000000000
11
-77.0133096902
21
-30.4544589265
31
0.0000000000
11
-77.0671936872
21
-30.2898784772
31
0.0000000000
11
-77.0790728024
21
-30.1180710606
31
0.0000000000
0
SPLINE
5
429
100
AcDbEntity
8
0
100
AcDbSpline
62
9
6
CONTINUOUS
70
0
71
3
72
11
73
7
74
5
42
0.0000001000
43
0.0000001000
44
0.0000000001
12
2.2040834547
22
40.5645161348
32
0.0000000000
13
7.6748317493
23
39.8927927168
33
0.0000000000
40
0.0000000000
40
0.0000000000
40
0.0000000000
40
0.0000000000
40
0.2499993904
40
0.5000000585
40
0.7500007255
40
1.0000000000
40
1.0000000000
40
1.0000000000
40
1.0000000000
10
-77.0790728024
20
-30.1180710606
30
0.0000000000
10
-76.8953996291
20
-26.7377029592
30
0.0000000000
10
-76.4132616769
20
-19.9826285178
30
0.0000000000
10
-75.3466029841
20
-9.8808082000
30
0.0000000000
10
-73.9377259027
20
0.1789914000
30
0.0000000000
10
-72.7713420838
20
6.8500494132
30
0.0000000000
10
-72.1317746275
20
10.1744391582
30
0.0000000000
11
-77.0790728024
21
-30.1180710606
31
0.0000000000
11
-76.3560213920
21
-19.9877790768
31
0.0000000000
11
-75.2895664508
21
-9.8878113914
31
0.0000000000
11
-73.8809396442
21
0.1701428253
31
0.0000000000
11
-72.1317746275
21
10.1744391582
31
0.0000000000
0
SPLINE
5
42A
100
AcDbEntity
8
0
100
AcDbSpline
62
9
6
CONTINUOUS
70
0
71
3
72
13
73
9
74
7
42
0.0000001000
43
0.0000001000
44
0.0000000001
12
0.1962777970
22
1.0184208318
32
0.0000000000
13
1.0315152762
23
-0.1080842222
33
0.0000000000
40
0.0000000000
40
0.0000000000
40
0.0000000000
40
0.0000000000
40
0.1660468895
40
0.3330186249
40
0.5000332723
40
0.6670309652
40
0.8339899622
40
1.0000000000
40
1.0000000000
40
1.0000000000
40
1.0000000000
10
-72.1317746275
20
10.1744391582
30
0.0000000000
10
-72.1209108550
20
10.2308076953
30
0.0000000000
10
-72.0850482899
20
10.3416619065
30
0.0000000000
10
-71.9921633357
20
10.4894811527
30
0.0000000000
10
-71.8655772292
20
10.6103154012
30
0.0000000000
10
-71.7131741462
20
10.6963183903
30
0.0000000000
10
-71.5447648809
20
10.7422338994
30
0.0000000000
10
-71.4282909097
20
10.7443398775
30
0.0000000000
10
-71.3712102797
20
10.7383588556
30
0.0000000000
11
-72.1317746275
21
10.1744391582
31
0.0000000000
11
-72.0786843969
21
10.3382693422
31
0.0000000000
11
-71.9865853706
21
10.4849253301
31
0.0000000000
11
-71.8612687372
21
10.6045136567
31
0.0000000000
11
-71.7104378444
21
10.6896581017
31
0.0000000000
11
-71.5433599813
21
10.7351621819
31
0.0000000000
11
-71.3712102797
21
10.7383588556
31
0.0000000000
0
SPLINE
5
42B
100
AcDbEntity
8
0
100
AcDbSpline
62
9
6
CONTINUOUS
70
0
71
3
72
12
73
8
74
6
42
0.0000001000
43
0.0000001000
44
0.0000000001
12
-0.7957135787
22
0.0836328672
32
0.0000000000
13
-0.0836370963
23
-0.7957131342
33
0.0000000000
40
0.0000000000
40
0.0000000000
40
0.0000000000
40
0.0000000000
40
0.0492148673
40
0.1912677326
40
0.4124302269
40
0.6910919715
40
1.0000000000
40
1.0000000000
40
1.0000000000
40
1.0000000000
10
-71.2737296540
20
11.5322748412
30
0.0000000000
10
-71.2867833001
20
11.5336468347
30
0.0000000000
10
-71.2740321181
20
11.4501554860
30
0.0000000000
10
-71.3080565832
20
11.3717255215
30
0.0000000000
10
-71.3185273979
20
11.1857772611
30
0.0000000000
10
-71.3468332741
20
10.9777147766
30
0.0000000000
10
-71.3625982228
20
10.8202929141
30
0.0000000000
10
-71.3712102797
20
10.7383588556
30
0.0000000000
11
-71.2737296540
21
11.5322748412
31
0.0000000000
11
-71.2821102460
21
11.4938003555
31
0.0000000000
11
-71.2978532379
21
11.3812399380
31
0.0000000000
11
-71.3194181848
21
11.2056075489
31
0.0000000000
11
-71.3446949709
21
10.9840886983
31
0.0000000000
11
-71.3712102797
21
10.7383588556
31
0.0000000000
0
SPLINE
5
42C
100
AcDbEntity
8
0
100
AcDbSpline
62
9
6
CONTINUOUS
70
0
71
3
72
12
73
8
74
6
42
0.0000001000
43
0.0000001000
44
0.0000000001
12
-0.7923101072
22
0.1113519238
32
0.0000000000
13
0.1113477892
23
0.7923106883
33
0.0000000000
40
0.0000000000
40
0.0000000000
40
0.0000000000
40
0.0000000000
40
0.0492159256
40
0.1912710120
40
0.4124350276
40
0.6910958947
40
1.0000000000
40
1.0000000000
40
1.0000000000
40
1.0000000000
10
-76.5750056140
20
-31.6431530873
30
0.0000000000
10
-76.5880037057
20
-31.6413263246
30
0.0000000000
10
-76.5554322446
20
-31.5633984566
30
0.0000000000
10
-76.5694723052
20
-31.4790659585
30
0.0000000000
10
-76.5346469665
20
-31.2961072629
30
0.0000000000
10
-76.5117771987
20
-31.0873781236
30
0.0000000000
10
-76.4889902514
20
-30.9308197764
30
0.0000000000
10
-76.4775249883
20
-30.8492371017
30
0.0000000000
11
-76.5750056140
21
-31.6431530873
31
0.0000000000
11
-76.5738293882
21
-31.6037931641
31
0.0000000000
11
-76.5618736986
21
-31.4907659336
31
0.0000000000
11
-76.5403085717
21
-31.3151323401
31
0.0000000000
11
-76.5112443268
21
-31.0940792384
31
0.0000000000
11
-76.4775249883
21
-30.8492371017
31
0.0000000000
0
SPLINE
5
42D
100
AcDbEntity
8
0
100
AcDbSpline
62
7
6
CONTINUOUS
70
0
71
3
72
8
73
4
74
2
42
0.0000001000
43
0.0000001000
44
0.0000000001
12
0.1664211917
22
0.0605723601
32
0.0000000000
13
0.1664211917
23
0.0605723601
33
0.0000000000
40
0.0000000000
40
0.0000000000
40
0.0000000000
40
0.0000000000
40
1.0000000000
40
1.0000000000
40
1.0000000000
40
1.0000000000
10
-63.1566423560
20
4.4650246013
30
0.0000000000
10
-63.1011686255
20
4.4852153880
30
0.0000000000
10
-63.0456948949
20
4.5054061748
30
0.0000000000
10
-62.9902211643
20
4.5255969615
30
0.0000000000
11
-63.1566423560
21
4.4650246013
31
0.0000000000
11
-62.9902211643
21
4.5255969615
31
0.0000000000
0
SPLINE
5
42E
100
AcDbEntity
8
0
100
AcDbSpline
62
7
6
CONTINUOUS
70
0
71
3
72
9
73
5
74
3
42
0.0000001000
43
0.0000001000
44
0.0000000001
12
9.8335788083
22
3.5791299825
32
0.0000000000
13
9.8335788083
23
3.5791299825
33
0.0000000000
40
0.0000000000
40
0.0000000000
40
0.0000000000
40
0.0000000000
40
0.4992258587
40
1.0000000000
40
1.0000000000
40
1.0000000000
40
1.0000000000
10
-62.9902211643
20
4.5255969615
30
0.0000000000
10
-61.3538288892
20
5.1211950412
30
0.0000000000
10
-58.0759692865
20
6.3142383687
30
0.0000000000
10
-54.7981096837
20
7.5072816962
30
0.0000000000
10
-53.1566423560
20
8.1047269440
30
0.0000000000
11
-62.9902211643
21
4.5255969615
31
0.0000000000
11
-58.0810443392
21
6.3123912006
31
0.0000000000
11
-53.1566423560
21
8.1047269440
31
0.0000000000
0
SPLINE
5
42F
100
AcDbEntity
8
0
100
AcDbSpline
62
9
6
CONTINUOUS
70
0
71
3
72
12
73
8
74
6
42
0.0000001000
43
0.0000001000
44
0.0000000001
12
-0.4999579924
22
-0.0038831353
32
0.0000000000
13
0.0052081812
23
0.4999459449
33
0.0000000000
40
0.0000000000
40
0.0000000000
40
0.0000000000
40
0.0000000000
40
0.0490756349
40
0.1911185452
40
0.4122611497
40
0.6909655158
40
1.0000000000
40
1.0000000000
40
1.0000000000
40
1.0000000000
10
-69.8618780780
20
-28.7192521337
30
0.0000000000
10
-69.8700566633
20
-28.7193156561
30
0.0000000000
10
-69.8537142503
20
-28.6678996901
30
0.0000000000
10
-69.8699983503
20
-28.6172856882
30
0.0000000000
10
-69.8616259799
20
-28.5008411279
30
0.0000000000
10
-69.8641271297
20
-28.3697342814
30
0.0000000000
10
-69.8624145805
20
-28.2708284652
30
0.0000000000
10
-69.8618780780
20
-28.2193282861
30
0.0000000000
11
-69.8618780780
21
-28.7192521337
31
0.0000000000
11
-69.8632391396
21
-28.6947534165
31
0.0000000000
11
-69.8639550234
21
-28.6237393945
31
0.0000000000
11
-69.8639554341
21
-28.5131740472
31
0.0000000000
11
-69.8632396000
21
-28.3738312077
31
0.0000000000
11
-69.8618780780
21
-28.2193282861
31
0.0000000000
0
SPLINE
5
430
100
AcDbEntity
8
0
100
AcDbSpline
62
9
6
CONTINUOUS
70
0
71
3
72
12
73
8
74
6
42
0.0000001000
43
0.0000001000
44
0.0000000001
12
-0.5002902039
22
0.0086498317
32
0.0000000000
13
-0.0087293840
23
-0.5002888222
33
0.0000000000
40
0.0000000000
40
0.0000000000
40
0.0000000000
40
0.0000000000
40
0.0492232048
40
0.1912953991
40
0.4124755522
40
0.6911349624
40
1.0000000000
40
1.0000000000
40
1.0000000000
40
1.0000000000
10
-64.0261213689
20
12.0024486917
30
0.0000000000
10
-64.0343299979
20
12.0025906158
30
0.0000000000
10
-64.0218304685
20
11.9512657657
30
0.0000000000
10
-64.0387555843
20
11.9005410300
30
0.0000000000
10
-64.0351414032
20
11.7841195852
30
0.0000000000
10
-64.0414340948
20
11.6529573574
30
0.0000000000
10
-64.0426741880
20
11.5540319908
30
0.0000000000
10
-64.0435729218
20
11.5025247488
30
0.0000000000
11
-64.0261213689
21
12.0024486917
31
0.0000000000
11
-64.0292446878
21
11.9780179635
31
0.0000000000
11
-64.0329166465
21
11.9070249122
31
0.0000000000
11
-64.0367776547
21
11.7964214811
31
0.0000000000
11
-64.0404496098
21
11.6570384317
31
0.0000000000
11
-64.0435729218
21
11.5025247488
31
0.0000000000
0
SPLINE
5
431
100
AcDbEntity
8
0
100
AcDbSpline
62
9
6
CONTINUOUS
70
0
71
3
72
11
73
7
74
5
42
0.0000001000
43
0.0000001000
44
0.0000000001
12
-0.0357421336
22
-0.4730776884
32
0.0000000000
13
-0.0111686177
23
-0.4742944880
33
0.0000000000
40
0.0000000000
40
0.0000000000
40
0.0000000000
40
0.0000000000
40
0.1510420564
40
0.3839981722
40
0.6763947477
40
1.0000000000
40
1.0000000000
40
1.0000000000
40
1.0000000000
10
-64.4099524688
20
12.0194849376
30
0.0000000000
10
-64.4117519906
20
11.9956667286
30
0.0000000000
10
-64.4147680829
20
11.9350046777
30
0.0000000000
10
-64.4190464187
20
11.8281279744
30
0.0000000000
10
-64.4232915476
20
11.6939359606
30
0.0000000000
10
-64.4258460959
20
11.5965538019
30
0.0000000000
10
-64.4270508371
20
11.5453924061
30
0.0000000000
11
-64.4099524688
21
12.0194849376
31
0.0000000000
11
-64.4140338399
21
11.9479429875
31
0.0000000000
11
-64.4185335941
21
11.8375141967
31
0.0000000000
11
-64.4230170447
21
11.6988661398
31
0.0000000000
11
-64.4270508371
21
11.5453924061
31
0.0000000000
0
SPLINE
5
432
100
AcDbEntity
8
0
100
AcDbSpline
62
9
6
CONTINUOUS
70
0
71
3
72
16
73
12
74
10
42
0.0000001000
43
0.0000001000
44
0.0000000001
12
0.3861115790
22
-0.0090830079
32
0.0000000000
13
0.3861599643
23
-0.0067182182
33
0.0000000000
40
0.0000000000
40
0.0000000000
40
0.0000000000
40
0.0000000000
40
0.0660050357
40
0.1380401834
40
0.2184549126
40
0.3092653043
40
0.4129440458
40
0.5325640898
40
0.6701629968
40
0.8254894521
40
1.0000000000
40
1.0000000000
40
1.0000000000
40
1.0000000000
10
-64.4270625401
20
11.5453928928
30
0.0000000000
10
-64.4185674373
20
11.5451930514
30
0.0000000000
10
-64.4008069766
20
11.5444538554
30
0.0000000000
10
-64.3727651467
20
11.5422283015
30
0.0000000000
10
-64.3416476760
20
11.5386493240
30
0.0000000000
10
-64.3066115512
20
11.5336275427
30
0.0000000000
10
-64.2666962123
20
11.5271409191
30
0.0000000000
10
-64.2208529364
20
11.5195868646
30
0.0000000000
10
-64.1683064390
20
11.5118216593
30
0.0000000000
10
-64.1084761888
20
11.5051991595
30
0.0000000000
10
-64.0660359174
20
11.5029155488
30
0.0000000000
10
-64.0435729218
20
11.5025247488
30
0.0000000000
11
-64.4270625401
21
11.5453928928
31
0.0000000000
11
-64.4015921981
21
11.5443336199
31
0.0000000000
11
-64.3738559659
21
11.5421596545
31
0.0000000000
11
-64.3429952146
21
11.5386680168
31
0.0000000000
11
-64.3082674593
21
11.5337615536
31
0.0000000000
11
-64.2687243100
21
11.5274566210
31
0.0000000000
11
-64.2231174801
21
11.5200804870
31
0.0000000000
11
-64.1705240077
21
11.5124562154
31
0.0000000000
11
-64.1108824073
21
11.5060008444
31
0.0000000000
11
-64.0435729218
21
11.5025247488
31
0.0000000000
0
SPLINE
5
433
100
AcDbEntity
8
0
100
AcDbSpline
62
9
6
CONTINUOUS
70
0
71
3
72
16
73
12
74
10
42
0.0000001000
43
0.0000001000
44
0.0000000001
12
0.3841810359
22
-0.0071848790
32
0.0000000000
13
0.3841897246
23
-0.0067042052
33
0.0000000000
40
0.0000000000
40
0.0000000000
40
0.0000000000
40
0.0000000000
40
0.1108287632
40
0.2286850200
40
0.3499774821
40
0.4722736287
40
0.5921748705
40
0.7054982890
40
0.8117572687
40
0.9095245502
40
1.0000000000
40
1.0000000000
40
1.0000000000
40
1.0000000000
10
-64.4099524688
20
12.0194849376
30
0.0000000000
10
-64.3957596992
20
12.0192195072
30
0.0000000000
10
-64.3664756839
20
12.0185898005
30
0.0000000000
10
-64.3216665861
20
12.0173419532
30
0.0000000000
10
-64.2754007935
20
12.0156893812
30
0.0000000000
10
-64.2288866826
20
12.0136851154
30
0.0000000000
10
-64.1834120107
20
12.0113060062
30
0.0000000000
10
-64.1400120647
20
12.0086312345
30
0.0000000000
10
-64.0994522220
20
12.0059681296
30
0.0000000000
10
-64.0618038658
20
12.0036419945
30
0.0000000000
10
-64.0377079752
20
12.0026501559
30
0.0000000000
10
-64.0261213958
20
12.0024479672
30
0.0000000000
11
-64.4099524688
21
12.0194849376
31
0.0000000000
11
-64.3673766401
21
12.0185655425
31
0.0000000000
11
-64.3221083897
21
12.0172957391
31
0.0000000000
11
-64.2755315014
21
12.0156370874
31
0.0000000000
11
-64.2285836356
21
12.0135991686
31
0.0000000000
11
-64.1825748922
21
12.0111888170
31
0.0000000000
11
-64.1391108698
21
12.0085455854
31
0.0000000000
11
-64.0983652859
21
12.0059241616
31
0.0000000000
11
-64.0608632226
21
12.0037179239
31
0.0000000000
11
-64.0261213958
21
12.0024479672
31
0.0000000000
0
SPLINE
5
434
100
AcDbEntity
8
0
100
AcDbSpline
62
9
6
CONTINUOUS
70
0
71
3
72
11
73
7
74
5
42
0.0000001000
43
0.0000001000
44
0.0000000001
12
-0.0336606446
22
-0.4688602332
32
0.0000000000
13
-0.0111872454
23
-0.4699338281
33
0.0000000000
40
0.0000000000
40
0.0000000000
40
0.0000000000
40
0.0000000000
40
0.1558358192
40
0.3897409162
40
0.6800854659
40
1.0000000000
40
1.0000000000
40
1.0000000000
40
1.0000000000
10
-65.4099220880
20
12.0386805199
30
0.0000000000
10
-65.4116705994
20
12.0143254470
30
0.0000000000
10
-65.4146918161
20
11.9533237320
30
0.0000000000
10
-65.4189238818
20
11.8468485723
30
0.0000000000
10
-65.4231283807
20
11.7146416769
30
0.0000000000
10
-65.4256546338
20
11.6190541049
30
0.0000000000
10
-65.4268476213
20
11.5689412176
30
0.0000000000
11
-65.4099220880
21
12.0386805199
31
0.0000000000
11
-65.4139913609
21
11.9655403612
31
0.0000000000
11
-65.4184430319
21
11.8556794568
31
0.0000000000
11
-65.4228649251
21
11.7192697256
31
0.0000000000
11
-65.4268476213
21
11.5689412176
31
0.0000000000
0
SPLINE
5
435
100
AcDbEntity
8
0
100
AcDbSpline
62
9
6
CONTINUOUS
70
0
71
3
72
10
73
6
74
4
42
0.0000001000
43
0.0000001000
44
0.0000000001
12
0.9996795715
22
-0.0238056242
32
0.0000000000
13
0.9996917465
23
-0.0232887369
33
0.0000000000
40
0.0000000000
40
0.0000000000
40
0.0000000000
40
0.0000000000
40
0.3333034116
40
0.6667060588
40
1.0000000000
40
1.0000000000
40
1.0000000000
40
1.0000000000
10
-65.4267482512
20
11.5689388600
30
0.0000000000
10
-65.3156827140
20
11.5662940281
30
0.0000000000
10
-65.0935181087
20
11.5610229957
30
0.0000000000
10
-64.7602895274
20
11.5531746015
30
0.0000000000
10
-64.5381262742
20
11.5479802244
30
0.0000000000
10
-64.4270625401
20
11.5453928928
30
0.0000000000
11
-65.4267482512
21
11.5689388600
31
0.0000000000
11
-65.0935509496
21
11.5610333925
31
0.0000000000
11
-64.7602530796
21
11.5531832816
31
0.0000000000
11
-64.4270625401
21
11.5453928928
31
0.0000000000
0
SPLINE
5
436
100
AcDbEntity
8
0
100
AcDbSpline
62
9
6
CONTINUOUS
70
0
71
3
72
9
73
5
74
3
42
0.0000001000
43
0.0000001000
44
0.0000000001
12
-0.0394093674
22
0.0004349237
32
0.0000000000
13
0.0022296549
23
-0.0452700083
33
0.0000000000
40
0.0000000000
40
0.0000000000
40
0.0000000000
40
0.0000000000
40
0.6255207812
40
1.0000000000
40
1.0000000000
40
1.0000000000
40
1.0000000000
10
-65.8114860312
20
12.0336123448
30
0.0000000000
10
-65.8197031573
20
12.0337030294
30
0.0000000000
10
-65.8145267573
20
12.0126157824
30
0.0000000000
10
-65.8128170521
20
11.9962128114
30
0.0000000000
10
-65.8125387323
20
11.9905619190
30
0.0000000000
11
-65.8114860312
21
12.0336123448
31
0.0000000000
11
-65.8145837011
21
12.0091548529
31
0.0000000000
11
-65.8125387323
21
11.9905619190
31
0.0000000000
0
SPLINE
5
437
100
AcDbEntity
8
0
100
AcDbSpline
62
9
6
CONTINUOUS
70
0
71
3
72
11
73
7
74
5
42
0.0000001000
43
0.0000001000
44
0.0000000001
12
0.0260772673
22
-0.5294622420
32
0.0000000000
13
-0.0080993025
23
-0.4608751340
33
0.0000000000
40
0.0000000000
40
0.0000000000
40
0.0000000000
40
0.0000000000
40
0.1222253320
40
0.3623101142
40
0.6647661847
40
1.0000000000
40
1.0000000000
40
1.0000000000
40
1.0000000000
10
-65.8125387323
20
11.9905619190
30
0.0000000000
10
-65.8114762980
20
11.9689906862
30
0.0000000000
10
-65.8239605376
20
11.9262856774
30
0.0000000000
10
-65.8204922560
20
11.8152721176
30
0.0000000000
10
-65.8268134254
20
11.6841010673
30
0.0000000000
10
-65.8280615209
20
11.5851938077
30
0.0000000000
10
-65.8289665743
20
11.5336934978
30
0.0000000000
11
-65.8125387323
21
11.9905619190
31
0.0000000000
11
-65.8182635227
21
11.9381519430
31
0.0000000000
11
-65.8221370498
21
11.8275535630
31
0.0000000000
11
-65.8258250836
21
11.6881863467
31
0.0000000000
11
-65.8289665743
21
11.5336934978
31
0.0000000000
0
SPLINE
5
438
100
AcDbEntity
8
0
100
AcDbSpline
62
9
6
CONTINUOUS
70
0
71
3
72
15
73
11
74
9
42
0.0000001000
43
0.0000001000
44
0.0000000001
12
0.4041914785
22
-0.0071317142
32
0.0000000000
13
0.4041423076
23
-0.0095188132
33
0.0000000000
40
0.0000000000
40
0.0000000000
40
0.0000000000
40
0.0000000000
40
0.1751125839
40
0.3500914023
40
0.5121732028
40
0.6462667741
40
0.7550560556
40
0.8466184207
40
0.9264938451
40
1.0000000000
40
1.0000000000
40
1.0000000000
40
1.0000000000
10
-65.8289665743
20
11.5336934978
30
0.0000000000
10
-65.8053735696
20
11.5332772135
30
0.0000000000
10
-65.7581574622
20
11.5343383446
30
0.0000000000
10
-65.6893846169
20
11.5405469901
30
0.0000000000
10
-65.6264764303
20
11.5491869344
30
0.0000000000
10
-65.5725343407
20
11.5574278325
30
0.0000000000
10
-65.5278831917
20
11.5635735681
30
0.0000000000
10
-65.4903014303
20
11.5673631584
30
0.0000000000
10
-65.4573295167
20
11.5691413685
30
0.0000000000
10
-65.4366505669
20
11.5691720904
30
0.0000000000
10
-65.4267482512
20
11.5689388600
30
0.0000000000
11
-65.8289665743
21
11.5336934978
31
0.0000000000
11
-65.7581912224
21
11.5351350414
31
0.0000000000
11
-65.6877216336
21
11.5412679426
31
0.0000000000
11
-65.6227676096
21
11.5498786267
31
0.0000000000
11
-65.5691410953
21
11.5577966451
31
0.0000000000
11
-65.5255475967
21
11.5636034755
31
0.0000000000
11
-65.4887097094
21
11.5672148999
31
0.0000000000
11
-65.4564634032
21
11.5688939648
31
0.0000000000
11
-65.4267482512
21
11.5689388600
31
0.0000000000
0
SPLINE
5
439
100
AcDbEntity
8
0
100
AcDbSpline
62
9
6
CONTINUOUS
70
0
71
3
72
15
73
11
74
9
42
0.0000001000
43
0.0000001000
44
0.0000000001
12
0.4015682205
22
-0.0071779807
32
0.0000000000
13
0.4015659064
23
-0.0073062905
33
0.0000000000
40
0.0000000000
40
0.0000000000
40
0.0000000000
40
0.0000000000
40
0.0835027605
40
0.1865525363
40
0.3111003194
40
0.4469198220
40
0.5881981051
40
0.7292115716
40
0.8672914903
40
1.0000000000
40
1.0000000000
40
1.0000000000
40
1.0000000000
10
-65.8114576706
20
12.0336201881
30
0.0000000000
10
-65.8002803190
20
12.0334203944
30
0.0000000000
10
-65.7752979068
20
12.0336841606
30
0.0000000000
10
-65.7336793499
20
12.0352761364
30
0.0000000000
10
-65.6850655456
20
12.0372474600
30
0.0000000000
10
-65.6313150331
20
12.0387980946
30
0.0000000000
10
-65.5753446418
20
12.0396796549
30
0.0000000000
10
-65.5190655649
20
12.0398551917
30
0.0000000000
10
-65.4639347740
20
12.0395433420
30
0.0000000000
10
-65.4276858505
20
12.0390032492
30
0.0000000000
10
-65.4099221129
20
12.0386800469
30
0.0000000000
11
-65.8114576706
21
12.0336201881
31
0.0000000000
11
-65.7779207145
21
12.0337949418
31
0.0000000000
11
-65.7365557864
21
12.0351804578
31
0.0000000000
11
-65.6865699464
21
12.0370931551
31
0.0000000000
11
-65.6320429557
21
12.0386603679
31
0.0000000000
11
-65.5753081669
21
12.0395606603
31
0.0000000000
11
-65.5186729914
21
12.0397727107
31
0.0000000000
11
-65.4632165531
21
12.0394521611
31
0.0000000000
11
-65.4099221129
21
12.0386800469
31
0.0000000000
0
SPLINE
5
43A
100
AcDbEntity
8
0
100
AcDbSpline
62
9
6
CONTINUOUS
70
0
71
3
72
12
73
8
74
6
42
0.0000001000
43
0.0000001000
44
0.0000000001
12
0.0087293882
22
-0.5002888222
32
0.0000000000
13
0.5002901927
23
0.0086504874
33
0.0000000000
40
0.0000000000
40
0.0000000000
40
0.0000000000
40
0.0000000000
40
0.3088650419
40
0.5875244549
40
0.8087046087
40
0.9507768005
40
1.0000000000
40
1.0000000000
40
1.0000000000
40
1.0000000000
10
-64.0435729219
20
-32.2930708610
30
0.0000000000
10
-64.0426741876
20
-32.3445781036
30
0.0000000000
10
-64.0414340935
20
-32.4435034728
30
0.0000000000
10
-64.0351414011
20
-32.5746656969
30
0.0000000000
10
-64.0387555796
20
-32.6910871543
30
0.0000000000
10
-64.0218304657
20
-32.7418118655
30
0.0000000000
10
-64.0343299902
20
-32.7931367385
30
0.0000000000
10
-64.0261213622
20
-32.7929948036
30
0.0000000000
11
-64.0435729219
21
-32.2930708610
31
0.0000000000
11
-64.0404496085
21
-32.4475845460
31
0.0000000000
11
-64.0367776521
21
-32.5869675968
31
0.0000000000
11
-64.0329166425
21
-32.6975710282
31
0.0000000000
11
-64.0292446825
21
-32.7685640782
31
0.0000000000
11
-64.0261213622
21
-32.7929948036
31
0.0000000000
0
SPLINE
5
43B
100
AcDbEntity
8
0
100
AcDbSpline
62
9
6
CONTINUOUS
70
0
71
3
72
11
73
7
74
5
42
0.0000001000
43
0.0000001000
44
0.0000000001
12
0.0111172828
22
-0.4742975250
32
0.0000000000
13
0.0359112104
23
-0.4730667196
33
0.0000000000
40
0.0000000000
40
0.0000000000
40
0.0000000000
40
0.0000000000
40
0.3236047105
40
0.6160008415
40
0.8489569442
40
1.0000000000
40
1.0000000000
40
1.0000000000
40
1.0000000000
10
-64.4270510967
20
-32.3359385236
30
0.0000000000
10
-64.4258518950
20
-32.3871001614
30
0.0000000000
10
-64.4233059351
20
-32.4844827621
30
0.0000000000
10
-64.4190663558
20
-32.6186753703
30
0.0000000000
10
-64.4147842340
20
-32.7255523473
30
0.0000000000
10
-64.4117604907
20
-32.7862146034
30
0.0000000000
10
-64.4099524444
20
-32.8100324177
30
0.0000000000
11
-64.4270510967
21
-32.3359385236
31
0.0000000000
11
-64.4230306090
21
-32.4894129418
31
0.0000000000
11
-64.4185519490
21
-32.6280614781
31
0.0000000000
11
-64.4140475172
21
-32.7384904987
31
0.0000000000
11
-64.4099524444
21
-32.8100324177
31
0.0000000000
0
SPLINE
5
43C
100
AcDbEntity
8
0
100
AcDbSpline
62
9
6
CONTINUOUS
70
0
71
3
72
15
73
11
74
9
42
0.0000001000
43
0.0000001000
44
0.0000000001
12
0.3841800323
22
0.0072040722
32
0.0000000000
13
0.3841893910
23
0.0066863824
33
0.0000000000
40
0.0000000000
40
0.0000000000
40
0.0000000000
40
0.0000000000
40
0.1293805403
40
0.2656769864
40
0.4043258621
40
0.5408528579
40
0.6704365701
40
0.7898477081
40
0.8992472500
40
1.0000000000
40
1.0000000000
40
1.0000000000
40
1.0000000000
10
-64.4099524444
20
-32.8100324177
30
0.0000000000
10
-64.3933839710
20
-32.8097217288
30
0.0000000000
10
-64.3593634873
20
-32.8089667227
30
0.0000000000
10
-64.3075980945
20
-32.8074467243
30
0.0000000000
10
-64.2549343628
20
-32.8054113350
30
0.0000000000
10
-64.2031483736
20
-32.8029670575
30
0.0000000000
10
-64.1538544097
20
-32.8000647510
30
0.0000000000
10
-64.1080474371
20
-32.7970752978
30
0.0000000000
10
-64.0659222897
20
-32.7943983024
30
0.0000000000
10
-64.0390240972
20
-32.7932188824
30
0.0000000000
10
-64.0261213846
20
-32.7929943253
30
0.0000000000
11
-64.4099524444
21
-32.8100324177
31
0.0000000000
11
-64.3602505425
21
-32.8089285669
31
0.0000000000
11
-64.3079020015
21
-32.8073753505
31
0.0000000000
11
-64.2546659950
21
-32.8053245364
31
0.0000000000
11
-64.2022656096
21
-32.8028208026
31
0.0000000000
11
-64.1525571756
21
-32.7999333425
31
0.0000000000
11
-64.1067672511
21
-32.7970053981
31
0.0000000000
11
-64.0648072095
21
-32.7944710477
31
0.0000000000
11
-64.0261213846
21
-32.7929943253
31
0.0000000000
0
SPLINE
5
43D
100
AcDbEntity
8
0
100
AcDbSpline
62
9
6
CONTINUOUS
70
0
71
3
72
15
73
11
74
9
42
0.0000001000
43
0.0000001000
44
0.0000000001
12
0.3861045724
22
0.0090724758
32
0.0000000000
13
0.3861512973
23
0.0067989881
33
0.0000000000
40
0.0000000000
40
0.0000000000
40
0.0000000000
40
0.0000000000
40
0.0768347165
40
0.1616508737
40
0.2571913479
40
0.3663984499
40
0.4926886140
40
0.6393553566
40
0.8074875046
40
1.0000000000
40
1.0000000000
40
1.0000000000
40
1.0000000000
10
-64.4270611865
20
-32.3359389732
30
0.0000000000
10
-64.4171724414
20
-32.3357066128
30
0.0000000000
10
-64.3963753225
20
-32.3347771499
30
0.0000000000
10
-64.3633850596
20
-32.3318560835
30
0.0000000000
10
-64.3263979201
20
-32.3271561528
30
0.0000000000
10
-64.2842823841
20
-32.3206215570
30
0.0000000000
10
-64.2357552574
20
-32.3125247786
30
0.0000000000
10
-64.1796315335
20
-32.3038543360
30
0.0000000000
10
-64.1147550855
20
-32.2961686342
30
0.0000000000
10
-64.0683525719
20
-32.2935071577
30
0.0000000000
10
-64.0435729219
20
-32.2930708610
30
0.0000000000
11
-64.4270611865
21
-32.3359389732
31
0.0000000000
11
-64.3974161680
21
-32.3346182440
31
0.0000000000
11
-64.3647821108
21
-32.3317834986
31
0.0000000000
11
-64.3281664061
21
-32.3272215552
31
0.0000000000
11
-64.2864680404
21
-32.3208854958
31
0.0000000000
11
-64.2383275303
21
-32.3130458760
31
0.0000000000
11
-64.1823187698
21
-32.3045842578
31
0.0000000000
11
-64.1178115739
21
-32.2971470369
31
0.0000000000
11
-64.0435729219
21
-32.2930708610
31
0.0000000000
0
SPLINE
5
43E
100
AcDbEntity
8
0
100
AcDbSpline
62
9
6
CONTINUOUS
70
0
71
3
72
11
73
7
74
5
42
0.0000001000
43
0.0000001000
44
0.0000000001
12
0.0111872455
22
-0.4699338281
32
0.0000000000
13
0.0336606479
23
-0.4688602329
33
0.0000000000
40
0.0000000000
40
0.0000000000
40
0.0000000000
40
0.0000000000
40
0.3199145341
40
0.6102590838
40
0.8441641807
40
1.0000000000
40
1.0000000000
40
1.0000000000
40
1.0000000000
10
-65.4268476212
20
-32.3594873296
30
0.0000000000
10
-65.4256546337
20
-32.4096002169
30
0.0000000000
10
-65.4231283806
20
-32.5051877889
30
0.0000000000
10
-65.4189238817
20
-32.6373946843
30
0.0000000000
10
-65.4146918162
20
-32.7438698440
30
0.0000000000
10
-65.4116705995
20
-32.8048715590
30
0.0000000000
10
-65.4099220879
20
-32.8292266319
30
0.0000000000
11
-65.4268476212
21
-32.3594873296
31
0.0000000000
11
-65.4228649250
21
-32.5098158376
31
0.0000000000
11
-65.4184430319
21
-32.6462255688
31
0.0000000000
11
-65.4139913610
21
-32.7560864732
31
0.0000000000
11
-65.4099220879
21
-32.8292266319
31
0.0000000000
0
SPLINE
5
43F
100
AcDbEntity
8
0
100
AcDbSpline
62
9
6
CONTINUOUS
70
0
71
3
72
10
73
6
74
4
42
0.0000001000
43
0.0000001000
44
0.0000000001
12
0.9996810450
22
0.0238056593
32
0.0000000000
13
0.9996932201
23
0.0232887714
33
0.0000000000
40
0.0000000000
40
0.0000000000
40
0.0000000000
40
0.0000000000
40
0.3333030400
40
0.6667051958
40
1.0000000000
40
1.0000000000
40
1.0000000000
40
1.0000000000
10
-65.4267483711
20
-32.3594849748
30
0.0000000000
10
-65.3156827940
20
-32.3568401420
30
0.0000000000
10
-65.0935181488
20
-32.3515691086
30
0.0000000000
10
-64.7602890763
20
-32.3437207029
30
0.0000000000
10
-64.5381253718
20
-32.3385263153
30
0.0000000000
10
-64.4270611865
20
-32.3359389732
30
0.0000000000
11
-65.4267483711
21
-32.3594849748
31
0.0000000000
11
-65.0935509498
21
-32.3515795045
31
0.0000000000
11
-64.7602530799
21
-32.3437293936
31
0.0000000000
11
-64.4270611865
21
-32.3359389732
31
0.0000000000
0
SPLINE
5
440
100
AcDbEntity
8
0
100
AcDbSpline
62
9
6
CONTINUOUS
70
0
71
3
72
12
73
8
74
6
42
0.0000001000
43
0.0000001000
44
0.0000000001
12
0.0087598150
22
-0.4984379580
32
0.0000000000
13
0.3989198996
23
-0.1099650674
33
0.0000000000
40
0.0000000000
40
0.0000000000
40
0.0000000000
40
0.0000000000
40
0.3099703681
40
0.5896330562
40
0.8116247284
40
0.9542446404
40
1.0000000000
40
1.0000000000
40
1.0000000000
40
1.0000000000
10
-65.8289665697
20
-32.3242396118
30
0.0000000000
10
-65.8280614754
20
-32.3757399443
30
0.0000000000
10
-65.8268099624
20
-32.4746468762
30
0.0000000000
10
-65.8205016809
20
-32.6058193203
30
0.0000000000
10
-65.8241038327
20
-32.7221763355
30
0.0000000000
10
-65.8073180073
20
-32.7725678313
30
0.0000000000
10
-65.8192001967
20
-32.8222842553
30
0.0000000000
10
-65.8131159556
20
-32.8239614191
30
0.0000000000
11
-65.8289665697
21
-32.3242396118
31
0.0000000000
11
-65.8258249762
21
-32.4787325286
31
0.0000000000
11
-65.8221368854
21
-32.6180997624
31
0.0000000000
11
-65.8182633532
21
-32.7286981133
31
0.0000000000
11
-65.8145835791
21
-32.7997009788
31
0.0000000000
11
-65.8131159556
21
-32.8239614191
31
0.0000000000
0
SPLINE
5
441
100
AcDbEntity
8
0
100
AcDbSpline
62
9
6
CONTINUOUS
70
0
71
3
72
8
73
4
74
2
42
0.0000001000
43
0.0000001000
44
0.0000000001
12
0.0014774410
22
-0.0004072670
32
0.0000000000
13
0.0018461870
23
0.0000205577
33
0.0000000000
40
0.0000000000
40
0.0000000000
40
0.0000000000
40
0.0000000000
40
1.0000000000
40
1.0000000000
40
1.0000000000
40
1.0000000000
10
-65.8131159556
20
-32.8239614191
30
0.0000000000
10
-65.8126234752
20
-32.8240971747
30
0.0000000000
10
-65.8120722223
20
-32.8241647996
30
0.0000000000
10
-65.8114568267
20
-32.8241579470
30
0.0000000000
11
-65.8131159556
21
-32.8239614191
31
0.0000000000
11
-65.8114568267
21
-32.8241579470
31
0.0000000000
0
SPLINE
5
442
100
AcDbEntity
8
0
100
AcDbSpline
62
9
6
CONTINUOUS
70
0
71
3
72
15
73
11
74
9
42
0.0000001000
43
0.0000001000
44
0.0000000001
12
0.4015675446
22
0.0071809745
32
0.0000000000
13
0.4015655573
23
0.0072912605
33
0.0000000000
40
0.0000000000
40
0.0000000000
40
0.0000000000
40
0.0000000000
40
0.0969085308
40
0.2022937058
40
0.3199218606
40
0.4497670301
40
0.5886592443
40
0.7305871334
40
0.8693755811
40
1.0000000000
40
1.0000000000
40
1.0000000000
40
1.0000000000
10
-65.8114576240
20
-32.8241674161
30
0.0000000000
10
-65.7984858504
20
-32.8239354502
30
0.0000000000
10
-65.7713947947
20
-32.8243263982
30
0.0000000000
10
-65.7286012560
20
-32.8260563053
30
0.0000000000
10
-65.6813962162
20
-32.8278835867
30
0.0000000000
10
-65.6296917550
20
-32.8294075909
30
0.0000000000
10
-65.5747170627
20
-32.8302062865
30
0.0000000000
10
-65.5185405277
20
-32.8304202353
30
0.0000000000
10
-65.4634716957
20
-32.8300661481
30
0.0000000000
10
-65.4274068214
20
-32.8295463681
30
0.0000000000
10
-65.4099220656
20
-32.8292288959
30
0.0000000000
11
-65.8114576240
21
-32.8241674161
31
0.0000000000
11
-65.7725372681
21
-32.8244713258
31
0.0000000000
11
-65.7302380866
21
-32.8259787114
31
0.0000000000
11
-65.6830281522
21
-32.8277513244
31
0.0000000000
11
-65.6308996472
21
-32.8292464576
31
0.0000000000
11
-65.5751226828
21
-32.8301018042
31
0.0000000000
11
-65.5181203679
21
-32.8303234787
31
0.0000000000
11
-65.4623795629
21
-32.8299827262
31
0.0000000000
11
-65.4099220656
21
-32.8292288959
31
0.0000000000
0
SPLINE
5
443
100
AcDbEntity
8
0
100
AcDbSpline
62
9
6
CONTINUOUS
70
0
71
3
72
15
73
11
74
9
42
0.0000001000
43
0.0000001000
44
0.0000000001
12
0.4041858834
22
0.0071472796
32
0.0000000000
13
0.4041376806
23
0.0094893133
33
0.0000000000
40
0.0000000000
40
0.0000000000
40
0.0000000000
40
0.0000000000
40
0.2005595584
40
0.3733291617
40
0.5220866878
40
0.6484622957
40
0.7554520944
40
0.8473334124
40
0.9278105257
40
1.0000000000
40
1.0000000000
40
1.0000000000
40
1.0000000000
10
-65.8289665697
20
-32.3242396118
30
0.0000000000
10
-65.8019454556
20
-32.3237617934
30
0.0000000000
10
-65.7515859119
20
-32.3251847054
30
0.0000000000
10
-65.6815459916
20
-32.3320955177
30
0.0000000000
10
-65.6217661162
20
-32.3404540293
30
0.0000000000
10
-65.5708645526
20
-32.3482144667
30
0.0000000000
10
-65.5274389139
20
-32.3541678050
30
0.0000000000
10
-65.4899745539
20
-32.3579353935
30
0.0000000000
10
-65.4570551033
20
-32.3596954558
30
0.0000000000
10
-65.4364732000
20
-32.3597133177
30
0.0000000000
10
-65.4267483711
20
-32.3594849748
30
0.0000000000
11
-65.8289665697
21
-32.3242396118
31
0.0000000000
11
-65.7479168961
21
-32.3263061686
31
0.0000000000
11
-65.6783885155
21
-32.3329169564
31
0.0000000000
11
-65.6187997098
21
-32.3410041998
31
0.0000000000
11
-65.5682610953
21
-32.3484709744
31
0.0000000000
11
-65.5253872999
21
-32.3541670900
31
0.0000000000
11
-65.4884206045
21
-32.3577811232
31
0.0000000000
11
-65.4559308834
21
-32.3594547403
31
0.0000000000
11
-65.4267483711
21
-32.3594849748
31
0.0000000000
0
SPLINE
5
444
100
AcDbEntity
8
0
100
AcDbSpline
62
9
6
CONTINUOUS
70
0
71
3
72
12
73
8
74
6
42
0.0000001000
43
0.0000001000
44
0.0000000001
12
0.2500010566
22
-0.0078210770
32
0.0000000000
13
0.2499998806
23
-0.0078585791
33
0.0000000000
40
0.0000000000
40
0.0000000000
40
0.0000000000
40
0.0000000000
40
0.3119011811
40
0.5899891110
40
0.8090628924
40
0.9506011199
40
1.0000000000
40
1.0000000000
40
1.0000000000
40
1.0000000000
10
-64.4066423560
20
12.2091211758
30
0.0000000000
10
-64.3806504811
20
12.2083080414
30
0.0000000000
10
-64.3314848653
20
12.2067587183
30
0.0000000000
10
-64.2640629533
20
12.2046405233
30
0.0000000000
10
-64.2108379459
20
12.2029686376
30
0.0000000000
10
-64.1766703502
20
12.2018958105
30
0.0000000000
10
-64.1607589274
20
12.2013957983
30
0.0000000000
10
-64.1566423560
20
12.2012663966
30
0.0000000000
11
-64.4066423560
21
12.2091211758
31
0.0000000000
11
-64.3286670617
21
12.2066712325
31
0.0000000000
11
-64.2591451051
21
12.2044860886
31
0.0000000000
11
-64.2043766438
21
12.2027658182
31
0.0000000000
11
-64.1689920735
21
12.2016544953
31
0.0000000000
11
-64.1566423560
21
12.2012663966
31
0.0000000000
0
SPLINE
5
445
100
AcDbEntity
8
0
100
AcDbSpline
62
9
6
CONTINUOUS
70
0
71
3
72
12
73
8
74
6
42
0.0000001000
43
0.0000001000
44
0.0000000001
12
-0.2499998808
22
-0.0078585743
32
0.0000000000
13
-0.2500010566
23
-0.0078210776
33
0.0000000000
40
0.0000000000
40
0.0000000000
40
0.0000000000
40
0.0000000000
40
0.0493988801
40
0.1909371076
40
0.4100108890
40
0.6880988189
40
1.0000000000
40
1.0000000000
40
1.0000000000
40
1.0000000000
10
-64.1566423560
20
-32.9918125086
30
0.0000000000
10
-64.1607589274
20
-32.9919419102
30
0.0000000000
10
-64.1766703502
20
-32.9924419223
30
0.0000000000
10
-64.2108379459
20
-32.9935147500
30
0.0000000000
10
-64.2640629533
20
-32.9951866344
30
0.0000000000
10
-64.3314848653
20
-32.9973048323
30
0.0000000000
10
-64.3806504811
20
-32.9988541534
30
0.0000000000
10
-64.4066423560
20
-32.9996672878
30
0.0000000000
11
-64.1566423560
21
-32.9918125086
31
0.0000000000
11
-64.1689920735
21
-32.9922006071
31
0.0000000000
11
-64.2043766438
21
-32.9933119302
31
0.0000000000
11
-64.2591451051
21
-32.9950322004
31
0.0000000000
11
-64.3286670616
21
-32.9972173455
31
0.0000000000
11
-64.4066423560
21
-32.9996672878
31
0.0000000000
0
SPLINE
5
446
100
AcDbEntity
8
0
100
AcDbSpline
62
9
6
CONTINUOUS
70
0
71
3
72
12
73
8
74
6
42
0.0000001000
43
0.0000001000
44
0.0000000001
12
-0.2500010566
22
-0.0078210770
32
0.0000000000
13
-0.2499998806
23
-0.0078585791
33
0.0000000000
40
0.0000000000
40
0.0000000000
40
0.0000000000
40
0.0000000000
40
0.3119011811
40
0.5899891110
40
0.8090628924
40
0.9506011199
40
1.0000000000
40
1.0000000000
40
1.0000000000
40
1.0000000000
10
-65.4066423560
20
-33.0171223528
30
0.0000000000
10
-65.4326342310
20
-33.0179354872
30
0.0000000000
10
-65.4817998467
20
-33.0194848103
30
0.0000000000
10
-65.5492217588
20
-33.0216030053
30
0.0000000000
10
-65.6024467661
20
-33.0232748910
30
0.0000000000
10
-65.6366143618
20
-33.0243477181
30
0.0000000000
10
-65.6525257847
20
-33.0248477303
30
0.0000000000
10
-65.6566423560
20
-33.0249771320
30
0.0000000000
11
-65.4066423560
21
-33.0171223528
31
0.0000000000
11
-65.4846176504
21
-33.0195722961
31
0.0000000000
11
-65.5541396070
21
-33.0217574400
31
0.0000000000
11
-65.6089080682
21
-33.0234777104
31
0.0000000000
11
-65.6442926386
21
-33.0245890334
31
0.0000000000
11
-65.6566423560
21
-33.0249771320
31
0.0000000000
0
SPLINE
5
447
100
AcDbEntity
8
0
100
AcDbSpline
62
9
6
CONTINUOUS
70
0
71
3
72
12
73
8
74
6
42
0.0000001000
43
0.0000001000
44
0.0000000001
12
0.2499998808
22
-0.0078585743
32
0.0000000000
13
0.2500010566
23
-0.0078210776
33
0.0000000000
40
0.0000000000
40
0.0000000000
40
0.0000000000
40
0.0000000000
40
0.0493988801
40
0.1909371076
40
0.4100108890
40
0.6880988189
40
1.0000000000
40
1.0000000000
40
1.0000000000
40
1.0000000000
10
-65.6566423560
20
12.2344310200
30
0.0000000000
10
-65.6525257847
20
12.2343016184
30
0.0000000000
10
-65.6366143618
20
12.2338016063
30
0.0000000000
10
-65.6024467662
20
12.2327287786
30
0.0000000000
10
-65.5492217587
20
12.2310568942
30
0.0000000000
10
-65.4817998468
20
12.2289386963
30
0.0000000000
10
-65.4326342310
20
12.2273893752
30
0.0000000000
10
-65.4066423560
20
12.2265762408
30
0.0000000000
11
-65.6566423560
21
12.2344310200
31
0.0000000000
11
-65.6442926386
21
12.2340429215
31
0.0000000000
11
-65.6089080682
21
12.2329315984
31
0.0000000000
11
-65.5541396070
21
12.2312113283
31
0.0000000000
11
-65.4846176504
21
12.2290261832
31
0.0000000000
11
-65.4066423560
21
12.2265762408
31
0.0000000000
0
ENDSEC
0
SECTION
2
OBJECTS
0
DICTIONARY
5
448
100
AcDbDictionary
3
ACAD_GROUP
350
449
3
ACAD_MLINESTYLE
350
44A
0
DICTIONARY
5
449
102
{ACAD_REACTORS
330
448
102
}
100
AcDbDictionary
0
DICTIONARY
5
44A
102
{ACAD_REACTORS
330
448
102
}
100
AcDbDictionary
3
STANDARD
350
44B
0
MLINESTYLE
5
44B
102
{ACAD_REACTORS
330
44A
102
}
100
AcDbMlineStyle
2
STANDARD
70
0
3

62
256
51
90.0
52
90.0
71
2
49
0.5
62
256
6
BYLAYER
49
-0.5
62
256
6
BYLAYER
0
ENDSEC
0
EOF
