  0
SECTION
  2
HEADER
  9
$ACADVER
  1
AC1021
  9
$DWGCODEPAGE
  3
ANSI_1252
  9
$EXTMAX
 10
297.0
 20
210.0
 30
0.0
  9
$EXTMIN
 10
0.0
 20
0.0
 30
0.0
  9
$LIMMIN
 10
0.0
 20
0.0
  9
$LIMMAX
 10
297.0
 20
210.0
  9
$VIEWCTR
 10
148.5
 20
105.0
  9
$VIEWSIZE
 40
210.0
  9
$CLAYER
  8
0
  9
$LTSCALE
 40
16.335
  9
$CELTYPE
  6
BYLAYER
  9
$DIMSCALE
 40
1.0
  9
$DIMASZ
 40
3.0
  9
$DIMEXO
 40
0.5
  9
$DIMDLI
 40
11.286
  9
$DIMEXE
 40
1.5
  9
$DIMCEN
 40
2.673
  9
$DIMLFAC
 40
1.0
  9
$DIMBLK
  1
_FILLED
  9
$DIMALT
 70
0
  9
$DIMALTF
 40
0.0393700787
  9
$DIMTXT
 40
3.0
  9
$DIMTOL
 70
1
  9
$DIMLIM
 70
0
  9
$DIMTFAC
 40
1.0
  9
$DIMTP
 40
0.01
  9
$DIMTM
 40
0.01
  9
$DIMGAP
 40
0.625
  9
$DIMDSEP
 70
44
  9
$AUNITS
 70
0
  9
$PDMODE
 70
3
  9
$PDSIZE
 40
3.0
  9
$HANDSEED
  5
3DE
  9
$TILEMODE
 70
1
  9
$MEASUREMENT
 70
1
  9
$INSUNITS
 70
4
  0
ENDSEC
  0
SECTION
  2
CLASSES
  0
CLASS
  1
ACDBDICTIONARYWDFLT
  2
AcDbDictionaryWithDefault
  3
AutoCAD 2000
 90
0
 91
1
280
0
281
0
  0
CLASS
  1
ACDBPLACEHOLDER
  2
AcDbPlaceHolder
  3
AutoCAD 2000
 90
0
 91
1
280
0
281
0
  0
CLASS
  1
LAYOUT
  2
AcDbLayout
  3
AutoCAD 2000
 90
0
 91
0
280
0
281
0
  0
ENDSEC
  0
SECTION
  2
TABLES
  0
TABLE
  2
VPORT
  5
8
100
AcDbSymbolTable
 70
2
  0
VPORT
  5
1F4
100
AcDbSymbolTableRecord
100
AcDbViewportTableRecord
  2
*ACTIVE
 70
0
 10
0.0
 20
0.0
 11
1.0
 21
1.0
 12
148.5
 22
105.0
 13
0.0
 23
0.0
 14
1.0
 24
1.0
 15
0.0
 25
0.0
 16
0.0
 26
0.0
 36
1.0
 17
0.0
 27
0.0
 37
0.0
 40
210.0
 41
1.4142857143
 42
50.0
 43
0.0
 44
0.0
 50
0.0
 51
0.0
 71
0
 72
100
 73
1
 74
1
 75
0
 76
0
 77
0
 78
0
  0
ENDTAB
  0
TABLE
  2
LTYPE
  5
5
100
AcDbSymbolTable
 70
6
  0
LTYPE
  5
14
100
AcDbSymbolTableRecord
100
AcDbLinetypeTableRecord
  2
BYBLOCK
 70
0
  3

 72
65
 73
0
 40
0.0
  0
LTYPE
  5
15
100
AcDbSymbolTableRecord
100
AcDbLinetypeTableRecord
  2
BYLAYER
 70
0
  3

 72
65
 73
0
 40
0.0
  0
LTYPE
  5
16
100
AcDbSymbolTableRecord
100
AcDbLinetypeTableRecord
  2
CONTINUOUS
 70
64
  3
Solid line
 72
65
 73
0
 40
0.0
  0
LTYPE
  5
1F5
100
AcDbSymbolTableRecord
100
AcDbLinetypeTableRecord
  2
CENTER
 70
64
  3
____ _ ____ _ ____ _ ____ _ ____ _ ____ _ ____
 72
65
 73
4
 40
0.6
 49
0.375
 74
0
 49
-0.075
 74
0
 49
0.075
 74
0
 49
-0.075
 74
0
  0
LTYPE
  5
1F6
100
AcDbSymbolTableRecord
100
AcDbLinetypeTableRecord
  2
HIDDEN
 70
64
  3
- - - - - - - - - - - - - - - - - - - -
 72
65
 73
2
 40
0.2
 49
0.1
 74
0
 49
-0.1
 74
0
  0
LTYPE
  5
1F7
100
AcDbSymbolTableRecord
100
AcDbLinetypeTableRecord
  2
PHANTOM
 70
64
  3
_____ _ _ _____ _ _ _____ _ _ _____
 72
65
 73
6
 40
0.8
 49
0.45
 74
0
 49
-0.05
 74
0
 49
0.1
 74
0
 49
-0.05
 74
0
 49
0.1
 74
0
 49
-0.05
 74
0
  0
LTYPE
  5
1F8
100
AcDbSymbolTableRecord
100
AcDbLinetypeTableRecord
  2
DOT
 70
64
  3
. . . . . . . . . . . . . . . . . . . .
 72
65
 73
2
 40
0.2
 49
0.1
 74
0
 49
-0.1
 74
0
  0
LTYPE
  5
1F9
100
AcDbSymbolTableRecord
100
AcDbLinetypeTableRecord
  2
DASHED
 70
64
  3
- - - - - - - - - - - - - - - - - - - -
 72
65
 73
2
 40
0.2
 49
0.1
 74
0
 49
-0.1
 74
0
  0
ENDTAB
  0
TABLE
  2
LAYER
  5
2
100
AcDbSymbolTable
 70
36
  0
LAYER
  5
10
100
AcDbSymbolTableRecord
100
AcDbLayerTableRecord
  2
0
 70
0
 62
7
  6
CONTINUOUS
370
-3
390
F
  0
LAYER
  5
1FA
100
AcDbSymbolTableRecord
100
AcDbLayerTableRecord
  2
DEFAULT_1
 70
0
 62
7
  6
CENTER
370
-3
390
F
  0
LAYER
  5
1FB
100
AcDbSymbolTableRecord
100
AcDbLayerTableRecord
  2
DEFAULT_2
 70
0
 62
7
  6
HIDDEN
370
-3
390
F
  0
LAYER
  5
1FC
100
AcDbSymbolTableRecord
100
AcDbLayerTableRecord
  2
DEFAULT_3
 70
0
 62
7
  6
PHANTOM
370
-3
390
F
  0
LAYER
  5
1FD
100
AcDbSymbolTableRecord
100
AcDbLayerTableRecord
  2
ASSI
 70
0
 62
7
  6
CONTINUOUS
370
-3
390
F
  0
LAYER
  5
1FE
100
AcDbSymbolTableRecord
100
AcDbLayerTableRecord
  2
COORDINATE
 70
0
 62
7
  6
CONTINUOUS
370
-3
390
F
  0
LAYER
  5
1FF
100
AcDbSymbolTableRecord
100
AcDbLayerTableRecord
  2
COORD_ORIGINE
 70
0
 62
7
  6
CONTINUOUS
370
-3
390
F
  0
LAYER
  5
200
100
AcDbSymbolTableRecord
100
AcDbLayerTableRecord
  2
COPY_PUBLISH
 70
0
 62
7
  6
CONTINUOUS
370
-3
390
F
  0
LAYER
  5
201
100
AcDbSymbolTableRecord
100
AcDbLayerTableRecord
  2
COSMETICI
 70
0
 62
7
  6
CONTINUOUS
370
-3
390
F
  0
LAYER
  5
202
100
AcDbSymbolTableRecord
100
AcDbLayerTableRecord
  2
CURVE
 70
0
 62
7
  6
CONTINUOUS
370
-3
390
F
  0
LAYER
  5
203
100
AcDbSymbolTableRecord
100
AcDbLayerTableRecord
  2
DRAFT
 70
0
 62
7
  6
CONTINUOUS
370
-3
390
F
  0
LAYER
  5
204
100
AcDbSymbolTableRecord
100
AcDbLayerTableRecord
  2
IGES
 70
0
 62
7
  6
CONTINUOUS
370
-3
390
F
  0
LAYER
  5
205
100
AcDbSymbolTableRecord
100
AcDbLayerTableRecord
  2
IMPORT_IGES
 70
0
 62
7
  6
CONTINUOUS
370
-3
390
F
  0
LAYER
  5
206
100
AcDbSymbolTableRecord
100
AcDbLayerTableRecord
  2
IMPORT_SCRITTE
 70
0
 62
7
  6
CONTINUOUS
370
-3
390
F
  0
LAYER
  5
207
100
AcDbSymbolTableRecord
100
AcDbLayerTableRecord
  2
INTF_MAGENTA
 70
0
 62
7
  6
CONTINUOUS
370
-3
390
F
  0
LAYER
  5
208
100
AcDbSymbolTableRecord
100
AcDbLayerTableRecord
  2
MARCABILE
 70
0
 62
7
  6
CONTINUOUS
370
-3
390
F
  0
LAYER
  5
209
100
AcDbSymbolTableRecord
100
AcDbLayerTableRecord
  2
NOTE
 70
0
 62
7
  6
CONTINUOUS
370
-3
390
F
  0
LAYER
  5
20A
100
AcDbSymbolTableRecord
100
AcDbLayerTableRecord
  2
PIANI
 70
0
 62
7
  6
CONTINUOUS
370
-3
390
F
  0
LAYER
  5
20B
100
AcDbSymbolTableRecord
100
AcDbLayerTableRecord
  2
PIANI_ORIGINE
 70
0
 62
7
  6
CONTINUOUS
370
-3
390
F
  0
LAYER
  5
20C
100
AcDbSymbolTableRecord
100
AcDbLayerTableRecord
  2
PUNTI
 70
0
 62
7
  6
CONTINUOUS
370
-3
390
F
  0
LAYER
  5
20D
100
AcDbSymbolTableRecord
100
AcDbLayerTableRecord
  2
RACCORDO
 70
0
 62
7
  6
CONTINUOUS
370
-3
390
F
  0
LAYER
  5
20E
100
AcDbSymbolTableRecord
100
AcDbLayerTableRecord
  2
SIMBOLI
 70
0
 62
7
  6
CONTINUOUS
370
-3
390
F
  0
LAYER
  5
20F
100
AcDbSymbolTableRecord
100
AcDbLayerTableRecord
  2
SMUSSO
 70
0
 62
7
  6
CONTINUOUS
370
-3
390
F
  0
LAYER
  5
210
100
AcDbSymbolTableRecord
100
AcDbLayerTableRecord
  2
SNAPLINE
 70
0
 62
7
  6
CONTINUOUS
370
-3
390
F
  0
LAYER
  5
211
100
AcDbSymbolTableRecord
100
AcDbLayerTableRecord
  2
SUPERFICI
 70
0
 62
7
  6
CONTINUOUS
370
-3
390
F
  0
LAYER
  5
212
100
AcDbSymbolTableRecord
100
AcDbLayerTableRecord
  2
TRASH
 70
0
 62
7
  6
CONTINUOUS
370
-3
390
F
  0
ENDTAB
  0
TABLE
  2
STYLE
  5
3
100
AcDbSymbolTable
 70
1
  0
STYLE
  5
11
100
AcDbSymbolTableRecord
100
AcDbTextStyleTableRecord
  2
STANDARD
 70
0
 40
0.0
 41
0.8
 50
0.0
 71
0
 42
0.2
  3
txt
  4

  0
STYLE
  5
213
100
AcDbSymbolTableRecord
100
AcDbTextStyleTableRecord
  2
TEXTSTYLE_1
 70
0
 40
0.0
 41
0.8
 50
0.0
 71
0
 42
0.2
  3
gdt
  4

  0
ENDTAB
  0
TABLE
  2
VIEW
  5
6
100
AcDbSymbolTable
 70
0
  0
ENDTAB
  0
TABLE
  2
UCS
  5
7
100
AcDbSymbolTable
 70
0
  0
ENDTAB
  0
TABLE
  2
APPID
  5
9
100
AcDbSymbolTable
 70
1
  0
APPID
  5
214
100
AcDbSymbolTableRecord
100
AcDbRegAppTableRecord
  2
ACAD
 70
0
  0
ENDTAB
  0
TABLE
  2
BLOCK_RECORD
  5
1
100
AcDbSymbolTable
 70
0
  0
BLOCK_RECORD
  5
215
100
AcDbSymbolTableRecord
100
AcDbBlockTableRecord
  2
*Model_Space
  0
BLOCK_RECORD
  5
216
100
AcDbSymbolTableRecord
100
AcDbBlockTableRecord
  2
*Paper_Space
  0
BLOCK_RECORD
  5
217
100
AcDbSymbolTableRecord
100
AcDbBlockTableRecord
  2
_FILLED
  0
BLOCK_RECORD
  5
218
100
AcDbSymbolTableRecord
100
AcDbBlockTableRecord
  2
*D0
  0
BLOCK_RECORD
  5
219
100
AcDbSymbolTableRecord
100
AcDbBlockTableRecord
  2
*D1
  0
BLOCK_RECORD
  5
21A
100
AcDbSymbolTableRecord
100
AcDbBlockTableRecord
  2
*D2
  0
ENDTAB
  0
TABLE
  2
DIMSTYLE
  5
A
100
AcDbSymbolTable
 70
1
100
AcDbDimStyleTable
 71
0
  0
DIMSTYLE
105
21B
100
AcDbSymbolTableRecord
100
AcDbDimStyleTableRecord
  2
STANDARD
 70
0
  3

  4

 40
1.0
 41
3.0
 42
0.5
 43
0.38
 44
1.5
 45
0.0
 46
0.0
 47
0.01
 48
0.01
140
3.0
141
0.09
142
0.0
143
25.4
144
1.0
145
0.0
146
1.0
147
0.625
 71
1.0
 72
0.0
 73
0
 74
0
 75
0
 76
0
 77
1
 78
8
170
0
171
2
172
0
173
0
174
0
175
0
176
0
177
0
178
0
270
2
271
2
272
2
273
2
274
2
275
0
280
0
281
0
282
0
283
1
284
8
285
0
286
0
287
3
288
0
340
11
278
44
341
217
342
217
343
217
344
217
  0
DIMSTYLE
105
21C
100
AcDbSymbolTableRecord
100
AcDbDimStyleTableRecord
  2
DIMSTYLE_1
 70
0
  3

  4

 40
1.0
 41
3.0
 42
0.5
 43
0.38
 44
1.5
 45
0.0
 46
0.0
 47
0.0
 48
0.0
140
3.0
141
0.09
142
0.0
143
25.4
144
1.0
145
0.0
146
1.0
147
0.75
 71
0.0
 72
0.0
 73
0
 74
0
 75
0
 76
0
 77
1
 78
8
170
0
171
2
172
0
173
0
174
0
175
0
176
0
177
0
178
0
270
2
271
2
272
2
273
2
274
2
275
0
280
0
281
0
282
0
283
1
284
8
285
0
286
0
287
3
288
0
340
11
278
44
341
217
342
217
343
217
344
217
  0
ENDTAB
  0
ENDSEC
  0
SECTION
  2
BLOCKS
  0
BLOCK
  5
20
100
AcDbEntity
  8
0
100
AcDbBlockBegin
  2
*Model_Space
 70
0
 10
0.0
 20
0.0
 30
0.0
  3
*Model_Space
  1

  0
ENDBLK
  5
21
100
AcDbEntity
  8
0
100
AcDbBlockEnd
  0
BLOCK
  5
1C
100
AcDbEntity
  8
0
100
AcDbBlockBegin
  2
*Paper_Space
 70
0
 10
0.0
 20
0.0
 30
0.0
  3
*Paper_Space
  1

  0
ENDBLK
  5
1D
100
AcDbEntity
  8
0
100
AcDbBlockEnd
  0
BLOCK
  5
21D
100
AcDbEntity
  8
0
100
AcDbBlockBegin
  2
_FILLED
 70
64
 10
0.0
 20
0.0
  3
_FILLED
  1

  0
SOLID
  5
21E
100
AcDbEntity
  8
0
  6
BYBLOCK
 62
0
100
AcDbTrace
 10
0.0
 20
0.0
 11
-1.0
 21
0.3166666667
 12
-1.0
 22
-0.3166666667
 13
-1.0
 23
-0.3166666667
  0
ENDBLK
  5
21F
100
AcDbEntity
  8
0
  6
BYBLOCK
 62
0
100
AcDbBlockEnd
  0
BLOCK
  5
220
100
AcDbEntity
  8
0
100
AcDbBlockBegin
 62
7
  6
CONTINUOUS
  2
*D0
 70
65
 10
0.0
 20
0.0
  3
*D0
  1

  0
MTEXT
  5
221
100
AcDbEntity
  8
0
100
AcDbMText
 62
7
  6
CONTINUOUS
  7
STANDARD
 71
2
 72
1
 10
166.258193301
 20
140.0165503004
 30
0.0
 11
1.0
 21
0.0
 31
0.0
 44
0.9
  1
22,2
 40
3.0
 41
13.1785714286
  0
LINE
  5
222
100
AcDbEntity
  8
0
100
AcDbLine
 62
7
  6
CONTINUOUS
 10
177.358193301
 20
125.9666721442
 11
177.358193301
 21
137.7665503004
  0
LINE
  5
223
100
AcDbEntity
  8
0
100
AcDbLine
 62
7
  6
CONTINUOUS
 10
155.158193301
 20
125.9666721442
 11
155.158193301
 21
137.7665503004
  0
LINE
  5
224
100
AcDbEntity
  8
0
100
AcDbLine
 62
7
  6
CONTINUOUS
 10
177.358193301
 20
136.2665503004
 11
166.258193301
 21
136.2665503004
  0
LINE
  5
225
100
AcDbEntity
  8
0
100
AcDbLine
 62
7
  6
CONTINUOUS
 10
155.158193301
 20
136.2665503004
 11
166.258193301
 21
136.2665503004
  0
INSERT
  5
226
100
AcDbEntity
  8
0
100
AcDbBlockReference
 62
7
  6
CONTINUOUS
  2
_FILLED
 10
177.358193301
 20
136.2665503004
 41
3.0
 42
3.0
 43
3.0
  0
INSERT
  5
227
100
AcDbEntity
  8
0
100
AcDbBlockReference
 62
7
  6
CONTINUOUS
  2
_FILLED
 10
155.158193301
 20
136.2665503004
 41
3.0
 42
3.0
 43
3.0
 50
180.0
  0
ENDBLK
  5
228
100
AcDbEntity
  8
0
  6
BYBLOCK
 62
0
100
AcDbBlockEnd
  0
BLOCK
  5
229
100
AcDbEntity
  8
0
100
AcDbBlockBegin
 62
7
  6
CONTINUOUS
  2
*D1
 70
65
 10
0.0
 20
0.0
  3
*D1
  1

  0
MTEXT
  5
22A
100
AcDbEntity
  8
0
100
AcDbMText
 62
7
  6
CONTINUOUS
  7
STANDARD
 71
3
 72
1
 10
124.2776897143
 20
140.0165503004
 30
0.0
 11
1.0
 21
0.0
 31
0.0
 44
0.9
  1
7,9
 40
3.0
 41
9.6428571429
  0
LINE
  5
22B
100
AcDbEntity
  8
0
100
AcDbLine
 62
7
  6
CONTINUOUS
 10
133.8776944766
 20
125.9666721442
 11
133.8776944766
 21
137.7665503004
  0
LINE
  5
22C
100
AcDbEntity
  8
0
100
AcDbLine
 62
7
  6
CONTINUOUS
 10
125.9776944766
 20
104.9165503004
 11
125.9776944766
 21
137.7665503004
  0
LINE
  5
22D
100
AcDbEntity
  8
0
100
AcDbLine
 62
7
  6
CONTINUOUS
 10
133.8776944766
 20
136.2665503004
 11
129.9276944766
 21
136.2665503004
  0
LINE
  5
22E
100
AcDbEntity
  8
0
100
AcDbLine
 62
7
  6
CONTINUOUS
 10
125.9776944766
 20
136.2665503004
 11
129.9276944766
 21
136.2665503004
  0
LINE
  5
22F
100
AcDbEntity
  8
0
100
AcDbLine
 62
7
  6
CONTINUOUS
 10
129.9276944766
 20
136.2665503004
 11
117.8491182857
 21
136.2665503004
  0
INSERT
  5
230
100
AcDbEntity
  8
0
100
AcDbBlockReference
 62
7
  6
CONTINUOUS
  2
_FILLED
 10
133.8776944766
 20
136.2665503004
 41
3.0
 42
3.0
 43
3.0
  0
INSERT
  5
231
100
AcDbEntity
  8
0
100
AcDbBlockReference
 62
7
  6
CONTINUOUS
  2
_FILLED
 10
125.9776944766
 20
136.2665503004
 41
3.0
 42
3.0
 43
3.0
 50
180.0
  0
ENDBLK
  5
232
100
AcDbEntity
  8
0
  6
BYBLOCK
 62
0
100
AcDbBlockEnd
  0
BLOCK
  5
233
100
AcDbEntity
  8
0
100
AcDbBlockBegin
 62
7
  6
CONTINUOUS
  2
*D2
 70
65
 10
0.0
 20
0.0
  3
*D2
  1

  0
MTEXT
  5
234
100
AcDbEntity
  8
0
100
AcDbMText
 62
7
  6
CONTINUOUS
  7
STANDARD
 71
2
 72
1
 10
183.608193301
 20
104.4165503004
 30
0.0
 11
0.0
 21
1.0
 31
0.0
 44
0.9
  1
43,7
 40
3.0
 41
12.8571428571
  0
LINE
  5
235
100
AcDbEntity
  8
0
100
AcDbLine
 62
7
  6
CONTINUOUS
 10
177.0583151448
 20
126.2665503004
 11
188.858193301
 21
126.2665503004
  0
LINE
  5
236
100
AcDbEntity
  8
0
100
AcDbLine
 62
7
  6
CONTINUOUS
 10
177.0583151448
 20
82.5665503004
 11
188.858193301
 21
82.5665503004
  0
LINE
  5
237
100
AcDbEntity
  8
0
100
AcDbLine
 62
7
  6
CONTINUOUS
 10
187.358193301
 20
126.2665503004
 11
187.358193301
 21
104.4165503004
  0
LINE
  5
238
100
AcDbEntity
  8
0
100
AcDbLine
 62
7
  6
CONTINUOUS
 10
187.358193301
 20
82.5665503004
 11
187.358193301
 21
104.4165503004
  0
INSERT
  5
239
100
AcDbEntity
  8
0
100
AcDbBlockReference
 62
7
  6
CONTINUOUS
  2
_FILLED
 10
187.358193301
 20
126.2665503004
 41
3.0
 42
3.0
 43
3.0
 50
90.0
  0
INSERT
  5
23A
100
AcDbEntity
  8
0
100
AcDbBlockReference
 62
7
  6
CONTINUOUS
  2
_FILLED
 10
187.358193301
 20
82.5665503004
 41
3.0
 42
3.0
 43
3.0
 50
270.0
  0
ENDBLK
  5
23B
100
AcDbEntity
  8
0
  6
BYBLOCK
 62
0
100
AcDbBlockEnd
  0
ENDSEC
  0
SECTION
  2
ENTITIES
  0
DIMENSION
  5
23C
100
AcDbEntity
  8
0
100
AcDbDimension
 62
7
  6
CONTINUOUS
  2
*D0
 10
155.158193301
 20
136.2665503004
 11
165.8296255188
 21
136.2665503004
 70
160
 71
2
 42
22.2
  3
DIMSTYLE_1
100
AcDbAlignedDimension
 13
177.358193301
 23
125.4666721442
 14
155.158193301
 24
125.4666721442
 50
180.0
100
AcDbRotatedDimension
  0
DIMENSION
  5
23D
100
AcDbEntity
  8
0
100
AcDbDimension
 62
7
  6
CONTINUOUS
  2
*D1
 10
125.9776944766
 20
136.2665503004
 11
120.634832428
 21
136.2665503004
 70
160
 71
3
 42
7.9
  3
DIMSTYLE_1
100
AcDbAlignedDimension
 13
133.8776944766
 23
125.4666721442
 14
125.9776944766
 24
104.4165503004
 50
180.0
100
AcDbRotatedDimension
  0
DIMENSION
  5
23E
100
AcDbEntity
  8
0
100
AcDbDimension
 62
7
  6
CONTINUOUS
  2
*D2
 10
187.358193301
 20
82.5665503004
 11
187.358193301
 21
103.9879777357
 70
160
 71
2
 42
43.7
  3
DIMSTYLE_1
100
AcDbAlignedDimension
 13
176.5583151448
 23
126.2665503004
 14
176.5583151448
 24
82.5665503004
 50
270.0
100
AcDbRotatedDimension
  0
LWPOLYLINE
  5
23F
100
AcDbEntity
  8
RACCORDO
100
AcDbPolyline
 62
253
  6
CONTINUOUS
 90
16
 70
0
 10
155.2703365268
 20
124.7141002693
 10
155.276062374
 20
124.7197113249
 10
155.2902973696
 20
124.7252622542
 10
155.3128889891
 20
124.7306935803
 10
155.3435951688
 20
124.7359471077
 10
155.3820868994
 20
124.7409665463
 10
155.4279517514
 20
124.7456981139
 10
155.4806982938
 20
124.7500911131
 10
155.5397613605
 20
124.7540984737
 10
155.6045081047
 20
124.7576772581
 10
155.674244781
 20
124.7607891204
 10
155.7482241778
 20
124.7634007177
 10
155.8256536236
 20
124.7654840676
 10
155.9057034807
 20
124.7670168477
 10
155.9875160344
 20
124.7679826344
 10
156.0702146829
 20
124.7683710798
  0
LWPOLYLINE
  5
240
100
AcDbEntity
  8
ASSI
100
AcDbPolyline
 62
253
  6
CONTINUOUS
 90
16
 70
0
 10
155.2703365268
 20
124.7141002693
 10
155.276062374
 20
124.7197113249
 10
155.2902973696
 20
124.7252622542
 10
155.3128889891
 20
124.7306935803
 10
155.3435951688
 20
124.7359471077
 10
155.3820868994
 20
124.7409665463
 10
155.4279517514
 20
124.7456981139
 10
155.4806982938
 20
124.7500911131
 10
155.5397613605
 20
124.7540984737
 10
155.6045081047
 20
124.7576772581
 10
155.674244781
 20
124.7607891204
 10
155.7482241778
 20
124.7634007177
 10
155.8256536236
 20
124.7654840676
 10
155.9057034807
 20
124.7670168477
 10
155.9875160344
 20
124.7679826344
 10
156.0702146829
 20
124.7683710798
  0
LINE
  5
241
100
AcDbEntity
  8
RACCORDO
100
AcDbLine
 62
7
  6
CONTINUOUS
 10
155.9580714571
 20
82.5665503004
 11
176.5583151448
 21
82.5665503004
  0
LINE
  5
242
100
AcDbEntity
  8
ASSI
100
AcDbLine
 62
7
  6
CONTINUOUS
 10
155.9580714571
 20
82.5665503004
 11
176.5583151448
 21
82.5665503004
  0
LINE
  5
243
100
AcDbEntity
  8
RACCORDO
100
AcDbLine
 62
253
  6
CONTINUOUS
 10
176.458149073
 20
82.6667163722
 11
156.0582375289
 21
82.6667163722
  0
LINE
  5
244
100
AcDbEntity
  8
ASSI
100
AcDbLine
 62
253
  6
CONTINUOUS
 10
176.458149073
 20
82.6667163722
 11
156.0582375289
 21
82.6667163722
  0
LWPOLYLINE
  5
245
100
AcDbEntity
  8
RACCORDO
100
AcDbPolyline
 62
253
  6
CONTINUOUS
 90
16
 70
0
 10
155.2703365268
 20
84.1190003315
 10
155.2760617947
 20
84.113389223
 10
155.2902963
 20
84.1078382367
 10
155.312887522
 20
84.1024068509
 10
155.343593399
 20
84.0971532619
 10
155.3820849216
 20
84.0921337613
 10
155.4279496587
 20
84.0874021322
 10
155.4806961759
 20
84.0830090736
 10
155.5397593018
 20
84.0790016562
 10
155.604506183
 20
84.0754228192
 10
155.6742430659
 20
84.0723109092
 10
155.7482227294
 20
84.0696992698
 10
155.8256524918
 20
84.0676158844
 10
155.905702704
 20
84.0660830759
 10
155.9875156391
 20
84.0651172684
 10
156.0702146829
 20
84.0647288102
  0
LWPOLYLINE
  5
246
100
AcDbEntity
  8
ASSI
100
AcDbPolyline
 62
253
  6
CONTINUOUS
 90
16
 70
0
 10
155.2703365268
 20
84.1190003315
 10
155.2760617947
 20
84.113389223
 10
155.2902963
 20
84.1078382367
 10
155.312887522
 20
84.1024068509
 10
155.343593399
 20
84.0971532619
 10
155.3820849216
 20
84.0921337613
 10
155.4279496587
 20
84.0874021322
 10
155.4806961759
 20
84.0830090736
 10
155.5397593018
 20
84.0790016562
 10
155.604506183
 20
84.0754228192
 10
155.6742430659
 20
84.0723109092
 10
155.7482227294
 20
84.0696992698
 10
155.8256524918
 20
84.0676158844
 10
155.905702704
 20
84.0660830759
 10
155.9875156391
 20
84.0651172684
 10
156.0702146829
 20
84.0647288102
  0
LINE
  5
247
100
AcDbEntity
  8
RACCORDO
100
AcDbLine
 62
253
  6
CONTINUOUS
 10
176.446171919
 20
84.0647288075
 11
156.0702146829
 21
84.0647288075
  0
LINE
  5
248
100
AcDbEntity
  8
ASSI
100
AcDbLine
 62
253
  6
CONTINUOUS
 10
176.446171919
 20
84.0647288075
 11
156.0702146829
 21
84.0647288075
  0
LINE
  5
249
100
AcDbEntity
  8
0
100
AcDbLine
 62
253
  6
CONTINUOUS
 10
165.7653021402
 20
120.3228127675
 11
165.9069391402
 21
120.3748237675
  0
LWPOLYLINE
  5
24A
100
AcDbEntity
  8
RACCORDO
100
AcDbPolyline
 62
7
  6
CONTINUOUS
 90
15
 70
0
 10
171.8104747814
 20
89.919289025
 10
171.8621645806
 20
89.927475438
 10
171.9127155019
 20
89.9410199348
 10
171.9615738479
 20
89.9597742261
 10
172.0082042599
 20
89.9835329403
 10
172.0520956182
 20
90.0120358014
 10
172.0927670614
 20
90.0449706069
 10
172.1297729945
 20
90.08197654
 10
172.1627078
 20
90.1226479831
 10
172.1912106611
 20
90.1665393414
 10
172.2149693752
 20
90.2131697534
 10
172.2337236665
 20
90.2620280994
 10
172.2472681633
 20
90.3125790207
 10
172.2554545763
 20
90.3642688199
 10
172.258193301
 20
90.4165312619
  0
LWPOLYLINE
  5
24B
100
AcDbEntity
  8
ASSI
100
AcDbPolyline
 62
7
  6
CONTINUOUS
 90
15
 70
0
 10
171.8104747814
 20
89.919289025
 10
171.8621645806
 20
89.927475438
 10
171.9127155019
 20
89.9410199348
 10
171.9615738479
 20
89.9597742261
 10
172.0082042599
 20
89.9835329403
 10
172.0520956182
 20
90.0120358014
 10
172.0927670614
 20
90.0449706069
 10
172.1297729945
 20
90.08197654
 10
172.1627078
 20
90.1226479831
 10
172.1912106611
 20
90.1665393414
 10
172.2149693752
 20
90.2131697534
 10
172.2337236665
 20
90.2620280994
 10
172.2472681633
 20
90.3125790207
 10
172.2554545763
 20
90.3642688199
 10
172.258193301
 20
90.4165312619
  0
LINE
  5
24C
100
AcDbEntity
  8
RACCORDO
100
AcDbLine
 62
7
  6
CONTINUOUS
 10
171.7582123394
 20
89.9165503004
 11
171.8104747814
 21
89.919289025
  0
LINE
  5
24D
100
AcDbEntity
  8
ASSI
100
AcDbLine
 62
7
  6
CONTINUOUS
 10
171.7582123394
 20
89.9165503004
 11
171.8104747814
 21
89.919289025
  0
LINE
  5
24E
100
AcDbEntity
  8
RACCORDO
100
AcDbLine
 62
253
  6
CONTINUOUS
 10
171.8060295459
 20
89.914597963
 11
171.7620965596
 21
89.9126660802
  0
LINE
  5
24F
100
AcDbEntity
  8
ASSI
100
AcDbLine
 62
253
  6
CONTINUOUS
 10
171.8060295459
 20
89.914597963
 11
171.7620965596
 21
89.9126660802
  0
LINE
  5
250
100
AcDbEntity
  8
RACCORDO
100
AcDbLine
 62
253
  6
CONTINUOUS
 10
171.7620965596
 20
89.8078003045
 11
160.7542900423
 21
89.8078003045
  0
LINE
  5
251
100
AcDbEntity
  8
ASSI
100
AcDbLine
 62
253
  6
CONTINUOUS
 10
171.7620965596
 20
89.8078003045
 11
160.7542900423
 21
89.8078003045
  0
LINE
  5
252
100
AcDbEntity
  8
RACCORDO
100
AcDbLine
 62
7
  6
CONTINUOUS
 10
171.7620965596
 20
89.9126660802
 11
160.7542900423
 21
89.9126660802
  0
LINE
  5
253
100
AcDbEntity
  8
ASSI
100
AcDbLine
 62
7
  6
CONTINUOUS
 10
171.7620965596
 20
89.9126660802
 11
160.7542900423
 21
89.9126660802
  0
LINE
  5
254
100
AcDbEntity
  8
RACCORDO
100
AcDbLine
 62
7
  6
CONTINUOUS
 10
160.758193301
 20
89.9165503004
 11
171.758193301
 21
89.9165503004
  0
LINE
  5
255
100
AcDbEntity
  8
RACCORDO
100
AcDbLine
 62
253
  6
CONTINUOUS
 10
160.7542900423
 20
89.9126660802
 11
160.7103990852
 21
89.9145942593
  0
LINE
  5
256
100
AcDbEntity
  8
ASSI
100
AcDbLine
 62
253
  6
CONTINUOUS
 10
160.7542900423
 20
89.9126660802
 11
160.7103990852
 21
89.9145942593
  0
LWPOLYLINE
  5
257
100
AcDbEntity
  8
RACCORDO
100
AcDbPolyline
 62
253
  6
CONTINUOUS
 90
19
 70
0
 10
160.7542900423
 20
89.8078003045
 10
160.7010250879
 20
89.810294814
 10
160.6490291579
 20
89.817170775
 10
160.598302252
 20
89.8284282021
 10
160.5484907319
 20
89.8442389403
 10
160.4999482361
 20
89.8644312032
 10
160.4537356802
 20
89.8884895669
 10
160.4099282696
 20
89.9164649963
 10
160.368450799
 20
89.9483066241
 10
160.3301385688
 20
89.983346274
 10
160.2950360852
 20
90.0216396531
 10
160.2630988419
 20
90.0631311669
 10
160.2350286204
 20
90.106985667
 10
160.2108799158
 20
90.1533077524
 10
160.1905982328
 20
90.2019929254
 10
160.1747218677
 20
90.2518923527
 10
160.1634302525
 20
90.3026230963
 10
160.1565439552
 20
90.3545681432
 10
160.1540629757
 20
90.4077275213
  0
LWPOLYLINE
  5
258
100
AcDbEntity
  8
ASSI
100
AcDbPolyline
 62
253
  6
CONTINUOUS
 90
19
 70
0
 10
160.7542900423
 20
89.8078003045
 10
160.7010250879
 20
89.810294814
 10
160.6490291579
 20
89.817170775
 10
160.598302252
 20
89.8284282021
 10
160.5484907319
 20
89.8442389403
 10
160.4999482361
 20
89.8644312032
 10
160.4537356802
 20
89.8884895669
 10
160.4099282696
 20
89.9164649963
 10
160.368450799
 20
89.9483066241
 10
160.3301385688
 20
89.983346274
 10
160.2950360852
 20
90.0216396531
 10
160.2630988419
 20
90.0631311669
 10
160.2350286204
 20
90.106985667
 10
160.2108799158
 20
90.1533077524
 10
160.1905982328
 20
90.2019929254
 10
160.1747218677
 20
90.2518923527
 10
160.1634302525
 20
90.3026230963
 10
160.1565439552
 20
90.3545681432
 10
160.1540629757
 20
90.4077275213
  0
LINE
  5
259
100
AcDbEntity
  8
ASSI
100
AcDbLine
 62
7
  6
CONTINUOUS
 10
160.7059118205
 20
89.919289025
 11
160.7581742625
 21
89.9165503004
  0
LWPOLYLINE
  5
25A
100
AcDbEntity
  8
RACCORDO
100
AcDbPolyline
 62
253
  6
CONTINUOUS
 90
17
 70
0
 10
160.7103990852
 20
89.9145942593
 10
160.6669410135
 20
89.9203486917
 10
160.6242464298
 20
89.9298598725
 10
160.5826449481
 20
89.9430269385
 10
160.5424366805
 20
89.959727104
 10
160.5038931055
 20
89.9798244063
 10
160.4673134464
 20
90.0031393274
 10
160.4329450063
 20
90.0294896267
 10
160.4009727372
 20
90.0587255548
 10
160.3716367196
 20
90.0906345675
 10
160.3451643988
 20
90.1249769383
 10
160.3217218942
 20
90.1615612076
 10
160.3014959104
 20
90.2001458479
 10
160.2846751986
 20
90.2404288875
 10
160.2714103612
 20
90.282113138
 10
160.2618260287
 20
90.3248868554
 10
160.2560193636
 20
90.3684259213
  0
LWPOLYLINE
  5
25B
100
AcDbEntity
  8
ASSI
100
AcDbPolyline
 62
253
  6
CONTINUOUS
 90
17
 70
0
 10
160.7103990852
 20
89.9145942593
 10
160.6669410135
 20
89.9203486917
 10
160.6242464298
 20
89.9298598725
 10
160.5826449481
 20
89.9430269385
 10
160.5424366805
 20
89.959727104
 10
160.5038931055
 20
89.9798244063
 10
160.4673134464
 20
90.0031393274
 10
160.4329450063
 20
90.0294896267
 10
160.4009727372
 20
90.0587255548
 10
160.3716367196
 20
90.0906345675
 10
160.3451643988
 20
90.1249769383
 10
160.3217218942
 20
90.1615612076
 10
160.3014959104
 20
90.2001458479
 10
160.2846751986
 20
90.2404288875
 10
160.2714103612
 20
90.282113138
 10
160.2618260287
 20
90.3248868554
 10
160.2560193636
 20
90.3684259213
  0
LINE
  5
25C
100
AcDbEntity
  8
0
100
AcDbLine
 62
253
  6
CONTINUOUS
 10
165.4806341402
 20
120.1668017675
 11
165.7653021402
 21
120.3228127675
  0
LWPOLYLINE
  5
25D
100
AcDbEntity
  8
RACCORDO
100
AcDbPolyline
 62
253
  6
CONTINUOUS
 90
10
 70
0
 10
160.1540629757
 20
90.4077275213
 10
160.1713323982
 20
90.4078047097
 10
160.1880828912
 20
90.4080198959
 10
160.2038111186
 20
90.4083666137
 10
160.2180444621
 20
90.4088344444
 10
160.2303552236
 20
90.4094093304
 10
160.2403734767
 20
90.4100739969
 10
160.2477981824
 20
90.4108084715
 10
160.2524062354
 20
90.4115906837
 10
160.254059168
 20
90.4123971289
  0
LWPOLYLINE
  5
25E
100
AcDbEntity
  8
ASSI
100
AcDbPolyline
 62
253
  6
CONTINUOUS
 90
10
 70
0
 10
160.1540629757
 20
90.4077275213
 10
160.1713323982
 20
90.4078047097
 10
160.1880828912
 20
90.4080198959
 10
160.2038111186
 20
90.4083666137
 10
160.2180444621
 20
90.4088344444
 10
160.2303552236
 20
90.4094093304
 10
160.2403734767
 20
90.4100739969
 10
160.2477981824
 20
90.4108084715
 10
160.2524062354
 20
90.4115906837
 10
160.254059168
 20
90.4123971289
  0
LINE
  5
25F
100
AcDbEntity
  8
RACCORDO
100
AcDbLine
 62
253
  6
CONTINUOUS
 10
160.758193301
 20
90.1165503004
 11
171.758193301
 21
90.1165503004
  0
LINE
  5
260
100
AcDbEntity
  8
RACCORDO
100
AcDbLine
 62
253
  6
CONTINUOUS
 10
160.458193301
 20
90.4165503004
 11
160.258193301
 21
90.4165503013
  0
LINE
  5
261
100
AcDbEntity
  8
RACCORDO
100
AcDbLine
 62
253
  6
CONTINUOUS
 10
172.058193301
 20
90.4165503004
 11
172.258193301
 21
90.4165503004
  0
LWPOLYLINE
  5
262
100
AcDbEntity
  8
RACCORDO
100
AcDbPolyline
 62
253
  6
CONTINUOUS
 90
10
 70
0
 10
172.3623236258
 20
90.4077277019
 10
172.3450530113
 20
90.4078047961
 10
172.3283010655
 20
90.4080199078
 10
172.3125712484
 20
90.408366572
 10
172.2983363011
 20
90.40883437
 10
172.2860240384
 20
90.4094092427
 10
172.2760044906
 20
90.4100739133
 10
172.2685787837
 20
90.4108084061
 10
172.2639700885
 20
90.4115906464
 10
172.2623169141
 20
90.412397125
  0
LWPOLYLINE
  5
263
100
AcDbEntity
  8
ASSI
100
AcDbPolyline
 62
253
  6
CONTINUOUS
 90
10
 70
0
 10
172.3623236258
 20
90.4077277019
 10
172.3450530113
 20
90.4078047961
 10
172.3283010655
 20
90.4080199078
 10
172.3125712484
 20
90.408366572
 10
172.2983363011
 20
90.40883437
 10
172.2860240384
 20
90.4094092427
 10
172.2760044906
 20
90.4100739133
 10
172.2685787837
 20
90.4108084061
 10
172.2639700885
 20
90.4115906464
 10
172.2623169141
 20
90.412397125
  0
LWPOLYLINE
  5
264
100
AcDbEntity
  8
RACCORDO
100
AcDbPolyline
 62
253
  6
CONTINUOUS
 90
16
 70
0
 10
155.2583593728
 20
83.4665945283
 10
155.2627648913
 20
83.3830012301
 10
155.2758822947
 20
83.3003233385
 10
155.2975679522
 20
83.2194663329
 10
155.3275843946
 20
83.1413157533
 10
155.365602912
 20
83.0667275084
 10
155.4112071515
 20
82.9965185001
 10
155.4638976832
 20
82.9314576655
 10
155.5230974624
 20
82.8722575673
 10
155.5881581419
 20
82.8195665917
 10
155.6583671933
 20
82.7739618263
 10
155.7329556967
 20
82.7359427557
 10
155.8111067456
 20
82.705925793
 10
155.8919644245
 20
82.6842397015
 10
155.974643186
 20
82.6711220007
 10
156.0582375289
 20
82.6667163722
  0
LWPOLYLINE
  5
265
100
AcDbEntity
  8
ASSI
100
AcDbPolyline
 62
253
  6
CONTINUOUS
 90
16
 70
0
 10
155.2583593728
 20
83.4665945283
 10
155.2627648913
 20
83.3830012301
 10
155.2758822947
 20
83.3003233385
 10
155.2975679522
 20
83.2194663329
 10
155.3275843946
 20
83.1413157533
 10
155.365602912
 20
83.0667275084
 10
155.4112071515
 20
82.9965185001
 10
155.4638976832
 20
82.9314576655
 10
155.5230974624
 20
82.8722575673
 10
155.5881581419
 20
82.8195665917
 10
155.6583671933
 20
82.7739618263
 10
155.7329556967
 20
82.7359427557
 10
155.8111067456
 20
82.705925793
 10
155.8919644245
 20
82.6842397015
 10
155.974643186
 20
82.6711220007
 10
156.0582375289
 20
82.6667163722
  0
LWPOLYLINE
  5
266
100
AcDbEntity
  8
RACCORDO
100
AcDbPolyline
 62
253
  6
CONTINUOUS
 90
16
 70
0
 10
155.2583593728
 20
125.3665060724
 10
155.262764953
 20
125.4500999576
 10
155.2758825207
 20
125.5327783254
 10
155.2975684127
 20
125.6136356855
 10
155.327585126
 20
125.6917864908
 10
155.3656039186
 20
125.7663748364
 10
155.4112084099
 20
125.8365838335
 10
155.4638991413
 20
125.9016445556
 10
155.5230990456
 20
125.9608444599
 10
155.5881597677
 20
126.0135351913
 10
155.6583687648
 20
126.0591396827
 10
155.7329571104
 20
126.0971584753
 10
155.8111079157
 20
126.1271751886
 10
155.8919652758
 20
126.1488610807
 10
155.9746436437
 20
126.1619786484
 10
156.0582375289
 20
126.1663842285
  0
LWPOLYLINE
  5
267
100
AcDbEntity
  8
ASSI
100
AcDbPolyline
 62
253
  6
CONTINUOUS
 90
16
 70
0
 10
155.2583593728
 20
125.3665060724
 10
155.262764953
 20
125.4500999576
 10
155.2758825207
 20
125.5327783254
 10
155.2975684127
 20
125.6136356855
 10
155.327585126
 20
125.6917864908
 10
155.3656039186
 20
125.7663748364
 10
155.4112084099
 20
125.8365838335
 10
155.4638991413
 20
125.9016445556
 10
155.5230990456
 20
125.9608444599
 10
155.5881597677
 20
126.0135351913
 10
155.6583687648
 20
126.0591396827
 10
155.7329571104
 20
126.0971584753
 10
155.8111079157
 20
126.1271751886
 10
155.8919652758
 20
126.1488610807
 10
155.9746436437
 20
126.1619786484
 10
156.0582375289
 20
126.1663842285
  0
LINE
  5
268
100
AcDbEntity
  8
0
100
AcDbLine
 62
253
  6
CONTINUOUS
 10
165.0221121402
 20
119.7374587675
 11
165.2562761402
 21
119.9870367675
  0
LINE
  5
269
100
AcDbEntity
  8
0
100
AcDbLine
 62
253
  6
CONTINUOUS
 10
165.2562761402
 20
119.9870367675
 11
165.4806341402
 21
120.1668017675
  0
LINE
  5
26A
100
AcDbEntity
  8
0
100
AcDbLine
 62
253
  6
CONTINUOUS
 10
170.1835541402
 20
119.1396287675
 11
161.5946041402
 21
115.2645257675
  0
LINE
  5
26B
100
AcDbEntity
  8
RACCORDO
100
AcDbLine
 62
253
  6
CONTINUOUS
 10
160.258193301
 20
93.9165693388
 11
160.2528071276
 21
93.9219555122
  0
LINE
  5
26C
100
AcDbEntity
  8
ASSI
100
AcDbLine
 62
253
  6
CONTINUOUS
 10
160.258193301
 20
93.9165693388
 11
160.2528071276
 21
93.9219555122
  0
LWPOLYLINE
  5
26D
100
AcDbEntity
  8
RACCORDO
100
AcDbPolyline
 62
253
  6
CONTINUOUS
 90
8
 70
0
 10
155.2641325698
 20
125.2768043718
 10
155.2633653652
 20
125.2995339696
 10
155.2625715148
 20
125.3190495419
 10
155.2617517096
 20
125.3354007466
 10
155.2609192615
 20
125.3483461458
 10
155.2600786081
 20
125.3578052602
 10
155.2592253118
 20
125.3638585691
 10
155.2583593728
 20
125.3665060724
  0
LWPOLYLINE
  5
26E
100
AcDbEntity
  8
ASSI
100
AcDbPolyline
 62
253
  6
CONTINUOUS
 90
8
 70
0
 10
155.2641325698
 20
125.2768043718
 10
155.2633653652
 20
125.2995339696
 10
155.2625715148
 20
125.3190495419
 10
155.2617517096
 20
125.3354007466
 10
155.2609192615
 20
125.3483461458
 10
155.2600786081
 20
125.3578052602
 10
155.2592253118
 20
125.3638585691
 10
155.2583593728
 20
125.3665060724
  0
LINE
  5
26F
100
AcDbEntity
  8
RACCORDO
100
AcDbLine
 62
253
  6
CONTINUOUS
 10
155.2655778754
 20
125.2222424847
 11
155.2641325698
 21
125.2768043718
  0
LINE
  5
270
100
AcDbEntity
  8
ASSI
100
AcDbLine
 62
253
  6
CONTINUOUS
 10
155.2655778754
 20
125.2222424847
 11
155.2641325698
 21
125.2768043718
  0
LWPOLYLINE
  5
271
100
AcDbEntity
  8
RACCORDO
100
AcDbPolyline
 62
253
  6
CONTINUOUS
 90
6
 70
0
 10
156.0624561264
 20
126.0644815594
 10
156.061637923
 20
126.0994323399
 10
156.0608057713
 20
126.1272199366
 10
156.0599636388
 20
126.1477048345
 10
156.059107558
 20
126.1607818498
 10
156.0582375289
 20
126.1663842285
  0
LWPOLYLINE
  5
272
100
AcDbEntity
  8
ASSI
100
AcDbPolyline
 62
253
  6
CONTINUOUS
 90
6
 70
0
 10
156.0624561264
 20
126.0644815594
 10
156.061637923
 20
126.0994323399
 10
156.0608057713
 20
126.1272199366
 10
156.0599636388
 20
126.1477048345
 10
156.059107558
 20
126.1607818498
 10
156.0582375289
 20
126.1663842285
  0
LINE
  5
273
100
AcDbEntity
  8
RACCORDO
100
AcDbLine
 62
253
  6
CONTINUOUS
 10
155.2668730641
 20
125.1565115805
 11
155.2655778754
 21
125.2222424847
  0
LINE
  5
274
100
AcDbEntity
  8
ASSI
100
AcDbLine
 62
253
  6
CONTINUOUS
 10
155.2668730641
 20
125.1565115805
 11
155.2655778754
 21
125.2222424847
  0
LINE
  5
275
100
AcDbEntity
  8
RACCORDO
100
AcDbLine
 62
253
  6
CONTINUOUS
 10
156.0640148081
 20
125.9738019306
 11
156.0624561264
 21
126.0644815594
  0
LINE
  5
276
100
AcDbEntity
  8
ASSI
100
AcDbLine
 62
253
  6
CONTINUOUS
 10
156.0640148081
 20
125.9738019306
 11
156.0624561264
 21
126.0644815594
  0
LINE
  5
277
100
AcDbEntity
  8
RACCORDO
100
AcDbLine
 62
253
  6
CONTINUOUS
 10
155.2684803621
 20
125.0400257613
 11
155.2668730641
 21
125.1565115805
  0
LINE
  5
278
100
AcDbEntity
  8
ASSI
100
AcDbLine
 62
253
  6
CONTINUOUS
 10
155.2684803621
 20
125.0400257613
 11
155.2668730641
 21
125.1565115805
  0
LINE
  5
279
100
AcDbEntity
  8
RACCORDO
100
AcDbLine
 62
253
  6
CONTINUOUS
 10
156.0661237458
 20
125.7895287471
 11
156.0640148081
 21
125.9738019306
  0
LINE
  5
27A
100
AcDbEntity
  8
ASSI
100
AcDbLine
 62
253
  6
CONTINUOUS
 10
156.0661237458
 20
125.7895287471
 11
156.0640148081
 21
125.9738019306
  0
LINE
  5
27B
100
AcDbEntity
  8
RACCORDO
100
AcDbLine
 62
253
  6
CONTINUOUS
 10
155.2696226381
 20
124.9067329192
 11
155.2684803621
 21
125.0400257613
  0
LINE
  5
27C
100
AcDbEntity
  8
ASSI
100
AcDbLine
 62
253
  6
CONTINUOUS
 10
155.2696226381
 20
124.9067329192
 11
155.2684803621
 21
125.0400257613
  0
LINE
  5
27D
100
AcDbEntity
  8
RACCORDO
100
AcDbLine
 62
253
  6
CONTINUOUS
 10
156.0687921377
 20
125.3756014537
 11
156.0661237458
 21
125.7895287471
  0
LINE
  5
27E
100
AcDbEntity
  8
ASSI
100
AcDbLine
 62
253
  6
CONTINUOUS
 10
156.0687921377
 20
125.3756014537
 11
156.0661237458
 21
125.7895287471
  0
LINE
  5
27F
100
AcDbEntity
  8
RACCORDO
100
AcDbLine
 62
253
  6
CONTINUOUS
 10
155.2703365268
 20
124.7141002693
 11
155.2696226381
 21
124.9067329192
  0
LINE
  5
280
100
AcDbEntity
  8
ASSI
100
AcDbLine
 62
253
  6
CONTINUOUS
 10
155.2703365268
 20
124.7141002693
 11
155.2696226381
 21
124.9067329192
  0
LINE
  5
281
100
AcDbEntity
  8
RACCORDO
100
AcDbLine
 62
253
  6
CONTINUOUS
 10
156.0702146829
 20
124.7683717933
 11
156.0687921377
 21
125.3756014537
  0
LINE
  5
282
100
AcDbEntity
  8
ASSI
100
AcDbLine
 62
253
  6
CONTINUOUS
 10
156.0702146829
 20
124.7683717933
 11
156.0687921377
 21
125.3756014537
  0
LINE
  5
283
100
AcDbEntity
  8
RACCORDO
100
AcDbLine
 62
7
  6
CONTINUOUS
 10
155.158193301
 20
83.3664284565
 11
155.158193301
 21
125.4666721442
  0
LINE
  5
284
100
AcDbEntity
  8
ASSI
100
AcDbLine
 62
7
  6
CONTINUOUS
 10
155.158193301
 20
83.3664284565
 11
155.158193301
 21
125.4666721442
  0
LWPOLYLINE
  5
285
100
AcDbEntity
  8
RACCORDO
100
AcDbPolyline
 62
253
  6
CONTINUOUS
 90
12
 70
0
 10
155.2740123077
 20
87.4986568086
 10
155.2770198724
 20
90.8796200813
 10
155.2793592208
 20
94.2618901496
 10
155.2810304839
 20
97.6459026064
 10
155.2820335308
 20
101.0312218588
 10
155.2823679683
 20
104.4165411277
 10
155.2820335351
 20
107.8018597557
 10
155.2810304926
 20
111.1871784003
 10
155.2793592314
 20
114.5711922546
 10
155.2770198818
 20
117.9534663831
 10
155.2740123136
 20
121.3344357213
 10
155.2703365268
 20
124.7141002693
  0
LWPOLYLINE
  5
286
100
AcDbEntity
  8
ASSI
100
AcDbPolyline
 62
253
  6
CONTINUOUS
 90
12
 70
0
 10
155.2740123077
 20
87.4986568086
 10
155.2770198724
 20
90.8796200813
 10
155.2793592208
 20
94.2618901496
 10
155.2810304839
 20
97.6459026064
 10
155.2820335308
 20
101.0312218588
 10
155.2823679683
 20
104.4165411277
 10
155.2820335351
 20
107.8018597557
 10
155.2810304926
 20
111.1871784003
 10
155.2793592314
 20
114.5711922546
 10
155.2770198818
 20
117.9534663831
 10
155.2740123136
 20
121.3344357213
 10
155.2703365268
 20
124.7141002693
  0
LWPOLYLINE
  5
287
100
AcDbEntity
  8
RACCORDO
100
AcDbPolyline
 62
253
  6
CONTINUOUS
 90
12
 70
0
 10
156.0738904756
 20
87.4527168674
 10
156.0768980473
 20
90.8428767433
 10
156.079237398
 20
94.23477438
 10
156.0809086561
 20
97.6279754579
 10
156.0819116932
 20
101.0220455752
 10
156.0822461244
 20
104.4165503033
 10
156.0819116931
 20
107.8110550313
 10
156.080908656
 20
111.2051251483
 10
156.0792373979
 20
114.5983262256
 10
156.0768980471
 20
117.9902238611
 10
156.0738904755
 20
121.3803837353
 10
156.0702146829
 20
124.7683717933
  0
LWPOLYLINE
  5
288
100
AcDbEntity
  8
ASSI
100
AcDbPolyline
 62
253
  6
CONTINUOUS
 90
12
 70
0
 10
156.0738904756
 20
87.4527168674
 10
156.0768980473
 20
90.8428767433
 10
156.079237398
 20
94.23477438
 10
156.0809086561
 20
97.6279754579
 10
156.0819116932
 20
101.0220455752
 10
156.0822461244
 20
104.4165503033
 10
156.0819116931
 20
107.8110550313
 10
156.080908656
 20
111.2051251483
 10
156.0792373979
 20
114.5983262256
 10
156.0768980471
 20
117.9902238611
 10
156.0738904755
 20
121.3803837353
 10
156.0702146829
 20
124.7683717933
  0
LINE
  5
289
100
AcDbEntity
  8
RACCORDO
100
AcDbLine
 62
253
  6
CONTINUOUS
 10
155.2698909115
 20
83.9734516501
 11
155.2740123077
 21
87.4986568086
  0
LINE
  5
28A
100
AcDbEntity
  8
ASSI
100
AcDbLine
 62
253
  6
CONTINUOUS
 10
155.2698909115
 20
83.9734516501
 11
155.2740123077
 21
87.4986568086
  0
LINE
  5
28B
100
AcDbEntity
  8
RACCORDO
100
AcDbLine
 62
253
  6
CONTINUOUS
 10
156.0683573263
 20
83.3658364279
 11
156.0738904756
 21
87.4527168674
  0
LINE
  5
28C
100
AcDbEntity
  8
ASSI
100
AcDbLine
 62
253
  6
CONTINUOUS
 10
156.0683573263
 20
83.3658364279
 11
156.0738904756
 21
87.4527168674
  0
LINE
  5
28D
100
AcDbEntity
  8
RACCORDO
100
AcDbLine
 62
253
  6
CONTINUOUS
 10
155.2689167018
 20
83.8359567259
 11
155.2698909115
 21
83.9734516501
  0
LINE
  5
28E
100
AcDbEntity
  8
ASSI
100
AcDbLine
 62
253
  6
CONTINUOUS
 10
155.2689167018
 20
83.8359567259
 11
155.2698909115
 21
83.9734516501
  0
LINE
  5
28F
100
AcDbEntity
  8
RACCORDO
100
AcDbLine
 62
253
  6
CONTINUOUS
 10
156.0654590821
 20
82.9761196704
 11
156.0683573263
 21
83.3658364279
  0
LINE
  5
290
100
AcDbEntity
  8
ASSI
100
AcDbLine
 62
253
  6
CONTINUOUS
 10
156.0654590821
 20
82.9761196704
 11
156.0683573263
 21
83.3658364279
  0
LINE
  5
291
100
AcDbEntity
  8
RACCORDO
100
AcDbLine
 62
253
  6
CONTINUOUS
 10
155.2674577918
 20
83.7132604134
 11
155.2689167018
 21
83.8359567259
  0
LINE
  5
292
100
AcDbEntity
  8
ASSI
100
AcDbLine
 62
253
  6
CONTINUOUS
 10
155.2674577918
 20
83.7132604134
 11
155.2689167018
 21
83.8359567259
  0
LINE
  5
293
100
AcDbEntity
  8
RACCORDO
100
AcDbLine
 62
253
  6
CONTINUOUS
 10
155.2662466374
 20
83.6424664419
 11
155.2674577918
 21
83.7132604134
  0
LINE
  5
294
100
AcDbEntity
  8
ASSI
100
AcDbLine
 62
253
  6
CONTINUOUS
 10
155.2662466374
 20
83.6424664419
 11
155.2674577918
 21
83.7132604134
  0
LINE
  5
295
100
AcDbEntity
  8
0
100
AcDbLine
 62
253
  6
CONTINUOUS
 10
164.8734891402
 20
119.5354267675
 11
165.0221121402
 21
119.7374587675
  0
LINE
  5
296
100
AcDbEntity
  8
RACCORDO
100
AcDbLine
 62
7
  6
CONTINUOUS
 10
160.7581742625
 20
94.4165503004
 11
160.7059118205
 21
94.4138115757
  0
LINE
  5
297
100
AcDbEntity
  8
ASSI
100
AcDbLine
 62
7
  6
CONTINUOUS
 10
160.7581742625
 20
94.4165503004
 11
160.7059118205
 21
94.4138115757
  0
LINE
  5
298
100
AcDbEntity
  8
RACCORDO
100
AcDbLine
 62
253
  6
CONTINUOUS
 10
160.7086695641
 20
94.4201801296
 11
160.7526099483
 21
94.4221146146
  0
LINE
  5
299
100
AcDbEntity
  8
ASSI
100
AcDbLine
 62
253
  6
CONTINUOUS
 10
160.7086695641
 20
94.4201801296
 11
160.7526099483
 21
94.4221146146
  0
LWPOLYLINE
  5
29A
100
AcDbEntity
  8
RACCORDO
100
AcDbPolyline
 62
253
  6
CONTINUOUS
 90
10
 70
0
 10
160.1528109358
 20
93.9184562828
 10
160.1700815046
 20
93.9185140607
 10
160.1868334089
 20
93.9186752669
 10
160.2025631924
 20
93.9189350566
 10
160.2167981177
 20
93.9192856224
 10
160.2291103729
 20
93.9197164283
 10
160.2391299299
 20
93.9202145268
 10
160.2465556641
 20
93.9207649482
 10
160.2511644051
 20
93.9213511504
 10
160.2528176432
 20
93.921955516
  0
LWPOLYLINE
  5
29B
100
AcDbEntity
  8
ASSI
100
AcDbPolyline
 62
253
  6
CONTINUOUS
 90
10
 70
0
 10
160.1528109358
 20
93.9184562828
 10
160.1700815046
 20
93.9185140607
 10
160.1868334089
 20
93.9186752669
 10
160.2025631924
 20
93.9189350566
 10
160.2167981177
 20
93.9192856224
 10
160.2291103729
 20
93.9197164283
 10
160.2391299299
 20
93.9202145268
 10
160.2465556641
 20
93.9207649482
 10
160.2511644051
 20
93.9213511504
 10
160.2528176432
 20
93.921955516
  0
LINE
  5
29C
100
AcDbEntity
  8
RACCORDO
100
AcDbLine
 62
253
  6
CONTINUOUS
 10
160.458193301
 20
93.9165503004
 11
160.258193301
 21
93.9165503004
  0
LINE
  5
29D
100
AcDbEntity
  8
RACCORDO
100
AcDbLine
 62
253
  6
CONTINUOUS
 10
172.058193301
 20
93.9165503004
 11
172.258193301
 21
93.9165502994
  0
LINE
  5
29E
100
AcDbEntity
  8
RACCORDO
100
AcDbLine
 62
253
  6
CONTINUOUS
 10
171.758193301
 20
94.2165503004
 11
160.758193301
 21
94.2165503004
  0
LINE
  5
29F
100
AcDbEntity
  8
RACCORDO
100
AcDbLine
 62
7
  6
CONTINUOUS
 10
171.758193301
 20
94.4165503004
 11
160.758193301
 21
94.4165503004
  0
LINE
  5
2A0
100
AcDbEntity
  8
RACCORDO
100
AcDbLine
 62
7
  6
CONTINUOUS
 10
160.7526099483
 20
94.4221146146
 11
171.7637766536
 21
94.4221146146
  0
LINE
  5
2A1
100
AcDbEntity
  8
ASSI
100
AcDbLine
 62
7
  6
CONTINUOUS
 10
160.7526099483
 20
94.4221146146
 11
171.7637766536
 21
94.4221146146
  0
LINE
  5
2A2
100
AcDbEntity
  8
RACCORDO
100
AcDbLine
 62
253
  6
CONTINUOUS
 10
160.7526099483
 20
94.5188115606
 11
171.7637766536
 21
94.5188115606
  0
LINE
  5
2A3
100
AcDbEntity
  8
ASSI
100
AcDbLine
 62
253
  6
CONTINUOUS
 10
160.7526099483
 20
94.5188115606
 11
171.7637766536
 21
94.5188115606
  0
LWPOLYLINE
  5
2A4
100
AcDbEntity
  8
RACCORDO
100
AcDbPolyline
 62
253
  6
CONTINUOUS
 90
10
 70
0
 10
172.3635756666
 20
93.9184561475
 10
172.3463062891
 20
93.918513994
 10
172.3295558371
 20
93.9186752543
 10
172.3138276426
 20
93.9189350828
 10
172.2995943204
 20
93.9192856718
 10
172.2872835658
 20
93.9197164865
 10
172.277265303
 20
93.9202145814
 10
172.2698405696
 20
93.9207649892
 10
172.2652324706
 20
93.9213511708
 10
172.2635794743
 20
93.9219555122
  0
LWPOLYLINE
  5
2A5
100
AcDbEntity
  8
ASSI
100
AcDbPolyline
 62
253
  6
CONTINUOUS
 90
10
 70
0
 10
172.3635756666
 20
93.9184561475
 10
172.3463062891
 20
93.918513994
 10
172.3295558371
 20
93.9186752543
 10
172.3138276426
 20
93.9189350828
 10
172.2995943204
 20
93.9192856718
 10
172.2872835658
 20
93.9197164865
 10
172.277265303
 20
93.9202145814
 10
172.2698405696
 20
93.9207649892
 10
172.2652324706
 20
93.9213511708
 10
172.2635794743
 20
93.9219555122
  0
LINE
  5
2A6
100
AcDbEntity
  8
RACCORDO
100
AcDbLine
 62
253
  6
CONTINUOUS
 10
171.7637766536
 20
94.4221146146
 11
171.8076743581
 21
94.4201838917
  0
LINE
  5
2A7
100
AcDbEntity
  8
ASSI
100
AcDbLine
 62
253
  6
CONTINUOUS
 10
171.7637766536
 20
94.4221146146
 11
171.8076743581
 21
94.4201838917
  0
LWPOLYLINE
  5
2A8
100
AcDbEntity
  8
RACCORDO
100
AcDbPolyline
 62
253
  6
CONTINUOUS
 90
19
 70
0
 10
171.7637766536
 20
94.5188115606
 10
171.8170495498
 20
94.5163129426
 10
171.869046838
 20
94.509430358
 10
171.919768518
 20
94.4981638169
 10
171.9695672808
 20
94.4823410412
 10
172.0180904356
 20
94.4621343488
 10
172.0642799097
 20
94.43806065
 10
172.1080604617
 20
94.4100699024
 10
172.149507333
 20
94.3782122162
 10
172.1877881762
 20
94.3431547272
 10
172.2228590745
 20
94.3048422645
 10
172.2547639445
 20
94.2633300796
 10
172.2828021888
 20
94.2194509289
 10
172.3069201137
 20
94.1731002263
 10
172.3271714127
 20
94.1243826338
 10
172.3430165692
 20
94.074444753
 10
172.3542757443
 20
94.0236687908
 10
172.3611287767
 20
93.9716725811
 10
172.3635756666
 20
93.9184561475
  0
LWPOLYLINE
  5
2A9
100
AcDbEntity
  8
ASSI
100
AcDbPolyline
 62
253
  6
CONTINUOUS
 90
19
 70
0
 10
171.7637766536
 20
94.5188115606
 10
171.8170495498
 20
94.5163129426
 10
171.869046838
 20
94.509430358
 10
171.919768518
 20
94.4981638169
 10
171.9695672808
 20
94.4823410412
 10
172.0180904356
 20
94.4621343488
 10
172.0642799097
 20
94.43806065
 10
172.1080604617
 20
94.4100699024
 10
172.149507333
 20
94.3782122162
 10
172.1877881762
 20
94.3431547272
 10
172.2228590745
 20
94.3048422645
 10
172.2547639445
 20
94.2633300796
 10
172.2828021888
 20
94.2194509289
 10
172.3069201137
 20
94.1731002263
 10
172.3271714127
 20
94.1243826338
 10
172.3430165692
 20
94.074444753
 10
172.3542757443
 20
94.0236687908
 10
172.3611287767
 20
93.9716725811
 10
172.3635756666
 20
93.9184561475
  0
LINE
  5
2AA
100
AcDbEntity
  8
ASSI
100
AcDbLine
 62
7
  6
CONTINUOUS
 10
171.8104747814
 20
94.4138115757
 11
171.7582123394
 21
94.4165503004
  0
LINE
  5
2AB
100
AcDbEntity
  8
RACCORDO
100
AcDbLine
 62
253
  6
CONTINUOUS
 10
176.5583151448
 20
126.2665503004
 11
176.458149073
 21
126.1663842285
  0
LINE
  5
2AC
100
AcDbEntity
  8
ASSI
100
AcDbLine
 62
253
  6
CONTINUOUS
 10
176.5583151448
 20
126.2665503004
 11
176.458149073
 21
126.1663842285
  0
LWPOLYLINE
  5
2AD
100
AcDbEntity
  8
RACCORDO
100
AcDbPolyline
 62
7
  6
CONTINUOUS
 90
15
 70
0
 10
160.7059118205
 20
94.4138115757
 10
160.6542220213
 20
94.4056251627
 10
160.6036711
 20
94.3920806659
 10
160.554812754
 20
94.3733263746
 10
160.508182342
 20
94.3495676605
 10
160.4642909837
 20
94.3210647994
 10
160.4236195405
 20
94.2881299939
 10
160.3866136075
 20
94.2511240608
 10
160.3536788019
 20
94.2104526176
 10
160.3251759408
 20
94.1665612593
 10
160.3014172267
 20
94.1199308473
 10
160.2826629354
 20
94.0710725014
 10
160.2691184386
 20
94.02052158
 10
160.2609320256
 20
93.9688317808
 10
160.258193301
 20
93.9165693388
  0
LWPOLYLINE
  5
2AE
100
AcDbEntity
  8
ASSI
100
AcDbPolyline
 62
7
  6
CONTINUOUS
 90
15
 70
0
 10
160.7059118205
 20
94.4138115757
 10
160.6542220213
 20
94.4056251627
 10
160.6036711
 20
94.3920806659
 10
160.554812754
 20
94.3733263746
 10
160.508182342
 20
94.3495676605
 10
160.4642909837
 20
94.3210647994
 10
160.4236195405
 20
94.2881299939
 10
160.3866136075
 20
94.2511240608
 10
160.3536788019
 20
94.2104526176
 10
160.3251759408
 20
94.1665612593
 10
160.3014172267
 20
94.1199308473
 10
160.2826629354
 20
94.0710725014
 10
160.2691184386
 20
94.02052158
 10
160.2609320256
 20
93.9688317808
 10
160.258193301
 20
93.9165693388
  0
LINE
  5
2AF
100
AcDbEntity
  8
0
100
AcDbLine
 62
253
  6
CONTINUOUS
 10
168.332002877
 20
96.4165503004
 11
167.4034318912
 21
96.4165503004
  0
LINE
  5
2B0
100
AcDbEntity
  8
0
100
AcDbLine
 62
253
  6
CONTINUOUS
 10
164.8034315813
 20
96.4165503004
 11
164.0605744827
 21
96.4165503004
  0
LINE
  5
2B1
100
AcDbEntity
  8
0
100
AcDbLine
 62
253
  6
CONTINUOUS
 10
161.0272411364
 20
96.4165503004
 11
161.7700982738
 21
96.4165503004
  0
LINE
  5
2B2
100
AcDbEntity
  8
0
100
AcDbLine
 62
253
  6
CONTINUOUS
 10
170.7462886798
 20
96.4165503004
 11
171.6748602855
 21
96.4165503004
  0
LWPOLYLINE
  5
2B3
100
AcDbEntity
  8
RACCORDO
100
AcDbPolyline
 62
253
  6
CONTINUOUS
 90
17
 70
0
 10
171.8076743581
 20
94.4201838917
 10
171.851132933
 20
94.4144228257
 10
171.8938217525
 20
94.4049017226
 10
171.9354107407
 20
94.3917222727
 10
171.9756006392
 20
94.3750080439
 10
172.0141219697
 20
94.3548953293
 10
172.0506756342
 20
94.3315640028
 10
172.0850148565
 20
94.3051965203
 10
172.1169569159
 20
94.2759419363
 10
172.1462617703
 20
94.2440125278
 10
172.1727020231
 20
94.2096478714
 10
172.1961130811
 20
94.1730382208
 10
172.2163077442
 20
94.1344246161
 10
172.2330967988
 20
94.094108751
 10
172.2463303117
 20
94.0523865726
 10
172.2558829469
 20
94.0095692272
 10
172.2616559745
 20
93.9659810927
  0
LWPOLYLINE
  5
2B4
100
AcDbEntity
  8
ASSI
100
AcDbPolyline
 62
253
  6
CONTINUOUS
 90
17
 70
0
 10
171.8076743581
 20
94.4201838917
 10
171.851132933
 20
94.4144228257
 10
171.8938217525
 20
94.4049017226
 10
171.9354107407
 20
94.3917222727
 10
171.9756006392
 20
94.3750080439
 10
172.0141219697
 20
94.3548953293
 10
172.0506756342
 20
94.3315640028
 10
172.0850148565
 20
94.3051965203
 10
172.1169569159
 20
94.2759419363
 10
172.1462617703
 20
94.2440125278
 10
172.1727020231
 20
94.2096478714
 10
172.1961130811
 20
94.1730382208
 10
172.2163077442
 20
94.1344246161
 10
172.2330967988
 20
94.094108751
 10
172.2463303117
 20
94.0523865726
 10
172.2558829469
 20
94.0095692272
 10
172.2616559745
 20
93.9659810927
  0
LINE
  5
2B5
100
AcDbEntity
  8
0
100
AcDbLine
 62
253
  6
CONTINUOUS
 10
160.6558125484
 20
96.6022645944
 11
161.0272411364
 21
96.4165503004
  0
LINE
  5
2B6
100
AcDbEntity
  8
RACCORDO
100
AcDbLine
 62
253
  6
CONTINUOUS
 10
176.458149073
 20
82.6667163722
 11
176.5583151448
 21
82.5665503004
  0
LINE
  5
2B7
100
AcDbEntity
  8
ASSI
100
AcDbLine
 62
253
  6
CONTINUOUS
 10
176.458149073
 20
82.6667163722
 11
176.5583151448
 21
82.5665503004
  0
LWPOLYLINE
  5
2B8
100
AcDbEntity
  8
RACCORDO
100
AcDbPolyline
 62
7
  6
CONTINUOUS
 90
16
 70
0
 10
160.258193301
 20
90.4165312619
 10
160.2609320256
 20
90.3642688199
 10
160.2691184386
 20
90.3125790207
 10
160.2826629354
 20
90.2620280994
 10
160.3014172267
 20
90.2131697534
 10
160.3251759408
 20
90.1665393414
 10
160.3536788019
 20
90.1226479831
 10
160.3866136075
 20
90.08197654
 10
160.4236195405
 20
90.0449706069
 10
160.4642909837
 20
90.0120358014
 10
160.508182342
 20
89.9835329403
 10
160.554812754
 20
89.9597742261
 10
160.6036711
 20
89.9410199348
 10
160.6542220213
 20
89.927475438
 10
160.7059118205
 20
89.919289025
 10
160.7581742625
 20
89.9165503004
  0
LWPOLYLINE
  5
2B9
100
AcDbEntity
  8
ASSI
100
AcDbPolyline
 62
7
  6
CONTINUOUS
 90
15
 70
0
 10
160.258193301
 20
90.4165312619
 10
160.2609320256
 20
90.3642688199
 10
160.2691184386
 20
90.3125790207
 10
160.2826629354
 20
90.2620280994
 10
160.3014172267
 20
90.2131697534
 10
160.3251759408
 20
90.1665393414
 10
160.3536788019
 20
90.1226479831
 10
160.3866136075
 20
90.08197654
 10
160.4236195405
 20
90.0449706069
 10
160.4642909837
 20
90.0120358014
 10
160.508182342
 20
89.9835329403
 10
160.554812754
 20
89.9597742261
 10
160.6036711
 20
89.9410199348
 10
160.6542220213
 20
89.927475438
 10
160.7059118205
 20
89.919289025
  0
LINE
  5
2BA
100
AcDbEntity
  8
RACCORDO
100
AcDbLine
 62
253
  6
CONTINUOUS
 10
160.2560193636
 20
90.3684259213
 11
160.254059168
 21
90.4123971289
  0
LINE
  5
2BB
100
AcDbEntity
  8
ASSI
100
AcDbLine
 62
253
  6
CONTINUOUS
 10
160.2560193636
 20
90.3684259213
 11
160.254059168
 21
90.4123971289
  0
LWPOLYLINE
  5
2BC
100
AcDbEntity
  8
RACCORDO
100
AcDbPolyline
 62
253
  6
CONTINUOUS
 90
8
 70
0
 10
156.0582375289
 20
82.6667163722
 10
156.0591077031
 20
82.6723192614
 10
156.0599638871
 20
82.6853972745
 10
156.060806081
 20
82.7058832145
 10
156.0616382242
 20
82.7336710724
 10
156.0624563772
 20
82.7686211228
 10
156.0632487214
 20
82.8105646776
 10
156.0654590821
 20
82.9761196704
  0
LWPOLYLINE
  5
2BD
100
AcDbEntity
  8
ASSI
100
AcDbPolyline
 62
253
  6
CONTINUOUS
 90
8
 70
0
 10
156.0582375289
 20
82.6667163722
 10
156.0591077031
 20
82.6723192614
 10
156.0599638871
 20
82.6853972745
 10
156.060806081
 20
82.7058832145
 10
156.0616382242
 20
82.7336710724
 10
156.0624563772
 20
82.7686211228
 10
156.0632487214
 20
82.8105646776
 10
156.0654590821
 20
82.9761196704
  0
LINE
  5
2BE
100
AcDbEntity
  8
0
100
AcDbLine
 62
253
  6
CONTINUOUS
 10
164.8033961402
 20
119.3675707675
 11
164.8734891402
 21
119.5354267675
  0
LINE
  5
2BF
100
AcDbEntity
  8
RACCORDO
100
AcDbLine
 62
253
  6
CONTINUOUS
 10
177.358193301
 20
125.4666721442
 11
177.2580272291
 21
125.3665060724
  0
LINE
  5
2C0
100
AcDbEntity
  8
ASSI
100
AcDbLine
 62
253
  6
CONTINUOUS
 10
177.358193301
 20
125.4666721442
 11
177.2580272291
 21
125.3665060724
  0
LINE
  5
2C1
100
AcDbEntity
  8
0
100
AcDbLine
 62
253
  6
CONTINUOUS
 10
164.0605744827
 20
97.4070265093
 11
164.8034315813
 21
97.2832169929
  0
LINE
  5
2C2
100
AcDbEntity
  8
0
100
AcDbLine
 62
253
  6
CONTINUOUS
 10
163.8748602855
 20
97.5308360257
 11
164.0605744827
 21
97.4070265093
  0
LINE
  5
2C3
100
AcDbEntity
  8
0
100
AcDbLine
 62
253
  6
CONTINUOUS
 10
164.8034315813
 20
97.2832169929
 11
164.9891457784
 21
97.1594074764
  0
LINE
  5
2C4
100
AcDbEntity
  8
0
100
AcDbLine
 62
253
  6
CONTINUOUS
 10
164.0605744827
 20
96.4165503004
 11
163.8748602855
 21
96.6022645944
  0
LINE
  5
2C5
100
AcDbEntity
  8
RACCORDO
100
AcDbLine
 62
253
  6
CONTINUOUS
 10
177.2580272291
 20
83.4665945283
 11
177.358193301
 21
83.3664284565
  0
LINE
  5
2C6
100
AcDbEntity
  8
ASSI
100
AcDbLine
 62
253
  6
CONTINUOUS
 10
177.2580272291
 20
83.4665945283
 11
177.358193301
 21
83.3664284565
  0
LINE
  5
2C7
100
AcDbEntity
  8
RACCORDO
100
AcDbLine
 62
253
  6
CONTINUOUS
 10
160.1540629757
 20
90.4077275213
 11
160.1528109353
 21
93.9184561475
  0
LINE
  5
2C8
100
AcDbEntity
  8
ASSI
100
AcDbLine
 62
253
  6
CONTINUOUS
 10
160.1540629757
 20
90.4077275213
 11
160.1528109353
 21
93.9184561475
  0
LINE
  5
2C9
100
AcDbEntity
  8
RACCORDO
100
AcDbLine
 62
253
  6
CONTINUOUS
 10
160.254059168
 20
90.4123971289
 11
160.2528071276
 21
93.9219555122
  0
LINE
  5
2CA
100
AcDbEntity
  8
ASSI
100
AcDbLine
 62
253
  6
CONTINUOUS
 10
160.254059168
 20
90.4123971289
 11
160.2528071276
 21
93.9219555122
  0
LINE
  5
2CB
100
AcDbEntity
  8
RACCORDO
100
AcDbLine
 62
7
  6
CONTINUOUS
 10
160.258193301
 20
93.9165503004
 11
160.258193301
 21
90.4165503004
  0
LINE
  5
2CC
100
AcDbEntity
  8
RACCORDO
100
AcDbLine
 62
253
  6
CONTINUOUS
 10
160.458193301
 20
93.9165503004
 11
160.458193301
 21
90.4165503004
  0
LINE
  5
2CD
100
AcDbEntity
  8
0
100
AcDbLine
 62
253
  6
CONTINUOUS
 10
160.6558125484
 20
98.0879788497
 11
160.6558125484
 21
96.6022645294
  0
LINE
  5
2CE
100
AcDbEntity
  8
RACCORDO
100
AcDbLine
 62
253
  6
CONTINUOUS
 10
160.7526099483
 20
94.5188115606
 11
160.7526099483
 21
94.4221146146
  0
LINE
  5
2CF
100
AcDbEntity
  8
ASSI
100
AcDbLine
 62
253
  6
CONTINUOUS
 10
160.7526099483
 20
94.5188115606
 11
160.7526099483
 21
94.4221146146
  0
LINE
  5
2D0
100
AcDbEntity
  8
RACCORDO
100
AcDbLine
 62
253
  6
CONTINUOUS
 10
160.7542900423
 20
89.8078003045
 11
160.7542900384
 21
89.9126660802
  0
LINE
  5
2D1
100
AcDbEntity
  8
ASSI
100
AcDbLine
 62
253
  6
CONTINUOUS
 10
160.7542900423
 20
89.8078003045
 11
160.7542900384
 21
89.9126660802
  0
LINE
  5
2D2
100
AcDbEntity
  8
RACCORDO
100
AcDbLine
 62
253
  6
CONTINUOUS
 10
160.758193301
 20
90.1165503004
 11
160.758193301
 21
89.9165503004
  0
LINE
  5
2D3
100
AcDbEntity
  8
RACCORDO
100
AcDbLine
 62
253
  6
CONTINUOUS
 10
160.758193301
 20
94.2165503004
 11
160.7581933019
 21
94.4165503004
  0
LINE
  5
2D4
100
AcDbEntity
  8
0
100
AcDbLine
 62
253
  6
CONTINUOUS
 10
161.1510503757
 20
101.6879788497
 11
161.1510503757
 21
100.2022645742
  0
LINE
  5
2D5
100
AcDbEntity
  8
RACCORDO
100
AcDbLine
 62
253
  6
CONTINUOUS
 10
160.2528071276
 20
93.9219555122
 11
160.2547268591
 21
93.9659382039
  0
LINE
  5
2D6
100
AcDbEntity
  8
ASSI
100
AcDbLine
 62
253
  6
CONTINUOUS
 10
160.2528071276
 20
93.9219555122
 11
160.2547268591
 21
93.9659382039
  0
LWPOLYLINE
  5
2D7
100
AcDbEntity
  8
RACCORDO
100
AcDbPolyline
 62
253
  6
CONTINUOUS
 90
19
 70
0
 10
160.1528109353
 20
93.9184561475
 10
160.1553027177
 20
93.9718457223
 10
160.1621842238
 20
94.0239488237
 10
160.1734554536
 20
94.0747654265
 10
160.1892917411
 20
94.1246494965
 10
160.2095177522
 20
94.1732470246
 10
160.2336074852
 20
94.2194960075
 10
160.2616107715
 20
94.2633187125
 10
160.2934777798
 20
94.3047927975
 10
160.3285330135
 20
94.3430893184
 10
160.3668301023
 20
94.3781626823
 10
160.4083154166
 20
94.4100584022
 10
160.4521525711
 20
94.4380841799
 10
160.498443564
 20
94.4621859733
 10
160.5470863972
 20
94.4824177565
 10
160.5969386902
 20
94.498249252
 10
160.6476196497
 20
94.5095036859
 10
160.6995100691
 20
94.5163577921
 10
160.7526099483
 20
94.5188115606
  0
LWPOLYLINE
  5
2D8
100
AcDbEntity
  8
ASSI
100
AcDbPolyline
 62
253
  6
CONTINUOUS
 90
19
 70
0
 10
160.1528109353
 20
93.9184561475
 10
160.1553027177
 20
93.9718457223
 10
160.1621842238
 20
94.0239488237
 10
160.1734554536
 20
94.0747654265
 10
160.1892917411
 20
94.1246494965
 10
160.2095177522
 20
94.1732470246
 10
160.2336074852
 20
94.2194960075
 10
160.2616107715
 20
94.2633187125
 10
160.2934777798
 20
94.3047927975
 10
160.3285330135
 20
94.3430893184
 10
160.3668301023
 20
94.3781626823
 10
160.4083154166
 20
94.4100584022
 10
160.4521525711
 20
94.4380841799
 10
160.498443564
 20
94.4621859733
 10
160.5470863972
 20
94.4824177565
 10
160.5969386902
 20
94.498249252
 10
160.6476196497
 20
94.5095036859
 10
160.6995100691
 20
94.5163577921
 10
160.7526099483
 20
94.5188115606
  0
LINE
  5
2D9
100
AcDbEntity
  8
0
100
AcDbLine
 62
253
  6
CONTINUOUS
 10
163.7347421402
 20
115.7245487675
 11
163.4386921402
 21
114.4519367675
  0
LINE
  5
2DA
100
AcDbEntity
  8
0
100
AcDbLine
 62
253
  6
CONTINUOUS
 10
164.0479041402
 20
116.9507897675
 11
164.8033961402
 21
119.3675707675
  0
LINE
  5
2DB
100
AcDbEntity
  8
0
100
AcDbLine
 62
253
  6
CONTINUOUS
 10
171.6748602855
 20
98.2736932018
 11
170.7462886798
 21
98.2736932018
  0
LINE
  5
2DC
100
AcDbEntity
  8
0
100
AcDbLine
 62
253
  6
CONTINUOUS
 10
169.8177170742
 20
98.2736932018
 11
169.0748602855
 21
98.2736932018
  0
LINE
  5
2DD
100
AcDbEntity
  8
0
100
AcDbLine
 62
253
  6
CONTINUOUS
 10
166.4748602855
 20
98.2736932018
 11
165.732002877
 21
98.2736932018
  0
LINE
  5
2DE
100
AcDbEntity
  8
0
100
AcDbLine
 62
253
  6
CONTINUOUS
 10
164.8034315813
 20
98.2736932018
 11
164.0605744827
 21
98.2736932018
  0
LINE
  5
2DF
100
AcDbEntity
  8
0
100
AcDbLine
 62
253
  6
CONTINUOUS
 10
161.7700982738
 20
98.2736932018
 11
161.0272411364
 21
98.2736932018
  0
LINE
  5
2E0
100
AcDbEntity
  8
0
100
AcDbLine
 62
253
  6
CONTINUOUS
 10
162.9462886798
 20
99.0165503004
 11
162.8843839991
 21
99.0165503004
  0
LINE
  5
2E1
100
AcDbEntity
  8
0
100
AcDbLine
 62
253
  6
CONTINUOUS
 10
161.1510503757
 20
100.2022645944
 11
161.5224789637
 21
100.0165503004
  0
LINE
  5
2E2
100
AcDbEntity
  8
RACCORDO
100
AcDbLine
 62
253
  6
CONTINUOUS
 10
172.258193301
 20
90.4165312619
 11
172.2623274339
 21
90.4123971289
  0
LINE
  5
2E3
100
AcDbEntity
  8
ASSI
100
AcDbLine
 62
253
  6
CONTINUOUS
 10
172.258193301
 20
90.4165312619
 11
172.2623274339
 21
90.4123971289
  0
LINE
  5
2E4
100
AcDbEntity
  8
0
100
AcDbLine
 62
253
  6
CONTINUOUS
 10
164.9891457784
 20
98.0879788497
 11
164.8034315813
 21
98.2736932018
  0
LINE
  5
2E5
100
AcDbEntity
  8
0
100
AcDbLine
 62
253
  6
CONTINUOUS
 10
163.0081932771
 20
100.3879788884
 11
163.3796218264
 21
100.0165503004
  0
LINE
  5
2E6
100
AcDbEntity
  8
0
100
AcDbLine
 62
253
  6
CONTINUOUS
 10
167.4034318912
 20
96.4165503004
 11
167.2177170742
 21
96.6022645944
  0
LINE
  5
2E7
100
AcDbEntity
  8
0
100
AcDbLine
 62
253
  6
CONTINUOUS
 10
161.7700982738
 20
96.4165503004
 11
161.7700982738
 21
99.0165502204
  0
LINE
  5
2E8
100
AcDbEntity
  8
0
100
AcDbLine
 62
253
  6
CONTINUOUS
 10
162.2653361011
 20
100.0165503004
 11
162.2653361011
 21
102.6165501672
  0
LINE
  5
2E9
100
AcDbEntity
  8
0
100
AcDbLine
 62
253
  6
CONTINUOUS
 10
162.8843839991
 20
99.0165503004
 11
162.8843839991
 21
98.8308359516
  0
LINE
  5
2EA
100
AcDbEntity
  8
0
100
AcDbLine
 62
253
  6
CONTINUOUS
 10
162.8843839991
 20
98.2736932018
 11
162.8843839991
 21
96.4165502542
  0
LINE
  5
2EB
100
AcDbEntity
  8
0
100
AcDbLine
 62
253
  6
CONTINUOUS
 10
163.0081932771
 20
101.5022646525
 11
163.0081932771
 21
100.3879788665
  0
LWPOLYLINE
  5
2EC
100
AcDbEntity
  8
RACCORDO
100
AcDbPolyline
 62
253
  6
CONTINUOUS
 90
17
 70
0
 10
160.2547268591
 20
93.9659382039
 10
160.2604868826
 20
94.0094746579
 10
160.2700149272
 20
94.052233075
 10
160.2832074091
 20
94.093883516
 10
160.2999386403
 20
94.1341251947
 10
160.3200693184
 20
94.1726857257
 10
160.3434166024
 20
94.2092660518
 10
160.3697958065
 20
94.2436208548
 10
160.3990553744
 20
94.2755676311
 10
160.4309804168
 20
94.3048677931
 10
160.4653298884
 20
94.3312965452
 10
160.5019131501
 20
94.3546917007
 10
160.5404875595
 20
94.3748682791
 10
160.5807514528
 20
94.3916401526
 10
160.622411953
 20
94.4048604951
 10
160.6651595116
 20
94.4144061053
 10
160.7086695641
 20
94.4201801296
  0
LWPOLYLINE
  5
2ED
100
AcDbEntity
  8
ASSI
100
AcDbPolyline
 62
253
  6
CONTINUOUS
 90
17
 70
0
 10
160.2547268591
 20
93.9659382039
 10
160.2604868826
 20
94.0094746579
 10
160.2700149272
 20
94.052233075
 10
160.2832074091
 20
94.093883516
 10
160.2999386403
 20
94.1341251947
 10
160.3200693184
 20
94.1726857257
 10
160.3434166024
 20
94.2092660518
 10
160.3697958065
 20
94.2436208548
 10
160.3990553744
 20
94.2755676311
 10
160.4309804168
 20
94.3048677931
 10
160.4653298884
 20
94.3312965452
 10
160.5019131501
 20
94.3546917007
 10
160.5404875595
 20
94.3748682791
 10
160.5807514528
 20
94.3916401526
 10
160.622411953
 20
94.4048604951
 10
160.6651595116
 20
94.4144061053
 10
160.7086695641
 20
94.4201801296
  0
LWPOLYLINE
  5
2EE
100
AcDbEntity
  8
RACCORDO
100
AcDbPolyline
 62
253
  6
CONTINUOUS
 90
10
 70
0
 10
155.2583593728
 20
83.4665945283
 10
155.2592259923
 20
83.4692478306
 10
155.2600798407
 20
83.4753083838
 10
155.2609209182
 20
83.4847761878
 10
155.2617536202
 20
83.4977312915
 10
155.2625735511
 20
83.5140936461
 10
155.2633675248
 20
83.5336231048
 10
155.2641349273
 20
83.5563717795
 10
155.2648763725
 20
83.5822875583
 10
155.2662466374
 20
83.6424664419
  0
LWPOLYLINE
  5
2EF
100
AcDbEntity
  8
ASSI
100
AcDbPolyline
 62
253
  6
CONTINUOUS
 90
10
 70
0
 10
155.2583593728
 20
83.4665945283
 10
155.2592259923
 20
83.4692478306
 10
155.2600798407
 20
83.4753083838
 10
155.2609209182
 20
83.4847761878
 10
155.2617536202
 20
83.4977312915
 10
155.2625735511
 20
83.5140936461
 10
155.2633675248
 20
83.5336231048
 10
155.2641349273
 20
83.5563717795
 10
155.2648763725
 20
83.5822875583
 10
155.2662466374
 20
83.6424664419
  0
LINE
  5
2F0
100
AcDbEntity
  8
0
100
AcDbLine
 62
253
  6
CONTINUOUS
 10
161.5224789637
 20
100.0165503004
 11
162.2653361011
 21
100.0165503004
  0
LINE
  5
2F1
100
AcDbEntity
  8
0
100
AcDbLine
 62
253
  6
CONTINUOUS
 10
163.3796218264
 20
100.0165503004
 11
163.7510503757
 21
100.0165503004
  0
LINE
  5
2F2
100
AcDbEntity
  8
0
100
AcDbLine
 62
253
  6
CONTINUOUS
 10
169.1367645729
 20
100.0165503004
 11
169.5081929672
 21
100.0165503004
  0
LINE
  5
2F3
100
AcDbEntity
  8
0
100
AcDbLine
 62
253
  6
CONTINUOUS
 10
164.12247908
 20
101.5022646525
 11
163.7510503757
 21
101.8736932018
  0
LINE
  5
2F4
100
AcDbEntity
  8
0
100
AcDbLine
 62
253
  6
CONTINUOUS
 10
163.8748602855
 20
98.0879788497
 11
163.8748602855
 21
97.5308360379
  0
LINE
  5
2F5
100
AcDbEntity
  8
0
100
AcDbLine
 62
253
  6
CONTINUOUS
 10
164.12247908
 20
100.3879788884
 11
164.12247908
 21
101.5022646744
  0
LINE
  5
2F6
100
AcDbEntity
  8
0
100
AcDbLine
 62
253
  6
CONTINUOUS
 10
165.9001531402
 20
114.4220587675
 11
165.5052171402
 21
112.9164947675
  0
LINE
  5
2F7
100
AcDbEntity
  8
0
100
AcDbLine
 62
253
  6
CONTINUOUS
 10
162.8843839991
 20
98.8308359482
 11
162.9462886798
 21
99.0165503004
  0
LINE
  5
2F8
100
AcDbEntity
  8
0
100
AcDbLine
 62
253
  6
CONTINUOUS
 10
171.3653361785
 20
101.8736932018
 11
170.62247877
 21
101.8736932018
  0
LINE
  5
2F9
100
AcDbEntity
  8
0
100
AcDbLine
 62
253
  6
CONTINUOUS
 10
169.5081929672
 20
101.8736932018
 11
169.1367645729
 21
101.8736932018
  0
LINE
  5
2FA
100
AcDbEntity
  8
0
100
AcDbLine
 62
253
  6
CONTINUOUS
 10
167.8367645729
 20
101.8736932018
 11
166.9081929672
 21
101.8736932018
  0
LINE
  5
2FB
100
AcDbEntity
  8
0
100
AcDbLine
 62
253
  6
CONTINUOUS
 10
163.7510503757
 20
101.8736932018
 11
163.3796218264
 21
101.8736932018
  0
LINE
  5
2FC
100
AcDbEntity
  8
0
100
AcDbLine
 62
253
  6
CONTINUOUS
 10
162.2653361011
 20
101.8736932018
 11
161.5224789637
 21
101.8736932018
  0
LINE
  5
2FD
100
AcDbEntity
  8
0
100
AcDbLine
 62
253
  6
CONTINUOUS
 10
164.9891457784
 20
97.1594074764
 11
164.9891457784
 21
96.6022645905
  0
LINE
  5
2FE
100
AcDbEntity
  8
0
100
AcDbLine
 62
253
  6
CONTINUOUS
 10
166.0415267456
 20
99.0165503004
 11
166.0415267456
 21
96.4165503803
  0
LINE
  5
2FF
100
AcDbEntity
  8
0
100
AcDbLine
 62
253
  6
CONTINUOUS
 10
163.3796218264
 20
101.8736932018
 11
163.0081932771
 21
101.5022646525
  0
LINE
  5
300
100
AcDbEntity
  8
0
100
AcDbLine
 62
253
  6
CONTINUOUS
 10
161.5224789637
 20
101.8736932018
 11
161.1510503757
 21
101.6879788497
  0
LINE
  5
301
100
AcDbEntity
  8
0
100
AcDbLine
 62
253
  6
CONTINUOUS
 10
168.7653361785
 20
100.3879788884
 11
169.1367645729
 21
100.0165503004
  0
LINE
  5
302
100
AcDbEntity
  8
0
100
AcDbLine
 62
253
  6
CONTINUOUS
 10
168.02247877
 20
101.6879788497
 11
167.8367645729
 21
101.8736932018
  0
LINE
  5
303
100
AcDbEntity
  8
0
100
AcDbLine
 62
253
  6
CONTINUOUS
 10
171.8605738628
 20
98.0879788497
 11
171.6748602855
 21
98.2736932018
  0
LINE
  5
304
100
AcDbEntity
  8
0
100
AcDbLine
 62
253
  6
CONTINUOUS
 10
169.9415267456
 20
98.0879788497
 11
169.8177170742
 21
98.2736932018
  0
LINE
  5
305
100
AcDbEntity
  8
0
100
AcDbLine
 62
253
  6
CONTINUOUS
 10
166.9081929672
 20
101.8736932018
 11
166.9081929672
 21
100.016550308
  0
LINE
  5
306
100
AcDbEntity
  8
0
100
AcDbLine
 62
253
  6
CONTINUOUS
 10
167.2177170742
 20
96.6022645944
 11
167.2177170742
 21
98.2736932096
  0
LINE
  5
307
100
AcDbEntity
  8
0
100
AcDbLine
 62
253
  6
CONTINUOUS
 10
168.02247877
 20
100.0165503004
 11
168.02247877
 21
101.6879789043
  0
LINE
  5
308
100
AcDbEntity
  8
0
100
AcDbLine
 62
253
  6
CONTINUOUS
 10
163.7510503757
 20
100.0165503004
 11
164.12247908
 21
100.3879788884
  0
LINE
  5
309
100
AcDbEntity
  8
0
100
AcDbLine
 62
253
  6
CONTINUOUS
 10
169.8796219814
 20
101.5022646525
 11
169.5081929672
 21
101.8736932018
  0
LINE
  5
30A
100
AcDbEntity
  8
0
100
AcDbLine
 62
253
  6
CONTINUOUS
 10
168.332002877
 20
98.2736932018
 11
168.332002877
 21
96.4165502542
  0
LINE
  5
30B
100
AcDbEntity
  8
0
100
AcDbLine
 62
253
  6
CONTINUOUS
 10
168.7653361785
 20
101.5022646525
 11
168.7653361785
 21
100.3879788665
  0
LINE
  5
30C
100
AcDbEntity
  8
0
100
AcDbLine
 62
253
  6
CONTINUOUS
 10
169.0748602855
 20
98.2736932018
 11
169.0748602855
 21
96.4165502542
  0
LINE
  5
30D
100
AcDbEntity
  8
0
100
AcDbLine
 62
253
  6
CONTINUOUS
 10
164.0605744827
 20
98.2736932018
 11
163.8748602855
 21
98.0879788497
  0
LINE
  5
30E
100
AcDbEntity
  8
0
100
AcDbLine
 62
253
  6
CONTINUOUS
 10
161.0272411364
 20
98.2736932018
 11
160.6558125484
 21
98.0879788497
  0
LINE
  5
30F
100
AcDbEntity
  8
0
100
AcDbLine
 62
253
  6
CONTINUOUS
 10
169.8796219814
 20
100.3879788884
 11
169.8796219814
 21
101.5022646744
  0
LINE
  5
310
100
AcDbEntity
  8
0
100
AcDbLine
 62
253
  6
CONTINUOUS
 10
169.9415267456
 20
97.7165503004
 11
169.9415267456
 21
98.0879788378
  0
LINE
  5
311
100
AcDbEntity
  8
0
100
AcDbLine
 62
253
  6
CONTINUOUS
 10
170.7462886798
 20
99.0165503004
 11
170.7462886798
 21
96.4165503803
  0
LINE
  5
312
100
AcDbEntity
  8
0
100
AcDbLine
 62
253
  6
CONTINUOUS
 10
170.9320026386
 20
102.6165503004
 11
170.9320026386
 21
100.0165504335
  0
LWPOLYLINE
  5
313
100
AcDbEntity
  8
RACCORDO
100
AcDbPolyline
 62
253
  6
CONTINUOUS
 90
10
 70
0
 10
177.2580272291
 20
125.3665060724
 10
177.2571612901
 20
125.3638585691
 10
177.2563079938
 20
125.3578052602
 10
177.2554673404
 20
125.3483461458
 10
177.2546348923
 20
125.3354007466
 10
177.2538150871
 20
125.319049542
 10
177.2530212367
 20
125.2995339697
 10
177.2522540321
 20
125.2768043718
 10
177.2515127823
 20
125.2509104063
 10
177.2501425352
 20
125.1907640107
  0
LWPOLYLINE
  5
314
100
AcDbEntity
  8
ASSI
100
AcDbPolyline
 62
253
  6
CONTINUOUS
 90
10
 70
0
 10
177.2580272291
 20
125.3665060724
 10
177.2571612901
 20
125.3638585691
 10
177.2563079938
 20
125.3578052602
 10
177.2554673404
 20
125.3483461458
 10
177.2546348923
 20
125.3354007466
 10
177.2538150871
 20
125.319049542
 10
177.2530212367
 20
125.2995339697
 10
177.2522540321
 20
125.2768043718
 10
177.2515127823
 20
125.2509104063
 10
177.2501425352
 20
125.1907640107
  0
LINE
  5
315
100
AcDbEntity
  8
0
100
AcDbLine
 62
253
  6
CONTINUOUS
 10
169.1367645729
 20
101.8736932018
 11
168.7653361785
 21
101.5022646525
  0
LINE
  5
316
100
AcDbEntity
  8
0
100
AcDbLine
 62
253
  6
CONTINUOUS
 10
164.9891457784
 20
96.6022645944
 11
164.8034315813
 21
96.4165503004
  0
LWPOLYLINE
  5
317
100
AcDbEntity
  8
RACCORDO
100
AcDbPolyline
 62
7
  6
CONTINUOUS
 90
16
 70
0
 10
172.258193301
 20
93.9165693388
 10
172.2554545763
 20
93.9688317808
 10
172.2472681633
 20
94.02052158
 10
172.2337236665
 20
94.0710725014
 10
172.2149693752
 20
94.1199308473
 10
172.1912106611
 20
94.1665612593
 10
172.1627078
 20
94.2104526176
 10
172.1297729945
 20
94.2511240608
 10
172.0927670614
 20
94.2881299939
 10
172.0520956182
 20
94.3210647994
 10
172.0082042599
 20
94.3495676605
 10
171.9615738479
 20
94.3733263746
 10
171.9127155019
 20
94.3920806659
 10
171.8621645806
 20
94.4056251627
 10
171.8104747814
 20
94.4138115757
 10
171.7582123394
 20
94.4165503004
  0
LWPOLYLINE
  5
318
100
AcDbEntity
  8
ASSI
100
AcDbPolyline
 62
7
  6
CONTINUOUS
 90
15
 70
0
 10
172.258193301
 20
93.9165693388
 10
172.2554545763
 20
93.9688317808
 10
172.2472681633
 20
94.02052158
 10
172.2337236665
 20
94.0710725014
 10
172.2149693752
 20
94.1199308473
 10
172.1912106611
 20
94.1665612593
 10
172.1627078
 20
94.2104526176
 10
172.1297729945
 20
94.2511240608
 10
172.0927670614
 20
94.2881299939
 10
172.0520956182
 20
94.3210647994
 10
172.0082042599
 20
94.3495676605
 10
171.9615738479
 20
94.3733263746
 10
171.9127155019
 20
94.3920806659
 10
171.8621645806
 20
94.4056251627
 10
171.8104747814
 20
94.4138115757
  0
LINE
  5
319
100
AcDbEntity
  8
RACCORDO
100
AcDbLine
 62
253
  6
CONTINUOUS
 10
172.2616559745
 20
93.9659810927
 11
172.2635794743
 21
93.9219555122
  0
LINE
  5
31A
100
AcDbEntity
  8
ASSI
100
AcDbLine
 62
253
  6
CONTINUOUS
 10
172.2616559745
 20
93.9659810927
 11
172.2635794743
 21
93.9219555122
  0
LINE
  5
31B
100
AcDbEntity
  8
RACCORDO
100
AcDbLine
 62
253
  6
CONTINUOUS
 10
171.758193301
 20
90.1165503004
 11
171.7581933
 21
89.9165503004
  0
LINE
  5
31C
100
AcDbEntity
  8
RACCORDO
100
AcDbLine
 62
253
  6
CONTINUOUS
 10
171.758193301
 20
94.2165503004
 11
171.758193301
 21
94.4165503004
  0
LINE
  5
31D
100
AcDbEntity
  8
RACCORDO
100
AcDbLine
 62
253
  6
CONTINUOUS
 10
171.7620965596
 20
89.8078003045
 11
171.7620965596
 21
89.9126660802
  0
LINE
  5
31E
100
AcDbEntity
  8
ASSI
100
AcDbLine
 62
253
  6
CONTINUOUS
 10
171.7620965596
 20
89.8078003045
 11
171.7620965596
 21
89.9126660802
  0
LINE
  5
31F
100
AcDbEntity
  8
RACCORDO
100
AcDbLine
 62
253
  6
CONTINUOUS
 10
171.7637766536
 20
94.5188115606
 11
171.7637766575
 21
94.4221146146
  0
LINE
  5
320
100
AcDbEntity
  8
ASSI
100
AcDbLine
 62
253
  6
CONTINUOUS
 10
171.7637766536
 20
94.5188115606
 11
171.7637766575
 21
94.4221146146
  0
LINE
  5
321
100
AcDbEntity
  8
0
100
AcDbLine
 62
253
  6
CONTINUOUS
 10
171.8605738628
 20
96.6022645944
 11
171.8605738628
 21
98.0879789146
  0
LINE
  5
322
100
AcDbEntity
  8
RACCORDO
100
AcDbLine
 62
253
  6
CONTINUOUS
 10
172.058193301
 20
90.4165503004
 11
172.058193301
 21
93.9165503004
  0
LINE
  5
323
100
AcDbEntity
  8
RACCORDO
100
AcDbLine
 62
7
  6
CONTINUOUS
 10
172.258193301
 20
90.4165503004
 11
172.258193301
 21
93.9165503004
  0
LINE
  5
324
100
AcDbEntity
  8
RACCORDO
100
AcDbLine
 62
253
  6
CONTINUOUS
 10
172.2635794743
 20
93.9219555122
 11
172.2623274339
 21
90.4123971289
  0
LINE
  5
325
100
AcDbEntity
  8
ASSI
100
AcDbLine
 62
253
  6
CONTINUOUS
 10
172.2635794743
 20
93.9219555122
 11
172.2623274339
 21
90.4123971289
  0
LINE
  5
326
100
AcDbEntity
  8
RACCORDO
100
AcDbLine
 62
253
  6
CONTINUOUS
 10
172.3635756666
 20
93.9184561475
 11
172.3623236262
 21
90.4077275213
  0
LINE
  5
327
100
AcDbEntity
  8
ASSI
100
AcDbLine
 62
253
  6
CONTINUOUS
 10
172.3635756666
 20
93.9184561475
 11
172.3623236262
 21
90.4077275213
  0
LINE
  5
328
100
AcDbEntity
  8
RACCORDO
100
AcDbLine
 62
253
  6
CONTINUOUS
 10
172.2623274339
 20
90.4123971289
 11
172.2603709791
 21
90.3684680358
  0
LINE
  5
329
100
AcDbEntity
  8
ASSI
100
AcDbLine
 62
253
  6
CONTINUOUS
 10
172.2623274339
 20
90.4123971289
 11
172.2603709791
 21
90.3684680358
  0
LWPOLYLINE
  5
32A
100
AcDbEntity
  8
RACCORDO
100
AcDbPolyline
 62
253
  6
CONTINUOUS
 90
8
 70
0
 10
176.458149073
 20
126.1663842285
 10
176.4572790439
 20
126.1607818498
 10
176.4564229631
 20
126.1477048345
 10
176.4555808306
 20
126.1272199366
 10
176.4547486789
 20
126.0994323399
 10
176.4539304755
 20
126.0644815594
 10
176.453138123
 20
126.0225375702
 10
176.4516313154
 20
125.9185219429
  0
LWPOLYLINE
  5
32B
100
AcDbEntity
  8
ASSI
100
AcDbPolyline
 62
253
  6
CONTINUOUS
 90
8
 70
0
 10
176.458149073
 20
126.1663842285
 10
176.4572790439
 20
126.1607818498
 10
176.4564229631
 20
126.1477048345
 10
176.4555808306
 20
126.1272199366
 10
176.4547486789
 20
126.0994323399
 10
176.4539304755
 20
126.0644815594
 10
176.453138123
 20
126.0225375702
 10
176.4516313154
 20
125.9185219429
  0
LINE
  5
32C
100
AcDbEntity
  8
0
100
AcDbLine
 62
253
  6
CONTINUOUS
 10
169.5081929672
 20
100.0165503004
 11
169.8796219814
 21
100.3879788884
  0
LINE
  5
32D
100
AcDbEntity
  8
RACCORDO
100
AcDbLine
 62
253
  6
CONTINUOUS
 10
160.258193301
 20
90.4165312619
 11
160.254059168
 21
90.4123971289
  0
LINE
  5
32E
100
AcDbEntity
  8
ASSI
100
AcDbLine
 62
253
  6
CONTINUOUS
 10
160.258193301
 20
90.4165312619
 11
160.254059168
 21
90.4123971289
  0
LINE
  5
32F
100
AcDbEntity
  8
0
100
AcDbLine
 62
253
  6
CONTINUOUS
 10
167.6966041402
 20
119.4898737675
 11
167.8214821402
 21
119.1363847675
  0
LINE
  5
330
100
AcDbEntity
  8
0
100
AcDbLine
 62
253
  6
CONTINUOUS
 10
168.2707791402
 20
117.6785097675
 11
169.2323991402
 21
114.4226397675
  0
LINE
  5
331
100
AcDbEntity
  8
0
100
AcDbLine
 62
253
  6
CONTINUOUS
 10
167.8214821402
 20
119.1363847675
 11
167.9155071402
 21
118.7828897675
  0
LWPOLYLINE
  5
332
100
AcDbEntity
  8
RACCORDO
100
AcDbPolyline
 62
253
  6
CONTINUOUS
 90
19
 70
0
 10
172.3623236262
 20
90.4077275213
 10
172.3597973985
 20
90.3543940388
 10
172.3528823365
 20
90.3023414054
 10
172.3415784403
 20
90.2515695913
 10
172.3257108113
 20
90.2017239011
 10
172.3054543481
 20
90.1531589777
 10
172.2813337463
 20
90.1069387749
 10
172.2532983205
 20
90.0631407403
 10
172.2213987561
 20
90.0216873265
 10
172.1863118055
 20
89.9834099569
 10
172.1479833042
 20
89.948354628
 10
172.1064674166
 20
89.9164752317
 10
172.0626033882
 20
89.8884650146
 10
172.0162891229
 20
89.8643787358
 10
171.9676267169
 20
89.8441615383
 10
171.9177617041
 20
89.8283422402
 10
171.8670759294
 20
89.8170970926
 10
171.8151875478
 20
89.8102497856
 10
171.7620965596
 20
89.8078003045
  0
LWPOLYLINE
  5
333
100
AcDbEntity
  8
ASSI
100
AcDbPolyline
 62
253
  6
CONTINUOUS
 90
19
 70
0
 10
172.3623236262
 20
90.4077275213
 10
172.3597973985
 20
90.3543940388
 10
172.3528823365
 20
90.3023414054
 10
172.3415784403
 20
90.2515695913
 10
172.3257108113
 20
90.2017239011
 10
172.3054543481
 20
90.1531589777
 10
172.2813337463
 20
90.1069387749
 10
172.2532983205
 20
90.0631407403
 10
172.2213987561
 20
90.0216873265
 10
172.1863118055
 20
89.9834099569
 10
172.1479833042
 20
89.948354628
 10
172.1064674166
 20
89.9164752317
 10
172.0626033882
 20
89.8884650146
 10
172.0162891229
 20
89.8643787358
 10
171.9676267169
 20
89.8441615383
 10
171.9177617041
 20
89.8283422402
 10
171.8670759294
 20
89.8170970926
 10
171.8151875478
 20
89.8102497856
 10
171.7620965596
 20
89.8078003045
  0
LWPOLYLINE
  5
334
100
AcDbEntity
  8
RACCORDO
100
AcDbPolyline
 62
253
  6
CONTINUOUS
 90
17
 70
0
 10
172.2603709791
 20
90.3684680358
 10
172.254577202
 20
90.3249801058
 10
172.2450173163
 20
90.2822650062
 10
172.2317934366
 20
90.2406524916
 10
172.21503058
 20
90.2004438423
 10
172.1948686111
 20
90.1619124355
 10
172.1714898151
 20
90.1253575108
 10
172.1450784292
 20
90.0910249895
 10
172.1157875929
 20
90.0590986652
 10
172.0838322989
 20
90.0298173209
 10
172.0494535973
 20
90.0034059499
 10
172.0128442852
 20
89.9800273518
 10
171.9742474118
 20
89.959866251
 10
171.9339648615
 20
89.9431085104
 10
171.8922917754
 20
89.9299007008
 10
171.8495386628
 20
89.920365203
 10
171.8060295459
 20
89.914597963
  0
LWPOLYLINE
  5
335
100
AcDbEntity
  8
ASSI
100
AcDbPolyline
 62
253
  6
CONTINUOUS
 90
17
 70
0
 10
172.2603709791
 20
90.3684680358
 10
172.254577202
 20
90.3249801058
 10
172.2450173163
 20
90.2822650062
 10
172.2317934366
 20
90.2406524916
 10
172.21503058
 20
90.2004438423
 10
172.1948686111
 20
90.1619124355
 10
172.1714898151
 20
90.1253575108
 10
172.1450784292
 20
90.0910249895
 10
172.1157875929
 20
90.0590986652
 10
172.0838322989
 20
90.0298173209
 10
172.0494535973
 20
90.0034059499
 10
172.0128442852
 20
89.9800273518
 10
171.9742474118
 20
89.959866251
 10
171.9339648615
 20
89.9431085104
 10
171.8922917754
 20
89.9299007008
 10
171.8495386628
 20
89.920365203
 10
171.8060295459
 20
89.914597963
  0
LINE
  5
336
100
AcDbEntity
  8
RACCORDO
100
AcDbLine
 62
253
  6
CONTINUOUS
 10
155.158193301
 20
83.3664284565
 11
155.2583593728
 21
83.4665945283
  0
LINE
  5
337
100
AcDbEntity
  8
ASSI
100
AcDbLine
 62
253
  6
CONTINUOUS
 10
155.158193301
 20
83.3664284565
 11
155.2583593728
 21
83.4665945283
  0
LINE
  5
338
100
AcDbEntity
  8
RACCORDO
100
AcDbLine
 62
253
  6
CONTINUOUS
 10
155.9580714571
 20
82.5665503004
 11
156.0582375289
 21
82.6667163722
  0
LINE
  5
339
100
AcDbEntity
  8
ASSI
100
AcDbLine
 62
253
  6
CONTINUOUS
 10
155.9580714571
 20
82.5665503004
 11
156.0582375289
 21
82.6667163722
  0
LINE
  5
33A
100
AcDbEntity
  8
RACCORDO
100
AcDbLine
 62
253
  6
CONTINUOUS
 10
155.2583593728
 20
125.3665060724
 11
155.158193301
 21
125.4666721442
  0
LINE
  5
33B
100
AcDbEntity
  8
ASSI
100
AcDbLine
 62
253
  6
CONTINUOUS
 10
155.2583593728
 20
125.3665060724
 11
155.158193301
 21
125.4666721442
  0
LINE
  5
33C
100
AcDbEntity
  8
RACCORDO
100
AcDbLine
 62
253
  6
CONTINUOUS
 10
156.0582375289
 20
126.1663842285
 11
155.9580714571
 21
126.2665503004
  0
LINE
  5
33D
100
AcDbEntity
  8
ASSI
100
AcDbLine
 62
253
  6
CONTINUOUS
 10
156.0582375289
 20
126.1663842285
 11
155.9580714571
 21
126.2665503004
  0
LWPOLYLINE
  5
33E
100
AcDbEntity
  8
RACCORDO
100
AcDbPolyline
 62
253
  6
CONTINUOUS
 90
6
 70
0
 10
176.4539302247
 20
82.7686211228
 10
176.4547483777
 20
82.7336710724
 10
176.4555805209
 20
82.7058832145
 10
176.4564227147
 20
82.6853972745
 10
176.4572788988
 20
82.6723192614
 10
176.458149073
 20
82.6667163722
  0
LWPOLYLINE
  5
33F
100
AcDbEntity
  8
ASSI
100
AcDbPolyline
 62
253
  6
CONTINUOUS
 90
6
 70
0
 10
176.4539302247
 20
82.7686211228
 10
176.4547483777
 20
82.7336710724
 10
176.4555805209
 20
82.7058832145
 10
176.4564227147
 20
82.6853972745
 10
176.4572788988
 20
82.6723192614
 10
176.458149073
 20
82.6667163722
  0
LINE
  5
340
100
AcDbEntity
  8
RACCORDO
100
AcDbLine
 62
253
  6
CONTINUOUS
 10
176.4523714603
 20
82.8593016769
 11
176.4539302247
 21
82.7686211228
  0
LINE
  5
341
100
AcDbEntity
  8
ASSI
100
AcDbLine
 62
253
  6
CONTINUOUS
 10
176.4523714603
 20
82.8593016769
 11
176.4539302247
 21
82.7686211228
  0
LWPOLYLINE
  5
342
100
AcDbEntity
  8
RACCORDO
100
AcDbPolyline
 62
253
  6
CONTINUOUS
 90
3
 70
0
 10
176.4496343563
 20
83.1166415677
 10
176.4502622968
 20
83.0435814045
 10
176.4523714603
 20
82.8593016769
  0
LWPOLYLINE
  5
343
100
AcDbEntity
  8
ASSI
100
AcDbPolyline
 62
253
  6
CONTINUOUS
 90
3
 70
0
 10
176.4496343563
 20
83.1166415677
 10
176.4502622968
 20
83.0435814045
 10
176.4523714603
 20
82.8593016769
  0
LINE
  5
344
100
AcDbEntity
  8
RACCORDO
100
AcDbLine
 62
253
  6
CONTINUOUS
 10
176.4516313154
 20
125.9185219429
 11
176.4496348752
 21
125.7164692994
  0
LINE
  5
345
100
AcDbEntity
  8
ASSI
100
AcDbLine
 62
253
  6
CONTINUOUS
 10
176.4516313154
 20
125.9185219429
 11
176.4496348752
 21
125.7164692994
  0
LINE
  5
346
100
AcDbEntity
  8
0
100
AcDbLine
 62
253
  6
CONTINUOUS
 10
171.6748602855
 20
96.4165503004
 11
171.8605738628
 21
96.6022645944
  0
LINE
  5
347
100
AcDbEntity
  8
0
100
AcDbLine
 62
253
  6
CONTINUOUS
 10
169.2323991402
 20
114.4226397675
 11
165.9001531402
 21
114.4220587675
  0
LINE
  5
348
100
AcDbEntity
  8
0
100
AcDbLine
 62
253
  6
CONTINUOUS
 10
167.5479061402
 20
119.7156197675
 11
167.6966041402
 21
119.4898737675
  0
LWPOLYLINE
  5
349
100
AcDbEntity
  8
RACCORDO
100
AcDbPolyline
 62
253
  6
CONTINUOUS
 90
8
 70
0
 10
177.2522516746
 20
83.5563717795
 10
177.2530190771
 20
83.5336231048
 10
177.2538130508
 20
83.5140936461
 10
177.2546329817
 20
83.4977312915
 10
177.2554656837
 20
83.4847761878
 10
177.2563067612
 20
83.4753083838
 10
177.2571606097
 20
83.4692478306
 10
177.2580272291
 20
83.4665945283
  0
LWPOLYLINE
  5
34A
100
AcDbEntity
  8
ASSI
100
AcDbPolyline
 62
253
  6
CONTINUOUS
 90
8
 70
0
 10
177.2522516746
 20
83.5563717795
 10
177.2530190771
 20
83.5336231048
 10
177.2538130508
 20
83.5140936461
 10
177.2546329817
 20
83.4977312915
 10
177.2554656837
 20
83.4847761878
 10
177.2563067612
 20
83.4753083838
 10
177.2571606097
 20
83.4692478306
 10
177.2580272291
 20
83.4665945283
  0
LINE
  5
34B
100
AcDbEntity
  8
RACCORDO
100
AcDbLine
 62
253
  6
CONTINUOUS
 10
177.250806086
 20
83.6109739593
 11
177.2522516746
 21
83.5563717795
  0
LINE
  5
34C
100
AcDbEntity
  8
ASSI
100
AcDbLine
 62
253
  6
CONTINUOUS
 10
177.250806086
 20
83.6109739593
 11
177.2522516746
 21
83.5563717795
  0
LINE
  5
34D
100
AcDbEntity
  8
RACCORDO
100
AcDbLine
 62
253
  6
CONTINUOUS
 10
177.2495111448
 20
83.6767295466
 11
177.250806086
 21
83.6109739593
  0
LINE
  5
34E
100
AcDbEntity
  8
ASSI
100
AcDbLine
 62
253
  6
CONTINUOUS
 10
177.2495111448
 20
83.6767295466
 11
177.250806086
 21
83.6109739593
  0
LINE
  5
34F
100
AcDbEntity
  8
RACCORDO
100
AcDbLine
 62
253
  6
CONTINUOUS
 10
177.2479048047
 20
83.7932058409
 11
177.2495111448
 21
83.6767295466
  0
LINE
  5
350
100
AcDbEntity
  8
ASSI
100
AcDbLine
 62
253
  6
CONTINUOUS
 10
177.2479048047
 20
83.7932058409
 11
177.2495111448
 21
83.6767295466
  0
LINE
  5
351
100
AcDbEntity
  8
RACCORDO
100
AcDbLine
 62
253
  6
CONTINUOUS
 10
177.24676332
 20
83.9264753373
 11
177.2479048047
 21
83.7932058409
  0
LINE
  5
352
100
AcDbEntity
  8
ASSI
100
AcDbLine
 62
253
  6
CONTINUOUS
 10
177.24676332
 20
83.9264753373
 11
177.2479048047
 21
83.7932058409
  0
LINE
  5
353
100
AcDbEntity
  8
RACCORDO
100
AcDbLine
 62
253
  6
CONTINUOUS
 10
176.4468878307
 20
83.6509498308
 11
176.4496343563
 21
83.1166415677
  0
LINE
  5
354
100
AcDbEntity
  8
ASSI
100
AcDbLine
 62
253
  6
CONTINUOUS
 10
176.4468878307
 20
83.6509498308
 11
176.4496343563
 21
83.1166415677
  0
LINE
  5
355
100
AcDbEntity
  8
RACCORDO
100
AcDbLine
 62
253
  6
CONTINUOUS
 10
177.2460500751
 20
84.1190003315
 11
177.24676332
 21
83.9264753373
  0
LINE
  5
356
100
AcDbEntity
  8
ASSI
100
AcDbLine
 62
253
  6
CONTINUOUS
 10
177.2460500751
 20
84.1190003315
 11
177.24676332
 21
83.9264753373
  0
LINE
  5
357
100
AcDbEntity
  8
RACCORDO
100
AcDbLine
 62
253
  6
CONTINUOUS
 10
176.4424961263
 20
87.4527168674
 11
176.4468878307
 21
83.6509498308
  0
LINE
  5
358
100
AcDbEntity
  8
ASSI
100
AcDbLine
 62
253
  6
CONTINUOUS
 10
176.4424961263
 20
87.4527168674
 11
176.4468878307
 21
83.6509498308
  0
LINE
  5
359
100
AcDbEntity
  8
RACCORDO
100
AcDbLine
 62
7
  6
CONTINUOUS
 10
177.358193301
 20
83.3664284565
 11
177.358193301
 21
125.4666721442
  0
LINE
  5
35A
100
AcDbEntity
  8
ASSI
100
AcDbLine
 62
7
  6
CONTINUOUS
 10
177.358193301
 20
83.3664284565
 11
177.358193301
 21
125.4666721442
  0
LWPOLYLINE
  5
35B
100
AcDbEntity
  8
RACCORDO
100
AcDbPolyline
 62
253
  6
CONTINUOUS
 90
11
 70
0
 10
176.4424961264
 20
121.3803837353
 10
176.4394885548
 20
117.9902238611
 10
176.4371492041
 20
114.5983262256
 10
176.435477946
 20
111.2051251483
 10
176.4344749088
 20
107.8110550313
 10
176.4341404775
 20
104.4165503033
 10
176.4344749087
 20
101.0220455752
 10
176.4354779458
 20
97.6279754579
 10
176.4371492039
 20
94.23477438
 10
176.4394885546
 20
90.8428767433
 10
176.4424961263
 20
87.4527168674
  0
LWPOLYLINE
  5
35C
100
AcDbEntity
  8
ASSI
100
AcDbPolyline
 62
253
  6
CONTINUOUS
 90
11
 70
0
 10
176.4424961264
 20
121.3803837353
 10
176.4394885548
 20
117.9902238611
 10
176.4371492041
 20
114.5983262256
 10
176.435477946
 20
111.2051251483
 10
176.4344749088
 20
107.8110550313
 10
176.4341404775
 20
104.4165503033
 10
176.4344749087
 20
101.0220455752
 10
176.4354779458
 20
97.6279754579
 10
176.4371492039
 20
94.23477438
 10
176.4394885546
 20
90.8428767433
 10
176.4424961263
 20
87.4527168674
  0
LWPOLYLINE
  5
35D
100
AcDbEntity
  8
RACCORDO
100
AcDbPolyline
 62
253
  6
CONTINUOUS
 90
12
 70
0
 10
177.2423742883
 20
121.3344357213
 10
177.2393667201
 20
117.9534663831
 10
177.2370273705
 20
114.5711922546
 10
177.2353561093
 20
111.1871784003
 10
177.2343530668
 20
107.8018597557
 10
177.2340186337
 20
104.4165411277
 10
177.2343530711
 20
101.0312218588
 10
177.235356118
 20
97.6459026064
 10
177.2370273811
 20
94.2618901496
 10
177.2393667295
 20
90.8796200813
 10
177.2423742942
 20
87.4986568086
 10
177.2460500751
 20
84.1190003315
  0
LWPOLYLINE
  5
35E
100
AcDbEntity
  8
ASSI
100
AcDbPolyline
 62
253
  6
CONTINUOUS
 90
12
 70
0
 10
177.2423742883
 20
121.3344357213
 10
177.2393667201
 20
117.9534663831
 10
177.2370273705
 20
114.5711922546
 10
177.2353561093
 20
111.1871784003
 10
177.2343530668
 20
107.8018597557
 10
177.2340186337
 20
104.4165411277
 10
177.2343530711
 20
101.0312218588
 10
177.235356118
 20
97.6459026064
 10
177.2370273811
 20
94.2618901496
 10
177.2393667295
 20
90.8796200813
 10
177.2423742942
 20
87.4986568086
 10
177.2460500751
 20
84.1190003315
  0
LINE
  5
35F
100
AcDbEntity
  8
RACCORDO
100
AcDbLine
 62
253
  6
CONTINUOUS
 10
177.2464961524
 20
124.8597425804
 11
177.2423742883
 21
121.3344357213
  0
LINE
  5
360
100
AcDbEntity
  8
ASSI
100
AcDbLine
 62
253
  6
CONTINUOUS
 10
177.2464961524
 20
124.8597425804
 11
177.2423742883
 21
121.3344357213
  0
LINE
  5
361
100
AcDbEntity
  8
RACCORDO
100
AcDbLine
 62
253
  6
CONTINUOUS
 10
176.4480294095
 20
125.4672692222
 11
176.4424961264
 21
121.3803837353
  0
LINE
  5
362
100
AcDbEntity
  8
ASSI
100
AcDbLine
 62
253
  6
CONTINUOUS
 10
176.4480294095
 20
125.4672692222
 11
176.4424961264
 21
121.3803837353
  0
LINE
  5
363
100
AcDbEntity
  8
RACCORDO
100
AcDbLine
 62
253
  6
CONTINUOUS
 10
176.4496348752
 20
125.7164692994
 11
176.4480294095
 21
125.4672692222
  0
LINE
  5
364
100
AcDbEntity
  8
ASSI
100
AcDbLine
 62
253
  6
CONTINUOUS
 10
176.4496348752
 20
125.7164692994
 11
176.4480294095
 21
125.4672692222
  0
LINE
  5
365
100
AcDbEntity
  8
RACCORDO
100
AcDbLine
 62
253
  6
CONTINUOUS
 10
177.2474709927
 20
124.9972645069
 11
177.2464961524
 21
124.8597425804
  0
LINE
  5
366
100
AcDbEntity
  8
ASSI
100
AcDbLine
 62
253
  6
CONTINUOUS
 10
177.2474709927
 20
124.9972645069
 11
177.2464961524
 21
124.8597425804
  0
LINE
  5
367
100
AcDbEntity
  8
RACCORDO
100
AcDbLine
 62
253
  6
CONTINUOUS
 10
177.2489309621
 20
125.119985395
 11
177.2474709927
 21
124.9972645069
  0
LINE
  5
368
100
AcDbEntity
  8
ASSI
100
AcDbLine
 62
253
  6
CONTINUOUS
 10
177.2489309621
 20
125.119985395
 11
177.2474709927
 21
124.9972645069
  0
LINE
  5
369
100
AcDbEntity
  8
RACCORDO
100
AcDbLine
 62
253
  6
CONTINUOUS
 10
177.2501425352
 20
125.1907640107
 11
177.2489309621
 21
125.119985395
  0
LINE
  5
36A
100
AcDbEntity
  8
ASSI
100
AcDbLine
 62
253
  6
CONTINUOUS
 10
177.2501425352
 20
125.1907640107
 11
177.2489309621
 21
125.119985395
  0
LINE
  5
36B
100
AcDbEntity
  8
0
100
AcDbLine
 62
253
  6
CONTINUOUS
 10
163.4386921402
 20
114.4519367675
 11
164.9471281402
 21
114.4521997675
  0
LINE
  5
36C
100
AcDbEntity
  8
0
100
AcDbLine
 62
253
  6
CONTINUOUS
 10
167.3346961402
 20
119.9413537675
 11
167.5479061402
 21
119.7156197675
  0
LWPOLYLINE
  5
36D
100
AcDbEntity
  8
RACCORDO
100
AcDbPolyline
 62
253
  6
CONTINUOUS
 90
16
 70
0
 10
177.2580272291
 20
125.3665060724
 10
177.2536217439
 20
125.450099056
 10
177.2405044289
 20
125.5327766913
 10
177.218818898
 20
125.6136335051
 10
177.1888026025
 20
125.6917839609
 10
177.1507842353
 20
125.7663721486
 10
177.1051801342
 20
125.8365811602
 10
177.0524897134
 20
125.9016420534
 10
176.9932900052
 20
125.9608422544
 10
176.928229352
 20
126.0135333614
 10
176.8580202736
 20
126.0591382753
 10
176.7834316864
 20
126.0971574974
 10
176.7052805053
 20
126.127174597
 10
176.6244226509
 20
126.1488607986
 10
176.5417436711
 20
126.1619785732
 10
176.4581490731
 20
126.1663842286
  0
LWPOLYLINE
  5
36E
100
AcDbEntity
  8
ASSI
100
AcDbPolyline
 62
253
  6
CONTINUOUS
 90
16
 70
0
 10
177.2580272291
 20
125.3665060724
 10
177.2536217439
 20
125.450099056
 10
177.2405044289
 20
125.5327766913
 10
177.218818898
 20
125.6136335051
 10
177.1888026025
 20
125.6917839609
 10
177.1507842353
 20
125.7663721486
 10
177.1051801342
 20
125.8365811602
 10
177.0524897134
 20
125.9016420534
 10
176.9932900052
 20
125.9608422544
 10
176.928229352
 20
126.0135333614
 10
176.8580202736
 20
126.0591382753
 10
176.7834316864
 20
126.0971574974
 10
176.7052805053
 20
126.127174597
 10
176.6244226509
 20
126.1488607986
 10
176.5417436711
 20
126.1619785732
 10
176.4581490731
 20
126.1663842286
  0
LWPOLYLINE
  5
36F
100
AcDbEntity
  8
RACCORDO
100
AcDbPolyline
 62
253
  6
CONTINUOUS
 90
16
 70
0
 10
177.2580272291
 20
83.4665945283
 10
177.2536216489
 20
83.3830006432
 10
177.2405040812
 20
83.3003222753
 10
177.2188181892
 20
83.2194649152
 10
177.1888014759
 20
83.14131411
 10
177.1507826833
 20
83.0667257643
 10
177.105178192
 20
82.9965167672
 10
177.0524874606
 20
82.9314560451
 10
176.9932875562
 20
82.8722561408
 10
176.9282268342
 20
82.8195654094
 10
176.8580178371
 20
82.773960918
 10
176.7834294914
 20
82.7359421255
 10
176.7052786861
 20
82.7059254122
 10
176.6244213261
 20
82.6842395201
 10
176.5417429582
 20
82.6711219524
 10
176.458149073
 20
82.6667163722
  0
LWPOLYLINE
  5
370
100
AcDbEntity
  8
ASSI
100
AcDbPolyline
 62
253
  6
CONTINUOUS
 90
16
 70
0
 10
177.2580272291
 20
83.4665945283
 10
177.2536216489
 20
83.3830006432
 10
177.2405040812
 20
83.3003222753
 10
177.2188181892
 20
83.2194649152
 10
177.1888014759
 20
83.14131411
 10
177.1507826833
 20
83.0667257643
 10
177.105178192
 20
82.9965167672
 10
177.0524874606
 20
82.9314560451
 10
176.9932875562
 20
82.8722561408
 10
176.9282268342
 20
82.8195654094
 10
176.8580178371
 20
82.773960918
 10
176.7834294914
 20
82.7359421255
 10
176.7052786861
 20
82.7059254122
 10
176.6244213261
 20
82.6842395201
 10
176.5417429582
 20
82.6711219524
 10
176.458149073
 20
82.6667163722
  0
LINE
  5
371
100
AcDbEntity
  8
RACCORDO
100
AcDbLine
 62
253
  6
CONTINUOUS
 10
172.258193301
 20
93.9165693388
 11
172.2635794743
 21
93.9219555122
  0
LINE
  5
372
100
AcDbEntity
  8
ASSI
100
AcDbLine
 62
253
  6
CONTINUOUS
 10
172.258193301
 20
93.9165693388
 11
172.2635794743
 21
93.9219555122
  0
LINE
  5
373
100
AcDbEntity
  8
0
100
AcDbLine
 62
253
  6
CONTINUOUS
 10
167.0948441402
 20
120.1433177675
 11
167.3346961402
 21
119.9413537675
  0
LINE
  5
374
100
AcDbEntity
  8
0
100
AcDbLine
 62
253
  6
CONTINUOUS
 10
166.8704321402
 20
120.2710187675
 11
167.0948441402
 21
120.1433177675
  0
LINE
  5
375
100
AcDbEntity
  8
0
100
AcDbLine
 62
253
  6
CONTINUOUS
 10
165.9069391402
 20
120.3748237675
 11
166.1425411402
 21
120.4164547675
  0
LINE
  5
376
100
AcDbEntity
  8
0
100
AcDbLine
 62
253
  6
CONTINUOUS
 10
166.1425411402
 20
120.4164547675
 11
166.3725411402
 21
120.4164947675
  0
LINE
  5
377
100
AcDbEntity
  8
0
100
AcDbLine
 62
253
  6
CONTINUOUS
 10
166.3725411402
 20
120.4164947675
 11
166.6235861402
 21
120.3645517675
  0
LINE
  5
378
100
AcDbEntity
  8
0
100
AcDbLine
 62
253
  6
CONTINUOUS
 10
166.6235861402
 20
120.3645517675
 11
166.8704321402
 21
120.2710187675
  0
LINE
  5
379
100
AcDbEntity
  8
RACCORDO
100
AcDbLine
 62
253
  6
CONTINUOUS
 10
176.446171919
 20
124.7683717933
 11
156.0702146829
 21
124.7683717933
  0
LINE
  5
37A
100
AcDbEntity
  8
ASSI
100
AcDbLine
 62
253
  6
CONTINUOUS
 10
176.446171919
 20
124.7683717933
 11
156.0702146829
 21
124.7683717933
  0
LWPOLYLINE
  5
37B
100
AcDbEntity
  8
RACCORDO
100
AcDbPolyline
 62
253
  6
CONTINUOUS
 90
16
 70
0
 10
177.2460500751
 20
84.1190003315
 10
177.2403239599
 20
84.1133893131
 10
177.2260887375
 20
84.1078384221
 10
177.2034969341
 20
84.1024071347
 10
177.1727906144
 20
84.0971536455
 10
177.1342987876
 20
84.0921342441
 10
177.0884338825
 20
84.0874027121
 10
177.0356873284
 20
84.0830097463
 10
176.9766242892
 20
84.0790024161
 10
176.9118776082
 20
84.0754236589
 10
176.8421410275
 20
84.0723118201
 10
176.7681617542
 20
84.069700242
 10
176.6907324549
 20
84.0676169068
 10
176.6106827619
 20
84.0660841368
 10
176.5288703847
 20
84.0651183551
 10
176.446171919
 20
84.0647299098
  0
LWPOLYLINE
  5
37C
100
AcDbEntity
  8
ASSI
100
AcDbPolyline
 62
253
  6
CONTINUOUS
 90
16
 70
0
 10
177.2460500751
 20
84.1190003315
 10
177.2403239599
 20
84.1133893131
 10
177.2260887375
 20
84.1078384221
 10
177.2034969341
 20
84.1024071347
 10
177.1727906144
 20
84.0971536455
 10
177.1342987876
 20
84.0921342441
 10
177.0884338825
 20
84.0874027121
 10
177.0356873284
 20
84.0830097463
 10
176.9766242892
 20
84.0790024161
 10
176.9118776082
 20
84.0754236589
 10
176.8421410275
 20
84.0723118201
 10
176.7681617542
 20
84.069700242
 10
176.6907324549
 20
84.0676169068
 10
176.6106827619
 20
84.0660841368
 10
176.5288703847
 20
84.0651183551
 10
176.446171919
 20
84.0647299098
  0
LINE
  5
37D
100
AcDbEntity
  8
RACCORDO
100
AcDbLine
 62
253
  6
CONTINUOUS
 10
176.458149073
 20
126.1663842285
 11
156.0582375289
 21
126.1663842285
  0
LINE
  5
37E
100
AcDbEntity
  8
ASSI
100
AcDbLine
 62
253
  6
CONTINUOUS
 10
176.458149073
 20
126.1663842285
 11
156.0582375289
 21
126.1663842285
  0
LINE
  5
37F
100
AcDbEntity
  8
RACCORDO
100
AcDbLine
 62
7
  6
CONTINUOUS
 10
155.9580714571
 20
126.2665503004
 11
176.5583151448
 21
126.2665503004
  0
LINE
  5
380
100
AcDbEntity
  8
ASSI
100
AcDbLine
 62
7
  6
CONTINUOUS
 10
155.9580714571
 20
126.2665503004
 11
176.5583151448
 21
126.2665503004
  0
LWPOLYLINE
  5
381
100
AcDbEntity
  8
RACCORDO
100
AcDbPolyline
 62
253
  6
CONTINUOUS
 90
16
 70
0
 10
177.2460500751
 20
124.7141002693
 10
177.2403248084
 20
124.7197113779
 10
177.2260903041
 20
124.7252623641
 10
177.2034990828
 20
124.7306937501
 10
177.1727932065
 20
124.7359473391
 10
177.1343016843
 20
124.7409668399
 10
177.0884369474
 20
124.745698469
 10
177.0356904302
 20
124.7500915278
 10
176.9766273043
 20
124.7540989452
 10
176.9118804227
 20
124.7576777824
 10
176.8421435394
 20
124.7607896925
 10
176.7681638754
 20
124.7634013319
 10
176.6907341123
 20
124.7654847174
 10
176.6106838994
 20
124.7670175258
 10
176.5288709636
 20
124.7679833333
 10
176.446171919
 20
124.7683717914
  0
LWPOLYLINE
  5
382
100
AcDbEntity
  8
ASSI
100
AcDbPolyline
 62
253
  6
CONTINUOUS
 90
16
 70
0
 10
177.2460500751
 20
124.7141002693
 10
177.2403248084
 20
124.7197113779
 10
177.2260903041
 20
124.7252623641
 10
177.2034990828
 20
124.7306937501
 10
177.1727932065
 20
124.7359473391
 10
177.1343016843
 20
124.7409668399
 10
177.0884369474
 20
124.745698469
 10
177.0356904302
 20
124.7500915278
 10
176.9766273043
 20
124.7540989452
 10
176.9118804227
 20
124.7576777824
 10
176.8421435394
 20
124.7607896925
 10
176.7681638754
 20
124.7634013319
 10
176.6907341123
 20
124.7654847174
 10
176.6106838994
 20
124.7670175258
 10
176.5288709636
 20
124.7679833333
 10
176.446171919
 20
124.7683717914
  0
LINE
  5
383
100
AcDbEntity
  8
RACCORDO
100
AcDbLine
 62
7
  6
CONTINUOUS
 10
128.1391840649
 20
82.6667163722
 11
133.8776944766
 21
82.5665503004
  0
LINE
  5
384
100
AcDbEntity
  8
ASSI
100
AcDbLine
 62
7
  6
CONTINUOUS
 10
128.1391840649
 20
82.6667163722
 11
133.8776944766
 21
82.5665503004
  0
LINE
  5
385
100
AcDbEntity
  8
RACCORDO
100
AcDbLine
 62
253
  6
CONTINUOUS
 10
128.1391840649
 20
83.4665945283
 11
133.8776944766
 21
83.3664284565
  0
LINE
  5
386
100
AcDbEntity
  8
ASSI
100
AcDbLine
 62
253
  6
CONTINUOUS
 10
128.1391840649
 20
83.4665945283
 11
133.8776944766
 21
83.3664284565
  0
LINE
  5
387
100
AcDbEntity
  8
RACCORDO
100
AcDbLine
 62
253
  6
CONTINUOUS
 10
126.6731037543
 20
84.0651183551
 11
126.6688344672
 21
84.0647299098
  0
LINE
  5
388
100
AcDbEntity
  8
ASSI
100
AcDbLine
 62
253
  6
CONTINUOUS
 10
126.6731037543
 20
84.0651183551
 11
126.6688344672
 21
84.0647299098
  0
LINE
  5
389
100
AcDbEntity
  8
RACCORDO
100
AcDbLine
 62
253
  6
CONTINUOUS
 10
126.7070240434
 20
84.0676169068
 11
126.6731037543
 21
84.0651183551
  0
LINE
  5
38A
100
AcDbEntity
  8
ASSI
100
AcDbLine
 62
253
  6
CONTINUOUS
 10
126.7070240434
 20
84.0676169068
 11
126.6731037543
 21
84.0651183551
  0
LINE
  5
38B
100
AcDbEntity
  8
RACCORDO
100
AcDbLine
 62
253
  6
CONTINUOUS
 10
127.4530133716
 20
84.1190003315
 11
126.7070240434
 21
84.0676169068
  0
LINE
  5
38C
100
AcDbEntity
  8
ASSI
100
AcDbLine
 62
253
  6
CONTINUOUS
 10
127.4530133716
 20
84.1190003315
 11
126.7070240434
 21
84.0676169068
  0
LINE
  5
38D
100
AcDbEntity
  8
RACCORDO
100
AcDbLine
 62
7
  6
CONTINUOUS
 10
126.3283160397
 20
89.9165503004
 11
126.1276944766
 21
89.9165503004
  0
LINE
  5
38E
100
AcDbEntity
  8
RACCORDO
100
AcDbLine
 62
253
  6
CONTINUOUS
 10
125.9276944766
 20
90.4165503004
 11
126.304951498
 21
90.4165503004
  0
LINE
  5
38F
100
AcDbEntity
  8
RACCORDO
100
AcDbLine
 62
253
  6
CONTINUOUS
 10
125.9276944766
 20
93.9165503004
 11
126.1614340451
 21
93.9165503004
  0
LINE
  5
390
100
AcDbEntity
  8
RACCORDO
100
AcDbLine
 62
7
  6
CONTINUOUS
 10
126.144407698
 20
94.4165503004
 11
126.1276944766
 21
94.4165503004
  0
LWPOLYLINE
  5
391
100
AcDbEntity
  8
RACCORDO
100
AcDbPolyline
 62
253
  6
CONTINUOUS
 90
22
 70
0
 10
127.4530133716
 20
84.1190003315
 10
127.4581583378
 20
84.0695892424
 10
127.4666680988
 20
84.0210730153
 10
127.4785426546
 20
83.9734516501
 10
127.4938751419
 20
83.9264753373
 10
127.5125724241
 20
83.8803938865
 10
127.534355091
 20
83.8359567258
 10
127.5592707578
 20
83.7932058409
 10
127.5872718092
 20
83.7520992461
 10
127.6179359897
 20
83.7132604134
 10
127.6512979193
 20
83.6767295466
 10
127.6873229779
 20
83.6424664419
 10
127.7254850496
 20
83.6109739593
 10
127.7658254033
 20
83.5822875583
 10
127.8083027701
 20
83.5563717795
 10
127.8522672278
 20
83.5336231048
 10
127.8977539495
 20
83.5140936461
 10
127.944727762
 20
83.4977312915
 10
127.992433224
 20
83.4847761878
 10
128.0406185215
 20
83.4753083838
 10
128.0895354685
 20
83.4692478306
 10
128.1391840649
 20
83.4665945283
  0
LWPOLYLINE
  5
392
100
AcDbEntity
  8
ASSI
100
AcDbPolyline
 62
253
  6
CONTINUOUS
 90
22
 70
0
 10
127.4530133716
 20
84.1190003315
 10
127.4581583378
 20
84.0695892424
 10
127.4666680988
 20
84.0210730153
 10
127.4785426546
 20
83.9734516501
 10
127.4938751419
 20
83.9264753373
 10
127.5125724241
 20
83.8803938865
 10
127.534355091
 20
83.8359567258
 10
127.5592707578
 20
83.7932058409
 10
127.5872718092
 20
83.7520992461
 10
127.6179359897
 20
83.7132604134
 10
127.6512979193
 20
83.6767295466
 10
127.6873229779
 20
83.6424664419
 10
127.7254850496
 20
83.6109739593
 10
127.7658254033
 20
83.5822875583
 10
127.8083027701
 20
83.5563717795
 10
127.8522672278
 20
83.5336231048
 10
127.8977539495
 20
83.5140936461
 10
127.944727762
 20
83.4977312915
 10
127.992433224
 20
83.4847761878
 10
128.0406185215
 20
83.4753083838
 10
128.0895354685
 20
83.4692478306
 10
128.1391840649
 20
83.4665945283
  0
LINE
  5
393
100
AcDbEntity
  8
RACCORDO
100
AcDbLine
 62
7
  6
CONTINUOUS
 10
126.2846980594
 20
90.8479137269
 11
126.2851172625
 21
90.8386578735
  0
LINE
  5
394
100
AcDbEntity
  8
ASSI
100
AcDbLine
 62
7
  6
CONTINUOUS
 10
126.2846980594
 20
90.8479137269
 11
126.2851172625
 21
90.8386578735
  0
LINE
  5
395
100
AcDbEntity
  8
0
100
AcDbLine
 62
253
  6
CONTINUOUS
 10
126.0542215873
 20
97.6408281974
 11
126.0548978423
 21
97.6109600229
  0
LINE
  5
396
100
AcDbEntity
  8
0
100
AcDbLine
 62
253
  6
CONTINUOUS
 10
125.9970806201
 20
101.0060796205
 11
125.9967520087
 21
101.035107406
  0
LINE
  5
397
100
AcDbEntity
  8
RACCORDO
100
AcDbLine
 62
7
  6
CONTINUOUS
 10
125.9276944766
 20
90.1165503004
 11
125.9276944766
 21
94.2165503004
  0
LINE
  5
398
100
AcDbEntity
  8
0
100
AcDbLine
 62
253
  6
CONTINUOUS
 10
126.4046598806
 20
120.4164547675
 11
126.404662017
 21
120.4164947675
  0
LINE
  5
399
100
AcDbEntity
  8
RACCORDO
100
AcDbLine
 62
253
  6
CONTINUOUS
 10
126.1276944766
 20
89.9165503004
 11
126.1276944766
 21
94.4165503004
  0
LWPOLYLINE
  5
39A
100
AcDbEntity
  8
RACCORDO
100
AcDbPolyline
 62
253
  6
CONTINUOUS
 90
13
 70
0
 10
127.4530133716
 20
124.7141002693
 10
127.2424276843
 20
121.3344357213
 10
127.0701242173
 20
117.9534663831
 10
126.9361029705
 20
114.5711922546
 10
126.8403564823
 20
111.1871784003
 10
126.7828922144
 20
107.8018597557
 10
126.7637325515
 20
104.4165411277
 10
126.7828924619
 20
101.0312218588
 10
126.8403569774
 20
97.6459026064
 10
126.9361035781
 20
94.2618901496
 10
127.0701247574
 20
90.8796200813
 10
127.2424280219
 20
87.4986568086
 10
127.4530133716
 20
84.1190003315
  0
LWPOLYLINE
  5
39B
100
AcDbEntity
  8
ASSI
100
AcDbPolyline
 62
253
  6
CONTINUOUS
 90
13
 70
0
 10
127.4530133716
 20
124.7141002693
 10
127.2424276843
 20
121.3344357213
 10
127.0701242173
 20
117.9534663831
 10
126.9361029705
 20
114.5711922546
 10
126.8403564823
 20
111.1871784003
 10
126.7828922144
 20
107.8018597557
 10
126.7637325515
 20
104.4165411277
 10
126.7828924619
 20
101.0312218588
 10
126.8403569774
 20
97.6459026064
 10
126.9361035781
 20
94.2618901496
 10
127.0701247574
 20
90.8796200813
 10
127.2424280219
 20
87.4986568086
 10
127.4530133716
 20
84.1190003315
  0
LINE
  5
39C
100
AcDbEntity
  8
RACCORDO
100
AcDbLine
 62
253
  6
CONTINUOUS
 10
128.1391840649
 20
125.3665060724
 11
128.1355548162
 21
125.6136335051
  0
LINE
  5
39D
100
AcDbEntity
  8
ASSI
100
AcDbLine
 62
253
  6
CONTINUOUS
 10
128.1391840649
 20
125.3665060724
 11
128.1355548162
 21
125.6136335051
  0
LWPOLYLINE
  5
39E
100
AcDbEntity
  8
RACCORDO
100
AcDbPolyline
 62
253
  6
CONTINUOUS
 90
7
 70
0
 10
128.1336468175
 20
82.8195654094
 10
128.1340762909
 20
82.773960918
 10
128.134714615
 20
82.7359421255
 10
128.1355547987
 20
82.7059254122
 10
128.1365876403
 20
82.6842395201
 10
128.1378018283
 20
82.6711219524
 10
128.1391840649
 20
82.6667163722
  0
LWPOLYLINE
  5
39F
100
AcDbEntity
  8
ASSI
100
AcDbPolyline
 62
253
  6
CONTINUOUS
 90
7
 70
0
 10
128.1336468175
 20
82.8195654094
 10
128.1340762909
 20
82.773960918
 10
128.134714615
 20
82.7359421255
 10
128.1355547987
 20
82.7059254122
 10
128.1365876403
 20
82.6842395201
 10
128.1378018283
 20
82.6711219524
 10
128.1391840649
 20
82.6667163722
  0
LINE
  5
3A0
100
AcDbEntity
  8
RACCORDO
100
AcDbLine
 62
253
  6
CONTINUOUS
 10
128.1355548162
 20
125.6136335051
 11
128.1340763
 21
125.7663721486
  0
LINE
  5
3A1
100
AcDbEntity
  8
ASSI
100
AcDbLine
 62
253
  6
CONTINUOUS
 10
128.1355548162
 20
125.6136335051
 11
128.1340763
 21
125.7663721486
  0
LINE
  5
3A2
100
AcDbEntity
  8
RACCORDO
100
AcDbLine
 62
253
  6
CONTINUOUS
 10
128.1340763
 20
125.7663721486
 11
128.1334308915
 21
125.9016420534
  0
LINE
  5
3A3
100
AcDbEntity
  8
ASSI
100
AcDbLine
 62
253
  6
CONTINUOUS
 10
128.1340763
 20
125.7663721486
 11
128.1334308915
 21
125.9016420534
  0
LINE
  5
3A4
100
AcDbEntity
  8
RACCORDO
100
AcDbLine
 62
253
  6
CONTINUOUS
 10
128.1334308983
 20
82.9314560451
 11
128.1336468175
 21
82.8195654094
  0
LINE
  5
3A5
100
AcDbEntity
  8
ASSI
100
AcDbLine
 62
253
  6
CONTINUOUS
 10
128.1334308983
 20
82.9314560451
 11
128.1336468175
 21
82.8195654094
  0
LWPOLYLINE
  5
3A6
100
AcDbEntity
  8
RACCORDO
100
AcDbPolyline
 62
253
  6
CONTINUOUS
 90
8
 70
0
 10
128.1334308915
 20
125.9016420534
 10
128.1336467953
 20
126.0135333614
 10
128.1340762639
 20
126.0591382753
 10
128.1347145863
 20
126.0971574974
 10
128.1355547718
 20
126.127174597
 10
128.136587619
 20
126.1488607986
 10
128.1378018167
 20
126.1619785732
 10
128.1391840675
 20
126.1663842286
  0
LWPOLYLINE
  5
3A7
100
AcDbEntity
  8
ASSI
100
AcDbPolyline
 62
253
  6
CONTINUOUS
 90
8
 70
0
 10
128.1334308915
 20
125.9016420534
 10
128.1336467953
 20
126.0135333614
 10
128.1340762639
 20
126.0591382753
 10
128.1347145863
 20
126.0971574974
 10
128.1355547718
 20
126.127174597
 10
128.136587619
 20
126.1488607986
 10
128.1378018167
 20
126.1619785732
 10
128.1391840675
 20
126.1663842286
  0
LINE
  5
3A8
100
AcDbEntity
  8
RACCORDO
100
AcDbLine
 62
253
  6
CONTINUOUS
 10
128.1340762904
 20
83.0667257643
 11
128.1334308983
 21
82.9314560451
  0
LINE
  5
3A9
100
AcDbEntity
  8
ASSI
100
AcDbLine
 62
253
  6
CONTINUOUS
 10
128.1340762904
 20
83.0667257643
 11
128.1334308983
 21
82.9314560451
  0
LINE
  5
3AA
100
AcDbEntity
  8
RACCORDO
100
AcDbLine
 62
253
  6
CONTINUOUS
 10
128.1365876396
 20
83.3003222753
 11
128.1340762904
 21
83.0667257643
  0
LINE
  5
3AB
100
AcDbEntity
  8
ASSI
100
AcDbLine
 62
253
  6
CONTINUOUS
 10
128.1365876396
 20
83.3003222753
 11
128.1340762904
 21
83.0667257643
  0
LINE
  5
3AC
100
AcDbEntity
  8
RACCORDO
100
AcDbLine
 62
253
  6
CONTINUOUS
 10
128.1391840649
 20
83.4665945283
 11
128.1365876396
 21
83.3003222753
  0
LINE
  5
3AD
100
AcDbEntity
  8
ASSI
100
AcDbLine
 62
253
  6
CONTINUOUS
 10
128.1391840649
 20
83.4665945283
 11
128.1365876396
 21
83.3003222753
  0
LINE
  5
3AE
100
AcDbEntity
  8
RACCORDO
100
AcDbLine
 62
7
  6
CONTINUOUS
 10
133.8776944766
 20
82.5665503004
 11
133.8776944766
 21
126.2665503004
  0
LINE
  5
3AF
100
AcDbEntity
  8
ASSI
100
AcDbLine
 62
7
  6
CONTINUOUS
 10
133.8776944766
 20
82.5665503004
 11
133.8776944766
 21
126.2665503004
  0
LWPOLYLINE
  5
3B0
100
AcDbEntity
  8
RACCORDO
100
AcDbPolyline
 62
253
  6
CONTINUOUS
 90
22
 70
0
 10
128.1391840649
 20
125.3665060724
 10
128.0895744509
 20
125.3638585691
 10
128.0406891415
 20
125.3578052602
 10
127.9925281366
 20
125.3483461458
 10
127.9448372206
 20
125.3354007466
 10
127.8978706091
 20
125.319049542
 10
127.8523909493
 20
125.2995339697
 10
127.8084378267
 20
125.2768043718
 10
127.7659716559
 20
125.2509104063
 10
127.7256363266
 20
125.2222424847
 10
127.6874702512
 20
125.1907640107
 10
127.6514350174
 20
125.1565115805
 10
127.6180592784
 20
125.119985395
 10
127.5873763782
 20
125.0811424558
 10
127.5593529727
 20
125.0400257613
 10
127.5344176825
 20
124.9972645069
 10
127.512620797
 20
124.952820993
 10
127.4939120267
 20
124.9067329191
 10
127.4785691238
 20
124.8597425804
 10
127.4666846724
 20
124.8120974083
 10
127.4581660883
 20
124.7635499713
 10
127.4530133716
 20
124.7141002693
  0
LWPOLYLINE
  5
3B1
100
AcDbEntity
  8
ASSI
100
AcDbPolyline
 62
253
  6
CONTINUOUS
 90
22
 70
0
 10
128.1391840649
 20
125.3665060724
 10
128.0895744509
 20
125.3638585691
 10
128.0406891415
 20
125.3578052602
 10
127.9925281366
 20
125.3483461458
 10
127.9448372206
 20
125.3354007466
 10
127.8978706091
 20
125.319049542
 10
127.8523909493
 20
125.2995339697
 10
127.8084378267
 20
125.2768043718
 10
127.7659716559
 20
125.2509104063
 10
127.7256363266
 20
125.2222424847
 10
127.6874702512
 20
125.1907640107
 10
127.6514350174
 20
125.1565115805
 10
127.6180592784
 20
125.119985395
 10
127.5873763782
 20
125.0811424558
 10
127.5593529727
 20
125.0400257613
 10
127.5344176825
 20
124.9972645069
 10
127.512620797
 20
124.952820993
 10
127.4939120267
 20
124.9067329191
 10
127.4785691238
 20
124.8597425804
 10
127.4666846724
 20
124.8120974083
 10
127.4581660883
 20
124.7635499713
 10
127.4530133716
 20
124.7141002693
  0
LINE
  5
3B2
100
AcDbEntity
  8
RACCORDO
100
AcDbLine
 62
253
  6
CONTINUOUS
 10
133.8776944766
 20
125.4666721442
 11
128.1391840649
 21
125.3665060724
  0
LINE
  5
3B3
100
AcDbEntity
  8
ASSI
100
AcDbLine
 62
253
  6
CONTINUOUS
 10
133.8776944766
 20
125.4666721442
 11
128.1391840649
 21
125.3665060724
  0
LINE
  5
3B4
100
AcDbEntity
  8
RACCORDO
100
AcDbLine
 62
7
  6
CONTINUOUS
 10
133.8776944766
 20
126.2665503004
 11
128.1391840649
 21
126.1663842285
  0
LINE
  5
3B5
100
AcDbEntity
  8
ASSI
100
AcDbLine
 62
7
  6
CONTINUOUS
 10
133.8776944766
 20
126.2665503004
 11
128.1391840649
 21
126.1663842285
  0
LINE
  5
3B6
100
AcDbEntity
  8
RACCORDO
100
AcDbLine
 62
253
  6
CONTINUOUS
 10
127.4530133716
 20
124.7141002693
 11
126.7070088959
 21
124.7654847174
  0
LINE
  5
3B7
100
AcDbEntity
  8
ASSI
100
AcDbLine
 62
253
  6
CONTINUOUS
 10
127.4530133716
 20
124.7141002693
 11
126.7070088959
 21
124.7654847174
  0
LWPOLYLINE
  5
3B8
100
AcDbEntity
  8
RACCORDO
100
AcDbPolyline
 62
253
  6
CONTINUOUS
 90
3
 70
0
 10
126.7070088959
 20
124.7654847174
 10
126.6730877482
 20
124.7679833333
 10
126.6688183211
 20
124.7683717914
  0
LWPOLYLINE
  5
3B9
100
AcDbEntity
  8
ASSI
100
AcDbPolyline
 62
253
  6
CONTINUOUS
 90
3
 70
0
 10
126.7070088959
 20
124.7654847174
 10
126.6730877482
 20
124.7679833333
 10
126.6688183211
 20
124.7683717914
  0
ARC
  5
3BA
100
AcDbEntity
  8
RACCORDO
100
AcDbCircle
 62
7
  6
CONTINUOUS
 10
160.758193301
 20
93.9165503004
 40
0.5
100
AcDbArc
 50
90.0
 51
180.0
  0
ARC
  5
3BB
100
AcDbEntity
  8
RACCORDO
100
AcDbCircle
 62
7
  6
CONTINUOUS
 10
171.758193301
 20
93.9165503004
 40
0.5
100
AcDbArc
 50
0.0
 51
90.0
  0
ARC
  5
3BC
100
AcDbEntity
  8
RACCORDO
100
AcDbCircle
 62
7
  6
CONTINUOUS
 10
171.758193301
 20
90.4165503004
 40
0.5
100
AcDbArc
 50
270.0
 51
360.0
  0
ARC
  5
3BD
100
AcDbEntity
  8
RACCORDO
100
AcDbCircle
 62
7
  6
CONTINUOUS
 10
160.758193301
 20
90.4165503004
 40
0.5
100
AcDbArc
 50
180.0
 51
270.0
  0
ARC
  5
3BE
100
AcDbEntity
  8
RACCORDO
100
AcDbCircle
 62
253
  6
CONTINUOUS
 10
160.758193301
 20
93.9165503004
 40
0.2999998665
100
AcDbArc
 50
90.0
 51
180.0
  0
ARC
  5
3BF
100
AcDbEntity
  8
RACCORDO
100
AcDbCircle
 62
253
  6
CONTINUOUS
 10
171.758193301
 20
90.4165503004
 40
0.2999998665
100
AcDbArc
 50
270.0
 51
360.0
  0
ARC
  5
3C0
100
AcDbEntity
  8
RACCORDO
100
AcDbCircle
 62
253
  6
CONTINUOUS
 10
160.758193301
 20
90.4165503004
 40
0.2999998665
100
AcDbArc
 50
180.0
 51
270.0
  0
ARC
  5
3C1
100
AcDbEntity
  8
RACCORDO
100
AcDbCircle
 62
253
  6
CONTINUOUS
 10
171.758193301
 20
93.9165503004
 40
0.2999998665
100
AcDbArc
 50
0.0
 51
90.0
  0
ARC
  5
3C2
100
AcDbEntity
  8
RACCORDO
100
AcDbCircle
 62
7
  6
CONTINUOUS
 10
128.1653626746
 20
84.1664879149
 40
1.5
100
AcDbArc
 50
183.8898991621
 51
269.0
  0
ARC
  5
3C3
100
AcDbEntity
  8
ASSI
100
AcDbCircle
 62
7
  6
CONTINUOUS
 10
128.1653626746
 20
84.1664879149
 40
1.5
100
AcDbArc
 50
183.8898991621
 51
269.0
  0
ARC
  5
3C4
100
AcDbEntity
  8
RACCORDO
100
AcDbCircle
 62
7
  6
CONTINUOUS
 10
126.1276944766
 20
94.2165503004
 40
0.2
100
AcDbArc
 50
90.0
 51
180.0
  0
ARC
  5
3C5
100
AcDbEntity
  8
RACCORDO
100
AcDbCircle
 62
7
  6
CONTINUOUS
 10
126.1276944766
 20
90.1165503004
 40
0.2
100
AcDbArc
 50
180.0
 51
270.0
  0
ARC
  5
3C6
100
AcDbEntity
  8
RACCORDO
100
AcDbCircle
 62
7
  6
CONTINUOUS
 10
128.1653626746
 20
124.6666126858
 40
1.5
100
AcDbArc
 50
91.0
 51
176.1101008379
  0
ARC
  5
3C7
100
AcDbEntity
  8
ASSI
100
AcDbCircle
 62
7
  6
CONTINUOUS
 10
128.1653626746
 20
124.6666126858
 40
1.5
100
AcDbArc
 50
91.0
 51
176.1101008379
  0
ARC
  5
3C8
100
AcDbEntity
  8
RACCORDO
100
AcDbCircle
 62
7
  6
CONTINUOUS
 10
425.9776944766
 20
104.4165503004
 40
300.0
100
AcDbArc
 50
176.1101008379
 51
183.8898991621
  0
ARC
  5
3C9
100
AcDbEntity
  8
ASSI
100
AcDbCircle
 62
7
  6
CONTINUOUS
 10
425.9776944766
 20
104.4165503004
 40
300.0
100
AcDbArc
 50
176.1101008379
 51
183.8898991621
  0
ARC
  5
3CA
100
AcDbEntity
  8
0
100
AcDbCircle
 62
253
  6
CONTINUOUS
 10
425.9776944766
 20
104.4165503004
 40
300.0
100
AcDbArc
 50
180.3437767398
 51
180.8403682301
  0
ARC
  5
3CB
100
AcDbEntity
  8
0
100
AcDbCircle
 62
253
  6
CONTINUOUS
 10
425.9776944766
 20
104.4165503004
 40
300.0
100
AcDbArc
 50
181.0313797309
 51
181.2958715178
  0
ARC
  5
3CC
100
AcDbEntity
  8
0
100
AcDbCircle
 62
253
  6
CONTINUOUS
 10
425.9776944766
 20
104.4165503004
 40
300.0
100
AcDbArc
 50
181.2974442617
 51
181.5280685946
  0
ELLIPSE
  5
3CD
100
AcDbEntity
  8
RACCORDO
100
AcDbEllipse
 62
7
  6
CONTINUOUS
 10
155.9583151634
 20
83.3666721628
 30
0.0
 11
0.5658577513
 21
0.5658577513
 31
0.0
 40
0.9996954599
 41
2.3563467834
 42
3.9268385237
  0
ELLIPSE
  5
3CE
100
AcDbEntity
  8
RACCORDO
100
AcDbEllipse
 62
7
  6
CONTINUOUS
 10
155.9583151634
 20
125.4664284379
 30
0.0
 11
0.5658577513
 21
-0.5658577513
 31
0.0
 40
0.9996954599
 41
2.3563467834
 42
3.9268385237
  0
ELLIPSE
  5
3CF
100
AcDbEntity
  8
RACCORDO
100
AcDbEllipse
 62
7
  6
CONTINUOUS
 10
176.5580714385
 20
83.3666721628
 30
0.0
 11
0.5658577513
 21
-0.5658577513
 31
0.0
 40
0.9996954599
 41
-0.7852458701
 42
0.7852458701
  0
ELLIPSE
  5
3D0
100
AcDbEntity
  8
RACCORDO
100
AcDbEllipse
 62
7
  6
CONTINUOUS
 10
176.5580714385
 20
125.4664284379
 30
0.0
 11
0.5658577513
 21
0.5658577513
 31
0.0
 40
0.9996954599
 41
-0.7852458701
 42
0.7852458701
  0
ELLIPSE
  5
3D1
100
AcDbEntity
  8
ASSI
100
AcDbEllipse
 62
7
  6
CONTINUOUS
 10
155.9583151634
 20
83.3666721628
 30
0.0
 11
0.5658577513
 21
0.5658577513
 31
0.0
 40
0.9996954599
 41
2.3563467834
 42
3.9268385237
  0
ELLIPSE
  5
3D2
100
AcDbEntity
  8
ASSI
100
AcDbEllipse
 62
7
  6
CONTINUOUS
 10
155.9583151634
 20
125.4664284379
 30
0.0
 11
0.5658577513
 21
-0.5658577513
 31
0.0
 40
0.9996954599
 41
2.3563467834
 42
3.9268385237
  0
ELLIPSE
  5
3D3
100
AcDbEntity
  8
ASSI
100
AcDbEllipse
 62
7
  6
CONTINUOUS
 10
176.5580714385
 20
83.3666721628
 30
0.0
 11
0.5658577513
 21
-0.5658577513
 31
0.0
 40
0.9996954599
 41
-0.7852458701
 42
0.7852458701
  0
ELLIPSE
  5
3D4
100
AcDbEntity
  8
ASSI
100
AcDbEllipse
 62
7
  6
CONTINUOUS
 10
176.5580714385
 20
125.4664284379
 30
0.0
 11
0.5658577513
 21
0.5658577513
 31
0.0
 40
0.9996954599
 41
-0.7852458701
 42
0.7852458701
  0
ELLIPSE
  5
3D5
100
AcDbEntity
  8
0
100
AcDbEllipse
 62
253
  6
CONTINUOUS
 10
425.9776944766
 20
104.4165503004
 30
0.0
 11
300.0
 21
0.0
 31
0.0
 40
1.0
 41
-3.1186382569
 42
-3.1173998176
  0
ELLIPSE
  5
3D6
100
AcDbEntity
  8
0
100
AcDbEllipse
 62
253
  6
CONTINUOUS
 10
425.9776944766
 20
104.4165503004
 30
0.0
 11
300.0
 21
-0.0
 31
0.0
 40
1.0
 41
-3.1235916814
 42
-3.1229725298
  0
ELLIPSE
  5
3D7
100
AcDbEntity
  8
0
100
AcDbEllipse
 62
253
  6
CONTINUOUS
 10
425.9776944766
 20
104.4165503004
 30
0.0
 11
-0.0
 21
300.0
 31
0.0
 40
1.0
 41
1.5842253018
 42
1.5854635193
  0
ELLIPSE
  5
3D8
100
AcDbEntity
  8
0
100
AcDbEllipse
 62
253
  6
CONTINUOUS
 10
425.9776944766
 20
104.4165503004
 30
0.0
 11
0.0
 21
300.0
 31
0.0
 40
1.0
 41
-4.7039126886
 42
-4.7026745421
  0
ELLIPSE
  5
3D9
100
AcDbEntity
  8
0
100
AcDbEllipse
 62
253
  6
CONTINUOUS
 10
425.9776944766
 20
104.4165503004
 30
0.0
 11
-0.0
 21
300.0
 31
0.0
 40
1.0
 41
-4.686338415
 42
-4.6857191522
  0
ELLIPSE
  5
3DA
100
AcDbEntity
  8
0
100
AcDbEllipse
 62
253
  6
CONTINUOUS
 10
425.9776944766
 20
104.4165503004
 30
0.0
 11
300.0
 21
-0.0
 31
0.0
 40
1.0
 41
-3.1211150321
 42
-3.1204958505
  0
ELLIPSE
  5
3DB
100
AcDbEntity
  8
0
100
AcDbEllipse
 62
253
  6
CONTINUOUS
 10
425.9776944766
 20
104.4165503004
 30
0.0
 11
300.0
 21
0.0
 31
0.0
 40
1.0
 41
9.3714194964
 42
9.3908167983
  0
ENDSEC
  0
SECTION
  2
OBJECTS
  0
DICTIONARY
  5
C
100
AcDbDictionary
280
0
281
1
  3
ACAD_GROUP
350
D
  3
ACAD_MLINESTYLE
350
17
  3
ACAD_LAYOUT
350
1A
  3
ACAD_PLOTSETTINGS
350
19
  3
ACAD_PLOTSTYLENAME
350
E
  0
DICTIONARY
  5
D
102
{ACAD_REACTORS
330
C
102
}
100
AcDbDictionary
280
0
281
1
  0
ACDBDICTIONARYWDFLT
  5
E
102
{ACAD_REACTORS
330
C
102
}
100
AcDbDictionary
281
1
  3
Normal
350
F
100
AcDbDictionaryWithDefault
340
F
  0
DICTIONARY
  5
17
102
{ACAD_REACTORS
330
C
102
}
100
AcDbDictionary
280
0
281
1
  3
Standard
350
18
  0
DICTIONARY
  5
19
102
{ACAD_REACTORS
330
C
102
}
100
AcDbDictionary
281
1
  0
DICTIONARY
  5
1A
102
{ACAD_REACTORS
330
C
102
}
100
AcDbDictionary
281
1
  3
Model
350
3DC
  3
Layout1
350
3DD
  0
ACDBPLACEHOLDER
  5
F
102
{ACAD_REACTORS
330
E
102
}
  0
MLINESTYLE
  5
18
102
{ACAD_REACTORS
330
17
102
}
100
AcDbMlineStyle
  2
STANDARD
 70
0
  3

 62
256
 51
90.0
 52
90.0
 71
2
 49
0.5
 62
256
  6
BYLAYER
 49
-0.5
 62
256
  6
BYLAYER
  0
LAYOUT
  5
3DC
102
{ACAD_REACTORS
330
1A
102
}
100
AcDbPlotSettings
  1

  2
none_device
  4
ISO_A4_(297.00_x_210.00_MM)
  6

 40
0.0
 41
0.0
 42
0.0
 43
0.0
 44
297.0
 45
210.0
 46
0.0
 47
0.0
 48
0.0
 49
0.0
140
0.0
141
0.0
142
1.0
143
1.0
 70
1024
 72
1
 73
0
 74
0
  7

 75
0
147
1.0
148
0.0
149
0.0
100
AcDbLayout
  1
Model
 70
0
 71
0
 10
0.0
 20
0.0
 11
297.0
 21
210.0
 12
0.0
 22
0.0
 32
0.0
 14
0.0
 24
0.0
 34
0.0
 15
0.0
 25
0.0
 35
0.0
146
0.0
 13
0.0
 23
0.0
 33
0.0
 16
1.0
 26
0.0
 36
0.0
 17
0.0
 27
1.0
 37
0.0
 76
0
330
215
345
0
346
0
  0
LAYOUT
  5
3DD
102
{ACAD_REACTORS
330
1A
102
}
100
AcDbPlotSettings
  1

  2
none_device
  4
ISO_A4_(297.00_x_210.00_MM)
  6

 40
0.0
 41
0.0
 42
0.0
 43
0.0
 44
297.0
 45
210.0
 46
0.0
 47
0.0
 48
0.0
 49
0.0
140
0.0
141
0.0
142
1.0
143
1.0
 70
0
 72
1
 73
0
 74
0
  7

 75
0
147
1.0
148
0.0
149
0.0
100
AcDbLayout
  1
Layout1
 70
0
 71
1
 10
0.0
 20
0.0
 11
297.0
 21
210.0
 12
0.0
 22
0.0
 32
0.0
 14
0.0
 24
0.0
 34
0.0
 15
0.0
 25
0.0
 35
0.0
146
0.0
 13
0.0
 23
0.0
 33
0.0
 16
1.0
 26
0.0
 36
0.0
 17
0.0
 27
1.0
 37
0.0
 76
0
330
216
345
0
346
0
  0
ENDSEC
  0
EOF
