0
SECTION
2
HEADER
9
$ACADVER
1
AC1014
9
$HANDSEED
5
       2C0
9
$EXTMAX
10
297.0000000000
20
210.0000000000
9
$EXTMIN
10
0.0000000000
20
0.0000000000
9
$LIMMIN
10
0.0000000000
20
0.0000000000
9
$LIMMAX
10
297.0000000000
20
210.0000000000
9
$VIEWCTR
10
148.5000000000
20
105.0000000000
9
$VIEWSIZE
40
210.0000000000
9
$CLAYER
8
0
9
$LTSCALE
40
16.3350000000
9
$CELTYPE
6
BYLAYER
9
$DIMSCALE
40
1
9
$DIMASZ
40
3.0000000000
9
$DIMEXO
40
1.8562500000
9
$DIMDLI
40
11.2860000000
9
$DIMEXE
40
5.3460000000
9
$DIMCEN
40
2.6730000000
9
$DIMLFAC
40
1.0000000000
9
$DIMTXT
40
3.0000000000
9
$DIMTOL
70
1
9
$DIMLIM
70
0
9
$DIMTFAC
40
1.0000000000
9
$DIMTP
40
0.0100000000
9
$DIMTM
40
0.0100000000
9
$MEASUREMENT
70
1
0
ENDSEC
0
SECTION
2
CLASSES
0
ENDSEC
0
SECTION
2
TABLES
0
TABLE
2
VPORT
5
8
100
AcDbSymbolTable
70
2
0
VPORT
5
1F4
100
AcDbSymbolTableRecord
100
AcDbViewportTableRecord
2
*ACTIVE
70
0
10
0.0
20
0.0
11
1.0
21
1.0
12
148.5000000000
22
105.0000000000
13
0.0
23
0.0
14
1.0
24
1.0
15
0.0
25
0.0
16
0.0
26
0.0
36
1.0
17
0.0
27
0.0
37
0.0
40
210.0000000000
41
1.4142857143
42
50.0
43
0.0
44
0.0
50
0.0
51
0.0
71
0
72
100
73
1
74
1
75
0
76
0
77
0
78
0
0
ENDTAB
0
TABLE
2
LTYPE
5
5
100
AcDbSymbolTable
70
6
0
LTYPE
5
14
100
AcDbSymbolTableRecord
100
AcDbLinetypeTableRecord
2
BYBLOCK
70
0
3

72
65
73
0
40
0.0
0
LTYPE
5
15
100
AcDbSymbolTableRecord
100
AcDbLinetypeTableRecord
2
BYLAYER
70
0
3

72
65
73
0
40
0.0
0
LTYPE
5
16
100
AcDbSymbolTableRecord
100
AcDbLinetypeTableRecord
2
CONTINUOUS
70
64
3
Solid line
72
65
73
0
40
0
0
LTYPE
5
1F5
100
AcDbSymbolTableRecord
100
AcDbLinetypeTableRecord
2
CENTER
70
64
3
____ _ ____ _ ____ _ ____ _ ____ _ ____ _ ____
72
65
73
4
40
0.6
49
0.375
74
0
49
-0.075
74
0
49
0.075
74
0
49
-0.075
74
0
0
LTYPE
5
1F6
100
AcDbSymbolTableRecord
100
AcDbLinetypeTableRecord
2
HIDDEN
70
64
3
- - - - - - - - - - - - - - - - - - - -
72
65
73
2
40
0.2
49
0.1
74
0
49
-0.1
74
0
0
LTYPE
5
1F7
100
AcDbSymbolTableRecord
100
AcDbLinetypeTableRecord
2
PHANTOM
70
64
3
_____ _ _ _____ _ _ _____ _ _ _____
72
65
73
6
40
0.8
49
0.45
74
0
49
-0.05
74
0
49
0.1
74
0
49
-0.05
74
0
49
0.1
74
0
49
-0.05
74
0
0
LTYPE
5
1F8
100
AcDbSymbolTableRecord
100
AcDbLinetypeTableRecord
2
DOT
70
64
3
. . . . . . . . . . . . . . . . . . . .
72
65
73
2
40
0.2
49
0.1
74
0
49
-0.1
74
0
0
LTYPE
5
1F9
100
AcDbSymbolTableRecord
100
AcDbLinetypeTableRecord
2
DASHED
70
64
3
- - - - - - - - - - - - - - - - - - - -
72
65
73
2
40
0.2
49
0.1
74
0
49
-0.1
74
0
0
ENDTAB
0
TABLE
2
LAYER
5
2
100
AcDbSymbolTable
70
36
0
LAYER
5
10
100
AcDbSymbolTableRecord
100
AcDbLayerTableRecord
2
0
70
0
62
7
6
CONTINUOUS
0
LAYER
5
1FA
100
AcDbSymbolTableRecord
100
AcDbLayerTableRecord
2
DEFAULT_1
70
0
62
7
6
CENTER
0
LAYER
5
1FB
100
AcDbSymbolTableRecord
100
AcDbLayerTableRecord
2
DEFAULT_2
70
0
62
8
6
HIDDEN
0
LAYER
5
1FC
100
AcDbSymbolTableRecord
100
AcDbLayerTableRecord
2
DEFAULT_3
70
0
62
7
6
PHANTOM
0
LAYER
5
1FD
100
AcDbSymbolTableRecord
100
AcDbLayerTableRecord
2
ASSI
70
0
62
7
6
CONTINUOUS
0
LAYER
5
1FE
100
AcDbSymbolTableRecord
100
AcDbLayerTableRecord
2
COORDINATE
70
0
62
7
6
CONTINUOUS
0
LAYER
5
1FF
100
AcDbSymbolTableRecord
100
AcDbLayerTableRecord
2
COORD_ORIGINE
70
0
62
7
6
CONTINUOUS
0
LAYER
5
200
100
AcDbSymbolTableRecord
100
AcDbLayerTableRecord
2
CURVE
70
0
62
7
6
CONTINUOUS
0
LAYER
5
201
100
AcDbSymbolTableRecord
100
AcDbLayerTableRecord
2
DRAFT
70
0
62
7
6
CONTINUOUS
0
LAYER
5
202
100
AcDbSymbolTableRecord
100
AcDbLayerTableRecord
2
IMPORT_SCRITTE
70
0
62
7
6
CONTINUOUS
0
LAYER
5
203
100
AcDbSymbolTableRecord
100
AcDbLayerTableRecord
2
NOTE
70
0
62
7
6
CONTINUOUS
0
LAYER
5
204
100
AcDbSymbolTableRecord
100
AcDbLayerTableRecord
2
PIANI
70
0
62
7
6
CONTINUOUS
0
LAYER
5
205
100
AcDbSymbolTableRecord
100
AcDbLayerTableRecord
2
PIANI_ORIGINE
70
0
62
7
6
CONTINUOUS
0
LAYER
5
206
100
AcDbSymbolTableRecord
100
AcDbLayerTableRecord
2
PUNTI
70
0
62
7
6
CONTINUOUS
0
LAYER
5
207
100
AcDbSymbolTableRecord
100
AcDbLayerTableRecord
2
RACCORDO
70
0
62
7
6
CONTINUOUS
0
LAYER
5
208
100
AcDbSymbolTableRecord
100
AcDbLayerTableRecord
2
SNAPLINE
70
0
62
7
6
CONTINUOUS
0
LAYER
5
209
100
AcDbSymbolTableRecord
100
AcDbLayerTableRecord
2
SUPERFICI
70
0
62
7
6
CONTINUOUS
0
LAYER
5
20A
100
AcDbSymbolTableRecord
100
AcDbLayerTableRecord
2
TRASH
70
0
62
7
6
CONTINUOUS
0
ENDTAB
0
TABLE
2
STYLE
5
3
100
AcDbSymbolTable
70
1
0
STYLE
5
11
100
AcDbSymbolTableRecord
100
AcDbTextStyleTableRecord
2
STANDARD
70
0
40
0.0
41
0.8000000000
50
0.0
71
0
42
0.2
3
txt
4

0
ENDTAB
0
TABLE
2
VIEW
5
6
100
AcDbSymbolTable
70
0
0
ENDTAB
0
TABLE
2
UCS
5
7
100
AcDbSymbolTable
70
0
0
ENDTAB
0
TABLE
2
APPID
5
9
100
AcDbSymbolTable
70
1
0
APPID
5
20B
100
AcDbSymbolTableRecord
100
AcDbRegAppTableRecord
2
ACAD
70
0
0
ENDTAB
0
TABLE
2
DIMSTYLE
5
A
100
AcDbSymbolTable
70
1
0
DIMSTYLE
105
20C
100
AcDbSymbolTableRecord
100
AcDbDimStyleTableRecord
2
STANDARD
70
0
3

4

5

6

7

40
1.0
41
3.0000000000
42
0.0625
43
0.38
44
0.18
45
0.0
46
0.0
47
0.0100000000
48
0.0100000000
140
3.0000000000
141
0.09
142
0.0
143
25.4
144
1.0000000000
145
0.0
146
1.0000000000
147
0.09
71
1
72
0
73
0
74
0
75
0
76
0
77
1
78
8
170
0
171
2
172
0
173
0
174
0
175
0
176
0
177
0
178
0
270
2
271
2
272
2
273
2
274
2
340
11
275
0
280
0
281
0
282
0
283
1
284
8
285
0
286
0
287
3
288
0
0
DIMSTYLE
105
20D
100
AcDbSymbolTableRecord
100
AcDbDimStyleTableRecord
2
DIMSTYLE_1
70
0
3

4

5

6

7

40
1.0
41
3.0000000000
42
0.0625
43
0.38
44
0.18
45
0.0
46
0.0
47
0.0000000000
48
0.0000000000
140
3.0000000000
141
0.09
142
0.0
143
25.4
144
1.0000000000
145
0.0
146
1.0000000000
147
0.09
71
0
72
0
73
0
74
0
75
0
76
0
77
1
78
8
170
0
171
2
172
0
173
0
174
0
175
0
176
0
177
0
178
0
270
2
271
2
272
2
273
2
274
2
340
11
275
0
280
0
281
0
282
0
283
1
284
8
285
0
286
0
287
3
288
0
0
ENDTAB
0
TABLE
2
BLOCK_RECORD
5
1
100
AcDbSymbolTable
70
0
0
BLOCK_RECORD
5
1B
100
AcDbSymbolTableRecord
100
AcDbBlockTableRecord
2
*MODEL_SPACE
0
BLOCK_RECORD
5
1C
100
AcDbSymbolTableRecord
100
AcDbBlockTableRecord
2
*PAPER_SPACE
0
BLOCK_RECORD
5
20E
100
AcDbSymbolTableRecord
100
AcDbBlockTableRecord
2
*D0
0
BLOCK_RECORD
5
20F
100
AcDbSymbolTableRecord
100
AcDbBlockTableRecord
2
*D1
0
BLOCK_RECORD
5
210
100
AcDbSymbolTableRecord
100
AcDbBlockTableRecord
2
*D2
0
ENDTAB
0
ENDSEC
0
SECTION
2
BLOCKS
0
BLOCK
5
1E
100
AcDbEntity
8
0
100
AcDbBlockBegin
2
*MODEL_SPACE
70
0
10
0.0
20
0.0
30
0.0
3
*MODEL_SPACE
1

0
ENDBLK
5
1F
100
AcDbEntity
8
0
100
AcDbBlockEnd
0
BLOCK
5
20
100
AcDbEntity
8
0
100
AcDbBlockBegin
2
*PAPER_SPACE
70
0
10
0.0
20
0.0
30
0.0
3
*PAPER_SPACE
1

0
ENDBLK
5
21
100
AcDbEntity
8
0
100
AcDbBlockEnd
0
BLOCK
5
211
100
AcDbEntity
8
0
100
AcDbBlockBegin
62
7
6
CONTINUOUS
2
*D0
70
65
10
0.0000000000
20
0.0000000000
3
*D0
1

0
TEXT
5
212
100
AcDbEntity
8
0
100
AcDbText
62
7
6
CONTINUOUS
10
-34.4520398510
20
36.0246494989
7
STANDARD
40
3.0000000000
1
7,9
41
0.7142857143
72
0
100
AcDbText
0
LINE
5
213
100
AcDbEntity
8
0
100
AcDbLine
62
7
6
CONTINUOUS
10
-27.8374320329
20
26.9747713427
11
-27.8374320329
21
36.7746494989
0
LINE
5
214
100
AcDbEntity
8
0
100
AcDbLine
62
7
6
CONTINUOUS
10
-35.7374320329
20
5.9246494989
11
-35.7374320329
21
36.7746494989
0
LINE
5
215
100
AcDbEntity
8
0
100
AcDbLine
62
7
6
CONTINUOUS
10
-27.8374320329
20
35.2746494989
11
-23.8374320329
21
35.2746494989
0
LINE
5
216
100
AcDbEntity
8
0
100
AcDbLine
62
7
6
CONTINUOUS
10
-23.8374320329
20
35.2746494989
11
-31.7874320329
21
35.2746494989
0
LINE
5
217
100
AcDbEntity
8
0
100
AcDbLine
62
7
6
CONTINUOUS
10
-35.7374320329
20
35.2746494989
11
-39.7374320329
21
35.2746494989
0
LINE
5
218
100
AcDbEntity
8
0
100
AcDbLine
62
7
6
CONTINUOUS
10
-39.7374320329
20
35.2746494989
11
-31.7874320329
21
35.2746494989
0
SOLID
5
219
100
AcDbEntity
8
0
100
AcDbTrace
62
7
6
CONTINUOUS
10
-24.8374320329
20
36.2246494989
11
-27.8374320329
21
35.2746494989
12
-24.8374320329
22
34.3246494989
13
-24.8374320329
23
34.3246494989
0
SOLID
5
21A
100
AcDbEntity
8
0
100
AcDbTrace
62
7
6
CONTINUOUS
10
-38.7374320329
20
34.3246494989
11
-35.7374320329
21
35.2746494989
12
-38.7374320329
22
36.2246494989
13
-38.7374320329
23
36.2246494989
0
ENDBLK
5
21B
100
AcDbEntity
8
0
100
AcDbBlockEnd
0
BLOCK
5
21C
100
AcDbEntity
8
0
100
AcDbBlockBegin
62
7
6
CONTINUOUS
2
*D1
70
65
10
0.0000000000
20
0.0000000000
3
*D1
1

0
TEXT
5
21D
100
AcDbEntity
8
0
100
AcDbText
62
7
6
CONTINUOUS
10
-0.1426353767
20
36.0246494989
7
STANDARD
40
3.0000000000
1
22,2
41
0.7321428571
72
0
100
AcDbText
0
LINE
5
21E
100
AcDbEntity
8
0
100
AcDbLine
62
7
6
CONTINUOUS
10
-7.9016315776
20
26.9747713427
11
-7.9016315776
21
36.7746494989
0
LINE
5
21F
100
AcDbEntity
8
0
100
AcDbLine
62
7
6
CONTINUOUS
10
14.2983684224
20
26.9747713427
11
14.2983684224
21
36.7746494989
0
LINE
5
220
100
AcDbEntity
8
0
100
AcDbLine
62
7
6
CONTINUOUS
10
-7.9016315776
20
35.2746494989
11
3.1983684224
21
35.2746494989
0
LINE
5
221
100
AcDbEntity
8
0
100
AcDbLine
62
7
6
CONTINUOUS
10
14.2983684224
20
35.2746494989
11
3.1983684224
21
35.2746494989
0
SOLID
5
222
100
AcDbEntity
8
0
100
AcDbTrace
62
7
6
CONTINUOUS
10
-4.9016315776
20
36.2246494989
11
-7.9016315776
21
35.2746494989
12
-4.9016315776
22
34.3246494989
13
-4.9016315776
23
34.3246494989
0
SOLID
5
223
100
AcDbEntity
8
0
100
AcDbTrace
62
7
6
CONTINUOUS
10
11.2983684224
20
34.3246494989
11
14.2983684224
21
35.2746494989
12
11.2983684224
22
36.2246494989
13
11.2983684224
23
36.2246494989
0
ENDBLK
5
224
100
AcDbEntity
8
0
100
AcDbBlockEnd
0
BLOCK
5
225
100
AcDbEntity
8
0
100
AcDbBlockBegin
62
7
6
CONTINUOUS
2
*D2
70
65
10
0.0000000000
20
0.0000000000
3
*D2
1

0
TEXT
5
226
100
AcDbEntity
8
0
100
AcDbText
62
7
6
CONTINUOUS
10
21.5483684224
20
2.1380497781
7
STANDARD
40
3.0000000000
1
43,6
50
90.0000000000
41
0.7142857143
72
0
100
AcDbText
0
LINE
5
227
100
AcDbEntity
8
0
100
AcDbLine
62
7
6
CONTINUOUS
10
-6.5015873496
20
27.1744834270
11
23.7983684224
21
27.1744834270
0
LINE
5
228
100
AcDbEntity
8
0
100
AcDbLine
62
7
6
CONTINUOUS
10
-6.6017534215
20
-16.4253505011
11
23.7983684224
21
-16.4253505011
0
LINE
5
229
100
AcDbEntity
8
0
100
AcDbLine
62
7
6
CONTINUOUS
10
22.2983684224
20
27.1744834270
11
22.2983684224
21
5.3745664629
0
LINE
5
22A
100
AcDbEntity
8
0
100
AcDbLine
62
7
6
CONTINUOUS
10
22.2983684224
20
-16.4253505011
11
22.2983684224
21
5.3745664629
0
SOLID
5
22B
100
AcDbEntity
8
0
100
AcDbTrace
62
7
6
CONTINUOUS
10
23.2483684224
20
24.1744834270
11
22.2983684224
21
27.1744834270
12
21.3483684224
22
24.1744834270
13
21.3483684224
23
24.1744834270
0
SOLID
5
22C
100
AcDbEntity
8
0
100
AcDbTrace
62
7
6
CONTINUOUS
10
21.3483684224
20
-13.4253505011
11
22.2983684224
21
-16.4253505011
12
23.2483684224
22
-13.4253505011
13
23.2483684224
23
-13.4253505011
0
ENDBLK
5
22D
100
AcDbEntity
8
0
100
AcDbBlockEnd
0
ENDSEC
0
SECTION
2
ENTITIES
0
DIMENSION
5
22E
100
AcDbEntity
8
0
100
AcDbDimension
62
7
6
CONTINUOUS
2
*D0
10
-35.7374320329
20
35.2746494989
11
-31.2377541367
21
37.5246494989
70
160
3
DIMSTYLE_1
100
AcDbAlignedDimension
13
-27.8374320329
23
26.9747713427
14
-35.7374320329
24
5.9246494989
50
180.000000
100
AcDbRotatedDimension
0
DIMENSION
5
22F
100
AcDbEntity
8
0
100
AcDbDimension
62
7
6
CONTINUOUS
2
*D1
10
14.2983684224
20
35.2746494989
11
4.2502217661
21
37.5246494989
70
160
3
DIMSTYLE_1
100
AcDbAlignedDimension
13
-7.9016315776
23
26.9747713427
14
14.2983684224
24
26.9747713427
100
AcDbRotatedDimension
0
DIMENSION
5
230
100
AcDbEntity
8
0
100
AcDbDimension
62
7
6
CONTINUOUS
2
*D2
10
22.2983684224
20
-16.4253505011
11
20.0483684224
21
6.4237640639
70
160
3
DIMSTYLE_1
100
AcDbAlignedDimension
13
-6.5015873496
23
27.1744834270
14
-6.6017534215
24
-16.4253505011
50
270.000000
100
AcDbRotatedDimension
0
LINE
5
231
100
AcDbEntity
8
0
100
AcDbLine
62
7
6
CONTINUOUS
10
-7.1017534215
20
-16.4253505011
11
13.4984902663
21
-16.4253505011
0
LINE
5
232
100
AcDbEntity
8
0
100
AcDbLine
62
9
6
CONTINUOUS
10
13.3983241944
20
-16.3251844293
11
-7.0015873496
21
-16.3251844293
0
LINE
5
233
100
AcDbEntity
8
0
100
AcDbLine
62
9
6
CONTINUOUS
10
13.3863470404
20
-14.9271719940
11
-6.9896101956
21
-14.9271719940
0
LINE
5
234
100
AcDbEntity
8
0
100
AcDbLine
62
9
6
CONTINUOUS
10
8.7022716811
20
-9.1841004970
11
-2.3055348363
21
-9.1841004970
0
LINE
5
235
100
AcDbEntity
8
0
100
AcDbLine
62
7
6
CONTINUOUS
10
8.7022716811
20
-9.0792347213
11
-2.3055348363
21
-9.0792347213
0
LINE
5
236
100
AcDbEntity
8
0
100
AcDbLine
62
7
6
CONTINUOUS
10
-1.3016315776
20
-9.0778608268
11
7.6983684224
21
-9.0778608268
0
LINE
5
237
100
AcDbEntity
8
0
100
AcDbLine
62
7
6
CONTINUOUS
10
-2.3016315776
20
-9.0753505011
11
8.6983684224
21
-9.0753505011
0
LINE
5
238
100
AcDbEntity
8
0
100
AcDbLine
62
9
6
CONTINUOUS
10
-2.3016315776
20
-8.8753505011
11
8.6983684224
21
-8.8753505011
0
LINE
5
239
100
AcDbEntity
8
0
100
AcDbLine
62
9
6
CONTINUOUS
10
-2.6016315776
20
-8.5753505011
11
-2.8016315776
21
-8.5753505002
0
LINE
5
23A
100
AcDbEntity
8
0
100
AcDbLine
62
9
6
CONTINUOUS
10
8.9983684224
20
-8.5753505011
11
9.1983684224
21
-8.5753505011
0
LINE
5
23B
100
AcDbEntity
8
0
100
AcDbLine
62
9
6
CONTINUOUS
10
-2.8016315776
20
-5.0753314627
11
-2.8070177509
21
-5.0699452893
0
LINE
5
23C
100
AcDbEntity
8
0
100
AcDbLine
62
7
6
CONTINUOUS
10
-7.9016315776
20
-15.6254723450
11
-7.9016315776
21
26.4747713427
0
LINE
5
23D
100
AcDbEntity
8
0
100
AcDbLine
62
9
6
CONTINUOUS
10
-2.6016315776
20
-5.0753505011
11
-2.8016315776
21
-5.0753505011
0
LINE
5
23E
100
AcDbEntity
8
0
100
AcDbLine
62
9
6
CONTINUOUS
10
8.9983684224
20
-5.0753505011
11
9.1983684224
21
-5.0753505021
0
LINE
5
23F
100
AcDbEntity
8
0
100
AcDbLine
62
9
6
CONTINUOUS
10
8.6983684224
20
-4.7753505011
11
-2.3016315776
21
-4.7753505011
0
LINE
5
240
100
AcDbEntity
8
0
100
AcDbLine
62
7
6
CONTINUOUS
10
8.6983684224
20
-4.5753505011
11
-2.3016315776
21
-4.5753505011
0
LINE
5
241
100
AcDbEntity
8
0
100
AcDbLine
62
7
6
CONTINUOUS
10
7.6983684224
20
-4.5728401755
11
-1.3016315776
21
-4.5728401755
0
LINE
5
242
100
AcDbEntity
8
0
100
AcDbLine
62
7
6
CONTINUOUS
10
-2.3072149303
20
-4.5697861870
11
8.7039517750
21
-4.5697861870
0
LINE
5
243
100
AcDbEntity
8
0
100
AcDbLine
62
9
6
CONTINUOUS
10
-2.3072149303
20
-4.4730892409
11
8.7039517750
21
-4.4730892409
0
LINE
5
244
100
AcDbEntity
8
0
100
AcDbLine
62
9
6
CONTINUOUS
10
-2.3016506161
20
-4.5753505011
11
-2.3072149303
21
-4.5697861870
0
LINE
5
245
100
AcDbEntity
8
0
100
AcDbLine
62
9
6
CONTINUOUS
10
13.4984902663
20
27.2746494989
11
13.3983241944
21
27.1744834270
0
LINE
5
246
100
AcDbEntity
8
0
100
AcDbLine
62
9
6
CONTINUOUS
10
13.3983241944
20
-16.3251844293
11
13.4984902663
21
-16.4253505011
0
LINE
5
247
100
AcDbEntity
8
0
100
AcDbLine
62
9
6
CONTINUOUS
10
14.2983684224
20
26.4747713427
11
14.1982023506
21
26.3746052709
0
LINE
5
248
100
AcDbEntity
8
0
100
AcDbLine
62
9
6
CONTINUOUS
10
14.1982023506
20
-15.5253062732
11
14.2983684224
21
-15.6254723450
0
LINE
5
249
100
AcDbEntity
8
0
100
AcDbLine
62
9
6
CONTINUOUS
10
8.6983874609
20
-9.0753505011
11
8.7022716811
21
-9.0792347213
0
LINE
5
24A
100
AcDbEntity
8
0
100
AcDbLine
62
9
6
CONTINUOUS
10
-2.9057619029
20
-8.5841732802
11
-2.9070139432
21
-5.0734446541
0
LINE
5
24B
100
AcDbEntity
8
0
100
AcDbLine
62
7
6
CONTINUOUS
10
-2.8016315776
20
-5.0753505011
11
-2.8016315776
21
-8.5753505011
0
LINE
5
24C
100
AcDbEntity
8
0
100
AcDbLine
62
9
6
CONTINUOUS
10
-2.6016315776
20
-5.0753505011
11
-2.6016315776
21
-8.5753505011
0
LINE
5
24D
100
AcDbEntity
8
0
100
AcDbLine
62
9
6
CONTINUOUS
10
-2.3072149303
20
-4.4730892409
11
-2.3072149303
21
-4.5697861870
0
LINE
5
24E
100
AcDbEntity
8
0
100
AcDbLine
62
9
6
CONTINUOUS
10
-2.3055348363
20
-9.1841004970
11
-2.3055348401
21
-9.0792347213
0
LINE
5
24F
100
AcDbEntity
8
0
100
AcDbLine
62
9
6
CONTINUOUS
10
-2.3016315776
20
-8.8753505011
11
-2.3016315776
21
-9.0753505011
0
LINE
5
250
100
AcDbEntity
8
0
100
AcDbLine
62
9
6
CONTINUOUS
10
-2.3016315776
20
-4.7753505011
11
-2.3016315767
21
-4.5753505011
0
LINE
5
251
100
AcDbEntity
8
0
100
AcDbLine
62
9
6
CONTINUOUS
10
9.1983684224
20
-8.5753695396
11
9.2025025554
21
-8.5795036726
0
LINE
5
252
100
AcDbEntity
8
0
100
AcDbLine
62
7
6
CONTINUOUS
10
-1.3016315776
20
-9.0778608268
11
-1.3016315776
21
-9.0753505011
0
LINE
5
253
100
AcDbEntity
8
0
100
AcDbLine
62
7
6
CONTINUOUS
10
-1.3016315776
20
-4.5753505011
11
-1.3016315776
21
-4.5728401755
0
LINE
5
254
100
AcDbEntity
8
0
100
AcDbLine
62
7
6
CONTINUOUS
10
7.6983684224
20
-4.5728401755
11
7.6983684224
21
-4.5753505011
0
LINE
5
255
100
AcDbEntity
8
0
100
AcDbLine
62
7
6
CONTINUOUS
10
7.6983684224
20
-9.0753505011
11
7.6983684224
21
-9.0778608268
0
LINE
5
256
100
AcDbEntity
8
0
100
AcDbLine
62
9
6
CONTINUOUS
10
8.6983684224
20
-8.8753505011
11
8.6983684215
21
-9.0753505011
0
LINE
5
257
100
AcDbEntity
8
0
100
AcDbLine
62
9
6
CONTINUOUS
10
8.6983684224
20
-4.7753505011
11
8.6983684224
21
-4.5753505011
0
LINE
5
258
100
AcDbEntity
8
0
100
AcDbLine
62
9
6
CONTINUOUS
10
8.7022716811
20
-9.1841004970
11
8.7022716811
21
-9.0792347213
0
LINE
5
259
100
AcDbEntity
8
0
100
AcDbLine
62
9
6
CONTINUOUS
10
8.7039517750
20
-4.4730892409
11
8.7039517789
21
-4.5697861870
0
LINE
5
25A
100
AcDbEntity
8
0
100
AcDbLine
62
9
6
CONTINUOUS
10
8.9983684224
20
-8.5753505011
11
8.9983684224
21
-5.0753505011
0
LINE
5
25B
100
AcDbEntity
8
0
100
AcDbLine
62
7
6
CONTINUOUS
10
9.1983684224
20
-8.5753505011
11
9.1983684224
21
-5.0753505011
0
LINE
5
25C
100
AcDbEntity
8
0
100
AcDbLine
62
9
6
CONTINUOUS
10
9.3037507880
20
-5.0734446541
11
9.3024987477
21
-8.5841732802
0
LINE
5
25D
100
AcDbEntity
8
0
100
AcDbLine
62
9
6
CONTINUOUS
10
-2.8016315776
20
-8.5753695396
11
-2.8057657106
21
-8.5795036726
0
LINE
5
25E
100
AcDbEntity
8
0
100
AcDbLine
62
9
6
CONTINUOUS
10
-2.3016506161
20
-9.0753505011
11
-2.3055348363
21
-9.0792347213
0
LINE
5
25F
100
AcDbEntity
8
0
100
AcDbLine
62
9
6
CONTINUOUS
10
-7.9016315776
20
-15.6254723450
11
-7.8014655058
21
-15.5253062732
0
LINE
5
260
100
AcDbEntity
8
0
100
AcDbLine
62
9
6
CONTINUOUS
10
-7.1017534215
20
-16.4253505011
11
-7.0015873496
21
-16.3251844293
0
LINE
5
261
100
AcDbEntity
8
0
100
AcDbLine
62
9
6
CONTINUOUS
10
-7.8014655058
20
26.3746052709
11
-7.9016315776
21
26.4747713427
0
LINE
5
262
100
AcDbEntity
8
0
100
AcDbLine
62
9
6
CONTINUOUS
10
-7.0015873496
20
27.1744834270
11
-7.1017534215
21
27.2746494989
0
LINE
5
263
100
AcDbEntity
8
0
100
AcDbLine
62
7
6
CONTINUOUS
10
14.2983684224
20
-15.6254723450
11
14.2983684224
21
26.4747713427
0
LINE
5
264
100
AcDbEntity
8
0
100
AcDbLine
62
9
6
CONTINUOUS
10
8.6983874609
20
-4.5753505011
11
8.7039517750
21
-4.5697861870
0
LINE
5
265
100
AcDbEntity
8
0
100
AcDbLine
62
9
6
CONTINUOUS
10
9.1983684224
20
-5.0753314627
11
9.2037545957
21
-5.0699452893
0
LINE
5
266
100
AcDbEntity
8
0
100
AcDbLine
62
9
6
CONTINUOUS
10
13.3863470404
20
25.7764709918
11
-6.9896101956
21
25.7764709918
0
LINE
5
267
100
AcDbEntity
8
0
100
AcDbLine
62
9
6
CONTINUOUS
10
13.3983241944
20
27.1744834270
11
-7.0015873496
21
27.1744834270
0
LINE
5
268
100
AcDbEntity
8
0
100
AcDbLine
62
7
6
CONTINUOUS
10
-7.1017534215
20
27.2746494989
11
13.4984902663
21
27.2746494989
0
LINE
5
269
100
AcDbEntity
8
0
100
AcDbLine
62
7
6
CONTINUOUS
10
-33.5759424447
20
-16.3251844293
11
-27.8374320329
21
-16.4253505011
0
LINE
5
26A
100
AcDbEntity
8
0
100
AcDbLine
62
9
6
CONTINUOUS
10
-33.5759424447
20
-15.5253062732
11
-27.8374320329
21
-15.6254723450
0
LINE
5
26B
100
AcDbEntity
8
0
100
AcDbLine
62
9
6
CONTINUOUS
10
-34.2621131379
20
-14.8729004701
11
-35.0462920424
21
-14.9271708917
0
LINE
5
26C
100
AcDbEntity
8
0
100
AcDbLine
62
7
6
CONTINUOUS
10
-35.3868104698
20
-9.0753505011
11
-35.5874320329
21
-9.0753505011
0
LINE
5
26D
100
AcDbEntity
8
0
100
AcDbLine
62
9
6
CONTINUOUS
10
-35.4101750116
20
-8.5753505011
11
-35.7874320329
21
-8.5753505011
0
LINE
5
26E
100
AcDbEntity
8
0
100
AcDbLine
62
9
6
CONTINUOUS
10
-35.5536924645
20
-5.0753505011
11
-35.7874320329
21
-5.0753505011
0
LINE
5
26F
100
AcDbEntity
8
0
100
AcDbLine
62
7
6
CONTINUOUS
10
-35.5707188115
20
-4.5753505011
11
-35.5874320329
21
-4.5753505011
0
LINE
5
270
100
AcDbEntity
8
0
100
AcDbLine
62
7
6
CONTINUOUS
10
-35.7874320329
20
-8.8753505011
11
-35.7874320329
21
-4.7753505011
0
LINE
5
271
100
AcDbEntity
8
0
100
AcDbLine
62
9
6
CONTINUOUS
10
-35.5874320329
20
-9.0753505011
11
-35.5874320329
21
-4.5753505011
0
LINE
5
272
100
AcDbEntity
8
0
100
AcDbLine
62
7
6
CONTINUOUS
10
-27.8374320329
20
-16.4253505011
11
-27.8374320329
21
27.2746494989
0
LINE
5
273
100
AcDbEntity
8
0
100
AcDbLine
62
9
6
CONTINUOUS
10
-27.8374320329
20
26.4747713427
11
-33.5759424447
21
26.3746052709
0
LINE
5
274
100
AcDbEntity
8
0
100
AcDbLine
62
7
6
CONTINUOUS
10
-27.8374320329
20
27.2746494989
11
-33.5759424421
21
27.1744834271
0
LINE
5
275
100
AcDbEntity
8
0
100
AcDbLine
62
9
6
CONTINUOUS
10
-34.2621131379
20
25.7221994678
11
-35.0463081885
21
25.7764709899
0
ARC
5
276
100
AcDbEntity
8
0
100
AcDbCircle
62
7
6
CONTINUOUS
10
-2.3016315776
20
-5.0753505011
40
0.5000000000
100
AcDbArc
50
90.0000000000
51
180.0000000000
0
ARC
5
277
100
AcDbEntity
8
0
100
AcDbCircle
62
7
6
CONTINUOUS
10
8.6983684224
20
-5.0753505011
40
0.5000000000
100
AcDbArc
50
0.0000000000
51
90.0000000000
0
ARC
5
278
100
AcDbEntity
8
0
100
AcDbCircle
62
7
6
CONTINUOUS
10
8.6983684224
20
-8.5753505011
40
0.5000000000
100
AcDbArc
50
270.0000000000
51
360.0000000000
0
ARC
5
279
100
AcDbEntity
8
0
100
AcDbCircle
62
7
6
CONTINUOUS
10
-2.3016315776
20
-8.5753505011
40
0.5000000000
100
AcDbArc
50
180.0000000000
51
270.0000000000
0
ARC
5
27A
100
AcDbEntity
8
0
100
AcDbCircle
62
9
6
CONTINUOUS
10
-2.3016315776
20
-5.0753505011
40
0.2999998665
100
AcDbArc
50
90.0000000000
51
180.0000000000
0
ARC
5
27B
100
AcDbEntity
8
0
100
AcDbCircle
62
9
6
CONTINUOUS
10
8.6983684224
20
-8.5753505011
40
0.2999998665
100
AcDbArc
50
270.0000000000
51
360.0000000000
0
ARC
5
27C
100
AcDbEntity
8
0
100
AcDbCircle
62
9
6
CONTINUOUS
10
-2.3016315776
20
-8.5753505011
40
0.2999998665
100
AcDbArc
50
180.0000000000
51
270.0000000000
0
ARC
5
27D
100
AcDbEntity
8
0
100
AcDbCircle
62
9
6
CONTINUOUS
10
8.6983684224
20
-5.0753505011
40
0.2999998665
100
AcDbArc
50
0.0000000000
51
90.0000000000
0
ARC
5
27E
100
AcDbEntity
8
0
100
AcDbCircle
62
7
6
CONTINUOUS
10
-35.5874320329
20
-4.7753505011
40
0.2000000000
100
AcDbArc
50
90.0000000000
51
180.0000000000
0
ARC
5
27F
100
AcDbEntity
8
0
100
AcDbCircle
62
7
6
CONTINUOUS
10
-35.5874320329
20
-8.8753505011
40
0.2000000000
100
AcDbArc
50
180.0000000000
51
270.0000000000
0
ARC
5
280
100
AcDbEntity
8
0
100
AcDbCircle
62
7
6
CONTINUOUS
10
-33.5497638350
20
-14.8254128866
40
1.5000000000
100
AcDbArc
50
183.8898991621
51
269.0000000000
0
ARC
5
281
100
AcDbEntity
8
0
100
AcDbCircle
62
7
6
CONTINUOUS
10
264.2625679671
20
5.4246494989
40
300.0000000000
100
AcDbArc
50
176.1101008379
51
183.8898991621
0
ARC
5
282
100
AcDbEntity
8
0
100
AcDbCircle
62
7
6
CONTINUOUS
10
-33.5497638350
20
25.6747118843
40
1.5000000000
100
AcDbArc
50
91.0000000000
51
176.1101008379
0
SPLINE
5
283
100
AcDbEntity
8
0
100
AcDbSpline
62
7
6
CONTINUOUS
70
0
71
3
72
15
73
11
74
9
42
0.0000001000
43
0.0000001000
44
0.0000000001
12
-1.2544455271
22
0.0000000000
32
0.0000000000
13
0.0000000000
23
1.2544455271
33
0.0000000000
40
0.0000000000
40
0.0000000000
40
0.0000000000
40
0.0000000000
40
0.1249999833
40
0.2499998186
40
0.3750000602
40
0.5000001926
40
0.6250002680
40
0.7500003740
40
0.8750000775
40
1.0000000000
40
1.0000000000
40
1.0000000000
40
1.0000000000
10
-7.1017534215
20
-16.4253505011
30
0.0000000000
10
-7.1540219781
20
-16.4253505011
30
0.0000000000
10
-7.2588486643
20
-16.4150410674
30
0.0000000000
10
-7.4098227547
20
-16.3692370411
30
0.0000000000
10
-7.5490211788
20
-16.2948491021
30
0.0000000000
10
-7.6710135299
20
-16.1947321416
30
0.0000000000
10
-7.7711303850
20
-16.0727397790
30
0.0000000000
10
-7.8455182014
20
-15.9335414468
30
0.0000000000
10
-7.8913221568
20
-15.7825674814
30
0.0000000000
10
-7.9016315776
20
-15.6777408762
30
0.0000000000
10
-7.9016315776
20
-15.6254723450
30
0.0000000000
11
-7.1017534215
21
-16.4253505011
31
0.0000000000
11
-7.2578043796
21
-16.4099844161
31
0.0000000000
11
-7.4078599770
21
-16.3644731250
31
0.0000000000
11
-7.5461535223
21
-16.2905609131
31
0.0000000000
11
-7.6673676382
21
-16.1910862184
31
0.0000000000
11
-7.7668422194
21
-16.0698721018
31
0.0000000000
11
-7.8407542943
21
-15.9315786762
31
0.0000000000
11
-7.8862655075
21
-15.7815232280
31
0.0000000000
11
-7.9016315776
21
-15.6254723450
31
0.0000000000
0
SPLINE
5
284
100
AcDbEntity
8
0
100
AcDbSpline
62
7
6
CONTINUOUS
70
0
71
3
72
15
73
11
74
9
42
0.0000001000
43
0.0000001000
44
0.0000000001
12
0.0000000000
22
1.2544455271
32
0.0000000000
13
1.2544455271
23
0.0000000000
33
0.0000000000
40
0.0000000000
40
0.0000000000
40
0.0000000000
40
0.0000000000
40
0.1249999833
40
0.2499998186
40
0.3750000602
40
0.5000001926
40
0.6250002680
40
0.7500003740
40
0.8750000775
40
1.0000000000
40
1.0000000000
40
1.0000000000
40
1.0000000000
10
-7.9016315776
20
26.4747713427
30
0.0000000000
10
-7.9016315776
20
26.5270398994
30
0.0000000000
10
-7.8913221439
20
26.6318665855
30
0.0000000000
10
-7.8455181175
20
26.7828406760
30
0.0000000000
10
-7.7711301786
20
26.9220391000
30
0.0000000000
10
-7.6710132181
20
27.0440314512
30
0.0000000000
10
-7.5490208555
20
27.1441483062
30
0.0000000000
10
-7.4098225233
20
27.2185361226
30
0.0000000000
10
-7.2588485579
20
27.2643400781
30
0.0000000000
10
-7.1540219527
20
27.2746494989
30
0.0000000000
10
-7.1017534215
20
27.2746494989
30
0.0000000000
11
-7.9016315776
21
26.4747713427
31
0.0000000000
11
-7.8862654926
21
26.6308223009
31
0.0000000000
11
-7.8407542014
21
26.7808778982
31
0.0000000000
11
-7.7668419896
21
26.9191714435
31
0.0000000000
11
-7.6673672948
21
27.0403855594
31
0.0000000000
11
-7.5461531783
21
27.1398601407
31
0.0000000000
11
-7.4078597527
21
27.2137722156
31
0.0000000000
11
-7.2578043045
21
27.2592834288
31
0.0000000000
11
-7.1017534215
21
27.2746494989
31
0.0000000000
0
SPLINE
5
285
100
AcDbEntity
8
0
100
AcDbSpline
62
7
6
CONTINUOUS
70
0
71
3
72
15
73
11
74
9
42
0.0000001000
43
0.0000001000
44
0.0000000001
12
0.0000000000
22
-1.2544455271
32
0.0000000000
13
-1.2544455271
23
0.0000000000
33
0.0000000000
40
0.0000000000
40
0.0000000000
40
0.0000000000
40
0.0000000000
40
0.1249999833
40
0.2499998186
40
0.3750000602
40
0.5000001926
40
0.6250002680
40
0.7500003740
40
0.8750000775
40
1.0000000000
40
1.0000000000
40
1.0000000000
40
1.0000000000
10
14.2983684224
20
-15.6254723450
30
0.0000000000
10
14.2983684224
20
-15.6777409016
30
0.0000000000
10
14.2880589886
20
-15.7825675878
30
0.0000000000
10
14.2422549623
20
-15.9335416783
30
0.0000000000
10
14.1678670234
20
-16.0727401023
30
0.0000000000
10
14.0677500629
20
-16.1947324535
30
0.0000000000
10
13.9457577002
20
-16.2948493085
30
0.0000000000
10
13.8065593681
20
-16.3692371249
30
0.0000000000
10
13.6555854027
20
-16.4150410804
30
0.0000000000
10
13.5507587975
20
-16.4253505011
30
0.0000000000
10
13.4984902663
20
-16.4253505011
30
0.0000000000
11
14.2983684224
21
-15.6254723450
31
0.0000000000
11
14.2830023374
21
-15.7815233032
31
0.0000000000
11
14.2374910462
21
-15.9315789005
31
0.0000000000
11
14.1635788344
21
-16.0698724458
31
0.0000000000
11
14.0641041396
21
-16.1910865617
31
0.0000000000
11
13.9428900231
21
-16.2905611429
31
0.0000000000
11
13.8045965975
21
-16.3644732179
31
0.0000000000
11
13.6545411493
21
-16.4099844311
31
0.0000000000
11
13.4984902663
21
-16.4253505011
31
0.0000000000
0
SPLINE
5
286
100
AcDbEntity
8
0
100
AcDbSpline
62
7
6
CONTINUOUS
70
0
71
3
72
15
73
11
74
9
42
0.0000001000
43
0.0000001000
44
0.0000000001
12
1.2544455271
22
0.0000000000
32
0.0000000000
13
-0.0000000000
23
-1.2544455271
33
0.0000000000
40
0.0000000000
40
0.0000000000
40
0.0000000000
40
0.0000000000
40
0.1249999833
40
0.2499998186
40
0.3750000602
40
0.5000001926
40
0.6250002680
40
0.7500003740
40
0.8750000775
40
1.0000000000
40
1.0000000000
40
1.0000000000
40
1.0000000000
10
13.4984902663
20
27.2746494989
30
0.0000000000
10
13.5507588229
20
27.2746494989
30
0.0000000000
10
13.6555855091
20
27.2643400651
30
0.0000000000
10
13.8065595995
20
27.2185360388
30
0.0000000000
10
13.9457580236
20
27.1441480998
30
0.0000000000
10
14.0677503747
20
27.0440311394
30
0.0000000000
10
14.1678672298
20
26.9220387767
30
0.0000000000
10
14.2422550462
20
26.7828404446
30
0.0000000000
10
14.2880590016
20
26.6318664792
30
0.0000000000
10
14.2983684224
20
26.5270398740
30
0.0000000000
10
14.2983684224
20
26.4747713427
30
0.0000000000
11
13.4984902663
21
27.2746494989
31
0.0000000000
11
13.6545412244
21
27.2592834138
31
0.0000000000
11
13.8045968218
21
27.2137721227
31
0.0000000000
11
13.9428903671
21
27.1398599108
31
0.0000000000
11
14.0641044830
21
27.0403852161
31
0.0000000000
11
14.1635790642
21
26.9191710996
31
0.0000000000
11
14.2374911391
21
26.7808776739
31
0.0000000000
11
14.2830023523
21
26.6308222258
31
0.0000000000
11
14.2983684224
21
26.4747713427
31
0.0000000000
0
SPLINE
5
287
100
AcDbEntity
8
0
100
AcDbSpline
62
7
6
CONTINUOUS
70
0
71
3
72
12
73
8
74
6
42
0.0000001000
43
0.0000001000
44
0.0000000001
12
0.0000000000
22
-0.7821452238
32
0.0000000000
13
0.7821452238
23
0.0000000000
33
0.0000000000
40
0.0000000000
40
0.0000000000
40
0.0000000000
40
0.0000000000
40
0.1999997719
40
0.3999998703
40
0.6000001297
40
0.8000002281
40
1.0000000000
40
1.0000000000
40
1.0000000000
40
1.0000000000
10
-2.8016315776
20
-8.5753695396
30
0.0000000000
10
-2.8016315776
20
-8.6275124951
30
0.0000000000
10
-2.7850462962
20
-8.7325335327
30
0.0000000000
10
-2.7128620586
20
-8.8741006702
30
0.0000000000
10
-2.6003817467
20
-8.9865809821
30
0.0000000000
10
-2.4588146092
20
-9.0587652197
30
0.0000000000
10
-2.3537935715
20
-9.0753505011
30
0.0000000000
10
-2.3016506161
20
-9.0753505011
30
0.0000000000
11
-2.8016315776
21
-8.5753695396
31
0.0000000000
11
-2.7771619432
21
-8.7298727021
31
0.0000000000
11
-2.7061460766
21
-8.8692528184
31
0.0000000000
11
-2.5955338949
21
-8.9798650001
31
0.0000000000
11
-2.4561537786
21
-9.0508808667
31
0.0000000000
11
-2.3016506161
21
-9.0753505011
31
0.0000000000
0
SPLINE
5
288
100
AcDbEntity
8
0
100
AcDbSpline
62
7
6
CONTINUOUS
70
0
71
3
72
8
73
4
74
2
42
0.0000001000
43
0.0000001000
44
0.0000000001
12
-0.0522499983
22
0.0000000000
32
0.0000000000
13
-0.0521574686
23
-0.0055055012
33
0.0000000000
40
0.0000000000
40
0.0000000000
40
0.0000000000
40
0.0000000000
40
1.0000000000
40
1.0000000000
40
1.0000000000
40
1.0000000000
10
-2.3016506161
20
-4.5753505011
30
0.0000000000
10
-2.3190672822
20
-4.5753505011
30
0.0000000000
10
-2.3365249517
20
-4.5762756918
30
0.0000000000
10
-2.3539107746
20
-4.5781108589
30
0.0000000000
11
-2.3016506161
21
-4.5753505011
31
0.0000000000
11
-2.3539107746
21
-4.5781108589
31
0.0000000000
0
SPLINE
5
289
100
AcDbEntity
8
0
100
AcDbSpline
62
7
6
CONTINUOUS
70
0
71
3
72
12
73
8
74
6
42
0.0000001000
43
0.0000001000
44
0.0000000001
12
-0.7286026511
22
-0.0769079271
32
0.0000000000
13
0.0000000000
23
-0.7298952255
33
0.0000000000
40
0.0000000000
40
0.0000000000
40
0.0000000000
40
0.0000000000
40
0.1427312640
40
0.3570484923
40
0.5713658931
40
0.7856831215
40
1.0000000000
40
1.0000000000
40
1.0000000000
40
1.0000000000
10
-2.3539107746
20
-4.5781108589
30
0.0000000000
10
-2.3885755670
20
-4.5817699141
30
0.0000000000
10
-2.4745765608
20
-4.5999727075
30
0.0000000000
10
-2.6003817467
20
-4.6641200202
30
0.0000000000
10
-2.7128620586
20
-4.7766003320
30
0.0000000000
10
-2.7850462962
20
-4.9181674695
30
0.0000000000
10
-2.8016315776
20
-5.0231885072
30
0.0000000000
10
-2.8016315776
20
-5.0753314627
30
0.0000000000
11
-2.3539107746
21
-4.5781108589
31
0.0000000000
11
-2.4561537786
21
-4.5998201356
31
0.0000000000
11
-2.5955338949
21
-4.6708360021
31
0.0000000000
11
-2.7061460766
21
-4.7814481839
31
0.0000000000
11
-2.7771619432
21
-4.9208283002
31
0.0000000000
11
-2.8016315776
21
-5.0753314627
31
0.0000000000
0
SPLINE
5
28A
100
AcDbEntity
8
0
100
AcDbSpline
62
7
6
CONTINUOUS
70
0
71
3
72
12
73
8
74
6
42
0.0000001000
43
0.0000001000
44
0.0000000001
12
0.0000000000
22
0.7821452238
32
0.0000000000
13
-0.7821452238
23
0.0000000000
33
0.0000000000
40
0.0000000000
40
0.0000000000
40
0.0000000000
40
0.0000000000
40
0.1999997719
40
0.3999998703
40
0.6000001297
40
0.8000002281
40
1.0000000000
40
1.0000000000
40
1.0000000000
40
1.0000000000
10
9.1983684224
20
-5.0753314627
30
0.0000000000
10
9.1983684224
20
-5.0231885072
30
0.0000000000
10
9.1817831410
20
-4.9181674695
30
0.0000000000
10
9.1095989034
20
-4.7766003320
30
0.0000000000
10
8.9971185915
20
-4.6641200202
30
0.0000000000
10
8.8555514540
20
-4.5919357826
30
0.0000000000
10
8.7505304163
20
-4.5753505011
30
0.0000000000
10
8.6983874609
20
-4.5753505011
30
0.0000000000
11
9.1983684224
21
-5.0753314627
31
0.0000000000
11
9.1738987880
21
-4.9208283002
31
0.0000000000
11
9.1028829214
21
-4.7814481839
31
0.0000000000
11
8.9922707397
21
-4.6708360021
31
0.0000000000
11
8.8528906234
21
-4.5998201356
31
0.0000000000
11
8.6983874609
21
-4.5753505011
31
0.0000000000
0
SPLINE
5
28B
100
AcDbEntity
8
0
100
AcDbSpline
62
7
6
CONTINUOUS
70
0
71
3
72
8
73
4
74
2
42
0.0000001000
43
0.0000001000
44
0.0000000001
12
0.0522499983
22
0.0000000000
32
0.0000000000
13
0.0521574686
23
0.0055055012
33
0.0000000000
40
0.0000000000
40
0.0000000000
40
0.0000000000
40
0.0000000000
40
1.0000000000
40
1.0000000000
40
1.0000000000
40
1.0000000000
10
8.6983874609
20
-9.0753505011
30
0.0000000000
10
8.7158041270
20
-9.0753505011
30
0.0000000000
10
8.7332617965
20
-9.0744253104
30
0.0000000000
10
8.7506476194
20
-9.0725901434
30
0.0000000000
11
8.6983874609
21
-9.0753505011
31
0.0000000000
11
8.7506476194
21
-9.0725901434
31
0.0000000000
0
SPLINE
5
28C
100
AcDbEntity
8
0
100
AcDbSpline
62
7
6
CONTINUOUS
70
0
71
3
72
12
73
8
74
6
42
0.0000001000
43
0.0000001000
44
0.0000000001
12
0.7286026511
22
0.0769079271
32
0.0000000000
13
0.0000000000
23
0.7298952255
33
0.0000000000
40
0.0000000000
40
0.0000000000
40
0.0000000000
40
0.0000000000
40
0.1427312640
40
0.3570484923
40
0.5713658931
40
0.7856831215
40
1.0000000000
40
1.0000000000
40
1.0000000000
40
1.0000000000
10
8.7506476194
20
-9.0725901434
30
0.0000000000
10
8.7853124118
20
-9.0689310881
30
0.0000000000
10
8.8713134056
20
-9.0507282948
30
0.0000000000
10
8.9971185915
20
-8.9865809821
30
0.0000000000
10
9.1095989034
20
-8.8741006702
30
0.0000000000
10
9.1817831410
20
-8.7325335327
30
0.0000000000
10
9.1983684224
20
-8.6275124951
30
0.0000000000
10
9.1983684224
20
-8.5753695396
30
0.0000000000
11
8.7506476194
21
-9.0725901434
31
0.0000000000
11
8.8528906234
21
-9.0508808667
31
0.0000000000
11
8.9922707397
21
-8.9798650001
31
0.0000000000
11
9.1028829214
21
-8.8692528184
31
0.0000000000
11
9.1738987880
21
-8.7298727021
31
0.0000000000
11
9.1983684224
21
-8.5753695396
31
0.0000000000
0
SPLINE
5
28D
100
AcDbEntity
8
0
100
AcDbSpline
62
9
6
CONTINUOUS
70
0
71
3
72
13
73
9
74
7
42
0.0000001000
43
0.0000001000
44
0.0000000001
12
-0.9398363114
22
-0.0003386450
32
0.0000000000
13
-0.0003196824
23
0.9398363181
33
0.0000000000
40
0.0000000000
40
0.0000000000
40
0.0000000000
40
0.0000000000
40
0.1674182920
40
0.3339863021
40
0.4997612082
40
0.6657359591
40
0.8327383659
40
1.0000000000
40
1.0000000000
40
1.0000000000
40
1.0000000000
10
-2.3055348363
20
-9.1841004970
30
0.0000000000
10
-2.3579834329
20
-9.1841193954
30
0.0000000000
10
-2.4631350399
20
-9.1702173793
30
0.0000000000
10
-2.6092827249
20
-9.1094603299
30
0.0000000000
10
-2.7345613358
20
-9.0133466029
30
0.0000000000
10
-2.8308998657
20
-8.8880646613
30
0.0000000000
10
-2.8918200406
20
-8.7418046486
30
0.0000000000
10
-2.9057440794
20
-8.6365727996
30
0.0000000000
10
-2.9057619029
20
-8.5841732802
30
0.0000000000
11
-2.3055348363
21
-9.1841004970
31
0.0000000000
11
-2.4615226265
21
-9.1634725995
31
0.0000000000
11
-2.6060891983
21
-9.1034112346
31
0.0000000000
11
-2.7296863098
21
-9.0085545275
31
0.0000000000
11
-2.8247962581
21
-8.8849151345
31
0.0000000000
11
-2.8851030108
21
-8.7400084488
31
0.0000000000
11
-2.9057619029
21
-8.5841732802
31
0.0000000000
0
SPLINE
5
28E
100
AcDbEntity
8
0
100
AcDbSpline
62
9
6
CONTINUOUS
70
0
71
3
72
13
73
9
74
7
42
0.0000001000
43
0.0000001000
44
0.0000000001
12
-0.0000444739
22
-0.9398363678
32
0.0000000000
13
-0.9398363666
23
0.0000648769
33
0.0000000000
40
0.0000000000
40
0.0000000000
40
0.0000000000
40
0.0000000000
40
0.1676141521
40
0.3343201993
40
0.5001446018
40
0.6660706191
40
0.8329340290
40
1.0000000000
40
1.0000000000
40
1.0000000000
40
1.0000000000
10
9.3024987477
20
-8.5841732802
30
0.0000000000
10
9.3024962629
20
-8.6366832388
30
0.0000000000
10
9.2885170872
20
-8.7419358708
30
0.0000000000
10
9.2275760799
20
-8.8881423964
30
0.0000000000
10
9.1312951006
20
-9.0133497411
30
0.0000000000
10
9.0059416054
20
-9.1095209842
30
0.0000000000
10
8.8597404683
20
-9.1702569933
30
0.0000000000
10
8.7546099061
20
-9.1841041099
30
0.0000000000
10
8.7022716811
20
-9.1841004970
30
0.0000000000
11
9.3024987477
21
-8.5841732802
31
0.0000000000
11
9.2817535617
21
-8.7403312102
31
0.0000000000
11
9.2215088678
21
-8.8849620266
31
0.0000000000
11
9.1264869269
21
-9.0084908446
31
0.0000000000
11
9.0027785097
21
-9.1034357869
31
0.0000000000
11
8.8579368256
21
-9.1635585613
31
0.0000000000
11
8.7022716811
21
-9.1841004970
31
0.0000000000
0
SPLINE
5
28F
100
AcDbEntity
8
0
100
AcDbSpline
62
9
6
CONTINUOUS
70
0
71
3
72
10
73
6
74
4
42
0.0000001000
43
0.0000001000
44
0.0000000001
12
0.1002359071
22
0.0000408028
32
0.0000000000
13
0.0183931666
23
0.0985339036
33
0.0000000000
40
0.0000000000
40
0.0000000000
40
0.0000000000
40
0.0000000000
40
0.4963515082
40
0.8615120583
40
1.0000000000
40
1.0000000000
40
1.0000000000
40
1.0000000000
10
-2.9057619029
20
-8.5841732802
30
0.0000000000
10
-2.8891778217
20
-8.5841665293
30
0.0000000000
10
-2.8579510528
20
-8.5858586779
30
0.0000000000
10
-2.8315585433
20
-8.5787932593
30
0.0000000000
10
-2.8066147878
20
-8.5840522584
30
0.0000000000
10
-2.8057657106
20
-8.5795036726
30
0.0000000000
11
-2.9057619029
21
-8.5841732802
31
0.0000000000
11
-2.8560137600
21
-8.5835341879
31
0.0000000000
11
-2.8194514018
21
-8.5818268046
31
0.0000000000
11
-2.8057657106
21
-8.5795036726
31
0.0000000000
0
SPLINE
5
290
100
AcDbEntity
8
0
100
AcDbSpline
62
9
6
CONTINUOUS
70
0
71
3
72
10
73
6
74
4
42
0.0000001000
43
0.0000001000
44
0.0000000001
12
-0.1002464035
22
0.0000402078
32
0.0000000000
13
-0.0183983827
23
0.0985436074
33
0.0000000000
40
0.0000000000
40
0.0000000000
40
0.0000000000
40
0.0000000000
40
0.4963417470
40
0.8615078842
40
1.0000000000
40
1.0000000000
40
1.0000000000
40
1.0000000000
10
9.3024987472
20
-8.5841730996
30
0.0000000000
10
9.2859132555
20
-8.5841664474
30
0.0000000000
10
9.2546834929
20
-8.5858589518
30
0.0000000000
10
9.2282879955
20
-8.5787927439
30
0.0000000000
10
9.2033413792
20
-8.5840528474
30
0.0000000000
10
9.2024920355
20
-8.5795036765
30
0.0000000000
11
9.3024987472
21
-8.5841730996
31
0.0000000000
11
9.2527463698
21
-8.5835342295
31
0.0000000000
11
9.2161796121
21
-8.5818268882
31
0.0000000000
11
9.2024920355
21
-8.5795036765
31
0.0000000000
0
SPLINE
5
291
100
AcDbEntity
8
0
100
AcDbSpline
62
9
6
CONTINUOUS
70
0
71
3
72
10
73
6
74
4
42
0.0000001000
43
0.0000001000
44
0.0000000001
12
-0.1001311589
22
0.0000305596
32
0.0000000000
13
-0.0242133780
23
0.0971594682
33
0.0000000000
40
0.0000000000
40
0.0000000000
40
0.0000000000
40
0.0000000000
40
0.4968516048
40
0.8622195833
40
1.0000000000
40
1.0000000000
40
1.0000000000
40
1.0000000000
10
9.3037507880
20
-5.0734446541
30
0.0000000000
10
9.2871673457
20
-5.0734395929
30
0.0000000000
10
9.2560772930
20
-5.0754350134
30
0.0000000000
10
9.2293325859
20
-5.0680619249
30
0.0000000000
10
9.2048666388
20
-5.0744075133
30
0.0000000000
10
9.2037545957
20
-5.0699452893
30
0.0000000000
11
9.3037507880
21
-5.0734446541
31
0.0000000000
11
9.2540027641
21
-5.0729657187
31
0.0000000000
11
9.2174404244
21
-5.0716862201
31
0.0000000000
11
9.2037545957
21
-5.0699452893
31
0.0000000000
0
SPLINE
5
292
100
AcDbEntity
8
0
100
AcDbSpline
62
9
6
CONTINUOUS
70
0
71
3
72
10
73
6
74
4
42
0.0000001000
43
0.0000001000
44
0.0000000001
12
0.1001416610
22
0.0000301261
32
0.0000000000
13
0.0242201748
23
0.0971685974
33
0.0000000000
40
0.0000000000
40
0.0000000000
40
0.0000000000
40
0.0000000000
40
0.4968417486
40
0.8622152896
40
1.0000000000
40
1.0000000000
40
1.0000000000
40
1.0000000000
10
-2.9070139428
20
-5.0734445187
30
0.0000000000
10
-2.8904290901
20
-5.0734395294
30
0.0000000000
10
-2.8593360952
20
-5.0754352566
30
0.0000000000
10
-2.8325882454
20
-5.0680613970
30
0.0000000000
10
-2.8081196253
20
-5.0744080678
30
0.0000000000
10
-2.8070072354
20
-5.0699452855
30
0.0000000000
11
-2.9070139428
21
-5.0734445187
31
0.0000000000
11
-2.8572616861
21
-5.0729657449
31
0.0000000000
11
-2.8206949487
21
-5.0716862747
31
0.0000000000
11
-2.8070072354
21
-5.0699452855
31
0.0000000000
0
SPLINE
5
293
100
AcDbEntity
8
0
100
AcDbSpline
62
9
6
CONTINUOUS
70
0
71
3
72
8
73
4
74
2
42
0.0000001000
43
0.0000001000
44
0.0000000001
12
-0.0438842117
22
-0.0000088021
32
0.0000000000
13
-0.0438297611
23
0.0038701708
33
0.0000000000
40
0.0000000000
40
0.0000000000
40
0.0000000000
40
0.0000000000
40
1.0000000000
40
1.0000000000
40
1.0000000000
40
1.0000000000
10
-2.3055348363
20
-9.0792347213
30
0.0000000000
10
-2.3201629068
20
-9.0792376554
30
0.0000000000
10
-2.3348152903
20
-9.0785900002
30
0.0000000000
10
-2.3494252107
20
-9.0772999433
30
0.0000000000
11
-2.3055348363
21
-9.0792347213
31
0.0000000000
11
-2.3494252107
21
-9.0772999433
31
0.0000000000
0
SPLINE
5
294
100
AcDbEntity
8
0
100
AcDbSpline
62
9
6
CONTINUOUS
70
0
71
3
72
13
73
9
74
7
42
0.0000001000
43
0.0000001000
44
0.0000000001
12
-0.6943540007
22
0.0613115034
32
0.0000000000
13
-0.0618691776
23
0.6943176933
33
0.0000000000
40
0.0000000000
40
0.0000000000
40
0.0000000000
40
0.0000000000
40
0.1255595969
40
0.3130013369
40
0.4995391756
40
0.6862869381
40
0.8741842231
40
1.0000000000
40
1.0000000000
40
1.0000000000
40
1.0000000000
10
-2.3494252107
20
-9.0772999433
30
0.0000000000
10
-2.3784861468
20
-9.0747338607
30
0.0000000000
10
-2.4505118996
20
-9.0620008348
30
0.0000000000
10
-2.5585839785
20
-9.0171099993
30
0.0000000000
10
-2.6628968042
20
-8.9371621444
30
0.0000000000
10
-2.7431797517
20
-8.8329671807
30
0.0000000000
10
-2.7883659580
20
-8.7247724755
30
0.0000000000
10
-2.8012011408
20
-8.6525927254
30
0.0000000000
10
-2.8037958470
20
-8.6234740187
30
0.0000000000
11
-2.3494252107
21
-9.0772999433
31
0.0000000000
11
-2.4355784488
21
-9.0620409291
31
0.0000000000
11
-2.5559317731
21
-9.0120763952
31
0.0000000000
11
-2.6588521413
21
-8.9331752467
31
0.0000000000
11
-2.7381029844
21
-8.8303395939
31
0.0000000000
11
-2.7884145173
21
-8.7097876635
31
0.0000000000
11
-2.8037958470
21
-8.6234740187
31
0.0000000000
0
SPLINE
5
295
100
AcDbEntity
8
0
100
AcDbSpline
62
9
6
CONTINUOUS
70
0
71
3
72
8
73
4
74
2
42
0.0000001000
43
0.0000001000
44
0.0000000001
12
-0.0039125719
22
0.0439082590
32
0.0000000000
13
-0.0000193504
23
0.0439651026
33
0.0000000000
40
0.0000000000
40
0.0000000000
40
0.0000000000
40
0.0000000000
40
1.0000000000
40
1.0000000000
40
1.0000000000
40
1.0000000000
10
-2.8037958470
20
-8.6234740187
30
0.0000000000
10
-2.8051000376
20
-8.6088379324
30
0.0000000000
10
-2.8057592604
20
-8.5941587068
30
0.0000000000
10
-2.8057657106
20
-8.5795036726
30
0.0000000000
11
-2.8037958470
21
-8.6234740187
31
0.0000000000
11
-2.8057657106
21
-8.5795036726
31
0.0000000000
0
SPLINE
5
296
100
AcDbEntity
8
0
100
AcDbSpline
62
9
6
CONTINUOUS
70
0
71
3
72
8
73
4
74
2
42
0.0000001000
43
0.0000001000
44
0.0000000001
12
-0.0000248860
22
0.0439751189
32
0.0000000000
13
0.0038698953
23
0.0439218258
33
0.0000000000
40
0.0000000000
40
0.0000000000
40
0.0000000000
40
0.0000000000
40
1.0000000000
40
1.0000000000
40
1.0000000000
40
1.0000000000
10
-2.8070177509
20
-5.0699452893
30
0.0000000000
10
-2.8070260463
20
-5.0552869164
30
0.0000000000
10
-2.8063811691
20
-5.0406038067
30
0.0000000000
10
-2.8050912040
20
-5.0259631981
30
0.0000000000
11
-2.8070177509
21
-5.0699452893
31
0.0000000000
11
-2.8050912040
21
-5.0259631981
31
0.0000000000
0
SPLINE
5
297
100
AcDbEntity
8
0
100
AcDbSpline
62
9
6
CONTINUOUS
70
0
71
3
72
13
73
9
74
7
42
0.0000001000
43
0.0000001000
44
0.0000000001
12
0.0611856967
22
0.6944341613
32
0.0000000000
13
0.6944114673
23
0.0614555525
33
0.0000000000
40
0.0000000000
40
0.0000000000
40
0.0000000000
40
0.0000000000
40
0.1257541824
40
0.3133611848
40
0.4999133007
40
0.6865588546
40
0.8742903388
40
1.0000000000
40
1.0000000000
40
1.0000000000
40
1.0000000000
10
-2.8050912040
20
-5.0259631981
30
0.0000000000
10
-2.8025264182
20
-4.9968538647
30
0.0000000000
10
-2.7897807484
20
-4.9247362950
30
0.0000000000
10
-2.7448151565
20
-4.8165847233
30
0.0000000000
10
-2.6647744711
20
-4.7123017829
30
0.0000000000
10
-2.5605453180
20
-4.6321405883
30
0.0000000000
10
-2.4523835724
20
-4.5870797757
30
0.0000000000
10
-2.3802525207
20
-4.5743056937
30
0.0000000000
10
-2.3511544440
20
-4.5717305081
30
0.0000000000
11
-2.8050912040
21
-5.0259631981
31
0.0000000000
11
-2.7898099514
21
-4.9396677265
31
0.0000000000
11
-2.7397555601
21
-4.8192150758
31
0.0000000000
11
-2.6607695041
21
-4.7163331704
31
0.0000000000
11
-2.5579117285
21
-4.6372091008
31
0.0000000000
11
-2.4374129256
21
-4.5870403064
31
0.0000000000
11
-2.3511544440
21
-4.5717305081
31
0.0000000000
0
SPLINE
5
298
100
AcDbEntity
8
0
100
AcDbSpline
62
9
6
CONTINUOUS
70
0
71
3
72
8
73
4
74
2
42
0.0000001000
43
0.0000001000
44
0.0000000001
12
0.0438785923
22
0.0038832641
32
0.0000000000
13
0.0439332757
23
-0.0000022213
33
0.0000000000
40
0.0000000000
40
0.0000000000
40
0.0000000000
40
0.0000000000
40
1.0000000000
40
1.0000000000
40
1.0000000000
40
1.0000000000
10
-2.3511544440
20
-4.5717305081
30
0.0000000000
10
-2.3365282465
20
-4.5704360867
30
0.0000000000
10
-2.3218593555
20
-4.5697854465
30
0.0000000000
10
-2.3072149303
20
-4.5697861870
30
0.0000000000
11
-2.3511544440
21
-4.5717305081
31
0.0000000000
11
-2.3072149303
21
-4.5697861870
31
0.0000000000
0
SPLINE
5
299
100
AcDbEntity
8
0
100
AcDbSpline
62
9
6
CONTINUOUS
70
0
71
3
72
8
73
4
74
2
42
0.0000001000
43
0.0000001000
44
0.0000000001
12
0.0438909021
22
0.0000088160
32
0.0000000000
13
0.0438363796
23
-0.0038751644
33
0.0000000000
40
0.0000000000
40
0.0000000000
40
0.0000000000
40
0.0000000000
40
1.0000000000
40
1.0000000000
40
1.0000000000
40
1.0000000000
10
8.7039517750
20
-4.5697861870
30
0.0000000000
10
8.7185820758
20
-4.5697832483
30
0.0000000000
10
8.7332367776
20
-4.5704316977
30
0.0000000000
10
8.7478489041
20
-4.5717234192
30
0.0000000000
11
8.7039517750
21
-4.5697861870
31
0.0000000000
11
8.7478489041
21
-4.5717234192
31
0.0000000000
0
SPLINE
5
29A
100
AcDbEntity
8
0
100
AcDbSpline
62
9
6
CONTINUOUS
70
0
71
3
72
13
73
9
74
7
42
0.0000001000
43
0.0000001000
44
0.0000000001
12
0.6944129503
22
-0.0613865558
32
0.0000000000
13
0.0612548395
23
-0.6944322628
33
0.0000000000
40
0.0000000000
40
0.0000000000
40
0.0000000000
40
0.0000000000
40
0.1255448549
40
0.3129229687
40
0.4993929615
40
0.6861190911
40
0.8740803578
40
1.0000000000
40
1.0000000000
40
1.0000000000
40
1.0000000000
10
8.7478489041
20
-4.5717234192
30
0.0000000000
10
8.7769088951
20
-4.5742923413
30
0.0000000000
10
8.8489217618
20
-4.5870370068
30
0.0000000000
10
8.9569539842
20
-4.6319687958
30
0.0000000000
10
9.0611901929
20
-4.7119807053
30
0.0000000000
10
9.1413799239
20
-4.8162560020
30
0.0000000000
10
9.1864747015
20
-4.9245369797
30
0.0000000000
10
9.1992498990
20
-4.9967730488
30
0.0000000000
10
9.2018209615
20
-5.0259206028
30
0.0000000000
11
8.7478489041
21
-4.5717234192
31
0.0000000000
11
8.8339968740
21
-4.5869990789
31
0.0000000000
11
8.9542970912
21
-4.6370054722
31
0.0000000000
11
9.0571320373
21
-4.7159588652
31
0.0000000000
11
9.1362882026
21
-4.8188625807
31
0.0000000000
11
9.1865054332
21
-4.9395142290
31
0.0000000000
11
9.2018209615
21
-5.0259206028
31
0.0000000000
0
SPLINE
5
29B
100
AcDbEntity
8
0
100
AcDbSpline
62
9
6
CONTINUOUS
70
0
71
3
72
8
73
4
74
2
42
0.0000001000
43
0.0000001000
44
0.0000000001
12
0.0038780211
22
-0.0439642483
32
0.0000000000
13
-0.0000183216
23
-0.0440177028
33
0.0000000000
40
0.0000000000
40
0.0000000000
40
0.0000000000
40
0.0000000000
40
1.0000000000
40
1.0000000000
40
1.0000000000
40
1.0000000000
10
9.2018209615
20
-5.0259206028
30
0.0000000000
10
9.2031136352
20
-5.0405753522
30
0.0000000000
10
9.2037607029
20
-5.0552727217
30
0.0000000000
10
9.2037545957
20
-5.0699452893
30
0.0000000000
11
9.2018209615
21
-5.0259206028
31
0.0000000000
11
9.2037545957
21
-5.0699452893
31
0.0000000000
0
SPLINE
5
29C
100
AcDbEntity
8
0
100
AcDbSpline
62
9
6
CONTINUOUS
70
0
71
3
72
12
73
8
74
6
42
0.0000001000
43
0.0000001000
44
0.0000000001
12
0.0003810907
22
-1.2511678074
32
0.0000000000
13
1.2511678074
23
-0.0003810906
33
0.0000000000
40
0.0000000000
40
0.0000000000
40
0.0000000000
40
0.0000000000
40
0.1999885276
40
0.3999929396
40
0.6000037827
40
0.8000093242
40
1.0000000000
40
1.0000000000
40
1.0000000000
40
1.0000000000
10
-7.8014655058
20
-15.5253062732
30
0.0000000000
10
-7.8014401012
20
-15.6087126757
30
0.0000000000
10
-7.7748609067
20
-15.7766985635
30
0.0000000000
10
-7.6593531259
20
-16.0031362470
30
0.0000000000
10
-7.4794204008
20
-16.1830699065
30
0.0000000000
10
-7.2529819402
20
-16.2985793164
30
0.0000000000
10
-7.0849946481
20
-16.3251590245
30
0.0000000000
10
-7.0015873497
20
-16.3251844293
30
0.0000000000
11
-7.8014655058
21
-15.5253062732
31
0.0000000000
11
-7.7622569264
21
-15.7724344686
31
0.0000000000
11
-7.6486177271
21
-15.9953823014
31
0.0000000000
11
-7.4716667367
21
-16.1723342099
31
0.0000000000
11
-7.2487181329
21
-16.2859750085
31
0.0000000000
11
-7.0015873497
21
-16.3251844293
31
0.0000000000
0
SPLINE
5
29D
100
AcDbEntity
8
0
100
AcDbSpline
62
9
6
CONTINUOUS
70
0
71
3
72
8
73
4
74
2
42
0.0000001000
43
0.0000001000
44
0.0000000001
12
-0.0000127304
22
-0.0439232954
32
0.0000000000
13
-0.0039045423
23
-0.0438666118
33
0.0000000000
40
0.0000000000
40
0.0000000000
40
0.0000000000
40
0.0000000000
40
1.0000000000
40
1.0000000000
40
1.0000000000
40
1.0000000000
10
9.2025025554
20
-8.5795036726
30
0.0000000000
10
9.2024983119
20
-8.5941447711
30
0.0000000000
10
9.2018412723
20
-8.6088099972
30
0.0000000000
10
9.2005397582
20
-8.6234322012
30
0.0000000000
11
9.2025025554
21
-8.5795036726
31
0.0000000000
11
9.2005397582
21
-8.6234322012
31
0.0000000000
0
SPLINE
5
29E
100
AcDbEntity
8
0
100
AcDbSpline
62
9
6
CONTINUOUS
70
0
71
3
72
13
73
9
74
7
42
0.0000001000
43
0.0000001000
44
0.0000000001
12
-0.0618009862
22
-0.6943195050
32
0.0000000000
13
-0.6943524251
23
-0.0613794982
33
0.0000000000
40
0.0000000000
40
0.0000000000
40
0.0000000000
40
0.0000000000
40
0.1256515656
40
0.3131940115
40
0.4997677875
40
0.6864807858
40
0.8742765510
40
1.0000000000
40
1.0000000000
40
1.0000000000
40
1.0000000000
10
9.2005397582
20
-8.6234322012
30
0.0000000000
10
9.1979512946
20
-8.6525129788
30
0.0000000000
10
9.1851455352
20
-8.7245743937
30
0.0000000000
10
9.1400882974
20
-8.8326398336
30
0.0000000000
10
9.0599542113
20
-8.9368421694
30
0.0000000000
10
8.9556480570
20
-9.0169389978
30
0.0000000000
10
8.8474464479
20
-9.0619583915
30
0.0000000000
10
8.7753025845
20
-9.0747206390
30
0.0000000000
10
8.7462037905
20
-9.0772929197
30
0.0000000000
11
9.2005397582
21
-8.6234322012
31
0.0000000000
11
9.1851924377
21
-8.7096357953
31
0.0000000000
11
9.1350437326
21
-8.8299883660
31
0.0000000000
11
9.0559627144
21
-8.9328021363
31
0.0000000000
11
8.9530194067
21
-9.0118734497
31
0.0000000000
11
8.8324668968
21
-9.0620001007
31
0.0000000000
11
8.7462037905
21
-9.0772929197
31
0.0000000000
0
SPLINE
5
29F
100
AcDbEntity
8
0
100
AcDbSpline
62
9
6
CONTINUOUS
70
0
71
3
72
8
73
4
74
2
42
0.0000001000
43
0.0000001000
44
0.0000000001
12
-0.0438713275
22
-0.0038781460
32
0.0000000000
13
-0.0439259362
23
0.0000022141
33
0.0000000000
40
0.0000000000
40
0.0000000000
40
0.0000000000
40
0.0000000000
40
1.0000000000
40
1.0000000000
40
1.0000000000
40
1.0000000000
10
8.7462037905
20
-9.0772929197
30
0.0000000000
10
8.7315800147
20
-9.0785856351
30
0.0000000000
10
8.7169136598
20
-9.0792354594
30
0.0000000000
10
8.7022716811
20
-9.0792347213
30
0.0000000000
11
8.7462037905
21
-9.0772929197
31
0.0000000000
11
8.7022716811
21
-9.0792347213
31
0.0000000000
0
SPLINE
5
2A0
100
AcDbEntity
8
0
100
AcDbSpline
62
9
6
CONTINUOUS
70
0
71
3
72
14
73
10
74
8
42
0.0000001000
43
0.0000001000
44
0.0000000001
12
0.5887249020
22
1.2681628942
32
0.0000000000
13
0.0007802894
23
1.3981536137
33
0.0000000000
40
0.0000000000
40
0.0000000000
40
0.0000000000
40
0.0000000000
40
0.0280734305
40
0.1029650162
40
0.2213852816
40
0.3779129012
40
0.5656927434
40
0.7761754061
40
1.0000000000
40
1.0000000000
40
1.0000000000
40
1.0000000000
10
-7.0015873496
20
-16.3251844293
30
0.0000000000
10
-6.9960781738
20
-16.3133172017
30
0.0000000000
10
-7.0030480130
20
-16.2627541942
30
0.0000000000
10
-6.9931589341
20
-16.1619176158
30
0.0000000000
10
-6.9952908129
20
-15.9976539735
30
0.0000000000
10
-6.9918252823
20
-15.7825097972
30
0.0000000000
10
-6.9910354677
20
-15.5237741886
30
0.0000000000
10
-6.9899034989
20
-15.2339091849
30
0.0000000000
10
-6.9896684116
20
-15.0314857156
30
0.0000000000
10
-6.9896101956
20
-14.9271719940
30
0.0000000000
11
-7.0015873496
21
-16.3251844293
31
0.0000000000
11
-6.9990187976
21
-16.2860175870
31
0.0000000000
11
-6.9965761572
21
-16.1813361239
31
0.0000000000
11
-6.9943657964
21
-16.0157811311
31
0.0000000000
11
-6.9924909777
21
-15.7969394706
31
0.0000000000
11
-6.9910327269
21
-15.5343984146
31
0.0000000000
11
-6.9900581774
21
-15.2401128869
31
0.0000000000
11
-6.9896101956
21
-14.9271719940
31
0.0000000000
0
SPLINE
5
2A1
100
AcDbEntity
8
0
100
AcDbSpline
62
9
6
CONTINUOUS
70
0
71
3
72
14
73
10
74
8
42
0.0000001000
43
0.0000001000
44
0.0000000001
12
0.4588218746
22
0.4642311712
32
0.0000000000
13
0.0007765923
23
0.6527078135
33
0.0000000000
40
0.0000000000
40
0.0000000000
40
0.0000000000
40
0.0000000000
40
0.0281308155
40
0.1030619177
40
0.2216179519
40
0.3783551703
40
0.5663487814
40
0.7770070199
40
1.0000000000
40
1.0000000000
40
1.0000000000
40
1.0000000000
10
-7.8014655058
20
-15.5253062732
30
0.0000000000
10
-7.7971631613
20
-15.5209532061
30
0.0000000000
10
-7.8014045276
20
-15.4949183521
30
0.0000000000
10
-7.7939412501
20
-15.4500141055
30
0.0000000000
10
-7.7947830250
20
-15.3721034993
30
0.0000000000
10
-7.7918414492
20
-15.2720317991
30
0.0000000000
10
-7.7908649599
20
-15.1509519144
30
0.0000000000
10
-7.7897955944
20
-15.0157857481
30
0.0000000000
10
-7.7895460766
20
-14.9214168902
30
0.0000000000
10
-7.7894883518
20
-14.8729004701
30
0.0000000000
11
-7.8014655058
21
-15.5253062732
31
0.0000000000
11
-7.7989039603
21
-15.5071246138
31
0.0000000000
11
-7.7964573538
21
-15.4582776967
31
0.0000000000
11
-7.7942443626
21
-15.3809268422
31
0.0000000000
11
-7.7923670868
21
-15.2786403882
31
0.0000000000
11
-7.7909081768
21
-15.1559440756
31
0.0000000000
11
-7.7899339671
21
-15.0184491514
31
0.0000000000
11
-7.7894883518
21
-14.8729004701
31
0.0000000000
0
SPLINE
5
2A2
100
AcDbEntity
8
0
100
AcDbSpline
62
9
6
CONTINUOUS
70
0
71
3
72
12
73
8
74
6
42
0.0000001000
43
0.0000001000
44
0.0000000001
12
0.1999868096
22
-0.7792819774
32
0.0000000000
13
0.8045335424
23
-0.0009504927
33
0.0000000000
40
0.0000000000
40
0.0000000000
40
0.0000000000
40
0.0000000000
40
0.0567682478
40
0.2009962669
40
0.4209527031
40
0.6959989261
40
1.0000000000
40
1.0000000000
40
1.0000000000
40
1.0000000000
10
-7.7894883518
20
-14.8729004701
30
0.0000000000
10
-7.7857040515
20
-14.8876466275
30
0.0000000000
10
-7.7132876440
20
-14.8898406897
30
0.0000000000
10
-7.6177846608
20
-14.9103978699
30
0.0000000000
10
-7.4381768395
20
-14.9169824974
30
0.0000000000
10
-7.2272717032
20
-14.9257275952
30
0.0000000000
10
-7.0711365493
20
-14.9270756744
30
0.0000000000
10
-6.9896101956
20
-14.9271719913
30
0.0000000000
11
-7.7894883518
21
-14.8729004701
31
0.0000000000
11
-7.7469373565
21
-14.8894939506
31
0.0000000000
11
-7.6318752199
21
-14.9044986693
31
0.0000000000
11
-7.4553186955
21
-14.9164779823
31
0.0000000000
11
-7.2341723867
21
-14.9242849171
31
0.0000000000
11
-6.9896101956
21
-14.9271719913
31
0.0000000000
0
SPLINE
5
2A3
100
AcDbEntity
8
0
100
AcDbSpline
62
9
6
CONTINUOUS
70
0
71
3
72
11
73
7
74
5
42
0.0000001000
43
0.0000001000
44
0.0000000001
12
0.0481810306
22
40.7036233637
32
0.0000000000
13
-0.0481810397
23
40.7036233637
33
0.0000000000
40
0.0000000000
40
0.0000000000
40
0.0000000000
40
0.0000000000
40
0.2498559492
40
0.5000000001
40
0.7501440510
40
1.0000000000
40
1.0000000000
40
1.0000000000
40
1.0000000000
10
-6.9896101956
20
-14.9271719940
30
0.0000000000
10
-6.9855974233
20
-11.5371578440
30
0.0000000000
10
-6.9795822513
20
-4.7532180621
30
0.0000000000
10
-6.9765764282
20
5.4246495014
30
0.0000000000
10
-6.9795822519
20
15.6025170633
30
0.0000000000
10
-6.9855974225
20
22.3864568434
30
0.0000000000
10
-6.9896101956
20
25.7764709918
30
0.0000000000
11
-6.9896101956
21
-14.9271719940
31
0.0000000000
11
-6.9805874805
21
-4.7571264215
31
0.0000000000
11
-6.9775787542
21
5.4246495018
31
0.0000000000
11
-6.9805874807
21
15.6064254240
31
0.0000000000
11
-6.9896101956
21
25.7764709918
31
0.0000000000
0
SPLINE
5
2A4
100
AcDbEntity
8
0
100
AcDbSpline
62
9
6
CONTINUOUS
70
0
71
3
72
11
73
7
74
5
42
0.0000001000
43
0.0000001000
44
0.0000000001
12
0.0481810295
22
40.5950802633
32
0.0000000000
13
-0.0481810386
23
40.5950802632
33
0.0000000000
40
0.0000000000
40
0.0000000000
40
0.0000000000
40
0.0000000000
40
0.2498550716
40
0.4999997740
40
0.7501444801
40
1.0000000000
40
1.0000000000
40
1.0000000000
40
1.0000000000
10
-7.7894883518
20
-14.8729004701
30
0.0000000000
10
-7.7854755936
20
-11.4919382409
30
0.0000000000
10
-7.7794604171
20
-4.7260920274
30
0.0000000000
10
-7.7764545791
20
5.4246403758
30
0.0000000000
10
-7.7794604088
20
15.5753788445
30
0.0000000000
10
-7.7854755856
20
22.3412311732
30
0.0000000000
10
-7.7894883518
20
25.7221994678
30
0.0000000000
11
-7.7894883518
21
-14.8729004701
31
0.0000000000
11
-7.7804656578
21
-4.7300106519
31
0.0000000000
11
-7.7774569103
21
5.4246403262
31
0.0000000000
11
-7.7804656472
21
15.5792914531
31
0.0000000000
11
-7.7894883518
21
25.7221994678
31
0.0000000000
0
SPLINE
5
2A5
100
AcDbEntity
8
0
100
AcDbSpline
62
9
6
CONTINUOUS
70
0
71
3
72
12
73
8
74
6
42
0.0000001000
43
0.0000001000
44
0.0000000001
12
0.2000693527
22
0.7792605764
32
0.0000000000
13
0.8045333359
23
0.0009504120
33
0.0000000000
40
0.0000000000
40
0.0000000000
40
0.0000000000
40
0.0000000000
40
0.0567698847
40
0.2009986822
40
0.4209549486
40
0.6960002555
40
1.0000000000
40
1.0000000000
40
1.0000000000
40
1.0000000000
10
-7.7894883517
20
25.7221994678
30
0.0000000000
10
-7.7857023804
20
25.7369456455
30
0.0000000000
10
-7.7132879572
20
25.7391392112
30
0.0000000000
10
-7.6177818690
20
25.7596965079
30
0.0000000000
10
-7.4381755138
20
25.7662809205
30
0.0000000000
10
-7.2272705451
20
25.7750259332
30
0.0000000000
10
-7.0711361718
20
25.7763739699
30
0.0000000000
10
-6.9896101956
20
25.7764702783
30
0.0000000000
11
-7.7894883517
21
25.7221994678
31
0.0000000000
11
-7.7469358894
21
25.7387927788
31
0.0000000000
11
-7.6318731272
21
25.7537973124
31
0.0000000000
11
-7.4553167738
21
25.7657764566
31
0.0000000000
11
-7.2341712550
21
25.7735832661
31
0.0000000000
11
-6.9896101956
21
25.7764702783
31
0.0000000000
0
SPLINE
5
2A6
100
AcDbEntity
8
0
100
AcDbSpline
62
9
6
CONTINUOUS
70
0
71
3
72
10
73
6
74
4
42
0.0000001000
43
0.0000001000
44
0.0000000001
12
-0.0010724231
22
-3.5095584441
32
0.0000000000
13
-0.0014317436
23
-3.5095583159
33
0.0000000000
40
0.0000000000
40
0.0000000000
40
0.0000000000
40
0.0000000000
40
0.3333861669
40
0.6667201097
40
1.0000000000
40
1.0000000000
40
1.0000000000
40
1.0000000000
10
9.2037545957
20
-5.0699452893
30
0.0000000000
10
9.2036354187
20
-5.4599580351
30
0.0000000000
10
9.2033837812
20
-6.2399224281
30
0.0000000000
10
9.2029664376
20
-7.4097752231
30
0.0000000000
10
9.2026616125
20
-8.1896152691
30
0.0000000000
10
9.2025025554
20
-8.5795036726
30
0.0000000000
11
9.2037545957
21
-5.0699452893
31
0.0000000000
11
9.2033771070
21
-6.2399835203
31
0.0000000000
11
9.2029597594
21
-7.4098384542
31
0.0000000000
11
9.2025025554
21
-8.5795036726
31
0.0000000000
0
SPLINE
5
2A7
100
AcDbEntity
8
0
100
AcDbSpline
62
9
6
CONTINUOUS
70
0
71
3
72
14
73
10
74
8
42
0.0000001000
43
0.0000001000
44
0.0000000001
12
-0.0007800718
22
1.3981536001
32
0.0000000000
13
-0.5896766414
23
1.2677206145
33
0.0000000000
40
0.0000000000
40
0.0000000000
40
0.0000000000
40
0.0000000000
40
0.2238322168
40
0.4343095781
40
0.6220943458
40
0.7786205467
40
0.8970361704
40
0.9719284039
40
1.0000000000
40
1.0000000000
40
1.0000000000
40
1.0000000000
10
-6.9896101956
20
25.7764709918
30
0.0000000000
10
-6.9896683974
20
25.8807882650
30
0.0000000000
10
-6.9899035029
20
26.0832128655
30
0.0000000000
10
-6.9910357054
20
26.3730810338
30
0.0000000000
10
-6.9918246403
20
26.6318164524
30
0.0000000000
10
-6.9952943974
20
26.8469582688
30
0.0000000000
10
-6.9931524066
20
27.0112238262
30
0.0000000000
10
-7.0030598688
20
27.1120492922
30
0.0000000000
10
-6.9960696281
20
27.1626211133
30
0.0000000000
10
-7.0015873496
20
27.1744834270
30
0.0000000000
11
-6.9896101956
21
25.7764709918
31
0.0000000000
11
-6.9900582346
21
26.0894225395
31
0.0000000000
11
-6.9910327409
21
26.3837006522
31
0.0000000000
11
-6.9924914208
21
26.6462485899
31
0.0000000000
11
-6.9943663494
21
26.8650882636
31
0.0000000000
11
-6.9965763996
21
27.0306367687
31
0.0000000000
11
-6.9990191072
21
27.1353191351
31
0.0000000000
11
-7.0015873496
21
27.1744834270
31
0.0000000000
0
SPLINE
5
2A8
100
AcDbEntity
8
0
100
AcDbSpline
62
9
6
CONTINUOUS
70
0
71
3
72
14
73
10
74
8
42
0.0000001000
43
0.0000001000
44
0.0000000001
12
-0.0007770390
22
0.6527078529
32
0.0000000000
13
-0.4593348718
23
0.4637236467
33
0.0000000000
40
0.0000000000
40
0.0000000000
40
0.0000000000
40
0.0000000000
40
0.2231364161
40
0.4338360171
40
0.6218672850
40
0.7785595267
40
0.8970246110
40
0.9719025110
40
1.0000000000
40
1.0000000000
40
1.0000000000
40
1.0000000000
10
-7.7894883518
20
25.7221994678
30
0.0000000000
10
-7.7895461470
20
25.7707470981
30
0.0000000000
10
-7.7897957656
20
25.8651562475
30
0.0000000000
10
-7.7908661525
20
26.0003705197
30
0.0000000000
10
-7.7918426209
20
26.1214586679
30
0.0000000000
10
-7.7947864004
20
26.2215069575
30
0.0000000000
10
-7.7939420284
20
26.2993804257
30
0.0000000000
10
-7.8014088059
20
26.3442390100
30
0.0000000000
10
-7.7971634536
20
26.3702621142
30
0.0000000000
10
-7.8014655058
20
26.3746052709
30
0.0000000000
11
-7.7894883518
21
25.7221994678
31
0.0000000000
11
-7.7899344291
21
25.8678417789
31
0.0000000000
11
-7.7909092693
21
26.0053637054
31
0.0000000000
11
-7.7923692388
21
26.1280845935
31
0.0000000000
11
-7.7942470031
21
26.2303416832
31
0.0000000000
11
-7.7964595133
21
26.3076331681
31
0.0000000000
11
-7.7989056170
21
26.3564453443
31
0.0000000000
11
-7.8014655058
21
26.3746052709
31
0.0000000000
0
SPLINE
5
2A9
100
AcDbEntity
8
0
100
AcDbSpline
62
9
6
CONTINUOUS
70
0
71
3
72
10
73
6
74
4
42
0.0000001000
43
0.0000001000
44
0.0000000001
12
-0.0014317436
22
3.5095583159
32
0.0000000000
13
-0.0010724231
23
3.5095584441
33
0.0000000000
40
0.0000000000
40
0.0000000000
40
0.0000000000
40
0.0000000000
40
0.3332797759
40
0.6666137187
40
1.0000000000
40
1.0000000000
40
1.0000000000
40
1.0000000000
10
-2.8057657106
20
-8.5795036726
30
0.0000000000
10
-2.8059247676
20
-8.1896154029
30
0.0000000000
10
-2.8062295927
20
-7.4097754908
30
0.0000000000
10
-2.8066469363
20
-6.2399226957
30
0.0000000000
10
-2.8068985739
20
-5.4599581689
30
0.0000000000
10
-2.8070177509
20
-5.0699452893
30
0.0000000000
11
-2.8057657106
21
-8.5795036726
31
0.0000000000
11
-2.8062229145
21
-7.4098388556
31
0.0000000000
11
-2.8066402620
21
-6.2399839217
31
0.0000000000
11
-2.8070177509
21
-5.0699452893
31
0.0000000000
0
SPLINE
5
2AA
100
AcDbEntity
8
0
100
AcDbSpline
62
9
6
CONTINUOUS
70
0
71
3
72
12
73
8
74
6
42
0.0000001000
43
0.0000001000
44
0.0000000001
12
0.0003810888
22
1.2511678080
32
0.0000000000
13
1.2511678080
23
0.0003810886
33
0.0000000000
40
0.0000000000
40
0.0000000000
40
0.0000000000
40
0.0000000000
40
0.1999897043
40
0.3999946302
40
0.6000053697
40
0.8000102956
40
1.0000000000
40
1.0000000000
40
1.0000000000
40
1.0000000000
10
-7.8014655058
20
26.3746052709
30
0.0000000000
10
-7.8014401012
20
26.4580121642
30
0.0000000000
10
-7.7748606323
20
26.6259987777
30
0.0000000000
10
-7.6593520203
20
26.8524368137
30
0.0000000000
10
-7.4794188925
20
27.0323699414
30
0.0000000000
10
-7.2529808565
20
27.1478785536
30
0.0000000000
10
-7.0849942430
20
27.1744580224
30
0.0000000000
10
-7.0015873496
20
27.1744834270
30
0.0000000000
11
-7.8014655058
21
26.3746052709
31
0.0000000000
11
-7.7622564658
21
26.6217348840
31
0.0000000000
11
-7.6486164686
21
26.8446830320
31
0.0000000000
11
-7.4716651109
21
27.0216343898
31
0.0000000000
11
-7.2487169628
21
27.1352743871
31
0.0000000000
11
-7.0015873496
21
27.1744834270
31
0.0000000000
0
SPLINE
5
2AB
100
AcDbEntity
8
0
100
AcDbSpline
62
9
6
CONTINUOUS
70
0
71
3
72
13
73
9
74
7
42
0.0000001000
43
0.0000001000
44
0.0000000001
12
0.9399555983
22
0.0003422708
32
0.0000000000
13
-0.0003499091
23
-0.9399555955
33
0.0000000000
40
0.0000000000
40
0.0000000000
40
0.0000000000
40
0.0000000000
40
0.1674041116
40
0.3339138449
40
0.4996246375
40
0.6655704492
40
0.8326116749
40
1.0000000000
40
1.0000000000
40
1.0000000000
40
1.0000000000
10
8.7039517750
20
-4.4730892409
30
0.0000000000
10
8.7564025857
20
-4.4730701417
30
0.0000000000
10
8.8615462290
20
-4.4869824427
30
0.0000000000
10
9.0076523235
20
-4.5477878667
30
0.0000000000
10
9.1328518124
20
-4.6439631554
30
0.0000000000
10
9.2290963193
20
-4.7693226337
30
0.0000000000
10
9.2899206724
20
-4.9156911841
30
0.0000000000
10
9.3037703116
20
-5.0209987898
30
0.0000000000
10
9.3037507880
20
-5.0734446541
30
0.0000000000
11
8.7039517750
21
-4.4730892409
31
0.0000000000
11
8.8599436395
21
-4.4937369846
31
0.0000000000
11
9.0044550312
21
-4.5538401515
31
0.0000000000
11
9.1279632976
21
-4.6487460743
31
0.0000000000
11
9.2229773102
21
-4.7724498726
31
0.0000000000
11
9.2831916907
21
-4.9174560485
31
0.0000000000
11
9.3037507880
21
-5.0734446541
31
0.0000000000
0
SPLINE
5
2AC
100
AcDbEntity
8
0
100
AcDbSpline
62
9
6
CONTINUOUS
70
0
71
3
72
12
73
8
74
6
42
0.0000001000
43
0.0000001000
44
0.0000000001
12
-0.0003810888
22
-1.2511678080
32
0.0000000000
13
-1.2511678080
23
-0.0003810887
33
0.0000000000
40
0.0000000000
40
0.0000000000
40
0.0000000000
40
0.0000000000
40
0.1999897043
40
0.3999946302
40
0.6000053697
40
0.8000102957
40
1.0000000000
40
1.0000000000
40
1.0000000000
40
1.0000000000
10
14.1982023506
20
-15.5253062732
30
0.0000000000
10
14.1981769460
20
-15.6087131665
30
0.0000000000
10
14.1715974771
20
-15.7766997800
30
0.0000000000
10
14.0560888650
20
-16.0031378160
30
0.0000000000
10
13.8761557373
20
-16.1830709437
30
0.0000000000
10
13.6497177013
20
-16.2985795559
30
0.0000000000
10
13.4817310878
20
-16.3251590247
30
0.0000000000
10
13.3983241944
20
-16.3251844293
30
0.0000000000
11
14.1982023506
21
-15.5253062732
31
0.0000000000
11
14.1589933106
21
-15.7724358863
31
0.0000000000
11
14.0453533134
21
-15.9953840343
31
0.0000000000
11
13.8684019556
21
-16.1723353921
31
0.0000000000
11
13.6454538076
21
-16.2859753894
31
0.0000000000
11
13.3983241944
21
-16.3251844293
31
0.0000000000
0
SPLINE
5
2AD
100
AcDbEntity
8
0
100
AcDbSpline
62
9
6
CONTINUOUS
70
0
71
3
72
12
73
8
74
6
42
0.0000001000
43
0.0000001000
44
0.0000000001
12
-0.2001079710
22
-0.7792505442
32
0.0000000000
13
-0.8045332232
23
-0.0009504374
33
0.0000000000
40
0.0000000000
40
0.0000000000
40
0.0000000000
40
0.0000000000
40
0.0567706269
40
0.2009997834
40
0.4209559749
40
0.6960008638
40
1.0000000000
40
1.0000000000
40
1.0000000000
40
1.0000000000
10
14.1862251965
20
-14.8729004701
30
0.0000000000
10
14.1824384449
20
-14.8876466507
30
0.0000000000
10
14.1100249398
20
-14.8898399264
30
0.0000000000
10
14.0145174226
20
-14.9103972891
30
0.0000000000
10
13.8349117443
20
-14.9169815754
30
0.0000000000
10
13.6240068544
20
-14.9257265567
30
0.0000000000
10
13.4678728421
20
-14.9270745810
30
0.0000000000
10
13.3863470404
20
-14.9271708917
30
0.0000000000
11
14.1862251965
21
-14.8729004701
31
0.0000000000
11
14.1436720555
21
-14.8894936668
31
0.0000000000
11
14.0286090040
21
-14.9044980894
31
0.0000000000
11
13.8520527297
21
-14.9164771426
31
0.0000000000
11
13.6309075763
21
-14.9242838947
31
0.0000000000
11
13.3863470404
21
-14.9271708917
31
0.0000000000
0
SPLINE
5
2AE
100
AcDbEntity
8
0
100
AcDbSpline
62
9
6
CONTINUOUS
70
0
71
3
72
14
73
10
74
8
42
0.0000001000
43
0.0000001000
44
0.0000000001
12
0.0007802892
22
-1.3981536137
32
0.0000000000
13
0.5887247696
23
-1.2681629557
33
0.0000000000
40
0.0000000000
40
0.0000000000
40
0.0000000000
40
0.0000000000
40
0.2238245939
40
0.4343072566
40
0.6220870988
40
0.7786147184
40
0.8970349838
40
0.9719265695
40
1.0000000000
40
1.0000000000
40
1.0000000000
40
1.0000000000
10
13.3863470404
20
-14.9271719940
30
0.0000000000
10
13.3864052564
20
-15.0314857156
30
0.0000000000
10
13.3866403437
20
-15.2339091849
30
0.0000000000
10
13.3877723125
20
-15.5237741887
30
0.0000000000
10
13.3885621273
20
-15.7825097971
30
0.0000000000
10
13.3920276572
20
-15.9976539737
30
0.0000000000
10
13.3898957799
20
-16.1619176154
30
0.0000000000
10
13.3997848561
20
-16.2627541949
30
0.0000000000
10
13.3928150198
20
-16.3133172011
30
0.0000000000
10
13.3983241944
20
-16.3251844293
30
0.0000000000
11
13.3863470404
21
-14.9271719940
31
0.0000000000
11
13.3867950222
21
-15.2401128869
31
0.0000000000
11
13.3877695717
21
-15.5343984146
31
0.0000000000
11
13.3892278225
21
-15.7969394706
31
0.0000000000
11
13.3911026412
21
-16.0157811311
31
0.0000000000
11
13.3933130020
21
-16.1813361239
31
0.0000000000
11
13.3957556423
21
-16.2860175870
31
0.0000000000
11
13.3983241944
21
-16.3251844293
31
0.0000000000
0
SPLINE
5
2AF
100
AcDbEntity
8
0
100
AcDbSpline
62
9
6
CONTINUOUS
70
0
71
3
72
14
73
10
74
8
42
0.0000001000
43
0.0000001000
44
0.0000000001
12
0.0007765922
22
-0.6527078135
32
0.0000000000
13
0.4588220246
23
-0.4642310230
33
0.0000000000
40
0.0000000000
40
0.0000000000
40
0.0000000000
40
0.0000000000
40
0.2229929801
40
0.4336512186
40
0.6216448297
40
0.7783820481
40
0.8969380823
40
0.9718691845
40
1.0000000000
40
1.0000000000
40
1.0000000000
40
1.0000000000
10
14.1862251966
20
-14.8729004701
30
0.0000000000
10
14.1862829214
20
-14.9214168902
30
0.0000000000
10
14.1865324392
20
-15.0157857481
30
0.0000000000
10
14.1876018047
20
-15.1509519144
30
0.0000000000
10
14.1885782938
20
-15.2720317992
30
0.0000000000
10
14.1915198703
20
-15.3721034989
30
0.0000000000
10
14.1906780938
20
-15.4500141065
30
0.0000000000
10
14.1981413742
20
-15.4949183503
30
0.0000000000
10
14.1939000047
20
-15.5209532074
30
0.0000000000
10
14.1982023506
20
-15.5253062732
30
0.0000000000
11
14.1862251966
21
-14.8729004701
31
0.0000000000
11
14.1866708119
21
-15.0184491514
31
0.0000000000
11
14.1876450216
21
-15.1559440757
31
0.0000000000
11
14.1891039316
21
-15.2786403881
31
0.0000000000
11
14.1909812074
21
-15.3809268422
31
0.0000000000
11
14.1931941986
21
-15.4582776967
31
0.0000000000
11
14.1956408051
21
-15.5071246137
31
0.0000000000
11
14.1982023506
21
-15.5253062732
31
0.0000000000
0
SPLINE
5
2B0
100
AcDbEntity
8
0
100
AcDbSpline
62
9
6
CONTINUOUS
70
0
71
3
72
12
73
8
74
6
42
0.0000001000
43
0.0000001000
44
0.0000000001
12
-0.1999866444
22
0.7792820202
32
0.0000000000
13
-0.8045335428
23
0.0009504912
33
0.0000000000
40
0.0000000000
40
0.0000000000
40
0.0000000000
40
0.0000000000
40
0.0567682444
40
0.2009962620
40
0.4209526985
40
0.6959989235
40
1.0000000000
40
1.0000000000
40
1.0000000000
40
1.0000000000
10
14.1862251966
20
25.7221994678
30
0.0000000000
10
14.1824408997
20
25.7369456252
30
0.0000000000
10
14.1100244881
20
25.7391396881
30
0.0000000000
10
14.0145215112
20
25.7596968681
30
0.0000000000
10
13.8349136870
20
25.7662814960
30
0.0000000000
10
13.6240085503
20
25.7750265941
30
0.0000000000
10
13.4678733948
20
25.7763746731
30
0.0000000000
10
13.3863470404
20
25.7764709899
30
0.0000000000
11
14.1862251966
21
25.7221994678
31
0.0000000000
11
14.1436742043
21
25.7387929486
31
0.0000000000
11
14.0286120689
21
25.7537976675
31
0.0000000000
11
13.8520555442
21
25.7657769809
31
0.0000000000
11
13.6309092338
21
25.7735839159
31
0.0000000000
11
13.3863470404
21
25.7764709899
31
0.0000000000
0
SPLINE
5
2B1
100
AcDbEntity
8
0
100
AcDbSpline
62
9
6
CONTINUOUS
70
0
71
3
72
11
73
7
74
5
42
0.0000001000
43
0.0000001000
44
0.0000000001
12
-0.0481810397
22
-40.7036233637
32
0.0000000000
13
0.0481810305
23
-40.7036233637
33
0.0000000000
40
0.0000000000
40
0.0000000000
40
0.0000000000
40
0.0000000000
40
0.2498559490
40
0.4999999999
40
0.7501440508
40
1.0000000000
40
1.0000000000
40
1.0000000000
40
1.0000000000
10
13.3863470404
20
25.7764709918
30
0.0000000000
10
13.3823342673
20
22.3864568434
30
0.0000000000
10
13.3763190967
20
15.6025170633
30
0.0000000000
10
13.3733132730
20
5.4246495014
30
0.0000000000
10
13.3763190961
20
-4.7532180621
30
0.0000000000
10
13.3823342681
20
-11.5371578440
30
0.0000000000
10
13.3863470404
20
-14.9271719940
30
0.0000000000
11
13.3863470404
21
25.7764709918
31
0.0000000000
11
13.3773243255
21
15.6064254240
31
0.0000000000
11
13.3743155990
21
5.4246495018
31
0.0000000000
11
13.3773243253
21
-4.7571264215
31
0.0000000000
11
13.3863470404
21
-14.9271719940
31
0.0000000000
0
SPLINE
5
2B2
100
AcDbEntity
8
0
100
AcDbSpline
62
9
6
CONTINUOUS
70
0
71
3
72
11
73
7
74
5
42
0.0000001000
43
0.0000001000
44
0.0000000001
12
-0.0481810386
22
-40.5950802632
32
0.0000000000
13
0.0481810295
23
-40.5950802633
33
0.0000000000
40
0.0000000000
40
0.0000000000
40
0.0000000000
40
0.0000000000
40
0.2498555199
40
0.5000002260
40
0.7501449284
40
1.0000000000
40
1.0000000000
40
1.0000000000
40
1.0000000000
10
14.1862251966
20
25.7221994678
30
0.0000000000
10
14.1822124304
20
22.3412311732
30
0.0000000000
10
14.1761972535
20
15.5753788445
30
0.0000000000
10
14.1731914239
20
5.4246403758
30
0.0000000000
10
14.1761972619
20
-4.7260920274
30
0.0000000000
10
14.1822124384
20
-11.4919382409
30
0.0000000000
10
14.1862251966
20
-14.8729004701
30
0.0000000000
11
14.1862251966
21
25.7221994678
31
0.0000000000
11
14.1772024920
21
15.5792914531
31
0.0000000000
11
14.1741937551
21
5.4246403262
31
0.0000000000
11
14.1772025026
21
-4.7300106519
31
0.0000000000
11
14.1862251966
21
-14.8729004701
31
0.0000000000
0
SPLINE
5
2B3
100
AcDbEntity
8
0
100
AcDbSpline
62
9
6
CONTINUOUS
70
0
71
3
72
12
73
8
74
6
42
0.0000001000
43
0.0000001000
44
0.0000000001
12
-0.0003810896
22
1.2511678077
32
0.0000000000
13
-1.2511678077
23
0.0003810895
33
0.0000000000
40
0.0000000000
40
0.0000000000
40
0.0000000000
40
0.0000000000
40
0.1999878944
40
0.3999920217
40
0.6000029126
40
0.8000087856
40
1.0000000000
40
1.0000000000
40
1.0000000000
40
1.0000000000
10
14.1982023506
20
26.3746052709
30
0.0000000000
10
14.1981769461
20
26.4580114094
30
0.0000000000
10
14.1715979001
20
26.6259969035
30
0.0000000000
10
14.0560905715
20
26.8524343918
30
0.0000000000
10
13.8761580714
20
27.0323683360
30
0.0000000000
10
13.6497193820
20
27.1478781824
30
0.0000000000
10
13.4817317176
20
27.1744580222
30
0.0000000000
10
13.3983241945
20
27.1744834271
30
0.0000000000
11
14.1982023506
21
26.3746052709
31
0.0000000000
11
14.1589940194
21
26.6217327036
31
0.0000000000
11
14.0453552557
21
26.8446803587
31
0.0000000000
11
13.8684044734
21
27.0216325599
31
0.0000000000
11
13.6454556267
21
27.1352737954
31
0.0000000000
11
13.3983241945
21
27.1744834271
31
0.0000000000
0
SPLINE
5
2B4
100
AcDbEntity
8
0
100
AcDbSpline
62
9
6
CONTINUOUS
70
0
71
3
72
14
73
10
74
8
42
0.0000001000
43
0.0000001000
44
0.0000000001
12
-0.5896768017
22
-1.2677205400
32
0.0000000000
13
-0.0007800718
23
-1.3981536001
33
0.0000000000
40
0.0000000000
40
0.0000000000
40
0.0000000000
40
0.0000000000
40
0.0280715961
40
0.1029638296
40
0.2213794533
40
0.3779056542
40
0.5656904219
40
0.7761677832
40
1.0000000000
40
1.0000000000
40
1.0000000000
40
1.0000000000
10
13.3983241944
20
27.1744834270
30
0.0000000000
10
13.3928064714
20
27.1626211140
30
0.0000000000
10
13.3997967156
20
27.1120492913
30
0.0000000000
10
13.3898892502
20
27.0112238268
30
0.0000000000
10
13.3920312427
20
26.8469582686
30
0.0000000000
10
13.3885614849
20
26.6318164525
30
0.0000000000
10
13.3877725503
20
26.3730810338
30
0.0000000000
10
13.3866403477
20
26.0832128655
30
0.0000000000
10
13.3864052422
20
25.8807882650
30
0.0000000000
10
13.3863470404
20
25.7764709918
30
0.0000000000
11
13.3983241944
21
27.1744834270
31
0.0000000000
11
13.3957559521
21
27.1353191351
31
0.0000000000
11
13.3933132444
21
27.0306367687
31
0.0000000000
11
13.3911031942
21
26.8650882636
31
0.0000000000
11
13.3892282656
21
26.6462485899
31
0.0000000000
11
13.3877695857
21
26.3837006522
31
0.0000000000
11
13.3867950794
21
26.0894225395
31
0.0000000000
11
13.3863470404
21
25.7764709918
31
0.0000000000
0
SPLINE
5
2B5
100
AcDbEntity
8
0
100
AcDbSpline
62
9
6
CONTINUOUS
70
0
71
3
72
14
73
10
74
8
42
0.0000001000
43
0.0000001000
44
0.0000000001
12
-0.4593349094
22
-0.4637236095
32
0.0000000000
13
-0.0007770388
23
-0.6527078529
33
0.0000000000
40
0.0000000000
40
0.0000000000
40
0.0000000000
40
0.0000000000
40
0.0280974890
40
0.1029753890
40
0.2214404733
40
0.3781327150
40
0.5661639829
40
0.7768635840
40
1.0000000000
40
1.0000000000
40
1.0000000000
40
1.0000000000
10
14.1982023506
20
26.3746052709
30
0.0000000000
10
14.1939002981
20
26.3702621146
30
0.0000000000
10
14.1981456511
20
26.3442390096
30
0.0000000000
10
14.1906788729
20
26.2993804260
30
0.0000000000
10
14.1915232453
20
26.2215069574
30
0.0000000000
10
14.1885794656
20
26.1214586679
30
0.0000000000
10
14.1876029973
20
26.0003705197
30
0.0000000000
10
14.1865326104
20
25.8651562475
30
0.0000000000
10
14.1862829918
20
25.7707470981
30
0.0000000000
10
14.1862251966
20
25.7221994678
30
0.0000000000
11
14.1982023506
21
26.3746052709
31
0.0000000000
11
14.1956424618
21
26.3564453443
31
0.0000000000
11
14.1931963581
21
26.3076331682
31
0.0000000000
11
14.1909838479
21
26.2303416832
31
0.0000000000
11
14.1891060836
21
26.1280845935
31
0.0000000000
11
14.1876461141
21
26.0053637054
31
0.0000000000
11
14.1866712739
21
25.8678417789
31
0.0000000000
11
14.1862251966
21
25.7221994678
31
0.0000000000
0
SPLINE
5
2B6
100
AcDbEntity
8
0
100
AcDbSpline
62
9
6
CONTINUOUS
70
0
71
3
72
13
73
9
74
7
42
0.0000001000
43
0.0000001000
44
0.0000000001
12
-0.0006246217
22
0.9399554372
32
0.0000000000
13
0.9399556425
23
-0.0000651014
33
0.0000000000
40
0.0000000000
40
0.0000000000
40
0.0000000000
40
0.0000000000
40
0.1677384421
40
0.3344834583
40
0.5002787096
40
0.6661410415
40
0.8329459437
40
1.0000000000
40
1.0000000000
40
1.0000000000
40
1.0000000000
10
-2.9070139432
20
-5.0734446541
30
0.0000000000
10
-2.9070488676
20
-5.0208891005
30
0.0000000000
10
-2.8931445089
20
-4.9155613902
30
0.0000000000
10
-2.8323000970
20
-4.7692467900
30
0.0000000000
10
-2.7361134518
20
-4.6439615479
30
0.0000000000
10
-2.6108393786
20
-4.5477283441
30
0.0000000000
10
-2.4646793036
20
-4.4869430732
30
0.0000000000
10
-2.3595560645
20
-4.4730856157
30
0.0000000000
10
-2.3072149303
20
-4.4730892409
30
0.0000000000
11
-2.9070139432
21
-5.0734446541
31
0.0000000000
11
-2.8863694249
21
-4.9171353750
31
0.0000000000
11
-2.8262173934
21
-4.7724047941
31
0.0000000000
11
-2.7312918651
21
-4.6488114831
31
0.0000000000
11
-2.6076723075
21
-4.5538166217
31
0.0000000000
11
-2.4628861884
21
-4.4936515495
31
0.0000000000
11
-2.3072149303
21
-4.4730892409
31
0.0000000000
0
SPLINE
5
2B7
100
AcDbEntity
8
0
100
AcDbSpline
62
9
6
CONTINUOUS
70
0
71
3
72
12
73
8
74
6
42
0.0000001000
43
0.0000001000
44
0.0000000001
12
-0.0139593591
22
-0.7999748074
32
0.0000000000
13
0.7999747332
23
-0.0139636109
33
0.0000000000
40
0.0000000000
40
0.0000000000
40
0.0000000000
40
0.0000000000
40
0.3089080285
40
0.5875697731
40
0.8087322673
40
0.9507851325
40
1.0000000000
40
1.0000000000
40
1.0000000000
40
1.0000000000
10
-33.5759424447
20
-15.5253062732
30
0.0000000000
10
-33.5773798307
20
-15.6076791534
30
0.0000000000
10
-33.5809172903
20
-15.7658488812
30
0.0000000000
10
-33.5781788418
20
-15.9758101182
30
0.0000000000
10
-33.5904474654
20
-16.1616484195
30
0.0000000000
10
-33.5662348275
20
-16.2436403186
30
0.0000000000
10
-33.5890659948
20
-16.3249553569
30
0.0000000000
10
-33.5759424447
20
-16.3251844293
30
0.0000000000
11
-33.5759424447
21
-15.5253062732
31
0.0000000000
11
-33.5795717117
21
-15.7724358863
31
0.0000000000
11
-33.5814796924
21
-15.9953840343
31
0.0000000000
11
-33.5814796920
21
-16.1723353921
31
0.0000000000
11
-33.5795717109
21
-16.2859753894
31
0.0000000000
11
-33.5759424447
21
-16.3251844293
31
0.0000000000
0
SPLINE
5
2B8
100
AcDbEntity
8
0
100
AcDbSpline
62
9
6
CONTINUOUS
70
0
71
3
72
14
73
10
74
8
42
0.0000001000
43
0.0000001000
44
0.0000000001
12
0.0705809216
22
-1.0354629237
32
0.0000000000
13
1.0377038422
23
-0.0183267222
33
0.0000000000
40
0.0000000000
40
0.0000000000
40
0.0000000000
40
0.0000000000
40
0.1423793544
40
0.2853564112
40
0.4283992585
40
0.5714069487
40
0.7145040549
40
0.8575221600
40
1.0000000000
40
1.0000000000
40
1.0000000000
40
1.0000000000
10
-34.2621131379
20
-14.8729004701
30
0.0000000000
10
-34.2587633826
20
-14.9220433176
30
0.0000000000
10
-34.2415857499
20
-15.0201416301
30
0.0000000000
10
-34.1854172169
20
-15.1584473045
30
0.0000000000
10
-34.1012270510
20
-15.2820571249
30
0.0000000000
10
-33.9928374300
20
-15.3851419485
30
0.0000000000
10
-33.8651322029
20
-15.4630453386
30
0.0000000000
10
-33.7241138651
20
-15.5122152126
30
0.0000000000
10
-33.6252257120
20
-15.5244358893
30
0.0000000000
10
-33.5759424447
20
-15.5253062732
30
0.0000000000
11
-34.2621131379
21
-14.8729004701
31
0.0000000000
11
-34.2365838550
21
-15.0184491514
31
0.0000000000
11
-34.1807714186
21
-15.1559440757
31
0.0000000000
11
-34.0971905199
21
-15.2786403881
31
0.0000000000
11
-33.9896414599
21
-15.3809268422
31
0.0000000000
11
-33.8628592818
21
-15.4582776967
31
0.0000000000
11
-33.7226932856
21
-15.5071246137
31
0.0000000000
11
-33.5759424447
21
-15.5253062732
31
0.0000000000
0
SPLINE
5
2B9
100
AcDbEntity
8
0
100
AcDbSpline
62
9
6
CONTINUOUS
70
0
71
3
72
11
73
7
74
5
42
0.0000001000
43
0.0000001000
44
0.0000000001
12
-2.7559166616
22
-40.5307645681
32
0.0000000000
13
2.7559161436
23
-40.5307646033
33
0.0000000000
40
0.0000000000
40
0.0000000000
40
0.0000000000
40
0.0000000000
40
0.2499995847
40
0.5000002258
40
0.7500008634
40
1.0000000000
40
1.0000000000
40
1.0000000000
40
1.0000000000
10
-34.2621131379
20
25.7221994678
30
0.0000000000
10
-34.4917724782
20
22.3446413649
30
0.0000000000
10
-34.8364647823
20
15.5811581159
30
0.0000000000
10
-35.0088588132
20
5.4246403713
30
0.0000000000
10
-34.8364643010
20
-4.7318712988
30
0.0000000000
10
-34.4917720234
20
-11.4953484182
30
0.0000000000
10
-34.2621131379
20
-14.8729004701
30
0.0000000000
11
-34.2621131379
21
25.7221994678
31
0.0000000000
11
-34.7790235391
21
15.5792914531
31
0.0000000000
11
-34.9513939581
21
5.4246403262
31
0.0000000000
11
-34.7790229315
21
-4.7300106519
31
0.0000000000
11
-34.2621131379
21
-14.8729004701
31
0.0000000000
0
SPLINE
5
2BA
100
AcDbEntity
8
0
100
AcDbSpline
62
9
6
CONTINUOUS
70
0
71
3
72
12
73
8
74
6
42
0.0000001000
43
0.0000001000
44
0.0000000001
12
-0.0139593887
22
0.7999748070
32
0.0000000000
13
0.7999747333
23
0.0139636109
33
0.0000000000
40
0.0000000000
40
0.0000000000
40
0.0000000000
40
0.0000000000
40
0.3089053033
40
0.5875664319
40
0.8087299802
40
0.9507843928
40
1.0000000000
40
1.0000000000
40
1.0000000000
40
1.0000000000
10
-33.5759424447
20
26.3746052709
30
0.0000000000
10
-33.5773798211
20
26.4569774244
30
0.0000000000
10
-33.5809172589
20
26.6151462387
30
0.0000000000
10
-33.5781788538
20
26.8251069112
30
0.0000000000
10
-33.5904475292
20
27.0109457588
30
0.0000000000
10
-33.5662346765
20
27.0929383153
30
0.0000000000
10
-33.5890661895
20
27.1742543512
30
0.0000000000
10
-33.5759424421
20
27.1744834271
30
0.0000000000
11
-33.5759424447
21
26.3746052709
31
0.0000000000
11
-33.5795716934
21
26.6217327036
31
0.0000000000
11
-33.5814796905
21
26.8446803587
31
0.0000000000
11
-33.5814797143
21
27.0216325599
31
0.0000000000
11
-33.5795717378
21
27.1352737954
31
0.0000000000
11
-33.5759424421
21
27.1744834271
31
0.0000000000
0
SPLINE
5
2BB
100
AcDbEntity
8
0
100
AcDbSpline
62
9
6
CONTINUOUS
70
0
71
3
72
14
73
10
74
8
42
0.0000001000
43
0.0000001000
44
0.0000000001
12
-1.0377045562
22
-0.0182862624
32
0.0000000000
13
-0.0706213177
23
-1.0354601696
33
0.0000000000
40
0.0000000000
40
0.0000000000
40
0.0000000000
40
0.0000000000
40
0.1423845096
40
0.2853653893
40
0.4284100418
40
0.5714177797
40
0.7145131262
40
0.8575273820
40
1.0000000000
40
1.0000000000
40
1.0000000000
40
1.0000000000
10
-33.5759424447
20
26.3746052709
30
0.0000000000
10
-33.6251934628
20
26.3737373774
30
0.0000000000
10
-33.7240361899
20
26.3615266254
30
0.0000000000
10
-33.8650009006
20
26.3123997207
30
0.0000000000
10
-33.9926986920
20
26.2345457146
30
0.0000000000
10
-34.1011154479
20
26.1314893815
30
0.0000000000
10
-34.1853553201
20
26.0078745819
30
0.0000000000
10
-34.2415694494
20
25.8695175237
30
0.0000000000
10
-34.2587592699
20
25.7713743749
30
0.0000000000
10
-34.2621131379
20
25.7221994678
30
0.0000000000
11
-33.5759424447
21
26.3746052709
31
0.0000000000
11
-33.7225983729
21
26.3564453443
31
0.0000000000
11
-33.8627355603
21
26.3076331682
31
0.0000000000
11
-33.9894901830
21
26.2303416832
31
0.0000000000
11
-34.0970672312
21
26.1280845935
31
0.0000000000
11
-34.1807088271
21
26.0053637054
31
0.0000000000
11
-34.2365573857
21
25.8678417789
31
0.0000000000
11
-34.2621131379
21
25.7221994678
31
0.0000000000
0
ENDSEC
0
SECTION
2
OBJECTS
0
DICTIONARY
5
2BC
100
AcDbDictionary
3
ACAD_GROUP
350
2BD
3
ACAD_MLINESTYLE
350
2BE
0
DICTIONARY
5
2BD
102
{ACAD_REACTORS
330
2BC
102
}
100
AcDbDictionary
0
DICTIONARY
5
2BE
102
{ACAD_REACTORS
330
2BC
102
}
100
AcDbDictionary
3
STANDARD
350
2BF
0
MLINESTYLE
5
2BF
102
{ACAD_REACTORS
330
2BE
102
}
100
AcDbMlineStyle
2
STANDARD
70
0
3

62
256
51
90.0
52
90.0
71
2
49
0.5
62
256
6
BYLAYER
49
-0.5
62
256
6
BYLAYER
0
ENDSEC
0
EOF
