  0
SECTION
  2
HEADER
  9
$ACADVER
  1
AC1015
  9
$DWGCODEPAGE
  3
ANSI_1252
  9
$EXTMAX
 10
297.0
 20
210.0
 30
0.0
  9
$EXTMIN
 10
0.0
 20
0.0
 30
0.0
  9
$LIMMIN
 10
0.0
 20
0.0
  9
$LIMMAX
 10
297.0
 20
210.0
  9
$VIEWCTR
 10
148.5
 20
105.0
  9
$VIEWSIZE
 40
210.0
  9
$CLAYER
  8
0
  9
$LTSCALE
 40
16.335
  9
$CELTYPE
  6
BYLAYER
  9
$DIMSCALE
 40
1.0
  9
$DIMASZ
 40
3.0
  9
$DIMEXO
 40
1.85625
  9
$DIMDLI
 40
11.286
  9
$DIMEXE
 40
5.346
  9
$DIMCEN
 40
2.673
  9
$DIMLFAC
 40
1.0
  9
$DIMBLK
  1
_FILLED
  9
$DIMTXT
 40
3.0
  9
$DIMTOL
 70
1
  9
$DIMLIM
 70
0
  9
$DIMTFAC
 40
1.0
  9
$DIMTP
 40
0.01
  9
$DIMTM
 40
0.01
  9
$PDMODE
 70
3
  9
$PDSIZE
 40
3.0
  9
$HANDSEED
  5
2EB
  9
$TILEMODE
 70
1
  9
$MEASUREMENT
 70
1
  9
$INSUNITS
 70
4
  0
ENDSEC
  0
SECTION
  2
CLASSES
  0
CLASS
  1
ACDBDICTIONARYWDFLT
  2
AcDbDictionaryWithDefault
  3
AutoCAD 2000
 90
0
280
0
281
0
  0
CLASS
  1
ACDBPLACEHOLDER
  2
AcDbPlaceHolder
  3
AutoCAD 2000
 90
0
280
0
281
0
  0
CLASS
  1
LAYOUT
  2
AcDbLayout
  3
AutoCAD 2000
 90
0
280
0
281
0
  0
ENDSEC
  0
SECTION
  2
TABLES
  0
TABLE
  2
VPORT
  5
8
100
AcDbSymbolTable
 70
2
  0
VPORT
  5
1F4
100
AcDbSymbolTableRecord
100
AcDbViewportTableRecord
  2
*ACTIVE
 70
0
 10
0.0
 20
0.0
 11
1.0
 21
1.0
 12
148.5
 22
105.0
 13
0.0
 23
0.0
 14
1.0
 24
1.0
 15
0.0
 25
0.0
 16
0.0
 26
0.0
 36
1.0
 17
0.0
 27
0.0
 37
0.0
 40
210.0
 41
1.4142857143
 42
50.0
 43
0.0
 44
0.0
 50
0.0
 51
0.0
 71
0
 72
100
 73
1
 74
1
 75
0
 76
0
 77
0
 78
0
  0
ENDTAB
  0
TABLE
  2
LTYPE
  5
5
100
AcDbSymbolTable
 70
6
  0
LTYPE
  5
14
100
AcDbSymbolTableRecord
100
AcDbLinetypeTableRecord
  2
BYBLOCK
 70
0
  3

 72
65
 73
0
 40
0.0
  0
LTYPE
  5
15
100
AcDbSymbolTableRecord
100
AcDbLinetypeTableRecord
  2
BYLAYER
 70
0
  3

 72
65
 73
0
 40
0.0
  0
LTYPE
  5
16
100
AcDbSymbolTableRecord
100
AcDbLinetypeTableRecord
  2
CONTINUOUS
 70
64
  3
Solid line
 72
65
 73
0
 40
0.0
  0
LTYPE
  5
1F5
100
AcDbSymbolTableRecord
100
AcDbLinetypeTableRecord
  2
CENTER
 70
64
  3
____ _ ____ _ ____ _ ____ _ ____ _ ____ _ ____
 72
65
 73
4
 40
0.6
 49
0.375
 74
0
 49
-0.075
 74
0
 49
0.075
 74
0
 49
-0.075
 74
0
  0
LTYPE
  5
1F6
100
AcDbSymbolTableRecord
100
AcDbLinetypeTableRecord
  2
HIDDEN
 70
64
  3
- - - - - - - - - - - - - - - - - - - -
 72
65
 73
2
 40
0.2
 49
0.1
 74
0
 49
-0.1
 74
0
  0
LTYPE
  5
1F7
100
AcDbSymbolTableRecord
100
AcDbLinetypeTableRecord
  2
PHANTOM
 70
64
  3
_____ _ _ _____ _ _ _____ _ _ _____
 72
65
 73
6
 40
0.8
 49
0.45
 74
0
 49
-0.05
 74
0
 49
0.1
 74
0
 49
-0.05
 74
0
 49
0.1
 74
0
 49
-0.05
 74
0
  0
LTYPE
  5
1F8
100
AcDbSymbolTableRecord
100
AcDbLinetypeTableRecord
  2
DOT
 70
64
  3
. . . . . . . . . . . . . . . . . . . .
 72
65
 73
2
 40
0.2
 49
0.1
 74
0
 49
-0.1
 74
0
  0
LTYPE
  5
1F9
100
AcDbSymbolTableRecord
100
AcDbLinetypeTableRecord
  2
DASHED
 70
64
  3
- - - - - - - - - - - - - - - - - - - -
 72
65
 73
2
 40
0.2
 49
0.1
 74
0
 49
-0.1
 74
0
  0
ENDTAB
  0
TABLE
  2
LAYER
  5
2
100
AcDbSymbolTable
 70
36
  0
LAYER
  5
10
100
AcDbSymbolTableRecord
100
AcDbLayerTableRecord
  2
0
 70
0
 62
7
  6
CONTINUOUS
370
-3
390
F
  0
LAYER
  5
1FA
100
AcDbSymbolTableRecord
100
AcDbLayerTableRecord
  2
DEFAULT_1
 70
0
 62
7
  6
CENTER
370
-3
390
F
  0
LAYER
  5
1FB
100
AcDbSymbolTableRecord
100
AcDbLayerTableRecord
  2
DEFAULT_2
 70
0
 62
7
  6
HIDDEN
370
-3
390
F
  0
LAYER
  5
1FC
100
AcDbSymbolTableRecord
100
AcDbLayerTableRecord
  2
DEFAULT_3
 70
0
 62
7
  6
PHANTOM
370
-3
390
F
  0
LAYER
  5
1FD
100
AcDbSymbolTableRecord
100
AcDbLayerTableRecord
  2
ASSI
 70
0
 62
7
  6
CONTINUOUS
370
-3
390
F
  0
LAYER
  5
1FE
100
AcDbSymbolTableRecord
100
AcDbLayerTableRecord
  2
COORDINATE
 70
0
 62
7
  6
CONTINUOUS
370
-3
390
F
  0
LAYER
  5
1FF
100
AcDbSymbolTableRecord
100
AcDbLayerTableRecord
  2
COORD_ORIGINE
 70
0
 62
7
  6
CONTINUOUS
370
-3
390
F
  0
LAYER
  5
200
100
AcDbSymbolTableRecord
100
AcDbLayerTableRecord
  2
COPY_PUBLISH
 70
0
 62
7
  6
CONTINUOUS
370
-3
390
F
  0
LAYER
  5
201
100
AcDbSymbolTableRecord
100
AcDbLayerTableRecord
  2
COSMETIC
 70
0
 62
7
  6
CONTINUOUS
370
-3
390
F
  0
LAYER
  5
202
100
AcDbSymbolTableRecord
100
AcDbLayerTableRecord
  2
CURVE
 70
0
 62
7
  6
CONTINUOUS
370
-3
390
F
  0
LAYER
  5
203
100
AcDbSymbolTableRecord
100
AcDbLayerTableRecord
  2
DRAFT
 70
0
 62
7
  6
CONTINUOUS
370
-3
390
F
  0
LAYER
  5
204
100
AcDbSymbolTableRecord
100
AcDbLayerTableRecord
  2
IMPORT_IGES
 70
0
 62
7
  6
CONTINUOUS
370
-3
390
F
  0
LAYER
  5
205
100
AcDbSymbolTableRecord
100
AcDbLayerTableRecord
  2
NOTE
 70
0
 62
7
  6
CONTINUOUS
370
-3
390
F
  0
LAYER
  5
206
100
AcDbSymbolTableRecord
100
AcDbLayerTableRecord
  2
PIANI
 70
0
 62
7
  6
CONTINUOUS
370
-3
390
F
  0
LAYER
  5
207
100
AcDbSymbolTableRecord
100
AcDbLayerTableRecord
  2
PIANI_ORIGINE
 70
0
 62
7
  6
CONTINUOUS
370
-3
390
F
  0
LAYER
  5
208
100
AcDbSymbolTableRecord
100
AcDbLayerTableRecord
  2
PUNTI
 70
0
 62
7
  6
CONTINUOUS
370
-3
390
F
  0
LAYER
  5
209
100
AcDbSymbolTableRecord
100
AcDbLayerTableRecord
  2
RACCORDO
 70
0
 62
7
  6
CONTINUOUS
370
-3
390
F
  0
LAYER
  5
20A
100
AcDbSymbolTableRecord
100
AcDbLayerTableRecord
  2
SNAPLINE
 70
0
 62
7
  6
CONTINUOUS
370
-3
390
F
  0
LAYER
  5
20B
100
AcDbSymbolTableRecord
100
AcDbLayerTableRecord
  2
SUPERFICI
 70
0
 62
7
  6
CONTINUOUS
370
-3
390
F
  0
LAYER
  5
20C
100
AcDbSymbolTableRecord
100
AcDbLayerTableRecord
  2
TRASH
 70
0
 62
7
  6
CONTINUOUS
370
-3
390
F
  0
LAYER
  5
20D
100
AcDbSymbolTableRecord
100
AcDbLayerTableRecord
  2
XSEC_DATUMS
 70
0
 62
7
  6
CONTINUOUS
370
-3
390
F
  0
ENDTAB
  0
TABLE
  2
STYLE
  5
3
100
AcDbSymbolTable
 70
1
  0
STYLE
  5
11
100
AcDbSymbolTableRecord
100
AcDbTextStyleTableRecord
  2
STANDARD
 70
0
 40
0.0
 41
0.8
 50
0.0
 71
0
 42
0.2
  3
txt
  4

  0
STYLE
  5
20E
100
AcDbSymbolTableRecord
100
AcDbTextStyleTableRecord
  2
TEXTSTYLE_1
 70
0
 40
0.0
 41
0.8
 50
0.0
 71
0
 42
0.2
  3
gdt
  4

  0
ENDTAB
  0
TABLE
  2
VIEW
  5
6
100
AcDbSymbolTable
 70
0
  0
ENDTAB
  0
TABLE
  2
UCS
  5
7
100
AcDbSymbolTable
 70
0
  0
ENDTAB
  0
TABLE
  2
APPID
  5
9
100
AcDbSymbolTable
 70
1
  0
APPID
  5
20F
100
AcDbSymbolTableRecord
100
AcDbRegAppTableRecord
  2
ACAD
 70
0
  0
ENDTAB
  0
TABLE
  2
BLOCK_RECORD
  5
1
100
AcDbSymbolTable
 70
0
  0
BLOCK_RECORD
  5
210
100
AcDbSymbolTableRecord
100
AcDbBlockTableRecord
  2
*Model_Space
  0
BLOCK_RECORD
  5
211
100
AcDbSymbolTableRecord
100
AcDbBlockTableRecord
  2
*Paper_Space
  0
BLOCK_RECORD
  5
212
100
AcDbSymbolTableRecord
100
AcDbBlockTableRecord
  2
_FILLED
  0
BLOCK_RECORD
  5
213
100
AcDbSymbolTableRecord
100
AcDbBlockTableRecord
  2
*D0
  0
BLOCK_RECORD
  5
214
100
AcDbSymbolTableRecord
100
AcDbBlockTableRecord
  2
*D1
  0
BLOCK_RECORD
  5
215
100
AcDbSymbolTableRecord
100
AcDbBlockTableRecord
  2
*D2
  0
ENDTAB
  0
TABLE
  2
DIMSTYLE
  5
A
100
AcDbSymbolTable
 70
1
100
AcDbDimStyleTable
 71
0
  0
DIMSTYLE
105
216
100
AcDbSymbolTableRecord
100
AcDbDimStyleTableRecord
  2
STANDARD
 70
0
  3

  4

 40
1.0
 41
3.0
 42
0.0625
 43
0.38
 44
0.18
 45
0.0
 46
0.0
 47
0.01
 48
0.01
140
3.0
141
0.09
142
0.0
143
25.4
144
1.0
145
0.0
146
1.0
147
0.09
 71
1.0
 72
0.0
 73
0
 74
0
 75
0
 76
0
 77
1
 78
8
170
0
171
2
172
0
173
0
174
0
175
0
176
0
177
0
178
0
270
2
271
2
272
2
273
2
274
2
275
0
280
0
281
0
282
0
283
1
284
8
285
0
286
0
287
3
288
0
340
11
341
212
342
212
343
212
344
212
  0
DIMSTYLE
105
217
100
AcDbSymbolTableRecord
100
AcDbDimStyleTableRecord
  2
DIMSTYLE_1
 70
0
  3

  4

 40
1.0
 41
3.0
 42
0.0625
 43
0.38
 44
0.18
 45
0.0
 46
0.0
 47
0.0
 48
0.0
140
3.0
141
0.09
142
0.0
143
25.4
144
1.0
145
0.0
146
1.0
147
0.09
 71
0.0
 72
0.0
 73
0
 74
0
 75
0
 76
0
 77
1
 78
8
170
0
171
2
172
0
173
0
174
0
175
0
176
0
177
0
178
0
270
2
271
2
272
2
273
2
274
2
275
0
280
0
281
0
282
0
283
1
284
8
285
0
286
0
287
3
288
0
340
11
341
212
342
212
343
212
344
212
  0
ENDTAB
  0
ENDSEC
  0
SECTION
  2
BLOCKS
  0
BLOCK
  5
20
100
AcDbEntity
  8
0
100
AcDbBlockBegin
  2
*Model_Space
 70
0
 10
0.0
 20
0.0
 30
0.0
  3
*Model_Space
  1

  0
ENDBLK
  5
21
100
AcDbEntity
  8
0
100
AcDbBlockEnd
  0
BLOCK
  5
1C
100
AcDbEntity
  8
0
100
AcDbBlockBegin
  2
*Paper_Space
 70
0
 10
0.0
 20
0.0
 30
0.0
  3
*Paper_Space
  1

  0
ENDBLK
  5
1D
100
AcDbEntity
  8
0
100
AcDbBlockEnd
  0
BLOCK
  5
218
100
AcDbEntity
  8
0
100
AcDbBlockBegin
  2
_FILLED
 70
64
 10
0.0
 20
0.0
  3
_FILLED
  1

  0
SOLID
  5
219
100
AcDbEntity
  8
0
  6
BYBLOCK
 62
0
100
AcDbTrace
 10
0.0
 20
0.0
 11
-1.0
 21
0.3166666667
 12
-1.0
 22
-0.3166666667
 13
-1.0
 23
-0.3166666667
  0
ENDBLK
  5
21A
100
AcDbEntity
  8
0
  6
BYBLOCK
 62
0
100
AcDbBlockEnd
  0
BLOCK
  5
21B
100
AcDbEntity
  8
0
100
AcDbBlockBegin
 62
7
  6
CONTINUOUS
  2
*D0
 70
65
 10
0.0
 20
0.0
  3
*D0
  1

  0
MTEXT
  5
21C
100
AcDbEntity
  8
0
100
AcDbMText
 62
7
  6
CONTINUOUS
  7
STANDARD
 71
2
 72
1
 10
-0.0
 20
33.6
 30
0.0
 11
1.0
 21
0.0
 31
0.0
 44
0.9
  1
22,2
 40
3.0
 41
8.7857142857
  0
LINE
  5
21D
100
AcDbEntity
  8
0
100
AcDbLine
 62
7
  6
CONTINUOUS
 10
-11.1
 20
21.55027414
 11
-11.1
 21
31.35
  0
LINE
  5
21E
100
AcDbEntity
  8
0
100
AcDbLine
 62
7
  6
CONTINUOUS
 10
11.1
 20
21.55027414
 11
11.1
 21
31.35
  0
LINE
  5
21F
100
AcDbEntity
  8
0
100
AcDbLine
 62
7
  6
CONTINUOUS
 10
-11.1
 20
29.85
 11
-0.0
 21
29.85
  0
LINE
  5
220
100
AcDbEntity
  8
0
100
AcDbLine
 62
7
  6
CONTINUOUS
 10
11.1
 20
29.85
 11
-0.0
 21
29.85
  0
INSERT
  5
221
100
AcDbEntity
  8
0
100
AcDbBlockReference
 62
7
  6
CONTINUOUS
  2
_FILLED
 10
-11.1
 20
29.85
 41
3.0
 42
3.0
 43
3.0
 50
180.0
  0
INSERT
  5
222
100
AcDbEntity
  8
0
100
AcDbBlockReference
 62
7
  6
CONTINUOUS
  2
_FILLED
 10
11.1
 20
29.85
 41
3.0
 42
3.0
 43
3.0
 50
0.0
  0
ENDBLK
  5
223
100
AcDbEntity
  8
0
  6
BYBLOCK
 62
0
100
AcDbBlockEnd
  0
BLOCK
  5
224
100
AcDbEntity
  8
0
100
AcDbBlockBegin
 62
7
  6
CONTINUOUS
  2
*D1
 70
65
 10
0.0
 20
0.0
  3
*D1
  1

  0
MTEXT
  5
225
100
AcDbEntity
  8
0
100
AcDbMText
 62
7
  6
CONTINUOUS
  7
STANDARD
 71
2
 72
1
 10
15.35
 20
0.0
 30
0.0
 11
0.0
 21
1.0
 31
0.0
 44
0.9
  1
43,7
 40
3.0
 41
8.5714285714
  0
LINE
  5
226
100
AcDbEntity
  8
0
100
AcDbLine
 62
7
  6
CONTINUOUS
 10
10.80027414
 20
21.85
 11
20.6
 21
21.85
  0
LINE
  5
227
100
AcDbEntity
  8
0
100
AcDbLine
 62
7
  6
CONTINUOUS
 10
10.80027414
 20
-21.85
 11
20.6
 21
-21.85
  0
LINE
  5
228
100
AcDbEntity
  8
0
100
AcDbLine
 62
7
  6
CONTINUOUS
 10
19.1
 20
21.85
 11
19.1
 21
0.0
  0
LINE
  5
229
100
AcDbEntity
  8
0
100
AcDbLine
 62
7
  6
CONTINUOUS
 10
19.1
 20
-21.85
 11
19.1
 21
0.0
  0
INSERT
  5
22A
100
AcDbEntity
  8
0
100
AcDbBlockReference
 62
7
  6
CONTINUOUS
  2
_FILLED
 10
19.1
 20
21.85
 41
3.0
 42
3.0
 43
3.0
 50
90.0
  0
INSERT
  5
22B
100
AcDbEntity
  8
0
100
AcDbBlockReference
 62
7
  6
CONTINUOUS
  2
_FILLED
 10
19.1
 20
-21.85
 41
3.0
 42
3.0
 43
3.0
 50
270.0
  0
ENDBLK
  5
22C
100
AcDbEntity
  8
0
  6
BYBLOCK
 62
0
100
AcDbBlockEnd
  0
BLOCK
  5
22D
100
AcDbEntity
  8
0
100
AcDbBlockBegin
 62
7
  6
CONTINUOUS
  2
*D2
 70
65
 10
0.0
 20
0.0
  3
*D2
  1

  0
MTEXT
  5
22E
100
AcDbEntity
  8
0
100
AcDbMText
 62
7
  6
CONTINUOUS
  7
STANDARD
 71
2
 72
1
 10
-25.510756341
 20
33.6
 30
0.0
 11
1.0
 21
0.0
 31
0.0
 44
0.9
  1
7,9
 40
3.0
 41
6.4285714286
  0
LINE
  5
22F
100
AcDbEntity
  8
0
100
AcDbLine
 62
7
  6
CONTINUOUS
 10
-21.560756341
 20
21.55027414
 11
-21.560756341
 21
31.35
  0
LINE
  5
230
100
AcDbEntity
  8
0
100
AcDbLine
 62
7
  6
CONTINUOUS
 10
-29.460756341
 20
0.5
 11
-29.460756341
 21
31.35
  0
LINE
  5
231
100
AcDbEntity
  8
0
100
AcDbLine
 62
7
  6
CONTINUOUS
 10
-21.560756341
 20
29.85
 11
-17.560756341
 21
29.85
  0
LINE
  5
232
100
AcDbEntity
  8
0
100
AcDbLine
 62
7
  6
CONTINUOUS
 10
-17.560756341
 20
29.85
 11
-25.510756341
 21
29.85
  0
LINE
  5
233
100
AcDbEntity
  8
0
100
AcDbLine
 62
7
  6
CONTINUOUS
 10
-29.460756341
 20
29.85
 11
-33.460756341
 21
29.85
  0
LINE
  5
234
100
AcDbEntity
  8
0
100
AcDbLine
 62
7
  6
CONTINUOUS
 10
-33.460756341
 20
29.85
 11
-25.510756341
 21
29.85
  0
INSERT
  5
235
100
AcDbEntity
  8
0
100
AcDbBlockReference
 62
7
  6
CONTINUOUS
  2
_FILLED
 10
-21.560756341
 20
29.85
 41
3.0
 42
3.0
 43
3.0
 50
180.0
  0
INSERT
  5
236
100
AcDbEntity
  8
0
100
AcDbBlockReference
 62
7
  6
CONTINUOUS
  2
_FILLED
 10
-29.460756341
 20
29.85
 41
3.0
 42
3.0
 43
3.0
  0
ENDBLK
  5
237
100
AcDbEntity
  8
0
  6
BYBLOCK
 62
0
100
AcDbBlockEnd
  0
ENDSEC
  0
SECTION
  2
ENTITIES
  0
DIMENSION
  5
238
100
AcDbEntity
  8
0
100
AcDbDimension
 62
7
  6
CONTINUOUS
  2
*D0
 10
11.1
 20
29.85
 11
-4.3928571429
 21
32.1
 70
160
 71
2
 42
22.2
  3
DIMSTYLE_1
100
AcDbAlignedDimension
 13
-11.1
 23
21.55027414
 14
11.1
 24
21.55027414
100
AcDbRotatedDimension
  0
DIMENSION
  5
239
100
AcDbEntity
  8
0
100
AcDbDimension
 62
7
  6
CONTINUOUS
  2
*D1
 10
19.1
 20
-21.85
 11
18.7703154977
 21
-3.8314142726
 70
160
 71
2
 42
43.7
  3
DIMSTYLE_1
100
AcDbAlignedDimension
 13
10.80027414
 23
21.85
 14
10.80027414
 24
-21.85
 50
270.0
100
AcDbRotatedDimension
  0
DIMENSION
  5
23A
100
AcDbEntity
  8
0
100
AcDbDimension
 62
7
  6
CONTINUOUS
  2
*D2
 10
-29.460756341
 20
29.85
 11
-28.7250420552
 21
32.1
 70
160
 71
2
 42
7.9
  3
DIMSTYLE_1
100
AcDbAlignedDimension
 13
-21.560756341
 23
21.55027414
 14
-29.460756341
 24
0.5
 50
180.0
100
AcDbRotatedDimension
  0
LINE
  5
23B
100
AcDbEntity
  8
ASSI
100
AcDbLine
 62
7
  6
CONTINUOUS
 10
-10.30027414
 20
-21.85
 11
10.30027414
 21
-21.85
  0
LINE
  5
23C
100
AcDbEntity
  8
RACCORDO
100
AcDbLine
 62
7
  6
CONTINUOUS
 10
-10.30027414
 20
-21.85
 11
10.30027414
 21
-21.85
  0
LINE
  5
23D
100
AcDbEntity
  8
ASSI
100
AcDbLine
 62
253
  6
CONTINUOUS
 10
10.1495739081
 20
-21.6992997681
 11
-10.1495739081
 21
-21.6992997681
  0
LINE
  5
23E
100
AcDbEntity
  8
RACCORDO
100
AcDbLine
 62
253
  6
CONTINUOUS
 10
10.1495739081
 20
-21.6992997681
 11
-10.1495739081
 21
-21.6992997681
  0
LINE
  5
23F
100
AcDbEntity
  8
ASSI
100
AcDbLine
 62
253
  6
CONTINUOUS
 10
10.1317656087
 20
-20.3013203825
 11
-10.1317656087
 21
-20.3013203825
  0
LINE
  5
240
100
AcDbEntity
  8
RACCORDO
100
AcDbLine
 62
253
  6
CONTINUOUS
 10
10.1317656087
 20
-20.3013203825
 11
-10.1317656087
 21
-20.3013203825
  0
LINE
  5
241
100
AcDbEntity
  8
CURVE
100
AcDbLine
 62
253
  6
CONTINUOUS
 10
-3.6964285374
 20
-13.65
 11
-2.8749999464
 21
-13.65
  0
LINE
  5
242
100
AcDbEntity
  8
CURVE
100
AcDbLine
 62
253
  6
CONTINUOUS
 10
3.5321427345
 20
-13.65
 11
2.8750001907
 21
-13.65
  0
LINE
  5
243
100
AcDbEntity
  8
CURVE
100
AcDbLine
 62
253
  6
CONTINUOUS
 10
1.8892858267
 20
-13.65
 11
1.2321427345
 21
-13.65
  0
LINE
  5
244
100
AcDbEntity
  8
CURVE
100
AcDbLine
 62
253
  6
CONTINUOUS
 10
-0.2464285374
 20
-13.65
 11
0.4107142806
 21
-13.65
  0
LINE
  5
245
100
AcDbEntity
  8
CURVE
100
AcDbLine
 62
253
  6
CONTINUOUS
 10
-0.5750000834
 20
-12.828571409
 11
0.4107142806
 21
-12.828571409
  0
LINE
  5
246
100
AcDbEntity
  8
CURVE
100
AcDbLine
 62
253
  6
CONTINUOUS
 10
3.5321427345
 20
-12.007142818
 11
2.8750001907
 21
-12.007142818
  0
LINE
  5
247
100
AcDbEntity
  8
CURVE
100
AcDbLine
 62
253
  6
CONTINUOUS
 10
1.8892858267
 20
-12.007142818
 11
1.2321427345
 21
-12.007142818
  0
LINE
  5
248
100
AcDbEntity
  8
CURVE
100
AcDbLine
 62
253
  6
CONTINUOUS
 10
0.0821430087
 20
-12.007142818
 11
-0.2464285374
 21
-12.007142818
  0
LINE
  5
249
100
AcDbEntity
  8
CURVE
100
AcDbLine
 62
253
  6
CONTINUOUS
 10
-1.3964285374
 20
-12.007142818
 11
-2.0535713553
 21
-12.007142818
  0
LINE
  5
24A
100
AcDbEntity
  8
CURVE
100
AcDbLine
 62
253
  6
CONTINUOUS
 10
-2.8749999464
 20
-12.007142818
 11
-3.6964285374
 21
-12.007142818
  0
LINE
  5
24B
100
AcDbEntity
  8
CURVE
100
AcDbLine
 62
253
  6
CONTINUOUS
 10
1.2321427345
 20
-12.7738095075
 11
1.8892858267
 21
-12.8833333105
  0
LINE
  5
24C
100
AcDbEntity
  8
CURVE
100
AcDbLine
 62
253
  6
CONTINUOUS
 10
2.8750001907
 20
-12.7738095075
 11
3.5321427345
 21
-12.8833333105
  0
LINE
  5
24D
100
AcDbEntity
  8
ASSI
100
AcDbLine
 62
7
  6
CONTINUOUS
 10
-11.1
 20
-21.05027414
 11
-11.1
 21
21.05027414
  0
LINE
  5
24E
100
AcDbEntity
  8
RACCORDO
100
AcDbLine
 62
7
  6
CONTINUOUS
 10
-11.1
 20
-21.05027414
 11
-11.1
 21
21.05027414
  0
LINE
  5
24F
100
AcDbEntity
  8
CURVE
100
AcDbLine
 62
253
  6
CONTINUOUS
 10
1.0678570986
 20
-12.6642857045
 11
1.2321427345
 21
-12.7738095075
  0
LINE
  5
250
100
AcDbEntity
  8
CURVE
100
AcDbLine
 62
253
  6
CONTINUOUS
 10
1.8892858267
 20
-12.8833333105
 11
2.0535714626
 21
-12.9928571135
  0
LINE
  5
251
100
AcDbEntity
  8
CURVE
100
AcDbLine
 62
253
  6
CONTINUOUS
 10
-2.7107142419
 20
-12.171428591
 11
-2.8749999464
 21
-12.007142818
  0
LINE
  5
252
100
AcDbEntity
  8
CURVE
100
AcDbLine
 62
253
  6
CONTINUOUS
 10
-0.5750000834
 20
-13.3214285567
 11
-0.2464285374
 21
-13.65
  0
LINE
  5
253
100
AcDbEntity
  8
ASSI
100
AcDbLine
 62
253
  6
CONTINUOUS
 10
10.30027414
 20
21.85
 11
10.1495739081
 21
21.6992997681
  0
LINE
  5
254
100
AcDbEntity
  8
RACCORDO
100
AcDbLine
 62
253
  6
CONTINUOUS
 10
10.30027414
 20
21.85
 11
10.1495739081
 21
21.6992997681
  0
LINE
  5
255
100
AcDbEntity
  8
CURVE
100
AcDbLine
 62
253
  6
CONTINUOUS
 10
2.7107145548
 20
-12.6642857045
 11
2.8750001907
 21
-12.7738095075
  0
LINE
  5
256
100
AcDbEntity
  8
CURVE
100
AcDbLine
 62
253
  6
CONTINUOUS
 10
3.5321427345
 20
-12.8833333105
 11
3.6964283705
 21
-12.9928571135
  0
LINE
  5
257
100
AcDbEntity
  8
CURVE
100
AcDbLine
 62
253
  6
CONTINUOUS
 10
1.2321427345
 20
-13.65
 11
1.0678570986
 21
-13.4857142784
  0
LINE
  5
258
100
AcDbEntity
  8
CURVE
100
AcDbLine
 62
253
  6
CONTINUOUS
 10
0.4107142806
 20
-12.335714227
 11
0.0821430087
 21
-12.007142818
  0
LINE
  5
259
100
AcDbEntity
  8
ASSI
100
AcDbLine
 62
253
  6
CONTINUOUS
 10
10.1495739081
 20
-21.6992997681
 11
10.30027414
 21
-21.85
  0
LINE
  5
25A
100
AcDbEntity
  8
RACCORDO
100
AcDbLine
 62
253
  6
CONTINUOUS
 10
10.1495739081
 20
-21.6992997681
 11
10.30027414
 21
-21.85
  0
LINE
  5
25B
100
AcDbEntity
  8
ASSI
100
AcDbLine
 62
253
  6
CONTINUOUS
 10
11.1
 20
21.05027414
 11
10.9492997681
 21
20.8995739081
  0
LINE
  5
25C
100
AcDbEntity
  8
RACCORDO
100
AcDbLine
 62
253
  6
CONTINUOUS
 10
11.1
 20
21.05027414
 11
10.9492997681
 21
20.8995739081
  0
LINE
  5
25D
100
AcDbEntity
  8
CURVE
100
AcDbLine
 62
253
  6
CONTINUOUS
 10
2.8750001907
 20
-13.65
 11
2.7107145548
 21
-13.4857142784
  0
LINE
  5
25E
100
AcDbEntity
  8
CURVE
100
AcDbLine
 62
253
  6
CONTINUOUS
 10
2.0535714626
 20
-12.171428591
 11
1.8892858267
 21
-12.007142818
  0
LINE
  5
25F
100
AcDbEntity
  8
ASSI
100
AcDbLine
 62
253
  6
CONTINUOUS
 10
10.9492997681
 20
-20.8995739081
 11
11.1
 21
-21.05027414
  0
LINE
  5
260
100
AcDbEntity
  8
RACCORDO
100
AcDbLine
 62
253
  6
CONTINUOUS
 10
10.9492997681
 20
-20.8995739081
 11
11.1
 21
-21.05027414
  0
LINE
  5
261
100
AcDbEntity
  8
CURVE
100
AcDbLine
 62
253
  6
CONTINUOUS
 10
-1.2869045973
 20
-12.171428591
 11
-1.3964285374
 21
-12.007142818
  0
LINE
  5
262
100
AcDbEntity
  8
CURVE
100
AcDbLine
 62
253
  6
CONTINUOUS
 10
3.6964283705
 20
-12.171428591
 11
3.5321427345
 21
-12.007142818
  0
LINE
  5
263
100
AcDbEntity
  8
CURVE
100
AcDbLine
 62
253
  6
CONTINUOUS
 10
-3.6964285374
 20
-12.007142818
 11
-3.6964285374
 21
-14.1976190776
  0
LINE
  5
264
100
AcDbEntity
  8
CURVE
100
AcDbLine
 62
253
  6
CONTINUOUS
 10
-2.7107142419
 20
-13.4857142784
 11
-2.7107142419
 21
-12.171428657
  0
LINE
  5
265
100
AcDbEntity
  8
CURVE
100
AcDbLine
 62
253
  6
CONTINUOUS
 10
-2.0535713553
 20
-12.007142818
 11
-2.0535713553
 21
-13.6499999378
  0
LINE
  5
266
100
AcDbEntity
  8
CURVE
100
AcDbLine
 62
253
  6
CONTINUOUS
 10
-1.2869045973
 20
-12.5
 11
-1.2869045973
 21
-12.1714285925
  0
LINE
  5
267
100
AcDbEntity
  8
CURVE
100
AcDbLine
 62
253
  6
CONTINUOUS
 10
-0.5750000834
 20
-12.335714227
 11
-0.5750000834
 21
-13.3214285811
  0
LINE
  5
268
100
AcDbEntity
  8
CURVE
100
AcDbLine
 62
253
  6
CONTINUOUS
 10
0.4107142806
 20
-12.828571409
 11
0.4107142806
 21
-12.3357142298
  0
LINE
  5
269
100
AcDbEntity
  8
CURVE
100
AcDbLine
 62
253
  6
CONTINUOUS
 10
1.0678570986
 20
-12.171428591
 11
1.0678570986
 21
-12.6642856949
  0
LINE
  5
26A
100
AcDbEntity
  8
CURVE
100
AcDbLine
 62
253
  6
CONTINUOUS
 10
2.0535714626
 20
-12.9928571135
 11
2.0535714626
 21
-13.4857142916
  0
LINE
  5
26B
100
AcDbEntity
  8
CURVE
100
AcDbLine
 62
253
  6
CONTINUOUS
 10
2.7107145548
 20
-12.171428591
 11
2.7107145548
 21
-12.6642856949
  0
LINE
  5
26C
100
AcDbEntity
  8
CURVE
100
AcDbLine
 62
253
  6
CONTINUOUS
 10
3.6964283705
 20
-12.9928571135
 11
3.6964283705
 21
-13.4857142916
  0
LINE
  5
26D
100
AcDbEntity
  8
ASSI
100
AcDbLine
 62
253
  6
CONTINUOUS
 10
-11.1
 20
-21.05027414
 11
-10.9492997681
 21
-20.8995739081
  0
LINE
  5
26E
100
AcDbEntity
  8
RACCORDO
100
AcDbLine
 62
253
  6
CONTINUOUS
 10
-11.1
 20
-21.05027414
 11
-10.9492997681
 21
-20.8995739081
  0
LINE
  5
26F
100
AcDbEntity
  8
CURVE
100
AcDbLine
 62
253
  6
CONTINUOUS
 10
-2.8749999464
 20
-13.65
 11
-2.7107142419
 21
-13.4857142784
  0
LINE
  5
270
100
AcDbEntity
  8
ASSI
100
AcDbLine
 62
253
  6
CONTINUOUS
 10
-10.30027414
 20
-21.85
 11
-10.1495739081
 21
-21.6992997681
  0
LINE
  5
271
100
AcDbEntity
  8
RACCORDO
100
AcDbLine
 62
253
  6
CONTINUOUS
 10
-10.30027414
 20
-21.85
 11
-10.1495739081
 21
-21.6992997681
  0
LINE
  5
272
100
AcDbEntity
  8
CURVE
100
AcDbLine
 62
253
  6
CONTINUOUS
 10
-0.2464285374
 20
-12.007142818
 11
-0.5750000834
 21
-12.335714227
  0
LINE
  5
273
100
AcDbEntity
  8
ASSI
100
AcDbLine
 62
253
  6
CONTINUOUS
 10
-10.9492997681
 20
20.8995739081
 11
-11.1
 21
21.05027414
  0
LINE
  5
274
100
AcDbEntity
  8
RACCORDO
100
AcDbLine
 62
253
  6
CONTINUOUS
 10
-10.9492997681
 20
20.8995739081
 11
-11.1
 21
21.05027414
  0
LINE
  5
275
100
AcDbEntity
  8
ASSI
100
AcDbLine
 62
253
  6
CONTINUOUS
 10
-10.1495739081
 20
21.6992997681
 11
-10.30027414
 21
21.85
  0
LINE
  5
276
100
AcDbEntity
  8
RACCORDO
100
AcDbLine
 62
253
  6
CONTINUOUS
 10
-10.1495739081
 20
21.6992997681
 11
-10.30027414
 21
21.85
  0
LINE
  5
277
100
AcDbEntity
  8
CURVE
100
AcDbLine
 62
253
  6
CONTINUOUS
 10
1.2321427345
 20
-12.007142818
 11
1.0678570986
 21
-12.171428591
  0
LINE
  5
278
100
AcDbEntity
  8
ASSI
100
AcDbLine
 62
7
  6
CONTINUOUS
 10
11.1
 20
-21.05027414
 11
11.1
 21
21.05027414
  0
LINE
  5
279
100
AcDbEntity
  8
RACCORDO
100
AcDbLine
 62
7
  6
CONTINUOUS
 10
11.1
 20
-21.05027414
 11
11.1
 21
21.05027414
  0
LINE
  5
27A
100
AcDbEntity
  8
CURVE
100
AcDbLine
 62
253
  6
CONTINUOUS
 10
2.8750001907
 20
-12.007142818
 11
2.7107145548
 21
-12.171428591
  0
LINE
  5
27B
100
AcDbEntity
  8
CURVE
100
AcDbLine
 62
253
  6
CONTINUOUS
 10
2.0535714626
 20
-13.4857142784
 11
1.8892858267
 21
-13.65
  0
LINE
  5
27C
100
AcDbEntity
  8
CURVE
100
AcDbLine
 62
253
  6
CONTINUOUS
 10
3.6964283705
 20
-13.4857142784
 11
3.5321427345
 21
-13.65
  0
LINE
  5
27D
100
AcDbEntity
  8
ASSI
100
AcDbLine
 62
253
  6
CONTINUOUS
 10
10.1317656087
 20
20.3013203825
 11
-10.1317656087
 21
20.3013203825
  0
LINE
  5
27E
100
AcDbEntity
  8
RACCORDO
100
AcDbLine
 62
253
  6
CONTINUOUS
 10
10.1317656087
 20
20.3013203825
 11
-10.1317656087
 21
20.3013203825
  0
LINE
  5
27F
100
AcDbEntity
  8
ASSI
100
AcDbLine
 62
253
  6
CONTINUOUS
 10
10.1495739081
 20
21.6992997681
 11
-10.1495739081
 21
21.6992997681
  0
LINE
  5
280
100
AcDbEntity
  8
RACCORDO
100
AcDbLine
 62
253
  6
CONTINUOUS
 10
10.1495739081
 20
21.6992997681
 11
-10.1495739081
 21
21.6992997681
  0
LINE
  5
281
100
AcDbEntity
  8
ASSI
100
AcDbLine
 62
7
  6
CONTINUOUS
 10
-10.30027414
 20
21.85
 11
10.30027414
 21
21.85
  0
LINE
  5
282
100
AcDbEntity
  8
RACCORDO
100
AcDbLine
 62
7
  6
CONTINUOUS
 10
-10.30027414
 20
21.85
 11
10.30027414
 21
21.85
  0
LINE
  5
283
100
AcDbEntity
  8
ASSI
100
AcDbLine
 62
7
  6
CONTINUOUS
 10
-27.3157660135
 20
-21.6992997681
 11
-21.560756341
 21
-21.85
  0
LINE
  5
284
100
AcDbEntity
  8
RACCORDO
100
AcDbLine
 62
7
  6
CONTINUOUS
 10
-27.3157660135
 20
-21.6992997681
 11
-21.560756341
 21
-21.85
  0
LINE
  5
285
100
AcDbEntity
  8
ASSI
100
AcDbLine
 62
253
  6
CONTINUOUS
 10
-27.3157660135
 20
-20.8995739081
 11
-21.560756341
 21
-21.05027414
  0
LINE
  5
286
100
AcDbEntity
  8
RACCORDO
100
AcDbLine
 62
253
  6
CONTINUOUS
 10
-27.3157660135
 20
-20.8995739081
 11
-21.560756341
 21
-21.05027414
  0
LINE
  5
287
100
AcDbEntity
  8
CURVE
100
AcDbLine
 62
253
  6
CONTINUOUS
 10
-29.1557610986
 20
-13.5242050897
 11
-29.1544630472
 21
-13.5529391896
  0
LINE
  5
288
100
AcDbEntity
  8
ASSI
100
AcDbLine
 62
7
  6
CONTINUOUS
 10
-21.560756341
 20
-21.85
 11
-21.560756341
 21
21.85
  0
LINE
  5
289
100
AcDbEntity
  8
RACCORDO
100
AcDbLine
 62
7
  6
CONTINUOUS
 10
-21.560756341
 20
-21.85
 11
-21.560756341
 21
21.85
  0
LINE
  5
28A
100
AcDbEntity
  8
ASSI
100
AcDbLine
 62
253
  6
CONTINUOUS
 10
-21.560756341
 20
21.05027414
 11
-27.3157660135
 21
20.8995739081
  0
LINE
  5
28B
100
AcDbEntity
  8
RACCORDO
100
AcDbLine
 62
253
  6
CONTINUOUS
 10
-21.560756341
 20
21.05027414
 11
-27.3157660135
 21
20.8995739081
  0
LINE
  5
28C
100
AcDbEntity
  8
ASSI
100
AcDbLine
 62
7
  6
CONTINUOUS
 10
-21.560756341
 20
21.85
 11
-27.3157660135
 21
21.6992997681
  0
LINE
  5
28D
100
AcDbEntity
  8
RACCORDO
100
AcDbLine
 62
7
  6
CONTINUOUS
 10
-21.560756341
 20
21.85
 11
-27.3157660135
 21
21.6992997681
  0
ARC
  5
28E
100
AcDbEntity
  8
ASSI
100
AcDbCircle
 62
253
  6
CONTINUOUS
 10
11480.8364757613
 20
0.0
 40
11470.7226751903
100
AcDbArc
 50
179.8985957017
 51
180.1014042983
  0
ARC
  5
28F
100
AcDbEntity
  8
RACCORDO
100
AcDbCircle
 62
253
  6
CONTINUOUS
 10
11480.8364757613
 20
0.0
 40
11470.7226751903
100
AcDbArc
 50
179.8985957017
 51
180.1014042983
  0
ARC
  5
290
100
AcDbEntity
  8
ASSI
100
AcDbCircle
 62
253
  6
CONTINUOUS
 10
-11480.8362449593
 20
-0.0
 40
11470.7224443887
100
AcDbArc
 50
359.8985956997
 51
0.1014043003
  0
ARC
  5
291
100
AcDbEntity
  8
RACCORDO
100
AcDbCircle
 62
253
  6
CONTINUOUS
 10
-11480.8362449593
 20
-0.0
 40
11470.7224443887
100
AcDbArc
 50
359.8985956997
 51
0.1014043003
  0
ARC
  5
292
100
AcDbEntity
  8
ASSI
100
AcDbCircle
 62
253
  6
CONTINUOUS
 10
11420.5406444853
 20
0.0
 40
11409.6271180544
100
AcDbArc
 50
179.8983245675
 51
180.1016754325
  0
ARC
  5
293
100
AcDbEntity
  8
RACCORDO
100
AcDbCircle
 62
253
  6
CONTINUOUS
 10
11420.5406444853
 20
0.0
 40
11409.6271180544
100
AcDbArc
 50
179.8983245675
 51
180.1016754325
  0
ARC
  5
294
100
AcDbEntity
  8
ASSI
100
AcDbCircle
 62
253
  6
CONTINUOUS
 10
-11420.5404154087
 20
-0.0
 40
11409.6268889781
100
AcDbArc
 50
359.8983245654
 51
0.1016754346
  0
ARC
  5
295
100
AcDbEntity
  8
RACCORDO
100
AcDbCircle
 62
253
  6
CONTINUOUS
 10
-11420.5404154087
 20
-0.0
 40
11409.6268889781
100
AcDbArc
 50
359.8983245654
 51
0.1016754346
  0
ARC
  5
296
100
AcDbEntity
  8
ASSI
100
AcDbCircle
 62
253
  6
CONTINUOUS
 10
-10.1488800801
 20
-20.8988800802
 40
0.8004250601
100
AcDbArc
 50
180.0496656979
 51
269.9503342949
  0
ARC
  5
297
100
AcDbEntity
  8
RACCORDO
100
AcDbCircle
 62
253
  6
CONTINUOUS
 10
-10.1488800801
 20
-20.8988800802
 40
0.8004250601
100
AcDbArc
 50
180.0496656979
 51
269.9503342949
  0
ARC
  5
298
100
AcDbEntity
  8
ASSI
100
AcDbCircle
 62
253
  6
CONTINUOUS
 10
10.1488800814
 20
20.8988800815
 40
0.8004250588
100
AcDbArc
 50
0.0496656025
 51
89.9503343882
  0
ARC
  5
299
100
AcDbEntity
  8
RACCORDO
100
AcDbCircle
 62
253
  6
CONTINUOUS
 10
10.1488800814
 20
20.8988800815
 40
0.8004250588
100
AcDbArc
 50
0.0496656025
 51
89.9503343882
  0
ARC
  5
29A
100
AcDbEntity
  8
ASSI
100
AcDbCircle
 62
253
  6
CONTINUOUS
 10
-10.1488800828
 20
20.8988800828
 40
0.8004250575
100
AcDbArc
 50
90.0496655133
 51
179.9503344867
  0
ARC
  5
29B
100
AcDbEntity
  8
ASSI
100
AcDbCircle
 62
253
  6
CONTINUOUS
 10
10.1488800827
 20
-20.8988800827
 40
0.8004250575
100
AcDbArc
 50
270.0496655182
 51
359.9503344818
  0
ARC
  5
29C
100
AcDbEntity
  8
RACCORDO
100
AcDbCircle
 62
253
  6
CONTINUOUS
 10
-10.1488800828
 20
20.8988800828
 40
0.8004250575
100
AcDbArc
 50
90.0496655133
 51
179.9503344867
  0
ARC
  5
29D
100
AcDbEntity
  8
RACCORDO
100
AcDbCircle
 62
253
  6
CONTINUOUS
 10
10.1488800827
 20
-20.8988800827
 40
0.8004250575
100
AcDbArc
 50
270.0496655182
 51
359.9503344818
  0
ARC
  5
29E
100
AcDbEntity
  8
ASSI
100
AcDbCircle
 62
7
  6
CONTINUOUS
 10
-27.276500591
 20
-20.1998137806
 40
1.5
100
AcDbArc
 50
183.880231945
 51
268.5
  0
ARC
  5
29F
100
AcDbEntity
  8
RACCORDO
100
AcDbCircle
 62
7
  6
CONTINUOUS
 10
-27.276500591
 20
-20.1998137806
 40
1.5
100
AcDbArc
 50
183.880231945
 51
268.5
  0
ARC
  5
2A0
100
AcDbEntity
  8
ASSI
100
AcDbCircle
 62
253
  6
CONTINUOUS
 10
-27.2974367356
 20
-20.1998081368
 40
0.7000057836
100
AcDbArc
 50
183.8806628435
 51
268.4995691015
  0
ARC
  5
2A1
100
AcDbEntity
  8
RACCORDO
100
AcDbCircle
 62
253
  6
CONTINUOUS
 10
-27.2974367356
 20
-20.1998081368
 40
0.7000057836
100
AcDbArc
 50
183.8806628435
 51
268.4995691015
  0
ARC
  5
2A2
100
AcDbEntity
  8
ASSI
100
AcDbCircle
 62
7
  6
CONTINUOUS
 10
-27.276500591
 20
20.1998137806
 40
1.5
100
AcDbArc
 50
91.5
 51
176.119768055
  0
ARC
  5
2A3
100
AcDbEntity
  8
RACCORDO
100
AcDbCircle
 62
7
  6
CONTINUOUS
 10
-27.276500591
 20
20.1998137806
 40
1.5
100
AcDbArc
 50
91.5
 51
176.119768055
  0
ARC
  5
2A4
100
AcDbEntity
  8
ASSI
100
AcDbCircle
 62
253
  6
CONTINUOUS
 10
-27.2974367334
 20
20.1998081345
 40
0.7000057859
100
AcDbArc
 50
91.5004310741
 51
176.1193369809
  0
ARC
  5
2A5
100
AcDbEntity
  8
RACCORDO
100
AcDbCircle
 62
253
  6
CONTINUOUS
 10
-27.2974367334
 20
20.1998081345
 40
0.7000057859
100
AcDbArc
 50
91.5004310741
 51
176.1193369809
  0
ARC
  5
2A6
100
AcDbEntity
  8
ASSI
100
AcDbCircle
 62
7
  6
CONTINUOUS
 10
270.539243659
 20
-0.0
 40
300.0
100
AcDbArc
 50
176.119768055
 51
183.880231945
  0
ARC
  5
2A7
100
AcDbEntity
  8
CURVE
100
AcDbCircle
 62
253
  6
CONTINUOUS
 10
270.539243659
 20
-0.0
 40
300.0
100
AcDbArc
 50
182.293808047
 51
182.5838071731
  0
ARC
  5
2A8
100
AcDbEntity
  8
CURVE
100
AcDbCircle
 62
253
  6
CONTINUOUS
 10
270.539243659
 20
-0.0
 40
300.0
100
AcDbArc
 50
182.5893033072
 51
182.7125586953
  0
ARC
  5
2A9
100
AcDbEntity
  8
RACCORDO
100
AcDbCircle
 62
7
  6
CONTINUOUS
 10
270.539243659
 20
-0.0
 40
300.0
100
AcDbArc
 50
176.119768055
 51
183.880231945
  0
ARC
  5
2AA
100
AcDbEntity
  8
ASSI
100
AcDbCircle
 62
253
  6
CONTINUOUS
 10
270.5183021131
 20
0.0
 40
299.2000000127
100
AcDbArc
 50
176.1197680552
 51
183.8802319448
  0
ARC
  5
2AB
100
AcDbEntity
  8
RACCORDO
100
AcDbCircle
 62
253
  6
CONTINUOUS
 10
270.5183021131
 20
0.0
 40
299.2000000127
100
AcDbArc
 50
176.1197680552
 51
183.8802319448
  0
SPLINE
  5
2AC
100
AcDbEntity
  8
ASSI
100
AcDbSpline
 62
253
  6
CONTINUOUS
 70
0
 71
3
 72
21
 73
17
 74
15
 42
0.0000001
 43
0.0000001
 44
0.0000000001
 12
-0.5905358478
 22
-1.2675250888
 32
0.0
 13
-0.0011674394
 23
-1.398338684
 33
0.0
 40
0.0
 40
0.0
 40
0.0
 40
0.0
 40
0.0025144215
 40
0.0072713242
 40
0.0142798675
 40
0.0235325773
 40
0.0487141092
 40
0.0826013569
 40
0.1249118805
 40
0.1752912796
 40
0.2333004298
 40
0.2984611226
 40
0.4479404713
 40
0.6186284651
 40
0.8047836298
 40
1.0
 40
1.0
 40
1.0
 40
1.0
 10
10.1495739081
 20
21.6992997681
 30
0.0
 10
10.1490789561
 20
21.698237404
 30
0.0
 10
10.1485582717
 20
21.6948261579
 30
0.0
 10
10.1477085003
 20
21.6882665432
 30
0.0
 10
10.1469490186
 20
21.6784757055
 30
0.0
 10
10.145724682
 20
21.6592095465
 30
0.0
 10
10.1443582658
 20
21.6273820881
 30
0.0
 10
10.142813841
 20
21.5801573485
 30
0.0
 10
10.1413275673
 20
21.5211746371
 30
0.0
 10
10.1398966752
 20
21.4509468529
 30
0.0
 10
10.1385460831
 20
21.3700642069
 30
0.0
 10
10.1367885816
 20
21.2429909667
 30
0.0
 10
10.1349442718
 20
21.063393424
 30
0.0
 10
10.1332920912
 20
20.8273954018
 30
0.0
 10
10.1321859262
 20
20.5700753448
 30
0.0
 10
10.1318415765
 20
20.3923132499
 30
0.0
 10
10.1317656087
 20
20.3013203825
 30
0.0
 11
10.1495739081
 21
21.6992997681
 31
0.0
 11
10.1487293715
 21
21.6958866884
 31
0.0
 11
10.1478874458
 21
21.6892884221
 31
0.0
 11
10.1470500219
 21
21.6795239455
 31
0.0
 11
10.1462189907
 21
21.6666122349
 31
0.0
 11
10.1445835384
 21
21.6314379127
 31
0.0
 11
10.1429947901
 21
21.584078688
 31
0.0
 11
10.1414657103
 21
21.5249339879
 31
0.0
 11
10.1400092288
 21
21.4545015586
 31
0.0
 11
10.1386382425
 21
21.3733966781
 31
0.0
 11
10.1373649322
 21
21.2822888263
 31
0.0
 11
10.1351520884
 21
21.0732777114
 31
0.0
 11
10.133445385
 21
20.8346041057
 31
0.0
 11
10.1323041059
 21
20.5742985488
 31
0.0
 11
10.1317656087
 21
20.3013203825
 31
0.0
  0
SPLINE
  5
2AD
100
AcDbEntity
  8
ASSI
100
AcDbSpline
 62
253
  6
CONTINUOUS
 70
0
 71
3
 72
19
 73
15
 74
13
 42
0.0000001
 43
0.0000001
 44
0.0000000001
 12
-0.460393606
 22
-0.4632495855
 32
0.0
 13
-0.0011634786
 23
-0.65311645
 33
0.0
 40
0.0
 40
0.0
 40
0.0
 40
0.0
 40
0.0076052049
 40
0.024001133
 40
0.0492528561
 40
0.0831753078
 40
0.1254940605
 40
0.1758596969
 40
0.2338401717
 40
0.2989623133
 40
0.4483413301
 40
0.6189068371
 40
0.8049257256
 40
1.0
 40
1.0
 40
1.0
 40
1.0
 10
10.9492997681
 20
20.8995739081
 30
0.0
 10
10.9481326388
 20
20.8983995388
 30
0.0
 10
10.9473296067
 20
20.8927773996
 30
0.0
 10
10.9454891255
 20
20.8825674013
 30
0.0
 10
10.944129865
 20
20.8659741044
 30
0.0
 10
10.9425224028
 20
20.8440182689
 30
0.0
 10
10.9410594635
 20
20.8164620922
 30
0.0
 10
10.9396208736
 20
20.7837035828
 30
0.0
 10
10.9382732481
 20
20.7459586504
 30
0.0
 10
10.9365145094
 20
20.686665091
 30
0.0
 10
10.9346709125
 20
20.6028520991
 30
0.0
 10
10.9330190101
 20
20.4927130052
 30
0.0
 10
10.9319117446
 20
20.3726181136
 30
0.0
 10
10.9315671236
 20
20.2896522674
 30
0.0
 10
10.9314914687
 20
20.2471835282
 30
0.0
 11
10.9492997681
 21
20.8995739081
 31
0.0
 11
10.9476143052
 21
20.8949015189
 31
0.0
 11
10.9459451507
 21
20.884323939
 31
0.0
 11
10.9443089759
 21
20.8679129587
 31
0.0
 11
10.9427200324
 21
20.845814664
 31
0.0
 11
10.9411912192
 21
20.8182178609
 31
0.0
 11
10.9397352469
 21
20.7853554207
 31
0.0
 11
10.9383646182
 21
20.7475121717
 31
0.0
 11
10.9370913013
 21
20.7049988266
 31
0.0
 11
10.9348785582
 21
20.6074618747
 31
0.0
 11
10.9331720758
 21
20.4960756308
 31
0.0
 11
10.9320300593
 21
20.3745888095
 31
0.0
 11
10.9314914687
 21
20.2471835282
 31
0.0
  0
SPLINE
  5
2AE
100
AcDbEntity
  8
ASSI
100
AcDbSpline
 62
253
  6
CONTINUOUS
 70
0
 71
3
 72
21
 73
17
 74
15
 42
0.0000001
 43
0.0000001
 44
0.0000000001
 12
0.5897054987
 22
1.2679115039
 32
0.0
 13
0.0011676995
 23
1.3983385832
 33
0.0
 40
0.0
 40
0.0
 40
0.0
 40
0.0
 40
0.0025147569
 40
0.0072717342
 40
0.0142801423
 40
0.0235326282
 40
0.0487139087
 40
0.0826012228
 40
0.1249118519
 40
0.1752912638
 40
0.2333003953
 40
0.2984610929
 40
0.4479404485
 40
0.6186284544
 40
0.8047836279
 40
1.0
 40
1.0
 40
1.0
 40
1.0
 10
-10.1495739081
 20
-21.6992997681
 30
0.0
 10
-10.1490795861
 20
-21.6982369384
 30
0.0
 10
-10.1485589266
 20
-21.6948257704
 30
0.0
 10
-10.147709235
 20
-21.6882658214
 30
0.0
 10
-10.1469492783
 20
-21.678475256
 30
0.0
 10
-10.1457242802
 20
-21.6592093679
 30
0.0
 10
-10.1443576135
 20
-21.6273821462
 30
0.0
 10
-10.1428134974
 20
-21.5801574202
 30
0.0
 10
-10.1413273014
 20
-21.5211746322
 30
0.0
 10
-10.139896148
 20
-21.4509468099
 30
0.0
 10
-10.1385453265
 20
-21.3700641745
 30
0.0
 10
-10.1367878171
 20
-21.2429909462
 30
0.0
 10
-10.1349440145
 20
-21.0633933999
 30
0.0
 10
-10.1332922481
 20
-20.8273953795
 30
0.0
 10
-10.1321857886
 20
-20.5700753317
 30
0.0
 10
-10.1318415934
 20
-20.3923132442
 30
0.0
 10
-10.1317656087
 20
-20.3013203825
 30
0.0
 11
-10.1495739081
 21
-21.6992997681
 31
0.0
 11
-10.1487299926
 21
-21.695886052
 31
0.0
 11
-10.1478880972
 21
-21.6892876772
 31
0.0
 11
-10.1470503501
 21
-21.6795234185
 31
0.0
 11
-10.1462188799
 21
-21.666612051
 31
0.0
 11
-10.1445829978
 21
-21.6314381032
 31
0.0
 11
-10.1429943854
 21
-21.5840787844
 31
0.0
 11
-10.1414653927
 21
-21.5249339389
 31
0.0
 11
-10.140008724
 21
-21.4545015004
 31
0.0
 11
-10.1386375308
 21
-21.3733966556
 31
0.0
 11
-10.1373641968
 21
-21.282288804
 31
0.0
 11
-10.1351517684
 21
-21.0732776899
 31
0.0
 11
-10.1334454189
 21
-20.8346040819
 31
0.0
 11
-10.1323040584
 21
-20.5742985318
 31
0.0
 11
-10.1317656087
 21
-20.3013203825
 31
0.0
  0
SPLINE
  5
2AF
100
AcDbEntity
  8
ASSI
100
AcDbSpline
 62
253
  6
CONTINUOUS
 70
0
 71
3
 72
19
 73
15
 74
13
 42
0.0000001
 43
0.0000001
 44
0.0000000001
 12
0.4600430955
 22
0.4635976136
 32
0.0
 13
0.0011627931
 23
0.65311641
 33
0.0
 40
0.0
 40
0.0
 40
0.0
 40
0.0
 40
0.0076066416
 40
0.0240011545
 40
0.0492511788
 40
0.0831728774
 40
0.125491998
 40
0.1758588756
 40
0.2338403128
 40
0.298962615
 40
0.4483420604
 40
0.6189083989
 40
0.8049260697
 40
1.0
 40
1.0
 40
1.0
 40
1.0
 10
-10.9492997681
 20
-20.8995739081
 30
0.0
 10
-10.9481333071
 20
-20.8983984345
 30
0.0
 10
-10.9473291467
 20
-20.8927778175
 30
0.0
 10
-10.9454893931
 20
-20.8825669656
 30
0.0
 10
-10.944129684
 20
-20.8659751461
 30
0.0
 10
-10.9425224007
 20
-20.8440195082
 30
0.0
 10
-10.9410594111
 20
-20.8164632406
 30
0.0
 10
-10.9396208761
 20
-20.7837041387
 30
0.0
 10
-10.9382732525
 20
-20.7459587042
 30
0.0
 10
-10.9365144977
 20
-20.6866648068
 30
0.0
 10
-10.9346709212
 20
-20.6028515127
 30
0.0
 10
-10.933019078
 20
-20.4927124149
 30
0.0
 10
-10.9319117374
 20
-20.3726176911
 30
0.0
 10
-10.9315670789
 20
-20.2896521899
 30
0.0
 10
-10.9314914687
 20
-20.2471835282
 30
0.0
 11
-10.9492997681
 21
-20.8995739081
 31
0.0
 11
-10.9476143049
 21
-20.8949005218
 31
0.0
 11
-10.9459451446
 21
-20.8843238793
 31
0.0
 11
-10.9443089586
 21
-20.8679140162
 31
0.0
 11
-10.9427200069
 21
-20.8458162166
 31
0.0
 11
-10.9411911958
 21
-20.8182191744
 31
0.0
 11
-10.9397352343
 21
-20.7853559244
 31
0.0
 11
-10.9383646126
 21
-20.7475120486
 31
0.0
 11
-10.9370912951
 21
-20.7049986012
 31
0.0
 11
-10.9348785708
 21
-20.6074613752
 31
0.0
 11
-10.9331721154
 21
-20.4960745947
 31
0.0
 11
-10.9320300576
 21
-20.3745885767
 31
0.0
 11
-10.9314914687
 21
-20.2471835282
 31
0.0
  0
SPLINE
  5
2B0
100
AcDbEntity
  8
ASSI
100
AcDbSpline
 62
253
  6
CONTINUOUS
 70
0
 71
3
 72
18
 73
14
 74
12
 42
0.0000001
 43
0.0000001
 44
0.0000000001
 12
0.2897621571
 22
-0.7510526543
 32
0.0
 13
0.8050094233
 23
-0.0014232361
 33
0.0
 40
0.0
 40
0.0
 40
0.0
 40
0.0
 40
0.0096362442
 40
0.0271751653
 40
0.0532805927
 40
0.08798068
 40
0.1310173199
 40
0.1820170861
 40
0.3061599051
 40
0.4558287579
 40
0.6256097157
 40
0.8094565765
 40
1.0
 40
1.0
 40
1.0
 40
1.0
 10
-10.9314914687
 20
-20.2471835282
 30
0.0
 10
-10.9305607291
 20
-20.2495959704
 30
0.0
 10
-10.9237470969
 20
-20.2538855539
 30
0.0
 10
-10.9106191157
 20
-20.2584677009
 30
0.0
 10
-10.8899453714
 20
-20.2633799253
 30
0.0
 10
-10.8625601385
 20
-20.268109945
 30
0.0
 10
-10.828292474
 20
-20.2727504924
 30
0.0
 10
-10.7700972849
 20
-20.2790645801
 30
0.0
 10
-10.6831788372
 20
-20.2858602455
 30
0.0
 10
-10.5643211197
 20
-20.2923504874
 30
0.0
 10
-10.4293495644
 20
-20.2972632549
 30
0.0
 10
-10.283358176
 20
-20.3004014378
 30
0.0
 10
-10.1828953592
 20
-20.3012299838
 30
0.0
 10
-10.1317656087
 20
-20.3013203798
 30
0.0
 11
-10.9314914687
 21
-20.2471835282
 31
0.0
 11
-10.9257433547
 21
-20.2523926137
 31
0.0
 11
-10.9126065766
 21
-20.2575667563
 31
0.0
 11
-10.8922151799
 21
-20.262648821
 31
0.0
 11
-10.8647204752
 21
-20.2675830149
 31
0.0
 11
-10.8304013697
 21
-20.2723234672
 31
0.0
 11
-10.7895939599
 21
-20.2768287538
 31
0.0
 11
-10.6899900003
 21
-20.2849721168
 31
0.0
 11
-10.5696937892
 21
-20.291714733
 31
0.0
 11
-10.4331129545
 21
-20.2968003665
 31
0.0
 11
-10.2851497725
 21
-20.3000419806
 31
0.0
 11
-10.1317656087
 21
-20.3013203798
 31
0.0
  0
SPLINE
  5
2B1
100
AcDbEntity
  8
ASSI
100
AcDbSpline
 62
253
  6
CONTINUOUS
 70
0
 71
3
 72
18
 73
14
 74
12
 42
0.0000001
 43
0.0000001
 44
0.0000000001
 12
0.2898353702
 22
0.7510240864
 32
0.0
 13
0.8050091272
 23
0.0014231506
 33
0.0
 40
0.0
 40
0.0
 40
0.0
 40
0.0
 40
0.0096367304
 40
0.0271762393
 40
0.0532822307
 40
0.087982825
 40
0.1310198939
 40
0.1820199951
 40
0.3061631455
 40
0.4558318292
 40
0.6256121162
 40
0.8094578921
 40
1.0
 40
1.0
 40
1.0
 40
1.0
 10
-10.9314914687
 20
20.2471835282
 30
0.0
 10
-10.9305604469
 20
20.2495960004
 30
0.0
 10
-10.9237465026
 20
20.2538854132
 30
0.0
 10
-10.9106180248
 20
20.2584676251
 30
0.0
 10
-10.8899438429
 20
20.2633797725
 30
0.0
 10
-10.8625581969
 20
20.2681097688
 30
0.0
 10
-10.8282901981
 20
20.2727502613
 30
0.0
 10
-10.7700947247
 20
20.2790642686
 30
0.0
 10
-10.6831761695
 20
20.2858598356
 30
0.0
 10
-10.5643186265
 20
20.2923499731
 30
0.0
 10
-10.4293476348
 20
20.2972626482
 30
0.0
 10
-10.2833571231
 20
20.300400763
 30
0.0
 10
-10.1828949874
 20
20.3012292849
 30
0.0
 10
-10.1317656087
 20
20.3013196749
 30
0.0
 11
-10.9314914687
 21
20.2471835282
 31
0.0
 11
-10.9257427987
 21
20.2523925787
 31
0.0
 11
-10.9126055021
 21
20.2575666819
 31
0.0
 11
-10.8922136345
 21
20.2626487027
 31
0.0
 11
-10.8647185169
 21
20.2675828487
 31
0.0
 11
-10.8303990685
 21
20.2723232493
 31
0.0
 11
-10.7895913966
 21
20.2768284815
 31
0.0
 11
-10.689987197
 21
20.2849717308
 31
0.0
 11
-10.5696911603
 21
20.2917142353
 31
0.0
 11
-10.4331109127
 21
20.2967997712
 31
0.0
 11
-10.2851486573
 21
20.3000413133
 31
0.0
 11
-10.1317656087
 21
20.3013196749
 31
0.0
  0
SPLINE
  5
2B2
100
AcDbEntity
  8
ASSI
100
AcDbSpline
 62
253
  6
CONTINUOUS
 70
0
 71
3
 72
21
 73
17
 74
15
 42
0.0000001
 43
0.0000001
 44
0.0000000001
 12
-0.0011674394
 22
1.398338684
 32
0.0
 13
-0.5905357246
 23
1.2675251461
 33
0.0
 40
0.0
 40
0.0
 40
0.0
 40
0.0
 40
0.1952163702
 40
0.3813715349
 40
0.5520595287
 40
0.7015388774
 40
0.7666995702
 40
0.8247087204
 40
0.8750881195
 40
0.9173986432
 40
0.9512858909
 40
0.9764674226
 40
0.9857201324
 40
0.9927286756
 40
0.9974855784
 40
1.0
 40
1.0
 40
1.0
 40
1.0
 10
-10.1317656087
 20
20.3013203825
 30
0.0
 10
-10.1318415765
 20
20.3923132499
 30
0.0
 10
-10.1321859262
 20
20.5700753448
 30
0.0
 10
-10.1332920912
 20
20.8273954018
 30
0.0
 10
-10.1349442718
 20
21.063393424
 30
0.0
 10
-10.1367885815
 20
21.2429909667
 30
0.0
 10
-10.1385460831
 20
21.3700642069
 30
0.0
 10
-10.1398966752
 20
21.4509468529
 30
0.0
 10
-10.1413275674
 20
21.5211746371
 30
0.0
 10
-10.1428138411
 20
21.5801573485
 30
0.0
 10
-10.1443582657
 20
21.6273820881
 30
0.0
 10
-10.1457246819
 20
21.6592095465
 30
0.0
 10
-10.1469490185
 20
21.6784757053
 30
0.0
 10
-10.1477085004
 20
21.688266543
 30
0.0
 10
-10.1485582718
 20
21.6948261578
 30
0.0
 10
-10.1490789562
 20
21.6982374039
 30
0.0
 10
-10.1495739081
 20
21.6992997681
 30
0.0
 11
-10.1317656087
 21
20.3013203825
 31
0.0
 11
-10.1323041059
 21
20.5742985488
 31
0.0
 11
-10.133445385
 21
20.8346041057
 31
0.0
 11
-10.1351520884
 21
21.0732777114
 31
0.0
 11
-10.1373649322
 21
21.2822888263
 31
0.0
 11
-10.1386382424
 21
21.3733966781
 31
0.0
 11
-10.1400092288
 21
21.4545015586
 31
0.0
 11
-10.1414657103
 21
21.5249339879
 31
0.0
 11
-10.1429947901
 21
21.584078688
 31
0.0
 11
-10.1445835384
 21
21.6314379127
 31
0.0
 11
-10.1462189906
 21
21.6666122348
 31
0.0
 11
-10.1470500219
 21
21.6795239453
 31
0.0
 11
-10.1478874459
 21
21.6892884219
 31
0.0
 11
-10.1487293716
 21
21.6958866883
 31
0.0
 11
-10.1495739081
 21
21.6992997681
 31
0.0
  0
SPLINE
  5
2B3
100
AcDbEntity
  8
ASSI
100
AcDbSpline
 62
253
  6
CONTINUOUS
 70
0
 71
3
 72
19
 73
15
 74
13
 42
0.0000001
 43
0.0000001
 44
0.0000000001
 12
-0.0011634788
 22
0.65311645
 32
0.0
 13
-0.4603935768
 23
0.4632496145
 33
0.0
 40
0.0
 40
0.0
 40
0.0
 40
0.0
 40
0.1950742744
 40
0.3810931629
 40
0.5516586699
 40
0.7010376867
 40
0.7661598283
 40
0.8241403031
 40
0.8745059394
 40
0.9168246921
 40
0.9507471439
 40
0.9759988669
 40
0.992394795
 40
1.0
 40
1.0
 40
1.0
 40
1.0
 10
-10.9314914687
 20
20.2471835282
 30
0.0
 10
-10.9315671236
 20
20.2896522674
 30
0.0
 10
-10.9319117446
 20
20.3726181136
 30
0.0
 10
-10.9330190101
 20
20.4927130052
 30
0.0
 10
-10.9346709125
 20
20.6028520991
 30
0.0
 10
-10.9365145094
 20
20.686665091
 30
0.0
 10
-10.9382732481
 20
20.7459586504
 30
0.0
 10
-10.9396208736
 20
20.7837035827
 30
0.0
 10
-10.9410594635
 20
20.8164620922
 30
0.0
 10
-10.9425224028
 20
20.8440182688
 30
0.0
 10
-10.944129865
 20
20.8659741044
 30
0.0
 10
-10.9454891255
 20
20.8825674013
 30
0.0
 10
-10.9473296067
 20
20.8927773997
 30
0.0
 10
-10.9481326389
 20
20.8983995387
 30
0.0
 10
-10.9492997681
 20
20.8995739081
 30
0.0
 11
-10.9314914687
 21
20.2471835282
 31
0.0
 11
-10.9320300593
 21
20.3745888095
 31
0.0
 11
-10.9331720758
 21
20.4960756308
 31
0.0
 11
-10.9348785582
 21
20.6074618747
 31
0.0
 11
-10.9370913013
 21
20.7049988266
 31
0.0
 11
-10.9383646182
 21
20.7475121717
 31
0.0
 11
-10.9397352469
 21
20.7853554207
 31
0.0
 11
-10.9411912192
 21
20.8182178608
 31
0.0
 11
-10.9427200324
 21
20.8458146639
 31
0.0
 11
-10.9443089759
 21
20.8679129587
 31
0.0
 11
-10.9459451507
 21
20.884323939
 31
0.0
 11
-10.9476143052
 21
20.8949015188
 31
0.0
 11
-10.9492997681
 21
20.8995739081
 31
0.0
  0
SPLINE
  5
2B4
100
AcDbEntity
  8
ASSI
100
AcDbSpline
 62
253
  6
CONTINUOUS
 70
0
 71
3
 72
18
 73
14
 74
12
 42
0.0000001
 43
0.0000001
 44
0.0000000001
 12
-0.2898694587
 22
-0.7510107642
 32
0.0
 13
-0.8050089724
 23
-0.0014231708
 33
0.0
 40
0.0
 40
0.0
 40
0.0
 40
0.0
 40
0.0096369506
 40
0.0271767398
 40
0.0532830105
 40
0.0879838651
 40
0.1310211624
 40
0.1820214492
 40
0.3061648038
 40
0.4558334294
 40
0.6256133824
 40
0.8094585913
 40
1.0
 40
1.0
 40
1.0
 40
1.0
 10
10.9314914686
 20
-20.2471835282
 30
0.0
 10
10.9305603161
 20
-20.2495960127
 30
0.0
 10
10.9237462185
 20
-20.253885338
 30
0.0
 10
10.9106175051
 20
-20.2584675723
 30
0.0
 10
10.8899431037
 20
-20.2633796762
 30
0.0
 10
10.8625572465
 20
-20.2681096546
 30
0.0
 10
10.8282890694
 20
-20.2727501151
 30
0.0
 10
10.7700934346
 20
-20.279064076
 30
0.0
 10
10.6831748036
 20
-20.2858595882
 30
0.0
 10
10.5643173308
 20
-20.2923496701
 30
0.0
 10
10.4293466212
 20
-20.2972622994
 30
0.0
 10
10.2833565665
 20
-20.300400385
 30
0.0
 10
10.1828947899
 20
-20.3012289013
 30
0.0
 10
10.1317656087
 20
-20.3013192923
 30
0.0
 11
10.9314914686
 21
-20.2471835282
 31
0.0
 11
10.9257425389
 21
-20.2523925538
 31
0.0
 11
10.9126049922
 21
-20.2575666306
 31
0.0
 11
10.8922128901
 21
-20.2626486235
 31
0.0
 11
10.8647175599
 21
-20.26758274
 31
0.0
 11
10.8303979284
 21
-20.2723231101
 31
0.0
 11
10.7895901106
 21
-20.2768283109
 31
0.0
 11
10.6899857601
 21
-20.2849714968
 31
0.0
 11
10.5696897902
 21
-20.291713942
 31
0.0
 11
10.4331098361
 21
-20.2967994291
 31
0.0
 11
10.285148065
 21
-20.3000409399
 31
0.0
 11
10.1317656087
 21
-20.3013192923
 31
0.0
  0
SPLINE
  5
2B5
100
AcDbEntity
  8
ASSI
100
AcDbSpline
 62
253
  6
CONTINUOUS
 70
0
 71
3
 72
21
 73
17
 74
15
 42
0.0000001
 43
0.0000001
 44
0.0000000001
 12
0.0011676993
 22
-1.3983385832
 32
0.0
 13
0.5897053735
 23
-1.267911562
 33
0.0
 40
0.0
 40
0.0
 40
0.0
 40
0.0
 40
0.1952163721
 40
0.3813715456
 40
0.5520595515
 40
0.7015389071
 40
0.7666996047
 40
0.8247087362
 40
0.8750881481
 40
0.9173987772
 40
0.9512860913
 40
0.9764673718
 40
0.9857198577
 40
0.9927282658
 40
0.9974852431
 40
1.0
 40
1.0
 40
1.0
 40
1.0
 10
10.1317656087
 20
-20.3013203825
 30
0.0
 10
10.1318415934
 20
-20.3923132442
 30
0.0
 10
10.1321857886
 20
-20.5700753317
 30
0.0
 10
10.1332922481
 20
-20.8273953795
 30
0.0
 10
10.1349440145
 20
-21.0633933999
 30
0.0
 10
10.1367878171
 20
-21.2429909462
 30
0.0
 10
10.1385453265
 20
-21.3700641745
 30
0.0
 10
10.139896148
 20
-21.4509468099
 30
0.0
 10
10.1413273015
 20
-21.5211746322
 30
0.0
 10
10.1428134974
 20
-21.5801574202
 30
0.0
 10
10.1443576134
 20
-21.6273821462
 30
0.0
 10
10.1457242801
 20
-21.6592093679
 30
0.0
 10
10.1469492783
 20
-21.6784752559
 30
0.0
 10
10.1477092351
 20
-21.6882658214
 30
0.0
 10
10.1485589267
 20
-21.6948257704
 30
0.0
 10
10.1490795862
 20
-21.6982369383
 30
0.0
 10
10.1495739081
 20
-21.6992997681
 30
0.0
 11
10.1317656087
 21
-20.3013203825
 31
0.0
 11
10.1323040584
 21
-20.5742985318
 31
0.0
 11
10.1334454189
 21
-20.8346040819
 31
0.0
 11
10.1351517684
 21
-21.0732776899
 31
0.0
 11
10.1373641968
 21
-21.282288804
 31
0.0
 11
10.1386375308
 21
-21.3733966556
 31
0.0
 11
10.140008724
 21
-21.4545015004
 31
0.0
 11
10.1414653928
 21
-21.5249339389
 31
0.0
 11
10.1429943854
 21
-21.5840787844
 31
0.0
 11
10.1445829977
 21
-21.6314381032
 31
0.0
 11
10.1462188798
 21
-21.666612051
 31
0.0
 11
10.1470503502
 21
-21.6795234185
 31
0.0
 11
10.1478880973
 21
-21.6892876771
 31
0.0
 11
10.1487299927
 21
-21.6958860519
 31
0.0
 11
10.1495739081
 21
-21.6992997681
 31
0.0
  0
SPLINE
  5
2B6
100
AcDbEntity
  8
ASSI
100
AcDbSpline
 62
253
  6
CONTINUOUS
 70
0
 71
3
 72
19
 73
15
 74
13
 42
0.0000001
 43
0.0000001
 44
0.0000000001
 12
0.001162793
 22
-0.65311641
 32
0.0
 13
0.4600431878
 23
-0.4635975221
 33
0.0
 40
0.0
 40
0.0
 40
0.0
 40
0.0
 40
0.1950739303
 40
0.3810916012
 40
0.5516579396
 40
0.701037385
 40
0.7661596872
 40
0.8241411244
 40
0.874508002
 40
0.9168271225
 40
0.9507488211
 40
0.9759988456
 40
0.9923933588
 40
1.0
 40
1.0
 40
1.0
 40
1.0
 10
10.9314914687
 20
-20.2471835282
 30
0.0
 10
10.9315670789
 20
-20.2896521899
 30
0.0
 10
10.9319117374
 20
-20.3726176911
 30
0.0
 10
10.933019078
 20
-20.4927124149
 30
0.0
 10
10.9346709212
 20
-20.6028515127
 30
0.0
 10
10.9365144977
 20
-20.6866648068
 30
0.0
 10
10.9382732525
 20
-20.7459587042
 30
0.0
 10
10.9396208761
 20
-20.7837041387
 30
0.0
 10
10.9410594111
 20
-20.8164632405
 30
0.0
 10
10.9425224007
 20
-20.8440195082
 30
0.0
 10
10.9441296841
 20
-20.865975146
 30
0.0
 10
10.9454893931
 20
-20.8825669657
 30
0.0
 10
10.9473291468
 20
-20.8927778174
 30
0.0
 10
10.9481333069
 20
-20.8983984348
 30
0.0
 10
10.9492997681
 20
-20.8995739081
 30
0.0
 11
10.9314914687
 21
-20.2471835282
 31
0.0
 11
10.9320300576
 21
-20.3745885768
 31
0.0
 11
10.9331721154
 21
-20.4960745947
 31
0.0
 11
10.9348785708
 21
-20.6074613751
 31
0.0
 11
10.9370912951
 21
-20.7049986012
 31
0.0
 11
10.9383646126
 21
-20.7475120486
 31
0.0
 11
10.9397352343
 21
-20.7853559244
 31
0.0
 11
10.9411911958
 21
-20.8182191744
 31
0.0
 11
10.9427200069
 21
-20.8458162165
 31
0.0
 11
10.9443089586
 21
-20.8679140161
 31
0.0
 11
10.9459451446
 21
-20.8843238794
 31
0.0
 11
10.9476143049
 21
-20.8949005221
 31
0.0
 11
10.9492997681
 21
-20.8995739081
 31
0.0
  0
SPLINE
  5
2B7
100
AcDbEntity
  8
ASSI
100
AcDbSpline
 62
253
  6
CONTINUOUS
 70
0
 71
3
 72
18
 73
14
 74
12
 42
0.0000001
 43
0.0000001
 44
0.0000000001
 12
-0.2897620094
 22
0.7510527119
 32
0.0
 13
-0.8050094239
 23
0.0014232348
 33
0.0
 40
0.0
 40
0.0
 40
0.0
 40
0.0
 40
0.0096362433
 40
0.0271751633
 40
0.0532805897
 40
0.0879806763
 40
0.1310173156
 40
0.1820170815
 40
0.3061599003
 40
0.4558287536
 40
0.6256097125
 40
0.8094565748
 40
1.0
 40
1.0
 40
1.0
 40
1.0
 10
10.9314914687
 20
20.2471835282
 30
0.0
 10
10.9305607296
 20
20.2495959704
 30
0.0
 10
10.923747098
 20
20.2538855542
 30
0.0
 10
10.9106191178
 20
20.258467701
 30
0.0
 10
10.8899453741
 20
20.2633799256
 30
0.0
 10
10.8625601418
 20
20.2681099453
 30
0.0
 10
10.8282924778
 20
20.2727504928
 30
0.0
 10
10.7700972889
 20
20.2790645806
 30
0.0
 10
10.6831788412
 20
20.2858602462
 30
0.0
 10
10.5643211232
 20
20.2923504882
 30
0.0
 10
10.429349567
 20
20.2972632559
 30
0.0
 10
10.2833581774
 20
20.3004014389
 30
0.0
 10
10.1828953597
 20
20.3012299847
 30
0.0
 10
10.1317656087
 20
20.3013203807
 30
0.0
 11
10.9314914687
 21
20.2471835282
 31
0.0
 11
10.9257433558
 21
20.2523926137
 31
0.0
 11
10.9126065786
 21
20.2575667565
 31
0.0
 11
10.8922151827
 21
20.2626488212
 31
0.0
 11
10.8647204786
 21
20.2675830152
 31
0.0
 11
10.8304013735
 21
20.2723234676
 31
0.0
 11
10.789593964
 21
20.2768287542
 31
0.0
 11
10.6899900045
 21
20.2849721175
 31
0.0
 11
10.5696937929
 21
20.2917147338
 31
0.0
 11
10.4331129572
 21
20.2968003674
 31
0.0
 11
10.285149774
 21
20.3000419816
 31
0.0
 11
10.1317656087
 21
20.3013203807
 31
0.0
  0
SPLINE
  5
2B8
100
AcDbEntity
  8
RACCORDO
100
AcDbSpline
 62
253
  6
CONTINUOUS
 70
0
 71
3
 72
21
 73
17
 74
15
 42
0.0000001
 43
0.0000001
 44
0.0000000001
 12
-0.5905358478
 22
-1.2675250888
 32
0.0
 13
-0.0011674394
 23
-1.398338684
 33
0.0
 40
0.0
 40
0.0
 40
0.0
 40
0.0
 40
0.0025144215
 40
0.0072713242
 40
0.0142798675
 40
0.0235325773
 40
0.0487141092
 40
0.0826013569
 40
0.1249118805
 40
0.1752912796
 40
0.2333004298
 40
0.2984611226
 40
0.4479404713
 40
0.6186284651
 40
0.8047836298
 40
1.0
 40
1.0
 40
1.0
 40
1.0
 10
10.1495739081
 20
21.6992997681
 30
0.0
 10
10.1490789561
 20
21.698237404
 30
0.0
 10
10.1485582717
 20
21.6948261579
 30
0.0
 10
10.1477085003
 20
21.6882665432
 30
0.0
 10
10.1469490186
 20
21.6784757055
 30
0.0
 10
10.145724682
 20
21.6592095465
 30
0.0
 10
10.1443582658
 20
21.6273820881
 30
0.0
 10
10.142813841
 20
21.5801573485
 30
0.0
 10
10.1413275673
 20
21.5211746371
 30
0.0
 10
10.1398966752
 20
21.4509468529
 30
0.0
 10
10.1385460831
 20
21.3700642069
 30
0.0
 10
10.1367885816
 20
21.2429909667
 30
0.0
 10
10.1349442718
 20
21.063393424
 30
0.0
 10
10.1332920912
 20
20.8273954018
 30
0.0
 10
10.1321859262
 20
20.5700753448
 30
0.0
 10
10.1318415765
 20
20.3923132499
 30
0.0
 10
10.1317656087
 20
20.3013203825
 30
0.0
 11
10.1495739081
 21
21.6992997681
 31
0.0
 11
10.1487293715
 21
21.6958866884
 31
0.0
 11
10.1478874458
 21
21.6892884221
 31
0.0
 11
10.1470500219
 21
21.6795239455
 31
0.0
 11
10.1462189907
 21
21.6666122349
 31
0.0
 11
10.1445835384
 21
21.6314379127
 31
0.0
 11
10.1429947901
 21
21.584078688
 31
0.0
 11
10.1414657103
 21
21.5249339879
 31
0.0
 11
10.1400092288
 21
21.4545015586
 31
0.0
 11
10.1386382425
 21
21.3733966781
 31
0.0
 11
10.1373649322
 21
21.2822888263
 31
0.0
 11
10.1351520884
 21
21.0732777114
 31
0.0
 11
10.133445385
 21
20.8346041057
 31
0.0
 11
10.1323041059
 21
20.5742985488
 31
0.0
 11
10.1317656087
 21
20.3013203825
 31
0.0
  0
SPLINE
  5
2B9
100
AcDbEntity
  8
RACCORDO
100
AcDbSpline
 62
253
  6
CONTINUOUS
 70
0
 71
3
 72
19
 73
15
 74
13
 42
0.0000001
 43
0.0000001
 44
0.0000000001
 12
-0.460393606
 22
-0.4632495855
 32
0.0
 13
-0.0011634786
 23
-0.65311645
 33
0.0
 40
0.0
 40
0.0
 40
0.0
 40
0.0
 40
0.0076052049
 40
0.024001133
 40
0.0492528561
 40
0.0831753078
 40
0.1254940605
 40
0.1758596969
 40
0.2338401717
 40
0.2989623133
 40
0.4483413301
 40
0.6189068371
 40
0.8049257256
 40
1.0
 40
1.0
 40
1.0
 40
1.0
 10
10.9492997681
 20
20.8995739081
 30
0.0
 10
10.9481326388
 20
20.8983995388
 30
0.0
 10
10.9473296067
 20
20.8927773996
 30
0.0
 10
10.9454891255
 20
20.8825674013
 30
0.0
 10
10.944129865
 20
20.8659741044
 30
0.0
 10
10.9425224028
 20
20.8440182689
 30
0.0
 10
10.9410594635
 20
20.8164620922
 30
0.0
 10
10.9396208736
 20
20.7837035828
 30
0.0
 10
10.9382732481
 20
20.7459586504
 30
0.0
 10
10.9365145094
 20
20.686665091
 30
0.0
 10
10.9346709125
 20
20.6028520991
 30
0.0
 10
10.9330190101
 20
20.4927130052
 30
0.0
 10
10.9319117446
 20
20.3726181136
 30
0.0
 10
10.9315671236
 20
20.2896522674
 30
0.0
 10
10.9314914687
 20
20.2471835282
 30
0.0
 11
10.9492997681
 21
20.8995739081
 31
0.0
 11
10.9476143052
 21
20.8949015189
 31
0.0
 11
10.9459451507
 21
20.884323939
 31
0.0
 11
10.9443089759
 21
20.8679129587
 31
0.0
 11
10.9427200324
 21
20.845814664
 31
0.0
 11
10.9411912192
 21
20.8182178609
 31
0.0
 11
10.9397352469
 21
20.7853554207
 31
0.0
 11
10.9383646182
 21
20.7475121717
 31
0.0
 11
10.9370913013
 21
20.7049988266
 31
0.0
 11
10.9348785582
 21
20.6074618747
 31
0.0
 11
10.9331720758
 21
20.4960756308
 31
0.0
 11
10.9320300593
 21
20.3745888095
 31
0.0
 11
10.9314914687
 21
20.2471835282
 31
0.0
  0
SPLINE
  5
2BA
100
AcDbEntity
  8
RACCORDO
100
AcDbSpline
 62
253
  6
CONTINUOUS
 70
0
 71
3
 72
21
 73
17
 74
15
 42
0.0000001
 43
0.0000001
 44
0.0000000001
 12
0.5897054987
 22
1.2679115039
 32
0.0
 13
0.0011676995
 23
1.3983385832
 33
0.0
 40
0.0
 40
0.0
 40
0.0
 40
0.0
 40
0.0025147569
 40
0.0072717342
 40
0.0142801423
 40
0.0235326282
 40
0.0487139087
 40
0.0826012228
 40
0.1249118519
 40
0.1752912638
 40
0.2333003953
 40
0.2984610929
 40
0.4479404485
 40
0.6186284544
 40
0.8047836279
 40
1.0
 40
1.0
 40
1.0
 40
1.0
 10
-10.1495739081
 20
-21.6992997681
 30
0.0
 10
-10.1490795861
 20
-21.6982369384
 30
0.0
 10
-10.1485589266
 20
-21.6948257704
 30
0.0
 10
-10.147709235
 20
-21.6882658214
 30
0.0
 10
-10.1469492783
 20
-21.678475256
 30
0.0
 10
-10.1457242802
 20
-21.6592093679
 30
0.0
 10
-10.1443576135
 20
-21.6273821462
 30
0.0
 10
-10.1428134974
 20
-21.5801574202
 30
0.0
 10
-10.1413273014
 20
-21.5211746322
 30
0.0
 10
-10.139896148
 20
-21.4509468099
 30
0.0
 10
-10.1385453265
 20
-21.3700641745
 30
0.0
 10
-10.1367878171
 20
-21.2429909462
 30
0.0
 10
-10.1349440145
 20
-21.0633933999
 30
0.0
 10
-10.1332922481
 20
-20.8273953795
 30
0.0
 10
-10.1321857886
 20
-20.5700753317
 30
0.0
 10
-10.1318415934
 20
-20.3923132442
 30
0.0
 10
-10.1317656087
 20
-20.3013203825
 30
0.0
 11
-10.1495739081
 21
-21.6992997681
 31
0.0
 11
-10.1487299926
 21
-21.695886052
 31
0.0
 11
-10.1478880972
 21
-21.6892876772
 31
0.0
 11
-10.1470503501
 21
-21.6795234185
 31
0.0
 11
-10.1462188799
 21
-21.666612051
 31
0.0
 11
-10.1445829978
 21
-21.6314381032
 31
0.0
 11
-10.1429943854
 21
-21.5840787844
 31
0.0
 11
-10.1414653927
 21
-21.5249339389
 31
0.0
 11
-10.140008724
 21
-21.4545015004
 31
0.0
 11
-10.1386375308
 21
-21.3733966556
 31
0.0
 11
-10.1373641968
 21
-21.282288804
 31
0.0
 11
-10.1351517684
 21
-21.0732776899
 31
0.0
 11
-10.1334454189
 21
-20.8346040819
 31
0.0
 11
-10.1323040584
 21
-20.5742985318
 31
0.0
 11
-10.1317656087
 21
-20.3013203825
 31
0.0
  0
SPLINE
  5
2BB
100
AcDbEntity
  8
RACCORDO
100
AcDbSpline
 62
253
  6
CONTINUOUS
 70
0
 71
3
 72
19
 73
15
 74
13
 42
0.0000001
 43
0.0000001
 44
0.0000000001
 12
0.4600430955
 22
0.4635976136
 32
0.0
 13
0.0011627931
 23
0.65311641
 33
0.0
 40
0.0
 40
0.0
 40
0.0
 40
0.0
 40
0.0076066416
 40
0.0240011545
 40
0.0492511788
 40
0.0831728774
 40
0.125491998
 40
0.1758588756
 40
0.2338403128
 40
0.298962615
 40
0.4483420604
 40
0.6189083989
 40
0.8049260697
 40
1.0
 40
1.0
 40
1.0
 40
1.0
 10
-10.9492997681
 20
-20.8995739081
 30
0.0
 10
-10.9481333071
 20
-20.8983984345
 30
0.0
 10
-10.9473291467
 20
-20.8927778175
 30
0.0
 10
-10.9454893931
 20
-20.8825669656
 30
0.0
 10
-10.944129684
 20
-20.8659751461
 30
0.0
 10
-10.9425224007
 20
-20.8440195082
 30
0.0
 10
-10.9410594111
 20
-20.8164632406
 30
0.0
 10
-10.9396208761
 20
-20.7837041387
 30
0.0
 10
-10.9382732525
 20
-20.7459587042
 30
0.0
 10
-10.9365144977
 20
-20.6866648068
 30
0.0
 10
-10.9346709212
 20
-20.6028515127
 30
0.0
 10
-10.933019078
 20
-20.4927124149
 30
0.0
 10
-10.9319117374
 20
-20.3726176911
 30
0.0
 10
-10.9315670789
 20
-20.2896521899
 30
0.0
 10
-10.9314914687
 20
-20.2471835282
 30
0.0
 11
-10.9492997681
 21
-20.8995739081
 31
0.0
 11
-10.9476143049
 21
-20.8949005218
 31
0.0
 11
-10.9459451446
 21
-20.8843238793
 31
0.0
 11
-10.9443089586
 21
-20.8679140162
 31
0.0
 11
-10.9427200069
 21
-20.8458162166
 31
0.0
 11
-10.9411911958
 21
-20.8182191744
 31
0.0
 11
-10.9397352343
 21
-20.7853559244
 31
0.0
 11
-10.9383646126
 21
-20.7475120486
 31
0.0
 11
-10.9370912951
 21
-20.7049986012
 31
0.0
 11
-10.9348785708
 21
-20.6074613752
 31
0.0
 11
-10.9331721154
 21
-20.4960745947
 31
0.0
 11
-10.9320300576
 21
-20.3745885767
 31
0.0
 11
-10.9314914687
 21
-20.2471835282
 31
0.0
  0
SPLINE
  5
2BC
100
AcDbEntity
  8
RACCORDO
100
AcDbSpline
 62
253
  6
CONTINUOUS
 70
0
 71
3
 72
18
 73
14
 74
12
 42
0.0000001
 43
0.0000001
 44
0.0000000001
 12
0.2897621571
 22
-0.7510526543
 32
0.0
 13
0.8050094233
 23
-0.0014232361
 33
0.0
 40
0.0
 40
0.0
 40
0.0
 40
0.0
 40
0.0096362442
 40
0.0271751653
 40
0.0532805927
 40
0.08798068
 40
0.1310173199
 40
0.1820170861
 40
0.3061599051
 40
0.4558287579
 40
0.6256097157
 40
0.8094565765
 40
1.0
 40
1.0
 40
1.0
 40
1.0
 10
-10.9314914687
 20
-20.2471835282
 30
0.0
 10
-10.9305607291
 20
-20.2495959704
 30
0.0
 10
-10.9237470969
 20
-20.2538855539
 30
0.0
 10
-10.9106191157
 20
-20.2584677009
 30
0.0
 10
-10.8899453714
 20
-20.2633799253
 30
0.0
 10
-10.8625601385
 20
-20.268109945
 30
0.0
 10
-10.828292474
 20
-20.2727504924
 30
0.0
 10
-10.7700972849
 20
-20.2790645801
 30
0.0
 10
-10.6831788372
 20
-20.2858602455
 30
0.0
 10
-10.5643211197
 20
-20.2923504874
 30
0.0
 10
-10.4293495644
 20
-20.2972632549
 30
0.0
 10
-10.283358176
 20
-20.3004014378
 30
0.0
 10
-10.1828953592
 20
-20.3012299838
 30
0.0
 10
-10.1317656087
 20
-20.3013203798
 30
0.0
 11
-10.9314914687
 21
-20.2471835282
 31
0.0
 11
-10.9257433547
 21
-20.2523926137
 31
0.0
 11
-10.9126065766
 21
-20.2575667563
 31
0.0
 11
-10.8922151799
 21
-20.262648821
 31
0.0
 11
-10.8647204752
 21
-20.2675830149
 31
0.0
 11
-10.8304013697
 21
-20.2723234672
 31
0.0
 11
-10.7895939599
 21
-20.2768287538
 31
0.0
 11
-10.6899900003
 21
-20.2849721168
 31
0.0
 11
-10.5696937892
 21
-20.291714733
 31
0.0
 11
-10.4331129545
 21
-20.2968003665
 31
0.0
 11
-10.2851497725
 21
-20.3000419806
 31
0.0
 11
-10.1317656087
 21
-20.3013203798
 31
0.0
  0
SPLINE
  5
2BD
100
AcDbEntity
  8
RACCORDO
100
AcDbSpline
 62
253
  6
CONTINUOUS
 70
0
 71
3
 72
18
 73
14
 74
12
 42
0.0000001
 43
0.0000001
 44
0.0000000001
 12
0.2898353702
 22
0.7510240864
 32
0.0
 13
0.8050091272
 23
0.0014231506
 33
0.0
 40
0.0
 40
0.0
 40
0.0
 40
0.0
 40
0.0096367304
 40
0.0271762393
 40
0.0532822307
 40
0.087982825
 40
0.1310198939
 40
0.1820199951
 40
0.3061631455
 40
0.4558318292
 40
0.6256121162
 40
0.8094578921
 40
1.0
 40
1.0
 40
1.0
 40
1.0
 10
-10.9314914687
 20
20.2471835282
 30
0.0
 10
-10.9305604469
 20
20.2495960004
 30
0.0
 10
-10.9237465026
 20
20.2538854132
 30
0.0
 10
-10.9106180248
 20
20.2584676251
 30
0.0
 10
-10.8899438429
 20
20.2633797725
 30
0.0
 10
-10.8625581969
 20
20.2681097688
 30
0.0
 10
-10.8282901981
 20
20.2727502613
 30
0.0
 10
-10.7700947247
 20
20.2790642686
 30
0.0
 10
-10.6831761695
 20
20.2858598356
 30
0.0
 10
-10.5643186265
 20
20.2923499731
 30
0.0
 10
-10.4293476348
 20
20.2972626482
 30
0.0
 10
-10.2833571231
 20
20.300400763
 30
0.0
 10
-10.1828949874
 20
20.3012292849
 30
0.0
 10
-10.1317656087
 20
20.3013196749
 30
0.0
 11
-10.9314914687
 21
20.2471835282
 31
0.0
 11
-10.9257427987
 21
20.2523925787
 31
0.0
 11
-10.9126055021
 21
20.2575666819
 31
0.0
 11
-10.8922136345
 21
20.2626487027
 31
0.0
 11
-10.8647185169
 21
20.2675828487
 31
0.0
 11
-10.8303990685
 21
20.2723232493
 31
0.0
 11
-10.7895913966
 21
20.2768284815
 31
0.0
 11
-10.689987197
 21
20.2849717308
 31
0.0
 11
-10.5696911603
 21
20.2917142353
 31
0.0
 11
-10.4331109127
 21
20.2967997712
 31
0.0
 11
-10.2851486573
 21
20.3000413133
 31
0.0
 11
-10.1317656087
 21
20.3013196749
 31
0.0
  0
SPLINE
  5
2BE
100
AcDbEntity
  8
RACCORDO
100
AcDbSpline
 62
253
  6
CONTINUOUS
 70
0
 71
3
 72
21
 73
17
 74
15
 42
0.0000001
 43
0.0000001
 44
0.0000000001
 12
-0.0011674394
 22
1.398338684
 32
0.0
 13
-0.5905357246
 23
1.2675251461
 33
0.0
 40
0.0
 40
0.0
 40
0.0
 40
0.0
 40
0.1952163702
 40
0.3813715349
 40
0.5520595287
 40
0.7015388774
 40
0.7666995702
 40
0.8247087204
 40
0.8750881195
 40
0.9173986432
 40
0.9512858909
 40
0.9764674226
 40
0.9857201324
 40
0.9927286756
 40
0.9974855784
 40
1.0
 40
1.0
 40
1.0
 40
1.0
 10
-10.1317656087
 20
20.3013203825
 30
0.0
 10
-10.1318415765
 20
20.3923132499
 30
0.0
 10
-10.1321859262
 20
20.5700753448
 30
0.0
 10
-10.1332920912
 20
20.8273954018
 30
0.0
 10
-10.1349442718
 20
21.063393424
 30
0.0
 10
-10.1367885815
 20
21.2429909667
 30
0.0
 10
-10.1385460831
 20
21.3700642069
 30
0.0
 10
-10.1398966752
 20
21.4509468529
 30
0.0
 10
-10.1413275674
 20
21.5211746371
 30
0.0
 10
-10.1428138411
 20
21.5801573485
 30
0.0
 10
-10.1443582657
 20
21.6273820881
 30
0.0
 10
-10.1457246819
 20
21.6592095465
 30
0.0
 10
-10.1469490185
 20
21.6784757053
 30
0.0
 10
-10.1477085004
 20
21.688266543
 30
0.0
 10
-10.1485582718
 20
21.6948261578
 30
0.0
 10
-10.1490789562
 20
21.6982374039
 30
0.0
 10
-10.1495739081
 20
21.6992997681
 30
0.0
 11
-10.1317656087
 21
20.3013203825
 31
0.0
 11
-10.1323041059
 21
20.5742985488
 31
0.0
 11
-10.133445385
 21
20.8346041057
 31
0.0
 11
-10.1351520884
 21
21.0732777114
 31
0.0
 11
-10.1373649322
 21
21.2822888263
 31
0.0
 11
-10.1386382424
 21
21.3733966781
 31
0.0
 11
-10.1400092288
 21
21.4545015586
 31
0.0
 11
-10.1414657103
 21
21.5249339879
 31
0.0
 11
-10.1429947901
 21
21.584078688
 31
0.0
 11
-10.1445835384
 21
21.6314379127
 31
0.0
 11
-10.1462189906
 21
21.6666122348
 31
0.0
 11
-10.1470500219
 21
21.6795239453
 31
0.0
 11
-10.1478874459
 21
21.6892884219
 31
0.0
 11
-10.1487293716
 21
21.6958866883
 31
0.0
 11
-10.1495739081
 21
21.6992997681
 31
0.0
  0
SPLINE
  5
2BF
100
AcDbEntity
  8
RACCORDO
100
AcDbSpline
 62
253
  6
CONTINUOUS
 70
0
 71
3
 72
19
 73
15
 74
13
 42
0.0000001
 43
0.0000001
 44
0.0000000001
 12
-0.0011634788
 22
0.65311645
 32
0.0
 13
-0.4603935768
 23
0.4632496145
 33
0.0
 40
0.0
 40
0.0
 40
0.0
 40
0.0
 40
0.1950742744
 40
0.3810931629
 40
0.5516586699
 40
0.7010376867
 40
0.7661598283
 40
0.8241403031
 40
0.8745059394
 40
0.9168246921
 40
0.9507471439
 40
0.9759988669
 40
0.992394795
 40
1.0
 40
1.0
 40
1.0
 40
1.0
 10
-10.9314914687
 20
20.2471835282
 30
0.0
 10
-10.9315671236
 20
20.2896522674
 30
0.0
 10
-10.9319117446
 20
20.3726181136
 30
0.0
 10
-10.9330190101
 20
20.4927130052
 30
0.0
 10
-10.9346709125
 20
20.6028520991
 30
0.0
 10
-10.9365145094
 20
20.686665091
 30
0.0
 10
-10.9382732481
 20
20.7459586504
 30
0.0
 10
-10.9396208736
 20
20.7837035827
 30
0.0
 10
-10.9410594635
 20
20.8164620922
 30
0.0
 10
-10.9425224028
 20
20.8440182688
 30
0.0
 10
-10.944129865
 20
20.8659741044
 30
0.0
 10
-10.9454891255
 20
20.8825674013
 30
0.0
 10
-10.9473296067
 20
20.8927773997
 30
0.0
 10
-10.9481326389
 20
20.8983995387
 30
0.0
 10
-10.9492997681
 20
20.8995739081
 30
0.0
 11
-10.9314914687
 21
20.2471835282
 31
0.0
 11
-10.9320300593
 21
20.3745888095
 31
0.0
 11
-10.9331720758
 21
20.4960756308
 31
0.0
 11
-10.9348785582
 21
20.6074618747
 31
0.0
 11
-10.9370913013
 21
20.7049988266
 31
0.0
 11
-10.9383646182
 21
20.7475121717
 31
0.0
 11
-10.9397352469
 21
20.7853554207
 31
0.0
 11
-10.9411912192
 21
20.8182178608
 31
0.0
 11
-10.9427200324
 21
20.8458146639
 31
0.0
 11
-10.9443089759
 21
20.8679129587
 31
0.0
 11
-10.9459451507
 21
20.884323939
 31
0.0
 11
-10.9476143052
 21
20.8949015188
 31
0.0
 11
-10.9492997681
 21
20.8995739081
 31
0.0
  0
SPLINE
  5
2C0
100
AcDbEntity
  8
RACCORDO
100
AcDbSpline
 62
253
  6
CONTINUOUS
 70
0
 71
3
 72
18
 73
14
 74
12
 42
0.0000001
 43
0.0000001
 44
0.0000000001
 12
-0.2898694587
 22
-0.7510107642
 32
0.0
 13
-0.8050089724
 23
-0.0014231708
 33
0.0
 40
0.0
 40
0.0
 40
0.0
 40
0.0
 40
0.0096369506
 40
0.0271767398
 40
0.0532830105
 40
0.0879838651
 40
0.1310211624
 40
0.1820214492
 40
0.3061648038
 40
0.4558334294
 40
0.6256133824
 40
0.8094585913
 40
1.0
 40
1.0
 40
1.0
 40
1.0
 10
10.9314914686
 20
-20.2471835282
 30
0.0
 10
10.9305603161
 20
-20.2495960127
 30
0.0
 10
10.9237462185
 20
-20.253885338
 30
0.0
 10
10.9106175051
 20
-20.2584675723
 30
0.0
 10
10.8899431037
 20
-20.2633796762
 30
0.0
 10
10.8625572465
 20
-20.2681096546
 30
0.0
 10
10.8282890694
 20
-20.2727501151
 30
0.0
 10
10.7700934346
 20
-20.279064076
 30
0.0
 10
10.6831748036
 20
-20.2858595882
 30
0.0
 10
10.5643173308
 20
-20.2923496701
 30
0.0
 10
10.4293466212
 20
-20.2972622994
 30
0.0
 10
10.2833565665
 20
-20.300400385
 30
0.0
 10
10.1828947899
 20
-20.3012289013
 30
0.0
 10
10.1317656087
 20
-20.3013192923
 30
0.0
 11
10.9314914686
 21
-20.2471835282
 31
0.0
 11
10.9257425389
 21
-20.2523925538
 31
0.0
 11
10.9126049922
 21
-20.2575666306
 31
0.0
 11
10.8922128901
 21
-20.2626486235
 31
0.0
 11
10.8647175599
 21
-20.26758274
 31
0.0
 11
10.8303979284
 21
-20.2723231101
 31
0.0
 11
10.7895901106
 21
-20.2768283109
 31
0.0
 11
10.6899857601
 21
-20.2849714968
 31
0.0
 11
10.5696897902
 21
-20.291713942
 31
0.0
 11
10.4331098361
 21
-20.2967994291
 31
0.0
 11
10.285148065
 21
-20.3000409399
 31
0.0
 11
10.1317656087
 21
-20.3013192923
 31
0.0
  0
SPLINE
  5
2C1
100
AcDbEntity
  8
RACCORDO
100
AcDbSpline
 62
253
  6
CONTINUOUS
 70
0
 71
3
 72
21
 73
17
 74
15
 42
0.0000001
 43
0.0000001
 44
0.0000000001
 12
0.0011676993
 22
-1.3983385832
 32
0.0
 13
0.5897053735
 23
-1.267911562
 33
0.0
 40
0.0
 40
0.0
 40
0.0
 40
0.0
 40
0.1952163721
 40
0.3813715456
 40
0.5520595515
 40
0.7015389071
 40
0.7666996047
 40
0.8247087362
 40
0.8750881481
 40
0.9173987772
 40
0.9512860913
 40
0.9764673718
 40
0.9857198577
 40
0.9927282658
 40
0.9974852431
 40
1.0
 40
1.0
 40
1.0
 40
1.0
 10
10.1317656087
 20
-20.3013203825
 30
0.0
 10
10.1318415934
 20
-20.3923132442
 30
0.0
 10
10.1321857886
 20
-20.5700753317
 30
0.0
 10
10.1332922481
 20
-20.8273953795
 30
0.0
 10
10.1349440145
 20
-21.0633933999
 30
0.0
 10
10.1367878171
 20
-21.2429909462
 30
0.0
 10
10.1385453265
 20
-21.3700641745
 30
0.0
 10
10.139896148
 20
-21.4509468099
 30
0.0
 10
10.1413273015
 20
-21.5211746322
 30
0.0
 10
10.1428134974
 20
-21.5801574202
 30
0.0
 10
10.1443576134
 20
-21.6273821462
 30
0.0
 10
10.1457242801
 20
-21.6592093679
 30
0.0
 10
10.1469492783
 20
-21.6784752559
 30
0.0
 10
10.1477092351
 20
-21.6882658214
 30
0.0
 10
10.1485589267
 20
-21.6948257704
 30
0.0
 10
10.1490795862
 20
-21.6982369383
 30
0.0
 10
10.1495739081
 20
-21.6992997681
 30
0.0
 11
10.1317656087
 21
-20.3013203825
 31
0.0
 11
10.1323040584
 21
-20.5742985318
 31
0.0
 11
10.1334454189
 21
-20.8346040819
 31
0.0
 11
10.1351517684
 21
-21.0732776899
 31
0.0
 11
10.1373641968
 21
-21.282288804
 31
0.0
 11
10.1386375308
 21
-21.3733966556
 31
0.0
 11
10.140008724
 21
-21.4545015004
 31
0.0
 11
10.1414653928
 21
-21.5249339389
 31
0.0
 11
10.1429943854
 21
-21.5840787844
 31
0.0
 11
10.1445829977
 21
-21.6314381032
 31
0.0
 11
10.1462188798
 21
-21.666612051
 31
0.0
 11
10.1470503502
 21
-21.6795234185
 31
0.0
 11
10.1478880973
 21
-21.6892876771
 31
0.0
 11
10.1487299927
 21
-21.6958860519
 31
0.0
 11
10.1495739081
 21
-21.6992997681
 31
0.0
  0
SPLINE
  5
2C2
100
AcDbEntity
  8
RACCORDO
100
AcDbSpline
 62
253
  6
CONTINUOUS
 70
0
 71
3
 72
19
 73
15
 74
13
 42
0.0000001
 43
0.0000001
 44
0.0000000001
 12
0.001162793
 22
-0.65311641
 32
0.0
 13
0.4600431878
 23
-0.4635975221
 33
0.0
 40
0.0
 40
0.0
 40
0.0
 40
0.0
 40
0.1950739303
 40
0.3810916012
 40
0.5516579396
 40
0.701037385
 40
0.7661596872
 40
0.8241411244
 40
0.874508002
 40
0.9168271225
 40
0.9507488211
 40
0.9759988456
 40
0.9923933588
 40
1.0
 40
1.0
 40
1.0
 40
1.0
 10
10.9314914687
 20
-20.2471835282
 30
0.0
 10
10.9315670789
 20
-20.2896521899
 30
0.0
 10
10.9319117374
 20
-20.3726176911
 30
0.0
 10
10.933019078
 20
-20.4927124149
 30
0.0
 10
10.9346709212
 20
-20.6028515127
 30
0.0
 10
10.9365144977
 20
-20.6866648068
 30
0.0
 10
10.9382732525
 20
-20.7459587042
 30
0.0
 10
10.9396208761
 20
-20.7837041387
 30
0.0
 10
10.9410594111
 20
-20.8164632405
 30
0.0
 10
10.9425224007
 20
-20.8440195082
 30
0.0
 10
10.9441296841
 20
-20.865975146
 30
0.0
 10
10.9454893931
 20
-20.8825669657
 30
0.0
 10
10.9473291468
 20
-20.8927778174
 30
0.0
 10
10.9481333069
 20
-20.8983984348
 30
0.0
 10
10.9492997681
 20
-20.8995739081
 30
0.0
 11
10.9314914687
 21
-20.2471835282
 31
0.0
 11
10.9320300576
 21
-20.3745885768
 31
0.0
 11
10.9331721154
 21
-20.4960745947
 31
0.0
 11
10.9348785708
 21
-20.6074613751
 31
0.0
 11
10.9370912951
 21
-20.7049986012
 31
0.0
 11
10.9383646126
 21
-20.7475120486
 31
0.0
 11
10.9397352343
 21
-20.7853559244
 31
0.0
 11
10.9411911958
 21
-20.8182191744
 31
0.0
 11
10.9427200069
 21
-20.8458162165
 31
0.0
 11
10.9443089586
 21
-20.8679140161
 31
0.0
 11
10.9459451446
 21
-20.8843238794
 31
0.0
 11
10.9476143049
 21
-20.8949005221
 31
0.0
 11
10.9492997681
 21
-20.8995739081
 31
0.0
  0
SPLINE
  5
2C3
100
AcDbEntity
  8
RACCORDO
100
AcDbSpline
 62
253
  6
CONTINUOUS
 70
0
 71
3
 72
18
 73
14
 74
12
 42
0.0000001
 43
0.0000001
 44
0.0000000001
 12
-0.2897620094
 22
0.7510527119
 32
0.0
 13
-0.8050094239
 23
0.0014232348
 33
0.0
 40
0.0
 40
0.0
 40
0.0
 40
0.0
 40
0.0096362433
 40
0.0271751633
 40
0.0532805897
 40
0.0879806763
 40
0.1310173156
 40
0.1820170815
 40
0.3061599003
 40
0.4558287536
 40
0.6256097125
 40
0.8094565748
 40
1.0
 40
1.0
 40
1.0
 40
1.0
 10
10.9314914687
 20
20.2471835282
 30
0.0
 10
10.9305607296
 20
20.2495959704
 30
0.0
 10
10.923747098
 20
20.2538855542
 30
0.0
 10
10.9106191178
 20
20.258467701
 30
0.0
 10
10.8899453741
 20
20.2633799256
 30
0.0
 10
10.8625601418
 20
20.2681099453
 30
0.0
 10
10.8282924778
 20
20.2727504928
 30
0.0
 10
10.7700972889
 20
20.2790645806
 30
0.0
 10
10.6831788412
 20
20.2858602462
 30
0.0
 10
10.5643211232
 20
20.2923504882
 30
0.0
 10
10.429349567
 20
20.2972632559
 30
0.0
 10
10.2833581774
 20
20.3004014389
 30
0.0
 10
10.1828953597
 20
20.3012299847
 30
0.0
 10
10.1317656087
 20
20.3013203807
 30
0.0
 11
10.9314914687
 21
20.2471835282
 31
0.0
 11
10.9257433558
 21
20.2523926137
 31
0.0
 11
10.9126065786
 21
20.2575667565
 31
0.0
 11
10.8922151827
 21
20.2626488212
 31
0.0
 11
10.8647204786
 21
20.2675830152
 31
0.0
 11
10.8304013735
 21
20.2723234676
 31
0.0
 11
10.789593964
 21
20.2768287542
 31
0.0
 11
10.6899900045
 21
20.2849721175
 31
0.0
 11
10.5696937929
 21
20.2917147338
 31
0.0
 11
10.4331129572
 21
20.2968003674
 31
0.0
 11
10.285149774
 21
20.3000419816
 31
0.0
 11
10.1317656087
 21
20.3013203807
 31
0.0
  0
SPLINE
  5
2C4
100
AcDbEntity
  8
ASSI
100
AcDbSpline
 62
253
  6
CONTINUOUS
 70
0
 71
3
 72
26
 73
22
 74
20
 42
0.0000001
 43
0.0000001
 44
0.0000000001
 12
-0.7773246888
 22
0.0527594026
 32
0.0
 13
0.0527238087
 23
0.7773271039
 33
0.0
 40
0.0
 40
0.0
 40
0.0
 40
0.0
 40
0.1963044418
 40
0.3846761418
 40
0.5575200716
 40
0.636155285
 40
0.7086346344
 40
0.7742976239
 40
0.8324876284
 40
0.8826508268
 40
0.9243669469
 40
0.9419288117
 40
0.9572250179
 40
0.9702183821
 40
0.9808897445
 40
0.9892211659
 40
0.9951947513
 40
0.997291806
 40
0.9987927967
 40
0.9996957179
 40
1.0
 40
1.0
 40
1.0
 40
1.0
 10
-27.9958375298
 20
20.2471835282
 30
0.0
 10
-28.0467016262
 20
20.2506358299
 30
0.0
 10
-28.146373236
 20
20.2574177988
 30
0.0
 10
-28.2908261601
 20
20.2672977132
 30
0.0
 10
-28.4047879894
 20
20.2751377546
 30
0.0
 10
-28.4887208164
 20
20.2809442545
 30
0.0
 10
-28.5448835265
 20
20.2848460468
 30
0.0
 10
-28.5957480629
 20
20.2883973085
 30
0.0
 10
-28.640829775
 20
20.2915641143
 30
0.0
 10
-28.6797059863
 20
20.2943169525
 30
0.0
 10
-28.7080561249
 20
20.2963455254
 30
0.0
 10
-28.7273722366
 20
20.2977459125
 30
0.0
 10
-28.7392493155
 20
20.298615182
 30
0.0
 10
-28.7493366572
 20
20.2993668245
 30
0.0
 10
-28.7576313248
 20
20.2999885417
 30
0.0
 10
-28.764075408
 20
20.3005070854
 30
0.0
 10
-28.768368505
 20
20.3008224006
 30
0.0
 10
-28.770780819
 20
20.3010807529
 30
0.0
 10
-28.772049965
 20
20.3011247172
 30
0.0
 10
-28.7725621905
 20
20.3013197882
 30
0.0
 10
-28.7730674402
 20
20.3012415384
 30
0.0
 10
-28.7730620926
 20
20.3013203807
 30
0.0
 11
-27.9958375298
 21
20.2471835282
 31
0.0
 11
-28.14842803
 21
20.2575667565
 31
0.0
 11
-28.2948486964
 21
20.2675830152
 31
0.0
 11
-28.4291958979
 21
20.2768287542
 31
0.0
 11
-28.490315496
 21
20.2810576778
 31
0.0
 11
-28.5466492701
 21
20.2849721175
 31
0.0
 11
-28.5976838568
 21
20.2885363207
 31
0.0
 11
-28.6429089
 21
20.2917147338
 31
0.0
 11
-28.6818939568
 21
20.2944771611
 31
0.0
 11
-28.714312395
 21
20.2968003674
 31
0.0
 11
-28.7279592276
 21
20.2977901471
 31
0.0
 11
-28.7398447975
 21
20.2986616011
 31
0.0
 11
-28.749940202
 21
20.2994126112
 31
0.0
 11
-28.7582305449
 21
20.3000419816
 31
0.0
 11
-28.7647018658
 21
20.300548578
 31
0.0
 11
-28.7693402042
 21
20.3009312662
 31
0.0
 11
-28.7709676425
 21
20.3010757902
 31
0.0
 11
-28.7721315999
 21
20.3011889118
 31
0.0
 11
-28.7728303317
 21
20.3012704892
 31
0.0
 11
-28.7730620926
 21
20.3013203807
 31
0.0
  0
SPLINE
  5
2C5
100
AcDbEntity
  8
ASSI
100
AcDbSpline
 62
253
  6
CONTINUOUS
 70
0
 71
3
 72
21
 73
17
 74
15
 42
0.0000001
 43
0.0000001
 44
0.0000000001
 12
-0.0209432926
 22
0.800339405
 32
0.0
 13
0.8003390301
 23
0.0209576151
 33
0.0
 40
0.0
 40
0.0
 40
0.0
 40
0.0
 40
0.1946800601
 40
0.3822307214
 40
0.5548513101
 40
0.7061480355
 40
0.7719978756
 40
0.8304099855
 40
0.8808133935
 40
0.9227763588
 40
0.9558804507
 40
0.9797951581
 40
0.9882651894
 40
0.9944039504
 40
0.9982398499
 40
1.0
 40
1.0
 40
1.0
 40
1.0
 10
-27.3157660135
 20
20.8995739081
 30
0.0
 10
-27.317125094
 20
20.9515106159
 30
0.0
 10
-27.3195336822
 20
21.0534890283
 30
0.0
 10
-27.3222599248
 20
21.2015385084
 30
0.0
 10
-27.3239660847
 20
21.3380245896
 30
0.0
 10
-27.32452383
 20
21.4420424346
 30
0.0
 10
-27.3243500809
 20
21.5155807601
 30
0.0
 10
-27.3239480081
 20
21.5621937363
 30
0.0
 10
-27.3232759214
 20
21.6024235553
 30
0.0
 10
-27.3223451449
 20
21.6359061217
 30
0.0
 10
-27.3211879651
 20
21.662271316
 30
0.0
 10
-27.3199326574
 20
21.6797630012
 30
0.0
 10
-27.3187674885
 20
21.6899058099
 30
0.0
 10
-27.3178599999
 20
21.6948775155
 30
0.0
 10
-27.3171708199
 20
21.6976834692
 30
0.0
 10
-27.3162355833
 20
21.699287472
 30
0.0
 10
-27.315766011
 20
21.6992997682
 30
0.0
 11
-27.3157660135
 21
20.8995739081
 31
0.0
 11
-27.319440986
 21
21.0553940385
 31
0.0
 11
-27.3221792053
 21
21.2055246385
 31
0.0
 11
-27.3238619867
 21
21.3437167462
 31
0.0
 11
-27.3244287866
 21
21.4648456028
 31
0.0
 11
-27.3242870656
 21
21.5175656754
 31
0.0
 11
-27.3238619859
 21
21.5643292602
 31
0.0
 11
-27.3231568616
 21
21.6046767421
 31
0.0
 11
-27.3221792036
 21
21.6382586254
 31
0.0
 11
-27.3209368199
 21
21.6647330693
 31
0.0
 11
-27.3194409833
 21
21.6838209827
 31
0.0
 11
-27.3186038934
 21
21.6905503386
 31
0.0
 11
-27.3177106972
 21
21.6953832679
 31
0.0
 11
-27.3167639011
 21
21.6983047509
 31
0.0
 11
-27.315766011
 21
21.6992997682
 31
0.0
  0
SPLINE
  5
2C6
100
AcDbEntity
  8
ASSI
100
AcDbSpline
 62
253
  6
CONTINUOUS
 70
0
 71
3
 72
26
 73
22
 74
20
 42
0.0000001
 43
0.0000001
 44
0.0000000001
 12
-0.7773086766
 22
-0.0527583537
 32
0.0
 13
0.0530546179
 23
-0.7772885116
 33
0.0
 40
0.0
 40
0.0
 40
0.0
 40
0.0
 40
0.1963059693
 40
0.384678619
 40
0.5575228608
 40
0.6361580047
 40
0.7086371569
 40
0.7742998494
 40
0.8324894856
 40
0.882652279
 40
0.924367992
 40
0.9419296631
 40
0.957225688
 40
0.9702188871
 40
0.980890103
 40
0.9892213986
 40
0.9951948808
 40
0.9972918932
 40
0.998792848
 40
0.99969574
 40
1.0
 40
1.0
 40
1.0
 40
1.0
 10
-27.9958375298
 20
-20.2471835282
 30
0.0
 10
-28.0467009742
 20
-20.2506357881
 30
0.0
 10
-28.1463711727
 20
-20.2574176657
 30
0.0
 10
-28.2908218439
 20
-20.2672974323
 30
0.0
 10
-28.4047816347
 20
-20.2751373383
 30
0.0
 10
-28.4887127445
 20
-20.2809437228
 30
0.0
 10
-28.5448741517
 20
-20.2848454268
 30
0.0
 10
-28.5957374169
 20
-20.2883966019
 30
0.0
 10
-28.6408179231
 20
-20.2915633248
 30
0.0
 10
-28.6796930278
 20
-20.2943160863
 30
0.0
 10
-28.708042322
 20
-20.2963446001
 30
0.0
 10
-28.727357833
 20
-20.2977449447
 30
0.0
 10
-28.7392345278
 20
-20.2986141868
 30
0.0
 10
-28.7493215327
 20
-20.2993658048
 30
0.0
 10
-28.7576159198
 20
-20.2999875018
 30
0.0
 10
-28.7640597637
 20
-20.3005060267
 30
0.0
 10
-28.7683527213
 20
-20.3008213329
 30
0.0
 10
-28.7707649127
 20
-20.3010796729
 30
0.0
 10
-28.7720340469
 20
-20.3011236405
 30
0.0
 10
-28.7725461668
 20
-20.301318693
 30
0.0
 10
-28.7730514638
 20
-20.3012404597
 30
0.0
 10
-28.773046083
 20
-20.3013192923
 30
0.0
 11
-27.9958375298
 21
-20.2471835282
 31
0.0
 11
-28.1484260741
 21
-20.2575666306
 31
0.0
 11
-28.2948444625
 21
-20.26758274
 31
0.0
 11
-28.4291891392
 21
-20.2768283109
 31
0.0
 11
-28.4903074243
 21
-20.2810571461
 31
0.0
 11
-28.5466398847
 21
-20.2849714968
 31
0.0
 11
-28.5976731894
 21
-20.2885356126
 31
0.0
 11
-28.6428970148
 21
-20.291713942
 31
0.0
 11
-28.6818809538
 21
-20.2944762917
 31
0.0
 11
-28.7142984079
 21
-20.2967994291
 31
0.0
 11
-28.7279448089
 21
-20.2977891782
 31
0.0
 11
-28.7398299929
 21
-20.2986606046
 31
0.0
 11
-28.7499250613
 21
-20.2994115904
 31
0.0
 11
-28.7582151196
 21
-20.3000409399
 31
0.0
 11
-28.7646862093
 21
-20.3005475189
 31
0.0
 11
-28.7693243721
 21
-20.3009301934
 31
0.0
 11
-28.7709517439
 21
-20.3010747121
 31
0.0
 11
-28.7721156495
 21
-20.3011878293
 31
0.0
 11
-28.7728143441
 21
-20.3012694033
 31
0.0
 11
-28.773046083
 21
-20.3013192923
 31
0.0
  0
SPLINE
  5
2C7
100
AcDbEntity
  8
ASSI
100
AcDbSpline
 62
253
  6
CONTINUOUS
 70
0
 71
3
 72
21
 73
17
 74
15
 42
0.0000001
 43
0.0000001
 44
0.0000000001
 12
-0.020943264
 22
-0.8003394035
 32
0.0
 13
0.8003390278
 23
-0.020957615
 33
0.0
 40
0.0
 40
0.0
 40
0.0
 40
0.0
 40
0.194680069
 40
0.382230748
 40
0.5548513406
 40
0.7061480611
 40
0.7719978975
 40
0.8304100057
 40
0.8808134096
 40
0.9227763698
 40
0.9558804589
 40
0.9797951637
 40
0.9882651937
 40
0.9944039532
 40
0.9982398514
 40
1.0
 40
1.0
 40
1.0
 40
1.0
 10
-27.3157660135
 20
-20.8995739081
 30
0.0
 10
-27.3171250922
 20
-20.9515106182
 30
0.0
 10
-27.3195336773
 20
-21.0534890375
 30
0.0
 10
-27.3222599168
 20
-21.2015385253
 30
0.0
 10
-27.3239660744
 20
-21.3380246106
 30
0.0
 10
-27.3245238192
 20
-21.442042454
 30
0.0
 10
-27.3243500704
 20
-21.5155807766
 30
0.0
 10
-27.3239479983
 20
-21.5621937501
 30
0.0
 10
-27.3232759127
 20
-21.6024235662
 30
0.0
 10
-27.3223451376
 20
-21.6359061293
 30
0.0
 10
-27.3211879597
 20
-21.6622713207
 30
0.0
 10
-27.319932654
 20
-21.6797630044
 30
0.0
 10
-27.3187674867
 20
-21.6899058116
 30
0.0
 10
-27.3178599995
 20
-21.6948775165
 30
0.0
 10
-27.3171708205
 20
-21.6976834688
 30
0.0
 10
-27.3162355854
 20
-21.6992874719
 30
0.0
 10
-27.3157660135
 20
-21.6992997681
 30
0.0
 11
-27.3157660135
 21
-20.8995739081
 31
0.0
 11
-27.3194409812
 21
-21.0553940453
 31
0.0
 11
-27.3221791974
 21
-21.2055246591
 31
0.0
 11
-27.3238619766
 21
-21.3437167695
 31
0.0
 11
-27.324428776
 21
-21.4648456219
 31
0.0
 11
-27.3242870552
 21
-21.5175656914
 31
0.0
 11
-27.3238619762
 21
-21.5643292747
 31
0.0
 11
-27.323156853
 21
-21.6046767532
 31
0.0
 11
-27.3221791966
 21
-21.6382586325
 31
0.0
 11
-27.3209368149
 21
-21.6647330741
 31
0.0
 11
-27.3194409805
 21
-21.6838209855
 31
0.0
 11
-27.3186038918
 21
-21.6905503404
 31
0.0
 11
-27.3177106969
 21
-21.6953832688
 31
0.0
 11
-27.3167639021
 21
-21.6983047511
 31
0.0
 11
-27.3157660135
 21
-21.6992997681
 31
0.0
  0
SPLINE
  5
2C8
100
AcDbEntity
  8
RACCORDO
100
AcDbSpline
 62
253
  6
CONTINUOUS
 70
0
 71
3
 72
21
 73
17
 74
15
 42
0.0000001
 43
0.0000001
 44
0.0000000001
 12
-0.0209432926
 22
0.800339405
 32
0.0
 13
0.8003390301
 23
0.0209576151
 33
0.0
 40
0.0
 40
0.0
 40
0.0
 40
0.0
 40
0.1946800601
 40
0.3822307214
 40
0.5548513101
 40
0.7061480355
 40
0.7719978756
 40
0.8304099855
 40
0.8808133935
 40
0.9227763588
 40
0.9558804507
 40
0.9797951581
 40
0.9882651894
 40
0.9944039504
 40
0.9982398499
 40
1.0
 40
1.0
 40
1.0
 40
1.0
 10
-27.3157660135
 20
20.8995739081
 30
0.0
 10
-27.317125094
 20
20.9515106159
 30
0.0
 10
-27.3195336822
 20
21.0534890283
 30
0.0
 10
-27.3222599248
 20
21.2015385084
 30
0.0
 10
-27.3239660847
 20
21.3380245896
 30
0.0
 10
-27.32452383
 20
21.4420424346
 30
0.0
 10
-27.3243500809
 20
21.5155807601
 30
0.0
 10
-27.3239480081
 20
21.5621937363
 30
0.0
 10
-27.3232759214
 20
21.6024235553
 30
0.0
 10
-27.3223451449
 20
21.6359061217
 30
0.0
 10
-27.3211879651
 20
21.662271316
 30
0.0
 10
-27.3199326574
 20
21.6797630012
 30
0.0
 10
-27.3187674885
 20
21.6899058099
 30
0.0
 10
-27.3178599999
 20
21.6948775155
 30
0.0
 10
-27.3171708199
 20
21.6976834692
 30
0.0
 10
-27.3162355833
 20
21.699287472
 30
0.0
 10
-27.315766011
 20
21.6992997682
 30
0.0
 11
-27.3157660135
 21
20.8995739081
 31
0.0
 11
-27.319440986
 21
21.0553940385
 31
0.0
 11
-27.3221792053
 21
21.2055246385
 31
0.0
 11
-27.3238619867
 21
21.3437167462
 31
0.0
 11
-27.3244287866
 21
21.4648456028
 31
0.0
 11
-27.3242870656
 21
21.5175656754
 31
0.0
 11
-27.3238619859
 21
21.5643292602
 31
0.0
 11
-27.3231568616
 21
21.6046767421
 31
0.0
 11
-27.3221792036
 21
21.6382586254
 31
0.0
 11
-27.3209368199
 21
21.6647330693
 31
0.0
 11
-27.3194409833
 21
21.6838209827
 31
0.0
 11
-27.3186038934
 21
21.6905503386
 31
0.0
 11
-27.3177106972
 21
21.6953832679
 31
0.0
 11
-27.3167639011
 21
21.6983047509
 31
0.0
 11
-27.315766011
 21
21.6992997682
 31
0.0
  0
SPLINE
  5
2C9
100
AcDbEntity
  8
RACCORDO
100
AcDbSpline
 62
253
  6
CONTINUOUS
 70
0
 71
3
 72
26
 73
22
 74
20
 42
0.0000001
 43
0.0000001
 44
0.0000000001
 12
-0.7773086766
 22
-0.0527583537
 32
0.0
 13
0.0530546179
 23
-0.7772885116
 33
0.0
 40
0.0
 40
0.0
 40
0.0
 40
0.0
 40
0.1963059693
 40
0.384678619
 40
0.5575228608
 40
0.6361580047
 40
0.7086371569
 40
0.7742998494
 40
0.8324894856
 40
0.882652279
 40
0.924367992
 40
0.9419296631
 40
0.957225688
 40
0.9702188871
 40
0.980890103
 40
0.9892213986
 40
0.9951948808
 40
0.9972918932
 40
0.998792848
 40
0.99969574
 40
1.0
 40
1.0
 40
1.0
 40
1.0
 10
-27.9958375298
 20
-20.2471835282
 30
0.0
 10
-28.0467009742
 20
-20.2506357881
 30
0.0
 10
-28.1463711727
 20
-20.2574176657
 30
0.0
 10
-28.2908218439
 20
-20.2672974323
 30
0.0
 10
-28.4047816347
 20
-20.2751373383
 30
0.0
 10
-28.4887127445
 20
-20.2809437228
 30
0.0
 10
-28.5448741517
 20
-20.2848454268
 30
0.0
 10
-28.5957374169
 20
-20.2883966019
 30
0.0
 10
-28.6408179231
 20
-20.2915633248
 30
0.0
 10
-28.6796930278
 20
-20.2943160863
 30
0.0
 10
-28.708042322
 20
-20.2963446001
 30
0.0
 10
-28.727357833
 20
-20.2977449447
 30
0.0
 10
-28.7392345278
 20
-20.2986141868
 30
0.0
 10
-28.7493215327
 20
-20.2993658048
 30
0.0
 10
-28.7576159198
 20
-20.2999875018
 30
0.0
 10
-28.7640597637
 20
-20.3005060267
 30
0.0
 10
-28.7683527213
 20
-20.3008213329
 30
0.0
 10
-28.7707649127
 20
-20.3010796729
 30
0.0
 10
-28.7720340469
 20
-20.3011236405
 30
0.0
 10
-28.7725461668
 20
-20.301318693
 30
0.0
 10
-28.7730514638
 20
-20.3012404597
 30
0.0
 10
-28.773046083
 20
-20.3013192923
 30
0.0
 11
-27.9958375298
 21
-20.2471835282
 31
0.0
 11
-28.1484260741
 21
-20.2575666306
 31
0.0
 11
-28.2948444625
 21
-20.26758274
 31
0.0
 11
-28.4291891392
 21
-20.2768283109
 31
0.0
 11
-28.4903074243
 21
-20.2810571461
 31
0.0
 11
-28.5466398847
 21
-20.2849714968
 31
0.0
 11
-28.5976731894
 21
-20.2885356126
 31
0.0
 11
-28.6428970148
 21
-20.291713942
 31
0.0
 11
-28.6818809538
 21
-20.2944762917
 31
0.0
 11
-28.7142984079
 21
-20.2967994291
 31
0.0
 11
-28.7279448089
 21
-20.2977891782
 31
0.0
 11
-28.7398299929
 21
-20.2986606046
 31
0.0
 11
-28.7499250613
 21
-20.2994115904
 31
0.0
 11
-28.7582151196
 21
-20.3000409399
 31
0.0
 11
-28.7646862093
 21
-20.3005475189
 31
0.0
 11
-28.7693243721
 21
-20.3009301934
 31
0.0
 11
-28.7709517439
 21
-20.3010747121
 31
0.0
 11
-28.7721156495
 21
-20.3011878293
 31
0.0
 11
-28.7728143441
 21
-20.3012694033
 31
0.0
 11
-28.773046083
 21
-20.3013192923
 31
0.0
  0
SPLINE
  5
2CA
100
AcDbEntity
  8
RACCORDO
100
AcDbSpline
 62
253
  6
CONTINUOUS
 70
0
 71
3
 72
21
 73
17
 74
15
 42
0.0000001
 43
0.0000001
 44
0.0000000001
 12
-0.020943264
 22
-0.8003394035
 32
0.0
 13
0.8003390278
 23
-0.020957615
 33
0.0
 40
0.0
 40
0.0
 40
0.0
 40
0.0
 40
0.194680069
 40
0.382230748
 40
0.5548513406
 40
0.7061480611
 40
0.7719978975
 40
0.8304100057
 40
0.8808134096
 40
0.9227763698
 40
0.9558804589
 40
0.9797951637
 40
0.9882651937
 40
0.9944039532
 40
0.9982398514
 40
1.0
 40
1.0
 40
1.0
 40
1.0
 10
-27.3157660135
 20
-20.8995739081
 30
0.0
 10
-27.3171250922
 20
-20.9515106182
 30
0.0
 10
-27.3195336773
 20
-21.0534890375
 30
0.0
 10
-27.3222599168
 20
-21.2015385253
 30
0.0
 10
-27.3239660744
 20
-21.3380246106
 30
0.0
 10
-27.3245238192
 20
-21.442042454
 30
0.0
 10
-27.3243500704
 20
-21.5155807766
 30
0.0
 10
-27.3239479983
 20
-21.5621937501
 30
0.0
 10
-27.3232759127
 20
-21.6024235662
 30
0.0
 10
-27.3223451376
 20
-21.6359061293
 30
0.0
 10
-27.3211879597
 20
-21.6622713207
 30
0.0
 10
-27.319932654
 20
-21.6797630044
 30
0.0
 10
-27.3187674867
 20
-21.6899058116
 30
0.0
 10
-27.3178599995
 20
-21.6948775165
 30
0.0
 10
-27.3171708205
 20
-21.6976834688
 30
0.0
 10
-27.3162355854
 20
-21.6992874719
 30
0.0
 10
-27.3157660135
 20
-21.6992997681
 30
0.0
 11
-27.3157660135
 21
-20.8995739081
 31
0.0
 11
-27.3194409812
 21
-21.0553940453
 31
0.0
 11
-27.3221791974
 21
-21.2055246591
 31
0.0
 11
-27.3238619766
 21
-21.3437167695
 31
0.0
 11
-27.324428776
 21
-21.4648456219
 31
0.0
 11
-27.3242870552
 21
-21.5175656914
 31
0.0
 11
-27.3238619762
 21
-21.5643292747
 31
0.0
 11
-27.323156853
 21
-21.6046767532
 31
0.0
 11
-27.3221791966
 21
-21.6382586325
 31
0.0
 11
-27.3209368149
 21
-21.6647330741
 31
0.0
 11
-27.3194409805
 21
-21.6838209855
 31
0.0
 11
-27.3186038918
 21
-21.6905503404
 31
0.0
 11
-27.3177106969
 21
-21.6953832688
 31
0.0
 11
-27.3167639021
 21
-21.6983047511
 31
0.0
 11
-27.3157660135
 21
-21.6992997681
 31
0.0
  0
SPLINE
  5
2CB
100
AcDbEntity
  8
RACCORDO
100
AcDbSpline
 62
253
  6
CONTINUOUS
 70
0
 71
3
 72
26
 73
22
 74
20
 42
0.0000001
 43
0.0000001
 44
0.0000000001
 12
-0.7773246888
 22
0.0527594026
 32
0.0
 13
0.0527238087
 23
0.7773271039
 33
0.0
 40
0.0
 40
0.0
 40
0.0
 40
0.0
 40
0.1963044418
 40
0.3846761418
 40
0.5575200716
 40
0.636155285
 40
0.7086346344
 40
0.7742976239
 40
0.8324876284
 40
0.8826508268
 40
0.9243669469
 40
0.9419288117
 40
0.9572250179
 40
0.9702183821
 40
0.9808897445
 40
0.9892211659
 40
0.9951947513
 40
0.997291806
 40
0.9987927967
 40
0.9996957179
 40
1.0
 40
1.0
 40
1.0
 40
1.0
 10
-27.9958375298
 20
20.2471835282
 30
0.0
 10
-28.0467016262
 20
20.2506358299
 30
0.0
 10
-28.146373236
 20
20.2574177988
 30
0.0
 10
-28.2908261601
 20
20.2672977132
 30
0.0
 10
-28.4047879894
 20
20.2751377546
 30
0.0
 10
-28.4887208164
 20
20.2809442545
 30
0.0
 10
-28.5448835265
 20
20.2848460468
 30
0.0
 10
-28.5957480629
 20
20.2883973085
 30
0.0
 10
-28.640829775
 20
20.2915641143
 30
0.0
 10
-28.6797059863
 20
20.2943169525
 30
0.0
 10
-28.7080561249
 20
20.2963455254
 30
0.0
 10
-28.7273722366
 20
20.2977459125
 30
0.0
 10
-28.7392493155
 20
20.298615182
 30
0.0
 10
-28.7493366572
 20
20.2993668245
 30
0.0
 10
-28.7576313248
 20
20.2999885417
 30
0.0
 10
-28.764075408
 20
20.3005070854
 30
0.0
 10
-28.768368505
 20
20.3008224006
 30
0.0
 10
-28.770780819
 20
20.3010807529
 30
0.0
 10
-28.772049965
 20
20.3011247172
 30
0.0
 10
-28.7725621905
 20
20.3013197882
 30
0.0
 10
-28.7730674402
 20
20.3012415384
 30
0.0
 10
-28.7730620926
 20
20.3013203807
 30
0.0
 11
-27.9958375298
 21
20.2471835282
 31
0.0
 11
-28.14842803
 21
20.2575667565
 31
0.0
 11
-28.2948486964
 21
20.2675830152
 31
0.0
 11
-28.4291958979
 21
20.2768287542
 31
0.0
 11
-28.490315496
 21
20.2810576778
 31
0.0
 11
-28.5466492701
 21
20.2849721175
 31
0.0
 11
-28.5976838568
 21
20.2885363207
 31
0.0
 11
-28.6429089
 21
20.2917147338
 31
0.0
 11
-28.6818939568
 21
20.2944771611
 31
0.0
 11
-28.714312395
 21
20.2968003674
 31
0.0
 11
-28.7279592276
 21
20.2977901471
 31
0.0
 11
-28.7398447975
 21
20.2986616011
 31
0.0
 11
-28.749940202
 21
20.2994126112
 31
0.0
 11
-28.7582305449
 21
20.3000419816
 31
0.0
 11
-28.7647018658
 21
20.300548578
 31
0.0
 11
-28.7693402042
 21
20.3009312662
 31
0.0
 11
-28.7709676425
 21
20.3010757902
 31
0.0
 11
-28.7721315999
 21
20.3011889118
 31
0.0
 11
-28.7728303317
 21
20.3012704892
 31
0.0
 11
-28.7730620926
 21
20.3013203807
 31
0.0
  0
ELLIPSE
  5
2CC
100
AcDbEntity
  8
ASSI
100
AcDbEllipse
 62
7
  6
CONTINUOUS
 10
-10.299725766
 20
-21.049725766
 30
0.0
 11
0.566073184
 21
0.566073184
 31
0.0
 40
0.999315002
 41
-3.9266482006
 42
-2.3565371065
  0
ELLIPSE
  5
2CD
100
AcDbEntity
  8
ASSI
100
AcDbEllipse
 62
7
  6
CONTINUOUS
 10
-10.299725766
 20
21.049725766
 30
0.0
 11
0.566073184
 21
-0.566073184
 31
0.0
 40
0.999315002
 41
2.3565371065
 42
3.9266482006
  0
ELLIPSE
  5
2CE
100
AcDbEntity
  8
ASSI
100
AcDbEllipse
 62
7
  6
CONTINUOUS
 10
10.299725766
 20
-21.049725766
 30
0.0
 11
0.566073184
 21
-0.566073184
 31
0.0
 40
0.999315002
 41
-0.7850555471
 42
0.7850555471
  0
ELLIPSE
  5
2CF
100
AcDbEntity
  8
ASSI
100
AcDbEllipse
 62
7
  6
CONTINUOUS
 10
10.299725766
 20
21.049725766
 30
0.0
 11
0.566073184
 21
0.566073184
 31
0.0
 40
0.999315002
 41
-0.7850555471
 42
0.7850555471
  0
ELLIPSE
  5
2D0
100
AcDbEntity
  8
RACCORDO
100
AcDbEllipse
 62
7
  6
CONTINUOUS
 10
-10.299725766
 20
-21.049725766
 30
0.0
 11
0.566073184
 21
0.566073184
 31
0.0
 40
0.999315002
 41
-3.9266482006
 42
-2.3565371065
  0
ELLIPSE
  5
2D1
100
AcDbEntity
  8
RACCORDO
100
AcDbEllipse
 62
7
  6
CONTINUOUS
 10
-10.299725766
 20
21.049725766
 30
0.0
 11
0.566073184
 21
-0.566073184
 31
0.0
 40
0.999315002
 41
2.3565371065
 42
3.9266482006
  0
ELLIPSE
  5
2D2
100
AcDbEntity
  8
RACCORDO
100
AcDbEllipse
 62
7
  6
CONTINUOUS
 10
10.299725766
 20
-21.049725766
 30
0.0
 11
0.566073184
 21
-0.566073184
 31
0.0
 40
0.999315002
 41
-0.7850555471
 42
0.7850555471
  0
ELLIPSE
  5
2D3
100
AcDbEntity
  8
RACCORDO
100
AcDbEllipse
 62
7
  6
CONTINUOUS
 10
10.299725766
 20
21.049725766
 30
0.0
 11
0.566073184
 21
0.566073184
 31
0.0
 40
0.999315002
 41
-0.7850555471
 42
0.7850555471
  0
ELLIPSE
  5
2D4
100
AcDbEntity
  8
CURVE
100
AcDbEllipse
 62
253
  6
CONTINUOUS
 10
270.539243659
 20
-0.0
 30
0.0
 11
291.9746968403
 21
68.9258761642
 31
0.0
 40
1.0
 41
2.9549171535
 42
2.9552845631
  0
ELLIPSE
  5
2D5
100
AcDbEntity
  8
CURVE
100
AcDbEllipse
 62
253
  6
CONTINUOUS
 10
270.539243659
 20
0.0
 30
0.0
 11
295.1860650346
 21
-53.5274416481
 31
0.0
 40
1.0
 41
-2.9172397844
 42
-2.917059014
  0
ELLIPSE
  5
2D6
100
AcDbEntity
  8
CURVE
100
AcDbEllipse
 62
253
  6
CONTINUOUS
 10
270.539243659
 20
-0.0
 30
0.0
 11
299.5409288567
 21
-16.5901157225
 31
0.0
 40
1.0
 41
-3.0436718014
 42
-3.0433063878
  0
ELLIPSE
  5
2D7
100
AcDbEntity
  8
CURVE
100
AcDbEllipse
 62
253
  6
CONTINUOUS
 10
270.539243659
 20
-0.0
 30
0.0
 11
298.5399980004
 21
-29.56128539
 31
0.0
 40
1.0
 41
-3.00066804
 42
-3.0003026321
  0
ELLIPSE
  5
2D8
100
AcDbEntity
  8
CURVE
100
AcDbEllipse
 62
253
  6
CONTINUOUS
 10
270.539243659
 20
-0.0
 30
0.0
 11
291.9746968403
 21
-68.9258761642
 31
0.0
 40
1.0
 41
-2.8697343463
 42
-2.8691862818
  0
ELLIPSE
  5
2D9
100
AcDbEntity
  8
CURVE
100
AcDbEllipse
 62
253
  6
CONTINUOUS
 10
270.539243659
 20
-0.0
 30
0.0
 11
297.7522670049
 21
-36.6549791087
 31
0.0
 40
1.0
 41
-2.9739550176
 42
-2.973587608
  0
ELLIPSE
  5
2DA
100
AcDbEntity
  8
CURVE
100
AcDbEllipse
 62
253
  6
CONTINUOUS
 10
270.539243659
 20
0.0
 30
0.0
 11
299.7790050146
 21
-11.5129558511
 31
0.0
 40
1.0
 41
-3.0582391739
 42
-3.0580584035
  0
ELLIPSE
  5
2DB
100
AcDbEntity
  8
CURVE
100
AcDbEllipse
 62
253
  6
CONTINUOUS
 10
270.539243659
 20
-0.0
 30
0.0
 11
243.3726555527
 21
175.4130853991
 31
0.0
 40
1.0
 41
2.5622180718
 42
2.5625854814
  0
ELLIPSE
  5
2DC
100
AcDbEntity
  8
CURVE
100
AcDbEllipse
 62
253
  6
CONTINUOUS
 10
270.539243659
 20
-0.0
 30
0.0
 11
300.0
 21
0.0
 31
0.0
 40
1.0
 41
-3.0986349984
 42
-3.0982695791
  0
ELLIPSE
  5
2DD
100
AcDbEntity
  8
CURVE
100
AcDbEllipse
 62
253
  6
CONTINUOUS
 10
270.539243659
 20
-0.0
 30
0.0
 11
299.601620026
 21
-15.4553963975
 31
0.0
 40
1.0
 41
-3.0474596077
 42
-3.0470941941
  0
ELLIPSE
  5
2DE
100
AcDbEntity
  8
CURVE
100
AcDbEllipse
 62
253
  6
CONTINUOUS
 10
270.539243659
 20
-0.0
 30
0.0
 11
297.7522670049
 21
-36.6549791087
 31
0.0
 40
1.0
 41
-2.9768764883
 42
-2.9765110804
  0
ELLIPSE
  5
2DF
100
AcDbEntity
  8
CURVE
100
AcDbEllipse
 62
253
  6
CONTINUOUS
 10
270.539243659
 20
-0.0
 30
0.0
 11
297.7522670049
 21
-36.6549791087
 31
0.0
 40
1.0
 41
-2.9790688192
 42
-2.9785207548
  0
ELLIPSE
  5
2E0
100
AcDbEntity
  8
CURVE
100
AcDbEllipse
 62
253
  6
CONTINUOUS
 10
270.539243659
 20
-0.0
 30
0.0
 11
299.6918322061
 21
-13.5943263516
 31
0.0
 40
1.0
 41
-3.0518433424
 42
-3.0511150918
  0
ELLIPSE
  5
2E1
100
AcDbEntity
  8
CURVE
100
AcDbEllipse
 62
253
  6
CONTINUOUS
 10
270.539243659
 20
0.0
 30
0.0
 11
284.6049894152
 21
94.8683298051
 31
0.0
 40
1.0
 41
2.8648096332
 42
2.8649904036
  0
ELLIPSE
  5
2E2
100
AcDbEntity
  8
CURVE
100
AcDbEllipse
 62
253
  6
CONTINUOUS
 10
270.539243659
 20
-0.0
 30
0.0
 11
297.7522670049
 21
36.6549791087
 31
0.0
 40
1.0
 41
3.0642516265
 42
3.0646190361
  0
ELLIPSE
  5
2E3
100
AcDbEntity
  8
CURVE
100
AcDbEllipse
 62
253
  6
CONTINUOUS
 10
270.539243659
 20
-0.0
 30
0.0
 11
298.5399980004
 21
-29.56128539
 31
0.0
 40
1.0
 41
-3.0028603708
 42
-3.0017642302
  0
ELLIPSE
  5
2E4
100
AcDbEntity
  8
CURVE
100
AcDbEllipse
 62
253
  6
CONTINUOUS
 10
270.539243659
 20
-0.0
 30
0.0
 11
300.0
 21
0.0
 31
0.0
 40
1.0
 41
-3.1015581508
 42
-3.1004620102
  0
ELLIPSE
  5
2E5
100
AcDbEntity
  8
CURVE
100
AcDbEllipse
 62
253
  6
CONTINUOUS
 10
270.539243659
 20
-0.0
 30
0.0
 11
296.6648873603
 21
-44.6087951811
 31
0.0
 40
1.0
 41
-2.9471948833
 42
-2.9468274738
  0
ELLIPSE
  5
2E6
100
AcDbEntity
  8
CURVE
100
AcDbEllipse
 62
253
  6
CONTINUOUS
 10
270.539243659
 20
-0.0
 30
0.0
 11
300.0
 21
0.0
 31
0.0
 40
1.0
 41
-3.0966251195
 42
-3.0960769396
  0
ELLIPSE
  5
2E7
100
AcDbEntity
  8
CURVE
100
AcDbEllipse
 62
253
  6
CONTINUOUS
 10
270.539243659
 20
-0.0
 30
0.0
 11
299.7408199112
 21
-12.4675931511
 31
0.0
 40
1.0
 41
-3.0599875348
 42
-3.0594394704
  0
ELLIPSE
  5
2E8
100
AcDbEntity
  8
CURVE
100
AcDbEllipse
 62
253
  6
CONTINUOUS
 10
270.539243659
 20
-0.0
 30
0.0
 11
298.208681477
 21
-32.7350315675
 31
0.0
 40
1.0
 41
-2.9922236778
 42
-2.9916756134
  0
ENDSEC
  0
SECTION
  2
OBJECTS
  0
DICTIONARY
  5
C
100
AcDbDictionary
280
0
281
1
  3
ACAD_GROUP
350
D
  3
ACAD_MLINESTYLE
350
17
  3
ACAD_LAYOUT
350
1A
  3
ACAD_PLOTSETTINGS
350
19
  3
ACAD_PLOTSTYLENAME
350
E
  0
DICTIONARY
  5
D
102
{ACAD_REACTORS
330
C
102
}
100
AcDbDictionary
280
0
281
1
  0
ACDBDICTIONARYWDFLT
  5
E
102
{ACAD_REACTORS
330
C
102
}
100
AcDbDictionary
281
1
  3
Normal
350
F
100
AcDbDictionaryWithDefault
340
F
  0
DICTIONARY
  5
17
102
{ACAD_REACTORS
330
C
102
}
100
AcDbDictionary
280
0
281
1
  3
Standard
350
18
  0
DICTIONARY
  5
19
102
{ACAD_REACTORS
330
C
102
}
100
AcDbDictionary
281
1
  0
DICTIONARY
  5
1A
102
{ACAD_REACTORS
330
C
102
}
100
AcDbDictionary
281
1
  3
Model
350
2E9
  3
Layout1
350
2EA
  0
ACDBPLACEHOLDER
  5
F
102
{ACAD_REACTORS
330
E
102
}
  0
MLINESTYLE
  5
18
102
{ACAD_REACTORS
330
17
102
}
100
AcDbMlineStyle
  2
STANDARD
 70
0
  3

 62
256
 51
90.0
 52
90.0
 71
2
 49
0.5
 62
256
  6
BYLAYER
 49
-0.5
 62
256
  6
BYLAYER
  0
LAYOUT
  5
2E9
102
{ACAD_REACTORS
330
1A
102
}
100
AcDbPlotSettings
  1

  2
none_device
  4
ISO_A4_(297.00_x_210.00_MM)
  6

 40
0.0
 41
0.0
 42
0.0
 43
0.0
 44
297.0
 45
210.0
 46
0.0
 47
0.0
 48
0.0
 49
0.0
140
0.0
141
0.0
142
1.0
143
1.0
 70
1024
 72
1
 73
0
 74
0
  7

 75
0
147
1.0
148
0.0
149
0.0
100
AcDbLayout
  1
Model
 70
0
 71
0
 10
0.0
 20
0.0
 11
297.0
 21
210.0
 12
0.0
 22
0.0
 32
0.0
 14
0.0
 24
0.0
 34
0.0
 15
0.0
 25
0.0
 35
0.0
146
0.0
 13
0.0
 23
0.0
 33
0.0
 16
1.0
 26
0.0
 36
0.0
 17
0.0
 27
1.0
 37
0.0
 76
0
330
210
345
0
346
0
  0
LAYOUT
  5
2EA
102
{ACAD_REACTORS
330
1A
102
}
100
AcDbPlotSettings
  1

  2
none_device
  4
ISO_A4_(297.00_x_210.00_MM)
  6

 40
0.0
 41
0.0
 42
0.0
 43
0.0
 44
297.0
 45
210.0
 46
0.0
 47
0.0
 48
0.0
 49
0.0
140
0.0
141
0.0
142
1.0
143
1.0
 70
0
 72
1
 73
0
 74
0
  7

 75
0
147
1.0
148
0.0
149
0.0
100
AcDbLayout
  1
Layout1
 70
0
 71
1
 10
0.0
 20
0.0
 11
297.0
 21
210.0
 12
0.0
 22
0.0
 32
0.0
 14
0.0
 24
0.0
 34
0.0
 15
0.0
 25
0.0
 35
0.0
146
0.0
 13
0.0
 23
0.0
 33
0.0
 16
1.0
 26
0.0
 36
0.0
 17
0.0
 27
1.0
 37
0.0
 76
0
330
211
345
0
346
0
  0
ENDSEC
  0
EOF
