0
SECTION
2
HEADER
9
$ACADVER
1
AC1014
9
$HANDSEED
5
       269
9
$EXTMAX
10
297.0000000000
20
210.0000000000
9
$EXTMIN
10
0.0000000000
20
0.0000000000
9
$LIMMIN
10
0.0000000000
20
0.0000000000
9
$LIMMAX
10
297.0000000000
20
210.0000000000
9
$VIEWCTR
10
148.5000000000
20
105.0000000000
9
$VIEWSIZE
40
210.0000000000
9
$CLAYER
8
0
9
$LTSCALE
40
16.3350000000
9
$CELTYPE
6
BYLAYER
9
$DIMSCALE
40
1
9
$DIMASZ
40
3.0000000000
9
$DIMEXO
40
1.8562500000
9
$DIMDLI
40
11.2860000000
9
$DIMEXE
40
5.3460000000
9
$DIMCEN
40
2.6730000000
9
$DIMLFAC
40
1.0000000000
9
$DIMTXT
40
3.0000000000
9
$DIMTOL
70
1
9
$DIMLIM
70
0
9
$DIMTFAC
40
1.0000000000
9
$DIMTP
40
0.0100000000
9
$DIMTM
40
0.0100000000
9
$MEASUREMENT
70
1
0
ENDSEC
0
SECTION
2
CLASSES
0
ENDSEC
0
SECTION
2
TABLES
0
TABLE
2
VPORT
5
8
100
AcDbSymbolTable
70
2
0
VPORT
5
1F4
100
AcDbSymbolTableRecord
100
AcDbViewportTableRecord
2
*ACTIVE
70
0
10
0.0
20
0.0
11
1.0
21
1.0
12
148.5000000000
22
105.0000000000
13
0.0
23
0.0
14
1.0
24
1.0
15
0.0
25
0.0
16
0.0
26
0.0
36
1.0
17
0.0
27
0.0
37
0.0
40
210.0000000000
41
1.4142857143
42
50.0
43
0.0
44
0.0
50
0.0
51
0.0
71
0
72
100
73
1
74
1
75
0
76
0
77
0
78
0
0
ENDTAB
0
TABLE
2
LTYPE
5
5
100
AcDbSymbolTable
70
6
0
LTYPE
5
14
100
AcDbSymbolTableRecord
100
AcDbLinetypeTableRecord
2
BYBLOCK
70
0
3

72
65
73
0
40
0.0
0
LTYPE
5
15
100
AcDbSymbolTableRecord
100
AcDbLinetypeTableRecord
2
BYLAYER
70
0
3

72
65
73
0
40
0.0
0
LTYPE
5
16
100
AcDbSymbolTableRecord
100
AcDbLinetypeTableRecord
2
CONTINUOUS
70
64
3
Solid line
72
65
73
0
40
0
0
LTYPE
5
1F5
100
AcDbSymbolTableRecord
100
AcDbLinetypeTableRecord
2
CENTER
70
64
3
____ _ ____ _ ____ _ ____ _ ____ _ ____ _ ____
72
65
73
4
40
0.6
49
0.375
74
0
49
-0.075
74
0
49
0.075
74
0
49
-0.075
74
0
0
LTYPE
5
1F6
100
AcDbSymbolTableRecord
100
AcDbLinetypeTableRecord
2
HIDDEN
70
64
3
- - - - - - - - - - - - - - - - - - - -
72
65
73
2
40
0.2
49
0.1
74
0
49
-0.1
74
0
0
LTYPE
5
1F7
100
AcDbSymbolTableRecord
100
AcDbLinetypeTableRecord
2
PHANTOM
70
64
3
_____ _ _ _____ _ _ _____ _ _ _____
72
65
73
6
40
0.8
49
0.45
74
0
49
-0.05
74
0
49
0.1
74
0
49
-0.05
74
0
49
0.1
74
0
49
-0.05
74
0
0
LTYPE
5
1F8
100
AcDbSymbolTableRecord
100
AcDbLinetypeTableRecord
2
DOT
70
64
3
. . . . . . . . . . . . . . . . . . . .
72
65
73
2
40
0.2
49
0.1
74
0
49
-0.1
74
0
0
LTYPE
5
1F9
100
AcDbSymbolTableRecord
100
AcDbLinetypeTableRecord
2
DASHED
70
64
3
- - - - - - - - - - - - - - - - - - - -
72
65
73
2
40
0.2
49
0.1
74
0
49
-0.1
74
0
0
ENDTAB
0
TABLE
2
LAYER
5
2
100
AcDbSymbolTable
70
36
0
LAYER
5
10
100
AcDbSymbolTableRecord
100
AcDbLayerTableRecord
2
0
70
0
62
7
6
CONTINUOUS
0
LAYER
5
1FA
100
AcDbSymbolTableRecord
100
AcDbLayerTableRecord
2
DEFAULT_1
70
0
62
7
6
CENTER
0
LAYER
5
1FB
100
AcDbSymbolTableRecord
100
AcDbLayerTableRecord
2
DEFAULT_2
70
0
62
8
6
HIDDEN
0
LAYER
5
1FC
100
AcDbSymbolTableRecord
100
AcDbLayerTableRecord
2
DEFAULT_3
70
0
62
7
6
PHANTOM
0
LAYER
5
1FD
100
AcDbSymbolTableRecord
100
AcDbLayerTableRecord
2
ASSI
70
0
62
7
6
CONTINUOUS
0
LAYER
5
1FE
100
AcDbSymbolTableRecord
100
AcDbLayerTableRecord
2
COORDINATE
70
0
62
7
6
CONTINUOUS
0
LAYER
5
1FF
100
AcDbSymbolTableRecord
100
AcDbLayerTableRecord
2
COORD_ORIGINE
70
0
62
7
6
CONTINUOUS
0
LAYER
5
200
100
AcDbSymbolTableRecord
100
AcDbLayerTableRecord
2
CURVE
70
0
62
7
6
CONTINUOUS
0
LAYER
5
201
100
AcDbSymbolTableRecord
100
AcDbLayerTableRecord
2
DRAFT
70
0
62
7
6
CONTINUOUS
0
LAYER
5
202
100
AcDbSymbolTableRecord
100
AcDbLayerTableRecord
2
NOTE
70
0
62
7
6
CONTINUOUS
0
LAYER
5
203
100
AcDbSymbolTableRecord
100
AcDbLayerTableRecord
2
PIANI
70
0
62
7
6
CONTINUOUS
0
LAYER
5
204
100
AcDbSymbolTableRecord
100
AcDbLayerTableRecord
2
PIANI_ORIGINE
70
0
62
7
6
CONTINUOUS
0
LAYER
5
205
100
AcDbSymbolTableRecord
100
AcDbLayerTableRecord
2
PUNTI
70
0
62
7
6
CONTINUOUS
0
LAYER
5
206
100
AcDbSymbolTableRecord
100
AcDbLayerTableRecord
2
RACCORDO
70
0
62
7
6
CONTINUOUS
0
LAYER
5
207
100
AcDbSymbolTableRecord
100
AcDbLayerTableRecord
2
SNAPLINE
70
0
62
7
6
CONTINUOUS
0
LAYER
5
208
100
AcDbSymbolTableRecord
100
AcDbLayerTableRecord
2
SUPERFICI
70
0
62
7
6
CONTINUOUS
0
LAYER
5
209
100
AcDbSymbolTableRecord
100
AcDbLayerTableRecord
2
TRASH
70
0
62
7
6
CONTINUOUS
0
ENDTAB
0
TABLE
2
STYLE
5
3
100
AcDbSymbolTable
70
1
0
STYLE
5
11
100
AcDbSymbolTableRecord
100
AcDbTextStyleTableRecord
2
STANDARD
70
0
40
0.0
41
0.8000000000
50
0.0
71
0
42
0.2
3
txt
4

0
ENDTAB
0
TABLE
2
VIEW
5
6
100
AcDbSymbolTable
70
0
0
ENDTAB
0
TABLE
2
UCS
5
7
100
AcDbSymbolTable
70
0
0
ENDTAB
0
TABLE
2
APPID
5
9
100
AcDbSymbolTable
70
1
0
APPID
5
20A
100
AcDbSymbolTableRecord
100
AcDbRegAppTableRecord
2
ACAD
70
0
0
ENDTAB
0
TABLE
2
DIMSTYLE
5
A
100
AcDbSymbolTable
70
1
0
DIMSTYLE
105
20B
100
AcDbSymbolTableRecord
100
AcDbDimStyleTableRecord
2
STANDARD
70
0
3

4

5

6

7

40
1.0
41
3.0000000000
42
0.0625
43
0.38
44
0.18
45
0.0
46
0.0
47
0.0100000000
48
0.0100000000
140
3.0000000000
141
0.09
142
0.0
143
25.4
144
1.0000000000
145
0.0
146
1.0000000000
147
0.09
71
1
72
0
73
0
74
0
75
0
76
0
77
1
78
8
170
0
171
2
172
0
173
0
174
0
175
0
176
0
177
0
178
0
270
2
271
2
272
2
273
2
274
2
340
11
275
0
280
0
281
0
282
0
283
1
284
8
285
0
286
0
287
3
288
0
0
DIMSTYLE
105
20C
100
AcDbSymbolTableRecord
100
AcDbDimStyleTableRecord
2
DIMSTYLE_1
70
0
3

4

5

6

7

40
1.0
41
3.0000000000
42
0.0625
43
0.38
44
0.18
45
0.0
46
0.0
47
0.0000000000
48
0.0000000000
140
3.0000000000
141
0.09
142
0.0
143
25.4
144
1.0000000000
145
0.0
146
1.0000000000
147
0.09
71
0
72
0
73
0
74
0
75
0
76
0
77
1
78
8
170
0
171
2
172
0
173
0
174
0
175
0
176
0
177
0
178
0
270
2
271
2
272
2
273
2
274
2
340
11
275
0
280
0
281
0
282
0
283
1
284
8
285
0
286
0
287
3
288
0
0
ENDTAB
0
TABLE
2
BLOCK_RECORD
5
1
100
AcDbSymbolTable
70
0
0
BLOCK_RECORD
5
1B
100
AcDbSymbolTableRecord
100
AcDbBlockTableRecord
2
*MODEL_SPACE
0
BLOCK_RECORD
5
1C
100
AcDbSymbolTableRecord
100
AcDbBlockTableRecord
2
*PAPER_SPACE
0
BLOCK_RECORD
5
20D
100
AcDbSymbolTableRecord
100
AcDbBlockTableRecord
2
*D0
0
BLOCK_RECORD
5
20E
100
AcDbSymbolTableRecord
100
AcDbBlockTableRecord
2
*D1
0
BLOCK_RECORD
5
20F
100
AcDbSymbolTableRecord
100
AcDbBlockTableRecord
2
*D2
0
ENDTAB
0
ENDSEC
0
SECTION
2
BLOCKS
0
BLOCK
5
1E
100
AcDbEntity
8
0
100
AcDbBlockBegin
2
*MODEL_SPACE
70
0
10
0.0
20
0.0
30
0.0
3
*MODEL_SPACE
1

0
ENDBLK
5
1F
100
AcDbEntity
8
0
100
AcDbBlockEnd
0
BLOCK
5
20
100
AcDbEntity
8
0
100
AcDbBlockBegin
2
*PAPER_SPACE
70
0
10
0.0
20
0.0
30
0.0
3
*PAPER_SPACE
1

0
ENDBLK
5
21
100
AcDbEntity
8
0
100
AcDbBlockEnd
0
BLOCK
5
210
100
AcDbEntity
8
0
100
AcDbBlockBegin
62
7
6
CONTINUOUS
2
*D0
70
65
10
0.0000000000
20
0.0000000000
3
*D0
1

0
TEXT
5
211
100
AcDbEntity
8
0
100
AcDbText
62
7
6
CONTINUOUS
10
-4.4072065592
20
30.6000000000
7
STANDARD
40
3.0000000000
1
22,2
41
0.7321428732
72
0
100
AcDbText
0
LINE
5
212
100
AcDbEntity
8
0
100
AcDbLine
62
7
6
CONTINUOUS
10
-11.1000000000
20
21.5501218439
11
-11.1000000000
21
31.3500000000
0
LINE
5
213
100
AcDbEntity
8
0
100
AcDbLine
62
7
6
CONTINUOUS
10
11.1000000000
20
21.5501218439
11
11.1000000000
21
31.3500000000
0
LINE
5
214
100
AcDbEntity
8
0
100
AcDbLine
62
7
6
CONTINUOUS
10
-11.1000000000
20
29.8500000000
11
0.0000000000
21
29.8500000000
0
LINE
5
215
100
AcDbEntity
8
0
100
AcDbLine
62
7
6
CONTINUOUS
10
11.1000000000
20
29.8500000000
11
0.0000000000
21
29.8500000000
0
SOLID
5
216
100
AcDbEntity
8
0
100
AcDbTrace
62
7
6
CONTINUOUS
10
-8.1000000000
20
30.8000000000
11
-11.1000000000
21
29.8500000000
12
-8.1000000000
22
28.9000000000
13
-8.1000000000
23
28.9000000000
0
SOLID
5
217
100
AcDbEntity
8
0
100
AcDbTrace
62
7
6
CONTINUOUS
10
8.1000000000
20
28.9000000000
11
11.1000000000
21
29.8500000000
12
8.1000000000
22
30.8000000000
13
8.1000000000
23
30.8000000000
0
ENDBLK
5
218
100
AcDbEntity
8
0
100
AcDbBlockEnd
0
BLOCK
5
219
100
AcDbEntity
8
0
100
AcDbBlockBegin
62
7
6
CONTINUOUS
2
*D1
70
65
10
0.0000000000
20
0.0000000000
3
*D1
1

0
TEXT
5
21A
100
AcDbEntity
8
0
100
AcDbText
62
7
6
CONTINUOUS
10
20.6040311005
20
-3.3704525184
7
STANDARD
40
3.0000000000
1
43,7
50
90.0000000000
41
0.7142857143
72
0
100
AcDbText
0
LINE
5
21B
100
AcDbEntity
8
0
100
AcDbLine
62
7
6
CONTINUOUS
10
10.8001218439
20
21.8500000000
11
22.8540311005
21
21.8500000000
0
LINE
5
21C
100
AcDbEntity
8
0
100
AcDbLine
62
7
6
CONTINUOUS
10
10.8001218439
20
-21.8500000000
11
22.8540311005
21
-21.8500000000
0
LINE
5
21D
100
AcDbEntity
8
0
100
AcDbLine
62
7
6
CONTINUOUS
10
21.3540311005
20
21.8500000000
11
21.3540311005
21
0.0000000000
0
LINE
5
21E
100
AcDbEntity
8
0
100
AcDbLine
62
7
6
CONTINUOUS
10
21.3540311005
20
-21.8500000000
11
21.3540311005
21
0.0000000000
0
SOLID
5
21F
100
AcDbEntity
8
0
100
AcDbTrace
62
7
6
CONTINUOUS
10
22.3040311005
20
18.8500000000
11
21.3540311005
21
21.8500000000
12
20.4040311005
22
18.8500000000
13
20.4040311005
23
18.8500000000
0
SOLID
5
220
100
AcDbEntity
8
0
100
AcDbTrace
62
7
6
CONTINUOUS
10
20.4040311005
20
-18.8500000000
11
21.3540311005
21
-21.8500000000
12
22.3040311005
22
-18.8500000000
13
22.3040311005
23
-18.8500000000
0
ENDBLK
5
221
100
AcDbEntity
8
0
100
AcDbBlockEnd
0
BLOCK
5
222
100
AcDbEntity
8
0
100
AcDbBlockBegin
62
7
6
CONTINUOUS
2
*D2
70
65
10
0.0000000000
20
0.0000000000
3
*D2
1

0
TEXT
5
223
100
AcDbEntity
8
0
100
AcDbText
62
7
6
CONTINUOUS
10
-29.8567618104
20
30.6000000000
7
STANDARD
40
3.0000000000
1
7,9
41
0.7142857143
72
0
100
AcDbText
0
LINE
5
224
100
AcDbEntity
8
0
100
AcDbLine
62
7
6
CONTINUOUS
10
-23.1250214528
20
21.5501218439
11
-23.1250214528
21
31.3500000000
0
LINE
5
225
100
AcDbEntity
8
0
100
AcDbLine
62
7
6
CONTINUOUS
10
-31.0250214528
20
0.5000000000
11
-31.0250214528
21
31.3500000000
0
LINE
5
226
100
AcDbEntity
8
0
100
AcDbLine
62
7
6
CONTINUOUS
10
-23.1250214528
20
29.8500000000
11
-27.0750214528
21
29.8500000000
0
LINE
5
227
100
AcDbEntity
8
0
100
AcDbLine
62
7
6
CONTINUOUS
10
-31.0250214528
20
29.8500000000
11
-27.0750214528
21
29.8500000000
0
SOLID
5
228
100
AcDbEntity
8
0
100
AcDbTrace
62
7
6
CONTINUOUS
10
-26.1250214528
20
28.9000000000
11
-23.1250214528
21
29.8500000000
12
-26.1250214528
22
30.8000000000
13
-26.1250214528
23
30.8000000000
0
SOLID
5
229
100
AcDbEntity
8
0
100
AcDbTrace
62
7
6
CONTINUOUS
10
-28.0250214528
20
30.8000000000
11
-31.0250214528
21
29.8500000000
12
-28.0250214528
22
28.9000000000
13
-28.0250214528
23
28.9000000000
0
ENDBLK
5
22A
100
AcDbEntity
8
0
100
AcDbBlockEnd
0
ENDSEC
0
SECTION
2
ENTITIES
0
DIMENSION
5
22B
100
AcDbEntity
8
0
100
AcDbDimension
62
7
6
CONTINUOUS
2
*D0
10
11.1000000000
20
29.8500000000
11
-0.0143493200
21
32.1000000000
70
160
3
DIMSTYLE_1
100
AcDbAlignedDimension
13
-11.1000000000
23
21.5501218439
14
11.1000000000
24
21.5501218439
100
AcDbRotatedDimension
0
DIMENSION
5
22C
100
AcDbEntity
8
0
100
AcDbDimension
62
7
6
CONTINUOUS
2
*D1
10
21.3540311005
20
-21.8500000000
11
19.1040311005
21
0.9152617674
70
160
3
DIMSTYLE_1
100
AcDbAlignedDimension
13
10.8001218439
23
21.8500000000
14
10.8001218439
24
-21.8500000000
50
270.000000
100
AcDbRotatedDimension
0
DIMENSION
5
22D
100
AcDbEntity
8
0
100
AcDbDimension
62
7
6
CONTINUOUS
2
*D2
10
-31.0250214528
20
29.8500000000
11
-26.6424760961
21
32.1000000000
70
160
3
DIMSTYLE_1
100
AcDbAlignedDimension
13
-23.1250214528
23
21.5501218439
14
-31.0250214528
24
0.5000000000
50
180.000000
100
AcDbRotatedDimension
0
LINE
5
22E
100
AcDbEntity
8
0
100
AcDbLine
62
7
6
CONTINUOUS
10
-10.3001218439
20
-21.8500000000
11
10.3001218439
21
-21.8500000000
0
LINE
5
22F
100
AcDbEntity
8
0
100
AcDbLine
62
9
6
CONTINUOUS
10
10.1999557720
20
-21.7498339282
11
-10.1999557720
21
-21.7498339282
0
LINE
5
230
100
AcDbEntity
8
0
100
AcDbLine
62
9
6
CONTINUOUS
10
10.1879786180
20
-20.3518214929
11
-10.1879786180
21
-20.3518214929
0
LINE
5
231
100
AcDbEntity
8
0
100
AcDbLine
62
7
6
CONTINUOUS
10
-11.1000000000
20
-21.0501218439
11
-11.1000000000
21
21.0501218439
0
LINE
5
232
100
AcDbEntity
8
0
100
AcDbLine
62
9
6
CONTINUOUS
10
10.3001218439
20
21.8500000000
11
10.1999557720
21
21.7498339282
0
LINE
5
233
100
AcDbEntity
8
0
100
AcDbLine
62
9
6
CONTINUOUS
10
10.1999557720
20
-21.7498339282
11
10.3001218439
21
-21.8500000000
0
LINE
5
234
100
AcDbEntity
8
0
100
AcDbLine
62
9
6
CONTINUOUS
10
11.1000000000
20
21.0501218439
11
10.9998339282
21
20.9499557720
0
LINE
5
235
100
AcDbEntity
8
0
100
AcDbLine
62
9
6
CONTINUOUS
10
10.9998339282
20
-20.9499557720
11
11.1000000000
21
-21.0501218439
0
LINE
5
236
100
AcDbEntity
8
0
100
AcDbLine
62
9
6
CONTINUOUS
10
-11.1000000000
20
-21.0501218439
11
-10.9998339282
21
-20.9499557720
0
LINE
5
237
100
AcDbEntity
8
0
100
AcDbLine
62
9
6
CONTINUOUS
10
-10.3001218439
20
-21.8500000000
11
-10.1999557720
21
-21.7498339282
0
LINE
5
238
100
AcDbEntity
8
0
100
AcDbLine
62
9
6
CONTINUOUS
10
-10.9998339282
20
20.9499557720
11
-11.1000000000
21
21.0501218439
0
LINE
5
239
100
AcDbEntity
8
0
100
AcDbLine
62
9
6
CONTINUOUS
10
-10.1999557720
20
21.7498339282
11
-10.3001218439
21
21.8500000000
0
LINE
5
23A
100
AcDbEntity
8
0
100
AcDbLine
62
7
6
CONTINUOUS
10
11.1000000000
20
-21.0501218439
11
11.1000000000
21
21.0501218439
0
LINE
5
23B
100
AcDbEntity
8
0
100
AcDbLine
62
9
6
CONTINUOUS
10
10.1879786180
20
20.3518214929
11
-10.1879786180
21
20.3518214929
0
LINE
5
23C
100
AcDbEntity
8
0
100
AcDbLine
62
9
6
CONTINUOUS
10
10.1999557720
20
21.7498339282
11
-10.1999557720
21
21.7498339282
0
LINE
5
23D
100
AcDbEntity
8
0
100
AcDbLine
62
7
6
CONTINUOUS
10
-10.3001218439
20
21.8500000000
11
10.3001218439
21
21.8500000000
0
LINE
5
23E
100
AcDbEntity
8
0
100
AcDbLine
62
7
6
CONTINUOUS
10
-28.8635318645
20
-21.7498339282
11
-23.1250214528
21
-21.8500000000
0
LINE
5
23F
100
AcDbEntity
8
0
100
AcDbLine
62
9
6
CONTINUOUS
10
-28.8635318645
20
-20.9499557720
11
-23.1250214528
21
-21.0501218439
0
LINE
5
240
100
AcDbEntity
8
0
100
AcDbLine
62
9
6
CONTINUOUS
10
-29.5497025577
20
-20.2975499689
11
-30.3338813663
21
-20.3518203840
0
LINE
5
241
100
AcDbEntity
8
0
100
AcDbLine
62
7
6
CONTINUOUS
10
-23.1250214528
20
-21.8500000000
11
-23.1250214528
21
21.8500000000
0
LINE
5
242
100
AcDbEntity
8
0
100
AcDbLine
62
9
6
CONTINUOUS
10
-23.1250214528
20
21.0501218439
11
-28.8635318645
21
20.9499557720
0
LINE
5
243
100
AcDbEntity
8
0
100
AcDbLine
62
7
6
CONTINUOUS
10
-23.1250214528
20
21.8500000000
11
-28.8635318619
21
21.7498339282
0
LINE
5
244
100
AcDbEntity
8
0
100
AcDbLine
62
9
6
CONTINUOUS
10
-29.5497025577
20
20.2975499689
11
-30.3338976082
21
20.3518214910
0
ARC
5
245
100
AcDbEntity
8
0
100
AcDbCircle
62
7
6
CONTINUOUS
10
-28.8373532548
20
20.2500623854
40
1.5000000000
100
AcDbArc
50
91.0000000000
51
176.1101008379
0
ARC
5
246
100
AcDbEntity
8
0
100
AcDbCircle
62
7
6
CONTINUOUS
10
268.9749785472
20
-0.0000000000
40
300.0000000000
100
AcDbArc
50
176.1101008379
51
183.8898991621
0
ARC
5
247
100
AcDbEntity
8
0
100
AcDbCircle
62
7
6
CONTINUOUS
10
-28.8373532548
20
-20.2500623854
40
1.5000000000
100
AcDbArc
50
183.8898991621
51
269.0000000000
0
SPLINE
5
248
100
AcDbEntity
8
0
100
AcDbSpline
62
7
6
CONTINUOUS
70
0
71
3
72
15
73
11
74
9
42
0.0000001000
43
0.0000001000
44
0.0000000001
12
-1.2544455271
22
0.0000000000
32
0.0000000000
13
-0.0000000000
23
1.2544455271
33
0.0000000000
40
0.0000000000
40
0.0000000000
40
0.0000000000
40
0.0000000000
40
0.1249999833
40
0.2499998186
40
0.3750000602
40
0.5000001926
40
0.6250002680
40
0.7500003740
40
0.8750000775
40
1.0000000000
40
1.0000000000
40
1.0000000000
40
1.0000000000
10
-10.3001218439
20
-21.8500000000
30
0.0000000000
10
-10.3523904005
20
-21.8500000000
30
0.0000000000
10
-10.4572170867
20
-21.8396905663
30
0.0000000000
10
-10.6081911771
20
-21.7938865399
30
0.0000000000
10
-10.7473896012
20
-21.7194986010
30
0.0000000000
10
-10.8693819523
20
-21.6193816405
30
0.0000000000
10
-10.9694988074
20
-21.4973892779
30
0.0000000000
10
-11.0438866238
20
-21.3581909457
30
0.0000000000
10
-11.0896905792
20
-21.2072169803
30
0.0000000000
10
-11.1000000000
20
-21.1023903751
30
0.0000000000
10
-11.1000000000
20
-21.0501218439
30
0.0000000000
11
-10.3001218439
21
-21.8500000000
31
0.0000000000
11
-10.4561728020
21
-21.8346339150
31
0.0000000000
11
-10.6062283994
21
-21.7891226238
31
0.0000000000
11
-10.7445219447
21
-21.7152104120
31
0.0000000000
11
-10.8657360606
21
-21.6157357172
31
0.0000000000
11
-10.9652106418
21
-21.4945216007
31
0.0000000000
11
-11.0391227167
21
-21.3562281751
31
0.0000000000
11
-11.0846339299
21
-21.2061727269
31
0.0000000000
11
-11.1000000000
21
-21.0501218439
31
0.0000000000
0
SPLINE
5
249
100
AcDbEntity
8
0
100
AcDbSpline
62
7
6
CONTINUOUS
70
0
71
3
72
15
73
11
74
9
42
0.0000001000
43
0.0000001000
44
0.0000000001
12
0.0000000000
22
1.2544455271
32
0.0000000000
13
1.2544455271
23
0.0000000000
33
0.0000000000
40
0.0000000000
40
0.0000000000
40
0.0000000000
40
0.0000000000
40
0.1249999833
40
0.2499998186
40
0.3750000602
40
0.5000001926
40
0.6250002680
40
0.7500003740
40
0.8750000775
40
1.0000000000
40
1.0000000000
40
1.0000000000
40
1.0000000000
10
-11.1000000000
20
21.0501218439
30
0.0000000000
10
-11.1000000000
20
21.1023904005
30
0.0000000000
10
-11.0896905663
20
21.2072170867
30
0.0000000000
10
-11.0438865399
20
21.3581911771
30
0.0000000000
10
-10.9694986010
20
21.4973896012
30
0.0000000000
10
-10.8693816405
20
21.6193819523
30
0.0000000000
10
-10.7473892779
20
21.7194988074
30
0.0000000000
10
-10.6081909457
20
21.7938866238
30
0.0000000000
10
-10.4572169803
20
21.8396905792
30
0.0000000000
10
-10.3523903751
20
21.8500000000
30
0.0000000000
10
-10.3001218439
20
21.8500000000
30
0.0000000000
11
-11.1000000000
21
21.0501218439
31
0.0000000000
11
-11.0846339150
21
21.2061728020
31
0.0000000000
11
-11.0391226238
21
21.3562283994
31
0.0000000000
11
-10.9652104120
21
21.4945219447
31
0.0000000000
11
-10.8657357172
21
21.6157360606
31
0.0000000000
11
-10.7445216007
21
21.7152106418
31
0.0000000000
11
-10.6062281751
21
21.7891227167
31
0.0000000000
11
-10.4561727269
21
21.8346339299
31
0.0000000000
11
-10.3001218439
21
21.8500000000
31
0.0000000000
0
SPLINE
5
24A
100
AcDbEntity
8
0
100
AcDbSpline
62
7
6
CONTINUOUS
70
0
71
3
72
15
73
11
74
9
42
0.0000001000
43
0.0000001000
44
0.0000000001
12
0.0000000000
22
-1.2544455271
32
0.0000000000
13
-1.2544455271
23
0.0000000000
33
0.0000000000
40
0.0000000000
40
0.0000000000
40
0.0000000000
40
0.0000000000
40
0.1249999833
40
0.2499998186
40
0.3750000602
40
0.5000001926
40
0.6250002680
40
0.7500003740
40
0.8750000775
40
1.0000000000
40
1.0000000000
40
1.0000000000
40
1.0000000000
10
11.1000000000
20
-21.0501218439
30
0.0000000000
10
11.1000000000
20
-21.1023904005
30
0.0000000000
10
11.0896905663
20
-21.2072170867
30
0.0000000000
10
11.0438865399
20
-21.3581911771
30
0.0000000000
10
10.9694986010
20
-21.4973896012
30
0.0000000000
10
10.8693816405
20
-21.6193819523
30
0.0000000000
10
10.7473892779
20
-21.7194988074
30
0.0000000000
10
10.6081909457
20
-21.7938866238
30
0.0000000000
10
10.4572169803
20
-21.8396905792
30
0.0000000000
10
10.3523903751
20
-21.8500000000
30
0.0000000000
10
10.3001218439
20
-21.8500000000
30
0.0000000000
11
11.1000000000
21
-21.0501218439
31
0.0000000000
11
11.0846339150
21
-21.2061728020
31
0.0000000000
11
11.0391226238
21
-21.3562283994
31
0.0000000000
11
10.9652104120
21
-21.4945219447
31
0.0000000000
11
10.8657357172
21
-21.6157360606
31
0.0000000000
11
10.7445216007
21
-21.7152106418
31
0.0000000000
11
10.6062281751
21
-21.7891227167
31
0.0000000000
11
10.4561727269
21
-21.8346339299
31
0.0000000000
11
10.3001218439
21
-21.8500000000
31
0.0000000000
0
SPLINE
5
24B
100
AcDbEntity
8
0
100
AcDbSpline
62
7
6
CONTINUOUS
70
0
71
3
72
15
73
11
74
9
42
0.0000001000
43
0.0000001000
44
0.0000000001
12
1.2544455271
22
0.0000000000
32
0.0000000000
13
0.0000000000
23
-1.2544455271
33
0.0000000000
40
0.0000000000
40
0.0000000000
40
0.0000000000
40
0.0000000000
40
0.1249999833
40
0.2499998186
40
0.3750000602
40
0.5000001926
40
0.6250002680
40
0.7500003740
40
0.8750000775
40
1.0000000000
40
1.0000000000
40
1.0000000000
40
1.0000000000
10
10.3001218439
20
21.8500000000
30
0.0000000000
10
10.3523904005
20
21.8500000000
30
0.0000000000
10
10.4572170867
20
21.8396905663
30
0.0000000000
10
10.6081911771
20
21.7938865399
30
0.0000000000
10
10.7473896012
20
21.7194986010
30
0.0000000000
10
10.8693819523
20
21.6193816405
30
0.0000000000
10
10.9694988074
20
21.4973892779
30
0.0000000000
10
11.0438866238
20
21.3581909457
30
0.0000000000
10
11.0896905792
20
21.2072169803
30
0.0000000000
10
11.1000000000
20
21.1023903751
30
0.0000000000
10
11.1000000000
20
21.0501218439
30
0.0000000000
11
10.3001218439
21
21.8500000000
31
0.0000000000
11
10.4561728020
21
21.8346339150
31
0.0000000000
11
10.6062283994
21
21.7891226238
31
0.0000000000
11
10.7445219447
21
21.7152104120
31
0.0000000000
11
10.8657360606
21
21.6157357172
31
0.0000000000
11
10.9652106418
21
21.4945216007
31
0.0000000000
11
11.0391227167
21
21.3562281751
31
0.0000000000
11
11.0846339299
21
21.2061727269
31
0.0000000000
11
11.1000000000
21
21.0501218439
31
0.0000000000
0
SPLINE
5
24C
100
AcDbEntity
8
0
100
AcDbSpline
62
9
6
CONTINUOUS
70
0
71
3
72
14
73
10
74
8
42
0.0000001000
43
0.0000001000
44
0.0000000001
12
0.0007802866
22
-1.3981536136
32
0.0000000000
13
0.5887295681
23
-1.2681607279
33
0.0000000000
40
0.0000000000
40
0.0000000000
40
0.0000000000
40
0.0000000000
40
0.2238245497
40
0.4343072544
40
0.6220871212
40
0.7786146694
40
0.8970349860
40
0.9719265690
40
1.0000000000
40
1.0000000000
40
1.0000000000
40
1.0000000000
10
10.1879786180
20
-20.3518214929
30
0.0000000000
10
10.1880368338
20
-20.4561351939
30
0.0000000000
10
10.1882719205
20
-20.6585586624
30
0.0000000000
10
10.1894038928
20
-20.9484236755
30
0.0000000000
10
10.1901936978
20
-21.2071592849
30
0.0000000000
10
10.1936592483
20
-21.4223034545
30
0.0000000000
10
10.1915273222
20
-21.5865671083
30
0.0000000000
10
10.2014164959
20
-21.6874036678
30
0.0000000000
10
10.1944465524
20
-21.7379667206
30
0.0000000000
10
10.1999557720
20
-21.7498339282
30
0.0000000000
11
10.1879786180
21
-20.3518214929
31
0.0000000000
11
10.1884265997
21
-20.6647623240
31
0.0000000000
11
10.1894011495
21
-20.9590479103
31
0.0000000000
11
10.1908593992
21
-21.2215890008
31
0.0000000000
11
10.1927342177
21
-21.4404305613
31
0.0000000000
11
10.1949445815
21
-21.6059856258
31
0.0000000000
11
10.1973872222
21
-21.7106670850
31
0.0000000000
11
10.1999557720
21
-21.7498339282
31
0.0000000000
0
SPLINE
5
24D
100
AcDbEntity
8
0
100
AcDbSpline
62
9
6
CONTINUOUS
70
0
71
3
72
14
73
10
74
8
42
0.0000001000
43
0.0000001000
44
0.0000000001
12
0.0007765848
22
-0.6527078142
32
0.0000000000
13
0.4588215053
23
-0.4642315371
33
0.0000000000
40
0.0000000000
40
0.0000000000
40
0.0000000000
40
0.0000000000
40
0.2229915677
40
0.4336500918
40
0.6216443072
40
0.7783822279
40
0.8969387602
40
0.9718696985
40
1.0000000000
40
1.0000000000
40
1.0000000000
40
1.0000000000
10
10.9878567742
20
-20.2975499689
30
0.0000000000
10
10.9879144981
20
-20.3460660818
30
0.0000000000
10
10.9881640152
20
-20.4404346945
30
0.0000000000
10
10.9892333764
20
-20.5756007472
30
0.0000000000
10
10.9902098656
20
-20.6966809797
30
0.0000000000
10
10.9931514510
20
-20.7967530680
30
0.0000000000
10
10.9923096783
20
-20.8746639089
30
0.0000000000
10
10.9997729353
20
-20.9195681217
30
0.0000000000
10
10.9955316657
20
-20.9456027810
30
0.0000000000
10
10.9998339282
20
-20.9499557720
30
0.0000000000
11
10.9878567742
21
-20.2975499689
31
0.0000000000
11
10.9883023849
21
-20.4430977285
31
0.0000000000
11
10.9892765926
21
-20.5805928393
31
0.0000000000
11
10.9907355042
21
-20.7032895464
31
0.0000000000
11
10.9926127877
21
-20.8055764589
31
0.0000000000
11
10.9948257927
21
-20.8829276383
31
0.0000000000
11
10.9972724077
21
-20.9317744478
31
0.0000000000
11
10.9998339282
21
-20.9499557720
31
0.0000000000
0
SPLINE
5
24E
100
AcDbEntity
8
0
100
AcDbSpline
62
9
6
CONTINUOUS
70
0
71
3
72
12
73
8
74
6
42
0.0000001000
43
0.0000001000
44
0.0000000001
12
-0.1999866462
22
0.7792820197
32
0.0000000000
13
-0.8045335428
23
0.0009504912
33
0.0000000000
40
0.0000000000
40
0.0000000000
40
0.0000000000
40
0.0000000000
40
0.0567682445
40
0.2009962621
40
0.4209526986
40
0.6959989235
40
1.0000000000
40
1.0000000000
40
1.0000000000
40
1.0000000000
10
10.9878567742
20
20.2975499689
30
0.0000000000
10
10.9840724772
20
20.3122961263
30
0.0000000000
10
10.9116560657
20
20.3144901892
30
0.0000000000
10
10.8161530888
20
20.3350473693
30
0.0000000000
10
10.6365452645
20
20.3416319971
30
0.0000000000
10
10.4256401279
20
20.3503770952
30
0.0000000000
10
10.2695049724
20
20.3517251742
30
0.0000000000
10
10.1879786180
20
20.3518214910
30
0.0000000000
11
10.9878567742
21
20.2975499689
31
0.0000000000
11
10.9453057818
21
20.3141434497
31
0.0000000000
11
10.8302436464
21
20.3291481686
31
0.0000000000
11
10.6536871217
21
20.3411274820
31
0.0000000000
11
10.4325408114
21
20.3489344170
31
0.0000000000
11
10.1879786180
21
20.3518214910
31
0.0000000000
0
SPLINE
5
24F
100
AcDbEntity
8
0
100
AcDbSpline
62
9
6
CONTINUOUS
70
0
71
3
72
11
73
7
74
5
42
0.0000001000
43
0.0000001000
44
0.0000000001
12
-0.0481810396
22
-40.7036233637
32
0.0000000000
13
0.0481810304
23
-40.7036233637
33
0.0000000000
40
0.0000000000
40
0.0000000000
40
0.0000000000
40
0.0000000000
40
0.2498559490
40
0.4999999999
40
0.7501440508
40
1.0000000000
40
1.0000000000
40
1.0000000000
40
1.0000000000
10
10.1879786180
20
20.3518214929
30
0.0000000000
10
10.1839658449
20
16.9618073445
30
0.0000000000
10
10.1779506743
20
10.1778675645
30
0.0000000000
10
10.1749448506
20
0.0000000026
30
0.0000000000
10
10.1779506737
20
-10.1778675609
30
0.0000000000
10
10.1839658457
20
-16.9618073429
30
0.0000000000
10
10.1879786180
20
-20.3518214929
30
0.0000000000
11
10.1879786180
21
20.3518214929
31
0.0000000000
11
10.1789559031
21
10.1817759252
31
0.0000000000
11
10.1759471766
21
0.0000000029
31
0.0000000000
11
10.1789559029
21
-10.1817759203
31
0.0000000000
11
10.1879786180
21
-20.3518214929
31
0.0000000000
0
SPLINE
5
250
100
AcDbEntity
8
0
100
AcDbSpline
62
9
6
CONTINUOUS
70
0
71
3
72
11
73
7
74
5
42
0.0000001000
43
0.0000001000
44
0.0000000001
12
-0.0481810384
22
-40.5950802632
32
0.0000000000
13
0.0481810293
23
-40.5950802633
33
0.0000000000
40
0.0000000000
40
0.0000000000
40
0.0000000000
40
0.0000000000
40
0.2498555179
40
0.5000002270
40
0.7501449323
40
1.0000000000
40
1.0000000000
40
1.0000000000
40
1.0000000000
10
10.9878567742
20
20.2975499689
30
0.0000000000
10
10.9838440081
20
16.9165817008
30
0.0000000000
10
10.9778288311
20
10.1507293584
30
0.0000000000
10
10.9748230015
20
-0.0000091639
30
0.0000000000
10
10.9778288396
20
-10.1507415936
30
0.0000000000
10
10.9838440161
20
-16.9165877933
30
0.0000000000
10
10.9878567742
20
-20.2975499689
30
0.0000000000
11
10.9878567742
21
20.2975499689
31
0.0000000000
11
10.9788340696
21
10.1546420336
31
0.0000000000
11
10.9758253327
21
-0.0000092139
31
0.0000000000
11
10.9788340803
21
-10.1546603114
31
0.0000000000
11
10.9878567742
21
-20.2975499689
31
0.0000000000
0
SPLINE
5
251
100
AcDbEntity
8
0
100
AcDbSpline
62
9
6
CONTINUOUS
70
0
71
3
72
12
73
8
74
6
42
0.0000001000
43
0.0000001000
44
0.0000000001
12
-0.0003810896
22
1.2511678077
32
0.0000000000
13
-1.2511678077
23
0.0003810895
33
0.0000000000
40
0.0000000000
40
0.0000000000
40
0.0000000000
40
0.0000000000
40
0.1999878838
40
0.3999920063
40
0.6000028980
40
0.8000087765
40
1.0000000000
40
1.0000000000
40
1.0000000000
40
1.0000000000
10
10.9998339282
20
20.9499557720
30
0.0000000000
10
10.9998085237
20
21.0333619061
30
0.0000000000
10
10.9732294802
20
21.2013473936
30
0.0000000000
10
10.8577221592
20
21.4277848786
30
0.0000000000
10
10.6777896628
20
21.6077188276
30
0.0000000000
10
10.4513509696
20
21.7232286813
30
0.0000000000
10
10.2833632990
20
21.7498085234
30
0.0000000000
10
10.1999557721
20
21.7498339282
30
0.0000000000
11
10.9998339282
21
20.9499557720
31
0.0000000000
11
10.9606256012
21
21.1970831920
31
0.0000000000
11
10.8469868447
21
21.4200308441
31
0.0000000000
11
10.6700360660
21
21.5969830502
31
0.0000000000
11
10.4470872152
21
21.7106242930
31
0.0000000000
11
10.1999557721
21
21.7498339282
31
0.0000000000
0
SPLINE
5
252
100
AcDbEntity
8
0
100
AcDbSpline
62
9
6
CONTINUOUS
70
0
71
3
72
14
73
10
74
8
42
0.0000001000
43
0.0000001000
44
0.0000000001
12
-0.5896908548
22
-1.2677140030
32
0.0000000000
13
-0.0007800886
23
-1.3981536000
33
0.0000000000
40
0.0000000000
40
0.0000000000
40
0.0000000000
40
0.0000000000
40
0.0280715852
40
0.1029638271
40
0.2213794689
40
0.3779055901
40
0.5656904241
40
0.7761677789
40
1.0000000000
40
1.0000000000
40
1.0000000000
40
1.0000000000
10
10.1999557720
20
21.7498339282
30
0.0000000000
10
10.1944379197
20
21.7379716810
30
0.0000000000
10
10.2014284644
20
21.6873997205
30
0.0000000000
10
10.1915207286
20
21.5865743731
30
0.0000000000
10
10.1936628647
20
21.4223087739
30
0.0000000000
10
10.1901930470
20
21.2071669824
30
0.0000000000
10
10.1894041325
20
20.9484315634
30
0.0000000000
10
10.1882719223
20
20.6585633683
30
0.0000000000
10
10.1880368210
20
20.4561387681
30
0.0000000000
10
10.1879786180
20
20.3518214929
30
0.0000000000
11
10.1999557720
21
21.7498339282
31
0.0000000000
11
10.1973875318
21
21.7106696515
31
0.0000000000
11
10.1949448237
21
21.6059872732
31
0.0000000000
11
10.1927347732
21
21.4404387430
31
0.0000000000
11
10.1908598442
21
21.2215991806
31
0.0000000000
11
10.1894011627
21
20.9590511501
31
0.0000000000
11
10.1884266564
21
20.6647730465
31
0.0000000000
11
10.1879786180
21
20.3518214929
31
0.0000000000
0
SPLINE
5
253
100
AcDbEntity
8
0
100
AcDbSpline
62
9
6
CONTINUOUS
70
0
71
3
72
14
73
10
74
8
42
0.0000001000
43
0.0000001000
44
0.0000000001
12
-0.4593434485
22
-0.4637151515
32
0.0000000000
13
-0.0007770393
23
-0.6527078532
33
0.0000000000
40
0.0000000000
40
0.0000000000
40
0.0000000000
40
0.0000000000
40
0.0280971635
40
0.1029748729
40
0.2214400599
40
0.3781329396
40
0.5661654017
40
0.7768657501
40
1.0000000000
40
1.0000000000
40
1.0000000000
40
1.0000000000
10
10.9998339282
20
20.9499557720
30
0.0000000000
10
10.9955318455
20
20.9456127452
30
0.0000000000
10
10.9997773223
20
20.9195896000
30
0.0000000000
10
10.9923104003
20
20.8747312625
30
0.0000000000
10
10.9931548545
20
20.7968575831
30
0.0000000000
10
10.9902110264
20
20.6968089129
30
0.0000000000
10
10.9892345705
20
20.5757201886
30
0.0000000000
10
10.9881641841
20
20.4405059695
30
0.0000000000
10
10.9879145689
20
20.3460971280
30
0.0000000000
10
10.9878567742
20
20.2975499689
30
0.0000000000
11
10.9998339282
21
20.9499557720
31
0.0000000000
11
10.9972740557
21
20.9317960577
31
0.0000000000
11
10.9948279489
21
20.8829840062
31
0.0000000000
11
10.9926154318
21
20.8056924543
31
0.0000000000
11
10.9907376590
21
20.7034349483
31
0.0000000000
11
10.9892776832
21
20.5807132807
31
0.0000000000
11
10.9883028444
21
20.4431908662
31
0.0000000000
11
10.9878567742
21
20.2975499689
31
0.0000000000
0
SPLINE
5
254
100
AcDbEntity
8
0
100
AcDbSpline
62
9
6
CONTINUOUS
70
0
71
3
72
12
73
8
74
6
42
0.0000001000
43
0.0000001000
44
0.0000000001
12
0.0003810907
22
-1.2511678074
32
0.0000000000
13
1.2511678074
23
-0.0003810906
33
0.0000000000
40
0.0000000000
40
0.0000000000
40
0.0000000000
40
0.0000000000
40
0.1999885193
40
0.3999929275
40
0.6000037713
40
0.8000093172
40
1.0000000000
40
1.0000000000
40
1.0000000000
40
1.0000000000
10
-10.9998339282
20
-20.9499557720
30
0.0000000000
10
-10.9998085236
20
-21.0333621711
30
0.0000000000
10
-10.9732293310
20
-21.2013480537
30
0.0000000000
10
-10.8577215562
20
-21.4277857346
30
0.0000000000
10
-10.6777888340
20
-21.6077193979
30
0.0000000000
10
-10.4513503704
20
-21.7232288135
30
0.0000000000
10
-10.2833630735
20
-21.7498085233
30
0.0000000000
10
-10.1999557721
20
-21.7498339282
30
0.0000000000
11
-10.9998339282
21
-20.9499557720
31
0.0000000000
11
-10.9606253521
21
-21.1970839574
31
0.0000000000
11
-10.8469861584
21
-21.4200317879
31
0.0000000000
11
-10.6700351708
21
-21.5969837002
31
0.0000000000
11
-10.4470865638
21
-21.7106245046
31
0.0000000000
11
-10.1999557721
21
-21.7498339282
31
0.0000000000
0
SPLINE
5
255
100
AcDbEntity
8
0
100
AcDbSpline
62
9
6
CONTINUOUS
70
0
71
3
72
14
73
10
74
8
42
0.0000001000
43
0.0000001000
44
0.0000000001
12
0.5887297014
22
1.2681606660
32
0.0000000000
13
0.0007802868
23
1.3981536136
33
0.0000000000
40
0.0000000000
40
0.0000000000
40
0.0000000000
40
0.0000000000
40
0.0280734310
40
0.1029650140
40
0.2213853306
40
0.3779128788
40
0.5656927456
40
0.7761754503
40
1.0000000000
40
1.0000000000
40
1.0000000000
40
1.0000000000
10
-10.1999557720
20
-21.7498339282
30
0.0000000000
10
-10.1944465512
20
-21.7379667212
30
0.0000000000
10
-10.2014164976
20
-21.6874036671
30
0.0000000000
10
-10.1915273211
20
-21.5865671087
30
0.0000000000
10
-10.1936592488
20
-21.4223034543
30
0.0000000000
10
-10.1901936976
20
-21.2071592850
30
0.0000000000
10
-10.1894038929
20
-20.9484236755
30
0.0000000000
10
-10.1882719204
20
-20.6585586624
30
0.0000000000
10
-10.1880368338
20
-20.4561351939
30
0.0000000000
10
-10.1879786180
20
-20.3518214929
30
0.0000000000
11
-10.1999557720
21
-21.7498339282
31
0.0000000000
11
-10.1973872223
21
-21.7106670850
31
0.0000000000
11
-10.1949445815
21
-21.6059856258
31
0.0000000000
11
-10.1927342177
21
-21.4404305613
31
0.0000000000
11
-10.1908593992
21
-21.2215890008
31
0.0000000000
11
-10.1894011495
21
-20.9590479103
31
0.0000000000
11
-10.1884265997
21
-20.6647623240
31
0.0000000000
11
-10.1879786180
21
-20.3518214929
31
0.0000000000
0
SPLINE
5
256
100
AcDbEntity
8
0
100
AcDbSpline
62
9
6
CONTINUOUS
70
0
71
3
72
14
73
10
74
8
42
0.0000001000
43
0.0000001000
44
0.0000000001
12
0.4588213572
22
0.4642316835
32
0.0000000000
13
0.0007765848
23
0.6527078142
33
0.0000000000
40
0.0000000000
40
0.0000000000
40
0.0000000000
40
0.0000000000
40
0.0281303015
40
0.1030612398
40
0.2216177721
40
0.3783556928
40
0.5663499083
40
0.7770084323
40
1.0000000000
40
1.0000000000
40
1.0000000000
40
1.0000000000
10
-10.9998339282
20
-20.9499557720
30
0.0000000000
10
-10.9955316671
20
-20.9456027796
30
0.0000000000
10
-10.9997729335
20
-20.9195681235
30
0.0000000000
10
-10.9923096794
20
-20.8746639079
30
0.0000000000
10
-10.9931514506
20
-20.7967530684
30
0.0000000000
10
-10.9902098657
20
-20.6966809796
30
0.0000000000
10
-10.9892333764
20
-20.5756007473
30
0.0000000000
10
-10.9881640152
20
-20.4404346945
30
0.0000000000
10
-10.9879144981
20
-20.3460660818
30
0.0000000000
10
-10.9878567742
20
-20.2975499689
30
0.0000000000
11
-10.9998339282
21
-20.9499557720
31
0.0000000000
11
-10.9972724077
21
-20.9317744479
31
0.0000000000
11
-10.9948257927
21
-20.8829276383
31
0.0000000000
11
-10.9926127877
21
-20.8055764589
31
0.0000000000
11
-10.9907355042
21
-20.7032895464
31
0.0000000000
11
-10.9892765926
21
-20.5805928393
31
0.0000000000
11
-10.9883023849
21
-20.4430977285
31
0.0000000000
11
-10.9878567742
21
-20.2975499689
31
0.0000000000
0
SPLINE
5
257
100
AcDbEntity
8
0
100
AcDbSpline
62
9
6
CONTINUOUS
70
0
71
3
72
12
73
8
74
6
42
0.0000001000
43
0.0000001000
44
0.0000000001
12
0.1999868123
22
-0.7792819767
32
0.0000000000
13
0.8045335424
23
-0.0009504927
33
0.0000000000
40
0.0000000000
40
0.0000000000
40
0.0000000000
40
0.0000000000
40
0.0567682478
40
0.2009962670
40
0.4209527031
40
0.6959989262
40
1.0000000000
40
1.0000000000
40
1.0000000000
40
1.0000000000
10
-10.9878567742
20
-20.2975499689
30
0.0000000000
10
-10.9840724739
20
-20.3122961264
30
0.0000000000
10
-10.9116560664
20
-20.3144901885
30
0.0000000000
10
-10.8161530831
20
-20.3350473687
30
0.0000000000
10
-10.6365452619
20
-20.3416319962
30
0.0000000000
10
-10.4256401256
20
-20.3503770941
30
0.0000000000
10
-10.2695049717
20
-20.3517251733
30
0.0000000000
10
-10.1879786180
20
-20.3518214902
30
0.0000000000
11
-10.9878567742
21
-20.2975499689
31
0.0000000000
11
-10.9453057789
21
-20.3141434495
31
0.0000000000
11
-10.8302436422
21
-20.3291481681
31
0.0000000000
11
-10.6536871179
21
-20.3411274812
31
0.0000000000
11
-10.4325408091
21
-20.3489344160
31
0.0000000000
11
-10.1879786180
21
-20.3518214902
31
0.0000000000
0
SPLINE
5
258
100
AcDbEntity
8
0
100
AcDbSpline
62
9
6
CONTINUOUS
70
0
71
3
72
11
73
7
74
5
42
0.0000001000
43
0.0000001000
44
0.0000000001
12
0.0481810304
22
40.7036233637
32
0.0000000000
13
-0.0481810396
23
40.7036233637
33
0.0000000000
40
0.0000000000
40
0.0000000000
40
0.0000000000
40
0.0000000000
40
0.2498559492
40
0.5000000001
40
0.7501440510
40
1.0000000000
40
1.0000000000
40
1.0000000000
40
1.0000000000
10
-10.1879786180
20
-20.3518214929
30
0.0000000000
10
-10.1839658457
20
-16.9618073429
30
0.0000000000
10
-10.1779506737
20
-10.1778675609
30
0.0000000000
10
-10.1749448506
20
0.0000000026
30
0.0000000000
10
-10.1779506743
20
10.1778675645
30
0.0000000000
10
-10.1839658449
20
16.9618073445
30
0.0000000000
10
-10.1879786180
20
20.3518214929
30
0.0000000000
11
-10.1879786180
21
-20.3518214929
31
0.0000000000
11
-10.1789559029
21
-10.1817759203
31
0.0000000000
11
-10.1759471766
21
0.0000000029
31
0.0000000000
11
-10.1789559031
21
10.1817759252
31
0.0000000000
11
-10.1879786180
21
20.3518214929
31
0.0000000000
0
SPLINE
5
259
100
AcDbEntity
8
0
100
AcDbSpline
62
9
6
CONTINUOUS
70
0
71
3
72
11
73
7
74
5
42
0.0000001000
43
0.0000001000
44
0.0000000001
12
0.0481810293
22
40.5950802633
32
0.0000000000
13
-0.0481810384
23
40.5950802632
33
0.0000000000
40
0.0000000000
40
0.0000000000
40
0.0000000000
40
0.0000000000
40
0.2498550677
40
0.4999997730
40
0.7501444821
40
1.0000000000
40
1.0000000000
40
1.0000000000
40
1.0000000000
10
-10.9878567742
20
-20.2975499689
30
0.0000000000
10
-10.9838440161
20
-16.9165877933
30
0.0000000000
10
-10.9778288396
20
-10.1507415936
30
0.0000000000
10
-10.9748230015
20
-0.0000091639
30
0.0000000000
10
-10.9778288311
20
10.1507293584
30
0.0000000000
10
-10.9838440081
20
16.9165817008
30
0.0000000000
10
-10.9878567742
20
20.2975499689
30
0.0000000000
11
-10.9878567742
21
-20.2975499689
31
0.0000000000
11
-10.9788340803
21
-10.1546603114
31
0.0000000000
11
-10.9758253327
21
-0.0000092139
31
0.0000000000
11
-10.9788340696
21
10.1546420336
31
0.0000000000
11
-10.9878567742
21
20.2975499689
31
0.0000000000
0
SPLINE
5
25A
100
AcDbEntity
8
0
100
AcDbSpline
62
9
6
CONTINUOUS
70
0
71
3
72
12
73
8
74
6
42
0.0000001000
43
0.0000001000
44
0.0000000001
12
0.2000698874
22
0.7792604376
32
0.0000000000
13
0.8045333344
23
0.0009504120
33
0.0000000000
40
0.0000000000
40
0.0000000000
40
0.0000000000
40
0.0000000000
40
0.0567698951
40
0.2009986976
40
0.4209549630
40
0.6960002640
40
1.0000000000
40
1.0000000000
40
1.0000000000
40
1.0000000000
10
-10.9878567741
20
20.2975499689
30
0.0000000000
10
-10.9840707920
20
20.3122961467
30
0.0000000000
10
-10.9116563816
20
20.3144897087
30
0.0000000000
10
-10.8161502735
20
20.3350470062
30
0.0000000000
10
-10.6365439276
20
20.3416314172
30
0.0000000000
10
-10.4256389601
20
20.3503764295
30
0.0000000000
10
-10.2695045918
20
20.3517244660
30
0.0000000000
10
-10.1879786180
20
20.3518207743
30
0.0000000000
11
-10.9878567741
21
20.2975499689
31
0.0000000000
11
-10.9453043024
21
20.3141432785
31
0.0000000000
11
-10.8302415361
21
20.3291478107
31
0.0000000000
11
-10.6536851839
21
20.3411269537
31
0.0000000000
11
-10.4325396701
21
20.3489337624
31
0.0000000000
11
-10.1879786180
21
20.3518207743
31
0.0000000000
0
SPLINE
5
25B
100
AcDbEntity
8
0
100
AcDbSpline
62
9
6
CONTINUOUS
70
0
71
3
72
14
73
10
74
8
42
0.0000001000
43
0.0000001000
44
0.0000000001
12
-0.0007800886
22
1.3981536000
32
0.0000000000
13
-0.5896906941
23
1.2677140777
33
0.0000000000
40
0.0000000000
40
0.0000000000
40
0.0000000000
40
0.0000000000
40
0.2238322211
40
0.4343095759
40
0.6220944099
40
0.7786205311
40
0.8970361729
40
0.9719284148
40
1.0000000000
40
1.0000000000
40
1.0000000000
40
1.0000000000
10
-10.1879786180
20
20.3518214929
30
0.0000000000
10
-10.1880368210
20
20.4561387681
30
0.0000000000
10
-10.1882719223
20
20.6585633683
30
0.0000000000
10
-10.1894041325
20
20.9484315634
30
0.0000000000
10
-10.1901930472
20
21.2071669823
30
0.0000000000
10
-10.1936628642
20
21.4223087741
30
0.0000000000
10
-10.1915207298
20
21.5865743726
30
0.0000000000
10
-10.2014284623
20
21.6873997214
30
0.0000000000
10
-10.1944379212
20
21.7379716803
30
0.0000000000
10
-10.1999557720
20
21.7498339282
30
0.0000000000
11
-10.1879786180
21
20.3518214929
31
0.0000000000
11
-10.1884266564
21
20.6647730465
31
0.0000000000
11
-10.1894011627
21
20.9590511501
31
0.0000000000
11
-10.1908598442
21
21.2215991806
31
0.0000000000
11
-10.1927347732
21
21.4404387430
31
0.0000000000
11
-10.1949448237
21
21.6059872732
31
0.0000000000
11
-10.1973875318
21
21.7106696515
31
0.0000000000
11
-10.1999557720
21
21.7498339282
31
0.0000000000
0
SPLINE
5
25C
100
AcDbEntity
8
0
100
AcDbSpline
62
9
6
CONTINUOUS
70
0
71
3
72
14
73
10
74
8
42
0.0000001000
43
0.0000001000
44
0.0000000001
12
-0.0007770394
22
0.6527078532
32
0.0000000000
13
-0.4593434087
23
0.4637151910
33
0.0000000000
40
0.0000000000
40
0.0000000000
40
0.0000000000
40
0.0000000000
40
0.2231342499
40
0.4338345984
40
0.6218670604
40
0.7785599401
40
0.8970251270
40
0.9719028365
40
1.0000000000
40
1.0000000000
40
1.0000000000
40
1.0000000000
10
-10.9878567742
20
20.2975499689
30
0.0000000000
10
-10.9879145689
20
20.3460971280
30
0.0000000000
10
-10.9881641841
20
20.4405059696
30
0.0000000000
10
-10.9892345705
20
20.5757201886
30
0.0000000000
10
-10.9902110265
20
20.6968089129
30
0.0000000000
10
-10.9931548543
20
20.7968575832
30
0.0000000000
10
-10.9923104005
20
20.8747312622
30
0.0000000000
10
-10.9997773218
20
20.9195896004
30
0.0000000000
10
-10.9955318459
20
20.9456127449
30
0.0000000000
10
-10.9998339282
20
20.9499557720
30
0.0000000000
11
-10.9878567742
21
20.2975499689
31
0.0000000000
11
-10.9883028444
21
20.4431908662
31
0.0000000000
11
-10.9892776832
21
20.5807132807
31
0.0000000000
11
-10.9907376590
21
20.7034349483
31
0.0000000000
11
-10.9926154318
21
20.8056924543
31
0.0000000000
11
-10.9948279489
21
20.8829840061
31
0.0000000000
11
-10.9972740557
21
20.9317960577
31
0.0000000000
11
-10.9998339282
21
20.9499557720
31
0.0000000000
0
SPLINE
5
25D
100
AcDbEntity
8
0
100
AcDbSpline
62
9
6
CONTINUOUS
70
0
71
3
72
12
73
8
74
6
42
0.0000001000
43
0.0000001000
44
0.0000000001
12
0.0003810888
22
1.2511678080
32
0.0000000000
13
1.2511678080
23
0.0003810886
33
0.0000000000
40
0.0000000000
40
0.0000000000
40
0.0000000000
40
0.0000000000
40
0.1999897043
40
0.3999946302
40
0.6000053697
40
0.8000102956
40
1.0000000000
40
1.0000000000
40
1.0000000000
40
1.0000000000
10
-10.9998339282
20
20.9499557720
30
0.0000000000
10
-10.9998085236
20
21.0333626654
30
0.0000000000
10
-10.9732290547
20
21.2013492788
30
0.0000000000
10
-10.8577204427
20
21.4277873148
30
0.0000000000
10
-10.6777873149
20
21.6077204426
30
0.0000000000
10
-10.4513492789
20
21.7232290548
30
0.0000000000
10
-10.2833626654
20
21.7498085236
30
0.0000000000
10
-10.1999557720
20
21.7498339282
30
0.0000000000
11
-10.9998339282
21
20.9499557720
31
0.0000000000
11
-10.9606248882
21
21.1970853851
31
0.0000000000
11
-10.8469848910
21
21.4200335331
31
0.0000000000
11
-10.6700335333
21
21.5969848909
31
0.0000000000
11
-10.4470853852
21
21.7106248882
31
0.0000000000
11
-10.1999557720
21
21.7498339282
31
0.0000000000
0
SPLINE
5
25E
100
AcDbEntity
8
0
100
AcDbSpline
62
9
6
CONTINUOUS
70
0
71
3
72
12
73
8
74
6
42
0.0000001000
43
0.0000001000
44
0.0000000001
12
-0.0003810888
22
-1.2511678080
32
0.0000000000
13
-1.2511678080
23
-0.0003810887
33
0.0000000000
40
0.0000000000
40
0.0000000000
40
0.0000000000
40
0.0000000000
40
0.1999897043
40
0.3999946302
40
0.6000053697
40
0.8000102957
40
1.0000000000
40
1.0000000000
40
1.0000000000
40
1.0000000000
10
10.9998339282
20
-20.9499557720
30
0.0000000000
10
10.9998085236
20
-21.0333626654
30
0.0000000000
10
10.9732290547
20
-21.2013492788
30
0.0000000000
10
10.8577204426
20
-21.4277873148
30
0.0000000000
10
10.6777873149
20
-21.6077204426
30
0.0000000000
10
10.4513492789
20
-21.7232290548
30
0.0000000000
10
10.2833626654
20
-21.7498085236
30
0.0000000000
10
10.1999557720
20
-21.7498339282
30
0.0000000000
11
10.9998339282
21
-20.9499557720
31
0.0000000000
11
10.9606248882
21
-21.1970853851
31
0.0000000000
11
10.8469848910
21
-21.4200335331
31
0.0000000000
11
10.6700335332
21
-21.5969848910
31
0.0000000000
11
10.4470853852
21
-21.7106248882
31
0.0000000000
11
10.1999557720
21
-21.7498339282
31
0.0000000000
0
SPLINE
5
25F
100
AcDbEntity
8
0
100
AcDbSpline
62
9
6
CONTINUOUS
70
0
71
3
72
12
73
8
74
6
42
0.0000001000
43
0.0000001000
44
0.0000000001
12
-0.2001086233
22
-0.7792503747
32
0.0000000000
13
-0.8045332213
23
-0.0009504378
33
0.0000000000
40
0.0000000000
40
0.0000000000
40
0.0000000000
40
0.0000000000
40
0.0567706395
40
0.2009998020
40
0.4209559923
40
0.6960008741
40
1.0000000000
40
1.0000000000
40
1.0000000000
40
1.0000000000
10
10.9878567741
20
-20.2975499689
30
0.0000000000
10
10.9840700093
20
-20.3122961496
30
0.0000000000
10
10.9116565197
20
-20.3144894205
30
0.0000000000
10
10.8161489784
20
-20.3350467843
30
0.0000000000
10
10.6365433115
20
-20.3416310685
30
0.0000000000
10
10.4256384230
20
-20.3503760492
30
0.0000000000
10
10.2695044167
20
-20.3517240733
30
0.0000000000
10
10.1879786180
20
-20.3518203840
30
0.0000000000
11
10.9878567741
21
-20.2975499689
31
0.0000000000
11
10.9453036217
21
-20.3141431638
31
0.0000000000
11
10.8302405652
21
-20.3291475845
31
0.0000000000
11
10.6536842923
21
-20.3411266361
31
0.0000000000
11
10.4325391451
21
-20.3489333873
31
0.0000000000
11
10.1879786180
21
-20.3518203840
31
0.0000000000
0
SPLINE
5
260
100
AcDbEntity
8
0
100
AcDbSpline
62
9
6
CONTINUOUS
70
0
71
3
72
14
73
10
74
8
42
0.0000001000
43
0.0000001000
44
0.0000000001
12
-1.0377045613
22
-0.0182855890
32
0.0000000000
13
-0.0706213583
23
-1.0354601601
33
0.0000000000
40
0.0000000000
40
0.0000000000
40
0.0000000000
40
0.0000000000
40
0.1423835914
40
0.2853645962
40
0.4284096110
40
0.5714179619
40
0.7145141281
40
0.8575287905
40
1.0000000000
40
1.0000000000
40
1.0000000000
40
1.0000000000
10
-28.8635318645
20
20.9499557720
30
0.0000000000
10
-28.9127825652
20
20.9490879161
30
0.0000000000
10
-29.0116250133
20
20.9368772186
30
0.0000000000
10
-29.1525896381
20
20.8877505385
30
0.0000000000
10
-29.2802878455
20
20.8098964676
30
0.0000000000
10
-29.3887050818
20
20.7068397159
30
0.0000000000
10
-29.4729452014
20
20.5832242963
30
0.0000000000
10
-29.5291590748
20
20.4448671937
30
0.0000000000
10
-29.5463487210
20
20.3467243894
30
0.0000000000
10
-29.5497025577
20
20.2975499689
30
0.0000000000
11
-28.8635318645
21
20.9499557720
31
0.0000000000
11
-29.0101868578
21
20.9317960577
31
0.0000000000
11
-29.1503242251
21
20.8829840062
31
0.0000000000
11
-29.2770792463
21
20.8056924543
31
0.0000000000
11
-29.3846567751
21
20.7034349483
31
0.0000000000
11
-29.4682987362
21
20.5807132807
31
0.0000000000
11
-29.5241472123
21
20.4431908662
31
0.0000000000
11
-29.5497025577
21
20.2975499689
31
0.0000000000
0
SPLINE
5
261
100
AcDbEntity
8
0
100
AcDbSpline
62
9
6
CONTINUOUS
70
0
71
3
72
12
73
8
74
6
42
0.0000001000
43
0.0000001000
44
0.0000000001
12
-0.0139593881
22
0.7999748070
32
0.0000000000
13
0.7999747333
23
0.0139636109
33
0.0000000000
40
0.0000000000
40
0.0000000000
40
0.0000000000
40
0.0000000000
40
0.3089052873
40
0.5875664122
40
0.8087299666
40
0.9507843884
40
1.0000000000
40
1.0000000000
40
1.0000000000
40
1.0000000000
10
-28.8635318645
20
20.9499557720
30
0.0000000000
10
-28.8649692407
20
21.0323279212
30
0.0000000000
10
-28.8685066784
20
21.1904967302
30
0.0000000000
10
-28.8657682733
20
21.4004573993
30
0.0000000000
10
-28.8780369491
20
21.5862962501
30
0.0000000000
10
-28.8538240950
20
21.6682888105
30
0.0000000000
10
-28.8766556105
20
21.7496048523
30
0.0000000000
10
-28.8635318619
20
21.7498339282
30
0.0000000000
11
-28.8635318645
21
20.9499557720
31
0.0000000000
11
-28.8671611129
21
21.1970831920
31
0.0000000000
11
-28.8690691100
21
21.4200308441
31
0.0000000000
11
-28.8690691339
21
21.5969830502
31
0.0000000000
11
-28.8671611576
21
21.7106242930
31
0.0000000000
11
-28.8635318619
21
21.7498339282
31
0.0000000000
0
SPLINE
5
262
100
AcDbEntity
8
0
100
AcDbSpline
62
9
6
CONTINUOUS
70
0
71
3
72
11
73
7
74
5
42
0.0000001000
43
0.0000001000
44
0.0000000001
12
-2.7559166551
22
-40.5307645686
32
0.0000000000
13
2.7559161348
23
-40.5307646039
33
0.0000000000
40
0.0000000000
40
0.0000000000
40
0.0000000000
40
0.0000000000
40
0.2499995827
40
0.5000002268
40
0.7500008674
40
1.0000000000
40
1.0000000000
40
1.0000000000
40
1.0000000000
10
-29.5497025577
20
20.2975499689
30
0.0000000000
10
-29.7793618957
20
16.9199918924
30
0.0000000000
10
-30.1240542023
20
10.1565086298
30
0.0000000000
10
-30.2964482342
20
-0.0000091684
30
0.0000000000
10
-30.1240537189
20
-10.1565208650
30
0.0000000000
10
-29.7793614388
20
-16.9199979705
30
0.0000000000
10
-29.5497025577
20
-20.2975499689
30
0.0000000000
11
-29.5497025577
21
20.2975499689
31
0.0000000000
11
-30.0666129562
21
10.1546420336
31
0.0000000000
11
-30.2389833779
21
-0.0000092139
31
0.0000000000
11
-30.0666123460
21
-10.1546603114
31
0.0000000000
11
-29.5497025577
21
-20.2975499689
31
0.0000000000
0
SPLINE
5
263
100
AcDbEntity
8
0
100
AcDbSpline
62
9
6
CONTINUOUS
70
0
71
3
72
14
73
10
74
8
42
0.0000001000
43
0.0000001000
44
0.0000000001
12
0.0705802489
22
-1.0354629628
32
0.0000000000
13
1.0377038347
23
-0.0183267631
33
0.0000000000
40
0.0000000000
40
0.0000000000
40
0.0000000000
40
0.0000000000
40
0.1423784375
40
0.2853556202
40
0.4283988301
40
0.5714071330
40
0.7145050584
40
0.8575235697
40
1.0000000000
40
1.0000000000
40
1.0000000000
40
1.0000000000
10
-29.5497025577
20
-20.2975499689
30
0.0000000000
10
-29.5463528559
20
-20.3466925018
30
0.0000000000
10
-29.5291752914
20
-20.4447905392
30
0.0000000000
10
-29.4730069865
20
-20.5830961397
30
0.0000000000
10
-29.3888167342
20
-20.7067063722
30
0.0000000000
10
-29.2804266709
20
-20.8097916541
30
0.0000000000
10
-29.1527208121
20
-20.8876952593
30
0.0000000000
10
-29.0117024435
20
-20.9368648750
30
0.0000000000
10
-28.9128146439
20
-20.9490853948
30
0.0000000000
10
-28.8635318645
20
-20.9499557720
30
0.0000000000
11
-29.5497025577
21
-20.2975499689
31
0.0000000000
11
-29.5241735335
21
-20.4430977285
31
0.0000000000
11
-29.4683612119
21
-20.5805928393
31
0.0000000000
11
-29.3847802257
21
-20.7032895464
31
0.0000000000
11
-29.2772307256
21
-20.8055764589
31
0.0000000000
11
-29.1504477508
21
-20.8829276383
31
0.0000000000
11
-29.0102812718
21
-20.9317744478
31
0.0000000000
11
-28.8635318645
21
-20.9499557720
31
0.0000000000
0
SPLINE
5
264
100
AcDbEntity
8
0
100
AcDbSpline
62
9
6
CONTINUOUS
70
0
71
3
72
12
73
8
74
6
42
0.0000001000
43
0.0000001000
44
0.0000000001
12
-0.0139593591
22
-0.7999748074
32
0.0000000000
13
0.7999747332
23
-0.0139636109
33
0.0000000000
40
0.0000000000
40
0.0000000000
40
0.0000000000
40
0.0000000000
40
0.3089080285
40
0.5875697731
40
0.8087322673
40
0.9507851325
40
1.0000000000
40
1.0000000000
40
1.0000000000
40
1.0000000000
10
-28.8635318645
20
-20.9499557720
30
0.0000000000
10
-28.8649692505
20
-21.0323286523
30
0.0000000000
10
-28.8685067102
20
-21.1904983800
30
0.0000000000
10
-28.8657682616
20
-21.4004596170
30
0.0000000000
10
-28.8780368852
20
-21.5862979183
30
0.0000000000
10
-28.8538242473
20
-21.6682898175
30
0.0000000000
10
-28.8766554146
20
-21.7496048558
30
0.0000000000
10
-28.8635318645
20
-21.7498339282
30
0.0000000000
11
-28.8635318645
21
-20.9499557720
31
0.0000000000
11
-28.8671611315
21
-21.1970853851
31
0.0000000000
11
-28.8690691122
21
-21.4200335331
31
0.0000000000
11
-28.8690691119
21
-21.5969848910
31
0.0000000000
11
-28.8671611307
21
-21.7106248882
31
0.0000000000
11
-28.8635318645
21
-21.7498339282
31
0.0000000000
0
ENDSEC
0
SECTION
2
OBJECTS
0
DICTIONARY
5
265
100
AcDbDictionary
3
ACAD_GROUP
350
266
3
ACAD_MLINESTYLE
350
267
0
DICTIONARY
5
266
102
{ACAD_REACTORS
330
265
102
}
100
AcDbDictionary
0
DICTIONARY
5
267
102
{ACAD_REACTORS
330
265
102
}
100
AcDbDictionary
3
STANDARD
350
268
0
MLINESTYLE
5
268
102
{ACAD_REACTORS
330
267
102
}
100
AcDbMlineStyle
2
STANDARD
70
0
3

62
256
51
90.0
52
90.0
71
2
49
0.5
62
256
6
BYLAYER
49
-0.5
62
256
6
BYLAYER
0
ENDSEC
0
EOF
