  0
SECTION
  2
HEADER
  9
$ACADVER
  1
AC1024
  9
$DWGCODEPAGE
  3
ANSI_1252
  9
$EXTMAX
 10
297.0
 20
210.0
 30
0.0
  9
$EXTMIN
 10
0.0
 20
0.0
 30
0.0
  9
$LIMMIN
 10
0.0
 20
0.0
  9
$LIMMAX
 10
297.0
 20
210.0
  9
$VIEWCTR
 10
148.5
 20
105.0
  9
$VIEWSIZE
 40
210.0
  9
$CLAYER
  8
0
  9
$LTSCALE
 40
16.335
  9
$CELTYPE
  6
BYLAYER
  9
$DIMSCALE
 40
1.0
  9
$DIMASZ
 40
3.0
  9
$DIMEXO
 40
0.5
  9
$DIMDLI
 40
11.286
  9
$DIMEXE
 40
1.5
  9
$DIMCEN
 40
2.673
  9
$DIMLFAC
 40
1.0
  9
$DIMBLK
  1
_FILLED
  9
$DIMALT
 70
0
  9
$DIMALTF
 40
0.0393700787
  9
$DIMTXT
 40
3.0
  9
$DIMTOL
 70
1
  9
$DIMLIM
 70
0
  9
$DIMTFAC
 40
1.0
  9
$DIMTP
 40
0.01
  9
$DIMTM
 40
0.01
  9
$DIMGAP
 40
0.625
  9
$DIMDSEP
 70
44
  9
$AUNITS
 70
0
  9
$PDMODE
 70
3
  9
$PDSIZE
 40
3.0
  9
$HANDSEED
  5
792
  9
$TILEMODE
 70
1
  9
$MEASUREMENT
 70
1
  9
$INSUNITS
 70
4
  0
ENDSEC
  0
SECTION
  2
CLASSES
  0
CLASS
  1
ACDBDICTIONARYWDFLT
  2
AcDbDictionaryWithDefault
  3
AutoCAD 2000
 90
0
 91
1
280
0
281
0
  0
CLASS
  1
ACDBPLACEHOLDER
  2
AcDbPlaceHolder
  3
AutoCAD 2000
 90
0
 91
1
280
0
281
0
  0
CLASS
  1
LAYOUT
  2
AcDbLayout
  3
AutoCAD 2000
 90
0
 91
0
280
0
281
0
  0
ENDSEC
  0
SECTION
  2
TABLES
  0
TABLE
  2
VPORT
  5
8
100
AcDbSymbolTable
 70
2
  0
VPORT
  5
1F4
100
AcDbSymbolTableRecord
100
AcDbViewportTableRecord
  2
*ACTIVE
 70
0
 10
0.0
 20
0.0
 11
1.0
 21
1.0
 12
148.5
 22
105.0
 13
0.0
 23
0.0
 14
1.0
 24
1.0
 15
0.0
 25
0.0
 16
0.0
 26
0.0
 36
1.0
 17
0.0
 27
0.0
 37
0.0
 40
210.0
 41
1.4142857143
 42
50.0
 43
0.0
 44
0.0
 50
0.0
 51
0.0
 71
0
 72
100
 73
1
 74
1
 75
0
 76
0
 77
0
 78
0
  0
ENDTAB
  0
TABLE
  2
LTYPE
  5
5
100
AcDbSymbolTable
 70
6
  0
LTYPE
  5
14
100
AcDbSymbolTableRecord
100
AcDbLinetypeTableRecord
  2
BYBLOCK
 70
0
  3

 72
65
 73
0
 40
0.0
  0
LTYPE
  5
15
100
AcDbSymbolTableRecord
100
AcDbLinetypeTableRecord
  2
BYLAYER
 70
0
  3

 72
65
 73
0
 40
0.0
  0
LTYPE
  5
16
100
AcDbSymbolTableRecord
100
AcDbLinetypeTableRecord
  2
CONTINUOUS
 70
64
  3
Solid line
 72
65
 73
0
 40
0.0
  0
LTYPE
  5
1F5
100
AcDbSymbolTableRecord
100
AcDbLinetypeTableRecord
  2
CENTER
 70
64
  3
____ _ ____ _ ____ _ ____ _ ____ _ ____ _ ____
 72
65
 73
4
 40
0.6
 49
0.375
 74
0
 49
-0.075
 74
0
 49
0.075
 74
0
 49
-0.075
 74
0
  0
LTYPE
  5
1F6
100
AcDbSymbolTableRecord
100
AcDbLinetypeTableRecord
  2
HIDDEN
 70
64
  3
- - - - - - - - - - - - - - - - - - - -
 72
65
 73
2
 40
0.2
 49
0.1
 74
0
 49
-0.1
 74
0
  0
LTYPE
  5
1F7
100
AcDbSymbolTableRecord
100
AcDbLinetypeTableRecord
  2
PHANTOM
 70
64
  3
_____ _ _ _____ _ _ _____ _ _ _____
 72
65
 73
6
 40
0.8
 49
0.45
 74
0
 49
-0.05
 74
0
 49
0.1
 74
0
 49
-0.05
 74
0
 49
0.1
 74
0
 49
-0.05
 74
0
  0
LTYPE
  5
1F8
100
AcDbSymbolTableRecord
100
AcDbLinetypeTableRecord
  2
DOT
 70
64
  3
. . . . . . . . . . . . . . . . . . . .
 72
65
 73
2
 40
0.2
 49
0.1
 74
0
 49
-0.1
 74
0
  0
LTYPE
  5
1F9
100
AcDbSymbolTableRecord
100
AcDbLinetypeTableRecord
  2
DASHED
 70
64
  3
- - - - - - - - - - - - - - - - - - - -
 72
65
 73
2
 40
0.2
 49
0.1
 74
0
 49
-0.1
 74
0
  0
ENDTAB
  0
TABLE
  2
LAYER
  5
2
100
AcDbSymbolTable
 70
36
  0
LAYER
  5
10
100
AcDbSymbolTableRecord
100
AcDbLayerTableRecord
  2
0
 70
0
 62
7
  6
CONTINUOUS
370
-3
390
F
  0
LAYER
  5
1FA
100
AcDbSymbolTableRecord
100
AcDbLayerTableRecord
  2
DEFAULT_1
 70
0
 62
7
  6
CENTER
370
-3
390
F
  0
LAYER
  5
1FB
100
AcDbSymbolTableRecord
100
AcDbLayerTableRecord
  2
DEFAULT_2
 70
0
 62
7
  6
HIDDEN
370
-3
390
F
  0
LAYER
  5
1FC
100
AcDbSymbolTableRecord
100
AcDbLayerTableRecord
  2
DEFAULT_3
 70
0
 62
7
  6
PHANTOM
370
-3
390
F
  0
LAYER
  5
1FD
100
AcDbSymbolTableRecord
100
AcDbLayerTableRecord
  2
218140000
 70
0
 62
7
  6
CONTINUOUS
370
-3
390
F
  0
LAYER
  5
1FE
100
AcDbSymbolTableRecord
100
AcDbLayerTableRecord
  2
218140080
 70
0
 62
7
  6
CONTINUOUS
370
-3
390
F
  0
LAYER
  5
1FF
100
AcDbSymbolTableRecord
100
AcDbLayerTableRecord
  2
260
 70
0
 62
7
  6
CONTINUOUS
370
-3
390
F
  0
LAYER
  5
200
100
AcDbSymbolTableRecord
100
AcDbLayerTableRecord
  2
268
 70
0
 62
7
  6
CONTINUOUS
370
-3
390
F
  0
LAYER
  5
201
100
AcDbSymbolTableRecord
100
AcDbLayerTableRecord
  2
284
 70
0
 62
7
  6
CONTINUOUS
370
-3
390
F
  0
LAYER
  5
202
100
AcDbSymbolTableRecord
100
AcDbLayerTableRecord
  2
290
 70
0
 62
7
  6
CONTINUOUS
370
-3
390
F
  0
LAYER
  5
203
100
AcDbSymbolTableRecord
100
AcDbLayerTableRecord
  2
320
 70
0
 62
7
  6
CONTINUOUS
370
-3
390
F
  0
LAYER
  5
204
100
AcDbSymbolTableRecord
100
AcDbLayerTableRecord
  2
340
 70
0
 62
7
  6
CONTINUOUS
370
-3
390
F
  0
LAYER
  5
205
100
AcDbSymbolTableRecord
100
AcDbLayerTableRecord
  2
712
 70
0
 62
7
  6
CONTINUOUS
370
-3
390
F
  0
LAYER
  5
206
100
AcDbSymbolTableRecord
100
AcDbLayerTableRecord
  2
715
 70
0
 62
7
  6
CONTINUOUS
370
-3
390
F
  0
LAYER
  5
207
100
AcDbSymbolTableRecord
100
AcDbLayerTableRecord
  2
ASSI
 70
0
 62
7
  6
CONTINUOUS
370
-3
390
F
  0
LAYER
  5
208
100
AcDbSymbolTableRecord
100
AcDbLayerTableRecord
  2
COLORE_TOP
 70
0
 62
7
  6
CONTINUOUS
370
-3
390
F
  0
LAYER
  5
209
100
AcDbSymbolTableRecord
100
AcDbLayerTableRecord
  2
COORDINATE
 70
0
 62
7
  6
CONTINUOUS
370
-3
390
F
  0
LAYER
  5
20A
100
AcDbSymbolTableRecord
100
AcDbLayerTableRecord
  2
COORD_ORIGINE
 70
0
 62
7
  6
CONTINUOUS
370
-3
390
F
  0
LAYER
  5
20B
100
AcDbSymbolTableRecord
100
AcDbLayerTableRecord
  2
COPY_PUBLISH
 70
0
 62
7
  6
CONTINUOUS
370
-3
390
F
  0
LAYER
  5
20C
100
AcDbSymbolTableRecord
100
AcDbLayerTableRecord
  2
COSMETIC
 70
0
 62
7
  6
CONTINUOUS
370
-3
390
F
  0
LAYER
  5
20D
100
AcDbSymbolTableRecord
100
AcDbLayerTableRecord
  2
COSMETICHE
 70
0
 62
7
  6
CONTINUOUS
370
-3
390
F
  0
LAYER
  5
20E
100
AcDbSymbolTableRecord
100
AcDbLayerTableRecord
  2
COSMETICI
 70
0
 62
7
  6
CONTINUOUS
370
-3
390
F
  0
LAYER
  5
20F
100
AcDbSymbolTableRecord
100
AcDbLayerTableRecord
  2
CURVE
 70
0
 62
7
  6
CONTINUOUS
370
-3
390
F
  0
LAYER
  5
210
100
AcDbSymbolTableRecord
100
AcDbLayerTableRecord
  2
DRAFT
 70
0
 62
7
  6
CONTINUOUS
370
-3
390
F
  0
LAYER
  5
211
100
AcDbSymbolTableRecord
100
AcDbLayerTableRecord
  2
IMPORT
 70
0
 62
7
  6
CONTINUOUS
370
-3
390
F
  0
LAYER
  5
212
100
AcDbSymbolTableRecord
100
AcDbLayerTableRecord
  2
IMPORTED
 70
0
 62
7
  6
CONTINUOUS
370
-3
390
F
  0
LAYER
  5
213
100
AcDbSymbolTableRecord
100
AcDbLayerTableRecord
  2
IMPORT_IGES
 70
0
 62
7
  6
CONTINUOUS
370
-3
390
F
  0
LAYER
  5
214
100
AcDbSymbolTableRecord
100
AcDbLayerTableRecord
  2
INCISIONI_LASER
 70
0
 62
7
  6
CONTINUOUS
370
-3
390
F
  0
LAYER
  5
215
100
AcDbSymbolTableRecord
100
AcDbLayerTableRecord
  2
INTF_1
 70
0
 62
7
  6
CONTINUOUS
370
-3
390
F
  0
LAYER
  5
216
100
AcDbSymbolTableRecord
100
AcDbLayerTableRecord
  2
INTF_11
 70
0
 62
7
  6
CONTINUOUS
370
-3
390
F
  0
LAYER
  5
217
100
AcDbSymbolTableRecord
100
AcDbLayerTableRecord
  2
INTF_12
 70
0
 62
7
  6
CONTINUOUS
370
-3
390
F
  0
LAYER
  5
218
100
AcDbSymbolTableRecord
100
AcDbLayerTableRecord
  2
INTF_13
 70
0
 62
7
  6
CONTINUOUS
370
-3
390
F
  0
LAYER
  5
219
100
AcDbSymbolTableRecord
100
AcDbLayerTableRecord
  2
INTF_2
 70
0
 62
7
  6
CONTINUOUS
370
-3
390
F
  0
LAYER
  5
21A
100
AcDbSymbolTableRecord
100
AcDbLayerTableRecord
  2
INTF_6
 70
0
 62
7
  6
CONTINUOUS
370
-3
390
F
  0
LAYER
  5
21B
100
AcDbSymbolTableRecord
100
AcDbLayerTableRecord
  2
NOTE
 70
0
 62
7
  6
CONTINUOUS
370
-3
390
F
  0
LAYER
  5
21C
100
AcDbSymbolTableRecord
100
AcDbLayerTableRecord
  2
PIANI
 70
0
 62
7
  6
CONTINUOUS
370
-3
390
F
  0
LAYER
  5
21D
100
AcDbSymbolTableRecord
100
AcDbLayerTableRecord
  2
PIANI_DI_RIFERIMENTO
 70
0
 62
7
  6
CONTINUOUS
370
-3
390
F
  0
LAYER
  5
21E
100
AcDbSymbolTableRecord
100
AcDbLayerTableRecord
  2
PIANI_ORIGINE
 70
0
 62
7
  6
CONTINUOUS
370
-3
390
F
  0
LAYER
  5
21F
100
AcDbSymbolTableRecord
100
AcDbLayerTableRecord
  2
PIANI_RIFERIMENTO
 70
0
 62
7
  6
CONTINUOUS
370
-3
390
F
  0
LAYER
  5
220
100
AcDbSymbolTableRecord
100
AcDbLayerTableRecord
  2
PIANI_SFORMO
 70
0
 62
7
  6
CONTINUOUS
370
-3
390
F
  0
LAYER
  5
221
100
AcDbSymbolTableRecord
100
AcDbLayerTableRecord
  2
PUNTI
 70
0
 62
7
  6
CONTINUOUS
370
-3
390
F
  0
LAYER
  5
222
100
AcDbSymbolTableRecord
100
AcDbLayerTableRecord
  2
RACCORDO
 70
0
 62
7
  6
CONTINUOUS
370
-3
390
F
  0
LAYER
  5
223
100
AcDbSymbolTableRecord
100
AcDbLayerTableRecord
  2
RGB__255__255__255__
 70
0
 62
7
  6
CONTINUOUS
370
-3
390
F
  0
LAYER
  5
224
100
AcDbSymbolTableRecord
100
AcDbLayerTableRecord
  2
RINTRACCIABILITA
 70
0
 62
7
  6
CONTINUOUS
370
-3
390
F
  0
LAYER
  5
225
100
AcDbSymbolTableRecord
100
AcDbLayerTableRecord
  2
SIMBOLI
 70
0
 62
7
  6
CONTINUOUS
370
-3
390
F
  0
LAYER
  5
226
100
AcDbSymbolTableRecord
100
AcDbLayerTableRecord
  2
SMUSSO
 70
0
 62
7
  6
CONTINUOUS
370
-3
390
F
  0
LAYER
  5
227
100
AcDbSymbolTableRecord
100
AcDbLayerTableRecord
  2
SNAPLINE
 70
0
 62
7
  6
CONTINUOUS
370
-3
390
F
  0
LAYER
  5
228
100
AcDbSymbolTableRecord
100
AcDbLayerTableRecord
  2
SUPERFICI
 70
0
 62
7
  6
CONTINUOUS
370
-3
390
F
  0
LAYER
  5
229
100
AcDbSymbolTableRecord
100
AcDbLayerTableRecord
  2
TRASH
 70
0
 62
7
  6
CONTINUOUS
370
-3
390
F
  0
LAYER
  5
22A
100
AcDbSymbolTableRecord
100
AcDbLayerTableRecord
  2
WHITE
 70
0
 62
7
  6
CONTINUOUS
370
-3
390
F
  0
LAYER
  5
22B
100
AcDbSymbolTableRecord
100
AcDbLayerTableRecord
  2
XSEC_DATUMS
 70
0
 62
7
  6
CONTINUOUS
370
-3
390
F
  0
ENDTAB
  0
TABLE
  2
STYLE
  5
3
100
AcDbSymbolTable
 70
1
  0
STYLE
  5
11
100
AcDbSymbolTableRecord
100
AcDbTextStyleTableRecord
  2
STANDARD
 70
0
 40
0.0
 41
0.8
 50
0.0
 71
0
 42
0.2
  3
txt
  4

  0
STYLE
  5
22C
100
AcDbSymbolTableRecord
100
AcDbTextStyleTableRecord
  2
TEXTSTYLE_1
 70
0
 40
0.0
 41
0.8
 50
0.0
 71
0
 42
0.2
  3
gdt
  4

  0
ENDTAB
  0
TABLE
  2
VIEW
  5
6
100
AcDbSymbolTable
 70
0
  0
ENDTAB
  0
TABLE
  2
UCS
  5
7
100
AcDbSymbolTable
 70
0
  0
ENDTAB
  0
TABLE
  2
APPID
  5
9
100
AcDbSymbolTable
 70
1
  0
APPID
  5
22D
100
AcDbSymbolTableRecord
100
AcDbRegAppTableRecord
  2
ACAD
 70
0
  0
ENDTAB
  0
TABLE
  2
BLOCK_RECORD
  5
1
100
AcDbSymbolTable
 70
0
  0
BLOCK_RECORD
  5
22E
100
AcDbSymbolTableRecord
100
AcDbBlockTableRecord
  2
*Model_Space
  0
BLOCK_RECORD
  5
22F
100
AcDbSymbolTableRecord
100
AcDbBlockTableRecord
  2
*Paper_Space
  0
BLOCK_RECORD
  5
230
100
AcDbSymbolTableRecord
100
AcDbBlockTableRecord
  2
_FILLED
  0
BLOCK_RECORD
  5
231
100
AcDbSymbolTableRecord
100
AcDbBlockTableRecord
  2
*D0
  0
BLOCK_RECORD
  5
232
100
AcDbSymbolTableRecord
100
AcDbBlockTableRecord
  2
*D1
  0
BLOCK_RECORD
  5
233
100
AcDbSymbolTableRecord
100
AcDbBlockTableRecord
  2
*D2
  0
BLOCK_RECORD
  5
234
100
AcDbSymbolTableRecord
100
AcDbBlockTableRecord
  2
*D3
  0
ENDTAB
  0
TABLE
  2
DIMSTYLE
  5
A
100
AcDbSymbolTable
 70
1
100
AcDbDimStyleTable
 71
0
  0
DIMSTYLE
105
235
100
AcDbSymbolTableRecord
100
AcDbDimStyleTableRecord
  2
STANDARD
 70
0
  3

  4

 40
1.0
 41
3.0
 42
0.5
 43
0.38
 44
1.5
 45
0.0
 46
0.0
 47
0.01
 48
0.01
140
3.0
141
0.09
142
0.0
143
25.4
144
1.0
145
0.0
146
1.0
147
0.625
 71
1
 72
0
 73
0
 74
0
 75
0
 76
0
 77
1
 78
8
 79
2
170
0
171
1
172
0
173
0
174
0
175
0
176
0
177
0
178
0
270
2
179
2
271
2
272
2
273
2
274
2
275
0
280
0
281
0
282
0
283
1
284
8
285
0
286
0
287
3
288
0
340
11
278
44
341
230
342
230
343
230
344
230
  0
DIMSTYLE
105
236
100
AcDbSymbolTableRecord
100
AcDbDimStyleTableRecord
  2
DIMSTYLE_1
 70
0
  3

  4

 40
1.0
 41
3.0
 42
0.5
 43
0.38
 44
1.5
 45
0.0
 46
0.0
 47
0.0
 48
0.0
140
3.0
141
0.09
142
0.0
143
25.4
144
1.0
145
0.0
146
1.0
147
0.75
 71
0
 72
0
 73
0
 74
0
 75
0
 76
0
 77
1
 78
8
 79
2
170
0
171
1
172
0
173
0
174
0
175
0
176
0
177
0
178
0
270
2
179
2
271
2
272
2
273
2
274
2
275
0
280
0
281
0
282
0
283
1
284
8
285
0
286
0
287
3
288
0
340
11
278
44
341
230
342
230
343
230
344
230
  0
DIMSTYLE
105
237
100
AcDbSymbolTableRecord
100
AcDbDimStyleTableRecord
  2
DIMSTYLE_2
 70
0
  3

  4

 40
1.0
 41
3.0
 42
0.5
 43
0.38
 44
1.5
 45
0.0
 46
0.0
 47
0.0
 48
0.0
140
3.0
141
0.09
142
0.0
143
25.4
144
1.0
145
0.0
146
1.0
147
0.75
 71
0
 72
0
 73
0
 74
0
 75
0
 76
0
 77
1
 78
8
 79
2
170
0
171
1
172
0
173
0
174
0
175
0
176
0
177
0
178
0
270
2
179
2
271
1
272
1
273
2
274
2
275
0
280
0
281
0
282
0
283
1
284
8
285
0
286
0
287
3
288
0
340
11
278
44
341
230
342
230
343
230
344
230
  0
ENDTAB
  0
ENDSEC
  0
SECTION
  2
BLOCKS
  0
BLOCK
  5
20
100
AcDbEntity
  8
0
100
AcDbBlockBegin
  2
*Model_Space
 70
0
 10
0.0
 20
0.0
 30
0.0
  3
*Model_Space
  1

  0
ENDBLK
  5
21
100
AcDbEntity
  8
0
100
AcDbBlockEnd
  0
BLOCK
  5
1C
100
AcDbEntity
  8
0
100
AcDbBlockBegin
  2
*Paper_Space
 70
0
 10
0.0
 20
0.0
 30
0.0
  3
*Paper_Space
  1

  0
ENDBLK
  5
1D
100
AcDbEntity
  8
0
100
AcDbBlockEnd
  0
BLOCK
  5
238
100
AcDbEntity
  8
0
100
AcDbBlockBegin
  2
_FILLED
 70
64
 10
0.0
 20
0.0
  3
_FILLED
  1

  0
SOLID
  5
239
100
AcDbEntity
  8
0
  6
BYBLOCK
 62
0
100
AcDbTrace
 10
0.0
 20
0.0
 11
-1.0
 21
0.3166666667
 12
-1.0
 22
-0.3166666667
 13
-1.0
 23
-0.3166666667
  0
ENDBLK
  5
23A
100
AcDbEntity
  8
0
  6
BYBLOCK
 62
0
100
AcDbBlockEnd
  0
BLOCK
  5
23B
100
AcDbEntity
  8
0
100
AcDbBlockBegin
 62
7
  6
CONTINUOUS
  2
*D0
 70
65
 10
0.0
 20
0.0
  3
*D0
  1

  0
MTEXT
  5
23C
100
AcDbEntity
  8
0
100
AcDbMText
 62
7
  6
CONTINUOUS
  7
STANDARD
 71
2
 72
1
 10
7.2124668623
 20
36.217808462
 30
0.0
 11
1.0
 21
0.0
 31
0.0
 73
2
 44
0.9
  1
{\ftxt;\W0.0001;\H0.0001;\~}{\ftxt;\W1.5714285714;\H3.0; }{\ftxt;\W0.0001;\H0.0001;\~}
 40
3.0
 41
7.0714285714
  0
LINE
  5
23D
100
AcDbEntity
  8
0
100
AcDbLine
 62
7
  6
CONTINUOUS
 10
19.2124668623
 20
15.2238767217
 11
19.2124668623
 21
33.967808462
  0
LINE
  5
23E
100
AcDbEntity
  8
0
100
AcDbLine
 62
7
  6
CONTINUOUS
 10
-4.7875331377
 20
24.6456323968
 11
-4.7875331377
 21
33.967808462
  0
LINE
  5
23F
100
AcDbEntity
  8
0
100
AcDbLine
 62
7
  6
CONTINUOUS
 10
19.2124668623
 20
32.467808462
 11
7.2124668623
 21
32.467808462
  0
LINE
  5
240
100
AcDbEntity
  8
0
100
AcDbLine
 62
7
  6
CONTINUOUS
 10
-4.7875331377
 20
32.467808462
 11
7.2124668623
 21
32.467808462
  0
INSERT
  5
241
100
AcDbEntity
  8
0
100
AcDbBlockReference
 62
7
  6
CONTINUOUS
  2
_FILLED
 10
19.2124668623
 20
32.467808462
 41
3.0
 42
3.0
 43
3.0
  0
INSERT
  5
242
100
AcDbEntity
  8
0
100
AcDbBlockReference
 62
7
  6
CONTINUOUS
  2
_FILLED
 10
-4.7875331377
 20
32.467808462
 41
3.0
 42
3.0
 43
3.0
 50
180.0
  0
ENDBLK
  5
243
100
AcDbEntity
  8
0
  6
BYBLOCK
 62
0
100
AcDbBlockEnd
  0
BLOCK
  5
244
100
AcDbEntity
  8
0
100
AcDbBlockBegin
 62
7
  6
CONTINUOUS
  2
*D1
 70
65
 10
0.0
 20
0.0
  3
*D1
  1

  0
MTEXT
  5
245
100
AcDbEntity
  8
0
100
AcDbMText
 62
7
  6
CONTINUOUS
  7
STANDARD
 71
2
 72
1
 10
0.0
 20
46.15
 30
0.0
 11
1.0
 21
0.0
 31
0.0
 73
2
 44
0.9
  1
{\ftxt;\W0.0001;\H0.0001;\~}{\ftxt;\W2.8571428571;\H3.0; }{\ftxt;\W0.0001;\H0.0001;\~}
 40
3.0
 41
12.8571428571
  0
LINE
  5
246
100
AcDbEntity
  8
0
100
AcDbLine
 62
7
  6
CONTINUOUS
 10
19.2124668623
 20
15.2238767217
 11
19.2124668623
 21
43.9
  0
LINE
  5
247
100
AcDbEntity
  8
0
100
AcDbLine
 62
7
  6
CONTINUOUS
 10
-19.2124668623
 20
-19.0165059529
 11
-19.2124668623
 21
43.9
  0
LINE
  5
248
100
AcDbEntity
  8
0
100
AcDbLine
 62
7
  6
CONTINUOUS
 10
19.2124668623
 20
42.4
 11
0.0
 21
42.4
  0
LINE
  5
249
100
AcDbEntity
  8
0
100
AcDbLine
 62
7
  6
CONTINUOUS
 10
-19.2124668623
 20
42.4
 11
0.0
 21
42.4
  0
INSERT
  5
24A
100
AcDbEntity
  8
0
100
AcDbBlockReference
 62
7
  6
CONTINUOUS
  2
_FILLED
 10
19.2124668623
 20
42.4
 41
3.0
 42
3.0
 43
3.0
  0
INSERT
  5
24B
100
AcDbEntity
  8
0
100
AcDbBlockReference
 62
7
  6
CONTINUOUS
  2
_FILLED
 10
-19.2124668623
 20
42.4
 41
3.0
 42
3.0
 43
3.0
 50
180.0
  0
ENDBLK
  5
24C
100
AcDbEntity
  8
0
  6
BYBLOCK
 62
0
100
AcDbBlockEnd
  0
BLOCK
  5
24D
100
AcDbEntity
  8
0
100
AcDbBlockBegin
 62
7
  6
CONTINUOUS
  2
*D2
 70
65
 10
0.0
 20
0.0
  3
*D2
  1

  0
MTEXT
  5
24E
100
AcDbEntity
  8
0
100
AcDbMText
 62
7
  6
CONTINUOUS
  7
STANDARD
 71
2
 72
1
 10
50.0
 20
36.0991005765
 30
0.0
 11
1.0
 21
0.0
 31
0.0
 73
2
 44
0.9
  1
{\ftxt;\W0.0001;\H0.0001;\~}{\ftxt;\W2.8571428571;\H3.0; }{\ftxt;\W0.0001;\H0.0001;\~}
 40
3.0
 41
12.8571428571
  0
LINE
  5
24F
100
AcDbEntity
  8
0
100
AcDbLine
 62
7
  6
CONTINUOUS
 10
38.85
 20
22.358797755
 11
38.85
 21
33.8491005765
  0
LINE
  5
250
100
AcDbEntity
  8
0
100
AcDbLine
 62
7
  6
CONTINUOUS
 10
61.15
 20
22.358797755
 11
61.15
 21
33.8491005765
  0
LINE
  5
251
100
AcDbEntity
  8
0
100
AcDbLine
 62
7
  6
CONTINUOUS
 10
38.85
 20
32.3491005765
 11
50.0
 21
32.3491005765
  0
LINE
  5
252
100
AcDbEntity
  8
0
100
AcDbLine
 62
7
  6
CONTINUOUS
 10
61.15
 20
32.3491005765
 11
50.0
 21
32.3491005765
  0
INSERT
  5
253
100
AcDbEntity
  8
0
100
AcDbBlockReference
 62
7
  6
CONTINUOUS
  2
_FILLED
 10
38.85
 20
32.3491005765
 41
3.0
 42
3.0
 43
3.0
 50
180.0
  0
INSERT
  5
254
100
AcDbEntity
  8
0
100
AcDbBlockReference
 62
7
  6
CONTINUOUS
  2
_FILLED
 10
61.15
 20
32.3491005765
 41
3.0
 42
3.0
 43
3.0
  0
ENDBLK
  5
255
100
AcDbEntity
  8
0
  6
BYBLOCK
 62
0
100
AcDbBlockEnd
  0
BLOCK
  5
256
100
AcDbEntity
  8
0
100
AcDbBlockBegin
 62
7
  6
CONTINUOUS
  2
*D3
 70
65
 10
0.0
 20
0.0
  3
*D3
  1

  0
MTEXT
  5
257
100
AcDbEntity
  8
0
100
AcDbMText
 62
7
  6
CONTINUOUS
  7
STANDARD
 71
2
 72
1
 10
66.15
 20
0.0
 30
0.0
 11
0.0
 21
1.0
 31
0.0
 73
2
 44
0.9
  1
{\ftxt;\W0.0001;\H0.0001;\~}{\ftxt;\W2.9285714286;\H3.0; }{\ftxt;\W0.0001;\H0.0001;\~}
 40
3.0
 41
13.1785714286
  0
LINE
  5
258
100
AcDbEntity
  8
0
100
AcDbLine
 62
7
  6
CONTINUOUS
 10
61.1
 20
24.4
 11
71.4
 21
24.4
  0
LINE
  5
259
100
AcDbEntity
  8
0
100
AcDbLine
 62
7
  6
CONTINUOUS
 10
61.1
 20
-24.4
 11
71.4
 21
-24.4
  0
LINE
  5
25A
100
AcDbEntity
  8
0
100
AcDbLine
 62
7
  6
CONTINUOUS
 10
69.9
 20
24.4
 11
69.9
 21
0.0
  0
LINE
  5
25B
100
AcDbEntity
  8
0
100
AcDbLine
 62
7
  6
CONTINUOUS
 10
69.9
 20
-24.4
 11
69.9
 21
0.0
  0
INSERT
  5
25C
100
AcDbEntity
  8
0
100
AcDbBlockReference
 62
7
  6
CONTINUOUS
  2
_FILLED
 10
69.9
 20
24.4
 41
3.0
 42
3.0
 43
3.0
 50
90.0
  0
INSERT
  5
25D
100
AcDbEntity
  8
0
100
AcDbBlockReference
 62
7
  6
CONTINUOUS
  2
_FILLED
 10
69.9
 20
-24.4
 41
3.0
 42
3.0
 43
3.0
 50
270.0
  0
ENDBLK
  5
25E
100
AcDbEntity
  8
0
  6
BYBLOCK
 62
0
100
AcDbBlockEnd
  0
ENDSEC
  0
SECTION
  2
ENTITIES
  0
DIMENSION
  5
25F
100
AcDbEntity
  8
0
100
AcDbDimension
 62
7
  6
CONTINUOUS
  2
*D0
 10
-4.7875331377
 20
32.467808462
 11
6.7838955603
 21
32.467808462
 70
160
 71
2
 72
2
 41
0.9
 42
24.0
  1
{\ftxt;\W0.0001;\H0.0001;\~}{\ftxt;\W1.5714285714;\H3.0; }{\ftxt;\W0.0001;\H0.0001;\~}
  3
DIMSTYLE_1
100
AcDbAlignedDimension
 13
19.2124668623
 23
14.7238767217
 14
-4.7875331377
 24
24.1456323968
 50
180.0
100
AcDbRotatedDimension
  0
DIMENSION
  5
260
100
AcDbEntity
  8
0
100
AcDbDimension
 62
7
  6
CONTINUOUS
  2
*D1
 10
-19.2124668623
 20
42.4
 11
-0.4285715189
 21
42.4
 70
160
 71
2
 72
2
 41
0.9
 42
38.4249337245
  1
{\ftxt;\W0.0001;\H0.0001;\~}{\ftxt;\W2.8571428571;\H3.0; }{\ftxt;\W0.0001;\H0.0001;\~}
  3
DIMSTYLE_2
100
AcDbAlignedDimension
 13
19.2124668623
 23
14.7238767217
 14
-19.2124668623
 24
-19.5165059529
 50
180.0
100
AcDbRotatedDimension
  0
DIMENSION
  5
261
100
AcDbEntity
  8
0
100
AcDbDimension
 62
7
  6
CONTINUOUS
  2
*D2
 10
61.15
 20
32.3491005765
 11
49.5714281616
 21
32.3491005765
 70
160
 71
2
 72
2
 41
0.9
 42
22.3
  1
{\ftxt;\W0.0001;\H0.0001;\~}{\ftxt;\W2.8571428571;\H3.0; }{\ftxt;\W0.0001;\H0.0001;\~}
  3
DIMSTYLE_1
100
AcDbAlignedDimension
 13
38.85
 23
21.858797755
 14
61.15
 24
21.858797755
100
AcDbRotatedDimension
  0
DIMENSION
  5
262
100
AcDbEntity
  8
0
100
AcDbDimension
 62
7
  6
CONTINUOUS
  2
*D3
 10
69.9
 20
-24.4
 11
69.9
 21
-0.42857307
 70
160
 71
2
 72
2
 41
0.9
 42
48.8
  1
{\ftxt;\W0.0001;\H0.0001;\~}{\ftxt;\W2.9285714286;\H3.0; }{\ftxt;\W0.0001;\H0.0001;\~}
  3
DIMSTYLE_1
100
AcDbAlignedDimension
 13
60.6
 23
24.4
 14
60.6
 24
-24.4
 50
270.0
100
AcDbRotatedDimension
  0
LWPOLYLINE
  5
263
100
AcDbEntity
  8
0
100
AcDbPolyline
 62
7
  6
CONTINUOUS
 90
5
 70
0
 43
0.3500000006
 10
52.9999980469
 20
34.8133883514
 10
53.3571448975
 20
35.0276728363
 10
53.3571448975
 20
35.6705308228
 10
52.9999980469
 20
36.0990997925
 10
52.1428555756
 20
36.0990997925
  0
LINE
  5
264
100
AcDbEntity
  8
268
100
AcDbLine
 62
7
  6
CONTINUOUS
 10
60.6
 20
-24.4
 11
58.3
 21
-24.4
  0
LINE
  5
265
100
AcDbEntity
  8
268
100
AcDbLine
 62
7
  6
CONTINUOUS
 10
41.7
 20
-24.4
 11
39.4
 21
-24.4
  0
LINE
  5
266
100
AcDbEntity
  8
268
100
AcDbLine
 62
250
  6
CONTINUOUS
 10
39.4130985787
 20
-24.3869014213
 11
41.6869014213
 21
-24.3869014213
  0
LINE
  5
267
100
AcDbEntity
  8
268
100
AcDbLine
 62
250
  6
CONTINUOUS
 10
58.3130985787
 20
-24.3869014213
 11
60.5869014213
 21
-24.3869014213
  0
LINE
  5
268
100
AcDbEntity
  8
268
100
AcDbLine
 62
250
  6
CONTINUOUS
 10
39.4145445745
 20
-24.1369056521
 11
41.6854554255
 21
-24.1369056521
  0
LINE
  5
269
100
AcDbEntity
  8
268
100
AcDbLine
 62
250
  6
CONTINUOUS
 10
58.3145445745
 20
-24.1369056521
 11
60.5854554255
 21
-24.1369056521
  0
LINE
  5
26A
100
AcDbEntity
  8
268
100
AcDbLine
 62
250
  6
CONTINUOUS
 10
60.5854554255
 20
-23.8443375673
 11
58.3145445745
 21
-23.8443375673
  0
LINE
  5
26B
100
AcDbEntity
  8
268
100
AcDbLine
 62
250
  6
CONTINUOUS
 10
41.6854554255
 20
-23.8443375673
 11
39.4145445745
 21
-23.8443375673
  0
LINE
  5
26C
100
AcDbEntity
  8
268
100
AcDbLine
 62
7
  6
CONTINUOUS
 10
54.4
 20
-23.8
 11
45.6
 21
-23.8
  0
LINE
  5
26D
100
AcDbEntity
  8
268
100
AcDbLine
 62
7
  6
CONTINUOUS
 10
54.0959224421
 20
-23.7941821702
 11
45.9040775579
 21
-23.7941821702
  0
LINE
  5
26E
100
AcDbEntity
  8
268
100
AcDbLine
 62
250
  6
CONTINUOUS
 10
60.5861826542
 20
-23.6278312164
 11
58.3138173458
 21
-23.6278312164
  0
LINE
  5
26F
100
AcDbEntity
  8
268
100
AcDbLine
 62
250
  6
CONTINUOUS
 10
41.6861826542
 20
-23.6278312164
 11
39.4138173458
 21
-23.6278312164
  0
LINE
  5
270
100
AcDbEntity
  8
268
100
AcDbLine
 62
7
  6
CONTINUOUS
 10
41.6869014213
 20
24.3869014213
 11
41.7
 21
24.4
  0
LINE
  5
271
100
AcDbEntity
  8
268
100
AcDbLine
 62
7
  6
CONTINUOUS
 10
60.5912732553
 20
-23.1226497308
 11
58.3087267447
 21
-23.1226497308
  0
LINE
  5
272
100
AcDbEntity
  8
268
100
AcDbLine
 62
7
  6
CONTINUOUS
 10
41.6912732553
 20
-23.1226497308
 11
39.4087267447
 21
-23.1226497308
  0
LINE
  5
273
100
AcDbEntity
  8
268
100
AcDbLine
 62
7
  6
CONTINUOUS
 10
39.2
 20
-22.4
 11
39.4
 21
-22.4
  0
LINE
  5
274
100
AcDbEntity
  8
268
100
AcDbLine
 62
7
  6
CONTINUOUS
 10
41.7
 20
-22.4
 11
45.6
 21
-22.4
  0
LINE
  5
275
100
AcDbEntity
  8
268
100
AcDbLine
 62
7
  6
CONTINUOUS
 10
54.4
 20
-22.4
 11
58.3
 21
-22.4
  0
LINE
  5
276
100
AcDbEntity
  8
268
100
AcDbLine
 62
7
  6
CONTINUOUS
 10
60.6
 20
-22.4
 11
60.8
 21
-22.4
  0
LINE
  5
277
100
AcDbEntity
  8
268
100
AcDbLine
 62
7
  6
CONTINUOUS
 10
45.9040775579
 20
-22.3912731322
 11
54.0959224421
 21
-22.3912731322
  0
LINE
  5
278
100
AcDbEntity
  8
268
100
AcDbLine
 62
7
  6
CONTINUOUS
 10
60.5912732553
 20
-22.3869096983
 11
58.3087267447
 21
-22.3869096983
  0
LINE
  5
279
100
AcDbEntity
  8
268
100
AcDbLine
 62
7
  6
CONTINUOUS
 10
41.6912732553
 20
-22.3869096983
 11
39.4087267447
 21
-22.3869096983
  0
LINE
  5
27A
100
AcDbEntity
  8
268
100
AcDbLine
 62
7
  6
CONTINUOUS
 10
39.2
 20
-22.3781828305
 11
60.8
 21
-22.3781828305
  0
LINE
  5
27B
100
AcDbEntity
  8
268
100
AcDbLine
 62
7
  6
CONTINUOUS
 10
38.85
 20
-22.0
 11
61.15
 21
-22.0
  0
LINE
  5
27C
100
AcDbEntity
  8
268
100
AcDbLine
 62
7
  6
CONTINUOUS
 10
38.85
 20
-21.858797755
 11
46.5
 21
-21.858797755
  0
LINE
  5
27D
100
AcDbEntity
  8
268
100
AcDbLine
 62
7
  6
CONTINUOUS
 10
53.5
 20
-21.858797755
 11
61.15
 21
-21.858797755
  0
LINE
  5
27E
100
AcDbEntity
  8
RACCORDO
100
AcDbLine
 62
7
  6
CONTINUOUS
 10
39.8998781561
 20
-21.8108191919
 11
60.1001218439
 21
-21.8108191919
  0
LINE
  5
27F
100
AcDbEntity
  8
268
100
AcDbLine
 62
7
  6
CONTINUOUS
 10
41.6869014213
 20
-24.3869014213
 11
41.7
 21
-24.4
  0
LINE
  5
280
100
AcDbEntity
  8
RACCORDO
100
AcDbLine
 62
250
  6
CONTINUOUS
 10
60.0014668568
 20
-21.072980553
 11
39.9985331432
 21
-21.072980553
  0
LINE
  5
281
100
AcDbEntity
  8
268
100
AcDbLine
 62
7
  6
CONTINUOUS
 10
38.85
 20
-19.9536487485
 11
39.1
 21
-19.9536487485
  0
LINE
  5
282
100
AcDbEntity
  8
268
100
AcDbLine
 62
7
  6
CONTINUOUS
 10
60.9
 20
-19.9536487485
 11
61.15
 21
-19.9536487485
  0
LINE
  5
283
100
AcDbEntity
  8
268
100
AcDbLine
 62
7
  6
CONTINUOUS
 10
41.7
 20
22.4
 11
41.6912732553
 21
22.3869096983
  0
LINE
  5
284
100
AcDbEntity
  8
RACCORDO
100
AcDbLine
 62
250
  6
CONTINUOUS
 10
59.989489153
 20
-19.5165059529
 11
40.010510847
 21
-19.5165059529
  0
LINE
  5
285
100
AcDbEntity
  8
268
100
AcDbLine
 62
7
  6
CONTINUOUS
 10
41.6912732553
 20
-22.3869096983
 11
41.7
 21
-22.4
  0
LWPOLYLINE
  5
286
100
AcDbEntity
  8
RACCORDO
100
AcDbPolyline
 62
250
  6
CONTINUOUS
 90
16
 70
0
 10
39.2106326909
 20
20.386908509
 10
39.2163586025
 20
20.4017595034
 10
39.2305936526
 20
20.4164344254
 10
39.2531853163
 20
20.4307760368
 10
39.2838915296
 20
20.4446306711
 10
39.3223832832
 20
20.4578498791
 10
39.3682481478
 20
20.4702920207
 10
39.420994693
 20
20.4818237812
 10
39.4800577529
 20
20.4923216009
 10
39.5448044819
 20
20.5016729983
 10
39.6145411351
 20
20.5097777756
 10
39.6885205021
 20
20.5165490922
 10
39.7659499128
 20
20.5219143953
 10
39.8459997306
 20
20.5258161971
 10
39.9278122421
 20
20.5282126908
 10
40.010510847
 20
20.5290781987
  0
LINE
  5
287
100
AcDbEntity
  8
RACCORDO
100
AcDbLine
 62
250
  6
CONTINUOUS
 10
39.1986549871
 20
20.9579027366
 11
39.1
 21
20.416105735
  0
LINE
  5
288
100
AcDbEntity
  8
RACCORDO
100
AcDbLine
 62
7
  6
CONTINUOUS
 10
39.1127806392
 20
20.5576249781
 11
39.2115120871
 21
21.0998417364
  0
LINE
  5
289
100
AcDbEntity
  8
268
100
AcDbLine
 62
7
  6
CONTINUOUS
 10
54.3959173652
 20
23.7959173652
 11
54.4
 21
23.8
  0
LWPOLYLINE
  5
28A
100
AcDbEntity
  8
RACCORDO
100
AcDbPolyline
 62
250
  6
CONTINUOUS
 90
29
 70
0
 10
50.0
 20
-13.3481337184
 10
50.057627183
 20
-13.346472467
 10
50.1150649134
 20
-13.341493787
 10
50.1721198486
 20
-13.333213664
 10
50.2285720999
 20
-13.3216657198
 10
50.2842600129
 20
-13.3068847509
 10
50.3390765377
 20
-13.2888907237
 10
50.3928877239
 20
-13.2677056621
 10
50.4454469757
 20
-13.2434041903
 10
50.4964848251
 20
-13.2161029492
 10
50.545821224
 20
-13.1859004541
 10
50.5932966337
 20
-13.1528966501
 10
50.6386954561
 20
-13.1172504846
 10
50.6818312386
 20
-13.0791319716
 10
50.7226128815
 20
-13.0386463693
 10
50.7609757201
 20
-12.9958651582
 10
50.7968115268
 20
-12.950899004
 10
50.8299699524
 20
-12.9039258115
 10
50.860326509
 20
-12.8551191621
 10
50.8877781524
 20
-12.8046451815
 10
50.9122331471
 20
-12.7526730401
 10
50.9336038449
 20
-12.6993923678
 10
50.9518102429
 20
-12.6450185023
 10
50.9668080826
 20
-12.5897022334
 10
50.9785659946
 20
-12.5335385771
 10
50.987037626
 20
-12.4766586536
 10
50.9921676938
 20
-12.419307823
 10
50.9939250858
 20
-12.3617546619
 10
50.9928756596
 20
-12.3152139937
  0
LWPOLYLINE
  5
28B
100
AcDbEntity
  8
RACCORDO
100
AcDbPolyline
 62
250
  6
CONTINUOUS
 90
55
 70
0
 10
50.0
 20
-13.2465346134
 10
50.0523528721
 20
-13.2450257093
 10
50.1045336486
 20
-13.2405028496
 10
50.1563666557
 20
-13.2329805576
 10
50.2076520806
 20
-13.2224892834
 10
50.2582430506
 20
-13.209060747
 10
50.308042392
 20
-13.192713383
 10
50.356928507
 20
-13.1734673499
 10
50.404677345
 20
-13.1513902691
 10
50.4510440213
 20
-13.126587914
 10
50.4958649068
 20
-13.0991497096
 10
50.5389950976
 20
-13.0691665408
 10
50.5802387657
 20
-13.0367828675
 10
50.619426546
 20
-13.0021531634
 10
50.656475661
 20
-12.9653730275
 10
50.6913273521
 20
-12.9265073843
 10
50.7238832906
 20
-12.8856567665
 10
50.7540068933
 20
-12.8429828021
 10
50.7815850691
 20
-12.7986431878
 10
50.8065242073
 20
-12.7527888458
 10
50.8287409665
 20
-12.7055734616
 10
50.8481557178
 20
-12.657169308
 10
50.8646957784
 20
-12.6077720138
 10
50.8783209421
 20
-12.5575185687
 10
50.8890027135
 20
-12.5064952934
 10
50.8966989839
 20
-12.4548213071
 10
50.9013595284
 20
-12.4027195131
 10
50.90295608
 20
-12.3504339062
 10
50.9014839148
 20
-12.2981621046
 10
50.8969487866
 20
-12.2460618306
 10
50.8893671001
 20
-12.194318257
 10
50.8787670135
 20
-12.1431129216
 10
50.8651848015
 20
-12.0926134519
 10
50.8486641126
 20
-12.0429816339
 10
50.8292575583
 20
-11.9943798226
 10
50.8070323666
 20
-11.9469800422
 10
50.7820688418
 20
-11.9009530621
 10
50.7544569289
 20
-11.8564608986
 10
50.7242879758
 20
-11.8136472967
 10
50.6916578595
 20
-11.7726480588
 10
50.6566708463
 20
-11.7335967643
 10
50.6194501729
 20
-11.6966333465
 10
50.5801322431
 20
-11.6618927609
 10
50.538859945
 20
-11.6294979652
 10
50.4957666976
 20
-11.5995505963
 10
50.4509844677
 20
-11.5721423837
 10
50.4046333352
 20
-11.5473521662
 10
50.3568992062
 20
-11.5252844035
 10
50.3080254387
 20
-11.5060447665
 10
50.2582349769
 20
-11.4897012125
 10
50.2076498822
 20
-11.4762746936
 10
50.1563681989
 20
-11.4657842957
 10
50.1045370327
 20
-11.458262138
 10
50.0523557544
 20
-11.45373902
 10
50.0
 20
-11.4522298724
  0
LWPOLYLINE
  5
28C
100
AcDbEntity
  8
RACCORDO
100
AcDbPolyline
 62
7
  6
CONTINUOUS
 90
20
 70
0
 10
50.0000000046
 20
-13.5749924653
 10
49.9756237917
 20
-13.5747419152
 10
49.8725503259
 20
-13.5682216752
 10
49.770384974
 20
-13.5528722026
 10
49.6699395951
 20
-13.5287825355
 10
49.5719295735
 20
-13.4961574705
 10
49.4770557949
 20
-13.45520732
 10
49.3860123933
 20
-13.4062193329
 10
49.2994787573
 20
-13.3495766825
 10
49.2181261593
 20
-13.2856689105
 10
49.1425617294
 20
-13.2149534357
 10
49.0733433861
 20
-13.1379761397
 10
49.0110297526
 20
-13.0553061142
 10
48.9560852451
 20
-12.9675596607
 10
48.9089014674
 20
-12.8754005209
 10
48.8698681144
 20
-12.7795134486
 10
48.8392691294
 20
-12.6806128042
 10
48.8173140236
 20
-12.5794431263
 10
48.8042020573
 20
-12.4767641855
 10
48.8000779268
 20
-12.3891163766
  0
LWPOLYLINE
  5
28D
100
AcDbEntity
  8
RACCORDO
100
AcDbPolyline
 62
250
  6
CONTINUOUS
 90
40
 70
0
 10
50.0
 20
-13.6684478358
 10
49.8950450447
 20
-13.6641435072
 10
49.7919117679
 20
-13.6517003712
 10
49.6906001696
 20
-13.6311184948
 10
49.5904305504
 20
-13.60216601
 10
49.4920826098
 20
-13.5650750543
 10
49.3975954461
 20
-13.5205417515
 10
49.3070790793
 20
-13.4684100035
 10
49.2204234895
 20
-13.4088363929
 10
49.1393377158
 20
-13.3429860583
 10
49.0639534144
 20
-13.2707593715
 10
48.9941389291
 20
-13.1922565528
 10
48.93120833
 20
-13.1089424327
 10
48.875273219
 20
-13.0206967907
 10
48.8262219942
 20
-12.9276404265
 10
48.7850339197
 20
-12.8315995352
 10
48.7518726625
 20
-12.7325312815
 10
48.7265745556
 20
-12.6304789243
 10
48.7096278614
 20
-12.5273975585
 10
48.7011939005
 20
-12.423256919
 10
48.7011113523
 20
-12.3180874465
 10
48.7093845186
 20
-12.2139350076
 10
48.7261779059
 20
-12.1108248142
 10
48.7513270076
 20
-12.0087315291
 10
48.7843426054
 20
-11.9096249009
 10
48.8253826812
 20
-11.8135589582
 10
48.8742892531
 20
-11.7204792718
 10
48.9300991565
 20
-11.6321926461
 10
48.9929377716
 20
-11.5488039053
 10
49.0626797182
 20
-11.4702076358
 10
49.137985691
 20
-11.3978950992
 10
49.2189514957
 20
-11.3319861474
 10
49.3054813268
 20
-11.2723602925
 10
49.3959484618
 20
-11.2201481925
 10
49.4904840381
 20
-11.175477946
 10
49.5889569184
 20
-11.1382209209
 10
49.6893469682
 20
-11.1091226673
 10
49.7909808093
 20
-11.0884315926
 10
49.8945318199
 20
-11.0758989837
 10
50.0
 20
-11.0715247643
  0
LINE
  5
28E
100
AcDbEntity
  8
268
100
AcDbLine
 62
7
  6
CONTINUOUS
 10
54.3959173652
 20
-23.7959173652
 11
54.4
 21
-23.8
  0
LWPOLYLINE
  5
28F
100
AcDbEntity
  8
RACCORDO
100
AcDbPolyline
 62
250
  6
CONTINUOUS
 90
16
 70
0
 10
39.1986549871
 20
-20.2782441292
 10
39.2030605051
 20
-20.3611435993
 10
39.2161779071
 20
-20.4431525713
 10
39.2378635626
 20
-20.5233728922
 10
39.2678800027
 20
-20.6009259946
 10
39.3058985178
 20
-20.6749625137
 10
39.3515027551
 20
-20.7446715899
 10
39.404193285
 20
-20.8092897616
 10
39.4633930632
 20
-20.868109314
 10
39.5284537422
 20
-20.9204860288
 10
39.5986627941
 20
-20.9658462601
 10
39.6732512989
 20
-21.0036932014
 10
39.7514023499
 20
-21.0336123248
 10
39.8322600315
 20
-21.0552759385
 10
39.9149387964
 20
-21.0684467691
 10
39.9985331432
 20
-21.0729805533
  0
LWPOLYLINE
  5
290
100
AcDbEntity
  8
268
100
AcDbPolyline
 62
7
  6
CONTINUOUS
 90
31
 70
0
 10
38.85
 20
-22.0499866726
 10
38.850479639
 20
-22.0683045068
 10
38.8519172444
 20
-22.0865721551
 10
38.8543088801
 20
-22.1047395529
 10
38.8576479951
 20
-22.1227569124
 10
38.8619254418
 20
-22.1405748519
 10
38.8671295019
 20
-22.158144531
 10
38.8732459167
 20
-22.1754177965
 10
38.8802579267
 20
-22.1923473068
 10
38.8881463184
 20
-22.2088866539
 10
38.896889476
 20
-22.224990507
 10
38.90646344
 20
-22.2406147282
 10
38.9168419743
 20
-22.2557164847
 10
38.9279966372
 20
-22.2702543843
 10
38.9398968589
 20
-22.2841885798
 10
38.9525100257
 20
-22.2974808689
 10
38.96580157
 20
-22.3100948174
 10
38.979735064
 20
-22.3219958502
 10
38.9942723191
 20
-22.3331513373
 10
39.0093734926
 20
-22.3435307
 10
39.0249971955
 20
-22.3531054869
 10
39.0411006049
 20
-22.3618494448
 10
39.0576395838
 20
-22.3697386035
 10
39.0745688011
 20
-22.3767513366
 10
39.0918418549
 20
-22.3828684145
 10
39.1094114004
 20
-22.3880730663
 10
39.127229281
 20
-22.3923510231
 10
39.145246659
 20
-22.3956905527
 10
39.1634141491
 20
-22.3980824962
 10
39.1816819536
 20
-22.3995202939
 10
39.2
 20
-22.4
  0
LINE
  5
291
100
AcDbEntity
  8
268
100
AcDbLine
 62
7
  6
CONTINUOUS
 10
39.4138173458
 20
-23.6278312164
 11
39.4087267447
 21
-23.1226497308
  0
LINE
  5
292
100
AcDbEntity
  8
RACCORDO
100
AcDbLine
 62
250
  6
CONTINUOUS
 10
39.2101879968
 20
20.5288093301
 11
39.2095942345
 21
20.6174986509
  0
LINE
  5
293
100
AcDbEntity
  8
RACCORDO
100
AcDbLine
 62
250
  6
CONTINUOUS
 10
39.2105432731
 20
20.4354853456
 11
39.2101879968
 21
20.5288093301
  0
LINE
  5
294
100
AcDbEntity
  8
268
100
AcDbLine
 62
7
  6
CONTINUOUS
 10
38.85
 20
22.0281695031
 11
38.85
 21
-22.0281695031
  0
LINE
  5
295
100
AcDbEntity
  8
RACCORDO
100
AcDbLine
 62
7
  6
CONTINUOUS
 10
39.1
 20
-21.016082768
 11
39.1
 21
20.416105735
  0
LINE
  5
296
100
AcDbEntity
  8
268
100
AcDbLine
 62
250
  6
CONTINUOUS
 10
39.2
 20
-22.4
 11
39.2
 21
-22.3781828305
  0
LINE
  5
297
100
AcDbEntity
  8
268
100
AcDbLine
 62
250
  6
CONTINUOUS
 10
39.2
 20
22.3781828305
 11
39.2
 21
22.4
  0
LWPOLYLINE
  5
298
100
AcDbEntity
  8
RACCORDO
100
AcDbPolyline
 62
250
  6
CONTINUOUS
 90
12
 70
0
 10
39.2142366938
 20
-16.2034358251
 10
39.217185527
 20
-12.8579707404
 10
39.2194791902
 20
-9.5154940617
 10
39.2211178096
 20
-6.1755847648
 10
39.2221012592
 20
-2.8386638739
 10
39.2224291608
 20
0.4940055382
 10
39.2221012634
 20
3.8224211991
 10
39.2211178181
 20
7.1465853811
 10
39.2194792006
 20
10.4652418287
 10
39.2171855362
 20
13.7779717899
 10
39.2142366996
 20
17.0851940167
 10
39.2105432731
 20
20.4354853456
  0
LINE
  5
299
100
AcDbEntity
  8
RACCORDO
100
AcDbLine
 62
250
  6
CONTINUOUS
 10
39.210543407
 20
-19.6015869151
 11
39.2142366938
 21
-16.2034358251
  0
LINE
  5
29A
100
AcDbEntity
  8
RACCORDO
100
AcDbLine
 62
250
  6
CONTINUOUS
 10
39.2101884561
 20
-19.6994624859
 11
39.210543407
 21
-19.6015869151
  0
LWPOLYLINE
  5
29B
100
AcDbEntity
  8
RACCORDO
100
AcDbPolyline
 62
250
  6
CONTINUOUS
 90
3
 70
0
 10
39.2092150716
 20
-19.8424767722
 10
39.2095950765
 20
-19.7958302001
 10
39.2101884561
 20
-19.6994624859
  0
LINE
  5
29C
100
AcDbEntity
  8
268
100
AcDbLine
 62
7
  6
CONTINUOUS
 10
39.4087267447
 20
23.1226497308
 11
39.4138173458
 21
23.6278312164
  0
LWPOLYLINE
  5
29D
100
AcDbEntity
  8
268
100
AcDbPolyline
 62
7
  6
CONTINUOUS
 90
31
 70
0
 10
38.85
 20
22.0499866726
 10
38.850479639
 20
22.0683045068
 10
38.8519172444
 20
22.0865721551
 10
38.8543088801
 20
22.1047395529
 10
38.8576479951
 20
22.1227569124
 10
38.8619254418
 20
22.1405748519
 10
38.8671295019
 20
22.158144531
 10
38.8732459167
 20
22.1754177965
 10
38.8802579267
 20
22.1923473068
 10
38.8881463184
 20
22.2088866539
 10
38.896889476
 20
22.224990507
 10
38.90646344
 20
22.2406147282
 10
38.9168419743
 20
22.2557164847
 10
38.9279966372
 20
22.2702543843
 10
38.9398968589
 20
22.2841885798
 10
38.9525100257
 20
22.2974808689
 10
38.96580157
 20
22.3100948174
 10
38.979735064
 20
22.3219958502
 10
38.9942723191
 20
22.3331513373
 10
39.0093734926
 20
22.3435307
 10
39.0249971955
 20
22.3531054869
 10
39.0411006049
 20
22.3618494448
 10
39.0576395838
 20
22.3697386035
 10
39.0745688011
 20
22.3767513366
 10
39.0918418549
 20
22.3828684145
 10
39.1094114004
 20
22.3880730663
 10
39.127229281
 20
22.3923510231
 10
39.145246659
 20
22.3956905527
 10
39.1634141491
 20
22.3980824962
 10
39.1816819536
 20
22.3995202939
 10
39.2
 20
22.4
  0
LWPOLYLINE
  5
29E
100
AcDbEntity
  8
RACCORDO
100
AcDbPolyline
 62
250
  6
CONTINUOUS
 90
3
 70
0
 10
39.1986549871
 20
20.9579027366
 10
39.2030605673
 20
21.0411157419
 10
39.211474683
 20
21.0996364727
  0
LWPOLYLINE
  5
29F
100
AcDbEntity
  8
0
100
AcDbPolyline
 62
7
  6
CONTINUOUS
 90
18
 70
0
 10
50.0
 20
-11.2996358454
 10
49.8941206366
 20
-11.3044574869
 10
49.7905930186
 20
-11.3179995429
 10
49.6894171459
 20
-11.3402620134
 10
49.589862526
 20
-11.3715455331
 10
49.4926596514
 20
-11.4115494673
 10
49.4
 20
-11.4593719112
 10
49.3119867761
 20
-11.5151904709
 10
49.2285167755
 20
-11.5788275403
 10
49.1514718626
 20
-11.6488483961
 10
49.0809979905
 20
-11.7253980531
 10
49.0169492063
 20
-11.8083314966
 10
48.9607695155
 20
-11.8957789588
 10
48.9126376732
 20
-11.9878429805
 10
48.8723749242
 20
-12.084421021
 10
48.8408890085
 20
-12.1833356895
 10
48.8183793014
 20
-12.284640065
 10
48.8046464275
 20
-12.3882810686
  0
LWPOLYLINE
  5
2A0
100
AcDbEntity
  8
RACCORDO
100
AcDbPolyline
 62
250
  6
CONTINUOUS
 90
55
 70
0
 10
50.0
 20
-11.4522298724
 10
49.9476471279
 20
-11.4537387827
 10
49.8954663514
 20
-11.4582616454
 10
49.8436333443
 20
-11.4657839374
 10
49.7923479194
 20
-11.4762752063
 10
49.7417569494
 20
-11.4897037344
 10
49.691957608
 20
-11.506051093
 10
49.643071493
 20
-11.5252971274
 10
49.595322655
 20
-11.5473742125
 10
49.5489559787
 20
-11.5721765707
 10
49.5041350932
 20
-11.5996147753
 10
49.4610049024
 20
-11.6295979431
 10
49.4197612343
 20
-11.6619816157
 10
49.380573454
 20
-11.6966113199
 10
49.343524339
 20
-11.7333914563
 10
49.3086726479
 20
-11.7722570999
 10
49.2761167094
 20
-11.8131077179
 10
49.2459931067
 20
-11.8557816824
 10
49.2184149309
 20
-11.9001212968
 10
49.1934757927
 20
-11.9459756391
 10
49.1712590335
 20
-11.9931910234
 10
49.1518442822
 20
-12.0415951772
 10
49.1353042216
 20
-12.0909924714
 10
49.1216790579
 20
-12.1412459166
 10
49.1109972865
 20
-12.192269192
 10
49.1033010161
 20
-12.2439431783
 10
49.0986404716
 20
-12.2960449725
 10
49.09704392
 20
-12.3483305795
 10
49.0985160852
 20
-12.4006023811
 10
49.1030512134
 20
-12.4527026552
 10
49.1106328999
 20
-12.5044462288
 10
49.1212329865
 20
-12.5556515642
 10
49.1348151985
 20
-12.6061510339
 10
49.1513358874
 20
-12.6557828519
 10
49.1707424417
 20
-12.7043846632
 10
49.1929676334
 20
-12.7517844435
 10
49.2179311582
 20
-12.7978114236
 10
49.2455430711
 20
-12.842303587
 10
49.2757120242
 20
-12.8851171889
 10
49.3083421405
 20
-12.9261164268
 10
49.3433291537
 20
-12.965167721
 10
49.3805498271
 20
-13.0021311384
 10
49.4198677569
 20
-13.0368717239
 10
49.461140055
 20
-13.0692665201
 10
49.5042333024
 20
-13.0992138897
 10
49.5490155323
 20
-13.1266221024
 10
49.5953666648
 20
-13.1514123176
 10
49.6431007938
 20
-13.1734800775
 10
49.6919745613
 20
-13.1927197137
 10
49.7417650231
 20
-13.2090632714
 10
49.7923501178
 20
-13.222489796
 10
49.8436318011
 20
-13.2329801974
 10
49.8954629673
 20
-13.240502355
 10
49.9476442456
 20
-13.2450254706
 10
50.0
 20
-13.2465346134
  0
LWPOLYLINE
  5
2A1
100
AcDbEntity
  8
RACCORDO
100
AcDbPolyline
 62
7
  6
CONTINUOUS
 90
28
 70
0
 10
49.9999999999
 20
-11.372475474
 10
50.0561237324
 20
-11.3740521244
 10
50.1120663228
 20
-11.3787768133
 10
50.167649737
 20
-11.3866341942
 10
50.2226976645
 20
-11.3975991561
 10
50.2770343569
 20
-11.4116365782
 10
50.3304852263
 20
-11.4287011141
 10
50.3828800982
 20
-11.4487380922
 10
50.4340524027
 20
-11.4716835328
 10
50.4838380861
 20
-11.4974635397
 10
50.5320786428
 20
-11.5259956039
 10
50.578620794
 20
-11.5571886815
 10
50.6233157751
 20
-11.5909426511
 10
50.6660213049
 20
-11.6271495577
 10
50.7066017466
 20
-11.6656939211
 10
50.7449278147
 20
-11.7064524548
 10
50.7808775192
 20
-11.74929487
 10
50.8143367171
 20
-11.794084566
 10
50.8451991609
 20
-11.8406787736
 10
50.8733666281
 20
-11.8889286188
 10
50.8987497032
 20
-11.9386802838
 10
50.921268025
 20
-11.9897756869
 10
50.9408499299
 20
-12.0420516594
 10
50.9574332511
 20
-12.095341533
 10
50.9709655918
 20
-12.1494763776
 10
50.9814039391
 20
-12.2042838508
 10
50.9887150225
 20
-12.2595887237
 10
50.9928756473
 20
-12.3152137271
  0
LWPOLYLINE
  5
2A2
100
AcDbEntity
  8
RACCORDO
100
AcDbPolyline
 62
250
  6
CONTINUOUS
 90
21
 70
0
 10
50.0
 20
-11.1783174308
 10
50.0959959325
 20
-11.1821573666
 10
50.1915097157
 20
-11.1936728468
 10
50.2859235302
 20
-11.2128221411
 10
50.3786583747
 20
-11.2395265992
 10
50.4690678817
 20
-11.2736385665
 10
50.5564531723
 20
-11.3149134094
 10
50.6402245776
 20
-11.363076908
 10
50.7198581398
 20
-11.4178311753
 10
50.7948028589
 20
-11.4787953608
 10
50.8645529884
 20
-11.5455491633
 10
50.9286858067
 20
-11.6176773574
 10
50.9868212768
 20
-11.694752048
 10
51.0385915754
 20
-11.7763091226
 10
51.0836331722
 20
-11.8618010374
 10
51.1216317509
 20
-11.9506348978
 10
51.1523363043
 20
-12.0422191998
 10
51.1755561884
 20
-12.1359777126
 10
51.1911434066
 20
-12.2313103948
 10
51.198994629
 20
-12.3276121871
 10
51.1999355033
 20
-12.3642414289
  0
LWPOLYLINE
  5
2A3
100
AcDbEntity
  8
RACCORDO
100
AcDbPolyline
 62
250
  6
CONTINUOUS
 90
40
 70
0
 10
50.0
 20
-11.0715247643
 10
50.1049878643
 20
-11.0758287048
 10
50.2081494151
 20
-11.0882666281
 10
50.3094846523
 20
-11.1088386099
 10
50.4096737878
 20
-11.1377776527
 10
50.5080366097
 20
-11.1748510569
 10
50.6025324825
 20
-11.2193603993
 10
50.6930499652
 20
-11.2714614713
 10
50.7797004988
 20
-11.3309990161
 10
50.8607777711
 20
-11.396808027
 10
50.936149873
 20
-11.4689877295
 10
51.0059487136
 20
-11.5474395314
 10
51.0688637084
 20
-11.6307016048
 10
51.1247836877
 20
-11.7188937635
 10
51.1738198212
 20
-11.8118967853
 10
51.214995033
 20
-11.9078901044
 10
51.2481467063
 20
-12.0069172751
 10
51.2734374579
 20
-12.1089351435
 10
51.2903780623
 20
-12.2119928242
 10
51.2988076935
 20
-12.316121916
 10
51.2988871776
 20
-12.4212909492
 10
51.2906097669
 20
-12.5254541434
 10
51.2738104721
 20
-12.6285873784
 10
51.2486542824
 20
-12.7307146023
 10
51.2156294181
 20
-12.8298618494
 10
51.1745768681
 20
-12.9259749585
 10
51.1256556433
 20
-13.0191076667
 10
51.0698309966
 20
-13.1074476131
 10
51.0069770207
 20
-13.1908884909
 10
50.9372196228
 20
-13.2695360293
 10
50.8619017772
 20
-13.3418957554
 10
50.7809281551
 20
-13.4078460288
 10
50.6943940852
 20
-13.4675078949
 10
50.6039285287
 20
-13.5197508283
 10
50.5094015793
 20
-13.5644455971
 10
50.4109431431
 20
-13.6017209496
 10
50.3105718992
 20
-13.6308333234
 10
50.2089607406
 20
-13.6515347673
 10
50.1054367742
 20
-13.6640729607
 10
50.0
 20
-13.6684478358
  0
LWPOLYLINE
  5
2A4
100
AcDbEntity
  8
RACCORDO
100
AcDbPolyline
 62
250
  6
CONTINUOUS
 90
17
 70
0
 10
39.2095942345
 20
20.6174986509
 10
39.2092139805
 20
20.6592210849
 10
39.2087788801
 20
20.6989163438
 10
39.2082898137
 20
20.7366276577
 10
39.2077542688
 20
20.7717773355
 10
39.2071716622
 20
20.8043187829
 10
39.2065425771
 20
20.8342985943
 10
39.2058762509
 20
20.8612788615
 10
39.2051720117
 20
20.8852188101
 10
39.2044305314
 20
20.9061592145
 10
39.203663063
 20
20.9237844899
 10
39.202868914
 20
20.9380407202
 10
39.2020487768
 20
20.9489818215
 10
39.2012159825
 20
20.9564539574
 10
39.2003749746
 20
20.9604058492
 10
39.1995213094
 20
20.9608887756
 10
39.1986549871
 20
20.9579027366
  0
LWPOLYLINE
  5
2A5
100
AcDbEntity
  8
RACCORDO
100
AcDbPolyline
 62
250
  6
CONTINUOUS
 90
17
 70
0
 10
40.0097966166
 20
20.9305144327
 10
40.0094704881
 20
21.0236793182
 10
40.0090905007
 20
21.1130287366
 10
40.008655703
 20
21.1981268355
 10
40.0081670463
 20
21.2785323494
 10
40.0076320835
 20
21.3538207228
 10
40.0070503247
 20
21.4236035497
 10
40.0064222598
 20
21.487551579
 10
40.005756912
 20
21.5453681743
 10
40.0050534893
 20
21.5967705966
 10
40.0043127837
 20
21.6414854705
 10
40.0035461937
 20
21.6792765533
 10
40.0027535463
 20
21.7099526699
 10
40.0019350146
 20
21.7333671725
 10
40.0011025166
 20
21.7494061429
 10
40.0002600251
 20
21.7579881839
 10
39.9997123585
 20
21.7595448407
  0
LINE
  5
2A6
100
AcDbEntity
  8
RACCORDO
100
AcDbLine
 62
250
  6
CONTINUOUS
 10
40.0102716318
 20
20.7345658202
 11
40.0097966166
 21
20.9305144327
  0
LINE
  5
2A7
100
AcDbEntity
  8
RACCORDO
100
AcDbLine
 62
250
  6
CONTINUOUS
 10
40.0141148613
 20
17.2192220536
 11
40.0102716318
 21
20.7345658202
  0
LINE
  5
2A8
100
AcDbEntity
  8
268
100
AcDbLine
 62
7
  6
CONTINUOUS
 10
39.4
 20
-22.4
 11
39.4
 21
-24.4
  0
LINE
  5
2A9
100
AcDbEntity
  8
268
100
AcDbLine
 62
7
  6
CONTINUOUS
 10
39.4
 20
22.4
 11
39.4
 21
24.4
  0
LINE
  5
2AA
100
AcDbEntity
  8
268
100
AcDbLine
 62
7
  6
CONTINUOUS
 10
39.4087267447
 20
-23.1226497308
 11
39.4087267447
 21
-22.3869096983
  0
LINE
  5
2AB
100
AcDbEntity
  8
268
100
AcDbLine
 62
7
  6
CONTINUOUS
 10
39.4087267447
 20
22.3869096983
 11
39.4087267447
 21
23.1226497308
  0
LINE
  5
2AC
100
AcDbEntity
  8
268
100
AcDbLine
 62
7
  6
CONTINUOUS
 10
39.4145445745
 20
-24.1369056521
 11
39.4145445745
 21
-23.8443375673
  0
LINE
  5
2AD
100
AcDbEntity
  8
268
100
AcDbLine
 62
7
  6
CONTINUOUS
 10
39.4145445745
 20
23.8443375673
 11
39.4145445745
 21
24.1369056521
  0
LWPOLYLINE
  5
2AE
100
AcDbEntity
  8
RACCORDO
100
AcDbPolyline
 62
250
  6
CONTINUOUS
 90
11
 70
0
 10
40.0141148614
 20
-16.1597821471
 10
40.0170637014
 20
-12.805219901
 10
40.019357367
 20
-9.4532403202
 10
40.0209959814
 20
-6.1042642263
 10
40.0219794214
 20
-2.7587119835
 10
40.0223073169
 20
0.5829965538
 10
40.0219794213
 20
3.9204418933
 10
40.0209959813
 20
7.2532050778
 10
40.0193573668
 20
10.5808678572
 10
40.0170637013
 20
13.9030125415
 10
40.0141148613
 20
17.2192220536
  0
LINE
  5
2AF
100
AcDbEntity
  8
RACCORDO
100
AcDbLine
 62
250
  6
CONTINUOUS
 10
40.0102716807
 20
-19.7285899924
 11
40.0141148614
 21
-16.1597821471
  0
LINE
  5
2B0
100
AcDbEntity
  8
RACCORDO
100
AcDbLine
 62
250
  6
CONTINUOUS
 10
40.0097966485
 20
-19.9377900307
 11
40.0102716807
 21
-19.7285899924
  0
LWPOLYLINE
  5
2B1
100
AcDbEntity
  8
RACCORDO
100
AcDbPolyline
 62
250
  6
CONTINUOUS
 90
3
 70
0
 10
40.0086558368
 20
-20.2371255441
 10
40.0090905137
 20
-20.1399379242
 10
40.0097966485
 20
-19.9377900307
  0
LWPOLYLINE
  5
2B2
100
AcDbEntity
  8
RACCORDO
100
AcDbPolyline
 62
250
  6
CONTINUOUS
 90
14
 70
0
 10
39.9985331432
 20
-21.072980553
 10
39.9994037125
 20
-21.0554093678
 10
40.0002602737
 20
-21.0304803479
 10
40.0011028266
 20
-20.9983200616
 10
40.001935316
 20
-20.9590936637
 10
40.0027537971
 20
-20.9129975244
 10
40.0035464363
 20
-20.8602543596
 10
40.0043131183
 20
-20.801117014
 10
40.0050539582
 20
-20.7358873711
 10
40.005757468
 20
-20.6649112023
 10
40.0064228223
 20
-20.5885639737
 10
40.0070508465
 20
-20.5072159619
 10
40.0076325289
 20
-20.4212446804
 10
40.0086558368
 20
-20.2371255441
  0
LWPOLYLINE
  5
2B3
100
AcDbEntity
  8
0
100
AcDbPolyline
 62
7
  6
CONTINUOUS
 90
3
 70
0
 43
0.3500000006
 10
51.1428552704
 20
33.3848145447
 10
51.0714286194
 20
33.1705300598
 10
50.9285707855
 20
32.8848143921
  0
LINE
  5
2B4
100
AcDbEntity
  8
268
100
AcDbLine
 62
7
  6
CONTINUOUS
 10
60.5869014213
 20
24.3869014213
 11
60.6
 21
24.4
  0
LWPOLYLINE
  5
2B5
100
AcDbEntity
  8
RACCORDO
100
AcDbPolyline
 62
250
  6
CONTINUOUS
 90
16
 70
0
 10
60.7893673091
 20
-19.5518893157
 10
60.7836411283
 20
-19.5480790178
 10
60.7694058503
 20
-19.5443264853
 10
60.7468140019
 20
-19.5406719253
 10
60.7161076479
 20
-19.5371544953
 10
60.6776157976
 20
-19.5338118836
 10
60.6317508797
 20
-19.5306799052
 10
60.5790043228
 20
-19.5277921184
 10
60.5199412904
 20
-19.5251794649
 10
60.4551946251
 20
-19.5228699385
 10
60.3854580678
 20
-19.5208882851
 10
60.3114788248
 20
-19.5192557376
 10
60.2340495613
 20
-19.5179897883
 10
60.1539999085
 20
-19.5171040016
 10
60.0721875742
 20
-19.5166078685
 10
59.989489153
 20
-19.5165067048
  0
LINE
  5
2B6
100
AcDbEntity
  8
268
100
AcDbLine
 62
7
  6
CONTINUOUS
 10
60.5869014213
 20
-24.3869014213
 11
60.6
 21
-24.4
  0
LINE
  5
2B7
100
AcDbEntity
  8
268
100
AcDbLine
 62
7
  6
CONTINUOUS
 10
41.6912732553
 20
23.1226497308
 11
41.6861826542
 21
23.6278312164
  0
LINE
  5
2B8
100
AcDbEntity
  8
268
100
AcDbLine
 62
7
  6
CONTINUOUS
 10
41.6854554255
 20
24.1369056521
 11
41.6854554255
 21
23.8443375673
  0
LINE
  5
2B9
100
AcDbEntity
  8
268
100
AcDbLine
 62
7
  6
CONTINUOUS
 10
41.6854554255
 20
-23.8443375673
 11
41.6854554255
 21
-24.1369056521
  0
LINE
  5
2BA
100
AcDbEntity
  8
268
100
AcDbLine
 62
7
  6
CONTINUOUS
 10
41.6912732553
 20
-23.1226497308
 11
41.6912732553
 21
-22.3869096983
  0
LINE
  5
2BB
100
AcDbEntity
  8
268
100
AcDbLine
 62
7
  6
CONTINUOUS
 10
41.6912732553
 20
22.3869096983
 11
41.6912732553
 21
23.1226497308
  0
LINE
  5
2BC
100
AcDbEntity
  8
268
100
AcDbLine
 62
7
  6
CONTINUOUS
 10
41.7
 20
-22.4
 11
41.7
 21
-24.4
  0
LINE
  5
2BD
100
AcDbEntity
  8
268
100
AcDbLine
 62
7
  6
CONTINUOUS
 10
41.7
 20
22.4
 11
41.7
 21
24.4
  0
LINE
  5
2BE
100
AcDbEntity
  8
268
100
AcDbLine
 62
7
  6
CONTINUOUS
 10
41.6861826542
 20
-23.6278312164
 11
41.6912732553
 21
-23.1226497308
  0
LWPOLYLINE
  5
2BF
100
AcDbEntity
  8
RACCORDO
100
AcDbPolyline
 62
250
  6
CONTINUOUS
 90
15
 70
0
 10
39.1986549871
 20
-20.2782441292
 10
39.1995219867
 20
-20.2699831492
 10
39.2003762021
 20
-20.2584167485
 10
39.2012176333
 20
-20.2435449271
 10
39.2020506825
 20
-20.2252594702
 10
39.2028709475
 20
-20.2036685926
 10
39.2036652222
 20
-20.1790969387
 10
39.2044328909
 20
-20.1514966147
 10
39.2051745693
 20
-20.1209155144
 10
39.2058788979
 20
-20.0878219638
 10
39.2065451544
 20
-20.0521853706
 10
39.2071740611
 20
-20.0140363271
 10
39.2077564254
 20
-19.9739349353
 10
39.2082916417
 20
-19.9318451177
 10
39.2092150716
 20
-19.8424767722
  0
LINE
  5
2C0
100
AcDbEntity
  8
RACCORDO
100
AcDbLine
 62
250
  6
CONTINUOUS
 10
39.1
 20
-21.016082768
 11
39.1986549871
 21
-20.2782441292
  0
LINE
  5
2C1
100
AcDbEntity
  8
RACCORDO
100
AcDbLine
 62
250
  6
CONTINUOUS
 10
39.8998781561
 20
-21.8108191919
 11
39.9985331432
 21
-21.072980553
  0
LINE
  5
2C2
100
AcDbEntity
  8
268
100
AcDbLine
 62
7
  6
CONTINUOUS
 10
54.3959173652
 20
22.3938759614
 11
54.4
 21
22.4
  0
LINE
  5
2C3
100
AcDbEntity
  8
268
100
AcDbLine
 62
7
  6
CONTINUOUS
 10
54.3959173652
 20
-22.3938759614
 11
54.4
 21
-22.4
  0
LINE
  5
2C4
100
AcDbEntity
  8
268
100
AcDbLine
 62
7
  6
CONTINUOUS
 10
45.6
 20
-23.8
 11
45.6
 21
-22.4
  0
LINE
  5
2C5
100
AcDbEntity
  8
268
100
AcDbLine
 62
7
  6
CONTINUOUS
 10
45.6
 20
22.4
 11
45.6
 21
23.8
  0
LINE
  5
2C6
100
AcDbEntity
  8
268
100
AcDbLine
 62
250
  6
CONTINUOUS
 10
45.6040826348
 20
23.7959173652
 11
45.6040826348
 21
22.3938759614
  0
LINE
  5
2C7
100
AcDbEntity
  8
268
100
AcDbLine
 62
250
  6
CONTINUOUS
 10
45.6040826348
 20
-22.3938759614
 11
45.6040826348
 21
-23.7959173652
  0
LINE
  5
2C8
100
AcDbEntity
  8
268
100
AcDbLine
 62
250
  6
CONTINUOUS
 10
45.9040775579
 20
23.7941821702
 11
45.9040775579
 21
22.3912731322
  0
LINE
  5
2C9
100
AcDbEntity
  8
268
100
AcDbLine
 62
250
  6
CONTINUOUS
 10
45.9040775579
 20
-22.3912731322
 11
45.9040775579
 21
-23.7941821702
  0
LINE
  5
2CA
100
AcDbEntity
  8
268
100
AcDbLine
 62
7
  6
CONTINUOUS
 10
46.5
 20
21.858797755
 11
46.5
 21
21.759544863
  0
LINE
  5
2CB
100
AcDbEntity
  8
268
100
AcDbLine
 62
7
  6
CONTINUOUS
 10
46.5
 20
-21.8108191919
 11
46.5
 21
-21.858797755
  0
LINE
  5
2CC
100
AcDbEntity
  8
268
100
AcDbLine
 62
7
  6
CONTINUOUS
 10
60.6
 20
22.4
 11
60.5912732553
 21
22.3869096983
  0
LWPOLYLINE
  5
2CD
100
AcDbEntity
  8
0
100
AcDbPolyline
 62
7
  6
CONTINUOUS
 90
2
 70
0
 43
0.3500000006
 10
69.1499984436
 20
-3.3928568802
 10
67.6499979858
 20
-3.3928568802
  0
LINE
  5
2CE
100
AcDbEntity
  8
268
100
AcDbLine
 62
7
  6
CONTINUOUS
 10
60.5912732553
 20
-22.3869096983
 11
60.6
 21
-22.4
  0
LWPOLYLINE
  5
2CF
100
AcDbEntity
  8
RACCORDO
100
AcDbPolyline
 62
250
  6
CONTINUOUS
 90
27
 70
0
 10
49.0076953968
 20
-12.4169773984
 10
49.0126874216
 20
-12.4743265543
 10
49.021032932
 20
-12.5312830736
 10
49.0327009333
 20
-12.5876471294
 10
49.0476514959
 20
-12.6432342067
 10
49.0658365736
 20
-12.6978662203
 10
49.0871982542
 20
-12.7513644589
 10
49.1116625374
 20
-12.8035395676
 10
49.1391410295
 20
-12.8542035725
 10
49.1695347252
 20
-12.9031781337
 10
49.2027430723
 20
-12.9503050253
 10
49.2386605313
 20
-12.9954347661
 10
49.2771723273
 20
-13.0384203238
 10
49.3181428137
 20
-13.0791076643
 10
49.3614218557
 20
-13.1173482241
 10
49.4068521821
 20
-13.1530066384
 10
49.4542869147
 20
-13.1859710462
 10
49.5035807629
 20
-13.2161405217
 10
49.5546015242
 20
-13.2434283476
 10
49.6071446085
 20
-13.2677194864
 10
49.6609422002
 20
-13.2888974808
 10
49.7157489133
 20
-13.3068873983
 10
49.7714303191
 20
-13.3216662878
 10
49.8278784358
 20
-13.3332133641
 10
49.8849313486
 20
-13.3414933539
 10
49.9423696398
 20
-13.3464722835
 10
50.0
 20
-13.3481337184
  0
LWPOLYLINE
  5
2D0
100
AcDbEntity
  8
0
100
AcDbPolyline
 62
7
  6
CONTINUOUS
 90
4
 70
0
 43
0.3500000006
 10
68.7214294739
 20
-2.0357142563
 10
67.8642870026
 20
-2.0357142563
 10
67.435713501
 20
-1.6071430206
 10
67.435713501
 20
-0.9642850342
  0
LINE
  5
2D1
100
AcDbEntity
  8
RACCORDO
100
AcDbLine
 62
7
  6
CONTINUOUS
 10
48.8000647823
 20
-12.3891247227
 11
48.8
 21
-12.3766685683
  0
LWPOLYLINE
  5
2D2
100
AcDbEntity
  8
RACCORDO
100
AcDbPolyline
 62
250
  6
CONTINUOUS
 90
21
 70
0
 10
48.8
 20
-12.3766685683
 10
48.8009441051
 20
-12.3291297596
 10
48.8086734456
 20
-12.2328156461
 10
48.8241414027
 20
-12.137455921
 10
48.8472457637
 20
-12.0436590257
 10
48.8778364684
 20
-11.9520340578
 10
48.9157175746
 20
-11.8631662126
 10
48.960640199
 20
-11.7776365736
 10
49.0123016655
 20
-11.6960196042
 10
49.0703546231
 20
-11.618849793
 10
49.1344244593
 20
-11.5466112244
 10
49.2041055864
 20
-11.4797600612
 10
49.2789396714
 20
-11.4187322622
 10
49.3584463575
 20
-11.3639150986
 10
49.442146067
 20
-11.315646541
 10
49.5295400103
 20
-11.2742298428
 10
49.6200277502
 20
-11.2399635883
 10
49.7129382007
 20
-11.2131015303
 10
49.8076352409
 20
-11.1938113006
 10
49.9035301253
 20
-11.1821956032
 10
50.0
 20
-11.1783174308
  0
LWPOLYLINE
  5
2D3
100
AcDbEntity
  8
DRAFT
100
AcDbPolyline
 62
7
  6
CONTINUOUS
 90
29
 70
0
 10
49.0010658363
 20
-12.4463429058
 10
49.0
 20
-12.4919220722
 10
49.0017051096
 20
-12.5496267352
 10
49.0067862595
 20
-12.6073313981
 10
49.0151921815
 20
-12.6644536454
 10
49.0269565639
 20
-12.7209876315
 10
49.0420457184
 20
-12.7769392018
 10
49.0603073118
 20
-12.8317434767
 10
49.0817734526
 20
-12.8853887736
 10
49.1064120324
 20
-12.937886775
 10
49.1339743926
 20
-12.9887076496
 10
49.1644901733
 20
-13.0378344636
 10
49.1979297346
 20
-13.0852841506
 10
49.233955498
 20
-13.1305776806
 10
49.2725936441
 20
-13.1736931884
 10
49.3138179924
 20
-13.2146525392
 10
49.3572124229
 20
-13.2530422982
 10
49.4027989066
 20
-13.2888364398
 10
49.4505554726
 20
-13.3220609897
 10
49.5000000878
 20
-13.35238059
 10
49.5511498834
 20
-13.379765832
 10
49.6039877282
 20
-13.4042461243
 10
49.657980196
 20
-13.4255743359
 10
49.7131389313
 20
-13.4437185236
 10
49.7694522897
 20
-13.4587106304
 10
49.8263519117
 20
-13.4703993545
 10
49.8836483442
 20
-13.4787342617
 10
49.9415310403
 20
-13.4837657862
 10
50.0
 20
-13.4854939278
  0
LWPOLYLINE
  5
2D4
100
AcDbEntity
  8
RACCORDO
100
AcDbPolyline
 62
250
  6
CONTINUOUS
 90
3
 70
0
 10
49.0071243527
 20
-12.3152137271
 10
49.0060749142
 20
-12.3594394341
 10
49.0076953968
 20
-12.4169773984
  0
LINE
  5
2D5
100
AcDbEntity
  8
0
100
AcDbLine
 62
7
  6
CONTINUOUS
 10
48.8046464275
 20
-12.3882810686
 11
48.802398226
 21
-12.4384283823
  0
LINE
  5
2D6
100
AcDbEntity
  8
DRAFT
100
AcDbLine
 62
7
  6
CONTINUOUS
 10
49.0071243531
 20
-12.3152137192
 11
49.0010565395
 21
-12.4462613899
  0
LWPOLYLINE
  5
2D7
100
AcDbEntity
  8
RACCORDO
100
AcDbPolyline
 62
7
  6
CONTINUOUS
 90
28
 70
0
 10
49.0071243527
 20
-12.3152137271
 10
49.0112845569
 20
-12.2595927911
 10
49.0185948973
 20
-12.2042910698
 10
49.0290323305
 20
-12.1494858209
 10
49.0425637606
 20
-12.0953521925
 10
49.0591463089
 20
-12.0420626384
 10
49.0787276213
 20
-11.9897863771
 10
49.1012456239
 20
-11.9386901218
 10
49.1266287488
 20
-11.8889370796
 10
49.1547965939
 20
-11.8406855945
 10
49.1856597937
 20
-11.7940895232
 10
49.2191201639
 20
-11.7492977952
 10
49.2550713194
 20
-11.7064534293
 10
49.2933991191
 20
-11.665693051
 10
49.3339815651
 20
-11.6271469818
 10
49.3766891472
 20
-11.590938711
 10
49.421386184
 20
-11.5571837143
 10
49.4679303634
 20
-11.5259899289
 10
49.5161726631
 20
-11.497457584
 10
49.5659597361
 20
-11.4716776743
 10
49.6171330465
 20
-11.448732637
 10
49.669528313
 20
-11.4286963683
 10
49.7229789039
 20
-11.4116327519
 10
49.7773146361
 20
-11.3975963446
 10
49.8323607713
 20
-11.3866324064
 10
49.8879415082
 20
-11.3787759298
 10
49.9438805881
 20
-11.3740518814
 10
49.9999999999
 20
-11.372475474
  0
LINE
  5
2D8
100
AcDbEntity
  8
268
100
AcDbLine
 62
7
  6
CONTINUOUS
 10
38.85
 20
0.0
 11
39.1
 21
0.0
  0
LINE
  5
2D9
100
AcDbEntity
  8
268
100
AcDbLine
 62
7
  6
CONTINUOUS
 10
60.9
 20
0.0
 11
61.15
 21
0.0
  0
LWPOLYLINE
  5
2DA
100
AcDbEntity
  8
0
100
AcDbPolyline
 62
7
  6
CONTINUOUS
 90
18
 70
0
 10
51.1953535725
 20
-12.3882810686
 10
51.1816206986
 20
-12.284640065
 10
51.1591109915
 20
-12.1833356895
 10
51.1276250758
 20
-12.084421021
 10
51.0873623268
 20
-11.9878429805
 10
51.0392304845
 20
-11.8957789588
 10
50.9830507937
 20
-11.8083314966
 10
50.9190020095
 20
-11.7253980531
 10
50.8485281374
 20
-11.6488483961
 10
50.7714832245
 20
-11.5788275403
 10
50.6880132239
 20
-11.5151904709
 10
50.6
 20
-11.4593719112
 10
50.5073403486
 20
-11.4115494673
 10
50.410137474
 20
-11.3715455331
 10
50.3105828541
 20
-11.3402620134
 10
50.2094069814
 20
-11.3179995429
 10
50.1058793634
 20
-11.3044574869
 10
50.0
 20
-11.2996358454
  0
LINE
  5
2DB
100
AcDbEntity
  8
DRAFT
100
AcDbLine
 62
7
  6
CONTINUOUS
 10
50.9928756469
 20
-12.3152137192
 11
50.9989434605
 21
-12.4462613899
  0
LINE
  5
2DC
100
AcDbEntity
  8
0
100
AcDbLine
 62
7
  6
CONTINUOUS
 10
51.1974123348
 20
-12.4342028429
 11
51.1953535725
 21
-12.3882810686
  0
LWPOLYLINE
  5
2DD
100
AcDbEntity
  8
DRAFT
100
AcDbPolyline
 62
7
  6
CONTINUOUS
 90
29
 70
0
 10
50.9989341637
 20
-12.4463429058
 10
51.0
 20
-12.4919220722
 10
50.9982948904
 20
-12.5496267352
 10
50.9932137405
 20
-12.6073313981
 10
50.9848078185
 20
-12.6644536454
 10
50.9730434361
 20
-12.7209876315
 10
50.9579542816
 20
-12.7769392018
 10
50.9396926882
 20
-12.8317434767
 10
50.9182265474
 20
-12.8853887736
 10
50.8935879676
 20
-12.937886775
 10
50.8660256074
 20
-12.9887076496
 10
50.8355098267
 20
-13.0378344636
 10
50.8020702654
 20
-13.0852841506
 10
50.766044502
 20
-13.1305776806
 10
50.7274063559
 20
-13.1736931884
 10
50.6861820076
 20
-13.2146525392
 10
50.6427875771
 20
-13.2530422982
 10
50.5972010934
 20
-13.2888364398
 10
50.5494445274
 20
-13.3220609897
 10
50.4999999122
 20
-13.35238059
 10
50.4488501166
 20
-13.379765832
 10
50.3960122718
 20
-13.4042461243
 10
50.342019804
 20
-13.4255743359
 10
50.2868610687
 20
-13.4437185236
 10
50.2305477103
 20
-13.4587106304
 10
50.1736480883
 20
-13.4703993545
 10
50.1163516558
 20
-13.4787342617
 10
50.0584689597
 20
-13.4837657862
 10
50.0
 20
-13.4854939278
  0
LINE
  5
2DE
100
AcDbEntity
  8
RACCORDO
100
AcDbLine
 62
7
  6
CONTINUOUS
 10
51.1999355033
 20
-12.3642414289
 11
51.2
 21
-12.3766663391
  0
LWPOLYLINE
  5
2DF
100
AcDbEntity
  8
RACCORDO
100
AcDbPolyline
 62
7
  6
CONTINUOUS
 90
20
 70
0
 10
51.1999223544
 20
-12.3642493423
 10
51.1959480973
 20
-12.4750107063
 10
51.1830073558
 20
-12.5775415588
 10
51.1612613971
 20
-12.6785863261
 10
51.1308969269
 20
-12.7773786902
 10
51.0921109747
 20
-12.873175932
 10
51.0452086236
 20
-12.9652758666
 10
50.990568441
 20
-13.0529846066
 10
50.9285709715
 20
-13.1356404713
 10
50.8596981316
 20
-13.2126434257
 10
50.7845027088
 20
-13.2834105997
 10
50.7035385473
 20
-13.3473966049
 10
50.617424438
 20
-13.4041689114
 10
50.5268198299
 20
-13.4533294457
 10
50.432394169
 20
-13.4944971593
 10
50.3348374432
 20
-13.5274083245
 10
50.2348353316
 20
-13.5518423085
 10
50.1331025266
 20
-13.5675974945
 10
50.0304715562
 20
-13.5746057775
 10
50.000000006
 20
-13.5749993432
  0
LWPOLYLINE
  5
2E0
100
AcDbEntity
  8
0
100
AcDbPolyline
 62
7
  6
CONTINUOUS
 90
4
 70
0
 43
0.3500000006
 10
68.7214294739
 20
2.0357136154
 10
67.8642870026
 20
2.0357136154
 10
67.435713501
 20
2.4642848511
 10
67.435713501
 20
3.1071428375
  0
LINE
  5
2E1
100
AcDbEntity
  8
268
100
AcDbLine
 62
7
  6
CONTINUOUS
 10
53.5
 20
21.858797755
 11
53.5
 21
21.759544863
  0
LINE
  5
2E2
100
AcDbEntity
  8
268
100
AcDbLine
 62
7
  6
CONTINUOUS
 10
53.5
 20
-21.8108191919
 11
53.5
 21
-21.858797755
  0
LWPOLYLINE
  5
2E3
100
AcDbEntity
  8
RACCORDO
100
AcDbPolyline
 62
250
  6
CONTINUOUS
 90
18
 70
0
 10
60.000287661
 20
21.7595448411
 10
59.999739975
 20
21.7579881839
 10
59.9988974834
 20
21.7494061429
 10
59.9980649855
 20
21.7333671725
 10
59.9972464537
 20
21.7099526699
 10
59.9964538063
 20
21.6792765533
 10
59.9956872163
 20
21.6414854705
 10
59.9949465107
 20
21.5967705966
 10
59.994243088
 20
21.5453681743
 10
59.9935777402
 20
21.487551579
 10
59.9929496753
 20
21.4236035497
 10
59.9923679165
 20
21.3538207228
 10
59.9918329537
 20
21.2785323494
 10
59.991344297
 20
21.1981268355
 10
59.9909094993
 20
21.1130287366
 10
59.9905295119
 20
21.0236793182
 10
59.9902033834
 20
20.9305144327
 10
59.9897283682
 20
20.7345658202
  0
LINE
  5
2E4
100
AcDbEntity
  8
268
100
AcDbLine
 62
7
  6
CONTINUOUS
 10
39.4087267447
 20
-22.3869096983
 11
39.4
 21
-22.4
  0
LINE
  5
2E5
100
AcDbEntity
  8
268
100
AcDbLine
 62
7
  6
CONTINUOUS
 10
39.4
 20
22.4
 11
39.4087267447
 21
22.3869096983
  0
LINE
  5
2E6
100
AcDbEntity
  8
268
100
AcDbLine
 62
250
  6
CONTINUOUS
 10
54.0959224421
 20
-23.7941821702
 11
54.0959224421
 21
-22.3912731322
  0
LINE
  5
2E7
100
AcDbEntity
  8
268
100
AcDbLine
 62
250
  6
CONTINUOUS
 10
54.0959224421
 20
22.3912731322
 11
54.0959224421
 21
23.7941821702
  0
LINE
  5
2E8
100
AcDbEntity
  8
268
100
AcDbLine
 62
250
  6
CONTINUOUS
 10
54.3959173652
 20
-23.7959173652
 11
54.3959173652
 21
-22.3938759614
  0
LINE
  5
2E9
100
AcDbEntity
  8
268
100
AcDbLine
 62
250
  6
CONTINUOUS
 10
54.3959173652
 20
22.3938759614
 11
54.3959173652
 21
23.7959173652
  0
LINE
  5
2EA
100
AcDbEntity
  8
268
100
AcDbLine
 62
7
  6
CONTINUOUS
 10
54.4
 20
23.8
 11
54.4
 21
22.4
  0
LINE
  5
2EB
100
AcDbEntity
  8
268
100
AcDbLine
 62
7
  6
CONTINUOUS
 10
54.4
 20
-22.4
 11
54.4
 21
-23.8
  0
LWPOLYLINE
  5
2EC
100
AcDbEntity
  8
0
100
AcDbPolyline
 62
7
  6
CONTINUOUS
 90
10
 70
0
 43
0.3500000006
 10
68.649998291
 20
0.9642866592
 10
68.7928561249
 20
1.0357133102
 10
68.8642873077
 20
1.0357133102
 10
69.0071406097
 20
0.8928577423
 10
69.0071406097
 20
0.8214288254
 10
68.9357139587
 20
0.7499999084
 10
68.8642873077
 20
0.7499999084
 10
68.7214294739
 20
0.8214288254
 10
68.649998291
 20
0.8928577423
 10
68.649998291
 20
0.9642866592
  0
LWPOLYLINE
  5
2ED
100
AcDbEntity
  8
0
100
AcDbPolyline
 62
7
  6
CONTINUOUS
 90
3
 70
0
 43
0.3500000006
 10
68.8642873077
 20
1.0357133102
 10
69.0785717926
 20
0.9642866592
 10
69.3642874603
 20
0.8214288254
  0
LINE
  5
2EE
100
AcDbEntity
  8
RACCORDO
100
AcDbLine
 62
250
  6
CONTINUOUS
 10
60.0014668568
 20
-21.072980553
 11
60.1001218439
 21
-21.8108191919
  0
LINE
  5
2EF
100
AcDbEntity
  8
268
100
AcDbLine
 62
7
  6
CONTINUOUS
 10
58.3138173458
 20
-23.6278312164
 11
58.3087267447
 21
-23.1226497308
  0
LINE
  5
2F0
100
AcDbEntity
  8
268
100
AcDbLine
 62
7
  6
CONTINUOUS
 10
58.3
 20
-22.4
 11
58.3
 21
-24.4
  0
LINE
  5
2F1
100
AcDbEntity
  8
268
100
AcDbLine
 62
7
  6
CONTINUOUS
 10
58.3
 20
22.4
 11
58.3
 21
24.4
  0
LINE
  5
2F2
100
AcDbEntity
  8
268
100
AcDbLine
 62
7
  6
CONTINUOUS
 10
58.3087267447
 20
-23.1226497308
 11
58.3087267447
 21
-22.3869096983
  0
LINE
  5
2F3
100
AcDbEntity
  8
268
100
AcDbLine
 62
7
  6
CONTINUOUS
 10
58.3087267447
 20
22.3869096983
 11
58.3087267447
 21
23.1226497308
  0
LINE
  5
2F4
100
AcDbEntity
  8
268
100
AcDbLine
 62
7
  6
CONTINUOUS
 10
58.3145445745
 20
-24.1369056521
 11
58.3145445745
 21
-23.8443375673
  0
LINE
  5
2F5
100
AcDbEntity
  8
268
100
AcDbLine
 62
7
  6
CONTINUOUS
 10
58.3145445745
 20
23.8443375673
 11
58.3145445745
 21
24.1369056521
  0
LINE
  5
2F6
100
AcDbEntity
  8
268
100
AcDbLine
 62
7
  6
CONTINUOUS
 10
58.3087267447
 20
23.1226497308
 11
58.3138173458
 21
23.6278312164
  0
LINE
  5
2F7
100
AcDbEntity
  8
268
100
AcDbLine
 62
7
  6
CONTINUOUS
 10
45.6040826348
 20
-22.3938759614
 11
45.6
 21
-22.4
  0
LINE
  5
2F8
100
AcDbEntity
  8
268
100
AcDbLine
 62
7
  6
CONTINUOUS
 10
45.6040826348
 20
22.3938759614
 11
45.6
 21
22.4
  0
LINE
  5
2F9
100
AcDbEntity
  8
RACCORDO
100
AcDbLine
 62
250
  6
CONTINUOUS
 10
60.8013450129
 20
-20.2782441292
 11
60.9
 21
-21.016082768
  0
LWPOLYLINE
  5
2FA
100
AcDbEntity
  8
RACCORDO
100
AcDbPolyline
 62
250
  6
CONTINUOUS
 90
14
 70
0
 10
60.7917083583
 20
-19.9318451177
 10
60.7922435746
 20
-19.9739349353
 10
60.7928259389
 20
-20.0140363271
 10
60.7934548456
 20
-20.0521853706
 10
60.7941211021
 20
-20.0878219638
 10
60.7948254307
 20
-20.1209155144
 10
60.7955671091
 20
-20.1514966147
 10
60.7963347778
 20
-20.1790969386
 10
60.7971290525
 20
-20.2036685926
 10
60.7979493175
 20
-20.2252594702
 10
60.7987823667
 20
-20.2435449271
 10
60.7996237979
 20
-20.2584167485
 10
60.8004780133
 20
-20.2699831492
 10
60.8013450129
 20
-20.2782441292
  0
LINE
  5
2FB
100
AcDbEntity
  8
268
100
AcDbLine
 62
7
  6
CONTINUOUS
 10
60.5912732553
 20
23.1226497308
 11
60.5861826542
 21
23.6278312164
  0
LINE
  5
2FC
100
AcDbEntity
  8
RACCORDO
100
AcDbLine
 62
250
  6
CONTINUOUS
 10
60.7907849284
 20
-19.8424767722
 11
60.7917083583
 21
-19.9318451177
  0
LWPOLYLINE
  5
2FD
100
AcDbEntity
  8
RACCORDO
100
AcDbPolyline
 62
250
  6
CONTINUOUS
 90
13
 70
0
 10
59.9923674711
 20
-20.4212446804
 10
59.9929491535
 20
-20.5072159619
 10
59.9935771777
 20
-20.5885639737
 10
59.9942425319
 20
-20.6649112023
 10
59.9949460418
 20
-20.7358873711
 10
59.9956868818
 20
-20.801117014
 10
59.9964535637
 20
-20.8602543596
 10
59.9972462029
 20
-20.9129975244
 10
59.998064684
 20
-20.9590936637
 10
59.9988971733
 20
-20.9983200616
 10
59.9997397263
 20
-21.0304803479
 10
60.0005962874
 20
-21.0554093678
 10
60.0014668568
 20
-21.072980553
  0
LINE
  5
2FE
100
AcDbEntity
  8
RACCORDO
100
AcDbLine
 62
250
  6
CONTINUOUS
 10
60.7900788364
 20
-19.7478996144
 11
60.7907849284
 21
-19.8424767722
  0
LINE
  5
2FF
100
AcDbEntity
  8
RACCORDO
100
AcDbLine
 62
250
  6
CONTINUOUS
 10
59.9913441632
 20
-20.2371255441
 11
59.9923674711
 21
-20.4212446804
  0
LINE
  5
300
100
AcDbEntity
  8
RACCORDO
100
AcDbLine
 62
250
  6
CONTINUOUS
 10
60.7896046712
 20
-19.6507779719
 11
60.7900788364
 21
-19.7478996144
  0
LINE
  5
301
100
AcDbEntity
  8
RACCORDO
100
AcDbLine
 62
250
  6
CONTINUOUS
 10
59.9905295158
 20
-20.0399966001
 11
59.9913441632
 21
-20.2371255441
  0
LINE
  5
302
100
AcDbEntity
  8
RACCORDO
100
AcDbLine
 62
250
  6
CONTINUOUS
 10
59.9899357568
 20
-19.8338160327
 11
59.9905295158
 21
-20.0399966001
  0
LINE
  5
303
100
AcDbEntity
  8
RACCORDO
100
AcDbLine
 62
250
  6
CONTINUOUS
 10
60.7893673092
 20
-19.5518893157
 11
60.7896046712
 21
-19.6507779719
  0
LWPOLYLINE
  5
304
100
AcDbEntity
  8
RACCORDO
100
AcDbPolyline
 62
250
  6
CONTINUOUS
 90
3
 70
0
 10
59.9858851386
 20
-16.1597821471
 10
59.9895794514
 20
-19.6226431753
 10
59.9899357568
 20
-19.8338160327
  0
LINE
  5
305
100
AcDbEntity
  8
268
100
AcDbLine
 62
7
  6
CONTINUOUS
 10
60.5854554255
 20
24.1369056521
 11
60.5854554255
 21
23.8443375673
  0
LINE
  5
306
100
AcDbEntity
  8
268
100
AcDbLine
 62
7
  6
CONTINUOUS
 10
60.5854554255
 20
-23.8443375673
 11
60.5854554255
 21
-24.1369056521
  0
LINE
  5
307
100
AcDbEntity
  8
268
100
AcDbLine
 62
7
  6
CONTINUOUS
 10
60.5912732553
 20
-23.1226497308
 11
60.5912732553
 21
-22.3869096983
  0
LINE
  5
308
100
AcDbEntity
  8
268
100
AcDbLine
 62
7
  6
CONTINUOUS
 10
60.5912732553
 20
22.3869096983
 11
60.5912732553
 21
23.1226497308
  0
LINE
  5
309
100
AcDbEntity
  8
268
100
AcDbLine
 62
7
  6
CONTINUOUS
 10
60.6
 20
-22.4
 11
60.6
 21
-24.4
  0
LINE
  5
30A
100
AcDbEntity
  8
268
100
AcDbLine
 62
7
  6
CONTINUOUS
 10
60.6
 20
22.4
 11
60.6
 21
24.4
  0
LINE
  5
30B
100
AcDbEntity
  8
268
100
AcDbLine
 62
250
  6
CONTINUOUS
 10
60.8
 20
22.4
 11
60.8
 21
22.3781828305
  0
LINE
  5
30C
100
AcDbEntity
  8
268
100
AcDbLine
 62
250
  6
CONTINUOUS
 10
60.8
 20
-22.3781828305
 11
60.8
 21
-22.4
  0
LINE
  5
30D
100
AcDbEntity
  8
RACCORDO
100
AcDbLine
 62
7
  6
CONTINUOUS
 10
60.9
 20
-21.016082768
 11
60.9
 21
20.416105735
  0
LWPOLYLINE
  5
30E
100
AcDbEntity
  8
RACCORDO
100
AcDbPolyline
 62
250
  6
CONTINUOUS
 90
11
 70
0
 10
59.9858851387
 20
17.2192220536
 10
59.9829362987
 20
13.9030125415
 10
59.9806426332
 20
10.5808678572
 10
59.9790040187
 20
7.2532050778
 10
59.9780205787
 20
3.9204418933
 10
59.9776926831
 20
0.5829965538
 10
59.9780205786
 20
-2.7587119835
 10
59.9790040186
 20
-6.1042642263
 10
59.980642633
 20
-9.4532403202
 10
59.9829362986
 20
-12.805219901
 10
59.9858851386
 20
-16.1597821471
  0
LWPOLYLINE
  5
30F
100
AcDbEntity
  8
RACCORDO
100
AcDbPolyline
 62
250
  6
CONTINUOUS
 90
12
 70
0
 10
60.7857633004
 20
17.0851940167
 10
60.7828144638
 20
13.7779717899
 10
60.7805207994
 20
10.4652418287
 10
60.7788821819
 20
7.1465853811
 10
60.7778987366
 20
3.8224211991
 10
60.7775708392
 20
0.4940055382
 10
60.7778987408
 20
-2.8386638739
 10
60.7788821904
 20
-6.1755847648
 10
60.7805208098
 20
-9.5154940617
 10
60.782814473
 20
-12.8579707404
 10
60.7857633062
 20
-16.2034358251
 10
60.7893673092
 20
-19.5518893157
  0
LINE
  5
310
100
AcDbEntity
  8
RACCORDO
100
AcDbLine
 62
250
  6
CONTINUOUS
 10
59.9897283682
 20
20.7345658202
 11
59.9858851387
 21
17.2192220536
  0
LINE
  5
311
100
AcDbEntity
  8
RACCORDO
100
AcDbLine
 62
250
  6
CONTINUOUS
 10
60.7894567269
 20
20.4354853456
 11
60.7857633004
 21
17.0851940167
  0
LINE
  5
312
100
AcDbEntity
  8
RACCORDO
100
AcDbLine
 62
250
  6
CONTINUOUS
 10
60.7898120032
 20
20.5288093301
 11
60.7894567269
 21
20.4354853456
  0
LINE
  5
313
100
AcDbEntity
  8
268
100
AcDbLine
 62
7
  6
CONTINUOUS
 10
60.5861826542
 20
-23.6278312164
 11
60.5912732553
 21
-23.1226497308
  0
LINE
  5
314
100
AcDbEntity
  8
268
100
AcDbLine
 62
7
  6
CONTINUOUS
 10
39.4130985787
 20
-24.3869014213
 11
39.4
 21
-24.4
  0
LWPOLYLINE
  5
315
100
AcDbEntity
  8
RACCORDO
100
AcDbPolyline
 62
250
  6
CONTINUOUS
 90
16
 70
0
 10
39.2106326908
 20
-19.5518893157
 10
39.2163580185
 20
-19.5480789499
 10
39.2305925745
 20
-19.5443263467
 10
39.2531838375
 20
-19.5406717148
 10
39.2838897456
 20
-19.537154213
 10
39.3223812896
 20
-19.5338115308
 10
39.3682460384
 20
-19.5306794845
 10
39.4209925581
 20
-19.5277916336
 10
39.4800556777
 20
-19.5251789209
 10
39.5448025447
 20
-19.5228693413
 10
39.6145394062
 20
-19.5208876416
 10
39.6885190422
 20
-19.5192550553
 10
39.765948772
 20
-19.5179890755
 10
39.8459989477
 20
-19.5171032672
 10
39.9278118436
 20
-19.5166071215
 10
40.010510847
 20
-19.5165059547
  0
LINE
  5
316
100
AcDbEntity
  8
268
100
AcDbLine
 62
7
  6
CONTINUOUS
 10
39.4130985787
 20
24.3869014213
 11
39.4
 21
24.4
  0
LWPOLYLINE
  5
317
100
AcDbEntity
  8
RACCORDO
100
AcDbPolyline
 62
250
  6
CONTINUOUS
 90
3
 70
0
 10
60.8013450129
 20
20.9579027366
 10
60.7969395284
 20
21.0411148383
 10
60.7885253451
 20
21.0996363183
  0
LWPOLYLINE
  5
318
100
AcDbEntity
  8
268
100
AcDbPolyline
 62
7
  6
CONTINUOUS
 90
31
 70
0
 10
61.15
 20
22.0499866726
 10
61.149520361
 20
22.0683045068
 10
61.1480827556
 20
22.0865721551
 10
61.1456911199
 20
22.1047395529
 10
61.1423520049
 20
22.1227569124
 10
61.1380745582
 20
22.1405748519
 10
61.1328704981
 20
22.158144531
 10
61.1267540833
 20
22.1754177965
 10
61.1197420733
 20
22.1923473068
 10
61.1118536816
 20
22.2088866539
 10
61.103110524
 20
22.224990507
 10
61.09353656
 20
22.2406147282
 10
61.0831580257
 20
22.2557164847
 10
61.0720033628
 20
22.2702543843
 10
61.0601031411
 20
22.2841885798
 10
61.0474899743
 20
22.2974808689
 10
61.03419843
 20
22.3100948174
 10
61.020264936
 20
22.3219958502
 10
61.0057276809
 20
22.3331513373
 10
60.9906265074
 20
22.3435307
 10
60.9750028045
 20
22.3531054869
 10
60.9588993951
 20
22.3618494448
 10
60.9423604162
 20
22.3697386035
 10
60.9254311989
 20
22.3767513366
 10
60.9081581451
 20
22.3828684145
 10
60.8905885996
 20
22.3880730663
 10
60.872770719
 20
22.3923510231
 10
60.854753341
 20
22.3956905527
 10
60.8365858509
 20
22.3980824962
 10
60.8183180464
 20
22.3995202939
 10
60.8
 20
22.4
  0
LINE
  5
319
100
AcDbEntity
  8
268
100
AcDbLine
 62
7
  6
CONTINUOUS
 10
61.15
 20
22.0281695031
 11
61.15
 21
-22.0281695031
  0
LWPOLYLINE
  5
31A
100
AcDbEntity
  8
268
100
AcDbPolyline
 62
7
  6
CONTINUOUS
 90
31
 70
0
 10
61.15
 20
-22.0499866726
 10
61.149520361
 20
-22.0683045068
 10
61.1480827556
 20
-22.0865721551
 10
61.1456911199
 20
-22.1047395529
 10
61.1423520049
 20
-22.1227569124
 10
61.1380745582
 20
-22.1405748519
 10
61.1328704981
 20
-22.158144531
 10
61.1267540833
 20
-22.1754177965
 10
61.1197420733
 20
-22.1923473068
 10
61.1118536816
 20
-22.2088866539
 10
61.103110524
 20
-22.224990507
 10
61.09353656
 20
-22.2406147282
 10
61.0831580257
 20
-22.2557164847
 10
61.0720033628
 20
-22.2702543843
 10
61.0601031411
 20
-22.2841885798
 10
61.0474899743
 20
-22.2974808689
 10
61.03419843
 20
-22.3100948174
 10
61.020264936
 20
-22.3219958502
 10
61.0057276809
 20
-22.3331513373
 10
60.9906265074
 20
-22.3435307
 10
60.9750028045
 20
-22.3531054869
 10
60.9588993951
 20
-22.3618494448
 10
60.9423604162
 20
-22.3697386035
 10
60.9254311989
 20
-22.3767513366
 10
60.9081581451
 20
-22.3828684145
 10
60.8905885996
 20
-22.3880730663
 10
60.872770719
 20
-22.3923510231
 10
60.854753341
 20
-22.3956905527
 10
60.8365858509
 20
-22.3980824962
 10
60.8183180464
 20
-22.3995202939
 10
60.8
 20
-22.4
  0
LWPOLYLINE
  5
31B
100
AcDbEntity
  8
RACCORDO
100
AcDbPolyline
 62
250
  6
CONTINUOUS
 90
16
 70
0
 10
60.8013450129
 20
-20.2782441292
 10
60.7969394327
 20
-20.3611441871
 10
60.783821865
 20
-20.4431536365
 10
60.7621359729
 20
-20.5233743127
 10
60.7321192596
 20
-20.6009276419
 10
60.6941004671
 20
-20.6749642625
 10
60.6484959757
 20
-20.7446733283
 10
60.5958052444
 20
-20.809291388
 10
60.53660534
 20
-20.8681107468
 10
60.4715446179
 20
-20.9204872173
 10
60.4013356208
 20
-20.9658471742
 10
60.3267472752
 20
-21.0036938368
 10
60.2485964699
 20
-21.0336127099
 10
60.1677391098
 20
-21.0552761229
 10
60.0850607419
 20
-21.0684468189
 10
60.0014668568
 20
-21.072980553
  0
LWPOLYLINE
  5
31C
100
AcDbEntity
  8
0
100
AcDbPolyline
 62
7
  6
CONTINUOUS
 90
13
 70
0
 43
0.3500000006
 10
67.435713501
 20
2.4642848511
 10
67.2214290161
 20
2.1785714493
 10
66.5785710297
 20
2.1785714493
 10
66.1500020599
 20
2.4642848511
 10
66.1500020599
 20
3.1071428375
 10
66.5785710297
 20
3.3928562393
 10
67.2214290161
 20
3.3928562393
 10
67.435713501
 20
3.1071428375
 10
67.8642870026
 20
3.5357140732
 10
68.7214294739
 20
3.5357140732
 10
69.1499984436
 20
3.1071428375
 10
69.1499984436
 20
2.4642848511
 10
68.7214294739
 20
2.0357136154
  0
LINE
  5
31D
100
AcDbEntity
  8
268
100
AcDbLine
 62
7
  6
CONTINUOUS
 10
45.6040826348
 20
-23.7959173652
 11
45.6
 21
-23.8
  0
LINE
  5
31E
100
AcDbEntity
  8
268
100
AcDbLine
 62
7
  6
CONTINUOUS
 10
45.6040826348
 20
23.7959173652
 11
45.6
 21
23.8
  0
LWPOLYLINE
  5
31F
100
AcDbEntity
  8
RACCORDO
100
AcDbPolyline
 62
7
  6
CONTINUOUS
 90
38
 70
0
 10
60.7885230523
 20
21.0996385892
 10
60.7857679361
 20
21.114046516
 10
60.7808025438
 20
21.1371085905
 10
60.7749964862
 20
21.1607016867
 10
60.7683612248
 20
21.1845422784
 10
60.7607632488
 20
21.2088899279
 10
60.7522049081
 20
21.2335184678
 10
60.7426404679
 20
21.2583859025
 10
60.7320224952
 20
21.2834527958
 10
60.7203940432
 20
21.3084898835
 10
60.707739567
 20
21.3334370241
 10
60.694030064
 20
21.3582629329
 10
60.6793253304
 20
21.3827900196
 10
60.6636565973
 20
21.4069225262
 10
60.6469906753
 20
21.4306700152
 10
60.6293049169
 20
21.454015625
 10
60.6105941706
 20
21.4769150324
 10
60.5908638611
 20
21.4993123419
 10
60.5701062898
 20
21.5211678461
 10
60.5483267789
 20
21.5424276424
 10
60.5255331568
 20
21.5630371568
 10
60.5017229783
 20
21.5829515489
 10
60.4769085486
 20
21.6021132726
 10
60.4511057324
 20
21.6204638237
 10
60.4243197808
 20
21.6379529378
 10
60.3965724286
 20
21.6545195613
 10
60.3678881577
 20
21.670102912
 10
60.3382796063
 20
21.6846492921
 10
60.3077785092
 20
21.698095595
 10
60.2764201607
 20
21.7103791694
 10
60.2442267246
 20
21.7214433079
 10
60.2112412678
 20
21.7312241791
 10
60.1775115712
 20
21.7396587376
 10
60.143072151
 20
21.7466883354
 10
60.1079794155
 20
21.7522501962
 10
60.0722946191
 20
21.7562832096
 10
60.036065952
 20
21.758729069
 10
60.0002905391
 20
21.7595290808
  0
LINE
  5
320
100
AcDbEntity
  8
RACCORDO
100
AcDbLine
 62
250
  6
CONTINUOUS
 10
60.9
 20
20.416105735
 11
60.8013450129
 21
20.9579027366
  0
LINE
  5
321
100
AcDbEntity
  8
RACCORDO
100
AcDbLine
 62
7
  6
CONTINUOUS
 10
60.8872193608
 20
20.5576249781
 11
60.7885253169
 21
21.0996364731
  0
LWPOLYLINE
  5
322
100
AcDbEntity
  8
0
100
AcDbPolyline
 62
7
  6
CONTINUOUS
 90
13
 70
0
 43
0.3500000006
 10
67.435713501
 20
-1.6071430206
 10
67.2214290161
 20
-1.8928575554
 10
66.5785710297
 20
-1.8928575554
 10
66.1500020599
 20
-1.6071430206
 10
66.1500020599
 20
-0.9642850342
 10
66.5785710297
 20
-0.6785716324
 10
67.2214290161
 20
-0.6785716324
 10
67.435713501
 20
-0.9642850342
 10
67.8642870026
 20
-0.5357137985
 10
68.7214294739
 20
-0.5357137985
 10
69.1499984436
 20
-0.9642850342
 10
69.1499984436
 20
-1.6071430206
 10
68.7214294739
 20
-2.0357142563
  0
LWPOLYLINE
  5
323
100
AcDbEntity
  8
0
100
AcDbPolyline
 62
7
  6
CONTINUOUS
 90
10
 70
0
 43
0.3500000006
 10
51.0714286194
 20
33.5990990295
 10
51.1428552704
 20
33.4562411957
 10
51.1428552704
 20
33.3848145447
 10
51.0000019684
 20
33.2419567108
 10
50.9285707855
 20
33.2419567108
 10
50.8571441345
 20
33.3133878937
 10
50.8571441345
 20
33.3848145447
 10
50.9285707855
 20
33.5276723785
 10
51.0000019684
 20
33.5990990295
 10
51.0714286194
 20
33.5990990295
  0
LWPOLYLINE
  5
324
100
AcDbEntity
  8
RACCORDO
100
AcDbPolyline
 62
250
  6
CONTINUOUS
 90
18
 70
0
 10
60.8013450129
 20
20.9579027366
 10
60.8004786906
 20
20.9608887756
 10
60.7996250254
 20
20.9604058492
 10
60.7987840175
 20
20.9564539574
 10
60.7979512232
 20
20.9489818215
 10
60.797131086
 20
20.9380407202
 10
60.796336937
 20
20.92378449
 10
60.7955694686
 20
20.9061592145
 10
60.7948279883
 20
20.8852188101
 10
60.7941237491
 20
20.8612788615
 10
60.7934574229
 20
20.8342985943
 10
60.7928283379
 20
20.8043187829
 10
60.7922457312
 20
20.7717773355
 10
60.7917101863
 20
20.7366276576
 10
60.7912211199
 20
20.6989163437
 10
60.7907860195
 20
20.6592210849
 10
60.7904057655
 20
20.6174986509
 10
60.7898120032
 20
20.5288093301
  0
LWPOLYLINE
  5
325
100
AcDbEntity
  8
RACCORDO
100
AcDbPolyline
 62
250
  6
CONTINUOUS
 90
16
 70
0
 10
60.7893673092
 20
20.386908509
 10
60.7836419826
 20
20.4017596567
 10
60.7694074277
 20
20.4164347414
 10
60.7468161654
 20
20.4307765216
 10
60.7161102579
 20
20.4446313274
 10
60.6776187143
 20
20.4578507066
 10
60.6317539657
 20
20.4702930155
 10
60.579007446
 20
20.4818249367
 10
60.5199443263
 20
20.4923229073
 10
60.455197459
 20
20.5016744433
 10
60.3854605971
 20
20.5097793442
 10
60.3114809606
 20
20.5165507673
 10
60.2340512302
 20
20.5219161579
 10
60.1540010538
 20
20.5258180267
 10
60.0721881571
 20
20.5282145658
 10
59.989489153
 20
20.5290800966
  0
LWPOLYLINE
  5
326
100
AcDbEntity
  8
0
100
AcDbPolyline
 62
7
  6
CONTINUOUS
 90
3
 70
0
 43
0.3500000006
 10
68.507144989
 20
-2.8928567276
 10
68.507144989
 20
-4.3928571854
 10
66.1500020599
 20
-3.7500003319
  0
LINE
  5
327
100
AcDbEntity
  8
268
100
AcDbLine
 62
7
  6
CONTINUOUS
 10
58.3087267447
 20
-22.3869096983
 11
58.3
 21
-22.4
  0
LINE
  5
328
100
AcDbEntity
  8
268
100
AcDbLine
 62
7
  6
CONTINUOUS
 10
38.85
 20
19.9536487485
 11
39.1
 21
19.9536487485
  0
LINE
  5
329
100
AcDbEntity
  8
268
100
AcDbLine
 62
7
  6
CONTINUOUS
 10
60.9
 20
19.9536487485
 11
61.15
 21
19.9536487485
  0
LINE
  5
32A
100
AcDbEntity
  8
268
100
AcDbLine
 62
7
  6
CONTINUOUS
 10
58.3
 20
22.4
 11
58.3087267447
 21
22.3869096983
  0
LINE
  5
32B
100
AcDbEntity
  8
RACCORDO
100
AcDbLine
 62
250
  6
CONTINUOUS
 10
59.989489153
 20
20.5290801014
 11
40.010510847
 21
20.5290801014
  0
LINE
  5
32C
100
AcDbEntity
  8
RACCORDO
100
AcDbLine
 62
7
  6
CONTINUOUS
 10
60.0003052416
 20
21.759544863
 11
39.9951536637
 21
21.7595161239
  0
LINE
  5
32D
100
AcDbEntity
  8
268
100
AcDbLine
 62
7
  6
CONTINUOUS
 10
38.85
 20
21.858797755
 11
46.5
 21
21.858797755
  0
LINE
  5
32E
100
AcDbEntity
  8
268
100
AcDbLine
 62
7
  6
CONTINUOUS
 10
53.5
 20
21.858797755
 11
61.15
 21
21.858797755
  0
LINE
  5
32F
100
AcDbEntity
  8
268
100
AcDbLine
 62
7
  6
CONTINUOUS
 10
58.3130985787
 20
-24.3869014213
 11
58.3
 21
-24.4
  0
LWPOLYLINE
  5
330
100
AcDbEntity
  8
RACCORDO
100
AcDbPolyline
 62
7
  6
CONTINUOUS
 90
35
 70
0
 10
39.9951536637
 20
21.7595161239
 10
39.9557204392
 20
21.7583192168
 10
39.9167977021
 20
21.7552224153
 10
39.8784723355
 20
21.7502920954
 10
39.8408229825
 20
21.7435972008
 10
39.8039255708
 20
21.73520964
 10
39.767849991
 20
21.7252036582
 10
39.7326569994
 20
21.7136542956
 10
39.6984049738
 20
21.7006388703
 10
39.6651461037
 20
21.6862356983
 10
39.6329235479
 20
21.6705220918
 10
39.6017780898
 20
21.6535767829
 10
39.5717465255
 20
21.6354793448
 10
39.542858322
 20
21.6163078635
 10
39.5151393959
 20
21.5961407193
 10
39.488610979
 20
21.5750556912
 10
39.4632884475
 20
21.5531285383
 10
39.4391841156
 20
21.5304348577
 10
39.4163057061
 20
21.5070485573
 10
39.3946555533
 20
21.4830403682
 10
39.3742331396
 20
21.4584799261
 10
39.3550357904
 20
21.433436673
 10
39.3370570616
 20
21.4079778205
 10
39.3202750947
 20
21.3821490526
 10
39.3046896662
 20
21.3560301612
 10
39.2903151839
 20
21.3297391239
 10
39.2771171824
 20
21.3033169249
 10
39.2650781197
 20
21.276838382
 10
39.2542136242
 20
21.2504738175
 10
39.244463395
 20
21.2242329667
 10
39.2357982948
 20
21.1982043806
 10
39.2282365807
 20
21.1726701458
 10
39.2216259996
 20
21.1473487714
 10
39.215985808
 20
21.1225655391
 10
39.2115139155
 20
21.099841442
  0
LINE
  5
331
100
AcDbEntity
  8
268
100
AcDbLine
 62
7
  6
CONTINUOUS
 10
38.85
 20
22.0
 11
61.15
 21
22.0
  0
LINE
  5
332
100
AcDbEntity
  8
268
100
AcDbLine
 62
7
  6
CONTINUOUS
 10
60.8
 20
22.3781828305
 11
39.2
 21
22.3781828305
  0
LINE
  5
333
100
AcDbEntity
  8
268
100
AcDbLine
 62
7
  6
CONTINUOUS
 10
60.5912732553
 20
22.3869096983
 11
58.3087267447
 21
22.3869096983
  0
LINE
  5
334
100
AcDbEntity
  8
268
100
AcDbLine
 62
7
  6
CONTINUOUS
 10
41.6912732553
 20
22.3869096983
 11
39.4087267447
 21
22.3869096983
  0
LINE
  5
335
100
AcDbEntity
  8
268
100
AcDbLine
 62
7
  6
CONTINUOUS
 10
45.9040775579
 20
22.3912731322
 11
54.0959224421
 21
22.3912731322
  0
LINE
  5
336
100
AcDbEntity
  8
268
100
AcDbLine
 62
7
  6
CONTINUOUS
 10
39.2
 20
22.4
 11
39.4
 21
22.4
  0
LINE
  5
337
100
AcDbEntity
  8
268
100
AcDbLine
 62
7
  6
CONTINUOUS
 10
41.7
 20
22.4
 11
45.6
 21
22.4
  0
LINE
  5
338
100
AcDbEntity
  8
268
100
AcDbLine
 62
7
  6
CONTINUOUS
 10
54.4
 20
22.4
 11
58.3
 21
22.4
  0
LINE
  5
339
100
AcDbEntity
  8
268
100
AcDbLine
 62
7
  6
CONTINUOUS
 10
60.6
 20
22.4
 11
60.8
 21
22.4
  0
LINE
  5
33A
100
AcDbEntity
  8
268
100
AcDbLine
 62
7
  6
CONTINUOUS
 10
60.5912732553
 20
23.1226497308
 11
58.3087267447
 21
23.1226497308
  0
LINE
  5
33B
100
AcDbEntity
  8
268
100
AcDbLine
 62
7
  6
CONTINUOUS
 10
41.6912732553
 20
23.1226497308
 11
39.4087267447
 21
23.1226497308
  0
LINE
  5
33C
100
AcDbEntity
  8
268
100
AcDbLine
 62
250
  6
CONTINUOUS
 10
39.4138173458
 20
23.6278312164
 11
41.6861826542
 21
23.6278312164
  0
LINE
  5
33D
100
AcDbEntity
  8
268
100
AcDbLine
 62
250
  6
CONTINUOUS
 10
58.3138173458
 20
23.6278312164
 11
60.5861826542
 21
23.6278312164
  0
LINE
  5
33E
100
AcDbEntity
  8
268
100
AcDbLine
 62
7
  6
CONTINUOUS
 10
58.3130985787
 20
24.3869014213
 11
58.3
 21
24.4
  0
LINE
  5
33F
100
AcDbEntity
  8
268
100
AcDbLine
 62
7
  6
CONTINUOUS
 10
45.9040775579
 20
23.7941821702
 11
54.0959224421
 21
23.7941821702
  0
LINE
  5
340
100
AcDbEntity
  8
268
100
AcDbLine
 62
7
  6
CONTINUOUS
 10
45.6
 20
23.8
 11
54.4
 21
23.8
  0
LINE
  5
341
100
AcDbEntity
  8
268
100
AcDbLine
 62
250
  6
CONTINUOUS
 10
39.4145445745
 20
23.8443375673
 11
41.6854554255
 21
23.8443375673
  0
LINE
  5
342
100
AcDbEntity
  8
268
100
AcDbLine
 62
250
  6
CONTINUOUS
 10
58.3145445745
 20
23.8443375673
 11
60.5854554255
 21
23.8443375673
  0
LINE
  5
343
100
AcDbEntity
  8
268
100
AcDbLine
 62
250
  6
CONTINUOUS
 10
60.5854554255
 20
24.1369056521
 11
58.3145445745
 21
24.1369056521
  0
LINE
  5
344
100
AcDbEntity
  8
268
100
AcDbLine
 62
250
  6
CONTINUOUS
 10
41.6854554255
 20
24.1369056521
 11
39.4145445745
 21
24.1369056521
  0
LINE
  5
345
100
AcDbEntity
  8
268
100
AcDbLine
 62
250
  6
CONTINUOUS
 10
60.5869014213
 20
24.3869014213
 11
58.3130985787
 21
24.3869014213
  0
LINE
  5
346
100
AcDbEntity
  8
268
100
AcDbLine
 62
250
  6
CONTINUOUS
 10
41.6869014213
 20
24.3869014213
 11
39.4130985787
 21
24.3869014213
  0
LINE
  5
347
100
AcDbEntity
  8
268
100
AcDbLine
 62
7
  6
CONTINUOUS
 10
39.4
 20
24.4
 11
41.7
 21
24.4
  0
LINE
  5
348
100
AcDbEntity
  8
268
100
AcDbLine
 62
7
  6
CONTINUOUS
 10
58.3
 20
24.4
 11
60.6
 21
24.4
  0
LWPOLYLINE
  5
349
100
AcDbEntity
  8
0
100
AcDbPolyline
 62
7
  6
CONTINUOUS
 90
7
 70
0
 43
0.3500000006
 10
49.5714281616
 20
33.099098877
 10
48.0714277039
 20
33.099098877
 10
49.5714281616
 20
35.2419573212
 10
49.5714281616
 20
35.6705308228
 10
49.1428591919
 20
36.0990997925
 10
48.5000012054
 20
36.0990997925
 10
48.0714277039
 20
35.456241806
  0
LWPOLYLINE
  5
34A
100
AcDbEntity
  8
0
100
AcDbPolyline
 62
7
  6
CONTINUOUS
 90
7
 70
0
 43
0.3500000006
 10
47.2142852325
 20
33.099098877
 10
45.7142847748
 20
33.099098877
 10
47.2142852325
 20
35.2419573212
 10
47.2142852325
 20
35.6705308228
 10
46.7857162628
 20
36.0990997925
 10
46.1428582764
 20
36.0990997925
 10
45.7142847748
 20
35.456241806
  0
LWPOLYLINE
  5
34B
100
AcDbEntity
  8
0
100
AcDbPolyline
 62
7
  6
CONTINUOUS
 90
6
 70
0
 43
0.3500000006
 10
52.1428555756
 20
33.099098877
 10
53.2142870636
 20
33.099098877
 10
53.4285715485
 20
33.3133878937
 10
53.4285715485
 20
34.3848148499
 10
52.9999980469
 20
34.8133883514
 10
52.5714290771
 20
34.8133883514
  0
LWPOLYLINE
  5
34C
100
AcDbEntity
  8
0
100
AcDbPolyline
 62
7
  6
CONTINUOUS
 90
5
 70
0
 43
0.3500000006
 10
-3.4285713015
 20
44.8642841949
 10
-3.0714286995
 20
45.0785732117
 10
-3.0714286995
 20
45.7214266663
 10
-3.4285713015
 20
46.1500001678
 10
-4.2857143393
 20
46.1500001678
  0
LINE
  5
34D
100
AcDbEntity
  8
268
100
AcDbLine
 62
7
  6
CONTINUOUS
 10
-4.9125331377
 20
23.6278312164
 11
-5.6625331377
 21
23.1948185145
  0
LINE
  5
34E
100
AcDbEntity
  8
268
100
AcDbLine
 62
7
  6
CONTINUOUS
 10
-5.7875331377
 20
-24.4
 11
-5.0360787049
 21
-24.395628166
  0
LINE
  5
34F
100
AcDbEntity
  8
268
100
AcDbLine
 62
7
  6
CONTINUOUS
 10
2.2124668623
 20
-23.7534573615
 11
-4.7926294599
 21
-23.7942118197
  0
LINE
  5
350
100
AcDbEntity
  8
268
100
AcDbLine
 62
7
  6
CONTINUOUS
 10
-8.0389875706
 20
-24.3869014213
 11
-5.7875331377
 21
-24.4
  0
LINE
  5
351
100
AcDbEntity
  8
284
100
AcDbLine
 62
7
  6
CONTINUOUS
 10
-11.2778844785
 20
-21.6259508489
 11
-10.7810985506
 21
-21.6825524558
  0
LINE
  5
352
100
AcDbEntity
  8
RACCORDO
100
AcDbLine
 62
7
  6
CONTINUOUS
 10
-17.9098581737
 20
-21.072980553
 11
-12.3054172983
 21
-21.8108191919
  0
LINE
  5
353
100
AcDbEntity
  8
268
100
AcDbLine
 62
7
  6
CONTINUOUS
 10
-5.6625331377
 20
-23.1948185145
 11
-4.9125331377
 21
-23.6278312164
  0
LINE
  5
354
100
AcDbEntity
  8
268
100
AcDbLine
 62
7
  6
CONTINUOUS
 10
-7.1375331377
 20
-21.858797755
 11
-8.2875331377
 21
-22.0
  0
LINE
  5
355
100
AcDbEntity
  8
218140000
100
AcDbLine
 62
7
  6
CONTINUOUS
 10
5.2124668623
 20
-20.6754493507
 11
-4.7875331377
 21
-20.85
  0
LINE
  5
356
100
AcDbEntity
  8
218140080
100
AcDbLine
 62
7
  6
CONTINUOUS
 10
5.2124668623
 20
-20.6754493507
 11
-4.7875331377
 21
-20.85
  0
LINE
  5
357
100
AcDbEntity
  8
268
100
AcDbLine
 62
7
  6
CONTINUOUS
 10
-5.7875331377
 20
-22.4
 11
4.2211933978
 21
-22.3126551668
  0
LINE
  5
358
100
AcDbEntity
  8
268
100
AcDbLine
 62
250
  6
CONTINUOUS
 10
-4.7875331377
 20
-22.303393743
 11
4.6303254235
 21
-22.2212053365
  0
LINE
  5
359
100
AcDbEntity
  8
268
100
AcDbLine
 62
250
  6
CONTINUOUS
 10
-5.7875331377
 20
-22.0499866726
 11
-4.7875331377
 21
-22.0412598048
  0
LINE
  5
35A
100
AcDbEntity
  8
268
100
AcDbLine
 62
250
  6
CONTINUOUS
 10
-4.7875331377
 20
-21.2
 11
4.9177025842
 21
-21.2
  0
LINE
  5
35B
100
AcDbEntity
  8
268
100
AcDbLine
 62
7
  6
CONTINUOUS
 10
-4.7875331377
 20
-20.9
 11
5.2124668623
 21
-20.9
  0
LINE
  5
35C
100
AcDbEntity
  8
268
100
AcDbLine
 62
7
  6
CONTINUOUS
 10
-8.2875331377
 20
-22.3781828305
 11
-5.7875331377
 21
-22.4
  0
LINE
  5
35D
100
AcDbEntity
  8
268
100
AcDbLine
 62
250
  6
CONTINUOUS
 10
-8.2875331377
 20
-22.0281695031
 11
-5.7875331377
 21
-22.0499866726
  0
LINE
  5
35E
100
AcDbEntity
  8
268
100
AcDbLine
 62
250
  6
CONTINUOUS
 10
-4.7875331377
 20
-21.4879136641
 11
5.1283005374
 21
-21.6609951847
  0
LINE
  5
35F
100
AcDbEntity
  8
268
100
AcDbLine
 62
250
  6
CONTINUOUS
 10
-4.7875331377
 20
-21.2756902398
 11
4.9177025842
 21
-21.4450957595
  0
LINE
  5
360
100
AcDbEntity
  8
284
100
AcDbLine
 62
7
  6
CONTINUOUS
 10
-12.146932799
 20
-20.4198185939
 11
-11.5511545825
 21
-20.4876989474
  0
LINE
  5
361
100
AcDbEntity
  8
RACCORDO
100
AcDbLine
 62
250
  6
CONTINUOUS
 10
-17.8193093958
 20
-20.2782441292
 11
-12.2148685204
 21
-21.016082768
  0
LINE
  5
362
100
AcDbEntity
  8
284
100
AcDbLine
 62
7
  6
CONTINUOUS
 10
-11.3940129018
 20
-19.381386704
 11
-12.0110889425
 21
-19.2275323671
  0
LINE
  5
363
100
AcDbEntity
  8
218140000
100
AcDbLine
 62
7
  6
CONTINUOUS
 10
16.028174028
 20
-19.422190298
 11
5.2124668623
 21
-19.6109791689
  0
LINE
  5
364
100
AcDbEntity
  8
218140080
100
AcDbLine
 62
7
  6
CONTINUOUS
 10
16.028174028
 20
-19.422190298
 11
5.2124668623
 21
-19.6109791689
  0
LINE
  5
365
100
AcDbEntity
  8
218140000
100
AcDbLine
 62
250
  6
CONTINUOUS
 10
16.028174028
 20
-18.8288665991
 11
-4.7875331377
 21
-19.0857864376
  0
LINE
  5
366
100
AcDbEntity
  8
218140080
100
AcDbLine
 62
250
  6
CONTINUOUS
 10
16.028174028
 20
-18.8288665991
 11
-4.7875331377
 21
-19.0857864376
  0
LINE
  5
367
100
AcDbEntity
  8
268
100
AcDbLine
 62
7
  6
CONTINUOUS
 10
-7.3305325866
 20
-18.3817943769
 11
-11.7875331377
 21
-18.3039971429
  0
LINE
  5
368
100
AcDbEntity
  8
RACCORDO
100
AcDbLine
 62
250
  6
CONTINUOUS
 10
-19.2081648477
 20
-19.5166078685
 11
-19.2124505489
 21
-19.5165067048
  0
LINE
  5
369
100
AcDbEntity
  8
RACCORDO
100
AcDbLine
 62
250
  6
CONTINUOUS
 10
-19.1741807984
 20
-19.5179897883
 11
-19.2081648477
 21
-19.5166078685
  0
LINE
  5
36A
100
AcDbEntity
  8
RACCORDO
100
AcDbLine
 62
250
  6
CONTINUOUS
 10
-19.06306192
 20
-19.5228699385
 11
-19.1741807984
 21
-19.5179897883
  0
LINE
  5
36B
100
AcDbEntity
  8
RACCORDO
100
AcDbLine
 62
250
  6
CONTINUOUS
 10
-18.7476140092
 20
-19.5371544953
 11
-19.06306192
 21
-19.5228699385
  0
LINE
  5
36C
100
AcDbEntity
  8
RACCORDO
100
AcDbLine
 62
250
  6
CONTINUOUS
 10
-18.4271934505
 20
-19.5518893157
 11
-18.7476140092
 21
-19.5371544953
  0
LINE
  5
36D
100
AcDbEntity
  8
CURVE
100
AcDbLine
 62
250
  6
CONTINUOUS
 10
-11.7875331377
 20
-17.6627811561
 11
-11.8322278647
 21
-17.6576888352
  0
LWPOLYLINE
  5
36E
100
AcDbEntity
  8
RACCORDO
100
AcDbPolyline
 62
250
  6
CONTINUOUS
 90
22
 70
0
 10
-18.4271934505
 20
-19.5518893157
 10
-18.4277076177
 20
-19.6015869151
 10
-18.4247739489
 20
-19.6507779719
 10
-18.4183924443
 20
-19.6994624859
 10
-18.4084989042
 20
-19.7478996144
 10
-18.3951575282
 20
-19.7958302001
 10
-18.3785609149
 20
-19.8424767722
 10
-18.3586568862
 20
-19.8878029518
 10
-18.3354976201
 20
-19.9318451177
 10
-18.30943225
 20
-19.9739349353
 10
-18.2804217419
 20
-20.0140363271
 10
-18.2485051296
 20
-20.0521853706
 10
-18.2141486481
 20
-20.0878219638
 10
-18.1773071645
 20
-20.1209155144
 10
-18.1380258116
 20
-20.1514966147
 10
-18.0969062225
 20
-20.1790969386
 10
-18.0539074454
 20
-20.2036685926
 10
-18.0090704321
 20
-20.2252594702
 10
-17.9631196716
 20
-20.2435449271
 10
-17.9162966602
 20
-20.2584167485
 10
-17.8683599016
 20
-20.2699831492
 10
-17.8193093958
 20
-20.2782441292
  0
LINE
  5
36F
100
AcDbEntity
  8
RACCORDO
100
AcDbLine
 62
250
  6
CONTINUOUS
 10
-19.0383430018
 20
-13.2465346134
 11
-18.8339077996
 21
-11.4522298724
  0
LINE
  5
370
100
AcDbEntity
  8
RACCORDO
100
AcDbLine
 62
250
  6
CONTINUOUS
 10
-18.9502099109
 20
-13.3481337184
 11
-18.7251787284
 21
-11.3730603776
  0
LWPOLYLINE
  5
371
100
AcDbEntity
  8
RACCORDO
100
AcDbPolyline
 62
250
  6
CONTINUOUS
 90
13
 70
0
 10
-13.8767422255
 20
20.386908509
 10
-14.4607344263
 20
17.0851940167
 10
-15.0075765256
 20
13.7779717899
 10
-15.5172685235
 20
10.4652418287
 10
-15.9898653517
 20
7.1465853811
 10
-16.4253120783
 20
3.8224211991
 10
-16.8234439085
 20
0.4940055382
 10
-17.1842466151
 20
-2.8386638739
 10
-17.5077344252
 20
-6.1755847648
 10
-17.7937852252
 20
-9.5154940617
 10
-18.0423583104
 20
-12.8579707404
 10
-18.2534943855
 20
-16.2034358251
 10
-18.4271934505
 20
-19.5518893157
  0
LINE
  5
372
100
AcDbEntity
  8
218140000
100
AcDbLine
 62
250
  6
CONTINUOUS
 10
16.9124668623
 20
-17.7794947835
 11
16.9075674884
 21
-17.7794947838
  0
LINE
  5
373
100
AcDbEntity
  8
218140080
100
AcDbLine
 62
250
  6
CONTINUOUS
 10
16.9124668623
 20
-17.7794947835
 11
16.9075674884
 21
-17.7794947838
  0
LINE
  5
374
100
AcDbEntity
  8
218140000
100
AcDbLine
 62
250
  6
CONTINUOUS
 10
-4.7875331377
 20
-17.6715728753
 11
16.9083148936
 21
-17.6715728753
  0
LINE
  5
375
100
AcDbEntity
  8
218140080
100
AcDbLine
 62
250
  6
CONTINUOUS
 10
-4.7875331377
 20
-17.6715728753
 11
16.9083148936
 21
-17.6715728753
  0
LINE
  5
376
100
AcDbEntity
  8
218140000
100
AcDbLine
 62
250
  6
CONTINUOUS
 10
16.9069462507
 20
-17.7809533423
 11
16.9075491361
 21
-17.7809593241
  0
LINE
  5
377
100
AcDbEntity
  8
218140080
100
AcDbLine
 62
250
  6
CONTINUOUS
 10
16.9069462507
 20
-17.7809533423
 11
16.9075491361
 21
-17.7809593241
  0
LINE
  5
378
100
AcDbEntity
  8
268
100
AcDbLine
 62
250
  6
CONTINUOUS
 10
-7.4535621252
 20
-17.3797991932
 11
-11.7875331377
 21
-17.3041494477
  0
LWPOLYLINE
  5
379
100
AcDbEntity
  8
RACCORDO
100
AcDbPolyline
 62
250
  6
CONTINUOUS
 90
16
 70
0
 10
-13.1210439187
 20
20.9579027366
 10
-13.1129542655
 20
21.0411148383
 10
-13.1048012694
 20
21.1233984538
 10
-13.0966742199
 20
21.2038524252
 10
-13.0886621231
 20
21.2815956279
 10
-13.0808527271
 20
21.3557766117
 10
-13.0733315615
 20
21.4255829284
 10
-13.0661809988
 20
21.4902500456
 10
-13.0594793538
 20
21.5490697023
 10
-13.0533000268
 20
21.6013976641
 10
-13.0477106958
 20
21.6466608089
 10
-13.0427725782
 20
21.6843633809
 10
-13.0385397611
 20
21.7140924174
 10
-13.0350586052
 20
21.7355222977
 10
-13.0323672381
 20
21.7484182998
 10
-13.0304951382
 20
21.7526391603
  0
LWPOLYLINE
  5
37A
100
AcDbEntity
  8
RACCORDO
100
AcDbPolyline
 62
250
  6
CONTINUOUS
 90
16
 70
0
 10
-17.8193093958
 20
-20.2782441292
 10
-17.8301458441
 20
-20.3611441871
 10
-17.8407116843
 20
-20.4431536365
 10
-17.8508911998
 20
-20.5233743127
 10
-17.860572905
 20
-20.6009276419
 10
-17.869650766
 20
-20.6749642625
 10
-17.8780253626
 20
-20.7446733283
 10
-17.8856049763
 20
-20.809291388
 10
-17.8923065957
 20
-20.8681107468
 10
-17.8980568246
 20
-20.9204872173
 10
-17.902792687
 20
-20.9658471742
 10
-17.9064623156
 20
-21.0036938368
 10
-17.9090255212
 20
-21.0336127099
 10
-17.9104542315
 20
-21.0552761229
 10
-17.9107327993
 20
-21.0684468189
 10
-17.9098581737
 20
-21.072980553
  0
LINE
  5
37B
100
AcDbEntity
  8
218140080
100
AcDbLine
 62
250
  6
CONTINUOUS
 10
0.7124668623
 20
16.0
 11
-2.1866508366
 21
14.991935
  0
LINE
  5
37C
100
AcDbEntity
  8
218140080
100
AcDbLine
 62
250
  6
CONTINUOUS
 10
0.098015073
 20
15.164584
 11
0.7124668623
 21
15.373574
  0
LINE
  5
37D
100
AcDbEntity
  8
218140080
100
AcDbLine
 62
250
  6
CONTINUOUS
 10
-1.6324956762
 20
14.606449
 11
-0.3837711367
 21
15.007869
  0
LINE
  5
37E
100
AcDbEntity
  8
218140080
100
AcDbLine
 62
250
  6
CONTINUOUS
 10
1.9128628247
 20
-15.82
 11
3.2124668623
 21
-15.82
  0
LINE
  5
37F
100
AcDbEntity
  8
218140080
100
AcDbLine
 62
250
  6
CONTINUOUS
 10
3.2124668623
 20
-14.574264
 11
1.9128628247
 21
-14.574264
  0
LINE
  5
380
100
AcDbEntity
  8
DRAFT
100
AcDbLine
 62
7
  6
CONTINUOUS
 10
-18.9502099109
 20
-13.3481337184
 11
-18.8641527017
 21
-13.3583954194
  0
LINE
  5
381
100
AcDbEntity
  8
RACCORDO
100
AcDbLine
 62
7
  6
CONTINUOUS
 10
-18.8641527017
 20
-13.3583954194
 11
-18.9502099109
 21
-13.3481337184
  0
LINE
  5
382
100
AcDbEntity
  8
284
100
AcDbLine
 62
7
  6
CONTINUOUS
 10
-11.5511545825
 20
-20.4876989474
 11
-11.2778844785
 21
-21.6259508489
  0
LWPOLYLINE
  5
383
100
AcDbEntity
  8
0
100
AcDbPolyline
 62
7
  6
CONTINUOUS
 90
3
 70
0
 43
0.3500000006
 10
0.9285714591
 20
43.43571492
 10
0.8571428254
 20
43.2214304352
 10
0.7142856996
 20
42.9357147675
  0
LINE
  5
384
100
AcDbEntity
  8
218140080
100
AcDbLine
 62
250
  6
CONTINUOUS
 10
-2.1867877949
 20
-13.171006
 11
0.7124668623
 21
-13.171014
  0
LINE
  5
385
100
AcDbEntity
  8
218140080
100
AcDbLine
 62
250
  6
CONTINUOUS
 10
1.9128628247
 20
-13.089593
 11
3.2124668623
 21
-13.089593
  0
LINE
  5
386
100
AcDbEntity
  8
218140080
100
AcDbLine
 62
250
  6
CONTINUOUS
 10
0.7124598644
 20
-12.590992
 11
-2.1867877949
 21
-12.590985
  0
LINE
  5
387
100
AcDbEntity
  8
218140080
100
AcDbLine
 62
250
  6
CONTINUOUS
 10
-2.1867877949
 20
-14.137714
 11
-0.1904990227
 21
-14.778839
  0
LINE
  5
388
100
AcDbEntity
  8
218140080
100
AcDbLine
 62
250
  6
CONTINUOUS
 10
0.7124598644
 20
-14.488824
 11
-2.1867877949
 21
-13.557685
  0
LINE
  5
389
100
AcDbEntity
  8
218140080
100
AcDbLine
 62
250
  6
CONTINUOUS
 10
1.9128628247
 20
-14.574264
 11
3.2124668623
 21
-15.197131
  0
LINE
  5
38A
100
AcDbEntity
  8
268
100
AcDbLine
 62
7
  6
CONTINUOUS
 10
-11.7875331377
 20
-18.3039971429
 11
-11.7875331377
 21
-17.3041494477
  0
LWPOLYLINE
  5
38B
100
AcDbEntity
  8
268
100
AcDbPolyline
 62
7
  6
CONTINUOUS
 90
6
 70
0
 10
5.1309384599
 20
21.6637626605
 10
5.1335264792
 20
21.6665474971
 10
5.1360645956
 20
21.6693496943
 10
5.1385528088
 20
21.6721692523
 10
5.140991119
 20
21.675006171
 10
5.1433795261
 20
21.6778604504
  0
LINE
  5
38C
100
AcDbEntity
  8
268
100
AcDbLine
 62
7
  6
CONTINUOUS
 10
5.1309384599
 20
21.6637626605
 11
5.1160467216
 21
21.6482000547
  0
LINE
  5
38D
100
AcDbEntity
  8
268
100
AcDbLine
 62
7
  6
CONTINUOUS
 10
5.1160467216
 20
21.6482000547
 11
5.049310502
 21
21.5795859582
  0
LINE
  5
38E
100
AcDbEntity
  8
268
100
AcDbLine
 62
7
  6
CONTINUOUS
 10
5.049310502
 20
21.5795859582
 11
4.9771498446
 21
21.5056938008
  0
LINE
  5
38F
100
AcDbEntity
  8
268
100
AcDbLine
 62
7
  6
CONTINUOUS
 10
4.9771498446
 20
21.5056938008
 11
4.9177025842
 21
21.4450957595
  0
LINE
  5
390
100
AcDbEntity
  8
218140080
100
AcDbLine
 62
250
  6
CONTINUOUS
 10
2.3127562415
 20
15.242857337
 11
2.5841434568
 21
15.4238094807
  0
LINE
  5
391
100
AcDbEntity
  8
218140080
100
AcDbLine
 62
250
  6
CONTINUOUS
 10
2.5841434568
 20
13.885714221
 11
2.8555306722
 21
14.021428442
  0
LINE
  5
392
100
AcDbEntity
  8
218140080
100
AcDbLine
 62
250
  6
CONTINUOUS
 10
-2.1866508366
 20
11.216139
 11
0.1107631889
 21
12.328754
  0
LINE
  5
393
100
AcDbEntity
  8
218140080
100
AcDbLine
 62
250
  6
CONTINUOUS
 10
0.7124668623
 20
12.027546
 11
-1.7138978747
 21
10.87477
  0
LINE
  5
394
100
AcDbEntity
  8
218140080
100
AcDbLine
 62
250
  6
CONTINUOUS
 10
-2.1867877949
 20
-12.010985
 11
0.7124598644
 21
-12.010985
  0
LINE
  5
395
100
AcDbEntity
  8
218140080
100
AcDbLine
 62
250
  6
CONTINUOUS
 10
1.9128628247
 20
-11.773245
 11
3.2124668623
 21
-11.773245
  0
LINE
  5
396
100
AcDbEntity
  8
218140080
100
AcDbLine
 62
250
  6
CONTINUOUS
 10
0.7124598644
 20
-11.430963
 11
-1.1993996316
 21
-11.430963
  0
LINE
  5
397
100
AcDbEntity
  8
218140080
100
AcDbLine
 62
250
  6
CONTINUOUS
 10
-2.1867877949
 20
-10.051012
 11
-0.298694058
 21
-10.59258
  0
LINE
  5
398
100
AcDbEntity
  8
218140080
100
AcDbLine
 62
250
  6
CONTINUOUS
 10
1.9128628247
 20
-13.83011
 11
3.2124668623
 21
-14.400443
  0
LINE
  5
399
100
AcDbEntity
  8
268
100
AcDbLine
 62
7
  6
CONTINUOUS
 10
4.9771498446
 20
-21.5056938008
 11
4.9325873027
 21
-21.4603167466
  0
LINE
  5
39A
100
AcDbEntity
  8
268
100
AcDbLine
 62
7
  6
CONTINUOUS
 10
4.9325873027
 20
-21.4603167466
 11
4.9177025842
 21
-21.4450957595
  0
LINE
  5
39B
100
AcDbEntity
  8
268
100
AcDbLine
 62
7
  6
CONTINUOUS
 10
5.1160467216
 20
-21.6482000547
 11
5.0768545406
 21
-21.6079244404
  0
LINE
  5
39C
100
AcDbEntity
  8
268
100
AcDbLine
 62
7
  6
CONTINUOUS
 10
5.0768545406
 20
-21.6079244404
 11
4.9771498446
 21
-21.5056938008
  0
LWPOLYLINE
  5
39D
100
AcDbEntity
  8
268
100
AcDbPolyline
 62
7
  6
CONTINUOUS
 90
7
 70
0
 10
5.1160467216
 20
-21.6482000547
 10
5.1309384599
 20
-21.6637626605
 10
5.1335264792
 20
-21.6665474971
 10
5.1360645956
 20
-21.6693496943
 10
5.1385528088
 20
-21.6721692523
 10
5.140991119
 20
-21.675006171
 10
5.1433795261
 20
-21.6778604504
  0
LINE
  5
39E
100
AcDbEntity
  8
268
100
AcDbLine
 62
7
  6
CONTINUOUS
 10
-8.2875331377
 20
24.1369056521
 11
-8.2875331377
 21
23.8443375673
  0
LINE
  5
39F
100
AcDbEntity
  8
268
100
AcDbLine
 62
7
  6
CONTINUOUS
 10
-8.2875331377
 20
-22.0
 11
-8.2875331377
 21
-22.3781828305
  0
LINE
  5
3A0
100
AcDbEntity
  8
268
100
AcDbLine
 62
7
  6
CONTINUOUS
 10
-8.2875331377
 20
-23.8443375673
 11
-8.2875331377
 21
-24.1369056521
  0
LINE
  5
3A1
100
AcDbEntity
  8
268
100
AcDbLine
 62
7
  6
CONTINUOUS
 10
-8.2875331377
 20
22.0
 11
-8.2875331377
 21
22.3781828305
  0
LINE
  5
3A2
100
AcDbEntity
  8
RACCORDO
100
AcDbLine
 62
7
  6
CONTINUOUS
 10
-12.3054172983
 20
-21.8108191919
 11
-7.4037181421
 21
21.2108421589
  0
LINE
  5
3A3
100
AcDbEntity
  8
284
100
AcDbLine
 62
7
  6
CONTINUOUS
 10
-10.7810985506
 20
-21.6825524558
 11
-10.6423629417
 21
-20.464885644
  0
LINE
  5
3A4
100
AcDbEntity
  8
268
100
AcDbLine
 62
7
  6
CONTINUOUS
 10
-7.1375331377
 20
19.9536487485
 11
-9.5875331377
 21
0.0
  0
LINE
  5
3A5
100
AcDbEntity
  8
218140080
100
AcDbLine
 62
250
  6
CONTINUOUS
 10
3.1269178876
 20
15.242857337
 11
3.3983051595
 21
15.514285779
  0
LINE
  5
3A6
100
AcDbEntity
  8
218140080
100
AcDbLine
 62
250
  6
CONTINUOUS
 10
3.9410796186
 20
13.207142663
 11
3.6696923749
 21
13.071428442
  0
LINE
  5
3A7
100
AcDbEntity
  8
218140080
100
AcDbLine
 62
250
  6
CONTINUOUS
 10
2.5841434568
 20
12.3928571105
 11
2.8555306722
 21
12.5285713315
  0
LINE
  5
3A8
100
AcDbEntity
  8
218140080
100
AcDbLine
 62
250
  6
CONTINUOUS
 10
3.9410796186
 20
11.714285779
 11
3.6696923749
 21
11.5785713315
  0
LINE
  5
3A9
100
AcDbEntity
  8
218140080
100
AcDbLine
 62
250
  6
CONTINUOUS
 10
0.7124668623
 20
9.975074
 11
-2.1866508366
 21
8.9669
  0
LINE
  5
3AA
100
AcDbEntity
  8
218140080
100
AcDbLine
 62
250
  6
CONTINUOUS
 10
0.098015073
 20
9.139549
 11
0.7124668623
 21
9.348431
  0
LINE
  5
3AB
100
AcDbEntity
  8
218140080
100
AcDbLine
 62
250
  6
CONTINUOUS
 10
-1.6326596263
 20
8.581471
 11
-0.3837711367
 21
8.982943
  0
LINE
  5
3AC
100
AcDbEntity
  8
218140080
100
AcDbLine
 62
250
  6
CONTINUOUS
 10
1.9128628247
 20
-9.965272
 11
3.2124668623
 21
-9.965272
  0
LINE
  5
3AD
100
AcDbEntity
  8
218140080
100
AcDbLine
 62
250
  6
CONTINUOUS
 10
-1.1993996316
 20
-9.754205
 11
0.7124598644
 21
-9.754197
  0
LINE
  5
3AE
100
AcDbEntity
  8
218140080
100
AcDbLine
 62
250
  6
CONTINUOUS
 10
1.9128628247
 20
-9.576944
 11
3.2124668623
 21
-9.576944
  0
LINE
  5
3AF
100
AcDbEntity
  8
218140080
100
AcDbLine
 62
250
  6
CONTINUOUS
 10
0.7124598644
 20
-9.174176
 11
-2.1867877949
 21
-9.174176
  0
LINE
  5
3B0
100
AcDbEntity
  8
218140080
100
AcDbLine
 62
250
  6
CONTINUOUS
 10
1.9128628247
 20
-8.544819
 11
3.2124668623
 21
-8.544819
  0
LWPOLYLINE
  5
3B1
100
AcDbEntity
  8
218140000
100
AcDbPolyline
 62
250
  6
CONTINUOUS
 90
22
 70
0
 10
17.0118908911
 20
-11.8126704839
 10
17.1607006797
 20
-11.8387936962
 10
17.3062360117
 20
-11.8745828411
 10
17.4484968871
 20
-11.9200379185
 10
17.5881714958
 20
-11.975469343
 10
17.7245716478
 20
-12.0405667001
 10
17.855632773
 20
-12.1143987458
 10
17.9812167962
 20
-12.1970735842
 10
18.1014617927
 20
-12.2884831113
 10
18.2147174175
 20
-12.3873717717
 10
18.3208930465
 20
-12.4938474246
 10
18.4200793039
 20
-12.6078022108
 10
18.5108977179
 20
-12.7276569973
 10
18.5932305376
 20
-12.8534931572
 10
18.667195514
 20
-12.9852293175
 10
18.7317674278
 20
-13.1210422261
 10
18.7868156296
 20
-13.2609865495
 10
18.8324707688
 20
-13.4050076212
 10
18.8680995746
 20
-13.5511181901
 10
18.8934909568
 20
-13.6986558393
 10
18.9088560056
 20
-13.8482829858
 10
18.9141947209
 20
-13.9999996295
  0
LWPOLYLINE
  5
3B2
100
AcDbEntity
  8
218140080
100
AcDbPolyline
 62
250
  6
CONTINUOUS
 90
22
 70
0
 10
17.0118908911
 20
-11.8126704839
 10
17.1607006797
 20
-11.8387936962
 10
17.3062360117
 20
-11.8745828411
 10
17.4484968871
 20
-11.9200379185
 10
17.5881714958
 20
-11.975469343
 10
17.7245716478
 20
-12.0405667001
 10
17.855632773
 20
-12.1143987458
 10
17.9812167962
 20
-12.1970735842
 10
18.1014617927
 20
-12.2884831113
 10
18.2147174175
 20
-12.3873717717
 10
18.3208930465
 20
-12.4938474246
 10
18.4200793039
 20
-12.6078022108
 10
18.5108977179
 20
-12.7276569973
 10
18.5932305376
 20
-12.8534931572
 10
18.667195514
 20
-12.9852293175
 10
18.7317674278
 20
-13.1210422261
 10
18.7868156296
 20
-13.2609865495
 10
18.8324707688
 20
-13.4050076212
 10
18.8680995746
 20
-13.5511181901
 10
18.8934909568
 20
-13.6986558393
 10
18.9088560056
 20
-13.8482829858
 10
18.9141947209
 20
-13.9999996295
  0
LINE
  5
3B3
100
AcDbEntity
  8
218140080
100
AcDbLine
 62
250
  6
CONTINUOUS
 10
0.7124518668
 20
-10.30258
 11
-1.1993996316
 21
-9.754205
  0
LINE
  5
3B4
100
AcDbEntity
  8
218140080
100
AcDbLine
 62
250
  6
CONTINUOUS
 10
0.7124598644
 20
-8.787497
 11
-2.1867947928
 21
-7.856372
  0
LINE
  5
3B5
100
AcDbEntity
  8
268
100
AcDbLine
 62
7
  6
CONTINUOUS
 10
-9.5875331377
 20
0.0
 11
-7.1375331377
 21
-19.9536487485
  0
LINE
  5
3B6
100
AcDbEntity
  8
268
100
AcDbLine
 62
7
  6
CONTINUOUS
 10
-7.2875331377
 20
-23.1226497308
 11
-7.2875331377
 21
-22.3869096983
  0
LINE
  5
3B7
100
AcDbEntity
  8
268
100
AcDbLine
 62
7
  6
CONTINUOUS
 10
-7.2875331377
 20
22.3869096983
 11
-7.2875331377
 21
23.1226497308
  0
LINE
  5
3B8
100
AcDbEntity
  8
268
100
AcDbLine
 62
7
  6
CONTINUOUS
 10
-7.1375331377
 20
21.858797755
 11
-7.1375331377
 21
19.9536487485
  0
LINE
  5
3B9
100
AcDbEntity
  8
268
100
AcDbLine
 62
7
  6
CONTINUOUS
 10
-7.1375331377
 20
-19.9536487485
 11
-7.1375331377
 21
-21.858797755
  0
LINE
  5
3BA
100
AcDbEntity
  8
218140080
100
AcDbLine
 62
250
  6
CONTINUOUS
 10
3.1269178876
 20
14.835714221
 11
2.9912243365
 21
14.6547620773
  0
LINE
  5
3BB
100
AcDbEntity
  8
218140080
100
AcDbLine
 62
250
  6
CONTINUOUS
 10
2.3127562415
 20
13.614285779
 11
2.5841434568
 21
13.885714221
  0
LINE
  5
3BC
100
AcDbEntity
  8
218140080
100
AcDbLine
 62
250
  6
CONTINUOUS
 10
4.2124668623
 20
14.835714221
 11
3.9410796186
 21
14.564285779
  0
LINE
  5
3BD
100
AcDbEntity
  8
218140080
100
AcDbLine
 62
250
  6
CONTINUOUS
 10
2.3127562415
 20
12.1214286685
 11
2.5841434568
 21
12.3928571105
  0
LINE
  5
3BE
100
AcDbEntity
  8
218140080
100
AcDbLine
 62
250
  6
CONTINUOUS
 10
4.2124668623
 20
13.478571558
 11
3.9410796186
 21
13.207142663
  0
LINE
  5
3BF
100
AcDbEntity
  8
218140080
100
AcDbLine
 62
250
  6
CONTINUOUS
 10
1.9128628247
 20
-7.651288
 11
3.2124668623
 21
-7.651288
  0
LINE
  5
3C0
100
AcDbEntity
  8
218140080
100
AcDbLine
 62
250
  6
CONTINUOUS
 10
3.2124668623
 20
-6.847348
 11
1.9128628247
 21
-6.847348
  0
LINE
  5
3C1
100
AcDbEntity
  8
218140080
100
AcDbLine
 62
250
  6
CONTINUOUS
 10
0.7124518668
 20
-5.958503
 11
-2.1867947928
 21
-5.958503
  0
LINE
  5
3C2
100
AcDbEntity
  8
218140080
100
AcDbLine
 62
250
  6
CONTINUOUS
 10
-1.2838289078
 20
-7.56635
 11
-0.4085565851
 21
-7.84744
  0
LINE
  5
3C3
100
AcDbEntity
  8
218140080
100
AcDbLine
 62
250
  6
CONTINUOUS
 10
0.142297581
 20
-8.024362
 11
0.7124518668
 21
-8.207475
  0
LINE
  5
3C4
100
AcDbEntity
  8
268
100
AcDbLine
 62
7
  6
CONTINUOUS
 10
-5.7875331377
 20
-22.0499866726
 11
-5.7875331377
 21
-24.4
  0
LINE
  5
3C5
100
AcDbEntity
  8
268
100
AcDbLine
 62
7
  6
CONTINUOUS
 10
-5.7875331377
 20
22.0499866726
 11
-5.7875331377
 21
24.4
  0
LINE
  5
3C6
100
AcDbEntity
  8
268
100
AcDbLine
 62
7
  6
CONTINUOUS
 10
-4.7875331377
 20
24.1456323968
 11
-4.7875331377
 21
23.8443375673
  0
LINE
  5
3C7
100
AcDbEntity
  8
268
100
AcDbLine
 62
7
  6
CONTINUOUS
 10
-4.7875331377
 20
-23.8443375673
 11
-4.7875331377
 21
-24.1456323968
  0
LINE
  5
3C8
100
AcDbEntity
  8
218140000
100
AcDbLine
 62
7
  6
CONTINUOUS
 10
-4.7875331377
 20
-17.6715728753
 11
-4.7875331377
 21
17.6715728753
  0
LINE
  5
3C9
100
AcDbEntity
  8
218140080
100
AcDbLine
 62
7
  6
CONTINUOUS
 10
-4.7875331377
 20
-17.6715728753
 11
-4.7875331377
 21
17.6715728753
  0
LINE
  5
3CA
100
AcDbEntity
  8
268
100
AcDbLine
 62
7
  6
CONTINUOUS
 10
-4.7875331377
 20
-22.3912731322
 11
-4.7875331377
 21
22.3912731322
  0
LINE
  5
3CB
100
AcDbEntity
  8
218140080
100
AcDbLine
 62
250
  6
CONTINUOUS
 10
4.2124668623
 20
11.985714221
 11
3.9410796186
 21
11.714285779
  0
LINE
  5
3CC
100
AcDbEntity
  8
218140080
100
AcDbLine
 62
250
  6
CONTINUOUS
 10
-1.6504362101
 20
-5.386478
 11
-0.9449221656
 21
-5.386471
  0
LINE
  5
3CD
100
AcDbEntity
  8
268
100
AcDbLine
 62
250
  6
CONTINUOUS
 10
-10.4128535093
 20
-5.2
 11
-8.9490534211
 21
-5.2
  0
LINE
  5
3CE
100
AcDbEntity
  8
268
100
AcDbLine
 62
7
  6
CONTINUOUS
 10
-10.3900663876
 20
-5.0
 11
-8.9736103332
 21
-5.0
  0
LINE
  5
3CF
100
AcDbEntity
  8
218140080
100
AcDbLine
 62
250
  6
CONTINUOUS
 10
1.9128628247
 20
-4.861082
 11
3.2124668623
 21
-4.861082
  0
LINE
  5
3D0
100
AcDbEntity
  8
268
100
AcDbLine
 62
250
  6
CONTINUOUS
 10
-10.3672792659
 20
-4.8
 11
-8.9981672454
 21
-4.8
  0
LINE
  5
3D1
100
AcDbEntity
  8
218140080
100
AcDbLine
 62
250
  6
CONTINUOUS
 10
-0.408563583
 20
-5.378409
 11
0.7124518668
 21
-5.378474
  0
LINE
  5
3D2
100
AcDbEntity
  8
218140080
100
AcDbLine
 62
250
  6
CONTINUOUS
 10
1.9128628247
 20
-5.680387
 11
3.2124668623
 21
-6.250721
  0
LINE
  5
3D3
100
AcDbEntity
  8
218140080
100
AcDbLine
 62
250
  6
CONTINUOUS
 10
-2.1867947928
 20
-7.856372
 11
-2.1867947928
 21
-7.276321
  0
LINE
  5
3D4
100
AcDbEntity
  8
218140080
100
AcDbLine
 62
250
  6
CONTINUOUS
 10
-2.1867947928
 20
-5.958503
 11
-2.1867947928
 21
-4.600288
  0
LINE
  5
3D5
100
AcDbEntity
  8
218140080
100
AcDbLine
 62
250
  6
CONTINUOUS
 10
-2.1867877949
 20
-9.174176
 11
-2.1867877949
 21
-10.051012
  0
LINE
  5
3D6
100
AcDbEntity
  8
218140080
100
AcDbLine
 62
250
  6
CONTINUOUS
 10
-2.1867877949
 20
-11.134148
 11
-2.1867877949
 21
-12.010985
  0
LINE
  5
3D7
100
AcDbEntity
  8
218140080
100
AcDbLine
 62
250
  6
CONTINUOUS
 10
-2.1867877949
 20
-12.590985
 11
-2.1867877949
 21
-13.171006
  0
LINE
  5
3D8
100
AcDbEntity
  8
218140080
100
AcDbLine
 62
250
  6
CONTINUOUS
 10
-2.1867877949
 20
-13.557685
 11
-2.1867877949
 21
-14.137714
  0
LINE
  5
3D9
100
AcDbEntity
  8
218140080
100
AcDbLine
 62
250
  6
CONTINUOUS
 10
-2.1867877949
 20
-15.419971
 11
-2.1867877949
 21
-16.0
  0
LINE
  5
3DA
100
AcDbEntity
  8
218140080
100
AcDbLine
 62
250
  6
CONTINUOUS
 10
-2.1866508366
 20
14.991935
 11
-2.1866508366
 21
14.252884
  0
LINE
  5
3DB
100
AcDbEntity
  8
218140080
100
AcDbLine
 62
250
  6
CONTINUOUS
 10
-2.1866508366
 20
8.9669
 11
-2.1866508366
 21
8.227849
  0
LINE
  5
3DC
100
AcDbEntity
  8
218140080
100
AcDbLine
 62
250
  6
CONTINUOUS
 10
-2.1866508366
 20
3.58822
 11
-2.1866508366
 21
2.70079
  0
LINE
  5
3DD
100
AcDbEntity
  8
218140080
100
AcDbLine
 62
250
  6
CONTINUOUS
 10
-2.1866508366
 20
5.171133
 11
-2.1866508366
 21
5.793739
  0
LINE
  5
3DE
100
AcDbEntity
  8
218140080
100
AcDbLine
 62
250
  6
CONTINUOUS
 10
-2.1866508366
 20
10.292325
 11
-2.1866508366
 21
11.216139
  0
LINE
  5
3DF
100
AcDbEntity
  8
218140080
100
AcDbLine
 62
250
  6
CONTINUOUS
 10
-2.1866508366
 20
12.328754
 11
-2.1866508366
 21
12.911198
  0
LWPOLYLINE
  5
3E0
100
AcDbEntity
  8
0
100
AcDbPolyline
 62
7
  6
CONTINUOUS
 90
4
 70
0
 43
0.3500000006
 10
-2.1428571696
 20
43.5785727539
 10
-2.1428571696
 20
44.4357152252
 10
-1.7142856507
 20
44.8642841949
 10
-1.0714285848
 20
44.8642841949
  0
LWPOLYLINE
  5
3E1
100
AcDbEntity
  8
218140080
100
AcDbPolyline
 62
250
  6
CONTINUOUS
 90
54
 70
0
 10
-1.7048645545
 20
3.6866121309
 10
-1.7013937712
 20
3.714921713
 10
-1.6979928264
 20
3.7432399548
 10
-1.6944949876
 20
3.7715537031
 10
-1.6922805596
 20
3.7885212298
 10
-1.6899269908
 20
3.805470407
 10
-1.6873899168
 20
3.822389229
 10
-1.6846249732
 20
3.8392656904
 10
-1.6815877955
 20
3.8560877855
 10
-1.6788000655
 20
3.8701183226
 10
-1.6757403622
 20
3.8840998519
 10
-1.6723585181
 20
3.8980298647
 10
-1.6701516583
 20
3.9063385316
 10
-1.6677573109
 20
3.9145946618
 10
-1.6651214359
 20
3.9227650827
 10
-1.6621899933
 20
3.9308166218
 10
-1.6589089432
 20
3.9387161066
 10
-1.6552609963
 20
3.9463909352
 10
-1.6512418665
 20
3.9538861248
 10
-1.6468792151
 20
3.9612050591
 10
-1.6422007033
 20
3.9683511216
 10
-1.6372339921
 20
3.975327696
 10
-1.6320067427
 20
3.9821381657
 10
-1.6265466164
 20
3.9887859143
 10
-1.6208812742
 20
3.9952743255
 10
-1.6150383773
 20
4.0016067828
 10
-1.6090455869
 20
4.0077866698
 10
-1.6002367504
 20
4.0163817618
 10
-1.5911782866
 20
4.0246617425
 10
-1.581871668
 20
4.0326179721
 10
-1.5723183669
 20
4.040241811
 10
-1.5625198559
 20
4.0475246196
 10
-1.5524776075
 20
4.0544577583
 10
-1.5421930941
 20
4.0610325873
 10
-1.5316702913
 20
4.0672414867
 10
-1.5209246283
 20
4.0730800757
 10
-1.5099740483
 20
4.0785450099
 10
-1.4988364948
 20
4.0836329449
 10
-1.487529911
 20
4.0883405362
 10
-1.4760722401
 20
4.0926644395
 10
-1.4644814253
 20
4.0966013103
 10
-1.4518915849
 20
4.100402356
 10
-1.4391819998
 20
4.1037740527
 10
-1.4263660591
 20
4.1067381983
 10
-1.4134571518
 20
4.1093165908
 10
-1.4004686672
 20
4.111531028
 10
-1.3874139943
 20
4.1134033078
 10
-1.3743065221
 20
4.1149552282
 10
-1.3611596397
 20
4.1162085871
 10
-1.3479867364
 20
4.1171851824
 10
-1.334801201
 20
4.1179068121
 10
-1.3216164228
 20
4.1183952739
 10
-1.3084457909
 20
4.1186723659
 10
-1.2953026942
 20
4.1187598859
  0
LINE
  5
3E2
100
AcDbEntity
  8
218140000
100
AcDbLine
 62
7
  6
CONTINUOUS
 10
17.1863201394
 20
-1.3760409428
 11
18.9386135851
 21
-1.2227351311
  0
LINE
  5
3E3
100
AcDbEntity
  8
218140080
100
AcDbLine
 62
7
  6
CONTINUOUS
 10
17.1863201394
 20
-1.3760409428
 11
18.9386135851
 21
-1.2227351311
  0
LINE
  5
3E4
100
AcDbEntity
  8
218140080
100
AcDbLine
 62
250
  6
CONTINUOUS
 10
3.2124668623
 20
-3.476396
 11
2.7095850799
 21
-3.476396
  0
LINE
  5
3E5
100
AcDbEntity
  8
218140000
100
AcDbLine
 62
7
  6
CONTINUOUS
 10
16.9124668623
 20
-3.3
 11
17.1124668623
 21
-3.3
  0
LINE
  5
3E6
100
AcDbEntity
  8
218140080
100
AcDbLine
 62
7
  6
CONTINUOUS
 10
16.9124668623
 20
-3.3
 11
17.1124668623
 21
-3.3
  0
LINE
  5
3E7
100
AcDbEntity
  8
268
100
AcDbLine
 62
7
  6
CONTINUOUS
 10
-9.3685939763
 20
-1.7831163775
 11
-10.0222488369
 21
-1.7717067895
  0
LWPOLYLINE
  5
3E8
100
AcDbEntity
  8
218140080
100
AcDbPolyline
 62
250
  6
CONTINUOUS
 90
73
 70
0
 10
-0.478289339
 20
-4.255024
 10
-0.4919929035
 20
-4.2241548489
 10
-0.5068873328
 20
-4.1937892977
 10
-0.5229433435
 20
-4.1639775825
 10
-0.5401316522
 20
-4.1347699389
 10
-0.5584229754
 20
-4.1062166031
 10
-0.5777880297
 20
-4.0783678107
 10
-0.5981975318
 20
-4.0512737977
 10
-0.6196221982
 20
-4.0249847999
 10
-0.6420315693
 20
-3.9995477091
 10
-0.6653904804
 20
-3.9749960407
 10
-0.6896625905
 20
-3.9513599659
 10
-0.7148115588
 20
-3.928669656
 10
-0.7408010442
 20
-3.9069552821
 10
-0.767594706
 20
-3.8862470156
 10
-0.7951562031
 20
-3.8665750277
 10
-0.8234491946
 20
-3.8479694895
 10
-0.8524358127
 20
-3.8304589222
 10
-0.8820720823
 20
-3.8140652455
 10
-0.9123125013
 20
-3.7988087291
 10
-0.9431115677
 20
-3.7847096425
 10
-0.9744237794
 20
-3.7717882553
 10
-1.0062036345
 20
-3.7600648371
 10
-1.0384056308
 20
-3.7495596575
 10
-1.0709842664
 20
-3.740292986
 10
-1.1038934547
 20
-3.7322825556
 10
-1.1370847721
 20
-3.7255359525
 10
-1.1705092101
 20
-3.7200582261
 10
-1.2041177607
 20
-3.7158544259
 10
-1.2378614155
 20
-3.7129296015
 10
-1.2716911662
 20
-3.7112888022
 10
-1.3055580048
 20
-3.7109370777
 10
-1.3394129228
 20
-3.7118794774
 10
-1.3732070153
 20
-3.7141185793
 10
-1.4068917901
 20
-3.7176470763
 10
-1.4404188581
 20
-3.7224551894
 10
-1.4737398303
 20
-3.7285331401
 10
-1.5068063176
 20
-3.7358711495
 10
-1.5395699311
 20
-3.7444594389
 10
-1.5719822817
 20
-3.7542882296
 10
-1.6039949804
 20
-3.7653477429
 10
-1.6355605022
 20
-3.7776258824
 10
-1.666634778
 20
-3.7911012812
 10
-1.6971746027
 20
-3.8057502548
 10
-1.7271367713
 20
-3.8215491189
 10
-1.7564780788
 20
-3.8384741888
 10
-1.7851553201
 20
-3.8565017801
 10
-1.8131252902
 20
-3.8756082083
 10
-1.840344784
 20
-3.895769789
 10
-1.8667721194
 20
-3.9169607268
 10
-1.8923717064
 20
-3.9391467832
 10
-1.9171094778
 20
-3.9622916087
 10
-1.9409513665
 20
-3.9863588541
 10
-1.9638633054
 20
-4.0113121699
 10
-1.9858112274
 20
-4.0371152067
 10
-2.0067610653
 20
-4.0637316152
 10
-2.026678752
 20
-4.0911250461
 10
-2.045532268
 20
-4.1192582219
 10
-2.063297784
 20
-4.1480901536
 10
-2.079953518
 20
-4.1775789241
 10
-2.0954776884
 20
-4.2076826166
 10
-2.1098485133
 20
-4.2383593139
 10
-2.123044211
 20
-4.269567099
 10
-2.1350429997
 20
-4.3012640549
 10
-2.1458230975
 20
-4.3334082647
 10
-2.1553651045
 20
-4.3659551861
 10
-2.163659148
 20
-4.3988497768
 10
-2.1706977368
 20
-4.4320343695
 10
-2.1764733802
 20
-4.4654512965
 10
-2.1809785871
 20
-4.4990428906
 10
-2.1842058666
 20
-4.5327514841
 10
-2.1861477276
 20
-4.5665194097
 10
-2.1867966793
 20
-4.600289
  0
LWPOLYLINE
  5
3E9
100
AcDbEntity
  8
218140080
100
AcDbPolyline
 62
250
  6
CONTINUOUS
 90
56
 70
0
 10
-0.4039546925
 20
3.5882200575
 10
-0.406706495
 20
3.6593420228
 10
-0.4098130407
 20
3.7304495107
 10
-0.4134567754
 20
3.8015261757
 10
-0.4166580615
 20
3.8548326767
 10
-0.4203683102
 20
3.9081159546
 10
-0.4224715638
 20
3.9347707495
 10
-0.4248783543
 20
3.9613978441
 10
-0.4277387558
 20
3.987974519
 10
-0.4312028427
 20
4.0144780549
 10
-0.435383496
 20
4.0408209991
 10
-0.4403077834
 20
4.0670418425
 10
-0.4459692385
 20
4.0931138777
 10
-0.452361395
 20
4.1190103969
 10
-0.4594738637
 20
4.1447609633
 10
-0.467200013
 20
4.170334622
 10
-0.4754265998
 20
4.1957574398
 10
-0.4840403808
 20
4.2210554833
 10
-0.4959903539
 20
4.2545923094
 10
-0.5085613555
 20
4.2878922111
 10
-0.5218880961
 20
4.3208934898
 10
-0.5324707057
 20
4.3454137162
 10
-0.5436524604
 20
4.3696688761
 10
-0.5555312832
 20
4.3935967234
 10
-0.568205097
 20
4.4171350117
 10
-0.5817055313
 20
4.4401459783
 10
-0.5960779145
 20
4.4626584852
 10
-0.6113073305
 20
4.4846228171
 10
-0.6273788634
 20
4.5059892586
 10
-0.644277597
 20
4.5267080946
 10
-0.6619886155
 20
4.5467296097
 10
-0.6804970027
 20
4.5660040886
 10
-0.6997878427
 20
4.5844818161
 10
-0.7199105518
 20
4.6021794235
 10
-0.7407572633
 20
4.6190196024
 10
-0.7622791799
 20
4.6349971955
 10
-0.7844275041
 20
4.6501070453
 10
-0.8071534385
 20
4.6643439943
 10
-0.8304081859
 20
4.6777028851
 10
-0.8541429487
 20
4.6901785604
 10
-0.8783089298
 20
4.7017658625
 10
-0.9028659516
 20
4.7124666784
 10
-0.9277717451
 20
4.7222954066
 10
-0.9529924716
 20
4.7312739325
 10
-0.9784942928
 20
4.7394241416
 10
-1.00424337
 20
4.7467679191
 10
-1.0302058647
 20
4.7533271503
 10
-1.0563479383
 20
4.7591237208
 10
-1.0826357525
 20
4.7641795157
 10
-1.1127798954
 20
4.7690756766
 10
-1.1430447614
 20
4.7730842284
 10
-1.1734052865
 20
4.776254141
 10
-1.2038364064
 20
4.7786343845
 10
-1.2343130571
 20
4.7802739289
 10
-1.2648101744
 20
4.7812217441
 10
-1.2953026942
 20
4.7815268003
  0
LINE
  5
3EA
100
AcDbEntity
  8
218140080
100
AcDbLine
 62
250
  6
CONTINUOUS
 10
-1.7048646269
 20
3.323396
 11
-1.7048646269
 21
3.686612
  0
LINE
  5
3EB
100
AcDbEntity
  8
218140080
100
AcDbLine
 62
250
  6
CONTINUOUS
 10
-1.6504362101
 20
-4.680792
 11
-1.6504362101
 21
-5.386478
  0
LINE
  5
3EC
100
AcDbEntity
  8
218140080
100
AcDbLine
 62
250
  6
CONTINUOUS
 10
-0.9449221656
 20
-5.386471
 11
-0.9449221656
 21
-4.680792
  0
LINE
  5
3ED
100
AcDbEntity
  8
218140080
100
AcDbLine
 62
250
  6
CONTINUOUS
 10
-0.8857411968
 20
3.323396
 11
-0.8857411968
 21
3.686612
  0
LINE
  5
3EE
100
AcDbEntity
  8
218140080
100
AcDbLine
 62
250
  6
CONTINUOUS
 10
-0.4085565851
 20
-7.84744
 11
-0.4085565851
 21
-7.285246
  0
LINE
  5
3EF
100
AcDbEntity
  8
218140080
100
AcDbLine
 62
250
  6
CONTINUOUS
 10
-0.4085565851
 20
-4.872178
 11
-0.408563583
 21
-5.378409
  0
LINE
  5
3F0
100
AcDbEntity
  8
218140080
100
AcDbLine
 62
250
  6
CONTINUOUS
 10
-0.4039549871
 20
3.58822
 11
-0.4039549871
 21
3.323396
  0
LINE
  5
3F1
100
AcDbEntity
  8
218140080
100
AcDbLine
 62
250
  6
CONTINUOUS
 10
-0.3837711367
 20
15.007869
 11
-0.3837711367
 21
14.176491
  0
LINE
  5
3F2
100
AcDbEntity
  8
218140080
100
AcDbLine
 62
250
  6
CONTINUOUS
 10
-0.3837711367
 20
8.982943
 11
-0.3837711367
 21
8.151456
  0
LINE
  5
3F3
100
AcDbEntity
  8
218140080
100
AcDbLine
 62
250
  6
CONTINUOUS
 10
0.098015073
 20
7.990812
 11
0.098015073
 21
9.139549
  0
LINE
  5
3F4
100
AcDbEntity
  8
218140080
100
AcDbLine
 62
250
  6
CONTINUOUS
 10
0.098015073
 20
14.015846
 11
0.098015073
 21
15.164584
  0
LINE
  5
3F5
100
AcDbEntity
  8
218140080
100
AcDbLine
 62
250
  6
CONTINUOUS
 10
0.142297581
 20
-7.108317
 11
0.142297581
 21
-8.024362
  0
LINE
  5
3F6
100
AcDbEntity
  8
218140080
100
AcDbLine
 62
250
  6
CONTINUOUS
 10
0.2306806525
 20
5.793739
 11
0.2306806525
 21
6.866738
  0
LINE
  5
3F7
100
AcDbEntity
  8
218140000
100
AcDbLine
 62
7
  6
CONTINUOUS
 10
16.9220618943
 20
-1.6
 11
17.1124668623
 21
-1.6
  0
LINE
  5
3F8
100
AcDbEntity
  8
218140080
100
AcDbLine
 62
7
  6
CONTINUOUS
 10
16.9220618943
 20
-1.6
 11
17.1124668623
 21
-1.6
  0
LINE
  5
3F9
100
AcDbEntity
  8
218140080
100
AcDbLine
 62
250
  6
CONTINUOUS
 10
2.7095850799
 20
-3.476396
 11
1.9128628247
 21
-3.000657
  0
LINE
  5
3FA
100
AcDbEntity
  8
218140080
100
AcDbLine
 62
250
  6
CONTINUOUS
 10
0.7124668623
 20
-15.068868
 11
0.7124598644
 21
-14.488824
  0
LINE
  5
3FB
100
AcDbEntity
  8
218140080
100
AcDbLine
 62
250
  6
CONTINUOUS
 10
0.7124668623
 20
-13.171014
 11
0.7124598644
 21
-12.590992
  0
LINE
  5
3FC
100
AcDbEntity
  8
218140080
100
AcDbLine
 62
250
  6
CONTINUOUS
 10
0.7124598644
 20
-10.882587
 11
0.7124518668
 21
-10.30258
  0
LINE
  5
3FD
100
AcDbEntity
  8
218140080
100
AcDbLine
 62
250
  6
CONTINUOUS
 10
0.7124518668
 20
-8.207475
 11
0.7124598644
 21
-8.787497
  0
LINE
  5
3FE
100
AcDbEntity
  8
218140080
100
AcDbLine
 62
250
  6
CONTINUOUS
 10
0.712444869
 20
-3.637619
 11
0.7124518668
 21
-4.290924
  0
LINE
  5
3FF
100
AcDbEntity
  8
218140080
100
AcDbLine
 62
250
  6
CONTINUOUS
 10
0.7124518668
 20
-5.378474
 11
0.7124518668
 21
-5.958503
  0
LINE
  5
400
100
AcDbEntity
  8
218140080
100
AcDbLine
 62
250
  6
CONTINUOUS
 10
0.7124598644
 20
-12.010985
 11
0.7124598644
 21
-11.430963
  0
LINE
  5
401
100
AcDbEntity
  8
218140080
100
AcDbLine
 62
250
  6
CONTINUOUS
 10
0.7124598644
 20
-9.754197
 11
0.7124598644
 21
-9.174176
  0
LINE
  5
402
100
AcDbEntity
  8
218140080
100
AcDbLine
 62
250
  6
CONTINUOUS
 10
0.7124668623
 20
12.911198
 11
0.7124668623
 21
12.027546
  0
LINE
  5
403
100
AcDbEntity
  8
218140080
100
AcDbLine
 62
250
  6
CONTINUOUS
 10
0.7124668623
 20
10.87477
 11
0.7124668623
 21
10.292325
  0
LINE
  5
404
100
AcDbEntity
  8
218140080
100
AcDbLine
 62
250
  6
CONTINUOUS
 10
0.7124668623
 20
6.866738
 11
0.7124668623
 21
5.171133
  0
LINE
  5
405
100
AcDbEntity
  8
218140080
100
AcDbLine
 62
250
  6
CONTINUOUS
 10
0.7124668623
 20
2.70079
 11
0.7124668623
 21
3.323396
  0
LINE
  5
406
100
AcDbEntity
  8
218140080
100
AcDbLine
 62
250
  6
CONTINUOUS
 10
0.7124668623
 20
7.179514
 11
0.7124668623
 21
7.773964
  0
LINE
  5
407
100
AcDbEntity
  8
218140080
100
AcDbLine
 62
250
  6
CONTINUOUS
 10
0.7124668623
 20
9.348431
 11
0.7124668623
 21
9.975074
  0
LINE
  5
408
100
AcDbEntity
  8
218140080
100
AcDbLine
 62
250
  6
CONTINUOUS
 10
0.7124668623
 20
13.20444
 11
0.7124668623
 21
13.798889
  0
LINE
  5
409
100
AcDbEntity
  8
218140080
100
AcDbLine
 62
250
  6
CONTINUOUS
 10
0.7124668623
 20
15.373574
 11
0.7124668623
 21
16.0
  0
LINE
  5
40A
100
AcDbEntity
  8
218140080
100
AcDbLine
 62
250
  6
CONTINUOUS
 10
0.7124598644
 20
-6.345182
 11
0.7124518668
 21
-6.925211
  0
LINE
  5
40B
100
AcDbEntity
  8
218140080
100
AcDbLine
 62
250
  6
CONTINUOUS
 10
1.9128628247
 20
-10.826258
 11
1.9128628247
 21
-11.773245
  0
LINE
  5
40C
100
AcDbEntity
  8
218140080
100
AcDbLine
 62
250
  6
CONTINUOUS
 10
1.9128628247
 20
-12.659757
 11
1.9128628247
 21
-13.089593
  0
LINE
  5
40D
100
AcDbEntity
  8
218140080
100
AcDbLine
 62
250
  6
CONTINUOUS
 10
1.9128628247
 20
-7.375145
 11
1.9128628247
 21
-6.319553
  0
LINE
  5
40E
100
AcDbEntity
  8
268
100
AcDbLine
 62
250
  6
CONTINUOUS
 10
1.9142121817
 20
23.7551925565
 11
1.9142121817
 21
22.3327878868
  0
LINE
  5
40F
100
AcDbEntity
  8
268
100
AcDbLine
 62
250
  6
CONTINUOUS
 10
1.9142121817
 20
-22.3327878868
 11
1.9142121817
 21
-23.7551925565
  0
LINE
  5
410
100
AcDbEntity
  8
268
100
AcDbLine
 62
7
  6
CONTINUOUS
 10
2.2124668623
 20
23.7534573615
 11
2.2124668623
 21
22.3301850577
  0
LINE
  5
411
100
AcDbEntity
  8
268
100
AcDbLine
 62
7
  6
CONTINUOUS
 10
2.2124668623
 20
-22.3301850577
 11
2.2124668623
 21
-23.7534573615
  0
LINE
  5
412
100
AcDbEntity
  8
218140080
100
AcDbLine
 62
250
  6
CONTINUOUS
 10
2.3127562415
 20
11.985714221
 11
2.3127562415
 21
12.1214286685
  0
LINE
  5
413
100
AcDbEntity
  8
218140080
100
AcDbLine
 62
250
  6
CONTINUOUS
 10
2.3127562415
 20
13.478571558
 11
2.3127562415
 21
13.614285779
  0
LINE
  5
414
100
AcDbEntity
  8
218140080
100
AcDbLine
 62
250
  6
CONTINUOUS
 10
2.3127562415
 20
14.835714221
 11
2.3127562415
 21
15.242857337
  0
LWPOLYLINE
  5
415
100
AcDbEntity
  8
218140000
100
AcDbPolyline
 62
7
  6
CONTINUOUS
 90
7
 70
0
 10
16.028174028
 20
11.1182374088
 10
16.0497613749
 20
11.1373114667
 10
16.0730443185
 20
11.1543997423
 10
16.0980228586
 20
11.1695022354
 10
16.1246969954
 20
11.1826189461
 10
16.1530667288
 20
11.1937498744
 10
16.1831320588
 20
11.2028950204
  0
LWPOLYLINE
  5
416
100
AcDbEntity
  8
218140080
100
AcDbPolyline
 62
7
  6
CONTINUOUS
 90
7
 70
0
 10
16.028174028
 20
11.1182374088
 10
16.0497613749
 20
11.1373114667
 10
16.0730443185
 20
11.1543997423
 10
16.0980228586
 20
11.1695022354
 10
16.1246969954
 20
11.1826189461
 10
16.1530667288
 20
11.1937498744
 10
16.1831320588
 20
11.2028950204
  0
LINE
  5
417
100
AcDbEntity
  8
268
100
AcDbLine
 62
7
  6
CONTINUOUS
 10
-9.6177233539
 20
1.7787678081
 11
-9.3685939763
 21
1.7831163775
  0
LINE
  5
418
100
AcDbEntity
  8
218140080
100
AcDbLine
 62
7
  6
CONTINUOUS
 10
-2.1209349555
 20
2.70079
 11
-2.1866508366
 21
2.7665158915
  0
LINE
  5
419
100
AcDbEntity
  8
218140080
100
AcDbLine
 62
7
  6
CONTINUOUS
 10
-2.052876901
 20
2.70079
 11
-2.1866508366
 21
2.8345843132
  0
LINE
  5
41A
100
AcDbEntity
  8
218140080
100
AcDbLine
 62
7
  6
CONTINUOUS
 10
-1.9848188464
 20
2.70079
 11
-2.1866508366
 21
2.9026527349
  0
LINE
  5
41B
100
AcDbEntity
  8
218140080
100
AcDbLine
 62
7
  6
CONTINUOUS
 10
-1.9167607919
 20
2.70079
 11
-2.1866508366
 21
2.9707211566
  0
LINE
  5
41C
100
AcDbEntity
  8
218140080
100
AcDbLine
 62
7
  6
CONTINUOUS
 10
-1.8487027373
 20
2.70079
 11
-2.1866508366
 21
3.0387895782
  0
LINE
  5
41D
100
AcDbEntity
  8
218140080
100
AcDbLine
 62
7
  6
CONTINUOUS
 10
-1.7806446828
 20
2.70079
 11
-2.1866508366
 21
3.1068579999
  0
LINE
  5
41E
100
AcDbEntity
  8
218140080
100
AcDbLine
 62
7
  6
CONTINUOUS
 10
-1.7125866283
 20
2.70079
 11
-2.1866508366
 21
3.1749264216
  0
LINE
  5
41F
100
AcDbEntity
  8
218140080
100
AcDbLine
 62
7
  6
CONTINUOUS
 10
-1.6445285737
 20
2.70079
 11
-2.1866508366
 21
3.2429948433
  0
LINE
  5
420
100
AcDbEntity
  8
218140080
100
AcDbLine
 62
7
  6
CONTINUOUS
 10
-1.5764705192
 20
2.70079
 11
-2.1866508366
 21
3.311063265
  0
LINE
  5
421
100
AcDbEntity
  8
218140080
100
AcDbLine
 62
7
  6
CONTINUOUS
 10
-1.5084124647
 20
2.70079
 11
-2.1866508366
 21
3.3791316867
  0
LINE
  5
422
100
AcDbEntity
  8
218140080
100
AcDbLine
 62
7
  6
CONTINUOUS
 10
-1.4403544101
 20
2.70079
 11
-2.1866508366
 21
3.4472001084
  0
LINE
  5
423
100
AcDbEntity
  8
218140080
100
AcDbLine
 62
7
  6
CONTINUOUS
 10
-1.3722963556
 20
2.70079
 11
-2.1866508366
 21
3.5152685301
  0
LINE
  5
424
100
AcDbEntity
  8
218140080
100
AcDbLine
 62
7
  6
CONTINUOUS
 10
-1.3042383011
 20
2.70079
 11
-2.1866508366
 21
3.5833369517
  0
LINE
  5
425
100
AcDbEntity
  8
218140080
100
AcDbLine
 62
7
  6
CONTINUOUS
 10
-1.2361802465
 20
2.70079
 11
-2.1839560605
 21
3.6487101868
  0
LINE
  5
426
100
AcDbEntity
  8
218140080
100
AcDbLine
 62
7
  6
CONTINUOUS
 10
-1.168122192
 20
2.70079
 11
-2.181053171
 21
3.7138752768
  0
LINE
  5
427
100
AcDbEntity
  8
218140080
100
AcDbLine
 62
7
  6
CONTINUOUS
 10
-1.1000641374
 20
2.70079
 11
-2.1781502815
 21
3.7790403668
  0
LINE
  5
428
100
AcDbEntity
  8
218140080
100
AcDbLine
 62
7
  6
CONTINUOUS
 10
-1.0320060829
 20
2.70079
 11
-1.654517257
 21
3.323396
  0
LINE
  5
429
100
AcDbEntity
  8
218140080
100
AcDbLine
 62
7
  6
CONTINUOUS
 10
-1.7048646269
 20
3.3737510392
 11
-2.1744339411
 21
3.843391882
  0
LINE
  5
42A
100
AcDbEntity
  8
218140080
100
AcDbLine
 62
7
  6
CONTINUOUS
 10
-0.9639480284
 20
2.70079
 11
-1.5864592025
 21
3.323396
  0
LINE
  5
42B
100
AcDbEntity
  8
218140080
100
AcDbLine
 62
7
  6
CONTINUOUS
 10
-1.7048646269
 20
3.4418194609
 11
-2.1702890296
 21
3.9073147608
  0
LINE
  5
42C
100
AcDbEntity
  8
218140080
100
AcDbLine
 62
7
  6
CONTINUOUS
 10
-0.8958899738
 20
2.70079
 11
-1.5184011479
 21
3.323396
  0
LINE
  5
42D
100
AcDbEntity
  8
218140080
100
AcDbLine
 62
7
  6
CONTINUOUS
 10
-1.7048646269
 20
3.5098878826
 11
-2.1647238734
 21
3.9698171786
  0
LINE
  5
42E
100
AcDbEntity
  8
218140080
100
AcDbLine
 62
7
  6
CONTINUOUS
 10
-0.8278319193
 20
2.70079
 11
-1.4503430934
 21
3.323396
  0
LINE
  5
42F
100
AcDbEntity
  8
218140080
100
AcDbLine
 62
7
  6
CONTINUOUS
 10
-1.7048646269
 20
3.5779563043
 11
-2.1567324265
 21
4.029892936
  0
LINE
  5
430
100
AcDbEntity
  8
218140080
100
AcDbLine
 62
7
  6
CONTINUOUS
 10
-0.7597738648
 20
2.70079
 11
-1.3822850389
 21
3.323396
  0
LINE
  5
431
100
AcDbEntity
  8
218140080
100
AcDbLine
 62
7
  6
CONTINUOUS
 10
-1.7048646269
 20
3.646024726
 11
-2.1456881279
 21
4.0869153767
  0
LINE
  5
432
100
AcDbEntity
  8
218140080
100
AcDbLine
 62
7
  6
CONTINUOUS
 10
-0.6917158102
 20
2.70079
 11
-1.3142269843
 21
3.323396
  0
LINE
  5
433
100
AcDbEntity
  8
218140080
100
AcDbLine
 62
7
  6
CONTINUOUS
 10
-1.7018747595
 20
3.7111028248
 11
-2.1318460881
 21
4.1411396501
  0
LINE
  5
434
100
AcDbEntity
  8
218140080
100
AcDbLine
 62
7
  6
CONTINUOUS
 10
-0.6236577557
 20
2.70079
 11
-1.2461689298
 21
3.323396
  0
LINE
  5
435
100
AcDbEntity
  8
218140080
100
AcDbLine
 62
7
  6
CONTINUOUS
 10
-1.6944664537
 20
3.7717618122
 11
-2.1158202947
 21
4.1931798372
  0
LINE
  5
436
100
AcDbEntity
  8
218140080
100
AcDbLine
 62
7
  6
CONTINUOUS
 10
-0.5555997012
 20
2.70079
 11
-1.1781108753
 21
3.323396
  0
LINE
  5
437
100
AcDbEntity
  8
218140080
100
AcDbLine
 62
7
  6
CONTINUOUS
 10
-1.6857862028
 20
3.8311486607
 11
-2.0980615052
 21
4.2434867642
  0
LINE
  5
438
100
AcDbEntity
  8
218140080
100
AcDbLine
 62
7
  6
CONTINUOUS
 10
-0.4875416466
 20
2.70079
 11
-1.1100528207
 21
3.323396
  0
LINE
  5
439
100
AcDbEntity
  8
218140080
100
AcDbLine
 62
7
  6
CONTINUOUS
 10
-1.6745665197
 20
3.8879956903
 11
-2.0793513126
 21
4.2928421432
  0
LINE
  5
43A
100
AcDbEntity
  8
218140080
100
AcDbLine
 62
7
  6
CONTINUOUS
 10
-0.4194835921
 20
2.70079
 11
-1.0419947662
 21
3.323396
  0
LINE
  5
43B
100
AcDbEntity
  8
218140080
100
AcDbLine
 62
7
  6
CONTINUOUS
 10
-1.6583313098
 20
3.939826429
 11
-2.0596523581
 21
4.3412086097
  0
LINE
  5
43C
100
AcDbEntity
  8
218140080
100
AcDbLine
 62
7
  6
CONTINUOUS
 10
-0.3514255376
 20
2.70079
 11
-0.9739367116
 21
3.323396
  0
LINE
  5
43D
100
AcDbEntity
  8
218140080
100
AcDbLine
 62
7
  6
CONTINUOUS
 10
-1.6321130992
 20
3.9816726463
 11
-2.0377803425
 21
4.387401684
  0
LINE
  5
43E
100
AcDbEntity
  8
218140080
100
AcDbLine
 62
7
  6
CONTINUOUS
 10
-0.283367483
 20
2.70079
 11
-0.9058786571
 21
3.323396
  0
LINE
  5
43F
100
AcDbEntity
  8
218140080
100
AcDbLine
 62
7
  6
CONTINUOUS
 10
-1.5992833565
 20
4.0169063244
 11
-2.0135314835
 21
4.431217553
  0
LINE
  5
440
100
AcDbEntity
  8
218140080
100
AcDbLine
 62
7
  6
CONTINUOUS
 10
-0.2153094285
 20
2.70079
 11
-0.8857411968
 21
3.3713238939
  0
LINE
  5
441
100
AcDbEntity
  8
218140080
100
AcDbLine
 62
7
  6
CONTINUOUS
 10
-1.562009644
 20
4.0476953558
 11
-1.9872301878
 21
4.4729806726
  0
LINE
  5
442
100
AcDbEntity
  8
218140080
100
AcDbLine
 62
7
  6
CONTINUOUS
 10
-0.1472513739
 20
2.70079
 11
-0.8857411968
 21
3.4393923156
  0
LINE
  5
443
100
AcDbEntity
  8
218140080
100
AcDbLine
 62
7
  6
CONTINUOUS
 10
-1.5197979424
 20
4.0735456458
 11
-1.9577060944
 21
4.5115205035
  0
LINE
  5
444
100
AcDbEntity
  8
218140080
100
AcDbLine
 62
7
  6
CONTINUOUS
 10
-0.0791933194
 20
2.70079
 11
-0.8857411968
 21
3.5074607373
  0
LINE
  5
445
100
AcDbEntity
  8
218140080
100
AcDbLine
 62
7
  6
CONTINUOUS
 10
-1.4720367985
 20
4.0938456483
 11
-1.9262388666
 21
4.548116904
  0
LINE
  5
446
100
AcDbEntity
  8
218140080
100
AcDbLine
 62
7
  6
CONTINUOUS
 10
-0.0111352649
 20
2.70079
 11
-0.8857411968
 21
3.575529159
  0
LINE
  5
447
100
AcDbEntity
  8
218140080
100
AcDbLine
 62
7
  6
CONTINUOUS
 10
-1.4182295758
 20
4.1080986508
 11
-1.8926545413
 21
4.5825958846
  0
LINE
  5
448
100
AcDbEntity
  8
218140080
100
AcDbLine
 62
7
  6
CONTINUOUS
 10
0.0569227897
 20
2.70079
 11
-0.8857411968
 21
3.6435975807
  0
LINE
  5
449
100
AcDbEntity
  8
218140080
100
AcDbLine
 62
7
  6
CONTINUOUS
 10
-1.3583909539
 20
4.1163193355
 11
-1.8554605358
 21
4.6134646351
  0
LINE
  5
44A
100
AcDbEntity
  8
218140080
100
AcDbLine
 62
7
  6
CONTINUOUS
 10
0.1249808442
 20
2.70079
 11
-0.8892247088
 21
3.715150045
  0
LINE
  5
44B
100
AcDbEntity
  8
218140080
100
AcDbLine
 62
7
  6
CONTINUOUS
 10
-1.2927255749
 20
4.1187123756
 11
-1.8163045425
 21
4.6423710989
  0
LINE
  5
44C
100
AcDbEntity
  8
218140080
100
AcDbLine
 62
7
  6
CONTINUOUS
 10
0.1930388987
 20
2.70079
 11
-0.8990582433
 21
3.793053499
  0
LINE
  5
44D
100
AcDbEntity
  8
218140080
100
AcDbLine
 62
7
  6
CONTINUOUS
 10
-1.2212786809
 20
4.1153230199
 11
-1.7751041088
 21
4.6692328109
  0
LINE
  5
44E
100
AcDbEntity
  8
218140080
100
AcDbLine
 62
7
  6
CONTINUOUS
 10
0.2610969533
 20
2.70079
 11
-0.3614142208
 21
3.323396
  0
LINE
  5
44F
100
AcDbEntity
  8
218140080
100
AcDbLine
 62
7
  6
CONTINUOUS
 10
-0.4039549871
 20
3.3659432465
 11
-0.9132483214
 21
3.8753141604
  0
LINE
  5
450
100
AcDbEntity
  8
218140080
100
AcDbLine
 62
7
  6
CONTINUOUS
 10
-1.1376451842
 20
4.0997452051
 11
-1.730267134
 21
4.6924574278
  0
LINE
  5
451
100
AcDbEntity
  8
218140080
100
AcDbLine
 62
7
  6
CONTINUOUS
 10
0.3291550078
 20
2.70079
 11
-0.2933561663
 21
3.323396
  0
LINE
  5
452
100
AcDbEntity
  8
218140080
100
AcDbLine
 62
7
  6
CONTINUOUS
 10
-0.4039549871
 20
3.4340116681
 11
-1.6832011343
 21
4.7134526804
  0
LINE
  5
453
100
AcDbEntity
  8
218140080
100
AcDbLine
 62
7
  6
CONTINUOUS
 10
-2.140811747
 20
5.171133
 11
-2.1866508366
 21
5.2169790722
  0
LINE
  5
454
100
AcDbEntity
  8
218140080
100
AcDbLine
 62
7
  6
CONTINUOUS
 10
0.3972130623
 20
2.70079
 11
-0.2252981117
 21
3.323396
  0
LINE
  5
455
100
AcDbEntity
  8
218140080
100
AcDbLine
 62
7
  6
CONTINUOUS
 10
-0.4039549871
 20
3.5020800898
 11
-1.6337754004
 21
4.7320878392
  0
LINE
  5
456
100
AcDbEntity
  8
218140080
100
AcDbLine
 62
7
  6
CONTINUOUS
 10
-2.0727536925
 20
5.171133
 11
-2.1866508366
 21
5.2850474939
  0
LINE
  5
457
100
AcDbEntity
  8
218140080
100
AcDbLine
 62
7
  6
CONTINUOUS
 10
0.4652711169
 20
2.70079
 11
-0.1572400572
 21
3.323396
  0
LINE
  5
458
100
AcDbEntity
  8
218140080
100
AcDbLine
 62
7
  6
CONTINUOUS
 10
-0.4039549871
 20
3.5701485115
 11
-1.5815208394
 21
4.7478937401
  0
LINE
  5
459
100
AcDbEntity
  8
218140080
100
AcDbLine
 62
7
  6
CONTINUOUS
 10
-2.0046956379
 20
5.171133
 11
-2.1866508366
 21
5.3531159156
  0
LINE
  5
45A
100
AcDbEntity
  8
218140080
100
AcDbLine
 62
7
  6
CONTINUOUS
 10
0.5333291714
 20
2.70079
 11
-0.0891820027
 21
3.323396
  0
LINE
  5
45B
100
AcDbEntity
  8
218140080
100
AcDbLine
 62
7
  6
CONTINUOUS
 10
-0.4062857309
 20
3.640548032
 11
-1.525863431
 21
4.7602962752
  0
LINE
  5
45C
100
AcDbEntity
  8
218140080
100
AcDbLine
 62
7
  6
CONTINUOUS
 10
-1.9366375834
 20
5.171133
 11
-2.1866508366
 21
5.4211843373
  0
LINE
  5
45D
100
AcDbEntity
  8
218140080
100
AcDbLine
 62
7
  6
CONTINUOUS
 10
0.601387226
 20
2.70079
 11
-0.0211239481
 21
3.323396
  0
LINE
  5
45E
100
AcDbEntity
  8
218140080
100
AcDbLine
 62
7
  6
CONTINUOUS
 10
-0.40945935
 20
3.7117905562
 11
-1.4668687372
 21
4.7693610165
  0
LINE
  5
45F
100
AcDbEntity
  8
218140080
100
AcDbLine
 62
7
  6
CONTINUOUS
 10
-1.8685795288
 20
5.171133
 11
-2.1866508366
 21
5.489252759
  0
LINE
  5
460
100
AcDbEntity
  8
218140080
100
AcDbLine
 62
250
  6
CONTINUOUS
 10
2.5626648435
 20
-11.773245
 11
2.5626648435
 21
-10.892654
  0
LINE
  5
461
100
AcDbEntity
  8
218140080
100
AcDbLine
 62
250
  6
CONTINUOUS
 10
2.7407695786
 20
-6.043716
 11
2.7407695786
 21
-5.317059
  0
LINE
  5
462
100
AcDbEntity
  8
218140080
100
AcDbLine
 62
250
  6
CONTINUOUS
 10
2.7482083122
 20
-14.196702
 11
2.7482083122
 21
-13.463517
  0
LWPOLYLINE
  5
463
100
AcDbEntity
  8
0
100
AcDbPolyline
 62
7
  6
CONTINUOUS
 90
2
 70
0
 43
0.3500000006
 10
2.9285714321
 20
43.1499992523
 10
2.9285714321
 20
44.6499997101
  0
LINE
  5
464
100
AcDbEntity
  8
218140080
100
AcDbLine
 62
250
  6
CONTINUOUS
 10
3.1269178876
 20
14.835714221
 11
3.1269178876
 21
15.242857337
  0
LINE
  5
465
100
AcDbEntity
  8
218140080
100
AcDbLine
 62
250
  6
CONTINUOUS
 10
3.2124668623
 20
-13.089593
 11
3.2124668623
 21
-12.659757
  0
LINE
  5
466
100
AcDbEntity
  8
218140080
100
AcDbLine
 62
250
  6
CONTINUOUS
 10
3.2124668623
 20
-11.773245
 11
3.2124668623
 21
-10.813568
  0
LINE
  5
467
100
AcDbEntity
  8
218140080
100
AcDbLine
 62
250
  6
CONTINUOUS
 10
3.2124668623
 20
-4.861082
 11
3.2124668623
 21
-4.114148
  0
LINE
  5
468
100
AcDbEntity
  8
218140080
100
AcDbLine
 62
250
  6
CONTINUOUS
 10
3.8053860109
 20
11.035714221
 11
3.8053860109
 21
10.0857143342
  0
LINE
  5
469
100
AcDbEntity
  8
218140080
100
AcDbLine
 62
250
  6
CONTINUOUS
 10
4.2124668623
 20
15.242857337
 11
4.2124668623
 21
14.835714221
  0
LINE
  5
46A
100
AcDbEntity
  8
218140080
100
AcDbLine
 62
250
  6
CONTINUOUS
 10
4.2124668623
 20
13.614285779
 11
4.2124668623
 21
13.478571558
  0
LINE
  5
46B
100
AcDbEntity
  8
218140080
100
AcDbLine
 62
250
  6
CONTINUOUS
 10
4.2124668623
 20
12.1214286685
 11
4.2124668623
 21
11.985714221
  0
LINE
  5
46C
100
AcDbEntity
  8
218140080
100
AcDbLine
 62
250
  6
CONTINUOUS
 10
1.9128628247
 20
-3.952134
 11
2.7095850799
 21
-3.476396
  0
LINE
  5
46D
100
AcDbEntity
  8
218140080
100
AcDbLine
 62
250
  6
CONTINUOUS
 10
-0.4782873396
 20
-4.255022
 11
0.712444869
 21
-3.637619
  0
LINE
  5
46E
100
AcDbEntity
  8
218140080
100
AcDbLine
 62
250
  6
CONTINUOUS
 10
0.7124518668
 20
-4.290924
 11
-0.4085565851
 21
-4.872178
  0
LWPOLYLINE
  5
46F
100
AcDbEntity
  8
218140000
100
AcDbPolyline
 62
250
  6
CONTINUOUS
 90
38
 70
0
 10
17.1781805206
 20
0.8041755087
 10
17.1710926723
 20
0.8020728418
 10
17.1638795386
 20
0.799459295
 10
17.1565411196
 20
0.7963348684
 10
17.149058555
 20
0.7927066126
 10
17.1414507051
 20
0.7885674771
 10
17.1337741508
 20
0.7838963099
 10
17.12602205
 20
0.7786719937
 10
17.118201245
 20
0.772915646
 10
17.1103888433
 20
0.7666694674
 10
17.102594382
 20
0.7599261306
 10
17.0948083242
 20
0.7526929629
 10
17.087079167
 20
0.7450341468
 10
17.0794245738
 20
0.7369636015
 10
17.0718268812
 20
0.7284674078
 10
17.0642815961
 20
0.7195679907
 10
17.0567892762
 20
0.7102691753
 10
17.0493493639
 20
0.7005671366
 10
17.0419556927
 20
0.6904728237
 10
17.0346073404
 20
0.6799884404
 10
17.0273052292
 20
0.6691117829
 10
17.0200459594
 20
0.6578471891
 10
17.0128328713
 20
0.6462050692
 10
17.0056626246
 20
0.6341750131
 10
16.9985217981
 20
0.6217301287
 10
16.9914091111
 20
0.6088753605
 10
16.9843258445
 20
0.5956057641
 10
16.9772624193
 20
0.5818796136
 10
16.9702153481
 20
0.567697518
 10
16.9631881185
 20
0.5530588684
 10
16.9561816148
 20
0.5379201125
 10
16.9491920851
 20
0.522280566
 10
16.9422232813
 20
0.5061409132
 10
16.9352873432
 20
0.4894596544
 10
16.9283809288
 20
0.4722372229
 10
16.9215073801
 20
0.4544731855
 10
16.9146888638
 20
0.4361247424
 10
16.9083148936
 20
0.4182948078
  0
LWPOLYLINE
  5
470
100
AcDbEntity
  8
218140080
100
AcDbPolyline
 62
250
  6
CONTINUOUS
 90
38
 70
0
 10
17.1781805206
 20
0.8041755087
 10
17.1710926723
 20
0.8020728418
 10
17.1638795386
 20
0.799459295
 10
17.1565411196
 20
0.7963348684
 10
17.149058555
 20
0.7927066126
 10
17.1414507051
 20
0.7885674771
 10
17.1337741508
 20
0.7838963099
 10
17.12602205
 20
0.7786719937
 10
17.118201245
 20
0.772915646
 10
17.1103888433
 20
0.7666694674
 10
17.102594382
 20
0.7599261306
 10
17.0948083242
 20
0.7526929629
 10
17.087079167
 20
0.7450341468
 10
17.0794245738
 20
0.7369636015
 10
17.0718268812
 20
0.7284674078
 10
17.0642815961
 20
0.7195679907
 10
17.0567892762
 20
0.7102691753
 10
17.0493493639
 20
0.7005671366
 10
17.0419556927
 20
0.6904728237
 10
17.0346073404
 20
0.6799884404
 10
17.0273052292
 20
0.6691117829
 10
17.0200459594
 20
0.6578471891
 10
17.0128328713
 20
0.6462050692
 10
17.0056626246
 20
0.6341750131
 10
16.9985217981
 20
0.6217301287
 10
16.9914091111
 20
0.6088753605
 10
16.9843258445
 20
0.5956057641
 10
16.9772624193
 20
0.5818796136
 10
16.9702153481
 20
0.567697518
 10
16.9631881185
 20
0.5530588684
 10
16.9561816148
 20
0.5379201125
 10
16.9491920851
 20
0.522280566
 10
16.9422232813
 20
0.5061409132
 10
16.9352873432
 20
0.4894596544
 10
16.9283809288
 20
0.4722372229
 10
16.9215073801
 20
0.4544731855
 10
16.9146888638
 20
0.4361247424
 10
16.9083148936
 20
0.4182948078
  0
LINE
  5
471
100
AcDbEntity
  8
218140080
100
AcDbLine
 62
250
  6
CONTINUOUS
 10
-2.1866508366
 20
2.70079
 11
0.7124668623
 21
2.70079
  0
LINE
  5
472
100
AcDbEntity
  8
218140080
100
AcDbLine
 62
250
  6
CONTINUOUS
 10
0.7124668623
 20
3.323396
 11
-0.4039549871
 21
3.323396
  0
LINE
  5
473
100
AcDbEntity
  8
218140080
100
AcDbLine
 62
250
  6
CONTINUOUS
 10
-0.8857411968
 20
3.323396
 11
-1.7048646269
 21
3.323396
  0
LWPOLYLINE
  5
474
100
AcDbEntity
  8
218140080
100
AcDbPolyline
 62
250
  6
CONTINUOUS
 90
54
 70
0
 10
-1.2953026942
 20
4.1187598859
 10
-1.2821595976
 20
4.1186723659
 10
-1.2689889656
 20
4.1183952739
 10
-1.2558041874
 20
4.1179068121
 10
-1.2426186521
 20
4.1171851824
 10
-1.2294457487
 20
4.1162085871
 10
-1.2162988664
 20
4.1149552282
 10
-1.2031913942
 20
4.1134033078
 10
-1.1901367212
 20
4.111531028
 10
-1.1771482366
 20
4.1093165908
 10
-1.1642393294
 20
4.1067381983
 10
-1.1514233887
 20
4.1037740527
 10
-1.1387138035
 20
4.100402356
 10
-1.1261239631
 20
4.0966013103
 10
-1.1145331484
 20
4.0926644395
 10
-1.1030754775
 20
4.0883405362
 10
-1.0917688936
 20
4.0836329449
 10
-1.0806313401
 20
4.0785450099
 10
-1.0696807602
 20
4.0730800757
 10
-1.0589350972
 20
4.0672414867
 10
-1.0484122943
 20
4.0610325873
 10
-1.0381277809
 20
4.0544577583
 10
-1.0280855325
 20
4.0475246196
 10
-1.0182870215
 20
4.040241811
 10
-1.0087337205
 20
4.0326179721
 10
-0.9994271018
 20
4.0246617425
 10
-0.990368638
 20
4.0163817618
 10
-0.9815598016
 20
4.0077866698
 10
-0.9755670111
 20
4.0016067828
 10
-0.9697241143
 20
3.9952743255
 10
-0.9640587721
 20
3.9887859143
 10
-0.9585986457
 20
3.9821381657
 10
-0.9533713964
 20
3.975327696
 10
-0.9484046852
 20
3.9683511216
 10
-0.9437261733
 20
3.9612050591
 10
-0.9393635219
 20
3.9538861248
 10
-0.9353443922
 20
3.9463909352
 10
-0.9316964452
 20
3.9387161066
 10
-0.9284153951
 20
3.9308166218
 10
-0.9254839526
 20
3.9227650827
 10
-0.9228480776
 20
3.9145946618
 10
-0.9204537301
 20
3.9063385316
 10
-0.9182468703
 20
3.8980298647
 10
-0.9148650262
 20
3.8840998519
 10
-0.911805323
 20
3.8701183226
 10
-0.909017593
 20
3.8560877855
 10
-0.9059804153
 20
3.8392656904
 10
-0.9032154716
 20
3.822389229
 10
-0.9006783976
 20
3.805470407
 10
-0.8983248289
 20
3.7885212298
 10
-0.8961104009
 20
3.7715537031
 10
-0.892612562
 20
3.7432399548
 10
-0.8892116172
 20
3.714921713
 10
-0.8857408339
 20
3.6866121309
  0
LINE
  5
475
100
AcDbEntity
  8
218140080
100
AcDbLine
 62
7
  6
CONTINUOUS
 10
0.6694452805
 20
2.70079
 11
0.0469341064
 21
3.323396
  0
LINE
  5
476
100
AcDbEntity
  8
218140080
100
AcDbLine
 62
7
  6
CONTINUOUS
 10
-0.4126329691
 20
3.7830330805
 11
-1.4064290251
 21
4.7769805195
  0
LINE
  5
477
100
AcDbEntity
  8
218140080
100
AcDbLine
 62
7
  6
CONTINUOUS
 10
-1.8005214743
 20
5.171133
 11
-2.1866508366
 21
5.5573211806
  0
LINE
  5
478
100
AcDbEntity
  8
218140080
100
AcDbLine
 62
7
  6
CONTINUOUS
 10
0.7124668623
 20
2.7258302865
 11
0.1149921609
 21
3.323396
  0
LINE
  5
479
100
AcDbEntity
  8
218140080
100
AcDbLine
 62
7
  6
CONTINUOUS
 10
-0.4169514187
 20
3.8554206095
 11
-1.3412016131
 21
4.7798115932
  0
LINE
  5
47A
100
AcDbEntity
  8
218140080
100
AcDbLine
 62
7
  6
CONTINUOUS
 10
-1.7324634198
 20
5.171133
 11
-2.1866508366
 21
5.6253896023
  0
LINE
  5
47B
100
AcDbEntity
  8
218140080
100
AcDbLine
 62
7
  6
CONTINUOUS
 10
0.7124668623
 20
2.7938987082
 11
0.1830502155
 21
3.323396
  0
LINE
  5
47C
100
AcDbEntity
  8
218140080
100
AcDbLine
 62
7
  6
CONTINUOUS
 10
-0.4221059341
 20
3.9286443318
 11
-1.2740649887
 21
4.7807331637
  0
LINE
  5
47D
100
AcDbEntity
  8
218140080
100
AcDbLine
 62
7
  6
CONTINUOUS
 10
-1.6644053652
 20
5.171133
 11
-2.1866508366
 21
5.693458024
  0
LINE
  5
47E
100
AcDbEntity
  8
218140080
100
AcDbLine
 62
7
  6
CONTINUOUS
 10
0.7124668623
 20
2.8619671299
 11
0.25110827
 21
3.323396
  0
LINE
  5
47F
100
AcDbEntity
  8
218140080
100
AcDbLine
 62
7
  6
CONTINUOUS
 10
-0.4300304618
 20
4.0046384884
 11
-1.2033653454
 21
4.7780911725
  0
LINE
  5
480
100
AcDbEntity
  8
218140080
100
AcDbLine
 62
7
  6
CONTINUOUS
 10
-1.5963473107
 20
5.171133
 11
-2.1866508366
 21
5.7615264457
  0
LINE
  5
481
100
AcDbEntity
  8
218140080
100
AcDbLine
 62
7
  6
CONTINUOUS
 10
0.7124668623
 20
2.9300355516
 11
0.3191663245
 21
3.323396
  0
LINE
  5
482
100
AcDbEntity
  8
218140080
100
AcDbLine
 62
7
  6
CONTINUOUS
 10
-0.4451227991
 20
4.0878015464
 11
-1.1269883347
 21
4.7697709492
  0
LINE
  5
483
100
AcDbEntity
  8
218140080
100
AcDbLine
 62
7
  6
CONTINUOUS
 10
-1.5282892562
 20
5.171133
 11
-2.1508004303
 21
5.793739
  0
LINE
  5
484
100
AcDbEntity
  8
218140080
100
AcDbLine
 62
7
  6
CONTINUOUS
 10
0.7124668623
 20
2.9981039733
 11
0.3872243791
 21
3.323396
  0
LINE
  5
485
100
AcDbEntity
  8
218140080
100
AcDbLine
 62
7
  6
CONTINUOUS
 10
-0.4709858095
 20
4.1817369181
 11
-1.0452214261
 21
4.7560600068
  0
LINE
  5
486
100
AcDbEntity
  8
218140080
100
AcDbLine
 62
7
  6
CONTINUOUS
 10
-1.4602312016
 20
5.171133
 11
-2.0827423757
 21
5.793739
  0
LINE
  5
487
100
AcDbEntity
  8
218140080
100
AcDbLine
 62
7
  6
CONTINUOUS
 10
0.7124668623
 20
3.066172395
 11
0.4552824336
 21
3.323396
  0
LINE
  5
488
100
AcDbEntity
  8
218140080
100
AcDbLine
 62
7
  6
CONTINUOUS
 10
-0.5095673541
 20
4.2883927614
 11
-0.9516188298
 21
4.7305115739
  0
LINE
  5
489
100
AcDbEntity
  8
218140080
100
AcDbLine
 62
7
  6
CONTINUOUS
 10
-1.3921731471
 20
5.171133
 11
-2.0146843212
 21
5.793739
  0
LINE
  5
48A
100
AcDbEntity
  8
218140080
100
AcDbLine
 62
7
  6
CONTINUOUS
 10
0.7124668623
 20
3.1342408166
 11
0.5233404882
 21
3.323396
  0
LINE
  5
48B
100
AcDbEntity
  8
218140080
100
AcDbLine
 62
7
  6
CONTINUOUS
 10
-0.5660325746
 20
4.4129350049
 11
-0.8295856375
 21
4.6765282142
  0
LINE
  5
48C
100
AcDbEntity
  8
218140080
100
AcDbLine
 62
7
  6
CONTINUOUS
 10
-1.3241150926
 20
5.171133
 11
-1.9466262666
 21
5.793739
  0
LINE
  5
48D
100
AcDbEntity
  8
218140080
100
AcDbLine
 62
7
  6
CONTINUOUS
 10
0.7124668623
 20
3.2023092383
 11
0.5913985427
 21
3.323396
  0
LINE
  5
48E
100
AcDbEntity
  8
218140080
100
AcDbLine
 62
7
  6
CONTINUOUS
 10
-1.256057038
 20
5.171133
 11
-1.8785682121
 21
5.793739
  0
LINE
  5
48F
100
AcDbEntity
  8
218140080
100
AcDbLine
 62
7
  6
CONTINUOUS
 10
0.7124668623
 20
3.27037766
 11
0.6594565972
 21
3.323396
  0
LINE
  5
490
100
AcDbEntity
  8
218140080
100
AcDbLine
 62
7
  6
CONTINUOUS
 10
-1.1879989835
 20
5.171133
 11
-1.8105101576
 21
5.793739
  0
LINE
  5
491
100
AcDbEntity
  8
218140080
100
AcDbLine
 62
7
  6
CONTINUOUS
 10
-1.1199409289
 20
5.171133
 11
-1.742452103
 21
5.793739
  0
LINE
  5
492
100
AcDbEntity
  8
218140080
100
AcDbLine
 62
7
  6
CONTINUOUS
 10
-1.0518828744
 20
5.171133
 11
-1.6743940485
 21
5.793739
  0
LINE
  5
493
100
AcDbEntity
  8
218140080
100
AcDbLine
 62
7
  6
CONTINUOUS
 10
-0.9838248199
 20
5.171133
 11
-1.606335994
 21
5.793739
  0
LINE
  5
494
100
AcDbEntity
  8
218140080
100
AcDbLine
 62
7
  6
CONTINUOUS
 10
-0.9157667653
 20
5.171133
 11
-1.5382779394
 21
5.793739
  0
LINE
  5
495
100
AcDbEntity
  8
218140080
100
AcDbLine
 62
7
  6
CONTINUOUS
 10
-0.8477087108
 20
5.171133
 11
-1.4702198849
 21
5.793739
  0
LINE
  5
496
100
AcDbEntity
  8
218140080
100
AcDbLine
 62
7
  6
CONTINUOUS
 10
-0.7796506563
 20
5.171133
 11
-1.4021618304
 21
5.793739
  0
LINE
  5
497
100
AcDbEntity
  8
218140080
100
AcDbLine
 62
7
  6
CONTINUOUS
 10
-0.7115926017
 20
5.171133
 11
-1.3341037758
 21
5.793739
  0
LINE
  5
498
100
AcDbEntity
  8
218140080
100
AcDbLine
 62
7
  6
CONTINUOUS
 10
-0.6435345472
 20
5.171133
 11
-1.2660457213
 21
5.793739
  0
LINE
  5
499
100
AcDbEntity
  8
218140080
100
AcDbLine
 62
7
  6
CONTINUOUS
 10
-0.5754764927
 20
5.171133
 11
-1.1979876667
 21
5.793739
  0
LINE
  5
49A
100
AcDbEntity
  8
218140080
100
AcDbLine
 62
7
  6
CONTINUOUS
 10
-0.5074184381
 20
5.171133
 11
-1.1299296122
 21
5.793739
  0
LINE
  5
49B
100
AcDbEntity
  8
218140080
100
AcDbLine
 62
7
  6
CONTINUOUS
 10
-0.4393603836
 20
5.171133
 11
-1.0618715577
 21
5.793739
  0
LINE
  5
49C
100
AcDbEntity
  8
218140080
100
AcDbLine
 62
7
  6
CONTINUOUS
 10
-0.371302329
 20
5.171133
 11
-0.9938135031
 21
5.793739
  0
LINE
  5
49D
100
AcDbEntity
  8
218140080
100
AcDbLine
 62
7
  6
CONTINUOUS
 10
-0.3032442745
 20
5.171133
 11
-0.9257554486
 21
5.793739
  0
LINE
  5
49E
100
AcDbEntity
  8
218140080
100
AcDbLine
 62
7
  6
CONTINUOUS
 10
-0.23518622
 20
5.171133
 11
-0.8576973941
 21
5.793739
  0
LINE
  5
49F
100
AcDbEntity
  8
218140080
100
AcDbLine
 62
7
  6
CONTINUOUS
 10
-0.1671281654
 20
5.171133
 11
-0.7896393395
 21
5.793739
  0
LINE
  5
4A0
100
AcDbEntity
  8
218140080
100
AcDbLine
 62
7
  6
CONTINUOUS
 10
-0.0990701109
 20
5.171133
 11
-0.721581285
 21
5.793739
  0
LINE
  5
4A1
100
AcDbEntity
  8
218140080
100
AcDbLine
 62
7
  6
CONTINUOUS
 10
-0.0310120564
 20
5.171133
 11
-0.6535232305
 21
5.793739
  0
LINE
  5
4A2
100
AcDbEntity
  8
218140080
100
AcDbLine
 62
7
  6
CONTINUOUS
 10
0.0370459982
 20
5.171133
 11
-0.5854651759
 21
5.793739
  0
LINE
  5
4A3
100
AcDbEntity
  8
218140080
100
AcDbLine
 62
7
  6
CONTINUOUS
 10
0.1051040527
 20
5.171133
 11
-0.5174071214
 21
5.793739
  0
LINE
  5
4A4
100
AcDbEntity
  8
218140080
100
AcDbLine
 62
7
  6
CONTINUOUS
 10
0.1731621072
 20
5.171133
 11
-0.4493490669
 21
5.793739
  0
LINE
  5
4A5
100
AcDbEntity
  8
218140080
100
AcDbLine
 62
7
  6
CONTINUOUS
 10
0.2412201618
 20
5.171133
 11
-0.3812910123
 21
5.793739
  0
LINE
  5
4A6
100
AcDbEntity
  8
218140080
100
AcDbLine
 62
7
  6
CONTINUOUS
 10
0.3092782163
 20
5.171133
 11
-0.3132329578
 21
5.793739
  0
LINE
  5
4A7
100
AcDbEntity
  8
218140080
100
AcDbLine
 62
7
  6
CONTINUOUS
 10
0.3773362708
 20
5.171133
 11
-0.2451749032
 21
5.793739
  0
LINE
  5
4A8
100
AcDbEntity
  8
218140080
100
AcDbLine
 62
7
  6
CONTINUOUS
 10
0.4453943254
 20
5.171133
 11
-0.1771168487
 21
5.793739
  0
LINE
  5
4A9
100
AcDbEntity
  8
218140080
100
AcDbLine
 62
7
  6
CONTINUOUS
 10
0.5134523799
 20
5.171133
 11
-0.1090587942
 21
5.793739
  0
LINE
  5
4AA
100
AcDbEntity
  8
218140080
100
AcDbLine
 62
7
  6
CONTINUOUS
 10
0.5815104345
 20
5.171133
 11
-0.0410007396
 21
5.793739
  0
LINE
  5
4AB
100
AcDbEntity
  8
218140080
100
AcDbLine
 62
7
  6
CONTINUOUS
 10
0.649568489
 20
5.171133
 11
0.0270573149
 21
5.793739
  0
LINE
  5
4AC
100
AcDbEntity
  8
218140080
100
AcDbLine
 62
7
  6
CONTINUOUS
 10
0.7124668623
 20
5.1762934672
 11
0.0951153694
 21
5.793739
  0
LINE
  5
4AD
100
AcDbEntity
  8
218140080
100
AcDbLine
 62
7
  6
CONTINUOUS
 10
0.7124668623
 20
5.2443618889
 11
0.163173424
 21
5.793739
  0
LINE
  5
4AE
100
AcDbEntity
  8
218140080
100
AcDbLine
 62
7
  6
CONTINUOUS
 10
0.7124668623
 20
5.3124303106
 11
0.2306806525
 21
5.7942899099
  0
LINE
  5
4AF
100
AcDbEntity
  8
218140080
100
AcDbLine
 62
7
  6
CONTINUOUS
 10
0.7124668623
 20
5.3804987323
 11
0.2306806525
 21
5.8623583316
  0
LINE
  5
4B0
100
AcDbEntity
  8
218140080
100
AcDbLine
 62
7
  6
CONTINUOUS
 10
-2.1048886352
 20
8.198283392
 11
-2.1866508366
 21
8.2800580481
  0
LINE
  5
4B1
100
AcDbEntity
  8
218140080
100
AcDbLine
 62
7
  6
CONTINUOUS
 10
0.7124668623
 20
5.448567154
 11
0.2306806525
 21
5.9304267533
  0
LINE
  5
4B2
100
AcDbEntity
  8
218140080
100
AcDbLine
 62
7
  6
CONTINUOUS
 10
-1.9982897944
 20
8.1597367349
 11
-2.1866508366
 21
8.3481264698
  0
LINE
  5
4B3
100
AcDbEntity
  8
218140080
100
AcDbLine
 62
7
  6
CONTINUOUS
 10
0.7124668623
 20
5.5166355757
 11
0.2306806525
 21
5.9984951749
  0
LINE
  5
4B4
100
AcDbEntity
  8
218140080
100
AcDbLine
 62
7
  6
CONTINUOUS
 10
-1.8916909537
 20
8.1211900779
 11
-2.1866508366
 21
8.4161948915
  0
LINE
  5
4B5
100
AcDbEntity
  8
268
100
AcDbLine
 62
250
  6
CONTINUOUS
 10
4.9150848229
 20
-20.9
 11
4.9150848229
 21
-20.6806401735
  0
LINE
  5
4B6
100
AcDbEntity
  8
268
100
AcDbLine
 62
250
  6
CONTINUOUS
 10
4.9150848229
 20
20.6806401735
 11
4.9150848229
 21
20.9
  0
LINE
  5
4B7
100
AcDbEntity
  8
268
100
AcDbLine
 62
250
  6
CONTINUOUS
 10
4.9177025842
 20
21.4450957595
 11
4.9177025842
 21
21.2
  0
LINE
  5
4B8
100
AcDbEntity
  8
268
100
AcDbLine
 62
250
  6
CONTINUOUS
 10
4.9177025842
 20
-21.2
 11
4.9177025842
 21
-21.4450957595
  0
LINE
  5
4B9
100
AcDbEntity
  8
218140000
100
AcDbLine
 62
7
  6
CONTINUOUS
 10
5.2124668623
 20
-19.6109791689
 11
5.2124668623
 21
-20.6754493507
  0
LINE
  5
4BA
100
AcDbEntity
  8
218140080
100
AcDbLine
 62
7
  6
CONTINUOUS
 10
5.2124668623
 20
-19.6109791689
 11
5.2124668623
 21
-20.6754493507
  0
LINE
  5
4BB
100
AcDbEntity
  8
268
100
AcDbLine
 62
7
  6
CONTINUOUS
 10
5.2124668623
 20
-20.6754493507
 11
5.2124668623
 21
-21.3126932437
  0
LINE
  5
4BC
100
AcDbEntity
  8
218140000
100
AcDbLine
 62
7
  6
CONTINUOUS
 10
5.2124668623
 20
19.6109791689
 11
5.2124668623
 21
20.6754493507
  0
LINE
  5
4BD
100
AcDbEntity
  8
218140080
100
AcDbLine
 62
7
  6
CONTINUOUS
 10
5.2124668623
 20
19.6109791689
 11
5.2124668623
 21
20.6754493507
  0
LINE
  5
4BE
100
AcDbEntity
  8
268
100
AcDbLine
 62
7
  6
CONTINUOUS
 10
5.2124668623
 20
20.6754493507
 11
5.2124668623
 21
21.3126932437
  0
LINE
  5
4BF
100
AcDbEntity
  8
218140080
100
AcDbLine
 62
250
  6
CONTINUOUS
 10
3.2124668623
 20
-5.110054
 11
1.9128628247
 21
-5.680387
  0
LWPOLYLINE
  5
4C0
100
AcDbEntity
  8
218140000
100
AcDbPolyline
 62
250
  6
CONTINUOUS
 90
58
 70
0
 10
17.1863201394
 20
0.7741926714
 10
17.1810082327
 20
0.7720724566
 10
17.1755971032
 20
0.7694426054
 10
17.1700892179
 20
0.7663012083
 10
17.164476043
 20
0.7626509481
 10
17.158771823
 20
0.7584849796
 10
17.1530132189
 20
0.7537876139
 10
17.1471980791
 20
0.7485369613
 10
17.1413348579
 20
0.7427516785
 10
17.1354753671
 20
0.7364783878
 10
17.129628894
 20
0.7297100058
 10
17.1237916529
 20
0.7224522262
 10
17.1179947187
 20
0.7147723254
 10
17.1122532014
 20
0.7066840941
 10
17.106556404
 20
0.6981735454
 10
17.1008963656
 20
0.6892666115
 10
17.0952763931
 20
0.6799663192
 10
17.0896981117
 20
0.6702688265
 10
17.0841515969
 20
0.6601892128
 10
17.0786395512
 20
0.6497284944
 10
17.0731649591
 20
0.6388842577
 10
17.0677190649
 20
0.6276658213
 10
17.0623086053
 20
0.6160818215
 10
17.0569334341
 20
0.6041217205
 10
17.0515757284
 20
0.5917651873
 10
17.0462404242
 20
0.5790144718
 10
17.0409313611
 20
0.5658642501
 10
17.0356310423
 20
0.5522815841
 10
17.0303445866
 20
0.5382636097
 10
17.0250786357
 20
0.5238087825
 10
17.019820296
 20
0.5088848365
 10
17.0145765399
 20
0.493486974
 10
17.0093556982
 20
0.4776143167
 10
17.0041494516
 20
0.461239212
 10
16.9989675744
 20
0.4443573477
 10
16.9938197572
 20
0.4269662026
 10
16.9887004824
 20
0.4090395117
 10
16.9836246607
 20
0.3905810007
 10
16.9786019011
 20
0.3715790502
 10
16.9736230009
 20
0.3519826407
 10
16.9687054384
 20
0.3317887265
 10
16.9638643715
 20
0.3109907707
 10
16.9590934835
 20
0.2895301556
 10
16.9544155255
 20
0.267400575
 10
16.9498514735
 20
0.2445971111
 10
16.9454010087
 20
0.2210604399
 10
16.941091785
 20
0.196767568
 10
16.9369551963
 20
0.1717290401
 10
16.9330066295
 20
0.1459332534
 10
16.9292851489
 20
0.1193765595
 10
16.9258266745
 20
0.0920517009
 10
16.9226547941
 20
0.0639392531
 10
16.9198228032
 20
0.0350662489
 10
16.9173743166
 20
0.0053988232
 10
16.9153432053
 20
-0.0251774527
 10
16.9137954778
 20
-0.0567026995
 10
16.9128117208
 20
-0.0891375752
 10
16.9124668623
 20
-0.1224761222
  0
LWPOLYLINE
  5
4C1
100
AcDbEntity
  8
218140080
100
AcDbPolyline
 62
250
  6
CONTINUOUS
 90
58
 70
0
 10
17.1863201394
 20
0.7741926714
 10
17.1810082327
 20
0.7720724566
 10
17.1755971032
 20
0.7694426054
 10
17.1700892179
 20
0.7663012083
 10
17.164476043
 20
0.7626509481
 10
17.158771823
 20
0.7584849796
 10
17.1530132189
 20
0.7537876139
 10
17.1471980791
 20
0.7485369613
 10
17.1413348579
 20
0.7427516785
 10
17.1354753671
 20
0.7364783878
 10
17.129628894
 20
0.7297100058
 10
17.1237916529
 20
0.7224522262
 10
17.1179947187
 20
0.7147723254
 10
17.1122532014
 20
0.7066840941
 10
17.106556404
 20
0.6981735454
 10
17.1008963656
 20
0.6892666115
 10
17.0952763931
 20
0.6799663192
 10
17.0896981117
 20
0.6702688265
 10
17.0841515969
 20
0.6601892128
 10
17.0786395512
 20
0.6497284944
 10
17.0731649591
 20
0.6388842577
 10
17.0677190649
 20
0.6276658213
 10
17.0623086053
 20
0.6160818215
 10
17.0569334341
 20
0.6041217205
 10
17.0515757284
 20
0.5917651873
 10
17.0462404242
 20
0.5790144718
 10
17.0409313611
 20
0.5658642501
 10
17.0356310423
 20
0.5522815841
 10
17.0303445866
 20
0.5382636097
 10
17.0250786357
 20
0.5238087825
 10
17.019820296
 20
0.5088848365
 10
17.0145765399
 20
0.493486974
 10
17.0093556982
 20
0.4776143167
 10
17.0041494516
 20
0.461239212
 10
16.9989675744
 20
0.4443573477
 10
16.9938197572
 20
0.4269662026
 10
16.9887004824
 20
0.4090395117
 10
16.9836246607
 20
0.3905810007
 10
16.9786019011
 20
0.3715790502
 10
16.9736230009
 20
0.3519826407
 10
16.9687054384
 20
0.3317887265
 10
16.9638643715
 20
0.3109907707
 10
16.9590934835
 20
0.2895301556
 10
16.9544155255
 20
0.267400575
 10
16.9498514735
 20
0.2445971111
 10
16.9454010087
 20
0.2210604399
 10
16.941091785
 20
0.196767568
 10
16.9369551963
 20
0.1717290401
 10
16.9330066295
 20
0.1459332534
 10
16.9292851489
 20
0.1193765595
 10
16.9258266745
 20
0.0920517009
 10
16.9226547941
 20
0.0639392531
 10
16.9198228032
 20
0.0350662489
 10
16.9173743166
 20
0.0053988232
 10
16.9153432053
 20
-0.0251774527
 10
16.9137954778
 20
-0.0567026995
 10
16.9128117208
 20
-0.0891375752
 10
16.9124668623
 20
-0.1224761222
  0
LINE
  5
4C2
100
AcDbEntity
  8
218140080
100
AcDbLine
 62
250
  6
CONTINUOUS
 10
-2.1867947928
 20
-7.276321
 11
0.7124598644
 21
-6.345182
  0
LWPOLYLINE
  5
4C3
100
AcDbEntity
  8
218140000
100
AcDbPolyline
 62
250
  6
CONTINUOUS
 90
43
 70
0
 10
16.028174028
 20
11.1182374088
 10
16.0519235153
 20
11.1249481858
 10
16.0760057204
 20
11.1285877631
 10
16.1004016771
 20
11.1291561408
 10
16.1251406695
 20
11.1266850385
 10
16.1501503325
 20
11.1211427365
 10
16.175258573
 20
11.1124340762
 10
16.2004860897
 20
11.100340075
 10
16.2257645146
 20
11.0850797155
 10
16.2507940198
 20
11.0672147868
 10
16.2754601261
 20
11.0467221127
 10
16.299841467
 20
11.0236248694
 10
16.3239337511
 20
10.9985543744
 10
16.3476569906
 20
10.9716256427
 10
16.3710576809
 20
10.9427236594
 10
16.3943145427
 20
10.9121346974
 10
16.4173990949
 20
10.8799247435
 10
16.4402912046
 20
10.8460278109
 10
16.4631651875
 20
10.8105322118
 10
16.4860052913
 20
10.7734364332
 10
16.5087531576
 20
10.734741988
 10
16.5314998086
 20
10.6945417276
 10
16.5541955837
 20
10.6528426341
 10
16.5767883703
 20
10.6096377254
 10
16.5993444212
 20
10.5649989067
 10
16.6217645667
 20
10.5189832625
 10
16.6440099041
 20
10.4715337083
 10
16.6662016583
 20
10.4225508956
 10
16.6882031675
 20
10.372082801
 10
16.7099427824
 20
10.320081448
 10
16.7315713081
 20
10.2663035578
 10
16.7529096586
 20
10.2107128098
 10
16.7737973455
 20
10.1533455246
 10
16.7943027557
 20
10.094067386
 10
16.8141458208
 20
10.0328022755
 10
16.8330652765
 20
9.9696263115
 10
16.8509904299
 20
9.9046335339
 10
16.8675585744
 20
9.8374478287
 10
16.8822536625
 20
9.7684453098
 10
16.894626483
 20
9.6988483584
 10
16.9041594335
 20
9.6290644351
 10
16.9102944198
 20
9.5586860793
 10
16.9124668623
 20
9.4877132911
  0
LWPOLYLINE
  5
4C4
100
AcDbEntity
  8
218140080
100
AcDbPolyline
 62
250
  6
CONTINUOUS
 90
43
 70
0
 10
16.028174028
 20
11.1182374088
 10
16.0519235153
 20
11.1249481858
 10
16.0760057204
 20
11.1285877631
 10
16.1004016771
 20
11.1291561408
 10
16.1251406695
 20
11.1266850385
 10
16.1501503325
 20
11.1211427365
 10
16.175258573
 20
11.1124340762
 10
16.2004860897
 20
11.100340075
 10
16.2257645146
 20
11.0850797155
 10
16.2507940198
 20
11.0672147868
 10
16.2754601261
 20
11.0467221127
 10
16.299841467
 20
11.0236248694
 10
16.3239337511
 20
10.9985543744
 10
16.3476569906
 20
10.9716256427
 10
16.3710576809
 20
10.9427236594
 10
16.3943145427
 20
10.9121346974
 10
16.4173990949
 20
10.8799247435
 10
16.4402912046
 20
10.8460278109
 10
16.4631651875
 20
10.8105322118
 10
16.4860052913
 20
10.7734364332
 10
16.5087531576
 20
10.734741988
 10
16.5314998086
 20
10.6945417276
 10
16.5541955837
 20
10.6528426341
 10
16.5767883703
 20
10.6096377254
 10
16.5993444212
 20
10.5649989067
 10
16.6217645667
 20
10.5189832625
 10
16.6440099041
 20
10.4715337083
 10
16.6662016583
 20
10.4225508956
 10
16.6882031675
 20
10.372082801
 10
16.7099427824
 20
10.320081448
 10
16.7315713081
 20
10.2663035578
 10
16.7529096586
 20
10.2107128098
 10
16.7737973455
 20
10.1533455246
 10
16.7943027557
 20
10.094067386
 10
16.8141458208
 20
10.0328022755
 10
16.8330652765
 20
9.9696263115
 10
16.8509904299
 20
9.9046335339
 10
16.8675585744
 20
9.8374478287
 10
16.8822536625
 20
9.7684453098
 10
16.894626483
 20
9.6988483584
 10
16.9041594335
 20
9.6290644351
 10
16.9102944198
 20
9.5586860793
 10
16.9124668623
 20
9.4877132911
  0
LWPOLYLINE
  5
4C5
100
AcDbEntity
  8
218140080
100
AcDbPolyline
 62
250
  6
CONTINUOUS
 90
56
 70
0
 10
-1.2953026942
 20
4.7815268003
 10
-1.3257952141
 20
4.7812217441
 10
-1.3562923314
 20
4.7802739289
 10
-1.386768982
 20
4.7786343845
 10
-1.417200102
 20
4.776254141
 10
-1.447560627
 20
4.7730842284
 10
-1.477825493
 20
4.7690756766
 10
-1.507969636
 20
4.7641795157
 10
-1.5342574501
 20
4.7591237208
 10
-1.5603995238
 20
4.7533271503
 10
-1.5863620185
 20
4.7467679191
 10
-1.6121110957
 20
4.7394241416
 10
-1.6376129168
 20
4.7312739325
 10
-1.6628336434
 20
4.7222954066
 10
-1.6877394368
 20
4.7124666784
 10
-1.7122964586
 20
4.7017658625
 10
-1.7364624397
 20
4.6901785604
 10
-1.7601972026
 20
4.6777028851
 10
-1.7834519499
 20
4.6643439943
 10
-1.8061778844
 20
4.6501070453
 10
-1.8283262086
 20
4.6349971955
 10
-1.8498481251
 20
4.6190196024
 10
-1.8706948366
 20
4.6021794235
 10
-1.8908175458
 20
4.5844818161
 10
-1.9101083857
 20
4.5660040886
 10
-1.928616773
 20
4.5467296097
 10
-1.9463277914
 20
4.5267080946
 10
-1.9632265251
 20
4.5059892586
 10
-1.9792980579
 20
4.4846228171
 10
-1.9945274739
 20
4.4626584852
 10
-2.0088998571
 20
4.4401459783
 10
-2.0224002914
 20
4.4171350117
 10
-2.0350741052
 20
4.3935967234
 10
-2.046952928
 20
4.3696688761
 10
-2.0581346827
 20
4.3454137162
 10
-2.0687172924
 20
4.3208934898
 10
-2.0820440329
 20
4.2878922111
 10
-2.0946150345
 20
4.2545923094
 10
-2.1065650077
 20
4.2210554833
 10
-2.1151787886
 20
4.1957574398
 10
-2.1234053754
 20
4.170334622
 10
-2.1311315248
 20
4.1447609633
 10
-2.1382439935
 20
4.1190103969
 10
-2.1446361499
 20
4.0931138777
 10
-2.150297605
 20
4.0670418425
 10
-2.1552218924
 20
4.0408209991
 10
-2.1594025457
 20
4.0144780549
 10
-2.1628666326
 20
3.987974519
 10
-2.1657270342
 20
3.9613978441
 10
-2.1681338247
 20
3.9347707495
 10
-2.1702370783
 20
3.9081159546
 10
-2.1739473269
 20
3.8548326767
 10
-2.177148613
 20
3.8015261757
 10
-2.1807923477
 20
3.7304495107
 10
-2.1838988935
 20
3.6593420228
 10
-2.186650696
 20
3.5882200575
  0
LINE
  5
4C6
100
AcDbEntity
  8
268
100
AcDbLine
 62
250
  6
CONTINUOUS
 10
-8.9981672454
 20
4.8
 11
-9.2734974262
 21
4.8
  0
LINE
  5
4C7
100
AcDbEntity
  8
268
100
AcDbLine
 62
7
  6
CONTINUOUS
 10
-8.9736103332
 20
5.0
 11
-9.2507103046
 21
5.0
  0
LINE
  5
4C8
100
AcDbEntity
  8
218140080
100
AcDbLine
 62
250
  6
CONTINUOUS
 10
0.7124668623
 20
5.171133
 11
-2.1866508366
 21
5.171133
  0
LINE
  5
4C9
100
AcDbEntity
  8
268
100
AcDbLine
 62
250
  6
CONTINUOUS
 10
-8.9490534211
 20
5.2
 11
-9.2279231829
 21
5.2
  0
LINE
  5
4CA
100
AcDbEntity
  8
218140000
100
AcDbLine
 62
7
  6
CONTINUOUS
 10
16.9124668623
 20
5.5
 11
17.1124668623
 21
5.5
  0
LINE
  5
4CB
100
AcDbEntity
  8
218140080
100
AcDbLine
 62
7
  6
CONTINUOUS
 10
16.9124668623
 20
5.5
 11
17.1124668623
 21
5.5
  0
LINE
  5
4CC
100
AcDbEntity
  8
218140080
100
AcDbLine
 62
250
  6
CONTINUOUS
 10
-2.1866508366
 20
5.793739
 11
0.2306806525
 21
5.793739
  0
LINE
  5
4CD
100
AcDbEntity
  8
218140000
100
AcDbLine
 62
250
  6
CONTINUOUS
 10
16.9077958975
 20
5.5982886363
 11
16.9083148936
 21
5.5982885643
  0
LINE
  5
4CE
100
AcDbEntity
  8
218140080
100
AcDbLine
 62
250
  6
CONTINUOUS
 10
16.9077958975
 20
5.5982886363
 11
16.9083148936
 21
5.5982885643
  0
LINE
  5
4CF
100
AcDbEntity
  8
218140000
100
AcDbLine
 62
7
  6
CONTINUOUS
 10
17.1863201394
 20
4.7760409428
 11
18.9386135851
 21
4.6227351311
  0
LINE
  5
4D0
100
AcDbEntity
  8
218140080
100
AcDbLine
 62
7
  6
CONTINUOUS
 10
17.1863201394
 20
4.7760409428
 11
18.9386135851
 21
4.6227351311
  0
LINE
  5
4D1
100
AcDbEntity
  8
218140080
100
AcDbLine
 62
7
  6
CONTINUOUS
 10
0.7124668623
 20
5.5847039974
 11
0.2306806525
 21
6.0665635966
  0
LINE
  5
4D2
100
AcDbEntity
  8
218140080
100
AcDbLine
 62
7
  6
CONTINUOUS
 10
-1.7850921129
 20
8.0826434208
 11
-2.1866508366
 21
8.4842633132
  0
LINE
  5
4D3
100
AcDbEntity
  8
218140080
100
AcDbLine
 62
7
  6
CONTINUOUS
 10
0.7124668623
 20
5.652772419
 11
0.2306806525
 21
6.1346320183
  0
LINE
  5
4D4
100
AcDbEntity
  8
218140080
100
AcDbLine
 62
7
  6
CONTINUOUS
 10
-1.6784932722
 20
8.0440967637
 11
-2.1866508366
 21
8.5523317348
  0
LINE
  5
4D5
100
AcDbEntity
  8
218140080
100
AcDbLine
 62
7
  6
CONTINUOUS
 10
0.7124668623
 20
5.7208408407
 11
0.2306806525
 21
6.20270044
  0
LINE
  5
4D6
100
AcDbEntity
  8
218140080
100
AcDbLine
 62
7
  6
CONTINUOUS
 10
-1.5718944314
 20
8.0055501067
 11
-2.1866508366
 21
8.6204001565
  0
LINE
  5
4D7
100
AcDbEntity
  8
218140080
100
AcDbLine
 62
7
  6
CONTINUOUS
 10
0.7124668623
 20
5.7889092624
 11
0.2306806525
 21
6.2707688617
  0
LINE
  5
4D8
100
AcDbEntity
  8
218140080
100
AcDbLine
 62
7
  6
CONTINUOUS
 10
-1.4652955907
 20
7.9670034496
 11
-2.1866508366
 21
8.6884685782
  0
LINE
  5
4D9
100
AcDbEntity
  8
218140080
100
AcDbLine
 62
7
  6
CONTINUOUS
 10
0.7124668623
 20
5.8569776841
 11
0.2306806525
 21
6.3388372834
  0
LINE
  5
4DA
100
AcDbEntity
  8
218140080
100
AcDbLine
 62
7
  6
CONTINUOUS
 10
-1.3586967499
 20
7.9284567926
 11
-2.1866508366
 21
8.7565369999
  0
LINE
  5
4DB
100
AcDbEntity
  8
218140080
100
AcDbLine
 62
7
  6
CONTINUOUS
 10
0.7124668623
 20
5.9250461058
 11
0.2306806525
 21
6.4069057051
  0
LINE
  5
4DC
100
AcDbEntity
  8
218140080
100
AcDbLine
 62
7
  6
CONTINUOUS
 10
-1.2520979091
 20
7.8899101355
 11
-2.1866508366
 21
8.8246054216
  0
LINE
  5
4DD
100
AcDbEntity
  8
218140080
100
AcDbLine
 62
7
  6
CONTINUOUS
 10
0.7124668623
 20
5.9931145275
 11
0.2306806525
 21
6.4749741267
  0
LINE
  5
4DE
100
AcDbEntity
  8
218140080
100
AcDbLine
 62
7
  6
CONTINUOUS
 10
-1.1454990684
 20
7.8513634784
 11
-2.1866508366
 21
8.8926738433
  0
LINE
  5
4DF
100
AcDbEntity
  8
218140080
100
AcDbLine
 62
7
  6
CONTINUOUS
 10
0.7124668623
 20
6.0611829492
 11
0.2306806525
 21
6.5430425484
  0
LINE
  5
4E0
100
AcDbEntity
  8
218140080
100
AcDbLine
 62
7
  6
CONTINUOUS
 10
-1.0389002276
 20
7.8128168214
 11
-2.1866508366
 21
8.960742265
  0
LINE
  5
4E1
100
AcDbEntity
  8
218140080
100
AcDbLine
 62
7
  6
CONTINUOUS
 10
0.7124668623
 20
6.1292513709
 11
0.2306806525
 21
6.6111109701
  0
LINE
  5
4E2
100
AcDbEntity
  8
218140080
100
AcDbLine
 62
7
  6
CONTINUOUS
 10
-0.9323013869
 20
7.7742701643
 11
-2.1407197679
 21
8.9828726214
  0
LINE
  5
4E3
100
AcDbEntity
  8
218140080
100
AcDbLine
 62
7
  6
CONTINUOUS
 10
0.7124668623
 20
6.1973197925
 11
0.2306806525
 21
6.6791793918
  0
LINE
  5
4E4
100
AcDbEntity
  8
218140080
100
AcDbLine
 62
7
  6
CONTINUOUS
 10
-0.8257025461
 20
7.7357235072
 11
-2.0902203223
 21
9.0004339049
  0
LINE
  5
4E5
100
AcDbEntity
  8
218140080
100
AcDbLine
 62
7
  6
CONTINUOUS
 10
0.7124668623
 20
6.2653882142
 11
0.2306806525
 21
6.7472478135
  0
LINE
  5
4E6
100
AcDbEntity
  8
218140080
100
AcDbLine
 62
7
  6
CONTINUOUS
 10
-0.7191037054
 20
7.6971768502
 11
-1.5878298001
 21
8.5660352763
  0
LINE
  5
4E7
100
AcDbEntity
  8
218140080
100
AcDbLine
 62
7
  6
CONTINUOUS
 10
-1.6104134245
 20
8.5886223407
 11
-2.0397208767
 21
9.0179951885
  0
LINE
  5
4E8
100
AcDbEntity
  8
218140080
100
AcDbLine
 62
7
  6
CONTINUOUS
 10
0.7124668623
 20
6.3334566359
 11
0.2306806525
 21
6.8153162352
  0
LINE
  5
4E9
100
AcDbEntity
  8
218140080
100
AcDbLine
 62
7
  6
CONTINUOUS
 10
-0.6125048646
 20
7.6586301931
 11
-1.4840407234
 21
8.5302988112
  0
LINE
  5
4EA
100
AcDbEntity
  8
218140080
100
AcDbLine
 62
7
  6
CONTINUOUS
 10
-1.5589094829
 20
8.6051789754
 11
-1.9892214311
 21
9.0355564721
  0
LINE
  5
4EB
100
AcDbEntity
  8
218140080
100
AcDbLine
 62
7
  6
CONTINUOUS
 10
0.7124668623
 20
6.4015250576
 11
0.247324774
 21
6.866738
  0
LINE
  5
4EC
100
AcDbEntity
  8
218140080
100
AcDbLine
 62
7
  6
CONTINUOUS
 10
-0.5059060238
 20
7.620083536
 11
-1.3802516466
 21
8.4945623462
  0
LINE
  5
4ED
100
AcDbEntity
  8
218140080
100
AcDbLine
 62
7
  6
CONTINUOUS
 10
-1.5074055413
 20
8.62173561
 11
-1.9387219855
 21
9.0531177557
  0
LINE
  5
4EE
100
AcDbEntity
  8
218140080
100
AcDbLine
 62
7
  6
CONTINUOUS
 10
0.7124668623
 20
6.4695934793
 11
0.3153828286
 21
6.866738
  0
LINE
  5
4EF
100
AcDbEntity
  8
218140080
100
AcDbLine
 62
7
  6
CONTINUOUS
 10
-0.3993071831
 20
7.581536879
 11
-1.2764625699
 21
8.4588258812
  0
LINE
  5
4F0
100
AcDbEntity
  8
218140080
100
AcDbLine
 62
7
  6
CONTINUOUS
 10
-1.4559015998
 20
8.6382922447
 11
-1.8882225399
 21
9.0706790393
  0
LINE
  5
4F1
100
AcDbEntity
  8
218140080
100
AcDbLine
 62
7
  6
CONTINUOUS
 10
0.7124668623
 20
6.537661901
 11
0.3834408831
 21
6.866738
  0
LINE
  5
4F2
100
AcDbEntity
  8
218140080
100
AcDbLine
 62
7
  6
CONTINUOUS
 10
-0.2927083423
 20
7.5429902219
 11
-1.1726734932
 21
8.4230894162
  0
LINE
  5
4F3
100
AcDbEntity
  8
218140080
100
AcDbLine
 62
7
  6
CONTINUOUS
 10
-1.4043976582
 20
8.6548488793
 11
-1.8377230942
 21
9.0882403229
  0
LINE
  5
4F4
100
AcDbEntity
  8
218140080
100
AcDbLine
 62
7
  6
CONTINUOUS
 10
0.7124668623
 20
6.6057303227
 11
0.4514989376
 21
6.866738
  0
LINE
  5
4F5
100
AcDbEntity
  8
218140080
100
AcDbLine
 62
7
  6
CONTINUOUS
 10
-0.1861095016
 20
7.5044435649
 11
-1.0688844165
 21
8.3873529511
  0
LINE
  5
4F6
100
AcDbEntity
  8
218140080
100
AcDbLine
 62
7
  6
CONTINUOUS
 10
-1.3528937167
 20
8.6714055139
 11
-1.7872236486
 21
9.1058016065
  0
LINE
  5
4F7
100
AcDbEntity
  8
218140080
100
AcDbLine
 62
7
  6
CONTINUOUS
 10
0.7124668623
 20
6.6737987443
 11
0.5195569922
 21
6.866738
  0
LINE
  5
4F8
100
AcDbEntity
  8
218140080
100
AcDbLine
 62
7
  6
CONTINUOUS
 10
-0.0795106608
 20
7.4658969078
 11
-0.9650953397
 21
8.3516164861
  0
LINE
  5
4F9
100
AcDbEntity
  8
218140080
100
AcDbLine
 62
7
  6
CONTINUOUS
 10
-1.3013897751
 20
8.6879621486
 11
-1.736724203
 21
9.1233628901
  0
LINE
  5
4FA
100
AcDbEntity
  8
218140080
100
AcDbLine
 62
7
  6
CONTINUOUS
 10
0.7124668623
 20
6.741867166
 11
0.5876150467
 21
6.866738
  0
LINE
  5
4FB
100
AcDbEntity
  8
218140080
100
AcDbLine
 62
7
  6
CONTINUOUS
 10
0.0270881799
 20
7.4273502507
 11
-0.861306263
 21
8.3158800211
  0
LINE
  5
4FC
100
AcDbEntity
  8
218140080
100
AcDbLine
 62
7
  6
CONTINUOUS
 10
-1.2498858336
 20
8.7045187832
 11
-1.6862247574
 21
9.1409241737
  0
LINE
  5
4FD
100
AcDbEntity
  8
218140080
100
AcDbLine
 62
7
  6
CONTINUOUS
 10
0.7124668623
 20
6.8099355877
 11
0.6556731012
 21
6.866738
  0
LINE
  5
4FE
100
AcDbEntity
  8
218140080
100
AcDbLine
 62
7
  6
CONTINUOUS
 10
0.1336870207
 20
7.3888035937
 11
-0.7575171863
 21
8.2801435561
  0
LINE
  5
4FF
100
AcDbEntity
  8
218140080
100
AcDbLine
 62
7
  6
CONTINUOUS
 10
-1.198381892
 20
8.7210754178
 11
-1.6357253118
 21
9.1584854573
  0
LINE
  5
500
100
AcDbEntity
  8
218140080
100
AcDbLine
 62
7
  6
CONTINUOUS
 10
0.2402858615
 20
7.3502569366
 11
-0.6537281096
 21
8.244407091
  0
LINE
  5
501
100
AcDbEntity
  8
218140080
100
AcDbLine
 62
7
  6
CONTINUOUS
 10
-1.1468779505
 20
8.7376320525
 11
-1.5852258662
 21
9.1760467409
  0
LINE
  5
502
100
AcDbEntity
  8
218140080
100
AcDbLine
 62
7
  6
CONTINUOUS
 10
0.3468847022
 20
7.3117102795
 11
-0.5499390328
 21
8.208670626
  0
LINE
  5
503
100
AcDbEntity
  8
218140080
100
AcDbLine
 62
7
  6
CONTINUOUS
 10
-1.0953740089
 20
8.7541886871
 11
-1.5347264206
 21
9.1936080245
  0
LINE
  5
504
100
AcDbEntity
  8
218140080
100
AcDbLine
 62
7
  6
CONTINUOUS
 10
0.453483543
 20
7.2731636225
 11
-0.4461499561
 21
8.172934161
  0
LINE
  5
505
100
AcDbEntity
  8
218140080
100
AcDbLine
 62
7
  6
CONTINUOUS
 10
-1.0438700674
 20
8.7707453217
 11
-1.484226975
 21
9.2111693081
  0
LINE
  5
506
100
AcDbEntity
  8
218140080
100
AcDbLine
 62
7
  6
CONTINUOUS
 10
0.5600823837
 20
7.2346169654
 11
-0.3837711367
 21
8.1786142612
  0
LINE
  5
507
100
AcDbEntity
  8
218140080
100
AcDbLine
 62
7
  6
CONTINUOUS
 10
-0.9923661258
 20
8.7873019564
 11
-1.4337275294
 21
9.2287305917
  0
LINE
  5
508
100
AcDbEntity
  8
218140080
100
AcDbLine
 62
7
  6
CONTINUOUS
 10
0.6666812245
 20
7.1960703084
 11
-0.3837711367
 21
8.2466826829
  0
LINE
  5
509
100
AcDbEntity
  8
218140080
100
AcDbLine
 62
7
  6
CONTINUOUS
 10
-0.9408621842
 20
8.803858591
 11
-1.3832280837
 21
9.2462918753
  0
LINE
  5
50A
100
AcDbEntity
  8
218140080
100
AcDbLine
 62
7
  6
CONTINUOUS
 10
0.7124668623
 20
7.2183461178
 11
-0.3837711367
 21
8.3147511046
  0
LINE
  5
50B
100
AcDbEntity
  8
218140080
100
AcDbLine
 62
7
  6
CONTINUOUS
 10
-0.8893582427
 20
8.8204152257
 11
-1.3327286381
 21
9.2638531588
  0
LINE
  5
50C
100
AcDbEntity
  8
218140080
100
AcDbLine
 62
7
  6
CONTINUOUS
 10
0.7124668623
 20
7.2864145395
 11
-0.3837711367
 21
8.3828195263
  0
LINE
  5
50D
100
AcDbEntity
  8
218140080
100
AcDbLine
 62
7
  6
CONTINUOUS
 10
-0.8378543011
 20
8.8369718603
 11
-1.2822291925
 21
9.2814144424
  0
LINE
  5
50E
100
AcDbEntity
  8
218140080
100
AcDbLine
 62
7
  6
CONTINUOUS
 10
0.7124668623
 20
7.3544829612
 11
-0.3837711367
 21
8.450887948
  0
LINE
  5
50F
100
AcDbEntity
  8
218140080
100
AcDbLine
 62
7
  6
CONTINUOUS
 10
-0.7863503596
 20
8.8535284949
 11
-1.2317297469
 21
9.298975726
  0
LINE
  5
510
100
AcDbEntity
  8
218140080
100
AcDbLine
 62
7
  6
CONTINUOUS
 10
0.7124668623
 20
7.4225513829
 11
0.1695261286
 21
7.9655748217
  0
LINE
  5
511
100
AcDbEntity
  8
218140080
100
AcDbLine
 62
7
  6
CONTINUOUS
 10
0.098015073
 20
8.0370967704
 11
-0.3837711367
 21
8.5189563697
  0
LINE
  5
512
100
AcDbEntity
  8
218140080
100
AcDbLine
 62
7
  6
CONTINUOUS
 10
-0.734846418
 20
8.8700851296
 11
-1.1812303013
 21
9.3165370096
  0
LINE
  5
513
100
AcDbEntity
  8
218140080
100
AcDbLine
 62
7
  6
CONTINUOUS
 10
-2.1568696744
 20
10.292325
 11
-2.1866508366
 21
10.3221106987
  0
LINE
  5
514
100
AcDbEntity
  8
218140080
100
AcDbLine
 62
7
  6
CONTINUOUS
 10
0.7124668623
 20
7.4906198046
 11
0.2746934362
 21
7.9284599158
  0
LINE
  5
515
100
AcDbEntity
  8
218140080
100
AcDbLine
 62
7
  6
CONTINUOUS
 10
0.098015073
 20
8.1051651921
 11
-0.3837711367
 21
8.5870247914
  0
LINE
  5
516
100
AcDbEntity
  8
218140080
100
AcDbLine
 62
7
  6
CONTINUOUS
 10
-0.6833424765
 20
8.8866417642
 11
-1.1307308557
 21
9.3340982932
  0
LINE
  5
517
100
AcDbEntity
  8
218140080
100
AcDbLine
 62
7
  6
CONTINUOUS
 10
-2.0888116199
 20
10.292325
 11
-2.1866508366
 21
10.3901791204
  0
LINE
  5
518
100
AcDbEntity
  8
218140080
100
AcDbLine
 62
7
  6
CONTINUOUS
 10
0.7124668623
 20
7.5586882263
 11
0.3798607438
 21
7.8913450099
  0
LINE
  5
519
100
AcDbEntity
  8
218140080
100
AcDbLine
 62
7
  6
CONTINUOUS
 10
0.098015073
 20
8.1732336138
 11
-0.3837711367
 21
8.655093213
  0
LINE
  5
51A
100
AcDbEntity
  8
218140080
100
AcDbLine
 62
7
  6
CONTINUOUS
 10
-0.6318385349
 20
8.9031983988
 11
-1.0802314101
 21
9.3516595768
  0
LINE
  5
51B
100
AcDbEntity
  8
218140080
100
AcDbLine
 62
7
  6
CONTINUOUS
 10
-2.0207535654
 20
10.292325
 11
-2.1866508366
 21
10.4582475421
  0
LINE
  5
51C
100
AcDbEntity
  8
218140080
100
AcDbLine
 62
7
  6
CONTINUOUS
 10
0.7124668623
 20
7.626756648
 11
0.4850280515
 21
7.854230104
  0
LINE
  5
51D
100
AcDbEntity
  8
218140080
100
AcDbLine
 62
7
  6
CONTINUOUS
 10
0.098015073
 20
8.2413020355
 11
-0.3837711367
 21
8.7231616347
  0
LINE
  5
51E
100
AcDbEntity
  8
218140080
100
AcDbLine
 62
7
  6
CONTINUOUS
 10
-0.5803345934
 20
8.9197550335
 11
-1.0297319645
 21
9.3692208604
  0
LINE
  5
51F
100
AcDbEntity
  8
218140080
100
AcDbLine
 62
7
  6
CONTINUOUS
 10
-1.9526955108
 20
10.292325
 11
-2.1866508366
 21
10.5263159638
  0
LINE
  5
520
100
AcDbEntity
  8
218140080
100
AcDbLine
 62
7
  6
CONTINUOUS
 10
0.7124668623
 20
7.6948250696
 11
0.5901953591
 21
7.8171151981
  0
LINE
  5
521
100
AcDbEntity
  8
218140080
100
AcDbLine
 62
7
  6
CONTINUOUS
 10
0.098015073
 20
8.3093704571
 11
-0.3837711367
 21
8.7912300564
  0
LINE
  5
522
100
AcDbEntity
  8
218140080
100
AcDbLine
 62
7
  6
CONTINUOUS
 10
-0.5288306518
 20
8.9363116681
 11
-0.9792325188
 21
9.386782144
  0
LINE
  5
523
100
AcDbEntity
  8
218140080
100
AcDbLine
 62
7
  6
CONTINUOUS
 10
-1.8846374563
 20
10.292325
 11
-2.1866508366
 21
10.5943843854
  0
LINE
  5
524
100
AcDbEntity
  8
218140080
100
AcDbLine
 62
7
  6
CONTINUOUS
 10
0.7124668623
 20
7.7628934913
 11
0.6953626668
 21
7.7800002923
  0
LINE
  5
525
100
AcDbEntity
  8
218140080
100
AcDbLine
 62
7
  6
CONTINUOUS
 10
0.098015073
 20
8.3774388788
 11
-0.3837711367
 21
8.8592984781
  0
LINE
  5
526
100
AcDbEntity
  8
218140080
100
AcDbLine
 62
7
  6
CONTINUOUS
 10
-0.4773267103
 20
8.9528683028
 11
-0.9287330732
 21
9.4043434276
  0
LINE
  5
527
100
AcDbEntity
  8
218140080
100
AcDbLine
 62
7
  6
CONTINUOUS
 10
-1.8165794018
 20
10.292325
 11
-2.1866508366
 21
10.6624528071
  0
LINE
  5
528
100
AcDbEntity
  8
218140080
100
AcDbLine
 62
7
  6
CONTINUOUS
 10
0.098015073
 20
8.4455073005
 11
-0.3837711367
 21
8.9273668998
  0
LINE
  5
529
100
AcDbEntity
  8
218140080
100
AcDbLine
 62
7
  6
CONTINUOUS
 10
-0.4258227687
 20
8.9694249374
 11
-0.8782336276
 21
9.4219047112
  0
LINE
  5
52A
100
AcDbEntity
  8
218140080
100
AcDbLine
 62
7
  6
CONTINUOUS
 10
-1.7485213472
 20
10.292325
 11
-2.1866508366
 21
10.7305212288
  0
LINE
  5
52B
100
AcDbEntity
  8
218140080
100
AcDbLine
 62
7
  6
CONTINUOUS
 10
0.098015073
 20
8.5135757222
 11
-0.827734182
 21
9.4394659948
  0
LINE
  5
52C
100
AcDbEntity
  8
218140080
100
AcDbLine
 62
7
  6
CONTINUOUS
 10
-1.6804632927
 20
10.292325
 11
-2.1866508366
 21
10.7985896505
  0
LINE
  5
52D
100
AcDbEntity
  8
218140080
100
AcDbLine
 62
7
  6
CONTINUOUS
 10
0.098015073
 20
8.5816441439
 11
-0.7772347364
 21
9.4570272784
  0
LINE
  5
52E
100
AcDbEntity
  8
218140080
100
AcDbLine
 62
7
  6
CONTINUOUS
 10
-1.6124052381
 20
10.292325
 11
-2.1866508366
 21
10.8666580722
  0
LINE
  5
52F
100
AcDbEntity
  8
218140080
100
AcDbLine
 62
7
  6
CONTINUOUS
 10
0.098015073
 20
8.6497125656
 11
-0.7267352908
 21
9.474588562
  0
LINE
  5
530
100
AcDbEntity
  8
218140080
100
AcDbLine
 62
7
  6
CONTINUOUS
 10
-1.5443471836
 20
10.292325
 11
-2.1866508366
 21
10.9347264939
  0
LINE
  5
531
100
AcDbEntity
  8
218140080
100
AcDbLine
 62
7
  6
CONTINUOUS
 10
0.098015073
 20
8.7177809873
 11
-0.6762358452
 21
9.4921498456
  0
LINE
  5
532
100
AcDbEntity
  8
218140080
100
AcDbLine
 62
7
  6
CONTINUOUS
 10
-1.4762891291
 20
10.292325
 11
-2.1866508366
 21
11.0027949156
  0
LINE
  5
533
100
AcDbEntity
  8
218140080
100
AcDbLine
 62
7
  6
CONTINUOUS
 10
0.098015073
 20
8.7858494089
 11
-0.6257363996
 21
9.5097111291
  0
LINE
  5
534
100
AcDbEntity
  8
218140080
100
AcDbLine
 62
7
  6
CONTINUOUS
 10
-1.4082310745
 20
10.292325
 11
-2.1866508366
 21
11.0708633372
  0
LINE
  5
535
100
AcDbEntity
  8
218140080
100
AcDbLine
 62
7
  6
CONTINUOUS
 10
0.098015073
 20
8.8539178306
 11
-0.575236954
 21
9.5272724127
  0
LINE
  5
536
100
AcDbEntity
  8
218140080
100
AcDbLine
 62
7
  6
CONTINUOUS
 10
-1.34017302
 20
10.292325
 11
-2.1866508366
 21
11.1389317589
  0
LINE
  5
537
100
AcDbEntity
  8
218140080
100
AcDbLine
 62
7
  6
CONTINUOUS
 10
0.098015073
 20
8.9219862523
 11
-0.5247375083
 21
9.5448336963
  0
LINE
  5
538
100
AcDbEntity
  8
218140080
100
AcDbLine
 62
7
  6
CONTINUOUS
 10
-1.2721149655
 20
10.292325
 11
-2.1866508366
 21
11.2070001806
  0
LINE
  5
539
100
AcDbEntity
  8
218140080
100
AcDbLine
 62
7
  6
CONTINUOUS
 10
0.098015073
 20
8.990054674
 11
-0.4742380627
 21
9.5623949799
  0
LINE
  5
53A
100
AcDbEntity
  8
218140080
100
AcDbLine
 62
7
  6
CONTINUOUS
 10
-1.2040569109
 20
10.292325
 11
-2.1469526988
 21
11.2353644174
  0
LINE
  5
53B
100
AcDbEntity
  8
218140080
100
AcDbLine
 62
7
  6
CONTINUOUS
 10
0.098015073
 20
9.0581230957
 11
-0.4237386171
 21
9.5799562635
  0
LINE
  5
53C
100
AcDbEntity
  8
218140080
100
AcDbLine
 62
7
  6
CONTINUOUS
 10
-1.1359988564
 20
10.292325
 11
-2.1010981626
 21
11.2575713179
  0
LWPOLYLINE
  5
53D
100
AcDbEntity
  8
218140000
100
AcDbPolyline
 62
250
  6
CONTINUOUS
 90
7
 70
0
 10
16.9083148936
 20
-11.6992440817
 10
16.9106707528
 20
-11.7023272115
 10
16.9291423731
 20
-11.7244220824
 10
16.9485397221
 20
-11.7464731915
 10
16.9687310498
 20
-11.7685827174
 10
16.9898481061
 20
-11.7906484815
 10
17.0118908911
 20
-11.8126704839
  0
LWPOLYLINE
  5
53E
100
AcDbEntity
  8
218140080
100
AcDbPolyline
 62
250
  6
CONTINUOUS
 90
7
 70
0
 10
16.9083148936
 20
-11.6992440817
 10
16.9106707528
 20
-11.7023272115
 10
16.9291423731
 20
-11.7244220824
 10
16.9485397221
 20
-11.7464731915
 10
16.9687310498
 20
-11.7685827174
 10
16.9898481061
 20
-11.7906484815
 10
17.0118908911
 20
-11.8126704839
  0
LWPOLYLINE
  5
53F
100
AcDbEntity
  8
0
100
AcDbPolyline
 62
7
  6
CONTINUOUS
 90
2
 70
0
 43
0.3500000006
 10
8.2124668179
 20
33.217806427
 10
8.2124668179
 20
34.7178068848
  0
LINE
  5
540
100
AcDbEntity
  8
218140080
100
AcDbLine
 62
250
  6
CONTINUOUS
 10
-0.4085565851
 20
-7.285246
 11
-1.2838289078
 21
-7.56635
  0
LINE
  5
541
100
AcDbEntity
  8
218140080
100
AcDbLine
 62
250
  6
CONTINUOUS
 10
0.7124518668
 20
-6.925211
 11
0.142297581
 21
-7.108317
  0
LWPOLYLINE
  5
542
100
AcDbEntity
  8
218140000
100
AcDbPolyline
 62
7
  6
CONTINUOUS
 90
76
 70
0
 10
16.1831320588
 20
11.2028950204
 10
16.2723902985
 20
11.2254230122
 10
16.3591965763
 20
11.247829144
 10
16.4435508923
 20
11.2701134158
 10
16.5253967764
 20
11.2922635442
 10
16.6047906986
 20
11.3142918126
 10
16.6819020687
 20
11.336235071
 10
16.756740733
 20
11.358092629
 10
16.8292968453
 20
11.3798651769
 10
16.899710277
 20
11.4015916369
 10
16.9679880285
 20
11.4232697142
 10
17.0341230995
 20
11.4449017036
 10
17.09823436
 20
11.4665334103
 10
17.16033009
 20
11.4881614482
 10
17.2204020094
 20
11.5097892036
 10
17.2785441481
 20
11.5314726408
 10
17.3347672837
 20
11.5532067302
 10
17.3890606384
 20
11.5749965015
 10
17.4414859097
 20
11.5969130085
 10
17.4920585004
 20
11.6189486026
 10
17.5407630076
 20
11.6411109324
 10
17.5876149193
 20
11.6634939972
 10
17.6326403811
 20
11.6860871682
 10
17.6758132475
 20
11.7089010741
 10
17.7170705698
 20
11.7320616006
 10
17.7564566108
 20
11.7555533475
 10
17.7939271077
 20
11.779391715
 10
17.829286324
 20
11.8037487887
 10
17.862633542
 20
11.8286355275
 10
17.8938694795
 20
11.8540409725
 10
17.9225005532
 20
11.8801043331
 10
17.9486363617
 20
11.9069152612
 10
17.9721673064
 20
11.9343841049
 10
17.9922710076
 20
11.9623811173
 10
18.0088801632
 20
11.9909497184
 10
18.0220620754
 20
12.0200464882
 10
18.0311962711
 20
12.0494114199
 10
18.0361255057
 20
12.0790632164
 10
18.0370070237
 20
12.1089831747
 10
18.0336920866
 20
12.1388551798
 10
18.0259425126
 20
12.1687345934
 10
18.0139964834
 20
12.1985660538
 10
17.9984198045
 20
12.2278673598
 10
17.9791027802
 20
12.2565351293
 10
17.9561551061
 20
12.2846727445
 10
17.9304716748
 20
12.3121081509
 10
17.9021678654
 20
12.3387351299
 10
17.8711282987
 20
12.3646599002
 10
17.8379017305
 20
12.3900290628
 10
17.8025951061
 20
12.4148310199
 10
17.7651014802
 20
12.4390773693
 10
17.725648772
 20
12.4629495061
 10
17.6842878245
 20
12.4864628193
 10
17.6409677948
 20
12.5096019199
 10
17.5957640734
 20
12.5325020355
 10
17.5487045566
 20
12.5551751133
 10
17.4997613482
 20
12.5776092061
 10
17.4489261508
 20
12.5999036995
 10
17.3962165524
 20
12.6220664864
 10
17.341614965
 20
12.6440896739
 10
17.2850603263
 20
12.6660489692
 10
17.2265606272
 20
12.6879509695
 10
17.1661078767
 20
12.7097890776
 10
17.1036170395
 20
12.7316192085
 10
17.0390940712
 20
12.7534454917
 10
16.9725330162
 20
12.7752637976
 10
16.9038309723
 20
12.7971176526
 10
16.83300321
 20
12.8190069651
 10
16.7600344588
 20
12.8409318265
 10
16.6847760042
 20
12.8629360374
 10
16.6072377689
 20
12.8850212997
 10
16.5274098302
 20
12.9071859114
 10
16.4451137066
 20
12.9294685671
 10
16.3602899042
 20
12.9518821651
 10
16.2729979168
 20
12.9744138071
 10
16.1832377445
 20
12.9970634931
  0
LWPOLYLINE
  5
543
100
AcDbEntity
  8
218140080
100
AcDbPolyline
 62
7
  6
CONTINUOUS
 90
76
 70
0
 10
16.1831320588
 20
11.2028950204
 10
16.2723902985
 20
11.2254230122
 10
16.3591965763
 20
11.247829144
 10
16.4435508923
 20
11.2701134158
 10
16.5253967764
 20
11.2922635442
 10
16.6047906986
 20
11.3142918126
 10
16.6819020687
 20
11.336235071
 10
16.756740733
 20
11.358092629
 10
16.8292968453
 20
11.3798651769
 10
16.899710277
 20
11.4015916369
 10
16.9679880285
 20
11.4232697142
 10
17.0341230995
 20
11.4449017036
 10
17.09823436
 20
11.4665334103
 10
17.16033009
 20
11.4881614482
 10
17.2204020094
 20
11.5097892036
 10
17.2785441481
 20
11.5314726408
 10
17.3347672837
 20
11.5532067302
 10
17.3890606384
 20
11.5749965015
 10
17.4414859097
 20
11.5969130085
 10
17.4920585004
 20
11.6189486026
 10
17.5407630076
 20
11.6411109324
 10
17.5876149193
 20
11.6634939972
 10
17.6326403811
 20
11.6860871682
 10
17.6758132475
 20
11.7089010741
 10
17.7170705698
 20
11.7320616006
 10
17.7564566108
 20
11.7555533475
 10
17.7939271077
 20
11.779391715
 10
17.829286324
 20
11.8037487887
 10
17.862633542
 20
11.8286355275
 10
17.8938694795
 20
11.8540409725
 10
17.9225005532
 20
11.8801043331
 10
17.9486363617
 20
11.9069152612
 10
17.9721673064
 20
11.9343841049
 10
17.9922710076
 20
11.9623811173
 10
18.0088801632
 20
11.9909497184
 10
18.0220620754
 20
12.0200464882
 10
18.0311962711
 20
12.0494114199
 10
18.0361255057
 20
12.0790632164
 10
18.0370070237
 20
12.1089831747
 10
18.0336920866
 20
12.1388551798
 10
18.0259425126
 20
12.1687345934
 10
18.0139964834
 20
12.1985660538
 10
17.9984198045
 20
12.2278673598
 10
17.9791027802
 20
12.2565351293
 10
17.9561551061
 20
12.2846727445
 10
17.9304716748
 20
12.3121081509
 10
17.9021678654
 20
12.3387351299
 10
17.8711282987
 20
12.3646599002
 10
17.8379017305
 20
12.3900290628
 10
17.8025951061
 20
12.4148310199
 10
17.7651014802
 20
12.4390773693
 10
17.725648772
 20
12.4629495061
 10
17.6842878245
 20
12.4864628193
 10
17.6409677948
 20
12.5096019199
 10
17.5957640734
 20
12.5325020355
 10
17.5487045566
 20
12.5551751133
 10
17.4997613482
 20
12.5776092061
 10
17.4489261508
 20
12.5999036995
 10
17.3962165524
 20
12.6220664864
 10
17.341614965
 20
12.6440896739
 10
17.2850603263
 20
12.6660489692
 10
17.2265606272
 20
12.6879509695
 10
17.1661078767
 20
12.7097890776
 10
17.1036170395
 20
12.7316192085
 10
17.0390940712
 20
12.7534454917
 10
16.9725330162
 20
12.7752637976
 10
16.9038309723
 20
12.7971176526
 10
16.83300321
 20
12.8190069651
 10
16.7600344588
 20
12.8409318265
 10
16.6847760042
 20
12.8629360374
 10
16.6072377689
 20
12.8850212997
 10
16.5274098302
 20
12.9071859114
 10
16.4451137066
 20
12.9294685671
 10
16.3602899042
 20
12.9518821651
 10
16.2729979168
 20
12.9744138071
 10
16.1832377445
 20
12.9970634931
  0
LINE
  5
544
100
AcDbEntity
  8
218140000
100
AcDbLine
 62
7
  6
CONTINUOUS
 10
17.1863201394
 20
9.0239590572
 11
18.9386135851
 21
9.1772648689
  0
LINE
  5
545
100
AcDbEntity
  8
218140080
100
AcDbLine
 62
7
  6
CONTINUOUS
 10
17.1863201394
 20
9.0239590572
 11
18.9386135851
 21
9.1772648689
  0
LINE
  5
546
100
AcDbEntity
  8
218140080
100
AcDbLine
 62
250
  6
CONTINUOUS
 10
0.2306806525
 20
6.866738
 11
0.7124668623
 21
6.866738
  0
LINE
  5
547
100
AcDbEntity
  8
218140000
100
AcDbLine
 62
7
  6
CONTINUOUS
 10
16.9124668623
 20
7.1574468091
 11
17.1124668623
 21
7.1574468091
  0
LINE
  5
548
100
AcDbEntity
  8
218140080
100
AcDbLine
 62
7
  6
CONTINUOUS
 10
16.9124668623
 20
7.1574468091
 11
17.1124668623
 21
7.1574468091
  0
LINE
  5
549
100
AcDbEntity
  8
218140000
100
AcDbLine
 62
7
  6
CONTINUOUS
 10
16.9124668623
 20
7.4
 11
17.1124668623
 21
7.4
  0
LINE
  5
54A
100
AcDbEntity
  8
218140080
100
AcDbLine
 62
7
  6
CONTINUOUS
 10
16.9124668623
 20
7.4
 11
17.1124668623
 21
7.4
  0
LWPOLYLINE
  5
54B
100
AcDbEntity
  8
218140000
100
AcDbPolyline
 62
250
  6
CONTINUOUS
 90
73
 70
0
 10
17.1781805206
 20
2.5958244913
 10
17.2640451781
 20
2.572137859
 10
17.3473085922
 20
2.5486162404
 10
17.4279707629
 20
2.5252596354
 10
17.5059539967
 20
2.502084921
 10
17.5813359871
 20
2.4790752202
 10
17.6543498144
 20
2.4561799021
 10
17.7249997678
 20
2.433403591
 10
17.793281558
 20
2.4107416626
 10
17.8594153978
 20
2.3881296122
 10
17.9234111831
 20
2.3655724591
 10
17.9852590181
 20
2.3430651841
 10
18.0451494278
 20
2.3205282246
 10
18.1031083296
 20
2.2979626536
 10
18.1591098062
 20
2.2753673982
 10
18.2132666311
 20
2.2526596771
 10
18.2655868521
 20
2.2298524984
 10
18.3160624214
 20
2.2069328539
 10
18.3647819699
 20
2.1837789386
 10
18.4117754395
 20
2.1604043457
 10
18.4570128882
 20
2.136795482
 10
18.5004931208
 20
2.1127897621
 10
18.5423032934
 20
2.0883747619
 10
18.5823562498
 20
2.0635629057
 10
18.6203893265
 20
2.0382288806
 10
18.6564493977
 20
2.0123990139
 10
18.6904895892
 20
1.9860469783
 10
18.7221066147
 20
1.9589684798
 10
18.7514500787
 20
1.931071942
 10
18.7783703767
 20
1.9024489413
 10
18.8020154092
 20
1.8731699117
 10
18.822352593
 20
1.8430074491
 10
18.8394145113
 20
1.8121889577
 10
18.8524468138
 20
1.7814670841
 10
18.86119633
 20
1.751169935
 10
18.8659162305
 20
1.7209694038
 10
18.8666116764
 20
1.6906338167
 10
18.8632779109
 20
1.6600191721
 10
18.855919691
 20
1.6292694718
 10
18.8445564482
 20
1.5985850475
 10
18.8289252061
 20
1.5678361853
 10
18.8092889413
 20
1.5371525992
 10
18.7864560152
 20
1.5071237626
 10
18.7604299453
 20
1.4779356346
 10
18.7312072142
 20
1.4494022562
 10
18.6995856306
 20
1.4215552227
 10
18.6656942768
 20
1.3944615517
 10
18.6294040704
 20
1.3680542258
 10
18.5911255741
 20
1.3421637878
 10
18.5508839229
 20
1.3167621228
 10
18.5086539818
 20
1.2918773459
 10
18.4647709078
 20
1.267424345
 10
18.4192625038
 20
1.2433966941
 10
18.372100967
 20
1.2198008193
 10
18.323538046
 20
1.1965708871
 10
18.2736120825
 20
1.1737093885
 10
18.2222847348
 20
1.1512138325
 10
18.1696927258
 20
1.1290109125
 10
18.1160300978
 20
1.1071564148
 10
18.0611028085
 20
1.085594553
 10
18.0044654539
 20
1.0640846622
 10
17.945998828
 20
1.04256318
 10
17.8858221369
 20
1.0210936686
 10
17.8238475944
 20
0.9996261498
 10
17.7600895922
 20
0.9781601247
 10
17.6945337386
 20
0.956696092
 10
17.6270490732
 20
0.9351855702
 10
17.5577102236
 20
0.9136447579
 10
17.4864425621
 20
0.8920574565
 10
17.4128912455
 20
0.8703265887
 10
17.3369379924
 20
0.8484197952
 10
17.2587010842
 20
0.8263694352
 10
17.1781805206
 20
0.8041755087
  0
LWPOLYLINE
  5
54C
100
AcDbEntity
  8
218140080
100
AcDbPolyline
 62
250
  6
CONTINUOUS
 90
73
 70
0
 10
17.1781805206
 20
2.5958244913
 10
17.2640451781
 20
2.572137859
 10
17.3473085922
 20
2.5486162404
 10
17.4279707629
 20
2.5252596354
 10
17.5059539967
 20
2.502084921
 10
17.5813359871
 20
2.4790752202
 10
17.6543498144
 20
2.4561799021
 10
17.7249997678
 20
2.433403591
 10
17.793281558
 20
2.4107416626
 10
17.8594153978
 20
2.3881296122
 10
17.9234111831
 20
2.3655724591
 10
17.9852590181
 20
2.3430651841
 10
18.0451494278
 20
2.3205282246
 10
18.1031083296
 20
2.2979626536
 10
18.1591098062
 20
2.2753673982
 10
18.2132666311
 20
2.2526596771
 10
18.2655868521
 20
2.2298524984
 10
18.3160624214
 20
2.2069328539
 10
18.3647819699
 20
2.1837789386
 10
18.4117754395
 20
2.1604043457
 10
18.4570128882
 20
2.136795482
 10
18.5004931208
 20
2.1127897621
 10
18.5423032934
 20
2.0883747619
 10
18.5823562498
 20
2.0635629057
 10
18.6203893265
 20
2.0382288806
 10
18.6564493977
 20
2.0123990139
 10
18.6904895892
 20
1.9860469783
 10
18.7221066147
 20
1.9589684798
 10
18.7514500787
 20
1.931071942
 10
18.7783703767
 20
1.9024489413
 10
18.8020154092
 20
1.8731699117
 10
18.822352593
 20
1.8430074491
 10
18.8394145113
 20
1.8121889577
 10
18.8524468138
 20
1.7814670841
 10
18.86119633
 20
1.751169935
 10
18.8659162305
 20
1.7209694038
 10
18.8666116764
 20
1.6906338167
 10
18.8632779109
 20
1.6600191721
 10
18.855919691
 20
1.6292694718
 10
18.8445564482
 20
1.5985850475
 10
18.8289252061
 20
1.5678361853
 10
18.8092889413
 20
1.5371525992
 10
18.7864560152
 20
1.5071237626
 10
18.7604299453
 20
1.4779356346
 10
18.7312072142
 20
1.4494022562
 10
18.6995856306
 20
1.4215552227
 10
18.6656942768
 20
1.3944615517
 10
18.6294040704
 20
1.3680542258
 10
18.5911255741
 20
1.3421637878
 10
18.5508839229
 20
1.3167621228
 10
18.5086539818
 20
1.2918773459
 10
18.4647709078
 20
1.267424345
 10
18.4192625038
 20
1.2433966941
 10
18.372100967
 20
1.2198008193
 10
18.323538046
 20
1.1965708871
 10
18.2736120825
 20
1.1737093885
 10
18.2222847348
 20
1.1512138325
 10
18.1696927258
 20
1.1290109125
 10
18.1160300978
 20
1.1071564148
 10
18.0611028085
 20
1.085594553
 10
18.0044654539
 20
1.0640846622
 10
17.945998828
 20
1.04256318
 10
17.8858221369
 20
1.0210936686
 10
17.8238475944
 20
0.9996261498
 10
17.7600895922
 20
0.9781601247
 10
17.6945337386
 20
0.956696092
 10
17.6270490732
 20
0.9351855702
 10
17.5577102236
 20
0.9136447579
 10
17.4864425621
 20
0.8920574565
 10
17.4128912455
 20
0.8703265887
 10
17.3369379924
 20
0.8484197952
 10
17.2587010842
 20
0.8263694352
 10
17.1781805206
 20
0.8041755087
  0
LWPOLYLINE
  5
54D
100
AcDbEntity
  8
218140000
100
AcDbPolyline
 62
250
  6
CONTINUOUS
 90
73
 70
0
 10
17.1863201394
 20
2.6258073286
 10
17.272183872
 20
2.6013961657
 10
17.3554466146
 20
2.5771566844
 10
17.4361083671
 20
2.5530855632
 10
17.5140915202
 20
2.5291935035
 10
17.5894736833
 20
2.5054629728
 10
17.6624876847
 20
2.4818487058
 10
17.7331377289
 20
2.4583530678
 10
17.8014196114
 20
2.4349677055
 10
17.8675535473
 20
2.4116321177
 10
17.9315494356
 20
2.3883493845
 10
17.9933973774
 20
2.365111163
 10
18.0532878906
 20
2.3418405946
 10
18.1112468858
 20
2.3185368968
 10
18.1672484523
 20
2.2951962497
 10
18.2214053761
 20
2.2717378259
 10
18.2737257058
 20
2.2481732431
 10
18.3242013927
 20
2.2244866324
 10
18.3729210767
 20
2.2005563494
 10
18.4199147093
 20
2.1763946737
 10
18.4651523389
 20
2.151985447
 10
18.5086327511
 20
2.1271645797
 10
18.5504430976
 20
2.1019170794
 10
18.5904962265
 20
2.0762542041
 10
18.6285294678
 20
2.0500507045
 10
18.6645896776
 20
2.0233302935
 10
18.6986299997
 20
1.9960644036
 10
18.730247196
 20
1.9680478724
 10
18.7595910664
 20
1.9391807531
 10
18.786511811
 20
1.9095565557
 10
18.8101567923
 20
1.8792571508
 10
18.8304928848
 20
1.8480382739
 10
18.847553214
 20
1.8161330487
 10
18.8605845198
 20
1.7843350028
 10
18.8693343563
 20
1.7529743356
 10
18.8740551693
 20
1.721704925
 10
18.8747510359
 20
1.6903036376
 10
18.8714163397
 20
1.6586138495
 10
18.864056697
 20
1.6267767344
 10
18.8526930336
 20
1.595015931
 10
18.8370635286
 20
1.5631906915
 10
18.8174300029
 20
1.5314259943
 10
18.7945988455
 20
1.5003464711
 10
18.7685724981
 20
1.4701428506
 10
18.7393485189
 20
1.4406137817
 10
18.7077259716
 20
1.4118001817
 10
18.6738344789
 20
1.3837698608
 10
18.6375444181
 20
1.3564486856
 10
18.5992659844
 20
1.3296676779
 10
18.5590241449
 20
1.3033967949
 10
18.5167939326
 20
1.2776613764
 10
18.4729106416
 20
1.2523771953
 10
18.4274021452
 20
1.2275366243
 10
18.3802405701
 20
1.2031439629
 10
18.3316775905
 20
1.1791341039
 10
18.2817515301
 20
1.1555089669
 10
18.2304240653
 20
1.1322642523
 10
18.1778318998
 20
1.1093262759
 10
18.1241690284
 20
1.086751254
 10
18.0692414565
 20
1.064481223
 10
18.0126039031
 20
1.0422705984
 10
17.9541372437
 20
1.0200510964
 10
17.8939606029
 20
0.9978871176
 10
17.8319860741
 20
0.9757310843
 10
17.7682279986
 20
0.9535802202
 10
17.7026720351
 20
0.9314333444
 10
17.6351872524
 20
0.909244885
 10
17.5658482048
 20
0.8870288043
 10
17.4945803379
 20
0.8647668765
 10
17.4210290574
 20
0.8423643845
 10
17.3450761651
 20
0.8197876252
 10
17.2668398591
 20
0.7970646306
 10
17.1863201394
 20
0.7741926714
  0
LWPOLYLINE
  5
54E
100
AcDbEntity
  8
218140080
100
AcDbPolyline
 62
250
  6
CONTINUOUS
 90
73
 70
0
 10
17.1863201394
 20
2.6258073286
 10
17.272183872
 20
2.6013961657
 10
17.3554466146
 20
2.5771566844
 10
17.4361083671
 20
2.5530855632
 10
17.5140915202
 20
2.5291935035
 10
17.5894736833
 20
2.5054629728
 10
17.6624876847
 20
2.4818487058
 10
17.7331377289
 20
2.4583530678
 10
17.8014196114
 20
2.4349677055
 10
17.8675535473
 20
2.4116321177
 10
17.9315494356
 20
2.3883493845
 10
17.9933973774
 20
2.365111163
 10
18.0532878906
 20
2.3418405946
 10
18.1112468858
 20
2.3185368968
 10
18.1672484523
 20
2.2951962497
 10
18.2214053761
 20
2.2717378259
 10
18.2737257058
 20
2.2481732431
 10
18.3242013927
 20
2.2244866324
 10
18.3729210767
 20
2.2005563494
 10
18.4199147093
 20
2.1763946737
 10
18.4651523389
 20
2.151985447
 10
18.5086327511
 20
2.1271645797
 10
18.5504430976
 20
2.1019170794
 10
18.5904962265
 20
2.0762542041
 10
18.6285294678
 20
2.0500507045
 10
18.6645896776
 20
2.0233302935
 10
18.6986299997
 20
1.9960644036
 10
18.730247196
 20
1.9680478724
 10
18.7595910664
 20
1.9391807531
 10
18.786511811
 20
1.9095565557
 10
18.8101567923
 20
1.8792571508
 10
18.8304928848
 20
1.8480382739
 10
18.847553214
 20
1.8161330487
 10
18.8605845198
 20
1.7843350028
 10
18.8693343563
 20
1.7529743356
 10
18.8740551693
 20
1.721704925
 10
18.8747510359
 20
1.6903036376
 10
18.8714163397
 20
1.6586138495
 10
18.864056697
 20
1.6267767344
 10
18.8526930336
 20
1.595015931
 10
18.8370635286
 20
1.5631906915
 10
18.8174300029
 20
1.5314259943
 10
18.7945988455
 20
1.5003464711
 10
18.7685724981
 20
1.4701428506
 10
18.7393485189
 20
1.4406137817
 10
18.7077259716
 20
1.4118001817
 10
18.6738344789
 20
1.3837698608
 10
18.6375444181
 20
1.3564486856
 10
18.5992659844
 20
1.3296676779
 10
18.5590241449
 20
1.3033967949
 10
18.5167939326
 20
1.2776613764
 10
18.4729106416
 20
1.2523771953
 10
18.4274021452
 20
1.2275366243
 10
18.3802405701
 20
1.2031439629
 10
18.3316775905
 20
1.1791341039
 10
18.2817515301
 20
1.1555089669
 10
18.2304240653
 20
1.1322642523
 10
18.1778318998
 20
1.1093262759
 10
18.1241690284
 20
1.086751254
 10
18.0692414565
 20
1.064481223
 10
18.0126039031
 20
1.0422705984
 10
17.9541372437
 20
1.0200510964
 10
17.8939606029
 20
0.9978871176
 10
17.8319860741
 20
0.9757310843
 10
17.7682279986
 20
0.9535802202
 10
17.7026720351
 20
0.9314333444
 10
17.6351872524
 20
0.909244885
 10
17.5658482048
 20
0.8870288043
 10
17.4945803379
 20
0.8647668765
 10
17.4210290574
 20
0.8423643845
 10
17.3450761651
 20
0.8197876252
 10
17.2668398591
 20
0.7970646306
 10
17.1863201394
 20
0.7741926714
  0
LINE
  5
54F
100
AcDbEntity
  8
218140080
100
AcDbLine
 62
250
  6
CONTINUOUS
 10
-0.3837711367
 20
8.151456
 11
-1.6326596263
 21
8.581471
  0
LINE
  5
550
100
AcDbEntity
  8
218140080
100
AcDbLine
 62
250
  6
CONTINUOUS
 10
0.7124668623
 20
7.773964
 11
0.098015073
 21
7.990812
  0
LINE
  5
551
100
AcDbEntity
  8
218140080
100
AcDbLine
 62
250
  6
CONTINUOUS
 10
-2.1866508366
 20
8.227849
 11
0.7124668623
 21
7.179514
  0
LINE
  5
552
100
AcDbEntity
  8
218140080
100
AcDbLine
 62
7
  6
CONTINUOUS
 10
0.098015073
 20
9.1261915174
 11
-0.3732391715
 21
9.5975175471
  0
LINE
  5
553
100
AcDbEntity
  8
218140080
100
AcDbLine
 62
7
  6
CONTINUOUS
 10
-1.0679408019
 20
10.292325
 11
-1.6502970927
 21
10.87477
  0
LINE
  5
554
100
AcDbEntity
  8
218140080
100
AcDbLine
 62
7
  6
CONTINUOUS
 10
-1.6707796302
 20
10.8952556576
 11
-2.0552436264
 21
11.2797782185
  0
LINE
  5
555
100
AcDbEntity
  8
218140080
100
AcDbLine
 62
7
  6
CONTINUOUS
 10
0.1388410583
 20
9.1534277348
 11
-0.3227397259
 21
9.6150788307
  0
LINE
  5
556
100
AcDbEntity
  8
218140080
100
AcDbLine
 62
7
  6
CONTINUOUS
 10
-0.9998827473
 20
10.292325
 11
-1.5822390381
 21
10.87477
  0
LINE
  5
557
100
AcDbEntity
  8
218140080
100
AcDbLine
 62
7
  6
CONTINUOUS
 10
-1.6246395713
 20
10.917176992
 11
-2.0093890902
 21
11.3019851191
  0
LINE
  5
558
100
AcDbEntity
  8
218140080
100
AcDbLine
 62
7
  6
CONTINUOUS
 10
0.1896345637
 20
9.1706949138
 11
-0.2722402803
 21
9.6326401143
  0
LINE
  5
559
100
AcDbEntity
  8
218140080
100
AcDbLine
 62
7
  6
CONTINUOUS
 10
-0.9318246928
 20
10.292325
 11
-1.5141809836
 21
10.87477
  0
LINE
  5
55A
100
AcDbEntity
  8
218140080
100
AcDbLine
 62
7
  6
CONTINUOUS
 10
-1.5784995124
 20
10.9390983263
 11
-1.963534554
 21
11.3241920196
  0
LINE
  5
55B
100
AcDbEntity
  8
218140080
100
AcDbLine
 62
7
  6
CONTINUOUS
 10
0.2404280692
 20
9.1879620928
 11
-0.2217408347
 21
9.6502013979
  0
LINE
  5
55C
100
AcDbEntity
  8
218140080
100
AcDbLine
 62
7
  6
CONTINUOUS
 10
-0.8637666382
 20
10.292325
 11
-1.4461229291
 21
10.87477
  0
LINE
  5
55D
100
AcDbEntity
  8
218140080
100
AcDbLine
 62
7
  6
CONTINUOUS
 10
-1.5323594534
 20
10.9610196606
 11
-1.9176800178
 21
11.3463989202
  0
LINE
  5
55E
100
AcDbEntity
  8
218140080
100
AcDbLine
 62
7
  6
CONTINUOUS
 10
0.2912215746
 20
9.2052292717
 11
-0.1712413891
 21
9.6677626815
  0
LINE
  5
55F
100
AcDbEntity
  8
218140080
100
AcDbLine
 62
7
  6
CONTINUOUS
 10
-0.7957085837
 20
10.292325
 11
-1.3780648745
 21
10.87477
  0
LINE
  5
560
100
AcDbEntity
  8
218140080
100
AcDbLine
 62
7
  6
CONTINUOUS
 10
-1.4862193945
 20
10.9829409949
 11
-1.8718254816
 21
11.3686058207
  0
LINE
  5
561
100
AcDbEntity
  8
218140080
100
AcDbLine
 62
7
  6
CONTINUOUS
 10
0.3420150801
 20
9.2224964507
 11
-0.1207419435
 21
9.6853239651
  0
LINE
  5
562
100
AcDbEntity
  8
218140080
100
AcDbLine
 62
7
  6
CONTINUOUS
 10
-0.7276505292
 20
10.292325
 11
-1.31000682
 21
10.87477
  0
LINE
  5
563
100
AcDbEntity
  8
218140080
100
AcDbLine
 62
7
  6
CONTINUOUS
 10
-1.4400793355
 20
11.0048623293
 11
-1.8259709454
 21
11.3908127213
  0
LINE
  5
564
100
AcDbEntity
  8
218140080
100
AcDbLine
 62
7
  6
CONTINUOUS
 10
0.3928085855
 20
9.2397636296
 11
-0.0702424978
 21
9.7028852487
  0
LINE
  5
565
100
AcDbEntity
  8
218140080
100
AcDbLine
 62
7
  6
CONTINUOUS
 10
-0.6595924746
 20
10.292325
 11
-1.2419487654
 21
10.87477
  0
LINE
  5
566
100
AcDbEntity
  8
218140080
100
AcDbLine
 62
7
  6
CONTINUOUS
 10
-1.3939392766
 20
11.0267836636
 11
-1.7801164092
 21
11.4130196218
  0
LINE
  5
567
100
AcDbEntity
  8
218140080
100
AcDbLine
 62
7
  6
CONTINUOUS
 10
0.443602091
 20
9.2570308086
 11
-0.0197430522
 21
9.7204465323
  0
LINE
  5
568
100
AcDbEntity
  8
218140080
100
AcDbLine
 62
7
  6
CONTINUOUS
 10
-0.5915344201
 20
10.292325
 11
-1.1738907109
 21
10.87477
  0
LINE
  5
569
100
AcDbEntity
  8
218140080
100
AcDbLine
 62
7
  6
CONTINUOUS
 10
-1.3477992177
 20
11.0487049979
 11
-1.734261873
 21
11.4352265224
  0
LINE
  5
56A
100
AcDbEntity
  8
218140080
100
AcDbLine
 62
7
  6
CONTINUOUS
 10
0.4943955964
 20
9.2742979875
 11
0.0307563934
 21
9.7380078159
  0
LINE
  5
56B
100
AcDbEntity
  8
218140080
100
AcDbLine
 62
7
  6
CONTINUOUS
 10
-0.5234763656
 20
10.292325
 11
-1.1058326564
 21
10.87477
  0
LINE
  5
56C
100
AcDbEntity
  8
218140080
100
AcDbLine
 62
7
  6
CONTINUOUS
 10
-1.3016591587
 20
11.0706263322
 11
-1.6884073368
 21
11.4574334229
  0
LINE
  5
56D
100
AcDbEntity
  8
218140080
100
AcDbLine
 62
7
  6
CONTINUOUS
 10
0.5451891019
 20
9.2915651665
 11
0.081255839
 21
9.7555690995
  0
LINE
  5
56E
100
AcDbEntity
  8
218140080
100
AcDbLine
 62
7
  6
CONTINUOUS
 10
-0.455418311
 20
10.292325
 11
-1.0377746018
 21
10.87477
  0
LINE
  5
56F
100
AcDbEntity
  8
218140080
100
AcDbLine
 62
7
  6
CONTINUOUS
 10
-1.2555190998
 20
11.0925476665
 11
-1.6425528006
 21
11.4796403235
  0
LINE
  5
570
100
AcDbEntity
  8
218140080
100
AcDbLine
 62
7
  6
CONTINUOUS
 10
0.5959826073
 20
9.3088323455
 11
0.1317552846
 21
9.773130383
  0
LINE
  5
571
100
AcDbEntity
  8
218140080
100
AcDbLine
 62
7
  6
CONTINUOUS
 10
-0.3873602565
 20
10.292325
 11
-0.9697165473
 21
10.87477
  0
LINE
  5
572
100
AcDbEntity
  8
218140080
100
AcDbLine
 62
7
  6
CONTINUOUS
 10
-1.2093790408
 20
11.1144690009
 11
-1.5966982644
 21
11.501847224
  0
LINE
  5
573
100
AcDbEntity
  8
218140080
100
AcDbLine
 62
7
  6
CONTINUOUS
 10
0.6467761128
 20
9.3260995244
 11
0.1822547302
 21
9.7906916666
  0
LINE
  5
574
100
AcDbEntity
  8
218140080
100
AcDbLine
 62
7
  6
CONTINUOUS
 10
-0.319302202
 20
10.292325
 11
-0.9016584928
 21
10.87477
  0
LINE
  5
575
100
AcDbEntity
  8
218140080
100
AcDbLine
 62
7
  6
CONTINUOUS
 10
-1.1632389819
 20
11.1363903352
 11
-1.5508437282
 21
11.5240541246
  0
LINE
  5
576
100
AcDbEntity
  8
218140080
100
AcDbLine
 62
7
  6
CONTINUOUS
 10
0.6975696183
 20
9.3433667034
 11
0.2327541758
 21
9.8082529502
  0
LINE
  5
577
100
AcDbEntity
  8
218140080
100
AcDbLine
 62
7
  6
CONTINUOUS
 10
-0.2512441474
 20
10.292325
 11
-0.8336004382
 21
10.87477
  0
LINE
  5
578
100
AcDbEntity
  8
218140080
100
AcDbLine
 62
7
  6
CONTINUOUS
 10
-1.117098923
 20
11.1583116695
 11
-1.504989192
 21
11.5462610251
  0
LINE
  5
579
100
AcDbEntity
  8
218140080
100
AcDbLine
 62
7
  6
CONTINUOUS
 10
0.7124668623
 20
9.3965356118
 11
0.2832536214
 21
9.8258142338
  0
LINE
  5
57A
100
AcDbEntity
  8
218140080
100
AcDbLine
 62
7
  6
CONTINUOUS
 10
-0.1831860929
 20
10.292325
 11
-0.7655423837
 21
10.87477
  0
LINE
  5
57B
100
AcDbEntity
  8
218140080
100
AcDbLine
 62
7
  6
CONTINUOUS
 10
-1.070958864
 20
11.1802330038
 11
-1.4591346558
 21
11.5684679257
  0
LINE
  5
57C
100
AcDbEntity
  8
218140080
100
AcDbLine
 62
7
  6
CONTINUOUS
 10
0.7124668623
 20
9.4646040335
 11
0.333753067
 21
9.8433755174
  0
LINE
  5
57D
100
AcDbEntity
  8
218140080
100
AcDbLine
 62
7
  6
CONTINUOUS
 10
-0.1151280384
 20
10.292325
 11
-0.6974843292
 21
10.87477
  0
LINE
  5
57E
100
AcDbEntity
  8
218140080
100
AcDbLine
 62
7
  6
CONTINUOUS
 10
-1.0248188051
 20
11.2021543382
 11
-1.4132801196
 21
11.5906748262
  0
LINE
  5
57F
100
AcDbEntity
  8
218140080
100
AcDbLine
 62
7
  6
CONTINUOUS
 10
-2.1512468804
 20
12.328754
 11
-2.1866508366
 21
12.3641633493
  0
LINE
  5
580
100
AcDbEntity
  8
218140080
100
AcDbLine
 62
7
  6
CONTINUOUS
 10
0.7124668623
 20
9.5326724552
 11
0.3842525127
 21
9.860936801
  0
LINE
  5
581
100
AcDbEntity
  8
218140080
100
AcDbLine
 62
7
  6
CONTINUOUS
 10
-0.0470699838
 20
10.292325
 11
-0.6294262746
 21
10.87477
  0
LINE
  5
582
100
AcDbEntity
  8
218140080
100
AcDbLine
 62
7
  6
CONTINUOUS
 10
-0.9786787461
 20
11.2240756725
 11
-1.3674255834
 21
11.6128817268
  0
LINE
  5
583
100
AcDbEntity
  8
218140080
100
AcDbLine
 62
7
  6
CONTINUOUS
 10
-2.0831888258
 20
12.328754
 11
-2.1866508366
 21
12.432231771
  0
LINE
  5
584
100
AcDbEntity
  8
218140080
100
AcDbLine
 62
7
  6
CONTINUOUS
 10
0.7124668623
 20
9.6007408769
 11
0.4347519583
 21
9.8784980846
  0
LINE
  5
585
100
AcDbEntity
  8
218140080
100
AcDbLine
 62
7
  6
CONTINUOUS
 10
0.0209880707
 20
10.292325
 11
-0.5613682201
 21
10.87477
  0
LINE
  5
586
100
AcDbEntity
  8
218140080
100
AcDbLine
 62
7
  6
CONTINUOUS
 10
-0.9325386872
 20
11.2459970068
 11
-1.3215710472
 21
11.6350886274
  0
LINE
  5
587
100
AcDbEntity
  8
218140080
100
AcDbLine
 62
7
  6
CONTINUOUS
 10
-2.0151307713
 20
12.328754
 11
-2.1866508366
 21
12.5003001927
  0
LINE
  5
588
100
AcDbEntity
  8
218140080
100
AcDbLine
 62
7
  6
CONTINUOUS
 10
0.7124668623
 20
9.6688092985
 11
0.4852514039
 21
9.8960593682
  0
LINE
  5
589
100
AcDbEntity
  8
218140080
100
AcDbLine
 62
7
  6
CONTINUOUS
 10
0.0890461253
 20
10.292325
 11
-0.4933101655
 21
10.87477
  0
LINE
  5
58A
100
AcDbEntity
  8
218140080
100
AcDbLine
 62
7
  6
CONTINUOUS
 10
-0.8863986283
 20
11.2679183411
 11
-1.275716511
 21
11.6572955279
  0
LINE
  5
58B
100
AcDbEntity
  8
218140080
100
AcDbLine
 62
7
  6
CONTINUOUS
 10
-1.9470727167
 20
12.328754
 11
-2.1866508366
 21
12.5683686143
  0
LINE
  5
58C
100
AcDbEntity
  8
218140080
100
AcDbLine
 62
7
  6
CONTINUOUS
 10
0.7124668623
 20
9.7368777202
 11
0.5357508495
 21
9.9136206518
  0
LINE
  5
58D
100
AcDbEntity
  8
218140080
100
AcDbLine
 62
7
  6
CONTINUOUS
 10
0.1571041798
 20
10.292325
 11
-0.425252111
 21
10.87477
  0
LINE
  5
58E
100
AcDbEntity
  8
218140080
100
AcDbLine
 62
7
  6
CONTINUOUS
 10
-0.8402585693
 20
11.2898396754
 11
-1.2298619748
 21
11.6795024285
  0
LINE
  5
58F
100
AcDbEntity
  8
218140080
100
AcDbLine
 62
7
  6
CONTINUOUS
 10
-1.8790146622
 20
12.328754
 11
-2.1866508366
 21
12.636437036
  0
LINE
  5
590
100
AcDbEntity
  8
218140080
100
AcDbLine
 62
7
  6
CONTINUOUS
 10
0.7124668623
 20
9.8049461419
 11
0.5862502951
 21
9.9311819354
  0
LINE
  5
591
100
AcDbEntity
  8
218140080
100
AcDbLine
 62
7
  6
CONTINUOUS
 10
0.2251622343
 20
10.292325
 11
-0.3571940565
 21
10.87477
  0
LINE
  5
592
100
AcDbEntity
  8
218140080
100
AcDbLine
 62
7
  6
CONTINUOUS
 10
-0.7941185104
 20
11.3117610098
 11
-1.1840074386
 21
11.701709329
  0
LINE
  5
593
100
AcDbEntity
  8
218140080
100
AcDbLine
 62
7
  6
CONTINUOUS
 10
-1.8109566077
 20
12.328754
 11
-2.1866508366
 21
12.7045054577
  0
LINE
  5
594
100
AcDbEntity
  8
218140080
100
AcDbLine
 62
7
  6
CONTINUOUS
 10
0.7124668623
 20
9.8730145636
 11
0.6367497407
 21
9.948743219
  0
LINE
  5
595
100
AcDbEntity
  8
218140080
100
AcDbLine
 62
7
  6
CONTINUOUS
 10
0.2932202889
 20
10.292325
 11
-0.2891360019
 21
10.87477
  0
LINE
  5
596
100
AcDbEntity
  8
218140080
100
AcDbLine
 62
7
  6
CONTINUOUS
 10
-0.7479784514
 20
11.3336823441
 11
-1.1381529024
 21
11.7239162296
  0
LINE
  5
597
100
AcDbEntity
  8
218140080
100
AcDbLine
 62
7
  6
CONTINUOUS
 10
-1.7428985531
 20
12.328754
 11
-2.1866508366
 21
12.7725738794
  0
LINE
  5
598
100
AcDbEntity
  8
218140080
100
AcDbLine
 62
7
  6
CONTINUOUS
 10
0.7124668623
 20
9.9410829853
 11
0.6872491863
 21
9.9663045026
  0
LINE
  5
599
100
AcDbEntity
  8
218140080
100
AcDbLine
 62
7
  6
CONTINUOUS
 10
0.3612783434
 20
10.292325
 11
-0.2210779474
 21
10.87477
  0
LINE
  5
59A
100
AcDbEntity
  8
218140080
100
AcDbLine
 62
7
  6
CONTINUOUS
 10
-0.7018383925
 20
11.3556036784
 11
-1.0922983662
 21
11.7461231301
  0
LINE
  5
59B
100
AcDbEntity
  8
218140080
100
AcDbLine
 62
7
  6
CONTINUOUS
 10
-1.6748404986
 20
12.328754
 11
-2.1866508366
 21
12.8406423011
  0
LINE
  5
59C
100
AcDbEntity
  8
218140080
100
AcDbLine
 62
7
  6
CONTINUOUS
 10
0.4293363979
 20
10.292325
 11
-0.1530198929
 21
10.87477
  0
LINE
  5
59D
100
AcDbEntity
  8
218140080
100
AcDbLine
 62
7
  6
CONTINUOUS
 10
-0.6556983336
 20
11.3775250127
 11
-1.04644383
 21
11.7683300307
  0
LINE
  5
59E
100
AcDbEntity
  8
218140080
100
AcDbLine
 62
7
  6
CONTINUOUS
 10
-1.6067824441
 20
12.328754
 11
-2.1866508366
 21
12.9087107228
  0
LINE
  5
59F
100
AcDbEntity
  8
218140080
100
AcDbLine
 62
7
  6
CONTINUOUS
 10
0.4973944525
 20
10.292325
 11
-0.0849618383
 21
10.87477
  0
LINE
  5
5A0
100
AcDbEntity
  8
218140080
100
AcDbLine
 62
7
  6
CONTINUOUS
 10
-0.6095582746
 20
11.399446347
 11
-1.0005892938
 21
11.7905369312
  0
LINE
  5
5A1
100
AcDbEntity
  8
218140080
100
AcDbLine
 62
7
  6
CONTINUOUS
 10
-1.5387243895
 20
12.328754
 11
-2.1210796805
 21
12.911198
  0
LINE
  5
5A2
100
AcDbEntity
  8
218140080
100
AcDbLine
 62
7
  6
CONTINUOUS
 10
0.565452507
 20
10.292325
 11
-0.0169037838
 21
10.87477
  0
LINE
  5
5A3
100
AcDbEntity
  8
218140080
100
AcDbLine
 62
7
  6
CONTINUOUS
 10
-0.5634182157
 20
11.4213676814
 11
-0.9547347576
 21
11.8127438318
  0
LINE
  5
5A4
100
AcDbEntity
  8
218140080
100
AcDbLine
 62
7
  6
CONTINUOUS
 10
-1.470666335
 20
12.328754
 11
-2.0530216259
 21
12.911198
  0
LINE
  5
5A5
100
AcDbEntity
  8
218140080
100
AcDbLine
 62
7
  6
CONTINUOUS
 10
0.6335105615
 20
10.292325
 11
0.0511542707
 21
10.87477
  0
LINE
  5
5A6
100
AcDbEntity
  8
218140080
100
AcDbLine
 62
7
  6
CONTINUOUS
 10
-0.5172781567
 20
11.4432890157
 11
-0.9088802214
 21
11.8349507323
  0
LINE
  5
5A7
100
AcDbEntity
  8
218140080
100
AcDbLine
 62
7
  6
CONTINUOUS
 10
-1.4026082805
 20
12.328754
 11
-1.9849635714
 21
12.911198
  0
LINE
  5
5A8
100
AcDbEntity
  8
218140080
100
AcDbLine
 62
7
  6
CONTINUOUS
 10
0.7015686161
 20
10.292325
 11
0.1192123253
 21
10.87477
  0
LINE
  5
5A9
100
AcDbEntity
  8
218140080
100
AcDbLine
 62
7
  6
CONTINUOUS
 10
-0.4711380978
 20
11.46521035
 11
-0.8630256852
 21
11.8571576329
  0
LINE
  5
5AA
100
AcDbEntity
  8
218140080
100
AcDbLine
 62
7
  6
CONTINUOUS
 10
-1.3345502259
 20
12.328754
 11
-1.9169055169
 21
12.911198
  0
LINE
  5
5AB
100
AcDbEntity
  8
218140080
100
AcDbLine
 62
7
  6
CONTINUOUS
 10
0.7124668623
 20
10.3494935154
 11
0.1872703798
 21
10.87477
  0
LINE
  5
5AC
100
AcDbEntity
  8
218140080
100
AcDbLine
 62
7
  6
CONTINUOUS
 10
-0.4249980389
 20
11.4871316843
 11
-0.817171149
 21
11.8793645334
  0
LINE
  5
5AD
100
AcDbEntity
  8
218140080
100
AcDbLine
 62
7
  6
CONTINUOUS
 10
-1.2664921714
 20
12.328754
 11
-1.8488474623
 21
12.911198
  0
LINE
  5
5AE
100
AcDbEntity
  8
218140080
100
AcDbLine
 62
7
  6
CONTINUOUS
 10
0.7124668623
 20
10.4175619371
 11
0.2553284343
 21
10.87477
  0
LINE
  5
5AF
100
AcDbEntity
  8
218140080
100
AcDbLine
 62
7
  6
CONTINUOUS
 10
-0.3788579799
 20
11.5090530187
 11
-0.7713166128
 21
11.901571434
  0
LINE
  5
5B0
100
AcDbEntity
  8
218140080
100
AcDbLine
 62
7
  6
CONTINUOUS
 10
-1.1984341168
 20
12.328754
 11
-1.7807894078
 21
12.911198
  0
LINE
  5
5B1
100
AcDbEntity
  8
218140080
100
AcDbLine
 62
7
  6
CONTINUOUS
 10
0.7124668623
 20
10.4856303588
 11
0.3233864889
 21
10.87477
  0
LINE
  5
5B2
100
AcDbEntity
  8
218140080
100
AcDbLine
 62
7
  6
CONTINUOUS
 10
-0.332717921
 20
11.530974353
 11
-0.7254620766
 21
11.9237783346
  0
LINE
  5
5B3
100
AcDbEntity
  8
218140080
100
AcDbLine
 62
7
  6
CONTINUOUS
 10
-1.1303760623
 20
12.328754
 11
-1.7127313533
 21
12.911198
  0
LINE
  5
5B4
100
AcDbEntity
  8
218140080
100
AcDbLine
 62
7
  6
CONTINUOUS
 10
0.7124668623
 20
10.5536987805
 11
0.3914445434
 21
10.87477
  0
LINE
  5
5B5
100
AcDbEntity
  8
218140080
100
AcDbLine
 62
7
  6
CONTINUOUS
 10
-0.2865778621
 20
11.5528956873
 11
-0.6796075404
 21
11.9459852351
  0
LINE
  5
5B6
100
AcDbEntity
  8
218140080
100
AcDbLine
 62
7
  6
CONTINUOUS
 10
-1.0623180078
 20
12.328754
 11
-1.6446732987
 21
12.911198
  0
LINE
  5
5B7
100
AcDbEntity
  8
218140080
100
AcDbLine
 62
7
  6
CONTINUOUS
 10
0.7124668623
 20
10.6217672022
 11
0.459502598
 21
10.87477
  0
LINE
  5
5B8
100
AcDbEntity
  8
218140080
100
AcDbLine
 62
7
  6
CONTINUOUS
 10
-0.2404378031
 20
11.5748170216
 11
-0.6337530042
 21
11.9681921357
  0
LINE
  5
5B9
100
AcDbEntity
  8
218140080
100
AcDbLine
 62
7
  6
CONTINUOUS
 10
-0.9942599532
 20
12.328754
 11
-1.5766152442
 21
12.911198
  0
LINE
  5
5BA
100
AcDbEntity
  8
218140080
100
AcDbLine
 62
7
  6
CONTINUOUS
 10
0.7124668623
 20
10.6898356238
 11
0.5275606525
 21
10.87477
  0
LINE
  5
5BB
100
AcDbEntity
  8
218140080
100
AcDbLine
 62
7
  6
CONTINUOUS
 10
-0.1942977442
 20
11.5967383559
 11
-0.587898468
 21
11.9903990362
  0
LINE
  5
5BC
100
AcDbEntity
  8
218140080
100
AcDbLine
 62
7
  6
CONTINUOUS
 10
-0.9262018987
 20
12.328754
 11
-1.5085571897
 21
12.911198
  0
LINE
  5
5BD
100
AcDbEntity
  8
218140080
100
AcDbLine
 62
7
  6
CONTINUOUS
 10
0.7124668623
 20
10.7579040455
 11
0.595618707
 21
10.87477
  0
LINE
  5
5BE
100
AcDbEntity
  8
218140080
100
AcDbLine
 62
7
  6
CONTINUOUS
 10
-0.1481576852
 20
11.6186596903
 11
-0.5420439318
 21
12.0126059368
  0
LINE
  5
5BF
100
AcDbEntity
  8
218140080
100
AcDbLine
 62
7
  6
CONTINUOUS
 10
-0.8581438442
 20
12.328754
 11
-1.4404991351
 21
12.911198
  0
LINE
  5
5C0
100
AcDbEntity
  8
218140080
100
AcDbLine
 62
7
  6
CONTINUOUS
 10
0.7124668623
 20
10.8259724672
 11
0.6636767616
 21
10.87477
  0
LINE
  5
5C1
100
AcDbEntity
  8
218140080
100
AcDbLine
 62
7
  6
CONTINUOUS
 10
-0.1020176263
 20
11.6405810246
 11
-0.4961893956
 21
12.0348128373
  0
LINE
  5
5C2
100
AcDbEntity
  8
218140080
100
AcDbLine
 62
7
  6
CONTINUOUS
 10
-0.7900857896
 20
12.328754
 11
-1.3724410806
 21
12.911198
  0
LINE
  5
5C3
100
AcDbEntity
  8
218140080
100
AcDbLine
 62
7
  6
CONTINUOUS
 10
-0.0558775674
 20
11.6625023589
 11
-0.4503348594
 21
12.0570197379
  0
LINE
  5
5C4
100
AcDbEntity
  8
218140080
100
AcDbLine
 62
7
  6
CONTINUOUS
 10
-0.7220277351
 20
12.328754
 11
-1.3043830261
 21
12.911198
  0
LINE
  5
5C5
100
AcDbEntity
  8
218140080
100
AcDbLine
 62
7
  6
CONTINUOUS
 10
-0.0097375084
 20
11.6844236932
 11
-0.4044803232
 21
12.0792266384
  0
LINE
  5
5C6
100
AcDbEntity
  8
218140080
100
AcDbLine
 62
7
  6
CONTINUOUS
 10
-0.6539696806
 20
12.328754
 11
-1.2363249715
 21
12.911198
  0
LINE
  5
5C7
100
AcDbEntity
  8
218140080
100
AcDbLine
 62
7
  6
CONTINUOUS
 10
0.0364025505
 20
11.7063450276
 11
-0.358625787
 21
12.101433539
  0
LINE
  5
5C8
100
AcDbEntity
  8
218140080
100
AcDbLine
 62
7
  6
CONTINUOUS
 10
-0.585911626
 20
12.328754
 11
-1.168266917
 21
12.911198
  0
LINE
  5
5C9
100
AcDbEntity
  8
218140080
100
AcDbLine
 62
7
  6
CONTINUOUS
 10
0.0825426095
 20
11.7282663619
 11
-0.3127712508
 21
12.1236404395
  0
LINE
  5
5CA
100
AcDbEntity
  8
218140080
100
AcDbLine
 62
7
  6
CONTINUOUS
 10
-0.5178535715
 20
12.328754
 11
-1.1002088624
 21
12.911198
  0
LINE
  5
5CB
100
AcDbEntity
  8
218140080
100
AcDbLine
 62
250
  6
CONTINUOUS
 10
2.8555306722
 20
9.0
 11
2.3127562415
 21
9.5428571671
  0
LINE
  5
5CC
100
AcDbEntity
  8
218140080
100
AcDbLine
 62
7
  6
CONTINUOUS
 10
0.1286826684
 20
11.7501876962
 11
-0.2669167146
 21
12.1458473401
  0
LINE
  5
5CD
100
AcDbEntity
  8
218140080
100
AcDbLine
 62
7
  6
CONTINUOUS
 10
-0.4497955169
 20
12.328754
 11
-1.0321508079
 21
12.911198
  0
LINE
  5
5CE
100
AcDbEntity
  8
218140080
100
AcDbLine
 62
7
  6
CONTINUOUS
 10
0.1748227273
 20
11.7721090305
 11
-0.2210621784
 21
12.1680542406
  0
LINE
  5
5CF
100
AcDbEntity
  8
218140080
100
AcDbLine
 62
7
  6
CONTINUOUS
 10
-0.3817374624
 20
12.328754
 11
-0.9640927534
 21
12.911198
  0
LINE
  5
5D0
100
AcDbEntity
  8
218140080
100
AcDbLine
 62
7
  6
CONTINUOUS
 10
0.2209627863
 20
11.7940303648
 11
-0.1752076422
 21
12.1902611412
  0
LINE
  5
5D1
100
AcDbEntity
  8
218140080
100
AcDbLine
 62
7
  6
CONTINUOUS
 10
-0.3136794079
 20
12.328754
 11
-0.8960346988
 21
12.911198
  0
LINE
  5
5D2
100
AcDbEntity
  8
218140080
100
AcDbLine
 62
7
  6
CONTINUOUS
 10
0.2671028452
 20
11.8159516992
 11
-0.129353106
 21
12.2124680417
  0
LINE
  5
5D3
100
AcDbEntity
  8
218140080
100
AcDbLine
 62
7
  6
CONTINUOUS
 10
-0.2456213533
 20
12.328754
 11
-0.8279766443
 21
12.911198
  0
LINE
  5
5D4
100
AcDbEntity
  8
218140080
100
AcDbLine
 62
7
  6
CONTINUOUS
 10
-2.1597207031
 20
14.2431449208
 11
-2.1866508366
 21
14.2700791565
  0
LINE
  5
5D5
100
AcDbEntity
  8
218140080
100
AcDbLine
 62
250
  6
CONTINUOUS
 10
3.2124668623
 20
-8.544819
 11
1.9128628247
 21
-9.576944
  0
LINE
  5
5D6
100
AcDbEntity
  8
218140080
100
AcDbLine
 62
250
  6
CONTINUOUS
 10
-0.298694058
 20
-10.59258
 11
-2.1867877949
 21
-11.134148
  0
LINE
  5
5D7
100
AcDbEntity
  8
218140080
100
AcDbLine
 62
250
  6
CONTINUOUS
 10
2.3127562415
 20
9.5428571671
 11
4.2124668623
 21
9.5428571671
  0
LINE
  5
5D8
100
AcDbEntity
  8
218140080
100
AcDbLine
 62
250
  6
CONTINUOUS
 10
0.7124668623
 20
10.292325
 11
-2.1866508366
 21
10.292325
  0
LINE
  5
5D9
100
AcDbEntity
  8
218140080
100
AcDbLine
 62
7
  6
CONTINUOUS
 10
0.3132429042
 20
11.8378730335
 11
-0.0834985698
 21
12.2346749423
  0
LINE
  5
5DA
100
AcDbEntity
  8
218140080
100
AcDbLine
 62
7
  6
CONTINUOUS
 10
-0.1775632988
 20
12.328754
 11
-0.7599185898
 21
12.911198
  0
LINE
  5
5DB
100
AcDbEntity
  8
218140080
100
AcDbLine
 62
7
  6
CONTINUOUS
 10
-2.0531155855
 20
14.2045919859
 11
-2.1866508366
 21
14.3381475782
  0
LINE
  5
5DC
100
AcDbEntity
  8
218140080
100
AcDbLine
 62
7
  6
CONTINUOUS
 10
0.3593829631
 20
11.8597943678
 11
-0.0376440336
 21
12.2568818429
  0
LINE
  5
5DD
100
AcDbEntity
  8
218140080
100
AcDbLine
 62
7
  6
CONTINUOUS
 10
-0.1095052443
 20
12.328754
 11
-0.6918605352
 21
12.911198
  0
LINE
  5
5DE
100
AcDbEntity
  8
218140080
100
AcDbLine
 62
7
  6
CONTINUOUS
 10
-1.9465104678
 20
14.166039051
 11
-2.1866508366
 21
14.4062159999
  0
LINE
  5
5DF
100
AcDbEntity
  8
218140080
100
AcDbLine
 62
7
  6
CONTINUOUS
 10
0.405523022
 20
11.8817157021
 11
0.0082105026
 21
12.2790887434
  0
LINE
  5
5E0
100
AcDbEntity
  8
218140080
100
AcDbLine
 62
7
  6
CONTINUOUS
 10
-0.0414471897
 20
12.328754
 11
-0.6238024807
 21
12.911198
  0
LINE
  5
5E1
100
AcDbEntity
  8
218140080
100
AcDbLine
 62
7
  6
CONTINUOUS
 10
-1.8399053501
 20
14.127486116
 11
-2.1866508366
 21
14.4742844216
  0
LINE
  5
5E2
100
AcDbEntity
  8
218140080
100
AcDbLine
 62
7
  6
CONTINUOUS
 10
0.451663081
 20
11.9036370364
 11
0.0540650388
 21
12.301295644
  0
LINE
  5
5E3
100
AcDbEntity
  8
218140080
100
AcDbLine
 62
7
  6
CONTINUOUS
 10
0.0266108648
 20
12.328754
 11
-0.5557444262
 21
12.911198
  0
LINE
  5
5E4
100
AcDbEntity
  8
218140080
100
AcDbLine
 62
7
  6
CONTINUOUS
 10
-1.7333002325
 20
14.0889331811
 11
-2.1866508366
 21
14.5423528432
  0
LINE
  5
5E5
100
AcDbEntity
  8
218140080
100
AcDbLine
 62
7
  6
CONTINUOUS
 10
0.4978031399
 20
11.9255583708
 11
0.099919575
 21
12.3235025445
  0
LINE
  5
5E6
100
AcDbEntity
  8
218140080
100
AcDbLine
 62
7
  6
CONTINUOUS
 10
0.0946689193
 20
12.328754
 11
-0.4876863716
 21
12.911198
  0
LINE
  5
5E7
100
AcDbEntity
  8
218140080
100
AcDbLine
 62
7
  6
CONTINUOUS
 10
-1.6266951148
 20
14.0503802462
 11
-2.1866508366
 21
14.6104212649
  0
LINE
  5
5E8
100
AcDbEntity
  8
218140080
100
AcDbLine
 62
7
  6
CONTINUOUS
 10
0.5439431989
 20
11.9474797051
 11
-0.4196283171
 21
12.911198
  0
LINE
  5
5E9
100
AcDbEntity
  8
218140080
100
AcDbLine
 62
7
  6
CONTINUOUS
 10
-1.5200899972
 20
14.0118273113
 11
-2.1866508366
 21
14.6784896866
  0
LINE
  5
5EA
100
AcDbEntity
  8
218140080
100
AcDbLine
 62
7
  6
CONTINUOUS
 10
0.5900832578
 20
11.9694010394
 11
-0.3515702625
 21
12.911198
  0
LINE
  5
5EB
100
AcDbEntity
  8
218140080
100
AcDbLine
 62
7
  6
CONTINUOUS
 10
-1.4134848795
 20
13.9732743763
 11
-2.1866508366
 21
14.7465581083
  0
LINE
  5
5EC
100
AcDbEntity
  8
218140080
100
AcDbLine
 62
7
  6
CONTINUOUS
 10
0.6362233167
 20
11.9913223737
 11
-0.283512208
 21
12.911198
  0
LINE
  5
5ED
100
AcDbEntity
  8
218140080
100
AcDbLine
 62
7
  6
CONTINUOUS
 10
-1.3068797618
 20
13.9347214414
 11
-2.1866508366
 21
14.81462653
  0
LINE
  5
5EE
100
AcDbEntity
  8
218140080
100
AcDbLine
 62
7
  6
CONTINUOUS
 10
0.6823633757
 20
12.0132437081
 11
-0.2154541535
 21
12.911198
  0
LINE
  5
5EF
100
AcDbEntity
  8
218140080
100
AcDbLine
 62
7
  6
CONTINUOUS
 10
-1.2002746442
 20
13.8961685065
 11
-2.1866508366
 21
14.8826949517
  0
LINE
  5
5F0
100
AcDbEntity
  8
218140080
100
AcDbLine
 62
7
  6
CONTINUOUS
 10
0.7124668623
 20
12.0512040576
 11
-0.1473960989
 21
12.911198
  0
LINE
  5
5F1
100
AcDbEntity
  8
218140080
100
AcDbLine
 62
7
  6
CONTINUOUS
 10
-1.0936695265
 20
13.8576155716
 11
-2.1866508366
 21
14.9507633734
  0
LINE
  5
5F2
100
AcDbEntity
  8
218140080
100
AcDbLine
 62
7
  6
CONTINUOUS
 10
0.7124668623
 20
12.1192724793
 11
-0.0793380444
 21
12.911198
  0
LINE
  5
5F3
100
AcDbEntity
  8
218140080
100
AcDbLine
 62
7
  6
CONTINUOUS
 10
-0.9870644089
 20
13.8190626366
 11
-2.1666957518
 21
14.9988736705
  0
LINE
  5
5F4
100
AcDbEntity
  8
218140080
100
AcDbLine
 62
7
  6
CONTINUOUS
 10
0.7124668623
 20
12.1873409009
 11
-0.0112799899
 21
12.911198
  0
LINE
  5
5F5
100
AcDbEntity
  8
218140080
100
AcDbLine
 62
7
  6
CONTINUOUS
 10
-0.8804592912
 20
13.7805097017
 11
-2.1161948976
 21
15.0164335453
  0
LINE
  5
5F6
100
AcDbEntity
  8
218140080
100
AcDbLine
 62
7
  6
CONTINUOUS
 10
0.7124668623
 20
12.2554093226
 11
0.0567780647
 21
12.911198
  0
LINE
  5
5F7
100
AcDbEntity
  8
218140080
100
AcDbLine
 62
7
  6
CONTINUOUS
 10
-0.7738541735
 20
13.7419567668
 11
-2.0656940433
 21
15.03399342
  0
LINE
  5
5F8
100
AcDbEntity
  8
218140080
100
AcDbLine
 62
7
  6
CONTINUOUS
 10
0.7124668623
 20
12.3234777443
 11
0.1248361192
 21
12.911198
  0
LINE
  5
5F9
100
AcDbEntity
  8
218140080
100
AcDbLine
 62
7
  6
CONTINUOUS
 10
-0.6672490559
 20
13.7034038319
 11
-1.5374282818
 21
14.5737156105
  0
LINE
  5
5FA
100
AcDbEntity
  8
218140080
100
AcDbLine
 62
7
  6
CONTINUOUS
 10
-1.5853197414
 20
14.6216143653
 11
-2.0151931891
 21
15.0515532947
  0
LINE
  5
5FB
100
AcDbEntity
  8
218140080
100
AcDbLine
 62
7
  6
CONTINUOUS
 10
0.7124668623
 20
12.391546166
 11
0.1928941737
 21
12.911198
  0
LINE
  5
5FC
100
AcDbEntity
  8
218140080
100
AcDbLine
 62
7
  6
CONTINUOUS
 10
-0.5606439382
 20
13.6648508969
 11
-1.4336392746
 21
14.537979215
  0
LINE
  5
5FD
100
AcDbEntity
  8
218140080
100
AcDbLine
 62
7
  6
CONTINUOUS
 10
-1.5338158218
 20
14.6381710219
 11
-1.9646923348
 21
15.0691131695
  0
LINE
  5
5FE
100
AcDbEntity
  8
218140080
100
AcDbLine
 62
7
  6
CONTINUOUS
 10
0.7124668623
 20
12.4596145877
 11
0.2609522283
 21
12.911198
  0
LINE
  5
5FF
100
AcDbEntity
  8
218140080
100
AcDbLine
 62
7
  6
CONTINUOUS
 10
-0.4540388206
 20
13.626297962
 11
-1.3298502675
 21
14.5022428196
  0
LINE
  5
600
100
AcDbEntity
  8
218140080
100
AcDbLine
 62
7
  6
CONTINUOUS
 10
-1.4823119022
 20
14.6547276785
 11
-1.9141914806
 21
15.0866730442
  0
LINE
  5
601
100
AcDbEntity
  8
218140080
100
AcDbLine
 62
7
  6
CONTINUOUS
 10
0.7124668623
 20
12.5276830094
 11
0.3290102828
 21
12.911198
  0
LINE
  5
602
100
AcDbEntity
  8
218140080
100
AcDbLine
 62
7
  6
CONTINUOUS
 10
-0.3474337029
 20
13.5877450271
 11
-1.2260612603
 21
14.4665064241
  0
LINE
  5
603
100
AcDbEntity
  8
218140080
100
AcDbLine
 62
7
  6
CONTINUOUS
 10
-1.4308079826
 20
14.6712843351
 11
-1.8636906263
 21
15.104232919
  0
LINE
  5
604
100
AcDbEntity
  8
218140080
100
AcDbLine
 62
7
  6
CONTINUOUS
 10
0.7124668623
 20
12.5957514311
 11
0.3970683374
 21
12.911198
  0
LINE
  5
605
100
AcDbEntity
  8
218140080
100
AcDbLine
 62
7
  6
CONTINUOUS
 10
-0.2408285852
 20
13.5491920922
 11
-1.1222722532
 21
14.4307700287
  0
LINE
  5
606
100
AcDbEntity
  8
218140080
100
AcDbLine
 62
7
  6
CONTINUOUS
 10
-1.379304063
 20
14.6878409917
 11
-1.8131897721
 21
15.1217927937
  0
LINE
  5
607
100
AcDbEntity
  8
218140080
100
AcDbLine
 62
7
  6
CONTINUOUS
 10
0.7124668623
 20
12.6638198527
 11
0.4651263919
 21
12.911198
  0
LINE
  5
608
100
AcDbEntity
  8
218140080
100
AcDbLine
 62
7
  6
CONTINUOUS
 10
-0.1342234676
 20
13.5106391572
 11
-1.018483246
 21
14.3950336333
  0
LINE
  5
609
100
AcDbEntity
  8
218140080
100
AcDbLine
 62
7
  6
CONTINUOUS
 10
-1.3278001434
 20
14.7043976483
 11
-1.7626889178
 21
15.1393526684
  0
LINE
  5
60A
100
AcDbEntity
  8
218140080
100
AcDbLine
 62
7
  6
CONTINUOUS
 10
0.7124668623
 20
12.7318882744
 11
0.5331844464
 21
12.911198
  0
LINE
  5
60B
100
AcDbEntity
  8
218140080
100
AcDbLine
 62
7
  6
CONTINUOUS
 10
-0.0276183499
 20
13.4720862223
 11
-0.9146942389
 21
14.3592972378
  0
LINE
  5
60C
100
AcDbEntity
  8
218140080
100
AcDbLine
 62
7
  6
CONTINUOUS
 10
-1.2762962239
 20
14.7209543049
 11
-1.7121880635
 21
15.1569125432
  0
LINE
  5
60D
100
AcDbEntity
  8
218140080
100
AcDbLine
 62
7
  6
CONTINUOUS
 10
0.7124668623
 20
12.7999566961
 11
0.601242501
 21
12.911198
  0
LINE
  5
60E
100
AcDbEntity
  8
218140080
100
AcDbLine
 62
7
  6
CONTINUOUS
 10
0.0789867678
 20
13.4335332874
 11
-0.8109052317
 21
14.3235608424
  0
LINE
  5
60F
100
AcDbEntity
  8
218140080
100
AcDbLine
 62
7
  6
CONTINUOUS
 10
-1.2247923043
 20
14.7375109615
 11
-1.6616872093
 21
15.1744724179
  0
LINE
  5
610
100
AcDbEntity
  8
218140080
100
AcDbLine
 62
7
  6
CONTINUOUS
 10
0.7124668623
 20
12.8680251178
 11
0.6693005555
 21
12.911198
  0
LINE
  5
611
100
AcDbEntity
  8
218140080
100
AcDbLine
 62
7
  6
CONTINUOUS
 10
0.1855918854
 20
13.3949803525
 11
-0.7071162246
 21
14.287824447
  0
LINE
  5
612
100
AcDbEntity
  8
218140080
100
AcDbLine
 62
7
  6
CONTINUOUS
 10
-1.1732883847
 20
14.7540676181
 11
-1.611186355
 21
15.1920322927
  0
LINE
  5
613
100
AcDbEntity
  8
218140080
100
AcDbLine
 62
7
  6
CONTINUOUS
 10
0.2921970031
 20
13.3564274176
 11
-0.6033272174
 21
14.2520880515
  0
LINE
  5
614
100
AcDbEntity
  8
218140080
100
AcDbLine
 62
7
  6
CONTINUOUS
 10
-1.1217844651
 20
14.7706242748
 11
-1.5606855008
 21
15.2095921674
  0
LINE
  5
615
100
AcDbEntity
  8
218140080
100
AcDbLine
 62
7
  6
CONTINUOUS
 10
0.3988021207
 20
13.3178744826
 11
-0.4995382103
 21
14.2163516561
  0
LINE
  5
616
100
AcDbEntity
  8
218140080
100
AcDbLine
 62
7
  6
CONTINUOUS
 10
-1.0702805455
 20
14.7871809314
 11
-1.5101846465
 21
15.2271520421
  0
LINE
  5
617
100
AcDbEntity
  8
218140080
100
AcDbLine
 62
7
  6
CONTINUOUS
 10
0.5054072384
 20
13.2793215477
 11
-0.3957492031
 21
14.1806152607
  0
LINE
  5
618
100
AcDbEntity
  8
218140080
100
AcDbLine
 62
7
  6
CONTINUOUS
 10
-1.0187766259
 20
14.803737588
 11
-1.4596837923
 21
15.2447119169
  0
LINE
  5
619
100
AcDbEntity
  8
218140080
100
AcDbLine
 62
7
  6
CONTINUOUS
 10
0.6120123561
 20
13.2407686128
 11
-0.3837711367
 21
14.2367037913
  0
LINE
  5
61A
100
AcDbEntity
  8
218140080
100
AcDbLine
 62
7
  6
CONTINUOUS
 10
-0.9672727063
 20
14.8202942446
 11
-1.409182938
 21
15.2622717916
  0
LINE
  5
61B
100
AcDbEntity
  8
218140080
100
AcDbLine
 62
7
  6
CONTINUOUS
 10
0.7124668623
 20
13.2083672262
 11
-0.3837711367
 21
14.304772213
  0
LINE
  5
61C
100
AcDbEntity
  8
218140080
100
AcDbLine
 62
7
  6
CONTINUOUS
 10
-0.9157687868
 20
14.8368509012
 11
-1.3586820838
 21
15.2798316663
  0
LINE
  5
61D
100
AcDbEntity
  8
218140080
100
AcDbLine
 62
7
  6
CONTINUOUS
 10
0.7124668623
 20
13.2764356479
 11
-0.3837711367
 21
14.3728406347
  0
LINE
  5
61E
100
AcDbEntity
  8
218140080
100
AcDbLine
 62
7
  6
CONTINUOUS
 10
-0.8642648672
 20
14.8534075578
 11
-1.3081812295
 21
15.2973915411
  0
LINE
  5
61F
100
AcDbEntity
  8
218140080
100
AcDbLine
 62
7
  6
CONTINUOUS
 10
0.7124668623
 20
13.3445040696
 11
-0.3837711367
 21
14.4409090564
  0
LINE
  5
620
100
AcDbEntity
  8
218140080
100
AcDbLine
 62
7
  6
CONTINUOUS
 10
-0.8127609476
 20
14.8699642144
 11
-1.2576803753
 21
15.3149514158
  0
LINE
  5
621
100
AcDbEntity
  8
218140080
100
AcDbLine
 62
7
  6
CONTINUOUS
 10
0.7124668623
 20
13.4125724913
 11
0.1154351645
 21
14.0096951337
  0
LINE
  5
622
100
AcDbEntity
  8
218140080
100
AcDbLine
 62
7
  6
CONTINUOUS
 10
0.098015073
 20
14.0271178788
 11
-0.3837711367
 21
14.5089774781
  0
LINE
  5
623
100
AcDbEntity
  8
218140080
100
AcDbLine
 62
7
  6
CONTINUOUS
 10
-0.761257028
 20
14.886520871
 11
-1.207179521
 21
15.3325112906
  0
LINE
  5
624
100
AcDbEntity
  8
218140080
100
AcDbLine
 62
7
  6
CONTINUOUS
 10
0.7124668623
 20
13.480640913
 11
0.2206313041
 21
13.9725513915
  0
LINE
  5
625
100
AcDbEntity
  8
218140080
100
AcDbLine
 62
7
  6
CONTINUOUS
 10
0.098015073
 20
14.0951863005
 11
-0.3837711367
 21
14.5770458998
  0
LINE
  5
626
100
AcDbEntity
  8
218140080
100
AcDbLine
 62
7
  6
CONTINUOUS
 10
-0.7097531084
 20
14.9030775276
 11
-1.1566786668
 21
15.3500711653
  0
LINE
  5
627
100
AcDbEntity
  8
218140080
100
AcDbLine
 62
7
  6
CONTINUOUS
 10
0.7124668623
 20
13.5487093347
 11
0.3258274436
 21
13.9354076493
  0
LINE
  5
628
100
AcDbEntity
  8
218140080
100
AcDbLine
 62
7
  6
CONTINUOUS
 10
0.098015073
 20
14.1632547222
 11
-0.3837711367
 21
14.6451143214
  0
LINE
  5
629
100
AcDbEntity
  8
218140080
100
AcDbLine
 62
7
  6
CONTINUOUS
 10
-0.6582491888
 20
14.9196341842
 11
-1.1061778125
 21
15.36763104
  0
LINE
  5
62A
100
AcDbEntity
  8
218140080
100
AcDbLine
 62
250
  6
CONTINUOUS
 10
2.5841434568
 20
11.714285779
 11
2.3127562415
 21
11.985714221
  0
LINE
  5
62B
100
AcDbEntity
  8
218140080
100
AcDbLine
 62
7
  6
CONTINUOUS
 10
0.7124668623
 20
13.6167777564
 11
0.4310235832
 21
13.8982639071
  0
LINE
  5
62C
100
AcDbEntity
  8
218140080
100
AcDbLine
 62
7
  6
CONTINUOUS
 10
0.098015073
 20
14.2313231439
 11
-0.3837711367
 21
14.7131827431
  0
LINE
  5
62D
100
AcDbEntity
  8
218140080
100
AcDbLine
 62
7
  6
CONTINUOUS
 10
-0.6067452692
 20
14.9361908409
 11
-1.0556769583
 21
15.3851909148
  0
LINE
  5
62E
100
AcDbEntity
  8
218140080
100
AcDbLine
 62
7
  6
CONTINUOUS
 10
0.7124668623
 20
13.684846178
 11
0.5362197227
 21
13.8611201649
  0
LINE
  5
62F
100
AcDbEntity
  8
218140080
100
AcDbLine
 62
7
  6
CONTINUOUS
 10
0.098015073
 20
14.2993915655
 11
-0.3837711367
 21
14.7812511648
  0
LINE
  5
630
100
AcDbEntity
  8
218140080
100
AcDbLine
 62
7
  6
CONTINUOUS
 10
-0.5552413497
 20
14.9527474975
 11
-1.005176104
 21
15.4027507895
  0
LINE
  5
631
100
AcDbEntity
  8
218140080
100
AcDbLine
 62
7
  6
CONTINUOUS
 10
0.7124668623
 20
13.7529145997
 11
0.6414158623
 21
13.8239764228
  0
LINE
  5
632
100
AcDbEntity
  8
218140080
100
AcDbLine
 62
7
  6
CONTINUOUS
 10
0.098015073
 20
14.3674599872
 11
-0.3837711367
 21
14.8493195865
  0
LINE
  5
633
100
AcDbEntity
  8
218140080
100
AcDbLine
 62
7
  6
CONTINUOUS
 10
-0.5037374301
 20
14.9693041541
 11
-0.9546752498
 21
15.4203106642
  0
LINE
  5
634
100
AcDbEntity
  8
218140080
100
AcDbLine
 62
7
  6
CONTINUOUS
 10
0.098015073
 20
14.4355284089
 11
-0.3837711367
 21
14.9173880082
  0
LINE
  5
635
100
AcDbEntity
  8
218140080
100
AcDbLine
 62
7
  6
CONTINUOUS
 10
-0.4522335105
 20
14.9858608107
 11
-0.9041743955
 21
15.437870539
  0
LINE
  5
636
100
AcDbEntity
  8
218140080
100
AcDbLine
 62
7
  6
CONTINUOUS
 10
0.098015073
 20
14.5035968306
 11
-0.3837711367
 21
14.9854564299
  0
LINE
  5
637
100
AcDbEntity
  8
218140080
100
AcDbLine
 62
7
  6
CONTINUOUS
 10
-0.4007295909
 20
15.0024174673
 11
-0.8536735413
 21
15.4554304137
  0
LINE
  5
638
100
AcDbEntity
  8
218140080
100
AcDbLine
 62
7
  6
CONTINUOUS
 10
0.098015073
 20
14.5716652523
 11
-0.803172687
 21
15.4729902885
  0
LINE
  5
639
100
AcDbEntity
  8
218140080
100
AcDbLine
 62
7
  6
CONTINUOUS
 10
0.098015073
 20
14.639733674
 11
-0.7526718328
 21
15.4905501632
  0
LINE
  5
63A
100
AcDbEntity
  8
218140080
100
AcDbLine
 62
7
  6
CONTINUOUS
 10
0.098015073
 20
14.7078020957
 11
-0.7021709785
 21
15.5081100379
  0
LINE
  5
63B
100
AcDbEntity
  8
218140080
100
AcDbLine
 62
7
  6
CONTINUOUS
 10
0.098015073
 20
14.7758705173
 11
-0.6516701242
 21
15.5256699127
  0
LINE
  5
63C
100
AcDbEntity
  8
218140080
100
AcDbLine
 62
7
  6
CONTINUOUS
 10
0.098015073
 20
14.843938939
 11
-0.60116927
 21
15.5432297874
  0
LINE
  5
63D
100
AcDbEntity
  8
218140080
100
AcDbLine
 62
7
  6
CONTINUOUS
 10
0.098015073
 20
14.9120073607
 11
-0.5506684157
 21
15.5607896621
  0
LWPOLYLINE
  5
63E
100
AcDbEntity
  8
0
100
AcDbPolyline
 62
7
  6
CONTINUOUS
 90
5
 70
0
 10
-11.8278378451
 20
-17.6191581274
 10
-11.8249140383
 20
-17.6177573649
 10
-11.8070238076
 20
-17.6070950064
 10
-11.7909566301
 20
-17.5955401645
 10
-11.7875331377
 20
-17.5926420702
  0
LINE
  5
63F
100
AcDbEntity
  8
218140080
100
AcDbLine
 62
250
  6
CONTINUOUS
 10
-1.1993996316
 20
-11.430963
 11
0.7124598644
 21
-10.882587
  0
LINE
  5
640
100
AcDbEntity
  8
218140080
100
AcDbLine
 62
250
  6
CONTINUOUS
 10
4.2124668623
 20
10.7190476298
 11
3.2626115519
 21
10.7190476298
  0
LINE
  5
641
100
AcDbEntity
  8
218140080
100
AcDbLine
 62
250
  6
CONTINUOUS
 10
-1.7138978747
 20
10.87477
 11
0.7124668623
 21
10.87477
  0
LINE
  5
642
100
AcDbEntity
  8
218140080
100
AcDbLine
 62
250
  6
CONTINUOUS
 10
3.6696923749
 20
11.5785713315
 11
2.8555306722
 21
11.5785713315
  0
LINE
  5
643
100
AcDbEntity
  8
218140080
100
AcDbLine
 62
250
  6
CONTINUOUS
 10
0.1107631889
 20
12.328754
 11
-2.1866508366
 21
12.328754
  0
LINE
  5
644
100
AcDbEntity
  8
218140080
100
AcDbLine
 62
250
  6
CONTINUOUS
 10
2.8555306722
 20
12.5285713315
 11
3.6696923749
 21
12.5285713315
  0
LINE
  5
645
100
AcDbEntity
  8
218140080
100
AcDbLine
 62
250
  6
CONTINUOUS
 10
3.8053860109
 20
10.0857143342
 11
2.3127562415
 21
10.4928571105
  0
LINE
  5
646
100
AcDbEntity
  8
218140080
100
AcDbLine
 62
250
  6
CONTINUOUS
 10
-2.1866508366
 20
14.252884
 11
0.7124668623
 21
13.20444
  0
LINE
  5
647
100
AcDbEntity
  8
218140080
100
AcDbLine
 62
250
  6
CONTINUOUS
 10
2.8555306722
 20
11.5785713315
 11
2.5841434568
 21
11.714285779
  0
LINE
  5
648
100
AcDbEntity
  8
218140080
100
AcDbLine
 62
7
  6
CONTINUOUS
 10
0.098015073
 20
14.9800757824
 11
-0.5001675615
 21
15.5783495369
  0
LINE
  5
649
100
AcDbEntity
  8
218140080
100
AcDbLine
 62
7
  6
CONTINUOUS
 10
0.098015073
 20
15.0481442041
 11
-0.4496667072
 21
15.5959094116
  0
LINE
  5
64A
100
AcDbEntity
  8
218140080
100
AcDbLine
 62
7
  6
CONTINUOUS
 10
0.098015073
 20
15.1162126258
 11
-0.399165853
 21
15.6134692864
  0
LINE
  5
64B
100
AcDbEntity
  8
218140080
100
AcDbLine
 62
7
  6
CONTINUOUS
 10
0.112711328
 20
15.1695825538
 11
-0.3486649987
 21
15.6310291611
  0
LINE
  5
64C
100
AcDbEntity
  8
218140080
100
AcDbLine
 62
7
  6
CONTINUOUS
 10
0.1634981723
 20
15.1868563949
 11
-0.2981641445
 21
15.6485890358
  0
LINE
  5
64D
100
AcDbEntity
  8
218140080
100
AcDbLine
 62
7
  6
CONTINUOUS
 10
0.2142850166
 20
15.2041302361
 11
-0.2476632902
 21
15.6661489106
  0
LINE
  5
64E
100
AcDbEntity
  8
218140080
100
AcDbLine
 62
7
  6
CONTINUOUS
 10
0.2650718609
 20
15.2214040772
 11
-0.197162436
 21
15.6837087853
  0
LINE
  5
64F
100
AcDbEntity
  8
218140080
100
AcDbLine
 62
7
  6
CONTINUOUS
 10
0.3158587052
 20
15.2386779183
 11
-0.1466615817
 21
15.70126866
  0
LINE
  5
650
100
AcDbEntity
  8
218140080
100
AcDbLine
 62
7
  6
CONTINUOUS
 10
0.3666455495
 20
15.2559517595
 11
-0.0961607275
 21
15.7188285348
  0
LINE
  5
651
100
AcDbEntity
  8
218140080
100
AcDbLine
 62
7
  6
CONTINUOUS
 10
0.4174323938
 20
15.2732256006
 11
-0.0456598732
 21
15.7363884095
  0
LINE
  5
652
100
AcDbEntity
  8
218140080
100
AcDbLine
 62
7
  6
CONTINUOUS
 10
0.4682192381
 20
15.2904994417
 11
0.004840981
 21
15.7539482843
  0
LINE
  5
653
100
AcDbEntity
  8
218140080
100
AcDbLine
 62
250
  6
CONTINUOUS
 10
2.5841434568
 20
13.207142663
 11
2.3127562415
 21
13.478571558
  0
LINE
  5
654
100
AcDbEntity
  8
218140080
100
AcDbLine
 62
7
  6
CONTINUOUS
 10
0.5190060824
 20
15.3077732828
 11
0.0553418353
 21
15.771508159
  0
LINE
  5
655
100
AcDbEntity
  8
218140080
100
AcDbLine
 62
7
  6
CONTINUOUS
 10
0.5697929267
 20
15.325047124
 11
0.1058426895
 21
15.7890680337
  0
LINE
  5
656
100
AcDbEntity
  8
218140080
100
AcDbLine
 62
7
  6
CONTINUOUS
 10
0.620579771
 20
15.3423209651
 11
0.1563435438
 21
15.8066279085
  0
LINE
  5
657
100
AcDbEntity
  8
218140080
100
AcDbLine
 62
7
  6
CONTINUOUS
 10
0.6713666153
 20
15.3595948062
 11
0.206844398
 21
15.8241877832
  0
LINE
  5
658
100
AcDbEntity
  8
218140080
100
AcDbLine
 62
7
  6
CONTINUOUS
 10
0.7124668623
 20
15.3865567202
 11
0.2573452523
 21
15.8417476579
  0
LINE
  5
659
100
AcDbEntity
  8
218140080
100
AcDbLine
 62
7
  6
CONTINUOUS
 10
0.7124668623
 20
15.4546251419
 11
0.3078461065
 21
15.8593075327
  0
LINE
  5
65A
100
AcDbEntity
  8
218140080
100
AcDbLine
 62
7
  6
CONTINUOUS
 10
0.7124668623
 20
15.5226935636
 11
0.3583469608
 21
15.8768674074
  0
LINE
  5
65B
100
AcDbEntity
  8
218140080
100
AcDbLine
 62
7
  6
CONTINUOUS
 10
0.7124668623
 20
15.5907619853
 11
0.4088478151
 21
15.8944272822
  0
LINE
  5
65C
100
AcDbEntity
  8
218140080
100
AcDbLine
 62
250
  6
CONTINUOUS
 10
3.9410796186
 20
12.3928571105
 11
4.2124668623
 21
12.1214286685
  0
LINE
  5
65D
100
AcDbEntity
  8
218140080
100
AcDbLine
 62
7
  6
CONTINUOUS
 10
0.7124668623
 20
15.6588304069
 11
0.4593486693
 21
15.9119871569
  0
LINE
  5
65E
100
AcDbEntity
  8
218140080
100
AcDbLine
 62
7
  6
CONTINUOUS
 10
0.7124668623
 20
15.7268988286
 11
0.5098495236
 21
15.9295470316
  0
LINE
  5
65F
100
AcDbEntity
  8
218140080
100
AcDbLine
 62
7
  6
CONTINUOUS
 10
0.7124668623
 20
15.7949672503
 11
0.5603503778
 21
15.9471069064
  0
LINE
  5
660
100
AcDbEntity
  8
218140080
100
AcDbLine
 62
7
  6
CONTINUOUS
 10
0.7124668623
 20
15.863035672
 11
0.6108512321
 21
15.9646667811
  0
LINE
  5
661
100
AcDbEntity
  8
218140080
100
AcDbLine
 62
7
  6
CONTINUOUS
 10
0.7124668623
 20
15.9311040937
 11
0.6613520863
 21
15.9822266558
  0
LINE
  5
662
100
AcDbEntity
  8
218140080
100
AcDbLine
 62
7
  6
CONTINUOUS
 10
0.7124668623
 20
15.9991725154
 11
0.7118529406
 21
15.9997865306
  0
LINE
  5
663
100
AcDbEntity
  8
218140080
100
AcDbLine
 62
250
  6
CONTINUOUS
 10
3.9410796186
 20
13.885714221
 11
4.2124668623
 21
13.614285779
  0
LINE
  5
664
100
AcDbEntity
  8
218140080
100
AcDbLine
 62
250
  6
CONTINUOUS
 10
2.9912243365
 20
15.4238094807
 11
3.1269178876
 21
15.242857337
  0
LWPOLYLINE
  5
665
100
AcDbEntity
  8
218140000
100
AcDbPolyline
 62
250
  6
CONTINUOUS
 90
3
 70
0
 10
16.9852898762
 20
-11.7321051327
 10
16.9983679263
 20
-11.7710055665
 10
17.011891168
 20
-11.81267127
  0
LWPOLYLINE
  5
666
100
AcDbEntity
  8
218140080
100
AcDbPolyline
 62
250
  6
CONTINUOUS
 90
3
 70
0
 10
16.9852898762
 20
-11.7321051327
 10
16.9983679263
 20
-11.7710055665
 10
17.011891168
 20
-11.81267127
  0
LWPOLYLINE
  5
667
100
AcDbEntity
  8
268
100
AcDbPolyline
 62
7
  6
CONTINUOUS
 90
4
 70
0
 10
5.2124668623
 20
-20.9000456915
 10
5.2121151657
 20
-20.9007135843
 10
5.2110841569
 20
-20.9019806822
 10
5.2094105562
 20
-20.9038469852
  0
LINE
  5
668
100
AcDbEntity
  8
218140080
100
AcDbLine
 62
250
  6
CONTINUOUS
 10
3.2124668623
 20
-13.259776
 11
1.9128628247
 21
-13.83011
  0
LINE
  5
669
100
AcDbEntity
  8
218140080
100
AcDbLine
 62
250
  6
CONTINUOUS
 10
-0.1904990227
 20
-14.778839
 11
-2.1867877949
 21
-15.419971
  0
LINE
  5
66A
100
AcDbEntity
  8
218140080
100
AcDbLine
 62
250
  6
CONTINUOUS
 10
-2.1867877949
 20
-16.0
 11
0.7124668623
 21
-15.068868
  0
LINE
  5
66B
100
AcDbEntity
  8
218140080
100
AcDbLine
 62
250
  6
CONTINUOUS
 10
-2.1866508366
 20
12.911198
 11
0.7124668623
 21
12.911198
  0
LINE
  5
66C
100
AcDbEntity
  8
218140080
100
AcDbLine
 62
250
  6
CONTINUOUS
 10
3.6696923749
 20
13.071428442
 11
2.8555306722
 21
13.071428442
  0
LINE
  5
66D
100
AcDbEntity
  8
218140080
100
AcDbLine
 62
250
  6
CONTINUOUS
 10
2.8555306722
 20
14.021428442
 11
3.6696923749
 21
14.021428442
  0
LINE
  5
66E
100
AcDbEntity
  8
218140080
100
AcDbLine
 62
250
  6
CONTINUOUS
 10
3.9410796186
 20
14.564285779
 11
3.3983051595
 21
14.564285779
  0
LINE
  5
66F
100
AcDbEntity
  8
218140080
100
AcDbLine
 62
250
  6
CONTINUOUS
 10
2.9912243365
 20
14.6547620773
 11
2.5841434568
 21
14.6547620773
  0
LINE
  5
670
100
AcDbEntity
  8
218140080
100
AcDbLine
 62
250
  6
CONTINUOUS
 10
-0.3837711367
 20
14.176491
 11
-1.6324956762
 21
14.606449
  0
LINE
  5
671
100
AcDbEntity
  8
218140080
100
AcDbLine
 62
250
  6
CONTINUOUS
 10
0.7124668623
 20
13.798889
 11
0.098015073
 21
14.015846
  0
LINE
  5
672
100
AcDbEntity
  8
218140080
100
AcDbLine
 62
250
  6
CONTINUOUS
 10
3.6696923749
 20
12.5285713315
 11
3.9410796186
 21
12.3928571105
  0
LINE
  5
673
100
AcDbEntity
  8
218140080
100
AcDbLine
 62
250
  6
CONTINUOUS
 10
2.8555306722
 20
13.071428442
 11
2.5841434568
 21
13.207142663
  0
LINE
  5
674
100
AcDbEntity
  8
218140080
100
AcDbLine
 62
250
  6
CONTINUOUS
 10
3.6696923749
 20
14.021428442
 11
3.9410796186
 21
13.885714221
  0
LINE
  5
675
100
AcDbEntity
  8
218140080
100
AcDbLine
 62
250
  6
CONTINUOUS
 10
2.5841434568
 20
14.6547620773
 11
2.3127562415
 21
14.835714221
  0
LINE
  5
676
100
AcDbEntity
  8
218140080
100
AcDbLine
 62
250
  6
CONTINUOUS
 10
3.3983051595
 20
14.564285779
 11
3.1269178876
 21
14.835714221
  0
LINE
  5
677
100
AcDbEntity
  8
218140080
100
AcDbLine
 62
250
  6
CONTINUOUS
 10
3.9410796186
 20
15.514285779
 11
4.2124668623
 21
15.242857337
  0
LWPOLYLINE
  5
678
100
AcDbEntity
  8
268
100
AcDbPolyline
 62
7
  6
CONTINUOUS
 90
5
 70
0
 10
5.2124668623
 20
20.9000456915
 10
5.2121151657
 20
20.9007135843
 10
5.2110841569
 20
20.9019806822
 10
5.2094105562
 20
20.9038469852
 10
5.2042862675
 20
20.9094512519
  0
LWPOLYLINE
  5
679
100
AcDbEntity
  8
218140000
100
AcDbPolyline
 62
250
  6
CONTINUOUS
 90
4
 70
0
 10
16.9100970212
 20
-18.3279119434
 10
16.9088883605
 20
-18.3093609676
 10
16.9077857685
 20
-18.2877589853
 10
16.9069200731
 20
-18.2631133422
  0
LWPOLYLINE
  5
67A
100
AcDbEntity
  8
218140080
100
AcDbPolyline
 62
250
  6
CONTINUOUS
 90
4
 70
0
 10
16.9100970212
 20
-18.3279119434
 10
16.9088883605
 20
-18.3093609676
 10
16.9077857685
 20
-18.2877589853
 10
16.9069200731
 20
-18.2631133422
  0
LWPOLYLINE
  5
67B
100
AcDbEntity
  8
218140000
100
AcDbPolyline
 62
7
  6
CONTINUOUS
 90
4
 70
0
 10
16.9112897759
 20
-18.335125166
 10
16.9093804821
 20
-18.3022140502
 10
16.9084332099
 20
-18.2817787859
 10
16.9076425662
 20
-18.2578996437
  0
LWPOLYLINE
  5
67C
100
AcDbEntity
  8
218140080
100
AcDbPolyline
 62
7
  6
CONTINUOUS
 90
4
 70
0
 10
16.9112897759
 20
-18.335125166
 10
16.9093804821
 20
-18.3022140502
 10
16.9084332099
 20
-18.2817787859
 10
16.9076425662
 20
-18.2578996437
  0
LINE
  5
67D
100
AcDbEntity
  8
218140000
100
AcDbLine
 62
7
  6
CONTINUOUS
 10
16.9120473302
 20
-18.3494386169
 11
16.9112897759
 21
-18.335125166
  0
LINE
  5
67E
100
AcDbEntity
  8
218140080
100
AcDbLine
 62
7
  6
CONTINUOUS
 10
16.9120473302
 20
-18.3494386169
 11
16.9112897759
 21
-18.335125166
  0
LWPOLYLINE
  5
67F
100
AcDbEntity
  8
218140000
100
AcDbPolyline
 62
250
  6
CONTINUOUS
 90
10
 70
0
 10
16.9124725883
 20
-11.4641665401
 10
16.9133140564
 20
-11.4833199097
 10
16.9158161524
 20
-11.5039907564
 10
16.9199306148
 20
-11.5261440235
 10
16.9256017964
 20
-11.5496798513
 10
16.9327324379
 20
-11.5747081848
 10
16.941168691
 20
-11.6016274417
 10
16.9507283059
 20
-11.6307405105
 10
16.9613087613
 20
-11.6621200975
 10
16.9852898762
 20
-11.7321051327
  0
LWPOLYLINE
  5
680
100
AcDbEntity
  8
218140080
100
AcDbPolyline
 62
250
  6
CONTINUOUS
 90
10
 70
0
 10
16.9124725883
 20
-11.4641665401
 10
16.9133140564
 20
-11.4833199097
 10
16.9158161524
 20
-11.5039907564
 10
16.9199306148
 20
-11.5261440235
 10
16.9256017964
 20
-11.5496798513
 10
16.9327324379
 20
-11.5747081848
 10
16.941168691
 20
-11.6016274417
 10
16.9507283059
 20
-11.6307405105
 10
16.9613087613
 20
-11.6621200975
 10
16.9852898762
 20
-11.7321051327
  0
LINE
  5
681
100
AcDbEntity
  8
218140000
100
AcDbLine
 62
250
  6
CONTINUOUS
 10
17.0118907898
 20
-11.8126704697
 11
17.0103863949
 21
-11.7794017736
  0
LINE
  5
682
100
AcDbEntity
  8
218140080
100
AcDbLine
 62
250
  6
CONTINUOUS
 10
17.0118907898
 20
-11.8126704697
 11
17.0103863949
 21
-11.7794017736
  0
LWPOLYLINE
  5
683
100
AcDbEntity
  8
218140000
100
AcDbPolyline
 62
250
  6
CONTINUOUS
 90
3
 70
0
 10
16.9124528403
 20
-18.3636727256
 10
16.9121145163
 20
-18.3558376367
 10
16.9100970212
 20
-18.3279119434
  0
LWPOLYLINE
  5
684
100
AcDbEntity
  8
218140080
100
AcDbPolyline
 62
250
  6
CONTINUOUS
 90
3
 70
0
 10
16.9124528403
 20
-18.3636727256
 10
16.9121145163
 20
-18.3558376367
 10
16.9100970212
 20
-18.3279119434
  0
LINE
  5
685
100
AcDbEntity
  8
218140000
100
AcDbLine
 62
250
  6
CONTINUOUS
 10
17.0103863949
 20
-11.7794017736
 11
17.0074064
 21
-11.7073349914
  0
LINE
  5
686
100
AcDbEntity
  8
218140080
100
AcDbLine
 62
250
  6
CONTINUOUS
 10
17.0103863949
 20
-11.7794017736
 11
17.0074064
 21
-11.7073349914
  0
LINE
  5
687
100
AcDbEntity
  8
218140000
100
AcDbLine
 62
250
  6
CONTINUOUS
 10
17.0074064
 20
-11.7073349914
 11
17.0052300649
 21
-11.6506085069
  0
LINE
  5
688
100
AcDbEntity
  8
218140080
100
AcDbLine
 62
250
  6
CONTINUOUS
 10
17.0074064
 20
-11.7073349914
 11
17.0052300649
 21
-11.6506085069
  0
LINE
  5
689
100
AcDbEntity
  8
218140000
100
AcDbLine
 62
250
  6
CONTINUOUS
 10
17.0052300649
 20
-11.6506085069
 11
17.0032883359
 21
-11.5961022116
  0
LINE
  5
68A
100
AcDbEntity
  8
218140080
100
AcDbLine
 62
250
  6
CONTINUOUS
 10
17.0052300649
 20
-11.6506085069
 11
17.0032883359
 21
-11.5961022116
  0
LINE
  5
68B
100
AcDbEntity
  8
218140000
100
AcDbLine
 62
250
  6
CONTINUOUS
 10
17.0032883359
 20
-11.5961022116
 11
17.0014113745
 21
-11.5384929869
  0
LINE
  5
68C
100
AcDbEntity
  8
218140080
100
AcDbLine
 62
250
  6
CONTINUOUS
 10
17.0032883359
 20
-11.5961022116
 11
17.0014113745
 21
-11.5384929869
  0
LINE
  5
68D
100
AcDbEntity
  8
218140000
100
AcDbLine
 62
7
  6
CONTINUOUS
 10
16.9124467049
 20
-18.3636054105
 11
16.9120473302
 21
-18.3494386169
  0
LINE
  5
68E
100
AcDbEntity
  8
218140080
100
AcDbLine
 62
7
  6
CONTINUOUS
 10
16.9124467049
 20
-18.3636054105
 11
16.9120473302
 21
-18.3494386169
  0
LINE
  5
68F
100
AcDbEntity
  8
218140000
100
AcDbLine
 62
250
  6
CONTINUOUS
 10
17.0014113745
 20
-11.5384929869
 11
17.0008684754
 21
-11.5200983441
  0
LINE
  5
690
100
AcDbEntity
  8
218140080
100
AcDbLine
 62
250
  6
CONTINUOUS
 10
17.0014113745
 20
-11.5384929869
 11
17.0008684754
 21
-11.5200983441
  0
LINE
  5
691
100
AcDbEntity
  8
218140000
100
AcDbLine
 62
250
  6
CONTINUOUS
 10
16.9069200731
 20
-18.2631133422
 11
16.906202717
 21
-18.2335157491
  0
LINE
  5
692
100
AcDbEntity
  8
218140080
100
AcDbLine
 62
250
  6
CONTINUOUS
 10
16.9069200731
 20
-18.2631133422
 11
16.906202717
 21
-18.2335157491
  0
LINE
  5
693
100
AcDbEntity
  8
218140000
100
AcDbLine
 62
7
  6
CONTINUOUS
 10
16.9076425662
 20
-18.2578996437
 11
16.907107437
 21
-18.2351778749
  0
LINE
  5
694
100
AcDbEntity
  8
218140080
100
AcDbLine
 62
7
  6
CONTINUOUS
 10
16.9076425662
 20
-18.2578996437
 11
16.907107437
 21
-18.2351778749
  0
LINE
  5
695
100
AcDbEntity
  8
218140000
100
AcDbLine
 62
250
  6
CONTINUOUS
 10
17.0008684754
 20
-11.5200983441
 11
17.0006284726
 21
-11.5089401544
  0
LINE
  5
696
100
AcDbEntity
  8
218140080
100
AcDbLine
 62
250
  6
CONTINUOUS
 10
17.0008684754
 20
-11.5200983441
 11
17.0006284726
 21
-11.5089401544
  0
LWPOLYLINE
  5
697
100
AcDbEntity
  8
218140000
100
AcDbPolyline
 62
250
  6
CONTINUOUS
 90
3
 70
0
 10
16.906202717
 20
-18.2335157491
 10
16.9055856327
 20
-18.2010239393
 10
16.9050884559
 20
-18.1658770239
  0
LWPOLYLINE
  5
698
100
AcDbEntity
  8
218140080
100
AcDbPolyline
 62
250
  6
CONTINUOUS
 90
3
 70
0
 10
16.906202717
 20
-18.2335157491
 10
16.9055856327
 20
-18.2010239393
 10
16.9050884559
 20
-18.1658770239
  0
LINE
  5
699
100
AcDbEntity
  8
218140000
100
AcDbLine
 62
7
  6
CONTINUOUS
 10
16.907107437
 20
-18.2351778749
 11
16.9063817863
 21
-18.1947416039
  0
LINE
  5
69A
100
AcDbEntity
  8
218140080
100
AcDbLine
 62
7
  6
CONTINUOUS
 10
16.907107437
 20
-18.2351778749
 11
16.9063817863
 21
-18.1947416039
  0
LWPOLYLINE
  5
69B
100
AcDbEntity
  8
218140000
100
AcDbPolyline
 62
7
  6
CONTINUOUS
 90
9
 70
0
 10
16.9063817863
 20
-18.1947416039
 10
16.9058280959
 20
-18.150053911
 10
16.9054716385
 20
-18.1015519539
 10
16.9053373156
 20
-18.0496929883
 10
16.9054341564
 20
-17.9949433827
 10
16.9057592801
 20
-17.9378481161
 10
16.90629848
 20
-17.879010787
 10
16.907017875
 20
-17.8190174252
 10
16.9078918645
 20
-17.7536075464
  0
LWPOLYLINE
  5
69C
100
AcDbEntity
  8
218140080
100
AcDbPolyline
 62
7
  6
CONTINUOUS
 90
9
 70
0
 10
16.9063817863
 20
-18.1947416039
 10
16.9058280959
 20
-18.150053911
 10
16.9054716385
 20
-18.1015519539
 10
16.9053373156
 20
-18.0496929883
 10
16.9054341564
 20
-17.9949433827
 10
16.9057592801
 20
-17.9378481161
 10
16.90629848
 20
-17.879010787
 10
16.907017875
 20
-17.8190174252
 10
16.9078918645
 20
-17.7536075464
  0
LWPOLYLINE
  5
69D
100
AcDbEntity
  8
218140000
100
AcDbPolyline
 62
250
  6
CONTINUOUS
 90
10
 70
0
 10
16.9050884559
 20
-18.1658770239
 10
16.9047258286
 20
-18.1283579658
 10
16.904508994
 20
-18.0887158128
 10
16.9044458776
 20
-18.047157251
 10
16.904544994
 20
-18.0037166235
 10
16.9047967629
 20
-17.9589581879
 10
16.9051761086
 20
-17.9139123666
 10
16.9056672842
 20
-17.8691423343
 10
16.9062628974
 20
-17.8247236526
 10
16.9069459786
 20
-17.7809533384
  0
LWPOLYLINE
  5
69E
100
AcDbEntity
  8
218140080
100
AcDbPolyline
 62
250
  6
CONTINUOUS
 90
10
 70
0
 10
16.9050884559
 20
-18.1658770239
 10
16.9047258286
 20
-18.1283579658
 10
16.904508994
 20
-18.0887158128
 10
16.9044458776
 20
-18.047157251
 10
16.904544994
 20
-18.0037166235
 10
16.9047967629
 20
-17.9589581879
 10
16.9051761086
 20
-17.9139123666
 10
16.9056672842
 20
-17.8691423343
 10
16.9062628974
 20
-17.8247236526
 10
16.9069459786
 20
-17.7809533384
  0
LINE
  5
69F
100
AcDbEntity
  8
218140000
100
AcDbLine
 62
250
  6
CONTINUOUS
 10
16.9124668623
 20
-18.3652111598
 11
16.9124528403
 21
-18.3636727256
  0
LINE
  5
6A0
100
AcDbEntity
  8
218140080
100
AcDbLine
 62
250
  6
CONTINUOUS
 10
16.9124668623
 20
-18.3652111598
 11
16.9124528403
 21
-18.3636727256
  0
LINE
  5
6A1
100
AcDbEntity
  8
218140000
100
AcDbLine
 62
250
  6
CONTINUOUS
 10
16.028174028
 20
19.422190298
 11
16.028174028
 21
13.0817625912
  0
LINE
  5
6A2
100
AcDbEntity
  8
218140080
100
AcDbLine
 62
250
  6
CONTINUOUS
 10
16.028174028
 20
19.422190298
 11
16.028174028
 21
13.0817625912
  0
LINE
  5
6A3
100
AcDbEntity
  8
218140000
100
AcDbLine
 62
250
  6
CONTINUOUS
 10
16.028174028
 20
-19.422190298
 11
16.028174028
 21
11.1182374088
  0
LINE
  5
6A4
100
AcDbEntity
  8
218140080
100
AcDbLine
 62
250
  6
CONTINUOUS
 10
16.028174028
 20
-19.422190298
 11
16.028174028
 21
11.1182374088
  0
LINE
  5
6A5
100
AcDbEntity
  8
218140000
100
AcDbLine
 62
7
  6
CONTINUOUS
 10
16.9094575438
 20
5.7360908775
 11
16.9117402513
 21
5.8364858163
  0
LINE
  5
6A6
100
AcDbEntity
  8
218140080
100
AcDbLine
 62
7
  6
CONTINUOUS
 10
16.9094575438
 20
5.7360908775
 11
16.9117402513
 21
5.8364858163
  0
LWPOLYLINE
  5
6A7
100
AcDbEntity
  8
218140000
100
AcDbPolyline
 62
250
  6
CONTINUOUS
 90
46
 70
0
 10
16.9124668623
 20
14.7122867089
 10
16.910489458
 20
14.6446325732
 10
16.9049504901
 20
14.5781550724
 10
16.896425365
 20
14.5128542066
 10
16.8855226631
 20
14.4486265379
 10
16.8727309051
 20
14.3855755042
 10
16.8582940402
 20
14.3240114193
 10
16.8425431562
 20
14.2640029118
 10
16.8258346493
 20
14.2054813531
 10
16.8082463652
 20
14.1485511709
 10
16.7900118121
 20
14.093309801
 10
16.7713542304
 20
14.0396598075
 10
16.7522004803
 20
13.9874133108
 10
16.7326720811
 20
13.9365671041
 10
16.712930991
 20
13.8871243941
 10
16.6928709612
 20
13.8389069218
 10
16.6725503269
 20
13.7918611189
 10
16.6520921783
 20
13.7460405536
 10
16.6314348514
 20
13.7014276709
 10
16.6106258361
 20
13.6579937123
 10
16.5897470063
 20
13.6157674362
 10
16.5687614053
 20
13.5748175639
 10
16.5477219173
 20
13.535150146
 10
16.5266738571
 20
13.4967591317
 10
16.5055510249
 20
13.4596950903
 10
16.4843999703
 20
13.4239615143
 10
16.4632466058
 20
13.3895549112
 10
16.4419774933
 20
13.3565153725
 10
16.4206139378
 20
13.3248072268
 10
16.3991849945
 20
13.2944661454
 10
16.3775751649
 20
13.2656392336
 10
16.3557902712
 20
13.2382733552
 10
16.3338608205
 20
13.2124216463
 10
16.3116993928
 20
13.1883906198
 10
16.2893138624
 20
13.1661395976
 10
16.2667262939
 20
13.1457092578
 10
16.243865504
 20
13.1275281478
 10
16.2207205437
 20
13.1115785064
 10
16.1973300771
 20
13.0978780946
 10
16.1736957978
 20
13.0869087434
 10
16.1498085966
 20
13.078743877
 10
16.1257082735
 20
13.0733100711
 10
16.1014711761
 20
13.0708688838
 10
16.0771346635
 20
13.071507501
 10
16.05269634
 20
13.0751387368
 10
16.028174028
 20
13.0817625912
  0
LWPOLYLINE
  5
6A8
100
AcDbEntity
  8
218140080
100
AcDbPolyline
 62
250
  6
CONTINUOUS
 90
46
 70
0
 10
16.9124668623
 20
14.7122867089
 10
16.910489458
 20
14.6446325732
 10
16.9049504901
 20
14.5781550724
 10
16.896425365
 20
14.5128542066
 10
16.8855226631
 20
14.4486265379
 10
16.8727309051
 20
14.3855755042
 10
16.8582940402
 20
14.3240114193
 10
16.8425431562
 20
14.2640029118
 10
16.8258346493
 20
14.2054813531
 10
16.8082463652
 20
14.1485511709
 10
16.7900118121
 20
14.093309801
 10
16.7713542304
 20
14.0396598075
 10
16.7522004803
 20
13.9874133108
 10
16.7326720811
 20
13.9365671041
 10
16.712930991
 20
13.8871243941
 10
16.6928709612
 20
13.8389069218
 10
16.6725503269
 20
13.7918611189
 10
16.6520921783
 20
13.7460405536
 10
16.6314348514
 20
13.7014276709
 10
16.6106258361
 20
13.6579937123
 10
16.5897470063
 20
13.6157674362
 10
16.5687614053
 20
13.5748175639
 10
16.5477219173
 20
13.535150146
 10
16.5266738571
 20
13.4967591317
 10
16.5055510249
 20
13.4596950903
 10
16.4843999703
 20
13.4239615143
 10
16.4632466058
 20
13.3895549112
 10
16.4419774933
 20
13.3565153725
 10
16.4206139378
 20
13.3248072268
 10
16.3991849945
 20
13.2944661454
 10
16.3775751649
 20
13.2656392336
 10
16.3557902712
 20
13.2382733552
 10
16.3338608205
 20
13.2124216463
 10
16.3116993928
 20
13.1883906198
 10
16.2893138624
 20
13.1661395976
 10
16.2667262939
 20
13.1457092578
 10
16.243865504
 20
13.1275281478
 10
16.2207205437
 20
13.1115785064
 10
16.1973300771
 20
13.0978780946
 10
16.1736957978
 20
13.0869087434
 10
16.1498085966
 20
13.078743877
 10
16.1257082735
 20
13.0733100711
 10
16.1014711761
 20
13.0708688838
 10
16.0771346635
 20
13.071507501
 10
16.05269634
 20
13.0751387368
 10
16.028174028
 20
13.0817625912
  0
LWPOLYLINE
  5
6A9
100
AcDbEntity
  8
218140000
100
AcDbPolyline
 62
250
  6
CONTINUOUS
 90
40
 70
0
 10
17.1863201394
 20
14.4809601509
 10
17.1823534182
 20
14.4189108797
 10
17.1750406863
 20
14.3574143689
 10
17.1643819435
 20
14.2967704768
 10
17.149856486
 20
14.2373912948
 10
17.1319850176
 20
14.1794025786
 10
17.1123296508
 20
14.1226272842
 10
17.0911124629
 20
14.0672682842
 10
17.0681113765
 20
14.0135163648
 10
17.0442222717
 20
13.9611203189
 10
17.0196098266
 20
13.9102599586
 10
16.9941093631
 20
13.86103708
 10
16.9681227271
 20
13.8130287933
 10
16.9417259427
 20
13.7662782754
 10
16.9148429857
 20
13.7209263554
 10
16.8876476296
 20
13.6766521171
 10
16.8601530284
 20
13.633442044
 10
16.8323460281
 20
13.5914347909
 10
16.8043609402
 20
13.5505138545
 10
16.7762077339
 20
13.5106908158
 10
16.7478764399
 20
13.4720497295
 10
16.7194714621
 20
13.4345727196
 10
16.6910226344
 20
13.3982986632
 10
16.6625001228
 20
13.3632657677
 10
16.6339188291
 20
13.329449138
 10
16.6053116697
 20
13.2968731285
 10
16.5766457282
 20
13.2655741086
 10
16.547837157
 20
13.2355400574
 10
16.5188898513
 20
13.2067493124
 10
16.4897999158
 20
13.1792707619
 10
16.460471817
 20
13.1532258409
 10
16.4308972839
 20
13.1285834701
 10
16.4010845875
 20
13.105414554
 10
16.3709630063
 20
13.0839948766
 10
16.3405273545
 20
13.0643047868
 10
16.309782818
 20
13.046399973
 10
16.2786742331
 20
13.0306725809
 10
16.2471832122
 20
13.0172654824
 10
16.2153281431
 20
13.0060689772
 10
16.1831090257
 20
12.9970968487
  0
LWPOLYLINE
  5
6AA
100
AcDbEntity
  8
218140080
100
AcDbPolyline
 62
250
  6
CONTINUOUS
 90
40
 70
0
 10
17.1863201394
 20
14.4809601509
 10
17.1823534182
 20
14.4189108797
 10
17.1750406863
 20
14.3574143689
 10
17.1643819435
 20
14.2967704768
 10
17.149856486
 20
14.2373912948
 10
17.1319850176
 20
14.1794025786
 10
17.1123296508
 20
14.1226272842
 10
17.0911124629
 20
14.0672682842
 10
17.0681113765
 20
14.0135163648
 10
17.0442222717
 20
13.9611203189
 10
17.0196098266
 20
13.9102599586
 10
16.9941093631
 20
13.86103708
 10
16.9681227271
 20
13.8130287933
 10
16.9417259427
 20
13.7662782754
 10
16.9148429857
 20
13.7209263554
 10
16.8876476296
 20
13.6766521171
 10
16.8601530284
 20
13.633442044
 10
16.8323460281
 20
13.5914347909
 10
16.8043609402
 20
13.5505138545
 10
16.7762077339
 20
13.5106908158
 10
16.7478764399
 20
13.4720497295
 10
16.7194714621
 20
13.4345727196
 10
16.6910226344
 20
13.3982986632
 10
16.6625001228
 20
13.3632657677
 10
16.6339188291
 20
13.329449138
 10
16.6053116697
 20
13.2968731285
 10
16.5766457282
 20
13.2655741086
 10
16.547837157
 20
13.2355400574
 10
16.5188898513
 20
13.2067493124
 10
16.4897999158
 20
13.1792707619
 10
16.460471817
 20
13.1532258409
 10
16.4308972839
 20
13.1285834701
 10
16.4010845875
 20
13.105414554
 10
16.3709630063
 20
13.0839948766
 10
16.3405273545
 20
13.0643047868
 10
16.309782818
 20
13.046399973
 10
16.2786742331
 20
13.0306725809
 10
16.2471832122
 20
13.0172654824
 10
16.2153281431
 20
13.0060689772
 10
16.1831090257
 20
12.9970968487
  0
LWPOLYLINE
  5
6AB
100
AcDbEntity
  8
218140000
100
AcDbPolyline
 62
250
  6
CONTINUOUS
 90
13
 70
0
 10
16.9124668623
 20
9.4877132911
 10
16.914756579
 20
9.5163482296
 10
16.9215907478
 20
9.5445459723
 10
16.9328650039
 20
9.571876096
 10
16.9484072051
 20
9.5979214234
 10
16.9679800695
 20
9.6222844058
 10
16.9912848064
 20
9.6445931875
 10
17.0179656525
 20
9.6645072555
 10
17.047615324
 20
9.681722661
 10
17.0797812571
 20
9.6959766616
 10
17.1139724698
 20
9.7070517012
 10
17.1496670464
 20
9.7147787402
 10
17.1863201394
 20
9.7190398496
  0
LWPOLYLINE
  5
6AC
100
AcDbEntity
  8
218140080
100
AcDbPolyline
 62
250
  6
CONTINUOUS
 90
13
 70
0
 10
16.9124668623
 20
9.4877132911
 10
16.914756579
 20
9.5163482296
 10
16.9215907478
 20
9.5445459723
 10
16.9328650039
 20
9.571876096
 10
16.9484072051
 20
9.5979214234
 10
16.9679800695
 20
9.6222844058
 10
16.9912848064
 20
9.6445931875
 10
17.0179656525
 20
9.6645072555
 10
17.047615324
 20
9.681722661
 10
17.0797812571
 20
9.6959766616
 10
17.1139724698
 20
9.7070517012
 10
17.1496670464
 20
9.7147787402
 10
17.1863201394
 20
9.7190398496
  0
LINE
  5
6AD
100
AcDbEntity
  8
218140000
100
AcDbLine
 62
250
  6
CONTINUOUS
 10
17.1863201595
 20
2.6258073976
 11
17.1781805206
 21
2.5958244913
  0
LINE
  5
6AE
100
AcDbEntity
  8
218140080
100
AcDbLine
 62
250
  6
CONTINUOUS
 10
17.1863201595
 20
2.6258073976
 11
17.1781805206
 21
2.5958244913
  0
LINE
  5
6AF
100
AcDbEntity
  8
268
100
AcDbLine
 62
7
  6
CONTINUOUS
 10
-8.1625331377
 20
-23.6278312164
 11
-7.2875331377
 21
-23.1226497308
  0
LINE
  5
6B0
100
AcDbEntity
  8
218140080
100
AcDbLine
 62
250
  6
CONTINUOUS
 10
3.2124668623
 20
-15.197131
 11
1.9128628247
 21
-15.82
  0
LINE
  5
6B1
100
AcDbEntity
  8
218140080
100
AcDbLine
 62
250
  6
CONTINUOUS
 10
2.5841434568
 20
15.4238094807
 11
2.9912243365
 21
15.4238094807
  0
LINE
  5
6B2
100
AcDbEntity
  8
218140080
100
AcDbLine
 62
250
  6
CONTINUOUS
 10
3.3983051595
 20
15.514285779
 11
3.9410796186
 21
15.514285779
  0
LINE
  5
6B3
100
AcDbEntity
  8
218140000
100
AcDbLine
 62
7
  6
CONTINUOUS
 10
16.9124668623
 20
15.6
 11
17.1124668623
 21
15.6
  0
LINE
  5
6B4
100
AcDbEntity
  8
218140080
100
AcDbLine
 62
7
  6
CONTINUOUS
 10
16.9124668623
 20
15.6
 11
17.1124668623
 21
15.6
  0
LINE
  5
6B5
100
AcDbEntity
  8
218140000
100
AcDbLine
 62
7
  6
CONTINUOUS
 10
17.1863201394
 20
15.1760409428
 11
18.9386135851
 21
15.0227351311
  0
LINE
  5
6B6
100
AcDbEntity
  8
218140080
100
AcDbLine
 62
7
  6
CONTINUOUS
 10
17.1863201394
 20
15.1760409428
 11
18.9386135851
 21
15.0227351311
  0
LWPOLYLINE
  5
6B7
100
AcDbEntity
  8
218140000
100
AcDbPolyline
 62
250
  6
CONTINUOUS
 90
37
 70
0
 10
16.1831320588
 20
11.2028950204
 10
16.2175563326
 20
11.1932539642
 10
16.2517067863
 20
11.1809714016
 10
16.2855834198
 20
11.1660653173
 10
16.3192424834
 20
11.1483557265
 10
16.3526277267
 20
11.128067155
 10
16.3855703997
 20
11.1058221068
 10
16.4179593876
 20
11.0817537657
 10
16.449905805
 20
11.0557728492
 10
16.4815742456
 20
11.0281623343
 10
16.5129572198
 20
10.9990310357
 10
16.544062217
 20
10.9683206013
 10
16.5750762994
 20
10.9360640993
 10
16.606053673
 20
10.9023046239
 10
16.6369401316
 20
10.8670648497
 10
16.6677601186
 20
10.8303521621
 10
16.6985478313
 20
10.7922170576
 10
16.7292690723
 20
10.7526928687
 10
16.759845693
 20
10.7117675653
 10
16.7902776697
 20
10.6695619706
 10
16.820565026
 20
10.6260606089
 10
16.8506296837
 20
10.5810609091
 10
16.8804989614
 20
10.5347210964
 10
16.9101455405
 20
10.4870294195
 10
16.9394093872
 20
10.4375611282
 10
16.9684066375
 20
10.3864450879
 10
16.9970211553
 20
10.3337782633
 10
17.0247444989
 20
10.2791410415
 10
17.0517595833
 20
10.2227075539
 10
17.0778834935
 20
10.1646434403
 10
17.1020590424
 20
10.1045852272
 10
17.124591695
 20
10.0424540243
 10
17.1451759864
 20
9.9788444766
 10
17.1618383347
 20
9.9144088166
 10
17.1739208793
 20
9.8495127196
 10
17.1820814809
 20
9.784294288
 10
17.1863201394
 20
9.7190398491
  0
LWPOLYLINE
  5
6B8
100
AcDbEntity
  8
218140080
100
AcDbPolyline
 62
250
  6
CONTINUOUS
 90
37
 70
0
 10
16.1831320588
 20
11.2028950204
 10
16.2175563326
 20
11.1932539642
 10
16.2517067863
 20
11.1809714016
 10
16.2855834198
 20
11.1660653173
 10
16.3192424834
 20
11.1483557265
 10
16.3526277267
 20
11.128067155
 10
16.3855703997
 20
11.1058221068
 10
16.4179593876
 20
11.0817537657
 10
16.449905805
 20
11.0557728492
 10
16.4815742456
 20
11.0281623343
 10
16.5129572198
 20
10.9990310357
 10
16.544062217
 20
10.9683206013
 10
16.5750762994
 20
10.9360640993
 10
16.606053673
 20
10.9023046239
 10
16.6369401316
 20
10.8670648497
 10
16.6677601186
 20
10.8303521621
 10
16.6985478313
 20
10.7922170576
 10
16.7292690723
 20
10.7526928687
 10
16.759845693
 20
10.7117675653
 10
16.7902776697
 20
10.6695619706
 10
16.820565026
 20
10.6260606089
 10
16.8506296837
 20
10.5810609091
 10
16.8804989614
 20
10.5347210964
 10
16.9101455405
 20
10.4870294195
 10
16.9394093872
 20
10.4375611282
 10
16.9684066375
 20
10.3864450879
 10
16.9970211553
 20
10.3337782633
 10
17.0247444989
 20
10.2791410415
 10
17.0517595833
 20
10.2227075539
 10
17.0778834935
 20
10.1646434403
 10
17.1020590424
 20
10.1045852272
 10
17.124591695
 20
10.0424540243
 10
17.1451759864
 20
9.9788444766
 10
17.1618383347
 20
9.9144088166
 10
17.1739208793
 20
9.8495127196
 10
17.1820814809
 20
9.784294288
 10
17.1863201394
 20
9.7190398491
  0
LINE
  5
6B9
100
AcDbEntity
  8
268
100
AcDbLine
 62
7
  6
CONTINUOUS
 10
-7.2875331377
 20
23.1226497308
 11
-8.1625331377
 21
23.6278312164
  0
LINE
  5
6BA
100
AcDbEntity
  8
218140000
100
AcDbLine
 62
250
  6
CONTINUOUS
 10
17.1863201636
 20
0.7741925883
 11
17.1781805191
 21
0.8041755087
  0
LINE
  5
6BB
100
AcDbEntity
  8
218140080
100
AcDbLine
 62
250
  6
CONTINUOUS
 10
17.1863201636
 20
0.7741925883
 11
17.1781805191
 21
0.8041755087
  0
LWPOLYLINE
  5
6BC
100
AcDbEntity
  8
218140000
100
AcDbPolyline
 62
250
  6
CONTINUOUS
 90
13
 70
0
 10
16.9124668623
 20
14.7122867089
 10
16.9147566103
 20
14.683651295
 10
16.9215908548
 20
14.6554531921
 10
16.9328652031
 20
14.6281228242
 10
16.9484074784
 20
14.6020773717
 10
16.9679803773
 20
14.5777143649
 10
16.9912851177
 20
14.5554056281
 10
17.0179659307
 20
14.5354916688
 10
17.0476155282
 20
14.5182764232
 10
17.0797813854
 20
14.5040226075
 10
17.1139725415
 20
14.4929477759
 10
17.1496670741
 20
14.4852209788
 10
17.1863201394
 20
14.4809601505
  0
LWPOLYLINE
  5
6BD
100
AcDbEntity
  8
218140080
100
AcDbPolyline
 62
250
  6
CONTINUOUS
 90
13
 70
0
 10
16.9124668623
 20
14.7122867089
 10
16.9147566103
 20
14.683651295
 10
16.9215908548
 20
14.6554531921
 10
16.9328652031
 20
14.6281228242
 10
16.9484074784
 20
14.6020773717
 10
16.9679803773
 20
14.5777143649
 10
16.9912851177
 20
14.5554056281
 10
17.0179659307
 20
14.5354916688
 10
17.0476155282
 20
14.5182764232
 10
17.0797813854
 20
14.5040226075
 10
17.1139725415
 20
14.4929477759
 10
17.1496670741
 20
14.4852209788
 10
17.1863201394
 20
14.4809601505
  0
LWPOLYLINE
  5
6BE
100
AcDbEntity
  8
218140000
100
AcDbPolyline
 62
250
  6
CONTINUOUS
 90
6
 70
0
 10
16.9124668623
 20
18.1925674222
 10
16.9091177268
 20
18.2474182523
 10
16.8990952464
 20
18.3018608538
 10
16.8824740137
 20
18.3554900363
 10
16.8593777326
 20
18.4079066635
 10
16.8299782976
 20
18.4587206235
  0
LWPOLYLINE
  5
6BF
100
AcDbEntity
  8
218140080
100
AcDbPolyline
 62
250
  6
CONTINUOUS
 90
6
 70
0
 10
16.9124668623
 20
18.1925674222
 10
16.9091177268
 20
18.2474182523
 10
16.8990952464
 20
18.3018608538
 10
16.8824740137
 20
18.3554900363
 10
16.8593777326
 20
18.4079066635
 10
16.8299782976
 20
18.4587206235
  0
LWPOLYLINE
  5
6C0
100
AcDbEntity
  8
218140000
100
AcDbPolyline
 62
250
  6
CONTINUOUS
 90
58
 70
0
 10
16.9124668623
 20
3.5224761222
 10
16.9128264867
 20
3.4884132793
 10
16.9138468747
 20
3.4554134721
 10
16.9154421452
 20
3.4234819082
 10
16.9175207383
 20
3.3926600153
 10
16.9200078349
 20
3.3629025346
 10
16.9228645158
 20
3.3340832572
 10
16.9260396827
 20
3.3061807869
 10
16.9294751096
 20
3.2792061706
 10
16.9331506248
 20
3.2530864527
 10
16.9370275981
 20
3.2278175618
 10
16.9410649269
 20
3.2033904901
 10
16.9452565546
 20
3.179728712
 10
16.9495739753
 20
3.1568301124
 10
16.9539875373
 20
3.1346840365
 10
16.9585023201
 20
3.1132047044
 10
16.9631000923
 20
3.0923790189
 10
16.9677572629
 20
3.0722091446
 10
16.9724798687
 20
3.0526351247
 10
16.9772570913
 20
3.0336363537
 10
16.9820686115
 20
3.0152241637
 10
16.9869111665
 20
2.9973882142
 10
16.9917726792
 20
2.9801243165
 10
16.9966396309
 20
2.9634279084
 10
17.0015091635
 20
2.94728896
 10
17.0063676587
 20
2.9317151795
 10
17.0112075562
 20
2.9166907379
 10
17.0160376
 20
2.9021713223
 10
17.0208429297
 20
2.8881725832
 10
17.0256219892
 20
2.8746721025
 10
17.030407098
 20
2.8615702875
 10
17.0351907392
 20
2.8488670273
 10
17.0399698255
 20
2.8365582117
 10
17.0447875632
 20
2.8245406857
 10
17.0496385121
 20
2.8128121408
 10
17.0545222213
 20
2.8013731766
 10
17.0594935197
 20
2.7901276748
 10
17.0645533893
 20
2.7790606496
 10
17.0696991031
 20
2.7681881556
 10
17.0749836114
 20
2.7574633383
 10
17.0804272353
 20
2.7468402725
 10
17.0860109347
 20
2.736368688
 10
17.0917299289
 20
2.7261464553
 10
17.0976398089
 20
2.716098797
 10
17.1036853444
 20
2.7063046042
 10
17.1096905556
 20
2.6970881442
 10
17.1155731206
 20
2.6885781176
 10
17.1214046553
 20
2.6806399961
 10
17.1272370937
 20
2.6732004663
 10
17.1330071556
 20
2.6662907899
 10
17.138771348
 20
2.6598768647
 10
17.1447663034
 20
2.6537932842
 10
17.1510633994
 20
2.6479282029
 10
17.1575923735
 20
2.6424021159
 10
17.1643808447
 20
2.6374036449
 10
17.1714374333
 20
2.6329991629
 10
17.1787512847
 20
2.6291320588
 10
17.1863201394
 20
2.6258073286
  0
LWPOLYLINE
  5
6C1
100
AcDbEntity
  8
218140080
100
AcDbPolyline
 62
250
  6
CONTINUOUS
 90
58
 70
0
 10
16.9124668623
 20
3.5224761222
 10
16.9128264867
 20
3.4884132793
 10
16.9138468747
 20
3.4554134721
 10
16.9154421452
 20
3.4234819082
 10
16.9175207383
 20
3.3926600153
 10
16.9200078349
 20
3.3629025346
 10
16.9228645158
 20
3.3340832572
 10
16.9260396827
 20
3.3061807869
 10
16.9294751096
 20
3.2792061706
 10
16.9331506248
 20
3.2530864527
 10
16.9370275981
 20
3.2278175618
 10
16.9410649269
 20
3.2033904901
 10
16.9452565546
 20
3.179728712
 10
16.9495739753
 20
3.1568301124
 10
16.9539875373
 20
3.1346840365
 10
16.9585023201
 20
3.1132047044
 10
16.9631000923
 20
3.0923790189
 10
16.9677572629
 20
3.0722091446
 10
16.9724798687
 20
3.0526351247
 10
16.9772570913
 20
3.0336363537
 10
16.9820686115
 20
3.0152241637
 10
16.9869111665
 20
2.9973882142
 10
16.9917726792
 20
2.9801243165
 10
16.9966396309
 20
2.9634279084
 10
17.0015091635
 20
2.94728896
 10
17.0063676587
 20
2.9317151795
 10
17.0112075562
 20
2.9166907379
 10
17.0160376
 20
2.9021713223
 10
17.0208429297
 20
2.8881725832
 10
17.0256219892
 20
2.8746721025
 10
17.030407098
 20
2.8615702875
 10
17.0351907392
 20
2.8488670273
 10
17.0399698255
 20
2.8365582117
 10
17.0447875632
 20
2.8245406857
 10
17.0496385121
 20
2.8128121408
 10
17.0545222213
 20
2.8013731766
 10
17.0594935197
 20
2.7901276748
 10
17.0645533893
 20
2.7790606496
 10
17.0696991031
 20
2.7681881556
 10
17.0749836114
 20
2.7574633383
 10
17.0804272353
 20
2.7468402725
 10
17.0860109347
 20
2.736368688
 10
17.0917299289
 20
2.7261464553
 10
17.0976398089
 20
2.716098797
 10
17.1036853444
 20
2.7063046042
 10
17.1096905556
 20
2.6970881442
 10
17.1155731206
 20
2.6885781176
 10
17.1214046553
 20
2.6806399961
 10
17.1272370937
 20
2.6732004663
 10
17.1330071556
 20
2.6662907899
 10
17.138771348
 20
2.6598768647
 10
17.1447663034
 20
2.6537932842
 10
17.1510633994
 20
2.6479282029
 10
17.1575923735
 20
2.6424021159
 10
17.1643808447
 20
2.6374036449
 10
17.1714374333
 20
2.6329991629
 10
17.1787512847
 20
2.6291320588
 10
17.1863201394
 20
2.6258073286
  0
LWPOLYLINE
  5
6C2
100
AcDbEntity
  8
218140000
100
AcDbPolyline
 62
250
  6
CONTINUOUS
 90
3
 70
0
 10
17.000627961
 20
-16.4910569559
 10
17.0006258287
 20
-16.489904967
 10
17.0006976797
 20
-16.4864557844
  0
LWPOLYLINE
  5
6C3
100
AcDbEntity
  8
218140080
100
AcDbPolyline
 62
250
  6
CONTINUOUS
 90
3
 70
0
 10
17.000627961
 20
-16.4910569559
 10
17.0006258287
 20
-16.489904967
 10
17.0006976797
 20
-16.4864557844
  0
LINE
  5
6C4
100
AcDbEntity
  8
218140000
100
AcDbLine
 62
7
  6
CONTINUOUS
 10
16.9124668623
 20
18.5223273724
 11
16.9124668623
 21
14.7122867089
  0
LINE
  5
6C5
100
AcDbEntity
  8
218140080
100
AcDbLine
 62
7
  6
CONTINUOUS
 10
16.9124668623
 20
18.5223273724
 11
16.9124668623
 21
14.7122867089
  0
LINE
  5
6C6
100
AcDbEntity
  8
218140000
100
AcDbLine
 62
7
  6
CONTINUOUS
 10
16.9124668623
 20
-17.6715728752
 11
16.9124668623
 21
-18.5223273724
  0
LINE
  5
6C7
100
AcDbEntity
  8
218140080
100
AcDbLine
 62
7
  6
CONTINUOUS
 10
16.9124668623
 20
-17.6715728752
 11
16.9124668623
 21
-18.5223273724
  0
LINE
  5
6C8
100
AcDbEntity
  8
218140000
100
AcDbLine
 62
7
  6
CONTINUOUS
 10
17.1124668623
 20
17.5
 11
17.1124668623
 21
15.6
  0
LINE
  5
6C9
100
AcDbEntity
  8
218140080
100
AcDbLine
 62
7
  6
CONTINUOUS
 10
17.1124668623
 20
17.5
 11
17.1124668623
 21
15.6
  0
LINE
  5
6CA
100
AcDbEntity
  8
218140000
100
AcDbLine
 62
7
  6
CONTINUOUS
 10
17.1124668623
 20
7.4
 11
17.1124668623
 21
5.5
  0
LINE
  5
6CB
100
AcDbEntity
  8
218140080
100
AcDbLine
 62
7
  6
CONTINUOUS
 10
17.1124668623
 20
7.4
 11
17.1124668623
 21
5.5
  0
LINE
  5
6CC
100
AcDbEntity
  8
218140000
100
AcDbLine
 62
7
  6
CONTINUOUS
 10
17.1124668623
 20
-1.6
 11
17.1124668623
 21
-3.3
  0
LINE
  5
6CD
100
AcDbEntity
  8
218140080
100
AcDbLine
 62
7
  6
CONTINUOUS
 10
17.1124668623
 20
-1.6
 11
17.1124668623
 21
-3.3
  0
LINE
  5
6CE
100
AcDbEntity
  8
218140000
100
AcDbLine
 62
250
  6
CONTINUOUS
 10
17.1863201394
 20
15.1760409428
 11
17.1863201394
 21
14.4809601509
  0
LINE
  5
6CF
100
AcDbEntity
  8
218140080
100
AcDbLine
 62
250
  6
CONTINUOUS
 10
17.1863201394
 20
15.1760409428
 11
17.1863201394
 21
14.4809601509
  0
LINE
  5
6D0
100
AcDbEntity
  8
218140000
100
AcDbLine
 62
250
  6
CONTINUOUS
 10
17.1863201394
 20
9.7190398491
 11
17.1863201394
 21
9.0239590572
  0
LINE
  5
6D1
100
AcDbEntity
  8
218140080
100
AcDbLine
 62
250
  6
CONTINUOUS
 10
17.1863201394
 20
9.7190398491
 11
17.1863201394
 21
9.0239590572
  0
LINE
  5
6D2
100
AcDbEntity
  8
218140000
100
AcDbLine
 62
250
  6
CONTINUOUS
 10
17.1863201394
 20
4.7760409428
 11
17.1863201394
 21
2.6258073286
  0
LINE
  5
6D3
100
AcDbEntity
  8
218140080
100
AcDbLine
 62
250
  6
CONTINUOUS
 10
17.1863201394
 20
4.7760409428
 11
17.1863201394
 21
2.6258073286
  0
LINE
  5
6D4
100
AcDbEntity
  8
218140000
100
AcDbLine
 62
250
  6
CONTINUOUS
 10
17.1863201394
 20
0.7741926714
 11
17.1863201394
 21
-1.3760409428
  0
LINE
  5
6D5
100
AcDbEntity
  8
218140080
100
AcDbLine
 62
250
  6
CONTINUOUS
 10
17.1863201394
 20
0.7741926714
 11
17.1863201394
 21
-1.3760409428
  0
LINE
  5
6D6
100
AcDbEntity
  8
218140000
100
AcDbLine
 62
7
  6
CONTINUOUS
 10
16.9124668623
 20
5.5982885643
 11
16.9124668623
 21
9.4877132911
  0
LINE
  5
6D7
100
AcDbEntity
  8
218140080
100
AcDbLine
 62
7
  6
CONTINUOUS
 10
16.9124668623
 20
5.5982885643
 11
16.9124668623
 21
9.4877132911
  0
LWPOLYLINE
  5
6D8
100
AcDbEntity
  8
218140000
100
AcDbPolyline
 62
7
  6
CONTINUOUS
 90
5
 70
0
 10
16.9077958975
 20
5.5982886363
 10
16.9079072839
 20
5.6329714558
 10
16.9082411491
 20
5.6674760862
 10
16.9087718631
 20
5.7018025275
 10
16.9094575438
 20
5.7360908775
  0
LWPOLYLINE
  5
6D9
100
AcDbEntity
  8
218140080
100
AcDbPolyline
 62
7
  6
CONTINUOUS
 90
5
 70
0
 10
16.9077958975
 20
5.5982886363
 10
16.9079072839
 20
5.6329714558
 10
16.9082411491
 20
5.6674760862
 10
16.9087718631
 20
5.7018025275
 10
16.9094575438
 20
5.7360908775
  0
LINE
  5
6DA
100
AcDbEntity
  8
218140000
100
AcDbLine
 62
250
  6
CONTINUOUS
 10
16.9077134144
 20
-17.7068190732
 11
16.9077958975
 21
5.5982886363
  0
LINE
  5
6DB
100
AcDbEntity
  8
218140080
100
AcDbLine
 62
250
  6
CONTINUOUS
 10
16.9077134144
 20
-17.7068190732
 11
16.9077958975
 21
5.5982886363
  0
LWPOLYLINE
  5
6DC
100
AcDbEntity
  8
218140000
100
AcDbPolyline
 62
7
  6
CONTINUOUS
 90
6
 70
0
 10
16.9083280341
 20
5.6096513065
 10
16.9086586209
 20
5.6616466618
 10
16.9094121682
 20
5.7144023825
 10
16.9104477233
 20
5.7674412531
 10
16.9115458387
 20
5.8201787236
 10
16.9123282313
 20
5.8722572169
  0
LWPOLYLINE
  5
6DD
100
AcDbEntity
  8
218140080
100
AcDbPolyline
 62
7
  6
CONTINUOUS
 90
6
 70
0
 10
16.9083280341
 20
5.6096513065
 10
16.9086586209
 20
5.6616466618
 10
16.9094121682
 20
5.7144023825
 10
16.9104477233
 20
5.7674412531
 10
16.9115458387
 20
5.8201787236
 10
16.9123282313
 20
5.8722572169
  0
LINE
  5
6DE
100
AcDbEntity
  8
218140000
100
AcDbLine
 62
7
  6
CONTINUOUS
 10
16.9122619559
 20
5.8686604334
 11
16.9124437316
 21
5.8900965987
  0
LINE
  5
6DF
100
AcDbEntity
  8
218140080
100
AcDbLine
 62
7
  6
CONTINUOUS
 10
16.9122619559
 20
5.8686604334
 11
16.9124437316
 21
5.8900965987
  0
LWPOLYLINE
  5
6E0
100
AcDbEntity
  8
218140000
100
AcDbPolyline
 62
7
  6
CONTINUOUS
 90
4
 70
0
 10
16.9078918645
 20
-17.7536075464
 10
16.9081429817
 20
-17.724197382
 10
16.9082843544
 20
-17.6938787964
 10
16.9083280341
 20
5.6096513065
  0
LWPOLYLINE
  5
6E1
100
AcDbEntity
  8
218140080
100
AcDbPolyline
 62
7
  6
CONTINUOUS
 90
4
 70
0
 10
16.9078918645
 20
-17.7536075464
 10
16.9081429817
 20
-17.724197382
 10
16.9082843544
 20
-17.6938787964
 10
16.9083280341
 20
5.6096513065
  0
LINE
  5
6E2
100
AcDbEntity
  8
218140000
100
AcDbLine
 62
250
  6
CONTINUOUS
 10
16.907435595
 20
-17.7432216751
 11
16.9077134144
 21
-17.7068190732
  0
LINE
  5
6E3
100
AcDbEntity
  8
218140080
100
AcDbLine
 62
250
  6
CONTINUOUS
 10
16.907435595
 20
-17.7432216751
 11
16.9077134144
 21
-17.7068190732
  0
LINE
  5
6E4
100
AcDbEntity
  8
218140000
100
AcDbLine
 62
250
  6
CONTINUOUS
 10
16.9069459786
 20
-17.7809533384
 11
16.907435595
 21
-17.7432216751
  0
LINE
  5
6E5
100
AcDbEntity
  8
218140080
100
AcDbLine
 62
250
  6
CONTINUOUS
 10
16.9069459786
 20
-17.7809533384
 11
16.907435595
 21
-17.7432216751
  0
LINE
  5
6E6
100
AcDbEntity
  8
218140000
100
AcDbLine
 62
250
  6
CONTINUOUS
 10
17.0006976797
 20
-16.4864557844
 11
17.0013694656
 21
-16.4627949636
  0
LINE
  5
6E7
100
AcDbEntity
  8
218140080
100
AcDbLine
 62
250
  6
CONTINUOUS
 10
17.0006976797
 20
-16.4864557844
 11
17.0013694656
 21
-16.4627949636
  0
LINE
  5
6E8
100
AcDbEntity
  8
218140000
100
AcDbLine
 62
250
  6
CONTINUOUS
 10
17.0013694656
 20
-16.4627949636
 11
17.0027289969
 21
-16.4205024812
  0
LINE
  5
6E9
100
AcDbEntity
  8
218140080
100
AcDbLine
 62
250
  6
CONTINUOUS
 10
17.0013694656
 20
-16.4627949636
 11
17.0027289969
 21
-16.4205024812
  0
LINE
  5
6EA
100
AcDbEntity
  8
218140000
100
AcDbLine
 62
250
  6
CONTINUOUS
 10
17.0027289969
 20
-16.4205024812
 11
17.0047677582
 21
-16.3621726416
  0
LINE
  5
6EB
100
AcDbEntity
  8
218140080
100
AcDbLine
 62
250
  6
CONTINUOUS
 10
17.0027289969
 20
-16.4205024812
 11
17.0047677582
 21
-16.3621726416
  0
LINE
  5
6EC
100
AcDbEntity
  8
218140000
100
AcDbLine
 62
250
  6
CONTINUOUS
 10
17.0047677582
 20
-16.3621726416
 11
17.006482411
 21
-16.3162628678
  0
LINE
  5
6ED
100
AcDbEntity
  8
218140080
100
AcDbLine
 62
250
  6
CONTINUOUS
 10
17.0047677582
 20
-16.3621726416
 11
17.006482411
 21
-16.3162628678
  0
LWPOLYLINE
  5
6EE
100
AcDbEntity
  8
218140000
100
AcDbPolyline
 62
250
  6
CONTINUOUS
 90
4
 70
0
 10
17.006482411
 20
-16.3162628678
 10
17.0095315593
 20
-16.2403660685
 10
17.0106648681
 20
-16.2139609458
 10
17.0118869776
 20
-16.1873272559
  0
LWPOLYLINE
  5
6EF
100
AcDbEntity
  8
218140080
100
AcDbPolyline
 62
250
  6
CONTINUOUS
 90
4
 70
0
 10
17.006482411
 20
-16.3162628678
 10
17.0095315593
 20
-16.2403660685
 10
17.0106648681
 20
-16.2139609458
 10
17.0118869776
 20
-16.1873272559
  0
LINE
  5
6F0
100
AcDbEntity
  8
218140000
100
AcDbLine
 62
250
  6
CONTINUOUS
 10
16.9069142683
 20
-18.2631128839
 11
16.9075050588
 21
-18.2529115455
  0
LINE
  5
6F1
100
AcDbEntity
  8
218140080
100
AcDbLine
 62
250
  6
CONTINUOUS
 10
16.9069142683
 20
-18.2631128839
 11
16.9075050588
 21
-18.2529115455
  0
LWPOLYLINE
  5
6F2
100
AcDbEntity
  8
268
100
AcDbPolyline
 62
7
  6
CONTINUOUS
 90
4
 70
0
 10
5.2094105562
 20
-20.9038469852
 10
5.2042862675
 20
-20.9094512519
 10
5.2009089535
 20
-20.9130411249
 10
5.1927110402
 20
-20.9216761805
  0
LINE
  5
6F3
100
AcDbEntity
  8
268
100
AcDbLine
 62
7
  6
CONTINUOUS
 10
5.1927110402
 20
-20.9216761805
 11
5.1714175287
 21
-20.9437323692
  0
LINE
  5
6F4
100
AcDbEntity
  8
268
100
AcDbLine
 62
7
  6
CONTINUOUS
 10
5.1714175287
 20
-20.9437323692
 11
5.152016231
 21
-20.9636390078
  0
LINE
  5
6F5
100
AcDbEntity
  8
268
100
AcDbLine
 62
7
  6
CONTINUOUS
 10
5.152016231
 20
-20.9636390078
 11
5.0902052077
 21
-21.0265107668
  0
LINE
  5
6F6
100
AcDbEntity
  8
268
100
AcDbLine
 62
7
  6
CONTINUOUS
 10
5.0902052077
 20
-21.0265107668
 11
5.0101587159
 21
-21.1072767362
  0
LINE
  5
6F7
100
AcDbEntity
  8
268
100
AcDbLine
 62
7
  6
CONTINUOUS
 10
5.0101587159
 20
-21.1072767362
 11
4.9177025842
 21
-21.2
  0
LINE
  5
6F8
100
AcDbEntity
  8
268
100
AcDbLine
 62
250
  6
CONTINUOUS
 10
-7.4535621252
 20
17.3797991932
 11
-7.8409808332
 21
17.3730367745
  0
LINE
  5
6F9
100
AcDbEntity
  8
268
100
AcDbLine
 62
7
  6
CONTINUOUS
 10
-7.3305325866
 20
18.3817943769
 11
-7.726835571
 21
18.3748768826
  0
LINE
  5
6FA
100
AcDbEntity
  8
284
100
AcDbLine
 62
7
  6
CONTINUOUS
 10
-7.6980464979
 20
18.6275553342
 11
-7.2995027715
 21
18.6345119408
  0
LINE
  5
6FB
100
AcDbEntity
  8
218140000
100
AcDbLine
 62
7
  6
CONTINUOUS
 10
16.9124668623
 20
17.5
 11
17.1124668623
 21
17.5
  0
LINE
  5
6FC
100
AcDbEntity
  8
218140080
100
AcDbLine
 62
7
  6
CONTINUOUS
 10
16.9124668623
 20
17.5
 11
17.1124668623
 21
17.5
  0
LINE
  5
6FD
100
AcDbEntity
  8
218140000
100
AcDbLine
 62
250
  6
CONTINUOUS
 10
16.9124668623
 20
17.6715728753
 11
-4.7875331377
 21
17.6715728753
  0
LINE
  5
6FE
100
AcDbEntity
  8
218140080
100
AcDbLine
 62
250
  6
CONTINUOUS
 10
16.9124668623
 20
17.6715728753
 11
-4.7875331377
 21
17.6715728753
  0
LINE
  5
6FF
100
AcDbEntity
  8
284
100
AcDbLine
 62
7
  6
CONTINUOUS
 10
-7.1595948892
 20
19.7739702018
 11
-7.5622026414
 21
19.819841561
  0
LINE
  5
700
100
AcDbEntity
  8
RACCORDO
100
AcDbLine
 62
250
  6
CONTINUOUS
 10
-13.8767422255
 20
20.386908509
 11
-14.1922708161
 21
20.4446313274
  0
LINE
  5
701
100
AcDbEntity
  8
RACCORDO
100
AcDbLine
 62
250
  6
CONTINUOUS
 10
-14.1922708161
 20
20.4446313274
 11
-14.3949945557
 21
20.4818249367
  0
LINE
  5
702
100
AcDbEntity
  8
RACCORDO
100
AcDbLine
 62
250
  6
CONTINUOUS
 10
-14.3949945557
 20
20.4818249367
 11
-14.546769483
 21
20.5097793442
  0
LINE
  5
703
100
AcDbEntity
  8
RACCORDO
100
AcDbLine
 62
250
  6
CONTINUOUS
 10
-14.546769483
 20
20.5097793442
 11
-14.6122251175
 21
20.5219161579
  0
LWPOLYLINE
  5
704
100
AcDbEntity
  8
RACCORDO
100
AcDbPolyline
 62
250
  6
CONTINUOUS
 90
3
 70
0
 10
-14.6122251175
 20
20.5219161579
 10
-14.6456498743
 20
20.5282145658
 10
-14.649848629
 20
20.5290800966
  0
LWPOLYLINE
  5
705
100
AcDbEntity
  8
218140000
100
AcDbPolyline
 62
7
  6
CONTINUOUS
 90
7
 70
0
 10
16.1832377445
 20
12.9970634931
 10
16.1530520404
 20
13.0062650833
 10
16.1246030369
 20
13.0174326439
 10
16.0978907339
 20
13.0305661751
 10
16.0729151314
 20
13.0456656766
 10
16.0496762295
 20
13.0627311487
 10
16.028174028
 20
13.0817625912
  0
LWPOLYLINE
  5
706
100
AcDbEntity
  8
218140080
100
AcDbPolyline
 62
7
  6
CONTINUOUS
 90
7
 70
0
 10
16.1832377445
 20
12.9970634931
 10
16.1530520404
 20
13.0062650833
 10
16.1246030369
 20
13.0174326439
 10
16.0978907339
 20
13.0305661751
 10
16.0729151314
 20
13.0456656766
 10
16.0496762295
 20
13.0627311487
 10
16.028174028
 20
13.0817625912
  0
LINE
  5
707
100
AcDbEntity
  8
268
100
AcDbLine
 62
7
  6
CONTINUOUS
 10
4.9916465187
 20
21.125878276
 11
4.9177025842
 21
21.2
  0
LINE
  5
708
100
AcDbEntity
  8
268
100
AcDbLine
 62
7
  6
CONTINUOUS
 10
5.1772814739
 20
20.9376932259
 11
4.9916465187
 21
21.125878276
  0
LWPOLYLINE
  5
709
100
AcDbEntity
  8
268
100
AcDbPolyline
 62
7
  6
CONTINUOUS
 90
3
 70
0
 10
5.2009089535
 20
20.9130411249
 10
5.1927110402
 20
20.9216761805
 10
5.1772814739
 20
20.9376932259
  0
LINE
  5
70A
100
AcDbEntity
  8
268
100
AcDbLine
 62
7
  6
CONTINUOUS
 10
5.2042862675
 20
20.9094512519
 11
5.2009089535
 21
20.9130411249
  0
LWPOLYLINE
  5
70B
100
AcDbEntity
  8
218140000
100
AcDbPolyline
 62
250
  6
CONTINUOUS
 90
38
 70
0
 10
16.9083148936
 20
2.9817686384
 10
16.9123026663
 20
2.9704617034
 10
16.9187776029
 20
2.9527804086
 10
16.9252772315
 20
2.9357148094
 10
16.931766549
 20
2.9192374653
 10
16.9382382988
 20
2.9033591322
 10
16.9446997373
 20
2.8880690542
 10
16.9511376311
 20
2.8733075238
 10
16.9575391761
 20
2.859091928
 10
16.9639171763
 20
2.8454048798
 10
16.9702968104
 20
2.8321345101
 10
16.9766709397
 20
2.8192805038
 10
16.9830467028
 20
2.806843176
 10
16.9894706943
 20
2.7947116031
 10
16.9959358034
 20
2.7828820016
 10
17.0024491409
 20
2.7713581551
 10
17.0090786337
 20
2.7600404905
 10
17.0158236203
 20
2.7489112947
 10
17.0226847623
 20
2.7379882809
 10
17.0297319717
 20
2.7272250161
 10
17.0369905803
 20
2.716572875
 10
17.0444352563
 20
2.7060804828
 10
17.0520599166
 20
2.695847282
 10
17.0599430252
 20
2.6857995119
 10
17.0680061181
 20
2.6760109331
 10
17.0760077204
 20
2.6668022709
 10
17.0838478918
 20
2.6583069001
 10
17.0916265727
 20
2.6503914459
 10
17.0994021091
 20
2.642976509
 10
17.1070897393
 20
2.6360907109
 10
17.1147742249
 20
2.6297054301
 10
17.1227681979
 20
2.6236554037
 10
17.1311638689
 20
2.6178203798
 10
17.1398690272
 20
2.6123206101
 10
17.1489196716
 20
2.6073515872
 10
17.1583278018
 20
2.6029784752
 10
17.1680814181
 20
2.5991361099
 10
17.1781805206
 20
2.5958244913
  0
LWPOLYLINE
  5
70C
100
AcDbEntity
  8
218140080
100
AcDbPolyline
 62
250
  6
CONTINUOUS
 90
38
 70
0
 10
16.9083148936
 20
2.9817686384
 10
16.9123026663
 20
2.9704617034
 10
16.9187776029
 20
2.9527804086
 10
16.9252772315
 20
2.9357148094
 10
16.931766549
 20
2.9192374653
 10
16.9382382988
 20
2.9033591322
 10
16.9446997373
 20
2.8880690542
 10
16.9511376311
 20
2.8733075238
 10
16.9575391761
 20
2.859091928
 10
16.9639171763
 20
2.8454048798
 10
16.9702968104
 20
2.8321345101
 10
16.9766709397
 20
2.8192805038
 10
16.9830467028
 20
2.806843176
 10
16.9894706943
 20
2.7947116031
 10
16.9959358034
 20
2.7828820016
 10
17.0024491409
 20
2.7713581551
 10
17.0090786337
 20
2.7600404905
 10
17.0158236203
 20
2.7489112947
 10
17.0226847623
 20
2.7379882809
 10
17.0297319717
 20
2.7272250161
 10
17.0369905803
 20
2.716572875
 10
17.0444352563
 20
2.7060804828
 10
17.0520599166
 20
2.695847282
 10
17.0599430252
 20
2.6857995119
 10
17.0680061181
 20
2.6760109331
 10
17.0760077204
 20
2.6668022709
 10
17.0838478918
 20
2.6583069001
 10
17.0916265727
 20
2.6503914459
 10
17.0994021091
 20
2.642976509
 10
17.1070897393
 20
2.6360907109
 10
17.1147742249
 20
2.6297054301
 10
17.1227681979
 20
2.6236554037
 10
17.1311638689
 20
2.6178203798
 10
17.1398690272
 20
2.6123206101
 10
17.1489196716
 20
2.6073515872
 10
17.1583278018
 20
2.6029784752
 10
17.1680814181
 20
2.5991361099
 10
17.1781805206
 20
2.5958244913
  0
LINE
  5
70D
100
AcDbEntity
  8
218140000
100
AcDbLine
 62
250
  6
CONTINUOUS
 10
18.9386135851
 20
15.0227351311
 11
18.9386135851
 21
9.1772648689
  0
LINE
  5
70E
100
AcDbEntity
  8
218140080
100
AcDbLine
 62
250
  6
CONTINUOUS
 10
18.9386135851
 20
15.0227351311
 11
18.9386135851
 21
9.1772648689
  0
LINE
  5
70F
100
AcDbEntity
  8
218140000
100
AcDbLine
 62
250
  6
CONTINUOUS
 10
18.9386135851
 20
4.6227351311
 11
18.9386135851
 21
-1.2227351311
  0
LINE
  5
710
100
AcDbEntity
  8
218140080
100
AcDbLine
 62
250
  6
CONTINUOUS
 10
18.9386135851
 20
4.6227351311
 11
18.9386135851
 21
-1.2227351311
  0
LINE
  5
711
100
AcDbEntity
  8
218140000
100
AcDbLine
 62
7
  6
CONTINUOUS
 10
19.2124668623
 20
14.7238418372
 11
19.2124668623
 21
9.4761582568
  0
LINE
  5
712
100
AcDbEntity
  8
218140080
100
AcDbLine
 62
7
  6
CONTINUOUS
 10
19.2124668623
 20
14.7238418372
 11
19.2124668623
 21
9.4761582568
  0
LINE
  5
713
100
AcDbEntity
  8
218140000
100
AcDbLine
 62
7
  6
CONTINUOUS
 10
19.2124668623
 20
4.3238418345
 11
19.2124668623
 21
-0.9238417399
  0
LINE
  5
714
100
AcDbEntity
  8
218140080
100
AcDbLine
 62
7
  6
CONTINUOUS
 10
19.2124668623
 20
4.3238418345
 11
19.2124668623
 21
-0.9238417399
  0
LWPOLYLINE
  5
715
100
AcDbEntity
  8
218140000
100
AcDbPolyline
 62
250
  6
CONTINUOUS
 90
22
 70
0
 10
18.9141947209
 20
-13.9999996295
 10
18.9088601486
 20
-14.151656533
 10
18.8935071176
 20
-14.3012258688
 10
18.868135628
 20
-14.4487076366
 10
18.8325352032
 20
-14.5947629
 10
18.7869163198
 20
-14.7387305956
 10
18.731910407
 20
-14.8786275332
 10
18.6673852817
 20
-15.0144014926
 10
18.5934731271
 20
-15.1461046941
 10
18.5112019227
 20
-15.271910608
 10
18.4204612101
 20
-15.3917315749
 10
18.3213614478
 20
-15.5056552544
 10
18.21526199
 20
-15.6121180959
 10
18.1020485748
 20
-15.7110271042
 10
17.9818354642
 20
-15.8024752745
 10
17.856324799
 20
-15.8851780427
 10
17.7254737922
 20
-15.9589977903
 10
17.5893252308
 20
-16.0240721357
 10
17.4497096166
 20
-16.07952937
 10
17.3072371169
 20
-16.1250789237
 10
17.1612975645
 20
-16.1610113664
 10
17.0118909594
 20
-16.187326698
  0
LWPOLYLINE
  5
716
100
AcDbEntity
  8
218140080
100
AcDbPolyline
 62
250
  6
CONTINUOUS
 90
22
 70
0
 10
18.9141947209
 20
-13.9999996295
 10
18.9088601486
 20
-14.151656533
 10
18.8935071176
 20
-14.3012258688
 10
18.868135628
 20
-14.4487076366
 10
18.8325352032
 20
-14.5947629
 10
18.7869163198
 20
-14.7387305956
 10
18.731910407
 20
-14.8786275332
 10
18.6673852817
 20
-15.0144014926
 10
18.5934731271
 20
-15.1461046941
 10
18.5112019227
 20
-15.271910608
 10
18.4204612101
 20
-15.3917315749
 10
18.3213614478
 20
-15.5056552544
 10
18.21526199
 20
-15.6121180959
 10
18.1020485748
 20
-15.7110271042
 10
17.9818354642
 20
-15.8024752745
 10
17.856324799
 20
-15.8851780427
 10
17.7254737922
 20
-15.9589977903
 10
17.5893252308
 20
-16.0240721357
 10
17.4497096166
 20
-16.07952937
 10
17.3072371169
 20
-16.1250789237
 10
17.1612975645
 20
-16.1610113664
 10
17.0118909594
 20
-16.187326698
  0
LINE
  5
717
100
AcDbEntity
  8
218140000
100
AcDbLine
 62
250
  6
CONTINUOUS
 10
16.9069200731
 20
-18.2631133422
 11
16.8960665658
 21
-18.3135045213
  0
LINE
  5
718
100
AcDbEntity
  8
218140080
100
AcDbLine
 62
250
  6
CONTINUOUS
 10
16.9069200731
 20
-18.2631133422
 11
16.8960665658
 21
-18.3135045213
  0
LINE
  5
719
100
AcDbEntity
  8
268
100
AcDbLine
 62
7
  6
CONTINUOUS
 10
-4.7875331377
 20
20.9
 11
5.2124668623
 21
20.9
  0
LINE
  5
71A
100
AcDbEntity
  8
218140000
100
AcDbLine
 62
250
  6
CONTINUOUS
 10
16.028174028
 20
18.8288665991
 11
-4.7875331377
 21
19.0857864376
  0
LINE
  5
71B
100
AcDbEntity
  8
218140080
100
AcDbLine
 62
250
  6
CONTINUOUS
 10
16.028174028
 20
18.8288665991
 11
-4.7875331377
 21
19.0857864376
  0
LINE
  5
71C
100
AcDbEntity
  8
218140000
100
AcDbLine
 62
7
  6
CONTINUOUS
 10
16.028174028
 20
19.422190298
 11
5.2124668623
 21
19.6109791689
  0
LINE
  5
71D
100
AcDbEntity
  8
218140080
100
AcDbLine
 62
7
  6
CONTINUOUS
 10
16.028174028
 20
19.422190298
 11
5.2124668623
 21
19.6109791689
  0
LINE
  5
71E
100
AcDbEntity
  8
218140000
100
AcDbLine
 62
7
  6
CONTINUOUS
 10
5.2124668623
 20
20.6754493507
 11
-4.7875331377
 21
20.85
  0
LINE
  5
71F
100
AcDbEntity
  8
218140080
100
AcDbLine
 62
7
  6
CONTINUOUS
 10
5.2124668623
 20
20.6754493507
 11
-4.7875331377
 21
20.85
  0
LWPOLYLINE
  5
720
100
AcDbEntity
  8
RACCORDO
100
AcDbPolyline
 62
250
  6
CONTINUOUS
 90
22
 70
0
 10
-13.1210439187
 20
20.9579027366
 10
-13.1706563782
 20
20.9608887756
 10
-13.2199342545
 20
20.9604058492
 10
-13.2688775474
 20
20.9564539574
 10
-13.3177483216
 20
20.9489818215
 10
-13.3662845124
 20
20.9380407202
 10
-13.4136999262
 20
20.92378449
 10
-13.4599607697
 20
20.9061592145
 10
-13.5051008361
 20
20.8852188101
 10
-13.5484353119
 20
20.8612788615
 10
-13.5899301005
 20
20.8342985943
 10
-13.6296192984
 20
20.8043187829
 10
-13.6669203815
 20
20.7717773355
 10
-13.7018050297
 20
20.7366276576
 10
-13.7343015631
 20
20.6989163437
 10
-13.7639124172
 20
20.6592210849
 10
-13.7905917714
 20
20.6174986509
 10
-13.8143854463
 20
20.5737922719
 10
-13.8349333394
 20
20.5288093301
 10
-13.8521154166
 20
20.4827856193
 10
-13.8660517119
 20
20.4354853456
 10
-13.8767422255
 20
20.386908509
  0
LINE
  5
721
100
AcDbEntity
  8
RACCORDO
100
AcDbLine
 62
250
  6
CONTINUOUS
 10
-7.49426692
 20
20.416105735
 11
-13.1210439187
 21
20.9579027366
  0
LINE
  5
722
100
AcDbEntity
  8
RACCORDO
100
AcDbLine
 62
7
  6
CONTINUOUS
 10
-7.4037181421
 20
21.2108421589
 11
-13.0304951408
 21
21.7526391605
  0
LINE
  5
723
100
AcDbEntity
  8
268
100
AcDbLine
 62
7
  6
CONTINUOUS
 10
-8.2875331377
 20
22.0
 11
-7.1375331377
 21
21.858797755
  0
LWPOLYLINE
  5
724
100
AcDbEntity
  8
0
100
AcDbPolyline
 62
7
  6
CONTINUOUS
 90
10
 70
0
 43
0.3500000006
 10
0.8571428254
 20
43.6499994049
 10
0.9285714591
 20
43.507141571
 10
0.9285714591
 20
43.43571492
 10
0.7857142625
 20
43.2928570862
 10
0.7142856996
 20
43.2928570862
 10
0.6428571367
 20
43.3642837372
 10
0.6428571367
 20
43.43571492
 10
0.7142856996
 20
43.5785727539
 10
0.7857142625
 20
43.6499994049
 10
0.8571428254
 20
43.6499994049
  0
LWPOLYLINE
  5
725
100
AcDbEntity
  8
218140000
100
AcDbPolyline
 62
250
  6
CONTINUOUS
 90
4
 70
0
 10
17.0118900091
 20
-16.1873293235
 10
16.9982903004
 20
-16.2292291782
 10
16.9851520779
 20
-16.2683095157
 10
16.9611017841
 20
-16.3384918248
  0
LWPOLYLINE
  5
726
100
AcDbEntity
  8
218140080
100
AcDbPolyline
 62
250
  6
CONTINUOUS
 90
4
 70
0
 10
17.0118900091
 20
-16.1873293235
 10
16.9982903004
 20
-16.2292291782
 10
16.9851520779
 20
-16.2683095157
 10
16.9611017841
 20
-16.3384918248
  0
LWPOLYLINE
  5
727
100
AcDbEntity
  8
218140000
100
AcDbPolyline
 62
250
  6
CONTINUOUS
 90
4
 70
0
 10
16.8960665658
 20
-18.3135045213
 10
16.879543931
 20
-18.3631214559
 10
16.8574576256
 20
-18.41164573
 10
16.8299484957
 20
-18.4587663882
  0
LWPOLYLINE
  5
728
100
AcDbEntity
  8
218140080
100
AcDbPolyline
 62
250
  6
CONTINUOUS
 90
4
 70
0
 10
16.8960665658
 20
-18.3135045213
 10
16.879543931
 20
-18.3631214559
 10
16.8574576256
 20
-18.41164573
 10
16.8299484957
 20
-18.4587663882
  0
LWPOLYLINE
  5
729
100
AcDbEntity
  8
218140000
100
AcDbPolyline
 62
250
  6
CONTINUOUS
 90
9
 70
0
 10
16.9611017841
 20
-16.3384918248
 10
16.9505116669
 20
-16.3698983999
 10
16.9409637109
 20
-16.399000946
 10
16.9325642191
 20
-16.4258555755
 10
16.9254811541
 20
-16.4507796806
 10
16.9198546347
 20
-16.4742072836
 10
16.9157760347
 20
-16.4962560375
 10
16.9133011384
 20
-16.5168077745
 10
16.9124713625
 20
-16.5358298034
  0
LWPOLYLINE
  5
72A
100
AcDbEntity
  8
218140080
100
AcDbPolyline
 62
250
  6
CONTINUOUS
 90
9
 70
0
 10
16.9611017841
 20
-16.3384918248
 10
16.9505116669
 20
-16.3698983999
 10
16.9409637109
 20
-16.399000946
 10
16.9325642191
 20
-16.4258555755
 10
16.9254811541
 20
-16.4507796806
 10
16.9198546347
 20
-16.4742072836
 10
16.9157760347
 20
-16.4962560375
 10
16.9133011384
 20
-16.5168077745
 10
16.9124713625
 20
-16.5358298034
  0
LINE
  5
72B
100
AcDbEntity
  8
268
100
AcDbLine
 62
250
  6
CONTINUOUS
 10
-4.7875331377
 20
21.2756902398
 11
4.9177025842
 21
21.4450957595
  0
LINE
  5
72C
100
AcDbEntity
  8
268
100
AcDbLine
 62
250
  6
CONTINUOUS
 10
-4.7875331377
 20
21.4879136641
 11
5.1283005374
 21
21.6609951847
  0
LINE
  5
72D
100
AcDbEntity
  8
268
100
AcDbLine
 62
250
  6
CONTINUOUS
 10
-5.7875331377
 20
22.0499866726
 11
-8.2875331377
 21
22.0281695031
  0
LINE
  5
72E
100
AcDbEntity
  8
268
100
AcDbLine
 62
7
  6
CONTINUOUS
 10
-5.7875331377
 20
22.4
 11
-8.2875331377
 21
22.3781828305
  0
LINE
  5
72F
100
AcDbEntity
  8
268
100
AcDbLine
 62
250
  6
CONTINUOUS
 10
-4.7875331377
 20
21.2
 11
4.9177025842
 21
21.2
  0
LINE
  5
730
100
AcDbEntity
  8
268
100
AcDbLine
 62
250
  6
CONTINUOUS
 10
-4.7875331377
 20
22.0412598048
 11
-5.7875331377
 21
22.0499866726
  0
LINE
  5
731
100
AcDbEntity
  8
268
100
AcDbLine
 62
250
  6
CONTINUOUS
 10
-4.7875331377
 20
22.303393743
 11
4.6303254235
 21
22.2212053365
  0
LINE
  5
732
100
AcDbEntity
  8
268
100
AcDbLine
 62
7
  6
CONTINUOUS
 10
4.2211933978
 20
22.3126551668
 11
-5.7875331377
 21
22.4
  0
LWPOLYLINE
  5
733
100
AcDbEntity
  8
218140000
100
AcDbPolyline
 62
250
  6
CONTINUOUS
 90
15
 70
0
 10
16.8299484957
 20
-18.4587663882
 10
16.7971927471
 20
-18.5041803918
 10
16.7594013811
 20
-18.5475947624
 10
16.7168173922
 20
-18.5887304764
 10
16.6697136555
 20
-18.6273240511
 10
16.618392431
 20
-18.6631278355
 10
16.563183042
 20
-18.6959120802
 10
16.5044397616
 20
-18.7254664119
 10
16.4425395396
 20
-18.7516011834
 10
16.3778795838
 20
-18.7741486904
 10
16.3108748106
 20
-18.7929642478
 10
16.241955183
 20
-18.8079271181
 10
16.1715629516
 20
-18.818941286
 10
16.1001498162
 20
-18.8259360746
 10
16.028174028
 20
-18.8288665991
  0
LWPOLYLINE
  5
734
100
AcDbEntity
  8
218140080
100
AcDbPolyline
 62
250
  6
CONTINUOUS
 90
15
 70
0
 10
16.8299484957
 20
-18.4587663882
 10
16.7971927471
 20
-18.5041803918
 10
16.7594013811
 20
-18.5475947624
 10
16.7168173922
 20
-18.5887304764
 10
16.6697136555
 20
-18.6273240511
 10
16.618392431
 20
-18.6631278355
 10
16.563183042
 20
-18.6959120802
 10
16.5044397616
 20
-18.7254664119
 10
16.4425395396
 20
-18.7516011834
 10
16.3778795838
 20
-18.7741486904
 10
16.3108748106
 20
-18.7929642478
 10
16.241955183
 20
-18.8079271181
 10
16.1715629516
 20
-18.818941286
 10
16.1001498162
 20
-18.8259360746
 10
16.028174028
 20
-18.8288665991
  0
LWPOLYLINE
  5
735
100
AcDbEntity
  8
218140000
100
AcDbPolyline
 62
250
  6
CONTINUOUS
 90
6
 70
0
 10
17.0118909594
 20
-16.187326698
 10
16.9841256539
 20
-16.2148598079
 10
16.9580021257
 20
-16.2425596935
 10
16.9335203747
 20
-16.2704263547
 10
16.9104349629
 20
-16.2983198398
 10
16.9083148936
 20
-16.3010940755
  0
LWPOLYLINE
  5
736
100
AcDbEntity
  8
218140080
100
AcDbPolyline
 62
250
  6
CONTINUOUS
 90
6
 70
0
 10
17.0118909594
 20
-16.187326698
 10
16.9841256539
 20
-16.2148598079
 10
16.9580021257
 20
-16.2425596935
 10
16.9335203747
 20
-16.2704263547
 10
16.9104349629
 20
-16.2983198398
 10
16.9083148936
 20
-16.3010940755
  0
LINE
  5
737
100
AcDbEntity
  8
268
100
AcDbLine
 62
7
  6
CONTINUOUS
 10
-8.0389875706
 20
24.3869014213
 11
-5.7875331377
 21
24.4
  0
LINE
  5
738
100
AcDbEntity
  8
268
100
AcDbLine
 62
7
  6
CONTINUOUS
 10
-4.7926294599
 20
23.7942118197
 11
2.2124668623
 21
23.7534573615
  0
LINE
  5
739
100
AcDbEntity
  8
268
100
AcDbLine
 62
7
  6
CONTINUOUS
 10
-5.7875331377
 20
24.4
 11
-5.0360787049
 21
24.395628166
  0
LWPOLYLINE
  5
73A
100
AcDbEntity
  8
218140000
100
AcDbPolyline
 62
250
  6
CONTINUOUS
 90
14
 70
0
 10
16.8299782976
 20
18.4587206235
 10
16.7944945148
 20
18.507553732
 10
16.753190473
 20
18.5540425476
 10
16.7063735784
 20
18.5978410762
 10
16.654392267
 20
18.6386233463
 10
16.5976334108
 20
18.6760858347
 10
16.5365194389
 20
18.7099497262
 10
16.4715051936
 20
18.7399629878
 10
16.4030745447
 20
18.7659022451
 10
16.331736789
 20
18.7875744447
 10
16.2580228595
 20
18.8048182908
 10
16.1824813738
 20
18.8175054458
 10
16.1056745511
 20
18.8255414852
 10
16.0281740281
 20
18.8288666005
  0
LWPOLYLINE
  5
73B
100
AcDbEntity
  8
218140080
100
AcDbPolyline
 62
250
  6
CONTINUOUS
 90
14
 70
0
 10
16.8299782976
 20
18.4587206235
 10
16.7944945148
 20
18.507553732
 10
16.753190473
 20
18.5540425476
 10
16.7063735784
 20
18.5978410762
 10
16.654392267
 20
18.6386233463
 10
16.5976334108
 20
18.6760858347
 10
16.5365194389
 20
18.7099497262
 10
16.4715051936
 20
18.7399629878
 10
16.4030745447
 20
18.7659022451
 10
16.331736789
 20
18.7875744447
 10
16.2580228595
 20
18.8048182908
 10
16.1824813738
 20
18.8175054458
 10
16.1056745511
 20
18.8255414852
 10
16.0281740281
 20
18.8288666005
  0
LWPOLYLINE
  5
73C
100
AcDbEntity
  8
0
100
AcDbPolyline
 62
7
  6
CONTINUOUS
 90
7
 70
0
 43
0.3500000006
 10
6.3553240414
 20
33.217806427
 10
4.8553241501
 20
33.217806427
 10
6.3553240414
 20
35.3606648712
 10
6.3553240414
 20
35.7892383728
 10
5.9267528057
 20
36.2178073425
 10
5.2838953857
 20
36.2178073425
 10
4.8553241501
 20
35.5749493561
  0
LWPOLYLINE
  5
73D
100
AcDbEntity
  8
0
100
AcDbPolyline
 62
7
  6
CONTINUOUS
 90
3
 70
0
 43
0.3500000006
 10
8.7124669704
 20
33.8606644135
 10
7.2124670792
 20
33.8606644135
 10
7.8553239326
 20
36.2178073425
  0
LWPOLYLINE
  5
73E
100
AcDbEntity
  8
0
100
AcDbPolyline
 62
7
  6
CONTINUOUS
 90
6
 70
0
 43
0.3500000006
 10
-4.2857143393
 20
43.1499992523
 10
-3.2142856836
 20
43.1499992523
 10
-3.0000000658
 20
43.3642837372
 10
-3.0000000658
 20
44.4357152252
 10
-3.4285713015
 20
44.8642841949
 10
-3.8571428204
 20
44.8642841949
  0
LWPOLYLINE
  5
73F
100
AcDbEntity
  8
0
100
AcDbPolyline
 62
7
  6
CONTINUOUS
 90
3
 70
0
 43
0.3500000006
 10
3.4285713015
 20
43.7928572388
 10
1.9285714102
 20
43.7928572388
 10
2.5714285469
 20
46.1500001678
  0
LWPOLYLINE
  5
740
100
AcDbEntity
  8
0
100
AcDbPolyline
 62
7
  6
CONTINUOUS
 90
13
 70
0
 43
0.3500000006
 10
-1.7142856507
 20
44.8642841949
 10
-2.0000000439
 20
45.0785732117
 10
-2.0000000439
 20
45.7214266663
 10
-1.7142856507
 20
46.1500001678
 10
-1.0714285848
 20
46.1500001678
 10
-0.7857142625
 20
45.7214266663
 10
-0.7857142625
 20
45.0785732117
 10
-1.0714285848
 20
44.8642841949
 10
-0.6428571367
 20
44.4357152252
 10
-0.6428571367
 20
43.5785727539
 10
-1.0714285848
 20
43.1499992523
 10
-1.7142856507
 20
43.1499992523
 10
-2.1428571696
 20
43.5785727539
  0
ARC
  5
741
100
AcDbEntity
  8
RACCORDO
100
AcDbCircle
 62
7
  6
CONTINUOUS
 10
-17.7140688854
 20
-19.585813261
 40
1.5
100
AcDbArc
 50
177.3517129654
 51
262.5
  0
ARC
  5
742
100
AcDbEntity
  8
284
100
AcDbCircle
 62
7
  6
CONTINUOUS
 10
-11.6359347974
 20
-20.3516824302
 40
1.0
100
AcDbArc
 50
353.5
 51
76.0
  0
ARC
  5
743
100
AcDbEntity
  8
268
100
AcDbCircle
 62
7
  6
CONTINUOUS
 10
-8.0375331377
 20
-23.8443375673
 40
0.25
100
AcDbArc
 50
120.0
 51
180.0
  0
ARC
  5
744
100
AcDbEntity
  8
268
100
AcDbCircle
 62
7
  6
CONTINUOUS
 10
-8.0375331377
 20
-24.1369056521
 40
0.25
100
AcDbArc
 50
180.0
 51
269.6666666667
  0
ARC
  5
745
100
AcDbEntity
  8
268
100
AcDbCircle
 62
7
  6
CONTINUOUS
 10
-5.0375331377
 20
-24.1456323968
 40
0.25
100
AcDbArc
 50
270.3333333333
 51
360.0
  0
ARC
  5
746
100
AcDbEntity
  8
268
100
AcDbCircle
 62
7
  6
CONTINUOUS
 10
-5.0375331377
 20
-23.8443375673
 40
0.25
100
AcDbArc
 50
0.0
 51
60.0
  0
ARC
  5
747
100
AcDbEntity
  8
268
100
AcDbCircle
 62
7
  6
CONTINUOUS
 10
-5.5375331377
 20
-22.9783121635
 40
0.25
100
AcDbArc
 50
180.0
 51
240.0
  0
ARC
  5
748
100
AcDbEntity
  8
RACCORDO
100
AcDbCircle
 62
7
  6
CONTINUOUS
 10
-9.0409942311
 20
-13.4767900319
 40
10.0
100
AcDbArc
 50
168.3193829706
 51
178.6806170294
  0
ARC
  5
749
100
AcDbEntity
  8
RACCORDO
100
AcDbCircle
 62
7
  6
CONTINUOUS
 10
-18.735978664
 20
-11.472475474
 40
0.1
100
AcDbArc
 50
83.8000000001
 51
168.3193829711
  0
ARC
  5
74A
100
AcDbEntity
  8
RACCORDO
100
AcDbCircle
 62
7
  6
CONTINUOUS
 10
-18.9383695141
 20
-13.2488371676
 40
0.1
100
AcDbArc
 50
178.6806170289
 51
263.1999999999
  0
ARC
  5
74B
100
AcDbEntity
  8
268
100
AcDbCircle
 62
7
  6
CONTINUOUS
 10
4.2124668623
 20
-21.3126932437
 40
1.0
100
AcDbArc
 50
270.5
 51
360.0
  0
ARC
  5
74C
100
AcDbEntity
  8
218140000
100
AcDbCircle
 62
7
  6
CONTINUOUS
 10
16.0124668623
 20
-18.5223273724
 40
0.9
100
AcDbArc
 50
271.0
 51
360.0
  0
ARC
  5
74D
100
AcDbEntity
  8
218140080
100
AcDbCircle
 62
7
  6
CONTINUOUS
 10
16.0124668623
 20
-18.5223273724
 40
0.9
100
AcDbArc
 50
271.0
 51
360.0
  0
ARC
  5
74E
100
AcDbEntity
  8
218140000
100
AcDbCircle
 62
7
  6
CONTINUOUS
 10
16.7037712101
 20
-14.0
 40
2.5086956522
100
AcDbArc
 50
276.7959242607
 51
83.2040757388
  0
ARC
  5
74F
100
AcDbEntity
  8
218140080
100
AcDbCircle
 62
7
  6
CONTINUOUS
 10
16.7037712101
 20
-14.0
 40
2.5086956522
100
AcDbArc
 50
276.7959242607
 51
83.2040757388
  0
ARC
  5
750
100
AcDbEntity
  8
218140000
100
AcDbCircle
 62
7
  6
CONTINUOUS
 10
17.0124668623
 20
-11.4096332306
 40
0.1
100
AcDbArc
 50
189.2473775885
 51
263.2031754299
  0
ARC
  5
751
100
AcDbEntity
  8
218140080
100
AcDbCircle
 62
7
  6
CONTINUOUS
 10
17.0124668623
 20
-11.4096332306
 40
0.1
100
AcDbArc
 50
189.2305827762
 51
263.2040757504
  0
ARC
  5
752
100
AcDbEntity
  8
218140000
100
AcDbCircle
 62
7
  6
CONTINUOUS
 10
17.0124668623
 20
-16.5903465945
 40
0.0999982373
100
AcDbArc
 50
96.7981887064
 51
179.0542651601
  0
ARC
  5
753
100
AcDbEntity
  8
218140080
100
AcDbCircle
 62
7
  6
CONTINUOUS
 10
17.0124668623
 20
-16.5903465945
 40
0.0999982373
100
AcDbArc
 50
96.7981887064
 51
179.0542651601
  0
ARC
  5
754
100
AcDbEntity
  8
RACCORDO
100
AcDbCircle
 62
7
  6
CONTINUOUS
 10
-13.1742637695
 20
20.259544863
 40
1.5
100
AcDbArc
 50
84.5
 51
169.6482870346
  0
ARC
  5
755
100
AcDbEntity
  8
268
100
AcDbCircle
 62
7
  6
CONTINUOUS
 10
4.2124668623
 20
21.3126932437
 40
1.0
100
AcDbArc
 50
0.0
 51
89.5
  0
ARC
  5
756
100
AcDbEntity
  8
218140000
100
AcDbCircle
 62
7
  6
CONTINUOUS
 10
16.0124668623
 20
18.5223273724
 40
0.9
100
AcDbArc
 50
0.0
 51
89.0
  0
ARC
  5
757
100
AcDbEntity
  8
218140080
100
AcDbCircle
 62
7
  6
CONTINUOUS
 10
16.0124668623
 20
18.5223273724
 40
0.9
100
AcDbArc
 50
0.0
 51
89.0
  0
ARC
  5
758
100
AcDbEntity
  8
218140000
100
AcDbCircle
 62
7
  6
CONTINUOUS
 10
18.9124668623
 20
4.3238767217
 40
0.3
100
AcDbArc
 50
0.0
 51
85.0
  0
ARC
  5
759
100
AcDbEntity
  8
218140000
100
AcDbCircle
 62
7
  6
CONTINUOUS
 10
18.9124668623
 20
-0.9238767217
 40
0.3
100
AcDbArc
 50
275.0
 51
360.0
  0
ARC
  5
75A
100
AcDbEntity
  8
218140000
100
AcDbCircle
 62
7
  6
CONTINUOUS
 10
18.9124668623
 20
14.7238767217
 40
0.3
100
AcDbArc
 50
0.0
 51
85.0
  0
ARC
  5
75B
100
AcDbEntity
  8
218140000
100
AcDbCircle
 62
7
  6
CONTINUOUS
 10
18.9124668623
 20
9.4761232783
 40
0.3
100
AcDbArc
 50
275.0
 51
360.0
  0
ARC
  5
75C
100
AcDbEntity
  8
218140000
100
AcDbCircle
 62
7
  6
CONTINUOUS
 10
17.2124668623
 20
8.7251006478
 40
0.3
100
AcDbArc
 50
95.0
 51
180.0
  0
ARC
  5
75D
100
AcDbEntity
  8
218140000
100
AcDbCircle
 62
7
  6
CONTINUOUS
 10
17.2124668623
 20
15.4748993522
 40
0.3
100
AcDbArc
 50
180.0
 51
265.0
  0
ARC
  5
75E
100
AcDbEntity
  8
218140000
100
AcDbCircle
 62
7
  6
CONTINUOUS
 10
17.2124668623
 20
5.0748993522
 40
0.3
100
AcDbArc
 50
180.0
 51
265.0
  0
ARC
  5
75F
100
AcDbEntity
  8
218140000
100
AcDbCircle
 62
7
  6
CONTINUOUS
 10
17.2124668623
 20
-1.6748993522
 40
0.3
100
AcDbArc
 50
95.0
 51
180.0
  0
ARC
  5
760
100
AcDbEntity
  8
218140080
100
AcDbCircle
 62
7
  6
CONTINUOUS
 10
18.9124668623
 20
4.3238767217
 40
0.3
100
AcDbArc
 50
0.0
 51
85.0
  0
ARC
  5
761
100
AcDbEntity
  8
218140080
100
AcDbCircle
 62
7
  6
CONTINUOUS
 10
18.9124668623
 20
-0.9238767217
 40
0.3
100
AcDbArc
 50
275.0
 51
360.0
  0
ARC
  5
762
100
AcDbEntity
  8
218140080
100
AcDbCircle
 62
7
  6
CONTINUOUS
 10
18.9124668623
 20
14.7238767217
 40
0.3
100
AcDbArc
 50
0.0
 51
85.0
  0
ARC
  5
763
100
AcDbEntity
  8
218140080
100
AcDbCircle
 62
7
  6
CONTINUOUS
 10
18.9124668623
 20
9.4761232783
 40
0.3
100
AcDbArc
 50
275.0
 51
360.0
  0
ARC
  5
764
100
AcDbEntity
  8
218140080
100
AcDbCircle
 62
7
  6
CONTINUOUS
 10
17.2124668623
 20
8.7251006478
 40
0.3
100
AcDbArc
 50
95.0
 51
180.0
  0
ARC
  5
765
100
AcDbEntity
  8
218140080
100
AcDbCircle
 62
7
  6
CONTINUOUS
 10
17.2124668623
 20
15.4748993522
 40
0.3
100
AcDbArc
 50
180.0
 51
265.0
  0
ARC
  5
766
100
AcDbEntity
  8
218140080
100
AcDbCircle
 62
7
  6
CONTINUOUS
 10
17.2124668623
 20
5.0748993522
 40
0.3
100
AcDbArc
 50
180.0
 51
265.0
  0
ARC
  5
767
100
AcDbEntity
  8
218140080
100
AcDbCircle
 62
7
  6
CONTINUOUS
 10
17.2124668623
 20
-1.6748993522
 40
0.3
100
AcDbArc
 50
95.0
 51
180.0
  0
ARC
  5
768
100
AcDbEntity
  8
268
100
AcDbCircle
 62
7
  6
CONTINUOUS
 10
-8.0375331377
 20
23.8443375673
 40
0.25
100
AcDbArc
 50
180.0
 51
240.0
  0
ARC
  5
769
100
AcDbEntity
  8
268
100
AcDbCircle
 62
7
  6
CONTINUOUS
 10
-8.0375331377
 20
24.1369056521
 40
0.25
100
AcDbArc
 50
90.3333333333
 51
180.0
  0
ARC
  5
76A
100
AcDbEntity
  8
268
100
AcDbCircle
 62
7
  6
CONTINUOUS
 10
-5.0375331377
 20
24.1456323968
 40
0.25
100
AcDbArc
 50
0.0
 51
89.6666666667
  0
ARC
  5
76B
100
AcDbEntity
  8
268
100
AcDbCircle
 62
7
  6
CONTINUOUS
 10
-5.0375331377
 20
23.8443375673
 40
0.25
100
AcDbArc
 50
300.0
 51
360.0
  0
ARC
  5
76C
100
AcDbEntity
  8
268
100
AcDbCircle
 62
7
  6
CONTINUOUS
 10
-5.5375331377
 20
22.9783121635
 40
0.25
100
AcDbArc
 50
120.0
 51
180.0
  0
ARC
  5
76D
100
AcDbEntity
  8
RACCORDO
100
AcDbCircle
 62
7
  6
CONTINUOUS
 10
280.4671285085
 20
-33.3779675795
 40
300.0
100
AcDbArc
 50
169.6482870346
 51
177.3517129654
  0
ELLIPSE
  5
76E
100
AcDbEntity
  8
RACCORDO
100
AcDbEllipse
 62
7
  6
CONTINUOUS
 10
60.0998781376
 20
20.4158635953
 30
0.0
 11
0.7999019549
 21
0.0188793557
 31
0.0
 40
0.9935647129
 41
-0.0234459039
 42
0.1556361678
  0
ELLIPSE
  5
76F
100
AcDbEntity
  8
RACCORDO
100
AcDbEllipse
 62
7
  6
CONTINUOUS
 10
39.9001218624
 20
-21.0158406283
 30
0.0
 11
0.7999019549
 21
0.0188793557
 31
0.0
 40
0.9935647129
 41
3.1181467497
 42
4.68863849
  0
ELLIPSE
  5
770
100
AcDbEntity
  8
RACCORDO
100
AcDbEllipse
 62
7
  6
CONTINUOUS
 10
39.9001218624
 20
20.4158635953
 30
0.0
 11
0.7999019549
 21
-0.0188793557
 31
0.0
 40
0.9935647129
 41
2.9859564895
 42
3.1650385575
  0
ELLIPSE
  5
771
100
AcDbEntity
  8
RACCORDO
100
AcDbEllipse
 62
7
  6
CONTINUOUS
 10
60.0998781376
 20
-21.0158406283
 30
0.0
 11
0.7999019549
 21
-0.0188793557
 31
0.0
 40
0.9935647129
 41
-1.5470458364
 42
0.0234459039
  0
ELLIPSE
  5
772
100
AcDbEntity
  8
268
100
AcDbEllipse
 62
7
  6
CONTINUOUS
 10
39.2
 20
-22.0281695031
 30
0.0
 11
0.0
 21
0.3500133274
 31
0.0
 40
0.9999619231
 41
7.853981634
 42
9.4247779608
  0
ELLIPSE
  5
773
100
AcDbEntity
  8
268
100
AcDbEllipse
 62
7
  6
CONTINUOUS
 10
60.8
 20
22.0281695031
 30
0.0
 11
-0.0
 21
-0.3500133274
 31
0.0
 40
0.9999619231
 41
7.853981634
 42
9.4247779608
  0
ELLIPSE
  5
774
100
AcDbEntity
  8
268
100
AcDbEllipse
 62
7
  6
CONTINUOUS
 10
39.2
 20
22.0281695031
 30
0.0
 11
0.0
 21
0.3500133274
 31
0.0
 40
0.9999619231
 41
-0.0
 42
1.5707963268
  0
ELLIPSE
  5
775
100
AcDbEntity
  8
268
100
AcDbEllipse
 62
7
  6
CONTINUOUS
 10
60.8
 20
-22.0281695031
 30
0.0
 11
-0.0
 21
-0.3500133274
 31
0.0
 40
0.9999619231
 41
-0.0
 42
1.5707963268
  0
ELLIPSE
  5
776
100
AcDbEntity
  8
268
100
AcDbEllipse
 62
7
  6
CONTINUOUS
 10
60.5869098829
 20
-23.8443375673
 30
0.0
 11
-0.0
 21
0.25
 31
0.0
 40
0.0058178298
 41
0.5235987756
 42
1.5707963268
  0
ELLIPSE
  5
777
100
AcDbEntity
  8
268
100
AcDbEllipse
 62
7
  6
CONTINUOUS
 10
58.3130901171
 20
-23.8443375673
 30
0.0
 11
0.0
 21
0.25
 31
0.0
 40
0.0058178298
 41
-1.5707963268
 42
-0.5235987756
  0
ELLIPSE
  5
778
100
AcDbEntity
  8
268
100
AcDbEllipse
 62
7
  6
CONTINUOUS
 10
58.3130901171
 20
-24.1369056521
 30
0.0
 11
-0.0
 21
0.25
 31
0.0
 40
0.0058178298
 41
-3.1357748894
 42
-1.5707963268
  0
ELLIPSE
  5
779
100
AcDbEntity
  8
268
100
AcDbEllipse
 62
7
  6
CONTINUOUS
 10
60.5869098829
 20
-24.1369056521
 30
0.0
 11
-0.0
 21
0.25
 31
0.0
 40
0.0058178298
 41
-4.7123889804
 42
-3.1474104178
  0
ELLIPSE
  5
77A
100
AcDbEntity
  8
268
100
AcDbEllipse
 62
7
  6
CONTINUOUS
 10
41.6869098829
 20
-23.8443375673
 30
0.0
 11
0.0
 21
0.25
 31
0.0
 40
0.0058178298
 41
0.5235987756
 42
1.5707963268
  0
ELLIPSE
  5
77B
100
AcDbEntity
  8
268
100
AcDbEllipse
 62
7
  6
CONTINUOUS
 10
39.4130901171
 20
-23.8443375673
 30
0.0
 11
0.0
 21
0.25
 31
0.0
 40
0.0058178298
 41
-1.5707963268
 42
-0.5235987756
  0
ELLIPSE
  5
77C
100
AcDbEntity
  8
268
100
AcDbEllipse
 62
7
  6
CONTINUOUS
 10
39.4130901171
 20
-24.1369056521
 30
0.0
 11
-0.0
 21
0.25
 31
0.0
 40
0.0058178298
 41
-3.1357748894
 42
-1.5707963268
  0
ELLIPSE
  5
77D
100
AcDbEntity
  8
268
100
AcDbEllipse
 62
7
  6
CONTINUOUS
 10
41.6869098829
 20
-24.1369056521
 30
0.0
 11
-0.0
 21
0.25
 31
0.0
 40
0.0058178298
 41
-4.7123889804
 42
-3.1474104178
  0
ELLIPSE
  5
77E
100
AcDbEntity
  8
268
100
AcDbEllipse
 62
7
  6
CONTINUOUS
 10
39.4130901171
 20
23.8443375673
 30
0.0
 11
-0.0
 21
0.25
 31
0.0
 40
0.0058178298
 41
-2.617993878
 42
-1.5707963268
  0
ELLIPSE
  5
77F
100
AcDbEntity
  8
268
100
AcDbEllipse
 62
7
  6
CONTINUOUS
 10
41.6869098829
 20
23.8443375673
 30
0.0
 11
0.0
 21
0.25
 31
0.0
 40
0.0058178298
 41
-4.7123889804
 42
-3.6651914292
  0
ELLIPSE
  5
780
100
AcDbEntity
  8
268
100
AcDbEllipse
 62
7
  6
CONTINUOUS
 10
41.6869098829
 20
24.1369056521
 30
0.0
 11
-0.0
 21
0.25
 31
0.0
 40
0.0058178298
 41
0.0058177642
 42
1.5707963268
  0
ELLIPSE
  5
781
100
AcDbEntity
  8
268
100
AcDbEllipse
 62
7
  6
CONTINUOUS
 10
39.4130901171
 20
24.1369056521
 30
0.0
 11
0.0
 21
0.25
 31
0.0
 40
0.0058178298
 41
-1.5707963268
 42
-0.0058177642
  0
ELLIPSE
  5
782
100
AcDbEntity
  8
268
100
AcDbEllipse
 62
7
  6
CONTINUOUS
 10
58.3130901171
 20
23.8443375673
 30
0.0
 11
0.0
 21
0.25
 31
0.0
 40
0.0058178298
 41
-2.617993878
 42
-1.5707963268
  0
ELLIPSE
  5
783
100
AcDbEntity
  8
268
100
AcDbEllipse
 62
7
  6
CONTINUOUS
 10
60.5869098829
 20
23.8443375673
 30
0.0
 11
0.0
 21
0.25
 31
0.0
 40
0.0058178298
 41
-4.7123889804
 42
-3.6651914292
  0
ELLIPSE
  5
784
100
AcDbEntity
  8
268
100
AcDbEllipse
 62
7
  6
CONTINUOUS
 10
60.5869098829
 20
24.1369056521
 30
0.0
 11
-0.0
 21
0.25
 31
0.0
 40
0.0058178298
 41
0.0058177642
 42
1.5707963268
  0
ELLIPSE
  5
785
100
AcDbEntity
  8
268
100
AcDbEllipse
 62
7
  6
CONTINUOUS
 10
58.3130901171
 20
24.1369056521
 30
0.0
 11
-0.0
 21
0.25
 31
0.0
 40
0.0058178298
 41
-1.5707963268
 42
-0.0058177642
  0
ELLIPSE
  5
786
100
AcDbEntity
  8
268
100
AcDbEllipse
 62
7
  6
CONTINUOUS
 10
45.9040775579
 20
-22.3938911925
 30
0.0
 11
0.3
 21
-0.0
 31
0.0
 40
0.0087268678
 41
1.5707963268
 42
3.1357748894
  0
ELLIPSE
  5
787
100
AcDbEntity
  8
268
100
AcDbEllipse
 62
7
  6
CONTINUOUS
 10
45.9040775579
 20
-23.7959275191
 30
0.0
 11
0.3
 21
0.0
 31
0.0
 40
0.0058178298
 41
1.5707963268
 42
3.1357748894
  0
ELLIPSE
  5
788
100
AcDbEntity
  8
268
100
AcDbEllipse
 62
7
  6
CONTINUOUS
 10
54.0959224421
 20
-23.7959275191
 30
0.0
 11
0.3
 21
0.0
 31
0.0
 40
0.0058178298
 41
0.0058177642
 42
1.5707963268
  0
ELLIPSE
  5
789
100
AcDbEntity
  8
268
100
AcDbEllipse
 62
7
  6
CONTINUOUS
 10
54.0959224421
 20
-22.3938911925
 30
0.0
 11
0.3
 21
0.0
 31
0.0
 40
0.0087268678
 41
0.0058177642
 42
1.5707963268
  0
ELLIPSE
  5
78A
100
AcDbEntity
  8
268
100
AcDbEllipse
 62
7
  6
CONTINUOUS
 10
45.9040775579
 20
23.7959275191
 30
0.0
 11
0.3
 21
0.0
 31
0.0
 40
0.0058178298
 41
-3.1357748894
 42
-1.5707963268
  0
ELLIPSE
  5
78B
100
AcDbEntity
  8
268
100
AcDbEllipse
 62
7
  6
CONTINUOUS
 10
45.9040775579
 20
22.3938911925
 30
0.0
 11
0.3
 21
-0.0
 31
0.0
 40
0.0087268678
 41
-3.1357748894
 42
-1.5707963268
  0
ELLIPSE
  5
78C
100
AcDbEntity
  8
268
100
AcDbEllipse
 62
7
  6
CONTINUOUS
 10
54.0959224421
 20
22.3938911925
 30
0.0
 11
0.3
 21
-0.0
 31
0.0
 40
0.0087268678
 41
-1.5707963268
 42
-0.0058177642
  0
ELLIPSE
  5
78D
100
AcDbEntity
  8
268
100
AcDbEllipse
 62
7
  6
CONTINUOUS
 10
54.0959224421
 20
23.7959275191
 30
0.0
 11
0.3
 21
-0.0
 31
0.0
 40
0.0058178298
 41
-1.5707963268
 42
-0.0058177642
  0
ELLIPSE
  5
78E
100
AcDbEntity
  8
218140080
100
AcDbEllipse
 62
250
  6
CONTINUOUS
 10
2.5626648435
 20
-12.659757
 30
0.0
 11
-0.0
 21
0.65
 31
0.0
 40
0.9996954135
 41
-1.5707963268
 42
1.5707963268
  0
ELLIPSE
  5
78F
100
AcDbEntity
  8
218140080
100
AcDbEllipse
 62
250
  6
CONTINUOUS
 10
-1.2976776883
 20
-4.680795
 30
0.0
 11
-0.0
 21
0.352865
 31
0.0
 40
0.9996954135
 41
-1.5707963268
 42
1.5707963268
  0
ENDSEC
  0
SECTION
  2
OBJECTS
  0
DICTIONARY
  5
C
100
AcDbDictionary
280
0
281
1
  3
ACAD_GROUP
350
D
  3
ACAD_MLINESTYLE
350
17
  3
ACAD_LAYOUT
350
1A
  3
ACAD_PLOTSETTINGS
350
19
  3
ACAD_PLOTSTYLENAME
350
E
  0
DICTIONARY
  5
D
102
{ACAD_REACTORS
330
C
102
}
100
AcDbDictionary
280
0
281
1
  0
ACDBDICTIONARYWDFLT
  5
E
102
{ACAD_REACTORS
330
C
102
}
100
AcDbDictionary
281
1
  3
Normal
350
F
100
AcDbDictionaryWithDefault
340
F
  0
DICTIONARY
  5
17
102
{ACAD_REACTORS
330
C
102
}
100
AcDbDictionary
280
0
281
1
  3
Standard
350
18
  0
DICTIONARY
  5
19
102
{ACAD_REACTORS
330
C
102
}
100
AcDbDictionary
281
1
  0
DICTIONARY
  5
1A
102
{ACAD_REACTORS
330
C
102
}
100
AcDbDictionary
281
1
  3
Model
350
790
  3
Layout1
350
791
  0
ACDBPLACEHOLDER
  5
F
102
{ACAD_REACTORS
330
E
102
}
  0
MLINESTYLE
  5
18
102
{ACAD_REACTORS
330
17
102
}
100
AcDbMlineStyle
  2
STANDARD
 70
0
  3

 62
256
 51
90.0
 52
90.0
 71
2
 49
0.5
 62
256
  6
BYLAYER
 49
-0.5
 62
256
  6
BYLAYER
  0
LAYOUT
  5
790
102
{ACAD_REACTORS
330
1A
102
}
100
AcDbPlotSettings
  1

  2
none_device
  4
ISO_A4_(297.00_x_210.00_MM)
  6

 40
0.0
 41
0.0
 42
0.0
 43
0.0
 44
297.0
 45
210.0
 46
0.0
 47
0.0
 48
0.0
 49
0.0
140
0.0
141
0.0
142
1.0
143
1.0
 70
1024
 72
1
 73
0
 74
0
  7

 75
0
147
1.0
148
0.0
149
0.0
100
AcDbLayout
  1
Model
 70
0
 71
0
 10
0.0
 20
0.0
 11
297.0
 21
210.0
 12
0.0
 22
0.0
 32
0.0
 14
0.0
 24
0.0
 34
0.0
 15
0.0
 25
0.0
 35
0.0
146
0.0
 13
0.0
 23
0.0
 33
0.0
 16
1.0
 26
0.0
 36
0.0
 17
0.0
 27
1.0
 37
0.0
 76
0
330
22E
345
0
346
0
  0
LAYOUT
  5
791
102
{ACAD_REACTORS
330
1A
102
}
100
AcDbPlotSettings
  1

  2
none_device
  4
ISO_A4_(297.00_x_210.00_MM)
  6

 40
0.0
 41
0.0
 42
0.0
 43
0.0
 44
297.0
 45
210.0
 46
0.0
 47
0.0
 48
0.0
 49
0.0
140
0.0
141
0.0
142
1.0
143
1.0
 70
0
 72
1
 73
0
 74
0
  7

 75
0
147
1.0
148
0.0
149
0.0
100
AcDbLayout
  1
Layout1
 70
0
 71
1
 10
0.0
 20
0.0
 11
297.0
 21
210.0
 12
0.0
 22
0.0
 32
0.0
 14
0.0
 24
0.0
 34
0.0
 15
0.0
 25
0.0
 35
0.0
146
0.0
 13
0.0
 23
0.0
 33
0.0
 16
1.0
 26
0.0
 36
0.0
 17
0.0
 27
1.0
 37
0.0
 76
0
330
22F
345
0
346
0
  0
ENDSEC
  0
EOF
