  0
SECTION
  2
HEADER
  9
$ACADVER
  1
AC1015
  9
$DWGCODEPAGE
  3
ANSI_1252
  9
$EXTMAX
 10
297.0
 20
210.0
 30
0.0
  9
$EXTMIN
 10
0.0
 20
0.0
 30
0.0
  9
$LIMMIN
 10
0.0
 20
0.0
  9
$LIMMAX
 10
297.0
 20
210.0
  9
$VIEWCTR
 10
148.5
 20
105.0
  9
$VIEWSIZE
 40
210.0
  9
$CLAYER
  8
0
  9
$LTSCALE
 40
16.335
  9
$CELTYPE
  6
BYLAYER
  9
$DIMSCALE
 40
1.0
  9
$DIMASZ
 40
3.0
  9
$DIMEXO
 40
1.85625
  9
$DIMDLI
 40
11.286
  9
$DIMEXE
 40
5.346
  9
$DIMCEN
 40
2.673
  9
$DIMLFAC
 40
1.0
  9
$DIMBLK
  1
_FILLED
  9
$DIMTXT
 40
3.0
  9
$DIMTOL
 70
1
  9
$DIMLIM
 70
0
  9
$DIMTFAC
 40
1.0
  9
$DIMTP
 40
0.01
  9
$DIMTM
 40
0.01
  9
$PDMODE
 70
3
  9
$PDSIZE
 40
3.0
  9
$HANDSEED
  5
4A1
  9
$TILEMODE
 70
1
  9
$MEASUREMENT
 70
1
  9
$INSUNITS
 70
4
  0
ENDSEC
  0
SECTION
  2
CLASSES
  0
CLASS
  1
ACDBDICTIONARYWDFLT
  2
AcDbDictionaryWithDefault
  3
AutoCAD 2000
 90
0
280
0
281
0
  0
CLASS
  1
ACDBPLACEHOLDER
  2
AcDbPlaceHolder
  3
AutoCAD 2000
 90
0
280
0
281
0
  0
CLASS
  1
LAYOUT
  2
AcDbLayout
  3
AutoCAD 2000
 90
0
280
0
281
0
  0
ENDSEC
  0
SECTION
  2
TABLES
  0
TABLE
  2
VPORT
  5
8
100
AcDbSymbolTable
 70
2
  0
VPORT
  5
1F4
100
AcDbSymbolTableRecord
100
AcDbViewportTableRecord
  2
*ACTIVE
 70
0
 10
0.0
 20
0.0
 11
1.0
 21
1.0
 12
148.5
 22
105.0
 13
0.0
 23
0.0
 14
1.0
 24
1.0
 15
0.0
 25
0.0
 16
0.0
 26
0.0
 36
1.0
 17
0.0
 27
0.0
 37
0.0
 40
210.0
 41
1.4142857143
 42
50.0
 43
0.0
 44
0.0
 50
0.0
 51
0.0
 71
0
 72
100
 73
1
 74
1
 75
0
 76
0
 77
0
 78
0
  0
ENDTAB
  0
TABLE
  2
LTYPE
  5
5
100
AcDbSymbolTable
 70
6
  0
LTYPE
  5
14
100
AcDbSymbolTableRecord
100
AcDbLinetypeTableRecord
  2
BYBLOCK
 70
0
  3

 72
65
 73
0
 40
0.0
  0
LTYPE
  5
15
100
AcDbSymbolTableRecord
100
AcDbLinetypeTableRecord
  2
BYLAYER
 70
0
  3

 72
65
 73
0
 40
0.0
  0
LTYPE
  5
16
100
AcDbSymbolTableRecord
100
AcDbLinetypeTableRecord
  2
CONTINUOUS
 70
64
  3
Solid line
 72
65
 73
0
 40
0.0
  0
LTYPE
  5
1F5
100
AcDbSymbolTableRecord
100
AcDbLinetypeTableRecord
  2
CENTER
 70
64
  3
____ _ ____ _ ____ _ ____ _ ____ _ ____ _ ____
 72
65
 73
4
 40
0.6
 49
0.375
 74
0
 49
-0.075
 74
0
 49
0.075
 74
0
 49
-0.075
 74
0
  0
LTYPE
  5
1F6
100
AcDbSymbolTableRecord
100
AcDbLinetypeTableRecord
  2
HIDDEN
 70
64
  3
- - - - - - - - - - - - - - - - - - - -
 72
65
 73
2
 40
0.2
 49
0.1
 74
0
 49
-0.1
 74
0
  0
LTYPE
  5
1F7
100
AcDbSymbolTableRecord
100
AcDbLinetypeTableRecord
  2
PHANTOM
 70
64
  3
_____ _ _ _____ _ _ _____ _ _ _____
 72
65
 73
6
 40
0.8
 49
0.45
 74
0
 49
-0.05
 74
0
 49
0.1
 74
0
 49
-0.05
 74
0
 49
0.1
 74
0
 49
-0.05
 74
0
  0
LTYPE
  5
1F8
100
AcDbSymbolTableRecord
100
AcDbLinetypeTableRecord
  2
DOT
 70
64
  3
. . . . . . . . . . . . . . . . . . . .
 72
65
 73
2
 40
0.2
 49
0.1
 74
0
 49
-0.1
 74
0
  0
LTYPE
  5
1F9
100
AcDbSymbolTableRecord
100
AcDbLinetypeTableRecord
  2
DASHED
 70
64
  3
- - - - - - - - - - - - - - - - - - - -
 72
65
 73
2
 40
0.2
 49
0.1
 74
0
 49
-0.1
 74
0
  0
ENDTAB
  0
TABLE
  2
LAYER
  5
2
100
AcDbSymbolTable
 70
36
  0
LAYER
  5
10
100
AcDbSymbolTableRecord
100
AcDbLayerTableRecord
  2
0
 70
0
 62
7
  6
CONTINUOUS
370
-3
390
F
  0
LAYER
  5
1FA
100
AcDbSymbolTableRecord
100
AcDbLayerTableRecord
  2
DEFAULT_1
 70
0
 62
7
  6
CENTER
370
-3
390
F
  0
LAYER
  5
1FB
100
AcDbSymbolTableRecord
100
AcDbLayerTableRecord
  2
DEFAULT_2
 70
0
 62
7
  6
HIDDEN
370
-3
390
F
  0
LAYER
  5
1FC
100
AcDbSymbolTableRecord
100
AcDbLayerTableRecord
  2
DEFAULT_3
 70
0
 62
7
  6
PHANTOM
370
-3
390
F
  0
LAYER
  5
1FD
100
AcDbSymbolTableRecord
100
AcDbLayerTableRecord
  2
ASSI
 70
0
 62
7
  6
CONTINUOUS
370
-3
390
F
  0
LAYER
  5
1FE
100
AcDbSymbolTableRecord
100
AcDbLayerTableRecord
  2
COLOR5
 70
0
 62
7
  6
CONTINUOUS
370
-3
390
F
  0
LAYER
  5
1FF
100
AcDbSymbolTableRecord
100
AcDbLayerTableRecord
  2
COORDINATE
 70
0
 62
7
  6
CONTINUOUS
370
-3
390
F
  0
LAYER
  5
200
100
AcDbSymbolTableRecord
100
AcDbLayerTableRecord
  2
COORD_ORIGINE
 70
0
 62
7
  6
CONTINUOUS
370
-3
390
F
  0
LAYER
  5
201
100
AcDbSymbolTableRecord
100
AcDbLayerTableRecord
  2
COPY_PUBLISH
 70
0
 62
7
  6
CONTINUOUS
370
-3
390
F
  0
LAYER
  5
202
100
AcDbSymbolTableRecord
100
AcDbLayerTableRecord
  2
COSMETIC
 70
0
 62
7
  6
CONTINUOUS
370
-3
390
F
  0
LAYER
  5
203
100
AcDbSymbolTableRecord
100
AcDbLayerTableRecord
  2
CURVE
 70
0
 62
7
  6
CONTINUOUS
370
-3
390
F
  0
LAYER
  5
204
100
AcDbSymbolTableRecord
100
AcDbLayerTableRecord
  2
DRAFT
 70
0
 62
7
  6
CONTINUOUS
370
-3
390
F
  0
LAYER
  5
205
100
AcDbSymbolTableRecord
100
AcDbLayerTableRecord
  2
IMPORT_IGES
 70
0
 62
7
  6
CONTINUOUS
370
-3
390
F
  0
LAYER
  5
206
100
AcDbSymbolTableRecord
100
AcDbLayerTableRecord
  2
INTF_1
 70
0
 62
7
  6
CONTINUOUS
370
-3
390
F
  0
LAYER
  5
207
100
AcDbSymbolTableRecord
100
AcDbLayerTableRecord
  2
INTF_2
 70
0
 62
7
  6
CONTINUOUS
370
-3
390
F
  0
LAYER
  5
208
100
AcDbSymbolTableRecord
100
AcDbLayerTableRecord
  2
NOTE
 70
0
 62
7
  6
CONTINUOUS
370
-3
390
F
  0
LAYER
  5
209
100
AcDbSymbolTableRecord
100
AcDbLayerTableRecord
  2
PIANI
 70
0
 62
7
  6
CONTINUOUS
370
-3
390
F
  0
LAYER
  5
20A
100
AcDbSymbolTableRecord
100
AcDbLayerTableRecord
  2
PIANI_ORIGINE
 70
0
 62
7
  6
CONTINUOUS
370
-3
390
F
  0
LAYER
  5
20B
100
AcDbSymbolTableRecord
100
AcDbLayerTableRecord
  2
PUNTI
 70
0
 62
7
  6
CONTINUOUS
370
-3
390
F
  0
LAYER
  5
20C
100
AcDbSymbolTableRecord
100
AcDbLayerTableRecord
  2
RACCORDO
 70
0
 62
7
  6
CONTINUOUS
370
-3
390
F
  0
LAYER
  5
20D
100
AcDbSymbolTableRecord
100
AcDbLayerTableRecord
  2
RGB__255__255__255__
 70
0
 62
7
  6
CONTINUOUS
370
-3
390
F
  0
LAYER
  5
20E
100
AcDbSymbolTableRecord
100
AcDbLayerTableRecord
  2
RGB____0____0____0__
 70
0
 62
7
  6
CONTINUOUS
370
-3
390
F
  0
LAYER
  5
20F
100
AcDbSymbolTableRecord
100
AcDbLayerTableRecord
  2
SMUSSO
 70
0
 62
7
  6
CONTINUOUS
370
-3
390
F
  0
LAYER
  5
210
100
AcDbSymbolTableRecord
100
AcDbLayerTableRecord
  2
SNAPLINE
 70
0
 62
7
  6
CONTINUOUS
370
-3
390
F
  0
LAYER
  5
211
100
AcDbSymbolTableRecord
100
AcDbLayerTableRecord
  2
SUPERFICI
 70
0
 62
7
  6
CONTINUOUS
370
-3
390
F
  0
LAYER
  5
212
100
AcDbSymbolTableRecord
100
AcDbLayerTableRecord
  2
TRASH
 70
0
 62
7
  6
CONTINUOUS
370
-3
390
F
  0
LAYER
  5
213
100
AcDbSymbolTableRecord
100
AcDbLayerTableRecord
  2
XSEC_DATUMS
 70
0
 62
7
  6
CONTINUOUS
370
-3
390
F
  0
ENDTAB
  0
TABLE
  2
STYLE
  5
3
100
AcDbSymbolTable
 70
1
  0
STYLE
  5
11
100
AcDbSymbolTableRecord
100
AcDbTextStyleTableRecord
  2
STANDARD
 70
0
 40
0.0
 41
0.8
 50
0.0
 71
0
 42
0.2
  3
txt
  4

  0
STYLE
  5
214
100
AcDbSymbolTableRecord
100
AcDbTextStyleTableRecord
  2
TEXTSTYLE_1
 70
0
 40
0.0
 41
0.8
 50
0.0
 71
0
 42
0.2
  3
gdt
  4

  0
ENDTAB
  0
TABLE
  2
VIEW
  5
6
100
AcDbSymbolTable
 70
0
  0
ENDTAB
  0
TABLE
  2
UCS
  5
7
100
AcDbSymbolTable
 70
0
  0
ENDTAB
  0
TABLE
  2
APPID
  5
9
100
AcDbSymbolTable
 70
1
  0
APPID
  5
215
100
AcDbSymbolTableRecord
100
AcDbRegAppTableRecord
  2
ACAD
 70
0
  0
ENDTAB
  0
TABLE
  2
BLOCK_RECORD
  5
1
100
AcDbSymbolTable
 70
0
  0
BLOCK_RECORD
  5
216
100
AcDbSymbolTableRecord
100
AcDbBlockTableRecord
  2
*Model_Space
  0
BLOCK_RECORD
  5
217
100
AcDbSymbolTableRecord
100
AcDbBlockTableRecord
  2
*Paper_Space
  0
BLOCK_RECORD
  5
218
100
AcDbSymbolTableRecord
100
AcDbBlockTableRecord
  2
_FILLED
  0
BLOCK_RECORD
  5
219
100
AcDbSymbolTableRecord
100
AcDbBlockTableRecord
  2
*D0
  0
BLOCK_RECORD
  5
21A
100
AcDbSymbolTableRecord
100
AcDbBlockTableRecord
  2
*D1
  0
BLOCK_RECORD
  5
21B
100
AcDbSymbolTableRecord
100
AcDbBlockTableRecord
  2
*D2
  0
BLOCK_RECORD
  5
21C
100
AcDbSymbolTableRecord
100
AcDbBlockTableRecord
  2
*D3
  0
ENDTAB
  0
TABLE
  2
DIMSTYLE
  5
A
100
AcDbSymbolTable
 70
1
100
AcDbDimStyleTable
 71
0
  0
DIMSTYLE
105
21D
100
AcDbSymbolTableRecord
100
AcDbDimStyleTableRecord
  2
STANDARD
 70
0
  3

  4

 40
1.0
 41
3.0
 42
0.0625
 43
0.38
 44
0.18
 45
0.0
 46
0.0
 47
0.01
 48
0.01
140
3.0
141
0.09
142
0.0
143
25.4
144
1.0
145
0.0
146
1.0
147
0.09
 71
1.0
 72
0.0
 73
0
 74
0
 75
0
 76
0
 77
1
 78
8
170
0
171
2
172
0
173
0
174
0
175
0
176
0
177
0
178
0
270
2
271
2
272
2
273
2
274
2
275
0
280
0
281
0
282
0
283
1
284
8
285
0
286
0
287
3
288
0
340
11
341
218
342
218
343
218
344
218
  0
DIMSTYLE
105
21E
100
AcDbSymbolTableRecord
100
AcDbDimStyleTableRecord
  2
DIMSTYLE_1
 70
0
  3

  4

 40
1.0
 41
3.0
 42
0.0625
 43
0.38
 44
0.18
 45
0.0
 46
0.0
 47
0.0
 48
0.0
140
3.0
141
0.09
142
0.0
143
25.4
144
1.0
145
0.0
146
1.0
147
0.09
 71
0.0
 72
0.0
 73
0
 74
0
 75
0
 76
0
 77
1
 78
8
170
0
171
2
172
0
173
0
174
0
175
0
176
0
177
0
178
0
270
2
271
2
272
2
273
2
274
2
275
0
280
0
281
0
282
0
283
1
284
8
285
0
286
0
287
3
288
0
340
11
341
218
342
218
343
218
344
218
  0
DIMSTYLE
105
21F
100
AcDbSymbolTableRecord
100
AcDbDimStyleTableRecord
  2
DIMSTYLE_2
 70
0
  3

  4

 40
1.0
 41
3.0
 42
0.0625
 43
0.38
 44
0.18
 45
0.0
 46
0.0
 47
0.0
 48
0.0
140
3.0
141
0.09
142
0.0
143
25.4
144
1.0
145
0.0
146
1.0
147
0.09
 71
0.0
 72
0.0
 73
0
 74
0
 75
0
 76
0
 77
1
 78
8
170
0
171
2
172
0
173
0
174
0
175
0
176
0
177
0
178
0
270
2
271
0
272
0
273
2
274
2
275
0
280
0
281
0
282
0
283
1
284
8
285
0
286
0
287
3
288
0
340
11
341
218
342
218
343
218
344
218
  0
ENDTAB
  0
ENDSEC
  0
SECTION
  2
BLOCKS
  0
BLOCK
  5
20
100
AcDbEntity
  8
0
100
AcDbBlockBegin
  2
*Model_Space
 70
0
 10
0.0
 20
0.0
 30
0.0
  3
*Model_Space
  1

  0
ENDBLK
  5
21
100
AcDbEntity
  8
0
100
AcDbBlockEnd
  0
BLOCK
  5
1C
100
AcDbEntity
  8
0
100
AcDbBlockBegin
  2
*Paper_Space
 70
0
 10
0.0
 20
0.0
 30
0.0
  3
*Paper_Space
  1

  0
ENDBLK
  5
1D
100
AcDbEntity
  8
0
100
AcDbBlockEnd
  0
BLOCK
  5
220
100
AcDbEntity
  8
0
100
AcDbBlockBegin
  2
_FILLED
 70
64
 10
0.0
 20
0.0
  3
_FILLED
  1

  0
SOLID
  5
221
100
AcDbEntity
  8
0
  6
BYBLOCK
 62
0
100
AcDbTrace
 10
0.0
 20
0.0
 11
-1.0
 21
0.3166666667
 12
-1.0
 22
-0.3166666667
 13
-1.0
 23
-0.3166666667
  0
ENDBLK
  5
222
100
AcDbEntity
  8
0
  6
BYBLOCK
 62
0
100
AcDbBlockEnd
  0
BLOCK
  5
223
100
AcDbEntity
  8
0
100
AcDbBlockBegin
 62
7
  6
CONTINUOUS
  2
*D0
 70
65
 10
0.0
 20
0.0
  3
*D0
  1

  0
MTEXT
  5
224
100
AcDbEntity
  8
0
100
AcDbMText
 62
7
  6
CONTINUOUS
  7
STANDARD
 71
2
 72
1
 10
-106.6037226112
 20
58.2819553157
 30
0.0
 11
1.0
 21
0.0
 31
0.0
 44
0.9
  1
65
 40
3.0
 41
4.5
  0
LINE
  5
225
100
AcDbEntity
  8
0
100
AcDbLine
 62
7
  6
CONTINUOUS
 10
-74.1037227916
 20
35.331207269
 11
-74.1037227916
 21
56.0319553157
  0
LINE
  5
226
100
AcDbEntity
  8
0
100
AcDbLine
 62
7
  6
CONTINUOUS
 10
-139.1037224308
 20
-4.5319553145
 11
-139.1037224308
 21
56.0319553157
  0
LINE
  5
227
100
AcDbEntity
  8
0
100
AcDbLine
 62
7
  6
CONTINUOUS
 10
-74.1037227916
 20
54.5319553157
 11
-106.6037226112
 21
54.5319553157
  0
LINE
  5
228
100
AcDbEntity
  8
0
100
AcDbLine
 62
7
  6
CONTINUOUS
 10
-139.1037224308
 20
54.5319553157
 11
-106.6037226112
 21
54.5319553157
  0
INSERT
  5
229
100
AcDbEntity
  8
0
100
AcDbBlockReference
 62
7
  6
CONTINUOUS
  2
_FILLED
 10
-74.1037227916
 20
54.5319553157
 41
3.0
 42
3.0
 43
3.0
  0
INSERT
  5
22A
100
AcDbEntity
  8
0
100
AcDbBlockReference
 62
7
  6
CONTINUOUS
  2
_FILLED
 10
-139.1037224308
 20
54.5319553157
 41
3.0
 42
3.0
 43
3.0
 50
180.0
  0
ENDBLK
  5
22B
100
AcDbEntity
  8
0
  6
BYBLOCK
 62
0
100
AcDbBlockEnd
  0
BLOCK
  5
22C
100
AcDbEntity
  8
0
100
AcDbBlockBegin
 62
7
  6
CONTINUOUS
  2
*D1
 70
65
 10
0.0
 20
0.0
  3
*D1
  1

  0
MTEXT
  5
22D
100
AcDbEntity
  8
0
100
AcDbMText
 62
7
  6
CONTINUOUS
  7
STANDARD
 71
2
 72
1
 10
0.0
 20
58.2819553157
 30
0.0
 11
1.0
 21
0.0
 31
0.0
 44
0.9
  1
100
 40
3.0
 41
6.4285714286
  0
LINE
  5
22E
100
AcDbEntity
  8
0
100
AcDbLine
 62
7
  6
CONTINUOUS
 10
-50.0
 20
35.4681017998
 11
-50.0
 21
56.0319553157
  0
LINE
  5
22F
100
AcDbEntity
  8
0
100
AcDbLine
 62
7
  6
CONTINUOUS
 10
50.0
 20
35.4681017998
 11
50.0
 21
56.0319553157
  0
LINE
  5
230
100
AcDbEntity
  8
0
100
AcDbLine
 62
7
  6
CONTINUOUS
 10
-50.0
 20
54.5319553157
 11
0.0
 21
54.5319553157
  0
LINE
  5
231
100
AcDbEntity
  8
0
100
AcDbLine
 62
7
  6
CONTINUOUS
 10
50.0
 20
54.5319553157
 11
0.0
 21
54.5319553157
  0
INSERT
  5
232
100
AcDbEntity
  8
0
100
AcDbBlockReference
 62
7
  6
CONTINUOUS
  2
_FILLED
 10
-50.0
 20
54.5319553157
 41
3.0
 42
3.0
 43
3.0
 50
180.0
  0
INSERT
  5
233
100
AcDbEntity
  8
0
100
AcDbBlockReference
 62
7
  6
CONTINUOUS
  2
_FILLED
 10
50.0
 20
54.5319553157
 41
3.0
 42
3.0
 43
3.0
  0
ENDBLK
  5
234
100
AcDbEntity
  8
0
  6
BYBLOCK
 62
0
100
AcDbBlockEnd
  0
BLOCK
  5
235
100
AcDbEntity
  8
0
100
AcDbBlockBegin
 62
7
  6
CONTINUOUS
  2
*D2
 70
65
 10
0.0
 20
0.0
  3
*D2
  1

  0
MTEXT
  5
236
100
AcDbEntity
  8
0
100
AcDbMText
 62
7
  6
CONTINUOUS
  7
STANDARD
 71
2
 72
1
 10
64.25
 20
-0.0
 30
0.0
 11
0.0
 21
1.0
 31
0.0
 44
0.9
  1
93
 40
3.0
 41
4.5
  0
LINE
  5
237
100
AcDbEntity
  8
0
100
AcDbLine
 62
7
  6
CONTINUOUS
 10
49.0000571154
 20
-46.5319553157
 11
69.5
 21
-46.5319553157
  0
LINE
  5
238
100
AcDbEntity
  8
0
100
AcDbLine
 62
7
  6
CONTINUOUS
 10
-0.5
 20
46.5319553157
 11
69.5
 21
46.5319553157
  0
LINE
  5
239
100
AcDbEntity
  8
0
100
AcDbLine
 62
7
  6
CONTINUOUS
 10
68.0
 20
-46.5319553157
 11
68.0
 21
0.0
  0
LINE
  5
23A
100
AcDbEntity
  8
0
100
AcDbLine
 62
7
  6
CONTINUOUS
 10
68.0
 20
46.5319553157
 11
68.0
 21
0.0
  0
INSERT
  5
23B
100
AcDbEntity
  8
0
100
AcDbBlockReference
 62
7
  6
CONTINUOUS
  2
_FILLED
 10
68.0
 20
-46.5319553157
 41
3.0
 42
3.0
 43
3.0
 50
270.0
  0
INSERT
  5
23C
100
AcDbEntity
  8
0
100
AcDbBlockReference
 62
7
  6
CONTINUOUS
  2
_FILLED
 10
68.0
 20
46.5319553157
 41
3.0
 42
3.0
 43
3.0
 50
90.0
  0
ENDBLK
  5
23D
100
AcDbEntity
  8
0
  6
BYBLOCK
 62
0
100
AcDbBlockEnd
  0
BLOCK
  5
23E
100
AcDbEntity
  8
0
100
AcDbBlockBegin
 62
7
  6
CONTINUOUS
  2
*D3
 70
65
 10
0.0
 20
0.0
  3
*D3
  1

  0
MTEXT
  5
23F
100
AcDbEntity
  8
0
100
AcDbMText
 62
7
  6
CONTINUOUS
  7
STANDARD
 71
2
 72
1
 10
54.25
 20
-5.0319553157
 30
0.0
 11
0.0
 21
1.0
 31
0.0
 44
0.9
  1
83
 40
3.0
 41
4.5
  0
LINE
  5
240
100
AcDbEntity
  8
0
100
AcDbLine
 62
7
  6
CONTINUOUS
 10
49.0000571154
 20
36.4680446843
 11
59.5
 21
36.4680446843
  0
LINE
  5
241
100
AcDbEntity
  8
0
100
AcDbLine
 62
7
  6
CONTINUOUS
 10
49.0000571154
 20
-46.5319553157
 11
59.5
 21
-46.5319553157
  0
LINE
  5
242
100
AcDbEntity
  8
0
100
AcDbLine
 62
7
  6
CONTINUOUS
 10
58.0
 20
36.4680446843
 11
58.0
 21
-5.0319553157
  0
LINE
  5
243
100
AcDbEntity
  8
0
100
AcDbLine
 62
7
  6
CONTINUOUS
 10
58.0
 20
-46.5319553157
 11
58.0
 21
-5.0319553157
  0
INSERT
  5
244
100
AcDbEntity
  8
0
100
AcDbBlockReference
 62
7
  6
CONTINUOUS
  2
_FILLED
 10
58.0
 20
36.4680446843
 41
3.0
 42
3.0
 43
3.0
 50
90.0
  0
INSERT
  5
245
100
AcDbEntity
  8
0
100
AcDbBlockReference
 62
7
  6
CONTINUOUS
  2
_FILLED
 10
58.0
 20
-46.5319553157
 41
3.0
 42
3.0
 43
3.0
 50
270.0
  0
ENDBLK
  5
246
100
AcDbEntity
  8
0
  6
BYBLOCK
 62
0
100
AcDbBlockEnd
  0
ENDSEC
  0
SECTION
  2
ENTITIES
  0
DIMENSION
  5
247
100
AcDbEntity
  8
0
100
AcDbDimension
 62
7
  6
CONTINUOUS
  2
*D0
 10
-139.1037224308
 20
54.5319553157
 11
-108.8537226112
 21
56.7819553157
 70
160
 71
2
 42
64.9999996393
  3
DIMSTYLE_1
100
AcDbAlignedDimension
 13
-74.1037227916
 23
35.331207269
 14
-139.1037224308
 24
-4.5319553145
 50
180.0
100
AcDbRotatedDimension
  0
DIMENSION
  5
248
100
AcDbEntity
  8
0
100
AcDbDimension
 62
7
  6
CONTINUOUS
  2
*D1
 10
50.0
 20
54.5319553157
 11
-3.2142857143
 21
56.7819553157
 70
160
 71
2
 42
100.0
  3
DIMSTYLE_1
100
AcDbAlignedDimension
 13
-50.0
 23
35.4681017998
 14
50.0
 24
35.4681017998
100
AcDbRotatedDimension
  0
DIMENSION
  5
249
100
AcDbEntity
  8
0
100
AcDbDimension
 62
7
  6
CONTINUOUS
  2
*D2
 10
68.0
 20
46.5319553157
 11
66.7581656363
 21
-2.0114924931
 70
160
 71
2
 42
93.0639106313
  3
DIMSTYLE_2
100
AcDbAlignedDimension
 13
49.0000571154
 23
-46.5319553157
 14
-0.5
 24
46.5319553157
 50
90.0
100
AcDbRotatedDimension
  0
DIMENSION
  5
24A
100
AcDbEntity
  8
0
100
AcDbDimension
 62
7
  6
CONTINUOUS
  2
*D3
 10
58.0
 20
-46.5319553157
 11
56.7581656363
 21
-7.0434478088
 70
160
 71
2
 42
83.0
  3
DIMSTYLE_1
100
AcDbAlignedDimension
 13
49.0000571154
 23
36.4680446843
 14
49.0000571154
 24
-46.5319553157
 50
270.0
100
AcDbRotatedDimension
  0
LINE
  5
24B
100
AcDbEntity
  8
RACCORDO
100
AcDbLine
 62
7
  6
CONTINUOUS
 10
-47.8968134915
 20
-43.9468990791
 11
-47.840352844
 21
-44.5129288061
  0
LINE
  5
24C
100
AcDbEntity
  8
RACCORDO
100
AcDbLine
 62
7
  6
CONTINUOUS
 10
-50.0
 20
34.9680446843
 11
-50.0
 21
-45.0319553157
  0
LINE
  5
24D
100
AcDbEntity
  8
0
100
AcDbLine
 62
7
  6
CONTINUOUS
 10
-38.0666665673
 20
-38.8191893649
 11
-37.80625
 21
-38.978763828
  0
LINE
  5
24E
100
AcDbEntity
  8
0
100
AcDbLine
 62
7
  6
CONTINUOUS
 10
-35.775
 20
-38.8191893649
 11
-35.5145831347
 21
-38.978763828
  0
LINE
  5
24F
100
AcDbEntity
  8
0
100
AcDbLine
 62
7
  6
CONTINUOUS
 10
-36.7125
 20
-37.6489766081
 11
-36.9729165673
 21
-37.489402159
  0
LINE
  5
250
100
AcDbEntity
  8
0
100
AcDbLine
 62
7
  6
CONTINUOUS
 10
-34.4208331347
 20
-37.6489766081
 11
-34.68125
 21
-37.489402159
  0
LINE
  5
251
100
AcDbEntity
  8
0
100
AcDbLine
 62
7
  6
CONTINUOUS
 10
-37.7541665673
 20
-38.7128063803
 11
-37.9104165673
 21
-38.6064234142
  0
LINE
  5
252
100
AcDbEntity
  8
0
100
AcDbLine
 62
7
  6
CONTINUOUS
 10
-37.025
 20
-37.7553595741
 11
-36.86875
 21
-37.8617425402
  0
LINE
  5
253
100
AcDbEntity
  8
0
100
AcDbLine
 62
7
  6
CONTINUOUS
 10
-35.4625
 20
-38.7128063803
 11
-35.61875
 21
-38.6064234142
  0
LINE
  5
254
100
AcDbEntity
  8
0
100
AcDbLine
 62
7
  6
CONTINUOUS
 10
-34.7333331347
 20
-37.7553595741
 11
-34.5770831347
 21
-37.8617425402
  0
LINE
  5
255
100
AcDbEntity
  8
0
100
AcDbLine
 62
7
  6
CONTINUOUS
 10
-38.9520832837
 20
-36.7447212477
 11
-39.1604167163
 21
-36.5851467987
  0
LINE
  5
256
100
AcDbEntity
  8
0
100
AcDbLine
 62
7
  6
CONTINUOUS
 10
-39.2125
 20
-36.8511042138
 11
-39.1083332837
 21
-36.9574871798
  0
LINE
  5
257
100
AcDbEntity
  8
0
100
AcDbLine
 62
7
  6
CONTINUOUS
 10
-38.2229165673
 20
-38.6064234142
 11
-38.0666665673
 21
-38.8191893649
  0
LINE
  5
258
100
AcDbEntity
  8
0
100
AcDbLine
 62
7
  6
CONTINUOUS
 10
-38.7958334327
 20
-36.9574871798
 11
-38.9520832837
 21
-36.7447212477
  0
LINE
  5
259
100
AcDbEntity
  8
0
100
AcDbLine
 62
7
  6
CONTINUOUS
 10
-36.55625
 20
-37.8617425402
 11
-36.7125
 21
-37.6489766081
  0
LINE
  5
25A
100
AcDbEntity
  8
0
100
AcDbLine
 62
7
  6
CONTINUOUS
 10
-35.93125
 20
-38.6064234142
 11
-35.775
 21
-38.8191893649
  0
LINE
  5
25B
100
AcDbEntity
  8
0
100
AcDbLine
 62
7
  6
CONTINUOUS
 10
-34.2645831347
 20
-37.8617425402
 11
-34.4208331347
 21
-37.6489766081
  0
LINE
  5
25C
100
AcDbEntity
  8
0
100
AcDbLine
 62
7
  6
CONTINUOUS
 10
-36.86875
 20
-37.8617425402
 11
-36.7645834327
 21
-38.0213169892
  0
LINE
  5
25D
100
AcDbEntity
  8
0
100
AcDbLine
 62
7
  6
CONTINUOUS
 10
-34.5770831347
 20
-37.8617425402
 11
-34.4729168653
 21
-38.0213169892
  0
LINE
  5
25E
100
AcDbEntity
  8
0
100
AcDbLine
 62
7
  6
CONTINUOUS
 10
-38.3270834327
 20
-38.3936574449
 11
-38.2229165673
 21
-38.6064234142
  0
LINE
  5
25F
100
AcDbEntity
  8
0
100
AcDbLine
 62
7
  6
CONTINUOUS
 10
-37.9104165673
 20
-38.6064234142
 11
-38.0145834327
 21
-38.3936574449
  0
LINE
  5
260
100
AcDbEntity
  8
RACCORDO
100
AcDbLine
 62
253
  6
CONTINUOUS
 10
-48.3205172436
 20
31.8455392113
 11
-48.3150393266
 21
25.3114558319
  0
LINE
  5
261
100
AcDbEntity
  8
RACCORDO
100
AcDbLine
 62
7
  6
CONTINUOUS
 10
-48.2916321118
 20
-45.4412048248
 11
-48.2916321118
 21
-44.5735969467
  0
LINE
  5
262
100
AcDbEntity
  8
RACCORDO
100
AcDbLine
 62
7
  6
CONTINUOUS
 10
-48.2916321118
 20
34.5096863154
 11
-48.2916321118
 21
35.3772941935
  0
LINE
  5
263
100
AcDbEntity
  8
RACCORDO
100
AcDbLine
 62
7
  6
CONTINUOUS
 10
-48.2
 20
34.4180542036
 11
-48.2
 21
-44.4819648349
  0
LINE
  5
264
100
AcDbEntity
  8
RACCORDO
100
AcDbLine
 62
7
  6
CONTINUOUS
 10
-47.9
 20
27.4680446843
 11
-47.9
 21
-43.5484211998
  0
LINE
  5
265
100
AcDbEntity
  8
RACCORDO
100
AcDbLine
 62
253
  6
CONTINUOUS
 10
-48.3150393266
 20
-35.3753664632
 11
-48.3205172408
 21
-41.9094466584
  0
LINE
  5
266
100
AcDbEntity
  8
RACCORDO
100
AcDbLine
 62
7
  6
CONTINUOUS
 10
-48.5
 20
-46.5319553157
 11
-14.7
 21
-46.5319553157
  0
LINE
  5
267
100
AcDbEntity
  8
RACCORDO
100
AcDbLine
 62
7
  6
CONTINUOUS
 10
14.7
 20
-46.5319553157
 11
48.5
 21
-46.5319553157
  0
LINE
  5
268
100
AcDbEntity
  8
ASSI
100
AcDbLine
 62
7
  6
CONTINUOUS
 10
14.7
 20
-46.5319553157
 11
-14.7
 21
-46.5319553157
  0
LINE
  5
269
100
AcDbEntity
  8
DRAFT
100
AcDbLine
 62
7
  6
CONTINUOUS
 10
-14.9258023047
 20
-46.4861460939
 11
-14.7
 21
-46.4861460939
  0
LINE
  5
26A
100
AcDbEntity
  8
DRAFT
100
AcDbLine
 62
7
  6
CONTINUOUS
 10
14.7
 20
-46.4861460939
 11
14.9258023047
 21
-46.4861460939
  0
LINE
  5
26B
100
AcDbEntity
  8
0
100
AcDbLine
 62
7
  6
CONTINUOUS
 10
-23.5
 20
-46.4490500716
 11
-18.5
 21
-46.4490500716
  0
LINE
  5
26C
100
AcDbEntity
  8
0
100
AcDbLine
 62
7
  6
CONTINUOUS
 10
18.5
 20
-46.4490500716
 11
23.5
 21
-46.4490500716
  0
LINE
  5
26D
100
AcDbEntity
  8
0
100
AcDbLine
 62
7
  6
CONTINUOUS
 10
23.5
 20
-46.4141426005
 11
18.5
 21
-46.4141426005
  0
LINE
  5
26E
100
AcDbEntity
  8
0
100
AcDbLine
 62
7
  6
CONTINUOUS
 10
-18.5
 20
-46.4141426005
 11
-23.5
 21
-46.4141426005
  0
LINE
  5
26F
100
AcDbEntity
  8
RACCORDO
100
AcDbLine
 62
253
  6
CONTINUOUS
 10
-48.350625534
 20
-46.3825237342
 11
-15.1330642872
 21
-46.382522995
  0
LINE
  5
270
100
AcDbEntity
  8
RACCORDO
100
AcDbLine
 62
253
  6
CONTINUOUS
 10
15.1330642872
 20
-46.382522995
 11
48.350625534
 21
-46.3825237343
  0
LINE
  5
271
100
AcDbEntity
  8
RACCORDO
100
AcDbLine
 62
7
  6
CONTINUOUS
 10
13.7
 20
-45.7213150322
 11
-13.7
 21
-45.7213150322
  0
LINE
  5
272
100
AcDbEntity
  8
RACCORDO
100
AcDbLine
 62
7
  6
CONTINUOUS
 10
48.2916321118
 20
-45.4412048248
 11
16.1659754449
 21
-45.4412048248
  0
LINE
  5
273
100
AcDbEntity
  8
RACCORDO
100
AcDbLine
 62
7
  6
CONTINUOUS
 10
-16.1659754449
 20
-45.4412048248
 11
-48.2916321118
 21
-45.4412048248
  0
LINE
  5
274
100
AcDbEntity
  8
0
100
AcDbLine
 62
7
  6
CONTINUOUS
 10
-37.80625
 20
-38.978763828
 11
-37.5458334327
 21
-39.0319553157
  0
LINE
  5
275
100
AcDbEntity
  8
0
100
AcDbLine
 62
7
  6
CONTINUOUS
 10
-35.5145831347
 20
-38.978763828
 11
-35.2541668653
 21
-39.0319553157
  0
LINE
  5
276
100
AcDbEntity
  8
0
100
AcDbLine
 62
7
  6
CONTINUOUS
 10
-37.5458334327
 20
-38.7659978633
 11
-37.7541665673
 21
-38.7128063803
  0
LINE
  5
277
100
AcDbEntity
  8
0
100
AcDbLine
 62
7
  6
CONTINUOUS
 10
-35.2541668653
 20
-38.7659978633
 11
-35.4625
 21
-38.7128063803
  0
LINE
  5
278
100
AcDbEntity
  8
0
100
AcDbLine
 62
7
  6
CONTINUOUS
 10
-37.2333334327
 20
-37.7021680911
 11
-37.025
 21
-37.7553595741
  0
LINE
  5
279
100
AcDbEntity
  8
0
100
AcDbLine
 62
7
  6
CONTINUOUS
 10
-34.9416668653
 20
-37.7021680911
 11
-34.7333331347
 21
-37.7553595741
  0
LINE
  5
27A
100
AcDbEntity
  8
0
100
AcDbLine
 62
7
  6
CONTINUOUS
 10
-39.36875
 20
-36.7979127308
 11
-39.2125
 21
-36.8511042138
  0
LINE
  5
27B
100
AcDbEntity
  8
DRAFT
100
AcDbLine
 62
7
  6
CONTINUOUS
 10
-14.9258023047
 20
-46.4861460939
 11
-15.1330642872
 21
-46.382522995
  0
LINE
  5
27C
100
AcDbEntity
  8
0
100
AcDbLine
 62
7
  6
CONTINUOUS
 10
-36.0354168653
 20
-38.3936574449
 11
-35.93125
 21
-38.6064234142
  0
LINE
  5
27D
100
AcDbEntity
  8
0
100
AcDbLine
 62
7
  6
CONTINUOUS
 10
-35.61875
 20
-38.6064234142
 11
-35.7229168653
 21
-38.3936574449
  0
LINE
  5
27E
100
AcDbEntity
  8
0
100
AcDbLine
 62
7
  6
CONTINUOUS
 10
-36.4520834327
 20
-38.1277000298
 11
-36.55625
 21
-37.8617425402
  0
LINE
  5
27F
100
AcDbEntity
  8
0
100
AcDbLine
 62
7
  6
CONTINUOUS
 10
-34.1604168653
 20
-38.1277000298
 11
-34.2645831347
 21
-37.8617425402
  0
LINE
  5
280
100
AcDbEntity
  8
0
100
AcDbLine
 62
7
  6
CONTINUOUS
 10
-39.1083332837
 20
-36.9574871798
 11
-39.05625
 21
-37.1170616289
  0
LINE
  5
281
100
AcDbEntity
  8
0
100
AcDbLine
 62
7
  6
CONTINUOUS
 10
-38.74375
 20
-37.1170616289
 11
-38.7958334327
 21
-36.9574871798
  0
LINE
  5
282
100
AcDbEntity
  8
0
100
AcDbLine
 62
7
  6
CONTINUOUS
 10
-36.7645834327
 20
-38.0213169892
 11
-36.7125
 21
-38.1808915128
  0
LINE
  5
283
100
AcDbEntity
  8
0
100
AcDbLine
 62
7
  6
CONTINUOUS
 10
-41.4
 20
-36.5319553157
 11
-41.4
 21
-39.0319553157
  0
LINE
  5
284
100
AcDbEntity
  8
0
100
AcDbLine
 62
7
  6
CONTINUOUS
 10
-41.0875
 20
-39.0319553157
 11
-41.0875
 21
-36.5319553157
  0
LINE
  5
285
100
AcDbEntity
  8
0
100
AcDbLine
 62
7
  6
CONTINUOUS
 10
-40.6708333582
 20
-36.5319553157
 11
-40.6708333582
 21
-39.0319553157
  0
LINE
  5
286
100
AcDbEntity
  8
RACCORDO
100
AcDbLine
 62
253
  6
CONTINUOUS
 10
48.3095377557
 20
-41.9095359603
 11
48.3205172258
 21
-41.9094467651
  0
LINE
  5
287
100
AcDbEntity
  8
RACCORDO
100
AcDbLine
 62
7
  6
CONTINUOUS
 10
-48.041641631
 20
-44.8235874275
 11
-16.1659754449
 21
-44.8235874275
  0
LINE
  5
288
100
AcDbEntity
  8
RACCORDO
100
AcDbLine
 62
7
  6
CONTINUOUS
 10
16.1659754449
 20
-44.8235874275
 11
48.041641631
 21
-44.8235874275
  0
LINE
  5
289
100
AcDbEntity
  8
DRAFT
100
AcDbLine
 62
7
  6
CONTINUOUS
 10
23.5
 20
-44.7668627868
 11
18.5
 21
-44.7668627868
  0
LINE
  5
28A
100
AcDbEntity
  8
DRAFT
100
AcDbLine
 62
7
  6
CONTINUOUS
 10
-18.5
 20
-44.7668627868
 11
-23.5
 21
-44.7668627868
  0
LINE
  5
28B
100
AcDbEntity
  8
RACCORDO
100
AcDbLine
 62
7
  6
CONTINUOUS
 10
-47.9500095192
 20
-44.7319553157
 11
-23.5
 21
-44.7319553157
  0
LINE
  5
28C
100
AcDbEntity
  8
DRAFT
100
AcDbLine
 62
7
  6
CONTINUOUS
 10
-18.5
 20
-44.7319553157
 11
-15.0
 21
-44.7319553157
  0
LINE
  5
28D
100
AcDbEntity
  8
DRAFT
100
AcDbLine
 62
7
  6
CONTINUOUS
 10
15.0
 20
-44.7319553157
 11
18.5
 21
-44.7319553157
  0
LINE
  5
28E
100
AcDbEntity
  8
RACCORDO
100
AcDbLine
 62
7
  6
CONTINUOUS
 10
23.5
 20
-44.7319553157
 11
47.9500095192
 21
-44.7319553157
  0
LINE
  5
28F
100
AcDbEntity
  8
0
100
AcDbLine
 62
7
  6
CONTINUOUS
 10
23.0
 20
-44.5319553157
 11
19.0
 21
-44.5319553157
  0
LINE
  5
290
100
AcDbEntity
  8
ASSI
100
AcDbLine
 62
7
  6
CONTINUOUS
 10
47.8365487262
 20
-44.5319553157
 11
14.7
 21
-44.5319553157
  0
LINE
  5
291
100
AcDbEntity
  8
0
100
AcDbLine
 62
7
  6
CONTINUOUS
 10
-19.0
 20
-44.5319553157
 11
-23.0
 21
-44.5319553157
  0
LINE
  5
292
100
AcDbEntity
  8
ASSI
100
AcDbLine
 62
7
  6
CONTINUOUS
 10
-14.7
 20
-44.5319553157
 11
-47.8365487262
 21
-44.5319553157
  0
LINE
  5
293
100
AcDbEntity
  8
RACCORDO
100
AcDbLine
 62
7
  6
CONTINUOUS
 10
13.7
 20
-43.7213150322
 11
-13.7
 21
-43.7213150322
  0
LINE
  5
294
100
AcDbEntity
  8
RACCORDO
100
AcDbLine
 62
253
  6
CONTINUOUS
 10
-48.3205172257
 20
-41.9094466585
 11
-48.3095377557
 21
-41.9095359603
  0
LINE
  5
295
100
AcDbEntity
  8
0
100
AcDbLine
 62
7
  6
CONTINUOUS
 10
-36.9729165673
 20
-37.489402159
 11
-37.2333334327
 21
-37.436210676
  0
LINE
  5
296
100
AcDbEntity
  8
0
100
AcDbLine
 62
7
  6
CONTINUOUS
 10
-39.1604167163
 20
-36.5851467987
 11
-39.4208332837
 21
-36.5319553157
  0
LINE
  5
297
100
AcDbEntity
  8
0
100
AcDbLine
 62
7
  6
CONTINUOUS
 10
-34.68125
 20
-37.489402159
 11
-34.9416668653
 21
-37.436210676
  0
LINE
  5
298
100
AcDbEntity
  8
0
100
AcDbLine
 62
7
  6
CONTINUOUS
 10
-34.4729168653
 20
-38.0213169892
 11
-34.4208331347
 21
-38.1808915128
  0
LINE
  5
299
100
AcDbEntity
  8
RACCORDO
100
AcDbLine
 62
253
  6
CONTINUOUS
 10
-39.0937693497
 20
18.2680446843
 11
-39.3938847836
 21
22.9443589644
  0
LINE
  5
29A
100
AcDbEntity
  8
RACCORDO
100
AcDbLine
 62
253
  6
CONTINUOUS
 10
-38.6224793139
 20
18.7680446843
 11
-38.9014809083
 21
23.1153690554
  0
LINE
  5
29B
100
AcDbEntity
  8
0
100
AcDbLine
 62
7
  6
CONTINUOUS
 10
-40.3583333582
 20
-39.0319553157
 11
-40.3583333582
 21
-37.9149340232
  0
LINE
  5
29C
100
AcDbEntity
  8
0
100
AcDbLine
 62
7
  6
CONTINUOUS
 10
-40.3583333582
 20
-37.5957851251
 11
-40.3583333582
 21
-36.7979127308
  0
LINE
  5
29D
100
AcDbEntity
  8
0
100
AcDbLine
 62
7
  6
CONTINUOUS
 10
-39.05625
 20
-37.1170616289
 11
-39.05625
 21
-37.276636227
  0
LINE
  5
29E
100
AcDbEntity
  8
RACCORDO
100
AcDbLine
 62
7
  6
CONTINUOUS
 10
-38.8
 20
-28.8319553157
 11
-38.8
 21
18.7680446843
  0
LINE
  5
29F
100
AcDbEntity
  8
0
100
AcDbLine
 62
7
  6
CONTINUOUS
 10
-38.74375
 20
-37.32982771
 11
-38.74375
 21
-37.1170616289
  0
LINE
  5
2A0
100
AcDbEntity
  8
0
100
AcDbLine
 62
7
  6
CONTINUOUS
 10
-38.3270834327
 20
-36.5319553157
 11
-38.3270834327
 21
-37.9149340232
  0
LINE
  5
2A1
100
AcDbEntity
  8
RACCORDO
100
AcDbLine
 62
253
  6
CONTINUOUS
 10
-38.3
 20
-28.3652410299
 11
-38.3
 21
18.3013303986
  0
LINE
  5
2A2
100
AcDbEntity
  8
0
100
AcDbLine
 62
7
  6
CONTINUOUS
 10
-38.0666665673
 20
-37.6489766081
 11
-38.0666665673
 21
-36.7979127308
  0
LINE
  5
2A3
100
AcDbEntity
  8
0
100
AcDbLine
 62
7
  6
CONTINUOUS
 10
-36.7125
 20
-38.1808915128
 11
-36.7125
 21
-38.2872744789
  0
LINE
  5
2A4
100
AcDbEntity
  8
0
100
AcDbLine
 62
7
  6
CONTINUOUS
 10
-36.55625
 20
-36.7979127308
 11
-36.55625
 21
-36.5319553157
  0
LINE
  5
2A5
100
AcDbEntity
  8
0
100
AcDbLine
 62
7
  6
CONTINUOUS
 10
-36.4520834327
 20
-38.3404659619
 11
-36.4520834327
 21
-38.1277000298
  0
LINE
  5
2A6
100
AcDbEntity
  8
0
100
AcDbLine
 62
7
  6
CONTINUOUS
 10
-36.0354168653
 20
-36.5319553157
 11
-36.0354168653
 21
-37.9149340232
  0
LINE
  5
2A7
100
AcDbEntity
  8
RACCORDO
100
AcDbLine
 62
253
  6
CONTINUOUS
 10
-39.0937693497
 20
-28.3319553157
 11
-39.3938847436
 21
-33.0082689727
  0
LINE
  5
2A8
100
AcDbEntity
  8
RACCORDO
100
AcDbLine
 62
253
  6
CONTINUOUS
 10
-38.6224793139
 20
-28.8319553157
 11
-38.9014808627
 21
-33.1792789763
  0
LINE
  5
2A9
100
AcDbEntity
  8
DRAFT
100
AcDbLine
 62
253
  6
CONTINUOUS
 10
47.7931342417
 20
-40.0319553157
 11
-47.7931342417
 21
-40.0319553157
  0
LINE
  5
2AA
100
AcDbEntity
  8
0
100
AcDbLine
 62
7
  6
CONTINUOUS
 10
-41.4
 20
-39.0319553157
 11
-41.0875
 21
-39.0319553157
  0
LINE
  5
2AB
100
AcDbEntity
  8
0
100
AcDbLine
 62
7
  6
CONTINUOUS
 10
-40.6708333582
 20
-39.0319553157
 11
-40.3583333582
 21
-39.0319553157
  0
LINE
  5
2AC
100
AcDbEntity
  8
0
100
AcDbLine
 62
7
  6
CONTINUOUS
 10
-37.5458334327
 20
-39.0319553157
 11
-37.2333334327
 21
-39.0319553157
  0
LINE
  5
2AD
100
AcDbEntity
  8
0
100
AcDbLine
 62
7
  6
CONTINUOUS
 10
-35.2541668653
 20
-39.0319553157
 11
-34.9416668653
 21
-39.0319553157
  0
LINE
  5
2AE
100
AcDbEntity
  8
0
100
AcDbLine
 62
7
  6
CONTINUOUS
 10
30.7333333582
 20
-39.0319553157
 11
31.15
 21
-39.0319553157
  0
LINE
  5
2AF
100
AcDbEntity
  8
0
100
AcDbLine
 62
7
  6
CONTINUOUS
 10
32.4
 20
-39.0319553157
 11
32.7125
 21
-39.0319553157
  0
LINE
  5
2B0
100
AcDbEntity
  8
0
100
AcDbLine
 62
7
  6
CONTINUOUS
 10
33.1291665673
 20
-39.0319553157
 11
33.4416665673
 21
-39.0319553157
  0
LINE
  5
2B1
100
AcDbEntity
  8
0
100
AcDbLine
 62
7
  6
CONTINUOUS
 10
34.1708334327
 20
-39.0319553157
 11
34.5875
 21
-39.0319553157
  0
LINE
  5
2B2
100
AcDbEntity
  8
0
100
AcDbLine
 62
7
  6
CONTINUOUS
 10
35.3166668653
 20
-39.0319553157
 11
35.6291668653
 21
-39.0319553157
  0
LINE
  5
2B3
100
AcDbEntity
  8
0
100
AcDbLine
 62
7
  6
CONTINUOUS
 10
36.0458331347
 20
-39.0319553157
 11
36.3583331347
 21
-39.0319553157
  0
LINE
  5
2B4
100
AcDbEntity
  8
0
100
AcDbLine
 62
7
  6
CONTINUOUS
 10
37.8166668653
 20
-39.0319553157
 11
38.1291668653
 21
-39.0319553157
  0
LINE
  5
2B5
100
AcDbEntity
  8
0
100
AcDbLine
 62
7
  6
CONTINUOUS
 10
38.5458331347
 20
-39.0319553157
 11
38.8583331347
 21
-39.0319553157
  0
LINE
  5
2B6
100
AcDbEntity
  8
0
100
AcDbLine
 62
7
  6
CONTINUOUS
 10
40.1604162693
 20
-39.0319553157
 11
40.525
 21
-39.0319553157
  0
LINE
  5
2B7
100
AcDbEntity
  8
0
100
AcDbLine
 62
7
  6
CONTINUOUS
 10
-34.9416668653
 20
-38.7659978633
 11
-35.2541668653
 21
-38.7659978633
  0
LINE
  5
2B8
100
AcDbEntity
  8
0
100
AcDbLine
 62
7
  6
CONTINUOUS
 10
-37.2333334327
 20
-38.7659978633
 11
-37.5458334327
 21
-38.7659978633
  0
LINE
  5
2B9
100
AcDbEntity
  8
0
100
AcDbLine
 62
7
  6
CONTINUOUS
 10
-35.7229168653
 20
-38.3936574449
 11
-36.0354168653
 21
-38.3936574449
  0
LINE
  5
2BA
100
AcDbEntity
  8
0
100
AcDbLine
 62
7
  6
CONTINUOUS
 10
36.5666668653
 20
-38.3936574449
 11
37.6083331347
 21
-38.3936574449
  0
LINE
  5
2BB
100
AcDbEntity
  8
0
100
AcDbLine
 62
7
  6
CONTINUOUS
 10
-38.0145834327
 20
-38.3936574449
 11
-38.3270834327
 21
-38.3936574449
  0
LINE
  5
2BC
100
AcDbEntity
  8
0
100
AcDbLine
 62
7
  6
CONTINUOUS
 10
37.55625
 20
-38.1808915128
 11
36.61875
 21
-38.1808915128
  0
LINE
  5
2BD
100
AcDbEntity
  8
0
100
AcDbLine
 62
7
  6
CONTINUOUS
 10
-40.3583333582
 20
-37.9149340232
 11
-39.4208332837
 21
-37.9149340232
  0
LINE
  5
2BE
100
AcDbEntity
  8
0
100
AcDbLine
 62
7
  6
CONTINUOUS
 10
-38.3270834327
 20
-37.9149340232
 11
-37.9625
 21
-37.9149340232
  0
LINE
  5
2BF
100
AcDbEntity
  8
0
100
AcDbLine
 62
7
  6
CONTINUOUS
 10
-36.0354168653
 20
-37.9149340232
 11
-35.6708331347
 21
-37.9149340232
  0
LINE
  5
2C0
100
AcDbEntity
  8
0
100
AcDbLine
 62
7
  6
CONTINUOUS
 10
38.8583331347
 20
-37.9149340232
 11
39.74375
 21
-37.9149340232
  0
LINE
  5
2C1
100
AcDbEntity
  8
0
100
AcDbLine
 62
7
  6
CONTINUOUS
 10
-37.5458334327
 20
-37.7021680911
 11
-37.2333334327
 21
-37.7021680911
  0
LINE
  5
2C2
100
AcDbEntity
  8
0
100
AcDbLine
 62
7
  6
CONTINUOUS
 10
-35.2541668653
 20
-37.7021680911
 11
-34.9416668653
 21
-37.7021680911
  0
LINE
  5
2C3
100
AcDbEntity
  8
0
100
AcDbLine
 62
7
  6
CONTINUOUS
 10
39.8479168653
 20
-37.5957851251
 11
38.8583331347
 21
-37.5957851251
  0
LINE
  5
2C4
100
AcDbEntity
  8
0
100
AcDbLine
 62
7
  6
CONTINUOUS
 10
-39.36875
 20
-37.5957851251
 11
-40.3583333582
 21
-37.5957851251
  0
LINE
  5
2C5
100
AcDbEntity
  8
0
100
AcDbLine
 62
7
  6
CONTINUOUS
 10
-34.9416668653
 20
-37.436210676
 11
-35.2541668653
 21
-37.436210676
  0
LINE
  5
2C6
100
AcDbEntity
  8
0
100
AcDbLine
 62
7
  6
CONTINUOUS
 10
-37.2333334327
 20
-37.436210676
 11
-37.5458334327
 21
-37.436210676
  0
LINE
  5
2C7
100
AcDbEntity
  8
0
100
AcDbLine
 62
7
  6
CONTINUOUS
 10
-40.3583333582
 20
-36.7979127308
 11
-39.36875
 21
-36.7979127308
  0
LINE
  5
2C8
100
AcDbEntity
  8
0
100
AcDbLine
 62
7
  6
CONTINUOUS
 10
-38.0666665673
 20
-36.7979127308
 11
-36.55625
 21
-36.7979127308
  0
LINE
  5
2C9
100
AcDbEntity
  8
0
100
AcDbLine
 62
7
  6
CONTINUOUS
 10
-35.775
 20
-36.7979127308
 11
-34.2645831347
 21
-36.7979127308
  0
LINE
  5
2CA
100
AcDbEntity
  8
0
100
AcDbLine
 62
7
  6
CONTINUOUS
 10
38.8583331347
 20
-36.7979127308
 11
39.8479168653
 21
-36.7979127308
  0
LINE
  5
2CB
100
AcDbEntity
  8
0
100
AcDbLine
 62
7
  6
CONTINUOUS
 10
39.7958331347
 20
-36.5319553157
 11
38.5458331347
 21
-36.5319553157
  0
LINE
  5
2CC
100
AcDbEntity
  8
0
100
AcDbLine
 62
7
  6
CONTINUOUS
 10
37.2958331347
 20
-36.5319553157
 11
36.8791668653
 21
-36.5319553157
  0
LINE
  5
2CD
100
AcDbEntity
  8
0
100
AcDbLine
 62
7
  6
CONTINUOUS
 10
35.6291668653
 20
-36.5319553157
 11
35.1604168653
 21
-36.5319553157
  0
LINE
  5
2CE
100
AcDbEntity
  8
0
100
AcDbLine
 62
7
  6
CONTINUOUS
 10
33.5979165673
 20
-36.5319553157
 11
33.1291665673
 21
-36.5319553157
  0
LINE
  5
2CF
100
AcDbEntity
  8
0
100
AcDbLine
 62
7
  6
CONTINUOUS
 10
32.7125
 20
-36.5319553157
 11
32.4
 21
-36.5319553157
  0
LINE
  5
2D0
100
AcDbEntity
  8
0
100
AcDbLine
 62
7
  6
CONTINUOUS
 10
31.9833332837
 20
-36.5319553157
 11
31.6708332837
 21
-36.5319553157
  0
LINE
  5
2D1
100
AcDbEntity
  8
0
100
AcDbLine
 62
7
  6
CONTINUOUS
 10
30.2125
 20
-36.5319553157
 11
29.9
 21
-36.5319553157
  0
LINE
  5
2D2
100
AcDbEntity
  8
0
100
AcDbLine
 62
7
  6
CONTINUOUS
 10
-34.2645831347
 20
-36.5319553157
 11
-36.0354168653
 21
-36.5319553157
  0
LINE
  5
2D3
100
AcDbEntity
  8
0
100
AcDbLine
 62
7
  6
CONTINUOUS
 10
-36.55625
 20
-36.5319553157
 11
-38.3270834327
 21
-36.5319553157
  0
LINE
  5
2D4
100
AcDbEntity
  8
0
100
AcDbLine
 62
7
  6
CONTINUOUS
 10
-39.4208332837
 20
-36.5319553157
 11
-40.6708333582
 21
-36.5319553157
  0
LINE
  5
2D5
100
AcDbEntity
  8
0
100
AcDbLine
 62
7
  6
CONTINUOUS
 10
-41.0875
 20
-36.5319553157
 11
-41.4
 21
-36.5319553157
  0
LINE
  5
2D6
100
AcDbEntity
  8
0
100
AcDbLine
 62
7
  6
CONTINUOUS
 10
-35.775
 20
-37.6489766081
 11
-35.775
 21
-36.7979127308
  0
LINE
  5
2D7
100
AcDbEntity
  8
0
100
AcDbLine
 62
7
  6
CONTINUOUS
 10
-34.4208331347
 20
-38.1808915128
 11
-34.4208331347
 21
-38.2872744789
  0
LINE
  5
2D8
100
AcDbEntity
  8
0
100
AcDbLine
 62
7
  6
CONTINUOUS
 10
-34.2645831347
 20
-36.7979127308
 11
-34.2645831347
 21
-36.5319553157
  0
LINE
  5
2D9
100
AcDbEntity
  8
0
100
AcDbLine
 62
7
  6
CONTINUOUS
 10
-34.1604168653
 20
-38.3404659619
 11
-34.1604168653
 21
-38.1277000298
  0
LINE
  5
2DA
100
AcDbEntity
  8
RACCORDO
100
AcDbLine
 62
253
  6
CONTINUOUS
 10
-39.8570779279
 20
-35.0426986265
 11
39.8570779279
 21
-35.0426986265
  0
LINE
  5
2DB
100
AcDbEntity
  8
RACCORDO
100
AcDbLine
 62
253
  6
CONTINUOUS
 10
39.4424756119
 20
-34.8287203354
 11
-39.4425287975
 21
-34.8287862678
  0
LINE
  5
2DC
100
AcDbEntity
  8
RACCORDO
100
AcDbLine
 62
7
  6
CONTINUOUS
 10
15.1661277497
 20
-44.8150128645
 11
15.0
 21
-44.7319553157
  0
LINE
  5
2DD
100
AcDbEntity
  8
0
100
AcDbLine
 62
7
  6
CONTINUOUS
 10
-34.7333331347
 20
-38.7128063803
 11
-34.9416668653
 21
-38.7659978633
  0
LINE
  5
2DE
100
AcDbEntity
  8
0
100
AcDbLine
 62
7
  6
CONTINUOUS
 10
-37.025
 20
-38.7128063803
 11
-37.2333334327
 21
-38.7659978633
  0
LINE
  5
2DF
100
AcDbEntity
  8
0
100
AcDbLine
 62
7
  6
CONTINUOUS
 10
-35.4625
 20
-37.7553595741
 11
-35.2541668653
 21
-37.7021680911
  0
LINE
  5
2E0
100
AcDbEntity
  8
0
100
AcDbLine
 62
7
  6
CONTINUOUS
 10
-37.7541665673
 20
-37.7553595741
 11
-37.5458334327
 21
-37.7021680911
  0
LINE
  5
2E1
100
AcDbEntity
  8
0
100
AcDbLine
 62
7
  6
CONTINUOUS
 10
-34.9416668653
 20
-39.0319553157
 11
-34.68125
 21
-38.978763828
  0
LINE
  5
2E2
100
AcDbEntity
  8
0
100
AcDbLine
 62
7
  6
CONTINUOUS
 10
-37.2333334327
 20
-39.0319553157
 11
-36.9729165673
 21
-38.978763828
  0
LINE
  5
2E3
100
AcDbEntity
  8
0
100
AcDbLine
 62
7
  6
CONTINUOUS
 10
-35.2541668653
 20
-37.436210676
 11
-35.5145831347
 21
-37.489402159
  0
LINE
  5
2E4
100
AcDbEntity
  8
0
100
AcDbLine
 62
7
  6
CONTINUOUS
 10
-39.4208332837
 20
-37.9149340232
 11
-39.1604167163
 21
-37.8617425402
  0
LINE
  5
2E5
100
AcDbEntity
  8
0
100
AcDbLine
 62
7
  6
CONTINUOUS
 10
-37.5458334327
 20
-37.436210676
 11
-37.80625
 21
-37.489402159
  0
LINE
  5
2E6
100
AcDbEntity
  8
RACCORDO
100
AcDbLine
 62
7
  6
CONTINUOUS
 10
38.7988669832
 20
-28.8319553157
 11
-38.8
 21
-28.8319553157
  0
LINE
  5
2E7
100
AcDbEntity
  8
RACCORDO
100
AcDbLine
 62
253
  6
CONTINUOUS
 10
38.3
 20
-28.3652410299
 11
-38.3
 21
-28.3652410299
  0
LINE
  5
2E8
100
AcDbEntity
  8
DRAFT
100
AcDbLine
 62
7
  6
CONTINUOUS
 10
-39.2625059283
 20
-28.3319553157
 11
-38.8
 21
-28.3319553157
  0
LINE
  5
2E9
100
AcDbEntity
  8
DRAFT
100
AcDbLine
 62
7
  6
CONTINUOUS
 10
38.8
 20
-28.3319553157
 11
39.2625059283
 21
-28.3319553157
  0
LINE
  5
2EA
100
AcDbEntity
  8
0
100
AcDbLine
 62
7
  6
CONTINUOUS
 10
40.05625
 20
-36.5851467987
 11
39.7958331347
 21
-36.5319553157
  0
LINE
  5
2EB
100
AcDbEntity
  8
DRAFT
100
AcDbLine
 62
7
  6
CONTINUOUS
 10
-23.5
 20
-44.7668627868
 11
-23.5
 21
-44.7319553157
  0
LINE
  5
2EC
100
AcDbEntity
  8
0
100
AcDbLine
 62
7
  6
CONTINUOUS
 10
-23.5
 20
-46.4141426005
 11
-23.5
 21
-46.4490500716
  0
LINE
  5
2ED
100
AcDbEntity
  8
DRAFT
100
AcDbLine
 62
7
  6
CONTINUOUS
 10
-23.0
 20
-44.7668627868
 11
-23.0
 21
-44.5319553157
  0
LINE
  5
2EE
100
AcDbEntity
  8
0
100
AcDbLine
 62
7
  6
CONTINUOUS
 10
-39.05625
 20
-37.276636227
 11
-39.1083332837
 21
-37.436210676
  0
LINE
  5
2EF
100
AcDbEntity
  8
0
100
AcDbLine
 62
7
  6
CONTINUOUS
 10
-38.7958334327
 20
-37.489402159
 11
-38.74375
 21
-37.32982771
  0
LINE
  5
2F0
100
AcDbEntity
  8
0
100
AcDbLine
 62
7
  6
CONTINUOUS
 10
-36.7125
 20
-38.2872744789
 11
-36.7645834327
 21
-38.4468489279
  0
LINE
  5
2F1
100
AcDbEntity
  8
DRAFT
100
AcDbLine
 62
7
  6
CONTINUOUS
 10
-19.0
 20
-44.7668627868
 11
-19.0
 21
-44.5319553157
  0
LINE
  5
2F2
100
AcDbEntity
  8
0
100
AcDbLine
 62
7
  6
CONTINUOUS
 10
-18.5
 20
-46.4490500716
 11
-18.5
 21
-46.4141426005
  0
LINE
  5
2F3
100
AcDbEntity
  8
DRAFT
100
AcDbLine
 62
7
  6
CONTINUOUS
 10
-18.5
 20
-44.7668627868
 11
-18.5
 21
-44.7319553157
  0
LINE
  5
2F4
100
AcDbEntity
  8
0
100
AcDbLine
 62
7
  6
CONTINUOUS
 10
-34.4208331347
 20
-38.2872744789
 11
-34.4729168653
 21
-38.4468489279
  0
LINE
  5
2F5
100
AcDbEntity
  8
0
100
AcDbLine
 62
7
  6
CONTINUOUS
 10
-36.55625
 20
-38.6064234142
 11
-36.4520834327
 21
-38.3404659619
  0
LINE
  5
2F6
100
AcDbEntity
  8
0
100
AcDbLine
 62
7
  6
CONTINUOUS
 10
-34.2645831347
 20
-38.6064234142
 11
-34.1604168653
 21
-38.3404659619
  0
LINE
  5
2F7
100
AcDbEntity
  8
0
100
AcDbLine
 62
7
  6
CONTINUOUS
 10
39.8479168653
 20
-36.7979127308
 11
40.0041662693
 21
-36.8511042138
  0
LINE
  5
2F8
100
AcDbEntity
  8
DRAFT
100
AcDbLine
 62
7
  6
CONTINUOUS
 10
-14.9258023047
 20
-46.4861460939
 11
-14.9848834703
 21
-44.5319553157
  0
LINE
  5
2F9
100
AcDbEntity
  8
RACCORDO
100
AcDbLine
 62
253
  6
CONTINUOUS
 10
-16.1659754449
 20
-45.4412048248
 11
-16.1659754449
 21
-44.8235874275
  0
LINE
  5
2FA
100
AcDbEntity
  8
RACCORDO
100
AcDbLine
 62
253
  6
CONTINUOUS
 10
-15.1661277497
 20
-45.9919201539
 11
-15.1661277497
 21
-44.8150128645
  0
LINE
  5
2FB
100
AcDbEntity
  8
DRAFT
100
AcDbLine
 62
7
  6
CONTINUOUS
 10
-15.0
 20
-44.7319553157
 11
-15.0
 21
-44.5319553157
  0
LINE
  5
2FC
100
AcDbEntity
  8
RACCORDO
100
AcDbLine
 62
7
  6
CONTINUOUS
 10
-14.7
 20
-46.5319553157
 11
-14.7
 21
-44.2233733562
  0
LINE
  5
2FD
100
AcDbEntity
  8
0
100
AcDbLine
 62
7
  6
CONTINUOUS
 10
-14.0
 20
37.7545629677
 11
-14.0
 21
36.4680446843
  0
LINE
  5
2FE
100
AcDbEntity
  8
RACCORDO
100
AcDbLine
 62
7
  6
CONTINUOUS
 10
-14.0
 20
36.4680446843
 11
-14.0
 21
37.7545629677
  0
LINE
  5
2FF
100
AcDbEntity
  8
RACCORDO
100
AcDbLine
 62
253
  6
CONTINUOUS
 10
-13.7
 20
-45.7213150322
 11
-13.7
 21
-43.7213150322
  0
LINE
  5
300
100
AcDbEntity
  8
0
100
AcDbLine
 62
7
  6
CONTINUOUS
 10
-11.85
 20
40.1586791574
 11
-11.85
 21
39.7319553157
  0
LINE
  5
301
100
AcDbEntity
  8
RACCORDO
100
AcDbLine
 62
7
  6
CONTINUOUS
 10
-11.85
 20
39.7319553157
 11
-11.85
 21
40.1586791574
  0
LINE
  5
302
100
AcDbEntity
  8
0
100
AcDbLine
 62
7
  6
CONTINUOUS
 10
-11.35
 20
39.7319553157
 11
-11.35
 21
39.2319553157
  0
LINE
  5
303
100
AcDbEntity
  8
RACCORDO
100
AcDbLine
 62
7
  6
CONTINUOUS
 10
-10.1
 20
41.5319553157
 11
-10.1
 21
41.9988715363
  0
LINE
  5
304
100
AcDbEntity
  8
0
100
AcDbLine
 62
7
  6
CONTINUOUS
 10
-9.45
 20
41.5319553157
 11
-9.45
 21
41.0319553157
  0
LINE
  5
305
100
AcDbEntity
  8
0
100
AcDbLine
 62
7
  6
CONTINUOUS
 10
-36.7645834327
 20
-38.4468489279
 11
-36.86875
 21
-38.6064234142
  0
LINE
  5
306
100
AcDbEntity
  8
0
100
AcDbLine
 62
7
  6
CONTINUOUS
 10
-38.9520832837
 20
-37.7021680911
 11
-38.7958334327
 21
-37.489402159
  0
LINE
  5
307
100
AcDbEntity
  8
RACCORDO
100
AcDbLine
 62
253
  6
CONTINUOUS
 10
-50.0
 20
34.9681017998
 11
-49.8505676793
 21
34.8186694791
  0
LINE
  5
308
100
AcDbEntity
  8
RACCORDO
100
AcDbLine
 62
253
  6
CONTINUOUS
 10
-48.2916321118
 20
34.5096863154
 11
-48.2
 21
34.4180542036
  0
LINE
  5
309
100
AcDbEntity
  8
RACCORDO
100
AcDbLine
 62
253
  6
CONTINUOUS
 10
-48.041641631
 20
34.7596767961
 11
-47.9500095192
 21
34.6680446843
  0
LINE
  5
30A
100
AcDbEntity
  8
RACCORDO
100
AcDbLine
 62
253
  6
CONTINUOUS
 10
-48.5000571154
 20
36.4680446843
 11
-48.3506255606
 21
36.3186131295
  0
LINE
  5
30B
100
AcDbEntity
  8
0
100
AcDbLine
 62
7
  6
CONTINUOUS
 10
-8.35
 20
43.772076617
 11
-8.35
 21
43.3319553157
  0
LINE
  5
30C
100
AcDbEntity
  8
RACCORDO
100
AcDbLine
 62
7
  6
CONTINUOUS
 10
-8.35
 20
43.3319553157
 11
-8.35
 21
43.772076617
  0
LINE
  5
30D
100
AcDbEntity
  8
0
100
AcDbLine
 62
7
  6
CONTINUOUS
 10
-7.85
 20
43.3319553157
 11
-7.85
 21
42.8319553157
  0
LINE
  5
30E
100
AcDbEntity
  8
0
100
AcDbLine
 62
7
  6
CONTINUOUS
 10
-4.1
 20
45.4711147227
 11
-4.1
 21
45.1319553157
  0
LINE
  5
30F
100
AcDbEntity
  8
RACCORDO
100
AcDbLine
 62
7
  6
CONTINUOUS
 10
-4.1
 20
45.1319553157
 11
-4.1
 21
45.4711147227
  0
LINE
  5
310
100
AcDbEntity
  8
0
100
AcDbLine
 62
7
  6
CONTINUOUS
 10
-34.4729168653
 20
-38.4468489279
 11
-34.5770831347
 21
-38.6064234142
  0
LINE
  5
311
100
AcDbEntity
  8
0
100
AcDbLine
 62
7
  6
CONTINUOUS
 10
-36.7125
 20
-38.8191893649
 11
-36.55625
 21
-38.6064234142
  0
LINE
  5
312
100
AcDbEntity
  8
0
100
AcDbLine
 62
7
  6
CONTINUOUS
 10
-34.4208331347
 20
-38.8191893649
 11
-34.2645831347
 21
-38.6064234142
  0
LINE
  5
313
100
AcDbEntity
  8
0
100
AcDbLine
 62
7
  6
CONTINUOUS
 10
40.2645837307
 20
-36.7447212477
 11
40.05625
 21
-36.5851467987
  0
LINE
  5
314
100
AcDbEntity
  8
0
100
AcDbLine
 62
7
  6
CONTINUOUS
 10
-3.6
 20
45.1319553157
 11
-3.6
 21
44.6319553157
  0
LINE
  5
315
100
AcDbEntity
  8
0
100
AcDbLine
 62
7
  6
CONTINUOUS
 10
-39.1083332837
 20
-37.436210676
 11
-39.2125
 21
-37.5425936421
  0
LINE
  5
316
100
AcDbEntity
  8
RACCORDO
100
AcDbLine
 62
253
  6
CONTINUOUS
 10
-49.8505676793
 20
-44.8825801104
 11
-50.0
 21
-45.0320124311
  0
LINE
  5
317
100
AcDbEntity
  8
RACCORDO
100
AcDbLine
 62
253
  6
CONTINUOUS
 10
-48.2916321118
 20
-44.5735969467
 11
-48.2
 21
-44.4819648349
  0
LINE
  5
318
100
AcDbEntity
  8
RACCORDO
100
AcDbLine
 62
253
  6
CONTINUOUS
 10
-48.041641631
 20
-44.8235874275
 11
-47.9500095192
 21
-44.7319553157
  0
LINE
  5
319
100
AcDbEntity
  8
RACCORDO
100
AcDbLine
 62
253
  6
CONTINUOUS
 10
-48.350625534
 20
-46.3825237342
 11
-48.5000571154
 21
-46.5319553157
  0
LINE
  5
31A
100
AcDbEntity
  8
0
100
AcDbLine
 62
7
  6
CONTINUOUS
 10
3.6
 20
45.1319553157
 11
3.6
 21
44.6319553157
  0
LINE
  5
31B
100
AcDbEntity
  8
0
100
AcDbLine
 62
7
  6
CONTINUOUS
 10
4.1
 20
45.4711147227
 11
4.1
 21
45.1319553157
  0
LINE
  5
31C
100
AcDbEntity
  8
RACCORDO
100
AcDbLine
 62
7
  6
CONTINUOUS
 10
4.1
 20
45.1319553157
 11
4.1
 21
45.4711147227
  0
LINE
  5
31D
100
AcDbEntity
  8
RACCORDO
100
AcDbLine
 62
253
  6
CONTINUOUS
 10
48.5000571154
 20
-46.5319553157
 11
48.350625534
 21
-46.3825237343
  0
LINE
  5
31E
100
AcDbEntity
  8
RACCORDO
100
AcDbLine
 62
253
  6
CONTINUOUS
 10
48.041641631
 20
-44.8235874275
 11
47.9500095192
 21
-44.7319553157
  0
LINE
  5
31F
100
AcDbEntity
  8
RACCORDO
100
AcDbLine
 62
253
  6
CONTINUOUS
 10
48.2916321118
 20
-44.5735969467
 11
48.2
 21
-44.4819648349
  0
LINE
  5
320
100
AcDbEntity
  8
RACCORDO
100
AcDbLine
 62
253
  6
CONTINUOUS
 10
50.0
 20
-45.0320124311
 11
49.8505676793
 21
-44.8825801104
  0
LINE
  5
321
100
AcDbEntity
  8
0
100
AcDbLine
 62
7
  6
CONTINUOUS
 10
40.0041662693
 20
-36.8511042138
 11
40.1083337307
 21
-36.9574871798
  0
LINE
  5
322
100
AcDbEntity
  8
0
100
AcDbLine
 62
7
  6
CONTINUOUS
 10
7.85
 20
43.3319553157
 11
7.85
 21
42.8319553157
  0
LINE
  5
323
100
AcDbEntity
  8
0
100
AcDbLine
 62
7
  6
CONTINUOUS
 10
8.35
 20
43.772076617
 11
8.35
 21
43.3319553157
  0
LINE
  5
324
100
AcDbEntity
  8
RACCORDO
100
AcDbLine
 62
7
  6
CONTINUOUS
 10
8.35
 20
43.3319553157
 11
8.35
 21
43.772076617
  0
LINE
  5
325
100
AcDbEntity
  8
0
100
AcDbLine
 62
7
  6
CONTINUOUS
 10
9.45
 20
41.5319553157
 11
9.45
 21
41.0319553157
  0
LINE
  5
326
100
AcDbEntity
  8
RACCORDO
100
AcDbLine
 62
253
  6
CONTINUOUS
 10
48.3506255605
 20
36.3186131295
 11
48.5000571154
 21
36.4680446843
  0
LINE
  5
327
100
AcDbEntity
  8
RACCORDO
100
AcDbLine
 62
253
  6
CONTINUOUS
 10
48.041641631
 20
34.7596767961
 11
47.9500095192
 21
34.6680446843
  0
LINE
  5
328
100
AcDbEntity
  8
0
100
AcDbLine
 62
7
  6
CONTINUOUS
 10
-39.1604167163
 20
-37.8617425402
 11
-38.9520832837
 21
-37.7021680911
  0
LINE
  5
329
100
AcDbEntity
  8
0
100
AcDbLine
 62
7
  6
CONTINUOUS
 10
-37.9625
 20
-37.9149340232
 11
-37.7541665673
 21
-37.7553595741
  0
LINE
  5
32A
100
AcDbEntity
  8
0
100
AcDbLine
 62
7
  6
CONTINUOUS
 10
-35.6708331347
 20
-37.9149340232
 11
-35.4625
 21
-37.7553595741
  0
LINE
  5
32B
100
AcDbEntity
  8
0
100
AcDbLine
 62
7
  6
CONTINUOUS
 10
10.1
 20
41.9988715363
 11
10.1
 21
41.5319553157
  0
LINE
  5
32C
100
AcDbEntity
  8
RACCORDO
100
AcDbLine
 62
7
  6
CONTINUOUS
 10
10.1
 20
41.5319553157
 11
10.1
 21
41.9988715363
  0
LINE
  5
32D
100
AcDbEntity
  8
0
100
AcDbLine
 62
7
  6
CONTINUOUS
 10
11.35
 20
39.7319553157
 11
11.35
 21
39.2319553157
  0
LINE
  5
32E
100
AcDbEntity
  8
0
100
AcDbLine
 62
7
  6
CONTINUOUS
 10
11.85
 20
40.1586791574
 11
11.85
 21
39.7319553157
  0
LINE
  5
32F
100
AcDbEntity
  8
RACCORDO
100
AcDbLine
 62
7
  6
CONTINUOUS
 10
11.85
 20
39.7319553157
 11
11.85
 21
40.1586791574
  0
LINE
  5
330
100
AcDbEntity
  8
RACCORDO
100
AcDbLine
 62
253
  6
CONTINUOUS
 10
13.7
 20
-43.7213150322
 11
13.7
 21
-45.7213150322
  0
LINE
  5
331
100
AcDbEntity
  8
0
100
AcDbLine
 62
7
  6
CONTINUOUS
 10
14.0
 20
37.7545629677
 11
14.0
 21
36.4680446843
  0
LINE
  5
332
100
AcDbEntity
  8
RACCORDO
100
AcDbLine
 62
7
  6
CONTINUOUS
 10
14.0
 20
36.4680446843
 11
14.0
 21
37.7545629677
  0
LINE
  5
333
100
AcDbEntity
  8
RACCORDO
100
AcDbLine
 62
253
  6
CONTINUOUS
 10
48.2916321118
 20
34.5096863154
 11
48.2
 21
34.4180542036
  0
LINE
  5
334
100
AcDbEntity
  8
RACCORDO
100
AcDbLine
 62
253
  6
CONTINUOUS
 10
49.8505676793
 20
34.8186694791
 11
50.0
 21
34.9681017998
  0
LINE
  5
335
100
AcDbEntity
  8
0
100
AcDbLine
 62
7
  6
CONTINUOUS
 10
-36.86875
 20
-38.6064234142
 11
-37.025
 21
-38.7128063803
  0
LINE
  5
336
100
AcDbEntity
  8
0
100
AcDbLine
 62
7
  6
CONTINUOUS
 10
-34.5770831347
 20
-38.6064234142
 11
-34.7333331347
 21
-38.7128063803
  0
LINE
  5
337
100
AcDbEntity
  8
0
100
AcDbLine
 62
7
  6
CONTINUOUS
 10
-37.80625
 20
-37.489402159
 11
-38.0666665673
 21
-37.6489766081
  0
LINE
  5
338
100
AcDbEntity
  8
0
100
AcDbLine
 62
7
  6
CONTINUOUS
 10
-35.5145831347
 20
-37.489402159
 11
-35.775
 21
-37.6489766081
  0
LINE
  5
339
100
AcDbEntity
  8
0
100
AcDbLine
 62
7
  6
CONTINUOUS
 10
-36.9729165673
 20
-38.978763828
 11
-36.7125
 21
-38.8191893649
  0
LINE
  5
33A
100
AcDbEntity
  8
0
100
AcDbLine
 62
7
  6
CONTINUOUS
 10
40.4208337307
 20
-36.9574871798
 11
40.2645837307
 21
-36.7447212477
  0
LINE
  5
33B
100
AcDbEntity
  8
RACCORDO
100
AcDbLine
 62
7
  6
CONTINUOUS
 10
14.7
 20
-44.2233733562
 11
14.7
 21
-46.5319553157
  0
LINE
  5
33C
100
AcDbEntity
  8
DRAFT
100
AcDbLine
 62
7
  6
CONTINUOUS
 10
15.0
 20
-44.7319553157
 11
15.0
 21
-44.5319553157
  0
LINE
  5
33D
100
AcDbEntity
  8
RACCORDO
100
AcDbLine
 62
253
  6
CONTINUOUS
 10
15.1661277497
 20
-44.8150128645
 11
15.1661277497
 21
-45.9919201539
  0
LINE
  5
33E
100
AcDbEntity
  8
RACCORDO
100
AcDbLine
 62
253
  6
CONTINUOUS
 10
16.1659754449
 20
-44.8235874275
 11
16.1659754449
 21
-45.4412048248
  0
LINE
  5
33F
100
AcDbEntity
  8
DRAFT
100
AcDbLine
 62
7
  6
CONTINUOUS
 10
18.5
 20
-44.7668627868
 11
18.5
 21
-44.7319553157
  0
LINE
  5
340
100
AcDbEntity
  8
0
100
AcDbLine
 62
7
  6
CONTINUOUS
 10
18.5
 20
-46.4141426005
 11
18.5
 21
-46.4490500716
  0
LINE
  5
341
100
AcDbEntity
  8
DRAFT
100
AcDbLine
 62
7
  6
CONTINUOUS
 10
14.9258023047
 20
-46.4861460939
 11
14.9848834703
 21
-44.5319553157
  0
LINE
  5
342
100
AcDbEntity
  8
0
100
AcDbLine
 62
7
  6
CONTINUOUS
 10
-34.68125
 20
-38.978763828
 11
-34.4208331347
 21
-38.8191893649
  0
LINE
  5
343
100
AcDbEntity
  8
DRAFT
100
AcDbLine
 62
7
  6
CONTINUOUS
 10
39.2625059283
 20
18.2680446843
 11
38.8
 21
18.2680446843
  0
LINE
  5
344
100
AcDbEntity
  8
DRAFT
100
AcDbLine
 62
7
  6
CONTINUOUS
 10
-38.8
 20
18.2680446843
 11
-39.2625059283
 21
18.2680446843
  0
LINE
  5
345
100
AcDbEntity
  8
RACCORDO
100
AcDbLine
 62
253
  6
CONTINUOUS
 10
38.3
 20
18.3013303986
 11
-38.3
 21
18.3013303986
  0
LINE
  5
346
100
AcDbEntity
  8
RACCORDO
100
AcDbLine
 62
7
  6
CONTINUOUS
 10
-38.7988669832
 20
18.7680446843
 11
38.8
 21
18.7680446843
  0
LINE
  5
347
100
AcDbEntity
  8
0
100
AcDbLine
 62
7
  6
CONTINUOUS
 10
33.4416665673
 20
-37.0638701459
 11
34.1708334327
 21
-39.0319553157
  0
LINE
  5
348
100
AcDbEntity
  8
0
100
AcDbLine
 62
7
  6
CONTINUOUS
 10
30.9416666418
 20
-38.7128063803
 11
30.2125
 21
-36.5319553157
  0
LINE
  5
349
100
AcDbEntity
  8
0
100
AcDbLine
 62
7
  6
CONTINUOUS
 10
29.9
 20
-36.5319553157
 11
30.7333333582
 21
-39.0319553157
  0
LINE
  5
34A
100
AcDbEntity
  8
DRAFT
100
AcDbLine
 62
7
  6
CONTINUOUS
 10
19.0
 20
-44.7668627868
 11
19.0
 21
-44.5319553157
  0
LINE
  5
34B
100
AcDbEntity
  8
DRAFT
100
AcDbLine
 62
7
  6
CONTINUOUS
 10
23.0
 20
-44.7668627868
 11
23.0
 21
-44.5319553157
  0
LINE
  5
34C
100
AcDbEntity
  8
0
100
AcDbLine
 62
7
  6
CONTINUOUS
 10
-39.2125
 20
-37.5425936421
 11
-39.36875
 21
-37.5957851251
  0
LINE
  5
34D
100
AcDbEntity
  8
0
100
AcDbLine
 62
7
  6
CONTINUOUS
 10
34.3791665673
 20
-38.7659978633
 11
33.5979165673
 21
-36.5319553157
  0
LINE
  5
34E
100
AcDbEntity
  8
0
100
AcDbLine
 62
7
  6
CONTINUOUS
 10
23.5
 20
-46.4490500716
 11
23.5
 21
-46.4141426005
  0
LINE
  5
34F
100
AcDbEntity
  8
DRAFT
100
AcDbLine
 62
7
  6
CONTINUOUS
 10
23.5
 20
-44.7668627868
 11
23.5
 21
-44.7319553157
  0
LINE
  5
350
100
AcDbEntity
  8
RACCORDO
100
AcDbLine
 62
253
  6
CONTINUOUS
 10
-39.4425213275
 20
24.7648671334
 11
39.4425273621
 21
24.7648756365
  0
LINE
  5
351
100
AcDbEntity
  8
RACCORDO
100
AcDbLine
 62
253
  6
CONTINUOUS
 10
39.8570779279
 20
24.9787879952
 11
-39.8570779279
 21
24.9787879952
  0
LINE
  5
352
100
AcDbEntity
  8
0
100
AcDbLine
 62
7
  6
CONTINUOUS
 10
40.525
 20
-39.0319553157
 11
40.05625
 21
-37.8085510572
  0
LINE
  5
353
100
AcDbEntity
  8
0
100
AcDbLine
 62
7
  6
CONTINUOUS
 10
39.74375
 20
-37.9149340232
 11
40.1604162693
 21
-39.0319553157
  0
LINE
  5
354
100
AcDbEntity
  8
0
100
AcDbLine
 62
7
  6
CONTINUOUS
 10
38.1291668653
 20
-39.0319553157
 11
37.2958331347
 21
-36.5319553157
  0
LINE
  5
355
100
AcDbEntity
  8
0
100
AcDbLine
 62
7
  6
CONTINUOUS
 10
37.6083331347
 20
-38.3936574449
 11
37.8166668653
 21
-39.0319553157
  0
LINE
  5
356
100
AcDbEntity
  8
0
100
AcDbLine
 62
7
  6
CONTINUOUS
 10
37.0875
 20
-36.7447212477
 11
37.55625
 21
-38.1808915128
  0
LINE
  5
357
100
AcDbEntity
  8
0
100
AcDbLine
 62
7
  6
CONTINUOUS
 10
40.1083337307
 20
-36.9574871798
 11
40.1604162693
 21
-37.1170616289
  0
LINE
  5
358
100
AcDbEntity
  8
0
100
AcDbLine
 62
7
  6
CONTINUOUS
 10
40.4729162693
 20
-37.1170616289
 11
40.4208337307
 21
-36.9574871798
  0
LINE
  5
359
100
AcDbEntity
  8
0
100
AcDbLine
 62
7
  6
CONTINUOUS
 10
32.4
 20
-36.5319553157
 11
32.4
 21
-39.0319553157
  0
LINE
  5
35A
100
AcDbEntity
  8
RACCORDO
100
AcDbLine
 62
253
  6
CONTINUOUS
 10
-48.3205172436
 20
31.8455392113
 11
-48.3095377557
 21
31.845625329
  0
LINE
  5
35B
100
AcDbEntity
  8
DRAFT
100
AcDbLine
 62
253
  6
CONTINUOUS
 10
47.7931176457
 20
29.9491177221
 11
-47.7931176457
 21
29.9491177221
  0
LINE
  5
35C
100
AcDbEntity
  8
RACCORDO
100
AcDbLine
 62
253
  6
CONTINUOUS
 10
48.3095377557
 20
31.845625329
 11
48.3205172435
 21
31.8455391038
  0
LINE
  5
35D
100
AcDbEntity
  8
RACCORDO
100
AcDbLine
 62
253
  6
CONTINUOUS
 10
38.6224793139
 20
-28.8319553157
 11
38.9014808987
 21
-33.1792795376
  0
LINE
  5
35E
100
AcDbEntity
  8
0
100
AcDbLine
 62
7
  6
CONTINUOUS
 10
32.7125
 20
-39.0319553157
 11
32.7125
 21
-36.5319553157
  0
LINE
  5
35F
100
AcDbEntity
  8
0
100
AcDbLine
 62
7
  6
CONTINUOUS
 10
33.1291665673
 20
-36.5319553157
 11
33.1291665673
 21
-39.0319553157
  0
LINE
  5
360
100
AcDbEntity
  8
0
100
AcDbLine
 62
7
  6
CONTINUOUS
 10
33.4416665673
 20
-39.0319553157
 11
33.4416665673
 21
-37.0638701459
  0
LINE
  5
361
100
AcDbEntity
  8
0
100
AcDbLine
 62
7
  6
CONTINUOUS
 10
35.3166668653
 20
-37.0638701459
 11
35.3166668653
 21
-39.0319553157
  0
LINE
  5
362
100
AcDbEntity
  8
0
100
AcDbLine
 62
7
  6
CONTINUOUS
 10
35.6291668653
 20
-39.0319553157
 11
35.6291668653
 21
-36.5319553157
  0
LINE
  5
363
100
AcDbEntity
  8
RACCORDO
100
AcDbLine
 62
7
  6
CONTINUOUS
 10
-15.1661277497
 20
-44.8150128645
 11
-15.0
 21
-44.7319553157
  0
LINE
  5
364
100
AcDbEntity
  8
DRAFT
100
AcDbLine
 62
253
  6
CONTINUOUS
 10
47.830587443
 20
34.4027466647
 11
-47.830587443
 21
34.4027466647
  0
LINE
  5
365
100
AcDbEntity
  8
DRAFT
100
AcDbLine
 62
7
  6
CONTINUOUS
 10
45.8345484916
 20
34.4501647062
 11
-45.8345484916
 21
34.4501647062
  0
LINE
  5
366
100
AcDbEntity
  8
ASSI
100
AcDbLine
 62
7
  6
CONTINUOUS
 10
47.8389110985
 20
34.4680446843
 11
45.8389122034
 21
34.4680446843
  0
LINE
  5
367
100
AcDbEntity
  8
ASSI
100
AcDbLine
 62
7
  6
CONTINUOUS
 10
-45.8389122034
 20
34.4680446843
 11
-47.8389110985
 21
34.4680446843
  0
LINE
  5
368
100
AcDbEntity
  8
RACCORDO
100
AcDbLine
 62
7
  6
CONTINUOUS
 10
-47.9500095192
 20
34.6680446843
 11
47.9500095192
 21
34.6680446843
  0
LINE
  5
369
100
AcDbEntity
  8
RACCORDO
100
AcDbLine
 62
7
  6
CONTINUOUS
 10
48.041641631
 20
34.7596767961
 11
-48.041641631
 21
34.7596767961
  0
LINE
  5
36A
100
AcDbEntity
  8
DRAFT
100
AcDbLine
 62
7
  6
CONTINUOUS
 10
-48.2916321118
 20
35.3772941935
 11
48.2916321118
 21
35.3772941935
  0
LINE
  5
36B
100
AcDbEntity
  8
RACCORDO
100
AcDbLine
 62
253
  6
CONTINUOUS
 10
-48.3506255606
 20
36.3186131295
 11
48.3506255605
 21
36.3186131295
  0
LINE
  5
36C
100
AcDbEntity
  8
RACCORDO
100
AcDbLine
 62
7
  6
CONTINUOUS
 10
-48.5000571154
 20
36.4680446843
 11
48.5000571154
 21
36.4680446843
  0
LINE
  5
36D
100
AcDbEntity
  8
RACCORDO
100
AcDbLine
 62
253
  6
CONTINUOUS
 10
39.0937693497
 20
-28.3319553157
 11
39.393884774
 21
-33.0082694458
  0
LINE
  5
36E
100
AcDbEntity
  8
RACCORDO
100
AcDbLine
 62
253
  6
CONTINUOUS
 10
38.3
 20
18.3013303986
 11
38.3
 21
-28.3652410299
  0
LINE
  5
36F
100
AcDbEntity
  8
0
100
AcDbLine
 62
7
  6
CONTINUOUS
 10
38.5458331347
 20
-36.5319553157
 11
38.5458331347
 21
-39.0319553157
  0
LINE
  5
370
100
AcDbEntity
  8
RACCORDO
100
AcDbLine
 62
7
  6
CONTINUOUS
 10
38.8
 20
18.7680446843
 11
38.8
 21
-28.8319553157
  0
LINE
  5
371
100
AcDbEntity
  8
0
100
AcDbLine
 62
7
  6
CONTINUOUS
 10
38.8583331347
 20
-39.0319553157
 11
38.8583331347
 21
-37.9149340232
  0
LINE
  5
372
100
AcDbEntity
  8
0
100
AcDbLine
 62
7
  6
CONTINUOUS
 10
38.8583331347
 20
-37.5957851251
 11
38.8583331347
 21
-36.7979127308
  0
LINE
  5
373
100
AcDbEntity
  8
0
100
AcDbLine
 62
7
  6
CONTINUOUS
 10
40.1604162693
 20
-37.1170616289
 11
40.1604162693
 21
-37.276636227
  0
LINE
  5
374
100
AcDbEntity
  8
0
100
AcDbLine
 62
7
  6
CONTINUOUS
 10
40.4729162693
 20
-37.32982771
 11
40.4729162693
 21
-37.1170616289
  0
LINE
  5
375
100
AcDbEntity
  8
RACCORDO
100
AcDbLine
 62
253
  6
CONTINUOUS
 10
38.6224793139
 20
18.7680446843
 11
38.9014808642
 21
23.1153683683
  0
LINE
  5
376
100
AcDbEntity
  8
RACCORDO
100
AcDbLine
 62
253
  6
CONTINUOUS
 10
39.0937693497
 20
18.2680446843
 11
39.3938847406
 21
22.9443582954
  0
LINE
  5
377
100
AcDbEntity
  8
0
100
AcDbLine
 62
7
  6
CONTINUOUS
 10
-11.35
 20
39.2319553157
 11
-13.2588190451
 21
38.720488794
  0
LINE
  5
378
100
AcDbEntity
  8
RACCORDO
100
AcDbLine
 62
7
  6
CONTINUOUS
 10
-13.2588190451
 20
38.720488794
 11
-11.35
 21
39.2319553157
  0
LINE
  5
379
100
AcDbEntity
  8
RACCORDO
100
AcDbLine
 62
253
  6
CONTINUOUS
 10
-14.0
 20
37.7545629677
 11
14.0
 21
37.7545629677
  0
LINE
  5
37A
100
AcDbEntity
  8
RACCORDO
100
AcDbLine
 62
253
  6
CONTINUOUS
 10
-13.2588190451
 20
38.720488794
 11
13.2588190451
 21
38.720488794
  0
LINE
  5
37B
100
AcDbEntity
  8
0
100
AcDbLine
 62
7
  6
CONTINUOUS
 10
-11.35
 20
39.2319553157
 11
11.35
 21
39.2319553157
  0
LINE
  5
37C
100
AcDbEntity
  8
0
100
AcDbLine
 62
7
  6
CONTINUOUS
 10
-11.85
 20
39.7319553157
 11
11.85
 21
39.7319553157
  0
LINE
  5
37D
100
AcDbEntity
  8
RACCORDO
100
AcDbLine
 62
253
  6
CONTINUOUS
 10
-11.85
 20
40.1586791574
 11
11.85
 21
40.1586791574
  0
LINE
  5
37E
100
AcDbEntity
  8
RACCORDO
100
AcDbLine
 62
253
  6
CONTINUOUS
 10
-11.6276457135
 20
40.4484569053
 11
11.6276457135
 21
40.4484569053
  0
LINE
  5
37F
100
AcDbEntity
  8
0
100
AcDbLine
 62
7
  6
CONTINUOUS
 10
-9.45
 20
41.0319553157
 11
9.45
 21
41.0319553157
  0
LINE
  5
380
100
AcDbEntity
  8
0
100
AcDbLine
 62
7
  6
CONTINUOUS
 10
-10.1
 20
41.5319553157
 11
10.1
 21
41.5319553157
  0
LINE
  5
381
100
AcDbEntity
  8
0
100
AcDbLine
 62
7
  6
CONTINUOUS
 10
11.35
 20
39.2319553157
 11
13.2588190451
 21
38.720488794
  0
LINE
  5
382
100
AcDbEntity
  8
0
100
AcDbLine
 62
7
  6
CONTINUOUS
 10
31.15
 20
-39.0319553157
 11
31.9833332837
 21
-36.5319553157
  0
LINE
  5
383
100
AcDbEntity
  8
0
100
AcDbLine
 62
7
  6
CONTINUOUS
 10
31.6708332837
 20
-36.5319553157
 11
30.9416666418
 21
-38.7128063803
  0
LINE
  5
384
100
AcDbEntity
  8
0
100
AcDbLine
 62
7
  6
CONTINUOUS
 10
35.1604168653
 20
-36.5319553157
 11
34.3791665673
 21
-38.7659978633
  0
LINE
  5
385
100
AcDbEntity
  8
0
100
AcDbLine
 62
7
  6
CONTINUOUS
 10
34.5875
 20
-39.0319553157
 11
35.3166668653
 21
-37.0638701459
  0
LINE
  5
386
100
AcDbEntity
  8
0
100
AcDbLine
 62
7
  6
CONTINUOUS
 10
-9.45
 20
41.0319553157
 11
-11.6276457135
 21
40.4484569053
  0
LINE
  5
387
100
AcDbEntity
  8
RACCORDO
100
AcDbLine
 62
7
  6
CONTINUOUS
 10
-11.6276457135
 20
40.4484569053
 11
-9.45
 21
41.0319553157
  0
LINE
  5
388
100
AcDbEntity
  8
0
100
AcDbLine
 62
7
  6
CONTINUOUS
 10
-7.85
 20
42.8319553157
 11
-9.8776457135
 21
42.2886492842
  0
LINE
  5
389
100
AcDbEntity
  8
RACCORDO
100
AcDbLine
 62
7
  6
CONTINUOUS
 10
-9.8776457135
 20
42.2886492842
 11
-7.85
 21
42.8319553157
  0
LINE
  5
38A
100
AcDbEntity
  8
0
100
AcDbLine
 62
7
  6
CONTINUOUS
 10
-6.0
 20
44.6319553157
 11
-8.1276457135
 21
44.0618543649
  0
LINE
  5
38B
100
AcDbEntity
  8
RACCORDO
100
AcDbLine
 62
7
  6
CONTINUOUS
 10
-8.1276457135
 20
44.0618543649
 11
-6.0
 21
44.6319553157
  0
LINE
  5
38C
100
AcDbEntity
  8
0
100
AcDbLine
 62
7
  6
CONTINUOUS
 10
-1.0
 20
46.5319553157
 11
-3.8776457135
 21
45.7608924706
  0
LINE
  5
38D
100
AcDbEntity
  8
RACCORDO
100
AcDbLine
 62
7
  6
CONTINUOUS
 10
-3.8776457135
 20
45.7608924706
 11
-1.0
 21
46.5319553157
  0
LINE
  5
38E
100
AcDbEntity
  8
RACCORDO
100
AcDbLine
 62
253
  6
CONTINUOUS
 10
-10.1
 20
41.9988715363
 11
10.1
 21
41.9988715363
  0
LINE
  5
38F
100
AcDbEntity
  8
RACCORDO
100
AcDbLine
 62
253
  6
CONTINUOUS
 10
-9.8776457135
 20
42.2886492842
 11
9.8776457135
 21
42.2886492842
  0
LINE
  5
390
100
AcDbEntity
  8
0
100
AcDbLine
 62
7
  6
CONTINUOUS
 10
-7.85
 20
42.8319553157
 11
7.85
 21
42.8319553157
  0
LINE
  5
391
100
AcDbEntity
  8
0
100
AcDbLine
 62
7
  6
CONTINUOUS
 10
-8.35
 20
43.3319553157
 11
8.35
 21
43.3319553157
  0
LINE
  5
392
100
AcDbEntity
  8
RACCORDO
100
AcDbLine
 62
253
  6
CONTINUOUS
 10
-8.35
 20
43.772076617
 11
8.35
 21
43.772076617
  0
LINE
  5
393
100
AcDbEntity
  8
RACCORDO
100
AcDbLine
 62
253
  6
CONTINUOUS
 10
-8.1276457135
 20
44.0618543649
 11
8.1276457135
 21
44.0618543649
  0
LINE
  5
394
100
AcDbEntity
  8
0
100
AcDbLine
 62
7
  6
CONTINUOUS
 10
-6.0
 20
44.6319553157
 11
6.0
 21
44.6319553157
  0
LINE
  5
395
100
AcDbEntity
  8
0
100
AcDbLine
 62
7
  6
CONTINUOUS
 10
-4.1
 20
45.1319553157
 11
4.1
 21
45.1319553157
  0
LINE
  5
396
100
AcDbEntity
  8
RACCORDO
100
AcDbLine
 62
253
  6
CONTINUOUS
 10
-4.1
 20
45.4711147227
 11
4.1
 21
45.4711147227
  0
LINE
  5
397
100
AcDbEntity
  8
RACCORDO
100
AcDbLine
 62
253
  6
CONTINUOUS
 10
-3.8776457135
 20
45.7608924706
 11
3.8776457135
 21
45.7608924706
  0
LINE
  5
398
100
AcDbEntity
  8
0
100
AcDbLine
 62
7
  6
CONTINUOUS
 10
9.45
 20
41.0319553157
 11
11.6276457135
 21
40.4484569053
  0
LINE
  5
399
100
AcDbEntity
  8
0
100
AcDbLine
 62
7
  6
CONTINUOUS
 10
7.85
 20
42.8319553157
 11
9.8776457135
 21
42.2886492842
  0
LINE
  5
39A
100
AcDbEntity
  8
0
100
AcDbLine
 62
7
  6
CONTINUOUS
 10
6.0
 20
44.6319553157
 11
8.1276457135
 21
44.0618543649
  0
LINE
  5
39B
100
AcDbEntity
  8
0
100
AcDbLine
 62
7
  6
CONTINUOUS
 10
1.0
 20
46.5319553157
 11
3.8776457135
 21
45.7608924706
  0
LINE
  5
39C
100
AcDbEntity
  8
RACCORDO
100
AcDbLine
 62
253
  6
CONTINUOUS
 10
48.3205172409
 20
-41.9094467651
 11
48.3150393266
 21
-35.3753664632
  0
LINE
  5
39D
100
AcDbEntity
  8
RACCORDO
100
AcDbLine
 62
7
  6
CONTINUOUS
 10
47.9
 20
27.4680446843
 11
47.9
 21
-43.5484211998
  0
LINE
  5
39E
100
AcDbEntity
  8
RACCORDO
100
AcDbLine
 62
7
  6
CONTINUOUS
 10
48.2
 20
34.4180542036
 11
48.2
 21
-44.4819648349
  0
LINE
  5
39F
100
AcDbEntity
  8
RACCORDO
100
AcDbLine
 62
7
  6
CONTINUOUS
 10
48.2916321118
 20
35.3772941935
 11
48.2916321118
 21
34.5096863154
  0
LINE
  5
3A0
100
AcDbEntity
  8
RACCORDO
100
AcDbLine
 62
7
  6
CONTINUOUS
 10
48.2916321118
 20
-44.5735969467
 11
48.2916321118
 21
-45.4412048248
  0
LINE
  5
3A1
100
AcDbEntity
  8
RACCORDO
100
AcDbLine
 62
7
  6
CONTINUOUS
 10
50.0
 20
-45.0319553157
 11
50.0
 21
34.9680446843
  0
LINE
  5
3A2
100
AcDbEntity
  8
RACCORDO
100
AcDbLine
 62
253
  6
CONTINUOUS
 10
48.3150393266
 20
25.3114558319
 11
48.3205172435
 21
31.8455391038
  0
LINE
  5
3A3
100
AcDbEntity
  8
0
100
AcDbLine
 62
7
  6
CONTINUOUS
 10
36.61875
 20
-38.1808915128
 11
37.0875
 21
-36.7447212477
  0
LINE
  5
3A4
100
AcDbEntity
  8
0
100
AcDbLine
 62
7
  6
CONTINUOUS
 10
36.3583331347
 20
-39.0319553157
 11
36.5666668653
 21
-38.3936574449
  0
LINE
  5
3A5
100
AcDbEntity
  8
0
100
AcDbLine
 62
7
  6
CONTINUOUS
 10
40.1604162693
 20
-37.276636227
 11
40.1083337307
 21
-37.436210676
  0
LINE
  5
3A6
100
AcDbEntity
  8
0
100
AcDbLine
 62
7
  6
CONTINUOUS
 10
40.4208337307
 20
-37.489402159
 11
40.4729162693
 21
-37.32982771
  0
LINE
  5
3A7
100
AcDbEntity
  8
0
100
AcDbLine
 62
7
  6
CONTINUOUS
 10
36.8791668653
 20
-36.5319553157
 11
36.0458331347
 21
-39.0319553157
  0
LINE
  5
3A8
100
AcDbEntity
  8
DRAFT
100
AcDbLine
 62
7
  6
CONTINUOUS
 10
15.1330642872
 20
-46.382522995
 11
14.9258023047
 21
-46.4861460939
  0
LINE
  5
3A9
100
AcDbEntity
  8
0
100
AcDbLine
 62
7
  6
CONTINUOUS
 10
40.0041662693
 20
-37.5425936421
 11
39.8479168653
 21
-37.5957851251
  0
LINE
  5
3AA
100
AcDbEntity
  8
0
100
AcDbLine
 62
7
  6
CONTINUOUS
 10
-1.0
 20
46.5319553157
 11
1.0
 21
46.5319553157
  0
LINE
  5
3AB
100
AcDbEntity
  8
RACCORDO
100
AcDbLine
 62
7
  6
CONTINUOUS
 10
47.8968134915
 20
-43.9468990791
 11
47.840352844
 21
-44.5129288061
  0
LINE
  5
3AC
100
AcDbEntity
  8
0
100
AcDbLine
 62
7
  6
CONTINUOUS
 10
40.2645837307
 20
-37.7021680911
 11
40.4208337307
 21
-37.489402159
  0
LINE
  5
3AD
100
AcDbEntity
  8
0
100
AcDbLine
 62
7
  6
CONTINUOUS
 10
40.1083337307
 20
-37.436210676
 11
40.0041662693
 21
-37.5425936421
  0
LINE
  5
3AE
100
AcDbEntity
  8
0
100
AcDbLine
 62
7
  6
CONTINUOUS
 10
40.05625
 20
-37.8085510572
 11
40.2645837307
 21
-37.7021680911
  0
LINE
  5
3AF
100
AcDbEntity
  8
RACCORDO
100
AcDbLine
 62
7
  6
CONTINUOUS
 10
-114.1037227916
 20
-46.5312571811
 11
-75.1002321402
 21
-46.3951087618
  0
LINE
  5
3B0
100
AcDbEntity
  8
RACCORDO
100
AcDbLine
 62
253
  6
CONTINUOUS
 10
-114.1037227916
 20
-45.0312663196
 11
-75.1002321402
 21
-44.8951116326
  0
LINE
  5
3B1
100
AcDbEntity
  8
RACCORDO
100
AcDbLine
 62
7
  6
CONTINUOUS
 10
-115.1037227916
 20
-46.5319553157
 11
-114.1037227916
 21
-46.5319553157
  0
LINE
  5
3B2
100
AcDbEntity
  8
ASSI
100
AcDbLine
 62
7
  6
CONTINUOUS
 10
-127.6207244378
 20
-46.5319553157
 11
-132.2743885934
 21
-46.5319553157
  0
LINE
  5
3B3
100
AcDbEntity
  8
RACCORDO
100
AcDbLine
 62
253
  6
CONTINUOUS
 10
-115.1037227916
 20
-45.0319553157
 11
-114.1037227916
 21
-45.0319553157
  0
LINE
  5
3B4
100
AcDbEntity
  8
RACCORDO
100
AcDbLine
 62
7
  6
CONTINUOUS
 10
-115.1037227916
 20
-46.5319553157
 11
-132.2268859912
 21
-46.3825237343
  0
LINE
  5
3B5
100
AcDbEntity
  8
RACCORDO
100
AcDbLine
 62
253
  6
CONTINUOUS
 10
-115.1037227916
 20
-45.0320124311
 11
-132.2269707017
 21
-44.8825801104
  0
LINE
  5
3B6
100
AcDbEntity
  8
RACCORDO
100
AcDbLine
 62
253
  6
CONTINUOUS
 10
-74.1037227916
 20
-44.8951179003
 11
-75.1002321402
 21
-44.8951179003
  0
LINE
  5
3B7
100
AcDbEntity
  8
RACCORDO
100
AcDbLine
 62
253
  6
CONTINUOUS
 10
-137.1555063464
 20
-41.9095359587
 11
-135.6769456632
 21
-41.7514891861
  0
LINE
  5
3B8
100
AcDbEntity
  8
0
100
AcDbLine
 62
7
  6
CONTINUOUS
 10
-137.4990922013
 20
-39.0319553157
 11
-137.4479736246
 21
-39.0319553157
  0
LINE
  5
3B9
100
AcDbEntity
  8
0
100
AcDbLine
 62
7
  6
CONTINUOUS
 10
-137.6162831958
 20
-37.8085510572
 11
-137.5652976478
 21
-37.8085510572
  0
LINE
  5
3BA
100
AcDbEntity
  8
0
100
AcDbLine
 62
7
  6
CONTINUOUS
 10
-137.6262689604
 20
-37.7021680911
 11
-137.5753864797
 21
-37.7021680911
  0
LINE
  5
3BB
100
AcDbEntity
  8
0
100
AcDbLine
 62
7
  6
CONTINUOUS
 10
-137.646142248
 20
-37.489402159
 11
-137.5954283375
 21
-37.489402159
  0
LINE
  5
3BC
100
AcDbEntity
  8
0
100
AcDbLine
 62
7
  6
CONTINUOUS
 10
-137.6162831958
 20
-37.8085510572
 11
-137.6262689604
 21
-37.7021680911
  0
LINE
  5
3BD
100
AcDbEntity
  8
0
100
AcDbLine
 62
7
  6
CONTINUOUS
 10
-137.7291428677
 20
-36.5851467987
 11
-137.7339516218
 21
-36.5319553157
  0
LINE
  5
3BE
100
AcDbEntity
  8
RACCORDO
100
AcDbLine
 62
7
  6
CONTINUOUS
 10
-137.1555063609
 20
31.845625329
 11
-137.1555154969
 21
31.8455391038
  0
LINE
  5
3BF
100
AcDbEntity
  8
0
100
AcDbLine
 62
7
  6
CONTINUOUS
 10
-137.6609612634
 20
-37.32982771
 11
-137.6100609631
 21
-37.32982771
  0
LINE
  5
3C0
100
AcDbEntity
  8
0
100
AcDbLine
 62
7
  6
CONTINUOUS
 10
-137.6806053819
 20
-37.1170616289
 11
-137.6295711442
 21
-37.1170616289
  0
LINE
  5
3C1
100
AcDbEntity
  8
0
100
AcDbLine
 62
7
  6
CONTINUOUS
 10
-137.6952525356
 20
-36.9574871798
 11
-137.6442037698
 21
-36.9574871798
  0
LINE
  5
3C2
100
AcDbEntity
  8
0
100
AcDbLine
 62
7
  6
CONTINUOUS
 10
-137.7146675251
 20
-36.7447212477
 11
-137.6637139373
 21
-36.7447212477
  0
LINE
  5
3C3
100
AcDbEntity
  8
0
100
AcDbLine
 62
7
  6
CONTINUOUS
 10
-137.7291428677
 20
-36.5851467987
 11
-137.678346563
 21
-36.5851467987
  0
LINE
  5
3C4
100
AcDbEntity
  8
0
100
AcDbLine
 62
7
  6
CONTINUOUS
 10
-137.7339516218
 20
-36.5319553157
 11
-137.6832241048
 21
-36.5319553157
  0
LINE
  5
3C5
100
AcDbEntity
  8
RACCORDO
100
AcDbLine
 62
253
  6
CONTINUOUS
 10
-137.7859218477
 20
-35.3753662809
 11
-136.3046614558
 21
-35.2453232726
  0
LINE
  5
3C6
100
AcDbEntity
  8
RACCORDO
100
AcDbLine
 62
7
  6
CONTINUOUS
 10
-135.0037227916
 20
-45.5099287376
 11
-135.0037227916
 21
-45.7213150322
  0
LINE
  5
3C7
100
AcDbEntity
  8
RACCORDO
100
AcDbLine
 62
253
  6
CONTINUOUS
 10
-134.0037227916
 20
-46.0385859529
 11
-134.0037227916
 21
-46.2233733562
  0
LINE
  5
3C8
100
AcDbEntity
  8
RACCORDO
100
AcDbLine
 62
7
  6
CONTINUOUS
 10
-115.1037227916
 20
-46.5319553157
 11
-115.1037227916
 21
36.4680446843
  0
LINE
  5
3C9
100
AcDbEntity
  8
RACCORDO
100
AcDbLine
 62
7
  6
CONTINUOUS
 10
-114.1037227916
 20
-46.5319553157
 11
-114.1037227916
 21
36.4680446843
  0
LINE
  5
3CA
100
AcDbEntity
  8
0
100
AcDbLine
 62
7
  6
CONTINUOUS
 10
-104.1037227916
 20
37.7545629678
 11
-104.1037227916
 21
36.432439823
  0
LINE
  5
3CB
100
AcDbEntity
  8
0
100
AcDbLine
 62
7
  6
CONTINUOUS
 10
-101.9537227916
 20
40.1586791575
 11
-101.9537227916
 21
39.7319553157
  0
LINE
  5
3CC
100
AcDbEntity
  8
0
100
AcDbLine
 62
7
  6
CONTINUOUS
 10
-101.4537227916
 20
39.7319553157
 11
-101.4537227916
 21
39.2319553157
  0
LINE
  5
3CD
100
AcDbEntity
  8
0
100
AcDbLine
 62
7
  6
CONTINUOUS
 10
-100.2037227916
 20
41.9988715363
 11
-100.2037227916
 21
41.5319553157
  0
LINE
  5
3CE
100
AcDbEntity
  8
0
100
AcDbLine
 62
7
  6
CONTINUOUS
 10
-99.5537227916
 20
41.5319553157
 11
-99.5537227916
 21
41.0319553157
  0
LINE
  5
3CF
100
AcDbEntity
  8
0
100
AcDbLine
 62
7
  6
CONTINUOUS
 10
-98.4537227916
 20
43.772076617
 11
-98.4537227916
 21
43.3319553157
  0
LINE
  5
3D0
100
AcDbEntity
  8
0
100
AcDbLine
 62
7
  6
CONTINUOUS
 10
-97.9537227916
 20
43.3319553157
 11
-97.9537227916
 21
42.8319553157
  0
LINE
  5
3D1
100
AcDbEntity
  8
0
100
AcDbLine
 62
7
  6
CONTINUOUS
 10
-94.2037227916
 20
45.4711147251
 11
-94.2037227916
 21
45.1319553157
  0
LINE
  5
3D2
100
AcDbEntity
  8
0
100
AcDbLine
 62
7
  6
CONTINUOUS
 10
-93.7037227916
 20
45.1319553157
 11
-93.7037227916
 21
44.6319553157
  0
LINE
  5
3D3
100
AcDbEntity
  8
RACCORDO
100
AcDbLine
 62
7
  6
CONTINUOUS
 10
-127.5124352448
 20
-46.4236661226
 11
-127.6207244378
 21
-46.5319553157
  0
LINE
  5
3D4
100
AcDbEntity
  8
0
100
AcDbLine
 62
7
  6
CONTINUOUS
 10
-86.5037227916
 20
45.1319553157
 11
-86.5037227916
 21
44.6319553157
  0
LINE
  5
3D5
100
AcDbEntity
  8
0
100
AcDbLine
 62
7
  6
CONTINUOUS
 10
-86.0037227916
 20
45.4711147251
 11
-86.0037227916
 21
45.1319553157
  0
LINE
  5
3D6
100
AcDbEntity
  8
RACCORDO
100
AcDbLine
 62
253
  6
CONTINUOUS
 10
-137.7859212537
 20
25.3114555979
 11
-136.3046614558
 21
25.1814126413
  0
LINE
  5
3D7
100
AcDbEntity
  8
0
100
AcDbLine
 62
7
  6
CONTINUOUS
 10
-82.2537227916
 20
43.3319553157
 11
-82.2537227916
 21
42.8319553157
  0
LINE
  5
3D8
100
AcDbEntity
  8
0
100
AcDbLine
 62
7
  6
CONTINUOUS
 10
-81.7537227916
 20
43.772076617
 11
-81.7537227916
 21
43.3319553157
  0
LINE
  5
3D9
100
AcDbEntity
  8
0
100
AcDbLine
 62
7
  6
CONTINUOUS
 10
-80.6537227916
 20
41.5319553157
 11
-80.6537227916
 21
41.0319553157
  0
LINE
  5
3DA
100
AcDbEntity
  8
0
100
AcDbLine
 62
7
  6
CONTINUOUS
 10
-80.0037227916
 20
41.9988715363
 11
-80.0037227916
 21
41.5319553157
  0
LINE
  5
3DB
100
AcDbEntity
  8
0
100
AcDbLine
 62
7
  6
CONTINUOUS
 10
-78.7537227916
 20
39.7319553157
 11
-78.7537227916
 21
39.2319553157
  0
LINE
  5
3DC
100
AcDbEntity
  8
0
100
AcDbLine
 62
7
  6
CONTINUOUS
 10
-78.2537227916
 20
40.1586791575
 11
-78.2537227916
 21
39.7319553157
  0
LINE
  5
3DD
100
AcDbEntity
  8
0
100
AcDbLine
 62
7
  6
CONTINUOUS
 10
-76.1037227916
 20
37.7545629678
 11
-76.1037227916
 21
36.3319553157
  0
LINE
  5
3DE
100
AcDbEntity
  8
RACCORDO
100
AcDbLine
 62
253
  6
CONTINUOUS
 10
-137.1555046376
 20
31.8456251463
 11
-135.6769456632
 21
31.6875785548
  0
LINE
  5
3DF
100
AcDbEntity
  8
RACCORDO
100
AcDbLine
 62
253
  6
CONTINUOUS
 10
-75.1002321402
 20
34.8311998943
 11
-75.1002321402
 21
-44.8951116326
  0
LINE
  5
3E0
100
AcDbEntity
  8
RACCORDO
100
AcDbLine
 62
7
  6
CONTINUOUS
 10
-74.1037227916
 20
35.3312042228
 11
-74.1037227916
 21
-45.3951148542
  0
LINE
  5
3E1
100
AcDbEntity
  8
0
100
AcDbLine
 62
7
  6
CONTINUOUS
 10
-101.4537227916
 20
39.2319553157
 11
-103.3625418339
 21
38.7204887948
  0
LINE
  5
3E2
100
AcDbEntity
  8
0
100
AcDbLine
 62
7
  6
CONTINUOUS
 10
-99.5537227916
 20
41.0319553157
 11
-101.7313684996
 21
40.4484569068
  0
LINE
  5
3E3
100
AcDbEntity
  8
RACCORDO
100
AcDbLine
 62
253
  6
CONTINUOUS
 10
-132.2269707017
 20
34.8186694791
 11
-115.1037227916
 21
34.9681017998
  0
LINE
  5
3E4
100
AcDbEntity
  8
RACCORDO
100
AcDbLine
 62
7
  6
CONTINUOUS
 10
-132.22688295
 20
36.3186131295
 11
-115.1037227916
 21
36.4680446843
  0
LINE
  5
3E5
100
AcDbEntity
  8
RACCORDO
100
AcDbLine
 62
253
  6
CONTINUOUS
 10
-74.1037227916
 20
34.831207269
 11
-75.1002321402
 21
34.831207269
  0
LINE
  5
3E6
100
AcDbEntity
  8
RACCORDO
100
AcDbLine
 62
253
  6
CONTINUOUS
 10
-115.1037227916
 20
34.9680446843
 11
-114.1037227916
 21
34.9680446843
  0
LINE
  5
3E7
100
AcDbEntity
  8
RACCORDO
100
AcDbLine
 62
7
  6
CONTINUOUS
 10
-115.1037227916
 20
36.4680446843
 11
-114.1037227916
 21
36.4680446843
  0
LINE
  5
3E8
100
AcDbEntity
  8
RACCORDO
100
AcDbLine
 62
253
  6
CONTINUOUS
 10
-104.1037227916
 20
37.7545629679
 11
-76.1037227916
 21
37.7545629679
  0
LINE
  5
3E9
100
AcDbEntity
  8
RACCORDO
100
AcDbLine
 62
253
  6
CONTINUOUS
 10
-114.1037227916
 20
34.9673556883
 11
-75.1002321402
 21
34.8311998943
  0
LINE
  5
3EA
100
AcDbEntity
  8
RACCORDO
100
AcDbLine
 62
7
  6
CONTINUOUS
 10
-114.1037227916
 20
36.4673465498
 11
-75.1002321402
 21
36.3311981305
  0
LINE
  5
3EB
100
AcDbEntity
  8
0
100
AcDbLine
 62
7
  6
CONTINUOUS
 10
-97.9537227916
 20
42.8319553157
 11
-99.9813685074
 21
42.2886492836
  0
LINE
  5
3EC
100
AcDbEntity
  8
0
100
AcDbLine
 62
7
  6
CONTINUOUS
 10
-96.1037227916
 20
44.6319553157
 11
-98.2313685056
 21
44.0618543648
  0
LINE
  5
3ED
100
AcDbEntity
  8
0
100
AcDbLine
 62
7
  6
CONTINUOUS
 10
-91.1037227916
 20
46.5319553157
 11
-93.9813684486
 21
45.7608924857
  0
LINE
  5
3EE
100
AcDbEntity
  8
RACCORDO
100
AcDbLine
 62
253
  6
CONTINUOUS
 10
-103.3625418333
 20
38.7204887949
 11
-76.8449037499
 21
38.7204887949
  0
LINE
  5
3EF
100
AcDbEntity
  8
0
100
AcDbLine
 62
7
  6
CONTINUOUS
 10
-78.7537227916
 20
39.2319553157
 11
-101.4537227916
 21
39.2319553157
  0
LINE
  5
3F0
100
AcDbEntity
  8
0
100
AcDbLine
 62
7
  6
CONTINUOUS
 10
-78.2537227916
 20
39.7319553157
 11
-101.9537227916
 21
39.7319553157
  0
LINE
  5
3F1
100
AcDbEntity
  8
RACCORDO
100
AcDbLine
 62
253
  6
CONTINUOUS
 10
-101.9537227916
 20
40.1586791575
 11
-78.2537227916
 21
40.1586791575
  0
LINE
  5
3F2
100
AcDbEntity
  8
RACCORDO
100
AcDbLine
 62
253
  6
CONTINUOUS
 10
-101.731368499
 20
40.448456907
 11
-78.4760770842
 21
40.448456907
  0
LINE
  5
3F3
100
AcDbEntity
  8
0
100
AcDbLine
 62
7
  6
CONTINUOUS
 10
-80.6537227916
 20
41.0319553157
 11
-99.5537227916
 21
41.0319553157
  0
LINE
  5
3F4
100
AcDbEntity
  8
0
100
AcDbLine
 62
7
  6
CONTINUOUS
 10
-80.0037227916
 20
41.5319553157
 11
-100.2037227916
 21
41.5319553157
  0
LINE
  5
3F5
100
AcDbEntity
  8
RACCORDO
100
AcDbLine
 62
253
  6
CONTINUOUS
 10
-100.2037227916
 20
41.9988715362
 11
-80.0037227916
 21
41.9988715362
  0
LINE
  5
3F6
100
AcDbEntity
  8
RACCORDO
100
AcDbLine
 62
253
  6
CONTINUOUS
 10
-99.9813685126
 20
42.2886492822
 11
-80.2260770706
 21
42.2886492822
  0
LINE
  5
3F7
100
AcDbEntity
  8
0
100
AcDbLine
 62
7
  6
CONTINUOUS
 10
-82.2537227916
 20
42.8319553157
 11
-97.9537227916
 21
42.8319553157
  0
LINE
  5
3F8
100
AcDbEntity
  8
0
100
AcDbLine
 62
7
  6
CONTINUOUS
 10
-81.7537908075
 20
43.3319553157
 11
-98.4536547757
 21
43.3319553157
  0
LINE
  5
3F9
100
AcDbEntity
  8
RACCORDO
100
AcDbLine
 62
253
  6
CONTINUOUS
 10
-98.4537227916
 20
43.7720766169
 11
-81.7537227916
 21
43.7720766169
  0
LINE
  5
3FA
100
AcDbEntity
  8
RACCORDO
100
AcDbLine
 62
253
  6
CONTINUOUS
 10
-98.2313685115
 20
44.0618543632
 11
-81.9760770716
 21
44.0618543632
  0
LINE
  5
3FB
100
AcDbEntity
  8
0
100
AcDbLine
 62
7
  6
CONTINUOUS
 10
-84.1037930948
 20
44.6319553157
 11
-96.1036524884
 21
44.6319553157
  0
LINE
  5
3FC
100
AcDbEntity
  8
0
100
AcDbLine
 62
7
  6
CONTINUOUS
 10
-86.0037944539
 20
45.1319553157
 11
-94.2036511293
 21
45.1319553157
  0
LINE
  5
3FD
100
AcDbEntity
  8
RACCORDO
100
AcDbLine
 62
253
  6
CONTINUOUS
 10
-94.2037227916
 20
45.4711147251
 11
-86.0037227916
 21
45.4711147251
  0
LINE
  5
3FE
100
AcDbEntity
  8
RACCORDO
100
AcDbLine
 62
253
  6
CONTINUOUS
 10
-93.9813684486
 20
45.7608924857
 11
-86.2260771346
 21
45.7608924857
  0
LINE
  5
3FF
100
AcDbEntity
  8
0
100
AcDbLine
 62
7
  6
CONTINUOUS
 10
-78.7537227916
 20
39.2319553157
 11
-76.8449037492
 21
38.7204887948
  0
LINE
  5
400
100
AcDbEntity
  8
0
100
AcDbLine
 62
7
  6
CONTINUOUS
 10
-89.1038023386
 20
46.5319553157
 11
-91.1036432446
 21
46.5319553157
  0
LINE
  5
401
100
AcDbEntity
  8
0
100
AcDbLine
 62
7
  6
CONTINUOUS
 10
-80.6537227916
 20
41.0319553157
 11
-78.4760770836
 21
40.4484569068
  0
LINE
  5
402
100
AcDbEntity
  8
0
100
AcDbLine
 62
7
  6
CONTINUOUS
 10
-82.2537227916
 20
42.8319553157
 11
-80.2260770757
 21
42.2886492836
  0
LINE
  5
403
100
AcDbEntity
  8
0
100
AcDbLine
 62
7
  6
CONTINUOUS
 10
-84.1037227916
 20
44.6319553157
 11
-81.9760770776
 21
44.0618543648
  0
LINE
  5
404
100
AcDbEntity
  8
0
100
AcDbLine
 62
7
  6
CONTINUOUS
 10
-89.1037227916
 20
46.5319553157
 11
-86.2260771345
 21
45.7608924857
  0
ARC
  5
405
100
AcDbEntity
  8
RACCORDO
100
AcDbCircle
 62
253
  6
CONTINUOUS
 10
-1944.1261301744
 20
-5.0317844358
 40
1984.2102138455
100
AcDbArc
 50
359.1333759353
 51
0.8666141972
  0
ARC
  5
406
100
AcDbEntity
  8
RACCORDO
100
AcDbCircle
 62
253
  6
CONTINUOUS
 10
-1939.4340095431
 20
-5.0318078237
 40
1979.0256760663
100
AcDbArc
 50
359.190012231
 51
0.8099792146
  0
ARC
  5
407
100
AcDbEntity
  8
RACCORDO
100
AcDbCircle
 62
253
  6
CONTINUOUS
 10
-94.518117196
 20
-8.2209831021
 40
60.8870565789
100
AcDbArc
 50
333.8631987747
 51
334.3027497913
  0
ARC
  5
408
100
AcDbEntity
  8
RACCORDO
100
AcDbCircle
 62
253
  6
CONTINUOUS
 10
-94.438358121
 20
-1.8041680018
 40
60.7983790312
100
AcDbArc
 50
25.6969283652
 51
26.1371206914
  0
ARC
  5
409
100
AcDbEntity
  8
RACCORDO
100
AcDbCircle
 62
253
  6
CONTINUOUS
 10
-53.709096079
 20
-7.6860425498
 40
30.6637439886
100
AcDbArc
 50
296.8553327293
 51
297.7270369915
  0
ARC
  5
40A
100
AcDbEntity
  8
RACCORDO
100
AcDbCircle
 62
253
  6
CONTINUOUS
 10
-53.6993014885
 20
-2.3589708315
 40
30.6424602222
100
AcDbArc
 50
62.272698375
 51
63.145044249
  0
ARC
  5
40B
100
AcDbEntity
  8
RACCORDO
100
AcDbCircle
 62
253
  6
CONTINUOUS
 10
-48.3504877774
 20
-44.8824430931
 40
1.5000807793
100
AcDbArc
 50
180.0052333974
 51
269.9947666026
  0
ARC
  5
40C
100
AcDbEntity
  8
RACCORDO
100
AcDbCircle
 62
7
  6
CONTINUOUS
 10
-48.5
 20
-45.0319553157
 40
1.5
100
AcDbArc
 50
239.9946807303
 51
270.0
  0
ARC
  5
40D
100
AcDbEntity
  8
RACCORDO
100
AcDbCircle
 62
253
  6
CONTINUOUS
 10
-48.3504877773
 20
34.8185324617
 40
1.5000807794
100
AcDbArc
 50
90.0052334013
 51
179.9947665987
  0
ARC
  5
40E
100
AcDbEntity
  8
RACCORDO
100
AcDbCircle
 62
7
  6
CONTINUOUS
 10
-48.5
 20
34.9680446843
 40
1.5
100
AcDbArc
 50
149.9946812089
 51
180.0
  0
ARC
  5
40F
100
AcDbEntity
  8
RACCORDO
100
AcDbCircle
 62
7
  6
CONTINUOUS
 10
-13.0
 20
37.7545629677
 40
1.0
100
AcDbArc
 50
105.0
 51
180.0
  0
ARC
  5
410
100
AcDbEntity
  8
RACCORDO
100
AcDbCircle
 62
7
  6
CONTINUOUS
 10
-11.55
 20
40.1586791574
 40
0.3
100
AcDbArc
 50
104.9999999999
 51
180.0
  0
ARC
  5
411
100
AcDbEntity
  8
RACCORDO
100
AcDbCircle
 62
7
  6
CONTINUOUS
 10
-9.8
 20
41.9988715363
 40
0.3
100
AcDbArc
 50
105.0
 51
180.0
  0
ARC
  5
412
100
AcDbEntity
  8
RACCORDO
100
AcDbCircle
 62
7
  6
CONTINUOUS
 10
-8.05
 20
43.772076617
 40
0.3
100
AcDbArc
 50
104.9999999998
 51
180.0
  0
ARC
  5
413
100
AcDbEntity
  8
RACCORDO
100
AcDbCircle
 62
7
  6
CONTINUOUS
 10
-3.8
 20
45.4711147227
 40
0.3
100
AcDbArc
 50
104.9999999924
 51
180.0
  0
ARC
  5
414
100
AcDbEntity
  8
RACCORDO
100
AcDbCircle
 62
253
  6
CONTINUOUS
 10
1944.1513520606
 20
-5.032124339
 40
1984.2354320728
100
AcDbArc
 50
179.1333870043
 51
180.8666032356
  0
ARC
  5
415
100
AcDbEntity
  8
RACCORDO
100
AcDbCircle
 62
253
  6
CONTINUOUS
 10
1939.4344647294
 20
-5.0320814238
 40
1979.0261312964
100
AcDbArc
 50
179.190013032
 51
180.8099796487
  0
ARC
  5
416
100
AcDbEntity
  8
RACCORDO
100
AcDbCircle
 62
253
  6
CONTINUOUS
 10
94.5114639466
 20
-1.8396961588
 40
60.8796601861
100
AcDbArc
 50
153.8631706181
 51
154.3027750449
  0
ARC
  5
417
100
AcDbEntity
  8
RACCORDO
100
AcDbCircle
 62
253
  6
CONTINUOUS
 10
94.436005345
 20
-8.260886069
 40
60.7957631347
100
AcDbArc
 50
205.6969188074
 51
206.1371300533
  0
ARC
  5
418
100
AcDbEntity
  8
RACCORDO
100
AcDbCircle
 62
253
  6
CONTINUOUS
 10
53.7081251094
 20
-2.3759876482
 40
30.661627732
100
AcDbArc
 50
116.8553013644
 51
117.7270658684
  0
ARC
  5
419
100
AcDbEntity
  8
RACCORDO
100
AcDbCircle
 62
253
  6
CONTINUOUS
 10
53.7076010366
 20
-7.6886779817
 40
30.6607173939
100
AcDbArc
 50
242.2728729655
 51
243.1449350068
  0
ARC
  5
41A
100
AcDbEntity
  8
RACCORDO
100
AcDbCircle
 62
253
  6
CONTINUOUS
 10
48.3504878356
 20
-44.8824431512
 40
1.5000807794
100
AcDbArc
 50
270.0052311761
 51
359.9947688239
  0
ARC
  5
41B
100
AcDbEntity
  8
RACCORDO
100
AcDbCircle
 62
7
  6
CONTINUOUS
 10
48.5
 20
-45.0319553157
 40
1.5
100
AcDbArc
 50
329.9946812089
 51
360.0
  0
ARC
  5
41C
100
AcDbEntity
  8
RACCORDO
100
AcDbCircle
 62
253
  6
CONTINUOUS
 10
48.3504878357
 20
34.81853252
 40
1.5000807793
100
AcDbArc
 50
0.0052311723
 51
89.9947688277
  0
ARC
  5
41D
100
AcDbEntity
  8
RACCORDO
100
AcDbCircle
 62
7
  6
CONTINUOUS
 10
48.5
 20
34.9680446843
 40
1.5
100
AcDbArc
 50
59.9946807303
 51
90.0
  0
ARC
  5
41E
100
AcDbEntity
  8
RACCORDO
100
AcDbCircle
 62
7
  6
CONTINUOUS
 10
13.0
 20
37.7545629677
 40
1.0
100
AcDbArc
 50
0.0
 51
75.0
  0
ARC
  5
41F
100
AcDbEntity
  8
RACCORDO
100
AcDbCircle
 62
7
  6
CONTINUOUS
 10
11.55
 20
40.1586791574
 40
0.3
100
AcDbArc
 50
0.0
 51
75.0000000001
  0
ARC
  5
420
100
AcDbEntity
  8
RACCORDO
100
AcDbCircle
 62
7
  6
CONTINUOUS
 10
9.8
 20
41.9988715363
 40
0.3
100
AcDbArc
 50
0.0
 51
75.0000000001
  0
ARC
  5
421
100
AcDbEntity
  8
RACCORDO
100
AcDbCircle
 62
7
  6
CONTINUOUS
 10
8.05
 20
43.772076617
 40
0.3
100
AcDbArc
 50
0.0
 51
75.0000000002
  0
ARC
  5
422
100
AcDbEntity
  8
RACCORDO
100
AcDbCircle
 62
7
  6
CONTINUOUS
 10
3.8
 20
45.4711147227
 40
0.3
100
AcDbArc
 50
0.0
 51
75.0000000076
  0
CIRCLE
  5
423
100
AcDbEntity
  8
DRAFT
100
AcDbCircle
 62
7
  6
CONTINUOUS
 10
-90.1037227916
 20
-5.0319553157
 40
11.5
  0
CIRCLE
  5
424
100
AcDbEntity
  8
0
100
AcDbCircle
 62
7
  6
CONTINUOUS
 10
-90.1037227916
 20
-5.0319553157
 40
11.25
  0
CIRCLE
  5
425
100
AcDbEntity
  8
0
100
AcDbCircle
 62
7
  6
CONTINUOUS
 10
-90.1037227916
 20
-5.0319553157
 40
10.8458548116
  0
ARC
  5
426
100
AcDbEntity
  8
RACCORDO
100
AcDbCircle
 62
7
  6
CONTINUOUS
 10
-132.2743885934
 20
-41.5319553157
 40
5.0
100
AcDbArc
 50
236.9160796577
 51
270.0
  0
ARC
  5
427
100
AcDbEntity
  8
DRAFT
100
AcDbCircle
 62
7
  6
CONTINUOUS
 10
-132.1833380242
 20
-41.3827133797
 40
5.0
100
AcDbArc
 50
188.4588894229
 51
234.1750923977
  0
ARC
  5
428
100
AcDbEntity
  8
RACCORDO
100
AcDbCircle
 62
7
  6
CONTINUOUS
 10
-132.1833380242
 20
-41.3827133797
 40
5.0
100
AcDbArc
 50
186.0471404716
 51
269.5009707477
  0
ARC
  5
429
100
AcDbEntity
  8
RACCORDO
100
AcDbCircle
 62
253
  6
CONTINUOUS
 10
-132.1964278106
 20
-41.3827133611
 40
3.5000000187
100
AcDbArc
 50
186.0481685664
 51
269.4999997269
  0
ARC
  5
42A
100
AcDbEntity
  8
RACCORDO
100
AcDbCircle
 62
7
  6
CONTINUOUS
 10
-75.1037227916
 20
-45.3951148542
 40
1.0
100
AcDbArc
 50
270.2
 51
360.0
  0
ARC
  5
42B
100
AcDbEntity
  8
RACCORDO
100
AcDbCircle
 62
7
  6
CONTINUOUS
 10
-132.1833380242
 20
31.3188027484
 40
5.0
100
AcDbArc
 50
90.498994401
 51
173.9528253045
  0
ARC
  5
42C
100
AcDbEntity
  8
DRAFT
100
AcDbCircle
 62
7
  6
CONTINUOUS
 10
-132.1833380242
 20
31.3188027484
 40
5.0
100
AcDbArc
 50
125.7378077409
 51
125.8249049185
  0
ARC
  5
42D
100
AcDbEntity
  8
RACCORDO
100
AcDbCircle
 62
253
  6
CONTINUOUS
 10
-132.1964278106
 20
31.3188027298
 40
3.5000000188
100
AcDbArc
 50
90.5000002738
 51
173.9518314329
  0
ARC
  5
42E
100
AcDbEntity
  8
RACCORDO
100
AcDbCircle
 62
7
  6
CONTINUOUS
 10
-77.1037227916
 20
37.7545629677
 40
1.0
100
AcDbArc
 50
0.0
 51
75.0000001639
  0
ARC
  5
42F
100
AcDbEntity
  8
RACCORDO
100
AcDbCircle
 62
7
  6
CONTINUOUS
 10
-103.1037227916
 20
37.7545629677
 40
1.0
100
AcDbArc
 50
104.9999998361
 51
180.0
  0
ARC
  5
430
100
AcDbEntity
  8
RACCORDO
100
AcDbCircle
 62
7
  6
CONTINUOUS
 10
-75.1037227916
 20
35.3312041806
 40
1.0
100
AcDbArc
 50
0.0000024225
 51
89.8000000085
  0
ARC
  5
431
100
AcDbEntity
  8
RACCORDO
100
AcDbCircle
 62
7
  6
CONTINUOUS
 10
-86.3037227916
 20
45.4711147227
 40
0.3
100
AcDbArc
 50
0.0
 51
75.0000111681
  0
ARC
  5
432
100
AcDbEntity
  8
RACCORDO
100
AcDbCircle
 62
7
  6
CONTINUOUS
 10
-93.9037227916
 20
45.4711147227
 40
0.3
100
AcDbArc
 50
104.9999888319
 51
180.0
  0
ARC
  5
433
100
AcDbEntity
  8
RACCORDO
100
AcDbCircle
 62
7
  6
CONTINUOUS
 10
-82.0537227916
 20
43.772076617
 40
0.3
100
AcDbArc
 50
0.0
 51
74.9999999051
  0
ARC
  5
434
100
AcDbEntity
  8
RACCORDO
100
AcDbCircle
 62
7
  6
CONTINUOUS
 10
-98.1537227916
 20
43.772076617
 40
0.3
100
AcDbArc
 50
105.0000000949
 51
180.0
  0
ARC
  5
435
100
AcDbEntity
  8
RACCORDO
100
AcDbCircle
 62
7
  6
CONTINUOUS
 10
-80.3037227916
 20
41.9988715363
 40
0.3
100
AcDbArc
 50
0.0
 51
74.9999995393
  0
ARC
  5
436
100
AcDbEntity
  8
RACCORDO
100
AcDbCircle
 62
7
  6
CONTINUOUS
 10
-99.9037227916
 20
41.9988715363
 40
0.3
100
AcDbArc
 50
105.0000004607
 51
180.0
  0
ARC
  5
437
100
AcDbEntity
  8
RACCORDO
100
AcDbCircle
 62
7
  6
CONTINUOUS
 10
-78.5537227916
 20
40.1586791574
 40
0.3
100
AcDbArc
 50
0.0
 51
75.0000010891
  0
ARC
  5
438
100
AcDbEntity
  8
RACCORDO
100
AcDbCircle
 62
7
  6
CONTINUOUS
 10
-101.6537227916
 20
40.1586791574
 40
0.3
100
AcDbArc
 50
104.9999989109
 51
180.0
  0
ARC
  5
439
100
AcDbEntity
  8
0
100
AcDbCircle
 62
7
  6
CONTINUOUS
 10
210.9962772084
 20
-5.0319553157
 40
350.15
100
AcDbArc
 50
185.3711667119
 51
185.5722713779
  0
ARC
  5
43A
100
AcDbEntity
  8
0
100
AcDbCircle
 62
7
  6
CONTINUOUS
 10
210.9962772084
 20
-5.0319553157
 40
350.15
100
AcDbArc
 50
185.1701283899
 51
185.3536825237
  0
ARC
  5
43B
100
AcDbEntity
  8
RACCORDO
100
AcDbCircle
 62
7
  6
CONTINUOUS
 10
210.8962772084
 20
-5.0319553157
 40
350.0
100
AcDbArc
 50
173.9518459009
 51
186.0481536102
  0
ARC
  5
43C
100
AcDbEntity
  8
RACCORDO
100
AcDbCircle
 62
253
  6
CONTINUOUS
 10
210.9261444931
 20
-5.0360998215
 40
348.5431546585
100
AcDbArc
 50
173.9518982366
 51
175.0264059083
  0
ARC
  5
43D
100
AcDbEntity
  8
RACCORDO
100
AcDbCircle
 62
253
  6
CONTINUOUS
 10
210.9194012191
 20
-5.0284614018
 40
348.5363803705
100
AcDbArc
 50
184.9735836491
 51
186.048112206
  0
ARC
  5
43E
100
AcDbEntity
  8
RACCORDO
100
AcDbCircle
 62
253
  6
CONTINUOUS
 10
210.8366643843
 20
-5.0319553157
 40
348.4536330102
100
AcDbArc
 50
175.0258092423
 51
184.9741907577
  0
SPLINE
  5
43F
100
AcDbEntity
  8
RACCORDO
100
AcDbSpline
 62
7
  6
CONTINUOUS
 70
0
 71
3
 72
15
 73
11
 74
9
 42
0.0000001
 43
0.0000001
 44
0.0000000001
 12
0.4838624541
 22
0.4831338098
 32
0.0
 13
0.6837698097
 23
0.0
 33
0.0
 40
0.0
 40
0.0
 40
0.0
 40
0.0
 40
0.1627646293
 40
0.3257977977
 40
0.4842532795
 40
0.6332562669
 40
0.767523881
 40
0.8803665893
 40
0.9623809721
 40
1.0
 40
1.0
 40
1.0
 40
1.0
 10
38.3
 20
18.3013303986
 30
0.0
 10
38.3262518977
 20
18.3275427638
 30
0.0
 10
38.37893688
 20
18.3798686838
 30
0.0
 10
38.4576714325
 20
18.457237962
 30
0.0
 10
38.5346526329
 20
18.5318294616
 30
0.0
 10
38.6074130051
 20
18.6016380078
 30
0.0
 10
38.6734287849
 20
18.6625356336
 30
0.0
 10
38.7286300362
 20
18.7152874759
 30
0.0
 10
38.7694965339
 20
18.7447430787
 30
0.0
 10
38.7902927314
 20
18.7680446843
 30
0.0
 10
38.7988669832
 20
18.7680446843
 30
0.0
 11
38.3
 21
18.3013303986
 31
0.0
 11
38.3789649251
 21
18.3797573873
 31
0.0
 11
38.4585007938
 21
18.4578675817
 31
0.0
 11
38.53628904
 21
18.533286925
 31
0.0
 11
38.609992283
 21
18.6036298658
 31
0.0
 11
38.6770769528
 21
18.6663066703
 31
0.0
 11
38.734327737
 21
18.7180345366
 31
0.0
 11
38.7771907684
 21
18.7541954293
 31
0.0
 11
38.7988669832
 21
18.7680446843
 31
0.0
  0
SPLINE
  5
440
100
AcDbEntity
  8
RACCORDO
100
AcDbSpline
 62
7
  6
CONTINUOUS
 70
0
 71
3
 72
15
 73
11
 74
9
 42
0.0000001
 43
0.0000001
 44
0.0000000001
 12
-0.6837698097
 22
0.0
 32
0.0
 13
-0.4838624541
 23
0.4831338098
 33
0.0
 40
0.0
 40
0.0
 40
0.0
 40
0.0
 40
0.0376190279
 40
0.1196334107
 40
0.232476119
 40
0.3667437331
 40
0.5157467205
 40
0.6742022023
 40
0.8372353707
 40
1.0
 40
1.0
 40
1.0
 40
1.0
 10
38.7988669832
 20
-28.8319553157
 30
0.0
 10
38.7902927314
 20
-28.8319553157
 30
0.0
 10
38.7694965339
 20
-28.80865371
 30
0.0
 10
38.7286300362
 20
-28.7791981073
 30
0.0
 10
38.6734287849
 20
-28.7264462649
 30
0.0
 10
38.6074130051
 20
-28.6655486391
 30
0.0
 10
38.5346526329
 20
-28.5957400929
 30
0.0
 10
38.4576714325
 20
-28.5211485934
 30
0.0
 10
38.37893688
 20
-28.4437793151
 30
0.0
 10
38.3262518977
 20
-28.3914533951
 30
0.0
 10
38.3
 20
-28.3652410299
 30
0.0
 11
38.7988669832
 21
-28.8319553157
 31
0.0
 11
38.7771907684
 21
-28.8181060607
 31
0.0
 11
38.734327737
 21
-28.7819451679
 31
0.0
 11
38.6770769528
 21
-28.7302173016
 31
0.0
 11
38.609992283
 21
-28.6675404971
 31
0.0
 11
38.53628904
 21
-28.5971975563
 31
0.0
 11
38.4585007938
 21
-28.521778213
 31
0.0
 11
38.3789649251
 21
-28.4436680186
 31
0.0
 11
38.3
 21
-28.3652410299
 31
0.0
  0
SPLINE
  5
441
100
AcDbEntity
  8
RACCORDO
100
AcDbSpline
 62
7
  6
CONTINUOUS
 70
0
 71
3
 72
15
 73
11
 74
9
 42
0.0000001
 43
0.0000001
 44
0.0000000001
 12
0.6837698097
 22
0.0
 32
0.0
 13
0.4838624541
 23
-0.4831338098
 33
0.0
 40
0.0
 40
0.0
 40
0.0
 40
0.0
 40
0.0376190279
 40
0.1196334107
 40
0.232476119
 40
0.3667437331
 40
0.5157467205
 40
0.6742022023
 40
0.8372353707
 40
1.0
 40
1.0
 40
1.0
 40
1.0
 10
-38.7988669832
 20
18.7680446843
 30
0.0
 10
-38.7902927314
 20
18.7680446843
 30
0.0
 10
-38.7694965339
 20
18.7447430787
 30
0.0
 10
-38.7286300362
 20
18.7152874759
 30
0.0
 10
-38.6734287849
 20
18.6625356336
 30
0.0
 10
-38.6074130051
 20
18.6016380078
 30
0.0
 10
-38.5346526329
 20
18.5318294616
 30
0.0
 10
-38.4576714325
 20
18.457237962
 30
0.0
 10
-38.37893688
 20
18.3798686838
 30
0.0
 10
-38.3262518977
 20
18.3275427638
 30
0.0
 10
-38.3
 20
18.3013303986
 30
0.0
 11
-38.7988669832
 21
18.7680446843
 31
0.0
 11
-38.7771907684
 21
18.7541954293
 31
0.0
 11
-38.734327737
 21
18.7180345366
 31
0.0
 11
-38.6770769528
 21
18.6663066703
 31
0.0
 11
-38.609992283
 21
18.6036298658
 31
0.0
 11
-38.53628904
 21
18.533286925
 31
0.0
 11
-38.4585007938
 21
18.4578675817
 31
0.0
 11
-38.3789649251
 21
18.3797573873
 31
0.0
 11
-38.3
 21
18.3013303986
 31
0.0
  0
SPLINE
  5
442
100
AcDbEntity
  8
RACCORDO
100
AcDbSpline
 62
7
  6
CONTINUOUS
 70
0
 71
3
 72
15
 73
11
 74
9
 42
0.0000001
 43
0.0000001
 44
0.0000000001
 12
-0.4838624541
 22
-0.4831338098
 32
0.0
 13
-0.6837698097
 23
0.0
 33
0.0
 40
0.0
 40
0.0
 40
0.0
 40
0.0
 40
0.1627646293
 40
0.3257977977
 40
0.4842532795
 40
0.6332562669
 40
0.767523881
 40
0.8803665893
 40
0.9623809721
 40
1.0
 40
1.0
 40
1.0
 40
1.0
 10
-38.3
 20
-28.3652410299
 30
0.0
 10
-38.3262518977
 20
-28.3914533951
 30
0.0
 10
-38.37893688
 20
-28.4437793151
 30
0.0
 10
-38.4576714325
 20
-28.5211485934
 30
0.0
 10
-38.5346526329
 20
-28.5957400929
 30
0.0
 10
-38.6074130051
 20
-28.6655486391
 30
0.0
 10
-38.6734287849
 20
-28.7264462649
 30
0.0
 10
-38.7286300362
 20
-28.7791981073
 30
0.0
 10
-38.7694965339
 20
-28.80865371
 30
0.0
 10
-38.7902927314
 20
-28.8319553157
 30
0.0
 10
-38.7988669832
 20
-28.8319553157
 30
0.0
 11
-38.3
 21
-28.3652410299
 31
0.0
 11
-38.3789649251
 21
-28.4436680186
 31
0.0
 11
-38.4585007938
 21
-28.521778213
 31
0.0
 11
-38.53628904
 21
-28.5971975563
 31
0.0
 11
-38.609992283
 21
-28.6675404971
 31
0.0
 11
-38.6770769528
 21
-28.7302173016
 31
0.0
 11
-38.734327737
 21
-28.7819451679
 31
0.0
 11
-38.7771907684
 21
-28.8181060607
 31
0.0
 11
-38.7988669832
 21
-28.8319553157
 31
0.0
  0
SPLINE
  5
443
100
AcDbEntity
  8
RACCORDO
100
AcDbSpline
 62
7
  6
CONTINUOUS
 70
0
 71
3
 72
15
 73
11
 74
9
 42
0.0000001
 43
0.0000001
 44
0.0000000001
 12
1.1892638142
 22
0.0
 32
0.0
 13
0.0
 23
-1.1892638142
 33
0.0
 40
0.0
 40
0.0
 40
0.0
 40
0.0
 40
0.1507428358
 40
0.3040011003
 40
0.4538095621
 40
0.5973741686
 40
0.7286104224
 40
0.8401843259
 40
0.9305653298
 40
1.0
 40
1.0
 40
1.0
 40
1.0
 10
13.7
 20
-43.7213150322
 30
0.0
 10
13.7597576666
 20
-43.7213150322
 30
0.0
 10
13.8803876025
 20
-43.7283653964
 30
0.0
 10
14.0578963835
 20
-43.7600302486
 30
0.0
 10
14.2276619931
 20
-43.8118176882
 30
0.0
 10
14.3818579181
 20
-43.8804177305
 30
0.0
 10
14.512880847
 20
-43.960728792
 30
0.0
 10
14.6138224
 20
-44.0470057497
 30
0.0
 10
14.680238131
 20
-44.1328673171
 30
0.0
 10
14.7
 20
-44.1958479759
 30
0.0
 10
14.7
 20
-44.2233733562
 30
0.0
 11
13.7
 21
-43.7213150322
 31
0.0
 11
13.878966764
 21
-43.7317890889
 31
0.0
 11
14.0583893728
 21
-43.7638496315
 31
0.0
 11
14.2287382996
 21
-43.8160307005
 31
0.0
 11
14.3845319158
 21
-43.8858819441
 31
0.0
 11
14.5169840105
 21
-43.968439202
 31
0.0
 11
14.6166535564
 21
-44.0560339029
 31
0.0
 11
14.6791758857
 21
-44.1434660644
 31
0.0
 11
14.7
 21
-44.2233733562
 31
0.0
  0
SPLINE
  5
444
100
AcDbEntity
  8
RACCORDO
100
AcDbSpline
 62
7
  6
CONTINUOUS
 70
0
 71
3
 72
15
 73
11
 74
9
 42
0.0000001
 43
0.0000001
 44
0.0000000001
 12
0.0
 22
1.1892638142
 32
0.0
 13
1.1892638142
 23
-0.0
 33
0.0
 40
0.0
 40
0.0
 40
0.0
 40
0.0
 40
0.0694346702
 40
0.1598156741
 40
0.2713895776
 40
0.4026258314
 40
0.5461904379
 40
0.6959988997
 40
0.8492571642
 40
1.0
 40
1.0
 40
1.0
 40
1.0
 10
-14.7
 20
-44.2233733562
 30
0.0
 10
-14.7
 20
-44.1958479759
 30
0.0
 10
-14.680238131
 20
-44.1328673171
 30
0.0
 10
-14.6138224
 20
-44.0470057497
 30
0.0
 10
-14.512880847
 20
-43.960728792
 30
0.0
 10
-14.3818579181
 20
-43.8804177305
 30
0.0
 10
-14.2276619931
 20
-43.8118176882
 30
0.0
 10
-14.0578963835
 20
-43.7600302486
 30
0.0
 10
-13.8803876025
 20
-43.7283653964
 30
0.0
 10
-13.7597576666
 20
-43.7213150322
 30
0.0
 10
-13.7
 20
-43.7213150322
 30
0.0
 11
-14.7
 21
-44.2233733562
 31
0.0
 11
-14.6791758857
 21
-44.1434660644
 31
0.0
 11
-14.6166535564
 21
-44.0560339029
 31
0.0
 11
-14.5169840105
 21
-43.968439202
 31
0.0
 11
-14.3845319158
 21
-43.8858819441
 31
0.0
 11
-14.2287382996
 21
-43.8160307005
 31
0.0
 11
-14.0583893728
 21
-43.7638496315
 31
0.0
 11
-13.878966764
 21
-43.7317890889
 31
0.0
 11
-13.7
 21
-43.7213150322
 31
0.0
  0
SPLINE
  5
445
100
AcDbEntity
  8
RACCORDO
100
AcDbSpline
 62
253
  6
CONTINUOUS
 70
0
 71
3
 72
22
 73
18
 74
16
 42
0.0000001
 43
0.0000001
 44
0.0000000001
 12
0.0423033145
 22
1.6435084305
 32
0.0
 13
0.7124720906
 23
1.4816521358
 33
0.0
 40
0.0
 40
0.0
 40
0.0
 40
0.0
 40
0.0980624937
 40
0.1881017796
 40
0.2715708592
 40
0.3481867754
 40
0.4171091638
 40
0.4795861883
 40
0.5382018014
 40
0.5955141609
 40
0.6529133407
 40
0.7100653869
 40
0.7665932072
 40
0.8230928155
 40
0.8803869684
 40
0.9391810648
 40
1.0
 40
1.0
 40
1.0
 40
1.0
 10
39.3938847407
 20
22.9443582966
 30
0.0
 10
39.3952675302
 20
22.998080475
 30
0.0
 10
39.3988011067
 20
23.1011092794
 30
0.0
 10
39.406468521
 20
23.2497440489
 30
0.0
 10
39.4158479967
 20
23.3865018955
 30
0.0
 10
39.4265386287
 20
23.5115516866
 30
0.0
 10
39.4381303515
 20
23.6249619962
 30
0.0
 10
39.4504081352
 20
23.7283718189
 30
0.0
 10
39.463534126
 20
23.8252603604
 30
0.0
 10
39.4779233963
 20
23.9191557066
 30
0.0
 10
39.4939795468
 20
24.0119679422
 30
0.0
 10
39.5119735947
 20
24.1039878829
 30
0.0
 10
39.5321617903
 20
24.1950496506
 30
0.0
 10
39.5550463721
 20
24.2855559645
 30
0.0
 10
39.5815517892
 20
24.3763769699
 30
0.0
 10
39.6130761457
 20
24.4680958098
 30
0.0
 10
39.6384792883
 20
24.5286267074
 30
0.0
 10
39.6529232196
 20
24.5586642091
 30
0.0
 11
39.3938847407
 21
22.9443582966
 31
0.0
 11
39.3994348387
 21
23.1054826505
 31
0.0
 11
39.4070869552
 21
23.2533140748
 31
0.0
 11
39.4165046497
 21
23.3902181054
 31
0.0
 11
39.4272625071
 21
23.5157184786
 31
0.0
 11
39.43881089
 21
23.6284405004
 31
0.0
 11
39.45094644
 21
23.7304366161
 31
0.0
 11
39.4639099021
 21
23.8259278642
 31
0.0
 11
39.4782141542
 21
23.9190603129
 31
0.0
 11
39.494340753
 21
24.0120394316
 31
0.0
 11
39.5124256834
 21
24.104243559
 31
0.0
 11
39.5326099007
 21
24.1949599275
 31
0.0
 11
39.555478656
 21
24.2849891637
 31
0.0
 11
39.5820176335
 21
24.3753678527
 31
0.0
 11
39.6137031233
 21
24.4666876251
 31
0.0
 11
39.6529232196
 21
24.5586642091
 31
0.0
  0
SPLINE
  5
446
100
AcDbEntity
  8
RACCORDO
100
AcDbSpline
 62
253
  6
CONTINUOUS
 70
0
 71
3
 72
14
 73
10
 74
8
 42
0.0000001
 43
0.0000001
 44
0.0000000001
 12
0.0422761987
 22
-1.6433315583
 32
0.0
 13
0.7135516097
 23
-1.4809355109
 33
0.0
 40
0.0
 40
0.0
 40
0.0
 40
0.0
 40
0.1915210125
 40
0.3658343209
 40
0.5231422997
 40
0.6648483189
 40
0.7916617324
 40
0.9034998851
 40
1.0
 40
1.0
 40
1.0
 40
1.0
 10
39.3938847752
 20
-33.0082694659
 30
0.0
 10
39.396583702
 20
-33.1131803072
 30
0.0
 10
39.4050741647
 20
-33.3135111689
 30
0.0
 10
39.4274021532
 20
-33.5993612979
 30
0.0
 10
39.4574831661
 20
-33.8570476158
 30
0.0
 10
39.4945474613
 20
-34.0875003453
 30
0.0
 10
39.5382767909
 20
-34.2914179974
 30
0.0
 10
39.5886743792
 20
-34.4681431722
 30
0.0
 10
39.6299703121
 20
-34.5749379922
 30
0.0
 10
39.6529229162
 20
-34.6225748079
 30
0.0
 11
39.3938847752
 21
-33.0082694659
 31
0.0
 11
39.4074258888
 21
-33.3228147848
 31
0.0
 11
39.4300403416
 21
-33.6084703616
 31
0.0
 11
39.4604185592
 21
-33.8652745289
 31
0.0
 11
39.4979322792
 21
-34.0951811076
 31
0.0
 11
39.5423841609
 21
-34.2988520856
 31
0.0
 11
39.5938531132
 21
-34.4753486127
 31
0.0
 11
39.6529229162
 21
-34.6225748079
 31
0.0
  0
SPLINE
  5
447
100
AcDbEntity
  8
RACCORDO
100
AcDbSpline
 62
253
  6
CONTINUOUS
 70
0
 71
3
 72
14
 73
10
 74
8
 42
0.0000001
 43
0.0000001
 44
0.0000000001
 12
-0.0423114051
 22
-1.6433364967
 32
0.0
 13
-0.7118382725
 23
-1.4817663008
 33
0.0
 40
0.0
 40
0.0
 40
0.0
 40
0.0
 40
0.1932327022
 40
0.3683488938
 40
0.5261278771
 40
0.667572466
 40
0.7936706165
 40
0.9046017649
 40
1.0
 40
1.0
 40
1.0
 40
1.0
 10
-39.3938847392
 20
-33.0082689046
 30
0.0
 10
-39.3966100549
 20
-33.1141176886
 30
0.0
 10
-39.4051867981
 20
-33.3158259071
 30
0.0
 10
-39.4277670936
 20
-33.6032997307
 30
0.0
 10
-39.4580936759
 20
-33.8615171589
 30
0.0
 10
-39.4953181281
 20
-34.0916669859
 30
0.0
 10
-39.5390764157
 20
-34.2945177048
 30
0.0
 10
-39.5891826715
 20
-34.4697843189
 30
0.0
 10
-39.6302872023
 20
-34.5754555411
 30
0.0
 10
-39.6529232406
 20
-34.6225748377
 30
0.0
 11
-39.3938847392
 21
-33.0082689046
 31
0.0
 11
-39.4075988508
 21
-33.3256243124
 31
0.0
 11
-39.4304471631
 21
-33.6125863414
 31
0.0
 11
-39.4611002976
 21
-33.8701385208
 31
0.0
 11
-39.4987623258
 21
-34.0995861894
 31
0.0
 11
-39.5431853326
 21
-34.3020606146
 31
0.0
 11
-39.5944159007
 21
-34.4770741288
 31
0.0
 11
-39.6529232406
 21
-34.6225748377
 31
0.0
  0
SPLINE
  5
448
100
AcDbEntity
  8
RACCORDO
100
AcDbSpline
 62
253
  6
CONTINUOUS
 70
0
 71
3
 72
14
 73
10
 74
8
 42
0.0000001
 43
0.0000001
 44
0.0000000001
 12
-0.0422752962
 22
1.6433320338
 32
0.0
 13
-0.7133833403
 23
1.4810170775
 33
0.0
 40
0.0
 40
0.0
 40
0.0
 40
0.0
 40
0.1916872553
 40
0.3660971948
 40
0.5234169264
 40
0.6650978926
 40
0.7918539466
 40
0.9036027624
 40
1.0
 40
1.0
 40
1.0
 40
1.0
 10
-39.3938847848
 20
22.9443589837
 30
0.0
 10
-39.3965859967
 20
23.0493609194
 30
0.0
 10
-39.4050855048
 20
23.2498357442
 30
0.0
 10
-39.4274378884
 20
23.5358351561
 30
0.0
 10
-39.4575422863
 20
23.793564757
 30
0.0
 10
-39.4946188032
 20
24.0239766923
 30
0.0
 10
-39.5383525378
 20
24.2277965225
 30
0.0
 10
-39.5887191438
 20
24.4043895153
 30
0.0
 10
-39.6300001807
 20
24.5110755032
 30
0.0
 10
-39.6529229084
 20
24.5586641549
 30
0.0
 11
-39.3938847848
 21
22.9443589837
 31
0.0
 11
-39.407442593
 21
23.2591772063
 31
0.0
 11
-39.4300828921
 21
23.5449901622
 31
0.0
 11
-39.4604814019
 21
23.801811455
 31
0.0
 11
-39.498008503
 21
24.0316741855
 31
0.0
 11
-39.5424608834
 21
24.2352486007
 31
0.0
 11
-39.5939037907
 21
24.4115997993
 31
0.0
 11
-39.6529229084
 21
24.5586641549
 31
0.0
  0
SPLINE
  5
449
100
AcDbEntity
  8
RACCORDO
100
AcDbSpline
 62
253
  6
CONTINUOUS
 70
0
 71
3
 72
12
 73
8
 74
6
 42
0.0000001
 43
0.0000001
 44
0.0000000001
 12
-0.5350532648
 22
-0.0303218513
 32
0.0
 13
-0.227895061
 23
-0.4850414952
 33
0.0
 40
0.0
 40
0.0
 40
0.0
 40
0.0
 40
0.2600276833
 40
0.5035128204
 40
0.7143662691
 40
0.8808278822
 40
1.0
 40
1.0
 40
1.0
 40
1.0
 10
-38.9014809083
 20
23.1153690554
 30
0.0
 10
-38.9478571286
 20
23.1127408818
 30
0.0
 10
-39.0374944058
 20
23.1034213808
 30
0.0
 10
-39.1626934415
 20
23.0778303942
 30
0.0
 10
-39.2683686088
 20
23.0424896664
 30
0.0
 10
-39.3468779952
 20
23.0010506024
 30
0.0
 10
-39.3848318725
 20
22.9636267911
 30
0.0
 10
-39.3938847848
 20
22.9443589837
 30
0.0
 11
-38.9014809083
 21
23.1153690554
 31
0.0
 11
-39.0400680824
 21
23.1007901282
 31
0.0
 11
-39.1677554663
 21
23.073907586
 31
0.0
 11
-39.2745000841
 21
23.0368356978
 31
0.0
 11
-39.3519059966
 21
22.9924901997
 31
0.0
 11
-39.3938847848
 21
22.9443589837
 31
0.0
  0
SPLINE
  5
44A
100
AcDbEntity
  8
RACCORDO
100
AcDbSpline
 62
253
  6
CONTINUOUS
 70
0
 71
3
 72
10
 73
6
 74
4
 42
0.0000001
 43
0.0000001
 44
0.0000000001
 12
-0.2259179144
 22
-0.1894908939
 32
0.0
 13
-0.1933079109
 23
-0.2226606263
 33
0.0
 40
0.0
 40
0.0
 40
0.0
 40
0.0
 40
0.3351131042
 40
0.6726232081
 40
1.0
 40
1.0
 40
1.0
 40
1.0
 10
-39.4425518415
 20
24.7649049675
 30
0.0
 10
-39.4677878594
 20
24.743738007
 30
0.0
 10
-39.5173005098
 20
24.6998757286
 30
0.0
 10
-39.5875320103
 20
24.6310624794
 30
0.0
 10
-39.6318281464
 20
24.5829621155
 30
0.0
 10
-39.6529229876
 20
24.5586641417
 30
0.0
 11
-39.4425518415
 21
24.7649049675
 31
0.0
 11
-39.5165597787
 21
24.6994305711
 31
0.0
 11
-39.5876252938
 21
24.6297603154
 31
0.0
 11
-39.6529229876
 21
24.5586641417
 31
0.0
  0
SPLINE
  5
44B
100
AcDbEntity
  8
RACCORDO
100
AcDbSpline
 62
253
  6
CONTINUOUS
 70
0
 71
3
 72
12
 73
8
 74
6
 42
0.0000001
 43
0.0000001
 44
0.0000000001
 12
-0.2278949875
 22
0.4850415561
 32
0.0
 13
-0.5350532979
 23
0.0303216897
 33
0.0
 40
0.0
 40
0.0
 40
0.0
 40
0.0
 40
0.1191716115
 40
0.2856325854
 40
0.496485697
 40
0.7399711885
 40
1.0
 40
1.0
 40
1.0
 40
1.0
 10
39.3938847407
 20
22.9443582966
 30
0.0
 10
39.3848318698
 20
22.9636260246
 30
0.0
 10
39.3468782082
 20
23.0010497355
 30
0.0
 10
39.2683691013
 20
23.042488788
 30
0.0
 10
39.162694068
 20
23.0778295803
 30
0.0
 10
39.037494836
 20
23.1034206713
 30
0.0
 10
38.9478572886
 20
23.1127401973
 30
0.0
 10
38.9014808642
 20
23.1153683683
 30
0.0
 11
39.3938847407
 21
22.9443582966
 31
0.0
 11
39.3519061805
 21
22.9924893552
 31
0.0
 11
39.2745006215
 21
23.0368347893
 31
0.0
 11
39.1677562069
 21
23.073906727
 31
0.0
 11
39.0400686459
 21
23.1007893786
 31
0.0
 11
38.9014808642
 21
23.1153683683
 31
0.0
  0
SPLINE
  5
44C
100
AcDbEntity
  8
RACCORDO
100
AcDbSpline
 62
253
  6
CONTINUOUS
 70
0
 71
3
 72
10
 73
6
 74
4
 42
0.0000001
 43
0.0000001
 44
0.0000000001
 12
-0.1933076578
 22
0.2226603417
 32
0.0
 13
-0.2259174201
 23
0.1894908906
 33
0.0
 40
0.0
 40
0.0
 40
0.0
 40
0.0
 40
0.3273768505
 40
0.6648869408
 40
1.0
 40
1.0
 40
1.0
 40
1.0
 10
39.6529232887
 20
24.5586641976
 30
0.0
 10
39.6318284713
 20
24.5829621447
 30
0.0
 10
39.5875324013
 20
24.63106246
 30
0.0
 10
39.517301029
 20
24.6998756579
 30
0.0
 10
39.4677884864
 20
24.7437379197
 30
0.0
 10
39.4425525271
 20
24.764904877
 30
0.0
 11
39.6529232887
 21
24.5586641976
 31
0.0
 11
39.5876256827
 21
24.6297603062
 31
0.0
 11
39.5165603004
 21
24.699430508
 31
0.0
 11
39.4425525271
 21
24.764904877
 31
0.0
  0
SPLINE
  5
44D
100
AcDbEntity
  8
RACCORDO
100
AcDbSpline
 62
253
  6
CONTINUOUS
 70
0
 71
3
 72
12
 73
8
 74
6
 42
0.0000001
 43
0.0000001
 44
0.0000000001
 12
0.2278949611
 22
-0.4850415712
 32
0.0
 13
0.5350533015
 23
-0.0303216685
 33
0.0
 40
0.0
 40
0.0
 40
0.0
 40
0.0
 40
0.1191718029
 40
0.285633006
 40
0.4964862352
 40
0.739971597
 40
1.0
 40
1.0
 40
1.0
 40
1.0
 10
-39.3938847392
 20
-33.0082689046
 30
0.0
 10
-39.3848318548
 20
-33.0275366641
 30
0.0
 10
-39.3468781196
 20
-33.064960419
 30
0.0
 10
-39.2683689129
 20
-33.1063994843
 30
0.0
 10
-39.162693831
 20
-33.1417402562
 30
0.0
 10
-39.037494667
 20
-33.1673313044
 30
0.0
 10
-38.9478572145
 20
-33.1766508113
 30
0.0
 10
-38.9014808627
 20
-33.1792789763
 30
0.0
 11
-39.3938847392
 21
-33.0082689046
 31
0.0
 11
-39.3519060993
 21
-33.0564000302
 31
0.0
 11
-39.274500416
 21
-33.1007454951
 31
0.0
 11
-39.1677559289
 21
-33.1378174178
 31
0.0
 11
-39.040068429
 21
-33.1647000248
 31
0.0
 11
-38.9014808627
 21
-33.1792789763
 31
0.0
  0
SPLINE
  5
44E
100
AcDbEntity
  8
RACCORDO
100
AcDbSpline
 62
7
  6
CONTINUOUS
 70
0
 71
3
 72
15
 73
11
 74
9
 42
0.0000001
 43
0.0000001
 44
0.0000000001
 12
-1.1892638142
 22
0.0
 32
0.0
 13
0.0
 23
-1.1892638142
 33
0.0
 40
0.0
 40
0.0
 40
0.0
 40
0.0
 40
0.1507428358
 40
0.3040011003
 40
0.4538095621
 40
0.5973741686
 40
0.7286104224
 40
0.8401843259
 40
0.9305653298
 40
1.0
 40
1.0
 40
1.0
 40
1.0
 10
-13.7
 20
-45.7213150322
 30
0.0
 10
-13.7597576666
 20
-45.7213150322
 30
0.0
 10
-13.8803876025
 20
-45.7283653964
 30
0.0
 10
-14.0578963835
 20
-45.7600302486
 30
0.0
 10
-14.2276619931
 20
-45.8118176882
 30
0.0
 10
-14.3818579181
 20
-45.8804177305
 30
0.0
 10
-14.512880847
 20
-45.960728792
 30
0.0
 10
-14.6138224
 20
-46.0470057497
 30
0.0
 10
-14.680238131
 20
-46.1328673171
 30
0.0
 10
-14.7
 20
-46.1958479759
 30
0.0
 10
-14.7
 20
-46.2233733562
 30
0.0
 11
-13.7
 21
-45.7213150322
 31
0.0
 11
-13.878966764
 21
-45.7317890889
 31
0.0
 11
-14.0583893728
 21
-45.7638496315
 31
0.0
 11
-14.2287382996
 21
-45.8160307005
 31
0.0
 11
-14.3845319158
 21
-45.8858819441
 31
0.0
 11
-14.5169840105
 21
-45.968439202
 31
0.0
 11
-14.6166535564
 21
-46.0560339029
 31
0.0
 11
-14.6791758857
 21
-46.1434660644
 31
0.0
 11
-14.7
 21
-46.2233733562
 31
0.0
  0
SPLINE
  5
44F
100
AcDbEntity
  8
RACCORDO
100
AcDbSpline
 62
253
  6
CONTINUOUS
 70
0
 71
3
 72
22
 73
18
 74
16
 42
0.0000001
 43
0.0000001
 44
0.0000000001
 12
0.1131201052
 22
1.7624541544
 32
0.0
 13
1.2153092091
 23
1.2814305799
 33
0.0
 40
0.0
 40
0.0
 40
0.0
 40
0.0
 40
0.0932616443
 40
0.1791526364
 40
0.2590761046
 40
0.3327657315
 40
0.3993944464
 40
0.4601366331
 40
0.517488841
 40
0.5739823591
 40
0.6310675154
 40
0.6885335562
 40
0.7461544396
 40
0.804758561
 40
0.8655750546
 40
0.9300432053
 40
1.0
 40
1.0
 40
1.0
 40
1.0
 10
38.9014808642
 20
23.1153683683
 30
0.0
 10
38.9049974532
 20
23.1701581591
 30
0.0
 10
38.9135184872
 20
23.2753040805
 30
0.0
 10
38.9309476021
 20
23.4268478052
 30
0.0
 10
38.9516440472
 20
23.566340589
 30
0.0
 10
38.9748041403
 20
23.6939326872
 30
0.0
 10
38.9996061014
 20
23.8096874369
 30
0.0
 10
39.0256455233
 20
23.9152862671
 30
0.0
 10
39.0533013988
 20
24.014291217
 30
0.0
 10
39.083459462
 20
24.1103106473
 30
0.0
 10
39.1169572738
 20
24.2052921037
 30
0.0
 10
39.1543446274
 20
24.299531399
 30
0.0
 10
39.1961487081
 20
24.3928856986
 30
0.0
 10
39.2434223607
 20
24.4858254569
 30
0.0
 10
39.2981194839
 20
24.5793344053
 30
0.0
 10
39.3632305847
 20
24.674186737
 30
0.0
 10
39.4141876499
 20
24.7349940445
 30
0.0
 10
39.4425273621
 20
24.7648756365
 30
0.0
 11
38.9014808642
 21
23.1153683683
 31
0.0
 11
38.9148260188
 21
23.2795344276
 31
0.0
 11
38.9322006047
 21
23.4302265197
 31
0.0
 11
38.9529621694
 21
23.5698425787
 31
0.0
 11
38.9762508955
 21
23.6978837022
 31
0.0
 11
39.0009459795
 21
23.8129348987
 31
0.0
 11
39.0266683284
 21
23.9170810221
 31
0.0
 11
39.0539582835
 21
24.0146240569
 31
0.0
 11
39.0839004389
 21
24.1097972722
 31
0.0
 11
39.1174888622
 21
24.2048545345
 31
0.0
 11
39.1549861702
 21
24.2991630883
 31
0.0
 11
39.1966644943
 21
24.3919997792
 31
0.0
 11
39.2437066581
 21
24.4841909003
 31
0.0
 11
39.2980973808
 21
24.576807728
 31
0.0
 11
39.3628095486
 21
24.6704854374
 31
0.0
 11
39.4425273621
 21
24.7648756365
 31
0.0
  0
SPLINE
  5
450
100
AcDbEntity
  8
RACCORDO
100
AcDbSpline
 62
253
  6
CONTINUOUS
 70
0
 71
3
 72
14
 73
10
 74
8
 42
0.0000001
 43
0.0000001
 44
0.0000000001
 12
-0.1129802546
 22
1.7619339614
 32
0.0
 13
-1.2157954273
 23
1.2802411105
 33
0.0
 40
0.0
 40
0.0
 40
0.0
 40
0.0
 40
0.1826624567
 40
0.3502034396
 40
0.5032031333
 40
0.6435218972
 40
0.7724976167
 40
0.8910580321
 40
1.0
 40
1.0
 40
1.0
 40
1.0
 10
-38.9014809083
 20
23.1153690554
 30
0.0
 10
-38.9083599919
 20
23.222648784
 30
0.0
 10
-38.9283070238
 20
23.427973964
 30
0.0
 10
-38.9772574573
 20
23.7202811842
 30
0.0
 10
-39.0414640106
 20
23.9840651287
 30
0.0
 10
-39.1194259822
 20
24.2203579103
 30
0.0
 10
-39.210766507
 20
24.4299753625
 30
0.0
 10
-39.315479036
 20
24.6123083632
 30
0.0
 10
-39.3983709454
 20
24.7183764714
 30
0.0
 10
-39.4425213275
 20
24.7648671334
 30
0.0
 11
-38.9014809083
 21
23.1153690554
 31
0.0
 11
-38.9330097303
 21
23.4363243343
 31
0.0
 11
-38.9823536038
 21
23.7279820929
 31
0.0
 11
-39.0468456629
 21
23.9902995551
 31
0.0
 11
-39.1252406261
 21
24.2253089436
 31
0.0
 11
-39.2171331324
 21
24.4336576053
 31
0.0
 11
-39.3226673916
 21
24.6144318479
 31
0.0
 11
-39.4425213275
 21
24.7648671334
 31
0.0
  0
SPLINE
  5
451
100
AcDbEntity
  8
RACCORDO
100
AcDbSpline
 62
253
  6
CONTINUOUS
 70
0
 71
3
 72
14
 73
10
 74
8
 42
0.0000001
 43
0.0000001
 44
0.0000000001
 12
0.1129780257
 22
-1.7618580095
 32
0.0
 13
1.2164668031
 23
-1.2794984161
 33
0.0
 40
0.0
 40
0.0
 40
0.0
 40
0.0
 40
0.1825096488
 40
0.3499600298
 40
0.5029514099
 40
0.643296052
 40
0.7723304801
 40
0.8909860995
 40
1.0
 40
1.0
 40
1.0
 40
1.0
 10
38.9014808987
 20
-33.1792795376
 30
0.0
 10
38.908354092
 20
-33.2864648997
 30
0.0
 10
38.9282798257
 20
-33.4916388695
 30
0.0
 10
38.9771788845
 20
-33.7837909016
 30
0.0
 10
39.041337252
 20
-34.0475306127
 30
0.0
 10
39.1192773701
 20
-34.2838650408
 30
0.0
 10
39.2106108612
 20
-34.4935940989
 30
0.0
 10
39.3153875393
 20
-34.6760257045
 30
0.0
 10
39.3982716815
 20
-34.7822259644
 30
0.0
 10
39.4424756119
 20
-34.8287203354
 30
0.0
 11
38.9014808987
 21
-33.1792795376
 31
0.0
 11
38.9329718456
 21
-33.4999535217
 31
0.0
 11
38.9822608675
 21
-33.7914454268
 31
0.0
 11
39.0467122817
 21
-34.0537458002
 31
0.0
 11
39.1250821115
 21
-34.288800499
 31
0.0
 11
39.2169768413
 21
-34.4972507539
 31
0.0
 11
39.3225682022
 21
-34.67817586
 31
0.0
 11
39.4424756119
 21
-34.8287203354
 31
0.0
  0
SPLINE
  5
452
100
AcDbEntity
  8
RACCORDO
100
AcDbSpline
 62
253
  6
CONTINUOUS
 70
0
 71
3
 72
14
 73
10
 74
8
 42
0.0000001
 43
0.0000001
 44
0.0000000001
 12
-0.1131572556
 22
-1.7619453386
 32
0.0
 13
-1.2127976916
 23
-1.2831125047
 33
0.0
 40
0.0
 40
0.0
 40
0.0
 40
0.0
 40
0.1840964315
 40
0.3523041291
 40
0.5057554991
 40
0.6458732992
 40
0.774228904
 40
0.8919593523
 40
1.0
 40
1.0
 40
1.0
 40
1.0
 10
-38.9014808627
 20
-33.1792789763
 30
0.0
 10
-38.9084248117
 20
-33.2874015928
 30
0.0
 10
-38.9285296767
 20
-33.4939599142
 30
0.0
 10
-38.9779413729
 20
-33.7877216143
 30
0.0
 10
-39.0425794204
 20
-34.0519613333
 30
0.0
 10
-39.1208061392
 20
-34.2879475246
 30
0.0
 10
-39.2121310086
 20
-34.4965001958
 30
0.0
 10
-39.3163271026
 20
-34.6775596207
 30
0.0
 10
-39.3988516482
 20
-34.7825768324
 30
0.0
 10
-39.4425287975
 20
-34.8287862678
 30
0.0
 11
-38.9014808627
 21
-33.1792789763
 31
0.0
 11
-38.933345175
 21
-33.5027494281
 31
0.0
 11
-38.9831019142
 21
-33.7955349726
 31
0.0
 11
-39.0480895821
 21
-34.0585551911
 31
0.0
 11
-39.1267210969
 21
-34.2931147022
 31
0.0
 11
-39.2185108749
 21
-34.5003149219
 31
0.0
 11
-39.3235547281
 21
-34.6796815448
 31
0.0
 11
-39.4425287975
 21
-34.8287862678
 31
0.0
  0
SPLINE
  5
453
100
AcDbEntity
  8
RACCORDO
100
AcDbSpline
 62
253
  6
CONTINUOUS
 70
0
 71
3
 72
10
 73
6
 74
4
 42
0.0000001
 43
0.0000001
 44
0.0000000001
 12
0.1933076325
 22
-0.2226603424
 32
0.0
 13
0.2259173845
 23
-0.189490908
 33
0.0
 40
0.0
 40
0.0
 40
0.0
 40
0.0
 40
0.327376853
 40
0.6648869395
 40
1.0
 40
1.0
 40
1.0
 40
1.0
 10
-39.6529233096
 20
-34.6225748261
 30
0.0
 10
-39.6318284948
 20
-34.6468727735
 30
0.0
 10
-39.5875324305
 20
-34.694973089
 30
0.0
 10
-39.5173010636
 20
-34.7637862848
 30
0.0
 10
-39.4677885283
 20
-34.8076485489
 30
0.0
 10
-39.442552573
 20
-34.8288155083
 30
0.0
 11
-39.6529233096
 21
-34.6225748261
 31
0.0
 11
-39.5876257109
 21
-34.6936709352
 31
0.0
 11
-39.5165603362
 21
-34.7633411355
 31
0.0
 11
-39.442552573
 21
-34.8288155083
 31
0.0
  0
SPLINE
  5
454
100
AcDbEntity
  8
RACCORDO
100
AcDbSpline
 62
253
  6
CONTINUOUS
 70
0
 71
3
 72
12
 73
8
 74
6
 42
0.0000001
 43
0.0000001
 44
0.0000000001
 12
0.5350532646
 22
0.0303218523
 32
0.0
 13
0.2278950606
 23
0.4850414951
 33
0.0
 40
0.0
 40
0.0
 40
0.0
 40
0.0
 40
0.2600276517
 40
0.5035127788
 40
0.7143662368
 40
0.8808278677
 40
1.0
 40
1.0
 40
1.0
 40
1.0
 10
38.9014808987
 20
-33.1792795376
 30
0.0
 10
38.9478571134
 20
-33.1766513642
 30
0.0
 10
39.0374943832
 20
-33.1673318643
 30
0.0
 10
39.1626934134
 20
-33.1417408809
 30
0.0
 10
39.2683685845
 20
-33.1064001547
 30
0.0
 10
39.3468779787
 20
-33.06496109
 30
0.0
 10
39.3848318618
 20
-33.0275372756
 30
0.0
 10
39.3938847752
 20
-33.0082694659
 30
0.0
 11
38.9014808987
 21
-33.1792795376
 31
0.0
 11
39.040068056
 21
-33.1647006128
 31
0.0
 11
39.1677554351
 21
-33.1378180739
 31
0.0
 11
39.2745000585
 21
-33.1007461869
 31
0.0
 11
39.3519059808
 21
-33.0564006867
 31
0.0
 11
39.3938847752
 21
-33.0082694659
 31
0.0
  0
SPLINE
  5
455
100
AcDbEntity
  8
RACCORDO
100
AcDbSpline
 62
253
  6
CONTINUOUS
 70
0
 71
3
 72
10
 73
6
 74
4
 42
0.0000001
 43
0.0000001
 44
0.0000000001
 12
0.225917906
 22
0.1894908692
 32
0.0
 13
0.1933079052
 23
0.2226606017
 33
0.0
 40
0.0
 40
0.0
 40
0.0
 40
0.0
 40
0.3351131018
 40
0.6726232062
 40
1.0
 40
1.0
 40
1.0
 40
1.0
 10
39.4425518593
 20
-34.8288155988
 30
0.0
 10
39.467787876
 20
-34.8076486412
 30
0.0
 10
39.5173005243
 20
-34.7637863681
 30
0.0
 10
39.5875320201
 20
-34.6949731248
 30
0.0
 10
39.6318281546
 20
-34.6468727659
 30
0.0
 10
39.6529229953
 20
-34.6225747946
 30
0.0
 11
39.4425518593
 21
-34.8288155988
 31
0.0
 11
39.5165597927
 21
-34.7633412106
 31
0.0
 11
39.5876253038
 21
-34.6936709613
 31
0.0
 11
39.6529229953
 21
-34.6225747946
 31
0.0
  0
SPLINE
  5
456
100
AcDbEntity
  8
RACCORDO
100
AcDbSpline
 62
7
  6
CONTINUOUS
 70
0
 71
3
 72
15
 73
11
 74
9
 42
0.0000001
 43
0.0000001
 44
0.0000000001
 12
0.0
 22
1.1892638142
 32
0.0
 13
-1.1892638142
 23
-0.0
 33
0.0
 40
0.0
 40
0.0
 40
0.0
 40
0.0
 40
0.0694346702
 40
0.1598156741
 40
0.2713895776
 40
0.4026258314
 40
0.5461904379
 40
0.6959988997
 40
0.8492571642
 40
1.0
 40
1.0
 40
1.0
 40
1.0
 10
14.7
 20
-46.2233733562
 30
0.0
 10
14.7
 20
-46.1958479759
 30
0.0
 10
14.680238131
 20
-46.1328673171
 30
0.0
 10
14.6138224
 20
-46.0470057497
 30
0.0
 10
14.512880847
 20
-45.960728792
 30
0.0
 10
14.3818579181
 20
-45.8804177305
 30
0.0
 10
14.2276619931
 20
-45.8118176882
 30
0.0
 10
14.0578963835
 20
-45.7600302486
 30
0.0
 10
13.8803876025
 20
-45.7283653964
 30
0.0
 10
13.7597576666
 20
-45.7213150322
 30
0.0
 10
13.7
 20
-45.7213150322
 30
0.0
 11
14.7
 21
-46.2233733562
 31
0.0
 11
14.6791758857
 21
-46.1434660644
 31
0.0
 11
14.6166535564
 21
-46.0560339029
 31
0.0
 11
14.5169840105
 21
-45.968439202
 31
0.0
 11
14.3845319158
 21
-45.8858819441
 31
0.0
 11
14.2287382996
 21
-45.8160307005
 31
0.0
 11
14.0583893728
 21
-45.7638496315
 31
0.0
 11
13.878966764
 21
-45.7317890889
 31
0.0
 11
13.7
 21
-45.7213150322
 31
0.0
  0
SPLINE
  5
457
100
AcDbEntity
  8
RACCORDO
100
AcDbSpline
 62
253
  6
CONTINUOUS
 70
0
 71
3
 72
18
 73
14
 74
12
 42
0.0000001
 43
0.0000001
 44
0.0000000001
 12
2.2093729686
 22
-2.2192836309
 32
0.0
 13
0.0028966289
 23
-3.1315396147
 33
0.0
 40
0.0
 40
0.0
 40
0.0
 40
0.0
 40
0.0111308039
 40
0.0415915197
 40
0.0908878625
 40
0.1581591314
 40
0.2422343621
 40
0.341642014
 40
0.4546381376
 40
0.5792406293
 40
0.7132774607
 40
0.8543874136
 40
1.0
 40
1.0
 40
1.0
 40
1.0
 10
-49.8505676793
 20
34.8186694791
 30
0.0
 10
-49.8423703136
 20
34.8104353422
 30
0.0
 10
-49.8524370751
 20
34.7597452903
 30
0.0
 10
-49.8372691808
 20
34.6716308544
 30
0.0
 10
-49.8401884804
 20
34.5145258486
 30
0.0
 10
-49.8339930144
 20
34.3066787748
 30
0.0
 10
-49.8318041196
 20
34.0443622846
 30
0.0
 10
-49.8285277305
 20
33.7350995579
 30
0.0
 10
-49.8260886126
 20
33.383259741
 30
0.0
 10
-49.8239138318
 20
32.9953554282
 30
0.0
 10
-49.8222436164
 20
32.5780754527
 30
0.0
 10
-49.8210489079
 20
32.1388703742
 30
0.0
 10
-49.8206007992
 20
31.839575749
 30
0.0
 10
-49.820460204
 20
31.6875785548
 30
0.0
 11
-49.8505676793
 21
34.8186694791
 31
0.0
 11
-49.8465403624
 21
34.7840463501
 31
0.0
 11
-49.8425850363
 21
34.6887394104
 31
0.0
 11
-49.8387739226
 21
34.5344129451
 31
0.0
 11
-49.8351741625
 21
34.3237809696
 31
0.0
 11
-49.831848515
 21
34.0605169458
 31
0.0
 11
-49.8288553112
 21
33.7492322032
 31
0.0
 11
-49.8262470791
 21
33.3953898272
 31
0.0
 11
-49.8240695146
 21
33.0051980976
 31
0.0
 11
-49.8223605833
 21
32.5854597498
 31
0.0
 11
-49.8211503449
 21
32.1435698102
 31
0.0
 11
-49.820460204
 21
31.6875785548
 31
0.0
  0
SPLINE
  5
458
100
AcDbEntity
  8
RACCORDO
100
AcDbSpline
 62
253
  6
CONTINUOUS
 70
0
 71
3
 72
15
 73
11
 74
9
 42
0.0000001
 43
0.0000001
 44
0.0000000001
 12
1.5160260161
 22
-0.001142674
 32
0.0
 13
0.1512911988
 23
-1.5084585378
 33
0.0
 40
0.0
 40
0.0
 40
0.0
 40
0.0
 40
0.1919810923
 40
0.3767245807
 40
0.5472725695
 40
0.6972244949
 40
0.8210026732
 40
0.9141253611
 40
0.9736167157
 40
1.0
 40
1.0
 40
1.0
 40
1.0
 10
48.3150393266
 20
25.3114555979
 30
0.0
 10
48.4120554368
 20
25.3113824739
 30
0.0
 10
48.6024179507
 20
25.3096561153
 30
0.0
 10
48.8789606687
 20
25.3023489513
 30
0.0
 10
49.1338250856
 20
25.2907366235
 30
0.0
 10
49.3584659021
 20
25.2750724767
 30
0.0
 10
49.5411765646
 20
25.2568691085
 30
0.0
 10
49.6837291507
 20
25.2351820438
 30
0.0
 10
49.7634804899
 20
25.2160194446
 30
0.0
 10
49.8136516917
 20
25.1946786715
 30
0.0
 10
49.8149822112
 20
25.1814126413
 30
0.0
 11
48.3150393266
 21
25.3114555979
 31
0.0
 11
48.606075303
 21
25.3087649954
 31
0.0
 11
48.8860500526
 21
25.3012341724
 31
0.0
 11
49.1443227384
 21
25.2891493473
 31
0.0
 11
49.3710773303
 21
25.272969819
 31
0.0
 11
49.5576956743
 21
25.2533105115
 31
0.0
 11
49.6970850378
 21
25.2309186032
 31
0.0
 11
49.7839476812
 21
25.2066451301
 31
0.0
 11
49.8149822112
 21
25.1814126413
 31
0.0
  0
SPLINE
  5
459
100
AcDbEntity
  8
RACCORDO
100
AcDbSpline
 62
253
  6
CONTINUOUS
 70
0
 71
3
 72
15
 73
11
 74
9
 42
0.0000001
 43
0.0000001
 44
0.0000000001
 12
1.5230031699
 22
-0.0013925996
 32
0.0
 13
0.1250227734
 23
-1.5178635976
 33
0.0
 40
0.0
 40
0.0
 40
0.0
 40
0.0
 40
0.1911075326
 40
0.3750381794
 40
0.5448946084
 40
0.6943404593
 40
0.8178735813
 40
0.9111232244
 40
0.971354711
 40
1.0
 40
1.0
 40
1.0
 40
1.0
 10
48.3205173194
 20
31.8456251463
 30
0.0
 10
48.4175364454
 20
31.8455364343
 30
0.0
 10
48.6079251451
 20
31.8434398601
 30
0.0
 10
48.8844743045
 20
31.8345511327
 30
0.0
 10
49.1394401942
 20
31.8204572053
 30
0.0
 10
49.3639394893
 20
31.8013438959
 30
0.0
 10
49.5473110874
 20
31.7793917729
 30
0.0
 10
49.6888002053
 20
31.7524897038
 30
0.0
 10
49.7718762224
 20
31.7298602611
 30
0.0
 10
49.8192664328
 20
31.7020717686
 30
0.0
 10
49.820460204
 20
31.6875785548
 30
0.0
 11
48.3205173194
 21
31.8456251463
 31
0.0
 11
48.6115564541
 21
31.842355562
 31
0.0
 11
48.8915339794
 21
31.8332033162
 31
0.0
 11
49.1498087071
 21
31.818516261
 31
0.0
 11
49.3765643139
 21
31.7988526116
 31
0.0
 11
49.5631824326
 21
31.7749597302
 31
0.0
 11
49.7025702137
 21
31.7477457205
 31
0.0
 11
49.7894299048
 21
31.7182449134
 31
0.0
 11
49.820460204
 21
31.6875785548
 31
0.0
  0
SPLINE
  5
45A
100
AcDbEntity
  8
RACCORDO
100
AcDbSpline
 62
253
  6
CONTINUOUS
 70
0
 71
3
 72
15
 73
11
 74
9
 42
0.0000001
 43
0.0000001
 44
0.0000000001
 12
1.516026052
 22
0.0011426745
 32
0.0
 13
0.1512843796
 23
1.5084592578
 33
0.0
 40
0.0
 40
0.0
 40
0.0
 40
0.0
 40
0.1919811623
 40
0.3767247094
 40
0.5472727364
 40
0.6972246735
 40
0.8210028348
 40
0.9141254798
 40
0.9736167732
 40
1.0
 40
1.0
 40
1.0
 40
1.0
 10
48.3150393266
 20
-35.3753662809
 30
0.0
 10
48.4120554745
 20
-35.3752931569
 30
0.0
 10
48.6024180579
 20
-35.3735667971
 30
0.0
 10
48.878960867
 20
-35.3662596273
 30
0.0
 10
49.1338253435
 20
-35.3546472932
 30
0.0
 10
49.3584661845
 20
-35.338983133
 30
0.0
 10
49.5411768182
 20
-35.3207797686
 30
0.0
 10
49.6837293624
 20
-35.2990926685
 30
0.0
 10
49.763480592
 20
-35.2799301227
 30
0.0
 10
49.8136517545
 20
-35.2585892801
 30
0.0
 10
49.8149822112
 20
-35.2453232726
 30
0.0
 11
48.3150393266
 21
-35.3753662809
 31
0.0
 11
48.606075416
 21
-35.3726756762
 31
0.0
 11
48.8860502612
 21
-35.3651448476
 31
0.0
 11
49.1443230107
 21
-35.3530600141
 31
0.0
 11
49.3710776249
 21
-35.3368804759
 31
0.0
 11
49.5576959465
 21
-35.3172211586
 31
0.0
 11
49.6970852462
 21
-35.294829242
 31
0.0
 11
49.7839477941
 21
-35.2705557634
 31
0.0
 11
49.8149822112
 21
-35.2453232726
 31
0.0
  0
SPLINE
  5
45B
100
AcDbEntity
  8
RACCORDO
100
AcDbSpline
 62
253
  6
CONTINUOUS
 70
0
 71
3
 72
15
 73
11
 74
9
 42
0.0000001
 43
0.0000001
 44
0.0000000001
 12
1.5230032925
 22
0.0013926097
 32
0.0
 13
0.1250087362
 23
1.5178648768
 33
0.0
 40
0.0
 40
0.0
 40
0.0
 40
0.0
 40
0.1911076345
 40
0.3750383702
 40
0.5448948632
 40
0.6943407432
 40
0.8178738516
 40
0.9111234347
 40
0.9713548175
 40
1.0
 40
1.0
 40
1.0
 40
1.0
 10
48.3205173194
 20
-41.9095359587
 30
0.0
 10
48.4175365049
 20
-41.9094472459
 30
0.0
 10
48.6079253168
 20
-41.9073506681
 30
0.0
 10
48.8844746278
 20
-41.8984619266
 30
0.0
 10
49.1394406286
 20
-41.8843679831
 30
0.0
 10
49.3639399834
 20
-41.8652546407
 30
0.0
 10
49.5473115636
 20
-41.8433025182
 30
0.0
 10
49.6888006133
 20
-41.816400364
 30
0.0
 10
49.7718764691
 20
-41.7937710224
 30
0.0
 10
49.8192665713
 20
-41.7659823582
 30
0.0
 10
49.820460204
 20
-41.7514891861
 30
0.0
 11
48.3205173194
 21
-41.9095359587
 31
0.0
 11
48.6115566326
 21
-41.9062663682
 31
0.0
 11
48.8915343154
 21
-41.8971141085
 31
0.0
 11
49.1498091606
 21
-41.8824270327
 31
0.0
 11
49.3765648279
 21
-41.8627633574
 31
0.0
 11
49.5631829374
 21
-41.8388704467
 31
0.0
 11
49.702570631
 21
-41.8116564065
 31
0.0
 11
49.789430153
 21
-41.7821555702
 31
0.0
 11
49.820460204
 21
-41.7514891861
 31
0.0
  0
SPLINE
  5
45C
100
AcDbEntity
  8
RACCORDO
100
AcDbSpline
 62
253
  6
CONTINUOUS
 70
0
 71
3
 72
15
 73
11
 74
9
 42
0.0000001
 43
0.0000001
 44
0.0000000001
 12
-1.5160260521
 22
-0.0011426745
 32
0.0
 13
-0.1512843631
 23
-1.5084592596
 33
0.0
 40
0.0
 40
0.0
 40
0.0
 40
0.0
 40
0.1919811625
 40
0.3767247097
 40
0.5472727368
 40
0.6972246739
 40
0.8210028352
 40
0.9141254801
 40
0.9736167734
 40
1.0
 40
1.0
 40
1.0
 40
1.0
 10
-48.3150393266
 20
25.3114556497
 30
0.0
 10
-48.4120554746
 20
25.3113825257
 30
0.0
 10
-48.6024180581
 20
25.3096561659
 30
0.0
 10
-48.8789608675
 20
25.3023489961
 30
0.0
 10
-49.1338253441
 20
25.290736662
 30
0.0
 10
-49.3584661852
 20
25.2750725018
 30
0.0
 10
-49.5411768188
 20
25.2568691374
 30
0.0
 10
-49.6837293629
 20
25.2351820371
 30
0.0
 10
-49.7634805923
 20
25.2160194915
 30
0.0
 10
-49.8136517547
 20
25.1946786488
 30
0.0
 10
-49.8149822112
 20
25.1814126413
 30
0.0
 11
-48.3150393266
 21
25.3114556497
 31
0.0
 11
-48.6060754163
 21
25.308765045
 31
0.0
 11
-48.8860502617
 21
25.3012342164
 31
0.0
 11
-49.1443230114
 21
25.2891493829
 31
0.0
 11
-49.3710776256
 21
25.2729698447
 31
0.0
 11
-49.5576959472
 21
25.2533105273
 31
0.0
 11
-49.6970852467
 21
25.2309186108
 31
0.0
 11
-49.7839477944
 21
25.2066451321
 31
0.0
 11
-49.8149822112
 21
25.1814126413
 31
0.0
  0
SPLINE
  5
45D
100
AcDbEntity
  8
RACCORDO
100
AcDbSpline
 62
253
  6
CONTINUOUS
 70
0
 71
3
 72
15
 73
11
 74
9
 42
0.0000001
 43
0.0000001
 44
0.0000000001
 12
-1.5230032924
 22
-0.0013926097
 32
0.0
 13
-0.1250087497
 23
-1.5178648756
 33
0.0
 40
0.0
 40
0.0
 40
0.0
 40
0.0
 40
0.1911076344
 40
0.37503837
 40
0.5448948629
 40
0.6943407429
 40
0.8178738513
 40
0.9111234345
 40
0.9713548174
 40
1.0
 40
1.0
 40
1.0
 40
1.0
 10
-48.3205173194
 20
31.8456253273
 30
0.0
 10
-48.4175365048
 20
31.8455366145
 30
0.0
 10
-48.6079253166
 20
31.8434400367
 30
0.0
 10
-48.8844746275
 20
31.8345512952
 30
0.0
 10
-49.1394406282
 20
31.8204573517
 30
0.0
 10
-49.3639399829
 20
31.8013440093
 30
0.0
 10
-49.5473115631
 20
31.7793918868
 30
0.0
 10
-49.6888006129
 20
31.7524897327
 30
0.0
 10
-49.7718764689
 20
31.729860391
 30
0.0
 10
-49.8192665712
 20
31.702071727
 30
0.0
 10
-49.820460204
 20
31.6875785548
 30
0.0
 11
-48.3205173194
 21
31.8456253273
 31
0.0
 11
-48.6115566324
 21
31.8423557368
 31
0.0
 11
-48.8915343151
 21
31.8332034771
 31
0.0
 11
-49.1498091601
 21
31.8185164013
 31
0.0
 11
-49.3765648274
 21
31.798852726
 31
0.0
 11
-49.5631829369
 21
31.7749598153
 31
0.0
 11
-49.7025706306
 21
31.7477457751
 31
0.0
 11
-49.7894301528
 21
31.7182449389
 31
0.0
 11
-49.820460204
 21
31.6875785548
 31
0.0
  0
SPLINE
  5
45E
100
AcDbEntity
  8
RACCORDO
100
AcDbSpline
 62
253
  6
CONTINUOUS
 70
0
 71
3
 72
15
 73
11
 74
9
 42
0.0000001
 43
0.0000001
 44
0.0000000001
 12
-1.516026016
 22
0.001142674
 32
0.0
 13
-0.1512912111
 23
1.5084585365
 33
0.0
 40
0.0
 40
0.0
 40
0.0
 40
0.0
 40
0.1919810922
 40
0.3767245804
 40
0.5472725692
 40
0.6972244946
 40
0.8210026729
 40
0.9141253609
 40
0.9736167156
 40
1.0
 40
1.0
 40
1.0
 40
1.0
 10
-48.3150393266
 20
-35.3753662291
 30
0.0
 10
-48.4120554368
 20
-35.3752931052
 30
0.0
 10
-48.6024179505
 20
-35.3735667465
 30
0.0
 10
-48.8789606683
 20
-35.3662595825
 30
0.0
 10
-49.1338250851
 20
-35.3546472548
 30
0.0
 10
-49.3584659016
 20
-35.338983108
 30
0.0
 10
-49.5411765642
 20
-35.3207797398
 30
0.0
 10
-49.6837291503
 20
-35.2990926752
 30
0.0
 10
-49.7634804897
 20
-35.2799300758
 30
0.0
 10
-49.8136516916
 20
-35.2585893028
 30
0.0
 10
-49.8149822112
 20
-35.2453232726
 30
0.0
 11
-48.3150393266
 21
-35.3753662291
 31
0.0
 11
-48.6060753028
 21
-35.3726756266
 31
0.0
 11
-48.8860500522
 21
-35.3651448037
 31
0.0
 11
-49.1443227379
 21
-35.3530599785
 31
0.0
 11
-49.3710773297
 21
-35.3368804502
 31
0.0
 11
-49.5576956738
 21
-35.3172211427
 31
0.0
 11
-49.6970850375
 21
-35.2948292345
 31
0.0
 11
-49.783947681
 21
-35.2705557615
 31
0.0
 11
-49.8149822112
 21
-35.2453232726
 31
0.0
  0
SPLINE
  5
45F
100
AcDbEntity
  8
RACCORDO
100
AcDbSpline
 62
253
  6
CONTINUOUS
 70
0
 71
3
 72
15
 73
11
 74
9
 42
0.0000001
 43
0.0000001
 44
0.0000000001
 12
-1.5230031542
 22
0.0013925992
 32
0.0
 13
-0.1250244923
 23
1.5178634403
 33
0.0
 40
0.0
 40
0.0
 40
0.0
 40
0.0
 40
0.1911075203
 40
0.3750381563
 40
0.5448945774
 40
0.6943404249
 40
0.8178735485
 40
0.911123199
 40
0.9713546983
 40
1.0
 40
1.0
 40
1.0
 40
1.0
 10
-48.3205173194
 20
-41.9095357534
 30
0.0
 10
-48.4175364381
 20
-41.9094470413
 30
0.0
 10
-48.6079251242
 20
-41.9073504675
 30
0.0
 10
-48.884474265
 20
-41.8984617419
 30
0.0
 10
-49.139440141
 20
-41.8843678166
 30
0.0
 10
-49.3639394289
 20
-41.8652545115
 30
0.0
 10
-49.5473110291
 20
-41.8433023887
 30
0.0
 10
-49.6888001554
 20
-41.8164003305
 30
0.0
 10
-49.771876192
 20
-41.7937708758
 30
0.0
 10
-49.8192664159
 20
-41.7659824049
 30
0.0
 10
-49.820460204
 20
-41.7514891861
 30
0.0
 11
-48.3205173194
 21
-41.9095357534
 31
0.0
 11
-48.6115564322
 21
-41.9062661697
 31
0.0
 11
-48.8915339382
 21
-41.8971139256
 31
0.0
 11
-49.1498086516
 21
-41.8824268731
 31
0.0
 11
-49.376564251
 21
-41.8627632271
 31
0.0
 11
-49.5631823709
 21
-41.8388703496
 31
0.0
 11
-49.7025701627
 21
-41.8116563441
 31
0.0
 11
-49.7894298744
 21
-41.7821555411
 31
0.0
 11
-49.820460204
 21
-41.7514891861
 31
0.0
  0
SPLINE
  5
460
100
AcDbEntity
  8
RACCORDO
100
AcDbSpline
 62
253
  6
CONTINUOUS
 70
0
 71
3
 72
18
 73
14
 74
12
 42
0.0000001
 43
0.0000001
 44
0.0000000001
 12
2.5633968397
 22
-3.666088901
 32
0.0
 13
0.0028965722
 23
-4.4733882905
 33
0.0
 40
0.0
 40
0.0
 40
0.0
 40
0.0
 40
0.0111088755
 40
0.0415657047
 40
0.0908593744
 40
0.1581251231
 40
0.2421911365
 40
0.3415855502
 40
0.4545658679
 40
0.5791513657
 40
0.713170934
 40
0.8542645956
 40
1.0
 40
1.0
 40
1.0
 40
1.0
 10
-48.3506253289
 20
36.3186131287
 30
0.0
 10
-48.3411331768
 20
36.3050377537
 30
0.0
 10
-48.3541897269
 20
36.2365296252
 30
0.0
 10
-48.3362867918
 20
36.1070917067
 30
0.0
 10
-48.3407066993
 20
35.8846102243
 30
0.0
 10
-48.3338717184
 20
35.5868744033
 30
0.0
 10
-48.3319232138
 20
35.2124966985
 30
0.0
 10
-48.3285645515
 20
34.77065602
 30
0.0
 10
-48.326152688
 20
34.2681518795
 30
0.0
 10
-48.3239697594
 20
33.7140922428
 30
0.0
 10
-48.3223020391
 20
33.1180863461
 30
0.0
 10
-48.3211061325
 20
32.4905491131
 30
0.0
 10
-48.3206579401
 20
32.0628495619
 30
0.0
 10
-48.320517229
 20
31.8455392114
 30
0.0
 11
-48.3506253289
 21
36.3186131287
 31
0.0
 11
-48.3465945686
 21
36.2690825442
 31
0.0
 11
-48.3426399667
 21
36.1328946968
 31
0.0
 11
-48.338829443
 21
35.9124178523
 31
0.0
 11
-48.3352303299
 21
35.6115335019
 31
0.0
 11
-48.3319052597
 21
35.2354882032
 31
0.0
 11
-48.3289125641
 21
34.7908683753
 31
0.0
 11
-48.3263046948
 21
34.2854701674
 31
0.0
 11
-48.3241273471
 21
33.7281549967
 31
0.0
 11
-48.3224184382
 21
33.1286357389
 31
0.0
 11
-48.3212080974
 21
32.4974700335
 31
0.0
 11
-48.320517229
 21
31.8455392114
 31
0.0
  0
SPLINE
  5
461
100
AcDbEntity
  8
RACCORDO
100
AcDbSpline
 62
253
  6
CONTINUOUS
 70
0
 71
3
 72
18
 73
14
 74
12
 42
0.0000001
 43
0.0000001
 44
0.0000000001
 12
0.0028965724
 22
4.4733883981
 32
0.0
 13
2.5633969262
 23
3.6660889718
 33
0.0
 40
0.0
 40
0.0
 40
0.0
 40
0.0
 40
0.1457354249
 40
0.2868290831
 40
0.4208486482
 40
0.5454341431
 40
0.6584144581
 40
0.7578088694
 40
0.8418748807
 40
0.9091406278
 40
0.9584342963
 40
0.9888911248
 40
1.0
 40
1.0
 40
1.0
 40
1.0
 10
48.3205172289
 20
31.8455391038
 30
0.0
 10
48.32065794
 20
32.0628494902
 30
0.0
 10
48.3211061324
 20
32.4905490773
 30
0.0
 10
48.3223020391
 20
33.1180863461
 30
0.0
 10
48.3239697594
 20
33.7140922428
 30
0.0
 10
48.326152688
 20
34.2681518795
 30
0.0
 10
48.3285645515
 20
34.77065602
 30
0.0
 10
48.3319232138
 20
35.2124966985
 30
0.0
 10
48.3338717184
 20
35.5868744033
 30
0.0
 10
48.3407066994
 20
35.8846102242
 30
0.0
 10
48.3362867917
 20
36.1070917067
 30
0.0
 10
48.354189727
 20
36.2365296251
 30
0.0
 10
48.3411331767
 20
36.3050377537
 30
0.0
 10
48.3506253289
 20
36.3186131287
 30
0.0
 11
48.3205172289
 21
31.8455391038
 31
0.0
 11
48.3212080974
 21
32.4974700335
 31
0.0
 11
48.3224184382
 21
33.1286357389
 31
0.0
 11
48.3241273471
 21
33.7281549967
 31
0.0
 11
48.3263046948
 21
34.2854701674
 31
0.0
 11
48.3289125641
 21
34.7908683753
 31
0.0
 11
48.3319052597
 21
35.2354882032
 31
0.0
 11
48.3352303299
 21
35.6115335019
 31
0.0
 11
48.338829443
 21
35.9124178523
 31
0.0
 11
48.3426399667
 21
36.1328946968
 31
0.0
 11
48.3465945686
 21
36.2690825442
 31
0.0
 11
48.3506253289
 21
36.3186131287
 31
0.0
  0
SPLINE
  5
462
100
AcDbEntity
  8
RACCORDO
100
AcDbSpline
 62
7
  6
CONTINUOUS
 70
0
 71
3
 72
15
 73
11
 74
9
 42
0.0000001
 43
0.0000001
 44
0.0000000001
 12
-0.0504858186
 22
1.2160152605
 32
0.0
 13
-1.2170628298
 23
0.0
 33
0.0
 40
0.0
 40
0.0
 40
0.0
 40
0.0
 40
0.0771535395
 40
0.1742887558
 40
0.2900764387
 40
0.4225227923
 40
0.5641940529
 40
0.709714053
 40
0.8565336533
 40
1.0
 40
1.0
 40
1.0
 40
1.0
 10
-15.1661277497
 20
-45.9919201539
 30
0.0
 10
-15.1674261362
 20
-45.9606468601
 30
0.0
 10
-15.1891552514
 20
-45.8909561042
 30
0.0
 10
-15.2583870162
 20
-45.7945610079
 30
0.0
 10
-15.3619256933
 20
-45.6990485725
 30
0.0
 10
-15.4942109959
 20
-45.6113042368
 30
0.0
 10
-15.6480886179
 20
-45.537313049
 30
0.0
 10
-15.8157964652
 20
-45.4820904343
 30
0.0
 10
-15.9898756609
 20
-45.4486243943
 30
0.0
 10
-16.1077729255
 20
-45.4412048248
 30
0.0
 10
-16.1659754449
 20
-45.4412048248
 30
0.0
 11
-15.1661277497
 21
-45.9919201539
 31
0.0
 11
-15.1905574405
 21
-45.9012530009
 31
0.0
 11
-15.256643866
 21
-45.8032301839
 31
0.0
 11
-15.3590640599
 21
-45.7064376236
 31
0.0
 11
-15.4928356996
 21
-45.6164979296
 31
0.0
 11
-15.6480556337
 21
-45.5414219498
 31
0.0
 11
-15.8162379885
 21
-45.4859099782
 31
0.0
 11
-15.9917126061
 21
-45.4521712421
 31
0.0
 11
-16.1659754449
 21
-45.4412048248
 31
0.0
  0
SPLINE
  5
463
100
AcDbEntity
  8
RACCORDO
100
AcDbSpline
 62
253
  6
CONTINUOUS
 70
0
 71
3
 72
18
 73
14
 74
12
 42
0.0000001
 43
0.0000001
 44
0.0000000001
 12
-0.0028966798
 22
-4.4733914471
 32
0.0
 13
-2.5634334093
 23
-3.6660671824
 33
0.0
 40
0.0
 40
0.0
 40
0.0
 40
0.0
 40
0.1457358847
 40
0.2868294767
 40
0.4208489423
 40
0.5454343612
 40
0.658414632
 40
0.7578089843
 40
0.8418749319
 40
0.9091406471
 40
0.9584343017
 40
0.9888911196
 40
1.0
 40
1.0
 40
1.0
 40
1.0
 10
-48.3205172257
 20
-41.9094466585
 30
0.0
 10
-48.3206579424
 20
-42.1267578785
 30
0.0
 10
-48.3211061245
 20
-42.5544583441
 30
0.0
 10
-48.3223020405
 20
-43.1819964791
 30
0.0
 10
-48.3239697539
 20
-43.778002422
 30
0.0
 10
-48.3261526842
 20
-44.3320621082
 30
0.0
 10
-48.3285645421
 20
-44.8345663259
 30
0.0
 10
-48.331923212
 20
-45.276407051
 30
0.0
 10
-48.3338716919
 20
-45.6507847967
 30
0.0
 10
-48.3407067396
 20
-45.9485206136
 30
0.0
 10
-48.3362866725
 20
-46.1710022668
 30
0.0
 10
-48.3541899062
 20
-46.3004400556
 30
0.0
 10
-48.3411330187
 20
-46.3689484329
 30
0.0
 10
-48.3506253104
 20
-46.3825237335
 30
0.0
 11
-48.3205172257
 21
-41.9094466585
 31
0.0
 11
-48.3212080949
 21
-42.5613800892
 31
0.0
 11
-48.3224184373
 21
-43.1925459289
 31
0.0
 11
-48.3241273429
 21
-43.7920651502
 31
0.0
 11
-48.3263046895
 21
-44.3493803611
 31
0.0
 11
-48.3289125572
 21
-44.8547787158
 31
0.0
 11
-48.3319052517
 21
-45.2993985826
 31
0.0
 11
-48.3352303213
 21
-45.6754438525
 31
0.0
 11
-48.3388294341
 21
-45.9763282656
 31
0.0
 11
-48.3426399599
 21
-46.1968051979
 31
0.0
 11
-48.3465945593
 21
-46.3329930912
 31
0.0
 11
-48.3506253104
 21
-46.3825237335
 31
0.0
  0
SPLINE
  5
464
100
AcDbEntity
  8
RACCORDO
100
AcDbSpline
 62
7
  6
CONTINUOUS
 70
0
 71
3
 72
15
 73
11
 74
9
 42
0.0000001
 43
0.0000001
 44
0.0000000001
 12
-1.2170628298
 22
0.0
 32
0.0
 13
-0.0504858186
 23
-1.2160152605
 33
0.0
 40
0.0
 40
0.0
 40
0.0
 40
0.0
 40
0.1434663467
 40
0.290285947
 40
0.4358059471
 40
0.5774772077
 40
0.7099235613
 40
0.8257112442
 40
0.9228464605
 40
1.0
 40
1.0
 40
1.0
 40
1.0
 10
16.1659754449
 20
-45.4412048248
 30
0.0
 10
16.1077729255
 20
-45.4412048248
 30
0.0
 10
15.9898756609
 20
-45.4486243943
 30
0.0
 10
15.8157964652
 20
-45.4820904343
 30
0.0
 10
15.6480886179
 20
-45.537313049
 30
0.0
 10
15.4942109959
 20
-45.6113042368
 30
0.0
 10
15.3619256933
 20
-45.6990485725
 30
0.0
 10
15.2583870162
 20
-45.7945610079
 30
0.0
 10
15.1891552514
 20
-45.8909561042
 30
0.0
 10
15.1674261362
 20
-45.9606468601
 30
0.0
 10
15.1661277497
 20
-45.9919201539
 30
0.0
 11
16.1659754449
 21
-45.4412048248
 31
0.0
 11
15.9917126061
 21
-45.4521712421
 31
0.0
 11
15.8162379885
 21
-45.4859099782
 31
0.0
 11
15.6480556337
 21
-45.5414219498
 31
0.0
 11
15.4928356996
 21
-45.6164979296
 31
0.0
 11
15.3590640599
 21
-45.7064376236
 31
0.0
 11
15.256643866
 21
-45.8032301839
 31
0.0
 11
15.1905574405
 21
-45.9012530009
 31
0.0
 11
15.1661277497
 21
-45.9919201539
 31
0.0
  0
SPLINE
  5
465
100
AcDbEntity
  8
RACCORDO
100
AcDbSpline
 62
253
  6
CONTINUOUS
 70
0
 71
3
 72
18
 73
14
 74
12
 42
0.0000001
 43
0.0000001
 44
0.0000000001
 12
-2.5634333196
 22
3.666067115
 32
0.0
 13
-0.0028966796
 23
4.4733913405
 33
0.0
 40
0.0
 40
0.0
 40
0.0
 40
0.0
 40
0.0111088806
 40
0.0415656993
 40
0.090859355
 40
0.1581250719
 40
0.2421910215
 40
0.3415853761
 40
0.4545656496
 40
0.5791510715
 40
0.7131705403
 40
0.8542641357
 40
1.0
 40
1.0
 40
1.0
 40
1.0
 10
48.3506253104
 20
-46.3825237335
 30
0.0
 10
48.3411330188
 20
-46.3689484329
 30
0.0
 10
48.3541899061
 20
-46.3004400557
 30
0.0
 10
48.3362866726
 20
-46.1710022668
 30
0.0
 10
48.3407067395
 20
-45.9485206136
 30
0.0
 10
48.3338716919
 20
-45.6507847967
 30
0.0
 10
48.331923212
 20
-45.276407051
 30
0.0
 10
48.3285645421
 20
-44.8345663259
 30
0.0
 10
48.3261526842
 20
-44.3320621082
 30
0.0
 10
48.3239697539
 20
-43.778002422
 30
0.0
 10
48.3223020405
 20
-43.1819964791
 30
0.0
 10
48.3211061246
 20
-42.5544583796
 30
0.0
 10
48.3206579425
 20
-42.1267579496
 30
0.0
 10
48.3205172258
 20
-41.9094467651
 30
0.0
 11
48.3506253104
 21
-46.3825237335
 31
0.0
 11
48.3465945593
 21
-46.3329930912
 31
0.0
 11
48.3426399599
 21
-46.1968051979
 31
0.0
 11
48.3388294341
 21
-45.9763282656
 31
0.0
 11
48.3352303213
 21
-45.6754438525
 31
0.0
 11
48.3319052517
 21
-45.2993985826
 31
0.0
 11
48.3289125572
 21
-44.8547787158
 31
0.0
 11
48.3263046895
 21
-44.3493803611
 31
0.0
 11
48.3241273429
 21
-43.7920651502
 31
0.0
 11
48.3224184373
 21
-43.1925459289
 31
0.0
 11
48.3212080949
 21
-42.5613800892
 31
0.0
 11
48.3205172258
 21
-41.9094467651
 31
0.0
  0
SPLINE
  5
466
100
AcDbEntity
  8
RACCORDO
100
AcDbSpline
 62
7
  6
CONTINUOUS
 70
0
 71
3
 72
13
 73
9
 74
7
 42
0.0000001
 43
0.0000001
 44
0.0000000001
 12
0.046088074
 22
60.6868104484
 32
0.0
 13
-0.046088074
 23
60.6868104484
 33
0.0
 40
0.0
 40
0.0
 40
0.0
 40
0.0
 40
0.1664329633
 40
0.3331466242
 40
0.5
 40
0.6668533758
 40
0.8335670367
 40
1.0
 40
1.0
 40
1.0
 40
1.0
 10
48.3150393266
 20
-35.3753664632
 30
0.0
 10
48.3175961849
 20
-32.0086045649
 30
0.0
 10
48.3218561172
 20
-25.26940187
 30
0.0
 10
48.3256879444
 20
-15.154931168
 30
0.0
 10
48.3269655759
 20
-5.0319553146
 30
0.0
 10
48.3256879444
 20
5.0910205386
 30
0.0
 10
48.3218561172
 20
15.2054912398
 30
0.0
 10
48.3175961849
 20
21.944693934
 30
0.0
 10
48.3150393266
 20
25.3114558319
 30
0.0
 11
48.3150393266
 21
-35.3753664632
 31
0.0
 11
48.3214265438
 21
-25.2750798751
 31
0.0
 11
48.3252610538
 21
-15.1577573425
 31
0.0
 11
48.3265395798
 21
-5.0319553145
 31
0.0
 11
48.3252610538
 21
5.0938467133
 31
0.0
 11
48.3214265438
 21
15.211169245
 31
0.0
 11
48.3150393266
 21
25.3114558319
 31
0.0
  0
SPLINE
  5
467
100
AcDbEntity
  8
RACCORDO
100
AcDbSpline
 62
7
  6
CONTINUOUS
 70
0
 71
3
 72
13
 73
9
 74
7
 42
0.0000001
 43
0.0000001
 44
0.0000000001
 12
-0.046088074
 22
-60.6868104484
 32
0.0
 13
0.046088074
 23
-60.6868104484
 33
0.0
 40
0.0
 40
0.0
 40
0.0
 40
0.0
 40
0.1664329633
 40
0.3331466242
 40
0.5
 40
0.6668533758
 40
0.8335670367
 40
1.0
 40
1.0
 40
1.0
 40
1.0
 10
-48.3150393266
 20
25.3114558319
 30
0.0
 10
-48.3175961849
 20
21.9446939341
 30
0.0
 10
-48.3218561172
 20
15.2054912399
 30
0.0
 10
-48.3256879444
 20
5.0910205388
 30
0.0
 10
-48.3269655759
 20
-5.0319553144
 30
0.0
 10
-48.3256879444
 20
-15.1549311678
 30
0.0
 10
-48.3218561172
 20
-25.2694018698
 30
0.0
 10
-48.3175961849
 20
-32.0086045648
 30
0.0
 10
-48.3150393266
 20
-35.3753664632
 30
0.0
 11
-48.3150393266
 21
25.3114558319
 31
0.0
 11
-48.3214265438
 21
15.2111692452
 31
0.0
 11
-48.3252610538
 21
5.0938467135
 31
0.0
 11
-48.3265395798
 21
-5.0319553143
 31
0.0
 11
-48.3252610538
 21
-15.1577573423
 31
0.0
 11
-48.3214265438
 21
-25.2750798748
 31
0.0
 11
-48.3150393266
 21
-35.3753664632
 31
0.0
  0
SPLINE
  5
468
100
AcDbEntity
  8
RACCORDO
100
AcDbSpline
 62
253
  6
CONTINUOUS
 70
0
 71
3
 72
18
 73
14
 74
12
 42
0.0000001
 43
0.0000001
 44
0.0000000001
 12
0.0028966289
 22
3.1315396147
 32
0.0
 13
2.2093731433
 23
2.219283457
 33
0.0
 40
0.0
 40
0.0
 40
0.0
 40
0.0
 40
0.1456125864
 40
0.2867225393
 40
0.4207593707
 40
0.5453618624
 40
0.658357986
 40
0.7577656379
 40
0.8418408686
 40
0.9091121376
 40
0.9584084803
 40
0.9888691961
 40
1.0
 40
1.0
 40
1.0
 40
1.0
 10
49.820460204
 20
31.6875785548
 30
0.0
 10
49.8206007992
 20
31.839575749
 30
0.0
 10
49.8210489079
 20
32.1388703742
 30
0.0
 10
49.8222436164
 20
32.5780754527
 30
0.0
 10
49.8239138318
 20
32.9953554282
 30
0.0
 10
49.8260886126
 20
33.383259741
 30
0.0
 10
49.8285277305
 20
33.7350995579
 30
0.0
 10
49.8318041196
 20
34.0443622845
 30
0.0
 10
49.8339930143
 20
34.3066787749
 30
0.0
 10
49.8401884806
 20
34.5145258484
 30
0.0
 10
49.8372691803
 20
34.671630855
 30
0.0
 10
49.8524370759
 20
34.7597452894
 30
0.0
 10
49.842370313
 20
34.8104353428
 30
0.0
 10
49.8505676793
 20
34.8186694791
 30
0.0
 11
49.820460204
 21
31.6875785548
 31
0.0
 11
49.8211503449
 21
32.1435698102
 31
0.0
 11
49.8223605833
 21
32.5854597498
 31
0.0
 11
49.8240695146
 21
33.0051980976
 31
0.0
 11
49.8262470791
 21
33.3953898272
 31
0.0
 11
49.8288553112
 21
33.7492322032
 31
0.0
 11
49.831848515
 21
34.0605169458
 31
0.0
 11
49.8351741625
 21
34.3237809696
 31
0.0
 11
49.8387739226
 21
34.5344129451
 31
0.0
 11
49.8425850363
 21
34.6887394104
 31
0.0
 11
49.8465403624
 21
34.7840463501
 31
0.0
 11
49.8505676793
 21
34.8186694791
 31
0.0
  0
SPLINE
  5
469
100
AcDbEntity
  8
RACCORDO
100
AcDbSpline
 62
253
  6
CONTINUOUS
 70
0
 71
3
 72
9
 73
5
 74
3
 42
0.0000001
 43
0.0000001
 44
0.0000000001
 12
0.0049410474
 22
6.506166349
 32
0.0
 13
0.0060159053
 23
6.5061654439
 33
0.0
 40
0.0
 40
0.0
 40
0.0
 40
0.0
 40
0.4960226552
 40
1.0
 40
1.0
 40
1.0
 40
1.0
 10
49.8149822112
 20
25.1814126413
 30
0.0
 10
49.8157991684
 20
26.2571479439
 30
0.0
 10
49.8175348367
 20
28.4258699938
 30
0.0
 10
49.8194495773
 20
30.5945918931
 30
0.0
 10
49.820460204
 20
31.6875785548
 30
0.0
 11
49.8149822112
 21
25.1814126413
 31
0.0
 11
49.8175650887
 21
28.4086184461
 31
0.0
 11
49.820460204
 21
31.6875785548
 31
0.0
  0
SPLINE
  5
46A
100
AcDbEntity
  8
RACCORDO
100
AcDbSpline
 62
253
  6
CONTINUOUS
 70
0
 71
3
 72
15
 73
11
 74
9
 42
0.0000001
 43
0.0000001
 44
0.0000000001
 12
-0.0458905539
 22
60.4267241898
 32
0.0
 13
0.0458905539
 23
60.4267241898
 33
0.0
 40
0.0
 40
0.0
 40
0.0
 40
0.0
 40
0.1248134424
 40
0.2497884851
 40
0.3748676307
 40
0.5000000009
 40
0.6251323712
 40
0.7502115169
 40
0.8751865589
 40
1.0
 40
1.0
 40
1.0
 40
1.0
 10
49.8149822112
 20
-35.2453232726
 30
0.0
 10
49.8130729586
 20
-32.7313007859
 30
0.0
 10
49.809732208
 20
-27.700000444
 30
0.0
 10
49.8061542467
 20
-20.1493247614
 30
0.0
 10
49.8040069195
 20
-12.5922246111
 30
0.0
 10
49.8032910579
 20
-5.0319552583
 30
0.0
 10
49.8040069195
 20
2.5283140949
 30
0.0
 10
49.8061542467
 20
10.0854142352
 30
0.0
 10
49.809732208
 20
17.6360898791
 30
0.0
 10
49.8130729586
 20
22.6673901819
 30
0.0
 10
49.8149822112
 20
25.1814126413
 30
0.0
 11
49.8149822112
 21
-35.2453232726
 31
0.0
 11
49.8099732148
 21
-27.7032553008
 31
0.0
 11
49.8063939207
 21
-20.1514215393
 31
0.0
 11
49.8042458333
 21
-12.5932966278
 31
0.0
 11
49.8035297122
 21
-5.0319552597
 31
0.0
 11
49.8042458333
 21
2.5293861126
 31
0.0
 11
49.8063939208
 21
10.0875110251
 31
0.0
 11
49.8099732149
 21
17.6393447516
 31
0.0
 11
49.8149822112
 21
25.1814126413
 31
0.0
  0
SPLINE
  5
46B
100
AcDbEntity
  8
RACCORDO
100
AcDbSpline
 62
253
  6
CONTINUOUS
 70
0
 71
3
 72
9
 73
5
 74
3
 42
0.0000001
 43
0.0000001
 44
0.0000000001
 12
-0.0060159079
 22
6.5061654439
 32
0.0
 13
-0.0049410504
 23
6.506166349
 33
0.0
 40
0.0
 40
0.0
 40
0.0
 40
0.0
 40
0.5036103858
 40
1.0
 40
1.0
 40
1.0
 40
1.0
 10
49.820460204
 20
-41.7514891861
 30
0.0
 10
49.8194503127
 20
-40.6592983565
 30
0.0
 10
49.8175355014
 20
-38.4905764572
 30
0.0
 10
49.8157997733
 20
-36.3218544073
 30
0.0
 10
49.8149822112
 20
-35.2453232726
 30
0.0
 11
49.820460204
 21
-41.7514891861
 31
0.0
 11
49.8175670947
 21
-38.4749165737
 31
0.0
 11
49.8149822112
 21
-35.2453232726
 31
0.0
  0
SPLINE
  5
46C
100
AcDbEntity
  8
RACCORDO
100
AcDbSpline
 62
253
  6
CONTINUOUS
 70
0
 71
3
 72
18
 73
14
 74
12
 42
0.0000001
 43
0.0000001
 44
0.0000000001
 12
-2.2095027498
 22
2.2191544143
 32
0.0
 13
-0.0028966572
 23
3.1315396094
 33
0.0
 40
0.0
 40
0.0
 40
0.0
 40
0.0
 40
0.0111320047
 40
0.0415938981
 40
0.0908915768
 40
0.1581642167
 40
0.2422408505
 40
0.3416495286
 40
0.4546461425
 40
0.5792488911
 40
0.713285786
 40
0.8543956507
 40
1.0
 40
1.0
 40
1.0
 40
1.0
 10
49.8505676793
 20
-44.8825801104
 30
0.0
 10
49.8423689477
 20
-44.8743455646
 30
0.0
 10
49.8524379726
 20
-44.8236513802
 30
0.0
 10
49.8372684166
 20
-44.7355342945
 30
0.0
 10
49.8401884756
 20
-44.5784246323
 30
0.0
 10
49.8339927057
 20
-44.3705735102
 30
0.0
 10
49.831803931
 20
-44.1082529662
 30
0.0
 10
49.8285275328
 20
-43.7989872204
 30
0.0
 10
49.8260884587
 20
-43.4471455439
 30
0.0
 10
49.8239137098
 20
-43.0592403878
 30
0.0
 10
49.8222435321
 20
-42.6419601697
 30
0.0
 10
49.8210488757
 20
-42.2027637162
 30
0.0
 10
49.8206007926
 20
-41.9034777818
 30
0.0
 10
49.820460204
 20
-41.7514891861
 30
0.0
 11
49.8505676793
 21
-44.8825801104
 31
0.0
 11
49.8465401329
 21
-44.8479532223
 31
0.0
 11
49.8425848013
 21
-44.7526425925
 31
0.0
 11
49.8387736858
 21
-44.5983119425
 31
0.0
 11
49.8351739292
 21
-44.3876756733
 31
0.0
 11
49.8318482914
 21
-44.1244072557
 31
0.0
 11
49.8288551131
 21
-43.8131192996
 31
0.0
 11
49.8262469182
 21
-43.4592753885
 31
0.0
 11
49.8240693907
 21
-43.0690828548
 31
0.0
 11
49.8223604959
 21
-42.6493443085
 31
0.0
 11
49.8211502901
 21
-42.207454646
 31
0.0
 11
49.820460204
 21
-41.7514891861
 31
0.0
  0
SPLINE
  5
46D
100
AcDbEntity
  8
RACCORDO
100
AcDbSpline
 62
253
  6
CONTINUOUS
 70
0
 71
3
 72
18
 73
14
 74
12
 42
0.0000001
 43
0.0000001
 44
0.0000000001
 12
-0.0028966573
 22
-3.1315396094
 32
0.0
 13
-2.2095029391
 23
-2.2191542259
 33
0.0
 40
0.0
 40
0.0
 40
0.0
 40
0.0
 40
0.1456043493
 40
0.286714214
 40
0.4207511089
 40
0.5453538575
 40
0.6583504714
 40
0.7577591495
 40
0.8418357833
 40
0.9091084233
 40
0.9584061019
 40
0.9888679953
 40
1.0
 40
1.0
 40
1.0
 40
1.0
 10
-49.820460204
 20
-41.7514891861
 30
0.0
 10
-49.8206007926
 20
-41.9034777818
 30
0.0
 10
-49.8210488757
 20
-42.2027637162
 30
0.0
 10
-49.8222435321
 20
-42.6419601697
 30
0.0
 10
-49.8239137098
 20
-43.0592403878
 30
0.0
 10
-49.8260884587
 20
-43.4471455439
 30
0.0
 10
-49.8285275327
 20
-43.7989872204
 30
0.0
 10
-49.831803931
 20
-44.1082529661
 30
0.0
 10
-49.8339927056
 20
-44.3705735103
 30
0.0
 10
-49.8401884759
 20
-44.578424632
 30
0.0
 10
-49.837268416
 20
-44.735534295
 30
0.0
 10
-49.8524379736
 20
-44.8236513793
 30
0.0
 10
-49.842368947
 20
-44.8743455653
 30
0.0
 10
-49.8505676793
 20
-44.8825801104
 30
0.0
 11
-49.820460204
 21
-41.7514891861
 31
0.0
 11
-49.8211502901
 21
-42.207454646
 31
0.0
 11
-49.8223604959
 21
-42.6493443085
 31
0.0
 11
-49.8240693907
 21
-43.0690828548
 31
0.0
 11
-49.8262469182
 21
-43.4592753885
 31
0.0
 11
-49.8288551131
 21
-43.8131192996
 31
0.0
 11
-49.8318482914
 21
-44.1244072557
 31
0.0
 11
-49.8351739292
 21
-44.3876756733
 31
0.0
 11
-49.8387736858
 21
-44.5983119425
 31
0.0
 11
-49.8425848013
 21
-44.7526425925
 31
0.0
 11
-49.8465401329
 21
-44.8479532223
 31
0.0
 11
-49.8505676793
 21
-44.8825801104
 31
0.0
  0
SPLINE
  5
46E
100
AcDbEntity
  8
RACCORDO
100
AcDbSpline
 62
253
  6
CONTINUOUS
 70
0
 71
3
 72
9
 73
5
 74
3
 42
0.0000001
 43
0.0000001
 44
0.0000000001
 12
-0.0049410473
 22
-6.506166349
 32
0.0
 13
-0.0060159055
 23
-6.5061654439
 33
0.0
 40
0.0
 40
0.0
 40
0.0
 40
0.0
 40
0.4960226648
 40
1.0
 40
1.0
 40
1.0
 40
1.0
 10
-49.8149822112
 20
-35.2453232726
 30
0.0
 10
-49.8157991684
 20
-36.321058596
 30
0.0
 10
-49.8175348366
 20
-38.4897806459
 30
0.0
 10
-49.8194495773
 20
-40.6585025453
 30
0.0
 10
-49.820460204
 20
-41.7514891861
 30
0.0
 11
-49.8149822112
 21
-35.2453232726
 31
0.0
 11
-49.8175650887
 21
-38.4725291399
 31
0.0
 11
-49.820460204
 21
-41.7514891861
 31
0.0
  0
SPLINE
  5
46F
100
AcDbEntity
  8
RACCORDO
100
AcDbSpline
 62
253
  6
CONTINUOUS
 70
0
 71
3
 72
15
 73
11
 74
9
 42
0.0000001
 43
0.0000001
 44
0.0000000001
 12
0.0458905539
 22
-60.4267241898
 32
0.0
 13
-0.0458905539
 23
-60.4267241898
 33
0.0
 40
0.0
 40
0.0
 40
0.0
 40
0.0
 40
0.1248134411
 40
0.2497884831
 40
0.3748676288
 40
0.4999999991
 40
0.6251323693
 40
0.7502115149
 40
0.8751865576
 40
1.0
 40
1.0
 40
1.0
 40
1.0
 10
-49.8149822112
 20
25.1814126413
 30
0.0
 10
-49.8130729586
 20
22.6673901819
 30
0.0
 10
-49.809732208
 20
17.6360898791
 30
0.0
 10
-49.8061542467
 20
10.0854142352
 30
0.0
 10
-49.8040069195
 20
2.5283140949
 30
0.0
 10
-49.8032910579
 20
-5.0319552583
 30
0.0
 10
-49.8040069195
 20
-12.5922246111
 30
0.0
 10
-49.8061542467
 20
-20.1493247614
 30
0.0
 10
-49.809732208
 20
-27.700000444
 30
0.0
 10
-49.8130729586
 20
-32.7313007859
 30
0.0
 10
-49.8149822112
 20
-35.2453232726
 30
0.0
 11
-49.8149822112
 21
25.1814126413
 31
0.0
 11
-49.8099732149
 21
17.6393447516
 31
0.0
 11
-49.8063939208
 21
10.0875110251
 31
0.0
 11
-49.8042458333
 21
2.5293861126
 31
0.0
 11
-49.8035297122
 21
-5.0319552597
 31
0.0
 11
-49.8042458333
 21
-12.5932966278
 31
0.0
 11
-49.8063939207
 21
-20.1514215393
 31
0.0
 11
-49.8099732148
 21
-27.7032553008
 31
0.0
 11
-49.8149822112
 21
-35.2453232726
 31
0.0
  0
SPLINE
  5
470
100
AcDbEntity
  8
RACCORDO
100
AcDbSpline
 62
253
  6
CONTINUOUS
 70
0
 71
3
 72
9
 73
5
 74
3
 42
0.0000001
 43
0.0000001
 44
0.0000000001
 12
0.0060159077
 22
-6.5061654439
 32
0.0
 13
0.0049410505
 23
-6.506166349
 33
0.0
 40
0.0
 40
0.0
 40
0.0
 40
0.0
 40
0.5036095581
 40
1.0
 40
1.0
 40
1.0
 40
1.0
 10
-49.820460204
 20
31.6875785548
 30
0.0
 10
-49.8194503144
 20
30.5953895202
 30
0.0
 10
-49.8175355029
 20
28.4266676209
 30
0.0
 10
-49.8157997747
 20
26.257945571
 30
0.0
 10
-49.8149822112
 20
25.1814126413
 30
0.0
 11
-49.820460204
 21
31.6875785548
 31
0.0
 11
-49.8175670992
 21
28.4110113274
 31
0.0
 11
-49.8149822112
 21
25.1814126413
 31
0.0
  0
SPLINE
  5
471
100
AcDbEntity
  8
RACCORDO
100
AcDbSpline
 62
253
  6
CONTINUOUS
 70
0
 71
3
 72
15
 73
11
 74
9
 42
0.0000001
 43
0.0000001
 44
0.0000000001
 12
-1.5000156269
 22
-0.0130904381
 32
0.0
 13
0.0130894413
 23
-1.5000156356
 33
0.0
 40
0.0
 40
0.0
 40
0.0
 40
0.0
 40
0.0192871949
 40
0.0762082942
 40
0.1686174673
 40
0.2929702397
 40
0.4444906759
 40
0.6173577812
 40
0.8049298659
 40
1.0
 40
1.0
 40
1.0
 40
1.0
 10
-132.2269707017
 20
36.3186123637
 30
0.0
 10
-132.2366143996
 20
36.3185282044
 30
0.0
 10
-132.2187209229
 20
36.2575867192
 30
0.0
 10
-132.2383838276
 20
36.1949602983
 30
0.0
 10
-132.229146615
 20
36.0461638921
 30
0.0
 10
-132.2336515933
 20
35.8670227062
 30
0.0
 10
-132.2317172032
 20
35.6408288601
 30
0.0
 10
-132.2311530379
 20
35.3854342925
 30
0.0
 10
-132.2292932192
 20
35.1074866115
 30
0.0
 10
-132.2278218214
 20
34.9162055628
 30
0.0
 10
-132.2269707017
 20
34.8186694791
 30
0.0
 11
-132.2269707017
 21
36.3186123637
 31
0.0
 11
-132.2292725863
 21
36.2897718842
 31
0.0
 11
-132.2309830342
 21
36.2044032281
 31
0.0
 11
-132.2320363202
 21
36.0657867478
 31
0.0
 11
-132.2323919709
 21
35.8792488821
 31
0.0
 11
-132.2320363202
 21
35.6519574838
 31
0.0
 11
-132.2309830343
 21
35.3926463897
 31
0.0
 11
-132.2292725864
 21
35.1112798166
 31
0.0
 11
-132.2269707017
 21
34.8186694791
 31
0.0
  0
SPLINE
  5
472
100
AcDbEntity
  8
RACCORDO
100
AcDbSpline
 62
253
  6
CONTINUOUS
 70
0
 71
3
 72
15
 73
11
 74
9
 42
0.0000001
 43
0.0000001
 44
0.0000000001
 12
-1.500015627
 22
0.0130904381
 32
0.0
 13
0.0130894489
 23
1.5000156357
 33
0.0
 40
0.0
 40
0.0
 40
0.0
 40
0.0
 40
0.0192872146
 40
0.0762083667
 40
0.1686176087
 40
0.2929704427
 40
0.4444909088
 40
0.6173579938
 40
0.8049299994
 40
1.0
 40
1.0
 40
1.0
 40
1.0
 10
-132.2269707017
 20
-46.382522995
 30
0.0
 10
-132.2366144095
 20
-46.3824388356
 30
0.0
 10
-132.2187209158
 20
-46.3214972921
 30
0.0
 10
-132.2383838366
 20
-46.2588708189
 30
0.0
 10
-132.229146618
 20
-46.1100743135
 30
0.0
 10
-132.2336515967
 20
-45.9309330489
 30
0.0
 10
-132.2317172055
 20
-45.7047391673
 30
0.0
 10
-132.2311530387
 20
-45.4493446341
 30
0.0
 10
-132.2292932193
 20
-45.1713970698
 30
0.0
 10
-132.2278218213
 20
-44.9801161274
 30
0.0
 10
-132.2269707017
 20
-44.8825801104
 30
0.0
 11
-132.2269707017
 21
-46.382522995
 31
0.0
 11
-132.2292725889
 21
-46.353682486
 31
0.0
 11
-132.2309830382
 21
-46.2683137507
 31
0.0
 11
-132.2320363243
 21
-46.129697167
 31
0.0
 11
-132.2323919743
 21
-45.943159209
 31
0.0
 11
-132.2320363223
 21
-45.7158677657
 31
0.0
 11
-132.2309830351
 21
-45.4565567021
 31
0.0
 11
-132.2292725863
 21
-45.1751902476
 31
0.0
 11
-132.2269707017
 21
-44.8825801104
 31
0.0
  0
SPLINE
  5
473
100
AcDbEntity
  8
RACCORDO
100
AcDbSpline
 62
253
  6
CONTINUOUS
 70
0
 71
3
 72
25
 73
21
 74
19
 42
0.0000001
 43
0.0000001
 44
0.0000000001
 12
1.4999847139
 22
-0.0065957311
 32
0.0
 13
-0.0034912277
 23
-1.5000067191
 33
0.0
 40
0.0
 40
0.0
 40
0.0
 40
0.0
 40
0.0038102399
 40
0.0151984507
 40
0.0340809959
 40
0.0603144473
 40
0.0936993524
 40
0.133981779
 40
0.1808550897
 40
0.2339625496
 40
0.2929000553
 40
0.3572190461
 40
0.4264299909
 40
0.5000062462
 40
0.5773878618
 40
0.6579856963
 40
0.7411864645
 40
0.8263572572
 40
0.9128490637
 40
1.0
 40
1.0
 40
1.0
 40
1.0
 10
-75.1002321405
 20
36.3311981305
 30
0.0
 10
-75.09832704
 20
36.3311897534
 30
0.0
 10
-75.102276655
 20
36.3189996909
 30
0.0
 10
-75.0980696225
 20
36.306380304
 30
0.0
 10
-75.100119508
 20
36.2756250883
 30
0.0
 10
-75.0989428198
 20
36.2374706513
 30
0.0
 10
-75.0991657495
 20
36.1870987761
 30
0.0
 10
-75.0989060597
 20
36.1269778244
 30
0.0
 10
-75.0988618522
 20
36.0567954001
 30
0.0
 10
-75.0987934992
 20
35.9773519959
 30
0.0
 10
-75.0987812118
 20
35.8891642749
 30
0.0
 10
-75.0987999576
 20
35.7929314242
 30
0.0
 10
-75.0988575554
 20
35.6893771309
 30
0.0
 10
-75.0989512707
 20
35.5792921077
 30
0.0
 10
-75.0990811526
 20
35.4635134546
 30
0.0
 10
-75.0992460401
 20
35.3429226016
 30
0.0
 10
-75.0994447807
 20
35.2184371635
 30
0.0
 10
-75.0996758251
 20
35.0910047732
 30
0.0
 10
-75.0999375088
 20
34.9615973388
 30
0.0
 10
-75.1001307365
 20
34.8747755577
 30
0.0
 10
-75.1002321577
 20
34.8311998944
 30
0.0
 11
-75.1002321405
 21
36.3311981305
 31
0.0
 11
-75.0999412222
 21
36.3254901246
 31
0.0
 11
-75.099679043
 21
36.3084096977
 31
0.0
 11
-75.0994476593
 21
36.2800866214
 31
0.0
 11
-75.099248804
 21
36.2407366639
 31
0.0
 11
-75.0990840012
 21
36.1906592174
 31
0.0
 11
-75.0989545013
 21
36.1302352819
 31
0.0
 11
-75.0988612912
 21
36.0599248724
 31
0.0
 11
-75.0988050799
 21
35.9802631298
 31
0.0
 11
-75.0987862951
 21
35.8918562378
 31
0.0
 11
-75.0988050798
 21
35.7953770599
 31
0.0
 11
-75.0988612911
 21
35.6915599116
 31
0.0
 11
-75.0989545014
 21
35.5811947748
 31
0.0
 11
-75.0990840016
 21
35.4651215893
 31
0.0
 11
-75.0992488048
 21
35.3442240809
 31
0.0
 11
-75.0994476603
 21
35.21942219
 31
0.0
 11
-75.0996790455
 21
35.0916652921
 31
0.0
 11
-75.0999412237
 21
34.9619269147
 31
0.0
 11
-75.1002321577
 21
34.8311998944
 31
0.0
  0
SPLINE
  5
474
100
AcDbEntity
  8
RACCORDO
100
AcDbSpline
 62
253
  6
CONTINUOUS
 70
0
 71
3
 72
25
 73
21
 74
19
 42
0.0000001
 43
0.0000001
 44
0.0000000001
 12
0.0034917482
 22
-1.5000056086
 32
0.0
 13
-1.4999804905
 23
-0.0068353815
 33
0.0
 40
0.0
 40
0.0
 40
0.0
 40
0.0
 40
0.0871517836
 40
0.1736436255
 40
0.2588144533
 40
0.3420152465
 40
0.4226130836
 40
0.4999946939
 40
0.5735709355
 40
0.6427818516
 40
0.7071008001
 40
0.7660382525
 40
0.8191456465
 40
0.8660188787
 40
0.906301219
 40
0.9396860293
 40
0.9659193727
 40
0.9848018027
 40
0.9961898918
 40
1.0
 40
1.0
 40
1.0
 40
1.0
 10
-75.1002321551
 20
-44.8951116326
 30
0.0
 10
-75.1001307177
 20
-44.9386876873
 30
0.0
 10
-75.0999375174
 20
-45.0255098457
 30
0.0
 10
-75.0996758194
 20
-45.1549176433
 30
0.0
 10
-75.0994447809
 20
-45.2823499872
 30
0.0
 10
-75.0992460389
 20
-45.4068353645
 30
0.0
 10
-75.0990811525
 20
-45.5274261395
 30
0.0
 10
-75.0989512706
 20
-45.6432046988
 30
0.0
 10
-75.0988575555
 20
-45.7532896167
 30
0.0
 10
-75.0987999578
 20
-45.856843791
 30
0.0
 10
-75.0987812118
 20
-45.9530765086
 30
0.0
 10
-75.0987934991
 20
-46.0412640829
 30
0.0
 10
-75.098861852
 20
-46.120707332
 30
0.0
 10
-75.0989060597
 20
-46.1908895814
 30
0.0
 10
-75.0991657494
 20
-46.2510103819
 30
0.0
 10
-75.0989428217
 20
-46.30138201
 30
0.0
 10
-75.1001195045
 20
-46.3395364313
 30
0.0
 10
-75.0980696382
 20
-46.3702910524
 30
0.0
 10
-75.1022766128
 20
-46.3829109807
 30
0.0
 10
-75.0983271113
 20
-46.3951000806
 30
0.0
 10
-75.1002321406
 20
-46.3951087618
 30
0.0
 11
-75.1002321551
 21
-44.8951116326
 31
0.0
 11
-75.0999412222
 21
-45.0258398272
 31
0.0
 11
-75.099679043
 21
-45.1555781619
 31
0.0
 11
-75.0994476593
 21
-45.2833350178
 31
0.0
 11
-75.099248804
 21
-45.4081368541
 31
0.0
 11
-75.0990840012
 21
-45.5290342769
 31
0.0
 11
-75.0989545013
 21
-45.6451073686
 31
0.0
 11
-75.0988612912
 21
-45.7554724034
 31
0.0
 11
-75.0988050799
 21
-45.8592894317
 31
0.0
 11
-75.0987862951
 21
-45.9557684747
 31
0.0
 11
-75.0988050798
 21
-46.0441752215
 31
0.0
 11
-75.0988612911
 21
-46.1238368064
 31
0.0
 11
-75.0989545014
 21
-46.1941470463
 31
0.0
 11
-75.0990840016
 21
-46.2545708076
 31
0.0
 11
-75.0992488048
 21
-46.3046480748
 31
0.0
 11
-75.0994476603
 21
-46.3439978412
 31
0.0
 11
-75.0996790455
 21
-46.3723207237
 31
0.0
 11
-75.0999412237
 21
-46.3894009555
 31
0.0
 11
-75.1002321406
 21
-46.3951087618
 31
0.0
  0
ELLIPSE
  5
475
100
AcDbEntity
  8
DRAFT
100
AcDbEllipse
 62
7
  6
CONTINUOUS
 10
45.8389119255
 20
27.4680446843
 30
0.0
 11
-0.0
 21
7.0
 31
0.0
 40
0.0087268678
 41
-0.0002323509
 42
0.0714894499
  0
ELLIPSE
  5
476
100
AcDbEntity
  8
DRAFT
100
AcDbEllipse
 62
7
  6
CONTINUOUS
 10
-45.8389119255
 20
27.4680446843
 30
0.0
 11
0.0
 21
7.0
 31
0.0
 40
0.0087268678
 41
-0.0714894499
 42
0.0002323509
  0
ELLIPSE
  5
477
100
AcDbEntity
  8
RACCORDO
100
AcDbEllipse
 62
7
  6
CONTINUOUS
 10
-47.8965092529
 20
-43.5484211998
 30
0.0
 11
-0.0
 21
0.4
 31
0.0
 40
0.0087268678
 41
-4.7123889804
 42
-3.2288591162
  0
ELLIPSE
  5
478
100
AcDbEntity
  8
RACCORDO
100
AcDbEllipse
 62
7
  6
CONTINUOUS
 10
47.8965092529
 20
-43.5484211998
 30
0.0
 11
-0.0
 21
0.4
 31
0.0
 40
0.0087268678
 41
-3.054326191
 42
-1.5707963268
  0
ELLIPSE
  5
479
100
AcDbEntity
  8
DRAFT
100
AcDbEllipse
 62
7
  6
CONTINUOUS
 10
-47.8365498608
 20
-39.5319553157
 30
0.0
 11
-0.0
 21
5.0
 31
0.0
 40
0.0087268678
 41
3.054326191
 42
4.6122215592
  0
ELLIPSE
  5
47A
100
AcDbEntity
  8
DRAFT
100
AcDbEllipse
 62
7
  6
CONTINUOUS
 10
47.8365498608
 20
-39.5319553157
 30
0.0
 11
0.0
 21
5.0
 31
0.0
 40
0.0087268678
 41
-4.6122215592
 42
-3.054326191
  0
ELLIPSE
  5
47B
100
AcDbEntity
  8
DRAFT
100
AcDbEllipse
 62
7
  6
CONTINUOUS
 10
-50.8322275777
 20
-5.0319553157
 30
0.0
 11
0.0
 21
350.0
 31
0.0
 40
0.0087268678
 41
-1.670963748
 42
-1.4706832549
  0
ELLIPSE
  5
47C
100
AcDbEntity
  8
DRAFT
100
AcDbEllipse
 62
7
  6
CONTINUOUS
 10
50.8322275777
 20
-5.0319553157
 30
0.0
 11
0.0
 21
350.0
 31
0.0
 40
0.0087268678
 41
1.4706832549
 42
1.670963748
  0
ELLIPSE
  5
47D
100
AcDbEntity
  8
RACCORDO
100
AcDbEllipse
 62
7
  6
CONTINUOUS
 10
-38.5396327326
 20
17.3061424843
 30
0.0
 11
0.0937991149
 21
-1.4615514256
 31
0.0
 40
0.3413998745
 41
3.4915498345
 42
3.9723492626
  0
ELLIPSE
  5
47E
100
AcDbEntity
  8
RACCORDO
100
AcDbEllipse
 62
7
  6
CONTINUOUS
 10
38.5396327326
 20
17.3061424843
 30
0.0
 11
-0.0937991149
 21
-1.4615514256
 31
0.0
 40
0.3413998745
 41
2.3108360446
 42
2.7915305253
  0
ELLIPSE
  5
47F
100
AcDbEntity
  8
RACCORDO
100
AcDbEllipse
 62
7
  6
CONTINUOUS
 10
-38.5396327326
 20
-27.3700531156
 30
0.0
 11
0.0937991149
 21
1.4615514256
 31
-0.0
 40
0.3413998745
 41
2.3108360446
 42
2.7915305253
  0
ELLIPSE
  5
480
100
AcDbEntity
  8
RACCORDO
100
AcDbEllipse
 62
7
  6
CONTINUOUS
 10
38.5396327326
 20
-27.3700531156
 30
0.0
 11
-0.0937991149
 21
1.4615514256
 31
-0.0
 40
0.3413998745
 41
3.4915498345
 42
3.9723492626
  0
ELLIPSE
  5
481
100
AcDbEntity
  8
DRAFT
100
AcDbEllipse
 62
7
  6
CONTINUOUS
 10
-47.8365335019
 20
29.4493881073
 30
0.0
 11
-0.0
 21
5.0
 31
0.0
 40
0.0087268678
 41
-1.4706832549
 42
-0.136695483
  0
ELLIPSE
  5
482
100
AcDbEntity
  8
DRAFT
100
AcDbEllipse
 62
7
  6
CONTINUOUS
 10
47.8365335019
 20
29.4493881073
 30
0.0
 11
0.0
 21
5.0
 31
0.0
 40
0.0087268678
 41
0.136695483
 42
1.4706832549
  0
ELLIPSE
  5
483
100
AcDbEntity
  8
DRAFT
100
AcDbEllipse
 62
7
  6
CONTINUOUS
 10
47.8389119255
 20
27.4680446843
 30
0.0
 11
-0.0
 21
7.0
 31
0.0
 40
0.0087268678
 41
4.7123889804
 42
6.4198807902
  0
ELLIPSE
  5
484
100
AcDbEntity
  8
DRAFT
100
AcDbEllipse
 62
7
  6
CONTINUOUS
 10
-47.8389119255
 20
27.4680446843
 30
0.0
 11
-0.0
 21
7.0
 31
0.0
 40
0.0087268678
 41
-0.136695483
 42
1.5707963268
  0
ELLIPSE
  5
485
100
AcDbEntity
  8
DRAFT
100
AcDbEllipse
 62
7
  6
CONTINUOUS
 10
22.0499527769
 20
-5.0319553157
 30
0.0
 11
0.0
 21
348.5
 31
0.0
 40
0.1763269807
 41
1.5038884546
 42
1.637704199
  0
ELLIPSE
  5
486
100
AcDbEntity
  8
DRAFT
100
AcDbEllipse
 62
7
  6
CONTINUOUS
 10
-22.0499527769
 20
-5.0319553157
 30
0.0
 11
-0.0
 21
348.5
 31
0.0
 40
0.1763269807
 41
-1.637704199
 42
-1.5038884546
  0
ELLIPSE
  5
487
100
AcDbEntity
  8
RACCORDO
100
AcDbEllipse
 62
7
  6
CONTINUOUS
 10
-48.4999428824
 20
-45.0318981981
 30
0.0
 11
1.0607409467
 21
1.0607409467
 31
0.0
 40
0.9999238505
 41
-3.9269527408
 42
-2.3562325664
  0
ELLIPSE
  5
488
100
AcDbEntity
  8
RACCORDO
100
AcDbEllipse
 62
7
  6
CONTINUOUS
 10
48.4999428824
 20
-45.0318981981
 30
0.0
 11
-1.0607409467
 21
1.0607409467
 31
0.0
 40
0.9999238505
 41
-3.9269527408
 42
-2.3562325664
  0
ELLIPSE
  5
489
100
AcDbEntity
  8
RACCORDO
100
AcDbEllipse
 62
7
  6
CONTINUOUS
 10
48.4999428824
 20
34.9679875668
 30
0.0
 11
1.0607409467
 21
1.0607409467
 31
0.0
 40
0.9999238505
 41
-0.7853600872
 42
0.7853600872
  0
ELLIPSE
  5
48A
100
AcDbEntity
  8
RACCORDO
100
AcDbEllipse
 62
7
  6
CONTINUOUS
 10
-48.4999428824
 20
34.9679875668
 30
0.0
 11
-1.0607409467
 21
1.0607409467
 31
0.0
 40
0.9999238505
 41
-0.7853600872
 42
0.7853600871
  0
ELLIPSE
  5
48B
100
AcDbEntity
  8
RACCORDO
100
AcDbEllipse
 62
7
  6
CONTINUOUS
 10
-48.0416225922
 20
-44.5735779079
 30
0.0
 11
0.1767901578
 21
0.1767901578
 31
0.0
 40
0.9999238505
 41
2.3562325666
 42
3.9269527409
  0
ELLIPSE
  5
48C
100
AcDbEntity
  8
RACCORDO
100
AcDbEllipse
 62
7
  6
CONTINUOUS
 10
48.0416225922
 20
-44.5735779079
 30
0.0
 11
0.1767901578
 21
-0.1767901578
 31
0.0
 40
0.9999238505
 41
-0.7853600872
 42
0.7853600872
  0
ELLIPSE
  5
48D
100
AcDbEntity
  8
RACCORDO
100
AcDbEllipse
 62
7
  6
CONTINUOUS
 10
48.0416225922
 20
34.5096672766
 30
0.0
 11
0.1767901578
 21
0.1767901578
 31
0.0
 40
0.9999238505
 41
-0.7853600873
 42
0.7853600871
  0
ELLIPSE
  5
48E
100
AcDbEntity
  8
RACCORDO
100
AcDbEllipse
 62
7
  6
CONTINUOUS
 10
-48.0416225922
 20
34.5096672766
 30
0.0
 11
0.1767901578
 21
-0.1767901578
 31
0.0
 40
0.9999238505
 41
2.3562325665
 42
3.9269527409
  0
ELLIPSE
  5
48F
100
AcDbEntity
  8
DRAFT
100
AcDbEllipse
 62
7
  6
CONTINUOUS
 10
48.2661463
 20
31.3188027484
 30
0.0
 11
-0.0
 21
5.0
 31
0.0
 40
0.0087268678
 41
-1.4652358764
 42
-0.6237424125
  0
ELLIPSE
  5
490
100
AcDbEntity
  8
DRAFT
100
AcDbEllipse
 62
7
  6
CONTINUOUS
 10
-48.2661463
 20
31.3188027484
 30
0.0
 11
0.0
 21
5.0
 31
0.0
 40
0.0087268678
 41
0.6237424125
 42
1.4652358764
  0
ELLIPSE
  5
491
100
AcDbEntity
  8
RACCORDO
100
AcDbEllipse
 62
7
  6
CONTINUOUS
 10
-45.2721358562
 20
-5.0319553157
 30
0.0
 11
0.0
 21
350.0
 31
0.0
 40
0.0087268678
 41
-4.625584549
 42
-4.60682853
  0
ELLIPSE
  5
492
100
AcDbEntity
  8
RACCORDO
100
AcDbEllipse
 62
7
  6
CONTINUOUS
 10
-45.2721358562
 20
-5.0319553157
 30
0.0
 11
0.0
 21
350.0
 31
0.0
 40
0.0087268678
 41
1.4652358764
 42
1.4839918954
  0
ELLIPSE
  5
493
100
AcDbEntity
  8
RACCORDO
100
AcDbEllipse
 62
7
  6
CONTINUOUS
 10
45.2721358562
 20
-5.0319553157
 30
0.0
 11
0.0
 21
350.0
 31
0.0
 40
0.0087268678
 41
-1.6763567772
 42
-1.6576007582
  0
ELLIPSE
  5
494
100
AcDbEntity
  8
RACCORDO
100
AcDbEllipse
 62
7
  6
CONTINUOUS
 10
45.2721358562
 20
-5.0319553157
 30
0.0
 11
0.0
 21
350.0
 31
0.0
 40
0.0087268678
 41
-1.4839918954
 42
-1.4652358764
  0
ELLIPSE
  5
495
100
AcDbEntity
  8
RACCORDO
100
AcDbEllipse
 62
7
  6
CONTINUOUS
 10
-15.132302676
 20
-41.3827133797
 30
0.0
 11
0.0
 21
5.0
 31
0.0
 40
0.0174550649
 41
-3.5395839667
 42
-3.1503192998
  0
ELLIPSE
  5
496
100
AcDbEntity
  8
DRAFT
100
AcDbEllipse
 62
7
  6
CONTINUOUS
 10
-48.2661463
 20
-41.3827133797
 30
0.0
 11
-0.0
 21
5.0
 31
0.0
 40
0.0087268678
 41
-4.60682853
 42
-3.7653350661
  0
ELLIPSE
  5
497
100
AcDbEntity
  8
DRAFT
100
AcDbEllipse
 62
7
  6
CONTINUOUS
 10
48.2661463
 20
-41.3827133797
 30
0.0
 11
0.0
 21
5.0
 31
0.0
 40
0.0087268678
 41
-2.5178502411
 42
-1.6763567772
  0
ELLIPSE
  5
498
100
AcDbEntity
  8
RACCORDO
100
AcDbEllipse
 62
7
  6
CONTINUOUS
 10
15.132302676
 20
-41.3827133797
 30
0.0
 11
0.0
 21
5.0
 31
0.0
 40
0.0174550649
 41
-3.1328660073
 42
-2.7436013405
  0
ELLIPSE
  5
499
100
AcDbEntity
  8
RACCORDO
100
AcDbEllipse
 62
7
  6
CONTINUOUS
 10
16.1659754449
 20
-44.8148605597
 30
0.0
 11
1.0
 21
0.0
 31
0.0
 40
0.0087268678
 41
-3.1241393611
 42
-1.5707963268
  0
ELLIPSE
  5
49A
100
AcDbEntity
  8
RACCORDO
100
AcDbEllipse
 62
7
  6
CONTINUOUS
 10
-16.1659754449
 20
-44.8148605597
 30
0.0
 11
1.0
 21
-0.0
 31
0.0
 40
0.0087268678
 41
-1.5707963268
 42
-0.0174532925
  0
ELLIPSE
  5
49B
100
AcDbEntity
  8
RACCORDO
100
AcDbEllipse
 62
7
  6
CONTINUOUS
 10
-47.9499904804
 20
-44.4819457961
 30
0.0
 11
0.1767901578
 21
0.1767901578
 31
0.0
 40
0.9999238505
 41
2.3562325664
 42
3.9269527408
  0
ELLIPSE
  5
49C
100
AcDbEntity
  8
RACCORDO
100
AcDbEllipse
 62
7
  6
CONTINUOUS
 10
47.9499904804
 20
-44.4819457961
 30
0.0
 11
-0.1767901578
 21
0.1767901578
 31
0.0
 40
0.9999238505
 41
2.3562325664
 42
3.9269527408
  0
ELLIPSE
  5
49D
100
AcDbEntity
  8
RACCORDO
100
AcDbEllipse
 62
7
  6
CONTINUOUS
 10
47.9499904804
 20
34.4180351648
 30
0.0
 11
-0.1767901578
 21
-0.1767901578
 31
0.0
 40
0.9999238505
 41
2.3562325664
 42
3.9269527408
  0
ELLIPSE
  5
49E
100
AcDbEntity
  8
RACCORDO
100
AcDbEllipse
 62
7
  6
CONTINUOUS
 10
-47.9499904804
 20
34.4180351648
 30
0.0
 11
0.1767901578
 21
-0.1767901578
 31
0.0
 40
0.9999238505
 41
2.3562325664
 42
3.9269527408
  0
ENDSEC
  0
SECTION
  2
OBJECTS
  0
DICTIONARY
  5
C
100
AcDbDictionary
280
0
281
1
  3
ACAD_GROUP
350
D
  3
ACAD_MLINESTYLE
350
17
  3
ACAD_LAYOUT
350
1A
  3
ACAD_PLOTSETTINGS
350
19
  3
ACAD_PLOTSTYLENAME
350
E
  0
DICTIONARY
  5
D
102
{ACAD_REACTORS
330
C
102
}
100
AcDbDictionary
280
0
281
1
  0
ACDBDICTIONARYWDFLT
  5
E
102
{ACAD_REACTORS
330
C
102
}
100
AcDbDictionary
281
1
  3
Normal
350
F
100
AcDbDictionaryWithDefault
340
F
  0
DICTIONARY
  5
17
102
{ACAD_REACTORS
330
C
102
}
100
AcDbDictionary
280
0
281
1
  3
Standard
350
18
  0
DICTIONARY
  5
19
102
{ACAD_REACTORS
330
C
102
}
100
AcDbDictionary
281
1
  0
DICTIONARY
  5
1A
102
{ACAD_REACTORS
330
C
102
}
100
AcDbDictionary
281
1
  3
Model
350
49F
  3
Layout1
350
4A0
  0
ACDBPLACEHOLDER
  5
F
102
{ACAD_REACTORS
330
E
102
}
  0
MLINESTYLE
  5
18
102
{ACAD_REACTORS
330
17
102
}
100
AcDbMlineStyle
  2
STANDARD
 70
0
  3

 62
256
 51
90.0
 52
90.0
 71
2
 49
0.5
 62
256
  6
BYLAYER
 49
-0.5
 62
256
  6
BYLAYER
  0
LAYOUT
  5
49F
102
{ACAD_REACTORS
330
1A
102
}
100
AcDbPlotSettings
  1

  2
none_device
  4
ISO_A4_(297.00_x_210.00_MM)
  6

 40
0.0
 41
0.0
 42
0.0
 43
0.0
 44
297.0
 45
210.0
 46
0.0
 47
0.0
 48
0.0
 49
0.0
140
0.0
141
0.0
142
1.0
143
1.0
 70
1024
 72
1
 73
0
 74
0
  7

 75
0
147
1.0
148
0.0
149
0.0
100
AcDbLayout
  1
Model
 70
0
 71
0
 10
0.0
 20
0.0
 11
297.0
 21
210.0
 12
0.0
 22
0.0
 32
0.0
 14
0.0
 24
0.0
 34
0.0
 15
0.0
 25
0.0
 35
0.0
146
0.0
 13
0.0
 23
0.0
 33
0.0
 16
1.0
 26
0.0
 36
0.0
 17
0.0
 27
1.0
 37
0.0
 76
0
330
216
345
0
346
0
  0
LAYOUT
  5
4A0
102
{ACAD_REACTORS
330
1A
102
}
100
AcDbPlotSettings
  1

  2
none_device
  4
ISO_A4_(297.00_x_210.00_MM)
  6

 40
0.0
 41
0.0
 42
0.0
 43
0.0
 44
297.0
 45
210.0
 46
0.0
 47
0.0
 48
0.0
 49
0.0
140
0.0
141
0.0
142
1.0
143
1.0
 70
0
 72
1
 73
0
 74
0
  7

 75
0
147
1.0
148
0.0
149
0.0
100
AcDbLayout
  1
Layout1
 70
0
 71
1
 10
0.0
 20
0.0
 11
297.0
 21
210.0
 12
0.0
 22
0.0
 32
0.0
 14
0.0
 24
0.0
 34
0.0
 15
0.0
 25
0.0
 35
0.0
146
0.0
 13
0.0
 23
0.0
 33
0.0
 16
1.0
 26
0.0
 36
0.0
 17
0.0
 27
1.0
 37
0.0
 76
0
330
217
345
0
346
0
  0
ENDSEC
  0
EOF
