  0
SECTION
  2
HEADER
  9
$ACADVER
  1
AC1015
  9
$DWGCODEPAGE
  3
ANSI_1252
  9
$EXTMAX
 10
297.0
 20
210.0
 30
0.0
  9
$EXTMIN
 10
0.0
 20
0.0
 30
0.0
  9
$LIMMIN
 10
0.0
 20
0.0
  9
$LIMMAX
 10
297.0
 20
210.0
  9
$VIEWCTR
 10
148.5
 20
105.0
  9
$VIEWSIZE
 40
210.0
  9
$CLAYER
  8
0
  9
$LTSCALE
 40
16.335
  9
$CELTYPE
  6
BYLAYER
  9
$DIMSCALE
 40
1.0
  9
$DIMASZ
 40
3.0
  9
$DIMEXO
 40
1.85625
  9
$DIMDLI
 40
11.286
  9
$DIMEXE
 40
5.346
  9
$DIMCEN
 40
2.673
  9
$DIMLFAC
 40
1.0
  9
$DIMBLK
  1
_FILLED
  9
$DIMTXT
 40
3.0
  9
$DIMTOL
 70
1
  9
$DIMLIM
 70
0
  9
$DIMTFAC
 40
1.0
  9
$DIMTP
 40
0.01
  9
$DIMTM
 40
0.01
  9
$PDMODE
 70
3
  9
$PDSIZE
 40
3.0
  9
$HANDSEED
  5
4E4
  9
$TILEMODE
 70
1
  9
$MEASUREMENT
 70
1
  9
$INSUNITS
 70
4
  0
ENDSEC
  0
SECTION
  2
CLASSES
  0
CLASS
  1
ACDBDICTIONARYWDFLT
  2
AcDbDictionaryWithDefault
  3
AutoCAD 2000
 90
0
280
0
281
0
  0
CLASS
  1
ACDBPLACEHOLDER
  2
AcDbPlaceHolder
  3
AutoCAD 2000
 90
0
280
0
281
0
  0
CLASS
  1
LAYOUT
  2
AcDbLayout
  3
AutoCAD 2000
 90
0
280
0
281
0
  0
ENDSEC
  0
SECTION
  2
TABLES
  0
TABLE
  2
VPORT
  5
8
100
AcDbSymbolTable
 70
2
  0
VPORT
  5
1F4
100
AcDbSymbolTableRecord
100
AcDbViewportTableRecord
  2
*ACTIVE
 70
0
 10
0.0
 20
0.0
 11
1.0
 21
1.0
 12
148.5
 22
105.0
 13
0.0
 23
0.0
 14
1.0
 24
1.0
 15
0.0
 25
0.0
 16
0.0
 26
0.0
 36
1.0
 17
0.0
 27
0.0
 37
0.0
 40
210.0
 41
1.4142857143
 42
50.0
 43
0.0
 44
0.0
 50
0.0
 51
0.0
 71
0
 72
100
 73
1
 74
1
 75
0
 76
0
 77
0
 78
0
  0
ENDTAB
  0
TABLE
  2
LTYPE
  5
5
100
AcDbSymbolTable
 70
6
  0
LTYPE
  5
14
100
AcDbSymbolTableRecord
100
AcDbLinetypeTableRecord
  2
BYBLOCK
 70
0
  3

 72
65
 73
0
 40
0.0
  0
LTYPE
  5
15
100
AcDbSymbolTableRecord
100
AcDbLinetypeTableRecord
  2
BYLAYER
 70
0
  3

 72
65
 73
0
 40
0.0
  0
LTYPE
  5
16
100
AcDbSymbolTableRecord
100
AcDbLinetypeTableRecord
  2
CONTINUOUS
 70
64
  3
Solid line
 72
65
 73
0
 40
0.0
  0
LTYPE
  5
1F5
100
AcDbSymbolTableRecord
100
AcDbLinetypeTableRecord
  2
CENTER
 70
64
  3
____ _ ____ _ ____ _ ____ _ ____ _ ____ _ ____
 72
65
 73
4
 40
0.6
 49
0.375
 74
0
 49
-0.075
 74
0
 49
0.075
 74
0
 49
-0.075
 74
0
  0
LTYPE
  5
1F6
100
AcDbSymbolTableRecord
100
AcDbLinetypeTableRecord
  2
HIDDEN
 70
64
  3
- - - - - - - - - - - - - - - - - - - -
 72
65
 73
2
 40
0.2
 49
0.1
 74
0
 49
-0.1
 74
0
  0
LTYPE
  5
1F7
100
AcDbSymbolTableRecord
100
AcDbLinetypeTableRecord
  2
PHANTOM
 70
64
  3
_____ _ _ _____ _ _ _____ _ _ _____
 72
65
 73
6
 40
0.8
 49
0.45
 74
0
 49
-0.05
 74
0
 49
0.1
 74
0
 49
-0.05
 74
0
 49
0.1
 74
0
 49
-0.05
 74
0
  0
LTYPE
  5
1F8
100
AcDbSymbolTableRecord
100
AcDbLinetypeTableRecord
  2
DOT
 70
64
  3
. . . . . . . . . . . . . . . . . . . .
 72
65
 73
2
 40
0.2
 49
0.1
 74
0
 49
-0.1
 74
0
  0
LTYPE
  5
1F9
100
AcDbSymbolTableRecord
100
AcDbLinetypeTableRecord
  2
DASHED
 70
64
  3
- - - - - - - - - - - - - - - - - - - -
 72
65
 73
2
 40
0.2
 49
0.1
 74
0
 49
-0.1
 74
0
  0
ENDTAB
  0
TABLE
  2
LAYER
  5
2
100
AcDbSymbolTable
 70
36
  0
LAYER
  5
10
100
AcDbSymbolTableRecord
100
AcDbLayerTableRecord
  2
0
 70
0
 62
7
  6
CONTINUOUS
370
-3
390
F
  0
LAYER
  5
1FA
100
AcDbSymbolTableRecord
100
AcDbLayerTableRecord
  2
DEFAULT_1
 70
0
 62
7
  6
CENTER
370
-3
390
F
  0
LAYER
  5
1FB
100
AcDbSymbolTableRecord
100
AcDbLayerTableRecord
  2
DEFAULT_2
 70
0
 62
7
  6
HIDDEN
370
-3
390
F
  0
LAYER
  5
1FC
100
AcDbSymbolTableRecord
100
AcDbLayerTableRecord
  2
DEFAULT_3
 70
0
 62
7
  6
PHANTOM
370
-3
390
F
  0
LAYER
  5
1FD
100
AcDbSymbolTableRecord
100
AcDbLayerTableRecord
  2
ASSI
 70
0
 62
7
  6
CONTINUOUS
370
-3
390
F
  0
LAYER
  5
1FE
100
AcDbSymbolTableRecord
100
AcDbLayerTableRecord
  2
COLOR5
 70
0
 62
7
  6
CONTINUOUS
370
-3
390
F
  0
LAYER
  5
1FF
100
AcDbSymbolTableRecord
100
AcDbLayerTableRecord
  2
COORDINATE
 70
0
 62
7
  6
CONTINUOUS
370
-3
390
F
  0
LAYER
  5
200
100
AcDbSymbolTableRecord
100
AcDbLayerTableRecord
  2
COORD_ORIGINE
 70
0
 62
7
  6
CONTINUOUS
370
-3
390
F
  0
LAYER
  5
201
100
AcDbSymbolTableRecord
100
AcDbLayerTableRecord
  2
COPY_PUBLISH
 70
0
 62
7
  6
CONTINUOUS
370
-3
390
F
  0
LAYER
  5
202
100
AcDbSymbolTableRecord
100
AcDbLayerTableRecord
  2
COSMETIC
 70
0
 62
7
  6
CONTINUOUS
370
-3
390
F
  0
LAYER
  5
203
100
AcDbSymbolTableRecord
100
AcDbLayerTableRecord
  2
CURVE
 70
0
 62
7
  6
CONTINUOUS
370
-3
390
F
  0
LAYER
  5
204
100
AcDbSymbolTableRecord
100
AcDbLayerTableRecord
  2
DRAFT
 70
0
 62
7
  6
CONTINUOUS
370
-3
390
F
  0
LAYER
  5
205
100
AcDbSymbolTableRecord
100
AcDbLayerTableRecord
  2
IMPORT_IGES
 70
0
 62
7
  6
CONTINUOUS
370
-3
390
F
  0
LAYER
  5
206
100
AcDbSymbolTableRecord
100
AcDbLayerTableRecord
  2
INTF_1
 70
0
 62
7
  6
CONTINUOUS
370
-3
390
F
  0
LAYER
  5
207
100
AcDbSymbolTableRecord
100
AcDbLayerTableRecord
  2
INTF_2
 70
0
 62
7
  6
CONTINUOUS
370
-3
390
F
  0
LAYER
  5
208
100
AcDbSymbolTableRecord
100
AcDbLayerTableRecord
  2
NOTE
 70
0
 62
7
  6
CONTINUOUS
370
-3
390
F
  0
LAYER
  5
209
100
AcDbSymbolTableRecord
100
AcDbLayerTableRecord
  2
PIANI
 70
0
 62
7
  6
CONTINUOUS
370
-3
390
F
  0
LAYER
  5
20A
100
AcDbSymbolTableRecord
100
AcDbLayerTableRecord
  2
PIANI_ORIGINE
 70
0
 62
7
  6
CONTINUOUS
370
-3
390
F
  0
LAYER
  5
20B
100
AcDbSymbolTableRecord
100
AcDbLayerTableRecord
  2
PUNTI
 70
0
 62
7
  6
CONTINUOUS
370
-3
390
F
  0
LAYER
  5
20C
100
AcDbSymbolTableRecord
100
AcDbLayerTableRecord
  2
PUNZONI
 70
0
 62
7
  6
CONTINUOUS
370
-3
390
F
  0
LAYER
  5
20D
100
AcDbSymbolTableRecord
100
AcDbLayerTableRecord
  2
RACCORDO
 70
0
 62
7
  6
CONTINUOUS
370
-3
390
F
  0
LAYER
  5
20E
100
AcDbSymbolTableRecord
100
AcDbLayerTableRecord
  2
RGB__0__0__0__
 70
0
 62
7
  6
CONTINUOUS
370
-3
390
F
  0
LAYER
  5
20F
100
AcDbSymbolTableRecord
100
AcDbLayerTableRecord
  2
RGB__255__255__255__
 70
0
 62
7
  6
CONTINUOUS
370
-3
390
F
  0
LAYER
  5
210
100
AcDbSymbolTableRecord
100
AcDbLayerTableRecord
  2
RGB____0____0____0__
 70
0
 62
7
  6
CONTINUOUS
370
-3
390
F
  0
LAYER
  5
211
100
AcDbSymbolTableRecord
100
AcDbLayerTableRecord
  2
SMUSSO
 70
0
 62
7
  6
CONTINUOUS
370
-3
390
F
  0
LAYER
  5
212
100
AcDbSymbolTableRecord
100
AcDbLayerTableRecord
  2
SNAPLINE
 70
0
 62
7
  6
CONTINUOUS
370
-3
390
F
  0
LAYER
  5
213
100
AcDbSymbolTableRecord
100
AcDbLayerTableRecord
  2
SUPERFICI
 70
0
 62
7
  6
CONTINUOUS
370
-3
390
F
  0
LAYER
  5
214
100
AcDbSymbolTableRecord
100
AcDbLayerTableRecord
  2
TRASH
 70
0
 62
7
  6
CONTINUOUS
370
-3
390
F
  0
LAYER
  5
215
100
AcDbSymbolTableRecord
100
AcDbLayerTableRecord
  2
XSEC_DATUMS
 70
0
 62
7
  6
CONTINUOUS
370
-3
390
F
  0
ENDTAB
  0
TABLE
  2
STYLE
  5
3
100
AcDbSymbolTable
 70
1
  0
STYLE
  5
11
100
AcDbSymbolTableRecord
100
AcDbTextStyleTableRecord
  2
STANDARD
 70
0
 40
0.0
 41
0.8
 50
0.0
 71
0
 42
0.2
  3
txt
  4

  0
STYLE
  5
216
100
AcDbSymbolTableRecord
100
AcDbTextStyleTableRecord
  2
TEXTSTYLE_1
 70
0
 40
0.0
 41
0.8
 50
0.0
 71
0
 42
0.2
  3
gdt
  4

  0
ENDTAB
  0
TABLE
  2
VIEW
  5
6
100
AcDbSymbolTable
 70
0
  0
ENDTAB
  0
TABLE
  2
UCS
  5
7
100
AcDbSymbolTable
 70
0
  0
ENDTAB
  0
TABLE
  2
APPID
  5
9
100
AcDbSymbolTable
 70
1
  0
APPID
  5
217
100
AcDbSymbolTableRecord
100
AcDbRegAppTableRecord
  2
ACAD
 70
0
  0
ENDTAB
  0
TABLE
  2
BLOCK_RECORD
  5
1
100
AcDbSymbolTable
 70
0
  0
BLOCK_RECORD
  5
218
100
AcDbSymbolTableRecord
100
AcDbBlockTableRecord
  2
*Model_Space
  0
BLOCK_RECORD
  5
219
100
AcDbSymbolTableRecord
100
AcDbBlockTableRecord
  2
*Paper_Space
  0
BLOCK_RECORD
  5
21A
100
AcDbSymbolTableRecord
100
AcDbBlockTableRecord
  2
_FILLED
  0
BLOCK_RECORD
  5
21B
100
AcDbSymbolTableRecord
100
AcDbBlockTableRecord
  2
*D0
  0
BLOCK_RECORD
  5
21C
100
AcDbSymbolTableRecord
100
AcDbBlockTableRecord
  2
*D1
  0
BLOCK_RECORD
  5
21D
100
AcDbSymbolTableRecord
100
AcDbBlockTableRecord
  2
*D2
  0
BLOCK_RECORD
  5
21E
100
AcDbSymbolTableRecord
100
AcDbBlockTableRecord
  2
*D3
  0
ENDTAB
  0
TABLE
  2
DIMSTYLE
  5
A
100
AcDbSymbolTable
 70
1
100
AcDbDimStyleTable
 71
0
  0
DIMSTYLE
105
21F
100
AcDbSymbolTableRecord
100
AcDbDimStyleTableRecord
  2
STANDARD
 70
0
  3

  4

 40
1.0
 41
3.0
 42
0.0625
 43
0.38
 44
0.18
 45
0.0
 46
0.0
 47
0.01
 48
0.01
140
3.0
141
0.09
142
0.0
143
25.4
144
1.0
145
0.0
146
1.0
147
0.09
 71
1.0
 72
0.0
 73
0
 74
0
 75
0
 76
0
 77
1
 78
8
170
0
171
2
172
0
173
0
174
0
175
0
176
0
177
0
178
0
270
2
271
2
272
2
273
2
274
2
275
0
280
0
281
0
282
0
283
1
284
8
285
0
286
0
287
3
288
0
340
11
341
21A
342
21A
343
21A
344
21A
  0
DIMSTYLE
105
220
100
AcDbSymbolTableRecord
100
AcDbDimStyleTableRecord
  2
DIMSTYLE_1
 70
0
  3

  4

 40
1.0
 41
3.0
 42
0.0625
 43
0.38
 44
0.18
 45
0.0
 46
0.0
 47
0.0
 48
0.0
140
3.0
141
0.09
142
0.0
143
25.4
144
1.0
145
0.0
146
1.0
147
0.09
 71
0.0
 72
0.0
 73
0
 74
0
 75
0
 76
0
 77
1
 78
8
170
0
171
2
172
0
173
0
174
0
175
0
176
0
177
0
178
0
270
2
271
2
272
2
273
2
274
2
275
0
280
0
281
0
282
0
283
1
284
8
285
0
286
0
287
3
288
0
340
11
341
21A
342
21A
343
21A
344
21A
  0
DIMSTYLE
105
221
100
AcDbSymbolTableRecord
100
AcDbDimStyleTableRecord
  2
DIMSTYLE_2
 70
0
  3

  4

 40
1.0
 41
3.0
 42
0.0625
 43
0.38
 44
0.18
 45
0.0
 46
0.0
 47
0.0
 48
0.0
140
3.0
141
0.09
142
0.0
143
25.4
144
1.0
145
0.0
146
1.0
147
0.09
 71
0.0
 72
0.0
 73
0
 74
0
 75
0
 76
0
 77
1
 78
8
170
0
171
2
172
0
173
0
174
0
175
0
176
0
177
0
178
0
270
2
271
1
272
1
273
2
274
2
275
0
280
0
281
0
282
0
283
1
284
8
285
0
286
0
287
3
288
0
340
11
341
21A
342
21A
343
21A
344
21A
  0
DIMSTYLE
105
222
100
AcDbSymbolTableRecord
100
AcDbDimStyleTableRecord
  2
DIMSTYLE_3
 70
0
  3

  4

 40
1.0
 41
3.0
 42
0.0625
 43
0.38
 44
0.18
 45
0.0
 46
0.0
 47
0.0
 48
0.0
140
3.0
141
0.09
142
0.0
143
25.4
144
1.0
145
0.0
146
1.0
147
0.09
 71
0.0
 72
0.0
 73
0
 74
0
 75
0
 76
0
 77
1
 78
8
170
0
171
2
172
0
173
0
174
0
175
0
176
0
177
0
178
0
270
2
271
0
272
0
273
2
274
2
275
0
280
0
281
0
282
0
283
1
284
8
285
0
286
0
287
3
288
0
340
11
341
21A
342
21A
343
21A
344
21A
  0
ENDTAB
  0
ENDSEC
  0
SECTION
  2
BLOCKS
  0
BLOCK
  5
20
100
AcDbEntity
  8
0
100
AcDbBlockBegin
  2
*Model_Space
 70
0
 10
0.0
 20
0.0
 30
0.0
  3
*Model_Space
  1

  0
ENDBLK
  5
21
100
AcDbEntity
  8
0
100
AcDbBlockEnd
  0
BLOCK
  5
1C
100
AcDbEntity
  8
0
100
AcDbBlockBegin
  2
*Paper_Space
 70
0
 10
0.0
 20
0.0
 30
0.0
  3
*Paper_Space
  1

  0
ENDBLK
  5
1D
100
AcDbEntity
  8
0
100
AcDbBlockEnd
  0
BLOCK
  5
223
100
AcDbEntity
  8
0
100
AcDbBlockBegin
  2
_FILLED
 70
64
 10
0.0
 20
0.0
  3
_FILLED
  1

  0
SOLID
  5
224
100
AcDbEntity
  8
0
  6
BYBLOCK
 62
0
100
AcDbTrace
 10
0.0
 20
0.0
 11
-1.0
 21
0.3166666667
 12
-1.0
 22
-0.3166666667
 13
-1.0
 23
-0.3166666667
  0
ENDBLK
  5
225
100
AcDbEntity
  8
0
  6
BYBLOCK
 62
0
100
AcDbBlockEnd
  0
BLOCK
  5
226
100
AcDbEntity
  8
0
100
AcDbBlockBegin
 62
7
  6
CONTINUOUS
  2
*D0
 70
65
 10
0.0
 20
0.0
  3
*D0
  1

  0
MTEXT
  5
227
100
AcDbEntity
  8
0
100
AcDbMText
 62
7
  6
CONTINUOUS
  7
STANDARD
 71
2
 72
1
 10
0.0
 20
58.2498295816
 30
0.0
 11
1.0
 21
0.0
 31
0.0
 44
0.9
  1
68
 40
3.0
 41
4.7142857143
  0
LINE
  5
228
100
AcDbEntity
  8
0
100
AcDbLine
 62
7
  6
CONTINUOUS
 10
34.0
 20
35.5002275338
 11
34.0
 21
55.9998295816
  0
LINE
  5
229
100
AcDbEntity
  8
0
100
AcDbLine
 62
7
  6
CONTINUOUS
 10
-34.0
 20
35.5002275338
 11
-34.0
 21
55.9998295816
  0
LINE
  5
22A
100
AcDbEntity
  8
0
100
AcDbLine
 62
7
  6
CONTINUOUS
 10
34.0
 20
54.4998295816
 11
0.0
 21
54.4998295816
  0
LINE
  5
22B
100
AcDbEntity
  8
0
100
AcDbLine
 62
7
  6
CONTINUOUS
 10
-34.0
 20
54.4998295816
 11
0.0
 21
54.4998295816
  0
INSERT
  5
22C
100
AcDbEntity
  8
0
100
AcDbBlockReference
 62
7
  6
CONTINUOUS
  2
_FILLED
 10
34.0
 20
54.4998295816
 41
3.0
 42
3.0
 43
3.0
  0
INSERT
  5
22D
100
AcDbEntity
  8
0
100
AcDbBlockReference
 62
7
  6
CONTINUOUS
  2
_FILLED
 10
-34.0
 20
54.4998295816
 41
3.0
 42
3.0
 43
3.0
 50
180.0
  0
ENDBLK
  5
22E
100
AcDbEntity
  8
0
  6
BYBLOCK
 62
0
100
AcDbBlockEnd
  0
BLOCK
  5
22F
100
AcDbEntity
  8
0
100
AcDbBlockBegin
 62
7
  6
CONTINUOUS
  2
*D1
 70
65
 10
0.0
 20
0.0
  3
*D1
  1

  0
MTEXT
  5
230
100
AcDbEntity
  8
0
100
AcDbMText
 62
7
  6
CONTINUOUS
  7
STANDARD
 71
2
 72
1
 10
38.25
 20
-4.9998295816
 30
0.0
 11
0.0
 21
1.0
 31
0.0
 44
0.9
  1
83
 40
3.0
 41
4.5
  0
LINE
  5
231
100
AcDbEntity
  8
0
100
AcDbLine
 62
7
  6
CONTINUOUS
 10
33.0000571154
 20
36.5001704184
 11
43.5
 21
36.5001704184
  0
LINE
  5
232
100
AcDbEntity
  8
0
100
AcDbLine
 62
7
  6
CONTINUOUS
 10
33.0000571154
 20
-46.4998295816
 11
43.5
 21
-46.4998295816
  0
LINE
  5
233
100
AcDbEntity
  8
0
100
AcDbLine
 62
7
  6
CONTINUOUS
 10
42.0
 20
36.5001704184
 11
42.0
 21
-4.9998295816
  0
LINE
  5
234
100
AcDbEntity
  8
0
100
AcDbLine
 62
7
  6
CONTINUOUS
 10
42.0
 20
-46.4998295816
 11
42.0
 21
-4.9998295816
  0
INSERT
  5
235
100
AcDbEntity
  8
0
100
AcDbBlockReference
 62
7
  6
CONTINUOUS
  2
_FILLED
 10
42.0
 20
36.5001704184
 41
3.0
 42
3.0
 43
3.0
 50
90.0
  0
INSERT
  5
236
100
AcDbEntity
  8
0
100
AcDbBlockReference
 62
7
  6
CONTINUOUS
  2
_FILLED
 10
42.0
 20
-46.4998295816
 41
3.0
 42
3.0
 43
3.0
 50
270.0
  0
ENDBLK
  5
237
100
AcDbEntity
  8
0
  6
BYBLOCK
 62
0
100
AcDbBlockEnd
  0
BLOCK
  5
238
100
AcDbEntity
  8
0
100
AcDbBlockBegin
 62
7
  6
CONTINUOUS
  2
*D2
 70
65
 10
0.0
 20
0.0
  3
*D2
  1

  0
MTEXT
  5
239
100
AcDbEntity
  8
0
100
AcDbMText
 62
7
  6
CONTINUOUS
  7
STANDARD
 71
2
 72
1
 10
48.25
 20
-0.004360285
 30
0.0
 11
0.0
 21
1.0
 31
0.0
 44
0.9
  1
93
 40
3.0
 41
4.5
  0
LINE
  5
23A
100
AcDbEntity
  8
0
100
AcDbLine
 62
7
  6
CONTINUOUS
 10
33.0000571154
 20
-46.4998295816
 11
53.5
 21
-46.4998295816
  0
LINE
  5
23B
100
AcDbEntity
  8
0
100
AcDbLine
 62
7
  6
CONTINUOUS
 10
0.50348916
 20
46.4911090116
 11
53.5
 21
46.4911090116
  0
LINE
  5
23C
100
AcDbEntity
  8
0
100
AcDbLine
 62
7
  6
CONTINUOUS
 10
52.0
 20
-46.4998295816
 11
52.0
 21
-0.004360285
  0
LINE
  5
23D
100
AcDbEntity
  8
0
100
AcDbLine
 62
7
  6
CONTINUOUS
 10
52.0
 20
46.4911090116
 11
52.0
 21
-0.004360285
  0
INSERT
  5
23E
100
AcDbEntity
  8
0
100
AcDbBlockReference
 62
7
  6
CONTINUOUS
  2
_FILLED
 10
52.0
 20
-46.4998295816
 41
3.0
 42
3.0
 43
3.0
 50
270.0
  0
INSERT
  5
23F
100
AcDbEntity
  8
0
100
AcDbBlockReference
 62
7
  6
CONTINUOUS
  2
_FILLED
 10
52.0
 20
46.4911090116
 41
3.0
 42
3.0
 43
3.0
 50
90.0
  0
ENDBLK
  5
240
100
AcDbEntity
  8
0
  6
BYBLOCK
 62
0
100
AcDbBlockEnd
  0
BLOCK
  5
241
100
AcDbEntity
  8
0
100
AcDbBlockBegin
 62
7
  6
CONTINUOUS
  2
*D3
 70
65
 10
0.0
 20
0.0
  3
*D3
  1

  0
MTEXT
  5
242
100
AcDbEntity
  8
0
100
AcDbMText
 62
7
  6
CONTINUOUS
  7
STANDARD
 71
2
 72
1
 10
-83.417437485
 20
58.2498295816
 30
0.0
 11
1.0
 21
0.0
 31
0.0
 44
0.9
  1
65
 40
3.0
 41
4.5
  0
LINE
  5
243
100
AcDbEntity
  8
0
100
AcDbLine
 62
7
  6
CONTINUOUS
 10
-50.8174376654
 20
35.1598035346
 11
-50.8174376654
 21
55.9998295816
  0
LINE
  5
244
100
AcDbEntity
  8
0
100
AcDbLine
 62
7
  6
CONTINUOUS
 10
-116.0174373046
 20
-4.4998295804
 11
-116.0174373046
 21
55.9998295816
  0
LINE
  5
245
100
AcDbEntity
  8
0
100
AcDbLine
 62
7
  6
CONTINUOUS
 10
-50.8174376654
 20
54.4998295816
 11
-83.417437485
 21
54.4998295816
  0
LINE
  5
246
100
AcDbEntity
  8
0
100
AcDbLine
 62
7
  6
CONTINUOUS
 10
-116.0174373046
 20
54.4998295816
 11
-83.417437485
 21
54.4998295816
  0
INSERT
  5
247
100
AcDbEntity
  8
0
100
AcDbBlockReference
 62
7
  6
CONTINUOUS
  2
_FILLED
 10
-50.8174376654
 20
54.4998295816
 41
3.0
 42
3.0
 43
3.0
  0
INSERT
  5
248
100
AcDbEntity
  8
0
100
AcDbBlockReference
 62
7
  6
CONTINUOUS
  2
_FILLED
 10
-116.0174373046
 20
54.4998295816
 41
3.0
 42
3.0
 43
3.0
 50
180.0
  0
ENDBLK
  5
249
100
AcDbEntity
  8
0
  6
BYBLOCK
 62
0
100
AcDbBlockEnd
  0
ENDSEC
  0
SECTION
  2
ENTITIES
  0
DIMENSION
  5
24A
100
AcDbEntity
  8
0
100
AcDbDimension
 62
7
  6
CONTINUOUS
  2
*D0
 10
-34.0
 20
54.4998295816
 11
-2.3571428571
 21
56.7498295816
 70
160
 71
2
 42
68.0
  3
DIMSTYLE_1
100
AcDbAlignedDimension
 13
34.0
 23
35.5002275338
 14
-34.0
 24
35.5002275338
 50
180.0
100
AcDbRotatedDimension
  0
DIMENSION
  5
24B
100
AcDbEntity
  8
0
100
AcDbDimension
 62
7
  6
CONTINUOUS
  2
*D1
 10
42.0
 20
-46.4998295816
 11
40.7581656363
 21
-7.0113220747
 70
160
 71
2
 42
83.0
  3
DIMSTYLE_1
100
AcDbAlignedDimension
 13
33.0000571154
 23
36.5001704184
 14
33.0000571154
 24
-46.4998295816
 50
270.0
100
AcDbRotatedDimension
  0
DIMENSION
  5
24C
100
AcDbEntity
  8
0
100
AcDbDimension
 62
7
  6
CONTINUOUS
  2
*D2
 10
52.0
 20
46.4911090116
 11
50.7581656363
 21
-2.0158527781
 70
160
 71
2
 42
92.9909385932
  3
DIMSTYLE_2
100
AcDbAlignedDimension
 13
33.0000571154
 23
-46.4998295816
 14
0.50348916
 24
46.4911090116
 50
90.0
100
AcDbRotatedDimension
  0
DIMENSION
  5
24D
100
AcDbEntity
  8
0
100
AcDbDimension
 62
7
  6
CONTINUOUS
  2
*D3
 10
-116.0174373046
 20
54.4998295816
 11
-85.667437485
 21
56.7498295816
 70
160
 71
2
 42
65.1999996393
  3
DIMSTYLE_3
100
AcDbAlignedDimension
 13
-50.8174376654
 23
35.1598035346
 14
-116.0174373046
 24
-4.4998295804
 50
180.0
100
AcDbRotatedDimension
  0
LINE
  5
24E
100
AcDbEntity
  8
RACCORDO
100
AcDbLine
 62
7
  6
CONTINUOUS
 10
-32.5
 20
-46.4998295816
 11
-11.7
 21
-46.4998295816
  0
LINE
  5
24F
100
AcDbEntity
  8
RACCORDO
100
AcDbLine
 62
7
  6
CONTINUOUS
 10
11.7
 20
-46.4998295816
 11
32.5
 21
-46.4998295816
  0
LINE
  5
250
100
AcDbEntity
  8
ASSI
100
AcDbLine
 62
7
  6
CONTINUOUS
 10
11.7
 20
-46.4998295816
 11
-11.7
 21
-46.4998295816
  0
LINE
  5
251
100
AcDbEntity
  8
DRAFT
100
AcDbLine
 62
7
  6
CONTINUOUS
 10
-11.9258023047
 20
-46.4540203599
 11
-11.7
 21
-46.4540203599
  0
LINE
  5
252
100
AcDbEntity
  8
DRAFT
100
AcDbLine
 62
7
  6
CONTINUOUS
 10
11.7
 20
-46.4540203599
 11
11.9258023047
 21
-46.4540203599
  0
LINE
  5
253
100
AcDbEntity
  8
0
100
AcDbLine
 62
7
  6
CONTINUOUS
 10
-20.5
 20
-46.4169243376
 11
-15.5
 21
-46.4169243376
  0
LINE
  5
254
100
AcDbEntity
  8
0
100
AcDbLine
 62
7
  6
CONTINUOUS
 10
15.5
 20
-46.4169243376
 11
20.5
 21
-46.4169243376
  0
LINE
  5
255
100
AcDbEntity
  8
0
100
AcDbLine
 62
7
  6
CONTINUOUS
 10
20.5
 20
-46.3820168664
 11
15.5
 21
-46.3820168664
  0
LINE
  5
256
100
AcDbEntity
  8
0
100
AcDbLine
 62
7
  6
CONTINUOUS
 10
-15.5
 20
-46.3820168664
 11
-20.5
 21
-46.3820168664
  0
LINE
  5
257
100
AcDbEntity
  8
RACCORDO
100
AcDbLine
 62
253
  6
CONTINUOUS
 10
-32.3506257391
 20
-46.3503982053
 11
-12.1330642872
 21
-46.3503972609
  0
LINE
  5
258
100
AcDbEntity
  8
RACCORDO
100
AcDbLine
 62
253
  6
CONTINUOUS
 10
12.1330642872
 20
-46.3503972609
 11
32.3506257392
 21
-46.3503982054
  0
LINE
  5
259
100
AcDbEntity
  8
RACCORDO
100
AcDbLine
 62
7
  6
CONTINUOUS
 10
10.7
 20
-45.6891892981
 11
-10.7
 21
-45.6891892981
  0
LINE
  5
25A
100
AcDbEntity
  8
DRAFT
100
AcDbLine
 62
7
  6
CONTINUOUS
 10
-11.9258023047
 20
-46.4540203599
 11
-12.1330642872
 21
-46.3503972609
  0
LINE
  5
25B
100
AcDbEntity
  8
RACCORDO
100
AcDbLine
 62
253
  6
CONTINUOUS
 10
32.3095377557
 20
-41.8774102262
 11
32.3205171951
 21
-41.8772961447
  0
LINE
  5
25C
100
AcDbEntity
  8
RACCORDO
100
AcDbLine
 62
7
  6
CONTINUOUS
 10
32.2916321118
 20
-45.4090790908
 11
13.1659754449
 21
-45.4090790908
  0
LINE
  5
25D
100
AcDbEntity
  8
RACCORDO
100
AcDbLine
 62
7
  6
CONTINUOUS
 10
-13.1659754449
 20
-45.4090790908
 11
-32.2916321118
 21
-45.4090790908
  0
LINE
  5
25E
100
AcDbEntity
  8
RACCORDO
100
AcDbLine
 62
7
  6
CONTINUOUS
 10
-32.041641631
 20
-44.7914616934
 11
-13.1659754449
 21
-44.7914616934
  0
LINE
  5
25F
100
AcDbEntity
  8
RACCORDO
100
AcDbLine
 62
7
  6
CONTINUOUS
 10
13.1659754449
 20
-44.7914616934
 11
32.041641631
 21
-44.7914616934
  0
LINE
  5
260
100
AcDbEntity
  8
RACCORDO
100
AcDbLine
 62
7
  6
CONTINUOUS
 10
-31.9500095192
 20
-44.6998295816
 11
-20.5
 21
-44.6998295816
  0
LINE
  5
261
100
AcDbEntity
  8
DRAFT
100
AcDbLine
 62
7
  6
CONTINUOUS
 10
-15.5
 20
-44.6998295816
 11
-12.0
 21
-44.6998295816
  0
LINE
  5
262
100
AcDbEntity
  8
DRAFT
100
AcDbLine
 62
7
  6
CONTINUOUS
 10
12.0
 20
-44.6998295816
 11
15.5
 21
-44.6998295816
  0
LINE
  5
263
100
AcDbEntity
  8
RACCORDO
100
AcDbLine
 62
7
  6
CONTINUOUS
 10
20.5
 20
-44.6998295816
 11
31.9500095192
 21
-44.6998295816
  0
LINE
  5
264
100
AcDbEntity
  8
0
100
AcDbLine
 62
7
  6
CONTINUOUS
 10
20.0
 20
-44.4998295816
 11
16.0
 21
-44.4998295816
  0
LINE
  5
265
100
AcDbEntity
  8
ASSI
100
AcDbLine
 62
7
  6
CONTINUOUS
 10
31.9365490463
 20
-44.4998295816
 11
11.7
 21
-44.4998295816
  0
LINE
  5
266
100
AcDbEntity
  8
0
100
AcDbLine
 62
7
  6
CONTINUOUS
 10
-16.0
 20
-44.4998295816
 11
-20.0
 21
-44.4998295816
  0
LINE
  5
267
100
AcDbEntity
  8
ASSI
100
AcDbLine
 62
7
  6
CONTINUOUS
 10
-11.7
 20
-44.4998295816
 11
-31.9365490463
 21
-44.4998295816
  0
LINE
  5
268
100
AcDbEntity
  8
RACCORDO
100
AcDbLine
 62
7
  6
CONTINUOUS
 10
10.7
 20
-43.6891892981
 11
-10.7
 21
-43.6891892981
  0
LINE
  5
269
100
AcDbEntity
  8
RACCORDO
100
AcDbLine
 62
253
  6
CONTINUOUS
 10
-32.320517195
 20
-41.8772960322
 11
-32.3095377557
 21
-41.8774102262
  0
LINE
  5
26A
100
AcDbEntity
  8
0
100
AcDbLine
 62
7
  6
CONTINUOUS
 10
-21.90625
 20
-38.9466380939
 11
-21.6458334327
 21
-38.9998295816
  0
LINE
  5
26B
100
AcDbEntity
  8
0
100
AcDbLine
 62
7
  6
CONTINUOUS
 10
-19.6145831347
 20
-38.9466380939
 11
-19.3541668653
 21
-38.9998295816
  0
LINE
  5
26C
100
AcDbEntity
  8
0
100
AcDbLine
 62
7
  6
CONTINUOUS
 10
-21.6458334327
 20
-38.7338721292
 11
-21.8541665673
 21
-38.6806806462
  0
LINE
  5
26D
100
AcDbEntity
  8
0
100
AcDbLine
 62
7
  6
CONTINUOUS
 10
-19.3541668653
 20
-38.7338721292
 11
-19.5625
 21
-38.6806806462
  0
LINE
  5
26E
100
AcDbEntity
  8
0
100
AcDbLine
 62
7
  6
CONTINUOUS
 10
-21.3333334327
 20
-37.6700423571
 11
-21.125
 21
-37.7232338401
  0
LINE
  5
26F
100
AcDbEntity
  8
0
100
AcDbLine
 62
7
  6
CONTINUOUS
 10
-23.46875
 20
-36.7657869967
 11
-23.3125
 21
-36.8189784797
  0
LINE
  5
270
100
AcDbEntity
  8
0
100
AcDbLine
 62
7
  6
CONTINUOUS
 10
-22.1666665673
 20
-38.7870636309
 11
-21.90625
 21
-38.9466380939
  0
LINE
  5
271
100
AcDbEntity
  8
0
100
AcDbLine
 62
7
  6
CONTINUOUS
 10
-19.875
 20
-38.7870636309
 11
-19.6145831347
 21
-38.9466380939
  0
LINE
  5
272
100
AcDbEntity
  8
0
100
AcDbLine
 62
7
  6
CONTINUOUS
 10
-20.8125
 20
-37.616850874
 11
-21.0729165673
 21
-37.457276425
  0
LINE
  5
273
100
AcDbEntity
  8
0
100
AcDbLine
 62
7
  6
CONTINUOUS
 10
-18.5208331347
 20
-37.616850874
 11
-18.78125
 21
-37.457276425
  0
LINE
  5
274
100
AcDbEntity
  8
0
100
AcDbLine
 62
7
  6
CONTINUOUS
 10
-21.8541665673
 20
-38.6806806462
 11
-22.0104165673
 21
-38.5742976802
  0
LINE
  5
275
100
AcDbEntity
  8
0
100
AcDbLine
 62
7
  6
CONTINUOUS
 10
-21.125
 20
-37.7232338401
 11
-20.96875
 21
-37.8296168061
  0
LINE
  5
276
100
AcDbEntity
  8
0
100
AcDbLine
 62
7
  6
CONTINUOUS
 10
-19.5625
 20
-38.6806806462
 11
-19.71875
 21
-38.5742976802
  0
LINE
  5
277
100
AcDbEntity
  8
0
100
AcDbLine
 62
7
  6
CONTINUOUS
 10
-18.8333331347
 20
-37.7232338401
 11
-18.6770831347
 21
-37.8296168061
  0
LINE
  5
278
100
AcDbEntity
  8
0
100
AcDbLine
 62
7
  6
CONTINUOUS
 10
-23.0520832837
 20
-36.7125955137
 11
-23.2604167163
 21
-36.5530210646
  0
LINE
  5
279
100
AcDbEntity
  8
0
100
AcDbLine
 62
7
  6
CONTINUOUS
 10
-23.3125
 20
-36.8189784797
 11
-23.2083332837
 21
-36.9253614458
  0
LINE
  5
27A
100
AcDbEntity
  8
DRAFT
100
AcDbLine
 62
253
  6
CONTINUOUS
 10
31.8931342417
 20
-39.9998295816
 11
-31.8931342417
 21
-39.9998295816
  0
LINE
  5
27B
100
AcDbEntity
  8
0
100
AcDbLine
 62
7
  6
CONTINUOUS
 10
-25.5
 20
-38.9998295816
 11
-25.1875
 21
-38.9998295816
  0
LINE
  5
27C
100
AcDbEntity
  8
0
100
AcDbLine
 62
7
  6
CONTINUOUS
 10
-24.7708333582
 20
-38.9998295816
 11
-24.4583333582
 21
-38.9998295816
  0
LINE
  5
27D
100
AcDbEntity
  8
0
100
AcDbLine
 62
7
  6
CONTINUOUS
 10
-21.6458334327
 20
-38.9998295816
 11
-21.3333334327
 21
-38.9998295816
  0
LINE
  5
27E
100
AcDbEntity
  8
0
100
AcDbLine
 62
7
  6
CONTINUOUS
 10
-19.3541668653
 20
-38.9998295816
 11
-19.0416668653
 21
-38.9998295816
  0
LINE
  5
27F
100
AcDbEntity
  8
0
100
AcDbLine
 62
7
  6
CONTINUOUS
 10
14.8333333582
 20
-38.9998295816
 11
15.25
 21
-38.9998295816
  0
LINE
  5
280
100
AcDbEntity
  8
0
100
AcDbLine
 62
7
  6
CONTINUOUS
 10
16.5
 20
-38.9998295816
 11
16.8125
 21
-38.9998295816
  0
LINE
  5
281
100
AcDbEntity
  8
0
100
AcDbLine
 62
7
  6
CONTINUOUS
 10
17.2291665673
 20
-38.9998295816
 11
17.5416665673
 21
-38.9998295816
  0
LINE
  5
282
100
AcDbEntity
  8
0
100
AcDbLine
 62
7
  6
CONTINUOUS
 10
18.2708334327
 20
-38.9998295816
 11
18.6875
 21
-38.9998295816
  0
LINE
  5
283
100
AcDbEntity
  8
0
100
AcDbLine
 62
7
  6
CONTINUOUS
 10
19.4166668653
 20
-38.9998295816
 11
19.7291668653
 21
-38.9998295816
  0
LINE
  5
284
100
AcDbEntity
  8
0
100
AcDbLine
 62
7
  6
CONTINUOUS
 10
20.1458331347
 20
-38.9998295816
 11
20.4583331347
 21
-38.9998295816
  0
LINE
  5
285
100
AcDbEntity
  8
0
100
AcDbLine
 62
7
  6
CONTINUOUS
 10
21.9166668653
 20
-38.9998295816
 11
22.2291668653
 21
-38.9998295816
  0
LINE
  5
286
100
AcDbEntity
  8
0
100
AcDbLine
 62
7
  6
CONTINUOUS
 10
22.6458331347
 20
-38.9998295816
 11
22.9583331347
 21
-38.9998295816
  0
LINE
  5
287
100
AcDbEntity
  8
0
100
AcDbLine
 62
7
  6
CONTINUOUS
 10
24.2604162693
 20
-38.9998295816
 11
24.625
 21
-38.9998295816
  0
LINE
  5
288
100
AcDbEntity
  8
0
100
AcDbLine
 62
7
  6
CONTINUOUS
 10
-19.0416668653
 20
-38.7338721292
 11
-19.3541668653
 21
-38.7338721292
  0
LINE
  5
289
100
AcDbEntity
  8
0
100
AcDbLine
 62
7
  6
CONTINUOUS
 10
-21.3333334327
 20
-38.7338721292
 11
-21.6458334327
 21
-38.7338721292
  0
LINE
  5
28A
100
AcDbEntity
  8
0
100
AcDbLine
 62
7
  6
CONTINUOUS
 10
-19.8229168653
 20
-38.3615317108
 11
-20.1354168653
 21
-38.3615317108
  0
LINE
  5
28B
100
AcDbEntity
  8
0
100
AcDbLine
 62
7
  6
CONTINUOUS
 10
20.6666668653
 20
-38.3615317108
 11
21.7083331347
 21
-38.3615317108
  0
LINE
  5
28C
100
AcDbEntity
  8
0
100
AcDbLine
 62
7
  6
CONTINUOUS
 10
-22.1145834327
 20
-38.3615317108
 11
-22.4270834327
 21
-38.3615317108
  0
LINE
  5
28D
100
AcDbEntity
  8
0
100
AcDbLine
 62
7
  6
CONTINUOUS
 10
21.65625
 20
-38.1487657788
 11
20.71875
 21
-38.1487657788
  0
LINE
  5
28E
100
AcDbEntity
  8
0
100
AcDbLine
 62
7
  6
CONTINUOUS
 10
-21.0729165673
 20
-37.457276425
 11
-21.3333334327
 21
-37.404084942
  0
LINE
  5
28F
100
AcDbEntity
  8
0
100
AcDbLine
 62
7
  6
CONTINUOUS
 10
-23.2604167163
 20
-36.5530210646
 11
-23.5208332837
 21
-36.4998295816
  0
LINE
  5
290
100
AcDbEntity
  8
0
100
AcDbLine
 62
7
  6
CONTINUOUS
 10
-18.78125
 20
-37.457276425
 11
-19.0416668653
 21
-37.404084942
  0
LINE
  5
291
100
AcDbEntity
  8
0
100
AcDbLine
 62
7
  6
CONTINUOUS
 10
-19.0416668653
 20
-37.6700423571
 11
-18.8333331347
 21
-37.7232338401
  0
LINE
  5
292
100
AcDbEntity
  8
0
100
AcDbLine
 62
7
  6
CONTINUOUS
 10
-22.3229165673
 20
-38.5742976802
 11
-22.1666665673
 21
-38.7870636309
  0
LINE
  5
293
100
AcDbEntity
  8
0
100
AcDbLine
 62
7
  6
CONTINUOUS
 10
-22.8958334327
 20
-36.9253614458
 11
-23.0520832837
 21
-36.7125955137
  0
LINE
  5
294
100
AcDbEntity
  8
0
100
AcDbLine
 62
7
  6
CONTINUOUS
 10
-20.65625
 20
-37.8296168061
 11
-20.8125
 21
-37.616850874
  0
LINE
  5
295
100
AcDbEntity
  8
0
100
AcDbLine
 62
7
  6
CONTINUOUS
 10
-20.03125
 20
-38.5742976802
 11
-19.875
 21
-38.7870636309
  0
LINE
  5
296
100
AcDbEntity
  8
0
100
AcDbLine
 62
7
  6
CONTINUOUS
 10
-20.96875
 20
-37.8296168061
 11
-20.8645834327
 21
-37.9891912552
  0
LINE
  5
297
100
AcDbEntity
  8
RACCORDO
100
AcDbLine
 62
7
  6
CONTINUOUS
 10
-31.9968134915
 20
-43.914773345
 11
-31.940352844
 21
-44.4808030721
  0
LINE
  5
298
100
AcDbEntity
  8
0
100
AcDbLine
 62
7
  6
CONTINUOUS
 10
-19.0416668653
 20
-38.9998295816
 11
-18.78125
 21
-38.9466380939
  0
LINE
  5
299
100
AcDbEntity
  8
0
100
AcDbLine
 62
7
  6
CONTINUOUS
 10
-24.4583333582
 20
-37.8828082891
 11
-23.5208332837
 21
-37.8828082891
  0
LINE
  5
29A
100
AcDbEntity
  8
0
100
AcDbLine
 62
7
  6
CONTINUOUS
 10
-22.4270834327
 20
-37.8828082891
 11
-22.0625
 21
-37.8828082891
  0
LINE
  5
29B
100
AcDbEntity
  8
0
100
AcDbLine
 62
7
  6
CONTINUOUS
 10
-20.1354168653
 20
-37.8828082891
 11
-19.7708331347
 21
-37.8828082891
  0
LINE
  5
29C
100
AcDbEntity
  8
0
100
AcDbLine
 62
7
  6
CONTINUOUS
 10
22.9583331347
 20
-37.8828082891
 11
23.84375
 21
-37.8828082891
  0
LINE
  5
29D
100
AcDbEntity
  8
0
100
AcDbLine
 62
7
  6
CONTINUOUS
 10
-21.6458334327
 20
-37.6700423571
 11
-21.3333334327
 21
-37.6700423571
  0
LINE
  5
29E
100
AcDbEntity
  8
0
100
AcDbLine
 62
7
  6
CONTINUOUS
 10
-19.3541668653
 20
-37.6700423571
 11
-19.0416668653
 21
-37.6700423571
  0
LINE
  5
29F
100
AcDbEntity
  8
0
100
AcDbLine
 62
7
  6
CONTINUOUS
 10
23.9479168653
 20
-37.563659391
 11
22.9583331347
 21
-37.563659391
  0
LINE
  5
2A0
100
AcDbEntity
  8
0
100
AcDbLine
 62
7
  6
CONTINUOUS
 10
-23.46875
 20
-37.563659391
 11
-24.4583333582
 21
-37.563659391
  0
LINE
  5
2A1
100
AcDbEntity
  8
0
100
AcDbLine
 62
7
  6
CONTINUOUS
 10
-19.0416668653
 20
-37.404084942
 11
-19.3541668653
 21
-37.404084942
  0
LINE
  5
2A2
100
AcDbEntity
  8
0
100
AcDbLine
 62
7
  6
CONTINUOUS
 10
-21.3333334327
 20
-37.404084942
 11
-21.6458334327
 21
-37.404084942
  0
LINE
  5
2A3
100
AcDbEntity
  8
0
100
AcDbLine
 62
7
  6
CONTINUOUS
 10
-24.4583333582
 20
-36.7657869967
 11
-23.46875
 21
-36.7657869967
  0
LINE
  5
2A4
100
AcDbEntity
  8
0
100
AcDbLine
 62
7
  6
CONTINUOUS
 10
-22.1666665673
 20
-36.7657869967
 11
-20.65625
 21
-36.7657869967
  0
LINE
  5
2A5
100
AcDbEntity
  8
0
100
AcDbLine
 62
7
  6
CONTINUOUS
 10
-19.875
 20
-36.7657869967
 11
-18.3645831347
 21
-36.7657869967
  0
LINE
  5
2A6
100
AcDbEntity
  8
0
100
AcDbLine
 62
7
  6
CONTINUOUS
 10
22.9583331347
 20
-36.7657869967
 11
23.9479168653
 21
-36.7657869967
  0
LINE
  5
2A7
100
AcDbEntity
  8
0
100
AcDbLine
 62
7
  6
CONTINUOUS
 10
23.8958331347
 20
-36.4998295816
 11
22.6458331347
 21
-36.4998295816
  0
LINE
  5
2A8
100
AcDbEntity
  8
0
100
AcDbLine
 62
7
  6
CONTINUOUS
 10
21.3958331347
 20
-36.4998295816
 11
20.9791668653
 21
-36.4998295816
  0
LINE
  5
2A9
100
AcDbEntity
  8
0
100
AcDbLine
 62
7
  6
CONTINUOUS
 10
19.7291668653
 20
-36.4998295816
 11
19.2604168653
 21
-36.4998295816
  0
LINE
  5
2AA
100
AcDbEntity
  8
0
100
AcDbLine
 62
7
  6
CONTINUOUS
 10
17.6979165673
 20
-36.4998295816
 11
17.2291665673
 21
-36.4998295816
  0
LINE
  5
2AB
100
AcDbEntity
  8
0
100
AcDbLine
 62
7
  6
CONTINUOUS
 10
16.8125
 20
-36.4998295816
 11
16.5
 21
-36.4998295816
  0
LINE
  5
2AC
100
AcDbEntity
  8
0
100
AcDbLine
 62
7
  6
CONTINUOUS
 10
16.0833332837
 20
-36.4998295816
 11
15.7708332837
 21
-36.4998295816
  0
LINE
  5
2AD
100
AcDbEntity
  8
0
100
AcDbLine
 62
7
  6
CONTINUOUS
 10
14.3125
 20
-36.4998295816
 11
14.0
 21
-36.4998295816
  0
LINE
  5
2AE
100
AcDbEntity
  8
0
100
AcDbLine
 62
7
  6
CONTINUOUS
 10
-18.3645831347
 20
-36.4998295816
 11
-20.1354168653
 21
-36.4998295816
  0
LINE
  5
2AF
100
AcDbEntity
  8
0
100
AcDbLine
 62
7
  6
CONTINUOUS
 10
-20.65625
 20
-36.4998295816
 11
-22.4270834327
 21
-36.4998295816
  0
LINE
  5
2B0
100
AcDbEntity
  8
0
100
AcDbLine
 62
7
  6
CONTINUOUS
 10
-23.5208332837
 20
-36.4998295816
 11
-24.7708333582
 21
-36.4998295816
  0
LINE
  5
2B1
100
AcDbEntity
  8
0
100
AcDbLine
 62
7
  6
CONTINUOUS
 10
-25.1875
 20
-36.4998295816
 11
-25.5
 21
-36.4998295816
  0
LINE
  5
2B2
100
AcDbEntity
  8
RACCORDO
100
AcDbLine
 62
253
  6
CONTINUOUS
 10
-27.3570779279
 20
-35.0105728924
 11
27.3570779279
 21
-35.0105728924
  0
LINE
  5
2B3
100
AcDbEntity
  8
RACCORDO
100
AcDbLine
 62
253
  6
CONTINUOUS
 10
26.9424651066
 20
-34.7965812065
 11
-26.9425285754
 21
-34.7966602007
  0
LINE
  5
2B4
100
AcDbEntity
  8
RACCORDO
100
AcDbLine
 62
7
  6
CONTINUOUS
 10
12.1661277497
 20
-44.7828871304
 11
12.0
 21
-44.6998295816
  0
LINE
  5
2B5
100
AcDbEntity
  8
0
100
AcDbLine
 62
7
  6
CONTINUOUS
 10
-18.3645831347
 20
-37.8296168061
 11
-18.5208331347
 21
-37.616850874
  0
LINE
  5
2B6
100
AcDbEntity
  8
0
100
AcDbLine
 62
7
  6
CONTINUOUS
 10
-18.6770831347
 20
-37.8296168061
 11
-18.5729168653
 21
-37.9891912552
  0
LINE
  5
2B7
100
AcDbEntity
  8
0
100
AcDbLine
 62
7
  6
CONTINUOUS
 10
-22.4270834327
 20
-38.3615317108
 11
-22.3229165673
 21
-38.5742976802
  0
LINE
  5
2B8
100
AcDbEntity
  8
0
100
AcDbLine
 62
7
  6
CONTINUOUS
 10
-22.0104165673
 20
-38.5742976802
 11
-22.1145834327
 21
-38.3615317108
  0
LINE
  5
2B9
100
AcDbEntity
  8
0
100
AcDbLine
 62
7
  6
CONTINUOUS
 10
-20.1354168653
 20
-38.3615317108
 11
-20.03125
 21
-38.5742976802
  0
LINE
  5
2BA
100
AcDbEntity
  8
0
100
AcDbLine
 62
7
  6
CONTINUOUS
 10
-19.71875
 20
-38.5742976802
 11
-19.8229168653
 21
-38.3615317108
  0
LINE
  5
2BB
100
AcDbEntity
  8
RACCORDO
100
AcDbLine
 62
253
  6
CONTINUOUS
 10
-32.3205172227
 20
31.8776412019
 11
-32.3150393266
 21
25.343581566
  0
LINE
  5
2BC
100
AcDbEntity
  8
RACCORDO
100
AcDbLine
 62
7
  6
CONTINUOUS
 10
-34.0
 20
35.0001704184
 11
-34.0
 21
-44.9998295816
  0
LINE
  5
2BD
100
AcDbEntity
  8
RACCORDO
100
AcDbLine
 62
7
  6
CONTINUOUS
 10
-32.2916321118
 20
-45.4090790908
 11
-32.2916321118
 21
-44.5414712126
  0
LINE
  5
2BE
100
AcDbEntity
  8
RACCORDO
100
AcDbLine
 62
7
  6
CONTINUOUS
 10
-32.2916321118
 20
34.5418120494
 11
-32.2916321118
 21
35.4094199276
  0
LINE
  5
2BF
100
AcDbEntity
  8
RACCORDO
100
AcDbLine
 62
7
  6
CONTINUOUS
 10
-32.2
 20
34.4501799376
 11
-32.2
 21
-44.4498391008
  0
LINE
  5
2C0
100
AcDbEntity
  8
RACCORDO
100
AcDbLine
 62
7
  6
CONTINUOUS
 10
-32.0
 20
27.5001704184
 11
-32.0
 21
-43.5162954658
  0
LINE
  5
2C1
100
AcDbEntity
  8
RACCORDO
100
AcDbLine
 62
253
  6
CONTINUOUS
 10
-32.3150393266
 20
-35.3432407292
 11
-32.3205172189
 21
-41.8772960321
  0
LINE
  5
2C2
100
AcDbEntity
  8
0
100
AcDbLine
 62
7
  6
CONTINUOUS
 10
-18.8333331347
 20
-38.6806806462
 11
-19.0416668653
 21
-38.7338721292
  0
LINE
  5
2C3
100
AcDbEntity
  8
0
100
AcDbLine
 62
7
  6
CONTINUOUS
 10
-21.125
 20
-38.6806806462
 11
-21.3333334327
 21
-38.7338721292
  0
LINE
  5
2C4
100
AcDbEntity
  8
0
100
AcDbLine
 62
7
  6
CONTINUOUS
 10
-19.5625
 20
-37.7232338401
 11
-19.3541668653
 21
-37.6700423571
  0
LINE
  5
2C5
100
AcDbEntity
  8
0
100
AcDbLine
 62
7
  6
CONTINUOUS
 10
-21.8541665673
 20
-37.7232338401
 11
-21.6458334327
 21
-37.6700423571
  0
LINE
  5
2C6
100
AcDbEntity
  8
0
100
AcDbLine
 62
7
  6
CONTINUOUS
 10
-21.3333334327
 20
-38.9998295816
 11
-21.0729165673
 21
-38.9466380939
  0
LINE
  5
2C7
100
AcDbEntity
  8
0
100
AcDbLine
 62
7
  6
CONTINUOUS
 10
-19.3541668653
 20
-37.404084942
 11
-19.6145831347
 21
-37.457276425
  0
LINE
  5
2C8
100
AcDbEntity
  8
0
100
AcDbLine
 62
7
  6
CONTINUOUS
 10
-23.5208332837
 20
-37.8828082891
 11
-23.2604167163
 21
-37.8296168061
  0
LINE
  5
2C9
100
AcDbEntity
  8
0
100
AcDbLine
 62
7
  6
CONTINUOUS
 10
-21.6458334327
 20
-37.404084942
 11
-21.90625
 21
-37.457276425
  0
LINE
  5
2CA
100
AcDbEntity
  8
0
100
AcDbLine
 62
7
  6
CONTINUOUS
 10
24.15625
 20
-36.5530210646
 11
23.8958331347
 21
-36.4998295816
  0
LINE
  5
2CB
100
AcDbEntity
  8
0
100
AcDbLine
 62
7
  6
CONTINUOUS
 10
-20.5520834327
 20
-38.0955742957
 11
-20.65625
 21
-37.8296168061
  0
LINE
  5
2CC
100
AcDbEntity
  8
0
100
AcDbLine
 62
7
  6
CONTINUOUS
 10
-18.2604168653
 20
-38.0955742957
 11
-18.3645831347
 21
-37.8296168061
  0
LINE
  5
2CD
100
AcDbEntity
  8
0
100
AcDbLine
 62
7
  6
CONTINUOUS
 10
-23.2083332837
 20
-36.9253614458
 11
-23.15625
 21
-37.0849358948
  0
LINE
  5
2CE
100
AcDbEntity
  8
0
100
AcDbLine
 62
7
  6
CONTINUOUS
 10
-22.84375
 20
-37.0849358948
 11
-22.8958334327
 21
-36.9253614458
  0
LINE
  5
2CF
100
AcDbEntity
  8
0
100
AcDbLine
 62
7
  6
CONTINUOUS
 10
-20.8645834327
 20
-37.9891912552
 11
-20.8125
 21
-38.1487657788
  0
LINE
  5
2D0
100
AcDbEntity
  8
RACCORDO
100
AcDbLine
 62
7
  6
CONTINUOUS
 10
26.2988669832
 20
-28.7998295816
 11
-26.3
 21
-28.7998295816
  0
LINE
  5
2D1
100
AcDbEntity
  8
RACCORDO
100
AcDbLine
 62
253
  6
CONTINUOUS
 10
25.8
 20
-28.3331152959
 11
-25.8
 21
-28.3331152959
  0
LINE
  5
2D2
100
AcDbEntity
  8
DRAFT
100
AcDbLine
 62
7
  6
CONTINUOUS
 10
-26.7625059283
 20
-28.2998295816
 11
-26.3
 21
-28.2998295816
  0
LINE
  5
2D3
100
AcDbEntity
  8
DRAFT
100
AcDbLine
 62
7
  6
CONTINUOUS
 10
26.3
 20
-28.2998295816
 11
26.7625059283
 21
-28.2998295816
  0
LINE
  5
2D4
100
AcDbEntity
  8
0
100
AcDbLine
 62
7
  6
CONTINUOUS
 10
23.9479168653
 20
-36.7657869967
 11
24.1041662693
 21
-36.8189784797
  0
LINE
  5
2D5
100
AcDbEntity
  8
0
100
AcDbLine
 62
7
  6
CONTINUOUS
 10
-18.5729168653
 20
-37.9891912552
 11
-18.5208331347
 21
-38.1487657788
  0
LINE
  5
2D6
100
AcDbEntity
  8
RACCORDO
100
AcDbLine
 62
253
  6
CONTINUOUS
 10
-26.5937693497
 20
18.3001704184
 11
-26.8938847835
 21
22.9764846974
  0
LINE
  5
2D7
100
AcDbEntity
  8
RACCORDO
100
AcDbLine
 62
253
  6
CONTINUOUS
 10
-26.1224793139
 20
18.8001704184
 11
-26.4014809083
 21
23.1474947895
  0
LINE
  5
2D8
100
AcDbEntity
  8
RACCORDO
100
AcDbLine
 62
7
  6
CONTINUOUS
 10
-26.3
 20
-28.7998295816
 11
-26.3
 21
18.8001704184
  0
LINE
  5
2D9
100
AcDbEntity
  8
RACCORDO
100
AcDbLine
 62
253
  6
CONTINUOUS
 10
-25.8
 20
-28.3331152959
 11
-25.8
 21
18.3334561327
  0
LINE
  5
2DA
100
AcDbEntity
  8
0
100
AcDbLine
 62
7
  6
CONTINUOUS
 10
-25.5
 20
-36.4998295816
 11
-25.5
 21
-38.9998295816
  0
LINE
  5
2DB
100
AcDbEntity
  8
0
100
AcDbLine
 62
7
  6
CONTINUOUS
 10
-25.1875
 20
-38.9998295816
 11
-25.1875
 21
-36.4998295816
  0
LINE
  5
2DC
100
AcDbEntity
  8
0
100
AcDbLine
 62
7
  6
CONTINUOUS
 10
-24.7708333582
 20
-36.4998295816
 11
-24.7708333582
 21
-38.9998295816
  0
LINE
  5
2DD
100
AcDbEntity
  8
0
100
AcDbLine
 62
7
  6
CONTINUOUS
 10
-24.4583333582
 20
-38.9998295816
 11
-24.4583333582
 21
-37.8828082891
  0
LINE
  5
2DE
100
AcDbEntity
  8
0
100
AcDbLine
 62
7
  6
CONTINUOUS
 10
-24.4583333582
 20
-37.563659391
 11
-24.4583333582
 21
-36.7657869967
  0
LINE
  5
2DF
100
AcDbEntity
  8
0
100
AcDbLine
 62
7
  6
CONTINUOUS
 10
-23.15625
 20
-37.0849358948
 11
-23.15625
 21
-37.2445104929
  0
LINE
  5
2E0
100
AcDbEntity
  8
0
100
AcDbLine
 62
7
  6
CONTINUOUS
 10
-22.84375
 20
-37.2977019759
 11
-22.84375
 21
-37.0849358948
  0
LINE
  5
2E1
100
AcDbEntity
  8
RACCORDO
100
AcDbLine
 62
253
  6
CONTINUOUS
 10
-26.5937693497
 20
-28.2998295816
 11
-26.8938847433
 21
-32.9761432345
  0
LINE
  5
2E2
100
AcDbEntity
  8
RACCORDO
100
AcDbLine
 62
253
  6
CONTINUOUS
 10
-26.1224793139
 20
-28.7998295816
 11
-26.4014808627
 21
-33.1471532422
  0
LINE
  5
2E3
100
AcDbEntity
  8
0
100
AcDbLine
 62
7
  6
CONTINUOUS
 10
-22.4270834327
 20
-36.4998295816
 11
-22.4270834327
 21
-37.8828082891
  0
LINE
  5
2E4
100
AcDbEntity
  8
0
100
AcDbLine
 62
7
  6
CONTINUOUS
 10
-22.1666665673
 20
-37.616850874
 11
-22.1666665673
 21
-36.7657869967
  0
LINE
  5
2E5
100
AcDbEntity
  8
0
100
AcDbLine
 62
7
  6
CONTINUOUS
 10
-20.8125
 20
-38.1487657788
 11
-20.8125
 21
-38.2551487448
  0
LINE
  5
2E6
100
AcDbEntity
  8
0
100
AcDbLine
 62
7
  6
CONTINUOUS
 10
-20.65625
 20
-36.7657869967
 11
-20.65625
 21
-36.4998295816
  0
LINE
  5
2E7
100
AcDbEntity
  8
0
100
AcDbLine
 62
7
  6
CONTINUOUS
 10
-20.5520834327
 20
-38.3083402278
 11
-20.5520834327
 21
-38.0955742957
  0
LINE
  5
2E8
100
AcDbEntity
  8
DRAFT
100
AcDbLine
 62
7
  6
CONTINUOUS
 10
-20.5
 20
-44.7347370528
 11
-20.5
 21
-44.6998295816
  0
LINE
  5
2E9
100
AcDbEntity
  8
0
100
AcDbLine
 62
7
  6
CONTINUOUS
 10
-20.5
 20
-46.3820168664
 11
-20.5
 21
-46.4169243376
  0
LINE
  5
2EA
100
AcDbEntity
  8
0
100
AcDbLine
 62
7
  6
CONTINUOUS
 10
-20.1354168653
 20
-36.4998295816
 11
-20.1354168653
 21
-37.8828082891
  0
LINE
  5
2EB
100
AcDbEntity
  8
0
100
AcDbLine
 62
7
  6
CONTINUOUS
 10
-19.875
 20
-37.616850874
 11
-19.875
 21
-36.7657869967
  0
LINE
  5
2EC
100
AcDbEntity
  8
0
100
AcDbLine
 62
7
  6
CONTINUOUS
 10
-18.5208331347
 20
-38.1487657788
 11
-18.5208331347
 21
-38.2551487448
  0
LINE
  5
2ED
100
AcDbEntity
  8
0
100
AcDbLine
 62
7
  6
CONTINUOUS
 10
-18.3645831347
 20
-36.7657869967
 11
-18.3645831347
 21
-36.4998295816
  0
LINE
  5
2EE
100
AcDbEntity
  8
0
100
AcDbLine
 62
7
  6
CONTINUOUS
 10
-18.2604168653
 20
-38.3083402278
 11
-18.2604168653
 21
-38.0955742957
  0
LINE
  5
2EF
100
AcDbEntity
  8
0
100
AcDbLine
 62
7
  6
CONTINUOUS
 10
-15.5
 20
-46.4169243376
 11
-15.5
 21
-46.3820168664
  0
LINE
  5
2F0
100
AcDbEntity
  8
DRAFT
100
AcDbLine
 62
7
  6
CONTINUOUS
 10
-15.5
 20
-44.7347370528
 11
-15.5
 21
-44.6998295816
  0
LINE
  5
2F1
100
AcDbEntity
  8
DRAFT
100
AcDbLine
 62
7
  6
CONTINUOUS
 10
-11.9258023047
 20
-46.4540203599
 11
-11.9848834703
 21
-44.4998295816
  0
LINE
  5
2F2
100
AcDbEntity
  8
0
100
AcDbLine
 62
7
  6
CONTINUOUS
 10
-13.99651084
 20
37.7140508582
 11
-13.99651084
 21
36.5001704184
  0
LINE
  5
2F3
100
AcDbEntity
  8
RACCORDO
100
AcDbLine
 62
253
  6
CONTINUOUS
 10
-13.1659754449
 20
-45.4090790908
 11
-13.1659754449
 21
-44.7914616934
  0
LINE
  5
2F4
100
AcDbEntity
  8
RACCORDO
100
AcDbLine
 62
253
  6
CONTINUOUS
 10
-12.1661277497
 20
-45.9597944199
 11
-12.1661277497
 21
-44.7828871304
  0
LINE
  5
2F5
100
AcDbEntity
  8
DRAFT
100
AcDbLine
 62
7
  6
CONTINUOUS
 10
-12.0
 20
-44.6998295816
 11
-12.0
 21
-44.4998295816
  0
LINE
  5
2F6
100
AcDbEntity
  8
0
100
AcDbLine
 62
7
  6
CONTINUOUS
 10
-11.84651084
 20
40.1180755263
 11
-11.84651084
 21
39.6913679348
  0
LINE
  5
2F7
100
AcDbEntity
  8
RACCORDO
100
AcDbLine
 62
7
  6
CONTINUOUS
 10
-11.7
 20
-46.4998295816
 11
-11.7
 21
-44.1912476221
  0
LINE
  5
2F8
100
AcDbEntity
  8
0
100
AcDbLine
 62
7
  6
CONTINUOUS
 10
-11.34651084
 20
39.6913679348
 11
-11.34651084
 21
39.1913869733
  0
LINE
  5
2F9
100
AcDbEntity
  8
0
100
AcDbLine
 62
7
  6
CONTINUOUS
 10
24.3645837307
 20
-36.7125955137
 11
24.15625
 21
-36.5530210646
  0
LINE
  5
2FA
100
AcDbEntity
  8
RACCORDO
100
AcDbLine
 62
253
  6
CONTINUOUS
 10
-10.7
 20
-45.6891892981
 11
-10.7
 21
-43.6891892981
  0
LINE
  5
2FB
100
AcDbEntity
  8
0
100
AcDbLine
 62
7
  6
CONTINUOUS
 10
-10.09651084
 20
41.9581978369
 11
-10.09651084
 21
41.4912993963
  0
LINE
  5
2FC
100
AcDbEntity
  8
0
100
AcDbLine
 62
7
  6
CONTINUOUS
 10
-9.44651084
 20
41.4912993963
 11
-9.44651084
 21
40.9913184348
  0
LINE
  5
2FD
100
AcDbEntity
  8
0
100
AcDbLine
 62
7
  6
CONTINUOUS
 10
-8.34651084
 20
43.7313353985
 11
-8.34651084
 21
43.2912308578
  0
LINE
  5
2FE
100
AcDbEntity
  8
0
100
AcDbLine
 62
7
  6
CONTINUOUS
 10
-7.84651084
 20
43.2912308578
 11
-7.84651084
 21
42.7912498963
  0
LINE
  5
2FF
100
AcDbEntity
  8
0
100
AcDbLine
 62
7
  6
CONTINUOUS
 10
-23.15625
 20
-37.2445104929
 11
-23.2083332837
 21
-37.404084942
  0
LINE
  5
300
100
AcDbEntity
  8
0
100
AcDbLine
 62
7
  6
CONTINUOUS
 10
-22.8958334327
 20
-37.457276425
 11
-22.84375
 21
-37.2977019759
  0
LINE
  5
301
100
AcDbEntity
  8
0
100
AcDbLine
 62
7
  6
CONTINUOUS
 10
-20.8125
 20
-38.2551487448
 11
-20.8645834327
 21
-38.4147231939
  0
LINE
  5
302
100
AcDbEntity
  8
RACCORDO
100
AcDbLine
 62
253
  6
CONTINUOUS
 10
32.5000571154
 20
-46.4998295816
 11
32.3506257392
 21
-46.3503982054
  0
LINE
  5
303
100
AcDbEntity
  8
RACCORDO
100
AcDbLine
 62
253
  6
CONTINUOUS
 10
32.041641631
 20
-44.7914616934
 11
31.9500095192
 21
-44.6998295816
  0
LINE
  5
304
100
AcDbEntity
  8
RACCORDO
100
AcDbLine
 62
253
  6
CONTINUOUS
 10
32.2916321118
 20
-44.5414712126
 11
32.2
 21
-44.4498391008
  0
LINE
  5
305
100
AcDbEntity
  8
RACCORDO
100
AcDbLine
 62
253
  6
CONTINUOUS
 10
34.0
 20
-44.999886697
 11
33.8505676793
 21
-44.8504543763
  0
LINE
  5
306
100
AcDbEntity
  8
0
100
AcDbLine
 62
7
  6
CONTINUOUS
 10
24.1041662693
 20
-36.8189784797
 11
24.2083337307
 21
-36.9253614458
  0
LINE
  5
307
100
AcDbEntity
  8
0
100
AcDbLine
 62
7
  6
CONTINUOUS
 10
-4.09651084
 20
45.430308783
 11
-4.09651084
 21
45.0911623193
  0
LINE
  5
308
100
AcDbEntity
  8
0
100
AcDbLine
 62
7
  6
CONTINUOUS
 10
-3.59651084
 20
45.0911623193
 11
-3.59651084
 21
44.6330521751
  0
LINE
  5
309
100
AcDbEntity
  8
0
100
AcDbLine
 62
7
  6
CONTINUOUS
 10
-18.5208331347
 20
-38.2551487448
 11
-18.5729168653
 21
-38.4147231939
  0
LINE
  5
30A
100
AcDbEntity
  8
0
100
AcDbLine
 62
7
  6
CONTINUOUS
 10
-20.65625
 20
-38.5742976802
 11
-20.5520834327
 21
-38.3083402278
  0
LINE
  5
30B
100
AcDbEntity
  8
0
100
AcDbLine
 62
7
  6
CONTINUOUS
 10
-18.3645831347
 20
-38.5742976802
 11
-18.2604168653
 21
-38.3083402278
  0
LINE
  5
30C
100
AcDbEntity
  8
RACCORDO
100
AcDbLine
 62
253
  6
CONTINUOUS
 10
32.3506257755
 20
36.3507390785
 11
32.5000571154
 21
36.5001704184
  0
LINE
  5
30D
100
AcDbEntity
  8
RACCORDO
100
AcDbLine
 62
253
  6
CONTINUOUS
 10
32.041641631
 20
34.7918025302
 11
31.9500095192
 21
34.7001704184
  0
LINE
  5
30E
100
AcDbEntity
  8
RACCORDO
100
AcDbLine
 62
253
  6
CONTINUOUS
 10
32.2916321118
 20
34.5418120494
 11
32.2
 21
34.4501799376
  0
LINE
  5
30F
100
AcDbEntity
  8
RACCORDO
100
AcDbLine
 62
253
  6
CONTINUOUS
 10
33.8505676793
 20
34.8507952132
 11
34.0
 21
35.0002275338
  0
LINE
  5
310
100
AcDbEntity
  8
0
100
AcDbLine
 62
7
  6
CONTINUOUS
 10
24.5208337307
 20
-36.9253614458
 11
24.3645837307
 21
-36.7125955137
  0
LINE
  5
311
100
AcDbEntity
  8
0
100
AcDbLine
 62
7
  6
CONTINUOUS
 10
3.60348916
 20
45.0911623193
 11
3.60348916
 21
44.6330615463
  0
LINE
  5
312
100
AcDbEntity
  8
0
100
AcDbLine
 62
7
  6
CONTINUOUS
 10
4.10348916
 20
45.430308783
 11
4.10348916
 21
45.0911623193
  0
LINE
  5
313
100
AcDbEntity
  8
0
100
AcDbLine
 62
7
  6
CONTINUOUS
 10
-20.8645834327
 20
-38.4147231939
 11
-20.96875
 21
-38.5742976802
  0
LINE
  5
314
100
AcDbEntity
  8
0
100
AcDbLine
 62
7
  6
CONTINUOUS
 10
-23.0520832837
 20
-37.6700423571
 11
-22.8958334327
 21
-37.457276425
  0
LINE
  5
315
100
AcDbEntity
  8
RACCORDO
100
AcDbLine
 62
253
  6
CONTINUOUS
 10
-34.0
 20
35.0002275338
 11
-33.8505676793
 21
34.8507952132
  0
LINE
  5
316
100
AcDbEntity
  8
RACCORDO
100
AcDbLine
 62
253
  6
CONTINUOUS
 10
-32.2916321118
 20
34.5418120494
 11
-32.2
 21
34.4501799376
  0
LINE
  5
317
100
AcDbEntity
  8
RACCORDO
100
AcDbLine
 62
253
  6
CONTINUOUS
 10
-32.041641631
 20
34.7918025302
 11
-31.9500095192
 21
34.7001704184
  0
LINE
  5
318
100
AcDbEntity
  8
RACCORDO
100
AcDbLine
 62
253
  6
CONTINUOUS
 10
-32.5000571154
 20
36.5001704184
 11
-32.3506257756
 21
36.3507390786
  0
LINE
  5
319
100
AcDbEntity
  8
0
100
AcDbLine
 62
7
  6
CONTINUOUS
 10
17.5416665673
 20
-37.0317444118
 11
18.2708334327
 21
-38.9998295816
  0
LINE
  5
31A
100
AcDbEntity
  8
0
100
AcDbLine
 62
7
  6
CONTINUOUS
 10
15.0416666418
 20
-38.6806806462
 11
14.3125
 21
-36.4998295816
  0
LINE
  5
31B
100
AcDbEntity
  8
0
100
AcDbLine
 62
7
  6
CONTINUOUS
 10
14.0
 20
-36.4998295816
 11
14.8333333582
 21
-38.9998295816
  0
LINE
  5
31C
100
AcDbEntity
  8
0
100
AcDbLine
 62
7
  6
CONTINUOUS
 10
7.85348916
 20
43.2912308578
 11
7.85348916
 21
42.7912498963
  0
LINE
  5
31D
100
AcDbEntity
  8
0
100
AcDbLine
 62
7
  6
CONTINUOUS
 10
-18.5729168653
 20
-38.4147231939
 11
-18.6770831347
 21
-38.5742976802
  0
LINE
  5
31E
100
AcDbEntity
  8
0
100
AcDbLine
 62
7
  6
CONTINUOUS
 10
-20.8125
 20
-38.7870636309
 11
-20.65625
 21
-38.5742976802
  0
LINE
  5
31F
100
AcDbEntity
  8
0
100
AcDbLine
 62
7
  6
CONTINUOUS
 10
-18.5208331347
 20
-38.7870636309
 11
-18.3645831347
 21
-38.5742976802
  0
LINE
  5
320
100
AcDbEntity
  8
RACCORDO
100
AcDbLine
 62
253
  6
CONTINUOUS
 10
-33.8505676793
 20
-44.8504543763
 11
-34.0
 21
-44.999886697
  0
LINE
  5
321
100
AcDbEntity
  8
0
100
AcDbLine
 62
7
  6
CONTINUOUS
 10
18.4791665673
 20
-38.7338721292
 11
17.6979165673
 21
-36.4998295816
  0
LINE
  5
322
100
AcDbEntity
  8
RACCORDO
100
AcDbLine
 62
253
  6
CONTINUOUS
 10
10.1034874413
 20
41.9582492544
 11
10.10348916
 21
41.9581978362
  0
LINE
  5
323
100
AcDbEntity
  8
0
100
AcDbLine
 62
7
  6
CONTINUOUS
 10
8.35348916
 20
43.7313353985
 11
8.35348916
 21
43.2912308578
  0
LINE
  5
324
100
AcDbEntity
  8
0
100
AcDbLine
 62
7
  6
CONTINUOUS
 10
9.45348916
 20
41.4912993963
 11
9.45348916
 21
40.9913184348
  0
LINE
  5
325
100
AcDbEntity
  8
0
100
AcDbLine
 62
7
  6
CONTINUOUS
 10
10.10348916
 20
41.9581978369
 11
10.10348916
 21
41.4912993963
  0
LINE
  5
326
100
AcDbEntity
  8
RACCORDO
100
AcDbLine
 62
253
  6
CONTINUOUS
 10
10.7
 20
-43.6891892981
 11
10.7
 21
-45.6891892981
  0
LINE
  5
327
100
AcDbEntity
  8
0
100
AcDbLine
 62
7
  6
CONTINUOUS
 10
11.35348916
 20
39.6913679348
 11
11.35348916
 21
39.1913869733
  0
LINE
  5
328
100
AcDbEntity
  8
RACCORDO
100
AcDbLine
 62
7
  6
CONTINUOUS
 10
11.7
 20
-44.1912476221
 11
11.7
 21
-46.4998295816
  0
LINE
  5
329
100
AcDbEntity
  8
0
100
AcDbLine
 62
7
  6
CONTINUOUS
 10
11.85348916
 20
40.1180755263
 11
11.85348916
 21
39.6913679348
  0
LINE
  5
32A
100
AcDbEntity
  8
DRAFT
100
AcDbLine
 62
7
  6
CONTINUOUS
 10
12.0
 20
-44.6998295816
 11
12.0
 21
-44.4998295816
  0
LINE
  5
32B
100
AcDbEntity
  8
0
100
AcDbLine
 62
7
  6
CONTINUOUS
 10
-23.2083332837
 20
-37.404084942
 11
-23.3125
 21
-37.510467908
  0
LINE
  5
32C
100
AcDbEntity
  8
RACCORDO
100
AcDbLine
 62
253
  6
CONTINUOUS
 10
-32.2916321118
 20
-44.5414712126
 11
-32.2
 21
-44.4498391008
  0
LINE
  5
32D
100
AcDbEntity
  8
RACCORDO
100
AcDbLine
 62
253
  6
CONTINUOUS
 10
-32.041641631
 20
-44.7914616934
 11
-31.9500095192
 21
-44.6998295816
  0
LINE
  5
32E
100
AcDbEntity
  8
RACCORDO
100
AcDbLine
 62
253
  6
CONTINUOUS
 10
-32.3506257391
 20
-46.3503982053
 11
-32.5000571154
 21
-46.4998295816
  0
LINE
  5
32F
100
AcDbEntity
  8
0
100
AcDbLine
 62
7
  6
CONTINUOUS
 10
24.625
 20
-38.9998295816
 11
24.15625
 21
-37.7764253231
  0
LINE
  5
330
100
AcDbEntity
  8
0
100
AcDbLine
 62
7
  6
CONTINUOUS
 10
23.84375
 20
-37.8828082891
 11
24.2604162693
 21
-38.9998295816
  0
LINE
  5
331
100
AcDbEntity
  8
0
100
AcDbLine
 62
7
  6
CONTINUOUS
 10
22.2291668653
 20
-38.9998295816
 11
21.3958331347
 21
-36.4998295816
  0
LINE
  5
332
100
AcDbEntity
  8
0
100
AcDbLine
 62
7
  6
CONTINUOUS
 10
21.7083331347
 20
-38.3615317108
 11
21.9166668653
 21
-38.9998295816
  0
LINE
  5
333
100
AcDbEntity
  8
0
100
AcDbLine
 62
7
  6
CONTINUOUS
 10
21.1875
 20
-36.7125955137
 11
21.65625
 21
-38.1487657788
  0
LINE
  5
334
100
AcDbEntity
  8
0
100
AcDbLine
 62
7
  6
CONTINUOUS
 10
24.2083337307
 20
-36.9253614458
 11
24.2604162693
 21
-37.0849358948
  0
LINE
  5
335
100
AcDbEntity
  8
0
100
AcDbLine
 62
7
  6
CONTINUOUS
 10
24.5729162693
 20
-37.0849358948
 11
24.5208337307
 21
-36.9253614458
  0
LINE
  5
336
100
AcDbEntity
  8
RACCORDO
100
AcDbLine
 62
253
  6
CONTINUOUS
 10
8.3534794434
 20
43.7314465569
 11
8.35348916
 21
43.7313353951
  0
LINE
  5
337
100
AcDbEntity
  8
RACCORDO
100
AcDbLine
 62
253
  6
CONTINUOUS
 10
11.8534810672
 20
40.1181963792
 11
11.85348916
 21
40.1180755247
  0
LINE
  5
338
100
AcDbEntity
  8
RACCORDO
100
AcDbLine
 62
253
  6
CONTINUOUS
 10
12.1661277497
 20
-44.7828871304
 11
12.1661277497
 21
-45.9597944199
  0
LINE
  5
339
100
AcDbEntity
  8
RACCORDO
100
AcDbLine
 62
253
  6
CONTINUOUS
 10
13.1659754449
 20
-44.7914616934
 11
13.1659754449
 21
-45.4090790908
  0
LINE
  5
33A
100
AcDbEntity
  8
0
100
AcDbLine
 62
7
  6
CONTINUOUS
 10
14.00348916
 20
37.7140508582
 11
14.00348916
 21
36.5001704184
  0
LINE
  5
33B
100
AcDbEntity
  8
DRAFT
100
AcDbLine
 62
7
  6
CONTINUOUS
 10
15.5
 20
-44.7347370528
 11
15.5
 21
-44.6998295816
  0
LINE
  5
33C
100
AcDbEntity
  8
0
100
AcDbLine
 62
7
  6
CONTINUOUS
 10
15.5
 20
-46.3820168664
 11
15.5
 21
-46.4169243376
  0
LINE
  5
33D
100
AcDbEntity
  8
DRAFT
100
AcDbLine
 62
7
  6
CONTINUOUS
 10
11.9258023047
 20
-46.4540203599
 11
11.9848834703
 21
-44.4998295816
  0
LINE
  5
33E
100
AcDbEntity
  8
0
100
AcDbLine
 62
7
  6
CONTINUOUS
 10
16.5
 20
-36.4998295816
 11
16.5
 21
-38.9998295816
  0
LINE
  5
33F
100
AcDbEntity
  8
0
100
AcDbLine
 62
7
  6
CONTINUOUS
 10
16.8125
 20
-38.9998295816
 11
16.8125
 21
-36.4998295816
  0
LINE
  5
340
100
AcDbEntity
  8
0
100
AcDbLine
 62
7
  6
CONTINUOUS
 10
17.2291665673
 20
-36.4998295816
 11
17.2291665673
 21
-38.9998295816
  0
LINE
  5
341
100
AcDbEntity
  8
0
100
AcDbLine
 62
7
  6
CONTINUOUS
 10
17.5416665673
 20
-38.9998295816
 11
17.5416665673
 21
-37.0317444118
  0
LINE
  5
342
100
AcDbEntity
  8
0
100
AcDbLine
 62
7
  6
CONTINUOUS
 10
19.4166668653
 20
-37.0317444118
 11
19.4166668653
 21
-38.9998295816
  0
LINE
  5
343
100
AcDbEntity
  8
0
100
AcDbLine
 62
7
  6
CONTINUOUS
 10
-23.2604167163
 20
-37.8296168061
 11
-23.0520832837
 21
-37.6700423571
  0
LINE
  5
344
100
AcDbEntity
  8
0
100
AcDbLine
 62
7
  6
CONTINUOUS
 10
-22.0625
 20
-37.8828082891
 11
-21.8541665673
 21
-37.7232338401
  0
LINE
  5
345
100
AcDbEntity
  8
0
100
AcDbLine
 62
7
  6
CONTINUOUS
 10
-19.7708331347
 20
-37.8828082891
 11
-19.5625
 21
-37.7232338401
  0
LINE
  5
346
100
AcDbEntity
  8
DRAFT
100
AcDbLine
 62
7
  6
CONTINUOUS
 10
26.7625059283
 20
18.3001704184
 11
26.3
 21
18.3001704184
  0
LINE
  5
347
100
AcDbEntity
  8
DRAFT
100
AcDbLine
 62
7
  6
CONTINUOUS
 10
-26.3
 20
18.3001704184
 11
-26.7625059283
 21
18.3001704184
  0
LINE
  5
348
100
AcDbEntity
  8
RACCORDO
100
AcDbLine
 62
253
  6
CONTINUOUS
 10
25.8
 20
18.3334561327
 11
-25.8
 21
18.3334561327
  0
LINE
  5
349
100
AcDbEntity
  8
RACCORDO
100
AcDbLine
 62
7
  6
CONTINUOUS
 10
-26.2988669832
 20
18.8001704184
 11
26.3
 21
18.8001704184
  0
LINE
  5
34A
100
AcDbEntity
  8
0
100
AcDbLine
 62
7
  6
CONTINUOUS
 10
19.7291668653
 20
-38.9998295816
 11
19.7291668653
 21
-36.4998295816
  0
LINE
  5
34B
100
AcDbEntity
  8
0
100
AcDbLine
 62
7
  6
CONTINUOUS
 10
20.5
 20
-46.4169243376
 11
20.5
 21
-46.3820168664
  0
LINE
  5
34C
100
AcDbEntity
  8
DRAFT
100
AcDbLine
 62
7
  6
CONTINUOUS
 10
20.5
 20
-44.7347370528
 11
20.5
 21
-44.6998295816
  0
LINE
  5
34D
100
AcDbEntity
  8
0
100
AcDbLine
 62
7
  6
CONTINUOUS
 10
22.6458331347
 20
-36.4998295816
 11
22.6458331347
 21
-38.9998295816
  0
LINE
  5
34E
100
AcDbEntity
  8
0
100
AcDbLine
 62
7
  6
CONTINUOUS
 10
22.9583331347
 20
-38.9998295816
 11
22.9583331347
 21
-37.8828082891
  0
LINE
  5
34F
100
AcDbEntity
  8
0
100
AcDbLine
 62
7
  6
CONTINUOUS
 10
22.9583331347
 20
-37.563659391
 11
22.9583331347
 21
-36.7657869967
  0
LINE
  5
350
100
AcDbEntity
  8
0
100
AcDbLine
 62
7
  6
CONTINUOUS
 10
-20.96875
 20
-38.5742976802
 11
-21.125
 21
-38.6806806462
  0
LINE
  5
351
100
AcDbEntity
  8
0
100
AcDbLine
 62
7
  6
CONTINUOUS
 10
-18.6770831347
 20
-38.5742976802
 11
-18.8333331347
 21
-38.6806806462
  0
LINE
  5
352
100
AcDbEntity
  8
0
100
AcDbLine
 62
7
  6
CONTINUOUS
 10
-21.90625
 20
-37.457276425
 11
-22.1666665673
 21
-37.616850874
  0
LINE
  5
353
100
AcDbEntity
  8
0
100
AcDbLine
 62
7
  6
CONTINUOUS
 10
-19.6145831347
 20
-37.457276425
 11
-19.875
 21
-37.616850874
  0
LINE
  5
354
100
AcDbEntity
  8
0
100
AcDbLine
 62
7
  6
CONTINUOUS
 10
-21.0729165673
 20
-38.9466380939
 11
-20.8125
 21
-38.7870636309
  0
LINE
  5
355
100
AcDbEntity
  8
0
100
AcDbLine
 62
7
  6
CONTINUOUS
 10
-18.78125
 20
-38.9466380939
 11
-18.5208331347
 21
-38.7870636309
  0
LINE
  5
356
100
AcDbEntity
  8
RACCORDO
100
AcDbLine
 62
253
  6
CONTINUOUS
 10
26.1224793139
 20
-28.7998295816
 11
26.4014808987
 21
-33.1471538035
  0
LINE
  5
357
100
AcDbEntity
  8
RACCORDO
100
AcDbLine
 62
253
  6
CONTINUOUS
 10
26.5937693497
 20
-28.2998295816
 11
26.8938847739
 21
-32.9761437108
  0
LINE
  5
358
100
AcDbEntity
  8
0
100
AcDbLine
 62
7
  6
CONTINUOUS
 10
24.2604162693
 20
-37.0849358948
 11
24.2604162693
 21
-37.2445104929
  0
LINE
  5
359
100
AcDbEntity
  8
0
100
AcDbLine
 62
7
  6
CONTINUOUS
 10
24.5729162693
 20
-37.2977019759
 11
24.5729162693
 21
-37.0849358948
  0
LINE
  5
35A
100
AcDbEntity
  8
RACCORDO
100
AcDbLine
 62
253
  6
CONTINUOUS
 10
25.8
 20
18.3334561327
 11
25.8
 21
-28.3331152959
  0
LINE
  5
35B
100
AcDbEntity
  8
RACCORDO
100
AcDbLine
 62
7
  6
CONTINUOUS
 10
26.3
 20
18.8001704184
 11
26.3
 21
-28.7998295816
  0
LINE
  5
35C
100
AcDbEntity
  8
RACCORDO
100
AcDbLine
 62
253
  6
CONTINUOUS
 10
26.1224793139
 20
18.8001704184
 11
26.4014808642
 21
23.1474941024
  0
LINE
  5
35D
100
AcDbEntity
  8
RACCORDO
100
AcDbLine
 62
253
  6
CONTINUOUS
 10
26.5937693497
 20
18.3001704184
 11
26.8938847406
 21
22.9764840295
  0
LINE
  5
35E
100
AcDbEntity
  8
0
100
AcDbLine
 62
7
  6
CONTINUOUS
 10
15.25
 20
-38.9998295816
 11
16.0833332837
 21
-36.4998295816
  0
LINE
  5
35F
100
AcDbEntity
  8
0
100
AcDbLine
 62
7
  6
CONTINUOUS
 10
15.7708332837
 20
-36.4998295816
 11
15.0416666418
 21
-38.6806806462
  0
LINE
  5
360
100
AcDbEntity
  8
RACCORDO
100
AcDbLine
 62
253
  6
CONTINUOUS
 10
-26.9425111664
 20
24.7969800177
 11
26.942527084
 21
24.7970010375
  0
LINE
  5
361
100
AcDbEntity
  8
RACCORDO
100
AcDbLine
 62
253
  6
CONTINUOUS
 10
27.3570779279
 20
25.0109137292
 11
-27.3570779279
 21
25.0109137292
  0
LINE
  5
362
100
AcDbEntity
  8
0
100
AcDbLine
 62
7
  6
CONTINUOUS
 10
19.2604168653
 20
-36.4998295816
 11
18.4791665673
 21
-38.7338721292
  0
LINE
  5
363
100
AcDbEntity
  8
0
100
AcDbLine
 62
7
  6
CONTINUOUS
 10
18.6875
 20
-38.9998295816
 11
19.4166668653
 21
-37.0317444118
  0
LINE
  5
364
100
AcDbEntity
  8
0
100
AcDbLine
 62
7
  6
CONTINUOUS
 10
-23.3125
 20
-37.510467908
 11
-23.46875
 21
-37.563659391
  0
LINE
  5
365
100
AcDbEntity
  8
DRAFT
100
AcDbLine
 62
253
  6
CONTINUOUS
 10
31.8931176457
 20
29.9812434562
 11
-31.8931176457
 21
29.9812434562
  0
LINE
  5
366
100
AcDbEntity
  8
RACCORDO
100
AcDbLine
 62
253
  6
CONTINUOUS
 10
32.320517219
 20
-41.8772961446
 11
32.3150393266
 21
-35.3432407292
  0
LINE
  5
367
100
AcDbEntity
  8
RACCORDO
100
AcDbLine
 62
7
  6
CONTINUOUS
 10
32.0
 20
27.5001704184
 11
32.0
 21
-43.5162954658
  0
LINE
  5
368
100
AcDbEntity
  8
RACCORDO
100
AcDbLine
 62
7
  6
CONTINUOUS
 10
32.2
 20
34.4501799376
 11
32.2
 21
-44.4498391008
  0
LINE
  5
369
100
AcDbEntity
  8
RACCORDO
100
AcDbLine
 62
7
  6
CONTINUOUS
 10
32.2916321118
 20
35.4094199276
 11
32.2916321118
 21
34.5418120494
  0
LINE
  5
36A
100
AcDbEntity
  8
RACCORDO
100
AcDbLine
 62
7
  6
CONTINUOUS
 10
32.2916321118
 20
-44.5414712126
 11
32.2916321118
 21
-45.4090790908
  0
LINE
  5
36B
100
AcDbEntity
  8
RACCORDO
100
AcDbLine
 62
7
  6
CONTINUOUS
 10
34.0
 20
-44.9998295816
 11
34.0
 21
35.0001704184
  0
LINE
  5
36C
100
AcDbEntity
  8
RACCORDO
100
AcDbLine
 62
253
  6
CONTINUOUS
 10
32.3150393266
 20
25.343581566
 11
32.3205172226
 21
31.877641088
  0
LINE
  5
36D
100
AcDbEntity
  8
0
100
AcDbLine
 62
7
  6
CONTINUOUS
 10
20.71875
 20
-38.1487657788
 11
21.1875
 21
-36.7125955137
  0
LINE
  5
36E
100
AcDbEntity
  8
0
100
AcDbLine
 62
7
  6
CONTINUOUS
 10
20.4583331347
 20
-38.9998295816
 11
20.6666668653
 21
-38.3615317108
  0
LINE
  5
36F
100
AcDbEntity
  8
0
100
AcDbLine
 62
7
  6
CONTINUOUS
 10
24.2604162693
 20
-37.2445104929
 11
24.2083337307
 21
-37.404084942
  0
LINE
  5
370
100
AcDbEntity
  8
0
100
AcDbLine
 62
7
  6
CONTINUOUS
 10
24.5208337307
 20
-37.457276425
 11
24.5729162693
 21
-37.2977019759
  0
LINE
  5
371
100
AcDbEntity
  8
0
100
AcDbLine
 62
7
  6
CONTINUOUS
 10
20.9791668653
 20
-36.4998295816
 11
20.1458331347
 21
-38.9998295816
  0
LINE
  5
372
100
AcDbEntity
  8
RACCORDO
100
AcDbLine
 62
7
  6
CONTINUOUS
 10
-12.1661277497
 20
-44.7828871304
 11
-12.0
 21
-44.6998295816
  0
LINE
  5
373
100
AcDbEntity
  8
RACCORDO
100
AcDbLine
 62
253
  6
CONTINUOUS
 10
-32.3205172227
 20
31.8776412019
 11
-32.3095377557
 21
31.8777510631
  0
LINE
  5
374
100
AcDbEntity
  8
DRAFT
100
AcDbLine
 62
253
  6
CONTINUOUS
 10
31.930587443
 20
34.4348723987
 11
-31.930587443
 21
34.4348723987
  0
LINE
  5
375
100
AcDbEntity
  8
DRAFT
100
AcDbLine
 62
7
  6
CONTINUOUS
 10
29.9345484916
 20
34.4822904403
 11
-29.9345484916
 21
34.4822904403
  0
LINE
  5
376
100
AcDbEntity
  8
ASSI
100
AcDbLine
 62
7
  6
CONTINUOUS
 10
31.938912946
 20
34.5001704184
 11
29.938912197
 21
34.5001704184
  0
LINE
  5
377
100
AcDbEntity
  8
ASSI
100
AcDbLine
 62
7
  6
CONTINUOUS
 10
-29.938912197
 20
34.5001704184
 11
-31.938912946
 21
34.5001704184
  0
LINE
  5
378
100
AcDbEntity
  8
RACCORDO
100
AcDbLine
 62
7
  6
CONTINUOUS
 10
-31.9500095192
 20
34.7001704184
 11
31.9500095192
 21
34.7001704184
  0
LINE
  5
379
100
AcDbEntity
  8
RACCORDO
100
AcDbLine
 62
7
  6
CONTINUOUS
 10
32.041641631
 20
34.7918025302
 11
-32.041641631
 21
34.7918025302
  0
LINE
  5
37A
100
AcDbEntity
  8
RACCORDO
100
AcDbLine
 62
253
  6
CONTINUOUS
 10
32.3095377557
 20
31.8777510631
 11
32.3205172226
 21
31.877641088
  0
LINE
  5
37B
100
AcDbEntity
  8
RACCORDO
100
AcDbLine
 62
7
  6
CONTINUOUS
 10
31.9968134915
 20
-43.914773345
 11
31.940352844
 21
-44.4808030721
  0
LINE
  5
37C
100
AcDbEntity
  8
DRAFT
100
AcDbLine
 62
7
  6
CONTINUOUS
 10
-32.2916321118
 20
35.4094199276
 11
32.2916321118
 21
35.4094199276
  0
LINE
  5
37D
100
AcDbEntity
  8
RACCORDO
100
AcDbLine
 62
253
  6
CONTINUOUS
 10
-32.3506257756
 20
36.3507390786
 11
32.3506257755
 21
36.3507390785
  0
LINE
  5
37E
100
AcDbEntity
  8
RACCORDO
100
AcDbLine
 62
7
  6
CONTINUOUS
 10
-32.5000571154
 20
36.5001704184
 11
32.5000571154
 21
36.5001704184
  0
LINE
  5
37F
100
AcDbEntity
  8
0
100
AcDbLine
 62
7
  6
CONTINUOUS
 10
24.3645837307
 20
-37.6700423571
 11
24.5208337307
 21
-37.457276425
  0
LINE
  5
380
100
AcDbEntity
  8
0
100
AcDbLine
 62
7
  6
CONTINUOUS
 10
-11.3404895026
 20
39.1946128195
 11
-13.2482968889
 21
38.683708022
  0
LINE
  5
381
100
AcDbEntity
  8
0
100
AcDbLine
 62
7
  6
CONTINUOUS
 10
-9.4414974798
 20
40.9940042715
 11
-11.617988146
 21
40.4111469395
  0
LINE
  5
382
100
AcDbEntity
  8
RACCORDO
100
AcDbLine
 62
253
  6
CONTINUOUS
 10
11.6242862143
 20
40.4113243396
 11
11.624966665
 21
40.4111468862
  0
LINE
  5
383
100
AcDbEntity
  8
0
100
AcDbLine
 62
7
  6
CONTINUOUS
 10
11.3474678225
 20
39.1946128195
 11
13.2552746509
 21
38.6837081714
  0
LINE
  5
384
100
AcDbEntity
  8
0
100
AcDbLine
 62
7
  6
CONTINUOUS
 10
9.4484757997
 20
40.9940042715
 11
11.624966407
 21
40.4111469553
  0
LINE
  5
385
100
AcDbEntity
  8
0
100
AcDbLine
 62
7
  6
CONTINUOUS
 10
24.2083337307
 20
-37.404084942
 11
24.1041662693
 21
-37.510467908
  0
LINE
  5
386
100
AcDbEntity
  8
0
100
AcDbLine
 62
7
  6
CONTINUOUS
 10
24.15625
 20
-37.7764253231
 11
24.3645837307
 21
-37.6700423571
  0
LINE
  5
387
100
AcDbEntity
  8
0
100
AcDbLine
 62
7
  6
CONTINUOUS
 10
24.1041662693
 20
-37.510467908
 11
23.9479168653
 21
-37.563659391
  0
LINE
  5
388
100
AcDbEntity
  8
0
100
AcDbLine
 62
7
  6
CONTINUOUS
 10
-7.8423463027
 20
42.7934809882
 11
-9.8689163395
 21
42.2507719276
  0
LINE
  5
389
100
AcDbEntity
  8
0
100
AcDbLine
 62
7
  6
CONTINUOUS
 10
-5.9933277541
 20
44.592886651
 11
-8.1198450754
 21
44.0234120231
  0
LINE
  5
38A
100
AcDbEntity
  8
0
100
AcDbLine
 62
7
  6
CONTINUOUS
 10
-0.9959803257
 20
46.4913932272
 11
-3.8721009316
 21
45.7211772052
  0
LINE
  5
38B
100
AcDbEntity
  8
0
100
AcDbLine
 62
7
  6
CONTINUOUS
 10
7.8493246226
 20
42.7934809882
 11
7.825907715
 21
42.7969873392
  0
LINE
  5
38C
100
AcDbEntity
  8
RACCORDO
100
AcDbLine
 62
253
  6
CONTINUOUS
 10
3.8675105332
 20
45.7229096372
 11
3.8790791285
 21
45.7211772381
  0
LINE
  5
38D
100
AcDbEntity
  8
0
100
AcDbLine
 62
7
  6
CONTINUOUS
 10
6.0002547093
 20
44.5928757666
 11
5.9824078008
 21
44.5955666645
  0
LINE
  5
38E
100
AcDbEntity
  8
0
100
AcDbLine
 62
7
  6
CONTINUOUS
 10
1.0028816319
 20
46.4913871518
 11
0.9999756001
 21
46.4918398961
  0
LINE
  5
38F
100
AcDbEntity
  8
RACCORDO
100
AcDbLine
 62
253
  6
CONTINUOUS
 10
8.1263093902
 20
44.0235457931
 11
8.1268235019
 21
44.0234119945
  0
LINE
  5
390
100
AcDbEntity
  8
RACCORDO
100
AcDbLine
 62
253
  6
CONTINUOUS
 10
9.8754255834
 20
42.250894848
 11
9.8758949069
 21
42.2507718614
  0
LINE
  5
391
100
AcDbEntity
  8
0
100
AcDbLine
 62
7
  6
CONTINUOUS
 10
7.8493246226
 20
42.7934809882
 11
9.875894753
 21
42.2507719026
  0
LINE
  5
392
100
AcDbEntity
  8
0
100
AcDbLine
 62
7
  6
CONTINUOUS
 10
6.0003060741
 20
44.592886651
 11
8.1268232028
 21
44.0234120746
  0
LINE
  5
393
100
AcDbEntity
  8
0
100
AcDbLine
 62
7
  6
CONTINUOUS
 10
1.0029586456
 20
46.4913932272
 11
3.8790783984
 21
45.7211774336
  0
LINE
  5
394
100
AcDbEntity
  8
DRAFT
100
AcDbLine
 62
7
  6
CONTINUOUS
 10
12.1330642872
 20
-46.3503972609
 11
11.9258023047
 21
-46.4540203599
  0
LINE
  5
395
100
AcDbEntity
  8
RACCORDO
100
AcDbLine
 62
7
  6
CONTINUOUS
 10
-90.8174376654
 20
-46.4998295816
 11
-51.8087111299
 21
-46.1594055824
  0
LINE
  5
396
100
AcDbEntity
  8
RACCORDO
100
AcDbLine
 62
7
  6
CONTINUOUS
 10
-92.0174376654
 20
-46.4998295816
 11
-90.8174376654
 21
-46.4998295816
  0
LINE
  5
397
100
AcDbEntity
  8
ASSI
100
AcDbLine
 62
7
  6
CONTINUOUS
 10
-104.6344393116
 20
-46.4998295816
 11
-109.2881034671
 21
-46.4998295816
  0
LINE
  5
398
100
AcDbEntity
  8
RACCORDO
100
AcDbLine
 62
7
  6
CONTINUOUS
 10
-92.0174376654
 20
-46.4998295816
 11
-109.1405773552
 21
-46.3503982054
  0
LINE
  5
399
100
AcDbEntity
  8
RACCORDO
100
AcDbLine
 62
253
  6
CONTINUOUS
 10
-92.0174376654
 20
-44.999886697
 11
-109.1406855755
 21
-44.8504543763
  0
LINE
  5
39A
100
AcDbEntity
  8
RACCORDO
100
AcDbLine
 62
253
  6
CONTINUOUS
 10
-90.8174376654
 20
-44.999886697
 11
-51.8087111299
 21
-44.6594564305
  0
LINE
  5
39B
100
AcDbEntity
  8
RACCORDO
100
AcDbLine
 62
253
  6
CONTINUOUS
 10
-92.0174376654
 20
-44.9998295816
 11
-90.8174376654
 21
-44.9998295816
  0
LINE
  5
39C
100
AcDbEntity
  8
RACCORDO
100
AcDbLine
 62
253
  6
CONTINUOUS
 10
-50.8174376654
 20
-44.6594626978
 11
-51.8087111299
 21
-44.6594626978
  0
LINE
  5
39D
100
AcDbEntity
  8
RACCORDO
100
AcDbLine
 62
253
  6
CONTINUOUS
 10
-114.0692212202
 20
-41.8774102246
 11
-112.5906605369
 21
-41.7193634521
  0
LINE
  5
39E
100
AcDbEntity
  8
0
100
AcDbLine
 62
7
  6
CONTINUOUS
 10
-114.512807075
 20
-38.9998295816
 11
-114.3620945786
 21
-38.9998295816
  0
LINE
  5
39F
100
AcDbEntity
  8
0
100
AcDbLine
 62
7
  6
CONTINUOUS
 10
-114.6299980696
 20
-37.7764253231
 11
-114.4793362592
 21
-37.7764253231
  0
LINE
  5
3A0
100
AcDbEntity
  8
0
100
AcDbLine
 62
7
  6
CONTINUOUS
 10
-114.6399838341
 20
-37.6700423571
 11
-114.489326341
 21
-37.6700423571
  0
LINE
  5
3A1
100
AcDbEntity
  8
0
100
AcDbLine
 62
7
  6
CONTINUOUS
 10
-114.6598571217
 20
-37.457276425
 11
-114.5092082201
 21
-37.457276425
  0
LINE
  5
3A2
100
AcDbEntity
  8
0
100
AcDbLine
 62
7
  6
CONTINUOUS
 10
-114.6299980696
 20
-37.7764253231
 11
-114.6399838341
 21
-37.6700423571
  0
LINE
  5
3A3
100
AcDbEntity
  8
0
100
AcDbLine
 62
7
  6
CONTINUOUS
 10
-114.7428577414
 20
-36.5530210646
 11
-114.7476664956
 21
-36.4998295816
  0
LINE
  5
3A4
100
AcDbEntity
  8
0
100
AcDbLine
 62
7
  6
CONTINUOUS
 10
-114.6746761372
 20
-37.2977019759
 11
-114.5240336414
 21
-37.2977019759
  0
LINE
  5
3A5
100
AcDbEntity
  8
0
100
AcDbLine
 62
7
  6
CONTINUOUS
 10
-114.6943202556
 20
-37.0849358948
 11
-114.5436862505
 21
-37.0849358948
  0
LINE
  5
3A6
100
AcDbEntity
  8
0
100
AcDbLine
 62
7
  6
CONTINUOUS
 10
-114.7089674093
 20
-36.9253614458
 11
-114.5583397345
 21
-36.9253614458
  0
LINE
  5
3A7
100
AcDbEntity
  8
0
100
AcDbLine
 62
7
  6
CONTINUOUS
 10
-114.7283823989
 20
-36.7125955137
 11
-114.5777631141
 21
-36.7125955137
  0
LINE
  5
3A8
100
AcDbEntity
  8
0
100
AcDbLine
 62
7
  6
CONTINUOUS
 10
-114.7428577414
 20
-36.5530210646
 11
-114.5922447115
 21
-36.5530210646
  0
LINE
  5
3A9
100
AcDbEntity
  8
0
100
AcDbLine
 62
7
  6
CONTINUOUS
 10
-114.7476664956
 20
-36.4998295816
 11
-114.5970555434
 21
-36.4998295816
  0
LINE
  5
3AA
100
AcDbEntity
  8
RACCORDO
100
AcDbLine
 62
7
  6
CONTINUOUS
 10
-114.0692212347
 20
31.8777510631
 11
-114.069232887
 21
31.877641088
  0
LINE
  5
3AB
100
AcDbEntity
  8
RACCORDO
100
AcDbLine
 62
253
  6
CONTINUOUS
 10
-114.6996367214
 20
-35.3432405468
 11
-113.2183763296
 21
-35.2131975385
  0
LINE
  5
3AC
100
AcDbEntity
  8
RACCORDO
100
AcDbLine
 62
7
  6
CONTINUOUS
 10
-112.0174376654
 20
-45.4090790908
 11
-112.0174376654
 21
-45.6891892981
  0
LINE
  5
3AD
100
AcDbEntity
  8
RACCORDO
100
AcDbLine
 62
253
  6
CONTINUOUS
 10
-111.0174376654
 20
-45.9667348979
 11
-111.0174376654
 21
-46.1912476221
  0
LINE
  5
3AE
100
AcDbEntity
  8
RACCORDO
100
AcDbLine
 62
7
  6
CONTINUOUS
 10
-115.2073000612
 20
-28.7998295816
 11
-115.2410193433
 21
-28.7998295816
  0
LINE
  5
3AF
100
AcDbEntity
  8
RACCORDO
100
AcDbLine
 62
7
  6
CONTINUOUS
 10
-92.0174376654
 20
-46.4998295816
 11
-92.0174376654
 21
36.5001704184
  0
LINE
  5
3B0
100
AcDbEntity
  8
RACCORDO
100
AcDbLine
 62
7
  6
CONTINUOUS
 10
-90.8174376654
 20
-46.4998295816
 11
-90.8174376654
 21
36.5001704184
  0
LINE
  5
3B1
100
AcDbEntity
  8
0
100
AcDbLine
 62
7
  6
CONTINUOUS
 10
-80.8929302389
 20
37.8362223769
 11
-80.9053446751
 21
36.4136688934
  0
LINE
  5
3B2
100
AcDbEntity
  8
0
100
AcDbLine
 62
7
  6
CONTINUOUS
 10
-78.722032499
 20
40.2214849739
 11
-78.7257563198
 21
39.7947773804
  0
LINE
  5
3B3
100
AcDbEntity
  8
0
100
AcDbLine
 62
7
  6
CONTINUOUS
 10
-78.2257753582
 20
39.7904141127
 11
-78.230138626
 21
39.2904331512
  0
LINE
  5
3B4
100
AcDbEntity
  8
0
100
AcDbLine
 62
7
  6
CONTINUOUS
 10
-76.9560406295
 20
42.0463358467
 11
-76.9601151905
 21
41.5794374048
  0
LINE
  5
3B5
100
AcDbEntity
  8
0
100
AcDbLine
 62
7
  6
CONTINUOUS
 10
-76.3101399405
 20
41.5737651568
 11
-76.3145032083
 21
41.0737841952
  0
LINE
  5
3B6
100
AcDbEntity
  8
0
100
AcDbLine
 62
7
  6
CONTINUOUS
 10
-75.1906333271
 20
43.8042019722
 11
-75.1944740613
 21
43.3640974292
  0
LINE
  5
3B7
100
AcDbEntity
  8
0
100
AcDbLine
 62
7
  6
CONTINUOUS
 10
-74.6944930997
 20
43.3597341615
 11
-74.6988563675
 21
42.8597532
  0
LINE
  5
3B8
100
AcDbEntity
  8
0
100
AcDbLine
 62
7
  6
CONTINUOUS
 10
-70.9259684377
 20
45.466087608
 11
-70.9289281243
 21
45.1269411149
  0
LINE
  5
3B9
100
AcDbEntity
  8
0
100
AcDbLine
 62
7
  6
CONTINUOUS
 10
-70.4289471628
 20
45.1225778471
 11
-70.4333104305
 21
44.6225968856
  0
LINE
  5
3BA
100
AcDbEntity
  8
RACCORDO
100
AcDbLine
 62
7
  6
CONTINUOUS
 10
-104.5252849817
 20
-46.3906752517
 11
-104.6344393116
 21
-46.4998295816
  0
LINE
  5
3BB
100
AcDbEntity
  8
RACCORDO
100
AcDbLine
 62
7
  6
CONTINUOUS
 10
-115.2410193433
 20
18.8001704184
 11
-115.2073000612
 21
18.8001704184
  0
LINE
  5
3BC
100
AcDbEntity
  8
0
100
AcDbLine
 62
7
  6
CONTINUOUS
 10
-63.2292213167
 20
45.0597467915
 11
-63.2335845845
 21
44.55976583
  0
LINE
  5
3BD
100
AcDbEntity
  8
0
100
AcDbLine
 62
7
  6
CONTINUOUS
 10
-62.7262806686
 20
45.3945300169
 11
-62.7292403552
 21
45.0553835238
  0
LINE
  5
3BE
100
AcDbEntity
  8
RACCORDO
100
AcDbLine
 62
253
  6
CONTINUOUS
 10
-114.6996361275
 20
25.3435813319
 11
-113.2183763296
 21
25.2135383754
  0
LINE
  5
3BF
100
AcDbEntity
  8
0
100
AcDbLine
 62
7
  6
CONTINUOUS
 10
-58.9950909076
 20
43.2227275542
 11
-58.9994541754
 21
42.7227465926
  0
LINE
  5
3C0
100
AcDbEntity
  8
0
100
AcDbLine
 62
7
  6
CONTINUOUS
 10
-58.4912692119
 20
43.6584688294
 11
-58.4951099461
 21
43.2183642864
  0
LINE
  5
3C1
100
AcDbEntity
  8
0
100
AcDbLine
 62
7
  6
CONTINUOUS
 10
-57.4108595946
 20
41.4088336358
 11
-57.4152228624
 21
40.9088526743
  0
LINE
  5
3C2
100
AcDbEntity
  8
0
100
AcDbLine
 62
7
  6
CONTINUOUS
 10
-56.7568097836
 20
41.8700598297
 11
-56.7608843446
 21
41.4031613878
  0
LINE
  5
3C3
100
AcDbEntity
  8
0
100
AcDbLine
 62
7
  6
CONTINUOUS
 10
-55.5266397047
 20
39.5923217569
 11
-55.5310029724
 21
39.0923407954
  0
LINE
  5
3C4
100
AcDbEntity
  8
0
100
AcDbLine
 62
7
  6
CONTINUOUS
 10
-55.0229349224
 20
40.0146660826
 11
-55.0266587431
 21
39.5879584891
  0
LINE
  5
3C5
100
AcDbEntity
  8
0
100
AcDbLine
 62
7
  6
CONTINUOUS
 10
-52.8939963931
 20
37.5918793829
 11
-52.9064108293
 21
36.1693258994
  0
LINE
  5
3C6
100
AcDbEntity
  8
RACCORDO
100
AcDbLine
 62
253
  6
CONTINUOUS
 10
-114.069219035
 20
31.8777508299
 11
-112.5906605369
 21
31.7197042889
  0
LINE
  5
3C7
100
AcDbEntity
  8
RACCORDO
100
AcDbLine
 62
253
  6
CONTINUOUS
 10
-51.8087111299
 20
34.6597961606
 11
-51.8087111299
 21
-44.6594564305
  0
LINE
  5
3C8
100
AcDbEntity
  8
0
100
AcDbLine
 62
7
  6
CONTINUOUS
 10
-50.8174376654
 20
-44.9998295816
 11
-50.8174376654
 21
-44.6594626978
  0
LINE
  5
3C9
100
AcDbEntity
  8
RACCORDO
100
AcDbLine
 62
7
  6
CONTINUOUS
 10
-50.8174376654
 20
35.1597844962
 11
-50.8174376654
 21
-45.1594436594
  0
LINE
  5
3CA
100
AcDbEntity
  8
RACCORDO
100
AcDbLine
 62
253
  6
CONTINUOUS
 10
-50.8174376654
 20
34.6598035346
 11
-51.8087111299
 21
34.6598035346
  0
LINE
  5
3CB
100
AcDbEntity
  8
0
100
AcDbLine
 62
7
  6
CONTINUOUS
 10
-78.230138626
 20
39.2904331512
 11
-80.1433483195
 21
38.7956434819
  0
LINE
  5
3CC
100
AcDbEntity
  8
0
100
AcDbLine
 62
7
  6
CONTINUOUS
 10
-76.3145032083
 20
41.0737841952
 11
-78.4971579226
 21
40.5093113055
  0
LINE
  5
3CD
100
AcDbEntity
  8
RACCORDO
100
AcDbLine
 62
253
  6
CONTINUOUS
 10
-109.1406855755
 20
34.8507952132
 11
-92.0174376654
 21
35.0002275338
  0
LINE
  5
3CE
100
AcDbEntity
  8
RACCORDO
100
AcDbLine
 62
7
  6
CONTINUOUS
 10
-109.1405731911
 20
36.3507390785
 11
-92.0174376654
 21
36.5001704184
  0
LINE
  5
3CF
100
AcDbEntity
  8
RACCORDO
100
AcDbLine
 62
253
  6
CONTINUOUS
 10
-92.0174376654
 20
35.0001704184
 11
-90.8174376654
 21
35.0001704184
  0
LINE
  5
3D0
100
AcDbEntity
  8
RACCORDO
100
AcDbLine
 62
7
  6
CONTINUOUS
 10
-92.0174376654
 20
36.5001704184
 11
-90.8174376654
 21
36.5001704184
  0
LINE
  5
3D1
100
AcDbEntity
  8
RACCORDO
100
AcDbLine
 62
253
  6
CONTINUOUS
 10
-90.8174376654
 20
35.0002275338
 11
-51.8087111299
 21
34.6597961606
  0
LINE
  5
3D2
100
AcDbEntity
  8
RACCORDO
100
AcDbLine
 62
7
  6
CONTINUOUS
 10
-90.8174376654
 20
36.5001704184
 11
-51.8087111299
 21
36.1597464192
  0
LINE
  5
3D3
100
AcDbEntity
  8
RACCORDO
100
AcDbLine
 62
253
  6
CONTINUOUS
 10
-80.8929302375
 20
37.8362223769
 11
-52.8939963945
 21
37.591879383
  0
LINE
  5
3D4
100
AcDbEntity
  8
0
100
AcDbLine
 62
7
  6
CONTINUOUS
 10
-74.6988563675
 20
42.8597532
 11
-76.7311660533
 21
42.3341621783
  0
LINE
  5
3D5
100
AcDbEntity
  8
0
100
AcDbLine
 62
7
  6
CONTINUOUS
 10
-72.8332190459
 20
44.6435405708
 11
-74.9657587497
 21
44.0920283041
  0
LINE
  5
3D6
100
AcDbEntity
  8
0
100
AcDbLine
 62
7
  6
CONTINUOUS
 10
-67.8168290131
 20
46.4998355471
 11
-70.7010938582
 21
45.7539139403
  0
LINE
  5
3D7
100
AcDbEntity
  8
RACCORDO
100
AcDbLine
 62
253
  6
CONTINUOUS
 10
-80.1433483184
 20
38.7956434818
 11
-53.6267199416
 21
38.5642363717
  0
LINE
  5
3D8
100
AcDbEntity
  8
0
100
AcDbLine
 62
7
  6
CONTINUOUS
 10
-55.5310029724
 20
39.0923407954
 11
-78.230138626
 21
39.2904331512
  0
LINE
  5
3D9
100
AcDbEntity
  8
0
100
AcDbLine
 62
7
  6
CONTINUOUS
 10
-55.0267014089
 20
39.5879588615
 11
-78.725713654
 21
39.7947770081
  0
LINE
  5
3DA
100
AcDbEntity
  8
RACCORDO
100
AcDbLine
 62
253
  6
CONTINUOUS
 10
-78.7220324982
 20
40.2214849739
 11
-55.0229349232
 21
40.0146660826
  0
LINE
  5
3DB
100
AcDbEntity
  8
RACCORDO
100
AcDbLine
 62
253
  6
CONTINUOUS
 10
-78.4971579221
 20
40.5093113054
 11
-55.2427519877
 21
40.3063731793
  0
LINE
  5
3DC
100
AcDbEntity
  8
0
100
AcDbLine
 62
7
  6
CONTINUOUS
 10
-57.4152228624
 20
40.9088526743
 11
-76.3145032083
 21
41.0737841952
  0
LINE
  5
3DD
100
AcDbEntity
  8
0
100
AcDbLine
 62
7
  6
CONTINUOUS
 10
-56.7609432003
 20
41.4031619014
 11
-76.9600563348
 21
41.5794368912
  0
LINE
  5
3DE
100
AcDbEntity
  8
RACCORDO
100
AcDbLine
 62
253
  6
CONTINUOUS
 10
-76.9560406289
 20
42.0463358467
 11
-56.7568097843
 21
41.8700598297
  0
LINE
  5
3DF
100
AcDbEntity
  8
RACCORDO
100
AcDbLine
 62
253
  6
CONTINUOUS
 10
-76.7311660531
 20
42.3341621782
 11
-56.9766268484
 21
42.1617669263
  0
LINE
  5
3E0
100
AcDbEntity
  8
0
100
AcDbLine
 62
7
  6
CONTINUOUS
 10
-58.9994541754
 20
42.7227465926
 11
-74.6988563675
 21
42.8597532
  0
LINE
  5
3E1
100
AcDbEntity
  8
0
100
AcDbLine
 62
7
  6
CONTINUOUS
 10
-58.4951210243
 20
43.2183643831
 11
-75.1944629831
 21
43.3640973326
  0
LINE
  5
3E2
100
AcDbEntity
  8
RACCORDO
100
AcDbLine
 62
253
  6
CONTINUOUS
 10
-75.1906333269
 20
43.8042019722
 11
-58.4912692121
 21
43.6584688294
  0
LINE
  5
3E3
100
AcDbEntity
  8
RACCORDO
100
AcDbLine
 62
253
  6
CONTINUOUS
 10
-74.9657587497
 20
44.092028304
 11
-58.7110862777
 21
43.9501759264
  0
LINE
  5
3E4
100
AcDbEntity
  8
0
100
AcDbLine
 62
7
  6
CONTINUOUS
 10
-60.8336796016
 20
44.5388221765
 11
-72.8332154134
 21
44.6435405391
  0
LINE
  5
3E5
100
AcDbEntity
  8
0
100
AcDbLine
 62
7
  6
CONTINUOUS
 10
-62.7292404126
 20
45.0553835243
 11
-70.9289280669
 21
45.1269411144
  0
LINE
  5
3E6
100
AcDbEntity
  8
RACCORDO
100
AcDbLine
 62
253
  6
CONTINUOUS
 10
-70.925968437
 20
45.4660876078
 11
-62.7262806693
 21
45.3945300167
  0
LINE
  5
3E7
100
AcDbEntity
  8
RACCORDO
100
AcDbLine
 62
253
  6
CONTINUOUS
 10
-70.7010938607
 20
45.7539139394
 11
-62.946097734
 21
45.6862371135
  0
LINE
  5
3E8
100
AcDbEntity
  8
0
100
AcDbLine
 62
7
  6
CONTINUOUS
 10
-55.5310029724
 20
39.0923407954
 11
-53.6267199404
 21
38.5642363717
  0
LINE
  5
3E9
100
AcDbEntity
  8
0
100
AcDbLine
 62
7
  6
CONTINUOUS
 10
-65.8169265164
 20
46.4823826624
 11
-67.8168076637
 21
46.4998353608
  0
LINE
  5
3EA
100
AcDbEntity
  8
0
100
AcDbLine
 62
7
  6
CONTINUOUS
 10
-57.4152228624
 20
40.9088526743
 11
-55.2427519872
 21
40.3063731794
  0
LINE
  5
3EB
100
AcDbEntity
  8
0
100
AcDbLine
 62
7
  6
CONTINUOUS
 10
-58.9994541754
 20
42.7227465926
 11
-56.9766268483
 21
42.1617669264
  0
LINE
  5
3EC
100
AcDbEntity
  8
0
100
AcDbLine
 62
7
  6
CONTINUOUS
 10
-60.8336759691
 20
44.5388221448
 11
-58.7110862777
 21
43.9501759264
  0
LINE
  5
3ED
100
AcDbEntity
  8
0
100
AcDbLine
 62
7
  6
CONTINUOUS
 10
-65.816905167
 20
46.4823824761
 11
-62.9460977365
 21
45.6862371144
  0
ARC
  5
3EE
100
AcDbEntity
  8
RACCORDO
100
AcDbCircle
 62
253
  6
CONTINUOUS
 10
1956.6513520691
 20
-4.9999986048
 40
1984.2354320813
100
AcDbArc
 50
179.1333870043
 51
180.8666032356
  0
ARC
  5
3EF
100
AcDbEntity
  8
RACCORDO
100
AcDbCircle
 62
253
  6
CONTINUOUS
 10
-1956.6261301627
 20
-4.9996587015
 40
1984.2102138339
100
AcDbArc
 50
359.1333759353
 51
0.8666141972
  0
ARC
  5
3F0
100
AcDbEntity
  8
RACCORDO
100
AcDbCircle
 62
253
  6
CONTINUOUS
 10
1951.9344626761
 20
-4.999955681
 40
1979.0261292431
100
AcDbArc
 50
179.1900130314
 51
180.8099796496
  0
ARC
  5
3F1
100
AcDbEntity
  8
RACCORDO
100
AcDbCircle
 62
253
  6
CONTINUOUS
 10
-1951.934009213
 20
-4.999682087
 40
1979.0256757362
100
AcDbArc
 50
359.1900122308
 51
0.8099792147
  0
ARC
  5
3F2
100
AcDbEntity
  8
0
100
AcDbCircle
 62
7
  6
CONTINUOUS
 10
0.0034333113
 20
-868.5452929567
 40
911.9094304827
100
AcDbArc
 50
89.7861598348
 51
90.2136593709
  0
ARC
  5
3F3
100
AcDbEntity
  8
0
100
AcDbCircle
 62
7
  6
CONTINUOUS
 10
0.0057528287
 20
-810.5330954322
 40
853.8928709391
100
AcDbArc
 50
89.7759012537
 51
90.228332173
  0
ARC
  5
3F4
100
AcDbEntity
  8
RACCORDO
100
AcDbCircle
 62
253
  6
CONTINUOUS
 10
-82.0102971033
 20
-8.1926593856
 40
60.8783612798
100
AcDbArc
 50
333.8631690027
 51
334.302782801
  0
ARC
  5
3F5
100
AcDbEntity
  8
RACCORDO
100
AcDbCircle
 62
253
  6
CONTINUOUS
 10
82.0036111347
 20
-1.8037525071
 40
60.8709285093
100
AcDbArc
 50
153.8631407075
 51
154.302808194
  0
ARC
  5
3F6
100
AcDbEntity
  8
RACCORDO
100
AcDbCircle
 62
253
  6
CONTINUOUS
 10
-81.9288753478
 20
-1.7674318151
 40
60.7878349396
100
AcDbArc
 50
25.6968881677
 51
26.1371568488
  0
ARC
  5
3F7
100
AcDbEntity
  8
RACCORDO
100
AcDbCircle
 62
253
  6
CONTINUOUS
 10
81.9265095672
 20
-8.2333771156
 40
60.7852045807
100
AcDbArc
 50
205.6968785468
 51
206.1371662589
  0
ARC
  5
3F8
100
AcDbEntity
  8
RACCORDO
100
AcDbCircle
 62
253
  6
CONTINUOUS
 10
41.2115498001
 20
-7.6488581755
 40
30.6693654781
100
AcDbArc
 50
242.2729756972
 51
243.1448468016
  0
ARC
  5
3F9
100
AcDbEntity
  8
RACCORDO
100
AcDbCircle
 62
253
  6
CONTINUOUS
 10
-41.2110379517
 20
-7.6501536141
 40
30.6679785651
100
AcDbArc
 50
296.8553933646
 51
297.7269786338
  0
ARC
  5
3FA
100
AcDbEntity
  8
RACCORDO
100
AcDbCircle
 62
253
  6
CONTINUOUS
 10
41.2100621478
 20
-2.3476157764
 40
30.6658517924
100
AcDbArc
 50
116.8553618328
 51
117.7270076265
  0
ARC
  5
3FB
100
AcDbEntity
  8
RACCORDO
100
AcDbCircle
 62
253
  6
CONTINUOUS
 10
-41.2031566575
 20
-2.3343554694
 40
30.6509021386
100
AcDbArc
 50
62.2727985653
 51
63.1449569265
  0
ARC
  5
3FC
100
AcDbEntity
  8
0
100
AcDbCircle
 62
7
  6
CONTINUOUS
 10
-9.344820458
 20
37.0408694621
 40
4.4868717983
100
AcDbArc
 50
91.3087093405
 51
91.6718201095
  0
ARC
  5
3FD
100
AcDbEntity
  8
0
100
AcDbCircle
 62
7
  6
CONTINUOUS
 10
9.3517987779
 20
45.9417293296
 40
4.4868717975
100
AcDbArc
 50
271.3087093405
 51
271.6718201096
  0
ARC
  5
3FE
100
AcDbEntity
  8
RACCORDO
100
AcDbCircle
 62
253
  6
CONTINUOUS
 10
11.6418673162
 20
38.48148671
 40
1.6540079188
100
AcDbArc
 50
84.1011670033
 51
85.5017400695
  0
ARC
  5
3FF
100
AcDbEntity
  8
RACCORDO
100
AcDbCircle
 62
253
  6
CONTINUOUS
 10
11.4234869011
 20
38.801991169
 40
1.6229431657
100
AcDbArc
 50
84.1011677417
 51
85.5017556934
  0
ARC
  5
400
100
AcDbEntity
  8
RACCORDO
100
AcDbCircle
 62
253
  6
CONTINUOUS
 10
32.3504874142
 20
34.8506578326
 40
1.5000802714
100
AcDbArc
 50
0.0052472679
 51
89.9947527321
  0
ARC
  5
401
100
AcDbEntity
  8
RACCORDO
100
AcDbCircle
 62
253
  6
CONTINUOUS
 10
32.3504874141
 20
-44.8503169957
 40
1.5000802715
100
AcDbArc
 50
270.0052472736
 51
359.9947527264
  0
ARC
  5
402
100
AcDbEntity
  8
RACCORDO
100
AcDbCircle
 62
253
  6
CONTINUOUS
 10
-32.3504874141
 20
34.8506578325
 40
1.5000802715
100
AcDbArc
 50
90.0052472738
 51
179.9947527262
  0
ARC
  5
403
100
AcDbEntity
  8
RACCORDO
100
AcDbCircle
 62
253
  6
CONTINUOUS
 10
-32.3504874142
 20
-44.8503169958
 40
1.5000802714
100
AcDbArc
 50
180.0052472679
 51
269.9947527321
  0
ARC
  5
404
100
AcDbEntity
  8
RACCORDO
100
AcDbCircle
 62
7
  6
CONTINUOUS
 10
32.5
 20
-44.9998295816
 40
1.5
100
AcDbArc
 50
329.9946812089
 51
360.0
  0
ARC
  5
405
100
AcDbEntity
  8
RACCORDO
100
AcDbCircle
 62
7
  6
CONTINUOUS
 10
-32.5
 20
-44.9998295816
 40
1.5
100
AcDbArc
 50
239.9946807303
 51
270.0
  0
ARC
  5
406
100
AcDbEntity
  8
RACCORDO
100
AcDbCircle
 62
7
  6
CONTINUOUS
 10
-32.5
 20
35.0001704184
 40
1.5
100
AcDbArc
 50
149.9946812089
 51
180.0
  0
ARC
  5
407
100
AcDbEntity
  8
RACCORDO
100
AcDbCircle
 62
7
  6
CONTINUOUS
 10
32.5
 20
35.0001704184
 40
1.5
100
AcDbArc
 50
59.9946807303
 51
90.0
  0
ARC
  5
408
100
AcDbEntity
  8
RACCORDO
100
AcDbCircle
 62
253
  6
CONTINUOUS
 10
9.9334844352
 20
40.6639320686
 40
1.3085800595
100
AcDbArc
 50
84.0997576259
 51
85.4244591672
  0
ARC
  5
409
100
AcDbEntity
  8
RACCORDO
100
AcDbCircle
 62
253
  6
CONTINUOUS
 10
8.1971447556
 20
42.5079550881
 40
1.2360256887
100
AcDbArc
 50
84.1022385829
 51
85.5600880517
  0
ARC
  5
40A
100
AcDbEntity
  8
RACCORDO
100
AcDbCircle
 62
7
  6
CONTINUOUS
 10
13.0038037388
 20
37.7138968308
 40
0.9996867419
100
AcDbArc
 50
0.7100381691
 51
4.7114860061
  0
ARC
  5
40B
100
AcDbEntity
  8
RACCORDO
100
AcDbCircle
 62
7
  6
CONTINUOUS
 10
13.0110026559
 20
37.7140481682
 40
0.9924865041
100
AcDbArc
 50
0.0001565457
 51
0.7064522714
  0
ARC
  5
40C
100
AcDbEntity
  8
0
100
AcDbCircle
 62
7
  6
CONTINUOUS
 10
-3.9983436149
 20
45.9001871779
 40
0.816330143
100
AcDbArc
 50
264.1106557467
 51
265.8970240286
  0
ARC
  5
40D
100
AcDbEntity
  8
RACCORDO
100
AcDbCircle
 62
7
  6
CONTINUOUS
 10
3.7999095962
 20
45.42967878
 40
0.3036082082
100
AcDbArc
 50
7.0831555502
 51
13.7934526875
  0
ARC
  5
40E
100
AcDbEntity
  8
RACCORDO
100
AcDbCircle
 62
7
  6
CONTINUOUS
 10
11.5503520667
 20
40.1176186412
 40
0.3031501806
100
AcDbArc
 50
7.3173308552
 51
21.3984085831
  0
ARC
  5
40F
100
AcDbEntity
  8
RACCORDO
100
AcDbCircle
 62
7
  6
CONTINUOUS
 10
9.8006283269
 20
41.9577786339
 40
0.3028723983
100
AcDbArc
 50
7.1308185729
 51
20.9639349016
  0
ARC
  5
410
100
AcDbEntity
  8
RACCORDO
100
AcDbCircle
 62
7
  6
CONTINUOUS
 10
8.0508208
 20
43.7309338017
 40
0.3026794157
100
AcDbArc
 50
7.0010936939
 51
20.5965574698
  0
ARC
  5
411
100
AcDbEntity
  8
RACCORDO
100
AcDbCircle
 62
7
  6
CONTINUOUS
 10
11.5541638558
 20
40.1179652355
 40
0.2993253245
100
AcDbArc
 50
0.0211118309
 51
7.3444575195
  0
ARC
  5
412
100
AcDbEntity
  8
RACCORDO
100
AcDbCircle
 62
7
  6
CONTINUOUS
 10
9.804228762
 20
41.9580962332
 40
0.2992604152
100
AcDbArc
 50
0.0194530907
 51
7.1560523665
  0
ARC
  5
413
100
AcDbEntity
  8
RACCORDO
100
AcDbCircle
 62
7
  6
CONTINUOUS
 10
8.0543254822
 20
43.7312389793
 40
0.2991636933
100
AcDbArc
 50
0.0184666124
 51
7.0248953144
  0
ARC
  5
414
100
AcDbEntity
  8
RACCORDO
100
AcDbCircle
 62
7
  6
CONTINUOUS
 10
3.8046818386
 20
45.4302063501
 40
0.2988073389
100
AcDbArc
 50
0.0196469416
 51
7.0956038771
  0
ARC
  5
415
100
AcDbEntity
  8
RACCORDO
100
AcDbCircle
 62
7
  6
CONTINUOUS
 10
-109.2881034671
 20
-41.4998295816
 40
5.0
100
AcDbArc
 50
236.9160796577
 51
270.0
  0
ARC
  5
416
100
AcDbEntity
  8
RACCORDO
100
AcDbCircle
 62
7
  6
CONTINUOUS
 10
-109.097052898
 20
-41.3505876456
 40
5.0
100
AcDbArc
 50
186.0468536989
 51
269.5012401604
  0
ARC
  5
417
100
AcDbEntity
  8
RACCORDO
100
AcDbCircle
 62
253
  6
CONTINUOUS
 10
-109.1101426975
 20
-41.3505876415
 40
3.5000000042
100
AcDbArc
 50
186.0481683542
 51
269.4999999391
  0
ARC
  5
418
100
AcDbEntity
  8
RACCORDO
100
AcDbCircle
 62
7
  6
CONTINUOUS
 10
-51.8174376654
 20
-45.1594436594
 40
1.0
100
AcDbArc
 50
270.5
 51
360.0
  0
ARC
  5
419
100
AcDbEntity
  8
RACCORDO
100
AcDbCircle
 62
7
  6
CONTINUOUS
 10
-115.2410193433
 20
-28.2998295816
 40
0.5
100
AcDbArc
 50
183.8170848391
 51
270.0
  0
ARC
  5
41A
100
AcDbEntity
  8
RACCORDO
100
AcDbCircle
 62
7
  6
CONTINUOUS
 10
-109.097052898
 20
31.3509284824
 40
5.0
100
AcDbArc
 50
90.4987121208
 51
173.9530989792
  0
ARC
  5
41B
100
AcDbEntity
  8
RACCORDO
100
AcDbCircle
 62
253
  6
CONTINUOUS
 10
-109.1101426975
 20
31.3509284783
 40
3.5000000042
100
AcDbArc
 50
90.5000000612
 51
173.9518316454
  0
ARC
  5
41C
100
AcDbEntity
  8
RACCORDO
100
AcDbCircle
 62
7
  6
CONTINUOUS
 10
-53.8939583161
 20
37.6006059184
 40
1.0
100
AcDbArc
 50
359.5
 51
74.5000000192
  0
ARC
  5
41D
100
AcDbEntity
  8
RACCORDO
100
AcDbCircle
 62
7
  6
CONTINUOUS
 10
-79.8929683158
 20
37.8274958414
 40
1.0
100
AcDbArc
 50
104.4999999808
 51
179.5
  0
ARC
  5
41E
100
AcDbEntity
  8
RACCORDO
100
AcDbCircle
 62
7
  6
CONTINUOUS
 10
-51.8174376654
 20
35.1597844539
 40
1.0
100
AcDbArc
 50
0.0000024223
 51
89.5000000211
  0
ARC
  5
41F
100
AcDbEntity
  8
RACCORDO
100
AcDbCircle
 62
7
  6
CONTINUOUS
 10
-115.2410193433
 20
18.3001704184
 40
0.5
100
AcDbArc
 50
90.0
 51
176.1829151609
  0
ARC
  5
420
100
AcDbEntity
  8
RACCORDO
100
AcDbCircle
 62
7
  6
CONTINUOUS
 10
-63.0262692455
 20
45.3971479774
 40
0.3
100
AcDbArc
 50
359.5
 51
74.500000758
  0
ARC
  5
421
100
AcDbEntity
  8
RACCORDO
100
AcDbCircle
 62
7
  6
CONTINUOUS
 10
-70.6259798608
 20
45.4634696472
 40
0.3
100
AcDbArc
 50
104.499999242
 51
179.5
  0
ARC
  5
422
100
AcDbEntity
  8
RACCORDO
100
AcDbCircle
 62
7
  6
CONTINUOUS
 10
-58.7912577888
 20
43.66108679
 40
0.3
100
AcDbArc
 50
359.5
 51
74.5000003388
  0
ARC
  5
423
100
AcDbEntity
  8
RACCORDO
100
AcDbCircle
 62
7
  6
CONTINUOUS
 10
-74.8906447502
 20
43.8015840115
 40
0.3
100
AcDbArc
 50
104.4999996612
 51
179.5
  0
ARC
  5
424
100
AcDbEntity
  8
RACCORDO
100
AcDbCircle
 62
7
  6
CONTINUOUS
 10
-57.0567983606
 20
41.8726777903
 40
0.3
100
AcDbArc
 50
359.5
 51
74.5000001049
  0
ARC
  5
425
100
AcDbEntity
  8
RACCORDO
100
AcDbCircle
 62
7
  6
CONTINUOUS
 10
-76.6560520526
 20
42.0437178861
 40
0.3
100
AcDbArc
 50
104.4999998951
 51
179.5
  0
ARC
  5
426
100
AcDbEntity
  8
RACCORDO
100
AcDbCircle
 62
7
  6
CONTINUOUS
 10
-55.3229234993
 20
40.0172840432
 40
0.3
100
AcDbArc
 50
359.5
 51
74.5000001447
  0
ARC
  5
427
100
AcDbEntity
  8
RACCORDO
100
AcDbCircle
 62
7
  6
CONTINUOUS
 10
-78.4220439221
 20
40.2188670132
 40
0.3
100
AcDbArc
 50
104.4999998553
 51
179.5
  0
ARC
  5
428
100
AcDbEntity
  8
RACCORDO
100
AcDbCircle
 62
7
  6
CONTINUOUS
 10
233.9825623346
 20
-4.9998295816
 40
350.5
100
AcDbArc
 50
176.1829151609
 51
183.8170848391
  0
ARC
  5
429
100
AcDbEntity
  8
0
100
AcDbCircle
 62
7
  6
CONTINUOUS
 10
233.9825623346
 20
-4.9998295816
 40
350.15
100
AcDbArc
 50
185.3711667119
 51
185.5722713779
  0
ARC
  5
42A
100
AcDbEntity
  8
0
100
AcDbCircle
 62
7
  6
CONTINUOUS
 10
233.9825623346
 20
-4.9998295816
 40
350.15
100
AcDbArc
 50
185.1701283899
 51
185.3536825237
  0
ARC
  5
42B
100
AcDbEntity
  8
DRAFT
100
AcDbCircle
 62
7
  6
CONTINUOUS
 10
233.9825623346
 20
-4.9998295816
 40
350.0
100
AcDbArc
 50
185.7297081062
 51
185.7391704773
  0
ARC
  5
42C
100
AcDbEntity
  8
DRAFT
100
AcDbCircle
 62
7
  6
CONTINUOUS
 10
233.9825623346
 20
-4.9998295816
 40
350.0
100
AcDbArc
 50
174.2639435092
 51
174.2730419797
  0
ARC
  5
42D
100
AcDbEntity
  8
RACCORDO
100
AcDbCircle
 62
7
  6
CONTINUOUS
 10
233.9825623346
 20
-4.9998295816
 40
350.0
100
AcDbArc
 50
173.9518498106
 51
186.0481495134
  0
ARC
  5
42E
100
AcDbEntity
  8
RACCORDO
100
AcDbCircle
 62
253
  6
CONTINUOUS
 10
234.012429619
 20
-5.0039740874
 40
348.5431546583
100
AcDbArc
 50
173.9518982366
 51
175.0264059083
  0
ARC
  5
42F
100
AcDbEntity
  8
RACCORDO
100
AcDbCircle
 62
253
  6
CONTINUOUS
 10
234.0056863455
 20
-4.9963356678
 40
348.5363803707
100
AcDbArc
 50
184.9735836491
 51
186.048112206
  0
ARC
  5
430
100
AcDbEntity
  8
RACCORDO
100
AcDbCircle
 62
253
  6
CONTINUOUS
 10
233.9229495105
 20
-4.9998295816
 40
348.4536330102
100
AcDbArc
 50
175.0258092422
 51
184.9741907577
  0
SPLINE
  5
431
100
AcDbEntity
  8
0
100
AcDbSpline
 62
7
  6
CONTINUOUS
 70
0
 71
3
 72
9
 73
5
 74
3
 42
0.0000001
 43
0.0000001
 44
0.0000000001
 12
0.4354249899
 22
-0.045208463
 32
0.0
 13
0.4374944466
 23
-0.013568089
 33
0.0
 40
0.0
 40
0.0
 40
0.0
 40
0.0
 40
0.4707959686
 40
1.0
 40
1.0
 40
1.0
 40
1.0
 10
-11.8048751557
 20
39.6827069541
 30
0.0
 10
-11.7365430457
 20
39.6756123
 30
0.0
 10
-11.5905995491
 20
39.6698340105
 30
0.0
 10
-11.4447637212
 20
39.6648576973
 30
0.0
 10
-11.3675891129
 20
39.6624642682
 30
0.0
 11
-11.8048751557
 21
39.6827069541
 31
0.0
 11
-11.5991476907
 21
39.6703492663
 31
0.0
 11
-11.3675891129
 21
39.6624642682
 31
0.0
  0
LINE
  5
432
100
AcDbEntity
  8
0
100
AcDbLine
 62
7
  6
CONTINUOUS
 10
-11.3675891129
 20
39.6624642682
 11
-11.3473280849
 21
39.6618414341
  0
SPLINE
  5
433
100
AcDbEntity
  8
0
100
AcDbSpline
 62
7
  6
CONTINUOUS
 70
0
 71
3
 72
10
 73
6
 74
4
 42
0.0000001
 43
0.0000001
 44
0.0000000001
 12
0.4332342452
 22
0.0240763966
 32
0.0
 13
-0.1924810723
 23
0.1825707544
 33
0.0
 40
0.0
 40
0.0
 40
0.0
 40
0.0
 40
0.1004131337
 40
0.7278680655
 40
1.0
 40
1.0
 40
1.0
 40
1.0
 10
11.3544117534
 20
39.6602356559
 30
0.0
 10
11.3689125561
 20
39.6610415181
 30
0.0
 10
11.4706355479
 20
39.6675120022
 30
0.0
 10
11.5716733323
 20
39.6835228823
 30
0.0
 10
11.8653781131
 20
39.6689530881
 30
0.0
 10
11.8479180309
 20
39.685514199
 30
0.0
 11
11.3544117534
 21
39.6602356559
 31
0.0
 11
11.3964426467
 21
39.6629254381
 31
0.0
 11
11.7062417654
 21
39.6751166948
 31
0.0
 11
11.8479180309
 21
39.685514199
 31
0.0
  0
SPLINE
  5
434
100
AcDbEntity
  8
0
100
AcDbSpline
 62
7
  6
CONTINUOUS
 70
0
 71
3
 72
10
 73
6
 74
4
 42
0.0000001
 43
0.0000001
 44
0.0000000001
 12
0.6110441195
 22
-0.0634423061
 32
0.0
 13
0.6140763512
 23
-0.0148657956
 33
0.0
 40
0.0
 40
0.0
 40
0.0
 40
0.0
 40
0.3204280554
 40
0.9154349175
 40
1.0
 40
1.0
 40
1.0
 40
1.0
 10
-10.0610238854
 20
41.4839174634
 30
0.0
 10
-9.9957586591
 20
41.4771412318
 30
0.0
 10
-9.8082311112
 20
41.470364889
 30
0.0
 10
-9.603624124
 20
41.4640263267
 30
0.0
 10
-9.4645268785
 20
41.4605621336
 30
0.0
 10
-9.4472170727
 20
41.4601430912
 30
0.0
 11
-10.0610238854
 21
41.4839174634
 31
0.0
 11
-9.8645061336
 21
41.4725167193
 31
0.0
 11
-9.4991442465
 21
41.4614373521
 31
0.0
 11
-9.4472170727
 21
41.4601430912
 31
0.0
  0
SPLINE
  5
435
100
AcDbEntity
  8
0
100
AcDbSpline
 62
7
  6
CONTINUOUS
 70
0
 71
3
 72
10
 73
6
 74
4
 42
0.0000001
 43
0.0000001
 44
0.0000000001
 12
0.6064146038
 22
0.0177600952
 32
0.0
 13
-0.2549729346
 23
0.2905058201
 33
0.0
 40
0.0
 40
0.0
 40
0.0
 40
0.0
 40
0.2553339676
 40
0.7695191559
 40
1.0
 40
1.0
 40
1.0
 40
1.0
 10
9.4827015806
 20
41.4567674588
 30
0.0
 10
9.5343143295
 20
41.458279044
 30
0.0
 10
9.6800768052
 20
41.465494415
 30
0.0
 10
9.8052918787
 20
41.4918871933
 30
0.0
 10
10.1149588975
 20
41.4618809954
 30
0.0
 10
10.0953701051
 20
41.4841996709
 30
0.0
 11
9.4827015806
 21
41.4567674588
 31
0.0
 11
9.6256055476
 21
41.4645089661
 31
0.0
 11
9.9440019127
 21
41.4756981514
 31
0.0
 11
10.0953701051
 21
41.4841996709
 31
0.0
  0
SPLINE
  5
436
100
AcDbEntity
  8
0
100
AcDbSpline
 62
7
  6
CONTINUOUS
 70
0
 71
3
 72
9
 73
5
 74
3
 42
0.0000001
 43
0.0000001
 44
0.0000000001
 12
0.4685490666
 22
-0.0486476055
 32
0.0
 13
0.4708144121
 23
-0.0121450284
 33
0.0
 40
0.0
 40
0.0
 40
0.0
 40
0.0
 40
0.3672645296
 40
1.0
 40
1.0
 40
1.0
 40
1.0
 10
-8.3171726152
 20
43.2851279727
 30
0.0
 10
-8.259812131
 20
43.2791724594
 30
0.0
 10
-8.1027147301
 20
43.2737876383
 30
0.0
 10
-7.9458110073
 20
43.2689998383
 30
0.0
 10
-7.8465106811
 20
43.2664383082
 30
0.0
 11
-8.3171726152
 21
43.2851279727
 31
0.0
 11
-8.1444456488
 21
43.27529768
 31
0.0
 11
-7.8465106811
 21
43.2664383082
 31
0.0
  0
SPLINE
  5
437
100
AcDbEntity
  8
0
100
AcDbSpline
 62
7
  6
CONTINUOUS
 70
0
 71
3
 72
10
 73
6
 74
4
 42
0.0000001
 43
0.0000001
 44
0.0000000001
 12
0.4456446391
 22
0.0262209084
 32
0.0
 13
-0.2085404771
 23
0.2721903163
 33
0.0
 40
0.0
 40
0.0
 40
0.0
 40
0.0
 40
0.1405087914
 40
0.7303250887
 40
1.0
 40
1.0
 40
1.0
 40
1.0
 10
7.8542733048
 20
43.2632375168
 30
0.0
 10
7.8751456347
 20
43.2644656062
 30
0.0
 10
7.9788638587
 20
43.2724221443
 30
0.0
 10
8.0787244703
 20
43.2971226375
 30
0.0
 10
8.3632824748
 20
43.2599291421
 30
0.0
 10
8.3445364299
 20
43.2843967752
 30
0.0
 11
7.8542733048
 21
43.2632375168
 31
0.0
 11
7.9139151811
 21
43.2679003706
 31
0.0
 11
8.2042800574
 21
43.2775173394
 31
0.0
 11
8.3445364299
 21
43.2843967752
 31
0.0
  0
SPLINE
  5
438
100
AcDbEntity
  8
RACCORDO
100
AcDbSpline
 62
7
  6
CONTINUOUS
 70
0
 71
3
 72
12
 73
8
 74
6
 42
0.0000001
 43
0.0000001
 44
0.0000000001
 12
-0.077218641
 22
0.3145198098
 32
0.0
 13
-0.3106675581
 23
0.0831958348
 33
0.0
 40
0.0
 40
0.0
 40
0.0
 40
0.0
 40
0.1056867252
 40
0.3986535404
 40
0.6509074639
 40
0.8571216539
 40
1.0
 40
1.0
 40
1.0
 40
1.0
 10
4.0947622085
 20
45.5020658027
 30
0.0
 10
4.0920418801
 20
45.5131459923
 30
0.0
 10
4.0794196122
 20
45.5543674282
 30
0.0
 10
4.044596738
 20
45.6161022291
 30
0.0
 10
3.9857708459
 20
45.6726008043
 30
0.0
 10
3.9293639742
 20
45.7048732895
 30
0.0
 10
3.8938736153
 20
45.7172153192
 30
0.0
 10
3.8790777264
 20
45.7211776136
 30
0.0
 11
4.0947622085
 21
45.5020658027
 31
0.0
 11
4.0847374887
 21
45.5347625898
 31
0.0
 11
4.0385168214
 21
45.6168692327
 31
0.0
 11
3.9800131001
 21
45.6730755259
 31
0.0
 11
3.9224651089
 21
45.7060416295
 31
0.0
 11
3.8790777264
 21
45.7211776136
 31
0.0
  0
SPLINE
  5
439
100
AcDbEntity
  8
RACCORDO
100
AcDbSpline
 62
7
  6
CONTINUOUS
 70
0
 71
3
 72
12
 73
8
 74
6
 42
0.0000001
 43
0.0000001
 44
0.0000000001
 12
-0.3803374255
 22
-0.1018532141
 32
0.0
 13
0.0
 23
-0.3937391969
 33
0.0
 40
0.0
 40
0.0
 40
0.0
 40
0.0
 40
0.1163185344
 40
0.2832668935
 40
0.4887142003
 40
0.7287193549
 40
1.0
 40
1.0
 40
1.0
 40
1.0
 10
-3.8720994056
 20
45.7211776138
 30
0.0
 10
-3.8868461696
 20
45.7172284749
 30
0.0
 10
-3.9221049391
 20
45.7049764885
 30
0.0
 10
-3.9782657458
 20
45.6729548935
 30
0.0
 10
-4.0371163636
 20
45.6167569171
 30
0.0
 10
-4.084299003
 20
45.5336599046
 30
0.0
 10
-4.09651084
 20
45.46591342
 30
0.0
 10
-4.09651084
 20
45.4303088123
 30
0.0
 11
-3.8720994056
 21
45.7211776138
 31
0.0
 11
-3.915346492
 21
45.70610266
 31
0.0
 11
-3.9724332563
 21
45.6735131689
 31
0.0
 11
-4.0309273833
 21
45.6176377793
 31
0.0
 11
-4.0775144611
 21
45.5354198509
 31
0.0
 11
-4.09651084
 21
45.4303088123
 31
0.0
  0
SPLINE
  5
43A
100
AcDbEntity
  8
0
100
AcDbSpline
 62
7
  6
CONTINUOUS
 70
0
 71
3
 72
10
 73
6
 74
4
 42
0.0000001
 43
0.0000001
 44
0.0000000001
 12
0.4588125971
 22
-0.0332205705
 32
0.0
 13
0.4600802146
 23
-0.0072432562
 33
0.0
 40
0.0
 40
0.0
 40
0.0
 40
0.0
 40
0.1889443024
 40
0.66859188
 40
1.0
 40
1.0
 40
1.0
 40
1.0
 10
-4.0567514259
 20
45.0859492336
 30
0.0
 10
-4.0278547505
 20
45.0838569544
 30
0.0
 10
-3.9252259376
 20
45.0811931615
 30
0.0
 10
-3.7719816933
 20
45.0769632946
 30
0.0
 10
-3.647612819
 20
45.0747199806
 30
0.0
 10
-3.596788046
 20
45.0739198226
 30
0.0
 11
-4.0567514259
 21
45.0859492336
 31
0.0
 11
-3.9698625257
 21
45.0823382583
 31
0.0
 11
-3.7492371305
 21
45.0767515209
 31
0.0
 11
-3.596788046
 21
45.0739198226
 31
0.0
  0
SPLINE
  5
43B
100
AcDbEntity
  8
0
100
AcDbSpline
 62
7
  6
CONTINUOUS
 70
0
 71
3
 72
11
 73
7
 74
5
 42
0.0000001
 43
0.0000001
 44
0.0000000001
 12
0.4991993936
 22
-0.0043499597
 32
0.0
 13
0.0244396931
 23
0.589195444
 33
0.0
 40
0.0
 40
0.0
 40
0.0
 40
0.0
 40
0.3252634215
 40
0.7699364762
 40
0.9947642317
 40
1.0
 40
1.0
 40
1.0
 40
1.0
 10
3.6036991771
 20
45.0664615766
 30
0.0
 10
3.6578229447
 20
45.065989949
 30
0.0
 10
3.7828661899
 20
45.0709905686
 30
0.0
 10
3.9199952535
 20
45.1253312845
 30
0.0
 10
4.0790619548
 20
45.0367200304
 30
0.0
 10
4.090421149
 20
45.0906613707
 30
0.0
 10
4.0904638025
 20
45.0916896677
 30
0.0
 11
3.6036991771
 21
45.0664615766
 31
0.0
 11
3.760098929
 21
45.0768287808
 31
0.0
 11
3.9792141303
 21
45.0824200425
 31
0.0
 11
4.0898819184
 21
45.0882497706
 31
0.0
 11
4.0904638025
 21
45.0916896677
 31
0.0
  0
SPLINE
  5
43C
100
AcDbEntity
  8
RACCORDO
100
AcDbSpline
 62
7
  6
CONTINUOUS
 70
0
 71
3
 72
11
 73
7
 74
5
 42
0.0000001
 43
0.0000001
 44
0.0000000001
 12
-0.1023228036
 22
0.2717378142
 32
0.0
 13
-0.2786370077
 23
0.0746181488
 33
0.0
 40
0.0
 40
0.0
 40
0.0
 40
0.0
 40
0.3601686475
 40
0.6511488888
 40
0.8584985926
 40
1.0
 40
1.0
 40
1.0
 40
1.0
 10
8.3341531515
 20
43.8374120029
 30
0.0
 10
8.3218686629
 20
43.8700358166
 30
0.0
 10
8.2893155572
 20
43.924957808
 30
0.0
 10
8.2266131253
 20
43.9803129052
 30
0.0
 10
8.1718664831
 20
44.0092093989
 30
0.0
 10
8.1399655639
 20
44.01989259
 30
0.0
 10
8.1268230543
 20
44.0234121144
 30
0.0
 11
8.3341531515
 21
43.8374120029
 31
0.0
 11
8.2812657917
 21
43.9268356374
 31
0.0
 11
8.2183765802
 21
43.9824233522
 31
0.0
 11
8.165507369
 21
44.010391467
 31
0.0
 11
8.1268230543
 21
44.0234121144
 31
0.0
  0
SPLINE
  5
43D
100
AcDbEntity
  8
RACCORDO
100
AcDbSpline
 62
7
  6
CONTINUOUS
 70
0
 71
3
 72
12
 73
8
 74
6
 42
0.0000001
 43
0.0000001
 44
0.0000000001
 12
-0.382797464
 22
-0.1025120029
 32
0.0
 13
0.0
 23
-0.3962859725
 33
0.0
 40
0.0
 40
0.0
 40
0.0
 40
0.0
 40
0.1042512576
 40
0.2560856097
 40
0.4667501138
 40
0.7257804679
 40
1.0
 40
1.0
 40
1.0
 40
1.0
 10
-8.1198447327
 20
44.0234121148
 30
0.0
 10
-8.133147105
 20
44.0198497798
 30
0.0
 10
-8.1653134185
 20
44.0090504567
 30
0.0
 10
-8.2201201866
 20
43.9799666378
 30
0.0
 10
-8.2823594435
 20
43.9247837553
 30
0.0
 10
-8.3334908369
 20
43.8386719751
 30
0.0
 10
-8.34651084
 20
43.7675585187
 30
0.0
 10
-8.34651084
 20
43.7313354007
 30
0.0
 11
-8.1198447327
 21
44.0234121148
 31
0.0
 11
-8.1589892198
 21
44.0102023017
 31
0.0
 11
-8.2121130783
 21
43.9819487467
 31
0.0
 11
-8.2745487156
 21
43.9265297314
 31
0.0
 11
-8.3268706614
 21
43.8382152018
 31
0.0
 11
-8.34651084
 21
43.7313354007
 31
0.0
  0
SPLINE
  5
43E
100
AcDbEntity
  8
RACCORDO
100
AcDbSpline
 62
7
  6
CONTINUOUS
 70
0
 71
3
 72
11
 73
7
 74
5
 42
0.0000001
 43
0.0000001
 44
0.0000000001
 12
-0.1037704308
 22
0.2702837715
 32
0.0
 13
-0.2777593884
 23
0.0743831094
 33
0.0
 40
0.0
 40
0.0
 40
0.0
 40
0.0
 40
0.3673404486
 40
0.6565685698
 40
0.8625772487
 40
1.0
 40
1.0
 40
1.0
 40
1.0
 10
10.0834523345
 20
42.0661403909
 30
0.0
 10
10.0707459756
 20
42.0992357782
 30
0.0
 10
10.0374852567
 20
42.1541698626
 30
0.0
 10
9.9741211463
 20
42.2089235761
 30
0.0
 10
9.9199492734
 20
42.2369857486
 30
0.0
 10
9.888618139
 20
42.2473646189
 30
0.0
 10
9.8758946526
 20
42.2507719295
 30
0.0
 11
10.0834523345
 21
42.0661403909
 31
0.0
 11
10.0288421856
 21
42.156555595
 31
0.0
 11
9.9659528082
 21
42.2109762639
 31
0.0
 11
9.9133840409
 21
42.2382812288
 31
0.0
 11
9.8758946526
 21
42.2507719295
 31
0.0
  0
SPLINE
  5
43F
100
AcDbEntity
  8
RACCORDO
100
AcDbSpline
 62
7
  6
CONTINUOUS
 70
0
 71
3
 72
13
 73
9
 74
7
 42
0.0000001
 43
0.0000001
 44
0.0000000001
 12
-0.3842696427
 22
-0.1029062205
 32
0.0
 13
-0.0
 23
-0.3978100504
 33
0.0
 40
0.0
 40
0.0
 40
0.0
 40
0.0
 40
0.0806717304
 40
0.1959971187
 40
0.3471641148
 40
0.5429562189
 40
0.7663810071
 40
1.0
 40
1.0
 40
1.0
 40
1.0
 10
-9.8689163309
 20
42.2507719299
 30
0.0
 10
-9.8792495632
 20
42.2480047223
 30
0.0
 10
-9.90405328
 20
42.2400925919
 30
0.0
 10
-9.9460031437
 20
42.2207305466
 30
0.0
 10
-9.9967221983
 20
42.1855996052
 30
0.0
 10
-10.0480975121
 20
42.1289123475
 30
0.0
 10
-10.0869920442
 20
42.0502051897
 30
0.0
 10
-10.09651084
 20
41.9891764993
 30
0.0
 10
-10.09651084
 20
41.9581978382
 30
0.0
 11
-9.8689163309
 21
42.2507719299
 31
0.0
 11
-9.8994780277
 21
42.2409800535
 31
0.0
 11
-9.9411171288
 21
42.221720269
 31
0.0
 11
-9.9905325066
 21
42.1874503272
 31
0.0
 11
-10.042820157
 21
42.1297220623
 31
0.0
 11
-10.0821522926
 21
42.0500179292
 31
0.0
 11
-10.09651084
 21
41.9581978382
 31
0.0
  0
SPLINE
  5
440
100
AcDbEntity
  8
RACCORDO
100
AcDbSpline
 62
7
  6
CONTINUOUS
 70
0
 71
3
 72
11
 73
7
 74
5
 42
0.0000001
 43
0.0000001
 44
0.0000000001
 12
-0.1053845356
 22
0.2683534109
 32
0.0
 13
-0.2765388908
 23
0.0740562887
 33
0.0
 40
0.0
 40
0.0
 40
0.0
 40
0.0
 40
0.3710603356
 40
0.6589128339
 40
0.8651541938
 40
1.0
 40
1.0
 40
1.0
 40
1.0
 10
11.8326048776
 20
40.2282232646
 30
0.0
 10
11.8195702039
 20
40.2614150335
 30
0.0
 10
11.7858558641
 20
40.3160212792
 30
0.0
 10
11.7221677965
 20
40.3701738447
 30
0.0
 10
11.6683961956
 20
40.39763745
 30
0.0
 10
11.6373963087
 20
40.4078182648
 30
0.0
 10
11.6249662721
 20
40.4111469914
 30
0.0
 11
11.8326048776
 21
40.2282232646
 31
0.0
 11
11.7769076709
 21
40.3186792352
 31
0.0
 11
11.7141675946
 21
40.3721081812
 31
0.0
 11
11.6616200378
 21
40.3990318144
 31
0.0
 11
11.6249662721
 21
40.4111469914
 31
0.0
  0
SPLINE
  5
441
100
AcDbEntity
  8
RACCORDO
100
AcDbSpline
 62
7
  6
CONTINUOUS
 70
0
 71
3
 72
13
 73
9
 74
7
 42
0.0000001
 43
0.0000001
 44
0.0000000001
 12
-0.3853033846
 22
-0.1031830781
 32
0.0
 13
-0.0
 23
-0.3988802147
 33
0.0
 40
0.0
 40
0.0
 40
0.0
 40
0.0
 40
0.0785006585
 40
0.1920322039
 40
0.3429323537
 40
0.5364030401
 40
0.7619728369
 40
1.0
 40
1.0
 40
1.0
 40
1.0
 10
-11.6179879452
 20
40.4111469933
 30
0.0
 10
-11.628070135
 20
40.4084470134
 30
0.0
 10
-11.6524505666
 20
40.4007273812
 30
0.0
 10
-11.6941019877
 20
40.3817883192
 30
0.0
 10
-11.7447279422
 20
40.3472631738
 30
0.0
 10
-11.7966824724
 20
40.2909377983
 30
0.0
 10
-11.8366173284
 20
40.2118135411
 30
0.0
 10
-11.84651084
 20
40.1497236369
 30
0.0
 10
-11.84651084
 20
40.1180755282
 30
0.0
 11
-11.6179879452
 21
40.4111469933
 31
0.0
 11
-11.6478264341
 21
40.4016533874
 31
0.0
 11
-11.6890322047
 21
40.382868824
 31
0.0
 11
-11.7387383468
 21
40.3489237796
 31
0.0
 11
-11.7910426504
 21
40.2921812017
 31
0.0
 11
-11.8315318649
 21
40.2118308231
 31
0.0
 11
-11.84651084
 21
40.1180755282
 31
0.0
  0
SPLINE
  5
442
100
AcDbEntity
  8
0
100
AcDbSpline
 62
7
  6
CONTINUOUS
 70
0
 71
3
 72
9
 73
5
 74
3
 42
0.0000001
 43
0.0000001
 44
0.0000000001
 12
-0.0407982905
 22
0.0042359259
 32
0.0
 13
-0.0159780815
 23
0.0151554143
 33
0.0
 40
0.0
 40
0.0
 40
0.0
 40
0.0
 40
0.8723876741
 40
1.0
 40
1.0
 40
1.0
 40
1.0
 10
-11.8048751557
 20
39.6827069541
 30
0.0
 10
-11.8167391309
 20
39.6839387439
 30
0.0
 10
-11.8336716872
 20
39.6912762067
 30
0.0
 10
-11.8402600443
 20
39.6965769981
 30
0.0
 10
-11.840939711
 20
39.6972216706
 30
0.0
 11
-11.8048751557
 21
39.6827069541
 31
0.0
 11
-11.8384100788
 21
39.6951909384
 31
0.0
 11
-11.840939711
 21
39.6972216706
 31
0.0
  0
SPLINE
  5
443
100
AcDbEntity
  8
RACCORDO
100
AcDbSpline
 62
7
  6
CONTINUOUS
 70
0
 71
3
 72
14
 73
10
 74
8
 42
0.0000001
 43
0.0000001
 44
0.0000000001
 12
-0.1014385669
 22
1.2315978179
 32
0.0
 13
-1.1909701392
 23
0.3189380528
 33
0.0
 40
0.0
 40
0.0
 40
0.0
 40
0.0
 40
0.1332471813
 40
0.3346712228
 40
0.5193281724
 40
0.6794858468
 40
0.814959977
 40
0.9207468712
 40
1.0
 40
1.0
 40
1.0
 40
1.0
 10
14.0001124799
 20
37.7960094018
 30
0.0
 10
13.9956070121
 20
37.8507117144
 30
0.0
 10
13.9730038721
 20
37.9874101374
 30
0.0
 10
13.8948134615
 20
38.1883013438
 30
0.0
 10
13.7652158349
 20
38.3740252548
 30
0.0
 10
13.6197191031
 20
38.5092961593
 30
0.0
 10
13.479937205
 20
38.5983577437
 30
0.0
 10
13.3593246163
 20
38.6521875298
 30
0.0
 10
13.286736916
 20
38.6752826759
 30
0.0
 10
13.2552742127
 20
38.6837082887
 30
0.0
 11
14.0001124799
 21
37.7960094018
 31
0.0
 11
13.9732039638
 21
37.9584155625
 31
0.0
 11
13.8831786967
 21
38.1898668069
 31
0.0
 11
13.7529081396
 21
38.3765839909
 31
0.0
 11
13.608312528
 21
38.5110615281
 31
0.0
 11
13.4674626574
 21
38.6008426438
 31
0.0
 11
13.3483737848
 21
38.6540350092
 31
0.0
 11
13.2552742127
 21
38.6837082887
 31
0.0
  0
SPLINE
  5
444
100
AcDbEntity
  8
0
100
AcDbSpline
 62
7
  6
CONTINUOUS
 70
0
 71
3
 72
9
 73
5
 74
3
 42
0.0000001
 43
0.0000001
 44
0.0000000001
 12
-0.0326754433
 22
0.0033925627
 32
0.0
 13
-0.0135184629
 23
0.0154023883
 33
0.0
 40
0.0
 40
0.0
 40
0.0
 40
0.0
 40
0.8190131733
 40
1.0
 40
1.0
 40
1.0
 40
1.0
 10
-10.0610238854
 20
41.4839174634
 30
0.0
 10
-10.0699444249
 20
41.4848436479
 30
0.0
 10
-10.0819645332
 20
41.4920330832
 30
0.0
 10
-10.0875762306
 20
41.4974699119
 30
0.0
 10
-10.0883917852
 20
41.4983991217
 30
0.0
 11
-10.0610238854
 21
41.4839174634
 31
0.0
 11
-10.0853350286
 21
41.4954445144
 31
0.0
 11
-10.0883917852
 21
41.4983991217
 31
0.0
  0
SPLINE
  5
445
100
AcDbEntity
  8
RACCORDO
100
AcDbSpline
 62
7
  6
CONTINUOUS
 70
0
 71
3
 72
14
 73
10
 74
8
 42
0.0000001
 43
0.0000001
 44
0.0000000001
 12
-1.2701354321
 22
-0.3401382684
 32
0.0
 13
-0.0
 23
-1.314890874
 33
0.0
 40
0.0
 40
0.0
 40
0.0
 40
0.0
 40
0.0749377039
 40
0.1737525821
 40
0.3006297079
 40
0.4514577514
 40
0.6260863615
 40
0.8111993379
 40
1.0
 40
1.0
 40
1.0
 40
1.0
 10
-13.2482958923
 20
38.6837082888
 30
0.0
 10
-13.2800229033
 20
38.6752118952
 30
0.0
 10
-13.35270681
 20
38.6520546267
 30
0.0
 10
-13.4733227183
 20
38.5981412241
 30
0.0
 10
-13.6131284679
 20
38.5090207382
 30
0.0
 10
-13.7591984841
 20
38.3730710596
 30
0.0
 10
-13.8880454828
 20
38.1876391054
 30
0.0
 10
-13.9759755374
 20
37.9614187588
 30
0.0
 10
-13.99651084
 20
37.7968016358
 30
0.0
 10
-13.99651084
 20
37.7140508799
 30
0.0
 11
-13.2482958923
 21
38.6837082888
 31
0.0
 11
-13.3421656343
 21
38.6537483342
 31
0.0
 11
-13.4607702128
 21
38.6006921192
 31
0.0
 11
-13.6014305042
 21
38.5109882203
 31
0.0
 11
-13.746580187
 21
38.3758462539
 31
0.0
 11
-13.8775956285
 21
38.1872748334
 31
0.0
 11
-13.9657272045
 21
37.9603871464
 31
0.0
 11
-13.99651084
 21
37.7140508799
 31
0.0
  0
SPLINE
  5
446
100
AcDbEntity
  8
0
100
AcDbSpline
 62
7
  6
CONTINUOUS
 70
0
 71
3
 72
9
 73
5
 74
3
 42
0.0000001
 43
0.0000001
 44
0.0000000001
 12
-0.0253114536
 22
0.0026279886
 32
0.0
 13
-0.0107738359
 23
0.0140621803
 33
0.0
 40
0.0
 40
0.0
 40
0.0
 40
0.0
 40
0.7987865974
 40
1.0
 40
1.0
 40
1.0
 40
1.0
 10
-8.3171726152
 20
43.2851279727
 30
0.0
 10
-8.3239120985
 20
43.2858277067
 30
0.0
 10
-8.3324464488
 20
43.2921675141
 30
0.0
 10
-8.3368354966
 20
43.297121774
 30
0.0
 10
-8.33755811
 20
43.2980649404
 30
0.0
 11
-8.3171726152
 21
43.2851279727
 31
0.0
 11
-8.334901396
 21
43.2950719506
 31
0.0
 11
-8.33755811
 21
43.2980649404
 31
0.0
  0
SPLINE
  5
447
100
AcDbEntity
  8
0
100
AcDbSpline
 62
7
  6
CONTINUOUS
 70
0
 71
3
 72
8
 73
4
 74
2
 42
0.0000001
 43
0.0000001
 44
0.0000000001
 12
-0.0033639838
 22
0.0003492692
 32
0.0
 13
0.0001676891
 23
0.0040426721
 33
0.0
 40
0.0
 40
0.0
 40
0.0
 40
0.0
 40
1.0
 40
1.0
 40
1.0
 40
1.0
 10
-4.0821052446
 20
45.0881656931
 30
0.0
 10
-4.0832265725
 20
45.0882821162
 30
0.0
 10
-4.083541379
 20
45.0892874136
 30
0.0
 10
-4.0834854826
 20
45.090634971
 30
0.0
 11
-4.0821052446
 21
45.0881656931
 31
0.0
 11
-4.0834854826
 21
45.090634971
 31
0.0
  0
SPLINE
  5
448
100
AcDbEntity
  8
0
100
AcDbSpline
 62
7
  6
CONTINUOUS
 70
0
 71
3
 72
20
 73
16
 74
14
 42
0.0000001
 43
0.0000001
 44
0.0000000001
 12
0.1304713812
 22
0.3523357215
 32
0.0
 13
1.9809257138
 23
-0.2056717207
 33
0.0
 40
0.0
 40
0.0
 40
0.0
 40
0.0
 40
0.0037069687
 40
0.0370160156
 40
0.0972001731
 40
0.1807671839
 40
0.2828622079
 40
0.3975527823
 40
0.5181741517
 40
0.6377167901
 40
0.7492338793
 40
0.8462451545
 40
0.9231137662
 40
0.975374723
 40
1.0
 40
1.0
 40
1.0
 40
1.0
 10
-0.9937855045
 20
46.4906296803
 30
0.0
 10
-0.9936242867
 20
46.4910650462
 30
0.0
 10
-0.9440465297
 20
46.4986600894
 30
0.0
 10
-0.9161158281
 20
46.4908936516
 30
0.0
 10
-0.7748180777
 20
46.4985598162
 30
0.0
 10
-0.6220741381
 20
46.4973101664
 30
0.0
 10
-0.4188760928
 20
46.4993451745
 30
0.0
 10
-0.1961112712
 20
46.4996718848
 30
0.0
 10
0.039819213
 20
46.4999345064
 30
0.0
 10
0.2731887897
 20
46.4995810477
 30
0.0
 10
0.4910084938
 20
46.4988587251
 30
0.0
 10
0.6804477241
 20
46.4975315652
 30
0.0
 10
0.8306073871
 20
46.4964157016
 30
0.0
 10
0.9325825695
 20
46.4939872795
 30
0.0
 10
0.9837153186
 20
46.4935281371
 30
0.0
 10
0.9999756001
 20
46.4918398961
 30
0.0
 11
-0.9937855045
 21
46.4906296803
 31
0.0
 11
-0.9840848996
 21
46.4924804243
 31
0.0
 11
-0.9177783043
 21
46.4945030199
 31
0.0
 11
-0.7979309927
 21
46.496328368
 31
0.0
 11
-0.6315080549
 21
46.4978503862
 31
0.0
 11
-0.428181387
 21
46.4989806201
 31
0.0
 11
-0.199767596
 21
46.4996533848
 31
0.0
 11
0.0404587388
 21
46.4998295816
 31
0.0
 11
0.2785365361
 21
46.4994989705
 31
0.0
 11
0.5006295796
 21
46.4986807656
 31
0.0
 11
0.693830629
 21
46.4974225178
 31
0.0
 11
0.8469115415
 21
46.495797352
 31
0.0
 11
0.9509758109
 21
46.4938997168
 31
0.0
 11
0.9999756001
 21
46.4918398961
 31
0.0
  0
SPLINE
  5
449
100
AcDbEntity
  8
0
100
AcDbSpline
 62
7
  6
CONTINUOUS
 70
0
 71
3
 72
27
 73
23
 74
21
 42
0.0000001
 43
0.0000001
 44
0.0000000001
 12
-4.6017958479
 22
10.4547700056
 32
0.0
 13
11.9006266289
 23
-1.2355952265
 33
0.0
 40
0.0
 40
0.0
 40
0.0
 40
0.0
 40
0.0103230609
 40
0.0317752153
 40
0.063688177
 40
0.1053509141
 40
0.1558335363
 40
0.2140087767
 40
0.2785773749
 40
0.3480971774
 40
0.4210153878
 40
0.4957032734
 40
0.5704925596
 40
0.6437127066
 40
0.7137282349
 40
0.7789752712
 40
0.8379965002
 40
0.8894737515
 40
0.9322575145
 40
0.965392794
 40
0.9881410395
 40
1.0
 40
1.0
 40
1.0
 40
1.0
 10
-5.9845560434
 20
44.59673595
 30
0.0
 10
-6.0003909163
 20
44.6327110258
 30
0.0
 10
-5.7544567101
 20
44.5714213637
 30
0.0
 10
-5.5906436147
 20
44.6286431346
 30
0.0
 10
-5.1679026599
 20
44.6107014042
 30
0.0
 10
-4.6906956471
 20
44.6267778228
 30
0.0
 10
-4.0849364279
 20
44.628861409
 30
0.0
 10
-3.3961768341
 20
44.6348418346
 30
0.0
 10
-2.6287451637
 20
44.6383603321
 30
0.0
 10
-1.8033629811
 20
44.6413368344
 30
0.0
 10
-0.9373663374
 20
44.6430809115
 30
0.0
 10
-0.0504250177
 20
44.6437331753
 30
0.0
 10
0.8377406425
 20
44.6432259369
 30
0.0
 10
1.7072653544
 20
44.6415865794
 30
0.0
 10
2.5387317579
 20
44.638846882
 30
0.0
 10
3.3135663964
 20
44.6350869669
 30
0.0
 10
4.0144561067
 20
44.630358776
 30
0.0
 10
4.6257616631
 20
44.624914257
 30
0.0
 10
5.1337800156
 20
44.618533761
 30
0.0
 10
5.5273002858
 20
44.6124456515
 30
0.0
 10
5.7972461188
 20
44.6046316338
 30
0.0
 10
5.9353647805
 20
44.6004509561
 30
0.0
 10
5.9824078008
 20
44.5955666645
 30
0.0
 11
-5.9845560434
 21
44.59673595
 31
0.0
 11
-5.857924895
 21
44.6023698017
 31
0.0
 11
-5.6013680456
 21
44.6098683237
 31
0.0
 11
-5.219607948
 21
44.6169494099
 31
0.0
 11
-4.7211724919
 21
44.6234548803
 31
0.0
 11
-4.1171959018
 21
44.6292394136
 31
0.0
 11
-3.4211700166
 21
44.6341737927
 31
0.0
 11
-2.6486429045
 21
44.638147792
 31
0.0
 11
-1.8168715446
 21
44.6410726387
 31
0.0
 11
-0.9444363346
 21
44.6428829966
 31
0.0
 11
-0.0508260354
 21
44.6435384254
 31
0.0
 11
0.8439975755
 21
44.6430242838
 31
0.0
 11
1.7200456172
 21
44.6413520569
 31
0.0
 11
2.5577486242
 21
44.6385590994
 31
0.0
 11
3.3383936956
 21
44.6347078015
 31
0.0
 11
4.0445425104
 21
44.6298841948
 31
0.0
 11
4.660420871
 21
44.6241960307
 31
0.0
 11
5.1722710726
 21
44.6177703733
 31
0.0
 11
5.5686592273
 21
44.6107507613
 31
0.0
 11
5.840730679
 21
44.6032940011
 31
0.0
 11
5.9824078008
 21
44.5955666645
 31
0.0
  0
SPLINE
  5
44A
100
AcDbEntity
  8
RACCORDO
100
AcDbSpline
 62
253
  6
CONTINUOUS
 70
0
 71
3
 72
9
 73
5
 74
3
 42
0.0000001
 43
0.0000001
 44
0.0000000001
 12
0.0419406224
 22
-0.0043545298
 32
0.0
 13
0.0188274306
 23
-0.0124601382
 33
0.0
 40
0.0
 40
0.0
 40
0.0
 40
0.0
 40
0.9526595161
 40
1.0
 40
1.0
 40
1.0
 40
1.0
 10
11.8118534756
 20
40.1267365089
 30
0.0
 10
11.8251718533
 20
40.1253537142
 30
0.0
 10
11.8443205779
 20
40.1195719146
 30
0.0
 10
11.8511675601
 20
40.1153461847
 30
0.0
 10
11.85146466
 20
40.1151495617
 30
0.0
 11
11.8118534756
 21
40.1267365089
 31
0.0
 11
11.8504917115
 21
40.1157497682
 31
0.0
 11
11.85146466
 21
40.1151495617
 31
0.0
  0
SPLINE
  5
44B
100
AcDbEntity
  8
RACCORDO
100
AcDbSpline
 62
253
  6
CONTINUOUS
 70
0
 71
3
 72
24
 73
20
 74
18
 42
0.0000001
 43
0.0000001
 44
0.0000000001
 12
0.7002849485
 22
4.0970024667
 32
0.0
 13
8.1021826189
 23
-0.3256028653
 33
0.0
 40
0.0
 40
0.0
 40
0.0
 40
0.0
 40
0.0008659963
 40
0.0188142553
 40
0.0532932568
 40
0.1031890095
 40
0.1668335641
 40
0.2419751777
 40
0.3265413418
 40
0.4169044404
 40
0.5105989296
 40
0.6037310008
 40
0.6937498799
 40
0.7769653927
 40
0.8510166998
 40
0.9129754578
 40
0.9609758566
 40
0.9931875609
 40
1.0
 40
1.0
 40
1.0
 40
1.0
 10
-4.0830553687
 20
45.4280088596
 30
0.0
 10
-4.0828532206
 20
45.4291915226
 30
0.0
 10
-4.0035321029
 20
45.4823579226
 30
0.0
 10
-3.9085591177
 20
45.4025389782
 30
0.0
 10
-3.5978489685
 20
45.4673548831
 30
0.0
 10
-3.2139317381
 20
45.4449368063
 30
0.0
 10
-2.6979722771
 20
45.4602614303
 30
0.0
 10
-2.0966491807
 20
45.4603635547
 30
0.0
 10
-1.4203077908
 20
45.4643493805
 30
0.0
 10
-0.6947233618
 20
45.4656906823
 30
0.0
 10
0.0542692342
 20
45.4663084195
 30
0.0
 10
0.8022579
 20
45.465599883
 30
0.0
 10
1.5219523998
 20
45.463767705
 30
0.0
 10
2.1900792522
 20
45.4607877547
 30
0.0
 10
2.7824004289
 20
45.4569513977
 30
0.0
 10
3.2795220362
 20
45.4519522611
 30
0.0
 10
3.6636968142
 20
45.4472935831
 30
0.0
 10
3.8986273172
 20
45.441095892
 30
0.0
 10
4.004143708
 20
45.4385610336
 30
0.0
 10
4.0225422498
 20
45.4378216504
 30
0.0
 11
-4.0830553687
 21
45.4280088596
 31
0.0
 11
-4.0756481377
 21
45.4339135453
 31
0.0
 11
-3.930310102
 21
45.4403926094
 31
0.0
 11
-3.6509026479
 21
45.4465303841
 31
0.0
 11
-3.2465035736
 21
45.4521209115
 31
0.0
 11
-2.7306456214
 21
45.4569705139
 31
0.0
 11
-2.1215864085
 21
45.4609065757
 31
0.0
 11
-1.4361284774
 21
45.4638095099
 31
0.0
 11
-0.7036785248
 21
45.465551397
 31
0.0
 11
0.0557764119
 21
45.466084698
 31
0.0
 11
0.810672448
 21
45.4653873738
 31
0.0
 11
1.540331853
 21
45.463478967
 31
0.0
 11
2.2148411605
 21
45.4604373904
 31
0.0
 11
2.8150615275
 21
45.4563499892
 31
0.0
 11
3.3172531737
 21
45.451377521
 31
0.0
 11
3.7062859659
 21
45.4456717786
 31
0.0
 11
3.9673088422
 21
45.4394534999
 31
0.0
 11
4.0225422498
 21
45.4378216504
 31
0.0
  0
SPLINE
  5
44C
100
AcDbEntity
  8
RACCORDO
100
AcDbSpline
 62
253
  6
CONTINUOUS
 70
0
 71
3
 72
8
 73
4
 74
2
 42
0.0000001
 43
0.0000001
 44
0.0000000001
 12
0.0666819765
 22
-0.0026797523
 32
0.0
 13
0.0663538638
 23
-0.0068892605
 33
0.0
 40
0.0
 40
0.0
 40
0.0
 40
0.0
 40
1.0
 40
1.0
 40
1.0
 40
1.0
 10
4.0225422498
 20
45.4378216504
 30
0.0
 10
4.0447695753
 20
45.4369283996
 30
0.0
 10
4.0669656099
 20
45.4356018587
 30
0.0
 10
4.0890835645
 20
45.4333054385
 30
0.0
 11
4.0225422498
 21
45.4378216504
 31
0.0
 11
4.0890835645
 21
45.4333054385
 31
0.0
  0
SPLINE
  5
44D
100
AcDbEntity
  8
RACCORDO
100
AcDbSpline
 62
253
  6
CONTINUOUS
 70
0
 71
3
 72
24
 73
20
 74
18
 42
0.0000001
 43
0.0000001
 44
0.0000000001
 12
1.2173278455
 22
4.0786996194
 32
0.0
 13
7.6626161757
 23
-0.307923492
 33
0.0
 40
0.0
 40
0.0
 40
0.0
 40
0.0
 40
0.0008442432
 40
0.0187935945
 40
0.0532729995
 40
0.1031698613
 40
0.1668157092
 40
0.2419589163
 40
0.3265268593
 40
0.416891882
 40
0.5105883668
 40
0.6037224243
 40
0.6937432188
 40
0.7769605034
 40
0.8510133581
 40
0.9129734526
 40
0.9609747138
 40
0.9931874048
 40
1.0
 40
1.0
 40
1.0
 40
1.0
 10
-3.8614103883
 20
45.7179859846
 30
0.0
 10
-3.8610678147
 20
45.7191337894
 30
0.0
 10
-3.7861901649
 20
45.7692798912
 30
0.0
 10
-3.6963913737
 20
45.6938070971
 30
0.0
 10
-3.4025402181
 20
45.7551149172
 30
0.0
 10
-3.0394403832
 20
45.7339095636
 30
0.0
 10
-2.5514645866
 20
45.7484040902
 30
0.0
 10
-1.9827525626
 20
45.7485003522
 30
0.0
 10
-1.3430913081
 20
45.7522700043
 30
0.0
 10
-0.6568573415
 20
45.7535385727
 30
0.0
 10
0.0515152945
 20
45.7541227694
 30
0.0
 10
0.7589384622
 20
45.7534526522
 30
0.0
 10
1.439601929
 20
45.7517198991
 30
0.0
 10
2.0714943218
 20
45.7489014593
 30
0.0
 10
2.6316922454
 20
45.7452734642
 30
0.0
 10
3.1018531139
 20
45.740544909
 30
0.0
 10
3.465193454
 20
45.7361399986
 30
0.0
 10
3.6873833745
 20
45.7302772136
 30
0.0
 10
3.787178127
 20
45.727880033
 30
0.0
 10
3.8045788945
 20
45.7271807803
 30
0.0
 11
-3.8614103883
 21
45.7179859846
 31
0.0
 11
-3.8544277015
 21
45.7234841793
 31
0.0
 11
-3.716966361
 21
45.7296131595
 31
0.0
 11
-3.4527144729
 21
45.7354174682
 31
0.0
 11
-3.0702467313
 21
45.7407049175
 31
0.0
 11
-2.5823656654
 21
45.7452913901
 31
0.0
 11
-2.0063374796
 21
45.749013987
 31
0.0
 11
-1.3580540072
 21
45.7517594156
 31
0.0
 11
-0.6653268551
 21
45.7534068333
 31
0.0
 11
0.0529407303
 21
45.7539111864
 31
0.0
 11
0.7668966772
 21
45.7532516798
 31
0.0
 11
1.4569846094
 21
45.751446792
 31
0.0
 11
2.0949133984
 21
45.7485701714
 31
0.0
 11
2.6625819199
 21
45.7447045151
 31
0.0
 11
3.1375384464
 21
45.7400016702
 31
0.0
 11
3.5054716869
 21
45.7346056736
 31
0.0
 11
3.7523408585
 21
45.7287240446
 31
0.0
 11
3.8045788945
 21
45.7271807803
 31
0.0
  0
SPLINE
  5
44E
100
AcDbEntity
  8
RACCORDO
100
AcDbSpline
 62
253
  6
CONTINUOUS
 70
0
 71
3
 72
8
 73
4
 74
2
 42
0.0000001
 43
0.0000001
 44
0.0000000001
 12
0.0630646721
 22
-0.0025342642
 32
0.0
 13
0.0627543533
 23
-0.0065155375
 33
0.0
 40
0.0
 40
0.0
 40
0.0
 40
0.0
 40
1.0
 40
1.0
 40
1.0
 40
1.0
 10
3.8045788945
 20
45.7271807803
 30
0.0
 10
3.8256004518
 20
45.7263360256
 30
0.0
 10
3.8465924154
 20
45.7250814831
 30
0.0
 10
3.8675105332
 20
45.7229096372
 30
0.0
 11
3.8045788945
 21
45.7271807803
 31
0.0
 11
3.8675105332
 21
45.7229096372
 31
0.0
  0
SPLINE
  5
44F
100
AcDbEntity
  8
RACCORDO
100
AcDbSpline
 62
253
  6
CONTINUOUS
 70
0
 71
3
 72
8
 73
4
 74
2
 42
0.0000001
 43
0.0000001
 44
0.0000000001
 12
0.0314969262
 22
-0.0032702019
 32
0.0
 13
0.0256502214
 23
-0.0104934477
 33
0.0
 40
0.0
 40
0.0
 40
0.0
 40
0.0
 40
1.0
 40
1.0
 40
1.0
 40
1.0
 10
11.5902804442
 20
40.4163407077
 30
0.0
 10
11.6007794196
 20
40.4152506404
 30
0.0
 10
11.6143966884
 20
40.4115479942
 30
0.0
 10
11.6229467622
 20
40.4080501782
 30
0.0
 11
11.5902804442
 21
40.4163407077
 31
0.0
 11
11.6229467622
 21
40.4080501782
 31
0.0
  0
SPLINE
  5
450
100
AcDbEntity
  8
RACCORDO
100
AcDbSpline
 62
253
  6
CONTINUOUS
 70
0
 71
3
 72
8
 73
4
 74
2
 42
0.0000001
 43
0.0000001
 44
0.0000000001
 12
0.0022030273
 22
-0.0002287317
 32
0.0
 13
-0.0001913622
 23
-0.0011195232
 33
0.0
 40
0.0
 40
0.0
 40
0.0
 40
0.0
 40
1.0
 40
1.0
 40
1.0
 40
1.0
 10
4.0890835645
 20
45.4333054385
 30
0.0
 10
4.089817907
 20
45.4332291946
 30
0.0
 10
4.0900974889
 20
45.4329819164
 30
0.0
 10
4.0900337015
 20
45.432608742
 30
0.0
 11
4.0890835645
 21
45.4333054385
 31
0.0
 11
4.0900337015
 21
45.432608742
 31
0.0
  0
SPLINE
  5
451
100
AcDbEntity
  8
RACCORDO
100
AcDbSpline
 62
253
  6
CONTINUOUS
 70
0
 71
3
 72
9
 73
5
 74
3
 42
0.0000001
 43
0.0000001
 44
0.0000000001
 12
0.0426797885
 22
-0.0044312745
 32
0.0
 13
0.018114264
 23
-0.0234456058
 33
0.0
 40
0.0
 40
0.0
 40
0.0
 40
0.0
 40
0.7990747275
 40
1.0
 40
1.0
 40
1.0
 40
1.0
 10
13.9542993219
 20
37.7242832622
 30
0.0
 10
13.9656674354
 20
37.7231029557
 30
0.0
 10
13.9801451501
 20
37.7125028094
 30
0.0
 10
13.9875431292
 20
37.7042385516
 30
0.0
 10
13.9887563337
 20
37.70266828
 30
0.0
 11
13.9542993219
 21
37.7242832622
 31
0.0
 11
13.9842844315
 21
37.7076538502
 31
0.0
 11
13.9887563337
 21
37.70266828
 31
0.0
  0
SPLINE
  5
452
100
AcDbEntity
  8
RACCORDO
100
AcDbSpline
 62
253
  6
CONTINUOUS
 70
0
 71
3
 72
27
 73
23
 74
21
 42
0.0000001
 43
0.0000001
 44
0.0000000001
 12
-7.5831481313
 22
5.7394398363
 32
0.0
 13
16.5806069282
 23
-1.2961189966
 33
0.0
 40
0.0
 40
0.0
 40
0.0
 40
0.0
 40
0.0062247309
 40
0.0235854668
 40
0.052704298
 40
0.0933097556
 40
0.1442765879
 40
0.2039191486
 40
0.2711292714
 40
0.3438312886
 40
0.4206719218
 40
0.4992765885
 40
0.5781831107
 40
0.6549526791
 40
0.7281568466
 40
0.7955337695
 40
0.8558321106
 40
0.9070294159
 40
0.9475473116
 40
0.9765608406
 40
0.9937077313
 40
1.0
 40
1.0
 40
1.0
 40
1.0
 10
-8.3439175144
 20
43.7347617874
 30
0.0
 10
-8.3596518666
 20
43.7466706102
 30
0.0
 10
-8.1017155526
 20
43.7372904754
 30
0.0
 10
-7.9285068759
 20
43.7621459708
 30
0.0
 10
-7.3782806483
 20
43.762799628
 30
0.0
 10
-6.7387594376
 20
43.7760021151
 30
0.0
 10
-5.8892330459
 20
43.7829652629
 30
0.0
 10
-4.9071538816
 20
43.7907624671
 30
0.0
 10
-3.7995200902
 20
43.7964981883
 30
0.0
 10
-2.5981163261
 20
43.8008983749
 30
0.0
 10
-1.3330521083
 20
43.8035600362
 30
0.0
 10
-0.0337227221
 20
43.8044992283
 30
0.0
 10
1.2652509349
 20
43.8036653003
 30
0.0
 10
2.5342692
 20
43.8010861529
 30
0.0
 10
3.7393591568
 20
43.7968308197
 30
0.0
 10
4.8531180344
 20
43.7910196272
 30
0.0
 10
5.8448447097
 20
43.7837915494
 30
0.0
 10
6.6876521113
 20
43.7755285727
 30
0.0
 10
7.3569420717
 20
43.7662634773
 30
0.0
 10
7.8375096794
 20
43.7574853286
 30
0.0
 10
8.1281035717
 20
43.748309132
 30
0.0
 10
8.2580533491
 20
43.7429900578
 30
0.0
 10
8.2928298937
 20
43.7402715481
 30
0.0
 11
-8.3439175144
 21
43.7347617874
 31
0.0
 11
-8.236069034
 21
43.7431475002
 31
0.0
 11
-7.9474890991
 21
43.7535913999
 31
0.0
 11
-7.4632534321
 21
43.7639524145
 31
0.0
 11
-6.787915507
 21
43.7737281618
 31
0.0
 11
-5.9402069945
 21
43.7825141185
 31
0.0
 11
-4.948173994
 21
43.7900070203
 31
0.0
 11
-3.8302544909
 21
43.796067775
 31
0.0
 11
-2.620977588
 21
43.8005091878
 31
0.0
 11
-1.3428560201
 21
43.803248542
 31
0.0
 11
-0.035389906
 21
43.8042011823
 31
0.0
 11
1.2770971744
 21
43.8033493728
 31
0.0
 11
2.5540369178
 21
43.8007194291
 31
0.0
 11
3.7716666639
 21
43.796360296
 31
0.0
 11
4.8923612423
 21
43.7904066554
 31
0.0
 11
5.8953028495
 21
43.7829689464
 31
0.0
 11
6.7468464086
 21
43.7743082887
 31
0.0
 11
7.4207315734
 21
43.7648014298
 31
0.0
 11
7.9032257714
 21
43.7549401169
 31
0.0
 11
8.1882898066
 21
43.745758063
 31
0.0
 11
8.2928298937
 21
43.7402715481
 31
0.0
  0
SPLINE
  5
453
100
AcDbEntity
  8
RACCORDO
100
AcDbSpline
 62
253
  6
CONTINUOUS
 70
0
 71
3
 72
27
 73
23
 74
21
 42
0.0000001
 43
0.0000001
 44
0.0000000001
 12
-9.9026425495
 22
6.0077665762
 32
0.0
 13
16.132036636
 23
-0.8485747044
 33
0.0
 40
0.0
 40
0.0
 40
0.0
 40
0.0
 40
0.0064389555
 40
0.0238431081
 40
0.0530349065
 40
0.0937420732
 40
0.1448365803
 40
0.2046285583
 40
0.2720070518
 40
0.3448912044
 40
0.4219243399
 40
0.5007259299
 40
0.5798301312
 40
0.6567920253
 40
0.7301795832
 40
0.7977253002
 40
0.8581746965
 40
0.9095002497
 40
0.9501196649
 40
0.9792058166
 40
0.9963957591
 40
1.0
 40
1.0
 40
1.0
 40
1.0
 10
-8.119920376
 20
44.0232879286
 30
0.0
 10
-8.1411746008
 20
44.0361825091
 30
0.0
 10
-7.8865158712
 20
44.0268102027
 30
0.0
 10
-7.7172811269
 20
44.0510907738
 30
0.0
 10
-7.1817100549
 20
44.0517293812
 30
0.0
 10
-6.5592177128
 20
44.064579169
 30
0.0
 10
-5.732314158
 20
44.0713572544
 30
0.0
 10
-4.7763869741
 20
44.0789467178
 30
0.0
 10
-3.6982487354
 20
44.0845296708
 30
0.0
 10
-2.5288374885
 20
44.0888127054
 30
0.0
 10
-1.2974610023
 20
44.0914034542
 30
0.0
 10
-0.0327317983
 20
44.0923176441
 30
0.0
 10
1.2316511552
 20
44.0915059325
 30
0.0
 10
2.4668763898
 20
44.0889954493
 30
0.0
 10
3.6398756756
 20
44.0848534751
 30
0.0
 10
4.7239759274
 20
44.079197032
 30
0.0
 10
5.6892935477
 20
44.0721613923
 30
0.0
 10
6.5096575831
 20
44.0641187178
 30
0.0
 10
7.1611244955
 20
44.0550998567
 30
0.0
 10
7.6288952084
 20
44.0465563143
 30
0.0
 10
7.897206957
 20
44.0380829846
 30
0.0
 10
8.0091329166
 20
44.0336221265
 30
0.0
 10
8.0285141653
 20
44.0326026373
 30
0.0
 11
-8.119920376
 21
44.0232879286
 31
0.0
 11
-8.0166542261
 21
44.0326000447
 31
0.0
 11
-7.7357601777
 21
44.0427655271
 31
0.0
 11
-7.2644190622
 21
44.0528507179
 31
0.0
 11
-6.6070651578
 21
44.0623660769
 31
0.0
 11
-5.7819306397
 21
44.0709180321
 31
0.0
 11
-4.81631476
 21
44.0782114053
 31
0.0
 11
-3.728164724
 21
44.0841107279
 31
0.0
 11
-2.5510899687
 21
44.0884338728
 31
0.0
 11
-1.3070038501
 21
44.0911002621
 31
0.0
 11
-0.0343545854
 21
44.0920275351
 31
0.0
 11
1.2431819375
 21
44.0911984134
 31
0.0
 11
2.4861177248
 21
44.0886385013
 31
0.0
 11
3.6713228454
 21
44.0843954751
 31
0.0
 11
4.762174147
 21
44.0786003747
 31
0.0
 11
5.7384080632
 21
44.0713607566
 31
0.0
 11
6.5672754378
 21
44.0629307828
 31
0.0
 11
7.2232157444
 21
44.0536770185
 31
0.0
 11
7.6928604696
 21
44.0440785662
 31
0.0
 11
7.9703349807
 21
44.0351406266
 31
0.0
 11
8.0285141653
 21
44.0326026373
 31
0.0
  0
SPLINE
  5
454
100
AcDbEntity
  8
RACCORDO
100
AcDbSpline
 62
253
  6
CONTINUOUS
 70
0
 71
3
 72
8
 73
4
 74
2
 42
0.0000001
 43
0.0000001
 44
0.0000000001
 12
0.0741991222
 22
-0.0039030099
 32
0.0
 13
0.0738848075
 23
-0.0076711688
 33
0.0
 40
0.0
 40
0.0
 40
0.0
 40
0.0
 40
1.0
 40
1.0
 40
1.0
 40
1.0
 10
8.0285141653
 20
44.0326026373
 30
0.0
 10
8.053247206
 20
44.031301634
 30
0.0
 10
8.0779496346
 20
44.0295995409
 30
0.0
 10
8.1025779037
 20
44.0270424846
 30
0.0
 11
8.0285141653
 21
44.0326026373
 31
0.0
 11
8.1025779037
 21
44.0270424846
 31
0.0
  0
SPLINE
  5
455
100
AcDbEntity
  8
0
100
AcDbSpline
 62
7
  6
CONTINUOUS
 70
0
 71
3
 72
8
 73
4
 74
2
 42
0.0000001
 43
0.0000001
 44
0.0000000001
 12
-0.020228162
 22
0.0145170437
 32
0.0
 13
-0.0308274361
 23
0.0032006914
 33
0.0
 40
0.0
 40
0.0
 40
0.0
 40
0.0
 40
1.0
 40
1.0
 40
1.0
 40
1.0
 10
11.3426620106
 20
39.1879163638
 30
0.0
 10
11.33591929
 20
39.1927553784
 30
0.0
 10
11.3238860676
 20
39.1986156146
 30
0.0
 10
11.3136102555
 20
39.1996825117
 30
0.0
 11
11.3426620106
 21
39.1879163638
 31
0.0
 11
11.3136102555
 21
39.1996825117
 31
0.0
  0
SPLINE
  5
456
100
AcDbEntity
  8
0
100
AcDbSpline
 62
7
  6
CONTINUOUS
 70
0
 71
3
 72
9
 73
5
 74
3
 42
0.0000001
 43
0.0000001
 44
0.0000000001
 12
-0.0153367359
 22
0.0157776999
 32
0.0
 13
-0.0381804932
 23
0.0039641303
 33
0.0
 40
0.0
 40
0.0
 40
0.0
 40
0.0
 40
0.1549514394
 40
1.0
 40
1.0
 40
1.0
 40
1.0
 10
11.3465477182
 20
39.684644637
 30
0.0
 10
11.3457555685
 20
39.6854595628
 30
0.0
 10
11.3393699261
 20
39.6910120867
 30
0.0
 10
11.3243650458
 20
39.6985468457
 30
0.0
 10
11.3136102555
 20
39.6996634733
 30
0.0
 11
11.3465477182
 21
39.684644637
 31
0.0
 11
11.343569692
 21
39.6872278993
 31
0.0
 11
11.3136102555
 21
39.6996634733
 31
0.0
  0
SPLINE
  5
457
100
AcDbEntity
  8
RACCORDO
100
AcDbSpline
 62
253
  6
CONTINUOUS
 70
0
 71
3
 72
8
 73
4
 74
2
 42
0.0000001
 43
0.0000001
 44
0.0000000001
 12
0.0355858367
 22
-0.0036947374
 32
0.0
 13
0.0141034228
 23
-0.0090539008
 33
0.0
 40
0.0
 40
0.0
 40
0.0
 40
0.0
 40
1.0
 40
1.0
 40
1.0
 40
1.0
 10
10.0680022054
 20
41.9655797711
 30
0.0
 10
10.0798641509
 20
41.964348192
 30
0.0
 10
10.0981550679
 20
41.9602839394
 30
0.0
 10
10.1028562089
 20
41.9572659724
 30
0.0
 11
10.0680022054
 21
41.9655797711
 31
0.0
 11
10.1028562089
 21
41.9572659724
 31
0.0
  0
SPLINE
  5
458
100
AcDbEntity
  8
0
100
AcDbSpline
 62
7
  6
CONTINUOUS
 70
0
 71
3
 72
9
 73
5
 74
3
 42
0.0000001
 43
0.0000001
 44
0.0000000001
 12
-0.0159780815
 22
0.0151554143
 32
0.0
 13
-0.0407982905
 23
0.0042359259
 33
0.0
 40
0.0
 40
0.0
 40
0.0
 40
0.0
 40
0.1276123259
 40
1.0
 40
1.0
 40
1.0
 40
1.0
 10
11.8479180309
 20
39.685514199
 30
0.0
 10
11.8472383642
 20
39.6861588715
 30
0.0
 10
11.8406500071
 20
39.6914596628
 30
0.0
 10
11.8237174509
 20
39.6987971256
 30
0.0
 10
11.8118534756
 20
39.7000289155
 30
0.0
 11
11.8479180309
 21
39.685514199
 31
0.0
 11
11.8453883988
 21
39.6875449311
 31
0.0
 11
11.8118534756
 21
39.7000289155
 31
0.0
  0
SPLINE
  5
459
100
AcDbEntity
  8
0
100
AcDbSpline
 62
7
  6
CONTINUOUS
 70
0
 71
3
 72
8
 73
4
 74
2
 42
0.0000001
 43
0.0000001
 44
0.0000000001
 12
-0.0140310307
 22
0.0144425239
 32
0.0
 13
-0.0235960831
 23
0.0024498884
 33
0.0
 40
0.0
 40
0.0
 40
0.0
 40
0.0
 40
1.0
 40
1.0
 40
1.0
 40
1.0
 10
9.4407836861
 20
40.98653132
 30
0.0
 10
9.4361066759
 20
40.9913454947
 30
0.0
 10
9.4281513803
 20
40.9974086633
 30
0.0
 10
9.4202860193
 20
40.9982252928
 30
0.0
 11
9.4407836861
 21
40.98653132
 31
0.0
 11
9.4202860193
 21
40.9982252928
 31
0.0
  0
SPLINE
  5
45A
100
AcDbEntity
  8
0
100
AcDbSpline
 62
7
  6
CONTINUOUS
 70
0
 71
3
 72
9
 73
5
 74
3
 42
0.0000001
 43
0.0000001
 44
0.0000000001
 12
-0.0121931436
 22
0.0159146831
 32
0.0
 13
-0.0286458966
 23
0.0029741907
 33
0.0
 40
0.0
 40
0.0
 40
0.0
 40
0.0
 40
0.2012134026
 40
1.0
 40
1.0
 40
1.0
 40
1.0
 10
9.4433570284
 20
41.4835650154
 30
0.0
 10
9.4425392204
 20
41.4846324313
 30
0.0
 10
9.4375719747
 20
41.4902393481
 30
0.0
 10
9.4279133387
 20
41.4974143398
 30
0.0
 10
9.4202860193
 20
41.4982062543
 30
0.0
 11
9.4433570284
 21
41.4835650154
 31
0.0
 11
9.440350328
 21
41.4869522913
 31
0.0
 11
9.4202860193
 21
41.4982062543
 31
0.0
  0
SPLINE
  5
45B
100
AcDbEntity
  8
RACCORDO
100
AcDbSpline
 62
253
  6
CONTINUOUS
 70
0
 71
3
 72
29
 73
25
 74
23
 42
0.0000001
 43
0.0000001
 44
0.0000000001
 12
-7.8681378596
 22
5.0903004756
 32
0.0
 13
20.0691585757
 23
-1.6157472233
 33
0.0
 40
0.0
 40
0.0
 40
0.0
 40
0.0
 40
0.0034366719
 40
0.0141097523
 40
0.0340337768
 40
0.0645447078
 40
0.1061500463
 40
0.1567786036
 40
0.2150061287
 40
0.2798510417
 40
0.3494718746
 40
0.4227369864
 40
0.4975357118
 40
0.5726689509
 40
0.6459700295
 40
0.7162515525
 40
0.7815117119
 40
0.8406577764
 40
0.8919954915
 40
0.9326920666
 40
0.9627906158
 40
0.9831278946
 40
0.9953011758
 40
1.0
 40
1.0
 40
1.0
 40
1.0
 10
-10.0958991181
 20
41.959143382
 30
0.0
 10
-10.1049125208
 20
41.9649746128
 30
0.0
 10
-9.9321951755
 20
41.9726729021
 30
0.0
 10
-9.7846038867
 20
41.9817602935
 30
0.0
 10
-9.3228643918
 20
41.9923909306
 30
0.0
 10
-8.7308054658
 20
42.0031436262
 30
0.0
 10
-7.896289913
 20
42.0136007409
 30
0.0
 10
-6.8903392376
 20
42.0230560359
 30
0.0
 10
-5.723199705
 20
42.0311907128
 30
0.0
 10
-4.4302760469
 20
42.0377508147
 30
0.0
 10
-3.0358828312
 20
42.0425920288
 30
0.0
 10
-1.5748325162
 20
42.0455831921
 30
0.0
 10
-0.0767353726
 20
42.0466593946
 30
0.0
 10
1.4215908325
 20
42.0457922984
 30
0.0
 10
2.8895987346
 20
42.0430005144
 30
0.0
 10
4.2913333276
 20
42.0383583732
 30
0.0
 10
5.5980521663
 20
42.0319661842
 30
0.0
 10
6.7776113954
 20
42.0240096352
 30
0.0
 10
7.7922824159
 20
42.0147747682
 30
0.0
 10
8.6119809494
 20
42.0048449315
 30
0.0
 10
9.2235568585
 20
41.9946494629
 30
0.0
 10
9.643721607
 20
41.9852561223
 30
0.0
 10
9.8932613208
 20
41.9763868272
 30
0.0
 10
10.0064404983
 20
41.9708724189
 30
0.0
 10
10.0378743145
 20
41.9683417148
 30
0.0
 11
-10.0958991181
 21
41.959143382
 31
0.0
 11
-10.0273924264
 21
41.9684915169
 31
0.0
 11
-9.8127352534
 21
41.9789437736
 31
0.0
 11
-9.4117033098
 21
41.9900994524
 31
0.0
 11
-8.7974445844
 21
42.0014391876
 31
0.0
 11
-7.9597577944
 21
42.0124125262
 31
0.0
 11
-6.9403559947
 21
42.0222015
 31
0.0
 11
-5.7679251276
 21
42.0305285436
 31
0.0
 11
-4.4622353028
 21
42.0372524025
 31
0.0
 11
-3.0603696494
 21
42.0421826484
 31
0.0
 11
-1.5851178579
 21
42.0452387756
 31
0.0
 11
-0.0789826891
 21
42.0463329083
 31
0.0
 11
1.4338883307
 21
42.0454474661
 31
0.0
 11
2.9098647805
 21
42.0426078353
 31
0.0
 11
4.325034691
 21
42.037860281
 31
0.0
 11
5.6390869885
 21
42.0313395552
 31
0.0
 11
6.8300148727
 21
42.0231554807
 31
0.0
 11
7.863698496
 21
42.0135457621
 31
0.0
 11
8.6830939824
 21
42.0032680652
 31
0.0
 11
9.2890645426
 21
41.9928720602
 31
0.0
 11
9.6984515909
 21
41.9829075127
 31
0.0
 11
9.9434026873
 21
41.9738281292
 31
0.0
 11
10.0378743145
 21
41.9683417148
 31
0.0
  0
SPLINE
  5
45C
100
AcDbEntity
  8
0
100
AcDbSpline
 62
7
  6
CONTINUOUS
 70
0
 71
3
 72
9
 73
5
 74
3
 42
0.0000001
 43
0.0000001
 44
0.0000000001
 12
-0.0135184629
 22
0.0154023883
 32
0.0
 13
-0.0326754433
 23
0.0033925627
 33
0.0
 40
0.0
 40
0.0
 40
0.0
 40
0.0
 40
0.1809868267
 40
1.0
 40
1.0
 40
1.0
 40
1.0
 10
10.0953701051
 20
41.4841996709
 30
0.0
 10
10.0945545505
 20
41.4851288807
 30
0.0
 10
10.0889428531
 20
41.4905657094
 30
0.0
 10
10.0769227449
 20
41.4977551447
 30
0.0
 10
10.0680022054
 20
41.4986813292
 30
0.0
 11
10.0953701051
 21
41.4841996709
 31
0.0
 11
10.0923133485
 21
41.4871542782
 31
0.0
 11
10.0680022054
 21
41.4986813292
 31
0.0
  0
SPLINE
  5
45D
100
AcDbEntity
  8
0
100
AcDbSpline
 62
7
  6
CONTINUOUS
 70
0
 71
3
 72
9
 73
5
 74
3
 42
0.0000001
 43
0.0000001
 44
0.0000000001
 12
-0.0091366584
 22
0.0145471877
 32
0.0
 13
-0.0212978307
 23
0.0022112699
 33
0.0
 40
0.0
 40
0.0
 40
0.0
 40
0.0
 40
0.2046486479
 40
1.0
 40
1.0
 40
1.0
 40
1.0
 10
7.842057727
 20
43.2840759233
 30
0.0
 10
7.8414344587
 20
43.2850682774
 30
0.0
 10
7.8378525844
 20
43.2901460962
 30
0.0
 10
7.8315541345
 20
43.2963820552
 30
0.0
 10
7.825907715
 20
43.2969683007
 30
0.0
 11
7.842057727
 21
43.2840759233
 31
0.0
 11
7.8398546341
 21
43.2871951191
 31
0.0
 11
7.825907715
 21
43.2969683007
 31
0.0
  0
SPLINE
  5
45E
100
AcDbEntity
  8
0
100
AcDbSpline
 62
7
  6
CONTINUOUS
 70
0
 71
3
 72
9
 73
5
 74
3
 42
0.0000001
 43
0.0000001
 44
0.0000000001
 12
-0.0107738359
 22
0.0140621803
 32
0.0
 13
-0.0253114536
 23
0.0026279886
 33
0.0
 40
0.0
 40
0.0
 40
0.0
 40
0.0
 40
0.2012134026
 40
1.0
 40
1.0
 40
1.0
 40
1.0
 10
8.3445364299
 20
43.2843967752
 30
0.0
 10
8.3438138166
 20
43.2853399416
 30
0.0
 10
8.3394247687
 20
43.2902942015
 30
0.0
 10
8.3308904184
 20
43.2966340089
 30
0.0
 10
8.3241509351
 20
43.297333743
 30
0.0
 11
8.3445364299
 21
43.2843967752
 31
0.0
 11
8.3418797159
 21
43.287389765
 31
0.0
 11
8.3241509351
 21
43.297333743
 31
0.0
  0
SPLINE
  5
45F
100
AcDbEntity
  8
RACCORDO
100
AcDbSpline
 62
253
  6
CONTINUOUS
 70
0
 71
3
 72
29
 73
25
 74
23
 42
0.0000001
 43
0.0000001
 44
0.0000000001
 12
14.0891766306
 22
3.2198551732
 32
0.0
 13
19.6031044578
 23
-1.1393660106
 33
0.0
 40
0.0
 40
0.0
 40
0.0
 40
0.0
 40
0.0024074435
 40
0.0131135331
 40
0.0330992131
 40
0.0637045552
 40
0.1054386145
 40
0.1562238294
 40
0.2146315251
 40
0.2796770831
 40
0.3495133428
 40
0.4230051569
 40
0.4980353312
 40
0.5734010538
 40
0.646928947
 40
0.717427939
 40
0.7828900307
 40
0.8422191088
 40
0.893715663
 40
0.9345381657
 40
0.9647298511
 40
0.9851300448
 40
0.9973410339
 40
1.0
 40
1.0
 40
1.0
 40
1.0
 10
-9.8694470442
 20
42.2530938943
 30
0.0
 10
-9.8581407452
 20
42.2556777675
 30
0.0
 10
-9.7090611293
 20
42.2623920197
 30
0.0
 10
-9.5691158529
 20
42.2710081722
 30
0.0
 10
-9.1175416428
 20
42.2814051188
 30
0.0
 10
-8.5385171845
 20
42.2919209696
 30
0.0
 10
-7.7223738206
 20
42.3021477722
 30
0.0
 10
-6.7385695771
 20
42.3113949326
 30
0.0
 10
-5.5971249891
 20
42.3193505122
 30
0.0
 10
-4.3326654408
 20
42.3257661458
 30
0.0
 10
-2.968970207
 20
42.3305008038
 30
0.0
 10
-1.5400853237
 20
42.3334260864
 30
0.0
 10
-0.0749692087
 20
42.3344786021
 30
0.0
 10
1.3903709306
 20
42.3336306058
 30
0.0
 10
2.8260602189
 20
42.3309002694
 30
0.0
 10
4.1969352153
 20
42.3263603587
 30
0.0
 10
5.4748862475
 20
42.320108908
 30
0.0
 10
6.6284770424
 20
42.3123274895
 30
0.0
 10
7.6208097028
 20
42.3032960534
 30
0.0
 10
8.4224622764
 20
42.2935848504
 30
0.0
 10
9.0205740951
 20
42.2836136613
 30
0.0
 10
9.4314889988
 20
42.27442744
 30
0.0
 10
9.6621025212
 20
42.2662304697
 30
0.0
 10
9.7593512382
 20
42.2616478309
 30
0.0
 10
9.7767259017
 20
42.2606379857
 30
0.0
 11
-9.8694470442
 21
42.2530938943
 31
0.0
 11
-9.8065590909
 21
42.2580317927
 31
0.0
 11
-9.5966279751
 21
42.2682538602
 31
0.0
 11
-9.204424764
 21
42.2791639733
 31
0.0
 11
-8.6036890834
 21
42.2902540782
 31
0.0
 11
-7.7844445521
 21
42.30098574
 31
0.0
 11
-6.7874851971
 21
42.3105592025
 31
0.0
 11
-5.6408657586
 21
42.3187029163
 31
0.0
 11
-4.3639211288
 21
42.3252787184
 31
0.0
 11
-2.9929179358
 21
42.330100427
 31
0.0
 11
-1.5501442367
 21
42.3330892584
 31
0.0
 11
-0.0771670486
 21
42.3341593043
 31
0.0
 11
1.4023976951
 21
42.333293361
 31
0.0
 11
2.8458801155
 21
42.3305162433
 31
0.0
 11
4.2298946297
 21
42.3258732296
 31
0.0
 11
5.5150176755
 21
42.3194960657
 31
0.0
 11
6.6797269297
 21
42.3114921692
 31
0.0
 11
7.690653439
 21
42.3020940966
 31
0.0
 11
8.4920097215
 21
42.2920426513
 31
0.0
 11
9.0846397257
 21
42.2818754962
 31
0.0
 11
9.4850137228
 21
42.2721303917
 31
0.0
 11
9.7245729366
 21
42.2632506885
 31
0.0
 11
9.7767259017
 21
42.2606379857
 31
0.0
  0
SPLINE
  5
460
100
AcDbEntity
  8
RACCORDO
100
AcDbSpline
 62
253
  6
CONTINUOUS
 70
0
 71
3
 72
8
 73
4
 74
2
 42
0.0000001
 43
0.0000001
 44
0.0000000001
 12
0.0698204357
 22
-0.0040580833
 32
0.0
 13
0.0695487923
 23
-0.0072209774
 33
0.0
 40
0.0
 40
0.0
 40
0.0
 40
0.0
 40
1.0
 40
1.0
 40
1.0
 40
1.0
 10
9.7767259017
 20
42.2606379857
 30
0.0
 10
9.7999993803
 20
42.2592852913
 30
0.0
 10
9.8232462432
 20
42.2575909623
 30
0.0
 10
9.846429174
 20
42.2551839699
 30
0.0
 11
9.7767259017
 21
42.2606379857
 31
0.0
 11
9.846429174
 21
42.2551839699
 31
0.0
  0
SPLINE
  5
461
100
AcDbEntity
  8
0
100
AcDbSpline
 62
7
  6
CONTINUOUS
 70
0
 71
3
 72
8
 73
4
 74
2
 42
0.0000001
 43
0.0000001
 44
0.0000000001
 12
0.0002242887
 22
0.0015281637
 32
0.0
 13
-0.0019040284
 23
0.0001976878
 33
0.0
 40
0.0
 40
0.0
 40
0.0
 40
0.0
 40
1.0
 40
1.0
 40
1.0
 40
1.0
 10
3.5916110981
 20
45.0928831001
 30
0.0
 10
3.591685861
 20
45.093392488
 30
0.0
 10
3.5914750206
 20
45.0937276074
 30
0.0
 10
3.5908403445
 20
45.0937935034
 30
0.0
 11
3.5916110981
 21
45.0928831001
 31
0.0
 11
3.5908403445
 21
45.0937935034
 31
0.0
  0
SPLINE
  5
462
100
AcDbEntity
  8
RACCORDO
100
AcDbSpline
 62
253
  6
CONTINUOUS
 70
0
 71
3
 72
8
 73
4
 74
2
 42
0.0000001
 43
0.0000001
 44
0.0000000001
 12
0.0332519049
 22
-0.0034524144
 32
0.0
 13
0.0198387863
 23
-0.0201561275
 33
0.0
 40
0.0
 40
0.0
 40
0.0
 40
0.0
 40
1.0
 40
1.0
 40
1.0
 40
1.0
 10
13.2157225506
 20
38.6896305913
 30
0.0
 10
13.2268065189
 20
38.6884797865
 30
0.0
 10
13.2380875128
 20
38.6800192874
 30
0.0
 10
13.2447004415
 20
38.6733005783
 30
0.0
 11
13.2157225506
 21
38.6896305913
 31
0.0
 11
13.2447004415
 21
38.6733005783
 31
0.0
  0
SPLINE
  5
463
100
AcDbEntity
  8
0
100
AcDbSpline
 62
7
  6
CONTINUOUS
 70
0
 71
3
 72
8
 73
4
 74
2
 42
0.0000001
 43
0.0000001
 44
0.0000000001
 12
0.0001676891
 22
0.0040426721
 32
0.0
 13
-0.0033639838
 23
0.0003492692
 33
0.0
 40
0.0
 40
0.0
 40
0.0
 40
0.0
 40
1.0
 40
1.0
 40
1.0
 40
1.0
 10
4.0904638025
 20
45.0916896677
 30
0.0
 10
4.0905196989
 20
45.0930372251
 30
0.0
 10
4.0902048925
 20
45.0940425225
 30
0.0
 10
4.0890835645
 20
45.0941589456
 30
0.0
 11
4.0904638025
 21
45.0916896677
 31
0.0
 11
4.0890835645
 21
45.0941589456
 31
0.0
  0
SPLINE
  5
464
100
AcDbEntity
  8
RACCORDO
100
AcDbSpline
 62
253
  6
CONTINUOUS
 70
0
 71
3
 72
8
 73
4
 74
2
 42
0.0000001
 43
0.0000001
 44
0.0000000001
 12
0.0261659394
 22
-0.0027167065
 32
0.0
 13
0.0225290844
 23
-0.0072758031
 33
0.0
 40
0.0
 40
0.0
 40
0.0
 40
0.0
 40
1.0
 40
1.0
 40
1.0
 40
1.0
 10
9.846429174
 20
42.2551839699
 30
0.0
 10
9.8551511538
 20
42.254278401
 30
0.0
 10
9.8674271812
 20
42.2518068626
 30
0.0
 10
9.874936876
 20
42.2493815949
 30
0.0
 11
9.846429174
 21
42.2551839699
 31
0.0
 11
9.874936876
 21
42.2493815949
 31
0.0
  0
SPLINE
  5
465
100
AcDbEntity
  8
RACCORDO
100
AcDbSpline
 62
253
  6
CONTINUOUS
 70
0
 71
3
 72
29
 73
25
 74
23
 42
0.0000001
 43
0.0000001
 44
0.0000000001
 12
-10.4365613499
 22
6.9646617002
 32
0.0
 13
23.5387954785
 23
-1.8637191565
 33
0.0
 40
0.0
 40
0.0
 40
0.0
 40
0.0
 40
0.004922761
 40
0.0191105743
 40
0.0430648712
 40
0.0765610856
 40
0.1188496722
 40
0.1687929103
 40
0.2256320404
 40
0.2879244121
 40
0.3547222308
 40
0.4243293599
 40
0.4956872124
 40
0.5669833834
 40
0.6371337592
 40
0.7043565877
 40
0.7676294862
 40
0.8253456383
 40
0.8766287944
 40
0.9200773738
 40
0.9546001149
 40
0.9795476399
 40
0.9944404183
 40
1.0
 40
1.0
 40
1.0
 40
1.0
 10
-11.8445361551
 20
40.1210345945
 30
0.0
 10
-11.8616617208
 20
40.1324630494
 30
0.0
 10
-11.5725187036
 20
40.1317785055
 30
0.0
 10
-11.3660163964
 20
40.1535792772
 30
0.0
 10
-10.726414822
 20
40.1604544433
 30
0.0
 10
-9.9748096398
 20
40.175306687
 30
0.0
 10
-8.972470416
 20
40.1858251676
 30
0.0
 10
-7.8034640667
 20
40.1964163981
 30
0.0
 10
-6.4711543744
 20
40.2050676479
 30
0.0
 10
-5.0080294098
 20
40.2121713171
 30
0.0
 10
-3.4438169039
 20
40.2173717565
 30
0.0
 10
-1.8084071971
 20
40.220620183
 30
0.0
 10
-0.1375368201
 20
40.221824015
 30
0.0
 10
1.5375967621
 20
40.2209641684
 30
0.0
 10
3.1801817966
 20
40.2180590829
 30
0.0
 10
4.7596041644
 20
40.2131679569
 30
0.0
 10
6.2411397914
 20
40.2064022223
 30
0.0
 10
7.597193439
 20
40.1979144209
 30
0.0
 10
8.7971755108
 20
40.187878021
 30
0.0
 10
9.8145815054
 20
40.1767101094
 30
0.0
 10
10.6246121832
 20
40.1644805882
 30
0.0
 10
11.2099275341
 20
40.1528090569
 30
0.0
 10
11.5670170084
 20
40.1409792011
 30
0.0
 10
11.727967252
 20
40.1338536477
 30
0.0
 10
11.7715892045
 20
40.1303998147
 30
0.0
 11
-11.8445361551
 21
40.1210345945
 31
0.0
 11
-11.7258042967
 21
40.1327977408
 31
0.0
 11
-11.3910359861
 21
40.1464700412
 31
0.0
 11
-10.825515033
 21
40.160067463
 31
0.0
 11
-10.0346030255
 21
40.1730313727
 31
0.0
 11
-9.0360225698
 21
40.1849402288
 31
0.0
 11
-7.8566522687
 21
40.1954620793
 31
0.0
 11
-6.5144174901
 21
40.2044371057
 31
0.0
 11
-5.043391191
 21
40.2116374605
 31
0.0
 11
-3.4659594064
 21
40.2169535398
 31
0.0
 11
-1.8221796717
 21
40.2202503411
 31
0.0
 11
-0.1370534751
 21
40.2214777007
 31
0.0
 11
1.5466163211
 21
40.2206044322
 31
0.0
 11
3.2032255702
 21
40.2176438024
 31
0.0
 11
4.7906951982
 21
40.2126709956
 31
0.0
 11
6.2848784345
 21
40.205761645
 31
0.0
 11
7.6478266507
 21
40.1970912146
 31
0.0
 11
8.8588424526
 21
40.1867912312
 31
0.0
 11
9.8848213279
 21
40.1751538627
 31
0.0
 11
10.6999841693
 21
40.1625787168
 31
0.0
 11
11.2889810952
 21
40.1496122451
 31
0.0
 11
11.6404709648
 21
40.1375948071
 31
0.0
 11
11.7715892045
 21
40.1303998147
 31
0.0
  0
SPLINE
  5
466
100
AcDbEntity
  8
RACCORDO
100
AcDbSpline
 62
253
  6
CONTINUOUS
 70
0
 71
3
 72
30
 73
26
 74
24
 42
0.0000001
 43
0.0000001
 44
0.0000000001
 12
-15.5811409336
 22
7.4592816076
 32
0.0
 13
23.1028005918
 23
-1.8291925741
 33
0.0
 40
0.0
 40
0.0
 40
0.0
 40
0.0
 40
0.0001569455
 40
0.0051678122
 40
0.0193520894
 40
0.0433004996
 40
0.0767884584
 40
0.119066629
 40
0.1689975694
 40
0.2258227011
 40
0.2880997347
 40
0.3548811047
 40
0.4244710945
 40
0.4958113766
 40
0.5670899924
 40
0.6372230947
 40
0.7044293711
 40
0.7676866879
 40
0.8253886284
 40
0.8766591544
 40
0.9200970287
 40
0.9546112786
 40
0.9795526239
 40
0.9944417884
 40
1.0
 40
1.0
 40
1.0
 40
1.0
 10
-11.6190254005
 20
40.4089804299
 30
0.0
 10
-11.6198405305
 20
40.4093706635
 30
0.0
 10
-11.644016967
 20
40.4219720747
 30
0.0
 10
-11.3557256058
 20
40.4212445546
 30
0.0
 10
-11.1526775586
 20
40.4426793211
 30
0.0
 10
-10.525077925
 20
40.4494263281
 30
0.0
 10
-9.7875758717
 20
40.4639994428
 30
0.0
 10
-8.8040447213
 20
40.4743206879
 30
0.0
 10
-7.6569737398
 20
40.48471315
 30
0.0
 10
-6.349663632
 20
40.4932020369
 30
0.0
 10
-4.913992884
 20
40.5001724336
 30
0.0
 10
-3.3791313858
 20
40.5052752624
 30
0.0
 10
-1.7744086375
 20
40.5084627467
 30
0.0
 10
-0.1348905975
 20
40.5096439849
 30
0.0
 10
1.5088106491
 20
40.5088002675
 30
0.0
 10
3.120574092
 20
40.5059497136
 30
0.0
 10
4.6703600416
 20
40.5011503464
 30
0.0
 10
6.124096006
 20
40.4945115977
 30
0.0
 10
7.4547045241
 20
40.4861830655
 30
0.0
 10
8.6321699668
 20
40.4763349439
 30
0.0
 10
9.6304852829
 20
40.4653768065
 30
0.0
 10
10.4253162082
 20
40.4533763429
 30
0.0
 10
10.9996488762
 20
40.4419245272
 30
0.0
 10
11.3500379888
 20
40.4303159981
 30
0.0
 10
11.5079685582
 20
40.4233242568
 30
0.0
 10
11.5507719763
 20
40.4199352437
 30
0.0
 11
-11.6190254005
 21
40.4089804299
 31
0.0
 11
-11.6212156939
 21
40.4101242668
 31
0.0
 11
-11.5057138863
 21
40.4222884805
 31
0.0
 11
-11.1772281734
 21
40.435703982
 31
0.0
 11
-10.6223184306
 21
40.4490463354
 31
0.0
 11
-9.8462473388
 21
40.4617669424
 31
0.0
 11
-8.8664043973
 21
40.4734523206
 31
0.0
 11
-7.7091638942
 21
40.4837767409
 31
0.0
 11
-6.3921149789
 21
40.492583335
 31
0.0
 11
-4.9486911254
 21
40.499648586
 31
0.0
 11
-3.4008584131
 21
40.5048649002
 31
0.0
 11
-1.7879226836
 21
40.5080998417
 31
0.0
 11
-0.1344163226
 21
40.5093041689
 31
0.0
 11
1.5176609678
 21
40.5084472857
 31
0.0
 11
3.143185467
 21
40.5055422188
 31
0.0
 11
4.7008676965
 21
40.500662719
 31
0.0
 11
6.1670139206
 21
40.4938830361
 31
0.0
 11
7.5043876684
 21
40.4853752961
 31
0.0
 11
8.6926798182
 21
40.4752685995
 31
0.0
 11
9.6994069938
 21
40.4638496379
 31
0.0
 11
10.4992742715
 21
40.4515103877
 31
0.0
 11
11.0772183656
 21
40.4387874441
 31
0.0
 11
11.422114074
 21
40.4269951789
 31
0.0
 11
11.5507719763
 21
40.4199352437
 31
0.0
  0
SPLINE
  5
467
100
AcDbEntity
  8
0
100
AcDbSpline
 62
7
  6
CONTINUOUS
 70
0
 71
3
 72
11
 73
7
 74
5
 42
0.0000001
 43
0.0000001
 44
0.0000000001
 12
0.0244396931
 22
0.589195444
 32
0.0
 13
0.4991993936
 23
-0.0043499597
 33
0.0
 40
0.0
 40
0.0
 40
0.0
 40
0.0
 40
0.0052357683
 40
0.2300635238
 40
0.6747365785
 40
1.0
 40
1.0
 40
1.0
 40
1.0
 10
-4.0834854826
 20
45.090634971
 30
0.0
 10
-4.0834428291
 20
45.0916632679
 30
0.0
 10
-4.0720836349
 20
45.1456046083
 30
0.0
 10
-3.9130169336
 20
45.0569933541
 30
0.0
 10
-3.77588787
 20
45.1113340701
 30
0.0
 10
-3.6508446248
 20
45.1163346897
 30
0.0
 10
-3.5967208572
 20
45.1158630621
 30
0.0
 11
-4.0834854826
 21
45.090634971
 31
0.0
 11
-4.0829035985
 21
45.094074868
 31
0.0
 11
-3.9722358104
 21
45.0999045962
 31
0.0
 11
-3.7531206091
 21
45.1054958579
 31
0.0
 11
-3.5967208572
 21
45.1158630621
 31
0.0
  0
SPLINE
  5
468
100
AcDbEntity
  8
0
100
AcDbSpline
 62
7
  6
CONTINUOUS
 70
0
 71
3
 72
21
 73
17
 74
15
 42
0.0000001
 43
0.0000001
 44
0.0000000001
 12
7.2884570897
 22
-0.0635106829
 32
0.0
 13
7.1960755114
 23
-0.1132911539
 33
0.0
 40
0.0
 40
0.0
 40
0.0
 40
0.0
 40
0.0224130131
 40
0.0801213114
 40
0.1492737868
 40
0.2279846479
 40
0.3141072077
 40
0.4052925254
 40
0.4990535199
 40
0.5928328345
 40
0.6840726128
 40
0.7702842878
 40
0.8491164869
 40
0.9184192118
 40
0.9763025692
 40
1.0
 40
1.0
 40
1.0
 40
1.0
 10
-3.5967208572
 20
45.1158630621
 30
0.0
 10
-3.5422687624
 20
45.1153885735
 30
0.0
 10
-3.342916358
 20
45.1043421856
 30
0.0
 10
-2.9905311036
 20
45.1191830412
 30
0.0
 10
-2.4950943029
 20
45.1186210446
 30
0.0
 10
-1.9345447738
 20
45.1232173777
 30
0.0
 10
-1.3201522657
 20
45.1250923954
 30
0.0
 10
-0.6699525181
 20
45.1266466123
 30
0.0
 10
-0.0012967049
 20
45.1270936074
 30
0.0
 10
0.6674657011
 20
45.1266338145
 30
0.0
 10
1.3181227695
 20
45.1252188919
 30
0.0
 10
1.9329198094
 20
45.1229178989
 30
0.0
 10
2.4950843007
 20
45.1197587391
 30
0.0
 10
2.9892969291
 20
45.1159621264
 30
0.0
 10
3.3512105216
 20
45.1118788922
 30
0.0
 10
3.5469235322
 20
45.1092997192
 30
0.0
 10
3.603766366
 20
45.1084048161
 30
0.0
 11
-3.5967208572
 21
45.1158630621
 31
0.0
 11
-3.431534886
 21
45.110696138
 31
0.0
 11
-3.0162506613
 21
45.1153635864
 31
0.0
 11
-2.5185958062
 21
45.1193708874
 31
0.0
 11
-1.9521450479
 21
45.1226087322
 31
0.0
 11
-1.3323496862
 21
45.1249888008
 31
0.0
 11
-0.6761161232
 21
45.1264461711
 31
0.0
 11
-0.0013446996
 21
45.12694109
 31
0.0
 11
0.6735585791
 21
45.1264600573
 31
0.0
 11
1.3301841108
 21
45.1250161943
 31
0.0
 11
1.9506208626
 21
45.1226488858
 31
0.0
 11
2.5179449374
 21
45.1194227059
 31
0.0
 11
3.0166812133
 21
45.1154256563
 31
0.0
 11
3.4332254647
 21
45.1107667661
 31
0.0
 11
3.603766366
 21
45.1084048161
 31
0.0
  0
SPLINE
  5
469
100
AcDbEntity
  8
0
100
AcDbSpline
 62
7
  6
CONTINUOUS
 70
0
 71
3
 72
10
 73
6
 74
4
 42
0.0000001
 43
0.0000001
 44
0.0000000001
 12
0.4855345093
 22
-0.0076439949
 32
0.0
 13
0.4829817231
 23
-0.0501460915
 33
0.0
 40
0.0
 40
0.0
 40
0.0
 40
0.0
 40
0.3140339483
 40
0.7685358554
 40
1.0
 40
1.0
 40
1.0
 40
1.0
 10
3.603766366
 20
45.1084048161
 30
0.0
 10
3.654591139
 20
45.1076046581
 30
0.0
 10
3.7789600132
 20
45.105361344
 30
0.0
 10
3.9406826142
 20
45.1008974565
 30
0.0
 10
4.0518192474
 20
45.098027953
 30
0.0
 10
4.0890835645
 20
45.0941589456
 30
0.0
 11
3.603766366
 21
45.1084048161
 31
0.0
 11
3.7562154505
 21
45.1055731177
 31
0.0
 11
3.9768408456
 21
45.0999863804
 31
0.0
 11
4.0890835645
 21
45.0941589456
 31
0.0
  0
SPLINE
  5
46A
100
AcDbEntity
  8
RACCORDO
100
AcDbSpline
 62
253
  6
CONTINUOUS
 70
0
 71
3
 72
9
 73
5
 74
3
 42
0.0000001
 43
0.0000001
 44
0.0000000001
 12
0.029318012
 22
-0.0030439738
 32
0.0
 13
0.013577669
 23
-0.0101946798
 33
0.0
 40
0.0
 40
0.0
 40
0.0
 40
0.0
 40
0.8984293119
 40
1.0
 40
1.0
 40
1.0
 40
1.0
 10
8.3241509351
 20
43.7374382859
 30
0.0
 10
8.3329309889
 20
43.7365266875
 30
0.0
 10
8.3451732643
 20
43.7318058442
 30
0.0
 10
8.3503898212
 20
43.728289082
 30
0.0
 10
8.3508495189
 20
43.7279439218
 30
0.0
 11
8.3241509351
 21
43.7374382859
 31
0.0
 11
8.3492576411
 21
43.7290159039
 31
0.0
 11
8.3508495189
 21
43.7279439218
 31
0.0
  0
SPLINE
  5
46B
100
AcDbEntity
  8
0
100
AcDbSpline
 62
7
  6
CONTINUOUS
 70
0
 71
3
 72
31
 73
27
 74
25
 42
0.0000001
 43
0.0000001
 44
0.0000000001
 12
-11.0825684539
 22
9.7775711332
 32
0.0
 13
22.5278641291
 23
-2.3389794713
 33
0.0
 40
0.0
 40
0.0
 40
0.0
 40
0.0
 40
0.0064505991
 40
0.0208264277
 40
0.0427642855
 40
0.071920224
 40
0.107835247
 40
0.1499433754
 40
0.1975807971
 40
0.2499964186
 40
0.3063637465
 40
0.3657939405
 40
0.4273498411
 40
0.4900607561
 40
0.5529377736
 40
0.6149893616
 40
0.6752370087
 40
0.7327306601
 40
0.7865637063
 40
0.8358872902
 40
0.8799237083
 40
0.9179787054
 40
0.9494524844
 40
0.9738493219
 40
0.9907858968
 40
1.0
 40
1.0
 40
1.0
 40
1.0
 10
-11.3383903688
 20
39.1969921214
 30
0.0
 10
-11.3622201042
 20
39.2180158519
 30
0.0
 10
-11.0464229599
 20
39.1954998831
 30
0.0
 10
-10.8499320063
 20
39.2312277172
 30
0.0
 10
-10.2921311711
 20
39.229524293
 30
0.0
 10
-9.6614470151
 20
39.2453067996
 30
0.0
 10
-8.8427631567
 20
39.2533300271
 30
0.0
 10
-7.8973749265
 20
39.2630173123
 30
0.0
 10
-6.8230820934
 20
39.2707846642
 30
0.0
 10
-5.6425080225
 20
39.2776209915
 30
0.0
 10
-4.3724704624
 20
39.2830505273
 30
0.0
 10
-3.033547663
 20
39.2870905536
 30
0.0
 10
-1.6466927893
 20
39.2896413654
 30
0.0
 10
-0.2338239038
 20
39.290669946
 30
0.0
 10
1.1827903491
 20
39.2901566806
 30
0.0
 10
2.5808056419
 20
39.2881108518
 30
0.0
 10
3.9381754363
 20
39.2845657852
 30
0.0
 10
5.2334932523
 20
39.2795817835
 30
0.0
 10
6.4463308123
 20
39.2732384967
 30
0.0
 10
7.5575632251
 20
39.2656585544
 30
0.0
 10
8.5496599664
 20
39.2569315157
 30
0.0
 10
9.4069956772
 20
39.247357412
 30
0.0
 10
10.1159965468
 20
39.2367425118
 30
0.0
 10
10.6656399126
 20
39.2264219662
 30
0.0
 10
11.0469400884
 20
39.2143518316
 30
0.0
 10
11.2444189008
 20
39.2068663778
 30
0.0
 10
11.3136102555
 20
39.1996825117
 30
0.0
 11
-11.3383903688
 21
39.1969921214
 31
0.0
 11
-11.1877109644
 21
39.2078972919
 31
0.0
 11
-10.8623386455
 21
39.2200071975
 31
0.0
 11
-10.3656057311
 21
39.2316657451
 31
0.0
 11
-9.7053459961
 21
39.2426890723
 31
0.0
 11
-8.8919721309
 21
39.2529033348
 31
0.0
 11
-7.9383115272
 21
39.2621474475
 31
0.0
 11
-6.8594039825
 21
39.2702756253
 31
0.0
 11
-5.6722645133
 21
39.2771596819
 31
0.0
 11
-4.3956150181
 21
39.2826910517
 31
0.0
 11
-3.0495890221
 21
39.2867825016
 31
0.0
 11
-1.6554141594
 21
39.289369507
 31
0.0
 11
-0.2350774003
 21
39.2904112694
 31
0.0
 11
1.1890216959
 21
39.2898913594
 31
0.0
 11
2.5944242359
 21
39.2878179764
 31
0.0
 11
3.9589661819
 21
39.2842238189
 31
0.0
 11
5.2611278924
 21
39.2791655689
 31
0.0
 11
6.4803734993
 21
39.272722998
 31
0.0
 11
7.5974747712
 21
39.2649977094
 31
0.0
 11
8.5948143534
 21
39.2561115355
 31
0.0
 11
9.4566636052
 21
39.2462046166
 31
0.0
 11
10.1694306489
 21
39.2354331907
 31
0.0
 11
10.7218747226
 21
39.2239671297
 31
0.0
 11
11.105283453
 21
39.2119872601
 31
0.0
 11
11.3136102555
 21
39.1996825117
 31
0.0
  0
SPLINE
  5
46C
100
AcDbEntity
  8
0
100
AcDbSpline
 62
7
  6
CONTINUOUS
 70
0
 71
3
 72
25
 73
21
 74
19
 42
0.0000001
 43
0.0000001
 44
0.0000000001
 12
0.8409174589
 22
5.7294888263
 32
0.0
 13
7.1387045237
 23
-0.7411835954
 33
0.0
 40
0.0
 40
0.0
 40
0.0
 40
0.0
 40
0.0005525844
 40
0.0160474376
 40
0.0462404735
 40
0.0902207165
 40
0.1466536129
 40
0.2138252703
 40
0.2896951716
 40
0.3719583634
 40
0.458115566
 40
0.5455491497
 40
0.6316026931
 40
0.7136617169
 40
0.789233147
 40
0.8560211026
 40
0.9119967334
 40
0.9554600615
 40
0.985092309
 40
1.0
 40
1.0
 40
1.0
 40
1.0
 10
-3.5846327782
 20
45.0894415386
 30
0.0
 10
-3.5844778855
 20
45.0904968807
 30
0.0
 10
-3.5443789159
 20
45.1428675167
 30
0.0
 10
-3.4370178121
 20
45.0595168608
 30
0.0
 10
-3.220269813
 20
45.1262918703
 30
0.0
 10
-2.9089134282
 20
45.1014690003
 30
0.0
 10
-2.5075917193
 20
45.1168887775
 30
0.0
 10
-2.0305345095
 20
45.1162861377
 30
0.0
 10
-1.4914835757
 20
45.1202150817
 30
0.0
 10
-0.9070701836
 20
45.121629783
 30
0.0
 10
-0.2949718123
 20
45.1226513175
 30
0.0
 10
0.3261899315
 20
45.1226026112
 30
0.0
 10
0.9375477567
 20
45.1216640037
 30
0.0
 10
1.5205256414
 20
45.1198291799
 30
0.0
 10
2.0574060494
 20
45.1171340761
 30
0.0
 10
2.5318916445
 20
45.1137938546
 30
0.0
 10
2.9295217663
 20
45.1095703384
 30
0.0
 10
3.2383392505
 20
45.1056401517
 30
0.0
 10
3.4486948022
 20
45.0999734773
 30
0.0
 10
3.5553664773
 20
45.0974766154
 30
0.0
 10
3.5908403445
 20
45.0937935034
 30
0.0
 11
-3.5846327782
 21
45.0894415386
 31
0.0
 11
-3.5817196825
 21
45.0940071907
 31
0.0
 11
-3.4706425841
 21
45.0993968062
 31
0.0
 11
-3.2540057506
 21
45.1045362209
 31
0.0
 11
-2.9383915826
 21
45.1092692764
 31
0.0
 11
-2.5333898569
 21
45.1134521611
 31
0.0
 11
-2.051306346
 21
45.1169577803
 31
0.0
 11
-1.5067889134
 21
45.1196796175
 31
0.0
 11
-0.9163824458
 21
45.121534971
 31
0.0
 11
-0.2980261449
 21
45.1224674668
 31
0.0
 11
0.3294915459
 21
45.1224487716
 31
0.0
 11
0.9471038192
 21
45.1214794533
 31
0.0
 11
1.5360448385
 21
45.1195889643
 31
0.0
 11
2.0784199291
 21
45.1168347461
 31
0.0
 11
2.5577492982
 21
45.1133004841
 31
0.0
 11
2.9594687656
 21
45.1090935653
 31
0.0
 11
3.2713722884
 21
45.1043418146
 31
0.0
 11
3.483982836
 21
45.0991896116
 31
0.0
 11
3.5908403445
 21
45.0937935034
 31
0.0
  0
SPLINE
  5
46D
100
AcDbEntity
  8
0
100
AcDbSpline
 62
7
  6
CONTINUOUS
 70
0
 71
3
 72
31
 73
27
 74
25
 42
0.0000001
 43
0.0000001
 44
0.0000000001
 12
-9.0481654359
 22
9.3083195785
 32
0.0
 13
22.5252244584
 23
-2.3387054046
 33
0.0
 40
0.0
 40
0.0
 40
0.0
 40
0.0
 40
0.0063341677
 40
0.020711681
 40
0.0426521096
 40
0.0718114648
 40
0.1077306966
 40
0.1498437595
 40
0.1974867637
 40
0.2499085277
 40
0.3062824612
 40
0.3657196196
 40
0.4272827337
 40
0.4900009976
 40
0.5528853836
 40
0.6149442432
 40
0.6751989506
 40
0.7326993395
 40
0.7865386943
 40
0.8358680582
 40
0.8799096369
 40
0.9179690936
 40
0.9494465608
 40
0.9738462574
 40
0.9907848171
 40
1.0
 40
1.0
 40
1.0
 40
1.0
 10
-11.3395693983
 20
39.6980912326
 30
0.0
 10
-11.3586735974
 20
39.7177447184
 30
0.0
 10
-11.0458845772
 20
39.6955787384
 30
0.0
 10
-10.8499320063
 20
39.7312086788
 30
0.0
 10
-10.2921311711
 20
39.7295052545
 30
0.0
 10
-9.6614470151
 20
39.7452877612
 30
0.0
 10
-8.8427631567
 20
39.7533109886
 30
0.0
 10
-7.8973749265
 20
39.7629982738
 30
0.0
 10
-6.8230820934
 20
39.7707656257
 30
0.0
 10
-5.6425080225
 20
39.7776019531
 30
0.0
 10
-4.3724704624
 20
39.7830314888
 30
0.0
 10
-3.033547663
 20
39.7870715152
 30
0.0
 10
-1.6466927893
 20
39.7896223269
 30
0.0
 10
-0.2338239038
 20
39.7906509075
 30
0.0
 10
1.1827903491
 20
39.7901376422
 30
0.0
 10
2.5808056419
 20
39.7880918133
 30
0.0
 10
3.9381754363
 20
39.7845467467
 30
0.0
 10
5.2334932523
 20
39.7795627451
 30
0.0
 10
6.4463308123
 20
39.7732194582
 30
0.0
 10
7.5575632251
 20
39.7656395159
 30
0.0
 10
8.5496599664
 20
39.7569124772
 30
0.0
 10
9.4069956772
 20
39.7473383735
 30
0.0
 10
10.1159965468
 20
39.7367234733
 30
0.0
 10
10.6656399126
 20
39.7264029277
 30
0.0
 10
11.0469400884
 20
39.7143327931
 30
0.0
 10
11.2444189008
 20
39.7068473393
 30
0.0
 10
11.3136102555
 20
39.6996634733
 30
0.0
 11
-11.3395693983
 21
39.6980912326
 31
0.0
 11
-11.1877109644
 21
39.7078782535
 31
0.0
 11
-10.8623386455
 21
39.719988159
 31
0.0
 11
-10.3656057311
 21
39.7316467066
 31
0.0
 11
-9.7053459961
 21
39.7426700338
 31
0.0
 11
-8.8919721309
 21
39.7528842963
 31
0.0
 11
-7.9383115272
 21
39.7621284091
 31
0.0
 11
-6.8594039825
 21
39.7702565869
 31
0.0
 11
-5.6722645133
 21
39.7771406435
 31
0.0
 11
-4.3956150181
 21
39.7826720132
 31
0.0
 11
-3.0495890221
 21
39.7867634631
 31
0.0
 11
-1.6554141594
 21
39.7893504686
 31
0.0
 11
-0.2350774003
 21
39.7903922309
 31
0.0
 11
1.1890216959
 21
39.7898723209
 31
0.0
 11
2.5944242359
 21
39.787798938
 31
0.0
 11
3.9589661819
 21
39.7842047805
 31
0.0
 11
5.2611278924
 21
39.7791465304
 31
0.0
 11
6.4803734993
 21
39.7727039595
 31
0.0
 11
7.5974747712
 21
39.7649786709
 31
0.0
 11
8.5948143534
 21
39.7560924971
 31
0.0
 11
9.4566636052
 21
39.7461855782
 31
0.0
 11
10.1694306489
 21
39.7354141523
 31
0.0
 11
10.7218747226
 21
39.7239480912
 31
0.0
 11
11.105283453
 21
39.7119682217
 31
0.0
 11
11.3136102555
 21
39.6996634733
 31
0.0
  0
SPLINE
  5
46E
100
AcDbEntity
  8
0
100
AcDbSpline
 62
7
  6
CONTINUOUS
 70
0
 71
3
 72
10
 73
6
 74
4
 42
0.0000001
 43
0.0000001
 44
0.0000000001
 12
-0.1924810723
 22
0.1825707544
 32
0.0
 13
0.4332342452
 23
0.0240763966
 33
0.0
 40
0.0
 40
0.0
 40
0.0
 40
0.0
 40
0.2721319345
 40
0.8995868663
 40
1.0
 40
1.0
 40
1.0
 40
1.0
 10
-11.840939711
 20
39.6972216706
 30
0.0
 10
-11.8583997932
 20
39.7137827815
 30
0.0
 10
-11.5646950123
 20
39.6992129872
 30
0.0
 10
-11.463657228
 20
39.7152238673
 30
0.0
 10
-11.3619342362
 20
39.7216943515
 30
0.0
 10
-11.3474334334
 20
39.7225002136
 30
0.0
 11
-11.840939711
 21
39.6972216706
 31
0.0
 11
-11.6992634455
 21
39.7076191748
 31
0.0
 11
-11.3894643268
 21
39.7198104315
 31
0.0
 11
-11.3474334334
 21
39.7225002136
 31
0.0
  0
SPLINE
  5
46F
100
AcDbEntity
  8
0
100
AcDbSpline
 62
7
  6
CONTINUOUS
 70
0
 71
3
 72
29
 73
25
 74
23
 42
0.0000001
 43
0.0000001
 44
0.0000000001
 12
19.8985055767
 22
1.1058320453
 32
0.0
 13
22.6809466388
 23
-0.6910269535
 33
0.0
 40
0.0
 40
0.0
 40
0.0
 40
0.0
 40
0.0187910248
 40
0.0467806987
 40
0.0813755092
 40
0.1220714265
 40
0.1682752794
 40
0.2193134925
 40
0.2744419474
 40
0.3328568526
 40
0.3937064759
 40
0.456103571
 40
0.5191383202
 40
0.5818916055
 40
0.6434484137
 40
0.7029111836
 40
0.7594128982
 40
0.8121297331
 40
0.8602930792
 40
0.9032007658
 40
0.9402273291
 40
0.9708331954
 40
0.9945727076
 40
1.0
 40
1.0
 40
1.0
 40
1.0
 10
-11.3474334334
 20
39.7225002136
 30
0.0
 10
-11.2227956631
 20
39.7294267861
 30
0.0
 10
-10.8265065801
 20
39.7307110212
 30
0.0
 10
-10.2352651505
 20
39.7451106306
 30
0.0
 10
-9.4448240697
 20
39.7537752981
 30
0.0
 10
-8.5289069448
 20
39.7636153789
 30
0.0
 10
-7.4844147762
 20
39.7717943278
 30
0.0
 10
-6.3320691488
 20
39.7790629743
 30
0.0
 10
-5.0869242764
 20
39.7850220137
 30
0.0
 10
-3.7676737895
 20
39.7896649423
 30
0.0
 10
-2.3933954616
 20
39.792894261
 30
0.0
 10
-0.9841755151
 20
39.7946680018
 30
0.0
 10
0.4394495968
 20
39.7949570225
 30
0.0
 10
1.856716672
 20
39.7937574837
 30
0.0
 10
3.2469598266
 20
39.7910875854
 30
0.0
 10
4.5899059697
 20
39.7869878352
 30
0.0
 10
5.8659722783
 20
39.7815224147
 30
0.0
 10
7.0565504485
 20
39.7747724863
 30
0.0
 10
8.1442813436
 20
39.7668578703
 30
0.0
 10
9.1132981215
 20
39.7578677103
 30
0.0
 10
9.9494895548
 20
39.7480829286
 30
0.0
 10
10.6406131449
 20
39.7373362539
 30
0.0
 10
11.0927639066
 20
39.7284961804
 30
0.0
 10
11.3132743621
 20
39.7221445706
 30
0.0
 10
11.3543064048
 20
39.7208944355
 30
0.0
 11
-11.3474334334
 21
39.7225002136
 31
0.0
 11
-10.9135302916
 21
39.7315869325
 31
0.0
 11
-10.2784015298
 21
39.74277695
 31
0.0
 11
-9.493339649
 21
39.7532173083
 31
0.0
 11
-8.5697926191
 21
39.7627557634
 31
0.0
 11
-7.5212278355
 21
39.7712532233
 31
0.0
 11
-6.362935734
 21
39.7785857757
 31
0.0
 11
-5.1118068215
 21
39.7846464957
 31
0.0
 11
-3.7860853751
 21
39.7893470041
 31
0.0
 11
-2.4051033985
 21
39.7926187571
 31
0.0
 11
-0.9889987187
 21
39.7944140452
 31
0.0
 11
0.4415786692
 21
39.7947066889
 31
0.0
 11
1.8657677256
 21
39.7934924208
 31
0.0
 11
3.2628005671
 21
39.7907889478
 31
0.0
 11
4.6123053088
 21
39.7866356926
 31
0.0
 11
5.894603133
 21
39.7810932189
 31
0.0
 11
7.0909952498
 21
39.7742423485
 31
0.0
 11
8.1840355682
 21
39.7661829826
 31
0.0
 11
9.1577850989
 21
39.7570326448
 31
0.0
 11
9.9980443812
 21
39.7469247676
 31
0.0
 11
10.6925605425
 21
39.7360067468
 31
0.0
 11
11.2312059734
 21
39.7244377915
 31
0.0
 11
11.3543064048
 21
39.7208944355
 31
0.0
  0
LINE
  5
470
100
AcDbEntity
  8
0
100
AcDbLine
 62
7
  6
CONTINUOUS
 10
11.3543064048
 20
39.7208944355
 11
11.3745674329
 21
39.7202716014
  0
SPLINE
  5
471
100
AcDbEntity
  8
0
100
AcDbSpline
 62
7
  6
CONTINUOUS
 70
0
 71
3
 72
9
 73
5
 74
3
 42
0.0000001
 43
0.0000001
 44
0.0000000001
 12
0.4374944466
 22
-0.013568089
 32
0.0
 13
0.4354249899
 23
-0.045208463
 33
0.0
 40
0.0
 40
0.0
 40
0.0
 40
0.0
 40
0.5292040314
 40
1.0
 40
1.0
 40
1.0
 40
1.0
 10
11.3745674329
 20
39.7202716014
 30
0.0
 10
11.4517420412
 20
39.7178781722
 30
0.0
 10
11.597577869
 20
39.7129018591
 30
0.0
 10
11.7435213656
 20
39.7071235695
 30
0.0
 10
11.8118534756
 20
39.7000289155
 30
0.0
 11
11.3745674329
 21
39.7202716014
 31
0.0
 11
11.6061260106
 21
39.7123866033
 31
0.0
 11
11.8118534756
 21
39.7000289155
 31
0.0
  0
SPLINE
  5
472
100
AcDbEntity
  8
0
100
AcDbSpline
 62
7
  6
CONTINUOUS
 70
0
 71
3
 72
29
 73
25
 74
23
 42
0.0000001
 43
0.0000001
 44
0.0000000001
 12
-8.5913053892
 22
10.6208979985
 32
0.0
 13
18.7497057197
 23
-1.946708153
 33
0.0
 40
0.0
 40
0.0
 40
0.0
 40
0.0
 40
0.008027683
 40
0.0254700226
 40
0.051755487
 40
0.086396358
 40
0.1287481368
 40
0.178022314
 40
0.2333012705
 40
0.2935554509
 40
0.3576625773
 40
0.4244285742
 40
0.4926098223
 40
0.5609363327
 40
0.6281354097
 40
0.6929553645
 40
0.754188839
 40
0.8106953062
 40
0.8614223321
 40
0.9054252113
 40
0.9418846301
 40
0.9701220953
 40
0.9896131242
 40
1.0
 40
1.0
 40
1.0
 40
1.0
 10
-9.435941864
 20
40.998498241
 30
0.0
 10
-9.4589312893
 20
41.0269186416
 30
0.0
 10
-9.1357510932
 20
40.9846006543
 30
0.0
 10
-8.93795943
 20
41.0335243647
 30
0.0
 10
-8.3824779539
 20
41.0237710737
 30
0.0
 10
-7.7591978204
 20
41.0410029725
 30
0.0
 10
-6.9565578114
 20
41.0467149881
 30
0.0
 10
-6.0366413732
 20
41.0553078975
 30
0.0
 10
-5.000096038
 20
41.0614992101
 30
0.0
 10
-3.8716437937
 20
41.0668309046
 30
0.0
 10
-2.670611608
 20
41.070671483
 30
0.0
 10
-1.4198815628
 20
41.073101627
 30
0.0
 10
-0.1426042153
 20
41.0740275471
 30
0.0
 10
1.137385557
 20
41.0734440193
 30
0.0
 10
2.3962554547
 20
41.0713586218
 30
0.0
 10
3.6105523703
 20
41.0678147558
 30
0.0
 10
4.7576565972
 20
41.0628781935
 30
0.0
 10
5.8162019113
 20
41.056663964
 30
0.0
 10
6.7664635094
 20
41.0492524554
 30
0.0
 10
7.5907614744
 20
41.0409568598
 30
0.0
 10
8.2736834903
 20
41.0315414472
 30
0.0
 10
8.8026758664
 20
41.0224595391
 30
0.0
 10
9.1675418503
 20
41.0114035103
 30
0.0
 10
9.3553690641
 20
41.0049653648
 30
0.0
 10
9.4202860193
 20
40.9982252928
 30
0.0
 11
-9.435941864
 21
40.998498241
 31
0.0
 11
-9.2776454486
 21
41.0068385245
 31
0.0
 11
-8.9490289118
 21
41.0177223993
 31
0.0
 11
-8.4536439022
 21
41.0281144182
 31
0.0
 11
-7.8007185052
 21
41.0378209976
 31
0.0
 11
-7.0024154855
 21
41.0466613221
 31
0.0
 11
-6.0736057179
 21
41.0544707135
 31
0.0
 11
-5.0315911711
 21
41.0611036973
 31
0.0
 11
-3.8957826044
 21
41.0664367137
 31
0.0
 11
-2.6873379825
 21
41.0703704188
 31
0.0
 11
-1.4287683421
 21
41.0728315349
 31
0.0
 11
-0.1435184544
 21
41.0737742163
 31
0.0
 11
1.144469907
 21
41.0731809024
 31
0.0
 11
2.4112039559
 21
41.0710626456
 31
0.0
 11
3.6330868337
 21
41.0674589051
 31
0.0
 11
4.7873571743
 21
41.0624368117
 31
0.0
 11
5.8525131052
 21
41.0560899175
 31
0.0
 11
6.8087127869
 21
41.0485364531
 31
0.0
 11
7.6381440283
 21
41.0399171253
 31
0.0
 11
8.3253560948
 21
41.0303924958
 31
0.0
 11
8.857547526
 21
41.0201399905
 31
0.0
 11
9.2248046023
 21
41.0093505942
 31
0.0
 11
9.4202860193
 21
40.9982252928
 31
0.0
  0
SPLINE
  5
473
100
AcDbEntity
  8
RACCORDO
100
AcDbSpline
 62
253
  6
CONTINUOUS
 70
0
 71
3
 72
29
 73
25
 74
23
 42
0.0000001
 43
0.0000001
 44
0.0000000001
 12
-11.7887385036
 22
15.2583743639
 32
0.0
 13
27.7761028096
 23
-2.8838834383
 33
0.0
 40
0.0
 40
0.0
 40
0.0
 40
0.0
 40
0.0079175985
 40
0.0253161311
 40
0.0515967456
 40
0.0861976157
 40
0.1285910673
 40
0.1778228278
 40
0.2331868816
 40
0.293393879
 40
0.3576181514
 40
0.4243335082
 40
0.4926464036
 40
0.5609222977
 40
0.6282471671
 40
0.6930202064
 40
0.7543542551
 40
0.8108193347
 40
0.8616070159
 40
0.9055723277
 40
0.9420451927
 40
0.9702430865
 40
0.9896514316
 40
1.0
 40
1.0
 40
1.0
 40
1.0
 10
-13.9817780927
 20
37.7254334815
 30
0.0
 10
-14.0128909256
 20
37.7657033755
 30
0.0
 10
-13.5377821672
 20
37.7047272868
 30
0.0
 10
-13.2459373472
 20
37.7762542673
 30
0.0
 10
-12.4237111323
 20
37.7621815494
 30
0.0
 10
-11.500477087
 20
37.7875780746
 30
0.0
 10
-10.3117705159
 20
37.7960949014
 30
0.0
 10
-8.9482191221
 20
37.8088229558
 30
0.0
 10
-7.4127013125
 20
37.8180051477
 30
0.0
 10
-5.7395527501
 20
37.8259132283
 30
0.0
 10
-3.9601447725
 20
37.8316062605
 30
0.0
 10
-2.1054496407
 20
37.8352112695
 30
0.0
 10
-0.212988368
 20
37.8365833091
 30
0.0
 10
1.6851333928
 20
37.8357168943
 30
0.0
 10
3.5503057116
 20
37.8326249357
 30
0.0
 10
5.3508542586
 20
37.8273662706
 30
0.0
 10
7.0503063322
 20
37.8200477383
 30
0.0
 10
8.6195671413
 20
37.810827815
 30
0.0
 10
10.0271289093
 20
37.7998406845
 30
0.0
 10
11.2485965087
 20
37.7875344648
 30
0.0
 10
12.2596947341
 20
37.7735787353
 30
0.0
 10
13.0423386955
 20
37.760115571
 30
0.0
 10
13.5813635772
 20
37.7437617042
 30
0.0
 10
13.8584850222
 20
37.7342312838
 30
0.0
 10
13.9542993219
 20
37.7242832622
 30
0.0
 11
-13.9817780927
 21
37.7254334815
 31
0.0
 11
-13.7481763898
 21
37.7369598413
 31
0.0
 11
-13.2625829549
 21
37.7530881842
 31
0.0
 11
-12.5288479299
 21
37.7685065139
 31
0.0
 11
-11.5627113738
 21
37.7828871566
 31
0.0
 11
-10.3789294629
 21
37.7960085144
 31
0.0
 11
-9.0041609056
 21
37.8075764817
 31
0.0
 11
-7.4581282204
 21
37.8174241491
 31
0.0
 11
-5.7768415271
 21
37.8253228585
 31
0.0
 11
-3.9833617314
 21
37.8311637888
 31
0.0
 11
-2.1203114275
 21
37.8348084346
 31
0.0
 11
-0.2126461473
 21
37.8362078169
 31
0.0
 11
1.6939861654
 21
37.8353284449
 31
0.0
 11
3.5740582918
 21
37.8321822066
 31
0.0
 11
5.3828642632
 21
37.8268436127
 31
0.0
 11
7.0956266479
 21
37.8193861968
 31
0.0
 11
8.6724092569
 21
37.8099831844
 31
0.0
 11
10.0906318852
 21
37.7987700162
 31
0.0
 11
11.318314928
 21
37.7859983615
 31
0.0
 11
12.3367366596
 21
37.7718644262
 31
0.0
 11
13.1240278606
 21
37.7566695254
 31
0.0
 11
13.6657792637
 21
37.7407229837
 31
0.0
 11
13.9542993219
 21
37.7242832622
 31
0.0
  0
SPLINE
  5
474
100
AcDbEntity
  8
0
100
AcDbSpline
 62
7
  6
CONTINUOUS
 70
0
 71
3
 72
29
 73
25
 74
23
 42
0.0000001
 43
0.0000001
 44
0.0000000001
 12
-7.9804030539
 22
10.4161477992
 32
0.0
 13
18.7487171809
 23
-1.9466055169
 33
0.0
 40
0.0
 40
0.0
 40
0.0
 40
0.0
 40
0.0079753805
 40
0.0254186399
 40
0.0517054902
 40
0.0863481877
 40
0.1287021995
 40
0.1779789746
 40
0.2332608458
 40
0.2935182031
 40
0.3576287096
 40
0.4243982268
 40
0.4925830699
 40
0.5609131828
 40
0.6281158029
 40
0.6929391754
 40
0.7541758785
 40
0.810685325
 40
0.8614150255
 40
0.9054202248
 40
0.941881566
 40
0.97012052
 40
0.9896125765
 40
1.0
 40
1.0
 40
1.0
 40
1.0
 10
-9.4363787085
 20
41.4990337772
 30
0.0
 10
-9.4575942922
 20
41.5267246913
 30
0.0
 10
-9.1355496044
 20
41.484631454
 30
0.0
 10
-8.93795943
 20
41.5335053262
 30
0.0
 10
-8.3824779539
 20
41.5237520352
 30
0.0
 10
-7.7591978204
 20
41.5409839341
 30
0.0
 10
-6.9565578114
 20
41.5466959497
 30
0.0
 10
-6.0366413732
 20
41.5552888591
 30
0.0
 10
-5.000096038
 20
41.5614801717
 30
0.0
 10
-3.8716437937
 20
41.5668118661
 30
0.0
 10
-2.670611608
 20
41.5706524445
 30
0.0
 10
-1.4198815628
 20
41.5730825886
 30
0.0
 10
-0.1426042153
 20
41.5740085087
 30
0.0
 10
1.137385557
 20
41.5734249809
 30
0.0
 10
2.3962554547
 20
41.5713395833
 30
0.0
 10
3.6105523703
 20
41.5677957173
 30
0.0
 10
4.7576565972
 20
41.562859155
 30
0.0
 10
5.8162019113
 20
41.5566449256
 30
0.0
 10
6.7664635094
 20
41.5492334169
 30
0.0
 10
7.5907614744
 20
41.5409378214
 30
0.0
 10
8.2736834903
 20
41.5315224087
 30
0.0
 10
8.8026758664
 20
41.5224405006
 30
0.0
 10
9.1675418503
 20
41.5113844719
 30
0.0
 10
9.3553690641
 20
41.5049463263
 30
0.0
 10
9.4202860193
 20
41.4982062543
 30
0.0
 11
-9.4363787085
 21
41.4990337772
 31
0.0
 11
-9.2776454486
 21
41.506819486
 31
0.0
 11
-8.9490289118
 21
41.5177033608
 31
0.0
 11
-8.4536439022
 21
41.5280953797
 31
0.0
 11
-7.8007185052
 21
41.5378019591
 31
0.0
 11
-7.0024154855
 21
41.5466422837
 31
0.0
 11
-6.0736057179
 21
41.554451675
 31
0.0
 11
-5.0315911711
 21
41.5610846588
 31
0.0
 11
-3.8957826044
 21
41.5664176753
 31
0.0
 11
-2.6873379825
 21
41.5703513803
 31
0.0
 11
-1.4287683421
 21
41.5728124965
 31
0.0
 11
-0.1435184544
 21
41.5737551778
 31
0.0
 11
1.144469907
 21
41.5731618639
 31
0.0
 11
2.4112039559
 21
41.5710436072
 31
0.0
 11
3.6330868337
 21
41.5674398666
 31
0.0
 11
4.7873571743
 21
41.5624177732
 31
0.0
 11
5.8525131052
 21
41.556070879
 31
0.0
 11
6.8087127869
 21
41.5485174146
 31
0.0
 11
7.6381440283
 21
41.5398980868
 31
0.0
 11
8.3253560948
 21
41.5303734573
 31
0.0
 11
8.857547526
 21
41.520120952
 31
0.0
 11
9.2248046023
 21
41.5093315557
 31
0.0
 11
9.4202860193
 21
41.4982062543
 31
0.0
  0
SPLINE
  5
475
100
AcDbEntity
  8
0
100
AcDbSpline
 62
7
  6
CONTINUOUS
 70
0
 71
3
 72
10
 73
6
 74
4
 42
0.0000001
 43
0.0000001
 44
0.0000000001
 12
-0.2085404771
 22
0.2721903163
 32
0.0
 13
0.4456446391
 23
0.0262209084
 33
0.0
 40
0.0
 40
0.0
 40
0.0
 40
0.0
 40
0.2696749113
 40
0.8594912086
 40
1.0
 40
1.0
 40
1.0
 40
1.0
 10
-8.33755811
 20
43.2980649404
 30
0.0
 10
-8.3563041549
 20
43.3225325735
 30
0.0
 10
-8.0717461504
 20
43.2853390781
 30
0.0
 10
-7.9718855388
 20
43.3100395714
 30
0.0
 10
-7.8681673148
 20
43.3179961095
 30
0.0
 10
-7.8472949849
 20
43.3192241988
 30
0.0
 11
-8.33755811
 21
43.2980649404
 31
0.0
 11
-8.1973017375
 21
43.3049443763
 31
0.0
 11
-7.9069368612
 21
43.314561345
 31
0.0
 11
-7.8472949849
 21
43.3192241988
 31
0.0
  0
SPLINE
  5
476
100
AcDbEntity
  8
0
100
AcDbSpline
 62
7
  6
CONTINUOUS
 70
0
 71
3
 72
14
 73
10
 74
8
 42
0.0000001
 43
0.0000001
 44
0.0000000001
 12
4.0178284221
 22
0.236401612
 32
0.0
 13
4.4404436548
 23
0.0174023579
 33
0.0
 40
0.0
 40
0.0
 40
0.0
 40
0.0
 40
0.0830034258
 40
0.2129300431
 40
0.3717777623
 40
0.5565891417
 40
0.7639224916
 40
0.9899162847
 40
1.0
 40
1.0
 40
1.0
 40
1.0
 10
-7.8472949849
 20
43.3192241988
 30
0.0
 10
-7.7361304772
 20
43.3257649134
 30
0.0
 10
-7.3841761152
 20
43.3205185324
 30
0.0
 10
-6.8556046269
 20
43.3351320102
 30
0.0
 10
-6.1463936137
 20
43.3401791351
 30
0.0
 10
-5.3335573958
 20
43.3477718117
 30
0.0
 10
-4.4176681313
 20
43.3532424424
 30
0.0
 10
-3.7614757792
 20
43.3563428103
 30
0.0
 10
-3.4120486666
 20
43.3577236649
 30
0.0
 10
-3.3971232766
 20
43.3577821584
 30
0.0
 11
-7.8472949849
 21
43.3192241988
 31
0.0
 11
-7.4692157151
 21
43.3237437109
 31
0.0
 11
-6.8922922161
 21
43.3323204239
 31
0.0
 11
-6.1869133575
 21
43.340131716
 31
0.0
 11
-5.3662190126
 21
43.3470320776
 31
0.0
 11
-4.4454971643
 21
43.3528929681
 31
0.0
 11
-3.4418991186
 21
43.3576052101
 31
0.0
 11
-3.3971232766
 21
43.3577821584
 31
0.0
  0
SPLINE
  5
477
100
AcDbEntity
  8
0
100
AcDbSpline
 62
7
  6
CONTINUOUS
 70
0
 71
3
 72
13
 73
9
 74
7
 42
0.0000001
 43
0.0000001
 44
0.0000000001
 12
4.4202516077
 22
-0.017216431
 32
0.0
 13
4.4181163408
 23
-0.1101689103
 33
0.0
 40
0.0
 40
0.0
 40
0.0
 40
0.0
 40
0.186333145
 40
0.3992574543
 40
0.5904040166
 40
0.7562130492
 40
0.893597263
 40
1.0
 40
1.0
 40
1.0
 40
1.0
 10
3.4068673644
 20
43.3577700534
 30
0.0
 10
3.6814138256
 20
43.3567007228
 30
0.0
 10
4.2696853512
 20
43.3540768357
 30
0.0
 10
5.139589845
 20
43.3489700292
 30
0.0
 10
5.979238982
 20
43.3424212358
 30
0.0
 10
6.7075869193
 20
43.3350912651
 30
0.0
 10
7.3110153672
 20
43.3267718265
 30
0.0
 10
7.670216503
 20
43.320604948
 30
0.0
 10
7.8269163934
 20
43.3166975235
 30
0.0
 11
3.4068673644
 21
43.3577700534
 31
0.0
 11
4.2305048128
 21
43.3540709051
 31
0.0
 11
5.1716743391
 21
43.3484628028
 31
0.0
 11
6.0165703541
 21
43.3417885777
 31
0.0
 11
6.7494540436
 21
43.3341725579
 31
0.0
 11
7.3566731712
 21
43.3257566154
 31
0.0
 11
7.8269163934
 21
43.3166975235
 31
0.0
  0
SPLINE
  5
478
100
AcDbEntity
  8
0
100
AcDbSpline
 62
7
  6
CONTINUOUS
 70
0
 71
3
 72
9
 73
5
 74
3
 42
0.0000001
 43
0.0000001
 44
0.0000000001
 12
0.497409845
 22
-0.0124032724
 32
0.0
 13
0.4949932315
 23
-0.0513931991
 33
0.0
 40
0.0
 40
0.0
 40
0.0
 40
0.0
 40
0.6523559483
 40
1.0
 40
1.0
 40
1.0
 40
1.0
 10
7.8269163934
 20
43.3166975235
 30
0.0
 10
7.9350791505
 20
43.3140004073
 30
0.0
 10
8.1008267223
 20
43.3089779881
 30
0.0
 10
8.2667904509
 20
43.3032892563
 30
0.0
 10
8.3241509351
 20
43.297333743
 30
0.0
 11
7.8269163934
 21
43.3166975235
 31
0.0
 11
8.1514239688
 21
43.3071640357
 31
0.0
 11
8.3241509351
 21
43.297333743
 31
0.0
  0
SPLINE
  5
479
100
AcDbEntity
  8
RACCORDO
100
AcDbSpline
 62
253
  6
CONTINUOUS
 70
0
 71
3
 72
29
 73
25
 74
23
 42
0.0000001
 43
0.0000001
 44
0.0000000001
 12
-12.0789362041
 22
14.7522566062
 32
0.0
 13
26.3070643203
 23
-2.7313589536
 33
0.0
 40
0.0
 40
0.0
 40
0.0
 40
0.0
 40
0.0079730617
 40
0.0253705915
 40
0.0516497449
 40
0.0862486791
 40
0.1286397606
 40
0.1778687703
 40
0.2332297294
 40
0.2934333628
 40
0.3576540461
 40
0.4243656751
 40
0.4926747534
 40
0.5609468324
 40
0.6282679397
 40
0.6930373597
 40
0.7543679805
 40
0.810829905
 40
0.8616147474
 40
0.9055776004
 40
0.9420484337
 40
0.9702447248
 40
0.9896520512
 40
1.0
 40
1.0
 40
1.0
 40
1.0
 10
-13.2407295167
 20
38.6899041837
 30
0.0
 10
-13.2728315511
 20
38.7291110675
 30
0.0
 10
-12.8211856309
 20
38.6710393494
 30
0.0
 10
-12.5444929261
 20
38.738848673
 30
0.0
 10
-11.7657963656
 20
38.7255231644
 30
0.0
 10
-10.8914398712
 20
38.7495742559
 30
0.0
 10
-9.7656651678
 20
38.757640503
 30
0.0
 10
-8.4743022689
 20
38.7696946179
 30
0.0
 10
-7.0200770697
 20
38.7783907042
 30
0.0
 10
-5.4355075109
 20
38.7858801229
 30
0.0
 10
-3.7503040557
 20
38.7912717461
 30
0.0
 10
-1.993799264
 20
38.7946859063
 30
0.0
 10
-0.2015277233
 20
38.795985306
 30
0.0
 10
1.5961046288
 20
38.7951647574
 30
0.0
 10
3.3625319327
 20
38.7922365014
 30
0.0
 10
5.0677567372
 20
38.7872562279
 30
0.0
 10
6.6772372694
 20
38.7803251635
 30
0.0
 10
8.1634190481
 20
38.7715933604
 30
0.0
 10
9.4964623616
 20
38.7611878696
 30
0.0
 10
10.6532636698
 20
38.7495333056
 30
0.0
 10
11.6108326308
 20
38.7363160576
 30
0.0
 10
12.3520426675
 20
38.7235663723
 30
0.0
 10
12.8625307061
 20
38.7080773305
 30
0.0
 10
13.1249811655
 20
38.6990519122
 30
0.0
 10
13.2157225506
 20
38.6896305913
 30
0.0
 11
-13.2407295167
 21
38.6899041837
 31
0.0
 11
-13.020141895
 21
38.7016362269
 31
0.0
 11
-12.5602573068
 21
38.7169105212
 31
0.0
 11
-11.8653671161
 21
38.7315126308
 31
0.0
 11
-10.9503793415
 21
38.7451319252
 31
0.0
 11
-9.82926865
 21
38.7575586106
 31
0.0
 11
-8.5272823933
 21
38.7685141554
 31
0.0
 11
-7.0630990227
 21
38.7778404625
 31
0.0
 11
-5.4708221583
 21
38.7853210057
 31
0.0
 11
-3.7722918784
 21
38.7908527025
 31
0.0
 11
-2.0078742448
 21
38.7943043968
 31
0.0
 11
-0.2012036206
 21
38.7956296928
 31
0.0
 11
1.604488724
 21
38.7947968753
 31
0.0
 11
3.3850270134
 21
38.7918172078
 31
0.0
 11
5.0980720918
 21
38.7867612444
 31
0.0
 11
6.7201582523
 21
38.7796986437
 31
0.0
 11
8.2134636324
 21
38.7707934382
 31
0.0
 11
9.5566034056
 21
38.7601739192
 31
0.0
 11
10.7192910151
 21
38.748078429
 31
0.0
 11
11.6837961414
 21
38.7346927203
 31
0.0
 11
12.4294062566
 21
38.7203024359
 31
0.0
 11
12.9424782552
 21
38.7051997071
 31
0.0
 11
13.2157225506
 21
38.6896305913
 31
0.0
  0
SPLINE
  5
47A
100
AcDbEntity
  8
0
100
AcDbSpline
 62
7
  6
CONTINUOUS
 70
0
 71
3
 72
10
 73
6
 74
4
 42
0.0000001
 43
0.0000001
 44
0.0000000001
 12
-0.2549729346
 22
0.2905058201
 32
0.0
 13
0.6064146038
 23
0.0177600952
 33
0.0
 40
0.0
 40
0.0
 40
0.0
 40
0.0
 40
0.2304808441
 40
0.7446660324
 40
1.0
 40
1.0
 40
1.0
 40
1.0
 10
-10.0883917852
 20
41.4983991217
 30
0.0
 10
-10.1079805776
 20
41.5207177973
 30
0.0
 10
-9.7983135588
 20
41.4907115994
 30
0.0
 10
-9.6730984853
 20
41.5171043776
 30
0.0
 10
-9.5273360096
 20
41.5243197486
 30
0.0
 10
-9.4757232607
 20
41.5258313338
 30
0.0
 11
-10.0883917852
 21
41.4983991217
 31
0.0
 11
-9.9370235928
 21
41.5069006412
 31
0.0
 11
-9.6186272277
 21
41.5180898265
 31
0.0
 11
-9.4757232607
 21
41.5258313338
 31
0.0
  0
SPLINE
  5
47B
100
AcDbEntity
  8
0
100
AcDbSpline
 62
7
  6
CONTINUOUS
 70
0
 71
3
 72
26
 73
22
 74
20
 42
0.0000001
 43
0.0000001
 44
0.0000000001
 12
18.8808742324
 22
0.433163059
 32
0.0
 13
18.8787549567
 23
-0.4570241344
 33
0.0
 40
0.0
 40
0.0
 40
0.0
 40
0.0
 40
0.0156840187
 40
0.0495433763
 40
0.0911017212
 40
0.1396484293
 40
0.1943531322
 40
0.2542800107
 40
0.3184038458
 40
0.3856275802
 40
0.4548011004
 40
0.5247409229
 40
0.5942504497
 40
0.6621404468
 40
0.7272493977
 40
0.7884633841
 40
0.844735155
 40
0.8951020623
 40
0.9387025636
 40
0.9747910307
 40
1.0
 40
1.0
 40
1.0
 40
1.0
 10
-9.4472974729
 20
41.5265708561
 30
0.0
 10
-9.3485881449
 20
41.5288354353
 30
0.0
 10
-9.0052289019
 20
41.5273401091
 30
0.0
 10
-8.454603654
 20
41.541690041
 30
0.0
 10
-7.6649977036
 20
41.548430325
 30
0.0
 10
-6.7565134132
 20
41.557310653
 30
0.0
 10
-5.7282416434
 20
41.5641107074
 30
0.0
 10
-4.603210389
 20
41.570032348
 30
0.0
 10
-3.3989572587
 20
41.5745447063
 30
0.0
 10
-2.1366058475
 20
41.5776923595
 30
0.0
 10
-0.8376030963
 20
41.5793809151
 30
0.0
 10
0.4757814719
 20
41.5795905528
 30
0.0
 10
1.7810875952
 20
41.5783146508
 30
0.0
 10
3.0559779263
 20
41.5755766271
 30
0.0
 10
4.2786398851
 20
41.5714270376
 30
0.0
 10
5.4281527542
 20
41.5659374795
 30
0.0
 10
6.48485037
 20
41.5592240798
 30
0.0
 10
7.4306465424
 20
41.5513699521
 30
0.0
 10
8.249379014
 20
41.5426736354
 30
0.0
 10
8.9096708923
 20
41.5331758126
 30
0.0
 10
9.2955574082
 20
41.5262960706
 30
0.0
 10
9.4541953927
 20
41.5224557014
 30
0.0
 11
-9.4472974729
 21
41.5265708561
 31
0.0
 11
-9.1355937835
 21
41.5288206201
 31
0.0
 11
-8.4961880962
 21
41.5389094151
 31
0.0
 11
-7.7113505746
 21
41.5481835895
 31
0.0
 11
-6.7945100062
 21
41.5564844595
 31
0.0
 11
-5.7613537872
 21
41.5636699951
 31
0.0
 11
-4.6295595071
 21
41.5696172497
 31
0.0
 11
-3.4184924798
 21
41.5742244641
 31
0.0
 11
-2.1488743979
 21
41.5774128075
 31
0.0
 11
-0.8424287788
 21
41.5791277267
 31
0.0
 11
0.4784907308
 21
41.5793398787
 31
0.0
 11
1.7912828318
 21
41.5780456337
 31
0.0
 11
3.0734852874
 21
41.5752671365
 31
0.0
 11
4.3031592582
 21
41.571051928
 31
0.0
 11
5.4592646814
 21
41.5654721316
 31
0.0
 11
6.5220202729
 21
41.5586232191
 31
0.0
 11
7.4732419897
 21
41.5506223773
 31
0.0
 11
8.2966541646
 21
41.5416065029
 31
0.0
 11
8.978167987
 21
41.53172986
 31
0.0
 11
9.4541953927
 21
41.5224557014
 31
0.0
  0
SPLINE
  5
47C
100
AcDbEntity
  8
0
100
AcDbSpline
 62
7
  6
CONTINUOUS
 70
0
 71
3
 72
10
 73
6
 74
4
 42
0.0000001
 43
0.0000001
 44
0.0000000001
 12
0.6140763512
 22
-0.0148657956
 32
0.0
 13
0.6110441195
 23
-0.0634423061
 33
0.0
 40
0.0
 40
0.0
 40
0.0
 40
0.0
 40
0.0845650825
 40
0.6795719446
 40
1.0
 40
1.0
 40
1.0
 40
1.0
 10
9.4541953927
 20
41.5224557014
 30
0.0
 10
9.4715051984
 20
41.522036659
 30
0.0
 10
9.6106024439
 20
41.5185724659
 30
0.0
 10
9.8152094311
 20
41.5122339036
 30
0.0
 10
10.002736979
 20
41.5054575608
 30
0.0
 10
10.0680022054
 20
41.4986813292
 30
0.0
 11
9.4541953927
 21
41.5224557014
 31
0.0
 11
9.5061225664
 21
41.5211614406
 31
0.0
 11
9.8714844536
 21
41.5100820733
 31
0.0
 11
10.0680022054
 21
41.4986813292
 31
0.0
  0
SPLINE
  5
47D
100
AcDbEntity
  8
RACCORDO
100
AcDbSpline
 62
253
  6
CONTINUOUS
 70
0
 71
3
 72
8
 73
4
 74
2
 42
0.0000001
 43
0.0000001
 44
0.0000000001
 12
0.0221228446
 22
-0.0022969279
 32
0.0
 13
0.0169698193
 23
-0.0087057094
 33
0.0
 40
0.0
 40
0.0
 40
0.0
 40
0.0
 40
1.0
 40
1.0
 40
1.0
 40
1.0
 10
8.1025779037
 20
44.0270424846
 30
0.0
 10
8.1099521853
 20
44.026276842
 30
0.0
 10
8.1189344154
 20
44.0230981242
 30
0.0
 10
8.1245910219
 20
44.020196221
 30
0.0
 11
8.1025779037
 21
44.0270424846
 31
0.0
 11
8.1245910219
 21
44.020196221
 31
0.0
  0
SPLINE
  5
47E
100
AcDbEntity
  8
0
100
AcDbSpline
 62
7
  6
CONTINUOUS
 70
0
 71
3
 72
28
 73
24
 74
22
 42
0.0000001
 43
0.0000001
 44
0.0000000001
 12
-6.8383625756
 22
10.7038110609
 32
0.0
 13
15.5723168594
 23
-1.6168123727
 33
0.0
 40
0.0
 40
0.0
 40
0.0
 40
0.0
 40
0.0090580358
 40
0.0283661078
 40
0.0572777202
 40
0.0952062046
 40
0.1413802361
 40
0.1948602717
 40
0.2545578832
 40
0.3192579931
 40
0.3876436451
 40
0.4583228323
 40
0.5298568461
 40
0.6007895716
 40
0.6696771375
 40
0.7351173168
 40
0.7957780822
 40
0.8504247399
 40
0.8979450954
 40
0.9373721618
 40
0.9679040167
 40
0.9889207004
 40
1.0
 40
1.0
 40
1.0
 40
1.0
 10
-7.8349525813
 20
42.7982046279
 30
0.0
 10
-7.855599959
 20
42.8305231291
 30
0.0
 10
-7.5593901177
 20
42.7778158895
 30
0.0
 10
-7.374598857
 20
42.8320864166
 30
0.0
 10
-6.8690650753
 20
42.8178969555
 30
0.0
 10
-6.3019030829
 20
42.8349486526
 30
0.0
 10
-5.575802176
 20
42.8389107736
 30
0.0
 10
-4.7469453302
 20
42.8463430877
 30
0.0
 10
-3.8178104656
 20
42.8512683873
 30
0.0
 10
-2.8120062654
 20
42.8554655412
 30
0.0
 10
-1.748550198
 20
42.8582541751
 30
0.0
 10
-0.6495254787
 20
42.8597484814
 30
0.0
 10
0.4628200629
 20
42.8598658259
 30
0.0
 10
1.5658075161
 20
42.8586173703
 30
0.0
 10
2.6369929244
 20
42.8560275503
 30
0.0
 10
3.6545671626
 20
42.8521495038
 30
0.0
 10
4.5978181584
 20
42.8470831103
 30
0.0
 10
5.4475380697
 20
42.8408966181
 30
0.0
 10
6.1864494106
 20
42.8338824742
 30
0.0
 10
6.7994557957
 20
42.8258036733
 30
0.0
 10
7.274236204
 20
42.8180497962
 30
0.0
 10
7.6007998563
 20
42.8083757974
 30
0.0
 10
7.7683975939
 20
42.8029583887
 30
0.0
 10
7.825907715
 20
42.7969873392
 30
0.0
 11
-7.8349525813
 21
42.7982046279
 31
0.0
 11
-7.6872974305
 21
42.8049766607
 31
0.0
 11
-7.3851563101
 21
42.814388249
 31
0.0
 11
-6.9326036751
 21
42.8233288072
 31
0.0
 11
-6.338852192
 21
42.8316163312
 31
0.0
 11
-5.6159889288
 21
42.8390821111
 31
0.0
 11
-4.778729297
 21
42.845574165
 31
0.0
 11
-3.8441174881
 21
42.8509603334
 31
0.0
 11
-2.8311795034
 21
42.8551309696
 31
0.0
 11
-1.7605358393
 21
42.8580011713
 31
0.0
 11
-0.6539817132
 21
42.8595125095
 31
0.0
 11
0.4659566238
 21
42.8596342178
 31
0.0
 11
1.576480457
 21
42.8583638185
 31
0.0
 11
2.6549827234
 21
42.8557271733
 31
0.0
 11
3.6795082272
 21
42.8517779566
 31
0.0
 11
4.6292005836
 21
42.8465965632
 31
0.0
 11
5.4847267948
 21
42.8402884713
 31
0.0
 11
6.2286708144
 21
42.8329820954
 31
0.0
 11
6.8458880874
 21
42.8248261723
 31
0.0
 11
7.3238138501
 21
42.815986733
 31
0.0
 11
7.6527189122
 21
42.8066437231
 31
0.0
 11
7.825907715
 21
42.7969873392
 31
0.0
  0
SPLINE
  5
47F
100
AcDbEntity
  8
0
100
AcDbSpline
 62
7
  6
CONTINUOUS
 70
0
 71
3
 72
15
 73
11
 74
9
 42
0.0000001
 43
0.0000001
 44
0.0000000001
 12
-1.8911410326
 22
3.0110334025
 32
0.0
 13
4.4318088338
 23
0.0186557663
 33
0.0
 40
0.0
 40
0.0
 40
0.0
 40
0.0
 40
0.0319311696
 40
0.1001368023
 40
0.2022668756
 40
0.3362489876
 40
0.4993584388
 40
0.6882762994
 40
0.8991577046
 40
1.0
 40
1.0
 40
1.0
 40
1.0
 10
-7.835079407
 20
43.2983857923
 30
0.0
 10
-7.8552081887
 20
43.3304343984
 30
0.0
 10
-7.5593295841
 20
43.2778146289
 30
0.0
 10
-7.374598857
 20
43.3320673781
 30
0.0
 10
-6.8690650753
 20
43.317877917
 30
0.0
 10
-6.3019030829
 20
43.3349296141
 30
0.0
 10
-5.575802176
 20
43.3388917352
 30
0.0
 10
-4.7469453302
 20
43.3463240493
 30
0.0
 10
-4.0066539695
 20
43.3502482984
 30
0.0
 10
-3.5460988808
 20
43.3523212746
 30
0.0
 10
-3.3971276223
 20
43.3529483714
 30
0.0
 11
-7.835079407
 21
43.2983857923
 31
0.0
 11
-7.6872974305
 21
43.3049576222
 31
0.0
 11
-7.3851563101
 21
43.3143692105
 31
0.0
 11
-6.9326036751
 21
43.3233097687
 31
0.0
 11
-6.338852192
 21
43.3315972928
 31
0.0
 11
-5.6159889288
 21
43.3390630726
 31
0.0
 11
-4.778729297
 21
43.3455551265
 31
0.0
 11
-3.8441174881
 21
43.350941295
 31
0.0
 11
-3.3971276223
 21
43.3529483714
 31
0.0
  0
LINE
  5
480
100
AcDbEntity
  8
0
100
AcDbLine
 62
7
  6
CONTINUOUS
 10
3.3455420626
 20
43.3532154838
 11
3.4068761907
 21
43.352960773
  0
SPLINE
  5
481
100
AcDbEntity
  8
0
100
AcDbSpline
 62
7
  6
CONTINUOUS
 70
0
 71
3
 72
15
 73
11
 74
9
 42
0.0000001
 43
0.0000001
 44
0.0000000001
 12
4.4196063347
 22
-0.0185582304
 32
0.0
 13
4.3960139684
 23
-0.4564208293
 33
0.0
 40
0.0
 40
0.0
 40
0.0
 40
0.0
 40
0.0616869957
 40
0.2765699935
 40
0.4701487845
 40
0.6384835618
 40
0.7781488984
 40
0.8863040871
 40
0.9607529993
 40
1.0
 40
1.0
 40
1.0
 40
1.0
 10
3.4068761907
 20
43.352960773
 30
0.0
 10
3.497753603
 20
43.3525791725
 30
0.0
 10
3.9051968049
 20
43.3507842824
 30
0.0
 10
4.5978181584
 20
43.3470640719
 30
0.0
 10
5.4475380697
 20
43.3408775796
 30
0.0
 10
6.1864494106
 20
43.3338634357
 30
0.0
 10
6.7994557957
 20
43.3257846349
 30
0.0
 10
7.274236204
 20
43.3180307578
 30
0.0
 10
7.6007998563
 20
43.3083567589
 30
0.0
 10
7.7683975939
 20
43.3029393503
 30
0.0
 10
7.825907715
 20
43.2969683007
 30
0.0
 11
3.4068761907
 21
43.352960773
 31
0.0
 11
3.6795082272
 21
43.3517589182
 31
0.0
 11
4.6292005836
 21
43.3465775248
 31
0.0
 11
5.4847267948
 21
43.3402694328
 31
0.0
 11
6.2286708144
 21
43.3329630569
 31
0.0
 11
6.8458880874
 21
43.3248071338
 31
0.0
 11
7.3238138501
 21
43.3159676945
 31
0.0
 11
7.6527189122
 21
43.3066246846
 31
0.0
 11
7.825907715
 21
43.2969683007
 31
0.0
  0
SPLINE
  5
482
100
AcDbEntity
  8
RACCORDO
100
AcDbSpline
 62
7
  6
CONTINUOUS
 70
0
 71
3
 72
14
 73
10
 74
8
 42
0.0000001
 43
0.0000001
 44
0.0000000001
 12
-0.6837423987
 22
0.0
 32
0.0
 13
-0.4838430569
 23
0.4831144419
 33
0.0
 40
0.0
 40
0.0
 40
0.0
 40
0.0
 40
0.0469537977
 40
0.1491986708
 40
0.287856984
 40
0.4504723938
 40
0.6282578692
 40
0.8138562184
 40
1.0
 40
1.0
 40
1.0
 40
1.0
 10
26.2988669832
 20
-28.7998295816
 30
0.0
 10
26.2881655491
 20
-28.7998295816
 30
0.0
 10
26.2628976381
 20
-28.7697253466
 30
0.0
 10
26.2124189174
 20
-28.733312053
 30
0.0
 10
26.1452725731
 20
-28.6679833561
 30
0.0
 10
26.0658191878
 20
-28.5939535046
 30
0.0
 10
25.9796226259
 20
-28.5103643816
 30
0.0
 10
25.890151513
 20
-28.4227990531
 30
0.0
 10
25.8300214588
 20
-28.3630915456
 30
0.0
 10
25.8
 20
-28.3331152959
 30
0.0
 11
26.2988669832
 21
-28.7998295816
 31
0.0
 11
26.2721728919
 21
-28.781993895
 31
0.0
 11
26.2191931401
 21
-28.7363821004
 31
0.0
 11
26.149294129
 21
-28.6723320143
 31
0.0
 11
26.068489075
 21
-28.5959572579
 31
0.0
 11
25.9809949149
 21
-28.5115684194
 31
0.0
 11
25.8903387751
 21
-28.4227683914
 31
0.0
 11
25.8
 21
-28.3331152959
 31
0.0
  0
SPLINE
  5
483
100
AcDbEntity
  8
RACCORDO
100
AcDbSpline
 62
7
  6
CONTINUOUS
 70
0
 71
3
 72
14
 73
10
 74
8
 42
0.0000001
 43
0.0000001
 44
0.0000000001
 12
-0.4838430569
 22
-0.4831144419
 32
0.0
 13
-0.6837423987
 23
-0.0
 33
0.0
 40
0.0
 40
0.0
 40
0.0
 40
0.0
 40
0.1861437816
 40
0.3717421308
 40
0.5495276062
 40
0.712143016
 40
0.8508013292
 40
0.9530462023
 40
1.0
 40
1.0
 40
1.0
 40
1.0
 10
-25.8
 20
-28.3331152959
 30
0.0
 10
-25.8300214588
 20
-28.3630915456
 30
0.0
 10
-25.890151513
 20
-28.4227990531
 30
0.0
 10
-25.9796226259
 20
-28.5103643816
 30
0.0
 10
-26.0658191878
 20
-28.5939535046
 30
0.0
 10
-26.1452725731
 20
-28.6679833561
 30
0.0
 10
-26.2124189174
 20
-28.733312053
 30
0.0
 10
-26.2628976381
 20
-28.7697253466
 30
0.0
 10
-26.2881655491
 20
-28.7998295816
 30
0.0
 10
-26.2988669832
 20
-28.7998295816
 30
0.0
 11
-25.8
 21
-28.3331152959
 31
0.0
 11
-25.8903387751
 21
-28.4227683913
 31
0.0
 11
-25.9809949149
 21
-28.5115684194
 31
0.0
 11
-26.068489075
 21
-28.5959572579
 31
0.0
 11
-26.149294129
 21
-28.6723320143
 31
0.0
 11
-26.2191931401
 21
-28.7363821004
 31
0.0
 11
-26.2721728919
 21
-28.781993895
 31
0.0
 11
-26.2988669832
 21
-28.7998295816
 31
0.0
  0
SPLINE
  5
484
100
AcDbEntity
  8
RACCORDO
100
AcDbSpline
 62
7
  6
CONTINUOUS
 70
0
 71
3
 72
14
 73
10
 74
8
 42
0.0000001
 43
0.0000001
 44
0.0000000001
 12
0.4838430569
 22
0.4831144419
 32
0.0
 13
0.6837423987
 23
0.0
 33
0.0
 40
0.0
 40
0.0
 40
0.0
 40
0.0
 40
0.1861437816
 40
0.3717421308
 40
0.5495276062
 40
0.712143016
 40
0.8508013292
 40
0.9530462023
 40
1.0
 40
1.0
 40
1.0
 40
1.0
 10
25.8
 20
18.3334561327
 30
0.0
 10
25.8300214588
 20
18.3634323824
 30
0.0
 10
25.890151513
 20
18.4231398899
 30
0.0
 10
25.9796226259
 20
18.5107052185
 30
0.0
 10
26.0658191878
 20
18.5942943414
 30
0.0
 10
26.1452725731
 20
18.6683241929
 30
0.0
 10
26.2124189174
 20
18.7336528898
 30
0.0
 10
26.2628976381
 20
18.7700661834
 30
0.0
 10
26.2881655491
 20
18.8001704184
 30
0.0
 10
26.2988669832
 20
18.8001704184
 30
0.0
 11
25.8
 21
18.3334561327
 31
0.0
 11
25.8903387751
 21
18.4231092282
 31
0.0
 11
25.9809949149
 21
18.5119092562
 31
0.0
 11
26.068489075
 21
18.5962980947
 31
0.0
 11
26.149294129
 21
18.6726728511
 31
0.0
 11
26.2191931401
 21
18.7367229372
 31
0.0
 11
26.2721728919
 21
18.7823347319
 31
0.0
 11
26.2988669832
 21
18.8001704184
 31
0.0
  0
SPLINE
  5
485
100
AcDbEntity
  8
RACCORDO
100
AcDbSpline
 62
7
  6
CONTINUOUS
 70
0
 71
3
 72
14
 73
10
 74
8
 42
0.0000001
 43
0.0000001
 44
0.0000000001
 12
0.6837423987
 22
0.0
 32
0.0
 13
0.4838430569
 23
-0.4831144419
 33
0.0
 40
0.0
 40
0.0
 40
0.0
 40
0.0
 40
0.0469537977
 40
0.1491986708
 40
0.287856984
 40
0.4504723938
 40
0.6282578692
 40
0.8138562184
 40
1.0
 40
1.0
 40
1.0
 40
1.0
 10
-26.2988669832
 20
18.8001704184
 30
0.0
 10
-26.2881655491
 20
18.8001704184
 30
0.0
 10
-26.2628976381
 20
18.7700661834
 30
0.0
 10
-26.2124189174
 20
18.7336528898
 30
0.0
 10
-26.1452725731
 20
18.6683241929
 30
0.0
 10
-26.0658191878
 20
18.5942943414
 30
0.0
 10
-25.9796226259
 20
18.5107052185
 30
0.0
 10
-25.890151513
 20
18.4231398899
 30
0.0
 10
-25.8300214588
 20
18.3634323824
 30
0.0
 10
-25.8
 20
18.3334561327
 30
0.0
 11
-26.2988669832
 21
18.8001704184
 31
0.0
 11
-26.2721728919
 21
18.7823347319
 31
0.0
 11
-26.2191931401
 21
18.7367229372
 31
0.0
 11
-26.149294129
 21
18.6726728511
 31
0.0
 11
-26.068489075
 21
18.5962980947
 31
0.0
 11
-25.9809949149
 21
18.5119092562
 31
0.0
 11
-25.8903387751
 21
18.4231092282
 31
0.0
 11
-25.8
 21
18.3334561327
 31
0.0
  0
SPLINE
  5
486
100
AcDbEntity
  8
RACCORDO
100
AcDbSpline
 62
7
  6
CONTINUOUS
 70
0
 71
3
 72
15
 73
11
 74
9
 42
0.0000001
 43
0.0000001
 44
0.0000000001
 12
1.1892855841
 22
0.0
 32
0.0
 13
0.0
 23
-1.1892855841
 33
0.0
 40
0.0
 40
0.0
 40
0.0
 40
0.0
 40
0.151423935
 40
0.3083710017
 40
0.4625900679
 40
0.6049060693
 40
0.7316735293
 40
0.8423838647
 40
0.9315696547
 40
1.0
 40
1.0
 40
1.0
 40
1.0
 10
10.7
 20
-43.6891892981
 30
0.0
 10
10.7600287677
 20
-43.6891892981
 30
0.0
 10
10.8823947993
 20
-43.6963735375
 30
0.0
 10
11.0632990149
 20
-43.7290110149
 30
0.0
 10
11.2354221046
 20
-43.7825070521
 30
0.0
 10
11.3886528688
 20
-43.8520033798
 30
0.0
 10
11.5169379632
 20
-43.9317168989
 30
0.0
 10
11.6155505767
 20
-44.0167259304
 30
0.0
 10
11.6807835727
 20
-44.101974898
 30
0.0
 10
11.7
 20
-44.164119881
 30
0.0
 10
11.7
 20
-44.1912476221
 30
0.0
 11
10.7
 21
-43.6891892981
 31
0.0
 11
10.879775875
 21
-43.699758655
 31
0.0
 11
11.063454748
 21
-43.7329568072
 31
0.0
 11
11.238530825
 21
-43.7876174257
 31
0.0
 11
11.3924587499
 21
-43.8579966509
 31
0.0
 11
11.5199325086
 21
-43.9384940818
 31
0.0
 11
11.6184449862
 21
-44.0258512884
 31
0.0
 11
11.6797135116
 21
-44.1124333632
 31
0.0
 11
11.7
 21
-44.1912476221
 31
0.0
  0
SPLINE
  5
487
100
AcDbEntity
  8
RACCORDO
100
AcDbSpline
 62
7
  6
CONTINUOUS
 70
0
 71
3
 72
15
 73
11
 74
9
 42
0.0000001
 43
0.0000001
 44
0.0000000001
 12
0.0
 22
1.1892855841
 32
0.0
 13
1.1892855841
 23
0.0
 33
0.0
 40
0.0
 40
0.0
 40
0.0
 40
0.0
 40
0.0684303453
 40
0.1576161353
 40
0.2683264707
 40
0.3950939307
 40
0.5374099321
 40
0.6916289983
 40
0.848576065
 40
1.0
 40
1.0
 40
1.0
 40
1.0
 10
-11.7
 20
-44.1912476221
 30
0.0
 10
-11.7
 20
-44.164119881
 30
0.0
 10
-11.6807835727
 20
-44.101974898
 30
0.0
 10
-11.6155505767
 20
-44.0167259304
 30
0.0
 10
-11.5169379632
 20
-43.9317168989
 30
0.0
 10
-11.3886528688
 20
-43.8520033798
 30
0.0
 10
-11.2354221046
 20
-43.7825070521
 30
0.0
 10
-11.0632990149
 20
-43.7290110149
 30
0.0
 10
-10.8823947993
 20
-43.6963735375
 30
0.0
 10
-10.7600287677
 20
-43.6891892981
 30
0.0
 10
-10.7
 20
-43.6891892981
 30
0.0
 11
-11.7
 21
-44.1912476221
 31
0.0
 11
-11.6797135116
 21
-44.1124333632
 31
0.0
 11
-11.6184449862
 21
-44.0258512884
 31
0.0
 11
-11.5199325086
 21
-43.9384940818
 31
0.0
 11
-11.3924587499
 21
-43.8579966509
 31
0.0
 11
-11.238530825
 21
-43.7876174257
 31
0.0
 11
-11.063454748
 21
-43.7329568072
 31
0.0
 11
-10.879775875
 21
-43.699758655
 31
0.0
 11
-10.7
 21
-43.6891892981
 31
0.0
  0
SPLINE
  5
488
100
AcDbEntity
  8
RACCORDO
100
AcDbSpline
 62
253
  6
CONTINUOUS
 70
0
 71
3
 72
14
 73
10
 74
8
 42
0.0000001
 43
0.0000001
 44
0.0000000001
 12
-0.0423096758
 22
-1.6433343399
 32
0.0
 13
-0.711898639
 23
-1.481734858
 33
0.0
 40
0.0
 40
0.0
 40
0.0
 40
0.0
 40
0.1914907611
 40
0.3656442665
 40
0.523111609
 40
0.664787052
 40
0.7915325751
 40
0.9034316254
 40
1.0
 40
1.0
 40
1.0
 40
1.0
 10
-26.8938847392
 20
-32.9761431706
 30
0.0
 10
-26.8965853766
 20
-33.0810376184
 30
0.0
 10
-26.9050694187
 20
-33.2812648169
 30
0.0
 10
-26.927389651
 20
-33.5670994487
 30
0.0
 10
-26.957462875
 20
-33.8247695058
 30
0.0
 10
-26.9945161586
 20
-34.0552602267
 30
0.0
 10
-27.0382551465
 20
-34.2591502206
 30
0.0
 10
-27.0885712159
 20
-34.435943384
 30
0.0
 10
-27.1300076091
 20
-34.5427528614
 30
0.0
 10
-27.1529232406
 20
-34.5904491036
 30
0.0
 11
-26.8938847392
 21
-32.9761431706
 31
0.0
 11
-26.9074237674
 21
-33.2906395018
 31
0.0
 11
-26.9300105121
 21
-33.5760343901
 31
0.0
 11
-26.9604110911
 21
-33.8331002903
 31
0.0
 11
-26.9979091294
 21
-34.0629590221
 31
0.0
 11
-27.0423250775
 21
-34.2665240844
 31
0.0
 11
-27.0937953916
 21
-34.4431249144
 31
0.0
 11
-27.1529232406
 21
-34.5904491036
 31
0.0
  0
SPLINE
  5
489
100
AcDbEntity
  8
RACCORDO
100
AcDbSpline
 62
253
  6
CONTINUOUS
 70
0
 71
3
 72
14
 73
10
 74
8
 42
0.0000001
 43
0.0000001
 44
0.0000000001
 12
-0.0422766176
 22
1.6433296608
 32
0.0
 13
-0.7134472648
 23
1.4809836889
 33
0.0
 40
0.0
 40
0.0
 40
0.0
 40
0.0
 40
0.1899704971
 40
0.363401705
 40
0.5204174637
 40
0.6623114241
 40
0.7897085128
 40
0.9024283306
 40
1.0
 40
1.0
 40
1.0
 40
1.0
 10
-26.8938847848
 20
22.9764847178
 30
0.0
 10
-26.8965618882
 20
23.080546102
 30
0.0
 10
-26.9049694165
 20
23.2795449082
 30
0.0
 10
-26.9270649519
 20
23.5639140517
 30
0.0
 10
-26.9569163036
 20
23.8210816749
 30
0.0
 10
-26.9938218484
 20
24.0518250445
 30
0.0
 10
-27.0375321166
 20
24.2566730325
 30
0.0
 10
-27.0881091164
 20
24.4347925789
 30
0.0
 10
-27.1297188282
 20
24.5426225387
 30
0.0
 10
-27.1529229084
 20
24.590789889
 30
0.0
 11
-26.8938847848
 21
22.9764847178
 31
0.0
 11
-26.9072708674
 21
23.2884851343
 31
0.0
 11
-26.9296498604
 21
23.5727043974
 31
0.0
 11
-26.9597996657
 21
23.829051505
 31
0.0
 11
-26.9971591753
 21
24.0592959198
 31
0.0
 11
-27.041601068
 21
24.2639507899
 31
0.0
 11
-27.0932836679
 21
24.4418943964
 31
0.0
 11
-27.1529229084
 21
24.590789889
 31
0.0
  0
SPLINE
  5
48A
100
AcDbEntity
  8
RACCORDO
100
AcDbSpline
 62
253
  6
CONTINUOUS
 70
0
 71
3
 72
22
 73
18
 74
16
 42
0.0000001
 43
0.0000001
 44
0.0000000001
 12
0.0423032882
 22
1.643508336
 32
0.0
 13
0.712475201
 23
1.4816505346
 33
0.0
 40
0.0
 40
0.0
 40
0.0
 40
0.0
 40
0.0978680511
 40
0.1877812833
 40
0.2711730405
 40
0.3477632021
 40
0.4167055474
 40
0.4792301116
 40
0.5378976536
 40
0.5952506165
 40
0.6526757686
 40
0.7098499417
 40
0.7664017284
 40
0.8229295185
 40
0.8802617466
 40
0.9391087406
 40
1.0
 40
1.0
 40
1.0
 40
1.0
 10
26.8938847407
 20
22.9764840307
 30
0.0
 10
26.8952647875
 20
23.0300996833
 30
0.0
 10
26.8987906058
 20
23.13295297
 30
0.0
 10
26.9064396303
 20
23.281370347
 30
0.0
 10
26.9158006448
 20
23.418003566
 30
0.0
 10
26.9264762162
 20
23.5430089081
 30
0.0
 10
26.9380591254
 20
23.6564431044
 30
0.0
 10
26.9503344044
 20
23.7599191296
 30
0.0
 10
26.9634615385
 20
23.85688498
 30
0.0
 10
26.977852175
 20
23.9508458171
 30
0.0
 10
26.9939083012
 20
24.0437073857
 30
0.0
 10
27.0119013936
 20
24.1357677484
 30
0.0
 10
27.0320895132
 20
24.2268712208
 30
0.0
 10
27.054976948
 20
24.3174278084
 30
0.0
 10
27.0814911676
 20
24.4083142924
 30
0.0
 10
27.1130358537
 20
24.5001207951
 30
0.0
 10
27.1384620489
 20
24.5607167542
 30
0.0
 10
27.1529232196
 20
24.5907899432
 30
0.0
 11
26.8938847407
 21
22.9764840307
 31
0.0
 11
26.8994210126
 21
23.137288988
 31
0.0
 11
26.9070552009
 21
23.2849138151
 31
0.0
 11
26.916454206
 21
23.4216917006
 31
0.0
 11
26.927197167
 21
23.5471508458
 31
0.0
 11
26.9387377964
 21
23.6599066365
 31
0.0
 11
26.9508724992
 21
23.7619815556
 31
0.0
 11
26.9638384263
 21
23.8575586199
 31
0.0
 11
26.978144415
 21
23.9507583331
 31
0.0
 11
26.9942699743
 21
24.0437809634
 31
0.0
 11
27.0123533333
 21
24.1360224639
 31
0.0
 11
27.0325372322
 21
24.226779263
 31
0.0
 11
27.0554081536
 21
24.3168557466
 31
0.0
 11
27.0819553532
 21
24.4072972557
 31
0.0
 11
27.113660791
 21
24.4987021529
 31
0.0
 11
27.1529232196
 21
24.5907899432
 31
0.0
  0
SPLINE
  5
48B
100
AcDbEntity
  8
RACCORDO
100
AcDbSpline
 62
253
  6
CONTINUOUS
 70
0
 71
3
 72
14
 73
10
 74
8
 42
0.0000001
 43
0.0000001
 44
0.0000000001
 12
0.0422775494
 22
-1.6433291822
 32
0.0
 13
0.7136088667
 23
-1.4809053236
 33
0.0
 40
0.0
 40
0.0
 40
0.0
 40
0.0
 40
0.1898018153
 40
0.363133249
 40
0.5201356331
 40
0.6620556047
 40
0.7895112473
 40
0.9023232982
 40
1.0
 40
1.0
 40
1.0
 40
1.0
 10
26.8938847752
 20
-32.9761437318
 30
0.0
 10
26.8965595605
 20
-33.0801126858
 30
0.0
 10
26.9049579096
 20
-33.2789644737
 30
0.0
 10
26.9270287157
 20
-33.5631803945
 30
0.0
 10
26.9568561075
 20
-33.8203026832
 30
0.0
 10
26.9937489925
 20
-34.0510871989
 30
0.0
 10
27.0374548245
 20
-34.2560358048
 30
0.0
 10
27.0880630569
 20
-34.4342910302
 30
0.0
 10
27.129688596
 20
-34.5422324246
 30
0.0
 10
27.1529229162
 20
-34.5904490738
 30
0.0
 11
26.8938847752
 21
-32.9761437318
 31
0.0
 11
26.9072540181
 21
-33.2878672377
 31
0.0
 11
26.9296067075
 21
-33.5719239689
 31
0.0
 11
26.9597355631
 21
-33.8282513303
 31
0.0
 11
26.9970814485
 21
-34.0585412078
 31
0.0
 11
27.0415226199
 21
-34.2632946727
 31
0.0
 11
27.0932320054
 21
-34.4413883303
 31
0.0
 11
27.1529229162
 21
-34.5904490738
 31
0.0
  0
SPLINE
  5
48C
100
AcDbEntity
  8
RACCORDO
100
AcDbSpline
 62
253
  6
CONTINUOUS
 70
0
 71
3
 72
12
 73
8
 74
6
 42
0.0000001
 43
0.0000001
 44
0.0000000001
 12
-0.5350532644
 22
-0.0303218528
 32
0.0
 13
-0.2278950602
 23
-0.4850414952
 33
0.0
 40
0.0
 40
0.0
 40
0.0
 40
0.0
 40
0.2600276258
 40
0.5035127447
 40
0.7143662103
 40
0.8808278557
 40
1.0
 40
1.0
 40
1.0
 40
1.0
 10
-26.4014809083
 20
23.1474947895
 30
0.0
 10
-26.4478571183
 20
23.1448666163
 30
0.0
 10
-26.537494382
 20
23.1355471174
 30
0.0
 10
-26.6626934079
 20
23.1099561366
 30
0.0
 10
-26.7683685821
 20
23.0746154118
 30
0.0
 10
-26.8468779826
 20
23.0331763465
 30
0.0
 10
-26.8848318705
 20
22.9957525295
 30
0.0
 10
-26.8938847848
 20
22.9764847178
 30
0.0
 11
-26.4014809083
 21
23.1474947895
 31
0.0
 11
-26.5400680518
 21
23.1329158668
 31
0.0
 11
-26.667755427
 21
23.1060333305
 31
0.0
 11
-26.774500055
 21
23.0689614446
 31
0.0
 11
-26.8519059852
 21
23.0246159427
 31
0.0
 11
-26.8938847848
 21
22.9764847178
 31
0.0
  0
SPLINE
  5
48D
100
AcDbEntity
  8
RACCORDO
100
AcDbSpline
 62
253
  6
CONTINUOUS
 70
0
 71
3
 72
10
 73
6
 74
4
 42
0.0000001
 43
0.0000001
 44
0.0000000001
 12
-0.2259178992
 22
-0.1894908896
 32
0.0
 13
-0.1933079344
 23
-0.2226605868
 33
0.0
 40
0.0
 40
0.0
 40
0.0
 40
0.0
 40
0.3351131069
 40
0.6726232047
 40
1.0
 40
1.0
 40
1.0
 40
1.0
 10
-26.9425518415
 20
24.7970306805
 30
0.0
 10
-26.9677878579
 20
24.7758637203
 30
0.0
 10
-27.0173005057
 20
24.7320014445
 30
0.0
 10
-27.0875320058
 20
24.6631882018
 30
0.0
 10
-27.1318281447
 20
24.6150878454
 30
0.0
 10
-27.1529229887
 20
24.5907898756
 30
0.0
 11
-26.9425518415
 21
24.7970306805
 31
0.0
 11
-27.0165597758
 21
24.7315562869
 31
0.0
 11
-27.0876252895
 21
24.6618860393
 31
0.0
 11
-27.1529229887
 21
24.5907898756
 31
0.0
  0
SPLINE
  5
48E
100
AcDbEntity
  8
RACCORDO
100
AcDbSpline
 62
253
  6
CONTINUOUS
 70
0
 71
3
 72
12
 73
8
 74
6
 42
0.0000001
 43
0.0000001
 44
0.0000000001
 12
-0.2278949874
 22
0.4850415562
 32
0.0
 13
-0.535053298
 23
0.0303216895
 33
0.0
 40
0.0
 40
0.0
 40
0.0
 40
0.0
 40
0.1191716105
 40
0.2856325831
 40
0.496485694
 40
0.7399711863
 40
1.0
 40
1.0
 40
1.0
 40
1.0
 10
26.8938847407
 20
22.9764840307
 30
0.0
 10
26.8848318698
 20
22.9957517585
 30
0.0
 10
26.8468782087
 20
23.0331754692
 30
0.0
 10
26.7683691024
 20
23.0746145216
 30
0.0
 10
26.6626940693
 20
23.1099553141
 30
0.0
 10
26.5374948369
 20
23.1355464052
 30
0.0
 10
26.447857289
 20
23.1448659314
 30
0.0
 10
26.4014808642
 20
23.1474941024
 30
0.0
 11
26.8938847407
 21
22.9764840307
 31
0.0
 11
26.8519061809
 21
23.024615089
 31
0.0
 11
26.7745006227
 21
23.0689605229
 31
0.0
 11
26.6677562084
 21
23.1060324607
 31
0.0
 11
26.5400686471
 21
23.1329151125
 31
0.0
 11
26.4014808642
 21
23.1474941024
 31
0.0
  0
SPLINE
  5
48F
100
AcDbEntity
  8
RACCORDO
100
AcDbSpline
 62
253
  6
CONTINUOUS
 70
0
 71
3
 72
10
 73
6
 74
4
 42
0.0000001
 43
0.0000001
 44
0.0000000001
 12
-0.1933076802
 22
0.2226603025
 32
0.0
 13
-0.2259174029
 23
0.189490888
 33
0.0
 40
0.0
 40
0.0
 40
0.0
 40
0.0
 40
0.327376854
 40
0.6648869398
 40
1.0
 40
1.0
 40
1.0
 40
1.0
 10
27.1529232892
 20
24.5907899315
 30
0.0
 10
27.1318284692
 20
24.6150878747
 30
0.0
 10
27.0875323964
 20
24.6631881826
 30
0.0
 10
27.0173010243
 20
24.7320013735
 30
0.0
 10
26.9677884845
 20
24.7758636328
 30
0.0
 10
26.9425525271
 20
24.79703059
 30
0.0
 11
27.1529232892
 21
24.5907899315
 31
0.0
 11
27.087625678
 21
24.6618860301
 31
0.0
 11
27.0165602967
 21
24.7315562238
 31
0.0
 11
26.9425525271
 21
24.79703059
 31
0.0
  0
SPLINE
  5
490
100
AcDbEntity
  8
RACCORDO
100
AcDbSpline
 62
253
  6
CONTINUOUS
 70
0
 71
3
 72
12
 73
8
 74
6
 42
0.0000001
 43
0.0000001
 44
0.0000000001
 12
0.2278949629
 22
-0.4850415706
 32
0.0
 13
0.5350533018
 23
-0.0303216675
 33
0.0
 40
0.0
 40
0.0
 40
0.0
 40
0.0
 40
0.1191717643
 40
0.2856329202
 40
0.496486125
 40
0.7399715134
 40
1.0
 40
1.0
 40
1.0
 40
1.0
 10
-26.8938847392
 20
-32.9761431706
 30
0.0
 10
-26.8848318576
 20
-32.9954109238
 30
0.0
 10
-26.8468781379
 20
-33.0328346701
 30
0.0
 10
-26.7683689517
 20
-33.0742737334
 30
0.0
 10
-26.6626938797
 20
-33.1096145097
 30
0.0
 10
-26.5374947016
 20
-33.1352055663
 30
0.0
 10
-26.4478572295
 20
-33.1445250765
 30
0.0
 10
-26.4014808627
 20
-33.1471532422
 30
0.0
 11
-26.8938847392
 21
-32.9761431706
 31
0.0
 11
-26.8519061158
 21
-33.0242742831
 31
0.0
 11
-26.7745004582
 21
-33.0686197422
 31
0.0
 11
-26.667755986
 21
-33.1056916681
 31
0.0
 11
-26.5400684734
 21
-33.132574284
 31
0.0
 11
-26.4014808627
 21
-33.1471532422
 31
0.0
  0
SPLINE
  5
491
100
AcDbEntity
  8
RACCORDO
100
AcDbSpline
 62
253
  6
CONTINUOUS
 70
0
 71
3
 72
22
 73
18
 74
16
 42
0.0000001
 43
0.0000001
 44
0.0000000001
 12
0.1131200993
 22
1.7624535249
 32
0.0
 13
1.2153068662
 23
1.2814319355
 33
0.0
 40
0.0
 40
0.0
 40
0.0
 40
0.0
 40
0.0930765136
 40
0.1788464639
 40
0.2586945084
 40
0.3323575059
 40
0.3990033897
 40
0.4597896137
 40
0.5171904602
 40
0.5737217692
 40
0.6308303311
 40
0.6883158713
 40
0.7459580446
 40
0.8045878034
 40
0.8654406625
 40
0.9299627972
 40
1.0
 40
1.0
 40
1.0
 40
1.0
 10
26.4014808642
 20
23.1474941024
 30
0.0
 10
26.4049904724
 20
23.2021751122
 30
0.0
 10
26.4134934502
 20
23.3071414817
 30
0.0
 10
26.4308826712
 20
23.4584634963
 30
0.0
 10
26.4515403905
 20
23.5978291149
 30
0.0
 10
26.4746697293
 20
23.725375918
 30
0.0
 10
26.4994544378
 20
23.8411551329
 30
0.0
 10
26.5254898247
 20
23.9468215382
 30
0.0
 10
26.5531490841
 20
24.0459052754
 30
0.0
 10
26.5833107636
 20
24.1419913264
 30
0.0
 10
26.6168091635
 20
24.237022919
 30
0.0
 10
26.6541951485
 20
24.3313033784
 30
0.0
 10
26.6959996848
 20
24.4247002884
 30
0.0
 10
26.7432798882
 20
24.5176917052
 30
0.0
 10
26.7979961656
 20
24.6112685985
 30
0.0
 10
26.8631508329
 20
24.7062131178
 30
0.0
 10
26.9141548529
 20
24.767085068
 30
0.0
 10
26.942527084
 20
24.7970010375
 30
0.0
 11
26.4014808642
 21
23.1474941024
 31
0.0
 11
26.4147939103
 21
23.3113346788
 31
0.0
 11
26.4321297202
 21
23.4618160008
 31
0.0
 11
26.4528520979
 21
23.6013031658
 31
0.0
 11
26.4761104178
 21
23.7293019696
 31
0.0
 11
26.5007904447
 21
23.8443873654
 31
0.0
 11
26.5265121953
 21
23.9486137058
 31
0.0
 11
26.5538082847
 21
24.0462441835
 31
0.0
 11
26.5837548587
 21
24.141485937
 31
0.0
 11
26.6173418214
 21
24.2365875166
 31
0.0
 11
26.6548365207
 21
24.330934127
 31
0.0
 11
26.6965147882
 21
24.423812017
 31
0.0
 11
26.7435619784
 21
24.516051362
 31
0.0
 11
26.7979700741
 21
24.6087324214
 31
0.0
 11
26.8627235145
 21
24.7024974457
 31
0.0
 11
26.942527084
 21
24.7970010375
 31
0.0
  0
SPLINE
  5
492
100
AcDbEntity
  8
RACCORDO
100
AcDbSpline
 62
253
  6
CONTINUOUS
 70
0
 71
3
 72
14
 73
10
 74
8
 42
0.0000001
 43
0.0000001
 44
0.0000000001
 12
-0.1129827491
 22
1.7619121946
 32
0.0
 13
-1.2159208484
 23
1.2800922519
 33
0.0
 40
0.0
 40
0.0
 40
0.0
 40
0.0
 40
0.1810236913
 40
0.3476050477
 40
0.5002719515
 40
0.6407426669
 40
0.7702918929
 40
0.88979953
 40
1.0
 40
1.0
 40
1.0
 40
1.0
 10
-26.4014809083
 20
23.1474947895
 30
0.0
 10
-26.4082984264
 20
23.2538107392
 30
0.0
 10
-26.4280368405
 20
23.4576121981
 30
0.0
 10
-26.4764472519
 20
23.7482520877
 30
0.0
 10
-26.5401370186
 20
24.011463885
 30
0.0
 10
-26.6177625928
 20
24.2481048625
 30
0.0
 10
-26.7090820429
 20
24.4588039741
 30
0.0
 10
-26.8142719804
 20
24.6427488483
 30
0.0
 10
-26.89784615
 20
24.7499577618
 30
0.0
 10
-26.9425111664
 20
24.7969800177
 30
0.0
 11
-26.4014809083
 21
23.1474947895
 31
0.0
 11
-26.4326263392
 21
23.4655765394
 31
0.0
 11
-26.4814246286
 21
23.7556044894
 31
0.0
 11
-26.545413139
 21
24.0174370405
 31
0.0
 11
-26.6234797282
 21
24.2528351858
 31
0.0
 11
-26.7153689443
 21
24.4622884315
 31
0.0
 11
-26.8214133471
 21
24.6446979626
 31
0.0
 11
-26.9425111664
 21
24.7969800177
 31
0.0
  0
SPLINE
  5
493
100
AcDbEntity
  8
RACCORDO
100
AcDbSpline
 62
7
  6
CONTINUOUS
 70
0
 71
3
 72
15
 73
11
 74
9
 42
0.0000001
 43
0.0000001
 44
0.0000000001
 12
-1.1892858355
 22
0.0
 32
0.0
 13
0.0
 23
-1.1892858355
 33
0.0
 40
0.0
 40
0.0
 40
0.0
 40
0.0
 40
0.1514131496
 40
0.308346396
 40
0.4625614987
 40
0.604890222
 40
0.7316840534
 40
0.8424113132
 40
0.9315866228
 40
1.0
 40
1.0
 40
1.0
 40
1.0
 10
-10.7
 20
-45.6891892981
 30
0.0
 10
-10.7600245047
 20
-45.6891892981
 30
0.0
 10
-10.8823807834
 20
-45.6963724542
 30
0.0
 10
-11.0632742311
 20
-45.7290054195
 30
0.0
 10
-11.2353965394
 20
-45.7824971976
 30
0.0
 10
-11.3886414857
 20
-45.8519962692
 30
0.0
 10
-11.5169460335
 20
-45.9317210982
 30
0.0
 10
-11.6155666548
 20
-46.0167413609
 30
0.0
 10
-11.6807915211
 20
-46.1019919627
 30
0.0
 10
-11.7
 20
-46.164126602
 30
0.0
 10
-11.7
 20
-46.1912476221
 30
0.0
 11
-10.7
 21
-45.6891892981
 31
0.0
 11
-10.8797631523
 21
-45.6997571531
 31
0.0
 11
-11.06342635
 21
-45.7329498432
 31
0.0
 11
-11.2384991468
 21
-45.7876052817
 31
0.0
 11
-11.3924422634
 21
-45.8579877526
 31
0.0
 11
-11.5199427365
 21
-45.9385016787
 31
0.0
 11
-11.6184673092
 21
-46.0258756245
 31
0.0
 11
-11.6797225527
 21
-46.1124518562
 31
0.0
 11
-11.7
 21
-46.1912476221
 31
0.0
  0
SPLINE
  5
494
100
AcDbEntity
  8
RACCORDO
100
AcDbSpline
 62
253
  6
CONTINUOUS
 70
0
 71
3
 72
14
 73
10
 74
8
 42
0.0000001
 43
0.0000001
 44
0.0000000001
 12
0.1129807486
 22
-1.761835538
 32
0.0
 13
1.2166006595
 23
-1.2793404347
 33
0.0
 40
0.0
 40
0.0
 40
0.0
 40
0.0
 40
0.1808683223
 40
0.3473559636
 40
0.5000121831
 40
0.6405093949
 40
0.7701181749
 40
0.8897234275
 40
1.0
 40
1.0
 40
1.0
 40
1.0
 10
26.4014808987
 20
-33.1471538035
 30
0.0
 10
26.4082924449
 20
-33.2533738828
 30
0.0
 10
26.428009249
 20
-33.4570207909
 30
0.0
 10
26.4763672283
 20
-33.7475008015
 30
0.0
 10
26.5400074657
 20
-34.0106656078
 30
0.0
 10
26.6176099078
 20
-34.2473478893
 30
0.0
 10
26.7089217063
 20
-34.4581611924
 30
0.0
 10
26.8141774123
 20
-34.6422083916
 30
0.0
 10
26.8977442563
 20
-34.7495541137
 30
0.0
 10
26.9424651066
 20
-34.7965812065
 30
0.0
 11
26.4014808987
 21
-33.1471538035
 31
0.0
 11
26.4325880516
 21
-33.464949755
 31
0.0
 11
26.481330339
 21
-33.7548064067
 31
0.0
 11
26.5452764622
 21
-34.0166178538
 31
0.0
 11
26.6233171194
 21
-34.252062539
 31
0.0
 11
26.715207813
 21
-34.461619105
 31
0.0
 11
26.821310233
 21
-34.6441836548
 31
0.0
 11
26.9424651066
 21
-34.7965812065
 31
0.0
  0
SPLINE
  5
495
100
AcDbEntity
  8
RACCORDO
100
AcDbSpline
 62
253
  6
CONTINUOUS
 70
0
 71
3
 72
14
 73
10
 74
8
 42
0.0000001
 43
0.0000001
 44
0.0000000001
 12
-0.1131513416
 22
-1.761941134
 32
0.0
 13
-1.2127053505
 23
-1.2831934846
 33
0.0
 40
0.0
 40
0.0
 40
0.0
 40
0.0
 40
0.1824365616
 40
0.3497005983
 40
0.5028095249
 40
0.6430949194
 40
0.7720287634
 40
0.8907010079
 40
1.0
 40
1.0
 40
1.0
 40
1.0
 10
-26.4014808627
 20
-33.1471532422
 30
0.0
 10
-26.4083618433
 20
-33.2543007363
 30
0.0
 10
-26.4282583568
 20
-33.4593341176
 30
0.0
 10
-26.4771241782
 20
-33.7514236843
 30
0.0
 10
-26.5412463992
 20
-34.0151071434
 30
0.0
 10
-26.6191362517
 20
-34.2514520894
 30
0.0
 10
-26.7104511924
 20
-34.46109307
 30
0.0
 10
-26.8151162233
 20
-34.6437746128
 30
0.0
 10
-26.8983460845
 20
-34.7499096159
 30
0.0
 10
-26.9425285754
 20
-34.7966602007
 30
0.0
 11
-26.4014808627
 21
-33.1471532422
 31
0.0
 11
-26.4329562225
 21
-33.467716344
 31
0.0
 11
-26.4821685827
 21
-33.7589035093
 31
0.0
 11
-26.5466455154
 21
-34.0214261382
 31
0.0
 11
-26.6249567528
 21
-34.2564040176
 31
0.0
 11
-26.7167504604
 21
-34.4647179883
 31
0.0
 11
-26.8223024751
 21
-34.645712952
 31
0.0
 11
-26.9425285754
 21
-34.7966602007
 31
0.0
  0
SPLINE
  5
496
100
AcDbEntity
  8
RACCORDO
100
AcDbSpline
 62
253
  6
CONTINUOUS
 70
0
 71
3
 72
10
 73
6
 74
4
 42
0.0000001
 43
0.0000001
 44
0.0000000001
 12
0.1933076544
 22
-0.2226603036
 32
0.0
 13
0.2259173659
 23
-0.1894909071
 33
0.0
 40
0.0
 40
0.0
 40
0.0
 40
0.0
 40
0.3273768564
 40
0.6648869374
 40
1.0
 40
1.0
 40
1.0
 40
1.0
 10
-27.1529233102
 20
-34.590449092
 30
0.0
 10
-27.1318284928
 20
-34.6147470354
 30
0.0
 10
-27.0875324258
 20
-34.6628473435
 30
0.0
 10
-27.0173010586
 20
-34.7316605318
 30
0.0
 10
-26.9677885264
 20
-34.7755227937
 30
0.0
 10
-26.942552573
 20
-34.7966897531
 30
0.0
 11
-27.1529233102
 21
-34.590449092
 31
0.0
 11
-27.0876257062
 21
-34.661545191
 31
0.0
 11
-27.0165603325
 21
-34.7312153827
 31
0.0
 11
-26.942552573
 21
-34.7966897531
 31
0.0
  0
SPLINE
  5
497
100
AcDbEntity
  8
RACCORDO
100
AcDbSpline
 62
253
  6
CONTINUOUS
 70
0
 71
3
 72
12
 73
8
 74
6
 42
0.0000001
 43
0.0000001
 44
0.0000000001
 12
0.5350532643
 22
0.0303218532
 32
0.0
 13
0.2278950596
 23
0.4850414954
 33
0.0
 40
0.0
 40
0.0
 40
0.0
 40
0.0
 40
0.2600275987
 40
0.5035127091
 40
0.7143661826
 40
0.8808278433
 40
1.0
 40
1.0
 40
1.0
 40
1.0
 10
26.4014808987
 20
-33.1471538035
 30
0.0
 10
26.4478571039
 20
-33.1445256306
 30
0.0
 10
26.5374943613
 20
-33.1352061327
 30
0.0
 10
26.6626933826
 20
-33.1096151547
 30
0.0
 10
26.76836856
 20
-33.0742744312
 30
0.0
 10
26.8468779672
 20
-33.0328353653
 30
0.0
 10
26.88483186
 20
-32.9954115455
 30
0.0
 10
26.8938847752
 20
-32.9761437318
 30
0.0
 11
26.4014808987
 21
-33.1471538035
 31
0.0
 11
26.5400680279
 21
-33.132574883
 31
0.0
 11
26.6677553989
 21
-33.1056923496
 31
0.0
 11
26.7745000318
 21
-33.0686204647
 31
0.0
 11
26.8519059703
 21
-33.0242749609
 31
0.0
 11
26.8938847752
 21
-32.9761437318
 31
0.0
  0
SPLINE
  5
498
100
AcDbEntity
  8
RACCORDO
100
AcDbSpline
 62
253
  6
CONTINUOUS
 70
0
 71
3
 72
10
 73
6
 74
4
 42
0.0000001
 43
0.0000001
 44
0.0000000001
 12
0.2259178909
 22
0.1894908648
 32
0.0
 13
0.1933079287
 23
0.2226605622
 33
0.0
 40
0.0
 40
0.0
 40
0.0
 40
0.0
 40
0.3351131041
 40
0.6726232028
 40
1.0
 40
1.0
 40
1.0
 40
1.0
 10
26.9425518593
 20
-34.7966898437
 30
0.0
 10
26.9677878745
 20
-34.7755228864
 30
0.0
 10
27.0173005202
 20
-34.7316606159
 30
0.0
 10
27.0875320156
 20
-34.662847379
 30
0.0
 10
27.1318281529
 20
-34.6147470276
 30
0.0
 10
27.1529229964
 20
-34.5904490604
 30
0.0
 11
26.9425518593
 21
-34.7966898437
 31
0.0
 11
27.0165597897
 21
-34.7312154583
 31
0.0
 11
27.0876252995
 21
-34.6615452171
 31
0.0
 11
27.1529229964
 21
-34.5904490604
 31
0.0
  0
SPLINE
  5
499
100
AcDbEntity
  8
RACCORDO
100
AcDbSpline
 62
7
  6
CONTINUOUS
 70
0
 71
3
 72
15
 73
11
 74
9
 42
0.0000001
 43
0.0000001
 44
0.0000000001
 12
0.0
 22
1.1892858355
 32
0.0
 13
-1.1892858355
 23
-0.0
 33
0.0
 40
0.0
 40
0.0
 40
0.0
 40
0.0
 40
0.0684133772
 40
0.1575886868
 40
0.2683159466
 40
0.395109778
 40
0.5374385013
 40
0.691653604
 40
0.8485868504
 40
1.0
 40
1.0
 40
1.0
 40
1.0
 10
11.7
 20
-46.1912476221
 30
0.0
 10
11.7
 20
-46.164126602
 30
0.0
 10
11.6807915211
 20
-46.1019919627
 30
0.0
 10
11.6155666548
 20
-46.0167413609
 30
0.0
 10
11.5169460335
 20
-45.9317210982
 30
0.0
 10
11.3886414857
 20
-45.8519962692
 30
0.0
 10
11.2353965394
 20
-45.7824971976
 30
0.0
 10
11.0632742311
 20
-45.7290054195
 30
0.0
 10
10.8823807834
 20
-45.6963724542
 30
0.0
 10
10.7600245047
 20
-45.6891892981
 30
0.0
 10
10.7
 20
-45.6891892981
 30
0.0
 11
11.7
 21
-46.1912476221
 31
0.0
 11
11.6797225527
 21
-46.1124518562
 31
0.0
 11
11.6184673092
 21
-46.0258756245
 31
0.0
 11
11.5199427365
 21
-45.9385016787
 31
0.0
 11
11.3924422634
 21
-45.8579877526
 31
0.0
 11
11.2384991468
 21
-45.7876052817
 31
0.0
 11
11.06342635
 21
-45.7329498432
 31
0.0
 11
10.8797631523
 21
-45.6997571531
 31
0.0
 11
10.7
 21
-45.6891892981
 31
0.0
  0
SPLINE
  5
49A
100
AcDbEntity
  8
RACCORDO
100
AcDbSpline
 62
7
  6
CONTINUOUS
 70
0
 71
3
 72
15
 73
11
 74
9
 42
0.0000001
 43
0.0000001
 44
0.0000000001
 12
-0.0504858235
 22
1.2160153775
 32
0.0
 13
-1.2170629469
 23
0.0
 33
0.0
 40
0.0
 40
0.0
 40
0.0
 40
0.0
 40
0.0771319061
 40
0.174286783
 40
0.2901079016
 40
0.4225557004
 40
0.5642094574
 40
0.7097168318
 40
0.856534035
 40
1.0
 40
1.0
 40
1.0
 40
1.0
 10
-12.1661277497
 20
-45.9597944199
 30
0.0
 10
-12.1674257723
 20
-45.9285298919
 30
0.0
 10
-12.1891496106
 20
-45.8588394262
 30
0.0
 10
-12.2583875876
 20
-45.7624313288
 30
0.0
 10
-12.3619453214
 20
-45.6669065825
 30
0.0
 10
-12.4942395535
 20
-45.579162956
 30
0.0
 10
-12.6481081824
 20
-45.5051803193
 30
0.0
 10
-12.8158038351
 20
-45.4499631904
 30
0.0
 10
-12.9898769279
 20
-45.4164985711
 30
0.0
 10
-13.1077730748
 20
-45.4090790908
 30
0.0
 10
-13.1659754449
 20
-45.4090790908
 30
0.0
 11
-12.1661277497
 21
-45.9597944199
 31
0.0
 11
-12.1905459231
 21
-45.8691514226
 31
0.0
 11
-12.2566421995
 21
-45.771106375
 31
0.0
 11
-12.3590940774
 21
-45.6742880755
 31
0.0
 11
-12.4928704903
 21
-45.5843523007
 31
0.0
 11
-12.6480730059
 21
-45.5092891954
 31
0.0
 11
-12.8162412355
 21
-45.4537834001
 31
0.0
 11
-12.9917130512
 21
-45.4200454518
 31
0.0
 11
-13.1659754449
 21
-45.4090790908
 31
0.0
  0
SPLINE
  5
49B
100
AcDbEntity
  8
RACCORDO
100
AcDbSpline
 62
253
  6
CONTINUOUS
 70
0
 71
3
 72
17
 73
13
 74
11
 42
0.0000001
 43
0.0000001
 44
0.0000000001
 12
-0.0028969987
 22
-4.4734099054
 32
0.0
 13
-2.5629016846
 23
-3.6664614452
 33
0.0
 40
0.0
 40
0.0
 40
0.0
 40
0.0
 40
0.1601115916
 40
0.3142788172
 40
0.459321277
 40
0.5921390872
 40
0.7099275379
 40
0.8101899494
 40
0.8908022135
 40
0.9500619616
 40
0.9867099344
 40
1.0
 40
1.0
 40
1.0
 40
1.0
 10
-32.320517195
 20
-41.8772960322
 30
0.0
 10
-32.3206718094
 20
-42.1160442921
 30
0.0
 10
-32.3211859684
 20
-42.5846753546
 30
0.0
 10
-32.3225591983
 20
-43.2695913598
 30
0.0
 10
-32.3245831927
 20
-43.9137793558
 30
0.0
 10
-32.326920011
 20
-44.5038099252
 30
0.0
 10
-32.3304369097
 20
-45.0267794513
 30
0.0
 10
-32.3322633876
 20
-45.4727445409
 30
0.0
 10
-32.3401284821
 20
-45.829107258
 30
0.0
 10
-32.3341192246
 20
-46.0962775913
 30
0.0
 10
-32.355795183
 20
-46.2517888674
 30
0.0
 10
-32.3392717425
 20
-46.3341556997
 30
0.0
 10
-32.350625453
 20
-46.3503982041
 30
0.0
 11
-32.320517195
 21
-41.8772960322
 31
0.0
 11
-32.3213061145
 21
-42.5935405277
 31
0.0
 11
-32.3227211342
 21
-43.283192415
 31
0.0
 11
-32.3247329397
 21
-43.9320238082
 31
0.0
 11
-32.3272985887
 21
-44.5261669009
 31
0.0
 11
-32.3303639293
 21
-45.0530741174
 31
0.0
 11
-32.3338639951
 21
-45.5015754191
 31
0.0
 11
-32.3377245608
 21
-45.86216653
 31
0.0
 11
-32.3418642163
 21
-46.1272274057
 31
0.0
 11
-32.3461941792
 21
-46.2911116539
 31
0.0
 11
-32.350625453
 21
-46.3503982041
 31
0.0
  0
SPLINE
  5
49C
100
AcDbEntity
  8
RACCORDO
100
AcDbSpline
 62
7
  6
CONTINUOUS
 70
0
 71
3
 72
15
 73
11
 74
9
 42
0.0000001
 43
0.0000001
 44
0.0000000001
 12
-1.2170629469
 22
0.0
 32
0.0
 13
-0.0504858235
 23
-1.2160153775
 33
0.0
 40
0.0
 40
0.0
 40
0.0
 40
0.0
 40
0.143465965
 40
0.2902831682
 40
0.4357905426
 40
0.5774442996
 40
0.7098920984
 40
0.825713217
 40
0.9228680939
 40
1.0
 40
1.0
 40
1.0
 40
1.0
 10
13.1659754449
 20
-45.4090790908
 30
0.0
 10
13.1077730748
 20
-45.4090790908
 30
0.0
 10
12.9898769279
 20
-45.4164985711
 30
0.0
 10
12.8158038351
 20
-45.4499631904
 30
0.0
 10
12.6481081824
 20
-45.5051803193
 30
0.0
 10
12.4942395535
 20
-45.579162956
 30
0.0
 10
12.3619453214
 20
-45.6669065825
 30
0.0
 10
12.2583875876
 20
-45.7624313288
 30
0.0
 10
12.1891496106
 20
-45.8588394262
 30
0.0
 10
12.1674257723
 20
-45.9285298919
 30
0.0
 10
12.1661277497
 20
-45.9597944199
 30
0.0
 11
13.1659754449
 21
-45.4090790908
 31
0.0
 11
12.9917130512
 21
-45.4200454518
 31
0.0
 11
12.8162412355
 21
-45.4537834001
 31
0.0
 11
12.6480730059
 21
-45.5092891954
 31
0.0
 11
12.4928704903
 21
-45.5843523007
 31
0.0
 11
12.3590940774
 21
-45.6742880755
 31
0.0
 11
12.2566421995
 21
-45.771106375
 31
0.0
 11
12.1905459231
 21
-45.8691514226
 31
0.0
 11
12.1661277497
 21
-45.9597944199
 31
0.0
  0
SPLINE
  5
49D
100
AcDbEntity
  8
RACCORDO
100
AcDbSpline
 62
253
  6
CONTINUOUS
 70
0
 71
3
 72
17
 73
13
 74
11
 42
0.0000001
 43
0.0000001
 44
0.0000000001
 12
-2.5629015057
 22
3.6664614332
 32
0.0
 13
-0.0028969983
 23
4.473409793
 33
0.0
 40
0.0
 40
0.0
 40
0.0
 40
0.0
 40
0.013290066
 40
0.0499380397
 40
0.1091977893
 40
0.1898100554
 40
0.2900724694
 40
0.4078609231
 40
0.5406787366
 40
0.6857212
 40
0.8398884295
 40
1.0
 40
1.0
 40
1.0
 40
1.0
 10
32.3506254531
 20
-46.3503982042
 30
0.0
 10
32.3392717431
 20
-46.3341556994
 30
0.0
 10
32.3557951823
 20
-46.2517888679
 30
0.0
 10
32.334119225
 20
-46.096277591
 30
0.0
 10
32.3401284819
 20
-45.8291072582
 30
0.0
 10
32.3322633877
 20
-45.4727445408
 30
0.0
 10
32.3304369097
 20
-45.0267794513
 30
0.0
 10
32.326920011
 20
-44.5038099252
 30
0.0
 10
32.3245831927
 20
-43.9137793558
 30
0.0
 10
32.3225591983
 20
-43.2695913598
 30
0.0
 10
32.3211859685
 20
-42.5846753921
 30
0.0
 10
32.3206718094
 20
-42.1160443671
 30
0.0
 10
32.3205171951
 20
-41.8772961447
 30
0.0
 11
32.3506254531
 21
-46.3503982042
 31
0.0
 11
32.3461941793
 21
-46.2911116539
 31
0.0
 11
32.3418642163
 21
-46.1272274057
 31
0.0
 11
32.3377245608
 21
-45.86216653
 31
0.0
 11
32.3338639951
 21
-45.5015754191
 31
0.0
 11
32.3303639293
 21
-45.0530741174
 31
0.0
 11
32.3272985887
 21
-44.5261669009
 31
0.0
 11
32.3247329397
 21
-43.9320238082
 31
0.0
 11
32.3227211342
 21
-43.283192415
 31
0.0
 11
32.3213061145
 21
-42.5935405277
 31
0.0
 11
32.3205171951
 21
-41.8772961447
 31
0.0
  0
SPLINE
  5
49E
100
AcDbEntity
  8
RACCORDO
100
AcDbSpline
 62
7
  6
CONTINUOUS
 70
0
 71
3
 72
13
 73
9
 74
7
 42
0.0000001
 43
0.0000001
 44
0.0000000001
 12
-0.046088074
 22
-60.6868104484
 32
0.0
 13
0.046088074
 23
-60.6868104484
 33
0.0
 40
0.0
 40
0.0
 40
0.0
 40
0.0
 40
0.1664329633
 40
0.3331466242
 40
0.5
 40
0.6668533758
 40
0.8335670367
 40
1.0
 40
1.0
 40
1.0
 40
1.0
 10
-32.3150393266
 20
25.343581566
 30
0.0
 10
-32.3175961849
 20
21.9768196681
 30
0.0
 10
-32.3218561172
 20
15.237616974
 30
0.0
 10
-32.3256879444
 20
5.1231462729
 30
0.0
 10
-32.3269655759
 20
-4.9998295803
 30
0.0
 10
-32.3256879444
 20
-15.1228054338
 30
0.0
 10
-32.3218561172
 20
-25.2372761358
 30
0.0
 10
-32.3175961849
 20
-31.9764788307
 30
0.0
 10
-32.3150393266
 20
-35.3432407292
 30
0.0
 11
-32.3150393266
 21
25.343581566
 31
0.0
 11
-32.3214265438
 21
15.2432949793
 31
0.0
 11
-32.3252610538
 21
5.1259724475
 31
0.0
 11
-32.3265395798
 21
-4.9998295802
 31
0.0
 11
-32.3252610538
 21
-15.1256316083
 31
0.0
 11
-32.3214265438
 21
-25.2429541408
 31
0.0
 11
-32.3150393266
 21
-35.3432407292
 31
0.0
  0
SPLINE
  5
49F
100
AcDbEntity
  8
RACCORDO
100
AcDbSpline
 62
253
  6
CONTINUOUS
 70
0
 71
3
 72
17
 73
13
 74
11
 42
0.0000001
 43
0.0000001
 44
0.0000000001
 12
0.0028969262
 22
3.1315301925
 32
0.0
 13
2.2079144083
 23
2.2207214378
 33
0.0
 40
0.0
 40
0.0
 40
0.0
 40
0.0
 40
0.1599641249
 40
0.3141568887
 40
0.4592255402
 40
0.5920682258
 40
0.7098785208
 40
0.810157052
 40
0.8907789534
 40
0.9500424981
 40
0.9866926733
 40
1.0
 40
1.0
 40
1.0
 40
1.0
 10
33.820460204
 20
31.7197042889
 30
0.0
 10
33.8206146721
 20
31.8866817845
 30
0.0
 10
33.8211278329
 20
32.2146105664
 30
0.0
 10
33.8225033959
 20
32.6939755843
 30
0.0
 10
33.8245177507
 20
33.1449969026
 30
0.0
 10
33.8268864508
 20
33.5581385206
 30
0.0
 10
33.8303059385
 20
33.9242037811
 30
0.0
 10
33.8324195332
 20
34.2366968266
 30
0.0
 10
33.8395157669
 20
34.4854745054
 30
0.0
 10
33.835318658
 20
34.6741581121
 30
0.0
 10
33.8536863084
 20
34.7799833672
 30
0.0
 10
33.8407738665
 20
34.8409445913
 30
0.0
 10
33.8505676793
 20
34.8507952132
 30
0.0
 11
33.820460204
 21
31.7197042889
 31
0.0
 11
33.8212481923
 21
32.2206363703
 31
0.0
 11
33.8226631117
 21
32.7034937991
 31
0.0
 11
33.8246750081
 21
33.1577764006
 31
0.0
 11
33.8272410308
 21
33.5737695454
 31
0.0
 11
33.8303069564
 21
33.9426834591
 31
0.0
 11
33.8338077629
 21
34.2566893274
 31
0.0
 11
33.8376691875
 21
34.5091298226
 31
0.0
 11
33.8418096456
 21
34.6946692884
 31
0.0
 11
33.8461406079
 21
34.8093587229
 31
0.0
 11
33.8505676793
 21
34.8507952132
 31
0.0
  0
SPLINE
  5
4A0
100
AcDbEntity
  8
RACCORDO
100
AcDbSpline
 62
253
  6
CONTINUOUS
 70
0
 71
3
 72
9
 73
5
 74
3
 42
0.0000001
 43
0.0000001
 44
0.0000000001
 12
0.0049410474
 22
6.506166349
 32
0.0
 13
0.0060159053
 23
6.5061654439
 33
0.0
 40
0.0
 40
0.0
 40
0.0
 40
0.0
 40
0.4960226552
 40
1.0
 40
1.0
 40
1.0
 40
1.0
 10
33.8149822112
 20
25.2135383754
 30
0.0
 10
33.8157991684
 20
26.2892736779
 30
0.0
 10
33.8175348367
 20
28.4579957278
 30
0.0
 10
33.8194495773
 20
30.6267176272
 30
0.0
 10
33.820460204
 20
31.7197042889
 30
0.0
 11
33.8149822112
 21
25.2135383754
 31
0.0
 11
33.8175650887
 21
28.4407441801
 31
0.0
 11
33.820460204
 21
31.7197042889
 31
0.0
  0
SPLINE
  5
4A1
100
AcDbEntity
  8
RACCORDO
100
AcDbSpline
 62
253
  6
CONTINUOUS
 70
0
 71
3
 72
15
 73
11
 74
9
 42
0.0000001
 43
0.0000001
 44
0.0000000001
 12
-0.0458905539
 22
60.4267241898
 32
0.0
 13
0.0458905539
 23
60.4267241898
 33
0.0
 40
0.0
 40
0.0
 40
0.0
 40
0.0
 40
0.1248134424
 40
0.2497884851
 40
0.3748676307
 40
0.5000000009
 40
0.6251323712
 40
0.7502115169
 40
0.8751865589
 40
1.0
 40
1.0
 40
1.0
 40
1.0
 10
33.8149822112
 20
-35.2131975385
 30
0.0
 10
33.8130729586
 20
-32.6991750518
 30
0.0
 10
33.809732208
 20
-27.66787471
 30
0.0
 10
33.8061542467
 20
-20.1171990274
 30
0.0
 10
33.8040069195
 20
-12.5600988771
 30
0.0
 10
33.8032910579
 20
-4.9998295242
 30
0.0
 10
33.8040069195
 20
2.5604398289
 30
0.0
 10
33.8061542467
 20
10.1175399693
 30
0.0
 10
33.809732208
 20
17.6682156132
 30
0.0
 10
33.8130729586
 20
22.699515916
 30
0.0
 10
33.8149822112
 20
25.2135383754
 30
0.0
 11
33.8149822112
 21
-35.2131975385
 31
0.0
 11
33.8099732148
 21
-27.6711295668
 31
0.0
 11
33.8063939207
 21
-20.1192958052
 31
0.0
 11
33.8042458333
 21
-12.5611708938
 31
0.0
 11
33.8035297122
 21
-4.9998295256
 31
0.0
 11
33.8042458333
 21
2.5615118466
 31
0.0
 11
33.8063939208
 21
10.1196367591
 31
0.0
 11
33.8099732149
 21
17.6714704857
 31
0.0
 11
33.8149822112
 21
25.2135383754
 31
0.0
  0
SPLINE
  5
4A2
100
AcDbEntity
  8
RACCORDO
100
AcDbSpline
 62
253
  6
CONTINUOUS
 70
0
 71
3
 72
9
 73
5
 74
3
 42
0.0000001
 43
0.0000001
 44
0.0000000001
 12
-0.0060159079
 22
6.5061654439
 32
0.0
 13
-0.0049410504
 23
6.506166349
 33
0.0
 40
0.0
 40
0.0
 40
0.0
 40
0.0
 40
0.5036103858
 40
1.0
 40
1.0
 40
1.0
 40
1.0
 10
33.820460204
 20
-41.7193634521
 30
0.0
 10
33.8194503127
 20
-40.6271726224
 30
0.0
 10
33.8175355014
 20
-38.4584507231
 30
0.0
 10
33.8157997733
 20
-36.2897286733
 30
0.0
 10
33.8149822112
 20
-35.2131975385
 30
0.0
 11
33.820460204
 21
-41.7193634521
 31
0.0
 11
33.8175670947
 21
-38.4427908396
 31
0.0
 11
33.8149822112
 21
-35.2131975385
 31
0.0
  0
SPLINE
  5
4A3
100
AcDbEntity
  8
RACCORDO
100
AcDbSpline
 62
253
  6
CONTINUOUS
 70
0
 71
3
 72
17
 73
13
 74
11
 42
0.0000001
 43
0.0000001
 44
0.0000000001
 12
-2.2080950148
 22
2.2205418491
 32
0.0
 13
-0.0028969657
 23
3.131530186
 33
0.0
 40
0.0
 40
0.0
 40
0.0
 40
0.0
 40
0.0133090428
 40
0.0499608986
 40
0.1092262917
 40
0.1898500872
 40
0.2901304831
 40
0.4079416848
 40
0.5407848973
 40
0.6858538482
 40
0.8400465937
 40
1.0
 40
1.0
 40
1.0
 40
1.0
 10
33.8505676793
 20
-44.8504543763
 30
0.0
 10
33.8407718023
 20
-44.8406032808
 30
0.0
 10
33.8536877663
 20
-44.7796358941
 30
0.0
 10
33.8353175176
 20
-44.6738071531
 30
0.0
 10
33.83951583
 20
-44.485116902
 30
0.0
 10
33.8324191234
 20
-44.2363337673
 30
0.0
 10
33.8303057227
 20
-43.9238357103
 30
0.0
 10
33.8268862243
 20
-43.5577670526
 30
0.0
 10
33.8245175865
 20
-43.144623612
 30
0.0
 10
33.8225032778
 20
-42.6936014552
 30
0.0
 10
33.8211277892
 20
-42.2142473322
 30
0.0
 10
33.8206146638
 20
-41.8863297588
 30
0.0
 10
33.820460204
 20
-41.7193634521
 30
0.0
 11
33.8505676793
 21
-44.8504543763
 31
0.0
 11
33.846140309
 21
-44.8090125134
 31
0.0
 11
33.8418093417
 21
-44.694317813
 31
0.0
 11
33.8376688869
 21
-44.5087725575
 31
0.0
 11
33.8338074718
 21
-44.2563261306
 31
0.0
 11
33.8303066852
 21
-43.9423144231
 31
0.0
 11
33.8272408084
 21
-43.5733976701
 31
0.0
 11
33.8246748364
 21
-43.1574028759
 31
0.0
 11
33.8226629899
 21
-42.7031193374
 31
0.0
 11
33.8212481168
 21
-42.2202619668
 31
0.0
 11
33.820460204
 21
-41.7193634521
 31
0.0
  0
SPLINE
  5
4A4
100
AcDbEntity
  8
RACCORDO
100
AcDbSpline
 62
253
  6
CONTINUOUS
 70
0
 71
3
 72
17
 73
13
 74
11
 42
0.0000001
 43
0.0000001
 44
0.0000000001
 12
-0.0028969658
 22
-3.131530186
 32
0.0
 13
-2.2080957401
 23
-2.2205411279
 33
0.0
 40
0.0
 40
0.0
 40
0.0
 40
0.0
 40
0.1599534063
 40
0.3141461518
 40
0.4592151027
 40
0.5920583152
 40
0.7098695169
 40
0.8101499128
 40
0.8907737083
 40
0.9500391014
 40
0.9866909572
 40
1.0
 40
1.0
 40
1.0
 40
1.0
 10
-33.820460204
 20
-41.7193634521
 30
0.0
 10
-33.8206146638
 20
-41.8863297587
 30
0.0
 10
-33.8211277892
 20
-42.2142473322
 30
0.0
 10
-33.8225032778
 20
-42.6936014552
 30
0.0
 10
-33.8245175865
 20
-43.144623612
 30
0.0
 10
-33.8268862242
 20
-43.5577670527
 30
0.0
 10
-33.8303057229
 20
-43.9238357101
 30
0.0
 10
-33.8324191229
 20
-44.2363337677
 30
0.0
 10
-33.8395158312
 20
-44.4851169009
 30
0.0
 10
-33.835317515
 20
-44.6738071557
 30
0.0
 10
-33.8536877705
 20
-44.7796358899
 30
0.0
 10
-33.8407717991
 20
-44.840603284
 30
0.0
 10
-33.8505676793
 20
-44.8504543763
 30
0.0
 11
-33.820460204
 21
-41.7193634521
 31
0.0
 11
-33.8212481168
 21
-42.2202619668
 31
0.0
 11
-33.8226629899
 21
-42.7031193374
 31
0.0
 11
-33.8246748364
 21
-43.1574028759
 31
0.0
 11
-33.8272408084
 21
-43.5733976701
 31
0.0
 11
-33.8303066852
 21
-43.9423144231
 31
0.0
 11
-33.8338074718
 21
-44.2563261306
 31
0.0
 11
-33.8376688869
 21
-44.5087725575
 31
0.0
 11
-33.8418093417
 21
-44.6943178129
 31
0.0
 11
-33.846140309
 21
-44.8090125134
 31
0.0
 11
-33.8505676793
 21
-44.8504543763
 31
0.0
  0
SPLINE
  5
4A5
100
AcDbEntity
  8
RACCORDO
100
AcDbSpline
 62
253
  6
CONTINUOUS
 70
0
 71
3
 72
9
 73
5
 74
3
 42
0.0000001
 43
0.0000001
 44
0.0000000001
 12
-0.0049410473
 22
-6.506166349
 32
0.0
 13
-0.0060159055
 23
-6.5061654439
 33
0.0
 40
0.0
 40
0.0
 40
0.0
 40
0.0
 40
0.4960226648
 40
1.0
 40
1.0
 40
1.0
 40
1.0
 10
-33.8149822112
 20
-35.2131975385
 30
0.0
 10
-33.8157991684
 20
-36.288932862
 30
0.0
 10
-33.8175348366
 20
-38.4576549119
 30
0.0
 10
-33.8194495773
 20
-40.6263768112
 30
0.0
 10
-33.820460204
 20
-41.7193634521
 30
0.0
 11
-33.8149822112
 21
-35.2131975385
 31
0.0
 11
-33.8175650887
 21
-38.4404034059
 31
0.0
 11
-33.820460204
 21
-41.7193634521
 31
0.0
  0
SPLINE
  5
4A6
100
AcDbEntity
  8
RACCORDO
100
AcDbSpline
 62
253
  6
CONTINUOUS
 70
0
 71
3
 72
15
 73
11
 74
9
 42
0.0000001
 43
0.0000001
 44
0.0000000001
 12
0.0458905539
 22
-60.4267241898
 32
0.0
 13
-0.0458905539
 23
-60.4267241898
 33
0.0
 40
0.0
 40
0.0
 40
0.0
 40
0.0
 40
0.1248134411
 40
0.2497884831
 40
0.3748676288
 40
0.4999999991
 40
0.6251323693
 40
0.7502115149
 40
0.8751865576
 40
1.0
 40
1.0
 40
1.0
 40
1.0
 10
-33.8149822112
 20
25.2135383754
 30
0.0
 10
-33.8130729586
 20
22.699515916
 30
0.0
 10
-33.809732208
 20
17.6682156132
 30
0.0
 10
-33.8061542467
 20
10.1175399693
 30
0.0
 10
-33.8040069195
 20
2.5604398289
 30
0.0
 10
-33.8032910579
 20
-4.9998295242
 30
0.0
 10
-33.8040069195
 20
-12.5600988771
 30
0.0
 10
-33.8061542467
 20
-20.1171990274
 30
0.0
 10
-33.809732208
 20
-27.66787471
 30
0.0
 10
-33.8130729586
 20
-32.6991750518
 30
0.0
 10
-33.8149822112
 20
-35.2131975385
 30
0.0
 11
-33.8149822112
 21
25.2135383754
 31
0.0
 11
-33.8099732149
 21
17.6714704857
 31
0.0
 11
-33.8063939208
 21
10.1196367591
 31
0.0
 11
-33.8042458333
 21
2.5615118466
 31
0.0
 11
-33.8035297122
 21
-4.9998295256
 31
0.0
 11
-33.8042458333
 21
-12.5611708938
 31
0.0
 11
-33.8063939207
 21
-20.1192958052
 31
0.0
 11
-33.8099732148
 21
-27.6711295668
 31
0.0
 11
-33.8149822112
 21
-35.2131975385
 31
0.0
  0
SPLINE
  5
4A7
100
AcDbEntity
  8
RACCORDO
100
AcDbSpline
 62
253
  6
CONTINUOUS
 70
0
 71
3
 72
9
 73
5
 74
3
 42
0.0000001
 43
0.0000001
 44
0.0000000001
 12
0.0060159077
 22
-6.5061654439
 32
0.0
 13
0.0049410505
 23
-6.506166349
 33
0.0
 40
0.0
 40
0.0
 40
0.0
 40
0.0
 40
0.5036095581
 40
1.0
 40
1.0
 40
1.0
 40
1.0
 10
-33.820460204
 20
31.7197042889
 30
0.0
 10
-33.8194503144
 20
30.6275152542
 30
0.0
 10
-33.8175355029
 20
28.458793355
 30
0.0
 10
-33.8157997747
 20
26.2900713051
 30
0.0
 10
-33.8149822112
 20
25.2135383754
 30
0.0
 11
-33.820460204
 21
31.7197042889
 31
0.0
 11
-33.8175670992
 21
28.4431370615
 31
0.0
 11
-33.8149822112
 21
25.2135383754
 31
0.0
  0
SPLINE
  5
4A8
100
AcDbEntity
  8
RACCORDO
100
AcDbSpline
 62
253
  6
CONTINUOUS
 70
0
 71
3
 72
17
 73
13
 74
11
 42
0.0000001
 43
0.0000001
 44
0.0000000001
 12
2.2079137339
 22
-2.2207221083
 32
0.0
 13
0.002896926
 23
-3.1315301925
 33
0.0
 40
0.0
 40
0.0
 40
0.0
 40
0.0
 40
0.0133073267
 40
0.0499575019
 40
0.1092210466
 40
0.189842948
 40
0.2901214792
 40
0.4079317742
 40
0.5407744598
 40
0.6858431113
 40
0.8400358751
 40
1.0
 40
1.0
 40
1.0
 40
1.0
 10
-33.8505676793
 20
34.8507952132
 30
0.0
 10
-33.8407738695
 20
34.8409445883
 30
0.0
 10
-33.8536863044
 20
34.7799833711
 30
0.0
 10
-33.8353186604
 20
34.6741581097
 30
0.0
 10
-33.8395157658
 20
34.4854745065
 30
0.0
 10
-33.8324195336
 20
34.2366968262
 30
0.0
 10
-33.8303059384
 20
33.9242037812
 30
0.0
 10
-33.8268864509
 20
33.5581385206
 30
0.0
 10
-33.8245177507
 20
33.1449969026
 30
0.0
 10
-33.8225033959
 20
32.6939755843
 30
0.0
 10
-33.8211278329
 20
32.2146105664
 30
0.0
 10
-33.820614672
 20
31.8866817845
 30
0.0
 10
-33.820460204
 20
31.7197042889
 30
0.0
 11
-33.8505676793
 21
34.8507952132
 31
0.0
 11
-33.8461406079
 21
34.8093587229
 31
0.0
 11
-33.8418096456
 21
34.6946692884
 31
0.0
 11
-33.8376691875
 21
34.5091298226
 31
0.0
 11
-33.8338077629
 21
34.2566893274
 31
0.0
 11
-33.8303069564
 21
33.9426834591
 31
0.0
 11
-33.8272410308
 21
33.5737695454
 31
0.0
 11
-33.8246750081
 21
33.1577764007
 31
0.0
 11
-33.8226631117
 21
32.7034937991
 31
0.0
 11
-33.8212481923
 21
32.2206363703
 31
0.0
 11
-33.820460204
 21
31.7197042889
 31
0.0
  0
SPLINE
  5
4A9
100
AcDbEntity
  8
RACCORDO
100
AcDbSpline
 62
253
  6
CONTINUOUS
 70
0
 71
3
 72
15
 73
11
 74
9
 42
0.0000001
 43
0.0000001
 44
0.0000000001
 12
1.5160260161
 22
-0.001142674
 32
0.0
 13
0.1512911988
 23
-1.5084585378
 33
0.0
 40
0.0
 40
0.0
 40
0.0
 40
0.0
 40
0.1919810924
 40
0.3767245809
 40
0.5472725697
 40
0.6972244952
 40
0.8210026734
 40
0.9141253613
 40
0.9736167157
 40
1.0
 40
1.0
 40
1.0
 40
1.0
 10
32.3150393266
 20
25.3435813319
 30
0.0
 10
32.4120554369
 20
25.343508208
 30
0.0
 10
32.6024179508
 20
25.3417818494
 30
0.0
 10
32.8789606689
 20
25.3344746854
 30
0.0
 10
33.1338250859
 20
25.3228623576
 30
0.0
 10
33.3584659025
 20
25.3071982107
 30
0.0
 10
33.5411765649
 20
25.2889948426
 30
0.0
 10
33.6837291509
 20
25.2673077779
 30
0.0
 10
33.76348049
 20
25.2481451786
 30
0.0
 10
33.8136516917
 20
25.2268044055
 30
0.0
 10
33.8149822112
 20
25.2135383754
 30
0.0
 11
32.3150393266
 21
25.3435813319
 31
0.0
 11
32.6060753031
 21
25.3408907294
 31
0.0
 11
32.8860500529
 21
25.3333599065
 31
0.0
 11
33.1443227388
 21
25.3212750813
 31
0.0
 11
33.3710773307
 21
25.305095553
 31
0.0
 11
33.5576956747
 21
25.2854362455
 31
0.0
 11
33.6970850381
 21
25.2630443372
 31
0.0
 11
33.7839476813
 21
25.2387708642
 31
0.0
 11
33.8149822112
 21
25.2135383754
 31
0.0
  0
SPLINE
  5
4AA
100
AcDbEntity
  8
RACCORDO
100
AcDbSpline
 62
253
  6
CONTINUOUS
 70
0
 71
3
 72
14
 73
10
 74
8
 42
0.0000001
 43
0.0000001
 44
0.0000000001
 12
1.52253185
 22
-0.0013921637
 32
0.0
 13
0.1249882075
 23
-1.5173935285
 33
0.0
 40
0.0
 40
0.0
 40
0.0
 40
0.0
 40
0.2180542189
 40
0.4254236675
 40
0.6119698366
 40
0.7686440853
 40
0.8880291222
 40
0.9650624817
 40
1.0
 40
1.0
 40
1.0
 40
1.0
 10
32.3205173194
 20
31.8777508299
 30
0.0
 10
32.4311821505
 20
31.8776496409
 30
0.0
 10
32.6471512756
 20
31.8749456214
 30
0.0
 10
32.9573269562
 20
31.8636667571
 30
0.0
 10
33.2369376201
 20
31.8454185337
 30
0.0
 10
33.4685592679
 20
31.8225856878
 30
0.0
 10
33.6508355325
 20
31.7934157912
 30
0.0
 10
33.7549979064
 20
31.7679594497
 30
0.0
 10
33.8190046114
 20
31.7373756102
 30
0.0
 10
33.820460204
 20
31.7197042889
 30
0.0
 11
32.3205173194
 21
31.8777508299
 31
0.0
 11
32.6524850968
 21
31.8735282125
 31
0.0
 11
32.96798931
 21
31.8616768615
 31
0.0
 11
33.2513828856
 21
31.8427845312
 31
0.0
 11
33.488611241
 21
31.8177881654
 31
0.0
 11
33.6679093052
 21
31.7879274303
 31
0.0
 11
33.7803849942
 21
31.7546832354
 31
0.0
 11
33.820460204
 21
31.7197042889
 31
0.0
  0
SPLINE
  5
4AB
100
AcDbEntity
  8
RACCORDO
100
AcDbSpline
 62
253
  6
CONTINUOUS
 70
0
 71
3
 72
15
 73
11
 74
9
 42
0.0000001
 43
0.0000001
 44
0.0000000001
 12
1.516026052
 22
0.0011426745
 32
0.0
 13
0.1512843796
 23
1.5084592578
 33
0.0
 40
0.0
 40
0.0
 40
0.0
 40
0.0
 40
0.1919811624
 40
0.3767247095
 40
0.5472727366
 40
0.6972246737
 40
0.8210028349
 40
0.9141254799
 40
0.9736167733
 40
1.0
 40
1.0
 40
1.0
 40
1.0
 10
32.3150393266
 20
-35.3432405468
 30
0.0
 10
32.4120554745
 20
-35.3431674228
 30
0.0
 10
32.602418058
 20
-35.341441063
 30
0.0
 10
32.8789608672
 20
-35.3341338932
 30
0.0
 10
33.1338253438
 20
-35.3225215592
 30
0.0
 10
33.3584661848
 20
-35.3068573989
 30
0.0
 10
33.5411768184
 20
-35.2886540345
 30
0.0
 10
33.6837293625
 20
-35.2669669344
 30
0.0
 10
33.7634805921
 20
-35.2478043886
 30
0.0
 10
33.8136517545
 20
-35.2264635461
 30
0.0
 10
33.8149822112
 20
-35.2131975385
 30
0.0
 11
32.3150393266
 21
-35.3432405468
 31
0.0
 11
32.6060754161
 21
-35.3405499422
 31
0.0
 11
32.8860502614
 21
-35.3330191135
 31
0.0
 11
33.144323011
 21
-35.32093428
 31
0.0
 11
33.3710776252
 21
-35.3047547418
 31
0.0
 11
33.5576959468
 21
-35.2850954245
 31
0.0
 11
33.6970852464
 21
-35.2627035079
 31
0.0
 11
33.7839477941
 21
-35.2384300294
 31
0.0
 11
33.8149822112
 21
-35.2131975385
 31
0.0
  0
SPLINE
  5
4AC
100
AcDbEntity
  8
RACCORDO
100
AcDbSpline
 62
253
  6
CONTINUOUS
 70
0
 71
3
 72
14
 73
10
 74
8
 42
0.0000001
 43
0.0000001
 44
0.0000000001
 12
1.5225319995
 22
0.0013921788
 32
0.0
 13
0.1249700522
 23
1.5173951739
 33
0.0
 40
0.0
 40
0.0
 40
0.0
 40
0.0
 40
0.2180543699
 40
0.4254239445
 40
0.6119701924
 40
0.7686444545
 40
0.8880294279
 40
0.9650626467
 40
1.0
 40
1.0
 40
1.0
 40
1.0
 10
32.3205173194
 20
-41.8774102246
 30
0.0
 10
32.431182238
 20
-41.8773090344
 30
0.0
 10
32.6471515256
 20
-41.8746050074
 30
0.0
 10
32.9573274139
 20
-41.8633261267
 30
0.0
 10
33.2369382229
 20
-41.8450778582
 30
0.0
 10
33.4685598821
 20
-41.8222450194
 30
0.0
 10
33.6508361148
 20
-41.7930749863
 30
0.0
 10
33.7549982157
 20
-41.767618818
 30
0.0
 10
33.8190048297
 20
-41.7370347092
 30
0.0
 10
33.820460204
 20
-41.7193634521
 30
0.0
 11
32.3205173194
 21
-41.8774102246
 31
0.0
 11
32.6524853592
 21
-41.8731875969
 31
0.0
 11
32.9679897946
 21
-41.8613362231
 31
0.0
 11
33.2513835161
 21
-41.8424438594
 31
0.0
 11
33.4886119112
 21
-41.8174474528
 31
0.0
 11
33.6679098882
 21
-41.7875866737
 31
0.0
 11
33.7803853531
 21
-41.7543424358
 31
0.0
 11
33.820460204
 21
-41.7193634521
 31
0.0
  0
SPLINE
  5
4AD
100
AcDbEntity
  8
RACCORDO
100
AcDbSpline
 62
253
  6
CONTINUOUS
 70
0
 71
3
 72
15
 73
11
 74
9
 42
0.0000001
 43
0.0000001
 44
0.0000000001
 12
-1.5160260521
 22
-0.0011426745
 32
0.0
 13
-0.1512843631
 23
-1.5084592596
 33
0.0
 40
0.0
 40
0.0
 40
0.0
 40
0.0
 40
0.1919811626
 40
0.3767247099
 40
0.547272737
 40
0.6972246741
 40
0.8210028353
 40
0.9141254802
 40
0.9736167734
 40
1.0
 40
1.0
 40
1.0
 40
1.0
 10
-32.3150393266
 20
25.3435813838
 30
0.0
 10
-32.4120554746
 20
25.3435082598
 30
0.0
 10
-32.6024180582
 20
25.3417818999
 30
0.0
 10
-32.8789608677
 20
25.3344747302
 30
0.0
 10
-33.1338253444
 20
25.3228623961
 30
0.0
 10
-33.3584661855
 20
25.3071982358
 30
0.0
 10
-33.541176819
 20
25.2889948714
 30
0.0
 10
-33.683729363
 20
25.2673077712
 30
0.0
 10
-33.7634805924
 20
25.2481452255
 30
0.0
 10
-33.8136517547
 20
25.2268043828
 30
0.0
 10
-33.8149822112
 20
25.2135383754
 30
0.0
 11
-32.3150393266
 21
25.3435813838
 31
0.0
 11
-32.6060754164
 21
25.3408907791
 31
0.0
 11
-32.8860502619
 21
25.3333599505
 31
0.0
 11
-33.1443230116
 21
25.3212751169
 31
0.0
 11
-33.3710776259
 21
25.3050955787
 31
0.0
 11
-33.5576959474
 21
25.2854362614
 31
0.0
 11
-33.6970852469
 21
25.2630443448
 31
0.0
 11
-33.7839477944
 21
25.2387708662
 31
0.0
 11
-33.8149822112
 21
25.2135383754
 31
0.0
  0
SPLINE
  5
4AE
100
AcDbEntity
  8
RACCORDO
100
AcDbSpline
 62
253
  6
CONTINUOUS
 70
0
 71
3
 72
14
 73
10
 74
8
 42
0.0000001
 43
0.0000001
 44
0.0000000001
 12
-1.5225319994
 22
-0.0013921788
 32
0.0
 13
-0.1249700657
 23
-1.5173951726
 33
0.0
 40
0.0
 40
0.0
 40
0.0
 40
0.0
 40
0.2180543698
 40
0.4254239443
 40
0.6119701921
 40
0.7686444542
 40
0.8880294276
 40
0.9650626466
 40
1.0
 40
1.0
 40
1.0
 40
1.0
 10
-32.3205173194
 20
31.8777510613
 30
0.0
 10
-32.4311822379
 20
31.8776498711
 30
0.0
 10
-32.6471515254
 20
31.8749458441
 30
0.0
 10
-32.9573274136
 20
31.8636669634
 30
0.0
 10
-33.2369382225
 20
31.845418695
 30
0.0
 10
-33.4685598816
 20
31.8225858561
 30
0.0
 10
-33.6508361143
 20
31.7934158231
 30
0.0
 10
-33.7549982154
 20
31.7679596547
 30
0.0
 10
-33.8190048295
 20
31.737375546
 30
0.0
 10
-33.820460204
 20
31.7197042889
 30
0.0
 11
-32.3205173194
 21
31.8777510613
 31
0.0
 11
-32.652485359
 21
31.8735284336
 31
0.0
 11
-32.9679897942
 21
31.8616770598
 31
0.0
 11
-33.2513835156
 21
31.8427846961
 31
0.0
 11
-33.4886119107
 21
31.8177882896
 31
0.0
 11
-33.6679098878
 21
31.7879275105
 31
0.0
 11
-33.7803853529
 21
31.7546832726
 31
0.0
 11
-33.820460204
 21
31.7197042889
 31
0.0
  0
SPLINE
  5
4AF
100
AcDbEntity
  8
RACCORDO
100
AcDbSpline
 62
253
  6
CONTINUOUS
 70
0
 71
3
 72
15
 73
11
 74
9
 42
0.0000001
 43
0.0000001
 44
0.0000000001
 12
-1.516026016
 22
0.001142674
 32
0.0
 13
-0.1512912111
 23
1.5084585365
 33
0.0
 40
0.0
 40
0.0
 40
0.0
 40
0.0
 40
0.1919810923
 40
0.3767245806
 40
0.5472725694
 40
0.6972244949
 40
0.8210026731
 40
0.9141253611
 40
0.9736167156
 40
1.0
 40
1.0
 40
1.0
 40
1.0
 10
-32.3150393266
 20
-35.343240495
 30
0.0
 10
-32.4120554368
 20
-35.3431673711
 30
0.0
 10
-32.6024179506
 20
-35.3414410125
 30
0.0
 10
-32.8789606686
 20
-35.3341338485
 30
0.0
 10
-33.1338250855
 20
-35.3225215207
 30
0.0
 10
-33.358465902
 20
-35.3068573739
 30
0.0
 10
-33.5411765645
 20
-35.2886540057
 30
0.0
 10
-33.6837291505
 20
-35.2669669411
 30
0.0
 10
-33.7634804898
 20
-35.2478043417
 30
0.0
 10
-33.8136516916
 20
-35.2264635687
 30
0.0
 10
-33.8149822112
 20
-35.2131975385
 30
0.0
 11
-32.3150393266
 21
-35.343240495
 31
0.0
 11
-32.6060753029
 21
-35.3405498925
 31
0.0
 11
-32.8860500525
 21
-35.3330190696
 31
0.0
 11
-33.1443227383
 21
-35.3209342445
 31
0.0
 11
-33.3710773301
 21
-35.3047547161
 31
0.0
 11
-33.5576956742
 21
-35.2850954086
 31
0.0
 11
-33.6970850377
 21
-35.2627035004
 31
0.0
 11
-33.7839476811
 21
-35.2384300274
 31
0.0
 11
-33.8149822112
 21
-35.2131975385
 31
0.0
  0
SPLINE
  5
4B0
100
AcDbEntity
  8
RACCORDO
100
AcDbSpline
 62
253
  6
CONTINUOUS
 70
0
 71
3
 72
14
 73
10
 74
8
 42
0.0000001
 43
0.0000001
 44
0.0000000001
 12
-1.5225318308
 22
0.0013921629
 32
0.0
 13
-0.1249904272
 23
1.5173933264
 33
0.0
 40
0.0
 40
0.0
 40
0.0
 40
0.0
 40
0.2180542006
 40
0.4254236339
 40
0.6119697935
 40
0.7686440406
 40
0.8880290853
 40
0.9650624619
 40
1.0
 40
1.0
 40
1.0
 40
1.0
 10
-32.3205173194
 20
-41.877409962
 30
0.0
 10
-32.4311821398
 20
-41.877308773
 30
0.0
 10
-32.6471512451
 20
-41.8746047544
 30
0.0
 10
-32.9573269003
 20
-41.8633258921
 30
0.0
 10
-33.2369375465
 20
-41.8450776746
 30
0.0
 10
-33.4685591928
 20
-41.8222448281
 30
0.0
 10
-33.6508354615
 20
-41.7930749489
 30
0.0
 10
-33.7549978682
 20
-41.7676185866
 30
0.0
 10
-33.8190045847
 20
-41.7370347811
 30
0.0
 10
-33.820460204
 20
-41.7193634521
 30
0.0
 11
-32.3205173194
 21
-41.877409962
 31
0.0
 11
-32.6524850647
 21
-41.8731873457
 31
0.0
 11
-32.9679892508
 21
-41.8613359976
 31
0.0
 11
-33.2513828086
 21
-41.8424436716
 31
0.0
 11
-33.4886111591
 21
-41.8174473112
 31
0.0
 11
-33.667909234
 21
-41.7875865822
 31
0.0
 11
-33.7803849504
 21
-41.7543423933
 31
0.0
 11
-33.820460204
 21
-41.7193634521
 31
0.0
  0
SPLINE
  5
4B1
100
AcDbEntity
  8
RACCORDO
100
AcDbSpline
 62
7
  6
CONTINUOUS
 70
0
 71
3
 72
13
 73
9
 74
7
 42
0.0000001
 43
0.0000001
 44
0.0000000001
 12
0.046088074
 22
60.6868104484
 32
0.0
 13
-0.046088074
 23
60.6868104484
 33
0.0
 40
0.0
 40
0.0
 40
0.0
 40
0.0
 40
0.1664329633
 40
0.3331466242
 40
0.5
 40
0.6668533758
 40
0.8335670367
 40
1.0
 40
1.0
 40
1.0
 40
1.0
 10
32.3150393266
 20
-35.3432407292
 30
0.0
 10
32.3175961849
 20
-31.9764788308
 30
0.0
 10
32.3218561172
 20
-25.2372761359
 30
0.0
 10
32.3256879444
 20
-15.122805434
 30
0.0
 10
32.3269655759
 20
-4.9998295805
 30
0.0
 10
32.3256879444
 20
5.1231462727
 30
0.0
 10
32.3218561172
 20
15.2376169738
 30
0.0
 10
32.3175961849
 20
21.976819668
 30
0.0
 10
32.3150393266
 20
25.343581566
 30
0.0
 11
32.3150393266
 21
-35.3432407292
 31
0.0
 11
32.3214265438
 21
-25.242954141
 31
0.0
 11
32.3252610538
 21
-15.1256316085
 31
0.0
 11
32.3265395798
 21
-4.9998295804
 31
0.0
 11
32.3252610538
 21
5.1259724473
 31
0.0
 11
32.3214265438
 21
15.2432949791
 31
0.0
 11
32.3150393266
 21
25.343581566
 31
0.0
  0
SPLINE
  5
4B2
100
AcDbEntity
  8
RACCORDO
100
AcDbSpline
 62
253
  6
CONTINUOUS
 70
0
 71
3
 72
17
 73
13
 74
11
 42
0.0000001
 43
0.0000001
 44
0.0000000001
 12
2.5628454509
 22
-3.6664955122
 32
0.0
 13
0.002896862
 23
-4.4734056103
 33
0.0
 40
0.0
 40
0.0
 40
0.0
 40
0.0
 40
0.0132900238
 40
0.04993798
 40
0.109197753
 40
0.1898100479
 40
0.2900725241
 40
0.4078610457
 40
0.5406789606
 40
0.6857214937
 40
0.8398888284
 40
1.0
 40
1.0
 40
1.0
 40
1.0
 10
-32.3506254785
 20
36.3507390773
 30
0.0
 10
-32.3392720528
 20
36.3344964731
 30
0.0
 10
-32.3557948416
 20
36.2521302094
 30
0.0
 10
-32.3341194444
 20
36.0966187777
 30
0.0
 10
-32.3401284078
 20
35.829448833
 30
0.0
 10
-32.332263436
 20
35.473086198
 30
0.0
 10
-32.3304369126
 20
35.0271213182
 30
0.0
 10
-32.3269200244
 20
34.5041519258
 30
0.0
 10
-32.3245832018
 20
33.9141215551
 30
0.0
 10
-32.3225591995
 20
33.2699337485
 30
0.0
 10
-32.3211859804
 20
32.5850187555
 30
0.0
 10
-32.3206718064
 20
32.1163886065
 30
0.0
 10
-32.3205171997
 20
31.877641202
 30
0.0
 11
-32.3506254785
 21
36.3507390773
 31
0.0
 11
-32.3461941976
 21
36.2914527726
 31
0.0
 11
-32.3418642317
 21
36.1275687559
 31
0.0
 11
-32.3377245765
 21
35.8625080238
 31
0.0
 11
-32.3338640102
 21
35.5019171213
 31
0.0
 11
-32.3303639432
 21
35.0534159605
 31
0.0
 11
-32.3272985995
 21
34.5265089329
 31
0.0
 11
-32.3247329483
 21
33.9323659424
 31
0.0
 11
-32.3227211383
 21
33.2835348441
 31
0.0
 11
-32.3213061196
 21
32.5938831311
 31
0.0
 11
-32.3205171997
 21
31.877641202
 31
0.0
  0
SPLINE
  5
4B3
100
AcDbEntity
  8
RACCORDO
100
AcDbSpline
 62
253
  6
CONTINUOUS
 70
0
 71
3
 72
17
 73
13
 74
11
 42
0.0000001
 43
0.0000001
 44
0.0000000001
 12
0.0028968624
 22
4.4734057242
 32
0.0
 13
2.5628456172
 23
3.6664955349
 33
0.0
 40
0.0
 40
0.0
 40
0.0
 40
0.0
 40
0.160111193
 40
0.3142785238
 40
0.4593210532
 40
0.5921389647
 40
0.7099274833
 40
0.810189957
 40
0.8908022498
 40
0.9500620213
 40
0.9867099766
 40
1.0
 40
1.0
 40
1.0
 40
1.0
 10
32.3205171996
 20
31.8776410881
 30
0.0
 10
32.3206718063
 20
32.1163885306
 30
0.0
 10
32.3211859804
 20
32.5850187175
 30
0.0
 10
32.3225591995
 20
33.2699337485
 30
0.0
 10
32.3245832018
 20
33.9141215551
 30
0.0
 10
32.3269200244
 20
34.5041519258
 30
0.0
 10
32.3304369126
 20
35.0271213182
 30
0.0
 10
32.3322634359
 20
35.473086198
 30
0.0
 10
32.3401284079
 20
35.8294488328
 30
0.0
 10
32.3341194441
 20
36.0966187779
 30
0.0
 10
32.3557948422
 20
36.2521302089
 30
0.0
 10
32.3392720523
 20
36.3344964734
 30
0.0
 10
32.3506254784
 20
36.3507390772
 30
0.0
 11
32.3205171996
 21
31.8776410881
 31
0.0
 11
32.3213061196
 21
32.5938831311
 31
0.0
 11
32.3227211383
 21
33.2835348441
 31
0.0
 11
32.3247329483
 21
33.9323659424
 31
0.0
 11
32.3272985995
 21
34.5265089329
 31
0.0
 11
32.3303639432
 21
35.0534159605
 31
0.0
 11
32.3338640102
 21
35.5019171213
 31
0.0
 11
32.3377245765
 21
35.8625080238
 31
0.0
 11
32.3418642317
 21
36.1275687559
 31
0.0
 11
32.3461941976
 21
36.2914527726
 31
0.0
 11
32.3506254784
 21
36.3507390772
 31
0.0
  0
SPLINE
  5
4B4
100
AcDbEntity
  8
RACCORDO
100
AcDbSpline
 62
253
  6
CONTINUOUS
 70
0
 71
3
 72
14
 73
10
 74
8
 42
0.0000001
 43
0.0000001
 44
0.0000000001
 12
-1.5000079567
 22
-0.0130903711
 32
0.0
 13
0.0130893743
 23
-1.5000079654
 33
0.0
 40
0.0
 40
0.0
 40
0.0
 40
0.0
 40
0.025143656
 40
0.0991154662
 40
0.2182482638
 40
0.3765754315
 40
0.5661611341
 40
0.777501127
 40
1.0
 40
1.0
 40
1.0
 40
1.0
 10
-109.1406855755
 20
36.3507380977
 30
0.0
 10
-109.1532574702
 20
36.3506283845
 30
0.0
 10
-109.1290145877
 20
36.2712798247
 30
0.0
 10
-109.1547492343
 20
36.1902964576
 30
0.0
 10
-109.142164712
 20
35.9992186589
 30
0.0
 10
-109.1475564116
 20
35.7720141061
 30
0.0
 10
-109.1446587724
 20
35.4901386813
 30
0.0
 10
-109.1434917466
 20
35.1791413454
 30
0.0
 10
-109.1416563658
 20
34.9620452404
 30
0.0
 10
-109.1406855755
 20
34.8507952132
 30
0.0
 11
-109.1406855755
 21
36.3507380977
 31
0.0
 11
-109.143269813
 21
36.3131096129
 31
0.0
 11
-109.1450681646
 21
36.2021616577
 31
0.0
 11
-109.1459904622
 21
36.0234570887
 31
0.0
 11
-109.1459904622
 21
35.7859560341
 31
0.0
 11
-109.1450681647
 21
35.5015666385
 31
0.0
 11
-109.1432698131
 21
35.184547997
 31
0.0
 11
-109.1406855755
 21
34.8507952132
 31
0.0
  0
SPLINE
  5
4B5
100
AcDbEntity
  8
RACCORDO
100
AcDbSpline
 62
253
  6
CONTINUOUS
 70
0
 71
3
 72
14
 73
10
 74
8
 42
0.0000001
 43
0.0000001
 44
0.0000000001
 12
-1.5000079569
 22
0.0130903711
 32
0.0
 13
0.0130893862
 23
1.5000079655
 33
0.0
 40
0.0
 40
0.0
 40
0.0
 40
0.0
 40
0.0251436882
 40
0.0991155815
 40
0.2182484784
 40
0.3765757161
 40
0.5661614177
 40
0.777501315
 40
1.0
 40
1.0
 40
1.0
 40
1.0
 10
-109.1406855755
 20
-46.3503972609
 30
0.0
 10
-109.1532574862
 20
-46.3502875475
 30
0.0
 10
-109.1290145766
 20
-46.2709388948
 30
0.0
 10
-109.1547492474
 20
-46.1899554484
 30
0.0
 10
-109.1421647169
 20
-45.9988775136
 30
0.0
 10
-109.1475564154
 20
-45.7716728774
 30
0.0
 10
-109.1446587752
 20
-45.4897974669
 30
0.0
 10
-109.143491747
 20
-45.1788002725
 30
0.0
 10
-109.1416563659
 20
-44.9617043096
 30
0.0
 10
-109.1406855755
 20
-44.8504543763
 30
0.0
 11
-109.1406855755
 21
-46.3503972609
 31
0.0
 11
-109.143269817
 21
-46.312768728
 31
0.0
 11
-109.1450681706
 21
-46.201820648
 31
0.0
 11
-109.145990468
 21
-46.0231159301
 31
0.0
 11
-109.1459904665
 21
-45.7856147705
 31
0.0
 11
-109.1450681669
 21
-45.5012253763
 31
0.0
 11
-109.1432698135
 21
-45.1842068782
 31
0.0
 11
-109.1406855755
 21
-44.8504543763
 31
0.0
  0
SPLINE
  5
4B6
100
AcDbEntity
  8
RACCORDO
100
AcDbSpline
 62
253
  6
CONTINUOUS
 70
0
 71
3
 72
25
 73
21
 74
19
 42
0.0000001
 43
0.0000001
 44
0.0000000001
 12
1.4999666205
 22
-0.0136290068
 32
0.0
 13
-0.0087274898
 23
-1.5000031478
 33
0.0
 40
0.0
 40
0.0
 40
0.0
 40
0.0
 40
0.0038393826
 40
0.0152371786
 40
0.0341247618
 40
0.0603608697
 40
0.093746787
 40
0.1340289397
 40
0.1809009113
 40
0.2340061305
 40
0.2929406331
 40
0.3572559874
 40
0.4264627881
 40
0.5000345166
 40
0.5774113479
 40
0.6580042658
 40
0.7412001088
 40
0.8263660881
 40
0.9128533091
 40
1.0
 40
1.0
 40
1.0
 40
1.0
 10
-51.8087111671
 20
36.1597464196
 30
0.0
 10
-51.8067915185
 20
36.1597289772
 30
0.0
 10
-51.809746385
 20
36.1476174322
 30
0.0
 10
-51.805898183
 20
36.1348832009
 30
0.0
 10
-51.8072425604
 20
36.1041820888
 30
0.0
 10
-51.8059558015
 20
36.0659988143
 30
0.0
 10
-51.8058768202
 20
36.0156360133
 30
0.0
 10
-51.8054536914
 20
35.9555116733
 30
0.0
 10
-51.8052671206
 20
35.8853318341
 30
0.0
 10
-51.8051208585
 20
35.8058904626
 30
0.0
 10
-51.8050824306
 20
35.7177062552
 30
0.0
 10
-51.8051316473
 20
35.6214776193
 30
0.0
 10
-51.8052749175
 20
35.517928339
 30
0.0
 10
-51.8055093838
 20
35.4078489394
 30
0.0
 10
-51.8058339883
 20
35.2920764063
 30
0.0
 10
-51.8062461735
 20
35.1714920246
 30
0.0
 10
-51.8067429602
 20
35.0470132682
 30
0.0
 10
-51.8073205037
 20
34.919587626
 30
0.0
 10
-51.8079746364
 20
34.7901868662
 30
0.0
 10
-51.8084576498
 20
34.7033695978
 30
0.0
 10
-51.8087111737
 20
34.659796161
 30
0.0
 11
-51.8087111671
 21
36.1597464196
 31
0.0
 11
-51.8079839179
 21
36.1540333378
 31
0.0
 11
-51.8073285464
 21
36.1369488841
 31
0.0
 11
-51.8067501561
 21
36.1086228749
 31
0.0
 11
-51.8062530783
 21
36.0692711036
 31
0.0
 11
-51.8058411223
 21
36.0191929694
 31
0.0
 11
-51.8055174128
 21
35.9587694578
 31
0.0
 11
-51.8052844169
 21
35.888460549
 31
0.0
 11
-51.8051439064
 21
35.8088013285
 31
0.0
 11
-51.8050969503
 21
35.7203979053
 31
0.0
 11
-51.8051439061
 21
35.6239230499
 31
0.0
 11
-51.8052844167
 21
35.520110969
 31
0.0
 11
-51.8055174129
 21
35.4097515228
 31
0.0
 11
-51.805841123
 21
35.293684519
 31
0.0
 11
-51.8062530804
 21
35.1727935442
 31
0.0
 11
-51.8067501587
 21
35.0479983955
 31
0.0
 11
-51.8073285526
 21
34.9202483055
 31
0.0
 11
-51.8079839216
 21
34.7905166612
 31
0.0
 11
-51.8087111737
 21
34.659796161
 31
0.0
  0
SPLINE
  5
4B7
100
AcDbEntity
  8
RACCORDO
100
AcDbSpline
 62
253
  6
CONTINUOUS
 70
0
 71
3
 72
25
 73
21
 74
19
 42
0.0000001
 43
0.0000001
 44
0.0000000001
 12
0.0087287908
 22
-1.5000020357
 32
0.0
 13
-1.4999646501
 23
-0.0137239711
 33
0.0
 40
0.0
 40
0.0
 40
0.0
 40
0.0
 40
0.0871475377
 40
0.1736347939
 40
0.2588008079
 40
0.3419966758
 40
0.422589596
 40
0.4999664218
 40
0.5735381363
 40
0.642744908
 40
0.7070602198
 40
0.765994669
 40
0.8190998223
 40
0.8659717153
 40
0.9062537816
 40
0.939639604
 40
0.9658756039
 40
0.9847630719
 40
0.9961607462
 40
1.0
 40
1.0
 40
1.0
 40
1.0
 10
-51.8087111671
 20
-44.6594564308
 30
0.0
 10
-51.8084576029
 20
-44.7030302588
 30
0.0
 10
-51.807974658
 20
-44.7898479047
 30
0.0
 10
-51.8073204895
 20
-44.9192490273
 30
0.0
 10
-51.8067429605
 20
-45.0466746232
 30
0.0
 10
-51.8062461706
 20
-45.1711533189
 30
0.0
 10
-51.8058339879
 20
-45.2917376226
 30
0.0
 10
-51.8055093836
 20
-45.4075100618
 30
0.0
 10
-51.8052749178
 20
-45.5175893562
 30
0.0
 10
-51.8051316477
 20
-45.6211385175
 30
0.0
 10
-51.8050824306
 20
-45.7173670202
 30
0.0
 10
-51.8051208582
 20
-45.8055510814
 30
0.0
 10
-51.80526712
 20
-45.8849922964
 30
0.0
 10
-51.8054536919
 20
-45.9551719655
 30
0.0
 10
-51.8058768191
 20
-46.0152961402
 30
0.0
 10
-51.8059558077
 20
-46.0656587339
 30
0.0
 10
-51.8072425504
 20
-46.1038418896
 30
0.0
 10
-51.8058982159
 20
-46.134542643
 30
0.0
 10
-51.8097463277
 20
-46.1472769998
 30
0.0
 10
-51.8067915921
 20
-46.1593880195
 30
0.0
 10
-51.8087111737
 20
-46.1594055828
 30
0.0
 11
-51.8087111671
 21
-44.6594564308
 31
0.0
 11
-51.8079839179
 21
-44.7901781051
 31
0.0
 11
-51.8073285464
 21
-44.9199097066
 31
0.0
 11
-51.8067501561
 21
-45.0476597547
 31
0.0
 11
-51.8062530783
 21
-45.1724548487
 31
0.0
 11
-51.8058411223
 21
-45.293345738
 31
0.0
 11
-51.8055174128
 21
-45.409412648
 31
0.0
 11
-51.8052844169
 21
-45.5197719921
 31
0.0
 11
-51.8051439064
 21
-45.6235839531
 31
0.0
 11
-51.8050969503
 21
-45.7200586737
 31
0.0
 11
-51.8051439061
 21
-45.8084619517
 31
0.0
 11
-51.8052844167
 21
-45.8881210145
 31
0.0
 11
-51.8055174129
 21
-45.9584297538
 31
0.0
 11
-51.805841123
 21
-46.0188530912
 31
0.0
 11
-51.8062530804
 21
-46.0689310462
 31
0.0
 11
-51.8067501587
 21
-46.1082826265
 31
0.0
 11
-51.8073285526
 21
-46.136608442
 31
0.0
 11
-51.8079839216
 21
-46.1536927005
 31
0.0
 11
-51.8087111737
 21
-46.1594055828
 31
0.0
  0
ELLIPSE
  5
4B8
100
AcDbEntity
  8
DRAFT
100
AcDbEllipse
 62
7
  6
CONTINUOUS
 10
29.9389119255
 20
27.5001704184
 30
0.0
 11
-0.0
 21
7.0
 31
0.0
 40
0.0087268678
 41
-0.0002519
 42
0.0714894499
  0
ELLIPSE
  5
4B9
100
AcDbEntity
  8
DRAFT
100
AcDbEllipse
 62
7
  6
CONTINUOUS
 10
-29.9389119255
 20
27.5001704184
 30
0.0
 11
0.0
 21
7.0
 31
0.0
 40
0.0087268678
 41
-0.0714894499
 42
0.0002519
  0
ELLIPSE
  5
4BA
100
AcDbEntity
  8
RACCORDO
100
AcDbEllipse
 62
7
  6
CONTINUOUS
 10
-31.9965092529
 20
-43.5162954658
 30
0.0
 11
0.0
 21
0.4
 31
0.0
 40
0.0087268678
 41
-4.7123889804
 42
-3.2288591162
  0
ELLIPSE
  5
4BB
100
AcDbEntity
  8
RACCORDO
100
AcDbEllipse
 62
7
  6
CONTINUOUS
 10
31.9965092529
 20
-43.5162954658
 30
0.0
 11
0.0
 21
0.4
 31
0.0
 40
0.0087268678
 41
-3.054326191
 42
-1.5707963268
  0
ELLIPSE
  5
4BC
100
AcDbEntity
  8
DRAFT
100
AcDbEllipse
 62
7
  6
CONTINUOUS
 10
-31.9365498608
 20
-39.4998295816
 30
0.0
 11
-0.0
 21
5.0
 31
0.0
 40
0.0087268678
 41
3.054326191
 42
4.6122215592
  0
ELLIPSE
  5
4BD
100
AcDbEntity
  8
DRAFT
100
AcDbEllipse
 62
7
  6
CONTINUOUS
 10
31.9365498608
 20
-39.4998295816
 30
0.0
 11
0.0
 21
5.0
 31
0.0
 40
0.0087268678
 41
-4.6122215592
 42
-3.054326191
  0
ELLIPSE
  5
4BE
100
AcDbEntity
  8
DRAFT
100
AcDbEllipse
 62
7
  6
CONTINUOUS
 10
-34.9322275777
 20
-4.9998295816
 30
0.0
 11
0.0
 21
350.0
 31
0.0
 40
0.0087268678
 41
-1.670963748
 42
-1.4706832549
  0
ELLIPSE
  5
4BF
100
AcDbEntity
  8
DRAFT
100
AcDbEllipse
 62
7
  6
CONTINUOUS
 10
34.9322275777
 20
-4.9998295816
 30
0.0
 11
0.0
 21
350.0
 31
0.0
 40
0.0087268678
 41
1.4706832549
 42
1.670963748
  0
ELLIPSE
  5
4C0
100
AcDbEntity
  8
DRAFT
100
AcDbEllipse
 62
7
  6
CONTINUOUS
 10
-31.9365335019
 20
29.4815138414
 30
0.0
 11
0.0
 21
5.0
 31
0.0
 40
0.0087268678
 41
-1.4706832549
 42
-0.136695483
  0
ELLIPSE
  5
4C1
100
AcDbEntity
  8
DRAFT
100
AcDbEllipse
 62
7
  6
CONTINUOUS
 10
31.9365335019
 20
29.4815138414
 30
0.0
 11
0.0
 21
5.0
 31
0.0
 40
0.0087268678
 41
0.136695483
 42
1.4706832549
  0
ELLIPSE
  5
4C2
100
AcDbEntity
  8
RACCORDO
100
AcDbEllipse
 62
7
  6
CONTINUOUS
 10
26.0396327326
 20
-27.3379273815
 30
0.0
 11
-0.0937991149
 21
1.4615514256
 31
-0.0
 40
0.3413998745
 41
3.4942557609
 42
3.9723492626
  0
ELLIPSE
  5
4C3
100
AcDbEntity
  8
RACCORDO
100
AcDbEllipse
 62
7
  6
CONTINUOUS
 10
-26.0396327326
 20
-27.3379273815
 30
0.0
 11
0.0937991149
 21
1.4615514256
 31
-0.0
 40
0.3413998745
 41
2.3108360446
 42
2.788948798
  0
ELLIPSE
  5
4C4
100
AcDbEntity
  8
RACCORDO
100
AcDbEllipse
 62
7
  6
CONTINUOUS
 10
26.0396327326
 20
17.3382682183
 30
0.0
 11
-0.0937991149
 21
-1.4615514256
 31
0.0
 40
0.3413998745
 41
2.3108360446
 42
2.788948798
  0
ELLIPSE
  5
4C5
100
AcDbEntity
  8
RACCORDO
100
AcDbEllipse
 62
7
  6
CONTINUOUS
 10
-26.0396327326
 20
17.3382682183
 30
0.0
 11
0.0937991149
 21
-1.4615514256
 31
0.0
 40
0.3413998745
 41
3.4942557609
 42
3.9723492626
  0
ELLIPSE
  5
4C6
100
AcDbEntity
  8
DRAFT
100
AcDbEllipse
 62
7
  6
CONTINUOUS
 10
31.9389119255
 20
27.5001704184
 30
0.0
 11
-0.0
 21
7.0
 31
0.0
 40
0.0087268678
 41
4.7123889804
 42
6.4198807902
  0
ELLIPSE
  5
4C7
100
AcDbEntity
  8
DRAFT
100
AcDbEllipse
 62
7
  6
CONTINUOUS
 10
-31.9389119255
 20
27.5001704184
 30
0.0
 11
-0.0
 21
7.0
 31
0.0
 40
0.0087268678
 41
-0.136695483
 42
1.5707963268
  0
ELLIPSE
  5
4C8
100
AcDbEntity
  8
DRAFT
100
AcDbEllipse
 62
7
  6
CONTINUOUS
 10
34.5499527769
 20
-4.9998295816
 30
0.0
 11
0.0
 21
348.5
 31
0.0
 40
0.1763269807
 41
1.5038884546
 42
1.637704199
  0
ELLIPSE
  5
4C9
100
AcDbEntity
  8
DRAFT
100
AcDbEllipse
 62
7
  6
CONTINUOUS
 10
-34.5499527769
 20
-4.9998295816
 30
0.0
 11
0.0
 21
348.5
 31
0.0
 40
0.1763269807
 41
-1.637704199
 42
-1.5038884546
  0
ELLIPSE
  5
4CA
100
AcDbEntity
  8
RACCORDO
100
AcDbEllipse
 62
7
  6
CONTINUOUS
 10
-32.4999428824
 20
-44.999772464
 30
0.0
 11
1.0607409467
 21
1.0607409467
 31
0.0
 40
0.9999238505
 41
-3.9269527408
 42
-2.3562325664
  0
ELLIPSE
  5
4CB
100
AcDbEntity
  8
RACCORDO
100
AcDbEllipse
 62
7
  6
CONTINUOUS
 10
32.4999428824
 20
-44.999772464
 30
0.0
 11
-1.0607409467
 21
1.0607409467
 31
0.0
 40
0.9999238505
 41
-3.9269527408
 42
-2.3562325664
  0
ELLIPSE
  5
4CC
100
AcDbEntity
  8
RACCORDO
100
AcDbEllipse
 62
7
  6
CONTINUOUS
 10
32.4999428824
 20
35.0001133008
 30
0.0
 11
1.0607409467
 21
1.0607409467
 31
0.0
 40
0.9999238505
 41
-0.7853600872
 42
0.7853600872
  0
ELLIPSE
  5
4CD
100
AcDbEntity
  8
RACCORDO
100
AcDbEllipse
 62
7
  6
CONTINUOUS
 10
-32.4999428824
 20
35.0001133008
 30
0.0
 11
-1.0607409467
 21
1.0607409467
 31
0.0
 40
0.9999238505
 41
-0.7853600872
 42
0.7853600872
  0
ELLIPSE
  5
4CE
100
AcDbEntity
  8
RACCORDO
100
AcDbEllipse
 62
7
  6
CONTINUOUS
 10
29.2721358562
 20
-4.9998295816
 30
0.0
 11
0.0
 21
350.0
 31
0.0
 40
0.0087268678
 41
-1.4839918954
 42
-1.4652358764
  0
ELLIPSE
  5
4CF
100
AcDbEntity
  8
RACCORDO
100
AcDbEllipse
 62
7
  6
CONTINUOUS
 10
-12.132302676
 20
-41.3505876456
 30
0.0
 11
0.0
 21
5.0
 31
0.0
 40
0.0174550649
 41
-3.5395839667
 42
-3.1503192998
  0
ELLIPSE
  5
4D0
100
AcDbEntity
  8
DRAFT
100
AcDbEllipse
 62
7
  6
CONTINUOUS
 10
-32.2661463
 20
-41.3505876456
 30
0.0
 11
-0.0
 21
5.0
 31
0.0
 40
0.0087268678
 41
-4.60682853
 42
-3.7653350661
  0
ELLIPSE
  5
4D1
100
AcDbEntity
  8
DRAFT
100
AcDbEllipse
 62
7
  6
CONTINUOUS
 10
32.2661463
 20
-41.3505876456
 30
0.0
 11
-0.0
 21
5.0
 31
0.0
 40
0.0087268678
 41
-2.5178502411
 42
-1.6763567772
  0
ELLIPSE
  5
4D2
100
AcDbEntity
  8
RACCORDO
100
AcDbEllipse
 62
7
  6
CONTINUOUS
 10
12.132302676
 20
-41.3505876456
 30
0.0
 11
0.0
 21
5.0
 31
0.0
 40
0.0174550649
 41
-3.1328660073
 42
-2.7436013405
  0
ELLIPSE
  5
4D3
100
AcDbEntity
  8
RACCORDO
100
AcDbEllipse
 62
7
  6
CONTINUOUS
 10
-13.1659754449
 20
-44.7827348256
 30
0.0
 11
1.0
 21
-0.0
 31
0.0
 40
0.0087268678
 41
-1.5707963268
 42
-0.0174532925
  0
ELLIPSE
  5
4D4
100
AcDbEntity
  8
RACCORDO
100
AcDbEllipse
 62
7
  6
CONTINUOUS
 10
-32.0416225922
 20
-44.5414521738
 30
0.0
 11
0.1767901578
 21
0.1767901578
 31
0.0
 40
0.9999238505
 41
2.3562325663
 42
3.9269527407
  0
ELLIPSE
  5
4D5
100
AcDbEntity
  8
RACCORDO
100
AcDbEllipse
 62
7
  6
CONTINUOUS
 10
32.0416225922
 20
-44.5414521738
 30
0.0
 11
0.1767901578
 21
-0.1767901578
 31
0.0
 40
0.9999238505
 41
-0.7853600871
 42
0.7853600873
  0
ELLIPSE
  5
4D6
100
AcDbEntity
  8
RACCORDO
100
AcDbEllipse
 62
7
  6
CONTINUOUS
 10
32.0416225922
 20
34.5417930106
 30
0.0
 11
0.1767901577
 21
0.1767901578
 31
0.0
 40
0.9999238505
 41
-0.7853600874
 42
0.785360087
  0
ELLIPSE
  5
4D7
100
AcDbEntity
  8
RACCORDO
100
AcDbEllipse
 62
7
  6
CONTINUOUS
 10
-32.0416225922
 20
34.5417930106
 30
0.0
 11
-0.1767901578
 21
0.1767901578
 31
0.0
 40
0.9999238505
 41
-0.7853600873
 42
0.7853600871
  0
ELLIPSE
  5
4D8
100
AcDbEntity
  8
RACCORDO
100
AcDbEllipse
 62
7
  6
CONTINUOUS
 10
-31.9499904804
 20
34.4501608988
 30
0.0
 11
0.1767901578
 21
-0.1767901578
 31
0.0
 40
0.9999238505
 41
2.3562325664
 42
3.9269527408
  0
ELLIPSE
  5
4D9
100
AcDbEntity
  8
RACCORDO
100
AcDbEllipse
 62
7
  6
CONTINUOUS
 10
31.9499904804
 20
34.4501608988
 30
0.0
 11
-0.1767901578
 21
-0.1767901578
 31
0.0
 40
0.9999238505
 41
2.3562325664
 42
3.9269527408
  0
ELLIPSE
  5
4DA
100
AcDbEntity
  8
RACCORDO
100
AcDbEllipse
 62
7
  6
CONTINUOUS
 10
31.9499904804
 20
-44.449820062
 30
0.0
 11
-0.1767901578
 21
0.1767901578
 31
0.0
 40
0.9999238505
 41
2.3562325664
 42
3.9269527408
  0
ELLIPSE
  5
4DB
100
AcDbEntity
  8
RACCORDO
100
AcDbEllipse
 62
7
  6
CONTINUOUS
 10
-31.9499904804
 20
-44.449820062
 30
0.0
 11
0.1767901578
 21
0.1767901578
 31
0.0
 40
0.9999238505
 41
2.3562325664
 42
3.9269527408
  0
ELLIPSE
  5
4DC
100
AcDbEntity
  8
RACCORDO
100
AcDbEllipse
 62
7
  6
CONTINUOUS
 10
13.1659754449
 20
-44.7827348256
 30
0.0
 11
1.0
 21
0.0
 31
0.0
 40
0.0087268678
 41
-3.1241393611
 42
-1.5707963268
  0
ELLIPSE
  5
4DD
100
AcDbEntity
  8
DRAFT
100
AcDbEllipse
 62
7
  6
CONTINUOUS
 10
32.2661463
 20
31.3509284824
 30
0.0
 11
0.0
 21
5.0
 31
0.0
 40
0.0087268678
 41
-1.4652358764
 42
-0.6237424125
  0
ELLIPSE
  5
4DE
100
AcDbEntity
  8
DRAFT
100
AcDbEllipse
 62
7
  6
CONTINUOUS
 10
-32.2661463
 20
31.3509284824
 30
0.0
 11
-0.0
 21
5.0
 31
0.0
 40
0.0087268678
 41
0.6237424125
 42
1.4652358764
  0
ELLIPSE
  5
4DF
100
AcDbEntity
  8
RACCORDO
100
AcDbEllipse
 62
7
  6
CONTINUOUS
 10
-29.2721358562
 20
-4.9998295816
 30
0.0
 11
0.0
 21
350.0
 31
0.0
 40
0.0087268678
 41
-4.625584549
 42
-4.60682853
  0
ELLIPSE
  5
4E0
100
AcDbEntity
  8
RACCORDO
100
AcDbEllipse
 62
7
  6
CONTINUOUS
 10
-29.2721358562
 20
-4.9998295816
 30
0.0
 11
0.0
 21
350.0
 31
0.0
 40
0.0087268678
 41
1.4652358764
 42
1.4839918954
  0
ELLIPSE
  5
4E1
100
AcDbEntity
  8
RACCORDO
100
AcDbEllipse
 62
7
  6
CONTINUOUS
 10
29.2721358562
 20
-4.9998295816
 30
0.0
 11
0.0
 21
350.0
 31
0.0
 40
0.0087268678
 41
-1.6763567772
 42
-1.6576007582
  0
ENDSEC
  0
SECTION
  2
OBJECTS
  0
DICTIONARY
  5
C
100
AcDbDictionary
280
0
281
1
  3
ACAD_GROUP
350
D
  3
ACAD_MLINESTYLE
350
17
  3
ACAD_LAYOUT
350
1A
  3
ACAD_PLOTSETTINGS
350
19
  3
ACAD_PLOTSTYLENAME
350
E
  0
DICTIONARY
  5
D
102
{ACAD_REACTORS
330
C
102
}
100
AcDbDictionary
280
0
281
1
  0
ACDBDICTIONARYWDFLT
  5
E
102
{ACAD_REACTORS
330
C
102
}
100
AcDbDictionary
281
1
  3
Normal
350
F
100
AcDbDictionaryWithDefault
340
F
  0
DICTIONARY
  5
17
102
{ACAD_REACTORS
330
C
102
}
100
AcDbDictionary
280
0
281
1
  3
Standard
350
18
  0
DICTIONARY
  5
19
102
{ACAD_REACTORS
330
C
102
}
100
AcDbDictionary
281
1
  0
DICTIONARY
  5
1A
102
{ACAD_REACTORS
330
C
102
}
100
AcDbDictionary
281
1
  3
Model
350
4E2
  3
Layout1
350
4E3
  0
ACDBPLACEHOLDER
  5
F
102
{ACAD_REACTORS
330
E
102
}
  0
MLINESTYLE
  5
18
102
{ACAD_REACTORS
330
17
102
}
100
AcDbMlineStyle
  2
STANDARD
 70
0
  3

 62
256
 51
90.0
 52
90.0
 71
2
 49
0.5
 62
256
  6
BYLAYER
 49
-0.5
 62
256
  6
BYLAYER
  0
LAYOUT
  5
4E2
102
{ACAD_REACTORS
330
1A
102
}
100
AcDbPlotSettings
  1

  2
none_device
  4
ISO_A4_(297.00_x_210.00_MM)
  6

 40
0.0
 41
0.0
 42
0.0
 43
0.0
 44
297.0
 45
210.0
 46
0.0
 47
0.0
 48
0.0
 49
0.0
140
0.0
141
0.0
142
1.0
143
1.0
 70
1024
 72
1
 73
0
 74
0
  7

 75
0
147
1.0
148
0.0
149
0.0
100
AcDbLayout
  1
Model
 70
0
 71
0
 10
0.0
 20
0.0
 11
297.0
 21
210.0
 12
0.0
 22
0.0
 32
0.0
 14
0.0
 24
0.0
 34
0.0
 15
0.0
 25
0.0
 35
0.0
146
0.0
 13
0.0
 23
0.0
 33
0.0
 16
1.0
 26
0.0
 36
0.0
 17
0.0
 27
1.0
 37
0.0
 76
0
330
218
345
0
346
0
  0
LAYOUT
  5
4E3
102
{ACAD_REACTORS
330
1A
102
}
100
AcDbPlotSettings
  1

  2
none_device
  4
ISO_A4_(297.00_x_210.00_MM)
  6

 40
0.0
 41
0.0
 42
0.0
 43
0.0
 44
297.0
 45
210.0
 46
0.0
 47
0.0
 48
0.0
 49
0.0
140
0.0
141
0.0
142
1.0
143
1.0
 70
0
 72
1
 73
0
 74
0
  7

 75
0
147
1.0
148
0.0
149
0.0
100
AcDbLayout
  1
Layout1
 70
0
 71
1
 10
0.0
 20
0.0
 11
297.0
 21
210.0
 12
0.0
 22
0.0
 32
0.0
 14
0.0
 24
0.0
 34
0.0
 15
0.0
 25
0.0
 35
0.0
146
0.0
 13
0.0
 23
0.0
 33
0.0
 16
1.0
 26
0.0
 36
0.0
 17
0.0
 27
1.0
 37
0.0
 76
0
330
219
345
0
346
0
  0
ENDSEC
  0
EOF
