  0
SECTION
  2
HEADER
  9
$ACADVER
  1
AC1024
  9
$DWGCODEPAGE
  3
ANSI_1252
  9
$EXTMAX
 10
297.0
 20
210.0
 30
0.0
  9
$EXTMIN
 10
0.0
 20
0.0
 30
0.0
  9
$LIMMIN
 10
0.0
 20
0.0
  9
$LIMMAX
 10
297.0
 20
210.0
  9
$VIEWCTR
 10
148.5
 20
105.0
  9
$VIEWSIZE
 40
210.0
  9
$CLAYER
  8
0
  9
$LTSCALE
 40
16.335
  9
$CELTYPE
  6
BYLAYER
  9
$DIMSCALE
 40
1.0
  9
$DIMASZ
 40
3.0
  9
$DIMEXO
 40
0.5
  9
$DIMDLI
 40
11.286
  9
$DIMEXE
 40
1.5
  9
$DIMCEN
 40
2.673
  9
$DIMLFAC
 40
1.0
  9
$DIMBLK
  1
_FILLED
  9
$DIMALT
 70
0
  9
$DIMALTF
 40
0.0393700787
  9
$DIMTXT
 40
3.0
  9
$DIMTOL
 70
1
  9
$DIMLIM
 70
0
  9
$DIMTFAC
 40
1.0
  9
$DIMTP
 40
0.01
  9
$DIMTM
 40
0.01
  9
$DIMGAP
 40
0.625
  9
$DIMDSEP
 70
44
  9
$AUNITS
 70
0
  9
$PDMODE
 70
3
  9
$PDSIZE
 40
3.0
  9
$HANDSEED
  5
3CA
  9
$TILEMODE
 70
1
  9
$MEASUREMENT
 70
1
  9
$INSUNITS
 70
4
  0
ENDSEC
  0
SECTION
  2
CLASSES
  0
CLASS
  1
ACDBDICTIONARYWDFLT
  2
AcDbDictionaryWithDefault
  3
AutoCAD 2000
 90
0
 91
1
280
0
281
0
  0
CLASS
  1
ACDBPLACEHOLDER
  2
AcDbPlaceHolder
  3
AutoCAD 2000
 90
0
 91
1
280
0
281
0
  0
CLASS
  1
LAYOUT
  2
AcDbLayout
  3
AutoCAD 2000
 90
0
 91
0
280
0
281
0
  0
ENDSEC
  0
SECTION
  2
TABLES
  0
TABLE
  2
VPORT
  5
8
100
AcDbSymbolTable
 70
2
  0
VPORT
  5
1F4
100
AcDbSymbolTableRecord
100
AcDbViewportTableRecord
  2
*ACTIVE
 70
0
 10
0.0
 20
0.0
 11
1.0
 21
1.0
 12
148.5
 22
105.0
 13
0.0
 23
0.0
 14
1.0
 24
1.0
 15
0.0
 25
0.0
 16
0.0
 26
0.0
 36
1.0
 17
0.0
 27
0.0
 37
0.0
 40
210.0
 41
1.4142857143
 42
50.0
 43
0.0
 44
0.0
 50
0.0
 51
0.0
 71
0
 72
100
 73
1
 74
1
 75
0
 76
0
 77
0
 78
0
  0
ENDTAB
  0
TABLE
  2
LTYPE
  5
5
100
AcDbSymbolTable
 70
6
  0
LTYPE
  5
14
100
AcDbSymbolTableRecord
100
AcDbLinetypeTableRecord
  2
BYBLOCK
 70
0
  3

 72
65
 73
0
 40
0.0
  0
LTYPE
  5
15
100
AcDbSymbolTableRecord
100
AcDbLinetypeTableRecord
  2
BYLAYER
 70
0
  3

 72
65
 73
0
 40
0.0
  0
LTYPE
  5
16
100
AcDbSymbolTableRecord
100
AcDbLinetypeTableRecord
  2
CONTINUOUS
 70
64
  3
Solid line
 72
65
 73
0
 40
0.0
  0
LTYPE
  5
1F5
100
AcDbSymbolTableRecord
100
AcDbLinetypeTableRecord
  2
CENTER
 70
64
  3
____ _ ____ _ ____ _ ____ _ ____ _ ____ _ ____
 72
65
 73
4
 40
0.6
 49
0.375
 74
0
 49
-0.075
 74
0
 49
0.075
 74
0
 49
-0.075
 74
0
  0
LTYPE
  5
1F6
100
AcDbSymbolTableRecord
100
AcDbLinetypeTableRecord
  2
HIDDEN
 70
64
  3
- - - - - - - - - - - - - - - - - - - -
 72
65
 73
2
 40
0.2
 49
0.1
 74
0
 49
-0.1
 74
0
  0
LTYPE
  5
1F7
100
AcDbSymbolTableRecord
100
AcDbLinetypeTableRecord
  2
PHANTOM
 70
64
  3
_____ _ _ _____ _ _ _____ _ _ _____
 72
65
 73
6
 40
0.8
 49
0.45
 74
0
 49
-0.05
 74
0
 49
0.1
 74
0
 49
-0.05
 74
0
 49
0.1
 74
0
 49
-0.05
 74
0
  0
LTYPE
  5
1F8
100
AcDbSymbolTableRecord
100
AcDbLinetypeTableRecord
  2
DOT
 70
64
  3
. . . . . . . . . . . . . . . . . . . .
 72
65
 73
2
 40
0.2
 49
0.1
 74
0
 49
-0.1
 74
0
  0
LTYPE
  5
1F9
100
AcDbSymbolTableRecord
100
AcDbLinetypeTableRecord
  2
DASHED
 70
64
  3
- - - - - - - - - - - - - - - - - - - -
 72
65
 73
2
 40
0.2
 49
0.1
 74
0
 49
-0.1
 74
0
  0
ENDTAB
  0
TABLE
  2
LAYER
  5
2
100
AcDbSymbolTable
 70
36
  0
LAYER
  5
10
100
AcDbSymbolTableRecord
100
AcDbLayerTableRecord
  2
0
 70
0
 62
7
  6
CONTINUOUS
370
-3
390
F
  0
LAYER
  5
1FA
100
AcDbSymbolTableRecord
100
AcDbLayerTableRecord
  2
DEFAULT_1
 70
0
 62
7
  6
CENTER
370
-3
390
F
  0
LAYER
  5
1FB
100
AcDbSymbolTableRecord
100
AcDbLayerTableRecord
  2
DEFAULT_2
 70
0
 62
7
  6
HIDDEN
370
-3
390
F
  0
LAYER
  5
1FC
100
AcDbSymbolTableRecord
100
AcDbLayerTableRecord
  2
DEFAULT_3
 70
0
 62
7
  6
PHANTOM
370
-3
390
F
  0
LAYER
  5
1FD
100
AcDbSymbolTableRecord
100
AcDbLayerTableRecord
  2
ASSI
 70
0
 62
7
  6
CONTINUOUS
370
-3
390
F
  0
LAYER
  5
1FE
100
AcDbSymbolTableRecord
100
AcDbLayerTableRecord
  2
COLOR5
 70
0
 62
7
  6
CONTINUOUS
370
-3
390
F
  0
LAYER
  5
1FF
100
AcDbSymbolTableRecord
100
AcDbLayerTableRecord
  2
COORDINATE
 70
0
 62
7
  6
CONTINUOUS
370
-3
390
F
  0
LAYER
  5
200
100
AcDbSymbolTableRecord
100
AcDbLayerTableRecord
  2
COORD_ORIGINE
 70
0
 62
7
  6
CONTINUOUS
370
-3
390
F
  0
LAYER
  5
201
100
AcDbSymbolTableRecord
100
AcDbLayerTableRecord
  2
CURVE
 70
0
 62
7
  6
CONTINUOUS
370
-3
390
F
  0
LAYER
  5
202
100
AcDbSymbolTableRecord
100
AcDbLayerTableRecord
  2
DRAFT
 70
0
 62
7
  6
CONTINUOUS
370
-3
390
F
  0
LAYER
  5
203
100
AcDbSymbolTableRecord
100
AcDbLayerTableRecord
  2
IGES-SCRITTE
 70
0
 62
7
  6
CONTINUOUS
370
-3
390
F
  0
LAYER
  5
204
100
AcDbSymbolTableRecord
100
AcDbLayerTableRecord
  2
NOTE
 70
0
 62
7
  6
CONTINUOUS
370
-3
390
F
  0
LAYER
  5
205
100
AcDbSymbolTableRecord
100
AcDbLayerTableRecord
  2
PIANI
 70
0
 62
7
  6
CONTINUOUS
370
-3
390
F
  0
LAYER
  5
206
100
AcDbSymbolTableRecord
100
AcDbLayerTableRecord
  2
PIANI_ORIGINE
 70
0
 62
7
  6
CONTINUOUS
370
-3
390
F
  0
LAYER
  5
207
100
AcDbSymbolTableRecord
100
AcDbLayerTableRecord
  2
PUNTI
 70
0
 62
7
  6
CONTINUOUS
370
-3
390
F
  0
LAYER
  5
208
100
AcDbSymbolTableRecord
100
AcDbLayerTableRecord
  2
RACCORDO
 70
0
 62
7
  6
CONTINUOUS
370
-3
390
F
  0
LAYER
  5
209
100
AcDbSymbolTableRecord
100
AcDbLayerTableRecord
  2
SMUSSO
 70
0
 62
7
  6
CONTINUOUS
370
-3
390
F
  0
LAYER
  5
20A
100
AcDbSymbolTableRecord
100
AcDbLayerTableRecord
  2
SNAPLINE
 70
0
 62
7
  6
CONTINUOUS
370
-3
390
F
  0
LAYER
  5
20B
100
AcDbSymbolTableRecord
100
AcDbLayerTableRecord
  2
SUPERFICI
 70
0
 62
7
  6
CONTINUOUS
370
-3
390
F
  0
LAYER
  5
20C
100
AcDbSymbolTableRecord
100
AcDbLayerTableRecord
  2
TRASH
 70
0
 62
7
  6
CONTINUOUS
370
-3
390
F
  0
ENDTAB
  0
TABLE
  2
STYLE
  5
3
100
AcDbSymbolTable
 70
1
  0
STYLE
  5
11
100
AcDbSymbolTableRecord
100
AcDbTextStyleTableRecord
  2
STANDARD
 70
0
 40
0.0
 41
0.8
 50
0.0
 71
0
 42
0.2
  3
txt
  4

  0
STYLE
  5
20D
100
AcDbSymbolTableRecord
100
AcDbTextStyleTableRecord
  2
TEXTSTYLE_1
 70
0
 40
0.0
 41
0.8
 50
0.0
 71
0
 42
0.2
  3
gdt
  4

  0
ENDTAB
  0
TABLE
  2
VIEW
  5
6
100
AcDbSymbolTable
 70
0
  0
ENDTAB
  0
TABLE
  2
UCS
  5
7
100
AcDbSymbolTable
 70
0
  0
ENDTAB
  0
TABLE
  2
APPID
  5
9
100
AcDbSymbolTable
 70
1
  0
APPID
  5
20E
100
AcDbSymbolTableRecord
100
AcDbRegAppTableRecord
  2
ACAD
 70
0
  0
ENDTAB
  0
TABLE
  2
BLOCK_RECORD
  5
1
100
AcDbSymbolTable
 70
0
  0
BLOCK_RECORD
  5
20F
100
AcDbSymbolTableRecord
100
AcDbBlockTableRecord
  2
*Model_Space
  0
BLOCK_RECORD
  5
210
100
AcDbSymbolTableRecord
100
AcDbBlockTableRecord
  2
*Paper_Space
  0
BLOCK_RECORD
  5
211
100
AcDbSymbolTableRecord
100
AcDbBlockTableRecord
  2
_FILLED
  0
BLOCK_RECORD
  5
212
100
AcDbSymbolTableRecord
100
AcDbBlockTableRecord
  2
*D0
  0
BLOCK_RECORD
  5
213
100
AcDbSymbolTableRecord
100
AcDbBlockTableRecord
  2
*D1
  0
BLOCK_RECORD
  5
214
100
AcDbSymbolTableRecord
100
AcDbBlockTableRecord
  2
*D2
  0
BLOCK_RECORD
  5
215
100
AcDbSymbolTableRecord
100
AcDbBlockTableRecord
  2
*D3
  0
BLOCK_RECORD
  5
216
100
AcDbSymbolTableRecord
100
AcDbBlockTableRecord
  2
*D4
  0
BLOCK_RECORD
  5
217
100
AcDbSymbolTableRecord
100
AcDbBlockTableRecord
  2
*D5
  0
ENDTAB
  0
TABLE
  2
DIMSTYLE
  5
A
100
AcDbSymbolTable
 70
1
100
AcDbDimStyleTable
 71
0
  0
DIMSTYLE
105
218
100
AcDbSymbolTableRecord
100
AcDbDimStyleTableRecord
  2
STANDARD
 70
0
  3

  4

 40
1.0
 41
3.0
 42
0.5
 43
0.38
 44
1.5
 45
0.0
 46
0.0
 47
0.01
 48
0.01
140
3.0
141
0.09
142
0.0
143
25.4
144
1.0
145
0.0
146
1.0
147
0.625
 71
1.0
 72
0.0
 73
0
 74
0
 75
0
 76
0
 77
1
 78
8
 79
2
170
0
171
1
172
0
173
0
174
0
175
0
176
0
177
0
178
0
270
2
179
2
271
2
272
2
273
2
274
2
275
0
280
0
281
0
282
0
283
1
284
8
285
0
286
0
287
3
288
0
340
11
278
44
341
211
342
211
343
211
344
211
  0
DIMSTYLE
105
219
100
AcDbSymbolTableRecord
100
AcDbDimStyleTableRecord
  2
DIMSTYLE_1
 70
0
  3

  4

 40
1.0
 41
3.0
 42
0.5
 43
0.38
 44
1.5
 45
0.0
 46
0.0
 47
0.0
 48
0.0
140
3.0
141
0.09
142
0.0
143
25.4
144
1.0
145
0.0
146
1.0
147
0.75
 71
0.0
 72
0.0
 73
0
 74
0
 75
0
 76
0
 77
1
 78
8
 79
2
170
0
171
1
172
0
173
0
174
0
175
0
176
0
177
0
178
0
270
2
179
2
271
2
272
2
273
2
274
2
275
0
280
0
281
0
282
0
283
1
284
8
285
0
286
0
287
3
288
0
340
11
278
44
341
211
342
211
343
211
344
211
  0
ENDTAB
  0
ENDSEC
  0
SECTION
  2
BLOCKS
  0
BLOCK
  5
20
100
AcDbEntity
  8
0
100
AcDbBlockBegin
  2
*Model_Space
 70
0
 10
0.0
 20
0.0
 30
0.0
  3
*Model_Space
  1

  0
ENDBLK
  5
21
100
AcDbEntity
  8
0
100
AcDbBlockEnd
  0
BLOCK
  5
1C
100
AcDbEntity
  8
0
100
AcDbBlockBegin
  2
*Paper_Space
 70
0
 10
0.0
 20
0.0
 30
0.0
  3
*Paper_Space
  1

  0
ENDBLK
  5
1D
100
AcDbEntity
  8
0
100
AcDbBlockEnd
  0
BLOCK
  5
21A
100
AcDbEntity
  8
0
100
AcDbBlockBegin
  2
_FILLED
 70
64
 10
0.0
 20
0.0
  3
_FILLED
  1

  0
SOLID
  5
21B
100
AcDbEntity
  8
0
  6
BYBLOCK
 62
0
100
AcDbTrace
 10
0.0
 20
0.0
 11
-1.0
 21
0.3166666667
 12
-1.0
 22
-0.3166666667
 13
-1.0
 23
-0.3166666667
  0
ENDBLK
  5
21C
100
AcDbEntity
  8
0
  6
BYBLOCK
 62
0
100
AcDbBlockEnd
  0
BLOCK
  5
21D
100
AcDbEntity
  8
0
100
AcDbBlockBegin
 62
7
  6
CONTINUOUS
  2
*D0
 70
65
 10
0.0
 20
0.0
  3
*D0
  1

  0
LINE
  5
21E
100
AcDbEntity
  8
0
100
AcDbLine
 62
7
  6
CONTINUOUS
 10
104.2167119047
 20
147.241364755
 11
104.2167119047
 21
177.2412505241
  0
LINE
  5
21F
100
AcDbEntity
  8
0
100
AcDbLine
 62
7
  6
CONTINUOUS
 10
225.7167119047
 20
147.241364755
 11
225.7167119047
 21
177.2412505241
  0
LINE
  5
220
100
AcDbEntity
  8
0
100
AcDbLine
 62
7
  6
CONTINUOUS
 10
104.2167119047
 20
175.7412505241
 11
164.9667119047
 21
175.7412505241
  0
LINE
  5
221
100
AcDbEntity
  8
0
100
AcDbLine
 62
7
  6
CONTINUOUS
 10
225.7167119047
 20
175.7412505241
 11
164.9667119047
 21
175.7412505241
  0
INSERT
  5
222
100
AcDbEntity
  8
0
100
AcDbBlockReference
 62
7
  6
CONTINUOUS
  2
_FILLED
 10
104.2167119047
 20
175.7412505241
 41
3.0
 42
3.0
 43
3.0
 50
180.0
  0
INSERT
  5
223
100
AcDbEntity
  8
0
100
AcDbBlockReference
 62
7
  6
CONTINUOUS
  2
_FILLED
 10
225.7167119047
 20
175.7412505241
 41
3.0
 42
3.0
 43
3.0
  0
ENDBLK
  5
224
100
AcDbEntity
  8
0
  6
BYBLOCK
 62
0
100
AcDbBlockEnd
  0
BLOCK
  5
225
100
AcDbEntity
  8
0
100
AcDbBlockBegin
 62
7
  6
CONTINUOUS
  2
*D1
 70
65
 10
0.0
 20
0.0
  3
*D1
  1

  0
LINE
  5
226
100
AcDbEntity
  8
0
100
AcDbLine
 62
7
  6
CONTINUOUS
 10
115.9667119047
 20
138.4693440828
 11
115.9667119047
 21
169.2412505241
  0
LINE
  5
227
100
AcDbEntity
  8
0
100
AcDbLine
 62
7
  6
CONTINUOUS
 10
213.9667119047
 20
138.4693440828
 11
213.9667119047
 21
169.2412505241
  0
LINE
  5
228
100
AcDbEntity
  8
0
100
AcDbLine
 62
7
  6
CONTINUOUS
 10
115.9667119047
 20
167.7412505241
 11
164.9667119047
 21
167.7412505241
  0
LINE
  5
229
100
AcDbEntity
  8
0
100
AcDbLine
 62
7
  6
CONTINUOUS
 10
213.9667119047
 20
167.7412505241
 11
164.9667119047
 21
167.7412505241
  0
INSERT
  5
22A
100
AcDbEntity
  8
0
100
AcDbBlockReference
 62
7
  6
CONTINUOUS
  2
_FILLED
 10
115.9667119047
 20
167.7412505241
 41
3.0
 42
3.0
 43
3.0
 50
180.0
  0
INSERT
  5
22B
100
AcDbEntity
  8
0
100
AcDbBlockReference
 62
7
  6
CONTINUOUS
  2
_FILLED
 10
213.9667119047
 20
167.7412505241
 41
3.0
 42
3.0
 43
3.0
  0
ENDBLK
  5
22C
100
AcDbEntity
  8
0
  6
BYBLOCK
 62
0
100
AcDbBlockEnd
  0
BLOCK
  5
22D
100
AcDbEntity
  8
0
100
AcDbBlockBegin
 62
7
  6
CONTINUOUS
  2
*D2
 70
65
 10
0.0
 20
0.0
  3
*D2
  1

  0
LINE
  5
22E
100
AcDbEntity
  8
0
100
AcDbLine
 62
7
  6
CONTINUOUS
 10
123.1667119047
 20
108.4912505241
 11
123.1667119047
 21
161.2412505241
  0
LINE
  5
22F
100
AcDbEntity
  8
0
100
AcDbLine
 62
7
  6
CONTINUOUS
 10
206.7667119047
 20
108.4912505241
 11
206.7667119047
 21
161.2412505241
  0
LINE
  5
230
100
AcDbEntity
  8
0
100
AcDbLine
 62
7
  6
CONTINUOUS
 10
123.1667119047
 20
159.7412505241
 11
164.9667119047
 21
159.7412505241
  0
LINE
  5
231
100
AcDbEntity
  8
0
100
AcDbLine
 62
7
  6
CONTINUOUS
 10
206.7667119047
 20
159.7412505241
 11
164.9667119047
 21
159.7412505241
  0
INSERT
  5
232
100
AcDbEntity
  8
0
100
AcDbBlockReference
 62
7
  6
CONTINUOUS
  2
_FILLED
 10
123.1667119047
 20
159.7412505241
 41
3.0
 42
3.0
 43
3.0
 50
180.0
  0
INSERT
  5
233
100
AcDbEntity
  8
0
100
AcDbBlockReference
 62
7
  6
CONTINUOUS
  2
_FILLED
 10
206.7667119047
 20
159.7412505241
 41
3.0
 42
3.0
 43
3.0
  0
ENDBLK
  5
234
100
AcDbEntity
  8
0
  6
BYBLOCK
 62
0
100
AcDbBlockEnd
  0
BLOCK
  5
235
100
AcDbEntity
  8
0
100
AcDbBlockBegin
 62
7
  6
CONTINUOUS
  2
*D3
 70
65
 10
0.0
 20
0.0
  3
*D3
  1

  0
LINE
  5
236
100
AcDbEntity
  8
0
100
AcDbLine
 62
7
  6
CONTINUOUS
 10
223.2168261355
 20
149.7412505241
 11
245.2167119047
 21
149.7412505241
  0
LINE
  5
237
100
AcDbEntity
  8
0
100
AcDbLine
 62
7
  6
CONTINUOUS
 10
223.2168261355
 20
66.2412505241
 11
245.2167119047
 21
66.2412505241
  0
LINE
  5
238
100
AcDbEntity
  8
0
100
AcDbLine
 62
7
  6
CONTINUOUS
 10
243.7167119047
 20
149.7412505241
 11
243.7167119047
 21
107.9912505241
  0
LINE
  5
239
100
AcDbEntity
  8
0
100
AcDbLine
 62
7
  6
CONTINUOUS
 10
243.7167119047
 20
66.2412505241
 11
243.7167119047
 21
107.9912505241
  0
INSERT
  5
23A
100
AcDbEntity
  8
0
100
AcDbBlockReference
 62
7
  6
CONTINUOUS
  2
_FILLED
 10
243.7167119047
 20
149.7412505241
 41
3.0
 42
3.0
 43
3.0
 50
90.0
  0
INSERT
  5
23B
100
AcDbEntity
  8
0
100
AcDbBlockReference
 62
7
  6
CONTINUOUS
  2
_FILLED
 10
243.7167119047
 20
66.2412505241
 41
3.0
 42
3.0
 43
3.0
 50
270.0
  0
ENDBLK
  5
23C
100
AcDbEntity
  8
0
  6
BYBLOCK
 62
0
100
AcDbBlockEnd
  0
BLOCK
  5
23D
100
AcDbEntity
  8
0
100
AcDbBlockBegin
 62
7
  6
CONTINUOUS
  2
*D4
 70
65
 10
0.0
 20
0.0
  3
*D4
  1

  0
LINE
  5
23E
100
AcDbEntity
  8
0
100
AcDbLine
 62
7
  6
CONTINUOUS
 10
216.4667119047
 20
135.9912505241
 11
237.2167119047
 21
135.9912505241
  0
LINE
  5
23F
100
AcDbEntity
  8
0
100
AcDbLine
 62
7
  6
CONTINUOUS
 10
218.4448054634
 20
79.9912505241
 11
237.2167119047
 21
79.9912505241
  0
LINE
  5
240
100
AcDbEntity
  8
0
100
AcDbLine
 62
7
  6
CONTINUOUS
 10
235.7167119047
 20
135.9912505241
 11
235.7167119047
 21
107.9912505241
  0
LINE
  5
241
100
AcDbEntity
  8
0
100
AcDbLine
 62
7
  6
CONTINUOUS
 10
235.7167119047
 20
79.9912505241
 11
235.7167119047
 21
107.9912505241
  0
INSERT
  5
242
100
AcDbEntity
  8
0
100
AcDbBlockReference
 62
7
  6
CONTINUOUS
  2
_FILLED
 10
235.7167119047
 20
135.9912505241
 41
3.0
 42
3.0
 43
3.0
 50
90.0
  0
INSERT
  5
243
100
AcDbEntity
  8
0
100
AcDbBlockReference
 62
7
  6
CONTINUOUS
  2
_FILLED
 10
235.7167119047
 20
79.9912505241
 41
3.0
 42
3.0
 43
3.0
 50
270.0
  0
ENDBLK
  5
244
100
AcDbEntity
  8
0
  6
BYBLOCK
 62
0
100
AcDbBlockEnd
  0
BLOCK
  5
245
100
AcDbEntity
  8
0
100
AcDbBlockBegin
 62
7
  6
CONTINUOUS
  2
*D5
 70
65
 10
0.0
 20
0.0
  3
*D5
  1

  0
LINE
  5
246
100
AcDbEntity
  8
0
100
AcDbLine
 62
7
  6
CONTINUOUS
 10
42.4074643043
 20
108.4912505241
 11
42.4074643043
 21
161.2412505241
  0
LINE
  5
247
100
AcDbEntity
  8
0
100
AcDbLine
 62
7
  6
CONTINUOUS
 10
72.4074643043
 20
108.4912505241
 11
72.4074643043
 21
161.2412505241
  0
LINE
  5
248
100
AcDbEntity
  8
0
100
AcDbLine
 62
7
  6
CONTINUOUS
 10
42.4074643043
 20
159.7412505241
 11
57.4074643043
 21
159.7412505241
  0
LINE
  5
249
100
AcDbEntity
  8
0
100
AcDbLine
 62
7
  6
CONTINUOUS
 10
72.4074643043
 20
159.7412505241
 11
57.4074643043
 21
159.7412505241
  0
INSERT
  5
24A
100
AcDbEntity
  8
0
100
AcDbBlockReference
 62
7
  6
CONTINUOUS
  2
_FILLED
 10
42.4074643043
 20
159.7412505241
 41
3.0
 42
3.0
 43
3.0
 50
180.0
  0
INSERT
  5
24B
100
AcDbEntity
  8
0
100
AcDbBlockReference
 62
7
  6
CONTINUOUS
  2
_FILLED
 10
72.4074643043
 20
159.7412505241
 41
3.0
 42
3.0
 43
3.0
  0
ENDBLK
  5
24C
100
AcDbEntity
  8
0
  6
BYBLOCK
 62
0
100
AcDbBlockEnd
  0
ENDSEC
  0
SECTION
  2
ENTITIES
  0
DIMENSION
  5
24D
100
AcDbEntity
  8
0
100
AcDbDimension
 62
7
  6
CONTINUOUS
  2
*D0
 10
225.7167119047
 20
175.7412505241
 11
160.1452833333
 21
175.7412505241
 70
160
 71
2
 72
2
 41
0.9
 42
121.5
  3
DIMSTYLE_1
100
AcDbAlignedDimension
 13
104.2167119047
 23
146.741364755
 14
225.7167119047
 24
146.741364755
100
AcDbRotatedDimension
  0
DIMENSION
  5
24E
100
AcDbEntity
  8
0
100
AcDbDimension
 62
7
  6
CONTINUOUS
  2
*D1
 10
213.9667119047
 20
167.7412505241
 11
162.6095690476
 21
167.7412505241
 70
160
 71
2
 72
2
 41
0.9
 42
98.0
  3
DIMSTYLE_1
100
AcDbAlignedDimension
 13
115.9667119047
 23
137.9693440828
 14
213.9667119047
 24
137.9693440828
100
AcDbRotatedDimension
  0
DIMENSION
  5
24F
100
AcDbEntity
  8
0
100
AcDbDimension
 62
7
  6
CONTINUOUS
  2
*D2
 10
206.7667119047
 20
159.7412505241
 11
160.680997619
 21
159.7412505241
 70
160
 71
2
 72
2
 41
0.9
 42
83.6
  3
DIMSTYLE_1
100
AcDbAlignedDimension
 13
123.1667119047
 23
107.9912505241
 14
206.7667119047
 24
107.9912505241
100
AcDbRotatedDimension
  0
DIMENSION
  5
250
100
AcDbEntity
  8
0
100
AcDbDimension
 62
7
  6
CONTINUOUS
  2
*D3
 10
243.7167119047
 20
66.2412505241
 11
243.7167119047
 21
103.8126790956
 70
160
 71
2
 72
2
 41
0.9
 42
83.5
  3
DIMSTYLE_1
100
AcDbAlignedDimension
 13
222.7168261355
 23
149.7412505241
 14
222.7168261355
 24
66.2412505241
 50
270.0
100
AcDbRotatedDimension
  0
DIMENSION
  5
251
100
AcDbEntity
  8
0
100
AcDbDimension
 62
7
  6
CONTINUOUS
  2
*D4
 10
235.7167119047
 20
79.9912505241
 11
235.7167119047
 21
105.7412505241
 70
160
 71
2
 72
2
 41
0.9
 42
56.0
  3
DIMSTYLE_1
100
AcDbAlignedDimension
 13
215.9667119047
 23
135.9912505241
 14
217.9448054634
 24
79.9912505241
 50
270.0
100
AcDbRotatedDimension
  0
DIMENSION
  5
252
100
AcDbEntity
  8
0
100
AcDbDimension
 62
7
  6
CONTINUOUS
  2
*D5
 10
72.4074643043
 20
159.7412505241
 11
55.1574643043
 21
159.7412505241
 70
160
 71
2
 72
2
 41
0.9
 42
30.0
  3
DIMSTYLE_1
100
AcDbAlignedDimension
 13
42.4074643043
 23
107.9912505241
 14
72.4074643043
 24
107.9912505241
100
AcDbRotatedDimension
  0
LWPOLYLINE
  5
253
100
AcDbEntity
  8
RACCORDO
100
AcDbPolyline
 62
250
  6
CONTINUOUS
 90
25
 70
0
 10
104.4724624397
 20
69.4968868283
 10
104.4766691247
 20
69.3381185662
 10
104.4902310307
 20
69.1709052655
 10
104.5145991381
 20
68.9958931173
 10
104.5514891408
 20
68.8128935111
 10
104.6022788235
 20
68.6239837739
 10
104.6673278986
 20
68.4333485246
 10
104.7474535908
 20
68.242216384
 10
104.8433792317
 20
68.0519754064
 10
104.9540062785
 20
67.8667949075
 10
105.0792220525
 20
67.6879667493
 10
105.2188617477
 20
67.5167243766
 10
105.3704761878
 20
67.3564712482
 10
105.5332057464
 20
67.2080069377
 10
105.7061067097
 20
67.0720908197
 10
105.8855963343
 20
66.9510147871
 10
106.070350081
 20
66.8447841539
 10
106.2590504304
 20
66.7533202206
 10
106.4475004561
 20
66.6775002569
 10
106.6343531095
 20
66.6164314099
 10
106.8183890988
 20
66.5691567525
 10
106.9953987055
 20
66.535165228
 10
107.1633473535
 20
66.5129621365
 10
107.3225213365
 20
66.5007471033
 10
107.4723482089
 20
66.4970010591
  0
LWPOLYLINE
  5
254
100
AcDbEntity
  8
RACCORDO
100
AcDbPolyline
 62
250
  6
CONTINUOUS
 90
25
 70
0
 10
105.1724357859
 20
69.4968868283
 10
105.1737834406
 20
69.3740233068
 10
105.1845625548
 20
69.2459170298
 10
105.2047731286
 20
69.1125679973
 10
105.2337547627
 20
68.972336159
 10
105.2721678563
 20
68.8268615652
 10
105.321993607
 20
68.6810643666
 10
105.3840138979
 20
68.5348746564
 10
105.4574468458
 20
68.3883623413
 10
105.5419279988
 20
68.2466572929
 10
105.6382212908
 20
68.1100922079
 10
105.7455627879
 20
67.9783343896
 10
105.8612962363
 20
67.85551562
 10
105.9860066431
 20
67.7422477282
 10
106.1191090013
 20
67.6379188851
 10
106.2561920358
 20
67.5448253858
 10
106.3975078461
 20
67.4637552622
 10
106.5428043329
 20
67.3939204824
 10
106.6869139225
 20
67.3352532445
 10
106.8297423595
 20
67.2884960665
 10
106.9713838994
 20
67.2529064305
 10
107.106953735
 20
67.2261889818
 10
107.2348235973
 20
67.2075786023
 10
107.3566217552
 20
67.1978404101
 10
107.4723482089
 20
67.1969744053
  0
LINE
  5
255
100
AcDbEntity
  8
RACCORDO
100
AcDbLine
 62
7
  6
CONTINUOUS
 10
104.2167119047
 20
146.741364755
 11
104.2167119047
 21
69.2411362933
  0
LINE
  5
256
100
AcDbEntity
  8
RACCORDO
100
AcDbLine
 62
7
  6
CONTINUOUS
 10
104.4724624397
 20
146.48561422
 11
104.4724624397
 21
69.4968868283
  0
LINE
  5
257
100
AcDbEntity
  8
RACCORDO
100
AcDbLine
 62
250
  6
CONTINUOUS
 10
105.1724357859
 20
146.48561422
 11
105.1724357859
 21
69.4968868283
  0
LINE
  5
258
100
AcDbEntity
  8
RACCORDO
100
AcDbLine
 62
250
  6
CONTINUOUS
 10
107.4723482089
 20
67.1969744053
 11
107.4723482089
 21
66.4970010591
  0
LINE
  5
259
100
AcDbEntity
  8
RACCORDO
100
AcDbLine
 62
250
  6
CONTINUOUS
 10
107.4723482089
 20
148.785526643
 11
107.4723482088
 21
149.4854999892
  0
LINE
  5
25A
100
AcDbEntity
  8
DRAFT
100
AcDbLine
 62
7
  6
CONTINUOUS
 10
109.4667119047
 20
78.4912505241
 11
109.4667119047
 21
81.4912505241
  0
LINE
  5
25B
100
AcDbEntity
  8
DRAFT
100
AcDbLine
 62
7
  6
CONTINUOUS
 10
109.7285378787
 20
78.4912505241
 11
109.7285378787
 21
81.4912505241
  0
LINE
  5
25C
100
AcDbEntity
  8
DRAFT
100
AcDbLine
 62
7
  6
CONTINUOUS
 10
111.7285378787
 20
77.9912505241
 11
111.7285378787
 21
81.9912505241
  0
LINE
  5
25D
100
AcDbEntity
  8
DRAFT
100
AcDbLine
 62
7
  6
CONTINUOUS
 10
111.9886183461
 20
77.9912505241
 11
111.9886183461
 21
81.9912505241
  0
LINE
  5
25E
100
AcDbEntity
  8
DRAFT
100
AcDbLine
 62
250
  6
CONTINUOUS
 10
113.9667119047
 20
134.0131569655
 11
113.9667119047
 21
133.7530764981
  0
LINE
  5
25F
100
AcDbEntity
  8
DRAFT
100
AcDbLine
 62
250
  6
CONTINUOUS
 10
113.9667119047
 20
137.9693440828
 11
113.9667119047
 21
138.2294245502
  0
LINE
  5
260
100
AcDbEntity
  8
DRAFT
100
AcDbLine
 62
250
  6
CONTINUOUS
 10
114.4667119047
 20
131.7530764981
 11
114.4667119047
 21
131.4912505241
  0
LINE
  5
261
100
AcDbEntity
  8
DRAFT
100
AcDbLine
 62
250
  6
CONTINUOUS
 10
114.4667119047
 20
140.2294245502
 11
114.4667119047
 21
140.4912505241
  0
LINE
  5
262
100
AcDbEntity
  8
DRAFT
100
AcDbLine
 62
7
  6
CONTINUOUS
 10
115.9448054634
 20
81.9912505241
 11
115.9448054634
 21
77.9912505241
  0
LINE
  5
263
100
AcDbEntity
  8
DRAFT
100
AcDbLine
 62
7
  6
CONTINUOUS
 10
116.2048859308
 20
81.9912505241
 11
116.2048859308
 21
77.9912505241
  0
LWPOLYLINE
  5
264
100
AcDbEntity
  8
0
100
AcDbPolyline
 62
7
  6
CONTINUOUS
 90
3
 70
0
 43
0.3500000006
 10
160.1452858887
 20
178.6341020508
 10
161.0024238281
 20
179.4912581177
 10
161.0024238281
 20
176.4912572021
  0
LWPOLYLINE
  5
265
100
AcDbEntity
  8
0
100
AcDbPolyline
 62
7
  6
CONTINUOUS
 90
3
 70
0
 43
0.3500000006
 10
164.2167092285
 20
178.6341020508
 10
165.073847168
 20
179.4912581177
 10
165.073847168
 20
176.4912572021
  0
LINE
  5
266
100
AcDbEntity
  8
0
100
AcDbLine
 62
7
  6
CONTINUOUS
 10
117.4483854824
 20
98.9728860249
 11
117.4483854824
 21
117.0096150234
  0
LINE
  5
267
100
AcDbEntity
  8
DRAFT
100
AcDbLine
 62
250
  6
CONTINUOUS
 10
117.4667119047
 20
131.7530764981
 11
117.4667119047
 21
131.4912505241
  0
LINE
  5
268
100
AcDbEntity
  8
0
100
AcDbLine
 62
7
  6
CONTINUOUS
 10
117.4667119047
 20
116.9912886011
 11
117.4667119047
 21
98.9912124472
  0
LINE
  5
269
100
AcDbEntity
  8
DRAFT
100
AcDbLine
 62
250
  6
CONTINUOUS
 10
117.4667119047
 20
140.2294245502
 11
117.4667119047
 21
140.4912505241
  0
LINE
  5
26A
100
AcDbEntity
  8
DRAFT
100
AcDbLine
 62
250
  6
CONTINUOUS
 10
117.9667119047
 20
134.0131569655
 11
117.9667119047
 21
133.7530764981
  0
LINE
  5
26B
100
AcDbEntity
  8
DRAFT
100
AcDbLine
 62
250
  6
CONTINUOUS
 10
117.9667119047
 20
137.9693440828
 11
117.9667119047
 21
138.2294245502
  0
LINE
  5
26C
100
AcDbEntity
  8
DRAFT
100
AcDbLine
 62
7
  6
CONTINUOUS
 10
118.2048859308
 20
81.4912505241
 11
118.2048859308
 21
78.4912505241
  0
LINE
  5
26D
100
AcDbEntity
  8
DRAFT
100
AcDbLine
 62
7
  6
CONTINUOUS
 10
118.4667119047
 20
81.4912505241
 11
118.4667119047
 21
78.4912505241
  0
LINE
  5
26E
100
AcDbEntity
  8
0
100
AcDbLine
 62
7
  6
CONTINUOUS
 10
119.9649663982
 20
97.9912505241
 11
119.9649663982
 21
104.154854533
  0
LINE
  5
26F
100
AcDbEntity
  8
0
100
AcDbLine
 62
7
  6
CONTINUOUS
 10
119.9649663982
 20
111.8276465153
 11
119.9649663982
 21
117.9912505241
  0
LINE
  5
270
100
AcDbEntity
  8
0
100
AcDbLine
 62
7
  6
CONTINUOUS
 10
120.0016220346
 20
85.9563403943
 11
120.0016220346
 21
97.9729241018
  0
LINE
  5
271
100
AcDbEntity
  8
0
100
AcDbLine
 62
7
  6
CONTINUOUS
 10
120.0016220346
 20
118.0095769465
 11
120.0016220346
 21
129.9767902749
  0
LINE
  5
272
100
AcDbEntity
  8
DRAFT
100
AcDbLine
 62
7
  6
CONTINUOUS
 10
120.572954546
 20
130.5481227863
 11
120.0016220346
 21
129.9767902749
  0
LINE
  5
273
100
AcDbEntity
  8
DRAFT
100
AcDbLine
 62
7
  6
CONTINUOUS
 10
123.4098396426
 20
133.3850078829
 11
126.5160822838
 21
136.4912505241
  0
LWPOLYLINE
  5
274
100
AcDbEntity
  8
0
100
AcDbPolyline
 62
7
  6
CONTINUOUS
 90
10
 70
0
 43
0.3500000006
 10
163.038135498
 20
168.4912547607
 10
163.8952915649
 20
169.3483927002
 10
164.1095760498
 20
170.2055306396
 10
164.1095760498
 20
171.0626867065
 10
163.6809889526
 20
171.4912556763
 10
163.038135498
 20
171.4912556763
 10
162.6095665283
 20
171.0626867065
 10
162.6095665283
 20
170.2055306396
 10
163.038135498
 20
169.7769616699
 10
163.9667136841
 20
169.7769616699
  0
LWPOLYLINE
  5
275
100
AcDbEntity
  8
0
100
AcDbPolyline
 62
7
  6
CONTINUOUS
 90
5
 70
0
 43
0.3500000006
 10
163.8952915649
 20
162.2055281982
 10
164.2524202881
 20
162.4198308105
 10
164.2524202881
 20
163.0626842651
 10
163.8952915649
 20
163.4912532349
 10
163.038135498
 20
163.4912532349
  0
LINE
  5
276
100
AcDbEntity
  8
DRAFT
100
AcDbLine
 62
7
  6
CONTINUOUS
 10
126.4667119047
 20
79.4912505241
 11
120.0016220346
 21
85.9563403943
  0
LINE
  5
277
100
AcDbEntity
  8
RACCORDO
100
AcDbLine
 62
7
  6
CONTINUOUS
 10
121.8667119047
 20
111.5866956392
 11
121.8667119047
 21
109.8276872914
  0
LINE
  5
278
100
AcDbEntity
  8
RACCORDO
100
AcDbLine
 62
7
  6
CONTINUOUS
 10
121.8667119047
 20
106.1548137569
 11
121.8667119047
 21
104.3958054091
  0
LINE
  5
279
100
AcDbEntity
  8
RACCORDO
100
AcDbLine
 62
250
  6
CONTINUOUS
 10
122.6667119047
 20
111.2395820015
 11
122.6667119047
 21
110.6954139807
  0
LINE
  5
27A
100
AcDbEntity
  8
RACCORDO
100
AcDbLine
 62
250
  6
CONTINUOUS
 10
122.6667119047
 20
105.2870870676
 11
122.6667119047
 21
104.7429190468
  0
LINE
  5
27B
100
AcDbEntity
  8
RACCORDO
100
AcDbLine
 62
250
  6
CONTINUOUS
 10
123.6667119047
 20
104.7429190468
 11
123.6667119047
 21
105.2870870676
  0
LINE
  5
27C
100
AcDbEntity
  8
RACCORDO
100
AcDbLine
 62
250
  6
CONTINUOUS
 10
123.6667119047
 20
110.6954139807
 11
123.6667119047
 21
111.2395820015
  0
LINE
  5
27D
100
AcDbEntity
  8
RACCORDO
100
AcDbLine
 62
7
  6
CONTINUOUS
 10
124.4667119047
 20
104.3958054091
 11
124.4667119047
 21
106.1548137569
  0
LINE
  5
27E
100
AcDbEntity
  8
RACCORDO
100
AcDbLine
 62
7
  6
CONTINUOUS
 10
124.4667119047
 20
109.8276872914
 11
124.4667119047
 21
111.5866956392
  0
LWPOLYLINE
  5
27F
100
AcDbEntity
  8
RACCORDO
100
AcDbPolyline
 62
250
  6
CONTINUOUS
 90
25
 70
0
 10
222.4610756006
 20
66.4970010591
 10
222.6198438627
 20
66.5012077441
 10
222.7870571634
 20
66.5147696501
 10
222.9620693116
 20
66.5391377576
 10
223.1450689178
 20
66.5760277602
 10
223.333978655
 20
66.6268174429
 10
223.5246139043
 20
66.691866518
 10
223.7157460448
 20
66.7719922102
 10
223.9059870225
 20
66.8679178511
 10
224.0911675214
 20
66.9785448979
 10
224.2699956796
 20
67.1037606719
 10
224.4412380523
 20
67.2434003671
 10
224.6014911807
 20
67.3950148073
 10
224.7499554912
 20
67.5577443658
 10
224.8858716092
 20
67.7306453291
 10
225.0069476418
 20
67.9101349537
 10
225.113178275
 20
68.0948887004
 10
225.2046422083
 20
68.2835890498
 10
225.280462172
 20
68.4720390755
 10
225.341531019
 20
68.6588917289
 10
225.3888056764
 20
68.8429277182
 10
225.4227972009
 20
69.0199373249
 10
225.4450002924
 20
69.1878859729
 10
225.4572153256
 20
69.3470599559
 10
225.4609613697
 20
69.4968868283
  0
LWPOLYLINE
  5
280
100
AcDbEntity
  8
RACCORDO
100
AcDbPolyline
 62
250
  6
CONTINUOUS
 90
25
 70
0
 10
222.4610756006
 20
67.1969744053
 10
222.5839391221
 20
67.19832206
 10
222.7120453991
 20
67.2091011742
 10
222.8453944316
 20
67.229311748
 10
222.9856262699
 20
67.2582933821
 10
223.1311008637
 20
67.2967064758
 10
223.2768980622
 20
67.3465322264
 10
223.4230877725
 20
67.4085525173
 10
223.5696000876
 20
67.4819854652
 10
223.711305136
 20
67.5664666182
 10
223.847870221
 20
67.6627599102
 10
223.9796280393
 20
67.7701014073
 10
224.1024468089
 20
67.8858348557
 10
224.2157147007
 20
68.0105452626
 10
224.3200435437
 20
68.1436476207
 10
224.4131370431
 20
68.2807306552
 10
224.4942071667
 20
68.4220464656
 10
224.5640419465
 20
68.5673429523
 10
224.6227091843
 20
68.7114525419
 10
224.6694663624
 20
68.8542809789
 10
224.7050559984
 20
68.9959225188
 10
224.7317734471
 20
69.1314923544
 10
224.7503838266
 20
69.2593622167
 10
224.7601220188
 20
69.3811603747
 10
224.7609880236
 20
69.4968868283
  0
LINE
  5
281
100
AcDbEntity
  8
RACCORDO
100
AcDbLine
 62
7
  6
CONTINUOUS
 10
107.2165976739
 20
66.2412505241
 11
222.7168261355
 21
66.2412505241
  0
LINE
  5
282
100
AcDbEntity
  8
RACCORDO
100
AcDbLine
 62
7
  6
CONTINUOUS
 10
107.4723482089
 20
66.4970010591
 11
222.4610756006
 21
66.4970010591
  0
LINE
  5
283
100
AcDbEntity
  8
RACCORDO
100
AcDbLine
 62
250
  6
CONTINUOUS
 10
107.4723482089
 20
67.1969744053
 11
222.4610756006
 21
67.1969744053
  0
LWPOLYLINE
  5
284
100
AcDbEntity
  8
RACCORDO
100
AcDbPolyline
 62
7
  6
CONTINUOUS
 90
19
 70
0
 10
122.0180756831
 20
105.8631915552
 10
122.0381653213
 20
105.8224152619
 10
122.0596554938
 20
105.7820019746
 10
122.0827133179
 20
105.7420831907
 10
122.1073396095
 20
105.7026324543
 10
122.133575113
 20
105.6636762212
 10
122.1616910687
 20
105.6254253562
 10
122.1917525684
 20
105.5877550072
 10
122.2237529501
 20
105.5507900263
 10
122.2578889036
 20
105.5151158352
 10
122.2941206887
 20
105.480669227
 10
122.3324967152
 20
105.4475134086
 10
122.3733670883
 20
105.4164234225
 10
122.4169041443
 20
105.3872031345
 10
122.4628769746
 20
105.3600486787
 10
122.5110052232
 20
105.3363234997
 10
122.5610984418
 20
105.3164820789
 10
122.6130651564
 20
105.3000699348
 10
122.6667119047
 20
105.2870870676
  0
LWPOLYLINE
  5
285
100
AcDbEntity
  8
RACCORDO
100
AcDbPolyline
 62
7
  6
CONTINUOUS
 90
7
 70
0
 10
121.925092056
 20
106.1148496738
 10
121.9374681348
 20
106.0720990758
 10
121.9510873974
 20
106.0296715091
 10
121.9659558537
 20
105.9875669737
 10
121.9820395308
 20
105.9457721447
 10
121.9993713388
 20
105.9043003469
 10
122.0180756831
 20
105.8631915552
  0
LWPOLYLINE
  5
286
100
AcDbEntity
  8
0
100
AcDbPolyline
 62
7
  6
CONTINUOUS
 90
10
 70
0
 43
0.3500000006
 10
167.9667149048
 20
163.4912532349
 10
167.3238614502
 20
162.8483997803
 10
166.895274353
 20
161.9912437134
 10
166.895274353
 20
160.9198212891
 10
167.3238614502
 20
160.4912523193
 10
167.9667149048
 20
160.4912523193
 10
168.3952838745
 20
160.9198212891
 10
168.3952838745
 20
161.7769592285
 10
167.9667149048
 20
162.2055281982
 10
167.0381367188
 20
162.2055281982
  0
LINE
  5
287
100
AcDbEntity
  8
RACCORDO
100
AcDbLine
 62
250
  6
CONTINUOUS
 10
105.1724357859
 20
69.4968868283
 11
104.4724624397
 21
69.4968868283
  0
LINE
  5
288
100
AcDbEntity
  8
RACCORDO
100
AcDbLine
 62
250
  6
CONTINUOUS
 10
224.7609880236
 20
69.4968868283
 11
225.4609613697
 21
69.4968868283
  0
LINE
  5
289
100
AcDbEntity
  8
ASSI
100
AcDbLine
 62
7
  6
CONTINUOUS
 10
186.2825249047
 20
72.1411575241
 11
187.0225519047
 21
72.1411675241
  0
LINE
  5
28A
100
AcDbEntity
  8
ASSI
100
AcDbLine
 62
7
  6
CONTINUOUS
 10
192.0195319047
 20
72.1411675241
 11
192.8530589047
 21
72.1411765241
  0
LINE
  5
28B
100
AcDbEntity
  8
ASSI
100
AcDbLine
 62
7
  6
CONTINUOUS
 10
183.6094779047
 20
72.1411575241
 11
184.3494869047
 21
72.1411675241
  0
LINE
  5
28C
100
AcDbEntity
  8
ASSI
100
AcDbLine
 62
7
  6
CONTINUOUS
 10
180.6897619047
 20
72.1411485241
 11
181.4297889047
 21
72.1411575241
  0
LINE
  5
28D
100
AcDbEntity
  8
ASSI
100
AcDbLine
 62
7
  6
CONTINUOUS
 10
178.2683609047
 20
72.1411485241
 11
179.0084169047
 21
72.1411575241
  0
LINE
  5
28E
100
AcDbEntity
  8
ASSI
100
AcDbLine
 62
7
  6
CONTINUOUS
 10
182.1697989047
 20
72.1411575241
 11
182.9098259047
 21
72.1411575241
  0
LINE
  5
28F
100
AcDbEntity
  8
ASSI
100
AcDbLine
 62
7
  6
CONTINUOUS
 10
185.0491479047
 20
72.1411575241
 11
185.7891759047
 21
72.1411575241
  0
LINE
  5
290
100
AcDbEntity
  8
ASSI
100
AcDbLine
 62
7
  6
CONTINUOUS
 10
189.8919299047
 20
72.1411675241
 11
190.6319669047
 21
72.1411675241
  0
LINE
  5
291
100
AcDbEntity
  8
ASSI
100
AcDbLine
 62
7
  6
CONTINUOUS
 10
188.6585439047
 20
72.1411675241
 11
189.3985809047
 21
72.1411575241
  0
LINE
  5
292
100
AcDbEntity
  8
ASSI
100
AcDbLine
 62
7
  6
CONTINUOUS
 10
187.2561799047
 20
72.8688275241
 11
188.4249259047
 21
72.8688275241
  0
LINE
  5
293
100
AcDbEntity
  8
ASSI
100
AcDbLine
 62
7
  6
CONTINUOUS
 10
188.1991889047
 20
73.5718555241
 11
187.4819069047
 21
73.5718555241
  0
LINE
  5
294
100
AcDbEntity
  8
ASSI
100
AcDbLine
 62
7
  6
CONTINUOUS
 10
190.6320499047
 20
73.5718645241
 11
191.2779319047
 21
73.5718555241
  0
LWPOLYLINE
  5
295
100
AcDbEntity
  8
RACCORDO
100
AcDbPolyline
 62
7
  6
CONTINUOUS
 90
19
 70
0
 10
124.3153481264
 20
110.1193094931
 10
124.2952584882
 20
110.1600857864
 10
124.2737683156
 20
110.2004990737
 10
124.2507104915
 20
110.2404178576
 10
124.2260842
 20
110.279868594
 10
124.1998486965
 20
110.3188248271
 10
124.1717327408
 20
110.3570756921
 10
124.141671241
 20
110.3947460411
 10
124.1096708594
 20
110.431711022
 10
124.0755349059
 20
110.4673852131
 10
124.0393031208
 20
110.5018318213
 10
124.0009270943
 20
110.5349876397
 10
123.9600567212
 20
110.5660776258
 10
123.9165196651
 20
110.5952979138
 10
123.8705468349
 20
110.6224523696
 10
123.8224185863
 20
110.6461775486
 10
123.7723253677
 20
110.6660189694
 10
123.7203586531
 20
110.6824311135
 10
123.6667119047
 20
110.6954139807
  0
LWPOLYLINE
  5
296
100
AcDbEntity
  8
RACCORDO
100
AcDbPolyline
 62
7
  6
CONTINUOUS
 90
7
 70
0
 10
124.4083317534
 20
109.8676513745
 10
124.3959556747
 20
109.9104019725
 10
124.3823364121
 20
109.9528295392
 10
124.3674679557
 20
109.9949340746
 10
124.3513842786
 20
110.0367289036
 10
124.3340524707
 20
110.0782007014
 10
124.3153481264
 20
110.1193094931
  0
LINE
  5
297
100
AcDbEntity
  8
ASSI
100
AcDbLine
 62
7
  6
CONTINUOUS
 10
191.5221230486
 20
74.2563925241
 11
190.6217639047
 21
74.2563925241
  0
LINE
  5
298
100
AcDbEntity
  8
ASSI
100
AcDbLine
 62
7
  6
CONTINUOUS
 10
190.6217549047
 20
75.1568065241
 11
191.5221055235
 21
75.1568065241
  0
LINE
  5
299
100
AcDbEntity
  8
ASSI
100
AcDbLine
 62
7
  6
CONTINUOUS
 10
185.7891759047
 20
75.8413245241
 11
184.6704529047
 21
75.8413245241
  0
LINE
  5
29A
100
AcDbEntity
  8
ASSI
100
AcDbLine
 62
7
  6
CONTINUOUS
 10
183.2885209047
 20
75.8413245241
 11
182.1697989047
 21
75.8413245241
  0
LINE
  5
29B
100
AcDbEntity
  8
ASSI
100
AcDbLine
 62
7
  6
CONTINUOUS
 10
181.4297989047
 20
75.8413245241
 11
180.6897709047
 21
75.8413245241
  0
LINE
  5
29C
100
AcDbEntity
  8
ASSI
100
AcDbLine
 62
7
  6
CONTINUOUS
 10
180.1964219047
 20
75.8413245241
 11
179.4563849047
 21
75.8413245241
  0
LINE
  5
29D
100
AcDbEntity
  8
ASSI
100
AcDbLine
 62
7
  6
CONTINUOUS
 10
177.8204019047
 20
75.8413245241
 11
177.0803649047
 21
75.8413245241
  0
LINE
  5
29E
100
AcDbEntity
  8
ASSI
100
AcDbLine
 62
7
  6
CONTINUOUS
 10
191.6248441812
 20
75.8413335241
 11
189.8919299047
 21
75.8413335241
  0
LINE
  5
29F
100
AcDbEntity
  8
ASSI
100
AcDbLine
 62
7
  6
CONTINUOUS
 10
188.2105759047
 20
75.8413335241
 11
187.4705109047
 21
75.8413335241
  0
LINE
  5
2A0
100
AcDbEntity
  8
DRAFT
100
AcDbLine
 62
250
  6
CONTINUOUS
 10
213.9886183461
 20
77.9912505241
 11
213.7285378787
 21
77.9912505241
  0
LINE
  5
2A1
100
AcDbEntity
  8
DRAFT
100
AcDbLine
 62
250
  6
CONTINUOUS
 10
111.9886183461
 20
77.9912505241
 11
111.7285378787
 21
77.9912505241
  0
LINE
  5
2A2
100
AcDbEntity
  8
DRAFT
100
AcDbLine
 62
250
  6
CONTINUOUS
 10
115.9448054634
 20
77.9912505241
 11
116.2048859308
 21
77.9912505241
  0
LINE
  5
2A3
100
AcDbEntity
  8
DRAFT
100
AcDbLine
 62
250
  6
CONTINUOUS
 10
217.9448054634
 20
77.9912505241
 11
218.2048859308
 21
77.9912505241
  0
LINE
  5
2A4
100
AcDbEntity
  8
DRAFT
100
AcDbLine
 62
250
  6
CONTINUOUS
 10
211.7285378787
 20
78.4912505241
 11
211.4667119047
 21
78.4912505241
  0
LINE
  5
2A5
100
AcDbEntity
  8
DRAFT
100
AcDbLine
 62
250
  6
CONTINUOUS
 10
109.7285378787
 20
78.4912505241
 11
109.4667119047
 21
78.4912505241
  0
LINE
  5
2A6
100
AcDbEntity
  8
DRAFT
100
AcDbLine
 62
250
  6
CONTINUOUS
 10
118.2048859308
 20
78.4912505241
 11
118.4667119047
 21
78.4912505241
  0
LINE
  5
2A7
100
AcDbEntity
  8
DRAFT
100
AcDbLine
 62
250
  6
CONTINUOUS
 10
220.2048859308
 20
78.4912505241
 11
220.4667119047
 21
78.4912505241
  0
LINE
  5
2A8
100
AcDbEntity
  8
0
100
AcDbLine
 62
7
  6
CONTINUOUS
 10
126.4667119047
 20
79.4912505241
 11
203.4667119047
 21
79.4912505241
  0
LINE
  5
2A9
100
AcDbEntity
  8
DRAFT
100
AcDbLine
 62
250
  6
CONTINUOUS
 10
211.7285378787
 20
81.4912505241
 11
211.4667119047
 21
81.4912505241
  0
LINE
  5
2AA
100
AcDbEntity
  8
DRAFT
100
AcDbLine
 62
250
  6
CONTINUOUS
 10
109.7285378787
 20
81.4912505241
 11
109.4667119047
 21
81.4912505241
  0
LINE
  5
2AB
100
AcDbEntity
  8
DRAFT
100
AcDbLine
 62
250
  6
CONTINUOUS
 10
118.2048859308
 20
81.4912505241
 11
118.4667119047
 21
81.4912505241
  0
LINE
  5
2AC
100
AcDbEntity
  8
DRAFT
100
AcDbLine
 62
250
  6
CONTINUOUS
 10
220.2048859308
 20
81.4912505241
 11
220.4667119047
 21
81.4912505241
  0
LINE
  5
2AD
100
AcDbEntity
  8
DRAFT
100
AcDbLine
 62
250
  6
CONTINUOUS
 10
213.9886183461
 20
81.9912505241
 11
213.7285378787
 21
81.9912505241
  0
LINE
  5
2AE
100
AcDbEntity
  8
DRAFT
100
AcDbLine
 62
250
  6
CONTINUOUS
 10
111.9886183461
 20
81.9912505241
 11
111.7285378787
 21
81.9912505241
  0
LINE
  5
2AF
100
AcDbEntity
  8
DRAFT
100
AcDbLine
 62
250
  6
CONTINUOUS
 10
115.9448054634
 20
81.9912505241
 11
116.2048859308
 21
81.9912505241
  0
LINE
  5
2B0
100
AcDbEntity
  8
DRAFT
100
AcDbLine
 62
250
  6
CONTINUOUS
 10
217.9448054634
 20
81.9912505241
 11
218.2048859308
 21
81.9912505241
  0
LWPOLYLINE
  5
2B1
100
AcDbEntity
  8
0
100
AcDbPolyline
 62
7
  6
CONTINUOUS
 90
3
 70
0
 43
0.3500000006
 10
166.6452788086
 20
176.7769638062
 10
166.5738566895
 20
176.5626793213
 10
166.4309943237
 20
176.2769727173
  0
LWPOLYLINE
  5
2B2
100
AcDbEntity
  8
RACCORDO
100
AcDbPolyline
 62
7
  6
CONTINUOUS
 90
11
 70
0
 10
123.6667119047
 20
111.2395820015
 10
123.7616932954
 20
111.2892475628
 10
123.8572115712
 20
111.3357049227
 10
123.9517339108
 20
111.378954081
 10
124.0437187925
 20
111.4193555261
 10
124.1312620133
 20
111.4565487698
 10
124.2122205034
 20
111.4894523469
 10
124.2848084452
 20
111.5179995558
 10
124.3473446735
 20
111.5422570982
 10
124.3980859304
 20
111.5613436138
 10
124.4588143492
 20
111.5834159909
  0
LWPOLYLINE
  5
2B3
100
AcDbEntity
  8
RACCORDO
100
AcDbPolyline
 62
7
  6
CONTINUOUS
 90
10
 70
0
 10
123.6667119047
 20
104.7429190468
 10
123.7616932954
 20
104.6932534855
 10
123.8572115712
 20
104.6467961256
 10
123.9517339108
 20
104.6035469673
 10
124.0437187925
 20
104.5631455222
 10
124.1312620133
 20
104.5259522785
 10
124.2122205034
 20
104.4930487014
 10
124.2848084452
 20
104.4645014925
 10
124.3473446735
 20
104.4402439501
 10
124.3980859304
 20
104.4211574345
  0
LWPOLYLINE
  5
2B4
100
AcDbEntity
  8
0
100
AcDbPolyline
 62
7
  6
CONTINUOUS
 90
3
 70
0
 43
0.3500000006
 10
165.8952921753
 20
160.7769589233
 10
165.8238519287
 20
160.5626744385
 10
165.680989563
 20
160.2769678345
  0
LINE
  5
2B5
100
AcDbEntity
  8
RACCORDO
100
AcDbLine
 62
250
  6
CONTINUOUS
 10
104.4724624397
 20
69.4968868283
 11
104.2167119047
 21
69.2411362933
  0
LWPOLYLINE
  5
2B6
100
AcDbEntity
  8
RACCORDO
100
AcDbPolyline
 62
7
  6
CONTINUOUS
 90
11
 70
0
 10
122.6667119047
 20
104.7429190468
 10
122.5717305141
 20
104.6932534855
 10
122.4762122383
 20
104.6467961256
 10
122.3816898987
 20
104.6035469673
 10
122.289705017
 20
104.5631455222
 10
122.2021617962
 20
104.5259522785
 10
122.1212033061
 20
104.4930487014
 10
122.0486153643
 20
104.4645014925
 10
121.986079136
 20
104.4402439501
 10
121.9353378791
 20
104.4211574345
 10
121.8746094602
 20
104.3990850574
  0
LINE
  5
2B7
100
AcDbEntity
  8
RACCORDO
100
AcDbLine
 62
7
  6
CONTINUOUS
 10
124.4588143492
 20
111.5834159909
 11
124.4667119047
 21
111.5866956392
  0
LWPOLYLINE
  5
2B8
100
AcDbEntity
  8
RACCORDO
100
AcDbPolyline
 62
7
  6
CONTINUOUS
 90
3
 70
0
 10
124.3980859304
 20
104.4211574345
 10
124.4588143492
 20
104.3990850574
 10
124.4667119047
 20
104.3958054091
  0
LWPOLYLINE
  5
2B9
100
AcDbEntity
  8
RACCORDO
100
AcDbPolyline
 62
7
  6
CONTINUOUS
 90
10
 70
0
 10
122.6667119047
 20
111.2395820015
 10
122.5717305141
 20
111.2892475628
 10
122.4762122383
 20
111.3357049227
 10
122.3816898987
 20
111.378954081
 10
122.289705017
 20
111.4193555261
 10
122.2021617962
 20
111.4565487698
 10
122.1212033061
 20
111.4894523469
 10
122.0486153643
 20
111.5179995558
 10
121.986079136
 20
111.5422570982
 10
121.9353378791
 20
111.5613436138
  0
LINE
  5
2BA
100
AcDbEntity
  8
RACCORDO
100
AcDbLine
 62
250
  6
CONTINUOUS
 10
104.4724624397
 20
146.48561422
 11
104.2167119047
 21
146.741364755
  0
LINE
  5
2BB
100
AcDbEntity
  8
RACCORDO
100
AcDbLine
 62
250
  6
CONTINUOUS
 10
107.4723482089
 20
66.4970010591
 11
107.2165976739
 21
66.2412505241
  0
LINE
  5
2BC
100
AcDbEntity
  8
RACCORDO
100
AcDbLine
 62
7
  6
CONTINUOUS
 10
121.8746094602
 20
104.3990850574
 11
121.8667119047
 21
104.3958054091
  0
LWPOLYLINE
  5
2BD
100
AcDbEntity
  8
RACCORDO
100
AcDbPolyline
 62
7
  6
CONTINUOUS
 90
25
 70
0
 10
207.2667119047
 20
105.2870870676
 10
207.3204324644
 20
105.3000828701
 10
207.3724944399
 20
105.3165378005
 10
207.4227028029
 20
105.3364518587
 10
207.4709744839
 20
105.3602856736
 10
207.5171061166
 20
105.3875786165
 10
207.5607850785
 20
105.4169488002
 10
207.6017780806
 20
105.4482057757
 10
207.6402596149
 20
105.4815399921
 10
207.6765581918
 20
105.5161409105
 10
207.7107192469
 20
105.5519413449
 10
207.7427116227
 20
105.5890084814
 10
207.7727303944
 20
105.6267333385
 10
207.8007661616
 20
105.6649786684
 10
207.826895128
 20
105.7038817189
 10
207.8514065169
 20
105.7432452522
 10
207.8743424426
 20
105.7830371379
 10
207.8957069571
 20
105.8232895062
 10
207.9156837518
 20
105.8639015107
 10
207.9342887393
 20
105.9048422963
 10
207.9515334742
 20
105.946142718
 10
207.9675517024
 20
105.9877944947
 10
207.9823769061
 20
106.029794866
 10
207.9959691284
 20
106.0721465924
 10
208.0083317535
 20
106.1148496738
  0
LINE
  5
2BE
100
AcDbEntity
  8
0
100
AcDbLine
 62
7
  6
CONTINUOUS
 10
118.4483474054
 20
97.9729241018
 11
120.0016220346
 21
97.9729241018
  0
LINE
  5
2BF
100
AcDbEntity
  8
0
100
AcDbLine
 62
7
  6
CONTINUOUS
 10
209.9318017749
 20
97.9729241018
 11
211.485076404
 21
97.9729241018
  0
LINE
  5
2C0
100
AcDbEntity
  8
0
100
AcDbLine
 62
7
  6
CONTINUOUS
 10
118.4666738278
 20
97.9912505241
 11
119.9649663982
 21
97.9912505241
  0
LINE
  5
2C1
100
AcDbEntity
  8
0
100
AcDbLine
 62
7
  6
CONTINUOUS
 10
209.9684574112
 20
97.9912505241
 11
211.4667499817
 21
97.9912505241
  0
LWPOLYLINE
  5
2C2
100
AcDbEntity
  8
RACCORDO
100
AcDbPolyline
 62
7
  6
CONTINUOUS
 90
3
 70
0
 10
121.9353378791
 20
111.5613436138
 10
121.8746094602
 20
111.5834159909
 10
121.8667119047
 20
111.5866956392
  0
LINE
  5
2C3
100
AcDbEntity
  8
RACCORDO
100
AcDbLine
 62
250
  6
CONTINUOUS
 10
107.4723482089
 20
149.4854999892
 11
107.2165976739
 21
149.7412505241
  0
LWPOLYLINE
  5
2C4
100
AcDbEntity
  8
0
100
AcDbPolyline
 62
7
  6
CONTINUOUS
 90
4
 70
0
 43
0.3500000006
 10
160.6810061646
 20
160.9198212891
 10
160.6810061646
 20
161.7769592285
 10
161.1095751343
 20
162.2055281982
 10
161.7524285889
 20
162.2055281982
  0
LWPOLYLINE
  5
2C5
100
AcDbEntity
  8
RACCORDO
100
AcDbPolyline
 62
7
  6
CONTINUOUS
 90
25
 70
0
 10
206.2667119047
 20
110.6954139807
 10
206.2129913451
 20
110.6824181782
 10
206.1609293696
 20
110.6659632478
 10
206.1107210066
 20
110.6460491896
 10
206.0624493256
 20
110.6222153746
 10
206.0163176929
 20
110.5949224318
 10
205.972638731
 20
110.5655522481
 10
205.9316457289
 20
110.5342952726
 10
205.8931641946
 20
110.5009610562
 10
205.8568656176
 20
110.4663601378
 10
205.8227045626
 20
110.4305597034
 10
205.7907121868
 20
110.3934925669
 10
205.7606934151
 20
110.3557677098
 10
205.7326576479
 20
110.3175223799
 10
205.7065286815
 20
110.2786193294
 10
205.6820172925
 20
110.2392557961
 10
205.6590813669
 20
110.1994639104
 10
205.6377168523
 20
110.1592115421
 10
205.6177400577
 20
110.1185995376
 10
205.5991350702
 20
110.077658752
 10
205.5818903353
 20
110.0363583303
 10
205.565872107
 20
109.9947065536
 10
205.5510469034
 20
109.9527061823
 10
205.5374546811
 20
109.9103544559
 10
205.525092056
 20
109.8676513745
  0
LWPOLYLINE
  5
2C6
100
AcDbEntity
  8
0
100
AcDbPolyline
 62
7
  6
CONTINUOUS
 90
4
 70
0
 43
0.3500000006
 10
164.9667139893
 20
168.9198237305
 10
164.9667139893
 20
169.7769616699
 10
165.395282959
 20
170.2055306396
 10
166.0381364136
 20
170.2055306396
  0
LWPOLYLINE
  5
2C7
100
AcDbEntity
  8
0
100
AcDbPolyline
 62
7
  6
CONTINUOUS
 90
4
 70
0
 43
0.3500000006
 10
242.5381325684
 20
103.8126797791
 10
241.6809946289
 20
103.8126797791
 10
241.2524256592
 20
104.2412487488
 10
241.2524256592
 20
104.8841112671
  0
LINE
  5
2C8
100
AcDbEntity
  8
DRAFT
100
AcDbLine
 62
7
  6
CONTINUOUS
 10
209.9684574112
 20
104.154854533
 11
207.8174477207
 21
104.154854533
  0
LINE
  5
2C9
100
AcDbEntity
  8
DRAFT
100
AcDbLine
 62
7
  6
CONTINUOUS
 10
122.1159760888
 20
104.154854533
 11
119.9649663982
 21
104.154854533
  0
LINE
  5
2CA
100
AcDbEntity
  8
DRAFT
100
AcDbLine
 62
7
  6
CONTINUOUS
 10
209.9684574112
 20
111.8276465153
 11
207.8174477207
 21
111.8276465153
  0
LINE
  5
2CB
100
AcDbEntity
  8
DRAFT
100
AcDbLine
 62
7
  6
CONTINUOUS
 10
119.9649663982
 20
111.8276465153
 11
122.1159760888
 21
111.8276465153
  0
LINE
  5
2CC
100
AcDbEntity
  8
ASSI
100
AcDbLine
 62
7
  6
CONTINUOUS
 10
177.0803649047
 20
75.8413245241
 11
178.2683609047
 21
72.1411485241
  0
LINE
  5
2CD
100
AcDbEntity
  8
ASSI
100
AcDbLine
 62
7
  6
CONTINUOUS
 10
178.6383979047
 20
73.2935595241
 11
177.8204019047
 21
75.8413245241
  0
LWPOLYLINE
  5
2CE
100
AcDbEntity
  8
RACCORDO
100
AcDbPolyline
 62
7
  6
CONTINUOUS
 90
25
 70
0
 10
123.6667119047
 20
105.2870870676
 10
123.7204324644
 20
105.3000828701
 10
123.7724944399
 20
105.3165378005
 10
123.8227028029
 20
105.3364518587
 10
123.8709744839
 20
105.3602856737
 10
123.9171061166
 20
105.3875786165
 10
123.9607850785
 20
105.4169488002
 10
124.0017780806
 20
105.4482057757
 10
124.0402596149
 20
105.4815399921
 10
124.0765581918
 20
105.5161409105
 10
124.1107192469
 20
105.5519413449
 10
124.1427116227
 20
105.5890084814
 10
124.1727303944
 20
105.6267333385
 10
124.2007661616
 20
105.6649786684
 10
124.226895128
 20
105.7038817189
 10
124.2514065169
 20
105.7432452522
 10
124.2743424426
 20
105.7830371379
 10
124.2957069571
 20
105.8232895062
 10
124.3156837518
 20
105.8639015107
 10
124.3342887393
 20
105.9048422963
 10
124.3515334742
 20
105.946142718
 10
124.3675517024
 20
105.9877944947
 10
124.3823769061
 20
106.029794866
 10
124.3959691284
 20
106.0721465924
 10
124.4083317534
 20
106.1148496738
  0
LINE
  5
2CF
100
AcDbEntity
  8
0
100
AcDbLine
 62
7
  6
CONTINUOUS
 10
211.4667499817
 20
117.9912505241
 11
209.9684574112
 21
117.9912505241
  0
LINE
  5
2D0
100
AcDbEntity
  8
0
100
AcDbLine
 62
7
  6
CONTINUOUS
 10
119.9649663982
 20
117.9912505241
 11
118.4666738278
 21
117.9912505241
  0
LINE
  5
2D1
100
AcDbEntity
  8
0
100
AcDbLine
 62
7
  6
CONTINUOUS
 10
211.485076404
 20
118.0095769465
 11
209.9318017749
 21
118.0095769465
  0
LINE
  5
2D2
100
AcDbEntity
  8
0
100
AcDbLine
 62
7
  6
CONTINUOUS
 10
120.0016220346
 20
118.0095769465
 11
118.4483474054
 21
118.0095769465
  0
LINE
  5
2D3
100
AcDbEntity
  8
ASSI
100
AcDbLine
 62
7
  6
CONTINUOUS
 10
191.2779319047
 20
73.5718555241
 11
192.0195319047
 21
72.1411675241
  0
LINE
  5
2D4
100
AcDbEntity
  8
ASSI
100
AcDbLine
 62
7
  6
CONTINUOUS
 10
192.8530589047
 20
72.1411765241
 11
192.0653365162
 21
73.660852203
  0
LINE
  5
2D5
100
AcDbEntity
  8
ASSI
100
AcDbLine
 62
7
  6
CONTINUOUS
 10
182.9098259047
 20
74.5811695241
 11
183.6094779047
 21
72.1411575241
  0
LINE
  5
2D6
100
AcDbEntity
  8
ASSI
100
AcDbLine
 62
7
  6
CONTINUOUS
 10
183.9794869047
 20
73.4316435241
 11
183.2885209047
 21
75.8413245241
  0
LINE
  5
2D7
100
AcDbEntity
  8
RACCORDO
100
AcDbLine
 62
250
  6
CONTINUOUS
 10
222.4610756006
 20
149.4854999892
 11
222.7168261355
 21
149.7412505241
  0
LINE
  5
2D8
100
AcDbEntity
  8
RACCORDO
100
AcDbLine
 62
7
  6
CONTINUOUS
 10
208.0588143492
 20
111.5834159909
 11
208.0667119047
 21
111.5866956392
  0
LWPOLYLINE
  5
2D9
100
AcDbEntity
  8
RACCORDO
100
AcDbPolyline
 62
7
  6
CONTINUOUS
 90
25
 70
0
 10
122.6667119047
 20
110.6954139807
 10
122.6129913451
 20
110.6824181782
 10
122.5609293696
 20
110.6659632478
 10
122.5107210066
 20
110.6460491896
 10
122.4624493256
 20
110.6222153746
 10
122.4163176929
 20
110.5949224318
 10
122.372638731
 20
110.5655522481
 10
122.3316457289
 20
110.5342952726
 10
122.2931641946
 20
110.5009610562
 10
122.2568656176
 20
110.4663601378
 10
122.2227045626
 20
110.4305597034
 10
122.1907121868
 20
110.3934925669
 10
122.1606934151
 20
110.3557677098
 10
122.1326576479
 20
110.3175223799
 10
122.1065286814
 20
110.2786193294
 10
122.0820172925
 20
110.2392557961
 10
122.0590813669
 20
110.1994639104
 10
122.0377168523
 20
110.1592115421
 10
122.0177400577
 20
110.1185995376
 10
121.9991350702
 20
110.077658752
 10
121.9818903353
 20
110.0363583303
 10
121.965872107
 20
109.9947065536
 10
121.9510469034
 20
109.9527061823
 10
121.9374546811
 20
109.9103544559
 10
121.925092056
 20
109.8676513745
  0
LWPOLYLINE
  5
2DA
100
AcDbEntity
  8
RACCORDO
100
AcDbPolyline
 62
7
  6
CONTINUOUS
 90
3
 70
0
 10
207.9980859304
 20
104.4211574345
 10
208.0588143492
 20
104.3990850574
 10
208.0667119047
 20
104.3958054091
  0
LINE
  5
2DB
100
AcDbEntity
  8
RACCORDO
100
AcDbLine
 62
250
  6
CONTINUOUS
 10
222.4610756006
 20
66.4970010591
 11
222.7168261355
 21
66.2412505241
  0
LINE
  5
2DC
100
AcDbEntity
  8
ASSI
100
AcDbLine
 62
7
  6
CONTINUOUS
 10
187.8405389047
 20
74.6889225241
 11
188.1991889047
 21
73.5718555241
  0
LINE
  5
2DD
100
AcDbEntity
  8
ASSI
100
AcDbLine
 62
7
  6
CONTINUOUS
 10
188.4249259047
 20
72.8688275241
 11
188.6585439047
 21
72.1411675241
  0
LINE
  5
2DE
100
AcDbEntity
  8
ASSI
100
AcDbLine
 62
7
  6
CONTINUOUS
 10
189.3985809047
 20
72.1411575241
 11
188.2105759047
 21
75.8413335241
  0
LINE
  5
2DF
100
AcDbEntity
  8
ASSI
100
AcDbLine
 62
7
  6
CONTINUOUS
 10
180.6897709047
 20
75.8413245241
 11
180.6897619047
 21
72.1411485241
  0
LINE
  5
2E0
100
AcDbEntity
  8
ASSI
100
AcDbLine
 62
7
  6
CONTINUOUS
 10
181.4297889047
 20
72.1411575241
 11
181.4297989047
 21
75.8413245241
  0
LINE
  5
2E1
100
AcDbEntity
  8
ASSI
100
AcDbLine
 62
7
  6
CONTINUOUS
 10
182.1697989047
 20
75.8413245241
 11
182.1697989047
 21
72.1411575241
  0
LINE
  5
2E2
100
AcDbEntity
  8
ASSI
100
AcDbLine
 62
7
  6
CONTINUOUS
 10
182.9098259047
 20
72.1411575241
 11
182.9098259047
 21
74.5811695241
  0
LINE
  5
2E3
100
AcDbEntity
  8
ASSI
100
AcDbLine
 62
7
  6
CONTINUOUS
 10
185.0491389047
 20
74.5811695241
 11
185.0491479047
 21
72.1411575241
  0
LINE
  5
2E4
100
AcDbEntity
  8
RACCORDO
100
AcDbLine
 62
250
  6
CONTINUOUS
 10
225.4609613697
 20
146.48561422
 11
225.7167119047
 21
146.741364755
  0
LWPOLYLINE
  5
2E5
100
AcDbEntity
  8
RACCORDO
100
AcDbPolyline
 62
7
  6
CONTINUOUS
 90
11
 70
0
 10
207.2667119047
 20
111.2395820015
 10
207.3616932954
 20
111.2892475628
 10
207.4572115712
 20
111.3357049227
 10
207.5517339108
 20
111.378954081
 10
207.6437187925
 20
111.4193555261
 10
207.7312620133
 20
111.4565487698
 10
207.8122205034
 20
111.4894523469
 10
207.8848084452
 20
111.5179995558
 10
207.9473446735
 20
111.5422570982
 10
207.9980859304
 20
111.5613436138
 10
208.0588143492
 20
111.5834159909
  0
LINE
  5
2E6
100
AcDbEntity
  8
RACCORDO
100
AcDbLine
 62
7
  6
CONTINUOUS
 10
205.4746094602
 20
104.3990850574
 11
205.4667119047
 21
104.3958054091
  0
LWPOLYLINE
  5
2E7
100
AcDbEntity
  8
RACCORDO
100
AcDbPolyline
 62
7
  6
CONTINUOUS
 90
3
 70
0
 10
205.5353378791
 20
111.5613436138
 10
205.4746094602
 20
111.5834159909
 10
205.4667119047
 20
111.5866956392
  0
LWPOLYLINE
  5
2E8
100
AcDbEntity
  8
RACCORDO
100
AcDbPolyline
 62
7
  6
CONTINUOUS
 90
10
 70
0
 10
207.2667119047
 20
104.7429190468
 10
207.3616932954
 20
104.6932534855
 10
207.4572115712
 20
104.6467961256
 10
207.5517339108
 20
104.6035469673
 10
207.6437187925
 20
104.5631455222
 10
207.7312620133
 20
104.5259522785
 10
207.8122205034
 20
104.4930487014
 10
207.8848084452
 20
104.4645014925
 10
207.9473446735
 20
104.4402439501
 10
207.9980859304
 20
104.4211574345
  0
LINE
  5
2E9
100
AcDbEntity
  8
RACCORDO
100
AcDbLine
 62
250
  6
CONTINUOUS
 10
225.4609613697
 20
69.4968868283
 11
225.7167119047
 21
69.2411362933
  0
LINE
  5
2EA
100
AcDbEntity
  8
ASSI
100
AcDbLine
 62
7
  6
CONTINUOUS
 10
185.7891759047
 20
72.1411575241
 11
185.7891759047
 21
75.8413245241
  0
LINE
  5
2EB
100
AcDbEntity
  8
ASSI
100
AcDbLine
 62
7
  6
CONTINUOUS
 10
189.8919299047
 20
75.8413335241
 11
189.8919299047
 21
72.1411675241
  0
LINE
  5
2EC
100
AcDbEntity
  8
ASSI
100
AcDbLine
 62
7
  6
CONTINUOUS
 10
179.4563849047
 20
75.8413245241
 11
178.6383979047
 21
73.2935595241
  0
LINE
  5
2ED
100
AcDbEntity
  8
ASSI
100
AcDbLine
 62
7
  6
CONTINUOUS
 10
179.0084169047
 20
72.1411575241
 11
180.1964219047
 21
75.8413245241
  0
LWPOLYLINE
  5
2EE
100
AcDbEntity
  8
RACCORDO
100
AcDbPolyline
 62
7
  6
CONTINUOUS
 90
11
 70
0
 10
206.2667119047
 20
104.7429190468
 10
206.1717305141
 20
104.6932534855
 10
206.0762122383
 20
104.6467961256
 10
205.9816898987
 20
104.6035469673
 10
205.889705017
 20
104.5631455222
 10
205.8021617962
 20
104.5259522785
 10
205.7212033061
 20
104.4930487014
 10
205.6486153643
 20
104.4645014925
 10
205.586079136
 20
104.4402439501
 10
205.5353378791
 20
104.4211574345
 10
205.4746094602
 20
104.3990850574
  0
LINE
  5
2EF
100
AcDbEntity
  8
DRAFT
100
AcDbLine
 62
7
  6
CONTINUOUS
 10
215.4667119047
 20
131.4912505241
 11
212.4667119047
 21
131.4912505241
  0
LINE
  5
2F0
100
AcDbEntity
  8
DRAFT
100
AcDbLine
 62
7
  6
CONTINUOUS
 10
117.4667119047
 20
131.4912505241
 11
114.4667119047
 21
131.4912505241
  0
LINE
  5
2F1
100
AcDbEntity
  8
DRAFT
100
AcDbLine
 62
7
  6
CONTINUOUS
 10
215.4667119047
 20
131.7530764981
 11
212.4667119047
 21
131.7530764981
  0
LINE
  5
2F2
100
AcDbEntity
  8
DRAFT
100
AcDbLine
 62
7
  6
CONTINUOUS
 10
117.4667119047
 20
131.7530764981
 11
114.4667119047
 21
131.7530764981
  0
LWPOLYLINE
  5
2F3
100
AcDbEntity
  8
RACCORDO
100
AcDbPolyline
 62
7
  6
CONTINUOUS
 90
10
 70
0
 10
206.2667119047
 20
111.2395820015
 10
206.1717305141
 20
111.2892475628
 10
206.0762122383
 20
111.3357049227
 10
205.9816898987
 20
111.378954081
 10
205.889705017
 20
111.4193555261
 10
205.8021617962
 20
111.4565487698
 10
205.7212033061
 20
111.4894523469
 10
205.6486153643
 20
111.5179995558
 10
205.586079136
 20
111.5422570982
 10
205.5353378791
 20
111.5613436138
  0
LWPOLYLINE
  5
2F4
100
AcDbEntity
  8
0
100
AcDbPolyline
 62
7
  6
CONTINUOUS
 90
10
 70
0
 43
0.3500000006
 10
165.8238519287
 20
160.9912434082
 10
165.8952921753
 20
160.8483991699
 10
165.8952921753
 20
160.7769589233
 10
165.7524298096
 20
160.6341146851
 10
165.680989563
 20
160.6341146851
 10
165.6095674438
 20
160.7055368042
 10
165.6095674438
 20
160.7769589233
 10
165.680989563
 20
160.9198212891
 10
165.7524298096
 20
160.9912434082
 10
165.8238519287
 20
160.9912434082
  0
LINE
  5
2F5
100
AcDbEntity
  8
ASSI
100
AcDbLine
 62
7
  6
CONTINUOUS
 10
190.6217639047
 20
74.2563925241
 11
190.6217549047
 21
75.1568065241
  0
LINE
  5
2F6
100
AcDbEntity
  8
ASSI
100
AcDbLine
 62
7
  6
CONTINUOUS
 10
190.6319669047
 20
72.1411675241
 11
190.6320499047
 21
73.5718645241
  0
LINE
  5
2F7
100
AcDbEntity
  8
ASSI
100
AcDbLine
 62
7
  6
CONTINUOUS
 10
184.6704529047
 20
75.8413245241
 11
183.9794869047
 21
73.4316435241
  0
LINE
  5
2F8
100
AcDbEntity
  8
ASSI
100
AcDbLine
 62
7
  6
CONTINUOUS
 10
184.3494869047
 20
72.1411675241
 11
185.0491389047
 21
74.5811695241
  0
LINE
  5
2F9
100
AcDbEntity
  8
DRAFT
100
AcDbLine
 62
7
  6
CONTINUOUS
 10
215.9667119047
 20
133.7530764981
 11
211.9667119047
 21
133.7530764981
  0
LINE
  5
2FA
100
AcDbEntity
  8
DRAFT
100
AcDbLine
 62
7
  6
CONTINUOUS
 10
117.9667119047
 20
133.7530764981
 11
113.9667119047
 21
133.7530764981
  0
LINE
  5
2FB
100
AcDbEntity
  8
DRAFT
100
AcDbLine
 62
7
  6
CONTINUOUS
 10
215.9667119047
 20
134.0131569655
 11
211.9667119047
 21
134.0131569655
  0
LINE
  5
2FC
100
AcDbEntity
  8
DRAFT
100
AcDbLine
 62
7
  6
CONTINUOUS
 10
117.9667119047
 20
134.0131569655
 11
113.9667119047
 21
134.0131569655
  0
LINE
  5
2FD
100
AcDbEntity
  8
DRAFT
100
AcDbLine
 62
7
  6
CONTINUOUS
 10
203.4173415256
 20
136.4912505241
 11
126.5160822838
 21
136.4912505241
  0
LINE
  5
2FE
100
AcDbEntity
  8
DRAFT
100
AcDbLine
 62
7
  6
CONTINUOUS
 10
113.9667119047
 20
137.9693440828
 11
117.9667119047
 21
137.9693440828
  0
LINE
  5
2FF
100
AcDbEntity
  8
DRAFT
100
AcDbLine
 62
7
  6
CONTINUOUS
 10
211.9667119047
 20
137.9693440828
 11
215.9667119047
 21
137.9693440828
  0
LWPOLYLINE
  5
300
100
AcDbEntity
  8
0
100
AcDbPolyline
 62
7
  6
CONTINUOUS
 90
3
 70
0
 43
0.3500000006
 10
242.6809949341
 20
109.0269657898
 10
242.8952794189
 20
108.9555346069
 10
243.1810041504
 20
108.8126813049
  0
LINE
  5
301
100
AcDbEntity
  8
ASSI
100
AcDbLine
 62
7
  6
CONTINUOUS
 10
187.4705109047
 20
75.8413335241
 11
186.2825249047
 21
72.1411575241
  0
LINE
  5
302
100
AcDbEntity
  8
ASSI
100
AcDbLine
 62
7
  6
CONTINUOUS
 10
187.4819069047
 20
73.5718555241
 11
187.8405389047
 21
74.6889225241
  0
LINE
  5
303
100
AcDbEntity
  8
ASSI
100
AcDbLine
 62
7
  6
CONTINUOUS
 10
187.0225519047
 20
72.1411675241
 11
187.2561799047
 21
72.8688275241
  0
LWPOLYLINE
  5
304
100
AcDbEntity
  8
0
100
AcDbPolyline
 62
7
  6
CONTINUOUS
 90
10
 70
0
 43
0.3500000006
 10
242.4667104492
 20
108.9555346069
 10
242.6095728149
 20
109.0269657898
 10
242.6809949341
 20
109.0269657898
 10
242.8238572998
 20
108.8841034241
 10
242.8238572998
 20
108.8126813049
 10
242.7524351807
 20
108.7412501221
 10
242.6809949341
 20
108.7412501221
 10
242.5381325684
 20
108.8126813049
 10
242.4667104492
 20
108.8841034241
 10
242.4667104492
 20
108.9555346069
  0
LINE
  5
305
100
AcDbEntity
  8
DRAFT
100
AcDbLine
 62
7
  6
CONTINUOUS
 10
113.9667119047
 20
138.2294245502
 11
117.9667119047
 21
138.2294245502
  0
LINE
  5
306
100
AcDbEntity
  8
DRAFT
100
AcDbLine
 62
7
  6
CONTINUOUS
 10
211.9667119047
 20
138.2294245502
 11
215.9667119047
 21
138.2294245502
  0
LINE
  5
307
100
AcDbEntity
  8
DRAFT
100
AcDbLine
 62
7
  6
CONTINUOUS
 10
114.4667119047
 20
140.2294245502
 11
117.4667119047
 21
140.2294245502
  0
LINE
  5
308
100
AcDbEntity
  8
DRAFT
100
AcDbLine
 62
7
  6
CONTINUOUS
 10
212.4667119047
 20
140.2294245502
 11
215.4667119047
 21
140.2294245502
  0
LINE
  5
309
100
AcDbEntity
  8
DRAFT
100
AcDbLine
 62
7
  6
CONTINUOUS
 10
114.4667119047
 20
140.4912505241
 11
117.4667119047
 21
140.4912505241
  0
LINE
  5
30A
100
AcDbEntity
  8
DRAFT
100
AcDbLine
 62
7
  6
CONTINUOUS
 10
212.4667119047
 20
140.4912505241
 11
215.4667119047
 21
140.4912505241
  0
LWPOLYLINE
  5
30B
100
AcDbEntity
  8
0
100
AcDbPolyline
 62
7
  6
CONTINUOUS
 90
10
 70
0
 43
0.3500000006
 10
166.5738566895
 20
176.991248291
 10
166.6452788086
 20
176.8483859253
 10
166.6452788086
 20
176.7769638062
 10
166.5024345703
 20
176.6341014404
 10
166.4309943237
 20
176.6341014404
 10
166.3595722046
 20
176.705541687
 10
166.3595722046
 20
176.7769638062
 10
166.4309943237
 20
176.9198261719
 10
166.5024345703
 20
176.991248291
 10
166.5738566895
 20
176.991248291
  0
LINE
  5
30C
100
AcDbEntity
  8
RACCORDO
100
AcDbLine
 62
250
  6
CONTINUOUS
 10
105.1724357859
 20
146.48561422
 11
104.4724624397
 21
146.48561422
  0
LINE
  5
30D
100
AcDbEntity
  8
RACCORDO
100
AcDbLine
 62
250
  6
CONTINUOUS
 10
224.7609880236
 20
146.48561422
 11
225.4609613697
 21
146.48561422
  0
LWPOLYLINE
  5
30E
100
AcDbEntity
  8
RACCORDO
100
AcDbPolyline
 62
7
  6
CONTINUOUS
 90
19
 70
0
 10
205.6180756831
 20
105.8631915552
 10
205.6381653213
 20
105.8224152619
 10
205.6596554938
 20
105.7820019746
 10
205.682713318
 20
105.7420831907
 10
205.7073396095
 20
105.7026324543
 10
205.733575113
 20
105.6636762212
 10
205.7616910687
 20
105.6254253562
 10
205.7917525684
 20
105.5877550072
 10
205.8237529501
 20
105.5507900263
 10
205.8578889036
 20
105.5151158352
 10
205.8941206887
 20
105.480669227
 10
205.9324967152
 20
105.4475134086
 10
205.9733670883
 20
105.4164234225
 10
206.0169041443
 20
105.3872031345
 10
206.0628769746
 20
105.3600486787
 10
206.1110052232
 20
105.3363234997
 10
206.1610984418
 20
105.3164820789
 10
206.2130651564
 20
105.3000699348
 10
206.2667119047
 20
105.2870870676
  0
LWPOLYLINE
  5
30F
100
AcDbEntity
  8
RACCORDO
100
AcDbPolyline
 62
7
  6
CONTINUOUS
 90
19
 70
0
 10
207.9153481264
 20
110.1193094931
 10
207.8952584882
 20
110.1600857864
 10
207.8737683156
 20
110.2004990737
 10
207.8507104915
 20
110.2404178576
 10
207.8260842
 20
110.279868594
 10
207.7998486965
 20
110.3188248271
 10
207.7717327408
 20
110.3570756921
 10
207.741671241
 20
110.3947460411
 10
207.7096708594
 20
110.431711022
 10
207.6755349059
 20
110.4673852131
 10
207.6393031208
 20
110.5018318213
 10
207.6009270943
 20
110.5349876397
 10
207.5600567212
 20
110.5660776258
 10
207.5165196651
 20
110.5952979138
 10
207.4705468349
 20
110.6224523696
 10
207.4224185863
 20
110.6461775486
 10
207.3723253677
 20
110.6660189694
 10
207.3203586531
 20
110.6824311135
 10
207.2667119047
 20
110.6954139807
  0
LWPOLYLINE
  5
310
100
AcDbEntity
  8
RACCORDO
100
AcDbPolyline
 62
7
  6
CONTINUOUS
 90
7
 70
0
 10
205.525092056
 20
106.1148496738
 10
205.5374681348
 20
106.0720990758
 10
205.5510873974
 20
106.0296715091
 10
205.5659558537
 20
105.9875669737
 10
205.5820395308
 20
105.9457721447
 10
205.5993713388
 20
105.9043003469
 10
205.6180756831
 20
105.8631915552
  0
LINE
  5
311
100
AcDbEntity
  8
RACCORDO
100
AcDbLine
 62
7
  6
CONTINUOUS
 10
205.4667119047
 20
111.5866956392
 11
205.4667119047
 21
109.8276872914
  0
LINE
  5
312
100
AcDbEntity
  8
RACCORDO
100
AcDbLine
 62
7
  6
CONTINUOUS
 10
205.4667119047
 20
106.1548137569
 11
205.4667119047
 21
104.3958054091
  0
LINE
  5
313
100
AcDbEntity
  8
RACCORDO
100
AcDbLine
 62
250
  6
CONTINUOUS
 10
206.2667119047
 20
111.2395820015
 11
206.2667119047
 21
110.6954139807
  0
LINE
  5
314
100
AcDbEntity
  8
RACCORDO
100
AcDbLine
 62
250
  6
CONTINUOUS
 10
206.2667119047
 20
105.2870870676
 11
206.2667119047
 21
104.7429190468
  0
LINE
  5
315
100
AcDbEntity
  8
RACCORDO
100
AcDbLine
 62
250
  6
CONTINUOUS
 10
207.2667119047
 20
104.7429190468
 11
207.2667119047
 21
105.2870870676
  0
LINE
  5
316
100
AcDbEntity
  8
RACCORDO
100
AcDbLine
 62
250
  6
CONTINUOUS
 10
207.2667119047
 20
110.6954139807
 11
207.2667119047
 21
111.2395820015
  0
LINE
  5
317
100
AcDbEntity
  8
RACCORDO
100
AcDbLine
 62
7
  6
CONTINUOUS
 10
208.0667119047
 20
104.3958054091
 11
208.0667119047
 21
106.1548137569
  0
LINE
  5
318
100
AcDbEntity
  8
RACCORDO
100
AcDbLine
 62
7
  6
CONTINUOUS
 10
208.0667119047
 20
109.8276872914
 11
208.0667119047
 21
111.5866956392
  0
LWPOLYLINE
  5
319
100
AcDbEntity
  8
RACCORDO
100
AcDbPolyline
 62
250
  6
CONTINUOUS
 90
25
 70
0
 10
107.4723482089
 20
149.4854999892
 10
107.3135799468
 20
149.4812933042
 10
107.1463666461
 20
149.4677313982
 10
106.9713544979
 20
149.4433632907
 10
106.7883548917
 20
149.4064732881
 10
106.5994451544
 20
149.3556836054
 10
106.4088099052
 20
149.2906345303
 10
106.2176777646
 20
149.2105088381
 10
106.027436787
 20
149.1145831972
 10
105.8422562881
 20
149.0039561504
 10
105.6634281299
 20
148.8787403764
 10
105.4921857572
 20
148.7391006812
 10
105.3319326288
 20
148.587486241
 10
105.1834683182
 20
148.4247566825
 10
105.0475522003
 20
148.2518557192
 10
104.9264761677
 20
148.0723660946
 10
104.8202455344
 20
147.8876123479
 10
104.7287816011
 20
147.6989119985
 10
104.6529616375
 20
147.5104619728
 10
104.5918927905
 20
147.3236093194
 10
104.5446181331
 20
147.1395733301
 10
104.5106266086
 20
146.9625637234
 10
104.4884235171
 20
146.7946150754
 10
104.4762084839
 20
146.6354410924
 10
104.4724624397
 20
146.48561422
  0
LWPOLYLINE
  5
31A
100
AcDbEntity
  8
RACCORDO
100
AcDbPolyline
 62
250
  6
CONTINUOUS
 90
25
 70
0
 10
107.4723482089
 20
148.785526643
 10
107.3494846874
 20
148.7841789883
 10
107.2213784104
 20
148.7733998741
 10
107.0880293779
 20
148.7531893003
 10
106.9477975396
 20
148.7242076662
 10
106.8023229458
 20
148.6857945725
 10
106.6565257472
 20
148.6359688218
 10
106.5103360369
 20
148.573948531
 10
106.3638237219
 20
148.5005155831
 10
106.2221186735
 20
148.4160344301
 10
106.0855535885
 20
148.3197411381
 10
105.9537957702
 20
148.212399641
 10
105.8309770006
 20
148.0966661926
 10
105.7177091088
 20
147.9719557857
 10
105.6133802657
 20
147.8388534276
 10
105.5202867663
 20
147.7017703931
 10
105.4392166428
 20
147.5604545827
 10
105.3693818629
 20
147.415158096
 10
105.3107146251
 20
147.2710485064
 10
105.2639574471
 20
147.1282200694
 10
105.2283678111
 20
146.9865785295
 10
105.2016503624
 20
146.8510086939
 10
105.1830399829
 20
146.7231388316
 10
105.1733017907
 20
146.6013406736
 10
105.1724357859
 20
146.48561422
  0
LINE
  5
31B
100
AcDbEntity
  8
RACCORDO
100
AcDbLine
 62
250
  6
CONTINUOUS
 10
222.4610756006
 20
148.785526643
 11
107.4723482089
 21
148.785526643
  0
LINE
  5
31C
100
AcDbEntity
  8
RACCORDO
100
AcDbLine
 62
7
  6
CONTINUOUS
 10
222.4610756006
 20
149.4854999892
 11
107.4723482089
 21
149.4854999892
  0
LINE
  5
31D
100
AcDbEntity
  8
RACCORDO
100
AcDbLine
 62
7
  6
CONTINUOUS
 10
222.7168261355
 20
149.7412505241
 11
107.2165976739
 21
149.7412505241
  0
LWPOLYLINE
  5
31E
100
AcDbEntity
  8
0
100
AcDbPolyline
 62
7
  6
CONTINUOUS
 90
13
 70
0
 43
0.3500000006
 10
161.1095751343
 20
162.2055281982
 10
160.8238504028
 20
162.4198308105
 10
160.8238504028
 20
163.0626842651
 10
161.1095751343
 20
163.4912532349
 10
161.7524285889
 20
163.4912532349
 10
162.0381351929
 20
163.0626842651
 10
162.0381351929
 20
162.4198308105
 10
161.7524285889
 20
162.2055281982
 10
162.1809975586
 20
161.7769592285
 10
162.1809975586
 20
160.9198212891
 10
161.7524285889
 20
160.4912523193
 10
161.1095751343
 20
160.4912523193
 10
160.6810061646
 20
160.9198212891
  0
LWPOLYLINE
  5
31F
100
AcDbEntity
  8
RACCORDO
100
AcDbPolyline
 62
7
  6
CONTINUOUS
 90
7
 70
0
 10
208.0083317535
 20
109.8676513745
 10
207.9959556747
 20
109.9104019725
 10
207.9823364121
 20
109.9528295392
 10
207.9674679557
 20
109.9949340746
 10
207.9513842786
 20
110.0367289036
 10
207.9340524707
 20
110.0782007014
 10
207.9153481264
 20
110.1193094931
  0
LINE
  5
320
100
AcDbEntity
  8
0
100
AcDbLine
 62
7
  6
CONTINUOUS
 10
209.9318017749
 20
129.9767902749
 11
209.9318017749
 21
118.0095769465
  0
LINE
  5
321
100
AcDbEntity
  8
0
100
AcDbLine
 62
7
  6
CONTINUOUS
 10
209.9318017749
 20
97.9729241018
 11
209.9318017749
 21
85.9563403943
  0
LINE
  5
322
100
AcDbEntity
  8
0
100
AcDbLine
 62
7
  6
CONTINUOUS
 10
209.9684574112
 20
97.9912505241
 11
209.9684574112
 21
104.154854533
  0
LINE
  5
323
100
AcDbEntity
  8
0
100
AcDbLine
 62
7
  6
CONTINUOUS
 10
209.9684574112
 20
111.8276465153
 11
209.9684574112
 21
117.9912505241
  0
LINE
  5
324
100
AcDbEntity
  8
DRAFT
100
AcDbLine
 62
7
  6
CONTINUOUS
 10
211.4667119047
 20
78.4912505241
 11
211.4667119047
 21
81.4912505241
  0
LINE
  5
325
100
AcDbEntity
  8
DRAFT
100
AcDbLine
 62
7
  6
CONTINUOUS
 10
211.7285378787
 20
78.4912505241
 11
211.7285378787
 21
81.4912505241
  0
LINE
  5
326
100
AcDbEntity
  8
DRAFT
100
AcDbLine
 62
250
  6
CONTINUOUS
 10
211.9667119047
 20
134.0131569655
 11
211.9667119047
 21
133.7530764981
  0
LINE
  5
327
100
AcDbEntity
  8
DRAFT
100
AcDbLine
 62
250
  6
CONTINUOUS
 10
211.9667119047
 20
137.9693440828
 11
211.9667119047
 21
138.2294245502
  0
LINE
  5
328
100
AcDbEntity
  8
DRAFT
100
AcDbLine
 62
250
  6
CONTINUOUS
 10
212.4667119047
 20
131.7530764981
 11
212.4667119047
 21
131.4912505241
  0
LINE
  5
329
100
AcDbEntity
  8
0
100
AcDbLine
 62
7
  6
CONTINUOUS
 10
212.4667119047
 20
98.9912124472
 11
212.4667119047
 21
116.9912886011
  0
LINE
  5
32A
100
AcDbEntity
  8
DRAFT
100
AcDbLine
 62
250
  6
CONTINUOUS
 10
212.4667119047
 20
140.2294245502
 11
212.4667119047
 21
140.4912505241
  0
LINE
  5
32B
100
AcDbEntity
  8
0
100
AcDbLine
 62
7
  6
CONTINUOUS
 10
212.4850383271
 20
117.0096150234
 11
212.4850383271
 21
98.9728860249
  0
LINE
  5
32C
100
AcDbEntity
  8
DRAFT
100
AcDbLine
 62
7
  6
CONTINUOUS
 10
213.7285378787
 20
77.9912505241
 11
213.7285378787
 21
81.9912505241
  0
LINE
  5
32D
100
AcDbEntity
  8
DRAFT
100
AcDbLine
 62
7
  6
CONTINUOUS
 10
213.9886183461
 20
77.9912505241
 11
213.9886183461
 21
81.9912505241
  0
LINE
  5
32E
100
AcDbEntity
  8
DRAFT
100
AcDbLine
 62
7
  6
CONTINUOUS
 10
209.9318017749
 20
85.9563403943
 11
203.4667119047
 21
79.4912505241
  0
LINE
  5
32F
100
AcDbEntity
  8
DRAFT
100
AcDbLine
 62
7
  6
CONTINUOUS
 10
209.9318017749
 20
129.9767902749
 11
209.3604692634
 21
130.5481227863
  0
LINE
  5
330
100
AcDbEntity
  8
DRAFT
100
AcDbLine
 62
7
  6
CONTINUOUS
 10
203.4173415256
 20
136.4912505241
 11
206.5235841669
 21
133.3850078829
  0
LWPOLYLINE
  5
331
100
AcDbEntity
  8
0
100
AcDbPolyline
 62
7
  6
CONTINUOUS
 90
10
 70
0
 43
0.3500000006
 10
231.9667163086
 20
108.9555346069
 10
232.6095697632
 20
108.3126811523
 10
233.4667077026
 20
107.8841121826
 10
234.5381482544
 20
107.8841121826
 10
234.9667172241
 20
108.3126811523
 10
234.9667172241
 20
108.9555346069
 10
234.5381482544
 20
109.3841035767
 10
233.6809921875
 20
109.3841035767
 10
233.2524232178
 20
108.9555346069
 10
233.2524232178
 20
108.0269654846
  0
LINE
  5
332
100
AcDbEntity
  8
DRAFT
100
AcDbLine
 62
250
  6
CONTINUOUS
 10
215.4667119047
 20
131.7530764981
 11
215.4667119047
 21
131.4912505241
  0
LINE
  5
333
100
AcDbEntity
  8
DRAFT
100
AcDbLine
 62
250
  6
CONTINUOUS
 10
215.4667119047
 20
140.2294245502
 11
215.4667119047
 21
140.4912505241
  0
LINE
  5
334
100
AcDbEntity
  8
DRAFT
100
AcDbLine
 62
250
  6
CONTINUOUS
 10
215.9667119047
 20
134.0131569655
 11
215.9667119047
 21
133.7530764981
  0
LINE
  5
335
100
AcDbEntity
  8
DRAFT
100
AcDbLine
 62
250
  6
CONTINUOUS
 10
215.9667119047
 20
137.9693440828
 11
215.9667119047
 21
138.2294245502
  0
LINE
  5
336
100
AcDbEntity
  8
DRAFT
100
AcDbLine
 62
7
  6
CONTINUOUS
 10
217.9448054634
 20
81.9912505241
 11
217.9448054634
 21
77.9912505241
  0
LINE
  5
337
100
AcDbEntity
  8
DRAFT
100
AcDbLine
 62
7
  6
CONTINUOUS
 10
218.2048859308
 20
81.9912505241
 11
218.2048859308
 21
77.9912505241
  0
LWPOLYLINE
  5
338
100
AcDbEntity
  8
0
100
AcDbPolyline
 62
7
  6
CONTINUOUS
 90
6
 70
0
 43
0.3500000006
 10
163.038135498
 20
160.4912523193
 10
164.1095760498
 20
160.4912523193
 10
164.3238605347
 20
160.7055368042
 10
164.3238605347
 20
161.7769592285
 10
163.8952915649
 20
162.2055281982
 10
163.4667044678
 20
162.2055281982
  0
LWPOLYLINE
  5
339
100
AcDbEntity
  8
0
100
AcDbPolyline
 62
7
  6
CONTINUOUS
 90
13
 70
0
 43
0.3500000006
 10
165.395282959
 20
170.2055306396
 10
165.109576355
 20
170.4198151245
 10
165.109576355
 20
171.0626867065
 10
165.395282959
 20
171.4912556763
 10
166.0381364136
 20
171.4912556763
 10
166.323861145
 20
171.0626867065
 10
166.323861145
 20
170.4198151245
 10
166.0381364136
 20
170.2055306396
 10
166.4667053833
 20
169.7769616699
 10
166.4667053833
 20
168.9198237305
 10
166.0381364136
 20
168.4912547607
 10
165.395282959
 20
168.4912547607
 10
164.9667139893
 20
168.9198237305
  0
LINE
  5
33A
100
AcDbEntity
  8
DRAFT
100
AcDbLine
 62
7
  6
CONTINUOUS
 10
220.2048859308
 20
81.4912505241
 11
220.2048859308
 21
78.4912505241
  0
LINE
  5
33B
100
AcDbEntity
  8
DRAFT
100
AcDbLine
 62
7
  6
CONTINUOUS
 10
220.4667119047
 20
81.4912505241
 11
220.4667119047
 21
78.4912505241
  0
LINE
  5
33C
100
AcDbEntity
  8
RACCORDO
100
AcDbLine
 62
250
  6
CONTINUOUS
 10
222.4610756006
 20
67.1969744053
 11
222.4610756006
 21
66.4970010591
  0
LINE
  5
33D
100
AcDbEntity
  8
RACCORDO
100
AcDbLine
 62
250
  6
CONTINUOUS
 10
222.4610756006
 20
148.785526643
 11
222.4610756006
 21
149.4854999892
  0
LWPOLYLINE
  5
33E
100
AcDbEntity
  8
RACCORDO
100
AcDbPolyline
 62
250
  6
CONTINUOUS
 90
25
 70
0
 10
225.4609613697
 20
146.48561422
 10
225.4567546848
 20
146.6443824821
 10
225.4431927788
 20
146.8115957828
 10
225.4188246713
 20
146.986607931
 10
225.3819346687
 20
147.1696075372
 10
225.331144986
 20
147.3585172744
 10
225.2660959109
 20
147.5491525237
 10
225.1859702187
 20
147.7402846643
 10
225.0900445778
 20
147.9305256419
 10
224.979417531
 20
148.1157061408
 10
224.8542017569
 20
148.294534299
 10
224.7145620618
 20
148.4657766717
 10
224.5629476216
 20
148.6260298001
 10
224.4002180631
 20
148.7744941106
 10
224.2273170998
 20
148.9104102286
 10
224.0478274752
 20
149.0314862612
 10
223.8630737285
 20
149.1377168944
 10
223.6743733791
 20
149.2291808277
 10
223.4859233534
 20
149.3050007914
 10
223.2990707
 20
149.3660696384
 10
223.1150347107
 20
149.4133442958
 10
222.938025104
 20
149.4473358203
 10
222.770076456
 20
149.4695389118
 10
222.6109024729
 20
149.481753945
 10
222.4610756006
 20
149.4854999892
  0
LWPOLYLINE
  5
33F
100
AcDbEntity
  8
RACCORDO
100
AcDbPolyline
 62
250
  6
CONTINUOUS
 90
25
 70
0
 10
224.7609880236
 20
146.48561422
 10
224.7596403689
 20
146.6084777415
 10
224.7488612547
 20
146.7365840185
 10
224.7286506809
 20
146.869933051
 10
224.6996690468
 20
147.0101648893
 10
224.6612559531
 20
147.1556394831
 10
224.6114302024
 20
147.3014366817
 10
224.5494099116
 20
147.4476263919
 10
224.4759769637
 20
147.594138707
 10
224.3914958107
 20
147.7358437554
 10
224.2952025187
 20
147.8724088404
 10
224.1878610216
 20
148.0041666587
 10
224.0721275731
 20
148.1269854283
 10
223.9474171663
 20
148.2402533201
 10
223.8143148082
 20
148.3445821632
 10
223.6772317737
 20
148.4376756625
 10
223.5359159633
 20
148.5187457861
 10
223.3906194766
 20
148.5885805659
 10
223.246509887
 20
148.6472478038
 10
223.10368145
 20
148.6940049818
 10
222.9620399101
 20
148.7295946178
 10
222.8264700745
 20
148.7563120665
 10
222.6986002122
 20
148.774922446
 10
222.5768020542
 20
148.7846606382
 10
222.4610756006
 20
148.785526643
  0
LINE
  5
340
100
AcDbEntity
  8
RACCORDO
100
AcDbLine
 62
250
  6
CONTINUOUS
 10
224.7609880236
 20
69.4968868283
 11
224.7609880236
 21
146.48561422
  0
LINE
  5
341
100
AcDbEntity
  8
RACCORDO
100
AcDbLine
 62
7
  6
CONTINUOUS
 10
225.4609613697
 20
69.4968868283
 11
225.4609613697
 21
146.48561422
  0
LINE
  5
342
100
AcDbEntity
  8
RACCORDO
100
AcDbLine
 62
7
  6
CONTINUOUS
 10
225.7167119047
 20
69.2411362933
 11
225.7167119047
 21
146.741364755
  0
LWPOLYLINE
  5
343
100
AcDbEntity
  8
0
100
AcDbPolyline
 62
7
  6
CONTINUOUS
 90
13
 70
0
 43
0.3500000006
 10
241.2524256592
 20
104.2412487488
 10
241.0381411743
 20
103.9555330811
 10
240.3952877197
 20
103.9555330811
 10
239.96671875
 20
104.2412487488
 10
239.96671875
 20
104.8841112671
 10
240.3952877197
 20
105.1698178711
 10
241.0381411743
 20
105.1698178711
 10
241.2524256592
 20
104.8841112671
 10
241.6809946289
 20
105.3126802368
 10
242.5381325684
 20
105.3126802368
 10
242.9667196655
 20
104.8841112671
 10
242.9667196655
 20
104.2412487488
 10
242.5381325684
 20
103.8126797791
  0
LWPOLYLINE
  5
344
100
AcDbEntity
  8
0
100
AcDbPolyline
 62
7
  6
CONTINUOUS
 90
8
 70
0
 43
0.3500000006
 10
234.9667172241
 20
105.7412492065
 10
234.9667172241
 20
106.5983962097
 10
234.5381482544
 20
107.0269651794
 10
233.6809921875
 20
107.0269651794
 10
233.2524232178
 20
106.5983962097
 10
233.2524232178
 20
105.7412492065
 10
231.9667163086
 20
105.7412492065
 10
231.9667163086
 20
107.0269651794
  0
LWPOLYLINE
  5
345
100
AcDbEntity
  8
0
100
AcDbPolyline
 62
7
  6
CONTINUOUS
 90
6
 70
0
 43
0.3500000006
 10
242.9667196655
 20
106.1698181763
 10
242.9667196655
 20
107.2412496643
 10
242.7524351807
 20
107.4555341492
 10
241.6809946289
 20
107.4555341492
 10
241.2524256592
 20
107.0269651794
 10
241.2524256592
 20
106.5983962097
  0
LWPOLYLINE
  5
346
100
AcDbEntity
  8
0
100
AcDbPolyline
 62
7
  6
CONTINUOUS
 90
8
 70
0
 43
0.3500000006
 10
242.9667196655
 20
110.026966095
 10
242.9667196655
 20
110.8841040344
 10
242.5381325684
 20
111.3126820679
 10
241.6809946289
 20
111.3126820679
 10
241.2524256592
 20
110.8841040344
 10
241.2524256592
 20
110.026966095
 10
239.96671875
 20
110.026966095
 10
239.96671875
 20
111.3126820679
  0
LWPOLYLINE
  5
347
100
AcDbEntity
  8
0
100
AcDbPolyline
 62
7
  6
CONTINUOUS
 90
7
 70
0
 43
0.3500000006
 10
163.3595712891
 20
176.4912572021
 10
161.8595617676
 20
176.4912572021
 10
163.3595712891
 20
178.6341020508
 10
163.3595712891
 20
179.0626710205
 10
162.9310023193
 20
179.4912581177
 10
162.2881488647
 20
179.4912581177
 10
161.8595617676
 20
178.8483865356
  0
LWPOLYLINE
  5
348
100
AcDbEntity
  8
0
100
AcDbPolyline
 62
7
  6
CONTINUOUS
 90
8
 70
0
 43
0.3500000006
 10
167.6452791138
 20
176.4912572021
 10
168.5024351807
 20
176.4912572021
 10
168.9310041504
 20
176.9198261719
 10
168.9310041504
 20
177.7769641113
 10
168.5024351807
 20
178.2055330811
 10
167.6452791138
 20
178.2055330811
 10
167.6452791138
 20
179.4912581177
 10
168.9310041504
 20
179.4912581177
  0
LWPOLYLINE
  5
349
100
AcDbEntity
  8
0
100
AcDbPolyline
 62
7
  6
CONTINUOUS
 90
5
 70
0
 43
0.3500000006
 10
241.2524256592
 20
107.0269651794
 10
241.0381411743
 20
107.38411203
 10
240.3952877197
 20
107.38411203
 10
239.96671875
 20
107.0269651794
 10
239.96671875
 20
106.1698181763
  0
LWPOLYLINE
  5
34A
100
AcDbEntity
  8
0
100
AcDbPolyline
 62
7
  6
CONTINUOUS
 90
5
 70
0
 43
0.3500000006
 10
56.0146051483
 20
162.2055281982
 10
56.3717519989
 20
162.4198308105
 10
56.3717519989
 20
163.0626842651
 10
56.0146051483
 20
163.4912532349
 10
55.157462677
 20
163.4912532349
  0
LINE
  5
34B
100
AcDbEntity
  8
RACCORDO
100
AcDbLine
 62
7
  6
CONTINUOUS
 10
43.1013557294
 20
66.4970010591
 11
72.4074643043
 21
66.2412505241
  0
LINE
  5
34C
100
AcDbEntity
  8
RACCORDO
100
AcDbLine
 62
250
  6
CONTINUOUS
 10
42.4074643043
 20
69.4968868283
 11
43.1013557294
 21
69.4968868283
  0
LINE
  5
34D
100
AcDbEntity
  8
RACCORDO
100
AcDbLine
 62
250
  6
CONTINUOUS
 10
43.1013557294
 20
69.4968868283
 11
72.4074643043
 21
69.2411362933
  0
LWPOLYLINE
  5
34E
100
AcDbEntity
  8
RACCORDO
100
AcDbPolyline
 62
250
  6
CONTINUOUS
 90
4
 70
0
 10
43.1013557294
 20
66.4970010591
 10
43.1010667477
 20
66.5012077441
 10
43.1007492367
 20
66.5147696501
 10
43.1004214982
 20
66.5391377576
  0
LINE
  5
34F
100
AcDbEntity
  8
RACCORDO
100
AcDbLine
 62
7
  6
CONTINUOUS
 10
40.9074643043
 20
104.5912505241
 11
40.9074643043
 21
105.2870870676
  0
LINE
  5
350
100
AcDbEntity
  8
RACCORDO
100
AcDbLine
 62
7
  6
CONTINUOUS
 10
40.9074643043
 20
110.6954139807
 11
40.9074643043
 21
111.3897351139
  0
LINE
  5
351
100
AcDbEntity
  8
RACCORDO
100
AcDbLine
 62
250
  6
CONTINUOUS
 10
41.7074643043
 20
103.7912505241
 11
41.7074643043
 21
106.1548137569
  0
LINE
  5
352
100
AcDbEntity
  8
RACCORDO
100
AcDbLine
 62
250
  6
CONTINUOUS
 10
41.7074643043
 20
109.8276872914
 11
41.7074643043
 21
112.1912505241
  0
LWPOLYLINE
  5
353
100
AcDbEntity
  8
RACCORDO
100
AcDbPolyline
 62
7
  6
CONTINUOUS
 90
6
 70
0
 10
40.9074643043
 20
111.2395820015
 10
40.9131227307
 20
111.2892475628
 10
40.93047661
 20
111.3357049227
 10
40.9599601531
 20
111.378954081
 10
41.0018682395
 20
111.4193555261
 10
41.0561631476
 20
111.4565487698
  0
LWPOLYLINE
  5
354
100
AcDbEntity
  8
RACCORDO
100
AcDbPolyline
 62
7
  6
CONTINUOUS
 90
10
 70
0
 10
40.9074643043
 20
105.2870870676
 10
40.9092700288
 20
105.3000828701
 10
40.91448886
 20
105.3165378005
 10
40.9228199009
 20
105.3364518587
 10
40.9339807565
 20
105.3602856736
 10
40.9476598961
 20
105.3875786165
 10
40.9634744062
 20
105.4169488002
 10
40.9810135779
 20
105.4482057757
 10
41.0000308387
 20
105.4815399921
 10
41.0204228056
 20
105.5161409105
  0
LWPOLYLINE
  5
355
100
AcDbEntity
  8
RACCORDO
100
AcDbPolyline
 62
7
  6
CONTINUOUS
 90
6
 70
0
 10
40.9074643043
 20
104.7429190468
 10
40.9131227307
 20
104.6932534855
 10
40.93047661
 20
104.6467961256
 10
40.9599601531
 20
104.6035469673
 10
41.0018682395
 20
104.5631455222
 10
41.0561631476
 20
104.5259522785
  0
LINE
  5
356
100
AcDbEntity
  8
RACCORDO
100
AcDbLine
 62
250
  6
CONTINUOUS
 10
43.1004214982
 20
66.5391377576
 11
43.0995869923
 21
66.691866518
  0
LINE
  5
357
100
AcDbEntity
  8
RACCORDO
100
AcDbLine
 62
7
  6
CONTINUOUS
 10
42.4074643043
 20
67.1969744053
 11
42.4074643043
 21
148.785526643
  0
LINE
  5
358
100
AcDbEntity
  8
RACCORDO
100
AcDbLine
 62
250
  6
CONTINUOUS
 10
43.0995869923
 20
66.691866518
 11
43.098922922
 21
67.7306453291
  0
LINE
  5
359
100
AcDbEntity
  8
RACCORDO
100
AcDbLine
 62
250
  6
CONTINUOUS
 10
43.1013557294
 20
146.48561422
 11
43.0990491101
 21
149.0314862612
  0
LWPOLYLINE
  5
35A
100
AcDbEntity
  8
RACCORDO
100
AcDbPolyline
 62
250
  6
CONTINUOUS
 90
3
 70
0
 10
43.098922922
 20
67.7306453291
 10
43.1007802977
 20
69.1878859729
 10
43.1013557294
 20
146.48561422
  0
LWPOLYLINE
  5
35B
100
AcDbEntity
  8
RACCORDO
100
AcDbPolyline
 62
250
  6
CONTINUOUS
 90
6
 70
0
 10
43.0990491101
 20
149.0314862612
 10
43.1001641447
 20
149.4133442958
 10
43.1004622759
 20
149.4473358203
 10
43.1007802977
 20
149.4695389118
 10
43.1010841997
 20
149.481753945
 10
43.1013557294
 20
149.4854999892
  0
LWPOLYLINE
  5
35C
100
AcDbEntity
  8
RACCORDO
100
AcDbPolyline
 62
7
  6
CONTINUOUS
 90
3
 70
0
 10
41.0204228056
 20
105.5161409105
 10
41.0644835359
 20
105.5890084814
 10
41.0878311159
 20
105.6267333385
  0
LWPOLYLINE
  5
35D
100
AcDbEntity
  8
RACCORDO
100
AcDbPolyline
 62
7
  6
CONTINUOUS
 90
3
 70
0
 10
41.0878311159
 20
105.6267333385
 10
41.1363296824
 20
105.7038817189
 10
41.1614494597
 20
105.7432452522
  0
LINE
  5
35E
100
AcDbEntity
  8
RACCORDO
100
AcDbLine
 62
7
  6
CONTINUOUS
 10
41.1614494597
 20
105.7432452522
 11
41.2131311939
 21
105.8232895062
  0
LINE
  5
35F
100
AcDbEntity
  8
RACCORDO
100
AcDbLine
 62
7
  6
CONTINUOUS
 10
41.2131311939
 20
105.8232895062
 11
41.2666228702
 21
105.9048422963
  0
LINE
  5
360
100
AcDbEntity
  8
RACCORDO
100
AcDbLine
 62
7
  6
CONTINUOUS
 10
41.2666228702
 20
105.9048422963
 11
41.3216877135
 21
105.9877944947
  0
LINE
  5
361
100
AcDbEntity
  8
RACCORDO
100
AcDbLine
 62
7
  6
CONTINUOUS
 10
41.3216877135
 20
105.9877944947
 11
41.4074643043
 21
106.1148496738
  0
LINE
  5
362
100
AcDbEntity
  8
RACCORDO
100
AcDbLine
 62
7
  6
CONTINUOUS
 10
41.4074643043
 20
109.8676513745
 11
41.3215356101
 21
109.9949340746
  0
LINE
  5
363
100
AcDbEntity
  8
RACCORDO
100
AcDbLine
 62
7
  6
CONTINUOUS
 10
41.3215356101
 20
109.9949340746
 11
41.2662652913
 21
110.0782007014
  0
LINE
  5
364
100
AcDbEntity
  8
RACCORDO
100
AcDbLine
 62
7
  6
CONTINUOUS
 10
41.2662652913
 20
110.0782007014
 11
41.2125610891
 21
110.1600857864
  0
LWPOLYLINE
  5
365
100
AcDbEntity
  8
RACCORDO
100
AcDbPolyline
 62
7
  6
CONTINUOUS
 90
3
 70
0
 10
41.2125610891
 20
110.1600857864
 10
41.1607050788
 20
110.2404178576
 10
41.1355354317
 20
110.279868594
  0
LWPOLYLINE
  5
366
100
AcDbEntity
  8
RACCORDO
100
AcDbPolyline
 62
7
  6
CONTINUOUS
 90
3
 70
0
 10
41.1355354317
 20
110.279868594
 10
41.0870177271
 20
110.3570756921
 10
41.0637146411
 20
110.3947460411
  0
LWPOLYLINE
  5
367
100
AcDbEntity
  8
RACCORDO
100
AcDbPolyline
 62
7
  6
CONTINUOUS
 90
11
 70
0
 10
41.0637146411
 20
110.3947460411
 10
41.019813409
 20
110.4673852131
 10
40.9995266052
 20
110.5018318213
 10
40.9806216755
 20
110.5349876397
 10
40.9631869241
 20
110.5660776258
 10
40.9474668814
 20
110.5952979138
 10
40.9338679488
 20
110.6224523696
 10
40.9227634509
 20
110.6461775486
 10
40.9144663242
 20
110.6660189694
 10
40.9092650645
 20
110.6824311135
 10
40.9074643043
 20
110.6954139807
  0
LWPOLYLINE
  5
368
100
AcDbEntity
  8
RACCORDO
100
AcDbPolyline
 62
7
  6
CONTINUOUS
 90
8
 70
0
 10
41.0561631476
 20
111.4565487698
 10
41.1222973462
 20
111.4894523469
 10
41.1995699583
 20
111.5179995558
 10
41.287060886
 20
111.5422570982
 10
41.3832852879
 20
111.5613436138
 10
41.4866078889
 20
111.5749653158
 10
41.5953317157
 20
111.5834159909
 10
41.7074643043
 20
111.5866956392
  0
LWPOLYLINE
  5
369
100
AcDbEntity
  8
RACCORDO
100
AcDbPolyline
 62
7
  6
CONTINUOUS
 90
8
 70
0
 10
41.0561631476
 20
104.5259522785
 10
41.1222973462
 20
104.4930487014
 10
41.1995699583
 20
104.4645014925
 10
41.287060886
 20
104.4402439501
 10
41.3832852879
 20
104.4211574345
 10
41.4866078889
 20
104.4075357325
 10
41.5953317157
 20
104.3990850574
 10
41.7074643043
 20
104.3958054091
  0
LINE
  5
36A
100
AcDbEntity
  8
ASSI
100
AcDbLine
 62
7
  6
CONTINUOUS
 10
42.4074643043
 20
103.7912505241
 11
41.7074643043
 21
103.7912505241
  0
LINE
  5
36B
100
AcDbEntity
  8
RACCORDO
100
AcDbLine
 62
7
  6
CONTINUOUS
 10
41.7074643043
 20
104.3958054091
 11
42.4074643043
 21
104.3958054091
  0
LINE
  5
36C
100
AcDbEntity
  8
RACCORDO
100
AcDbLine
 62
7
  6
CONTINUOUS
 10
41.7074643043
 20
106.1548137569
 11
42.4074643043
 21
106.1548137569
  0
LWPOLYLINE
  5
36D
100
AcDbEntity
  8
0
100
AcDbPolyline
 62
7
  6
CONTINUOUS
 90
13
 70
0
 43
0.3500000006
 10
57.3003211212
 20
161.3483902588
 10
57.3003211212
 20
162.6341152954
 10
57.5146056061
 20
163.0626842651
 10
57.9431791077
 20
163.4912532349
 10
58.1574635925
 20
163.4912532349
 10
58.5860370941
 20
163.0626842651
 10
58.800321579
 20
162.6341152954
 10
58.800321579
 20
161.3483902588
 10
58.5860370941
 20
160.9198212891
 10
58.1574635925
 20
160.4912523193
 10
57.9431791077
 20
160.4912523193
 10
57.5146056061
 20
160.9198212891
 10
57.3003211212
 20
161.3483902588
  0
LWPOLYLINE
  5
36E
100
AcDbEntity
  8
RACCORDO
100
AcDbPolyline
 62
7
  6
CONTINUOUS
 90
10
 70
0
 10
41.4074643043
 20
106.1148496738
 10
41.4406668716
 20
106.1232588067
 10
41.474035077
 20
106.130674426
 10
41.5074890743
 20
106.1370965316
 10
41.5408988263
 20
106.1425233317
 10
41.5742441621
 20
106.1469566183
 10
41.6076192104
 20
106.1504017665
 10
41.641015342
 20
106.1528605683
 10
41.6743169007
 20
106.1543312317
 10
41.7074643043
 20
106.1548137569
  0
LINE
  5
36F
100
AcDbEntity
  8
RACCORDO
100
AcDbLine
 62
7
  6
CONTINUOUS
 10
42.4074643043
 20
109.8276872914
 11
41.7074643043
 21
109.8276872914
  0
LWPOLYLINE
  5
370
100
AcDbEntity
  8
RACCORDO
100
AcDbPolyline
 62
7
  6
CONTINUOUS
 90
10
 70
0
 10
41.7074643043
 20
109.8276872914
 10
41.6743169007
 20
109.8281698166
 10
41.641015342
 20
109.82964048
 10
41.6076192104
 20
109.8320992818
 10
41.5742441621
 20
109.83554443
 10
41.5408988263
 20
109.8399777165
 10
41.5074890743
 20
109.8454045167
 10
41.474035077
 20
109.8518266223
 10
41.4406668716
 20
109.8592422416
 10
41.4074643043
 20
109.8676513745
  0
LINE
  5
371
100
AcDbEntity
  8
RACCORDO
100
AcDbLine
 62
7
  6
CONTINUOUS
 10
41.7074643043
 20
111.5866956392
 11
42.4074643043
 21
111.5866956392
  0
LINE
  5
372
100
AcDbEntity
  8
ASSI
100
AcDbLine
 62
7
  6
CONTINUOUS
 10
42.4074643043
 20
112.1912505241
 11
41.7074643043
 21
112.1912505241
  0
LINE
  5
373
100
AcDbEntity
  8
RACCORDO
100
AcDbLine
 62
7
  6
CONTINUOUS
 10
72.4074643043
 20
66.2412505241
 11
72.4074643043
 21
149.7412505241
  0
LINE
  5
374
100
AcDbEntity
  8
RACCORDO
100
AcDbLine
 62
250
  6
CONTINUOUS
 10
43.1013557294
 20
146.48561422
 11
72.4074643043
 21
146.741364755
  0
LINE
  5
375
100
AcDbEntity
  8
RACCORDO
100
AcDbLine
 62
250
  6
CONTINUOUS
 10
42.4074643043
 20
146.48561422
 11
43.1013557294
 21
146.48561422
  0
LINE
  5
376
100
AcDbEntity
  8
RACCORDO
100
AcDbLine
 62
7
  6
CONTINUOUS
 10
43.1013557294
 20
149.4854999892
 11
72.4074643043
 21
149.7412505241
  0
LWPOLYLINE
  5
377
100
AcDbEntity
  8
0
100
AcDbPolyline
 62
7
  6
CONTINUOUS
 90
6
 70
0
 43
0.3500000006
 10
55.157462677
 20
160.4912523193
 10
56.228894165
 20
160.4912523193
 10
56.4431786499
 20
160.7055368042
 10
56.4431786499
 20
161.7769592285
 10
56.0146051483
 20
162.2055281982
 10
55.5860361786
 20
162.2055281982
  0
ARC
  5
378
100
AcDbEntity
  8
DRAFT
100
AcDbCircle
 62
7
  6
CONTINUOUS
 10
113.9667119047
 20
78.4912505241
 40
4.5
100
AcDbArc
 50
180.0
 51
360.0
  0
ARC
  5
379
100
AcDbEntity
  8
DRAFT
100
AcDbCircle
 62
7
  6
CONTINUOUS
 10
113.9667119047
 20
81.4912505241
 40
4.5
100
AcDbArc
 50
0.0
 51
180.0
  0
ARC
  5
37A
100
AcDbEntity
  8
DRAFT
100
AcDbCircle
 62
7
  6
CONTINUOUS
 10
113.9667119047
 20
78.4912505241
 40
4.2381740261
100
AcDbArc
 50
180.0
 51
360.0
  0
ARC
  5
37B
100
AcDbEntity
  8
DRAFT
100
AcDbCircle
 62
7
  6
CONTINUOUS
 10
113.9667119047
 20
81.4912505241
 40
4.2381740261
100
AcDbArc
 50
0.0
 51
180.0
  0
ARC
  5
37C
100
AcDbEntity
  8
DRAFT
100
AcDbCircle
 62
7
  6
CONTINUOUS
 10
113.9667119047
 20
77.9912505241
 40
2.2381740261
100
AcDbArc
 50
180.0
 51
360.0
  0
ARC
  5
37D
100
AcDbEntity
  8
DRAFT
100
AcDbCircle
 62
7
  6
CONTINUOUS
 10
113.9667119047
 20
81.9912505241
 40
2.2381740261
100
AcDbArc
 50
0.0
 51
180.0
  0
ARC
  5
37E
100
AcDbEntity
  8
DRAFT
100
AcDbCircle
 62
7
  6
CONTINUOUS
 10
113.9667119047
 20
77.9912505241
 40
1.9780935586
100
AcDbArc
 50
180.0
 51
360.0
  0
ARC
  5
37F
100
AcDbEntity
  8
DRAFT
100
AcDbCircle
 62
7
  6
CONTINUOUS
 10
113.9667119047
 20
81.9912505241
 40
1.9780935586
100
AcDbArc
 50
0.0
 51
180.0
  0
ARC
  5
380
100
AcDbEntity
  8
DRAFT
100
AcDbCircle
 62
7
  6
CONTINUOUS
 10
117.9667119047
 20
135.9912505241
 40
6.0349101299
100
AcDbArc
 50
295.5857253172
 51
334.4142746828
  0
ARC
  5
381
100
AcDbEntity
  8
DRAFT
100
AcDbCircle
 62
7
  6
CONTINUOUS
 10
117.4667119047
 20
135.9912505241
 40
4.5
100
AcDbArc
 50
270.0
 51
90.0
  0
ARC
  5
382
100
AcDbEntity
  8
DRAFT
100
AcDbCircle
 62
7
  6
CONTINUOUS
 10
114.4667119047
 20
135.9912505241
 40
4.5
100
AcDbArc
 50
90.0
 51
270.0
  0
ARC
  5
383
100
AcDbEntity
  8
DRAFT
100
AcDbCircle
 62
7
  6
CONTINUOUS
 10
114.4667119047
 20
135.9912505241
 40
4.2381740261
100
AcDbArc
 50
90.0
 51
270.0
  0
ARC
  5
384
100
AcDbEntity
  8
DRAFT
100
AcDbCircle
 62
7
  6
CONTINUOUS
 10
117.4667119047
 20
135.9912505241
 40
4.2381740261
100
AcDbArc
 50
270.0
 51
90.0
  0
ARC
  5
385
100
AcDbEntity
  8
DRAFT
100
AcDbCircle
 62
7
  6
CONTINUOUS
 10
123.1667119047
 20
107.9912505241
 40
3.8311598705
100
AcDbArc
 50
289.8356224442
 51
70.1643775558
  0
ARC
  5
386
100
AcDbEntity
  8
SMUSSO
100
AcDbCircle
 62
7
  6
CONTINUOUS
 10
123.1667119047
 20
107.9912505241
 40
2.75
100
AcDbArc
 50
118.2114758412
 51
241.7885241588
  0
ARC
  5
387
100
AcDbEntity
  8
SMUSSO
100
AcDbCircle
 62
7
  6
CONTINUOUS
 10
123.1667119047
 20
107.9912505241
 40
2.75
100
AcDbArc
 50
298.2114758413
 51
61.7885241587
  0
ARC
  5
388
100
AcDbEntity
  8
RACCORDO
100
AcDbCircle
 62
7
  6
CONTINUOUS
 10
123.1667119047
 20
107.9912505241
 40
2.75
100
AcDbArc
 50
259.5243183036
 51
280.4756816964
  0
ARC
  5
389
100
AcDbEntity
  8
RACCORDO
100
AcDbCircle
 62
7
  6
CONTINUOUS
 10
123.1667119047
 20
107.9912505241
 40
2.75
100
AcDbArc
 50
79.5243183036
 51
100.4756816964
  0
ARC
  5
38A
100
AcDbEntity
  8
SMUSSO
100
AcDbCircle
 62
7
  6
CONTINUOUS
 10
123.1667119047
 20
107.9912505241
 40
2.25
100
AcDbArc
 50
125.2943946767
 51
234.7056053233
  0
ARC
  5
38B
100
AcDbEntity
  8
SMUSSO
100
AcDbCircle
 62
7
  6
CONTINUOUS
 10
123.1667119047
 20
107.9912505241
 40
2.25
100
AcDbArc
 50
305.2943946767
 51
54.7056053233
  0
ARC
  5
38C
100
AcDbEntity
  8
RACCORDO
100
AcDbCircle
 62
7
  6
CONTINUOUS
 10
123.1667119047
 20
107.9912505241
 40
2.25
100
AcDbArc
 50
234.7056053233
 51
305.2943946767
  0
ARC
  5
38D
100
AcDbEntity
  8
RACCORDO
100
AcDbCircle
 62
7
  6
CONTINUOUS
 10
123.1667119047
 20
107.9912505241
 40
2.25
100
AcDbArc
 50
54.7056053233
 51
125.2943946767
  0
ARC
  5
38E
100
AcDbEntity
  8
DRAFT
100
AcDbCircle
 62
7
  6
CONTINUOUS
 10
113.9667119047
 20
135.9912505241
 40
2.2381740261
100
AcDbArc
 50
90.0
 51
270.0
  0
ARC
  5
38F
100
AcDbEntity
  8
DRAFT
100
AcDbCircle
 62
7
  6
CONTINUOUS
 10
117.9667119047
 20
135.9912505241
 40
2.2381740261
100
AcDbArc
 50
270.0
 51
90.0
  0
ARC
  5
390
100
AcDbEntity
  8
DRAFT
100
AcDbCircle
 62
7
  6
CONTINUOUS
 10
113.9667119047
 20
135.9912505241
 40
1.9780935586
100
AcDbArc
 50
90.0
 51
270.0
  0
ARC
  5
391
100
AcDbEntity
  8
DRAFT
100
AcDbCircle
 62
7
  6
CONTINUOUS
 10
117.9667119047
 20
135.9912505241
 40
1.9780935586
100
AcDbArc
 50
270.0
 51
90.0
  0
ARC
  5
392
100
AcDbEntity
  8
RACCORDO
100
AcDbCircle
 62
7
  6
CONTINUOUS
 10
123.1667119047
 20
110.4912505241
 40
1.7
100
AcDbArc
 50
40.1191668983
 51
139.8808331016
  0
ARC
  5
393
100
AcDbEntity
  8
RACCORDO
100
AcDbCircle
 62
7
  6
CONTINUOUS
 10
123.1667119047
 20
105.4912505241
 40
1.7
100
AcDbArc
 50
220.1191668984
 51
319.8808331017
  0
CIRCLE
  5
394
100
AcDbEntity
  8
0
100
AcDbCircle
 62
7
  6
CONTINUOUS
 10
123.1667119047
 20
107.9912505241
 40
1.5
  0
ARC
  5
395
100
AcDbEntity
  8
RACCORDO
100
AcDbCircle
 62
250
  6
CONTINUOUS
 10
123.1667119047
 20
110.4912505241
 40
0.9
100
AcDbArc
 50
56.2510114039
 51
123.7489885959
  0
ARC
  5
396
100
AcDbEntity
  8
RACCORDO
100
AcDbCircle
 62
250
  6
CONTINUOUS
 10
123.1667119047
 20
105.4912505241
 40
0.9
100
AcDbArc
 50
236.2510114041
 51
303.7489885961
  0
ARC
  5
397
100
AcDbEntity
  8
DRAFT
100
AcDbCircle
 62
7
  6
CONTINUOUS
 10
215.9667119047
 20
78.4912505241
 40
4.5
100
AcDbArc
 50
180.0
 51
360.0
  0
ARC
  5
398
100
AcDbEntity
  8
DRAFT
100
AcDbCircle
 62
7
  6
CONTINUOUS
 10
215.9667119047
 20
81.4912505241
 40
4.5
100
AcDbArc
 50
0.0
 51
180.0
  0
ARC
  5
399
100
AcDbEntity
  8
DRAFT
100
AcDbCircle
 62
7
  6
CONTINUOUS
 10
215.9667119047
 20
78.4912505241
 40
4.2381740261
100
AcDbArc
 50
180.0
 51
360.0
  0
ARC
  5
39A
100
AcDbEntity
  8
DRAFT
100
AcDbCircle
 62
7
  6
CONTINUOUS
 10
215.9667119047
 20
81.4912505241
 40
4.2381740261
100
AcDbArc
 50
0.0
 51
180.0
  0
ARC
  5
39B
100
AcDbEntity
  8
DRAFT
100
AcDbCircle
 62
7
  6
CONTINUOUS
 10
215.9667119047
 20
77.9912505241
 40
2.2381740261
100
AcDbArc
 50
180.0
 51
360.0
  0
ARC
  5
39C
100
AcDbEntity
  8
DRAFT
100
AcDbCircle
 62
7
  6
CONTINUOUS
 10
215.9667119047
 20
81.9912505241
 40
2.2381740261
100
AcDbArc
 50
0.0
 51
180.0
  0
ARC
  5
39D
100
AcDbEntity
  8
DRAFT
100
AcDbCircle
 62
7
  6
CONTINUOUS
 10
215.9667119047
 20
81.9912505241
 40
1.9780935586
100
AcDbArc
 50
0.0
 51
180.0
  0
ARC
  5
39E
100
AcDbEntity
  8
DRAFT
100
AcDbCircle
 62
7
  6
CONTINUOUS
 10
215.9667119047
 20
77.9912505241
 40
1.9780935586
100
AcDbArc
 50
180.0
 51
360.0
  0
ARC
  5
39F
100
AcDbEntity
  8
ASSI
100
AcDbCircle
 62
7
  6
CONTINUOUS
 10
191.6248249047
 20
74.7065975241
 40
1.1347395105
100
AcDbArc
 50
292.8428585528
 51
89.999026683
  0
ARC
  5
3A0
100
AcDbEntity
  8
ASSI
100
AcDbCircle
 62
7
  6
CONTINUOUS
 10
191.5221099047
 20
74.7065975241
 40
0.450208
100
AcDbArc
 50
270.001672766
 51
90.0005575837
  0
ARC
  5
3A1
100
AcDbEntity
  8
DRAFT
100
AcDbCircle
 62
7
  6
CONTINUOUS
 10
211.9667119047
 20
135.9912505241
 40
6.0349101299
100
AcDbArc
 50
205.5857253172
 51
244.4142746828
  0
ARC
  5
3A2
100
AcDbEntity
  8
DRAFT
100
AcDbCircle
 62
7
  6
CONTINUOUS
 10
212.4667119047
 20
135.9912505241
 40
4.5
100
AcDbArc
 50
90.0
 51
270.0
  0
ARC
  5
3A3
100
AcDbEntity
  8
DRAFT
100
AcDbCircle
 62
7
  6
CONTINUOUS
 10
215.4667119047
 20
135.9912505241
 40
4.5
100
AcDbArc
 50
270.0
 51
90.0
  0
ARC
  5
3A4
100
AcDbEntity
  8
DRAFT
100
AcDbCircle
 62
7
  6
CONTINUOUS
 10
212.4667119047
 20
135.9912505241
 40
4.2381740261
100
AcDbArc
 50
90.0
 51
270.0
  0
ARC
  5
3A5
100
AcDbEntity
  8
DRAFT
100
AcDbCircle
 62
7
  6
CONTINUOUS
 10
215.4667119047
 20
135.9912505241
 40
4.2381740261
100
AcDbArc
 50
270.0
 51
90.0
  0
ARC
  5
3A6
100
AcDbEntity
  8
DRAFT
100
AcDbCircle
 62
7
  6
CONTINUOUS
 10
206.7667119047
 20
107.9912505241
 40
3.8311598705
100
AcDbArc
 50
109.8356224442
 51
250.1643775558
  0
ARC
  5
3A7
100
AcDbEntity
  8
SMUSSO
100
AcDbCircle
 62
7
  6
CONTINUOUS
 10
206.7667119047
 20
107.9912505241
 40
2.75
100
AcDbArc
 50
118.2114758413
 51
241.7885241587
  0
ARC
  5
3A8
100
AcDbEntity
  8
RACCORDO
100
AcDbCircle
 62
7
  6
CONTINUOUS
 10
206.7667119047
 20
107.9912505241
 40
2.75
100
AcDbArc
 50
259.5243183036
 51
280.4756816964
  0
ARC
  5
3A9
100
AcDbEntity
  8
RACCORDO
100
AcDbCircle
 62
7
  6
CONTINUOUS
 10
206.7667119047
 20
107.9912505241
 40
2.75
100
AcDbArc
 50
79.5243183036
 51
100.4756816964
  0
ARC
  5
3AA
100
AcDbEntity
  8
SMUSSO
100
AcDbCircle
 62
7
  6
CONTINUOUS
 10
206.7667119047
 20
107.9912505241
 40
2.75
100
AcDbArc
 50
298.2114758412
 51
61.7885241588
  0
ARC
  5
3AB
100
AcDbEntity
  8
SMUSSO
100
AcDbCircle
 62
7
  6
CONTINUOUS
 10
206.7667119047
 20
107.9912505241
 40
2.25
100
AcDbArc
 50
125.2943946767
 51
234.7056053233
  0
ARC
  5
3AC
100
AcDbEntity
  8
RACCORDO
100
AcDbCircle
 62
7
  6
CONTINUOUS
 10
206.7667119047
 20
107.9912505241
 40
2.25
100
AcDbArc
 50
234.7056053233
 51
305.2943946767
  0
ARC
  5
3AD
100
AcDbEntity
  8
RACCORDO
100
AcDbCircle
 62
7
  6
CONTINUOUS
 10
206.7667119047
 20
107.9912505241
 40
2.25
100
AcDbArc
 50
54.7056053233
 51
125.2943946767
  0
ARC
  5
3AE
100
AcDbEntity
  8
SMUSSO
100
AcDbCircle
 62
7
  6
CONTINUOUS
 10
206.7667119047
 20
107.9912505241
 40
2.25
100
AcDbArc
 50
305.2943946767
 51
54.7056053233
  0
ARC
  5
3AF
100
AcDbEntity
  8
DRAFT
100
AcDbCircle
 62
7
  6
CONTINUOUS
 10
215.9667119047
 20
135.9912505241
 40
2.2381740261
100
AcDbArc
 50
270.0
 51
90.0
  0
ARC
  5
3B0
100
AcDbEntity
  8
DRAFT
100
AcDbCircle
 62
7
  6
CONTINUOUS
 10
211.9667119047
 20
135.9912505241
 40
2.2381740261
100
AcDbArc
 50
90.0
 51
270.0
  0
ARC
  5
3B1
100
AcDbEntity
  8
DRAFT
100
AcDbCircle
 62
7
  6
CONTINUOUS
 10
211.9667119047
 20
135.9912505241
 40
1.9780935586
100
AcDbArc
 50
90.0
 51
270.0
  0
ARC
  5
3B2
100
AcDbEntity
  8
DRAFT
100
AcDbCircle
 62
7
  6
CONTINUOUS
 10
215.9667119047
 20
135.9912505241
 40
1.9780935586
100
AcDbArc
 50
270.0
 51
90.0
  0
ARC
  5
3B3
100
AcDbEntity
  8
RACCORDO
100
AcDbCircle
 62
7
  6
CONTINUOUS
 10
206.7667119047
 20
105.4912505241
 40
1.7
100
AcDbArc
 50
220.1191668983
 51
319.8808331016
  0
ARC
  5
3B4
100
AcDbEntity
  8
RACCORDO
100
AcDbCircle
 62
7
  6
CONTINUOUS
 10
206.7667119047
 20
110.4912505241
 40
1.7
100
AcDbArc
 50
40.1191668984
 51
139.8808331017
  0
CIRCLE
  5
3B5
100
AcDbEntity
  8
0
100
AcDbCircle
 62
7
  6
CONTINUOUS
 10
206.7667119047
 20
107.9912505241
 40
1.5
  0
ARC
  5
3B6
100
AcDbEntity
  8
RACCORDO
100
AcDbCircle
 62
250
  6
CONTINUOUS
 10
206.7667119047
 20
105.4912505241
 40
0.9
100
AcDbArc
 50
236.2510114039
 51
303.7489885959
  0
ARC
  5
3B7
100
AcDbEntity
  8
RACCORDO
100
AcDbCircle
 62
250
  6
CONTINUOUS
 10
206.7667119047
 20
110.4912505241
 40
0.9
100
AcDbArc
 50
56.2510114041
 51
123.7489885961
  0
ARC
  5
3B8
100
AcDbEntity
  8
RACCORDO
100
AcDbCircle
 62
7
  6
CONTINUOUS
 10
41.7074643043
 20
104.5912505241
 40
0.8
100
AcDbArc
 50
180.0
 51
270.0
  0
ARC
  5
3B9
100
AcDbEntity
  8
RACCORDO
100
AcDbCircle
 62
7
  6
CONTINUOUS
 10
41.7074643043
 20
111.3912505241
 40
0.8
100
AcDbArc
 50
90.0
 51
180.0
  0
ARC
  5
3BA
100
AcDbEntity
  8
RACCORDO
100
AcDbCircle
 62
7
  6
CONTINUOUS
 10
43.1074643043
 20
148.785526643
 40
0.7
100
AcDbArc
 50
90.5
 51
180.0
  0
ARC
  5
3BB
100
AcDbEntity
  8
RACCORDO
100
AcDbCircle
 62
7
  6
CONTINUOUS
 10
43.1074643043
 20
67.1969744053
 40
0.7
100
AcDbArc
 50
180.0
 51
269.5
  0
ELLIPSE
  5
3BC
100
AcDbEntity
  8
RACCORDO
100
AcDbEllipse
 62
7
  6
CONTINUOUS
 10
107.2168261399
 20
146.741136289
 30
0.0
 11
2.1214818934
 21
-2.1214818934
 31
0.0
 40
0.9999238505
 41
2.3562325664
 42
3.9269527408
  0
ELLIPSE
  5
3BD
100
AcDbEntity
  8
RACCORDO
100
AcDbEllipse
 62
7
  6
CONTINUOUS
 10
107.2168261399
 20
69.2413647593
 30
0.0
 11
2.1214818934
 21
2.1214818934
 31
0.0
 40
0.9999238505
 41
-3.9269527408
 42
-2.3562325664
  0
ELLIPSE
  5
3BE
100
AcDbEntity
  8
RACCORDO
100
AcDbEllipse
 62
7
  6
CONTINUOUS
 10
222.7165976696
 20
146.741136289
 30
0.0
 11
2.1214818934
 21
2.1214818934
 31
0.0
 40
0.9999238505
 41
-0.7853600872
 42
0.7853600872
  0
ELLIPSE
  5
3BF
100
AcDbEntity
  8
RACCORDO
100
AcDbEllipse
 62
7
  6
CONTINUOUS
 10
222.7165976696
 20
69.2413647593
 30
0.0
 11
-2.1214818934
 21
2.1214818934
 31
0.0
 40
0.9999238505
 41
-3.9269527408
 42
-2.3562325664
  0
ELLIPSE
  5
3C0
100
AcDbEntity
  8
0
100
AcDbEllipse
 62
7
  6
CONTINUOUS
 10
118.4667499831
 20
98.9912886025
 30
0.0
 11
0.7071606311
 21
0.7071606311
 31
0.0
 40
0.9999238505
 41
2.3562325664
 42
3.9269527408
  0
ELLIPSE
  5
3C1
100
AcDbEntity
  8
0
100
AcDbEllipse
 62
7
  6
CONTINUOUS
 10
118.4667499831
 20
116.9912124458
 30
0.0
 11
0.7071606311
 21
-0.7071606311
 31
0.0
 40
0.9999238505
 41
2.3562325664
 42
3.9269527408
  0
ELLIPSE
  5
3C2
100
AcDbEntity
  8
0
100
AcDbEllipse
 62
7
  6
CONTINUOUS
 10
211.4666738264
 20
98.9912886025
 30
0.0
 11
-0.7071606311
 21
0.7071606311
 31
0.0
 40
0.9999238505
 41
2.3562325664
 42
3.9269527408
  0
ELLIPSE
  5
3C3
100
AcDbEntity
  8
0
100
AcDbEllipse
 62
7
  6
CONTINUOUS
 10
211.4666738264
 20
116.9912124458
 30
0.0
 11
-0.7071606311
 21
-0.7071606311
 31
0.0
 40
0.9999238505
 41
2.3562325664
 42
3.9269527408
  0
ELLIPSE
  5
3C4
100
AcDbEntity
  8
0
100
AcDbEllipse
 62
7
  6
CONTINUOUS
 10
118.4484235608
 20
98.9729621802
 30
0.0
 11
0.7071606311
 21
0.7071606311
 31
0.0
 40
0.9999238505
 41
-3.9269527408
 42
-2.3562325664
  0
ELLIPSE
  5
3C5
100
AcDbEntity
  8
0
100
AcDbEllipse
 62
7
  6
CONTINUOUS
 10
118.4484235608
 20
117.0095388681
 30
0.0
 11
0.7071606311
 21
-0.7071606311
 31
0.0
 40
0.9999238505
 41
2.3562325664
 42
3.9269527408
  0
ELLIPSE
  5
3C6
100
AcDbEntity
  8
0
100
AcDbEllipse
 62
7
  6
CONTINUOUS
 10
211.4850002487
 20
98.9729621802
 30
0.0
 11
0.7071606311
 21
-0.7071606311
 31
0.0
 40
0.9999238505
 41
-0.7853600872
 42
0.7853600872
  0
ELLIPSE
  5
3C7
100
AcDbEntity
  8
0
100
AcDbEllipse
 62
7
  6
CONTINUOUS
 10
211.4850002487
 20
117.0095388681
 30
0.0
 11
0.7071606311
 21
0.7071606311
 31
0.0
 40
0.9999238505
 41
-0.7853600872
 42
0.7853600872
  0
ENDSEC
  0
SECTION
  2
OBJECTS
  0
DICTIONARY
  5
C
100
AcDbDictionary
280
0
281
1
  3
ACAD_GROUP
350
D
  3
ACAD_MLINESTYLE
350
17
  3
ACAD_LAYOUT
350
1A
  3
ACAD_PLOTSETTINGS
350
19
  3
ACAD_PLOTSTYLENAME
350
E
  0
DICTIONARY
  5
D
102
{ACAD_REACTORS
330
C
102
}
100
AcDbDictionary
280
0
281
1
  0
ACDBDICTIONARYWDFLT
  5
E
102
{ACAD_REACTORS
330
C
102
}
100
AcDbDictionary
281
1
  3
Normal
350
F
100
AcDbDictionaryWithDefault
340
F
  0
DICTIONARY
  5
17
102
{ACAD_REACTORS
330
C
102
}
100
AcDbDictionary
280
0
281
1
  3
Standard
350
18
  0
DICTIONARY
  5
19
102
{ACAD_REACTORS
330
C
102
}
100
AcDbDictionary
281
1
  0
DICTIONARY
  5
1A
102
{ACAD_REACTORS
330
C
102
}
100
AcDbDictionary
281
1
  3
Model
350
3C8
  3
Layout1
350
3C9
  0
ACDBPLACEHOLDER
  5
F
102
{ACAD_REACTORS
330
E
102
}
  0
MLINESTYLE
  5
18
102
{ACAD_REACTORS
330
17
102
}
100
AcDbMlineStyle
  2
STANDARD
 70
0
  3

 62
256
 51
90.0
 52
90.0
 71
2
 49
0.5
 62
256
  6
BYLAYER
 49
-0.5
 62
256
  6
BYLAYER
  0
LAYOUT
  5
3C8
102
{ACAD_REACTORS
330
1A
102
}
100
AcDbPlotSettings
  1

  2
none_device
  4
ISO_A4_(297.00_x_210.00_MM)
  6

 40
0.0
 41
0.0
 42
0.0
 43
0.0
 44
297.0
 45
210.0
 46
0.0
 47
0.0
 48
0.0
 49
0.0
140
0.0
141
0.0
142
1.0
143
1.0
 70
1024
 72
1
 73
0
 74
0
  7

 75
0
147
1.0
148
0.0
149
0.0
100
AcDbLayout
  1
Model
 70
0
 71
0
 10
0.0
 20
0.0
 11
297.0
 21
210.0
 12
0.0
 22
0.0
 32
0.0
 14
0.0
 24
0.0
 34
0.0
 15
0.0
 25
0.0
 35
0.0
146
0.0
 13
0.0
 23
0.0
 33
0.0
 16
1.0
 26
0.0
 36
0.0
 17
0.0
 27
1.0
 37
0.0
 76
0
330
20F
345
0
346
0
  0
LAYOUT
  5
3C9
102
{ACAD_REACTORS
330
1A
102
}
100
AcDbPlotSettings
  1

  2
none_device
  4
ISO_A4_(297.00_x_210.00_MM)
  6

 40
0.0
 41
0.0
 42
0.0
 43
0.0
 44
297.0
 45
210.0
 46
0.0
 47
0.0
 48
0.0
 49
0.0
140
0.0
141
0.0
142
1.0
143
1.0
 70
0
 72
1
 73
0
 74
0
  7

 75
0
147
1.0
148
0.0
149
0.0
100
AcDbLayout
  1
Layout1
 70
0
 71
1
 10
0.0
 20
0.0
 11
297.0
 21
210.0
 12
0.0
 22
0.0
 32
0.0
 14
0.0
 24
0.0
 34
0.0
 15
0.0
 25
0.0
 35
0.0
146
0.0
 13
0.0
 23
0.0
 33
0.0
 16
1.0
 26
0.0
 36
0.0
 17
0.0
 27
1.0
 37
0.0
 76
0
330
210
345
0
346
0
  0
ENDSEC
  0
EOF
