  0
SECTION
  2
HEADER
  9
$ACADVER
  1
AC1024
  9
$DWGCODEPAGE
  3
ANSI_1252
  9
$EXTMAX
 10
297.0
 20
210.0
 30
0.0
  9
$EXTMIN
 10
0.0
 20
0.0
 30
0.0
  9
$LIMMIN
 10
0.0
 20
0.0
  9
$LIMMAX
 10
297.0
 20
210.0
  9
$VIEWCTR
 10
148.5
 20
105.0
  9
$VIEWSIZE
 40
210.0
  9
$CLAYER
  8
0
  9
$LTSCALE
 40
16.335
  9
$CELTYPE
  6
BYLAYER
  9
$DIMSCALE
 40
1.0
  9
$DIMASZ
 40
3.0
  9
$DIMEXO
 40
0.5
  9
$DIMDLI
 40
11.286
  9
$DIMEXE
 40
1.5
  9
$DIMCEN
 40
2.673
  9
$DIMLFAC
 40
1.0
  9
$DIMBLK
  1
_FILLED
  9
$DIMALT
 70
0
  9
$DIMALTF
 40
0.0393700787
  9
$DIMTXT
 40
3.0
  9
$DIMTOL
 70
1
  9
$DIMLIM
 70
0
  9
$DIMTFAC
 40
1.0
  9
$DIMTP
 40
0.01
  9
$DIMTM
 40
0.01
  9
$DIMGAP
 40
0.625
  9
$DIMDSEP
 70
44
  9
$AUNITS
 70
0
  9
$PDMODE
 70
3
  9
$PDSIZE
 40
3.0
  9
$HANDSEED
  5
3FE
  9
$TILEMODE
 70
1
  9
$MEASUREMENT
 70
1
  9
$INSUNITS
 70
4
  0
ENDSEC
  0
SECTION
  2
CLASSES
  0
CLASS
  1
ACDBDICTIONARYWDFLT
  2
AcDbDictionaryWithDefault
  3
AutoCAD 2000
 90
0
 91
1
280
0
281
0
  0
CLASS
  1
ACDBPLACEHOLDER
  2
AcDbPlaceHolder
  3
AutoCAD 2000
 90
0
 91
1
280
0
281
0
  0
CLASS
  1
LAYOUT
  2
AcDbLayout
  3
AutoCAD 2000
 90
0
 91
0
280
0
281
0
  0
ENDSEC
  0
SECTION
  2
TABLES
  0
TABLE
  2
VPORT
  5
8
100
AcDbSymbolTable
 70
2
  0
VPORT
  5
1F4
100
AcDbSymbolTableRecord
100
AcDbViewportTableRecord
  2
*ACTIVE
 70
0
 10
0.0
 20
0.0
 11
1.0
 21
1.0
 12
148.5
 22
105.0
 13
0.0
 23
0.0
 14
1.0
 24
1.0
 15
0.0
 25
0.0
 16
0.0
 26
0.0
 36
1.0
 17
0.0
 27
0.0
 37
0.0
 40
210.0
 41
1.4142857143
 42
50.0
 43
0.0
 44
0.0
 50
0.0
 51
0.0
 71
0
 72
100
 73
1
 74
1
 75
0
 76
0
 77
0
 78
0
  0
ENDTAB
  0
TABLE
  2
LTYPE
  5
5
100
AcDbSymbolTable
 70
6
  0
LTYPE
  5
14
100
AcDbSymbolTableRecord
100
AcDbLinetypeTableRecord
  2
BYBLOCK
 70
0
  3

 72
65
 73
0
 40
0.0
  0
LTYPE
  5
15
100
AcDbSymbolTableRecord
100
AcDbLinetypeTableRecord
  2
BYLAYER
 70
0
  3

 72
65
 73
0
 40
0.0
  0
LTYPE
  5
16
100
AcDbSymbolTableRecord
100
AcDbLinetypeTableRecord
  2
CONTINUOUS
 70
64
  3
Solid line
 72
65
 73
0
 40
0.0
  0
LTYPE
  5
1F5
100
AcDbSymbolTableRecord
100
AcDbLinetypeTableRecord
  2
CENTER
 70
64
  3
____ _ ____ _ ____ _ ____ _ ____ _ ____ _ ____
 72
65
 73
4
 40
0.6
 49
0.375
 74
0
 49
-0.075
 74
0
 49
0.075
 74
0
 49
-0.075
 74
0
  0
LTYPE
  5
1F6
100
AcDbSymbolTableRecord
100
AcDbLinetypeTableRecord
  2
HIDDEN
 70
64
  3
- - - - - - - - - - - - - - - - - - - -
 72
65
 73
2
 40
0.2
 49
0.1
 74
0
 49
-0.1
 74
0
  0
LTYPE
  5
1F7
100
AcDbSymbolTableRecord
100
AcDbLinetypeTableRecord
  2
PHANTOM
 70
64
  3
_____ _ _ _____ _ _ _____ _ _ _____
 72
65
 73
6
 40
0.8
 49
0.45
 74
0
 49
-0.05
 74
0
 49
0.1
 74
0
 49
-0.05
 74
0
 49
0.1
 74
0
 49
-0.05
 74
0
  0
LTYPE
  5
1F8
100
AcDbSymbolTableRecord
100
AcDbLinetypeTableRecord
  2
DOT
 70
64
  3
. . . . . . . . . . . . . . . . . . . .
 72
65
 73
2
 40
0.2
 49
0.1
 74
0
 49
-0.1
 74
0
  0
LTYPE
  5
1F9
100
AcDbSymbolTableRecord
100
AcDbLinetypeTableRecord
  2
DASHED
 70
64
  3
- - - - - - - - - - - - - - - - - - - -
 72
65
 73
2
 40
0.2
 49
0.1
 74
0
 49
-0.1
 74
0
  0
ENDTAB
  0
TABLE
  2
LAYER
  5
2
100
AcDbSymbolTable
 70
36
  0
LAYER
  5
10
100
AcDbSymbolTableRecord
100
AcDbLayerTableRecord
  2
0
 70
0
 62
7
  6
CONTINUOUS
370
-3
390
F
  0
LAYER
  5
1FA
100
AcDbSymbolTableRecord
100
AcDbLayerTableRecord
  2
DEFAULT_1
 70
0
 62
7
  6
CENTER
370
-3
390
F
  0
LAYER
  5
1FB
100
AcDbSymbolTableRecord
100
AcDbLayerTableRecord
  2
DEFAULT_2
 70
0
 62
7
  6
HIDDEN
370
-3
390
F
  0
LAYER
  5
1FC
100
AcDbSymbolTableRecord
100
AcDbLayerTableRecord
  2
DEFAULT_3
 70
0
 62
7
  6
PHANTOM
370
-3
390
F
  0
LAYER
  5
1FD
100
AcDbSymbolTableRecord
100
AcDbLayerTableRecord
  2
ASSI
 70
0
 62
7
  6
CONTINUOUS
370
-3
390
F
  0
LAYER
  5
1FE
100
AcDbSymbolTableRecord
100
AcDbLayerTableRecord
  2
COLOR5
 70
0
 62
7
  6
CONTINUOUS
370
-3
390
F
  0
LAYER
  5
1FF
100
AcDbSymbolTableRecord
100
AcDbLayerTableRecord
  2
COORDINATE
 70
0
 62
7
  6
CONTINUOUS
370
-3
390
F
  0
LAYER
  5
200
100
AcDbSymbolTableRecord
100
AcDbLayerTableRecord
  2
COORD_ORIGINE
 70
0
 62
7
  6
CONTINUOUS
370
-3
390
F
  0
LAYER
  5
201
100
AcDbSymbolTableRecord
100
AcDbLayerTableRecord
  2
CURVE
 70
0
 62
7
  6
CONTINUOUS
370
-3
390
F
  0
LAYER
  5
202
100
AcDbSymbolTableRecord
100
AcDbLayerTableRecord
  2
DRAFT
 70
0
 62
7
  6
CONTINUOUS
370
-3
390
F
  0
LAYER
  5
203
100
AcDbSymbolTableRecord
100
AcDbLayerTableRecord
  2
IMPORT
 70
0
 62
7
  6
CONTINUOUS
370
-3
390
F
  0
LAYER
  5
204
100
AcDbSymbolTableRecord
100
AcDbLayerTableRecord
  2
NOTE
 70
0
 62
7
  6
CONTINUOUS
370
-3
390
F
  0
LAYER
  5
205
100
AcDbSymbolTableRecord
100
AcDbLayerTableRecord
  2
PIANI
 70
0
 62
7
  6
CONTINUOUS
370
-3
390
F
  0
LAYER
  5
206
100
AcDbSymbolTableRecord
100
AcDbLayerTableRecord
  2
PIANI_ORIGINE
 70
0
 62
7
  6
CONTINUOUS
370
-3
390
F
  0
LAYER
  5
207
100
AcDbSymbolTableRecord
100
AcDbLayerTableRecord
  2
PUNTI
 70
0
 62
7
  6
CONTINUOUS
370
-3
390
F
  0
LAYER
  5
208
100
AcDbSymbolTableRecord
100
AcDbLayerTableRecord
  2
RACCORDO
 70
0
 62
7
  6
CONTINUOUS
370
-3
390
F
  0
LAYER
  5
209
100
AcDbSymbolTableRecord
100
AcDbLayerTableRecord
  2
SMUSSO
 70
0
 62
7
  6
CONTINUOUS
370
-3
390
F
  0
LAYER
  5
20A
100
AcDbSymbolTableRecord
100
AcDbLayerTableRecord
  2
SNAPLINE
 70
0
 62
7
  6
CONTINUOUS
370
-3
390
F
  0
LAYER
  5
20B
100
AcDbSymbolTableRecord
100
AcDbLayerTableRecord
  2
SUPERFICI
 70
0
 62
7
  6
CONTINUOUS
370
-3
390
F
  0
LAYER
  5
20C
100
AcDbSymbolTableRecord
100
AcDbLayerTableRecord
  2
TRASH
 70
0
 62
7
  6
CONTINUOUS
370
-3
390
F
  0
ENDTAB
  0
TABLE
  2
STYLE
  5
3
100
AcDbSymbolTable
 70
1
  0
STYLE
  5
11
100
AcDbSymbolTableRecord
100
AcDbTextStyleTableRecord
  2
STANDARD
 70
0
 40
0.0
 41
0.8
 50
0.0
 71
0
 42
0.2
  3
txt
  4

  0
STYLE
  5
20D
100
AcDbSymbolTableRecord
100
AcDbTextStyleTableRecord
  2
TEXTSTYLE_1
 70
0
 40
0.0
 41
0.8
 50
0.0
 71
0
 42
0.2
  3
gdt
  4

  0
ENDTAB
  0
TABLE
  2
VIEW
  5
6
100
AcDbSymbolTable
 70
0
  0
ENDTAB
  0
TABLE
  2
UCS
  5
7
100
AcDbSymbolTable
 70
0
  0
ENDTAB
  0
TABLE
  2
APPID
  5
9
100
AcDbSymbolTable
 70
1
  0
APPID
  5
20E
100
AcDbSymbolTableRecord
100
AcDbRegAppTableRecord
  2
ACAD
 70
0
  0
ENDTAB
  0
TABLE
  2
BLOCK_RECORD
  5
1
100
AcDbSymbolTable
 70
0
  0
BLOCK_RECORD
  5
20F
100
AcDbSymbolTableRecord
100
AcDbBlockTableRecord
  2
*Model_Space
  0
BLOCK_RECORD
  5
210
100
AcDbSymbolTableRecord
100
AcDbBlockTableRecord
  2
*Paper_Space
  0
BLOCK_RECORD
  5
211
100
AcDbSymbolTableRecord
100
AcDbBlockTableRecord
  2
_FILLED
  0
BLOCK_RECORD
  5
212
100
AcDbSymbolTableRecord
100
AcDbBlockTableRecord
  2
*D0
  0
BLOCK_RECORD
  5
213
100
AcDbSymbolTableRecord
100
AcDbBlockTableRecord
  2
*D1
  0
BLOCK_RECORD
  5
214
100
AcDbSymbolTableRecord
100
AcDbBlockTableRecord
  2
*D2
  0
BLOCK_RECORD
  5
215
100
AcDbSymbolTableRecord
100
AcDbBlockTableRecord
  2
*D3
  0
BLOCK_RECORD
  5
216
100
AcDbSymbolTableRecord
100
AcDbBlockTableRecord
  2
*D4
  0
BLOCK_RECORD
  5
217
100
AcDbSymbolTableRecord
100
AcDbBlockTableRecord
  2
*D5
  0
ENDTAB
  0
TABLE
  2
DIMSTYLE
  5
A
100
AcDbSymbolTable
 70
1
100
AcDbDimStyleTable
 71
0
  0
DIMSTYLE
105
218
100
AcDbSymbolTableRecord
100
AcDbDimStyleTableRecord
  2
STANDARD
 70
0
  3

  4

 40
1.0
 41
3.0
 42
0.5
 43
0.38
 44
1.5
 45
0.0
 46
0.0
 47
0.01
 48
0.01
140
3.0
141
0.09
142
0.0
143
25.4
144
1.0
145
0.0
146
1.0
147
0.625
 71
1.0
 72
0.0
 73
0
 74
0
 75
0
 76
0
 77
1
 78
8
 79
2
170
0
171
1
172
0
173
0
174
0
175
0
176
0
177
0
178
0
270
2
179
2
271
2
272
2
273
2
274
2
275
0
280
0
281
0
282
0
283
1
284
8
285
0
286
0
287
3
288
0
340
11
278
44
341
211
342
211
343
211
344
211
  0
DIMSTYLE
105
219
100
AcDbSymbolTableRecord
100
AcDbDimStyleTableRecord
  2
DIMSTYLE_1
 70
0
  3

  4

 40
1.0
 41
3.0
 42
0.5
 43
0.38
 44
1.5
 45
0.0
 46
0.0
 47
0.0
 48
0.0
140
3.0
141
0.09
142
0.0
143
25.4
144
1.0
145
0.0
146
1.0
147
0.75
 71
0.0
 72
0.0
 73
0
 74
0
 75
0
 76
0
 77
1
 78
8
 79
2
170
0
171
1
172
0
173
0
174
0
175
0
176
0
177
0
178
0
270
2
179
2
271
2
272
2
273
2
274
2
275
0
280
0
281
0
282
0
283
1
284
8
285
0
286
0
287
3
288
0
340
11
278
44
341
211
342
211
343
211
344
211
  0
ENDTAB
  0
ENDSEC
  0
SECTION
  2
BLOCKS
  0
BLOCK
  5
20
100
AcDbEntity
  8
0
100
AcDbBlockBegin
  2
*Model_Space
 70
0
 10
0.0
 20
0.0
 30
0.0
  3
*Model_Space
  1

  0
ENDBLK
  5
21
100
AcDbEntity
  8
0
100
AcDbBlockEnd
  0
BLOCK
  5
1C
100
AcDbEntity
  8
0
100
AcDbBlockBegin
  2
*Paper_Space
 70
0
 10
0.0
 20
0.0
 30
0.0
  3
*Paper_Space
  1

  0
ENDBLK
  5
1D
100
AcDbEntity
  8
0
100
AcDbBlockEnd
  0
BLOCK
  5
21A
100
AcDbEntity
  8
0
100
AcDbBlockBegin
  2
_FILLED
 70
64
 10
0.0
 20
0.0
  3
_FILLED
  1

  0
SOLID
  5
21B
100
AcDbEntity
  8
0
  6
BYBLOCK
 62
0
100
AcDbTrace
 10
0.0
 20
0.0
 11
-1.0
 21
0.3166666667
 12
-1.0
 22
-0.3166666667
 13
-1.0
 23
-0.3166666667
  0
ENDBLK
  5
21C
100
AcDbEntity
  8
0
  6
BYBLOCK
 62
0
100
AcDbBlockEnd
  0
BLOCK
  5
21D
100
AcDbEntity
  8
0
100
AcDbBlockBegin
 62
7
  6
CONTINUOUS
  2
*D0
 70
65
 10
0.0
 20
0.0
  3
*D0
  1

  0
LINE
  5
21E
100
AcDbEntity
  8
0
100
AcDbLine
 62
7
  6
CONTINUOUS
 10
-15.953074203
 20
40.3839929152
 11
-15.953074203
 21
68.0839662613
  0
LINE
  5
21F
100
AcDbEntity
  8
0
100
AcDbLine
 62
7
  6
CONTINUOUS
 10
106.046925797
 20
40.3839929152
 11
106.046925797
 21
68.0839662613
  0
LINE
  5
220
100
AcDbEntity
  8
0
100
AcDbLine
 62
7
  6
CONTINUOUS
 10
-15.953074203
 20
66.5839662613
 11
45.046925797
 21
66.5839662613
  0
LINE
  5
221
100
AcDbEntity
  8
0
100
AcDbLine
 62
7
  6
CONTINUOUS
 10
106.046925797
 20
66.5839662613
 11
45.046925797
 21
66.5839662613
  0
INSERT
  5
222
100
AcDbEntity
  8
0
100
AcDbBlockReference
 62
7
  6
CONTINUOUS
  2
_FILLED
 10
-15.953074203
 20
66.5839662613
 41
3.0
 42
3.0
 43
3.0
 50
180.0
  0
INSERT
  5
223
100
AcDbEntity
  8
0
100
AcDbBlockReference
 62
7
  6
CONTINUOUS
  2
_FILLED
 10
106.046925797
 20
66.5839662613
 41
3.0
 42
3.0
 43
3.0
  0
ENDBLK
  5
224
100
AcDbEntity
  8
0
  6
BYBLOCK
 62
0
100
AcDbBlockEnd
  0
BLOCK
  5
225
100
AcDbEntity
  8
0
100
AcDbBlockBegin
 62
7
  6
CONTINUOUS
  2
*D1
 70
65
 10
0.0
 20
0.0
  3
*D1
  1

  0
LINE
  5
226
100
AcDbEntity
  8
0
100
AcDbLine
 62
7
  6
CONTINUOUS
 10
3.246925797
 20
-0.9160337387
 11
3.246925797
 21
52.0839662613
  0
LINE
  5
227
100
AcDbEntity
  8
0
100
AcDbLine
 62
7
  6
CONTINUOUS
 10
86.846925797
 20
-0.9160337387
 11
86.846925797
 21
52.0839662613
  0
LINE
  5
228
100
AcDbEntity
  8
0
100
AcDbLine
 62
7
  6
CONTINUOUS
 10
3.246925797
 20
50.5839662613
 11
45.046925797
 21
50.5839662613
  0
LINE
  5
229
100
AcDbEntity
  8
0
100
AcDbLine
 62
7
  6
CONTINUOUS
 10
86.846925797
 20
50.5839662613
 11
45.046925797
 21
50.5839662613
  0
INSERT
  5
22A
100
AcDbEntity
  8
0
100
AcDbBlockReference
 62
7
  6
CONTINUOUS
  2
_FILLED
 10
3.246925797
 20
50.5839662613
 41
3.0
 42
3.0
 43
3.0
 50
180.0
  0
INSERT
  5
22B
100
AcDbEntity
  8
0
100
AcDbBlockReference
 62
7
  6
CONTINUOUS
  2
_FILLED
 10
86.846925797
 20
50.5839662613
 41
3.0
 42
3.0
 43
3.0
  0
ENDBLK
  5
22C
100
AcDbEntity
  8
0
  6
BYBLOCK
 62
0
100
AcDbBlockEnd
  0
BLOCK
  5
22D
100
AcDbEntity
  8
0
100
AcDbBlockBegin
 62
7
  6
CONTINUOUS
  2
*D2
 70
65
 10
0.0
 20
0.0
  3
*D2
  1

  0
LINE
  5
22E
100
AcDbEntity
  8
0
100
AcDbLine
 62
7
  6
CONTINUOUS
 10
-3.953074203
 20
29.5839662613
 11
-3.953074203
 21
60.0839662613
  0
LINE
  5
22F
100
AcDbEntity
  8
0
100
AcDbLine
 62
7
  6
CONTINUOUS
 10
94.046925797
 20
29.5839662613
 11
94.046925797
 21
60.0839662613
  0
LINE
  5
230
100
AcDbEntity
  8
0
100
AcDbLine
 62
7
  6
CONTINUOUS
 10
-3.953074203
 20
58.5839662613
 11
45.046925797
 21
58.5839662613
  0
LINE
  5
231
100
AcDbEntity
  8
0
100
AcDbLine
 62
7
  6
CONTINUOUS
 10
94.046925797
 20
58.5839662613
 11
45.046925797
 21
58.5839662613
  0
INSERT
  5
232
100
AcDbEntity
  8
0
100
AcDbBlockReference
 62
7
  6
CONTINUOUS
  2
_FILLED
 10
-3.953074203
 20
58.5839662613
 41
3.0
 42
3.0
 43
3.0
 50
180.0
  0
INSERT
  5
233
100
AcDbEntity
  8
0
100
AcDbBlockReference
 62
7
  6
CONTINUOUS
  2
_FILLED
 10
94.046925797
 20
58.5839662613
 41
3.0
 42
3.0
 43
3.0
  0
ENDBLK
  5
234
100
AcDbEntity
  8
0
  6
BYBLOCK
 62
0
100
AcDbBlockEnd
  0
BLOCK
  5
235
100
AcDbEntity
  8
0
100
AcDbBlockBegin
 62
7
  6
CONTINUOUS
  2
*D3
 70
65
 10
0.0
 20
0.0
  3
*D3
  1

  0
LINE
  5
236
100
AcDbEntity
  8
0
100
AcDbLine
 62
7
  6
CONTINUOUS
 10
99.046925797
 20
-29.4160337387
 11
117.546925797
 21
-29.4160337387
  0
LINE
  5
237
100
AcDbEntity
  8
0
100
AcDbLine
 62
7
  6
CONTINUOUS
 10
96.546925797
 20
26.5839662613
 11
117.546925797
 21
26.5839662613
  0
LINE
  5
238
100
AcDbEntity
  8
0
100
AcDbLine
 62
7
  6
CONTINUOUS
 10
116.046925797
 20
-29.4160337387
 11
116.046925797
 21
-1.4160337387
  0
LINE
  5
239
100
AcDbEntity
  8
0
100
AcDbLine
 62
7
  6
CONTINUOUS
 10
116.046925797
 20
26.5839662613
 11
116.046925797
 21
-1.4160337387
  0
INSERT
  5
23A
100
AcDbEntity
  8
0
100
AcDbBlockReference
 62
7
  6
CONTINUOUS
  2
_FILLED
 10
116.046925797
 20
-29.4160337387
 41
3.0
 42
3.0
 43
3.0
 50
270.0
  0
INSERT
  5
23B
100
AcDbEntity
  8
0
100
AcDbBlockReference
 62
7
  6
CONTINUOUS
  2
_FILLED
 10
116.046925797
 20
26.5839662613
 41
3.0
 42
3.0
 43
3.0
 50
90.0
  0
ENDBLK
  5
23C
100
AcDbEntity
  8
0
  6
BYBLOCK
 62
0
100
AcDbBlockEnd
  0
BLOCK
  5
23D
100
AcDbEntity
  8
0
100
AcDbBlockBegin
 62
7
  6
CONTINUOUS
  2
*D4
 70
65
 10
0.0
 20
0.0
  3
*D4
  1

  0
LINE
  5
23E
100
AcDbEntity
  8
0
100
AcDbLine
 62
7
  6
CONTINUOUS
 10
105.8469524509
 20
40.5839662613
 11
125.546925797
 21
40.5839662613
  0
LINE
  5
23F
100
AcDbEntity
  8
0
100
AcDbLine
 62
7
  6
CONTINUOUS
 10
105.8469524509
 20
-43.4160337387
 11
125.546925797
 21
-43.4160337387
  0
LINE
  5
240
100
AcDbEntity
  8
0
100
AcDbLine
 62
7
  6
CONTINUOUS
 10
124.046925797
 20
40.5839662613
 11
124.046925797
 21
-1.4160337387
  0
LINE
  5
241
100
AcDbEntity
  8
0
100
AcDbLine
 62
7
  6
CONTINUOUS
 10
124.046925797
 20
-43.4160337387
 11
124.046925797
 21
-1.4160337387
  0
INSERT
  5
242
100
AcDbEntity
  8
0
100
AcDbBlockReference
 62
7
  6
CONTINUOUS
  2
_FILLED
 10
124.046925797
 20
40.5839662613
 41
3.0
 42
3.0
 43
3.0
 50
90.0
  0
INSERT
  5
243
100
AcDbEntity
  8
0
100
AcDbBlockReference
 62
7
  6
CONTINUOUS
  2
_FILLED
 10
124.046925797
 20
-43.4160337387
 41
3.0
 42
3.0
 43
3.0
 50
270.0
  0
ENDBLK
  5
244
100
AcDbEntity
  8
0
  6
BYBLOCK
 62
0
100
AcDbBlockEnd
  0
BLOCK
  5
245
100
AcDbEntity
  8
0
100
AcDbBlockBegin
 62
7
  6
CONTINUOUS
  2
*D5
 70
65
 10
0.0
 20
0.0
  3
*D5
  1

  0
LINE
  5
246
100
AcDbEntity
  8
0
100
AcDbLine
 62
7
  6
CONTINUOUS
 10
-90.4632708836
 20
39.9973393633
 11
-90.4632708836
 21
52.0839662613
  0
LINE
  5
247
100
AcDbEntity
  8
0
100
AcDbLine
 62
7
  6
CONTINUOUS
 10
-45.4632708836
 20
40.3839929152
 11
-45.4632708836
 21
52.0839662613
  0
LINE
  5
248
100
AcDbEntity
  8
0
100
AcDbLine
 62
7
  6
CONTINUOUS
 10
-90.4632708836
 20
50.5839662613
 11
-67.9632708836
 21
50.5839662613
  0
LINE
  5
249
100
AcDbEntity
  8
0
100
AcDbLine
 62
7
  6
CONTINUOUS
 10
-45.4632708836
 20
50.5839662613
 11
-67.9632708836
 21
50.5839662613
  0
INSERT
  5
24A
100
AcDbEntity
  8
0
100
AcDbBlockReference
 62
7
  6
CONTINUOUS
  2
_FILLED
 10
-90.4632708836
 20
50.5839662613
 41
3.0
 42
3.0
 43
3.0
 50
180.0
  0
INSERT
  5
24B
100
AcDbEntity
  8
0
100
AcDbBlockReference
 62
7
  6
CONTINUOUS
  2
_FILLED
 10
-45.4632708836
 20
50.5839662613
 41
3.0
 42
3.0
 43
3.0
  0
ENDBLK
  5
24C
100
AcDbEntity
  8
0
  6
BYBLOCK
 62
0
100
AcDbBlockEnd
  0
ENDSEC
  0
SECTION
  2
ENTITIES
  0
DIMENSION
  5
24D
100
AcDbEntity
  8
0
100
AcDbDimension
 62
7
  6
CONTINUOUS
  2
*D0
 10
106.046925797
 20
66.5839662613
 11
41.8326400827
 21
66.5839662613
 70
160
 71
2
 72
2
 41
0.9
 42
122.0
  3
DIMSTYLE_1
100
AcDbAlignedDimension
 13
-15.953074203
 23
39.8839929152
 14
106.046925797
 24
39.8839929152
100
AcDbRotatedDimension
  0
DIMENSION
  5
24E
100
AcDbEntity
  8
0
100
AcDbDimension
 62
7
  6
CONTINUOUS
  2
*D1
 10
86.846925797
 20
50.5839662613
 11
40.7612115113
 21
50.5839662613
 70
160
 71
2
 72
2
 41
0.9
 42
83.6
  3
DIMSTYLE_1
100
AcDbAlignedDimension
 13
3.246925797
 23
-1.4160337387
 14
86.846925797
 24
-1.4160337387
100
AcDbRotatedDimension
  0
DIMENSION
  5
24F
100
AcDbEntity
  8
0
100
AcDbDimension
 62
7
  6
CONTINUOUS
  2
*D2
 10
94.046925797
 20
58.5839662613
 11
42.6897829399
 21
58.5839662613
 70
160
 71
2
 72
2
 41
0.9
 42
98.0
  3
DIMSTYLE_1
100
AcDbAlignedDimension
 13
-3.953074203
 23
29.0839662613
 14
94.046925797
 24
29.0839662613
100
AcDbRotatedDimension
  0
DIMENSION
  5
250
100
AcDbEntity
  8
0
100
AcDbDimension
 62
7
  6
CONTINUOUS
  2
*D3
 10
116.046925797
 20
26.5839662613
 11
116.046925797
 21
-3.6660337387
 70
160
 71
2
 72
2
 41
0.9
 42
56.0
  3
DIMSTYLE_1
100
AcDbAlignedDimension
 13
98.546925797
 23
-29.4160337387
 14
96.046925797
 24
26.5839662613
 50
90.0
100
AcDbRotatedDimension
  0
DIMENSION
  5
251
100
AcDbEntity
  8
0
100
AcDbDimension
 62
7
  6
CONTINUOUS
  2
*D4
 10
124.046925797
 20
-43.4160337387
 11
124.046925797
 21
-3.7731765958
 70
160
 71
2
 72
2
 41
0.9
 42
84.0
  3
DIMSTYLE_1
100
AcDbAlignedDimension
 13
105.3469524509
 23
40.5839662613
 14
105.3469524509
 24
-43.4160337387
 50
270.0
100
AcDbRotatedDimension
  0
DIMENSION
  5
252
100
AcDbEntity
  8
0
100
AcDbDimension
 62
7
  6
CONTINUOUS
  2
*D5
 10
-45.4632708836
 20
50.5839662613
 11
-70.2132708836
 21
50.5839662613
 70
160
 71
2
 72
2
 41
0.9
 42
45.0
  3
DIMSTYLE_1
100
AcDbAlignedDimension
 13
-90.4632708836
 23
39.4973393633
 14
-45.4632708836
 24
39.8839929152
100
AcDbRotatedDimension
  0
LINE
  5
253
100
AcDbEntity
  8
RACCORDO
100
AcDbLine
 62
250
  6
CONTINUOUS
 10
-15.5663935311
 20
-42.3355154196
 11
-15.5664206511
 21
-42.3294068407
  0
LINE
  5
254
100
AcDbEntity
  8
RACCORDO
100
AcDbLine
 62
7
  6
CONTINUOUS
 10
-15.953074203
 20
39.8839929152
 11
-15.953074203
 21
-42.7160603925
  0
LINE
  5
255
100
AcDbEntity
  8
RACCORDO
100
AcDbLine
 62
7
  6
CONTINUOUS
 10
-15.5664206511
 20
39.4973393633
 11
-15.5664206511
 21
-42.3294068407
  0
LINE
  5
256
100
AcDbEntity
  8
RACCORDO
100
AcDbLine
 62
250
  6
CONTINUOUS
 10
-14.866447305
 20
-43.0293801868
 11
-14.866447305
 21
40.1973127095
  0
LWPOLYLINE
  5
257
100
AcDbEntity
  8
RACCORDO
100
AcDbPolyline
 62
7
  6
CONTINUOUS
 90
12
 70
0
 10
-15.5664206511
 20
39.4973393633
 10
-15.5603774854
 20
39.589066652
 10
-15.5423587076
 20
39.6792397082
 10
-15.5126642268
 20
39.766300148
 10
-15.4717915354
 20
39.848748881
 10
-15.4204393049
 20
39.9251470921
 10
-15.359505794
 20
39.9941478816
 10
-15.2898867707
 20
40.0546774657
 10
-15.2129121262
 20
40.1055274263
 10
-15.1304943703
 20
40.1455798767
 10
-15.0443522549
 20
40.1743136398
 10
-14.9584680413
 20
40.1912306692
  0
LINE
  5
258
100
AcDbEntity
  8
DRAFT
100
AcDbLine
 62
7
  6
CONTINUOUS
 10
-10.453074203
 20
-27.9160337387
 11
-10.453074203
 21
-30.9160337387
  0
LINE
  5
259
100
AcDbEntity
  8
DRAFT
100
AcDbLine
 62
7
  6
CONTINUOUS
 10
-9.9294222552
 20
-27.9160337387
 11
-9.9294222552
 21
-30.9160337387
  0
LINE
  5
25A
100
AcDbEntity
  8
DRAFT
100
AcDbLine
 62
7
  6
CONTINUOUS
 10
-8.5831045331
 20
-31.4160337387
 11
-8.5831045331
 21
-27.4160337387
  0
LINE
  5
25B
100
AcDbEntity
  8
DRAFT
100
AcDbLine
 62
7
  6
CONTINUOUS
 10
-8.453074203
 20
-31.4160337387
 11
-8.453074203
 21
-27.4160337387
  0
LINE
  5
25C
100
AcDbEntity
  8
DRAFT
100
AcDbLine
 62
250
  6
CONTINUOUS
 10
-5.953074203
 20
24.0839662613
 11
-5.953074203
 21
23.9539359313
  0
LINE
  5
25D
100
AcDbEntity
  8
DRAFT
100
AcDbLine
 62
250
  6
CONTINUOUS
 10
-5.953074203
 20
29.0839662613
 11
-5.953074203
 21
29.2139965914
  0
LINE
  5
25E
100
AcDbEntity
  8
DRAFT
100
AcDbLine
 62
250
  6
CONTINUOUS
 10
-5.453074203
 20
31.0839662613
 11
-5.453074203
 21
30.5603143135
  0
LINE
  5
25F
100
AcDbEntity
  8
DRAFT
100
AcDbLine
 62
250
  6
CONTINUOUS
 10
-5.453074203
 20
22.0839662613
 11
-5.453074203
 21
22.6076182092
  0
LWPOLYLINE
  5
260
100
AcDbEntity
  8
0
100
AcDbPolyline
 62
7
  6
CONTINUOUS
 90
3
 70
0
 43
0.3500000006
 10
41.8326421509
 20
69.4768222961
 10
42.6897846222
 20
70.3339692993
 10
42.6897846222
 20
67.3339683838
  0
LWPOLYLINE
  5
261
100
AcDbEntity
  8
RACCORDO
100
AcDbPolyline
 62
7
  6
CONTINUOUS
 90
12
 70
0
 10
-14.9584680413
 20
-43.0232981465
 10
-15.0443522549
 20
-43.0063811171
 10
-15.1304943703
 20
-42.977647354
 10
-15.2129121262
 20
-42.9375949036
 10
-15.2898867707
 20
-42.8867449431
 10
-15.359505794
 20
-42.8262153589
 10
-15.4204393049
 20
-42.7572145695
 10
-15.4717915354
 20
-42.6808163584
 10
-15.5126642268
 20
-42.5983676253
 10
-15.5423587076
 20
-42.5113071855
 10
-15.5603774854
 20
-42.4211341293
 10
-15.5663935311
 20
-42.3355154196
  0
LINE
  5
262
100
AcDbEntity
  8
DRAFT
100
AcDbLine
 62
7
  6
CONTINUOUS
 10
-3.453074203
 20
-27.4160337387
 11
-3.453074203
 21
-31.4160337387
  0
LINE
  5
263
100
AcDbEntity
  8
DRAFT
100
AcDbLine
 62
7
  6
CONTINUOUS
 10
-3.3230438729
 20
-27.4160337387
 11
-3.3230438729
 21
-31.4160337387
  0
LINE
  5
264
100
AcDbEntity
  8
0
100
AcDbLine
 62
7
  6
CONTINUOUS
 10
-2.4897298393
 20
-10.4528416799
 11
-2.4897298393
 21
7.6207742025
  0
LINE
  5
265
100
AcDbEntity
  8
DRAFT
100
AcDbLine
 62
250
  6
CONTINUOUS
 10
-2.453074203
 20
31.0839662613
 11
-2.453074203
 21
30.5603143135
  0
LINE
  5
266
100
AcDbEntity
  8
0
100
AcDbLine
 62
7
  6
CONTINUOUS
 10
-2.453074203
 20
7.5841185662
 11
-2.453074203
 21
-10.4161860435
  0
LINE
  5
267
100
AcDbEntity
  8
DRAFT
100
AcDbLine
 62
250
  6
CONTINUOUS
 10
-2.453074203
 20
22.0839662613
 11
-2.453074203
 21
22.6076182092
  0
LINE
  5
268
100
AcDbEntity
  8
DRAFT
100
AcDbLine
 62
7
  6
CONTINUOUS
 10
-1.9767261508
 20
-30.9160337387
 11
-1.9767261508
 21
-27.9160337387
  0
LINE
  5
269
100
AcDbEntity
  8
DRAFT
100
AcDbLine
 62
250
  6
CONTINUOUS
 10
-1.953074203
 20
24.0839662613
 11
-1.953074203
 21
23.9539359313
  0
LINE
  5
26A
100
AcDbEntity
  8
DRAFT
100
AcDbLine
 62
250
  6
CONTINUOUS
 10
-1.953074203
 20
29.0839662613
 11
-1.953074203
 21
29.2139965914
  0
LINE
  5
26B
100
AcDbEntity
  8
DRAFT
100
AcDbLine
 62
7
  6
CONTINUOUS
 10
-1.453074203
 20
-30.9160337387
 11
-1.453074203
 21
-27.9160337387
  0
LINE
  5
26C
100
AcDbEntity
  8
0
100
AcDbLine
 62
7
  6
CONTINUOUS
 10
0.0460531102
 20
8.5839662613
 11
0.0460531102
 21
2.2475702702
  0
LINE
  5
26D
100
AcDbEntity
  8
0
100
AcDbLine
 62
7
  6
CONTINUOUS
 10
0.0460531102
 20
-5.0796377475
 11
0.0460531102
 21
-11.4160337387
  0
LINE
  5
26E
100
AcDbEntity
  8
0
100
AcDbLine
 62
7
  6
CONTINUOUS
 10
0.0643795326
 20
20.9147837908
 11
0.0643795326
 21
8.6206218977
  0
LINE
  5
26F
100
AcDbEntity
  8
0
100
AcDbLine
 62
7
  6
CONTINUOUS
 10
0.0643795326
 20
-11.452689375
 11
0.0643795326
 21
-24.9088041647
  0
LINE
  5
270
100
AcDbEntity
  8
0
100
AcDbLine
 62
7
  6
CONTINUOUS
 10
0.0643795326
 20
8.6206218977
 11
0.0460531102
 21
8.5839662613
  0
LINE
  5
271
100
AcDbEntity
  8
DRAFT
100
AcDbLine
 62
7
  6
CONTINUOUS
 10
5.054155371
 20
27.0665125258
 11
4.0409339134
 21
26.0532910681
  0
LWPOLYLINE
  5
272
100
AcDbEntity
  8
0
100
AcDbPolyline
 62
7
  6
CONTINUOUS
 90
10
 70
0
 43
0.3500000006
 10
43.1183535919
 20
59.3339659424
 10
43.9754960632
 20
60.1911129456
 10
44.18978508
 20
61.048250885
 10
44.18978508
 20
61.9053978882
 10
43.7612115784
 20
62.3339668579
 10
43.1183535919
 20
62.3339668579
 10
42.6897846222
 20
61.9053978882
 10
42.6897846222
 20
61.048250885
 10
43.1183535919
 20
60.6196819153
 10
44.0469272461
 20
60.6196819153
  0
LWPOLYLINE
  5
273
100
AcDbEntity
  8
0
100
AcDbPolyline
 62
7
  6
CONTINUOUS
 90
5
 70
0
 43
0.3500000006
 10
43.9754960632
 20
53.0482529755
 10
44.332638382
 20
53.2625374603
 10
44.332638382
 20
53.9053954468
 10
43.9754960632
 20
54.3339644165
 10
43.1183535919
 20
54.3339644165
  0
LINE
  5
274
100
AcDbEntity
  8
RACCORDO
100
AcDbLine
 62
250
  6
CONTINUOUS
 10
105.0523196353
 20
-43.0232981465
 11
104.960298899
 21
-43.0293801868
  0
LINE
  5
275
100
AcDbEntity
  8
RACCORDO
100
AcDbLine
 62
250
  6
CONTINUOUS
 10
-14.866447305
 20
-43.0293801868
 11
-14.9584680413
 21
-43.0232981465
  0
LINE
  5
276
100
AcDbEntity
  8
DRAFT
100
AcDbLine
 62
7
  6
CONTINUOUS
 10
0.0643795326
 20
-24.9088041647
 11
5.054155371
 21
-29.8985800031
  0
LINE
  5
277
100
AcDbEntity
  8
0
100
AcDbLine
 62
7
  6
CONTINUOUS
 10
0.0643795326
 20
-11.452689375
 11
0.0460531102
 21
-11.4160337387
  0
LWPOLYLINE
  5
278
100
AcDbEntity
  8
0
100
AcDbPolyline
 62
7
  6
CONTINUOUS
 90
4
 70
0
 10
2.061842245
 20
2.2426796651
 10
2.0613849565
 20
2.2645011531
 10
2.0609085935
 20
2.2777787029
 10
2.0604131559
 20
2.2825123143
  0
LWPOLYLINE
  5
279
100
AcDbEntity
  8
0
100
AcDbPolyline
 62
7
  6
CONTINUOUS
 90
4
 70
0
 10
4.4320093493
 20
-5.0747471562
 10
4.4324666377
 20
-5.0965686386
 10
4.4329430006
 20
-5.1098461837
 10
4.4334384381
 20
-5.1145797916
  0
LINE
  5
27A
100
AcDbEntity
  8
0
100
AcDbLine
 62
7
  6
CONTINUOUS
 10
2.0627125011
 20
2.1724883338
 11
2.061842245
 21
2.2426796651
  0
LINE
  5
27B
100
AcDbEntity
  8
0
100
AcDbLine
 62
7
  6
CONTINUOUS
 10
4.431139093
 20
-5.0045558093
 11
4.4320093493
 21
-5.0747471562
  0
LINE
  5
27C
100
AcDbEntity
  8
0
100
AcDbLine
 62
7
  6
CONTINUOUS
 10
2.0647385122
 20
-4.0091995245
 11
2.0604946441
 21
-3.4602545717
  0
LINE
  5
27D
100
AcDbEntity
  8
0
100
AcDbLine
 62
7
  6
CONTINUOUS
 10
4.4291130818
 20
1.1772386067
 11
4.4333585837
 21
0.6281842572
  0
LINE
  5
27E
100
AcDbEntity
  8
0
100
AcDbLine
 62
7
  6
CONTINUOUS
 10
2.0288001743
 20
-3.4044522255
 11
2.0333217881
 21
-3.9947282358
  0
LINE
  5
27F
100
AcDbEntity
  8
0
100
AcDbLine
 62
7
  6
CONTINUOUS
 10
4.4703336376
 20
0.5629317315
 11
4.4657659265
 21
1.1601899975
  0
LINE
  5
280
100
AcDbEntity
  8
0
100
AcDbLine
 62
7
  6
CONTINUOUS
 10
2.0637499348
 20
2.010760697
 11
2.0627125011
 21
2.1724883338
  0
LINE
  5
281
100
AcDbEntity
  8
0
100
AcDbLine
 62
7
  6
CONTINUOUS
 10
4.4301016604
 20
-4.8428284516
 11
4.431139093
 21
-5.0045558093
  0
LINE
  5
282
100
AcDbEntity
  8
0
100
AcDbLine
 62
7
  6
CONTINUOUS
 10
2.0333217881
 20
-3.9947282358
 11
2.0341944749
 21
-5.125468037
  0
LINE
  5
283
100
AcDbEntity
  8
0
100
AcDbLine
 62
7
  6
CONTINUOUS
 10
2.0333217881
 20
1.1626607585
 11
2.0341944749
 21
2.2934005597
  0
LINE
  5
284
100
AcDbEntity
  8
0
100
AcDbLine
 62
7
  6
CONTINUOUS
 10
4.4596571191
 20
-5.125468037
 11
4.4596571191
 21
-4.8721708132
  0
LINE
  5
285
100
AcDbEntity
  8
0
100
AcDbLine
 62
7
  6
CONTINUOUS
 10
4.4596571191
 20
2.0401033359
 11
4.4596571191
 21
2.2934005597
  0
LINE
  5
286
100
AcDbEntity
  8
0
100
AcDbLine
 62
7
  6
CONTINUOUS
 10
4.4657659265
 20
2.0444310617
 11
4.4657659265
 21
1.1601899975
  0
LINE
  5
287
100
AcDbEntity
  8
0
100
AcDbLine
 62
7
  6
CONTINUOUS
 10
4.4657659265
 20
-3.9922574748
 11
4.4657659265
 21
-4.8764985391
  0
LINE
  5
288
100
AcDbEntity
  8
0
100
AcDbLine
 62
7
  6
CONTINUOUS
 10
2.0647392858
 20
1.177275625
 11
2.0637499348
 21
2.010760697
  0
LINE
  5
289
100
AcDbEntity
  8
0
100
AcDbLine
 62
7
  6
CONTINUOUS
 10
4.4291123177
 20
-4.0094426762
 11
4.4301016604
 21
-4.8428284516
  0
LINE
  5
28A
100
AcDbEntity
  8
0
100
AcDbLine
 62
7
  6
CONTINUOUS
 10
2.0637476477
 20
-4.8433720483
 11
2.0647385122
 21
-4.0091995245
  0
LINE
  5
28B
100
AcDbEntity
  8
0
100
AcDbLine
 62
7
  6
CONTINUOUS
 10
4.4301040829
 20
2.0113354916
 11
4.4291130818
 21
1.1772386067
  0
LINE
  5
28C
100
AcDbEntity
  8
0
100
AcDbLine
 62
7
  6
CONTINUOUS
 10
2.0333217881
 20
1.1626607585
 11
2.0288001743
 21
0.5723847482
  0
LINE
  5
28D
100
AcDbEntity
  8
0
100
AcDbLine
 62
7
  6
CONTINUOUS
 10
2.0604936058
 20
0.6281852912
 11
2.0647392858
 21
1.177275625
  0
LINE
  5
28E
100
AcDbEntity
  8
0
100
AcDbLine
 62
7
  6
CONTINUOUS
 10
4.4333583642
 20
-3.4602521157
 11
4.4291123177
 21
-4.0094426762
  0
LINE
  5
28F
100
AcDbEntity
  8
0
100
AcDbLine
 62
7
  6
CONTINUOUS
 10
4.4657659265
 20
-3.9922574748
 11
4.4703336376
 21
-3.3949992088
  0
LINE
  5
290
100
AcDbEntity
  8
0
100
AcDbLine
 62
7
  6
CONTINUOUS
 10
2.0627035644
 20
-5.0055129284
 11
2.0637476477
 21
-4.8433720483
  0
LINE
  5
291
100
AcDbEntity
  8
0
100
AcDbLine
 62
7
  6
CONTINUOUS
 10
4.4311481478
 20
2.1734581159
 11
4.4301040829
 21
2.0113354916
  0
LWPOLYLINE
  5
292
100
AcDbEntity
  8
0
100
AcDbPolyline
 62
7
  6
CONTINUOUS
 90
5
 70
0
 10
2.0604131559
 20
-5.1145797916
 10
2.0609037609
 20
-5.1100594897
 10
2.0613767483
 20
-5.0969752373
 10
2.061832118
 20
-5.0753270342
 10
2.0627035644
 20
-5.0055129284
  0
LWPOLYLINE
  5
293
100
AcDbEntity
  8
0
100
AcDbPolyline
 62
7
  6
CONTINUOUS
 90
5
 70
0
 10
4.4334384381
 20
2.2825123143
 10
4.4329478604
 20
2.2779923984
 10
4.4324748982
 20
2.2649095824
 10
4.4320195515
 20
2.2432638663
 10
4.4311481478
 20
2.1734581159
  0
LINE
  5
294
100
AcDbEntity
  8
RACCORDO
100
AcDbLine
 62
7
  6
CONTINUOUS
 10
-15.2531008569
 20
-43.4160337387
 11
105.3469524509
 21
-43.4160337387
  0
LINE
  5
295
100
AcDbEntity
  8
RACCORDO
100
AcDbLine
 62
7
  6
CONTINUOUS
 10
-14.866447305
 20
-43.0293801868
 11
104.960298899
 21
-43.0293801868
  0
LINE
  5
296
100
AcDbEntity
  8
RACCORDO
100
AcDbLine
 62
250
  6
CONTINUOUS
 10
-15.5664206511
 20
-42.3294068407
 11
105.6602722451
 21
-42.3294068407
  0
LWPOLYLINE
  5
297
100
AcDbEntity
  8
0
100
AcDbPolyline
 62
250
  6
CONTINUOUS
 90
31
 70
0
 10
4.4298108062
 20
1.176920452
 10
4.4144707637
 20
1.2946851885
 10
4.3882284212
 20
1.4084963215
 10
4.3510837788
 20
1.5183538507
 10
4.302494824
 20
1.6253385666
 10
4.2430035692
 20
1.7283696788
 10
4.1742360515
 20
1.8242048164
 10
4.0958481142
 20
1.9126156516
 10
4.0081839141
 20
1.9938305123
 10
3.913901959
 20
2.0652920105
 10
3.8128298107
 20
2.1266526363
 10
3.7051399074
 20
2.1782598997
 10
3.5940080711
 20
2.2185989427
 10
3.4793989749
 20
2.2473563001
 10
3.3613479458
 20
2.2648454372
 10
3.2431367868
 20
2.270491891
 10
3.1247326831
 20
2.2640232979
 10
3.0061684495
 20
2.2457120216
 10
2.8908243341
 20
2.2158006903
 10
2.7784298196
 20
2.1736332893
 10
2.6692554232
 20
2.1198658334
 10
2.567492945
 20
2.0567089951
 10
2.4737746475
 20
1.9837745008
 10
2.3874682683
 20
1.9014506242
 10
2.3108688194
 20
1.8131128592
 10
2.2446319491
 20
1.7194070324
 10
2.1881020091
 20
1.6196873171
 10
2.1416070678
 20
1.5153917281
 10
2.1052564811
 20
1.4069996035
 10
2.0789408929
 20
1.2940316052
 10
2.0626603033
 20
1.1764877331
  0
LWPOLYLINE
  5
298
100
AcDbEntity
  8
0
100
AcDbPolyline
 62
250
  6
CONTINUOUS
 90
31
 70
0
 10
2.0640320981
 20
-4.0088772824
 10
2.0793623172
 20
-4.1266486753
 10
2.1055957482
 20
-4.2404666725
 10
2.1427323912
 20
-4.350331274
 10
2.1913141982
 20
-4.4573232449
 10
2.2507992171
 20
-4.5603618201
 10
2.319561592
 20
-4.6562047039
 10
2.3979455591
 20
-4.7446237401
 10
2.4856068822
 20
-4.8258470849
 10
2.579886996
 20
-4.8973169111
 10
2.6809583968
 20
-4.9586856756
 10
2.7886485884
 20
-5.0103009215
 10
2.8997815173
 20
-5.0506474507
 10
3.0143925436
 20
-5.0794117452
 10
3.1324463071
 20
-5.096907323
 10
3.2506606735
 20
-5.10255954
 10
3.3690683821
 20
-5.0960960318
 10
3.4876366936
 20
-5.0777891629
 10
3.6029852559
 20
-5.0478813822
 10
3.7153847395
 20
-5.0057166029
 10
3.8245644739
 20
-4.9519509119
 10
3.9263320958
 20
-4.8887950185
 10
4.0200552644
 20
-4.8158605575
 10
4.1063663205
 20
-4.7335358942
 10
4.1829699234
 20
-4.6451968342
 10
4.2492112733
 20
-4.5514852105
 10
4.30574517
 20
-4.45175919
 10
4.3522406721
 20
-4.3474690797
 10
4.3885874658
 20
-4.2390983152
 10
4.414895865
 20
-4.1261634609
 10
4.4311658696
 20
-4.0086645168
  0
LINE
  5
299
100
AcDbEntity
  8
0
100
AcDbLine
 62
7
  6
CONTINUOUS
 10
4.4580397508
 20
-3.4169312692
 11
4.4703336376
 21
-3.3949992088
  0
LINE
  5
29A
100
AcDbEntity
  8
0
100
AcDbLine
 62
7
  6
CONTINUOUS
 10
2.0428607742
 20
0.5973312386
 11
2.0288001743
 21
0.5723847482
  0
LINE
  5
29B
100
AcDbEntity
  8
0
100
AcDbLine
 62
7
  6
CONTINUOUS
 10
4.4457146167
 20
-3.4386803662
 11
4.4580397508
 21
-3.4169312692
  0
LINE
  5
29C
100
AcDbEntity
  8
0
100
AcDbLine
 62
7
  6
CONTINUOUS
 10
4.4333583642
 20
-3.4602521157
 11
4.4457146167
 21
-3.4386803662
  0
LWPOLYLINE
  5
29D
100
AcDbEntity
  8
0
100
AcDbPolyline
 62
7
  6
CONTINUOUS
 90
3
 70
0
 10
2.0604936058
 20
0.6281852912
 10
2.0569619769
 20
0.6220432389
 10
2.0428607742
 20
0.5973312386
  0
LWPOLYLINE
  5
29E
100
AcDbEntity
  8
0
100
AcDbPolyline
 62
7
  6
CONTINUOUS
 90
10
 70
0
 43
0.3500000006
 10
48.0469239349
 20
54.3339644165
 10
47.4040704803
 20
53.6911109619
 10
46.9754969788
 20
52.8339684906
 10
46.9754969788
 20
51.7625370026
 10
47.4040704803
 20
51.3339680328
 10
48.0469239349
 20
51.3339680328
 10
48.4754974365
 20
51.7625370026
 10
48.4754974365
 20
52.6196794739
 10
48.0469239349
 20
53.0482529755
 10
47.1183548126
 20
53.0482529755
  0
LINE
  5
29F
100
AcDbEntity
  8
ASSI
100
AcDbLine
 62
7
  6
CONTINUOUS
 10
66.362738797
 20
-37.2661267387
 11
67.102765797
 21
-37.2661167387
  0
LINE
  5
2A0
100
AcDbEntity
  8
ASSI
100
AcDbLine
 62
7
  6
CONTINUOUS
 10
72.099745797
 20
-37.2661167387
 11
72.933272797
 21
-37.2661077387
  0
LINE
  5
2A1
100
AcDbEntity
  8
ASSI
100
AcDbLine
 62
7
  6
CONTINUOUS
 10
63.689691797
 20
-37.2661267387
 11
64.429700797
 21
-37.2661167387
  0
LINE
  5
2A2
100
AcDbEntity
  8
ASSI
100
AcDbLine
 62
7
  6
CONTINUOUS
 10
60.769975797
 20
-37.2661357387
 11
61.510002797
 21
-37.2661267387
  0
LINE
  5
2A3
100
AcDbEntity
  8
ASSI
100
AcDbLine
 62
7
  6
CONTINUOUS
 10
58.348574797
 20
-37.2661357387
 11
59.088630797
 21
-37.2661267387
  0
LINE
  5
2A4
100
AcDbEntity
  8
ASSI
100
AcDbLine
 62
7
  6
CONTINUOUS
 10
62.250012797
 20
-37.2661267387
 11
62.990039797
 21
-37.2661267387
  0
LINE
  5
2A5
100
AcDbEntity
  8
ASSI
100
AcDbLine
 62
7
  6
CONTINUOUS
 10
65.129361797
 20
-37.2661267387
 11
65.869389797
 21
-37.2661267387
  0
LINE
  5
2A6
100
AcDbEntity
  8
ASSI
100
AcDbLine
 62
7
  6
CONTINUOUS
 10
69.972143797
 20
-37.2661167387
 11
70.712180797
 21
-37.2661167387
  0
LINE
  5
2A7
100
AcDbEntity
  8
ASSI
100
AcDbLine
 62
7
  6
CONTINUOUS
 10
68.738757797
 20
-37.2661167387
 11
69.478794797
 21
-37.2661267387
  0
LINE
  5
2A8
100
AcDbEntity
  8
ASSI
100
AcDbLine
 62
7
  6
CONTINUOUS
 10
67.336393797
 20
-36.5384567387
 11
68.505139797
 21
-36.5384567387
  0
LINE
  5
2A9
100
AcDbEntity
  8
ASSI
100
AcDbLine
 62
7
  6
CONTINUOUS
 10
68.279402797
 20
-35.8354287387
 11
67.562120797
 21
-35.8354287387
  0
LINE
  5
2AA
100
AcDbEntity
  8
ASSI
100
AcDbLine
 62
7
  6
CONTINUOUS
 10
70.712263797
 20
-35.8354197387
 11
71.358145797
 21
-35.8354287387
  0
LINE
  5
2AB
100
AcDbEntity
  8
0
100
AcDbLine
 62
7
  6
CONTINUOUS
 10
4.4457148444
 20
0.6066124893
 11
4.4333585837
 21
0.6281842572
  0
LINE
  5
2AC
100
AcDbEntity
  8
0
100
AcDbLine
 62
7
  6
CONTINUOUS
 10
2.0463827968
 20
-3.4355991697
 11
2.0604946441
 21
-3.4602545717
  0
LINE
  5
2AD
100
AcDbEntity
  8
0
100
AcDbLine
 62
7
  6
CONTINUOUS
 10
4.4580399054
 20
0.5848635177
 11
4.4457148444
 21
0.6066124893
  0
LWPOLYLINE
  5
2AE
100
AcDbEntity
  8
0
100
AcDbPolyline
 62
7
  6
CONTINUOUS
 90
3
 70
0
 10
2.0288001743
 20
-3.4044522255
 10
2.0323116042
 20
-3.4107112339
 10
2.0463827968
 20
-3.4355991697
  0
LINE
  5
2AF
100
AcDbEntity
  8
0
100
AcDbLine
 62
7
  6
CONTINUOUS
 10
4.4703336376
 20
0.5629317315
 11
4.4580399054
 21
0.5848635177
  0
LINE
  5
2B0
100
AcDbEntity
  8
ASSI
100
AcDbLine
 62
7
  6
CONTINUOUS
 10
71.6023369409
 20
-35.1508917387
 11
70.701977797
 21
-35.1508917387
  0
LINE
  5
2B1
100
AcDbEntity
  8
ASSI
100
AcDbLine
 62
7
  6
CONTINUOUS
 10
70.701968797
 20
-34.2504777387
 11
71.6023194157
 21
-34.2504777387
  0
LINE
  5
2B2
100
AcDbEntity
  8
ASSI
100
AcDbLine
 62
7
  6
CONTINUOUS
 10
65.869389797
 20
-33.5659597387
 11
64.750666797
 21
-33.5659597387
  0
LINE
  5
2B3
100
AcDbEntity
  8
ASSI
100
AcDbLine
 62
7
  6
CONTINUOUS
 10
63.368734797
 20
-33.5659597387
 11
62.250012797
 21
-33.5659597387
  0
LINE
  5
2B4
100
AcDbEntity
  8
ASSI
100
AcDbLine
 62
7
  6
CONTINUOUS
 10
61.510012797
 20
-33.5659597387
 11
60.769984797
 21
-33.5659597387
  0
LINE
  5
2B5
100
AcDbEntity
  8
ASSI
100
AcDbLine
 62
7
  6
CONTINUOUS
 10
60.276635797
 20
-33.5659597387
 11
59.536598797
 21
-33.5659597387
  0
LINE
  5
2B6
100
AcDbEntity
  8
ASSI
100
AcDbLine
 62
7
  6
CONTINUOUS
 10
57.900615797
 20
-33.5659597387
 11
57.160578797
 21
-33.5659597387
  0
LINE
  5
2B7
100
AcDbEntity
  8
ASSI
100
AcDbLine
 62
7
  6
CONTINUOUS
 10
71.7050580734
 20
-33.5659507387
 11
69.972143797
 21
-33.5659507387
  0
LINE
  5
2B8
100
AcDbEntity
  8
ASSI
100
AcDbLine
 62
7
  6
CONTINUOUS
 10
68.290789797
 20
-33.5659507387
 11
67.550724797
 21
-33.5659507387
  0
LINE
  5
2B9
100
AcDbEntity
  8
DRAFT
100
AcDbLine
 62
250
  6
CONTINUOUS
 10
93.546925797
 20
-31.4160337387
 11
93.4168954669
 21
-31.4160337387
  0
LINE
  5
2BA
100
AcDbEntity
  8
DRAFT
100
AcDbLine
 62
250
  6
CONTINUOUS
 10
-3.453074203
 20
-31.4160337387
 11
-3.3230438729
 21
-31.4160337387
  0
LINE
  5
2BB
100
AcDbEntity
  8
DRAFT
100
AcDbLine
 62
250
  6
CONTINUOUS
 10
-8.453074203
 20
-31.4160337387
 11
-8.5831045331
 21
-31.4160337387
  0
LINE
  5
2BC
100
AcDbEntity
  8
DRAFT
100
AcDbLine
 62
250
  6
CONTINUOUS
 10
98.546925797
 20
-31.4160337387
 11
98.6769561271
 21
-31.4160337387
  0
LINE
  5
2BD
100
AcDbEntity
  8
DRAFT
100
AcDbLine
 62
250
  6
CONTINUOUS
 10
100.546925797
 20
-30.9160337387
 11
100.0232738492
 21
-30.9160337387
  0
LINE
  5
2BE
100
AcDbEntity
  8
DRAFT
100
AcDbLine
 62
250
  6
CONTINUOUS
 10
-10.453074203
 20
-30.9160337387
 11
-9.9294222552
 21
-30.9160337387
  0
LINE
  5
2BF
100
AcDbEntity
  8
DRAFT
100
AcDbLine
 62
250
  6
CONTINUOUS
 10
-1.453074203
 20
-30.9160337387
 11
-1.9767261508
 21
-30.9160337387
  0
LINE
  5
2C0
100
AcDbEntity
  8
DRAFT
100
AcDbLine
 62
250
  6
CONTINUOUS
 10
91.546925797
 20
-30.9160337387
 11
92.0705777448
 21
-30.9160337387
  0
LINE
  5
2C1
100
AcDbEntity
  8
0
100
AcDbLine
 62
7
  6
CONTINUOUS
 10
2.0341944749
 20
-5.0787650608
 11
2.0333217881
 21
-5.0796377475
  0
LINE
  5
2C2
100
AcDbEntity
  8
0
100
AcDbLine
 62
250
  6
CONTINUOUS
 10
-2.4897298393
 20
-10.4528416799
 11
-2.453074203
 21
-10.4161860435
  0
LINE
  5
2C3
100
AcDbEntity
  8
0
100
AcDbLine
 62
250
  6
CONTINUOUS
 10
-1.4898821442
 20
-11.452689375
 11
-1.4532265078
 21
-11.4160337387
  0
LINE
  5
2C4
100
AcDbEntity
  8
0
100
AcDbLine
 62
7
  6
CONTINUOUS
 10
4.4657659265
 20
2.0444310617
 11
4.4596571191
 21
2.0401033359
  0
LINE
  5
2C5
100
AcDbEntity
  8
DRAFT
100
AcDbLine
 62
7
  6
CONTINUOUS
 10
5.054155371
 20
-29.8985800031
 11
85.039696223
 21
-29.8985800031
  0
LINE
  5
2C6
100
AcDbEntity
  8
DRAFT
100
AcDbLine
 62
250
  6
CONTINUOUS
 10
100.546925797
 20
-27.9160337387
 11
100.0232738492
 21
-27.9160337387
  0
LINE
  5
2C7
100
AcDbEntity
  8
DRAFT
100
AcDbLine
 62
250
  6
CONTINUOUS
 10
-10.453074203
 20
-27.9160337387
 11
-9.9294222552
 21
-27.9160337387
  0
LINE
  5
2C8
100
AcDbEntity
  8
DRAFT
100
AcDbLine
 62
250
  6
CONTINUOUS
 10
-1.453074203
 20
-27.9160337387
 11
-1.9767261508
 21
-27.9160337387
  0
LINE
  5
2C9
100
AcDbEntity
  8
DRAFT
100
AcDbLine
 62
250
  6
CONTINUOUS
 10
91.546925797
 20
-27.9160337387
 11
92.0705777448
 21
-27.9160337387
  0
LINE
  5
2CA
100
AcDbEntity
  8
DRAFT
100
AcDbLine
 62
250
  6
CONTINUOUS
 10
93.546925797
 20
-27.4160337387
 11
93.4168954669
 21
-27.4160337387
  0
LINE
  5
2CB
100
AcDbEntity
  8
DRAFT
100
AcDbLine
 62
250
  6
CONTINUOUS
 10
-3.453074203
 20
-27.4160337387
 11
-3.3230438729
 21
-27.4160337387
  0
LINE
  5
2CC
100
AcDbEntity
  8
DRAFT
100
AcDbLine
 62
250
  6
CONTINUOUS
 10
-8.453074203
 20
-27.4160337387
 11
-8.5831045331
 21
-27.4160337387
  0
LINE
  5
2CD
100
AcDbEntity
  8
DRAFT
100
AcDbLine
 62
250
  6
CONTINUOUS
 10
98.546925797
 20
-27.4160337387
 11
98.6769561271
 21
-27.4160337387
  0
LINE
  5
2CE
100
AcDbEntity
  8
0
100
AcDbLine
 62
7
  6
CONTINUOUS
 10
4.4657659265
 20
-4.8764985391
 11
4.4596571191
 21
-4.8721708132
  0
LINE
  5
2CF
100
AcDbEntity
  8
0
100
AcDbLine
 62
7
  6
CONTINUOUS
 10
2.0341944749
 20
2.2466975834
 11
2.0333217881
 21
2.2475702702
  0
LINE
  5
2D0
100
AcDbEntity
  8
0
100
AcDbLine
 62
250
  6
CONTINUOUS
 10
-2.4897298393
 20
7.6207742025
 11
-2.453074203
 21
7.5841185662
  0
LINE
  5
2D1
100
AcDbEntity
  8
0
100
AcDbLine
 62
250
  6
CONTINUOUS
 10
-1.4898821442
 20
8.6206218977
 11
-1.4532265078
 21
8.5839662613
  0
LWPOLYLINE
  5
2D2
100
AcDbEntity
  8
0
100
AcDbPolyline
 62
7
  6
CONTINUOUS
 90
3
 70
0
 43
0.3500000006
 10
45.9754966736
 20
51.6196791687
 10
45.9040700226
 20
51.4053946838
 10
45.7612121887
 20
51.1196790161
  0
LINE
  5
2D3
100
AcDbEntity
  8
0
100
AcDbLine
 62
7
  6
CONTINUOUS
 10
4.4596571191
 20
2.2934005597
 11
4.4334384381
 21
2.2825123143
  0
LINE
  5
2D4
100
AcDbEntity
  8
0
100
AcDbLine
 62
7
  6
CONTINUOUS
 10
4.4596571191
 20
-5.125468037
 11
4.4334384381
 21
-5.1145797916
  0
LINE
  5
2D5
100
AcDbEntity
  8
RACCORDO
100
AcDbLine
 62
250
  6
CONTINUOUS
 10
-15.5664206511
 20
-42.3294068407
 11
-15.953074203
 21
-42.7160603925
  0
LINE
  5
2D6
100
AcDbEntity
  8
RACCORDO
100
AcDbLine
 62
250
  6
CONTINUOUS
 10
-14.866447305
 20
-43.0293801868
 11
-15.2531008569
 21
-43.4160337387
  0
LINE
  5
2D7
100
AcDbEntity
  8
0
100
AcDbLine
 62
7
  6
CONTINUOUS
 10
2.0604131559
 20
-5.1145797916
 11
2.0341944749
 21
-5.125468037
  0
LINE
  5
2D8
100
AcDbEntity
  8
0
100
AcDbLine
 62
7
  6
CONTINUOUS
 10
-1.4898821442
 20
-11.452689375
 11
0.0643795326
 21
-11.452689375
  0
LINE
  5
2D9
100
AcDbEntity
  8
0
100
AcDbLine
 62
7
  6
CONTINUOUS
 10
90.0294720614
 20
-11.452689375
 11
91.5837337382
 21
-11.452689375
  0
LINE
  5
2DA
100
AcDbEntity
  8
0
100
AcDbLine
 62
7
  6
CONTINUOUS
 10
-1.4532265078
 20
-11.4160337387
 11
0.0460531102
 21
-11.4160337387
  0
LINE
  5
2DB
100
AcDbEntity
  8
0
100
AcDbLine
 62
7
  6
CONTINUOUS
 10
90.0477984838
 20
-11.4160337387
 11
91.5470781018
 21
-11.4160337387
  0
LINE
  5
2DC
100
AcDbEntity
  8
0
100
AcDbLine
 62
7
  6
CONTINUOUS
 10
2.0341944749
 20
2.2934005597
 11
2.0604131559
 21
2.2825123143
  0
LINE
  5
2DD
100
AcDbEntity
  8
RACCORDO
100
AcDbLine
 62
250
  6
CONTINUOUS
 10
-15.5664206511
 20
39.4973393633
 11
-15.953074203
 21
39.8839929152
  0
LINE
  5
2DE
100
AcDbEntity
  8
RACCORDO
100
AcDbLine
 62
250
  6
CONTINUOUS
 10
-14.866447305
 20
40.1973127095
 11
-15.2531008569
 21
40.5839662613
  0
LWPOLYLINE
  5
2DF
100
AcDbEntity
  8
0
100
AcDbPolyline
 62
7
  6
CONTINUOUS
 90
4
 70
0
 43
0.3500000006
 10
40.7612106628
 20
51.7625370026
 10
40.7612106628
 20
52.6196794739
 10
41.1897841644
 20
53.0482529755
 10
41.8326421509
 20
53.0482529755
  0
LWPOLYLINE
  5
2E0
100
AcDbEntity
  8
0
100
AcDbPolyline
 62
7
  6
CONTINUOUS
 90
4
 70
0
 43
0.3500000006
 10
45.0469275513
 20
59.7625349121
 10
45.0469275513
 20
60.6196819153
 10
45.475496521
 20
61.048250885
 10
46.1183545074
 20
61.048250885
  0
LINE
  5
2E1
100
AcDbEntity
  8
0
100
AcDbLine
 62
7
  6
CONTINUOUS
 10
0.0460531102
 20
-5.1660337387
 11
2.0604131559
 21
-5.1660337387
  0
LINE
  5
2E2
100
AcDbEntity
  8
0
100
AcDbLine
 62
7
  6
CONTINUOUS
 10
88.0334384381
 20
-5.1660337387
 11
90.0477984838
 21
-5.1660337387
  0
LINE
  5
2E3
100
AcDbEntity
  8
0
100
AcDbLine
 62
7
  6
CONTINUOUS
 10
0.0460531102
 20
-5.0796377475
 11
2.0333217881
 21
-5.0796377475
  0
LINE
  5
2E4
100
AcDbEntity
  8
0
100
AcDbLine
 62
7
  6
CONTINUOUS
 10
88.0605298059
 20
-5.0796377475
 11
90.0477984838
 21
-5.0796377475
  0
LWPOLYLINE
  5
2E5
100
AcDbEntity
  8
0
100
AcDbPolyline
 62
7
  6
CONTINUOUS
 90
4
 70
0
 43
0.3500000006
 10
122.8683507385
 20
-3.7731762657
 10
122.0112127991
 20
-3.7731762657
 10
121.5826438293
 20
-3.3446050301
 10
121.5826438293
 20
-2.7017481766
  0
LWPOLYLINE
  5
2E6
100
AcDbEntity
  8
0
100
AcDbPolyline
 62
7
  6
CONTINUOUS
 90
2
 70
0
 43
0.3500000006
 10
123.296928772
 20
-0.4160341644
 10
121.7969283142
 20
-0.4160341644
  0
LINE
  5
2E7
100
AcDbEntity
  8
0
100
AcDbLine
 62
7
  6
CONTINUOUS
 10
90.0477984838
 20
2.2475702702
 11
88.0605298059
 21
2.2475702702
  0
LINE
  5
2E8
100
AcDbEntity
  8
0
100
AcDbLine
 62
7
  6
CONTINUOUS
 10
2.0333217881
 20
2.2475702702
 11
0.0460531102
 21
2.2475702702
  0
LINE
  5
2E9
100
AcDbEntity
  8
0
100
AcDbLine
 62
7
  6
CONTINUOUS
 10
90.0477984838
 20
2.3339662613
 11
88.0596571191
 21
2.3339662613
  0
LINE
  5
2EA
100
AcDbEntity
  8
0
100
AcDbLine
 62
7
  6
CONTINUOUS
 10
2.0604131559
 20
2.3339662613
 11
0.0460531102
 21
2.3339662613
  0
LINE
  5
2EB
100
AcDbEntity
  8
ASSI
100
AcDbLine
 62
7
  6
CONTINUOUS
 10
57.160578797
 20
-33.5659597387
 11
58.348574797
 21
-37.2661357387
  0
LINE
  5
2EC
100
AcDbEntity
  8
ASSI
100
AcDbLine
 62
7
  6
CONTINUOUS
 10
58.718611797
 20
-36.1137247387
 11
57.900615797
 21
-33.5659597387
  0
LINE
  5
2ED
100
AcDbEntity
  8
0
100
AcDbLine
 62
7
  6
CONTINUOUS
 10
91.5470781018
 20
8.5839662613
 11
90.0477984838
 21
8.5839662613
  0
LINE
  5
2EE
100
AcDbEntity
  8
0
100
AcDbLine
 62
7
  6
CONTINUOUS
 10
0.0460531102
 20
8.5839662613
 11
-1.4532265078
 21
8.5839662613
  0
LINE
  5
2EF
100
AcDbEntity
  8
0
100
AcDbLine
 62
7
  6
CONTINUOUS
 10
91.5837337382
 20
8.6206218977
 11
90.0294720614
 21
8.6206218977
  0
LINE
  5
2F0
100
AcDbEntity
  8
0
100
AcDbLine
 62
7
  6
CONTINUOUS
 10
0.0643795326
 20
8.6206218977
 11
-1.4898821442
 21
8.6206218977
  0
LINE
  5
2F1
100
AcDbEntity
  8
ASSI
100
AcDbLine
 62
7
  6
CONTINUOUS
 10
71.358145797
 20
-35.8354287387
 11
72.099745797
 21
-37.2661167387
  0
LINE
  5
2F2
100
AcDbEntity
  8
ASSI
100
AcDbLine
 62
7
  6
CONTINUOUS
 10
72.933272797
 20
-37.2661077387
 11
72.1455504084
 21
-35.7464320599
  0
LINE
  5
2F3
100
AcDbEntity
  8
ASSI
100
AcDbLine
 62
7
  6
CONTINUOUS
 10
62.990039797
 20
-34.8261147387
 11
63.689691797
 21
-37.2661267387
  0
LINE
  5
2F4
100
AcDbEntity
  8
ASSI
100
AcDbLine
 62
7
  6
CONTINUOUS
 10
64.059700797
 20
-35.9756407387
 11
63.368734797
 21
-33.5659597387
  0
LINE
  5
2F5
100
AcDbEntity
  8
RACCORDO
100
AcDbLine
 62
250
  6
CONTINUOUS
 10
104.960298899
 20
40.1973127095
 11
105.3469524509
 21
40.5839662613
  0
LINE
  5
2F6
100
AcDbEntity
  8
RACCORDO
100
AcDbLine
 62
250
  6
CONTINUOUS
 10
105.6602722451
 20
39.4973393633
 11
106.046925797
 21
39.8839929152
  0
LINE
  5
2F7
100
AcDbEntity
  8
0
100
AcDbLine
 62
7
  6
CONTINUOUS
 10
88.0596571191
 20
-5.125468037
 11
88.0334384381
 21
-5.1145797916
  0
LINE
  5
2F8
100
AcDbEntity
  8
RACCORDO
100
AcDbLine
 62
250
  6
CONTINUOUS
 10
104.960298899
 20
-43.0293801868
 11
105.3469524509
 21
-43.4160337387
  0
LINE
  5
2F9
100
AcDbEntity
  8
RACCORDO
100
AcDbLine
 62
250
  6
CONTINUOUS
 10
105.6602722451
 20
-42.3294068407
 11
106.046925797
 21
-42.7160603925
  0
LINE
  5
2FA
100
AcDbEntity
  8
ASSI
100
AcDbLine
 62
7
  6
CONTINUOUS
 10
67.920752797
 20
-34.7183617387
 11
68.279402797
 21
-35.8354287387
  0
LINE
  5
2FB
100
AcDbEntity
  8
ASSI
100
AcDbLine
 62
7
  6
CONTINUOUS
 10
68.505139797
 20
-36.5384567387
 11
68.738757797
 21
-37.2661167387
  0
LINE
  5
2FC
100
AcDbEntity
  8
ASSI
100
AcDbLine
 62
7
  6
CONTINUOUS
 10
69.478794797
 20
-37.2661267387
 11
68.290789797
 21
-33.5659507387
  0
LINE
  5
2FD
100
AcDbEntity
  8
ASSI
100
AcDbLine
 62
7
  6
CONTINUOUS
 10
60.769984797
 20
-33.5659597387
 11
60.769975797
 21
-37.2661357387
  0
LINE
  5
2FE
100
AcDbEntity
  8
ASSI
100
AcDbLine
 62
7
  6
CONTINUOUS
 10
61.510002797
 20
-37.2661267387
 11
61.510012797
 21
-33.5659597387
  0
LINE
  5
2FF
100
AcDbEntity
  8
ASSI
100
AcDbLine
 62
7
  6
CONTINUOUS
 10
62.250012797
 20
-33.5659597387
 11
62.250012797
 21
-37.2661267387
  0
LINE
  5
300
100
AcDbEntity
  8
ASSI
100
AcDbLine
 62
7
  6
CONTINUOUS
 10
62.990039797
 20
-37.2661267387
 11
62.990039797
 21
-34.8261147387
  0
LINE
  5
301
100
AcDbEntity
  8
ASSI
100
AcDbLine
 62
7
  6
CONTINUOUS
 10
65.129352797
 20
-34.8261147387
 11
65.129361797
 21
-37.2661267387
  0
LINE
  5
302
100
AcDbEntity
  8
0
100
AcDbLine
 62
7
  6
CONTINUOUS
 10
85.6341944749
 20
-5.125468037
 11
85.6604131559
 21
-5.1145797916
  0
LINE
  5
303
100
AcDbEntity
  8
ASSI
100
AcDbLine
 62
7
  6
CONTINUOUS
 10
65.869389797
 20
-37.2661267387
 11
65.869389797
 21
-33.5659597387
  0
LINE
  5
304
100
AcDbEntity
  8
ASSI
100
AcDbLine
 62
7
  6
CONTINUOUS
 10
69.972143797
 20
-33.5659507387
 11
69.972143797
 21
-37.2661167387
  0
LINE
  5
305
100
AcDbEntity
  8
ASSI
100
AcDbLine
 62
7
  6
CONTINUOUS
 10
59.536598797
 20
-33.5659597387
 11
58.718611797
 21
-36.1137247387
  0
LINE
  5
306
100
AcDbEntity
  8
ASSI
100
AcDbLine
 62
7
  6
CONTINUOUS
 10
59.088630797
 20
-37.2661267387
 11
60.276635797
 21
-33.5659597387
  0
LINE
  5
307
100
AcDbEntity
  8
DRAFT
100
AcDbLine
 62
7
  6
CONTINUOUS
 10
-5.453074203
 20
22.0839662613
 11
-2.453074203
 21
22.0839662613
  0
LINE
  5
308
100
AcDbEntity
  8
DRAFT
100
AcDbLine
 62
7
  6
CONTINUOUS
 10
92.546925797
 20
22.0839662613
 11
95.546925797
 21
22.0839662613
  0
LINE
  5
309
100
AcDbEntity
  8
DRAFT
100
AcDbLine
 62
7
  6
CONTINUOUS
 10
-5.453074203
 20
22.6076182092
 11
-2.453074203
 21
22.6076182092
  0
LINE
  5
30A
100
AcDbEntity
  8
DRAFT
100
AcDbLine
 62
7
  6
CONTINUOUS
 10
92.546925797
 20
22.6076182092
 11
95.546925797
 21
22.6076182092
  0
LWPOLYLINE
  5
30B
100
AcDbEntity
  8
0
100
AcDbPolyline
 62
7
  6
CONTINUOUS
 90
10
 70
0
 43
0.3500000006
 10
45.9040700226
 20
51.8339681854
 10
45.9754966736
 20
51.6911103516
 10
45.9754966736
 20
51.6196791687
 10
45.8326388397
 20
51.4768213348
 10
45.7612121887
 20
51.4768213348
 10
45.6897810059
 20
51.5482525177
 10
45.6897810059
 20
51.6196791687
 10
45.7612121887
 20
51.7625370026
 10
45.8326388397
 20
51.8339681854
 10
45.9040700226
 20
51.8339681854
  0
LINE
  5
30C
100
AcDbEntity
  8
ASSI
100
AcDbLine
 62
7
  6
CONTINUOUS
 10
70.701977797
 20
-35.1508917387
 11
70.701968797
 21
-34.2504777387
  0
LINE
  5
30D
100
AcDbEntity
  8
ASSI
100
AcDbLine
 62
7
  6
CONTINUOUS
 10
70.712180797
 20
-37.2661167387
 11
70.712263797
 21
-35.8354197387
  0
LINE
  5
30E
100
AcDbEntity
  8
ASSI
100
AcDbLine
 62
7
  6
CONTINUOUS
 10
64.750666797
 20
-33.5659597387
 11
64.059700797
 21
-35.9756407387
  0
LINE
  5
30F
100
AcDbEntity
  8
ASSI
100
AcDbLine
 62
7
  6
CONTINUOUS
 10
64.429700797
 20
-37.2661167387
 11
65.129352797
 21
-34.8261147387
  0
LINE
  5
310
100
AcDbEntity
  8
0
100
AcDbLine
 62
250
  6
CONTINUOUS
 10
91.5837337382
 20
8.6206218977
 11
91.5470781018
 21
8.5839662613
  0
LINE
  5
311
100
AcDbEntity
  8
0
100
AcDbLine
 62
250
  6
CONTINUOUS
 10
92.5835814334
 20
7.6207742025
 11
92.546925797
 21
7.5841185662
  0
LINE
  5
312
100
AcDbEntity
  8
0
100
AcDbLine
 62
7
  6
CONTINUOUS
 10
88.0596571191
 20
2.2466975834
 11
88.0605298059
 21
2.2475702702
  0
LINE
  5
313
100
AcDbEntity
  8
0
100
AcDbLine
 62
7
  6
CONTINUOUS
 10
85.6280856675
 20
-4.8764985391
 11
85.6341944749
 21
-4.8721708132
  0
LINE
  5
314
100
AcDbEntity
  8
DRAFT
100
AcDbLine
 62
7
  6
CONTINUOUS
 10
96.046925797
 20
23.9539359313
 11
92.046925797
 21
23.9539359313
  0
LINE
  5
315
100
AcDbEntity
  8
DRAFT
100
AcDbLine
 62
7
  6
CONTINUOUS
 10
-1.953074203
 20
23.9539359313
 11
-5.953074203
 21
23.9539359313
  0
LINE
  5
316
100
AcDbEntity
  8
DRAFT
100
AcDbLine
 62
7
  6
CONTINUOUS
 10
96.046925797
 20
24.0839662613
 11
92.046925797
 21
24.0839662613
  0
LINE
  5
317
100
AcDbEntity
  8
DRAFT
100
AcDbLine
 62
7
  6
CONTINUOUS
 10
-1.953074203
 20
24.0839662613
 11
-5.953074203
 21
24.0839662613
  0
LINE
  5
318
100
AcDbEntity
  8
DRAFT
100
AcDbLine
 62
7
  6
CONTINUOUS
 10
85.039696223
 20
27.0665125258
 11
5.054155371
 21
27.0665125258
  0
LINE
  5
319
100
AcDbEntity
  8
0
100
AcDbLine
 62
7
  6
CONTINUOUS
 10
85.6280856675
 20
2.0444310617
 11
85.6341944749
 21
2.0401033359
  0
LINE
  5
31A
100
AcDbEntity
  8
0
100
AcDbLine
 62
250
  6
CONTINUOUS
 10
91.5837337382
 20
-11.452689375
 11
91.5470781018
 21
-11.4160337387
  0
LINE
  5
31B
100
AcDbEntity
  8
0
100
AcDbLine
 62
250
  6
CONTINUOUS
 10
92.5835814334
 20
-10.4528416799
 11
92.546925797
 21
-10.4161860435
  0
LINE
  5
31C
100
AcDbEntity
  8
0
100
AcDbLine
 62
7
  6
CONTINUOUS
 10
88.0596571191
 20
-5.0787650608
 11
88.0605298059
 21
-5.0796377475
  0
LINE
  5
31D
100
AcDbEntity
  8
ASSI
100
AcDbLine
 62
7
  6
CONTINUOUS
 10
67.550724797
 20
-33.5659507387
 11
66.362738797
 21
-37.2661267387
  0
LINE
  5
31E
100
AcDbEntity
  8
ASSI
100
AcDbLine
 62
7
  6
CONTINUOUS
 10
67.562120797
 20
-35.8354287387
 11
67.920752797
 21
-34.7183617387
  0
LINE
  5
31F
100
AcDbEntity
  8
ASSI
100
AcDbLine
 62
7
  6
CONTINUOUS
 10
67.102765797
 20
-37.2661167387
 11
67.336393797
 21
-36.5384567387
  0
LINE
  5
320
100
AcDbEntity
  8
0
100
AcDbLine
 62
7
  6
CONTINUOUS
 10
85.6358118353
 20
0.5848637779
 11
85.6235179564
 21
0.5629317315
  0
LINE
  5
321
100
AcDbEntity
  8
0
100
AcDbLine
 62
7
  6
CONTINUOUS
 10
85.6481369615
 20
0.6066128612
 11
85.6358118353
 21
0.5848637779
  0
LINE
  5
322
100
AcDbEntity
  8
0
100
AcDbLine
 62
7
  6
CONTINUOUS
 10
85.660493206
 20
0.6281845971
 11
85.6481369615
 21
0.6066128612
  0
LINE
  5
323
100
AcDbEntity
  8
DRAFT
100
AcDbLine
 62
7
  6
CONTINUOUS
 10
-5.953074203
 20
29.0839662613
 11
-1.953074203
 21
29.0839662613
  0
LINE
  5
324
100
AcDbEntity
  8
DRAFT
100
AcDbLine
 62
7
  6
CONTINUOUS
 10
92.046925797
 20
29.0839662613
 11
96.046925797
 21
29.0839662613
  0
LINE
  5
325
100
AcDbEntity
  8
DRAFT
100
AcDbLine
 62
7
  6
CONTINUOUS
 10
-5.953074203
 20
29.2139965914
 11
-1.953074203
 21
29.2139965914
  0
LINE
  5
326
100
AcDbEntity
  8
DRAFT
100
AcDbLine
 62
7
  6
CONTINUOUS
 10
92.046925797
 20
29.2139965914
 11
96.046925797
 21
29.2139965914
  0
LINE
  5
327
100
AcDbEntity
  8
DRAFT
100
AcDbLine
 62
7
  6
CONTINUOUS
 10
95.546925797
 20
30.5603143135
 11
92.546925797
 21
30.5603143135
  0
LINE
  5
328
100
AcDbEntity
  8
DRAFT
100
AcDbLine
 62
7
  6
CONTINUOUS
 10
-2.453074203
 20
30.5603143135
 11
-5.453074203
 21
30.5603143135
  0
LINE
  5
329
100
AcDbEntity
  8
DRAFT
100
AcDbLine
 62
7
  6
CONTINUOUS
 10
95.546925797
 20
31.0839662613
 11
92.546925797
 21
31.0839662613
  0
LINE
  5
32A
100
AcDbEntity
  8
DRAFT
100
AcDbLine
 62
7
  6
CONTINUOUS
 10
-2.453074203
 20
31.0839662613
 11
-5.453074203
 21
31.0839662613
  0
LINE
  5
32B
100
AcDbEntity
  8
0
100
AcDbLine
 62
7
  6
CONTINUOUS
 10
85.6481367737
 20
-3.4386800089
 11
85.6604930465
 21
-3.4602517974
  0
LINE
  5
32C
100
AcDbEntity
  8
0
100
AcDbLine
 62
7
  6
CONTINUOUS
 10
85.6358117006
 20
-3.4169310163
 11
85.6481367737
 21
-3.4386800089
  0
LINE
  5
32D
100
AcDbEntity
  8
0
100
AcDbLine
 62
7
  6
CONTINUOUS
 10
85.6235179564
 20
-3.3949992088
 11
85.6358117006
 21
-3.4169310163
  0
LINE
  5
32E
100
AcDbEntity
  8
0
100
AcDbLine
 62
7
  6
CONTINUOUS
 10
88.0509908184
 20
-3.4293987183
 11
88.0650514197
 21
-3.4044522255
  0
LWPOLYLINE
  5
32F
100
AcDbEntity
  8
0
100
AcDbPolyline
 62
7
  6
CONTINUOUS
 90
3
 70
0
 10
88.0333579851
 20
-3.460252774
 10
88.0368896143
 20
-3.454110721
 10
88.0509908184
 20
-3.4293987183
  0
LINE
  5
330
100
AcDbEntity
  8
0
100
AcDbLine
 62
7
  6
CONTINUOUS
 10
88.0474687064
 20
0.603531852
 11
88.0333567861
 21
0.628187379
  0
LWPOLYLINE
  5
331
100
AcDbEntity
  8
0
100
AcDbPolyline
 62
7
  6
CONTINUOUS
 90
3
 70
0
 10
88.0650514197
 20
0.5723847482
 10
88.0615399717
 20
0.5786437888
 10
88.0474687064
 20
0.603531852
  0
LWPOLYLINE
  5
332
100
AcDbEntity
  8
0
100
AcDbPolyline
 62
250
  6
CONTINUOUS
 90
31
 70
0
 10
85.6640402795
 20
-4.0089814602
 10
85.6793797471
 20
-4.1267465844
 10
85.7056215682
 20
-4.2405581175
 10
85.7427657426
 20
-4.3504160596
 10
85.7913542792
 20
-4.4574011996
 10
85.8508451692
 20
-4.5604327486
 10
85.919612386
 20
-4.6562683395
 10
85.998000091
 20
-4.7446796545
 10
86.0856641229
 20
-4.8258950115
 10
86.1799459703
 20
-4.897356997
 10
86.2810180749
 20
-4.9587180989
 10
86.3887079951
 20
-5.0103258293
 10
86.4998398953
 20
-5.0506653103
 10
86.6144491044
 20
-5.0794230736
 10
86.7325002935
 20
-5.0969125875
 10
86.8507116401
 20
-5.1025593785
 10
86.9691159548
 20
-5.0960910828
 10
87.0876804269
 20
-5.0777800644
 10
87.2030248025
 20
-5.0478689408
 10
87.3154196078
 20
-5.0057016932
 10
87.4245943164
 20
-4.9519343405
 10
87.5263570956
 20
-4.8887775575
 10
87.620075678
 20
-4.8158430651
 10
87.7063823309
 20
-4.7335191425
 10
87.7829820228
 20
-4.6451813017
 10
87.8492190736
 20
-4.5514754859
 10
87.9057491634
 20
-4.451755752
 10
87.9522443007
 20
-4.3474597831
 10
87.988595155
 20
-4.2390668069
 10
88.0149110568
 20
-4.1260975958
 10
88.0311920061
 20
-4.0085521497
  0
LWPOLYLINE
  5
333
100
AcDbEntity
  8
0
100
AcDbPolyline
 62
7
  6
CONTINUOUS
 90
4
 70
0
 10
85.6618305168
 20
2.4005091711
 10
85.6613634352
 20
2.4212582976
 10
85.6608782891
 20
2.4335939684
 10
85.6603750783
 20
2.4375161835
  0
LWPOLYLINE
  5
334
100
AcDbEntity
  8
0
100
AcDbPolyline
 62
7
  6
CONTINUOUS
 90
4
 70
0
 10
88.032009349
 20
-5.0747471432
 10
88.0324666375
 20
-5.0965686309
 10
88.0329430005
 20
-5.1098461804
 10
88.0334384381
 20
-5.1145797916
  0
LINE
  5
335
100
AcDbEntity
  8
0
100
AcDbLine
 62
7
  6
CONTINUOUS
 10
85.6627241323
 20
2.3329561371
 11
85.6618305168
 21
2.4005091711
  0
LINE
  5
336
100
AcDbEntity
  8
0
100
AcDbLine
 62
7
  6
CONTINUOUS
 10
88.0311390929
 20
-5.004555811
 11
88.032009349
 21
-5.0747471432
  0
LINE
  5
337
100
AcDbEntity
  8
0
100
AcDbLine
 62
7
  6
CONTINUOUS
 10
85.6647385122
 20
-4.0092998498
 11
85.6604930465
 21
-3.4602517974
  0
LINE
  5
338
100
AcDbEntity
  8
0
100
AcDbLine
 62
7
  6
CONTINUOUS
 10
88.0291130818
 20
1.177116565
 11
88.0333567861
 21
0.628187379
  0
LINE
  5
339
100
AcDbEntity
  8
0
100
AcDbLine
 62
7
  6
CONTINUOUS
 10
85.6235179564
 20
-3.3949992088
 11
85.6280856675
 21
-3.9922574748
  0
LINE
  5
33A
100
AcDbEntity
  8
0
100
AcDbLine
 62
7
  6
CONTINUOUS
 10
88.0650514197
 20
0.5723847482
 11
88.0605298059
 21
1.1626607585
  0
LINE
  5
33B
100
AcDbEntity
  8
0
100
AcDbLine
 62
7
  6
CONTINUOUS
 10
85.6637982617
 20
2.1753967683
 11
85.6627241323
 21
2.3329561371
  0
LINE
  5
33C
100
AcDbEntity
  8
0
100
AcDbLine
 62
7
  6
CONTINUOUS
 10
88.0301016592
 20
-4.8428281905
 11
88.0311390929
 21
-5.004555811
  0
LINE
  5
33D
100
AcDbEntity
  8
0
100
AcDbLine
 62
7
  6
CONTINUOUS
 10
85.6280856675
 20
-4.8764985391
 11
85.6280856675
 21
-3.9922574748
  0
LINE
  5
33E
100
AcDbEntity
  8
0
100
AcDbLine
 62
7
  6
CONTINUOUS
 10
85.6280856675
 20
1.1601899975
 11
85.6280856675
 21
2.0444310617
  0
LINE
  5
33F
100
AcDbEntity
  8
0
100
AcDbLine
 62
7
  6
CONTINUOUS
 10
85.6341944749
 20
2.4141101409
 11
85.6341944749
 21
2.0401033359
  0
LINE
  5
340
100
AcDbEntity
  8
0
100
AcDbLine
 62
7
  6
CONTINUOUS
 10
85.6341944749
 20
-4.8721708132
 11
85.6341944749
 21
-5.125468037
  0
LINE
  5
341
100
AcDbEntity
  8
0
100
AcDbLine
 62
7
  6
CONTINUOUS
 10
85.6647385122
 20
1.1772818282
 11
85.6637982617
 21
2.1753967683
  0
LINE
  5
342
100
AcDbEntity
  8
0
100
AcDbLine
 62
7
  6
CONTINUOUS
 10
88.0596571191
 20
2.4141101409
 11
88.0605298059
 21
1.1626607585
  0
LINE
  5
343
100
AcDbEntity
  8
0
100
AcDbLine
 62
7
  6
CONTINUOUS
 10
88.0605298059
 20
-3.9947282358
 11
88.0596571191
 21
-5.125468037
  0
LINE
  5
344
100
AcDbEntity
  8
0
100
AcDbLine
 62
7
  6
CONTINUOUS
 10
90.0294720614
 20
-24.9088041647
 11
90.0294720614
 21
-11.452689375
  0
LINE
  5
345
100
AcDbEntity
  8
0
100
AcDbLine
 62
7
  6
CONTINUOUS
 10
90.0294720614
 20
8.6206218977
 11
90.0294720614
 21
20.9147837908
  0
LINE
  5
346
100
AcDbEntity
  8
0
100
AcDbLine
 62
7
  6
CONTINUOUS
 10
90.0477984838
 20
8.5839662613
 11
90.0477984838
 21
2.2475702702
  0
LINE
  5
347
100
AcDbEntity
  8
0
100
AcDbLine
 62
7
  6
CONTINUOUS
 10
90.0477984838
 20
-5.0796377475
 11
90.0477984838
 21
-11.4160337387
  0
LINE
  5
348
100
AcDbEntity
  8
0
100
AcDbLine
 62
7
  6
CONTINUOUS
 10
88.029112308
 20
-4.0093403127
 11
88.0301016592
 21
-4.8428281905
  0
LINE
  5
349
100
AcDbEntity
  8
0
100
AcDbLine
 62
7
  6
CONTINUOUS
 10
85.6637475191
 20
-4.8434011606
 11
85.6647385122
 21
-4.0092998498
  0
LINE
  5
34A
100
AcDbEntity
  8
0
100
AcDbLine
 62
7
  6
CONTINUOUS
 10
88.0300539453
 20
2.1755382475
 11
88.0291130818
 21
1.177116565
  0
LINE
  5
34B
100
AcDbEntity
  8
0
100
AcDbLine
 62
7
  6
CONTINUOUS
 10
85.6280856675
 20
1.1601899975
 11
85.6235179564
 21
0.5629317315
  0
LINE
  5
34C
100
AcDbEntity
  8
0
100
AcDbLine
 62
7
  6
CONTINUOUS
 10
85.660493206
 20
0.6281845971
 11
85.6647385122
 21
1.1772818282
  0
LINE
  5
34D
100
AcDbEntity
  8
0
100
AcDbLine
 62
7
  6
CONTINUOUS
 10
88.0333579851
 20
-3.460252774
 11
88.029112308
 21
-4.0093403127
  0
LINE
  5
34E
100
AcDbEntity
  8
0
100
AcDbLine
 62
7
  6
CONTINUOUS
 10
88.0605298059
 20
-3.9947282358
 11
88.0650514197
 21
-3.4044522255
  0
LINE
  5
34F
100
AcDbEntity
  8
0
100
AcDbLine
 62
7
  6
CONTINUOUS
 10
85.6627034531
 20
-5.0055248525
 11
85.6637475191
 21
-4.8434011606
  0
LINE
  5
350
100
AcDbEntity
  8
0
100
AcDbLine
 62
7
  6
CONTINUOUS
 10
88.0311282643
 20
2.3330249089
 11
88.0300539453
 21
2.1755382475
  0
LWPOLYLINE
  5
351
100
AcDbEntity
  8
0
100
AcDbPolyline
 62
7
  6
CONTINUOUS
 90
5
 70
0
 10
85.6604131559
 20
-5.1145797916
 10
85.6609037352
 20
-5.1100598531
 10
85.6613766989
 20
-5.0969769531
 10
85.6618320469
 20
-5.0753310915
 10
85.6627034531
 20
-5.0055248525
  0
LWPOLYLINE
  5
352
100
AcDbEntity
  8
0
100
AcDbPolyline
 62
7
  6
CONTINUOUS
 90
5
 70
0
 10
88.0334765157
 20
2.4375161835
 10
88.0329738634
 20
2.4336188135
 10
88.0324890927
 20
2.4213032778
 10
88.0320222036
 20
2.4005695763
 10
88.0311282643
 20
2.3330249089
  0
LINE
  5
353
100
AcDbEntity
  8
0
100
AcDbLine
 62
7
  6
CONTINUOUS
 10
90.0294720614
 20
-11.452689375
 11
90.0477984838
 21
-11.4160337387
  0
LINE
  5
354
100
AcDbEntity
  8
RACCORDO
100
AcDbLine
 62
250
  6
CONTINUOUS
 10
-15.5664206511
 20
39.4973393633
 11
105.6602722451
 21
39.4973393633
  0
LINE
  5
355
100
AcDbEntity
  8
RACCORDO
100
AcDbLine
 62
7
  6
CONTINUOUS
 10
104.960298899
 20
40.1973127095
 11
-14.866447305
 21
40.1973127095
  0
LINE
  5
356
100
AcDbEntity
  8
RACCORDO
100
AcDbLine
 62
7
  6
CONTINUOUS
 10
105.3469524509
 20
40.5839662613
 11
-15.2531008569
 21
40.5839662613
  0
LWPOLYLINE
  5
357
100
AcDbEntity
  8
0
100
AcDbPolyline
 62
7
  6
CONTINUOUS
 90
13
 70
0
 43
0.3500000006
 10
41.1897841644
 20
53.0482529755
 10
40.9040684967
 20
53.2625374603
 10
40.9040684967
 20
53.9053954468
 10
41.1897841644
 20
54.3339644165
 10
41.8326421509
 20
54.3339644165
 10
42.1183532867
 20
53.9053954468
 10
42.1183532867
 20
53.2625374603
 10
41.8326421509
 20
53.0482529755
 10
42.2612111206
 20
52.6196794739
 10
42.2612111206
 20
51.7625370026
 10
41.8326421509
 20
51.3339680328
 10
41.1897841644
 20
51.3339680328
 10
40.7612106628
 20
51.7625370026
  0
LINE
  5
358
100
AcDbEntity
  8
0
100
AcDbLine
 62
7
  6
CONTINUOUS
 10
90.0294720614
 20
8.6206218977
 11
90.0477984838
 21
8.5839662613
  0
LINE
  5
359
100
AcDbEntity
  8
DRAFT
100
AcDbLine
 62
7
  6
CONTINUOUS
 10
91.546925797
 20
-27.9160337387
 11
91.546925797
 21
-30.9160337387
  0
LINE
  5
35A
100
AcDbEntity
  8
DRAFT
100
AcDbLine
 62
250
  6
CONTINUOUS
 10
92.046925797
 20
24.0839662613
 11
92.046925797
 21
23.9539359313
  0
LINE
  5
35B
100
AcDbEntity
  8
DRAFT
100
AcDbLine
 62
250
  6
CONTINUOUS
 10
92.046925797
 20
29.0839662613
 11
92.046925797
 21
29.2139965914
  0
LINE
  5
35C
100
AcDbEntity
  8
DRAFT
100
AcDbLine
 62
7
  6
CONTINUOUS
 10
92.0705777448
 20
-27.9160337387
 11
92.0705777448
 21
-30.9160337387
  0
LINE
  5
35D
100
AcDbEntity
  8
DRAFT
100
AcDbLine
 62
250
  6
CONTINUOUS
 10
92.546925797
 20
31.0839662613
 11
92.546925797
 21
30.5603143135
  0
LINE
  5
35E
100
AcDbEntity
  8
0
100
AcDbLine
 62
7
  6
CONTINUOUS
 10
92.546925797
 20
-10.4161860435
 11
92.546925797
 21
7.5841185662
  0
LINE
  5
35F
100
AcDbEntity
  8
DRAFT
100
AcDbLine
 62
250
  6
CONTINUOUS
 10
92.546925797
 20
22.0839662613
 11
92.546925797
 21
22.6076182092
  0
LINE
  5
360
100
AcDbEntity
  8
0
100
AcDbLine
 62
7
  6
CONTINUOUS
 10
92.5835814334
 20
7.6207742025
 11
92.5835814334
 21
-10.4528416799
  0
LINE
  5
361
100
AcDbEntity
  8
DRAFT
100
AcDbLine
 62
7
  6
CONTINUOUS
 10
93.4168954669
 20
-31.4160337387
 11
93.4168954669
 21
-27.4160337387
  0
LINE
  5
362
100
AcDbEntity
  8
DRAFT
100
AcDbLine
 62
7
  6
CONTINUOUS
 10
93.546925797
 20
-31.4160337387
 11
93.546925797
 21
-27.4160337387
  0
LINE
  5
363
100
AcDbEntity
  8
DRAFT
100
AcDbLine
 62
7
  6
CONTINUOUS
 10
85.039696223
 20
-29.8985800031
 11
90.0294720614
 21
-24.9088041647
  0
LINE
  5
364
100
AcDbEntity
  8
RACCORDO
100
AcDbLine
 62
250
  6
CONTINUOUS
 10
-14.9584680413
 20
40.1912306692
 11
-14.866447305
 21
40.1973127095
  0
LWPOLYLINE
  5
365
100
AcDbEntity
  8
RACCORDO
100
AcDbPolyline
 62
7
  6
CONTINUOUS
 90
12
 70
0
 10
104.960298899
 20
40.1973127095
 10
105.0520261877
 20
40.1912695437
 10
105.1421992438
 20
40.173250766
 10
105.2292596836
 20
40.1435562851
 10
105.3117084167
 20
40.1026835938
 10
105.3881066278
 20
40.0513313632
 10
105.4571074172
 20
39.9903978524
 10
105.5176370014
 20
39.9207788291
 10
105.568486962
 20
39.8438041846
 10
105.6085394124
 20
39.7613864287
 10
105.6372731755
 20
39.6752443132
 10
105.6541902049
 20
39.5893600996
  0
LWPOLYLINE
  5
366
100
AcDbEntity
  8
0
100
AcDbPolyline
 62
7
  6
CONTINUOUS
 90
10
 70
0
 43
0.3500000006
 10
112.296925415
 20
-0.4517474899
 10
112.9397788696
 20
-1.0946054764
 10
113.7969258728
 20
-1.523176712
 10
114.8683573608
 20
-1.523176712
 10
115.2969263306
 20
-1.0946054764
 10
115.2969263306
 20
-0.4517474899
 10
114.8683573608
 20
-0.0231762543
 10
114.0112103577
 20
-0.0231762543
 10
113.5826413879
 20
-0.4517474899
 10
113.5826413879
 20
-1.3803200111
  0
LINE
  5
367
100
AcDbEntity
  8
DRAFT
100
AcDbLine
 62
7
  6
CONTINUOUS
 10
86.0529176806
 20
26.0532910681
 11
85.039696223
 21
27.0665125258
  0
LINE
  5
368
100
AcDbEntity
  8
DRAFT
100
AcDbLine
 62
250
  6
CONTINUOUS
 10
95.546925797
 20
31.0839662613
 11
95.546925797
 21
30.5603143135
  0
LINE
  5
369
100
AcDbEntity
  8
DRAFT
100
AcDbLine
 62
250
  6
CONTINUOUS
 10
95.546925797
 20
22.0839662613
 11
95.546925797
 21
22.6076182092
  0
LINE
  5
36A
100
AcDbEntity
  8
DRAFT
100
AcDbLine
 62
250
  6
CONTINUOUS
 10
96.046925797
 20
24.0839662613
 11
96.046925797
 21
23.9539359313
  0
LINE
  5
36B
100
AcDbEntity
  8
DRAFT
100
AcDbLine
 62
250
  6
CONTINUOUS
 10
96.046925797
 20
29.0839662613
 11
96.046925797
 21
29.2139965914
  0
LINE
  5
36C
100
AcDbEntity
  8
DRAFT
100
AcDbLine
 62
7
  6
CONTINUOUS
 10
98.546925797
 20
-27.4160337387
 11
98.546925797
 21
-31.4160337387
  0
LINE
  5
36D
100
AcDbEntity
  8
DRAFT
100
AcDbLine
 62
7
  6
CONTINUOUS
 10
98.6769561271
 20
-27.4160337387
 11
98.6769561271
 21
-31.4160337387
  0
LWPOLYLINE
  5
36E
100
AcDbEntity
  8
0
100
AcDbPolyline
 62
7
  6
CONTINUOUS
 90
6
 70
0
 43
0.3500000006
 10
43.1183535919
 20
51.3339680328
 10
44.18978508
 20
51.3339680328
 10
44.4040695648
 20
51.5482525177
 10
44.4040695648
 20
52.6196794739
 10
43.9754960632
 20
53.0482529755
 10
43.5469270935
 20
53.0482529755
  0
LWPOLYLINE
  5
36F
100
AcDbEntity
  8
0
100
AcDbPolyline
 62
7
  6
CONTINUOUS
 90
13
 70
0
 43
0.3500000006
 10
45.475496521
 20
61.048250885
 10
45.1897808533
 20
61.2625353699
 10
45.1897808533
 20
61.9053978882
 10
45.475496521
 20
62.3339668579
 10
46.1183545074
 20
62.3339668579
 10
46.4040701752
 20
61.9053978882
 10
46.4040701752
 20
61.2625353699
 10
46.1183545074
 20
61.048250885
 10
46.546928009
 20
60.6196819153
 10
46.546928009
 20
59.7625349121
 10
46.1183545074
 20
59.3339659424
 10
45.475496521
 20
59.3339659424
 10
45.0469275513
 20
59.7625349121
  0
LINE
  5
370
100
AcDbEntity
  8
DRAFT
100
AcDbLine
 62
7
  6
CONTINUOUS
 10
100.0232738492
 20
-30.9160337387
 11
100.0232738492
 21
-27.9160337387
  0
LINE
  5
371
100
AcDbEntity
  8
DRAFT
100
AcDbLine
 62
7
  6
CONTINUOUS
 10
100.546925797
 20
-30.9160337387
 11
100.546925797
 21
-27.9160337387
  0
LINE
  5
372
100
AcDbEntity
  8
RACCORDO
100
AcDbLine
 62
250
  6
CONTINUOUS
 10
105.6541902049
 20
39.5893600996
 11
105.6602722451
 21
39.4973393633
  0
LINE
  5
373
100
AcDbEntity
  8
RACCORDO
100
AcDbLine
 62
250
  6
CONTINUOUS
 10
104.960298899
 20
-43.0293801868
 11
104.960298899
 21
40.1973127095
  0
LINE
  5
374
100
AcDbEntity
  8
RACCORDO
100
AcDbLine
 62
7
  6
CONTINUOUS
 10
105.6602722451
 20
-42.3294068407
 11
105.6602722451
 21
39.4973393633
  0
LINE
  5
375
100
AcDbEntity
  8
RACCORDO
100
AcDbLine
 62
7
  6
CONTINUOUS
 10
106.046925797
 20
-42.7160603925
 11
106.046925797
 21
39.8839929152
  0
LWPOLYLINE
  5
376
100
AcDbEntity
  8
RACCORDO
100
AcDbPolyline
 62
7
  6
CONTINUOUS
 90
12
 70
0
 10
105.6602722451
 20
-42.3294068407
 10
105.6542290794
 20
-42.4211341293
 10
105.6362103016
 20
-42.5113071855
 10
105.6065158208
 20
-42.5983676253
 10
105.5656431294
 20
-42.6808163584
 10
105.5142908989
 20
-42.7572145695
 10
105.453357388
 20
-42.8262153589
 10
105.3837383647
 20
-42.8867449431
 10
105.3067637202
 20
-42.9375949036
 10
105.2243459644
 20
-42.977647354
 10
105.1382038489
 20
-43.0063811171
 10
105.0523196353
 20
-43.0232981465
  0
LWPOLYLINE
  5
377
100
AcDbEntity
  8
0
100
AcDbPolyline
 62
7
  6
CONTINUOUS
 90
13
 70
0
 43
0.3500000006
 10
121.5826438293
 20
-3.3446050301
 10
121.3683502808
 20
-3.6303195648
 10
120.7254968262
 20
-3.6303195648
 10
120.2969278564
 20
-3.3446050301
 10
120.2969278564
 20
-2.7017481766
 10
120.7254968262
 20
-2.4160336418
 10
121.3683502808
 20
-2.4160336418
 10
121.5826438293
 20
-2.7017481766
 10
122.0112127991
 20
-2.2731769409
 10
122.8683507385
 20
-2.2731769409
 10
123.296928772
 20
-2.7017481766
 10
123.296928772
 20
-3.3446050301
 10
122.8683507385
 20
-3.7731762657
  0
LWPOLYLINE
  5
378
100
AcDbEntity
  8
0
100
AcDbPolyline
 62
7
  6
CONTINUOUS
 90
8
 70
0
 43
0.3500000006
 10
115.2969263306
 20
-3.6660340233
 10
115.2969263306
 20
-2.808890419
 10
114.8683573608
 20
-2.3803191833
 10
114.0112103577
 20
-2.3803191833
 10
113.5826413879
 20
-2.808890419
 10
113.5826413879
 20
-3.6660340233
 10
112.296925415
 20
-3.6660340233
 10
112.296925415
 20
-2.3803191833
  0
LWPOLYLINE
  5
379
100
AcDbEntity
  8
0
100
AcDbPolyline
 62
7
  6
CONTINUOUS
 90
3
 70
0
 43
0.3500000006
 10
122.6540662537
 20
0.0839659882
 10
122.6540662537
 20
-1.4160333366
 10
120.2969278564
 20
-0.7731764832
  0
LWPOLYLINE
  5
37A
100
AcDbEntity
  8
0
100
AcDbPolyline
 62
7
  6
CONTINUOUS
 90
7
 70
0
 43
0.3500000006
 10
47.4040704803
 20
67.3339683838
 10
45.9040700226
 20
67.3339683838
 10
47.4040704803
 20
69.4768222961
 10
47.4040704803
 20
69.9053912659
 10
46.9754969788
 20
70.3339692993
 10
46.3326389923
 20
70.3339692993
 10
45.9040700226
 20
69.691106781
  0
LWPOLYLINE
  5
37B
100
AcDbEntity
  8
0
100
AcDbPolyline
 62
7
  6
CONTINUOUS
 90
7
 70
0
 43
0.3500000006
 10
45.0469275513
 20
67.3339683838
 10
43.5469270935
 20
67.3339683838
 10
45.0469275513
 20
69.4768222961
 10
45.0469275513
 20
69.9053912659
 10
44.6183540497
 20
70.3339692993
 10
43.9754960632
 20
70.3339692993
 10
43.5469270935
 20
69.691106781
  0
LINE
  5
37C
100
AcDbEntity
  8
RACCORDO
100
AcDbLine
 62
7
  6
CONTINUOUS
 10
-89.7693794584
 20
-43.0293801868
 11
-45.4632708836
 21
-43.4160337387
  0
LINE
  5
37D
100
AcDbEntity
  8
RACCORDO
100
AcDbLine
 62
250
  6
CONTINUOUS
 10
-90.4632708836
 20
-42.3294068407
 11
-89.7693794584
 21
-42.3294068407
  0
LINE
  5
37E
100
AcDbEntity
  8
RACCORDO
100
AcDbLine
 62
250
  6
CONTINUOUS
 10
-89.7693794584
 20
-42.3294068407
 11
-45.4632708836
 21
-42.7160603925
  0
LWPOLYLINE
  5
37F
100
AcDbEntity
  8
RACCORDO
100
AcDbPolyline
 62
250
  6
CONTINUOUS
 90
7
 70
0
 10
-89.7693794584
 20
40.1973127095
 10
-89.7701272125
 20
40.1912695437
 10
-89.7707568933
 20
40.173250766
 10
-89.7712575184
 20
40.1435562851
 10
-89.7716203471
 20
40.1026835938
 10
-89.77183892
 20
40.0513313632
 10
-89.7716020131
 20
39.8438041846
  0
LWPOLYLINE
  5
380
100
AcDbEntity
  8
0
100
AcDbPolyline
 62
7
  6
CONTINUOUS
 90
8
 70
0
 10
-91.9633713671
 20
-4.2029094674
 10
-91.9602473976
 20
-4.2948886142
 10
-91.9556943856
 20
-4.3837648306
 10
-91.9490547917
 20
-4.4694374265
 10
-91.9383559968
 20
-4.5516043318
 10
-91.9232922163
 20
-4.6306227476
 10
-91.904169235
 20
-4.7061354728
 10
-91.8799317887
 20
-4.776768833
  0
LINE
  5
381
100
AcDbEntity
  8
0
100
AcDbLine
 62
7
  6
CONTINUOUS
 10
-91.9632708836
 20
-5.1025679574
 11
-91.9632708836
 21
-4.0085521497
  0
LINE
  5
382
100
AcDbEntity
  8
0
100
AcDbLine
 62
7
  6
CONTINUOUS
 10
-91.9632708836
 20
1.177116565
 11
-91.9632708836
 21
2.3836056905
  0
LINE
  5
383
100
AcDbEntity
  8
0
100
AcDbLine
 62
250
  6
CONTINUOUS
 10
-91.4676341513
 20
-5.6025463797
 11
-91.4676341513
 21
-5.1145797916
  0
LINE
  5
384
100
AcDbEntity
  8
0
100
AcDbLine
 62
250
  6
CONTINUOUS
 10
-91.4632708836
 20
2.8839662613
 11
-91.4632708836
 21
2.4375161835
  0
LWPOLYLINE
  5
385
100
AcDbEntity
  8
0
100
AcDbPolyline
 62
7
  6
CONTINUOUS
 90
3
 70
0
 10
-91.96335956
 20
-4.0093403127
 10
-91.9644087545
 20
-4.1077267003
 10
-91.9633713671
 20
-4.2029094674
  0
LWPOLYLINE
  5
386
100
AcDbEntity
  8
0
100
AcDbPolyline
 62
7
  6
CONTINUOUS
 90
5
 70
0
 10
-91.9315044575
 20
1.9649079106
 10
-91.9464998546
 20
1.8854956312
 10
-91.9568898196
 20
1.8025495811
 10
-91.9624801626
 20
1.7156301088
 10
-91.9632708836
 20
1.6247372143
  0
LINE
  5
387
100
AcDbEntity
  8
0
100
AcDbLine
 62
7
  6
CONTINUOUS
 10
-91.9117094385
 20
2.0403467679
 11
-91.9315044575
 21
1.9649079106
  0
LWPOLYLINE
  5
388
100
AcDbEntity
  8
0
100
AcDbPolyline
 62
7
  6
CONTINUOUS
 90
10
 70
0
 10
-91.8799317887
 20
-4.776768833
 10
-91.8499911332
 20
-4.8428281905
 10
-91.8149360126
 20
-4.9040081831
 10
-91.7754773954
 20
-4.9580190507
 10
-91.7311130135
 20
-5.004555811
 10
-91.6823451349
 20
-5.0439234462
 10
-91.6313915322
 20
-5.0747471432
 10
-91.5789914627
 20
-5.0965686309
 10
-91.5244056691
 20
-5.1098461804
 10
-91.4676341513
 20
-5.1145797916
  0
LWPOLYLINE
  5
389
100
AcDbEntity
  8
RACCORDO
100
AcDbPolyline
 62
250
  6
CONTINUOUS
 90
5
 70
0
 10
-89.7716020131
 20
-42.9375949036
 10
-89.7712322967
 20
-42.977647354
 10
-89.7707313016
 20
-43.0063811171
 10
-89.7701094338
 20
-43.0236428967
 10
-89.7693794584
 20
-43.0293801868
  0
LINE
  5
38A
100
AcDbEntity
  8
RACCORDO
100
AcDbLine
 62
250
  6
CONTINUOUS
 10
-89.7716020131
 20
39.8438041846
 11
-89.7693794584
 21
39.4973393633
  0
LINE
  5
38B
100
AcDbEntity
  8
RACCORDO
100
AcDbLine
 62
250
  6
CONTINUOUS
 10
-89.7719093221
 20
-42.8262153589
 11
-89.7716020131
 21
-42.9375949036
  0
LINE
  5
38C
100
AcDbEntity
  8
RACCORDO
100
AcDbLine
 62
7
  6
CONTINUOUS
 10
-90.4632708836
 20
-42.3294068407
 11
-90.4632708836
 21
39.4973393633
  0
LINE
  5
38D
100
AcDbEntity
  8
RACCORDO
100
AcDbLine
 62
250
  6
CONTINUOUS
 10
-89.7693794584
 20
-42.3294068407
 11
-89.7693794584
 21
39.4973393633
  0
LINE
  5
38E
100
AcDbEntity
  8
RACCORDO
100
AcDbLine
 62
250
  6
CONTINUOUS
 10
-89.7712575184
 20
-42.5983676253
 11
-89.7719093221
 21
-42.8262153589
  0
LINE
  5
38F
100
AcDbEntity
  8
RACCORDO
100
AcDbLine
 62
250
  6
CONTINUOUS
 10
-89.7693794584
 20
-42.3294068407
 11
-89.7712575184
 21
-42.5983676253
  0
LINE
  5
390
100
AcDbEntity
  8
0
100
AcDbLine
 62
7
  6
CONTINUOUS
 10
-91.4768531476
 20
-3.460252774
 11
-91.5799485548
 21
-3.579093682
  0
LINE
  5
391
100
AcDbEntity
  8
0
100
AcDbLine
 62
7
  6
CONTINUOUS
 10
-91.5799485548
 20
-3.579093682
 11
-91.6859406584
 21
-3.6997237388
  0
LWPOLYLINE
  5
392
100
AcDbEntity
  8
0
100
AcDbPolyline
 62
7
  6
CONTINUOUS
 90
3
 70
0
 10
-91.6859406584
 20
-3.6997237388
 10
-91.7948092946
 20
-3.8221613449
 10
-91.8502903864
 20
-3.8840871131
  0
LINE
  5
393
100
AcDbEntity
  8
0
100
AcDbLine
 62
7
  6
CONTINUOUS
 10
-91.8504290973
 20
1.0520960579
 11
-91.7402721982
 21
0.9288209033
  0
LINE
  5
394
100
AcDbEntity
  8
0
100
AcDbLine
 62
7
  6
CONTINUOUS
 10
-91.7402721982
 20
0.9288209033
 11
-91.6328315165
 21
0.8072840859
  0
LWPOLYLINE
  5
395
100
AcDbEntity
  8
0
100
AcDbPolyline
 62
7
  6
CONTINUOUS
 90
3
 70
0
 10
-91.6328315165
 20
0.8072840859
 10
-91.5282323725
 20
0.6874575433
 10
-91.4769905447
 20
0.628187379
  0
LINE
  5
396
100
AcDbEntity
  8
0
100
AcDbLine
 62
7
  6
CONTINUOUS
 10
-91.8502903864
 20
-3.8840871131
 11
-91.96335956
 21
-4.0093403127
  0
LINE
  5
397
100
AcDbEntity
  8
0
100
AcDbLine
 62
7
  6
CONTINUOUS
 10
-91.9632708836
 20
1.177116565
 11
-91.8504290973
 21
1.0520960579
  0
LINE
  5
398
100
AcDbEntity
  8
0
100
AcDbLine
 62
7
  6
CONTINUOUS
 10
-90.4632708836
 20
-5.1182197488
 11
-91.4676341513
 21
-5.1145797916
  0
LINE
  5
399
100
AcDbEntity
  8
0
100
AcDbLine
 62
7
  6
CONTINUOUS
 10
-90.4632708836
 20
-5.6113113252
 11
-91.4676341513
 21
-5.6025463797
  0
LWPOLYLINE
  5
39A
100
AcDbEntity
  8
0
100
AcDbPolyline
 62
7
  6
CONTINUOUS
 90
2
 70
0
 43
0.3500000006
 10
-69.2132722778
 20
51.3339680328
 10
-69.2132722778
 20
52.8339684906
  0
LINE
  5
39B
100
AcDbEntity
  8
0
100
AcDbLine
 62
7
  6
CONTINUOUS
 10
-91.4768531476
 20
-3.460252774
 11
-90.4632708836
 21
-3.4448314045
  0
LINE
  5
39C
100
AcDbEntity
  8
0
100
AcDbLine
 62
7
  6
CONTINUOUS
 10
-90.4632708836
 20
0.6127639269
 11
-91.4769905447
 21
0.628187379
  0
LWPOLYLINE
  5
39D
100
AcDbEntity
  8
0
100
AcDbPolyline
 62
7
  6
CONTINUOUS
 90
11
 70
0
 10
-91.4632708836
 20
2.4375161835
 10
-91.5208691405
 20
2.4336188135
 10
-91.5764183605
 20
2.4213032778
 10
-91.6299185436
 20
2.4005695763
 10
-91.6821607135
 20
2.3710063255
 10
-91.7323538466
 20
2.3330249089
 10
-91.7781248717
 20
2.2878594778
 10
-91.819002793
 20
2.2352908699
 10
-91.8554586062
 20
2.1755382475
 10
-91.8865322274
 20
2.1104932486
 10
-91.9117094385
 20
2.0403467679
  0
LINE
  5
39E
100
AcDbEntity
  8
ASSI
100
AcDbLine
 62
7
  6
CONTINUOUS
 10
-90.4632708836
 20
2.8839662613
 11
-91.4632708836
 21
2.8839662613
  0
LINE
  5
39F
100
AcDbEntity
  8
RACCORDO
100
AcDbLine
 62
7
  6
CONTINUOUS
 10
-45.4632708836
 20
-43.4160337387
 11
-45.4632708836
 21
40.5839662613
  0
LINE
  5
3A0
100
AcDbEntity
  8
RACCORDO
100
AcDbLine
 62
250
  6
CONTINUOUS
 10
-89.7693794584
 20
39.4973393633
 11
-45.4632708836
 21
39.8839929152
  0
LINE
  5
3A1
100
AcDbEntity
  8
RACCORDO
100
AcDbLine
 62
7
  6
CONTINUOUS
 10
-89.7693794584
 20
40.1973127095
 11
-45.4632708836
 21
40.5839662613
  0
LINE
  5
3A2
100
AcDbEntity
  8
RACCORDO
100
AcDbLine
 62
250
  6
CONTINUOUS
 10
-90.4632708836
 20
39.4973393633
 11
-89.7693794584
 21
39.4973393633
  0
LWPOLYLINE
  5
3A3
100
AcDbEntity
  8
0
100
AcDbPolyline
 62
7
  6
CONTINUOUS
 90
8
 70
0
 43
0.3500000006
 10
-67.8561296539
 20
51.3339680328
 10
-66.9989871826
 20
51.3339680328
 10
-66.570413681
 20
51.7625370026
 10
-66.570413681
 20
52.6196794739
 10
-66.9989871826
 20
53.0482529755
 10
-67.8561296539
 20
53.0482529755
 10
-67.8561296539
 20
54.3339644165
 10
-66.570413681
 20
54.3339644165
  0
LWPOLYLINE
  5
3A4
100
AcDbEntity
  8
0
100
AcDbPolyline
 62
7
  6
CONTINUOUS
 90
3
 70
0
 43
0.3500000006
 10
-68.7132721252
 20
51.9768214874
 10
-70.213272583
 20
51.9768214874
 10
-69.5704145966
 20
54.3339644165
  0
ARC
  5
3A5
100
AcDbEntity
  8
DRAFT
100
AcDbCircle
 62
7
  6
CONTINUOUS
 10
-5.953074203
 20
-27.9160337387
 40
4.5
100
AcDbArc
 50
0.0
 51
180.0
  0
ARC
  5
3A6
100
AcDbEntity
  8
DRAFT
100
AcDbCircle
 62
7
  6
CONTINUOUS
 10
-5.953074203
 20
-30.9160337387
 40
4.5
100
AcDbArc
 50
180.0
 51
360.0
  0
ARC
  5
3A7
100
AcDbEntity
  8
DRAFT
100
AcDbCircle
 62
7
  6
CONTINUOUS
 10
-5.953074203
 20
-30.9160337387
 40
3.9763480522
100
AcDbArc
 50
180.0
 51
360.0
  0
ARC
  5
3A8
100
AcDbEntity
  8
DRAFT
100
AcDbCircle
 62
7
  6
CONTINUOUS
 10
-5.953074203
 20
-27.9160337387
 40
3.9763480522
100
AcDbArc
 50
0.0
 51
180.0
  0
ARC
  5
3A9
100
AcDbEntity
  8
DRAFT
100
AcDbCircle
 62
7
  6
CONTINUOUS
 10
-5.953074203
 20
-31.4160337387
 40
2.6300303301
100
AcDbArc
 50
180.0
 51
360.0
  0
ARC
  5
3AA
100
AcDbEntity
  8
DRAFT
100
AcDbCircle
 62
7
  6
CONTINUOUS
 10
-5.953074203
 20
-27.4160337387
 40
2.6300303301
100
AcDbArc
 50
0.0
 51
180.0
  0
ARC
  5
3AB
100
AcDbEntity
  8
DRAFT
100
AcDbCircle
 62
7
  6
CONTINUOUS
 10
-5.953074203
 20
-31.4160337387
 40
2.5
100
AcDbArc
 50
180.0
 51
360.0
  0
ARC
  5
3AC
100
AcDbEntity
  8
DRAFT
100
AcDbCircle
 62
7
  6
CONTINUOUS
 10
-5.953074203
 20
-27.4160337387
 40
2.5
100
AcDbArc
 50
0.0
 51
180.0
  0
ARC
  5
3AD
100
AcDbEntity
  8
DRAFT
100
AcDbCircle
 62
7
  6
CONTINUOUS
 10
-1.953074203
 20
26.5839662613
 40
6.0174537356
100
AcDbArc
 50
289.5887756376
 51
354.9405510839
  0
ARC
  5
3AE
100
AcDbEntity
  8
DRAFT
100
AcDbCircle
 62
7
  6
CONTINUOUS
 10
-5.453074203
 20
26.5839662613
 40
4.5
100
AcDbArc
 50
90.0
 51
270.0
  0
ARC
  5
3AF
100
AcDbEntity
  8
DRAFT
100
AcDbCircle
 62
7
  6
CONTINUOUS
 10
-2.453074203
 20
26.5839662613
 40
4.5
100
AcDbArc
 50
270.0
 51
90.0
  0
ARC
  5
3B0
100
AcDbEntity
  8
DRAFT
100
AcDbCircle
 62
7
  6
CONTINUOUS
 10
-2.453074203
 20
26.5839662613
 40
3.9763480522
100
AcDbArc
 50
270.0
 51
90.0
  0
ARC
  5
3B1
100
AcDbEntity
  8
DRAFT
100
AcDbCircle
 62
7
  6
CONTINUOUS
 10
-5.453074203
 20
26.5839662613
 40
3.9763480522
100
AcDbArc
 50
90.0
 51
270.0
  0
ARC
  5
3B2
100
AcDbEntity
  8
0
100
AcDbCircle
 62
7
  6
CONTINUOUS
 10
3.246925797
 20
-1.4160337387
 40
3.75
100
AcDbArc
 50
288.875982617
 51
71.124017383
  0
ARC
  5
3B3
100
AcDbEntity
  8
0
100
AcDbCircle
 62
7
  6
CONTINUOUS
 10
3.246925797
 20
-1.4160337387
 40
3.6688401295
100
AcDbArc
 50
289.4032127273
 51
70.5967872727
  0
ARC
  5
3B4
100
AcDbEntity
  8
0
100
AcDbCircle
 62
7
  6
CONTINUOUS
 10
3.2469931675
 20
-1.4161432378
 40
2.8500941854
100
AcDbArc
 50
65.4800526441
 51
114.5512686495
  0
ARC
  5
3B5
100
AcDbEntity
  8
0
100
AcDbCircle
 62
7
  6
CONTINUOUS
 10
3.246925797
 20
-1.4160337387
 40
2.85
100
AcDbArc
 50
115.2029556992
 51
244.7970443008
  0
ARC
  5
3B6
100
AcDbEntity
  8
0
100
AcDbCircle
 62
7
  6
CONTINUOUS
 10
3.246925797
 20
-1.4160337387
 40
2.85
100
AcDbArc
 50
295.3193523127
 51
64.6806476873
  0
ARC
  5
3B7
100
AcDbEntity
  8
0
100
AcDbCircle
 62
7
  6
CONTINUOUS
 10
3.2470858095
 20
-1.4163135935
 40
2.84973728
100
AcDbArc
 50
245.4715622702
 51
294.5489851122
  0
ARC
  5
3B8
100
AcDbEntity
  8
DRAFT
100
AcDbCircle
 62
7
  6
CONTINUOUS
 10
-1.953074203
 20
26.5839662613
 40
2.6300303301
100
AcDbArc
 50
270.0
 51
90.0
  0
ARC
  5
3B9
100
AcDbEntity
  8
DRAFT
100
AcDbCircle
 62
7
  6
CONTINUOUS
 10
-5.953074203
 20
26.5839662613
 40
2.6300303301
100
AcDbArc
 50
90.0
 51
270.0
  0
ARC
  5
3BA
100
AcDbEntity
  8
DRAFT
100
AcDbCircle
 62
7
  6
CONTINUOUS
 10
-5.953074203
 20
26.5839662613
 40
2.5
100
AcDbArc
 50
90.0
 51
270.0
  0
ARC
  5
3BB
100
AcDbEntity
  8
DRAFT
100
AcDbCircle
 62
7
  6
CONTINUOUS
 10
-1.953074203
 20
26.5839662613
 40
2.5
100
AcDbArc
 50
270.0
 51
90.0
  0
ARC
  5
3BC
100
AcDbEntity
  8
0
100
AcDbCircle
 62
7
  6
CONTINUOUS
 10
3.2469931675
 20
-1.4161432378
 40
2.3636746105
100
AcDbArc
 50
59.8725223944
 51
120.1302774331
  0
ARC
  5
3BD
100
AcDbEntity
  8
0
100
AcDbCircle
 62
7
  6
CONTINUOUS
 10
3.2470858095
 20
-1.4163135935
 40
2.3632944268
100
AcDbArc
 50
239.8630857226
 51
300.13026375
  0
ARC
  5
3BE
100
AcDbEntity
  8
0
100
AcDbCircle
 62
7
  6
CONTINUOUS
 10
3.246925797
 20
-1.4160337387
 40
2.3318743773
100
AcDbArc
 50
121.4920642956
 51
238.5079357044
  0
ARC
  5
3BF
100
AcDbEntity
  8
0
100
AcDbCircle
 62
7
  6
CONTINUOUS
 10
3.246925797
 20
-1.4160337387
 40
2.3265921594
100
AcDbArc
 50
301.7245951851
 51
58.2754048149
  0
CIRCLE
  5
3C0
100
AcDbEntity
  8
0
100
AcDbCircle
 62
7
  6
CONTINUOUS
 10
3.246925797
 20
-1.4160337387
 40
2.3154515084
  0
ARC
  5
3C1
100
AcDbEntity
  8
0
100
AcDbCircle
 62
7
  6
CONTINUOUS
 10
3.246925797
 20
1.0839662613
 40
1.7127313221
100
AcDbArc
 50
44.9220096985
 51
135.0779903015
  0
ARC
  5
3C2
100
AcDbEntity
  8
0
100
AcDbCircle
 62
7
  6
CONTINUOUS
 10
3.246925797
 20
-3.9160337387
 40
1.7127313221
100
AcDbArc
 50
224.9220096985
 51
315.0779903015
  0
ARC
  5
3C3
100
AcDbEntity
  8
0
100
AcDbCircle
 62
7
  6
CONTINUOUS
 10
3.246925797
 20
1.0839662613
 40
1.6865126411
100
AcDbArc
 50
45.2890737517
 51
134.7109262483
  0
ARC
  5
3C4
100
AcDbEntity
  8
0
100
AcDbCircle
 62
7
  6
CONTINUOUS
 10
3.246925797
 20
-3.9160337387
 40
1.6865126411
100
AcDbArc
 50
225.2890737517
 51
314.7109262483
  0
CIRCLE
  5
3C5
100
AcDbEntity
  8
DRAFT
100
AcDbCircle
 62
7
  6
CONTINUOUS
 10
3.246925797
 20
-1.4160337387
 40
1.5523607282
  0
CIRCLE
  5
3C6
100
AcDbEntity
  8
DRAFT
100
AcDbCircle
 62
7
  6
CONTINUOUS
 10
3.246925797
 20
-1.4160337387
 40
1.5
  0
ARC
  5
3C7
100
AcDbEntity
  8
DRAFT
100
AcDbCircle
 62
7
  6
CONTINUOUS
 10
96.046925797
 20
-27.9160337387
 40
4.5
100
AcDbArc
 50
0.0
 51
180.0
  0
ARC
  5
3C8
100
AcDbEntity
  8
DRAFT
100
AcDbCircle
 62
7
  6
CONTINUOUS
 10
96.046925797
 20
-30.9160337387
 40
4.5
100
AcDbArc
 50
180.0
 51
360.0
  0
ARC
  5
3C9
100
AcDbEntity
  8
DRAFT
100
AcDbCircle
 62
7
  6
CONTINUOUS
 10
96.046925797
 20
-30.9160337387
 40
3.9763480522
100
AcDbArc
 50
180.0
 51
360.0
  0
ARC
  5
3CA
100
AcDbEntity
  8
DRAFT
100
AcDbCircle
 62
7
  6
CONTINUOUS
 10
96.046925797
 20
-27.9160337387
 40
3.9763480522
100
AcDbArc
 50
0.0
 51
180.0
  0
ARC
  5
3CB
100
AcDbEntity
  8
DRAFT
100
AcDbCircle
 62
7
  6
CONTINUOUS
 10
96.046925797
 20
-31.4160337387
 40
2.6300303301
100
AcDbArc
 50
180.0
 51
360.0
  0
ARC
  5
3CC
100
AcDbEntity
  8
DRAFT
100
AcDbCircle
 62
7
  6
CONTINUOUS
 10
96.046925797
 20
-27.4160337387
 40
2.6300303301
100
AcDbArc
 50
0.0
 51
180.0
  0
ARC
  5
3CD
100
AcDbEntity
  8
DRAFT
100
AcDbCircle
 62
7
  6
CONTINUOUS
 10
96.046925797
 20
-31.4160337387
 40
2.5
100
AcDbArc
 50
180.0
 51
360.0
  0
ARC
  5
3CE
100
AcDbEntity
  8
DRAFT
100
AcDbCircle
 62
7
  6
CONTINUOUS
 10
96.046925797
 20
-27.4160337387
 40
2.5
100
AcDbArc
 50
0.0
 51
180.0
  0
ARC
  5
3CF
100
AcDbEntity
  8
ASSI
100
AcDbCircle
 62
7
  6
CONTINUOUS
 10
71.705038797
 20
-34.7006867387
 40
1.1347395105
100
AcDbArc
 50
292.8428585528
 51
89.999026683
  0
ARC
  5
3D0
100
AcDbEntity
  8
ASSI
100
AcDbCircle
 62
7
  6
CONTINUOUS
 10
71.602323797
 20
-34.7006867387
 40
0.450208
100
AcDbArc
 50
270.001672766
 51
90.0005575837
  0
ARC
  5
3D1
100
AcDbEntity
  8
DRAFT
100
AcDbCircle
 62
7
  6
CONTINUOUS
 10
92.046925797
 20
26.5839662613
 40
6.0174537356
100
AcDbArc
 50
185.0594489161
 51
250.4112243624
  0
ARC
  5
3D2
100
AcDbEntity
  8
DRAFT
100
AcDbCircle
 62
7
  6
CONTINUOUS
 10
92.546925797
 20
26.5839662613
 40
4.5
100
AcDbArc
 50
90.0
 51
270.0
  0
ARC
  5
3D3
100
AcDbEntity
  8
DRAFT
100
AcDbCircle
 62
7
  6
CONTINUOUS
 10
95.546925797
 20
26.5839662613
 40
4.5
100
AcDbArc
 50
270.0
 51
90.0
  0
ARC
  5
3D4
100
AcDbEntity
  8
DRAFT
100
AcDbCircle
 62
7
  6
CONTINUOUS
 10
92.546925797
 20
26.5839662613
 40
3.9763480522
100
AcDbArc
 50
90.0
 51
270.0
  0
ARC
  5
3D5
100
AcDbEntity
  8
DRAFT
100
AcDbCircle
 62
7
  6
CONTINUOUS
 10
95.546925797
 20
26.5839662613
 40
3.9763480522
100
AcDbArc
 50
270.0
 51
90.0
  0
ARC
  5
3D6
100
AcDbEntity
  8
0
100
AcDbCircle
 62
7
  6
CONTINUOUS
 10
86.846925797
 20
-1.4160337387
 40
3.75
100
AcDbArc
 50
108.875982617
 51
251.124017383
  0
ARC
  5
3D7
100
AcDbEntity
  8
0
100
AcDbCircle
 62
7
  6
CONTINUOUS
 10
86.846925797
 20
-1.4160337387
 40
3.6688401295
100
AcDbArc
 50
109.4032127273
 51
250.5967872727
  0
ARC
  5
3D8
100
AcDbEntity
  8
0
100
AcDbCircle
 62
7
  6
CONTINUOUS
 10
86.8468621684
 20
-1.4159344267
 40
2.8500807951
100
AcDbArc
 50
245.4798359416
 51
294.5513239635
  0
ARC
  5
3D9
100
AcDbEntity
  8
0
100
AcDbCircle
 62
7
  6
CONTINUOUS
 10
86.846925797
 20
-1.4160337387
 40
2.85
100
AcDbArc
 50
115.3193523127
 51
244.6806476873
  0
ARC
  5
3DA
100
AcDbEntity
  8
0
100
AcDbCircle
 62
7
  6
CONTINUOUS
 10
86.846925797
 20
-1.4160337387
 40
2.85
100
AcDbArc
 50
295.2029556992
 51
64.7970443008
  0
ARC
  5
3DB
100
AcDbEntity
  8
0
100
AcDbCircle
 62
7
  6
CONTINUOUS
 10
86.8467445598
 20
-1.4157128012
 40
2.849694623
100
AcDbArc
 50
65.4863129748
 51
114.505677398
  0
ARC
  5
3DC
100
AcDbEntity
  8
DRAFT
100
AcDbCircle
 62
7
  6
CONTINUOUS
 10
92.046925797
 20
26.5839662613
 40
2.6300303301
100
AcDbArc
 50
90.0
 51
270.0
  0
ARC
  5
3DD
100
AcDbEntity
  8
DRAFT
100
AcDbCircle
 62
7
  6
CONTINUOUS
 10
96.046925797
 20
26.5839662613
 40
2.6300303301
100
AcDbArc
 50
270.0
 51
90.0
  0
ARC
  5
3DE
100
AcDbEntity
  8
DRAFT
100
AcDbCircle
 62
7
  6
CONTINUOUS
 10
92.046925797
 20
26.5839662613
 40
2.5
100
AcDbArc
 50
90.0
 51
270.0
  0
ARC
  5
3DF
100
AcDbEntity
  8
DRAFT
100
AcDbCircle
 62
7
  6
CONTINUOUS
 10
96.046925797
 20
26.5839662613
 40
2.5
100
AcDbArc
 50
270.0
 51
90.0
  0
ARC
  5
3E0
100
AcDbEntity
  8
0
100
AcDbCircle
 62
7
  6
CONTINUOUS
 10
86.8468621684
 20
-1.4159344267
 40
2.3636646662
100
AcDbArc
 50
239.872321518
 51
300.1303228067
  0
ARC
  5
3E1
100
AcDbEntity
  8
0
100
AcDbCircle
 62
7
  6
CONTINUOUS
 10
86.8467445598
 20
-1.4157128012
 40
2.3632543166
100
AcDbArc
 50
59.8621475739
 51
120.13031967
  0
ARC
  5
3E2
100
AcDbEntity
  8
0
100
AcDbCircle
 62
7
  6
CONTINUOUS
 10
86.846925797
 20
-1.4160337387
 40
2.3318743773
100
AcDbArc
 50
301.4920642956
 51
58.5079357044
  0
ARC
  5
3E3
100
AcDbEntity
  8
0
100
AcDbCircle
 62
7
  6
CONTINUOUS
 10
86.846925797
 20
-1.4160337387
 40
2.3265921594
100
AcDbArc
 50
121.7245951851
 51
238.2754048149
  0
CIRCLE
  5
3E4
100
AcDbEntity
  8
0
100
AcDbCircle
 62
7
  6
CONTINUOUS
 10
86.846925797
 20
-1.4160337387
 40
2.3154515084
  0
ARC
  5
3E5
100
AcDbEntity
  8
0
100
AcDbCircle
 62
7
  6
CONTINUOUS
 10
86.846925797
 20
1.0839662613
 40
1.8
100
AcDbArc
 50
47.643648957
 51
132.356351043
  0
ARC
  5
3E6
100
AcDbEntity
  8
0
100
AcDbCircle
 62
7
  6
CONTINUOUS
 10
86.846925797
 20
-3.9160337387
 40
1.7127313221
100
AcDbArc
 50
224.9220096985
 51
315.0779903015
  0
ARC
  5
3E7
100
AcDbEntity
  8
0
100
AcDbCircle
 62
7
  6
CONTINUOUS
 10
86.846925797
 20
-3.9160337387
 40
1.6865126411
100
AcDbArc
 50
225.2890737517
 51
314.7109262483
  0
CIRCLE
  5
3E8
100
AcDbEntity
  8
DRAFT
100
AcDbCircle
 62
7
  6
CONTINUOUS
 10
86.846925797
 20
-1.4160337387
 40
1.5523607282
  0
CIRCLE
  5
3E9
100
AcDbEntity
  8
DRAFT
100
AcDbCircle
 62
7
  6
CONTINUOUS
 10
86.846925797
 20
-1.4160337387
 40
1.5
  0
ARC
  5
3EA
100
AcDbEntity
  8
0
100
AcDbCircle
 62
250
  6
CONTINUOUS
 10
86.846925797
 20
1.0839662613
 40
1.3
100
AcDbArc
 50
24.5808992464
 51
155.4191007536
  0
ARC
  5
3EB
100
AcDbEntity
  8
RACCORDO
100
AcDbCircle
 62
7
  6
CONTINUOUS
 10
-89.7632708836
 20
39.4973393633
 40
0.7
100
AcDbArc
 50
90.5
 51
180.0
  0
ARC
  5
3EC
100
AcDbEntity
  8
RACCORDO
100
AcDbCircle
 62
7
  6
CONTINUOUS
 10
-89.7632708836
 20
-42.3294068407
 40
0.7
100
AcDbArc
 50
180.0
 51
269.5
  0
ARC
  5
3ED
100
AcDbEntity
  8
0
100
AcDbCircle
 62
7
  6
CONTINUOUS
 10
-91.4632708836
 20
-5.1025654182
 40
0.5
100
AcDbArc
 50
180.0
 51
269.5
  0
ARC
  5
3EE
100
AcDbEntity
  8
0
100
AcDbCircle
 62
7
  6
CONTINUOUS
 10
-91.4632708836
 20
2.3839662613
 40
0.5
100
AcDbArc
 50
90.0
 51
180.0
  0
ELLIPSE
  5
3EF
100
AcDbEntity
  8
RACCORDO
100
AcDbEllipse
 62
7
  6
CONTINUOUS
 10
105.3468991421
 20
-42.7160070838
 30
0.0
 11
-0.4950124418
 21
0.4950124418
 31
0.0
 40
0.9999238505
 41
-3.9269527408
 42
-2.3562325664
  0
ELLIPSE
  5
3F0
100
AcDbEntity
  8
RACCORDO
100
AcDbEllipse
 62
7
  6
CONTINUOUS
 10
105.3468991421
 20
39.8839396065
 30
0.0
 11
0.4950124418
 21
0.4950124418
 31
0.0
 40
0.9999238505
 41
-0.7853600872
 42
0.7853600872
  0
ELLIPSE
  5
3F1
100
AcDbEntity
  8
RACCORDO
100
AcDbEllipse
 62
7
  6
CONTINUOUS
 10
-15.2530475481
 20
39.8839396065
 30
0.0
 11
0.4950124418
 21
-0.4950124418
 31
0.0
 40
0.9999238505
 41
2.3562325664
 42
3.9269527408
  0
ELLIPSE
  5
3F2
100
AcDbEntity
  8
RACCORDO
100
AcDbEllipse
 62
7
  6
CONTINUOUS
 10
-15.2530475481
 20
-42.7160070838
 30
0.0
 11
0.4950124418
 21
0.4950124418
 31
0.0
 40
0.9999238505
 41
-3.9269527408
 42
-2.3562325664
  0
ELLIPSE
  5
3F3
100
AcDbEntity
  8
0
100
AcDbEllipse
 62
7
  6
CONTINUOUS
 10
91.546773469
 20
-10.4158814106
 30
0.0
 11
-0.7073221892
 21
0.7073221892
 31
0.0
 40
0.9996954599
 41
2.3563467834
 42
3.9268385237
  0
ELLIPSE
  5
3F4
100
AcDbEntity
  8
0
100
AcDbEllipse
 62
7
  6
CONTINUOUS
 10
91.546773469
 20
7.5838139333
 30
0.0
 11
-0.7073221892
 21
-0.7073221892
 31
0.0
 40
0.9996954599
 41
2.3563467834
 42
3.9268385237
  0
ELLIPSE
  5
3F5
100
AcDbEntity
  8
0
100
AcDbEllipse
 62
7
  6
CONTINUOUS
 10
-1.452921875
 20
7.5838139333
 30
0.0
 11
0.7073221892
 21
-0.7073221892
 31
0.0
 40
0.9996954599
 41
2.3563467834
 42
3.9268385237
  0
ELLIPSE
  5
3F6
100
AcDbEntity
  8
0
100
AcDbEllipse
 62
7
  6
CONTINUOUS
 10
-1.452921875
 20
-10.4158814106
 30
0.0
 11
0.7073221892
 21
0.7073221892
 31
0.0
 40
0.9996954599
 41
2.3563467834
 42
3.9268385237
  0
ELLIPSE
  5
3F7
100
AcDbEntity
  8
0
100
AcDbEllipse
 62
7
  6
CONTINUOUS
 10
91.5834291053
 20
-10.452537047
 30
0.0
 11
0.7073221892
 21
-0.7073221892
 31
0.0
 40
0.9996954599
 41
-0.7852458701
 42
0.7852458701
  0
ELLIPSE
  5
3F8
100
AcDbEntity
  8
0
100
AcDbEllipse
 62
7
  6
CONTINUOUS
 10
91.5834291053
 20
7.6204695696
 30
0.0
 11
0.7073221892
 21
0.7073221892
 31
0.0
 40
0.9996954599
 41
-0.7852458701
 42
0.7852458701
  0
ELLIPSE
  5
3F9
100
AcDbEntity
  8
0
100
AcDbEllipse
 62
7
  6
CONTINUOUS
 10
-1.4895775113
 20
7.6204695696
 30
0.0
 11
0.7073221892
 21
-0.7073221892
 31
0.0
 40
0.9996954599
 41
2.3563467834
 42
3.9268385237
  0
ELLIPSE
  5
3FA
100
AcDbEntity
  8
0
100
AcDbEllipse
 62
7
  6
CONTINUOUS
 10
-1.4895775113
 20
-10.452537047
 30
0.0
 11
0.7073221892
 21
0.7073221892
 31
0.0
 40
0.9996954599
 41
-3.9268385237
 42
-2.3563467834
  0
ELLIPSE
  5
3FB
100
AcDbEntity
  8
0
100
AcDbEllipse
 62
7
  6
CONTINUOUS
 10
-227.4285160517
 20
1.0839662613
 30
0.0
 11
206.2595702328
 21
-0.0
 31
0.0
 40
0.0087268678
 41
0.8445830336
 42
0.8510487952
  0
ENDSEC
  0
SECTION
  2
OBJECTS
  0
DICTIONARY
  5
C
100
AcDbDictionary
280
0
281
1
  3
ACAD_GROUP
350
D
  3
ACAD_MLINESTYLE
350
17
  3
ACAD_LAYOUT
350
1A
  3
ACAD_PLOTSETTINGS
350
19
  3
ACAD_PLOTSTYLENAME
350
E
  0
DICTIONARY
  5
D
102
{ACAD_REACTORS
330
C
102
}
100
AcDbDictionary
280
0
281
1
  0
ACDBDICTIONARYWDFLT
  5
E
102
{ACAD_REACTORS
330
C
102
}
100
AcDbDictionary
281
1
  3
Normal
350
F
100
AcDbDictionaryWithDefault
340
F
  0
DICTIONARY
  5
17
102
{ACAD_REACTORS
330
C
102
}
100
AcDbDictionary
280
0
281
1
  3
Standard
350
18
  0
DICTIONARY
  5
19
102
{ACAD_REACTORS
330
C
102
}
100
AcDbDictionary
281
1
  0
DICTIONARY
  5
1A
102
{ACAD_REACTORS
330
C
102
}
100
AcDbDictionary
281
1
  3
Model
350
3FC
  3
Layout1
350
3FD
  0
ACDBPLACEHOLDER
  5
F
102
{ACAD_REACTORS
330
E
102
}
  0
MLINESTYLE
  5
18
102
{ACAD_REACTORS
330
17
102
}
100
AcDbMlineStyle
  2
STANDARD
 70
0
  3

 62
256
 51
90.0
 52
90.0
 71
2
 49
0.5
 62
256
  6
BYLAYER
 49
-0.5
 62
256
  6
BYLAYER
  0
LAYOUT
  5
3FC
102
{ACAD_REACTORS
330
1A
102
}
100
AcDbPlotSettings
  1

  2
none_device
  4
ISO_A4_(297.00_x_210.00_MM)
  6

 40
0.0
 41
0.0
 42
0.0
 43
0.0
 44
297.0
 45
210.0
 46
0.0
 47
0.0
 48
0.0
 49
0.0
140
0.0
141
0.0
142
1.0
143
1.0
 70
1024
 72
1
 73
0
 74
0
  7

 75
0
147
1.0
148
0.0
149
0.0
100
AcDbLayout
  1
Model
 70
0
 71
0
 10
0.0
 20
0.0
 11
297.0
 21
210.0
 12
0.0
 22
0.0
 32
0.0
 14
0.0
 24
0.0
 34
0.0
 15
0.0
 25
0.0
 35
0.0
146
0.0
 13
0.0
 23
0.0
 33
0.0
 16
1.0
 26
0.0
 36
0.0
 17
0.0
 27
1.0
 37
0.0
 76
0
330
20F
345
0
346
0
  0
LAYOUT
  5
3FD
102
{ACAD_REACTORS
330
1A
102
}
100
AcDbPlotSettings
  1

  2
none_device
  4
ISO_A4_(297.00_x_210.00_MM)
  6

 40
0.0
 41
0.0
 42
0.0
 43
0.0
 44
297.0
 45
210.0
 46
0.0
 47
0.0
 48
0.0
 49
0.0
140
0.0
141
0.0
142
1.0
143
1.0
 70
0
 72
1
 73
0
 74
0
  7

 75
0
147
1.0
148
0.0
149
0.0
100
AcDbLayout
  1
Layout1
 70
0
 71
1
 10
0.0
 20
0.0
 11
297.0
 21
210.0
 12
0.0
 22
0.0
 32
0.0
 14
0.0
 24
0.0
 34
0.0
 15
0.0
 25
0.0
 35
0.0
146
0.0
 13
0.0
 23
0.0
 33
0.0
 16
1.0
 26
0.0
 36
0.0
 17
0.0
 27
1.0
 37
0.0
 76
0
330
210
345
0
346
0
  0
ENDSEC
  0
EOF
