  0
SECTION
  2
HEADER
  9
$ACADVER
  1
AC1024
  9
$DWGCODEPAGE
  3
ANSI_1252
  9
$EXTMAX
 10
558.8
 20
431.8
 30
0.0
  9
$EXTMIN
 10
0.0
 20
0.0
 30
0.0
  9
$LIMMIN
 10
0.0
 20
0.0
  9
$LIMMAX
 10
558.8
 20
431.8
  9
$VIEWCTR
 10
279.4
 20
215.9
  9
$VIEWSIZE
 40
431.8
  9
$CLAYER
  8
0
  9
$LTSCALE
 40
30.734
  9
$CELTYPE
  6
BYLAYER
  9
$DIMSCALE
 40
1.0
  9
$DIMASZ
 40
3.0
  9
$DIMEXO
 40
0.5
  9
$DIMDLI
 40
21.2344
  9
$DIMEXE
 40
1.5
  9
$DIMCEN
 40
5.0292
  9
$DIMLFAC
 40
1.0
  9
$DIMBLK
  1
_FILLED
  9
$DIMALT
 70
0
  9
$DIMALTF
 40
0.0393700787
  9
$DIMTXT
 40
3.0
  9
$DIMTOL
 70
1
  9
$DIMLIM
 70
0
  9
$DIMTFAC
 40
1.0
  9
$DIMTP
 40
0.01
  9
$DIMTM
 40
0.01
  9
$DIMGAP
 40
0.625
  9
$DIMDSEP
 70
44
  9
$AUNITS
 70
0
  9
$PDMODE
 70
3
  9
$PDSIZE
 40
3.0
  9
$HANDSEED
  5
79D
  9
$TILEMODE
 70
1
  9
$MEASUREMENT
 70
1
  9
$INSUNITS
 70
4
  0
ENDSEC
  0
SECTION
  2
CLASSES
  0
CLASS
  1
ACDBDICTIONARYWDFLT
  2
AcDbDictionaryWithDefault
  3
AutoCAD 2000
 90
0
 91
1
280
0
281
0
  0
CLASS
  1
ACDBPLACEHOLDER
  2
AcDbPlaceHolder
  3
AutoCAD 2000
 90
0
 91
1
280
0
281
0
  0
CLASS
  1
LAYOUT
  2
AcDbLayout
  3
AutoCAD 2000
 90
0
 91
0
280
0
281
0
  0
ENDSEC
  0
SECTION
  2
TABLES
  0
TABLE
  2
VPORT
  5
8
100
AcDbSymbolTable
 70
2
  0
VPORT
  5
1F4
100
AcDbSymbolTableRecord
100
AcDbViewportTableRecord
  2
*ACTIVE
 70
0
 10
0.0
 20
0.0
 11
1.0
 21
1.0
 12
279.4
 22
215.9
 13
0.0
 23
0.0
 14
1.0
 24
1.0
 15
0.0
 25
0.0
 16
0.0
 26
0.0
 36
1.0
 17
0.0
 27
0.0
 37
0.0
 40
431.8
 41
1.2941176471
 42
50.0
 43
0.0
 44
0.0
 50
0.0
 51
0.0
 71
0
 72
100
 73
1
 74
1
 75
0
 76
0
 77
0
 78
0
  0
ENDTAB
  0
TABLE
  2
LTYPE
  5
5
100
AcDbSymbolTable
 70
6
  0
LTYPE
  5
14
100
AcDbSymbolTableRecord
100
AcDbLinetypeTableRecord
  2
BYBLOCK
 70
0
  3

 72
65
 73
0
 40
0.0
  0
LTYPE
  5
15
100
AcDbSymbolTableRecord
100
AcDbLinetypeTableRecord
  2
BYLAYER
 70
0
  3

 72
65
 73
0
 40
0.0
  0
LTYPE
  5
16
100
AcDbSymbolTableRecord
100
AcDbLinetypeTableRecord
  2
CONTINUOUS
 70
64
  3
Solid line
 72
65
 73
0
 40
0.0
  0
LTYPE
  5
1F5
100
AcDbSymbolTableRecord
100
AcDbLinetypeTableRecord
  2
CENTER
 70
64
  3
____ _ ____ _ ____ _ ____ _ ____ _ ____ _ ____
 72
65
 73
4
 40
0.6
 49
0.375
 74
0
 49
-0.075
 74
0
 49
0.075
 74
0
 49
-0.075
 74
0
  0
LTYPE
  5
1F6
100
AcDbSymbolTableRecord
100
AcDbLinetypeTableRecord
  2
HIDDEN
 70
64
  3
- - - - - - - - - - - - - - - - - - - -
 72
65
 73
2
 40
0.2
 49
0.1
 74
0
 49
-0.1
 74
0
  0
LTYPE
  5
1F7
100
AcDbSymbolTableRecord
100
AcDbLinetypeTableRecord
  2
PHANTOM
 70
64
  3
_____ _ _ _____ _ _ _____ _ _ _____
 72
65
 73
6
 40
0.8
 49
0.45
 74
0
 49
-0.05
 74
0
 49
0.1
 74
0
 49
-0.05
 74
0
 49
0.1
 74
0
 49
-0.05
 74
0
  0
LTYPE
  5
1F8
100
AcDbSymbolTableRecord
100
AcDbLinetypeTableRecord
  2
DOT
 70
64
  3
. . . . . . . . . . . . . . . . . . . .
 72
65
 73
2
 40
0.2
 49
0.1
 74
0
 49
-0.1
 74
0
  0
LTYPE
  5
1F9
100
AcDbSymbolTableRecord
100
AcDbLinetypeTableRecord
  2
DASHED
 70
64
  3
- - - - - - - - - - - - - - - - - - - -
 72
65
 73
2
 40
0.2
 49
0.1
 74
0
 49
-0.1
 74
0
  0
ENDTAB
  0
TABLE
  2
LAYER
  5
2
100
AcDbSymbolTable
 70
36
  0
LAYER
  5
10
100
AcDbSymbolTableRecord
100
AcDbLayerTableRecord
  2
0
 70
0
 62
7
  6
CONTINUOUS
370
-3
390
F
  0
LAYER
  5
1FA
100
AcDbSymbolTableRecord
100
AcDbLayerTableRecord
  2
DEFAULT_1
 70
0
 62
7
  6
CENTER
370
-3
390
F
  0
LAYER
  5
1FB
100
AcDbSymbolTableRecord
100
AcDbLayerTableRecord
  2
DEFAULT_2
 70
0
 62
7
  6
HIDDEN
370
-3
390
F
  0
LAYER
  5
1FC
100
AcDbSymbolTableRecord
100
AcDbLayerTableRecord
  2
DEFAULT_3
 70
0
 62
7
  6
PHANTOM
370
-3
390
F
  0
LAYER
  5
1FD
100
AcDbSymbolTableRecord
100
AcDbLayerTableRecord
  2
ASSI
 70
0
 62
7
  6
CONTINUOUS
370
-3
390
F
  0
LAYER
  5
1FE
100
AcDbSymbolTableRecord
100
AcDbLayerTableRecord
  2
COLOR5
 70
0
 62
7
  6
CONTINUOUS
370
-3
390
F
  0
LAYER
  5
1FF
100
AcDbSymbolTableRecord
100
AcDbLayerTableRecord
  2
COORDINATE
 70
0
 62
7
  6
CONTINUOUS
370
-3
390
F
  0
LAYER
  5
200
100
AcDbSymbolTableRecord
100
AcDbLayerTableRecord
  2
COORD_ORIGINE
 70
0
 62
7
  6
CONTINUOUS
370
-3
390
F
  0
LAYER
  5
201
100
AcDbSymbolTableRecord
100
AcDbLayerTableRecord
  2
COSMETICHE
 70
0
 62
7
  6
CONTINUOUS
370
-3
390
F
  0
LAYER
  5
202
100
AcDbSymbolTableRecord
100
AcDbLayerTableRecord
  2
CURVE
 70
0
 62
7
  6
CONTINUOUS
370
-3
390
F
  0
LAYER
  5
203
100
AcDbSymbolTableRecord
100
AcDbLayerTableRecord
  2
DRAFT
 70
0
 62
7
  6
CONTINUOUS
370
-3
390
F
  0
LAYER
  5
204
100
AcDbSymbolTableRecord
100
AcDbLayerTableRecord
  2
IGES
 70
0
 62
7
  6
CONTINUOUS
370
-3
390
F
  0
LAYER
  5
205
100
AcDbSymbolTableRecord
100
AcDbLayerTableRecord
  2
IMPORT
 70
0
 62
7
  6
CONTINUOUS
370
-3
390
F
  0
LAYER
  5
206
100
AcDbSymbolTableRecord
100
AcDbLayerTableRecord
  2
IMPORT_IGES
 70
0
 62
7
  6
CONTINUOUS
370
-3
390
F
  0
LAYER
  5
207
100
AcDbSymbolTableRecord
100
AcDbLayerTableRecord
  2
INTF_1
 70
0
 62
7
  6
CONTINUOUS
370
-3
390
F
  0
LAYER
  5
208
100
AcDbSymbolTableRecord
100
AcDbLayerTableRecord
  2
INTF_11
 70
0
 62
7
  6
CONTINUOUS
370
-3
390
F
  0
LAYER
  5
209
100
AcDbSymbolTableRecord
100
AcDbLayerTableRecord
  2
INTF_2
 70
0
 62
7
  6
CONTINUOUS
370
-3
390
F
  0
LAYER
  5
20A
100
AcDbSymbolTableRecord
100
AcDbLayerTableRecord
  2
NOTE
 70
0
 62
7
  6
CONTINUOUS
370
-3
390
F
  0
LAYER
  5
20B
100
AcDbSymbolTableRecord
100
AcDbLayerTableRecord
  2
PIANI
 70
0
 62
7
  6
CONTINUOUS
370
-3
390
F
  0
LAYER
  5
20C
100
AcDbSymbolTableRecord
100
AcDbLayerTableRecord
  2
PIANI_ASSIEME
 70
0
 62
7
  6
CONTINUOUS
370
-3
390
F
  0
LAYER
  5
20D
100
AcDbSymbolTableRecord
100
AcDbLayerTableRecord
  2
PIANI_ORIGINE
 70
0
 62
7
  6
CONTINUOUS
370
-3
390
F
  0
LAYER
  5
20E
100
AcDbSymbolTableRecord
100
AcDbLayerTableRecord
  2
PUNTI
 70
0
 62
7
  6
CONTINUOUS
370
-3
390
F
  0
LAYER
  5
20F
100
AcDbSymbolTableRecord
100
AcDbLayerTableRecord
  2
RACCORDO
 70
0
 62
7
  6
CONTINUOUS
370
-3
390
F
  0
LAYER
  5
210
100
AcDbSymbolTableRecord
100
AcDbLayerTableRecord
  2
RGB____0____0____0__
 70
0
 62
7
  6
CONTINUOUS
370
-3
390
F
  0
LAYER
  5
211
100
AcDbSymbolTableRecord
100
AcDbLayerTableRecord
  2
SMUSSO
 70
0
 62
7
  6
CONTINUOUS
370
-3
390
F
  0
LAYER
  5
212
100
AcDbSymbolTableRecord
100
AcDbLayerTableRecord
  2
SNAPLINE
 70
0
 62
7
  6
CONTINUOUS
370
-3
390
F
  0
LAYER
  5
213
100
AcDbSymbolTableRecord
100
AcDbLayerTableRecord
  2
SUPERFICI
 70
0
 62
7
  6
CONTINUOUS
370
-3
390
F
  0
LAYER
  5
214
100
AcDbSymbolTableRecord
100
AcDbLayerTableRecord
  2
TRASH
 70
0
 62
7
  6
CONTINUOUS
370
-3
390
F
  0
LAYER
  5
215
100
AcDbSymbolTableRecord
100
AcDbLayerTableRecord
  2
XSEC_DATUMS
 70
0
 62
7
  6
CONTINUOUS
370
-3
390
F
  0
ENDTAB
  0
TABLE
  2
STYLE
  5
3
100
AcDbSymbolTable
 70
1
  0
STYLE
  5
11
100
AcDbSymbolTableRecord
100
AcDbTextStyleTableRecord
  2
STANDARD
 70
0
 40
0.0
 41
0.8
 50
0.0
 71
0
 42
0.2
  3
txt
  4

  0
STYLE
  5
216
100
AcDbSymbolTableRecord
100
AcDbTextStyleTableRecord
  2
TEXTSTYLE_1
 70
0
 40
0.0
 41
0.8
 50
0.0
 71
0
 42
0.2
  3
gdt
  4

  0
ENDTAB
  0
TABLE
  2
VIEW
  5
6
100
AcDbSymbolTable
 70
0
  0
ENDTAB
  0
TABLE
  2
UCS
  5
7
100
AcDbSymbolTable
 70
0
  0
ENDTAB
  0
TABLE
  2
APPID
  5
9
100
AcDbSymbolTable
 70
1
  0
APPID
  5
217
100
AcDbSymbolTableRecord
100
AcDbRegAppTableRecord
  2
ACAD
 70
0
  0
ENDTAB
  0
TABLE
  2
BLOCK_RECORD
  5
1
100
AcDbSymbolTable
 70
0
  0
BLOCK_RECORD
  5
218
100
AcDbSymbolTableRecord
100
AcDbBlockTableRecord
  2
*Model_Space
  0
BLOCK_RECORD
  5
219
100
AcDbSymbolTableRecord
100
AcDbBlockTableRecord
  2
*Paper_Space
  0
BLOCK_RECORD
  5
21A
100
AcDbSymbolTableRecord
100
AcDbBlockTableRecord
  2
_FILLED
  0
BLOCK_RECORD
  5
21B
100
AcDbSymbolTableRecord
100
AcDbBlockTableRecord
  2
*D0
  0
BLOCK_RECORD
  5
21C
100
AcDbSymbolTableRecord
100
AcDbBlockTableRecord
  2
*D1
  0
BLOCK_RECORD
  5
21D
100
AcDbSymbolTableRecord
100
AcDbBlockTableRecord
  2
*D2
  0
BLOCK_RECORD
  5
21E
100
AcDbSymbolTableRecord
100
AcDbBlockTableRecord
  2
*D3
  0
BLOCK_RECORD
  5
21F
100
AcDbSymbolTableRecord
100
AcDbBlockTableRecord
  2
*D4
  0
ENDTAB
  0
TABLE
  2
DIMSTYLE
  5
A
100
AcDbSymbolTable
 70
1
100
AcDbDimStyleTable
 71
0
  0
DIMSTYLE
105
220
100
AcDbSymbolTableRecord
100
AcDbDimStyleTableRecord
  2
STANDARD
 70
0
  3

  4

 40
1.0
 41
3.0
 42
0.5
 43
0.38
 44
1.5
 45
0.0
 46
0.0
 47
0.01
 48
0.01
140
3.0
141
0.09
142
0.0
143
25.4
144
1.0
145
0.0
146
1.0
147
0.625
 71
1
 72
0
 73
0
 74
0
 75
0
 76
0
 77
1
 78
8
 79
2
170
0
171
1
172
0
173
0
174
0
175
0
176
0
177
0
178
0
270
2
179
2
271
2
272
2
273
2
274
2
275
0
280
0
281
0
282
0
283
1
284
8
285
0
286
0
287
3
288
0
340
11
278
44
341
21A
342
21A
343
21A
344
21A
  0
DIMSTYLE
105
221
100
AcDbSymbolTableRecord
100
AcDbDimStyleTableRecord
  2
DIMSTYLE_1
 70
0
  3

  4

 40
1.0
 41
3.0
 42
0.5
 43
0.38
 44
1.5
 45
0.0
 46
0.0
 47
0.0
 48
0.0
140
3.0
141
0.09
142
0.0
143
25.4
144
1.0
145
0.0
146
1.0
147
0.75
 71
0
 72
0
 73
0
 74
0
 75
0
 76
0
 77
1
 78
8
 79
2
170
0
171
1
172
0
173
0
174
0
175
0
176
0
177
0
178
0
270
2
179
2
271
1
272
1
273
2
274
2
275
0
280
0
281
0
282
0
283
1
284
8
285
0
286
0
287
3
288
0
340
11
278
44
341
21A
342
21A
343
21A
344
21A
  0
ENDTAB
  0
ENDSEC
  0
SECTION
  2
BLOCKS
  0
BLOCK
  5
20
100
AcDbEntity
  8
0
100
AcDbBlockBegin
  2
*Model_Space
 70
0
 10
0.0
 20
0.0
 30
0.0
  3
*Model_Space
  1

  0
ENDBLK
  5
21
100
AcDbEntity
  8
0
100
AcDbBlockEnd
  0
BLOCK
  5
1C
100
AcDbEntity
  8
0
100
AcDbBlockBegin
  2
*Paper_Space
 70
0
 10
0.0
 20
0.0
 30
0.0
  3
*Paper_Space
  1

  0
ENDBLK
  5
1D
100
AcDbEntity
  8
0
100
AcDbBlockEnd
  0
BLOCK
  5
222
100
AcDbEntity
  8
0
100
AcDbBlockBegin
  2
_FILLED
 70
64
 10
0.0
 20
0.0
  3
_FILLED
  1

  0
SOLID
  5
223
100
AcDbEntity
  8
0
  6
BYBLOCK
 62
0
100
AcDbTrace
 10
0.0
 20
0.0
 11
-1.0
 21
0.3166666667
 12
-1.0
 22
-0.3166666667
 13
-1.0
 23
-0.3166666667
  0
ENDBLK
  5
224
100
AcDbEntity
  8
0
  6
BYBLOCK
 62
0
100
AcDbBlockEnd
  0
BLOCK
  5
225
100
AcDbEntity
  8
0
100
AcDbBlockBegin
 62
7
  6
CONTINUOUS
  2
*D0
 70
65
 10
0.0
 20
0.0
  3
*D0
  1

  0
LINE
  5
226
100
AcDbEntity
  8
0
100
AcDbLine
 62
7
  6
CONTINUOUS
 10
-41.4254036235
 20
-17.1380392387
 11
-41.4254036235
 21
54.5
  0
LINE
  5
227
100
AcDbEntity
  8
0
100
AcDbLine
 62
7
  6
CONTINUOUS
 10
-102.2081499862
 20
24.3143534016
 11
-102.2081499862
 21
54.5
  0
LINE
  5
228
100
AcDbEntity
  8
0
100
AcDbLine
 62
7
  6
CONTINUOUS
 10
-41.4254036235
 20
53.0
 11
-71.8167768049
 21
53.0
  0
LINE
  5
229
100
AcDbEntity
  8
0
100
AcDbLine
 62
7
  6
CONTINUOUS
 10
-102.2081499862
 20
53.0
 11
-71.8167768049
 21
53.0
  0
INSERT
  5
22A
100
AcDbEntity
  8
0
100
AcDbBlockReference
 62
7
  6
CONTINUOUS
  2
_FILLED
 10
-41.4254036235
 20
53.0
 41
3.0
 42
3.0
 43
3.0
  0
INSERT
  5
22B
100
AcDbEntity
  8
0
100
AcDbBlockReference
 62
7
  6
CONTINUOUS
  2
_FILLED
 10
-102.2081499862
 20
53.0
 41
3.0
 42
3.0
 43
3.0
 50
180.0
  0
ENDBLK
  5
22C
100
AcDbEntity
  8
0
  6
BYBLOCK
 62
0
100
AcDbBlockEnd
  0
BLOCK
  5
22D
100
AcDbEntity
  8
0
100
AcDbBlockBegin
 62
7
  6
CONTINUOUS
  2
*D1
 70
65
 10
0.0
 20
0.0
  3
*D1
  1

  0
LINE
  5
22E
100
AcDbEntity
  8
0
100
AcDbLine
 62
7
  6
CONTINUOUS
 10
-26.2
 20
34.5000380769
 11
-26.2
 21
44.5
  0
LINE
  5
22F
100
AcDbEntity
  8
0
100
AcDbLine
 62
7
  6
CONTINUOUS
 10
26.2
 20
34.5000380769
 11
26.2
 21
44.5
  0
LINE
  5
230
100
AcDbEntity
  8
0
100
AcDbLine
 62
7
  6
CONTINUOUS
 10
-26.2
 20
43.0
 11
0.0
 21
43.0
  0
LINE
  5
231
100
AcDbEntity
  8
0
100
AcDbLine
 62
7
  6
CONTINUOUS
 10
26.2
 20
43.0
 11
0.0
 21
43.0
  0
INSERT
  5
232
100
AcDbEntity
  8
0
100
AcDbBlockReference
 62
7
  6
CONTINUOUS
  2
_FILLED
 10
-26.2
 20
43.0
 41
3.0
 42
3.0
 43
3.0
 50
180.0
  0
INSERT
  5
233
100
AcDbEntity
  8
0
100
AcDbBlockReference
 62
7
  6
CONTINUOUS
  2
_FILLED
 10
26.2
 20
43.0
 41
3.0
 42
3.0
 43
3.0
  0
ENDBLK
  5
234
100
AcDbEntity
  8
0
  6
BYBLOCK
 62
0
100
AcDbBlockEnd
  0
BLOCK
  5
235
100
AcDbEntity
  8
0
100
AcDbBlockBegin
 62
7
  6
CONTINUOUS
  2
*D2
 70
65
 10
0.0
 20
0.0
  3
*D2
  1

  0
LINE
  5
236
100
AcDbEntity
  8
0
100
AcDbLine
 62
7
  6
CONTINUOUS
 10
11.0999619231
 20
35.0
 11
35.8000009595
 21
35.0
  0
LINE
  5
237
100
AcDbEntity
  8
0
100
AcDbLine
 62
7
  6
CONTINUOUS
 10
20.4825462644
 20
-30.9825462644
 11
35.8000009595
 21
-30.9825462644
  0
LINE
  5
238
100
AcDbEntity
  8
0
100
AcDbLine
 62
7
  6
CONTINUOUS
 10
34.3000009595
 20
35.0
 11
34.3000009595
 21
2.0087268678
  0
LINE
  5
239
100
AcDbEntity
  8
0
100
AcDbLine
 62
7
  6
CONTINUOUS
 10
34.3000009595
 20
-30.9825462644
 11
34.3000009595
 21
2.0087268678
  0
INSERT
  5
23A
100
AcDbEntity
  8
0
100
AcDbBlockReference
 62
7
  6
CONTINUOUS
  2
_FILLED
 10
34.3000009595
 20
35.0
 41
3.0
 42
3.0
 43
3.0
 50
90.0
  0
INSERT
  5
23B
100
AcDbEntity
  8
0
100
AcDbBlockReference
 62
7
  6
CONTINUOUS
  2
_FILLED
 10
34.3000009595
 20
-30.9825462644
 41
3.0
 42
3.0
 43
3.0
 50
270.0
  0
ENDBLK
  5
23C
100
AcDbEntity
  8
0
  6
BYBLOCK
 62
0
100
AcDbBlockEnd
  0
BLOCK
  5
23D
100
AcDbEntity
  8
0
100
AcDbBlockBegin
 62
7
  6
CONTINUOUS
  2
*D3
 70
65
 10
0.0
 20
0.0
  3
*D3
  1

  0
LINE
  5
23E
100
AcDbEntity
  8
0
100
AcDbLine
 62
7
  6
CONTINUOUS
 10
11.0999619231
 20
35.0
 11
45.8000009595
 21
35.0
  0
LINE
  5
23F
100
AcDbEntity
  8
0
100
AcDbLine
 62
7
  6
CONTINUOUS
 10
5.5
 20
-34.9694559627
 11
45.8000009595
 21
-34.9694559627
  0
LINE
  5
240
100
AcDbEntity
  8
0
100
AcDbLine
 62
7
  6
CONTINUOUS
 10
44.3000009595
 20
35.0
 11
44.3000009595
 21
0.0152720186
  0
LINE
  5
241
100
AcDbEntity
  8
0
100
AcDbLine
 62
7
  6
CONTINUOUS
 10
44.3000009595
 20
-34.9694559627
 11
44.3000009595
 21
0.0152720186
  0
INSERT
  5
242
100
AcDbEntity
  8
0
100
AcDbBlockReference
 62
7
  6
CONTINUOUS
  2
_FILLED
 10
44.3000009595
 20
35.0
 41
3.0
 42
3.0
 43
3.0
 50
90.0
  0
INSERT
  5
243
100
AcDbEntity
  8
0
100
AcDbBlockReference
 62
7
  6
CONTINUOUS
  2
_FILLED
 10
44.3000009595
 20
-34.9694559627
 41
3.0
 42
3.0
 43
3.0
 50
270.0
  0
ENDBLK
  5
244
100
AcDbEntity
  8
0
  6
BYBLOCK
 62
0
100
AcDbBlockEnd
  0
BLOCK
  5
245
100
AcDbEntity
  8
0
100
AcDbBlockBegin
 62
7
  6
CONTINUOUS
  2
*D4
 70
65
 10
0.0
 20
0.0
  3
*D4
  1

  0
LINE
  5
246
100
AcDbEntity
  8
0
100
AcDbLine
 62
7
  6
CONTINUOUS
 10
-46.4254036235
 20
34.4825843414
 11
-46.4254036235
 21
44.5
  0
LINE
  5
247
100
AcDbEntity
  8
0
100
AcDbLine
 62
7
  6
CONTINUOUS
 10
-90.0254036235
 20
31.608621664
 11
-90.0254036235
 21
44.5
  0
LINE
  5
248
100
AcDbEntity
  8
0
100
AcDbLine
 62
7
  6
CONTINUOUS
 10
-46.4254036235
 20
43.0
 11
-68.2254036235
 21
43.0
  0
LINE
  5
249
100
AcDbEntity
  8
0
100
AcDbLine
 62
7
  6
CONTINUOUS
 10
-90.0254036235
 20
43.0
 11
-68.2254036235
 21
43.0
  0
INSERT
  5
24A
100
AcDbEntity
  8
0
100
AcDbBlockReference
 62
7
  6
CONTINUOUS
  2
_FILLED
 10
-46.4254036235
 20
43.0
 41
3.0
 42
3.0
 43
3.0
  0
INSERT
  5
24B
100
AcDbEntity
  8
0
100
AcDbBlockReference
 62
7
  6
CONTINUOUS
  2
_FILLED
 10
-90.0254036235
 20
43.0
 41
3.0
 42
3.0
 43
3.0
 50
180.0
  0
ENDBLK
  5
24C
100
AcDbEntity
  8
0
  6
BYBLOCK
 62
0
100
AcDbBlockEnd
  0
ENDSEC
  0
SECTION
  2
ENTITIES
  0
DIMENSION
  5
24D
100
AcDbEntity
  8
0
100
AcDbDimension
 62
7
  6
CONTINUOUS
  2
*D0
 10
-102.2081499862
 20
53.0
 11
-76.2096339477
 21
53.0
 70
160
 71
2
 72
2
 41
0.9
 42
60.7827463627
  3
DIMSTYLE_1
100
AcDbAlignedDimension
 13
-41.4254036235
 23
-17.6380392387
 14
-102.2081499862
 24
23.8143534016
 50
180.0
100
AcDbRotatedDimension
  0
DIMENSION
  5
24E
100
AcDbEntity
  8
0
100
AcDbDimension
 62
7
  6
CONTINUOUS
  2
*D1
 10
26.2
 20
43.0
 11
-4.2857142857
 21
43.0
 70
160
 71
2
 72
2
 41
0.9
 42
52.4
  3
DIMSTYLE_1
100
AcDbAlignedDimension
 13
-26.2
 23
34.0000380769
 14
26.2
 24
34.0000380769
100
AcDbRotatedDimension
  0
DIMENSION
  5
24F
100
AcDbEntity
  8
0
100
AcDbDimension
 62
7
  6
CONTINUOUS
  2
*D2
 10
34.3000009595
 20
-30.9825462644
 11
34.3000009595
 21
-0.3484159894
 70
160
 71
2
 72
2
 41
0.9
 42
65.9825462644
  3
DIMSTYLE_1
100
AcDbAlignedDimension
 13
10.5999619231
 23
35.0
 14
19.9825462644
 24
-30.9825462644
 50
270.0
100
AcDbRotatedDimension
  0
DIMENSION
  5
250
100
AcDbEntity
  8
0
100
AcDbDimension
 62
7
  6
CONTINUOUS
  2
*D3
 10
44.3000009595
 20
-34.9694559627
 11
44.3000009595
 21
-2.3418708385
 70
160
 71
2
 72
2
 41
0.9
 42
69.9694559627
  3
DIMSTYLE_1
100
AcDbAlignedDimension
 13
10.5999619231
 23
35.0
 14
5.0
 24
-34.9694559627
 50
270.0
100
AcDbRotatedDimension
  0
DIMENSION
  5
251
100
AcDbEntity
  8
0
100
AcDbDimension
 62
7
  6
CONTINUOUS
  2
*D4
 10
-90.0254036235
 20
43.0
 11
-72.5111179092
 21
43.0
 70
160
 71
2
 72
2
 41
0.9
 42
43.6
  3
DIMSTYLE_1
100
AcDbAlignedDimension
 13
-46.4254036235
 23
33.9825843414
 14
-90.0254036235
 24
31.108621664
 50
180.0
100
AcDbRotatedDimension
  0
LINE
  5
252
100
AcDbEntity
  8
RACCORDO
100
AcDbLine
 62
7
  6
CONTINUOUS
 10
-18.2896482235
 20
32.1086155717
 11
-18.1790886568
 21
32.1749508327
  0
LINE
  5
253
100
AcDbEntity
  8
RACCORDO
100
AcDbLine
 62
7
  6
CONTINUOUS
 10
-17.9418217019
 20
32.25
 11
-17.9883645373
 21
32.2220745004
  0
LINE
  5
254
100
AcDbEntity
  8
RACCORDO
100
AcDbLine
 62
7
  6
CONTINUOUS
 10
8.0000380769
 20
-35.0
 11
5.0305440373
 21
-35.0
  0
LINE
  5
255
100
AcDbEntity
  8
RACCORDO
100
AcDbLine
 62
7
  6
CONTINUOUS
 10
-5.0305440373
 20
-35.0
 11
-8.0000380769
 21
-35.0
  0
LINE
  5
256
100
AcDbEntity
  8
DRAFT
100
AcDbLine
 62
7
  6
CONTINUOUS
 10
-5.0
 20
-34.9694559627
 11
5.0
 21
-34.9694559627
  0
LINE
  5
257
100
AcDbEntity
  8
RACCORDO
100
AcDbLine
 62
250
  6
CONTINUOUS
 10
-10.6174156586
 20
34.9825462644
 11
-10.5999619231
 21
35.0
  0
LINE
  5
258
100
AcDbEntity
  8
RACCORDO
100
AcDbLine
 62
7
  6
CONTINUOUS
 10
2.5131093402
 20
-33.0130903017
 11
-2.5131093402
 21
-33.0130903017
  0
LINE
  5
259
100
AcDbEntity
  8
RACCORDO
100
AcDbLine
 62
7
  6
CONTINUOUS
 10
2.5000190385
 20
-33.0
 11
-2.5000190385
 21
-33.0
  0
LINE
  5
25A
100
AcDbEntity
  8
RACCORDO
100
AcDbLine
 62
7
  6
CONTINUOUS
 10
-18.2896482235
 20
-28.1086155717
 11
-18.1790886568
 21
-28.1749508327
  0
LINE
  5
25B
100
AcDbEntity
  8
RACCORDO
100
AcDbLine
 62
7
  6
CONTINUOUS
 10
-17.9418217019
 20
-28.25
 11
-17.9883645373
 21
-28.2220745004
  0
LINE
  5
25C
100
AcDbEntity
  8
RACCORDO
100
AcDbLine
 62
250
  6
CONTINUOUS
 10
-9.6174537356
 20
33.9825843414
 11
-9.6
 21
34.0000380769
  0
LINE
  5
25D
100
AcDbEntity
  8
RACCORDO
100
AcDbLine
 62
7
  6
CONTINUOUS
 10
-4.2418217019
 20
32.25
 11
-4.2883645373
 21
32.2220745004
  0
LINE
  5
25E
100
AcDbEntity
  8
RACCORDO
100
AcDbLine
 62
250
  6
CONTINUOUS
 10
25.2420178406
 20
-28.1051310056
 11
25.158621664
 21
-28.1086155717
  0
LINE
  5
25F
100
AcDbEntity
  8
RACCORDO
100
AcDbLine
 62
7
  6
CONTINUOUS
 10
-25.2000380769
 20
-31.0
 11
25.2000380769
 21
-31.0
  0
LINE
  5
260
100
AcDbEntity
  8
RACCORDO
100
AcDbLine
 62
7
  6
CONTINUOUS
 10
-19.9825462644
 20
-30.9825462644
 11
-10.6
 21
-30.9825462644
  0
LINE
  5
261
100
AcDbEntity
  8
RACCORDO
100
AcDbLine
 62
7
  6
CONTINUOUS
 10
10.6
 20
-30.9825462644
 11
19.9825462644
 21
-30.9825462644
  0
LINE
  5
262
100
AcDbEntity
  8
DRAFT
100
AcDbLine
 62
7
  6
CONTINUOUS
 10
9.1174537356
 20
-29.2674537356
 11
7.0325462644
 21
-29.2674537356
  0
LINE
  5
263
100
AcDbEntity
  8
DRAFT
100
AcDbLine
 62
7
  6
CONTINUOUS
 10
-7.0325462644
 20
-29.2674537356
 11
-9.1174537356
 21
-29.2674537356
  0
LINE
  5
264
100
AcDbEntity
  8
DRAFT
100
AcDbLine
 62
7
  6
CONTINUOUS
 10
-16.5165810488
 20
-29.2665810488
 11
-12.4834189512
 21
-29.2665810488
  0
LINE
  5
265
100
AcDbEntity
  8
DRAFT
100
AcDbLine
 62
7
  6
CONTINUOUS
 10
12.4834189512
 20
-29.2665810488
 11
16.5165810488
 21
-29.2665810488
  0
LINE
  5
266
100
AcDbEntity
  8
DRAFT
100
AcDbLine
 62
7
  6
CONTINUOUS
 10
-16.5
 20
-29.25
 11
-12.5
 21
-29.25
  0
LINE
  5
267
100
AcDbEntity
  8
DRAFT
100
AcDbLine
 62
7
  6
CONTINUOUS
 10
9.1
 20
-29.25
 11
7.05
 21
-29.25
  0
LINE
  5
268
100
AcDbEntity
  8
DRAFT
100
AcDbLine
 62
7
  6
CONTINUOUS
 10
-7.05
 20
-29.25
 11
-9.1
 21
-29.25
  0
LINE
  5
269
100
AcDbEntity
  8
DRAFT
100
AcDbLine
 62
7
  6
CONTINUOUS
 10
12.5
 20
-29.25
 11
16.5
 21
-29.25
  0
LINE
  5
26A
100
AcDbEntity
  8
DRAFT
100
AcDbLine
 62
7
  6
CONTINUOUS
 10
-9.0
 20
-29.2290555173
 11
-9.1
 21
-29.2290555173
  0
LINE
  5
26B
100
AcDbEntity
  8
DRAFT
100
AcDbLine
 62
7
  6
CONTINUOUS
 10
9.0
 20
-29.2290555173
 11
9.1
 21
-29.2290555173
  0
LINE
  5
26C
100
AcDbEntity
  8
DRAFT
100
AcDbLine
 62
7
  6
CONTINUOUS
 10
-12.4834189512
 20
-29.2665810488
 11
-12.5
 21
-29.25
  0
LINE
  5
26D
100
AcDbEntity
  8
RACCORDO
100
AcDbLine
 62
250
  6
CONTINUOUS
 10
-26.1231319345
 20
-19.8699135558
 11
-26.1251408483
 21
-19.8251438945
  0
LINE
  5
26E
100
AcDbEntity
  8
RACCORDO
100
AcDbLine
 62
250
  6
CONTINUOUS
 10
-26.1551310056
 20
-27.1920178406
 11
-26.1586155717
 21
-27.108621664
  0
LINE
  5
26F
100
AcDbEntity
  8
SMUSSO
100
AcDbLine
 62
7
  6
CONTINUOUS
 10
-26.2964891058
 20
30.244206984
 11
-26.3
 21
31.25
  0
LINE
  5
270
100
AcDbEntity
  8
RACCORDO
100
AcDbLine
 62
7
  6
CONTINUOUS
 10
-26.3
 20
-27.2500060923
 11
-26.3
 21
-23.0
  0
LINE
  5
271
100
AcDbEntity
  8
RACCORDO
100
AcDbLine
 62
7
  6
CONTINUOUS
 10
-26.2
 20
34.0000380769
 11
-26.2
 21
31.6824461278
  0
LINE
  5
272
100
AcDbEntity
  8
RACCORDO
100
AcDbLine
 62
7
  6
CONTINUOUS
 10
-26.2
 20
29.6100467498
 11
-26.2
 21
-18.0
  0
LINE
  5
273
100
AcDbEntity
  8
RACCORDO
100
AcDbLine
 62
7
  6
CONTINUOUS
 10
-26.2
 20
-27.6824458613
 11
-26.2
 21
-30.0000380769
  0
LINE
  5
274
100
AcDbEntity
  8
RACCORDO
100
AcDbLine
 62
7
  6
CONTINUOUS
 10
-26.1900438105
 20
25.0972863359
 11
-26.1900438105
 21
-18.0
  0
LINE
  5
275
100
AcDbEntity
  8
RACCORDO
100
AcDbLine
 62
7
  6
CONTINUOUS
 10
-26.1586155717
 20
-27.108621664
 11
-26.1586155717
 21
-19.8586186178
  0
LINE
  5
276
100
AcDbEntity
  8
RACCORDO
100
AcDbLine
 62
7
  6
CONTINUOUS
 10
-26.1586155717
 20
23.8586186178
 11
-26.1586155717
 21
31.108621664
  0
LINE
  5
277
100
AcDbEntity
  8
RACCORDO
100
AcDbLine
 62
7
  6
CONTINUOUS
 10
-26.1251408483
 20
-19.8251438945
 11
-26.1251408483
 21
23.8251438945
  0
LINE
  5
278
100
AcDbEntity
  8
RACCORDO
100
AcDbLine
 62
7
  6
CONTINUOUS
 10
-25.3000060923
 20
-28.25
 11
-22.0581782981
 21
-28.25
  0
LINE
  5
279
100
AcDbEntity
  8
DRAFT
100
AcDbLine
 62
7
  6
CONTINUOUS
 10
-9.6
 20
-28.25
 11
-8.3581782981
 21
-28.25
  0
LINE
  5
27A
100
AcDbEntity
  8
DRAFT
100
AcDbLine
 62
7
  6
CONTINUOUS
 10
-4.2418217019
 20
-28.25
 11
4.2418217019
 21
-28.25
  0
LINE
  5
27B
100
AcDbEntity
  8
DRAFT
100
AcDbLine
 62
7
  6
CONTINUOUS
 10
8.3581782981
 20
-28.25
 11
9.6
 21
-28.25
  0
LINE
  5
27C
100
AcDbEntity
  8
DRAFT
100
AcDbLine
 62
7
  6
CONTINUOUS
 10
12.5
 20
-28.25
 11
16.5
 21
-28.25
  0
LINE
  5
27D
100
AcDbEntity
  8
DRAFT
100
AcDbLine
 62
7
  6
CONTINUOUS
 10
-12.5
 20
-28.25
 11
-16.5
 21
-28.25
  0
LINE
  5
27E
100
AcDbEntity
  8
RACCORDO
100
AcDbLine
 62
7
  6
CONTINUOUS
 10
22.0581782981
 20
-28.25
 11
25.3000060923
 21
-28.25
  0
LINE
  5
27F
100
AcDbEntity
  8
RACCORDO
100
AcDbLine
 62
7
  6
CONTINUOUS
 10
25.158621664
 20
-28.1086155717
 11
18.2896482235
 21
-28.1086155717
  0
LINE
  5
280
100
AcDbEntity
  8
RACCORDO
100
AcDbLine
 62
7
  6
CONTINUOUS
 10
8.0103517765
 20
-28.1086155717
 11
-8.0103517765
 21
-28.1086155717
  0
LINE
  5
281
100
AcDbEntity
  8
RACCORDO
100
AcDbLine
 62
7
  6
CONTINUOUS
 10
-18.2896482235
 20
-28.1086155717
 11
-25.158621664
 21
-28.1086155717
  0
LINE
  5
282
100
AcDbEntity
  8
RACCORDO
100
AcDbLine
 62
250
  6
CONTINUOUS
 10
26.1586155717
 20
-27.108621664
 11
18.2954457453
 21
-27.108621664
  0
LINE
  5
283
100
AcDbEntity
  8
RACCORDO
100
AcDbLine
 62
250
  6
CONTINUOUS
 10
8.0045542547
 20
-27.108621664
 11
-8.0045542547
 21
-27.108621664
  0
LINE
  5
284
100
AcDbEntity
  8
RACCORDO
100
AcDbLine
 62
250
  6
CONTINUOUS
 10
-18.2954457453
 20
-27.108621664
 11
-26.1586155717
 21
-27.108621664
  0
LINE
  5
285
100
AcDbEntity
  8
DRAFT
100
AcDbLine
 62
7
  6
CONTINUOUS
 10
18.2954457453
 20
-26.25
 11
8.0045542547
 21
-26.25
  0
LINE
  5
286
100
AcDbEntity
  8
DRAFT
100
AcDbLine
 62
7
  6
CONTINUOUS
 10
-8.0045542547
 20
-26.25
 11
-18.2954457453
 21
-26.25
  0
LINE
  5
287
100
AcDbEntity
  8
RACCORDO
100
AcDbLine
 62
7
  6
CONTINUOUS
 10
-4.2418217019
 20
-28.25
 11
-4.2883645373
 21
-28.2220745004
  0
LINE
  5
288
100
AcDbEntity
  8
RACCORDO
100
AcDbLine
 62
250
  6
CONTINUOUS
 10
-25.6959962745
 20
-19.8251438945
 11
-25.6959962745
 21
23.8251438945
  0
LINE
  5
289
100
AcDbEntity
  8
RACCORDO
100
AcDbLine
 62
250
  6
CONTINUOUS
 10
-25.4531436423
 20
10.9258987375
 11
-25.4531436423
 21
-6.9258987375
  0
LINE
  5
28A
100
AcDbEntity
  8
RACCORDO
100
AcDbLine
 62
250
  6
CONTINUOUS
 10
-25.158621664
 20
-28.1086155717
 11
-25.158621664
 21
-20.3551370837
  0
LINE
  5
28B
100
AcDbEntity
  8
RACCORDO
100
AcDbLine
 62
250
  6
CONTINUOUS
 10
-25.158621664
 20
24.3551370837
 11
-25.158621664
 21
32.1086155717
  0
LINE
  5
28C
100
AcDbEntity
  8
RACCORDO
100
AcDbLine
 62
250
  6
CONTINUOUS
 10
-24.4257464327
 20
10.9258987375
 11
-24.4257464327
 21
-6.9258987375
  0
LINE
  5
28D
100
AcDbEntity
  8
RACCORDO
100
AcDbLine
 62
7
  6
CONTINUOUS
 10
-24.2730841559
 20
10.7732364608
 11
-24.2730841559
 21
-6.7732364608
  0
LINE
  5
28E
100
AcDbEntity
  8
RACCORDO
100
AcDbLine
 62
7
  6
CONTINUOUS
 10
8.0103517765
 20
32.1086155717
 11
8.1209113432
 21
32.1749508327
  0
LINE
  5
28F
100
AcDbEntity
  8
DRAFT
100
AcDbLine
 62
7
  6
CONTINUOUS
 10
1.8645445745
 20
-24.0145445745
 11
-1.8645445745
 21
-24.0145445745
  0
LINE
  5
290
100
AcDbEntity
  8
DRAFT
100
AcDbLine
 62
7
  6
CONTINUOUS
 10
1.8
 20
-24.0
 11
-1.8
 21
-24.0
  0
LINE
  5
291
100
AcDbEntity
  8
DRAFT
100
AcDbLine
 62
7
  6
CONTINUOUS
 10
1.8174537356
 20
-23.9825462644
 11
-1.8174537356
 21
-23.9825462644
  0
LINE
  5
292
100
AcDbEntity
  8
RACCORDO
100
AcDbLine
 62
7
  6
CONTINUOUS
 10
-26.3
 20
-23.0
 11
-26.2074971739
 21
-23.0
  0
LINE
  5
293
100
AcDbEntity
  8
DRAFT
100
AcDbLine
 62
7
  6
CONTINUOUS
 10
-7.05
 20
-29.25
 11
-7.0325462644
 21
-29.2674537356
  0
LINE
  5
294
100
AcDbEntity
  8
RACCORDO
100
AcDbLine
 62
250
  6
CONTINUOUS
 10
-3.0
 20
-31.4999809615
 11
-3.0130903017
 21
-31.4868906598
  0
LINE
  5
295
100
AcDbEntity
  8
DRAFT
100
AcDbLine
 62
7
  6
CONTINUOUS
 10
-1.8
 20
28.0
 11
-1.8174537356
 21
27.9825462644
  0
LINE
  5
296
100
AcDbEntity
  8
RACCORDO
100
AcDbLine
 62
250
  6
CONTINUOUS
 10
-2.9303310448
 20
24.3156634558
 11
-2.8645411899
 21
24.3551370837
  0
LINE
  5
297
100
AcDbEntity
  8
RACCORDO
100
AcDbLine
 62
250
  6
CONTINUOUS
 10
-1.9238519359
 20
23.3195671392
 11
-1.8645445745
 21
23.3551512991
  0
LINE
  5
298
100
AcDbEntity
  8
RACCORDO
100
AcDbLine
 62
250
  6
CONTINUOUS
 10
25.6364115523
 20
-20.325013734
 11
25.6251438945
 21
-20.3251408483
  0
LINE
  5
299
100
AcDbEntity
  8
RACCORDO
100
AcDbLine
 62
7
  6
CONTINUOUS
 10
-4.1363770467
 20
-20.3144031845
 11
-25.6251438945
 21
-20.3251408483
  0
LINE
  5
29A
100
AcDbEntity
  8
DRAFT
100
AcDbLine
 62
7
  6
CONTINUOUS
 10
1.8453797125
 20
-22.8
 11
1.8598903107
 21
-22.8
  0
LINE
  5
29B
100
AcDbEntity
  8
DRAFT
100
AcDbLine
 62
7
  6
CONTINUOUS
 10
-1.8453797125
 20
-22.8
 11
-1.8598903107
 21
-22.8
  0
LINE
  5
29C
100
AcDbEntity
  8
DRAFT
100
AcDbLine
 62
7
  6
CONTINUOUS
 10
1.8453797125
 20
-22.2453797125
 11
1.8598903107
 21
-22.2453797125
  0
LINE
  5
29D
100
AcDbEntity
  8
DRAFT
100
AcDbLine
 62
7
  6
CONTINUOUS
 10
-1.8453797125
 20
-22.2453797125
 11
-1.8598903107
 21
-22.2453797125
  0
LINE
  5
29E
100
AcDbEntity
  8
DRAFT
100
AcDbLine
 62
7
  6
CONTINUOUS
 10
-1.8174537356
 20
-22.2174537356
 11
1.8174537356
 21
-22.2174537356
  0
LINE
  5
29F
100
AcDbEntity
  8
RACCORDO
100
AcDbLine
 62
7
  6
CONTINUOUS
 10
-25.158621664
 20
-20.3551370837
 11
-2.8645411899
 21
-20.3551370837
  0
LINE
  5
2A0
100
AcDbEntity
  8
RACCORDO
100
AcDbLine
 62
7
  6
CONTINUOUS
 10
2.8645411899
 20
-20.3551370837
 11
25.158621664
 21
-20.3551370837
  0
LINE
  5
2A1
100
AcDbEntity
  8
RACCORDO
100
AcDbLine
 62
7
  6
CONTINUOUS
 10
25.6251438945
 20
-20.3251408483
 11
4.1363770467
 21
-20.3144031845
  0
LINE
  5
2A2
100
AcDbEntity
  8
RACCORDO
100
AcDbLine
 62
250
  6
CONTINUOUS
 10
2.5000190385
 20
-33.0
 11
2.5131093402
 21
-33.0130903017
  0
LINE
  5
2A3
100
AcDbEntity
  8
DRAFT
100
AcDbLine
 62
7
  6
CONTINUOUS
 10
5.0305440373
 20
-35.0
 11
5.0
 21
-34.9694559627
  0
LINE
  5
2A4
100
AcDbEntity
  8
RACCORDO
100
AcDbLine
 62
250
  6
CONTINUOUS
 10
3.0
 20
-32.5000190385
 11
3.0130903017
 21
-32.5131093402
  0
LINE
  5
2A5
100
AcDbEntity
  8
RACCORDO
100
AcDbLine
 62
7
  6
CONTINUOUS
 10
-20.0
 20
-31.0
 11
-20.0
 21
-28.2150998859
  0
LINE
  5
2A6
100
AcDbEntity
  8
RACCORDO
100
AcDbLine
 62
7
  6
CONTINUOUS
 10
-20.0
 20
32.2150996197
 11
-20.0
 21
35.0
  0
LINE
  5
2A7
100
AcDbEntity
  8
RACCORDO
100
AcDbLine
 62
7
  6
CONTINUOUS
 10
-19.9825462644
 20
34.9825462644
 11
-19.9825462644
 21
32.2151006784
  0
LINE
  5
2A8
100
AcDbEntity
  8
RACCORDO
100
AcDbLine
 62
7
  6
CONTINUOUS
 10
-19.9825462644
 20
-30.9825462644
 11
-19.9825462644
 21
-28.2150989871
  0
LINE
  5
2A9
100
AcDbEntity
  8
RACCORDO
100
AcDbLine
 62
7
  6
CONTINUOUS
 10
-18.2954457453
 20
31.108621664
 11
-18.2954457453
 21
30.25
  0
LINE
  5
2AA
100
AcDbEntity
  8
RACCORDO
100
AcDbLine
 62
7
  6
CONTINUOUS
 10
-18.2954457453
 20
-27.108621664
 11
-18.2954457453
 21
-26.25
  0
LINE
  5
2AB
100
AcDbEntity
  8
RACCORDO
100
AcDbLine
 62
250
  6
CONTINUOUS
 10
-18.1790886568
 20
32.1749508327
 11
-18.1790886568
 21
30.25
  0
LINE
  5
2AC
100
AcDbEntity
  8
RACCORDO
100
AcDbLine
 62
250
  6
CONTINUOUS
 10
-18.1790886568
 20
-26.25
 11
-18.1790886568
 21
-28.1749508327
  0
LINE
  5
2AD
100
AcDbEntity
  8
DRAFT
100
AcDbLine
 62
7
  6
CONTINUOUS
 10
1.8349074712
 20
26.2349074712
 11
1.8174537356
 21
26.2174537356
  0
LINE
  5
2AE
100
AcDbEntity
  8
RACCORDO
100
AcDbLine
 62
250
  6
CONTINUOUS
 10
-26.1251408483
 20
-19.8251438945
 11
-4.2072294267
 21
-19.8144062307
  0
LINE
  5
2AF
100
AcDbEntity
  8
0
100
AcDbLine
 62
7
  6
CONTINUOUS
 10
1.8587267447
 20
-19.0
 11
-1.8587267447
 21
-19.0
  0
LINE
  5
2B0
100
AcDbEntity
  8
0
100
AcDbLine
 62
250
  6
CONTINUOUS
 10
-1.8586839216
 20
-18.9926393274
 11
1.8586839216
 21
-18.9926393274
  0
LINE
  5
2B1
100
AcDbEntity
  8
RACCORDO
100
AcDbLine
 62
250
  6
CONTINUOUS
 10
26.1251408483
 20
-19.8251438945
 11
4.2072294267
 21
-19.8144062307
  0
LINE
  5
2B2
100
AcDbEntity
  8
RACCORDO
100
AcDbLine
 62
7
  6
CONTINUOUS
 10
8.0103517765
 20
-28.1086155717
 11
8.1209113432
 21
-28.1749508327
  0
LINE
  5
2B3
100
AcDbEntity
  8
RACCORDO
100
AcDbLine
 62
7
  6
CONTINUOUS
 10
8.3581782981
 20
-28.25
 11
8.3116354627
 21
-28.2220745004
  0
LINE
  5
2B4
100
AcDbEntity
  8
RACCORDO
100
AcDbLine
 62
250
  6
CONTINUOUS
 10
-2.8645411899
 20
-20.3551370837
 11
-2.9303310448
 21
-20.3156634558
  0
LINE
  5
2B5
100
AcDbEntity
  8
RACCORDO
100
AcDbLine
 62
250
  6
CONTINUOUS
 10
-1.8645445745
 20
-19.3551512991
 11
-1.923853753
 21
-19.319566049
  0
LINE
  5
2B6
100
AcDbEntity
  8
DRAFT
100
AcDbLine
 62
7
  6
CONTINUOUS
 10
-1.8
 20
-24.0
 11
-1.8174537356
 21
-23.9825462644
  0
LINE
  5
2B7
100
AcDbEntity
  8
DRAFT
100
AcDbLine
 62
7
  6
CONTINUOUS
 10
-16.5165810488
 20
-28.1665810488
 11
-16.5165810488
 21
-29.2665810488
  0
LINE
  5
2B8
100
AcDbEntity
  8
DRAFT
100
AcDbLine
 62
7
  6
CONTINUOUS
 10
-16.5
 20
33.25
 11
-16.5
 21
32.15
  0
LINE
  5
2B9
100
AcDbEntity
  8
DRAFT
100
AcDbLine
 62
7
  6
CONTINUOUS
 10
-16.5
 20
-28.15
 11
-16.5
 21
-29.25
  0
LINE
  5
2BA
100
AcDbEntity
  8
RACCORDO
100
AcDbLine
 62
250
  6
CONTINUOUS
 10
-14.7
 20
3.9654786169
 11
-14.7
 21
0.0345213831
  0
LINE
  5
2BB
100
AcDbEntity
  8
RACCORDO
100
AcDbLine
 62
7
  6
CONTINUOUS
 10
22.0581782981
 20
32.25
 11
22.0116354627
 21
32.2220745004
  0
LINE
  5
2BC
100
AcDbEntity
  8
0
100
AcDbLine
 62
7
  6
CONTINUOUS
 10
-1.8349127996
 20
-16.9441581588
 11
-1.85
 21
-16.9469508423
  0
LINE
  5
2BD
100
AcDbEntity
  8
0
100
AcDbLine
 62
250
  6
CONTINUOUS
 10
-1.75338813
 20
-16.7779142549
 11
-0.9245966692
 21
-16.7779142549
  0
LINE
  5
2BE
100
AcDbEntity
  8
0
100
AcDbLine
 62
250
  6
CONTINUOUS
 10
0.9245965572
 20
-16.7779142549
 11
1.75338813
 21
-16.7779142549
  0
LINE
  5
2BF
100
AcDbEntity
  8
0
100
AcDbLine
 62
250
  6
CONTINUOUS
 10
-0.15
 20
-16.4796128717
 11
0.15
 21
-16.4796128717
  0
LINE
  5
2C0
100
AcDbEntity
  8
0
100
AcDbLine
 62
250
  6
CONTINUOUS
 10
-1.7393291264
 20
-16.4354740034
 11
-0.9245966692
 21
-16.4354740034
  0
LINE
  5
2C1
100
AcDbEntity
  8
0
100
AcDbLine
 62
250
  6
CONTINUOUS
 10
0.9245966692
 20
-16.4354740034
 11
1.7393291264
 21
-16.4354740034
  0
LINE
  5
2C2
100
AcDbEntity
  8
0
100
AcDbLine
 62
250
  6
CONTINUOUS
 10
-0.15
 20
-16.2056606705
 11
0.15
 21
-16.2056606705
  0
LINE
  5
2C3
100
AcDbEntity
  8
DRAFT
100
AcDbLine
 62
7
  6
CONTINUOUS
 10
-1.8616356596
 20
-14.3
 11
-1.6537984463
 21
-14.3
  0
LINE
  5
2C4
100
AcDbEntity
  8
DRAFT
100
AcDbLine
 62
7
  6
CONTINUOUS
 10
1.6537984463
 20
-14.3
 11
1.8616356596
 21
-14.3
  0
LINE
  5
2C5
100
AcDbEntity
  8
0
100
AcDbLine
 62
7
  6
CONTINUOUS
 10
1.85
 20
-16.9469508423
 11
1.8349127996
 21
-16.9441581588
  0
LINE
  5
2C6
100
AcDbEntity
  8
DRAFT
100
AcDbLine
 62
7
  6
CONTINUOUS
 10
1.8174537356
 20
-22.2174537356
 11
1.8453797125
 21
-22.2453797125
  0
LINE
  5
2C7
100
AcDbEntity
  8
DRAFT
100
AcDbLine
 62
7
  6
CONTINUOUS
 10
9.1
 20
-29.25
 11
9.1174537356
 21
-29.2674537356
  0
LINE
  5
2C8
100
AcDbEntity
  8
DRAFT
100
AcDbLine
 62
7
  6
CONTINUOUS
 10
-12.5
 20
-29.25
 11
-12.5
 21
-28.15
  0
LINE
  5
2C9
100
AcDbEntity
  8
DRAFT
100
AcDbLine
 62
7
  6
CONTINUOUS
 10
-12.5
 20
32.15
 11
-12.5
 21
33.25
  0
LINE
  5
2CA
100
AcDbEntity
  8
DRAFT
100
AcDbLine
 62
7
  6
CONTINUOUS
 10
-12.4834189512
 20
-29.2665810488
 11
-12.4834189512
 21
-28.1665810488
  0
LWPOLYLINE
  5
2CB
100
AcDbEntity
  8
0
100
AcDbPolyline
 62
7
  6
CONTINUOUS
 90
3
 70
0
 43
0.3500000087
 10
0.9285714218
 20
44.0357163727
 10
0.8571428663
 20
43.8214298401
 10
0.7142856886
 20
43.5357158844
  0
LINE
  5
2CC
100
AcDbEntity
  8
RACCORDO
100
AcDbLine
 62
250
  6
CONTINUOUS
 10
-24.4257464327
 20
-6.9258987375
 11
-24.2730841559
 21
-6.7732364608
  0
LINE
  5
2CD
100
AcDbEntity
  8
DRAFT
100
AcDbLine
 62
7
  6
CONTINUOUS
 10
16.5165810488
 20
33.2665810488
 11
16.5
 21
33.25
  0
LINE
  5
2CE
100
AcDbEntity
  8
0
100
AcDbLine
 62
250
  6
CONTINUOUS
 10
-1.1554930236
 20
-12.45
 11
1.1554930236
 21
-12.45
  0
LINE
  5
2CF
100
AcDbEntity
  8
0
100
AcDbLine
 62
250
  6
CONTINUOUS
 10
-1.4717871811
 20
-12.1518666706
 11
-1.2024814598
 21
-12.1518666706
  0
LINE
  5
2D0
100
AcDbEntity
  8
0
100
AcDbLine
 62
250
  6
CONTINUOUS
 10
1.2024814598
 20
-12.1518666706
 11
1.4717871811
 21
-12.1518666706
  0
LINE
  5
2D1
100
AcDbEntity
  8
RACCORDO
100
AcDbLine
 62
7
  6
CONTINUOUS
 10
22.0581782981
 20
-28.25
 11
22.0116354627
 21
-28.2220745004
  0
LINE
  5
2D2
100
AcDbEntity
  8
DRAFT
100
AcDbLine
 62
7
  6
CONTINUOUS
 10
-11.176644179
 20
0.1221188515
 11
-11.1771428571
 21
0.1460334855
  0
LINE
  5
2D3
100
AcDbEntity
  8
RACCORDO
100
AcDbLine
 62
250
  6
CONTINUOUS
 10
-10.6
 20
-31.0
 11
-10.6
 21
-30.9825462644
  0
LINE
  5
2D4
100
AcDbEntity
  8
RACCORDO
100
AcDbLine
 62
7
  6
CONTINUOUS
 10
-9.6174537356
 20
33.9825843414
 11
-9.6174537356
 21
32.1665810488
  0
LINE
  5
2D5
100
AcDbEntity
  8
RACCORDO
100
AcDbLine
 62
7
  6
CONTINUOUS
 10
-9.6
 20
34.0000380769
 11
-9.6
 21
32.25
  0
LINE
  5
2D6
100
AcDbEntity
  8
RACCORDO
100
AcDbLine
 62
7
  6
CONTINUOUS
 10
-9.6
 20
-29.982508186
 11
-9.6
 21
-28.1665810488
  0
LINE
  5
2D7
100
AcDbEntity
  8
DRAFT
100
AcDbLine
 62
7
  6
CONTINUOUS
 10
-9.1174537356
 20
-29.2674537356
 11
-9.1174537356
 21
-28.25
  0
LINE
  5
2D8
100
AcDbEntity
  8
DRAFT
100
AcDbLine
 62
7
  6
CONTINUOUS
 10
-9.1
 20
-28.25
 11
-9.1
 21
-29.25
  0
LINE
  5
2D9
100
AcDbEntity
  8
RACCORDO
100
AcDbLine
 62
7
  6
CONTINUOUS
 10
-9.0
 20
-28.25
 11
-9.0
 21
-29.25
  0
LINE
  5
2DA
100
AcDbEntity
  8
RACCORDO
100
AcDbLine
 62
7
  6
CONTINUOUS
 10
-9.0
 20
-31.0
 11
-9.0
 21
-34.0000380769
  0
LINE
  5
2DB
100
AcDbEntity
  8
DRAFT
100
AcDbLine
 62
7
  6
CONTINUOUS
 10
-11.176644179
 20
3.8778811485
 11
-11.1771428571
 21
3.8539665145
  0
LINE
  5
2DC
100
AcDbEntity
  8
RACCORDO
100
AcDbLine
 62
250
  6
CONTINUOUS
 10
-23.4306336755
 20
-7.9304813706
 11
-23.2732364608
 21
-7.7730841559
  0
LINE
  5
2DD
100
AcDbEntity
  8
DRAFT
100
AcDbLine
 62
7
  6
CONTINUOUS
 10
19.9825462644
 20
34.9825462644
 11
20.0
 21
35.0
  0
LINE
  5
2DE
100
AcDbEntity
  8
RACCORDO
100
AcDbLine
 62
250
  6
CONTINUOUS
 10
17.3965462636
 20
-8.8457402175
 11
23.5581679594
 21
-8.8303442963
  0
LINE
  5
2DF
100
AcDbEntity
  8
0
100
AcDbLine
 62
7
  6
CONTINUOUS
 10
1.3370349107
 20
-10.45
 11
-1.3370349107
 21
-10.45
  0
LINE
  5
2E0
100
AcDbEntity
  8
RACCORDO
100
AcDbLine
 62
250
  6
CONTINUOUS
 10
-23.5581679594
 20
-8.8303442963
 11
-17.3965462636
 21
-8.8457402175
  0
LINE
  5
2E1
100
AcDbEntity
  8
RACCORDO
100
AcDbLine
 62
250
  6
CONTINUOUS
 10
-24.4257464327
 20
10.9258987375
 11
-24.2730841559
 21
10.7732364608
  0
LINE
  5
2E2
100
AcDbEntity
  8
DRAFT
100
AcDbLine
 62
7
  6
CONTINUOUS
 10
16.5165810488
 20
-29.2665810488
 11
16.5
 21
-29.25
  0
LINE
  5
2E3
100
AcDbEntity
  8
RACCORDO
100
AcDbLine
 62
250
  6
CONTINUOUS
 10
-8.1209113432
 20
32.1749508327
 11
-8.1209113432
 21
30.25
  0
LINE
  5
2E4
100
AcDbEntity
  8
RACCORDO
100
AcDbLine
 62
250
  6
CONTINUOUS
 10
-8.1209113432
 20
-26.25
 11
-8.1209113432
 21
-28.1749508327
  0
LINE
  5
2E5
100
AcDbEntity
  8
RACCORDO
100
AcDbLine
 62
7
  6
CONTINUOUS
 10
-8.0045542547
 20
31.108621664
 11
-8.0045542547
 21
30.25
  0
LINE
  5
2E6
100
AcDbEntity
  8
RACCORDO
100
AcDbLine
 62
7
  6
CONTINUOUS
 10
-8.0045542547
 20
-27.108621664
 11
-8.0045542547
 21
-26.25
  0
LINE
  5
2E7
100
AcDbEntity
  8
RACCORDO
100
AcDbLine
 62
7
  6
CONTINUOUS
 10
-7.8
 20
0.1711620016
 11
-7.8
 21
3.8288379984
  0
LINE
  5
2E8
100
AcDbEntity
  8
RACCORDO
100
AcDbLine
 62
250
  6
CONTINUOUS
 10
-7.3
 20
0.8130666899
 11
-7.3
 21
3.1869333101
  0
LINE
  5
2E9
100
AcDbEntity
  8
DRAFT
100
AcDbLine
 62
7
  6
CONTINUOUS
 10
-7.05
 20
-28.2156029423
 11
-7.05
 21
-29.25
  0
LINE
  5
2EA
100
AcDbEntity
  8
DRAFT
100
AcDbLine
 62
7
  6
CONTINUOUS
 10
-7.0325462644
 20
-28.2155802573
 11
-7.0325462644
 21
-29.2674537356
  0
LINE
  5
2EB
100
AcDbEntity
  8
RACCORDO
100
AcDbLine
 62
250
  6
CONTINUOUS
 10
17.2690119796
 20
-7.9458772918
 11
23.4306336755
 21
-7.9304813706
  0
LINE
  5
2EC
100
AcDbEntity
  8
RACCORDO
100
AcDbLine
 62
7
  6
CONTINUOUS
 10
-23.2732364608
 20
-7.7730841559
 11
-17.1736922405
 21
-7.7730841559
  0
LINE
  5
2ED
100
AcDbEntity
  8
RACCORDO
100
AcDbLine
 62
7
  6
CONTINUOUS
 10
17.1736922405
 20
-7.7730841559
 11
23.2732364608
 21
-7.7730841559
  0
LINE
  5
2EE
100
AcDbEntity
  8
RACCORDO
100
AcDbLine
 62
250
  6
CONTINUOUS
 10
24.4257464327
 20
-6.9258987375
 11
25.4531436423
 21
-6.9258987375
  0
LINE
  5
2EF
100
AcDbEntity
  8
RACCORDO
100
AcDbLine
 62
250
  6
CONTINUOUS
 10
-24.4257464327
 20
-6.9258987375
 11
-25.4531436423
 21
-6.9258987376
  0
LINE
  5
2F0
100
AcDbEntity
  8
RACCORDO
100
AcDbLine
 62
250
  6
CONTINUOUS
 10
-23.4306336755
 20
-7.9304813706
 11
-17.2690119796
 21
-7.9458772918
  0
LINE
  5
2F1
100
AcDbEntity
  8
RACCORDO
100
AcDbLine
 62
250
  6
CONTINUOUS
 10
-23.4306336755
 20
11.9304813706
 11
-23.2732364608
 21
11.7730841559
  0
LINE
  5
2F2
100
AcDbEntity
  8
DRAFT
100
AcDbLine
 62
7
  6
CONTINUOUS
 10
19.9825462644
 20
-30.9825462644
 11
20.0
 21
-31.0
  0
LINE
  5
2F3
100
AcDbEntity
  8
SMUSSO
100
AcDbLine
 62
7
  6
CONTINUOUS
 10
-26.2964891058
 20
30.244206984
 11
-26.2073966503
 21
30.0972034041
  0
LINE
  5
2F4
100
AcDbEntity
  8
0
100
AcDbLine
 62
7
  6
CONTINUOUS
 10
1.75338813
 20
-16.7779142549
 11
1.8349127996
 21
-16.9441581588
  0
LINE
  5
2F5
100
AcDbEntity
  8
RACCORDO
100
AcDbLine
 62
7
  6
CONTINUOUS
 10
-5.0305440373
 20
-35.0
 11
-5.0305440373
 21
-31.0
  0
LINE
  5
2F6
100
AcDbEntity
  8
RACCORDO
100
AcDbLine
 62
7
  6
CONTINUOUS
 10
-5.0
 20
-34.9694559627
 11
-5.0
 21
-31.0
  0
LINE
  5
2F7
100
AcDbEntity
  8
RACCORDO
100
AcDbLine
 62
250
  6
CONTINUOUS
 10
-4.2072294267
 20
-19.8144062307
 11
-4.2072294267
 21
-17.9661549201
  0
LINE
  5
2F8
100
AcDbEntity
  8
RACCORDO
100
AcDbLine
 62
250
  6
CONTINUOUS
 10
-4.2072294267
 20
21.9661549201
 11
-4.2072294267
 21
23.8144062307
  0
LINE
  5
2F9
100
AcDbEntity
  8
RACCORDO
100
AcDbLine
 62
7
  6
CONTINUOUS
 10
-3.0130903017
 20
-32.5131093402
 11
-3.0130903017
 21
-31.4868906598
  0
LINE
  5
2FA
100
AcDbEntity
  8
RACCORDO
100
AcDbLine
 62
7
  6
CONTINUOUS
 10
-3.0
 20
-32.5000190385
 11
-3.0
 21
-31.4999809615
  0
LINE
  5
2FB
100
AcDbEntity
  8
RACCORDO
100
AcDbLine
 62
250
  6
CONTINUOUS
 10
25.3000060923
 20
32.25
 11
25.158621664
 21
32.1086155717
  0
LINE
  5
2FC
100
AcDbEntity
  8
RACCORDO
100
AcDbLine
 62
250
  6
CONTINUOUS
 10
-26.1251408483
 20
-19.8251438945
 11
-26.1586155717
 21
-19.8586186178
  0
LINE
  5
2FD
100
AcDbEntity
  8
RACCORDO
100
AcDbLine
 62
250
  6
CONTINUOUS
 10
-25.6251438945
 20
-20.3251408483
 11
-25.6556017296
 21
-20.3555986834
  0
LINE
  5
2FE
100
AcDbEntity
  8
RACCORDO
100
AcDbLine
 62
250
  6
CONTINUOUS
 10
26.3
 20
31.2500060923
 11
26.1586155717
 21
31.108621664
  0
LINE
  5
2FF
100
AcDbEntity
  8
0
100
AcDbLine
 62
7
  6
CONTINUOUS
 10
-1.4717871811
 20
13.9858222275
 11
-1.7393291264
 21
18.2694295603
  0
LINE
  5
300
100
AcDbEntity
  8
0
100
AcDbLine
 62
7
  6
CONTINUOUS
 10
-1.4717871811
 20
14.7518666706
 11
-1.7393291264
 21
19.0354740034
  0
LINE
  5
301
100
AcDbEntity
  8
RACCORDO
100
AcDbLine
 62
7
  6
CONTINUOUS
 10
-1.1554930236
 20
-12.95
 11
-1.1031595152
 21
-14.6795961892
  0
LINE
  5
302
100
AcDbEntity
  8
RACCORDO
100
AcDbLine
 62
7
  6
CONTINUOUS
 10
-1.1554930236
 20
-12.45
 11
-1.1031595152
 21
-14.1795961892
  0
LINE
  5
303
100
AcDbEntity
  8
DRAFT
100
AcDbLine
 62
7
  6
CONTINUOUS
 10
-1.8348230688
 20
-24.0096715522
 11
-1.8453797125
 21
-22.8
  0
LINE
  5
304
100
AcDbEntity
  8
DRAFT
100
AcDbLine
 62
7
  6
CONTINUOUS
 10
-1.85
 20
21.5
 11
-1.8598903107
 21
23.2
  0
LINE
  5
305
100
AcDbEntity
  8
RACCORDO
100
AcDbLine
 62
250
  6
CONTINUOUS
 10
-1.923853753
 20
22.249810922
 11
-1.9238519359
 21
23.3195671392
  0
LINE
  5
306
100
AcDbEntity
  8
RACCORDO
100
AcDbLine
 62
250
  6
CONTINUOUS
 10
-1.923853753
 20
-19.319566049
 11
-1.923853753
 21
-18.249810922
  0
LINE
  5
307
100
AcDbEntity
  8
RACCORDO
100
AcDbLine
 62
7
  6
CONTINUOUS
 10
-1.8645445745
 20
28.0145445745
 11
-1.8645445745
 21
23.3551512991
  0
LINE
  5
308
100
AcDbEntity
  8
RACCORDO
100
AcDbLine
 62
7
  6
CONTINUOUS
 10
-1.8645445745
 20
-19.3551512991
 11
-1.8645445745
 21
-24.0145445745
  0
LINE
  5
309
100
AcDbEntity
  8
RACCORDO
100
AcDbLine
 62
7
  6
CONTINUOUS
 10
-1.8616356596
 20
22.0701554131
 11
-1.8616356596
 21
18.3
  0
LINE
  5
30A
100
AcDbEntity
  8
RACCORDO
100
AcDbLine
 62
7
  6
CONTINUOUS
 10
-1.8616356596
 20
-14.3
 11
-1.8616356596
 21
-18.0701554131
  0
LINE
  5
30B
100
AcDbEntity
  8
DRAFT
100
AcDbLine
 62
7
  6
CONTINUOUS
 10
-1.8598903107
 20
23.319566049
 11
-1.8598903107
 21
23.2
  0
LINE
  5
30C
100
AcDbEntity
  8
DRAFT
100
AcDbLine
 62
7
  6
CONTINUOUS
 10
-1.8598903107
 20
-19.319566049
 11
-1.8598903107
 21
-19.2
  0
LINE
  5
30D
100
AcDbEntity
  8
DRAFT
100
AcDbLine
 62
7
  6
CONTINUOUS
 10
-1.85
 20
-17.5
 11
-1.85
 21
-16.3
  0
LINE
  5
30E
100
AcDbEntity
  8
DRAFT
100
AcDbLine
 62
7
  6
CONTINUOUS
 10
-1.85
 20
20.3
 11
-1.85
 21
21.5
  0
LINE
  5
30F
100
AcDbEntity
  8
DRAFT
100
AcDbLine
 62
7
  6
CONTINUOUS
 10
-1.8453797125
 20
-22.8
 11
-1.8453797125
 21
-22.2453797125
  0
LINE
  5
310
100
AcDbEntity
  8
0
100
AcDbLine
 62
7
  6
CONTINUOUS
 10
-1.8349127996
 20
-16.3
 11
-1.8349127996
 21
-16.9441581588
  0
LINE
  5
311
100
AcDbEntity
  8
DRAFT
100
AcDbLine
 62
7
  6
CONTINUOUS
 10
-1.8349074712
 20
28.0
 11
-1.8349074712
 21
26.2349074712
  0
LINE
  5
312
100
AcDbEntity
  8
DRAFT
100
AcDbLine
 62
7
  6
CONTINUOUS
 10
-1.8174537356
 20
27.9825462644
 11
-1.8174537356
 21
26.2174537356
  0
LINE
  5
313
100
AcDbEntity
  8
DRAFT
100
AcDbLine
 62
7
  6
CONTINUOUS
 10
-1.8174537356
 20
-22.2174537356
 11
-1.8174537356
 21
-23.9825462644
  0
LINE
  5
314
100
AcDbEntity
  8
0
100
AcDbLine
 62
7
  6
CONTINUOUS
 10
-1.75338813
 20
-16.7779142549
 11
-1.75338813
 21
-15.7835763108
  0
LINE
  5
315
100
AcDbEntity
  8
0
100
AcDbLine
 62
7
  6
CONTINUOUS
 10
-1.7393291264
 20
-16.4354740034
 11
-1.7393291264
 21
-15.6694295603
  0
LINE
  5
316
100
AcDbEntity
  8
0
100
AcDbLine
 62
250
  6
CONTINUOUS
 10
-1.4717871811
 20
-11.3858222275
 11
-1.4717871811
 21
-12.1518666706
  0
LINE
  5
317
100
AcDbEntity
  8
0
100
AcDbLine
 62
250
  6
CONTINUOUS
 10
-1.4717871811
 20
13.9858222275
 11
-1.4717871811
 21
14.7518666706
  0
LINE
  5
318
100
AcDbEntity
  8
RACCORDO
100
AcDbLine
 62
250
  6
CONTINUOUS
 10
-1.1031595152
 20
-14.1795961892
 11
-1.1031595152
 21
-14.6795961892
  0
LINE
  5
319
100
AcDbEntity
  8
RACCORDO
100
AcDbLine
 62
250
  6
CONTINUOUS
 10
-1.0981374937
 20
17.4301140277
 11
-1.0981374937
 21
17.840897261
  0
LINE
  5
31A
100
AcDbEntity
  8
0
100
AcDbLine
 62
250
  6
CONTINUOUS
 10
-0.9437253933
 20
20.6618848035
 11
-0.9437253933
 21
20.3
  0
LINE
  5
31B
100
AcDbEntity
  8
0
100
AcDbLine
 62
250
  6
CONTINUOUS
 10
-0.9437253933
 20
19.3549691859
 11
-0.9437253933
 21
18.3265409275
  0
LINE
  5
31C
100
AcDbEntity
  8
0
100
AcDbLine
 62
250
  6
CONTINUOUS
 10
-0.9245966692
 20
-15.1745602369
 11
-0.9245966692
 21
-17.3235791112
  0
LINE
  5
31D
100
AcDbEntity
  8
0
100
AcDbLine
 62
250
  6
CONTINUOUS
 10
-0.2173562321
 20
-15.5907655351
 11
-0.2173562321
 21
-17.0512169785
  0
LINE
  5
31E
100
AcDbEntity
  8
0
100
AcDbLine
 62
250
  6
CONTINUOUS
 10
-0.2161437828
 20
20.3926484648
 11
-0.2161437828
 21
20.3
  0
LINE
  5
31F
100
AcDbEntity
  8
0
100
AcDbLine
 62
250
  6
CONTINUOUS
 10
-0.2161437828
 20
19.0857328473
 11
-0.2161437828
 21
18.7996186289
  0
LINE
  5
320
100
AcDbEntity
  8
0
100
AcDbLine
 62
250
  6
CONTINUOUS
 10
-0.15
 20
-17.0252777278
 11
-0.15
 21
-15.5998179164
  0
LINE
  5
321
100
AcDbEntity
  8
0
100
AcDbLine
 62
250
  6
CONTINUOUS
 10
-0.15
 20
18.8056606705
 11
-0.15
 21
19.0612568165
  0
LINE
  5
322
100
AcDbEntity
  8
0
100
AcDbLine
 62
250
  6
CONTINUOUS
 10
-0.15
 20
20.3
 11
-0.15
 21
20.368172434
  0
LINE
  5
323
100
AcDbEntity
  8
0
100
AcDbLine
 62
250
  6
CONTINUOUS
 10
0.15
 20
20.368172434
 11
0.15
 21
20.3
  0
LINE
  5
324
100
AcDbEntity
  8
0
100
AcDbLine
 62
250
  6
CONTINUOUS
 10
0.15
 20
19.0612568165
 11
0.15
 21
18.8056606705
  0
LINE
  5
325
100
AcDbEntity
  8
0
100
AcDbLine
 62
250
  6
CONTINUOUS
 10
0.15
 20
-15.6004191679
 11
0.15
 21
-17.0252777278
  0
LINE
  5
326
100
AcDbEntity
  8
0
100
AcDbLine
 62
250
  6
CONTINUOUS
 10
0.2161437828
 20
18.8004322521
 11
0.2161437828
 21
19.0857328473
  0
LINE
  5
327
100
AcDbEntity
  8
0
100
AcDbLine
 62
250
  6
CONTINUOUS
 10
0.2161437828
 20
20.3
 11
0.2161437828
 21
20.3926484648
  0
LINE
  5
328
100
AcDbEntity
  8
0
100
AcDbLine
 62
250
  6
CONTINUOUS
 10
0.2173562321
 20
-17.0512169785
 11
0.2173562321
 21
-15.5900188869
  0
LINE
  5
329
100
AcDbEntity
  8
DRAFT
100
AcDbLine
 62
7
  6
CONTINUOUS
 10
-1.8598903107
 20
-19.2
 11
-1.85
 21
-17.5
  0
LINE
  5
32A
100
AcDbEntity
  8
DRAFT
100
AcDbLine
 62
7
  6
CONTINUOUS
 10
-1.8348230688
 20
28.0096715522
 11
-1.8349074712
 21
28.0
  0
LINE
  5
32B
100
AcDbEntity
  8
RACCORDO
100
AcDbLine
 62
7
  6
CONTINUOUS
 10
-1.0981374937
 20
17.4301140277
 11
-1.1459112808
 21
15.4068670668
  0
LINE
  5
32C
100
AcDbEntity
  8
0
100
AcDbLine
 62
7
  6
CONTINUOUS
 10
-1.7393291264
 20
-15.6694295603
 11
-1.4717871811
 21
-11.3858222275
  0
LINE
  5
32D
100
AcDbEntity
  8
0
100
AcDbLine
 62
7
  6
CONTINUOUS
 10
-1.7393291264
 20
-16.4354740034
 11
-1.4717871811
 21
-12.1518666706
  0
LWPOLYLINE
  5
32E
100
AcDbEntity
  8
0
100
AcDbPolyline
 62
7
  6
CONTINUOUS
 90
4
 70
0
 43
0.3500000087
 10
41.1928565643
 20
-2.3418709114
 10
40.5500012299
 20
-2.3418709114
 10
40.5500012299
 20
-0.8418705124
 10
43.5499998962
 20
-1.6990145111
  0
LINE
  5
32F
100
AcDbEntity
  8
RACCORDO
100
AcDbLine
 62
250
  6
CONTINUOUS
 10
13.1485259895
 20
-0.5932615316
 11
12.8417343036
 21
-0.5932615316
  0
LINE
  5
330
100
AcDbEntity
  8
RACCORDO
100
AcDbLine
 62
250
  6
CONTINUOUS
 10
-12.8417343036
 20
-0.5932615316
 11
-13.1485259895
 21
-0.5932615316
  0
LINE
  5
331
100
AcDbEntity
  8
RACCORDO
100
AcDbLine
 62
250
  6
CONTINUOUS
 10
13.8969010435
 20
-0.440052643
 11
12.105554779
 21
-0.440052643
  0
LINE
  5
332
100
AcDbEntity
  8
RACCORDO
100
AcDbLine
 62
250
  6
CONTINUOUS
 10
10.0347028706
 20
-0.440052643
 11
8.9700953135
 21
-0.440052643
  0
LINE
  5
333
100
AcDbEntity
  8
RACCORDO
100
AcDbLine
 62
250
  6
CONTINUOUS
 10
-8.9700953135
 20
-0.440052643
 11
-10.0347028706
 21
-0.440052643
  0
LINE
  5
334
100
AcDbEntity
  8
RACCORDO
100
AcDbLine
 62
250
  6
CONTINUOUS
 10
-12.105554779
 20
-0.440052643
 11
-13.8969010435
 21
-0.440052643
  0
LWPOLYLINE
  5
335
100
AcDbEntity
  8
0
100
AcDbPolyline
 62
7
  6
CONTINUOUS
 90
13
 70
0
 43
0.3500000087
 10
42.6928580292
 20
0.0152713547
 10
41.4071430969
 20
0.0152713547
 10
40.978574295
 20
0.2295578873
 10
40.5500012299
 20
0.6581288208
 10
40.5500012299
 20
0.8724153534
 10
40.978574295
 20
1.3009862869
 10
41.4071430969
 20
1.5152728195
 10
42.6928580292
 20
1.5152728195
 10
43.1214310944
 20
1.3009862869
 10
43.5499998962
 20
0.8724153534
 10
43.5499998962
 20
0.6581288208
 10
43.1214310944
 20
0.2295578873
 10
42.6928580292
 20
0.0152713547
  0
LINE
  5
336
100
AcDbEntity
  8
RACCORDO
100
AcDbLine
 62
250
  6
CONTINUOUS
 10
25.158621664
 20
-28.1086155717
 11
25.3000060923
 21
-28.25
  0
LINE
  5
337
100
AcDbEntity
  8
RACCORDO
100
AcDbLine
 62
250
  6
CONTINUOUS
 10
-26.1586155717
 20
23.8586186178
 11
-26.1251408483
 21
23.8251438945
  0
LINE
  5
338
100
AcDbEntity
  8
RACCORDO
100
AcDbLine
 62
250
  6
CONTINUOUS
 10
-25.6556017296
 20
24.3555986834
 11
-25.6251438945
 21
24.3251408483
  0
LINE
  5
339
100
AcDbEntity
  8
RACCORDO
100
AcDbLine
 62
250
  6
CONTINUOUS
 10
26.1586155717
 20
-27.108621664
 11
26.3000000213
 21
-27.2500061137
  0
LINE
  5
33A
100
AcDbEntity
  8
0
100
AcDbLine
 62
7
  6
CONTINUOUS
 10
1.7393291264
 20
-16.4354740034
 11
1.4717871811
 21
-12.1518666706
  0
LINE
  5
33B
100
AcDbEntity
  8
0
100
AcDbLine
 62
7
  6
CONTINUOUS
 10
1.7393291264
 20
-15.6694295603
 11
1.4717871811
 21
-11.3858222275
  0
LINE
  5
33C
100
AcDbEntity
  8
RACCORDO
100
AcDbLine
 62
7
  6
CONTINUOUS
 10
1.0981374937
 20
17.4301140277
 11
1.1459112808
 21
15.4068670668
  0
LINE
  5
33D
100
AcDbEntity
  8
DRAFT
100
AcDbLine
 62
7
  6
CONTINUOUS
 10
1.8348230688
 20
28.0096715522
 11
1.8349074712
 21
28.0
  0
LINE
  5
33E
100
AcDbEntity
  8
DRAFT
100
AcDbLine
 62
7
  6
CONTINUOUS
 10
1.85
 20
-17.5
 11
1.8598903107
 21
-19.2
  0
LINE
  5
33F
100
AcDbEntity
  8
0
100
AcDbLine
 62
250
  6
CONTINUOUS
 10
0.9245966692
 20
-17.323579111
 11
0.9245966692
 21
-15.1722156825
  0
LINE
  5
340
100
AcDbEntity
  8
0
100
AcDbLine
 62
250
  6
CONTINUOUS
 10
0.9437254813
 20
18.3279761045
 11
0.9437253933
 21
19.3549691859
  0
LINE
  5
341
100
AcDbEntity
  8
0
100
AcDbLine
 62
250
  6
CONTINUOUS
 10
0.9437253933
 20
20.3
 11
0.9437253933
 21
20.6618848035
  0
LINE
  5
342
100
AcDbEntity
  8
RACCORDO
100
AcDbLine
 62
250
  6
CONTINUOUS
 10
1.0981374937
 20
17.4301140277
 11
1.0981374937
 21
17.840897261
  0
LINE
  5
343
100
AcDbEntity
  8
RACCORDO
100
AcDbLine
 62
250
  6
CONTINUOUS
 10
1.1031595152
 20
-14.1795961892
 11
1.1031595152
 21
-14.6795961892
  0
LINE
  5
344
100
AcDbEntity
  8
0
100
AcDbLine
 62
250
  6
CONTINUOUS
 10
1.1554930236
 20
-12.45
 11
1.1554930236
 21
-12.95
  0
LINE
  5
345
100
AcDbEntity
  8
0
100
AcDbLine
 62
250
  6
CONTINUOUS
 10
1.4717871811
 20
-11.3858222275
 11
1.4717871811
 21
-12.1518666706
  0
LINE
  5
346
100
AcDbEntity
  8
0
100
AcDbLine
 62
250
  6
CONTINUOUS
 10
1.4717871811
 20
13.9858222275
 11
1.4717871811
 21
14.7518666706
  0
LINE
  5
347
100
AcDbEntity
  8
0
100
AcDbLine
 62
7
  6
CONTINUOUS
 10
1.7393291264
 20
-16.4354740034
 11
1.7393291264
 21
-15.6694295603
  0
LINE
  5
348
100
AcDbEntity
  8
0
100
AcDbLine
 62
7
  6
CONTINUOUS
 10
1.75338813
 20
-16.7779142549
 11
1.75338813
 21
-15.7835763108
  0
LINE
  5
349
100
AcDbEntity
  8
DRAFT
100
AcDbLine
 62
7
  6
CONTINUOUS
 10
1.8174537356
 20
27.9825462644
 11
1.8174537356
 21
26.2174537356
  0
LINE
  5
34A
100
AcDbEntity
  8
DRAFT
100
AcDbLine
 62
7
  6
CONTINUOUS
 10
1.8174537356
 20
-22.2174537356
 11
1.8174537356
 21
-23.9825462644
  0
LINE
  5
34B
100
AcDbEntity
  8
DRAFT
100
AcDbLine
 62
7
  6
CONTINUOUS
 10
1.8349074712
 20
28.0
 11
1.8349074712
 21
26.2349074712
  0
LINE
  5
34C
100
AcDbEntity
  8
0
100
AcDbLine
 62
7
  6
CONTINUOUS
 10
1.8349127996
 20
-16.3
 11
1.8349127996
 21
-16.9441581588
  0
LINE
  5
34D
100
AcDbEntity
  8
DRAFT
100
AcDbLine
 62
7
  6
CONTINUOUS
 10
1.8453797125
 20
-22.8
 11
1.8453797125
 21
-22.2453797125
  0
LINE
  5
34E
100
AcDbEntity
  8
DRAFT
100
AcDbLine
 62
7
  6
CONTINUOUS
 10
1.85
 20
-17.5
 11
1.85
 21
-16.3
  0
LINE
  5
34F
100
AcDbEntity
  8
DRAFT
100
AcDbLine
 62
7
  6
CONTINUOUS
 10
1.85
 20
20.3
 11
1.85
 21
21.5
  0
LINE
  5
350
100
AcDbEntity
  8
DRAFT
100
AcDbLine
 62
7
  6
CONTINUOUS
 10
1.8598903107
 20
23.319566049
 11
1.8598903107
 21
23.2
  0
LINE
  5
351
100
AcDbEntity
  8
DRAFT
100
AcDbLine
 62
7
  6
CONTINUOUS
 10
1.8598903107
 20
-19.319566049
 11
1.8598903107
 21
-19.2
  0
LINE
  5
352
100
AcDbEntity
  8
RACCORDO
100
AcDbLine
 62
7
  6
CONTINUOUS
 10
1.8616356596
 20
-18.0701554131
 11
1.8616356596
 21
-14.3
  0
LINE
  5
353
100
AcDbEntity
  8
RACCORDO
100
AcDbLine
 62
7
  6
CONTINUOUS
 10
1.8616356596
 20
18.3
 11
1.8616356596
 21
22.0701554131
  0
LINE
  5
354
100
AcDbEntity
  8
RACCORDO
100
AcDbLine
 62
7
  6
CONTINUOUS
 10
1.8645445745
 20
-24.0145445745
 11
1.8645445745
 21
-19.3551512991
  0
LINE
  5
355
100
AcDbEntity
  8
RACCORDO
100
AcDbLine
 62
7
  6
CONTINUOUS
 10
1.8645445745
 20
23.3551512991
 11
1.8645445745
 21
28.0145445745
  0
LINE
  5
356
100
AcDbEntity
  8
RACCORDO
100
AcDbLine
 62
250
  6
CONTINUOUS
 10
1.923853753
 20
23.319566049
 11
1.923853753
 21
22.249810922
  0
LINE
  5
357
100
AcDbEntity
  8
RACCORDO
100
AcDbLine
 62
250
  6
CONTINUOUS
 10
1.923853753
 20
-18.249810922
 11
1.9238519359
 21
-19.3195671392
  0
LWPOLYLINE
  5
358
100
AcDbEntity
  8
0
100
AcDbPolyline
 62
7
  6
CONTINUOUS
 90
2
 70
0
 43
0.3500000087
 10
2.9285715097
 20
43.7499981537
 10
2.9285715097
 20
45.2499996185
  0
LINE
  5
359
100
AcDbEntity
  8
RACCORDO
100
AcDbLine
 62
7
  6
CONTINUOUS
 10
3.0
 20
-31.4999809615
 11
3.0
 21
-32.5000190385
  0
LINE
  5
35A
100
AcDbEntity
  8
RACCORDO
100
AcDbLine
 62
7
  6
CONTINUOUS
 10
3.0130903017
 20
-31.4868906598
 11
3.0130903017
 21
-32.5131093402
  0
LINE
  5
35B
100
AcDbEntity
  8
DRAFT
100
AcDbLine
 62
7
  6
CONTINUOUS
 10
1.8598903107
 20
23.2
 11
1.85
 21
21.5
  0
LINE
  5
35C
100
AcDbEntity
  8
DRAFT
100
AcDbLine
 62
7
  6
CONTINUOUS
 10
1.8453797125
 20
-22.8
 11
1.8348230688
 21
-24.0096715522
  0
LINE
  5
35D
100
AcDbEntity
  8
RACCORDO
100
AcDbLine
 62
7
  6
CONTINUOUS
 10
1.1554930236
 20
-12.45
 11
1.1031595152
 21
-14.1795961892
  0
LINE
  5
35E
100
AcDbEntity
  8
RACCORDO
100
AcDbLine
 62
7
  6
CONTINUOUS
 10
1.1554930236
 20
-12.95
 11
1.1031595152
 21
-14.6795961892
  0
LINE
  5
35F
100
AcDbEntity
  8
0
100
AcDbLine
 62
7
  6
CONTINUOUS
 10
1.4717871811
 20
14.7518666706
 11
1.7393291264
 21
19.0354740034
  0
LINE
  5
360
100
AcDbEntity
  8
0
100
AcDbLine
 62
7
  6
CONTINUOUS
 10
1.4717871811
 20
13.9858222275
 11
1.7393291264
 21
18.2694295603
  0
LINE
  5
361
100
AcDbEntity
  8
RACCORDO
100
AcDbLine
 62
250
  6
CONTINUOUS
 10
-26.3
 20
-27.2500060923
 11
-26.1586155717
 21
-27.108621664
  0
LINE
  5
362
100
AcDbEntity
  8
RACCORDO
100
AcDbLine
 62
250
  6
CONTINUOUS
 10
25.6251438945
 20
24.3251408483
 11
25.6556017296
 21
24.3555986834
  0
LINE
  5
363
100
AcDbEntity
  8
RACCORDO
100
AcDbLine
 62
250
  6
CONTINUOUS
 10
26.1251408483
 20
23.8251438945
 11
26.1586155717
 21
23.8586186178
  0
LINE
  5
364
100
AcDbEntity
  8
RACCORDO
100
AcDbLine
 62
250
  6
CONTINUOUS
 10
-25.3000060923
 20
-28.25
 11
-25.158621664
 21
-28.1086155717
  0
LINE
  5
365
100
AcDbEntity
  8
ASSI
100
AcDbLine
 62
7
  6
CONTINUOUS
 10
-2.6
 20
2.0
 11
2.6
 21
2.0
  0
LINE
  5
366
100
AcDbEntity
  8
RACCORDO
100
AcDbLine
 62
7
  6
CONTINUOUS
 10
7.0024644671
 20
2.0
 11
15.6
 21
2.0
  0
LINE
  5
367
100
AcDbEntity
  8
RACCORDO
100
AcDbLine
 62
7
  6
CONTINUOUS
 10
-7.0024644671
 20
2.0
 11
-15.6
 21
2.0
  0
LINE
  5
368
100
AcDbEntity
  8
0
100
AcDbLine
 62
7
  6
CONTINUOUS
 10
-1.7508359218
 20
19.3549691859
 11
-1.8349127996
 21
19.688695259
  0
LINE
  5
369
100
AcDbEntity
  8
RACCORDO
100
AcDbLine
 62
250
  6
CONTINUOUS
 10
4.2072294267
 20
23.8144062307
 11
4.2072294267
 21
21.9661549201
  0
LINE
  5
36A
100
AcDbEntity
  8
RACCORDO
100
AcDbLine
 62
250
  6
CONTINUOUS
 10
4.2072294267
 20
-17.9661549201
 11
4.2072294267
 21
-19.8144062307
  0
LINE
  5
36B
100
AcDbEntity
  8
RACCORDO
100
AcDbLine
 62
7
  6
CONTINUOUS
 10
5.0
 20
-31.0
 11
5.0
 21
-34.9694559627
  0
LINE
  5
36C
100
AcDbEntity
  8
RACCORDO
100
AcDbLine
 62
7
  6
CONTINUOUS
 10
5.0305440373
 20
-35.0
 11
5.0305440373
 21
-31.0
  0
LINE
  5
36D
100
AcDbEntity
  8
0
100
AcDbLine
 62
7
  6
CONTINUOUS
 10
-1.75338813
 20
-16.7779142549
 11
-1.8349127996
 21
-16.9441581588
  0
LINE
  5
36E
100
AcDbEntity
  8
RACCORDO
100
AcDbLine
 62
250
  6
CONTINUOUS
 10
-13.8969010435
 20
4.440052643
 11
-12.105554779
 21
4.440052643
  0
LINE
  5
36F
100
AcDbEntity
  8
RACCORDO
100
AcDbLine
 62
250
  6
CONTINUOUS
 10
-10.0347028706
 20
4.440052643
 11
-8.9700953135
 21
4.440052643
  0
LINE
  5
370
100
AcDbEntity
  8
RACCORDO
100
AcDbLine
 62
250
  6
CONTINUOUS
 10
8.9700953135
 20
4.440052643
 11
10.0347028706
 21
4.440052643
  0
LINE
  5
371
100
AcDbEntity
  8
RACCORDO
100
AcDbLine
 62
250
  6
CONTINUOUS
 10
12.105554779
 20
4.440052643
 11
13.8969010435
 21
4.440052643
  0
LINE
  5
372
100
AcDbEntity
  8
RACCORDO
100
AcDbLine
 62
250
  6
CONTINUOUS
 10
-13.1485259895
 20
4.5932615316
 11
-12.8417343036
 21
4.5932615316
  0
LINE
  5
373
100
AcDbEntity
  8
RACCORDO
100
AcDbLine
 62
250
  6
CONTINUOUS
 10
12.8417343036
 20
4.5932615316
 11
13.1485259895
 21
4.5932615316
  0
LINE
  5
374
100
AcDbEntity
  8
RACCORDO
100
AcDbLine
 62
250
  6
CONTINUOUS
 10
-26.1586155717
 20
31.108621664
 11
-26.3000000213
 21
31.2500061137
  0
LINE
  5
375
100
AcDbEntity
  8
RACCORDO
100
AcDbLine
 62
250
  6
CONTINUOUS
 10
25.6556017296
 20
-20.3555986834
 11
25.6251438945
 21
-20.3251408483
  0
LINE
  5
376
100
AcDbEntity
  8
RACCORDO
100
AcDbLine
 62
250
  6
CONTINUOUS
 10
26.1586155717
 20
-19.8586186178
 11
26.1251408483
 21
-19.8251438945
  0
LINE
  5
377
100
AcDbEntity
  8
RACCORDO
100
AcDbLine
 62
250
  6
CONTINUOUS
 10
-25.158621664
 20
32.1086155717
 11
-25.3000060923
 21
32.25
  0
LINE
  5
378
100
AcDbEntity
  8
DRAFT
100
AcDbLine
 62
7
  6
CONTINUOUS
 10
7.0325462644
 20
-29.2674537356
 11
7.0325462644
 21
-28.2155823423
  0
LINE
  5
379
100
AcDbEntity
  8
DRAFT
100
AcDbLine
 62
7
  6
CONTINUOUS
 10
7.05
 20
-29.25
 11
7.05
 21
-28.2156039403
  0
LINE
  5
37A
100
AcDbEntity
  8
RACCORDO
100
AcDbLine
 62
250
  6
CONTINUOUS
 10
7.3
 20
0.8130666899
 11
7.3
 21
3.1869333101
  0
LINE
  5
37B
100
AcDbEntity
  8
RACCORDO
100
AcDbLine
 62
7
  6
CONTINUOUS
 10
7.8
 20
0.1711620016
 11
7.8
 21
3.8288379984
  0
LINE
  5
37C
100
AcDbEntity
  8
RACCORDO
100
AcDbLine
 62
7
  6
CONTINUOUS
 10
8.0045542547
 20
31.108621664
 11
8.0045542547
 21
30.25
  0
LINE
  5
37D
100
AcDbEntity
  8
RACCORDO
100
AcDbLine
 62
7
  6
CONTINUOUS
 10
8.0045542547
 20
-27.108621664
 11
8.0045542547
 21
-26.25
  0
LINE
  5
37E
100
AcDbEntity
  8
RACCORDO
100
AcDbLine
 62
250
  6
CONTINUOUS
 10
8.1209113432
 20
-28.1749508327
 11
8.1209113432
 21
-26.25
  0
LINE
  5
37F
100
AcDbEntity
  8
RACCORDO
100
AcDbLine
 62
250
  6
CONTINUOUS
 10
8.1209113432
 20
30.25
 11
8.1209113432
 21
32.1749508327
  0
LINE
  5
380
100
AcDbEntity
  8
RACCORDO
100
AcDbLine
 62
7
  6
CONTINUOUS
 10
9.0
 20
-28.25
 11
9.0
 21
-29.25
  0
LINE
  5
381
100
AcDbEntity
  8
RACCORDO
100
AcDbLine
 62
7
  6
CONTINUOUS
 10
9.0
 20
-31.0
 11
9.0
 21
-34.0000380769
  0
LINE
  5
382
100
AcDbEntity
  8
DRAFT
100
AcDbLine
 62
7
  6
CONTINUOUS
 10
9.1
 20
-28.25
 11
9.1
 21
-29.25
  0
LINE
  5
383
100
AcDbEntity
  8
DRAFT
100
AcDbLine
 62
7
  6
CONTINUOUS
 10
9.1174537356
 20
-28.25
 11
9.1174537356
 21
-29.2674537356
  0
LINE
  5
384
100
AcDbEntity
  8
DRAFT
100
AcDbLine
 62
7
  6
CONTINUOUS
 10
-19.9825462644
 20
-30.9825462644
 11
-20.0
 21
-31.0
  0
LINE
  5
385
100
AcDbEntity
  8
RACCORDO
100
AcDbLine
 62
250
  6
CONTINUOUS
 10
23.4306336755
 20
11.9304813706
 11
23.2732364608
 21
11.7730841559
  0
LINE
  5
386
100
AcDbEntity
  8
DRAFT
100
AcDbLine
 62
7
  6
CONTINUOUS
 10
-16.5165810488
 20
-29.2665810488
 11
-16.5
 21
-29.25
  0
LINE
  5
387
100
AcDbEntity
  8
SMUSSO
100
AcDbLine
 62
7
  6
CONTINUOUS
 10
26.2964891058
 20
-26.244206984
 11
26.2073966503
 21
-26.0972034041
  0
LINE
  5
388
100
AcDbEntity
  8
DRAFT
100
AcDbLine
 62
7
  6
CONTINUOUS
 10
11.176644179
 20
3.8778811485
 11
11.1771428571
 21
3.8539665145
  0
LINE
  5
389
100
AcDbEntity
  8
RACCORDO
100
AcDbLine
 62
7
  6
CONTINUOUS
 10
9.6
 20
-29.982508186
 11
9.6
 21
-28.1665810488
  0
LINE
  5
38A
100
AcDbEntity
  8
RACCORDO
100
AcDbLine
 62
7
  6
CONTINUOUS
 10
9.6
 20
32.25
 11
9.6
 21
34.0000380769
  0
LINE
  5
38B
100
AcDbEntity
  8
RACCORDO
100
AcDbLine
 62
7
  6
CONTINUOUS
 10
9.6174537356
 20
33.9825843414
 11
9.6174537356
 21
32.1665810488
  0
LINE
  5
38C
100
AcDbEntity
  8
RACCORDO
100
AcDbLine
 62
250
  6
CONTINUOUS
 10
10.6
 20
-30.9825462644
 11
10.6
 21
-31.0
  0
LINE
  5
38D
100
AcDbEntity
  8
DRAFT
100
AcDbLine
 62
7
  6
CONTINUOUS
 10
11.176644179
 20
0.1221188515
 11
11.1771428571
 21
0.1460334855
  0
LINE
  5
38E
100
AcDbEntity
  8
RACCORDO
100
AcDbLine
 62
250
  6
CONTINUOUS
 10
24.4257464327
 20
10.9258987375
 11
24.2730841559
 21
10.7732364608
  0
LINE
  5
38F
100
AcDbEntity
  8
RACCORDO
100
AcDbLine
 62
250
  6
CONTINUOUS
 10
-17.2690119796
 20
11.9458772918
 11
-23.4306336755
 21
11.9304813706
  0
LINE
  5
390
100
AcDbEntity
  8
RACCORDO
100
AcDbLine
 62
250
  6
CONTINUOUS
 10
24.4257464327
 20
10.9258987375
 11
25.4531436423
 21
10.9258987376
  0
LINE
  5
391
100
AcDbEntity
  8
RACCORDO
100
AcDbLine
 62
250
  6
CONTINUOUS
 10
-24.4257464327
 20
10.9258987375
 11
-25.4531436423
 21
10.9258987375
  0
LINE
  5
392
100
AcDbEntity
  8
RACCORDO
100
AcDbLine
 62
7
  6
CONTINUOUS
 10
23.2732364608
 20
11.7730841559
 11
17.1736922405
 21
11.7730841559
  0
LINE
  5
393
100
AcDbEntity
  8
RACCORDO
100
AcDbLine
 62
7
  6
CONTINUOUS
 10
-17.1736922405
 20
11.7730841559
 11
-23.2732364608
 21
11.7730841559
  0
LINE
  5
394
100
AcDbEntity
  8
RACCORDO
100
AcDbLine
 62
250
  6
CONTINUOUS
 10
23.4306336755
 20
11.9304813706
 11
17.2690119796
 21
11.9458772918
  0
LINE
  5
395
100
AcDbEntity
  8
DRAFT
100
AcDbLine
 62
7
  6
CONTINUOUS
 10
-19.9825462644
 20
34.9825462644
 11
-20.0
 21
35.0
  0
LINE
  5
396
100
AcDbEntity
  8
RACCORDO
100
AcDbLine
 62
250
  6
CONTINUOUS
 10
23.4306336755
 20
-7.9304813706
 11
23.2732364608
 21
-7.7730841559
  0
LINE
  5
397
100
AcDbEntity
  8
DRAFT
100
AcDbLine
 62
7
  6
CONTINUOUS
 10
12.4834189512
 20
33.2665810488
 11
12.4834189512
 21
32.1665810488
  0
LINE
  5
398
100
AcDbEntity
  8
DRAFT
100
AcDbLine
 62
7
  6
CONTINUOUS
 10
12.4834189512
 20
-28.1665810488
 11
12.4834189512
 21
-29.2665810488
  0
LINE
  5
399
100
AcDbEntity
  8
DRAFT
100
AcDbLine
 62
7
  6
CONTINUOUS
 10
12.5
 20
33.25
 11
12.5
 21
32.15
  0
LINE
  5
39A
100
AcDbEntity
  8
DRAFT
100
AcDbLine
 62
7
  6
CONTINUOUS
 10
12.5
 20
-28.15
 11
12.5
 21
-29.25
  0
LINE
  5
39B
100
AcDbEntity
  8
RACCORDO
100
AcDbLine
 62
250
  6
CONTINUOUS
 10
14.7
 20
0.0345213831
 11
14.7
 21
3.9654786169
  0
LINE
  5
39C
100
AcDbEntity
  8
DRAFT
100
AcDbLine
 62
7
  6
CONTINUOUS
 10
-9.1
 20
-29.25
 11
-9.1174537356
 21
-29.2674537356
  0
LINE
  5
39D
100
AcDbEntity
  8
DRAFT
100
AcDbLine
 62
7
  6
CONTINUOUS
 10
-1.8453797125
 20
-22.2453797125
 11
-1.8174537356
 21
-22.2174537356
  0
LINE
  5
39E
100
AcDbEntity
  8
RACCORDO
100
AcDbLine
 62
7
  6
CONTINUOUS
 10
-22.0581782981
 20
-28.25
 11
-22.0116354627
 21
-28.2220745004
  0
LINE
  5
39F
100
AcDbEntity
  8
RACCORDO
100
AcDbLine
 62
250
  6
CONTINUOUS
 10
-17.3965462636
 20
12.8457402175
 11
-23.5581679594
 21
12.8303442963
  0
LINE
  5
3A0
100
AcDbEntity
  8
0
100
AcDbLine
 62
7
  6
CONTINUOUS
 10
-1.337029912
 20
13.05
 11
1.337029912
 21
13.05
  0
LINE
  5
3A1
100
AcDbEntity
  8
0
100
AcDbLine
 62
250
  6
CONTINUOUS
 10
1.4717871811
 20
14.7518666706
 11
1.2024771328
 21
14.7518666706
  0
LINE
  5
3A2
100
AcDbEntity
  8
0
100
AcDbLine
 62
250
  6
CONTINUOUS
 10
-1.2024771328
 20
14.7518666706
 11
-1.4717871811
 21
14.7518666706
  0
LINE
  5
3A3
100
AcDbEntity
  8
RACCORDO
100
AcDbLine
 62
250
  6
CONTINUOUS
 10
23.5581679594
 20
12.8303442963
 11
17.3965462636
 21
12.8457402175
  0
LINE
  5
3A4
100
AcDbEntity
  8
RACCORDO
100
AcDbLine
 62
250
  6
CONTINUOUS
 10
24.4257464327
 20
-6.9258987375
 11
24.2730841559
 21
-6.7732364608
  0
LINE
  5
3A5
100
AcDbEntity
  8
DRAFT
100
AcDbLine
 62
7
  6
CONTINUOUS
 10
16.5
 20
-29.25
 11
16.5
 21
-28.15
  0
LINE
  5
3A6
100
AcDbEntity
  8
DRAFT
100
AcDbLine
 62
7
  6
CONTINUOUS
 10
16.5
 20
32.15
 11
16.5
 21
33.25
  0
LINE
  5
3A7
100
AcDbEntity
  8
DRAFT
100
AcDbLine
 62
7
  6
CONTINUOUS
 10
16.5165810488
 20
-29.2665810488
 11
16.5165810488
 21
-28.1665810488
  0
LINE
  5
3A8
100
AcDbEntity
  8
DRAFT
100
AcDbLine
 62
7
  6
CONTINUOUS
 10
16.5165810488
 20
32.1665810488
 11
16.5165810488
 21
33.2665810488
  0
LINE
  5
3A9
100
AcDbEntity
  8
RACCORDO
100
AcDbLine
 62
250
  6
CONTINUOUS
 10
1.9238519359
 20
-19.3195671392
 11
1.8645445745
 21
-19.3551512991
  0
LINE
  5
3AA
100
AcDbEntity
  8
0
100
AcDbLine
 62
250
  6
CONTINUOUS
 10
1.1459112808
 20
15.4068670668
 11
-1.1459112808
 21
15.4068670668
  0
LINE
  5
3AB
100
AcDbEntity
  8
RACCORDO
100
AcDbLine
 62
7
  6
CONTINUOUS
 10
-22.0581782981
 20
32.25
 11
-22.0116354627
 21
32.2220745004
  0
LINE
  5
3AC
100
AcDbEntity
  8
DRAFT
100
AcDbLine
 62
7
  6
CONTINUOUS
 10
-1.8349074712
 20
26.2349074712
 11
-1.8174537356
 21
26.2174537356
  0
LINE
  5
3AD
100
AcDbEntity
  8
RACCORDO
100
AcDbLine
 62
250
  6
CONTINUOUS
 10
18.1790886568
 20
-28.1749508327
 11
18.1790886568
 21
-26.25
  0
LINE
  5
3AE
100
AcDbEntity
  8
RACCORDO
100
AcDbLine
 62
250
  6
CONTINUOUS
 10
18.1790886568
 20
30.25
 11
18.1790886568
 21
32.1749508327
  0
LINE
  5
3AF
100
AcDbEntity
  8
RACCORDO
100
AcDbLine
 62
7
  6
CONTINUOUS
 10
18.2954457453
 20
31.108621664
 11
18.2954457453
 21
30.25
  0
LINE
  5
3B0
100
AcDbEntity
  8
RACCORDO
100
AcDbLine
 62
7
  6
CONTINUOUS
 10
18.2954457453
 20
-27.108621664
 11
18.2954457453
 21
-26.25
  0
LINE
  5
3B1
100
AcDbEntity
  8
RACCORDO
100
AcDbLine
 62
7
  6
CONTINUOUS
 10
19.9825462644
 20
34.9825462644
 11
19.9825462644
 21
32.215098561
  0
LINE
  5
3B2
100
AcDbEntity
  8
RACCORDO
100
AcDbLine
 62
7
  6
CONTINUOUS
 10
19.9825462644
 20
-30.9825462644
 11
19.9825462644
 21
-28.2151006784
  0
LINE
  5
3B3
100
AcDbEntity
  8
RACCORDO
100
AcDbLine
 62
7
  6
CONTINUOUS
 10
20.0
 20
35.0
 11
20.0
 21
32.2150996197
  0
LINE
  5
3B4
100
AcDbEntity
  8
RACCORDO
100
AcDbLine
 62
7
  6
CONTINUOUS
 10
20.0
 20
-28.2150996197
 11
20.0
 21
-31.0
  0
LINE
  5
3B5
100
AcDbEntity
  8
DRAFT
100
AcDbLine
 62
7
  6
CONTINUOUS
 10
1.8
 20
-24.0
 11
1.8174537356
 21
-23.9825462644
  0
LINE
  5
3B6
100
AcDbEntity
  8
RACCORDO
100
AcDbLine
 62
250
  6
CONTINUOUS
 10
2.9303310448
 20
-20.3156634558
 11
2.8645411899
 21
-20.3551370837
  0
LINE
  5
3B7
100
AcDbEntity
  8
RACCORDO
100
AcDbLine
 62
7
  6
CONTINUOUS
 10
-8.3581782981
 20
-28.25
 11
-8.3116354627
 21
-28.2220745004
  0
LINE
  5
3B8
100
AcDbEntity
  8
RACCORDO
100
AcDbLine
 62
7
  6
CONTINUOUS
 10
-8.0103517765
 20
-28.1086155717
 11
-8.1209113432
 21
-28.1749508327
  0
LINE
  5
3B9
100
AcDbEntity
  8
DRAFT
100
AcDbLine
 62
7
  6
CONTINUOUS
 10
-1.8616356596
 20
18.3
 11
-1.7393291264
 21
18.3
  0
LINE
  5
3BA
100
AcDbEntity
  8
DRAFT
100
AcDbLine
 62
7
  6
CONTINUOUS
 10
1.7393291264
 20
18.3
 11
1.8616356596
 21
18.3
  0
LINE
  5
3BB
100
AcDbEntity
  8
0
100
AcDbLine
 62
250
  6
CONTINUOUS
 10
1.7393291264
 20
19.0354740034
 11
0.9437255405
 21
19.0354740034
  0
LINE
  5
3BC
100
AcDbEntity
  8
0
100
AcDbLine
 62
250
  6
CONTINUOUS
 10
-0.9437253933
 20
19.0354740034
 11
-1.7393291264
 21
19.0354740034
  0
LINE
  5
3BD
100
AcDbEntity
  8
0
100
AcDbLine
 62
250
  6
CONTINUOUS
 10
0.15
 20
19.0612568165
 11
-0.15
 21
19.0612568165
  0
LINE
  5
3BE
100
AcDbEntity
  8
0
100
AcDbLine
 62
250
  6
CONTINUOUS
 10
1.7508359218
 20
19.3549691859
 11
0.9437253933
 21
19.3549691859
  0
LINE
  5
3BF
100
AcDbEntity
  8
0
100
AcDbLine
 62
250
  6
CONTINUOUS
 10
-0.9437253933
 20
19.3549691859
 11
-1.7508359218
 21
19.3549691859
  0
LINE
  5
3C0
100
AcDbEntity
  8
DRAFT
100
AcDbLine
 62
7
  6
CONTINUOUS
 10
1.85
 20
20.3
 11
-1.85
 21
20.3
  0
LWPOLYLINE
  5
3C1
100
AcDbEntity
  8
0
100
AcDbPolyline
 62
7
  6
CONTINUOUS
 90
10
 70
0
 43
0.3500000087
 10
0.8571428663
 20
44.249998642
 10
0.9285714218
 20
44.1071437958
 10
0.9285714218
 20
44.0357163727
 10
0.7857143107
 20
43.8928572632
 10
0.7142856886
 20
43.8928572632
 10
0.6428571331
 20
43.9642846863
 10
0.6428571331
 20
44.0357163727
 10
0.7142856886
 20
44.1785712189
 10
0.7857143107
 20
44.249998642
 10
0.8571428663
 20
44.249998642
  0
LINE
  5
3C2
100
AcDbEntity
  8
RACCORDO
100
AcDbLine
 62
250
  6
CONTINUOUS
 10
-3.0
 20
-32.5000190385
 11
-3.0130903017
 21
-32.5131093402
  0
LINE
  5
3C3
100
AcDbEntity
  8
DRAFT
100
AcDbLine
 62
7
  6
CONTINUOUS
 10
-5.0305440373
 20
-35.0
 11
-5.0
 21
-34.9694559627
  0
LINE
  5
3C4
100
AcDbEntity
  8
RACCORDO
100
AcDbLine
 62
250
  6
CONTINUOUS
 10
-2.5000190385
 20
-33.0
 11
-2.5131093402
 21
-33.0130903017
  0
LINE
  5
3C5
100
AcDbEntity
  8
DRAFT
100
AcDbLine
 62
7
  6
CONTINUOUS
 10
1.85
 20
21.5
 11
-1.85
 21
21.5
  0
LINE
  5
3C6
100
AcDbEntity
  8
0
100
AcDbLine
 62
250
  6
CONTINUOUS
 10
1.8516234144
 20
21.7790412315
 11
-1.8516234144
 21
21.7790412315
  0
LINE
  5
3C7
100
AcDbEntity
  8
0
100
AcDbLine
 62
250
  6
CONTINUOUS
 10
1.8524144486
 20
21.9150084566
 11
-1.8524144486
 21
21.9150084566
  0
LINE
  5
3C8
100
AcDbEntity
  8
RACCORDO
100
AcDbLine
 62
250
  6
CONTINUOUS
 10
1.8645445745
 20
23.3551512991
 11
1.923853753
 21
23.319566049
  0
LINE
  5
3C9
100
AcDbEntity
  8
RACCORDO
100
AcDbLine
 62
250
  6
CONTINUOUS
 10
2.8645411899
 20
24.3551370837
 11
2.9303310448
 21
24.3156634558
  0
LINE
  5
3CA
100
AcDbEntity
  8
RACCORDO
100
AcDbLine
 62
7
  6
CONTINUOUS
 10
-8.3581782981
 20
32.25
 11
-8.3116354627
 21
32.2220745004
  0
LINE
  5
3CB
100
AcDbEntity
  8
RACCORDO
100
AcDbLine
 62
7
  6
CONTINUOUS
 10
-8.0103517765
 20
32.1086155717
 11
-8.1209113432
 21
32.1749508327
  0
LINE
  5
3CC
100
AcDbEntity
  8
DRAFT
100
AcDbLine
 62
7
  6
CONTINUOUS
 10
1.8
 20
28.0
 11
1.8174537356
 21
27.9825462644
  0
LWPOLYLINE
  5
3CD
100
AcDbEntity
  8
0
100
AcDbPolyline
 62
7
  6
CONTINUOUS
 90
10
 70
0
 43
0.3500000087
 10
30.5499999908
 20
0.7230120697
 10
31.192857457
 20
0.0801546036
 10
32.0500014557
 20
-0.34841633
 10
33.1214298553
 20
-0.34841633
 10
33.5500007889
 20
0.0801546036
 10
33.5500007889
 20
0.7230120697
 10
33.1214298553
 20
1.1515830032
 10
32.2642858566
 20
1.1515830032
 10
31.8357149231
 20
0.7230120697
 10
31.8357149231
 20
-0.2055593521
  0
LINE
  5
3CE
100
AcDbEntity
  8
SMUSSO
100
AcDbLine
 62
7
  6
CONTINUOUS
 10
26.2964891058
 20
-26.244206984
 11
26.3
 21
-27.25
  0
LINE
  5
3CF
100
AcDbEntity
  8
RACCORDO
100
AcDbLine
 62
250
  6
CONTINUOUS
 10
26.1586094368
 20
31.1121123156
 11
26.1586155717
 21
31.108621664
  0
LINE
  5
3D0
100
AcDbEntity
  8
RACCORDO
100
AcDbLine
 62
7
  6
CONTINUOUS
 10
24.2730841559
 20
-6.7732364608
 11
24.2730841559
 21
10.7732364608
  0
LINE
  5
3D1
100
AcDbEntity
  8
RACCORDO
100
AcDbLine
 62
250
  6
CONTINUOUS
 10
24.4257464327
 20
-6.9258987375
 11
24.4257464327
 21
10.9258987375
  0
LINE
  5
3D2
100
AcDbEntity
  8
RACCORDO
100
AcDbLine
 62
250
  6
CONTINUOUS
 10
25.158621664
 20
-20.3551370837
 11
25.158621664
 21
-28.1086155717
  0
LINE
  5
3D3
100
AcDbEntity
  8
RACCORDO
100
AcDbLine
 62
250
  6
CONTINUOUS
 10
25.158621664
 20
24.3551370837
 11
25.158621664
 21
32.1086155717
  0
LINE
  5
3D4
100
AcDbEntity
  8
RACCORDO
100
AcDbLine
 62
250
  6
CONTINUOUS
 10
25.4531436423
 20
-6.9258987375
 11
25.4531436423
 21
10.9258987375
  0
LINE
  5
3D5
100
AcDbEntity
  8
RACCORDO
100
AcDbLine
 62
250
  6
CONTINUOUS
 10
25.6959962745
 20
23.8251438945
 11
25.6959962745
 21
-19.8251438945
  0
LINE
  5
3D6
100
AcDbEntity
  8
RACCORDO
100
AcDbLine
 62
7
  6
CONTINUOUS
 10
26.1251408483
 20
23.8251438945
 11
26.1251408483
 21
-19.8251438945
  0
LINE
  5
3D7
100
AcDbEntity
  8
RACCORDO
100
AcDbLine
 62
7
  6
CONTINUOUS
 10
26.1586155717
 20
31.108621664
 11
26.1586155717
 21
23.8586186178
  0
LINE
  5
3D8
100
AcDbEntity
  8
RACCORDO
100
AcDbLine
 62
7
  6
CONTINUOUS
 10
26.1586155717
 20
-19.8586186178
 11
26.1586155717
 21
-27.108621664
  0
LINE
  5
3D9
100
AcDbEntity
  8
RACCORDO
100
AcDbLine
 62
7
  6
CONTINUOUS
 10
26.1900438105
 20
-21.0972863359
 11
26.1900438105
 21
22.0
  0
LINE
  5
3DA
100
AcDbEntity
  8
RACCORDO
100
AcDbLine
 62
7
  6
CONTINUOUS
 10
26.2
 20
34.0000380769
 11
26.2
 21
31.6824458613
  0
LINE
  5
3DB
100
AcDbEntity
  8
RACCORDO
100
AcDbLine
 62
7
  6
CONTINUOUS
 10
26.2
 20
22.0
 11
26.2
 21
-25.6100467498
  0
LINE
  5
3DC
100
AcDbEntity
  8
RACCORDO
100
AcDbLine
 62
7
  6
CONTINUOUS
 10
26.2
 20
-27.6824461278
 11
26.2
 21
-30.0000380769
  0
LINE
  5
3DD
100
AcDbEntity
  8
RACCORDO
100
AcDbLine
 62
7
  6
CONTINUOUS
 10
26.3
 20
27.0
 11
26.3
 21
31.2500060923
  0
LINE
  5
3DE
100
AcDbEntity
  8
RACCORDO
100
AcDbLine
 62
250
  6
CONTINUOUS
 10
3.0
 20
-31.4999809615
 11
3.0130903017
 21
-31.4868906598
  0
LINE
  5
3DF
100
AcDbEntity
  8
DRAFT
100
AcDbLine
 62
7
  6
CONTINUOUS
 10
7.05
 20
-29.25
 11
7.0325462644
 21
-29.2674537356
  0
LINE
  5
3E0
100
AcDbEntity
  8
RACCORDO
100
AcDbLine
 62
7
  6
CONTINUOUS
 10
4.2418217019
 20
-28.25
 11
4.2883645373
 21
-28.2220745004
  0
LINE
  5
3E1
100
AcDbEntity
  8
RACCORDO
100
AcDbLine
 62
250
  6
CONTINUOUS
 10
-25.6364115523
 20
24.325013734
 11
-25.6251438945
 21
24.3251408483
  0
LINE
  5
3E2
100
AcDbEntity
  8
RACCORDO
100
AcDbLine
 62
7
  6
CONTINUOUS
 10
4.1363770467
 20
24.3144031845
 11
25.6251438945
 21
24.3251408483
  0
LINE
  5
3E3
100
AcDbEntity
  8
RACCORDO
100
AcDbLine
 62
250
  6
CONTINUOUS
 10
26.1251408483
 20
23.8251438945
 11
4.2072294267
 21
23.8144062307
  0
LINE
  5
3E4
100
AcDbEntity
  8
0
100
AcDbLine
 62
250
  6
CONTINUOUS
 10
2.9303310448
 20
24.2576118995
 11
2.5955525711
 21
24.2576118995
  0
LINE
  5
3E5
100
AcDbEntity
  8
0
100
AcDbLine
 62
250
  6
CONTINUOUS
 10
1.8598903107
 20
24.2576118995
 11
-1.8598903107
 21
24.2576118995
  0
LINE
  5
3E6
100
AcDbEntity
  8
RACCORDO
100
AcDbLine
 62
7
  6
CONTINUOUS
 10
-25.158621664
 20
24.3551370837
 11
-2.8645411899
 21
24.3551370837
  0
LINE
  5
3E7
100
AcDbEntity
  8
RACCORDO
100
AcDbLine
 62
7
  6
CONTINUOUS
 10
2.8645411899
 20
24.3551370837
 11
25.158621664
 21
24.3551370837
  0
LINE
  5
3E8
100
AcDbEntity
  8
0
100
AcDbLine
 62
250
  6
CONTINUOUS
 10
1.8598903107
 20
24.6823538308
 11
-1.8598903107
 21
24.6823538308
  0
LINE
  5
3E9
100
AcDbEntity
  8
0
100
AcDbLine
 62
250
  6
CONTINUOUS
 10
1.8598903107
 20
25.4873484894
 11
-1.8598903107
 21
25.4873484894
  0
LINE
  5
3EA
100
AcDbEntity
  8
0
100
AcDbLine
 62
7
  6
CONTINUOUS
 10
-1.8598903107
 20
25.5
 11
1.8598903107
 21
25.5
  0
LINE
  5
3EB
100
AcDbEntity
  8
DRAFT
100
AcDbLine
 62
7
  6
CONTINUOUS
 10
1.8598903107
 20
26.2
 11
-1.8598903107
 21
26.2
  0
LINE
  5
3EC
100
AcDbEntity
  8
DRAFT
100
AcDbLine
 62
7
  6
CONTINUOUS
 10
1.8174537356
 20
26.2174537356
 11
-1.8174537356
 21
26.2174537356
  0
LINE
  5
3ED
100
AcDbEntity
  8
DRAFT
100
AcDbLine
 62
7
  6
CONTINUOUS
 10
1.8349074712
 20
26.2349074712
 11
1.8598903107
 21
26.2349074712
  0
LINE
  5
3EE
100
AcDbEntity
  8
DRAFT
100
AcDbLine
 62
7
  6
CONTINUOUS
 10
-1.8349074712
 20
26.2349074712
 11
-1.8598903107
 21
26.2349074712
  0
LINE
  5
3EF
100
AcDbEntity
  8
RACCORDO
100
AcDbLine
 62
250
  6
CONTINUOUS
 10
-26.1251408483
 20
23.8251438945
 11
-4.2072294267
 21
23.8144062307
  0
LINE
  5
3F0
100
AcDbEntity
  8
RACCORDO
100
AcDbLine
 62
7
  6
CONTINUOUS
 10
-25.6251438945
 20
24.3251408483
 11
-4.1363770467
 21
24.3144031845
  0
LWPOLYLINE
  5
3F1
100
AcDbEntity
  8
0
100
AcDbPolyline
 62
7
  6
CONTINUOUS
 90
10
 70
0
 43
0.3500000087
 10
30.5499999908
 20
3.0801554016
 10
31.192857457
 20
2.4372979355
 10
32.0500014557
 20
2.008727002
 10
33.1214298553
 20
2.008727002
 10
33.5500007889
 20
2.4372979355
 10
33.5500007889
 20
3.0801554016
 10
33.1214298553
 20
3.5087263351
 10
32.2642858566
 20
3.5087263351
 10
31.8357149231
 20
3.0801554016
 10
31.8357149231
 20
2.1515839798
  0
LINE
  5
3F2
100
AcDbEntity
  8
RACCORDO
100
AcDbLine
 62
250
  6
CONTINUOUS
 10
26.1231319345
 20
23.8699135558
 11
26.1251408483
 21
23.8251438945
  0
LINE
  5
3F3
100
AcDbEntity
  8
DRAFT
100
AcDbLine
 62
7
  6
CONTINUOUS
 10
12.4834189512
 20
-29.2665810488
 11
12.5
 21
-29.25
  0
LINE
  5
3F4
100
AcDbEntity
  8
RACCORDO
100
AcDbLine
 62
7
  6
CONTINUOUS
 10
26.2074971739
 20
27.0
 11
26.3
 21
27.0
  0
LINE
  5
3F5
100
AcDbEntity
  8
DRAFT
100
AcDbLine
 62
7
  6
CONTINUOUS
 10
-1.8174537356
 20
27.9825462644
 11
1.8174537356
 21
27.9825462644
  0
LINE
  5
3F6
100
AcDbEntity
  8
DRAFT
100
AcDbLine
 62
7
  6
CONTINUOUS
 10
-1.8
 20
28.0
 11
1.8
 21
28.0
  0
LINE
  5
3F7
100
AcDbEntity
  8
DRAFT
100
AcDbLine
 62
7
  6
CONTINUOUS
 10
-1.8349074712
 20
28.0
 11
-1.8598903107
 21
28.0
  0
LINE
  5
3F8
100
AcDbEntity
  8
DRAFT
100
AcDbLine
 62
7
  6
CONTINUOUS
 10
1.8349074712
 20
28.0
 11
1.8598903107
 21
28.0
  0
LINE
  5
3F9
100
AcDbEntity
  8
DRAFT
100
AcDbLine
 62
7
  6
CONTINUOUS
 10
-1.8645445745
 20
28.0145445745
 11
1.8645445745
 21
28.0145445745
  0
LINE
  5
3FA
100
AcDbEntity
  8
DRAFT
100
AcDbLine
 62
7
  6
CONTINUOUS
 10
-18.2954457453
 20
30.25
 11
-8.0045542547
 21
30.25
  0
LINE
  5
3FB
100
AcDbEntity
  8
DRAFT
100
AcDbLine
 62
7
  6
CONTINUOUS
 10
8.0045542547
 20
30.25
 11
18.2954457453
 21
30.25
  0
LINE
  5
3FC
100
AcDbEntity
  8
RACCORDO
100
AcDbLine
 62
250
  6
CONTINUOUS
 10
-26.1586155717
 20
31.108621664
 11
-18.2954457453
 21
31.108621664
  0
LINE
  5
3FD
100
AcDbEntity
  8
RACCORDO
100
AcDbLine
 62
250
  6
CONTINUOUS
 10
8.0045542547
 20
31.108621664
 11
-8.0045542547
 21
31.108621664
  0
LINE
  5
3FE
100
AcDbEntity
  8
RACCORDO
100
AcDbLine
 62
250
  6
CONTINUOUS
 10
18.2954457453
 20
31.108621664
 11
26.1586155717
 21
31.108621664
  0
LINE
  5
3FF
100
AcDbEntity
  8
RACCORDO
100
AcDbLine
 62
7
  6
CONTINUOUS
 10
-25.158621664
 20
32.1086155717
 11
-18.2896482235
 21
32.1086155717
  0
LINE
  5
400
100
AcDbEntity
  8
RACCORDO
100
AcDbLine
 62
7
  6
CONTINUOUS
 10
25.158621664
 20
32.1086155717
 11
18.2896482235
 21
32.1086155717
  0
LINE
  5
401
100
AcDbEntity
  8
RACCORDO
100
AcDbLine
 62
7
  6
CONTINUOUS
 10
8.0103517765
 20
32.1086155717
 11
-8.0103517765
 21
32.1086155717
  0
LINE
  5
402
100
AcDbEntity
  8
RACCORDO
100
AcDbLine
 62
7
  6
CONTINUOUS
 10
-25.3000060923
 20
32.25
 11
-22.0581782981
 21
32.25
  0
LINE
  5
403
100
AcDbEntity
  8
DRAFT
100
AcDbLine
 62
7
  6
CONTINUOUS
 10
-11.0581782981
 20
32.25
 11
-8.3581782981
 21
32.25
  0
LINE
  5
404
100
AcDbEntity
  8
DRAFT
100
AcDbLine
 62
7
  6
CONTINUOUS
 10
-4.2418217019
 20
32.25
 11
4.2418217019
 21
32.25
  0
LINE
  5
405
100
AcDbEntity
  8
DRAFT
100
AcDbLine
 62
7
  6
CONTINUOUS
 10
12.5
 20
32.25
 11
16.5
 21
32.25
  0
LINE
  5
406
100
AcDbEntity
  8
DRAFT
100
AcDbLine
 62
7
  6
CONTINUOUS
 10
-12.5
 20
32.25
 11
-16.5
 21
32.25
  0
LINE
  5
407
100
AcDbEntity
  8
RACCORDO
100
AcDbLine
 62
7
  6
CONTINUOUS
 10
22.0581782981
 20
32.25
 11
25.3000060923
 21
32.25
  0
LINE
  5
408
100
AcDbEntity
  8
RACCORDO
100
AcDbLine
 62
7
  6
CONTINUOUS
 10
4.2418217019
 20
32.25
 11
4.2883645373
 21
32.2220745004
  0
LINE
  5
409
100
AcDbEntity
  8
RACCORDO
100
AcDbLine
 62
250
  6
CONTINUOUS
 10
9.6
 20
34.0000380769
 11
9.6174537356
 21
33.9825843414
  0
LINE
  5
40A
100
AcDbEntity
  8
RACCORDO
100
AcDbLine
 62
250
  6
CONTINUOUS
 10
10.5999619231
 20
35.0
 11
10.6174156586
 21
34.9825462644
  0
LINE
  5
40B
100
AcDbEntity
  8
DRAFT
100
AcDbLine
 62
7
  6
CONTINUOUS
 10
12.4834189512
 20
33.2665810488
 11
12.5
 21
33.25
  0
LINE
  5
40C
100
AcDbEntity
  8
RACCORDO
100
AcDbLine
 62
7
  6
CONTINUOUS
 10
17.9418217019
 20
-28.25
 11
17.9883645373
 21
-28.2220745004
  0
LINE
  5
40D
100
AcDbEntity
  8
RACCORDO
100
AcDbLine
 62
7
  6
CONTINUOUS
 10
18.2896482235
 20
-28.1086155717
 11
18.1790886568
 21
-28.1749508327
  0
LINE
  5
40E
100
AcDbEntity
  8
RACCORDO
100
AcDbLine
 62
250
  6
CONTINUOUS
 10
-25.2420178406
 20
32.1051310056
 11
-25.158621664
 21
32.1086155717
  0
LINE
  5
40F
100
AcDbEntity
  8
DRAFT
100
AcDbLine
 62
7
  6
CONTINUOUS
 10
16.5
 20
33.25
 11
12.5
 21
33.25
  0
LINE
  5
410
100
AcDbEntity
  8
DRAFT
100
AcDbLine
 62
7
  6
CONTINUOUS
 10
-12.5
 20
33.25
 11
-16.5
 21
33.25
  0
LINE
  5
411
100
AcDbEntity
  8
DRAFT
100
AcDbLine
 62
7
  6
CONTINUOUS
 10
16.5165810488
 20
33.2665810488
 11
12.4834189512
 21
33.2665810488
  0
LINE
  5
412
100
AcDbEntity
  8
RACCORDO
100
AcDbLine
 62
7
  6
CONTINUOUS
 10
-19.9825462644
 20
34.9825462644
 11
-10.6174156586
 21
34.9825462644
  0
LINE
  5
413
100
AcDbEntity
  8
RACCORDO
100
AcDbLine
 62
7
  6
CONTINUOUS
 10
10.6174156586
 20
34.9825462644
 11
19.9825462644
 21
34.9825462644
  0
LINE
  5
414
100
AcDbEntity
  8
RACCORDO
100
AcDbLine
 62
7
  6
CONTINUOUS
 10
-25.2000380769
 20
35.0
 11
25.2000380769
 21
35.0
  0
LINE
  5
415
100
AcDbEntity
  8
RACCORDO
100
AcDbLine
 62
250
  6
CONTINUOUS
 10
25.158621664
 20
32.1086155717
 11
25.2420178406
 21
32.1051310056
  0
LINE
  5
416
100
AcDbEntity
  8
RACCORDO
100
AcDbLine
 62
7
  6
CONTINUOUS
 10
17.9418217019
 20
32.25
 11
17.9883645373
 21
32.2220745004
  0
LINE
  5
417
100
AcDbEntity
  8
RACCORDO
100
AcDbLine
 62
7
  6
CONTINUOUS
 10
18.2896482235
 20
32.1086155717
 11
18.1790886568
 21
32.1749508327
  0
LWPOLYLINE
  5
418
100
AcDbEntity
  8
0
100
AcDbPolyline
 62
7
  6
CONTINUOUS
 90
8
 70
0
 43
0.3500000087
 10
-4.285714398
 20
43.7499981537
 10
-3.4285714651
 20
43.7499981537
 10
-2.9999999987
 20
44.1785712189
 10
-2.9999999987
 20
45.0357130859
 10
-3.4285714651
 20
45.4642861511
 10
-4.285714398
 20
45.4642861511
 10
-4.285714398
 20
46.7500010834
 10
-2.9999999987
 20
46.7500010834
  0
LWPOLYLINE
  5
419
100
AcDbEntity
  8
0
100
AcDbPolyline
 62
7
  6
CONTINUOUS
 90
7
 70
0
 43
0.3500000087
 10
-0.6428571331
 20
43.7499981537
 10
-2.142857199
 20
43.7499981537
 10
-0.6428571331
 20
45.8928592163
 10
-0.6428571331
 20
46.3214280182
 10
-1.0714285995
 20
46.7500010834
 10
-1.7142857326
 20
46.7500010834
 10
-2.142857199
 20
46.1071414856
  0
LWPOLYLINE
  5
41A
100
AcDbEntity
  8
0
100
AcDbPolyline
 62
7
  6
CONTINUOUS
 90
3
 70
0
 43
0.3500000087
 10
3.4285714651
 20
44.3928577515
 10
1.9285714658
 20
44.3928577515
 10
2.5714285322
 20
46.7500010834
  0
LWPOLYLINE
  5
41B
100
AcDbEntity
  8
0
100
AcDbPolyline
 62
7
  6
CONTINUOUS
 90
10
 70
0
 43
0.3500000087
 10
-75.1382043457
 20
56.7499980591
 10
-75.7810596802
 20
56.1071427246
 10
-76.2096327454
 20
55.2499965942
 10
-76.2096327454
 20
54.1785681946
 10
-75.7810596802
 20
53.750003656
 10
-75.1382043457
 20
53.750003656
 10
-74.7096312805
 20
54.1785681946
 10
-74.7096312805
 20
55.035714325
 10
-75.1382043457
 20
55.4642873901
 10
-76.0667778992
 20
55.4642873901
  0
LWPOLYLINE
  5
41C
100
AcDbEntity
  8
0
100
AcDbPolyline
 62
7
  6
CONTINUOUS
 90
5
 70
0
 43
0.3500000087
 10
-69.2968318268
 20
45.4642861511
 10
-68.939690448
 20
45.6785726837
 10
-68.939690448
 20
46.3214280182
 10
-69.2968318268
 20
46.7500010834
 10
-70.1539736938
 20
46.7500010834
  0
LINE
  5
41D
100
AcDbEntity
  8
RACCORDO
100
AcDbLine
 62
7
  6
CONTINUOUS
 10
-41.4254036235
 20
-34.956365661
 11
-46.4254036235
 21
-35.0
  0
LINE
  5
41E
100
AcDbEntity
  8
RACCORDO
100
AcDbLine
 62
250
  6
CONTINUOUS
 10
-41.4254036235
 20
-33.956403738
 11
-46.4254036235
 21
-34.0000380769
  0
LINE
  5
41F
100
AcDbEntity
  8
RACCORDO
100
AcDbLine
 62
7
  6
CONTINUOUS
 10
-42.3382478808
 20
-30.6424202064
 11
-46.203802079
 21
-30.980612377
  0
LINE
  5
420
100
AcDbEntity
  8
RACCORDO
100
AcDbLine
 62
7
  6
CONTINUOUS
 10
-48.4254036235
 20
-31.0
 11
-46.4254036235
 21
-30.9825462644
  0
LINE
  5
421
100
AcDbEntity
  8
DRAFT
100
AcDbLine
 62
7
  6
CONTINUOUS
 10
-46.203802079
 20
-30.980612377
 11
-46.4254036235
 21
-30.9825462644
  0
LINE
  5
422
100
AcDbEntity
  8
DRAFT
100
AcDbLine
 62
7
  6
CONTINUOUS
 10
-50.4254036235
 20
-30.9825462644
 11
-48.4254036235
 21
-31.0
  0
LWPOLYLINE
  5
423
100
AcDbEntity
  8
RACCORDO
100
AcDbPolyline
 62
7
  6
CONTINUOUS
 90
8
 70
0
 10
-102.2081435934
 20
21.9978236846
 10
-102.2080574779
 20
21.9848851694
 10
-102.2014297017
 20
21.8853128184
 10
-102.1842257065
 20
21.7865241322
 10
-102.1566100717
 20
21.6898801715
 10
-102.1191888587
 20
21.5971188929
 10
-102.0726653836
 20
21.5092728054
 10
-102.0400571975
 20
21.4583086466
  0
LINE
  5
424
100
AcDbEntity
  8
RACCORDO
100
AcDbLine
 62
7
  6
CONTINUOUS
 10
-102.2081499862
 20
23.8143534016
 11
-102.2081499862
 21
21.9975971326
  0
LINE
  5
425
100
AcDbEntity
  8
RACCORDO
100
AcDbLine
 62
7
  6
CONTINUOUS
 10
-102.2081499861
 20
-17.9977910581
 11
-102.2081499862
 21
-19.8143534013
  0
LINE
  5
426
100
AcDbEntity
  8
RACCORDO
100
AcDbLine
 62
250
  6
CONTINUOUS
 10
-102.1879679183
 20
23.8144062307
 11
-102.1879679183
 21
21.9661549201
  0
LINE
  5
427
100
AcDbEntity
  8
RACCORDO
100
AcDbLine
 62
250
  6
CONTINUOUS
 10
-102.1879679183
 20
-17.9661549201
 11
-102.1879679183
 21
-19.8144062307
  0
LINE
  5
428
100
AcDbEntity
  8
RACCORDO
100
AcDbLine
 62
7
  6
CONTINUOUS
 10
-102.2080574779
 20
-17.9848851694
 11
-102.2081435934
 21
-17.9978236846
  0
LINE
  5
429
100
AcDbEntity
  8
RACCORDO
100
AcDbLine
 62
7
  6
CONTINUOUS
 10
-102.2014297017
 20
-17.8853128184
 11
-102.2080789482
 21
-17.9871160937
  0
LINE
  5
42A
100
AcDbEntity
  8
RACCORDO
100
AcDbLine
 62
7
  6
CONTINUOUS
 10
-100.3174202327
 20
-8.8113455988
 11
-100.3174530826
 21
-8.8117118634
  0
LWPOLYLINE
  5
42B
100
AcDbEntity
  8
RACCORDO
100
AcDbPolyline
 62
7
  6
CONTINUOUS
 90
3
 70
0
 10
-100.3812950268
 20
-9.486692517
 10
-100.4633518813
 20
-10.2765415027
 10
-100.5500518842
 20
-11.0313321612
  0
LWPOLYLINE
  5
42C
100
AcDbEntity
  8
0
100
AcDbPolyline
 62
7
  6
CONTINUOUS
 90
10
 70
0
 43
0.3500000087
 10
-65.2254047607
 20
46.7500010834
 10
-65.8682600952
 20
46.1071414856
 10
-66.2968331604
 20
45.2499996185
 10
-66.2968331604
 20
44.1785712189
 10
-65.8682600952
 20
43.7499981537
 10
-65.2254047607
 20
43.7499981537
 10
-64.7968316956
 20
44.1785712189
 10
-64.7968316956
 20
45.0357130859
 10
-65.2254047607
 20
45.4642861511
 10
-66.1539740509
 20
45.4642861511
  0
LINE
  5
42D
100
AcDbEntity
  8
RACCORDO
100
AcDbLine
 62
7
  6
CONTINUOUS
 10
-101.3254036235
 20
18.41
 11
-101.0957520699
 21
18.5134699892
  0
LINE
  5
42E
100
AcDbEntity
  8
ASSI
100
AcDbLine
 62
7
  6
CONTINUOUS
 10
-49.4451580236
 20
-28.3100480559
 11
-48.4254036235
 21
-28.3
  0
LINE
  5
42F
100
AcDbEntity
  8
RACCORDO
100
AcDbLine
 62
250
  6
CONTINUOUS
 10
-48.4254036235
 20
-30.0000380769
 11
-46.4254036235
 21
-29.9825843414
  0
LINE
  5
430
100
AcDbEntity
  8
RACCORDO
100
AcDbLine
 62
7
  6
CONTINUOUS
 10
-89.0288942749
 20
-28.1086155717
 11
-48.5254036235
 21
-28.25
  0
LINE
  5
431
100
AcDbEntity
  8
RACCORDO
100
AcDbLine
 62
7
  6
CONTINUOUS
 10
-41.5155587149
 20
-30.0611739898
 11
-46.4254036235
 21
-30.0183264224
  0
LINE
  5
432
100
AcDbEntity
  8
ASSI
100
AcDbLine
 62
7
  6
CONTINUOUS
 10
-49.4451580236
 20
-30.2899519441
 11
-48.4254036235
 21
-30.3
  0
LINE
  5
433
100
AcDbEntity
  8
RACCORDO
100
AcDbLine
 62
7
  6
CONTINUOUS
 10
-101.3254036235
 20
-15.1102540378
 11
-101.2367628272
 21
-15.1614308254
  0
LWPOLYLINE
  5
434
100
AcDbEntity
  8
RACCORDO
100
AcDbPolyline
 62
7
  6
CONTINUOUS
 90
29
 70
0
 10
-100.3174495471
 20
12.8116730233
 10
-100.3148331435
 20
12.7855878541
 10
-100.310063237
 20
12.7478744524
 10
-100.3037474565
 20
12.7086247945
 10
-100.2955795757
 20
12.6677574213
 10
-100.2855025491
 20
12.6263110066
 10
-100.2733925101
 20
12.5845680344
 10
-100.2589805928
 20
12.5422689473
 10
-100.2423016362
 20
12.5000496729
 10
-100.2234288549
 20
12.458376765
 10
-100.2022165598
 20
12.4171481457
 10
-100.1785034875
 20
12.3763239116
 10
-100.1521904039
 20
12.3360253955
 10
-100.123300318
 20
12.296549065
 10
-100.0918777806
 20
12.2581675327
 10
-100.0579932653
 20
12.2211380889
 10
-100.0216304147
 20
12.1855999689
 10
-99.9827285868
 20
12.1516657186
 10
-99.9413312534
 20
12.1195515519
 10
-99.8975042037
 20
12.0894786841
 10
-99.8512198062
 20
12.0616048303
 10
-99.8025593431
 20
12.0361640908
 10
-99.7516416642
 20
12.0133990914
 10
-99.6985086204
 20
11.9935142921
 10
-99.6433135895
 20
11.9767595317
 10
-99.5862312182
 20
11.9633783068
 10
-99.5273621456
 20
11.9535942
 10
-99.4669000202
 20
11.9476530914
 10
-99.4246897838
 20
11.945927438
  0
LINE
  5
435
100
AcDbEntity
  8
RACCORDO
100
AcDbLine
 62
7
  6
CONTINUOUS
 10
-100.3174229648
 20
12.8113466826
 11
-100.3174522142
 21
12.8116727255
  0
LINE
  5
436
100
AcDbEntity
  8
RACCORDO
100
AcDbLine
 62
7
  6
CONTINUOUS
 10
-99.1557124356
 20
-6.9258987375
 11
-99.1559355558
 21
11.0003356511
  0
LINE
  5
437
100
AcDbEntity
  8
RACCORDO
100
AcDbLine
 62
250
  6
CONTINUOUS
 10
-99.146630505
 20
-6.9258987375
 11
-99.146630505
 21
10.9258987375
  0
LINE
  5
438
100
AcDbEntity
  8
RACCORDO
100
AcDbLine
 62
250
  6
CONTINUOUS
 10
-99.1118663245
 20
23.8251438945
 11
-99.1118663245
 21
-19.8251438945
  0
LINE
  5
439
100
AcDbEntity
  8
RACCORDO
100
AcDbLine
 62
250
  6
CONTINUOUS
 10
-98.6186571672
 20
23.8251438945
 11
-98.6186571672
 21
-19.8251438945
  0
LWPOLYLINE
  5
43A
100
AcDbEntity
  8
RACCORDO
100
AcDbPolyline
 62
7
  6
CONTINUOUS
 90
25
 70
0
 10
-99.15571232
 20
-6.9258987375
 10
-99.1560353943
 20
-7.0156283005
 10
-99.157122152
 20
-7.1128881939
 10
-99.1589510053
 20
-7.2084841877
 10
-99.1614820798
 20
-7.3021434448
 10
-99.1646821572
 20
-7.3935680905
 10
-99.1685259589
 20
-7.4824621986
 10
-99.1729741396
 20
-7.568584183
 10
-99.1779731889
 20
-7.6517063708
 10
-99.1834763037
 20
-7.7315716186
 10
-99.1894452485
 20
-7.8079162099
 10
-99.1958330477
 20
-7.880557932
 10
-99.2025786268
 20
-7.9493173917
 10
-99.2096001484
 20
-8.0139272027
 10
-99.2168393108
 20
-8.0742411005
 10
-99.2242406825
 20
-8.1301458895
 10
-99.2317140443
 20
-8.1813944126
 10
-99.2392003964
 20
-8.2280615662
 10
-99.2465689797
 20
-8.2698547285
 10
-99.253555497
 20
-8.3059137263
 10
-99.2600627163
 20
-8.3363891729
 10
-99.2658798128
 20
-8.3610031752
 10
-99.2704290937
 20
-8.3783495718
 10
-99.2734021032
 20
-8.3885761157
 10
-99.2739715727
 20
-8.3903948859
  0
LINE
  5
43B
100
AcDbEntity
  8
RACCORDO
100
AcDbLine
 62
7
  6
CONTINUOUS
 10
-100.4621299374
 20
-10.2653551731
 11
-100.548737898
 21
-11.0204324196
  0
LINE
  5
43C
100
AcDbEntity
  8
RACCORDO
100
AcDbLine
 62
7
  6
CONTINUOUS
 10
-100.548737898
 20
-11.0204324196
 11
-100.6419293521
 21
-11.7566990671
  0
LINE
  5
43D
100
AcDbEntity
  8
RACCORDO
100
AcDbLine
 62
7
  6
CONTINUOUS
 10
-100.6405244716
 20
-11.7461248448
 11
-100.738593034
 21
-12.4494611096
  0
LINE
  5
43E
100
AcDbEntity
  8
RACCORDO
100
AcDbLine
 62
7
  6
CONTINUOUS
 10
-100.7370996422
 20
-12.4392554662
 11
-100.8392232706
 21
-13.1043891415
  0
LINE
  5
43F
100
AcDbEntity
  8
RACCORDO
100
AcDbLine
 62
7
  6
CONTINUOUS
 10
-100.8376470241
 20
-13.0946070274
 11
-100.9434772676
 21
-13.7204057318
  0
LINE
  5
440
100
AcDbEntity
  8
RACCORDO
100
AcDbLine
 62
7
  6
CONTINUOUS
 10
-102.1842257065
 20
-17.7865241322
 11
-102.2018154781
 21
-17.8886429221
  0
LINE
  5
441
100
AcDbEntity
  8
RACCORDO
100
AcDbLine
 62
7
  6
CONTINUOUS
 10
-100.9418246622
 20
-13.7110986298
 11
-101.0509644757
 21
-14.29633562
  0
LWPOLYLINE
  5
442
100
AcDbEntity
  8
RACCORDO
100
AcDbPolyline
 62
7
  6
CONTINUOUS
 90
3
 70
0
 10
-101.0492430096
 20
-14.287552758
 10
-101.1605714529
 20
-14.8278965313
 10
-101.2720047624
 20
-15.3157054277
  0
LINE
  5
443
100
AcDbEntity
  8
RACCORDO
100
AcDbLine
 62
7
  6
CONTINUOUS
 10
-101.1587930082
 20
-14.819693103
 11
-101.1595404434
 21
-14.8229705828
  0
LINE
  5
444
100
AcDbEntity
  8
RACCORDO
100
AcDbLine
 62
7
  6
CONTINUOUS
 10
-101.270182136
 20
-15.3081309393
 11
-101.3845400814
 21
-15.7586250904
  0
LINE
  5
445
100
AcDbEntity
  8
RACCORDO
100
AcDbLine
 62
7
  6
CONTINUOUS
 10
-102.1566100717
 20
-17.6898801715
 11
-102.1842257065
 21
-17.7865241322
  0
LINE
  5
446
100
AcDbEntity
  8
RACCORDO
100
AcDbLine
 62
250
  6
CONTINUOUS
 10
-89.0288942749
 20
-27.108621664
 11
-90.0254036235
 21
-27.108621664
  0
LINE
  5
447
100
AcDbEntity
  8
RACCORDO
100
AcDbLine
 62
250
  6
CONTINUOUS
 10
-89.0288942749
 20
-27.108621664
 11
-48.5253975098
 21
-27.2500061137
  0
LINE
  5
448
100
AcDbEntity
  8
RACCORDO
100
AcDbLine
 62
7
  6
CONTINUOUS
 10
-45.5225238462
 20
-26.2672955372
 11
-46.4254036235
 21
-26.2620952655
  0
LINE
  5
449
100
AcDbEntity
  8
SMUSSO
100
AcDbLine
 62
7
  6
CONTINUOUS
 10
-49.5311966395
 20
-26.244206984
 11
-75.0542013969
 21
-26.0972034041
  0
LINE
  5
44A
100
AcDbEntity
  8
ASSI
100
AcDbLine
 62
7
  6
CONTINUOUS
 10
-49.4451580236
 20
-25.9899519441
 11
-48.4254036235
 21
-26.0
  0
LINE
  5
44B
100
AcDbEntity
  8
RACCORDO
100
AcDbLine
 62
7
  6
CONTINUOUS
 10
-101.3826881443
 20
-15.7517216227
 11
-101.4960320884
 21
-16.151344407
  0
LINE
  5
44C
100
AcDbEntity
  8
RACCORDO
100
AcDbLine
 62
7
  6
CONTINUOUS
 10
-101.4941736991
 20
-16.1451608068
 11
-101.6061944428
 21
-16.4966476821
  0
LINE
  5
44D
100
AcDbEntity
  8
RACCORDO
100
AcDbLine
 62
7
  6
CONTINUOUS
 10
-101.6043542984
 20
-16.4912193607
 11
-101.7136706239
 21
-16.7940669312
  0
LINE
  5
44E
100
AcDbEntity
  8
RACCORDO
100
AcDbLine
 62
7
  6
CONTINUOUS
 10
-102.1191888587
 20
-17.5971188929
 11
-102.1566100717
 21
-17.6898801715
  0
LINE
  5
44F
100
AcDbEntity
  8
RACCORDO
100
AcDbLine
 62
7
  6
CONTINUOUS
 10
-101.7118782775
 20
-16.7894218374
 11
-101.8138564788
 21
-17.0368315703
  0
LINE
  5
450
100
AcDbEntity
  8
ASSI
100
AcDbLine
 62
7
  6
CONTINUOUS
 10
-49.4451580236
 20
-24.0100480559
 11
-48.4254036235
 21
-24.0
  0
LINE
  5
451
100
AcDbEntity
  8
RACCORDO
100
AcDbLine
 62
250
  6
CONTINUOUS
 10
-48.4254036235
 20
-22.4999619231
 11
-50.4254036235
 21
-22.5174156586
  0
LINE
  5
452
100
AcDbEntity
  8
DRAFT
100
AcDbLine
 62
7
  6
CONTINUOUS
 10
-53.6254036235
 20
-22.2453797125
 11
-50.4254036235
 21
-22.2174537356
  0
LINE
  5
453
100
AcDbEntity
  8
RACCORDO
100
AcDbLine
 62
7
  6
CONTINUOUS
 10
-48.4254036235
 20
-21.5
 11
-50.4254036235
 21
-21.5174537356
  0
LINE
  5
454
100
AcDbEntity
  8
RACCORDO
100
AcDbLine
 62
7
  6
CONTINUOUS
 10
-53.4254036235
 20
-23.0
 11
-75.0254036235
 21
-23.0
  0
LINE
  5
455
100
AcDbEntity
  8
RACCORDO
100
AcDbLine
 62
7
  6
CONTINUOUS
 10
-90.0254036235
 20
-20.3551370837
 11
-90.0254036235
 21
-27.108621664
  0
LINE
  5
456
100
AcDbEntity
  8
RACCORDO
100
AcDbLine
 62
7
  6
CONTINUOUS
 10
-90.0254036235
 20
24.3551370837
 11
-90.0254036235
 21
31.108621664
  0
LINE
  5
457
100
AcDbEntity
  8
RACCORDO
100
AcDbLine
 62
250
  6
CONTINUOUS
 10
-101.9328473562
 20
-17.5127589669
 11
-101.9301607089
 21
-17.5070624734
  0
LINE
  5
458
100
AcDbEntity
  8
RACCORDO
100
AcDbLine
 62
7
  6
CONTINUOUS
 10
-101.8121579943
 20
-17.0329929731
 11
-101.9038813468
 21
-17.2263849972
  0
LINE
  5
459
100
AcDbEntity
  8
RACCORDO
100
AcDbLine
 62
250
  6
CONTINUOUS
 10
-101.9329777938
 20
-17.5096912782
 11
-101.9302873105
 21
-17.5040952289
  0
LINE
  5
45A
100
AcDbEntity
  8
RACCORDO
100
AcDbLine
 62
7
  6
CONTINUOUS
 10
-102.0726653836
 20
-17.5092728054
 11
-102.1191888587
 21
-17.5971188929
  0
LINE
  5
45B
100
AcDbEntity
  8
0
100
AcDbLine
 62
7
  6
CONTINUOUS
 10
-76.7286672381
 20
21.9150084566
 11
-74.3860637953
 21
24.2576118995
  0
LINE
  5
45C
100
AcDbEntity
  8
0
100
AcDbLine
 62
7
  6
CONTINUOUS
 10
-46.4254036235
 20
-14.0797910048
 11
-46.2441292318
 21
-14.0400747032
  0
LINE
  5
45D
100
AcDbEntity
  8
0
100
AcDbLine
 62
7
  6
CONTINUOUS
 10
-46.2737396057
 20
-13.6457730885
 11
-46.4254036235
 21
-13.678648765
  0
LINE
  5
45E
100
AcDbEntity
  8
0
100
AcDbLine
 62
7
  6
CONTINUOUS
 10
-46.2441292318
 20
-14.0400747032
 11
-45.9987848466
 21
-13.9879075382
  0
LINE
  5
45F
100
AcDbEntity
  8
0
100
AcDbLine
 62
7
  6
CONTINUOUS
 10
-45.1084131296
 20
-13.4022575751
 11
-45.2827614176
 21
-13.4391158737
  0
LINE
  5
460
100
AcDbEntity
  8
0
100
AcDbLine
 62
7
  6
CONTINUOUS
 10
-46.0377297675
 20
-13.5958322164
 11
-46.2737396057
 21
-13.6457730885
  0
LWPOLYLINE
  5
461
100
AcDbEntity
  8
0
100
AcDbPolyline
 62
7
  6
CONTINUOUS
 90
4
 70
0
 10
-45.9987848466
 20
-13.9879075382
 10
-45.6171875692
 20
-13.9085891348
 10
-45.4873019764
 20
-13.8817429563
 10
-45.1817445155
 20
-13.8181405305
  0
LINE
  5
462
100
AcDbEntity
  8
0
100
AcDbLine
 62
7
  6
CONTINUOUS
 10
-45.2827614176
 20
-13.4391158737
 11
-46.0377297675
 21
-13.5958322164
  0
LINE
  5
463
100
AcDbEntity
  8
RACCORDO
100
AcDbLine
 62
250
  6
CONTINUOUS
 10
-98.6186571672
 20
-19.8251438945
 11
-99.1118663245
 21
-19.8251438945
  0
LINE
  5
464
100
AcDbEntity
  8
RACCORDO
100
AcDbLine
 62
7
  6
CONTINUOUS
 10
-89.8931655807
 20
-20.3555986834
 11
-101.7097699938
 21
-20.3143507852
  0
LINE
  5
465
100
AcDbEntity
  8
RACCORDO
100
AcDbLine
 62
250
  6
CONTINUOUS
 10
-99.1118663245
 20
-19.8251438945
 11
-102.2081501202
 21
-19.8143534032
  0
LINE
  5
466
100
AcDbEntity
  8
RACCORDO
100
AcDbLine
 62
250
  6
CONTINUOUS
 10
-89.0288942749
 20
-19.8586186178
 11
-98.6186571672
 21
-19.8251438945
  0
LINE
  5
467
100
AcDbEntity
  8
0
100
AcDbLine
 62
7
  6
CONTINUOUS
 10
-67.7635469162
 20
-18.9926393274
 11
-80.0254036235
 21
-17.6822248717
  0
LINE
  5
468
100
AcDbEntity
  8
RACCORDO
100
AcDbLine
 62
7
  6
CONTINUOUS
 10
-100.9006005442
 20
17.4671499242
 11
-101.3254036193
 21
18.4099999906
  0
LWPOLYLINE
  5
469
100
AcDbEntity
  8
RACCORDO
100
AcDbPolyline
 62
7
  6
CONTINUOUS
 90
27
 70
0
 10
-99.2660777025
 20
12.371562448
 10
-99.2670095205
 20
12.3736429018
 10
-99.2724376255
 20
12.3865322588
 10
-99.2744167894
 20
12.3917774369
 10
-99.2735419224
 20
12.3890381104
 10
-99.2706664188
 20
12.3792091803
 10
-99.2661570596
 20
12.3621079698
 10
-99.2603328156
 20
12.3375735433
 10
-99.253792204
 20
12.3070553551
 10
-99.2467515778
 20
12.2708353025
 10
-99.2393130974
 20
12.2287464305
 10
-99.2317535999
 20
12.1816682766
 10
-99.2242053214
 20
12.1298913907
 10
-99.2167285661
 20
12.0733437111
 10
-99.2094163394
 20
12.0122961236
 10
-99.202325032
 20
11.9468730636
 10
-99.1955213413
 20
11.8772187627
 10
-99.1890880388
 20
11.8035965547
 10
-99.183084225
 20
11.7261826053
 10
-99.177555475
 20
11.6451724487
 10
-99.1725428472
 20
11.5608526325
 10
-99.1681034912
 20
11.4734970844
 10
-99.1642883523
 20
11.3833398743
 10
-99.1611326566
 20
11.2906386486
 10
-99.1586617611
 20
11.1957012555
 10
-99.1569175292
 20
11.0988370705
 10
-99.1559355558
 20
11.0003356511
  0
LINE
  5
46A
100
AcDbEntity
  8
RACCORDO
100
AcDbLine
 62
250
  6
CONTINUOUS
 10
-89.0288942749
 20
31.108621664
 11
-89.0288942749
 21
23.8586186178
  0
LINE
  5
46B
100
AcDbEntity
  8
RACCORDO
100
AcDbLine
 62
250
  6
CONTINUOUS
 10
-89.0288942749
 20
-19.8586186178
 11
-89.0288942749
 21
-27.108621664
  0
LWPOLYLINE
  5
46C
100
AcDbEntity
  8
0
100
AcDbPolyline
 62
7
  6
CONTINUOUS
 90
3
 70
0
 43
0.3500000087
 10
-70.781063324
 20
54.0357133484
 10
-70.8524907471
 20
53.8214310791
 10
-70.9953498566
 20
53.5357128601
  0
LWPOLYLINE
  5
46D
100
AcDbEntity
  8
RACCORDO
100
AcDbPolyline
 62
7
  6
CONTINUOUS
 90
3
 70
0
 10
-101.9023345136
 20
-17.2233600415
 10
-101.9832433095
 20
-17.3700882723
 10
-102.0364590264
 20
-17.4530497108
  0
LINE
  5
46E
100
AcDbEntity
  8
RACCORDO
100
AcDbLine
 62
7
  6
CONTINUOUS
 10
-101.3254036185
 20
-15.1102540291
 11
-101.1595642235
 21
-14.8230117711
  0
LWPOLYLINE
  5
46F
100
AcDbEntity
  8
RACCORDO
100
AcDbPolyline
 62
7
  6
CONTINUOUS
 90
5
 70
0
 10
-102.040005065
 20
-17.4582380922
 10
-102.0766952324
 20
-17.5160940348
 10
-102.1220374817
 20
-17.6033121872
 10
-102.1584321632
 20
-17.6952554007
 10
-102.1852144022
 20
-17.7909200982
  0
LINE
  5
470
100
AcDbEntity
  8
RACCORDO
100
AcDbLine
 62
7
  6
CONTINUOUS
 10
-101.9819087419
 20
-17.3678633591
 11
-101.9826776876
 21
-17.3690640825
  0
LINE
  5
471
100
AcDbEntity
  8
0
100
AcDbLine
 62
7
  6
CONTINUOUS
 10
-75.766627905
 20
21.4628342274
 11
-73.6789570141
 21
23.5505051183
  0
LINE
  5
472
100
AcDbEntity
  8
0
100
AcDbLine
 62
7
  6
CONTINUOUS
 10
-72.4573426235
 20
21.9
 11
-72.8254036235
 21
21.531939
  0
LWPOLYLINE
  5
473
100
AcDbEntity
  8
0
100
AcDbPolyline
 62
7
  6
CONTINUOUS
 90
10
 70
0
 10
-46.4254036235
 20
-11.0933345225
 10
-46.3814024837
 20
-11.0839688884
 10
-46.2882010941
 20
-11.0662606054
 10
-46.1933355201
 20
-11.0505556675
 10
-46.0970013775
 20
-11.0368717438
 10
-45.9994563814
 20
-11.0252326401
 10
-45.9010146441
 20
-11.0156614316
 10
-45.8019338063
 20
-11.0081677507
 10
-45.7024193252
 20
-11.0027545696
 10
-45.6254036235
 20
-10.9999999999
  0
LWPOLYLINE
  5
474
100
AcDbEntity
  8
0
100
AcDbPolyline
 62
7
  6
CONTINUOUS
 90
13
 70
0
 10
-43.3857252566
 20
-10.5127199443
 10
-43.385882003
 20
-10.5127516136
 10
-43.3866036144
 20
-10.5128903455
 10
-43.3879029004
 20
-10.5131248108
 10
-43.3896561216
 20
-10.5134223469
 10
-43.3918492255
 20
-10.5137736698
 10
-43.3945082356
 20
-10.5141767201
 10
-43.3975643778
 20
-10.5146160859
 10
-43.4010116423
 20
-10.5150873284
 10
-43.4048667706
 20
-10.5155894552
 10
-43.4090950756
 20
-10.5161151895
 10
-43.4136978599
 20
-10.5166625227
 10
-43.4186851163
 20
-10.5172306221
  0
LINE
  5
475
100
AcDbEntity
  8
0
100
AcDbLine
 62
7
  6
CONTINUOUS
 10
-64.8254036235
 20
-16.0
 11
-64.6473158795
 21
-15.9844193413
  0
LINE
  5
476
100
AcDbEntity
  8
DRAFT
100
AcDbLine
 62
7
  6
CONTINUOUS
 10
-43.4254036235
 20
-17.6738193966
 11
-46.4254036235
 21
-17.7
  0
LINE
  5
477
100
AcDbEntity
  8
RACCORDO
100
AcDbLine
 62
7
  6
CONTINUOUS
 10
-41.4254036235
 20
-17.6380392387
 11
-43.4255635436
 21
-17.6554943699
  0
LINE
  5
478
100
AcDbEntity
  8
RACCORDO
100
AcDbLine
 62
7
  6
CONTINUOUS
 10
-76.8254036235
 20
-17.4720740231
 11
-67.8210403558
 21
-17.3934941353
  0
LINE
  5
479
100
AcDbEntity
  8
DRAFT
100
AcDbLine
 62
7
  6
CONTINUOUS
 10
-76.8254036235
 20
-17.4720740231
 11
-80.0254036235
 21
-17.5
  0
LINE
  5
47A
100
AcDbEntity
  8
RACCORDO
100
AcDbLine
 62
7
  6
CONTINUOUS
 10
-62.3254036235
 20
-15.9709108509
 11
-67.3254036235
 21
-16.0
  0
LINE
  5
47B
100
AcDbEntity
  8
0
100
AcDbLine
 62
250
  6
CONTINUOUS
 10
-66.3254036235
 20
-17.7
 11
-67.3254036235
 21
-17.7
  0
LINE
  5
47C
100
AcDbEntity
  8
RACCORDO
100
AcDbLine
 62
250
  6
CONTINUOUS
 10
-41.4254036235
 20
-17.5292977866
 11
-42.6149317809
 21
-17.5292977866
  0
LINE
  5
47D
100
AcDbEntity
  8
RACCORDO
100
AcDbLine
 62
7
  6
CONTINUOUS
 10
-41.9303178821
 20
-15.2
 11
-46.4254036235
 21
-15.2
  0
LINE
  5
47E
100
AcDbEntity
  8
RACCORDO
100
AcDbLine
 62
250
  6
CONTINUOUS
 10
-43.4255168553
 20
-17.2261224998
 11
-42.9123138203
 21
-17.2306011548
  0
LINE
  5
47F
100
AcDbEntity
  8
RACCORDO
100
AcDbLine
 62
7
  6
CONTINUOUS
 10
-42.9123138203
 20
-15.7306582703
 11
-46.4254036235
 21
-15.7
  0
LINE
  5
480
100
AcDbEntity
  8
0
100
AcDbLine
 62
7
  6
CONTINUOUS
 10
-67.6572828449
 20
-17.9983013832
 11
-72.901721554
 21
-17.4378325684
  0
LINE
  5
481
100
AcDbEntity
  8
RACCORDO
100
AcDbLine
 62
250
  6
CONTINUOUS
 10
-101.9303075233
 20
21.5043045905
 11
-101.9330005255
 21
21.5098935135
  0
LINE
  5
482
100
AcDbEntity
  8
RACCORDO
100
AcDbLine
 62
250
  6
CONTINUOUS
 10
-101.9301874163
 20
21.507119747
 11
-101.9328760837
 21
21.5128203365
  0
LINE
  5
483
100
AcDbEntity
  8
RACCORDO
100
AcDbLine
 62
7
  6
CONTINUOUS
 10
-102.0364590264
 20
-17.4530497108
 11
-102.0400231155
 21
-17.4582257455
  0
LWPOLYLINE
  5
484
100
AcDbEntity
  8
0
100
AcDbPolyline
 62
7
  6
CONTINUOUS
 90
34
 70
0
 10
-43.382250832
 20
-10.9153839631
 10
-43.3746452335
 20
-10.914547748
 10
-43.3673109915
 20
-10.9137041406
 10
-43.3602359435
 20
-10.912851244
 10
-43.3533757808
 20
-10.9119827651
 10
-43.3467352285
 20
-10.911097981
 10
-43.3402948871
 20
-10.910192808
 10
-43.3339740949
 20
-10.9092531968
 10
-43.3277884306
 20
-10.9082777363
 10
-43.321709486
 20
-10.9072577314
 10
-43.3155915171
 20
-10.9061612681
 10
-43.3094361845
 20
-10.9049776161
 10
-43.303235147
 20
-10.9036925386
 10
-43.2968197137
 20
-10.902252392
 10
-43.2902280928
 20
-10.9006408706
 10
-43.2834036582
 20
-10.8988151531
 10
-43.2760270894
 20
-10.8966420438
 10
-43.2681246791
 20
-10.8940601714
 10
-43.2596798973
 20
-10.8909825147
 10
-43.25032895
 20
-10.8871537453
 10
-43.2399445451
 20
-10.8823316144
 10
-43.2288018223
 20
-10.8764155896
 10
-43.2171754393
 20
-10.8693173442
 10
-43.2051411279
 20
-10.8608163768
 10
-43.1929601826
 20
-10.8507780398
 10
-43.1811703176
 20
-10.8393391452
 10
-43.1700221016
 20
-10.8265066458
 10
-43.1596185367
 20
-10.8121943079
 10
-43.1502207349
 20
-10.7965316541
 10
-43.1420428019
 20
-10.7796422139
 10
-43.1352455014
 20
-10.7615467391
 10
-43.1300300835
 20
-10.74227764
 10
-43.1266533396
 20
-10.721945272
 10
-43.1254036327
 20
-10.6999945499
  0
LINE
  5
485
100
AcDbEntity
  8
0
100
AcDbLine
 62
7
  6
CONTINUOUS
 10
-43.4186851163
 20
-10.5172306221
 11
-43.4297513815
 21
-10.5184154963
  0
LINE
  5
486
100
AcDbEntity
  8
0
100
AcDbLine
 62
7
  6
CONTINUOUS
 10
-43.3983098243
 20
-10.9170393385
 11
-43.382250832
 21
-10.9153839631
  0
LINE
  5
487
100
AcDbEntity
  8
0
100
AcDbLine
 62
7
  6
CONTINUOUS
 10
-43.4297513815
 20
-10.5184154963
 11
-43.4422915079
 21
-10.5196583442
  0
LINE
  5
488
100
AcDbEntity
  8
0
100
AcDbLine
 62
7
  6
CONTINUOUS
 10
-43.4156053676
 20
-10.9186839378
 11
-43.3983098243
 21
-10.9170393385
  0
LINE
  5
489
100
AcDbEntity
  8
0
100
AcDbLine
 62
7
  6
CONTINUOUS
 10
-43.4422915079
 20
-10.5196583442
 11
-43.4562916327
 21
-10.5209489943
  0
LINE
  5
48A
100
AcDbEntity
  8
0
100
AcDbLine
 62
7
  6
CONTINUOUS
 10
-43.4342241155
 20
-10.920325906
 11
-43.4156053676
 21
-10.9186839378
  0
LINE
  5
48B
100
AcDbEntity
  8
0
100
AcDbLine
 62
7
  6
CONTINUOUS
 10
-43.4562916327
 20
-10.5209489943
 11
-43.4717566
 21
-10.5222809255
  0
LINE
  5
48C
100
AcDbEntity
  8
0
100
AcDbLine
 62
7
  6
CONTINUOUS
 10
-43.4542391962
 20
-10.9219707885
 11
-43.4342241155
 21
-10.920325906
  0
LINE
  5
48D
100
AcDbEntity
  8
0
100
AcDbLine
 62
7
  6
CONTINUOUS
 10
-43.4717566
 20
-10.5222809255
 11
-43.4887038111
 21
-10.5236498514
  0
LINE
  5
48E
100
AcDbEntity
  8
0
100
AcDbLine
 62
7
  6
CONTINUOUS
 10
-43.4757319027
 20
-10.9236238023
 11
-43.4542391962
 21
-10.9219707885
  0
LINE
  5
48F
100
AcDbEntity
  8
0
100
AcDbLine
 62
7
  6
CONTINUOUS
 10
-43.4887038111
 20
-10.5236498514
 11
-43.5169314609
 21
-10.5257643538
  0
LINE
  5
490
100
AcDbEntity
  8
0
100
AcDbLine
 62
7
  6
CONTINUOUS
 10
-43.5108838051
 20
-10.9261253983
 11
-43.4757319027
 21
-10.9236238023
  0
LINE
  5
491
100
AcDbEntity
  8
0
100
AcDbLine
 62
7
  6
CONTINUOUS
 10
-43.5169314609
 20
-10.5257643538
 11
-43.5485883928
 21
-10.5279449377
  0
LINE
  5
492
100
AcDbEntity
  8
0
100
AcDbLine
 62
7
  6
CONTINUOUS
 10
-43.5497091954
 20
-10.9286601757
 11
-43.5108838051
 21
-10.9261253983
  0
LINE
  5
493
100
AcDbEntity
  8
0
100
AcDbLine
 62
7
  6
CONTINUOUS
 10
-43.5485883928
 20
-10.5279449377
 11
-43.5837459892
 21
-10.5301855551
  0
LINE
  5
494
100
AcDbEntity
  8
0
100
AcDbLine
 62
7
  6
CONTINUOUS
 10
-43.5923885686
 20
-10.9312333246
 11
-43.5497091954
 21
-10.9286601757
  0
LINE
  5
495
100
AcDbEntity
  8
0
100
AcDbLine
 62
7
  6
CONTINUOUS
 10
-43.5837459892
 20
-10.5301855551
 11
-43.6361937525
 21
-10.5332590673
  0
LINE
  5
496
100
AcDbEntity
  8
0
100
AcDbLine
 62
7
  6
CONTINUOUS
 10
-43.6555647256
 20
-10.9347297171
 11
-43.5923885686
 21
-10.9312333246
  0
LWPOLYLINE
  5
497
100
AcDbEntity
  8
0
100
AcDbPolyline
 62
7
  6
CONTINUOUS
 90
3
 70
0
 10
-43.6361937525
 20
-10.5332590673
 10
-43.6951615868
 20
-10.5364243909
 10
-43.7109398343
 20
-10.5372293977
  0
LINE
  5
498
100
AcDbEntity
  8
0
100
AcDbLine
 62
7
  6
CONTINUOUS
 10
-43.7450665163
 20
-10.9392124873
 11
-43.6555647256
 21
-10.9347297171
  0
LINE
  5
499
100
AcDbEntity
  8
0
100
AcDbLine
 62
7
  6
CONTINUOUS
 10
-43.8685864742
 20
-10.9447639104
 11
-43.7450665163
 21
-10.9392124873
  0
LINE
  5
49A
100
AcDbEntity
  8
0
100
AcDbLine
 62
7
  6
CONTINUOUS
 10
-44.0356251936
 20
-10.9514818446
 11
-43.8685864742
 21
-10.9447639104
  0
LINE
  5
49B
100
AcDbEntity
  8
0
100
AcDbLine
 62
7
  6
CONTINUOUS
 10
-44.1422860001
 20
-10.9554367719
 11
-44.0356251936
 21
-10.9514818446
  0
LINE
  5
49C
100
AcDbEntity
  8
DRAFT
100
AcDbLine
 62
7
  6
CONTINUOUS
 10
-67.3254036235
 20
-12.5940385849
 11
-66.6227856629
 21
-12.5879069308
  0
LINE
  5
49D
100
AcDbEntity
  8
RACCORDO
100
AcDbLine
 62
250
  6
CONTINUOUS
 10
-62.3254036235
 20
-14.9709277741
 11
-67.3254036235
 21
-15.0000169231
  0
LINE
  5
49E
100
AcDbEntity
  8
0
100
AcDbLine
 62
7
  6
CONTINUOUS
 10
-62.3254036235
 20
-14.5302909178
 11
-62.1254036235
 21
-14.5302909178
  0
LINE
  5
49F
100
AcDbEntity
  8
0
100
AcDbLine
 62
7
  6
CONTINUOUS
 10
-62.3254036235
 20
-14.2465000661
 11
-62.1254036235
 21
-14.2465000661
  0
LINE
  5
4A0
100
AcDbEntity
  8
0
100
AcDbLine
 62
7
  6
CONTINUOUS
 10
-62.3254036235
 20
-14.1613297128
 11
-62.1254036235
 21
-14.1613297128
  0
LINE
  5
4A1
100
AcDbEntity
  8
RACCORDO
100
AcDbLine
 62
7
  6
CONTINUOUS
 10
-67.8210403558
 20
-14.1502338939
 11
-73.1472199623
 21
-14.1502338939
  0
LINE
  5
4A2
100
AcDbEntity
  8
0
100
AcDbLine
 62
7
  6
CONTINUOUS
 10
-62.3254036235
 20
-14.067264
 11
-62.1254036235
 21
-14.067264
  0
LINE
  5
4A3
100
AcDbEntity
  8
DRAFT
100
AcDbLine
 62
7
  6
CONTINUOUS
 10
-71.0397108703
 20
-13.1556015752
 11
-73.1472199623
 21
-13.1556015752
  0
LINE
  5
4A4
100
AcDbEntity
  8
RACCORDO
100
AcDbLine
 62
7
  6
CONTINUOUS
 10
-44.9845861717
 20
-12.7
 11
-44.5496676922
 21
-12.7
  0
LINE
  5
4A5
100
AcDbEntity
  8
DRAFT
100
AcDbLine
 62
7
  6
CONTINUOUS
 10
-67.3254036235
 20
-13.16794323
 11
-71.0397108703
 21
-13.1450228811
  0
LINE
  5
4A6
100
AcDbEntity
  8
RACCORDO
100
AcDbLine
 62
7
  6
CONTINUOUS
 10
-102.0364973556
 20
21.4531374072
 11
-102.0400571975
 21
21.4583086466
  0
LWPOLYLINE
  5
4A7
100
AcDbEntity
  8
RACCORDO
100
AcDbPolyline
 62
7
  6
CONTINUOUS
 90
19
 70
0
 10
-102.0365125246
 20
21.4531268794
 10
-101.9818920388
 20
21.3678352387
 10
-101.902300952
 20
21.2232963865
 10
-101.8121120209
 20
21.0328891532
 10
-101.7118219352
 20
20.7892753089
 10
-101.6042896566
 20
20.4910283425
 10
-101.4941047817
 20
20.1449307614
 10
-101.3826207343
 20
19.7514710006
 10
-101.2701202996
 20
19.3078731704
 10
-101.1587384536
 20
18.8194415988
 10
-101.0491972562
 20
18.2873187097
 10
-100.9417890852
 20
17.7108983692
 10
-100.8376208909
 20
17.0944445021
 10
-100.7370822169
 20
16.4391363473
 10
-100.6405149874
 20
15.7460533547
 10
-100.5487339784
 20
15.0203998476
 10
-100.4621289706
 20
14.2653463144
 10
-100.3807620587
 20
13.4815586821
 10
-100.3174229648
 20
12.8113466826
  0
LWPOLYLINE
  5
4A8
100
AcDbEntity
  8
0
100
AcDbPolyline
 62
7
  6
CONTINUOUS
 90
3
 70
0
 43
0.3500000087
 10
-67.296834137
 20
44.0357163727
 10
-67.3682615601
 20
43.8214298401
 10
-67.5111164062
 20
43.5357158844
  0
LINE
  5
4A9
100
AcDbEntity
  8
0
100
AcDbLine
 62
7
  6
CONTINUOUS
 10
-72.4503830905
 20
-11.5929319288
 11
-72.067550693
 21
-11.5057395207
  0
LINE
  5
4AA
100
AcDbEntity
  8
0
100
AcDbLine
 62
7
  6
CONTINUOUS
 10
-73.8004241565
 20
-10.7114403314
 11
-74.183256554
 21
-10.7986327395
  0
LINE
  5
4AB
100
AcDbEntity
  8
0
100
AcDbLine
 62
7
  6
CONTINUOUS
 10
-43.7109398343
 20
-10.5372293977
 11
-43.7961561404
 21
-10.5413333777
  0
LINE
  5
4AC
100
AcDbEntity
  8
0
100
AcDbLine
 62
7
  6
CONTINUOUS
 10
-43.7961561404
 20
-10.5413333777
 11
-43.9334420071
 21
-10.5472902962
  0
LINE
  5
4AD
100
AcDbEntity
  8
0
100
AcDbLine
 62
7
  6
CONTINUOUS
 10
-43.9334420071
 20
-10.5472902962
 11
-44.1163671476
 21
-10.5543855294
  0
LWPOLYLINE
  5
4AE
100
AcDbEntity
  8
0
100
AcDbPolyline
 62
7
  6
CONTINUOUS
 90
10
 70
0
 10
-45.6254036235
 20
-10.6000000001
 10
-45.7010626786
 20
-10.6026948648
 10
-45.7997051368
 20
-10.6080189616
 10
-45.8984958428
 20
-10.6154249665
 10
-45.9973544282
 20
-10.6249484806
 10
-46.0960720447
 20
-10.6366165161
 10
-46.194322808
 20
-10.650435394
 10
-46.2919082576
 20
-10.6664198647
 10
-46.3887458527
 20
-10.6846051315
 10
-46.4254036235
 20
-10.6923084098
  0
LINE
  5
4AF
100
AcDbEntity
  8
0
100
AcDbLine
 62
7
  6
CONTINUOUS
 10
-44.1163671476
 20
-10.5543855294
 11
-44.3551154693
 21
-10.5627181324
  0
LINE
  5
4B0
100
AcDbEntity
  8
0
100
AcDbLine
 62
7
  6
CONTINUOUS
 10
-44.5102875144
 20
-10.9677983162
 11
-44.1422860001
 21
-10.9554367719
  0
LINE
  5
4B1
100
AcDbEntity
  8
0
100
AcDbLine
 62
7
  6
CONTINUOUS
 10
-44.3551154693
 20
-10.5627181324
 11
-44.6595239853
 21
-10.5723941117
  0
LINE
  5
4B2
100
AcDbEntity
  8
0
100
AcDbLine
 62
7
  6
CONTINUOUS
 10
-46.2797751223
 20
-10.2183597539
 11
-46.4254036235
 21
-10.2226069134
  0
LINE
  5
4B3
100
AcDbEntity
  8
0
100
AcDbLine
 62
7
  6
CONTINUOUS
 10
-45.022816657
 20
-10.9831293054
 11
-44.5102875144
 21
-10.9677983162
  0
LINE
  5
4B4
100
AcDbEntity
  8
0
100
AcDbLine
 62
7
  6
CONTINUOUS
 10
-44.6595239853
 20
-10.5723941117
 11
-45.0369620935
 21
-10.5835242373
  0
LINE
  5
4B5
100
AcDbEntity
  8
0
100
AcDbLine
 62
7
  6
CONTINUOUS
 10
-46.4254036235
 20
-10.6226262164
 11
-46.1743550257
 21
-10.6153469652
  0
LINE
  5
4B6
100
AcDbEntity
  8
0
100
AcDbLine
 62
7
  6
CONTINUOUS
 10
-45.1425045574
 20
-10.9865369196
 11
-45.022816657
 21
-10.9831293054
  0
LINE
  5
4B7
100
AcDbEntity
  8
0
100
AcDbLine
 62
7
  6
CONTINUOUS
 10
-45.0369620935
 20
-10.5835242373
 11
-45.1465707125
 21
-10.5866453811
  0
LINE
  5
4B8
100
AcDbEntity
  8
0
100
AcDbLine
 62
7
  6
CONTINUOUS
 10
-46.1743550257
 20
-10.6153469652
 11
-46.0978497807
 21
-10.6131738422
  0
LINE
  5
4B9
100
AcDbEntity
  8
0
100
AcDbLine
 62
7
  6
CONTINUOUS
 10
-46.1111213779
 20
-10.2135428476
 11
-46.2797751223
 21
-10.2183597539
  0
LINE
  5
4BA
100
AcDbEntity
  8
0
100
AcDbLine
 62
7
  6
CONTINUOUS
 10
-45.1465707125
 20
-10.5866453811
 11
-45.2210159964
 21
-10.5887461067
  0
LINE
  5
4BB
100
AcDbEntity
  8
0
100
AcDbLine
 62
7
  6
CONTINUOUS
 10
-46.0978497807
 20
-10.6131738422
 11
-46.0195648238
 21
-10.6109663513
  0
LWPOLYLINE
  5
4BC
100
AcDbEntity
  8
0
100
AcDbPolyline
 62
7
  6
CONTINUOUS
 90
3
 70
0
 10
-45.306483121
 20
-10.9911454475
 10
-45.2650546794
 20
-10.98998642
 10
-45.1425045574
 20
-10.9865369196
  0
LINE
  5
4BD
100
AcDbEntity
  8
0
100
AcDbLine
 62
7
  6
CONTINUOUS
 10
-45.2210159964
 20
-10.5887461067
 11
-45.2964741297
 21
-10.5908626829
  0
LINE
  5
4BE
100
AcDbEntity
  8
0
100
AcDbLine
 62
7
  6
CONTINUOUS
 10
-46.0195648238
 20
-10.6109663513
 11
-45.9395177433
 21
-10.6087230374
  0
LWPOLYLINE
  5
4BF
100
AcDbEntity
  8
0
100
AcDbPolyline
 62
7
  6
CONTINUOUS
 90
3
 70
0
 10
-45.933589758
 20
-10.20855473
 10
-45.9787886308
 20
-10.2098185328
 10
-46.1111213779
 20
-10.2135428476
  0
LINE
  5
4C0
100
AcDbEntity
  8
0
100
AcDbLine
 62
7
  6
CONTINUOUS
 10
-45.3901300266
 20
-10.9934771899
 11
-45.306483121
 21
-10.9911454475
  0
LWPOLYLINE
  5
4C1
100
AcDbEntity
  8
0
100
AcDbPolyline
 62
7
  6
CONTINUOUS
 90
3
 70
0
 10
-45.2964741297
 20
-10.5908626829
 10
-45.3728659769
 20
-10.592994974
 10
-45.4113860906
 20
-10.5940669682
  0
LINE
  5
4C2
100
AcDbEntity
  8
0
100
AcDbLine
 62
7
  6
CONTINUOUS
 10
-45.9395177433
 20
-10.6087230374
 11
-45.8577517036
 21
-10.6064429266
  0
LINE
  5
4C3
100
AcDbEntity
  8
0
100
AcDbLine
 62
7
  6
CONTINUOUS
 10
-45.8415692724
 20
-10.2059914723
 11
-45.933589758
 21
-10.20855473
  0
LINE
  5
4C4
100
AcDbEntity
  8
0
100
AcDbLine
 62
7
  6
CONTINUOUS
 10
-45.6254036235
 20
-11.0
 11
-45.3901300266
 21
-10.9934771899
  0
LINE
  5
4C5
100
AcDbEntity
  8
0
100
AcDbLine
 62
7
  6
CONTINUOUS
 10
-45.4113860906
 20
-10.5940669682
 11
-45.8577517036
 21
-10.6064429266
  0
LINE
  5
4C6
100
AcDbEntity
  8
0
100
AcDbLine
 62
7
  6
CONTINUOUS
 10
-45.6254036235
 20
-10.2
 11
-45.8415692724
 21
-10.2059914723
  0
LINE
  5
4C7
100
AcDbEntity
  8
RACCORDO
100
AcDbLine
 62
7
  6
CONTINUOUS
 10
-67.8210403558
 20
-10.5491007402
 11
-73.1472199623
 21
-10.6148346102
  0
LINE
  5
4C8
100
AcDbEntity
  8
0
100
AcDbLine
 62
7
  6
CONTINUOUS
 10
-52.4254036235
 20
-9.0349074712
 11
-48.4254036235
 21
-9.0
  0
LINE
  5
4C9
100
AcDbEntity
  8
RACCORDO
100
AcDbLine
 62
250
  6
CONTINUOUS
 10
-67.3254036235
 20
-11.7885822331
 11
-66.6227856629
 21
-11.784246499
  0
LINE
  5
4CA
100
AcDbEntity
  8
DRAFT
100
AcDbLine
 62
7
  6
CONTINUOUS
 10
-76.8254036235
 20
-9.0829799304
 11
-80.0254036235
 21
-9.0905365064
  0
LINE
  5
4CB
100
AcDbEntity
  8
0
100
AcDbLine
 62
7
  6
CONTINUOUS
 10
-70.5313957055
 20
-11.5057395207
 11
-72.067550693
 21
-11.5057395207
  0
LINE
  5
4CC
100
AcDbEntity
  8
0
100
AcDbLine
 62
7
  6
CONTINUOUS
 10
-74.183256554
 20
-11.5057395207
 11
-75.2848500269
 21
-11.5057395207
  0
LINE
  5
4CD
100
AcDbEntity
  8
0
100
AcDbLine
 62
7
  6
CONTINUOUS
 10
-70.5313957055
 20
-10.7986327395
 11
-72.067550693
 21
-10.7986327395
  0
LINE
  5
4CE
100
AcDbEntity
  8
0
100
AcDbLine
 62
7
  6
CONTINUOUS
 10
-74.183256554
 20
-10.7986327395
 11
-74.215696229
 21
-10.7986327395
  0
LINE
  5
4CF
100
AcDbEntity
  8
0
100
AcDbLine
 62
7
  6
CONTINUOUS
 10
-70.3272038728
 20
-10.6572113832
 11
-70.2383717315
 21
-10.6572113832
  0
LINE
  5
4D0
100
AcDbEntity
  8
0
100
AcDbLine
 62
7
  6
CONTINUOUS
 10
-62.3254036235
 20
-9.932736
 11
-62.1254036235
 21
-9.932736
  0
LINE
  5
4D1
100
AcDbEntity
  8
0
100
AcDbLine
 62
7
  6
CONTINUOUS
 10
-62.3254036235
 20
-9.7006168332
 11
-62.1254036235
 21
-9.7006168332
  0
LINE
  5
4D2
100
AcDbEntity
  8
0
100
AcDbLine
 62
7
  6
CONTINUOUS
 10
-62.3254036235
 20
-9.6168734618
 11
-62.1254036235
 21
-9.6168734618
  0
LINE
  5
4D3
100
AcDbEntity
  8
0
100
AcDbLine
 62
7
  6
CONTINUOUS
 10
-62.3254036235
 20
-9.5298595
 11
-62.1254036235
 21
-9.5298595
  0
LINE
  5
4D4
100
AcDbEntity
  8
0
100
AcDbLine
 62
7
  6
CONTINUOUS
 10
-52.4254036235
 20
-10.4650925288
 11
-48.4254036235
 21
-10.5
  0
LWPOLYLINE
  5
4D5
100
AcDbEntity
  8
0
100
AcDbPolyline
 62
7
  6
CONTINUOUS
 90
3
 70
0
 10
-45.3245081915
 20
-10.4083512017
 10
-45.3642714704
 20
-10.4072425818
 10
-45.6254036235
 20
-10.3999999996
  0
LINE
  5
4D6
100
AcDbEntity
  8
0
100
AcDbLine
 62
7
  6
CONTINUOUS
 10
-45.2445825752
 20
-10.4105875166
 11
-45.3245081915
 21
-10.4083512017
  0
LINE
  5
4D7
100
AcDbEntity
  8
0
100
AcDbLine
 62
7
  6
CONTINUOUS
 10
-45.1642242743
 20
-10.4128491277
 11
-45.2445825752
 21
-10.4105875166
  0
LINE
  5
4D8
100
AcDbEntity
  8
0
100
AcDbLine
 62
7
  6
CONTINUOUS
 10
-45.0434735148
 20
-10.4162793613
 11
-45.1642242743
 21
-10.4128491277
  0
LINE
  5
4D9
100
AcDbEntity
  8
0
100
AcDbLine
 62
7
  6
CONTINUOUS
 10
-44.3652721404
 20
-10.4368822073
 11
-45.0434735148
 21
-10.4162793613
  0
LINE
  5
4DA
100
AcDbEntity
  8
0
100
AcDbLine
 62
7
  6
CONTINUOUS
 10
-44.0638636911
 20
-10.4474494719
 11
-44.3652721404
 21
-10.4368822073
  0
LINE
  5
4DB
100
AcDbEntity
  8
0
100
AcDbLine
 62
7
  6
CONTINUOUS
 10
-43.8897809541
 20
-10.4543402637
 11
-44.0638636911
 21
-10.4474494719
  0
LINE
  5
4DC
100
AcDbEntity
  8
0
100
AcDbLine
 62
7
  6
CONTINUOUS
 10
-43.7616609093
 20
-10.4600042044
 11
-43.8897809541
 21
-10.4543402637
  0
LINE
  5
4DD
100
AcDbEntity
  8
0
100
AcDbLine
 62
7
  6
CONTINUOUS
 10
-43.6683562171
 20
-10.4645995368
 11
-43.7616609093
 21
-10.4600042044
  0
LINE
  5
4DE
100
AcDbEntity
  8
0
100
AcDbLine
 62
7
  6
CONTINUOUS
 10
-43.6022372275
 20
-10.4681993202
 11
-43.6683562171
 21
-10.4645995368
  0
LINE
  5
4DF
100
AcDbEntity
  8
0
100
AcDbLine
 62
7
  6
CONTINUOUS
 10
-45.3990340209
 20
-15.0504505521
 11
-45.927411812
 21
-14.9409527483
  0
LWPOLYLINE
  5
4E0
100
AcDbEntity
  8
0
100
AcDbPolyline
 62
7
  6
CONTINUOUS
 90
3
 70
0
 10
-45.927411812
 20
-14.9409527483
 10
-46.1739904358
 20
-14.8888936559
 10
-46.2930114079
 20
-14.8632530566
  0
LINE
  5
4E1
100
AcDbEntity
  8
0
100
AcDbLine
 62
7
  6
CONTINUOUS
 10
-46.2930114079
 20
-14.8632530566
 11
-46.4254036235
 21
-14.8341523106
  0
LINE
  5
4E2
100
AcDbEntity
  8
0
100
AcDbLine
 62
7
  6
CONTINUOUS
 10
-74.183256554
 20
-11.5057395207
 11
-73.8004241565
 21
-11.5929319288
  0
LINE
  5
4E3
100
AcDbEntity
  8
0
100
AcDbLine
 62
7
  6
CONTINUOUS
 10
-72.067550693
 20
-10.7986327395
 11
-72.4503830905
 21
-10.7114403314
  0
LINE
  5
4E4
100
AcDbEntity
  8
RACCORDO
100
AcDbLine
 62
7
  6
CONTINUOUS
 10
-80.0254036235
 20
-21.0972863359
 11
-80.0254036235
 21
22.0
  0
LWPOLYLINE
  5
4E5
100
AcDbEntity
  8
RACCORDO
100
AcDbPolyline
 62
7
  6
CONTINUOUS
 90
29
 70
0
 10
-99.4247051743
 20
-7.9459291039
 10
-99.4730836405
 20
-7.9480730951
 10
-99.5334356703
 20
-7.9544190203
 10
-99.5921595534
 20
-7.9645858467
 10
-99.6490659278
 20
-7.9783251627
 10
-99.7040608479
 20
-7.9954128472
 10
-99.7569726227
 20
-8.0156039721
 10
-99.8076507387
 20
-8.0386474978
 10
-99.856059254
 20
-8.0643404742
 10
-99.9020812992
 20
-8.0924397809
 10
-99.9456384805
 20
-8.1227117101
 10
-99.9867645363
 20
-8.1550029251
 10
-100.0253964686
 20
-8.1890944111
 10
-100.0614905796
 20
-8.224769826
 10
-100.0951082638
 20
-8.2619182686
 10
-100.126267576
 20
-8.3004027671
 10
-100.1548983044
 20
-8.339964635
 10
-100.1809550902
 20
-8.3803281231
 10
-100.2044126502
 20
-8.4211891752
 10
-100.2253762349
 20
-8.462434554
 10
-100.2440167485
 20
-8.5041273422
 10
-100.2604857685
 20
-8.5463962029
 10
-100.2746988347
 20
-8.5887514976
 10
-100.2866111355
 20
-8.630515687
 10
-100.2964952734
 20
-8.671946932
 10
-100.3044865198
 20
-8.7127891574
 10
-100.3106473027
 20
-8.7520162507
 10
-100.315283146
 20
-8.7897207227
 10
-100.3818903231
 20
-9.4929868326
  0
LINE
  5
4E6
100
AcDbEntity
  8
RACCORDO
100
AcDbLine
 62
250
  6
CONTINUOUS
 10
-100.2999266533
 20
-8.8457402175
 11
-99.4178949177
 21
-8.8303442963
  0
LINE
  5
4E7
100
AcDbEntity
  8
RACCORDO
100
AcDbLine
 62
7
  6
CONTINUOUS
 10
-99.4247157496
 20
-7.9458772918
 11
-99.2018595175
 21
-7.9419873218
  0
LINE
  5
4E8
100
AcDbEntity
  8
RACCORDO
100
AcDbLine
 62
250
  6
CONTINUOUS
 10
-67.3254036235
 20
-8.6066017178
 11
-66.6227856629
 21
-8.6022659836
  0
LINE
  5
4E9
100
AcDbEntity
  8
RACCORDO
100
AcDbLine
 62
7
  6
CONTINUOUS
 10
-76.8254036235
 20
-7.838389354
 11
-67.8210403558
 21
-7.8058404988
  0
LINE
  5
4EA
100
AcDbEntity
  8
0
100
AcDbLine
 62
7
  6
CONTINUOUS
 10
-62.3254036235
 20
-8.07041
 11
-62.1254036235
 21
-8.07041
  0
LINE
  5
4EB
100
AcDbEntity
  8
RACCORDO
100
AcDbLine
 62
250
  6
CONTINUOUS
 10
-99.1557124356
 20
-6.9258987375
 11
-99.146630505
 21
-6.9258987375
  0
LINE
  5
4EC
100
AcDbEntity
  8
0
100
AcDbLine
 62
7
  6
CONTINUOUS
 10
-43.5575244191
 20
-10.4708535267
 11
-43.6022372275
 21
-10.4681993202
  0
LINE
  5
4ED
100
AcDbEntity
  8
0
100
AcDbLine
 62
7
  6
CONTINUOUS
 10
-43.5168746414
 20
-10.4734693831
 11
-43.5575244191
 21
-10.4708535267
  0
LINE
  5
4EE
100
AcDbEntity
  8
0
100
AcDbLine
 62
7
  6
CONTINUOUS
 10
-43.4801441789
 20
-10.4760494409
 11
-43.5168746414
 21
-10.4734693831
  0
LINE
  5
4EF
100
AcDbEntity
  8
0
100
AcDbLine
 62
7
  6
CONTINUOUS
 10
-43.4577464782
 20
-10.4777520542
 11
-43.4801441789
 21
-10.4760494409
  0
LINE
  5
4F0
100
AcDbEntity
  8
0
100
AcDbLine
 62
7
  6
CONTINUOUS
 10
-43.4369482382
 20
-10.4794434574
 11
-43.4577464782
 21
-10.4777520542
  0
LINE
  5
4F1
100
AcDbEntity
  8
0
100
AcDbLine
 62
7
  6
CONTINUOUS
 10
-43.4176704311
 20
-10.4811278949
 11
-43.4369482382
 21
-10.4794434574
  0
LINE
  5
4F2
100
AcDbEntity
  8
0
100
AcDbLine
 62
7
  6
CONTINUOUS
 10
-43.3998328436
 20
-10.4828105474
 11
-43.4176704311
 21
-10.4811278949
  0
LINE
  5
4F3
100
AcDbEntity
  8
0
100
AcDbLine
 62
7
  6
CONTINUOUS
 10
-45.2033154524
 20
-12.1045439159
 11
-45.9581508644
 21
-11.947855579
  0
LINE
  5
4F4
100
AcDbEntity
  8
0
100
AcDbLine
 62
7
  6
CONTINUOUS
 10
-46.0819901141
 20
-12.3221252059
 11
-45.4538593984
 21
-12.4524627518
  0
LINE
  5
4F5
100
AcDbEntity
  8
0
100
AcDbLine
 62
7
  6
CONTINUOUS
 10
-45.4538593984
 20
-12.4524627518
 11
-45.2052846978
 21
-12.5044113649
  0
LINE
  5
4F6
100
AcDbEntity
  8
0
100
AcDbLine
 62
7
  6
CONTINUOUS
 10
-45.9581508644
 20
-11.947855579
 11
-46.190900564
 21
-11.8986078386
  0
LWPOLYLINE
  5
4F7
100
AcDbEntity
  8
0
100
AcDbPolyline
 62
7
  6
CONTINUOUS
 90
6
 70
0
 10
-45.2052846978
 20
-12.5044113649
 10
-44.9629410636
 20
-12.5562047572
 10
-44.8450374991
 20
-12.5820358832
 10
-44.7298330555
 20
-12.6078102518
 10
-44.6179128795
 20
-12.6334689919
 10
-44.5095315794
 20
-12.6590227712
  0
LWPOLYLINE
  5
4F8
100
AcDbEntity
  8
0
100
AcDbPolyline
 62
7
  6
CONTINUOUS
 90
3
 70
0
 10
-46.4254036235
 20
-12.248604614
 10
-46.3277859864
 20
-12.2698490889
 10
-46.0819901141
 20
-12.3221252059
  0
LWPOLYLINE
  5
4F9
100
AcDbEntity
  8
0
100
AcDbPolyline
 62
7
  6
CONTINUOUS
 90
3
 70
0
 10
-46.190900564
 20
-11.8986078386
 10
-46.4080041614
 20
-11.8513775079
 10
-46.4254036235
 20
-11.8474879672
  0
LWPOLYLINE
  5
4FA
100
AcDbEntity
  8
0
100
AcDbPolyline
 62
7
  6
CONTINUOUS
 90
15
 70
0
 10
-44.5095315794
 20
-12.6590227712
 10
-44.4050709024
 20
-12.6844485847
 10
-44.3052489424
 20
-12.7096298141
 10
-44.2102820984
 20
-12.7345603294
 10
-44.1204018154
 20
-12.7592226811
 10
-44.0362480919
 20
-12.783469136
 10
-43.9578870752
 20
-12.8072915833
 10
-43.8854534078
 20
-12.830650043
 10
-43.819555942
 20
-12.8533185618
 10
-43.7600283772
 20
-12.8752941674
 10
-43.7069324363
 20
-12.8964739245
 10
-43.660978946
 20
-12.9164212659
 10
-43.6220806409
 20
-12.9349252377
 10
-43.5896243185
 20
-12.9519843981
 10
-43.5697247142
 20
-12.9636560176
  0
LINE
  5
4FB
100
AcDbEntity
  8
0
100
AcDbLine
 62
7
  6
CONTINUOUS
 10
-73.8004241565
 20
-11.5929319288
 11
-73.4428280931
 21
-12.3779736616
  0
LINE
  5
4FC
100
AcDbEntity
  8
DRAFT
100
AcDbLine
 62
7
  6
CONTINUOUS
 10
-76.8254036235
 20
-7.838389354
 11
-76.8254036235
 21
-17.4720740231
  0
LINE
  5
4FD
100
AcDbEntity
  8
DRAFT
100
AcDbLine
 62
7
  6
CONTINUOUS
 10
-76.8254036235
 20
14.2220740231
 11
-76.8254036235
 21
21.4720740231
  0
LINE
  5
4FE
100
AcDbEntity
  8
0
100
AcDbLine
 62
7
  6
CONTINUOUS
 10
-62.3254036235
 20
-5.2654099648
 11
-62.1254036235
 21
-5.2654099648
  0
LINE
  5
4FF
100
AcDbEntity
  8
0
100
AcDbLine
 62
7
  6
CONTINUOUS
 10
-62.3254036235
 20
-5.0842439526
 11
-62.1254036235
 21
-5.0842439526
  0
LINE
  5
500
100
AcDbEntity
  8
0
100
AcDbLine
 62
7
  6
CONTINUOUS
 10
-62.3254036235
 20
-4.9506864668
 11
-62.1254036235
 21
-4.9506864668
  0
LINE
  5
501
100
AcDbEntity
  8
0
100
AcDbLine
 62
7
  6
CONTINUOUS
 10
-62.3254036235
 20
-4.8385665244
 11
-62.1254036235
 21
-4.8385665244
  0
LINE
  5
502
100
AcDbEntity
  8
0
100
AcDbLine
 62
7
  6
CONTINUOUS
 10
-62.3254036235
 20
-4.4390323585
 11
-62.1254036235
 21
-4.4390323585
  0
LINE
  5
503
100
AcDbEntity
  8
0
100
AcDbLine
 62
7
  6
CONTINUOUS
 10
-62.3254036235
 20
-4.2953252005
 11
-62.1254036235
 21
-4.2953252005
  0
LINE
  5
504
100
AcDbEntity
  8
0
100
AcDbLine
 62
7
  6
CONTINUOUS
 10
-62.3254036235
 20
-3.910209207
 11
-62.1254036235
 21
-3.910209207
  0
LINE
  5
505
100
AcDbEntity
  8
0
100
AcDbLine
 62
7
  6
CONTINUOUS
 10
-62.3254036235
 20
-3.73541
 11
-62.1254036235
 21
-3.73541
  0
LINE
  5
506
100
AcDbEntity
  8
DRAFT
100
AcDbLine
 62
7
  6
CONTINUOUS
 10
-67.3254036235
 20
-3.9120580695
 11
-66.6227856629
 21
-3.9181897236
  0
LINE
  5
507
100
AcDbEntity
  8
DRAFT
100
AcDbLine
 62
7
  6
CONTINUOUS
 10
-50.4254036235
 20
-26.0
 11
-53.6254036235
 21
-22.8
  0
LINE
  5
508
100
AcDbEntity
  8
SMUSSO
100
AcDbLine
 62
7
  6
CONTINUOUS
 10
-49.5311966395
 20
-26.244206984
 11
-48.5254036235
 21
-27.25
  0
LINE
  5
509
100
AcDbEntity
  8
0
100
AcDbLine
 62
7
  6
CONTINUOUS
 10
-72.4503830905
 20
-10.7114403314
 11
-72.498037728
 21
-10.6068226272
  0
LINE
  5
50A
100
AcDbEntity
  8
0
100
AcDbLine
 62
7
  6
CONTINUOUS
 10
-72.3137184906
 20
-10.7425665256
 11
-72.067550693
 21
-11.5057395207
  0
LINE
  5
50B
100
AcDbEntity
  8
0
100
AcDbLine
 62
7
  6
CONTINUOUS
 10
-72.5515611293
 20
-10.6074831945
 11
-72.4503830905
 21
-11.5929319288
  0
LWPOLYLINE
  5
50C
100
AcDbEntity
  8
0
100
AcDbPolyline
 62
7
  6
CONTINUOUS
 90
13
 70
0
 43
0.3500000087
 10
-73.8524936768
 20
54.6071412598
 10
-73.8524936768
 20
55.8928604553
 10
-73.6382028809
 20
56.3214249939
 10
-73.2096298157
 20
56.7499980591
 10
-72.9953475464
 20
56.7499980591
 10
-72.5667744812
 20
56.3214249939
 10
-72.3524922119
 20
55.8928604553
 10
-72.3524922119
 20
54.6071412598
 10
-72.5667744812
 20
54.1785681946
 10
-72.9953475464
 20
53.750003656
 10
-73.2096298157
 20
53.750003656
 10
-73.6382028809
 20
54.1785681946
 10
-73.8524936768
 20
54.6071412598
  0
LINE
  5
50D
100
AcDbEntity
  8
DRAFT
100
AcDbLine
 62
250
  6
CONTINUOUS
 10
-73.1472199623
 20
-13.1556015752
 11
-73.1472199623
 21
-14.1502338939
  0
LINE
  5
50E
100
AcDbEntity
  8
DRAFT
100
AcDbLine
 62
250
  6
CONTINUOUS
 10
-73.1082827961
 20
-13.1556015752
 11
-73.1082827961
 21
-13.0782537451
  0
LINE
  5
50F
100
AcDbEntity
  8
0
100
AcDbLine
 62
7
  6
CONTINUOUS
 10
-72.8254036235
 20
21.531939
 11
-72.8254036235
 21
21.4371665519
  0
LINE
  5
510
100
AcDbEntity
  8
0
100
AcDbLine
 62
7
  6
CONTINUOUS
 10
-72.4573426235
 20
21.4339545322
 11
-72.4573426235
 21
21.9
  0
LINE
  5
511
100
AcDbEntity
  8
DRAFT
100
AcDbLine
 62
7
  6
CONTINUOUS
 10
-71.8254036235
 20
19.9284396841
 11
-71.8254036235
 21
21.4284396841
  0
LWPOLYLINE
  5
512
100
AcDbEntity
  8
0
100
AcDbPolyline
 62
7
  6
CONTINUOUS
 90
2
 70
0
 43
0.3500000087
 10
-71.5111160492
 20
43.7499981537
 10
-71.5111160492
 20
45.2499996185
  0
LINE
  5
513
100
AcDbEntity
  8
0
100
AcDbLine
 62
7
  6
CONTINUOUS
 10
-73.7053151455
 20
-10.6665940042
 11
-73.8004241565
 21
-11.5929319288
  0
LINE
  5
514
100
AcDbEntity
  8
0
100
AcDbLine
 62
7
  6
CONTINUOUS
 10
-62.3254036235
 20
-0.9304099648
 11
-62.1254036235
 21
-0.9304099648
  0
LINE
  5
515
100
AcDbEntity
  8
0
100
AcDbLine
 62
7
  6
CONTINUOUS
 10
-62.3254036235
 20
-0.8286167928
 11
-62.1254036235
 21
-0.8286167928
  0
LINE
  5
516
100
AcDbEntity
  8
0
100
AcDbLine
 62
7
  6
CONTINUOUS
 10
-62.3254036235
 20
-0.695059307
 11
-62.1254036235
 21
-0.695059307
  0
LINE
  5
517
100
AcDbEntity
  8
0
100
AcDbLine
 62
7
  6
CONTINUOUS
 10
-62.3254036235
 20
-0.3672363874
 11
-62.1254036235
 21
-0.3672363874
  0
LINE
  5
518
100
AcDbEntity
  8
0
100
AcDbLine
 62
7
  6
CONTINUOUS
 10
-62.3254036235
 20
-0.2579627736
 11
-62.1254036235
 21
-0.2579627736
  0
LINE
  5
519
100
AcDbEntity
  8
0
100
AcDbLine
 62
250
  6
CONTINUOUS
 10
-62.3254036235
 20
0.1085620977
 11
-62.1254036235
 21
0.1085620977
  0
LINE
  5
51A
100
AcDbEntity
  8
DRAFT
100
AcDbLine
 62
7
  6
CONTINUOUS
 10
-48.4254036235
 20
-0.9047375097
 11
-50.4254036235
 21
-0.8911862946
  0
LINE
  5
51B
100
AcDbEntity
  8
DRAFT
100
AcDbLine
 62
7
  6
CONTINUOUS
 10
-50.4254036235
 20
-0.9825462644
 11
-52.4254036235
 21
-0.9650925288
  0
LINE
  5
51C
100
AcDbEntity
  8
0
100
AcDbLine
 62
250
  6
CONTINUOUS
 10
-76.9166993552
 20
21.4728707488
 11
-76.980389559
 21
21.7790412315
  0
LINE
  5
51D
100
AcDbEntity
  8
DRAFT
100
AcDbLine
 62
7
  6
CONTINUOUS
 10
-71.0397108703
 20
-13.1556015752
 11
-71.0397108703
 21
-13.1450228811
  0
LWPOLYLINE
  5
51E
100
AcDbEntity
  8
0
100
AcDbPolyline
 62
7
  6
CONTINUOUS
 90
4
 70
0
 43
0.3500000087
 10
-69.7810623474
 20
54.1785681946
 10
-69.7810623474
 20
55.035714325
 10
-69.3524892822
 20
55.4642873901
 10
-68.7096339478
 20
55.4642873901
  0
LINE
  5
51F
100
AcDbEntity
  8
RACCORDO
100
AcDbLine
 62
7
  6
CONTINUOUS
 10
-69.3254036235
 20
19.9066225146
 11
-69.3254036235
 21
23.65
  0
LINE
  5
520
100
AcDbEntity
  8
RACCORDO
100
AcDbLine
 62
250
  6
CONTINUOUS
 10
-68.8254036235
 20
23.5544089061
 11
-68.8254036235
 21
19.9022590807
  0
LINE
  5
521
100
AcDbEntity
  8
RACCORDO
100
AcDbLine
 62
250
  6
CONTINUOUS
 10
-68.8186891505
 20
23.65
 11
-68.8186891505
 21
24.15
  0
LINE
  5
522
100
AcDbEntity
  8
0
100
AcDbLine
 62
7
  6
CONTINUOUS
 10
-70.3287529953
 20
-10.6695370666
 11
-70.3174887135
 21
-10.579911044
  0
LINE
  5
523
100
AcDbEntity
  8
0
100
AcDbLine
 62
7
  6
CONTINUOUS
 10
-73.9370887564
 20
-10.7425665256
 11
-74.183256554
 21
-11.5057395207
  0
LINE
  5
524
100
AcDbEntity
  8
0
100
AcDbLine
 62
7
  6
CONTINUOUS
 10
-73.7875628205
 20
-10.6832054414
 11
-73.8004241565
 21
-10.7114403314
  0
LINE
  5
525
100
AcDbEntity
  8
0
100
AcDbLine
 62
7
  6
CONTINUOUS
 10
-62.3254036235
 20
0.531241244
 11
-62.1254036235
 21
0.531241244
  0
LINE
  5
526
100
AcDbEntity
  8
0
100
AcDbLine
 62
7
  6
CONTINUOUS
 10
-62.3254036235
 20
0.6647986889
 11
-62.1254036235
 21
0.6647986889
  0
LINE
  5
527
100
AcDbEntity
  8
0
100
AcDbLine
 62
250
  6
CONTINUOUS
 10
-62.3254036235
 20
0.899330527
 11
-62.1254036235
 21
0.899330527
  0
LINE
  5
528
100
AcDbEntity
  8
0
100
AcDbLine
 62
250
  6
CONTINUOUS
 10
-62.3254036235
 20
1.5608100632
 11
-62.1254036235
 21
1.5608100632
  0
LINE
  5
529
100
AcDbEntity
  8
0
100
AcDbLine
 62
7
  6
CONTINUOUS
 10
-62.3254036235
 20
1.6179135145
 11
-62.1254036235
 21
1.6179135145
  0
LINE
  5
52A
100
AcDbEntity
  8
0
100
AcDbLine
 62
7
  6
CONTINUOUS
 10
-62.3254036235
 20
1.7087857214
 11
-62.1254036235
 21
1.7087857214
  0
LINE
  5
52B
100
AcDbEntity
  8
0
100
AcDbLine
 62
7
  6
CONTINUOUS
 10
-62.3254036235
 20
1.8656778102
 11
-62.1254036235
 21
1.8656778102
  0
LINE
  5
52C
100
AcDbEntity
  8
0
100
AcDbLine
 62
250
  6
CONTINUOUS
 10
-62.3254036235
 20
1.9969587132
 11
-62.1254036235
 21
1.9969587132
  0
LINE
  5
52D
100
AcDbEntity
  8
0
100
AcDbLine
 62
7
  6
CONTINUOUS
 10
-62.3254036235
 20
2.2182581971
 11
-62.1254036235
 21
2.2182581971
  0
LINE
  5
52E
100
AcDbEntity
  8
0
100
AcDbLine
 62
250
  6
CONTINUOUS
 10
-62.3254036235
 20
2.29129745
 11
-62.1254036235
 21
2.29129745
  0
LINE
  5
52F
100
AcDbEntity
  8
0
100
AcDbLine
 62
7
  6
CONTINUOUS
 10
-62.3254036235
 20
2.4435416083
 11
-62.1254036235
 21
2.4435416083
  0
LINE
  5
530
100
AcDbEntity
  8
0
100
AcDbLine
 62
7
  6
CONTINUOUS
 10
-62.3254036235
 20
2.5770990941
 11
-62.1254036235
 21
2.5770990941
  0
LINE
  5
531
100
AcDbEntity
  8
0
100
AcDbLine
 62
7
  6
CONTINUOUS
 10
-62.3254036235
 20
2.6961435498
 11
-62.1254036235
 21
2.6961435498
  0
LINE
  5
532
100
AcDbEntity
  8
0
100
AcDbLine
 62
7
  6
CONTINUOUS
 10
-62.3254036235
 20
2.8381432708
 11
-62.1254036235
 21
2.8381432708
  0
LINE
  5
533
100
AcDbEntity
  8
0
100
AcDbLine
 62
7
  6
CONTINUOUS
 10
-62.3254036235
 20
2.9498837827
 11
-62.1254036235
 21
2.9498837827
  0
LINE
  5
534
100
AcDbEntity
  8
0
100
AcDbLine
 62
7
  6
CONTINUOUS
 10
-62.3254036235
 20
3.3760725682
 11
-62.1254036235
 21
3.3760725682
  0
LINE
  5
535
100
AcDbEntity
  8
0
100
AcDbLine
 62
7
  6
CONTINUOUS
 10
-62.3254036235
 20
3.4816475203
 11
-62.1254036235
 21
3.4816475203
  0
LINE
  5
536
100
AcDbEntity
  8
0
100
AcDbLine
 62
250
  6
CONTINUOUS
 10
-73.394990174
 20
23.6920857621
 11
-73.5341632749
 21
24.6823538308
  0
LINE
  5
537
100
AcDbEntity
  8
ASSI
100
AcDbLine
 62
7
  6
CONTINUOUS
 10
-67.8254036235
 20
23.1897368307
 11
-67.8254036235
 21
19.8934941353
  0
LINE
  5
538
100
AcDbEntity
  8
RACCORDO
100
AcDbLine
 62
250
  6
CONTINUOUS
 10
-67.8210403372
 20
19.8934941351
 11
-67.8210403545
 21
14.932545922
  0
LINE
  5
539
100
AcDbEntity
  8
RACCORDO
100
AcDbLine
 62
250
  6
CONTINUOUS
 10
-67.8210403558
 20
14.1434941353
 11
-67.8210403558
 21
-10.5491007402
  0
LINE
  5
53A
100
AcDbEntity
  8
RACCORDO
100
AcDbLine
 62
250
  6
CONTINUOUS
 10
-67.8210403558
 20
-14.1502338939
 11
-67.8210403558
 21
-17.3934941353
  0
LINE
  5
53B
100
AcDbEntity
  8
0
100
AcDbLine
 62
7
  6
CONTINUOUS
 10
-67.5754036235
 20
24.2
 11
-67.5754036235
 21
19.8263648564
  0
LINE
  5
53C
100
AcDbEntity
  8
DRAFT
100
AcDbLine
 62
7
  6
CONTINUOUS
 10
-67.3254036235
 20
20.0
 11
-67.3254036235
 21
13.6435131737
  0
LINE
  5
53D
100
AcDbEntity
  8
RACCORDO
100
AcDbLine
 62
7
  6
CONTINUOUS
 10
-67.3254036235
 20
14.2382088889
 11
-67.3254036235
 21
-10.1925023231
  0
LINE
  5
53E
100
AcDbEntity
  8
ASSI
100
AcDbLine
 62
7
  6
CONTINUOUS
 10
-67.3254036235
 20
-10.1925023231
 11
-67.3254036235
 21
-13.16794323
  0
LINE
  5
53F
100
AcDbEntity
  8
0
100
AcDbLine
 62
7
  6
CONTINUOUS
 10
-67.3254036235
 20
-17.7
 11
-67.3254036235
 21
-16.8935131738
  0
LINE
  5
540
100
AcDbEntity
  8
RACCORDO
100
AcDbLine
 62
7
  6
CONTINUOUS
 10
-67.3254036235
 20
-16.8935131738
 11
-67.3254036235
 21
-13.16794323
  0
LINE
  5
541
100
AcDbEntity
  8
0
100
AcDbLine
 62
7
  6
CONTINUOUS
 10
-67.3254036235
 20
20.0
 11
-67.3254036235
 21
24.2
  0
LINE
  5
542
100
AcDbEntity
  8
RACCORDO
100
AcDbLine
 62
250
  6
CONTINUOUS
 10
-66.6227856165
 20
-3.918189724
 11
-66.6227856629
 21
-12.5879069308
  0
LINE
  5
543
100
AcDbEntity
  8
RACCORDO
100
AcDbLine
 62
250
  6
CONTINUOUS
 10
-66.4736398145
 20
13.1217705752
 11
-66.4736398145
 21
10.3782294248
  0
LINE
  5
544
100
AcDbEntity
  8
RACCORDO
100
AcDbLine
 62
7
  6
CONTINUOUS
 10
-66.3254036235
 20
12.92858541
 11
-66.3254036235
 21
10.57141459
  0
LINE
  5
545
100
AcDbEntity
  8
RACCORDO
100
AcDbLine
 62
7
  6
CONTINUOUS
 10
-66.3254036235
 20
-4.2184317327
 11
-66.3254036235
 21
-12.2879183484
  0
LINE
  5
546
100
AcDbEntity
  8
0
100
AcDbLine
 62
7
  6
CONTINUOUS
 10
-66.3254036235
 20
-17.7
 11
-66.3254036235
 21
-15.9941821702
  0
LINE
  5
547
100
AcDbEntity
  8
0
100
AcDbLine
 62
7
  6
CONTINUOUS
 10
-66.3254036235
 20
19.9941821702
 11
-66.3254036235
 21
24.2
  0
LINE
  5
548
100
AcDbEntity
  8
0
100
AcDbLine
 62
7
  6
CONTINUOUS
 10
-65.5254036235
 20
19.9895279063
 11
-65.5254036235
 21
20.65
  0
LINE
  5
549
100
AcDbEntity
  8
0
100
AcDbLine
 62
250
  6
CONTINUOUS
 10
-67.6572828449
 20
-17.9983013832
 11
-67.7635469162
 21
-18.9926393274
  0
LINE
  5
54A
100
AcDbEntity
  8
0
100
AcDbLine
 62
7
  6
CONTINUOUS
 10
-72.8079791539
 20
-12.3779736616
 11
-72.4503830905
 21
-11.5929319288
  0
LINE
  5
54B
100
AcDbEntity
  8
DRAFT
100
AcDbLine
 62
7
  6
CONTINUOUS
 10
-50.4254036235
 20
4.9825462644
 11
-52.4254036235
 21
4.9650925288
  0
LINE
  5
54C
100
AcDbEntity
  8
DRAFT
100
AcDbLine
 62
7
  6
CONTINUOUS
 10
-48.4254036235
 20
4.9047375097
 11
-50.4254036235
 21
4.8911862946
  0
LINE
  5
54D
100
AcDbEntity
  8
0
100
AcDbLine
 62
7
  6
CONTINUOUS
 10
-62.3254036235
 20
3.6226037149
 11
-62.1254036235
 21
3.6226037149
  0
LINE
  5
54E
100
AcDbEntity
  8
0
100
AcDbLine
 62
250
  6
CONTINUOUS
 10
-62.3254036235
 20
3.7183136602
 11
-62.1254036235
 21
3.7183136602
  0
LINE
  5
54F
100
AcDbEntity
  8
0
100
AcDbLine
 62
7
  6
CONTINUOUS
 10
-62.3254036235
 20
3.7244793126
 11
-62.1254036235
 21
3.7244793126
  0
LINE
  5
550
100
AcDbEntity
  8
0
100
AcDbLine
 62
7
  6
CONTINUOUS
 10
-62.3254036235
 20
3.8580367984
 11
-62.1254036235
 21
3.8580367984
  0
LINE
  5
551
100
AcDbEntity
  8
0
100
AcDbLine
 62
7
  6
CONTINUOUS
 10
-62.3254036235
 20
4.1537034492
 11
-62.1254036235
 21
4.1537034492
  0
LINE
  5
552
100
AcDbEntity
  8
0
100
AcDbLine
 62
7
  6
CONTINUOUS
 10
-62.3254036235
 20
4.2673411134
 11
-62.1254036235
 21
4.2673411134
  0
LINE
  5
553
100
AcDbEntity
  8
0
100
AcDbLine
 62
7
  6
CONTINUOUS
 10
-62.3254036235
 20
4.5561782012
 11
-62.1254036235
 21
4.5561782012
  0
LINE
  5
554
100
AcDbEntity
  8
0
100
AcDbLine
 62
7
  6
CONTINUOUS
 10
-62.3254036235
 20
4.6897356869
 11
-62.1254036235
 21
4.6897356869
  0
LINE
  5
555
100
AcDbEntity
  8
ASSI
100
AcDbLine
 62
7
  6
CONTINUOUS
 10
-46.4254036235
 20
4.749931
 11
-46.2254036235
 21
4.749931
  0
LINE
  5
556
100
AcDbEntity
  8
0
100
AcDbLine
 62
7
  6
CONTINUOUS
 10
-62.3254036235
 20
4.7772879699
 11
-62.1254036235
 21
4.7772879699
  0
LINE
  5
557
100
AcDbEntity
  8
0
100
AcDbLine
 62
250
  6
CONTINUOUS
 10
-62.3254036235
 20
4.9085688728
 11
-62.1254036235
 21
4.9085688728
  0
LINE
  5
558
100
AcDbEntity
  8
0
100
AcDbLine
 62
7
  6
CONTINUOUS
 10
-62.3254036235
 20
5.1298683568
 11
-62.1254036235
 21
5.1298683568
  0
LINE
  5
559
100
AcDbEntity
  8
0
100
AcDbLine
 62
7
  6
CONTINUOUS
 10
-62.3254036235
 20
5.1366031549
 11
-62.1254036235
 21
5.1366031549
  0
LINE
  5
55A
100
AcDbEntity
  8
0
100
AcDbLine
 62
7
  6
CONTINUOUS
 10
-62.3254036235
 20
5.2361071947
 11
-62.1254036235
 21
5.2361071947
  0
LINE
  5
55B
100
AcDbEntity
  8
0
100
AcDbLine
 62
7
  6
CONTINUOUS
 10
-62.3254036235
 20
5.2596315379
 11
-62.1254036235
 21
5.2596315379
  0
LINE
  5
55C
100
AcDbEntity
  8
0
100
AcDbLine
 62
7
  6
CONTINUOUS
 10
-62.3254036235
 20
5.6603039951
 11
-62.1254036235
 21
5.6603039951
  0
LINE
  5
55D
100
AcDbEntity
  8
0
100
AcDbLine
 62
7
  6
CONTINUOUS
 10
-62.3254036235
 20
5.7938614809
 11
-62.1254036235
 21
5.7938614809
  0
LINE
  5
55E
100
AcDbEntity
  8
0
100
AcDbLine
 62
7
  6
CONTINUOUS
 10
-62.3254036235
 20
6.1763215538
 11
-62.1254036235
 21
6.1763215538
  0
LINE
  5
55F
100
AcDbEntity
  8
0
100
AcDbLine
 62
7
  6
CONTINUOUS
 10
-62.3254036235
 20
6.2256467731
 11
-62.1254036235
 21
6.2256467731
  0
LINE
  5
560
100
AcDbEntity
  8
RACCORDO
100
AcDbLine
 62
7
  6
CONTINUOUS
 10
-64.8254036235
 20
13.4756953391
 11
-64.8254036235
 21
13.426703409
  0
LINE
  5
561
100
AcDbEntity
  8
0
100
AcDbLine
 62
7
  6
CONTINUOUS
 10
-64.8254036235
 20
-16.0
 11
-64.8254036235
 21
-15.9854554255
  0
LINE
  5
562
100
AcDbEntity
  8
0
100
AcDbLine
 62
7
  6
CONTINUOUS
 10
-64.8254036235
 20
13.5
 11
-64.8254036235
 21
20.0
  0
LINE
  5
563
100
AcDbEntity
  8
0
100
AcDbLine
 62
250
  6
CONTINUOUS
 10
-64.507972475
 20
22.9909953778
 11
-64.507972475
 21
20.65
  0
LINE
  5
564
100
AcDbEntity
  8
0
100
AcDbLine
 62
7
  6
CONTINUOUS
 10
-64.3254036235
 20
22.7917564381
 11
-64.3254036235
 21
20.65
  0
LINE
  5
565
100
AcDbEntity
  8
RACCORDO
100
AcDbLine
 62
250
  6
CONTINUOUS
 10
-63.8312213549
 20
19.9796714422
 11
-63.8312213549
 21
19.913020322
  0
LINE
  5
566
100
AcDbEntity
  8
RACCORDO
100
AcDbLine
 62
250
  6
CONTINUOUS
 10
-63.8312213549
 20
13.586979678
 11
-63.8312213549
 21
12.0203539425
  0
LINE
  5
567
100
AcDbEntity
  8
0
100
AcDbLine
 62
7
  6
CONTINUOUS
 10
-63.6254036235
 20
16.15
 11
-63.6254036235
 21
17.35
  0
LINE
  5
568
100
AcDbEntity
  8
0
100
AcDbLine
 62
7
  6
CONTINUOUS
 10
-62.8375005072
 20
13.6739189869
 11
-62.8375005072
 21
16.15
  0
LINE
  5
569
100
AcDbEntity
  8
0
100
AcDbLine
 62
7
  6
CONTINUOUS
 10
-62.8375005072
 20
17.35
 11
-62.8375005072
 21
19.8260810131
  0
LINE
  5
56A
100
AcDbEntity
  8
0
100
AcDbLine
 62
7
  6
CONTINUOUS
 10
-62.3318480279
 20
18.4374840352
 11
-62.3318480279
 21
18.4220177359
  0
LINE
  5
56B
100
AcDbEntity
  8
0
100
AcDbLine
 62
7
  6
CONTINUOUS
 10
-62.3318480279
 20
15.0780087498
 11
-62.3318480279
 21
15.0625159648
  0
LINE
  5
56C
100
AcDbEntity
  8
RACCORDO
100
AcDbLine
 62
7
  6
CONTINUOUS
 10
-62.3254036235
 20
19.9709108509
 11
-62.3254036235
 21
18.3945214577
  0
LINE
  5
56D
100
AcDbEntity
  8
RACCORDO
100
AcDbLine
 62
7
  6
CONTINUOUS
 10
-62.3254036235
 20
17.35
 11
-62.3254036235
 21
16.15
  0
LINE
  5
56E
100
AcDbEntity
  8
RACCORDO
100
AcDbLine
 62
7
  6
CONTINUOUS
 10
-62.3254036235
 20
15.1054949255
 11
-62.3254036235
 21
-15.9709108509
  0
LINE
  5
56F
100
AcDbEntity
  8
RACCORDO
100
AcDbLine
 62
7
  6
CONTINUOUS
 10
-44.2375356579
 20
17.2878679656
 11
-41.6011395548
 21
19.9242640687
  0
LINE
  5
570
100
AcDbEntity
  8
RACCORDO
100
AcDbLine
 62
7
  6
CONTINUOUS
 10
-67.3254036235
 20
10.15
 11
-66.4736398145
 21
10.3782294248
  0
LINE
  5
571
100
AcDbEntity
  8
0
100
AcDbLine
 62
7
  6
CONTINUOUS
 10
-62.3254036235
 20
6.8570094331
 11
-62.1254036235
 21
6.8570094331
  0
LINE
  5
572
100
AcDbEntity
  8
0
100
AcDbLine
 62
7
  6
CONTINUOUS
 10
-62.3254036235
 20
6.9639122992
 11
-62.1254036235
 21
6.9639122992
  0
LINE
  5
573
100
AcDbEntity
  8
0
100
AcDbLine
 62
7
  6
CONTINUOUS
 10
-62.3254036235
 20
7.1059120202
 11
-62.1254036235
 21
7.1059120202
  0
LINE
  5
574
100
AcDbEntity
  8
0
100
AcDbLine
 62
7
  6
CONTINUOUS
 10
-62.3254036235
 20
7.2176525321
 11
-62.1254036235
 21
7.2176525321
  0
LINE
  5
575
100
AcDbEntity
  8
ASSI
100
AcDbLine
 62
7
  6
CONTINUOUS
 10
-46.4254036235
 20
7.25005
 11
-46.2254036235
 21
7.25005
  0
LINE
  5
576
100
AcDbEntity
  8
0
100
AcDbLine
 62
7
  6
CONTINUOUS
 10
-62.3254036235
 20
7.6438413176
 11
-62.1254036235
 21
7.6438413176
  0
LINE
  5
577
100
AcDbEntity
  8
0
100
AcDbLine
 62
7
  6
CONTINUOUS
 10
-62.3254036235
 20
7.7494162697
 11
-62.1254036235
 21
7.7494162697
  0
LINE
  5
578
100
AcDbEntity
  8
0
100
AcDbLine
 62
7
  6
CONTINUOUS
 10
-62.3254036235
 20
7.8903724643
 11
-62.1254036235
 21
7.8903724643
  0
LINE
  5
579
100
AcDbEntity
  8
0
100
AcDbLine
 62
7
  6
CONTINUOUS
 10
-62.3254036235
 20
7.9133277295
 11
-62.1254036235
 21
7.9133277295
  0
LINE
  5
57A
100
AcDbEntity
  8
0
100
AcDbLine
 62
7
  6
CONTINUOUS
 10
-62.3254036235
 20
8.2411506491
 11
-62.1254036235
 21
8.2411506491
  0
LINE
  5
57B
100
AcDbEntity
  8
0
100
AcDbLine
 62
7
  6
CONTINUOUS
 10
-62.3254036235
 20
8.3747081349
 11
-62.1254036235
 21
8.3747081349
  0
LINE
  5
57C
100
AcDbEntity
  8
0
100
AcDbLine
 62
7
  6
CONTINUOUS
 10
-62.3254036235
 20
8.7025310545
 11
-62.1254036235
 21
8.7025310545
  0
LINE
  5
57D
100
AcDbEntity
  8
0
100
AcDbLine
 62
7
  6
CONTINUOUS
 10
-62.3254036235
 20
8.8664425142
 11
-62.1254036235
 21
8.8664425142
  0
LINE
  5
57E
100
AcDbEntity
  8
0
100
AcDbLine
 62
7
  6
CONTINUOUS
 10
-62.3254036235
 20
9.0
 11
-62.1254036235
 21
9.0
  0
LINE
  5
57F
100
AcDbEntity
  8
0
100
AcDbLine
 62
7
  6
CONTINUOUS
 10
-67.8204976753
 20
24.2230726977
 11
-67.8552909506
 21
24.4706397149
  0
LINE
  5
580
100
AcDbEntity
  8
0
100
AcDbLine
 62
250
  6
CONTINUOUS
 10
-67.8063286548
 20
25.4873484894
 11
-67.6323622786
 21
24.2495134034
  0
LINE
  5
581
100
AcDbEntity
  8
0
100
AcDbLine
 62
7
  6
CONTINUOUS
 10
-62.1254036235
 20
16.3
 11
-62.1254036235
 21
11.3
  0
LINE
  5
582
100
AcDbEntity
  8
0
100
AcDbLine
 62
7
  6
CONTINUOUS
 10
-62.1254036235
 20
9.0
 11
-62.1254036235
 21
7.8959403414
  0
LINE
  5
583
100
AcDbEntity
  8
0
100
AcDbLine
 62
7
  6
CONTINUOUS
 10
-62.1254036235
 20
7.8903724643
 11
-62.1254036235
 21
5.1366031549
  0
LINE
  5
584
100
AcDbEntity
  8
0
100
AcDbLine
 62
7
  6
CONTINUOUS
 10
-62.1254036235
 20
5.1298683568
 11
-62.1254036235
 21
3.7244793126
  0
LINE
  5
585
100
AcDbEntity
  8
0
100
AcDbLine
 62
7
  6
CONTINUOUS
 10
-62.1254036235
 20
3.7183136602
 11
-62.1254036235
 21
-3.73541
  0
LINE
  5
586
100
AcDbEntity
  8
0
100
AcDbLine
 62
7
  6
CONTINUOUS
 10
-62.1254036235
 20
-3.910209207
 11
-62.1254036235
 21
-4.8385665244
  0
LINE
  5
587
100
AcDbEntity
  8
0
100
AcDbLine
 62
7
  6
CONTINUOUS
 10
-62.1254036235
 20
-4.9506864668
 11
-62.1254036235
 21
-5.0842439526
  0
LINE
  5
588
100
AcDbEntity
  8
0
100
AcDbLine
 62
7
  6
CONTINUOUS
 10
-62.1254036235
 20
-5.2654099648
 11
-62.1254036235
 21
-8.07041
  0
LINE
  5
589
100
AcDbEntity
  8
0
100
AcDbLine
 62
7
  6
CONTINUOUS
 10
-62.1254036235
 20
-9.5298595
 11
-62.1254036235
 21
-14.5302909178
  0
LINE
  5
58A
100
AcDbEntity
  8
RACCORDO
100
AcDbLine
 62
250
  6
CONTINUOUS
 10
-63.8312213549
 20
12.0203539425
 11
-66.3254036235
 21
12.0058432145
  0
LINE
  5
58B
100
AcDbEntity
  8
RACCORDO
100
AcDbLine
 62
250
  6
CONTINUOUS
 10
-99.1557124356
 20
10.9258987374
 11
-99.146630505
 21
10.9258987376
  0
LINE
  5
58C
100
AcDbEntity
  8
0
100
AcDbLine
 62
7
  6
CONTINUOUS
 10
-62.3254036235
 20
11.3
 11
-62.1254036235
 21
11.3
  0
LINE
  5
58D
100
AcDbEntity
  8
RACCORDO
100
AcDbLine
 62
7
  6
CONTINUOUS
 10
-99.2018477827
 20
11.941987117
 11
-99.4247157496
 21
11.9458772918
  0
LINE
  5
58E
100
AcDbEntity
  8
RACCORDO
100
AcDbLine
 62
250
  6
CONTINUOUS
 10
-99.4178949177
 20
12.8303442963
 11
-100.2999266533
 21
12.8457402175
  0
LINE
  5
58F
100
AcDbEntity
  8
RACCORDO
100
AcDbLine
 62
7
  6
CONTINUOUS
 10
-42.0111900611
 20
-15.1142135624
 11
-44.3375356579
 21
-12.7878679656
  0
LINE
  5
590
100
AcDbEntity
  8
0
100
AcDbLine
 62
250
  6
CONTINUOUS
 10
-76.2809817065
 20
21.467322925
 11
-76.7286672381
 21
21.9150084566
  0
LINE
  5
591
100
AcDbEntity
  8
0
100
AcDbLine
 62
7
  6
CONTINUOUS
 10
-64.8254036235
 20
13.5
 11
-62.8375005072
 21
13.6739189869
  0
LINE
  5
592
100
AcDbEntity
  8
0
100
AcDbLine
 62
7
  6
CONTINUOUS
 10
-52.4254036235
 20
14.4650925288
 11
-48.4254036235
 21
14.5
  0
LINE
  5
593
100
AcDbEntity
  8
DRAFT
100
AcDbLine
 62
7
  6
CONTINUOUS
 10
-67.3254036235
 20
13.5
 11
-64.8254036235
 21
13.5145445745
  0
LINE
  5
594
100
AcDbEntity
  8
RACCORDO
100
AcDbLine
 62
7
  6
CONTINUOUS
 10
-67.8210403558
 20
13.0616890578
 11
-80.0254036235
 21
13.0905365064
  0
LINE
  5
595
100
AcDbEntity
  8
0
100
AcDbLine
 62
7
  6
CONTINUOUS
 10
-52.4254036235
 20
13.0349074712
 11
-48.4254036235
 21
13.0
  0
LINE
  5
596
100
AcDbEntity
  8
RACCORDO
100
AcDbLine
 62
7
  6
CONTINUOUS
 10
-67.8210403558
 20
14.1434941353
 11
-76.8254036235
 21
14.2220740231
  0
LINE
  5
597
100
AcDbEntity
  8
RACCORDO
100
AcDbLine
 62
7
  6
CONTINUOUS
 10
-67.3254036235
 20
13.35
 11
-66.4736398145
 21
13.1217705752
  0
LINE
  5
598
100
AcDbEntity
  8
0
100
AcDbLine
 62
250
  6
CONTINUOUS
 10
-73.6789570141
 20
23.5505051183
 11
-74.3860637953
 21
24.2576118995
  0
LINE
  5
599
100
AcDbEntity
  8
DRAFT
100
AcDbLine
 62
7
  6
CONTINUOUS
 10
-53.6254036235
 20
-22.8
 11
-53.6254036235
 21
-22.2453797125
  0
LINE
  5
59A
100
AcDbEntity
  8
0
100
AcDbLine
 62
7
  6
CONTINUOUS
 10
-62.1845801917
 20
16.15
 11
-63.6254036235
 21
16.15
  0
LINE
  5
59B
100
AcDbEntity
  8
0
100
AcDbLine
 62
7
  6
CONTINUOUS
 10
-62.3254036235
 20
16.3
 11
-62.1254036235
 21
16.3
  0
LINE
  5
59C
100
AcDbEntity
  8
RACCORDO
100
AcDbLine
 62
7
  6
CONTINUOUS
 10
-44.7465214351
 20
17.2
 11
-44.4496676922
 21
17.2
  0
LINE
  5
59D
100
AcDbEntity
  8
0
100
AcDbLine
 62
7
  6
CONTINUOUS
 10
-63.6254036235
 20
17.35
 11
-62.184580276
 21
17.35
  0
LINE
  5
59E
100
AcDbEntity
  8
DRAFT
100
AcDbLine
 62
7
  6
CONTINUOUS
 10
-52.4254036235
 20
27.0
 11
-52.4254036235
 21
26.2349074712
  0
LINE
  5
59F
100
AcDbEntity
  8
0
100
AcDbLine
 62
7
  6
CONTINUOUS
 10
-52.4254036235
 20
-10.4650925288
 11
-52.4254036235
 21
-9.0349074712
  0
LINE
  5
5A0
100
AcDbEntity
  8
DRAFT
100
AcDbLine
 62
7
  6
CONTINUOUS
 10
-52.4254036235
 20
-0.9650925288
 11
-52.4254036235
 21
4.9650925288
  0
LINE
  5
5A1
100
AcDbEntity
  8
0
100
AcDbLine
 62
7
  6
CONTINUOUS
 10
-52.4254036235
 20
13.0349074712
 11
-52.4254036235
 21
14.4650925288
  0
LINE
  5
5A2
100
AcDbEntity
  8
RACCORDO
100
AcDbLine
 62
7
  6
CONTINUOUS
 10
-50.4254036235
 20
34.9825462644
 11
-50.4254036235
 21
32.2433677219
  0
LINE
  5
5A3
100
AcDbEntity
  8
0
100
AcDbLine
 62
7
  6
CONTINUOUS
 10
-50.4254036235
 20
25.5174537356
 11
-50.4254036235
 21
14.4825462644
  0
LINE
  5
5A4
100
AcDbEntity
  8
0
100
AcDbLine
 62
7
  6
CONTINUOUS
 10
-50.4254036235
 20
13.0174537356
 11
-50.4254036235
 21
4.8911862946
  0
LINE
  5
5A5
100
AcDbEntity
  8
0
100
AcDbLine
 62
7
  6
CONTINUOUS
 10
-50.4254036235
 20
-0.8911862946
 11
-50.4254036235
 21
-9.0174537356
  0
LINE
  5
5A6
100
AcDbEntity
  8
0
100
AcDbLine
 62
7
  6
CONTINUOUS
 10
-50.4254036235
 20
-10.4825462644
 11
-50.4254036235
 21
-21.5174537356
  0
LINE
  5
5A7
100
AcDbEntity
  8
RACCORDO
100
AcDbLine
 62
7
  6
CONTINUOUS
 10
-50.4254036235
 20
-30.9825462644
 11
-50.4254036235
 21
-28.2433677219
  0
LINE
  5
5A8
100
AcDbEntity
  8
RACCORDO
100
AcDbLine
 62
7
  6
CONTINUOUS
 10
-50.4254036235
 20
-26.2390566646
 11
-50.4254036235
 21
-21.5174537356
  0
LINE
  5
5A9
100
AcDbEntity
  8
RACCORDO
100
AcDbLine
 62
7
  6
CONTINUOUS
 10
-50.4254036235
 20
25.5174537356
 11
-50.4254036235
 21
27.0
  0
LINE
  5
5AA
100
AcDbEntity
  8
0
100
AcDbLine
 62
7
  6
CONTINUOUS
 10
-65.5254036235
 20
20.65
 11
-64.3254036235
 21
20.65
  0
LINE
  5
5AB
100
AcDbEntity
  8
0
100
AcDbLine
 62
7
  6
CONTINUOUS
 10
-73.6254036235
 20
21.45
 11
-72.8254036235
 21
21.45
  0
LINE
  5
5AC
100
AcDbEntity
  8
0
100
AcDbLine
 62
7
  6
CONTINUOUS
 10
-67.5754036235
 20
21.531939
 11
-67.8254036235
 21
21.531939
  0
LINE
  5
5AD
100
AcDbEntity
  8
0
100
AcDbLine
 62
7
  6
CONTINUOUS
 10
-69.3254036235
 20
21.531939
 11
-72.8254036235
 21
21.531939
  0
LINE
  5
5AE
100
AcDbEntity
  8
0
100
AcDbLine
 62
7
  6
CONTINUOUS
 10
-72.4573426235
 20
21.9
 11
-69.3254036235
 21
21.9
  0
LINE
  5
5AF
100
AcDbEntity
  8
0
100
AcDbLine
 62
7
  6
CONTINUOUS
 10
-67.8254036235
 20
21.9
 11
-67.5754036235
 21
21.9
  0
LINE
  5
5B0
100
AcDbEntity
  8
DRAFT
100
AcDbLine
 62
7
  6
CONTINUOUS
 10
-46.4254036235
 20
19.7336228197
 11
-45.4239986608
 21
19.7283794276
  0
LINE
  5
5B1
100
AcDbEntity
  8
DRAFT
100
AcDbLine
 62
7
  6
CONTINUOUS
 10
-67.3254036235
 20
20.0
 11
-64.8254036235
 21
19.9854554255
  0
LINE
  5
5B2
100
AcDbEntity
  8
RACCORDO
100
AcDbLine
 62
7
  6
CONTINUOUS
 10
-62.3254036235
 20
19.9709108509
 11
-64.6473158795
 21
19.9844193413
  0
LINE
  5
5B3
100
AcDbEntity
  8
DRAFT
100
AcDbLine
 62
7
  6
CONTINUOUS
 10
-76.8254036235
 20
19.9720740231
 11
-67.8210403558
 21
19.8934941353
  0
LINE
  5
5B4
100
AcDbEntity
  8
DRAFT
100
AcDbLine
 62
7
  6
CONTINUOUS
 10
-71.8254036235
 20
21.4284396841
 11
-80.0254036235
 21
21.5
  0
LINE
  5
5B5
100
AcDbEntity
  8
0
100
AcDbLine
 62
7
  6
CONTINUOUS
 10
-64.8254036235
 20
20.0
 11
-62.8375005072
 21
19.8260810131
  0
LINE
  5
5B6
100
AcDbEntity
  8
ASSI
100
AcDbLine
 62
250
  6
CONTINUOUS
 10
-49.4451580236
 20
-30.2899519441
 11
-49.4451580236
 21
-28.3100480559
  0
LINE
  5
5B7
100
AcDbEntity
  8
ASSI
100
AcDbLine
 62
250
  6
CONTINUOUS
 10
-49.4451580236
 20
-25.9899519441
 11
-49.4451580236
 21
-24.0100480559
  0
LINE
  5
5B8
100
AcDbEntity
  8
ASSI
100
AcDbLine
 62
250
  6
CONTINUOUS
 10
-49.4451580236
 20
32.3100480559
 11
-49.4451580236
 21
34.2899519441
  0
LINE
  5
5B9
100
AcDbEntity
  8
RACCORDO
100
AcDbLine
 62
7
  6
CONTINUOUS
 10
-48.5254036235
 20
-27.25
 11
-48.5254036235
 21
-28.25
  0
LINE
  5
5BA
100
AcDbEntity
  8
RACCORDO
100
AcDbLine
 62
7
  6
CONTINUOUS
 10
-48.5254036235
 20
27.0
 11
-48.5254036235
 21
32.25
  0
LINE
  5
5BB
100
AcDbEntity
  8
RACCORDO
100
AcDbLine
 62
7
  6
CONTINUOUS
 10
-48.4254036235
 20
-31.0
 11
-48.4254036235
 21
35.0
  0
LWPOLYLINE
  5
5BC
100
AcDbEntity
  8
0
100
AcDbPolyline
 62
7
  6
CONTINUOUS
 90
17
 70
0
 10
-43.6838966788
 20
-13.4415069447
 10
-43.6388085373
 20
-13.4252456854
 10
-43.5763229819
 20
-13.4010466436
 10
-43.518172684
 20
-13.3767032386
 10
-43.4645022291
 20
-13.3522360367
 10
-43.4150297204
 20
-13.3274732442
 10
-43.369580979
 20
-13.3022584561
 10
-43.3280419252
 20
-13.2764364456
 10
-43.2901162048
 20
-13.2496795945
 10
-43.2557887056
 20
-13.2217637681
 10
-43.2249992328
 20
-13.1923392168
 10
-43.1974870951
 20
-13.1606474036
 10
-43.1730298643
 20
-13.1255020428
 10
-43.1527949892
 20
-13.0873547524
 10
-43.1381477125
 20
-13.0483653696
 10
-43.1291715875
 20
-13.0096946496
 10
-43.1255055381
 20
-12.9710376326
  0
LINE
  5
5BD
100
AcDbEntity
  8
0
100
AcDbLine
 62
7
  6
CONTINUOUS
 10
-78.3903836896
 20
21.4857313972
 11
-76.980389559
 21
21.7790412315
  0
LINE
  5
5BE
100
AcDbEntity
  8
0
100
AcDbLine
 62
7
  6
CONTINUOUS
 10
-67.8204976753
 20
24.2230726977
 11
-67.6323622786
 21
24.2495134034
  0
LINE
  5
5BF
100
AcDbEntity
  8
0
100
AcDbLine
 62
7
  6
CONTINUOUS
 10
-73.394990174
 20
23.6920857621
 11
-67.6671555538
 21
24.4970804206
  0
LINE
  5
5C0
100
AcDbEntity
  8
0
100
AcDbLine
 62
7
  6
CONTINUOUS
 10
-73.5341632749
 20
24.6823538308
 11
-67.8063286548
 21
25.4873484894
  0
LINE
  5
5C1
100
AcDbEntity
  8
RACCORDO
100
AcDbLine
 62
250
  6
CONTINUOUS
 10
-98.6186571672
 20
23.8251438945
 11
-89.0288942749
 21
23.8586186178
  0
LINE
  5
5C2
100
AcDbEntity
  8
RACCORDO
100
AcDbLine
 62
7
  6
CONTINUOUS
 10
-101.7097699938
 20
24.3143507852
 11
-89.8931655807
 21
24.3555986834
  0
LINE
  5
5C3
100
AcDbEntity
  8
RACCORDO
100
AcDbLine
 62
250
  6
CONTINUOUS
 10
-102.2081499862
 20
23.8143538328
 11
-99.1118663245
 21
23.8251438945
  0
LINE
  5
5C4
100
AcDbEntity
  8
RACCORDO
100
AcDbLine
 62
250
  6
CONTINUOUS
 10
-68.8254036235
 20
23.5544089061
 11
-69.3254036235
 21
23.5544089061
  0
LINE
  5
5C5
100
AcDbEntity
  8
RACCORDO
100
AcDbLine
 62
250
  6
CONTINUOUS
 10
-67.5754036235
 20
23.65
 11
-68.8186757248
 21
23.65
  0
LINE
  5
5C6
100
AcDbEntity
  8
RACCORDO
100
AcDbLine
 62
250
  6
CONTINUOUS
 10
-98.6186571672
 20
23.8251438945
 11
-99.1118663245
 21
23.8251438945
  0
LINE
  5
5C7
100
AcDbEntity
  8
RACCORDO
100
AcDbLine
 62
7
  6
CONTINUOUS
 10
-67.5754036235
 20
24.15
 11
-68.8254036235
 21
24.15
  0
LINE
  5
5C8
100
AcDbEntity
  8
0
100
AcDbLine
 62
250
  6
CONTINUOUS
 10
-66.3254036235
 20
24.2
 11
-67.5754036235
 21
24.2
  0
LINE
  5
5C9
100
AcDbEntity
  8
0
100
AcDbLine
 62
7
  6
CONTINUOUS
 10
-66.3254036235
 20
23.15
 11
-64.507972475
 21
22.9909953778
  0
LINE
  5
5CA
100
AcDbEntity
  8
RACCORDO
100
AcDbLine
 62
250
  6
CONTINUOUS
 10
-68.8186891505
 20
23.65
 11
-69.3119746775
 21
23.7200282971
  0
LWPOLYLINE
  5
5CB
100
AcDbEntity
  8
0
100
AcDbPolyline
 62
7
  6
CONTINUOUS
 90
10
 70
0
 43
0.3500000087
 10
-67.3682615601
 20
44.249998642
 10
-67.296834137
 20
44.1071437958
 10
-67.296834137
 20
44.0357163727
 10
-67.4396889832
 20
43.8928572632
 10
-67.5111164062
 20
43.8928572632
 10
-67.5825480927
 20
43.9642846863
 10
-67.5825480927
 20
44.0357163727
 10
-67.5111164062
 20
44.1785712189
 10
-67.4396889832
 20
44.249998642
 10
-67.3682615601
 20
44.249998642
  0
LWPOLYLINE
  5
5CC
100
AcDbEntity
  8
0
100
AcDbPolyline
 62
7
  6
CONTINUOUS
 90
10
 70
0
 43
0.3500000087
 10
-70.8524907471
 20
54.2500041443
 10
-70.781063324
 20
54.1071407715
 10
-70.781063324
 20
54.0357133484
 10
-70.9239181702
 20
53.8928585022
 10
-70.9953498566
 20
53.8928585022
 10
-71.0667772797
 20
53.9642859253
 10
-71.0667772797
 20
54.0357133484
 10
-70.9953498566
 20
54.1785681946
 10
-70.9239181702
 20
54.2500041443
 10
-70.8524907471
 20
54.2500041443
  0
LWPOLYLINE
  5
5CD
100
AcDbEntity
  8
0
100
AcDbPolyline
 62
7
  6
CONTINUOUS
 90
31
 70
0
 10
-43.1254908297
 20
-12.9567973486
 10
-43.1293599106
 20
-12.9164075111
 10
-43.1388799215
 20
-12.8764868343
 10
-43.1541981373
 20
-12.8368185254
 10
-43.1750668938
 20
-12.7984556661
 10
-43.2001022817
 20
-12.7632880994
 10
-43.2281480356
 20
-12.7316448429
 10
-43.2593291242
 20
-12.702392875
 10
-43.2937790567
 20
-12.6748132842
 10
-43.3313827398
 20
-12.6486080771
 10
-43.3721327325
 20
-12.6234911084
 10
-43.4164166994
 20
-12.5990387279
 10
-43.4642796219
 20
-12.5751109509
 10
-43.5158395704
 20
-12.5515575494
 10
-43.5715836863
 20
-12.5281063837
 10
-43.6316782819
 20
-12.5046682117
 10
-43.6961731563
 20
-12.481206207
 10
-43.7653348954
 20
-12.4576108116
 10
-43.8392711609
 20
-12.4338379831
 10
-43.9179928276
 20
-12.4098734126
 10
-44.0015425351
 20
-12.3856889849
 10
-44.0899232968
 20
-12.3612650822
 10
-44.183084464
 20
-12.3365921912
 10
-44.2808992924
 20
-12.3116743549
 10
-44.3833210528
 20
-12.2864889542
 10
-44.4901590276
 20
-12.2610433086
 10
-44.6009699444
 20
-12.2353949215
 10
-44.715595566
 20
-12.2095257898
 10
-44.8337328853
 20
-12.1834454857
 10
-44.9546120181
 20
-12.1572575605
 10
-45.2033154524
 20
-12.1045439159
  0
LWPOLYLINE
  5
5CE
100
AcDbEntity
  8
0
100
AcDbPolyline
 62
7
  6
CONTINUOUS
 90
35
 70
0
 10
-43.1254036333
 20
-10.7000056417
 10
-43.126472246
 20
-10.6797119155
 10
-43.1297346283
 20
-10.6590939151
 10
-43.1349382756
 20
-10.6394112565
 10
-43.1418419045
 20
-10.6208269607
 10
-43.1502110306
 20
-10.6034862857
 10
-43.1598750726
 20
-10.587419283
 10
-43.1706106021
 20
-10.5727578555
 10
-43.1820747439
 20
-10.5597126707
 10
-43.1941029883
 20
-10.5482101525
 10
-43.2064464496
 20
-10.5381985379
 10
-43.2185723767
 20
-10.5297754086
 10
-43.2301979375
 20
-10.5227979979
 10
-43.241254866
 20
-10.5170247551
 10
-43.2515321637
 20
-10.5123273842
 10
-43.2607775252
 20
-10.5085978052
 10
-43.2691007136
 20
-10.5056058945
 10
-43.276871053
 20
-10.5030981685
 10
-43.284091557
 20
-10.5009930873
 10
-43.2907435546
 20
-10.4992279484
 10
-43.297184988
 20
-10.4976623614
 10
-43.3034840788
 20
-10.4962539438
 10
-43.3095928526
 20
-10.4949911792
 10
-43.3156952999
 20
-10.4938195055
 10
-43.3218251772
 20
-10.4927222475
 10
-43.3279679836
 20
-10.4916931098
 10
-43.334227724
 20
-10.4907080467
 10
-43.3406161964
 20
-10.4897608494
 10
-43.3471353775
 20
-10.4888473799
 10
-43.3538717303
 20
-10.4879529747
 10
-43.3608483931
 20
-10.4870732934
 10
-43.3680604735
 20
-10.4862078518
 10
-43.3755527667
 20
-10.4853505064
 10
-43.3833389221
 20
-10.4844993649
 10
-43.3998328436
 20
-10.4828105474
  0
LINE
  5
5CF
100
AcDbEntity
  8
RACCORDO
100
AcDbLine
 62
7
  6
CONTINUOUS
 10
-46.4254036235
 20
-35.0
 11
-46.4254036235
 21
34.9825462644
  0
LINE
  5
5D0
100
AcDbEntity
  8
ASSI
100
AcDbLine
 62
7
  6
CONTINUOUS
 10
-46.2254036235
 20
7.25005
 11
-46.2254036235
 21
4.749931
  0
LINE
  5
5D1
100
AcDbEntity
  8
0
100
AcDbLine
 62
250
  6
CONTINUOUS
 10
-45.6254036235
 20
-11.0
 11
-45.6254036235
 21
-10.6
  0
LINE
  5
5D2
100
AcDbEntity
  8
0
100
AcDbLine
 62
7
  6
CONTINUOUS
 10
-45.6254036235
 20
-10.6
 11
-45.6254036235
 21
-10.2
  0
LINE
  5
5D3
100
AcDbEntity
  8
RACCORDO
100
AcDbLine
 62
7
  6
CONTINUOUS
 10
-45.0254036235
 20
-27.2928932188
 11
-45.0254036235
 21
-26.767287244
  0
LINE
  5
5D4
100
AcDbEntity
  8
RACCORDO
100
AcDbLine
 62
7
  6
CONTINUOUS
 10
-45.0254036235
 20
30.767287244
 11
-45.0254036235
 21
31.2928932188
  0
LINE
  5
5D5
100
AcDbEntity
  8
RACCORDO
100
AcDbLine
 62
7
  6
CONTINUOUS
 10
-44.1254036235
 20
-15.2
 11
-44.1254036235
 21
-15.7200717959
  0
LINE
  5
5D6
100
AcDbEntity
  8
RACCORDO
100
AcDbLine
 62
7
  6
CONTINUOUS
 10
-44.1254036235
 20
-30.7987760739
 11
-44.1254036235
 21
-34.9799282041
  0
LINE
  5
5D7
100
AcDbEntity
  8
0
100
AcDbLine
 62
7
  6
CONTINUOUS
 10
-43.5459677444
 20
-12.9484340315
 11
-43.5664976461
 21
-12.9617885976
  0
LWPOLYLINE
  5
5D8
100
AcDbEntity
  8
0
100
AcDbPolyline
 62
7
  6
CONTINUOUS
 90
10
 70
0
 10
-43.5664976461
 20
-12.9617885976
 10
-43.5927854446
 20
-12.97700066
 10
-43.6246459228
 20
-12.993593089
 10
-43.6622555069
 20
-13.0113986415
 10
-43.7058552345
 20
-13.0303183673
 10
-43.7553256523
 20
-13.0501373815
 10
-43.8107921704
 20
-13.0707857198
 10
-43.8724003344
 20
-13.0922189349
 10
-43.940080885
 20
-13.1143382417
 10
-43.9943299402
 20
-13.1310736833
  0
LINE
  5
5D9
100
AcDbEntity
  8
RACCORDO
100
AcDbLine
 62
7
  6
CONTINUOUS
 10
-75.0254036235
 20
27.0
 11
-48.5254036235
 21
27.0
  0
LINE
  5
5DA
100
AcDbEntity
  8
RACCORDO
100
AcDbLine
 62
7
  6
CONTINUOUS
 10
-48.4254036235
 20
25.5
 11
-50.4254036235
 21
25.5174537356
  0
LINE
  5
5DB
100
AcDbEntity
  8
DRAFT
100
AcDbLine
 62
7
  6
CONTINUOUS
 10
-52.4254036235
 20
26.2349074712
 11
-50.4254036235
 21
26.2174537356
  0
LINE
  5
5DC
100
AcDbEntity
  8
RACCORDO
100
AcDbLine
 62
250
  6
CONTINUOUS
 10
-48.4254036235
 20
26.4999619231
 11
-50.4254036235
 21
26.5174156586
  0
LINE
  5
5DD
100
AcDbEntity
  8
DRAFT
100
AcDbLine
 62
7
  6
CONTINUOUS
 10
-41.9212147169
 20
20.9394127892
 11
-46.4254036235
 21
21.7336228197
  0
LINE
  5
5DE
100
AcDbEntity
  8
0
100
AcDbLine
 62
7
  6
CONTINUOUS
 10
-43.1254081586
 20
-12.9645252988
 11
-43.1254908297
 21
-12.9567973486
  0
LINE
  5
5DF
100
AcDbEntity
  8
RACCORDO
100
AcDbLine
 62
7
  6
CONTINUOUS
 10
-43.4254036235
 20
-17.2131474193
 11
-43.4254036235
 21
-17.6738193966
  0
LINE
  5
5E0
100
AcDbEntity
  8
RACCORDO
100
AcDbLine
 62
250
  6
CONTINUOUS
 10
-42.6149317809
 20
-30.6666269111
 11
-42.6149317809
 21
-30.0515799064
  0
LINE
  5
5E1
100
AcDbEntity
  8
RACCORDO
100
AcDbLine
 62
250
  6
CONTINUOUS
 10
-42.6149317809
 20
-17.6484200936
 11
-42.6149317809
 21
-17.5292977866
  0
LINE
  5
5E2
100
AcDbEntity
  8
RACCORDO
100
AcDbLine
 62
7
  6
CONTINUOUS
 10
-41.4254036235
 20
-16.5284271247
 11
-41.4254036235
 21
-34.956365661
  0
LINE
  5
5E3
100
AcDbEntity
  8
0
100
AcDbLine
 62
7
  6
CONTINUOUS
 10
-43.1255055381
 20
-12.9710376326
 11
-43.1254177145
 21
-12.9636320226
  0
LINE
  5
5E4
100
AcDbEntity
  8
0
100
AcDbLine
 62
7
  6
CONTINUOUS
 10
-45.4254036235
 20
-15.2
 11
-44.9845861717
 21
-12.7
  0
LWPOLYLINE
  5
5E5
100
AcDbEntity
  8
0
100
AcDbPolyline
 62
7
  6
CONTINUOUS
 90
5
 70
0
 10
-43.5145537314
 20
-12.9222138087
 10
-43.5150446624
 20
-12.9227782816
 10
-43.520253229
 20
-12.9281000533
 10
-43.5306463609
 20
-12.9370689211
 10
-43.5459677444
 20
-12.9484340315
  0
LINE
  5
5E6
100
AcDbEntity
  8
ASSI
100
AcDbLine
 62
7
  6
CONTINUOUS
 10
-48.5254036235
 20
29.9990146592
 11
-48.4254036235
 21
30.0
  0
LINE
  5
5E7
100
AcDbEntity
  8
RACCORDO
100
AcDbLine
 62
7
  6
CONTINUOUS
 10
-46.4254036235
 20
30.2620952655
 11
-45.5225238462
 21
30.2672955372
  0
LINE
  5
5E8
100
AcDbEntity
  8
RACCORDO
100
AcDbLine
 62
250
  6
CONTINUOUS
 10
-48.5254036235
 20
31.2500060923
 11
-89.0288942749
 21
31.108621664
  0
LINE
  5
5E9
100
AcDbEntity
  8
RACCORDO
100
AcDbLine
 62
250
  6
CONTINUOUS
 10
-90.0254036235
 20
31.108621664
 11
-89.0288942749
 21
31.108621664
  0
LINE
  5
5EA
100
AcDbEntity
  8
ASSI
100
AcDbLine
 62
7
  6
CONTINUOUS
 10
-48.5254036235
 20
28.0009853408
 11
-48.4254036235
 21
28.0
  0
LINE
  5
5EB
100
AcDbEntity
  8
DRAFT
100
AcDbLine
 62
7
  6
CONTINUOUS
 10
-45.4239986608
 20
19.7283794276
 11
-44.7465214351
 21
17.2
  0
LINE
  5
5EC
100
AcDbEntity
  8
ASSI
100
AcDbLine
 62
7
  6
CONTINUOUS
 10
-49.4451580236
 20
34.2899519441
 11
-48.4254036235
 21
34.3
  0
LINE
  5
5ED
100
AcDbEntity
  8
RACCORDO
100
AcDbLine
 62
7
  6
CONTINUOUS
 10
-48.5254036235
 20
32.25
 11
-89.0288942749
 21
32.1086155717
  0
LINE
  5
5EE
100
AcDbEntity
  8
RACCORDO
100
AcDbLine
 62
250
  6
CONTINUOUS
 10
-46.4254036235
 20
33.9825843414
 11
-48.4254036235
 21
34.0000380769
  0
LINE
  5
5EF
100
AcDbEntity
  8
ASSI
100
AcDbLine
 62
7
  6
CONTINUOUS
 10
-49.4451580236
 20
32.3100480559
 11
-48.4254036235
 21
32.3
  0
LINE
  5
5F0
100
AcDbEntity
  8
DRAFT
100
AcDbLine
 62
7
  6
CONTINUOUS
 10
-50.4254036235
 20
34.9825462644
 11
-48.4254036235
 21
35.0
  0
LINE
  5
5F1
100
AcDbEntity
  8
RACCORDO
100
AcDbLine
 62
7
  6
CONTINUOUS
 10
-46.4254036235
 20
34.9825462644
 11
-48.4254036235
 21
35.0
  0
LINE
  5
5F2
100
AcDbEntity
  8
RACCORDO
100
AcDbLine
 62
7
  6
CONTINUOUS
 10
-46.4254036235
 20
-28.9
 11
-45.1718502329
 21
-27.6464466094
  0
LWPOLYLINE
  5
5F3
100
AcDbEntity
  8
0
100
AcDbPolyline
 62
7
  6
CONTINUOUS
 90
6
 70
0
 43
0.3500000087
 10
-70.1539736938
 20
43.7499981537
 10
-69.0825452942
 20
43.7499981537
 10
-68.8682587616
 20
43.9642846863
 10
-68.8682587616
 20
45.0357130859
 10
-69.2968318268
 20
45.4642861511
 10
-69.725404892
 20
45.4642861511
  0
LWPOLYLINE
  5
5F4
100
AcDbEntity
  8
0
100
AcDbPolyline
 62
7
  6
CONTINUOUS
 90
3
 70
0
 43
0.3500000087
 10
-71.0111198242
 20
44.3928577515
 10
-72.5111212891
 20
44.3928577515
 10
-71.868257428
 20
46.7500010834
  0
LWPOLYLINE
  5
5F5
100
AcDbEntity
  8
0
100
AcDbPolyline
 62
7
  6
CONTINUOUS
 90
13
 70
0
 43
0.3500000087
 10
-69.3524892822
 20
55.4642873901
 10
-69.6382075012
 20
55.6785696594
 10
-69.6382075012
 20
56.3214249939
 10
-69.3524892822
 20
56.7499980591
 10
-68.7096339478
 20
56.7499980591
 10
-68.4239199921
 20
56.3214249939
 10
-68.4239199921
 20
55.6785696594
 10
-68.7096339478
 20
55.4642873901
 10
-68.2810608826
 20
55.035714325
 10
-68.2810608826
 20
54.1785681946
 10
-68.7096339478
 20
53.750003656
 10
-69.3524892822
 20
53.750003656
 10
-69.7810623474
 20
54.1785681946
  0
LINE
  5
5F6
100
AcDbEntity
  8
RACCORDO
100
AcDbLine
 62
7
  6
CONTINUOUS
 10
-45.1718502329
 20
31.6464466094
 11
-46.4254036235
 21
32.9
  0
ARC
  5
5F7
100
AcDbEntity
  8
RACCORDO
100
AcDbCircle
 62
250
  6
CONTINUOUS
 10
-3.863732604
 20
-607.4398264983
 40
587.6255206633
100
AcDbArc
 50
89.876699934
 51
90.0334922815
  0
ARC
  5
5F8
100
AcDbEntity
  8
RACCORDO
100
AcDbCircle
 62
250
  6
CONTINUOUS
 10
-3.8787433457
 20
-350.843370628
 40
330.5290678509
100
AcDbArc
 50
89.8355966179
 51
90.0446596885
  0
ARC
  5
5F9
100
AcDbEntity
  8
RACCORDO
100
AcDbCircle
 62
250
  6
CONTINUOUS
 10
-56.5916081956
 20
-48.5777233693
 40
84.2990992143
100
AcDbArc
 50
28.8158587982
 51
28.9499858249
  0
ARC
  5
5FA
100
AcDbEntity
  8
RACCORDO
100
AcDbCircle
 62
250
  6
CONTINUOUS
 10
-48.928923048
 20
-46.1613406446
 40
75.473182815
100
AcDbArc
 50
30.0123537278
 51
30.1606624066
  0
ARC
  5
5FB
100
AcDbEntity
  8
RACCORDO
100
AcDbCircle
 62
250
  6
CONTINUOUS
 10
-0.0766063898
 20
1.9999292846
 40
20.3890218697
100
AcDbArc
 50
101.688488039
 51
147.7081220724
  0
ARC
  5
5FC
100
AcDbEntity
  8
RACCORDO
100
AcDbCircle
 62
250
  6
CONTINUOUS
 10
-0.0509287419
 20
1.999932508
 40
19.4891587768
100
AcDbArc
 50
32.2883387158
 51
78.3050352798
  0
ARC
  5
5FD
100
AcDbEntity
  8
0
100
AcDbCircle
 62
250
  6
CONTINUOUS
 10
-0.924133053
 20
-15.7246944378
 40
1.0532199192
100
AcDbArc
 50
269.9747790044
 51
312.1491535814
  0
ARC
  5
5FE
100
AcDbEntity
  8
0
100
AcDbCircle
 62
250
  6
CONTINUOUS
 10
-0.9241329645
 20
-16.2703595237
 40
1.0532196894
100
AcDbArc
 50
269.9747741836
 51
312.1491584022
  0
ARC
  5
5FF
100
AcDbEntity
  8
RACCORDO
100
AcDbCircle
 62
7
  6
CONTINUOUS
 10
-2.8616678159
 20
-18.0701224134
 40
1.0000316132
100
AcDbArc
 50
359.9981093212
 51
81.8802173802
  0
ARC
  5
600
100
AcDbEntity
  8
RACCORDO
100
AcDbCircle
 62
7
  6
CONTINUOUS
 10
-25.1585864979
 20
-27.1086149622
 40
1.0000029234
100
AcDbArc
 50
184.7840527664
 51
269.9979851285
  0
CIRCLE
  5
601
100
AcDbEntity
  8
ASSI
100
AcDbCircle
 62
7
  6
CONTINUOUS
 10
-24.5
 20
-29.3
 40
1.0
  0
CIRCLE
  5
602
100
AcDbEntity
  8
ASSI
100
AcDbCircle
 62
250
  6
CONTINUOUS
 10
-24.5
 20
-29.3
 40
0.9899519441
  0
ARC
  5
603
100
AcDbEntity
  8
RACCORDO
100
AcDbCircle
 62
7
  6
CONTINUOUS
 10
-25.6559972417
 20
-19.8489784985
 40
0.5066491655
100
AcDbArc
 50
246.4952256953
 51
264.1552703438
  0
ARC
  5
604
100
AcDbEntity
  8
RACCORDO
100
AcDbCircle
 62
7
  6
CONTINUOUS
 10
-25.657413542
 20
-19.8536187945
 40
0.5018293363
100
AcDbArc
 50
205.4355185582
 51
246.4322150994
  0
ARC
  5
605
100
AcDbEntity
  8
RACCORDO
100
AcDbCircle
 62
7
  6
CONTINUOUS
 10
-25.6565358478
 20
-19.8541217587
 40
0.5014777947
100
AcDbArc
 50
264.1566474316
 51
270.1067266853
  0
ARC
  5
606
100
AcDbEntity
  8
RACCORDO
100
AcDbCircle
 62
7
  6
CONTINUOUS
 10
-25.6251589773
 20
-19.8251825433
 40
0.4999540361
100
AcDbArc
 50
185.1328818186
 51
270.0017285015
  0
ARC
  5
607
100
AcDbEntity
  8
RACCORDO
100
AcDbCircle
 62
7
  6
CONTINUOUS
 10
-25.6608535429
 20
-19.8558382905
 40
0.4977697937
100
AcDbArc
 50
180.3200311706
 51
205.3748702851
  0
ARC
  5
608
100
AcDbEntity
  8
RACCORDO
100
AcDbCircle
 62
250
  6
CONTINUOUS
 10
-17.3968613155
 20
-8.9458434692
 40
0.1001037475
100
AcDbArc
 50
32.2627179771
 51
89.8196753764
  0
ARC
  5
609
100
AcDbEntity
  8
RACCORDO
100
AcDbCircle
 62
250
  6
CONTINUOUS
 10
-3.9314154151
 20
697.8006836283
 40
673.986333833
100
AcDbArc
 50
269.9765529679
 51
270.1132548166
  0
ARC
  5
60A
100
AcDbEntity
  8
RACCORDO
100
AcDbCircle
 62
250
  6
CONTINUOUS
 10
-3.9295090452
 20
403.4247895367
 40
379.1104427927
100
AcDbArc
 50
269.9687355909
 51
270.1510081027
  0
ARC
  5
60B
100
AcDbEntity
  8
RACCORDO
100
AcDbCircle
 62
250
  6
CONTINUOUS
 10
-56.5916086936
 20
52.5777237014
 40
84.2990998106
100
AcDbArc
 50
331.0500141414
 51
331.1841411672
  0
ARC
  5
60C
100
AcDbEntity
  8
RACCORDO
100
AcDbCircle
 62
250
  6
CONTINUOUS
 10
-48.9289233636
 20
50.1613406718
 40
75.4731831019
100
AcDbArc
 50
329.8393376959
 51
329.9876463742
  0
ARC
  5
60D
100
AcDbEntity
  8
0
100
AcDbCircle
 62
7
  6
CONTINUOUS
 10
-23.8221658432
 20
15.3981525672
 40
22.6639341782
100
AcDbArc
 50
356.3484523266
 51
356.8659239448
  0
ARC
  5
60E
100
AcDbEntity
  8
RACCORDO
100
AcDbCircle
 62
250
  6
CONTINUOUS
 10
-0.07660538
 20
2.0000721739
 40
20.3890235025
100
AcDbArc
 50
212.2918798762
 51
258.3115100124
  0
ARC
  5
60F
100
AcDbEntity
  8
RACCORDO
100
AcDbCircle
 62
250
  6
CONTINUOUS
 10
-0.0509276937
 20
2.0000659784
 40
19.4891570821
100
AcDbArc
 50
281.6949626045
 51
327.7116633999
  0
ARC
  5
610
100
AcDbEntity
  8
DRAFT
100
AcDbCircle
 62
7
  6
CONTINUOUS
 10
-13.0
 20
2.0
 40
2.6174537356
100
AcDbArc
 50
45.8440003165
 51
314.1559996835
  0
ARC
  5
611
100
AcDbEntity
  8
DRAFT
100
AcDbCircle
 62
7
  6
CONTINUOUS
 10
-13.0
 20
2.0
 40
2.6
100
AcDbArc
 50
45.4847643865
 51
314.5152356135
  0
ARC
  5
612
100
AcDbEntity
  8
DRAFT
100
AcDbCircle
 62
7
  6
CONTINUOUS
 10
-9.5
 20
2.0
 40
2.5174537356
100
AcDbArc
 50
228.2403015893
 51
131.7596984107
  0
ARC
  5
613
100
AcDbEntity
  8
DRAFT
100
AcDbCircle
 62
7
  6
CONTINUOUS
 10
-9.5
 20
2.0
 40
2.5
100
AcDbArc
 50
227.8667459881
 51
132.1332540119
  0
ARC
  5
614
100
AcDbEntity
  8
RACCORDO
100
AcDbCircle
 62
7
  6
CONTINUOUS
 10
-2.8616678118
 20
22.0701224182
 40
1.0000316132
100
AcDbArc
 50
278.1197823474
 51
0.0018904064
  0
ARC
  5
615
100
AcDbEntity
  8
RACCORDO
100
AcDbCircle
 62
7
  6
CONTINUOUS
 10
-25.1586149596
 20
31.108586501
 40
1.0000029232
100
AcDbArc
 50
94.7840529281
 51
179.99798531
  0
CIRCLE
  5
616
100
AcDbEntity
  8
ASSI
100
AcDbCircle
 62
7
  6
CONTINUOUS
 10
-24.5
 20
33.3
 40
1.0
  0
CIRCLE
  5
617
100
AcDbEntity
  8
ASSI
100
AcDbCircle
 62
250
  6
CONTINUOUS
 10
-24.5
 20
33.3
 40
0.9899519441
  0
ARC
  5
618
100
AcDbEntity
  8
RACCORDO
100
AcDbCircle
 62
7
  6
CONTINUOUS
 10
-25.65632492
 20
23.85021567
 40
0.5053835308
100
AcDbArc
 50
89.9180112305
 51
113.4772189642
  0
ARC
  5
619
100
AcDbEntity
  8
RACCORDO
100
AcDbCircle
 62
7
  6
CONTINUOUS
 10
-25.6577671874
 20
23.8540804361
 40
0.5012641658
100
AcDbArc
 50
113.5019984049
 51
160.5646843263
  0
ARC
  5
61A
100
AcDbEntity
  8
RACCORDO
100
AcDbCircle
 62
7
  6
CONTINUOUS
 10
-25.6251400646
 20
23.8251399053
 40
0.4999999465
100
AcDbArc
 50
91.2917243105
 51
179.9995428765
  0
ARC
  5
61B
100
AcDbEntity
  8
RACCORDO
100
AcDbCircle
 62
7
  6
CONTINUOUS
 10
-25.6600733599
 20
23.8555449155
 40
0.4986024874
100
AcDbArc
 50
160.6352026903
 51
173.1531487239
  0
ARC
  5
61C
100
AcDbEntity
  8
RACCORDO
100
AcDbCircle
 62
7
  6
CONTINUOUS
 10
-25.6625320472
 20
23.8561467231
 40
0.4960896829
100
AcDbArc
 50
173.1883054761
 51
179.7145078292
  0
ARC
  5
61D
100
AcDbEntity
  8
RACCORDO
100
AcDbCircle
 62
250
  6
CONTINUOUS
 10
-17.3968613988
 20
12.9458436197
 40
0.1001038983
100
AcDbArc
 50
270.1803720283
 51
327.7372346186
  0
ARC
  5
61E
100
AcDbEntity
  8
RACCORDO
100
AcDbCircle
 62
250
  6
CONTINUOUS
 10
3.9314154151
 20
-693.8006836363
 40
673.986333841
100
AcDbArc
 50
89.9765529679
 51
90.1132548166
  0
ARC
  5
61F
100
AcDbEntity
  8
RACCORDO
100
AcDbCircle
 62
250
  6
CONTINUOUS
 10
3.9295090452
 20
-399.4247895387
 40
379.1104427946
100
AcDbArc
 50
89.9687355909
 51
90.1510081027
  0
ARC
  5
620
100
AcDbEntity
  8
RACCORDO
100
AcDbCircle
 62
250
  6
CONTINUOUS
 10
56.5916086912
 20
-48.5777237
 40
84.2990998078
100
AcDbArc
 50
151.0500141414
 51
151.1841411672
  0
ARC
  5
621
100
AcDbEntity
  8
RACCORDO
100
AcDbCircle
 62
250
  6
CONTINUOUS
 10
48.9289233654
 20
-46.1613406728
 40
75.4731831039
100
AcDbArc
 50
149.8393376959
 51
149.9876463742
  0
ARC
  5
622
100
AcDbEntity
  8
RACCORDO
100
AcDbCircle
 62
250
  6
CONTINUOUS
 10
0.0766045199
 20
1.9999265839
 40
20.3890248932
100
AcDbArc
 50
32.2918815358
 51
78.3115083528
  0
ARC
  5
623
100
AcDbEntity
  8
RACCORDO
100
AcDbCircle
 62
250
  6
CONTINUOUS
 10
0.0509267091
 20
1.9999354435
 40
19.4891554902
100
AcDbArc
 50
101.6949606172
 51
147.7116653872
  0
ARC
  5
624
100
AcDbEntity
  8
0
100
AcDbCircle
 62
250
  6
CONTINUOUS
 10
0.9241330528
 20
-15.7246944382
 40
1.0532199187
100
AcDbArc
 50
227.8508464124
 51
270.0252149149
  0
ARC
  5
625
100
AcDbEntity
  8
0
100
AcDbCircle
 62
250
  6
CONTINUOUS
 10
0.924133053
 20
-16.2703592939
 40
1.0532199192
100
AcDbArc
 50
227.8508464184
 51
270.0252209953
  0
ARC
  5
626
100
AcDbEntity
  8
RACCORDO
100
AcDbCircle
 62
7
  6
CONTINUOUS
 10
2.8616678158
 20
-18.0701224134
 40
1.0000316132
100
AcDbArc
 50
98.1197826167
 51
180.0018906818
  0
ARC
  5
627
100
AcDbEntity
  8
RACCORDO
100
AcDbCircle
 62
7
  6
CONTINUOUS
 10
25.1586149609
 20
-27.1085864992
 40
1.0000029234
100
AcDbArc
 50
274.7840528458
 51
359.9979852068
  0
CIRCLE
  5
628
100
AcDbEntity
  8
ASSI
100
AcDbCircle
 62
7
  6
CONTINUOUS
 10
24.5
 20
-29.3
 40
1.0
  0
CIRCLE
  5
629
100
AcDbEntity
  8
ASSI
100
AcDbCircle
 62
7
  6
CONTINUOUS
 10
-0.0
 20
-29.3
 40
1.0
  0
CIRCLE
  5
62A
100
AcDbEntity
  8
ASSI
100
AcDbCircle
 62
250
  6
CONTINUOUS
 10
-0.0
 20
-29.3
 40
0.9899519441
  0
CIRCLE
  5
62B
100
AcDbEntity
  8
ASSI
100
AcDbCircle
 62
250
  6
CONTINUOUS
 10
24.5
 20
-29.3
 40
0.9899519441
  0
ARC
  5
62C
100
AcDbEntity
  8
RACCORDO
100
AcDbCircle
 62
7
  6
CONTINUOUS
 10
25.65632492
 20
-19.85021567
 40
0.5053835308
100
AcDbArc
 50
269.9180112305
 51
293.4772189641
  0
ARC
  5
62D
100
AcDbEntity
  8
RACCORDO
100
AcDbCircle
 62
7
  6
CONTINUOUS
 10
25.6577671874
 20
-19.8540804361
 40
0.5012641658
100
AcDbArc
 50
293.5019984048
 51
340.5646843261
  0
ARC
  5
62E
100
AcDbEntity
  8
RACCORDO
100
AcDbCircle
 62
7
  6
CONTINUOUS
 10
25.6251400439
 20
-19.8251398821
 40
0.4999999465
100
AcDbArc
 50
271.2917266271
 51
359.9995402171
  0
ARC
  5
62F
100
AcDbEntity
  8
RACCORDO
100
AcDbCircle
 62
7
  6
CONTINUOUS
 10
25.6600733599
 20
-19.8555449155
 40
0.4986024874
100
AcDbArc
 50
340.6352026901
 51
353.1531487239
  0
ARC
  5
630
100
AcDbEntity
  8
RACCORDO
100
AcDbCircle
 62
7
  6
CONTINUOUS
 10
25.6625320472
 20
-19.8561467231
 40
0.4960896829
100
AcDbArc
 50
353.188305476
 51
359.7145078292
  0
ARC
  5
631
100
AcDbEntity
  8
RACCORDO
100
AcDbCircle
 62
250
  6
CONTINUOUS
 10
17.3968613988
 20
-8.9458436197
 40
0.1001038983
100
AcDbArc
 50
90.1803720283
 51
147.7372346186
  0
ARC
  5
632
100
AcDbEntity
  8
0
100
AcDbCircle
 62
7
  6
CONTINUOUS
 10
23.8221658432
 20
15.3981525672
 40
22.6639341782
100
AcDbArc
 50
183.1340760552
 51
183.6515476734
  0
ARC
  5
633
100
AcDbEntity
  8
RACCORDO
100
AcDbCircle
 62
250
  6
CONTINUOUS
 10
0.076605869
 20
2.0000714676
 40
20.3890227117
100
AcDbArc
 50
281.6884890438
 51
327.7081210675
  0
ARC
  5
634
100
AcDbEntity
  8
RACCORDO
100
AcDbCircle
 62
250
  6
CONTINUOUS
 10
0.0509274095
 20
2.000065568
 40
19.4891566227
100
AcDbArc
 50
212.2883360266
 51
258.305037969
  0
ARC
  5
635
100
AcDbEntity
  8
RACCORDO
100
AcDbCircle
 62
7
  6
CONTINUOUS
 10
0.0
 20
2.0
 40
19.2730841559
100
AcDbArc
 50
98.1144735191
 51
147.9002513444
  0
ARC
  5
636
100
AcDbEntity
  8
RACCORDO
100
AcDbCircle
 62
7
  6
CONTINUOUS
 10
0.0
 20
2.0
 40
19.2730841559
100
AcDbArc
 50
32.0997486556
 51
81.8855264809
  0
ARC
  5
637
100
AcDbEntity
  8
RACCORDO
100
AcDbCircle
 62
7
  6
CONTINUOUS
 10
0.0
 20
2.0
 40
19.2730841559
100
AcDbArc
 50
278.1144735191
 51
327.9002513444
  0
ARC
  5
638
100
AcDbEntity
  8
RACCORDO
100
AcDbCircle
 62
7
  6
CONTINUOUS
 10
0.0
 20
2.0
 40
19.2730841559
100
AcDbArc
 50
212.0997486556
 51
261.8855264809
  0
ARC
  5
639
100
AcDbEntity
  8
DRAFT
100
AcDbCircle
 62
7
  6
CONTINUOUS
 10
13.0
 20
2.0
 40
2.6174537356
100
AcDbArc
 50
225.8440003165
 51
134.1559996835
  0
CIRCLE
  5
63A
100
AcDbEntity
  8
DRAFT
100
AcDbCircle
 62
7
  6
CONTINUOUS
 10
0.0
 20
2.0
 40
2.6116356596
  0
CIRCLE
  5
63B
100
AcDbEntity
  8
DRAFT
100
AcDbCircle
 62
7
  6
CONTINUOUS
 10
0.0
 20
2.0
 40
2.6
  0
ARC
  5
63C
100
AcDbEntity
  8
DRAFT
100
AcDbCircle
 62
7
  6
CONTINUOUS
 10
13.0
 20
2.0
 40
2.6
100
AcDbArc
 50
225.4847643865
 51
134.5152356135
  0
ARC
  5
63D
100
AcDbEntity
  8
DRAFT
100
AcDbCircle
 62
7
  6
CONTINUOUS
 10
9.5
 20
2.0
 40
2.5174537356
100
AcDbArc
 50
48.2403015893
 51
311.7596984107
  0
ARC
  5
63E
100
AcDbEntity
  8
DRAFT
100
AcDbCircle
 62
7
  6
CONTINUOUS
 10
9.5
 20
2.0
 40
2.5
100
AcDbArc
 50
47.8667459881
 51
312.1332540119
  0
ARC
  5
63F
100
AcDbEntity
  8
RACCORDO
100
AcDbCircle
 62
7
  6
CONTINUOUS
 10
2.8616678117
 20
22.0701224182
 40
1.0000316132
100
AcDbArc
 50
179.9981095925
 51
261.8802176536
  0
ARC
  5
640
100
AcDbEntity
  8
RACCORDO
100
AcDbCircle
 62
7
  6
CONTINUOUS
 10
25.1586144288
 20
31.1085860449
 40
1.0000034663
100
AcDbArc
 50
0.2020405995
 51
85.2159189434
  0
CIRCLE
  5
641
100
AcDbEntity
  8
ASSI
100
AcDbCircle
 62
7
  6
CONTINUOUS
 10
24.5
 20
33.3
 40
1.0
  0
CIRCLE
  5
642
100
AcDbEntity
  8
ASSI
100
AcDbCircle
 62
7
  6
CONTINUOUS
 10
0.0
 20
33.3
 40
1.0
  0
CIRCLE
  5
643
100
AcDbEntity
  8
ASSI
100
AcDbCircle
 62
250
  6
CONTINUOUS
 10
0.0
 20
33.3
 40
0.9899519441
  0
CIRCLE
  5
644
100
AcDbEntity
  8
ASSI
100
AcDbCircle
 62
250
  6
CONTINUOUS
 10
24.5
 20
33.3
 40
0.9899519441
  0
ARC
  5
645
100
AcDbEntity
  8
RACCORDO
100
AcDbCircle
 62
7
  6
CONTINUOUS
 10
25.6559972168
 20
23.8489784194
 40
0.5066492463
100
AcDbArc
 50
66.4949149515
 51
84.155160687
  0
ARC
  5
646
100
AcDbEntity
  8
RACCORDO
100
AcDbCircle
 62
7
  6
CONTINUOUS
 10
25.6574135334
 20
23.8536187908
 40
0.5018293445
100
AcDbArc
 50
25.435380723
 51
66.4318996338
  0
ARC
  5
647
100
AcDbEntity
  8
RACCORDO
100
AcDbCircle
 62
7
  6
CONTINUOUS
 10
25.6565358451
 20
23.8541217865
 40
0.5014777669
100
AcDbArc
 50
84.156537908
 51
90.106726375
  0
ARC
  5
648
100
AcDbEntity
  8
RACCORDO
100
AcDbCircle
 62
7
  6
CONTINUOUS
 10
25.6251591786
 20
23.8251827589
 40
0.499953776
100
AcDbArc
 50
5.1328592703
 51
90.0017515794
  0
ARC
  5
649
100
AcDbEntity
  8
RACCORDO
100
AcDbCircle
 62
7
  6
CONTINUOUS
 10
25.6608535562
 20
23.8558382938
 40
0.4977697804
100
AcDbArc
 50
0.320030797
 51
25.3747316851
  0
ARC
  5
64A
100
AcDbEntity
  8
RACCORDO
100
AcDbCircle
 62
250
  6
CONTINUOUS
 10
17.3968613155
 20
12.9458434692
 40
0.1001037475
100
AcDbArc
 50
212.2627179771
 51
269.8196753764
  0
ARC
  5
64B
100
AcDbEntity
  8
RACCORDO
100
AcDbCircle
 62
250
  6
CONTINUOUS
 10
3.863732604
 20
611.439826489
 40
587.6255206539
100
AcDbArc
 50
269.876699934
 51
270.0334922815
  0
ARC
  5
64C
100
AcDbEntity
  8
RACCORDO
100
AcDbCircle
 62
250
  6
CONTINUOUS
 10
3.8787433457
 20
354.8433706249
 40
330.5290678478
100
AcDbArc
 50
269.8355966179
 51
270.0446596885
  0
ARC
  5
64D
100
AcDbEntity
  8
RACCORDO
100
AcDbCircle
 62
250
  6
CONTINUOUS
 10
56.5916081991
 20
52.5777233713
 40
84.2990992183
100
AcDbArc
 50
208.8158587982
 51
208.9499858249
  0
ARC
  5
64E
100
AcDbEntity
  8
RACCORDO
100
AcDbCircle
 62
250
  6
CONTINUOUS
 10
48.9289230483
 20
50.1613406449
 40
75.4731828154
100
AcDbArc
 50
210.0123537278
 51
210.1606624066
  0
ARC
  5
64F
100
AcDbEntity
  8
RACCORDO
100
AcDbCircle
 62
7
  6
CONTINUOUS
 10
-75.0254036235
 20
-21.0972863359
 40
5.0
100
AcDbArc
 50
180.0
 51
269.67
  0
ARC
  5
650
100
AcDbEntity
  8
RACCORDO
100
AcDbCircle
 62
7
  6
CONTINUOUS
 10
-75.0254036235
 20
-18.0
 40
5.0
100
AcDbArc
 50
180.0
 51
270.0
  0
ARC
  5
651
100
AcDbEntity
  8
RACCORDO
100
AcDbCircle
 62
250
  6
CONTINUOUS
 10
-106.4265783203
 20
-15.390825601
 40
4.9695301424
100
AcDbArc
 50
334.7960008329
 51
335.7625803381
  0
ARC
  5
652
100
AcDbEntity
  8
RACCORDO
100
AcDbCircle
 62
250
  6
CONTINUOUS
 10
-105.7905277656
 20
-15.6931645703
 40
4.2652809883
100
AcDbArc
 50
332.9800898611
 51
334.7476405704
  0
ARC
  5
653
100
AcDbEntity
  8
RACCORDO
100
AcDbCircle
 62
7
  6
CONTINUOUS
 10
-89.0254036235
 20
-27.108621664
 40
1.0
100
AcDbArc
 50
180.0
 51
269.8
  0
ARC
  5
654
100
AcDbEntity
  8
RACCORDO
100
AcDbCircle
 62
250
  6
CONTINUOUS
 10
-98.5107418343
 20
-8.8300165785
 40
0.9071531423
100
AcDbArc
 50
145.3040546147
 51
180.0206985673
  0
ARC
  5
655
100
AcDbEntity
  8
RACCORDO
100
AcDbCircle
 62
250
  6
CONTINUOUS
 10
-99.4072846258
 20
-8.8454617947
 40
0.8926420709
100
AcDbArc
 50
177.8863572692
 51
180.0178710519
  0
ARC
  5
656
100
AcDbEntity
  8
RACCORDO
100
AcDbCircle
 62
7
  6
CONTINUOUS
 10
-101.7081487563
 20
-19.8143533982
 40
0.5
100
AcDbArc
 50
180.0000003443
 51
269.8
  0
ARC
  5
657
100
AcDbEntity
  8
RACCORDO
100
AcDbCircle
 62
7
  6
CONTINUOUS
 10
-75.0254036235
 20
22.0
 40
5.0
100
AcDbArc
 50
90.0
 51
180.0
  0
ARC
  5
658
100
AcDbEntity
  8
RACCORDO
100
AcDbCircle
 62
250
  6
CONTINUOUS
 10
-105.8904785964
 20
19.6440400733
 40
4.3766376731
100
AcDbArc
 50
25.2766853649
 51
27.0454650189
  0
ARC
  5
659
100
AcDbEntity
  8
RACCORDO
100
AcDbCircle
 62
7
  6
CONTINUOUS
 10
-89.0254036235
 20
31.108621664
 40
1.0
100
AcDbArc
 50
90.2
 51
180.0
  0
ARC
  5
65A
100
AcDbEntity
  8
RACCORDO
100
AcDbCircle
 62
250
  6
CONTINUOUS
 10
-99.3835513537
 20
12.8469451077
 40
0.9164140868
100
AcDbArc
 50
182.1515152553
 51
194.6391516192
  0
ARC
  5
65B
100
AcDbEntity
  8
RACCORDO
100
AcDbCircle
 62
250
  6
CONTINUOUS
 10
-98.5107422698
 20
12.8300164559
 40
0.9071527071
100
AcDbArc
 50
179.9792935987
 51
214.6962010861
  0
ARC
  5
65C
100
AcDbEntity
  8
RACCORDO
100
AcDbCircle
 62
250
  6
CONTINUOUS
 10
-99.4072831224
 20
12.8454622611
 40
0.8926435741
100
AcDbArc
 50
179.9821589196
 51
182.1135900444
  0
ARC
  5
65D
100
AcDbEntity
  8
RACCORDO
100
AcDbCircle
 62
250
  6
CONTINUOUS
 10
-99.4090452239
 20
12.8229505407
 40
0.8772132291
100
AcDbArc
 50
261.6082526189
 51
268.9764144915
  0
ARC
  5
65E
100
AcDbEntity
  8
0
100
AcDbCircle
 62
7
  6
CONTINUOUS
 10
-77.0822206287
 20
22.2685618472
 40
0.5
100
AcDbArc
 50
281.751193173
 51
315.0
  0
ARC
  5
65F
100
AcDbEntity
  8
RACCORDO
100
AcDbCircle
 62
7
  6
CONTINUOUS
 10
-101.7081487054
 20
23.8143533984
 40
0.5
100
AcDbArc
 50
90.2
 51
179.9999996346
  0
ARC
  5
660
100
AcDbEntity
  8
0
100
AcDbCircle
 62
7
  6
CONTINUOUS
 10
-73.1254036235
 20
-9.9185479502
 40
2.4798252204
100
AcDbArc
 50
262.6458054091
 51
277.3541945909
  0
ARC
  5
661
100
AcDbEntity
  8
ASSI
100
AcDbCircle
 62
7
  6
CONTINUOUS
 10
-72.1159650922
 20
-9.970791497
 40
2.3532426381
100
AcDbArc
 50
317.3159576654
 51
320.8679978817
  0
ARC
  5
662
100
AcDbEntity
  8
ASSI
100
AcDbCircle
 62
7
  6
CONTINUOUS
 10
-72.0473535773
 20
-10.0274523864
 40
2.2642619825
100
AcDbArc
 50
320.8844497297
 51
321.9265710684
  0
ARC
  5
663
100
AcDbEntity
  8
RACCORDO
100
AcDbCircle
 62
7
  6
CONTINUOUS
 10
-43.4254036235
 20
-16.5284271247
 40
2.0
100
AcDbArc
 50
0.0
 51
45.0
  0
ARC
  5
664
100
AcDbEntity
  8
0
100
AcDbCircle
 62
7
  6
CONTINUOUS
 10
-71.7102627224
 20
-10.2966202477
 40
1.5154171228
100
AcDbArc
 50
346.2345129843
 51
349.2714393697
  0
ARC
  5
665
100
AcDbEntity
  8
0
100
AcDbCircle
 62
250
  6
CONTINUOUS
 10
-71.7837661356
 20
-11.0375382087
 40
1.5008291305
100
AcDbArc
 50
14.1935683247
 51
17.735866803
  0
ARC
  5
666
100
AcDbEntity
  8
RACCORDO
100
AcDbCircle
 62
7
  6
CONTINUOUS
 10
-42.9254036235
 20
-17.2306011548
 40
1.5
100
AcDbArc
 50
0.0
 51
89.5
  0
ARC
  5
667
100
AcDbEntity
  8
RACCORDO
100
AcDbCircle
 62
7
  6
CONTINUOUS
 10
-44.9254036235
 20
-17.2131474193
 40
1.5
100
AcDbArc
 50
0.0
 51
89.5
  0
ARC
  5
668
100
AcDbEntity
  8
0
100
AcDbCircle
 62
7
  6
CONTINUOUS
 10
-67.6254036235
 20
-17.7
 40
1.3
100
AcDbArc
 50
263.9
 51
360.0
  0
ARC
  5
669
100
AcDbEntity
  8
RACCORDO
100
AcDbCircle
 62
7
  6
CONTINUOUS
 10
-42.4254036235
 20
-29.6462255084
 40
1.0
100
AcDbArc
 50
275.0
 51
360.0
  0
ARC
  5
66A
100
AcDbEntity
  8
ASSI
100
AcDbCircle
 62
7
  6
CONTINUOUS
 10
-49.4354036235
 20
-25.0
 40
0.99
100
AcDbArc
 50
90.5645404061
 51
269.4354595939
  0
ARC
  5
66B
100
AcDbEntity
  8
ASSI
100
AcDbCircle
 62
7
  6
CONTINUOUS
 10
-49.4354036235
 20
-29.3
 40
0.99
100
AcDbArc
 50
90.5645404061
 51
269.4354595939
  0
ARC
  5
66C
100
AcDbEntity
  8
RACCORDO
100
AcDbCircle
 62
7
  6
CONTINUOUS
 10
-67.8254036235
 20
-16.8935131738
 40
0.5
100
AcDbArc
 50
270.5
 51
360.0
  0
ARC
  5
66D
100
AcDbEntity
  8
RACCORDO
100
AcDbCircle
 62
7
  6
CONTINUOUS
 10
-45.5254036235
 20
-27.2928932188
 40
0.5
100
AcDbArc
 50
315.0
 51
360.0
  0
ARC
  5
66E
100
AcDbEntity
  8
RACCORDO
100
AcDbCircle
 62
7
  6
CONTINUOUS
 10
-45.5254036235
 20
-26.767287244
 40
0.5
100
AcDbArc
 50
0.0
 51
89.67
  0
ARC
  5
66F
100
AcDbEntity
  8
RACCORDO
100
AcDbCircle
 62
7
  6
CONTINUOUS
 10
-44.5496676922
 20
-13.0
 40
0.3
100
AcDbArc
 50
45.0
 51
90.0
  0
ARC
  5
670
100
AcDbEntity
  8
RACCORDO
100
AcDbCircle
 62
7
  6
CONTINUOUS
 10
-66.6254036235
 20
-4.2181783005
 40
0.3
100
AcDbArc
 50
0.0
 51
89.5
  0
ARC
  5
671
100
AcDbEntity
  8
RACCORDO
100
AcDbCircle
 62
7
  6
CONTINUOUS
 10
-66.6254036235
 20
-12.2879183539
 40
0.3
100
AcDbArc
 50
270.5
 51
360.0
  0
ARC
  5
672
100
AcDbEntity
  8
0
100
AcDbCircle
 62
7
  6
CONTINUOUS
 10
-67.6254036235
 20
-17.7
 40
0.3
100
AcDbArc
 50
263.9
 51
360.0
  0
ARC
  5
673
100
AcDbEntity
  8
0
100
AcDbCircle
 62
7
  6
CONTINUOUS
 10
-70.4292307275
 20
-11.3639620509
 40
0.1012748865
100
AcDbArc
 50
345.7437022746
 51
352.8064506059
  0
ARC
  5
674
100
AcDbEntity
  8
RACCORDO
100
AcDbCircle
 62
7
  6
CONTINUOUS
 10
-51.113745624
 20
10.4802732257
 40
20.9954751844
100
AcDbArc
 50
141.633664141
 51
142.746473194
  0
ARC
  5
675
100
AcDbEntity
  8
0
100
AcDbCircle
 62
7
  6
CONTINUOUS
 10
-69.1254036235
 20
16.75
 40
7.0
100
AcDbArc
 50
13.9496509173
 51
26.0681656277
  0
ARC
  5
676
100
AcDbEntity
  8
0
100
AcDbCircle
 62
7
  6
CONTINUOUS
 10
-69.1254036235
 20
16.75
 40
7.0
100
AcDbArc
 50
333.9318343723
 51
346.0503490827
  0
ARC
  5
677
100
AcDbEntity
  8
0
100
AcDbCircle
 62
7
  6
CONTINUOUS
 10
-68.8635021563
 20
16.6369739033
 40
6.7151230818
100
AcDbArc
 50
346.5758829228
 51
350.7706124996
  0
ARC
  5
678
100
AcDbEntity
  8
0
100
AcDbCircle
 62
7
  6
CONTINUOUS
 10
-68.8584633612
 20
16.8641976296
 40
6.7099561245
100
AcDbArc
 50
9.2243365272
 51
13.4245955199
  0
ARC
  5
679
100
AcDbEntity
  8
0
100
AcDbCircle
 62
7
  6
CONTINUOUS
 10
-67.8440960941
 20
17.121987106
 40
5.6680033637
100
AcDbArc
 50
2.5817133251
 51
8.1101005404
  0
ARC
  5
67A
100
AcDbEntity
  8
0
100
AcDbCircle
 62
7
  6
CONTINUOUS
 10
-67.7853835846
 20
16.3725191594
 40
5.6091037379
100
AcDbArc
 50
351.8608483269
 51
357.44733351
  0
ARC
  5
67B
100
AcDbEntity
  8
0
100
AcDbCircle
 62
7
  6
CONTINUOUS
 10
-66.9479100447
 20
17.2835001193
 40
4.7581123799
100
AcDbArc
 50
7.707090739
 51
7.928326731
  0
ARC
  5
67C
100
AcDbEntity
  8
0
100
AcDbCircle
 62
7
  6
CONTINUOUS
 10
-66.9479059953
 20
16.2164993337
 40
4.7581082944
100
AcDbArc
 50
352.06874236
 51
352.2929103678
  0
ARC
  5
67D
100
AcDbEntity
  8
0
100
AcDbCircle
 62
7
  6
CONTINUOUS
 10
-63.7393304498
 20
17.519531546
 40
1.5639658078
100
AcDbArc
 50
353.7769957223
 51
354.782056099
  0
ARC
  5
67E
100
AcDbEntity
  8
0
100
AcDbCircle
 62
7
  6
CONTINUOUS
 10
-63.7387219669
 20
15.9805316898
 40
1.5633541395
100
AcDbArc
 50
5.2176676932
 51
6.2231173883
  0
ARC
  5
67F
100
AcDbEntity
  8
0
100
AcDbCircle
 62
7
  6
CONTINUOUS
 10
-73.3254036235
 20
23.1969517277
 40
1.5
100
AcDbArc
 50
98.0
 51
135.0
  0
ARC
  5
680
100
AcDbEntity
  8
0
100
AcDbCircle
 62
7
  6
CONTINUOUS
 10
-67.6254036235
 20
24.2
 40
1.3
100
AcDbArc
 50
0.0
 51
98.0
  0
ARC
  5
681
100
AcDbEntity
  8
0
100
AcDbCircle
 62
7
  6
CONTINUOUS
 10
-67.9944640515
 20
25.4609077837
 40
1.25
100
AcDbArc
 50
241.1301023542
 51
277.8600898721
  0
ARC
  5
682
100
AcDbEntity
  8
RACCORDO
100
AcDbCircle
 62
250
  6
CONTINUOUS
 10
-68.2949892267
 20
23.5542415902
 40
1.0304144104
100
AcDbArc
 50
170.7424504519
 51
179.9906964683
  0
ARC
  5
683
100
AcDbEntity
  8
ASSI
100
AcDbCircle
 62
7
  6
CONTINUOUS
 10
-49.4354036235
 20
33.3
 40
0.99
100
AcDbArc
 50
90.5645404061
 51
269.4354595939
  0
ARC
  5
684
100
AcDbEntity
  8
RACCORDO
100
AcDbCircle
 62
250
  6
CONTINUOUS
 10
-68.1445799599
 20
23.5545234388
 40
0.6808236732
100
AcDbArc
 50
171.9384485618
 51
180.0096386807
  0
ARC
  5
685
100
AcDbEntity
  8
DRAFT
100
AcDbCircle
 62
7
  6
CONTINUOUS
 10
-42.0254036235
 20
20.3485281374
 40
0.6
100
AcDbArc
 50
315.0
 51
80.0
  0
ARC
  5
686
100
AcDbEntity
  8
RACCORDO
100
AcDbCircle
 62
7
  6
CONTINUOUS
 10
-68.8254036235
 20
23.65
 40
0.5
100
AcDbArc
 50
90.0
 51
180.0
  0
ARC
  5
687
100
AcDbEntity
  8
RACCORDO
100
AcDbCircle
 62
7
  6
CONTINUOUS
 10
-67.8254036235
 20
19.3935131738
 40
0.5
100
AcDbArc
 50
0.0
 51
89.5
  0
ARC
  5
688
100
AcDbEntity
  8
RACCORDO
100
AcDbCircle
 62
7
  6
CONTINUOUS
 10
-67.8254036235
 20
13.6435131738
 40
0.5
100
AcDbArc
 50
0.0
 51
89.5000000056
  0
ARC
  5
689
100
AcDbEntity
  8
RACCORDO
100
AcDbCircle
 62
7
  6
CONTINUOUS
 10
-45.5254036235
 20
30.767287244
 40
0.5
100
AcDbArc
 50
270.33
 51
360.0
  0
ARC
  5
68A
100
AcDbEntity
  8
RACCORDO
100
AcDbCircle
 62
7
  6
CONTINUOUS
 10
-45.5254036235
 20
31.2928932188
 40
0.5
100
AcDbArc
 50
0.0
 51
45.0
  0
ARC
  5
68B
100
AcDbEntity
  8
0
100
AcDbCircle
 62
7
  6
CONTINUOUS
 10
-73.3254036235
 20
23.1969517277
 40
0.5
100
AcDbArc
 50
98.0
 51
135.0
  0
ARC
  5
68C
100
AcDbEntity
  8
RACCORDO
100
AcDbCircle
 62
7
  6
CONTINUOUS
 10
-44.4496676922
 20
17.5
 40
0.3
100
AcDbArc
 50
270.0
 51
315.0
  0
ARC
  5
68D
100
AcDbEntity
  8
0
100
AcDbCircle
 62
7
  6
CONTINUOUS
 10
-67.6254036235
 20
24.2
 40
0.3
100
AcDbArc
 50
0.0
 51
98.0
  0
ARC
  5
68E
100
AcDbEntity
  8
0
100
AcDbCircle
 62
7
  6
CONTINUOUS
 10
-64.5254036235
 20
22.7917564381
 40
0.2
100
AcDbArc
 50
0.0
 51
85.0
  0
ARC
  5
68F
100
AcDbEntity
  8
RACCORDO
100
AcDbCircle
 62
7
  6
CONTINUOUS
 10
-66.5254036235
 20
10.57141459
 40
0.2
100
AcDbArc
 50
285.0000001447
 51
360.0
  0
ARC
  5
690
100
AcDbEntity
  8
RACCORDO
100
AcDbCircle
 62
7
  6
CONTINUOUS
 10
-66.5254036235
 20
12.92858541
 40
0.2
100
AcDbArc
 50
0.0
 51
74.9999998553
  0
ARC
  5
691
100
AcDbEntity
  8
0
100
AcDbCircle
 62
7
  6
CONTINUOUS
 10
-67.6254036235
 20
24.2
 40
0.05
100
AcDbArc
 50
0.0
 51
98.0
  0
SPLINE
  5
692
100
AcDbEntity
  8
RACCORDO
100
AcDbSpline
 62
7
  6
CONTINUOUS
 70
0
 71
3
 72
15
 73
11
 74
0
 42
0.0000001
 43
0.0000001
 44
0.0000000001
 40
0.0
 40
0.0
 40
0.0
 40
0.0
 40
0.1166541925
 40
0.2384980588
 40
0.3670382953
 40
0.5000447871
 40
0.6330500515
 40
0.7615771881
 40
0.8833674617
 40
1.0
 40
1.0
 40
1.0
 40
1.0
 10
1.1031595152
 20
-14.6795961892
 30
0.0
 10
1.0994326914
 20
-14.8027658469
 30
0.0
 10
1.0329025288
 20
-15.0558425483
 30
0.0
 10
0.7804861163
 20
-15.3634531141
 30
0.0
 10
0.4186802582
 20
-15.5642231554
 30
0.0
 10
-0.0001428058
 20
-15.6336327683
 30
0.0
 10
-0.4189396199
 20
-15.5641301213
 30
0.0
 10
-0.780624167
 20
-15.3632988221
 30
0.0
 10
-1.0329448503
 20
-15.0557444742
 30
0.0
 10
-1.0994333832
 20
-14.8027429832
 30
0.0
 10
-1.1031595152
 20
-14.6795961892
 30
0.0
  0
SPLINE
  5
693
100
AcDbEntity
  8
RACCORDO
100
AcDbSpline
 62
7
  6
CONTINUOUS
 70
0
 71
3
 72
15
 73
11
 74
0
 42
0.0000001
 43
0.0000001
 44
0.0000000001
 40
0.0
 40
0.0
 40
0.0
 40
0.0
 40
0.1196524401
 40
0.2425863576
 40
0.3698478482
 40
0.5000443272
 40
0.6302401309
 40
0.7574899267
 40
0.8803698963
 40
1.0
 40
1.0
 40
1.0
 40
1.0
 10
-1.0981374937
 20
17.840897261
 30
0.0
 10
-1.0950901076
 20
17.969955789
 30
0.0
 10
-1.031225561
 20
18.2333329113
 30
0.0
 10
-0.7819483097
 20
18.5580409442
 30
0.0
 10
-0.4203472541
 20
18.7715822819
 30
0.0
 10
0.0001451968
 20
18.8456330645
 30
0.0
 10
0.4206103356
 20
18.7714817039
 30
0.0
 10
0.7820848392
 20
18.5578772102
 30
0.0
 10
1.0312669429
 20
18.2332305029
 30
0.0
 10
1.0950906765
 20
17.9699316968
 30
0.0
 10
1.0981374937
 20
17.840897261
 30
0.0
  0
SPLINE
  5
694
100
AcDbEntity
  8
0
100
AcDbSpline
 62
7
  6
CONTINUOUS
 70
0
 71
3
 72
14
 73
10
 74
0
 42
0.0000001
 43
0.0000001
 44
0.0000000001
 40
0.0
 40
0.0
 40
0.0
 40
0.0
 40
0.4081558151
 40
0.5784807979
 40
0.7223923151
 40
0.8374824267
 40
0.9220708403
 40
0.97535973
 40
1.0
 40
1.0
 40
1.0
 40
1.0
 10
1.1554930236
 20
-12.95
 30
0.0
 10
1.1640726055
 20
-12.7428757498
 30
0.0
 10
1.1787234491
 20
-12.4492796511
 30
0.0
 10
1.2071298041
 20
-12.0836783359
 30
0.0
 10
1.2295982688
 20
-11.8662568149
 30
0.0
 10
1.252257406
 20
-11.6945454894
 30
0.0
 10
1.2785641554
 20
-11.5653141562
 30
0.0
 10
1.2984059856
 20
-11.4916741682
 30
0.0
 10
1.3245201666
 20
-11.4499898959
 30
0.0
 10
1.3370349106
 20
-11.4500126474
 30
0.0
  0
SPLINE
  5
695
100
AcDbEntity
  8
0
100
AcDbSpline
 62
7
  6
CONTINUOUS
 70
0
 71
3
 72
14
 73
10
 74
0
 42
0.0000001
 43
0.0000001
 44
0.0000000001
 40
0.0
 40
0.0
 40
0.0
 40
0.0
 40
0.4081558151
 40
0.5784807979
 40
0.7223923151
 40
0.8374824267
 40
0.9220708403
 40
0.97535973
 40
1.0
 40
1.0
 40
1.0
 40
1.0
 10
-1.1554930236
 20
-12.95
 30
0.0
 10
-1.1640726055
 20
-12.7428757498
 30
0.0
 10
-1.1787234491
 20
-12.4492796511
 30
0.0
 10
-1.2071298041
 20
-12.0836783359
 30
0.0
 10
-1.2295982688
 20
-11.8662568149
 30
0.0
 10
-1.252257406
 20
-11.6945454894
 30
0.0
 10
-1.2785641554
 20
-11.5653141562
 30
0.0
 10
-1.2984059856
 20
-11.4916741682
 30
0.0
 10
-1.3245201666
 20
-11.4499898959
 30
0.0
 10
-1.3370349106
 20
-11.4500126474
 30
0.0
  0
SPLINE
  5
696
100
AcDbEntity
  8
0
100
AcDbSpline
 62
7
  6
CONTINUOUS
 70
0
 71
3
 72
16
 73
12
 74
0
 42
0.0000001
 43
0.0000001
 44
0.0000000001
 40
0.0
 40
0.0
 40
0.0
 40
0.0
 40
0.2110421982
 40
0.4038191982
 40
0.574384893
 40
0.7193239207
 40
0.835722112
 40
0.9214087391
 40
0.9752221765
 40
0.9905855201
 40
1.0
 40
1.0
 40
1.0
 40
1.0
 10
1.1459112808
 20
15.8176503001
 30
0.0
 10
1.1500080753
 20
15.6916097325
 30
0.0
 10
1.1590166338
 20
15.450470307
 30
0.0
 10
1.1763074281
 20
15.1076797134
 30
0.0
 10
1.1969419793
 20
14.8046189481
 30
0.0
 10
1.2201813894
 20
14.5476224995
 30
0.0
 10
1.245358217
 20
14.3415705078
 30
0.0
 10
1.2714548369
 20
14.1912128261
 30
0.0
 10
1.2960423107
 20
14.1009831345
 30
0.0
 10
1.3177434103
 20
14.0594625727
 30
0.0
 10
1.3314043472
 20
14.0500237608
 30
0.0
 10
1.3370299126
 20
14.0500322627
 30
0.0
  0
SPLINE
  5
697
100
AcDbEntity
  8
0
100
AcDbSpline
 62
7
  6
CONTINUOUS
 70
0
 71
3
 72
16
 73
12
 74
0
 42
0.0000001
 43
0.0000001
 44
0.0000000001
 40
0.0
 40
0.0
 40
0.0
 40
0.0
 40
0.2110421982
 40
0.4038191982
 40
0.574384893
 40
0.7193239207
 40
0.835722112
 40
0.9214087391
 40
0.9752221765
 40
0.9905855201
 40
1.0
 40
1.0
 40
1.0
 40
1.0
 10
-1.1459112808
 20
15.8176503001
 30
0.0
 10
-1.1500080753
 20
15.6916097325
 30
0.0
 10
-1.1590166338
 20
15.450470307
 30
0.0
 10
-1.1763074281
 20
15.1076797134
 30
0.0
 10
-1.1969419793
 20
14.8046189481
 30
0.0
 10
-1.2201813894
 20
14.5476224995
 30
0.0
 10
-1.245358217
 20
14.3415705078
 30
0.0
 10
-1.2714548369
 20
14.1912128261
 30
0.0
 10
-1.2960423107
 20
14.1009831345
 30
0.0
 10
-1.3177434103
 20
14.0594625727
 30
0.0
 10
-1.3314043472
 20
14.0500237608
 30
0.0
 10
-1.3370299126
 20
14.0500322627
 30
0.0
  0
SPLINE
  5
698
100
AcDbEntity
  8
0
100
AcDbSpline
 62
7
  6
CONTINUOUS
 70
0
 71
3
 72
9
 73
5
 74
0
 42
0.0000001
 43
0.0000001
 44
0.0000000001
 40
0.0
 40
0.0
 40
0.0
 40
0.0
 40
0.1917792414
 40
1.0
 40
1.0
 40
1.0
 40
1.0
 10
-1.3370349106
 20
-11.4500126474
 30
0.0
 10
-1.3390926781
 20
-11.4500163884
 30
0.0
 10
-1.3498634821
 20
-11.4525772589
 30
0.0
 10
-1.356682582
 20
-11.462549146
 30
0.0
 10
-1.3611631786
 20
-11.4699741019
 30
0.0
  0
SPLINE
  5
699
100
AcDbEntity
  8
0
100
AcDbSpline
 62
7
  6
CONTINUOUS
 70
0
 71
3
 72
11
 73
7
 74
0
 42
0.0000001
 43
0.0000001
 44
0.0000000001
 40
0.0
 40
0.0
 40
0.0
 40
0.0
 40
0.1256161268
 40
0.3362937335
 40
0.6296047676
 40
1.0
 40
1.0
 40
1.0
 40
1.0
 10
-1.3611631786
 20
-11.4699741019
 30
0.0
 10
-1.3761576452
 20
-11.4948219649
 30
0.0
 10
-1.3975161109
 20
-11.5710108147
 30
0.0
 10
-1.4249161547
 20
-11.7131482934
 30
0.0
 10
-1.4500290393
 20
-11.9140544419
 30
0.0
 10
-1.4645201776
 20
-12.0666020357
 30
0.0
 10
-1.4717871811
 20
-12.1518666706
 30
0.0
  0
SPLINE
  5
69A
100
AcDbEntity
  8
0
100
AcDbSpline
 62
7
  6
CONTINUOUS
 70
0
 71
3
 72
9
 73
5
 74
0
 42
0.0000001
 43
0.0000001
 44
0.0000000001
 40
0.0
 40
0.0
 40
0.0
 40
0.0
 40
0.2140497196
 40
1.0
 40
1.0
 40
1.0
 40
1.0
 10
1.3370299126
 20
14.0500322627
 30
0.0
 10
1.3384713229
 20
14.0500344411
 30
0.0
 10
1.3452384589
 20
14.0510876984
 30
0.0
 10
1.3506882563
 20
14.056007869
 30
0.0
 10
1.3541275755
 20
14.0600306327
 30
0.0
  0
SPLINE
  5
69B
100
AcDbEntity
  8
0
100
AcDbSpline
 62
7
  6
CONTINUOUS
 70
0
 71
3
 72
12
 73
8
 74
0
 42
0.0000001
 43
0.0000001
 44
0.0000000001
 40
0.0
 40
0.0
 40
0.0
 40
0.0
 40
0.0453738473
 40
0.1134592506
 40
0.319678531
 40
0.6172605041
 40
1.0
 40
1.0
 40
1.0
 40
1.0
 10
1.3541275755
 20
14.0600306327
 30
0.0
 10
1.3610604441
 20
14.06813959
 30
0.0
 10
1.3732246979
 20
14.0924208779
 30
0.0
 10
1.3966591445
 20
14.1637020637
 30
0.0
 10
1.4219547636
 20
14.2963376261
 30
0.0
 10
1.4491152768
 20
14.5028530495
 30
0.0
 10
1.4641232682
 20
14.6622010227
 30
0.0
 10
1.4717871811
 20
14.7518666706
 30
0.0
  0
SPLINE
  5
69C
100
AcDbEntity
  8
0
100
AcDbSpline
 62
7
  6
CONTINUOUS
 70
0
 71
3
 72
9
 73
5
 74
0
 42
0.0000001
 43
0.0000001
 44
0.0000000001
 40
0.0
 40
0.0
 40
0.0
 40
0.0
 40
0.1917792414
 40
1.0
 40
1.0
 40
1.0
 40
1.0
 10
1.3370349106
 20
-11.4500126474
 30
0.0
 10
1.3390926781
 20
-11.4500163884
 30
0.0
 10
1.3498634821
 20
-11.4525772589
 30
0.0
 10
1.356682582
 20
-11.462549146
 30
0.0
 10
1.3611631786
 20
-11.4699741019
 30
0.0
  0
SPLINE
  5
69D
100
AcDbEntity
  8
0
100
AcDbSpline
 62
7
  6
CONTINUOUS
 70
0
 71
3
 72
11
 73
7
 74
0
 42
0.0000001
 43
0.0000001
 44
0.0000000001
 40
0.0
 40
0.0
 40
0.0
 40
0.0
 40
0.1256161268
 40
0.3362937335
 40
0.6296047676
 40
1.0
 40
1.0
 40
1.0
 40
1.0
 10
1.3611631786
 20
-11.4699741019
 30
0.0
 10
1.3761576452
 20
-11.4948219649
 30
0.0
 10
1.3975161109
 20
-11.5710108147
 30
0.0
 10
1.4249161547
 20
-11.7131482934
 30
0.0
 10
1.4500290393
 20
-11.9140544419
 30
0.0
 10
1.4645201776
 20
-12.0666020357
 30
0.0
 10
1.4717871811
 20
-12.1518666706
 30
0.0
  0
SPLINE
  5
69E
100
AcDbEntity
  8
0
100
AcDbSpline
 62
7
  6
CONTINUOUS
 70
0
 71
3
 72
9
 73
5
 74
0
 42
0.0000001
 43
0.0000001
 44
0.0000000001
 40
0.0
 40
0.0
 40
0.0
 40
0.0
 40
0.2140497196
 40
1.0
 40
1.0
 40
1.0
 40
1.0
 10
-1.3370299126
 20
14.0500322627
 30
0.0
 10
-1.3384713229
 20
14.0500344411
 30
0.0
 10
-1.3452384589
 20
14.0510876984
 30
0.0
 10
-1.3506882563
 20
14.056007869
 30
0.0
 10
-1.3541275755
 20
14.0600306327
 30
0.0
  0
SPLINE
  5
69F
100
AcDbEntity
  8
0
100
AcDbSpline
 62
7
  6
CONTINUOUS
 70
0
 71
3
 72
12
 73
8
 74
0
 42
0.0000001
 43
0.0000001
 44
0.0000000001
 40
0.0
 40
0.0
 40
0.0
 40
0.0
 40
0.0453738473
 40
0.1134592506
 40
0.319678531
 40
0.6172605041
 40
1.0
 40
1.0
 40
1.0
 40
1.0
 10
-1.3541275755
 20
14.0600306327
 30
0.0
 10
-1.3610604441
 20
14.06813959
 30
0.0
 10
-1.3732246979
 20
14.0924208779
 30
0.0
 10
-1.3966591445
 20
14.1637020637
 30
0.0
 10
-1.4219547636
 20
14.2963376261
 30
0.0
 10
-1.4491152768
 20
14.5028530495
 30
0.0
 10
-1.4641232682
 20
14.6622010227
 30
0.0
 10
-1.4717871811
 20
14.7518666706
 30
0.0
  0
SPLINE
  5
6A0
100
AcDbEntity
  8
0
100
AcDbSpline
 62
250
  6
CONTINUOUS
 70
0
 71
3
 72
15
 73
11
 74
0
 42
0.0000001
 43
0.0000001
 44
0.0000000001
 40
0.0
 40
0.0
 40
0.0
 40
0.0
 40
0.0520940594
 40
0.1604423047
 40
0.316946655
 40
0.500003575
 40
0.683060602
 40
0.839559983
 40
0.9479061861
 40
1.0
 40
1.0
 40
1.0
 40
1.0
 10
0.2161437828
 20
20.3926484648
 30
0.0
 10
0.2161437828
 20
20.4005000609
 30
0.0
 10
0.1901069966
 20
20.4161067724
 30
0.0
 10
0.147050544
 20
20.4256182377
 30
0.0
 10
0.0783952139
 20
20.4350543889
 30
0.0
 10
-0.0000018672
 20
20.437536389
 30
0.0
 10
-0.0783983714
 20
20.4350544293
 30
0.0
 10
-0.1470522191
 20
20.425618193
 30
0.0
 10
-0.1901085768
 20
20.4161077113
 30
0.0
 10
-0.2161437827
 20
20.400500024
 30
0.0
 10
-0.2161437828
 20
20.3926484648
 30
0.0
  0
SPLINE
  5
6A1
100
AcDbEntity
  8
0
100
AcDbSpline
 62
250
  6
CONTINUOUS
 70
0
 71
3
 72
8
 73
4
 74
0
 42
0.0000001
 43
0.0000001
 44
0.0000000001
 40
0.0
 40
0.0
 40
0.0
 40
0.0
 40
1.0
 40
1.0
 40
1.0
 40
1.0
 10
-0.15
 20
20.368172434
 30
0.0
 10
-0.1735090434
 20
20.368172434
 30
0.0
 10
-0.1983498098
 20
20.3772845576
 30
0.0
 10
-0.2161437828
 20
20.3926484648
 30
0.0
  0
SPLINE
  5
6A2
100
AcDbEntity
  8
0
100
AcDbSpline
 62
250
  6
CONTINUOUS
 70
0
 71
3
 72
9
 73
5
 74
0
 42
0.0000001
 43
0.0000001
 44
0.0000000001
 40
0.0
 40
0.0
 40
0.0
 40
0.0
 40
0.4987798221
 40
1.0
 40
1.0
 40
1.0
 40
1.0
 10
0.2161437828
 20
20.3926484648
 30
0.0
 10
0.3153373519
 20
20.4782954953
 30
0.0
 10
0.5471545361
 20
20.6150336888
 30
0.0
 10
0.8120316215
 20
20.6618848124
 30
0.0
 10
0.9437253933
 20
20.6618848034
 30
0.0
  0
SPLINE
  5
6A3
100
AcDbEntity
  8
0
100
AcDbSpline
 62
250
  6
CONTINUOUS
 70
0
 71
3
 72
19
 73
15
 74
0
 42
0.0000001
 43
0.0000001
 44
0.0000000001
 40
0.0
 40
0.0
 40
0.0
 40
0.0
 40
0.0139123623
 40
0.04358845
 40
0.0899594479
 40
0.1516789733
 40
0.3117029758
 40
0.5000047373
 40
0.6883065741
 40
0.8483242057
 40
0.9100410772
 40
0.9564124167
 40
0.9860881237
 40
1.0
 40
1.0
 40
1.0
 40
1.0
 10
-0.2173562321
 20
-17.0512169785
 30
0.0
 10
-0.2173562321
 20
-17.0532655414
 30
0.0
 10
-0.2106488823
 20
-17.057546926
 30
0.0
 10
-0.1987901418
 20
-17.0607145917
 30
0.0
 10
-0.1783797772
 20
-17.0647315488
 30
0.0
 10
-0.1394268971
 20
-17.0693910856
 30
0.0
 10
-0.0789708793
 20
-17.0733217843
 30
0.0
 10
0.0000023729
 20
-17.0748485127
 30
0.0
 10
0.0789747418
 20
-17.0733218509
 30
0.0
 10
0.1394293298
 20
-17.0693912922
 30
0.0
 10
0.1783811239
 20
-17.0647319899
 30
0.0
 10
0.1987908284
 20
-17.0607153048
 30
0.0
 10
0.2106501298
 20
-17.0575477486
 30
0.0
 10
0.2173562321
 20
-17.0532654699
 30
0.0
 10
0.2173562321
 20
-17.0512169785
 30
0.0
  0
SPLINE
  5
6A4
100
AcDbEntity
  8
0
100
AcDbSpline
 62
250
  6
CONTINUOUS
 70
0
 71
3
 72
8
 73
4
 74
0
 42
0.0000001
 43
0.0000001
 44
0.0000000001
 40
0.0
 40
0.0
 40
0.0
 40
0.0
 40
1.0
 40
1.0
 40
1.0
 40
1.0
 10
0.15
 20
-17.0252777278
 30
0.0
 10
0.1740594327
 20
-17.0252777278
 30
0.0
 10
0.1995274456
 20
-17.0350617726
 30
0.0
 10
0.2173562321
 20
-17.0512169785
 30
0.0
  0
SPLINE
  5
6A5
100
AcDbEntity
  8
0
100
AcDbSpline
 62
250
  6
CONTINUOUS
 70
0
 71
3
 72
21
 73
17
 74
0
 42
0.0000001
 43
0.0000001
 44
0.0000000001
 40
0.0
 40
0.0
 40
0.0
 40
0.0
 40
0.0139089346
 40
0.0435749069
 40
0.089928552
 40
0.1516347471
 40
0.2264687403
 40
0.3116732094
 40
0.4999999997
 40
0.6883267901
 40
0.7735312593
 40
0.8483652525
 40
0.9100714477
 40
0.956425093
 40
0.9860910653
 40
1.0
 40
1.0
 40
1.0
 40
1.0
 10
0.9245966692
 20
-17.323579111
 30
0.0
 10
0.9245966688
 20
-17.3322915658
 30
0.0
 10
0.896084431
 20
-17.3505099776
 30
0.0
 10
0.8456498112
 20
-17.3639796475
 30
0.0
 10
0.7588394982
 20
-17.3810694358
 30
0.0
 10
0.6458850253
 20
-17.3945793285
 30
0.0
 10
0.5071781689
 20
-17.4065101494
 30
0.0
 10
0.2893876241
 20
-17.4184812755
 30
0.0
 10
0.0000000005
 20
-17.4241364768
 30
0.0
 10
-0.289387623
 20
-17.4184812755
 30
0.0
 10
-0.5071781679
 20
-17.4065101495
 30
0.0
 10
-0.6458850245
 20
-17.3945793286
 30
0.0
 10
-0.7588394976
 20
-17.3810694358
 30
0.0
 10
-0.8456498107
 20
-17.3639796476
 30
0.0
 10
-0.8960844308
 20
-17.3505099776
 30
0.0
 10
-0.9245966686
 20
-17.332291566
 30
0.0
 10
-0.9245966692
 20
-17.3235791112
 30
0.0
  0
SPLINE
  5
6A6
100
AcDbEntity
  8
0
100
AcDbSpline
 62
7
  6
CONTINUOUS
 70
0
 71
3
 72
10
 73
6
 74
0
 42
0.0000001
 43
0.0000001
 44
0.0000000001
 40
0.0
 40
0.0
 40
0.0
 40
0.0
 40
0.1166162943
 40
0.325467224
 40
1.0
 40
1.0
 40
1.0
 40
1.0
 10
1.75338813
 20
-16.7779142549
 30
0.0
 10
1.7512120564
 20
-16.7647673822
 30
0.0
 10
1.7488363836
 20
-16.7275663294
 30
0.0
 10
1.743047143
 20
-16.6135221186
 30
0.0
 10
1.7409564999
 20
-16.5125357058
 30
0.0
 10
1.7393291264
 20
-16.4354740034
 30
0.0
  0
SPLINE
  5
6A7
100
AcDbEntity
  8
0
100
AcDbSpline
 62
7
  6
CONTINUOUS
 70
0
 71
3
 72
10
 73
6
 74
0
 42
0.0000001
 43
0.0000001
 44
0.0000000001
 40
0.0
 40
0.0
 40
0.0
 40
0.0
 40
0.1166162943
 40
0.325467224
 40
1.0
 40
1.0
 40
1.0
 40
1.0
 10
-1.75338813
 20
-16.7779142549
 30
0.0
 10
-1.7512120564
 20
-16.7647673822
 30
0.0
 10
-1.7488363836
 20
-16.7275663294
 30
0.0
 10
-1.743047143
 20
-16.6135221186
 30
0.0
 10
-1.7409564999
 20
-16.5125357058
 30
0.0
 10
-1.7393291264
 20
-16.4354740034
 30
0.0
  0
SPLINE
  5
6A8
100
AcDbEntity
  8
0
100
AcDbSpline
 62
7
  6
CONTINUOUS
 70
0
 71
3
 72
9
 73
5
 74
0
 42
0.0000001
 43
0.0000001
 44
0.0000000001
 40
0.0
 40
0.0
 40
0.0
 40
0.0
 40
0.3726050366
 40
1.0
 40
1.0
 40
1.0
 40
1.0
 10
-1.7508359218
 20
19.3549691859
 30
0.0
 10
-1.7474841905
 20
19.3154005904
 30
0.0
 10
-1.743610661
 20
19.2088353812
 30
0.0
 10
-1.7407345351
 20
19.1023237109
 30
0.0
 10
-1.7393291264
 20
19.0354740034
 30
0.0
  0
SPLINE
  5
6A9
100
AcDbEntity
  8
0
100
AcDbSpline
 62
7
  6
CONTINUOUS
 70
0
 71
3
 72
9
 73
5
 74
0
 42
0.0000001
 43
0.0000001
 44
0.0000000001
 40
0.0
 40
0.0
 40
0.0
 40
0.0
 40
0.3726050366
 40
1.0
 40
1.0
 40
1.0
 40
1.0
 10
1.7508359218
 20
19.3549691859
 30
0.0
 10
1.7474841905
 20
19.3154005904
 30
0.0
 10
1.743610661
 20
19.2088353812
 30
0.0
 10
1.7407345351
 20
19.1023237109
 30
0.0
 10
1.7393291264
 20
19.0354740034
 30
0.0
  0
SPLINE
  5
6AA
100
AcDbEntity
  8
0
100
AcDbSpline
 62
250
  6
CONTINUOUS
 70
0
 71
3
 72
21
 73
17
 74
0
 42
0.0000001
 43
0.0000001
 44
0.0000000001
 40
0.0
 40
0.0
 40
0.0
 40
0.0
 40
0.021002397
 40
0.0536414527
 40
0.1007177824
 40
0.1617264447
 40
0.2348644189
 40
0.3176631705
 40
0.5
 40
0.6823368295
 40
0.7651355811
 40
0.8382735553
 40
0.8992822177
 40
0.9463585474
 40
0.978997603
 40
1.0
 40
1.0
 40
1.0
 40
1.0
 10
-0.9437253933
 20
20.6618848035
 30
0.0
 10
-0.943725393
 20
20.6757621272
 30
0.0
 10
-0.9224659577
 20
20.7090330804
 30
0.0
 10
-0.864087014
 20
20.7413023916
 30
0.0
 10
-0.7764274231
 20
20.7734239679
 30
0.0
 10
-0.6597220222
 20
20.8008657591
 30
0.0
 10
-0.5181675136
 20
20.8239912076
 30
0.0
 10
-0.2958062411
 20
20.847548326
 30
0.0
 10
0.0
 20
20.8585819269
 30
0.0
 10
0.2958062411
 20
20.847548326
 30
0.0
 10
0.5181675136
 20
20.8239912076
 30
0.0
 10
0.6597220222
 20
20.8008657591
 30
0.0
 10
0.7764274232
 20
20.7734239679
 30
0.0
 10
0.8640870139
 20
20.7413023917
 30
0.0
 10
0.9224659577
 20
20.7090330802
 30
0.0
 10
0.9437253927
 20
20.6757621272
 30
0.0
 10
0.9437253933
 20
20.6618848035
 30
0.0
  0
SPLINE
  5
6AB
100
AcDbEntity
  8
0
100
AcDbSpline
 62
250
  6
CONTINUOUS
 70
0
 71
3
 72
9
 73
5
 74
0
 42
0.0000001
 43
0.0000001
 44
0.0000000001
 40
0.0
 40
0.0
 40
0.0
 40
0.0
 40
0.2399326421
 40
1.0
 40
1.0
 40
1.0
 40
1.0
 10
-0.2173562321
 20
-16.2256444385
 30
0.0
 10
-0.2661597109
 20
-16.2597136001
 30
0.0
 10
-0.4819982424
 20
-16.3836150708
 30
0.0
 10
-0.7360508545
 20
-16.4354740034
 30
0.0
 10
-0.9245966692
 20
-16.4354740034
 30
0.0
  0
SPLINE
  5
6AC
100
AcDbEntity
  8
0
100
AcDbSpline
 62
250
  6
CONTINUOUS
 70
0
 71
3
 72
9
 73
5
 74
0
 42
0.0000001
 43
0.0000001
 44
0.0000000001
 40
0.0
 40
0.0
 40
0.0
 40
0.0
 40
0.2399326421
 40
1.0
 40
1.0
 40
1.0
 40
1.0
 10
0.2173562321
 20
-16.2256444385
 30
0.0
 10
0.2661597109
 20
-16.2597136001
 30
0.0
 10
0.4819982424
 20
-16.3836150708
 30
0.0
 10
0.7360508545
 20
-16.4354740034
 30
0.0
 10
0.9245966692
 20
-16.4354740034
 30
0.0
  0
SPLINE
  5
6AD
100
AcDbEntity
  8
0
100
AcDbSpline
 62
250
  6
CONTINUOUS
 70
0
 71
3
 72
9
 73
5
 74
0
 42
0.0000001
 43
0.0000001
 44
0.0000000001
 40
0.0
 40
0.0
 40
0.0
 40
0.0
 40
0.2598991146
 40
1.0
 40
1.0
 40
1.0
 40
1.0
 10
-0.15
 20
-16.2056606705
 30
0.0
 10
-0.1561373252
 20
-16.2056606705
 30
0.0
 10
-0.1796910447
 20
-16.2072991074
 30
0.0
 10
-0.2030257142
 20
-16.2156404646
 30
0.0
 10
-0.2173562321
 20
-16.2256444385
 30
0.0
  0
SPLINE
  5
6AE
100
AcDbEntity
  8
0
100
AcDbSpline
 62
250
  6
CONTINUOUS
 70
0
 71
3
 72
8
 73
4
 74
0
 42
0.0000001
 43
0.0000001
 44
0.0000000001
 40
0.0
 40
0.0
 40
0.0
 40
0.0
 40
1.0
 40
1.0
 40
1.0
 40
1.0
 10
-0.15
 20
-16.4796128717
 30
0.0
 10
-0.1740594327
 20
-16.4796128717
 30
0.0
 10
-0.1995274456
 20
-16.4893969166
 30
0.0
 10
-0.2173562321
 20
-16.5055521224
 30
0.0
  0
SPLINE
  5
6AF
100
AcDbEntity
  8
0
100
AcDbSpline
 62
250
  6
CONTINUOUS
 70
0
 71
3
 72
9
 73
5
 74
0
 42
0.0000001
 43
0.0000001
 44
0.0000000001
 40
0.0
 40
0.0
 40
0.0
 40
0.0
 40
0.2598991146
 40
1.0
 40
1.0
 40
1.0
 40
1.0
 10
0.15
 20
-16.2056606705
 30
0.0
 10
0.1561373252
 20
-16.2056606705
 30
0.0
 10
0.1796910447
 20
-16.2072991074
 30
0.0
 10
0.2030257142
 20
-16.2156404646
 30
0.0
 10
0.2173562321
 20
-16.2256444385
 30
0.0
  0
SPLINE
  5
6B0
100
AcDbEntity
  8
0
100
AcDbSpline
 62
250
  6
CONTINUOUS
 70
0
 71
3
 72
8
 73
4
 74
0
 42
0.0000001
 43
0.0000001
 44
0.0000000001
 40
0.0
 40
0.0
 40
0.0
 40
0.0
 40
1.0
 40
1.0
 40
1.0
 40
1.0
 10
0.15
 20
-16.4796128717
 30
0.0
 10
0.1740594327
 20
-16.4796128717
 30
0.0
 10
0.1995274456
 20
-16.4893969166
 30
0.0
 10
0.2173562321
 20
-16.5055521224
 30
0.0
  0
SPLINE
  5
6B1
100
AcDbEntity
  8
0
100
AcDbSpline
 62
250
  6
CONTINUOUS
 70
0
 71
3
 72
15
 73
11
 74
0
 42
0.0000001
 43
0.0000001
 44
0.0000000001
 40
0.0
 40
0.0
 40
0.0
 40
0.0
 40
0.0521063859
 40
0.1604956645
 40
0.3170323875
 40
0.5000466119
 40
0.6830305174
 40
0.8395113429
 40
0.9478818915
 40
1.0
 40
1.0
 40
1.0
 40
1.0
 10
-0.15
 20
20.368172434
 30
0.0
 10
-0.15
 20
20.3736225734
 30
0.0
 10
-0.131923854
 20
20.384455919
 30
0.0
 10
-0.1020352845
 20
20.3910552862
 30
0.0
 10
-0.0543863441
 20
20.3976030582
 30
0.0
 10
0.0000111684
 20
20.3993240126
 30
0.0
 10
0.0544022952
 20
20.3976011235
 30
0.0
 10
0.1020409242
 20
20.3910548342
 30
0.0
 10
0.1319208728
 20
20.3844534599
 30
0.0
 10
0.15
 20
20.3736237995
 30
0.0
 10
0.15
 20
20.368172434
 30
0.0
  0
SPLINE
  5
6B2
100
AcDbEntity
  8
0
100
AcDbSpline
 62
250
  6
CONTINUOUS
 70
0
 71
3
 72
8
 73
4
 74
0
 42
0.0000001
 43
0.0000001
 44
0.0000000001
 40
0.0
 40
0.0
 40
0.0
 40
0.0
 40
1.0
 40
1.0
 40
1.0
 40
1.0
 10
0.15
 20
20.368172434
 30
0.0
 10
0.1735090434
 20
20.368172434
 30
0.0
 10
0.1983498098
 20
20.3772845576
 30
0.0
 10
0.2161437828
 20
20.3926484648
 30
0.0
  0
SPLINE
  5
6B3
100
AcDbEntity
  8
0
100
AcDbSpline
 62
250
  6
CONTINUOUS
 70
0
 71
3
 72
8
 73
4
 74
0
 42
0.0000001
 43
0.0000001
 44
0.0000000001
 40
0.0
 40
0.0
 40
0.0
 40
0.0
 40
1.0
 40
1.0
 40
1.0
 40
1.0
 10
-0.15
 20
-17.0252777278
 30
0.0
 10
-0.1740594327
 20
-17.0252777278
 30
0.0
 10
-0.1995274456
 20
-17.0350617726
 30
0.0
 10
-0.2173562321
 20
-17.0512169785
 30
0.0
  0
SPLINE
  5
6B4
100
AcDbEntity
  8
0
100
AcDbSpline
 62
250
  6
CONTINUOUS
 70
0
 71
3
 72
8
 73
4
 74
0
 42
0.0000001
 43
0.0000001
 44
0.0000000001
 40
0.0
 40
0.0
 40
0.0
 40
0.0
 40
1.0
 40
1.0
 40
1.0
 40
1.0
 10
-0.15
 20
19.0612568165
 30
0.0
 10
-0.1735090434
 20
19.0612568165
 30
0.0
 10
-0.1983498098
 20
19.0703689401
 30
0.0
 10
-0.2161437828
 20
19.0857328473
 30
0.0
  0
SPLINE
  5
6B5
100
AcDbEntity
  8
0
100
AcDbSpline
 62
250
  6
CONTINUOUS
 70
0
 71
3
 72
8
 73
4
 74
0
 42
0.0000001
 43
0.0000001
 44
0.0000000001
 40
0.0
 40
0.0
 40
0.0
 40
0.0
 40
1.0
 40
1.0
 40
1.0
 40
1.0
 10
-0.1743879633
 20
18.8079736107
 30
0.0
 10
-0.1891251371
 20
18.8108101549
 30
0.0
 10
-0.2037080823
 20
18.8164103753
 30
0.0
 10
-0.2161437828
 20
18.8248117815
 30
0.0
  0
SPLINE
  5
6B6
100
AcDbEntity
  8
0
100
AcDbSpline
 62
250
  6
CONTINUOUS
 70
0
 71
3
 72
8
 73
4
 74
0
 42
0.0000001
 43
0.0000001
 44
0.0000000001
 40
0.0
 40
0.0
 40
0.0
 40
0.0
 40
1.0
 40
1.0
 40
1.0
 40
1.0
 10
0.15
 20
19.0612568165
 30
0.0
 10
0.1735090434
 20
19.0612568165
 30
0.0
 10
0.1983498098
 20
19.0703689401
 30
0.0
 10
0.2161437828
 20
19.0857328473
 30
0.0
  0
SPLINE
  5
6B7
100
AcDbEntity
  8
0
100
AcDbSpline
 62
250
  6
CONTINUOUS
 70
0
 71
3
 72
8
 73
4
 74
0
 42
0.0000001
 43
0.0000001
 44
0.0000000001
 40
0.0
 40
0.0
 40
0.0
 40
0.0
 40
1.0
 40
1.0
 40
1.0
 40
1.0
 10
0.1706804456
 20
18.807317385
 30
0.0
 10
0.1867099789
 20
18.8099091561
 30
0.0
 10
0.2026888466
 20
18.8157217922
 30
0.0
 10
0.2161437828
 20
18.8248117815
 30
0.0
  0
SPLINE
  5
6B8
100
AcDbEntity
  8
0
100
AcDbSpline
 62
250
  6
CONTINUOUS
 70
0
 71
3
 72
17
 73
13
 74
0
 42
0.0000001
 43
0.0000001
 44
0.0000000001
 40
0.0
 40
0.0
 40
0.0
 40
0.0
 40
0.013914965
 40
0.0436056375
 40
0.1516827562
 40
0.3117584671
 40
0.5000477817
 40
0.688305707
 40
0.8483238238
 40
0.956382093
 40
0.9860790533
 40
1.0
 40
1.0
 40
1.0
 40
1.0
 10
0.15
 20
-17.0252777278
 30
0.0
 10
0.15
 20
-17.026691565
 30
0.0
 10
0.1453795004
 20
-17.029647719
 30
0.0
 10
0.131456507
 20
-17.0333654475
 30
0.0
 10
0.1004704364
 20
-17.0376597368
 30
0.0
 10
0.054638936
 20
-17.0404773356
 30
0.0
 10
-0.0000109474
 20
-17.0416168295
 30
0.0
 10
-0.0546554291
 20
-17.0404767372
 30
0.0
 10
-0.1004749942
 20
-17.0376582867
 30
0.0
 10
-0.1314558802
 20
-17.0333662519
 30
0.0
 10
-0.1453758092
 20
-17.0296470421
 30
0.0
 10
-0.15
 20
-17.0266921727
 30
0.0
 10
-0.15
 20
-17.0252777278
 30
0.0
  0
SPLINE
  5
6B9
100
AcDbEntity
  8
0
100
AcDbSpline
 62
250
  6
CONTINUOUS
 70
0
 71
3
 72
9
 73
5
 74
0
 42
0.0000001
 43
0.0000001
 44
0.0000000001
 40
0.0
 40
0.0
 40
0.0
 40
0.0
 40
0.2403232597
 40
1.0
 40
1.0
 40
1.0
 40
1.0
 10
0.2161437828
 20
18.8248117815
 30
0.0
 10
0.2668434294
 20
18.859063839
 30
0.0
 10
0.4898973758
 20
18.9833997238
 30
0.0
 10
0.750314579
 20
19.0354740232
 30
0.0
 10
0.9437255405
 20
19.0354740034
 30
0.0
  0
SPLINE
  5
6BA
100
AcDbEntity
  8
0
100
AcDbSpline
 62
250
  6
CONTINUOUS
 70
0
 71
3
 72
9
 73
5
 74
0
 42
0.0000001
 43
0.0000001
 44
0.0000000001
 40
0.0
 40
0.0
 40
0.0
 40
0.0
 40
0.4987798176
 40
1.0
 40
1.0
 40
1.0
 40
1.0
 10
0.2161437828
 20
19.0857328473
 30
0.0
 10
0.3153373549
 20
19.1713798714
 30
0.0
 10
0.5471545414
 20
19.3081180543
 30
0.0
 10
0.8120316211
 20
19.3549691859
 30
0.0
 10
0.9437253933
 20
19.3549691859
 30
0.0
  0
SPLINE
  5
6BB
100
AcDbEntity
  8
0
100
AcDbSpline
 62
250
  6
CONTINUOUS
 70
0
 71
3
 72
9
 73
5
 74
0
 42
0.0000001
 43
0.0000001
 44
0.0000000001
 40
0.0
 40
0.0
 40
0.0
 40
0.0
 40
0.4987798176
 40
1.0
 40
1.0
 40
1.0
 40
1.0
 10
-0.2161437828
 20
20.3926484648
 30
0.0
 10
-0.3153373549
 20
20.4782954889
 30
0.0
 10
-0.5471545414
 20
20.6150336719
 30
0.0
 10
-0.8120316211
 20
20.6618848035
 30
0.0
 10
-0.9437253933
 20
20.6618848035
 30
0.0
  0
SPLINE
  5
6BC
100
AcDbEntity
  8
0
100
AcDbSpline
 62
250
  6
CONTINUOUS
 70
0
 71
3
 72
9
 73
5
 74
0
 42
0.0000001
 43
0.0000001
 44
0.0000000001
 40
0.0
 40
0.0
 40
0.0
 40
0.0
 40
0.24032326
 40
1.0
 40
1.0
 40
1.0
 40
1.0
 10
-0.2161437828
 20
18.8248117815
 30
0.0
 10
-0.2668434198
 20
18.8590638326
 30
0.0
 10
-0.4898973217
 20
18.9833996972
 30
0.0
 10
-0.7503144685
 20
19.0354740034
 30
0.0
 10
-0.9437253933
 20
19.0354740034
 30
0.0
  0
SPLINE
  5
6BD
100
AcDbEntity
  8
0
100
AcDbSpline
 62
250
  6
CONTINUOUS
 70
0
 71
3
 72
9
 73
5
 74
0
 42
0.0000001
 43
0.0000001
 44
0.0000000001
 40
0.0
 40
0.0
 40
0.0
 40
0.0
 40
0.4987798176
 40
1.0
 40
1.0
 40
1.0
 40
1.0
 10
-0.2161437828
 20
19.0857328473
 30
0.0
 10
-0.3153373549
 20
19.1713798714
 30
0.0
 10
-0.5471545414
 20
19.3081180543
 30
0.0
 10
-0.8120316211
 20
19.3549691859
 30
0.0
 10
-0.9437253933
 20
19.3549691859
 30
0.0
  0
SPLINE
  5
6BE
100
AcDbEntity
  8
RACCORDO
100
AcDbSpline
 62
7
  6
CONTINUOUS
 70
0
 71
3
 72
8
 73
4
 74
0
 42
0.0000001
 43
0.0000001
 44
0.0000000001
 40
0.0
 40
0.0
 40
0.0
 40
0.0
 40
1.0
 40
1.0
 40
1.0
 40
1.0
 10
26.3000009595
 20
-27.25
 30
0.0
 10
26.3000009595
 20
-27.398062819
 30
0.0
 10
26.2654848475
 20
-27.5496433448
 30
0.0
 10
26.2013507957
 20
-27.6830952904
 30
0.0
  0
SPLINE
  5
6BF
100
AcDbEntity
  8
RACCORDO
100
AcDbSpline
 62
7
  6
CONTINUOUS
 70
0
 71
3
 72
9
 73
5
 74
0
 42
0.0000001
 43
0.0000001
 44
0.0000000001
 40
0.0
 40
0.0
 40
0.0
 40
0.0
 40
0.4999624364
 40
1.0
 40
1.0
 40
1.0
 40
1.0
 10
26.2013507957
 20
-27.6830952904
 30
0.0
 10
26.1213545434
 20
-27.8495537506
 30
0.0
 10
25.861806649
 20
-28.1431939478
 30
0.0
 10
25.4847168679
 20
-28.25
 30
0.0
 10
25.3000060923
 20
-28.25
 30
0.0
  0
SPLINE
  5
6C0
100
AcDbEntity
  8
RACCORDO
100
AcDbSpline
 62
7
  6
CONTINUOUS
 70
0
 71
3
 72
8
 73
4
 74
0
 42
0.0000001
 43
0.0000001
 44
0.0000000001
 40
0.0
 40
0.0
 40
0.0
 40
0.0
 40
1.0
 40
1.0
 40
1.0
 40
1.0
 10
-26.3000009595
 20
31.25
 30
0.0
 10
-26.3000009595
 20
31.398062819
 30
0.0
 10
-26.2654848475
 20
31.5496433448
 30
0.0
 10
-26.2013507957
 20
31.6830952904
 30
0.0
  0
SPLINE
  5
6C1
100
AcDbEntity
  8
RACCORDO
100
AcDbSpline
 62
7
  6
CONTINUOUS
 70
0
 71
3
 72
9
 73
5
 74
0
 42
0.0000001
 43
0.0000001
 44
0.0000000001
 40
0.0
 40
0.0
 40
0.0
 40
0.0
 40
0.4999624364
 40
1.0
 40
1.0
 40
1.0
 40
1.0
 10
-26.2013507957
 20
31.6830952904
 30
0.0
 10
-26.1213545434
 20
31.8495537506
 30
0.0
 10
-25.861806649
 20
32.1431939478
 30
0.0
 10
-25.4847168679
 20
32.25
 30
0.0
 10
-25.3000060923
 20
32.25
 30
0.0
  0
SPLINE
  5
6C2
100
AcDbEntity
  8
RACCORDO
100
AcDbSpline
 62
7
  6
CONTINUOUS
 70
0
 71
3
 72
11
 73
7
 74
0
 42
0.0000001
 43
0.0000001
 44
0.0000000001
 40
0.0
 40
0.0
 40
0.0
 40
0.0
 40
0.2335692949
 40
0.4741794817
 40
0.7281720825
 40
1.0
 40
1.0
 40
1.0
 40
1.0
 10
1.923853753
 20
23.319566049
 30
0.0
 10
1.9245476498
 20
23.4411569496
 30
0.0
 10
1.9719355374
 20
23.6901243068
 30
0.0
 10
2.1791311081
 20
24.0180538269
 30
0.0
 10
2.5113847015
 20
24.2568363851
 30
0.0
 10
2.7888214081
 20
24.315864787
 30
0.0
 10
2.9303310448
 20
24.3156634558
 30
0.0
  0
SPLINE
  5
6C3
100
AcDbEntity
  8
RACCORDO
100
AcDbSpline
 62
7
  6
CONTINUOUS
 70
0
 71
3
 72
11
 73
7
 74
0
 42
0.0000001
 43
0.0000001
 44
0.0000000001
 40
0.0
 40
0.0
 40
0.0
 40
0.0
 40
0.271827983
 40
0.5258205182
 40
0.7664309219
 40
1.0
 40
1.0
 40
1.0
 40
1.0
 10
2.9303310448
 20
-20.3156634558
 30
0.0
 10
2.7888213675
 20
-20.3158645931
 30
0.0
 10
2.5113844361
 20
-20.2568366189
 30
0.0
 10
2.1791315662
 20
-20.0180534671
 30
0.0
 10
1.9719339019
 20
-19.6901243691
 30
0.0
 10
1.9245499801
 20
-19.4411568288
 30
0.0
 10
1.923853753
 20
-19.319566049
 30
0.0
  0
SPLINE
  5
6C4
100
AcDbEntity
  8
RACCORDO
100
AcDbSpline
 62
7
  6
CONTINUOUS
 70
0
 71
3
 72
11
 73
7
 74
0
 42
0.0000001
 43
0.0000001
 44
0.0000000001
 40
0.0
 40
0.0
 40
0.0
 40
0.0
 40
0.2335692949
 40
0.4741794817
 40
0.7281720825
 40
1.0
 40
1.0
 40
1.0
 40
1.0
 10
-1.923853753
 20
-19.319566049
 30
0.0
 10
-1.9245476498
 20
-19.4411569496
 30
0.0
 10
-1.9719355374
 20
-19.6901243068
 30
0.0
 10
-2.1791311081
 20
-20.0180538269
 30
0.0
 10
-2.5113847015
 20
-20.2568363851
 30
0.0
 10
-2.7888214081
 20
-20.315864787
 30
0.0
 10
-2.9303310448
 20
-20.3156634558
 30
0.0
  0
SPLINE
  5
6C5
100
AcDbEntity
  8
RACCORDO
100
AcDbSpline
 62
7
  6
CONTINUOUS
 70
0
 71
3
 72
11
 73
7
 74
0
 42
0.0000001
 43
0.0000001
 44
0.0000000001
 40
0.0
 40
0.0
 40
0.0
 40
0.0
 40
0.271827983
 40
0.5258205182
 40
0.7664309219
 40
1.0
 40
1.0
 40
1.0
 40
1.0
 10
-2.9303310448
 20
24.3156634558
 30
0.0
 10
-2.7888213675
 20
24.3158645931
 30
0.0
 10
-2.5113844361
 20
24.2568366189
 30
0.0
 10
-2.1791315662
 20
24.0180534671
 30
0.0
 10
-1.9719339019
 20
23.6901243691
 30
0.0
 10
-1.9245499801
 20
23.4411568288
 30
0.0
 10
-1.923853753
 20
23.319566049
 30
0.0
  0
SPLINE
  5
6C6
100
AcDbEntity
  8
RACCORDO
100
AcDbSpline
 62
250
  6
CONTINUOUS
 70
0
 71
3
 72
13
 73
9
 74
0
 42
0.0000001
 43
0.0000001
 44
0.0000000001
 40
0.0
 40
0.0
 40
0.0
 40
0.0
 40
0.0343066539
 40
0.0972046482
 40
0.1914521557
 40
0.3145587064
 40
0.6304006598
 40
1.0
 40
1.0
 40
1.0
 40
1.0
 10
-17.2690119796
 20
11.9458772918
 30
0.0
 10
-17.2794843933
 20
11.9471538681
 30
0.0
 10
-17.3015953111
 20
11.9734682755
 30
0.0
 10
-17.3211842588
 20
12.0269798059
 30
0.0
 10
-17.3424942285
 20
12.1116144564
 30
0.0
 10
-17.368646919
 20
12.2730893086
 30
0.0
 10
-17.3902694491
 20
12.521385738
 30
0.0
 10
-17.3962679705
 20
12.7320818953
 30
0.0
 10
-17.3965462636
 20
12.8457402175
 30
0.0
  0
SPLINE
  5
6C7
100
AcDbEntity
  8
RACCORDO
100
AcDbSpline
 62
250
  6
CONTINUOUS
 70
0
 71
3
 72
15
 73
11
 74
0
 42
0.0000001
 43
0.0000001
 44
0.0000000001
 40
0.0
 40
0.0
 40
0.0
 40
0.0
 40
0.0095626759
 40
0.0270891416
 40
0.0887377498
 40
0.1847179052
 40
0.3112742519
 40
0.4629301803
 40
0.6332533982
 40
1.0
 40
1.0
 40
1.0
 40
1.0
 10
-16.4246800944
 20
12.4106874196
 30
0.0
 10
-16.4269775637
 20
12.4084084193
 30
0.0
 10
-16.4372835958
 20
12.4075925724
 30
0.0
 10
-16.4658420946
 20
12.4137592413
 30
0.0
 10
-16.5219161748
 20
12.4360213755
 30
0.0
 10
-16.608263481
 20
12.4772354482
 30
0.0
 10
-16.7204664067
 20
12.5364417461
 30
0.0
 10
-16.8527620727
 20
12.6107272347
 30
0.0
 10
-17.0536554493
 20
12.7289744525
 30
0.0
 10
-17.2079118665
 20
12.8251429536
 30
0.0
 10
-17.3122126502
 20
12.8924078656
 30
0.0
  0
SPLINE
  5
6C8
100
AcDbEntity
  8
RACCORDO
100
AcDbSpline
 62
250
  6
CONTINUOUS
 70
0
 71
3
 72
13
 73
9
 74
0
 42
0.0000001
 43
0.0000001
 44
0.0000000001
 40
0.0
 40
0.0
 40
0.0
 40
0.0
 40
0.0338210663
 40
0.0968649262
 40
0.1915059308
 40
0.3153388626
 40
0.6318699999
 40
1.0
 40
1.0
 40
1.0
 40
1.0
 10
-3.8995474847
 20
21.084506679
 30
0.0
 10
-3.9101942003
 20
21.083677617
 30
0.0
 10
-3.9373758588
 20
21.1062716047
 30
0.0
 10
-3.9672562376
 20
21.1563535572
 30
0.0
 10
-4.0055833143
 20
21.2378946989
 30
0.0
 10
-4.0640761061
 20
21.3958888252
 30
0.0
 10
-4.1356980833
 20
21.6415633129
 30
0.0
 10
-4.1841350163
 20
21.8522358246
 30
0.0
 10
-4.2072294115
 20
21.9661549201
 30
0.0
  0
SPLINE
  5
6C9
100
AcDbEntity
  8
RACCORDO
100
AcDbSpline
 62
250
  6
CONTINUOUS
 70
0
 71
3
 72
11
 73
7
 74
0
 42
0.0000001
 43
0.0000001
 44
0.0000000001
 40
0.0
 40
0.0
 40
0.0
 40
0.0
 40
0.2407768515
 40
0.4870298633
 40
0.7406777487
 40
1.0
 40
1.0
 40
1.0
 40
1.0
 10
-2.783350186
 20
21.2673574537
 30
0.0
 10
-2.6858465787
 20
21.2821876108
 30
0.0
 10
-2.492667069
 20
21.3520426226
 30
0.0
 10
-2.261526695
 20
21.5588209507
 30
0.0
 10
-2.1137975572
 20
21.839387296
 30
0.0
 10
-2.0824763518
 20
22.0517666391
 30
0.0
 10
-2.0841617699
 20
22.1579746587
 30
0.0
  0
SPLINE
  5
6CA
100
AcDbEntity
  8
RACCORDO
100
AcDbSpline
 62
250
  6
CONTINUOUS
 70
0
 71
3
 72
9
 73
5
 74
0
 42
0.0000001
 43
0.0000001
 44
0.0000000001
 40
0.0
 40
0.0
 40
0.0
 40
0.0
 40
0.4048361105
 40
1.0
 40
1.0
 40
1.0
 40
1.0
 10
2.0841622221
 20
-18.1579746587
 30
0.0
 10
2.3713883594
 20
-18.141694959
 30
0.0
 10
3.0798400311
 20
-18.0845381005
 30
0.0
 10
3.7870057889
 20
-18.0140037584
 30
0.0
 10
4.2072294267
 20
-17.9661549201
 30
0.0
  0
SPLINE
  5
6CB
100
AcDbEntity
  8
RACCORDO
100
AcDbSpline
 62
250
  6
CONTINUOUS
 70
0
 71
3
 72
10
 73
6
 74
0
 42
0.0000001
 43
0.0000001
 44
0.0000000001
 40
0.0
 40
0.0
 40
0.0
 40
0.0
 40
0.1641845847
 40
0.4994563235
 40
1.0
 40
1.0
 40
1.0
 40
1.0
 10
1.923853753
 20
-18.249810922
 30
0.0
 10
1.9242683679
 20
-18.2390140679
 30
0.0
 10
1.9375885515
 20
-18.2066771232
 30
0.0
 10
1.9966461603
 20
-18.1704153182
 30
0.0
 10
2.0512751594
 20
-18.1598457059
 30
0.0
 10
2.0841622221
 20
-18.1579746587
 30
0.0
  0
SPLINE
  5
6CC
100
AcDbEntity
  8
RACCORDO
100
AcDbSpline
 62
250
  6
CONTINUOUS
 70
0
 71
3
 72
11
 73
7
 74
0
 42
0.0000001
 43
0.0000001
 44
0.0000000001
 40
0.0
 40
0.0
 40
0.0
 40
0.0
 40
0.3244487474
 40
0.5883886419
 40
0.8069296255
 40
1.0
 40
1.0
 40
1.0
 40
1.0
 10
2.5991680908
 20
-19.815666502
 30
0.0
 10
2.4998174363
 20
-19.8158903732
 30
0.0
 10
2.3177419955
 20
-19.786710114
 30
0.0
 10
2.0962651244
 20
-19.6670031557
 30
0.0
 10
1.9582791004
 20
-19.5055440659
 30
0.0
 10
1.9247127362
 20
-19.3785483782
 30
0.0
 10
1.9238519605
 20
-19.3194336991
 30
0.0
  0
SPLINE
  5
6CD
100
AcDbEntity
  8
RACCORDO
100
AcDbSpline
 62
250
  6
CONTINUOUS
 70
0
 71
3
 72
9
 73
5
 74
0
 42
0.0000001
 43
0.0000001
 44
0.0000000001
 40
0.0
 40
0.0
 40
0.0
 40
0.0
 40
0.3657279749
 40
1.0
 40
1.0
 40
1.0
 40
1.0
 10
-2.0841622221
 20
-18.1579746587
 30
0.0
 10
-2.0608516507
 20
-18.1593008808
 30
0.0
 10
-2.0012647306
 20
-18.1670881875
 30
0.0
 10
-1.9254078627
 20
-18.2093484947
 30
0.0
 10
-1.923853753
 20
-18.249810922
 30
0.0
  0
SPLINE
  5
6CE
100
AcDbEntity
  8
RACCORDO
100
AcDbSpline
 62
250
  6
CONTINUOUS
 70
0
 71
3
 72
9
 73
5
 74
0
 42
0.0000001
 43
0.0000001
 44
0.0000000001
 40
0.0
 40
0.0
 40
0.0
 40
0.0
 40
0.5951371887
 40
1.0
 40
1.0
 40
1.0
 40
1.0
 10
-4.2072294267
 20
-17.9661549201
 30
0.0
 10
-3.7870247162
 20
-18.0140022448
 30
0.0
 10
-3.0798588643
 20
-18.0845359526
 30
0.0
 10
-2.3714072172
 20
-18.1416924004
 30
0.0
 10
-2.0841622221
 20
-18.1579746587
 30
0.0
  0
SPLINE
  5
6CF
100
AcDbEntity
  8
RACCORDO
100
AcDbSpline
 62
250
  6
CONTINUOUS
 70
0
 71
3
 72
11
 73
7
 74
0
 42
0.0000001
 43
0.0000001
 44
0.0000000001
 40
0.0
 40
0.0
 40
0.0
 40
0.0
 40
0.1930715584
 40
0.4116186058
 40
0.675561035
 40
1.0
 40
1.0
 40
1.0
 40
1.0
 10
-1.923853753
 20
-19.319566049
 30
0.0
 10
-1.924722965
 20
-19.3786726517
 30
0.0
 10
-1.9583444697
 20
-19.5056389921
 30
0.0
 10
-2.0963303145
 20
-19.6670510636
 30
0.0
 10
-2.3177886806
 20
-19.7867190514
 30
0.0
 10
-2.4998344043
 20
-19.8158906254
 30
0.0
 10
-2.5991680908
 20
-19.815666502
 30
0.0
  0
SPLINE
  5
6D0
100
AcDbEntity
  8
RACCORDO
100
AcDbSpline
 62
250
  6
CONTINUOUS
 70
0
 71
3
 72
9
 73
5
 74
0
 42
0.0000001
 43
0.0000001
 44
0.0000000001
 40
0.0
 40
0.0
 40
0.0
 40
0.0
 40
0.3657279749
 40
1.0
 40
1.0
 40
1.0
 40
1.0
 10
2.0841622221
 20
22.1579746587
 30
0.0
 10
2.0608516507
 20
22.1593008808
 30
0.0
 10
2.0012647306
 20
22.1670881875
 30
0.0
 10
1.9254078627
 20
22.2093484947
 30
0.0
 10
1.923853753
 20
22.249810922
 30
0.0
  0
SPLINE
  5
6D1
100
AcDbEntity
  8
RACCORDO
100
AcDbSpline
 62
250
  6
CONTINUOUS
 70
0
 71
3
 72
9
 73
5
 74
0
 42
0.0000001
 43
0.0000001
 44
0.0000000001
 40
0.0
 40
0.0
 40
0.0
 40
0.0
 40
0.5951371887
 40
1.0
 40
1.0
 40
1.0
 40
1.0
 10
4.2072294267
 20
21.9661549201
 30
0.0
 10
3.7870247162
 20
22.0140022448
 30
0.0
 10
3.0798588643
 20
22.0845359526
 30
0.0
 10
2.3714072172
 20
22.1416924004
 30
0.0
 10
2.0841622221
 20
22.1579746587
 30
0.0
  0
SPLINE
  5
6D2
100
AcDbEntity
  8
RACCORDO
100
AcDbSpline
 62
250
  6
CONTINUOUS
 70
0
 71
3
 72
11
 73
7
 74
0
 42
0.0000001
 43
0.0000001
 44
0.0000000001
 40
0.0
 40
0.0
 40
0.0
 40
0.0
 40
0.1930715584
 40
0.4116186058
 40
0.675561035
 40
1.0
 40
1.0
 40
1.0
 40
1.0
 10
1.923853753
 20
23.319566049
 30
0.0
 10
1.924722965
 20
23.3786726517
 30
0.0
 10
1.9583444697
 20
23.5056389921
 30
0.0
 10
2.0963303145
 20
23.6670510636
 30
0.0
 10
2.3177886806
 20
23.7867190514
 30
0.0
 10
2.4998344043
 20
23.8158906254
 30
0.0
 10
2.5991680908
 20
23.815666502
 30
0.0
  0
SPLINE
  5
6D3
100
AcDbEntity
  8
RACCORDO
100
AcDbSpline
 62
250
  6
CONTINUOUS
 70
0
 71
3
 72
9
 73
5
 74
0
 42
0.0000001
 43
0.0000001
 44
0.0000000001
 40
0.0
 40
0.0
 40
0.0
 40
0.0
 40
0.4048361105
 40
1.0
 40
1.0
 40
1.0
 40
1.0
 10
-2.0841622221
 20
22.1579746587
 30
0.0
 10
-2.3713883594
 20
22.141694959
 30
0.0
 10
-3.0798400311
 20
22.0845381005
 30
0.0
 10
-3.7870057889
 20
22.0140037584
 30
0.0
 10
-4.2072294267
 20
21.9661549201
 30
0.0
  0
SPLINE
  5
6D4
100
AcDbEntity
  8
RACCORDO
100
AcDbSpline
 62
250
  6
CONTINUOUS
 70
0
 71
3
 72
10
 73
6
 74
0
 42
0.0000001
 43
0.0000001
 44
0.0000000001
 40
0.0
 40
0.0
 40
0.0
 40
0.0
 40
0.1641845847
 40
0.4994563235
 40
1.0
 40
1.0
 40
1.0
 40
1.0
 10
-1.923853753
 20
22.249810922
 30
0.0
 10
-1.9242683679
 20
22.2390140679
 30
0.0
 10
-1.9375885515
 20
22.2066771232
 30
0.0
 10
-1.9966461603
 20
22.1704153182
 30
0.0
 10
-2.0512751594
 20
22.1598457059
 30
0.0
 10
-2.0841622221
 20
22.1579746587
 30
0.0
  0
SPLINE
  5
6D5
100
AcDbEntity
  8
RACCORDO
100
AcDbSpline
 62
250
  6
CONTINUOUS
 70
0
 71
3
 72
11
 73
7
 74
0
 42
0.0000001
 43
0.0000001
 44
0.0000000001
 40
0.0
 40
0.0
 40
0.0
 40
0.0
 40
0.3244487474
 40
0.5883886419
 40
0.8069296255
 40
1.0
 40
1.0
 40
1.0
 40
1.0
 10
-2.5991680908
 20
23.815666502
 30
0.0
 10
-2.4998174363
 20
23.8158903732
 30
0.0
 10
-2.3177419955
 20
23.786710114
 30
0.0
 10
-2.0962651244
 20
23.6670031557
 30
0.0
 10
-1.9582791004
 20
23.5055440659
 30
0.0
 10
-1.9247127362
 20
23.3785483782
 30
0.0
 10
-1.9238519605
 20
23.3194336991
 30
0.0
  0
SPLINE
  5
6D6
100
AcDbEntity
  8
RACCORDO
100
AcDbSpline
 62
250
  6
CONTINUOUS
 70
0
 71
3
 72
11
 73
7
 74
0
 42
0.0000001
 43
0.0000001
 44
0.0000000001
 40
0.0
 40
0.0
 40
0.0
 40
0.0
 40
0.2534053885
 40
0.5041651307
 40
0.7526721975
 40
1.0
 40
1.0
 40
1.0
 40
1.0
 10
2.7833500748
 20
21.267356684
 30
0.0
 10
2.6649106352
 20
21.283983264
 30
0.0
 10
2.433088392
 20
21.3603323802
 30
0.0
 10
2.1508738013
 20
21.588041219
 30
0.0
 10
1.9668116097
 20
21.8970272962
 30
0.0
 10
1.9241178608
 20
22.1330789145
 30
0.0
 10
1.923853753
 20
22.249810922
 30
0.0
  0
SPLINE
  5
6D7
100
AcDbEntity
  8
RACCORDO
100
AcDbSpline
 62
250
  6
CONTINUOUS
 70
0
 71
3
 72
9
 73
5
 74
0
 42
0.0000001
 43
0.0000001
 44
0.0000000001
 40
0.0
 40
0.0
 40
0.0
 40
0.0
 40
0.4999629654
 40
1.0
 40
1.0
 40
1.0
 40
1.0
 10
17.2690119796
 20
11.9458772918
 30
0.0
 10
17.1031718736
 20
11.9459572649
 30
0.0
 10
16.7660151618
 20
12.031436567
 30
0.0
 10
16.5134376675
 20
12.2705689129
 30
0.0
 10
16.424632547
 20
12.4106572688
 30
0.0
  0
SPLINE
  5
6D8
100
AcDbEntity
  8
RACCORDO
100
AcDbSpline
 62
7
  6
CONTINUOUS
 70
0
 71
3
 72
9
 73
5
 74
0
 42
0.0000001
 43
0.0000001
 44
0.0000000001
 40
0.0
 40
0.0
 40
0.0
 40
0.0
 40
0.5000010731
 40
1.0
 40
1.0
 40
1.0
 40
1.0
 10
17.1736922405
 20
11.7730841559
 30
0.0
 10
17.0070779321
 20
11.7730841557
 30
0.0
 10
16.6682757672
 20
11.8592625767
 30
0.0
 10
16.4152346167
 20
12.1004755062
 30
0.0
 10
16.3266970091
 20
12.2416179217
 30
0.0
  0
SPLINE
  5
6D9
100
AcDbEntity
  8
RACCORDO
100
AcDbSpline
 62
250
  6
CONTINUOUS
 70
0
 71
3
 72
9
 73
5
 74
0
 42
0.0000001
 43
0.0000001
 44
0.0000000001
 40
0.0
 40
0.0
 40
0.0
 40
0.0
 40
0.5000371612
 40
1.0
 40
1.0
 40
1.0
 40
1.0
 10
16.424632547
 20
-8.4106572688
 30
0.0
 10
16.5134448861
 20
-8.2705734254
 30
0.0
 10
16.7660114791
 20
-8.0314377637
 30
0.0
 10
17.1031719002
 20
-7.9459497687
 30
0.0
 10
17.2690119796
 20
-7.9458772918
 30
0.0
  0
SPLINE
  5
6DA
100
AcDbEntity
  8
RACCORDO
100
AcDbSpline
 62
7
  6
CONTINUOUS
 70
0
 71
3
 72
9
 73
5
 74
0
 42
0.0000001
 43
0.0000001
 44
0.0000000001
 40
0.0
 40
0.0
 40
0.0
 40
0.0
 40
0.5000010726
 40
1.0
 40
1.0
 40
1.0
 40
1.0
 10
16.3266970091
 20
-8.2416179217
 30
0.0
 10
16.4152349966
 20
-8.1004749005
 30
0.0
 10
16.6682765569
 20
-7.8592621399
 30
0.0
 10
17.0070786471
 20
-7.7730841557
 30
0.0
 10
17.1736922405
 20
-7.7730841559
 30
0.0
  0
SPLINE
  5
6DB
100
AcDbEntity
  8
RACCORDO
100
AcDbSpline
 62
250
  6
CONTINUOUS
 70
0
 71
3
 72
11
 73
7
 74
0
 42
0.0000001
 43
0.0000001
 44
0.0000000001
 40
0.0
 40
0.0
 40
0.0
 40
0.0
 40
0.2473277888
 40
0.4958348924
 40
0.7465945899
 40
1.0
 40
1.0
 40
1.0
 40
1.0
 10
1.923853753
 20
-18.249810922
 30
0.0
 10
1.9241177129
 20
-18.1330789221
 30
0.0
 10
1.9668118134
 20
-17.8970273383
 30
0.0
 10
2.1508737155
 20
-17.58804116
 30
0.0
 10
2.4330884294
 20
-17.3603324212
 30
0.0
 10
2.6649106238
 20
-17.2839832454
 30
0.0
 10
2.7833500748
 20
-17.267356684
 30
0.0
  0
SPLINE
  5
6DC
100
AcDbEntity
  8
RACCORDO
100
AcDbSpline
 62
250
  6
CONTINUOUS
 70
0
 71
3
 72
11
 73
7
 74
0
 42
0.0000001
 43
0.0000001
 44
0.0000000001
 40
0.0
 40
0.0
 40
0.0
 40
0.0
 40
0.2534053885
 40
0.5041651307
 40
0.7526721975
 40
1.0
 40
1.0
 40
1.0
 40
1.0
 10
-2.7833500748
 20
-17.267356684
 30
0.0
 10
-2.6649106352
 20
-17.283983264
 30
0.0
 10
-2.433088392
 20
-17.3603323802
 30
0.0
 10
-2.1508738013
 20
-17.588041219
 30
0.0
 10
-1.9668116097
 20
-17.8970272962
 30
0.0
 10
-1.9241178608
 20
-18.1330789145
 30
0.0
 10
-1.923853753
 20
-18.249810922
 30
0.0
  0
SPLINE
  5
6DD
100
AcDbEntity
  8
RACCORDO
100
AcDbSpline
 62
250
  6
CONTINUOUS
 70
0
 71
3
 72
9
 73
5
 74
0
 42
0.0000001
 43
0.0000001
 44
0.0000000001
 40
0.0
 40
0.0
 40
0.0
 40
0.0
 40
0.4999629654
 40
1.0
 40
1.0
 40
1.0
 40
1.0
 10
-17.2690119796
 20
-7.9458772918
 30
0.0
 10
-17.1031718736
 20
-7.9459572649
 30
0.0
 10
-16.7660151618
 20
-8.031436567
 30
0.0
 10
-16.5134376675
 20
-8.2705689129
 30
0.0
 10
-16.424632547
 20
-8.4106572688
 30
0.0
  0
SPLINE
  5
6DE
100
AcDbEntity
  8
RACCORDO
100
AcDbSpline
 62
7
  6
CONTINUOUS
 70
0
 71
3
 72
9
 73
5
 74
0
 42
0.0000001
 43
0.0000001
 44
0.0000000001
 40
0.0
 40
0.0
 40
0.0
 40
0.0
 40
0.5000010731
 40
1.0
 40
1.0
 40
1.0
 40
1.0
 10
-17.1736922405
 20
-7.7730841559
 30
0.0
 10
-17.0070779321
 20
-7.7730841557
 30
0.0
 10
-16.6682757672
 20
-7.8592625767
 30
0.0
 10
-16.4152346167
 20
-8.1004755062
 30
0.0
 10
-16.3266970091
 20
-8.2416179217
 30
0.0
  0
SPLINE
  5
6DF
100
AcDbEntity
  8
RACCORDO
100
AcDbSpline
 62
250
  6
CONTINUOUS
 70
0
 71
3
 72
9
 73
5
 74
0
 42
0.0000001
 43
0.0000001
 44
0.0000000001
 40
0.0
 40
0.0
 40
0.0
 40
0.0
 40
0.5000371612
 40
1.0
 40
1.0
 40
1.0
 40
1.0
 10
-16.424632547
 20
12.4106572688
 30
0.0
 10
-16.5134448861
 20
12.2705734254
 30
0.0
 10
-16.7660114791
 20
12.0314377637
 30
0.0
 10
-17.1031719002
 20
11.9459497687
 30
0.0
 10
-17.2690119796
 20
11.9458772918
 30
0.0
  0
SPLINE
  5
6E0
100
AcDbEntity
  8
RACCORDO
100
AcDbSpline
 62
7
  6
CONTINUOUS
 70
0
 71
3
 72
9
 73
5
 74
0
 42
0.0000001
 43
0.0000001
 44
0.0000000001
 40
0.0
 40
0.0
 40
0.0
 40
0.0
 40
0.5000010726
 40
1.0
 40
1.0
 40
1.0
 40
1.0
 10
-16.3266970091
 20
12.2416179217
 30
0.0
 10
-16.4152349966
 20
12.1004749005
 30
0.0
 10
-16.6682765569
 20
11.8592621399
 30
0.0
 10
-17.0070786471
 20
11.7730841557
 30
0.0
 10
-17.1736922405
 20
11.7730841559
 30
0.0
  0
SPLINE
  5
6E1
100
AcDbEntity
  8
RACCORDO
100
AcDbSpline
 62
250
  6
CONTINUOUS
 70
0
 71
3
 72
11
 73
7
 74
0
 42
0.0000001
 43
0.0000001
 44
0.0000000001
 40
0.0
 40
0.0
 40
0.0
 40
0.0
 40
0.2473277888
 40
0.4958348924
 40
0.7465945899
 40
1.0
 40
1.0
 40
1.0
 40
1.0
 10
-1.923853753
 20
22.249810922
 30
0.0
 10
-1.9241177129
 20
22.1330789221
 30
0.0
 10
-1.9668118134
 20
21.8970273383
 30
0.0
 10
-2.1508737155
 20
21.58804116
 30
0.0
 10
-2.4330884294
 20
21.3603324212
 30
0.0
 10
-2.6649106238
 20
21.2839832454
 30
0.0
 10
-2.7833500748
 20
21.267356684
 30
0.0
  0
SPLINE
  5
6E2
100
AcDbEntity
  8
RACCORDO
100
AcDbSpline
 62
250
  6
CONTINUOUS
 70
0
 71
3
 72
11
 73
7
 74
0
 42
0.0000001
 43
0.0000001
 44
0.0000000001
 40
0.0
 40
0.0
 40
0.0
 40
0.0
 40
0.2466972443
 40
0.4951894826
 40
0.7464850084
 40
1.0
 40
1.0
 40
1.0
 40
1.0
 10
23.4306336755
 20
-7.9304813706
 30
0.0
 10
23.5588643401
 20
-7.9299121571
 30
0.0
 10
23.8187687876
 20
-7.877512967
 30
0.0
 10
24.1490766917
 20
-7.6561314173
 30
0.0
 10
24.3729376089
 20
-7.3229876547
 30
0.0
 10
24.4257849001
 20
-7.0576744891
 30
0.0
 10
24.4257464327
 20
-6.9258987375
 30
0.0
  0
SPLINE
  5
6E3
100
AcDbEntity
  8
RACCORDO
100
AcDbSpline
 62
250
  6
CONTINUOUS
 70
0
 71
3
 72
11
 73
7
 74
0
 42
0.0000001
 43
0.0000001
 44
0.0000000001
 40
0.0
 40
0.0
 40
0.0
 40
0.0
 40
0.2535098798
 40
0.5048020827
 40
0.7532950627
 40
1.0
 40
1.0
 40
1.0
 40
1.0
 10
24.4257464327
 20
10.9258987375
 30
0.0
 10
24.4257868682
 20
11.0576718057
 30
0.0
 10
24.3729384151
 20
11.3229800567
 30
0.0
 10
24.1490852943
 20
11.6561237461
 30
0.0
 10
23.8187768891
 20
11.8775074224
 30
0.0
 10
23.5588683301
 20
11.9299158112
 30
0.0
 10
23.4306336755
 20
11.9304813706
 30
0.0
  0
SPLINE
  5
6E4
100
AcDbEntity
  8
RACCORDO
100
AcDbSpline
 62
250
  6
CONTINUOUS
 70
0
 71
3
 72
11
 73
7
 74
0
 42
0.0000001
 43
0.0000001
 44
0.0000000001
 40
0.0
 40
0.0
 40
0.0
 40
0.0
 40
0.2535098798
 40
0.5048020827
 40
0.7532950627
 40
1.0
 40
1.0
 40
1.0
 40
1.0
 10
-24.4257464327
 20
-6.9258987375
 30
0.0
 10
-24.4257868682
 20
-7.0576718057
 30
0.0
 10
-24.3729384151
 20
-7.3229800567
 30
0.0
 10
-24.1490852943
 20
-7.6561237461
 30
0.0
 10
-23.8187768891
 20
-7.8775074224
 30
0.0
 10
-23.5588683301
 20
-7.9299158112
 30
0.0
 10
-23.4306336755
 20
-7.9304813706
 30
0.0
  0
SPLINE
  5
6E5
100
AcDbEntity
  8
RACCORDO
100
AcDbSpline
 62
250
  6
CONTINUOUS
 70
0
 71
3
 72
11
 73
7
 74
0
 42
0.0000001
 43
0.0000001
 44
0.0000000001
 40
0.0
 40
0.0
 40
0.0
 40
0.0
 40
0.2466972443
 40
0.4951894826
 40
0.7464850084
 40
1.0
 40
1.0
 40
1.0
 40
1.0
 10
-23.4306336755
 20
11.9304813706
 30
0.0
 10
-23.5588643401
 20
11.9299121571
 30
0.0
 10
-23.8187687876
 20
11.877512967
 30
0.0
 10
-24.1490766917
 20
11.6561314173
 30
0.0
 10
-24.3729376089
 20
11.3229876547
 30
0.0
 10
-24.4257849001
 20
11.0576744891
 30
0.0
 10
-24.4257464327
 20
10.9258987375
 30
0.0
  0
SPLINE
  5
6E6
100
AcDbEntity
  8
RACCORDO
100
AcDbSpline
 62
250
  6
CONTINUOUS
 70
0
 71
3
 72
12
 73
8
 74
0
 42
0.0000001
 43
0.0000001
 44
0.0000000001
 40
0.0
 40
0.0
 40
0.0
 40
0.0
 40
0.0330746663
 40
0.0945804992
 40
0.3107082776
 40
0.6278199519
 40
1.0
 40
1.0
 40
1.0
 40
1.0
 10
-25.6251438945
 20
-20.3251408483
 30
0.0
 10
-25.6308000003
 20
-20.3250029268
 30
0.0
 10
-25.6437157289
 20
-20.3111620662
 30
0.0
 10
-25.661304083
 20
-20.2626545134
 30
0.0
 10
-25.6797551888
 20
-20.1605531402
 30
0.0
 10
-25.6927290814
 20
-20.0069936216
 30
0.0
 10
-25.6959651004
 20
-19.888809397
 30
0.0
 10
-25.6959962745
 20
-19.8251438945
 30
0.0
  0
SPLINE
  5
6E7
100
AcDbEntity
  8
RACCORDO
100
AcDbSpline
 62
250
  6
CONTINUOUS
 70
0
 71
3
 72
12
 73
8
 74
0
 42
0.0000001
 43
0.0000001
 44
0.0000000001
 40
0.0
 40
0.0
 40
0.0
 40
0.0
 40
0.033071968
 40
0.0945730675
 40
0.3106793673
 40
0.6277732087
 40
1.0
 40
1.0
 40
1.0
 40
1.0
 10
-4.1363770467
 20
-20.3144031845
 30
0.0
 10
-4.142032697
 20
-20.3142652741
 30
0.0
 10
-4.1549488866
 20
-20.3004275272
 30
0.0
 10
-4.1725342184
 20
-20.2519223804
 30
0.0
 10
-4.1909871314
 20
-20.1498307505
 30
0.0
 10
-4.203961177
 20
-19.9962688306
 30
0.0
 10
-4.2071982487
 20
-19.8780797953
 30
0.0
 10
-4.2072294267
 20
-19.8144062307
 30
0.0
  0
SPLINE
  5
6E8
100
AcDbEntity
  8
RACCORDO
100
AcDbSpline
 62
250
  6
CONTINUOUS
 70
0
 71
3
 72
11
 73
7
 74
0
 42
0.0000001
 43
0.0000001
 44
0.0000000001
 40
0.0
 40
0.0
 40
0.0
 40
0.0
 40
0.2019455127
 40
0.4349816986
 40
0.7056827698
 40
1.0
 40
1.0
 40
1.0
 40
1.0
 10
-2.9303310448
 20
-20.3156634558
 30
0.0
 10
-2.8862519334
 20
-20.315488362
 30
0.0
 10
-2.7905054169
 20
-20.2836299023
 30
0.0
 10
-2.6837445081
 20
-20.1666076831
 30
0.0
 10
-2.6150544013
 20
-20.0039128962
 30
0.0
 10
-2.5992862965
 20
-19.879908211
 30
0.0
 10
-2.5991750221
 20
-19.815666502
 30
0.0
  0
SPLINE
  5
6E9
100
AcDbEntity
  8
RACCORDO
100
AcDbSpline
 62
250
  6
CONTINUOUS
 70
0
 71
3
 72
12
 73
8
 74
0
 42
0.0000001
 43
0.0000001
 44
0.0000000001
 40
0.0
 40
0.0
 40
0.0
 40
0.0
 40
0.033071968
 40
0.0945730675
 40
0.3106793673
 40
0.6277732087
 40
1.0
 40
1.0
 40
1.0
 40
1.0
 10
-25.6251438945
 20
24.3251408483
 30
0.0
 10
-25.6307995448
 20
24.3250029379
 30
0.0
 10
-25.6437157344
 20
24.311165191
 30
0.0
 10
-25.6613010662
 20
24.2626600442
 30
0.0
 10
-25.6797539793
 20
24.1605684143
 30
0.0
 10
-25.6927280248
 20
24.0070064944
 30
0.0
 10
-25.6959650965
 20
23.8888174591
 30
0.0
 10
-25.6959962745
 20
23.8251438945
 30
0.0
  0
SPLINE
  5
6EA
100
AcDbEntity
  8
RACCORDO
100
AcDbSpline
 62
250
  6
CONTINUOUS
 70
0
 71
3
 72
12
 73
8
 74
0
 42
0.0000001
 43
0.0000001
 44
0.0000000001
 40
0.0
 40
0.0
 40
0.0
 40
0.0
 40
0.033071968
 40
0.0945730667
 40
0.3106793638
 40
0.6277732061
 40
1.0
 40
1.0
 40
1.0
 40
1.0
 10
-4.1363770467
 20
24.3144031845
 30
0.0
 10
-4.142032697
 20
24.3142652741
 30
0.0
 10
-4.1549488871
 20
24.3004275281
 30
0.0
 10
-4.1725342188
 20
24.2519223812
 30
0.0
 10
-4.1909871325
 20
24.1498307523
 30
0.0
 10
-4.2039611777
 20
23.9962688318
 30
0.0
 10
-4.207198249
 20
23.8780797959
 30
0.0
 10
-4.2072294266
 20
23.8144062307
 30
0.0
  0
SPLINE
  5
6EB
100
AcDbEntity
  8
RACCORDO
100
AcDbSpline
 62
250
  6
CONTINUOUS
 70
0
 71
3
 72
11
 73
7
 74
0
 42
0.0000001
 43
0.0000001
 44
0.0000000001
 40
0.0
 40
0.0
 40
0.0
 40
0.0
 40
0.2019383014
 40
0.4349754152
 40
0.7056799418
 40
1.0
 40
1.0
 40
1.0
 40
1.0
 10
-2.9303310497
 20
24.3156380455
 30
0.0
 10
-2.8862569396
 20
24.3154598009
 30
0.0
 10
-2.7905223246
 20
24.2835960957
 30
0.0
 10
-2.6837754824
 20
24.1665803814
 30
0.0
 10
-2.6150873694
 20
24.0038987669
 30
0.0
 10
-2.5993125486
 20
23.8799038402
 30
0.0
 10
-2.5991959336
 20
23.8156664999
 30
0.0
  0
SPLINE
  5
6EC
100
AcDbEntity
  8
RACCORDO
100
AcDbSpline
 62
250
  6
CONTINUOUS
 70
0
 71
3
 72
12
 73
8
 74
0
 42
0.0000001
 43
0.0000001
 44
0.0000000001
 40
0.0
 40
0.0
 40
0.0
 40
0.0
 40
0.0330746663
 40
0.0945804992
 40
0.3107082776
 40
0.6278199519
 40
1.0
 40
1.0
 40
1.0
 40
1.0
 10
25.6251438945
 20
24.3251408483
 30
0.0
 10
25.6308000003
 20
24.3250029268
 30
0.0
 10
25.6437157289
 20
24.3111620662
 30
0.0
 10
25.661304083
 20
24.2626545134
 30
0.0
 10
25.6797551888
 20
24.1605531402
 30
0.0
 10
25.6927290814
 20
24.0069936216
 30
0.0
 10
25.6959651004
 20
23.888809397
 30
0.0
 10
25.6959962745
 20
23.8251438945
 30
0.0
  0
SPLINE
  5
6ED
100
AcDbEntity
  8
RACCORDO
100
AcDbSpline
 62
250
  6
CONTINUOUS
 70
0
 71
3
 72
12
 73
8
 74
0
 42
0.0000001
 43
0.0000001
 44
0.0000000001
 40
0.0
 40
0.0
 40
0.0
 40
0.0
 40
0.033071968
 40
0.0945730675
 40
0.3106793673
 40
0.6277732087
 40
1.0
 40
1.0
 40
1.0
 40
1.0
 10
4.1363770467
 20
24.3144031845
 30
0.0
 10
4.142032697
 20
24.3142652741
 30
0.0
 10
4.1549488866
 20
24.3004275272
 30
0.0
 10
4.1725342184
 20
24.2519223804
 30
0.0
 10
4.1909871314
 20
24.1498307505
 30
0.0
 10
4.203961177
 20
23.9962688306
 30
0.0
 10
4.2071982487
 20
23.8780797953
 30
0.0
 10
4.2072294267
 20
23.8144062307
 30
0.0
  0
SPLINE
  5
6EE
100
AcDbEntity
  8
RACCORDO
100
AcDbSpline
 62
250
  6
CONTINUOUS
 70
0
 71
3
 72
11
 73
7
 74
0
 42
0.0000001
 43
0.0000001
 44
0.0000000001
 40
0.0
 40
0.0
 40
0.0
 40
0.0
 40
0.2019455127
 40
0.4349816986
 40
0.7056827698
 40
1.0
 40
1.0
 40
1.0
 40
1.0
 10
2.9303310448
 20
24.3156634558
 30
0.0
 10
2.8862519334
 20
24.315488362
 30
0.0
 10
2.7905054169
 20
24.2836299023
 30
0.0
 10
2.6837445081
 20
24.1666076831
 30
0.0
 10
2.6150544013
 20
24.0039128962
 30
0.0
 10
2.5992862965
 20
23.879908211
 30
0.0
 10
2.5991750221
 20
23.815666502
 30
0.0
  0
SPLINE
  5
6EF
100
AcDbEntity
  8
RACCORDO
100
AcDbSpline
 62
250
  6
CONTINUOUS
 70
0
 71
3
 72
12
 73
8
 74
0
 42
0.0000001
 43
0.0000001
 44
0.0000000001
 40
0.0
 40
0.0
 40
0.0
 40
0.0
 40
0.033071968
 40
0.0945730675
 40
0.3106793673
 40
0.6277732087
 40
1.0
 40
1.0
 40
1.0
 40
1.0
 10
25.6251438945
 20
-20.3251408483
 30
0.0
 10
25.6307995448
 20
-20.3250029379
 30
0.0
 10
25.6437157344
 20
-20.311165191
 30
0.0
 10
25.6613010662
 20
-20.2626600442
 30
0.0
 10
25.6797539793
 20
-20.1605684143
 30
0.0
 10
25.6927280248
 20
-20.0070064944
 30
0.0
 10
25.6959650965
 20
-19.8888174591
 30
0.0
 10
25.6959962745
 20
-19.8251438945
 30
0.0
  0
LINE
  5
6F0
100
AcDbEntity
  8
RACCORDO
100
AcDbLine
 62
250
  6
CONTINUOUS
 10
2.7833500751
 20
-17.267356684
 11
2.7204210661
 21
-17.0801226963
  0
SPLINE
  5
6F1
100
AcDbEntity
  8
RACCORDO
100
AcDbSpline
 62
250
  6
CONTINUOUS
 70
0
 71
3
 72
9
 73
5
 74
0
 42
0.0000001
 43
0.0000001
 44
0.0000000001
 40
0.0
 40
0.0
 40
0.0
 40
0.0
 40
0.3997305974
 40
1.0
 40
1.0
 40
1.0
 40
1.0
 10
2.7833500751
 20
-17.267356684
 30
0.0
 10
2.9333300191
 20
-17.2521732266
 30
0.0
 10
3.3067255243
 20
-17.1976956809
 30
0.0
 10
3.6778725841
 20
-17.1303906971
 30
0.0
 10
3.8995478757
 20
-17.0845085924
 30
0.0
  0
SPLINE
  5
6F2
100
AcDbEntity
  8
RACCORDO
100
AcDbSpline
 62
250
  6
CONTINUOUS
 70
0
 71
3
 72
9
 73
5
 74
0
 42
0.0000001
 43
0.0000001
 44
0.0000000001
 40
0.0
 40
0.0
 40
0.0
 40
0.0
 40
0.6002418331
 40
1.0
 40
1.0
 40
1.0
 40
1.0
 10
-3.8995478757
 20
-17.0845085924
 30
0.0
 10
-3.6778829462
 20
-17.1303894595
 30
0.0
 10
-3.3067356826
 20
-17.1976933079
 30
0.0
 10
-2.9333403633
 20
-17.2521721858
 30
0.0
 10
-2.7833500751
 20
-17.267356684
 30
0.0
  0
LINE
  5
6F3
100
AcDbEntity
  8
RACCORDO
100
AcDbLine
 62
250
  6
CONTINUOUS
 10
-2.7204210557
 20
-17.0801226978
 11
-2.7833500751
 21
-17.267356684
  0
LINE
  5
6F4
100
AcDbEntity
  8
RACCORDO
100
AcDbLine
 62
250
  6
CONTINUOUS
 10
2.7204210557
 20
21.0801226978
 11
2.7833500751
 21
21.267356684
  0
SPLINE
  5
6F5
100
AcDbEntity
  8
RACCORDO
100
AcDbSpline
 62
250
  6
CONTINUOUS
 70
0
 71
3
 72
9
 73
5
 74
0
 42
0.0000001
 43
0.0000001
 44
0.0000000001
 40
0.0
 40
0.0
 40
0.0
 40
0.0
 40
0.6002418331
 40
1.0
 40
1.0
 40
1.0
 40
1.0
 10
3.8995478757
 20
21.0845085924
 30
0.0
 10
3.6778829462
 20
21.1303894595
 30
0.0
 10
3.3067356826
 20
21.1976933079
 30
0.0
 10
2.9333403633
 20
21.2521721858
 30
0.0
 10
2.7833500751
 20
21.267356684
 30
0.0
  0
LINE
  5
6F6
100
AcDbEntity
  8
RACCORDO
100
AcDbLine
 62
250
  6
CONTINUOUS
 10
-2.7833500751
 20
21.267356684
 11
-2.7204210661
 21
21.0801226963
  0
SPLINE
  5
6F7
100
AcDbEntity
  8
RACCORDO
100
AcDbSpline
 62
250
  6
CONTINUOUS
 70
0
 71
3
 72
9
 73
5
 74
0
 42
0.0000001
 43
0.0000001
 44
0.0000000001
 40
0.0
 40
0.0
 40
0.0
 40
0.0
 40
0.3997305974
 40
1.0
 40
1.0
 40
1.0
 40
1.0
 10
-2.7833500751
 20
21.267356684
 30
0.0
 10
-2.9333300191
 20
21.2521732266
 30
0.0
 10
-3.3067255243
 20
21.1976956809
 30
0.0
 10
-3.6778725841
 20
21.1303906971
 30
0.0
 10
-3.8995478757
 20
21.0845085924
 30
0.0
  0
SPLINE
  5
6F8
100
AcDbEntity
  8
RACCORDO
100
AcDbSpline
 62
250
  6
CONTINUOUS
 70
0
 71
3
 72
12
 73
8
 74
0
 42
0.0000001
 43
0.0000001
 44
0.0000000001
 40
0.0
 40
0.0
 40
0.0
 40
0.0
 40
0.033071968
 40
0.0945730667
 40
0.3106793638
 40
0.6277732061
 40
1.0
 40
1.0
 40
1.0
 40
1.0
 10
4.1363770467
 20
-20.3144031845
 30
0.0
 10
4.142032697
 20
-20.3142652741
 30
0.0
 10
4.1549488871
 20
-20.3004275281
 30
0.0
 10
4.1725342188
 20
-20.2519223812
 30
0.0
 10
4.1909871325
 20
-20.1498307523
 30
0.0
 10
4.2039611777
 20
-19.9962688318
 30
0.0
 10
4.207198249
 20
-19.8780797959
 30
0.0
 10
4.2072294266
 20
-19.8144062307
 30
0.0
  0
SPLINE
  5
6F9
100
AcDbEntity
  8
RACCORDO
100
AcDbSpline
 62
250
  6
CONTINUOUS
 70
0
 71
3
 72
11
 73
7
 74
0
 42
0.0000001
 43
0.0000001
 44
0.0000000001
 40
0.0
 40
0.0
 40
0.0
 40
0.0
 40
0.2019383014
 40
0.4349754152
 40
0.7056799418
 40
1.0
 40
1.0
 40
1.0
 40
1.0
 10
2.9303310497
 20
-20.3156380455
 30
0.0
 10
2.8862569396
 20
-20.3154598009
 30
0.0
 10
2.7905223246
 20
-20.2835960957
 30
0.0
 10
2.6837754824
 20
-20.1665803814
 30
0.0
 10
2.6150873694
 20
-20.0038987669
 30
0.0
 10
2.5993125486
 20
-19.8799038402
 30
0.0
 10
2.5991959336
 20
-19.8156664999
 30
0.0
  0
LINE
  5
6FA
100
AcDbEntity
  8
RACCORDO
100
AcDbLine
 62
250
  6
CONTINUOUS
 10
-1.8616356596
 20
-18.0701553951
 11
-1.923853753
 21
-18.249810922
  0
LINE
  5
6FB
100
AcDbEntity
  8
RACCORDO
100
AcDbLine
 62
250
  6
CONTINUOUS
 10
-1.923853753
 20
22.249810922
 11
-1.8616356596
 21
22.0701553957
  0
LINE
  5
6FC
100
AcDbEntity
  8
RACCORDO
100
AcDbLine
 62
250
  6
CONTINUOUS
 10
1.923853753
 20
-18.249810922
 11
1.8616356596
 21
-18.0701553957
  0
LINE
  5
6FD
100
AcDbEntity
  8
RACCORDO
100
AcDbLine
 62
250
  6
CONTINUOUS
 10
1.8616356596
 20
22.0701553951
 11
1.923853753
 21
22.249810922
  0
SPLINE
  5
6FE
100
AcDbEntity
  8
RACCORDO
100
AcDbSpline
 62
250
  6
CONTINUOUS
 70
0
 71
3
 72
11
 73
7
 74
0
 42
0.0000001
 43
0.0000001
 44
0.0000000001
 40
0.0
 40
0.0
 40
0.0
 40
0.0
 40
0.2489600779
 40
0.4986072421
 40
0.7490626011
 40
1.0
 40
1.0
 40
1.0
 40
1.0
 10
-23.5581679594
 20
12.8303442963
 30
0.0
 10
-23.8041118495
 20
12.8297505381
 30
0.0
 10
-24.301758675
 20
12.7298553834
 30
0.0
 10
-24.9313269294
 20
12.3067861113
 30
0.0
 10
-25.3540091591
 20
11.6745149624
 30
0.0
 10
-25.4531509976
 20
11.1737967154
 30
0.0
 10
-25.4531436423
 20
10.9258987375
 30
0.0
  0
SPLINE
  5
6FF
100
AcDbEntity
  8
RACCORDO
100
AcDbSpline
 62
250
  6
CONTINUOUS
 70
0
 71
3
 72
11
 73
7
 74
0
 42
0.0000001
 43
0.0000001
 44
0.0000000001
 40
0.0
 40
0.0
 40
0.0
 40
0.0
 40
0.250932098
 40
0.5013832825
 40
0.7510302389
 40
1.0
 40
1.0
 40
1.0
 40
1.0
 10
-25.4531436423
 20
-6.9258987375
 30
0.0
 10
-25.4531561516
 20
-7.173791233
 30
0.0
 10
-25.3540066811
 20
-7.6744981584
 30
0.0
 10
-24.9313423192
 20
-8.3067664525
 30
0.0
 10
-24.3017772416
 20
-8.7298433618
 30
0.0
 10
-23.8041211981
 20
-8.8297614687
 30
0.0
 10
-23.5581679594
 20
-8.8303442963
 30
0.0
  0
SPLINE
  5
700
100
AcDbEntity
  8
RACCORDO
100
AcDbSpline
 62
250
  6
CONTINUOUS
 70
0
 71
3
 72
11
 73
7
 74
0
 42
0.0000001
 43
0.0000001
 44
0.0000000001
 40
0.0
 40
0.0
 40
0.0
 40
0.0
 40
0.2489600779
 40
0.4986072421
 40
0.7490626011
 40
1.0
 40
1.0
 40
1.0
 40
1.0
 10
23.5581679594
 20
-8.8303442963
 30
0.0
 10
23.8041118495
 20
-8.8297505381
 30
0.0
 10
24.301758675
 20
-8.7298553834
 30
0.0
 10
24.9313269294
 20
-8.3067861113
 30
0.0
 10
25.3540091591
 20
-7.6745149624
 30
0.0
 10
25.4531509976
 20
-7.1737967154
 30
0.0
 10
25.4531436423
 20
-6.9258987375
 30
0.0
  0
SPLINE
  5
701
100
AcDbEntity
  8
RACCORDO
100
AcDbSpline
 62
250
  6
CONTINUOUS
 70
0
 71
3
 72
11
 73
7
 74
0
 42
0.0000001
 43
0.0000001
 44
0.0000000001
 40
0.0
 40
0.0
 40
0.0
 40
0.0
 40
0.250932098
 40
0.5013832825
 40
0.7510302389
 40
1.0
 40
1.0
 40
1.0
 40
1.0
 10
25.4531436423
 20
10.9258987375
 30
0.0
 10
25.4531561516
 20
11.173791233
 30
0.0
 10
25.3540066811
 20
11.6744981584
 30
0.0
 10
24.9313423192
 20
12.3067664525
 30
0.0
 10
24.3017772416
 20
12.7298433618
 30
0.0
 10
23.8041211981
 20
12.8297614687
 30
0.0
 10
23.5581679594
 20
12.8303442963
 30
0.0
  0
SPLINE
  5
702
100
AcDbEntity
  8
RACCORDO
100
AcDbSpline
 62
250
  6
CONTINUOUS
 70
0
 71
3
 72
11
 73
7
 74
0
 42
0.0000001
 43
0.0000001
 44
0.0000000001
 40
0.0
 40
0.0
 40
0.0
 40
0.0
 40
0.2407768515
 40
0.4870298633
 40
0.7406777487
 40
1.0
 40
1.0
 40
1.0
 40
1.0
 10
2.783350186
 20
-17.2673574537
 30
0.0
 10
2.6858465787
 20
-17.2821876108
 30
0.0
 10
2.492667069
 20
-17.3520426226
 30
0.0
 10
2.261526695
 20
-17.5588209507
 30
0.0
 10
2.1137975572
 20
-17.839387296
 30
0.0
 10
2.0824763518
 20
-18.0517666391
 30
0.0
 10
2.0841617699
 20
-18.1579746587
 30
0.0
  0
SPLINE
  5
703
100
AcDbEntity
  8
RACCORDO
100
AcDbSpline
 62
250
  6
CONTINUOUS
 70
0
 71
3
 72
13
 73
9
 74
0
 42
0.0000001
 43
0.0000001
 44
0.0000000001
 40
0.0
 40
0.0
 40
0.0
 40
0.0
 40
0.033821061
 40
0.0968649329
 40
0.1915059606
 40
0.3153389187
 40
0.6318700803
 40
1.0
 40
1.0
 40
1.0
 40
1.0
 10
3.8995472767
 20
-17.084505661
 30
0.0
 10
3.9101940022
 20
-17.0836765972
 30
0.0
 10
3.9373756857
 20
-17.1062706268
 30
0.0
 10
3.9672560859
 20
-17.1563526451
 30
0.0
 10
4.0055831974
 20
-17.2378939035
 30
0.0
 10
4.064076034
 20
-17.3958882326
 30
0.0
 10
4.1356980531
 20
-17.64156299
 30
0.0
 10
4.184135005
 20
-17.8522357212
 30
0.0
 10
4.2072294012
 20
-17.9661549201
 30
0.0
  0
SPLINE
  5
704
100
AcDbEntity
  8
RACCORDO
100
AcDbSpline
 62
250
  6
CONTINUOUS
 70
0
 71
3
 72
15
 73
11
 74
0
 42
0.0000001
 43
0.0000001
 44
0.0000000001
 40
0.0
 40
0.0
 40
0.0
 40
0.0
 40
0.0095626759
 40
0.0270891416
 40
0.0887377498
 40
0.1847179052
 40
0.3112742519
 40
0.4629301803
 40
0.6332533982
 40
1.0
 40
1.0
 40
1.0
 40
1.0
 10
16.4246800944
 20
-8.4106874196
 30
0.0
 10
16.4269775637
 20
-8.4084084193
 30
0.0
 10
16.4372835958
 20
-8.4075925724
 30
0.0
 10
16.4658420946
 20
-8.4137592413
 30
0.0
 10
16.5219161748
 20
-8.4360213755
 30
0.0
 10
16.608263481
 20
-8.4772354482
 30
0.0
 10
16.7204664067
 20
-8.5364417461
 30
0.0
 10
16.8527620727
 20
-8.6107272347
 30
0.0
 10
17.0536554493
 20
-8.7289744525
 30
0.0
 10
17.2079118665
 20
-8.8251429536
 30
0.0
 10
17.3122126502
 20
-8.8924078656
 30
0.0
  0
SPLINE
  5
705
100
AcDbEntity
  8
RACCORDO
100
AcDbSpline
 62
250
  6
CONTINUOUS
 70
0
 71
3
 72
13
 73
9
 74
0
 42
0.0000001
 43
0.0000001
 44
0.0000000001
 40
0.0
 40
0.0
 40
0.0
 40
0.0
 40
0.0343066539
 40
0.0972046482
 40
0.1914521557
 40
0.3145587064
 40
0.6304006598
 40
1.0
 40
1.0
 40
1.0
 40
1.0
 10
17.2690119796
 20
-7.9458772918
 30
0.0
 10
17.2794843933
 20
-7.9471538681
 30
0.0
 10
17.3015953111
 20
-7.9734682755
 30
0.0
 10
17.3211842588
 20
-8.0269798059
 30
0.0
 10
17.3424942285
 20
-8.1116144564
 30
0.0
 10
17.368646919
 20
-8.2730893086
 30
0.0
 10
17.3902694491
 20
-8.521385738
 30
0.0
 10
17.3962679705
 20
-8.7320818953
 30
0.0
 10
17.3965462636
 20
-8.8457402175
 30
0.0
  0
SPLINE
  5
706
100
AcDbEntity
  8
RACCORDO
100
AcDbSpline
 62
250
  6
CONTINUOUS
 70
0
 71
3
 72
13
 73
9
 74
0
 42
0.0000001
 43
0.0000001
 44
0.0000000001
 40
0.0
 40
0.0
 40
0.0
 40
0.0
 40
0.0343066409
 40
0.0972046125
 40
0.1914520858
 40
0.3145586005
 40
0.6304005681
 40
1.0
 40
1.0
 40
1.0
 40
1.0
 10
23.4306336755
 20
-7.9304813706
 30
0.0
 10
23.4411060851
 20
-7.9317579464
 30
0.0
 10
23.4632170052
 20
-7.9580723314
 30
0.0
 10
23.482805939
 20
-8.011583851
 30
0.0
 10
23.504115908
 20
-8.0962184685
 30
0.0
 10
23.5302686029
 20
-8.2576933046
 30
0.0
 10
23.5518911403
 20
-8.5059897542
 30
0.0
 10
23.5578896671
 20
-8.7166859445
 30
0.0
 10
23.5581679616
 20
-8.830344295
 30
0.0
  0
SPLINE
  5
707
100
AcDbEntity
  8
RACCORDO
100
AcDbSpline
 62
250
  6
CONTINUOUS
 70
0
 71
3
 72
13
 73
9
 74
0
 42
0.0000001
 43
0.0000001
 44
0.0000000001
 40
0.0
 40
0.0
 40
0.0
 40
0.0
 40
0.0343066538
 40
0.097204648
 40
0.1914521556
 40
0.3145587062
 40
0.6304006597
 40
1.0
 40
1.0
 40
1.0
 40
1.0
 10
23.4306336755
 20
11.9304813706
 30
0.0
 10
23.441106089
 20
11.9317579469
 30
0.0
 10
23.4632170068
 20
11.9580723543
 30
0.0
 10
23.4828059544
 20
12.0115838847
 30
0.0
 10
23.5041159238
 20
12.0962185353
 30
0.0
 10
23.5302686144
 20
12.2576933874
 30
0.0
 10
23.5518911455
 20
12.5059898168
 30
0.0
 10
23.5578896666
 20
12.7166859741
 30
0.0
 10
23.5581679594
 20
12.8303442963
 30
0.0
  0
SPLINE
  5
708
100
AcDbEntity
  8
RACCORDO
100
AcDbSpline
 62
250
  6
CONTINUOUS
 70
0
 71
3
 72
13
 73
9
 74
0
 42
0.0000001
 43
0.0000001
 44
0.0000000001
 40
0.0
 40
0.0
 40
0.0
 40
0.0
 40
0.0343071206
 40
0.0972052775
 40
0.1914528229
 40
0.3145593392
 40
0.6304010235
 40
1.0
 40
1.0
 40
1.0
 40
1.0
 10
17.2690119796
 20
11.9458772918
 30
0.0
 10
17.2794845469
 20
11.9471538527
 30
0.0
 10
17.3015959787
 20
11.9734680354
 30
0.0
 10
17.3211853102
 20
12.0269798323
 30
0.0
 10
17.3424955175
 20
12.1116144735
 30
0.0
 10
17.3686482936
 20
12.2730893838
 30
0.0
 10
17.390270463
 20
12.521385795
 30
0.0
 10
17.3962683891
 20
12.7320819297
 30
0.0
 10
17.3965462636
 20
12.8457402175
 30
0.0
  0
SPLINE
  5
709
100
AcDbEntity
  8
RACCORDO
100
AcDbSpline
 62
250
  6
CONTINUOUS
 70
0
 71
3
 72
15
 73
11
 74
0
 42
0.0000001
 43
0.0000001
 44
0.0000000001
 40
0.0
 40
0.0
 40
0.0
 40
0.0
 40
0.0095623567
 40
0.0270887937
 40
0.0887388651
 40
0.1847218381
 40
0.3112809175
 40
0.4629381747
 40
0.633260522
 40
1.0
 40
1.0
 40
1.0
 40
1.0
 10
16.4246323062
 20
12.4106571161
 30
0.0
 10
16.4269294528
 20
12.4083776834
 30
0.0
 10
16.4372362239
 20
12.4075611083
 30
0.0
 10
16.4657965099
 20
12.4137281359
 30
0.0
 10
16.5218753935
 20
12.4359919164
 30
0.0
 10
16.6082294659
 20
12.4772096896
 30
0.0
 10
16.7204406203
 20
12.5364208808
 30
0.0
 10
16.8527443132
 20
12.6107118325
 30
0.0
 10
17.0536464025
 20
12.7289658693
 30
0.0
 10
17.2079085462
 20
12.8251395601
 30
0.0
 10
17.312212647
 20
12.8924078656
 30
0.0
  0
SPLINE
  5
70A
100
AcDbEntity
  8
RACCORDO
100
AcDbSpline
 62
250
  6
CONTINUOUS
 70
0
 71
3
 72
13
 73
9
 74
0
 42
0.0000001
 43
0.0000001
 44
0.0000000001
 40
0.0
 40
0.0
 40
0.0
 40
0.0
 40
0.0338225961
 40
0.0968684981
 40
0.1915109883
 40
0.3153445524
 40
0.6318741705
 40
1.0
 40
1.0
 40
1.0
 40
1.0
 10
3.8995474637
 20
21.0845065759
 30
0.0
 10
3.9101947376
 20
21.0836788879
 30
0.0
 10
3.9373749431
 20
21.1062752597
 30
0.0
 10
3.967255852
 20
21.1563585688
 30
0.0
 10
4.0055822183
 20
21.2379011696
 30
0.0
 10
4.06407436
 20
21.3958951623
 30
0.0
 10
4.1356952687
 20
21.6415674611
 30
0.0
 10
4.1841318759
 20
21.8522375067
 30
0.0
 10
4.2072261355
 20
21.9661549194
 30
0.0
  0
SPLINE
  5
70B
100
AcDbEntity
  8
RACCORDO
100
AcDbSpline
 62
250
  6
CONTINUOUS
 70
0
 71
3
 72
11
 73
7
 74
0
 42
0.0000001
 43
0.0000001
 44
0.0000000001
 40
0.0
 40
0.0
 40
0.0
 40
0.0
 40
0.2407768094
 40
0.4870299631
 40
0.7406779173
 40
1.0
 40
1.0
 40
1.0
 40
1.0
 10
2.7833484493
 20
21.267345431
 30
0.0
 10
2.6858447914
 20
21.2821766379
 30
0.0
 10
2.4926656716
 20
21.3520349003
 30
0.0
 10
2.261528709
 20
21.5588181391
 30
0.0
 10
2.11380327
 20
21.8393869243
 30
0.0
 10
2.0824826579
 20
22.0517664601
 30
0.0
 10
2.0841677173
 20
22.1579746587
 30
0.0
  0
SPLINE
  5
70C
100
AcDbEntity
  8
RACCORDO
100
AcDbSpline
 62
250
  6
CONTINUOUS
 70
0
 71
3
 72
11
 73
7
 74
0
 42
0.0000001
 43
0.0000001
 44
0.0000000001
 40
0.0
 40
0.0
 40
0.0
 40
0.0
 40
0.2407768094
 40
0.4870299631
 40
0.7406779173
 40
1.0
 40
1.0
 40
1.0
 40
1.0
 10
-2.7833484493
 20
-17.267345431
 30
0.0
 10
-2.6858447914
 20
-17.2821766379
 30
0.0
 10
-2.4926656716
 20
-17.3520349003
 30
0.0
 10
-2.261528709
 20
-17.5588181391
 30
0.0
 10
-2.11380327
 20
-17.8393869243
 30
0.0
 10
-2.0824826579
 20
-18.0517664601
 30
0.0
 10
-2.0841677173
 20
-18.1579746587
 30
0.0
  0
SPLINE
  5
70D
100
AcDbEntity
  8
RACCORDO
100
AcDbSpline
 62
250
  6
CONTINUOUS
 70
0
 71
3
 72
13
 73
9
 74
0
 42
0.0000001
 43
0.0000001
 44
0.0000000001
 40
0.0
 40
0.0
 40
0.0
 40
0.0
 40
0.0338225961
 40
0.0968684981
 40
0.1915109883
 40
0.3153445524
 40
0.6318741705
 40
1.0
 40
1.0
 40
1.0
 40
1.0
 10
-3.8995474637
 20
-17.0845065759
 30
0.0
 10
-3.9101947376
 20
-17.0836788879
 30
0.0
 10
-3.9373749431
 20
-17.1062752597
 30
0.0
 10
-3.967255852
 20
-17.1563585688
 30
0.0
 10
-4.0055822183
 20
-17.2379011696
 30
0.0
 10
-4.06407436
 20
-17.3958951623
 30
0.0
 10
-4.1356952687
 20
-17.6415674611
 30
0.0
 10
-4.1841318759
 20
-17.8522375067
 30
0.0
 10
-4.2072261355
 20
-17.9661549194
 30
0.0
  0
SPLINE
  5
70E
100
AcDbEntity
  8
RACCORDO
100
AcDbSpline
 62
250
  6
CONTINUOUS
 70
0
 71
3
 72
15
 73
11
 74
0
 42
0.0000001
 43
0.0000001
 44
0.0000000001
 40
0.0
 40
0.0
 40
0.0
 40
0.0
 40
0.0095623566
 40
0.0270887935
 40
0.088738865
 40
0.1847218383
 40
0.3112809181
 40
0.4629381757
 40
0.6332605232
 40
1.0
 40
1.0
 40
1.0
 40
1.0
 10
-16.4246322928
 20
-8.4106571076
 30
0.0
 10
-16.4269294394
 20
-8.4083776749
 30
0.0
 10
-16.4372362106
 20
-8.4075610997
 30
0.0
 10
-16.465796497
 20
-8.4137281275
 30
0.0
 10
-16.5218753816
 20
-8.4359919084
 30
0.0
 10
-16.6082294554
 20
-8.4772096825
 30
0.0
 10
-16.7204406119
 20
-8.536420875
 30
0.0
 10
-16.8527443071
 20
-8.6107118281
 30
0.0
 10
-17.0536463991
 20
-8.7289658668
 30
0.0
 10
-17.2079085449
 20
-8.8251395592
 30
0.0
 10
-17.3122126468
 20
-8.8924078656
 30
0.0
  0
SPLINE
  5
70F
100
AcDbEntity
  8
RACCORDO
100
AcDbSpline
 62
250
  6
CONTINUOUS
 70
0
 71
3
 72
13
 73
9
 74
0
 42
0.0000001
 43
0.0000001
 44
0.0000000001
 40
0.0
 40
0.0
 40
0.0
 40
0.0
 40
0.0343071206
 40
0.0972052775
 40
0.1914528229
 40
0.3145593392
 40
0.6304010235
 40
1.0
 40
1.0
 40
1.0
 40
1.0
 10
-17.2690119796
 20
-7.9458772918
 30
0.0
 10
-17.2794845469
 20
-7.9471538527
 30
0.0
 10
-17.3015959787
 20
-7.9734680354
 30
0.0
 10
-17.3211853102
 20
-8.0269798323
 30
0.0
 10
-17.3424955175
 20
-8.1116144735
 30
0.0
 10
-17.3686482936
 20
-8.2730893838
 30
0.0
 10
-17.390270463
 20
-8.521385795
 30
0.0
 10
-17.3962683891
 20
-8.7320819297
 30
0.0
 10
-17.3965462636
 20
-8.8457402175
 30
0.0
  0
SPLINE
  5
710
100
AcDbEntity
  8
RACCORDO
100
AcDbSpline
 62
250
  6
CONTINUOUS
 70
0
 71
3
 72
13
 73
9
 74
0
 42
0.0000001
 43
0.0000001
 44
0.0000000001
 40
0.0
 40
0.0
 40
0.0
 40
0.0
 40
0.0343066538
 40
0.097204648
 40
0.1914521556
 40
0.3145587062
 40
0.6304006597
 40
1.0
 40
1.0
 40
1.0
 40
1.0
 10
-23.4306336755
 20
-7.9304813706
 30
0.0
 10
-23.441106089
 20
-7.9317579469
 30
0.0
 10
-23.4632170068
 20
-7.9580723543
 30
0.0
 10
-23.4828059544
 20
-8.0115838847
 30
0.0
 10
-23.5041159238
 20
-8.0962185353
 30
0.0
 10
-23.5302686144
 20
-8.2576933874
 30
0.0
 10
-23.5518911455
 20
-8.5059898168
 30
0.0
 10
-23.5578896666
 20
-8.7166859741
 30
0.0
 10
-23.5581679594
 20
-8.8303442963
 30
0.0
  0
SPLINE
  5
711
100
AcDbEntity
  8
RACCORDO
100
AcDbSpline
 62
250
  6
CONTINUOUS
 70
0
 71
3
 72
13
 73
9
 74
0
 42
0.0000001
 43
0.0000001
 44
0.0000000001
 40
0.0
 40
0.0
 40
0.0
 40
0.0
 40
0.0343066409
 40
0.0972046125
 40
0.1914520858
 40
0.3145586005
 40
0.6304005681
 40
1.0
 40
1.0
 40
1.0
 40
1.0
 10
-23.4306336755
 20
11.9304813706
 30
0.0
 10
-23.4411060851
 20
11.9317579464
 30
0.0
 10
-23.4632170052
 20
11.9580723314
 30
0.0
 10
-23.482805939
 20
12.011583851
 30
0.0
 10
-23.504115908
 20
12.0962184685
 30
0.0
 10
-23.5302686029
 20
12.2576933046
 30
0.0
 10
-23.5518911403
 20
12.5059897542
 30
0.0
 10
-23.5578896671
 20
12.7166859445
 30
0.0
 10
-23.5581679616
 20
12.830344295
 30
0.0
  0
SPLINE
  5
712
100
AcDbEntity
  8
0
100
AcDbSpline
 62
7
  6
CONTINUOUS
 70
0
 71
3
 72
14
 73
10
 74
0
 42
0.0000001
 43
0.0000001
 44
0.0000000001
 40
0.0
 40
0.0
 40
0.0
 40
0.0
 40
0.0249204701
 40
0.0762791051
 40
0.1576812469
 40
0.2691749936
 40
0.4101904889
 40
0.5798987132
 40
1.0
 40
1.0
 40
1.0
 40
1.0
 10
1.337029912
 20
13.0500430169
 30
0.0
 10
1.3449574237
 20
13.0500589908
 30
0.0
 10
1.3625800843
 20
13.0736072466
 30
0.0
 10
1.3763275821
 20
13.1188343208
 30
0.0
 10
1.3944523783
 20
13.1960193758
 30
0.0
 10
1.4106884391
 20
13.3004045825
 30
0.0
 10
1.4273210349
 20
13.4339319756
 30
0.0
 10
1.4498486425
 20
13.6652329889
 30
0.0
 10
1.4632378765
 20
13.8524562493
 30
0.0
 10
1.4717871811
 20
13.9858222275
 30
0.0
  0
SPLINE
  5
713
100
AcDbEntity
  8
0
100
AcDbSpline
 62
7
  6
CONTINUOUS
 70
0
 71
3
 72
14
 73
10
 74
0
 42
0.0000001
 43
0.0000001
 44
0.0000000001
 40
0.0
 40
0.0
 40
0.0
 40
0.0
 40
0.0249204701
 40
0.0762791051
 40
0.1576812469
 40
0.2691749936
 40
0.4101904889
 40
0.5798987132
 40
1.0
 40
1.0
 40
1.0
 40
1.0
 10
-1.337029912
 20
13.0500430169
 30
0.0
 10
-1.3449574237
 20
13.0500589908
 30
0.0
 10
-1.3625800843
 20
13.0736072466
 30
0.0
 10
-1.3763275821
 20
13.1188343208
 30
0.0
 10
-1.3944523783
 20
13.1960193758
 30
0.0
 10
-1.4106884391
 20
13.3004045825
 30
0.0
 10
-1.4273210349
 20
13.4339319756
 30
0.0
 10
-1.4498486425
 20
13.6652329889
 30
0.0
 10
-1.4632378765
 20
13.8524562493
 30
0.0
 10
-1.4717871811
 20
13.9858222275
 30
0.0
  0
SPLINE
  5
714
100
AcDbEntity
  8
0
100
AcDbSpline
 62
7
  6
CONTINUOUS
 70
0
 71
3
 72
14
 73
10
 74
0
 42
0.0000001
 43
0.0000001
 44
0.0000000001
 40
0.0
 40
0.0
 40
0.0
 40
0.0
 40
0.0249364409
 40
0.0762947169
 40
0.1576694421
 40
0.2691799238
 40
0.4102017392
 40
0.5798982172
 40
1.0
 40
1.0
 40
1.0
 40
1.0
 10
-1.3370349105
 20
-10.4500168632
 30
0.0
 10
-1.3449675985
 20
-10.4500360918
 30
0.0
 10
-1.3625671481
 20
-10.4736177052
 30
0.0
 10
-1.3763217828
 20
-10.5188262776
 30
0.0
 10
-1.3944395163
 20
-10.5960171681
 30
0.0
 10
-1.4106785067
 20
-10.7003984422
 30
0.0
 10
-1.4273367026
 20
-10.8339291657
 30
0.0
 10
-1.4498980816
 20
-11.0652280182
 30
0.0
 10
-1.4632619933
 20
-11.2524528096
 30
0.0
 10
-1.4717871811
 20
-11.3858222275
 30
0.0
  0
SPLINE
  5
715
100
AcDbEntity
  8
0
100
AcDbSpline
 62
7
  6
CONTINUOUS
 70
0
 71
3
 72
14
 73
10
 74
0
 42
0.0000001
 43
0.0000001
 44
0.0000000001
 40
0.0
 40
0.0
 40
0.0
 40
0.0
 40
0.0249364409
 40
0.0762947169
 40
0.1576694421
 40
0.2691799238
 40
0.4102017392
 40
0.5798982172
 40
1.0
 40
1.0
 40
1.0
 40
1.0
 10
1.3370349105
 20
-10.4500168632
 30
0.0
 10
1.3449675985
 20
-10.4500360918
 30
0.0
 10
1.3625671481
 20
-10.4736177052
 30
0.0
 10
1.3763217828
 20
-10.5188262776
 30
0.0
 10
1.3944395163
 20
-10.5960171681
 30
0.0
 10
1.4106785067
 20
-10.7003984422
 30
0.0
 10
1.4273367026
 20
-10.8339291657
 30
0.0
 10
1.4498980816
 20
-11.0652280182
 30
0.0
 10
1.4632619933
 20
-11.2524528096
 30
0.0
 10
1.4717871811
 20
-11.3858222275
 30
0.0
  0
SPLINE
  5
716
100
AcDbEntity
  8
0
100
AcDbSpline
 62
7
  6
CONTINUOUS
 70
0
 71
3
 72
10
 73
6
 74
0
 42
0.0000001
 43
0.0000001
 44
0.0000000001
 40
0.0
 40
0.0
 40
0.0
 40
0.0
 40
0.1197688519
 40
0.3290075733
 40
1.0
 40
1.0
 40
1.0
 40
1.0
 10
1.75338813
 20
-15.7835763108
 30
0.0
 10
1.7513418862
 20
-15.7794554778
 30
0.0
 10
1.7487827808
 20
-15.7668705084
 30
0.0
 10
1.7431610558
 20
-15.7290445256
 30
0.0
 10
1.7409588637
 20
-15.6951541059
 30
0.0
 10
1.7393291264
 20
-15.6694295603
 30
0.0
  0
SPLINE
  5
717
100
AcDbEntity
  8
0
100
AcDbSpline
 62
7
  6
CONTINUOUS
 70
0
 71
3
 72
10
 73
6
 74
0
 42
0.0000001
 43
0.0000001
 44
0.0000000001
 40
0.0
 40
0.0
 40
0.0
 40
0.0
 40
0.1197688519
 40
0.3290075733
 40
1.0
 40
1.0
 40
1.0
 40
1.0
 10
-1.75338813
 20
-15.7835763108
 30
0.0
 10
-1.7513418862
 20
-15.7794554778
 30
0.0
 10
-1.7487827808
 20
-15.7668705084
 30
0.0
 10
-1.7431610558
 20
-15.7290445256
 30
0.0
 10
-1.7409588637
 20
-15.6951541059
 30
0.0
 10
-1.7393291264
 20
-15.6694295603
 30
0.0
  0
SPLINE
  5
718
100
AcDbEntity
  8
RACCORDO
100
AcDbSpline
 62
7
  6
CONTINUOUS
 70
0
 71
3
 72
15
 73
11
 74
0
 42
0.0000001
 43
0.0000001
 44
0.0000000001
 40
0.0
 40
0.0
 40
0.0
 40
0.0
 40
0.119651964
 40
0.2425887157
 40
0.3698509455
 40
0.5000474977
 40
0.6302423899
 40
0.7574911733
 40
0.8803705454
 40
1.0
 40
1.0
 40
1.0
 40
1.0
 10
1.0981374937
 20
17.4301140277
 30
0.0
 10
1.0950901196
 20
17.5591720466
 30
0.0
 10
1.0312244063
 20
17.8225513247
 30
0.0
 10
0.7819451948
 20
18.1472628851
 30
0.0
 10
0.4203380525
 20
18.3608022979
 30
0.0
 10
-0.0001546823
 20
18.4348499174
 30
0.0
 10
-0.4206172325
 20
18.3606956027
 30
0.0
 10
-0.7820880335
 20
18.1470906274
 30
0.0
 10
-1.0312675752
 20
17.8224452023
 30
0.0
 10
-1.0950906929
 20
17.5591477678
 30
0.0
 10
-1.0981374937
 20
17.4301140277
 30
0.0
  0
SPLINE
  5
719
100
AcDbEntity
  8
RACCORDO
100
AcDbSpline
 62
7
  6
CONTINUOUS
 70
0
 71
3
 72
15
 73
11
 74
0
 42
0.0000001
 43
0.0000001
 44
0.0000000001
 40
0.0
 40
0.0
 40
0.0
 40
0.0
 40
0.1166537406
 40
0.2385003801
 40
0.3670414057
 40
0.5000479897
 40
0.6330523196
 40
0.7615784191
 40
0.8833680907
 40
1.0
 40
1.0
 40
1.0
 40
1.0
 10
-1.1031595152
 20
-14.1795961892
 30
0.0
 10
-1.0994327057
 20
-14.3027653732
 30
0.0
 10
-1.032901383
 20
-14.5558441438
 30
0.0
 10
-0.780482882
 20
-14.8634580341
 30
0.0
 10
-0.4186712003
 20
-15.0642261469
 30
0.0
 10
0.0001521249
 20
-15.1336328556
 30
0.0
 10
0.4189464451
 20
-15.0641274564
 30
0.0
 10
0.7806273853
 20
-14.8632956671
 30
0.0
 10
1.0329455105
 20
-14.5557424926
 30
0.0
 10
1.0994334032
 20
-14.3027423227
 30
0.0
 10
1.1031595152
 20
-14.1795961892
 30
0.0
  0
SPLINE
  5
71A
100
AcDbEntity
  8
0
100
AcDbSpline
 62
7
  6
CONTINUOUS
 70
0
 71
3
 72
9
 73
5
 74
0
 42
0.0000001
 43
0.0000001
 44
0.0000000001
 40
0.0
 40
0.0
 40
0.0
 40
0.0
 40
0.2707449778
 40
1.0
 40
1.0
 40
1.0
 40
1.0
 10
1.1554930236
 20
-12.45
 30
0.0
 10
1.1580406197
 20
-12.367996168
 30
0.0
 10
1.1681059442
 20
-12.0651369881
 30
0.0
 10
1.180873179
 20
-11.7623507454
 30
0.0
 10
1.193093063
 20
-11.5417039448
 30
0.0
  0
SPLINE
  5
71B
100
AcDbEntity
  8
0
100
AcDbSpline
 62
7
  6
CONTINUOUS
 70
0
 71
3
 72
14
 73
10
 74
0
 42
0.0000001
 43
0.0000001
 44
0.0000000001
 40
0.0
 40
0.0
 40
0.0
 40
0.0
 40
0.4192264885
 40
0.5892476071
 40
0.7308695946
 40
0.8429351104
 40
0.9246095234
 40
0.9759675553
 40
1.0
 40
1.0
 40
1.0
 40
1.0
 10
1.193093063
 20
-11.5417039448
 30
0.0
 10
1.2016730225
 20
-11.3867809823
 30
0.0
 10
1.2156613981
 20
-11.1690390134
 30
0.0
 10
1.2397603799
 20
-10.8997505286
 30
0.0
 10
1.2575849128
 20
-10.7435953532
 30
0.0
 10
1.2749244933
 20
-10.6215582139
 30
0.0
 10
1.2945379878
 20
-10.5307054148
 30
0.0
 10
1.3091197084
 20
-10.4786799465
 30
0.0
 10
1.3281402626
 20
-10.4499953029
 30
0.0
 10
1.3370349105
 20
-10.4500168632
 30
0.0
  0
SPLINE
  5
71C
100
AcDbEntity
  8
0
100
AcDbSpline
 62
7
  6
CONTINUOUS
 70
0
 71
3
 72
9
 73
5
 74
0
 42
0.0000001
 43
0.0000001
 44
0.0000000001
 40
0.0
 40
0.0
 40
0.0
 40
0.0
 40
0.2707449778
 40
1.0
 40
1.0
 40
1.0
 40
1.0
 10
-1.1554930236
 20
-12.45
 30
0.0
 10
-1.1580406197
 20
-12.367996168
 30
0.0
 10
-1.1681059442
 20
-12.0651369881
 30
0.0
 10
-1.180873179
 20
-11.7623507454
 30
0.0
 10
-1.193093063
 20
-11.5417039448
 30
0.0
  0
SPLINE
  5
71D
100
AcDbEntity
  8
0
100
AcDbSpline
 62
7
  6
CONTINUOUS
 70
0
 71
3
 72
14
 73
10
 74
0
 42
0.0000001
 43
0.0000001
 44
0.0000000001
 40
0.0
 40
0.0
 40
0.0
 40
0.0
 40
0.4192264885
 40
0.5892476071
 40
0.7308695946
 40
0.8429351104
 40
0.9246095234
 40
0.9759675553
 40
1.0
 40
1.0
 40
1.0
 40
1.0
 10
-1.193093063
 20
-11.5417039448
 30
0.0
 10
-1.2016730225
 20
-11.3867809823
 30
0.0
 10
-1.2156613981
 20
-11.1690390134
 30
0.0
 10
-1.2397603799
 20
-10.8997505286
 30
0.0
 10
-1.2575849128
 20
-10.7435953532
 30
0.0
 10
-1.2749244933
 20
-10.6215582139
 30
0.0
 10
-1.2945379878
 20
-10.5307054148
 30
0.0
 10
-1.3091197084
 20
-10.4786799465
 30
0.0
 10
-1.3281402626
 20
-10.4499953029
 30
0.0
 10
-1.3370349105
 20
-10.4500168632
 30
0.0
  0
SPLINE
  5
71E
100
AcDbEntity
  8
0
100
AcDbSpline
 62
7
  6
CONTINUOUS
 70
0
 71
3
 72
9
 73
5
 74
0
 42
0.0000001
 43
0.0000001
 44
0.0000000001
 40
0.0
 40
0.0
 40
0.0
 40
0.0
 40
0.2742289105
 40
1.0
 40
1.0
 40
1.0
 40
1.0
 10
1.1459112808
 20
15.4068670668
 30
0.0
 10
1.1486929992
 20
15.2927585464
 30
0.0
 10
1.1599137983
 20
14.8766842432
 30
0.0
 10
1.1755863306
 20
14.4606894313
 30
0.0
 10
1.1921294103
 20
14.1590547176
 30
0.0
  0
SPLINE
  5
71F
100
AcDbEntity
  8
0
100
AcDbSpline
 62
7
  6
CONTINUOUS
 70
0
 71
3
 72
14
 73
10
 74
0
 42
0.0000001
 43
0.0000001
 44
0.0000000001
 40
0.0
 40
0.0
 40
0.0
 40
0.0
 40
0.4202292359
 40
0.5898514272
 40
0.730821499
 40
0.8421543337
 40
0.9234502934
 40
0.9748993834
 40
1.0
 40
1.0
 40
1.0
 40
1.0
 10
1.204243228
 20
13.9547229679
 30
0.0
 10
1.212517488
 20
13.8256674055
 30
0.0
 10
1.2257788401
 20
13.6445558873
 30
0.0
 10
1.2482509857
 20
13.4208621711
 30
0.0
 10
1.2646726859
 20
13.2918329817
 30
0.0
 10
1.2806422364
 20
13.1909621238
 30
0.0
 10
1.2984682562
 20
13.1164791761
 30
0.0
 10
1.3119404667
 20
13.0726204259
 30
0.0
 10
1.3293055121
 20
13.0500274522
 30
0.0
 10
1.337029912
 20
13.0500430169
 30
0.0
  0
SPLINE
  5
720
100
AcDbEntity
  8
0
100
AcDbSpline
 62
7
  6
CONTINUOUS
 70
0
 71
3
 72
9
 73
5
 74
0
 42
0.0000001
 43
0.0000001
 44
0.0000000001
 40
0.0
 40
0.0
 40
0.0
 40
0.0
 40
0.2742289105
 40
1.0
 40
1.0
 40
1.0
 40
1.0
 10
-1.1459112808
 20
15.4068670668
 30
0.0
 10
-1.1486929992
 20
15.2927585464
 30
0.0
 10
-1.1599137983
 20
14.8766842432
 30
0.0
 10
-1.1755863306
 20
14.4606894313
 30
0.0
 10
-1.1921294103
 20
14.1590547176
 30
0.0
  0
SPLINE
  5
721
100
AcDbEntity
  8
0
100
AcDbSpline
 62
7
  6
CONTINUOUS
 70
0
 71
3
 72
14
 73
10
 74
0
 42
0.0000001
 43
0.0000001
 44
0.0000000001
 40
0.0
 40
0.0
 40
0.0
 40
0.0
 40
0.4202292359
 40
0.5898514272
 40
0.730821499
 40
0.8421543337
 40
0.9234502934
 40
0.9748993834
 40
1.0
 40
1.0
 40
1.0
 40
1.0
 10
-1.204243228
 20
13.9547229679
 30
0.0
 10
-1.212517488
 20
13.8256674055
 30
0.0
 10
-1.2257788401
 20
13.6445558873
 30
0.0
 10
-1.2482509857
 20
13.4208621711
 30
0.0
 10
-1.2646726859
 20
13.2918329817
 30
0.0
 10
-1.2806422364
 20
13.1909621238
 30
0.0
 10
-1.2984682562
 20
13.1164791761
 30
0.0
 10
-1.3119404667
 20
13.0726204259
 30
0.0
 10
-1.3293055121
 20
13.0500274522
 30
0.0
 10
-1.337029912
 20
13.0500430169
 30
0.0
  0
SPLINE
  5
722
100
AcDbEntity
  8
RACCORDO
100
AcDbSpline
 62
250
  6
CONTINUOUS
 70
0
 71
3
 72
9
 73
5
 74
0
 42
0.0000001
 43
0.0000001
 44
0.0000000001
 40
0.0
 40
0.0
 40
0.0
 40
0.0
 40
0.246801064
 40
1.0
 40
1.0
 40
1.0
 40
1.0
 10
-69.3254036235
 20
23.65
 30
0.0
 10
-69.3254041248
 20
23.6558837872
 30
0.0
 10
-69.3243165512
 20
23.6797155949
 30
0.0
 10
-69.3185697577
 20
23.7033024667
 30
0.0
 10
-69.3119826726
 20
23.7200070512
 30
0.0
  0
SPLINE
  5
723
100
AcDbEntity
  8
RACCORDO
100
AcDbSpline
 62
250
  6
CONTINUOUS
 70
0
 71
3
 72
11
 73
7
 74
0
 42
0.0000001
 43
0.0000001
 44
0.0000000001
 40
0.0
 40
0.0
 40
0.0
 40
0.0
 40
0.2496365628
 40
0.4994499602
 40
0.7495767585
 40
1.0
 40
1.0
 40
1.0
 40
1.0
 10
-68.8186891505
 20
24.15
 30
0.0
 10
-68.8777635694
 20
24.15
 30
0.0
 10
-68.9970342158
 20
24.1284489649
 30
0.0
 10
-69.1524577544
 20
24.0355156948
 30
0.0
 10
-69.2658118211
 20
23.894074261
 30
0.0
 10
-69.3037041219
 20
23.7787089092
 30
0.0
 10
-69.3119746775
 20
23.7200282971
 30
0.0
  0
SPLINE
  5
724
100
AcDbEntity
  8
0
100
AcDbSpline
 62
7
  6
CONTINUOUS
 70
0
 71
3
 72
12
 73
8
 74
0
 42
0.0000001
 43
0.0000001
 44
0.0000000001
 40
0.0
 40
0.0
 40
0.0
 40
0.0
 40
0.2843313303
 40
0.5509788043
 40
0.788245547
 40
0.8965557379
 40
1.0
 40
1.0
 40
1.0
 40
1.0
 10
-70.5313957055
 20
-10.7986327395
 30
0.0
 10
-70.5067824671
 20
-10.7986327395
 30
0.0
 10
-70.4588304929
 20
-10.7926464229
 30
0.0
 10
-70.3949233868
 20
-10.7664199689
 30
0.0
 10
-70.3539008754
 20
-10.7305340841
 30
0.0
 10
-70.3346665675
 20
-10.6963714277
 30
0.0
 10
-70.3298697194
 20
-10.6784218491
 30
0.0
 10
-70.3287529953
 20
-10.6695370666
 30
0.0
  0
SPLINE
  5
725
100
AcDbEntity
  8
0
100
AcDbSpline
 62
7
  6
CONTINUOUS
 70
0
 71
3
 72
17
 73
13
 74
0
 42
0.0000001
 43
0.0000001
 44
0.0000000001
 40
0.0
 40
0.0
 40
0.0
 40
0.0
 40
0.0524586228
 40
0.1062585373
 40
0.1618323745
 40
0.2194773845
 40
0.3411498099
 40
0.4707782751
 40
0.6055286405
 40
0.7413757986
 40
0.8740508794
 40
1.0
 40
1.0
 40
1.0
 40
1.0
 10
-70.331076481
 20
-11.3888933171
 30
0.0
 10
-70.3544978326
 20
-11.4814503815
 30
0.0
 10
-70.4191387044
 20
-11.6649722527
 30
0.0
 10
-70.5633186739
 20
-11.923231685
 30
0.0
 10
-70.7520606675
 20
-12.1630315309
 30
0.0
 10
-71.0629346158
 20
-12.4582820102
 30
0.0
 10
-71.5447321433
 20
-12.7599402691
 30
0.0
 10
-72.2121506969
 20
-12.9943489428
 30
0.0
 10
-72.9377282608
 20
-13.0974603316
 30
0.0
 10
-73.6752731889
 20
-13.0635245311
 30
0.0
 10
-74.3775123529
 20
-12.8947503957
 30
0.0
 10
-74.8069728145
 20
-12.6908617235
 30
0.0
 10
-75.0003434382
 20
-12.567765296
 30
0.0
  0
LINE
  5
726
100
AcDbEntity
  8
0
100
AcDbLine
 62
7
  6
CONTINUOUS
 10
-70.2383717315
 20
-10.6572113832
 11
-70.3287529953
 21
-11.3766438478
  0
SPLINE
  5
727
100
AcDbEntity
  8
0
100
AcDbSpline
 62
250
  6
CONTINUOUS
 70
0
 71
3
 72
20
 73
16
 74
0
 42
0.0000001
 43
0.0000001
 44
0.0000000001
 40
0.0
 40
0.0
 40
0.0
 40
0.0
 40
0.0558071473
 40
0.1147313387
 40
0.1767540582
 40
0.2415860785
 40
0.3772790889
 40
0.5164366849
 40
0.5853773607
 40
0.6527711395
 40
0.780079968
 40
0.839418488
 40
0.8956255701
 40
0.9489546604
 40
1.0
 40
1.0
 40
1.0
 40
1.0
 10
-75.4696909003
 20
-12.0133465719
 30
0.0
 10
-75.4053381744
 20
-12.1009351326
 30
0.0
 10
-75.2561422113
 20
-12.2690210301
 30
0.0
 10
-74.9882295623
 20
-12.487146208
 30
0.0
 10
-74.676631793
 20
-12.6733758876
 30
0.0
 10
-74.2060078536
 20
-12.8763672059
 30
0.0
 10
-73.5548773553
 20
-13.0248043259
 30
0.0
 10
-72.8798977978
 20
-13.0294684934
 30
0.0
 10
-72.3488880542
 20
-12.9453895086
 30
0.0
 10
-71.8534638735
 20
-12.8079623828
 30
0.0
 10
-71.4009955389
 20
-12.5915546317
 30
0.0
 10
-71.0271204644
 20
-12.2993107317
 30
0.0
 10
-70.8022549615
 20
-12.0570916689
 30
0.0
 10
-70.6323605652
 20
-11.7924801975
 30
0.0
 10
-70.5575411782
 20
-11.601653695
 30
0.0
 10
-70.5313957055
 20
-11.5057395207
 30
0.0
  0
SPLINE
  5
728
100
AcDbEntity
  8
0
100
AcDbSpline
 62
250
  6
CONTINUOUS
 70
0
 71
3
 72
9
 73
5
 74
0
 42
0.0000001
 43
0.0000001
 44
0.0000000001
 40
0.0
 40
0.0
 40
0.0
 40
0.0
 40
0.2475385653
 40
1.0
 40
1.0
 40
1.0
 40
1.0
 10
-70.5313957055
 20
-10.7986327395
 30
0.0
 10
-70.5363653582
 20
-10.7804016622
 30
0.0
 10
-70.5579427301
 20
-10.7071675727
 30
0.0
 10
-70.5854516427
 20
-10.6356979506
 30
0.0
 10
-70.6091116241
 20
-10.5833566616
 30
0.0
  0
SPLINE
  5
729
100
AcDbEntity
  8
0
100
AcDbSpline
 62
7
  6
CONTINUOUS
 70
0
 71
3
 72
11
 73
7
 74
0
 42
0.0000001
 43
0.0000001
 44
0.0000000001
 40
0.0
 40
0.0
 40
0.0
 40
0.0
 40
0.2124979612
 40
0.4519993987
 40
0.7181819584
 40
1.0
 40
1.0
 40
1.0
 40
1.0
 10
-70.3310747178
 20
-11.3889019868
 30
0.0
 10
-70.335377757
 20
-11.4058658661
 30
0.0
 10
-70.3541763983
 20
-11.4397214744
 30
0.0
 10
-70.401610041
 20
-11.4768422581
 30
0.0
 10
-70.4628458843
 20
-11.5004251456
 30
0.0
 10
-70.5081854473
 20
-11.5057395207
 30
0.0
 10
-70.5313957055
 20
-11.5057395207
 30
0.0
  0
SPLINE
  5
72A
100
AcDbEntity
  8
0
100
AcDbSpline
 62
7
  6
CONTINUOUS
 70
0
 71
3
 72
9
 73
5
 74
0
 42
0.0000001
 43
0.0000001
 44
0.0000000001
 40
0.0
 40
0.0
 40
0.0
 40
0.0
 40
0.2495207274
 40
1.0
 40
1.0
 40
1.0
 40
1.0
 10
-73.4428280931
 20
-12.3779736616
 30
0.0
 10
-73.4451945613
 20
-12.2330019842
 30
0.0
 10
-73.4548456533
 20
-11.6520044255
 30
0.0
 10
-73.4651821029
 20
-11.0710163078
 30
0.0
 10
-73.4742432297
 20
-10.635023504
 30
0.0
  0
SPLINE
  5
72B
100
AcDbEntity
  8
0
100
AcDbSpline
 62
7
  6
CONTINUOUS
 70
0
 71
3
 72
9
 73
5
 74
0
 42
0.0000001
 43
0.0000001
 44
0.0000000001
 40
0.0
 40
0.0
 40
0.0
 40
0.0
 40
0.2495089747
 40
1.0
 40
1.0
 40
1.0
 40
1.0
 10
-72.8079791539
 20
-12.3779736616
 30
0.0
 10
-72.8055791938
 20
-12.2309502449
 30
0.0
 10
-72.7957879957
 20
-11.6417023216
 30
0.0
 10
-72.7852937349
 20
-11.0524639638
 30
0.0
 10
-72.7760481026
 20
-10.6102740974
 30
0.0
  0
SPLINE
  5
72C
100
AcDbEntity
  8
RACCORDO
100
AcDbSpline
 62
7
  6
CONTINUOUS
 70
0
 71
3
 72
15
 73
11
 74
0
 42
0.0000001
 43
0.0000001
 44
0.0000000001
 40
0.0
 40
0.0
 40
0.0
 40
0.0
 40
0.3044818319
 40
0.4518615549
 40
0.5927395554
 40
0.723611457
 40
0.8395579859
 40
0.9338695271
 40
0.9706889224
 40
1.0
 40
1.0
 40
1.0
 40
1.0
 10
-63.8312213549
 20
12.0203539425
 30
0.0
 10
-63.9427936664
 20
12.1563570751
 30
0.0
 10
-64.1083310421
 20
12.3582267233
 30
0.0
 10
-64.3222080421
 20
12.6256941163
 30
0.0
 10
-64.4706913124
 20
12.8169709138
 30
0.0
 10
-64.6038900146
 20
12.9971660572
 30
0.0
 10
-64.7141033117
 20
13.1604635397
 30
0.0
 10
-64.7852592359
 20
13.2849452334
 30
0.0
 10
-64.8182676063
 20
13.371692517
 30
0.0
 10
-64.8254036235
 20
13.4097691078
 30
0.0
 10
-64.8254036235
 20
13.426703409
 30
0.0
  0
SPLINE
  5
72D
100
AcDbEntity
  8
DRAFT
100
AcDbSpline
 62
7
  6
CONTINUOUS
 70
0
 71
3
 72
9
 73
5
 74
0
 42
0.0000001
 43
0.0000001
 44
0.0000000001
 40
0.0
 40
0.0
 40
0.0
 40
0.0
 40
0.507113955
 40
1.0
 40
1.0
 40
1.0
 40
1.0
 10
-70.051271384
 20
-10.5764182586
 30
0.0
 10
-69.9882134516
 20
-10.6994066289
 30
0.0
 10
-69.8897113255
 20
-10.9564397758
 30
0.0
 10
-69.8555640959
 20
-11.2299843316
 30
0.0
 10
-69.8555640959
 20
-11.3643181644
 30
0.0
  0
SPLINE
  5
72E
100
AcDbEntity
  8
ASSI
100
AcDbSpline
 62
7
  6
CONTINUOUS
 70
0
 71
3
 72
9
 73
5
 74
0
 42
0.0000001
 43
0.0000001
 44
0.0000000001
 40
0.0
 40
0.0
 40
0.0
 40
0.0
 40
0.2583871701
 40
1.0
 40
1.0
 40
1.0
 40
1.0
 10
-70.2648787928
 20
-11.4237567832
 30
0.0
 10
-70.2290727865
 20
-11.3780455694
 30
0.0
 10
-70.0973991489
 20
-11.195918964
 30
0.0
 10
-69.9952913148
 20
-10.991793272
 30
0.0
 10
-69.9426234912
 20
-10.8336773973
 30
0.0
  0
LINE
  5
72F
100
AcDbEntity
  8
RACCORDO
100
AcDbLine
 62
250
  6
CONTINUOUS
 10
-76.8254036235
 20
14.9944678543
 11
-67.8210403545
 21
14.932545922
  0
SPLINE
  5
730
100
AcDbEntity
  8
DRAFT
100
AcDbSpline
 62
7
  6
CONTINUOUS
 70
0
 71
3
 72
11
 73
7
 74
0
 42
0.0000001
 43
0.0000001
 44
0.0000000001
 40
0.0
 40
0.0
 40
0.0
 40
0.0
 40
0.2284612468
 40
0.4671682526
 40
0.7233548538
 40
1.0
 40
1.0
 40
1.0
 40
1.0
 10
-69.8555640959
 20
-11.3643181644
 30
0.0
 10
-69.8555640959
 20
-11.5343703415
 30
0.0
 10
-69.9113873816
 20
-11.8842515619
 30
0.0
 10
-70.1535099641
 20
-12.37289935
 30
0.0
 10
-70.5371903701
 20
-12.8076709839
 30
0.0
 10
-70.8620223131
 20
-13.0409619066
 30
0.0
 10
-71.0397108703
 20
-13.1450228811
 30
0.0
  0
SPLINE
  5
731
100
AcDbEntity
  8
RACCORDO
100
AcDbSpline
 62
7
  6
CONTINUOUS
 70
0
 71
3
 72
11
 73
7
 74
0
 42
0.0000001
 43
0.0000001
 44
0.0000000001
 40
0.0
 40
0.0
 40
0.0
 40
0.0
 40
0.3520805608
 40
0.4918189804
 40
0.6496471363
 40
1.0
 40
1.0
 40
1.0
 40
1.0
 10
-67.3254036235
 20
-7.5987416036
 30
0.0
 10
-67.3254036235
 20
-7.6649287542
 30
0.0
 10
-67.4285283881
 20
-7.7323530986
 30
0.0
 10
-67.5397249057
 20
-7.7701297952
 30
0.0
 10
-67.6597863955
 20
-7.7980091344
 30
0.0
 10
-67.7551784229
 20
-7.8056024219
 30
0.0
 10
-67.8210403558
 20
-7.8058404988
 30
0.0
  0
SPLINE
  5
732
100
AcDbEntity
  8
RACCORDO
100
AcDbSpline
 62
7
  6
CONTINUOUS
 70
0
 71
3
 72
12
 73
8
 74
0
 42
0.0000001
 43
0.0000001
 44
0.0000000001
 40
0.0
 40
0.0
 40
0.0
 40
0.0
 40
0.1177910465
 40
0.2120044962
 40
0.3319226835
 40
0.638162987
 40
1.0
 40
1.0
 40
1.0
 40
1.0
 10
-67.3254036235
 20
12.9252496101
 30
0.0
 10
-67.3254036235
 20
12.946232729
 30
0.0
 10
-67.3580963536
 20
12.9780314891
 30
0.0
 10
-67.4098239472
 20
13.0025324504
 30
0.0
 10
-67.498808275
 20
13.0321262409
 30
0.0
 10
-67.6374144877
 20
13.054976766
 30
0.0
 10
-67.756583438
 20
13.0615365024
 30
0.0
 10
-67.8210403558
 20
13.0616890578
 30
0.0
  0
SPLINE
  5
733
100
AcDbEntity
  8
RACCORDO
100
AcDbSpline
 62
250
  6
CONTINUOUS
 70
0
 71
3
 72
13
 73
9
 74
0
 42
0.0000001
 43
0.0000001
 44
0.0000000001
 40
0.0
 40
0.0
 40
0.0
 40
0.0
 40
0.090988281
 40
0.1884780842
 40
0.2966412296
 40
0.4174778362
 40
0.6936668978
 40
1.0
 40
1.0
 40
1.0
 40
1.0
 10
-67.3254036235
 20
15.2216167445
 30
0.0
 10
-67.3254036236
 20
15.2026692094
 30
0.0
 10
-67.332388346
 20
15.1631681006
 30
0.0
 10
-67.3620816554
 20
15.1080562374
 30
0.0
 10
-67.4091701631
 20
15.0581443616
 30
0.0
 10
-67.4960836124
 20
14.9978593465
 30
0.0
 10
-67.6356519165
 20
14.9466359989
 30
0.0
 10
-67.7572499038
 20
14.9328677806
 30
0.0
 10
-67.8210403531
 20
14.932545922
 30
0.0
  0
SPLINE
  5
734
100
AcDbEntity
  8
RACCORDO
100
AcDbSpline
 62
250
  6
CONTINUOUS
 70
0
 71
3
 72
21
 73
17
 74
0
 42
0.0000001
 43
0.0000001
 44
0.0000000001
 40
0.0
 40
0.0
 40
0.0
 40
0.0
 40
0.1531895588
 40
0.3221866173
 40
0.4944782637
 40
0.6572374292
 40
0.7312143982
 40
0.7983739168
 40
0.857471092
 40
0.9074005213
 40
0.947231321
 40
0.9762375021
 40
0.9865046467
 40
0.9938838316
 40
0.9983616598
 40
1.0
 40
1.0
 40
1.0
 40
1.0
 10
-67.8210403531
 20
14.9325459204
 30
0.0
 10
-67.8202119613
 20
14.8922488057
 30
0.0
 10
-67.8187549641
 20
14.8074904225
 30
0.0
 10
-67.8171793771
 20
14.6773975288
 30
0.0
 10
-67.8161678718
 20
14.5447814283
 30
0.0
 10
-67.8158451071
 20
14.4371615563
 30
0.0
 10
-67.8159558363
 20
14.3572049992
 30
0.0
 10
-67.81620703
 20
14.3045187222
 30
0.0
 10
-67.816625848
 20
14.2581746188
 30
0.0
 10
-67.8171862345
 20
14.2189824471
 30
0.0
 10
-67.8179119955
 20
14.1878216189
 30
0.0
 10
-67.8186018101
 20
14.1668501967
 30
0.0
 10
-67.819355267
 20
14.1548258715
 30
0.0
 10
-67.8197562057
 20
14.1486392845
 30
0.0
 10
-67.820359704
 20
14.145809464
 30
0.0
 10
-67.8206093514
 20
14.1434870751
 30
0.0
 10
-67.8210403564
 20
14.1434941345
 30
0.0
  0
SPLINE
  5
735
100
AcDbEntity
  8
RACCORDO
100
AcDbSpline
 62
250
  6
CONTINUOUS
 70
0
 71
3
 72
11
 73
7
 74
0
 42
0.0000001
 43
0.0000001
 44
0.0000000001
 40
0.0
 40
0.0
 40
0.0
 40
0.0
 40
0.2096200867
 40
0.4447567166
 40
0.7119804632
 40
1.0
 40
1.0
 40
1.0
 40
1.0
 10
-66.3254036235
 20
-8.3901420266
 30
0.0
 10
-66.3254036235
 20
-8.4180923229
 30
0.0
 10
-66.3434294536
 20
-8.4780977404
 30
0.0
 10
-66.4126038695
 20
-8.5470494626
 30
0.0
 10
-66.5099461501
 20
-8.5915941712
 30
0.0
 10
-66.584382482
 20
-8.6020290042
 30
0.0
 10
-66.6227856629
 20
-8.6022659836
 30
0.0
  0
SPLINE
  5
736
100
AcDbEntity
  8
RACCORDO
100
AcDbSpline
 62
250
  6
CONTINUOUS
 70
0
 71
3
 72
11
 73
7
 74
0
 42
0.0000001
 43
0.0000001
 44
0.0000000001
 40
0.0
 40
0.0
 40
0.0
 40
0.0
 40
0.2096200845
 40
0.444756713
 40
0.7119804611
 40
1.0
 40
1.0
 40
1.0
 40
1.0
 10
-66.3254036235
 20
-11.572122542
 30
0.0
 10
-66.3254036235
 20
-11.6000728379
 30
0.0
 10
-66.3434294532
 20
-11.660078255
 30
0.0
 10
-66.4126038686
 20
-11.7290299773
 30
0.0
 10
-66.5099461493
 20
-11.7735746863
 30
0.0
 10
-66.5843824817
 20
-11.7840095196
 30
0.0
 10
-66.6227856629
 20
-11.784246499
 30
0.0
  0
SPLINE
  5
737
100
AcDbEntity
  8
RACCORDO
100
AcDbSpline
 62
250
  6
CONTINUOUS
 70
0
 71
3
 72
22
 73
18
 74
0
 42
0.0000001
 43
0.0000001
 44
0.0000000001
 40
0.0
 40
0.0
 40
0.0
 40
0.0
 40
0.0012821212
 40
0.0049234447
 40
0.0109466341
 40
0.019341929
 40
0.0300957924
 40
0.0431921689
 40
0.0762662954
 40
0.1182143758
 40
0.1686629831
 40
0.2271175813
 40
0.2930055655
 40
0.4445312898
 40
0.6173502371
 40
0.8050025514
 40
1.0
 40
1.0
 40
1.0
 40
1.0
 10
-42.9123138203
 20
-15.7306582703
 30
0.0
 10
-42.9116727209
 20
-15.730663865
 30
0.0
 10
-42.9117759522
 20
-15.7343809197
 30
0.0
 10
-42.9107675128
 20
-15.7386269694
 30
0.0
 10
-42.9105366698
 20
-15.7483227775
 30
0.0
 10
-42.9099111278
 20
-15.7606022965
 30
0.0
 10
-42.9094875039
 20
-15.7768348886
 30
0.0
 10
-42.9088312765
 20
-15.8052385801
 30
0.0
 10
-42.9082024586
 20
-15.8493332896
 30
0.0
 10
-42.9076126896
 20
-15.9120571176
 30
0.0
 10
-42.9071955101
 20
-15.9874945288
 30
0.0
 10
-42.9069422811
 20
-16.0748966523
 30
0.0
 10
-42.906832588
 20
-16.2128451536
 30
0.0
 10
-42.9071838081
 20
-16.4079802587
 30
0.0
 10
-42.9082505726
 20
-16.6640020635
 30
0.0
 10
-42.9099551774
 20
-16.9417586436
 30
0.0
 10
-42.9114629752
 20
-17.1330965426
 30
0.0
 10
-42.9123138203
 20
-17.2306011548
 30
0.0
  0
SPLINE
  5
738
100
AcDbEntity
  8
RACCORDO
100
AcDbSpline
 62
250
  6
CONTINUOUS
 70
0
 71
3
 72
9
 73
5
 74
0
 42
0.0000001
 43
0.0000001
 44
0.0000000001
 40
0.0
 40
0.0
 40
0.0
 40
0.0
 40
0.5033742795
 40
1.0
 40
1.0
 40
1.0
 40
1.0
 10
-42.9123138203
 20
-17.2306011548
 30
0.0
 10
-42.8373082741
 20
-17.2341003129
 30
0.0
 10
-42.6938227391
 20
-17.3099475978
 30
0.0
 10
-42.6149317809
 20
-17.4552173296
 30
0.0
 10
-42.6149317809
 20
-17.5292977866
 30
0.0
  0
SPLINE
  5
739
100
AcDbEntity
  8
RACCORDO
100
AcDbSpline
 62
250
  6
CONTINUOUS
 70
0
 71
3
 72
17
 73
13
 74
0
 42
0.0000001
 43
0.0000001
 44
0.0000000001
 40
0.0
 40
0.0
 40
0.0
 40
0.0
 40
0.143700128
 40
0.2768397194
 40
0.3932906722
 40
0.4464732419
 40
0.4980925561
 40
0.6031674123
 40
0.7211439188
 40
0.786623106
 40
0.8556636861
 40
1.0
 40
1.0
 40
1.0
 40
1.0
 10
-41.4254036235
 20
-17.2306011548
 30
0.0
 10
-41.4254036235
 20
-17.0966643625
 30
0.0
 10
-41.4600568709
 20
-16.8370143629
 30
0.0
 10
-41.6113813149
 20
-16.4971970042
 30
0.0
 10
-41.8175202977
 20
-16.2901326234
 30
0.0
 10
-42.0091575857
 20
-16.2079412999
 30
0.0
 10
-42.2051283981
 20
-16.1802734019
 30
0.0
 10
-42.4635019791
 20
-16.2552921506
 30
0.0
 10
-42.6613277746
 20
-16.4501515832
 30
0.0
 10
-42.7800268185
 20
-16.6539913906
 30
0.0
 10
-42.8758338684
 20
-16.8966621467
 30
0.0
 10
-42.9060450343
 20
-17.0962175358
 30
0.0
 10
-42.9123138203
 20
-17.2306011548
 30
0.0
  0
SPLINE
  5
73A
100
AcDbEntity
  8
RACCORDO
100
AcDbSpline
 62
250
  6
CONTINUOUS
 70
0
 71
3
 72
9
 73
5
 74
0
 42
0.0000001
 43
0.0000001
 44
0.0000000001
 40
0.0
 40
0.0
 40
0.0
 40
0.0
 40
0.4986309982
 40
1.0
 40
1.0
 40
1.0
 40
1.0
 10
-102.0400596307
 20
21.4583069833
 30
0.0
 10
-102.0902690798
 20
21.5318079047
 30
0.0
 10
-102.1679618495
 20
21.6962890814
 30
0.0
 10
-102.1905413834
 20
21.8766904762
 30
0.0
 10
-102.1879449042
 20
21.9661549194
 30
0.0
  0
SPLINE
  5
73B
100
AcDbEntity
  8
RACCORDO
100
AcDbSpline
 62
250
  6
CONTINUOUS
 70
0
 71
3
 72
11
 73
7
 74
0
 42
0.0000001
 43
0.0000001
 44
0.0000000001
 40
0.0
 40
0.0
 40
0.0
 40
0.0
 40
0.2488418192
 40
0.4983722906
 40
0.7488633058
 40
1.0
 40
1.0
 40
1.0
 40
1.0
 10
-98.6186571672
 20
24.3251408483
 30
0.0
 10
-98.6829188635
 20
24.3249165318
 30
0.0
 10
-98.8129510238
 20
24.2984632772
 30
0.0
 10
-98.9768582651
 20
24.1868843046
 30
0.0
 10
-99.0863346432
 20
24.0209356053
 30
0.0
 10
-99.1118708704
 20
23.8899986215
 30
0.0
 10
-99.1118663245
 20
23.8251438945
 30
0.0
  0
SPLINE
  5
73C
100
AcDbEntity
  8
RACCORDO
100
AcDbSpline
 62
250
  6
CONTINUOUS
 70
0
 71
3
 72
11
 73
7
 74
0
 42
0.0000001
 43
0.0000001
 44
0.0000000001
 40
0.0
 40
0.0
 40
0.0
 40
0.0
 40
0.2488300168
 40
0.4983458177
 40
0.7488299241
 40
1.0
 40
1.0
 40
1.0
 40
1.0
 10
-101.694758761
 20
24.3144031845
 30
0.0
 10
-101.7590173924
 20
24.3141788787
 30
0.0
 10
-101.8890426152
 20
24.2877291269
 30
0.0
 10
-102.0529454746
 20
24.1761598741
 30
0.0
 10
-102.162429527
 20
24.0102134776
 30
0.0
 10
-102.1879724648
 20
23.8792695613
 30
0.0
 10
-102.1879679183
 20
23.8144062307
 30
0.0
  0
SPLINE
  5
73D
100
AcDbEntity
  8
RACCORDO
100
AcDbSpline
 62
250
  6
CONTINUOUS
 70
0
 71
3
 72
11
 73
7
 74
0
 42
0.0000001
 43
0.0000001
 44
0.0000000001
 40
0.0
 40
0.0
 40
0.0
 40
0.0
 40
0.2488300168
 40
0.4983458177
 40
0.7488299241
 40
1.0
 40
1.0
 40
1.0
 40
1.0
 10
-98.6186571672
 20
-20.3251408483
 30
0.0
 10
-98.6829157987
 20
-20.3249165425
 30
0.0
 10
-98.8129410215
 20
-20.2984667907
 30
0.0
 10
-98.9768438809
 20
-20.1868975379
 30
0.0
 10
-99.0863279333
 20
-20.0209511414
 30
0.0
 10
-99.111870871
 20
-19.8900072251
 30
0.0
 10
-99.1118663245
 20
-19.8251438945
 30
0.0
  0
SPLINE
  5
73E
100
AcDbEntity
  8
RACCORDO
100
AcDbSpline
 62
250
  6
CONTINUOUS
 70
0
 71
3
 72
11
 73
7
 74
0
 42
0.0000001
 43
0.0000001
 44
0.0000000001
 40
0.0
 40
0.0
 40
0.0
 40
0.0
 40
0.2488300141
 40
0.4983458138
 40
0.7488299219
 40
1.0
 40
1.0
 40
1.0
 40
1.0
 10
-101.694758761
 20
-20.3144031845
 30
0.0
 10
-101.7590173917
 20
-20.3141788787
 30
0.0
 10
-101.8890426135
 20
-20.2877291275
 30
0.0
 10
-102.0529454728
 20
-20.1761598758
 30
0.0
 10
-102.1624295263
 20
-20.0102134792
 30
0.0
 10
-102.1879724647
 20
-19.8792695618
 30
0.0
 10
-102.1879679183
 20
-19.8144062307
 30
0.0
  0
SPLINE
  5
73F
100
AcDbEntity
  8
RACCORDO
100
AcDbSpline
 62
7
  6
CONTINUOUS
 70
0
 71
3
 72
12
 73
8
 74
0
 42
0.0000001
 43
0.0000001
 44
0.0000000001
 40
0.0
 40
0.0
 40
0.0
 40
0.0
 40
0.0826437177
 40
0.1850504349
 40
0.4315849375
 40
0.7094062624
 40
1.0
 40
1.0
 40
1.0
 40
1.0
 10
-89.8931655807
 20
24.3555986834
 30
0.0
 10
-89.8654922349
 20
24.355695282
 30
0.0
 10
-89.8039445368
 20
24.3415566722
 30
0.0
 10
-89.671111983
 20
24.2847333322
 30
0.0
 10
-89.4904580578
 20
24.1763784456
 30
0.0
 10
-89.2641071365
 20
24.0242866062
 30
0.0
 10
-89.1084749063
 20
23.9146135177
 30
0.0
 10
-89.0288942749
 20
23.8586186178
 30
0.0
  0
SPLINE
  5
740
100
AcDbEntity
  8
RACCORDO
100
AcDbSpline
 62
250
  6
CONTINUOUS
 70
0
 71
3
 72
18
 73
14
 74
0
 42
0.0000001
 43
0.0000001
 44
0.0000000001
 40
0.0
 40
0.0
 40
0.0
 40
0.0
 40
0.0048601874
 40
0.0192877421
 40
0.0431073449
 40
0.0761382506
 40
0.1181391506
 40
0.1686287226
 40
0.292908419
 40
0.4443729578
 40
0.6173247188
 40
0.8053169945
 40
1.0
 40
1.0
 40
1.0
 40
1.0
 10
-98.6186571672
 20
24.3251408483
 30
0.0
 10
-98.6194672031
 20
24.3251380208
 30
0.0
 10
-98.6178836159
 20
24.3199830346
 30
0.0
 10
-98.6196229954
 20
24.3146584365
 30
0.0
 10
-98.6188226238
 20
24.301730875
 30
0.0
 10
-98.6193188837
 20
24.2857131155
 30
0.0
 10
-98.6192442691
 20
24.2646184312
 30
0.0
 10
-98.6193944854
 20
24.2285701042
 30
0.0
 10
-98.619381056
 20
24.1741466633
 30
0.0
 10
-98.619345881
 20
24.0993837414
 30
0.0
 10
-98.6191975796
 20
24.0139746253
 30
0.0
 10
-98.6189715728
 20
23.9213714005
 30
0.0
 10
-98.6187704289
 20
23.8575912481
 30
0.0
 10
-98.6186571672
 20
23.8251438945
 30
0.0
  0
SPLINE
  5
741
100
AcDbEntity
  8
RACCORDO
100
AcDbSpline
 62
7
  6
CONTINUOUS
 70
0
 71
3
 72
12
 73
8
 74
0
 42
0.0000001
 43
0.0000001
 44
0.0000000001
 40
0.0
 40
0.0
 40
0.0
 40
0.0
 40
0.2905966587
 40
0.5684224123
 40
0.8149515754
 40
0.9173554219
 40
1.0
 40
1.0
 40
1.0
 40
1.0
 10
-89.0288942749
 20
-19.8586186178
 30
0.0
 10
-89.1084756966
 20
-19.9146140737
 30
0.0
 10
-89.2641101142
 20
-20.0242881969
 30
0.0
 10
-89.4904610019
 20
-20.1763815836
 30
0.0
 10
-89.6711156007
 20
-20.2847321891
 30
0.0
 10
-89.803944753
 20
-20.3415572754
 30
0.0
 10
-89.8654919501
 20
-20.355695283
 30
0.0
 10
-89.8931655807
 20
-20.3555986834
 30
0.0
  0
SPLINE
  5
742
100
AcDbEntity
  8
RACCORDO
100
AcDbSpline
 62
250
  6
CONTINUOUS
 70
0
 71
3
 72
18
 73
14
 74
0
 42
0.0000001
 43
0.0000001
 44
0.0000000001
 40
0.0
 40
0.0
 40
0.0
 40
0.0
 40
0.1946830055
 40
0.3826752812
 40
0.5556270422
 40
0.707091581
 40
0.8313712774
 40
0.8818608494
 40
0.9238617494
 40
0.9568926551
 40
0.9807122579
 40
0.9951398126
 40
1.0
 40
1.0
 40
1.0
 40
1.0
 10
-98.6186571672
 20
-19.8251438945
 30
0.0
 10
-98.6187704289
 20
-19.8575912481
 30
0.0
 10
-98.6189715728
 20
-19.9213714005
 30
0.0
 10
-98.6191975796
 20
-20.0139746253
 30
0.0
 10
-98.619345881
 20
-20.0993837414
 30
0.0
 10
-98.619381056
 20
-20.1741466633
 30
0.0
 10
-98.6193944854
 20
-20.2285701042
 30
0.0
 10
-98.6192442691
 20
-20.2646184312
 30
0.0
 10
-98.6193188837
 20
-20.2857131155
 30
0.0
 10
-98.6188226238
 20
-20.301730875
 30
0.0
 10
-98.6196229954
 20
-20.3146584365
 30
0.0
 10
-98.6178836159
 20
-20.3199830346
 30
0.0
 10
-98.6194672031
 20
-20.3251380208
 30
0.0
 10
-98.6186571672
 20
-20.3251408483
 30
0.0
  0
SPLINE
  5
743
100
AcDbEntity
  8
RACCORDO
100
AcDbSpline
 62
250
  6
CONTINUOUS
 70
0
 71
3
 72
21
 73
17
 74
0
 42
0.0000001
 43
0.0000001
 44
0.0000000001
 40
0.0
 40
0.0
 40
0.0
 40
0.0
 40
0.1949208582
 40
0.3827180295
 40
0.5555681349
 40
0.7070557956
 40
0.7729792766
 40
0.83144611
 40
0.8818811935
 40
0.9238474042
 40
0.956917277
 40
0.9807421665
 40
0.9891323036
 40
0.9951496205
 40
0.9987763115
 40
1.0
 40
1.0
 40
1.0
 40
1.0
 10
-89.0288942749
 20
-27.108621664
 30
0.0
 10
-89.029121076
 20
-27.1735959259
 30
0.0
 10
-89.0295229861
 20
-27.3011699869
 30
0.0
 10
-89.0299780282
 20
-27.4863619201
 30
0.0
 10
-89.0302624039
 20
-27.6570756309
 30
0.0
 10
-89.0303563951
 20
-27.7871659654
 30
0.0
 10
-89.0303258414
 20
-27.8791247363
 30
0.0
 10
-89.0302625661
 20
-27.9374057213
 30
0.0
 10
-89.0301389523
 20
-27.9876808969
 30
0.0
 10
-89.0300161606
 20
-28.0295471826
 30
0.0
 10
-89.0297383808
 20
-28.0623907653
 30
0.0
 10
-89.0297069078
 20
-28.0843825654
 30
0.0
 10
-89.029271995
 20
-28.0968131079
 30
0.0
 10
-89.0295202256
 20
-28.1033401714
 30
0.0
 10
-89.0287020149
 20
-28.10604194
 30
0.0
 10
-89.0293021751
 20
-28.1086141478
 30
0.0
 10
-89.0288942749
 20
-28.1086155717
 30
0.0
  0
SPLINE
  5
744
100
AcDbEntity
  8
RACCORDO
100
AcDbSpline
 62
250
  6
CONTINUOUS
 70
0
 71
3
 72
21
 73
17
 74
0
 42
0.0000001
 43
0.0000001
 44
0.0000000001
 40
0.0
 40
0.0
 40
0.0
 40
0.0
 40
0.0012236885
 40
0.0048503795
 40
0.0108676964
 40
0.0192578335
 40
0.043082723
 40
0.0761525958
 40
0.1181188065
 40
0.16855389
 40
0.2270207234
 40
0.2929442044
 40
0.4444318651
 40
0.6172819705
 40
0.8050791418
 40
1.0
 40
1.0
 40
1.0
 40
1.0
 10
-89.0288942749
 20
32.1086155717
 30
0.0
 10
-89.0293021751
 20
32.1086141478
 30
0.0
 10
-89.0287020149
 20
32.10604194
 30
0.0
 10
-89.0295202256
 20
32.1033401714
 30
0.0
 10
-89.029271995
 20
32.0968131079
 30
0.0
 10
-89.0297069078
 20
32.0843825654
 30
0.0
 10
-89.0297383808
 20
32.0623907653
 30
0.0
 10
-89.0300161606
 20
32.0295471826
 30
0.0
 10
-89.0301389523
 20
31.9876808969
 30
0.0
 10
-89.0302625661
 20
31.9374057213
 30
0.0
 10
-89.0303258414
 20
31.8791247363
 30
0.0
 10
-89.0303563951
 20
31.7871659654
 30
0.0
 10
-89.0302624039
 20
31.6570756309
 30
0.0
 10
-89.0299780282
 20
31.4863619201
 30
0.0
 10
-89.0295229861
 20
31.3011699869
 30
0.0
 10
-89.029121076
 20
31.1735959259
 30
0.0
 10
-89.0288942749
 20
31.108621664
 30
0.0
  0
SPLINE
  5
745
100
AcDbEntity
  8
RACCORDO
100
AcDbSpline
 62
250
  6
CONTINUOUS
 70
0
 71
3
 72
11
 73
7
 74
0
 42
0.0000001
 43
0.0000001
 44
0.0000000001
 40
0.0
 40
0.0
 40
0.0
 40
0.0
 40
0.2492952313
 40
0.4987807853
 40
0.7488498388
 40
1.0
 40
1.0
 40
1.0
 40
1.0
 10
-99.5370661935
 20
11.9551293145
 30
0.0
 10
-99.6226915022
 20
11.9677363988
 30
0.0
 10
-99.791397872
 20
12.0183106531
 30
0.0
 10
-100.0107317402
 20
12.1645855405
 30
0.0
 10
-100.1792726847
 20
12.3680312324
 30
0.0
 10
-100.2481833343
 20
12.5309763779
 30
0.0
 10
-100.2702156144
 20
12.6153392634
 30
0.0
  0
SPLINE
  5
746
100
AcDbEntity
  8
RACCORDO
100
AcDbSpline
 62
250
  6
CONTINUOUS
 70
0
 71
3
 72
9
 73
5
 74
0
 42
0.0000001
 43
0.0000001
 44
0.0000000001
 40
0.0
 40
0.0
 40
0.0
 40
0.0
 40
0.3130292701
 40
1.0
 40
1.0
 40
1.0
 40
1.0
 10
-102.1879679183
 20
21.9661549201
 30
0.0
 10
-102.1910634796
 20
21.9686185245
 30
0.0
 10
-102.2004402489
 20
21.9767954965
 30
0.0
 10
-102.208101741
 20
21.9888866858
 30
0.0
 10
-102.208108272
 20
21.997569009
 30
0.0
  0
SPLINE
  5
747
100
AcDbEntity
  8
RACCORDO
100
AcDbSpline
 62
250
  6
CONTINUOUS
 70
0
 71
3
 72
9
 73
5
 74
0
 42
0.0000001
 43
0.0000001
 44
0.0000000001
 40
0.0
 40
0.0
 40
0.0
 40
0.0
 40
0.2398521676
 40
1.0
 40
1.0
 40
1.0
 40
1.0
 10
-102.1879679183
 20
-17.9661549201
 30
0.0
 10
-102.1795257815
 20
-17.9539531674
 30
0.0
 10
-102.1448615287
 20
-17.9027130215
 30
0.0
 10
-102.1122467341
 20
-17.8500985933
 30
0.0
 10
-102.0884253458
 20
-17.8095552415
 30
0.0
  0
SPLINE
  5
748
100
AcDbEntity
  8
RACCORDO
100
AcDbSpline
 62
250
  6
CONTINUOUS
 70
0
 71
3
 72
9
 73
5
 74
0
 42
0.0000001
 43
0.0000001
 44
0.0000000001
 40
0.0
 40
0.0
 40
0.0
 40
0.0
 40
0.2406781516
 40
1.0
 40
1.0
 40
1.0
 40
1.0
 10
-102.0884253458
 20
-17.8095552415
 30
0.0
 10
-102.0801500698
 20
-17.7954709479
 30
0.0
 10
-102.0462536506
 20
-17.7366662124
 30
0.0
 10
-102.0142310669
 20
-17.6767888677
 30
0.0
 10
-101.9908077001
 20
-17.6308821278
 30
0.0
  0
SPLINE
  5
749
100
AcDbEntity
  8
RACCORDO
100
AcDbSpline
 62
250
  6
CONTINUOUS
 70
0
 71
3
 72
13
 73
9
 74
0
 42
0.0000001
 43
0.0000001
 44
0.0000000001
 40
0.0
 40
0.0
 40
0.0
 40
0.0
 40
0.075393176
 40
0.1660437265
 40
0.2716748077
 40
0.391756067
 40
0.6722207889
 40
1.0
 40
1.0
 40
1.0
 40
1.0
 10
-101.8951013148
 20
-17.4309103995
 30
0.0
 10
-101.8051999475
 20
-17.2312924836
 30
0.0
 10
-101.6335997388
 20
-16.7798180671
 30
0.0
 10
-101.407047963
 20
-16.023779147
 30
0.0
 10
-101.1897840297
 20
-15.1308141153
 30
0.0
 10
-100.8999500118
 20
-13.6895375202
 30
0.0
 10
-100.5852252857
 20
-11.5969988324
 30
0.0
 10
-100.3977561678
 20
-9.8403485652
 30
0.0
 10
-100.3119989497
 20
-8.8924078656
 30
0.0
  0
SPLINE
  5
74A
100
AcDbEntity
  8
RACCORDO
100
AcDbSpline
 62
250
  6
CONTINUOUS
 70
0
 71
3
 72
10
 73
6
 74
0
 42
0.0000001
 43
0.0000001
 44
0.0000000001
 40
0.0
 40
0.0
 40
0.0
 40
0.0
 40
0.7028190102
 40
0.9029429248
 40
1.0
 40
1.0
 40
1.0
 40
1.0
 10
-100.3119989497
 20
-8.8924078656
 30
0.0
 10
-100.3109596905
 20
-8.8809237709
 30
0.0
 10
-100.3089305662
 20
-8.8656115164
 30
0.0
 10
-100.3048664971
 20
-8.8507005282
 30
0.0
 10
-100.3015188112
 20
-8.8457678461
 30
0.0
 10
-100.2999266533
 20
-8.8457402175
 30
0.0
  0
SPLINE
  5
74B
100
AcDbEntity
  8
RACCORDO
100
AcDbSpline
 62
250
  6
CONTINUOUS
 70
0
 71
3
 72
13
 73
9
 74
0
 42
0.0000001
 43
0.0000001
 44
0.0000000001
 40
0.0
 40
0.0
 40
0.0
 40
0.0
 40
0.10334647
 40
0.1894888309
 40
0.3016668952
 40
0.4398839687
 40
0.6033686058
 40
1.0
 40
1.0
 40
1.0
 40
1.0
 10
-99.4178949177
 20
-8.8303442963
 30
0.0
 10
-99.3942604972
 20
-8.829945603
 30
0.0
 10
-99.3595494974
 20
-8.7906168225
 30
0.0
 10
-99.3306664835
 20
-8.7308677532
 30
0.0
 10
-99.3041833382
 20
-8.6574677419
 30
0.0
 10
-99.2796032589
 20
-8.5663312649
 30
0.0
 10
-99.2460425846
 20
-8.40996814
 30
0.0
 10
-99.2271132124
 20
-8.2831947183
 30
0.0
 10
-99.2156531013
 20
-8.1932024961
 30
0.0
  0
SPLINE
  5
74C
100
AcDbEntity
  8
RACCORDO
100
AcDbSpline
 62
250
  6
CONTINUOUS
 70
0
 71
3
 72
9
 73
5
 74
0
 42
0.0000001
 43
0.0000001
 44
0.0000000001
 40
0.0
 40
0.0
 40
0.0
 40
0.0
 40
0.2390037103
 40
1.0
 40
1.0
 40
1.0
 40
1.0
 10
-99.2156531013
 20
-8.1932024961
 30
0.0
 10
-99.2132644167
 20
-8.1744449963
 30
0.0
 10
-99.2036618931
 20
-8.0959132114
 30
0.0
 10
-99.1955312688
 20
-8.0172043157
 30
0.0
 10
-99.1900121449
 20
-7.9572509462
 30
0.0
  0
SPLINE
  5
74D
100
AcDbEntity
  8
RACCORDO
100
AcDbSpline
 62
250
  6
CONTINUOUS
 70
0
 71
3
 72
9
 73
5
 74
0
 42
0.0000001
 43
0.0000001
 44
0.0000000001
 40
0.0
 40
0.0
 40
0.0
 40
0.0
 40
0.2318498536
 40
1.0
 40
1.0
 40
1.0
 40
1.0
 10
-99.1900121449
 20
-7.9572509462
 30
0.0
 10
-99.1826976292
 20
-7.8777945212
 30
0.0
 10
-99.1562676202
 20
-7.5346249882
 30
0.0
 10
-99.1466333712
 20
-7.1902617968
 30
0.0
 10
-99.146630505
 20
-6.9258987375
 30
0.0
  0
SPLINE
  5
74E
100
AcDbEntity
  8
RACCORDO
100
AcDbSpline
 62
250
  6
CONTINUOUS
 70
0
 71
3
 72
9
 73
5
 74
0
 42
0.0000001
 43
0.0000001
 44
0.0000000001
 40
0.0
 40
0.0
 40
0.0
 40
0.0
 40
0.2629750014
 40
1.0
 40
1.0
 40
1.0
 40
1.0
 10
-99.146630505
 20
10.9258987375
 30
0.0
 10
-99.1466325349
 20
11.0159644892
 30
0.0
 10
-99.1501811261
 20
11.3584217516
 30
0.0
 10
-99.1665732344
 20
11.7009085577
 30
0.0
 10
-99.1895567528
 20
11.9522821653
 30
0.0
  0
SPLINE
  5
74F
100
AcDbEntity
  8
RACCORDO
100
AcDbSpline
 62
250
  6
CONTINUOUS
 70
0
 71
3
 72
9
 73
5
 74
0
 42
0.0000001
 43
0.0000001
 44
0.0000000001
 40
0.0
 40
0.0
 40
0.0
 40
0.0
 40
0.2605449869
 40
1.0
 40
1.0
 40
1.0
 40
1.0
 10
-99.1895567528
 20
11.9522821653
 30
0.0
 10
-99.1914310856
 20
11.9727819778
 30
0.0
 10
-99.1989283859
 20
12.0514340431
 30
0.0
 10
-99.2076586037
 20
12.1299717222
 30
0.0
 10
-99.2149851348
 20
12.1879338932
 30
0.0
  0
SPLINE
  5
750
100
AcDbEntity
  8
RACCORDO
100
AcDbSpline
 62
250
  6
CONTINUOUS
 70
0
 71
3
 72
13
 73
9
 74
0
 42
0.0000001
 43
0.0000001
 44
0.0000000001
 40
0.0
 40
0.0
 40
0.0
 40
0.0
 40
0.3966657343
 40
0.5602052973
 40
0.6984746508
 40
0.8106901997
 40
0.8968357575
 40
1.0
 40
1.0
 40
1.0
 40
1.0
 10
-99.2149851348
 20
12.1879338932
 30
0.0
 10
-99.2264502768
 20
12.2786377372
 30
0.0
 10
-99.2454054172
 20
12.406424712
 30
0.0
 10
-99.2790512399
 20
12.5640640805
 30
0.0
 10
-99.3037096047
 20
12.6559624318
 30
0.0
 10
-99.3302920283
 20
12.7299986218
 30
0.0
 10
-99.3592662382
 20
12.7902033589
 30
0.0
 10
-99.3941203466
 20
12.8299505734
 30
0.0
 10
-99.4178949177
 20
12.8303442963
 30
0.0
  0
SPLINE
  5
751
100
AcDbEntity
  8
RACCORDO
100
AcDbSpline
 62
250
  6
CONTINUOUS
 70
0
 71
3
 72
10
 73
6
 74
0
 42
0.0000001
 43
0.0000001
 44
0.0000000001
 40
0.0
 40
0.0
 40
0.0
 40
0.0
 40
0.0970532089
 40
0.2971822811
 40
1.0
 40
1.0
 40
1.0
 40
1.0
 10
-100.2999266533
 20
12.8457402175
 30
0.0
 10
-100.3015187269
 20
12.8457691615
 30
0.0
 10
-100.3048667435
 20
12.8506989861
 30
0.0
 10
-100.3089301667
 20
12.8656133899
 30
0.0
 10
-100.3109599597
 20
12.88092375
 30
0.0
 10
-100.3119989497
 20
12.8924078656
 30
0.0
  0
SPLINE
  5
752
100
AcDbEntity
  8
RACCORDO
100
AcDbSpline
 62
250
  6
CONTINUOUS
 70
0
 71
3
 72
12
 73
8
 74
0
 42
0.0000001
 43
0.0000001
 44
0.0000000001
 40
0.0
 40
0.0
 40
0.0
 40
0.0
 40
0.3219006579
 40
0.6000342765
 40
0.8276099533
 40
0.9208952457
 40
1.0
 40
1.0
 40
1.0
 40
1.0
 10
-100.3119989497
 20
12.8924078656
 30
0.0
 10
-100.3939691829
 20
13.7984880656
 30
0.0
 10
-100.5725500187
 20
15.485430727
 30
0.0
 10
-100.9144339973
 20
17.7999258151
 30
0.0
 10
-101.2543354614
 20
19.4602738567
 30
0.0
 10
-101.5597060207
 20
20.5490946101
 30
0.0
 10
-101.7202897157
 20
21.0096998068
 30
0.0
 10
-101.8039961904
 20
21.2170103068
 30
0.0
  0
SPLINE
  5
753
100
AcDbEntity
  8
RACCORDO
100
AcDbSpline
 62
250
  6
CONTINUOUS
 70
0
 71
3
 72
9
 73
5
 74
0
 42
0.0000001
 43
0.0000001
 44
0.0000000001
 40
0.0
 40
0.0
 40
0.0
 40
0.0
 40
0.2607178811
 40
1.0
 40
1.0
 40
1.0
 40
1.0
 10
-101.8039961904
 20
21.2170103068
 30
0.0
 10
-101.8142908705
 20
21.2425064859
 30
0.0
 10
-101.8543824372
 20
21.3400515014
 30
0.0
 10
-101.8969752794
 20
21.4365804097
 30
0.0
 10
-101.9301874163
 20
21.507119747
 30
0.0
  0
SPLINE
  5
754
100
AcDbEntity
  8
RACCORDO
100
AcDbSpline
 62
250
  6
CONTINUOUS
 70
0
 71
3
 72
9
 73
5
 74
0
 42
0.0000001
 43
0.0000001
 44
0.0000000001
 40
0.0
 40
0.0
 40
0.0
 40
0.0
 40
0.2593180558
 40
1.0
 40
1.0
 40
1.0
 40
1.0
 10
-101.992443778
 20
21.6340857701
 30
0.0
 10
-102.0003828807
 20
21.6496105801
 30
0.0
 10
-102.031393901
 20
21.7092742542
 30
0.0
 10
-102.0640341753
 20
21.7680986117
 30
0.0
 10
-102.0892893328
 20
21.8110251894
 30
0.0
  0
SPLINE
  5
755
100
AcDbEntity
  8
RACCORDO
100
AcDbSpline
 62
250
  6
CONTINUOUS
 70
0
 71
3
 72
9
 73
5
 74
0
 42
0.0000001
 43
0.0000001
 44
0.0000000001
 40
0.0
 40
0.0
 40
0.0
 40
0.0
 40
0.2601662156
 40
1.0
 40
1.0
 40
1.0
 40
1.0
 10
-102.0892893328
 20
21.8110251894
 30
0.0
 10
-102.097375408
 20
21.8247692152
 30
0.0
 10
-102.1288849105
 20
21.8773419044
 30
0.0
 10
-102.1621671264
 20
21.9288640962
 30
0.0
 10
-102.1879679183
 20
21.9661549201
 30
0.0
  0
SPLINE
  5
756
100
AcDbEntity
  8
RACCORDO
100
AcDbSpline
 62
250
  6
CONTINUOUS
 70
0
 71
3
 72
9
 73
5
 74
0
 42
0.0000001
 43
0.0000001
 44
0.0000000001
 40
0.0
 40
0.0
 40
0.0
 40
0.0
 40
0.2055203835
 40
1.0
 40
1.0
 40
1.0
 40
1.0
 10
-102.2080997725
 20
-17.997569142
 30
0.0
 10
-102.2080981181
 20
-17.9949581179
 30
0.0
 10
-102.2058125384
 20
-17.9821943938
 30
0.0
 10
-102.1958651521
 20
-17.9724407018
 30
0.0
 10
-102.1879679183
 20
-17.9661549201
 30
0.0
  0
SPLINE
  5
757
100
AcDbEntity
  8
RACCORDO
100
AcDbSpline
 62
250
  6
CONTINUOUS
 70
0
 71
3
 72
8
 73
4
 74
0
 42
0.0000001
 43
0.0000001
 44
0.0000000001
 40
0.0
 40
0.0
 40
0.0
 40
0.0
 40
1.0
 40
1.0
 40
1.0
 40
1.0
 10
-100.3173849221
 20
12.8116787901
 30
0.0
 10
-100.3197826095
 20
12.8385415119
 30
0.0
 10
-100.3178429417
 20
12.8660791317
 30
0.0
 10
-100.3119989275
 20
12.8924078656
 30
0.0
  0
SPLINE
  5
758
100
AcDbEntity
  8
RACCORDO
100
AcDbSpline
 62
250
  6
CONTINUOUS
 70
0
 71
3
 72
8
 73
4
 74
0
 42
0.0000001
 43
0.0000001
 44
0.0000000001
 40
0.0
 40
0.0
 40
0.0
 40
0.0
 40
1.0
 40
1.0
 40
1.0
 40
1.0
 10
-100.3173857795
 20
-8.8117179263
 30
0.0
 10
-100.3197796615
 20
-8.8385679381
 30
0.0
 10
-100.3178398593
 20
-8.8660917569
 30
0.0
 10
-100.3119989496
 20
-8.8924078656
 30
0.0
  0
SPLINE
  5
759
100
AcDbEntity
  8
RACCORDO
100
AcDbSpline
 62
250
  6
CONTINUOUS
 70
0
 71
3
 72
11
 73
7
 74
0
 42
0.0000001
 43
0.0000001
 44
0.0000000001
 40
0.0
 40
0.0
 40
0.0
 40
0.0
 40
0.2488255811
 40
0.4983258119
 40
0.7487153623
 40
1.0
 40
1.0
 40
1.0
 40
1.0
 10
-99.4247157496
 20
-7.9458772918
 30
0.0
 10
-99.5366458884
 20
-7.9478310397
 30
0.0
 10
-99.7623681349
 20
-7.995540851
 30
0.0
 10
-100.0484375047
 20
-8.1880425079
 30
0.0
 10
-100.2440309984
 20
-8.4732715721
 30
0.0
 10
-100.295153774
 20
-8.6995629205
 30
0.0
 10
-100.2993193789
 20
-8.8125396748
 30
0.0
  0
SPLINE
  5
75A
100
AcDbEntity
  8
RACCORDO
100
AcDbSpline
 62
250
  6
CONTINUOUS
 70
0
 71
3
 72
9
 73
5
 74
0
 42
0.0000001
 43
0.0000001
 44
0.0000000001
 40
0.0
 40
0.0
 40
0.0
 40
0.0
 40
0.4986308052
 40
1.0
 40
1.0
 40
1.0
 40
1.0
 10
-102.0400255393
 20
-17.4582240881
 30
0.0
 10
-102.0902531614
 20
-17.5317325409
 30
0.0
 10
-102.1679758508
 20
-17.6962383562
 30
0.0
 10
-102.1905648109
 20
-17.8766738572
 30
0.0
 10
-102.1879677408
 20
-17.9661549201
 30
0.0
  0
ELLIPSE
  5
75B
100
AcDbEntity
  8
RACCORDO
100
AcDbEllipse
 62
7
  6
CONTINUOUS
 10
2.4999809608
 20
-31.5000190392
 30
0.0
 11
-0.3535803156
 21
-0.3535803156
 31
0.0
 40
0.9999238505
 41
2.3562325664
 42
3.9269527408
  0
ELLIPSE
  5
75C
100
AcDbEntity
  8
RACCORDO
100
AcDbEllipse
 62
7
  6
CONTINUOUS
 10
2.4999809608
 20
-32.4999809608
 30
0.0
 11
-0.3535803156
 21
0.3535803156
 31
0.0
 40
0.9999238505
 41
2.3562325664
 42
3.9269527408
  0
ELLIPSE
  5
75D
100
AcDbEntity
  8
RACCORDO
100
AcDbEllipse
 62
7
  6
CONTINUOUS
 10
-2.4999809608
 20
-32.4999809608
 30
0.0
 11
0.3535803156
 21
0.3535803156
 31
0.0
 40
0.9999238505
 41
2.3562325664
 42
3.9269527408
  0
ELLIPSE
  5
75E
100
AcDbEntity
  8
RACCORDO
100
AcDbEllipse
 62
7
  6
CONTINUOUS
 10
-2.4999809608
 20
-31.5000190392
 30
0.0
 11
0.3535803156
 21
-0.3535803156
 31
0.0
 40
0.9999238505
 41
2.3562325664
 42
3.9269527408
  0
ELLIPSE
  5
75F
100
AcDbEntity
  8
RACCORDO
100
AcDbEllipse
 62
7
  6
CONTINUOUS
 10
-7.9999619216
 20
-33.9999619216
 30
0.0
 11
0.7071606311
 21
0.7071606311
 31
0.0
 40
0.9999238505
 41
2.3562325664
 42
3.9269527408
  0
ELLIPSE
  5
760
100
AcDbEntity
  8
RACCORDO
100
AcDbEllipse
 62
7
  6
CONTINUOUS
 10
7.9999619216
 20
-33.9999619216
 30
0.0
 11
0.7071606311
 21
-0.7071606311
 31
0.0
 40
0.9999238505
 41
-0.7853600872
 42
0.7853600872
  0
ELLIPSE
  5
761
100
AcDbEntity
  8
RACCORDO
100
AcDbEllipse
 62
7
  6
CONTINUOUS
 10
-2.5130712625
 20
-32.5130712625
 30
0.0
 11
0.3535803156
 21
0.3535803156
 31
0.0
 40
0.9999238505
 41
2.3562325664
 42
3.9269527408
  0
ELLIPSE
  5
762
100
AcDbEntity
  8
RACCORDO
100
AcDbEllipse
 62
7
  6
CONTINUOUS
 10
-2.5130712625
 20
-31.4869287375
 30
0.0
 11
-0.3535803156
 21
0.3535803156
 31
0.0
 40
0.9999238505
 41
-0.5594695229
 42
0.7853600872
  0
ELLIPSE
  5
763
100
AcDbEntity
  8
RACCORDO
100
AcDbEllipse
 62
7
  6
CONTINUOUS
 10
2.5130712625
 20
-31.4869287375
 30
0.0
 11
0.3535803156
 21
0.3535803156
 31
0.0
 40
0.9999238505
 41
-0.7853600872
 42
0.5594560261
  0
ELLIPSE
  5
764
100
AcDbEntity
  8
RACCORDO
100
AcDbEllipse
 62
7
  6
CONTINUOUS
 10
2.5130712625
 20
-32.5130712625
 30
0.0
 11
0.3535803156
 21
-0.3535803156
 31
0.0
 40
0.9999238505
 41
-0.7853600872
 42
0.7853600872
  0
ELLIPSE
  5
765
100
AcDbEntity
  8
RACCORDO
100
AcDbEllipse
 62
7
  6
CONTINUOUS
 10
-25.1999619216
 20
-29.9999619216
 30
0.0
 11
-0.7071606311
 21
-0.7071606311
 31
0.0
 40
0.9999238505
 41
-0.7853600872
 42
0.7853600872
  0
ELLIPSE
  5
766
100
AcDbEntity
  8
RACCORDO
100
AcDbEllipse
 62
7
  6
CONTINUOUS
 10
-25.1999619216
 20
33.9999619216
 30
0.0
 11
0.7071606311
 21
-0.7071606311
 31
0.0
 40
0.9999238505
 41
2.3562325664
 42
3.9269527408
  0
ELLIPSE
  5
767
100
AcDbEntity
  8
RACCORDO
100
AcDbEllipse
 62
7
  6
CONTINUOUS
 10
25.1999619216
 20
33.9999619216
 30
0.0
 11
0.7071606311
 21
0.7071606311
 31
0.0
 40
0.9999238505
 41
-0.7853600872
 42
0.7853600872
  0
ELLIPSE
  5
768
100
AcDbEntity
  8
RACCORDO
100
AcDbEllipse
 62
7
  6
CONTINUOUS
 10
25.1999619216
 20
-29.9999619216
 30
0.0
 11
-0.7071606311
 21
0.7071606311
 31
0.0
 40
0.9999238505
 41
2.3562325664
 42
3.9269527408
  0
ELLIPSE
  5
769
100
AcDbEntity
  8
RACCORDO
100
AcDbEllipse
 62
7
  6
CONTINUOUS
 10
-10.617491814
 20
33.982508186
 30
0.0
 11
0.7071606311
 21
0.7071606311
 31
0.0
 40
0.9999238505
 41
-0.7853600872
 42
0.7853600872
  0
ELLIPSE
  5
76A
100
AcDbEntity
  8
RACCORDO
100
AcDbEllipse
 62
7
  6
CONTINUOUS
 10
-10.6
 20
-29.9999619216
 30
0.0
 11
0.0
 21
1.0000380784
 31
0.0
 40
0.9999619231
 41
-3.1415926536
 42
-1.5707963268
  0
ELLIPSE
  5
76B
100
AcDbEntity
  8
RACCORDO
100
AcDbEllipse
 62
7
  6
CONTINUOUS
 10
-10.6
 20
-29.982508186
 30
0.0
 11
0.0
 21
1.0000380784
 31
0.0
 40
0.9999619231
 41
3.1415926536
 42
4.7123889804
  0
ELLIPSE
  5
76C
100
AcDbEntity
  8
RACCORDO
100
AcDbEllipse
 62
7
  6
CONTINUOUS
 10
10.6
 20
-29.982508186
 30
0.0
 11
-0.0
 21
-1.0000380784
 31
0.0
 40
0.9999619231
 41
-1.5707963268
 42
-0.0
  0
ELLIPSE
  5
76D
100
AcDbEntity
  8
RACCORDO
100
AcDbEllipse
 62
7
  6
CONTINUOUS
 10
10.617491814
 20
33.982508186
 30
0.0
 11
0.7071606311
 21
-0.7071606311
 31
0.0
 40
0.9999238505
 41
2.3562325664
 42
3.9269527408
  0
ELLIPSE
  5
76E
100
AcDbEntity
  8
RACCORDO
100
AcDbEllipse
 62
7
  6
CONTINUOUS
 10
-10.6000380784
 20
33.9999619216
 30
0.0
 11
0.7071606311
 21
0.7071606311
 31
0.0
 40
0.9999238505
 41
-0.7853600872
 42
0.7853600872
  0
ELLIPSE
  5
76F
100
AcDbEntity
  8
RACCORDO
100
AcDbEllipse
 62
7
  6
CONTINUOUS
 10
10.6000380784
 20
33.9999619216
 30
0.0
 11
0.7071606311
 21
-0.7071606311
 31
0.0
 40
0.9999238505
 41
2.3562325664
 42
3.9269527408
  0
ELLIPSE
  5
770
100
AcDbEntity
  8
RACCORDO
100
AcDbEllipse
 62
7
  6
CONTINUOUS
 10
10.6
 20
-29.9999619216
 30
0.0
 11
0.0
 21
1.0000380784
 31
0.0
 40
0.9999619231
 41
1.5707963268
 42
3.1415926536
  0
ELLIPSE
  5
771
100
AcDbEntity
  8
RACCORDO
100
AcDbEllipse
 62
7
  6
CONTINUOUS
 10
20.0
 20
-28.222115353
 30
0.0
 11
2.0116695065
 21
-0.0
 31
0.0
 40
0.0034906727
 41
0.0058177642
 42
3.1357748894
  0
ELLIPSE
  5
772
100
AcDbEntity
  8
RACCORDO
100
AcDbEllipse
 62
7
  6
CONTINUOUS
 10
6.3
 20
-28.222115353
 30
0.0
 11
2.0116695065
 21
-0.0
 31
0.0
 40
0.0034906727
 41
0.0058177642
 42
3.1357748894
  0
ELLIPSE
  5
773
100
AcDbEntity
  8
RACCORDO
100
AcDbEllipse
 62
7
  6
CONTINUOUS
 10
-6.3
 20
-28.222115353
 30
0.0
 11
2.0116695065
 21
-0.0
 31
0.0
 40
0.0034906727
 41
0.0058177642
 42
3.1357748894
  0
ELLIPSE
  5
774
100
AcDbEntity
  8
RACCORDO
100
AcDbEllipse
 62
7
  6
CONTINUOUS
 10
-20.0
 20
-28.222115353
 30
0.0
 11
2.0116695065
 21
-0.0
 31
0.0
 40
0.0034906727
 41
0.0058177642
 42
3.1357748894
  0
ELLIPSE
  5
775
100
AcDbEntity
  8
RACCORDO
100
AcDbEllipse
 62
7
  6
CONTINUOUS
 10
20.0
 20
32.222115353
 30
0.0
 11
2.0116695065
 21
0.0
 31
0.0
 40
0.0034906727
 41
-3.1357748894
 42
-0.0058177642
  0
ELLIPSE
  5
776
100
AcDbEntity
  8
RACCORDO
100
AcDbEllipse
 62
7
  6
CONTINUOUS
 10
6.3
 20
32.222115353
 30
0.0
 11
2.0116695065
 21
-0.0
 31
0.0
 40
0.0034906727
 41
-3.1357748894
 42
-0.0058177642
  0
ELLIPSE
  5
777
100
AcDbEntity
  8
RACCORDO
100
AcDbEllipse
 62
7
  6
CONTINUOUS
 10
-25.2999939076
 20
-27.2499939076
 30
0.0
 11
0.7071153971
 21
0.7071153971
 31
0.0
 40
0.9999878154
 41
-3.9269847247
 42
-2.3562005825
  0
ELLIPSE
  5
778
100
AcDbEntity
  8
RACCORDO
100
AcDbEllipse
 62
7
  6
CONTINUOUS
 10
-6.3
 20
32.222115353
 30
0.0
 11
2.0116695065
 21
-0.0
 31
0.0
 40
0.0034906727
 41
-3.1357748894
 42
-0.0058177642
  0
ELLIPSE
  5
779
100
AcDbEntity
  8
RACCORDO
100
AcDbEllipse
 62
7
  6
CONTINUOUS
 10
-20.0
 20
32.222115353
 30
0.0
 11
2.0116695065
 21
0.0
 31
0.0
 40
0.0034906727
 41
-3.1357748894
 42
-0.0058177642
  0
ELLIPSE
  5
77A
100
AcDbEntity
  8
RACCORDO
100
AcDbEllipse
 62
7
  6
CONTINUOUS
 10
-26.2074971739
 20
25.0972863359
 30
0.0
 11
-0.0
 21
5.0
 31
0.0
 40
0.0034906727
 41
-1.5707963268
 42
-0.0057595865
  0
ELLIPSE
  5
77B
100
AcDbEntity
  8
RACCORDO
100
AcDbEllipse
 62
7
  6
CONTINUOUS
 10
26.2074971739
 20
-21.0972863359
 30
0.0
 11
0.0
 21
5.0
 31
0.0
 40
0.0034906727
 41
-4.7123889804
 42
-3.1473522401
  0
ELLIPSE
  5
77C
100
AcDbEntity
  8
RACCORDO
100
AcDbEllipse
 62
7
  6
CONTINUOUS
 10
26.2074971739
 20
22.0
 30
0.0
 11
-0.0
 21
5.0
 31
0.0
 40
0.0034906727
 41
-0.0
 42
1.5707963268
  0
ELLIPSE
  5
77D
100
AcDbEntity
  8
RACCORDO
100
AcDbEllipse
 62
7
  6
CONTINUOUS
 10
-26.2074971739
 20
-18.0
 30
0.0
 11
0.0
 21
5.0
 31
0.0
 40
0.0034906727
 41
-3.1415926536
 42
-1.5707963268
  0
ELLIPSE
  5
77E
100
AcDbEntity
  8
RACCORDO
100
AcDbEllipse
 62
7
  6
CONTINUOUS
 10
25.2999939076
 20
31.2499939076
 30
0.0
 11
0.7071153971
 21
0.7071153971
 31
0.0
 40
0.9999878154
 41
-0.7853920711
 42
0.7853920711
  0
ELLIPSE
  5
77F
100
AcDbEntity
  8
RACCORDO
100
AcDbEllipse
 62
7
  6
CONTINUOUS
 10
2.864561498
 20
23.3551309913
 30
0.0
 11
0.8575143005
 21
-0.5145048652
 31
0.0
 40
0.9999769848
 41
2.1112227954
 42
3.6819988145
  0
ELLIPSE
  5
780
100
AcDbEntity
  8
RACCORDO
100
AcDbEllipse
 62
7
  6
CONTINUOUS
 10
2.864561498
 20
-19.3551309913
 30
0.0
 11
0.8575143005
 21
0.5145048652
 31
0.0
 40
0.9999769848
 41
2.6011864927
 42
4.1719625118
  0
ELLIPSE
  5
781
100
AcDbEntity
  8
RACCORDO
100
AcDbEllipse
 62
7
  6
CONTINUOUS
 10
-2.864561498
 20
-19.3551309913
 30
0.0
 11
0.8575143005
 21
-0.5145048652
 31
0.0
 40
0.9999769848
 41
-1.0303698582
 42
0.5404061609
  0
ELLIPSE
  5
782
100
AcDbEntity
  8
RACCORDO
100
AcDbEllipse
 62
7
  6
CONTINUOUS
 10
-2.864561498
 20
23.3551309913
 30
0.0
 11
0.8575143005
 21
0.5145048652
 31
0.0
 40
0.9999769848
 41
-0.5404061609
 42
1.0303698582
  0
ELLIPSE
  5
783
100
AcDbEntity
  8
RACCORDO
100
AcDbEllipse
 62
7
  6
CONTINUOUS
 10
13.15
 20
-28.1748487013
 30
0.0
 11
5.0291737662
 21
-0.0
 31
0.0
 40
0.0034906727
 41
-3.1357748894
 42
-0.0058177642
  0
ELLIPSE
  5
784
100
AcDbEntity
  8
RACCORDO
100
AcDbEllipse
 62
7
  6
CONTINUOUS
 10
-13.15
 20
-28.1748487013
 30
0.0
 11
5.0291737662
 21
-0.0
 31
0.0
 40
0.0034906727
 41
-3.1357748894
 42
-0.0058177642
  0
ELLIPSE
  5
785
100
AcDbEntity
  8
RACCORDO
100
AcDbEllipse
 62
7
  6
CONTINUOUS
 10
13.15
 20
32.1748487013
 30
0.0
 11
5.0291737662
 21
-0.0
 31
0.0
 40
0.0034906727
 41
0.0058177642
 42
3.1357748894
  0
ELLIPSE
  5
786
100
AcDbEntity
  8
RACCORDO
100
AcDbEllipse
 62
7
  6
CONTINUOUS
 10
-13.15
 20
32.1748487013
 30
0.0
 11
5.0291737662
 21
-0.0
 31
0.0
 40
0.0034906727
 41
0.0058177642
 42
3.1357748894
  0
ELLIPSE
  5
787
100
AcDbEntity
  8
RACCORDO
100
AcDbEllipse
 62
7
  6
CONTINUOUS
 10
-25.158621664
 20
-20.3586277564
 30
0.0
 11
1.0
 21
-0.0
 31
0.0
 40
0.0034906727
 41
1.5707963268
 42
2.0909114787
  0
ELLIPSE
  5
788
100
AcDbEntity
  8
RACCORDO
100
AcDbEllipse
 62
7
  6
CONTINUOUS
 10
-8.0103720845
 20
-27.108621664
 30
0.0
 11
0.0
 21
1.0
 31
0.0
 40
0.0058178298
 41
-3.1381019951
 42
-1.5707963268
  0
ELLIPSE
  5
789
100
AcDbEntity
  8
RACCORDO
100
AcDbEllipse
 62
7
  6
CONTINUOUS
 10
23.2729318279
 20
10.7729318279
 30
0.0
 11
-0.7073221892
 21
-0.7073221892
 31
0.0
 40
0.9996954599
 41
2.3563467834
 42
3.9268385237
  0
ELLIPSE
  5
78A
100
AcDbEntity
  8
RACCORDO
100
AcDbEllipse
 62
7
  6
CONTINUOUS
 10
23.2729318279
 20
-6.7729318279
 30
0.0
 11
-0.7073221892
 21
0.7073221892
 31
0.0
 40
0.9996954599
 41
2.3563467834
 42
3.9268385237
  0
ELLIPSE
  5
78B
100
AcDbEntity
  8
RACCORDO
100
AcDbEllipse
 62
7
  6
CONTINUOUS
 10
-23.2729318279
 20
-6.7729318279
 30
0.0
 11
0.7073221892
 21
0.7073221892
 31
0.0
 40
0.9996954599
 41
2.3563467834
 42
3.9268385237
  0
ELLIPSE
  5
78C
100
AcDbEntity
  8
RACCORDO
100
AcDbEllipse
 62
7
  6
CONTINUOUS
 10
-23.2729318279
 20
10.7729318279
 30
0.0
 11
0.7073221892
 21
-0.7073221892
 31
0.0
 40
0.9996954599
 41
2.3563467834
 42
3.9268385237
  0
ELLIPSE
  5
78D
100
AcDbEntity
  8
RACCORDO
100
AcDbEllipse
 62
7
  6
CONTINUOUS
 10
-18.2896279155
 20
-27.108621664
 30
0.0
 11
-0.0
 21
1.0
 31
0.0
 40
0.0058178298
 41
-4.7123889804
 42
-3.1450833121
  0
ELLIPSE
  5
78E
100
AcDbEntity
  8
RACCORDO
100
AcDbEllipse
 62
7
  6
CONTINUOUS
 10
18.2896279155
 20
-27.108621664
 30
0.0
 11
0.0
 21
1.0
 31
0.0
 40
0.0058178298
 41
-3.1381019951
 42
-1.5707963268
  0
ELLIPSE
  5
78F
100
AcDbEntity
  8
RACCORDO
100
AcDbEllipse
 62
7
  6
CONTINUOUS
 10
8.0103720845
 20
-27.108621664
 30
0.0
 11
0.0
 21
1.0
 31
0.0
 40
0.0058178298
 41
1.5707963268
 42
3.1381019951
  0
ELLIPSE
  5
790
100
AcDbEntity
  8
RACCORDO
100
AcDbEllipse
 62
7
  6
CONTINUOUS
 10
8.0103720845
 20
31.108621664
 30
0.0
 11
0.0
 21
1.0
 31
0.0
 40
0.0058178298
 41
0.0034906585
 42
1.5707963268
  0
ELLIPSE
  5
791
100
AcDbEntity
  8
RACCORDO
100
AcDbEllipse
 62
7
  6
CONTINUOUS
 10
18.2896279155
 20
31.108621664
 30
0.0
 11
0.0
 21
1.0
 31
0.0
 40
0.0058178298
 41
-1.5707963268
 42
-0.0034906585
  0
ELLIPSE
  5
792
100
AcDbEntity
  8
RACCORDO
100
AcDbEllipse
 62
7
  6
CONTINUOUS
 10
-18.2896279155
 20
31.108621664
 30
0.0
 11
-0.0
 21
1.0
 31
0.0
 40
0.0058178298
 41
0.0034906585
 42
1.5707963268
  0
ELLIPSE
  5
793
100
AcDbEntity
  8
RACCORDO
100
AcDbEllipse
 62
7
  6
CONTINUOUS
 10
-8.0103720845
 20
31.108621664
 30
0.0
 11
-0.0
 21
1.0
 31
0.0
 40
0.0058178298
 41
-1.5707963268
 42
-0.0034906585
  0
ELLIPSE
  5
794
100
AcDbEntity
  8
RACCORDO
100
AcDbEllipse
 62
7
  6
CONTINUOUS
 10
25.158621664
 20
-20.3586277564
 30
0.0
 11
1.0
 21
-0.0
 31
0.0
 40
0.0034906727
 41
1.0506811749
 42
1.5707963268
  0
ELLIPSE
  5
795
100
AcDbEntity
  8
RACCORDO
100
AcDbEllipse
 62
7
  6
CONTINUOUS
 10
-25.158621664
 20
24.3586277564
 30
0.0
 11
1.0
 21
0.0
 31
0.0
 40
0.0034906727
 41
-2.0909114787
 42
-1.5707963268
  0
ELLIPSE
  5
796
100
AcDbEntity
  8
RACCORDO
100
AcDbEllipse
 62
7
  6
CONTINUOUS
 10
25.158621664
 20
24.3586277564
 30
0.0
 11
1.0
 21
-0.0
 31
0.0
 40
0.0034906727
 41
-1.5707963268
 42
-1.0506811749
  0
ELLIPSE
  5
797
100
AcDbEntity
  8
DRAFT
100
AcDbEllipse
 62
7
  6
CONTINUOUS
 10
-73.1254036235
 20
-11.3877673085
 30
0.0
 11
2.4999048366
 21
0.0308506133
 31
0.0
 40
0.7070529374
 41
-2.8650108192
 42
-1.5882482905
  0
ELLIPSE
  5
798
100
AcDbEntity
  8
RACCORDO
100
AcDbEllipse
 62
7
  6
CONTINUOUS
 10
-67.8254036235
 20
-10.1955877368
 30
0.0
 11
0.4999809673
 21
0.0061701227
 31
0.0
 40
0.7070529374
 41
-1.570794998
 42
-0.0087253174
  0
ELLIPSE
  5
799
100
AcDbEntity
  8
RACCORDO
100
AcDbEllipse
 62
7
  6
CONTINUOUS
 10
-67.8254036235
 20
-13.7966670405
 30
0.0
 11
0.4999809673
 21
-0.0061701227
 31
0.0
 40
0.7070529374
 41
-1.5533443631
 42
0.0087253174
  0
ELLIPSE
  5
79A
100
AcDbEntity
  8
DRAFT
100
AcDbEllipse
 62
7
  6
CONTINUOUS
 10
-73.1254036235
 20
-12.3823996272
 30
0.0
 11
2.4999048366
 21
0.0308506133
 31
0.0
 40
0.7070529374
 41
7.8539829628
 42
10.9781223239
  0
ENDSEC
  0
SECTION
  2
OBJECTS
  0
DICTIONARY
  5
C
100
AcDbDictionary
280
0
281
1
  3
ACAD_GROUP
350
D
  3
ACAD_MLINESTYLE
350
17
  3
ACAD_LAYOUT
350
1A
  3
ACAD_PLOTSETTINGS
350
19
  3
ACAD_PLOTSTYLENAME
350
E
  0
DICTIONARY
  5
D
102
{ACAD_REACTORS
330
C
102
}
100
AcDbDictionary
280
0
281
1
  0
ACDBDICTIONARYWDFLT
  5
E
102
{ACAD_REACTORS
330
C
102
}
100
AcDbDictionary
281
1
  3
Normal
350
F
100
AcDbDictionaryWithDefault
340
F
  0
DICTIONARY
  5
17
102
{ACAD_REACTORS
330
C
102
}
100
AcDbDictionary
280
0
281
1
  3
Standard
350
18
  0
DICTIONARY
  5
19
102
{ACAD_REACTORS
330
C
102
}
100
AcDbDictionary
281
1
  0
DICTIONARY
  5
1A
102
{ACAD_REACTORS
330
C
102
}
100
AcDbDictionary
281
1
  3
Model
350
79B
  3
Layout1
350
79C
  0
ACDBPLACEHOLDER
  5
F
102
{ACAD_REACTORS
330
E
102
}
  0
MLINESTYLE
  5
18
102
{ACAD_REACTORS
330
17
102
}
100
AcDbMlineStyle
  2
STANDARD
 70
0
  3

 62
256
 51
90.0
 52
90.0
 71
2
 49
0.5
 62
256
  6
BYLAYER
 49
-0.5
 62
256
  6
BYLAYER
  0
LAYOUT
  5
79B
102
{ACAD_REACTORS
330
1A
102
}
100
AcDbPlotSettings
  1

  2
none_device
  4
ANSI_C_(22.00_x_17.00_Inches)
  6

 40
0.0
 41
0.0
 42
0.0
 43
0.0
 44
558.8
 45
431.8
 46
0.0
 47
0.0
 48
0.0
 49
0.0
140
0.0
141
0.0
142
1.0
143
1.0
 70
1024
 72
1
 73
0
 74
0
  7

 75
0
147
1.0
148
0.0
149
0.0
100
AcDbLayout
  1
Model
 70
0
 71
0
 10
0.0
 20
0.0
 11
558.8
 21
431.8
 12
0.0
 22
0.0
 32
0.0
 14
0.0
 24
0.0
 34
0.0
 15
0.0
 25
0.0
 35
0.0
146
0.0
 13
0.0
 23
0.0
 33
0.0
 16
1.0
 26
0.0
 36
0.0
 17
0.0
 27
1.0
 37
0.0
 76
0
330
218
345
0
346
0
  0
LAYOUT
  5
79C
102
{ACAD_REACTORS
330
1A
102
}
100
AcDbPlotSettings
  1

  2
none_device
  4
ANSI_C_(22.00_x_17.00_Inches)
  6

 40
0.0
 41
0.0
 42
0.0
 43
0.0
 44
558.8
 45
431.8
 46
0.0
 47
0.0
 48
0.0
 49
0.0
140
0.0
141
0.0
142
1.0
143
1.0
 70
0
 72
1
 73
0
 74
0
  7

 75
0
147
1.0
148
0.0
149
0.0
100
AcDbLayout
  1
Layout1
 70
0
 71
1
 10
0.0
 20
0.0
 11
558.8
 21
431.8
 12
0.0
 22
0.0
 32
0.0
 14
0.0
 24
0.0
 34
0.0
 15
0.0
 25
0.0
 35
0.0
146
0.0
 13
0.0
 23
0.0
 33
0.0
 16
1.0
 26
0.0
 36
0.0
 17
0.0
 27
1.0
 37
0.0
 76
0
330
219
345
0
346
0
  0
ENDSEC
  0
EOF
