  0
SECTION
  2
HEADER
  9
$ACADVER
  1
AC1024
  9
$DWGCODEPAGE
  3
ANSI_1252
  9
$EXTMAX
 10
297.0
 20
210.0
 30
0.0
  9
$EXTMIN
 10
0.0
 20
0.0
 30
0.0
  9
$LIMMIN
 10
0.0
 20
0.0
  9
$LIMMAX
 10
297.0
 20
210.0
  9
$VIEWCTR
 10
148.5
 20
105.0
  9
$VIEWSIZE
 40
210.0
  9
$CLAYER
  8
0
  9
$LTSCALE
 40
16.335
  9
$CELTYPE
  6
BYLAYER
  9
$DIMSCALE
 40
1.0
  9
$DIMASZ
 40
3.0
  9
$DIMEXO
 40
0.5
  9
$DIMDLI
 40
11.286
  9
$DIMEXE
 40
1.5
  9
$DIMCEN
 40
2.673
  9
$DIMLFAC
 40
1.0
  9
$DIMBLK
  1
_FILLED
  9
$DIMALT
 70
0
  9
$DIMALTF
 40
0.0393700787
  9
$DIMTXT
 40
3.0
  9
$DIMTOL
 70
1
  9
$DIMLIM
 70
0
  9
$DIMTFAC
 40
1.0
  9
$DIMTP
 40
0.01
  9
$DIMTM
 40
0.01
  9
$DIMGAP
 40
0.625
  9
$DIMDSEP
 70
44
  9
$AUNITS
 70
0
  9
$PDMODE
 70
3
  9
$PDSIZE
 40
3.0
  9
$HANDSEED
  5
3A7
  9
$TILEMODE
 70
1
  9
$MEASUREMENT
 70
1
  9
$INSUNITS
 70
4
  0
ENDSEC
  0
SECTION
  2
CLASSES
  0
CLASS
  1
ACDBDICTIONARYWDFLT
  2
AcDbDictionaryWithDefault
  3
AutoCAD 2000
 90
0
 91
1
280
0
281
0
  0
CLASS
  1
ACDBPLACEHOLDER
  2
AcDbPlaceHolder
  3
AutoCAD 2000
 90
0
 91
1
280
0
281
0
  0
CLASS
  1
LAYOUT
  2
AcDbLayout
  3
AutoCAD 2000
 90
0
 91
0
280
0
281
0
  0
ENDSEC
  0
SECTION
  2
TABLES
  0
TABLE
  2
VPORT
  5
8
100
AcDbSymbolTable
 70
2
  0
VPORT
  5
1F4
100
AcDbSymbolTableRecord
100
AcDbViewportTableRecord
  2
*ACTIVE
 70
0
 10
0.0
 20
0.0
 11
1.0
 21
1.0
 12
148.5
 22
105.0
 13
0.0
 23
0.0
 14
1.0
 24
1.0
 15
0.0
 25
0.0
 16
0.0
 26
0.0
 36
1.0
 17
0.0
 27
0.0
 37
0.0
 40
210.0
 41
1.4142857143
 42
50.0
 43
0.0
 44
0.0
 50
0.0
 51
0.0
 71
0
 72
100
 73
1
 74
1
 75
0
 76
0
 77
0
 78
0
  0
ENDTAB
  0
TABLE
  2
LTYPE
  5
5
100
AcDbSymbolTable
 70
6
  0
LTYPE
  5
14
100
AcDbSymbolTableRecord
100
AcDbLinetypeTableRecord
  2
BYBLOCK
 70
0
  3

 72
65
 73
0
 40
0.0
  0
LTYPE
  5
15
100
AcDbSymbolTableRecord
100
AcDbLinetypeTableRecord
  2
BYLAYER
 70
0
  3

 72
65
 73
0
 40
0.0
  0
LTYPE
  5
16
100
AcDbSymbolTableRecord
100
AcDbLinetypeTableRecord
  2
CONTINUOUS
 70
64
  3
Solid line
 72
65
 73
0
 40
0.0
  0
LTYPE
  5
1F5
100
AcDbSymbolTableRecord
100
AcDbLinetypeTableRecord
  2
CENTER
 70
64
  3
____ _ ____ _ ____ _ ____ _ ____ _ ____ _ ____
 72
65
 73
4
 40
0.6
 49
0.375
 74
0
 49
-0.075
 74
0
 49
0.075
 74
0
 49
-0.075
 74
0
  0
LTYPE
  5
1F6
100
AcDbSymbolTableRecord
100
AcDbLinetypeTableRecord
  2
HIDDEN
 70
64
  3
- - - - - - - - - - - - - - - - - - - -
 72
65
 73
2
 40
0.2
 49
0.1
 74
0
 49
-0.1
 74
0
  0
LTYPE
  5
1F7
100
AcDbSymbolTableRecord
100
AcDbLinetypeTableRecord
  2
PHANTOM
 70
64
  3
_____ _ _ _____ _ _ _____ _ _ _____
 72
65
 73
6
 40
0.8
 49
0.45
 74
0
 49
-0.05
 74
0
 49
0.1
 74
0
 49
-0.05
 74
0
 49
0.1
 74
0
 49
-0.05
 74
0
  0
LTYPE
  5
1F8
100
AcDbSymbolTableRecord
100
AcDbLinetypeTableRecord
  2
DOT
 70
64
  3
. . . . . . . . . . . . . . . . . . . .
 72
65
 73
2
 40
0.2
 49
0.1
 74
0
 49
-0.1
 74
0
  0
LTYPE
  5
1F9
100
AcDbSymbolTableRecord
100
AcDbLinetypeTableRecord
  2
DASHED
 70
64
  3
- - - - - - - - - - - - - - - - - - - -
 72
65
 73
2
 40
0.2
 49
0.1
 74
0
 49
-0.1
 74
0
  0
ENDTAB
  0
TABLE
  2
LAYER
  5
2
100
AcDbSymbolTable
 70
36
  0
LAYER
  5
10
100
AcDbSymbolTableRecord
100
AcDbLayerTableRecord
  2
0
 70
0
 62
7
  6
CONTINUOUS
370
-3
390
F
  0
LAYER
  5
1FA
100
AcDbSymbolTableRecord
100
AcDbLayerTableRecord
  2
DEFAULT_1
 70
0
 62
7
  6
CENTER
370
-3
390
F
  0
LAYER
  5
1FB
100
AcDbSymbolTableRecord
100
AcDbLayerTableRecord
  2
DEFAULT_2
 70
0
 62
7
  6
HIDDEN
370
-3
390
F
  0
LAYER
  5
1FC
100
AcDbSymbolTableRecord
100
AcDbLayerTableRecord
  2
DEFAULT_3
 70
0
 62
7
  6
PHANTOM
370
-3
390
F
  0
LAYER
  5
1FD
100
AcDbSymbolTableRecord
100
AcDbLayerTableRecord
  2
ASSI
 70
0
 62
7
  6
CONTINUOUS
370
-3
390
F
  0
LAYER
  5
1FE
100
AcDbSymbolTableRecord
100
AcDbLayerTableRecord
  2
COORDINATE
 70
0
 62
7
  6
CONTINUOUS
370
-3
390
F
  0
LAYER
  5
1FF
100
AcDbSymbolTableRecord
100
AcDbLayerTableRecord
  2
COORD_ORIGINE
 70
0
 62
7
  6
CONTINUOUS
370
-3
390
F
  0
LAYER
  5
200
100
AcDbSymbolTableRecord
100
AcDbLayerTableRecord
  2
COPY_PUBLISH
 70
0
 62
7
  6
CONTINUOUS
370
-3
390
F
  0
LAYER
  5
201
100
AcDbSymbolTableRecord
100
AcDbLayerTableRecord
  2
COSMETICI
 70
0
 62
7
  6
CONTINUOUS
370
-3
390
F
  0
LAYER
  5
202
100
AcDbSymbolTableRecord
100
AcDbLayerTableRecord
  2
CURVE
 70
0
 62
7
  6
CONTINUOUS
370
-3
390
F
  0
LAYER
  5
203
100
AcDbSymbolTableRecord
100
AcDbLayerTableRecord
  2
DRAFT
 70
0
 62
7
  6
CONTINUOUS
370
-3
390
F
  0
LAYER
  5
204
100
AcDbSymbolTableRecord
100
AcDbLayerTableRecord
  2
IGES
 70
0
 62
7
  6
CONTINUOUS
370
-3
390
F
  0
LAYER
  5
205
100
AcDbSymbolTableRecord
100
AcDbLayerTableRecord
  2
IMPORT_IGES
 70
0
 62
7
  6
CONTINUOUS
370
-3
390
F
  0
LAYER
  5
206
100
AcDbSymbolTableRecord
100
AcDbLayerTableRecord
  2
INTF_2
 70
0
 62
7
  6
CONTINUOUS
370
-3
390
F
  0
LAYER
  5
207
100
AcDbSymbolTableRecord
100
AcDbLayerTableRecord
  2
INTF_YELLOW
 70
0
 62
7
  6
CONTINUOUS
370
-3
390
F
  0
LAYER
  5
208
100
AcDbSymbolTableRecord
100
AcDbLayerTableRecord
  2
NOTE
 70
0
 62
7
  6
CONTINUOUS
370
-3
390
F
  0
LAYER
  5
209
100
AcDbSymbolTableRecord
100
AcDbLayerTableRecord
  2
PIANI
 70
0
 62
7
  6
CONTINUOUS
370
-3
390
F
  0
LAYER
  5
20A
100
AcDbSymbolTableRecord
100
AcDbLayerTableRecord
  2
PIANI_ORIGINE
 70
0
 62
7
  6
CONTINUOUS
370
-3
390
F
  0
LAYER
  5
20B
100
AcDbSymbolTableRecord
100
AcDbLayerTableRecord
  2
PIANI_RIFERIMENTO
 70
0
 62
7
  6
CONTINUOUS
370
-3
390
F
  0
LAYER
  5
20C
100
AcDbSymbolTableRecord
100
AcDbLayerTableRecord
  2
PUNTI
 70
0
 62
7
  6
CONTINUOUS
370
-3
390
F
  0
LAYER
  5
20D
100
AcDbSymbolTableRecord
100
AcDbLayerTableRecord
  2
RACCORDO
 70
0
 62
7
  6
CONTINUOUS
370
-3
390
F
  0
LAYER
  5
20E
100
AcDbSymbolTableRecord
100
AcDbLayerTableRecord
  2
SIMBOLI
 70
0
 62
7
  6
CONTINUOUS
370
-3
390
F
  0
LAYER
  5
20F
100
AcDbSymbolTableRecord
100
AcDbLayerTableRecord
  2
SMUSSO
 70
0
 62
7
  6
CONTINUOUS
370
-3
390
F
  0
LAYER
  5
210
100
AcDbSymbolTableRecord
100
AcDbLayerTableRecord
  2
SNAPLINE
 70
0
 62
7
  6
CONTINUOUS
370
-3
390
F
  0
LAYER
  5
211
100
AcDbSymbolTableRecord
100
AcDbLayerTableRecord
  2
SUPERFICI
 70
0
 62
7
  6
CONTINUOUS
370
-3
390
F
  0
LAYER
  5
212
100
AcDbSymbolTableRecord
100
AcDbLayerTableRecord
  2
TRASH
 70
0
 62
7
  6
CONTINUOUS
370
-3
390
F
  0
LAYER
  5
213
100
AcDbSymbolTableRecord
100
AcDbLayerTableRecord
  2
XSEC_DATUMS
 70
0
 62
7
  6
CONTINUOUS
370
-3
390
F
  0
ENDTAB
  0
TABLE
  2
STYLE
  5
3
100
AcDbSymbolTable
 70
1
  0
STYLE
  5
11
100
AcDbSymbolTableRecord
100
AcDbTextStyleTableRecord
  2
STANDARD
 70
0
 40
0.0
 41
0.8
 50
0.0
 71
0
 42
0.2
  3
txt
  4

  0
STYLE
  5
214
100
AcDbSymbolTableRecord
100
AcDbTextStyleTableRecord
  2
TEXTSTYLE_1
 70
0
 40
0.0
 41
0.8
 50
0.0
 71
0
 42
0.2
  3
gdt
  4

  0
ENDTAB
  0
TABLE
  2
VIEW
  5
6
100
AcDbSymbolTable
 70
0
  0
ENDTAB
  0
TABLE
  2
UCS
  5
7
100
AcDbSymbolTable
 70
0
  0
ENDTAB
  0
TABLE
  2
APPID
  5
9
100
AcDbSymbolTable
 70
1
  0
APPID
  5
215
100
AcDbSymbolTableRecord
100
AcDbRegAppTableRecord
  2
ACAD
 70
0
  0
ENDTAB
  0
TABLE
  2
BLOCK_RECORD
  5
1
100
AcDbSymbolTable
 70
0
  0
BLOCK_RECORD
  5
216
100
AcDbSymbolTableRecord
100
AcDbBlockTableRecord
  2
*Model_Space
  0
BLOCK_RECORD
  5
217
100
AcDbSymbolTableRecord
100
AcDbBlockTableRecord
  2
*Paper_Space
  0
BLOCK_RECORD
  5
218
100
AcDbSymbolTableRecord
100
AcDbBlockTableRecord
  2
_FILLED
  0
BLOCK_RECORD
  5
219
100
AcDbSymbolTableRecord
100
AcDbBlockTableRecord
  2
*D0
  0
BLOCK_RECORD
  5
21A
100
AcDbSymbolTableRecord
100
AcDbBlockTableRecord
  2
*D1
  0
BLOCK_RECORD
  5
21B
100
AcDbSymbolTableRecord
100
AcDbBlockTableRecord
  2
*D2
  0
ENDTAB
  0
TABLE
  2
DIMSTYLE
  5
A
100
AcDbSymbolTable
 70
1
100
AcDbDimStyleTable
 71
0
  0
DIMSTYLE
105
21C
100
AcDbSymbolTableRecord
100
AcDbDimStyleTableRecord
  2
STANDARD
 70
0
  3

  4

 40
1.0
 41
3.0
 42
0.5
 43
0.38
 44
1.5
 45
0.0
 46
0.0
 47
0.01
 48
0.01
140
3.0
141
0.09
142
0.0
143
25.4
144
1.0
145
0.0
146
1.0
147
0.625
 71
1
 72
0
 73
0
 74
0
 75
0
 76
0
 77
1
 78
8
 79
2
170
0
171
1
172
0
173
0
174
0
175
0
176
0
177
0
178
0
270
2
179
2
271
2
272
2
273
2
274
2
275
0
280
0
281
0
282
0
283
1
284
8
285
0
286
0
287
3
288
0
340
11
278
44
341
218
342
218
343
218
344
218
  0
DIMSTYLE
105
21D
100
AcDbSymbolTableRecord
100
AcDbDimStyleTableRecord
  2
DIMSTYLE_1
 70
0
  3

  4

 40
1.0
 41
3.0
 42
0.5
 43
0.38
 44
1.5
 45
0.0
 46
0.0
 47
0.0
 48
0.0
140
3.0
141
0.09
142
0.0
143
25.4
144
1.0
145
0.0
146
1.0
147
0.75
 71
0
 72
0
 73
0
 74
0
 75
0
 76
0
 77
1
 78
8
 79
2
170
0
171
1
172
0
173
0
174
0
175
0
176
0
177
0
178
0
270
2
179
2
271
2
272
2
273
2
274
2
275
0
280
0
281
0
282
0
283
1
284
8
285
0
286
0
287
3
288
0
340
11
278
44
341
218
342
218
343
218
344
218
  0
DIMSTYLE
105
21E
100
AcDbSymbolTableRecord
100
AcDbDimStyleTableRecord
  2
DIMSTYLE_2
 70
0
  3

  4

 40
1.0
 41
3.0
 42
0.5
 43
0.38
 44
1.5
 45
0.0
 46
0.0
 47
0.0
 48
0.0
140
3.0
141
0.09
142
0.0
143
25.4
144
1.0
145
0.0
146
1.0
147
0.75
 71
0
 72
0
 73
0
 74
0
 75
0
 76
0
 77
1
 78
8
 79
2
170
0
171
1
172
0
173
0
174
0
175
0
176
0
177
0
178
0
270
2
179
2
271
1
272
1
273
2
274
2
275
0
280
0
281
0
282
0
283
1
284
8
285
0
286
0
287
3
288
0
340
11
278
44
341
218
342
218
343
218
344
218
  0
ENDTAB
  0
ENDSEC
  0
SECTION
  2
BLOCKS
  0
BLOCK
  5
20
100
AcDbEntity
  8
0
100
AcDbBlockBegin
  2
*Model_Space
 70
0
 10
0.0
 20
0.0
 30
0.0
  3
*Model_Space
  1

  0
ENDBLK
  5
21
100
AcDbEntity
  8
0
100
AcDbBlockEnd
  0
BLOCK
  5
1C
100
AcDbEntity
  8
0
100
AcDbBlockBegin
  2
*Paper_Space
 70
0
 10
0.0
 20
0.0
 30
0.0
  3
*Paper_Space
  1

  0
ENDBLK
  5
1D
100
AcDbEntity
  8
0
100
AcDbBlockEnd
  0
BLOCK
  5
21F
100
AcDbEntity
  8
0
100
AcDbBlockBegin
  2
_FILLED
 70
64
 10
0.0
 20
0.0
  3
_FILLED
  1

  0
SOLID
  5
220
100
AcDbEntity
  8
0
  6
BYBLOCK
 62
0
100
AcDbTrace
 10
0.0
 20
0.0
 11
-1.0
 21
0.3166666667
 12
-1.0
 22
-0.3166666667
 13
-1.0
 23
-0.3166666667
  0
ENDBLK
  5
221
100
AcDbEntity
  8
0
  6
BYBLOCK
 62
0
100
AcDbBlockEnd
  0
BLOCK
  5
222
100
AcDbEntity
  8
0
100
AcDbBlockBegin
 62
7
  6
CONTINUOUS
  2
*D0
 70
65
 10
0.0
 20
0.0
  3
*D0
  1

  0
LINE
  5
223
100
AcDbEntity
  8
0
100
AcDbLine
 62
7
  6
CONTINUOUS
 10
157.5341620685
 20
121.9766265059
 11
157.5341620685
 21
140.1144680196
  0
LINE
  5
224
100
AcDbEntity
  8
0
100
AcDbLine
 62
7
  6
CONTINUOUS
 10
179.8341620685
 20
121.9766265059
 11
179.8341620685
 21
140.1144680196
  0
LINE
  5
225
100
AcDbEntity
  8
0
100
AcDbLine
 62
7
  6
CONTINUOUS
 10
157.5341620685
 20
138.6144680196
 11
168.6841620685
 21
138.6144680196
  0
LINE
  5
226
100
AcDbEntity
  8
0
100
AcDbLine
 62
7
  6
CONTINUOUS
 10
179.8341620685
 20
138.6144680196
 11
168.6841620685
 21
138.6144680196
  0
INSERT
  5
227
100
AcDbEntity
  8
0
100
AcDbBlockReference
 62
7
  6
CONTINUOUS
  2
_FILLED
 10
157.5341620685
 20
138.6144680196
 41
3.0
 42
3.0
 43
3.0
 50
180.0
  0
INSERT
  5
228
100
AcDbEntity
  8
0
100
AcDbBlockReference
 62
7
  6
CONTINUOUS
  2
_FILLED
 10
179.8341620685
 20
138.6144680196
 41
3.0
 42
3.0
 43
3.0
  0
ENDBLK
  5
229
100
AcDbEntity
  8
0
  6
BYBLOCK
 62
0
100
AcDbBlockEnd
  0
BLOCK
  5
22A
100
AcDbEntity
  8
0
100
AcDbBlockBegin
 62
7
  6
CONTINUOUS
  2
*D1
 70
65
 10
0.0
 20
0.0
  3
*D1
  1

  0
LINE
  5
22B
100
AcDbEntity
  8
0
100
AcDbLine
 62
7
  6
CONTINUOUS
 10
179.8207080079
 20
130.5359392116
 11
189.3679191666
 21
130.5359392116
  0
LINE
  5
22C
100
AcDbEntity
  8
0
100
AcDbLine
 62
7
  6
CONTINUOUS
 10
179.8207080079
 20
86.2173138002
 11
189.3679191666
 21
86.2173138002
  0
LINE
  5
22D
100
AcDbEntity
  8
0
100
AcDbLine
 62
7
  6
CONTINUOUS
 10
187.8679191666
 20
130.5359392116
 11
187.8679191666
 21
108.3766265059
  0
LINE
  5
22E
100
AcDbEntity
  8
0
100
AcDbLine
 62
7
  6
CONTINUOUS
 10
187.8679191666
 20
86.2173138002
 11
187.8679191666
 21
108.3766265059
  0
INSERT
  5
22F
100
AcDbEntity
  8
0
100
AcDbBlockReference
 62
7
  6
CONTINUOUS
  2
_FILLED
 10
187.8679191666
 20
130.5359392116
 41
3.0
 42
3.0
 43
3.0
 50
90.0
  0
INSERT
  5
230
100
AcDbEntity
  8
0
100
AcDbBlockReference
 62
7
  6
CONTINUOUS
  2
_FILLED
 10
187.8679191666
 20
86.2173138002
 41
3.0
 42
3.0
 43
3.0
 50
270.0
  0
ENDBLK
  5
231
100
AcDbEntity
  8
0
  6
BYBLOCK
 62
0
100
AcDbBlockEnd
  0
BLOCK
  5
232
100
AcDbEntity
  8
0
100
AcDbBlockBegin
 62
7
  6
CONTINUOUS
  2
*D2
 70
65
 10
0.0
 20
0.0
  3
*D2
  1

  0
LINE
  5
233
100
AcDbEntity
  8
0
100
AcDbLine
 62
7
  6
CONTINUOUS
 10
122.9668334534
 20
121.9766265059
 11
122.9668334534
 21
140.1508145103
  0
LINE
  5
234
100
AcDbEntity
  8
0
100
AcDbLine
 62
7
  6
CONTINUOUS
 10
117.2669546601
 20
109.2247701025
 11
117.2669546601
 21
140.1508145103
  0
LINE
  5
235
100
AcDbEntity
  8
0
100
AcDbLine
 62
7
  6
CONTINUOUS
 10
122.9668334534
 20
138.6508145103
 11
134.4311543677
 21
138.6508145103
  0
LINE
  5
236
100
AcDbEntity
  8
0
100
AcDbLine
 62
7
  6
CONTINUOUS
 10
134.4311543677
 20
138.6508145103
 11
120.1168940568
 21
138.6508145103
  0
LINE
  5
237
100
AcDbEntity
  8
0
100
AcDbLine
 62
7
  6
CONTINUOUS
 10
117.2669546601
 20
138.6508145103
 11
113.2669546601
 21
138.6508145103
  0
LINE
  5
238
100
AcDbEntity
  8
0
100
AcDbLine
 62
7
  6
CONTINUOUS
 10
113.2669546601
 20
138.6508145103
 11
120.1168940568
 21
138.6508145103
  0
INSERT
  5
239
100
AcDbEntity
  8
0
100
AcDbBlockReference
 62
7
  6
CONTINUOUS
  2
_FILLED
 10
122.9668334534
 20
138.6508145103
 41
3.0
 42
3.0
 43
3.0
 50
180.0
  0
INSERT
  5
23A
100
AcDbEntity
  8
0
100
AcDbBlockReference
 62
7
  6
CONTINUOUS
  2
_FILLED
 10
117.2669546601
 20
138.6508145103
 41
3.0
 42
3.0
 43
3.0
  0
ENDBLK
  5
23B
100
AcDbEntity
  8
0
  6
BYBLOCK
 62
0
100
AcDbBlockEnd
  0
ENDSEC
  0
SECTION
  2
ENTITIES
  0
DIMENSION
  5
23C
100
AcDbEntity
  8
0
100
AcDbDimension
 62
7
  6
CONTINUOUS
  2
*D0
 10
179.8341620685
 20
138.6144680196
 11
164.3984477828
 21
138.6144680196
 70
160
 71
2
 72
2
 41
0.9
 42
22.3
  3
DIMSTYLE_1
100
AcDbAlignedDimension
 13
157.5341620685
 23
121.4766265059
 14
179.8341620685
 24
121.4766265059
100
AcDbRotatedDimension
  0
DIMENSION
  5
23D
100
AcDbEntity
  8
0
100
AcDbDimension
 62
7
  6
CONTINUOUS
  2
*D1
 10
187.8679191666
 20
86.2173138002
 11
187.8679191666
 21
104.0909122202
 70
160
 71
2
 72
2
 41
0.9
 42
44.3186254114
  3
DIMSTYLE_2
100
AcDbAlignedDimension
 13
179.3207080079
 23
130.5359392116
 14
179.3207080079
 24
86.2173138002
 50
270.0
100
AcDbRotatedDimension
  0
DIMENSION
  5
23E
100
AcDbEntity
  8
0
100
AcDbDimension
 62
7
  6
CONTINUOUS
  2
*D2
 10
117.2669546601
 20
138.6508145103
 11
128.2168686534
 21
138.6508145103
 70
160
 71
1
 72
2
 41
0.9
 42
5.6998787933
  3
DIMSTYLE_1
100
AcDbAlignedDimension
 13
122.9668334534
 23
121.4766265059
 14
117.2669546601
 24
108.7247701025
 50
180.0
100
AcDbRotatedDimension
  0
LWPOLYLINE
  5
23F
100
AcDbEntity
  8
0
100
AcDbPolyline
 62
7
  6
CONTINUOUS
 90
5
 70
0
 43
0.3500000006
 10
171.6841636963
 20
141.0787565918
 10
172.0413105469
 20
141.2930410767
 10
172.0413105469
 20
141.9358945313
 10
171.6841636963
 20
142.364463501
 10
170.8270257568
 20
142.364463501
  0
LWPOLYLINE
  5
240
100
AcDbEntity
  8
ASSI
100
AcDbPolyline
 62
250
  6
CONTINUOUS
 90
15
 70
0
 10
157.6177047177
 20
128.9185323624
 10
157.6190331906
 20
128.9197148843
 10
157.62201151
 20
128.9208934932
 10
157.6266298207
 20
128.9220642891
 10
157.6328728408
 20
128.9232233979
 10
157.6407199122
 20
128.924366984
 10
157.6501450691
 20
128.9254912634
 10
157.6611171236
 20
128.9265925158
 10
157.6735997695
 20
128.9276670971
 10
157.6875517016
 20
128.9287114517
 10
157.7029267534
 20
128.9297221238
 10
157.7196740488
 20
128.930695769
 10
157.7377381713
 20
128.9316291655
 10
157.7570593468
 20
128.9325192249
 10
157.7775736419
 20
128.9333630018
  0
LINE
  5
241
100
AcDbEntity
  8
ASSI
100
AcDbLine
 62
7
  6
CONTINUOUS
 10
172.0757370755
 20
86.2173138002
 11
172.4264270416
 21
86.2491469582
  0
LINE
  5
242
100
AcDbEntity
  8
ASSI
100
AcDbLine
 62
7
  6
CONTINUOUS
 10
160.8757370755
 20
86.2173138002
 11
161.2264270416
 21
86.2491469582
  0
LINE
  5
243
100
AcDbEntity
  8
ASSI
100
AcDbLine
 62
250
  6
CONTINUOUS
 10
179.590750495
 20
87.81989001
 11
179.5464177959
 21
87.8183523092
  0
LINE
  5
244
100
AcDbEntity
  8
ASSI
100
AcDbLine
 62
250
  6
CONTINUOUS
 10
179.5464177959
 20
87.8183523092
 11
179.4981741687
 21
87.8170310801
  0
LINE
  5
245
100
AcDbEntity
  8
ASSI
100
AcDbLine
 62
250
  6
CONTINUOUS
 10
179.4981741687
 20
87.8170310801
 11
179.4466576355
 21
87.8159437959
  0
LINE
  5
246
100
AcDbEntity
  8
ASSI
100
AcDbLine
 62
250
  6
CONTINUOUS
 10
179.4466576355
 20
87.8159437959
 11
179.3925495028
 21
87.8151048358
  0
LINE
  5
247
100
AcDbEntity
  8
ASSI
100
AcDbLine
 62
250
  6
CONTINUOUS
 10
179.3925495028
 20
87.8151048358
 11
179.3365653511
 21
87.8145252953
  0
LINE
  5
248
100
AcDbEntity
  8
ASSI
100
AcDbLine
 62
250
  6
CONTINUOUS
 10
179.3365653511
 20
87.8145252953
 11
179.2794455711
 21
87.8142128386
  0
LINE
  5
249
100
AcDbEntity
  8
ASSI
100
AcDbLine
 62
7
  6
CONTINUOUS
 10
158.0476161291
 20
86.2173138002
 11
160.8757370755
 21
86.2173138002
  0
LINE
  5
24A
100
AcDbEntity
  8
ASSI
100
AcDbLine
 62
7
  6
CONTINUOUS
 10
165.2925870615
 20
86.2173138002
 11
172.0757370755
 21
86.2173138002
  0
LINE
  5
24B
100
AcDbEntity
  8
ASSI
100
AcDbLine
 62
7
  6
CONTINUOUS
 10
176.4925870615
 20
86.2173138002
 11
179.3207080079
 21
86.2173138002
  0
LINE
  5
24C
100
AcDbEntity
  8
ASSI
100
AcDbLine
 62
7
  6
CONTINUOUS
 10
161.3996321223
 20
86.2543877361
 11
164.7686920146
 21
86.2543877361
  0
LINE
  5
24D
100
AcDbEntity
  8
ASSI
100
AcDbLine
 62
7
  6
CONTINUOUS
 10
172.5996321223
 20
86.2543877361
 11
175.9686920146
 21
86.2543877361
  0
LINE
  5
24E
100
AcDbEntity
  8
ASSI
100
AcDbLine
 62
250
  6
CONTINUOUS
 10
179.2672226446
 20
86.3779003763
 11
158.1011014923
 21
86.3779003762
  0
LINE
  5
24F
100
AcDbEntity
  8
ASSI
100
AcDbLine
 62
250
  6
CONTINUOUS
 10
179.2794455711
 20
87.8142128386
 11
158.1176285898
 21
87.814178675
  0
LINE
  5
250
100
AcDbEntity
  8
ASSI
100
AcDbLine
 62
250
  6
CONTINUOUS
 10
158.0602236755
 20
87.8143353232
 11
158.1176285653
 21
87.8141581811
  0
LINE
  5
251
100
AcDbEntity
  8
ASSI
100
AcDbLine
 62
250
  6
CONTINUOUS
 10
158.0035779663
 20
87.8147820615
 11
158.0602236755
 21
87.8143353232
  0
LINE
  5
252
100
AcDbEntity
  8
ASSI
100
AcDbLine
 62
250
  6
CONTINUOUS
 10
157.9484405783
 20
87.8154924881
 11
158.0035779663
 21
87.8147820615
  0
LINE
  5
253
100
AcDbEntity
  8
ASSI
100
AcDbLine
 62
250
  6
CONTINUOUS
 10
157.8955407044
 20
87.8164572074
 11
157.9484405783
 21
87.8154924881
  0
LINE
  5
254
100
AcDbEntity
  8
ASSI
100
AcDbLine
 62
250
  6
CONTINUOUS
 10
157.8455779464
 20
87.8176634611
 11
157.8955407044
 21
87.8164572074
  0
LINE
  5
255
100
AcDbEntity
  8
ASSI
100
AcDbLine
 62
7
  6
CONTINUOUS
 10
165.2925870615
 20
86.2173138002
 11
164.9418970954
 21
86.2491469582
  0
LINE
  5
256
100
AcDbEntity
  8
ASSI
100
AcDbLine
 62
7
  6
CONTINUOUS
 10
176.4925870615
 20
86.2173138002
 11
176.1418970954
 21
86.2491469582
  0
LWPOLYLINE
  5
257
100
AcDbEntity
  8
ASSI
100
AcDbPolyline
 62
250
  6
CONTINUOUS
 90
17
 70
0
 10
157.6177047177
 20
87.8347206494
 10
157.6190331721
 20
87.8335381269
 10
157.6220114745
 20
87.8323595173
 10
157.6266297698
 20
87.8311887207
 10
157.632872776
 20
87.8300296113
 10
157.6407198351
 20
87.8288860244
 10
157.6501449813
 20
87.8277617443
 10
157.6611170269
 20
87.8266604911
 10
157.6735996653
 20
87.8255859089
 10
157.6875515917
 20
87.8245415535
 10
157.7029266392
 20
87.8235308807
 10
157.7196739321
 20
87.8225572347
 10
157.7377380535
 20
87.8216238373
 10
157.7570592294
 20
87.8207337772
 10
157.7775735264
 20
87.8198899995
 10
157.7992130626
 20
87.8190952963
 10
157.8455779464
 20
87.8176634611
  0
LINE
  5
258
100
AcDbEntity
  8
CURVE
100
AcDbLine
 62
250
  6
CONTINUOUS
 10
168.7033430685
 20
126.0504885059
 11
165.1473330685
 21
123.0585725059
  0
LINE
  5
259
100
AcDbEntity
  8
CURVE
100
AcDbLine
 62
250
  6
CONTINUOUS
 10
165.1469870685
 20
92.4398295059
 11
171.5072270685
 21
92.4398295059
  0
LINE
  5
25A
100
AcDbEntity
  8
CURVE
100
AcDbLine
 62
250
  6
CONTINUOUS
 10
172.2624650685
 20
95.0743465059
 11
168.8011610685
 21
95.0743465059
  0
LWPOLYLINE
  5
25B
100
AcDbEntity
  8
ASSI
100
AcDbPolyline
 62
250
  6
CONTINUOUS
 90
28
 70
0
 10
157.6011779471
 20
129.8760369605
 10
157.602049291
 20
129.9050526814
 10
157.6046073079
 20
129.9339703365
 10
157.6088433524
 20
129.9626921912
 10
157.6147431076
 20
129.9911211728
 10
157.6222866339
 20
130.0191611985
 10
157.6314484361
 20
130.0467175
 10
157.6421975495
 20
130.0736969438
 10
157.6544976447
 20
130.1000083462
 10
157.6683071507
 20
130.1255627811
 10
157.6835793945
 20
130.150273881
 10
157.70026276
 20
130.1740581284
 10
157.7183008615
 20
130.1968351387
 10
157.7376327346
 20
130.2185279311
 10
157.7581930425
 20
130.2390631895
 10
157.7799122965
 20
130.2583715097
 10
157.8027170909
 20
130.2763876345
 10
157.8265303512
 20
130.2930506739
 10
157.8512715944
 20
130.3083043109
 10
157.8768572015
 20
130.322096992
 10
157.9032006993
 20
130.3343821015
 10
157.9302130535
 20
130.3451181188
 10
157.9578029691
 20
130.3542687587
 10
157.9858771989
 20
130.3618030944
 10
158.0143408591
 20
130.3676956617
 10
158.0430977496
 20
130.3719265452
 10
158.0720506794
 20
130.3744814455
 10
158.1011017947
 20
130.3753517279
  0
LWPOLYLINE
  5
25C
100
AcDbEntity
  8
ASSI
100
AcDbPolyline
 62
250
  6
CONTINUOUS
 90
9
 70
0
 10
157.6067495588
 20
129.805822292
 10
157.606078427
 20
129.8202997732
 10
157.6053986738
 20
129.8331693138
 10
157.6047102478
 20
129.8444226283
 10
157.6040132005
 20
129.8540680023
 10
157.6033110908
 20
129.8620569691
 10
157.6026051052
 20
129.8683733733
 10
157.6018940573
 20
129.8730333704
 10
157.6011779471
 20
129.8760369605
  0
LWPOLYLINE
  5
25D
100
AcDbEntity
  8
ASSI
100
AcDbPolyline
 62
250
  6
CONTINUOUS
 90
22
 70
0
 10
157.6250786376
 20
108.7220584831
 10
157.6256399621
 20
108.7071144562
 10
157.6273162454
 20
108.6922539878
 10
157.6300981145
 20
108.6775601678
 10
157.6339700147
 20
108.663115154
 10
157.6389102968
 20
108.6489997135
 10
157.6448913372
 20
108.635292771
 10
157.6518796934
 20
108.6220709665
 10
157.659836291
 20
108.6094082272
 10
157.668716641
 20
108.5973753549
 10
157.6784710901
 20
108.586039629
 10
157.6890450973
 20
108.5754644308
 10
157.7003795393
 20
108.5657088895
 10
157.7124110409
 20
108.556827551
 10
157.7250723298
 20
108.548870073
 10
157.7382926121
 20
108.5418809478
 10
157.7519979685
 20
108.5358992531
 10
157.7661117678
 20
108.5309584337
 10
157.7805550951
 20
108.5270861144
 10
157.795247193
 20
108.5243039458
 10
157.8101059134
 20
108.5226274829
 10
157.8250481767
 20
108.5220660985
  0
LINE
  5
25E
100
AcDbEntity
  8
ASSI
100
AcDbLine
 62
250
  6
CONTINUOUS
 10
157.6080556738
 20
129.7722558963
 11
157.6067495588
 21
129.805822292
  0
LINE
  5
25F
100
AcDbEntity
  8
ASSI
100
AcDbLine
 62
250
  6
CONTINUOUS
 10
157.6093104229
 20
129.73263951
 11
157.6080556738
 21
129.7722558963
  0
LWPOLYLINE
  5
260
100
AcDbEntity
  8
ASSI
100
AcDbPolyline
 62
250
  6
CONTINUOUS
 90
28
 70
0
 10
157.6011779471
 20
86.8772160513
 10
157.6020492905
 20
86.8482003396
 10
157.6046073058
 20
86.819282693
 10
157.6088433479
 20
86.7905608458
 10
157.6147431001
 20
86.7621318706
 10
157.6222866228
 20
86.7340918504
 10
157.6314484209
 20
86.7065355533
 10
157.6421975301
 20
86.6795561128
 10
157.6544976211
 20
86.6532447126
 10
157.6683071228
 20
86.6276902788
 10
157.6835793628
 20
86.6029791791
 10
157.7002627247
 20
86.5791949308
 10
157.718300823
 20
86.5564179188
 10
157.7376326937
 20
86.534725124
 10
157.7581929998
 20
86.5141898626
 10
157.7799122527
 20
86.4948815388
 10
157.8027170468
 20
86.4768654101
 10
157.8265303077
 20
86.4602023665
 10
157.8512715523
 20
86.4449487252
 10
157.8768571616
 20
86.4311560398
 10
157.9032006625
 20
86.4188709262
 10
157.9302130204
 20
86.4081349051
 10
157.9578029403
 20
86.3989842617
 10
157.9858771752
 20
86.391449923
 10
158.0143408409
 20
86.3855573533
 10
158.0430977372
 20
86.3813264681
 10
158.072050673
 20
86.3787715666
 10
158.1011017947
 20
86.3779012839
  0
LINE
  5
261
100
AcDbEntity
  8
ASSI
100
AcDbLine
 62
250
  6
CONTINUOUS
 10
157.6105041527
 20
129.6872544608
 11
157.6093104229
 21
129.73263951
  0
LINE
  5
262
100
AcDbEntity
  8
ASSI
100
AcDbLine
 62
250
  6
CONTINUOUS
 10
158.1079796438
 20
130.2196649154
 11
158.106673567
 21
130.2700425879
  0
LINE
  5
263
100
AcDbEntity
  8
ASSI
100
AcDbLine
 62
250
  6
CONTINUOUS
 10
157.6121626587
 20
129.6090802738
 11
157.6105041527
 21
129.6872544608
  0
LINE
  5
264
100
AcDbEntity
  8
ASSI
100
AcDbLine
 62
250
  6
CONTINUOUS
 10
158.1098387844
 20
130.127279158
 11
158.1079796438
 21
130.2196649154
  0
LINE
  5
265
100
AcDbEntity
  8
ASSI
100
AcDbLine
 62
250
  6
CONTINUOUS
 10
157.6140896479
 20
129.4878677853
 11
157.6121626587
 21
129.6090802738
  0
LINE
  5
266
100
AcDbEntity
  8
ASSI
100
AcDbLine
 62
250
  6
CONTINUOUS
 10
158.1120864637
 20
129.9749487536
 11
158.1098387844
 21
130.127279158
  0
LINE
  5
267
100
AcDbEntity
  8
ASSI
100
AcDbLine
 62
250
  6
CONTINUOUS
 10
157.6159708327
 20
129.3136595298
 11
157.6140896479
 21
129.4878677853
  0
LINE
  5
268
100
AcDbEntity
  8
ASSI
100
AcDbLine
 62
250
  6
CONTINUOUS
 10
158.1148405893
 20
129.6926291295
 11
158.1120864637
 21
129.9749487536
  0
LINE
  5
269
100
AcDbEntity
  8
ASSI
100
AcDbLine
 62
250
  6
CONTINUOUS
 10
157.6173531795
 20
129.0811757402
 11
157.6159708327
 21
129.3136595298
  0
LINE
  5
26A
100
AcDbEntity
  8
ASSI
100
AcDbLine
 62
250
  6
CONTINUOUS
 10
158.1171164453
 20
129.2431170622
 11
158.1148405893
 21
129.6926291295
  0
LINE
  5
26B
100
AcDbEntity
  8
ASSI
100
AcDbLine
 62
7
  6
CONTINUOUS
 10
157.5341620685
 20
95.2766265059
 11
157.5472363058
 21
86.715259528
  0
LINE
  5
26C
100
AcDbEntity
  8
ASSI
100
AcDbLine
 62
7
  6
CONTINUOUS
 10
157.5341620685
 20
108.0766493512
 11
157.5341620685
 21
95.2766265059
  0
LINE
  5
26D
100
AcDbEntity
  8
ASSI
100
AcDbLine
 62
7
  6
CONTINUOUS
 10
157.5341620685
 20
108.6766036606
 11
157.5341620685
 21
121.4766265059
  0
LINE
  5
26E
100
AcDbEntity
  8
ASSI
100
AcDbLine
 62
250
  6
CONTINUOUS
 10
157.6250783475
 20
108.7220583381
 11
157.6173531795
 21
129.0811757402
  0
LINE
  5
26F
100
AcDbEntity
  8
ASSI
100
AcDbLine
 62
250
  6
CONTINUOUS
 10
158.1250024566
 20
108.5246384525
 11
158.1171164453
 21
129.2431170622
  0
LINE
  5
270
100
AcDbEntity
  8
ASSI
100
AcDbLine
 62
7
  6
CONTINUOUS
 10
157.5341620685
 20
121.4766265059
 11
157.5472363058
 21
130.0379934838
  0
LINE
  5
271
100
AcDbEntity
  8
ASSI
100
AcDbLine
 62
250
  6
CONTINUOUS
 10
157.6171926827
 20
87.6320403478
 11
157.6250783475
 21
108.0311946736
  0
LINE
  5
272
100
AcDbEntity
  8
ASSI
100
AcDbLine
 62
250
  6
CONTINUOUS
 10
158.116465692
 20
87.3342649797
 11
158.1250024566
 21
108.2286145593
  0
LINE
  5
273
100
AcDbEntity
  8
ASSI
100
AcDbLine
 62
250
  6
CONTINUOUS
 10
158.1140133979
 20
86.9601432519
 11
158.116465692
 21
87.3342649797
  0
LINE
  5
274
100
AcDbEntity
  8
ASSI
100
AcDbLine
 62
250
  6
CONTINUOUS
 10
157.6156448275
 20
87.4030046017
 11
157.6171926827
 21
87.6320403478
  0
LINE
  5
275
100
AcDbEntity
  8
ASSI
100
AcDbLine
 62
250
  6
CONTINUOUS
 10
158.1115518586
 20
86.737280252
 11
158.1140133979
 21
86.9601432519
  0
LINE
  5
276
100
AcDbEntity
  8
ASSI
100
AcDbLine
 62
250
  6
CONTINUOUS
 10
157.6136410339
 20
87.2334239028
 11
157.6156448275
 21
87.4030046017
  0
LINE
  5
277
100
AcDbEntity
  8
ASSI
100
AcDbLine
 62
250
  6
CONTINUOUS
 10
158.1092343347
 20
86.593001268
 11
158.1115518586
 21
86.737280252
  0
LINE
  5
278
100
AcDbEntity
  8
ASSI
100
AcDbLine
 62
250
  6
CONTINUOUS
 10
157.6116280338
 20
87.1167915456
 11
157.6136410339
 21
87.2334239028
  0
LINE
  5
279
100
AcDbEntity
  8
ASSI
100
AcDbLine
 62
250
  6
CONTINUOUS
 10
158.1079796438
 20
86.5335880957
 11
158.1092343347
 21
86.593001268
  0
LINE
  5
27A
100
AcDbEntity
  8
ASSI
100
AcDbLine
 62
250
  6
CONTINUOUS
 10
157.6099148963
 20
87.0425867471
 11
157.6116280338
 21
87.1167915456
  0
LINE
  5
27B
100
AcDbEntity
  8
ASSI
100
AcDbLine
 62
250
  6
CONTINUOUS
 10
157.6086906569
 20
87.0000860294
 11
157.6099148963
 21
87.0425867471
  0
LWPOLYLINE
  5
27C
100
AcDbEntity
  8
ASSI
100
AcDbPolyline
 62
250
  6
CONTINUOUS
 90
22
 70
0
 10
157.6250786376
 20
108.0311945286
 10
157.6256399603
 20
108.0461385321
 10
157.6273162386
 20
108.0609989788
 10
157.6300980997
 20
108.0756927792
 10
157.6339699894
 20
108.0901377756
 10
157.6389102587
 20
108.1042532013
 10
157.644891285
 20
108.1179601325
 10
157.6518796265
 20
108.1311819293
 10
157.659836209
 20
108.1438446644
 10
157.6687165449
 20
108.1558775363
 10
157.6784709811
 20
108.1672132653
 10
157.6890449777
 20
108.1777884699
 10
157.7003794118
 20
108.1875440206
 10
157.7124109092
 20
108.1964253709
 10
157.7250721978
 20
108.2043828625
 10
157.7382924842
 20
108.2113720023
 10
157.7519978496
 20
108.217353712
 10
157.7661116629
 20
108.2222945457
 10
157.7805550092
 20
108.2261668778
 10
157.7952471311
 20
108.2289490567
 10
157.8101058803
 20
108.2306255264
 10
157.8250481767
 20
108.2311869132
  0
LINE
  5
27D
100
AcDbEntity
  8
CURVE
100
AcDbLine
 62
250
  6
CONTINUOUS
 10
170.3054150685
 20
122.6652275059
 11
168.8015070685
 21
121.1599365059
  0
LWPOLYLINE
  5
27E
100
AcDbEntity
  8
ASSI
100
AcDbPolyline
 62
250
  6
CONTINUOUS
 90
7
 70
0
 10
158.1053227082
 20
130.311044334
 10
158.1046343432
 20
130.3279392952
 10
158.1039373671
 20
130.3423915142
 10
158.1032352565
 20
130.3543770425
 10
158.1025291703
 20
130.3638757517
 10
158.1018179495
 20
130.370871545
 10
158.1011015943
 20
130.3753526354
  0
LINE
  5
27F
100
AcDbEntity
  8
ASSI
100
AcDbLine
 62
250
  6
CONTINUOUS
 10
158.106673567
 20
130.2700425879
 11
158.1053227082
 21
130.311044334
  0
LWPOLYLINE
  5
280
100
AcDbEntity
  8
0
100
AcDbPolyline
 62
7
  6
CONTINUOUS
 90
3
 70
0
 43
0.3500000006
 10
169.8270254517
 20
139.6501873169
 10
169.7555852051
 20
139.435902832
 10
169.6127409668
 20
139.1501781006
  0
LINE
  5
281
100
AcDbEntity
  8
ASSI
100
AcDbLine
 62
250
  6
CONTINUOUS
 10
157.5341620685
 20
108.6766036606
 11
157.6250783475
 21
108.7220583381
  0
LINE
  5
282
100
AcDbEntity
  8
ASSI
100
AcDbLine
 62
250
  6
CONTINUOUS
 10
157.7341620696
 20
108.4766265059
 11
157.8250481767
 21
108.5220660985
  0
LWPOLYLINE
  5
283
100
AcDbEntity
  8
ASSI
100
AcDbPolyline
 62
250
  6
CONTINUOUS
 90
10
 70
0
 10
158.1011015943
 20
86.3779003763
 10
158.1018179495
 20
86.3823814667
 10
158.1025291702
 20
86.3893772599
 10
158.1032352565
 20
86.398875969
 10
158.1039373671
 20
86.4108614973
 10
158.1046343431
 20
86.4253137162
 10
158.1053227082
 20
86.4422086774
 10
158.1060024431
 20
86.4615184669
 10
158.106673567
 20
86.4832104234
 10
158.1079796438
 20
86.5335880957
  0
LWPOLYLINE
  5
284
100
AcDbEntity
  8
ASSI
100
AcDbPolyline
 62
250
  6
CONTINUOUS
 90
11
 70
0
 10
157.6011779471
 20
86.8772160513
 10
157.6018940573
 20
86.8802196413
 10
157.6026051052
 20
86.8848796383
 10
157.6033110908
 20
86.8911960425
 10
157.6040132005
 20
86.8991850093
 10
157.6047102478
 20
86.9088303832
 10
157.6053986738
 20
86.9200836977
 10
157.606078427
 20
86.9329532383
 10
157.6067495588
 20
86.9474307195
 10
157.6074086648
 20
86.9634428186
 10
157.6086906569
 20
87.0000860294
  0
LINE
  5
285
100
AcDbEntity
  8
ASSI
100
AcDbLine
 62
7
  6
CONTINUOUS
 10
158.8382727698
 20
108.503679796
 11
158.7841620685
 21
108.4766265059
  0
LINE
  5
286
100
AcDbEntity
  8
CURVE
100
AcDbLine
 62
250
  6
CONTINUOUS
 10
172.2624650685
 20
95.0743465059
 11
170.7585570685
 21
96.5792905059
  0
LINE
  5
287
100
AcDbEntity
  8
ASSI
100
AcDbLine
 62
250
  6
CONTINUOUS
 10
157.5472363058
 20
86.715259528
 11
157.6011779471
 21
86.8772160513
  0
LINE
  5
288
100
AcDbEntity
  8
ASSI
100
AcDbLine
 62
7
  6
CONTINUOUS
 10
166.382429488
 20
108.503679796
 11
166.3878203385
 21
108.5062978564
  0
LINE
  5
289
100
AcDbEntity
  8
ASSI
100
AcDbLine
 62
250
  6
CONTINUOUS
 10
157.6250783475
 20
108.0311946736
 11
157.5341620685
 21
108.0766493512
  0
LINE
  5
28A
100
AcDbEntity
  8
ASSI
100
AcDbLine
 62
250
  6
CONTINUOUS
 10
157.8250481767
 20
108.2311869132
 11
157.7341620696
 21
108.2766265059
  0
LINE
  5
28B
100
AcDbEntity
  8
CURVE
100
AcDbLine
 62
250
  6
CONTINUOUS
 10
171.5072270685
 20
97.6096625059
 11
168.7033430685
 21
99.9645525059
  0
LINE
  5
28C
100
AcDbEntity
  8
CURVE
100
AcDbLine
 62
250
  6
CONTINUOUS
 10
165.1469870685
 20
96.9726365059
 11
165.1469870685
 21
92.4398293292
  0
LINE
  5
28D
100
AcDbEntity
  8
CURVE
100
AcDbLine
 62
250
  6
CONTINUOUS
 10
165.1473330685
 20
123.0585725059
 11
165.1473330685
 21
118.5257653546
  0
LINE
  5
28E
100
AcDbEntity
  8
ASSI
100
AcDbLine
 62
250
  6
CONTINUOUS
 10
158.0476161291
 20
86.2173138002
 11
158.1011014923
 21
86.3779003762
  0
LINE
  5
28F
100
AcDbEntity
  8
ASSI
100
AcDbLine
 62
250
  6
CONTINUOUS
 10
167.3580677754
 20
108.0131723466
 11
167.3538772746
 21
108.0086157955
  0
LINE
  5
290
100
AcDbEntity
  8
ASSI
100
AcDbLine
 62
250
  6
CONTINUOUS
 10
167.3532223805
 20
108.0084180968
 11
167.3538773415
 21
108.0086118194
  0
LINE
  5
291
100
AcDbEntity
  8
ASSI
100
AcDbLine
 62
250
  6
CONTINUOUS
 10
170.0151017565
 20
108.744834915
 11
170.0144467955
 21
108.7446411924
  0
LWPOLYLINE
  5
292
100
AcDbEntity
  8
ASSI
100
AcDbPolyline
 62
250
  6
CONTINUOUS
 90
7
 70
0
 10
179.5432759603
 20
108.2311869132
 10
179.5425944533
 20
108.2310509995
 10
179.5411221516
 20
108.2309162653
 10
179.538859055
 20
108.2307827106
 10
179.5357949921
 20
108.2306499789
 10
179.5319401343
 20
108.2305184268
 10
179.5273249968
 20
108.2303891231
  0
LWPOLYLINE
  5
293
100
AcDbEntity
  8
ASSI
100
AcDbPolyline
 62
250
  6
CONTINUOUS
 90
5
 70
0
 10
179.7432457891
 20
108.0311946198
 10
179.742124752
 20
108.0310514693
 10
179.7396665159
 20
108.0309094906
 10
179.7358779293
 20
108.0307687317
 10
179.7307696639
 20
108.0306289261
  0
LWPOLYLINE
  5
294
100
AcDbEntity
  8
0
100
AcDbPolyline
 62
7
  6
CONTINUOUS
 90
2
 70
0
 43
0.3500000006
 10
187.1179216919
 20
105.0909091187
 10
185.6179121704
 20
105.0909091187
  0
LINE
  5
295
100
AcDbEntity
  8
ASSI
100
AcDbLine
 62
7
  6
CONTINUOUS
 10
158.8382727698
 20
108.2495732157
 11
158.7841620685
 21
108.2766265059
  0
LINE
  5
296
100
AcDbEntity
  8
ASSI
100
AcDbLine
 62
250
  6
CONTINUOUS
 10
157.6011779471
 20
129.8760369605
 11
157.5472363058
 21
130.0379934838
  0
LINE
  5
297
100
AcDbEntity
  8
ASSI
100
AcDbLine
 62
250
  6
CONTINUOUS
 10
158.1011014924
 20
130.3753526355
 11
158.0476161291
 21
130.5359392116
  0
LINE
  5
298
100
AcDbEntity
  8
ASSI
100
AcDbLine
 62
250
  6
CONTINUOUS
 10
167.0647491515
 20
108.7247700945
 11
167.0647491514
 21
108.5246384525
  0
LINE
  5
299
100
AcDbEntity
  8
ASSI
100
AcDbLine
 62
250
  6
CONTINUOUS
 10
167.0647491515
 20
108.0284829172
 11
167.0647491515
 21
108.2286145593
  0
LWPOLYLINE
  5
29A
100
AcDbEntity
  8
ASSI
100
AcDbPolyline
 62
250
  6
CONTINUOUS
 90
64
 70
0
 10
167.1611257846
 20
108.7981332695
 10
167.1794523526
 20
108.8596775485
 10
167.2003255107
 20
108.9204587304
 10
167.2237452589
 20
108.9804768146
 10
167.2497544901
 20
109.0398781174
 10
167.2783103114
 20
109.0985163214
 10
167.3092840442
 20
109.1559524762
 10
167.3427071115
 20
109.2121739462
 10
167.3785480904
 20
109.2671933668
 10
167.4165840336
 20
109.3206096941
 10
167.4568366783
 20
109.372398234
 10
167.4992842873
 20
109.4225836814
 10
167.5436387017
 20
109.4708390767
 10
167.5898850562
 20
109.5171200641
 10
167.6380382161
 20
109.561471001
 10
167.687854619
 20
109.6036979975
 10
167.7393266019
 20
109.6437867734
 10
167.7924618277
 20
109.681751611
 10
167.847039723
 20
109.7174414643
 10
167.9030815826
 20
109.7508604582
 10
167.9605661117
 20
109.7820044699
 10
168.0192088527
 20
109.8107100827
 10
168.0790274284
 20
109.8369681628
 10
168.140004216
 20
109.860787846
 10
168.20180189
 20
109.88203312
 10
168.264418659
 20
109.9006857645
 10
168.3278563144
 20
109.9167640017
 10
168.3917829052
 20
109.9301864829
 10
168.4561964891
 20
109.9409387052
 10
168.5210990083
 20
109.9490351728
 10
168.5861643387
 20
109.9544380474
 10
168.6513923507
 20
109.9571346987
 10
168.7167831739
 20
109.9571377575
 10
168.7820110725
 20
109.9544472776
 10
168.8470760638
 20
109.9490506621
 10
168.9119781307
 20
109.9409605075
 10
168.9763914862
 20
109.9302146576
 10
169.0403179702
 20
109.9167987137
 10
169.103755743
 20
109.9007270732
 10
169.1663734987
 20
109.8820807741
 10
169.228173301
 20
109.8608415611
 10
169.2891530863
 20
109.8370276876
 10
169.3489753577
 20
109.8107749536
 10
169.4076229425
 20
109.782073845
 10
169.4651130134
 20
109.7509338737
 10
169.5211595918
 20
109.7175193783
 10
169.5757409824
 20
109.6818344786
 10
169.6288788803
 20
109.6438750526
 10
169.6803523931
 20
109.6037930763
 10
169.7301682968
 20
109.561575214
 10
169.7783198153
 20
109.5172347994
 10
169.8245657275
 20
109.470963813
 10
169.8689211716
 20
109.4227184156
 10
169.9113710093
 20
109.3725424449
 10
169.9516286042
 20
109.3207593975
 10
169.9896732088
 20
109.2673437304
 10
170.0255255707
 20
109.2123209858
 10
170.058961296
 20
109.1560912892
 10
170.0899492589
 20
109.098641131
 10
170.1185205852
 20
109.0399840208
 10
170.1445442593
 20
108.9805606136
 10
170.1679766092
 20
108.9205177947
 10
170.1888613069
 20
108.8597086798
 10
170.2071983524
 20
108.7981332695
  0
LWPOLYLINE
  5
29B
100
AcDbEntity
  8
ASSI
100
AcDbPolyline
 62
250
  6
CONTINUOUS
 90
64
 70
0
 10
167.3538773534
 20
108.7446375011
 10
167.3698771544
 20
108.7982226732
 10
167.3881141718
 20
108.85133327
 10
167.4085849461
 20
108.9038721954
 10
167.4312961288
 20
108.9557725473
 10
167.4562237905
 20
109.0069032895
 10
167.4833006442
 20
109.0570756274
 10
167.5124952384
 20
109.1061974908
 10
167.5437706822
 20
109.1541753306
 10
167.5770228124
 20
109.2008321853
 10
167.6121922567
 20
109.2460807261
 10
167.6492244286
 20
109.2898469197
 10
167.6879979086
 20
109.3319913198
 10
167.7284140633
 20
109.3724217787
 10
167.7704218155
 20
109.4111016061
 10
167.813961038
 20
109.4479843831
 10
167.8589442421
 20
109.483003779
 10
167.9053006009
 20
109.5161121732
 10
167.9529977484
 20
109.5472883863
 10
168.0019709232
 20
109.5764863152
 10
168.0521229873
 20
109.603644366
 10
168.1033741348
 20
109.6287166166
 10
168.1556474546
 20
109.6516616999
 10
168.2088455189
 20
109.672433176
 10
168.2628540704
 20
109.6909852056
 10
168.3175743013
 20
109.7072847161
 10
168.3729185222
 20
109.7213064411
 10
168.4287860283
 20
109.7330256919
 10
168.4850772337
 20
109.7424230126
 10
168.5416994515
 20
109.7494843494
 10
168.5985612505
 20
109.7541991338
 10
168.6555647459
 20
109.7565597778
 10
168.7126132098
 20
109.7565627994
 10
168.7696167157
 20
109.7542082086
 10
168.8264784573
 20
109.7494995152
 10
168.8831006353
 20
109.7424443247
 10
168.9393920633
 20
109.7330531796
 10
168.9952599535
 20
109.7213401469
 10
169.0506048276
 20
109.7073246552
 10
169.105326516
 20
109.6910312096
 10
169.1593375048
 20
109.6724849275
 10
169.212538756
 20
109.6517188612
 10
169.2648159161
 20
109.6287788023
 10
169.3160719626
 20
109.6037108998
 10
169.3662294821
 20
109.5765566533
 10
169.4152072988
 20
109.5473627558
 10
169.4629080978
 20
109.5161910665
 10
169.5092674244
 20
109.4830876562
 10
169.5542524256
 20
109.4480742642
 10
169.5977915836
 20
109.411199406
 10
169.6397984557
 20
109.3725288924
 10
169.680214889
 20
109.3321073967
 10
169.7189896288
 20
109.2899716519
 10
169.7560241125
 20
109.2462135745
 10
169.7911987349
 20
109.2009699698
 10
169.8244590894
 20
109.154313709
 10
169.85574473
 20
109.1063326412
 10
169.8849510793
 20
109.0572034033
 10
169.9120409997
 20
109.0070188949
 10
169.9369822859
 20
108.9558714447
 10
169.959706606
 20
108.9039510193
 10
169.9801895231
 20
108.8513890757
 10
169.9984375428
 20
108.7982520984
 10
170.0144468623
 20
108.7446372163
  0
LWPOLYLINE
  5
29C
100
AcDbEntity
  8
ASSI
100
AcDbPolyline
 62
7
  6
CONTINUOUS
 90
25
 70
0
 10
167.3580677754
 20
108.7400806651
 10
167.3533487912
 20
108.724517741
 10
167.3478137991
 20
108.7092891207
 10
167.3414627991
 20
108.6943948042
 10
167.334262429
 20
108.6797740294
 10
167.326246051
 20
108.6654875584
 10
167.3175137519
 20
108.6517176778
 10
167.308083559
 20
108.6385046211
 10
167.297937445
 20
108.6258081548
 10
167.2871214144
 20
108.6136898645
 10
167.2756074951
 20
108.6021270161
 10
167.2634236593
 20
108.5911423437
 10
167.2506998282
 20
108.5808656362
 10
167.23742615
 20
108.5713098473
 10
167.2236124766
 20
108.5624620232
 10
167.2094182846
 20
108.5544130911
 10
167.1948736461
 20
108.5471841321
 10
167.179948489
 20
108.540754065
 10
167.1647120739
 20
108.535150574
 10
167.1491188415
 20
108.5303664034
 10
167.1332143511
 20
108.5264088089
 10
167.1172045407
 20
108.5233272419
 10
167.1011580565
 20
108.5211381864
 10
167.0850062523
 20
108.5198251584
 10
167.0687491283
 20
108.5193881581
  0
LINE
  5
29D
100
AcDbEntity
  8
ASSI
100
AcDbLine
 62
250
  6
CONTINUOUS
 10
170.0102563615
 20
108.7400806651
 11
170.0144468623
 21
108.7446372163
  0
LINE
  5
29E
100
AcDbEntity
  8
ASSI
100
AcDbLine
 62
7
  6
CONTINUOUS
 10
170.985894649
 20
108.2495732157
 11
170.9805037985
 21
108.2469551554
  0
LINE
  5
29F
100
AcDbEntity
  8
ASSI
100
AcDbLine
 62
250
  6
CONTINUOUS
 10
170.0233989408
 20
108.7471671822
 11
170.0151017565
 21
108.744834915
  0
LINE
  5
2A0
100
AcDbEntity
  8
ASSI
100
AcDbLine
 62
250
  6
CONTINUOUS
 10
167.3449251962
 20
108.0060858296
 11
167.3532223805
 21
108.0084180968
  0
LINE
  5
2A1
100
AcDbEntity
  8
ASSI
100
AcDbLine
 62
250
  6
CONTINUOUS
 10
167.1611257846
 20
107.9551197422
 11
167.3449251962
 21
108.0060858296
  0
LINE
  5
2A2
100
AcDbEntity
  8
ASSI
100
AcDbLine
 62
250
  6
CONTINUOUS
 10
170.2071983524
 20
108.7981332695
 11
170.0233989408
 21
108.7471671822
  0
LINE
  5
2A3
100
AcDbEntity
  8
ASSI
100
AcDbLine
 62
7
  6
CONTINUOUS
 10
170.6071762272
 20
108.2469551554
 11
170.5537192649
 21
108.2338648537
  0
LINE
  5
2A4
100
AcDbEntity
  8
ASSI
100
AcDbLine
 62
7
  6
CONTINUOUS
 10
166.7611479098
 20
108.5062978564
 11
166.8146048721
 21
108.5193881581
  0
LWPOLYLINE
  5
2A5
100
AcDbEntity
  8
ASSI
100
AcDbPolyline
 62
250
  6
CONTINUOUS
 90
25
 70
0
 10
170.3035749855
 20
108.0284829172
 10
170.2981342056
 20
108.0283327877
 10
170.2927402321
 20
108.0278932948
 10
170.2873930649
 20
108.0271644385
 10
170.2820772139
 20
108.0261424254
 10
170.2768081692
 20
108.024831049
 10
170.2716324016
 20
108.0232416892
 10
170.2665507321
 20
108.0213718936
 10
170.2615623397
 20
108.0192241147
 10
170.2567112322
 20
108.0168170907
 10
170.2519987389
 20
108.0141485819
 10
170.2474235304
 20
108.011220828
 10
170.2430256267
 20
108.0080592861
 10
170.2388064186
 20
108.0046617522
 10
170.2347645152
 20
108.0010304302
 10
170.2309357635
 20
107.9971973895
 10
170.2273221026
 20
107.9931607504
 10
170.2239215935
 20
107.9889223925
 10
170.2207642664
 20
107.9845200241
 10
170.2178523105
 20
107.9799520395
 10
170.2151835367
 20
107.9752200444
 10
170.2127814077
 20
107.9703665645
 10
170.2106537444
 20
107.9654057752
 10
170.208792726
 20
107.9603235011
 10
170.2071983524
 20
107.9551197422
  0
LWPOLYLINE
  5
2A6
100
AcDbEntity
  8
ASSI
100
AcDbPolyline
 62
250
  6
CONTINUOUS
 90
25
 70
0
 10
170.3035749855
 20
108.2286145593
 10
170.2873218477
 20
108.2281733346
 10
170.2711168075
 20
108.2268522452
 10
170.2550074578
 20
108.2246552276
 10
170.2390414702
 20
108.2215888714
 10
170.2232653525
 20
108.2176621962
 10
170.2077243597
 20
108.2128864279
 10
170.1924634045
 20
108.2072751658
 10
170.1775281578
 20
108.2008449968
 10
170.1629637493
 20
108.1936153321
 10
170.1488134872
 20
108.1856078347
 10
170.1351182891
 20
108.1768458299
 10
170.1219178364
 20
108.1673547572
 10
170.1092508742
 20
108.1571624627
 10
170.0971546407
 20
108.1462988985
 10
170.0856643209
 20
108.1347956012
 10
170.0748133306
 20
108.1226858288
 10
170.0646340571
 20
108.1100055194
 10
170.0551572229
 20
108.0967929786
 10
170.0464107855
 20
108.0830874652
 10
170.0384200639
 20
108.0689289587
 10
170.0312084281
 20
108.0543591392
 10
170.0247969391
 20
108.0394208634
 10
170.0192042931
 20
108.024158035
 10
170.0144467836
 20
108.0086155106
  0
LINE
  5
2A7
100
AcDbEntity
  8
ASSI
100
AcDbLine
 62
250
  6
CONTINUOUS
 10
179.5273249968
 20
108.2303891231
 11
179.5158013269
 21
108.2301373008
  0
LINE
  5
2A8
100
AcDbEntity
  8
ASSI
100
AcDbLine
 62
250
  6
CONTINUOUS
 10
179.7307696639
 20
108.0306289261
 11
179.7166518189
 21
108.0303542515
  0
LINE
  5
2A9
100
AcDbEntity
  8
ASSI
100
AcDbLine
 62
250
  6
CONTINUOUS
 10
179.5158013269
 20
108.2301373008
 11
179.4930986482
 21
108.2297825461
  0
LINE
  5
2AA
100
AcDbEntity
  8
ASSI
100
AcDbLine
 62
250
  6
CONTINUOUS
 10
179.7166518189
 20
108.0303542515
 11
179.6860224335
 21
108.0299609435
  0
LINE
  5
2AB
100
AcDbEntity
  8
ASSI
100
AcDbLine
 62
250
  6
CONTINUOUS
 10
179.4930986482
 20
108.2297825461
 11
179.442244432
 21
108.2292728991
  0
LINE
  5
2AC
100
AcDbEntity
  8
ASSI
100
AcDbLine
 62
250
  6
CONTINUOUS
 10
179.6860224335
 20
108.0299609435
 11
179.5937751847
 21
108.0292754627
  0
LINE
  5
2AD
100
AcDbEntity
  8
ASSI
100
AcDbLine
 62
250
  6
CONTINUOUS
 10
179.442244432
 20
108.2292728991
 11
179.335004642
 21
108.2287398164
  0
LINE
  5
2AE
100
AcDbEntity
  8
ASSI
100
AcDbLine
 62
250
  6
CONTINUOUS
 10
179.5937751847
 20
108.0292754627
 11
179.3206667319
 21
108.0285164893
  0
LINE
  5
2AF
100
AcDbEntity
  8
ASSI
100
AcDbLine
 62
250
  6
CONTINUOUS
 10
179.335004642
 20
108.2287398164
 11
179.2433216804
 21
108.2286145593
  0
LWPOLYLINE
  5
2B0
100
AcDbEntity
  8
0
100
AcDbPolyline
 62
7
  6
CONTINUOUS
 90
2
 70
0
 43
0.3500000006
 10
187.1179216919
 20
107.4480565796
 10
185.6179121704
 20
107.4480565796
  0
LINE
  5
2B1
100
AcDbEntity
  8
ASSI
100
AcDbLine
 62
250
  6
CONTINUOUS
 10
179.3206667319
 20
108.0285164893
 11
170.3035749855
 21
108.0284829172
  0
LINE
  5
2B2
100
AcDbEntity
  8
ASSI
100
AcDbLine
 62
7
  6
CONTINUOUS
 10
179.2433216804
 20
108.2286145593
 11
170.3035749855
 21
108.2286145593
  0
LINE
  5
2B3
100
AcDbEntity
  8
ASSI
100
AcDbLine
 62
7
  6
CONTINUOUS
 10
167.0647491515
 20
108.2286145593
 11
158.1250024566
 21
108.2286145593
  0
LINE
  5
2B4
100
AcDbEntity
  8
ASSI
100
AcDbLine
 62
7
  6
CONTINUOUS
 10
170.5537192649
 20
108.2338648537
 11
170.2995750087
 21
108.2338648537
  0
LINE
  5
2B5
100
AcDbEntity
  8
ASSI
100
AcDbLine
 62
7
  6
CONTINUOUS
 10
167.0687491283
 20
108.2338648537
 11
166.8146048721
 21
108.2338648537
  0
LINE
  5
2B6
100
AcDbEntity
  8
ASSI
100
AcDbLine
 62
7
  6
CONTINUOUS
 10
170.9805037985
 20
108.2469551554
 11
170.6071762272
 21
108.2469551554
  0
LINE
  5
2B7
100
AcDbEntity
  8
ASSI
100
AcDbLine
 62
7
  6
CONTINUOUS
 10
166.7611479098
 20
108.2469551554
 11
166.3878203385
 21
108.2469551554
  0
LINE
  5
2B8
100
AcDbEntity
  8
ASSI
100
AcDbLine
 62
7
  6
CONTINUOUS
 10
158.8382727698
 20
108.2495732157
 11
166.382429488
 21
108.2495732157
  0
LINE
  5
2B9
100
AcDbEntity
  8
ASSI
100
AcDbLine
 62
7
  6
CONTINUOUS
 10
170.985894649
 20
108.2495732157
 11
178.5300513672
 21
108.2495732157
  0
LINE
  5
2BA
100
AcDbEntity
  8
ASSI
100
AcDbLine
 62
7
  6
CONTINUOUS
 10
157.7341620696
 20
108.2766265059
 11
158.7841620685
 21
108.2766265059
  0
LINE
  5
2BB
100
AcDbEntity
  8
ASSI
100
AcDbLine
 62
7
  6
CONTINUOUS
 10
178.5841620685
 20
108.2766265059
 11
179.6341620673
 21
108.2766265059
  0
LINE
  5
2BC
100
AcDbEntity
  8
ASSI
100
AcDbLine
 62
250
  6
CONTINUOUS
 10
167.0647491515
 20
108.0284829172
 11
157.8132943622
 21
108.0290859349
  0
LINE
  5
2BD
100
AcDbEntity
  8
ASSI
100
AcDbLine
 62
250
  6
CONTINUOUS
 10
158.1250024566
 20
108.2286145593
 11
157.9902230385
 21
108.2288936465
  0
LINE
  5
2BE
100
AcDbEntity
  8
ASSI
100
AcDbLine
 62
250
  6
CONTINUOUS
 10
157.8132943622
 20
108.0290859349
 11
157.6949244101
 21
108.0298363509
  0
LINE
  5
2BF
100
AcDbEntity
  8
ASSI
100
AcDbLine
 62
250
  6
CONTINUOUS
 10
157.9902230385
 20
108.2288936465
 11
157.9039461147
 21
108.2294627134
  0
LINE
  5
2C0
100
AcDbEntity
  8
ASSI
100
AcDbLine
 62
250
  6
CONTINUOUS
 10
157.6949244101
 20
108.0298363509
 11
157.6606459306
 21
108.0302204228
  0
LINE
  5
2C1
100
AcDbEntity
  8
ASSI
100
AcDbLine
 62
250
  6
CONTINUOUS
 10
157.9039461147
 20
108.2294627134
 11
157.8669451372
 21
108.22989753
  0
LWPOLYLINE
  5
2C2
100
AcDbEntity
  8
ASSI
100
AcDbPolyline
 62
250
  6
CONTINUOUS
 90
7
 70
0
 10
157.6606459306
 20
108.0302204228
 10
157.643968614
 20
108.0304904358
 10
157.6375544734
 20
108.0306289261
 10
157.632446208
 20
108.0307687317
 10
157.6286576212
 20
108.0309094906
 10
157.626199385
 20
108.0310514693
 10
157.6250783478
 20
108.0311946198
  0
LINE
  5
2C3
100
AcDbEntity
  8
ASSI
100
AcDbLine
 62
250
  6
CONTINUOUS
 10
157.8669451372
 20
108.22989753
 11
157.8525228103
 21
108.2301373008
  0
LWPOLYLINE
  5
2C4
100
AcDbEntity
  8
ASSI
100
AcDbPolyline
 62
250
  6
CONTINUOUS
 90
8
 70
0
 10
157.8525228103
 20
108.2301373008
 10
157.8409991404
 20
108.2303891231
 10
157.8363840028
 20
108.2305184268
 10
157.8325291451
 20
108.2306499789
 10
157.8294650821
 20
108.2307827105
 10
157.8272019855
 20
108.2309162653
 10
157.8257296837
 20
108.2310509995
 10
157.8250481767
 20
108.2311869132
  0
LWPOLYLINE
  5
2C5
100
AcDbEntity
  8
ASSI
100
AcDbPolyline
 62
7
  6
CONTINUOUS
 90
3
 70
0
 10
167.0687491283
 20
108.2338648537
 10
167.0850062523
 20
108.2334278533
 10
167.1011580565
 20
108.2321148254
  0
LWPOLYLINE
  5
2C6
100
AcDbEntity
  8
ASSI
100
AcDbPolyline
 62
7
  6
CONTINUOUS
 90
23
 70
0
 10
167.1011580565
 20
108.2321148254
 10
167.1172045407
 20
108.2299257698
 10
167.1332143511
 20
108.2268442029
 10
167.1491188415
 20
108.2228866084
 10
167.1647120739
 20
108.2181024378
 10
167.179948489
 20
108.2124989468
 10
167.1948736461
 20
108.2060688797
 10
167.2094182846
 20
108.1988399206
 10
167.2236124766
 20
108.1907909885
 10
167.23742615
 20
108.1819431645
 10
167.2506998282
 20
108.1723873756
 10
167.2634236593
 20
108.1621106681
 10
167.2756074951
 20
108.1511259957
 10
167.2871214144
 20
108.1395631472
 10
167.297937445
 20
108.127444857
 10
167.308083559
 20
108.1147483907
 10
167.3175137519
 20
108.101535334
 10
167.326246051
 20
108.0877654534
 10
167.334262429
 20
108.0734789824
 10
167.3414627991
 20
108.0588582076
 10
167.3478137991
 20
108.0439638911
 10
167.3533487912
 20
108.0287352708
 10
167.3580677754
 20
108.0131723466
  0
LINE
  5
2C7
100
AcDbEntity
  8
ASSI
100
AcDbLine
 62
7
  6
CONTINUOUS
 10
166.8146048721
 20
108.2338648537
 11
166.7611479098
 21
108.2469551554
  0
LINE
  5
2C8
100
AcDbEntity
  8
ASSI
100
AcDbLine
 62
7
  6
CONTINUOUS
 10
166.3878203385
 20
108.2469551554
 11
166.382429488
 21
108.2495732157
  0
LWPOLYLINE
  5
2C9
100
AcDbEntity
  8
ASSI
100
AcDbPolyline
 62
250
  6
CONTINUOUS
 90
25
 70
0
 10
167.1611257846
 20
107.9551197422
 10
167.159531411
 20
107.9603235011
 10
167.1576703926
 20
107.9654057751
 10
167.1555427293
 20
107.9703665645
 10
167.1531406003
 20
107.9752200443
 10
167.1504718265
 20
107.9799520394
 10
167.1475598706
 20
107.9845200241
 10
167.1444025435
 20
107.9889223924
 10
167.1410020344
 20
107.9931607504
 10
167.1373883734
 20
107.9971973895
 10
167.1335596218
 20
108.0010304302
 10
167.1295177184
 20
108.0046617522
 10
167.1252985103
 20
108.0080592861
 10
167.1209006066
 20
108.011220828
 10
167.1163253981
 20
108.0141485819
 10
167.1116129047
 20
108.0168170907
 10
167.1067617972
 20
108.0192241147
 10
167.1017734048
 20
108.0213718936
 10
167.0966917353
 20
108.0232416892
 10
167.0915159678
 20
108.024831049
 10
167.0862469231
 20
108.0261424254
 10
167.080931072
 20
108.0271644385
 10
167.0755839049
 20
108.0278932948
 10
167.0701899314
 20
108.0283327877
 10
167.0647491515
 20
108.0284829172
  0
LWPOLYLINE
  5
2CA
100
AcDbEntity
  8
ASSI
100
AcDbPolyline
 62
250
  6
CONTINUOUS
 90
25
 70
0
 10
167.3538772745
 20
108.0086157954
 10
167.3491197916
 20
108.0241581905
 10
167.3435271737
 20
108.0394209243
 10
167.3371157089
 20
108.054359139
 10
167.3299040834
 20
108.0689289392
 10
167.3219133572
 20
108.0830874557
 10
167.3131669141
 20
108.0967929785
 10
167.3036900799
 20
108.1100055194
 10
167.2935108064
 20
108.1226858288
 10
167.2826598161
 20
108.1347956012
 10
167.2711694963
 20
108.1462988984
 10
167.2590732628
 20
108.1571624627
 10
167.2464063006
 20
108.1673547571
 10
167.2332058479
 20
108.1768458299
 10
167.2195106498
 20
108.1856078347
 10
167.2053603877
 20
108.1936153321
 10
167.1907959792
 20
108.2008449967
 10
167.1758607324
 20
108.2072751658
 10
167.1605997773
 20
108.2128864279
 10
167.1450587845
 20
108.2176621962
 10
167.1292826668
 20
108.2215888714
 10
167.1133166793
 20
108.2246552276
 10
167.0972073296
 20
108.2268522452
 10
167.0810022894
 20
108.2281733346
 10
167.0647491515
 20
108.2286145593
  0
LWPOLYLINE
  5
2CB
100
AcDbEntity
  8
ASSI
100
AcDbPolyline
 62
250
  6
CONTINUOUS
 90
64
 70
0
 10
170.2071983524
 20
107.9551197422
 10
170.1888717844
 20
107.8935754633
 10
170.1679986263
 20
107.8327942814
 10
170.144578878
 20
107.7727761971
 10
170.1185696469
 20
107.7133748944
 10
170.0900138256
 20
107.6547366903
 10
170.0590400927
 20
107.5973005356
 10
170.0256170254
 20
107.5410790656
 10
169.9897760466
 20
107.486059645
 10
169.9517401034
 20
107.4326433177
 10
169.9114874587
 20
107.3808547778
 10
169.8690398497
 20
107.3306693303
 10
169.8246854352
 20
107.2824139351
 10
169.7784390808
 20
107.2361329476
 10
169.7302859208
 20
107.1917820108
 10
169.6804695179
 20
107.1495550143
 10
169.6289975351
 20
107.1094662384
 10
169.5758623093
 20
107.0715014008
 10
169.521284414
 20
107.0358115474
 10
169.4652425544
 20
107.0023925536
 10
169.4077580253
 20
106.9712485418
 10
169.3491152843
 20
106.942542929
 10
169.2892967086
 20
106.916284849
 10
169.228319921
 20
106.8924651658
 10
169.1665222469
 20
106.8712198918
 10
169.103905478
 20
106.8525672472
 10
169.0404678226
 20
106.8364890101
 10
168.9765412318
 20
106.8230665288
 10
168.9121276479
 20
106.8123143065
 10
168.8472251286
 20
106.804217839
 10
168.7821597982
 20
106.7988149643
 10
168.7169317862
 20
106.7961183131
 10
168.6515409631
 20
106.7961152542
 10
168.5863130644
 20
106.7988057341
 10
168.5212480731
 20
106.8042023496
 10
168.4563460063
 20
106.8122925043
 10
168.3919326507
 20
106.8230383542
 10
168.3280061667
 20
106.8364542981
 10
168.264568394
 20
106.8525259385
 10
168.2019506383
 20
106.8711722377
 10
168.1401508359
 20
106.8924114506
 10
168.0791710507
 20
106.9162253241
 10
168.0193487793
 20
106.9424780582
 10
167.9607011944
 20
106.9711791668
 10
167.9032111235
 20
107.0023191381
 10
167.8471645451
 20
107.0357336335
 10
167.7925831546
 20
107.0714185332
 10
167.7394452566
 20
107.1093779592
 10
167.6879717438
 20
107.1494599355
 10
167.6381558401
 20
107.1916777978
 10
167.5900043216
 20
107.2360182124
 10
167.5437584095
 20
107.2822891987
 10
167.4994029654
 20
107.3305345962
 10
167.4569531277
 20
107.3807105669
 10
167.4166955327
 20
107.4324936143
 10
167.3786509281
 20
107.4859092814
 10
167.3427985663
 20
107.5409320259
 10
167.3093628409
 20
107.5971617226
 10
167.2783748781
 20
107.6546118808
 10
167.2498035518
 20
107.7132689909
 10
167.2237798777
 20
107.7726923981
 10
167.2003475277
 20
107.832735217
 10
167.17946283
 20
107.8935443319
 10
167.1611257846
 20
107.9551197422
  0
LWPOLYLINE
  5
2CC
100
AcDbEntity
  8
ASSI
100
AcDbPolyline
 62
250
  6
CONTINUOUS
 90
64
 70
0
 10
170.0144467835
 20
108.0086155107
 10
169.9984469826
 20
107.9550303386
 10
169.9802099652
 20
107.9019197418
 10
169.9597391909
 20
107.8493808164
 10
169.9370280081
 20
107.7974804645
 10
169.9121003465
 20
107.7463497222
 10
169.8850234928
 20
107.6961773844
 10
169.8558288986
 20
107.647055521
 10
169.8245534547
 20
107.5990776812
 10
169.7913013246
 20
107.5524208265
 10
169.7561318803
 20
107.5071722856
 10
169.7190997084
 20
107.463406092
 10
169.6803262283
 20
107.421261692
 10
169.6399100737
 20
107.380831233
 10
169.5979023215
 20
107.3421514057
 10
169.5543630989
 20
107.3052686286
 10
169.5093798948
 20
107.2702492328
 10
169.4630235361
 20
107.2371408385
 10
169.4153263886
 20
107.2059646255
 10
169.3663532138
 20
107.1767666966
 10
169.3162011497
 20
107.1496086458
 10
169.2649500022
 20
107.1245363952
 10
169.2126766823
 20
107.1015913118
 10
169.1594786181
 20
107.0808198358
 10
169.1054700666
 20
107.0622678062
 10
169.0507498357
 20
107.0459682956
 10
168.9954056147
 20
107.0319465707
 10
168.9395381087
 20
107.0202273198
 10
168.8832469033
 20
107.0108299991
 10
168.8266246854
 20
107.0037686624
 10
168.7697628865
 20
106.999053878
 10
168.712759391
 20
106.996693234
 10
168.6557109271
 20
106.9966902124
 10
168.5987074212
 20
106.9990448032
 10
168.5418456796
 20
107.0037534965
 10
168.4852235016
 20
107.0108086871
 10
168.4289320737
 20
107.0201998321
 10
168.3730641834
 20
107.0319128649
 10
168.3177193094
 20
107.0459283566
 10
168.262997621
 20
107.0622218022
 10
168.2089866321
 20
107.0807680842
 10
168.1557853809
 20
107.1015341506
 10
168.1035082208
 20
107.1244742094
 10
168.0522521744
 20
107.149542112
 10
168.0020946548
 20
107.1766963585
 10
167.9531168381
 20
107.2058902559
 10
167.9054160391
 20
107.2370619452
 10
167.8590567126
 20
107.2701653556
 10
167.8140717113
 20
107.3051787475
 10
167.7705325534
 20
107.3420536058
 10
167.7285256813
 20
107.3807241193
 10
167.688109248
 20
107.4211456151
 10
167.6493345081
 20
107.4632813598
 10
167.6123000245
 20
107.5070394373
 10
167.5771254021
 20
107.552283042
 10
167.5438650476
 20
107.5989393028
 10
167.512579407
 20
107.6469203705
 10
167.4833730577
 20
107.6960496085
 10
167.4562831373
 20
107.7462341168
 10
167.431341851
 20
107.7973815671
 10
167.4086175309
 20
107.8493019925
 10
167.3881346139
 20
107.901863936
 10
167.3698865941
 20
107.9550009133
 10
167.3538772746
 20
108.0086157955
  0
LWPOLYLINE
  5
2CD
100
AcDbEntity
  8
ASSI
100
AcDbPolyline
 62
7
  6
CONTINUOUS
 90
25
 70
0
 10
170.0102563615
 20
108.0131723466
 10
170.0149753457
 20
108.0287352708
 10
170.0205103378
 20
108.0439638911
 10
170.0268613378
 20
108.0588582076
 10
170.0340617079
 20
108.0734789824
 10
170.0420780859
 20
108.0877654534
 10
170.0508103851
 20
108.101535334
 10
170.060240578
 20
108.1147483907
 10
170.070386692
 20
108.127444857
 10
170.0812027226
 20
108.1395631472
 10
170.0927166418
 20
108.1511259957
 10
170.1049004777
 20
108.1621106681
 10
170.1176243088
 20
108.1723873756
 10
170.1308979869
 20
108.1819431645
 10
170.1447116604
 20
108.1907909885
 10
170.1589058524
 20
108.1988399206
 10
170.1734504909
 20
108.2060688797
 10
170.188375648
 20
108.2124989468
 10
170.2036120631
 20
108.2181024378
 10
170.2192052954
 20
108.2228866084
 10
170.2351097859
 20
108.2268442029
 10
170.2511195962
 20
108.2299257698
 10
170.2671660805
 20
108.2321148254
 10
170.2833178846
 20
108.2334278533
 10
170.2995750087
 20
108.2338648537
  0
LINE
  5
2CE
100
AcDbEntity
  8
ASSI
100
AcDbLine
 62
7
  6
CONTINUOUS
 10
178.5300513672
 20
108.2495732157
 11
178.5841620685
 21
108.2766265059
  0
LWPOLYLINE
  5
2CF
100
AcDbEntity
  8
ASSI
100
AcDbPolyline
 62
250
  6
CONTINUOUS
 90
7
 70
0
 10
157.8250481767
 20
108.5220660985
 10
157.8257296836
 20
108.5222020122
 10
157.8272019854
 20
108.5223367464
 10
157.8294650819
 20
108.5224703012
 10
157.8325291449
 20
108.5226030328
 10
157.8363840026
 20
108.522734585
 10
157.8409991401
 20
108.5228638887
  0
LWPOLYLINE
  5
2D0
100
AcDbEntity
  8
ASSI
100
AcDbPolyline
 62
250
  6
CONTINUOUS
 90
5
 70
0
 10
157.6250783478
 20
108.722058392
 10
157.6261993849
 20
108.7222015424
 10
157.6286576211
 20
108.7223435212
 10
157.6324462077
 20
108.7224842801
 10
157.637554473
 20
108.7226240857
  0
LWPOLYLINE
  5
2D1
100
AcDbEntity
  8
ASSI
100
AcDbPolyline
 62
250
  6
CONTINUOUS
 90
25
 70
0
 10
167.0647491515
 20
108.7247700945
 10
167.0701899314
 20
108.7249202241
 10
167.0755839049
 20
108.725359717
 10
167.080931072
 20
108.7260885733
 10
167.0862469231
 20
108.7271105864
 10
167.0915159677
 20
108.7284219628
 10
167.0966917353
 20
108.7300113225
 10
167.1017734048
 20
108.7318811182
 10
167.1067617972
 20
108.7340288971
 10
167.1116129047
 20
108.7364359211
 10
167.1163253981
 20
108.7391044298
 10
167.1209006065
 20
108.7420321837
 10
167.1252985103
 20
108.7451937256
 10
167.1295177184
 20
108.7485912596
 10
167.1335596218
 20
108.7522225815
 10
167.1373883734
 20
108.7560556222
 10
167.1410020343
 20
108.7600922614
 10
167.1444025435
 20
108.7643306193
 10
167.1475598706
 20
108.7687329877
 10
167.1504718265
 20
108.7733009723
 10
167.1531406003
 20
108.7780329674
 10
167.1555427293
 20
108.7828864472
 10
167.1576703925
 20
108.7878472366
 10
167.159531411
 20
108.7929295107
 10
167.1611257846
 20
108.7981332695
  0
LWPOLYLINE
  5
2D2
100
AcDbEntity
  8
ASSI
100
AcDbPolyline
 62
250
  6
CONTINUOUS
 90
25
 70
0
 10
167.0647491515
 20
108.5246384525
 10
167.0810022893
 20
108.5250796772
 10
167.0972073295
 20
108.5264007666
 10
167.1133166792
 20
108.5285977842
 10
167.1292826667
 20
108.5316641403
 10
167.1450587844
 20
108.5355908155
 10
167.1605997773
 20
108.5403665839
 10
167.1758607324
 20
108.545977846
 10
167.1907959792
 20
108.552408015
 10
167.2053603877
 20
108.5596376796
 10
167.2195106498
 20
108.567645177
 10
167.2332058479
 20
108.5764071819
 10
167.2464063005
 20
108.5858982546
 10
167.2590732628
 20
108.5960905491
 10
167.2711694963
 20
108.6069541133
 10
167.2826598161
 20
108.6184574105
 10
167.2935108063
 20
108.6305671829
 10
167.3036900799
 20
108.6432474923
 10
167.3131669141
 20
108.6564600332
 10
167.3219133515
 20
108.6701655466
 10
167.3299040731
 20
108.6843240531
 10
167.3371157088
 20
108.6988938726
 10
167.3435271979
 20
108.7138321483
 10
167.3491198438
 20
108.7290949768
 10
167.3538773533
 20
108.7446375012
  0
LINE
  5
2D3
100
AcDbEntity
  8
ASSI
100
AcDbLine
 62
250
  6
CONTINUOUS
 10
157.8409991401
 20
108.5228638887
 11
157.85252281
 21
108.5231157109
  0
LINE
  5
2D4
100
AcDbEntity
  8
ASSI
100
AcDbLine
 62
250
  6
CONTINUOUS
 10
157.637554473
 20
108.7226240857
 11
157.6516723181
 21
108.7228987602
  0
LINE
  5
2D5
100
AcDbEntity
  8
ASSI
100
AcDbLine
 62
250
  6
CONTINUOUS
 10
157.85252281
 20
108.5231157109
 11
157.8752254888
 21
108.5234704656
  0
LINE
  5
2D6
100
AcDbEntity
  8
ASSI
100
AcDbLine
 62
250
  6
CONTINUOUS
 10
157.6516723181
 20
108.7228987602
 11
157.6823017035
 21
108.7232920683
  0
LINE
  5
2D7
100
AcDbEntity
  8
ASSI
100
AcDbLine
 62
250
  6
CONTINUOUS
 10
157.8752254888
 20
108.5234704656
 11
157.926079705
 21
108.5239801127
  0
LINE
  5
2D8
100
AcDbEntity
  8
ASSI
100
AcDbLine
 62
250
  6
CONTINUOUS
 10
157.6823017035
 20
108.7232920683
 11
157.7745489523
 21
108.7239775491
  0
LINE
  5
2D9
100
AcDbEntity
  8
ASSI
100
AcDbLine
 62
250
  6
CONTINUOUS
 10
157.926079705
 20
108.5239801127
 11
158.0333194949
 21
108.5245131953
  0
LINE
  5
2DA
100
AcDbEntity
  8
ASSI
100
AcDbLine
 62
250
  6
CONTINUOUS
 10
157.7745489523
 20
108.7239775491
 11
158.047657405
 21
108.7247365224
  0
LINE
  5
2DB
100
AcDbEntity
  8
ASSI
100
AcDbLine
 62
250
  6
CONTINUOUS
 10
158.0333194949
 20
108.5245131953
 11
158.1250024566
 21
108.5246384525
  0
LINE
  5
2DC
100
AcDbEntity
  8
ASSI
100
AcDbLine
 62
7
  6
CONTINUOUS
 10
179.6341620673
 20
108.4766265059
 11
178.5841620685
 21
108.4766265059
  0
LINE
  5
2DD
100
AcDbEntity
  8
ASSI
100
AcDbLine
 62
7
  6
CONTINUOUS
 10
158.7841620685
 20
108.4766265059
 11
157.7341620696
 21
108.4766265059
  0
LINE
  5
2DE
100
AcDbEntity
  8
ASSI
100
AcDbLine
 62
7
  6
CONTINUOUS
 10
178.5300513672
 20
108.503679796
 11
170.985894649
 21
108.503679796
  0
LINE
  5
2DF
100
AcDbEntity
  8
ASSI
100
AcDbLine
 62
7
  6
CONTINUOUS
 10
166.382429488
 20
108.503679796
 11
158.8382727698
 21
108.503679796
  0
LINE
  5
2E0
100
AcDbEntity
  8
ASSI
100
AcDbLine
 62
7
  6
CONTINUOUS
 10
166.3878203385
 20
108.5062978564
 11
166.7611479098
 21
108.5062978564
  0
LINE
  5
2E1
100
AcDbEntity
  8
ASSI
100
AcDbLine
 62
7
  6
CONTINUOUS
 10
170.6071762272
 20
108.5062978564
 11
170.9805037985
 21
108.5062978564
  0
LINE
  5
2E2
100
AcDbEntity
  8
ASSI
100
AcDbLine
 62
7
  6
CONTINUOUS
 10
166.8146048721
 20
108.5193881581
 11
167.0687491283
 21
108.5193881581
  0
LINE
  5
2E3
100
AcDbEntity
  8
ASSI
100
AcDbLine
 62
7
  6
CONTINUOUS
 10
170.2995750087
 20
108.5193881581
 11
170.5537192649
 21
108.5193881581
  0
LINE
  5
2E4
100
AcDbEntity
  8
ASSI
100
AcDbLine
 62
7
  6
CONTINUOUS
 10
158.1250024566
 20
108.5246384525
 11
167.0647491515
 21
108.5246384525
  0
LINE
  5
2E5
100
AcDbEntity
  8
ASSI
100
AcDbLine
 62
7
  6
CONTINUOUS
 10
170.3035749855
 20
108.5246384525
 11
179.2433216804
 21
108.5246384525
  0
LINE
  5
2E6
100
AcDbEntity
  8
ASSI
100
AcDbLine
 62
250
  6
CONTINUOUS
 10
158.047657405
 20
108.7247365224
 11
167.0647491515
 21
108.7247700945
  0
LINE
  5
2E7
100
AcDbEntity
  8
ASSI
100
AcDbLine
 62
250
  6
CONTINUOUS
 10
179.2433216804
 20
108.5246384525
 11
179.3781010984
 21
108.5243593653
  0
LINE
  5
2E8
100
AcDbEntity
  8
ASSI
100
AcDbLine
 62
250
  6
CONTINUOUS
 10
170.3035749855
 20
108.7247700945
 11
179.5550297747
 21
108.7241670768
  0
LINE
  5
2E9
100
AcDbEntity
  8
ASSI
100
AcDbLine
 62
250
  6
CONTINUOUS
 10
179.5550297747
 20
108.7241670768
 11
179.6733997269
 21
108.7234166609
  0
LINE
  5
2EA
100
AcDbEntity
  8
ASSI
100
AcDbLine
 62
250
  6
CONTINUOUS
 10
179.3781010984
 20
108.5243593653
 11
179.4643780223
 21
108.5237902983
  0
LINE
  5
2EB
100
AcDbEntity
  8
ASSI
100
AcDbLine
 62
250
  6
CONTINUOUS
 10
179.6733997269
 20
108.7234166609
 11
179.7076782064
 21
108.723032589
  0
LINE
  5
2EC
100
AcDbEntity
  8
ASSI
100
AcDbLine
 62
250
  6
CONTINUOUS
 10
179.4643780223
 20
108.5237902983
 11
179.5013789998
 21
108.5233554817
  0
LINE
  5
2ED
100
AcDbEntity
  8
ASSI
100
AcDbLine
 62
250
  6
CONTINUOUS
 10
179.5013789998
 20
108.5233554817
 11
179.5158013266
 21
108.5231157109
  0
LWPOLYLINE
  5
2EE
100
AcDbEntity
  8
ASSI
100
AcDbPolyline
 62
250
  6
CONTINUOUS
 90
7
 70
0
 10
179.7076782064
 20
108.723032589
 10
179.724355523
 20
108.722762576
 10
179.7307696636
 20
108.7226240857
 10
179.735877929
 20
108.7224842801
 10
179.7396665157
 20
108.7223435212
 10
179.742124752
 20
108.7222015425
 10
179.7432457891
 20
108.722058392
  0
LWPOLYLINE
  5
2EF
100
AcDbEntity
  8
ASSI
100
AcDbPolyline
 62
250
  6
CONTINUOUS
 90
8
 70
0
 10
179.5158013266
 20
108.5231157109
 10
179.5273249966
 20
108.5228638887
 10
179.5319401341
 20
108.522734585
 10
179.5357949919
 20
108.5226030328
 10
179.5388590549
 20
108.5224703012
 10
179.5411221515
 20
108.5223367465
 10
179.5425944533
 20
108.5222020122
 10
179.5432759603
 20
108.5220660985
  0
LWPOLYLINE
  5
2F0
100
AcDbEntity
  8
ASSI
100
AcDbPolyline
 62
7
  6
CONTINUOUS
 90
3
 70
0
 10
170.2995750087
 20
108.5193881581
 10
170.2833178846
 20
108.5198251584
 10
170.2671660805
 20
108.5211381864
  0
LWPOLYLINE
  5
2F1
100
AcDbEntity
  8
ASSI
100
AcDbPolyline
 62
7
  6
CONTINUOUS
 90
23
 70
0
 10
170.2671660805
 20
108.5211381864
 10
170.2511195962
 20
108.5233272419
 10
170.2351097859
 20
108.5264088089
 10
170.2192052954
 20
108.5303664034
 10
170.2036120631
 20
108.535150574
 10
170.188375648
 20
108.540754065
 10
170.1734504909
 20
108.5471841321
 10
170.1589058524
 20
108.5544130911
 10
170.1447116604
 20
108.5624620232
 10
170.1308979869
 20
108.5713098473
 10
170.1176243088
 20
108.5808656362
 10
170.1049004777
 20
108.5911423437
 10
170.0927166418
 20
108.6021270161
 10
170.0812027226
 20
108.6136898645
 10
170.070386692
 20
108.6258081548
 10
170.060240578
 20
108.6385046211
 10
170.0508103851
 20
108.6517176778
 10
170.0420780859
 20
108.6654875584
 10
170.0340617079
 20
108.6797740294
 10
170.0268613378
 20
108.6943948042
 10
170.0205103378
 20
108.7092891207
 10
170.0149753457
 20
108.724517741
 10
170.0102563615
 20
108.7400806651
  0
LINE
  5
2F2
100
AcDbEntity
  8
ASSI
100
AcDbLine
 62
7
  6
CONTINUOUS
 10
170.5537192649
 20
108.5193881581
 11
170.6071762272
 21
108.5062978564
  0
LWPOLYLINE
  5
2F3
100
AcDbEntity
  8
ASSI
100
AcDbPolyline
 62
250
  6
CONTINUOUS
 90
4
 70
0
 10
167.1611257846
 20
108.7981332695
 10
167.3515060615
 20
108.7453221864
 10
167.3532237266
 20
108.7448345427
 10
167.3538786936
 20
108.7446408182
  0
LWPOLYLINE
  5
2F4
100
AcDbEntity
  8
ASSI
100
AcDbPolyline
 62
250
  6
CONTINUOUS
 90
4
 70
0
 10
170.2071983524
 20
107.9551197423
 10
170.0168180754
 20
108.0079308253
 10
170.0151004104
 20
108.008418469
 10
170.0144454434
 20
108.0086121935
  0
LINE
  5
2F5
100
AcDbEntity
  8
ASSI
100
AcDbLine
 62
250
  6
CONTINUOUS
 10
167.3538773534
 20
108.7446375011
 11
167.3580677754
 21
108.7400806651
  0
LINE
  5
2F6
100
AcDbEntity
  8
ASSI
100
AcDbLine
 62
250
  6
CONTINUOUS
 10
170.3035749855
 20
108.7247700945
 11
170.3035749855
 21
108.5246384525
  0
LINE
  5
2F7
100
AcDbEntity
  8
ASSI
100
AcDbLine
 62
250
  6
CONTINUOUS
 10
170.3035749855
 20
108.0284829172
 11
170.3035749855
 21
108.2286145593
  0
LINE
  5
2F8
100
AcDbEntity
  8
ASSI
100
AcDbLine
 62
250
  6
CONTINUOUS
 10
179.3207080079
 20
130.5359392116
 11
179.2672226446
 21
130.3753526355
  0
LINE
  5
2F9
100
AcDbEntity
  8
ASSI
100
AcDbLine
 62
250
  6
CONTINUOUS
 10
179.8210878312
 20
130.0379934838
 11
179.7671461899
 21
129.8760369605
  0
LINE
  5
2FA
100
AcDbEntity
  8
ASSI
100
AcDbLine
 62
250
  6
CONTINUOUS
 10
179.6341620673
 20
108.2766265059
 11
179.5432759603
 21
108.2311869132
  0
LINE
  5
2FB
100
AcDbEntity
  8
ASSI
100
AcDbLine
 62
250
  6
CONTINUOUS
 10
179.8341620685
 20
108.0766493512
 11
179.7432457894
 21
108.0311946736
  0
LINE
  5
2FC
100
AcDbEntity
  8
ASSI
100
AcDbLine
 62
7
  6
CONTINUOUS
 10
170.9805037985
 20
108.5062978564
 11
170.985894649
 21
108.503679796
  0
LINE
  5
2FD
100
AcDbEntity
  8
ASSI
100
AcDbLine
 62
250
  6
CONTINUOUS
 10
170.0144467835
 20
108.0086155107
 11
170.0102563615
 21
108.0131723466
  0
LWPOLYLINE
  5
2FE
100
AcDbEntity
  8
ASSI
100
AcDbPolyline
 62
250
  6
CONTINUOUS
 90
25
 70
0
 10
170.2071983524
 20
108.7981332695
 10
170.208792726
 20
108.7929295107
 10
170.2106537444
 20
108.7878472366
 10
170.2127814077
 20
108.7828864473
 10
170.2151835367
 20
108.7780329674
 10
170.2178523105
 20
108.7733009723
 10
170.2207642663
 20
108.7687329877
 10
170.2239215934
 20
108.7643306193
 10
170.2273221026
 20
108.7600922614
 10
170.2309357635
 20
108.7560556222
 10
170.2347645151
 20
108.7522225815
 10
170.2388064185
 20
108.7485912596
 10
170.2430256267
 20
108.7451937256
 10
170.2474235304
 20
108.7420321837
 10
170.2519987389
 20
108.7391044298
 10
170.2567112322
 20
108.7364359211
 10
170.2615623397
 20
108.7340288971
 10
170.2665507321
 20
108.7318811182
 10
170.2716324016
 20
108.7300113225
 10
170.2768081692
 20
108.7284219628
 10
170.2820772139
 20
108.7271105864
 10
170.2873930649
 20
108.7260885733
 10
170.2927402321
 20
108.725359717
 10
170.2981342056
 20
108.7249202241
 10
170.3035749855
 20
108.7247700945
  0
LWPOLYLINE
  5
2FF
100
AcDbEntity
  8
ASSI
100
AcDbPolyline
 62
250
  6
CONTINUOUS
 90
25
 70
0
 10
170.0144468624
 20
108.7446372164
 10
170.0192043454
 20
108.7290948213
 10
170.0247969632
 20
108.7138320875
 10
170.0312084281
 20
108.6988938727
 10
170.0384200536
 20
108.6843240726
 10
170.0464107798
 20
108.6701655561
 10
170.0551572229
 20
108.6564600332
 10
170.064634057
 20
108.6432474924
 10
170.0748133306
 20
108.630567183
 10
170.0856643209
 20
108.6184574106
 10
170.0971546406
 20
108.6069541133
 10
170.1092508741
 20
108.5960905491
 10
170.1219178364
 20
108.5858982546
 10
170.135118289
 20
108.5764071819
 10
170.1488134871
 20
108.5676451771
 10
170.1629637493
 20
108.5596376796
 10
170.1775281577
 20
108.552408015
 10
170.1924634045
 20
108.545977846
 10
170.2077243597
 20
108.5403665839
 10
170.2232653525
 20
108.5355908155
 10
170.2390414701
 20
108.5316641403
 10
170.2550074576
 20
108.5285977842
 10
170.2711168073
 20
108.5264007666
 10
170.2873218476
 20
108.5250796772
 10
170.3035749855
 20
108.5246384525
  0
LINE
  5
300
100
AcDbEntity
  8
CURVE
100
AcDbLine
 62
250
  6
CONTINUOUS
 10
168.7033430685
 20
99.9645525059
 11
165.1469870685
 21
96.9726365059
  0
LWPOLYLINE
  5
301
100
AcDbEntity
  8
0
100
AcDbPolyline
 62
7
  6
CONTINUOUS
 90
10
 70
0
 43
0.3500000006
 10
186.6179124756
 20
109.4480571899
 10
186.7607748413
 20
109.5194793091
 10
186.8321969604
 20
109.5194793091
 10
186.9750593262
 20
109.3766260071
 10
186.9750593262
 20
109.3051948242
 10
186.903637207
 20
109.2337727051
 10
186.8321969604
 20
109.2337727051
 10
186.6893527222
 20
109.3051948242
 10
186.6179124756
 20
109.3766260071
 10
186.6179124756
 20
109.4480571899
  0
LINE
  5
302
100
AcDbEntity
  8
ASSI
100
AcDbLine
 62
7
  6
CONTINUOUS
 10
178.5300513672
 20
108.503679796
 11
178.5841620685
 21
108.4766265059
  0
LINE
  5
303
100
AcDbEntity
  8
ASSI
100
AcDbLine
 62
250
  6
CONTINUOUS
 10
179.2672226446
 20
86.3779003763
 11
179.3207080079
 21
86.2173138002
  0
LINE
  5
304
100
AcDbEntity
  8
ASSI
100
AcDbLine
 62
250
  6
CONTINUOUS
 10
179.7671461899
 20
86.8772160513
 11
179.8210878312
 21
86.715259528
  0
LWPOLYLINE
  5
305
100
AcDbEntity
  8
ASSI
100
AcDbPolyline
 62
250
  6
CONTINUOUS
 90
8
 70
0
 10
179.2672225427
 20
130.3753526354
 10
179.2665061875
 20
130.3708715451
 10
179.2657949667
 20
130.3638757519
 10
179.2650888805
 20
130.3543770427
 10
179.2643867699
 20
130.3423915145
 10
179.2636897938
 20
130.3279392955
 10
179.2630014288
 20
130.3110443344
 10
179.26165057
 20
130.2700425884
  0
LWPOLYLINE
  5
306
100
AcDbEntity
  8
ASSI
100
AcDbPolyline
 62
250
  6
CONTINUOUS
 90
10
 70
0
 10
179.7671461899
 20
129.8760369605
 10
179.7664300797
 20
129.8730333705
 10
179.7657190317
 20
129.8683733734
 10
179.7650130461
 20
129.8620569692
 10
179.7643109365
 20
129.8540680025
 10
179.7636138892
 20
129.8444226286
 10
179.7629254632
 20
129.8331693141
 10
179.76224571
 20
129.8202997735
 10
179.7615745781
 20
129.8058222923
 10
179.7602684632
 20
129.7722558967
  0
LINE
  5
307
100
AcDbEntity
  8
ASSI
100
AcDbLine
 62
250
  6
CONTINUOUS
 10
179.5432759603
 20
108.5220660985
 11
179.6341620673
 21
108.4766265059
  0
LINE
  5
308
100
AcDbEntity
  8
ASSI
100
AcDbLine
 62
250
  6
CONTINUOUS
 10
179.7432457894
 20
108.7220583381
 11
179.8341620685
 21
108.6766036606
  0
LWPOLYLINE
  5
309
100
AcDbEntity
  8
0
100
AcDbPolyline
 62
7
  6
CONTINUOUS
 90
3
 70
0
 43
0.3500000006
 10
186.8321969604
 20
109.5194793091
 10
187.0464995728
 20
109.4480571899
 10
187.3322061768
 20
109.3051948242
  0
LWPOLYLINE
  5
30A
100
AcDbEntity
  8
ASSI
100
AcDbPolyline
 62
250
  6
CONTINUOUS
 90
9
 70
0
 10
179.7615745781
 20
86.9474307198
 10
179.76224571
 20
86.9329532386
 10
179.7629254631
 20
86.920083698
 10
179.7636138891
 20
86.9088303834
 10
179.7643109365
 20
86.8991850095
 10
179.7650130461
 20
86.8911960427
 10
179.7657190317
 20
86.8848796385
 10
179.7664300796
 20
86.8802196413
 10
179.7671461899
 20
86.8772160513
  0
LWPOLYLINE
  5
30B
100
AcDbEntity
  8
ASSI
100
AcDbPolyline
 62
250
  6
CONTINUOUS
 90
7
 70
0
 10
179.2630014288
 20
86.4422086778
 10
179.2636897938
 20
86.4253137166
 10
179.2643867699
 20
86.4108614976
 10
179.2650888805
 20
86.3988759693
 10
179.2657949667
 20
86.38937726
 10
179.2665061874
 20
86.3823814668
 10
179.2672225427
 20
86.3779003764
  0
LINE
  5
30C
100
AcDbEntity
  8
ASSI
100
AcDbLine
 62
250
  6
CONTINUOUS
 10
179.7602684632
 20
86.9809971154
 11
179.7615745781
 21
86.9474307198
  0
LINE
  5
30D
100
AcDbEntity
  8
ASSI
100
AcDbLine
 62
250
  6
CONTINUOUS
 10
179.26165057
 20
86.4832104239
 11
179.2630014288
 21
86.4422086778
  0
LINE
  5
30E
100
AcDbEntity
  8
ASSI
100
AcDbLine
 62
250
  6
CONTINUOUS
 10
179.759013714
 20
87.0206135017
 11
179.7602684632
 21
86.9809971154
  0
LINE
  5
30F
100
AcDbEntity
  8
ASSI
100
AcDbLine
 62
250
  6
CONTINUOUS
 10
179.2603444931
 20
86.5335880963
 11
179.26165057
 21
86.4832104239
  0
LWPOLYLINE
  5
310
100
AcDbEntity
  8
ASSI
100
AcDbPolyline
 62
250
  6
CONTINUOUS
 90
3
 70
0
 10
179.7572489091
 20
87.0907312016
 10
179.7578199843
 20
87.065998551
 10
179.759013714
 20
87.0206135017
  0
LINE
  5
311
100
AcDbEntity
  8
ASSI
100
AcDbLine
 62
250
  6
CONTINUOUS
 10
179.2584853526
 20
86.6259738538
 11
179.2603444931
 21
86.5335880963
  0
LINE
  5
312
100
AcDbEntity
  8
ASSI
100
AcDbLine
 62
250
  6
CONTINUOUS
 10
179.2562376733
 20
86.7783042582
 11
179.2584853526
 21
86.6259738538
  0
LINE
  5
313
100
AcDbEntity
  8
ASSI
100
AcDbLine
 62
250
  6
CONTINUOUS
 10
179.2534835477
 20
87.0606238822
 11
179.2562376733
 21
86.7783042582
  0
LINE
  5
314
100
AcDbEntity
  8
ASSI
100
AcDbLine
 62
250
  6
CONTINUOUS
 10
179.2512076916
 20
87.5101359495
 11
179.2534835477
 21
87.0606238822
  0
LINE
  5
315
100
AcDbEntity
  8
ASSI
100
AcDbLine
 62
250
  6
CONTINUOUS
 10
179.2458907122
 20
96.2346831786
 11
179.2512076916
 21
87.5101359495
  0
LINE
  5
316
100
AcDbEntity
  8
ASSI
100
AcDbLine
 62
250
  6
CONTINUOUS
 10
179.2433216804
 20
108.2286145593
 11
179.2458907122
 21
96.2346831786
  0
LINE
  5
317
100
AcDbEntity
  8
ASSI
100
AcDbLine
 62
250
  6
CONTINUOUS
 10
179.2521304861
 20
129.4759194328
 11
179.2433216804
 21
108.5246384525
  0
LINE
  5
318
100
AcDbEntity
  8
ASSI
100
AcDbLine
 62
250
  6
CONTINUOUS
 10
179.254759343
 20
129.8410803241
 11
179.2521304861
 21
129.4759194328
  0
LINE
  5
319
100
AcDbEntity
  8
ASSI
100
AcDbLine
 62
250
  6
CONTINUOUS
 10
179.2573250637
 20
130.055079222
 11
179.254759343
 21
129.8410803241
  0
LINE
  5
31A
100
AcDbEntity
  8
ASSI
100
AcDbLine
 62
250
  6
CONTINUOUS
 10
179.2590898022
 20
130.1602517438
 11
179.2573250637
 21
130.055079222
  0
LINE
  5
31B
100
AcDbEntity
  8
ASSI
100
AcDbLine
 62
250
  6
CONTINUOUS
 10
179.2603444931
 20
130.219664916
 11
179.2590898022
 21
130.1602517438
  0
LINE
  5
31C
100
AcDbEntity
  8
ASSI
100
AcDbLine
 62
250
  6
CONTINUOUS
 10
179.7578199843
 20
129.6872544613
 11
179.7561614783
 21
129.6090802744
  0
LINE
  5
31D
100
AcDbEntity
  8
ASSI
100
AcDbLine
 62
250
  6
CONTINUOUS
 10
179.26165057
 20
130.2700425884
 11
179.2603444931
 21
130.219664916
  0
LINE
  5
31E
100
AcDbEntity
  8
ASSI
100
AcDbLine
 62
250
  6
CONTINUOUS
 10
179.759013714
 20
129.7326395105
 11
179.7578199843
 21
129.6872544613
  0
LINE
  5
31F
100
AcDbEntity
  8
ASSI
100
AcDbLine
 62
250
  6
CONTINUOUS
 10
179.7602684632
 20
129.7722558967
 11
179.759013714
 21
129.7326395105
  0
LINE
  5
320
100
AcDbEntity
  8
CURVE
100
AcDbLine
 62
250
  6
CONTINUOUS
 10
170.7585570685
 20
93.5694015059
 11
172.2624650685
 21
95.0743465059
  0
LINE
  5
321
100
AcDbEntity
  8
CURVE
100
AcDbLine
 62
250
  6
CONTINUOUS
 10
165.1473330685
 20
118.5257655059
 11
171.5075730685
 21
118.5257655059
  0
LINE
  5
322
100
AcDbEntity
  8
CURVE
100
AcDbLine
 62
250
  6
CONTINUOUS
 10
168.8015070685
 20
121.1599365059
 11
170.3054150685
 21
119.6553375059
  0
LWPOLYLINE
  5
323
100
AcDbEntity
  8
ASSI
100
AcDbPolyline
 62
250
  6
CONTINUOUS
 90
22
 70
0
 10
179.7432454993
 20
108.0311945286
 10
179.7426841748
 20
108.0461385556
 10
179.7410078916
 20
108.060999024
 10
179.7382260225
 20
108.075692844
 10
179.7343541222
 20
108.0901378578
 10
179.7294138402
 20
108.1042532983
 10
179.7234327998
 20
108.1179602408
 10
179.7164444435
 20
108.1311820453
 10
179.708487846
 20
108.1438447845
 10
179.6996074959
 20
108.1558776568
 10
179.6898530469
 20
108.1672133827
 10
179.6792790396
 20
108.1777885809
 10
179.6679445977
 20
108.1875441222
 10
179.655913096
 20
108.1964254607
 10
179.6432518071
 20
108.2043829388
 10
179.6300315249
 20
108.2113720639
 10
179.6163261685
 20
108.2173537586
 10
179.6022123691
 20
108.2222945781
 10
179.5877690419
 20
108.2261668974
 10
179.573076944
 20
108.228949066
 10
179.5582182236
 20
108.2306255289
 10
179.5432759603
 20
108.2311869132
  0
LWPOLYLINE
  5
324
100
AcDbEntity
  8
ASSI
100
AcDbPolyline
 62
250
  6
CONTINUOUS
 90
28
 70
0
 10
179.7671461899
 20
129.8760369605
 10
179.7662748465
 20
129.9050526721
 10
179.7637168311
 20
129.9339703188
 10
179.759480789
 20
129.962692166
 10
179.7535810369
 20
129.9911211411
 10
179.7460375142
 20
130.0191611614
 10
179.736875716
 20
130.0467174585
 10
179.7261266069
 20
130.073696899
 10
179.7138265159
 20
130.1000082992
 10
179.7000170141
 20
130.125562733
 10
179.6847447742
 20
130.1502738327
 10
179.6680614123
 20
130.174058081
 10
179.6500233139
 20
130.1968350929
 10
179.6306914433
 20
130.2185278877
 10
179.6101311372
 20
130.2390631491
 10
179.5884118843
 20
130.2583714729
 10
179.5656070902
 20
130.2763876017
 10
179.5417938293
 20
130.2930506452
 10
179.5170525847
 20
130.3083042865
 10
179.4914669754
 20
130.322096972
 10
179.4651234745
 20
130.3343820856
 10
179.4381111166
 20
130.3451181067
 10
179.4105211966
 20
130.35426875
 10
179.3824469618
 20
130.3618030887
 10
179.3539832961
 20
130.3676956584
 10
179.3252263998
 20
130.3719265437
 10
179.2962734639
 20
130.3744814452
 10
179.2672223423
 20
130.3753517279
  0
LINE
  5
325
100
AcDbEntity
  8
ASSI
100
AcDbLine
 62
250
  6
CONTINUOUS
 10
179.7556477345
 20
87.1727365269
 11
179.7572489091
 21
87.0907312016
  0
LINE
  5
326
100
AcDbEntity
  8
ASSI
100
AcDbLine
 62
250
  6
CONTINUOUS
 10
179.7538092568
 20
87.2983778344
 11
179.7556477345
 21
87.1727365269
  0
LINE
  5
327
100
AcDbEntity
  8
ASSI
100
AcDbLine
 62
250
  6
CONTINUOUS
 10
179.7520542177
 20
87.476853745
 11
179.7538092568
 21
87.2983778344
  0
LINE
  5
328
100
AcDbEntity
  8
ASSI
100
AcDbLine
 62
250
  6
CONTINUOUS
 10
179.750839425
 20
87.7123843082
 11
179.7520542177
 21
87.476853745
  0
LINE
  5
329
100
AcDbEntity
  8
ASSI
100
AcDbLine
 62
7
  6
CONTINUOUS
 10
179.8341620685
 20
121.4766265059
 11
179.8210878312
 21
130.0379934838
  0
LINE
  5
32A
100
AcDbEntity
  8
ASSI
100
AcDbLine
 62
250
  6
CONTINUOUS
 10
179.7451501305
 20
97.930836647
 11
179.750839425
 21
87.7123843082
  0
LINE
  5
32B
100
AcDbEntity
  8
ASSI
100
AcDbLine
 62
250
  6
CONTINUOUS
 10
179.7432457894
 20
108.0311946736
 11
179.7451501305
 21
97.930836647
  0
LINE
  5
32C
100
AcDbEntity
  8
ASSI
100
AcDbLine
 62
7
  6
CONTINUOUS
 10
179.8341620685
 20
108.0766493512
 11
179.8341620685
 21
95.2766265059
  0
LINE
  5
32D
100
AcDbEntity
  8
ASSI
100
AcDbLine
 62
7
  6
CONTINUOUS
 10
179.8341620685
 20
108.6766036606
 11
179.8341620685
 21
121.4766265059
  0
LINE
  5
32E
100
AcDbEntity
  8
ASSI
100
AcDbLine
 62
7
  6
CONTINUOUS
 10
179.8341620685
 20
95.2766265059
 11
179.8210878312
 21
86.715259528
  0
LINE
  5
32F
100
AcDbEntity
  8
ASSI
100
AcDbLine
 62
250
  6
CONTINUOUS
 10
179.7513201092
 20
129.1607740232
 11
179.7432457894
 21
108.7220583381
  0
LINE
  5
330
100
AcDbEntity
  8
ASSI
100
AcDbLine
 62
250
  6
CONTINUOUS
 10
179.7530305945
 20
129.3859820599
 11
179.7513201092
 21
129.1607740232
  0
LINE
  5
331
100
AcDbEntity
  8
ASSI
100
AcDbLine
 62
250
  6
CONTINUOUS
 10
179.7546831031
 20
129.519829109
 11
179.7530305945
 21
129.3859820599
  0
LINE
  5
332
100
AcDbEntity
  8
ASSI
100
AcDbLine
 62
250
  6
CONTINUOUS
 10
179.7561614783
 20
129.6090802744
 11
179.7546831031
 21
129.519829109
  0
LWPOLYLINE
  5
333
100
AcDbEntity
  8
ASSI
100
AcDbPolyline
 62
250
  6
CONTINUOUS
 90
28
 70
0
 10
179.7671461899
 20
86.8772160513
 10
179.766274846
 20
86.8482003303
 10
179.763716829
 20
86.8192826753
 10
179.7594807846
 20
86.7905608206
 10
179.7535810293
 20
86.7621318389
 10
179.746037503
 20
86.7340918132
 10
179.7368757009
 20
86.7065355118
 10
179.7261265875
 20
86.679556068
 10
179.7138264922
 20
86.6532446656
 10
179.7000169863
 20
86.6276902307
 10
179.6847447424
 20
86.6029791308
 10
179.6680613769
 20
86.5791948833
 10
179.6500232755
 20
86.5564178731
 10
179.6306914024
 20
86.5347250806
 10
179.6101310944
 20
86.5141898223
 10
179.5884118405
 20
86.4948815021
 10
179.5656070461
 20
86.4768653773
 10
179.5417937858
 20
86.4602023379
 10
179.5170525425
 20
86.4449487009
 10
179.4914669355
 20
86.4311560197
 10
179.4651234376
 20
86.4188709102
 10
179.4381110834
 20
86.408134893
 10
179.4105211679
 20
86.3989842531
 10
179.3824469381
 20
86.3914499174
 10
179.3539832779
 20
86.3855573501
 10
179.3252263873
 20
86.3813264666
 10
179.2962734576
 20
86.3787715662
 10
179.2672223423
 20
86.3779012839
  0
LWPOLYLINE
  5
334
100
AcDbEntity
  8
ASSI
100
AcDbPolyline
 62
250
  6
CONTINUOUS
 90
22
 70
0
 10
179.7432454993
 20
108.7220584831
 10
179.7426841766
 20
108.7071144797
 10
179.7410078984
 20
108.692254033
 10
179.7382260373
 20
108.6775602326
 10
179.7343541476
 20
108.6631152362
 10
179.7294138783
 20
108.6489998104
 10
179.7234328519
 20
108.6352928792
 10
179.7164445105
 20
108.6220710825
 10
179.7084879279
 20
108.6094083474
 10
179.6996075921
 20
108.5973754755
 10
179.6898531558
 20
108.5860397464
 10
179.6792791593
 20
108.5754645419
 10
179.6679447251
 20
108.5657089912
 10
179.6559132278
 20
108.5568276408
 10
179.6432519392
 20
108.5488701493
 10
179.6300316528
 20
108.5418810094
 10
179.6163262874
 20
108.5358992998
 10
179.602212474
 20
108.5309584661
 10
179.5877691277
 20
108.527086134
 10
179.5730770058
 20
108.5243039551
 10
179.5582182566
 20
108.5226274854
 10
179.5432759603
 20
108.5220660985
  0
LINE
  5
335
100
AcDbEntity
  8
CURVE
100
AcDbLine
 62
250
  6
CONTINUOUS
 10
168.8015070685
 20
121.1599365059
 11
172.2628100685
 21
121.1599365059
  0
LINE
  5
336
100
AcDbEntity
  8
CURVE
100
AcDbLine
 62
250
  6
CONTINUOUS
 10
171.5075730685
 20
123.6955995059
 11
168.7033430685
 21
126.0504885059
  0
LWPOLYLINE
  5
337
100
AcDbEntity
  8
0
100
AcDbPolyline
 62
7
  6
CONTINUOUS
 90
10
 70
0
 43
0.3500000006
 10
169.7555852051
 20
139.8644718018
 10
169.8270254517
 20
139.721609436
 10
169.8270254517
 20
139.6501873169
 10
169.6841630859
 20
139.5073249512
 10
169.6127409668
 20
139.5073249512
 10
169.5413007202
 20
139.5787470703
 10
169.5413007202
 20
139.6501873169
 10
169.6127409668
 20
139.7930315552
 10
169.6841630859
 20
139.8644718018
 10
169.7555852051
 20
139.8644718018
  0
LWPOLYLINE
  5
338
100
AcDbEntity
  8
0
100
AcDbPolyline
 62
7
  6
CONTINUOUS
 90
3
 70
0
 43
0.3500000006
 10
186.4750682373
 20
107.9480567322
 10
186.4750682373
 20
106.4480562744
 10
184.1179207764
 20
107.090909729
  0
LWPOLYLINE
  5
339
100
AcDbEntity
  8
0
100
AcDbPolyline
 62
7
  6
CONTINUOUS
 90
3
 70
0
 43
0.3500000006
 10
186.4750682373
 20
105.5909092712
 10
186.4750682373
 20
104.0909088135
 10
184.1179207764
 20
104.7337713318
  0
LWPOLYLINE
  5
33A
100
AcDbEntity
  8
0
100
AcDbPolyline
 62
7
  6
CONTINUOUS
 90
5
 70
0
 43
0.3500000006
 10
185.4036276855
 20
111.3766266174
 10
185.1893432007
 20
111.733773468
 10
184.5464897461
 20
111.733773468
 10
184.1179207764
 20
111.3766266174
 10
184.1179207764
 20
110.5194796143
  0
LWPOLYLINE
  5
33B
100
AcDbEntity
  8
0
100
AcDbPolyline
 62
7
  6
CONTINUOUS
 90
6
 70
0
 43
0.3500000006
 10
187.1179216919
 20
110.5194796143
 10
187.1179216919
 20
111.5909111023
 10
186.903637207
 20
111.8051955872
 10
185.8321966553
 20
111.8051955872
 10
185.4036276855
 20
111.3766266174
 10
185.4036276855
 20
110.9480576477
  0
LWPOLYLINE
  5
33C
100
AcDbEntity
  8
ASSI
100
AcDbPolyline
 62
250
  6
CONTINUOUS
 90
15
 70
0
 10
179.7506194192
 20
87.8347206494
 10
179.7492909464
 20
87.8335381275
 10
179.746312627
 20
87.8323595185
 10
179.7416943163
 20
87.8311887226
 10
179.7354512961
 20
87.8300296139
 10
179.7276042247
 20
87.8288860278
 10
179.7181790679
 20
87.8277617484
 10
179.7072070133
 20
87.826660496
 10
179.6947243675
 20
87.8255859146
 10
179.6807724353
 20
87.82454156
 10
179.6653973836
 20
87.823530888
 10
179.6486500882
 20
87.8225572428
 10
179.6305859657
 20
87.8216238462
 10
179.6112647901
 20
87.8207337869
 10
179.590750495
 20
87.81989001
  0
LINE
  5
33D
100
AcDbEntity
  8
ASSI
100
AcDbLine
 62
7
  6
CONTINUOUS
 10
176.4925870615
 20
130.5359392116
 11
176.1418970954
 21
130.5041060536
  0
LINE
  5
33E
100
AcDbEntity
  8
ASSI
100
AcDbLine
 62
7
  6
CONTINUOUS
 10
165.2925870615
 20
130.5359392116
 11
164.9418970954
 21
130.5041060536
  0
LINE
  5
33F
100
AcDbEntity
  8
ASSI
100
AcDbLine
 62
250
  6
CONTINUOUS
 10
157.7775736419
 20
128.9333630018
 11
157.821906341
 21
128.9349007025
  0
LINE
  5
340
100
AcDbEntity
  8
ASSI
100
AcDbLine
 62
250
  6
CONTINUOUS
 10
157.821906341
 20
128.9349007025
 11
157.8701499683
 21
128.9362219317
  0
LINE
  5
341
100
AcDbEntity
  8
ASSI
100
AcDbLine
 62
250
  6
CONTINUOUS
 10
157.8701499683
 20
128.9362219317
 11
157.9216665015
 21
128.9373092159
  0
LINE
  5
342
100
AcDbEntity
  8
ASSI
100
AcDbLine
 62
250
  6
CONTINUOUS
 10
157.9216665015
 20
128.9373092159
 11
157.9757746342
 21
128.9381481759
  0
LINE
  5
343
100
AcDbEntity
  8
ASSI
100
AcDbLine
 62
250
  6
CONTINUOUS
 10
157.9757746342
 20
128.9381481759
 11
158.0317587859
 21
128.9387277165
  0
LINE
  5
344
100
AcDbEntity
  8
ASSI
100
AcDbLine
 62
250
  6
CONTINUOUS
 10
158.0317587859
 20
128.9387277165
 11
158.0888785659
 21
128.9390401732
  0
LINE
  5
345
100
AcDbEntity
  8
ASSI
100
AcDbLine
 62
250
  6
CONTINUOUS
 10
158.0888785659
 20
128.9390401732
 11
179.2506955472
 21
128.9390743368
  0
LINE
  5
346
100
AcDbEntity
  8
ASSI
100
AcDbLine
 62
250
  6
CONTINUOUS
 10
158.1011014924
 20
130.3753526355
 11
179.2672226446
 21
130.3753526355
  0
LINE
  5
347
100
AcDbEntity
  8
ASSI
100
AcDbLine
 62
7
  6
CONTINUOUS
 10
175.9686920146
 20
130.4988652757
 11
172.5996321223
 21
130.4988652757
  0
LINE
  5
348
100
AcDbEntity
  8
ASSI
100
AcDbLine
 62
7
  6
CONTINUOUS
 10
164.7686920146
 20
130.4988652757
 11
161.3996321223
 21
130.4988652757
  0
LINE
  5
349
100
AcDbEntity
  8
ASSI
100
AcDbLine
 62
7
  6
CONTINUOUS
 10
179.3207080079
 20
130.5359392116
 11
176.4925870615
 21
130.5359392116
  0
LINE
  5
34A
100
AcDbEntity
  8
ASSI
100
AcDbLine
 62
7
  6
CONTINUOUS
 10
172.0757370755
 20
130.5359392116
 11
165.2925870615
 21
130.5359392116
  0
LINE
  5
34B
100
AcDbEntity
  8
ASSI
100
AcDbLine
 62
7
  6
CONTINUOUS
 10
160.8757370755
 20
130.5359392116
 11
158.0476161291
 21
130.5359392116
  0
LINE
  5
34C
100
AcDbEntity
  8
ASSI
100
AcDbLine
 62
250
  6
CONTINUOUS
 10
179.3081004615
 20
128.9389176886
 11
179.2506955717
 21
128.9390948307
  0
LINE
  5
34D
100
AcDbEntity
  8
ASSI
100
AcDbLine
 62
250
  6
CONTINUOUS
 10
179.3647461707
 20
128.9384709502
 11
179.3081004615
 21
128.9389176886
  0
LINE
  5
34E
100
AcDbEntity
  8
ASSI
100
AcDbLine
 62
250
  6
CONTINUOUS
 10
179.4198835586
 20
128.9377605237
 11
179.3647461707
 21
128.9384709502
  0
LINE
  5
34F
100
AcDbEntity
  8
ASSI
100
AcDbLine
 62
250
  6
CONTINUOUS
 10
179.4727834325
 20
128.9367958044
 11
179.4198835586
 21
128.9377605237
  0
LINE
  5
350
100
AcDbEntity
  8
ASSI
100
AcDbLine
 62
250
  6
CONTINUOUS
 10
179.5227461905
 20
128.9355895507
 11
179.4727834325
 21
128.9367958044
  0
LINE
  5
351
100
AcDbEntity
  8
ASSI
100
AcDbLine
 62
7
  6
CONTINUOUS
 10
160.8757370755
 20
130.5359392116
 11
161.2264270416
 21
130.5041060536
  0
LWPOLYLINE
  5
352
100
AcDbEntity
  8
0
100
AcDbPolyline
 62
7
  6
CONTINUOUS
 90
7
 70
0
 43
0.3500000006
 10
168.255593811
 20
139.3644625854
 10
166.7555842896
 20
139.3644625854
 10
168.255593811
 20
141.5073255615
 10
168.255593811
 20
141.9358945313
 10
167.8270248413
 20
142.364463501
 10
167.1841532593
 20
142.364463501
 10
166.7555842896
 20
141.7216100464
  0
LWPOLYLINE
  5
353
100
AcDbEntity
  8
0
100
AcDbPolyline
 62
7
  6
CONTINUOUS
 90
7
 70
0
 43
0.3500000006
 10
165.8984463501
 20
139.3644625854
 10
164.3984549561
 20
139.3644625854
 10
165.8984463501
 20
141.5073255615
 10
165.8984463501
 20
141.9358945313
 10
165.4698773804
 20
142.364463501
 10
164.8270239258
 20
142.364463501
 10
164.3984549561
 20
141.7216100464
  0
LWPOLYLINE
  5
354
100
AcDbEntity
  8
0
100
AcDbPolyline
 62
7
  6
CONTINUOUS
 90
6
 70
0
 43
0.3500000006
 10
170.8270257568
 20
139.3644625854
 10
171.8984481812
 20
139.3644625854
 10
172.112732666
 20
139.5787470703
 10
172.112732666
 20
140.6501876221
 10
171.6841636963
 20
141.0787565918
 10
171.2555947266
 20
141.0787565918
  0
LINE
  5
355
100
AcDbEntity
  8
ASSI
100
AcDbLine
 62
7
  6
CONTINUOUS
 10
172.0757370755
 20
130.5359392116
 11
172.4264270416
 21
130.5041060536
  0
LWPOLYLINE
  5
356
100
AcDbEntity
  8
ASSI
100
AcDbPolyline
 62
250
  6
CONTINUOUS
 90
17
 70
0
 10
179.7506194192
 20
128.9185323624
 10
179.7492909649
 20
128.9197148849
 10
179.7463126625
 20
128.9208934944
 10
179.7416943672
 20
128.922064291
 10
179.735451361
 20
128.9232234005
 10
179.7276043018
 20
128.9243669874
 10
179.7181791556
 20
128.9254912675
 10
179.7072071101
 20
128.9265925207
 10
179.6947244717
 20
128.9276671028
 10
179.6807725453
 20
128.9287114582
 10
179.6653974977
 20
128.9297221311
 10
179.6486502049
 20
128.9306957771
 10
179.6305860835
 20
128.9316291745
 10
179.6112649075
 20
128.9325192346
 10
179.5907506106
 20
128.9333630122
 10
179.5691110743
 20
128.9341577154
 10
179.5227461905
 20
128.9355895507
  0
LINE
  5
357
100
AcDbEntity
  8
ASSI
100
AcDbLine
 62
7
  6
CONTINUOUS
 10
119.1100718835
 20
86.3779003763
 11
122.1742462923
 21
86.2173138002
  0
LINE
  5
358
100
AcDbEntity
  8
ASSI
100
AcDbLine
 62
250
  6
CONTINUOUS
 10
117.6906535864
 20
87.8142128386
 11
117.6898278883
 21
87.8141581978
  0
LINE
  5
359
100
AcDbEntity
  8
ASSI
100
AcDbLine
 62
250
  6
CONTINUOUS
 10
117.6972478763
 20
87.8145252953
 11
117.6906535864
 21
87.8142128386
  0
LINE
  5
35A
100
AcDbEntity
  8
ASSI
100
AcDbLine
 62
250
  6
CONTINUOUS
 10
118.1806782837
 20
87.8347206494
 11
117.6972478763
 21
87.8145252953
  0
LINE
  5
35B
100
AcDbEntity
  8
ASSI
100
AcDbLine
 62
250
  6
CONTINUOUS
 10
119.1274963394
 20
86.8772160513
 11
122.2178108986
 21
86.715259528
  0
LINE
  5
35C
100
AcDbEntity
  8
ASSI
100
AcDbLine
 62
250
  6
CONTINUOUS
 10
122.5668334534
 20
90.4431349047
 11
122.5439577325
 21
90.4431348988
  0
LWPOLYLINE
  5
35D
100
AcDbEntity
  8
ASSI
100
AcDbPolyline
 62
250
  6
CONTINUOUS
 90
37
 70
0
 10
118.1806782837
 20
87.8347206494
 10
118.1832202972
 20
87.7936717554
 10
118.187421672
 20
87.752892975
 10
118.1932824081
 20
87.7123843082
 10
118.2008178973
 20
87.6720772715
 10
118.2100127478
 20
87.6320403485
 10
118.2208207843
 20
87.5924789893
 10
118.2332502864
 20
87.5533964041
 10
118.2472929744
 20
87.5147893828
 10
118.2628778334
 20
87.476853745
 10
118.2800124896
 20
87.4395934819
 10
118.2986893167
 20
87.4030046024
 10
118.3188144204
 20
87.3672709525
 10
118.3403950506
 20
87.3323967786
 10
118.3634239575
 20
87.2983778344
 10
118.3877854974
 20
87.2653852265
 10
118.4134865757
 20
87.2334239034
 10
118.440520287
 20
87.2024889166
 10
118.4687502714
 20
87.1727365269
 10
118.4981826344
 20
87.144172738
 10
118.5288112706
 20
87.1167915461
 10
118.5604815039
 20
87.0907312016
 10
118.5931983804
 20
87.065998551
 10
118.626956854
 20
87.0425867476
 10
118.6615871101
 20
87.0206135017
 10
118.6970934843
 20
87.0000860299
 10
118.7334716411
 20
86.9809971154
 10
118.7705387599
 20
86.963442819
 10
118.8082989157
 20
86.9474307198
 10
118.8467480335
 20
86.9329532386
 10
118.885691067
 20
86.920083698
 10
118.9251309662
 20
86.9088303834
 10
118.9650647812
 20
86.8991850095
 10
119.0052886156
 20
86.8911960427
 10
119.0457345041
 20
86.8848796385
 10
119.086470412
 20
86.8802196413
 10
119.1274963394
 20
86.8772160513
  0
LWPOLYLINE
  5
35E
100
AcDbEntity
  8
ASSI
100
AcDbPolyline
 62
250
  6
CONTINUOUS
 90
13
 70
0
 10
117.758243314
 20
108.0311946736
 10
117.7622385372
 20
106.3475556212
 10
117.7719089799
 20
104.6640149879
 10
117.7872546419
 20
102.9805727739
 10
117.8082764262
 20
101.2972224738
 10
117.83497343
 20
99.613970593
 10
117.8673429442
 20
97.930836647
 10
117.9053840305
 20
96.2478207703
 10
117.9490976273
 20
94.5649228285
 10
117.9984838404
 20
92.8821619342
 10
118.0535427052
 20
91.1995444584
 10
118.1142741863
 20
89.5170640301
 10
118.1806782837
 20
87.8347206494
  0
LINE
  5
35F
100
AcDbEntity
  8
ASSI
100
AcDbLine
 62
250
  6
CONTINUOUS
 10
117.7578675036
 20
108.0901378578
 11
117.7578219307
 21
108.1311820453
  0
LINE
  5
360
100
AcDbEntity
  8
ASSI
100
AcDbLine
 62
250
  6
CONTINUOUS
 10
117.7578305538
 20
108.6489998104
 11
117.7578503082
 21
108.6094083474
  0
LINE
  5
361
100
AcDbEntity
  8
ASSI
100
AcDbLine
 62
250
  6
CONTINUOUS
 10
117.7578219307
 20
108.1311820453
 11
117.7579716444
 21
108.1672133827
  0
LWPOLYLINE
  5
362
100
AcDbEntity
  8
ASSI
100
AcDbPolyline
 62
250
  6
CONTINUOUS
 90
3
 70
0
 10
117.7582266953
 20
108.7220584831
 10
117.7581060789
 20
108.7071144797
 10
117.7578305538
 20
108.6489998104
  0
LINE
  5
363
100
AcDbEntity
  8
ASSI
100
AcDbLine
 62
250
  6
CONTINUOUS
 10
117.7579716444
 20
108.1672133827
 11
117.7581766341
 21
108.1875441222
  0
LWPOLYLINE
  5
364
100
AcDbEntity
  8
ASSI
100
AcDbPolyline
 62
250
  6
CONTINUOUS
 90
9
 70
0
 10
117.7581766341
 20
108.1875441222
 10
117.7584606984
 20
108.2043829388
 10
117.7586304662
 20
108.2113720639
 10
117.7588174927
 20
108.2173537586
 10
117.7590207322
 20
108.2222945781
 10
117.7592390484
 20
108.2261668974
 10
117.7594712204
 20
108.228949066
 10
117.7597159503
 20
108.2306255289
 10
117.7599718695
 20
108.2311869132
  0
LWPOLYLINE
  5
365
100
AcDbEntity
  8
ASSI
100
AcDbPolyline
 62
250
  6
CONTINUOUS
 90
13
 70
0
 10
118.1806782837
 20
128.9185323624
 10
118.1142741863
 20
127.2361889817
 10
118.0535427052
 20
125.5537085534
 10
117.9984838404
 20
123.8710910776
 10
117.9490976273
 20
122.1883301833
 10
117.9053840305
 20
120.5054322415
 10
117.8673429442
 20
118.8224163648
 10
117.83497343
 20
117.1392824188
 10
117.8082764262
 20
115.456030538
 10
117.7872546419
 20
113.7726802379
 10
117.7719089799
 20
112.0892380238
 10
117.7622385372
 20
110.4056973906
 10
117.758243314
 20
108.7220583381
  0
LWPOLYLINE
  5
366
100
AcDbEntity
  8
ASSI
100
AcDbPolyline
 62
250
  6
CONTINUOUS
 90
8
 70
0
 10
117.7584606977
 20
108.5488701493
 10
117.7586304654
 20
108.5418810094
 10
117.7588174918
 20
108.5358992998
 10
117.7590207313
 20
108.5309584661
 10
117.7592390476
 20
108.527086134
 10
117.7594712198
 20
108.5243039551
 10
117.7597159499
 20
108.5226274854
 10
117.7599718695
 20
108.5220660985
  0
LINE
  5
367
100
AcDbEntity
  8
ASSI
100
AcDbLine
 62
250
  6
CONTINUOUS
 10
117.7581766339
 20
108.5657089912
 11
117.7584606977
 21
108.5488701493
  0
LINE
  5
368
100
AcDbEntity
  8
ASSI
100
AcDbLine
 62
250
  6
CONTINUOUS
 10
117.7579716446
 20
108.5860397464
 11
117.7581766339
 21
108.5657089912
  0
LINE
  5
369
100
AcDbEntity
  8
ASSI
100
AcDbLine
 62
250
  6
CONTINUOUS
 10
117.7578503082
 20
108.6094083474
 11
117.7579716446
 21
108.5860397464
  0
LINE
  5
36A
100
AcDbEntity
  8
ASSI
100
AcDbLine
 62
250
  6
CONTINUOUS
 10
117.7582266953
 20
108.0311945286
 11
117.7578675036
 21
108.0901378578
  0
LWPOLYLINE
  5
36B
100
AcDbEntity
  8
ASSI
100
AcDbPolyline
 62
250
  6
CONTINUOUS
 90
9
 70
0
 10
119.108931323
 20
86.4311560197
 10
119.1087473152
 20
86.4188709102
 10
119.1086561668
 20
86.408134893
 10
119.1086581858
 20
86.3989842531
 10
119.1087533655
 20
86.3914499174
 10
119.1089413842
 20
86.3855573501
 10
119.1092216064
 20
86.3813264666
 10
119.109593085
 20
86.3787715662
 10
119.1100545645
 20
86.3779012839
  0
LINE
  5
36C
100
AcDbEntity
  8
ASSI
100
AcDbLine
 62
250
  6
CONTINUOUS
 10
119.1274963394
 20
129.8760369605
 11
119.1203639708
 21
130.0191611614
  0
LINE
  5
36D
100
AcDbEntity
  8
ASSI
100
AcDbLine
 62
250
  6
CONTINUOUS
 10
119.1203639708
 20
130.0191611614
 11
119.1155909913
 21
130.125562733
  0
LINE
  5
36E
100
AcDbEntity
  8
ASSI
100
AcDbLine
 62
250
  6
CONTINUOUS
 10
119.1155909913
 20
130.125562733
 11
119.1127284084
 21
130.1968350929
  0
LINE
  5
36F
100
AcDbEntity
  8
ASSI
100
AcDbLine
 62
250
  6
CONTINUOUS
 10
119.1127284084
 20
130.1968350929
 11
119.1105788549
 21
130.2583714729
  0
LINE
  5
370
100
AcDbEntity
  8
ASSI
100
AcDbLine
 62
250
  6
CONTINUOUS
 10
119.1105788549
 20
130.2583714729
 11
119.1095751177
 21
130.2930506452
  0
LWPOLYLINE
  5
371
100
AcDbEntity
  8
ASSI
100
AcDbPolyline
 62
250
  6
CONTINUOUS
 90
10
 70
0
 10
119.1095751177
 20
130.2930506452
 10
119.1089313228
 20
130.322096972
 10
119.1087473148
 20
130.3343820856
 10
119.1086561663
 20
130.3451181067
 10
119.1086581853
 20
130.35426875
 10
119.1087533651
 20
130.3618030887
 10
119.1089413838
 20
130.3676956584
 10
119.109221606
 20
130.3719265437
 10
119.1095930848
 20
130.3744814452
 10
119.1100545645
 20
130.3753517279
  0
LINE
  5
372
100
AcDbEntity
  8
ASSI
100
AcDbLine
 62
250
  6
CONTINUOUS
 10
119.1095751176
 20
86.4602023379
 11
119.108931323
 21
86.4311560197
  0
LINE
  5
373
100
AcDbEntity
  8
ASSI
100
AcDbLine
 62
250
  6
CONTINUOUS
 10
119.1105788544
 20
86.4948815021
 11
119.1095751176
 21
86.4602023379
  0
LINE
  5
374
100
AcDbEntity
  8
ASSI
100
AcDbLine
 62
250
  6
CONTINUOUS
 10
119.1127284074
 20
86.5564178731
 11
119.1105788544
 21
86.4948815021
  0
LINE
  5
375
100
AcDbEntity
  8
ASSI
100
AcDbLine
 62
250
  6
CONTINUOUS
 10
119.1155909899
 20
86.6276902307
 11
119.1127284074
 21
86.5564178731
  0
LINE
  5
376
100
AcDbEntity
  8
ASSI
100
AcDbLine
 62
250
  6
CONTINUOUS
 10
119.1203639694
 20
86.7340918132
 11
119.1155909899
 21
86.6276902307
  0
LINE
  5
377
100
AcDbEntity
  8
ASSI
100
AcDbLine
 62
250
  6
CONTINUOUS
 10
119.1274963394
 20
86.8772160513
 11
119.1203639694
 21
86.7340918132
  0
LWPOLYLINE
  5
378
100
AcDbEntity
  8
0
100
AcDbPolyline
 62
7
  6
CONTINUOUS
 90
3
 70
0
 43
0.3500000006
 10
131.0740090027
 20
139.6865328369
 10
131.0025868835
 20
139.4722483521
 10
130.8597245178
 20
139.1865236206
  0
LINE
  5
379
100
AcDbEntity
  8
ASSI
100
AcDbLine
 62
7
  6
CONTINUOUS
 10
122.5668334534
 20
126.3101181071
 11
122.5668334534
 21
126.048647427
  0
LINE
  5
37A
100
AcDbEntity
  8
ASSI
100
AcDbLine
 62
7
  6
CONTINUOUS
 10
122.5668334534
 20
90.7046055848
 11
122.5668334534
 21
90.4431349047
  0
LINE
  5
37B
100
AcDbEntity
  8
ASSI
100
AcDbLine
 62
7
  6
CONTINUOUS
 10
122.9668334534
 20
121.4766265059
 11
122.1742462923
 21
130.5359392116
  0
LINE
  5
37C
100
AcDbEntity
  8
ASSI
100
AcDbLine
 62
7
  6
CONTINUOUS
 10
122.9668334534
 20
108.2766265059
 11
122.9668334534
 21
95.2766265059
  0
LINE
  5
37D
100
AcDbEntity
  8
ASSI
100
AcDbLine
 62
7
  6
CONTINUOUS
 10
122.9668334534
 20
108.4766265059
 11
122.9668334534
 21
121.4766265059
  0
LINE
  5
37E
100
AcDbEntity
  8
ASSI
100
AcDbLine
 62
7
  6
CONTINUOUS
 10
122.9668334534
 20
95.2766265059
 11
122.1742462923
 21
86.2173138002
  0
LINE
  5
37F
100
AcDbEntity
  8
ASSI
100
AcDbLine
 62
250
  6
CONTINUOUS
 10
122.9668334534
 20
108.0766493512
 11
117.2669546601
 21
108.0284829092
  0
LINE
  5
380
100
AcDbEntity
  8
ASSI
100
AcDbLine
 62
7
  6
CONTINUOUS
 10
122.9668334534
 20
108.2766265059
 11
117.465209303
 21
108.2286145593
  0
LINE
  5
381
100
AcDbEntity
  8
ASSI
100
AcDbLine
 62
7
  6
CONTINUOUS
 10
117.465209303
 20
108.5246384525
 11
122.9668334534
 21
108.4766265059
  0
LINE
  5
382
100
AcDbEntity
  8
ASSI
100
AcDbLine
 62
250
  6
CONTINUOUS
 10
117.2669546601
 20
108.7247701025
 11
122.9668334534
 21
108.6766036606
  0
LWPOLYLINE
  5
383
100
AcDbEntity
  8
0
100
AcDbPolyline
 62
7
  6
CONTINUOUS
 90
4
 70
0
 43
0.3500000006
 10
132.0740093079
 20
141.7579555664
 10
132.0740093079
 20
142.400809021
 10
133.5740097656
 20
142.400809021
 10
132.7168718262
 20
139.4008081055
  0
LINE
  5
384
100
AcDbEntity
  8
ASSI
100
AcDbLine
 62
250
  6
CONTINUOUS
 10
122.5668334534
 20
126.3101181071
 11
122.5439577331
 21
126.3101181071
  0
LWPOLYLINE
  5
385
100
AcDbEntity
  8
ASSI
100
AcDbPolyline
 62
250
  6
CONTINUOUS
 90
37
 70
0
 10
119.1274963394
 20
129.8760369605
 10
119.0864704125
 20
129.8730333705
 10
119.0457345048
 20
129.8683733734
 10
119.0052886166
 20
129.8620569692
 10
118.9650647822
 20
129.8540680025
 10
118.9251309671
 20
129.8444226286
 10
118.8856910678
 20
129.8331693141
 10
118.8467480343
 20
129.8202997735
 10
118.8082989165
 20
129.8058222923
 10
118.7705387607
 20
129.7898101931
 10
118.7334716419
 20
129.7722558967
 10
118.6970934851
 20
129.7531669823
 10
118.6615871109
 20
129.7326395105
 10
118.6269568547
 20
129.7106662646
 10
118.5931983811
 20
129.6872544613
 10
118.5604815046
 20
129.6625218107
 10
118.5288112713
 20
129.6364614662
 10
118.4981826351
 20
129.6090802744
 10
118.468750272
 20
129.5805164854
 10
118.4405202875
 20
129.5507640958
 10
118.4134865762
 20
129.519829109
 10
118.3877854979
 20
129.4878677859
 10
118.363423958
 20
129.454875178
 10
118.3403950511
 20
129.4208562338
 10
118.3188144208
 20
129.3859820599
 10
118.298689317
 20
129.35024841
 10
118.2800124899
 20
129.3136595305
 10
118.2628778337
 20
129.2763992674
 10
118.2472929747
 20
129.2384636296
 10
118.2332502866
 20
129.1998566083
 10
118.2208207845
 20
129.1607740232
 10
118.210012748
 20
129.121212664
 10
118.2008178975
 20
129.081175741
 10
118.1932824082
 20
129.0408687043
 10
118.1874216721
 20
129.0003600373
 10
118.1832202973
 20
128.9595812567
 10
118.1806782837
 20
128.9185323624
  0
LINE
  5
386
100
AcDbEntity
  8
ASSI
100
AcDbLine
 62
250
  6
CONTINUOUS
 10
122.2178108986
 20
130.0379934838
 11
119.1274963394
 21
129.8760369605
  0
LINE
  5
387
100
AcDbEntity
  8
ASSI
100
AcDbLine
 62
7
  6
CONTINUOUS
 10
122.1742462923
 20
130.5359392116
 11
119.1100718843
 21
130.3753526355
  0
LWPOLYLINE
  5
388
100
AcDbEntity
  8
0
100
AcDbPolyline
 62
7
  6
CONTINUOUS
 90
8
 70
0
 43
0.3500000006
 10
128.2168704529
 20
139.4008081055
 10
129.0740083923
 20
139.4008081055
 10
129.5025864258
 20
139.8293770752
 10
129.5025864258
 20
140.6865331421
 10
129.0740083923
 20
141.1151021118
 10
128.2168704529
 20
141.1151021118
 10
128.2168704529
 20
142.400809021
 10
129.5025864258
 20
142.400809021
  0
LWPOLYLINE
  5
389
100
AcDbEntity
  8
ASSI
100
AcDbPolyline
 62
250
  6
CONTINUOUS
 90
4
 70
0
 10
118.1806782837
 20
128.9185323624
 10
117.6931292439
 20
128.9389176886
 10
117.6906531805
 20
128.9390401898
 10
117.6898274812
 20
128.9390948307
  0
LWPOLYLINE
  5
38A
100
AcDbEntity
  8
0
100
AcDbPolyline
 62
7
  6
CONTINUOUS
 90
10
 70
0
 43
0.3500000006
 10
131.0025868835
 20
139.9008173218
 10
131.0740090027
 20
139.7579549561
 10
131.0740090027
 20
139.6865328369
 10
130.9311557007
 20
139.5436704712
 10
130.8597245178
 20
139.5436704712
 10
130.788293335
 20
139.6150925903
 10
130.788293335
 20
139.6865328369
 10
130.8597245178
 20
139.8293770752
 10
130.9311557007
 20
139.9008173218
 10
131.0025868835
 20
139.9008173218
  0
ARC
  5
38B
100
AcDbEntity
  8
ASSI
100
AcDbCircle
 62
7
  6
CONTINUOUS
 10
168.6841620685
 20
108.3766265059
 40
1.375
100
AcDbArc
 50
15.3271627815
 51
164.6728372185
  0
ARC
  5
38C
100
AcDbEntity
  8
ASSI
100
AcDbCircle
 62
7
  6
CONTINUOUS
 10
168.6841620685
 20
108.3766265059
 40
1.375
100
AcDbArc
 50
195.3271627815
 51
344.6728372185
  0
ARC
  5
38D
100
AcDbEntity
  8
ASSI
100
AcDbCircle
 62
7
  6
CONTINUOUS
 10
119.1885584989
 20
87.875845586
 40
1.5
100
AcDbArc
 50
182.3561664986
 51
267.000662446
  0
ARC
  5
38E
100
AcDbEntity
  8
ASSI
100
AcDbCircle
 62
7
  6
CONTINUOUS
 10
122.2668334534
 20
90.4431349047
 40
0.3
100
AcDbArc
 50
335.0
 51
360.0
  0
ARC
  5
38F
100
AcDbEntity
  8
ASSI
100
AcDbCircle
 62
7
  6
CONTINUOUS
 10
117.4669551207
 20
108.0286221791
 40
0.2
100
AcDbArc
 50
90.5001462858
 51
180.0398957513
  0
ARC
  5
390
100
AcDbEntity
  8
ASSI
100
AcDbCircle
 62
7
  6
CONTINUOUS
 10
119.1885584989
 20
128.8774074257
 40
1.5
100
AcDbArc
 50
92.999337554
 51
177.6438335014
  0
ARC
  5
391
100
AcDbEntity
  8
ASSI
100
AcDbCircle
 62
7
  6
CONTINUOUS
 10
122.2668334534
 20
126.3101181071
 40
0.3
100
AcDbArc
 50
0.0
 51
25.0
  0
ARC
  5
392
100
AcDbEntity
  8
ASSI
100
AcDbCircle
 62
7
  6
CONTINUOUS
 10
117.4669551207
 20
108.7246308326
 40
0.2
100
AcDbArc
 50
179.9601042487
 51
269.4998537142
  0
ARC
  5
393
100
AcDbEntity
  8
ASSI
100
AcDbCircle
 62
7
  6
CONTINUOUS
 10
617.2668334534
 20
108.3766265059
 40
500.0
100
AcDbArc
 50
177.6430523596
 51
179.9601056801
  0
ARC
  5
394
100
AcDbEntity
  8
ASSI
100
AcDbCircle
 62
7
  6
CONTINUOUS
 10
617.2668334534
 20
108.3766265059
 40
500.0
100
AcDbArc
 50
180.0398943199
 51
182.3569476403
  0
ELLIPSE
  5
395
100
AcDbEntity
  8
ASSI
100
AcDbEllipse
 62
7
  6
CONTINUOUS
 10
175.9686920146
 20
130.5093468315
 30
0.0
 11
0.2
 21
-0.0
 31
0.0
 40
0.0524077793
 41
-1.5707963268
 42
-0.5235987756
  0
ELLIPSE
  5
396
100
AcDbEntity
  8
ASSI
100
AcDbEllipse
 62
7
  6
CONTINUOUS
 10
172.5996321223
 20
130.5093468315
 30
0.0
 11
0.2
 21
0.0
 31
0.0
 40
0.0524077793
 41
-2.617993878
 42
-1.5707963268
  0
ELLIPSE
  5
397
100
AcDbEntity
  8
ASSI
100
AcDbEllipse
 62
7
  6
CONTINUOUS
 10
164.7686920146
 20
130.5093468315
 30
0.0
 11
0.2
 21
0.0
 31
0.0
 40
0.0524077793
 41
-1.5707963268
 42
-0.5235987756
  0
ELLIPSE
  5
398
100
AcDbEntity
  8
ASSI
100
AcDbEllipse
 62
7
  6
CONTINUOUS
 10
161.3996321223
 20
130.5093468315
 30
0.0
 11
0.2
 21
0.0
 31
0.0
 40
0.0524077793
 41
-2.617993878
 42
-1.5707963268
  0
ELLIPSE
  5
399
100
AcDbEntity
  8
ASSI
100
AcDbEllipse
 62
7
  6
CONTINUOUS
 10
157.7341925341
 20
108.6766341216
 30
0.0
 11
0.1789222233
 21
0.0894542984
 31
0.0
 40
0.9998096356
 41
2.6780516535
 42
4.2486956813
  0
ELLIPSE
  5
39A
100
AcDbEntity
  8
ASSI
100
AcDbEllipse
 62
7
  6
CONTINUOUS
 10
179.6341316029
 20
108.6766341216
 30
0.0
 11
0.1789222233
 21
-0.0894542984
 31
0.0
 40
0.9998096356
 41
-1.1071030277
 42
0.4635410001
  0
ELLIPSE
  5
39B
100
AcDbEntity
  8
ASSI
100
AcDbEllipse
 62
7
  6
CONTINUOUS
 10
158.0473117746
 20
130.0375382502
 30
0.0
 11
0.498078285
 21
0.0448076117
 31
0.0
 40
0.9965957691
 41
1.4807720384
 42
3.0506549766
  0
ELLIPSE
  5
39C
100
AcDbEntity
  8
ASSI
100
AcDbEllipse
 62
7
  6
CONTINUOUS
 10
179.3210123623
 20
130.0375382502
 30
0.0
 11
0.498078285
 21
-0.0448076117
 31
0.0
 40
0.9965957691
 41
0.090937677
 42
1.6608206152
  0
ELLIPSE
  5
39D
100
AcDbEntity
  8
ASSI
100
AcDbEllipse
 62
7
  6
CONTINUOUS
 10
161.3996321223
 20
86.2439061802
 30
0.0
 11
0.2
 21
0.0
 31
0.0
 40
0.0524077793
 41
1.5707963268
 42
2.617993878
  0
ELLIPSE
  5
39E
100
AcDbEntity
  8
ASSI
100
AcDbEllipse
 62
7
  6
CONTINUOUS
 10
164.7686920146
 20
86.2439061802
 30
0.0
 11
0.2
 21
0.0
 31
0.0
 40
0.0524077793
 41
0.5235987756
 42
1.5707963268
  0
ELLIPSE
  5
39F
100
AcDbEntity
  8
ASSI
100
AcDbEllipse
 62
7
  6
CONTINUOUS
 10
172.5996321223
 20
86.2439061802
 30
0.0
 11
0.2
 21
0.0
 31
0.0
 40
0.0524077793
 41
1.5707963268
 42
2.617993878
  0
ELLIPSE
  5
3A0
100
AcDbEntity
  8
ASSI
100
AcDbEllipse
 62
7
  6
CONTINUOUS
 10
175.9686920146
 20
86.2439061802
 30
0.0
 11
0.2
 21
-0.0
 31
0.0
 40
0.0524077793
 41
0.5235987756
 42
1.5707963268
  0
ELLIPSE
  5
3A1
100
AcDbEntity
  8
ASSI
100
AcDbEllipse
 62
7
  6
CONTINUOUS
 10
179.6341316029
 20
108.0766188902
 30
0.0
 11
0.1789222233
 21
0.0894542984
 31
0.0
 40
0.9998096356
 41
-0.4635410001
 42
1.1071030277
  0
ELLIPSE
  5
3A2
100
AcDbEntity
  8
ASSI
100
AcDbEllipse
 62
7
  6
CONTINUOUS
 10
157.7341925341
 20
108.0766188902
 30
0.0
 11
0.1789222233
 21
-0.0894542984
 31
0.0
 40
0.9998096356
 41
2.0344896259
 42
3.6051336537
  0
ELLIPSE
  5
3A3
100
AcDbEntity
  8
ASSI
100
AcDbEllipse
 62
7
  6
CONTINUOUS
 10
179.3210123623
 20
86.7157147616
 30
0.0
 11
0.498078285
 21
0.0448076117
 31
0.0
 40
0.9965957691
 41
-1.6608206152
 42
-0.0909376769
  0
ELLIPSE
  5
3A4
100
AcDbEntity
  8
ASSI
100
AcDbEllipse
 62
7
  6
CONTINUOUS
 10
158.0473117746
 20
86.7157147616
 30
0.0
 11
0.498078285
 21
-0.0448076117
 31
0.0
 40
0.9965957691
 41
-3.0506549766
 42
-1.4807720384
  0
ENDSEC
  0
SECTION
  2
OBJECTS
  0
DICTIONARY
  5
C
100
AcDbDictionary
280
0
281
1
  3
ACAD_GROUP
350
D
  3
ACAD_MLINESTYLE
350
17
  3
ACAD_LAYOUT
350
1A
  3
ACAD_PLOTSETTINGS
350
19
  3
ACAD_PLOTSTYLENAME
350
E
  0
DICTIONARY
  5
D
102
{ACAD_REACTORS
330
C
102
}
100
AcDbDictionary
280
0
281
1
  0
ACDBDICTIONARYWDFLT
  5
E
102
{ACAD_REACTORS
330
C
102
}
100
AcDbDictionary
281
1
  3
Normal
350
F
100
AcDbDictionaryWithDefault
340
F
  0
DICTIONARY
  5
17
102
{ACAD_REACTORS
330
C
102
}
100
AcDbDictionary
280
0
281
1
  3
Standard
350
18
  0
DICTIONARY
  5
19
102
{ACAD_REACTORS
330
C
102
}
100
AcDbDictionary
281
1
  0
DICTIONARY
  5
1A
102
{ACAD_REACTORS
330
C
102
}
100
AcDbDictionary
281
1
  3
Model
350
3A5
  3
Layout1
350
3A6
  0
ACDBPLACEHOLDER
  5
F
102
{ACAD_REACTORS
330
E
102
}
  0
MLINESTYLE
  5
18
102
{ACAD_REACTORS
330
17
102
}
100
AcDbMlineStyle
  2
STANDARD
 70
0
  3

 62
256
 51
90.0
 52
90.0
 71
2
 49
0.5
 62
256
  6
BYLAYER
 49
-0.5
 62
256
  6
BYLAYER
  0
LAYOUT
  5
3A5
102
{ACAD_REACTORS
330
1A
102
}
100
AcDbPlotSettings
  1

  2
none_device
  4
ISO_A4_(297.00_x_210.00_MM)
  6

 40
0.0
 41
0.0
 42
0.0
 43
0.0
 44
297.0
 45
210.0
 46
0.0
 47
0.0
 48
0.0
 49
0.0
140
0.0
141
0.0
142
1.0
143
1.0
 70
1024
 72
1
 73
0
 74
0
  7

 75
0
147
1.0
148
0.0
149
0.0
100
AcDbLayout
  1
Model
 70
0
 71
0
 10
0.0
 20
0.0
 11
297.0
 21
210.0
 12
0.0
 22
0.0
 32
0.0
 14
0.0
 24
0.0
 34
0.0
 15
0.0
 25
0.0
 35
0.0
146
0.0
 13
0.0
 23
0.0
 33
0.0
 16
1.0
 26
0.0
 36
0.0
 17
0.0
 27
1.0
 37
0.0
 76
0
330
216
345
0
346
0
  0
LAYOUT
  5
3A6
102
{ACAD_REACTORS
330
1A
102
}
100
AcDbPlotSettings
  1

  2
none_device
  4
ISO_A4_(297.00_x_210.00_MM)
  6

 40
0.0
 41
0.0
 42
0.0
 43
0.0
 44
297.0
 45
210.0
 46
0.0
 47
0.0
 48
0.0
 49
0.0
140
0.0
141
0.0
142
1.0
143
1.0
 70
0
 72
1
 73
0
 74
0
  7

 75
0
147
1.0
148
0.0
149
0.0
100
AcDbLayout
  1
Layout1
 70
0
 71
1
 10
0.0
 20
0.0
 11
297.0
 21
210.0
 12
0.0
 22
0.0
 32
0.0
 14
0.0
 24
0.0
 34
0.0
 15
0.0
 25
0.0
 35
0.0
146
0.0
 13
0.0
 23
0.0
 33
0.0
 16
1.0
 26
0.0
 36
0.0
 17
0.0
 27
1.0
 37
0.0
 76
0
330
217
345
0
346
0
  0
ENDSEC
  0
EOF
